  0
SECTION
  2
HEADER
  9
$ACADVER
  1
AC1018
  9
$ACADMAINTVER
 70
   104
  9
$DWGCODEPAGE
  3
ANSI_932
  9
$LASTSAVEDBY
  1
CPTIO008
  9
$INSBASE
 10
0.0
 20
0.0
 30
0.0
  9
$EXTMIN
 10
-138.1609110921536
 20
-94.50425821123735
 30
-0.0000000000000057
  9
$EXTMAX
 10
138.5114954521404
 20
95.03278920838647
 30
0.0000000000000104
  9
$LIMMIN
 10
-1115.687934875488
 20
-544.503345489502
  9
$LIMMAX
 10
1284.312461853027
 20
435.4966545104979
  9
$ORTHOMODE
 70
     1
  9
$REGENMODE
 70
     1
  9
$FILLMODE
 70
     1
  9
$QTEXTMODE
 70
     0
  9
$MIRRTEXT
 70
     1
  9
$LTSCALE
 40
0.3
  9
$ATTMODE
 70
     1
  9
$TEXTSIZE
 40
2.5
  9
$TRACEWID
 40
1.0
  9
$TEXTSTYLE
  7
Standard
  9
$CLAYER
  8
寸法線
  9
$CELTYPE
  6
ByLayer
  9
$CECOLOR
 62
   256
  9
$CELTSCALE
 40
1.0
  9
$DISPSILH
 70
     0
  9
$DIMSCALE
 40
1.0
  9
$DIMASZ
 40
2.5
  9
$DIMEXO
 40
0.625
  9
$DIMDLI
 40
3.75
  9
$DIMRND
 40
0.0
  9
$DIMDLE
 40
0.0
  9
$DIMEXE
 40
1.25
  9
$DIMTP
 40
0.0
  9
$DIMTM
 40
0.0
  9
$DIMTXT
 40
2.5
  9
$DIMCEN
 40
2.5
  9
$DIMTSZ
 40
0.0
  9
$DIMTOL
 70
     0
  9
$DIMLIM
 70
     0
  9
$DIMTIH
 70
     0
  9
$DIMTOH
 70
     0
  9
$DIMSE1
 70
     0
  9
$DIMSE2
 70
     0
  9
$DIMTAD
 70
     1
  9
$DIMZIN
 70
     8
  9
$DIMBLK
  1

  9
$DIMASO
 70
     1
  9
$DIMSHO
 70
     1
  9
$DIMPOST
  1

  9
$DIMAPOST
  1

  9
$DIMALT
 70
     0
  9
$DIMALTD
 70
     3
  9
$DIMALTF
 40
0.03937007874016
  9
$DIMLFAC
 40
1.0
  9
$DIMTOFL
 70
     1
  9
$DIMTVP
 40
0.0
  9
$DIMTIX
 70
     0
  9
$DIMSOXD
 70
     0
  9
$DIMSAH
 70
     0
  9
$DIMBLK1
  1

  9
$DIMBLK2
  1

  9
$DIMSTYLE
  2
ISO-25
  9
$DIMCLRD
 70
     0
  9
$DIMCLRE
 70
     0
  9
$DIMCLRT
 70
     0
  9
$DIMTFAC
 40
1.0
  9
$DIMGAP
 40
0.625
  9
$DIMJUST
 70
     0
  9
$DIMSD1
 70
     0
  9
$DIMSD2
 70
     0
  9
$DIMTOLJ
 70
     0
  9
$DIMTZIN
 70
     8
  9
$DIMALTZ
 70
     0
  9
$DIMALTTZ
 70
     0
  9
$DIMUPT
 70
     0
  9
$DIMDEC
 70
     2
  9
$DIMTDEC
 70
     2
  9
$DIMALTU
 70
     2
  9
$DIMALTTD
 70
     3
  9
$DIMTXSTY
  7
Standard
  9
$DIMAUNIT
 70
     0
  9
$DIMADEC
 70
     0
  9
$DIMALTRND
 40
0.0
  9
$DIMAZIN
 70
     0
  9
$DIMDSEP
 70
    44
  9
$DIMATFIT
 70
     3
  9
$DIMFRAC
 70
     0
  9
$DIMLDRBLK
  1

  9
$DIMLUNIT
 70
     2
  9
$DIMLWD
 70
    -2
  9
$DIMLWE
 70
    -2
  9
$DIMTMOVE
 70
     0
  9
$LUNITS
 70
     2
  9
$LUPREC
 70
     4
  9
$SKETCHINC
 40
1.0
  9
$FILLETRAD
 40
10.0
  9
$AUNITS
 70
     0
  9
$AUPREC
 70
     0
  9
$MENU
  1
.
  9
$ELEVATION
 40
0.0
  9
$PELEVATION
 40
0.0
  9
$THICKNESS
 40
0.0
  9
$LIMCHECK
 70
     0
  9
$CHAMFERA
 40
10.0
  9
$CHAMFERB
 40
10.0
  9
$CHAMFERC
 40
20.0
  9
$CHAMFERD
 40
0.0
  9
$SKPOLY
 70
     0
  9
$TDCREATE
 40
2454600.645681783
  9
$TDUCREATE
 40
2454600.270681783
  9
$TDUPDATE
 40
2457450.476658785
  9
$TDUUPDATE
 40
2457450.101658785
  9
$TDINDWG
 40
0.0304198032
  9
$TDUSRTIMER
 40
0.0304130440
  9
$USRTIMER
 70
     1
  9
$ANGBASE
 50
0.0
  9
$ANGDIR
 70
     0
  9
$PDMODE
 70
     0
  9
$PDSIZE
 40
0.0
  9
$PLINEWID
 40
0.0
  9
$SPLFRAME
 70
     0
  9
$SPLINETYPE
 70
     6
  9
$SPLINESEGS
 70
     8
  9
$HANDSEED
  5
A16
  9
$SURFTAB1
 70
     6
  9
$SURFTAB2
 70
     6
  9
$SURFTYPE
 70
     6
  9
$SURFU
 70
     6
  9
$SURFV
 70
     6
  9
$UCSBASE
  2

  9
$UCSNAME
  2

  9
$UCSORG
 10
0.0
 20
0.0
 30
0.0
  9
$UCSXDIR
 10
1.0
 20
0.0
 30
0.0
  9
$UCSYDIR
 10
0.0
 20
1.0
 30
0.0
  9
$UCSORTHOREF
  2

  9
$UCSORTHOVIEW
 70
     0
  9
$UCSORGTOP
 10
0.0
 20
0.0
 30
0.0
  9
$UCSORGBOTTOM
 10
0.0
 20
0.0
 30
0.0
  9
$UCSORGLEFT
 10
0.0
 20
0.0
 30
0.0
  9
$UCSORGRIGHT
 10
0.0
 20
0.0
 30
0.0
  9
$UCSORGFRONT
 10
0.0
 20
0.0
 30
0.0
  9
$UCSORGBACK
 10
0.0
 20
0.0
 30
0.0
  9
$PUCSBASE
  2

  9
$PUCSNAME
  2

  9
$PUCSORG
 10
0.0
 20
0.0
 30
0.0
  9
$PUCSXDIR
 10
1.0
 20
0.0
 30
0.0
  9
$PUCSYDIR
 10
0.0
 20
1.0
 30
0.0
  9
$PUCSORTHOREF
  2

  9
$PUCSORTHOVIEW
 70
     0
  9
$PUCSORGTOP
 10
0.0
 20
0.0
 30
0.0
  9
$PUCSORGBOTTOM
 10
0.0
 20
0.0
 30
0.0
  9
$PUCSORGLEFT
 10
0.0
 20
0.0
 30
0.0
  9
$PUCSORGRIGHT
 10
0.0
 20
0.0
 30
0.0
  9
$PUCSORGFRONT
 10
0.0
 20
0.0
 30
0.0
  9
$PUCSORGBACK
 10
0.0
 20
0.0
 30
0.0
  9
$USERI1
 70
     0
  9
$USERI2
 70
     0
  9
$USERI3
 70
     0
  9
$USERI4
 70
     0
  9
$USERI5
 70
     0
  9
$USERR1
 40
0.0
  9
$USERR2
 40
0.0
  9
$USERR3
 40
0.0
  9
$USERR4
 40
0.0
  9
$USERR5
 40
0.0
  9
$WORLDVIEW
 70
     1
  9
$SHADEDGE
 70
     3
  9
$SHADEDIF
 70
    70
  9
$TILEMODE
 70
     1
  9
$MAXACTVP
 70
    64
  9
$PINSBASE
 10
0.0
 20
0.0
 30
0.0
  9
$PLIMCHECK
 70
     0
  9
$PEXTMIN
 10
1.000000000000000E+20
 20
1.000000000000000E+20
 30
1.000000000000000E+20
  9
$PEXTMAX
 10
-1.000000000000000E+20
 20
-1.000000000000000E+20
 30
-1.000000000000000E+20
  9
$PLIMMIN
 10
-1115.687934875488
 20
-544.503345489502
  9
$PLIMMAX
 10
1284.312461853027
 20
435.4966545104979
  9
$UNITMODE
 70
     0
  9
$VISRETAIN
 70
     1
  9
$PLINEGEN
 70
     0
  9
$PSLTSCALE
 70
     1
  9
$TREEDEPTH
 70
  3020
  9
$CMLSTYLE
  2
Standard
  9
$CMLJUST
 70
     0
  9
$CMLSCALE
 40
20.0
  9
$PROXYGRAPHICS
 70
     1
  9
$MEASUREMENT
 70
     1
  9
$CELWEIGHT
370
    -1
  9
$ENDCAPS
280
     0
  9
$JOINSTYLE
280
     0
  9
$LWDISPLAY
290
     1
  9
$INSUNITS
 70
     4
  9
$HYPERLINKBASE
  1

  9
$STYLESHEET
  1
monochrome.ctb
  9
$XEDIT
290
     1
  9
$CEPSNTYPE
380
     0
  9
$PSTYLEMODE
290
     1
  9
$FINGERPRINTGUID
  2
{3AF58446-0E52-4483-B8EE-2EF15ACA2F46}
  9
$VERSIONGUID
  2
{67B6F571-38C8-4EB2-B902-0464B99B8D01}
  9
$EXTNAMES
290
     1
  9
$PSVPSCALE
 40
0.0
  9
$OLESTARTUP
290
     0
  9
$SORTENTS
280
   127
  9
$INDEXCTL
280
     0
  9
$HIDETEXT
280
     0
  9
$XCLIPFRAME
290
     0
  9
$HALOGAP
280
     0
  9
$OBSCOLOR
 70
   257
  9
$OBSLTYPE
280
     0
  9
$INTERSECTIONDISPLAY
280
     0
  9
$INTERSECTIONCOLOR
 70
   257
  9
$DIMASSOC
280
     1
  9
$PROJECTNAME
  1

  0
ENDSEC
  0
SECTION
  2
CLASSES
  0
CLASS
  1
ACDBDICTIONARYWDFLT
  2
AcDbDictionaryWithDefault
  3
ObjectDBX Classes
 90
        0
 91
        1
280
     0
281
     0
  0
CLASS
  1
TABLESTYLE
  2
AcDbTableStyle
  3
ObjectDBX Classes
 90
     4095
 91
        1
280
     0
281
     0
  0
CLASS
  1
DICTIONARYVAR
  2
AcDbDictionaryVar
  3
ObjectDBX Classes
 90
        0
 91
       12
280
     0
281
     0
  0
CLASS
  1
SORTENTSTABLE
  2
AcDbSortentsTable
  3
ObjectDBX Classes
 90
        0
 91
        1
280
     0
281
     0
  0
CLASS
  1
MATERIAL
  2
AcDbMaterial
  3
ObjectDBX Classes
 90
     1153
 91
        3
280
     0
281
     0
  0
CLASS
  1
VISUALSTYLE
  2
AcDbVisualStyle
  3
ObjectDBX Classes
 90
     4095
 91
       24
280
     0
281
     0
  0
CLASS
  1
SCALE
  2
AcDbScale
  3
ObjectDBX Classes
 90
     1153
 91
       17
280
     0
281
     0
  0
CLASS
  1
MLEADERSTYLE
  2
AcDbMLeaderStyle
  3
ACDB_MLEADERSTYLE_CLASS
 90
     4095
 91
        1
280
     0
281
     0
  0
CLASS
  1
ACDBSECTIONVIEWSTYLE
  2
AcDbSectionViewStyle
  3
ObjectDBX Classes
 90
     1025
 91
        1
280
     0
281
     0
  0
CLASS
  1
ACDBDETAILVIEWSTYLE
  2
AcDbDetailViewStyle
  3
ObjectDBX Classes
 90
     1025
 91
        1
280
     0
281
     0
  0
CLASS
  1
PLOTSETTINGS
  2
AcDbPlotSettings
  3
ObjectDBX Classes
 90
        0
 91
        1
280
     0
281
     0
  0
CLASS
  1
CELLSTYLEMAP
  2
AcDbCellStyleMap
  3
ObjectDBX Classes
 90
     1152
 91
        1
280
     0
281
     0
  0
ENDSEC
  0
SECTION
  2
TABLES
  0
TABLE
  2
VPORT
  5
8
330
0
100
AcDbSymbolTable
 70
     1
  0
VPORT
  5
8C3
330
8
100
AcDbSymbolTableRecord
100
AcDbViewportTableRecord
  2
*Active
 70
     0
 10
0.0
 20
0.0
 11
1.0
 21
1.0
 12
-16.10577656300648
 22
7.98982761434425
 13
0.0
 23
0.0
 14
10.0
 24
10.0
 15
10.0
 25
10.0
 16
0.0
 26
0.0
 36
1.0
 17
0.0
 27
0.0
 37
0.0
 40
318.203062944032
 41
2.047557840616966
 42
50.0
 43
0.0
 44
0.0
 50
0.0
 51
0.0
 71
     0
 72
   100
 73
     1
 74
     3
 75
     0
 76
     0
 77
     0
 78
     0
281
     0
 65
     1
110
0.0
120
0.0
130
0.0
111
1.0
121
0.0
131
0.0
112
0.0
122
1.0
132
0.0
 79
     0
146
0.0
1001
ACAD_NAV_VCDISPLAY
1070
     3
  0
ENDTAB
  0
TABLE
  2
LTYPE
  5
5
330
0
100
AcDbSymbolTable
 70
     8
  0
LTYPE
  5
14
330
5
100
AcDbSymbolTableRecord
100
AcDbLinetypeTableRecord
  2
ByBlock
 70
     0
  3

 72
    65
 73
     0
 40
0.0
  0
LTYPE
  5
15
330
5
100
AcDbSymbolTableRecord
100
AcDbLinetypeTableRecord
  2
ByLayer
 70
     0
  3

 72
    65
 73
     0
 40
0.0
  0
LTYPE
  5
16
330
5
100
AcDbSymbolTableRecord
100
AcDbLinetypeTableRecord
  2
Continuous
 70
     0
  3
Solid line
 72
    65
 73
     0
 40
0.0
  0
LTYPE
  5
2A
330
5
100
AcDbSymbolTableRecord
100
AcDbLinetypeTableRecord
  2
CONTINOUS
 70
     0
  3
______________________________
 72
    65
 73
     0
 40
0.0
  0
LTYPE
  5
2B
330
5
100
AcDbSymbolTableRecord
100
AcDbLinetypeTableRecord
  2
DASHED
 70
     0
  3
__ __ __ __ __ __ __ __ __ __ __ __ __ __ __ __
 72
    65
 73
     2
 40
4.5
 49
3.0
 74
     0
 49
-1.5
 74
     0
  0
LTYPE
  5
2C
330
5
100
AcDbSymbolTableRecord
100
AcDbLinetypeTableRecord
  2
PHANTOM
 70
     0
  3
______  __  __  ______  __  __  _____
 72
    65
 73
     6
 40
15.0
 49
7.5
 74
     0
 49
-1.5
 74
     0
 49
1.5
 74
     0
 49
-1.5
 74
     0
 49
1.5
 74
     0
 49
-1.5
 74
     0
  0
LTYPE
  5
2D
330
5
100
AcDbSymbolTableRecord
100
AcDbLinetypeTableRecord
  2
CENTER
 70
     0
  3
____ _ ____ _ ____ _ ____ _ ____ _ ____
 72
    65
 73
     4
 40
12.0
 49
7.5
 74
     0
 49
-1.5
 74
     0
 49
1.5
 74
     0
 49
-1.5
 74
     0
  0
LTYPE
  5
256
330
5
100
AcDbSymbolTableRecord
100
AcDbLinetypeTableRecord
  2
CENTER2
 70
     0
  3
Center (.5x) ___ _ ___ _ ___ _ ___ _ ___ _ ___
 72
    65
 73
     4
 40
28.575
 49
19.05
 74
     0
 49
-3.174999999999998
 74
     0
 49
3.174999999999998
 74
     0
 49
-3.174999999999998
 74
     0
  0
LTYPE
  5
257
330
5
100
AcDbSymbolTableRecord
100
AcDbLinetypeTableRecord
  2
HIDDEN2
 70
     0
  3
Hidden (.5x) _ _ _ _ _ _ _ _ _ _ _ _ _ _ _ _ _
 72
    65
 73
     2
 40
4.762499999999998
 49
3.174999999999998
 74
     0
 49
-1.587499999999999
 74
     0
  0
ENDTAB
  0
TABLE
  2
LAYER
  5
2
102
{ACAD_XDICTIONARY
360
9AB
102
}
330
0
100
AcDbSymbolTable
 70
    11
  0
LAYER
  5
10
102
{ACAD_XDICTIONARY
360
938
102
}
330
2
100
AcDbSymbolTableRecord
100
AcDbLayerTableRecord
  2
0
 70
     0
 62
     7
  6
Continuous
370
    -3
390
F
  0
LAYER
  5
1EF
330
2
100
AcDbSymbolTableRecord
100
AcDbLayerTableRecord
  2
Defpoints
 70
     0
 62
     7
  6
Continuous
290
     0
370
    -3
390
F
  0
LAYER
  5
238
102
{ACAD_XDICTIONARY
360
93A
102
}
330
2
100
AcDbSymbolTableRecord
100
AcDbLayerTableRecord
  2
VIEW0001
 70
     0
 62
     7
  6
Continuous
370
    -3
390
F
  0
LAYER
  5
258
102
{ACAD_XDICTIONARY
360
93C
102
}
330
2
100
AcDbSymbolTableRecord
100
AcDbLayerTableRecord
  2
外形線
 70
     0
 62
     7
  6
Continuous
370
    30
390
F
1001
AcAecLayerStandard
1000

1000

  0
LAYER
  5
259
102
{ACAD_XDICTIONARY
360
93E
102
}
330
2
100
AcDbSymbolTableRecord
100
AcDbLayerTableRecord
  2
図枠
 70
     0
 62
     7
  6
Continuous
370
    50
390
F
1001
AcAecLayerStandard
1000

1000

  0
LAYER
  5
25A
102
{ACAD_XDICTIONARY
360
940
102
}
330
2
100
AcDbSymbolTableRecord
100
AcDbLayerTableRecord
  2
寸法線
 70
     0
 62
     3
  6
Continuous
370
    15
390
F
1001
AcAecLayerStandard
1000

1000

  0
LAYER
  5
25B
102
{ACAD_XDICTIONARY
360
942
102
}
330
2
100
AcDbSymbolTableRecord
100
AcDbLayerTableRecord
  2
中心線
 70
     0
 62
     5
  6
CENTER2
370
    -3
390
F
1001
AcAecLayerStandard
1000

1000

  0
LAYER
  5
25C
102
{ACAD_XDICTIONARY
360
944
102
}
330
2
100
AcDbSymbolTableRecord
100
AcDbLayerTableRecord
  2
破線
 70
     0
 62
     4
  6
HIDDEN2
370
    -3
390
F
1001
AcAecLayerStandard
1000

1000

  0
LAYER
  5
25D
102
{ACAD_XDICTIONARY
360
946
102
}
330
2
100
AcDbSymbolTableRecord
100
AcDbLayerTableRecord
  2
文字
 70
     0
 62
     2
  6
Continuous
370
    -3
390
F
1001
AcAecLayerStandard
1000

1000

  0
LAYER
  5
25E
102
{ACAD_XDICTIONARY
360
948
102
}
330
2
100
AcDbSymbolTableRecord
100
AcDbLayerTableRecord
  2
補助線
 70
     0
 62
   252
  6
HIDDEN2
290
     0
370
    -3
390
F
1001
AcAecLayerStandard
1000

1000

  0
LAYER
  5
28A
102
{ACAD_XDICTIONARY
360
94A
102
}
330
2
100
AcDbSymbolTableRecord
100
AcDbLayerTableRecord
  2
VIEW0002
 70
     0
 62
     7
  6
Continuous
370
    -3
390
F
  0
ENDTAB
  0
TABLE
  2
STYLE
  5
3
330
0
100
AcDbSymbolTable
 70
     3
  0
STYLE
  5
11
330
3
100
AcDbSymbolTableRecord
100
AcDbTextStyleTableRecord
  2
Standard
 70
     0
 40
0.0
 41
1.0
 50
0.0
 71
     0
 42
2.5
  3
txt
  4
EXTFONT
  0
ENDTAB
  0
TABLE
  2
VIEW
  5
6
330
0
100
AcDbSymbolTable
 70
     1
  0
ENDTAB
  0
TABLE
  2
UCS
  5
7
330
0
100
AcDbSymbolTable
 70
     0
  0
ENDTAB
  0
TABLE
  2
APPID
  5
9
330
0
100
AcDbSymbolTable
 70
     6
  0
APPID
  5
12
330
9
100
AcDbSymbolTableRecord
100
AcDbRegAppTableRecord
  2
ACAD
 70
     0
  0
APPID
  5
260
330
9
100
AcDbSymbolTableRecord
100
AcDbRegAppTableRecord
  2
AcAecLayerStandard
 70
     0
  0
APPID
  5
895
330
9
100
AcDbSymbolTableRecord
100
AcDbRegAppTableRecord
  2
ACAD_PSEXT
 70
     0
  0
APPID
  5
92F
330
9
100
AcDbSymbolTableRecord
100
AcDbRegAppTableRecord
  2
ACAD_NAV_VCDISPLAY
 70
     0
  0
APPID
  5
9A1
330
9
100
AcDbSymbolTableRecord
100
AcDbRegAppTableRecord
  2
ACAD_EXEMPT_FROM_CAD_STANDARDS
 70
     0
  0
APPID
  5
A11
330
9
100
AcDbSymbolTableRecord
100
AcDbRegAppTableRecord
  2
ACAD_MLEADERVER
 70
     0
  0
ENDTAB
  0
TABLE
  2
DIMSTYLE
  5
A
330
0
100
AcDbSymbolTable
 70
     5
100
AcDbDimStyleTable
 71
     1
340
27
  0
DIMSTYLE
105
27
102
{ACAD_REACTORS
330
698
330
699
330
69A
330
69B
330
69C
330
69D
102
}
330
A
100
AcDbSymbolTableRecord
100
AcDbDimStyleTableRecord
  2
ISO-25
 70
     0
 41
2.5
 42
0.625
 43
3.75
 44
1.25
 73
     0
 74
     0
 77
     1
 78
     8
140
2.5
141
2.5
143
0.03937007874016
147
0.625
171
     3
172
     1
271
     2
272
     2
274
     3
278
    44
283
     0
284
     8
340
11
  0
DIMSTYLE
105
25F
330
A
100
AcDbSymbolTableRecord
100
AcDbDimStyleTableRecord
  2
Standard
 70
     0
340
11
  0
DIMSTYLE
105
92E
330
A
100
AcDbSymbolTableRecord
100
AcDbDimStyleTableRecord
  2
DIMSTYLE
 70
     0
 41
1.0
 42
2.539999961853026
 44
2.54
 73
     0
 74
     0
140
3.200000047683716
147
1.600000023841858
173
     1
271
     2
275
     1
340
11
341
1E9
342
1E9
343
1E9
344
1E9
  0
ENDTAB
  0
TABLE
  2
BLOCK_RECORD
  5
1
330
0
100
AcDbSymbolTable
 70
    21
  0
BLOCK_RECORD
  5
1F
102
{ACAD_XDICTIONARY
360
253
102
}
330
1
100
AcDbSymbolTableRecord
100
AcDbBlockTableRecord
  2
*Model_Space
340
22
  0
BLOCK_RECORD
  5
1B
330
1
100
AcDbSymbolTableRecord
100
AcDbBlockTableRecord
  2
*Paper_Space
340
1E
  0
BLOCK_RECORD
  5
23
330
1
100
AcDbSymbolTableRecord
100
AcDbBlockTableRecord
  2
*Paper_Space0
340
26
  0
BLOCK_RECORD
  5
1E9
330
1
100
AcDbSymbolTableRecord
100
AcDbBlockTableRecord
  2
_Open30
340
0
102
{BLKREFS
331
7FA
331
7FB
331
803
331
804
331
80C
331
80D
331
81F
331
820
331
8D2
331
8D3
331
8DC
331
8DD
102
}
  0
BLOCK_RECORD
  5
69E
330
1
100
AcDbSymbolTableRecord
100
AcDbBlockTableRecord
  2
*D13
340
0
  0
BLOCK_RECORD
  5
6AA
330
1
100
AcDbSymbolTableRecord
100
AcDbBlockTableRecord
  2
*D14
340
0
  0
BLOCK_RECORD
  5
6B6
330
1
100
AcDbSymbolTableRecord
100
AcDbBlockTableRecord
  2
*D15
340
0
  0
BLOCK_RECORD
  5
6C2
330
1
100
AcDbSymbolTableRecord
100
AcDbBlockTableRecord
  2
*D16
340
0
  0
BLOCK_RECORD
  5
6CF
330
1
100
AcDbSymbolTableRecord
100
AcDbBlockTableRecord
  2
*D17
340
0
  0
BLOCK_RECORD
  5
6DB
330
1
100
AcDbSymbolTableRecord
100
AcDbBlockTableRecord
  2
*D18
340
0
  0
ENDTAB
  0
ENDSEC
  0
SECTION
  2
BLOCKS
  0
BLOCK
  5
20
330
1F
100
AcDbEntity
  8
0
100
AcDbBlockBegin
  2
*Model_Space
 70
     0
 10
0.0
 20
0.0
 30
0.0
  3
*Model_Space
  1

  0
ENDBLK
  5
21
330
1F
100
AcDbEntity
  8
0
100
AcDbBlockEnd
  0
BLOCK
  5
1C
330
1B
100
AcDbEntity
 67
     1
  8
0
100
AcDbBlockBegin
  2
*Paper_Space
 70
     0
 10
0.0
 20
0.0
 30
0.0
  3
*Paper_Space
  1

  0
ENDBLK
  5
1D
330
1B
100
AcDbEntity
 67
     1
  8
0
100
AcDbBlockEnd
  0
BLOCK
  5
24
330
23
100
AcDbEntity
 67
     1
  8
0
100
AcDbBlockBegin
  2
*Paper_Space0
 70
     0
 10
0.0
 20
0.0
 30
0.0
  3
*Paper_Space0
  1

  0
ENDBLK
  5
25
330
23
100
AcDbEntity
 67
     1
  8
0
100
AcDbBlockEnd
  0
BLOCK
  5
1EA
330
1E9
100
AcDbEntity
  8
0
100
AcDbBlockBegin
  2
_Open30
 70
     0
 10
0.0
 20
0.0
 30
0.0
  3
_Open30
  1

  0
LINE
  5
1EC
330
1E9
100
AcDbEntity
  8
0
  6
ByBlock
 62
     0
370
    -2
100
AcDbLine
 10
-1.0
 20
0.267949
 30
0.0
 11
0.0
 21
0.0
 31
0.0
  0
LINE
  5
1ED
330
1E9
100
AcDbEntity
  8
0
  6
ByBlock
 62
     0
370
    -2
100
AcDbLine
 10
0.0
 20
0.0
 30
0.0
 11
-1.0
 21
-0.267949
 31
0.0
  0
LINE
  5
1EE
330
1E9
100
AcDbEntity
  8
0
  6
ByBlock
 62
     0
370
    -2
100
AcDbLine
 10
0.0
 20
0.0
 30
0.0
 11
-1.0
 21
0.0
 31
0.0
  0
ENDBLK
  5
1EB
330
1E9
100
AcDbEntity
  8
0
100
AcDbBlockEnd
  0
BLOCK
  5
6A8
330
69E
100
AcDbEntity
  8
0
100
AcDbBlockBegin
  2
*D13
 70
     1
 10
0.0
 20
0.0
 30
0.0
  3
*D13
  1

  0
LINE
  5
7F7
330
69E
100
AcDbEntity
  8
寸法線
 62
     0
440
 16777216
370
    -2
100
AcDbLine
 10
-49.19259938819635
 20
43.59682197818832
 30
0.0
 11
-5.941861805488959
 21
43.59682197818831
 31
0.0
  0
LINE
  5
7F8
330
69E
100
AcDbEntity
  8
寸法線
 62
     0
440
 16777216
370
    -2
100
AcDbLine
 10
-49.1925936661504
 20
-18.00518684139175
 30
0.0
 11
-5.941861805488972
 21
-18.00518684139176
 31
0.0
  0
LINE
  5
7F9
330
69E
100
AcDbEntity
  8
寸法線
 62
     0
440
 16777216
370
    -2
100
AcDbLine
 10
-8.227861805488961
 20
40.59682197818831
 30
0.0
 11
-8.227861805488974
 21
-15.00518684139176
 31
0.0
  0
INSERT
  5
7FA
330
69E
100
AcDbEntity
  8
寸法線
 62
     0
440
 16777216
370
    -2
100
AcDbBlockReference
  2
_Open30
 10
-8.227861805488961
 20
43.59682197818831
 30
0.0
 41
3.0
 42
3.0
 43
3.0
 50
90.0
  0
INSERT
  5
7FB
330
69E
100
AcDbEntity
  8
寸法線
 62
     0
440
 16777216
370
    -2
100
AcDbBlockReference
  2
_Open30
 10
-8.227861805488974
 20
-18.00518684139175
 30
0.0
 41
3.0
 42
3.0
 43
3.0
 50
270.0
  0
MTEXT
  5
7FC
330
69E
100
AcDbEntity
  8
寸法線
 62
     0
440
 16777216
100
AcDbMText
 10
-10.62786184125176
 20
12.79581756839829
 30
0.0
 40
3.200000047683716
 41
0.0
 71
     5
 72
     1
  1
L1
 11
0.0000000000000001
 21
1.0
 31
0.0
 73
     1
 44
1.0
  0
POINT
  5
7FD
330
69E
100
AcDbEntity
  8
Defpoints
 62
     0
440
 16777216
100
AcDbPoint
 10
-51.73259938819636
 20
43.59682197818832
 30
0.0
  0
POINT
  5
7FE
330
69E
100
AcDbEntity
  8
Defpoints
 62
     0
440
 16777216
100
AcDbPoint
 10
-51.73259366615042
 20
-18.00518684139175
 30
0.0
  0
POINT
  5
7FF
330
69E
100
AcDbEntity
  8
Defpoints
 62
     0
440
 16777216
100
AcDbPoint
 10
-8.227861805488974
 20
-18.00518684139175
 30
0.0
  0
ENDBLK
  5
6A9
330
69E
100
AcDbEntity
  8
0
100
AcDbBlockEnd
  0
BLOCK
  5
6B4
330
6AA
100
AcDbEntity
  8
0
100
AcDbBlockBegin
  2
*D14
 70
     1
 10
0.0
 20
0.0
 30
0.0
  3
*D14
  1

  0
LINE
  5
800
330
6AA
100
AcDbEntity
  8
寸法線
 62
     0
440
 16777216
370
    -2
100
AcDbLine
 10
-51.73259366615042
 20
-20.54519447078628
 30
0.0
 11
-51.73259366615042
 21
-33.23817089074649
 31
0.0
  0
LINE
  5
801
330
6AA
100
AcDbEntity
  8
寸法線
 62
     0
440
 16777216
370
    -2
100
AcDbLine
 10
-75.9385873184942
 20
-19.82046302547377
 30
0.0
 11
-75.9385873184942
 21
-33.23817089074649
 31
0.0
  0
LINE
  5
802
330
6AA
100
AcDbEntity
  8
寸法線
 62
     0
440
 16777216
370
    -2
100
AcDbLine
 10
-54.73259366615041
 20
-30.95217089074649
 30
0.0
 11
-72.93858731849423
 21
-30.95217089074649
 31
0.0
  0
INSERT
  5
803
330
6AA
100
AcDbEntity
  8
寸法線
 62
     0
440
 16777216
370
    -2
100
AcDbBlockReference
  2
_Open30
 10
-51.73259366615042
 20
-30.95217089074649
 30
0.0
 41
3.0
 42
3.0
 43
3.0
  0
INSERT
  5
804
330
6AA
100
AcDbEntity
  8
寸法線
 62
     0
440
 16777216
370
    -2
100
AcDbBlockReference
  2
_Open30
 10
-75.9385873184942
 20
-30.95217089074649
 30
0.0
 41
3.0
 42
3.0
 43
3.0
 50
180.0
  0
MTEXT
  5
805
102
{ACAD_XDICTIONARY
360
9DC
102
}
330
6AA
100
AcDbEntity
  8
寸法線
 62
     0
440
 16777216
100
AcDbMText
 10
-64.07114353436104
 20
-28.5521708549837
 30
0.0
 40
3.200000047683716
 41
0.0
 71
     5
 72
     1
  1
\U+2205A
 73
     1
 44
1.0
  0
POINT
  5
806
330
6AA
100
AcDbEntity
  8
Defpoints
 62
     0
440
 16777216
100
AcDbPoint
 10
-51.73259366615042
 20
-18.00519447078628
 30
0.0
  0
POINT
  5
807
330
6AA
100
AcDbEntity
  8
Defpoints
 62
     0
440
 16777216
100
AcDbPoint
 10
-75.9385873184942
 20
-17.28046302547378
 30
0.0
  0
POINT
  5
808
330
6AA
100
AcDbEntity
  8
Defpoints
 62
     0
440
 16777216
100
AcDbPoint
 10
-75.9385873184942
 20
-30.95217089074649
 30
0.0
  0
ENDBLK
  5
6B5
330
6AA
100
AcDbEntity
  8
0
100
AcDbBlockEnd
  0
BLOCK
  5
6C0
330
6B6
100
AcDbEntity
  8
0
100
AcDbBlockBegin
  2
*D15
 70
     1
 10
0.0
 20
0.0
 30
0.0
  3
*D15
  1

  0
LINE
  5
809
330
6B6
100
AcDbEntity
  8
寸法線
 62
     0
440
 16777216
370
    -2
100
AcDbLine
 10
-93.98702897274516
 20
25.04654204613157
 30
0.0
 11
-111.9189492478846
 21
6.939641330973862
 31
0.0
  0
LINE
  5
80A
330
6B6
100
AcDbEntity
  8
寸法線
 62
     0
440
 16777216
370
    -2
100
AcDbLine
 10
-64.65883039694204
 20
-3.01609923974674
 30
0.0
 11
-83.08179607356711
 21
-21.61883699828353
 31
0.0
  0
LINE
  5
80B
330
6B6
100
AcDbEntity
  8
寸法線
 62
     0
440
 16777216
370
    -2
100
AcDbLine
 10
-108.1787755561139
 20
6.452920923156675
 30
0.0
 11
-83.60481224746397
 21
-17.88356591282776
 31
0.0
  0
INSERT
  5
80C
330
6B6
100
AcDbEntity
  8
寸法線
 62
     0
440
 16777216
370
    -2
100
AcDbBlockReference
  2
_Open30
 10
-110.3103704889477
 20
8.563916669793151
 30
0.0
 41
3.0
 42
3.0
 43
3.0
 50
135.2781878444881
  0
INSERT
  5
80D
330
6B6
100
AcDbEntity
  8
寸法線
 62
     0
440
 16777216
370
    -2
100
AcDbBlockReference
  2
_Open30
 10
-81.47321731463017
 20
-19.99456165946423
 30
0.0
 41
3.0
 42
3.0
 43
3.0
 50
315.2781878444882
  0
MTEXT
  5
80E
330
6B6
100
AcDbEntity
  8
寸法線
 62
     0
440
 16777216
100
AcDbMText
 10
-94.20299725905346
 20
-4.010046543223381
 30
0.0
 40
3.200000047683716
 41
0.0
 71
     5
 72
     1
  1
L2
 11
0.7105316442779316
 21
-0.7036652488788252
 31
0.0
 73
     1
 44
1.0
  0
POINT
  5
80F
330
6B6
100
AcDbEntity
  8
Defpoints
 62
     0
440
 16777216
100
AcDbPoint
 10
-92.19971924059294
 20
26.85129242259752
 30
0.0
  0
POINT
  5
810
330
6B6
100
AcDbEntity
  8
Defpoints
 62
     0
440
 16777216
100
AcDbPoint
 10
-62.87152066478983
 20
-1.2113488632808
 30
0.0
  0
POINT
  5
811
330
6B6
100
AcDbEntity
  8
Defpoints
 62
     0
440
 16777216
100
AcDbPoint
 10
-81.47321731463017
 20
-19.99456165946423
 30
0.0
  0
ENDBLK
  5
6C1
330
6B6
100
AcDbEntity
  8
0
100
AcDbBlockEnd
  0
BLOCK
  5
6CD
330
6C2
100
AcDbEntity
  8
0
100
AcDbBlockBegin
  2
*D16
 70
     1
 10
0.0
 20
0.0
 30
0.0
  3
*D16
  1

  0
LINE
  5
8CF
330
6C2
100
AcDbEntity
  8
寸法線
 62
     0
440
 16777216
370
    -2
100
AcDbLine
 10
-63.83561725623272
 20
47.41262558832523
 30
0.0
 11
-63.83561236072927
 21
58.14771680268313
 31
0.0
  0
LINE
  5
8D0
330
6C2
100
AcDbEntity
  8
寸法線
 62
     0
440
 16777216
370
    -2
100
AcDbLine
 10
-97.57622503495737
 20
32.22778271290653
 30
0.0
 11
-106.0219986809363
 21
40.67355991851357
 31
0.0
  0
ARC
  5
8D1
330
6C2
100
AcDbEntity
  8
寸法線
 62
     0
440
 16777216
370
    -2
100
AcDbCircle
 10
-63.83563956761022
 20
-1.512816975036624
 30
0.0
 40
58.6605334964834
100
AcDbArc
 50
92.93049744098967
 51
132.0694643563415
  0
INSERT
  5
8D2
330
6C2
100
AcDbEntity
  8
寸法線
 62
     0
440
 16777216
370
    -2
100
AcDbBlockReference
  2
_Open30
 10
-63.83561281675752
 20
57.14771652144068
 30
0.0
 41
3.0
 42
3.0
 43
3.0
 50
1.46523565625158
  0
INSERT
  5
8D3
330
6C2
100
AcDbEntity
  8
寸法線
 62
     0
440
 16777216
370
    -2
100
AcDbBlockReference
  2
_Open30
 10
-105.3148918498929
 20
39.96645278944688
 30
0.0
 41
3.0
 42
3.0
 43
3.0
 50
223.5347261410796
  0
MTEXT
  5
8D4
330
6C2
100
AcDbEntity
  8
寸法線
 62
     0
440
 16777216
100
AcDbMText
 10
-87.20247433230946
 20
54.8997683966852
 30
0.0
 40
3.200000047683716
 41
0.0
 71
     5
 72
     1
  1
45\U+00B0
 11
0.9238796667561091
 21
0.3826831082692578
 31
0.0
 73
     1
 44
1.0
  0
POINT
  5
8D5
330
6C2
100
AcDbEntity
  8
Defpoints
 62
     0
440
 16777216
100
AcDbPoint
 10
-63.83563956761022
 20
-1.512816975036624
 30
0.0
  0
POINT
  5
8D6
330
6C2
100
AcDbEntity
  8
Defpoints
 62
     0
440
 16777216
100
AcDbPoint
 10
-63.83561841454414
 20
44.87262558832549
 30
0.0
  0
POINT
  5
8D7
330
6C2
100
AcDbEntity
  8
Defpoints
 62
     0
440
 16777216
100
AcDbPoint
 10
-95.78017418923307
 20
30.43173111020327
 30
0.0
  0
POINT
  5
8D8
330
6C2
100
AcDbEntity
  8
Defpoints
 62
     0
440
 16777216
100
AcDbPoint
 10
-93.16589145646608
 20
49.28870381153352
 30
0.0
  0
ENDBLK
  5
6CE
330
6C2
100
AcDbEntity
  8
0
100
AcDbBlockEnd
  0
BLOCK
  5
6D9
330
6CF
100
AcDbEntity
  8
0
100
AcDbBlockBegin
  2
*D17
 70
     1
 10
0.0
 20
0.0
 30
0.0
  3
*D17
  1

  0
LINE
  5
81C
330
6CF
100
AcDbEntity
  8
寸法線
 62
     0
440
 16777216
370
    -2
100
AcDbLine
 10
-33.68419111254644
 20
25.04654204613158
 30
0.0
 11
-15.75227083740699
 21
6.939641330973862
 31
0.0
  0
LINE
  5
81D
330
6CF
100
AcDbEntity
  8
寸法線
 62
     0
440
 16777216
370
    -2
100
AcDbLine
 10
-63.01238968834963
 20
-3.016099239746754
 30
0.0
 11
-44.58942401172456
 21
-21.61883699828356
 31
0.0
  0
LINE
  5
81E
330
6CF
100
AcDbEntity
  8
寸法線
 62
     0
440
 16777216
370
    -2
100
AcDbLine
 10
-19.49244452917773
 20
6.452920923156692
 30
0.0
 11
-44.06640783782771
 21
-17.88356591282777
 31
0.0
  0
INSERT
  5
81F
330
6CF
100
AcDbEntity
  8
寸法線
 62
     0
440
 16777216
370
    -2
100
AcDbBlockReference
  2
_Open30
 10
-17.36084959634393
 20
8.563916669793162
 30
0.0
 41
3.0
 42
3.0
 43
3.0
 50
44.7218121555118
  0
INSERT
  5
820
330
6CF
100
AcDbEntity
  8
寸法線
 62
     0
440
 16777216
370
    -2
100
AcDbBlockReference
  2
_Open30
 10
-46.1980027706615
 20
-19.99456165946425
 30
0.0
 41
3.0
 42
3.0
 43
3.0
 50
224.7218121555118
  0
MTEXT
  5
821
330
6CF
100
AcDbEntity
  8
寸法線
 62
     0
440
 16777216
100
AcDbMText
 10
-33.4682228262382
 20
-4.01004654322338
 30
0.0
 40
3.200000047683716
 41
0.0
 71
     5
 72
     1
  1
L2
 11
0.710531644277932
 21
0.7036652488788247
 31
0.0
 73
     1
 44
1.0
  0
POINT
  5
822
330
6CF
100
AcDbEntity
  8
Defpoints
 62
     0
440
 16777216
100
AcDbPoint
 10
-35.47150084469866
 20
26.85129242259753
 30
0.0
  0
POINT
  5
823
330
6CF
100
AcDbEntity
  8
Defpoints
 62
     0
440
 16777216
100
AcDbPoint
 10
-64.79969942050184
 20
-1.211348863280807
 30
0.0
  0
POINT
  5
824
330
6CF
100
AcDbEntity
  8
Defpoints
 62
     0
440
 16777216
100
AcDbPoint
 10
-46.1980027706615
 20
-19.99456165946425
 30
0.0
  0
ENDBLK
  5
6DA
330
6CF
100
AcDbEntity
  8
0
100
AcDbBlockEnd
  0
BLOCK
  5
6E6
330
6DB
100
AcDbEntity
  8
0
100
AcDbBlockBegin
  2
*D18
 70
     1
 10
0.0
 20
0.0
 30
0.0
  3
*D18
  1

  0
LINE
  5
8D9
330
6DB
100
AcDbEntity
  8
寸法線
 62
     0
440
 16777216
370
    -2
100
AcDbLine
 10
-30.09499505033434
 20
32.22778271290655
 30
0.0
 11
-21.64922292069901
 21
40.67355840216931
 31
0.0
  0
LINE
  5
8DA
330
6DB
100
AcDbEntity
  8
寸法線
 62
     0
440
 16777216
370
    -2
100
AcDbLine
 10
-63.83560282905897
 20
47.41262558832523
 30
0.0
 11
-63.83560772456146
 21
58.14771465824891
 31
0.0
  0
ARC
  5
8DB
330
6DB
100
AcDbEntity
  8
寸法線
 62
     0
440
 16777216
370
    -2
100
AcDbCircle
 10
-63.83558051768144
 20
-1.512816975036617
 30
0.0
 40
58.66053349648343
100
AcDbArc
 50
47.93053564365852
 51
87.06950255901039
  0
INSERT
  5
8DC
330
6DB
100
AcDbEntity
  8
寸法線
 62
     0
440
 16777216
370
    -2
100
AcDbBlockReference
  2
_Open30
 10
-22.35632823539873
 20
39.96645278944693
 30
0.0
 41
3.0
 42
3.0
 43
3.0
 50
316.4652738589205
  0
INSERT
  5
8DD
330
6DB
100
AcDbEntity
  8
寸法線
 62
     0
440
 16777216
370
    -2
100
AcDbBlockReference
  2
_Open30
 10
-63.83560726853417
 20
57.1477165214407
 30
0.0
 41
3.0
 42
3.0
 43
3.0
 50
178.5347643437484
  0
MTEXT
  5
8DE
330
6DB
100
AcDbEntity
  8
寸法線
 62
     0
440
 16777216
100
AcDbMText
 10
-40.46874575298218
 20
54.89976839668523
 30
0.0
 40
3.200000047683716
 41
0.0
 71
     5
 72
     1
  1
45\U+00B0
 11
0.9238796667561091
 21
-0.3826831082692582
 31
0.0
 73
     1
 44
1.0
  0
POINT
  5
8DF
330
6DB
100
AcDbEntity
  8
Defpoints
 62
     0
440
 16777216
100
AcDbPoint
 10
-63.83558051768144
 20
-1.512816975036617
 30
0.0
  0
POINT
  5
8E0
330
6DB
100
AcDbEntity
  8
Defpoints
 62
     0
440
 16777216
100
AcDbPoint
 10
-31.89104589605864
 20
30.43173111020327
 30
0.0
  0
POINT
  5
8E1
330
6DB
100
AcDbEntity
  8
Defpoints
 62
     0
440
 16777216
100
AcDbPoint
 10
-63.83560167074755
 20
44.8726255883255
 30
0.0
  0
POINT
  5
8E2
330
6DB
100
AcDbEntity
  8
Defpoints
 62
     0
440
 16777216
100
AcDbPoint
 10
-34.5053286288256
 20
49.28870381153356
 30
0.0
  0
ENDBLK
  5
6E7
330
6DB
100
AcDbEntity
  8
0
100
AcDbBlockEnd
  0
ENDSEC
  0
SECTION
  2
ENTITIES
  0
LINE
  5
2E
330
1F
100
AcDbEntity
  8
0
  6
Continuous
 62
     7
100
AcDbLine
 10
17.6123122052104
 20
51.20385724508242
 30
0.0
 11
102.6123141125591
 21
51.20385724508242
 31
0.0
  0
LINE
  5
30
330
1F
100
AcDbEntity
  8
0
  6
Continuous
 62
     7
100
AcDbLine
 10
17.6123122052104
 20
75.20385259592015
 30
0.0
 11
17.6123122052104
 21
-20.79614084756895
 31
0.0
  0
LINE
  5
31
330
1F
100
AcDbEntity
  8
0
  6
Continuous
 62
     7
100
AcDbLine
 10
42.61231411255903
 20
75.20385259592014
 30
0.0
 11
42.61231411255903
 21
-20.79614084756895
 31
0.0
  0
LINE
  5
32
330
1F
100
AcDbEntity
  8
0
  6
Continuous
 62
     7
100
AcDbLine
 10
62.61231411255902
 20
75.20385259592014
 30
0.0
 11
62.61231411255904
 21
-20.79614084756895
 31
0.0
  0
LINE
  5
33
330
1F
100
AcDbEntity
  8
0
  6
Continuous
 62
     7
100
AcDbLine
 10
62.61231411255902
 20
75.20385259592014
 30
0.0
 11
62.61231411255904
 21
-20.79614084756895
 31
0.0
  0
LINE
  5
34
330
1F
100
AcDbEntity
  8
0
  6
Continuous
 62
     7
100
AcDbLine
 10
82.61231411255904
 20
75.20385259592014
 30
0.0
 11
82.61231411255904
 21
-20.79614084756895
 31
0.0
  0
LINE
  5
35
330
1F
100
AcDbEntity
  8
0
  6
Continuous
 62
     7
100
AcDbLine
 10
102.6123141125591
 20
75.20385259592015
 30
0.0
 11
102.6123141125591
 21
-20.79614084756895
 31
0.0
  0
LINE
  5
38
330
1F
100
AcDbEntity
  8
0
  6
Continuous
 62
     7
100
AcDbLine
 10
17.6123122052104
 20
27.20385915243105
 30
0.0
 11
102.6123141125591
 21
27.20385915243105
 31
0.0
  0
LINE
  5
39
330
1F
100
AcDbEntity
  8
0
  6
Continuous
 62
     7
100
AcDbLine
 10
17.6123122052104
 20
21.20385915243105
 30
0.0
 11
102.6123141125591
 21
21.20385915243105
 31
0.0
  0
LINE
  5
3A
330
1F
100
AcDbEntity
  8
0
  6
Continuous
 62
     7
100
AcDbLine
 10
17.6123122052104
 20
15.20385867559389
 30
0.0
 11
102.6123141125591
 21
15.20385867559389
 31
0.0
  0
LINE
  5
3B
330
1F
100
AcDbEntity
  8
0
  6
Continuous
 62
     7
100
AcDbLine
 10
17.6123122052104
 20
9.203858735198537
 30
0.0
 11
102.6123141125591
 21
9.203858735198537
 31
0.0
  0
LINE
  5
3C
330
1F
100
AcDbEntity
  8
0
  6
Continuous
 62
     7
100
AcDbLine
 10
17.6123122052104
 20
3.203858675593892
 30
0.0
 11
102.6123141125591
 21
3.203858675593892
 31
0.0
  0
LINE
  5
3D
330
1F
100
AcDbEntity
  8
0
  6
Continuous
 62
     7
100
AcDbLine
 10
17.6123122052104
 20
-2.796140847568949
 30
0.0
 11
102.6123141125591
 21
-2.796140847568949
 31
0.0
  0
LINE
  5
3E
330
1F
100
AcDbEntity
  8
0
  6
Continuous
 62
     7
100
AcDbLine
 10
17.6123122052104
 20
-8.796140847568949
 30
0.0
 11
102.6123141125591
 21
-8.796140847568949
 31
0.0
  0
LINE
  5
3F
330
1F
100
AcDbEntity
  8
0
  6
Continuous
 62
     7
100
AcDbLine
 10
17.6123122052104
 20
-14.79614084756895
 30
0.0
 11
102.6123141125591
 21
-14.79614084756895
 31
0.0
  0
LINE
  5
40
330
1F
100
AcDbEntity
  8
0
  6
Continuous
 62
     7
100
AcDbLine
 10
17.6123122052104
 20
-20.79614084756895
 30
0.0
 11
102.6123141125591
 21
-20.79614084756895
 31
0.0
  0
LINE
  5
43
330
1F
100
AcDbEntity
  8
0
  6
Continuous
 62
     7
100
AcDbLine
 10
17.6123122052104
 20
45.20385724508241
 30
0.0
 11
102.6123141125591
 21
45.20385724508241
 31
0.0
  0
LINE
  5
44
330
1F
100
AcDbEntity
  8
0
  6
Continuous
 62
     7
100
AcDbLine
 10
17.6123122052104
 20
75.20385259592015
 30
0.0
 11
17.6123122052104
 21
-20.79614084756895
 31
0.0
  0
LINE
  5
45
330
1F
100
AcDbEntity
  8
0
  6
Continuous
 62
     7
100
AcDbLine
 10
42.61231411255903
 20
75.20385259592014
 30
0.0
 11
42.61231411255903
 21
-20.79614084756895
 31
0.0
  0
LINE
  5
47
330
1F
100
AcDbEntity
  8
0
  6
Continuous
 62
     7
100
AcDbLine
 10
82.61231411255904
 20
75.20385259592014
 30
0.0
 11
82.61231411255904
 21
-20.79614084756895
 31
0.0
  0
LINE
  5
48
330
1F
100
AcDbEntity
  8
0
  6
Continuous
 62
     7
100
AcDbLine
 10
102.6123141125591
 20
75.20385259592015
 30
0.0
 11
102.612314112559
 21
-20.79614084756895
 31
0.0
  0
MTEXT
  5
1A9
330
1F
100
AcDbEntity
  8
0
 62
     7
100
AcDbMText
 10
20.91739416496523
 20
-17.79614227808042
 30
0.0
 40
3.200000047683716
 41
0.0
 71
     4
 72
     1
  1
{\W1;TDS1000}
 73
     1
 44
1.0
  0
MTEXT
  5
1AA
330
1F
100
AcDbEntity
  8
0
 62
     7
100
AcDbMText
 10
52.61231411255903
 20
-17.79614227808042
 30
0.0
 40
3.200000047683716
 41
0.0
 71
     5
 72
     1
  1
{\W1;1101}
 73
     1
 44
1.0
  0
MTEXT
  5
1AB
330
1F
100
AcDbEntity
  8
0
 62
     7
100
AcDbMText
 10
30.11231315888472
 20
72.20385259592013
 30
0.0
 40
3.200000047683716
 41
0.0
 71
     5
 72
     1
  1
{\W0.833333;呼称径}
 73
     1
 44
1.0
  0
MTEXT
  5
1AC
102
{ACAD_XDICTIONARY
360
9D3
102
}
330
1F
100
AcDbEntity
  8
0
 62
     7
100
AcDbMText
 10
52.61231411255903
 20
72.20385259592013
 30
0.0
 40
3.200000047683716
 41
0.0
 71
     5
 72
     1
  1
{\W1;\U+2205A}
 73
     1
 44
1.0
  0
MTEXT
  5
1AD
330
1F
100
AcDbEntity
  8
0
 62
     7
100
AcDbMText
 10
72.61231411255903
 20
72.20385259592013
 30
0.0
 40
3.200000047683716
 41
0.0
 71
     5
 72
     1
  1
{\W1;L1}
 73
     1
 44
1.0
  0
MTEXT
  5
1AE
330
1F
100
AcDbEntity
  8
0
 62
     7
100
AcDbMText
 10
92.61231411255907
 20
72.20385259592013
 30
0.0
 40
3.200000047683716
 41
0.0
 71
     5
 72
     1
  1
{\W1;L2}
 73
     1
 44
1.0
  0
MTEXT
  5
1B5
330
1F
100
AcDbEntity
  8
0
 62
     7
100
AcDbMText
 10
20.91739416496523
 20
42.2038596292682
 30
0.0
 40
3.200000047683716
 41
0.0
 71
     4
 72
     1
  1
{\W1;TDS250}
 73
     1
 44
1.0
  0
MTEXT
  5
1B6
330
1F
100
AcDbEntity
  8
0
 62
     7
100
AcDbMText
 10
52.61231411255903
 20
42.2038596292682
 30
0.0
 40
3.200000047683716
 41
0.0
 71
     5
 72
     1
  1
{\W1;273}
 73
     1
 44
1.0
  0
MTEXT
  5
1B7
330
1F
100
AcDbEntity
  8
0
 62
     7
100
AcDbMText
 10
20.91739416496523
 20
36.20385962926822
 30
0.0
 40
3.200000047683716
 41
0.0
 71
     4
 72
     1
  1
{\W1;TDS300}
 73
     1
 44
1.0
  0
MTEXT
  5
1B8
330
1F
100
AcDbEntity
  8
0
 62
     7
100
AcDbMText
 10
52.61231411255903
 20
36.20385962926822
 30
0.0
 40
3.200000047683716
 41
0.0
 71
     5
 72
     1
  1
{\W1;328}
 73
     1
 44
1.0
  0
MTEXT
  5
1B9
330
1F
100
AcDbEntity
  8
0
 62
     7
100
AcDbMText
 10
20.91739416496523
 20
30.20385915243105
 30
0.0
 40
3.200000047683716
 41
0.0
 71
     4
 72
     1
  1
{\W1;TDS350}
 73
     1
 44
1.0
  0
MTEXT
  5
1BA
330
1F
100
AcDbEntity
  8
0
 62
     7
100
AcDbMText
 10
52.61231411255903
 20
30.20385915243105
 30
0.0
 40
3.200000047683716
 41
0.0
 71
     5
 72
     1
  1
{\W1;388}
 73
     1
 44
1.0
  0
MTEXT
  5
1BB
330
1F
100
AcDbEntity
  8
0
 62
     7
100
AcDbMText
 10
20.91739416496523
 20
24.20385915243104
 30
0.0
 40
3.200000047683716
 41
0.0
 71
     4
 72
     1
  1
{\W1;TDS400}
 73
     1
 44
1.0
  0
MTEXT
  5
1BC
330
1F
100
AcDbEntity
  8
0
 62
     7
100
AcDbMText
 10
52.61231411255903
 20
24.20385915243104
 30
0.0
 40
3.200000047683716
 41
0.0
 71
     5
 72
     1
  1
{\W1;428}
 73
     1
 44
1.0
  0
MTEXT
  5
1BD
330
1F
100
AcDbEntity
  8
0
 62
     7
100
AcDbMText
 10
20.91739416496523
 20
18.2038596292682
 30
0.0
 40
3.200000047683716
 41
0.0
 71
     4
 72
     1
  1
{\W1;TDS450}
 73
     1
 44
1.0
  0
MTEXT
  5
1BE
330
1F
100
AcDbEntity
  8
0
 62
     7
100
AcDbMText
 10
52.61231411255903
 20
18.2038596292682
 30
0.0
 40
3.200000047683716
 41
0.0
 71
     5
 72
     1
  1
{\W1;487}
 73
     1
 44
1.0
  0
MTEXT
  5
1BF
330
1F
100
AcDbEntity
  8
0
 62
     7
100
AcDbMText
 10
20.91739416496523
 20
12.2038596292682
 30
0.0
 40
3.200000047683716
 41
0.0
 71
     4
 72
     1
  1
{\W1;TDS500}
 73
     1
 44
1.0
  0
MTEXT
  5
1C0
330
1F
100
AcDbEntity
  8
0
 62
     7
100
AcDbMText
 10
52.61231411255903
 20
12.2038596292682
 30
0.0
 40
3.200000047683716
 41
0.0
 71
     5
 72
     1
  1
{\W1;549}
 73
     1
 44
1.0
  0
MTEXT
  5
1C1
330
1F
100
AcDbEntity
  8
0
 62
     7
100
AcDbMText
 10
20.91739416496523
 20
6.203859629268205
 30
0.0
 40
3.200000047683716
 41
0.0
 71
     4
 72
     1
  1
{\W1;TDS600}
 73
     1
 44
1.0
  0
MTEXT
  5
1C2
330
1F
100
AcDbEntity
  8
0
 62
     7
100
AcDbMText
 10
52.61231411255903
 20
6.203859629268205
 30
0.0
 40
3.200000047683716
 41
0.0
 71
     5
 72
     1
  1
{\W1;665}
 73
     1
 44
1.0
  0
MTEXT
  5
1C3
330
1F
100
AcDbEntity
  8
0
 62
     7
100
AcDbMText
 10
20.91739416496523
 20
0.2038596292682062
 30
0.0
 40
3.200000047683716
 41
0.0
 71
     4
 72
     1
  1
{\W1;TDS700}
 73
     1
 44
1.0
  0
MTEXT
  5
1C4
330
1F
100
AcDbEntity
  8
0
 62
     7
100
AcDbMText
 10
52.61231411255903
 20
0.203859629268206
 30
0.0
 40
3.200000047683716
 41
0.0
 71
     5
 72
     1
  1
{\W1;777}
 73
     1
 44
1.0
  0
MTEXT
  5
1C5
330
1F
100
AcDbEntity
  8
0
 62
     7
100
AcDbMText
 10
20.91739416496523
 20
-5.796142278080427
 30
0.0
 40
3.200000047683716
 41
0.0
 71
     4
 72
     1
  1
{\W1;TDS800}
 73
     1
 44
1.0
  0
MTEXT
  5
1C6
330
1F
100
AcDbEntity
  8
0
 62
     7
100
AcDbMText
 10
52.61231411255903
 20
-5.796142278080427
 30
0.0
 40
3.200000047683716
 41
0.0
 71
     5
 72
     1
  1
{\W1;862}
 73
     1
 44
1.0
  0
MTEXT
  5
1C7
330
1F
100
AcDbEntity
  8
0
 62
     7
100
AcDbMText
 10
20.91739416496523
 20
-11.79614227808042
 30
0.0
 40
3.200000047683716
 41
0.0
 71
     4
 72
     1
  1
{\W1;TDS900}
 73
     1
 44
1.0
  0
MTEXT
  5
1C8
330
1F
100
AcDbEntity
  8
0
 62
     7
100
AcDbMText
 10
52.61231411255903
 20
-11.79614227808042
 30
0.0
 40
3.200000047683716
 41
0.0
 71
     5
 72
     1
  1
{\W1;978}
 73
     1
 44
1.0
  0
MTEXT
  5
1CC
330
1F
100
AcDbEntity
  8
0
 62
     7
100
AcDbMText
 10
92.61231411255904
 20
-17.79614227808042
 30
0.0
 40
3.200000047683716
 41
0.0
 71
     5
 72
     1
  1
{\W1;1650}
 73
     1
 44
1.0
  0
MTEXT
  5
1CD
330
1F
100
AcDbEntity
  8
0
 62
     7
100
AcDbMText
 10
92.61231411255904
 20
-11.79614227808042
 30
0.0
 40
3.200000047683716
 41
0.0
 71
     5
 72
     1
  1
{\W1;1480}
 73
     1
 44
1.0
  0
MTEXT
  5
1CE
330
1F
100
AcDbEntity
  8
0
 62
     7
100
AcDbMText
 10
92.61231411255904
 20
-5.796142278080427
 30
0.0
 40
3.200000047683716
 41
0.0
 71
     5
 72
     1
  1
{\W1;1320}
 73
     1
 44
1.0
  0
MTEXT
  5
1CF
330
1F
100
AcDbEntity
  8
0
 62
     7
100
AcDbMText
 10
92.61231411255904
 20
0.2038596292682065
 30
0.0
 40
3.200000047683716
 41
0.0
 71
     5
 72
     1
  1
{\W1;1150}
 73
     1
 44
1.0
  0
MTEXT
  5
1D0
330
1F
100
AcDbEntity
  8
0
 62
     7
100
AcDbMText
 10
92.61231411255902
 20
6.203859629268201
 30
0.0
 40
3.200000047683716
 41
0.0
 71
     5
 72
     1
  1
{\W1;1100}
 73
     1
 44
1.0
  0
MTEXT
  5
1D1
330
1F
100
AcDbEntity
  8
0
 62
     7
100
AcDbMText
 10
92.61231411255904
 20
12.2038596292682
 30
0.0
 40
3.200000047683716
 41
0.0
 71
     5
 72
     1
  1
{\W1;910}
 73
     1
 44
1.0
  0
MTEXT
  5
1D2
330
1F
100
AcDbEntity
  8
0
 62
     7
100
AcDbMText
 10
92.61231411255902
 20
18.2038596292682
 30
0.0
 40
3.200000047683716
 41
0.0
 71
     5
 72
     1
  1
{\W1;820}
 73
     1
 44
1.0
  0
MTEXT
  5
1D3
330
1F
100
AcDbEntity
  8
0
 62
     7
100
AcDbMText
 10
92.61231411255904
 20
24.20385915243104
 30
0.0
 40
3.200000047683716
 41
0.0
 71
     5
 72
     1
  1
{\W1;730}
 73
     1
 44
1.0
  0
MTEXT
  5
1D4
330
1F
100
AcDbEntity
  8
0
 62
     7
100
AcDbMText
 10
92.61231411255904
 20
30.20385915243105
 30
0.0
 40
3.200000047683716
 41
0.0
 71
     5
 72
     1
  1
{\W1;640}
 73
     1
 44
1.0
  0
MTEXT
  5
1D5
330
1F
100
AcDbEntity
  8
0
 62
     7
100
AcDbMText
 10
92.61231411255904
 20
36.20385962926822
 30
0.0
 40
3.200000047683716
 41
0.0
 71
     5
 72
     1
  1
{\W1;610}
 73
     1
 44
1.0
  0
MTEXT
  5
1D6
330
1F
100
AcDbEntity
  8
0
 62
     7
100
AcDbMText
 10
92.61231411255904
 20
42.20385962926822
 30
0.0
 40
3.200000047683716
 41
0.0
 71
     5
 72
     1
  1
{\W1;520}
 73
     1
 44
1.0
  0
MTEXT
  5
1DB
330
1F
100
AcDbEntity
  8
0
 62
     7
100
AcDbMText
 10
87.90476175512869
 20
-27.19116782744595
 30
0.0
 40
3.200000047683716
 41
0.0
 71
     7
 72
     1
  1
{\W1;(mm)}
 73
     1
 44
1.0
  0
MTEXT
  5
1DC
330
1F
100
AcDbEntity
  8
0
 62
     7
100
AcDbMText
 10
0.7124996185302736
 20
-90.75000000000001
 30
0.0
 40
3.200000047683716
 41
0.0
 71
     5
 72
     1
  1
45\U+00B0ｸﾛｽ  {\F|c128;\H0.875x;(ﾄﾖﾄﾞﾚﾝｼﾝｸﾞﾙ管用）}
 73
     1
 44
1.0
  0
MTEXT
  5
1DD
330
1F
100
AcDbEntity
  8
0
 62
     7
100
AcDbMText
 10
72.61231411255903
 20
42.20385962926818
 30
0.0
 40
3.200000047683716
 41
0.0
 71
     5
 72
     1
  1
{\W1;710}
 73
     1
 44
1.0
  0
MTEXT
  5
1DE
330
1F
100
AcDbEntity
  8
0
 62
     7
100
AcDbMText
 10
72.61231411255903
 20
36.20385962926822
 30
0.0
 40
3.200000047683716
 41
0.0
 71
     5
 72
     1
  1
{\W1;850}
 73
     1
 44
1.0
  0
MTEXT
  5
1DF
330
1F
100
AcDbEntity
  8
0
 62
     7
100
AcDbMText
 10
72.61231411255903
 20
30.20385915243105
 30
0.0
 40
3.200000047683716
 41
0.0
 71
     5
 72
     1
  1
{\W1;980}
 73
     1
 44
1.0
  0
MTEXT
  5
1E0
330
1F
100
AcDbEntity
  8
0
 62
     7
100
AcDbMText
 10
72.61231411255903
 20
24.20385915243104
 30
0.0
 40
3.200000047683716
 41
0.0
 71
     5
 72
     1
  1
{\W1;1120}
 73
     1
 44
1.0
  0
MTEXT
  5
1E1
330
1F
100
AcDbEntity
  8
0
 62
     7
100
AcDbMText
 10
72.61231411255903
 20
18.2038596292682
 30
0.0
 40
3.200000047683716
 41
0.0
 71
     5
 72
     1
  1
{\W1;1270}
 73
     1
 44
1.0
  0
MTEXT
  5
1E2
330
1F
100
AcDbEntity
  8
0
 62
     7
100
AcDbMText
 10
72.61231411255903
 20
12.2038596292682
 30
0.0
 40
3.200000047683716
 41
0.0
 71
     5
 72
     1
  1
{\W1;1410}
 73
     1
 44
1.0
  0
MTEXT
  5
1E3
330
1F
100
AcDbEntity
  8
0
 62
     7
100
AcDbMText
 10
72.61231411255903
 20
6.203859629268205
 30
0.0
 40
3.200000047683716
 41
0.0
 71
     5
 72
     1
  1
{\W1;1690}
 73
     1
 44
1.0
  0
MTEXT
  5
1E4
330
1F
100
AcDbEntity
  8
0
 62
     7
100
AcDbMText
 10
72.61231411255903
 20
0.2038596292682062
 30
0.0
 40
3.200000047683716
 41
0.0
 71
     5
 72
     1
  1
{\W1;1840}
 73
     1
 44
1.0
  0
MTEXT
  5
1E5
330
1F
100
AcDbEntity
  8
0
 62
     7
100
AcDbMText
 10
72.61231411255903
 20
-5.796142278080425
 30
0.0
 40
3.200000047683716
 41
0.0
 71
     5
 72
     1
  1
{\W1;2110}
 73
     1
 44
1.0
  0
MTEXT
  5
1E6
330
1F
100
AcDbEntity
  8
0
 62
     7
100
AcDbMText
 10
72.61231411255903
 20
-11.79614227808042
 30
0.0
 40
3.200000047683716
 41
0.0
 71
     5
 72
     1
  1
{\W1;2370}
 73
     1
 44
1.0
  0
MTEXT
  5
1E7
330
1F
100
AcDbEntity
  8
0
 62
     7
100
AcDbMText
 10
72.61231411255903
 20
-17.79614227808042
 30
0.0
 40
3.200000047683716
 41
0.0
 71
     5
 72
     1
  1
{\W1;2630}
 73
     1
 44
1.0
  0
POINT
  5
23A
330
1F
100
AcDbEntity
  8
外形線
370
    30
100
AcDbPoint
 10
-50.57500076293945
 20
-87.0
 30
0.0
  0
POINT
  5
23B
330
1F
100
AcDbEntity
  8
VIEW0001
 62
     7
100
AcDbPoint
 10
138.5
 20
-87.0
 30
0.0
  0
LINE
  5
23C
330
1F
100
AcDbEntity
  8
外形線
370
    30
100
AcDbLine
 10
-138.0
 20
95.0
 30
0.0
 11
138.5
 21
95.0
 31
0.0
  0
LINE
  5
23D
330
1F
100
AcDbEntity
  8
外形線
370
    30
100
AcDbLine
 10
138.5
 20
95.0
 30
0.0
 11
138.5
 21
-94.50000000000001
 31
0.0
  0
LINE
  5
23E
330
1F
100
AcDbEntity
  8
外形線
370
    30
100
AcDbLine
 10
-138.0
 20
-94.50000000000001
 30
0.0
 11
138.5
 21
-94.50000000000001
 31
0.0
  0
LINE
  5
23F
330
1F
100
AcDbEntity
  8
外形線
370
    30
100
AcDbLine
 10
-138.0
 20
95.0
 30
0.0
 11
-138.0
 21
-94.50000000000001
 31
0.0
  0
LINE
  5
242
330
1F
100
AcDbEntity
  8
外形線
370
    30
100
AcDbLine
 10
-50.57500076293945
 20
-87.0
 30
0.0
 11
-50.57500076293945
 21
-94.50000000000001
 31
0.0
  0
LINE
  5
252
330
1F
100
AcDbEntity
  8
外形線
370
    30
100
AcDbLine
 10
138.5
 20
-87.0
 30
0.0
 11
-50.57500076293945
 21
-87.0
 31
0.0
  0
LINE
  5
255
330
1F
100
AcDbEntity
  8
外形線
370
    30
100
AcDbLine
 10
52.0
 20
-94.50000000000001
 30
0.0
 11
52.0
 21
-87.0
 31
0.0
  0
MTEXT
  5
294
330
1F
100
AcDbEntity
  8
VIEW0002
 62
     7
100
AcDbMText
 10
-46.02687902081297
 20
-68.59358003863071
 30
0.0
 40
3.200000047683716
 41
0.0
 71
     7
 72
     1
  1
{\W0.833333;*形状は規格毎に異なります。}
 73
     1
 44
1.0
  0
MTEXT
  5
295
330
1F
100
AcDbEntity
  8
VIEW0002
 62
     7
100
AcDbMText
 10
-45.88689115694172
 20
-73.59146956391914
 30
0.0
 40
3.200000047683716
 41
0.0
 71
     7
 72
     1
  1
{\W0.833333;*ストッパ－の位置及び数は、規格毎に異なります。}
 73
     1
 44
1.0
  0
MTEXT
  5
296
330
1F
100
AcDbEntity
  8
VIEW0002
 62
     7
100
AcDbMText
 10
-46.12166870418405
 20
-78.82146585330719
 30
0.0
 40
3.200000047683716
 41
0.0
 71
     7
 72
     1
  1
\W0.833333;*寸法、仕様等は製品改良の為、予告無く変更する場合があります。（Ｈ２２．１０）
 73
     1
 44
1.0
  0
LINE
  5
337
330
1F
100
AcDbEntity
  8
0
  6
Continuous
 62
     7
100
AcDbLine
 10
17.6123122052104
 20
33.20385909282641
 30
0.0
 11
102.6123141125591
 21
33.20385909282641
 31
0.0
  0
LINE
  5
338
330
1F
100
AcDbEntity
  8
0
  6
Continuous
 62
     7
100
AcDbLine
 10
17.6123122052104
 20
39.20385956966356
 30
0.0
 11
102.6123141125591
 21
39.20385956966356
 31
0.0
  0
LINE
  5
54F
330
1F
100
AcDbEntity
  8
外形線
100
AcDbLine
 10
-96.28239274225565
 20
15.85654278262871
 30
0.0
 11
-97.28602751823785
 21
14.43111994054014
 31
0.0
  0
LINE
  5
550
330
1F
100
AcDbEntity
  8
外形線
100
AcDbLine
 10
-81.9032169343982
 20
30.85164667409384
 30
0.0
 11
-80.89957715723324
 21
32.27707066027422
 31
0.0
  0
LINE
  5
551
330
1F
100
AcDbEntity
  8
外形線
100
AcDbLine
 10
-83.51598350377463
 20
32.4643677323064
 30
0.0
 11
-81.96324786993541
 21
33.34070967227531
 31
0.0
  0
LINE
  5
552
330
1F
100
AcDbEntity
  8
外形線
100
AcDbLine
 10
-72.20647650535983
 20
22.19587428466587
 30
0.0
 11
-88.20828454556835
 21
7.787751550804435
 31
0.0
  0
LINE
  5
553
330
1F
100
AcDbEntity
  8
外形線
100
AcDbLine
 10
-72.96358799482162
 20
23.56219244797761
 30
0.0
 11
-89.28676783124505
 21
8.864704645404579
 31
0.0
  0
LINE
  5
554
330
1F
100
AcDbEntity
  8
外形線
100
AcDbLine
 10
-72.01955975923343
 20
21.8424510084948
 30
0.0
 11
-89.21475029895413
 21
6.359799603985145
 31
0.0
  0
LINE
  5
555
330
1F
100
AcDbEntity
  8
外形線
100
AcDbLine
 10
-99.97647111066314
 20
17.12152054415141
 30
0.0
 11
-98.90909243904257
 21
16.0541417825575
 31
0.0
  0
LINE
  5
556
330
1F
100
AcDbEntity
  8
外形線
100
AcDbLine
 10
-53.45019353492483
 20
-7.04454972852003
 30
0.0
 11
-73.56147303399833
 21
-5.990583971287421
 31
0.0
  0
LINE
  5
557
330
1F
100
AcDbEntity
  8
外形線
100
AcDbLine
 10
-53.45022121790754
 20
-7.427572872856577
 30
0.0
 11
-74.22099435554454
 21
-6.339045231473789
 31
0.0
  0
LINE
  5
558
330
1F
100
AcDbEntity
  8
外形線
100
AcDbLine
 10
-81.90318469011163
 20
30.85158281476075
 30
0.0
 11
-97.36003208996166
 21
16.93414586913521
 31
0.0
  0
LINE
  5
559
330
1F
100
AcDbEntity
  8
外形線
100
AcDbLine
 10
-64.08120708436432
 20
1.397304828245722
 30
0.0
 11
-71.69739848811744
 21
-5.460359020371702
 31
0.0
  0
LINE
  5
55A
330
1F
100
AcDbEntity
  8
外形線
100
AcDbLine
 10
-53.45021445415504
 20
-8.951649750281561
 30
0.0
 11
-74.22095806840284
 21
-7.86312365612212
 31
0.0
  0
LINE
  5
55B
330
1F
100
AcDbEntity
  8
外形線
100
AcDbLine
 10
-98.91279456323808
 20
16.05786977978335
 30
0.0
 11
-97.36006059045704
 21
16.9342107822746
 31
0.0
  0
LINE
  5
55C
330
1F
100
AcDbEntity
  8
外形線
100
AcDbLine
 10
-53.45019353492483
 20
-6.179700920562638
 30
0.0
 11
-53.45019353492483
 21
-8.951567456626122
 31
0.0
  0
LINE
  5
55D
330
1F
100
AcDbEntity
  8
外形線
100
AcDbLine
 10
-61.32999826317214
 20
10.09720551343653
 30
0.0
 11
-66.46754567526784
 21
10.36644741068913
 31
0.0
  0
LINE
  5
55E
330
1F
100
AcDbEntity
  8
外形線
100
AcDbLine
 10
-73.16031743123634
 20
23.89977352041096
 30
0.0
 11
-90.83780834200434
 21
7.982856005273282
 31
0.0
  0
LINE
  5
55F
330
1F
100
AcDbEntity
  8
外形線
100
AcDbLine
 10
-90.90072356914914
 20
10.47635428897861
 30
0.0
 11
-91.98063939704644
 21
11.55473689341049
 31
0.0
  0
LINE
  5
560
330
1F
100
AcDbEntity
  8
外形線
100
AcDbLine
 10
-57.34126886918405
 20
-4.942889033055791
 30
0.0
 11
-68.99994995625333
 21
-4.331896050693201
 31
0.0
  0
LINE
  5
561
330
1F
100
AcDbEntity
  8
外形線
100
AcDbLine
 10
-93.59193833925724
 20
13.16605403940942
 30
0.0
 11
-94.59558268213594
 21
11.74064259881849
 31
0.0
  0
LINE
  5
562
330
1F
100
AcDbEntity
  8
外形線
100
AcDbLine
 10
-94.66962261993392
 20
14.24372204021777
 30
0.0
 11
-93.59194460767055
 21
13.16604393711288
 31
0.0
  0
LINE
  5
563
330
1F
100
AcDbEntity
  8
外形線
100
AcDbLine
 10
-56.16866063936925
 20
-5.392591821055566
 30
0.0
 11
-69.72959351393193
 21
-4.681908103165929
 31
0.0
  0
LINE
  5
564
330
1F
100
AcDbEntity
  8
外形線
100
AcDbLine
 10
-71.13619348952281
 20
20.09469191359345
 30
0.0
 11
-86.59433384564435
 21
6.176090782483226
 31
0.0
  0
LINE
  5
565
330
1F
100
AcDbEntity
  8
外形線
100
AcDbLine
 10
-84.59362126319083
 20
33.54206492252359
 30
0.0
 11
-83.51597966580303
 21
32.46442323429735
 31
0.0
  0
LINE
  5
566
330
1F
100
AcDbEntity
  8
外形線
100
AcDbLine
 10
-96.21864677486444
 20
13.36370102693181
 30
0.0
 11
-94.66962886393243
 21
14.2437323739011
 31
0.0
  0
LINE
  5
567
330
1F
100
AcDbEntity
  8
外形線
100
AcDbLine
 10
-81.96324050220836
 20
33.34074786093814
 30
0.0
 11
-80.89585913318954
 21
32.27336640194582
 31
0.0
  0
LINE
  5
568
330
1F
100
AcDbEntity
  8
外形線
100
AcDbLine
 10
-71.31176683107193
 20
20.45132462573864
 30
0.0
 11
-88.14738443635469
 21
5.29243482105182
 31
0.0
  0
LINE
  5
569
330
1F
100
AcDbEntity
  8
外形線
100
AcDbLine
 10
-99.73845056886291
 20
19.31255041641704
 30
0.0
 11
-98.97285748120214
 21
18.54695726422155
 31
0.0
  0
LINE
  5
56A
330
1F
100
AcDbEntity
  8
外形線
100
AcDbLine
 10
-80.82553740218342
 20
29.77396681359659
 30
0.0
 11
-96.28238763690331
 21
15.85652731543743
 31
0.0
  0
LINE
  5
56B
330
1F
100
AcDbEntity
  8
外形線
100
AcDbLine
 10
-75.44465184490334
 20
24.39310106060124
 30
0.0
 11
-74.21898029461823
 21
25.08486057395373
 31
0.0
  0
LINE
  5
56C
330
1F
100
AcDbEntity
  8
外形線
100
AcDbLine
 10
-65.22385036607842
 20
7.509771347728679
 30
0.0
 11
-78.45305602690681
 21
-4.401883782351617
 31
0.0
  0
LINE
  5
56D
330
1F
100
AcDbEntity
  8
外形線
100
AcDbLine
 10
-64.68092834276014
 20
5.970196792358271
 30
0.0
 11
-77.38569151485814
 21
-5.469247214735636
 31
0.0
  0
LINE
  5
56E
330
1F
100
AcDbEntity
  8
外形線
100
AcDbLine
 10
-64.55893576151924
 20
5.565335045845785
 30
0.0
 11
-75.82461412194962
 21
-4.578348473505542
 31
0.0
  0
LINE
  5
56F
330
1F
100
AcDbEntity
  8
外形線
100
AcDbLine
 10
-64.16817577976863
 20
3.86914411540868
 30
0.0
 11
-74.74612678159573
 21
-5.65530561702986
 31
0.0
  0
LINE
  5
570
330
1F
100
AcDbEntity
  8
外形線
100
AcDbLine
 10
-64.10177375840422
 20
3.407200967505836
 30
0.0
 11
-74.47138456512274
 21
-5.929658019313315
 31
0.0
  0
LINE
  5
571
330
1F
100
AcDbEntity
  8
外形線
100
AcDbLine
 10
-79.27281980596855
 20
30.65032693791285
 30
0.0
 11
-78.20542022951194
 21
29.58292727148119
 31
0.0
  0
LINE
  5
572
330
1F
100
AcDbEntity
  8
外形線
100
AcDbLine
 10
-81.90319449780513
 20
30.85163793035186
 30
0.0
 11
-80.8255529004173
 21
29.77399624212562
 31
0.0
  0
LINE
  5
573
330
1F
100
AcDbEntity
  8
外形線
100
AcDbLine
 10
-97.36007838235014
 20
16.9341780294225
 30
0.0
 11
-96.28243476191371
 21
15.85653431814745
 31
0.0
  0
LINE
  5
574
330
1F
100
AcDbEntity
  8
外形線
100
AcDbLine
 10
-78.20542488290882
 20
29.58292363034883
 30
0.0
 11
-96.21866014270331
 21
13.36369991482313
 31
0.0
  0
LINE
  5
575
330
1F
100
AcDbEntity
  8
外形線
100
AcDbLine
 10
-79.27279707018974
 20
30.65031095102594
 30
0.0
 11
-97.28599972898065
 21
14.43111658963704
 31
0.0
  0
LINE
  5
576
330
1F
100
AcDbEntity
  8
外形線
100
AcDbLine
 10
-80.89581468351005
 20
32.27337295636468
 30
0.0
 11
-98.90902584691055
 21
16.05417093737488
 31
0.0
  0
LINE
  5
577
330
1F
100
AcDbEntity
  8
外形線
100
AcDbLine
 10
-81.96324513254555
 20
33.34073091715126
 30
0.0
 11
-99.97645062620623
 21
17.12153400322872
 31
0.0
  0
LINE
  5
578
330
1F
100
AcDbEntity
  8
外形線
100
AcDbLine
 10
-53.45020584289405
 20
32.9015439549666
 30
0.0
 11
-51.73259594801074
 21
32.42326350636185
 31
0.0
  0
LINE
  5
579
330
1F
100
AcDbEntity
  8
外形線
100
AcDbLine
 10
-53.45021049653623
 20
-8.951580363325431
 30
0.0
 11
-51.73259508932584
 21
-9.429862346876104
 31
0.0
  0
LINE
  5
57A
330
1F
100
AcDbEntity
  8
外形線
100
AcDbLine
 10
-51.73259665103305
 20
-9.429907050698632
 30
0.0
 11
-75.93857534297164
 21
-8.161351628216401
 31
0.0
  0
LINE
  5
57B
330
1F
100
AcDbEntity
  8
外形線
100
AcDbLine
 10
-65.37610105888614
 20
7.894420976591502
 30
0.0
 11
-77.43856211875564
 21
-2.966690404467064
 31
0.0
  0
LINE
  5
57C
330
1F
100
AcDbEntity
  8
外形線
100
AcDbLine
 10
-64.18382427355405
 20
0.7901877145747207
 30
0.0
 11
-70.73141816900724
 21
-5.105304608550381
 31
0.0
  0
LINE
  5
57D
330
1F
100
AcDbEntity
  8
外形線
100
AcDbLine
 10
-51.73259366615042
 20
-9.429854199790183
 30
0.0
 11
-51.73259366615042
 21
-10.93936042537612
 31
0.0
  0
LINE
  5
57E
330
1F
100
AcDbEntity
  8
外形線
100
AcDbLine
 10
-51.73258073230861
 20
-10.93937698742375
 30
0.0
 11
-75.93853894834821
 21
-9.670822638015794
 31
0.0
  0
LINE
  5
57F
330
1F
100
AcDbEntity
  8
外形線
100
AcDbLine
 10
-75.9385873184942
 20
-8.161299512290192
 30
0.0
 11
-75.9385873184942
 21
-9.670798108481591
 31
0.0
  0
LINE
  5
580
330
1F
100
AcDbEntity
  8
外形線
100
AcDbLine
 10
-74.22098175464772
 20
-7.863031900437402
 30
0.0
 11
-75.93858861494112
 21
-8.161281822749842
 31
0.0
  0
LINE
  5
581
330
1F
100
AcDbEntity
  8
外形線
100
AcDbLine
 10
-83.51598489986661
 20
32.46439755452904
 30
0.0
 11
-98.97282379510695
 21
18.54696826650443
 31
0.0
  0
LINE
  5
582
330
1F
100
AcDbEntity
  8
外形線
100
AcDbLine
 10
-84.59362972022953
 20
33.54207352584931
 30
0.0
 11
-93.78404543045096
 21
25.2669687879754
 31
0.0
  0
LINE
  5
583
330
1F
100
AcDbEntity
  8
外形線
100
AcDbLine
 10
-98.97283888405954
 20
18.54699047771891
 30
0.0
 11
-99.97647805234532
 21
17.12156139741503
 31
0.0
  0
LINE
  5
584
330
1F
100
AcDbEntity
  8
外形線
100
AcDbLine
 10
-84.59361868628255
 20
33.54201148607113
 30
0.0
 11
-83.58998110527535
 21
34.96743235314819
 31
0.0
  0
LINE
  5
585
330
1F
100
AcDbEntity
  8
外形線
100
AcDbLine
 10
-83.83675011020333
 20
35.2142576268582
 30
0.0
 11
-83.58628050377879
 21
34.96378799932073
 31
0.0
  0
LINE
  5
586
330
1F
100
AcDbEntity
  8
外形線
100
AcDbLine
 10
-74.22098601920834
 20
-6.339010999106588
 30
0.0
 11
-74.22098601920834
 21
-7.863028333090972
 31
0.0
  0
LINE
  5
587
330
1F
100
AcDbEntity
  8
外形線
100
AcDbLine
 10
-53.45022075089083
 20
-11.23239338014814
 30
0.0
 11
-74.22099458792264
 21
-10.14386570211239
 31
0.0
  0
LINE
  5
588
330
1F
100
AcDbEntity
  8
外形線
100
AcDbLine
 10
-53.45021797531853
 20
-11.23238805463484
 30
0.0
 11
-51.73261404233953
 21
-10.93414217788793
 31
0.0
  0
LINE
  5
589
330
1F
100
AcDbEntity
  8
外形線
100
AcDbLine
 10
-74.22098601920834
 20
-17.75350074520034
 30
0.0
 11
-74.22098601920834
 21
-18.00519447078628
 31
0.0
  0
LINE
  5
58A
330
1F
100
AcDbEntity
  8
外形線
100
AcDbLine
 10
-75.93856627185793
 20
-9.665571696132772
 30
0.0
 11
-74.22094994592633
 21
-10.14385393550776
 31
0.0
  0
LINE
  5
58B
330
1F
100
AcDbEntity
  8
外形線
100
AcDbLine
 10
-76.52375935492455
 20
25.47221102825256
 30
0.0
 11
-91.98063793834322
 21
11.55474600475706
 31
0.0
  0
LINE
  5
58C
330
1F
100
AcDbEntity
  8
外形線
100
AcDbLine
 10
-70.44897531935204
 20
18.66545422459817
 30
0.0
 11
-85.51585731776274
 21
5.099144436090057
 31
0.0
  0
LINE
  5
58D
330
1F
100
AcDbEntity
  8
外形線
100
AcDbLine
 10
-70.27597666779134
 20
18.29949131386756
 30
0.0
 11
-86.52432774385534
 21
3.66937977031295
 31
0.0
  0
LINE
  5
58E
330
1F
100
AcDbEntity
  8
外形線
100
AcDbLine
 10
-83.58629372631284
 20
34.96380737629886
 30
0.0
 11
-88.61598649702569
 21
30.43504221601498
 31
0.0
  0
LINE
  5
58F
330
1F
100
AcDbEntity
  8
外形線
100
AcDbLine
 10
-69.60672373672664
 20
16.87365558968381
 30
0.0
 11
-85.45695782960393
 21
2.602010935731668
 31
0.0
  0
LINE
  5
590
330
1F
100
AcDbEntity
  8
外形線
100
AcDbLine
 10
-69.43701671882114
 20
16.51175107135778
 30
0.0
 11
-83.90190391472064
 21
3.487480968486058
 31
0.0
  0
LINE
  5
591
330
1F
100
AcDbEntity
  8
外形線
100
AcDbLine
 10
-68.75825528601213
 20
15.07490401914134
 30
0.0
 11
-82.82343008995724
 21
2.410537321375656
 31
0.0
  0
LINE
  5
592
330
1F
100
AcDbEntity
  8
外形線
100
AcDbLine
 10
-68.58385028746522
 20
14.71020225838013
 30
0.0
 11
-83.83390653930723
 21
0.9789612871900388
 31
0.0
  0
LINE
  5
593
330
1F
100
AcDbEntity
  8
外形線
100
AcDbLine
 10
-79.21275053127655
 20
28.16120679487237
 30
0.0
 11
-94.66962911469522
 21
14.24374177137684
 31
0.0
  0
LINE
  5
594
330
1F
100
AcDbEntity
  8
外形線
100
AcDbLine
 10
-78.13507359536782
 20
27.08351225860649
 30
0.0
 11
-93.59195217878651
 21
13.16604723511099
 31
0.0
  0
LINE
  5
595
330
1F
100
AcDbEntity
  8
外形線
100
AcDbLine
 10
-76.58236913425955
 20
27.9598677297617
 30
0.0
 11
-94.59560014174913
 21
11.74064784303646
 31
0.0
  0
LINE
  5
596
330
1F
100
AcDbEntity
  8
外形線
100
AcDbLine
 10
-78.20542414787452
 20
29.58291310291315
 30
0.0
 11
-79.21275210946324
 21
28.16119631030429
 31
0.0
  0
LINE
  5
597
330
1F
100
AcDbEntity
  8
外形線
100
AcDbLine
 10
-79.21275559412754
 20
28.16119879988724
 30
0.0
 11
-78.13507623316505
 21
27.08351934808313
 31
0.0
  0
LINE
  5
598
330
1F
100
AcDbEntity
  8
外形線
100
AcDbLine
 10
-78.13506516598891
 20
27.08351800859759
 30
0.0
 11
-76.58235297382913
 21
27.95985879671858
 31
0.0
  0
LINE
  5
599
330
1F
100
AcDbEntity
  8
外形線
100
AcDbLine
 10
-76.58236067180453
 20
27.95986757696008
 30
0.0
 11
-75.51499885892262
 21
26.8925056741063
 31
0.0
  0
LINE
  5
59A
330
1F
100
AcDbEntity
  8
外形線
100
AcDbLine
 10
-75.51500173187921
 20
26.89249622423219
 30
0.0
 11
-76.52376274382554
 21
25.47221228325123
 31
0.0
  0
LINE
  5
59B
330
1F
100
AcDbEntity
  8
外形線
100
AcDbLine
 10
-76.52376519327853
 20
25.47220817237329
 30
0.0
 11
-75.44465486257573
 21
24.39309775070824
 31
0.0
  0
LINE
  5
59C
330
1F
100
AcDbEntity
  8
外形線
100
AcDbLine
 10
-75.51500970964673
 20
26.89249458343403
 30
0.0
 11
-93.52823646483154
 21
10.67327852550924
 31
0.0
  0
LINE
  5
59D
330
1F
100
AcDbEntity
  8
外形線
100
AcDbLine
 10
-75.44464013661964
 20
24.39309710945855
 30
0.0
 11
-90.90071361699086
 21
10.47635700551549
 31
0.0
  0
LINE
  5
59E
330
1F
100
AcDbEntity
  8
外形線
100
AcDbLine
 10
-74.21890105776864
 20
24.97502534796871
 30
0.0
 11
-91.90515675520272
 21
9.050215967005414
 31
0.0
  0
LINE
  5
59F
330
1F
100
AcDbEntity
  8
外形線
100
AcDbLine
 10
-74.22098792655692
 20
-18.00518684139175
 30
0.0
 11
-51.73259557349904
 21
-18.00518684139175
 31
0.0
  0
LINE
  5
5A0
330
1F
100
AcDbEntity
  8
外形線
100
AcDbLine
 10
-53.45019353492483
 20
-11.23238258113784
 30
0.0
 11
-53.45019353492483
 21
-12.75639991512221
 31
0.0
  0
LINE
  5
5A1
330
1F
100
AcDbEntity
  8
外形線
100
AcDbLine
 10
-53.45020867221734
 20
-12.75647817597486
 30
0.0
 11
-74.22095575367762
 21
-11.66795190011026
 31
0.0
  0
LINE
  5
5A2
330
1F
100
AcDbEntity
  8
外形線
100
AcDbLine
 10
-51.73259427928153
 20
-13.23472765781105
 30
0.0
 11
-75.93857225694455
 21
-11.96617227276164
 31
0.0
  0
LINE
  5
5A3
330
1F
100
AcDbEntity
  8
外形線
100
AcDbLine
 10
-53.45020701010014
 20
-12.7564067956113
 30
0.0
 11
-51.73260262754403
 21
-13.23468570927014
 31
0.0
  0
LINE
  5
5A4
330
1F
100
AcDbEntity
  8
外形線
100
AcDbLine
 10
-51.73259366615042
 20
-13.23468665828628
 30
0.0
 11
-51.73259366615042
 21
-14.74418525447768
 31
0.0
  0
LINE
  5
5A5
330
1F
100
AcDbEntity
  8
外形線
100
AcDbLine
 10
-67.89761568884085
 20
13.29964666187242
 30
0.0
 11
-82.76653122285305
 21
-0.0884129495884807
 31
0.0
  0
LINE
  5
5A6
330
1F
100
AcDbEntity
  8
外形線
100
AcDbLine
 10
-67.72189319757892
 20
12.94316364457091
 30
0.0
 11
-81.20947128067895
 21
0.7988684552060691
 31
0.0
  0
LINE
  5
5A7
330
1F
100
AcDbEntity
  8
外形線
100
AcDbLine
 10
-67.02371303026655
 20
11.5237859363544
 30
0.0
 11
-80.13098934656122
 21
-0.2780832897526295
 31
0.0
  0
LINE
  5
5A8
330
1F
100
AcDbEntity
  8
外形線
100
AcDbLine
 10
-51.73258146314224
 20
-14.74422035153276
 30
0.0
 11
-75.93854741716694
 21
-13.47566559660254
 31
0.0
  0
LINE
  5
5A9
330
1F
100
AcDbEntity
  8
外形線
100
AcDbLine
 10
-53.45021576752003
 20
-15.03723704371967
 30
0.0
 11
-74.22098735261915
 21
-13.94870948370027
 31
0.0
  0
LINE
  5
5AA
330
1F
100
AcDbEntity
  8
外形線
100
AcDbLine
 10
-53.45022018973454
 20
-15.03722419434194
 30
0.0
 11
-51.73261625675554
 21
-14.73897831759504
 31
0.0
  0
LINE
  5
5AB
330
1F
100
AcDbEntity
  8
外形線
100
AcDbLine
 10
-75.9385873184942
 20
-11.96612434139175
 30
0.0
 11
-75.9385873184942
 21
-13.47563056697768
 31
0.0
  0
LINE
  5
5AC
330
1F
100
AcDbEntity
  8
外形線
100
AcDbLine
 10
-75.93857105391254
 20
-13.4703958259997
 30
0.0
 11
-74.22095564670212
 21
-13.94867780955037
 31
0.0
  0
LINE
  5
5AD
330
1F
100
AcDbEntity
  8
中心線
100
AcDbLine
 10
-60.52794845399223
 20
-4.820472897691637
 30
0.0
 11
-95.78016712472605
 21
30.43174280150254
 31
0.0
  0
LINE
  5
5AE
330
1F
100
AcDbEntity
  8
外形線
100
AcDbLine
 10
-66.84737446948902
 20
11.1608302996639
 30
0.0
 11
-81.14347723145504
 21
-1.711465299228763
 31
0.0
  0
LINE
  5
5AF
330
1F
100
AcDbEntity
  8
外形線
100
AcDbLine
 10
-74.22098601920834
 20
-10.14384345760268
 30
0.0
 11
-74.22098601920834
 21
-11.66786079158706
 31
0.0
  0
LINE
  5
5B0
330
1F
100
AcDbEntity
  8
外形線
100
AcDbLine
 10
-74.22098601920834
 20
-18.00518684139175
 30
0.0
 11
-51.73259366615042
 21
-18.00518684139175
 31
0.0
  0
LINE
  5
5B1
330
1F
100
AcDbEntity
  8
外形線
100
AcDbLine
 10
-74.22098976297643
 20
-15.47270744298774
 30
0.0
 11
-75.93859662326983
 21
-15.77095736530016
 31
0.0
  0
LINE
  5
5B2
330
1F
100
AcDbEntity
  8
外形線
100
AcDbLine
 10
-74.22098601920834
 20
-13.94867591609878
 30
0.0
 11
-74.22098601920834
 21
-15.47268562068862
 31
0.0
  0
LINE
  5
5B3
330
1F
100
AcDbEntity
  8
中心線
100
AcDbLine
 10
-63.83561004264585
 20
-22.2666004156105
 30
0.0
 11
-63.83561004264585
 21
44.87261886844711
 31
0.0
  0
LINE
  5
5B4
330
1F
100
AcDbEntity
  8
外形線
100
AcDbLine
 10
-53.45021292002812
 20
-16.56123853107202
 30
0.0
 11
-51.73260486258723
 21
-17.03951846802818
 31
0.0
  0
LINE
  5
5B5
330
1F
100
AcDbEntity
  8
外形線
100
AcDbLine
 10
-97.28605311182157
 20
14.43110231852453
 30
0.0
 11
-96.21866702235596
 21
13.36371613908498
 31
0.0
  0
LINE
  5
5B6
330
1F
100
AcDbEntity
  8
外形線
100
AcDbLine
 10
-80.82554942407005
 20
29.77397864927237
 30
0.0
 11
-79.27282043446369
 21
30.65031683933061
 31
0.0
  0
LINE
  5
5B7
330
1F
100
AcDbEntity
  8
外形線
100
AcDbLine
 10
-66.00893629037414
 20
9.372630518858782
 30
0.0
 11
-78.51704134975523
 21
-1.889741358791084
 31
0.0
  0
LINE
  5
5B8
330
1F
100
AcDbEntity
  8
外形線
100
AcDbLine
 10
-53.45021622342311
 20
-16.56130590292213
 30
0.0
 11
-74.2209672780412
 21
-15.47277941883746
 31
0.0
  0
LINE
  5
5B9
330
1F
100
AcDbEntity
  8
外形線
100
AcDbLine
 10
-51.73259366615042
 20
-17.03951148738784
 30
0.0
 11
-51.73259366615042
 21
-18.00519447078628
 31
0.0
  0
LINE
  5
5BA
330
1F
100
AcDbEntity
  8
外形線
100
AcDbLine
 10
-62.11049498777294
 20
-18.00518393095878
 30
0.0
 11
-75.93854917726813
 21
-17.28050126690668
 31
0.0
  0
LINE
  5
5BB
330
1F
100
AcDbEntity
  8
外形線
100
AcDbLine
 10
-69.41933444724563
 20
-18.00518402142216
 30
0.0
 11
-74.22099396878272
 21
-17.75354489951432
 31
0.0
  0
LINE
  5
5BC
330
1F
100
AcDbEntity
  8
外形線
100
AcDbLine
 10
-75.9385873184942
 20
-15.77095679988784
 30
0.0
 11
-75.9385873184942
 21
-17.28046302547378
 31
0.0
  0
LINE
  5
5BD
330
1F
100
AcDbEntity
  8
外形線
100
AcDbLine
 10
-75.93855858941672
 20
-17.27523267794697
 30
0.0
 11
-74.22094318220634
 21
-17.75351466149764
 31
0.0
  0
LINE
  5
5BE
330
1F
100
AcDbEntity
  8
外形線
100
AcDbLine
 10
-66.17493813283442
 20
9.737886598659102
 30
0.0
 11
-80.07612082271029
 21
-2.7788206283169
 31
0.0
  0
LINE
  5
5BF
330
1F
100
AcDbEntity
  8
外形線
100
AcDbLine
 10
-51.73259270609692
 20
-17.03956350280172
 30
0.0
 11
-75.93857782651544
 21
-15.77100774342409
 31
0.0
  0
LINE
  5
5C0
330
1F
100
AcDbEntity
  8
外形線
100
AcDbLine
 10
-93.52822375109232
 20
10.67328308255943
 30
0.0
 11
-91.98063310036104
 21
11.55475107007638
 31
0.0
  0
LINE
  5
5C1
330
1F
100
AcDbEntity
  8
外形線
100
AcDbLine
 10
-94.59558453676384
 20
11.7406335166773
 30
0.0
 11
-93.52822272388195
 21
10.67327161382353
 31
0.0
  0
LINE
  5
5C2
330
1F
100
AcDbEntity
  8
外形線
100
AcDbLine
 10
-53.45019353492483
 20
-15.0372074102394
 30
0.0
 11
-53.45019353492483
 21
-16.56122474422378
 31
0.0
  0
LINE
  5
5C3
330
1F
100
AcDbEntity
  8
外形線
100
AcDbLine
 10
-74.22099327572405
 20
-11.66787097696959
 30
0.0
 11
-75.93860013601744
 21
-11.96612089928201
 31
0.0
  0
LINE
  5
5C4
330
1F
100
AcDbEntity
  8
外形線
100
AcDbLine
 10
-75.9385873184942
 20
33.69183082828597
 30
0.0
 11
-75.9385873184942
 21
32.18232078800279
 31
0.0
  0
LINE
  5
5C5
330
1F
100
AcDbEntity
  8
外形線
100
AcDbLine
 10
-51.73259366615042
 20
32.42326851139144
 30
0.0
 11
-51.73259366615042
 21
30.91373558292466
 31
0.0
  0
LINE
  5
5C6
330
1F
100
AcDbEntity
  8
外形線
100
AcDbLine
 10
-53.45019353492483
 20
34.4255725885399
 30
0.0
 11
-53.45019353492483
 21
32.90155906925278
 31
0.0
  0
LINE
  5
5C7
330
1F
100
AcDbEntity
  8
外形線
100
AcDbLine
 10
-74.22098601920834
 20
35.51411361942368
 30
0.0
 11
-74.22098601920834
 21
33.99009819278794
 31
0.0
  0
LINE
  5
5C8
330
1F
100
AcDbEntity
  8
外形線
100
AcDbLine
 10
-51.73258909631393
 20
30.91373280039733
 30
0.0
 11
-75.93858778796773
 21
32.1822892709986
 31
0.0
  0
LINE
  5
5C9
330
1F
100
AcDbEntity
  8
外形線
100
AcDbLine
 10
-51.73257675161753
 20
32.42323181538696
 30
0.0
 11
-75.93853639620822
 21
33.69178623966059
 31
0.0
  0
LINE
  5
5CA
330
1F
100
AcDbEntity
  8
外形線
100
AcDbLine
 10
-53.45020268092143
 20
32.9015162811953
 30
0.0
 11
-74.22096385444304
 21
33.99004329557829
 31
0.0
  0
LINE
  5
5CB
330
1F
100
AcDbEntity
  8
外形線
100
AcDbLine
 10
-53.45021524242222
 20
34.42551897378456
 30
0.0
 11
-74.22097093983134
 21
35.51404570118258
 31
0.0
  0
LINE
  5
5CC
330
1F
100
AcDbEntity
  8
外形線
100
AcDbLine
 10
-75.93857488562483
 20
35.99241147674283
 30
0.0
 11
-74.22095901905392
 21
35.51412936527999
 31
0.0
  0
LINE
  5
5CD
330
1F
100
AcDbEntity
  8
外形線
100
AcDbLine
 10
-74.22094754500355
 20
33.9900618504265
 30
0.0
 11
-75.93855064684103
 21
33.69181258074258
 31
0.0
  0
LINE
  5
5CE
330
1F
100
AcDbEntity
  8
外形線
100
AcDbLine
 10
-53.45020776594211
 20
34.4255963191153
 30
0.0
 11
-51.73260218863813
 21
34.72384248138388
 31
0.0
  0
LINE
  5
5CF
330
1F
100
AcDbEntity
  8
外形線
100
AcDbLine
 10
-53.45023884421603
 20
36.70635682681866
 30
0.0
 11
-51.73262343700571
 21
36.228074843268
 31
0.0
  0
LINE
  5
5D0
330
1F
100
AcDbEntity
  8
外形線
100
AcDbLine
 10
-75.9385873184942
 20
37.49666137943343
 30
0.0
 11
-75.9385873184942
 21
35.98715706119615
 31
0.0
  0
LINE
  5
5D1
330
1F
100
AcDbEntity
  8
外形線
100
AcDbLine
 10
-51.73259366615042
 20
36.22809715519029
 30
0.0
 11
-51.73259366615042
 21
34.71859283695298
 31
0.0
  0
LINE
  5
5D2
330
1F
100
AcDbEntity
  8
外形線
100
AcDbLine
 10
-53.45019353492483
 20
38.23040886173325
 30
0.0
 11
-53.45019353492483
 21
36.70639534244614
 31
0.0
  0
LINE
  5
5D3
330
1F
100
AcDbEntity
  8
外形線
100
AcDbLine
 10
-74.22098601920834
 20
39.31894417057114
 30
0.0
 11
-74.22098601920834
 21
37.7949287439354
 31
0.0
  0
LINE
  5
5D4
330
1F
100
AcDbEntity
  8
外形線
100
AcDbLine
 10
-51.73255738248103
 20
34.71854780126469
 30
0.0
 11
-75.93853178876634
 21
35.98710299914997
 31
0.0
  0
LINE
  5
5D5
330
1F
100
AcDbEntity
  8
外形線
100
AcDbLine
 10
-51.73260669618223
 20
36.22807296716016
 30
0.0
 11
-75.93856967405883
 21
37.49662756612028
 31
0.0
  0
LINE
  5
5D6
330
1F
100
AcDbEntity
  8
外形線
100
AcDbLine
 10
-53.45021678868254
 20
36.70636806281036
 30
0.0
 11
-74.22096320050954
 21
37.79489430358167
 31
0.0
  0
LINE
  5
5D7
330
1F
100
AcDbEntity
  8
外形線
100
AcDbLine
 10
-53.45020780731413
 20
38.23041737556057
 30
0.0
 11
-74.22095326677373
 21
39.31894356642144
 31
0.0
  0
LINE
  5
5D8
330
1F
100
AcDbEntity
  8
外形線
100
AcDbLine
 10
-75.93858174541693
 20
39.79721112956011
 30
0.0
 11
-74.22097219505414
 21
39.31893077688946
 31
0.0
  0
LINE
  5
5D9
330
1F
100
AcDbEntity
  8
外形線
100
AcDbLine
 10
-74.22095717906444
 20
37.79492242009421
 30
0.0
 11
-75.93856685819982
 21
37.4966720083104
 31
0.0
  0
LINE
  5
5DA
330
1F
100
AcDbEntity
  8
外形線
100
AcDbLine
 10
-53.45022840103613
 20
38.23038009398326
 30
0.0
 11
-51.73262470296073
 21
38.52862592994137
 31
0.0
  0
LINE
  5
5DB
330
1F
100
AcDbEntity
  8
外形線
100
AcDbLine
 10
-53.45020658263833
 20
40.51120498345293
 30
0.0
 11
-51.73259668775505
 21
40.03292453484815
 31
0.0
  0
LINE
  5
5DC
330
1F
100
AcDbEntity
  8
外形線
100
AcDbLine
 10
-75.9385873184942
 20
41.30149383792954
 30
0.0
 11
-75.9385873184942
 21
39.79198951969222
 31
0.0
  0
LINE
  5
5DD
330
1F
100
AcDbEntity
  8
外形線
100
AcDbLine
 10
-51.73259366615042
 20
40.03292579898911
 30
0.0
 11
-51.73259366615042
 21
38.52342148075179
 31
0.0
  0
LINE
  5
5DE
330
1F
100
AcDbEntity
  8
外形線
100
AcDbLine
 10
-53.45019353492483
 20
42.03523369083479
 30
0.0
 11
-53.45019353492483
 21
40.51122398624497
 31
0.0
  0
LINE
  5
5DF
330
1F
100
AcDbEntity
  8
外形線
100
AcDbLine
 10
-74.22098601920834
 20
43.12377281436996
 30
0.0
 11
-74.22098601920834
 21
41.59975738773423
 31
0.0
  0
LINE
  5
5E0
330
1F
100
AcDbEntity
  8
外形線
100
AcDbLine
 10
-51.73258302661022
 20
38.52343456685185
 30
0.0
 11
-75.93855076632384
 21
39.79198941536414
 31
0.0
  0
LINE
  5
5E1
330
1F
100
AcDbEntity
  8
外形線
100
AcDbLine
 10
-51.73260816954591
 20
40.0329107168856
 30
0.0
 11
-75.93858209964754
 21
41.3014658898157
 31
0.0
  0
LINE
  5
5E2
330
1F
100
AcDbEntity
  8
外形線
100
AcDbLine
 10
-53.45019693760453
 20
42.03519908941038
 30
0.0
 11
-74.22095144455443
 21
43.12372575442036
 31
0.0
  0
LINE
  5
5E3
330
1F
100
AcDbEntity
  8
外形線
100
AcDbLine
 10
-51.73259366615042
 20
43.59681625614242
 30
0.0
 11
-51.73259366615042
 21
42.32825203189925
 31
0.0
  0
LINE
  5
5E4
330
1F
100
AcDbEntity
  8
外形線
100
AcDbLine
 10
-53.45014288725636
 20
42.0352326337361
 30
0.0
 11
-51.73253918918094
 21
42.33347846969421
 31
0.0
  0
LINE
  5
5E5
330
1F
100
AcDbEntity
  8
外形線
100
AcDbLine
 10
-74.22098904923092
 20
41.59973266726222
 30
0.0
 11
-75.93859872836633
 21
41.30148225547841
 31
0.0
  0
LINE
  5
5E6
330
1F
100
AcDbEntity
  8
外形線
100
AcDbLine
 10
-75.93859403043833
 20
43.60203407212991
 30
0.0
 11
-74.22097905387843
 21
43.12375220849689
 31
0.0
  0
LINE
  5
5E7
330
1F
100
AcDbEntity
  8
外形線
100
AcDbLine
 10
-53.45022979841434
 20
40.51124079650796
 30
0.0
 11
-74.22097811497613
 21
41.59976713710014
 31
0.0
  0
LINE
  5
5E8
330
1F
100
AcDbEntity
  8
外形線
100
AcDbLine
 10
-53.45018911546553
 20
30.62071431143488
 30
0.0
 11
-74.22098671703993
 21
31.70924323489183
 31
0.0
  0
LINE
  5
5E9
330
1F
100
AcDbEntity
  8
外形線
100
AcDbLine
 10
-53.4501873992589
 20
25.29182103565049
 30
0.0
 11
-74.22098571510884
 21
26.38034999654026
 31
0.0
  0
LINE
  5
5EA
330
1F
100
AcDbEntity
  8
外形線
100
AcDbLine
 10
-51.73259494242673
 20
27.10890116415967
 30
0.0
 11
-75.93858911033534
 21
28.37745739768641
 31
0.0
  0
LINE
  5
5EB
330
1F
100
AcDbEntity
  8
外形線
100
AcDbLine
 10
-51.73258911050155
 20
28.61838524073355
 30
0.0
 11
-75.93858780215533
 21
29.88694171133481
 31
0.0
  0
LINE
  5
5EC
330
1F
100
AcDbEntity
  8
外形線
100
AcDbLine
 10
-53.45019147610353
 20
29.09664555205332
 30
0.0
 11
-74.22098788721864
 21
30.18517441312224
 31
0.0
  0
LINE
  5
5ED
330
1F
100
AcDbEntity
  8
外形線
100
AcDbLine
 10
-51.73258430033222
 20
42.32827612604689
 30
0.0
 11
-75.93854918294366
 21
43.59683082482789
 31
0.0
  0
LINE
  5
5EE
330
1F
100
AcDbEntity
  8
外形線
100
AcDbLine
 10
-54.76466565229114
 20
23.46297767634162
 30
0.0
 11
-73.48673311038172
 21
24.44413941726097
 31
0.0
  0
LINE
  5
5EF
330
1F
100
AcDbEntity
  8
外形線
100
AcDbLine
 10
-56.69833387557172
 20
19.75947526106335
 30
0.0
 11
-71.34943366575433
 21
20.52729102760181
 31
0.0
  0
LINE
  5
5F0
330
1F
100
AcDbEntity
  8
外形線
100
AcDbLine
 10
-55.96794636217261
 20
21.23069008507316
 30
0.0
 11
-72.14399504116042
 21
22.07842338795757
 31
0.0
  0
LINE
  5
5F1
330
1F
100
AcDbEntity
  8
外形線
100
AcDbLine
 10
-55.77352284189892
 20
21.60874361270864
 30
0.0
 11
-72.35805539485841
 21
22.47788420673868
 31
0.0
  0
LINE
  5
5F2
330
1F
100
AcDbEntity
  8
外形線
100
AcDbLine
 10
-54.97547181788304
 20
23.09099309648801
 30
0.0
 11
-73.24841324012183
 21
24.04861762474563
 31
0.0
  0
LINE
  5
5F3
330
1F
100
AcDbEntity
  8
外形線
100
AcDbLine
 10
-53.88518917168383
 20
24.92635250030144
 30
0.0
 11
-74.22098608321444
 21
25.99208447383288
 31
0.0
  0
LINE
  5
5F4
330
1F
100
AcDbEntity
  8
外形線
100
AcDbLine
 10
-57.58384009494272
 20
17.89879969994034
 30
0.0
 11
-70.40408446331103
 21
18.57066637874796
 31
0.0
  0
LINE
  5
5F5
330
1F
100
AcDbEntity
  8
外形線
100
AcDbLine
 10
-59.34013930040715
 20
14.18601341985317
 30
0.0
 11
-68.56427740324784
 21
14.66942004253107
 31
0.0
  0
LINE
  5
5F6
330
1F
100
AcDbEntity
  8
外形線
100
AcDbLine
 10
-58.62917237782014
 20
15.67281523406689
 30
0.0
 11
-69.30577921945964
 21
16.23234094773627
 31
0.0
  0
LINE
  5
5F7
330
1F
100
AcDbEntity
  8
外形線
100
AcDbLine
 10
-58.45283141078855
 20
16.04660220125136
 30
0.0
 11
-69.49016377744803
 21
16.62503234868132
 31
0.0
  0
LINE
  5
5F8
330
1F
100
AcDbEntity
  8
外形線
100
AcDbLine
 10
-57.76167658176984
 20
17.51986544085086
 30
0.0
 11
-70.21615574177864
 21
18.17256357273357
 31
0.0
  0
LINE
  5
5F9
330
1F
100
AcDbEntity
  8
外形線
100
AcDbLine
 10
-56.87862488307303
 20
19.38589530245816
 30
0.0
 11
-71.15549669236912
 21
20.13409901610506
 31
0.0
  0
LINE
  5
5FA
330
1F
100
AcDbEntity
  8
外形線
100
AcDbLine
 10
-59.52443915494633
 20
13.80742170445756
 30
0.0
 11
-68.37258531925171
 21
14.27112383104759
 31
0.0
  0
LINE
  5
5FB
330
1F
100
AcDbEntity
  8
外形線
100
AcDbLine
 10
-60.24896147918482
 20
12.33589950524894
 30
0.0
 11
-67.61264649298744
 21
12.72180592417928
 31
0.0
  0
LINE
  5
5FC
330
1F
100
AcDbEntity
  8
外形線
100
AcDbLine
 10
-60.43272623584643
 20
11.9624977744358
 30
0.0
 11
-67.41866439651973
 21
12.3286077279986
 31
0.0
  0
LINE
  5
5FD
330
1F
100
AcDbEntity
  8
外形線
100
AcDbLine
 10
-61.15183303437653
 20
10.47611872431265
 30
0.0
 11
-66.65672721965133
 21
10.76461205308052
 31
0.0
  0
LINE
  5
5FE
330
1F
100
AcDbEntity
  8
外形線
100
AcDbLine
 10
-61.99207382922553
 20
8.622429785472213
 30
0.0
 11
-65.76446723657584
 21
8.820128468658467
 31
0.0
  0
LINE
  5
5FF
330
1F
100
AcDbEntity
  8
外形線
100
AcDbLine
 10
-62.15035762332953
 20
8.247692681541826
 30
0.0
 11
-65.59656595988712
 21
8.428297082131491
 31
0.0
  0
LINE
  5
600
330
1F
100
AcDbEntity
  8
外形線
100
AcDbLine
 10
-62.72830838109553
 20
6.753908469512232
 30
0.0
 11
-64.98515453598483
 21
6.872182325071996
 31
0.0
  0
LINE
  5
601
330
1F
100
AcDbEntity
  8
外形線
100
AcDbLine
 10
-62.85981706645944
 20
6.37255014324045
 30
0.0
 11
-64.84657654628033
 21
6.47666964790374
 31
0.0
  0
LINE
  5
602
330
1F
100
AcDbEntity
  8
外形線
100
AcDbLine
 10
-63.29386777835811
 20
4.885820565606373
 30
0.0
 11
-64.39152002955684
 21
4.943344895978596
 31
0.0
  0
LINE
  5
603
330
1F
100
AcDbEntity
  8
外形線
100
AcDbLine
 10
-63.38111802604354
 20
4.507368467903519
 30
0.0
 11
-64.30062167483743
 21
4.555556618216073
 31
0.0
  0
LINE
  5
604
330
1F
100
AcDbEntity
  8
外形線
100
AcDbLine
 10
-63.61146519799081
 20
2.995367499622211
 30
0.0
 11
-64.06169795130285
 21
3.018962711692017
 31
0.0
  0
LINE
  5
605
330
1F
100
AcDbEntity
  8
外形線
100
AcDbLine
 10
-63.63480310830453
 20
2.608332660312818
 30
0.0
 11
-64.03726362670854
 21
2.629424287280436
 31
0.0
  0
LINE
  5
606
330
1F
100
AcDbEntity
  8
外形線
100
AcDbLine
 10
-63.54635244506543
 20
1.094228150612224
 30
0.0
 11
-64.11988348752213
 21
1.12428501892274
 31
0.0
  0
LINE
  5
607
330
1F
100
AcDbEntity
  8
外形線
100
AcDbLine
 10
-63.46848096897254
 20
0.707114928683474
 30
0.0
 11
-64.19392850482755
 21
0.7451332388310306
 31
0.0
  0
LINE
  5
608
330
1F
100
AcDbEntity
  8
外形線
100
AcDbLine
 10
-62.84382638042292
 20
-0.8496900389781743
 30
0.0
 11
-64.76875215673953
 21
-0.7488110345595162
 31
0.0
  0
LINE
  5
609
330
1F
100
AcDbEntity
  8
外形線
100
AcDbLine
 10
-62.58107879676053
 20
-1.251702394731303
 30
0.0
 11
-65.00213264575944
 21
-1.124822956087008
 31
0.0
  0
LINE
  5
60A
330
1F
100
AcDbEntity
  8
外形線
100
AcDbLine
 10
-61.03609856119184
 20
-2.842161729893866
 30
0.0
 11
-66.30351060873483
 21
-2.566114055870905
 31
0.0
  0
LINE
  5
60B
330
1F
100
AcDbEntity
  8
外形線
100
AcDbLine
 10
-60.48495407852263
 20
-3.254077627494048
 30
0.0
 11
-66.74190717764902
 21
-2.926171374120498
 31
0.0
  0
LINE
  5
60C
330
1F
100
AcDbEntity
  8
外形線
100
AcDbLine
 10
-53.45018839731602
 20
26.81790307528493
 30
0.0
 11
-74.22098718934964
 21
27.90643206112993
 31
0.0
  0
LINE
  5
60D
330
1F
100
AcDbEntity
  8
外形線
100
AcDbLine
 10
-51.73259090714752
 20
30.91373320946315
 30
0.0
 11
-53.45018586040044
 21
30.62071587119414
 31
0.0
  0
LINE
  5
60E
330
1F
100
AcDbEntity
  8
外形線
100
AcDbLine
 10
-53.45019353492483
 20
30.62071724186019
 30
0.0
 11
-53.45019353492483
 21
29.09665031681136
 31
0.0
  0
LINE
  5
60F
330
1F
100
AcDbEntity
  8
外形線
100
AcDbLine
 10
-53.45019067438792
 20
29.09665584197263
 30
0.0
 11
-51.73259264991585
 21
28.61838964669141
 31
0.0
  0
LINE
  5
610
330
1F
100
AcDbEntity
  8
外形線
100
AcDbLine
 10
-51.73259366615042
 20
28.61838264713365
 30
0.0
 11
-51.73259366615042
 21
27.10890693912583
 31
0.0
  0
LINE
  5
611
330
1F
100
AcDbEntity
  8
外形線
100
AcDbLine
 10
-51.73259360815886
 20
27.10890394395514
 30
0.0
 11
-53.45018963090163
 21
26.81791287818187
 31
0.0
  0
LINE
  5
612
330
1F
100
AcDbEntity
  8
外形線
100
AcDbLine
 10
-53.45019353492483
 20
26.81791038761216
 30
0.0
 11
-53.45019353492483
 21
25.29181785831529
 31
0.0
  0
LINE
  5
613
330
1F
100
AcDbEntity
  8
外形線
100
AcDbLine
 10
-53.62075888119171
 20
25.33932070806962
 30
0.0
 11
-53.45018757736564
 21
25.29182483786383
 31
0.0
  0
LINE
  5
614
330
1F
100
AcDbEntity
  8
外形線
100
AcDbLine
 10
-75.93858398063403
 20
43.59682197818832
 30
0.0
 11
-51.73258985145314
 21
43.59682197818832
 31
0.0
  0
LINE
  5
615
330
1F
100
AcDbEntity
  8
外形線
100
AcDbLine
 10
-75.93858863663834
 20
28.37746685494949
 30
0.0
 11
-74.22098708064483
 21
27.90644770719625
 31
0.0
  0
LINE
  5
616
330
1F
100
AcDbEntity
  8
外形線
100
AcDbLine
 10
-74.2209880825372
 20
30.18518050370043
 30
0.0
 11
-75.93858895002224
 21
29.88694623857926
 31
0.0
  0
LINE
  5
617
330
1F
100
AcDbEntity
  8
外形線
100
AcDbLine
 10
-74.22099126441705
 20
43.59682197818832
 30
0.0
 11
-51.73259938819636
 21
43.59682197818832
 31
0.0
  0
LINE
  5
618
330
1F
100
AcDbEntity
  8
外形線
100
AcDbLine
 10
-75.9385873184942
 20
29.88693733463364
 30
0.0
 11
-75.9385873184942
 21
28.37745781192855
 31
0.0
  0
LINE
  5
619
330
1F
100
AcDbEntity
  8
外形線
100
AcDbLine
 10
-74.22098601920834
 20
31.7092411066063
 30
0.0
 11
-74.22098601920834
 21
30.18517418155747
 31
0.0
  0
LINE
  5
61A
330
1F
100
AcDbEntity
  8
外形線
100
AcDbLine
 10
-74.21962692356435
 20
25.99201324476316
 30
0.0
 11
-74.22098695655733
 21
27.90644463675636
 31
0.0
  0
LINE
  5
61B
330
1F
100
AcDbEntity
  8
外形線
100
AcDbLine
 10
-75.93858313376205
 20
32.18229796137882
 30
0.0
 11
-74.22098269109233
 21
31.70925222098853
 31
0.0
  0
LINE
  5
61C
330
1F
100
AcDbEntity
  8
外形線
100
AcDbLine
 10
-99.73846143809184
 20
19.31255735160625
 30
0.0
 11
-83.83676366854473
 21
35.21425646156629
 31
0.0
  0
LINE
  5
61D
330
1F
100
AcDbEntity
  8
外形線
100
AcDbLine
 10
-90.90071854403229
 20
10.47635940711967
 30
0.0
 11
-91.90516212979494
 21
9.050209081617179
 31
0.0
  0
LINE
  5
61E
330
1F
100
AcDbEntity
  8
外形線
100
AcDbLine
 10
-91.90516581594231
 20
9.050209570062179
 30
0.0
 11
-90.83781803161304
 21
7.982855217852383
 31
0.0
  0
LINE
  5
61F
330
1F
100
AcDbEntity
  8
外形線
100
AcDbLine
 10
-90.83780534347031
 20
7.982852492059172
 30
0.0
 11
-89.28676752286705
 21
8.864695390631965
 31
0.0
  0
LINE
  5
620
330
1F
100
AcDbEntity
  8
外形線
100
AcDbLine
 10
-89.28676573581345
 20
8.864702552945926
 30
0.0
 11
-88.20828104349862
 21
7.787748053703516
 31
0.0
  0
LINE
  5
621
330
1F
100
AcDbEntity
  8
外形線
100
AcDbLine
 10
-88.20827905414422
 20
7.787742998362713
 30
0.0
 11
-89.21474323427295
 21
6.359791804499526
 31
0.0
  0
LINE
  5
622
330
1F
100
AcDbEntity
  8
外形線
100
AcDbLine
 10
-89.21474536680893
 20
6.359799231244544
 30
0.0
 11
-88.14738495026773
 21
5.29243053726955
 31
0.0
  0
LINE
  5
623
330
1F
100
AcDbEntity
  8
外形線
100
AcDbLine
 10
-88.14738279793925
 20
5.292427107298031
 30
0.0
 11
-86.59433429645167
 21
6.176081973278057
 31
0.0
  0
LINE
  5
624
330
1F
100
AcDbEntity
  8
外形線
100
AcDbLine
 10
-86.5943316799972
 20
6.176086747674006
 30
0.0
 11
-85.51585434734631
 21
5.099143773521816
 31
0.0
  0
LINE
  5
625
330
1F
100
AcDbEntity
  8
外形線
100
AcDbLine
 10
-85.515855395655
 20
5.099142191692791
 30
0.0
 11
-86.52432520517981
 21
3.669379838094442
 31
0.0
  0
LINE
  5
626
330
1F
100
AcDbEntity
  8
外形線
100
AcDbLine
 10
-86.52433076254956
 20
3.669370492842616
 30
0.0
 11
-85.45696319766003
 21
2.601995460221401
 31
0.0
  0
LINE
  5
627
330
1F
100
AcDbEntity
  8
外形線
100
AcDbLine
 10
-85.45696537868403
 20
2.602013520836173
 30
0.0
 11
-83.9019110041657
 21
3.487480707285022
 31
0.0
  0
LINE
  5
628
330
1F
100
AcDbEntity
  8
外形線
100
AcDbLine
 10
-83.90190875768494
 20
3.487474363659173
 30
0.0
 11
-82.82343076552463
 21
2.410537448607589
 31
0.0
  0
LINE
  5
629
330
1F
100
AcDbEntity
  8
外形線
100
AcDbLine
 10
-82.82343488477158
 20
2.410546944763711
 30
0.0
 11
-83.83391446837164
 21
0.9789719353781052
 31
0.0
  0
LINE
  5
62A
330
1F
100
AcDbEntity
  8
外形線
100
AcDbLine
 10
-83.83390761488584
 20
0.9789652743721788
 30
0.0
 11
-82.76653672100104
 21
-0.0884064292666693
 31
0.0
  0
LINE
  5
62B
330
1F
100
AcDbEntity
  8
外形線
100
AcDbLine
 10
-82.76653926054853
 20
-0.0884060352935095
 30
0.0
 11
-81.20947835024173
 21
0.7988719257767514
 31
0.0
  0
LINE
  5
62C
330
1F
100
AcDbEntity
  8
外形線
100
AcDbLine
 10
-81.20948003803794
 20
0.7988602515888204
 30
0.0
 11
-80.13099630817256
 21
-0.2780871135157739
 31
0.0
  0
LINE
  5
62D
330
1F
100
AcDbEntity
  8
外形線
100
AcDbLine
 10
-80.13098720057334
 20
-0.2780787911429101
 30
0.0
 11
-81.14347829755752
 21
-1.711464979005199
 31
0.0
  0
LINE
  5
62E
330
1F
100
AcDbEntity
  8
外形線
100
AcDbLine
 10
-81.14347410004274
 20
-1.711468430637834
 30
0.0
 11
-80.07611574844323
 21
-2.778825702578854
 31
0.0
  0
LINE
  5
62F
330
1F
100
AcDbEntity
  8
外形線
100
AcDbLine
 10
-80.0761245964979
 20
-2.778822684714298
 30
0.0
 11
-78.51704461172501
 21
-1.889740913991481
 31
0.0
  0
LINE
  5
630
330
1F
100
AcDbEntity
  8
外形線
100
AcDbLine
 10
-78.51704604109284
 20
-1.88974317585157
 30
0.0
 11
-77.43856444458842
 21
-2.96669267735632
 31
0.0
  0
LINE
  5
631
330
1F
100
AcDbEntity
  8
外形線
100
AcDbLine
 10
-77.43856320061903
 20
-2.966703543469428
 30
0.0
 11
-78.45305832515333
 21
-4.401896608748153
 31
0.0
  0
LINE
  5
632
330
1F
100
AcDbEntity
  8
外形線
100
AcDbLine
 10
-78.45306513188885
 20
-4.401897193494638
 30
0.0
 11
-77.38570790493364
 21
-5.469255590079839
 31
0.0
  0
LINE
  5
633
330
1F
100
AcDbEntity
  8
外形線
100
AcDbLine
 10
-77.3856986569467
 20
-5.469265066920184
 30
0.0
 11
-75.82461266916833
 21
-4.578356942863606
 31
0.0
  0
LINE
  5
634
330
1F
100
AcDbEntity
  8
外形線
100
AcDbLine
 10
-74.15903859402985
 20
-6.24156036385429
 30
0.0
 11
-75.82461551351213
 21
-4.578349008395576
 31
0.0
  0
LINE
  5
635
330
1F
100
AcDbEntity
  8
外形線
100
AcDbLine
 10
-54.70763209046992
 20
23.5621924479776
 30
0.0
 11
-38.38445225404661
 21
8.864704645404586
 31
0.0
  0
LINE
  5
636
330
1F
100
AcDbEntity
  8
外形線
100
AcDbLine
 10
-55.46474357993183
 20
22.19587428466587
 30
0.0
 11
-39.46293553972325
 21
7.787751550804451
 31
0.0
  0
LINE
  5
637
330
1F
100
AcDbEntity
  8
外形線
100
AcDbLine
 10
-44.155236581517
 20
32.46436773230637
 30
0.0
 11
-45.7079722153562
 21
33.34070967227531
 31
0.0
  0
LINE
  5
638
330
1F
100
AcDbEntity
  8
外形線
100
AcDbLine
 10
-45.76800315089339
 20
30.85164667409383
 30
0.0
 11
-46.77164292805848
 21
32.2770706602742
 31
0.0
  0
LINE
  5
639
330
1F
100
AcDbEntity
  8
外形線
100
AcDbLine
 10
-31.38882734303597
 20
15.85654278262871
 30
0.0
 11
-30.38519256705382
 21
14.43111994054016
 31
0.0
  0
LINE
  5
63A
330
1F
100
AcDbEntity
  8
外形線
100
AcDbLine
 10
-55.65166032605812
 20
21.8424510084948
 30
0.0
 11
-38.45646978633748
 21
6.359799603985166
 31
0.0
  0
LINE
  5
63B
330
1F
100
AcDbEntity
  8
外形線
100
AcDbLine
 10
-27.69474897462853
 20
17.12152054415138
 30
0.0
 11
-28.76212764624911
 21
16.05414178255749
 31
0.0
  0
LINE
  5
63C
330
1F
100
AcDbEntity
  8
外形線
100
AcDbLine
 10
-45.76803539517999
 20
30.85158281476072
 30
0.0
 11
-30.31118799532999
 21
16.93414586913521
 31
0.0
  0
LINE
  5
63D
330
1F
100
AcDbEntity
  8
外形線
100
AcDbLine
 10
-63.59001300092723
 20
1.397304828245735
 30
0.0
 11
-55.97382159717422
 21
-5.460359020371695
 31
0.0
  0
LINE
  5
63E
330
1F
100
AcDbEntity
  8
外形線
100
AcDbLine
 10
-28.7584255220536
 20
16.05786977978335
 30
0.0
 11
-30.31115949483459
 21
16.9342107822746
 31
0.0
  0
LINE
  5
63F
330
1F
100
AcDbEntity
  8
外形線
100
AcDbLine
 10
-54.51090265405535
 20
23.89977352041096
 30
0.0
 11
-36.83341174328727
 21
7.982856005273276
 31
0.0
  0
LINE
  5
640
330
1F
100
AcDbEntity
  8
外形線
100
AcDbLine
 10
-36.77049651614247
 20
10.47635428897861
 30
0.0
 11
-35.69058068824525
 21
11.55473689341049
 31
0.0
  0
LINE
  5
641
330
1F
100
AcDbEntity
  8
外形線
100
AcDbLine
 10
-34.07928174603441
 20
13.16605403940941
 30
0.0
 11
-33.07563740315567
 21
11.74064259881848
 31
0.0
  0
LINE
  5
642
330
1F
100
AcDbEntity
  8
外形線
100
AcDbLine
 10
-33.00159746535776
 20
14.24372204021777
 30
0.0
 11
-34.07927547762117
 21
13.16604393711288
 31
0.0
  0
LINE
  5
643
330
1F
100
AcDbEntity
  8
外形線
100
AcDbLine
 10
-56.53502659576884
 20
20.09469191359345
 30
0.0
 11
-41.07688623964729
 21
6.176090782483226
 31
0.0
  0
LINE
  5
644
330
1F
100
AcDbEntity
  8
外形線
100
AcDbLine
 10
-43.07759882210077
 20
33.54206492252358
 30
0.0
 11
-44.15524041948859
 21
32.46442323429735
 31
0.0
  0
LINE
  5
645
330
1F
100
AcDbEntity
  8
外形線
100
AcDbLine
 10
-31.4525733104272
 20
13.36370102693181
 30
0.0
 11
-33.00159122135915
 21
14.2437323739011
 31
0.0
  0
LINE
  5
646
330
1F
100
AcDbEntity
  8
外形線
100
AcDbLine
 10
-45.70797958308332
 20
33.34074786093814
 30
0.0
 11
-46.77536095210213
 21
32.27336640194582
 31
0.0
  0
LINE
  5
647
330
1F
100
AcDbEntity
  8
外形線
100
AcDbLine
 10
-56.35945325421964
 20
20.45132462573864
 30
0.0
 11
-39.52383564893685
 21
5.29243482105182
 31
0.0
  0
LINE
  5
648
330
1F
100
AcDbEntity
  8
外形線
100
AcDbLine
 10
-27.93276951642873
 20
19.31255041641704
 30
0.0
 11
-28.69836260408952
 21
18.54695726422155
 31
0.0
  0
LINE
  5
649
330
1F
100
AcDbEntity
  8
外形線
100
AcDbLine
 10
-46.84568268310822
 20
29.77396681359657
 30
0.0
 11
-31.38883244838832
 21
15.85652731543742
 31
0.0
  0
LINE
  5
64A
330
1F
100
AcDbEntity
  8
外形線
100
AcDbLine
 10
-52.22656824038836
 20
24.39310106060124
 30
0.0
 11
-53.45223979067341
 21
25.08486057395372
 31
0.0
  0
LINE
  5
64B
330
1F
100
AcDbEntity
  8
外形線
100
AcDbLine
 10
-62.44736971921323
 20
7.509771347728679
 30
0.0
 11
-49.21816405838483
 21
-4.401883782351617
 31
0.0
  0
LINE
  5
64C
330
1F
100
AcDbEntity
  8
外形線
100
AcDbLine
 10
-62.99029174253154
 20
5.970196792358271
 30
0.0
 11
-50.28552857043353
 21
-5.469247214735636
 31
0.0
  0
LINE
  5
64D
330
1F
100
AcDbEntity
  8
外形線
100
AcDbLine
 10
-63.11228432377234
 20
5.565335045845792
 30
0.0
 11
-51.84660596334204
 21
-4.578348473505542
 31
0.0
  0
LINE
  5
64E
330
1F
100
AcDbEntity
  8
外形線
100
AcDbLine
 10
-63.50304430552291
 20
3.86914411540868
 30
0.0
 11
-52.92509330369584
 21
-5.65530561702986
 31
0.0
  0
LINE
  5
64F
330
1F
100
AcDbEntity
  8
外形線
100
AcDbLine
 10
-63.56944632688742
 20
3.407200967505828
 30
0.0
 11
-53.19983552016893
 21
-5.929658019313292
 31
0.0
  0
LINE
  5
650
330
1F
100
AcDbEntity
  8
外形線
100
AcDbLine
 10
-48.39840027932313
 20
30.65032693791284
 30
0.0
 11
-49.46579985577971
 21
29.58292727148119
 31
0.0
  0
LINE
  5
651
330
1F
100
AcDbEntity
  8
外形線
100
AcDbLine
 10
-45.76802558748648
 20
30.85163793035183
 30
0.0
 11
-46.84566718487431
 21
29.77399624212561
 31
0.0
  0
LINE
  5
652
330
1F
100
AcDbEntity
  8
外形線
100
AcDbLine
 10
-30.31114170294147
 20
16.93417802942249
 30
0.0
 11
-31.38878532337797
 21
15.85653431814745
 31
0.0
  0
LINE
  5
653
330
1F
100
AcDbEntity
  8
外形線
100
AcDbLine
 10
-49.46579520238284
 20
29.5829236303488
 30
0.0
 11
-31.4525599425883
 21
13.36369991482313
 31
0.0
  0
LINE
  5
654
330
1F
100
AcDbEntity
  8
外形線
100
AcDbLine
 10
-48.39842301510184
 20
30.65031095102594
 30
0.0
 11
-30.385220356311
 21
14.43111658963704
 31
0.0
  0
LINE
  5
655
330
1F
100
AcDbEntity
  8
外形線
100
AcDbLine
 10
-46.77540540178156
 20
32.27337295636467
 30
0.0
 11
-28.76219423838108
 21
16.05417093737488
 31
0.0
  0
LINE
  5
656
330
1F
100
AcDbEntity
  8
外形線
100
AcDbLine
 10
-45.70797495274613
 20
33.34073091715126
 30
0.0
 11
-27.69476945908536
 21
17.12153400322871
 31
0.0
  0
LINE
  5
657
330
1F
100
AcDbEntity
  8
外形線
100
AcDbLine
 10
-62.29511902640544
 20
7.894420976591532
 30
0.0
 11
-50.23265796653603
 21
-2.966690404467037
 31
0.0
  0
LINE
  5
658
330
1F
100
AcDbEntity
  8
外形線
100
AcDbLine
 10
-63.48739581173752
 20
0.7901877145747207
 30
0.0
 11
-56.93980191628444
 21
-5.105304608550396
 31
0.0
  0
LINE
  5
659
330
1F
100
AcDbEntity
  8
外形線
100
AcDbLine
 10
-44.15523518542499
 20
32.46439755452904
 30
0.0
 11
-28.69839629018466
 21
18.54696826650443
 31
0.0
  0
LINE
  5
65A
330
1F
100
AcDbEntity
  8
外形線
100
AcDbLine
 10
-43.07759036506209
 20
33.54207352584932
 30
0.0
 11
-33.88717465484063
 21
25.2669687879754
 31
0.0
  0
LINE
  5
65B
330
1F
100
AcDbEntity
  8
外形線
100
AcDbLine
 10
-28.69838120123204
 20
18.54699047771891
 30
0.0
 11
-27.69474203294632
 21
17.12156139741503
 31
0.0
  0
LINE
  5
65C
330
1F
100
AcDbEntity
  8
外形線
100
AcDbLine
 10
-43.07760139900913
 20
33.54201148607112
 30
0.0
 11
-44.08123898001631
 21
34.96743235314819
 31
0.0
  0
LINE
  5
65D
330
1F
100
AcDbEntity
  8
外形線
100
AcDbLine
 10
-43.83446997508833
 20
35.2142576268582
 30
0.0
 11
-44.08493958151281
 21
34.96378799932073
 31
0.0
  0
LINE
  5
65E
330
1F
100
AcDbEntity
  8
外形線
100
AcDbLine
 10
-51.14746073036713
 20
25.47221102825258
 30
0.0
 11
-35.69058214694833
 21
11.55474600475706
 31
0.0
  0
LINE
  5
65F
330
1F
100
AcDbEntity
  8
外形線
100
AcDbLine
 10
-57.22224476593961
 20
18.66545422459817
 30
0.0
 11
-42.1553627675289
 21
5.099144436090057
 31
0.0
  0
LINE
  5
660
330
1F
100
AcDbEntity
  8
外形線
100
AcDbLine
 10
-57.39524341750033
 20
18.29949131386756
 30
0.0
 11
-41.14689234143628
 21
3.66937977031295
 31
0.0
  0
LINE
  5
661
330
1F
100
AcDbEntity
  8
外形線
100
AcDbLine
 10
-44.08492635897874
 20
34.96380737629886
 30
0.0
 11
-39.05523358826591
 21
30.43504221601498
 31
0.0
  0
LINE
  5
662
330
1F
100
AcDbEntity
  8
外形線
100
AcDbLine
 10
-58.06449634856495
 20
16.87365558968379
 30
0.0
 11
-42.2142622556877
 21
2.602010935731662
 31
0.0
  0
LINE
  5
663
330
1F
100
AcDbEntity
  8
外形線
100
AcDbLine
 10
-58.23420336647043
 20
16.51175107135778
 30
0.0
 11
-43.76931617057102
 21
3.487480968486067
 31
0.0
  0
LINE
  5
664
330
1F
100
AcDbEntity
  8
外形線
100
AcDbLine
 10
-58.91296479927955
 20
15.07490401914134
 30
0.0
 11
-44.84778999533442
 21
2.410537321375648
 31
0.0
  0
LINE
  5
665
330
1F
100
AcDbEntity
  8
外形線
100
AcDbLine
 10
-59.08736979782643
 20
14.71020225838013
 30
0.0
 11
-43.8373135459844
 21
0.9789612871900461
 31
0.0
  0
LINE
  5
666
330
1F
100
AcDbEntity
  8
外形線
100
AcDbLine
 10
-48.45846955401512
 20
28.16120679487234
 30
0.0
 11
-33.00159097059637
 21
14.24374177137684
 31
0.0
  0
LINE
  5
667
330
1F
100
AcDbEntity
  8
外形線
100
AcDbLine
 10
-49.53614648992384
 20
27.08351225860651
 30
0.0
 11
-34.07926790650507
 21
13.16604723511099
 31
0.0
  0
LINE
  5
668
330
1F
100
AcDbEntity
  8
外形線
100
AcDbLine
 10
-51.08885095103214
 20
27.9598677297617
 30
0.0
 11
-33.07561994354245
 21
11.74064784303647
 31
0.0
  0
LINE
  5
669
330
1F
100
AcDbEntity
  8
外形線
100
AcDbLine
 10
-49.46579593741715
 20
29.58291310291315
 30
0.0
 11
-48.45846797582841
 21
28.16119631030429
 31
0.0
  0
LINE
  5
66A
330
1F
100
AcDbEntity
  8
外形線
100
AcDbLine
 10
-48.45846449116407
 20
28.1611987998872
 30
0.0
 11
-49.53614385212652
 21
27.08351934808312
 31
0.0
  0
LINE
  5
66B
330
1F
100
AcDbEntity
  8
外形線
100
AcDbLine
 10
-49.53615491930263
 20
27.08351800859762
 30
0.0
 11
-51.08886711146244
 21
27.95985879671861
 31
0.0
  0
LINE
  5
66C
330
1F
100
AcDbEntity
  8
外形線
100
AcDbLine
 10
-51.08885941348713
 20
27.95986757696008
 30
0.0
 11
-52.15622122636903
 21
26.8925056741063
 31
0.0
  0
LINE
  5
66D
330
1F
100
AcDbEntity
  8
外形線
100
AcDbLine
 10
-52.15621835341242
 20
26.89249622423219
 30
0.0
 11
-51.14745734146612
 21
25.47221228325123
 31
0.0
  0
LINE
  5
66E
330
1F
100
AcDbEntity
  8
外形線
100
AcDbLine
 10
-51.14745489201304
 20
25.47220817237326
 30
0.0
 11
-52.22656522271591
 21
24.39309775070822
 31
0.0
  0
LINE
  5
66F
330
1F
100
AcDbEntity
  8
外形線
100
AcDbLine
 10
-52.15621037564492
 20
26.89249458343403
 30
0.0
 11
-34.14298362046006
 21
10.67327852550924
 31
0.0
  0
LINE
  5
670
330
1F
100
AcDbEntity
  8
外形線
100
AcDbLine
 10
-52.22657994867204
 20
24.39309710945855
 30
0.0
 11
-36.77050646830082
 21
10.47635700551546
 31
0.0
  0
LINE
  5
671
330
1F
100
AcDbEntity
  8
外形線
100
AcDbLine
 10
-53.45231902752292
 20
24.97502534796871
 30
0.0
 11
-35.76606333008886
 21
9.050215967005392
 31
0.0
  0
LINE
  5
672
330
1F
100
AcDbEntity
  8
外形線
100
AcDbLine
 10
-59.77360439645082
 20
13.29964666187242
 30
0.0
 11
-44.90468886243857
 21
-0.0884129495885091
 31
0.0
  0
LINE
  5
673
330
1F
100
AcDbEntity
  8
外形線
100
AcDbLine
 10
-59.94932688771275
 20
12.94316364457092
 30
0.0
 11
-46.46174880461273
 21
0.7988684552060691
 31
0.0
  0
LINE
  5
674
330
1F
100
AcDbEntity
  8
外形線
100
AcDbLine
 10
-60.64750705502513
 20
11.52378593635438
 30
0.0
 11
-47.54023073873042
 21
-0.2780832897526437
 31
0.0
  0
LINE
  5
675
330
1F
100
AcDbEntity
  8
中心線
100
AcDbLine
 10
-67.14327163129943
 20
-4.820472897691651
 30
0.0
 11
-31.89105296056563
 21
30.43174280150251
 31
0.0
  0
LINE
  5
676
330
1F
100
AcDbEntity
  8
外形線
100
AcDbLine
 10
-60.82384561580264
 20
11.1608302996639
 30
0.0
 11
-46.52774285383663
 21
-1.711465299228763
 31
0.0
  0
LINE
  5
677
330
1F
100
AcDbEntity
  8
外形線
100
AcDbLine
 10
-30.38516697347011
 20
14.43110231852453
 30
0.0
 11
-31.45255306293572
 21
13.36371613908497
 31
0.0
  0
LINE
  5
678
330
1F
100
AcDbEntity
  8
外形線
100
AcDbLine
 10
-46.84567066122158
 20
29.77397864927237
 30
0.0
 11
-48.39839965082795
 21
30.65031683933061
 31
0.0
  0
LINE
  5
679
330
1F
100
AcDbEntity
  8
外形線
100
AcDbLine
 10
-61.66228379491753
 20
9.372630518858775
 30
0.0
 11
-49.15417873553643
 21
-1.889741358791106
 31
0.0
  0
LINE
  5
67A
330
1F
100
AcDbEntity
  8
外形線
100
AcDbLine
 10
-61.49628195245715
 20
9.737886598659102
 30
0.0
 11
-47.59509926258135
 21
-2.7788206283169
 31
0.0
  0
LINE
  5
67B
330
1F
100
AcDbEntity
  8
外形線
100
AcDbLine
 10
-34.14299633419933
 20
10.67328308255943
 30
0.0
 11
-35.69058698493063
 21
11.55475107007636
 31
0.0
  0
LINE
  5
67C
330
1F
100
AcDbEntity
  8
外形線
100
AcDbLine
 10
-33.0756355485278
 20
11.74063351667729
 30
0.0
 11
-34.14299736140968
 21
10.67327161382353
 31
0.0
  0
LINE
  5
67D
330
1F
100
AcDbEntity
  8
外形線
100
AcDbLine
 10
-27.93275864719982
 20
19.31255735160624
 30
0.0
 11
-43.83445641674692
 21
35.21425646156628
 31
0.0
  0
LINE
  5
67E
330
1F
100
AcDbEntity
  8
外形線
100
AcDbLine
 10
-36.77050154125929
 20
10.47635940711967
 30
0.0
 11
-35.76605795549672
 21
9.050209081617175
 31
0.0
  0
LINE
  5
67F
330
1F
100
AcDbEntity
  8
外形線
100
AcDbLine
 10
-35.76605426934931
 20
9.050209570062179
 30
0.0
 11
-36.83340205367866
 21
7.982855217852383
 31
0.0
  0
LINE
  5
680
330
1F
100
AcDbEntity
  8
外形線
100
AcDbLine
 10
-36.83341474182129
 20
7.982852492059172
 30
0.0
 11
-38.38445256242457
 21
8.864695390631949
 31
0.0
  0
LINE
  5
681
330
1F
100
AcDbEntity
  8
外形線
100
AcDbLine
 10
-38.38445434947823
 20
8.864702552945921
 30
0.0
 11
-39.46293904179299
 21
7.787748053703502
 31
0.0
  0
LINE
  5
682
330
1F
100
AcDbEntity
  8
外形線
100
AcDbLine
 10
-39.46294103114735
 20
7.787742998362713
 30
0.0
 11
-38.45647685101872
 21
6.359791804499522
 31
0.0
  0
LINE
  5
683
330
1F
100
AcDbEntity
  8
外形線
100
AcDbLine
 10
-38.45647471848265
 20
6.359799231244544
 30
0.0
 11
-39.52383513502393
 21
5.292430537269523
 31
0.0
  0
LINE
  5
684
330
1F
100
AcDbEntity
  8
外形線
100
AcDbLine
 10
-39.52383728735242
 20
5.292427107298058
 30
0.0
 11
-41.0768857888399
 21
6.176081973278057
 31
0.0
  0
LINE
  5
685
330
1F
100
AcDbEntity
  8
外形線
100
AcDbLine
 10
-41.0768884052944
 20
6.176086747674006
 30
0.0
 11
-42.15536573794532
 21
5.099143773521816
 31
0.0
  0
LINE
  5
686
330
1F
100
AcDbEntity
  8
外形線
100
AcDbLine
 10
-42.1553646896366
 20
5.099142191692766
 30
0.0
 11
-41.14689488011179
 21
3.669379838094442
 31
0.0
  0
LINE
  5
687
330
1F
100
AcDbEntity
  8
外形線
100
AcDbLine
 10
-41.14688932274207
 20
3.66937049284261
 30
0.0
 11
-42.21425688763161
 21
2.601995460221401
 31
0.0
  0
LINE
  5
688
330
1F
100
AcDbEntity
  8
外形線
100
AcDbLine
 10
-42.21425470660757
 20
2.602013520836173
 30
0.0
 11
-43.76930908112592
 21
3.487480707285022
 31
0.0
  0
LINE
  5
689
330
1F
100
AcDbEntity
  8
外形線
100
AcDbLine
 10
-43.76931132760669
 20
3.48747436365916
 30
0.0
 11
-44.84778931976705
 21
2.410537448607568
 31
0.0
  0
LINE
  5
68A
330
1F
100
AcDbEntity
  8
外形線
100
AcDbLine
 10
-44.84778520052015
 20
2.410546944763709
 30
0.0
 11
-43.83730561692003
 21
0.9789719353780768
 31
0.0
  0
LINE
  5
68B
330
1F
100
AcDbEntity
  8
外形線
100
AcDbLine
 10
-43.83731247040578
 20
0.9789652743721788
 30
0.0
 11
-44.90468336429059
 21
-0.0884064292666693
 31
0.0
  0
LINE
  5
68C
330
1F
100
AcDbEntity
  8
外形線
100
AcDbLine
 10
-44.90468082474309
 20
-0.0884060352935379
 30
0.0
 11
-46.46174173504992
 21
0.7988719257767514
 31
0.0
  0
LINE
  5
68D
330
1F
100
AcDbEntity
  8
外形線
100
AcDbLine
 10
-46.46174004725371
 20
0.7988602515888204
 30
0.0
 11
-47.54022377711909
 21
-0.2780871135157739
 31
0.0
  0
LINE
  5
68E
330
1F
100
AcDbEntity
  8
外形線
100
AcDbLine
 10
-47.54023288471834
 20
-0.2780787911429101
 30
0.0
 11
-46.52774178773413
 21
-1.711464979005199
 31
0.0
  0
LINE
  5
68F
330
1F
100
AcDbEntity
  8
外形線
100
AcDbLine
 10
-46.5277459852489
 20
-1.711468430637828
 30
0.0
 11
-47.59510433684837
 21
-2.778825702578842
 31
0.0
  0
LINE
  5
690
330
1F
100
AcDbEntity
  8
外形線
100
AcDbLine
 10
-47.5950954887937
 20
-2.778822684714334
 30
0.0
 11
-49.15417547356664
 21
-1.889740913991509
 31
0.0
  0
LINE
  5
691
330
1F
100
AcDbEntity
  8
外形線
100
AcDbLine
 10
-49.15417404419873
 20
-1.889743175851563
 30
0.0
 11
-50.23265564070323
 21
-2.966692677356298
 31
0.0
  0
LINE
  5
692
330
1F
100
AcDbEntity
  8
外形線
100
AcDbLine
 10
-50.23265688467254
 20
-2.966703543469407
 30
0.0
 11
-49.21816176013833
 21
-4.401896608748137
 31
0.0
  0
LINE
  5
693
330
1F
100
AcDbEntity
  8
外形線
100
AcDbLine
 10
-49.21815495340272
 20
-4.40189719349463
 30
0.0
 11
-50.28551218035804
 21
-5.469255590079839
 31
0.0
  0
LINE
  5
694
330
1F
100
AcDbEntity
  8
外形線
100
AcDbLine
 10
-50.28552142834485
 20
-5.469265066920184
 30
0.0
 11
-51.84660741612336
 21
-4.578356942863627
 31
0.0
  0
LINE
  5
695
330
1F
100
AcDbEntity
  8
外形線
100
AcDbLine
 10
-53.51218149126184
 20
-6.241560363854302
 30
0.0
 11
-51.84660457177955
 21
-4.578349008395605
 31
0.0
  0
LWPOLYLINE
  5
696
330
1F
100
AcDbEntity
  8
外形線
100
AcDbPolyline
 90
       14
 70
     0
 43
1.750000026077032
 10
-74.21934619733723
 20
25.59685290330566
 10
-72.56463607269473
 20
22.85545601262305
 10
-71.11048643492264
 20
20.04213852500691
 10
-68.23382113416085
 20
13.98583287436916
 10
-66.10098999875244
 20
9.576054514448452
 10
-64.44222333910842
 20
5.142057546227992
 10
-64.03036193727854
 20
2.36180830280854
 10
-64.16304400436334
 20
0.8884031869852718
 10
-64.7190264257034
 20
-0.6591450775367989
 10
-65.52926821979743
 20
-1.802362496244965
 10
-66.61558838573704
 20
-2.826553140438193
 10
-69.37242534595643
 20
-4.515398110116715
 10
-71.44722154206134
 20
-5.373000697210065
 10
-74.22098601920834
 20
-6.179700920562616
  0
LWPOLYLINE
  5
697
330
1F
100
AcDbEntity
  8
外形線
100
AcDbPolyline
 90
       14
 70
     0
 43
1.750000026077032
 10
-53.45187388795443
 20
25.59685290330565
 10
-55.10658401259693
 20
22.85545601262304
 10
-56.56073365036904
 20
20.0421385250069
 10
-59.43739895113072
 20
13.98583287436916
 10
-61.57023008653922
 20
9.576054514448472
 10
-63.22899674618312
 20
5.142057546227992
 10
-63.6408581480131
 20
2.36180830280854
 10
-63.50817608092834
 20
0.8884031869852858
 10
-62.95219365958814
 20
-0.6591450775367989
 10
-62.1419518654941
 20
-1.802362496244946
 10
-61.05563169955463
 20
-2.826553140438186
 10
-58.29879473933512
 20
-4.515398110116715
 10
-56.22399854323035
 20
-5.373000697210065
 10
-53.45023406608333
 20
-6.179700920562616
  0
DIMENSION
  5
698
330
1F
100
AcDbEntity
  8
寸法線
100
AcDbDimension
  2
*D13
 10
-8.227861805488974
 20
-18.00518684139175
 30
0.0
 11
-8.22786180548897
 21
12.79581756839829
 31
0.0
 70
   160
  1
L1
 71
     5
 42
61.60200881958008
  3
ISO-25
100
AcDbAlignedDimension
 13
-51.73259938819636
 23
43.59682197818832
 33
0.0
 14
-51.73259366615042
 24
-18.00518684139175
 34
0.0
 50
90.0
100
AcDbRotatedDimension
1001
ACAD
1000
DSTYLE
1002
{
1070
   278
1070
    46
1070
   147
1040
0.8000000119209291
1070
    77
1070
     1
1070
    74
1070
     0
1070
    73
1070
     0
1070
    42
1040
2.54
1070
    44
1040
2.286
1070
    76
1070
     0
1070
    75
1070
     0
1070
   279
1070
     0
1070
   271
1070
     0
1070
   173
1070
     1
1070
    41
1040
3.0
1070
   140
1040
3.200000047683716
1070
   344
1005
1E9
1070
   343
1005
1E9
1002
}
  0
DIMENSION
  5
699
330
1F
100
AcDbEntity
  8
寸法線
100
AcDbDimension
  2
*D14
 10
-75.9385873184942
 20
-30.95217089074649
 30
0.0
 11
-64.07114353436104
 21
-30.95217089074649
 31
0.0
 70
   160
  1
\U+2205A
 71
     5
 42
24.20599365234381
  3
ISO-25
100
AcDbAlignedDimension
 13
-51.73259366615042
 23
-18.00519447078628
 33
0.0
 14
-75.9385873184942
 24
-17.28046302547378
 34
0.0
100
AcDbRotatedDimension
1001
ACAD
1000
DSTYLE
1002
{
1070
   278
1070
    46
1070
   147
1040
0.8000000119209291
1070
    77
1070
     1
1070
    74
1070
     0
1070
    73
1070
     0
1070
    42
1040
2.54
1070
    44
1040
2.286
1070
    76
1070
     0
1070
    75
1070
     0
1070
   279
1070
     0
1070
   271
1070
     0
1070
   173
1070
     1
1070
    41
1040
3.0
1070
   140
1040
3.200000047683716
1070
   344
1005
1E9
1070
   343
1005
1E9
1002
}
  0
DIMENSION
  5
69A
330
1F
100
AcDbEntity
  8
寸法線
100
AcDbDimension
  2
*D15
 10
-81.47321731463017
 20
-19.99456165946423
 30
0.0
 11
-95.89179388152762
 21
-5.715322514901012
 31
0.0
 70
   160
  1
L2
 71
     5
 42
40.58531862239981
  3
ISO-25
100
AcDbAlignedDimension
 13
-92.19971924059294
 23
26.85129242259752
 33
0.0
 14
-62.87152066478984
 24
-1.211348863280804
 34
0.0
 50
135.2781878444882
100
AcDbRotatedDimension
1001
ACAD
1000
DSTYLE
1002
{
1070
   278
1070
    46
1070
   147
1040
0.8000000119209291
1070
    77
1070
     1
1070
    74
1070
     0
1070
    73
1070
     0
1070
    42
1040
2.54
1070
    44
1040
2.285999999999916
1070
    76
1070
     0
1070
    75
1070
     0
1070
   279
1070
     0
1070
   271
1070
     0
1070
   173
1070
     1
1070
    41
1040
3.0
1070
   140
1040
3.200000047683716
1070
   344
1005
1E9
1070
   343
1005
1E9
1002
}
  0
DIMENSION
  5
69B
330
1F
100
AcDbEntity
  8
寸法線
100
AcDbDimension
  2
*D16
 10
-93.16589145646608
 20
49.28870381153352
 30
0.0
 11
-86.28403485877743
 21
52.68245716343002
 31
0.0
 70
   165
  1
45\U+00B0
 71
     5
 42
0.78539840869133
  3
ISO-25
100
AcDb3PointAngularDimension
 13
-63.83561841454413
 23
44.87262558832549
 33
0.0
 14
-95.78017418923305
 24
30.43173111020327
 34
0.0
 15
-63.83563956761022
 25
-1.51281697503662
 35
0.0
1001
ACAD
1000
DSTYLE
1002
{
1070
   278
1070
    46
1070
   275
1070
     3
1070
   147
1040
0.8000000119209291
1070
    77
1070
     1
1070
    74
1070
     0
1070
    73
1070
     0
1070
    42
1040
2.54
1070
    44
1040
1.000000281242553
1070
    76
1070
     0
1070
    75
1070
     0
1070
   279
1070
     0
1070
   179
1070
     0
1070
   173
1070
     1
1070
    41
1040
3.0
1070
   140
1040
3.200000047683716
1070
   344
1005
1E9
1070
   343
1005
1E9
1002
}
  0
DIMENSION
  5
69C
330
1F
100
AcDbEntity
  8
寸法線
100
AcDbDimension
  2
*D17
 10
-46.1980027706615
 20
-19.99456165946425
 30
0.0
 11
-31.77942620376399
 21
-5.715322514901007
 31
0.0
 70
   160
  1
L2
 71
     5
 42
40.58531862239989
  3
ISO-25
100
AcDbAlignedDimension
 13
-35.47150084469866
 23
26.85129242259753
 33
0.0
 14
-64.79969942050184
 24
-1.211348863280804
 34
0.0
 50
44.7218121555118
100
AcDbRotatedDimension
1001
ACAD
1000
DSTYLE
1002
{
1070
   278
1070
    46
1070
   147
1040
0.8000000119209291
1070
    77
1070
     1
1070
    74
1070
     0
1070
    73
1070
     0
1070
    42
1040
2.54
1070
    44
1040
2.285999999999928
1070
    76
1070
     0
1070
    75
1070
     0
1070
   279
1070
     0
1070
   271
1070
     0
1070
   173
1070
     1
1070
    41
1040
3.0
1070
   140
1040
3.200000047683716
1070
   344
1005
1E9
1070
   343
1005
1E9
1002
}
  0
DIMENSION
  5
69D
330
1F
100
AcDbEntity
  8
寸法線
100
AcDbDimension
  2
*D18
 10
-34.5053286288256
 20
49.28870381153356
 30
0.0
 11
-41.38718522651422
 21
52.68245716343006
 31
0.0
 70
   165
  1
45\U+00B0
 71
     5
 42
0.7853984086913302
  3
ISO-25
100
AcDb3PointAngularDimension
 13
-31.89104589605864
 23
30.43173111020327
 33
0.0
 14
-63.83560167074754
 24
44.87262558832549
 34
0.0
 15
-63.83558051768144
 25
-1.51281697503662
 35
0.0
1001
ACAD
1000
DSTYLE
1002
{
1070
   278
1070
    46
1070
   275
1070
     3
1070
   147
1040
0.8000000119209291
1070
    77
1070
     1
1070
    74
1070
     0
1070
    73
1070
     0
1070
    42
1040
2.54
1070
    44
1040
0.9999981368083108
1070
    76
1070
     0
1070
    75
1070
     0
1070
   279
1070
     0
1070
   179
1070
     0
1070
   173
1070
     1
1070
    41
1040
3.0
1070
   140
1040
3.200000047683716
1070
   344
1005
1E9
1070
   343
1005
1E9
1002
}
  0
LINE
  5
87F
330
1F
100
AcDbEntity
  8
0
  6
Continuous
 62
     7
100
AcDbLine
 10
62.61231411255902
 20
75.20385259592014
 30
0.0
 11
62.61231411255903
 21
-20.79614084756895
 31
0.0
  0
MTEXT
  5
937
330
1F
100
AcDbEntity
  8
VIEW0001
 62
     7
100
AcDbMText
 10
59.89285540580749
 20
-93.0
 30
0.0
 40
4.5
 41
0.0
 71
     7
 72
     1
  1
{\W1.3889;　デンカ株式会社}
 73
     1
 44
1.0
  0
LINE
  5
98D
330
1F
100
AcDbEntity
  8
0
  6
Continuous
 62
     7
100
AcDbLine
 10
17.6123122052104
 20
63.20385492050128
 30
0.0
 11
102.6123141125591
 21
63.20385492050128
 31
0.0
  0
LINE
  5
98E
330
1F
100
AcDbEntity
  8
0
  6
Continuous
 62
     7
100
AcDbLine
 10
17.6123122052104
 20
57.20385492050127
 30
0.0
 11
102.6123141125591
 21
57.20385492050127
 31
0.0
  0
LINE
  5
98F
330
1F
100
AcDbEntity
  8
0
  6
Continuous
 62
     7
100
AcDbLine
 10
17.6123122052104
 20
75.20385259592015
 30
0.0
 11
102.6123141125591
 21
75.20385259592015
 31
0.0
  0
LINE
  5
990
330
1F
100
AcDbEntity
  8
0
  6
Continuous
 62
     7
100
AcDbLine
 10
17.6123122052104
 20
69.20385259592013
 30
0.0
 11
102.6123141125591
 21
69.20385259592013
 31
0.0
  0
MTEXT
  5
991
330
1F
100
AcDbEntity
  8
0
 62
     7
100
AcDbMText
 10
20.91739416496523
 20
48.20385730468704
 30
0.0
 40
3.200000047683716
 41
0.0
 71
     4
 72
     1
  1
TDS200
 73
     1
 44
1.0
  0
MTEXT
  5
992
330
1F
100
AcDbEntity
  8
0
 62
     7
100
AcDbMText
 10
52.61231411255903
 20
48.20385730468704
 30
0.0
 40
3.200000047683716
 41
0.0
 71
     5
 72
     1
  1
225
 73
     1
 44
1.0
  0
MTEXT
  5
993
330
1F
100
AcDbEntity
  8
0
 62
     7
100
AcDbMText
 10
92.61231411255904
 20
48.20385730468706
 30
0.0
 40
3.200000047683716
 41
0.0
 71
     5
 72
     1
  1
430
 73
     1
 44
1.0
  0
MTEXT
  5
994
330
1F
100
AcDbEntity
  8
0
 62
     7
100
AcDbMText
 10
72.61231411255903
 20
48.20385730468703
 30
0.0
 40
3.200000047683716
 41
0.0
 71
     5
 72
     1
  1
600
 73
     1
 44
1.0
  0
MTEXT
  5
995
330
1F
100
AcDbEntity
  8
0
 62
     7
100
AcDbMText
 10
20.91739416496523
 20
54.20385730468706
 30
0.0
 40
3.200000047683716
 41
0.0
 71
     4
 72
     1
  1
TDS150
 73
     1
 44
1.0
  0
MTEXT
  5
996
330
1F
100
AcDbEntity
  8
0
 62
     7
100
AcDbMText
 10
52.61231411255903
 20
54.20385730468706
 30
0.0
 40
3.200000047683716
 41
0.0
 71
     5
 72
     1
  1
173
 73
     1
 44
1.0
  0
MTEXT
  5
997
330
1F
100
AcDbEntity
  8
0
 62
     7
100
AcDbMText
 10
92.61231411255904
 20
54.20385730468708
 30
0.0
 40
3.200000047683716
 41
0.0
 71
     5
 72
     1
  1
330
 73
     1
 44
1.0
  0
MTEXT
  5
998
330
1F
100
AcDbEntity
  8
0
 62
     7
100
AcDbMText
 10
72.61231411255903
 20
54.20385730468704
 30
0.0
 40
3.200000047683716
 41
0.0
 71
     5
 72
     1
  1
500
 73
     1
 44
1.0
  0
MTEXT
  5
999
330
1F
100
AcDbEntity
  8
0
 62
     7
100
AcDbMText
 10
20.91739416496523
 20
60.20385498010591
 30
0.0
 40
3.200000047683716
 41
0.0
 71
     4
 72
     1
  1
TDS100
 73
     1
 44
1.0
  0
MTEXT
  5
99A
330
1F
100
AcDbEntity
  8
0
 62
     7
100
AcDbMText
 10
52.61231411255903
 20
60.20385498010591
 30
0.0
 40
3.200000047683716
 41
0.0
 71
     5
 72
     1
  1
117
 73
     1
 44
1.0
  0
MTEXT
  5
99B
330
1F
100
AcDbEntity
  8
0
 62
     7
100
AcDbMText
 10
92.61231411255904
 20
60.20385498010592
 30
0.0
 40
3.200000047683716
 41
0.0
 71
     5
 72
     1
  1
300
 73
     1
 44
1.0
  0
MTEXT
  5
99C
330
1F
100
AcDbEntity
  8
0
 62
     7
100
AcDbMText
 10
72.61231411255903
 20
60.20385498010589
 30
0.0
 40
3.200000047683716
 41
0.0
 71
     5
 72
     1
  1
420
 73
     1
 44
1.0
  0
MTEXT
  5
99D
330
1F
100
AcDbEntity
  8
0
 62
     7
100
AcDbMText
 10
20.91739416496523
 20
66.20385498010591
 30
0.0
 40
3.200000047683716
 41
0.0
 71
     4
 72
     1
  1
TDS75
 73
     1
 44
1.0
  0
MTEXT
  5
99E
330
1F
100
AcDbEntity
  8
0
 62
     7
100
AcDbMText
 10
52.61231411255903
 20
66.20385498010591
 30
0.0
 40
3.200000047683716
 41
0.0
 71
     5
 72
     1
  1
87
 73
     1
 44
1.0
  0
MTEXT
  5
99F
330
1F
100
AcDbEntity
  8
0
 62
     7
100
AcDbMText
 10
92.61231411255904
 20
66.20385498010595
 30
0.0
 40
3.200000047683716
 41
0.0
 71
     5
 72
     1
  1
350
 73
     1
 44
1.0
  0
MTEXT
  5
9A0
330
1F
100
AcDbEntity
  8
0
 62
     7
100
AcDbMText
 10
72.61231411255903
 20
66.2038549801059
 30
0.0
 40
3.200000047683716
 41
0.0
 71
     5
 72
     1
  1
600
 73
     1
 44
1.0
  0
ENDSEC
  0
SECTION
  2
OBJECTS
  0
DICTIONARY
  5
C
330
0
100
AcDbDictionary
281
     1
  3
ACAD_CIP_PREVIOUS_PRODUCT_INFO
350
92D
  3
ACAD_COLOR
350
249
  3
ACAD_DETAILVIEWSTYLE
350
92A
  3
ACAD_GROUP
350
D
  3
ACAD_LAYOUT
350
1A
  3
ACAD_MATERIAL
350
248
  3
ACAD_MLEADERSTYLE
350
926
  3
ACAD_MLINESTYLE
350
17
  3
ACAD_PLOTSETTINGS
350
19
  3
ACAD_PLOTSTYLENAME
350
E
  3
ACAD_SCALELIST
350
914
  3
ACAD_SECTIONVIEWSTYLE
350
928
  3
ACAD_TABLESTYLE
350
24A
  3
ACAD_VISUALSTYLE
350
8FB
  3
ACDB_RECOMPOSE_DATA
350
9CA
  3
AcDbVariableDictionary
350
250
  3
AcDsDecomposeData
350
9D0
  0
DICTIONARY
  5
9AB
330
2
100
AcDbDictionary
280
     1
281
     1
  3
ACAD_LAYERSTATES
360
9AC
  0
DICTIONARY
  5
938
330
10
100
AcDbDictionary
280
     1
281
     1
  3
ADSK_XREC_LAYER_RECONCILED
360
939
  0
DICTIONARY
  5
93A
330
238
100
AcDbDictionary
280
     1
281
     1
  3
ADSK_XREC_LAYER_RECONCILED
360
93B
  0
DICTIONARY
  5
93C
330
258
100
AcDbDictionary
280
     1
281
     1
  3
ADSK_XREC_LAYER_RECONCILED
360
93D
  0
DICTIONARY
  5
93E
330
259
100
AcDbDictionary
280
     1
281
     1
  3
ADSK_XREC_LAYER_RECONCILED
360
93F
  0
DICTIONARY
  5
940
330
25A
100
AcDbDictionary
280
     1
281
     1
  3
ADSK_XREC_LAYER_RECONCILED
360
941
  0
DICTIONARY
  5
942
330
25B
100
AcDbDictionary
280
     1
281
     1
  3
ADSK_XREC_LAYER_RECONCILED
360
943
  0
DICTIONARY
  5
944
330
25C
100
AcDbDictionary
280
     1
281
     1
  3
ADSK_XREC_LAYER_RECONCILED
360
945
  0
DICTIONARY
  5
946
330
25D
100
AcDbDictionary
280
     1
281
     1
  3
ADSK_XREC_LAYER_RECONCILED
360
947
  0
DICTIONARY
  5
948
330
25E
100
AcDbDictionary
280
     1
281
     1
  3
ADSK_XREC_LAYER_RECONCILED
360
949
  0
DICTIONARY
  5
94A
330
28A
100
AcDbDictionary
280
     1
281
     1
  3
ADSK_XREC_LAYER_RECONCILED
360
94B
  0
DICTIONARY
  5
253
330
1F
100
AcDbDictionary
280
     1
281
     1
  3
ACAD_SORTENTS
360
254
  0
DICTIONARY
  5
9DC
330
805
100
AcDbDictionary
280
     1
281
     1
  3
ACAD_MTEXT_2008_RT
360
9DD
  0
DICTIONARY
  5
9D3
330
1AC
100
AcDbDictionary
280
     1
281
     1
  3
ACAD_MTEXT_2008_RT
360
9D4
  0
XRECORD
  5
92D
102
{ACAD_REACTORS
330
C
102
}
330
C
100
AcDbXrecord
280
     1
300
ACDLT
300
2014
300
INVLTS_F_S
  0
DICTIONARY
  5
249
102
{ACAD_REACTORS
330
C
102
}
330
C
100
AcDbDictionary
281
     1
  0
DICTIONARY
  5
92A
102
{ACAD_REACTORS
330
C
102
}
330
C
100
AcDbDictionary
281
     1
  3
Metric50
350
92B
  0
DICTIONARY
  5
D
102
{ACAD_REACTORS
330
C
102
}
330
C
100
AcDbDictionary
281
     1
  0
DICTIONARY
  5
1A
102
{ACAD_REACTORS
330
C
102
}
330
C
100
AcDbDictionary
281
     1
  3
Layout1
350
1E
  3
Layout2
350
26
  3
Model
350
22
  0
DICTIONARY
  5
248
102
{ACAD_REACTORS
330
C
102
}
330
C
100
AcDbDictionary
281
     1
  3
ByBlock
350
8EB
  3
ByLayer
350
8E3
  3
Global
350
8F3
  0
DICTIONARY
  5
926
102
{ACAD_REACTORS
330
C
102
}
330
C
100
AcDbDictionary
281
     1
  3
Standard
350
927
  0
DICTIONARY
  5
17
102
{ACAD_REACTORS
330
C
102
}
330
C
100
AcDbDictionary
281
     1
  3
Standard
350
18
  0
DICTIONARY
  5
19
102
{ACAD_REACTORS
330
C
102
}
330
C
100
AcDbDictionary
281
     1
  3
セットアップ1
350
9BE
  0
ACDBDICTIONARYWDFLT
  5
E
102
{ACAD_REACTORS
330
C
102
}
330
C
100
AcDbDictionary
281
     1
  3
Normal
350
F
100
AcDbDictionaryWithDefault
340
F
  0
DICTIONARY
  5
914
102
{ACAD_REACTORS
330
C
102
}
330
C
100
AcDbDictionary
281
     1
  3
A0
350
915
  3
A1
350
916
  3
A2
350
917
  3
A3
350
918
  3
A4
350
919
  3
A5
350
91A
  3
A6
350
91B
  3
A7
350
91C
  3
A8
350
91D
  3
A9
350
91E
  3
B0
350
91F
  3
B1
350
920
  3
B2
350
921
  3
B3
350
922
  3
B4
350
923
  3
B5
350
924
  3
B6
350
925
  0
DICTIONARY
  5
928
102
{ACAD_REACTORS
330
C
102
}
330
C
100
AcDbDictionary
281
     1
  3
Metric50
350
929
  0
DICTIONARY
  5
24A
102
{ACAD_REACTORS
330
C
102
}
330
C
100
AcDbDictionary
281
     1
  3
Standard
350
24B
  0
DICTIONARY
  5
8FB
102
{ACAD_REACTORS
330
C
102
}
330
C
100
AcDbDictionary
281
     1
  3
2dWireframe
350
901
  3
Basic
350
900
  3
Brighten
350
907
  3
ColorChange
350
90B
  3
Conceptual
350
904
  3
Dim
350
906
  3
EdgeColorOff
350
913
  3
Facepattern
350
90A
  3
Flat
350
8FC
  3
FlatWithEdges
350
8FD
  3
Gouraud
350
8FE
  3
GouraudWithEdges
350
8FF
  3
Hidden
350
903
  3
JitterOff
350
911
  3
Linepattern
350
909
  3
OverhangOff
350
912
  3
Realistic
350
905
  3
Shaded
350
910
  3
Shaded with edges
350
90F
  3
Shades of Gray
350
90C
  3
Sketchy
350
90D
  3
Thicken
350
908
  3
Wireframe
350
902
  3
X-Ray
350
90E
  0
XRECORD
  5
9CA
102
{ACAD_REACTORS
330
C
102
}
330
C
100
AcDbXrecord
280
     1
 90
        1
330
24B
  0
DICTIONARY
  5
250
102
{ACAD_REACTORS
330
C
102
}
330
C
100
AcDbDictionary
281
     1
  3
CANNOSCALE
350
984
  3
CMLEADERSTYLE
350
980
  3
CTABLESTYLE
350
251
  3
CVIEWDETAILSTYLE
350
981
  3
CVIEWSECTIONSTYLE
350
982
  3
DIMASSOC
350
355
  3
LAYEREVAL
350
986
  3
LAYERNOTIFY
350
987
  3
LIGHTINGUNITS
350
985
  3
MSLTSCALE
350
983
  3
PROJECTNAME
350
356
  3
XCLIPFRAME
350
9C7
  0
DICTIONARY
  5
9D0
102
{ACAD_REACTORS
330
C
102
}
330
C
100
AcDbDictionary
281
     1
  3
AcDsRecords
350
9D2
  3
AcDsSchemas
350
9D1
1001
ACAD
1070
     2
  0
DICTIONARY
  5
9AC
102
{ACAD_REACTORS
330
9AB
102
}
330
9AB
100
AcDbDictionary
281
     1
  0
XRECORD
  5
939
102
{ACAD_REACTORS
330
938
102
}
330
938
100
AcDbXrecord
280
     1
290
     1
  0
XRECORD
  5
93B
102
{ACAD_REACTORS
330
93A
102
}
330
93A
100
AcDbXrecord
280
     1
290
     1
  0
XRECORD
  5
93D
102
{ACAD_REACTORS
330
93C
102
}
330
93C
100
AcDbXrecord
280
     1
290
     1
  0
XRECORD
  5
93F
102
{ACAD_REACTORS
330
93E
102
}
330
93E
100
AcDbXrecord
280
     1
290
     1
  0
XRECORD
  5
941
102
{ACAD_REACTORS
330
940
102
}
330
940
100
AcDbXrecord
280
     1
290
     1
  0
XRECORD
  5
943
102
{ACAD_REACTORS
330
942
102
}
330
942
100
AcDbXrecord
280
     1
290
     1
  0
XRECORD
  5
945
102
{ACAD_REACTORS
330
944
102
}
330
944
100
AcDbXrecord
280
     1
290
     1
  0
XRECORD
  5
947
102
{ACAD_REACTORS
330
946
102
}
330
946
100
AcDbXrecord
280
     1
290
     1
  0
XRECORD
  5
949
102
{ACAD_REACTORS
330
948
102
}
330
948
100
AcDbXrecord
280
     1
290
     1
  0
XRECORD
  5
94B
102
{ACAD_REACTORS
330
94A
102
}
330
94A
100
AcDbXrecord
280
     1
290
     1
  0
SORTENTSTABLE
  5
254
102
{ACAD_REACTORS
330
253
102
}
330
253
100
AcDbSortentsTable
330
1F
331
1B9
  5
1C5
331
1C1
  5
1D0
331
618
  5
624
331
32
  5
32
331
620
  5
62C
331
65F
  5
66B
331
696
  5
864
331
3A
  5
3A
331
628
  5
634
331
667
  5
673
331
630
  5
63C
331
66F
  5
67B
331
5E1
  5
5ED
331
56B
  5
577
331
5A2
  5
5AE
331
5E9
  5
5F5
331
573
  5
57F
331
5AA
  5
5B6
331
5F1
  5
5FD
331
57B
  5
587
331
5B2
  5
5BE
331
5BA
  5
5C6
331
5F9
  5
605
331
638
  5
644
331
601
  5
60D
331
640
  5
64C
331
677
  5
683
331
1AA
  5
1BC
331
648
  5
654
331
609
  5
615
331
67F
  5
68B
331
650
  5
65C
331
611
  5
61D
331
687
  5
693
331
68F
  5
69B
331
1D1
  5
1E1
331
583
  5
58F
331
5C2
  5
5CE
331
5CA
  5
5D6
331
58B
  5
597
331
1E1
  5
23F
331
554
  5
560
331
5D2
  5
5DE
331
593
  5
59F
331
55C
  5
568
331
5DA
  5
5E6
331
564
  5
570
331
59B
  5
5A7
331
1BA
  5
1C6
331
619
  5
625
331
658
  5
664
331
1C2
  5
1D1
331
621
  5
62D
331
660
  5
66C
331
697
  5
87B
331
33
  5
33
331
629
  5
635
331
668
  5
674
331
3B
  5
3B
331
631
  5
63D
331
5E2
  5
5EE
331
56C
  5
578
331
5A3
  5
5AF
331
5EA
  5
5F6
331
574
  5
580
331
5AB
  5
5B7
331
5F2
  5
5FE
331
337
  5
559
331
57C
  5
588
331
5B3
  5
5BF
331
5BB
  5
5C7
331
43
  5
43
331
639
  5
645
331
5FA
  5
606
331
670
  5
67C
331
641
  5
64D
331
602
  5
60E
331
678
  5
684
331
1AB
  5
1BD
331
60A
  5
616
331
649
  5
655
331
680
  5
68C
331
651
  5
65D
331
612
  5
61E
331
688
  5
694
331
1D2
  5
1E2
331
5C3
  5
5CF
331
584
  5
590
331
58C
  5
598
331
5CB
  5
5D7
331
555
  5
561
331
1E2
  5
242
331
594
  5
5A0
331
5D3
  5
5DF
331
55D
  5
569
331
5DB
  5
5E7
331
565
  5
571
331
59C
  5
5A8
331
1BB
  5
1C7
331
61A
  5
626
331
659
  5
665
331
690
  5
69C
331
1C3
  5
1D2
331
698
  5
87C
331
622
  5
62E
331
661
  5
66D
331
34
  5
34
331
62A
  5
636
331
669
  5
675
331
3C
  5
3C
331
632
  5
63E
331
5E3
  5
5EF
331
56D
  5
579
331
5A4
  5
5B0
331
5EB
  5
5F7
331
575
  5
581
331
5AC
  5
5B8
331
5F3
  5
5FF
331
57D
  5
589
331
5B4
  5
5C0
331
338
  5
55A
331
5BC
  5
5C8
331
44
  5
44
331
5FB
  5
607
331
63A
  5
646
331
671
  5
67D
331
603
  5
60F
331
642
  5
64E
331
679
  5
685
331
1AC
  5
1BE
331
64A
  5
656
331
60B
  5
617
331
681
  5
68D
331
652
  5
65E
331
613
  5
61F
331
689
  5
695
331
1D3
  5
1E3
331
5C4
  5
5D0
331
585
  5
591
331
1DB
  5
1E7
331
5CC
  5
5D8
331
58D
  5
599
331
556
  5
562
331
1E3
  5
243
331
23A
  5
296
331
5D4
  5
5E0
331
595
  5
5A1
331
55E
  5
56A
331
242
  5
554
331
5DC
  5
5E8
331
566
  5
572
331
59D
  5
5A9
331
1BC
  5
1C8
331
61B
  5
627
331
65A
  5
666
331
691
  5
69D
331
1C4
  5
1D3
331
623
  5
62F
331
662
  5
66E
331
1CC
  5
1DC
331
35
  5
35
331
699
  5
87D
331
62B
  5
637
331
66A
  5
676
331
3D
  5
3D
331
633
  5
63F
331
5E4
  5
5F0
331
56E
  5
57A
331
5A5
  5
5B1
331
252
  5
553
331
5EC
  5
5F8
331
576
  5
582
331
5AD
  5
5B9
331
5F4
  5
600
331
57E
  5
58A
331
5B5
  5
5C1
331
5BD
  5
5C9
331
45
  5
1AE
331
63B
  5
647
331
5FC
  5
608
331
672
  5
67E
331
643
  5
64F
331
604
  5
610
331
67A
  5
686
331
1AD
  5
1BF
331
60C
  5
618
331
64B
  5
657
331
682
  5
68E
331
1B5
  5
1C1
331
653
  5
65F
331
614
  5
620
331
68A
  5
696
331
87F
  5
1B8
331
1D4
  5
1E4
331
5C5
  5
5D1
331
586
  5
592
331
54F
  5
55B
331
1DC
  5
23A
331
58E
  5
59A
331
5CD
  5
5D9
331
557
  5
563
331
1E4
  5
244
331
23B
  5
337
331
5D5
  5
5E1
331
596
  5
5A2
331
55F
  5
56B
331
5DD
  5
5E9
331
567
  5
573
331
59E
  5
5AA
331
1BD
  5
1CC
331
61C
  5
628
331
65B
  5
667
331
692
  5
857
331
2E
  5
2E
331
1C5
  5
1D4
331
624
  5
630
331
663
  5
66F
331
1CD
  5
1DD
331
69A
  5
87E
331
62C
  5
638
331
66B
  5
677
331
3E
  5
3E
331
634
  5
640
331
5E5
  5
5F1
331
56F
  5
57B
331
5A6
  5
5B2
331
5ED
  5
5F9
331
577
  5
583
331
5AE
  5
5BA
331
5F5
  5
601
331
57F
  5
58B
331
5B6
  5
5C2
331
5BE
  5
5CA
331
5FD
  5
609
331
63C
  5
648
331
673
  5
67F
331
644
  5
650
331
605
  5
611
331
67B
  5
687
331
1AE
  5
1C0
331
64C
  5
658
331
60D
  5
619
331
683
  5
68F
331
1B6
  5
1C2
331
654
  5
660
331
615
  5
621
331
68B
  5
697
331
1D5
  5
1E5
331
5C6
  5
5D2
331
587
  5
593
331
550
  5
55C
331
1DD
  5
23B
331
5CE
  5
5DA
331
58F
  5
59B
331
558
  5
564
331
1E5
  5
245
331
23C
  5
338
331
5D6
  5
5E2
331
560
  5
56C
331
597
  5
5A3
331
5DE
  5
5EA
331
59F
  5
5AB
331
1BE
  5
1CD
331
61D
  5
629
331
65C
  5
668
331
693
  5
858
331
1C6
  5
1D5
331
625
  5
631
331
664
  5
670
331
1CE
  5
1DE
331
69B
  5
87F
331
62D
  5
639
331
66C
  5
678
331
3F
  5
3F
331
635
  5
641
331
568
  5
574
331
5E6
  5
5F2
331
570
  5
57C
331
5A7
  5
5B3
331
5EE
  5
5FA
331
578
  5
584
331
5AF
  5
5BB
331
5F6
  5
602
331
5B7
  5
5C3
331
5BF
  5
5CB
331
47
  5
1B9
331
63D
  5
649
331
5FE
  5
60A
331
674
  5
680
331
645
  5
651
331
606
  5
612
331
67C
  5
688
331
1B7
  5
1C3
331
60E
  5
61A
331
64D
  5
659
331
684
  5
690
331
655
  5
661
331
616
  5
622
331
68C
  5
698
331
1D6
  5
1E6
331
580
  5
58C
331
5C7
  5
5D3
331
551
  5
55D
331
1DE
  5
23C
331
588
  5
594
331
559
  5
565
331
1E6
  5
294
331
23D
  5
54F
331
294
  5
556
331
590
  5
59C
331
5CF
  5
5DB
331
5D7
  5
5E3
331
561
  5
56D
331
598
  5
5A4
331
5DF
  5
5EB
331
1BF
  5
1CE
331
30
  5
30
331
1C7
  5
1D6
331
61E
  5
62A
331
65D
  5
669
331
694
  5
862
331
69C
  5
880
331
38
  5
38
331
1CF
  5
1DF
331
626
  5
632
331
665
  5
671
331
62E
  5
63A
331
66D
  5
679
331
636
  5
642
331
569
  5
575
331
5A0
  5
5AC
331
5E7
  5
5F3
331
255
  5
552
331
571
  5
57D
331
5A8
  5
5B4
331
5EF
  5
5FB
331
579
  5
585
331
5B0
  5
5BC
331
5F7
  5
603
331
5B8
  5
5C4
331
40
  5
40
331
48
  5
1BA
331
5FF
  5
60B
331
63E
  5
64A
331
675
  5
681
331
646
  5
652
331
607
  5
613
331
67D
  5
689
331
64E
  5
65A
331
60F
  5
61B
331
685
  5
691
331
656
  5
662
331
617
  5
623
331
68D
  5
699
331
581
  5
58D
331
5C0
  5
5CC
331
5C8
  5
5D4
331
552
  5
55E
331
1DF
  5
23D
331
589
  5
595
331
5D0
  5
5DC
331
55A
  5
566
331
1E7
  5
295
331
23E
  5
550
331
295
  5
557
331
591
  5
59D
331
5D8
  5
5E4
331
562
  5
56E
331
599
  5
5A5
331
1B8
  5
1C4
331
1C0
  5
1CF
331
1C8
  5
1DB
331
31
  5
31
331
61F
  5
62B
331
65E
  5
66A
331
695
  5
863
331
69D
  5
881
331
39
  5
39
331
627
  5
633
331
666
  5
672
331
62F
  5
63B
331
66E
  5
67A
331
637
  5
643
331
5E0
  5
5EC
331
56A
  5
576
331
5A1
  5
5AD
331
5E8
  5
5F4
331
572
  5
57E
331
5A9
  5
5B5
331
5F0
  5
5FC
331
57A
  5
586
331
5B1
  5
5BD
331
5B9
  5
5C5
331
5F8
  5
604
331
63F
  5
64B
331
1A9
  5
1BB
331
600
  5
60C
331
676
  5
682
331
647
  5
653
331
608
  5
614
331
67E
  5
68A
331
610
  5
61C
331
64F
  5
65B
331
686
  5
692
331
657
  5
663
331
68E
  5
69A
331
1D0
  5
1E0
331
5C1
  5
5CD
331
582
  5
58E
331
58A
  5
596
331
5C9
  5
5D5
331
1E0
  5
23E
331
553
  5
55F
331
592
  5
59E
331
5D1
  5
5DD
331
23F
  5
551
331
296
  5
558
331
55B
  5
567
331
5D9
  5
5E5
331
563
  5
56F
331
59A
  5
5A6
  0
XRECORD
  5
9DD
102
{ACAD_REACTORS
330
9DC
102
}
330
9DC
100
AcDbXrecord
280
     1
 40
2020.0
  1
\U+2205A
  0
XRECORD
  5
9D4
102
{ACAD_REACTORS
330
9D3
102
}
330
9D3
100
AcDbXrecord
280
     1
 40
7259.0
  1
{\W1;\U+2205A}
  0
ACDBDETAILVIEWSTYLE
  5
92B
102
{ACAD_XDICTIONARY
360
A14
102
}
102
{ACAD_REACTORS
330
92A
102
}
330
92A
100
AcDbModelDocViewStyle
 70
     0
  3
Metric50
290
     0
100
AcDbDetailViewStyle
 70
     0
 71
     0
 90
        3
 71
     1
340
11
 62
   256
 40
5.0
340
0
 62
   256
 40
5.0
300

 40
0.0
280
     1
 71
     2
340
16
 90
       25
 62
   256
 71
     3
340
11
 62
   256
 40
5.0
 90
        0
 40
15.0
 90
        1
300
%<\AcVar ViewDetailId>% (%<\AcVar ViewScale \f "%sn">%)
 71
     4
340
16
 90
       25
 62
   256
340
16
 90
       25
 62
   256
280
     0
  0
LAYOUT
  5
1E
102
{ACAD_REACTORS
330
1A
102
}
330
1A
100
AcDbPlotSettings
  1

  2

  4

  6

 40
0.0
 41
0.0
 42
0.0
 43
0.0
 44
0.0
 45
0.0
 46
0.0
 47
0.0
 48
0.0
 49
0.0
140
0.0
141
0.0
142
1.0
143
1.0
 70
   688
 72
     0
 73
     0
 74
     5
  7
monochrome.ctb
 75
    16
147
1.0
 76
     0
 77
     2
 78
   300
148
0.0
149
0.0
100
AcDbLayout
  1
Layout1
 70
     1
 71
     1
 10
-1115.687934875488
 20
-544.503345489502
 11
1284.312461853027
 21
435.4966545104979
 12
0.0
 22
0.0
 32
0.0
 14
1.000000000000000E+20
 24
1.000000000000000E+20
 34
1.000000000000000E+20
 15
-1.000000000000000E+20
 25
-1.000000000000000E+20
 35
-1.000000000000000E+20
146
0.0
 13
0.0
 23
0.0
 33
0.0
 16
1.0
 26
0.0
 36
0.0
 17
0.0
 27
1.0
 37
0.0
 76
     0
330
1B
  0
LAYOUT
  5
26
102
{ACAD_REACTORS
330
1A
102
}
330
1A
100
AcDbPlotSettings
  1

  2

  4

  6

 40
0.0
 41
0.0
 42
0.0
 43
0.0
 44
0.0
 45
0.0
 46
0.0
 47
0.0
 48
0.0
 49
0.0
140
0.0
141
0.0
142
1.0
143
1.0
 70
   688
 72
     0
 73
     0
 74
     5
  7
monochrome.ctb
 75
    16
147
1.0
 76
     0
 77
     2
 78
   300
148
0.0
149
0.0
100
AcDbLayout
  1
Layout2
 70
     1
 71
     2
 10
0.0
 20
0.0
 11
0.0
 21
0.0
 12
0.0
 22
0.0
 32
0.0
 14
0.0
 24
0.0
 34
0.0
 15
0.0
 25
0.0
 35
0.0
146
0.0
 13
0.0
 23
0.0
 33
0.0
 16
1.0
 26
0.0
 36
0.0
 17
0.0
 27
1.0
 37
0.0
 76
     0
330
23
  0
LAYOUT
  5
22
102
{ACAD_REACTORS
330
1A
102
}
330
1A
100
AcDbPlotSettings
  1

  2
Adobe PDF
  4
A4
  6

 40
3.174999952316283
 41
3.174999952316283
 42
3.175003051757812
 43
3.17498779296875
 44
209.9733276367186
 45
297.0318298339844
 46
7.04313860651041
 47
7.004717772202638
 48
0.0
 49
0.0
140
0.0
141
0.0
142
1.0
143
1.0
 70
 11956
 72
     1
 73
     1
 74
     1
  7
monochrome.ctb
 75
    16
147
1.0
 76
     0
 77
     2
 78
   300
148
138.1609110921536
149
94.50425821123735
100
AcDbLayout
  1
Model
 70
     1
 71
     0
 10
-1115.687934875488
 20
-544.503345489502
 11
1284.312461853027
 21
435.4966545104979
 12
0.0
 22
0.0
 32
0.0
 14
-1115.687934875488
 24
-544.503345489502
 34
0.0
 15
1284.312461853027
 25
435.4966545104979
 35
0.0
146
0.0
 13
0.0
 23
0.0
 33
0.0
 16
1.0
 26
0.0
 36
0.0
 17
0.0
 27
1.0
 37
0.0
 76
     0
330
1F
331
8C3
1001
ACAD_PSEXT
1000
Adobe PDF
1000
Adobe PDF Converter
1000
My Documents
1000

1070
     0
  0
MATERIAL
  5
8EB
102
{ACAD_XDICTIONARY
360
8EC
102
}
102
{ACAD_REACTORS
330
248
102
}
330
248
100
AcDbMaterial
  1
ByBlock
 72
     0
 43
0.0008202099737533
 43
0.0
 43
0.0
 43
0.0
 43
0.0
 43
0.0008202099737533
 43
0.0
 43
0.0
 43
0.0
 43
0.0
 43
1.0
 43
0.0
 43
0.0
 43
0.0
 43
0.0
 43
1.0
 77
     0
 47
0.0008202099737533
 47
0.0
 47
0.0
 47
0.0
 47
0.0
 47
0.0008202099737533
 47
0.0
 47
0.0
 47
0.0
 47
0.0
 47
1.0
 47
0.0
 47
0.0
 47
0.0
 47
0.0
 47
1.0
171
     0
 49
0.0008202099737533
 49
0.0
 49
0.0
 49
0.0
 49
0.0
 49
0.0008202099737533
 49
0.0
 49
0.0
 49
0.0
 49
0.0
 49
1.0
 49
0.0
 49
0.0
 49
0.0
 49
0.0
 49
1.0
175
     0
142
0.0008202099737533
142
0.0
142
0.0
142
0.0
142
0.0
142
0.0008202099737533
142
0.0
142
0.0
142
0.0
142
0.0
142
1.0
142
0.0
142
0.0
142
0.0
142
0.0
142
1.0
179
     0
144
0.0008202099737533
144
0.0
144
0.0
144
0.0
144
0.0
144
0.0008202099737533
144
0.0
144
0.0
144
0.0
144
0.0
144
1.0
144
0.0
144
0.0
144
0.0
144
0.0
144
1.0
147
0.0008202099737533
147
0.0
147
0.0
147
0.0
147
0.0
147
0.0008202099737533
147
0.0
147
0.0
147
0.0
147
0.0
147
1.0
147
0.0
147
0.0
147
0.0
147
0.0
147
1.0
  0
MATERIAL
  5
8E3
102
{ACAD_XDICTIONARY
360
8E4
102
}
102
{ACAD_REACTORS
330
248
102
}
330
248
100
AcDbMaterial
  1
ByLayer
 72
     0
 43
0.0008202099737533
 43
0.0
 43
0.0
 43
0.0
 43
0.0
 43
0.0008202099737533
 43
0.0
 43
0.0
 43
0.0
 43
0.0
 43
1.0
 43
0.0
 43
0.0
 43
0.0
 43
0.0
 43
1.0
 77
     0
 47
0.0008202099737533
 47
0.0
 47
0.0
 47
0.0
 47
0.0
 47
0.0008202099737533
 47
0.0
 47
0.0
 47
0.0
 47
0.0
 47
1.0
 47
0.0
 47
0.0
 47
0.0
 47
0.0
 47
1.0
171
     0
 49
0.0008202099737533
 49
0.0
 49
0.0
 49
0.0
 49
0.0
 49
0.0008202099737533
 49
0.0
 49
0.0
 49
0.0
 49
0.0
 49
1.0
 49
0.0
 49
0.0
 49
0.0
 49
0.0
 49
1.0
175
     0
142
0.0008202099737533
142
0.0
142
0.0
142
0.0
142
0.0
142
0.0008202099737533
142
0.0
142
0.0
142
0.0
142
0.0
142
1.0
142
0.0
142
0.0
142
0.0
142
0.0
142
1.0
179
     0
144
0.0008202099737533
144
0.0
144
0.0
144
0.0
144
0.0
144
0.0008202099737533
144
0.0
144
0.0
144
0.0
144
0.0
144
1.0
144
0.0
144
0.0
144
0.0
144
0.0
144
1.0
147
0.0008202099737533
147
0.0
147
0.0
147
0.0
147
0.0
147
0.0008202099737533
147
0.0
147
0.0
147
0.0
147
0.0
147
1.0
147
0.0
147
0.0
147
0.0
147
0.0
147
1.0
  0
MATERIAL
  5
8F3
102
{ACAD_XDICTIONARY
360
8F4
102
}
102
{ACAD_REACTORS
330
248
102
}
330
248
100
AcDbMaterial
  1
Global
 72
     0
 43
0.0008202099737533
 43
0.0
 43
0.0
 43
0.0
 43
0.0
 43
0.0008202099737533
 43
0.0
 43
0.0
 43
0.0
 43
0.0
 43
1.0
 43
0.0
 43
0.0
 43
0.0
 43
0.0
 43
1.0
 77
     0
 47
0.0008202099737533
 47
0.0
 47
0.0
 47
0.0
 47
0.0
 47
0.0008202099737533
 47
0.0
 47
0.0
 47
0.0
 47
0.0
 47
1.0
 47
0.0
 47
0.0
 47
0.0
 47
0.0
 47
1.0
171
     0
 49
0.0008202099737533
 49
0.0
 49
0.0
 49
0.0
 49
0.0
 49
0.0008202099737533
 49
0.0
 49
0.0
 49
0.0
 49
0.0
 49
1.0
 49
0.0
 49
0.0
 49
0.0
 49
0.0
 49
1.0
175
     0
142
0.0008202099737533
142
0.0
142
0.0
142
0.0
142
0.0
142
0.0008202099737533
142
0.0
142
0.0
142
0.0
142
0.0
142
1.0
142
0.0
142
0.0
142
0.0
142
0.0
142
1.0
179
     0
144
0.0008202099737533
144
0.0
144
0.0
144
0.0
144
0.0
144
0.0008202099737533
144
0.0
144
0.0
144
0.0
144
0.0
144
1.0
144
0.0
144
0.0
144
0.0
144
0.0
144
1.0
147
0.0008202099737533
147
0.0
147
0.0
147
0.0
147
0.0
147
0.0008202099737533
147
0.0
147
0.0
147
0.0
147
0.0
147
1.0
147
0.0
147
0.0
147
0.0
147
0.0
147
1.0
  0
MLEADERSTYLE
  5
927
102
{ACAD_REACTORS
330
926
102
}
330
926
100
AcDbMLeaderStyle
170
     2
171
     1
172
     0
 90
        2
 40
0.0
 41
0.0
173
     1
 91
-1056964608
340
14
 92
       -2
290
     1
 42
2.0
291
     1
 43
0.36
  3
Standard
 44
4.0
300

342
11
174
     1
178
     6
175
     1
176
     0
 93
-1056964608
 45
4.0
292
     0
297
     0
 46
4.0
 94
-1056964608
 47
1.0
 49
1.0
140
1.0
293
     1
141
0.0
294
     1
177
     0
142
1.0
295
     0
296
     0
143
0.125
1001
ACAD_MLEADERVER
1070
     2
  0
MLINESTYLE
  5
18
102
{ACAD_REACTORS
330
17
102
}
330
17
100
AcDbMlineStyle
  2
STANDARD
 70
     0
  3

 62
   256
 51
90.0
 52
90.0
 71
     2
 49
0.5
 62
   256
  6
BYLAYER
 49
-0.5
 62
   256
  6
BYLAYER
  0
PLOTSETTINGS
  5
9BE
102
{ACAD_REACTORS
330
19
102
}
330
19
100
AcDbPlotSettings
  1
セットアップ1
  2
DWG To PDF.pc3
  4
ISO_expand_A4_(297.00_x_210.00_MM)
  6

 40
5.793749809265136
 41
10.79374980926513
 42
5.79376220703125
 43
10.79374694824219
 44
297.0
 45
210.0
 46
5.249628829452802
 47
0.0
 48
-138.0
 49
-94.50000000000001
140
138.5
141
95.0
142
1.0
143
1.005771892728943
 70
 11956
 72
     1
 73
     0
 74
     4
  7
monochrome.ctb
 75
     0
147
0.9942612308310959
 76
     0
 77
     2
 78
   300
148
138.0
149
94.50000000000001
1001
ACAD_PSEXT
1000
DWG To PDF.pc3
1000
DWG To PDF
1000
ファイル
1000

1070
     0
  0
ACDBPLACEHOLDER
  5
F
102
{ACAD_REACTORS
330
E
102
}
330
E
  0
SCALE
  5
915
102
{ACAD_REACTORS
330
914
102
}
330
914
100
AcDbScale
 70
     0
300
1:1
140
1.0
141
1.0
290
     1
  0
SCALE
  5
916
102
{ACAD_REACTORS
330
914
102
}
330
914
100
AcDbScale
 70
     0
300
1:2
140
1.0
141
2.0
290
     0
  0
SCALE
  5
917
102
{ACAD_REACTORS
330
914
102
}
330
914
100
AcDbScale
 70
     0
300
1:4
140
1.0
141
4.0
290
     0
  0
SCALE
  5
918
102
{ACAD_REACTORS
330
914
102
}
330
914
100
AcDbScale
 70
     0
300
1:5
140
1.0
141
5.0
290
     0
  0
SCALE
  5
919
102
{ACAD_REACTORS
330
914
102
}
330
914
100
AcDbScale
 70
     0
300
1:8
140
1.0
141
8.0
290
     0
  0
SCALE
  5
91A
102
{ACAD_REACTORS
330
914
102
}
330
914
100
AcDbScale
 70
     0
300
1:10
140
1.0
141
10.0
290
     0
  0
SCALE
  5
91B
102
{ACAD_REACTORS
330
914
102
}
330
914
100
AcDbScale
 70
     0
300
1:16
140
1.0
141
16.0
290
     0
  0
SCALE
  5
91C
102
{ACAD_REACTORS
330
914
102
}
330
914
100
AcDbScale
 70
     0
300
1:20
140
1.0
141
20.0
290
     0
  0
SCALE
  5
91D
102
{ACAD_REACTORS
330
914
102
}
330
914
100
AcDbScale
 70
     0
300
1:30
140
1.0
141
30.0
290
     0
  0
SCALE
  5
91E
102
{ACAD_REACTORS
330
914
102
}
330
914
100
AcDbScale
 70
     0
300
1:40
140
1.0
141
40.0
290
     0
  0
SCALE
  5
91F
102
{ACAD_REACTORS
330
914
102
}
330
914
100
AcDbScale
 70
     0
300
1:50
140
1.0
141
50.0
290
     0
  0
SCALE
  5
920
102
{ACAD_REACTORS
330
914
102
}
330
914
100
AcDbScale
 70
     0
300
1:100
140
1.0
141
100.0
290
     0
  0
SCALE
  5
921
102
{ACAD_REACTORS
330
914
102
}
330
914
100
AcDbScale
 70
     0
300
2:1
140
2.0
141
1.0
290
     0
  0
SCALE
  5
922
102
{ACAD_REACTORS
330
914
102
}
330
914
100
AcDbScale
 70
     0
300
4:1
140
4.0
141
1.0
290
     0
  0
SCALE
  5
923
102
{ACAD_REACTORS
330
914
102
}
330
914
100
AcDbScale
 70
     0
300
8:1
140
8.0
141
1.0
290
     0
  0
SCALE
  5
924
102
{ACAD_REACTORS
330
914
102
}
330
914
100
AcDbScale
 70
     0
300
10:1
140
10.0
141
1.0
290
     0
  0
SCALE
  5
925
102
{ACAD_REACTORS
330
914
102
}
330
914
100
AcDbScale
 70
     0
300
100:1
140
100.0
141
1.0
290
     0
  0
ACDBSECTIONVIEWSTYLE
  5
929
102
{ACAD_XDICTIONARY
360
A12
102
}
102
{ACAD_REACTORS
330
928
102
}
330
928
100
AcDbModelDocViewStyle
 70
     0
  3
Metric50
290
     0
100
AcDbSectionViewStyle
 70
     0
 71
     0
 90
      102
 71
     1
340
11
 62
   256
 40
5.0
340
0
340
0
 62
   256
 40
5.0
300
I, O, Q, S, X, Z
 40
10.0
 90
        0
 40
2.5
 90
        0
 71
     2
340
16
 90
       25
 62
   256
340
16
 90
       50
 62
   256
 40
5.0
 40
2.5
 40
5.0
 71
     3
340
11
 62
   256
 40
5.0
 90
        0
 40
15.0
 90
        1
300
%<\AcVar ViewSectionStartId>%-%<\AcVar ViewSectionEndId>% (%<\AcVar ViewScale \f "%sn">%)
 71
     4
 62
   256
 62
   257
300
ANSI31
 40
1.0
 90
        0
290
     0
290
     0
 90
        6
 40
0.0
 40
1.570796326794896
 40
0.2617993877991494
 40
1.308996938995747
 40
-0.2617993877991494
 40
1.832595714594046
  0
TABLESTYLE
  5
24B
102
{ACAD_XDICTIONARY
360
9C8
102
}
102
{ACAD_REACTORS
330
24A
102
}
330
24A
100
AcDbTableStyle
  3
Standard
 70
     0
 71
     0
 40
1.5
 41
1.5
280
     0
281
     0
  7
Standard
140
4.5
170
     2
 62
     0
 63
     7
283
     0
274
    -2
284
     1
 64
     0
275
    -2
285
     1
 65
     0
276
    -2
286
     1
 66
     0
277
    -2
287
     1
 67
     0
278
    -2
288
     1
 68
     0
279
    -2
289
     1
 69
     0
  7
Standard
140
6.0
170
     5
 62
     0
 63
     7
283
     0
274
    -2
284
     1
 64
     0
275
    -2
285
     1
 65
     0
276
    -2
286
     1
 66
     0
277
    -2
287
     1
 67
     0
278
    -2
288
     1
 68
     0
279
    -2
289
     1
 69
     0
  7
Standard
140
4.5
170
     5
 62
     0
 63
     7
283
     0
274
    -2
284
     1
 64
     0
275
    -2
285
     1
 65
     0
276
    -2
286
     1
 66
     0
277
    -2
287
     1
 67
     0
278
    -2
288
     1
 68
     0
279
    -2
289
     1
 69
     0
  0
VISUALSTYLE
  5
901
102
{ACAD_XDICTIONARY
360
9EB
102
}
102
{ACAD_REACTORS
330
8FB
102
}
330
8FB
100
AcDbVisualStyle
  2
2dWireframe
 70
     4
 71
     0
 72
     2
 73
     0
 90
        0
 40
-0.6
 41
-30.0
 62
     5
 63
     7
421
 16777215
 74
     1
 91
        4
 64
     7
 65
   257
 75
     1
175
     1
 42
1.0
 92
        0
 66
   257
 43
1.0
 76
     1
 77
     6
 78
     2
 67
     7
 79
     5
170
     0
171
     0
290
     0
174
     0
 93
        1
 44
0.0
173
     0
291
     0
 45
0.0
1001
ACAD
1000
AcDbSavedByObjectVersion
1070
     0
  0
VISUALSTYLE
  5
900
102
{ACAD_XDICTIONARY
360
9E9
102
}
102
{ACAD_REACTORS
330
8FB
102
}
330
8FB
100
AcDbVisualStyle
  2
Basic
 70
     7
 71
     1
 72
     0
 73
     1
 90
        0
 40
-0.6
 41
-30.0
 62
     5
 63
     7
421
 16777215
 74
     0
 91
        4
 64
     7
 65
   257
 75
     1
175
     1
 42
1.0
 92
        8
 66
     7
 43
1.0
 76
     1
 77
     6
 78
     2
 67
     7
 79
     5
170
     0
171
     0
290
     0
174
     0
 93
        1
 44
0.0
173
     0
291
     1
 45
0.0
1001
ACAD
1000
AcDbSavedByObjectVersion
1070
     0
  0
VISUALSTYLE
  5
907
102
{ACAD_XDICTIONARY
360
9F7
102
}
102
{ACAD_REACTORS
330
8FB
102
}
330
8FB
100
AcDbVisualStyle
  2
Brighten
 70
    12
 71
     2
 72
     2
 73
     0
 90
        0
 40
-0.6
 41
-30.0
 62
     5
 63
     7
421
 16777215
 74
     1
 91
        4
 64
     7
 65
   257
 75
     1
175
     1
 42
1.0
 92
        8
 66
     7
 43
1.0
 76
     1
 77
     6
 78
     2
 67
     7
 79
     5
170
     0
171
     0
290
     0
174
     0
 93
        1
 44
50.0
173
     0
291
     1
 45
0.0
1001
ACAD
1000
AcDbSavedByObjectVersion
1070
     0
  0
VISUALSTYLE
  5
90B
102
{ACAD_XDICTIONARY
360
9FF
102
}
102
{ACAD_REACTORS
330
8FB
102
}
330
8FB
100
AcDbVisualStyle
  2
ColorChange
 70
    16
 71
     2
 72
     2
 73
     3
 90
        0
 40
-0.6
 41
-30.0
 62
     5
 63
     8
421
  8421504
 74
     1
 91
        4
 64
     7
 65
   257
 75
     1
175
     1
 42
1.0
 92
        8
 66
     8
424
  8421504
 43
1.0
 76
     1
 77
     6
 78
     2
 67
     7
 79
     5
170
     0
171
     0
290
     0
174
     0
 93
        1
 44
0.0
173
     0
291
     1
 45
0.0
1001
ACAD
1000
AcDbSavedByObjectVersion
1070
     0
  0
VISUALSTYLE
  5
904
102
{ACAD_XDICTIONARY
360
9F1
102
}
102
{ACAD_REACTORS
330
8FB
102
}
330
8FB
100
AcDbVisualStyle
  2
Conceptual
 70
     9
 71
     3
 72
     2
 73
     0
 90
        0
 40
-0.6
 41
-30.0
 62
     5
 63
     7
421
 16777215
 74
     2
 91
        2
 64
     7
 65
   257
 75
     1
175
     1
 42
179.0
 92
        8
 66
     7
 43
1.0
 76
     1
 77
     6
 78
     2
 67
     7
 79
     3
170
     0
171
     0
290
     0
174
     0
 93
        1
 44
0.0
173
     0
291
     0
 45
0.0
1001
ACAD
1000
AcDbSavedByObjectVersion
1070
     0
  0
VISUALSTYLE
  5
906
102
{ACAD_XDICTIONARY
360
9F5
102
}
102
{ACAD_REACTORS
330
8FB
102
}
330
8FB
100
AcDbVisualStyle
  2
Dim
 70
    11
 71
     2
 72
     2
 73
     0
 90
        0
 40
-0.6
 41
-30.0
 62
     5
 63
     7
421
 16777215
 74
     1
 91
        4
 64
     7
 65
   257
 75
     1
175
     1
 42
1.0
 92
        8
 66
     7
 43
1.0
 76
     1
 77
     6
 78
     2
 67
     7
 79
     5
170
     0
171
     0
290
     0
174
     0
 93
        1
 44
-50.0
173
     0
291
     1
 45
0.0
1001
ACAD
1000
AcDbSavedByObjectVersion
1070
     0
  0
VISUALSTYLE
  5
913
102
{ACAD_XDICTIONARY
360
A0F
102
}
102
{ACAD_REACTORS
330
8FB
102
}
330
8FB
100
AcDbVisualStyle
  2
EdgeColorOff
 70
    22
 71
     2
 72
     2
 73
     0
 90
        0
 40
-0.6
 41
-30.0
 62
     5
 63
     7
421
 16777215
 74
     1
 91
        4
 64
     7
 65
   257
 75
     1
175
     1
 42
1.0
 92
        8
 66
     7
 43
1.0
 76
     1
 77
     6
 78
     2
 67
     7
 79
     5
170
     0
171
     0
290
     0
174
     0
 93
        1
 44
0.0
173
     0
291
     1
 45
0.0
1001
ACAD
1000
AcDbSavedByObjectVersion
1070
     0
  0
VISUALSTYLE
  5
90A
102
{ACAD_XDICTIONARY
360
9FD
102
}
102
{ACAD_REACTORS
330
8FB
102
}
330
8FB
100
AcDbVisualStyle
  2
Facepattern
 70
    15
 71
     2
 72
     2
 73
     0
 90
        0
 40
-0.6
 41
-30.0
 62
     5
 63
     7
421
 16777215
 74
     1
 91
        4
 64
     7
 65
   257
 75
     1
175
     1
 42
1.0
 92
        8
 66
     7
 43
1.0
 76
     1
 77
     6
 78
     2
 67
     7
 79
     5
170
     0
171
     0
290
     0
174
     0
 93
        1
 44
0.0
173
     0
291
     1
 45
0.0
1001
ACAD
1000
AcDbSavedByObjectVersion
1070
     0
  0
VISUALSTYLE
  5
8FC
102
{ACAD_XDICTIONARY
360
9E1
102
}
102
{ACAD_REACTORS
330
8FB
102
}
330
8FB
100
AcDbVisualStyle
  2
Flat
 70
     0
 71
     2
 72
     1
 73
     1
 90
        2
 40
-0.6
 41
30.0
 62
     5
 63
     7
421
 16777215
 74
     0
 91
        0
 64
     7
 65
   257
 75
     1
175
     1
 42
1.0
 92
        8
 66
     7
 43
1.0
 76
     1
 77
     6
 78
     2
 67
     7
 79
     5
170
     0
171
     0
290
     0
174
     0
 93
       13
 44
0.0
173
     0
291
     1
 45
0.0
1001
ACAD
1000
AcDbSavedByObjectVersion
1070
     0
  0
VISUALSTYLE
  5
8FD
102
{ACAD_XDICTIONARY
360
9E3
102
}
102
{ACAD_REACTORS
330
8FB
102
}
330
8FB
100
AcDbVisualStyle
  2
FlatWithEdges
 70
     1
 71
     2
 72
     1
 73
     1
 90
        2
 40
-0.6
 41
30.0
 62
     5
 63
     7
421
 16777215
 74
     1
 91
        0
 64
     7
 65
   257
 75
     1
175
     1
 42
1.0
 92
        0
 66
   257
 43
1.0
 76
     1
 77
     6
 78
     2
 67
     7
 79
     5
170
     0
171
     0
290
     0
174
     0
 93
       13
 44
0.0
173
     0
291
     1
 45
0.0
1001
ACAD
1000
AcDbSavedByObjectVersion
1070
     0
  0
VISUALSTYLE
  5
8FE
102
{ACAD_XDICTIONARY
360
9E5
102
}
102
{ACAD_REACTORS
330
8FB
102
}
330
8FB
100
AcDbVisualStyle
  2
Gouraud
 70
     2
 71
     2
 72
     2
 73
     1
 90
        2
 40
-0.6
 41
30.0
 62
     5
 63
     7
421
 16777215
 74
     0
 91
        0
 64
     7
 65
   257
 75
     1
175
     1
 42
1.0
 92
        0
 66
     7
 43
1.0
 76
     1
 77
     6
 78
     2
 67
     7
 79
     5
170
     0
171
     0
290
     0
174
     0
 93
       13
 44
0.0
173
     0
291
     1
 45
0.0
1001
ACAD
1000
AcDbSavedByObjectVersion
1070
     0
  0
VISUALSTYLE
  5
8FF
102
{ACAD_XDICTIONARY
360
9E7
102
}
102
{ACAD_REACTORS
330
8FB
102
}
330
8FB
100
AcDbVisualStyle
  2
GouraudWithEdges
 70
     3
 71
     2
 72
     2
 73
     1
 90
        2
 40
-0.6
 41
30.0
 62
     5
 63
     7
421
 16777215
 74
     1
 91
        0
 64
     7
 65
   257
 75
     1
175
     1
 42
1.0
 92
        0
 66
   257
 43
1.0
 76
     1
 77
     6
 78
     2
 67
     7
 79
     5
170
     0
171
     0
290
     0
174
     0
 93
       13
 44
0.0
173
     0
291
     1
 45
0.0
1001
ACAD
1000
AcDbSavedByObjectVersion
1070
     0
  0
VISUALSTYLE
  5
903
102
{ACAD_XDICTIONARY
360
9EF
102
}
102
{ACAD_REACTORS
330
8FB
102
}
330
8FB
100
AcDbVisualStyle
  2
Hidden
 70
     6
 71
     1
 72
     2
 73
     2
 90
        0
 40
-0.6
 41
-30.0
 62
     5
 63
     7
421
 16777215
 74
     2
 91
        2
 64
     7
 65
   257
 75
     2
175
     1
 42
40.0
 92
        0
 66
   257
 43
1.0
 76
     1
 77
     6
 78
     2
 67
     7
 79
     3
170
     0
171
     0
290
     0
174
     0
 93
        1
 44
0.0
173
     0
291
     0
 45
0.0
1001
ACAD
1000
AcDbSavedByObjectVersion
1070
     0
  0
VISUALSTYLE
  5
911
102
{ACAD_XDICTIONARY
360
A0B
102
}
102
{ACAD_REACTORS
330
8FB
102
}
330
8FB
100
AcDbVisualStyle
  2
JitterOff
 70
    20
 71
     2
 72
     2
 73
     0
 90
        0
 40
-0.6
 41
-30.0
 62
     5
 63
     7
421
 16777215
 74
     1
 91
        4
 64
     7
 65
   257
 75
     1
175
     1
 42
1.0
 92
       10
 66
     7
 43
1.0
 76
     1
 77
     6
 78
     2
 67
     7
 79
     5
170
     0
171
     0
290
     0
174
     0
 93
        1
 44
0.0
173
     0
291
     1
 45
0.0
1001
ACAD
1000
AcDbSavedByObjectVersion
1070
     0
  0
VISUALSTYLE
  5
909
102
{ACAD_XDICTIONARY
360
9FB
102
}
102
{ACAD_REACTORS
330
8FB
102
}
330
8FB
100
AcDbVisualStyle
  2
Linepattern
 70
    14
 71
     2
 72
     2
 73
     0
 90
        0
 40
-0.6
 41
-30.0
 62
     5
 63
     7
421
 16777215
 74
     1
 91
        4
 64
     7
 65
   257
 75
     7
175
     7
 42
1.0
 92
        8
 66
     7
 43
1.0
 76
     1
 77
     6
 78
     2
 67
     7
 79
     5
170
     0
171
     0
290
     0
174
     0
 93
        1
 44
0.0
173
     0
291
     1
 45
0.0
1001
ACAD
1000
AcDbSavedByObjectVersion
1070
     0
  0
VISUALSTYLE
  5
912
102
{ACAD_XDICTIONARY
360
A0D
102
}
102
{ACAD_REACTORS
330
8FB
102
}
330
8FB
100
AcDbVisualStyle
  2
OverhangOff
 70
    21
 71
     2
 72
     2
 73
     0
 90
        0
 40
-0.6
 41
-30.0
 62
     5
 63
     7
421
 16777215
 74
     1
 91
        4
 64
     7
 65
   257
 75
     1
175
     1
 42
1.0
 92
        9
 66
     7
 43
1.0
 76
     1
 77
     6
 78
     2
 67
     7
 79
     5
170
     0
171
     0
290
     0
174
     0
 93
        1
 44
0.0
173
     0
291
     1
 45
0.0
1001
ACAD
1000
AcDbSavedByObjectVersion
1070
     0
  0
VISUALSTYLE
  5
905
102
{ACAD_XDICTIONARY
360
9F3
102
}
102
{ACAD_REACTORS
330
8FB
102
}
330
8FB
100
AcDbVisualStyle
  2
Realistic
 70
     8
 71
     2
 72
     3
 73
     0
 90
        2
 40
-0.6
 41
30.0
 62
     5
 63
     7
421
 16777215
 74
     0
 91
        0
 64
     7
 65
   257
 75
     1
175
     1
 42
1.0
 92
        8
 66
   257
 43
1.0
 76
     1
 77
     6
 78
     2
 67
     7
 79
     3
170
     0
171
     0
290
     0
174
     0
 93
       13
 44
0.0
173
     0
291
     0
 45
0.0
1001
ACAD
1000
AcDbSavedByObjectVersion
1070
     0
  0
VISUALSTYLE
  5
910
102
{ACAD_XDICTIONARY
360
A09
102
}
102
{ACAD_REACTORS
330
8FB
102
}
330
8FB
100
AcDbVisualStyle
  2
Shaded
 70
    27
 71
     2
 72
     2
 73
     1
 90
        2
 40
-0.6
 41
30.0
 62
     5
 63
     7
421
 16777215
 74
     0
 91
        4
 64
     7
 65
   257
 75
     1
175
     1
 42
1.0
 92
        8
 66
   257
 43
1.0
 76
     1
 77
     6
 78
     2
 67
     8
425
  7895160
 79
     3
170
     0
171
     0
290
     0
174
     0
 93
        5
 44
0.0
173
     0
291
     0
 45
0.0
1001
ACAD
1000
AcDbSavedByObjectVersion
1070
     0
  0
VISUALSTYLE
  5
90F
102
{ACAD_XDICTIONARY
360
A07
102
}
102
{ACAD_REACTORS
330
8FB
102
}
330
8FB
100
AcDbVisualStyle
  2
Shaded with edges
 70
    26
 71
     2
 72
     2
 73
     1
 90
        2
 40
-0.6
 41
30.0
 62
     5
 63
     7
421
 16777215
 74
     1
 91
       10
 64
     7
 65
   257
 75
     2
175
     1
 42
1.0
 92
        8
 66
   257
 43
1.0
 76
     1
 77
     6
 78
     2
 67
     7
 79
     3
170
     0
171
     0
290
     0
174
     0
 93
        5
 44
0.0
173
     0
291
     0
 45
0.0
1001
ACAD
1000
AcDbSavedByObjectVersion
1070
     0
  0
VISUALSTYLE
  5
90C
102
{ACAD_XDICTIONARY
360
A01
102
}
102
{ACAD_REACTORS
330
8FB
102
}
330
8FB
100
AcDbVisualStyle
  2
Shades of Gray
 70
    23
 71
     2
 72
     2
 73
     3
 90
        0
 40
-0.6
 41
-30.0
 62
     5
 63
     7
421
 16777215
 74
     2
 91
        2
 64
     7
 65
     7
 75
     1
175
     1
 42
40.0
 92
        8
 66
     7
 43
1.0
 76
     1
 77
     6
 78
     2
 67
     7
 79
     3
170
     0
171
     0
290
     0
174
     0
 93
        1
 44
0.0
173
     0
291
     0
 45
0.0
1001
ACAD
1000
AcDbSavedByObjectVersion
1070
     0
  0
VISUALSTYLE
  5
90D
102
{ACAD_XDICTIONARY
360
A03
102
}
102
{ACAD_REACTORS
330
8FB
102
}
330
8FB
100
AcDbVisualStyle
  2
Sketchy
 70
    24
 71
     1
 72
     2
 73
     2
 90
        0
 40
-0.6
 41
-30.0
 62
     5
 63
     7
421
 16777215
 74
     2
 91
        2
 64
     7
 65
     7
 75
     1
175
     1
 42
40.0
 92
       11
 66
     7
 43
1.0
 76
     1
 77
     6
 78
     2
 67
     7
 79
     6
170
     0
171
     0
290
     0
174
     0
 93
        1
 44
0.0
173
     0
291
     0
 45
0.0
1001
ACAD
1000
AcDbSavedByObjectVersion
1070
     0
  0
VISUALSTYLE
  5
908
102
{ACAD_XDICTIONARY
360
9F9
102
}
102
{ACAD_REACTORS
330
8FB
102
}
330
8FB
100
AcDbVisualStyle
  2
Thicken
 70
    13
 71
     2
 72
     2
 73
     0
 90
        0
 40
-0.6
 41
-30.0
 62
     5
 63
     7
421
 16777215
 74
     1
 91
        4
 64
     7
 65
   257
 75
     1
175
     1
 42
1.0
 92
       12
 66
     7
 43
1.0
 76
     1
 77
     6
 78
     2
 67
     7
 79
     5
170
     0
171
     0
290
     0
174
     0
 93
        1
 44
0.0
173
     0
291
     1
 45
0.0
1001
ACAD
1000
AcDbSavedByObjectVersion
1070
     0
  0
VISUALSTYLE
  5
902
102
{ACAD_XDICTIONARY
360
9ED
102
}
102
{ACAD_REACTORS
330
8FB
102
}
330
8FB
100
AcDbVisualStyle
  2
Wireframe
 70
     5
 71
     0
 72
     2
 73
     0
 90
        0
 40
-0.6
 41
-30.0
 62
     5
 63
     7
421
 16777215
 74
     1
 91
        4
 64
     7
 65
   257
 75
     1
175
     1
 42
1.0
 92
        0
 66
   257
 43
1.0
 76
     1
 77
     6
 78
     2
 67
     7
 79
     3
170
     0
171
     0
290
     0
174
     0
 93
        1
 44
0.0
173
     0
291
     0
 45
0.0
1001
ACAD
1000
AcDbSavedByObjectVersion
1070
     0
  0
VISUALSTYLE
  5
90E
102
{ACAD_XDICTIONARY
360
A05
102
}
102
{ACAD_REACTORS
330
8FB
102
}
330
8FB
100
AcDbVisualStyle
  2
X-Ray
 70
    25
 71
     2
 72
     2
 73
     1
 90
        1
 40
0.5
 41
-30.0
 62
     5
 63
     7
421
 16777215
 74
     1
 91
        0
 64
     7
 65
   257
 75
     1
175
     1
 42
1.0
 92
        8
 66
     7
 43
1.0
 76
     1
 77
     6
 78
     2
 67
     7
 79
     3
170
     0
171
     0
290
     0
174
     0
 93
       13
 44
0.0
173
     0
291
     0
 45
0.0
1001
ACAD
1000
AcDbSavedByObjectVersion
1070
     0
  0
DICTIONARYVAR
  5
984
102
{ACAD_REACTORS
330
250
102
}
330
250
100
DictionaryVariables
280
     0
  1
1:1
  0
DICTIONARYVAR
  5
980
102
{ACAD_REACTORS
330
250
102
}
330
250
100
DictionaryVariables
280
     0
  1
STANDARD
  0
DICTIONARYVAR
  5
251
102
{ACAD_REACTORS
330
250
102
}
330
250
100
DictionaryVariables
280
     0
  1
STANDARD
  0
DICTIONARYVAR
  5
981
102
{ACAD_REACTORS
330
250
102
}
330
250
100
DictionaryVariables
280
     0
  1
Metric50
  0
DICTIONARYVAR
  5
982
102
{ACAD_REACTORS
330
250
102
}
330
250
100
DictionaryVariables
280
     0
  1
Metric50
  0
DICTIONARYVAR
  5
355
102
{ACAD_REACTORS
330
250
102
}
330
250
100
DictionaryVariables
280
     0
  1
1
  0
DICTIONARYVAR
  5
986
102
{ACAD_REACTORS
330
250
102
}
330
250
100
DictionaryVariables
280
     0
  1
1
  0
DICTIONARYVAR
  5
987
102
{ACAD_REACTORS
330
250
102
}
330
250
100
DictionaryVariables
280
     0
  1
15
  0
DICTIONARYVAR
  5
985
102
{ACAD_REACTORS
330
250
102
}
330
250
100
DictionaryVariables
280
     0
  1
0
  0
DICTIONARYVAR
  5
983
102
{ACAD_REACTORS
330
250
102
}
330
250
100
DictionaryVariables
280
     0
  1
0
  0
DICTIONARYVAR
  5
356
102
{ACAD_REACTORS
330
250
102
}
330
250
100
DictionaryVariables
280
     0
  1

  0
DICTIONARYVAR
  5
9C7
102
{ACAD_REACTORS
330
250
102
}
330
250
100
DictionaryVariables
280
     0
  1
2
  0
DICTIONARY
  5
9D2
102
{ACAD_REACTORS
330
9D0
102
}
330
9D0
100
AcDbDictionary
281
     1
  0
DICTIONARY
  5
9D1
102
{ACAD_REACTORS
330
9D0
102
}
330
9D0
100
AcDbDictionary
281
     1
  3
2129675288
350
9CB
  3
2129675296
350
9CC
  3
2129675304
350
9CD
  3
2129675312
350
9CE
  3
2129675320
350
9CF
  0
DICTIONARY
  5
A14
330
92B
100
AcDbDictionary
280
     1
281
     1
  3
ACAD_XREC_ROUNDTRIP
360
A15
  0
DICTIONARY
  5
8EC
330
8EB
100
AcDbDictionary
280
     1
281
     1
  3
ACAD_XREC_ROUNDTRIP
360
9DF
  3
BUMPTILE
360
8EE
  3
DIFFUSETILE
360
8ED
  3
OPACITYTILE
360
8F1
  3
REFLECTIONTILE
360
8F0
  3
REFRACTIONTILE
360
8F2
  3
SPECULARTILE
360
8EF
  0
DICTIONARY
  5
8E4
330
8E3
100
AcDbDictionary
280
     1
281
     1
  3
ACAD_XREC_ROUNDTRIP
360
9DE
  3
BUMPTILE
360
8E6
  3
DIFFUSETILE
360
8E5
  3
OPACITYTILE
360
8E9
  3
REFLECTIONTILE
360
8E8
  3
REFRACTIONTILE
360
8EA
  3
SPECULARTILE
360
8E7
  0
DICTIONARY
  5
8F4
330
8F3
100
AcDbDictionary
280
     1
281
     1
  3
ACAD_XREC_ROUNDTRIP
360
9E0
  3
BUMPTILE
360
8F6
  3
DIFFUSETILE
360
8F5
  3
OPACITYTILE
360
8F9
  3
REFLECTIONTILE
360
8F8
  3
REFRACTIONTILE
360
8FA
  3
SPECULARTILE
360
8F7
  0
DICTIONARY
  5
A12
330
929
100
AcDbDictionary
280
     1
281
     1
  3
ACAD_XREC_ROUNDTRIP
360
A13
  0
DICTIONARY
  5
9C8
330
24B
100
AcDbDictionary
280
     1
281
     1
  3
ACAD_ROUNDTRIP_2008_TABLESTYLE_CELLSTYLEMAP
360
9C9
  3
ACAD_XREC_ROUNDTRIP
360
9D5
  0
DICTIONARY
  5
9EB
330
901
100
AcDbDictionary
280
     1
281
     1
  3
ACAD_XREC_ROUNDTRIP
360
9EC
  0
DICTIONARY
  5
9E9
330
900
100
AcDbDictionary
280
     1
281
     1
  3
ACAD_XREC_ROUNDTRIP
360
9EA
  0
DICTIONARY
  5
9F7
330
907
100
AcDbDictionary
280
     1
281
     1
  3
ACAD_XREC_ROUNDTRIP
360
9F8
  0
DICTIONARY
  5
9FF
330
90B
100
AcDbDictionary
280
     1
281
     1
  3
ACAD_XREC_ROUNDTRIP
360
A00
  0
DICTIONARY
  5
9F1
330
904
100
AcDbDictionary
280
     1
281
     1
  3
ACAD_XREC_ROUNDTRIP
360
9F2
  0
DICTIONARY
  5
9F5
330
906
100
AcDbDictionary
280
     1
281
     1
  3
ACAD_XREC_ROUNDTRIP
360
9F6
  0
DICTIONARY
  5
A0F
330
913
100
AcDbDictionary
280
     1
281
     1
  3
ACAD_XREC_ROUNDTRIP
360
A10
  0
DICTIONARY
  5
9FD
330
90A
100
AcDbDictionary
280
     1
281
     1
  3
ACAD_XREC_ROUNDTRIP
360
9FE
  0
DICTIONARY
  5
9E1
330
8FC
100
AcDbDictionary
280
     1
281
     1
  3
ACAD_XREC_ROUNDTRIP
360
9E2
  0
DICTIONARY
  5
9E3
330
8FD
100
AcDbDictionary
280
     1
281
     1
  3
ACAD_XREC_ROUNDTRIP
360
9E4
  0
DICTIONARY
  5
9E5
330
8FE
100
AcDbDictionary
280
     1
281
     1
  3
ACAD_XREC_ROUNDTRIP
360
9E6
  0
DICTIONARY
  5
9E7
330
8FF
100
AcDbDictionary
280
     1
281
     1
  3
ACAD_XREC_ROUNDTRIP
360
9E8
  0
DICTIONARY
  5
9EF
330
903
100
AcDbDictionary
280
     1
281
     1
  3
ACAD_XREC_ROUNDTRIP
360
9F0
  0
DICTIONARY
  5
A0B
330
911
100
AcDbDictionary
280
     1
281
     1
  3
ACAD_XREC_ROUNDTRIP
360
A0C
  0
DICTIONARY
  5
9FB
330
909
100
AcDbDictionary
280
     1
281
     1
  3
ACAD_XREC_ROUNDTRIP
360
9FC
  0
DICTIONARY
  5
A0D
330
912
100
AcDbDictionary
280
     1
281
     1
  3
ACAD_XREC_ROUNDTRIP
360
A0E
  0
DICTIONARY
  5
9F3
330
905
100
AcDbDictionary
280
     1
281
     1
  3
ACAD_XREC_ROUNDTRIP
360
9F4
  0
DICTIONARY
  5
A09
330
910
100
AcDbDictionary
280
     1
281
     1
  3
ACAD_XREC_ROUNDTRIP
360
A0A
  0
DICTIONARY
  5
A07
330
90F
100
AcDbDictionary
280
     1
281
     1
  3
ACAD_XREC_ROUNDTRIP
360
A08
  0
DICTIONARY
  5
A01
330
90C
100
AcDbDictionary
280
     1
281
     1
  3
ACAD_XREC_ROUNDTRIP
360
A02
  0
DICTIONARY
  5
A03
330
90D
100
AcDbDictionary
280
     1
281
     1
  3
ACAD_XREC_ROUNDTRIP
360
A04
  0
DICTIONARY
  5
9F9
330
908
100
AcDbDictionary
280
     1
281
     1
  3
ACAD_XREC_ROUNDTRIP
360
9FA
  0
DICTIONARY
  5
9ED
330
902
100
AcDbDictionary
280
     1
281
     1
  3
ACAD_XREC_ROUNDTRIP
360
9EE
  0
DICTIONARY
  5
A05
330
90E
100
AcDbDictionary
280
     1
281
     1
  3
ACAD_XREC_ROUNDTRIP
360
A06
  0
XRECORD
  5
9CB
102
{ACAD_REACTORS
330
9D1
102
}
330
9D1
100
AcDbXrecord
280
     1
  1
AcDb_Thumbnail_Schema
102
{ATTRRECORD
341
9CC
  2
AcDbDs::TreatedAsObjectData
280
     1
291
     1
102
ATTRRECORD}
102
{ATTRRECORD
341
9CD
  2
AcDbDs::Legacy
280
     1
291
     1
102
ATTRRECORD}
  2
AcDbDs::ID
280
    10
 91
        8
102
{ATTRRECORD
341
9CE
  2
AcDs:Indexable
280
     1
291
     1
102
ATTRRECORD}
102
{ATTRRECORD
341
9CF
  2
AcDbDs::HandleAttribute
280
     7
282
     1
102
ATTRRECORD}
  2
Thumbnail_Data
280
    15
 91
        0
  0
XRECORD
  5
9CC
102
{ACAD_REACTORS
330
9D1
102
}
330
9D1
100
AcDbXrecord
280
     1
  1
AcDbDs::TreatedAsObjectDataSchema
  2
AcDbDs::TreatedAsObjectData
280
     1
 91
        0
  0
XRECORD
  5
9CD
102
{ACAD_REACTORS
330
9D1
102
}
330
9D1
100
AcDbXrecord
280
     1
  1
AcDbDs::LegacySchema
  2
AcDbDs::Legacy
280
     1
 91
        0
  0
XRECORD
  5
9CE
102
{ACAD_REACTORS
330
9D1
102
}
330
9D1
100
AcDbXrecord
280
     1
  1
AcDbDs::IndexedPropertySchema
  2
AcDs:Indexable
280
     1
 91
        0
  0
XRECORD
  5
9CF
102
{ACAD_REACTORS
330
9D1
102
}
330
9D1
100
AcDbXrecord
280
     1
  1
AcDbDs::HandleAttributeSchema
  2
AcDbDs::HandleAttribute
280
     7
 91
        1
284
     1
  0
XRECORD
  5
A15
102
{ACAD_REACTORS
330
A14
102
}
330
A14
100
AcDbXrecord
280
     1
102
DISPLAYNAME
  1
Metric50
102
FLAGS
 90
        0
  0
XRECORD
  5
9DF
102
{ACAD_REACTORS
330
8EC
102
}
330
8EC
100
AcDbXrecord
280
     1
102
MATERIAL
148
0.0
149
0.0
149
0.0
 93
        0
 94
      127
282
     0
 72
     0
 77
     0
171
     0
175
     0
179
     0
273
     0
  0
XRECORD
  5
8EE
102
{ACAD_REACTORS
330
8EC
102
}
330
8EC
100
AcDbXrecord
280
     1
270
     1
271
     1
  0
XRECORD
  5
8ED
102
{ACAD_REACTORS
330
8EC
102
}
330
8EC
100
AcDbXrecord
280
     1
270
     1
271
     1
  0
XRECORD
  5
8F1
102
{ACAD_REACTORS
330
8EC
102
}
330
8EC
100
AcDbXrecord
280
     1
270
     1
271
     1
  0
XRECORD
  5
8F0
102
{ACAD_REACTORS
330
8EC
102
}
330
8EC
100
AcDbXrecord
280
     1
270
     1
271
     1
  0
XRECORD
  5
8F2
102
{ACAD_REACTORS
330
8EC
102
}
330
8EC
100
AcDbXrecord
280
     1
270
     1
271
     1
  0
XRECORD
  5
8EF
102
{ACAD_REACTORS
330
8EC
102
}
330
8EC
100
AcDbXrecord
280
     1
270
     1
271
     1
  0
XRECORD
  5
9DE
102
{ACAD_REACTORS
330
8E4
102
}
330
8E4
100
AcDbXrecord
280
     1
102
MATERIAL
148
0.0
149
0.0
149
0.0
 93
        0
 94
      127
282
     0
 72
     0
 77
     0
171
     0
175
     0
179
     0
273
     0
  0
XRECORD
  5
8E6
102
{ACAD_REACTORS
330
8E4
102
}
330
8E4
100
AcDbXrecord
280
     1
270
     1
271
     1
  0
XRECORD
  5
8E5
102
{ACAD_REACTORS
330
8E4
102
}
330
8E4
100
AcDbXrecord
280
     1
270
     1
271
     1
  0
XRECORD
  5
8E9
102
{ACAD_REACTORS
330
8E4
102
}
330
8E4
100
AcDbXrecord
280
     1
270
     1
271
     1
  0
XRECORD
  5
8E8
102
{ACAD_REACTORS
330
8E4
102
}
330
8E4
100
AcDbXrecord
280
     1
270
     1
271
     1
  0
XRECORD
  5
8EA
102
{ACAD_REACTORS
330
8E4
102
}
330
8E4
100
AcDbXrecord
280
     1
270
     1
271
     1
  0
XRECORD
  5
8E7
102
{ACAD_REACTORS
330
8E4
102
}
330
8E4
100
AcDbXrecord
280
     1
270
     1
271
     1
  0
XRECORD
  5
9E0
102
{ACAD_REACTORS
330
8F4
102
}
330
8F4
100
AcDbXrecord
280
     1
102
MATERIAL
148
0.0
149
0.0
149
0.0
 93
        0
 94
      127
282
     0
 72
     0
 77
     0
171
     0
175
     0
179
     0
273
     0
  0
XRECORD
  5
8F6
102
{ACAD_REACTORS
330
8F4
102
}
330
8F4
100
AcDbXrecord
280
     1
270
     1
271
     1
  0
XRECORD
  5
8F5
102
{ACAD_REACTORS
330
8F4
102
}
330
8F4
100
AcDbXrecord
280
     1
270
     1
271
     1
  0
XRECORD
  5
8F9
102
{ACAD_REACTORS
330
8F4
102
}
330
8F4
100
AcDbXrecord
280
     1
270
     1
271
     1
  0
XRECORD
  5
8F8
102
{ACAD_REACTORS
330
8F4
102
}
330
8F4
100
AcDbXrecord
280
     1
270
     1
271
     1
  0
XRECORD
  5
8FA
102
{ACAD_REACTORS
330
8F4
102
}
330
8F4
100
AcDbXrecord
280
     1
270
     1
271
     1
  0
XRECORD
  5
8F7
102
{ACAD_REACTORS
330
8F4
102
}
330
8F4
100
AcDbXrecord
280
     1
270
     1
271
     1
  0
XRECORD
  5
A13
102
{ACAD_REACTORS
330
A12
102
}
330
A12
100
AcDbXrecord
280
     1
102
DISPLAYNAME
  1
Metric50
102
FLAGS
 90
        0
  0
CELLSTYLEMAP
  5
9C9
102
{ACAD_REACTORS
330
9C8
102
}
330
9C8
100
AcDbCellStyleMap
 90
        3
300
CELLSTYLE
  1
TABLEFORMAT_BEGIN
 90
        5
170
     1
 91
        0
 92
    32768
 62
   257
 93
        1
300
CONTENTFORMAT
  1
CONTENTFORMAT_BEGIN
 90
        0
 91
        0
 92
        4
 93
        0
300

 40
0.0
140
1.0
 94
        5
 62
     0
340
11
144
6.0
309
CONTENTFORMAT_END
171
     1
301
MARGIN
  1
CELLMARGIN_BEGIN
 40
1.5
 40
1.5
 40
1.5
 40
1.5
 40
0.18
 40
0.18
309
CELLMARGIN_END
 94
        6
 95
        1
302
GRIDFORMAT
  1
GRIDFORMAT_BEGIN
 90
        0
 91
        1
 62
     0
 92
       -2
340
0
 93
        0
 40
0.045
309
GRIDFORMAT_END
 95
        2
302
GRIDFORMAT
  1
GRIDFORMAT_BEGIN
 90
        0
 91
        1
 62
     0
 92
       -2
340
0
 93
        0
 40
0.045
309
GRIDFORMAT_END
 95
        4
302
GRIDFORMAT
  1
GRIDFORMAT_BEGIN
 90
        0
 91
        1
 62
     0
 92
       -2
340
0
 93
        0
 40
0.045
309
GRIDFORMAT_END
 95
        8
302
GRIDFORMAT
  1
GRIDFORMAT_BEGIN
 90
        0
 91
        1
 62
     0
 92
       -2
340
0
 93
        0
 40
0.045
309
GRIDFORMAT_END
 95
       16
302
GRIDFORMAT
  1
GRIDFORMAT_BEGIN
 90
        0
 91
        1
 62
     0
 92
       -2
340
0
 93
        0
 40
0.045
309
GRIDFORMAT_END
 95
       32
302
GRIDFORMAT
  1
GRIDFORMAT_BEGIN
 90
        0
 91
        1
 62
     0
 92
       -2
340
0
 93
        0
 40
0.045
309
GRIDFORMAT_END
309
TABLEFORMAT_END
  1
CELLSTYLE_BEGIN
 90
        1
 91
        1
300
_TITLE
309
CELLSTYLE_END
300
CELLSTYLE
  1
TABLEFORMAT_BEGIN
 90
        5
170
     1
 91
        0
 92
        0
 62
   257
 93
        1
300
CONTENTFORMAT
  1
CONTENTFORMAT_BEGIN
 90
        0
 91
        0
 92
        4
 93
        0
300

 40
0.0
140
1.0
 94
        5
 62
     0
340
11
144
4.5
309
CONTENTFORMAT_END
171
     1
301
MARGIN
  1
CELLMARGIN_BEGIN
 40
1.5
 40
1.5
 40
1.5
 40
1.5
 40
0.18
 40
0.18
309
CELLMARGIN_END
 94
        6
 95
        1
302
GRIDFORMAT
  1
GRIDFORMAT_BEGIN
 90
        0
 91
        1
 62
     0
 92
       -2
340
0
 93
        0
 40
0.045
309
GRIDFORMAT_END
 95
        2
302
GRIDFORMAT
  1
GRIDFORMAT_BEGIN
 90
        0
 91
        1
 62
     0
 92
       -2
340
0
 93
        0
 40
0.045
309
GRIDFORMAT_END
 95
        4
302
GRIDFORMAT
  1
GRIDFORMAT_BEGIN
 90
        0
 91
        1
 62
     0
 92
       -2
340
0
 93
        0
 40
0.045
309
GRIDFORMAT_END
 95
        8
302
GRIDFORMAT
  1
GRIDFORMAT_BEGIN
 90
        0
 91
        1
 62
     0
 92
       -2
340
0
 93
        0
 40
0.045
309
GRIDFORMAT_END
 95
       16
302
GRIDFORMAT
  1
GRIDFORMAT_BEGIN
 90
        0
 91
        1
 62
     0
 92
       -2
340
0
 93
        0
 40
0.045
309
GRIDFORMAT_END
 95
       32
302
GRIDFORMAT
  1
GRIDFORMAT_BEGIN
 90
        0
 91
        1
 62
     0
 92
       -2
340
0
 93
        0
 40
0.045
309
GRIDFORMAT_END
309
TABLEFORMAT_END
  1
CELLSTYLE_BEGIN
 90
        2
 91
        1
300
_HEADER
309
CELLSTYLE_END
300
CELLSTYLE
  1
TABLEFORMAT_BEGIN
 90
        5
170
     1
 91
        0
 92
        0
 62
   257
 93
        1
300
CONTENTFORMAT
  1
CONTENTFORMAT_BEGIN
 90
        0
 91
        0
 92
        4
 93
        0
300

 40
0.0
140
1.0
 94
        2
 62
     0
340
11
144
4.5
309
CONTENTFORMAT_END
171
     1
301
MARGIN
  1
CELLMARGIN_BEGIN
 40
1.5
 40
1.5
 40
1.5
 40
1.5
 40
0.18
 40
0.18
309
CELLMARGIN_END
 94
        6
 95
        1
302
GRIDFORMAT
  1
GRIDFORMAT_BEGIN
 90
        0
 91
        1
 62
     0
 92
       -2
340
0
 93
        0
 40
0.045
309
GRIDFORMAT_END
 95
        2
302
GRIDFORMAT
  1
GRIDFORMAT_BEGIN
 90
        0
 91
        1
 62
     0
 92
       -2
340
0
 93
        0
 40
0.045
309
GRIDFORMAT_END
 95
        4
302
GRIDFORMAT
  1
GRIDFORMAT_BEGIN
 90
        0
 91
        1
 62
     0
 92
       -2
340
0
 93
        0
 40
0.045
309
GRIDFORMAT_END
 95
        8
302
GRIDFORMAT
  1
GRIDFORMAT_BEGIN
 90
        0
 91
        1
 62
     0
 92
       -2
340
0
 93
        0
 40
0.045
309
GRIDFORMAT_END
 95
       16
302
GRIDFORMAT
  1
GRIDFORMAT_BEGIN
 90
        0
 91
        1
 62
     0
 92
       -2
340
0
 93
        0
 40
0.045
309
GRIDFORMAT_END
 95
       32
302
GRIDFORMAT
  1
GRIDFORMAT_BEGIN
 90
        0
 91
        1
 62
     0
 92
       -2
340
0
 93
        0
 40
0.045
309
GRIDFORMAT_END
309
TABLEFORMAT_END
  1
CELLSTYLE_BEGIN
 90
        3
 91
        2
300
_DATA
309
CELLSTYLE_END
  0
XRECORD
  5
9D5
102
{ACAD_REACTORS
330
9C8
102
}
330
9C8
100
AcDbXrecord
280
     1
102
ACAD_ROUNDTRIP_PRE2007_TABLESTYLE
 90
        4
 91
        0
  1

 92
        4
 93
        0
  2

 94
        4
 95
        0
  3

  0
XRECORD
  5
9EC
102
{ACAD_REACTORS
330
9EB
102
}
330
9EB
100
AcDbXrecord
280
     1
102
RTVSPost2010Prop28
280
     1
102
RTVSPost2010PropOp28
 70
     1
102
RTVSPost2010Prop29
280
     1
102
RTVSPost2010PropOp29
 70
     1
102
RTVSPost2010Prop30
280
     0
102
RTVSPost2010PropOp30
 70
     1
102
RTVSPost2010Prop31
280
     0
102
RTVSPost2010PropOp31
 70
     1
102
RTVSPost2010Prop32
280
     0
102
RTVSPost2010PropOp32
 70
     1
102
RTVSPost2010Prop33
280
     0
102
RTVSPost2010PropOp33
 70
     1
102
RTVSPost2010Prop34
280
     0
102
RTVSPost2010PropOp34
 70
     1
102
RTVSPost2010Prop35
280
     0
102
RTVSPost2010PropOp35
 70
     1
102
RTVSPost2010Prop36
280
     0
102
RTVSPost2010PropOp36
 70
     1
102
RTVSPost2010Prop37
 90
       50
102
RTVSPost2010PropOp37
 70
     1
102
RTVSPost2010Prop38
140
0.0
102
RTVSPost2010PropOp38
 70
     1
102
RTVSPost2010Prop39
140
1.0
102
RTVSPost2010PropOp39
 70
     1
102
RTVSPost2010Prop40
 90
        0
102
RTVSPost2010PropOp40
 70
     1
102
RTVSPost2010Prop41ColorIndex
 90
       18
102
RTVSPost2010Prop41ColorRGB
 90
        0
102
RTVSPost2010PropOp41
 70
     1
102
RTVSPost2010Prop42
 90
       50
102
RTVSPost2010PropOp42
 70
     1
102
RTVSPost2010Prop43
 90
        3
102
RTVSPost2010PropOp43
 70
     1
102
RTVSPost2010Prop44ColorIndex
 90
        5
102
RTVSPost2010Prop44ColorRGB
 90
      255
102
RTVSPost2010PropOp44
 70
     1
102
RTVSPost2010Prop45
280
     0
102
RTVSPost2010PropOp45
 70
     1
102
RTVSPost2010Prop46
 90
       50
102
RTVSPost2010PropOp46
 70
     1
102
RTVSPost2010Prop47
 90
       50
102
RTVSPost2010PropOp47
 70
     1
102
RTVSPost2010Prop48
 90
       50
102
RTVSPost2010PropOp48
 70
     1
102
RTVSPost2010Prop49
280
     0
102
RTVSPost2010PropOp49
 70
     1
102
RTVSPost2010Prop50
 90
       50
102
RTVSPost2010PropOp50
 70
     1
102
RTVSPost2010Prop51ColorIndex
 90
      256
102
RTVSPost2010Prop51ColorRGB
 90
-16777216
102
RTVSPost2010PropOp51
 70
     0
102
RTVSPost2010Prop52
140
1.0
102
RTVSPost2010PropOp52
 70
     0
102
RTVSPost2010Prop53
 90
        2
102
RTVSPost2010PropOp53
 70
     1
102
RTVSPost2010Prop54
  1
strokes_ogs.tif
102
RTVSPost2010PropOp54
 70
     1
102
RTVSPost2010Prop55
280
     0
102
RTVSPost2010PropOp55
 70
     1
102
RTVSPost2010Prop56
140
1.0
102
RTVSPost2010PropOp56
 70
     1
102
RTVSPost2010Prop57
140
1.0
102
RTVSPost2010PropOp57
 70
     1
102
RTVSPropertyOp0
 70
     1
102
RTVSPropertyOp1
 70
     1
102
RTVSPropertyOp2
 70
     1
102
RTVSPropertyOp3
 70
     1
102
RTVSPropertyOp4
 70
     1
102
RTVSPropertyOp5
 70
     1
102
RTVSPropertyOp6
 70
     1
102
RTVSPropertyOp7
 70
     1
102
RTVSPropertyOp8
 70
     1
102
RTVSPropertyOp9
 70
     1
102
RTVSPropertyOp10
 70
     1
102
RTVSPropertyOp11
 70
     1
102
RTVSPropertyOp12
 70
     1
102
RTVSPropertyOp13
 70
     1
102
RTVSPropertyOp14
 70
     1
102
RTVSPropertyOp15
 70
     1
102
RTVSPropertyOp16
 70
     1
102
RTVSPropertyOp17
 70
     1
102
RTVSPropertyOp18
 70
     1
102
RTVSPropertyOp19
 70
     1
102
RTVSPropertyOp20
 70
     1
102
RTVSPropertyOp21
 70
     1
102
RTVSPropertyOp22
 70
     1
102
RTVSPropertyOp23
 70
     1
102
RTVSPropertyOp24
 70
     1
102
RTVSPropertyOp25
 70
     1
102
RTVSPropertyOp26
 70
     1
102
RTVSPropertyOp27
 70
     1
102
RTVSPropertyOp28
 70
     1
102
RTVSPropertyOp29
 70
     1
102
RTVSPropertyOp30
 70
     1
102
RTVSPropertyOp31
 70
     1
102
RTVSPropertyOp32
 70
     1
102
RTVSPropertyOp33
 70
     1
102
RTVSPropertyOp34
 70
     1
102
RTVSPropertyOp35
 70
     1
102
RTVSPropertyOp36
 70
     1
102
RTVSPropertyOp37
 70
     1
102
RTVSPropertyOp38
 70
     1
102
RTVSPropertyOp39
 70
     1
102
RTVSPropertyOp40
 70
     1
102
RTVSPropertyOp41
 70
     1
102
RTVSPropertyOp42
 70
     1
102
RTVSPropertyOp43
 70
     1
102
RTVSPropertyOp44
 70
     1
102
RTVSPropertyOp45
 70
     1
102
RTVSPropertyOp46
 70
     1
102
RTVSPropertyOp47
 70
     1
102
RTVSPropertyOp48
 70
     1
102
RTVSPropertyOp49
 70
     1
102
RTVSPropertyOp50
 70
     1
102
RTVSPropertyOp51
 70
     0
102
RTVSPropertyOp52
 70
     0
102
RTVSPropertyOp53
 70
     1
102
RTVSPropertyOp54
 70
     1
102
RTVSPropertyOp55
 70
     1
102
RTVSPropertyOp56
 70
     1
102
RTVSPropertyOp57
 70
     1
102
RTVSPropertyOp58
 70
     1
102
RTVSPropertyOp59
 70
     1
102
RTVSPropertyOp60
 70
     1
102
RTVSPropertyOp61
 70
     1
102
RTVSPropertyOp62
 70
     1
  0
XRECORD
  5
9EA
102
{ACAD_REACTORS
330
9E9
102
}
330
9E9
100
AcDbXrecord
280
     1
102
RTVSPost2010Prop28
280
     0
102
RTVSPost2010PropOp28
 70
     1
102
RTVSPost2010Prop29
280
     1
102
RTVSPost2010PropOp29
 70
     1
102
RTVSPost2010Prop30
280
     1
102
RTVSPost2010PropOp30
 70
     1
102
RTVSPost2010Prop31
280
     0
102
RTVSPost2010PropOp31
 70
     1
102
RTVSPost2010Prop32
280
     0
102
RTVSPost2010PropOp32
 70
     1
102
RTVSPost2010Prop33
280
     0
102
RTVSPost2010PropOp33
 70
     1
102
RTVSPost2010Prop34
280
     0
102
RTVSPost2010PropOp34
 70
     1
102
RTVSPost2010Prop35
280
     0
102
RTVSPost2010PropOp35
 70
     1
102
RTVSPost2010Prop36
280
     0
102
RTVSPost2010PropOp36
 70
     1
102
RTVSPost2010Prop37
 90
       50
102
RTVSPost2010PropOp37
 70
     1
102
RTVSPost2010Prop38
140
0.0
102
RTVSPost2010PropOp38
 70
     1
102
RTVSPost2010Prop39
140
1.0
102
RTVSPost2010PropOp39
 70
     1
102
RTVSPost2010Prop40
 90
        0
102
RTVSPost2010PropOp40
 70
     1
102
RTVSPost2010Prop41ColorIndex
 90
       18
102
RTVSPost2010Prop41ColorRGB
 90
        0
102
RTVSPost2010PropOp41
 70
     1
102
RTVSPost2010Prop42
 90
       50
102
RTVSPost2010PropOp42
 70
     1
102
RTVSPost2010Prop43
 90
        3
102
RTVSPost2010PropOp43
 70
     1
102
RTVSPost2010Prop44ColorIndex
 90
        5
102
RTVSPost2010Prop44ColorRGB
 90
      255
102
RTVSPost2010PropOp44
 70
     1
102
RTVSPost2010Prop45
280
     0
102
RTVSPost2010PropOp45
 70
     1
102
RTVSPost2010Prop46
 90
       50
102
RTVSPost2010PropOp46
 70
     1
102
RTVSPost2010Prop47
 90
       50
102
RTVSPost2010PropOp47
 70
     1
102
RTVSPost2010Prop48
 90
       50
102
RTVSPost2010PropOp48
 70
     1
102
RTVSPost2010Prop49
280
     0
102
RTVSPost2010PropOp49
 70
     1
102
RTVSPost2010Prop50
 90
       50
102
RTVSPost2010PropOp50
 70
     1
102
RTVSPost2010Prop51ColorIndex
 90
      256
102
RTVSPost2010Prop51ColorRGB
 90
-16777216
102
RTVSPost2010PropOp51
 70
     0
102
RTVSPost2010Prop52
140
1.0
102
RTVSPost2010PropOp52
 70
     0
102
RTVSPost2010Prop53
 90
        2
102
RTVSPost2010PropOp53
 70
     1
102
RTVSPost2010Prop54
  1
strokes_ogs.tif
102
RTVSPost2010PropOp54
 70
     1
102
RTVSPost2010Prop55
280
     0
102
RTVSPost2010PropOp55
 70
     1
102
RTVSPost2010Prop56
140
1.0
102
RTVSPost2010PropOp56
 70
     1
102
RTVSPost2010Prop57
140
1.0
102
RTVSPost2010PropOp57
 70
     1
102
RTVSPropertyOp0
 70
     1
102
RTVSPropertyOp1
 70
     1
102
RTVSPropertyOp2
 70
     1
102
RTVSPropertyOp3
 70
     1
102
RTVSPropertyOp4
 70
     1
102
RTVSPropertyOp5
 70
     1
102
RTVSPropertyOp6
 70
     1
102
RTVSPropertyOp7
 70
     1
102
RTVSPropertyOp8
 70
     1
102
RTVSPropertyOp9
 70
     1
102
RTVSPropertyOp10
 70
     1
102
RTVSPropertyOp11
 70
     1
102
RTVSPropertyOp12
 70
     1
102
RTVSPropertyOp13
 70
     1
102
RTVSPropertyOp14
 70
     1
102
RTVSPropertyOp15
 70
     1
102
RTVSPropertyOp16
 70
     1
102
RTVSPropertyOp17
 70
     1
102
RTVSPropertyOp18
 70
     1
102
RTVSPropertyOp19
 70
     1
102
RTVSPropertyOp20
 70
     1
102
RTVSPropertyOp21
 70
     1
102
RTVSPropertyOp22
 70
     1
102
RTVSPropertyOp23
 70
     1
102
RTVSPropertyOp24
 70
     1
102
RTVSPropertyOp25
 70
     1
102
RTVSPropertyOp26
 70
     1
102
RTVSPropertyOp27
 70
     1
102
RTVSPropertyOp28
 70
     1
102
RTVSPropertyOp29
 70
     1
102
RTVSPropertyOp30
 70
     1
102
RTVSPropertyOp31
 70
     1
102
RTVSPropertyOp32
 70
     1
102
RTVSPropertyOp33
 70
     1
102
RTVSPropertyOp34
 70
     1
102
RTVSPropertyOp35
 70
     1
102
RTVSPropertyOp36
 70
     1
102
RTVSPropertyOp37
 70
     1
102
RTVSPropertyOp38
 70
     1
102
RTVSPropertyOp39
 70
     1
102
RTVSPropertyOp40
 70
     1
102
RTVSPropertyOp41
 70
     1
102
RTVSPropertyOp42
 70
     1
102
RTVSPropertyOp43
 70
     1
102
RTVSPropertyOp44
 70
     1
102
RTVSPropertyOp45
 70
     1
102
RTVSPropertyOp46
 70
     1
102
RTVSPropertyOp47
 70
     1
102
RTVSPropertyOp48
 70
     1
102
RTVSPropertyOp49
 70
     1
102
RTVSPropertyOp50
 70
     1
102
RTVSPropertyOp51
 70
     0
102
RTVSPropertyOp52
 70
     0
102
RTVSPropertyOp53
 70
     1
102
RTVSPropertyOp54
 70
     1
102
RTVSPropertyOp55
 70
     1
102
RTVSPropertyOp56
 70
     1
102
RTVSPropertyOp57
 70
     1
102
RTVSPropertyOp58
 70
     1
102
RTVSPropertyOp59
 70
     1
102
RTVSPropertyOp60
 70
     1
102
RTVSPropertyOp61
 70
     1
102
RTVSPropertyOp62
 70
     1
  0
XRECORD
  5
9F8
102
{ACAD_REACTORS
330
9F7
102
}
330
9F7
100
AcDbXrecord
280
     1
102
RTVSPost2010Prop28
280
     0
102
RTVSPost2010PropOp28
 70
     1
102
RTVSPost2010Prop29
280
     1
102
RTVSPost2010PropOp29
 70
     1
102
RTVSPost2010Prop30
280
     1
102
RTVSPost2010PropOp30
 70
     1
102
RTVSPost2010Prop31
280
     0
102
RTVSPost2010PropOp31
 70
     1
102
RTVSPost2010Prop32
280
     0
102
RTVSPost2010PropOp32
 70
     1
102
RTVSPost2010Prop33
280
     0
102
RTVSPost2010PropOp33
 70
     1
102
RTVSPost2010Prop34
280
     0
102
RTVSPost2010PropOp34
 70
     1
102
RTVSPost2010Prop35
280
     0
102
RTVSPost2010PropOp35
 70
     1
102
RTVSPost2010Prop36
280
     0
102
RTVSPost2010PropOp36
 70
     1
102
RTVSPost2010Prop37
 90
       50
102
RTVSPost2010PropOp37
 70
     1
102
RTVSPost2010Prop38
140
0.0
102
RTVSPost2010PropOp38
 70
     1
102
RTVSPost2010Prop39
140
1.0
102
RTVSPost2010PropOp39
 70
     1
102
RTVSPost2010Prop40
 90
        0
102
RTVSPost2010PropOp40
 70
     1
102
RTVSPost2010Prop41ColorIndex
 90
       18
102
RTVSPost2010Prop41ColorRGB
 90
        0
102
RTVSPost2010PropOp41
 70
     1
102
RTVSPost2010Prop42
 90
       50
102
RTVSPost2010PropOp42
 70
     1
102
RTVSPost2010Prop43
 90
        3
102
RTVSPost2010PropOp43
 70
     1
102
RTVSPost2010Prop44ColorIndex
 90
        5
102
RTVSPost2010Prop44ColorRGB
 90
      255
102
RTVSPost2010PropOp44
 70
     1
102
RTVSPost2010Prop45
280
     0
102
RTVSPost2010PropOp45
 70
     1
102
RTVSPost2010Prop46
 90
       50
102
RTVSPost2010PropOp46
 70
     1
102
RTVSPost2010Prop47
 90
       50
102
RTVSPost2010PropOp47
 70
     1
102
RTVSPost2010Prop48
 90
       50
102
RTVSPost2010PropOp48
 70
     1
102
RTVSPost2010Prop49
280
     0
102
RTVSPost2010PropOp49
 70
     1
102
RTVSPost2010Prop50
 90
       50
102
RTVSPost2010PropOp50
 70
     1
102
RTVSPost2010Prop51ColorIndex
 90
      256
102
RTVSPost2010Prop51ColorRGB
 90
-16777216
102
RTVSPost2010PropOp51
 70
     0
102
RTVSPost2010Prop52
140
1.0
102
RTVSPost2010PropOp52
 70
     0
102
RTVSPost2010Prop53
 90
        2
102
RTVSPost2010PropOp53
 70
     1
102
RTVSPost2010Prop54
  1
strokes_ogs.tif
102
RTVSPost2010PropOp54
 70
     1
102
RTVSPost2010Prop55
280
     0
102
RTVSPost2010PropOp55
 70
     1
102
RTVSPost2010Prop56
140
1.0
102
RTVSPost2010PropOp56
 70
     1
102
RTVSPost2010Prop57
140
1.0
102
RTVSPost2010PropOp57
 70
     1
102
RTVSPropertyOp0
 70
     1
102
RTVSPropertyOp1
 70
     1
102
RTVSPropertyOp2
 70
     1
102
RTVSPropertyOp3
 70
     1
102
RTVSPropertyOp4
 70
     1
102
RTVSPropertyOp5
 70
     1
102
RTVSPropertyOp6
 70
     1
102
RTVSPropertyOp7
 70
     1
102
RTVSPropertyOp8
 70
     1
102
RTVSPropertyOp9
 70
     1
102
RTVSPropertyOp10
 70
     1
102
RTVSPropertyOp11
 70
     1
102
RTVSPropertyOp12
 70
     1
102
RTVSPropertyOp13
 70
     1
102
RTVSPropertyOp14
 70
     1
102
RTVSPropertyOp15
 70
     1
102
RTVSPropertyOp16
 70
     1
102
RTVSPropertyOp17
 70
     1
102
RTVSPropertyOp18
 70
     1
102
RTVSPropertyOp19
 70
     1
102
RTVSPropertyOp20
 70
     1
102
RTVSPropertyOp21
 70
     1
102
RTVSPropertyOp22
 70
     1
102
RTVSPropertyOp23
 70
     1
102
RTVSPropertyOp24
 70
     1
102
RTVSPropertyOp25
 70
     1
102
RTVSPropertyOp26
 70
     1
102
RTVSPropertyOp27
 70
     1
102
RTVSPropertyOp28
 70
     1
102
RTVSPropertyOp29
 70
     1
102
RTVSPropertyOp30
 70
     1
102
RTVSPropertyOp31
 70
     1
102
RTVSPropertyOp32
 70
     1
102
RTVSPropertyOp33
 70
     1
102
RTVSPropertyOp34
 70
     1
102
RTVSPropertyOp35
 70
     1
102
RTVSPropertyOp36
 70
     1
102
RTVSPropertyOp37
 70
     1
102
RTVSPropertyOp38
 70
     1
102
RTVSPropertyOp39
 70
     1
102
RTVSPropertyOp40
 70
     1
102
RTVSPropertyOp41
 70
     1
102
RTVSPropertyOp42
 70
     1
102
RTVSPropertyOp43
 70
     1
102
RTVSPropertyOp44
 70
     1
102
RTVSPropertyOp45
 70
     1
102
RTVSPropertyOp46
 70
     1
102
RTVSPropertyOp47
 70
     1
102
RTVSPropertyOp48
 70
     1
102
RTVSPropertyOp49
 70
     1
102
RTVSPropertyOp50
 70
     1
102
RTVSPropertyOp51
 70
     0
102
RTVSPropertyOp52
 70
     0
102
RTVSPropertyOp53
 70
     1
102
RTVSPropertyOp54
 70
     1
102
RTVSPropertyOp55
 70
     1
102
RTVSPropertyOp56
 70
     1
102
RTVSPropertyOp57
 70
     1
102
RTVSPropertyOp58
 70
     1
102
RTVSPropertyOp59
 70
     1
102
RTVSPropertyOp60
 70
     1
102
RTVSPropertyOp61
 70
     1
102
RTVSPropertyOp62
 70
     1
  0
XRECORD
  5
A00
102
{ACAD_REACTORS
330
9FF
102
}
330
9FF
100
AcDbXrecord
280
     1
102
RTVSPost2010Prop28
280
     0
102
RTVSPost2010PropOp28
 70
     1
102
RTVSPost2010Prop29
280
     1
102
RTVSPost2010PropOp29
 70
     1
102
RTVSPost2010Prop30
280
     1
102
RTVSPost2010PropOp30
 70
     1
102
RTVSPost2010Prop31
280
     0
102
RTVSPost2010PropOp31
 70
     1
102
RTVSPost2010Prop32
280
     0
102
RTVSPost2010PropOp32
 70
     1
102
RTVSPost2010Prop33
280
     0
102
RTVSPost2010PropOp33
 70
     1
102
RTVSPost2010Prop34
280
     0
102
RTVSPost2010PropOp34
 70
     1
102
RTVSPost2010Prop35
280
     0
102
RTVSPost2010PropOp35
 70
     1
102
RTVSPost2010Prop36
280
     0
102
RTVSPost2010PropOp36
 70
     1
102
RTVSPost2010Prop37
 90
       50
102
RTVSPost2010PropOp37
 70
     1
102
RTVSPost2010Prop38
140
0.0
102
RTVSPost2010PropOp38
 70
     1
102
RTVSPost2010Prop39
140
1.0
102
RTVSPost2010PropOp39
 70
     1
102
RTVSPost2010Prop40
 90
        0
102
RTVSPost2010PropOp40
 70
     1
102
RTVSPost2010Prop41ColorIndex
 90
       18
102
RTVSPost2010Prop41ColorRGB
 90
        0
102
RTVSPost2010PropOp41
 70
     1
102
RTVSPost2010Prop42
 90
       50
102
RTVSPost2010PropOp42
 70
     1
102
RTVSPost2010Prop43
 90
        3
102
RTVSPost2010PropOp43
 70
     1
102
RTVSPost2010Prop44ColorIndex
 90
        5
102
RTVSPost2010Prop44ColorRGB
 90
      255
102
RTVSPost2010PropOp44
 70
     1
102
RTVSPost2010Prop45
280
     0
102
RTVSPost2010PropOp45
 70
     1
102
RTVSPost2010Prop46
 90
       50
102
RTVSPost2010PropOp46
 70
     1
102
RTVSPost2010Prop47
 90
       50
102
RTVSPost2010PropOp47
 70
     1
102
RTVSPost2010Prop48
 90
       50
102
RTVSPost2010PropOp48
 70
     1
102
RTVSPost2010Prop49
280
     0
102
RTVSPost2010PropOp49
 70
     1
102
RTVSPost2010Prop50
 90
       50
102
RTVSPost2010PropOp50
 70
     1
102
RTVSPost2010Prop51ColorIndex
 90
      256
102
RTVSPost2010Prop51ColorRGB
 90
-16777216
102
RTVSPost2010PropOp51
 70
     0
102
RTVSPost2010Prop52
140
1.0
102
RTVSPost2010PropOp52
 70
     0
102
RTVSPost2010Prop53
 90
        2
102
RTVSPost2010PropOp53
 70
     1
102
RTVSPost2010Prop54
  1
strokes_ogs.tif
102
RTVSPost2010PropOp54
 70
     1
102
RTVSPost2010Prop55
280
     0
102
RTVSPost2010PropOp55
 70
     1
102
RTVSPost2010Prop56
140
1.0
102
RTVSPost2010PropOp56
 70
     1
102
RTVSPost2010Prop57
140
1.0
102
RTVSPost2010PropOp57
 70
     1
102
RTVSPropertyOp0
 70
     1
102
RTVSPropertyOp1
 70
     1
102
RTVSPropertyOp2
 70
     1
102
RTVSPropertyOp3
 70
     1
102
RTVSPropertyOp4
 70
     1
102
RTVSPropertyOp5
 70
     1
102
RTVSPropertyOp6
 70
     1
102
RTVSPropertyOp7
 70
     1
102
RTVSPropertyOp8
 70
     1
102
RTVSPropertyOp9
 70
     1
102
RTVSPropertyOp10
 70
     1
102
RTVSPropertyOp11
 70
     1
102
RTVSPropertyOp12
 70
     1
102
RTVSPropertyOp13
 70
     1
102
RTVSPropertyOp14
 70
     1
102
RTVSPropertyOp15
 70
     1
102
RTVSPropertyOp16
 70
     1
102
RTVSPropertyOp17
 70
     1
102
RTVSPropertyOp18
 70
     1
102
RTVSPropertyOp19
 70
     1
102
RTVSPropertyOp20
 70
     1
102
RTVSPropertyOp21
 70
     1
102
RTVSPropertyOp22
 70
     1
102
RTVSPropertyOp23
 70
     1
102
RTVSPropertyOp24
 70
     1
102
RTVSPropertyOp25
 70
     1
102
RTVSPropertyOp26
 70
     1
102
RTVSPropertyOp27
 70
     1
102
RTVSPropertyOp28
 70
     1
102
RTVSPropertyOp29
 70
     1
102
RTVSPropertyOp30
 70
     1
102
RTVSPropertyOp31
 70
     1
102
RTVSPropertyOp32
 70
     1
102
RTVSPropertyOp33
 70
     1
102
RTVSPropertyOp34
 70
     1
102
RTVSPropertyOp35
 70
     1
102
RTVSPropertyOp36
 70
     1
102
RTVSPropertyOp37
 70
     1
102
RTVSPropertyOp38
 70
     1
102
RTVSPropertyOp39
 70
     1
102
RTVSPropertyOp40
 70
     1
102
RTVSPropertyOp41
 70
     1
102
RTVSPropertyOp42
 70
     1
102
RTVSPropertyOp43
 70
     1
102
RTVSPropertyOp44
 70
     1
102
RTVSPropertyOp45
 70
     1
102
RTVSPropertyOp46
 70
     1
102
RTVSPropertyOp47
 70
     1
102
RTVSPropertyOp48
 70
     1
102
RTVSPropertyOp49
 70
     1
102
RTVSPropertyOp50
 70
     1
102
RTVSPropertyOp51
 70
     0
102
RTVSPropertyOp52
 70
     0
102
RTVSPropertyOp53
 70
     1
102
RTVSPropertyOp54
 70
     1
102
RTVSPropertyOp55
 70
     1
102
RTVSPropertyOp56
 70
     1
102
RTVSPropertyOp57
 70
     1
102
RTVSPropertyOp58
 70
     1
102
RTVSPropertyOp59
 70
     1
102
RTVSPropertyOp60
 70
     1
102
RTVSPropertyOp61
 70
     1
102
RTVSPropertyOp62
 70
     1
  0
XRECORD
  5
9F2
102
{ACAD_REACTORS
330
9F1
102
}
330
9F1
100
AcDbXrecord
280
     1
102
RTVSPost2010Prop28
280
     0
102
RTVSPost2010PropOp28
 70
     1
102
RTVSPost2010Prop29
280
     1
102
RTVSPost2010PropOp29
 70
     1
102
RTVSPost2010Prop30
280
     1
102
RTVSPost2010PropOp30
 70
     1
102
RTVSPost2010Prop31
280
     0
102
RTVSPost2010PropOp31
 70
     1
102
RTVSPost2010Prop32
280
     0
102
RTVSPost2010PropOp32
 70
     1
102
RTVSPost2010Prop33
280
     0
102
RTVSPost2010PropOp33
 70
     1
102
RTVSPost2010Prop34
280
     0
102
RTVSPost2010PropOp34
 70
     1
102
RTVSPost2010Prop35
280
     0
102
RTVSPost2010PropOp35
 70
     1
102
RTVSPost2010Prop36
280
     0
102
RTVSPost2010PropOp36
 70
     1
102
RTVSPost2010Prop37
 90
       50
102
RTVSPost2010PropOp37
 70
     1
102
RTVSPost2010Prop38
140
0.0
102
RTVSPost2010PropOp38
 70
     1
102
RTVSPost2010Prop39
140
1.0
102
RTVSPost2010PropOp39
 70
     1
102
RTVSPost2010Prop40
 90
        0
102
RTVSPost2010PropOp40
 70
     1
102
RTVSPost2010Prop41ColorIndex
 90
       18
102
RTVSPost2010Prop41ColorRGB
 90
        0
102
RTVSPost2010PropOp41
 70
     1
102
RTVSPost2010Prop42
 90
       50
102
RTVSPost2010PropOp42
 70
     1
102
RTVSPost2010Prop43
 90
        3
102
RTVSPost2010PropOp43
 70
     1
102
RTVSPost2010Prop44ColorIndex
 90
        5
102
RTVSPost2010Prop44ColorRGB
 90
      255
102
RTVSPost2010PropOp44
 70
     1
102
RTVSPost2010Prop45
280
     0
102
RTVSPost2010PropOp45
 70
     1
102
RTVSPost2010Prop46
 90
       50
102
RTVSPost2010PropOp46
 70
     1
102
RTVSPost2010Prop47
 90
       50
102
RTVSPost2010PropOp47
 70
     1
102
RTVSPost2010Prop48
 90
       50
102
RTVSPost2010PropOp48
 70
     1
102
RTVSPost2010Prop49
280
     0
102
RTVSPost2010PropOp49
 70
     1
102
RTVSPost2010Prop50
 90
       50
102
RTVSPost2010PropOp50
 70
     1
102
RTVSPost2010Prop51ColorIndex
 90
      256
102
RTVSPost2010Prop51ColorRGB
 90
-16777216
102
RTVSPost2010PropOp51
 70
     0
102
RTVSPost2010Prop52
140
1.0
102
RTVSPost2010PropOp52
 70
     0
102
RTVSPost2010Prop53
 90
        2
102
RTVSPost2010PropOp53
 70
     1
102
RTVSPost2010Prop54
  1
strokes_ogs.tif
102
RTVSPost2010PropOp54
 70
     1
102
RTVSPost2010Prop55
280
     0
102
RTVSPost2010PropOp55
 70
     1
102
RTVSPost2010Prop56
140
1.0
102
RTVSPost2010PropOp56
 70
     1
102
RTVSPost2010Prop57
140
1.0
102
RTVSPost2010PropOp57
 70
     1
102
RTVSPropertyOp0
 70
     1
102
RTVSPropertyOp1
 70
     1
102
RTVSPropertyOp2
 70
     1
102
RTVSPropertyOp3
 70
     1
102
RTVSPropertyOp4
 70
     1
102
RTVSPropertyOp5
 70
     1
102
RTVSPropertyOp6
 70
     1
102
RTVSPropertyOp7
 70
     1
102
RTVSPropertyOp8
 70
     1
102
RTVSPropertyOp9
 70
     1
102
RTVSPropertyOp10
 70
     1
102
RTVSPropertyOp11
 70
     1
102
RTVSPropertyOp12
 70
     1
102
RTVSPropertyOp13
 70
     1
102
RTVSPropertyOp14
 70
     1
102
RTVSPropertyOp15
 70
     1
102
RTVSPropertyOp16
 70
     1
102
RTVSPropertyOp17
 70
     1
102
RTVSPropertyOp18
 70
     1
102
RTVSPropertyOp19
 70
     1
102
RTVSPropertyOp20
 70
     1
102
RTVSPropertyOp21
 70
     1
102
RTVSPropertyOp22
 70
     1
102
RTVSPropertyOp23
 70
     1
102
RTVSPropertyOp24
 70
     1
102
RTVSPropertyOp25
 70
     1
102
RTVSPropertyOp26
 70
     1
102
RTVSPropertyOp27
 70
     1
102
RTVSPropertyOp28
 70
     1
102
RTVSPropertyOp29
 70
     1
102
RTVSPropertyOp30
 70
     1
102
RTVSPropertyOp31
 70
     1
102
RTVSPropertyOp32
 70
     1
102
RTVSPropertyOp33
 70
     1
102
RTVSPropertyOp34
 70
     1
102
RTVSPropertyOp35
 70
     1
102
RTVSPropertyOp36
 70
     1
102
RTVSPropertyOp37
 70
     1
102
RTVSPropertyOp38
 70
     1
102
RTVSPropertyOp39
 70
     1
102
RTVSPropertyOp40
 70
     1
102
RTVSPropertyOp41
 70
     1
102
RTVSPropertyOp42
 70
     1
102
RTVSPropertyOp43
 70
     1
102
RTVSPropertyOp44
 70
     1
102
RTVSPropertyOp45
 70
     1
102
RTVSPropertyOp46
 70
     1
102
RTVSPropertyOp47
 70
     1
102
RTVSPropertyOp48
 70
     1
102
RTVSPropertyOp49
 70
     1
102
RTVSPropertyOp50
 70
     1
102
RTVSPropertyOp51
 70
     0
102
RTVSPropertyOp52
 70
     0
102
RTVSPropertyOp53
 70
     1
102
RTVSPropertyOp54
 70
     1
102
RTVSPropertyOp55
 70
     1
102
RTVSPropertyOp56
 70
     1
102
RTVSPropertyOp57
 70
     1
102
RTVSPropertyOp58
 70
     1
102
RTVSPropertyOp59
 70
     1
102
RTVSPropertyOp60
 70
     1
102
RTVSPropertyOp61
 70
     1
102
RTVSPropertyOp62
 70
     1
  0
XRECORD
  5
9F6
102
{ACAD_REACTORS
330
9F5
102
}
330
9F5
100
AcDbXrecord
280
     1
102
RTVSPost2010Prop28
280
     0
102
RTVSPost2010PropOp28
 70
     1
102
RTVSPost2010Prop29
280
     1
102
RTVSPost2010PropOp29
 70
     1
102
RTVSPost2010Prop30
280
     1
102
RTVSPost2010PropOp30
 70
     1
102
RTVSPost2010Prop31
280
     0
102
RTVSPost2010PropOp31
 70
     1
102
RTVSPost2010Prop32
280
     0
102
RTVSPost2010PropOp32
 70
     1
102
RTVSPost2010Prop33
280
     0
102
RTVSPost2010PropOp33
 70
     1
102
RTVSPost2010Prop34
280
     0
102
RTVSPost2010PropOp34
 70
     1
102
RTVSPost2010Prop35
280
     0
102
RTVSPost2010PropOp35
 70
     1
102
RTVSPost2010Prop36
280
     0
102
RTVSPost2010PropOp36
 70
     1
102
RTVSPost2010Prop37
 90
       50
102
RTVSPost2010PropOp37
 70
     1
102
RTVSPost2010Prop38
140
0.0
102
RTVSPost2010PropOp38
 70
     1
102
RTVSPost2010Prop39
140
1.0
102
RTVSPost2010PropOp39
 70
     1
102
RTVSPost2010Prop40
 90
        0
102
RTVSPost2010PropOp40
 70
     1
102
RTVSPost2010Prop41ColorIndex
 90
       18
102
RTVSPost2010Prop41ColorRGB
 90
        0
102
RTVSPost2010PropOp41
 70
     1
102
RTVSPost2010Prop42
 90
       50
102
RTVSPost2010PropOp42
 70
     1
102
RTVSPost2010Prop43
 90
        3
102
RTVSPost2010PropOp43
 70
     1
102
RTVSPost2010Prop44ColorIndex
 90
        5
102
RTVSPost2010Prop44ColorRGB
 90
      255
102
RTVSPost2010PropOp44
 70
     1
102
RTVSPost2010Prop45
280
     0
102
RTVSPost2010PropOp45
 70
     1
102
RTVSPost2010Prop46
 90
       50
102
RTVSPost2010PropOp46
 70
     1
102
RTVSPost2010Prop47
 90
       50
102
RTVSPost2010PropOp47
 70
     1
102
RTVSPost2010Prop48
 90
       50
102
RTVSPost2010PropOp48
 70
     1
102
RTVSPost2010Prop49
280
     0
102
RTVSPost2010PropOp49
 70
     1
102
RTVSPost2010Prop50
 90
       50
102
RTVSPost2010PropOp50
 70
     1
102
RTVSPost2010Prop51ColorIndex
 90
      256
102
RTVSPost2010Prop51ColorRGB
 90
-16777216
102
RTVSPost2010PropOp51
 70
     0
102
RTVSPost2010Prop52
140
1.0
102
RTVSPost2010PropOp52
 70
     0
102
RTVSPost2010Prop53
 90
        2
102
RTVSPost2010PropOp53
 70
     1
102
RTVSPost2010Prop54
  1
strokes_ogs.tif
102
RTVSPost2010PropOp54
 70
     1
102
RTVSPost2010Prop55
280
     0
102
RTVSPost2010PropOp55
 70
     1
102
RTVSPost2010Prop56
140
1.0
102
RTVSPost2010PropOp56
 70
     1
102
RTVSPost2010Prop57
140
1.0
102
RTVSPost2010PropOp57
 70
     1
102
RTVSPropertyOp0
 70
     1
102
RTVSPropertyOp1
 70
     1
102
RTVSPropertyOp2
 70
     1
102
RTVSPropertyOp3
 70
     1
102
RTVSPropertyOp4
 70
     1
102
RTVSPropertyOp5
 70
     1
102
RTVSPropertyOp6
 70
     1
102
RTVSPropertyOp7
 70
     1
102
RTVSPropertyOp8
 70
     1
102
RTVSPropertyOp9
 70
     1
102
RTVSPropertyOp10
 70
     1
102
RTVSPropertyOp11
 70
     1
102
RTVSPropertyOp12
 70
     1
102
RTVSPropertyOp13
 70
     1
102
RTVSPropertyOp14
 70
     1
102
RTVSPropertyOp15
 70
     1
102
RTVSPropertyOp16
 70
     1
102
RTVSPropertyOp17
 70
     1
102
RTVSPropertyOp18
 70
     1
102
RTVSPropertyOp19
 70
     1
102
RTVSPropertyOp20
 70
     1
102
RTVSPropertyOp21
 70
     1
102
RTVSPropertyOp22
 70
     1
102
RTVSPropertyOp23
 70
     1
102
RTVSPropertyOp24
 70
     1
102
RTVSPropertyOp25
 70
     1
102
RTVSPropertyOp26
 70
     1
102
RTVSPropertyOp27
 70
     1
102
RTVSPropertyOp28
 70
     1
102
RTVSPropertyOp29
 70
     1
102
RTVSPropertyOp30
 70
     1
102
RTVSPropertyOp31
 70
     1
102
RTVSPropertyOp32
 70
     1
102
RTVSPropertyOp33
 70
     1
102
RTVSPropertyOp34
 70
     1
102
RTVSPropertyOp35
 70
     1
102
RTVSPropertyOp36
 70
     1
102
RTVSPropertyOp37
 70
     1
102
RTVSPropertyOp38
 70
     1
102
RTVSPropertyOp39
 70
     1
102
RTVSPropertyOp40
 70
     1
102
RTVSPropertyOp41
 70
     1
102
RTVSPropertyOp42
 70
     1
102
RTVSPropertyOp43
 70
     1
102
RTVSPropertyOp44
 70
     1
102
RTVSPropertyOp45
 70
     1
102
RTVSPropertyOp46
 70
     1
102
RTVSPropertyOp47
 70
     1
102
RTVSPropertyOp48
 70
     1
102
RTVSPropertyOp49
 70
     1
102
RTVSPropertyOp50
 70
     1
102
RTVSPropertyOp51
 70
     0
102
RTVSPropertyOp52
 70
     0
102
RTVSPropertyOp53
 70
     1
102
RTVSPropertyOp54
 70
     1
102
RTVSPropertyOp55
 70
     1
102
RTVSPropertyOp56
 70
     1
102
RTVSPropertyOp57
 70
     1
102
RTVSPropertyOp58
 70
     1
102
RTVSPropertyOp59
 70
     1
102
RTVSPropertyOp60
 70
     1
102
RTVSPropertyOp61
 70
     1
102
RTVSPropertyOp62
 70
     1
  0
XRECORD
  5
A10
102
{ACAD_REACTORS
330
A0F
102
}
330
A0F
100
AcDbXrecord
280
     1
102
RTVSPost2010Prop28
280
     0
102
RTVSPost2010PropOp28
 70
     1
102
RTVSPost2010Prop29
280
     1
102
RTVSPost2010PropOp29
 70
     1
102
RTVSPost2010Prop30
280
     1
102
RTVSPost2010PropOp30
 70
     1
102
RTVSPost2010Prop31
280
     0
102
RTVSPost2010PropOp31
 70
     1
102
RTVSPost2010Prop32
280
     0
102
RTVSPost2010PropOp32
 70
     1
102
RTVSPost2010Prop33
280
     0
102
RTVSPost2010PropOp33
 70
     1
102
RTVSPost2010Prop34
280
     0
102
RTVSPost2010PropOp34
 70
     1
102
RTVSPost2010Prop35
280
     0
102
RTVSPost2010PropOp35
 70
     1
102
RTVSPost2010Prop36
280
     0
102
RTVSPost2010PropOp36
 70
     1
102
RTVSPost2010Prop37
 90
       50
102
RTVSPost2010PropOp37
 70
     0
102
RTVSPost2010Prop38
140
0.0
102
RTVSPost2010PropOp38
 70
     0
102
RTVSPost2010Prop39
140
1.0
102
RTVSPost2010PropOp39
 70
     0
102
RTVSPost2010Prop40
 90
        0
102
RTVSPost2010PropOp40
 70
     0
102
RTVSPost2010Prop41ColorIndex
 90
       18
102
RTVSPost2010Prop41ColorRGB
 90
        0
102
RTVSPost2010PropOp41
 70
     0
102
RTVSPost2010Prop42
 90
       50
102
RTVSPost2010PropOp42
 70
     0
102
RTVSPost2010Prop43
 90
        3
102
RTVSPost2010PropOp43
 70
     0
102
RTVSPost2010Prop44ColorIndex
 90
        5
102
RTVSPost2010Prop44ColorRGB
 90
      255
102
RTVSPost2010PropOp44
 70
     0
102
RTVSPost2010Prop45
280
     0
102
RTVSPost2010PropOp45
 70
     1
102
RTVSPost2010Prop46
 90
       50
102
RTVSPost2010PropOp46
 70
     0
102
RTVSPost2010Prop47
 90
       50
102
RTVSPost2010PropOp47
 70
     0
102
RTVSPost2010Prop48
 90
       50
102
RTVSPost2010PropOp48
 70
     0
102
RTVSPost2010Prop49
280
     0
102
RTVSPost2010PropOp49
 70
     1
102
RTVSPost2010Prop50
 90
       50
102
RTVSPost2010PropOp50
 70
     0
102
RTVSPost2010Prop51ColorIndex
 90
      256
102
RTVSPost2010Prop51ColorRGB
 90
-16777216
102
RTVSPost2010PropOp51
 70
     0
102
RTVSPost2010Prop52
140
1.0
102
RTVSPost2010PropOp52
 70
     0
102
RTVSPost2010Prop53
 90
        2
102
RTVSPost2010PropOp53
 70
     0
102
RTVSPost2010Prop54
  1
strokes_ogs.tif
102
RTVSPost2010PropOp54
 70
     0
102
RTVSPost2010Prop55
280
     0
102
RTVSPost2010PropOp55
 70
     1
102
RTVSPost2010Prop56
140
1.0
102
RTVSPost2010PropOp56
 70
     0
102
RTVSPost2010Prop57
140
1.0
102
RTVSPost2010PropOp57
 70
     0
102
RTVSPropertyOp0
 70
     0
102
RTVSPropertyOp1
 70
     0
102
RTVSPropertyOp2
 70
     0
102
RTVSPropertyOp3
 70
     0
102
RTVSPropertyOp4
 70
     0
102
RTVSPropertyOp5
 70
     0
102
RTVSPropertyOp6
 70
     0
102
RTVSPropertyOp7
 70
     0
102
RTVSPropertyOp8
 70
     0
102
RTVSPropertyOp9
 70
     0
102
RTVSPropertyOp10
 70
     0
102
RTVSPropertyOp11
 70
     0
102
RTVSPropertyOp12
 70
     0
102
RTVSPropertyOp13
 70
     0
102
RTVSPropertyOp14
 70
     2
102
RTVSPropertyOp15
 70
     0
102
RTVSPropertyOp16
 70
     0
102
RTVSPropertyOp17
 70
     0
102
RTVSPropertyOp18
 70
     0
102
RTVSPropertyOp19
 70
     0
102
RTVSPropertyOp20
 70
     0
102
RTVSPropertyOp21
 70
     0
102
RTVSPropertyOp22
 70
     0
102
RTVSPropertyOp23
 70
     0
102
RTVSPropertyOp24
 70
     0
102
RTVSPropertyOp25
 70
     0
102
RTVSPropertyOp26
 70
     0
102
RTVSPropertyOp27
 70
     0
102
RTVSPropertyOp28
 70
     1
102
RTVSPropertyOp29
 70
     1
102
RTVSPropertyOp30
 70
     1
102
RTVSPropertyOp31
 70
     1
102
RTVSPropertyOp32
 70
     1
102
RTVSPropertyOp33
 70
     1
102
RTVSPropertyOp34
 70
     1
102
RTVSPropertyOp35
 70
     1
102
RTVSPropertyOp36
 70
     1
102
RTVSPropertyOp37
 70
     0
102
RTVSPropertyOp38
 70
     0
102
RTVSPropertyOp39
 70
     0
102
RTVSPropertyOp40
 70
     0
102
RTVSPropertyOp41
 70
     0
102
RTVSPropertyOp42
 70
     0
102
RTVSPropertyOp43
 70
     0
102
RTVSPropertyOp44
 70
     0
102
RTVSPropertyOp45
 70
     1
102
RTVSPropertyOp46
 70
     0
102
RTVSPropertyOp47
 70
     0
102
RTVSPropertyOp48
 70
     0
102
RTVSPropertyOp49
 70
     1
102
RTVSPropertyOp50
 70
     0
102
RTVSPropertyOp51
 70
     0
102
RTVSPropertyOp52
 70
     0
102
RTVSPropertyOp53
 70
     0
102
RTVSPropertyOp54
 70
     0
102
RTVSPropertyOp55
 70
     1
102
RTVSPropertyOp56
 70
     0
102
RTVSPropertyOp57
 70
     0
102
RTVSPropertyOp58
 70
     1
102
RTVSPropertyOp59
 70
     1
102
RTVSPropertyOp60
 70
     1
102
RTVSPropertyOp61
 70
     1
102
RTVSPropertyOp62
 70
     1
  0
XRECORD
  5
9FE
102
{ACAD_REACTORS
330
9FD
102
}
330
9FD
100
AcDbXrecord
280
     1
102
RTVSPost2010Prop28
280
     0
102
RTVSPost2010PropOp28
 70
     1
102
RTVSPost2010Prop29
280
     1
102
RTVSPost2010PropOp29
 70
     1
102
RTVSPost2010Prop30
280
     1
102
RTVSPost2010PropOp30
 70
     1
102
RTVSPost2010Prop31
280
     0
102
RTVSPost2010PropOp31
 70
     1
102
RTVSPost2010Prop32
280
     0
102
RTVSPost2010PropOp32
 70
     1
102
RTVSPost2010Prop33
280
     0
102
RTVSPost2010PropOp33
 70
     1
102
RTVSPost2010Prop34
280
     0
102
RTVSPost2010PropOp34
 70
     1
102
RTVSPost2010Prop35
280
     0
102
RTVSPost2010PropOp35
 70
     1
102
RTVSPost2010Prop36
280
     0
102
RTVSPost2010PropOp36
 70
     1
102
RTVSPost2010Prop37
 90
       50
102
RTVSPost2010PropOp37
 70
     1
102
RTVSPost2010Prop38
140
0.0
102
RTVSPost2010PropOp38
 70
     1
102
RTVSPost2010Prop39
140
1.0
102
RTVSPost2010PropOp39
 70
     1
102
RTVSPost2010Prop40
 90
        0
102
RTVSPost2010PropOp40
 70
     1
102
RTVSPost2010Prop41ColorIndex
 90
       18
102
RTVSPost2010Prop41ColorRGB
 90
        0
102
RTVSPost2010PropOp41
 70
     1
102
RTVSPost2010Prop42
 90
       50
102
RTVSPost2010PropOp42
 70
     1
102
RTVSPost2010Prop43
 90
        3
102
RTVSPost2010PropOp43
 70
     1
102
RTVSPost2010Prop44ColorIndex
 90
        5
102
RTVSPost2010Prop44ColorRGB
 90
      255
102
RTVSPost2010PropOp44
 70
     1
102
RTVSPost2010Prop45
280
     0
102
RTVSPost2010PropOp45
 70
     1
102
RTVSPost2010Prop46
 90
       50
102
RTVSPost2010PropOp46
 70
     1
102
RTVSPost2010Prop47
 90
       50
102
RTVSPost2010PropOp47
 70
     1
102
RTVSPost2010Prop48
 90
       50
102
RTVSPost2010PropOp48
 70
     1
102
RTVSPost2010Prop49
280
     0
102
RTVSPost2010PropOp49
 70
     1
102
RTVSPost2010Prop50
 90
       50
102
RTVSPost2010PropOp50
 70
     1
102
RTVSPost2010Prop51ColorIndex
 90
      256
102
RTVSPost2010Prop51ColorRGB
 90
-16777216
102
RTVSPost2010PropOp51
 70
     0
102
RTVSPost2010Prop52
140
1.0
102
RTVSPost2010PropOp52
 70
     0
102
RTVSPost2010Prop53
 90
        2
102
RTVSPost2010PropOp53
 70
     1
102
RTVSPost2010Prop54
  1
strokes_ogs.tif
102
RTVSPost2010PropOp54
 70
     1
102
RTVSPost2010Prop55
280
     0
102
RTVSPost2010PropOp55
 70
     1
102
RTVSPost2010Prop56
140
1.0
102
RTVSPost2010PropOp56
 70
     1
102
RTVSPost2010Prop57
140
1.0
102
RTVSPost2010PropOp57
 70
     1
102
RTVSPropertyOp0
 70
     1
102
RTVSPropertyOp1
 70
     1
102
RTVSPropertyOp2
 70
     1
102
RTVSPropertyOp3
 70
     1
102
RTVSPropertyOp4
 70
     1
102
RTVSPropertyOp5
 70
     1
102
RTVSPropertyOp6
 70
     1
102
RTVSPropertyOp7
 70
     1
102
RTVSPropertyOp8
 70
     1
102
RTVSPropertyOp9
 70
     1
102
RTVSPropertyOp10
 70
     1
102
RTVSPropertyOp11
 70
     1
102
RTVSPropertyOp12
 70
     1
102
RTVSPropertyOp13
 70
     1
102
RTVSPropertyOp14
 70
     1
102
RTVSPropertyOp15
 70
     1
102
RTVSPropertyOp16
 70
     1
102
RTVSPropertyOp17
 70
     1
102
RTVSPropertyOp18
 70
     1
102
RTVSPropertyOp19
 70
     1
102
RTVSPropertyOp20
 70
     1
102
RTVSPropertyOp21
 70
     1
102
RTVSPropertyOp22
 70
     1
102
RTVSPropertyOp23
 70
     1
102
RTVSPropertyOp24
 70
     1
102
RTVSPropertyOp25
 70
     1
102
RTVSPropertyOp26
 70
     1
102
RTVSPropertyOp27
 70
     1
102
RTVSPropertyOp28
 70
     1
102
RTVSPropertyOp29
 70
     1
102
RTVSPropertyOp30
 70
     1
102
RTVSPropertyOp31
 70
     1
102
RTVSPropertyOp32
 70
     1
102
RTVSPropertyOp33
 70
     1
102
RTVSPropertyOp34
 70
     1
102
RTVSPropertyOp35
 70
     1
102
RTVSPropertyOp36
 70
     1
102
RTVSPropertyOp37
 70
     1
102
RTVSPropertyOp38
 70
     1
102
RTVSPropertyOp39
 70
     1
102
RTVSPropertyOp40
 70
     1
102
RTVSPropertyOp41
 70
     1
102
RTVSPropertyOp42
 70
     1
102
RTVSPropertyOp43
 70
     1
102
RTVSPropertyOp44
 70
     1
102
RTVSPropertyOp45
 70
     1
102
RTVSPropertyOp46
 70
     1
102
RTVSPropertyOp47
 70
     1
102
RTVSPropertyOp48
 70
     1
102
RTVSPropertyOp49
 70
     1
102
RTVSPropertyOp50
 70
     1
102
RTVSPropertyOp51
 70
     0
102
RTVSPropertyOp52
 70
     0
102
RTVSPropertyOp53
 70
     1
102
RTVSPropertyOp54
 70
     1
102
RTVSPropertyOp55
 70
     1
102
RTVSPropertyOp56
 70
     1
102
RTVSPropertyOp57
 70
     1
102
RTVSPropertyOp58
 70
     1
102
RTVSPropertyOp59
 70
     1
102
RTVSPropertyOp60
 70
     1
102
RTVSPropertyOp61
 70
     1
102
RTVSPropertyOp62
 70
     1
  0
XRECORD
  5
9E2
102
{ACAD_REACTORS
330
9E1
102
}
330
9E1
100
AcDbXrecord
280
     1
102
RTVSPost2010Prop28
280
     0
102
RTVSPost2010PropOp28
 70
     1
102
RTVSPost2010Prop29
280
     1
102
RTVSPost2010PropOp29
 70
     1
102
RTVSPost2010Prop30
280
     1
102
RTVSPost2010PropOp30
 70
     1
102
RTVSPost2010Prop31
280
     0
102
RTVSPost2010PropOp31
 70
     1
102
RTVSPost2010Prop32
280
     0
102
RTVSPost2010PropOp32
 70
     1
102
RTVSPost2010Prop33
280
     0
102
RTVSPost2010PropOp33
 70
     1
102
RTVSPost2010Prop34
280
     0
102
RTVSPost2010PropOp34
 70
     1
102
RTVSPost2010Prop35
280
     0
102
RTVSPost2010PropOp35
 70
     1
102
RTVSPost2010Prop36
280
     0
102
RTVSPost2010PropOp36
 70
     1
102
RTVSPost2010Prop37
 90
       50
102
RTVSPost2010PropOp37
 70
     1
102
RTVSPost2010Prop38
140
0.0
102
RTVSPost2010PropOp38
 70
     1
102
RTVSPost2010Prop39
140
1.0
102
RTVSPost2010PropOp39
 70
     1
102
RTVSPost2010Prop40
 90
        0
102
RTVSPost2010PropOp40
 70
     1
102
RTVSPost2010Prop41ColorIndex
 90
       18
102
RTVSPost2010Prop41ColorRGB
 90
        0
102
RTVSPost2010PropOp41
 70
     1
102
RTVSPost2010Prop42
 90
       50
102
RTVSPost2010PropOp42
 70
     1
102
RTVSPost2010Prop43
 90
        3
102
RTVSPost2010PropOp43
 70
     1
102
RTVSPost2010Prop44ColorIndex
 90
        5
102
RTVSPost2010Prop44ColorRGB
 90
      255
102
RTVSPost2010PropOp44
 70
     1
102
RTVSPost2010Prop45
280
     0
102
RTVSPost2010PropOp45
 70
     1
102
RTVSPost2010Prop46
 90
       50
102
RTVSPost2010PropOp46
 70
     1
102
RTVSPost2010Prop47
 90
       50
102
RTVSPost2010PropOp47
 70
     1
102
RTVSPost2010Prop48
 90
       50
102
RTVSPost2010PropOp48
 70
     1
102
RTVSPost2010Prop49
280
     0
102
RTVSPost2010PropOp49
 70
     1
102
RTVSPost2010Prop50
 90
       50
102
RTVSPost2010PropOp50
 70
     1
102
RTVSPost2010Prop51ColorIndex
 90
      256
102
RTVSPost2010Prop51ColorRGB
 90
-16777216
102
RTVSPost2010PropOp51
 70
     0
102
RTVSPost2010Prop52
140
1.0
102
RTVSPost2010PropOp52
 70
     0
102
RTVSPost2010Prop53
 90
        2
102
RTVSPost2010PropOp53
 70
     1
102
RTVSPost2010Prop54
  1
strokes_ogs.tif
102
RTVSPost2010PropOp54
 70
     1
102
RTVSPost2010Prop55
280
     0
102
RTVSPost2010PropOp55
 70
     1
102
RTVSPost2010Prop56
140
1.0
102
RTVSPost2010PropOp56
 70
     1
102
RTVSPost2010Prop57
140
1.0
102
RTVSPost2010PropOp57
 70
     1
102
RTVSPropertyOp0
 70
     1
102
RTVSPropertyOp1
 70
     1
102
RTVSPropertyOp2
 70
     1
102
RTVSPropertyOp3
 70
     1
102
RTVSPropertyOp4
 70
     1
102
RTVSPropertyOp5
 70
     1
102
RTVSPropertyOp6
 70
     1
102
RTVSPropertyOp7
 70
     1
102
RTVSPropertyOp8
 70
     1
102
RTVSPropertyOp9
 70
     1
102
RTVSPropertyOp10
 70
     1
102
RTVSPropertyOp11
 70
     1
102
RTVSPropertyOp12
 70
     1
102
RTVSPropertyOp13
 70
     1
102
RTVSPropertyOp14
 70
     1
102
RTVSPropertyOp15
 70
     1
102
RTVSPropertyOp16
 70
     1
102
RTVSPropertyOp17
 70
     1
102
RTVSPropertyOp18
 70
     1
102
RTVSPropertyOp19
 70
     1
102
RTVSPropertyOp20
 70
     1
102
RTVSPropertyOp21
 70
     1
102
RTVSPropertyOp22
 70
     1
102
RTVSPropertyOp23
 70
     1
102
RTVSPropertyOp24
 70
     1
102
RTVSPropertyOp25
 70
     1
102
RTVSPropertyOp26
 70
     1
102
RTVSPropertyOp27
 70
     1
102
RTVSPropertyOp28
 70
     1
102
RTVSPropertyOp29
 70
     1
102
RTVSPropertyOp30
 70
     1
102
RTVSPropertyOp31
 70
     1
102
RTVSPropertyOp32
 70
     1
102
RTVSPropertyOp33
 70
     1
102
RTVSPropertyOp34
 70
     1
102
RTVSPropertyOp35
 70
     1
102
RTVSPropertyOp36
 70
     1
102
RTVSPropertyOp37
 70
     1
102
RTVSPropertyOp38
 70
     1
102
RTVSPropertyOp39
 70
     1
102
RTVSPropertyOp40
 70
     1
102
RTVSPropertyOp41
 70
     1
102
RTVSPropertyOp42
 70
     1
102
RTVSPropertyOp43
 70
     1
102
RTVSPropertyOp44
 70
     1
102
RTVSPropertyOp45
 70
     1
102
RTVSPropertyOp46
 70
     1
102
RTVSPropertyOp47
 70
     1
102
RTVSPropertyOp48
 70
     1
102
RTVSPropertyOp49
 70
     1
102
RTVSPropertyOp50
 70
     1
102
RTVSPropertyOp51
 70
     0
102
RTVSPropertyOp52
 70
     0
102
RTVSPropertyOp53
 70
     1
102
RTVSPropertyOp54
 70
     1
102
RTVSPropertyOp55
 70
     1
102
RTVSPropertyOp56
 70
     1
102
RTVSPropertyOp57
 70
     1
102
RTVSPropertyOp58
 70
     1
102
RTVSPropertyOp59
 70
     1
102
RTVSPropertyOp60
 70
     1
102
RTVSPropertyOp61
 70
     1
102
RTVSPropertyOp62
 70
     1
  0
XRECORD
  5
9E4
102
{ACAD_REACTORS
330
9E3
102
}
330
9E3
100
AcDbXrecord
280
     1
102
RTVSPost2010Prop28
280
     0
102
RTVSPost2010PropOp28
 70
     1
102
RTVSPost2010Prop29
280
     1
102
RTVSPost2010PropOp29
 70
     1
102
RTVSPost2010Prop30
280
     1
102
RTVSPost2010PropOp30
 70
     1
102
RTVSPost2010Prop31
280
     0
102
RTVSPost2010PropOp31
 70
     1
102
RTVSPost2010Prop32
280
     0
102
RTVSPost2010PropOp32
 70
     1
102
RTVSPost2010Prop33
280
     0
102
RTVSPost2010PropOp33
 70
     1
102
RTVSPost2010Prop34
280
     0
102
RTVSPost2010PropOp34
 70
     1
102
RTVSPost2010Prop35
280
     0
102
RTVSPost2010PropOp35
 70
     1
102
RTVSPost2010Prop36
280
     0
102
RTVSPost2010PropOp36
 70
     1
102
RTVSPost2010Prop37
 90
       50
102
RTVSPost2010PropOp37
 70
     1
102
RTVSPost2010Prop38
140
0.0
102
RTVSPost2010PropOp38
 70
     1
102
RTVSPost2010Prop39
140
1.0
102
RTVSPost2010PropOp39
 70
     1
102
RTVSPost2010Prop40
 90
        0
102
RTVSPost2010PropOp40
 70
     1
102
RTVSPost2010Prop41ColorIndex
 90
       18
102
RTVSPost2010Prop41ColorRGB
 90
        0
102
RTVSPost2010PropOp41
 70
     1
102
RTVSPost2010Prop42
 90
       50
102
RTVSPost2010PropOp42
 70
     1
102
RTVSPost2010Prop43
 90
        3
102
RTVSPost2010PropOp43
 70
     1
102
RTVSPost2010Prop44ColorIndex
 90
        5
102
RTVSPost2010Prop44ColorRGB
 90
      255
102
RTVSPost2010PropOp44
 70
     1
102
RTVSPost2010Prop45
280
     0
102
RTVSPost2010PropOp45
 70
     1
102
RTVSPost2010Prop46
 90
       50
102
RTVSPost2010PropOp46
 70
     1
102
RTVSPost2010Prop47
 90
       50
102
RTVSPost2010PropOp47
 70
     1
102
RTVSPost2010Prop48
 90
       50
102
RTVSPost2010PropOp48
 70
     1
102
RTVSPost2010Prop49
280
     0
102
RTVSPost2010PropOp49
 70
     1
102
RTVSPost2010Prop50
 90
       50
102
RTVSPost2010PropOp50
 70
     1
102
RTVSPost2010Prop51ColorIndex
 90
      256
102
RTVSPost2010Prop51ColorRGB
 90
-16777216
102
RTVSPost2010PropOp51
 70
     0
102
RTVSPost2010Prop52
140
1.0
102
RTVSPost2010PropOp52
 70
     0
102
RTVSPost2010Prop53
 90
        2
102
RTVSPost2010PropOp53
 70
     1
102
RTVSPost2010Prop54
  1
strokes_ogs.tif
102
RTVSPost2010PropOp54
 70
     1
102
RTVSPost2010Prop55
280
     0
102
RTVSPost2010PropOp55
 70
     1
102
RTVSPost2010Prop56
140
1.0
102
RTVSPost2010PropOp56
 70
     1
102
RTVSPost2010Prop57
140
1.0
102
RTVSPost2010PropOp57
 70
     1
102
RTVSPropertyOp0
 70
     1
102
RTVSPropertyOp1
 70
     1
102
RTVSPropertyOp2
 70
     1
102
RTVSPropertyOp3
 70
     1
102
RTVSPropertyOp4
 70
     1
102
RTVSPropertyOp5
 70
     1
102
RTVSPropertyOp6
 70
     1
102
RTVSPropertyOp7
 70
     1
102
RTVSPropertyOp8
 70
     1
102
RTVSPropertyOp9
 70
     1
102
RTVSPropertyOp10
 70
     1
102
RTVSPropertyOp11
 70
     1
102
RTVSPropertyOp12
 70
     1
102
RTVSPropertyOp13
 70
     1
102
RTVSPropertyOp14
 70
     1
102
RTVSPropertyOp15
 70
     1
102
RTVSPropertyOp16
 70
     1
102
RTVSPropertyOp17
 70
     1
102
RTVSPropertyOp18
 70
     1
102
RTVSPropertyOp19
 70
     1
102
RTVSPropertyOp20
 70
     1
102
RTVSPropertyOp21
 70
     1
102
RTVSPropertyOp22
 70
     1
102
RTVSPropertyOp23
 70
     1
102
RTVSPropertyOp24
 70
     1
102
RTVSPropertyOp25
 70
     1
102
RTVSPropertyOp26
 70
     1
102
RTVSPropertyOp27
 70
     1
102
RTVSPropertyOp28
 70
     1
102
RTVSPropertyOp29
 70
     1
102
RTVSPropertyOp30
 70
     1
102
RTVSPropertyOp31
 70
     1
102
RTVSPropertyOp32
 70
     1
102
RTVSPropertyOp33
 70
     1
102
RTVSPropertyOp34
 70
     1
102
RTVSPropertyOp35
 70
     1
102
RTVSPropertyOp36
 70
     1
102
RTVSPropertyOp37
 70
     1
102
RTVSPropertyOp38
 70
     1
102
RTVSPropertyOp39
 70
     1
102
RTVSPropertyOp40
 70
     1
102
RTVSPropertyOp41
 70
     1
102
RTVSPropertyOp42
 70
     1
102
RTVSPropertyOp43
 70
     1
102
RTVSPropertyOp44
 70
     1
102
RTVSPropertyOp45
 70
     1
102
RTVSPropertyOp46
 70
     1
102
RTVSPropertyOp47
 70
     1
102
RTVSPropertyOp48
 70
     1
102
RTVSPropertyOp49
 70
     1
102
RTVSPropertyOp50
 70
     1
102
RTVSPropertyOp51
 70
     0
102
RTVSPropertyOp52
 70
     0
102
RTVSPropertyOp53
 70
     1
102
RTVSPropertyOp54
 70
     1
102
RTVSPropertyOp55
 70
     1
102
RTVSPropertyOp56
 70
     1
102
RTVSPropertyOp57
 70
     1
102
RTVSPropertyOp58
 70
     1
102
RTVSPropertyOp59
 70
     1
102
RTVSPropertyOp60
 70
     1
102
RTVSPropertyOp61
 70
     1
102
RTVSPropertyOp62
 70
     1
  0
XRECORD
  5
9E6
102
{ACAD_REACTORS
330
9E5
102
}
330
9E5
100
AcDbXrecord
280
     1
102
RTVSPost2010Prop28
280
     0
102
RTVSPost2010PropOp28
 70
     1
102
RTVSPost2010Prop29
280
     1
102
RTVSPost2010PropOp29
 70
     1
102
RTVSPost2010Prop30
280
     1
102
RTVSPost2010PropOp30
 70
     1
102
RTVSPost2010Prop31
280
     0
102
RTVSPost2010PropOp31
 70
     1
102
RTVSPost2010Prop32
280
     0
102
RTVSPost2010PropOp32
 70
     1
102
RTVSPost2010Prop33
280
     0
102
RTVSPost2010PropOp33
 70
     1
102
RTVSPost2010Prop34
280
     0
102
RTVSPost2010PropOp34
 70
     1
102
RTVSPost2010Prop35
280
     0
102
RTVSPost2010PropOp35
 70
     1
102
RTVSPost2010Prop36
280
     0
102
RTVSPost2010PropOp36
 70
     1
102
RTVSPost2010Prop37
 90
       50
102
RTVSPost2010PropOp37
 70
     1
102
RTVSPost2010Prop38
140
0.0
102
RTVSPost2010PropOp38
 70
     1
102
RTVSPost2010Prop39
140
1.0
102
RTVSPost2010PropOp39
 70
     1
102
RTVSPost2010Prop40
 90
        0
102
RTVSPost2010PropOp40
 70
     1
102
RTVSPost2010Prop41ColorIndex
 90
       18
102
RTVSPost2010Prop41ColorRGB
 90
        0
102
RTVSPost2010PropOp41
 70
     1
102
RTVSPost2010Prop42
 90
       50
102
RTVSPost2010PropOp42
 70
     1
102
RTVSPost2010Prop43
 90
        3
102
RTVSPost2010PropOp43
 70
     1
102
RTVSPost2010Prop44ColorIndex
 90
        5
102
RTVSPost2010Prop44ColorRGB
 90
      255
102
RTVSPost2010PropOp44
 70
     1
102
RTVSPost2010Prop45
280
     0
102
RTVSPost2010PropOp45
 70
     1
102
RTVSPost2010Prop46
 90
       50
102
RTVSPost2010PropOp46
 70
     1
102
RTVSPost2010Prop47
 90
       50
102
RTVSPost2010PropOp47
 70
     1
102
RTVSPost2010Prop48
 90
       50
102
RTVSPost2010PropOp48
 70
     1
102
RTVSPost2010Prop49
280
     0
102
RTVSPost2010PropOp49
 70
     1
102
RTVSPost2010Prop50
 90
       50
102
RTVSPost2010PropOp50
 70
     1
102
RTVSPost2010Prop51ColorIndex
 90
      256
102
RTVSPost2010Prop51ColorRGB
 90
-16777216
102
RTVSPost2010PropOp51
 70
     0
102
RTVSPost2010Prop52
140
1.0
102
RTVSPost2010PropOp52
 70
     0
102
RTVSPost2010Prop53
 90
        2
102
RTVSPost2010PropOp53
 70
     1
102
RTVSPost2010Prop54
  1
strokes_ogs.tif
102
RTVSPost2010PropOp54
 70
     1
102
RTVSPost2010Prop55
280
     0
102
RTVSPost2010PropOp55
 70
     1
102
RTVSPost2010Prop56
140
1.0
102
RTVSPost2010PropOp56
 70
     1
102
RTVSPost2010Prop57
140
1.0
102
RTVSPost2010PropOp57
 70
     1
102
RTVSPropertyOp0
 70
     1
102
RTVSPropertyOp1
 70
     1
102
RTVSPropertyOp2
 70
     1
102
RTVSPropertyOp3
 70
     1
102
RTVSPropertyOp4
 70
     1
102
RTVSPropertyOp5
 70
     1
102
RTVSPropertyOp6
 70
     1
102
RTVSPropertyOp7
 70
     1
102
RTVSPropertyOp8
 70
     1
102
RTVSPropertyOp9
 70
     1
102
RTVSPropertyOp10
 70
     1
102
RTVSPropertyOp11
 70
     1
102
RTVSPropertyOp12
 70
     1
102
RTVSPropertyOp13
 70
     1
102
RTVSPropertyOp14
 70
     1
102
RTVSPropertyOp15
 70
     1
102
RTVSPropertyOp16
 70
     1
102
RTVSPropertyOp17
 70
     1
102
RTVSPropertyOp18
 70
     1
102
RTVSPropertyOp19
 70
     1
102
RTVSPropertyOp20
 70
     1
102
RTVSPropertyOp21
 70
     1
102
RTVSPropertyOp22
 70
     1
102
RTVSPropertyOp23
 70
     1
102
RTVSPropertyOp24
 70
     1
102
RTVSPropertyOp25
 70
     1
102
RTVSPropertyOp26
 70
     1
102
RTVSPropertyOp27
 70
     1
102
RTVSPropertyOp28
 70
     1
102
RTVSPropertyOp29
 70
     1
102
RTVSPropertyOp30
 70
     1
102
RTVSPropertyOp31
 70
     1
102
RTVSPropertyOp32
 70
     1
102
RTVSPropertyOp33
 70
     1
102
RTVSPropertyOp34
 70
     1
102
RTVSPropertyOp35
 70
     1
102
RTVSPropertyOp36
 70
     1
102
RTVSPropertyOp37
 70
     1
102
RTVSPropertyOp38
 70
     1
102
RTVSPropertyOp39
 70
     1
102
RTVSPropertyOp40
 70
     1
102
RTVSPropertyOp41
 70
     1
102
RTVSPropertyOp42
 70
     1
102
RTVSPropertyOp43
 70
     1
102
RTVSPropertyOp44
 70
     1
102
RTVSPropertyOp45
 70
     1
102
RTVSPropertyOp46
 70
     1
102
RTVSPropertyOp47
 70
     1
102
RTVSPropertyOp48
 70
     1
102
RTVSPropertyOp49
 70
     1
102
RTVSPropertyOp50
 70
     1
102
RTVSPropertyOp51
 70
     0
102
RTVSPropertyOp52
 70
     0
102
RTVSPropertyOp53
 70
     1
102
RTVSPropertyOp54
 70
     1
102
RTVSPropertyOp55
 70
     1
102
RTVSPropertyOp56
 70
     1
102
RTVSPropertyOp57
 70
     1
102
RTVSPropertyOp58
 70
     1
102
RTVSPropertyOp59
 70
     1
102
RTVSPropertyOp60
 70
     1
102
RTVSPropertyOp61
 70
     1
102
RTVSPropertyOp62
 70
     1
  0
XRECORD
  5
9E8
102
{ACAD_REACTORS
330
9E7
102
}
330
9E7
100
AcDbXrecord
280
     1
102
RTVSPost2010Prop28
280
     0
102
RTVSPost2010PropOp28
 70
     1
102
RTVSPost2010Prop29
280
     1
102
RTVSPost2010PropOp29
 70
     1
102
RTVSPost2010Prop30
280
     1
102
RTVSPost2010PropOp30
 70
     1
102
RTVSPost2010Prop31
280
     0
102
RTVSPost2010PropOp31
 70
     1
102
RTVSPost2010Prop32
280
     0
102
RTVSPost2010PropOp32
 70
     1
102
RTVSPost2010Prop33
280
     0
102
RTVSPost2010PropOp33
 70
     1
102
RTVSPost2010Prop34
280
     0
102
RTVSPost2010PropOp34
 70
     1
102
RTVSPost2010Prop35
280
     0
102
RTVSPost2010PropOp35
 70
     1
102
RTVSPost2010Prop36
280
     0
102
RTVSPost2010PropOp36
 70
     1
102
RTVSPost2010Prop37
 90
       50
102
RTVSPost2010PropOp37
 70
     1
102
RTVSPost2010Prop38
140
0.0
102
RTVSPost2010PropOp38
 70
     1
102
RTVSPost2010Prop39
140
1.0
102
RTVSPost2010PropOp39
 70
     1
102
RTVSPost2010Prop40
 90
        0
102
RTVSPost2010PropOp40
 70
     1
102
RTVSPost2010Prop41ColorIndex
 90
       18
102
RTVSPost2010Prop41ColorRGB
 90
        0
102
RTVSPost2010PropOp41
 70
     1
102
RTVSPost2010Prop42
 90
       50
102
RTVSPost2010PropOp42
 70
     1
102
RTVSPost2010Prop43
 90
        3
102
RTVSPost2010PropOp43
 70
     1
102
RTVSPost2010Prop44ColorIndex
 90
        5
102
RTVSPost2010Prop44ColorRGB
 90
      255
102
RTVSPost2010PropOp44
 70
     1
102
RTVSPost2010Prop45
280
     0
102
RTVSPost2010PropOp45
 70
     1
102
RTVSPost2010Prop46
 90
       50
102
RTVSPost2010PropOp46
 70
     1
102
RTVSPost2010Prop47
 90
       50
102
RTVSPost2010PropOp47
 70
     1
102
RTVSPost2010Prop48
 90
       50
102
RTVSPost2010PropOp48
 70
     1
102
RTVSPost2010Prop49
280
     0
102
RTVSPost2010PropOp49
 70
     1
102
RTVSPost2010Prop50
 90
       50
102
RTVSPost2010PropOp50
 70
     1
102
RTVSPost2010Prop51ColorIndex
 90
      256
102
RTVSPost2010Prop51ColorRGB
 90
-16777216
102
RTVSPost2010PropOp51
 70
     0
102
RTVSPost2010Prop52
140
1.0
102
RTVSPost2010PropOp52
 70
     0
102
RTVSPost2010Prop53
 90
        2
102
RTVSPost2010PropOp53
 70
     1
102
RTVSPost2010Prop54
  1
strokes_ogs.tif
102
RTVSPost2010PropOp54
 70
     1
102
RTVSPost2010Prop55
280
     0
102
RTVSPost2010PropOp55
 70
     1
102
RTVSPost2010Prop56
140
1.0
102
RTVSPost2010PropOp56
 70
     1
102
RTVSPost2010Prop57
140
1.0
102
RTVSPost2010PropOp57
 70
     1
102
RTVSPropertyOp0
 70
     1
102
RTVSPropertyOp1
 70
     1
102
RTVSPropertyOp2
 70
     1
102
RTVSPropertyOp3
 70
     1
102
RTVSPropertyOp4
 70
     1
102
RTVSPropertyOp5
 70
     1
102
RTVSPropertyOp6
 70
     1
102
RTVSPropertyOp7
 70
     1
102
RTVSPropertyOp8
 70
     1
102
RTVSPropertyOp9
 70
     1
102
RTVSPropertyOp10
 70
     1
102
RTVSPropertyOp11
 70
     1
102
RTVSPropertyOp12
 70
     1
102
RTVSPropertyOp13
 70
     1
102
RTVSPropertyOp14
 70
     1
102
RTVSPropertyOp15
 70
     1
102
RTVSPropertyOp16
 70
     1
102
RTVSPropertyOp17
 70
     1
102
RTVSPropertyOp18
 70
     1
102
RTVSPropertyOp19
 70
     1
102
RTVSPropertyOp20
 70
     1
102
RTVSPropertyOp21
 70
     1
102
RTVSPropertyOp22
 70
     1
102
RTVSPropertyOp23
 70
     1
102
RTVSPropertyOp24
 70
     1
102
RTVSPropertyOp25
 70
     1
102
RTVSPropertyOp26
 70
     1
102
RTVSPropertyOp27
 70
     1
102
RTVSPropertyOp28
 70
     1
102
RTVSPropertyOp29
 70
     1
102
RTVSPropertyOp30
 70
     1
102
RTVSPropertyOp31
 70
     1
102
RTVSPropertyOp32
 70
     1
102
RTVSPropertyOp33
 70
     1
102
RTVSPropertyOp34
 70
     1
102
RTVSPropertyOp35
 70
     1
102
RTVSPropertyOp36
 70
     1
102
RTVSPropertyOp37
 70
     1
102
RTVSPropertyOp38
 70
     1
102
RTVSPropertyOp39
 70
     1
102
RTVSPropertyOp40
 70
     1
102
RTVSPropertyOp41
 70
     1
102
RTVSPropertyOp42
 70
     1
102
RTVSPropertyOp43
 70
     1
102
RTVSPropertyOp44
 70
     1
102
RTVSPropertyOp45
 70
     1
102
RTVSPropertyOp46
 70
     1
102
RTVSPropertyOp47
 70
     1
102
RTVSPropertyOp48
 70
     1
102
RTVSPropertyOp49
 70
     1
102
RTVSPropertyOp50
 70
     1
102
RTVSPropertyOp51
 70
     0
102
RTVSPropertyOp52
 70
     0
102
RTVSPropertyOp53
 70
     1
102
RTVSPropertyOp54
 70
     1
102
RTVSPropertyOp55
 70
     1
102
RTVSPropertyOp56
 70
     1
102
RTVSPropertyOp57
 70
     1
102
RTVSPropertyOp58
 70
     1
102
RTVSPropertyOp59
 70
     1
102
RTVSPropertyOp60
 70
     1
102
RTVSPropertyOp61
 70
     1
102
RTVSPropertyOp62
 70
     1
  0
XRECORD
  5
9F0
102
{ACAD_REACTORS
330
9EF
102
}
330
9EF
100
AcDbXrecord
280
     1
102
RTVSPost2010Prop28
280
     0
102
RTVSPost2010PropOp28
 70
     1
102
RTVSPost2010Prop29
280
     1
102
RTVSPost2010PropOp29
 70
     1
102
RTVSPost2010Prop30
280
     1
102
RTVSPost2010PropOp30
 70
     1
102
RTVSPost2010Prop31
280
     0
102
RTVSPost2010PropOp31
 70
     1
102
RTVSPost2010Prop32
280
     0
102
RTVSPost2010PropOp32
 70
     1
102
RTVSPost2010Prop33
280
     0
102
RTVSPost2010PropOp33
 70
     1
102
RTVSPost2010Prop34
280
     0
102
RTVSPost2010PropOp34
 70
     1
102
RTVSPost2010Prop35
280
     0
102
RTVSPost2010PropOp35
 70
     1
102
RTVSPost2010Prop36
280
     0
102
RTVSPost2010PropOp36
 70
     1
102
RTVSPost2010Prop37
 90
       50
102
RTVSPost2010PropOp37
 70
     1
102
RTVSPost2010Prop38
140
0.0
102
RTVSPost2010PropOp38
 70
     1
102
RTVSPost2010Prop39
140
1.0
102
RTVSPost2010PropOp39
 70
     1
102
RTVSPost2010Prop40
 90
        0
102
RTVSPost2010PropOp40
 70
     1
102
RTVSPost2010Prop41ColorIndex
 90
       18
102
RTVSPost2010Prop41ColorRGB
 90
        0
102
RTVSPost2010PropOp41
 70
     1
102
RTVSPost2010Prop42
 90
       50
102
RTVSPost2010PropOp42
 70
     1
102
RTVSPost2010Prop43
 90
        3
102
RTVSPost2010PropOp43
 70
     1
102
RTVSPost2010Prop44ColorIndex
 90
        5
102
RTVSPost2010Prop44ColorRGB
 90
      255
102
RTVSPost2010PropOp44
 70
     1
102
RTVSPost2010Prop45
280
     0
102
RTVSPost2010PropOp45
 70
     1
102
RTVSPost2010Prop46
 90
       50
102
RTVSPost2010PropOp46
 70
     1
102
RTVSPost2010Prop47
 90
       50
102
RTVSPost2010PropOp47
 70
     1
102
RTVSPost2010Prop48
 90
       50
102
RTVSPost2010PropOp48
 70
     1
102
RTVSPost2010Prop49
280
     0
102
RTVSPost2010PropOp49
 70
     1
102
RTVSPost2010Prop50
 90
       50
102
RTVSPost2010PropOp50
 70
     1
102
RTVSPost2010Prop51ColorIndex
 90
      256
102
RTVSPost2010Prop51ColorRGB
 90
-16777216
102
RTVSPost2010PropOp51
 70
     0
102
RTVSPost2010Prop52
140
1.0
102
RTVSPost2010PropOp52
 70
     0
102
RTVSPost2010Prop53
 90
        2
102
RTVSPost2010PropOp53
 70
     1
102
RTVSPost2010Prop54
  1
strokes_ogs.tif
102
RTVSPost2010PropOp54
 70
     1
102
RTVSPost2010Prop55
280
     0
102
RTVSPost2010PropOp55
 70
     1
102
RTVSPost2010Prop56
140
1.0
102
RTVSPost2010PropOp56
 70
     1
102
RTVSPost2010Prop57
140
1.0
102
RTVSPost2010PropOp57
 70
     1
102
RTVSPropertyOp0
 70
     1
102
RTVSPropertyOp1
 70
     1
102
RTVSPropertyOp2
 70
     1
102
RTVSPropertyOp3
 70
     1
102
RTVSPropertyOp4
 70
     1
102
RTVSPropertyOp5
 70
     1
102
RTVSPropertyOp6
 70
     1
102
RTVSPropertyOp7
 70
     1
102
RTVSPropertyOp8
 70
     1
102
RTVSPropertyOp9
 70
     1
102
RTVSPropertyOp10
 70
     1
102
RTVSPropertyOp11
 70
     1
102
RTVSPropertyOp12
 70
     1
102
RTVSPropertyOp13
 70
     1
102
RTVSPropertyOp14
 70
     1
102
RTVSPropertyOp15
 70
     1
102
RTVSPropertyOp16
 70
     1
102
RTVSPropertyOp17
 70
     1
102
RTVSPropertyOp18
 70
     1
102
RTVSPropertyOp19
 70
     1
102
RTVSPropertyOp20
 70
     1
102
RTVSPropertyOp21
 70
     1
102
RTVSPropertyOp22
 70
     1
102
RTVSPropertyOp23
 70
     1
102
RTVSPropertyOp24
 70
     1
102
RTVSPropertyOp25
 70
     1
102
RTVSPropertyOp26
 70
     1
102
RTVSPropertyOp27
 70
     1
102
RTVSPropertyOp28
 70
     1
102
RTVSPropertyOp29
 70
     1
102
RTVSPropertyOp30
 70
     1
102
RTVSPropertyOp31
 70
     1
102
RTVSPropertyOp32
 70
     1
102
RTVSPropertyOp33
 70
     1
102
RTVSPropertyOp34
 70
     1
102
RTVSPropertyOp35
 70
     1
102
RTVSPropertyOp36
 70
     1
102
RTVSPropertyOp37
 70
     1
102
RTVSPropertyOp38
 70
     1
102
RTVSPropertyOp39
 70
     1
102
RTVSPropertyOp40
 70
     1
102
RTVSPropertyOp41
 70
     1
102
RTVSPropertyOp42
 70
     1
102
RTVSPropertyOp43
 70
     1
102
RTVSPropertyOp44
 70
     1
102
RTVSPropertyOp45
 70
     1
102
RTVSPropertyOp46
 70
     1
102
RTVSPropertyOp47
 70
     1
102
RTVSPropertyOp48
 70
     1
102
RTVSPropertyOp49
 70
     1
102
RTVSPropertyOp50
 70
     1
102
RTVSPropertyOp51
 70
     0
102
RTVSPropertyOp52
 70
     0
102
RTVSPropertyOp53
 70
     1
102
RTVSPropertyOp54
 70
     1
102
RTVSPropertyOp55
 70
     1
102
RTVSPropertyOp56
 70
     1
102
RTVSPropertyOp57
 70
     1
102
RTVSPropertyOp58
 70
     1
102
RTVSPropertyOp59
 70
     1
102
RTVSPropertyOp60
 70
     1
102
RTVSPropertyOp61
 70
     1
102
RTVSPropertyOp62
 70
     1
  0
XRECORD
  5
A0C
102
{ACAD_REACTORS
330
A0B
102
}
330
A0B
100
AcDbXrecord
280
     1
102
RTVSPost2010Prop28
280
     0
102
RTVSPost2010PropOp28
 70
     1
102
RTVSPost2010Prop29
280
     1
102
RTVSPost2010PropOp29
 70
     1
102
RTVSPost2010Prop30
280
     1
102
RTVSPost2010PropOp30
 70
     1
102
RTVSPost2010Prop31
280
     0
102
RTVSPost2010PropOp31
 70
     1
102
RTVSPost2010Prop32
280
     0
102
RTVSPost2010PropOp32
 70
     1
102
RTVSPost2010Prop33
280
     0
102
RTVSPost2010PropOp33
 70
     1
102
RTVSPost2010Prop34
280
     0
102
RTVSPost2010PropOp34
 70
     1
102
RTVSPost2010Prop35
280
     0
102
RTVSPost2010PropOp35
 70
     1
102
RTVSPost2010Prop36
280
     0
102
RTVSPost2010PropOp36
 70
     1
102
RTVSPost2010Prop37
 90
       50
102
RTVSPost2010PropOp37
 70
     0
102
RTVSPost2010Prop38
140
0.0
102
RTVSPost2010PropOp38
 70
     0
102
RTVSPost2010Prop39
140
1.0
102
RTVSPost2010PropOp39
 70
     0
102
RTVSPost2010Prop40
 90
        0
102
RTVSPost2010PropOp40
 70
     0
102
RTVSPost2010Prop41ColorIndex
 90
       18
102
RTVSPost2010Prop41ColorRGB
 90
        0
102
RTVSPost2010PropOp41
 70
     0
102
RTVSPost2010Prop42
 90
       50
102
RTVSPost2010PropOp42
 70
     0
102
RTVSPost2010Prop43
 90
        3
102
RTVSPost2010PropOp43
 70
     0
102
RTVSPost2010Prop44ColorIndex
 90
        5
102
RTVSPost2010Prop44ColorRGB
 90
      255
102
RTVSPost2010PropOp44
 70
     0
102
RTVSPost2010Prop45
280
     0
102
RTVSPost2010PropOp45
 70
     1
102
RTVSPost2010Prop46
 90
       50
102
RTVSPost2010PropOp46
 70
     0
102
RTVSPost2010Prop47
 90
       50
102
RTVSPost2010PropOp47
 70
     0
102
RTVSPost2010Prop48
 90
       50
102
RTVSPost2010PropOp48
 70
     0
102
RTVSPost2010Prop49
280
     0
102
RTVSPost2010PropOp49
 70
     1
102
RTVSPost2010Prop50
 90
       50
102
RTVSPost2010PropOp50
 70
     0
102
RTVSPost2010Prop51ColorIndex
 90
      256
102
RTVSPost2010Prop51ColorRGB
 90
-16777216
102
RTVSPost2010PropOp51
 70
     0
102
RTVSPost2010Prop52
140
1.0
102
RTVSPost2010PropOp52
 70
     0
102
RTVSPost2010Prop53
 90
        2
102
RTVSPost2010PropOp53
 70
     0
102
RTVSPost2010Prop54
  1
strokes_ogs.tif
102
RTVSPost2010PropOp54
 70
     0
102
RTVSPost2010Prop55
280
     0
102
RTVSPost2010PropOp55
 70
     1
102
RTVSPost2010Prop56
140
1.0
102
RTVSPost2010PropOp56
 70
     0
102
RTVSPost2010Prop57
140
1.0
102
RTVSPost2010PropOp57
 70
     0
102
RTVSPropertyOp0
 70
     0
102
RTVSPropertyOp1
 70
     0
102
RTVSPropertyOp2
 70
     0
102
RTVSPropertyOp3
 70
     0
102
RTVSPropertyOp4
 70
     0
102
RTVSPropertyOp5
 70
     0
102
RTVSPropertyOp6
 70
     0
102
RTVSPropertyOp7
 70
     0
102
RTVSPropertyOp8
 70
     0
102
RTVSPropertyOp9
 70
     0
102
RTVSPropertyOp10
 70
     0
102
RTVSPropertyOp11
 70
     0
102
RTVSPropertyOp12
 70
     0
102
RTVSPropertyOp13
 70
     0
102
RTVSPropertyOp14
 70
     2
102
RTVSPropertyOp15
 70
     0
102
RTVSPropertyOp16
 70
     0
102
RTVSPropertyOp17
 70
     0
102
RTVSPropertyOp18
 70
     0
102
RTVSPropertyOp19
 70
     0
102
RTVSPropertyOp20
 70
     0
102
RTVSPropertyOp21
 70
     0
102
RTVSPropertyOp22
 70
     0
102
RTVSPropertyOp23
 70
     0
102
RTVSPropertyOp24
 70
     0
102
RTVSPropertyOp25
 70
     0
102
RTVSPropertyOp26
 70
     0
102
RTVSPropertyOp27
 70
     0
102
RTVSPropertyOp28
 70
     1
102
RTVSPropertyOp29
 70
     1
102
RTVSPropertyOp30
 70
     1
102
RTVSPropertyOp31
 70
     1
102
RTVSPropertyOp32
 70
     1
102
RTVSPropertyOp33
 70
     1
102
RTVSPropertyOp34
 70
     1
102
RTVSPropertyOp35
 70
     1
102
RTVSPropertyOp36
 70
     1
102
RTVSPropertyOp37
 70
     0
102
RTVSPropertyOp38
 70
     0
102
RTVSPropertyOp39
 70
     0
102
RTVSPropertyOp40
 70
     0
102
RTVSPropertyOp41
 70
     0
102
RTVSPropertyOp42
 70
     0
102
RTVSPropertyOp43
 70
     0
102
RTVSPropertyOp44
 70
     0
102
RTVSPropertyOp45
 70
     1
102
RTVSPropertyOp46
 70
     0
102
RTVSPropertyOp47
 70
     0
102
RTVSPropertyOp48
 70
     0
102
RTVSPropertyOp49
 70
     1
102
RTVSPropertyOp50
 70
     0
102
RTVSPropertyOp51
 70
     0
102
RTVSPropertyOp52
 70
     0
102
RTVSPropertyOp53
 70
     0
102
RTVSPropertyOp54
 70
     0
102
RTVSPropertyOp55
 70
     1
102
RTVSPropertyOp56
 70
     0
102
RTVSPropertyOp57
 70
     0
102
RTVSPropertyOp58
 70
     1
102
RTVSPropertyOp59
 70
     1
102
RTVSPropertyOp60
 70
     1
102
RTVSPropertyOp61
 70
     1
102
RTVSPropertyOp62
 70
     1
  0
XRECORD
  5
9FC
102
{ACAD_REACTORS
330
9FB
102
}
330
9FB
100
AcDbXrecord
280
     1
102
RTVSPost2010Prop28
280
     0
102
RTVSPost2010PropOp28
 70
     1
102
RTVSPost2010Prop29
280
     1
102
RTVSPost2010PropOp29
 70
     1
102
RTVSPost2010Prop30
280
     1
102
RTVSPost2010PropOp30
 70
     1
102
RTVSPost2010Prop31
280
     0
102
RTVSPost2010PropOp31
 70
     1
102
RTVSPost2010Prop32
280
     0
102
RTVSPost2010PropOp32
 70
     1
102
RTVSPost2010Prop33
280
     0
102
RTVSPost2010PropOp33
 70
     1
102
RTVSPost2010Prop34
280
     0
102
RTVSPost2010PropOp34
 70
     1
102
RTVSPost2010Prop35
280
     0
102
RTVSPost2010PropOp35
 70
     1
102
RTVSPost2010Prop36
280
     0
102
RTVSPost2010PropOp36
 70
     1
102
RTVSPost2010Prop37
 90
       50
102
RTVSPost2010PropOp37
 70
     1
102
RTVSPost2010Prop38
140
0.0
102
RTVSPost2010PropOp38
 70
     1
102
RTVSPost2010Prop39
140
1.0
102
RTVSPost2010PropOp39
 70
     1
102
RTVSPost2010Prop40
 90
        0
102
RTVSPost2010PropOp40
 70
     1
102
RTVSPost2010Prop41ColorIndex
 90
       18
102
RTVSPost2010Prop41ColorRGB
 90
        0
102
RTVSPost2010PropOp41
 70
     1
102
RTVSPost2010Prop42
 90
       50
102
RTVSPost2010PropOp42
 70
     1
102
RTVSPost2010Prop43
 90
        3
102
RTVSPost2010PropOp43
 70
     1
102
RTVSPost2010Prop44ColorIndex
 90
        5
102
RTVSPost2010Prop44ColorRGB
 90
      255
102
RTVSPost2010PropOp44
 70
     1
102
RTVSPost2010Prop45
280
     0
102
RTVSPost2010PropOp45
 70
     1
102
RTVSPost2010Prop46
 90
       50
102
RTVSPost2010PropOp46
 70
     1
102
RTVSPost2010Prop47
 90
       50
102
RTVSPost2010PropOp47
 70
     1
102
RTVSPost2010Prop48
 90
       50
102
RTVSPost2010PropOp48
 70
     1
102
RTVSPost2010Prop49
280
     0
102
RTVSPost2010PropOp49
 70
     1
102
RTVSPost2010Prop50
 90
       50
102
RTVSPost2010PropOp50
 70
     1
102
RTVSPost2010Prop51ColorIndex
 90
      256
102
RTVSPost2010Prop51ColorRGB
 90
-16777216
102
RTVSPost2010PropOp51
 70
     0
102
RTVSPost2010Prop52
140
1.0
102
RTVSPost2010PropOp52
 70
     0
102
RTVSPost2010Prop53
 90
        2
102
RTVSPost2010PropOp53
 70
     1
102
RTVSPost2010Prop54
  1
strokes_ogs.tif
102
RTVSPost2010PropOp54
 70
     1
102
RTVSPost2010Prop55
280
     0
102
RTVSPost2010PropOp55
 70
     1
102
RTVSPost2010Prop56
140
1.0
102
RTVSPost2010PropOp56
 70
     1
102
RTVSPost2010Prop57
140
1.0
102
RTVSPost2010PropOp57
 70
     1
102
RTVSPropertyOp0
 70
     1
102
RTVSPropertyOp1
 70
     1
102
RTVSPropertyOp2
 70
     1
102
RTVSPropertyOp3
 70
     1
102
RTVSPropertyOp4
 70
     1
102
RTVSPropertyOp5
 70
     1
102
RTVSPropertyOp6
 70
     1
102
RTVSPropertyOp7
 70
     1
102
RTVSPropertyOp8
 70
     1
102
RTVSPropertyOp9
 70
     1
102
RTVSPropertyOp10
 70
     1
102
RTVSPropertyOp11
 70
     1
102
RTVSPropertyOp12
 70
     1
102
RTVSPropertyOp13
 70
     1
102
RTVSPropertyOp14
 70
     1
102
RTVSPropertyOp15
 70
     1
102
RTVSPropertyOp16
 70
     1
102
RTVSPropertyOp17
 70
     1
102
RTVSPropertyOp18
 70
     1
102
RTVSPropertyOp19
 70
     1
102
RTVSPropertyOp20
 70
     1
102
RTVSPropertyOp21
 70
     1
102
RTVSPropertyOp22
 70
     1
102
RTVSPropertyOp23
 70
     1
102
RTVSPropertyOp24
 70
     1
102
RTVSPropertyOp25
 70
     1
102
RTVSPropertyOp26
 70
     1
102
RTVSPropertyOp27
 70
     1
102
RTVSPropertyOp28
 70
     1
102
RTVSPropertyOp29
 70
     1
102
RTVSPropertyOp30
 70
     1
102
RTVSPropertyOp31
 70
     1
102
RTVSPropertyOp32
 70
     1
102
RTVSPropertyOp33
 70
     1
102
RTVSPropertyOp34
 70
     1
102
RTVSPropertyOp35
 70
     1
102
RTVSPropertyOp36
 70
     1
102
RTVSPropertyOp37
 70
     1
102
RTVSPropertyOp38
 70
     1
102
RTVSPropertyOp39
 70
     1
102
RTVSPropertyOp40
 70
     1
102
RTVSPropertyOp41
 70
     1
102
RTVSPropertyOp42
 70
     1
102
RTVSPropertyOp43
 70
     1
102
RTVSPropertyOp44
 70
     1
102
RTVSPropertyOp45
 70
     1
102
RTVSPropertyOp46
 70
     1
102
RTVSPropertyOp47
 70
     1
102
RTVSPropertyOp48
 70
     1
102
RTVSPropertyOp49
 70
     1
102
RTVSPropertyOp50
 70
     1
102
RTVSPropertyOp51
 70
     0
102
RTVSPropertyOp52
 70
     0
102
RTVSPropertyOp53
 70
     1
102
RTVSPropertyOp54
 70
     1
102
RTVSPropertyOp55
 70
     1
102
RTVSPropertyOp56
 70
     1
102
RTVSPropertyOp57
 70
     1
102
RTVSPropertyOp58
 70
     1
102
RTVSPropertyOp59
 70
     1
102
RTVSPropertyOp60
 70
     1
102
RTVSPropertyOp61
 70
     1
102
RTVSPropertyOp62
 70
     1
  0
XRECORD
  5
A0E
102
{ACAD_REACTORS
330
A0D
102
}
330
A0D
100
AcDbXrecord
280
     1
102
RTVSPost2010Prop28
280
     0
102
RTVSPost2010PropOp28
 70
     1
102
RTVSPost2010Prop29
280
     1
102
RTVSPost2010PropOp29
 70
     1
102
RTVSPost2010Prop30
280
     1
102
RTVSPost2010PropOp30
 70
     1
102
RTVSPost2010Prop31
280
     0
102
RTVSPost2010PropOp31
 70
     1
102
RTVSPost2010Prop32
280
     0
102
RTVSPost2010PropOp32
 70
     1
102
RTVSPost2010Prop33
280
     0
102
RTVSPost2010PropOp33
 70
     1
102
RTVSPost2010Prop34
280
     0
102
RTVSPost2010PropOp34
 70
     1
102
RTVSPost2010Prop35
280
     0
102
RTVSPost2010PropOp35
 70
     1
102
RTVSPost2010Prop36
280
     0
102
RTVSPost2010PropOp36
 70
     1
102
RTVSPost2010Prop37
 90
       50
102
RTVSPost2010PropOp37
 70
     0
102
RTVSPost2010Prop38
140
0.0
102
RTVSPost2010PropOp38
 70
     0
102
RTVSPost2010Prop39
140
1.0
102
RTVSPost2010PropOp39
 70
     0
102
RTVSPost2010Prop40
 90
        0
102
RTVSPost2010PropOp40
 70
     0
102
RTVSPost2010Prop41ColorIndex
 90
       18
102
RTVSPost2010Prop41ColorRGB
 90
        0
102
RTVSPost2010PropOp41
 70
     0
102
RTVSPost2010Prop42
 90
       50
102
RTVSPost2010PropOp42
 70
     0
102
RTVSPost2010Prop43
 90
        3
102
RTVSPost2010PropOp43
 70
     0
102
RTVSPost2010Prop44ColorIndex
 90
        5
102
RTVSPost2010Prop44ColorRGB
 90
      255
102
RTVSPost2010PropOp44
 70
     0
102
RTVSPost2010Prop45
280
     0
102
RTVSPost2010PropOp45
 70
     1
102
RTVSPost2010Prop46
 90
       50
102
RTVSPost2010PropOp46
 70
     0
102
RTVSPost2010Prop47
 90
       50
102
RTVSPost2010PropOp47
 70
     0
102
RTVSPost2010Prop48
 90
       50
102
RTVSPost2010PropOp48
 70
     0
102
RTVSPost2010Prop49
280
     0
102
RTVSPost2010PropOp49
 70
     1
102
RTVSPost2010Prop50
 90
       50
102
RTVSPost2010PropOp50
 70
     0
102
RTVSPost2010Prop51ColorIndex
 90
      256
102
RTVSPost2010Prop51ColorRGB
 90
-16777216
102
RTVSPost2010PropOp51
 70
     0
102
RTVSPost2010Prop52
140
1.0
102
RTVSPost2010PropOp52
 70
     0
102
RTVSPost2010Prop53
 90
        2
102
RTVSPost2010PropOp53
 70
     0
102
RTVSPost2010Prop54
  1
strokes_ogs.tif
102
RTVSPost2010PropOp54
 70
     0
102
RTVSPost2010Prop55
280
     0
102
RTVSPost2010PropOp55
 70
     1
102
RTVSPost2010Prop56
140
1.0
102
RTVSPost2010PropOp56
 70
     0
102
RTVSPost2010Prop57
140
1.0
102
RTVSPost2010PropOp57
 70
     0
102
RTVSPropertyOp0
 70
     0
102
RTVSPropertyOp1
 70
     0
102
RTVSPropertyOp2
 70
     0
102
RTVSPropertyOp3
 70
     0
102
RTVSPropertyOp4
 70
     0
102
RTVSPropertyOp5
 70
     0
102
RTVSPropertyOp6
 70
     0
102
RTVSPropertyOp7
 70
     0
102
RTVSPropertyOp8
 70
     0
102
RTVSPropertyOp9
 70
     0
102
RTVSPropertyOp10
 70
     0
102
RTVSPropertyOp11
 70
     0
102
RTVSPropertyOp12
 70
     0
102
RTVSPropertyOp13
 70
     0
102
RTVSPropertyOp14
 70
     2
102
RTVSPropertyOp15
 70
     0
102
RTVSPropertyOp16
 70
     0
102
RTVSPropertyOp17
 70
     0
102
RTVSPropertyOp18
 70
     0
102
RTVSPropertyOp19
 70
     0
102
RTVSPropertyOp20
 70
     0
102
RTVSPropertyOp21
 70
     0
102
RTVSPropertyOp22
 70
     0
102
RTVSPropertyOp23
 70
     0
102
RTVSPropertyOp24
 70
     0
102
RTVSPropertyOp25
 70
     0
102
RTVSPropertyOp26
 70
     0
102
RTVSPropertyOp27
 70
     0
102
RTVSPropertyOp28
 70
     1
102
RTVSPropertyOp29
 70
     1
102
RTVSPropertyOp30
 70
     1
102
RTVSPropertyOp31
 70
     1
102
RTVSPropertyOp32
 70
     1
102
RTVSPropertyOp33
 70
     1
102
RTVSPropertyOp34
 70
     1
102
RTVSPropertyOp35
 70
     1
102
RTVSPropertyOp36
 70
     1
102
RTVSPropertyOp37
 70
     0
102
RTVSPropertyOp38
 70
     0
102
RTVSPropertyOp39
 70
     0
102
RTVSPropertyOp40
 70
     0
102
RTVSPropertyOp41
 70
     0
102
RTVSPropertyOp42
 70
     0
102
RTVSPropertyOp43
 70
     0
102
RTVSPropertyOp44
 70
     0
102
RTVSPropertyOp45
 70
     1
102
RTVSPropertyOp46
 70
     0
102
RTVSPropertyOp47
 70
     0
102
RTVSPropertyOp48
 70
     0
102
RTVSPropertyOp49
 70
     1
102
RTVSPropertyOp50
 70
     0
102
RTVSPropertyOp51
 70
     0
102
RTVSPropertyOp52
 70
     0
102
RTVSPropertyOp53
 70
     0
102
RTVSPropertyOp54
 70
     0
102
RTVSPropertyOp55
 70
     1
102
RTVSPropertyOp56
 70
     0
102
RTVSPropertyOp57
 70
     0
102
RTVSPropertyOp58
 70
     1
102
RTVSPropertyOp59
 70
     1
102
RTVSPropertyOp60
 70
     1
102
RTVSPropertyOp61
 70
     1
102
RTVSPropertyOp62
 70
     1
  0
XRECORD
  5
9F4
102
{ACAD_REACTORS
330
9F3
102
}
330
9F3
100
AcDbXrecord
280
     1
102
RTVSPost2010Prop28
280
     0
102
RTVSPost2010PropOp28
 70
     1
102
RTVSPost2010Prop29
280
     1
102
RTVSPost2010PropOp29
 70
     1
102
RTVSPost2010Prop30
280
     1
102
RTVSPost2010PropOp30
 70
     1
102
RTVSPost2010Prop31
280
     0
102
RTVSPost2010PropOp31
 70
     1
102
RTVSPost2010Prop32
280
     0
102
RTVSPost2010PropOp32
 70
     1
102
RTVSPost2010Prop33
280
     0
102
RTVSPost2010PropOp33
 70
     1
102
RTVSPost2010Prop34
280
     0
102
RTVSPost2010PropOp34
 70
     1
102
RTVSPost2010Prop35
280
     0
102
RTVSPost2010PropOp35
 70
     1
102
RTVSPost2010Prop36
280
     0
102
RTVSPost2010PropOp36
 70
     1
102
RTVSPost2010Prop37
 90
       50
102
RTVSPost2010PropOp37
 70
     1
102
RTVSPost2010Prop38
140
0.0
102
RTVSPost2010PropOp38
 70
     1
102
RTVSPost2010Prop39
140
1.0
102
RTVSPost2010PropOp39
 70
     1
102
RTVSPost2010Prop40
 90
        0
102
RTVSPost2010PropOp40
 70
     1
102
RTVSPost2010Prop41ColorIndex
 90
       18
102
RTVSPost2010Prop41ColorRGB
 90
        0
102
RTVSPost2010PropOp41
 70
     1
102
RTVSPost2010Prop42
 90
       50
102
RTVSPost2010PropOp42
 70
     1
102
RTVSPost2010Prop43
 90
        3
102
RTVSPost2010PropOp43
 70
     1
102
RTVSPost2010Prop44ColorIndex
 90
        5
102
RTVSPost2010Prop44ColorRGB
 90
      255
102
RTVSPost2010PropOp44
 70
     1
102
RTVSPost2010Prop45
280
     0
102
RTVSPost2010PropOp45
 70
     1
102
RTVSPost2010Prop46
 90
       50
102
RTVSPost2010PropOp46
 70
     1
102
RTVSPost2010Prop47
 90
       50
102
RTVSPost2010PropOp47
 70
     1
102
RTVSPost2010Prop48
 90
       50
102
RTVSPost2010PropOp48
 70
     1
102
RTVSPost2010Prop49
280
     0
102
RTVSPost2010PropOp49
 70
     1
102
RTVSPost2010Prop50
 90
       50
102
RTVSPost2010PropOp50
 70
     1
102
RTVSPost2010Prop51ColorIndex
 90
      256
102
RTVSPost2010Prop51ColorRGB
 90
-16777216
102
RTVSPost2010PropOp51
 70
     0
102
RTVSPost2010Prop52
140
1.0
102
RTVSPost2010PropOp52
 70
     0
102
RTVSPost2010Prop53
 90
        2
102
RTVSPost2010PropOp53
 70
     1
102
RTVSPost2010Prop54
  1
strokes_ogs.tif
102
RTVSPost2010PropOp54
 70
     1
102
RTVSPost2010Prop55
280
     0
102
RTVSPost2010PropOp55
 70
     1
102
RTVSPost2010Prop56
140
1.0
102
RTVSPost2010PropOp56
 70
     1
102
RTVSPost2010Prop57
140
1.0
102
RTVSPost2010PropOp57
 70
     1
102
RTVSPropertyOp0
 70
     1
102
RTVSPropertyOp1
 70
     1
102
RTVSPropertyOp2
 70
     1
102
RTVSPropertyOp3
 70
     1
102
RTVSPropertyOp4
 70
     1
102
RTVSPropertyOp5
 70
     1
102
RTVSPropertyOp6
 70
     1
102
RTVSPropertyOp7
 70
     1
102
RTVSPropertyOp8
 70
     1
102
RTVSPropertyOp9
 70
     1
102
RTVSPropertyOp10
 70
     1
102
RTVSPropertyOp11
 70
     1
102
RTVSPropertyOp12
 70
     1
102
RTVSPropertyOp13
 70
     1
102
RTVSPropertyOp14
 70
     1
102
RTVSPropertyOp15
 70
     1
102
RTVSPropertyOp16
 70
     1
102
RTVSPropertyOp17
 70
     1
102
RTVSPropertyOp18
 70
     1
102
RTVSPropertyOp19
 70
     1
102
RTVSPropertyOp20
 70
     1
102
RTVSPropertyOp21
 70
     1
102
RTVSPropertyOp22
 70
     1
102
RTVSPropertyOp23
 70
     1
102
RTVSPropertyOp24
 70
     1
102
RTVSPropertyOp25
 70
     1
102
RTVSPropertyOp26
 70
     1
102
RTVSPropertyOp27
 70
     1
102
RTVSPropertyOp28
 70
     1
102
RTVSPropertyOp29
 70
     1
102
RTVSPropertyOp30
 70
     1
102
RTVSPropertyOp31
 70
     1
102
RTVSPropertyOp32
 70
     1
102
RTVSPropertyOp33
 70
     1
102
RTVSPropertyOp34
 70
     1
102
RTVSPropertyOp35
 70
     1
102
RTVSPropertyOp36
 70
     1
102
RTVSPropertyOp37
 70
     1
102
RTVSPropertyOp38
 70
     1
102
RTVSPropertyOp39
 70
     1
102
RTVSPropertyOp40
 70
     1
102
RTVSPropertyOp41
 70
     1
102
RTVSPropertyOp42
 70
     1
102
RTVSPropertyOp43
 70
     1
102
RTVSPropertyOp44
 70
     1
102
RTVSPropertyOp45
 70
     1
102
RTVSPropertyOp46
 70
     1
102
RTVSPropertyOp47
 70
     1
102
RTVSPropertyOp48
 70
     1
102
RTVSPropertyOp49
 70
     1
102
RTVSPropertyOp50
 70
     1
102
RTVSPropertyOp51
 70
     0
102
RTVSPropertyOp52
 70
     0
102
RTVSPropertyOp53
 70
     1
102
RTVSPropertyOp54
 70
     1
102
RTVSPropertyOp55
 70
     1
102
RTVSPropertyOp56
 70
     1
102
RTVSPropertyOp57
 70
     1
102
RTVSPropertyOp58
 70
     1
102
RTVSPropertyOp59
 70
     1
102
RTVSPropertyOp60
 70
     1
102
RTVSPropertyOp61
 70
     1
102
RTVSPropertyOp62
 70
     1
  0
XRECORD
  5
A0A
102
{ACAD_REACTORS
330
A09
102
}
330
A09
100
AcDbXrecord
280
     1
102
RTVSPost2010Prop28
280
     0
102
RTVSPost2010PropOp28
 70
     1
102
RTVSPost2010Prop29
280
     1
102
RTVSPost2010PropOp29
 70
     1
102
RTVSPost2010Prop30
280
     1
102
RTVSPost2010PropOp30
 70
     1
102
RTVSPost2010Prop31
280
     0
102
RTVSPost2010PropOp31
 70
     1
102
RTVSPost2010Prop32
280
     0
102
RTVSPost2010PropOp32
 70
     1
102
RTVSPost2010Prop33
280
     0
102
RTVSPost2010PropOp33
 70
     1
102
RTVSPost2010Prop34
280
     0
102
RTVSPost2010PropOp34
 70
     1
102
RTVSPost2010Prop35
280
     0
102
RTVSPost2010PropOp35
 70
     1
102
RTVSPost2010Prop36
280
     0
102
RTVSPost2010PropOp36
 70
     1
102
RTVSPost2010Prop37
 90
       50
102
RTVSPost2010PropOp37
 70
     1
102
RTVSPost2010Prop38
140
0.0
102
RTVSPost2010PropOp38
 70
     1
102
RTVSPost2010Prop39
140
1.0
102
RTVSPost2010PropOp39
 70
     1
102
RTVSPost2010Prop40
 90
        0
102
RTVSPost2010PropOp40
 70
     1
102
RTVSPost2010Prop41ColorIndex
 90
       18
102
RTVSPost2010Prop41ColorRGB
 90
        0
102
RTVSPost2010PropOp41
 70
     1
102
RTVSPost2010Prop42
 90
       50
102
RTVSPost2010PropOp42
 70
     1
102
RTVSPost2010Prop43
 90
        3
102
RTVSPost2010PropOp43
 70
     1
102
RTVSPost2010Prop44ColorIndex
 90
        5
102
RTVSPost2010Prop44ColorRGB
 90
      255
102
RTVSPost2010PropOp44
 70
     1
102
RTVSPost2010Prop45
280
     0
102
RTVSPost2010PropOp45
 70
     1
102
RTVSPost2010Prop46
 90
       50
102
RTVSPost2010PropOp46
 70
     1
102
RTVSPost2010Prop47
 90
       50
102
RTVSPost2010PropOp47
 70
     1
102
RTVSPost2010Prop48
 90
       50
102
RTVSPost2010PropOp48
 70
     1
102
RTVSPost2010Prop49
280
     0
102
RTVSPost2010PropOp49
 70
     1
102
RTVSPost2010Prop50
 90
       50
102
RTVSPost2010PropOp50
 70
     1
102
RTVSPost2010Prop51ColorIndex
 90
      256
102
RTVSPost2010Prop51ColorRGB
 90
-16777216
102
RTVSPost2010PropOp51
 70
     0
102
RTVSPost2010Prop52
140
1.0
102
RTVSPost2010PropOp52
 70
     0
102
RTVSPost2010Prop53
 90
        2
102
RTVSPost2010PropOp53
 70
     1
102
RTVSPost2010Prop54
  1
strokes_ogs.tif
102
RTVSPost2010PropOp54
 70
     1
102
RTVSPost2010Prop55
280
     0
102
RTVSPost2010PropOp55
 70
     1
102
RTVSPost2010Prop56
140
1.0
102
RTVSPost2010PropOp56
 70
     1
102
RTVSPost2010Prop57
140
1.0
102
RTVSPost2010PropOp57
 70
     1
102
RTVSPropertyOp0
 70
     1
102
RTVSPropertyOp1
 70
     1
102
RTVSPropertyOp2
 70
     1
102
RTVSPropertyOp3
 70
     1
102
RTVSPropertyOp4
 70
     1
102
RTVSPropertyOp5
 70
     1
102
RTVSPropertyOp6
 70
     1
102
RTVSPropertyOp7
 70
     1
102
RTVSPropertyOp8
 70
     1
102
RTVSPropertyOp9
 70
     1
102
RTVSPropertyOp10
 70
     1
102
RTVSPropertyOp11
 70
     1
102
RTVSPropertyOp12
 70
     1
102
RTVSPropertyOp13
 70
     1
102
RTVSPropertyOp14
 70
     1
102
RTVSPropertyOp15
 70
     1
102
RTVSPropertyOp16
 70
     1
102
RTVSPropertyOp17
 70
     1
102
RTVSPropertyOp18
 70
     1
102
RTVSPropertyOp19
 70
     1
102
RTVSPropertyOp20
 70
     1
102
RTVSPropertyOp21
 70
     1
102
RTVSPropertyOp22
 70
     1
102
RTVSPropertyOp23
 70
     1
102
RTVSPropertyOp24
 70
     1
102
RTVSPropertyOp25
 70
     1
102
RTVSPropertyOp26
 70
     1
102
RTVSPropertyOp27
 70
     1
102
RTVSPropertyOp28
 70
     1
102
RTVSPropertyOp29
 70
     1
102
RTVSPropertyOp30
 70
     1
102
RTVSPropertyOp31
 70
     1
102
RTVSPropertyOp32
 70
     1
102
RTVSPropertyOp33
 70
     1
102
RTVSPropertyOp34
 70
     1
102
RTVSPropertyOp35
 70
     1
102
RTVSPropertyOp36
 70
     1
102
RTVSPropertyOp37
 70
     1
102
RTVSPropertyOp38
 70
     1
102
RTVSPropertyOp39
 70
     1
102
RTVSPropertyOp40
 70
     1
102
RTVSPropertyOp41
 70
     1
102
RTVSPropertyOp42
 70
     1
102
RTVSPropertyOp43
 70
     1
102
RTVSPropertyOp44
 70
     1
102
RTVSPropertyOp45
 70
     1
102
RTVSPropertyOp46
 70
     1
102
RTVSPropertyOp47
 70
     1
102
RTVSPropertyOp48
 70
     1
102
RTVSPropertyOp49
 70
     1
102
RTVSPropertyOp50
 70
     1
102
RTVSPropertyOp51
 70
     0
102
RTVSPropertyOp52
 70
     0
102
RTVSPropertyOp53
 70
     1
102
RTVSPropertyOp54
 70
     1
102
RTVSPropertyOp55
 70
     1
102
RTVSPropertyOp56
 70
     1
102
RTVSPropertyOp57
 70
     1
102
RTVSPropertyOp58
 70
     1
102
RTVSPropertyOp59
 70
     1
102
RTVSPropertyOp60
 70
     1
102
RTVSPropertyOp61
 70
     1
102
RTVSPropertyOp62
 70
     1
  0
XRECORD
  5
A08
102
{ACAD_REACTORS
330
A07
102
}
330
A07
100
AcDbXrecord
280
     1
102
RTVSPost2010Prop28
280
     0
102
RTVSPost2010PropOp28
 70
     1
102
RTVSPost2010Prop29
280
     1
102
RTVSPost2010PropOp29
 70
     1
102
RTVSPost2010Prop30
280
     1
102
RTVSPost2010PropOp30
 70
     1
102
RTVSPost2010Prop31
280
     0
102
RTVSPost2010PropOp31
 70
     1
102
RTVSPost2010Prop32
280
     0
102
RTVSPost2010PropOp32
 70
     1
102
RTVSPost2010Prop33
280
     0
102
RTVSPost2010PropOp33
 70
     1
102
RTVSPost2010Prop34
280
     0
102
RTVSPost2010PropOp34
 70
     1
102
RTVSPost2010Prop35
280
     0
102
RTVSPost2010PropOp35
 70
     1
102
RTVSPost2010Prop36
280
     0
102
RTVSPost2010PropOp36
 70
     1
102
RTVSPost2010Prop37
 90
       50
102
RTVSPost2010PropOp37
 70
     1
102
RTVSPost2010Prop38
140
0.0
102
RTVSPost2010PropOp38
 70
     1
102
RTVSPost2010Prop39
140
1.0
102
RTVSPost2010PropOp39
 70
     1
102
RTVSPost2010Prop40
 90
        0
102
RTVSPost2010PropOp40
 70
     1
102
RTVSPost2010Prop41ColorIndex
 90
       18
102
RTVSPost2010Prop41ColorRGB
 90
        0
102
RTVSPost2010PropOp41
 70
     1
102
RTVSPost2010Prop42
 90
       50
102
RTVSPost2010PropOp42
 70
     1
102
RTVSPost2010Prop43
 90
        3
102
RTVSPost2010PropOp43
 70
     1
102
RTVSPost2010Prop44ColorIndex
 90
        5
102
RTVSPost2010Prop44ColorRGB
 90
      255
102
RTVSPost2010PropOp44
 70
     1
102
RTVSPost2010Prop45
280
     0
102
RTVSPost2010PropOp45
 70
     1
102
RTVSPost2010Prop46
 90
       50
102
RTVSPost2010PropOp46
 70
     1
102
RTVSPost2010Prop47
 90
       50
102
RTVSPost2010PropOp47
 70
     1
102
RTVSPost2010Prop48
 90
       50
102
RTVSPost2010PropOp48
 70
     1
102
RTVSPost2010Prop49
280
     0
102
RTVSPost2010PropOp49
 70
     1
102
RTVSPost2010Prop50
 90
       50
102
RTVSPost2010PropOp50
 70
     1
102
RTVSPost2010Prop51ColorIndex
 90
      256
102
RTVSPost2010Prop51ColorRGB
 90
-16777216
102
RTVSPost2010PropOp51
 70
     0
102
RTVSPost2010Prop52
140
1.0
102
RTVSPost2010PropOp52
 70
     0
102
RTVSPost2010Prop53
 90
        2
102
RTVSPost2010PropOp53
 70
     1
102
RTVSPost2010Prop54
  1
strokes_ogs.tif
102
RTVSPost2010PropOp54
 70
     1
102
RTVSPost2010Prop55
280
     0
102
RTVSPost2010PropOp55
 70
     1
102
RTVSPost2010Prop56
140
1.0
102
RTVSPost2010PropOp56
 70
     1
102
RTVSPost2010Prop57
140
1.0
102
RTVSPost2010PropOp57
 70
     1
102
RTVSPropertyOp0
 70
     1
102
RTVSPropertyOp1
 70
     1
102
RTVSPropertyOp2
 70
     1
102
RTVSPropertyOp3
 70
     1
102
RTVSPropertyOp4
 70
     1
102
RTVSPropertyOp5
 70
     1
102
RTVSPropertyOp6
 70
     1
102
RTVSPropertyOp7
 70
     1
102
RTVSPropertyOp8
 70
     1
102
RTVSPropertyOp9
 70
     1
102
RTVSPropertyOp10
 70
     1
102
RTVSPropertyOp11
 70
     1
102
RTVSPropertyOp12
 70
     1
102
RTVSPropertyOp13
 70
     1
102
RTVSPropertyOp14
 70
     1
102
RTVSPropertyOp15
 70
     1
102
RTVSPropertyOp16
 70
     1
102
RTVSPropertyOp17
 70
     1
102
RTVSPropertyOp18
 70
     1
102
RTVSPropertyOp19
 70
     1
102
RTVSPropertyOp20
 70
     1
102
RTVSPropertyOp21
 70
     1
102
RTVSPropertyOp22
 70
     1
102
RTVSPropertyOp23
 70
     1
102
RTVSPropertyOp24
 70
     1
102
RTVSPropertyOp25
 70
     1
102
RTVSPropertyOp26
 70
     1
102
RTVSPropertyOp27
 70
     1
102
RTVSPropertyOp28
 70
     1
102
RTVSPropertyOp29
 70
     1
102
RTVSPropertyOp30
 70
     1
102
RTVSPropertyOp31
 70
     1
102
RTVSPropertyOp32
 70
     1
102
RTVSPropertyOp33
 70
     1
102
RTVSPropertyOp34
 70
     1
102
RTVSPropertyOp35
 70
     1
102
RTVSPropertyOp36
 70
     1
102
RTVSPropertyOp37
 70
     1
102
RTVSPropertyOp38
 70
     1
102
RTVSPropertyOp39
 70
     1
102
RTVSPropertyOp40
 70
     1
102
RTVSPropertyOp41
 70
     1
102
RTVSPropertyOp42
 70
     1
102
RTVSPropertyOp43
 70
     1
102
RTVSPropertyOp44
 70
     1
102
RTVSPropertyOp45
 70
     1
102
RTVSPropertyOp46
 70
     1
102
RTVSPropertyOp47
 70
     1
102
RTVSPropertyOp48
 70
     1
102
RTVSPropertyOp49
 70
     1
102
RTVSPropertyOp50
 70
     1
102
RTVSPropertyOp51
 70
     0
102
RTVSPropertyOp52
 70
     0
102
RTVSPropertyOp53
 70
     1
102
RTVSPropertyOp54
 70
     1
102
RTVSPropertyOp55
 70
     1
102
RTVSPropertyOp56
 70
     1
102
RTVSPropertyOp57
 70
     1
102
RTVSPropertyOp58
 70
     1
102
RTVSPropertyOp59
 70
     1
102
RTVSPropertyOp60
 70
     1
102
RTVSPropertyOp61
 70
     1
102
RTVSPropertyOp62
 70
     1
  0
XRECORD
  5
A02
102
{ACAD_REACTORS
330
A01
102
}
330
A01
100
AcDbXrecord
280
     1
102
RTVSPost2010Prop28
280
     0
102
RTVSPost2010PropOp28
 70
     1
102
RTVSPost2010Prop29
280
     1
102
RTVSPost2010PropOp29
 70
     1
102
RTVSPost2010Prop30
280
     1
102
RTVSPost2010PropOp30
 70
     1
102
RTVSPost2010Prop31
280
     0
102
RTVSPost2010PropOp31
 70
     1
102
RTVSPost2010Prop32
280
     0
102
RTVSPost2010PropOp32
 70
     1
102
RTVSPost2010Prop33
280
     0
102
RTVSPost2010PropOp33
 70
     1
102
RTVSPost2010Prop34
280
     0
102
RTVSPost2010PropOp34
 70
     1
102
RTVSPost2010Prop35
280
     0
102
RTVSPost2010PropOp35
 70
     1
102
RTVSPost2010Prop36
280
     0
102
RTVSPost2010PropOp36
 70
     1
102
RTVSPost2010Prop37
 90
       50
102
RTVSPost2010PropOp37
 70
     1
102
RTVSPost2010Prop38
140
0.0
102
RTVSPost2010PropOp38
 70
     1
102
RTVSPost2010Prop39
140
1.0
102
RTVSPost2010PropOp39
 70
     1
102
RTVSPost2010Prop40
 90
        0
102
RTVSPost2010PropOp40
 70
     1
102
RTVSPost2010Prop41ColorIndex
 90
       18
102
RTVSPost2010Prop41ColorRGB
 90
        0
102
RTVSPost2010PropOp41
 70
     1
102
RTVSPost2010Prop42
 90
       50
102
RTVSPost2010PropOp42
 70
     1
102
RTVSPost2010Prop43
 90
        3
102
RTVSPost2010PropOp43
 70
     1
102
RTVSPost2010Prop44ColorIndex
 90
        5
102
RTVSPost2010Prop44ColorRGB
 90
      255
102
RTVSPost2010PropOp44
 70
     1
102
RTVSPost2010Prop45
280
     0
102
RTVSPost2010PropOp45
 70
     1
102
RTVSPost2010Prop46
 90
       50
102
RTVSPost2010PropOp46
 70
     1
102
RTVSPost2010Prop47
 90
       50
102
RTVSPost2010PropOp47
 70
     1
102
RTVSPost2010Prop48
 90
       50
102
RTVSPost2010PropOp48
 70
     1
102
RTVSPost2010Prop49
280
     0
102
RTVSPost2010PropOp49
 70
     1
102
RTVSPost2010Prop50
 90
       50
102
RTVSPost2010PropOp50
 70
     1
102
RTVSPost2010Prop51ColorIndex
 90
      256
102
RTVSPost2010Prop51ColorRGB
 90
-16777216
102
RTVSPost2010PropOp51
 70
     0
102
RTVSPost2010Prop52
140
1.0
102
RTVSPost2010PropOp52
 70
     0
102
RTVSPost2010Prop53
 90
        2
102
RTVSPost2010PropOp53
 70
     1
102
RTVSPost2010Prop54
  1
strokes_ogs.tif
102
RTVSPost2010PropOp54
 70
     1
102
RTVSPost2010Prop55
280
     0
102
RTVSPost2010PropOp55
 70
     1
102
RTVSPost2010Prop56
140
1.0
102
RTVSPost2010PropOp56
 70
     1
102
RTVSPost2010Prop57
140
1.0
102
RTVSPost2010PropOp57
 70
     1
102
RTVSPropertyOp0
 70
     1
102
RTVSPropertyOp1
 70
     1
102
RTVSPropertyOp2
 70
     1
102
RTVSPropertyOp3
 70
     1
102
RTVSPropertyOp4
 70
     1
102
RTVSPropertyOp5
 70
     1
102
RTVSPropertyOp6
 70
     1
102
RTVSPropertyOp7
 70
     1
102
RTVSPropertyOp8
 70
     1
102
RTVSPropertyOp9
 70
     1
102
RTVSPropertyOp10
 70
     1
102
RTVSPropertyOp11
 70
     1
102
RTVSPropertyOp12
 70
     1
102
RTVSPropertyOp13
 70
     1
102
RTVSPropertyOp14
 70
     1
102
RTVSPropertyOp15
 70
     1
102
RTVSPropertyOp16
 70
     1
102
RTVSPropertyOp17
 70
     1
102
RTVSPropertyOp18
 70
     1
102
RTVSPropertyOp19
 70
     1
102
RTVSPropertyOp20
 70
     1
102
RTVSPropertyOp21
 70
     1
102
RTVSPropertyOp22
 70
     1
102
RTVSPropertyOp23
 70
     1
102
RTVSPropertyOp24
 70
     1
102
RTVSPropertyOp25
 70
     1
102
RTVSPropertyOp26
 70
     1
102
RTVSPropertyOp27
 70
     1
102
RTVSPropertyOp28
 70
     1
102
RTVSPropertyOp29
 70
     1
102
RTVSPropertyOp30
 70
     1
102
RTVSPropertyOp31
 70
     1
102
RTVSPropertyOp32
 70
     1
102
RTVSPropertyOp33
 70
     1
102
RTVSPropertyOp34
 70
     1
102
RTVSPropertyOp35
 70
     1
102
RTVSPropertyOp36
 70
     1
102
RTVSPropertyOp37
 70
     1
102
RTVSPropertyOp38
 70
     1
102
RTVSPropertyOp39
 70
     1
102
RTVSPropertyOp40
 70
     1
102
RTVSPropertyOp41
 70
     1
102
RTVSPropertyOp42
 70
     1
102
RTVSPropertyOp43
 70
     1
102
RTVSPropertyOp44
 70
     1
102
RTVSPropertyOp45
 70
     1
102
RTVSPropertyOp46
 70
     1
102
RTVSPropertyOp47
 70
     1
102
RTVSPropertyOp48
 70
     1
102
RTVSPropertyOp49
 70
     1
102
RTVSPropertyOp50
 70
     1
102
RTVSPropertyOp51
 70
     0
102
RTVSPropertyOp52
 70
     0
102
RTVSPropertyOp53
 70
     1
102
RTVSPropertyOp54
 70
     1
102
RTVSPropertyOp55
 70
     1
102
RTVSPropertyOp56
 70
     1
102
RTVSPropertyOp57
 70
     1
102
RTVSPropertyOp58
 70
     1
102
RTVSPropertyOp59
 70
     1
102
RTVSPropertyOp60
 70
     1
102
RTVSPropertyOp61
 70
     1
102
RTVSPropertyOp62
 70
     1
  0
XRECORD
  5
A04
102
{ACAD_REACTORS
330
A03
102
}
330
A03
100
AcDbXrecord
280
     1
102
RTVSPost2010Prop28
280
     0
102
RTVSPost2010PropOp28
 70
     1
102
RTVSPost2010Prop29
280
     1
102
RTVSPost2010PropOp29
 70
     1
102
RTVSPost2010Prop30
280
     1
102
RTVSPost2010PropOp30
 70
     1
102
RTVSPost2010Prop31
280
     0
102
RTVSPost2010PropOp31
 70
     1
102
RTVSPost2010Prop32
280
     0
102
RTVSPost2010PropOp32
 70
     1
102
RTVSPost2010Prop33
280
     0
102
RTVSPost2010PropOp33
 70
     1
102
RTVSPost2010Prop34
280
     0
102
RTVSPost2010PropOp34
 70
     1
102
RTVSPost2010Prop35
280
     0
102
RTVSPost2010PropOp35
 70
     1
102
RTVSPost2010Prop36
280
     0
102
RTVSPost2010PropOp36
 70
     1
102
RTVSPost2010Prop37
 90
       50
102
RTVSPost2010PropOp37
 70
     1
102
RTVSPost2010Prop38
140
0.0
102
RTVSPost2010PropOp38
 70
     1
102
RTVSPost2010Prop39
140
1.0
102
RTVSPost2010PropOp39
 70
     1
102
RTVSPost2010Prop40
 90
        0
102
RTVSPost2010PropOp40
 70
     1
102
RTVSPost2010Prop41ColorIndex
 90
       18
102
RTVSPost2010Prop41ColorRGB
 90
        0
102
RTVSPost2010PropOp41
 70
     1
102
RTVSPost2010Prop42
 90
       50
102
RTVSPost2010PropOp42
 70
     1
102
RTVSPost2010Prop43
 90
        3
102
RTVSPost2010PropOp43
 70
     1
102
RTVSPost2010Prop44ColorIndex
 90
        5
102
RTVSPost2010Prop44ColorRGB
 90
      255
102
RTVSPost2010PropOp44
 70
     1
102
RTVSPost2010Prop45
280
     0
102
RTVSPost2010PropOp45
 70
     1
102
RTVSPost2010Prop46
 90
       50
102
RTVSPost2010PropOp46
 70
     1
102
RTVSPost2010Prop47
 90
       50
102
RTVSPost2010PropOp47
 70
     1
102
RTVSPost2010Prop48
 90
       50
102
RTVSPost2010PropOp48
 70
     1
102
RTVSPost2010Prop49
280
     0
102
RTVSPost2010PropOp49
 70
     1
102
RTVSPost2010Prop50
 90
       50
102
RTVSPost2010PropOp50
 70
     1
102
RTVSPost2010Prop51ColorIndex
 90
      256
102
RTVSPost2010Prop51ColorRGB
 90
-16777216
102
RTVSPost2010PropOp51
 70
     0
102
RTVSPost2010Prop52
140
1.0
102
RTVSPost2010PropOp52
 70
     0
102
RTVSPost2010Prop53
 90
        2
102
RTVSPost2010PropOp53
 70
     1
102
RTVSPost2010Prop54
  1
strokes_ogs.tif
102
RTVSPost2010PropOp54
 70
     1
102
RTVSPost2010Prop55
280
     0
102
RTVSPost2010PropOp55
 70
     1
102
RTVSPost2010Prop56
140
1.0
102
RTVSPost2010PropOp56
 70
     1
102
RTVSPost2010Prop57
140
1.0
102
RTVSPost2010PropOp57
 70
     1
102
RTVSPropertyOp0
 70
     1
102
RTVSPropertyOp1
 70
     1
102
RTVSPropertyOp2
 70
     1
102
RTVSPropertyOp3
 70
     1
102
RTVSPropertyOp4
 70
     1
102
RTVSPropertyOp5
 70
     1
102
RTVSPropertyOp6
 70
     1
102
RTVSPropertyOp7
 70
     1
102
RTVSPropertyOp8
 70
     1
102
RTVSPropertyOp9
 70
     1
102
RTVSPropertyOp10
 70
     1
102
RTVSPropertyOp11
 70
     1
102
RTVSPropertyOp12
 70
     1
102
RTVSPropertyOp13
 70
     1
102
RTVSPropertyOp14
 70
     1
102
RTVSPropertyOp15
 70
     1
102
RTVSPropertyOp16
 70
     1
102
RTVSPropertyOp17
 70
     1
102
RTVSPropertyOp18
 70
     1
102
RTVSPropertyOp19
 70
     1
102
RTVSPropertyOp20
 70
     1
102
RTVSPropertyOp21
 70
     1
102
RTVSPropertyOp22
 70
     1
102
RTVSPropertyOp23
 70
     1
102
RTVSPropertyOp24
 70
     1
102
RTVSPropertyOp25
 70
     1
102
RTVSPropertyOp26
 70
     1
102
RTVSPropertyOp27
 70
     1
102
RTVSPropertyOp28
 70
     1
102
RTVSPropertyOp29
 70
     1
102
RTVSPropertyOp30
 70
     1
102
RTVSPropertyOp31
 70
     1
102
RTVSPropertyOp32
 70
     1
102
RTVSPropertyOp33
 70
     1
102
RTVSPropertyOp34
 70
     1
102
RTVSPropertyOp35
 70
     1
102
RTVSPropertyOp36
 70
     1
102
RTVSPropertyOp37
 70
     1
102
RTVSPropertyOp38
 70
     1
102
RTVSPropertyOp39
 70
     1
102
RTVSPropertyOp40
 70
     1
102
RTVSPropertyOp41
 70
     1
102
RTVSPropertyOp42
 70
     1
102
RTVSPropertyOp43
 70
     1
102
RTVSPropertyOp44
 70
     1
102
RTVSPropertyOp45
 70
     1
102
RTVSPropertyOp46
 70
     1
102
RTVSPropertyOp47
 70
     1
102
RTVSPropertyOp48
 70
     1
102
RTVSPropertyOp49
 70
     1
102
RTVSPropertyOp50
 70
     1
102
RTVSPropertyOp51
 70
     0
102
RTVSPropertyOp52
 70
     0
102
RTVSPropertyOp53
 70
     1
102
RTVSPropertyOp54
 70
     1
102
RTVSPropertyOp55
 70
     1
102
RTVSPropertyOp56
 70
     1
102
RTVSPropertyOp57
 70
     1
102
RTVSPropertyOp58
 70
     1
102
RTVSPropertyOp59
 70
     1
102
RTVSPropertyOp60
 70
     1
102
RTVSPropertyOp61
 70
     1
102
RTVSPropertyOp62
 70
     1
  0
XRECORD
  5
9FA
102
{ACAD_REACTORS
330
9F9
102
}
330
9F9
100
AcDbXrecord
280
     1
102
RTVSPost2010Prop28
280
     0
102
RTVSPost2010PropOp28
 70
     1
102
RTVSPost2010Prop29
280
     1
102
RTVSPost2010PropOp29
 70
     1
102
RTVSPost2010Prop30
280
     1
102
RTVSPost2010PropOp30
 70
     1
102
RTVSPost2010Prop31
280
     0
102
RTVSPost2010PropOp31
 70
     1
102
RTVSPost2010Prop32
280
     0
102
RTVSPost2010PropOp32
 70
     1
102
RTVSPost2010Prop33
280
     0
102
RTVSPost2010PropOp33
 70
     1
102
RTVSPost2010Prop34
280
     0
102
RTVSPost2010PropOp34
 70
     1
102
RTVSPost2010Prop35
280
     0
102
RTVSPost2010PropOp35
 70
     1
102
RTVSPost2010Prop36
280
     0
102
RTVSPost2010PropOp36
 70
     1
102
RTVSPost2010Prop37
 90
       50
102
RTVSPost2010PropOp37
 70
     1
102
RTVSPost2010Prop38
140
0.0
102
RTVSPost2010PropOp38
 70
     1
102
RTVSPost2010Prop39
140
1.0
102
RTVSPost2010PropOp39
 70
     1
102
RTVSPost2010Prop40
 90
        0
102
RTVSPost2010PropOp40
 70
     1
102
RTVSPost2010Prop41ColorIndex
 90
       18
102
RTVSPost2010Prop41ColorRGB
 90
        0
102
RTVSPost2010PropOp41
 70
     1
102
RTVSPost2010Prop42
 90
       50
102
RTVSPost2010PropOp42
 70
     1
102
RTVSPost2010Prop43
 90
        3
102
RTVSPost2010PropOp43
 70
     1
102
RTVSPost2010Prop44ColorIndex
 90
        5
102
RTVSPost2010Prop44ColorRGB
 90
      255
102
RTVSPost2010PropOp44
 70
     1
102
RTVSPost2010Prop45
280
     0
102
RTVSPost2010PropOp45
 70
     1
102
RTVSPost2010Prop46
 90
       50
102
RTVSPost2010PropOp46
 70
     1
102
RTVSPost2010Prop47
 90
       50
102
RTVSPost2010PropOp47
 70
     1
102
RTVSPost2010Prop48
 90
       50
102
RTVSPost2010PropOp48
 70
     1
102
RTVSPost2010Prop49
280
     0
102
RTVSPost2010PropOp49
 70
     1
102
RTVSPost2010Prop50
 90
       50
102
RTVSPost2010PropOp50
 70
     1
102
RTVSPost2010Prop51ColorIndex
 90
      256
102
RTVSPost2010Prop51ColorRGB
 90
-16777216
102
RTVSPost2010PropOp51
 70
     0
102
RTVSPost2010Prop52
140
1.0
102
RTVSPost2010PropOp52
 70
     0
102
RTVSPost2010Prop53
 90
        2
102
RTVSPost2010PropOp53
 70
     1
102
RTVSPost2010Prop54
  1
strokes_ogs.tif
102
RTVSPost2010PropOp54
 70
     1
102
RTVSPost2010Prop55
280
     0
102
RTVSPost2010PropOp55
 70
     1
102
RTVSPost2010Prop56
140
1.0
102
RTVSPost2010PropOp56
 70
     1
102
RTVSPost2010Prop57
140
1.0
102
RTVSPost2010PropOp57
 70
     1
102
RTVSPropertyOp0
 70
     1
102
RTVSPropertyOp1
 70
     1
102
RTVSPropertyOp2
 70
     1
102
RTVSPropertyOp3
 70
     1
102
RTVSPropertyOp4
 70
     1
102
RTVSPropertyOp5
 70
     1
102
RTVSPropertyOp6
 70
     1
102
RTVSPropertyOp7
 70
     1
102
RTVSPropertyOp8
 70
     1
102
RTVSPropertyOp9
 70
     1
102
RTVSPropertyOp10
 70
     1
102
RTVSPropertyOp11
 70
     1
102
RTVSPropertyOp12
 70
     1
102
RTVSPropertyOp13
 70
     1
102
RTVSPropertyOp14
 70
     1
102
RTVSPropertyOp15
 70
     1
102
RTVSPropertyOp16
 70
     1
102
RTVSPropertyOp17
 70
     1
102
RTVSPropertyOp18
 70
     1
102
RTVSPropertyOp19
 70
     1
102
RTVSPropertyOp20
 70
     1
102
RTVSPropertyOp21
 70
     1
102
RTVSPropertyOp22
 70
     1
102
RTVSPropertyOp23
 70
     1
102
RTVSPropertyOp24
 70
     1
102
RTVSPropertyOp25
 70
     1
102
RTVSPropertyOp26
 70
     1
102
RTVSPropertyOp27
 70
     1
102
RTVSPropertyOp28
 70
     1
102
RTVSPropertyOp29
 70
     1
102
RTVSPropertyOp30
 70
     1
102
RTVSPropertyOp31
 70
     1
102
RTVSPropertyOp32
 70
     1
102
RTVSPropertyOp33
 70
     1
102
RTVSPropertyOp34
 70
     1
102
RTVSPropertyOp35
 70
     1
102
RTVSPropertyOp36
 70
     1
102
RTVSPropertyOp37
 70
     1
102
RTVSPropertyOp38
 70
     1
102
RTVSPropertyOp39
 70
     1
102
RTVSPropertyOp40
 70
     1
102
RTVSPropertyOp41
 70
     1
102
RTVSPropertyOp42
 70
     1
102
RTVSPropertyOp43
 70
     1
102
RTVSPropertyOp44
 70
     1
102
RTVSPropertyOp45
 70
     1
102
RTVSPropertyOp46
 70
     1
102
RTVSPropertyOp47
 70
     1
102
RTVSPropertyOp48
 70
     1
102
RTVSPropertyOp49
 70
     1
102
RTVSPropertyOp50
 70
     1
102
RTVSPropertyOp51
 70
     0
102
RTVSPropertyOp52
 70
     0
102
RTVSPropertyOp53
 70
     1
102
RTVSPropertyOp54
 70
     1
102
RTVSPropertyOp55
 70
     1
102
RTVSPropertyOp56
 70
     1
102
RTVSPropertyOp57
 70
     1
102
RTVSPropertyOp58
 70
     1
102
RTVSPropertyOp59
 70
     1
102
RTVSPropertyOp60
 70
     1
102
RTVSPropertyOp61
 70
     1
102
RTVSPropertyOp62
 70
     1
  0
XRECORD
  5
9EE
102
{ACAD_REACTORS
330
9ED
102
}
330
9ED
100
AcDbXrecord
280
     1
102
RTVSPost2010Prop28
280
     0
102
RTVSPost2010PropOp28
 70
     1
102
RTVSPost2010Prop29
280
     1
102
RTVSPost2010PropOp29
 70
     1
102
RTVSPost2010Prop30
280
     1
102
RTVSPost2010PropOp30
 70
     1
102
RTVSPost2010Prop31
280
     0
102
RTVSPost2010PropOp31
 70
     1
102
RTVSPost2010Prop32
280
     0
102
RTVSPost2010PropOp32
 70
     1
102
RTVSPost2010Prop33
280
     0
102
RTVSPost2010PropOp33
 70
     1
102
RTVSPost2010Prop34
280
     0
102
RTVSPost2010PropOp34
 70
     1
102
RTVSPost2010Prop35
280
     0
102
RTVSPost2010PropOp35
 70
     1
102
RTVSPost2010Prop36
280
     0
102
RTVSPost2010PropOp36
 70
     1
102
RTVSPost2010Prop37
 90
       50
102
RTVSPost2010PropOp37
 70
     1
102
RTVSPost2010Prop38
140
0.0
102
RTVSPost2010PropOp38
 70
     1
102
RTVSPost2010Prop39
140
1.0
102
RTVSPost2010PropOp39
 70
     1
102
RTVSPost2010Prop40
 90
        0
102
RTVSPost2010PropOp40
 70
     1
102
RTVSPost2010Prop41ColorIndex
 90
       18
102
RTVSPost2010Prop41ColorRGB
 90
        0
102
RTVSPost2010PropOp41
 70
     1
102
RTVSPost2010Prop42
 90
       50
102
RTVSPost2010PropOp42
 70
     1
102
RTVSPost2010Prop43
 90
        3
102
RTVSPost2010PropOp43
 70
     1
102
RTVSPost2010Prop44ColorIndex
 90
        5
102
RTVSPost2010Prop44ColorRGB
 90
      255
102
RTVSPost2010PropOp44
 70
     1
102
RTVSPost2010Prop45
280
     0
102
RTVSPost2010PropOp45
 70
     1
102
RTVSPost2010Prop46
 90
       50
102
RTVSPost2010PropOp46
 70
     1
102
RTVSPost2010Prop47
 90
       50
102
RTVSPost2010PropOp47
 70
     1
102
RTVSPost2010Prop48
 90
       50
102
RTVSPost2010PropOp48
 70
     1
102
RTVSPost2010Prop49
280
     0
102
RTVSPost2010PropOp49
 70
     1
102
RTVSPost2010Prop50
 90
       50
102
RTVSPost2010PropOp50
 70
     1
102
RTVSPost2010Prop51ColorIndex
 90
      256
102
RTVSPost2010Prop51ColorRGB
 90
-16777216
102
RTVSPost2010PropOp51
 70
     0
102
RTVSPost2010Prop52
140
1.0
102
RTVSPost2010PropOp52
 70
     0
102
RTVSPost2010Prop53
 90
        2
102
RTVSPost2010PropOp53
 70
     1
102
RTVSPost2010Prop54
  1
strokes_ogs.tif
102
RTVSPost2010PropOp54
 70
     1
102
RTVSPost2010Prop55
280
     0
102
RTVSPost2010PropOp55
 70
     1
102
RTVSPost2010Prop56
140
1.0
102
RTVSPost2010PropOp56
 70
     1
102
RTVSPost2010Prop57
140
1.0
102
RTVSPost2010PropOp57
 70
     1
102
RTVSPropertyOp0
 70
     1
102
RTVSPropertyOp1
 70
     1
102
RTVSPropertyOp2
 70
     1
102
RTVSPropertyOp3
 70
     1
102
RTVSPropertyOp4
 70
     1
102
RTVSPropertyOp5
 70
     1
102
RTVSPropertyOp6
 70
     1
102
RTVSPropertyOp7
 70
     1
102
RTVSPropertyOp8
 70
     1
102
RTVSPropertyOp9
 70
     1
102
RTVSPropertyOp10
 70
     1
102
RTVSPropertyOp11
 70
     1
102
RTVSPropertyOp12
 70
     1
102
RTVSPropertyOp13
 70
     1
102
RTVSPropertyOp14
 70
     1
102
RTVSPropertyOp15
 70
     1
102
RTVSPropertyOp16
 70
     1
102
RTVSPropertyOp17
 70
     1
102
RTVSPropertyOp18
 70
     1
102
RTVSPropertyOp19
 70
     1
102
RTVSPropertyOp20
 70
     1
102
RTVSPropertyOp21
 70
     1
102
RTVSPropertyOp22
 70
     1
102
RTVSPropertyOp23
 70
     1
102
RTVSPropertyOp24
 70
     1
102
RTVSPropertyOp25
 70
     1
102
RTVSPropertyOp26
 70
     1
102
RTVSPropertyOp27
 70
     1
102
RTVSPropertyOp28
 70
     1
102
RTVSPropertyOp29
 70
     1
102
RTVSPropertyOp30
 70
     1
102
RTVSPropertyOp31
 70
     1
102
RTVSPropertyOp32
 70
     1
102
RTVSPropertyOp33
 70
     1
102
RTVSPropertyOp34
 70
     1
102
RTVSPropertyOp35
 70
     1
102
RTVSPropertyOp36
 70
     1
102
RTVSPropertyOp37
 70
     1
102
RTVSPropertyOp38
 70
     1
102
RTVSPropertyOp39
 70
     1
102
RTVSPropertyOp40
 70
     1
102
RTVSPropertyOp41
 70
     1
102
RTVSPropertyOp42
 70
     1
102
RTVSPropertyOp43
 70
     1
102
RTVSPropertyOp44
 70
     1
102
RTVSPropertyOp45
 70
     1
102
RTVSPropertyOp46
 70
     1
102
RTVSPropertyOp47
 70
     1
102
RTVSPropertyOp48
 70
     1
102
RTVSPropertyOp49
 70
     1
102
RTVSPropertyOp50
 70
     1
102
RTVSPropertyOp51
 70
     0
102
RTVSPropertyOp52
 70
     0
102
RTVSPropertyOp53
 70
     1
102
RTVSPropertyOp54
 70
     1
102
RTVSPropertyOp55
 70
     1
102
RTVSPropertyOp56
 70
     1
102
RTVSPropertyOp57
 70
     1
102
RTVSPropertyOp58
 70
     1
102
RTVSPropertyOp59
 70
     1
102
RTVSPropertyOp60
 70
     1
102
RTVSPropertyOp61
 70
     1
102
RTVSPropertyOp62
 70
     1
  0
XRECORD
  5
A06
102
{ACAD_REACTORS
330
A05
102
}
330
A05
100
AcDbXrecord
280
     1
102
RTVSPost2010Prop28
280
     0
102
RTVSPost2010PropOp28
 70
     1
102
RTVSPost2010Prop29
280
     1
102
RTVSPost2010PropOp29
 70
     1
102
RTVSPost2010Prop30
280
     1
102
RTVSPost2010PropOp30
 70
     1
102
RTVSPost2010Prop31
280
     0
102
RTVSPost2010PropOp31
 70
     1
102
RTVSPost2010Prop32
280
     0
102
RTVSPost2010PropOp32
 70
     1
102
RTVSPost2010Prop33
280
     0
102
RTVSPost2010PropOp33
 70
     1
102
RTVSPost2010Prop34
280
     0
102
RTVSPost2010PropOp34
 70
     1
102
RTVSPost2010Prop35
280
     0
102
RTVSPost2010PropOp35
 70
     1
102
RTVSPost2010Prop36
280
     0
102
RTVSPost2010PropOp36
 70
     1
102
RTVSPost2010Prop37
 90
       50
102
RTVSPost2010PropOp37
 70
     1
102
RTVSPost2010Prop38
140
0.0
102
RTVSPost2010PropOp38
 70
     1
102
RTVSPost2010Prop39
140
1.0
102
RTVSPost2010PropOp39
 70
     1
102
RTVSPost2010Prop40
 90
        0
102
RTVSPost2010PropOp40
 70
     1
102
RTVSPost2010Prop41ColorIndex
 90
       18
102
RTVSPost2010Prop41ColorRGB
 90
        0
102
RTVSPost2010PropOp41
 70
     1
102
RTVSPost2010Prop42
 90
       50
102
RTVSPost2010PropOp42
 70
     1
102
RTVSPost2010Prop43
 90
        3
102
RTVSPost2010PropOp43
 70
     1
102
RTVSPost2010Prop44ColorIndex
 90
        5
102
RTVSPost2010Prop44ColorRGB
 90
      255
102
RTVSPost2010PropOp44
 70
     1
102
RTVSPost2010Prop45
280
     0
102
RTVSPost2010PropOp45
 70
     1
102
RTVSPost2010Prop46
 90
       50
102
RTVSPost2010PropOp46
 70
     1
102
RTVSPost2010Prop47
 90
       50
102
RTVSPost2010PropOp47
 70
     1
102
RTVSPost2010Prop48
 90
       50
102
RTVSPost2010PropOp48
 70
     1
102
RTVSPost2010Prop49
280
     0
102
RTVSPost2010PropOp49
 70
     1
102
RTVSPost2010Prop50
 90
       50
102
RTVSPost2010PropOp50
 70
     1
102
RTVSPost2010Prop51ColorIndex
 90
      256
102
RTVSPost2010Prop51ColorRGB
 90
-16777216
102
RTVSPost2010PropOp51
 70
     0
102
RTVSPost2010Prop52
140
1.0
102
RTVSPost2010PropOp52
 70
     0
102
RTVSPost2010Prop53
 90
        2
102
RTVSPost2010PropOp53
 70
     1
102
RTVSPost2010Prop54
  1
strokes_ogs.tif
102
RTVSPost2010PropOp54
 70
     1
102
RTVSPost2010Prop55
280
     0
102
RTVSPost2010PropOp55
 70
     1
102
RTVSPost2010Prop56
140
1.0
102
RTVSPost2010PropOp56
 70
     1
102
RTVSPost2010Prop57
140
1.0
102
RTVSPost2010PropOp57
 70
     1
102
RTVSPropertyOp0
 70
     1
102
RTVSPropertyOp1
 70
     1
102
RTVSPropertyOp2
 70
     1
102
RTVSPropertyOp3
 70
     1
102
RTVSPropertyOp4
 70
     1
102
RTVSPropertyOp5
 70
     1
102
RTVSPropertyOp6
 70
     1
102
RTVSPropertyOp7
 70
     1
102
RTVSPropertyOp8
 70
     1
102
RTVSPropertyOp9
 70
     1
102
RTVSPropertyOp10
 70
     1
102
RTVSPropertyOp11
 70
     1
102
RTVSPropertyOp12
 70
     1
102
RTVSPropertyOp13
 70
     1
102
RTVSPropertyOp14
 70
     1
102
RTVSPropertyOp15
 70
     1
102
RTVSPropertyOp16
 70
     1
102
RTVSPropertyOp17
 70
     1
102
RTVSPropertyOp18
 70
     1
102
RTVSPropertyOp19
 70
     1
102
RTVSPropertyOp20
 70
     1
102
RTVSPropertyOp21
 70
     1
102
RTVSPropertyOp22
 70
     1
102
RTVSPropertyOp23
 70
     1
102
RTVSPropertyOp24
 70
     1
102
RTVSPropertyOp25
 70
     1
102
RTVSPropertyOp26
 70
     1
102
RTVSPropertyOp27
 70
     1
102
RTVSPropertyOp28
 70
     1
102
RTVSPropertyOp29
 70
     1
102
RTVSPropertyOp30
 70
     1
102
RTVSPropertyOp31
 70
     1
102
RTVSPropertyOp32
 70
     1
102
RTVSPropertyOp33
 70
     1
102
RTVSPropertyOp34
 70
     1
102
RTVSPropertyOp35
 70
     1
102
RTVSPropertyOp36
 70
     1
102
RTVSPropertyOp37
 70
     1
102
RTVSPropertyOp38
 70
     1
102
RTVSPropertyOp39
 70
     1
102
RTVSPropertyOp40
 70
     1
102
RTVSPropertyOp41
 70
     1
102
RTVSPropertyOp42
 70
     1
102
RTVSPropertyOp43
 70
     1
102
RTVSPropertyOp44
 70
     1
102
RTVSPropertyOp45
 70
     1
102
RTVSPropertyOp46
 70
     1
102
RTVSPropertyOp47
 70
     1
102
RTVSPropertyOp48
 70
     1
102
RTVSPropertyOp49
 70
     1
102
RTVSPropertyOp50
 70
     1
102
RTVSPropertyOp51
 70
     0
102
RTVSPropertyOp52
 70
     0
102
RTVSPropertyOp53
 70
     1
102
RTVSPropertyOp54
 70
     1
102
RTVSPropertyOp55
 70
     1
102
RTVSPropertyOp56
 70
     1
102
RTVSPropertyOp57
 70
     1
102
RTVSPropertyOp58
 70
     1
102
RTVSPropertyOp59
 70
     1
102
RTVSPropertyOp60
 70
     1
102
RTVSPropertyOp61
 70
     1
102
RTVSPropertyOp62
 70
     1
  0
ENDSEC
  0
EOF
