  0
SECTION
  2
HEADER
  9
$ACADVER
  1
AC1018
  9
$ACADMAINTVER
 70
   104
  9
$DWGCODEPAGE
  3
ANSI_932
  9
$LASTSAVEDBY
  1
CPTIO008
  9
$INSBASE
 10
0.0
 20
0.0
 30
0.0
  9
$EXTMIN
 10
-138.0046986043669
 20
-94.51292826279194
 30
-0.000000000000013
  9
$EXTMAX
 10
138.5030654774138
 20
95.01254614416291
 30
0.0000000000000023
  9
$LIMMIN
 10
-138.0
 20
-94.50000000000001
  9
$LIMMAX
 10
138.5
 20
95.0
  9
$ORTHOMODE
 70
     1
  9
$REGENMODE
 70
     1
  9
$FILLMODE
 70
     1
  9
$QTEXTMODE
 70
     0
  9
$MIRRTEXT
 70
     1
  9
$LTSCALE
 40
0.3
  9
$ATTMODE
 70
     1
  9
$TEXTSIZE
 40
2.5
  9
$TRACEWID
 40
1.0
  9
$TEXTSTYLE
  7
Standard
  9
$CLAYER
  8
0
  9
$CELTYPE
  6
ByLayer
  9
$CECOLOR
 62
   256
  9
$CELTSCALE
 40
1.0
  9
$DISPSILH
 70
     0
  9
$DIMSCALE
 40
1.0
  9
$DIMASZ
 40
2.5
  9
$DIMEXO
 40
0.625
  9
$DIMDLI
 40
3.75
  9
$DIMRND
 40
0.0
  9
$DIMDLE
 40
0.0
  9
$DIMEXE
 40
1.25
  9
$DIMTP
 40
0.0
  9
$DIMTM
 40
0.0
  9
$DIMTXT
 40
2.5
  9
$DIMCEN
 40
2.5
  9
$DIMTSZ
 40
0.0
  9
$DIMTOL
 70
     0
  9
$DIMLIM
 70
     0
  9
$DIMTIH
 70
     0
  9
$DIMTOH
 70
     0
  9
$DIMSE1
 70
     0
  9
$DIMSE2
 70
     0
  9
$DIMTAD
 70
     1
  9
$DIMZIN
 70
     8
  9
$DIMBLK
  1

  9
$DIMASO
 70
     1
  9
$DIMSHO
 70
     1
  9
$DIMPOST
  1

  9
$DIMAPOST
  1

  9
$DIMALT
 70
     0
  9
$DIMALTD
 70
     3
  9
$DIMALTF
 40
0.03937007874016
  9
$DIMLFAC
 40
1.0
  9
$DIMTOFL
 70
     1
  9
$DIMTVP
 40
0.0
  9
$DIMTIX
 70
     0
  9
$DIMSOXD
 70
     0
  9
$DIMSAH
 70
     0
  9
$DIMBLK1
  1

  9
$DIMBLK2
  1

  9
$DIMSTYLE
  2
ISO-25
  9
$DIMCLRD
 70
     0
  9
$DIMCLRE
 70
     0
  9
$DIMCLRT
 70
     0
  9
$DIMTFAC
 40
1.0
  9
$DIMGAP
 40
0.625
  9
$DIMJUST
 70
     0
  9
$DIMSD1
 70
     0
  9
$DIMSD2
 70
     0
  9
$DIMTOLJ
 70
     0
  9
$DIMTZIN
 70
     8
  9
$DIMALTZ
 70
     0
  9
$DIMALTTZ
 70
     0
  9
$DIMUPT
 70
     0
  9
$DIMDEC
 70
     2
  9
$DIMTDEC
 70
     2
  9
$DIMALTU
 70
     2
  9
$DIMALTTD
 70
     3
  9
$DIMTXSTY
  7
Standard
  9
$DIMAUNIT
 70
     0
  9
$DIMADEC
 70
     0
  9
$DIMALTRND
 40
0.0
  9
$DIMAZIN
 70
     0
  9
$DIMDSEP
 70
    44
  9
$DIMATFIT
 70
     3
  9
$DIMFRAC
 70
     0
  9
$DIMLDRBLK
  1

  9
$DIMLUNIT
 70
     2
  9
$DIMLWD
 70
    -2
  9
$DIMLWE
 70
    -2
  9
$DIMTMOVE
 70
     0
  9
$LUNITS
 70
     2
  9
$LUPREC
 70
     4
  9
$SKETCHINC
 40
1.0
  9
$FILLETRAD
 40
10.0
  9
$AUNITS
 70
     0
  9
$AUPREC
 70
     0
  9
$MENU
  1
.
  9
$ELEVATION
 40
0.0
  9
$PELEVATION
 40
0.0
  9
$THICKNESS
 40
0.0
  9
$LIMCHECK
 70
     0
  9
$CHAMFERA
 40
10.0
  9
$CHAMFERB
 40
10.0
  9
$CHAMFERC
 40
20.0
  9
$CHAMFERD
 40
0.0
  9
$SKPOLY
 70
     0
  9
$TDCREATE
 40
2454600.645689016
  9
$TDUCREATE
 40
2454600.270689017
  9
$TDUPDATE
 40
2457450.458035162
  9
$TDUUPDATE
 40
2457450.083035162
  9
$TDINDWG
 40
0.1087865509
  9
$TDUSRTIMER
 40
0.1087554167
  9
$USRTIMER
 70
     1
  9
$ANGBASE
 50
0.0
  9
$ANGDIR
 70
     0
  9
$PDMODE
 70
     0
  9
$PDSIZE
 40
0.0
  9
$PLINEWID
 40
0.0
  9
$SPLFRAME
 70
     0
  9
$SPLINETYPE
 70
     6
  9
$SPLINESEGS
 70
     8
  9
$HANDSEED
  5
BBD
  9
$SURFTAB1
 70
     6
  9
$SURFTAB2
 70
     6
  9
$SURFTYPE
 70
     6
  9
$SURFU
 70
     6
  9
$SURFV
 70
     6
  9
$UCSBASE
  2

  9
$UCSNAME
  2

  9
$UCSORG
 10
0.0
 20
0.0
 30
0.0
  9
$UCSXDIR
 10
1.0
 20
0.0
 30
0.0
  9
$UCSYDIR
 10
0.0
 20
1.0
 30
0.0
  9
$UCSORTHOREF
  2

  9
$UCSORTHOVIEW
 70
     0
  9
$UCSORGTOP
 10
0.0
 20
0.0
 30
0.0
  9
$UCSORGBOTTOM
 10
0.0
 20
0.0
 30
0.0
  9
$UCSORGLEFT
 10
0.0
 20
0.0
 30
0.0
  9
$UCSORGRIGHT
 10
0.0
 20
0.0
 30
0.0
  9
$UCSORGFRONT
 10
0.0
 20
0.0
 30
0.0
  9
$UCSORGBACK
 10
0.0
 20
0.0
 30
0.0
  9
$PUCSBASE
  2

  9
$PUCSNAME
  2

  9
$PUCSORG
 10
0.0
 20
0.0
 30
0.0
  9
$PUCSXDIR
 10
1.0
 20
0.0
 30
0.0
  9
$PUCSYDIR
 10
0.0
 20
1.0
 30
0.0
  9
$PUCSORTHOREF
  2

  9
$PUCSORTHOVIEW
 70
     0
  9
$PUCSORGTOP
 10
0.0
 20
0.0
 30
0.0
  9
$PUCSORGBOTTOM
 10
0.0
 20
0.0
 30
0.0
  9
$PUCSORGLEFT
 10
0.0
 20
0.0
 30
0.0
  9
$PUCSORGRIGHT
 10
0.0
 20
0.0
 30
0.0
  9
$PUCSORGFRONT
 10
0.0
 20
0.0
 30
0.0
  9
$PUCSORGBACK
 10
0.0
 20
0.0
 30
0.0
  9
$USERI1
 70
     0
  9
$USERI2
 70
     0
  9
$USERI3
 70
     0
  9
$USERI4
 70
     0
  9
$USERI5
 70
     0
  9
$USERR1
 40
0.0
  9
$USERR2
 40
0.0
  9
$USERR3
 40
0.0
  9
$USERR4
 40
0.0
  9
$USERR5
 40
0.0
  9
$WORLDVIEW
 70
     1
  9
$SHADEDGE
 70
     3
  9
$SHADEDIF
 70
    70
  9
$TILEMODE
 70
     1
  9
$MAXACTVP
 70
    64
  9
$PINSBASE
 10
0.0
 20
0.0
 30
0.0
  9
$PLIMCHECK
 70
     0
  9
$PEXTMIN
 10
1.000000000000000E+20
 20
1.000000000000000E+20
 30
1.000000000000000E+20
  9
$PEXTMAX
 10
-1.000000000000000E+20
 20
-1.000000000000000E+20
 30
-1.000000000000000E+20
  9
$PLIMMIN
 10
-1115.687934875488
 20
-544.503345489502
  9
$PLIMMAX
 10
1284.312461853027
 20
435.4966545104979
  9
$UNITMODE
 70
     0
  9
$VISRETAIN
 70
     1
  9
$PLINEGEN
 70
     0
  9
$PSLTSCALE
 70
     1
  9
$TREEDEPTH
 70
  3020
  9
$CMLSTYLE
  2
Standard
  9
$CMLJUST
 70
     0
  9
$CMLSCALE
 40
20.0
  9
$PROXYGRAPHICS
 70
     1
  9
$MEASUREMENT
 70
     1
  9
$CELWEIGHT
370
    -1
  9
$ENDCAPS
280
     0
  9
$JOINSTYLE
280
     0
  9
$LWDISPLAY
290
     1
  9
$INSUNITS
 70
     4
  9
$HYPERLINKBASE
  1

  9
$STYLESHEET
  1
monochrome.ctb
  9
$XEDIT
290
     1
  9
$CEPSNTYPE
380
     0
  9
$PSTYLEMODE
290
     1
  9
$FINGERPRINTGUID
  2
{32F7E380-0172-4F60-8A01-A6A3C307C394}
  9
$VERSIONGUID
  2
{A2E53F4B-48FC-4807-8AE5-D4CD9673B953}
  9
$EXTNAMES
290
     1
  9
$PSVPSCALE
 40
0.0
  9
$OLESTARTUP
290
     0
  9
$SORTENTS
280
   127
  9
$INDEXCTL
280
     0
  9
$HIDETEXT
280
     0
  9
$XCLIPFRAME
290
     0
  9
$HALOGAP
280
     0
  9
$OBSCOLOR
 70
   257
  9
$OBSLTYPE
280
     0
  9
$INTERSECTIONDISPLAY
280
     0
  9
$INTERSECTIONCOLOR
 70
   257
  9
$DIMASSOC
280
     1
  9
$PROJECTNAME
  1

  0
ENDSEC
  0
SECTION
  2
CLASSES
  0
CLASS
  1
ACDBDICTIONARYWDFLT
  2
AcDbDictionaryWithDefault
  3
ObjectDBX Classes
 90
        0
 91
        1
280
     0
281
     0
  0
CLASS
  1
TABLESTYLE
  2
AcDbTableStyle
  3
ObjectDBX Classes
 90
     4095
 91
        1
280
     0
281
     0
  0
CLASS
  1
DICTIONARYVAR
  2
AcDbDictionaryVar
  3
ObjectDBX Classes
 90
        0
 91
       13
280
     0
281
     0
  0
CLASS
  1
SORTENTSTABLE
  2
AcDbSortentsTable
  3
ObjectDBX Classes
 90
        0
 91
        1
280
     0
281
     0
  0
CLASS
  1
PLOTSETTINGS
  2
AcDbPlotSettings
  3
ObjectDBX Classes
 90
        0
 91
        2
280
     0
281
     0
  0
CLASS
  1
MATERIAL
  2
AcDbMaterial
  3
ObjectDBX Classes
 90
     1153
 91
        3
280
     0
281
     0
  0
CLASS
  1
VISUALSTYLE
  2
AcDbVisualStyle
  3
ObjectDBX Classes
 90
     4095
 91
       24
280
     0
281
     0
  0
CLASS
  1
SCALE
  2
AcDbScale
  3
ObjectDBX Classes
 90
     1153
 91
       17
280
     0
281
     0
  0
CLASS
  1
MLEADERSTYLE
  2
AcDbMLeaderStyle
  3
ACDB_MLEADERSTYLE_CLASS
 90
     4095
 91
        1
280
     0
281
     0
  0
CLASS
  1
ACDBSECTIONVIEWSTYLE
  2
AcDbSectionViewStyle
  3
ObjectDBX Classes
 90
     1025
 91
        1
280
     0
281
     0
  0
CLASS
  1
ACDBDETAILVIEWSTYLE
  2
AcDbDetailViewStyle
  3
ObjectDBX Classes
 90
     1025
 91
        1
280
     0
281
     0
  0
CLASS
  1
CELLSTYLEMAP
  2
AcDbCellStyleMap
  3
ObjectDBX Classes
 90
     1152
 91
        2
280
     0
281
     0
  0
ENDSEC
  0
SECTION
  2
TABLES
  0
TABLE
  2
VPORT
  5
8
330
0
100
AcDbSymbolTable
 70
     1
  0
VPORT
  5
A49
330
8
100
AcDbSymbolTableRecord
100
AcDbViewportTableRecord
  2
*Active
 70
     0
 10
0.0
 20
0.0
 11
1.0
 21
1.0
 12
-29.48483802276894
 22
6.224525464857066
 13
0.0
 23
0.0
 14
10.0
 24
10.0
 15
10.0
 25
10.0
 16
0.0
 26
0.0
 36
1.0
 17
0.0
 27
0.0
 37
0.0
 40
333.5283943887289
 41
2.047557840616966
 42
50.0
 43
0.0
 44
0.0
 50
0.0
 51
0.0
 71
     0
 72
   100
 73
     1
 74
     3
 75
     0
 76
     0
 77
     0
 78
     0
281
     0
 65
     1
110
0.0
120
0.0
130
0.0
111
1.0
121
0.0
131
0.0
112
0.0
122
1.0
132
0.0
 79
     0
146
0.0
1001
ACAD_NAV_VCDISPLAY
1070
     3
  0
ENDTAB
  0
TABLE
  2
LTYPE
  5
5
330
0
100
AcDbSymbolTable
 70
     8
  0
LTYPE
  5
14
330
5
100
AcDbSymbolTableRecord
100
AcDbLinetypeTableRecord
  2
ByBlock
 70
     0
  3

 72
    65
 73
     0
 40
0.0
  0
LTYPE
  5
15
330
5
100
AcDbSymbolTableRecord
100
AcDbLinetypeTableRecord
  2
ByLayer
 70
     0
  3

 72
    65
 73
     0
 40
0.0
  0
LTYPE
  5
16
330
5
100
AcDbSymbolTableRecord
100
AcDbLinetypeTableRecord
  2
Continuous
 70
     0
  3
Solid line
 72
    65
 73
     0
 40
0.0
  0
LTYPE
  5
2A
330
5
100
AcDbSymbolTableRecord
100
AcDbLinetypeTableRecord
  2
CONTINOUS
 70
     0
  3
______________________________
 72
    65
 73
     0
 40
0.0
  0
LTYPE
  5
2B
330
5
100
AcDbSymbolTableRecord
100
AcDbLinetypeTableRecord
  2
DASHED
 70
     0
  3
__ __ __ __ __ __ __ __ __ __ __ __ __ __ __ __
 72
    65
 73
     2
 40
4.5
 49
3.0
 74
     0
 49
-1.5
 74
     0
  0
LTYPE
  5
2C
330
5
100
AcDbSymbolTableRecord
100
AcDbLinetypeTableRecord
  2
PHANTOM
 70
     0
  3
______  __  __  ______  __  __  _____
 72
    65
 73
     6
 40
15.0
 49
7.5
 74
     0
 49
-1.5
 74
     0
 49
1.5
 74
     0
 49
-1.5
 74
     0
 49
1.5
 74
     0
 49
-1.5
 74
     0
  0
LTYPE
  5
2D
330
5
100
AcDbSymbolTableRecord
100
AcDbLinetypeTableRecord
  2
CENTER
 70
     0
  3
____ _ ____ _ ____ _ ____ _ ____ _ ____
 72
    65
 73
     4
 40
12.0
 49
7.5
 74
     0
 49
-1.5
 74
     0
 49
1.5
 74
     0
 49
-1.5
 74
     0
  0
LTYPE
  5
1F5
330
5
100
AcDbSymbolTableRecord
100
AcDbLinetypeTableRecord
  2
CENTER2
 70
     0
  3
Center (.5x) ___ _ ___ _ ___ _ ___ _ ___ _ ___
 72
    65
 73
     4
 40
28.575
 49
19.05
 74
     0
 49
-3.174999999999998
 74
     0
 49
3.174999999999998
 74
     0
 49
-3.174999999999998
 74
     0
  0
LTYPE
  5
1F6
330
5
100
AcDbSymbolTableRecord
100
AcDbLinetypeTableRecord
  2
HIDDEN2
 70
     0
  3
Hidden (.5x) _ _ _ _ _ _ _ _ _ _ _ _ _ _ _ _ _
 72
    65
 73
     2
 40
4.762499999999998
 49
3.174999999999998
 74
     0
 49
-1.587499999999999
 74
     0
  0
ENDTAB
  0
TABLE
  2
LAYER
  5
2
330
0
100
AcDbSymbolTable
 70
    10
  0
LAYER
  5
10
102
{ACAD_XDICTIONARY
360
AC6
102
}
330
2
100
AcDbSymbolTableRecord
100
AcDbLayerTableRecord
  2
0
 70
     0
 62
     7
  6
Continuous
370
    -3
390
F
  0
LAYER
  5
156
330
2
100
AcDbSymbolTableRecord
100
AcDbLayerTableRecord
  2
Defpoints
 70
     0
 62
     7
  6
Continuous
290
     0
370
    -3
390
F
  0
LAYER
  5
199
102
{ACAD_XDICTIONARY
360
AC8
102
}
330
2
100
AcDbSymbolTableRecord
100
AcDbLayerTableRecord
  2
VIEW0001
 70
     0
 62
     7
  6
Continuous
370
    -3
390
F
  0
LAYER
  5
1E8
102
{ACAD_XDICTIONARY
360
ACA
102
}
330
2
100
AcDbSymbolTableRecord
100
AcDbLayerTableRecord
  2
VIEW0002
 70
     0
 62
     7
  6
Continuous
370
    -3
390
F
  0
LAYER
  5
1F7
102
{ACAD_XDICTIONARY
360
ACC
102
}
330
2
100
AcDbSymbolTableRecord
100
AcDbLayerTableRecord
  2
外形線
 70
     0
 62
     7
  6
Continuous
370
    30
390
F
1001
AcAecLayerStandard
1000

1000

  0
LAYER
  5
1F8
102
{ACAD_XDICTIONARY
360
ACE
102
}
330
2
100
AcDbSymbolTableRecord
100
AcDbLayerTableRecord
  2
図枠
 70
     0
 62
     7
  6
Continuous
370
    50
390
F
1001
AcAecLayerStandard
1000

1000

  0
LAYER
  5
1F9
102
{ACAD_XDICTIONARY
360
AD0
102
}
330
2
100
AcDbSymbolTableRecord
100
AcDbLayerTableRecord
  2
寸法線
 70
     0
 62
     3
  6
Continuous
370
    15
390
F
1001
AcAecLayerStandard
1000

1000

  0
LAYER
  5
1FA
102
{ACAD_XDICTIONARY
360
AD2
102
}
330
2
100
AcDbSymbolTableRecord
100
AcDbLayerTableRecord
  2
中心線
 70
     0
 62
     5
  6
CENTER2
370
    -3
390
F
1001
AcAecLayerStandard
1000

1000

  0
LAYER
  5
1FB
102
{ACAD_XDICTIONARY
360
AD4
102
}
330
2
100
AcDbSymbolTableRecord
100
AcDbLayerTableRecord
  2
破線
 70
     0
 62
     4
  6
HIDDEN2
370
    -3
390
F
1001
AcAecLayerStandard
1000

1000

  0
LAYER
  5
1FC
102
{ACAD_XDICTIONARY
360
AD6
102
}
330
2
100
AcDbSymbolTableRecord
100
AcDbLayerTableRecord
  2
補助線
 70
     0
 62
   252
  6
HIDDEN2
290
     0
370
    -3
390
F
1001
AcAecLayerStandard
1000

1000

  0
ENDTAB
  0
TABLE
  2
STYLE
  5
3
330
0
100
AcDbSymbolTable
 70
     3
  0
STYLE
  5
11
330
3
100
AcDbSymbolTableRecord
100
AcDbTextStyleTableRecord
  2
Standard
 70
     0
 40
0.0
 41
1.0
 50
0.0
 71
     0
 42
2.5
  3
txt
  4
EXTFONT
  0
ENDTAB
  0
TABLE
  2
VIEW
  5
6
330
0
100
AcDbSymbolTable
 70
     0
  0
ENDTAB
  0
TABLE
  2
UCS
  5
7
330
0
100
AcDbSymbolTable
 70
     0
  0
ENDTAB
  0
TABLE
  2
APPID
  5
9
330
0
100
AcDbSymbolTable
 70
     6
  0
APPID
  5
12
330
9
100
AcDbSymbolTableRecord
100
AcDbRegAppTableRecord
  2
ACAD
 70
     0
  0
APPID
  5
1FE
330
9
100
AcDbSymbolTableRecord
100
AcDbRegAppTableRecord
  2
AcAecLayerStandard
 70
     0
  0
APPID
  5
97A
330
9
100
AcDbSymbolTableRecord
100
AcDbRegAppTableRecord
  2
ACAD_PSEXT
 70
     0
  0
APPID
  5
A18
330
9
100
AcDbSymbolTableRecord
100
AcDbRegAppTableRecord
  2
ACAD_EXEMPT_FROM_CAD_STANDARDS
 70
     0
  0
APPID
  5
ABD
330
9
100
AcDbSymbolTableRecord
100
AcDbRegAppTableRecord
  2
ACAD_NAV_VCDISPLAY
 70
     0
  0
APPID
  5
BB8
330
9
100
AcDbSymbolTableRecord
100
AcDbRegAppTableRecord
  2
ACAD_MLEADERVER
 70
     0
  0
ENDTAB
  0
TABLE
  2
DIMSTYLE
  5
A
330
0
100
AcDbSymbolTable
 70
     5
100
AcDbDimStyleTable
 71
     1
340
27
  0
DIMSTYLE
105
27
102
{ACAD_REACTORS
330
14F
330
163
330
170
330
17F
330
18C
330
655
330
656
330
657
330
658
330
659
330
65A
102
}
330
A
100
AcDbSymbolTableRecord
100
AcDbDimStyleTableRecord
  2
ISO-25
 70
     0
 41
2.5
 42
0.625
 43
3.75
 44
1.25
 73
     0
 74
     0
 77
     1
 78
     8
140
2.5
141
2.5
143
0.03937007874016
147
0.625
171
     3
172
     1
271
     2
272
     2
274
     3
278
    44
283
     0
284
     8
340
11
  0
DIMSTYLE
105
1FD
330
A
100
AcDbSymbolTableRecord
100
AcDbDimStyleTableRecord
  2
Standard
 70
     0
340
11
  0
DIMSTYLE
105
ABC
330
A
100
AcDbSymbolTableRecord
100
AcDbDimStyleTableRecord
  2
DIMSTYLE
 70
     0
 41
1.0
 42
2.539999961853026
 44
2.54
 73
     0
 74
     0
140
3.200000047683716
147
1.600000023841858
173
     1
271
     2
275
     1
340
11
341
150
342
150
343
150
344
150
  0
ENDTAB
  0
TABLE
  2
BLOCK_RECORD
  5
1
330
0
100
AcDbSymbolTable
 70
    21
  0
BLOCK_RECORD
  5
1F
102
{ACAD_XDICTIONARY
360
260
102
}
330
1
100
AcDbSymbolTableRecord
100
AcDbBlockTableRecord
  2
*Model_Space
340
22
  0
BLOCK_RECORD
  5
1B
330
1
100
AcDbSymbolTableRecord
100
AcDbBlockTableRecord
  2
*Paper_Space
340
1E
  0
BLOCK_RECORD
  5
23
330
1
100
AcDbSymbolTableRecord
100
AcDbBlockTableRecord
  2
*Paper_Space0
340
26
  0
BLOCK_RECORD
  5
150
330
1
100
AcDbSymbolTableRecord
100
AcDbBlockTableRecord
  2
_Open30
340
0
102
{BLKREFS
331
88D
331
88E
331
896
331
897
331
89F
331
8A0
331
8A8
331
8A9
331
918
331
919
331
921
331
922
331
934
331
935
331
93D
331
93E
331
A5A
331
A5B
331
A62
331
A63
331
A6A
331
A6B
102
}
  0
BLOCK_RECORD
  5
157
330
1
100
AcDbSymbolTableRecord
100
AcDbBlockTableRecord
  2
*D2
340
0
  0
BLOCK_RECORD
  5
164
330
1
100
AcDbSymbolTableRecord
100
AcDbBlockTableRecord
  2
*D3
340
0
  0
BLOCK_RECORD
  5
171
330
1
100
AcDbSymbolTableRecord
100
AcDbBlockTableRecord
  2
*D4
340
0
  0
BLOCK_RECORD
  5
180
330
1
100
AcDbSymbolTableRecord
100
AcDbBlockTableRecord
  2
*D5
340
0
  0
BLOCK_RECORD
  5
18D
330
1
100
AcDbSymbolTableRecord
100
AcDbBlockTableRecord
  2
*D6
340
0
  0
BLOCK_RECORD
  5
65B
330
1
100
AcDbSymbolTableRecord
100
AcDbBlockTableRecord
  2
*D13
340
0
  0
BLOCK_RECORD
  5
666
330
1
100
AcDbSymbolTableRecord
100
AcDbBlockTableRecord
  2
*D14
340
0
  0
BLOCK_RECORD
  5
671
330
1
100
AcDbSymbolTableRecord
100
AcDbBlockTableRecord
  2
*D15
340
0
  0
BLOCK_RECORD
  5
67D
330
1
100
AcDbSymbolTableRecord
100
AcDbBlockTableRecord
  2
*D16
340
0
  0
BLOCK_RECORD
  5
689
330
1
100
AcDbSymbolTableRecord
100
AcDbBlockTableRecord
  2
*D17
340
0
  0
BLOCK_RECORD
  5
695
330
1
100
AcDbSymbolTableRecord
100
AcDbBlockTableRecord
  2
*D18
340
0
  0
ENDTAB
  0
ENDSEC
  0
SECTION
  2
BLOCKS
  0
BLOCK
  5
20
330
1F
100
AcDbEntity
  8
0
100
AcDbBlockBegin
  2
*Model_Space
 70
     0
 10
0.0
 20
0.0
 30
0.0
  3
*Model_Space
  1

  0
ENDBLK
  5
21
330
1F
100
AcDbEntity
  8
0
100
AcDbBlockEnd
  0
BLOCK
  5
1C
330
1B
100
AcDbEntity
 67
     1
  8
0
100
AcDbBlockBegin
  2
*Paper_Space
 70
     0
 10
0.0
 20
0.0
 30
0.0
  3
*Paper_Space
  1

  0
ENDBLK
  5
1D
330
1B
100
AcDbEntity
 67
     1
  8
0
100
AcDbBlockEnd
  0
BLOCK
  5
24
330
23
100
AcDbEntity
 67
     1
  8
0
100
AcDbBlockBegin
  2
*Paper_Space0
 70
     0
 10
0.0
 20
0.0
 30
0.0
  3
*Paper_Space0
  1

  0
ENDBLK
  5
25
330
23
100
AcDbEntity
 67
     1
  8
0
100
AcDbBlockEnd
  0
BLOCK
  5
151
330
150
100
AcDbEntity
  8
0
100
AcDbBlockBegin
  2
_Open30
 70
     0
 10
0.0
 20
0.0
 30
0.0
  3
_Open30
  1

  0
LINE
  5
153
330
150
100
AcDbEntity
  8
0
  6
ByBlock
 62
     0
370
    -2
100
AcDbLine
 10
-1.0
 20
0.267949
 30
0.0
 11
0.0
 21
0.0
 31
0.0
  0
LINE
  5
154
330
150
100
AcDbEntity
  8
0
  6
ByBlock
 62
     0
370
    -2
100
AcDbLine
 10
0.0
 20
0.0
 30
0.0
 11
-1.0
 21
-0.267949
 31
0.0
  0
LINE
  5
155
330
150
100
AcDbEntity
  8
0
  6
ByBlock
 62
     0
370
    -2
100
AcDbLine
 10
0.0
 20
0.0
 30
0.0
 11
-1.0
 21
0.0
 31
0.0
  0
ENDBLK
  5
152
330
150
100
AcDbEntity
  8
0
100
AcDbBlockEnd
  0
BLOCK
  5
161
330
157
100
AcDbEntity
  8
0
100
AcDbBlockBegin
  2
*D2
 70
     1
 10
0.0
 20
0.0
 30
0.0
  3
*D2
  1

  0
LINE
  5
915
330
157
100
AcDbEntity
  8
寸法線
 62
     0
440
 16777216
370
    -2
100
AcDbLine
 10
-37.76627253665353
 20
28.31065658988439
 30
0.0
 11
-20.86786845340157
 21
28.31065658988438
 31
0.0
  0
LINE
  5
916
330
157
100
AcDbEntity
  8
寸法線
 62
     0
440
 16777216
370
    -2
100
AcDbLine
 10
-35.21127223147774
 20
74.81065849723302
 30
0.0
 11
-20.86786845340156
 21
74.810658497233
 31
0.0
  0
LINE
  5
917
330
157
100
AcDbEntity
  8
寸法線
 62
     0
440
 16777216
370
    -2
100
AcDbLine
 10
-21.58215525760079
 20
31.31065658988438
 30
0.0
 11
-21.58215525760078
 21
71.810658497233
 31
0.0
  0
INSERT
  5
918
330
157
100
AcDbEntity
  8
寸法線
 62
     0
440
 16777216
370
    -2
100
AcDbBlockReference
  2
_Open30
 10
-21.58215525760079
 20
28.31065658988438
 30
0.0
 41
3.0
 42
3.0
 43
3.0
 50
270.0
  0
INSERT
  5
919
330
157
100
AcDbEntity
  8
寸法線
 62
     0
440
 16777216
370
    -2
100
AcDbBlockReference
  2
_Open30
 10
-21.58215525760077
 20
74.810658497233
 30
0.0
 41
3.0
 42
3.0
 43
3.0
 50
90.0
  0
MTEXT
  5
91A
330
157
100
AcDbEntity
  8
寸法線
 62
     0
440
 16777216
100
AcDbMText
 10
-23.98215529336358
 20
51.56065802039586
 30
0.0
 40
3.200000047683716
 41
0.0
 71
     5
 72
     1
  1
L1
 11
0.0000000000000001
 21
1.0
 31
0.0
 73
     1
 44
1.0
  0
POINT
  5
91B
330
157
100
AcDbEntity
  8
Defpoints
 62
     0
440
 16777216
100
AcDbPoint
 10
-40.30627253665352
 20
28.31065658988439
 30
0.0
  0
POINT
  5
91C
330
157
100
AcDbEntity
  8
Defpoints
 62
     0
440
 16777216
100
AcDbPoint
 10
-37.75127223147774
 20
74.81065849723302
 30
0.0
  0
POINT
  5
91D
330
157
100
AcDbEntity
  8
Defpoints
 62
     0
440
 16777216
100
AcDbPoint
 10
-21.58215525760077
 20
74.810658497233
 30
0.0
  0
ENDBLK
  5
162
330
157
100
AcDbEntity
  8
0
100
AcDbBlockEnd
  0
BLOCK
  5
16E
330
164
100
AcDbEntity
  8
0
100
AcDbBlockBegin
  2
*D3
 70
     1
 10
0.0
 20
0.0
 30
0.0
  3
*D3
  1

  0
LINE
  5
91E
330
164
100
AcDbEntity
  8
寸法線
 62
     0
440
 16777216
370
    -2
100
AcDbLine
 10
-86.95998576297188
 20
25.20596886100256
 30
0.0
 11
-86.95998576297188
 21
8.585635227579697
 31
0.0
  0
LINE
  5
91F
330
164
100
AcDbEntity
  8
寸法線
 62
     0
440
 16777216
370
    -2
100
AcDbLine
 10
-40.45998957766914
 20
25.21726990165197
 30
0.0
 11
-40.45998957766914
 21
8.585635227579697
 31
0.0
  0
LINE
  5
920
330
164
100
AcDbEntity
  8
寸法線
 62
     0
440
 16777216
370
    -2
100
AcDbLine
 10
-83.95998576297186
 20
9.418967289347275
 30
0.0
 11
-43.45998957766914
 21
9.418967289347275
 31
0.0
  0
INSERT
  5
921
330
164
100
AcDbEntity
  8
寸法線
 62
     0
440
 16777216
370
    -2
100
AcDbBlockReference
  2
_Open30
 10
-86.95998576297188
 20
9.418967289347275
 30
0.0
 41
3.0
 42
3.0
 43
3.0
 50
180.0
  0
INSERT
  5
922
330
164
100
AcDbEntity
  8
寸法線
 62
     0
440
 16777216
370
    -2
100
AcDbBlockReference
  2
_Open30
 10
-40.45998957766914
 20
9.418967289347275
 30
0.0
 41
3.0
 42
3.0
 43
3.0
  0
MTEXT
  5
923
330
164
100
AcDbEntity
  8
寸法線
 62
     0
440
 16777216
100
AcDbMText
 10
-63.70999339236639
 20
11.81896732511006
 30
0.0
 40
3.200000047683716
 41
0.0
 71
     5
 72
     1
  1
L1
 73
     1
 44
1.0
  0
POINT
  5
924
330
164
100
AcDbEntity
  8
Defpoints
 62
     0
440
 16777216
100
AcDbPoint
 10
-86.95998576297188
 20
27.74596886100255
 30
0.0
  0
POINT
  5
925
330
164
100
AcDbEntity
  8
Defpoints
 62
     0
440
 16777216
100
AcDbPoint
 10
-40.45998957766914
 20
27.75726990165197
 30
0.0
  0
POINT
  5
926
330
164
100
AcDbEntity
  8
Defpoints
 62
     0
440
 16777216
100
AcDbPoint
 10
-40.45998957766914
 20
9.418967289347275
 30
0.0
  0
ENDBLK
  5
16F
330
164
100
AcDbEntity
  8
0
100
AcDbBlockEnd
  0
BLOCK
  5
17C
330
171
100
AcDbEntity
  8
0
100
AcDbBlockBegin
  2
*D4
 70
     1
 10
0.0
 20
0.0
 30
0.0
  3
*D4
  1

  0
LINE
  5
A57
330
171
100
AcDbEntity
  8
寸法線
 62
     0
440
 16777216
370
    -2
100
AcDbLine
 10
-40.45998957766914
 20
7.130577091593373
 30
0.0
 11
-40.45998957766914
 21
8.5911485182442
 31
0.0
  0
LINE
  5
A58
330
171
100
AcDbEntity
  8
寸法線
 62
     0
440
 16777216
370
    -2
100
AcDbLine
 10
-23.40786845340157
 20
28.31065658988439
 30
0.0
 11
-22.40714944426137
 21
28.31065658988439
 31
0.0
  0
ARC
  5
A59
330
171
100
AcDbEntity
  8
寸法線
 62
     0
440
 16777216
370
    -2
100
AcDbCircle
 10
-40.45998957766914
 20
28.31065658988439
 30
0.0
 40
18.88617410252398
100
AcDbArc
 50
279.1108217359995
 51
350.8891782640005
  0
INSERT
  5
A5A
330
171
100
AcDbEntity
  8
寸法線
 62
     0
440
 16777216
370
    -2
100
AcDbBlockReference
  2
_Open30
 10
-40.45998957766915
 20
9.424482487360407
 30
0.0
 41
3.0
 42
3.0
 43
3.0
 50
184.5554108679997
  0
INSERT
  5
A5B
330
171
100
AcDbEntity
  8
寸法線
 62
     0
440
 16777216
370
    -2
100
AcDbBlockReference
  2
_Open30
 10
-21.57381547514516
 20
28.31065658988439
 30
0.0
 41
3.0
 42
3.0
 43
3.0
 50
85.44458913200019
  0
MTEXT
  5
A5C
330
171
100
AcDbEntity
  8
寸法線
 62
     0
440
 16777216
100
AcDbMText
 10
-28.8025040992405
 20
16.65317111145576
 30
0.0
 40
3.200000047683716
 41
0.0
 71
     5
 72
     1
  1
90\U+00B0
 11
0.7071067811865476
 21
0.7071067811865475
 31
0.0
 73
     1
 44
1.0
  0
POINT
  5
A5D
330
171
100
AcDbEntity
  8
Defpoints
 62
     0
440
 16777216
100
AcDbPoint
 10
-40.45998957766914
 20
28.31065658988439
 30
0.0
  0
POINT
  5
A5E
330
171
100
AcDbEntity
  8
Defpoints
 62
     0
440
 16777216
100
AcDbPoint
 10
-40.45998957766914
 20
9.67057709159337
 30
0.0
  0
POINT
  5
A5F
330
171
100
AcDbEntity
  8
Defpoints
 62
     0
440
 16777216
100
AcDbPoint
 10
-20.86786845340157
 20
28.31065658988439
 30
0.0
  0
POINT
  5
A60
330
171
100
AcDbEntity
  8
Defpoints
 62
     0
440
 16777216
100
AcDbPoint
 10
-31.01690252640717
 20
11.95475003680285
 30
0.0
  0
ENDBLK
  5
17D
330
171
100
AcDbEntity
  8
0
100
AcDbBlockEnd
  0
BLOCK
  5
18A
330
180
100
AcDbEntity
  8
0
100
AcDbBlockBegin
  2
*D5
 70
     1
 10
0.0
 20
0.0
 30
0.0
  3
*D5
  1

  0
LINE
  5
931
330
180
100
AcDbEntity
  8
寸法線
 62
     0
440
 16777216
370
    -2
100
AcDbLine
 10
-87.30809123172191
 20
55.90227035941564
 30
0.0
 11
-100.8386326135577
 21
55.90227035941564
 31
0.0
  0
LINE
  5
932
330
180
100
AcDbEntity
  8
寸法線
 62
     0
440
 16777216
370
    -2
100
AcDbLine
 10
-87.44499308719062
 20
25.20226959647619
 30
0.0
 11
-100.8386326135578
 21
25.20226959647619
 31
0.0
  0
LINE
  5
933
330
180
100
AcDbEntity
  8
寸法線
 62
     0
440
 16777216
370
    -2
100
AcDbLine
 10
-99.83863261355777
 20
52.90227035941564
 30
0.0
 11
-99.83863261355779
 21
28.20226959647619
 31
0.0
  0
INSERT
  5
934
330
180
100
AcDbEntity
  8
寸法線
 62
     0
440
 16777216
370
    -2
100
AcDbBlockReference
  2
_Open30
 10
-99.83863261355777
 20
55.90227035941564
 30
0.0
 41
3.0
 42
3.0
 43
3.0
 50
90.0
  0
INSERT
  5
935
330
180
100
AcDbEntity
  8
寸法線
 62
     0
440
 16777216
370
    -2
100
AcDbBlockReference
  2
_Open30
 10
-99.83863261355779
 20
25.20226959647619
 30
0.0
 41
3.0
 42
3.0
 43
3.0
 50
270.0
  0
MTEXT
  5
936
102
{ACAD_XDICTIONARY
360
B83
102
}
330
180
100
AcDbEntity
  8
寸法線
 62
     0
440
 16777216
100
AcDbMText
 10
-102.2386326493205
 20
40.55226950110875
 30
0.0
 40
3.200000047683716
 41
0.0
 71
     5
 72
     1
  1
\U+2205A
 11
0.0000000000000001
 21
1.0
 31
0.0
 73
     1
 44
1.0
  0
POINT
  5
937
330
180
100
AcDbEntity
  8
Defpoints
 62
     0
440
 16777216
100
AcDbPoint
 10
-84.76809123172188
 20
55.90227035941564
 30
0.0
  0
POINT
  5
938
330
180
100
AcDbEntity
  8
Defpoints
 62
     0
440
 16777216
100
AcDbPoint
 10
-84.90499308719064
 20
25.20226959647619
 30
0.0
  0
POINT
  5
939
330
180
100
AcDbEntity
  8
Defpoints
 62
     0
440
 16777216
100
AcDbPoint
 10
-99.83863261355779
 20
25.20226959647619
 30
0.0
  0
ENDBLK
  5
18B
330
180
100
AcDbEntity
  8
0
100
AcDbBlockEnd
  0
BLOCK
  5
197
330
18D
100
AcDbEntity
  8
0
100
AcDbBlockBegin
  2
*D6
 70
     1
 10
0.0
 20
0.0
 30
0.0
  3
*D6
  1

  0
LINE
  5
93A
330
18D
100
AcDbEntity
  8
寸法線
 62
     0
440
 16777216
370
    -2
100
AcDbLine
 10
-86.95998576297188
 20
25.20596886100256
 30
0.0
 11
-86.95998576297188
 21
14.21376568005366
 31
0.0
  0
LINE
  5
93B
330
18D
100
AcDbEntity
  8
寸法線
 62
     0
440
 16777216
370
    -2
100
AcDbLine
 10
-53.10127070559882
 20
30.67555237235511
 30
0.0
 11
-53.10127070559882
 21
14.21376568005365
 31
0.0
  0
LINE
  5
93C
330
18D
100
AcDbEntity
  8
寸法線
 62
     0
440
 16777216
370
    -2
100
AcDbLine
 10
-83.95998576297186
 20
16.49976568005365
 30
0.0
 11
-56.10127070559883
 21
16.49976568005365
 31
0.0
  0
INSERT
  5
93D
330
18D
100
AcDbEntity
  8
寸法線
 62
     0
440
 16777216
370
    -2
100
AcDbBlockReference
  2
_Open30
 10
-86.95998576297188
 20
16.49976568005365
 30
0.0
 41
3.0
 42
3.0
 43
3.0
 50
180.0
  0
INSERT
  5
93E
330
18D
100
AcDbEntity
  8
寸法線
 62
     0
440
 16777216
370
    -2
100
AcDbBlockReference
  2
_Open30
 10
-53.10127070559882
 20
16.49976568005365
 30
0.0
 41
3.0
 42
3.0
 43
3.0
  0
MTEXT
  5
93F
330
18D
100
AcDbEntity
  8
寸法線
 62
     0
440
 16777216
100
AcDbMText
 10
-70.03062823428535
 20
18.89976571581644
 30
0.0
 40
3.200000047683716
 41
0.0
 71
     5
 72
     1
  1
L2
 73
     1
 44
1.0
  0
POINT
  5
940
330
18D
100
AcDbEntity
  8
Defpoints
 62
     0
440
 16777216
100
AcDbPoint
 10
-86.95998576297188
 20
27.74596886100255
 30
0.0
  0
POINT
  5
941
330
18D
100
AcDbEntity
  8
Defpoints
 62
     0
440
 16777216
100
AcDbPoint
 10
-53.10127070559882
 20
33.21555237235511
 30
0.0
  0
POINT
  5
942
330
18D
100
AcDbEntity
  8
Defpoints
 62
     0
440
 16777216
100
AcDbPoint
 10
-53.10127070559882
 20
16.49976568005365
 30
0.0
  0
ENDBLK
  5
198
330
18D
100
AcDbEntity
  8
0
100
AcDbBlockEnd
  0
BLOCK
  5
664
330
65B
100
AcDbEntity
  8
0
100
AcDbBlockBegin
  2
*D13
 70
     1
 10
0.0
 20
0.0
 30
0.0
  3
*D13
  1

  0
ARC
  5
A61
330
65B
100
AcDbEntity
  8
寸法線
 62
     0
440
 16777216
370
    -2
100
AcDbCircle
 10
-53.14283915566018
 20
-37.30306862431617
 30
0.0
 40
31.1179386675541
100
AcDbArc
 50
320.5258793404339
 51
354.4741206595659
  0
INSERT
  5
A62
330
65B
100
AcDbEntity
  8
寸法線
 62
     0
440
 16777216
370
    -2
100
AcDbBlockReference
  2
_Open30
 10
-31.13913370728564
 20
-59.30677407269079
 30
0.0
 41
3.0
 42
3.0
 43
3.0
 50
227.7629396702169
  0
INSERT
  5
A63
330
65B
100
AcDbEntity
  8
寸法線
 62
     0
440
 16777216
370
    -2
100
AcDbBlockReference
  2
_Open30
 10
-22.02490048810608
 20
-37.30306862431618
 30
0.0
 41
3.0
 42
3.0
 43
3.0
 50
87.23706032978297
  0
MTEXT
  5
A64
330
65B
100
AcDbEntity
  8
寸法線
 62
     0
440
 16777216
100
AcDbMText
 10
-26.610923437833
 20
-48.29294795038006
 30
0.0
 40
3.200000047683716
 41
0.0
 71
     5
 72
     1
  1
45\U+00B0
 11
0.382683432365089
 21
0.9238795325112871
 31
0.0
 73
     1
 44
1.0
  0
POINT
  5
A65
330
65B
100
AcDbEntity
  8
Defpoints
 62
     0
440
 16777216
100
AcDbPoint
 10
-53.14283915566018
 20
-37.30306862431617
 30
0.0
  0
POINT
  5
A66
330
65B
100
AcDbEntity
  8
Defpoints
 62
     0
440
 16777216
100
AcDbPoint
 10
-29.98119501217829
 20
-60.46471276779811
 30
0.0
  0
POINT
  5
A67
330
65B
100
AcDbEntity
  8
Defpoints
 62
     0
440
 16777216
100
AcDbPoint
 10
-21.44219270282187
 20
-37.30306862431616
 30
0.0
  0
POINT
  5
A68
330
65B
100
AcDbEntity
  8
Defpoints
 62
     0
440
 16777216
100
AcDbPoint
 10
-26.19391375615226
 20
-52.86203795809326
 30
0.0
  0
ENDBLK
  5
665
330
65B
100
AcDbEntity
  8
0
100
AcDbBlockEnd
  0
BLOCK
  5
66F
330
666
100
AcDbEntity
  8
0
100
AcDbBlockBegin
  2
*D14
 70
     1
 10
0.0
 20
0.0
 30
0.0
  3
*D14
  1

  0
ARC
  5
A69
330
666
100
AcDbEntity
  8
寸法線
 62
     0
440
 16777216
370
    -2
100
AcDbCircle
 10
-68.73454391315775
 20
-52.89477338181399
 30
0.0
 40
31.0414963023633
100
AcDbArc
 50
275.5394978923724
 51
309.4605021076271
  0
INSERT
  5
A6A
330
666
100
AcDbEntity
  8
寸法線
 62
     0
440
 16777216
370
    -2
100
AcDbBlockReference
  2
_Open30
 10
-68.73454391315789
 20
-83.93626968417731
 30
0.0
 41
3.0
 42
3.0
 43
3.0
 50
182.769748946186
  0
INSERT
  5
A6B
330
666
100
AcDbEntity
  8
寸法線
 62
     0
440
 16777216
370
    -2
100
AcDbBlockReference
  2
_Open30
 10
-46.78489137957964
 20
-74.84442591539234
 30
0.0
 41
3.0
 42
3.0
 43
3.0
 50
42.23025105381334
  0
MTEXT
  5
A6C
330
666
100
AcDbEntity
  8
寸法線
 62
     0
440
 16777216
100
AcDbMText
 10
-57.77391781378324
 20
-79.35606556302467
 30
0.0
 40
3.200000047683716
 41
0.0
 71
     5
 72
     1
  1
45\U+00B0
 11
0.923879532511288
 21
0.3826834323650869
 31
0.0
 73
     1
 44
1.0
  0
POINT
  5
A6D
330
666
100
AcDbEntity
  8
Defpoints
 62
     0
440
 16777216
100
AcDbPoint
 10
-68.73454391315775
 20
-52.89477338181399
 30
0.0
  0
POINT
  5
A6E
330
666
100
AcDbEntity
  8
Defpoints
 62
     0
440
 16777216
100
AcDbPoint
 10
-68.73454391315788
 20
-85.57128300659895
 30
0.0
  0
POINT
  5
A6F
330
666
100
AcDbEntity
  8
Defpoints
 62
     0
440
 16777216
100
AcDbPoint
 10
-43.4723395868278
 20
-78.15697770814423
 30
0.0
  0
POINT
  5
A70
330
666
100
AcDbEntity
  8
Defpoints
 62
     0
440
 16777216
100
AcDbPoint
 10
-60.70041348162679
 20
-82.87855634692338
 30
0.0
  0
ENDBLK
  5
670
330
666
100
AcDbEntity
  8
0
100
AcDbBlockEnd
  0
BLOCK
  5
67B
330
671
100
AcDbEntity
  8
0
100
AcDbBlockBegin
  2
*D15
 70
     1
 10
0.0
 20
0.0
 30
0.0
  3
*D15
  1

  0
LINE
  5
88A
330
671
100
AcDbEntity
  8
寸法線
 62
     0
440
 16777216
370
    -2
100
AcDbLine
 10
-50.60283915565999
 20
-37.30306862431616
 30
0.0
 11
-20.10705603465304
 21
-37.30306862431616
 31
0.0
  0
LINE
  5
88B
330
671
100
AcDbEntity
  8
寸法線
 62
     0
440
 16777216
370
    -2
100
AcDbLine
 10
-36.96226593946042
 20
-13.04806826288848
 30
0.0
 11
-20.10705603465303
 21
-13.04806826288848
 31
0.0
  0
LINE
  5
88C
330
671
100
AcDbEntity
  8
寸法線
 62
     0
440
 16777216
370
    -2
100
AcDbLine
 10
-22.01205606303976
 20
-34.30306862431616
 30
0.0
 11
-22.01205606303975
 21
-16.04806826288848
 31
0.0
  0
INSERT
  5
88D
330
671
100
AcDbEntity
  8
寸法線
 62
     0
440
 16777216
370
    -2
100
AcDbBlockReference
  2
_Open30
 10
-22.01205606303976
 20
-37.30306862431616
 30
0.0
 41
3.0
 42
3.0
 43
3.0
 50
270.0
  0
INSERT
  5
88E
330
671
100
AcDbEntity
  8
寸法線
 62
     0
440
 16777216
370
    -2
100
AcDbBlockReference
  2
_Open30
 10
-22.01205606303975
 20
-13.04806826288848
 30
0.0
 41
3.0
 42
3.0
 43
3.0
 50
90.0
  0
MTEXT
  5
88F
330
671
100
AcDbEntity
  8
寸法線
 62
     0
440
 16777216
100
AcDbMText
 10
-24.41205609880254
 20
-25.17556844360238
 30
0.0
 40
3.200000047683716
 41
0.0
 71
     5
 72
     1
  1
L3
 11
0.0000000000000001
 21
1.0
 31
0.0
 73
     1
 44
1.0
  0
POINT
  5
890
330
671
100
AcDbEntity
  8
Defpoints
 62
     0
440
 16777216
100
AcDbPoint
 10
-53.14283915566
 20
-37.30306862431616
 30
0.0
  0
POINT
  5
891
330
671
100
AcDbEntity
  8
Defpoints
 62
     0
440
 16777216
100
AcDbPoint
 10
-39.50226593946041
 20
-13.04806826288848
 30
0.0
  0
POINT
  5
892
330
671
100
AcDbEntity
  8
Defpoints
 62
     0
440
 16777216
100
AcDbPoint
 10
-22.01205606303975
 20
-13.04806826288848
 30
0.0
  0
ENDBLK
  5
67C
330
671
100
AcDbEntity
  8
0
100
AcDbBlockEnd
  0
BLOCK
  5
687
330
67D
100
AcDbEntity
  8
0
100
AcDbBlockBegin
  2
*D16
 70
     1
 10
0.0
 20
0.0
 30
0.0
  3
*D16
  1

  0
LINE
  5
893
330
67D
100
AcDbEntity
  8
寸法線
 62
     0
440
 16777216
370
    -2
100
AcDbLine
 10
-66.93849268894407
 20
-54.69082460602794
 30
0.0
 11
-45.43819592585271
 21
-76.1911213691193
 31
0.0
  0
LINE
  5
894
330
67D
100
AcDbEntity
  8
寸法線
 62
     0
440
 16777216
370
    -2
100
AcDbLine
 10
-51.34678793144612
 20
-39.09911984852998
 30
0.0
 11
-29.84649116835477
 21
-60.59941661162132
 31
0.0
  0
LINE
  5
895
330
67D
100
AcDbEntity
  8
寸法線
 62
     0
440
 16777216
370
    -2
100
AcDbLine
 10
-44.66391402052589
 20
-72.7227625873268
 30
0.0
 11
-33.31484995014725
 21
-61.37369851694812
 31
0.0
  0
INSERT
  5
896
330
67D
100
AcDbEntity
  8
寸法線
 62
     0
440
 16777216
370
    -2
100
AcDbBlockReference
  2
_Open30
 10
-46.78523436408556
 20
-74.84408293088645
 30
0.0
 41
3.0
 42
3.0
 43
3.0
 50
225.0
  0
INSERT
  5
897
330
67D
100
AcDbEntity
  8
寸法線
 62
     0
440
 16777216
370
    -2
100
AcDbBlockReference
  2
_Open30
 10
-31.19352960658761
 20
-59.25237817338848
 30
0.0
 41
3.0
 42
3.0
 43
3.0
 50
45.0
  0
MTEXT
  5
898
330
67D
100
AcDbEntity
  8
寸法線
 62
     0
440
 16777216
100
AcDbMText
 10
-40.68643828547242
 20
-65.35117425200161
 30
0.0
 40
3.200000047683716
 41
0.0
 71
     5
 72
     1
  1
L2
 11
0.7071067811865476
 21
0.7071067811865475
 31
0.0
 73
     1
 44
1.0
  0
POINT
  5
899
330
67D
100
AcDbEntity
  8
Defpoints
 62
     0
440
 16777216
100
AcDbPoint
 10
-68.73454391315789
 20
-52.89477338181409
 30
0.0
  0
POINT
  5
89A
330
67D
100
AcDbEntity
  8
Defpoints
 62
     0
440
 16777216
100
AcDbPoint
 10
-53.14283915565994
 20
-37.30306862431616
 30
0.0
  0
POINT
  5
89B
330
67D
100
AcDbEntity
  8
Defpoints
 62
     0
440
 16777216
100
AcDbPoint
 10
-31.19352960658761
 20
-59.25237817338848
 30
0.0
  0
ENDBLK
  5
688
330
67D
100
AcDbEntity
  8
0
100
AcDbBlockEnd
  0
BLOCK
  5
693
330
689
100
AcDbEntity
  8
0
100
AcDbBlockBegin
  2
*D17
 70
     1
 10
0.0
 20
0.0
 30
0.0
  3
*D17
  1

  0
LINE
  5
89C
330
689
100
AcDbEntity
  8
寸法線
 62
     0
440
 16777216
370
    -2
100
AcDbLine
 10
-92.98954427458557
 20
-69.0753465980136
 30
0.0
 11
-92.98954427458557
 21
-85.76178300943761
 31
0.0
  0
LINE
  5
89D
330
689
100
AcDbEntity
  8
寸法線
 62
     0
440
 16777216
370
    -2
100
AcDbLine
 10
-68.73454391315775
 20
-55.43477338181411
 30
0.0
 11
-68.73454391315775
 21
-85.76178300943761
 31
0.0
  0
LINE
  5
89E
330
689
100
AcDbEntity
  8
寸法線
 62
     0
440
 16777216
370
    -2
100
AcDbLine
 10
-89.98954427458556
 20
-83.85678298105091
 30
0.0
 11
-71.73454391315775
 21
-83.85678298105091
 31
0.0
  0
INSERT
  5
89F
330
689
100
AcDbEntity
  8
寸法線
 62
     0
440
 16777216
370
    -2
100
AcDbBlockReference
  2
_Open30
 10
-92.98954427458557
 20
-83.85678298105091
 30
0.0
 41
3.0
 42
3.0
 43
3.0
 50
180.0
  0
INSERT
  5
8A0
330
689
100
AcDbEntity
  8
寸法線
 62
     0
440
 16777216
370
    -2
100
AcDbBlockReference
  2
_Open30
 10
-68.73454391315775
 20
-83.85678298105091
 30
0.0
 41
3.0
 42
3.0
 43
3.0
  0
MTEXT
  5
8A1
330
689
100
AcDbEntity
  8
寸法線
 62
     0
440
 16777216
100
AcDbMText
 10
-80.86204409387162
 20
-81.45678294528812
 30
0.0
 40
3.200000047683716
 41
0.0
 71
     5
 72
     1
  1
L1
 73
     1
 44
1.0
  0
POINT
  5
8A2
330
689
100
AcDbEntity
  8
Defpoints
 62
     0
440
 16777216
100
AcDbPoint
 10
-92.98954427458557
 20
-66.53534659801358
 30
0.0
  0
POINT
  5
8A3
330
689
100
AcDbEntity
  8
Defpoints
 62
     0
440
 16777216
100
AcDbPoint
 10
-68.73454391315775
 20
-52.89477338181409
 30
0.0
  0
POINT
  5
8A4
330
689
100
AcDbEntity
  8
Defpoints
 62
     0
440
 16777216
100
AcDbPoint
 10
-68.73454391315775
 20
-83.85678298105091
 30
0.0
  0
ENDBLK
  5
694
330
689
100
AcDbEntity
  8
0
100
AcDbBlockEnd
  0
BLOCK
  5
69F
330
695
100
AcDbEntity
  8
0
100
AcDbBlockBegin
  2
*D18
 70
     1
 10
0.0
 20
0.0
 30
0.0
  3
*D18
  1

  0
LINE
  5
8A5
330
695
100
AcDbEntity
  8
寸法線
 62
     0
440
 16777216
370
    -2
100
AcDbLine
 10
-94.19986313232278
 20
-68.93727362086615
 30
0.0
 11
-103.2995741125221
 21
-68.93727362086615
 31
0.0
  0
LINE
  5
8A6
330
695
100
AcDbEntity
  8
寸法線
 62
     0
440
 16777216
370
    -2
100
AcDbLine
 10
-94.19986313232278
 20
-36.85227314276239
 30
0.0
 11
-103.2995741125221
 21
-36.85227314276239
 31
0.0
  0
LINE
  5
8A7
330
695
100
AcDbEntity
  8
寸法線
 62
     0
440
 16777216
370
    -2
100
AcDbLine
 10
-101.8708240912319
 20
-65.93727362086615
 30
0.0
 11
-101.8708240912319
 21
-39.85227314276239
 31
0.0
  0
INSERT
  5
8A8
330
695
100
AcDbEntity
  8
寸法線
 62
     0
440
 16777216
370
    -2
100
AcDbBlockReference
  2
_Open30
 10
-101.8708240912319
 20
-68.93727362086615
 30
0.0
 41
3.0
 42
3.0
 43
3.0
 50
270.0
  0
INSERT
  5
8A9
330
695
100
AcDbEntity
  8
寸法線
 62
     0
440
 16777216
370
    -2
100
AcDbBlockReference
  2
_Open30
 10
-101.8708240912319
 20
-36.85227314276239
 30
0.0
 41
3.0
 42
3.0
 43
3.0
 50
90.0
  0
MTEXT
  5
8AA
102
{ACAD_XDICTIONARY
360
B81
102
}
330
695
100
AcDbEntity
  8
寸法線
 62
     0
440
 16777216
100
AcDbMText
 10
-104.2708241269947
 20
-52.89477338181429
 30
0.0
 40
3.200000047683716
 41
0.0
 71
     5
 72
     1
  1
\U+2205A
 11
0.0000000000000001
 21
1.0
 31
0.0
 73
     1
 44
1.0
  0
POINT
  5
8AB
330
695
100
AcDbEntity
  8
Defpoints
 62
     0
440
 16777216
100
AcDbPoint
 10
-91.65986313232279
 20
-68.93727362086615
 30
0.0
  0
POINT
  5
8AC
330
695
100
AcDbEntity
  8
Defpoints
 62
     0
440
 16777216
100
AcDbPoint
 10
-91.65986313232279
 20
-36.85227314276239
 30
0.0
  0
POINT
  5
8AD
330
695
100
AcDbEntity
  8
Defpoints
 62
     0
440
 16777216
100
AcDbPoint
 10
-101.8708240912319
 20
-36.85227314276239
 30
0.0
  0
ENDBLK
  5
6A0
330
695
100
AcDbEntity
  8
0
100
AcDbBlockEnd
  0
ENDSEC
  0
SECTION
  2
ENTITIES
  0
POINT
  5
2E
330
1F
100
AcDbEntity
  8
0
 62
     7
100
AcDbPoint
 10
23.01187177593107
 20
30.35010253217693
 30
0.0
  0
POINT
  5
30
330
1F
100
AcDbEntity
  8
0
 62
     7
100
AcDbPoint
 10
23.0118717759311
 20
30.35010253217693
 30
0.0
  0
LINE
  5
32
330
1F
100
AcDbEntity
  8
外形線
100
AcDbLine
 10
-85.4292205909482
 20
53.34727099337165
 30
0.0
 11
-84.76208818171583
 21
55.90227022905526
 31
0.0
  0
LINE
  5
33
330
1F
100
AcDbEntity
  8
外形線
100
AcDbLine
 10
-85.42921641482735
 20
53.3472695774027
 30
0.0
 11
-86.95998576297188
 21
53.3472695774027
 31
0.0
  0
LINE
  5
34
330
1F
100
AcDbEntity
  8
外形線
100
AcDbLine
 10
-86.37700846805001
 20
25.20226959647619
 30
0.0
 11
-84.90499308719064
 21
25.20226959647619
 31
0.0
  0
LINE
  5
35
330
1F
100
AcDbEntity
  8
外形線
100
AcDbLine
 10
-84.76809123172188
 20
55.90227035941564
 30
0.0
 11
-83.29606822146798
 21
55.90227035941564
 31
0.0
  0
LINE
  5
36
330
1F
100
AcDbEntity
  8
外形線
100
AcDbLine
 10
-81.05422110613764
 20
53.34727004924658
 30
0.0
 11
-80.38708845597039
 21
55.90227020766803
 31
0.0
  0
LINE
  5
37
330
1F
100
AcDbEntity
  8
外形線
100
AcDbLine
 10
-82.89674278916653
 20
53.34727059360933
 30
0.0
 11
-83.29607134182536
 21
55.90226842420921
 31
0.0
  0
LINE
  5
38
330
1F
100
AcDbEntity
  8
外形線
100
AcDbLine
 10
-84.90498916774159
 20
25.20226843684834
 30
0.0
 11
-83.29607025060687
 21
55.90227007581026
 31
0.0
  0
LINE
  5
39
330
1F
100
AcDbEntity
  8
外形線
100
AcDbLine
 10
-84.23785515345425
 20
27.75727112703872
 30
0.0
 11
-82.89674014206992
 21
53.34726985789964
 31
0.0
  0
LINE
  5
3A
330
1F
100
AcDbEntity
  8
外形線
100
AcDbLine
 10
-82.39533371950356
 20
27.75727082988325
 30
0.0
 11
-81.05421868316353
 21
53.34727003692785
 31
0.0
  0
LINE
  5
3B
330
1F
100
AcDbEntity
  8
外形線
100
AcDbLine
 10
-84.90498915416358
 20
25.20226724336631
 30
0.0
 11
-84.23785602212673
 21
27.75726924726342
 31
0.0
  0
LINE
  5
3C
330
1F
100
AcDbEntity
  8
外形線
100
AcDbLine
 10
-86.95998576297188
 20
27.75726990165197
 30
0.0
 11
-86.74379161013986
 21
27.75726990165197
 31
0.0
  0
LINE
  5
3D
330
1F
100
AcDbEntity
  8
外形線
100
AcDbLine
 10
-82.39532932957645
 20
27.75726991406435
 30
0.0
 11
-81.99600062965265
 21
25.20227114122895
 31
0.0
  0
LINE
  5
3E
330
1F
100
AcDbEntity
  8
外形線
100
AcDbLine
 10
-81.05421641482735
 20
53.3472695774027
 30
0.0
 11
-82.89674571170236
 21
53.3472695774027
 31
0.0
  0
LINE
  5
3F
330
1F
100
AcDbEntity
  8
外形線
100
AcDbLine
 10
-82.00200846805001
 20
25.20226959647619
 30
0.0
 11
-80.52999308719064
 21
25.20226959647619
 31
0.0
  0
LINE
  5
40
330
1F
100
AcDbEntity
  8
外形線
100
AcDbLine
 10
-80.39309123172188
 20
55.90227035941564
 30
0.0
 11
-78.92106822146797
 21
55.90227035941564
 31
0.0
  0
LINE
  5
41
330
1F
100
AcDbEntity
  8
外形線
100
AcDbLine
 10
-76.67922113945728
 20
53.3472709505972
 30
0.0
 11
-76.01208873022493
 21
55.90227018628081
 31
0.0
  0
LINE
  5
42
330
1F
100
AcDbEntity
  8
外形線
100
AcDbLine
 10
-78.52174196116049
 20
53.34727048828938
 30
0.0
 11
-78.9210708083492
 21
55.90227020336027
 31
0.0
  0
LINE
  5
43
330
1F
100
AcDbEntity
  8
外形線
100
AcDbLine
 10
-80.52998999758992
 20
25.20227015436435
 30
0.0
 11
-78.92107118027816
 21
55.90226988859157
 31
0.0
  0
LINE
  5
44
330
1F
100
AcDbEntity
  8
外形線
100
AcDbLine
 10
-79.86285618294838
 20
27.75726903508534
 30
0.0
 11
-78.52174104678542
 21
53.3472701468646
 31
0.0
  0
LINE
  5
45
330
1F
100
AcDbEntity
  8
外形線
100
AcDbLine
 10
-78.02033474899774
 20
27.75726873792988
 30
0.0
 11
-76.67921960035695
 21
53.34727008780098
 31
0.0
  0
LINE
  5
46
330
1F
100
AcDbEntity
  8
外形線
100
AcDbLine
 10
-80.52998942841812
 20
25.2022672219791
 30
0.0
 11
-79.86285629638128
 21
27.75726922587619
 31
0.0
  0
LINE
  5
47
330
1F
100
AcDbEntity
  8
外形線
100
AcDbLine
 10
-79.86285594119451
 20
27.75726990165197
 30
0.0
 11
-78.02033427371407
 21
27.75726990165197
 31
0.0
  0
LINE
  5
48
330
1F
100
AcDbEntity
  8
外形線
100
AcDbLine
 10
-78.02032864883539
 20
27.7572707509799
 30
0.0
 11
-77.62099950711683
 21
25.20226915143799
 31
0.0
  0
LINE
  5
49
330
1F
100
AcDbEntity
  8
外形線
100
AcDbLine
 10
-76.67921641482735
 20
53.3472695774027
 30
0.0
 11
-78.52174571170235
 21
53.3472695774027
 31
0.0
  0
LINE
  5
4A
330
1F
100
AcDbEntity
  8
外形線
100
AcDbLine
 10
-77.62700846805
 20
25.20226959647619
 30
0.0
 11
-76.15499308719063
 21
25.20226959647619
 31
0.0
  0
LINE
  5
4B
330
1F
100
AcDbEntity
  8
外形線
100
AcDbLine
 10
-76.01809123172188
 20
55.90227035941564
 30
0.0
 11
-74.54606822146797
 21
55.90227035941564
 31
0.0
  0
LINE
  5
4C
330
1F
100
AcDbEntity
  8
外形線
100
AcDbLine
 10
-72.30422141371187
 20
53.34727092920998
 30
0.0
 11
-71.63708876354466
 21
55.90227108763142
 31
0.0
  0
LINE
  5
4D
330
1F
100
AcDbEntity
  8
外形線
100
AcDbLine
 10
-74.14674113315456
 20
53.34727038296943
 30
0.0
 11
-74.54606998034325
 21
55.90227009804033
 31
0.0
  0
LINE
  5
4E
330
1F
100
AcDbEntity
  8
外形線
100
AcDbLine
 10
-76.15499102708406
 20
25.20226806241097
 30
0.0
 11
-74.54607210994936
 21
55.90226970137289
 31
0.0
  0
LINE
  5
4F
330
1F
100
AcDbEntity
  8
外形線
100
AcDbLine
 10
-75.48785701279668
 20
27.75727075260133
 30
0.0
 11
-74.14674197645665
 21
53.34726995964593
 31
0.0
  0
LINE
  5
50
330
1F
100
AcDbEntity
  8
外形線
100
AcDbLine
 10
-73.64533567866903
 20
27.7572685507112
 30
0.0
 11
-72.30422053002815
 21
53.34726990058229
 31
0.0
  0
LINE
  5
51
330
1F
100
AcDbEntity
  8
外形線
100
AcDbLine
 10
-76.15498873893336
 20
25.2022708915432
 30
0.0
 11
-75.48785657063581
 21
27.75726920448896
 31
0.0
  0
LINE
  5
52
330
1F
100
AcDbEntity
  8
外形線
100
AcDbLine
 10
-75.48785594119454
 20
27.75726990165197
 30
0.0
 11
-73.64533427371407
 21
27.75726990165197
 31
0.0
  0
LINE
  5
53
330
1F
100
AcDbEntity
  8
外形線
100
AcDbLine
 10
-73.64533535871345
 20
27.75726946754064
 30
0.0
 11
-73.24600636425981
 21
25.20226881023422
 31
0.0
  0
LINE
  5
54
330
1F
100
AcDbEntity
  8
外形線
100
AcDbLine
 10
-72.30421641482735
 20
53.3472695774027
 30
0.0
 11
-74.14674571170235
 21
53.3472695774027
 31
0.0
  0
LINE
  5
55
330
1F
100
AcDbEntity
  8
外形線
100
AcDbLine
 10
-73.25200846805
 20
25.20226959647619
 30
0.0
 11
-71.77999308719063
 21
25.20226959647619
 31
0.0
  0
LINE
  5
56
330
1F
100
AcDbEntity
  8
外形線
100
AcDbLine
 10
-71.64309123172188
 20
55.90227035941564
 30
0.0
 11
-70.17106822146797
 21
55.90227035941564
 31
0.0
  0
LINE
  5
57
330
1F
100
AcDbEntity
  8
外形線
100
AcDbLine
 10
-67.92921430606373
 20
53.34726898034411
 30
0.0
 11
-67.54012599438346
 21
54.8374084567045
 31
0.0
  0
LINE
  5
58
330
1F
100
AcDbEntity
  8
外形線
100
AcDbLine
 10
-69.77174030514857
 20
53.34727027764948
 30
0.0
 11
-70.17106915233728
 21
55.90226999272039
 31
0.0
  0
LINE
  5
59
330
1F
100
AcDbEntity
  8
外形線
100
AcDbLine
 10
-71.77999185693237
 20
25.20226977992695
 30
0.0
 11
-70.17107301466487
 21
55.90226999033784
 31
0.0
  0
LINE
  5
5A
330
1F
100
AcDbEntity
  8
外形線
100
AcDbLine
 10
-71.11285804229081
 20
27.75726866064796
 30
0.0
 11
-69.77174289365004
 21
53.34727001051907
 31
0.0
  0
LINE
  5
5B
330
1F
100
AcDbEntity
  8
外形線
100
AcDbLine
 10
-69.27032888957864
 20
27.75726986893551
 30
0.0
 11
-67.92921381580497
 21
53.3472697902556
 31
0.0
  0
LINE
  5
5C
330
1F
100
AcDbEntity
  8
外形線
100
AcDbLine
 10
-71.77998997692725
 20
25.20226717920464
 30
0.0
 11
-71.1128568448904
 21
27.75726918310176
 31
0.0
  0
LINE
  5
5D
330
1F
100
AcDbEntity
  8
外形線
100
AcDbLine
 10
-71.11285594119454
 20
27.75726990165197
 30
0.0
 11
-69.27033427371407
 21
27.75726990165197
 31
0.0
  0
LINE
  5
5E
330
1F
100
AcDbEntity
  8
外形線
100
AcDbLine
 10
-69.27033445707502
 20
27.75726889110294
 30
0.0
 11
-68.87100568351872
 21
25.20226964714979
 31
0.0
  0
LINE
  5
5F
330
1F
100
AcDbEntity
  8
外形線
100
AcDbLine
 10
-67.92921641482735
 20
53.3472695774027
 30
0.0
 11
-69.77174571170235
 21
53.3472695774027
 31
0.0
  0
LINE
  5
60
330
1F
100
AcDbEntity
  8
外形線
100
AcDbLine
 10
-68.87700846805
 20
25.20226959647619
 30
0.0
 11
-67.40499308719063
 21
25.20226959647619
 31
0.0
  0
LINE
  5
61
330
1F
100
AcDbEntity
  8
外形線
100
AcDbLine
 10
-67.40499278660365
 20
25.20226959270826
 30
0.0
 11
-65.93595241367421
 21
53.23322962203775
 31
0.0
  0
LINE
  5
62
330
1F
100
AcDbEntity
  8
外形線
100
AcDbLine
 10
-66.73785897196211
 20
27.75726847342927
 30
0.0
 11
-65.42927423965171
 21
52.7265525055881
 31
0.0
  0
LINE
  5
63
330
1F
100
AcDbEntity
  8
外形線
100
AcDbLine
 10
-64.89532981924987
 20
27.75726968171682
 30
0.0
 11
-63.67849918473513
 21
50.97578124006782
 31
0.0
  0
LINE
  5
64
330
1F
100
AcDbEntity
  8
外形線
100
AcDbLine
 10
-67.40498928744243
 20
25.20227084876875
 30
0.0
 11
-66.73785711914494
 21
27.75726916171453
 31
0.0
  0
LINE
  5
65
330
1F
100
AcDbEntity
  8
外形線
100
AcDbLine
 10
-66.73785594119454
 20
27.75726990165197
 30
0.0
 11
-64.89533427371407
 21
27.75726990165197
 31
0.0
  0
LINE
  5
66
330
1F
100
AcDbEntity
  8
外形線
100
AcDbLine
 10
-64.8953335554366
 20
27.75726831466525
 30
0.0
 11
-64.49600456098295
 21
25.20226765735884
 31
0.0
  0
LINE
  5
67
330
1F
100
AcDbEntity
  8
外形線
100
AcDbLine
 10
-64.50200846805
 20
25.20226959647619
 30
0.0
 11
-63.02999308719062
 21
25.20226959647619
 31
0.0
  0
LINE
  5
68
330
1F
100
AcDbEntity
  8
外形線
100
AcDbLine
 10
-63.03402566363607
 20
25.12533526711948
 30
0.0
 11
-61.77881948668018
 21
49.07609579295552
 31
0.0
  0
LINE
  5
69
330
1F
100
AcDbEntity
  8
外形線
100
AcDbLine
 10
-62.36285980181043
 20
27.75727019094525
 30
0.0
 11
-61.27214129550064
 21
48.56941900388216
 31
0.0
  0
LINE
  5
6A
330
1F
100
AcDbEntity
  8
外形線
100
AcDbLine
 10
-60.52033074892108
 20
27.75726949449814
 30
0.0
 11
-59.52136625306192
 21
46.81864750027004
 31
0.0
  0
LINE
  5
6B
330
1F
100
AcDbEntity
  8
外形線
100
AcDbLine
 10
-63.02998956169699
 20
25.20227082738154
 30
0.0
 11
-62.36285739339948
 21
27.7572691403273
 31
0.0
  0
LINE
  5
6C
330
1F
100
AcDbEntity
  8
外形線
100
AcDbLine
 10
-62.36285594119453
 20
27.75726990165197
 30
0.0
 11
-60.52033427371406
 21
27.75726990165197
 31
0.0
  0
LINE
  5
6D
330
1F
100
AcDbEntity
  8
外形線
100
AcDbLine
 10
-60.52033294832797
 20
27.75726962269856
 30
0.0
 11
-60.12100402750679
 21
25.20226943650991
 31
0.0
  0
LINE
  5
6E
330
1F
100
AcDbEntity
  8
外形線
100
AcDbLine
 10
-60.12700846805
 20
25.20226959647619
 30
0.0
 11
-58.65499308719062
 21
25.20226959647619
 31
0.0
  0
LINE
  5
6F
330
1F
100
AcDbEntity
  8
外形線
100
AcDbLine
 10
-58.63505219122896
 20
25.58264814360061
 30
0.0
 11
-57.62167893138909
 21
44.9189617431505
 31
0.0
  0
LINE
  5
70
330
1F
100
AcDbEntity
  8
外形線
100
AcDbLine
 10
-57.98786073148164
 20
27.75727000372656
 30
0.0
 11
-57.11500838878315
 21
44.4122847879007
 31
0.0
  0
LINE
  5
71
330
1F
100
AcDbEntity
  8
外形線
100
AcDbLine
 10
-56.14533167859235
 20
27.75726930727943
 30
0.0
 11
-55.36423334010553
 21
42.66151340333451
 31
0.0
  0
LINE
  5
72
330
1F
100
AcDbEntity
  8
外形線
100
AcDbLine
 10
-58.65499079969089
 20
25.20226711504297
 30
0.0
 11
-57.98785766765402
 21
27.75726911894007
 31
0.0
  0
LINE
  5
73
330
1F
100
AcDbEntity
  8
外形線
100
AcDbLine
 10
-57.98785594119453
 20
27.75726990165197
 30
0.0
 11
-56.1453304590168
 21
27.75726990165197
 31
0.0
  0
LINE
  5
74
330
1F
100
AcDbEntity
  8
外形線
100
AcDbLine
 10
-56.14533234121935
 20
27.75727093073186
 30
0.0
 11
-55.74600334676574
 21
25.20227027342547
 31
0.0
  0
LINE
  5
75
330
1F
100
AcDbEntity
  8
外形線
100
AcDbLine
 10
-55.75200846805
 20
25.20226959647619
 30
0.0
 11
-54.27998927249336
 21
25.20226959647619
 31
0.0
  0
LINE
  5
76
330
1F
100
AcDbEntity
  8
外形線
100
AcDbLine
 10
-54.27204027202794
 20
25.35399237689934
 30
0.0
 11
-53.46454980294632
 21
40.76182832204446
 31
0.0
  0
LINE
  5
77
330
1F
100
AcDbEntity
  8
外形線
100
AcDbLine
 10
-53.61285785168357
 20
27.75726961686203
 30
0.0
 11
-52.95787164140165
 21
40.25515096750299
 31
0.0
  0
LINE
  5
78
330
1F
100
AcDbEntity
  8
外形線
100
AcDbLine
 10
-51.77033260826359
 20
27.75726912006077
 30
0.0
 11
-51.20710042714911
 21
38.50437930639897
 31
0.0
  0
LINE
  5
79
330
1F
100
AcDbEntity
  8
外形線
100
AcDbLine
 10
-54.27999011020609
 20
25.20227078460708
 30
0.0
 11
-53.61285794190857
 21
27.75726909755287
 31
0.0
  0
LINE
  5
7A
330
1F
100
AcDbEntity
  8
外形線
100
AcDbLine
 10
-53.61285594119453
 20
27.75726990165197
 30
0.0
 11
-51.7703304590168
 21
27.75726990165197
 31
0.0
  0
LINE
  5
7B
330
1F
100
AcDbEntity
  8
外形線
100
AcDbLine
 10
-51.77033121868356
 20
27.75726894094093
 30
0.0
 11
-51.37100266602467
 21
25.20227111034102
 31
0.0
  0
LINE
  5
7C
330
1F
100
AcDbEntity
  8
外形線
100
AcDbLine
 10
-51.37700846805
 20
25.20226959647619
 30
0.0
 11
-49.90498927249336
 21
25.20226959647619
 31
0.0
  0
LINE
  5
7D
330
1F
100
AcDbEntity
  8
外形線
100
AcDbLine
 10
-49.90902073388816
 20
25.12533621090641
 30
0.0
 11
-49.30741308052057
 21
36.60469402546312
 31
0.0
  0
LINE
  5
7E
330
1F
100
AcDbEntity
  8
外形線
100
AcDbLine
 10
-49.23785497188543
 20
27.7572692299975
 30
0.0
 11
-48.80073486906447
 21
36.098017623289
 31
0.0
  0
LINE
  5
7F
330
1F
100
AcDbEntity
  8
外形線
100
AcDbLine
 10
-47.39532972846546
 20
27.75726873319622
 30
0.0
 11
-47.04996365481187
 21
34.34724596218494
 31
0.0
  0
LINE
  5
80
330
1F
100
AcDbEntity
  8
外形線
100
AcDbLine
 10
-49.90499038446063
 20
25.20227076321986
 30
0.0
 11
-49.23785821616312
 21
27.75726907616563
 31
0.0
  0
LINE
  5
81
330
1F
100
AcDbEntity
  8
外形線
100
AcDbLine
 10
-49.23785594119453
 20
27.75726990165197
 30
0.0
 11
-47.39533045901679
 21
27.75726990165197
 31
0.0
  0
LINE
  5
82
330
1F
100
AcDbEntity
  8
外形線
100
AcDbLine
 10
-47.39533053794249
 20
27.75726977785649
 30
0.0
 11
-46.99600154348888
 21
25.20226912055007
 31
0.0
  0
LINE
  5
83
330
1F
100
AcDbEntity
  8
外形線
100
AcDbLine
 10
-47.00200846805
 20
25.20226959647619
 30
0.0
 11
-45.52998927249336
 21
25.20226959647619
 31
0.0
  0
LINE
  5
84
330
1F
100
AcDbEntity
  8
外形線
100
AcDbLine
 10
-45.52998981602113
 20
25.20226825732313
 30
0.0
 11
-45.15028011765266
 21
32.44756088089491
 31
0.0
  0
LINE
  5
85
330
1F
100
AcDbEntity
  8
外形線
100
AcDbLine
 10
-44.86285971102603
 20
27.75726924242464
 30
0.0
 11
-44.6436057655774
 21
31.94088372599928
 31
0.0
  0
LINE
  5
86
330
1F
100
AcDbEntity
  8
外形線
100
AcDbLine
 10
-43.02033436778313
 20
27.75727065035804
 30
0.0
 11
-42.89283455132485
 21
30.19011206489523
 31
0.0
  0
LINE
  5
87
330
1F
100
AcDbEntity
  8
外形線
100
AcDbLine
 10
-45.5299906587152
 20
25.20227074183264
 30
0.0
 11
-44.862858008548
 21
27.75727090025407
 31
0.0
  0
LINE
  5
88
330
1F
100
AcDbEntity
  8
外形線
100
AcDbLine
 10
-44.86285594119453
 20
27.75726990165197
 30
0.0
 11
-43.02033427371406
 21
27.75726990165197
 31
0.0
  0
LINE
  5
89
330
1F
100
AcDbEntity
  8
外形線
100
AcDbLine
 10
-43.02033362614347
 20
27.75727002571237
 30
0.0
 11
-42.62100418989507
 21
25.20226654169946
 31
0.0
  0
LINE
  5
8A
330
1F
100
AcDbEntity
  8
外形線
100
AcDbLine
 10
-42.62700846805
 20
25.20226959647619
 30
0.0
 11
-41.15498927249336
 21
25.20226959647619
 31
0.0
  0
LINE
  5
8B
330
1F
100
AcDbEntity
  8
外形線
100
AcDbLine
 10
-41.15498683640008
 20
25.20226977519329
 30
0.0
 11
-40.99314344513834
 21
28.29042563194621
 31
0.0
  0
LINE
  5
8C
330
1F
100
AcDbEntity
  8
外形線
100
AcDbLine
 10
-41.15498724201841
 20
25.20226975670607
 30
0.0
 11
-40.48208468447668
 21
27.77936764074823
 31
0.0
  0
LINE
  5
8D
330
1F
100
AcDbEntity
  8
外形線
100
AcDbLine
 10
-64.50200467979865
 20
25.20226878773738
 30
0.0
 11
-63.17752694153961
 21
50.47480943741444
 31
0.0
  0
LINE
  5
8E
330
1F
100
AcDbEntity
  8
外形線
100
AcDbLine
 10
-68.87297180276623
 20
25.27920311332616
 30
0.0
 11
-67.33465985449604
 21
54.63194353434996
 31
0.0
  0
LINE
  5
8F
330
1F
100
AcDbEntity
  8
外形線
100
AcDbLine
 10
-60.10303882633029
 20
25.65958206351016
 30
0.0
 11
-59.02039402858324
 21
46.3176753404789
 31
0.0
  0
LINE
  5
90
330
1F
100
AcDbEntity
  8
外形線
100
AcDbLine
 10
-55.74002309765987
 20
25.43092609716307
 30
0.0
 11
-54.86326111562681
 21
42.16054124354335
 31
0.0
  0
LINE
  5
91
330
1F
100
AcDbEntity
  8
外形線
100
AcDbLine
 10
-51.37700736898946
 20
25.20227013081599
 30
0.0
 11
-50.70612810284747
 21
38.0034090513425
 31
0.0
  0
LINE
  5
92
330
1F
100
AcDbEntity
  8
外形線
100
AcDbLine
 10
-42.62297728097076
 20
25.27920389474868
 30
0.0
 11
-42.3918623767576
 21
29.68913895273676
 31
0.0
  0
LINE
  5
93
330
1F
100
AcDbEntity
  8
外形線
100
AcDbLine
 10
-77.62297766218535
 20
25.27920198232053
 30
0.0
 11
-76.01809064250037
 21
55.90227043527971
 31
0.0
  0
LINE
  5
94
330
1F
100
AcDbEntity
  8
外形線
100
AcDbLine
 10
-81.99797663269118
 20
25.27920407427389
 30
0.0
 11
-80.39308973778492
 21
55.90227014631473
 31
0.0
  0
LINE
  5
95
330
1F
100
AcDbEntity
  8
外形線
100
AcDbLine
 10
-86.37668721882388
 20
25.20838432143816
 30
0.0
 11
-84.76808880811361
 21
55.90227033353342
 31
0.0
  0
LINE
  5
96
330
1F
100
AcDbEntity
  8
外形線
100
AcDbLine
 10
-73.24797849203367
 20
25.27920369983653
 30
0.0
 11
-71.64309157217164
 21
55.902270248061
 31
0.0
  0
LINE
  5
97
330
1F
100
AcDbEntity
  8
外形線
100
AcDbLine
 10
-37.75127223147774
 20
74.81065849723302
 30
0.0
 11
-37.75127223147774
 21
73.4088716930338
 31
0.0
  0
LINE
  5
98
330
1F
100
AcDbEntity
  8
外形線
100
AcDbLine
 10
-40.30626962741052
 20
73.00954215013581
 30
0.0
 11
-37.75126991233964
 21
73.40887099732452
 31
0.0
  0
LINE
  5
99
330
1F
100
AcDbEntity
  8
外形線
100
AcDbLine
 10
-64.49894450580126
 20
74.81065687900184
 30
0.0
 11
-37.7512735136139
 21
73.4088708349904
 31
0.0
  0
LINE
  5
9A
330
1F
100
AcDbEntity
  8
外形線
100
AcDbLine
 10
-65.89627178655596
 20
74.35065952235138
 30
0.0
 11
-40.30627186523588
 21
73.00954444857774
 31
0.0
  0
LINE
  5
9B
330
1F
100
AcDbEntity
  8
外形線
100
AcDbLine
 10
-67.657987260238
 20
74.8106581401959
 30
0.0
 11
-65.89627404408261
 21
74.35065957508644
 31
0.0
  0
LINE
  5
9C
330
1F
100
AcDbEntity
  8
外形線
100
AcDbLine
 10
-40.30627400590542
 20
71.16701795899762
 30
0.0
 11
-37.75127200200831
 21
70.49988482696079
 31
0.0
  0
LINE
  5
9D
330
1F
100
AcDbEntity
  8
外形線
100
AcDbLine
 10
-65.89627418809192
 20
72.50813437875433
 30
0.0
 11
-40.30627045730247
 21
71.16701910533487
 31
0.0
  0
LINE
  5
9E
330
1F
100
AcDbEntity
  8
外形線
100
AcDbLine
 10
-65.89627268924139
 20
74.35065941276036
 30
0.0
 11
-65.89627268924139
 21
72.50813202323398
 31
0.0
  0
LINE
  5
9F
330
1F
100
AcDbEntity
  8
外形線
100
AcDbLine
 10
-65.8962737227217
 20
72.50813201769301
 30
0.0
 11
-68.45126966885057
 21
72.10880375956396
 31
0.0
  0
LINE
  5
A0
330
1F
100
AcDbEntity
  8
外形線
100
AcDbLine
 10
-40.30627253665352
 20
71.16701797904454
 30
0.0
 11
-40.30627253665352
 21
73.00954155387366
 31
0.0
  0
LINE
  5
A1
330
1F
100
AcDbEntity
  8
外形線
100
AcDbLine
 10
-68.4512729944172
 20
72.11480812491856
 30
0.0
 11
-68.4512729944172
 21
70.64279274405919
 31
0.0
  0
LINE
  5
A2
330
1F
100
AcDbEntity
  8
外形線
100
AcDbLine
 10
-37.75127223147774
 20
70.50588707389319
 30
0.0
 11
-37.75127223147774
 21
69.0338716930338
 31
0.0
  0
LINE
  5
A3
330
1F
100
AcDbEntity
  8
外形線
100
AcDbLine
 10
-40.30626814278928
 20
68.63454350113068
 30
0.0
 11
-37.7512721966604
 21
69.03387175925974
 31
0.0
  0
LINE
  5
A4
330
1F
100
AcDbEntity
  8
外形線
100
AcDbLine
 10
-68.45127285905322
 20
70.64279246175238
 30
0.0
 11
-37.75126979154033
 21
69.0338734697505
 31
0.0
  0
LINE
  5
A5
330
1F
100
AcDbEntity
  8
外形線
100
AcDbLine
 10
-65.89626826412818
 20
69.97565834764211
 30
0.0
 11
-40.30626834280812
 21
68.63454327386846
 31
0.0
  0
LINE
  5
A6
330
1F
100
AcDbEntity
  8
外形線
100
AcDbLine
 10
-68.45126904886652
 20
70.64278966979242
 30
0.0
 11
-65.89627442687208
 21
69.97565846523421
 31
0.0
  0
LINE
  5
A7
330
1F
100
AcDbEntity
  8
外形線
100
AcDbLine
 10
-68.37433903896664
 20
72.110777192119
 30
0.0
 11
-37.75127201455844
 21
70.50589024730124
 31
0.0
  0
LINE
  5
A8
330
1F
100
AcDbEntity
  8
外形線
100
AcDbLine
 10
-40.30626985447161
 20
66.79201911498854
 30
0.0
 11
-37.75127154152588
 21
66.12488694669099
 31
0.0
  0
LINE
  5
A9
330
1F
100
AcDbEntity
  8
外形線
100
AcDbLine
 10
-65.89627066566418
 20
68.13313320404507
 30
0.0
 11
-40.30627074434407
 21
66.79201813027143
 31
0.0
  0
LINE
  5
AA
330
1F
100
AcDbEntity
  8
外形線
100
AcDbLine
 10
-65.89627268924139
 20
69.97565941276036
 30
0.0
 11
-65.89627268924139
 21
68.13313202323399
 31
0.0
  0
LINE
  5
AB
330
1F
100
AcDbEntity
  8
外形線
100
AcDbLine
 10
-65.8962681746286
 20
68.13313207327651
 30
0.0
 11
-68.45127165864153
 21
67.73380263702816
 31
0.0
  0
LINE
  5
AC
330
1F
100
AcDbEntity
  8
外形線
100
AcDbLine
 10
-40.30627253665352
 20
66.79201797904454
 30
0.0
 11
-40.30627253665352
 21
68.63454346122228
 31
0.0
  0
LINE
  5
AD
330
1F
100
AcDbEntity
  8
外形線
100
AcDbLine
 10
-68.4512729944172
 20
67.73980812491856
 30
0.0
 11
-68.4512729944172
 21
66.26779083671056
 31
0.0
  0
LINE
  5
AE
330
1F
100
AcDbEntity
  8
外形線
100
AcDbLine
 10
-37.75127223147774
 20
66.13088898124181
 30
0.0
 11
-37.75127223147774
 21
64.6588716930338
 31
0.0
  0
LINE
  5
AF
330
1F
100
AcDbEntity
  8
外形線
100
AcDbLine
 10
-40.30627042711006
 20
64.25954426306589
 30
0.0
 11
-37.75127071203917
 21
64.6588731102546
 31
0.0
  0
LINE
  5
B0
330
1F
100
AcDbEntity
  8
外形線
100
AcDbLine
 10
-68.45126943644844
 20
66.26778938230845
 30
0.0
 11
-37.75127017840487
 21
64.6588705899524
 31
0.0
  0
LINE
  5
B1
330
1F
100
AcDbEntity
  8
外形線
100
AcDbLine
 10
-65.89627231072774
 20
65.60065852459182
 30
0.0
 11
-40.30627238940764
 21
64.25954345081819
 31
0.0
  0
LINE
  5
B2
330
1F
100
AcDbEntity
  8
外形線
100
AcDbLine
 10
-68.45126895731555
 20
66.26779037658032
 30
0.0
 11
-65.89627433532107
 21
65.60065917202215
 31
0.0
  0
LINE
  5
B3
330
1F
100
AcDbEntity
  8
外形線
100
AcDbLine
 10
-68.37433551653884
 20
67.73577601740974
 30
0.0
 11
-37.75127230160007
 21
66.13088927223781
 31
0.0
  0
LINE
  5
B4
330
1F
100
AcDbEntity
  8
外形線
100
AcDbLine
 10
-40.30627386797874
 20
62.41701919956014
 30
0.0
 11
-37.75127186408165
 21
61.74988606752325
 31
0.0
  0
LINE
  5
B5
330
1F
100
AcDbEntity
  8
外形線
100
AcDbLine
 10
-65.89627471226369
 20
63.75813338099479
 30
0.0
 11
-40.30627098147426
 21
62.41701810757533
 31
0.0
  0
LINE
  5
B6
330
1F
100
AcDbEntity
  8
外形線
100
AcDbLine
 10
-65.89627268924139
 20
65.60065750541173
 30
0.0
 11
-65.89627268924139
 21
63.75813202323399
 31
0.0
  0
LINE
  5
B7
330
1F
100
AcDbEntity
  8
外形線
100
AcDbLine
 10
-65.89627045894939
 20
63.75813283521175
 30
0.0
 11
-68.45127394296229
 21
63.35880339896334
 31
0.0
  0
LINE
  5
B8
330
1F
100
AcDbEntity
  8
外形線
100
AcDbLine
 10
-40.30627253665352
 20
62.41701797904454
 30
0.0
 11
-40.30627253665352
 21
64.25954346122228
 31
0.0
  0
LINE
  5
B9
330
1F
100
AcDbEntity
  8
外形線
100
AcDbLine
 10
-68.4512729944172
 20
63.36480812491856
 30
0.0
 11
-68.4512729944172
 21
61.89279083671056
 31
0.0
  0
LINE
  5
BA
330
1F
100
AcDbEntity
  8
外形線
100
AcDbLine
 10
-37.75127223147774
 20
61.75588898124181
 30
0.0
 11
-37.75127223147774
 21
60.2838726467081
 31
0.0
  0
LINE
  5
BB
330
1F
100
AcDbEntity
  8
外形線
100
AcDbLine
 10
-40.30627241690104
 20
59.88454314053007
 30
0.0
 11
-37.75126893288811
 21
60.28387257677843
 31
0.0
  0
LINE
  5
BC
330
1F
100
AcDbEntity
  8
外形線
100
AcDbLine
 10
-68.45127343313646
 20
61.89279051162552
 30
0.0
 11
-37.75127036562356
 21
60.28387151962365
 31
0.0
  0
LINE
  5
BD
330
1F
100
AcDbEntity
  8
外形線
100
AcDbLine
 10
-65.89626878829996
 20
61.22565734988256
 30
0.0
 11
-40.30627267644925
 21
59.88454247575479
 31
0.0
  0
LINE
  5
BE
330
1F
100
AcDbEntity
  8
外形線
100
AcDbLine
 10
-68.45126921210836
 20
61.89278975693262
 30
0.0
 11
-65.89627459011393
 21
61.22565855237443
 31
0.0
  0
LINE
  5
BF
330
1F
100
AcDbEntity
  8
外形線
100
AcDbLine
 10
-68.37433956313836
 20
63.3607761943595
 30
0.0
 11
-37.75127253873022
 21
61.75588924954173
 31
0.0
  0
LINE
  5
C0
330
1F
100
AcDbEntity
  8
外形線
100
AcDbLine
 10
-40.30627026617756
 20
58.04201825055532
 30
0.0
 11
-37.75127195323177
 21
57.37488608225778
 31
0.0
  0
LINE
  5
C1
330
1F
100
AcDbEntity
  8
外形線
100
AcDbLine
 10
-65.89627113992449
 20
59.38313315865286
 30
0.0
 11
-40.30627121860439
 21
58.0420180848792
 31
0.0
  0
LINE
  5
C2
330
1F
100
AcDbEntity
  8
外形線
100
AcDbLine
 10
-65.89627268924139
 20
61.22565845908605
 30
0.0
 11
-65.89627268924139
 21
59.38313202323399
 31
0.0
  0
LINE
  5
C3
330
1F
100
AcDbEntity
  8
外形線
100
AcDbLine
 10
-65.89627274327018
 20
59.38313359714695
 30
0.0
 11
-68.45126868939906
 21
58.98380533901788
 31
0.0
  0
LINE
  5
C4
330
1F
100
AcDbEntity
  8
外形線
100
AcDbLine
 10
-40.30627253665352
 20
58.04201797904454
 30
0.0
 11
-40.30627253665352
 21
59.88454346122228
 31
0.0
  0
LINE
  5
C5
330
1F
100
AcDbEntity
  8
外形線
100
AcDbLine
 10
-68.4512729944172
 20
58.98980812491856
 30
0.0
 11
-68.4512729944172
 21
57.51778988303624
 31
0.0
  0
LINE
  5
C6
330
1F
100
AcDbEntity
  8
外形線
100
AcDbLine
 10
-37.75127223147774
 20
57.38088898124181
 30
0.0
 11
-37.75127223147774
 21
55.9088716930338
 31
0.0
  0
LINE
  5
C7
330
1F
100
AcDbEntity
  8
外形線
100
AcDbLine
 10
-40.30627063774995
 20
55.50954260705393
 30
0.0
 11
-37.75127092267906
 21
55.90887145424265
 31
0.0
  0
LINE
  5
C8
330
1F
100
AcDbEntity
  8
外形線
100
AcDbLine
 10
-68.45126986079728
 20
57.51779028928361
 30
0.0
 11
-37.75127060275369
 21
55.90887149692753
 31
0.0
  0
LINE
  5
C9
330
1F
100
AcDbEntity
  8
外形線
100
AcDbLine
 10
-65.89627278498801
 20
56.85065847919965
 30
0.0
 11
-40.30626905419857
 21
55.50954320578018
 31
0.0
  0
LINE
  5
CA
330
1F
100
AcDbEntity
  8
外形線
100
AcDbLine
 10
-68.45126923349562
 20
57.51779003118715
 30
0.0
 11
-65.89627461150115
 21
56.85065882662897
 31
0.0
  0
LINE
  5
CB
330
1F
100
AcDbEntity
  8
外形線
100
AcDbLine
 10
-68.37433599079918
 20
58.98577597201756
 30
0.0
 11
-37.75127277586034
 21
57.38088922684561
 31
0.0
  0
LINE
  5
CC
330
1F
100
AcDbEntity
  8
外形線
100
AcDbLine
 10
-40.30627040050297
 20
53.66701809227652
 30
0.0
 11
-37.75127208755721
 21
52.99988592397899
 31
0.0
  0
LINE
  5
CD
330
1F
100
AcDbEntity
  8
外形線
100
AcDbLine
 10
-65.89626759254099
 20
55.00813246012729
 30
0.0
 11
-40.30627148069025
 21
53.66701758599948
 31
0.0
  0
LINE
  5
CE
330
1F
100
AcDbEntity
  8
外形線
100
AcDbLine
 10
-65.89627268924139
 20
56.85065750541173
 30
0.0
 11
-65.89627268924139
 21
55.00813297690831
 31
0.0
  0
LINE
  5
CF
330
1F
100
AcDbEntity
  8
外形線
100
AcDbLine
 10
-65.89627473306109
 20
55.00813247461113
 30
0.0
 11
-66.85405335466469
 21
54.85843827677192
 31
0.0
  0
LINE
  5
D0
330
1F
100
AcDbEntity
  8
外形線
100
AcDbLine
 10
-40.30627253665352
 20
53.66701750220738
 30
0.0
 11
-40.30627253665352
 21
55.50954250754796
 31
0.0
  0
LINE
  5
D1
330
1F
100
AcDbEntity
  8
外形線
100
AcDbLine
 10
-37.75127223147774
 20
53.00588898124181
 30
0.0
 11
-37.75127223147774
 21
51.5338716930338
 31
0.0
  0
LINE
  5
D2
330
1F
100
AcDbEntity
  8
外形線
100
AcDbLine
 10
-40.30626900586381
 20
51.13454301581327
 30
0.0
 11
-37.75127305973493
 21
51.53387127394235
 31
0.0
  0
LINE
  5
D3
330
1F
100
AcDbEntity
  8
外形線
100
AcDbLine
 10
-64.95517910749182
 20
52.95956813952734
 30
0.0
 11
-37.75127082740599
 21
51.53387171232328
 31
0.0
  0
LINE
  5
D4
330
1F
100
AcDbEntity
  8
外形線
100
AcDbLine
 10
-64.39245835268363
 20
52.39684639137852
 30
0.0
 11
-40.30626931628447
 21
51.1345427069004
 31
0.0
  0
LINE
  5
D5
330
1F
100
AcDbEntity
  8
外形線
100
AcDbLine
 10
-66.50861435077846
 20
54.51299713104799
 30
0.0
 11
-37.75126922847686
 21
53.00588852831999
 31
0.0
  0
LINE
  5
D6
330
1F
100
AcDbEntity
  8
外形線
100
AcDbLine
 10
-40.30627042189019
 20
49.29201836653106
 30
0.0
 11
-37.7512684179931
 21
48.6248852344942
 31
0.0
  0
LINE
  5
D7
330
1F
100
AcDbEntity
  8
外形線
100
AcDbLine
 10
-62.44803139639953
 20
50.45241820176544
 30
0.0
 11
-40.30627170846201
 21
49.29201774187225
 31
0.0
  0
LINE
  5
D8
330
1F
100
AcDbEntity
  8
外形線
100
AcDbLine
 10
-40.30627253665352
 20
49.29201726378881
 30
0.0
 11
-40.30627253665352
 21
51.13454250754796
 31
0.0
  0
LINE
  5
D9
330
1F
100
AcDbEntity
  8
外形線
100
AcDbLine
 10
-37.75127223147774
 20
48.63088898124181
 30
0.0
 11
-37.75127223147774
 21
47.15887157382451
 31
0.0
  0
LINE
  5
DA
330
1F
100
AcDbEntity
  8
外形線
100
AcDbLine
 10
-40.30627099565474
 20
46.75954189327747
 30
0.0
 11
-37.75127128058386
 21
47.15887074046618
 31
0.0
  0
LINE
  5
DB
330
1F
100
AcDbEntity
  8
外形線
100
AcDbLine
 10
-60.33821296654128
 20
48.34260304146822
 30
0.0
 11
-37.75127107077506
 21
47.15887157058126
 31
0.0
  0
LINE
  5
DC
330
1F
100
AcDbEntity
  8
外形線
100
AcDbLine
 10
-59.77549220549414
 20
47.77988141236528
 30
0.0
 11
-40.30626955341459
 21
46.75954268420432
 31
0.0
  0
LINE
  5
DD
330
1F
100
AcDbEntity
  8
外形線
100
AcDbLine
 10
-61.89164818487213
 20
49.89603250917252
 30
0.0
 11
-37.75126944689024
 21
48.63088886276168
 31
0.0
  0
LINE
  5
DE
330
1F
100
AcDbEntity
  8
外形線
100
AcDbLine
 10
-40.30627068421225
 20
44.91701771804779
 30
0.0
 11
-37.75127237126647
 21
44.24988554975024
 31
0.0
  0
LINE
  5
DF
330
1F
100
AcDbEntity
  8
外形線
100
AcDbLine
 10
-57.83106523361265
 20
45.83545352036701
 30
0.0
 11
-40.30627192999483
 21
44.91701801679093
 31
0.0
  0
LINE
  5
E0
330
1F
100
AcDbEntity
  8
外形線
100
AcDbLine
 10
-40.30627253665352
 20
44.91701726378878
 30
0.0
 11
-40.30627253665352
 21
46.75954268636189
 31
0.0
  0
LINE
  5
E1
330
1F
100
AcDbEntity
  8
外形線
100
AcDbLine
 10
-37.75127223147774
 20
44.25588886203253
 30
0.0
 11
-37.75127223147774
 21
42.78387097777806
 31
0.0
  0
LINE
  5
E2
330
1F
100
AcDbEntity
  8
外形線
100
AcDbLine
 10
-40.30626951103353
 20
42.38454324427235
 30
0.0
 11
-37.75126979596264
 21
42.78387209146106
 31
0.0
  0
LINE
  5
E3
330
1F
100
AcDbEntity
  8
外形線
100
AcDbLine
 10
-55.72125063506004
 20
43.72563814305492
 30
0.0
 11
-37.75127131414417
 21
42.78387142883926
 31
0.0
  0
LINE
  5
E4
330
1F
100
AcDbEntity
  8
外形線
100
AcDbLine
 10
-55.15852986777395
 20
43.16291663299788
 30
0.0
 11
-40.30627360001409
 21
42.38454286115405
 31
0.0
  0
LINE
  5
E5
330
1F
100
AcDbEntity
  8
外形線
100
AcDbLine
 10
-57.27468203144368
 20
45.27906764920522
 30
0.0
 11
-37.75126967778144
 21
44.2558889591115
 31
0.0
  0
LINE
  5
E6
330
1F
100
AcDbEntity
  8
外形線
100
AcDbLine
 10
-40.3062707055995
 20
40.54201799230233
 30
0.0
 11
-37.7512723926537
 21
39.87488582400482
 31
0.0
  0
LINE
  5
E7
330
1F
100
AcDbEntity
  8
外形線
100
AcDbLine
 10
-53.21410292084824
 20
41.21848826481596
 30
0.0
 11
-40.30627219208072
 21
40.54201751791118
 31
0.0
  0
LINE
  5
E8
330
1F
100
AcDbEntity
  8
外形線
100
AcDbLine
 10
-40.30627253665352
 20
40.54201702537023
 30
0.0
 11
-40.30627253665352
 21
42.38454226912938
 31
0.0
  0
LINE
  5
E9
330
1F
100
AcDbEntity
  8
外形線
100
AcDbLine
 10
-37.75127223147774
 20
39.88088898124181
 30
0.0
 11
-37.75127223147774
 21
38.4088716930338
 31
0.0
  0
LINE
  5
EA
330
1F
100
AcDbEntity
  8
外形線
100
AcDbLine
 10
-40.30627164348739
 20
38.00954303452718
 30
0.0
 11
-37.75127192841646
 21
38.4088718817159
 31
0.0
  0
LINE
  5
EB
330
1F
100
AcDbEntity
  8
外形線
100
AcDbLine
 10
-51.1042844878705
 20
39.1086731640417
 30
0.0
 11
-37.75127155127428
 21
38.40887140614318
 31
0.0
  0
LINE
  5
EC
330
1F
100
AcDbEntity
  8
外形線
100
AcDbLine
 10
-50.54156374554017
 20
38.54595117780102
 30
0.0
 11
-40.30627005263061
 21
38.00954216262847
 31
0.0
  0
LINE
  5
ED
330
1F
100
AcDbEntity
  8
外形線
100
AcDbLine
 10
-52.65771593416565
 20
40.66210171782468
 30
0.0
 11
-37.75126996482305
 21
39.88088798404806
 31
0.0
  0
LINE
  5
EE
330
1F
100
AcDbEntity
  8
外形線
100
AcDbLine
 10
-40.3062707269867
 20
36.16701826655688
 30
0.0
 11
-37.75127241404093
 21
35.49988609825935
 31
0.0
  0
LINE
  5
EF
330
1F
100
AcDbEntity
  8
外形線
100
AcDbLine
 10
-48.59713679861446
 20
36.60152280961907
 30
0.0
 11
-40.30626864469724
 21
36.1670168193856
 31
0.0
  0
LINE
  5
F0
330
1F
100
AcDbEntity
  8
外形線
100
AcDbLine
 10
-40.30627253665352
 20
36.16701702537023
 30
0.0
 11
-40.30627253665352
 21
38.00954298438512
 31
0.0
  0
LINE
  5
F1
330
1F
100
AcDbEntity
  8
外形線
100
AcDbLine
 10
-37.75127223147774
 20
35.50588898124181
 30
0.0
 11
-37.75127223147774
 21
34.03387169303381
 31
0.0
  0
LINE
  5
F2
330
1F
100
AcDbEntity
  8
外形線
100
AcDbLine
 10
-40.30626972167342
 20
33.63454158826041
 30
0.0
 11
-37.7512700066025
 21
34.0338704354491
 31
0.0
  0
LINE
  5
F3
330
1F
100
AcDbEntity
  8
外形線
100
AcDbLine
 10
-46.48732210023888
 20
34.49170933704168
 30
0.0
 11
-37.751271738493
 21
34.03387233581439
 31
0.0
  0
LINE
  5
F4
330
1F
100
AcDbEntity
  8
外形線
100
AcDbLine
 10
-45.92460140781997
 20
33.92898639843365
 30
0.0
 11
-40.30627028976079
 21
33.63454213993236
 31
0.0
  0
LINE
  5
F5
330
1F
100
AcDbEntity
  8
外形線
100
AcDbLine
 10
-48.04075349662254
 20
36.04513884319196
 30
0.0
 11
-37.75127010213029
 21
35.50588986608665
 31
0.0
  0
LINE
  5
F6
330
1F
100
AcDbEntity
  8
外形線
100
AcDbLine
 10
-40.30627074837394
 20
31.79201854081143
 30
0.0
 11
-37.75126874447682
 21
31.12488540877457
 31
0.0
  0
LINE
  5
F7
330
1F
100
AcDbEntity
  8
外形線
100
AcDbLine
 10
-43.98017070133636
 20
31.98455687823852
 30
0.0
 11
-40.3062727412082
 21
31.79201604396798
 31
0.0
  0
LINE
  5
F8
330
1F
100
AcDbEntity
  8
外形線
100
AcDbLine
 10
-40.30627253665352
 20
31.79201893271886
 30
0.0
 11
-40.30627253665352
 21
33.63454250754796
 31
0.0
  0
LINE
  5
F9
330
1F
100
AcDbEntity
  8
外形線
100
AcDbLine
 10
-37.75127223147774
 20
31.13088898124181
 30
0.0
 11
-37.75127223147774
 21
29.6588716930338
 31
0.0
  0
LINE
  5
FA
330
1F
100
AcDbEntity
  8
外形線
100
AcDbLine
 10
-40.30627215325909
 20
29.25954329243109
 30
0.0
 11
-37.75127243818821
 21
29.65887213961983
 31
0.0
  0
LINE
  5
FB
330
1F
100
AcDbEntity
  8
外形線
100
AcDbLine
 10
-41.87035976251872
 20
29.87474455767428
 30
0.0
 11
-37.75127197562313
 21
29.65887231311831
 31
0.0
  0
LINE
  5
FC
330
1F
100
AcDbEntity
  8
外形線
100
AcDbLine
 10
-41.30763526063046
 20
29.31202141942043
 30
0.0
 11
-40.30627052689093
 21
29.25954211723627
 31
0.0
  0
LINE
  5
FD
330
1F
100
AcDbEntity
  8
外形線
100
AcDbLine
 10
-43.42378749916742
 20
31.42817100707674
 30
0.0
 11
-37.75127048899481
 21
31.13088698628855
 31
0.0
  0
LINE
  5
FE
330
1F
100
AcDbEntity
  8
外形線
100
AcDbLine
 10
-40.30627253665352
 20
28.31065658988439
 30
0.0
 11
-40.30627253665352
 21
29.25954346122228
 31
0.0
  0
LINE
  5
FF
330
1F
100
AcDbEntity
  8
外形線
100
AcDbLine
 10
-37.75127223147774
 20
74.81065849723302
 30
0.0
 11
-67.65799143924143
 21
74.81065849723302
 31
0.0
  0
LINE
  5
100
330
1F
100
AcDbEntity
  8
外形線
100
AcDbLine
 10
-40.30627009636384
 20
28.31065855126916
 30
0.0
 11
-66.85405072420238
 21
54.85843917910765
 31
0.0
  0
LINE
  5
101
330
1F
100
AcDbEntity
  8
外形線
100
AcDbLine
 10
-40.30627152965942
 20
28.31065768056497
 30
0.0
 11
-40.45999032946918
 21
27.75727001494323
 31
0.0
  0
LWPOLYLINE
  5
102
330
1F
100
AcDbEntity
  8
外形線
100
AcDbPolyline
 90
        2
 70
     0
 43
2.500000037252903
 10
-67.54012858820551
 20
54.83741026192425
 10
-40.4599880822528
 20
27.75726975597155
  0
LINE
  5
103
330
1F
100
AcDbEntity
  8
外形線
100
AcDbLine
 10
-67.54012856825966
 20
54.83740896959433
 30
0.0
 11
-66.85404941782548
 21
54.85843838271836
 31
0.0
  0
LINE
  5
104
330
1F
100
AcDbEntity
  8
中心線
100
AcDbLine
 10
-94.33233073367501
 20
40.55226902427159
 30
0.0
 11
-44.34591868533515
 21
40.55226902427159
 31
0.0
  0
LINE
  5
105
330
1F
100
AcDbEntity
  8
中心線
100
AcDbLine
 10
-53.10127070559882
 20
78.20869240214597
 30
0.0
 11
-53.10127070559882
 21
33.21555237235511
 31
0.0
  0
LINE
  5
106
330
1F
100
AcDbEntity
  8
外形線
100
AcDbLine
 10
-86.74438407519984
 20
27.74597163861147
 30
0.0
 11
-85.40267687684991
 21
53.34726996985645
 31
0.0
  0
LINE
  5
107
330
1F
100
AcDbEntity
  8
外形線
100
AcDbLine
 10
-86.95998576297188
 20
53.3472695774027
 30
0.0
 11
-86.95998576297188
 21
27.74596886100255
 31
0.0
  0
LINE
  5
108
330
1F
100
AcDbEntity
  8
外形線
100
AcDbLine
 10
-86.7443890053097
 20
27.74596902344296
 30
0.0
 11
-86.37701264046841
 21
25.20226925157634
 31
0.0
  0
LINE
  5
109
330
1F
100
AcDbEntity
  8
外形線
100
AcDbLine
 10
-84.23785594119451
 20
27.75726990165197
 30
0.0
 11
-82.39533427371407
 21
27.75726990165197
 31
0.0
  0
LINE
  5
10A
330
1F
100
AcDbEntity
  8
0
  6
Continuous
 62
     7
100
AcDbLine
 10
23.01187177593107
 20
54.35010253217685
 30
0.0
 11
128.0118736832797
 21
54.35010253217688
 31
0.0
  0
LINE
  5
10B
330
1F
100
AcDbEntity
  8
0
  6
Continuous
 62
     7
100
AcDbLine
 10
23.01187177593107
 20
-35.64989937517172
 30
0.0
 11
128.0118736832797
 21
-35.64989937517172
 31
0.0
  0
LINE
  5
10C
330
1F
100
AcDbEntity
  8
0
  6
Continuous
 62
     7
100
AcDbLine
 10
23.01187177593107
 20
30.35010253217693
 30
0.0
 11
128.0118736832797
 21
30.35010253217693
 31
0.0
  0
LINE
  5
10D
330
1F
100
AcDbEntity
  8
0
  6
Continuous
 62
     7
100
AcDbLine
 10
23.01187177593107
 20
24.3501025321769
 30
0.0
 11
128.0118736832797
 21
24.3501025321769
 31
0.0
  0
LINE
  5
10E
330
1F
100
AcDbEntity
  8
0
  6
Continuous
 62
     7
100
AcDbLine
 10
23.01187177593107
 20
18.35010205533975
 30
0.0
 11
128.0118736832797
 21
18.35010205533975
 31
0.0
  0
LINE
  5
10F
330
1F
100
AcDbEntity
  8
0
  6
Continuous
 62
     7
100
AcDbLine
 10
23.01187177593107
 20
12.3501021149444
 30
0.0
 11
128.0118736832797
 21
12.3501021149444
 31
0.0
  0
LINE
  5
110
330
1F
100
AcDbEntity
  8
0
  6
Continuous
 62
     7
100
AcDbLine
 10
23.01187177593107
 20
6.350102055339768
 30
0.0
 11
128.0118736832797
 21
6.350102055339768
 31
0.0
  0
LINE
  5
111
330
1F
100
AcDbEntity
  8
0
  6
Continuous
 62
     7
100
AcDbLine
 10
23.01187177593107
 20
0.3501025321769298
 30
0.0
 11
128.0118736832797
 21
0.3501025321769298
 31
0.0
  0
LINE
  5
112
330
1F
100
AcDbEntity
  8
0
  6
Continuous
 62
     7
100
AcDbLine
 10
23.01187177593107
 20
-5.64989746782309
 30
0.0
 11
128.0118736832797
 21
-5.64989746782309
 31
0.0
  0
LINE
  5
113
330
1F
100
AcDbEntity
  8
0
  6
Continuous
 62
     7
100
AcDbLine
 10
23.01187177593107
 20
-11.64989746782309
 30
0.0
 11
128.0118736832797
 21
-11.64989746782309
 31
0.0
  0
LINE
  5
114
330
1F
100
AcDbEntity
  8
0
  6
Continuous
 62
     7
100
AcDbLine
 10
23.01187177593107
 20
-17.64989746782308
 30
0.0
 11
128.0118736832797
 21
-17.64989746782308
 31
0.0
  0
LINE
  5
115
330
1F
100
AcDbEntity
  8
0
  6
Continuous
 62
     7
100
AcDbLine
 10
23.01187177593107
 20
-23.64989937517172
 30
0.0
 11
128.0118736832797
 21
-23.64989937517172
 31
0.0
  0
LINE
  5
116
330
1F
100
AcDbEntity
  8
0
  6
Continuous
 62
     7
100
AcDbLine
 10
23.01187177593107
 20
-29.64989937517172
 30
0.0
 11
128.0118736832797
 21
-29.64989937517172
 31
0.0
  0
LINE
  5
117
330
1F
100
AcDbEntity
  8
0
  6
Continuous
 62
     7
100
AcDbLine
 10
23.01187177593108
 20
60.35010253217681
 30
0.0
 11
23.01187177593107
 21
-60.2365366588975
 31
0.0
  0
LINE
  5
118
330
1F
100
AcDbEntity
  8
0
  6
Continuous
 62
     7
100
AcDbLine
 10
48.01187368327973
 20
60.35010253217683
 30
0.0
 11
48.01187368327973
 21
-60.2365366588975
 31
0.0
  0
LINE
  5
119
330
1F
100
AcDbEntity
  8
0
  6
Continuous
 62
     7
100
AcDbLine
 10
68.01187368327973
 20
60.35010253217683
 30
0.0
 11
68.01187368327973
 21
-60.2365366588975
 31
0.0
  0
LINE
  5
11A
330
1F
100
AcDbEntity
  8
0
  6
Continuous
 62
     7
100
AcDbLine
 10
88.01187368327974
 20
60.35010253217683
 30
0.0
 11
88.01187368327971
 21
-60.2365366588975
 31
0.0
  0
LINE
  5
11B
330
1F
100
AcDbEntity
  8
0
  6
Continuous
 62
     7
100
AcDbLine
 10
108.0118736832796
 20
60.35010253217683
 30
0.0
 11
108.0118736832796
 21
-60.2365366588975
 31
0.0
  0
MTEXT
  5
11C
330
1F
100
AcDbEntity
  8
0
 62
     7
100
AcDbMText
 10
26.01187177593108
 20
-32.6498993751717
 30
0.0
 40
3.200000047683716
 41
0.0
 71
     4
 72
     1
  1
{\W1;TDS1000}
 73
     1
 44
1.0
  0
MTEXT
  5
11D
330
1F
100
AcDbEntity
  8
0
 62
     7
100
AcDbMText
 10
58.01187368327973
 20
-32.52386623241604
 30
0.0
 40
3.200000047683716
 41
0.0
 71
     5
 72
     1
  1
{\W1;1101}
 73
     1
 44
1.0
  0
MTEXT
  5
11E
330
1F
100
AcDbEntity
  8
0
 62
     7
100
AcDbMText
 10
35.51187177593104
 20
57.35010253217681
 30
0.0
 40
3.200000047683716
 41
0.0
 71
     5
 72
     1
  1
{\W0.833333;呼称径}
 73
     1
 44
1.0
  0
MTEXT
  5
11F
102
{ACAD_XDICTIONARY
360
B7C
102
}
330
1F
100
AcDbEntity
  8
0
 62
     7
100
AcDbMText
 10
57.73485152147888
 20
57.35010253217681
 30
0.0
 40
3.200000047683716
 41
0.0
 71
     5
 72
     1
  1
{\W1;\U+2205A}
 73
     1
 44
1.0
  0
MTEXT
  5
120
330
1F
100
AcDbEntity
  8
0
 62
     7
100
AcDbMText
 10
77.57931069924318
 20
57.35010253217681
 30
0.0
 40
3.200000047683716
 41
0.0
 71
     5
 72
     1
  1
{\W1;L1}
 73
     1
 44
1.0
  0
MTEXT
  5
121
330
1F
100
AcDbEntity
  8
0
 62
     7
100
AcDbMText
 10
98.01187368327969
 20
57.35010253217681
 30
0.0
 40
3.200000047683716
 41
0.0
 71
     5
 72
     1
  1
{\W1;L2}
 73
     1
 44
1.0
  0
MTEXT
  5
122
330
1F
100
AcDbEntity
  8
0
 62
     7
100
AcDbMText
 10
26.01187177593108
 20
27.35010253217691
 30
0.0
 40
3.200000047683716
 41
0.0
 71
     4
 72
     1
  1
{\W1;TDS250}
 73
     1
 44
1.0
  0
MTEXT
  5
123
330
1F
100
AcDbEntity
  8
0
 62
     7
100
AcDbMText
 10
57.73485152147888
 20
27.35010253217691
 30
0.0
 40
3.200000047683716
 41
0.0
 71
     5
 72
     1
  1
{\W1;273}
 73
     1
 44
1.0
  0
MTEXT
  5
124
330
1F
100
AcDbEntity
  8
0
 62
     7
100
AcDbMText
 10
26.01187177593108
 20
21.35010253217689
 30
0.0
 40
3.200000047683716
 41
0.0
 71
     4
 72
     1
  1
{\W1;TDS300}
 73
     1
 44
1.0
  0
MTEXT
  5
125
330
1F
100
AcDbEntity
  8
0
 62
     7
100
AcDbMText
 10
57.73485152147888
 20
21.35010253217689
 30
0.0
 40
3.200000047683716
 41
0.0
 71
     5
 72
     1
  1
{\W1;328}
 73
     1
 44
1.0
  0
MTEXT
  5
126
330
1F
100
AcDbEntity
  8
0
 62
     7
100
AcDbMText
 10
26.01187177593108
 20
15.35010205533977
 30
0.0
 40
3.200000047683716
 41
0.0
 71
     4
 72
     1
  1
{\W1;TDS350}
 73
     1
 44
1.0
  0
MTEXT
  5
127
330
1F
100
AcDbEntity
  8
0
 62
     7
100
AcDbMText
 10
57.73485152147888
 20
15.35010205533977
 30
0.0
 40
3.200000047683716
 41
0.0
 71
     5
 72
     1
  1
{\W1;388}
 73
     1
 44
1.0
  0
MTEXT
  5
128
330
1F
100
AcDbEntity
  8
0
 62
     7
100
AcDbMText
 10
26.01187177593108
 20
9.350102055339768
 30
0.0
 40
3.200000047683716
 41
0.0
 71
     4
 72
     1
  1
{\W1;TDS400}
 73
     1
 44
1.0
  0
MTEXT
  5
129
330
1F
100
AcDbEntity
  8
0
 62
     7
100
AcDbMText
 10
57.73485152147888
 20
9.350102055339759
 30
0.0
 40
3.200000047683716
 41
0.0
 71
     5
 72
     1
  1
{\W1;428}
 73
     1
 44
1.0
  0
MTEXT
  5
12A
330
1F
100
AcDbEntity
  8
0
 62
     7
100
AcDbMText
 10
26.01187177593108
 20
3.350102532176936
 30
0.0
 40
3.200000047683716
 41
0.0
 71
     4
 72
     1
  1
{\W1;TDS450}
 73
     1
 44
1.0
  0
MTEXT
  5
12B
330
1F
100
AcDbEntity
  8
0
 62
     7
100
AcDbMText
 10
57.73485152147888
 20
3.350102532176928
 30
0.0
 40
3.200000047683716
 41
0.0
 71
     5
 72
     1
  1
{\W1;487}
 73
     1
 44
1.0
  0
MTEXT
  5
12C
330
1F
100
AcDbEntity
  8
0
 62
     7
100
AcDbMText
 10
26.01187177593108
 20
-2.64989746782309
 30
0.0
 40
3.200000047683716
 41
0.0
 71
     4
 72
     1
  1
{\W1;TDS500}
 73
     1
 44
1.0
  0
MTEXT
  5
12D
330
1F
100
AcDbEntity
  8
0
 62
     7
100
AcDbMText
 10
57.73485152147888
 20
-2.64989746782309
 30
0.0
 40
3.200000047683716
 41
0.0
 71
     5
 72
     1
  1
{\W1;549}
 73
     1
 44
1.0
  0
MTEXT
  5
12E
330
1F
100
AcDbEntity
  8
0
 62
     7
100
AcDbMText
 10
26.01187177593108
 20
-8.649897467823089
 30
0.0
 40
3.200000047683716
 41
0.0
 71
     4
 72
     1
  1
{\W1;TDS600}
 73
     1
 44
1.0
  0
MTEXT
  5
12F
330
1F
100
AcDbEntity
  8
0
 62
     7
100
AcDbMText
 10
57.73485152147888
 20
-8.649897467823089
 30
0.0
 40
3.200000047683716
 41
0.0
 71
     5
 72
     1
  1
{\W1;665}
 73
     1
 44
1.0
  0
MTEXT
  5
130
330
1F
100
AcDbEntity
  8
0
 62
     7
100
AcDbMText
 10
26.01187177593108
 20
-14.64989746782307
 30
0.0
 40
3.200000047683716
 41
0.0
 71
     4
 72
     1
  1
{\W1;TDS700}
 73
     1
 44
1.0
  0
MTEXT
  5
131
330
1F
100
AcDbEntity
  8
0
 62
     7
100
AcDbMText
 10
57.73485152147888
 20
-14.64989746782308
 30
0.0
 40
3.200000047683716
 41
0.0
 71
     5
 72
     1
  1
{\W1;777}
 73
     1
 44
1.0
  0
MTEXT
  5
132
330
1F
100
AcDbEntity
  8
0
 62
     7
100
AcDbMText
 10
26.01187177593108
 20
-20.6498993751717
 30
0.0
 40
3.200000047683716
 41
0.0
 71
     4
 72
     1
  1
{\W1;TDS800}
 73
     1
 44
1.0
  0
MTEXT
  5
133
330
1F
100
AcDbEntity
  8
0
 62
     7
100
AcDbMText
 10
57.73485152147888
 20
-20.64989937517171
 30
0.0
 40
3.200000047683716
 41
0.0
 71
     5
 72
     1
  1
{\W1;862}
 73
     1
 44
1.0
  0
MTEXT
  5
134
330
1F
100
AcDbEntity
  8
0
 62
     7
100
AcDbMText
 10
26.01187177593108
 20
-26.64989937517172
 30
0.0
 40
3.200000047683716
 41
0.0
 71
     4
 72
     1
  1
{\W1;TDS900}
 73
     1
 44
1.0
  0
MTEXT
  5
135
330
1F
100
AcDbEntity
  8
0
 62
     7
100
AcDbMText
 10
57.73485152147888
 20
-26.64989937517172
 30
0.0
 40
3.200000047683716
 41
0.0
 71
     5
 72
     1
  1
{\W1;978}
 73
     1
 44
1.0
  0
MTEXT
  5
136
330
1F
100
AcDbEntity
  8
0
 62
     7
100
AcDbMText
 10
98.01187368327973
 20
-32.52386623241604
 30
0.0
 40
3.200000047683716
 41
0.0
 71
     5
 72
     1
  1
{\W1;1110}
 73
     1
 44
1.0
  0
MTEXT
  5
137
330
1F
100
AcDbEntity
  8
0
 62
     7
100
AcDbMText
 10
98.01187368327973
 20
-26.64989937517172
 30
0.0
 40
3.200000047683716
 41
0.0
 71
     5
 72
     1
  1
{\W1;910}
 73
     1
 44
1.0
  0
MTEXT
  5
138
330
1F
100
AcDbEntity
  8
0
 62
     7
100
AcDbMText
 10
98.01187368327973
 20
-20.64989937517171
 30
0.0
 40
3.200000047683716
 41
0.0
 71
     5
 72
     1
  1
{\W1;820}
 73
     1
 44
1.0
  0
MTEXT
  5
139
330
1F
100
AcDbEntity
  8
0
 62
     7
100
AcDbMText
 10
98.01187368327973
 20
-14.64989746782308
 30
0.0
 40
3.200000047683716
 41
0.0
 71
     5
 72
     1
  1
{\W1;700}
 73
     1
 44
1.0
  0
MTEXT
  5
13A
330
1F
100
AcDbEntity
  8
0
 62
     7
100
AcDbMText
 10
98.01187368327973
 20
-8.649897467823102
 30
0.0
 40
3.200000047683716
 41
0.0
 71
     5
 72
     1
  1
{\W1;600}
 73
     1
 44
1.0
  0
MTEXT
  5
13B
330
1F
100
AcDbEntity
  8
0
 62
     7
100
AcDbMText
 10
98.01187368327973
 20
-2.64989746782309
 30
0.0
 40
3.200000047683716
 41
0.0
 71
     5
 72
     1
  1
{\W1;510}
 73
     1
 44
1.0
  0
MTEXT
  5
13C
330
1F
100
AcDbEntity
  8
0
 62
     7
100
AcDbMText
 10
98.01187368327973
 20
3.350102532176928
 30
0.0
 40
3.200000047683716
 41
0.0
 71
     5
 72
     1
  1
{\W1;460}
 73
     1
 44
1.0
  0
MTEXT
  5
13D
330
1F
100
AcDbEntity
  8
0
 62
     7
100
AcDbMText
 10
98.01187368327973
 20
9.350102055339759
 30
0.0
 40
3.200000047683716
 41
0.0
 71
     5
 72
     1
  1
{\W1;410}
 73
     1
 44
1.0
  0
MTEXT
  5
13E
330
1F
100
AcDbEntity
  8
0
 62
     7
100
AcDbMText
 10
98.01187368327973
 20
15.35010205533977
 30
0.0
 40
3.200000047683716
 41
0.0
 71
     5
 72
     1
  1
{\W1;360}
 73
     1
 44
1.0
  0
MTEXT
  5
13F
330
1F
100
AcDbEntity
  8
0
 62
     7
100
AcDbMText
 10
98.01187368327973
 20
21.35010253217689
 30
0.0
 40
3.200000047683716
 41
0.0
 71
     5
 72
     1
  1
{\W1;310}
 73
     1
 44
1.0
  0
MTEXT
  5
140
330
1F
100
AcDbEntity
  8
0
 62
     7
100
AcDbMText
 10
98.01187368327973
 20
27.35010253217691
 30
0.0
 40
3.200000047683716
 41
0.0
 71
     5
 72
     1
  1
{\W1;260}
 73
     1
 44
1.0
  0
MTEXT
  5
142
330
1F
100
AcDbEntity
  8
0
 62
     7
100
AcDbMText
 10
113.1835704645775
 20
-66.79578567779535
 30
0.0
 40
3.200000047683716
 41
0.0
 71
     7
 72
     1
  1
{\W1;(mm)}
 73
     1
 44
1.0
  0
MTEXT
  5
143
330
1F
100
AcDbEntity
  8
0
 62
     7
100
AcDbMText
 10
0.7124996185302736
 20
-90.75000000000001
 30
0.0
 40
3.200000047683716
 41
0.0
 71
     5
 72
     1
  1
90\U+00B0エルボﾞ  {\H0.875x;(ﾄﾖﾄﾞﾚﾝｼﾝｸﾞﾙ管用）}
 73
     1
 44
1.0
  0
MTEXT
  5
144
330
1F
100
AcDbEntity
  8
0
 62
     7
100
AcDbMText
 10
77.84597736988349
 20
27.35010253217691
 30
0.0
 40
3.200000047683716
 41
0.0
 71
     5
 72
     1
  1
{\W1;390}
 73
     1
 44
1.0
  0
MTEXT
  5
145
330
1F
100
AcDbEntity
  8
0
 62
     7
100
AcDbMText
 10
77.84597736988349
 20
21.35010253217689
 30
0.0
 40
3.200000047683716
 41
0.0
 71
     5
 72
     1
  1
{\W1;470}
 73
     1
 44
1.0
  0
MTEXT
  5
146
330
1F
100
AcDbEntity
  8
0
 62
     7
100
AcDbMText
 10
77.84597736988349
 20
15.35010205533977
 30
0.0
 40
3.200000047683716
 41
0.0
 71
     5
 72
     1
  1
{\W1;550}
 73
     1
 44
1.0
  0
MTEXT
  5
147
330
1F
100
AcDbEntity
  8
0
 62
     7
100
AcDbMText
 10
77.84597736988349
 20
9.350102055339759
 30
0.0
 40
3.200000047683716
 41
0.0
 71
     5
 72
     1
  1
{\W1;620}
 73
     1
 44
1.0
  0
MTEXT
  5
148
330
1F
100
AcDbEntity
  8
0
 62
     7
100
AcDbMText
 10
78.01187368327973
 20
3.350102532176928
 30
0.0
 40
3.200000047683716
 41
0.0
 71
     5
 72
     1
  1
{\W1;700}
 73
     1
 44
1.0
  0
MTEXT
  5
149
330
1F
100
AcDbEntity
  8
0
 62
     7
100
AcDbMText
 10
77.84597736988349
 20
-2.64989746782309
 30
0.0
 40
3.200000047683716
 41
0.0
 71
     5
 72
     1
  1
{\W1;780}
 73
     1
 44
1.0
  0
MTEXT
  5
14A
330
1F
100
AcDbEntity
  8
0
 62
     7
100
AcDbMText
 10
77.84597736988349
 20
-8.649897467823089
 30
0.0
 40
3.200000047683716
 41
0.0
 71
     5
 72
     1
  1
{\W1;930}
 73
     1
 44
1.0
  0
MTEXT
  5
14B
330
1F
100
AcDbEntity
  8
0
 62
     7
100
AcDbMText
 10
77.74520701263941
 20
-14.64989746782308
 30
0.0
 40
3.200000047683716
 41
0.0
 71
     5
 72
     1
  1
{\W1;1090}
 73
     1
 44
1.0
  0
MTEXT
  5
14C
330
1F
100
AcDbEntity
  8
0
 62
     7
100
AcDbMText
 10
78.01187368327973
 20
-20.64989937517171
 30
0.0
 40
3.200000047683716
 41
0.0
 71
     5
 72
     1
  1
{\W1;1250}
 73
     1
 44
1.0
  0
MTEXT
  5
14D
330
1F
100
AcDbEntity
  8
0
 62
     7
100
AcDbMText
 10
77.74520701263941
 20
-26.64989937517172
 30
0.0
 40
3.200000047683716
 41
0.0
 71
     5
 72
     1
  1
{\W1;1400}
 73
     1
 44
1.0
  0
MTEXT
  5
14E
330
1F
100
AcDbEntity
  8
0
 62
     7
100
AcDbMText
 10
78.01187368327973
 20
-32.64989937517171
 30
0.0
 40
3.200000047683716
 41
0.0
 71
     5
 72
     1
  1
{\W1;1660}
 73
     1
 44
1.0
  0
DIMENSION
  5
14F
330
1F
100
AcDbEntity
  8
寸法線
100
AcDbDimension
  2
*D2
 10
-21.58215525760077
 20
74.810658497233
 30
0.0
 11
-21.58215525760079
 21
51.56065802039586
 31
0.0
 70
   160
  1
L1
 71
     5
 42
46.50000190734863
  3
ISO-25
100
AcDbAlignedDimension
 13
-40.30627253665352
 23
28.31065658988439
 33
0.0
 14
-37.75127223147774
 24
74.81065849723302
 34
0.0
 50
270.0
100
AcDbRotatedDimension
1001
ACAD
1000
DSTYLE
1002
{
1070
   278
1070
    46
1070
   147
1040
0.8000000119209291
1070
    77
1070
     1
1070
    74
1070
     0
1070
    73
1070
     0
1070
    42
1040
2.54
1070
    44
1040
0.7142868041992191
1070
    76
1070
     0
1070
    75
1070
     0
1070
   279
1070
     0
1070
   271
1070
     0
1070
   173
1070
     1
1070
    41
1040
3.0
1070
   140
1040
3.200000047683716
1070
   344
1005
150
1070
   343
1005
150
1002
}
  0
DIMENSION
  5
163
330
1F
100
AcDbEntity
  8
寸法線
100
AcDbDimension
  2
*D3
 10
-40.45998957766914
 20
9.418967289347275
 30
0.0
 11
-63.70999339236639
 21
9.418967289347275
 31
0.0
 70
   160
  1
L1
 71
     5
 42
46.49999618530271
  3
ISO-25
100
AcDbAlignedDimension
 13
-86.95998576297188
 23
27.74596886100255
 33
0.0
 14
-40.45998957766914
 24
27.75726990165197
 34
0.0
 50
180.0
100
AcDbRotatedDimension
1001
ACAD
1000
DSTYLE
1002
{
1070
   278
1070
    46
1070
   147
1040
0.8000000119209291
1070
    77
1070
     1
1070
    74
1070
     0
1070
    73
1070
     0
1070
    42
1040
2.54
1070
    44
1040
0.8333320617675779
1070
    76
1070
     0
1070
    75
1070
     0
1070
   279
1070
     0
1070
   271
1070
     0
1070
   173
1070
     1
1070
    41
1040
3.0
1070
   140
1040
3.200000047683716
1070
   344
1005
150
1070
   343
1005
150
1002
}
  0
DIMENSION
  5
170
330
1F
100
AcDbEntity
  8
寸法線
100
AcDbDimension
  2
*D4
 10
-31.01690252640717
 20
11.95475003680285
 30
0.0
 11
-27.10544779910467
 21
14.95611481131993
 31
0.0
 70
   165
  1
90\U+00B0
 71
     5
 42
1.570796326794897
  3
ISO-25
100
AcDb3PointAngularDimension
 13
-40.45998957766914
 23
9.670577091593372
 33
0.0
 14
-20.86786845340157
 24
28.31065658988439
 34
0.0
 15
-40.45998957766914
 25
28.31065658988439
 35
0.0
1001
ACAD
1000
DSTYLE
1002
{
1070
   278
1070
    46
1070
   275
1070
     1
1070
   147
1040
0.8000000119209291
1070
    77
1070
     1
1070
    74
1070
     0
1070
    73
1070
     0
1070
    42
1040
2.54
1070
    44
1040
0.8333339691162109
1070
    76
1070
     0
1070
    75
1070
     0
1070
   279
1070
     0
1070
   179
1070
     0
1070
   173
1070
     1
1070
    41
1040
3.0
1070
   140
1040
3.200000047683716
1070
   344
1005
150
1070
   343
1005
150
1002
}
  0
DIMENSION
  5
17F
330
1F
100
AcDbEntity
  8
寸法線
100
AcDbDimension
  2
*D5
 10
-99.83863261355779
 20
25.20226959647619
 30
0.0
 11
-99.83863261355779
 21
40.55226950110875
 31
0.0
 70
   160
  1
\U+2205A
 71
     5
 42
30.70000076293945
  3
ISO-25
100
AcDbAlignedDimension
 13
-84.76809123172188
 23
55.90227035941564
 33
0.0
 14
-84.90499308719064
 24
25.20226959647619
 34
0.0
 50
90.0
100
AcDbRotatedDimension
1001
ACAD
1000
DSTYLE
1002
{
1070
   278
1070
    46
1070
   147
1040
0.8000000119209291
1070
    77
1070
     1
1070
    74
1070
     0
1070
    73
1070
     0
1070
    42
1040
2.54
1070
    44
1040
1.0
1070
    76
1070
     0
1070
    75
1070
     0
1070
   279
1070
     0
1070
   271
1070
     0
1070
   173
1070
     1
1070
    41
1040
3.0
1070
   140
1040
3.200000047683716
1070
   344
1005
150
1070
   343
1005
150
1002
}
  0
DIMENSION
  5
18C
330
1F
100
AcDbEntity
  8
寸法線
100
AcDbDimension
  2
*D6
 10
-53.10127070559882
 20
16.49976568005365
 30
0.0
 11
-70.03062823428535
 21
16.49976568005365
 31
0.0
 70
   160
  1
L2
 71
     5
 42
33.85871505737303
  3
ISO-25
100
AcDbAlignedDimension
 13
-86.95998576297188
 23
27.74596886100255
 33
0.0
 14
-53.10127070559882
 24
33.21555237235511
 34
0.0
 50
180.0
100
AcDbRotatedDimension
1001
ACAD
1000
DSTYLE
1002
{
1070
   278
1070
    46
1070
   147
1040
0.8000000119209291
1070
    77
1070
     1
1070
    74
1070
     0
1070
    73
1070
     0
1070
    42
1040
2.54
1070
    44
1040
2.286
1070
    76
1070
     0
1070
    75
1070
     0
1070
   279
1070
     0
1070
   271
1070
     0
1070
   173
1070
     1
1070
    41
1040
3.0
1070
   140
1040
3.200000047683716
1070
   344
1005
150
1070
   343
1005
150
1002
}
  0
LINE
  5
19A
330
1F
100
AcDbEntity
  8
外形線
100
AcDbLine
 10
-138.0
 20
95.0
 30
0.0
 11
138.5
 21
95.0
 31
0.0
  0
LINE
  5
19B
330
1F
100
AcDbEntity
  8
外形線
100
AcDbLine
 10
138.5
 20
95.0
 30
0.0
 11
138.5
 21
-94.50000000000001
 31
0.0
  0
LINE
  5
19C
330
1F
100
AcDbEntity
  8
外形線
100
AcDbLine
 10
-138.0
 20
-94.50000000000001
 30
0.0
 11
138.5
 21
-94.50000000000001
 31
0.0
  0
LINE
  5
19D
330
1F
100
AcDbEntity
  8
外形線
100
AcDbLine
 10
-138.0
 20
95.0
 30
0.0
 11
-138.0
 21
-94.50000000000001
 31
0.0
  0
LINE
  5
1A0
330
1F
100
AcDbEntity
  8
外形線
100
AcDbLine
 10
-50.57500076293945
 20
-87.0
 30
0.0
 11
-50.57500076293945
 21
-94.50000000000001
 31
0.0
  0
MTEXT
  5
1F2
330
1F
100
AcDbEntity
  8
VIEW0002
 62
     7
100
AcDbMText
 10
12.25225788116623
 20
-65.01067176914
 30
0.0
 40
3.200000047683716
 41
0.0
 71
     7
 72
     1
  1
{\W0.833333;*形状は規格毎に異なります。}
 73
     1
 44
1.0
  0
MTEXT
  5
1F3
330
1F
100
AcDbEntity
  8
VIEW0002
 62
     7
100
AcDbMText
 10
12.39224574503748
 20
-70.00856129442843
 30
0.0
 40
3.200000047683716
 41
0.0
 71
     7
 72
     1
  1
{\W0.833333;*ストッパ－の位置及び数は、規格毎に異なります。}
 73
     1
 44
1.0
  0
MTEXT
  5
1F4
330
1F
100
AcDbEntity
  8
VIEW0002
 62
     7
100
AcDbMText
 10
12.15746819779514
 20
-75.23855758381649
 30
0.0
 40
3.200000047683716
 41
0.0
 71
     7
 72
     1
  1
\W0.833333;*寸法、仕様等は製品改良の為、予告無く変更する場合があります。（Ｈ２２．１０）
 73
     1
 44
1.0
  0
LINE
  5
25F
330
1F
100
AcDbEntity
  8
外形線
100
AcDbLine
 10
138.5
 20
-87.0
 30
0.0
 11
-50.57500076293945
 21
-87.0
 31
0.0
  0
LINE
  5
262
330
1F
100
AcDbEntity
  8
外形線
100
AcDbLine
 10
52.0
 20
-94.50000000000001
 30
0.0
 11
52.0
 21
-87.0
 31
0.0
  0
LINE
  5
26B
330
1F
100
AcDbEntity
  8
0
  6
Continuous
 62
     7
100
AcDbLine
 10
23.01187177593107
 20
-60.2365366588975
 30
0.0
 11
128.0118736832797
 21
-60.2365366588975
 31
0.0
  0
LINE
  5
26C
330
1F
100
AcDbEntity
  8
0
  6
Continuous
 62
     7
100
AcDbLine
 10
23.01187177593107
 20
-42.23653475154888
 30
0.0
 11
128.0118736832797
 21
-42.23653475154888
 31
0.0
  0
LINE
  5
26D
330
1F
100
AcDbEntity
  8
0
  6
Continuous
 62
     7
100
AcDbLine
 10
23.01187177593107
 20
-48.2365366588975
 30
0.0
 11
128.0118736832797
 21
-48.2365366588975
 31
0.0
  0
LINE
  5
26E
330
1F
100
AcDbEntity
  8
0
  6
Continuous
 62
     7
100
AcDbLine
 10
23.01187177593107
 20
-54.23653665889752
 30
0.0
 11
128.0118736832797
 21
-54.23653665889752
 31
0.0
  0
MTEXT
  5
26F
330
1F
100
AcDbEntity
  8
0
 62
     7
100
AcDbMText
 10
26.01187177593108
 20
-57.2365366588975
 30
0.0
 40
3.200000047683716
 41
0.0
 71
     4
 72
     1
  1
TDS1500
 73
     1
 44
1.0
  0
MTEXT
  5
271
330
1F
100
AcDbEntity
  8
0
 62
     7
100
AcDbMText
 10
26.01187177593108
 20
-39.23653475154885
 30
0.0
 40
3.200000047683716
 41
0.0
 71
     4
 72
     1
  1
TDS1100
 73
     1
 44
1.0
  0
MTEXT
  5
273
330
1F
100
AcDbEntity
  8
0
 62
     7
100
AcDbMText
 10
26.01187177593108
 20
-45.2365366588975
 30
0.0
 40
3.200000047683716
 41
0.0
 71
     4
 72
     1
  1
TDS1200
 73
     1
 44
1.0
  0
MTEXT
  5
275
330
1F
100
AcDbEntity
  8
0
 62
     7
100
AcDbMText
 10
26.01187177593108
 20
-51.23653665889751
 30
0.0
 40
3.200000047683716
 41
0.0
 71
     4
 72
     1
  1
TDS1350
 73
     1
 44
1.0
  0
MTEXT
  5
277
330
1F
100
AcDbEntity
  8
0
 62
     7
100
AcDbMText
 10
98.01187368327973
 20
-57.08050686978877
 30
0.0
 40
3.200000047683716
 41
0.0
 71
     5
 72
     1
  1
1225
 73
     1
 44
1.0
  0
MTEXT
  5
278
330
1F
100
AcDbEntity
  8
0
 62
     7
100
AcDbMText
 10
98.01187368327973
 20
-51.23653665889751
 30
0.0
 40
3.200000047683716
 41
0.0
 71
     5
 72
     1
  1
980
 73
     1
 44
1.0
  0
MTEXT
  5
279
330
1F
100
AcDbEntity
  8
0
 62
     7
100
AcDbMText
 10
98.01187368327973
 20
-45.2365366588975
 30
0.0
 40
3.200000047683716
 41
0.0
 71
     5
 72
     1
  1
980
 73
     1
 44
1.0
  0
MTEXT
  5
27A
330
1F
100
AcDbEntity
  8
0
 62
     7
100
AcDbMText
 10
98.01187368327973
 20
-39.23653475154885
 30
0.0
 40
3.200000047683716
 41
0.0
 71
     5
 72
     1
  1
815
 73
     1
 44
1.0
  0
LINE
  5
289
330
1F
100
AcDbEntity
  8
0
  6
Continuous
 62
     7
100
AcDbLine
 10
128.0118736832797
 20
60.35010253217683
 30
0.0
 11
128.0118736832797
 21
-60.23653665889749
 31
0.0
  0
MTEXT
  5
28A
330
1F
100
AcDbEntity
  8
0
 62
     7
100
AcDbMText
 10
118.0118736832796
 20
57.35010253217681
 30
0.0
 40
3.200000047683716
 41
0.0
 71
     5
 72
     1
  1
L3
 73
     1
 44
1.0
  0
MTEXT
  5
296
330
1F
100
AcDbEntity
  8
0
 62
     7
100
AcDbMText
 10
118.0118736832796
 20
-57.11050351614185
 30
0.0
 40
3.200000047683716
 41
0.0
 71
     5
 72
     1
  1
1350
 73
     1
 44
1.0
  0
MTEXT
  5
297
330
1F
100
AcDbEntity
  8
0
 62
     7
100
AcDbMText
 10
118.0118736832796
 20
-51.23653665889752
 30
0.0
 40
3.200000047683716
 41
0.0
 71
     5
 72
     1
  1
1080
 73
     1
 44
1.0
  0
MTEXT
  5
298
330
1F
100
AcDbEntity
  8
0
 62
     7
100
AcDbMText
 10
118.0118736832796
 20
-45.2365366588975
 30
0.0
 40
3.200000047683716
 41
0.0
 71
     5
 72
     1
  1
1080
 73
     1
 44
1.0
  0
MTEXT
  5
299
330
1F
100
AcDbEntity
  8
0
 62
     7
100
AcDbMText
 10
118.0118736832796
 20
-39.16041079853911
 30
0.0
 40
3.200000047683716
 41
0.0
 71
     5
 72
     1
  1
900
 73
     1
 44
1.0
  0
MTEXT
  5
2AA
330
1F
100
AcDbEntity
  8
0
 62
     7
100
AcDbMText
 10
78.01187368327973
 20
-57.11050351614185
 30
0.0
 40
3.200000047683716
 41
0.0
 71
     5
 72
     1
  1
1350
 73
     1
 44
1.0
  0
MTEXT
  5
2AB
330
1F
100
AcDbEntity
  8
0
 62
     7
100
AcDbMText
 10
78.01187368327973
 20
-51.23653665889752
 30
0.0
 40
3.200000047683716
 41
0.0
 71
     5
 72
     1
  1
1080
 73
     1
 44
1.0
  0
MTEXT
  5
2AC
330
1F
100
AcDbEntity
  8
0
 62
     7
100
AcDbMText
 10
78.01187368327973
 20
-45.2365366588975
 30
0.0
 40
3.200000047683716
 41
0.0
 71
     5
 72
     1
  1
1080
 73
     1
 44
1.0
  0
MTEXT
  5
2AD
330
1F
100
AcDbEntity
  8
0
 62
     7
100
AcDbMText
 10
78.01187368327973
 20
-39.16041079853911
 30
0.0
 40
3.200000047683716
 41
0.0
 71
     5
 72
     1
  1
900
 73
     1
 44
1.0
  0
MTEXT
  5
30A
330
1F
100
AcDbEntity
  8
0
 62
     7
100
AcDbMText
 10
118.0118736832796
 20
27.35010253217692
 30
0.0
 40
3.200000047683716
 41
0.0
 71
     5
 72
     1
  1
-
 73
     1
 44
1.0
  0
MTEXT
  5
30C
330
1F
100
AcDbEntity
  8
0
 62
     7
100
AcDbMText
 10
118.0118736832796
 20
21.35010205533976
 30
0.0
 40
3.200000047683716
 41
0.0
 71
     5
 72
     1
  1
-
 73
     1
 44
1.0
  0
MTEXT
  5
30D
330
1F
100
AcDbEntity
  8
0
 62
     7
100
AcDbMText
 10
118.0118736832796
 20
15.3501021149444
 30
0.0
 40
3.200000047683716
 41
0.0
 71
     5
 72
     1
  1
-
 73
     1
 44
1.0
  0
MTEXT
  5
30E
330
1F
100
AcDbEntity
  8
0
 62
     7
100
AcDbMText
 10
118.0118736832796
 20
9.350102055339775
 30
0.0
 40
3.200000047683716
 41
0.0
 71
     5
 72
     1
  1
-
 73
     1
 44
1.0
  0
MTEXT
  5
30F
330
1F
100
AcDbEntity
  8
0
 62
     7
100
AcDbMText
 10
118.0118736832796
 20
3.350102532176928
 30
0.0
 40
3.200000047683716
 41
0.0
 71
     5
 72
     1
  1
-
 73
     1
 44
1.0
  0
MTEXT
  5
310
330
1F
100
AcDbEntity
  8
0
 62
     7
100
AcDbMText
 10
118.0118736832796
 20
-2.649897467823069
 30
0.0
 40
3.200000047683716
 41
0.0
 71
     5
 72
     1
  1
-
 73
     1
 44
1.0
  0
MTEXT
  5
311
330
1F
100
AcDbEntity
  8
0
 62
     7
100
AcDbMText
 10
118.0118736832796
 20
-8.649897467823079
 30
0.0
 40
3.200000047683716
 41
0.0
 71
     5
 72
     1
  1
-
 73
     1
 44
1.0
  0
MTEXT
  5
312
330
1F
100
AcDbEntity
  8
0
 62
     7
100
AcDbMText
 10
118.0118736832796
 20
-14.64989746782307
 30
0.0
 40
3.200000047683716
 41
0.0
 71
     5
 72
     1
  1
-
 73
     1
 44
1.0
  0
MTEXT
  5
313
330
1F
100
AcDbEntity
  8
0
 62
     7
100
AcDbMText
 10
118.0118736832796
 20
-20.64989937517172
 30
0.0
 40
3.200000047683716
 41
0.0
 71
     5
 72
     1
  1
-
 73
     1
 44
1.0
  0
MTEXT
  5
314
330
1F
100
AcDbEntity
  8
0
 62
     7
100
AcDbMText
 10
118.0118736832796
 20
-26.64989937517172
 30
0.0
 40
3.200000047683716
 41
0.0
 71
     5
 72
     1
  1
-
 73
     1
 44
1.0
  0
MTEXT
  5
315
330
1F
100
AcDbEntity
  8
0
 62
     7
100
AcDbMText
 10
118.0118736832796
 20
-32.64989937517171
 30
0.0
 40
3.200000047683716
 41
0.0
 71
     5
 72
     1
  1
-
 73
     1
 44
1.0
  0
MTEXT
  5
316
330
1F
100
AcDbEntity
  8
0
 62
     7
100
AcDbMText
 10
58.01187368327973
 20
-57.11050351614185
 30
0.0
 40
3.200000047683716
 41
0.0
 71
     5
 72
     1
  1
1800
 73
     1
 44
1.0
  0
MTEXT
  5
317
330
1F
100
AcDbEntity
  8
0
 62
     7
100
AcDbMText
 10
58.00234937761813
 20
-51.23653665889751
 30
0.0
 40
3.200000047683716
 41
0.0
 71
     5
 72
     1
  1
1623
 73
     1
 44
1.0
  0
MTEXT
  5
318
330
1F
100
AcDbEntity
  8
0
 62
     7
100
AcDbMText
 10
58.0023493776181
 20
-45.2365366588975
 30
0.0
 40
3.200000047683716
 41
0.0
 71
     5
 72
     1
  1
1426
 73
     1
 44
1.0
  0
MTEXT
  5
319
330
1F
100
AcDbEntity
  8
0
 62
     7
100
AcDbMText
 10
58.08192920683512
 20
-39.16041079853911
 30
0.0
 40
3.200000047683716
 41
0.0
 71
     5
 72
     1
  1
1299
 73
     1
 44
1.0
  0
LINE
  5
4F7
330
1F
100
AcDbEntity
  8
外形線
100
AcDbLine
 10
-87.24986306660865
 20
-68.93727362086615
 30
0.0
 11
-86.38579417618194
 21
-68.93727362086615
 31
0.0
  0
LINE
  5
4F8
330
1F
100
AcDbEntity
  8
外形線
100
AcDbLine
 10
-92.98954427458557
 20
-39.25420016561485
 30
0.0
 11
-92.98954427458557
 21
-66.53534659801358
 31
0.0
  0
LWPOLYLINE
  5
4F9
330
1F
100
AcDbEntity
  8
外形線
100
AcDbPolyline
 90
        2
 70
     0
 43
2.250000033527613
 10
-69.18533939471152
 20
-30.65804745092729
 10
-37.10033891660783
 20
-43.94808979770514
  0
LINE
  5
4FA
330
1F
100
AcDbEntity
  8
外形線
100
AcDbLine
 10
-37.10033891660797
 20
-43.94808979770526
 30
0.0
 11
-69.18533939471174
 21
-30.65804745092747
 31
0.0
  0
LINE
  5
4FB
330
1F
100
AcDbEntity
  8
中心線
100
AcDbLine
 10
-53.14283915565997
 20
-37.30306862431616
 30
0.0
 11
-53.14283915565997
 21
-9.671287105260573
 31
0.0
  0
LINE
  5
4FC
330
1F
100
AcDbEntity
  8
外形線
100
AcDbLine
 10
-69.18533939471174
 20
-20.51588725171871
 30
0.0
 11
-69.18533939471174
 21
-19.65181836129216
 31
0.0
  0
LINE
  5
4FD
330
1F
100
AcDbEntity
  8
外形線
100
AcDbLine
 10
-37.10033891660788
 20
-18.78774947086552
 30
0.0
 11
-53.14283915565989
 21
-18.78774947086552
 31
0.0
  0
LINE
  5
4FE
330
1F
100
AcDbEntity
  8
外形線
100
AcDbLine
 10
-37.10033891660788
 20
-20.51588725171871
 30
0.0
 11
-37.10033891660788
 21
-19.65181836129216
 31
0.0
  0
LINE
  5
4FF
330
1F
100
AcDbEntity
  8
外形線
100
AcDbLine
 10
-37.10033891660797
 20
-20.51588725171891
 30
0.0
 11
-39.50226593946041
 21
-20.98149950355506
 31
0.0
  0
LINE
  5
500
330
1F
100
AcDbEntity
  8
外形線
100
AcDbLine
 10
-66.78341237185913
 20
-20.98149950355486
 30
0.0
 11
-53.14283915565974
 21
-20.98149950355486
 31
0.0
  0
LINE
  5
501
330
1F
100
AcDbEntity
  8
外形線
100
AcDbLine
 10
-69.18533939471174
 20
-18.78774947086543
 30
0.0
 11
-66.78341237185932
 21
-18.32213721902929
 31
0.0
  0
LINE
  5
502
330
1F
100
AcDbEntity
  8
外形線
100
AcDbLine
 10
-39.50226593946041
 20
-17.45806832860265
 30
0.0
 11
-39.50226593946041
 21
-18.32213721902929
 31
0.0
  0
LINE
  5
503
330
1F
100
AcDbEntity
  8
外形線
100
AcDbLine
 10
-69.18533939471174
 20
-18.78774947086552
 30
0.0
 11
-53.14283915565989
 21
-18.78774947086552
 31
0.0
  0
LINE
  5
504
330
1F
100
AcDbEntity
  8
外形線
100
AcDbLine
 10
-66.78341237185924
 20
-21.86806839431676
 30
0.0
 11
-66.78341237185924
 21
-20.98149950355486
 31
0.0
  0
LINE
  5
505
330
1F
100
AcDbEntity
  8
外形線
100
AcDbLine
 10
-39.50226593946041
 20
-18.32213721902937
 30
0.0
 11
-53.14283915565989
 21
-18.32213721902937
 31
0.0
  0
LINE
  5
506
330
1F
100
AcDbEntity
  8
外形線
100
AcDbLine
 10
-66.78341237185924
 20
-18.32213721902937
 30
0.0
 11
-53.14283915565989
 21
-18.32213721902937
 31
0.0
  0
LINE
  5
507
330
1F
100
AcDbEntity
  8
外形線
100
AcDbLine
 10
-69.18533939471174
 20
-18.78774947086543
 30
0.0
 11
-69.18533939471174
 21
-19.65181836129216
 31
0.0
  0
LINE
  5
508
330
1F
100
AcDbEntity
  8
外形線
100
AcDbLine
 10
-39.50226593946041
 20
-20.98149950355486
 30
0.0
 11
-53.14283915565974
 21
-20.98149950355486
 31
0.0
  0
LINE
  5
509
330
1F
100
AcDbEntity
  8
外形線
100
AcDbLine
 10
-37.10033891660788
 20
-18.78774947086558
 30
0.0
 11
-39.50226593946041
 21
-18.32213721902945
 31
0.0
  0
LINE
  5
50A
330
1F
100
AcDbEntity
  8
外形線
100
AcDbLine
 10
-69.18533939471174
 20
-20.5158872517188
 30
0.0
 11
-53.14283915565974
 21
-20.5158872517188
 31
0.0
  0
LINE
  5
50B
330
1F
100
AcDbEntity
  8
外形線
100
AcDbLine
 10
-69.18533939471169
 20
-16.10588718600459
 30
0.0
 11
-66.78341237185913
 21
-16.57149943784074
 31
0.0
  0
LINE
  5
50C
330
1F
100
AcDbEntity
  8
外形線
100
AcDbLine
 10
-37.10033891660788
 20
-14.37774940515129
 30
0.0
 11
-37.10033891660788
 21
-15.24181829557804
 31
0.0
  0
LINE
  5
50D
330
1F
100
AcDbEntity
  8
外形線
100
AcDbLine
 10
-37.10033891660783
 20
-16.10588718600468
 30
0.0
 11
-53.14283915565974
 21
-16.10588718600468
 31
0.0
  0
LINE
  5
50E
330
1F
100
AcDbEntity
  8
外形線
100
AcDbLine
 10
-69.18533939471174
 20
-16.10588718600459
 30
0.0
 11
-69.18533939471174
 21
-15.24181829557804
 31
0.0
  0
LINE
  5
50F
330
1F
100
AcDbEntity
  8
外形線
100
AcDbLine
 10
-66.78341237185924
 20
-13.91213715331526
 30
0.0
 11
-53.14283915565974
 21
-13.91213715331526
 31
0.0
  0
LINE
  5
510
330
1F
100
AcDbEntity
  8
外形線
100
AcDbLine
 10
-66.78341237185924
 20
-16.57149943784083
 30
0.0
 11
-53.14283915565974
 21
-16.57149943784083
 31
0.0
  0
LINE
  5
511
330
1F
100
AcDbEntity
  8
外形線
100
AcDbLine
 10
-69.18533939471169
 20
-16.10588718600468
 30
0.0
 11
-53.14283915565974
 21
-16.10588718600468
 31
0.0
  0
LINE
  5
512
330
1F
100
AcDbEntity
  8
外形線
100
AcDbLine
 10
-66.78341237185924
 20
-17.45806832860265
 30
0.0
 11
-66.78341237185924
 21
-16.57149943784074
 31
0.0
  0
LINE
  5
513
330
1F
100
AcDbEntity
  8
外形線
100
AcDbLine
 10
-69.18533939471174
 20
-14.37774940515129
 30
0.0
 11
-66.7834123718593
 21
-13.91213715331526
 31
0.0
  0
LINE
  5
514
330
1F
100
AcDbEntity
  8
外形線
100
AcDbLine
 10
-39.50226593946041
 20
-13.04806826288859
 30
0.0
 11
-39.50226593946041
 21
-13.91213715331514
 31
0.0
  0
LINE
  5
515
330
1F
100
AcDbEntity
  8
外形線
100
AcDbLine
 10
-37.10033891660788
 20
-14.3777494051514
 30
0.0
 11
-53.14283915565974
 21
-14.3777494051514
 31
0.0
  0
LINE
  5
516
330
1F
100
AcDbEntity
  8
外形線
100
AcDbLine
 10
-39.50226593946041
 20
-21.86806839431676
 30
0.0
 11
-39.50226593946041
 21
-20.98149950355486
 31
0.0
  0
LINE
  5
517
330
1F
100
AcDbEntity
  8
外形線
100
AcDbLine
 10
-37.10033891660788
 20
-16.10588718600459
 30
0.0
 11
-37.10033891660788
 21
-15.24181829557804
 31
0.0
  0
LINE
  5
518
330
1F
100
AcDbEntity
  8
外形線
100
AcDbLine
 10
-39.50226593946041
 20
-17.45806832860265
 30
0.0
 11
-39.50226593946041
 21
-16.57149943784074
 31
0.0
  0
LINE
  5
519
330
1F
100
AcDbEntity
  8
外形線
100
AcDbLine
 10
-39.50226593946041
 20
-16.57149943784083
 30
0.0
 11
-53.14283915565974
 21
-16.57149943784083
 31
0.0
  0
LINE
  5
51A
330
1F
100
AcDbEntity
  8
外形線
100
AcDbLine
 10
-39.50226593946041
 20
-13.91213715331526
 30
0.0
 11
-53.14283915565974
 21
-13.91213715331526
 31
0.0
  0
LINE
  5
51B
330
1F
100
AcDbEntity
  8
外形線
100
AcDbLine
 10
-37.10033891660788
 20
-20.5158872517188
 30
0.0
 11
-53.14283915565974
 21
-20.5158872517188
 31
0.0
  0
LINE
  5
51C
330
1F
100
AcDbEntity
  8
外形線
100
AcDbLine
 10
-69.18533939471174
 20
-14.37774940515129
 30
0.0
 11
-69.18533939471174
 21
-15.24181829557804
 31
0.0
  0
LINE
  5
51D
330
1F
100
AcDbEntity
  8
外形線
100
AcDbLine
 10
-37.10033891660797
 20
-16.10588718600479
 30
0.0
 11
-39.50226593946059
 21
-16.57149943784091
 31
0.0
  0
LINE
  5
51E
330
1F
100
AcDbEntity
  8
外形線
100
AcDbLine
 10
-37.10033891660788
 20
-14.37774940515146
 30
0.0
 11
-39.50226593946041
 21
-13.91213715331531
 31
0.0
  0
LINE
  5
51F
330
1F
100
AcDbEntity
  8
外形線
100
AcDbLine
 10
-69.18533939471169
 20
-14.3777494051514
 30
0.0
 11
-53.14283915565974
 21
-14.3777494051514
 31
0.0
  0
LINE
  5
520
330
1F
100
AcDbEntity
  8
外形線
100
AcDbLine
 10
-66.78341237185924
 20
-13.04806826288848
 30
0.0
 11
-66.78341237185924
 21
-13.91213715331514
 31
0.0
  0
LINE
  5
521
330
1F
100
AcDbEntity
  8
外形線
100
AcDbLine
 10
-69.18533939471169
 20
-20.51588725171871
 30
0.0
 11
-66.78341237185924
 21
-20.98149950355486
 31
0.0
  0
LINE
  5
522
330
1F
100
AcDbEntity
  8
外形線
100
AcDbLine
 10
-66.78341237185924
 20
-17.45806832860265
 30
0.0
 11
-66.78341237185924
 21
-18.32213721902929
 31
0.0
  0
LINE
  5
523
330
1F
100
AcDbEntity
  8
外形線
100
AcDbLine
 10
-66.78341237185924
 20
-21.86806839431676
 30
0.0
 11
-66.78341237185924
 21
-22.7321372847434
 31
0.0
  0
LINE
  5
524
330
1F
100
AcDbEntity
  8
外形線
100
AcDbLine
 10
-69.18533939471174
 20
-24.92588731743285
 30
0.0
 11
-66.78341237185924
 21
-25.391499569269
 31
0.0
  0
LINE
  5
525
330
1F
100
AcDbEntity
  8
外形線
100
AcDbLine
 10
-37.10033891660788
 20
-24.92588731743294
 30
0.0
 11
-53.14283915565974
 21
-24.92588731743294
 31
0.0
  0
LINE
  5
526
330
1F
100
AcDbEntity
  8
外形線
100
AcDbLine
 10
-39.50226593946041
 20
-26.27806846003091
 30
0.0
 11
-39.50226593946041
 21
-25.391499569269
 31
0.0
  0
LINE
  5
527
330
1F
100
AcDbEntity
  8
外形線
100
AcDbLine
 10
-69.18533939471174
 20
-24.92588731743294
 30
0.0
 11
-53.14283915565974
 21
-24.92588731743294
 31
0.0
  0
LINE
  5
528
330
1F
100
AcDbEntity
  8
外形線
100
AcDbLine
 10
-37.10033891660788
 20
-23.19774953657955
 30
0.0
 11
-37.10033891660788
 21
-24.0618184270063
 31
0.0
  0
LINE
  5
529
330
1F
100
AcDbEntity
  8
外形線
100
AcDbLine
 10
-37.10033891660788
 20
-23.19774953657967
 30
0.0
 11
-39.50226593946041
 21
-22.73213728474349
 31
0.0
  0
LINE
  5
52A
330
1F
100
AcDbEntity
  8
外形線
100
AcDbLine
 10
-39.50226593946041
 20
-25.391499569269
 30
0.0
 11
-53.14283915565974
 21
-25.391499569269
 31
0.0
  0
LINE
  5
52B
330
1F
100
AcDbEntity
  8
外形線
100
AcDbLine
 10
-69.18533939471174
 20
-23.19774953657955
 30
0.0
 11
-69.18533939471174
 21
-24.0618184270063
 31
0.0
  0
LINE
  5
52C
330
1F
100
AcDbEntity
  8
外形線
100
AcDbLine
 10
-66.78341237185924
 20
-22.73213728474349
 30
0.0
 11
-53.14283915565974
 21
-22.73213728474349
 31
0.0
  0
LINE
  5
52D
330
1F
100
AcDbEntity
  8
外形線
100
AcDbLine
 10
-39.50226593946041
 20
-22.73213728474349
 30
0.0
 11
-53.14283915565974
 21
-22.73213728474349
 31
0.0
  0
LINE
  5
52E
330
1F
100
AcDbEntity
  8
外形線
100
AcDbLine
 10
-66.78341237185924
 20
-26.27806846003091
 30
0.0
 11
-66.78341237185924
 21
-25.391499569269
 31
0.0
  0
LINE
  5
52F
330
1F
100
AcDbEntity
  8
外形線
100
AcDbLine
 10
-69.18533939471174
 20
-23.19774953657967
 30
0.0
 11
-53.14283915565974
 21
-23.19774953657967
 31
0.0
  0
LINE
  5
530
330
1F
100
AcDbEntity
  8
外形線
100
AcDbLine
 10
-39.50226593946041
 20
-21.86806839431676
 30
0.0
 11
-39.50226593946041
 21
-22.7321372847434
 31
0.0
  0
LINE
  5
531
330
1F
100
AcDbEntity
  8
外形線
100
AcDbLine
 10
-69.18533939471188
 20
-23.19774953657955
 30
0.0
 11
-66.7834123718593
 21
-22.7321372847434
 31
0.0
  0
LINE
  5
532
330
1F
100
AcDbEntity
  8
外形線
100
AcDbLine
 10
-66.78341237185924
 20
-25.391499569269
 30
0.0
 11
-53.14283915565974
 21
-25.391499569269
 31
0.0
  0
LINE
  5
533
330
1F
100
AcDbEntity
  8
外形線
100
AcDbLine
 10
-37.10033891660788
 20
-24.92588731743305
 30
0.0
 11
-39.50226593946041
 21
-25.39149956926917
 31
0.0
  0
LINE
  5
534
330
1F
100
AcDbEntity
  8
外形線
100
AcDbLine
 10
-37.10033891660788
 20
-24.92588731743285
 30
0.0
 11
-37.10033891660788
 21
-24.0618184270063
 31
0.0
  0
LINE
  5
535
330
1F
100
AcDbEntity
  8
外形線
100
AcDbLine
 10
-37.10033891660788
 20
-23.19774953657967
 30
0.0
 11
-53.14283915565974
 21
-23.19774953657967
 31
0.0
  0
LINE
  5
536
330
1F
100
AcDbEntity
  8
外形線
100
AcDbLine
 10
-69.18533939471174
 20
-24.92588731743285
 30
0.0
 11
-69.18533939471174
 21
-24.0618184270063
 31
0.0
  0
LINE
  5
537
330
1F
100
AcDbEntity
  8
外形線
100
AcDbLine
 10
-69.18533939471174
 20
-29.335887383147
 30
0.0
 11
-69.18533939471174
 21
-28.47181849272033
 31
0.0
  0
LINE
  5
538
330
1F
100
AcDbEntity
  8
外形線
100
AcDbLine
 10
-37.10033891660788
 20
-27.60774960229378
 30
0.0
 11
-53.14283915565974
 21
-27.60774960229378
 31
0.0
  0
LINE
  5
539
330
1F
100
AcDbEntity
  8
外形線
100
AcDbLine
 10
-37.10033891660788
 20
-29.335887383147
 30
0.0
 11
-37.10033891660788
 21
-28.47181849272033
 31
0.0
  0
LINE
  5
53A
330
1F
100
AcDbEntity
  8
外形線
100
AcDbLine
 10
-37.10033891660807
 20
-29.33588738314718
 30
0.0
 11
-39.50226593946059
 21
-29.80149963498332
 31
0.0
  0
LINE
  5
53B
330
1F
100
AcDbEntity
  8
外形線
100
AcDbLine
 10
-66.78341237185924
 20
-29.80149963498312
 30
0.0
 11
-53.14283915565974
 21
-29.80149963498312
 31
0.0
  0
LINE
  5
53C
330
1F
100
AcDbEntity
  8
外形線
100
AcDbLine
 10
-69.18533939471174
 20
-27.60774960229368
 30
0.0
 11
-66.7834123718593
 21
-27.14213735045758
 31
0.0
  0
LINE
  5
53D
330
1F
100
AcDbEntity
  8
外形線
100
AcDbLine
 10
-39.50226593946041
 20
-26.27806846003091
 30
0.0
 11
-39.50226593946041
 21
-27.14213735045743
 31
0.0
  0
LINE
  5
53E
330
1F
100
AcDbEntity
  8
外形線
100
AcDbLine
 10
-69.18533939471174
 20
-27.60774960229378
 30
0.0
 11
-53.14283915565974
 21
-27.60774960229378
 31
0.0
  0
LINE
  5
53F
330
1F
100
AcDbEntity
  8
外形線
100
AcDbLine
 10
-66.78341237185924
 20
-30.688068525745
 30
0.0
 11
-66.78341237185924
 21
-29.80149963498303
 31
0.0
  0
LINE
  5
540
330
1F
100
AcDbEntity
  8
外形線
100
AcDbLine
 10
-39.50226593946041
 20
-27.14213735045763
 30
0.0
 11
-53.14283915565974
 21
-27.14213735045763
 31
0.0
  0
LINE
  5
541
330
1F
100
AcDbEntity
  8
外形線
100
AcDbLine
 10
-66.78341237185924
 20
-27.14213735045763
 30
0.0
 11
-53.14283915565974
 21
-27.14213735045763
 31
0.0
  0
LINE
  5
542
330
1F
100
AcDbEntity
  8
外形線
100
AcDbLine
 10
-69.18533939471174
 20
-27.60774960229368
 30
0.0
 11
-69.18533939471174
 21
-28.47181849272033
 31
0.0
  0
LINE
  5
543
330
1F
100
AcDbEntity
  8
外形線
100
AcDbLine
 10
-39.50226593946041
 20
-29.80149963498312
 30
0.0
 11
-53.14283915565974
 21
-29.80149963498312
 31
0.0
  0
LINE
  5
544
330
1F
100
AcDbEntity
  8
外形線
100
AcDbLine
 10
-37.10033891660788
 20
-27.60774960229378
 30
0.0
 11
-39.50226593946041
 21
-27.14213735045763
 31
0.0
  0
LINE
  5
545
330
1F
100
AcDbEntity
  8
外形線
100
AcDbLine
 10
-37.10033891660788
 20
-27.60774960229368
 30
0.0
 11
-37.10033891660788
 21
-28.47181849272033
 31
0.0
  0
LINE
  5
546
330
1F
100
AcDbEntity
  8
外形線
100
AcDbLine
 10
-69.18533939471174
 20
-29.335887383147
 30
0.0
 11
-53.14283915565974
 21
-29.335887383147
 31
0.0
  0
LINE
  5
547
330
1F
100
AcDbEntity
  8
外形線
100
AcDbLine
 10
-39.50226593946041
 20
-30.688068525745
 30
0.0
 11
-39.50226593946041
 21
-29.80149963498303
 31
0.0
  0
LINE
  5
548
330
1F
100
AcDbEntity
  8
外形線
100
AcDbLine
 10
-37.10033891660788
 20
-29.335887383147
 30
0.0
 11
-53.14283915565974
 21
-29.335887383147
 31
0.0
  0
LINE
  5
549
330
1F
100
AcDbEntity
  8
外形線
100
AcDbLine
 10
-69.18533939471169
 20
-29.335887383147
 30
0.0
 11
-66.78341237185913
 21
-29.80149963498312
 31
0.0
  0
LINE
  5
54A
330
1F
100
AcDbEntity
  8
外形線
100
AcDbLine
 10
-66.78341237185924
 20
-26.27806846003091
 30
0.0
 11
-66.78341237185924
 21
-27.14213735045743
 31
0.0
  0
LINE
  5
54B
330
1F
100
AcDbEntity
  8
外形線
100
AcDbLine
 10
-66.78341237185924
 20
-30.688068525745
 30
0.0
 11
-66.78341237185924
 21
-31.55213741617169
 31
0.0
  0
LINE
  5
54C
330
1F
100
AcDbEntity
  8
外形線
100
AcDbLine
 10
-37.10033891660788
 20
-33.7458874488612
 30
0.0
 11
-53.14283915565974
 21
-33.7458874488612
 31
0.0
  0
LINE
  5
54D
330
1F
100
AcDbEntity
  8
外形線
100
AcDbLine
 10
-39.50226593946041
 20
-35.09806859145915
 30
0.0
 11
-39.50226593946041
 21
-34.21149970069722
 31
0.0
  0
LINE
  5
54E
330
1F
100
AcDbEntity
  8
外形線
100
AcDbLine
 10
-61.73063419326175
 20
-33.7458874488612
 30
0.0
 11
-53.14283915565974
 21
-33.7458874488612
 31
0.0
  0
LINE
  5
54F
330
1F
100
AcDbEntity
  8
外形線
100
AcDbLine
 10
-37.10033891660788
 20
-32.01774966800782
 30
0.0
 11
-37.10033891660788
 21
-32.88181855843445
 31
0.0
  0
LINE
  5
550
330
1F
100
AcDbEntity
  8
外形線
100
AcDbLine
 10
-37.10033891660788
 20
-32.01774966800789
 30
0.0
 11
-39.50226593946041
 21
-31.55213741617175
 31
0.0
  0
LINE
  5
551
330
1F
100
AcDbEntity
  8
外形線
100
AcDbLine
 10
-39.50226593946041
 20
-34.21149970069722
 30
0.0
 11
-53.14283915565974
 21
-34.21149970069722
 31
0.0
  0
LINE
  5
552
330
1F
100
AcDbEntity
  8
外形線
100
AcDbLine
 10
-66.78341237185924
 20
-31.55213741617175
 30
0.0
 11
-53.14283915565974
 21
-31.55213741617175
 31
0.0
  0
LINE
  5
553
330
1F
100
AcDbEntity
  8
外形線
100
AcDbLine
 10
-39.50226593946041
 20
-31.55213741617175
 30
0.0
 11
-53.14283915565974
 21
-31.55213741617175
 31
0.0
  0
LINE
  5
554
330
1F
100
AcDbEntity
  8
外形線
100
AcDbLine
 10
-65.90272786144723
 20
-32.01774966800782
 30
0.0
 11
-53.14283915565989
 21
-32.01774966800782
 31
0.0
  0
LINE
  5
555
330
1F
100
AcDbEntity
  8
外形線
100
AcDbLine
 10
-39.50226593946041
 20
-30.688068525745
 30
0.0
 11
-39.50226593946041
 21
-31.55213741617169
 31
0.0
  0
LINE
  5
556
330
1F
100
AcDbEntity
  8
外形線
100
AcDbLine
 10
-66.94921884265738
 20
-31.58427891068952
 30
0.0
 11
-66.7834123718593
 21
-31.55213741617169
 31
0.0
  0
LINE
  5
557
330
1F
100
AcDbEntity
  8
外形線
100
AcDbLine
 10
-60.60654678007196
 20
-34.21149970069722
 30
0.0
 11
-53.14283915565974
 21
-34.21149970069722
 31
0.0
  0
LINE
  5
558
330
1F
100
AcDbEntity
  8
外形線
100
AcDbLine
 10
-37.10033891660807
 20
-33.74588744886128
 30
0.0
 11
-39.50226593946059
 21
-34.21149970069746
 31
0.0
  0
LINE
  5
559
330
1F
100
AcDbEntity
  8
外形線
100
AcDbLine
 10
-37.10033891660788
 20
-33.74588744886111
 30
0.0
 11
-37.10033891660788
 21
-32.88181855843445
 31
0.0
  0
LINE
  5
55A
330
1F
100
AcDbEntity
  8
外形線
100
AcDbLine
 10
-37.10033891660788
 20
-32.01774966800782
 30
0.0
 11
-53.14283915565989
 21
-32.01774966800782
 31
0.0
  0
LINE
  5
55B
330
1F
100
AcDbEntity
  8
外形線
100
AcDbLine
 10
-37.10033891660788
 20
-36.42774973372197
 30
0.0
 11
-53.14283915565974
 21
-36.42774973372197
 31
0.0
  0
LINE
  5
55C
330
1F
100
AcDbEntity
  8
外形線
100
AcDbLine
 10
-37.10033891660788
 20
-38.15588751457525
 30
0.0
 11
-37.10033891660788
 21
-37.29181862414859
 31
0.0
  0
LINE
  5
55D
330
1F
100
AcDbEntity
  8
外形線
100
AcDbLine
 10
-37.10033891660797
 20
-38.15588751457543
 30
0.0
 11
-39.50226593946041
 21
-38.62149976641158
 31
0.0
  0
LINE
  5
55E
330
1F
100
AcDbEntity
  8
外形線
100
AcDbLine
 10
-39.50226593946041
 20
-35.09806859145915
 30
0.0
 11
-39.50226593946041
 21
-35.96213748188578
 31
0.0
  0
LINE
  5
55F
330
1F
100
AcDbEntity
  8
外形線
100
AcDbLine
 10
-55.25604589273394
 20
-36.42774973372197
 30
0.0
 11
-53.14283915565974
 21
-36.42774973372197
 31
0.0
  0
LINE
  5
560
330
1F
100
AcDbEntity
  8
外形線
100
AcDbLine
 10
-39.50226593946041
 20
-35.96213748188592
 30
0.0
 11
-53.14283915565974
 21
-35.96213748188592
 31
0.0
  0
LINE
  5
561
330
1F
100
AcDbEntity
  8
外形線
100
AcDbLine
 10
-56.38013330592369
 20
-35.96213748188592
 30
0.0
 11
-53.14283915565974
 21
-35.96213748188592
 31
0.0
  0
LINE
  5
562
330
1F
100
AcDbEntity
  8
外形線
100
AcDbLine
 10
-39.50226593946041
 20
-38.62149976641139
 30
0.0
 11
-49.95986481135872
 21
-38.62149976641139
 31
0.0
  0
LINE
  5
563
330
1F
100
AcDbEntity
  8
外形線
100
AcDbLine
 10
-37.10033891660788
 20
-36.42774973372201
 30
0.0
 11
-39.50226593946041
 21
-35.96213748188592
 31
0.0
  0
LINE
  5
564
330
1F
100
AcDbEntity
  8
外形線
100
AcDbLine
 10
-37.10033891660788
 20
-36.42774973372187
 30
0.0
 11
-37.10033891660788
 21
-37.29181862414859
 31
0.0
  0
LINE
  5
565
330
1F
100
AcDbEntity
  8
外形線
100
AcDbLine
 10
-39.50226593946041
 20
-39.50806865717323
 30
0.0
 11
-39.50226593946041
 21
-38.62149976641139
 31
0.0
  0
LINE
  5
566
330
1F
100
AcDbEntity
  8
外形線
100
AcDbLine
 10
-37.10033891660788
 20
-38.15588751457525
 30
0.0
 11
-51.08395222454851
 21
-38.15588751457525
 31
0.0
  0
LINE
  5
567
330
1F
100
AcDbEntity
  8
外形線
100
AcDbLine
 10
-37.10033891660788
 20
-42.56588758028934
 30
0.0
 11
-40.43727025583527
 21
-42.56588758028934
 31
0.0
  0
LINE
  5
568
330
1F
100
AcDbEntity
  8
外形線
100
AcDbLine
 10
-37.10033891660788
 20
-40.83774979943597
 30
0.0
 11
-37.10033891660788
 21
-41.70181868986271
 31
0.0
  0
LINE
  5
569
330
1F
100
AcDbEntity
  8
外形線
100
AcDbLine
 10
-37.10033891660788
 20
-40.83774979943615
 30
0.0
 11
-39.50226593946036
 21
-40.37213754760003
 31
0.0
  0
LINE
  5
56A
330
1F
100
AcDbEntity
  8
外形線
100
AcDbLine
 10
-39.50226593946041
 20
-40.37213754760003
 30
0.0
 11
-45.73345133721045
 21
-40.37213754760003
 31
0.0
  0
LINE
  5
56B
330
1F
100
AcDbEntity
  8
外形線
100
AcDbLine
 10
-39.50226593946041
 20
-39.5080686571733
 30
0.0
 11
-39.50226593946041
 21
-40.37213754759986
 31
0.0
  0
LINE
  5
56C
330
1F
100
AcDbEntity
  8
外形線
100
AcDbLine
 10
-37.10033891660797
 20
-42.56588758028954
 30
0.0
 11
-39.37346221274771
 21
-43.00653129949789
 31
0.0
  0
LINE
  5
56D
330
1F
100
AcDbEntity
  8
外形線
100
AcDbLine
 10
-37.10033891660788
 20
-42.56588758028934
 30
0.0
 11
-37.10033891660788
 21
-41.70181868986271
 31
0.0
  0
LINE
  5
56E
330
1F
100
AcDbEntity
  8
外形線
100
AcDbLine
 10
-37.10033891660788
 20
-40.83774979943607
 30
0.0
 11
-44.6093639240206
 21
-40.83774979943607
 31
0.0
  0
LINE
  5
56F
330
1F
100
AcDbEntity
  8
外形線
100
AcDbLine
 10
-38.01933736353567
 20
-44.86708824463295
 30
0.0
 11
-40.23799587790842
 21
-42.6484297302602
 31
0.0
  0
LINE
  5
570
330
1F
100
AcDbEntity
  8
外形線
100
AcDbLine
 10
-39.24131530720163
 20
-46.08906618829894
 30
0.0
 11
-38.63032633536864
 21
-45.47807721646593
 31
0.0
  0
LINE
  5
571
330
1F
100
AcDbEntity
  8
外形線
100
AcDbLine
 10
-39.24131530720194
 20
-46.08906618829911
 30
0.0
 11
-41.26897177365304
 21
-44.71988488320175
 31
0.0
  0
LINE
  5
572
330
1F
100
AcDbEntity
  8
外形線
100
AcDbLine
 10
-41.26897177365278
 20
-44.71988488320156
 30
0.0
 11
-45.53417695928362
 21
-40.45467969757075
 31
0.0
  0
LINE
  5
573
330
1F
100
AcDbEntity
  8
外形線
100
AcDbLine
 10
-73.28104490711713
 20
-34.7537529633329
 30
0.0
 11
-73.89203387895017
 21
-35.36474193516589
 31
0.0
  0
LINE
  5
574
330
1F
100
AcDbEntity
  8
外形線
100
AcDbLine
 10
-51.81550143834229
 20
-58.66325231943966
 30
0.0
 11
-63.15926214456275
 21
-47.31949161321924
 31
0.0
  0
LINE
  5
575
330
1F
100
AcDbEntity
  8
外形線
100
AcDbLine
 10
-50.59352349467642
 20
-57.44127437577358
 30
0.0
 11
-51.20451246650937
 21
-58.05226334760664
 31
0.0
  0
LINE
  5
576
330
1F
100
AcDbEntity
  8
外形線
100
AcDbLine
 10
-50.5935234946763
 20
-57.4412743757735
 30
0.0
 11
-51.96270479977363
 21
-55.41361790932239
 31
0.0
  0
LINE
  5
577
330
1F
100
AcDbEntity
  8
外形線
100
AcDbLine
 10
-71.25338844066607
 20
-36.12293426843016
 30
0.0
 11
-61.60804662021988
 21
-45.76827608887636
 31
0.0
  0
LINE
  5
578
330
1F
100
AcDbEntity
  8
外形線
100
AcDbLine
 10
-74.50302285078335
 20
-35.97573090699891
 30
0.0
 11
-73.13384154568598
 21
-38.00338737345
 31
0.0
  0
LINE
  5
579
330
1F
100
AcDbEntity
  8
外形線
100
AcDbLine
 10
-54.45414687662648
 20
-57.90505998617529
 30
0.0
 11
-53.84315790479353
 21
-57.2940710143423
 31
0.0
  0
LINE
  5
57A
330
1F
100
AcDbEntity
  8
外形線
100
AcDbLine
 10
-74.50302285078318
 20
-35.97573090699891
 30
0.0
 11
-63.15926214456275
 21
-47.31949161321924
 31
0.0
  0
LINE
  5
57B
330
1F
100
AcDbEntity
  8
外形線
100
AcDbLine
 10
-70.58403335485497
 20
-35.45357918261907
 30
0.0
 11
-71.25338844066618
 21
-36.12293426843024
 31
0.0
  0
LINE
  5
57C
330
1F
100
AcDbEntity
  8
外形線
100
AcDbLine
 10
-53.84315790479353
 20
-57.2940710143423
 30
0.0
 11
-63.48849972523964
 21
-47.64872919389611
 31
0.0
  0
LINE
  5
57D
330
1F
100
AcDbEntity
  8
外形線
100
AcDbLine
 10
-73.13384154568584
 20
-38.0033873734499
 30
0.0
 11
-63.48849972523964
 21
-47.64872919389611
 31
0.0
  0
LINE
  5
57E
330
1F
100
AcDbEntity
  8
外形線
100
AcDbLine
 10
-74.50302285078318
 20
-35.97573090699891
 30
0.0
 11
-73.89203387895017
 21
-35.36474193516589
 31
0.0
  0
LINE
  5
57F
330
1F
100
AcDbEntity
  8
外形線
100
AcDbLine
 10
-51.96270479977378
 20
-55.41361790932248
 30
0.0
 11
-61.60804662021988
 21
-45.76827608887636
 31
0.0
  0
LINE
  5
580
330
1F
100
AcDbEntity
  8
外形線
100
AcDbLine
 10
-51.81550143834249
 20
-58.66325231943988
 30
0.0
 11
-53.84315790479353
 21
-57.29407101434239
 31
0.0
  0
LINE
  5
581
330
1F
100
AcDbEntity
  8
外形線
100
AcDbLine
 10
-51.81550143834249
 20
-58.66325231943966
 30
0.0
 11
-51.20451246650937
 21
-58.05226334760664
 31
0.0
  0
LINE
  5
582
330
1F
100
AcDbEntity
  8
外形線
100
AcDbLine
 10
-73.28104490711709
 20
-34.75375296333282
 30
0.0
 11
-61.93728420089664
 21
-46.09751366955328
 31
0.0
  0
LINE
  5
583
330
1F
100
AcDbEntity
  8
外形線
100
AcDbLine
 10
-51.2933497139625
 20
-54.74426282351142
 30
0.0
 11
-51.96270479977363
 21
-55.41361790932248
 31
0.0
  0
LINE
  5
584
330
1F
100
AcDbEntity
  8
外形線
100
AcDbLine
 10
-50.59352349467619
 20
-57.44127437577366
 30
0.0
 11
-61.93728420089664
 21
-46.09751366955328
 31
0.0
  0
LINE
  5
585
330
1F
100
AcDbEntity
  8
外形線
100
AcDbLine
 10
-73.2810449071173
 20
-34.753752963333
 30
0.0
 11
-71.25338844066618
 21
-36.12293426843034
 31
0.0
  0
LINE
  5
586
330
1F
100
AcDbEntity
  8
外形線
100
AcDbLine
 10
-73.74483051751889
 20
-38.61437634528298
 30
0.0
 11
-73.13384154568598
 21
-38.00338737345004
 31
0.0
  0
LINE
  5
587
330
1F
100
AcDbEntity
  8
外形線
100
AcDbLine
 10
-74.39710577402468
 20
-39.22413973953316
 30
0.0
 11
-74.37172939216576
 21
-39.24127521992982
 31
0.0
  0
LINE
  5
588
330
1F
100
AcDbEntity
  8
外形線
100
AcDbLine
 10
-53.71186444617585
 20
-60.55961532727316
 30
0.0
 11
-65.05562515239623
 21
-49.21585462105277
 31
0.0
  0
LINE
  5
589
330
1F
100
AcDbEntity
  8
外形線
100
AcDbLine
 10
-54.45414687662648
 20
-57.90505998617529
 30
0.0
 11
-55.08104575127319
 21
-58.53195886082211
 31
0.0
  0
LINE
  5
58A
330
1F
100
AcDbEntity
  8
外形線
100
AcDbLine
 10
-73.93732071949537
 20
-40.33415905395357
 30
0.0
 11
-65.05562515239623
 21
-49.21585462105277
 31
0.0
  0
LINE
  5
58B
330
1F
100
AcDbEntity
  8
外形線
100
AcDbLine
 10
-54.93384238984202
 20
-61.78159327093928
 30
0.0
 11
-54.32285341800891
 21
-61.17060429910619
 31
0.0
  0
LINE
  5
58C
330
1F
100
AcDbEntity
  8
外形線
100
AcDbLine
 10
-54.93384238984202
 20
-61.78159327093935
 30
0.0
 11
-56.9614988562931
 21
-60.41241196584199
 31
0.0
  0
LINE
  5
58D
330
1F
100
AcDbEntity
  8
外形線
100
AcDbLine
 10
-55.08104575127319
 20
-58.53195886082217
 30
0.0
 11
-64.7263875717193
 21
-48.88661704037602
 31
0.0
  0
LINE
  5
58E
330
1F
100
AcDbEntity
  8
外形線
100
AcDbLine
 10
-71.74357068680605
 20
-45.6303401353288
 30
0.0
 11
-66.60684067673925
 21
-50.76707014539575
 31
0.0
  0
LINE
  5
58F
330
1F
100
AcDbEntity
  8
外形線
100
AcDbLine
 10
-56.9614988562931
 20
-60.4124119658419
 30
0.0
 11
-66.60684067673925
 21
-50.76707014539575
 31
0.0
  0
LINE
  5
590
330
1F
100
AcDbEntity
  8
外形線
100
AcDbLine
 10
-73.74483051751889
 20
-38.61437634528298
 30
0.0
 11
-74.37172939216566
 21
-39.24127521992975
 31
0.0
  0
LINE
  5
591
330
1F
100
AcDbEntity
  8
外形線
100
AcDbLine
 10
-72.20918293864212
 20
-44.50625272213907
 30
0.0
 11
-66.27760309606239
 21
-50.43783256471886
 31
0.0
  0
LINE
  5
592
330
1F
100
AcDbEntity
  8
外形線
100
AcDbLine
 10
-57.57248782812609
 20
-61.02340093767489
 30
0.0
 11
-56.9614988562931
 21
-60.4124119658419
 31
0.0
  0
LINE
  5
593
330
1F
100
AcDbEntity
  8
外形線
100
AcDbLine
 10
-74.37172939216559
 20
-39.24127521992975
 30
0.0
 11
-64.7263875717193
 21
-48.88661704037602
 31
0.0
  0
LINE
  5
594
330
1F
100
AcDbEntity
  8
外形線
100
AcDbLine
 10
-53.71186444617585
 20
-60.55961532727309
 30
0.0
 11
-55.08104575127319
 21
-58.53195886082199
 31
0.0
  0
LINE
  5
595
330
1F
100
AcDbEntity
  8
外形線
100
AcDbLine
 10
-53.71186444617595
 20
-60.55961532727316
 30
0.0
 11
-54.32285341800891
 21
-61.17060429910619
 31
0.0
  0
LINE
  5
596
330
1F
100
AcDbEntity
  8
外形線
100
AcDbLine
 10
-54.93384238984195
 20
-61.78159327093928
 30
0.0
 11
-66.27760309606239
 21
-50.43783256471886
 31
0.0
  0
LINE
  5
597
330
1F
100
AcDbEntity
  8
外形線
100
AcDbLine
 10
-37.10033891660788
 20
-18.78774947086543
 30
0.0
 11
-37.10033891660788
 21
-19.65181836129216
 31
0.0
  0
LINE
  5
598
330
1F
100
AcDbEntity
  8
外形線
100
AcDbLine
 10
-58.05218334134149
 20
-64.89993422243879
 30
0.0
 11
-67.79918287292798
 21
-55.15293469085229
 31
0.0
  0
LINE
  5
599
330
1F
100
AcDbEntity
  8
外形線
100
AcDbLine
 10
-56.8302053976755
 20
-63.67795627877278
 30
0.0
 11
-57.44119436950857
 21
-64.28894525060579
 31
0.0
  0
LINE
  5
59A
330
1F
100
AcDbEntity
  8
外形線
100
AcDbLine
 10
-56.8302053976755
 20
-63.67795627877271
 30
0.0
 11
-58.19938670277289
 21
-61.6502998123216
 31
0.0
  0
LINE
  5
59B
330
1F
100
AcDbEntity
  8
外形線
100
AcDbLine
 10
-60.69082877962557
 20
-64.14174188917448
 30
0.0
 11
-60.07983980779269
 21
-63.53075291734151
 31
0.0
  0
LINE
  5
59C
330
1F
100
AcDbEntity
  8
外形線
100
AcDbLine
 10
-60.07983980779269
 20
-63.53075291734135
 30
0.0
 11
-67.33357062109195
 21
-56.2770221040421
 31
0.0
  0
LINE
  5
59D
330
1F
100
AcDbEntity
  8
外形線
100
AcDbLine
 10
-58.19938670277277
 20
-61.65029981232169
 30
0.0
 11
-69.99293290561737
 21
-49.85675360947714
 31
0.0
  0
LINE
  5
59E
330
1F
100
AcDbEntity
  8
外形線
100
AcDbLine
 10
-58.05218334134159
 20
-64.89993422243895
 30
0.0
 11
-60.07983980779269
 21
-63.53075291734159
 31
0.0
  0
LINE
  5
59F
330
1F
100
AcDbEntity
  8
外形線
100
AcDbLine
 10
-58.05218334134159
 20
-64.89993422243886
 30
0.0
 11
-57.44119436950857
 21
-64.28894525060579
 31
0.0
  0
LINE
  5
5A0
330
1F
100
AcDbEntity
  8
外形線
100
AcDbLine
 10
-57.57248782812609
 20
-61.02340093767489
 30
0.0
 11
-58.19938670277289
 21
-61.65029981232169
 31
0.0
  0
LINE
  5
5A1
330
1F
100
AcDbEntity
  8
外形線
100
AcDbLine
 10
-56.83020539767539
 20
-63.67795627877278
 30
0.0
 11
-69.52732065378126
 21
-50.98084102266695
 31
0.0
  0
LINE
  5
5A2
330
1F
100
AcDbEntity
  8
外形線
100
AcDbLine
 10
-59.94854634917505
 20
-66.79629723027239
 30
0.0
 11
-65.11732058806709
 21
-61.62752299138017
 31
0.0
  0
LINE
  5
5A3
330
1F
100
AcDbEntity
  8
外形線
100
AcDbLine
 10
-60.69082877962557
 20
-64.14174188917448
 30
0.0
 11
-61.31772765427236
 21
-64.76864076382128
 31
0.0
  0
LINE
  5
5A4
330
1F
100
AcDbEntity
  8
外形線
100
AcDbLine
 10
-61.17052429284118
 20
-68.01827517393846
 30
0.0
 11
-60.55953532100811
 21
-67.40728620210536
 31
0.0
  0
LINE
  5
5A5
330
1F
100
AcDbEntity
  8
外形線
100
AcDbLine
 10
-61.17052429284118
 20
-68.01827517393846
 30
0.0
 11
-62.97485338521636
 21
-66.79989636944235
 31
0.0
  0
LINE
  5
5A6
330
1F
100
AcDbEntity
  8
外形線
100
AcDbLine
 10
-61.31772765427236
 20
-64.76864076382128
 30
0.0
 11
-65.5829328399032
 21
-60.50343557819049
 31
0.0
  0
LINE
  5
5A7
330
1F
100
AcDbEntity
  8
外形線
100
AcDbLine
 10
-59.9485463491751
 20
-66.79629723027229
 30
0.0
 11
-61.31772765427239
 21
-64.7686407638212
 31
0.0
  0
LINE
  5
5A8
330
1F
100
AcDbEntity
  8
外形線
100
AcDbLine
 10
-59.9485463491751
 20
-66.79629723027239
 30
0.0
 11
-60.55953532100811
 21
-67.40728620210536
 31
0.0
  0
LINE
  5
5A9
330
1F
100
AcDbEntity
  8
外形線
100
AcDbLine
 10
-61.17052429284118
 20
-68.01827517393838
 30
0.0
 11
-63.38918280721393
 21
-65.79961665956552
 31
0.0
  0
LINE
  5
5AA
330
1F
100
AcDbEntity
  8
外形線
100
AcDbLine
 10
-65.19986273803801
 20
-68.93727362086615
 30
0.0
 11
-65.19986273803801
 21
-61.42824861345342
 31
0.0
  0
LINE
  5
5AB
330
1F
100
AcDbEntity
  8
外形線
100
AcDbLine
 10
-63.47172495718464
 20
-68.93727362086615
 30
0.0
 11
-64.33579384761131
 21
-68.93727362086615
 31
0.0
  0
LINE
  5
5AC
330
1F
100
AcDbEntity
  8
外形線
100
AcDbLine
 10
-63.47172495718453
 20
-68.93727362086625
 30
0.0
 11
-63.0310812379762
 21
-66.66415032472642
 31
0.0
  0
LINE
  5
5AD
330
1F
100
AcDbEntity
  8
外形線
100
AcDbLine
 10
-66.52954388030079
 20
-66.53534659801358
 30
0.0
 11
-65.66547498987421
 21
-66.53534659801358
 31
0.0
  0
LINE
  5
5AE
330
1F
100
AcDbEntity
  8
外形線
100
AcDbLine
 10
-65.66547498987401
 20
-66.53534659801358
 30
0.0
 11
-65.66547498987401
 21
-60.30416120026361
 31
0.0
  0
LINE
  5
5AF
330
1F
100
AcDbEntity
  8
外形線
100
AcDbLine
 10
-65.19986273803801
 20
-68.93727362086615
 30
0.0
 11
-65.66547498987415
 21
-66.53534659801369
 31
0.0
  0
LINE
  5
5B0
330
1F
100
AcDbEntity
  8
外形線
100
AcDbLine
 10
-65.19986273803801
 20
-68.93727362086615
 30
0.0
 11
-64.33579384761131
 21
-68.93727362086615
 31
0.0
  0
LINE
  5
5B1
330
1F
100
AcDbEntity
  8
外形線
100
AcDbLine
 10
-63.47172495718464
 20
-68.93727362086615
 30
0.0
 11
-63.47172495718464
 21
-65.60034228163877
 31
0.0
  0
LINE
  5
5B2
330
1F
100
AcDbEntity
  8
外形線
100
AcDbLine
 10
-67.88172502289871
 20
-68.93727362086615
 30
0.0
 11
-67.88172502289871
 21
-54.95366031292554
 31
0.0
  0
LINE
  5
5B3
330
1F
100
AcDbEntity
  8
外形線
100
AcDbLine
 10
-66.52954388030079
 20
-66.53534659801358
 30
0.0
 11
-67.41611277106276
 21
-66.53534659801358
 31
0.0
  0
LINE
  5
5B4
330
1F
100
AcDbEntity
  8
外形線
100
AcDbLine
 10
-69.60986280375206
 20
-68.93727362086615
 30
0.0
 11
-68.74579391332543
 21
-68.93727362086615
 31
0.0
  0
LINE
  5
5B5
330
1F
100
AcDbEntity
  8
外形線
100
AcDbLine
 10
-69.60986280375206
 20
-68.93727362086615
 30
0.0
 11
-70.07547505558824
 21
-66.53534659801369
 31
0.0
  0
LINE
  5
5B6
330
1F
100
AcDbEntity
  8
外形線
100
AcDbLine
 10
-67.4161127710627
 20
-66.53534659801358
 30
0.0
 11
-67.4161127710627
 21
-56.07774772611531
 31
0.0
  0
LINE
  5
5B7
330
1F
100
AcDbEntity
  8
外形線
100
AcDbLine
 10
-70.07547505558807
 20
-49.65747923155038
 30
0.0
 11
-70.07547505558807
 21
-52.89477338181429
 31
0.0
  0
LINE
  5
5B8
330
1F
100
AcDbEntity
  8
外形線
100
AcDbLine
 10
-70.07547505558807
 20
-66.53534659801358
 30
0.0
 11
-70.07547505558807
 21
-52.89477338181429
 31
0.0
  0
LINE
  5
5B9
330
1F
100
AcDbEntity
  8
外形線
100
AcDbLine
 10
-69.60986280375206
 20
-50.78156664474015
 30
0.0
 11
-69.60986280375206
 21
-52.89477338181429
 31
0.0
  0
LINE
  5
5BA
330
1F
100
AcDbEntity
  8
外形線
100
AcDbLine
 10
-70.93954394601491
 20
-66.53534659801358
 30
0.0
 11
-70.07547505558832
 21
-66.53534659801358
 31
0.0
  0
LINE
  5
5BB
330
1F
100
AcDbEntity
  8
外形線
100
AcDbLine
 10
-67.88172502289871
 20
-68.93727362086615
 30
0.0
 11
-67.41611277106255
 21
-66.53534659801358
 31
0.0
  0
LINE
  5
5BC
330
1F
100
AcDbEntity
  8
外形線
100
AcDbLine
 10
-67.88172502289876
 20
-68.93727362086615
 30
0.0
 11
-68.74579391332543
 21
-68.93727362086615
 31
0.0
  0
LINE
  5
5BD
330
1F
100
AcDbEntity
  8
外形線
100
AcDbLine
 10
-69.60986280375206
 20
-68.93727362086615
 30
0.0
 11
-69.60986280375206
 21
-52.89477338181429
 31
0.0
  0
LINE
  5
5BE
330
1F
100
AcDbEntity
  8
外形線
100
AcDbLine
 10
-74.0198628694662
 20
-68.93727362086615
 30
0.0
 11
-74.0198628694662
 21
-52.89477338181429
 31
0.0
  0
LINE
  5
5BF
330
1F
100
AcDbEntity
  8
外形線
100
AcDbLine
 10
-72.29172508861293
 20
-68.93727362086615
 30
0.0
 11
-73.15579397903952
 21
-68.93727362086615
 31
0.0
  0
LINE
  5
5C0
330
1F
100
AcDbEntity
  8
外形線
100
AcDbLine
 10
-72.29172508861293
 20
-68.93727362086615
 30
0.0
 11
-71.82611283677667
 21
-66.53534659801358
 31
0.0
  0
LINE
  5
5C1
330
1F
100
AcDbEntity
  8
外形線
100
AcDbLine
 10
-71.82611283677676
 20
-45.43106575740206
 30
0.0
 11
-71.82611283677676
 21
-52.89477338181429
 31
0.0
  0
LINE
  5
5C2
330
1F
100
AcDbEntity
  8
外形線
100
AcDbLine
 10
-74.45333362678463
 20
-39.08839369481672
 30
0.0
 11
-74.48547512130236
 21
-39.25420016561485
 31
0.0
  0
LINE
  5
5C3
330
1F
100
AcDbEntity
  8
外形線
100
AcDbLine
 10
-75.34954401172901
 20
-66.53534659801358
 30
0.0
 11
-74.48547512130236
 21
-66.53534659801358
 31
0.0
  0
LINE
  5
5C4
330
1F
100
AcDbEntity
  8
外形線
100
AcDbLine
 10
-74.0198628694662
 20
-40.13488467602681
 30
0.0
 11
-74.0198628694662
 21
-52.89477338181429
 31
0.0
  0
LINE
  5
5C5
330
1F
100
AcDbEntity
  8
外形線
100
AcDbLine
 10
-74.4854751213023
 20
-66.53534659801358
 30
0.0
 11
-74.4854751213023
 21
-52.89477338181429
 31
0.0
  0
LINE
  5
5C6
330
1F
100
AcDbEntity
  8
外形線
100
AcDbLine
 10
-74.4854751213023
 20
-39.25420016561485
 30
0.0
 11
-74.4854751213023
 21
-52.89477338181429
 31
0.0
  0
LINE
  5
5C7
330
1F
100
AcDbEntity
  8
外形線
100
AcDbLine
 10
-71.82611283677676
 20
-66.53534659801358
 30
0.0
 11
-71.82611283677676
 21
-52.89477338181429
 31
0.0
  0
LINE
  5
5C8
330
1F
100
AcDbEntity
  8
外形線
100
AcDbLine
 10
-74.0198628694662
 20
-68.93727362086615
 30
0.0
 11
-74.4854751213023
 21
-66.53534659801369
 31
0.0
  0
LINE
  5
5C9
330
1F
100
AcDbEntity
  8
外形線
100
AcDbLine
 10
-74.0198628694662
 20
-68.93727362086615
 30
0.0
 11
-73.15579397903952
 21
-68.93727362086615
 31
0.0
  0
LINE
  5
5CA
330
1F
100
AcDbEntity
  8
外形線
100
AcDbLine
 10
-72.29172508861286
 20
-44.30697834421232
 30
0.0
 11
-72.29172508861286
 21
-52.89477338181429
 31
0.0
  0
LINE
  5
5CB
330
1F
100
AcDbEntity
  8
外形線
100
AcDbLine
 10
-70.93954394601491
 20
-66.53534659801358
 30
0.0
 11
-71.82611283677676
 21
-66.53534659801358
 31
0.0
  0
LINE
  5
5CC
330
1F
100
AcDbEntity
  8
外形線
100
AcDbLine
 10
-72.29172508861286
 20
-68.93727362086615
 30
0.0
 11
-72.29172508861286
 21
-52.89477338181429
 31
0.0
  0
LINE
  5
5CD
330
1F
100
AcDbEntity
  8
外形線
100
AcDbLine
 10
-75.34954401172901
 20
-39.25420016561485
 30
0.0
 11
-74.48547512130236
 21
-39.25420016561485
 31
0.0
  0
LINE
  5
5CE
330
1F
100
AcDbEntity
  8
外形線
100
AcDbLine
 10
-79.7595440774431
 20
-39.25420016561485
 30
0.0
 11
-78.89547518701653
 21
-39.25420016561485
 31
0.0
  0
LINE
  5
5CF
330
1F
100
AcDbEntity
  8
外形線
100
AcDbLine
 10
-76.70172515432693
 20
-36.85227314276239
 30
0.0
 11
-76.2361129024909
 21
-39.25420016561496
 31
0.0
  0
LINE
  5
5D0
330
1F
100
AcDbEntity
  8
外形線
100
AcDbLine
 10
-76.70172515432693
 20
-68.93727362086615
 30
0.0
 11
-76.70172515432693
 21
-52.89477338181429
 31
0.0
  0
LINE
  5
5D1
330
1F
100
AcDbEntity
  8
外形線
100
AcDbLine
 10
-75.34954401172901
 20
-66.53534659801358
 30
0.0
 11
-76.2361129024909
 21
-66.53534659801358
 31
0.0
  0
LINE
  5
5D2
330
1F
100
AcDbEntity
  8
外形線
100
AcDbLine
 10
-76.70172515432693
 20
-36.8522731427623
 30
0.0
 11
-76.70172515432693
 21
-52.89477338181429
 31
0.0
  0
LINE
  5
5D3
330
1F
100
AcDbEntity
  8
外形線
100
AcDbLine
 10
-78.42986293518045
 20
-68.93727362086615
 30
0.0
 11
-77.56579404475369
 21
-68.93727362086615
 31
0.0
  0
LINE
  5
5D4
330
1F
100
AcDbEntity
  8
外形線
100
AcDbLine
 10
-78.42986293518034
 20
-68.93727362086615
 30
0.0
 11
-78.89547518701647
 21
-66.53534659801369
 31
0.0
  0
LINE
  5
5D5
330
1F
100
AcDbEntity
  8
外形線
100
AcDbLine
 10
-76.2361129024909
 20
-66.53534659801358
 30
0.0
 11
-76.2361129024909
 21
-52.89477338181429
 31
0.0
  0
LINE
  5
5D6
330
1F
100
AcDbEntity
  8
外形線
100
AcDbLine
 10
-78.42986293518045
 20
-36.85227314276239
 30
0.0
 11
-77.56579404475369
 21
-36.85227314276239
 31
0.0
  0
LINE
  5
5D7
330
1F
100
AcDbEntity
  8
外形線
100
AcDbLine
 10
-78.89547518701647
 20
-39.25420016561485
 30
0.0
 11
-78.89547518701647
 21
-52.89477338181429
 31
0.0
  0
LINE
  5
5D8
330
1F
100
AcDbEntity
  8
外形線
100
AcDbLine
 10
-78.89547518701647
 20
-66.53534659801358
 30
0.0
 11
-78.89547518701647
 21
-52.89477338181429
 31
0.0
  0
LINE
  5
5D9
330
1F
100
AcDbEntity
  8
外形線
100
AcDbLine
 10
-75.34954401172901
 20
-39.25420016561485
 30
0.0
 11
-76.2361129024909
 21
-39.25420016561485
 31
0.0
  0
LINE
  5
5DA
330
1F
100
AcDbEntity
  8
外形線
100
AcDbLine
 10
-78.42986293518034
 20
-36.8522731427623
 30
0.0
 11
-78.42986293518034
 21
-52.89477338181429
 31
0.0
  0
LINE
  5
5DB
330
1F
100
AcDbEntity
  8
外形線
100
AcDbLine
 10
-79.7595440774431
 20
-66.53534659801358
 30
0.0
 11
-78.89547518701653
 21
-66.53534659801358
 31
0.0
  0
LINE
  5
5DC
330
1F
100
AcDbEntity
  8
外形線
100
AcDbLine
 10
-78.42986293518034
 20
-36.8522731427623
 30
0.0
 11
-78.89547518701653
 21
-39.25420016561475
 31
0.0
  0
LINE
  5
5DD
330
1F
100
AcDbEntity
  8
外形線
100
AcDbLine
 10
-76.2361129024909
 20
-39.25420016561485
 30
0.0
 11
-76.2361129024909
 21
-52.89477338181429
 31
0.0
  0
LINE
  5
5DE
330
1F
100
AcDbEntity
  8
外形線
100
AcDbLine
 10
-76.70172515432693
 20
-68.93727362086604
 30
0.0
 11
-76.2361129024909
 21
-66.53534659801358
 31
0.0
  0
LINE
  5
5DF
330
1F
100
AcDbEntity
  8
外形線
100
AcDbLine
 10
-76.70172515432709
 20
-68.93727362086615
 30
0.0
 11
-77.56579404475369
 21
-68.93727362086615
 31
0.0
  0
LINE
  5
5E0
330
1F
100
AcDbEntity
  8
外形線
100
AcDbLine
 10
-78.42986293518034
 20
-68.93727362086615
 30
0.0
 11
-78.42986293518034
 21
-52.89477338181429
 31
0.0
  0
LINE
  5
5E1
330
1F
100
AcDbEntity
  8
外形線
100
AcDbLine
 10
-76.70172515432709
 20
-36.85227314276239
 30
0.0
 11
-77.56579404475369
 21
-36.85227314276239
 31
0.0
  0
LINE
  5
5E2
330
1F
100
AcDbEntity
  8
外形線
100
AcDbLine
 10
-81.11172522004123
 20
-36.85227314276239
 30
0.0
 11
-81.97579411046787
 21
-36.85227314276239
 31
0.0
  0
LINE
  5
5E3
330
1F
100
AcDbEntity
  8
外形線
100
AcDbLine
 10
-82.83986300089436
 20
-68.93727362086615
 30
0.0
 11
-82.83986300089436
 21
-52.89477338181429
 31
0.0
  0
LINE
  5
5E4
330
1F
100
AcDbEntity
  8
外形線
100
AcDbLine
 10
-81.11172522004123
 20
-68.93727362086615
 30
0.0
 11
-81.97579411046787
 21
-68.93727362086615
 31
0.0
  0
LINE
  5
5E5
330
1F
100
AcDbEntity
  8
外形線
100
AcDbLine
 10
-81.11172522004109
 20
-68.93727362086615
 30
0.0
 11
-80.64611296820507
 21
-66.53534659801358
 31
0.0
  0
LINE
  5
5E6
330
1F
100
AcDbEntity
  8
外形線
100
AcDbLine
 10
-80.64611296820507
 20
-39.25420016561485
 30
0.0
 11
-80.64611296820507
 21
-52.89477338181429
 31
0.0
  0
LINE
  5
5E7
330
1F
100
AcDbEntity
  8
外形線
100
AcDbLine
 10
-82.83986300089452
 20
-36.8522731427623
 30
0.0
 11
-83.30547525273066
 21
-39.25420016561475
 31
0.0
  0
LINE
  5
5E8
330
1F
100
AcDbEntity
  8
外形線
100
AcDbLine
 10
-84.16954414315723
 20
-66.53534659801358
 30
0.0
 11
-83.30547525273066
 21
-66.53534659801358
 31
0.0
  0
LINE
  5
5E9
330
1F
100
AcDbEntity
  8
外形線
100
AcDbLine
 10
-82.83986300089436
 20
-36.8522731427623
 30
0.0
 11
-82.83986300089436
 21
-52.89477338181429
 31
0.0
  0
LINE
  5
5EA
330
1F
100
AcDbEntity
  8
外形線
100
AcDbLine
 10
-79.7595440774431
 20
-39.25420016561485
 30
0.0
 11
-80.64611296820507
 21
-39.25420016561485
 31
0.0
  0
LINE
  5
5EB
330
1F
100
AcDbEntity
  8
外形線
100
AcDbLine
 10
-83.30547525273056
 20
-66.53534659801358
 30
0.0
 11
-83.30547525273056
 21
-52.89477338181429
 31
0.0
  0
LINE
  5
5EC
330
1F
100
AcDbEntity
  8
外形線
100
AcDbLine
 10
-83.30547525273056
 20
-39.25420016561485
 30
0.0
 11
-83.30547525273056
 21
-52.89477338181429
 31
0.0
  0
LINE
  5
5ED
330
1F
100
AcDbEntity
  8
外形線
100
AcDbLine
 10
-82.8398630008945
 20
-36.85227314276239
 30
0.0
 11
-81.97579411046787
 21
-36.85227314276239
 31
0.0
  0
LINE
  5
5EE
330
1F
100
AcDbEntity
  8
外形線
100
AcDbLine
 10
-80.64611296820507
 20
-66.53534659801358
 30
0.0
 11
-80.64611296820507
 21
-52.89477338181429
 31
0.0
  0
LINE
  5
5EF
330
1F
100
AcDbEntity
  8
外形線
100
AcDbLine
 10
-82.83986300089436
 20
-68.93727362086615
 30
0.0
 11
-83.30547525273056
 21
-66.53534659801369
 31
0.0
  0
LINE
  5
5F0
330
1F
100
AcDbEntity
  8
外形線
100
AcDbLine
 10
-82.8398630008945
 20
-68.93727362086615
 30
0.0
 11
-81.97579411046787
 21
-68.93727362086615
 31
0.0
  0
LINE
  5
5F1
330
1F
100
AcDbEntity
  8
外形線
100
AcDbLine
 10
-81.11172522004109
 20
-36.8522731427623
 30
0.0
 11
-81.11172522004109
 21
-52.89477338181429
 31
0.0
  0
LINE
  5
5F2
330
1F
100
AcDbEntity
  8
外形線
100
AcDbLine
 10
-79.7595440774431
 20
-66.53534659801358
 30
0.0
 11
-80.64611296820507
 21
-66.53534659801358
 31
0.0
  0
LINE
  5
5F3
330
1F
100
AcDbEntity
  8
外形線
100
AcDbLine
 10
-81.11172522004109
 20
-68.93727362086615
 30
0.0
 11
-81.11172522004109
 21
-52.89477338181429
 31
0.0
  0
LINE
  5
5F4
330
1F
100
AcDbEntity
  8
外形線
100
AcDbLine
 10
-81.11172522004123
 20
-36.85227314276239
 30
0.0
 11
-80.64611296820507
 21
-39.25420016561485
 31
0.0
  0
LINE
  5
5F5
330
1F
100
AcDbEntity
  8
外形線
100
AcDbLine
 10
-84.16954414315728
 20
-39.25420016561485
 30
0.0
 11
-83.30547525273066
 21
-39.25420016561485
 31
0.0
  0
LINE
  5
5F6
330
1F
100
AcDbEntity
  8
外形線
100
AcDbLine
 10
-88.57954420887145
 20
-39.25420016561485
 30
0.0
 11
-87.71547531844481
 21
-39.25420016561485
 31
0.0
  0
LINE
  5
5F7
330
1F
100
AcDbEntity
  8
外形線
100
AcDbLine
 10
-85.52172528575516
 20
-36.85227314276239
 30
0.0
 11
-85.05611303391919
 21
-39.25420016561485
 31
0.0
  0
LINE
  5
5F8
330
1F
100
AcDbEntity
  8
外形線
100
AcDbLine
 10
-92.98954427458557
 20
-39.25420016561485
 30
0.0
 11
-92.1254753841589
 21
-39.25420016561485
 31
0.0
  0
LINE
  5
5F9
330
1F
100
AcDbEntity
  8
外形線
100
AcDbLine
 10
-91.65986313232272
 20
-36.8522731427623
 30
0.0
 11
-91.65986313232272
 21
-52.89477338181429
 31
0.0
  0
LINE
  5
5FA
330
1F
100
AcDbEntity
  8
外形線
100
AcDbLine
 10
-91.65986313232277
 20
-68.93727362086625
 30
0.0
 11
-92.12547538415881
 21
-66.53534659801369
 31
0.0
  0
LINE
  5
5FB
330
1F
100
AcDbEntity
  8
外形線
100
AcDbLine
 10
-89.93172535146937
 20
-68.93727362086604
 30
0.0
 11
-89.46611309963321
 21
-66.53534659801358
 31
0.0
  0
LINE
  5
5FC
330
1F
100
AcDbEntity
  8
外形線
100
AcDbLine
 10
-91.65986313232277
 20
-36.85227314276239
 30
0.0
 11
-90.79579424189596
 21
-36.85227314276239
 31
0.0
  0
LINE
  5
5FD
330
1F
100
AcDbEntity
  8
外形線
100
AcDbLine
 10
-85.52172528575516
 20
-68.93727362086615
 30
0.0
 11
-85.52172528575516
 21
-52.89477338181429
 31
0.0
  0
LINE
  5
5FE
330
1F
100
AcDbEntity
  8
外形線
100
AcDbLine
 10
-92.12547538415881
 20
-66.53534659801358
 30
0.0
 11
-92.12547538415881
 21
-52.89477338181429
 31
0.0
  0
LINE
  5
5FF
330
1F
100
AcDbEntity
  8
外形線
100
AcDbLine
 10
-89.46611309963321
 20
-66.53534659801358
 30
0.0
 11
-89.46611309963321
 21
-52.89477338181429
 31
0.0
  0
LINE
  5
600
330
1F
100
AcDbEntity
  8
外形線
100
AcDbLine
 10
-88.57954420887145
 20
-66.53534659801358
 30
0.0
 11
-89.46611309963333
 21
-66.53534659801358
 31
0.0
  0
LINE
  5
601
330
1F
100
AcDbEntity
  8
外形線
100
AcDbLine
 10
-89.93172535146944
 20
-68.93727362086615
 30
0.0
 11
-90.79579424189596
 21
-68.93727362086615
 31
0.0
  0
LINE
  5
602
330
1F
100
AcDbEntity
  8
外形線
100
AcDbLine
 10
-84.16954414315728
 20
-66.53534659801358
 30
0.0
 11
-85.05611303391919
 21
-66.53534659801358
 31
0.0
  0
LINE
  5
603
330
1F
100
AcDbEntity
  8
外形線
100
AcDbLine
 10
-91.65986313232272
 20
-68.93727362086615
 30
0.0
 11
-91.65986313232272
 21
-52.89477338181429
 31
0.0
  0
LINE
  5
604
330
1F
100
AcDbEntity
  8
外形線
100
AcDbLine
 10
-92.98954427458539
 20
-66.53534659801358
 30
0.0
 11
-92.1254753841589
 21
-66.53534659801358
 31
0.0
  0
LINE
  5
605
330
1F
100
AcDbEntity
  8
外形線
100
AcDbLine
 10
-91.65986313232277
 20
-36.8522731427623
 30
0.0
 11
-92.1254753841589
 21
-39.25420016561475
 31
0.0
  0
LINE
  5
606
330
1F
100
AcDbEntity
  8
外形線
100
AcDbLine
 10
-88.57954420887145
 20
-39.25420016561485
 30
0.0
 11
-89.46611309963333
 21
-39.25420016561485
 31
0.0
  0
LINE
  5
607
330
1F
100
AcDbEntity
  8
外形線
100
AcDbLine
 10
-89.93172535146937
 20
-36.8522731427623
 30
0.0
 11
-89.93172535146937
 21
-52.89477338181429
 31
0.0
  0
LINE
  5
608
330
1F
100
AcDbEntity
  8
外形線
100
AcDbLine
 10
-89.46611309963321
 20
-39.25420016561485
 30
0.0
 11
-89.46611309963321
 21
-52.89477338181429
 31
0.0
  0
LINE
  5
609
330
1F
100
AcDbEntity
  8
外形線
100
AcDbLine
 10
-92.12547538415881
 20
-39.25420016561485
 30
0.0
 11
-92.12547538415881
 21
-52.89477338181429
 31
0.0
  0
LINE
  5
60A
330
1F
100
AcDbEntity
  8
外形線
100
AcDbLine
 10
-89.93172535146944
 20
-36.85227314276239
 30
0.0
 11
-90.79579424189596
 21
-36.85227314276239
 31
0.0
  0
LINE
  5
60B
330
1F
100
AcDbEntity
  8
外形線
100
AcDbLine
 10
-89.93172535146937
 20
-68.93727362086615
 30
0.0
 11
-89.93172535146937
 21
-52.89477338181429
 31
0.0
  0
LINE
  5
60C
330
1F
100
AcDbEntity
  8
外形線
100
AcDbLine
 10
-91.65986313232277
 20
-68.93727362086615
 30
0.0
 11
-90.79579424189596
 21
-68.93727362086615
 31
0.0
  0
LINE
  5
60D
330
1F
100
AcDbEntity
  8
外形線
100
AcDbLine
 10
-89.93172535146944
 20
-36.85227314276239
 30
0.0
 11
-89.46611309963321
 21
-39.25420016561485
 31
0.0
  0
LINE
  5
60E
330
1F
100
AcDbEntity
  8
外形線
100
AcDbLine
 10
-85.52172528575516
 20
-36.8522731427623
 30
0.0
 11
-85.52172528575516
 21
-52.89477338181429
 31
0.0
  0
LINE
  5
60F
330
1F
100
AcDbEntity
  8
外形線
100
AcDbLine
 10
-87.2498630666085
 20
-68.93727362086615
 30
0.0
 11
-87.71547531844481
 21
-66.53534659801369
 31
0.0
  0
LINE
  5
610
330
1F
100
AcDbEntity
  8
外形線
100
AcDbLine
 10
-85.05611303391919
 20
-66.53534659801358
 30
0.0
 11
-85.05611303391919
 21
-52.89477338181429
 31
0.0
  0
LINE
  5
611
330
1F
100
AcDbEntity
  8
外形線
100
AcDbLine
 10
-87.24986306660865
 20
-36.85227314276239
 30
0.0
 11
-86.38579417618194
 21
-36.85227314276239
 31
0.0
  0
LINE
  5
612
330
1F
100
AcDbEntity
  8
外形線
100
AcDbLine
 10
-87.7154753184446
 20
-39.25420016561485
 30
0.0
 11
-87.7154753184446
 21
-52.89477338181429
 31
0.0
  0
LINE
  5
613
330
1F
100
AcDbEntity
  8
外形線
100
AcDbLine
 10
-87.7154753184446
 20
-66.53534659801358
 30
0.0
 11
-87.7154753184446
 21
-52.89477338181429
 31
0.0
  0
LINE
  5
614
330
1F
100
AcDbEntity
  8
外形線
100
AcDbLine
 10
-84.16954414315728
 20
-39.25420016561485
 30
0.0
 11
-85.05611303391919
 21
-39.25420016561485
 31
0.0
  0
LINE
  5
615
330
1F
100
AcDbEntity
  8
外形線
100
AcDbLine
 10
-87.2498630666085
 20
-36.8522731427623
 30
0.0
 11
-87.2498630666085
 21
-52.89477338181429
 31
0.0
  0
LINE
  5
616
330
1F
100
AcDbEntity
  8
外形線
100
AcDbLine
 10
-88.57954420887137
 20
-66.53534659801358
 30
0.0
 11
-87.71547531844481
 21
-66.53534659801358
 31
0.0
  0
LINE
  5
617
330
1F
100
AcDbEntity
  8
外形線
100
AcDbLine
 10
-87.24986306660865
 20
-36.8522731427623
 30
0.0
 11
-87.71547531844481
 21
-39.25420016561485
 31
0.0
  0
LINE
  5
618
330
1F
100
AcDbEntity
  8
外形線
100
AcDbLine
 10
-85.05611303391919
 20
-39.25420016561485
 30
0.0
 11
-85.05611303391919
 21
-52.89477338181429
 31
0.0
  0
LINE
  5
619
330
1F
100
AcDbEntity
  8
外形線
100
AcDbLine
 10
-85.52172528575516
 20
-68.93727362086615
 30
0.0
 11
-85.05611303391919
 21
-66.53534659801349
 31
0.0
  0
LINE
  5
61A
330
1F
100
AcDbEntity
  8
外形線
100
AcDbLine
 10
-85.52172528575528
 20
-68.93727362086615
 30
0.0
 11
-86.38579417618194
 21
-68.93727362086615
 31
0.0
  0
LINE
  5
61B
330
1F
100
AcDbEntity
  8
外形線
100
AcDbLine
 10
-87.2498630666085
 20
-68.93727362086615
 30
0.0
 11
-87.2498630666085
 21
-52.89477338181429
 31
0.0
  0
LINE
  5
61C
330
1F
100
AcDbEntity
  8
外形線
100
AcDbLine
 10
-85.52172528575528
 20
-36.85227314276239
 30
0.0
 11
-86.38579417618194
 21
-36.85227314276239
 31
0.0
  0
LINE
  5
61D
330
1F
100
AcDbEntity
  8
中心線
100
AcDbLine
 10
-68.73454391315789
 20
-52.89477338181409
 30
0.0
 11
-96.36632543221345
 21
-52.89477338181409
 31
0.0
  0
LINE
  5
61E
330
1F
100
AcDbEntity
  8
外形線
100
AcDbLine
 10
-38.01933736353567
 20
-44.86708824463303
 30
0.0
 11
-39.23771616803168
 21
-43.06275915225785
 31
0.0
  0
LINE
  5
61F
330
1F
100
AcDbEntity
  8
外形線
100
AcDbLine
 10
-38.01933736353556
 20
-44.86708824463286
 30
0.0
 11
-38.63032633536864
 21
-45.47807721646593
 31
0.0
  0
LINE
  5
620
330
1F
100
AcDbEntity
  8
外形線
100
AcDbLine
 10
-41.89587064829947
 20
-45.34678375784824
 30
0.0
 11
-41.26897177365267
 21
-44.71988488320156
 31
0.0
  0
LINE
  5
621
330
1F
100
AcDbEntity
  8
外形線
100
AcDbLine
 10
-39.24131530720163
 20
-46.08906618829903
 30
0.0
 11
-44.41008954609379
 21
-40.92029194940681
 31
0.0
  0
LINE
  5
622
330
1F
100
AcDbEntity
  8
外形線
100
AcDbLine
 10
-42.35965625870115
 20
-49.20740713979864
 30
0.0
 11
-55.05677151480711
 21
-36.5102918836927
 31
0.0
  0
LINE
  5
623
330
1F
100
AcDbEntity
  8
外形線
100
AcDbLine
 10
-45.01421159979904
 20
-48.46512470934786
 30
0.0
 11
-44.38731272515227
 21
-47.83822583470111
 31
0.0
  0
LINE
  5
624
330
1F
100
AcDbEntity
  8
外形線
100
AcDbLine
 10
-41.13767831503515
 20
-47.98542919613244
 30
0.0
 11
-41.74866728686828
 21
-48.59641816796552
 31
0.0
  0
LINE
  5
625
330
1F
100
AcDbEntity
  8
外形線
100
AcDbLine
 10
-41.13767831503529
 20
-47.98542919613253
 30
0.0
 11
-42.50685962013267
 21
-45.95777272968144
 31
0.0
  0
LINE
  5
626
330
1F
100
AcDbEntity
  8
外形線
100
AcDbLine
 10
-44.38731272515235
 20
-47.83822583470113
 30
0.0
 11
-56.18085892799689
 21
-36.04467963185667
 31
0.0
  0
LINE
  5
627
330
1F
100
AcDbEntity
  8
外形線
100
AcDbLine
 10
-42.50685962013256
 20
-45.95777272968135
 30
0.0
 11
-49.7605904334319
 21
-38.70404191638215
 31
0.0
  0
LINE
  5
628
330
1F
100
AcDbEntity
  8
外形線
100
AcDbLine
 10
-41.89587064829947
 20
-45.34678375784824
 30
0.0
 11
-42.50685962013244
 21
-45.95777272968135
 31
0.0
  0
LINE
  5
629
330
1F
100
AcDbEntity
  8
外形線
100
AcDbLine
 10
-42.35965625870142
 20
-49.20740713979864
 30
0.0
 11
-44.38731272515251
 21
-47.83822583470122
 31
0.0
  0
LINE
  5
62A
330
1F
100
AcDbEntity
  8
外形線
100
AcDbLine
 10
-42.35965625870115
 20
-49.20740713979845
 30
0.0
 11
-41.74866728686828
 21
-48.59641816796552
 31
0.0
  0
LINE
  5
62B
330
1F
100
AcDbEntity
  8
外形線
100
AcDbLine
 10
-41.13767831503515
 20
-47.98542919613253
 30
0.0
 11
-50.88467784662174
 21
-38.23842966454606
 31
0.0
  0
LINE
  5
62C
330
1F
100
AcDbEntity
  8
外形線
100
AcDbLine
 10
-44.25601926653476
 20
-51.10377014763205
 30
0.0
 11
-55.59977997275516
 21
-39.76000944141162
 31
0.0
  0
LINE
  5
62D
330
1F
100
AcDbEntity
  8
外形線
100
AcDbLine
 10
-45.47799721020072
 20
-52.32574809129811
 30
0.0
 11
-44.86700823836776
 21
-51.71475911946514
 31
0.0
  0
LINE
  5
62E
330
1F
100
AcDbEntity
  8
外形線
100
AcDbLine
 10
-45.47799721020099
 20
-52.32574809129824
 30
0.0
 11
-47.50565367665214
 21
-50.95656678620084
 31
0.0
  0
LINE
  5
62F
330
1F
100
AcDbEntity
  8
外形線
100
AcDbLine
 10
-66.7963373175443
 20
-31.66588314530846
 30
0.0
 11
-57.15099549709798
 21
-41.3112249657547
 31
0.0
  0
LINE
  5
630
330
1F
100
AcDbEntity
  8
外形線
100
AcDbLine
 10
-45.01421159979904
 20
-48.46512470934786
 30
0.0
 11
-45.62520057163209
 21
-49.07611368118093
 31
0.0
  0
LINE
  5
631
330
1F
100
AcDbEntity
  8
外形線
100
AcDbLine
 10
-61.53135981533506
 20
-33.82842959883186
 30
0.0
 11
-55.59977997275516
 21
-39.76000944141162
 31
0.0
  0
LINE
  5
632
330
1F
100
AcDbEntity
  8
外形線
100
AcDbLine
 10
-67.42323619219106
 20
-32.29278201995516
 30
0.0
 11
-66.7963373175443
 21
-31.66588314530836
 31
0.0
  0
LINE
  5
633
330
1F
100
AcDbEntity
  8
外形線
100
AcDbLine
 10
-45.62520057163221
 20
-49.07611368118105
 30
0.0
 11
-55.27054239207839
 21
-39.4307718607349
 31
0.0
  0
LINE
  5
634
330
1F
100
AcDbEntity
  8
外形線
100
AcDbLine
 10
-60.40727240214522
 20
-34.29404185066798
 30
0.0
 11
-55.27054239207839
 21
-39.4307718607349
 31
0.0
  0
LINE
  5
635
330
1F
100
AcDbEntity
  8
外形線
100
AcDbLine
 10
-47.50565367665195
 20
-50.95656678620075
 30
0.0
 11
-57.15099549709798
 21
-41.3112249657547
 31
0.0
  0
LINE
  5
636
330
1F
100
AcDbEntity
  8
外形線
100
AcDbLine
 10
-44.25601926653484
 20
-51.10377014763215
 30
0.0
 11
-45.62520057163221
 21
-49.07611368118105
 31
0.0
  0
LINE
  5
637
330
1F
100
AcDbEntity
  8
外形線
100
AcDbLine
 10
-44.25601926653465
 20
-51.10377014763205
 30
0.0
 11
-44.86700823836776
 21
-51.71475911946514
 31
0.0
  0
LINE
  5
638
330
1F
100
AcDbEntity
  8
外形線
100
AcDbLine
 10
-65.70345348352034
 20
-32.10029181797859
 30
0.0
 11
-56.82175791642112
 21
-40.98198738507774
 31
0.0
  0
LINE
  5
639
330
1F
100
AcDbEntity
  8
外形線
100
AcDbLine
 10
-48.13255255129869
 20
-51.58346566084746
 30
0.0
 11
-47.50565367665187
 21
-50.95656678620064
 31
0.0
  0
LINE
  5
63A
330
1F
100
AcDbEntity
  8
外形線
100
AcDbLine
 10
-45.47799721020072
 20
-52.32574809129811
 30
0.0
 11
-56.82175791642112
 21
-40.98198738507774
 31
0.0
  0
LINE
  5
63B
330
1F
100
AcDbEntity
  8
外形線
100
AcDbLine
 10
-66.81347279794096
 20
-31.64050676344948
 30
0.0
 11
-66.7963373175443
 21
-31.66588314530836
 31
0.0
  0
LINE
  5
63C
330
1F
100
AcDbEntity
  8
外形線
100
AcDbLine
 10
-67.42323619219106
 20
-32.29278201995516
 30
0.0
 11
-68.03422516402401
 21
-32.90377099178818
 31
0.0
  0
LINE
  5
63D
330
1F
100
AcDbEntity
  8
外形線
100
AcDbLine
 10
-71.28385957414123
 20
-32.75656763035696
 30
0.0
 11
-69.91467826904377
 21
-34.78422409680806
 31
0.0
  0
LINE
  5
63E
330
1F
100
AcDbEntity
  8
外形線
100
AcDbLine
 10
-48.59633816170036
 20
-55.44408904279775
 30
0.0
 11
-59.94009886792077
 21
-44.10032833657735
 31
0.0
  0
LINE
  5
63F
330
1F
100
AcDbEntity
  8
外形線
100
AcDbLine
 10
-51.2933497139625
 20
-54.74426282351142
 30
0.0
 11
-50.62399462815147
 21
-54.07490773770025
 31
0.0
  0
LINE
  5
640
330
1F
100
AcDbEntity
  8
外形線
100
AcDbLine
 10
-71.28385957414123
 20
-32.75656763035686
 30
0.0
 11
-59.94009886792077
 21
-44.10032833657735
 31
0.0
  0
LINE
  5
641
330
1F
100
AcDbEntity
  8
外形線
100
AcDbLine
 10
-47.37436021803435
 20
-54.22211109913165
 30
0.0
 11
-47.98534918986733
 21
-54.83310007096474
 31
0.0
  0
LINE
  5
642
330
1F
100
AcDbEntity
  8
外形線
100
AcDbLine
 10
-47.37436021803444
 20
-54.2221110991317
 30
0.0
 11
-48.74354152313189
 21
-52.19445463268066
 31
0.0
  0
LINE
  5
643
330
1F
100
AcDbEntity
  8
外形線
100
AcDbLine
 10
-50.62399462815161
 20
-54.07490773770025
 30
0.0
 11
-60.26933644859767
 21
-44.42956591725418
 31
0.0
  0
LINE
  5
644
330
1F
100
AcDbEntity
  8
外形線
100
AcDbLine
 10
-70.06188163047522
 20
-31.53458968669085
 30
0.0
 11
-70.67287060230817
 21
-32.14557865852388
 31
0.0
  0
LINE
  5
645
330
1F
100
AcDbEntity
  8
外形線
100
AcDbLine
 10
-68.03422516402418
 20
-32.90377099178825
 30
0.0
 11
-58.38888334357796
 21
-42.54911281223439
 31
0.0
  0
LINE
  5
646
330
1F
100
AcDbEntity
  8
外形線
100
AcDbLine
 10
-48.74354152313171
 20
-52.19445463268056
 30
0.0
 11
-58.38888334357796
 21
-42.54911281223439
 31
0.0
  0
LINE
  5
647
330
1F
100
AcDbEntity
  8
外形線
100
AcDbLine
 10
-70.58403335485497
 20
-35.45357918261907
 30
0.0
 11
-69.91467826904377
 21
-34.78422409680786
 31
0.0
  0
LINE
  5
648
330
1F
100
AcDbEntity
  8
外形線
100
AcDbLine
 10
-70.06188163047506
 20
-31.53458968669085
 30
0.0
 11
-58.71812092425468
 21
-42.87835039291124
 31
0.0
  0
LINE
  5
649
330
1F
100
AcDbEntity
  8
外形線
100
AcDbLine
 10
-48.13255255129869
 20
-51.58346566084746
 30
0.0
 11
-48.74354152313165
 21
-52.19445463268042
 31
0.0
  0
LINE
  5
64A
330
1F
100
AcDbEntity
  8
外形線
100
AcDbLine
 10
-70.06188163047522
 20
-31.53458968669077
 30
0.0
 11
-68.03422516402418
 21
-32.90377099178818
 31
0.0
  0
LINE
  5
64B
330
1F
100
AcDbEntity
  8
外形線
100
AcDbLine
 10
-69.91467826904383
 20
-34.78422409680795
 30
0.0
 11
-60.26933644859767
 21
-44.42956591725418
 31
0.0
  0
LINE
  5
64C
330
1F
100
AcDbEntity
  8
外形線
100
AcDbLine
 10
-48.59633816170063
 20
-55.44408904279791
 30
0.0
 11
-50.62399462815172
 21
-54.07490773770054
 31
0.0
  0
LINE
  5
64D
330
1F
100
AcDbEntity
  8
外形線
100
AcDbLine
 10
-48.59633816170036
 20
-55.44408904279766
 30
0.0
 11
-47.98534918986733
 21
-54.83310007096474
 31
0.0
  0
LINE
  5
64E
330
1F
100
AcDbEntity
  8
外形線
100
AcDbLine
 10
-47.37436021803435
 20
-54.2221110991317
 30
0.0
 11
-58.71812092425468
 21
-42.87835039291124
 31
0.0
  0
LINE
  5
64F
330
1F
100
AcDbEntity
  8
外形線
100
AcDbLine
 10
-71.28385957414123
 20
-32.75656763035686
 30
0.0
 11
-70.67287060230817
 21
-32.14557865852388
 31
0.0
  0
LINE
  5
650
330
1F
100
AcDbEntity
  8
外形線
100
AcDbLine
 10
-62.0895227397688
 20
-68.93727362086615
 30
0.0
 11
-75.37956508654653
 21
-36.8522731427623
 31
0.0
  0
LWPOLYLINE
  5
651
330
1F
100
AcDbEntity
  8
外形線
100
AcDbPolyline
 90
        2
 70
     0
 43
2.250000033527613
 10
-75.37956508654653
 20
-36.8522731427623
 10
-62.08952273976866
 20
-68.93727362086615
  0
LINE
  5
652
330
1F
100
AcDbEntity
  8
外形線
100
AcDbLine
 10
-66.78341237185924
 20
-13.04806826288848
 30
0.0
 11
-39.50226593946041
 21
-13.04806826288848
 31
0.0
  0
LINE
  5
653
330
1F
100
AcDbEntity
  8
中心線
100
AcDbLine
 10
-68.73454391315795
 20
-52.89477338181418
 30
0.0
 11
-53.14283915566
 21
-37.30306862431628
 31
0.0
  0
MTEXT
  5
654
330
1F
100
AcDbEntity
  8
0
 62
     7
100
AcDbMText
 10
-70.5575197093038
 20
-6.365053696672815
 30
0.0
 40
3.200000047683716
 41
0.0
 71
     7
 72
     1
  1
\W0.833333;ＴＤＳ１１００～１５００
 73
     1
 44
1.0
  0
DIMENSION
  5
655
330
1F
100
AcDbEntity
  8
寸法線
100
AcDbDimension
  2
*D13
 10
-26.19391375615226
 20
-52.86203795809326
 30
0.0
 11
-24.3936125267654
 21
-49.2113882017421
 31
0.0
 70
   165
  1
45\U+00B0
 71
     5
 42
0.7853981633974501
  3
ISO-25
100
AcDb3PointAngularDimension
 13
-29.98119501217829
 23
-60.46471276779811
 33
0.0
 14
-21.44219270282187
 24
-37.30306862431616
 34
0.0
 15
-53.14283915566017
 25
-37.30306862431616
 35
0.0
1001
ACAD
1000
DSTYLE
1002
{
1070
   278
1070
    46
1070
   275
1070
     3
1070
   147
1040
0.8000000119209291
1070
    77
1070
     1
1070
    74
1070
     0
1070
    73
1070
     0
1070
    42
1040
2.54
1070
    44
1040
1.905000028386665
1070
    76
1070
     1
1070
    75
1070
     1
1070
   279
1070
     0
1070
   179
1070
     0
1070
   173
1070
     1
1070
    41
1040
3.0
1070
   140
1040
3.200000047683716
1070
   344
1005
150
1070
   343
1005
150
1002
}
  0
DIMENSION
  5
656
330
1F
100
AcDbEntity
  8
寸法線
100
AcDbDimension
  2
*D14
 10
-60.70041348162679
 20
-82.87855634692338
 30
0.0
 11
-56.85547756242121
 21
-81.57337647409226
 31
0.0
 70
   165
  1
45\U+00B0
 71
     5
 42
0.7853981633974474
  3
ISO-25
100
AcDb3PointAngularDimension
 13
-68.73454391315789
 23
-85.57128300659895
 33
0.0
 14
-43.47233958682778
 24
-78.15697770814423
 34
0.0
 15
-68.73454391315775
 25
-52.894773381814
 35
0.0
1001
ACAD
1000
DSTYLE
1002
{
1070
   278
1070
    46
1070
   275
1070
     3
1070
   147
1040
0.8000000119209291
1070
    77
1070
     1
1070
    74
1070
     0
1070
    73
1070
     0
1070
    42
1040
2.54
1070
    44
1040
1.90500002838678
1070
    76
1070
     1
1070
    75
1070
     1
1070
   279
1070
     0
1070
   179
1070
     0
1070
   173
1070
     1
1070
    41
1040
3.0
1070
   140
1040
3.200000047683716
1070
   344
1005
150
1070
   343
1005
150
1002
}
  0
DIMENSION
  5
657
330
1F
100
AcDbEntity
  8
寸法線
100
AcDbDimension
  2
*D15
 10
-22.01205606303975
 20
-13.04806826288848
 30
0.0
 11
-22.01205606303975
 21
-25.17556844360238
 31
0.0
 70
   160
  1
L3
 71
     5
 42
24.25500036142768
  3
ISO-25
100
AcDbAlignedDimension
 13
-53.14283915566
 23
-37.30306862431616
 33
0.0
 14
-39.50226593946041
 24
-13.04806826288848
 34
0.0
 50
270.0
100
AcDbRotatedDimension
1001
ACAD
1000
DSTYLE
1002
{
1070
   278
1070
    46
1070
   147
1040
0.8000000119209291
1070
    77
1070
     1
1070
    74
1070
     0
1070
    73
1070
     0
1070
    42
1040
2.54
1070
    44
1040
1.905000028386723
1070
    76
1070
     0
1070
    75
1070
     0
1070
   279
1070
     0
1070
   271
1070
     0
1070
   173
1070
     1
1070
    41
1040
3.0
1070
   140
1040
3.200000047683716
1070
   344
1005
150
1070
   343
1005
150
1002
}
  0
DIMENSION
  5
658
330
1F
100
AcDbEntity
  8
寸法線
100
AcDbDimension
  2
*D16
 10
-31.19352960658761
 20
-59.25237817338848
 30
0.0
 11
-38.98938198533659
 21
-67.04823055213745
 31
0.0
 70
   161
  1
L2
 71
     5
 42
22.05000032857072
  3
ISO-25
100
AcDbAlignedDimension
 13
-68.73454391315789
 23
-52.89477338181409
 33
0.0
 14
-53.14283915565994
 24
-37.30306862431616
 34
0.0
1001
ACAD
1000
DSTYLE
1002
{
1070
   278
1070
    46
1070
   147
1040
0.8000000119209291
1070
    77
1070
     1
1070
    74
1070
     0
1070
    73
1070
     0
1070
    42
1040
2.54
1070
    44
1040
1.90500002838676
1070
    76
1070
     0
1070
    75
1070
     0
1070
   279
1070
     0
1070
   271
1070
     0
1070
   173
1070
     1
1070
    41
1040
3.0
1070
   140
1040
3.200000047683716
1070
   344
1005
150
1070
   343
1005
150
1002
}
  0
DIMENSION
  5
659
330
1F
100
AcDbEntity
  8
寸法線
100
AcDbDimension
  2
*D17
 10
-68.73454391315775
 20
-83.85678298105091
 30
0.0
 11
-80.86204409387162
 21
-83.85678298105091
 31
0.0
 70
   160
  1
L1
 71
     5
 42
24.25500036142782
  3
ISO-25
100
AcDbAlignedDimension
 13
-92.98954427458557
 23
-66.53534659801358
 33
0.0
 14
-68.73454391315775
 24
-52.89477338181409
 34
0.0
 50
180.0
100
AcDbRotatedDimension
1001
ACAD
1000
DSTYLE
1002
{
1070
   278
1070
    46
1070
   147
1040
0.8000000119209291
1070
    77
1070
     1
1070
    74
1070
     0
1070
    73
1070
     0
1070
    42
1040
2.54
1070
    44
1040
1.905000028386695
1070
    76
1070
     0
1070
    75
1070
     0
1070
   279
1070
     0
1070
   271
1070
     0
1070
   173
1070
     1
1070
    41
1040
3.0
1070
   140
1040
3.200000047683716
1070
   344
1005
150
1070
   343
1005
150
1002
}
  0
DIMENSION
  5
65A
330
1F
100
AcDbEntity
  8
寸法線
100
AcDbDimension
  2
*D18
 10
-101.8708240912319
 20
-36.85227314276239
 30
0.0
 11
-101.8708240912319
 21
-52.89477338181429
 31
0.0
 70
   160
  1
\U+2205A
 71
     5
 42
32.08500047810377
  3
ISO-25
100
AcDbAlignedDimension
 13
-91.65986313232279
 23
-68.93727362086615
 33
0.0
 14
-91.65986313232279
 24
-36.85227314276239
 34
0.0
 50
270.0
100
AcDbRotatedDimension
1001
ACAD
1000
DSTYLE
1002
{
1070
   278
1070
    46
1070
   147
1040
0.8000000119209291
1070
    77
1070
     1
1070
    74
1070
     0
1070
    73
1070
     0
1070
    42
1040
2.54
1070
    44
1040
1.42875002129011
1070
    76
1070
     0
1070
    75
1070
     0
1070
   279
1070
     0
1070
   271
1070
     0
1070
   173
1070
     1
1070
    41
1040
3.0
1070
   140
1040
3.200000047683716
1070
   344
1005
150
1070
   343
1005
150
1002
}
  0
MTEXT
  5
745
330
1F
100
AcDbEntity
  8
0
 62
     7
100
AcDbMText
 10
-69.04474077446216
 20
81.46166213223386
 30
0.0
 40
3.200000047683716
 41
0.0
 71
     7
 72
     1
  1
{\W0.8333;ＴＤＳ１００～１０００}
 73
     1
 44
1.0
  0
MTEXT
  5
A21
330
1F
100
AcDbEntity
  8
0
 62
     7
100
AcDbMText
 10
26.01187177593108
 20
33.35010253217693
 30
0.0
 40
3.200000047683716
 41
0.0
 71
     4
 72
     1
  1
TDS200
 73
     1
 44
1.0
  0
MTEXT
  5
A22
330
1F
100
AcDbEntity
  8
0
 62
     7
100
AcDbMText
 10
57.73485152147888
 20
33.35010253217693
 30
0.0
 40
3.200000047683716
 41
0.0
 71
     5
 72
     1
  1
225
 73
     1
 44
1.0
  0
MTEXT
  5
A23
330
1F
100
AcDbEntity
  8
0
 62
     7
100
AcDbMText
 10
98.01187368327973
 20
33.35010253217693
 30
0.0
 40
3.200000047683716
 41
0.0
 71
     5
 72
     1
  1
278
 73
     1
 44
1.0
  0
MTEXT
  5
A24
330
1F
100
AcDbEntity
  8
0
 62
     7
100
AcDbMText
 10
77.84597736988349
 20
33.35010253217693
 30
0.0
 40
3.200000047683716
 41
0.0
 71
     5
 72
     1
  1
390
 73
     1
 44
1.0
  0
MTEXT
  5
A25
330
1F
100
AcDbEntity
  8
0
 62
     7
100
AcDbMText
 10
118.0118736832796
 20
33.35010253217695
 30
0.0
 40
3.200000047683716
 41
0.0
 71
     5
 72
     1
  1
-
 73
     1
 44
1.0
  0
MTEXT
  5
A26
330
1F
100
AcDbEntity
  8
0
 62
     7
100
AcDbMText
 10
26.01187177593108
 20
39.3501025321769
 30
0.0
 40
3.200000047683716
 41
0.0
 71
     4
 72
     1
  1
TDS150
 73
     1
 44
1.0
  0
MTEXT
  5
A27
330
1F
100
AcDbEntity
  8
0
 62
     7
100
AcDbMText
 10
57.73485152147888
 20
39.3501025321769
 30
0.0
 40
3.200000047683716
 41
0.0
 71
     5
 72
     1
  1
173
 73
     1
 44
1.0
  0
MTEXT
  5
A28
330
1F
100
AcDbEntity
  8
0
 62
     7
100
AcDbMText
 10
98.01187368327973
 20
39.3501025321769
 30
0.0
 40
3.200000047683716
 41
0.0
 71
     5
 72
     1
  1
164
 73
     1
 44
1.0
  0
MTEXT
  5
A29
330
1F
100
AcDbEntity
  8
0
 62
     7
100
AcDbMText
 10
77.84597736988349
 20
39.3501025321769
 30
0.0
 40
3.200000047683716
 41
0.0
 71
     5
 72
     1
  1
250
 73
     1
 44
1.0
  0
MTEXT
  5
A2A
330
1F
100
AcDbEntity
  8
0
 62
     7
100
AcDbMText
 10
118.0118736832796
 20
39.3501025321769
 30
0.0
 40
3.200000047683716
 41
0.0
 71
     5
 72
     1
  1
-
 73
     1
 44
1.0
  0
LINE
  5
A2B
330
1F
100
AcDbEntity
  8
0
  6
Continuous
 62
     7
100
AcDbLine
 10
23.01187177593107
 20
36.35010253217695
 30
0.0
 11
128.0118736832797
 21
36.35010253217695
 31
0.0
  0
LINE
  5
A2C
330
1F
100
AcDbEntity
  8
0
  6
Continuous
 62
     7
100
AcDbLine
 10
23.01187177593107
 20
42.35010253217692
 30
0.0
 11
128.0118736832797
 21
42.35010253217692
 31
0.0
  0
MTEXT
  5
A2D
330
1F
100
AcDbEntity
  8
0
 62
     7
100
AcDbMText
 10
26.01187177593108
 20
45.35010253217685
 30
0.0
 40
3.200000047683716
 41
0.0
 71
     4
 72
     1
  1
TDS100
 73
     1
 44
1.0
  0
MTEXT
  5
A2E
330
1F
100
AcDbEntity
  8
0
 62
     7
100
AcDbMText
 10
57.73485152147888
 20
45.35010253217685
 30
0.0
 40
3.200000047683716
 41
0.0
 71
     5
 72
     1
  1
117
 73
     1
 44
1.0
  0
MTEXT
  5
A2F
330
1F
100
AcDbEntity
  8
0
 62
     7
100
AcDbMText
 10
98.01187368327973
 20
45.35010253217685
 30
0.0
 40
3.200000047683716
 41
0.0
 71
     5
 72
     1
  1
172
 73
     1
 44
1.0
  0
MTEXT
  5
A30
330
1F
100
AcDbEntity
  8
0
 62
     7
100
AcDbMText
 10
77.84597736988349
 20
45.35010253217685
 30
0.0
 40
3.200000047683716
 41
0.0
 71
     5
 72
     1
  1
230
 73
     1
 44
1.0
  0
MTEXT
  5
A31
330
1F
100
AcDbEntity
  8
0
 62
     7
100
AcDbMText
 10
118.0118736832796
 20
45.35010253217687
 30
0.0
 40
3.200000047683716
 41
0.0
 71
     5
 72
     1
  1
-
 73
     1
 44
1.0
  0
LINE
  5
A32
330
1F
100
AcDbEntity
  8
0
  6
Continuous
 62
     7
100
AcDbLine
 10
23.01187177593107
 20
48.35010253217689
 30
0.0
 11
128.0118736832797
 21
48.35010253217689
 31
0.0
  0
MTEXT
  5
AC5
330
1F
100
AcDbEntity
  8
VIEW0001
 62
     7
100
AcDbMText
 10
59.89285540580749
 20
-93.0
 30
0.0
 40
4.5
 41
0.0
 71
     7
 72
     1
  1
{\W1.3889;　デンカ株式会社}
 73
     1
 44
1.0
  0
LINE
  5
B60
330
1F
100
AcDbEntity
  8
0
  6
Continuous
 62
     7
100
AcDbLine
 10
23.01187177593108
 20
60.35010253217681
 30
0.0
 11
128.0118736832797
 21
60.35010253217684
 31
0.0
  0
MTEXT
  5
B61
330
1F
100
AcDbEntity
  8
0
 62
     7
100
AcDbMText
 10
26.01187177593108
 20
51.35010253217682
 30
0.0
 40
3.200000047683716
 41
0.0
 71
     4
 72
     1
  1
TDS75
 73
     1
 44
1.0
  0
MTEXT
  5
B62
330
1F
100
AcDbEntity
  8
0
 62
     7
100
AcDbMText
 10
57.73485152147888
 20
51.35010253217682
 30
0.0
 40
3.200000047683716
 41
0.0
 71
     5
 72
     1
  1
87
 73
     1
 44
1.0
  0
MTEXT
  5
B63
330
1F
100
AcDbEntity
  8
0
 62
     7
100
AcDbMText
 10
98.01187368327973
 20
51.35010253217682
 30
0.0
 40
3.200000047683716
 41
0.0
 71
     5
 72
     1
  1
260
 73
     1
 44
1.0
  0
MTEXT
  5
B64
330
1F
100
AcDbEntity
  8
0
 62
     7
100
AcDbMText
 10
77.84597736988349
 20
51.35010253217682
 30
0.0
 40
3.200000047683716
 41
0.0
 71
     5
 72
     1
  1
230
 73
     1
 44
1.0
  0
MTEXT
  5
B65
330
1F
100
AcDbEntity
  8
0
 62
     7
100
AcDbMText
 10
118.0118736832796
 20
51.35010253217684
 30
0.0
 40
3.200000047683716
 41
0.0
 71
     5
 72
     1
  1
-
 73
     1
 44
1.0
  0
ENDSEC
  0
SECTION
  2
OBJECTS
  0
DICTIONARY
  5
C
330
0
100
AcDbDictionary
281
     1
  3
ACAD_CIP_PREVIOUS_PRODUCT_INFO
350
ABB
  3
ACAD_COLOR
350
1A7
  3
ACAD_DETAILVIEWSTYLE
350
AB8
  3
ACAD_GROUP
350
D
  3
ACAD_LAYOUT
350
1A
  3
ACAD_MATERIAL
350
1A6
  3
ACAD_MLEADERSTYLE
350
AB4
  3
ACAD_MLINESTYLE
350
17
  3
ACAD_PLOTSETTINGS
350
19
  3
ACAD_PLOTSTYLENAME
350
E
  3
ACAD_SCALELIST
350
AA2
  3
ACAD_SECTIONVIEWSTYLE
350
AB6
  3
ACAD_TABLESTYLE
350
1A8
  3
ACAD_VISUALSTYLE
350
A89
  3
ACDB_RECOMPOSE_DATA
350
B7B
  3
AcDbVariableDictionary
350
1AE
  0
DICTIONARY
  5
AC6
330
10
100
AcDbDictionary
280
     1
281
     1
  3
ADSK_XREC_LAYER_RECONCILED
360
AC7
  0
DICTIONARY
  5
AC8
330
199
100
AcDbDictionary
280
     1
281
     1
  3
ADSK_XREC_LAYER_RECONCILED
360
AC9
  0
DICTIONARY
  5
ACA
330
1E8
100
AcDbDictionary
280
     1
281
     1
  3
ADSK_XREC_LAYER_RECONCILED
360
ACB
  0
DICTIONARY
  5
ACC
330
1F7
100
AcDbDictionary
280
     1
281
     1
  3
ADSK_XREC_LAYER_RECONCILED
360
ACD
  0
DICTIONARY
  5
ACE
330
1F8
100
AcDbDictionary
280
     1
281
     1
  3
ADSK_XREC_LAYER_RECONCILED
360
ACF
  0
DICTIONARY
  5
AD0
330
1F9
100
AcDbDictionary
280
     1
281
     1
  3
ADSK_XREC_LAYER_RECONCILED
360
AD1
  0
DICTIONARY
  5
AD2
330
1FA
100
AcDbDictionary
280
     1
281
     1
  3
ADSK_XREC_LAYER_RECONCILED
360
AD3
  0
DICTIONARY
  5
AD4
330
1FB
100
AcDbDictionary
280
     1
281
     1
  3
ADSK_XREC_LAYER_RECONCILED
360
AD5
  0
DICTIONARY
  5
AD6
330
1FC
100
AcDbDictionary
280
     1
281
     1
  3
ADSK_XREC_LAYER_RECONCILED
360
AD7
  0
DICTIONARY
  5
260
330
1F
100
AcDbDictionary
280
     1
281
     1
  3
ACAD_SORTENTS
360
261
  0
DICTIONARY
  5
B83
330
936
100
AcDbDictionary
280
     1
281
     1
  3
ACAD_MTEXT_2008_RT
360
B84
  0
DICTIONARY
  5
B81
330
8AA
100
AcDbDictionary
280
     1
281
     1
  3
ACAD_MTEXT_2008_RT
360
B82
  0
DICTIONARY
  5
B7C
330
11F
100
AcDbDictionary
280
     1
281
     1
  3
ACAD_MTEXT_2008_RT
360
B7D
  0
XRECORD
  5
ABB
102
{ACAD_REACTORS
330
C
102
}
330
C
100
AcDbXrecord
280
     1
300
ACDLT
300
2014
300
INVLTS_F_S
  0
DICTIONARY
  5
1A7
102
{ACAD_REACTORS
330
C
102
}
330
C
100
AcDbDictionary
281
     1
  0
DICTIONARY
  5
AB8
102
{ACAD_REACTORS
330
C
102
}
330
C
100
AcDbDictionary
281
     1
  3
Metric50
350
AB9
  0
DICTIONARY
  5
D
102
{ACAD_REACTORS
330
C
102
}
330
C
100
AcDbDictionary
281
     1
  0
DICTIONARY
  5
1A
102
{ACAD_REACTORS
330
C
102
}
330
C
100
AcDbDictionary
281
     1
  3
Layout1
350
1E
  3
Layout2
350
26
  3
Model
350
22
  0
DICTIONARY
  5
1A6
102
{ACAD_REACTORS
330
C
102
}
330
C
100
AcDbDictionary
281
     1
  3
ByBlock
350
A79
  3
ByLayer
350
A71
  3
Global
350
A81
  0
DICTIONARY
  5
AB4
102
{ACAD_REACTORS
330
C
102
}
330
C
100
AcDbDictionary
281
     1
  3
Standard
350
AB5
  0
DICTIONARY
  5
17
102
{ACAD_REACTORS
330
C
102
}
330
C
100
AcDbDictionary
281
     1
  3
Standard
350
18
  0
DICTIONARY
  5
19
102
{ACAD_REACTORS
330
C
102
}
330
C
100
AcDbDictionary
281
     1
  3
111
350
97B
  3
セットアップ1
350
B6F
  0
ACDBDICTIONARYWDFLT
  5
E
102
{ACAD_REACTORS
330
C
102
}
330
C
100
AcDbDictionary
281
     1
  3
Normal
350
F
100
AcDbDictionaryWithDefault
340
F
  0
DICTIONARY
  5
AA2
102
{ACAD_REACTORS
330
C
102
}
330
C
100
AcDbDictionary
281
     1
  3
A0
350
AA3
  3
A1
350
AA4
  3
A2
350
AA5
  3
A3
350
AA6
  3
A4
350
AA7
  3
A5
350
AA8
  3
A6
350
AA9
  3
A7
350
AAA
  3
A8
350
AAB
  3
A9
350
AAC
  3
B0
350
AAD
  3
B1
350
AAE
  3
B2
350
AAF
  3
B3
350
AB0
  3
B4
350
AB1
  3
B5
350
AB2
  3
B6
350
AB3
  0
DICTIONARY
  5
AB6
102
{ACAD_REACTORS
330
C
102
}
330
C
100
AcDbDictionary
281
     1
  3
Metric50
350
AB7
  0
DICTIONARY
  5
1A8
102
{ACAD_REACTORS
330
C
102
}
330
C
100
AcDbDictionary
281
     1
  3
Standard
350
1A9
  0
DICTIONARY
  5
A89
102
{ACAD_REACTORS
330
C
102
}
330
C
100
AcDbDictionary
281
     1
  3
2dWireframe
350
A8F
  3
Basic
350
A8E
  3
Brighten
350
A95
  3
ColorChange
350
A99
  3
Conceptual
350
A92
  3
Dim
350
A94
  3
EdgeColorOff
350
AA1
  3
Facepattern
350
A98
  3
Flat
350
A8A
  3
FlatWithEdges
350
A8B
  3
Gouraud
350
A8C
  3
GouraudWithEdges
350
A8D
  3
Hidden
350
A91
  3
JitterOff
350
A9F
  3
Linepattern
350
A97
  3
OverhangOff
350
AA0
  3
Realistic
350
A93
  3
Shaded
350
A9E
  3
Shaded with edges
350
A9D
  3
Shades of Gray
350
A9A
  3
Sketchy
350
A9B
  3
Thicken
350
A96
  3
Wireframe
350
A90
  3
X-Ray
350
A9C
  0
XRECORD
  5
B7B
102
{ACAD_REACTORS
330
C
102
}
330
C
100
AcDbXrecord
280
     1
 90
        1
330
1A9
  0
DICTIONARY
  5
1AE
102
{ACAD_REACTORS
330
C
102
}
330
C
100
AcDbDictionary
281
     1
  3
CANNOSCALE
350
B10
  3
CMLEADERSTYLE
350
B0C
  3
CTABLESTYLE
350
1AF
  3
CVIEWDETAILSTYLE
350
B0D
  3
CVIEWSECTIONSTYLE
350
B0E
  3
DIMASSOC
350
1DE
  3
LAYEREVAL
350
B12
  3
LAYERNOTIFY
350
B13
  3
LIGHTINGUNITS
350
B11
  3
MSLTSCALE
350
B0F
  3
PROJECTNAME
350
1DF
  3
XCLIPFRAME
350
B78
  0
XRECORD
  5
AC7
102
{ACAD_REACTORS
330
AC6
102
}
330
AC6
100
AcDbXrecord
280
     1
290
     1
  0
XRECORD
  5
AC9
102
{ACAD_REACTORS
330
AC8
102
}
330
AC8
100
AcDbXrecord
280
     1
290
     1
  0
XRECORD
  5
ACB
102
{ACAD_REACTORS
330
ACA
102
}
330
ACA
100
AcDbXrecord
280
     1
290
     1
  0
XRECORD
  5
ACD
102
{ACAD_REACTORS
330
ACC
102
}
330
ACC
100
AcDbXrecord
280
     1
290
     1
  0
XRECORD
  5
ACF
102
{ACAD_REACTORS
330
ACE
102
}
330
ACE
100
AcDbXrecord
280
     1
290
     1
  0
XRECORD
  5
AD1
102
{ACAD_REACTORS
330
AD0
102
}
330
AD0
100
AcDbXrecord
280
     1
290
     1
  0
XRECORD
  5
AD3
102
{ACAD_REACTORS
330
AD2
102
}
330
AD2
100
AcDbXrecord
280
     1
290
     1
  0
XRECORD
  5
AD5
102
{ACAD_REACTORS
330
AD4
102
}
330
AD4
100
AcDbXrecord
280
     1
290
     1
  0
XRECORD
  5
AD7
102
{ACAD_REACTORS
330
AD6
102
}
330
AD6
100
AcDbXrecord
280
     1
290
     1
  0
SORTENTSTABLE
  5
261
102
{ACAD_REACTORS
330
260
102
}
330
260
100
AcDbSortentsTable
330
1F
331
61
  5
61
331
69
  5
69
331
71
  5
71
331
32
  5
32
331
3A
  5
3A
331
60B
  5
612
331
642
  5
649
331
595
  5
59C
331
51F
  5
526
331
556
  5
55D
331
5CC
  5
5D3
331
98
  5
98
331
613
  5
61A
331
59D
  5
5A4
331
527
  5
52E
331
55E
  5
565
331
5D4
  5
5DB
331
64A
  5
651
331
DF
  5
DF
331
652
  5
659
331
A0
  5
A0
331
116
  5
117
331
61B
  5
622
331
5A5
  5
5AC
331
5DC
  5
5E3
331
52F
  5
536
331
566
  5
56D
331
2AA
  5
30E
331
65A
  5
992
331
A8
  5
A8
331
E7
  5
E7
331
11E
  5
125
331
19C
  5
25F
331
5E4
  5
5EB
331
56E
  5
575
331
30A
  5
312
331
EF
  5
EF
331
B0
  5
B0
331
126
  5
12D
331
26B
  5
275
331
12E
  5
135
331
312
  5
319
331
42
  5
42
331
4A
  5
4A
331
52
  5
52
331
5A
  5
5A
331
4F8
  5
4FF
331
623
  5
62A
331
5AD
  5
5B4
331
576
  5
57D
331
500
  5
507
331
537
  5
53E
331
5EC
  5
5F3
331
B8
  5
B8
331
79
  5
79
331
62B
  5
632
331
5F4
  5
5FB
331
57E
  5
585
331
508
  5
50F
331
53F
  5
546
331
5B5
  5
5BC
331
136
  5
13D
331
C0
  5
C0
331
F7
  5
F7
331
81
  5
81
331
273
  5
288
331
5FC
  5
603
331
586
  5
58D
331
510
  5
517
331
547
  5
54E
331
5BD
  5
5C4
331
633
  5
63A
331
13E
  5
146
331
C8
  5
C8
331
89
  5
89
331
FF
  5
FF
331
604
  5
60B
331
5C5
  5
5CC
331
54F
  5
556
331
58E
  5
595
331
63B
  5
642
331
146
  5
14D
331
D0
  5
D0
331
91
  5
91
331
107
  5
107
331
1F4
  5
273
331
10F
  5
110
331
14E
  5
19B
331
62
  5
62
331
6A
  5
6A
331
33
  5
33
331
72
  5
72
331
3B
  5
3B
331
518
  5
51F
331
60C
  5
613
331
596
  5
59D
331
5CD
  5
5D4
331
520
  5
527
331
557
  5
55E
331
643
  5
64A
331
D8
  5
D8
331
99
  5
99
331
614
  5
61B
331
64B
  5
652
331
59E
  5
5A5
331
528
  5
52F
331
55F
  5
566
331
5D5
  5
5DC
331
E0
  5
E0
331
117
  5
118
331
653
  5
65A
331
A1
  5
A1
331
61C
  5
623
331
5A6
  5
5AD
331
567
  5
56E
331
5DD
  5
5E4
331
2AB
  5
30F
331
A9
  5
A9
331
E8
  5
E8
331
11F
  5
126
331
19D
  5
262
331
56F
  5
576
331
5E5
  5
5EC
331
B1
  5
B1
331
127
  5
12E
331
26C
  5
277
331
12F
  5
136
331
313
  5
4F7
331
43
  5
43
331
4B
  5
4B
331
53
  5
53
331
5B
  5
5B
331
4F9
  5
500
331
530
  5
537
331
5ED
  5
5F4
331
5AE
  5
5B5
331
501
  5
508
331
538
  5
53F
331
577
  5
57E
331
624
  5
62B
331
B9
  5
B9
331
7A
  5
7A
331
F0
  5
F0
331
5F5
  5
5FC
331
5B6
  5
5BD
331
509
  5
510
331
540
  5
547
331
57F
  5
586
331
62C
  5
633
331
137
  5
13E
331
C1
  5
C1
331
82
  5
82
331
F8
  5
F8
331
634
  5
63B
331
5BE
  5
5C5
331
587
  5
58E
331
511
  5
518
331
548
  5
54F
331
5FD
  5
604
331
13F
  5
147
331
C9
  5
C9
331
100
  5
100
331
8A
  5
8A
331
63C
  5
643
331
605
  5
60C
331
58F
  5
596
331
5C6
  5
5CD
331
147
  5
14E
331
D1
  5
D1
331
108
  5
108
331
92
  5
92
331
14F
  5
19C
331
63
  5
63
331
6B
  5
6B
331
73
  5
73
331
34
  5
34
331
3C
  5
3C
331
519
  5
520
331
550
  5
557
331
60D
  5
614
331
597
  5
59E
331
521
  5
528
331
558
  5
55F
331
5CE
  5
5D5
331
644
  5
64B
331
D9
  5
D9
331
9A
  5
9A
331
110
  5
111
331
615
  5
61C
331
59F
  5
5A6
331
529
  5
530
331
560
  5
567
331
5D6
  5
5DD
331
64C
  5
653
331
E1
  5
E1
331
654
  5
745
331
A2
  5
A2
331
118
  5
11B
331
61D
  5
624
331
5A7
  5
5AE
331
5DE
  5
5E5
331
568
  5
56F
331
120
  5
127
331
E9
  5
E9
331
AA
  5
AA
331
2AC
  5
310
331
5E6
  5
5ED
331
30C
  5
313
331
B2
  5
B2
331
128
  5
12F
331
26D
  5
278
331
314
  5
4F8
331
44
  5
44
331
4C
  5
4C
331
54
  5
54
331
5C
  5
5C
331
4FA
  5
501
331
531
  5
538
331
570
  5
577
331
625
  5
62C
331
578
  5
57F
331
502
  5
509
331
539
  5
540
331
5AF
  5
5B6
331
5EE
  5
5F5
331
130
  5
137
331
BA
  5
BA
331
F1
  5
F1
331
7B
  5
7B
331
62D
  5
634
331
5F6
  5
5FD
331
580
  5
587
331
50A
  5
511
331
541
  5
548
331
5B7
  5
5BE
331
138
  5
13F
331
C2
  5
C2
331
83
  5
83
331
F9
  5
F9
331
275
  5
289
331
5FE
  5
605
331
5BF
  5
5C6
331
512
  5
519
331
549
  5
550
331
588
  5
58F
331
635
  5
63C
331
140
  5
148
331
CA
  5
CA
331
8B
  5
8B
331
101
  5
101
331
606
  5
60D
331
5C7
  5
5CE
331
63D
  5
644
331
17F
  5
1A1
331
D2
  5
D2
331
93
  5
93
331
109
  5
109
331
148
  5
14F
331
64
  5
64
331
6C
  5
6C
331
74
  5
74
331
35
  5
35
331
3D
  5
3D
331
590
  5
597
331
51A
  5
521
331
551
  5
558
331
60E
  5
615
331
598
  5
59F
331
522
  5
529
331
559
  5
560
331
5CF
  5
5D6
331
645
  5
64C
331
111
  5
112
331
9B
  5
9B
331
616
  5
61D
331
64D
  5
654
331
5A0
  5
5A7
331
52A
  5
531
331
561
  5
568
331
5D7
  5
5DE
331
DA
  5
DA
331
E2
  5
E2
331
119
  5
11D
331
61E
  5
625
331
569
  5
570
331
5DF
  5
5E6
331
655
  5
98D
331
A3
  5
A3
331
2AD
  5
311
331
121
  5
128
331
5E7
  5
5EE
331
AB
  5
AB
331
EA
  5
EA
331
30D
  5
314
331
26E
  5
279
331
B3
  5
B3
331
129
  5
130
331
315
  5
4F9
331
45
  5
45
331
4D
  5
4D
331
55
  5
55
331
5D
  5
5D
331
571
  5
578
331
4FB
  5
502
331
532
  5
539
331
5A8
  5
5AF
331
5B0
  5
5B7
331
503
  5
50A
331
53A
  5
541
331
579
  5
580
331
5EF
  5
5F6
331
626
  5
62D
331
170
  5
1A0
331
131
  5
138
331
BB
  5
BB
331
62E
  5
635
331
5B8
  5
5BF
331
50B
  5
512
331
542
  5
549
331
581
  5
588
331
5F7
  5
5FE
331
7C
  5
7C
331
F2
  5
F2
331
139
  5
140
331
C3
  5
C3
331
636
  5
63D
331
5C0
  5
5C7
331
589
  5
590
331
513
  5
51A
331
54A
  5
551
331
5FF
  5
606
331
84
  5
84
331
FA
  5
FA
331
CB
  5
CB
331
102
  5
102
331
63E
  5
645
331
607
  5
60E
331
8C
  5
8C
331
D3
  5
D3
331
94
  5
94
331
10A
  5
10A
331
149
  5
163
331
296
  5
2AD
331
65
  5
65
331
2E
  5
2E
331
6D
  5
6D
331
75
  5
75
331
36
  5
36
331
3E
  5
3E
331
591
  5
598
331
51B
  5
522
331
552
  5
559
331
5C8
  5
5CF
331
60F
  5
616
331
599
  5
5A0
331
523
  5
52A
331
55A
  5
561
331
5D0
  5
5D7
331
646
  5
64D
331
DB
  5
DB
331
617
  5
61E
331
5A1
  5
5A8
331
52B
  5
532
331
562
  5
569
331
5D8
  5
5DF
331
64E
  5
655
331
9C
  5
9C
331
112
  5
113
331
25F
  5
26C
331
E3
  5
E3
331
61F
  5
626
331
5E0
  5
5E7
331
56A
  5
571
331
656
  5
98E
331
A4
  5
A4
331
11A
  5
11F
331
122
  5
129
331
EB
  5
EB
331
AC
  5
AC
331
1A0
  5
26D
331
26F
  5
27A
331
B4
  5
B4
331
12A
  5
131
331
30E
  5
315
331
316
  5
4FA
331
745
  5
993
331
46
  5
46
331
4E
  5
4E
331
56
  5
56
331
5E
  5
5E
331
5A9
  5
5B0
331
572
  5
579
331
4FC
  5
503
331
533
  5
53A
331
5E8
  5
5EF
331
5B1
  5
5B8
331
57A
  5
581
331
504
  5
50B
331
53B
  5
542
331
5F0
  5
5F7
331
627
  5
62E
331
132
  5
139
331
BC
  5
BC
331
F3
  5
F3
331
62F
  5
636
331
5F8
  5
5FF
331
582
  5
589
331
50C
  5
513
331
543
  5
54A
331
5B9
  5
5C0
331
7D
  5
7D
331
277
  5
28A
331
13A
  5
142
331
C4
  5
C4
331
600
  5
607
331
5C1
  5
5C8
331
514
  5
51B
331
54B
  5
552
331
58A
  5
591
331
637
  5
63E
331
85
  5
85
331
FB
  5
FB
331
142
  5
149
331
CC
  5
CC
331
63F
  5
646
331
8D
  5
8D
331
103
  5
103
331
D4
  5
D4
331
95
  5
95
331
10B
  5
10C
331
14A
  5
170
331
297
  5
30A
331
66
  5
66
331
6E
  5
6E
331
76
  5
76
331
37
  5
37
331
3F
  5
3F
331
608
  5
60F
331
592
  5
599
331
51C
  5
523
331
553
  5
55A
331
5C9
  5
5D0
331
610
  5
617
331
59A
  5
5A1
331
5D1
  5
5D8
331
524
  5
52B
331
55B
  5
562
331
647
  5
64E
331
DC
  5
DC
331
113
  5
114
331
618
  5
61F
331
64F
  5
656
331
5A2
  5
5A9
331
52C
  5
533
331
563
  5
56A
331
5D9
  5
5E0
331
9D
  5
9D
331
E4
  5
E4
331
56B
  5
572
331
5E1
  5
5E8
331
657
  5
98F
331
A5
  5
A5
331
11B
  5
121
331
123
  5
12A
331
AD
  5
AD
331
EC
  5
EC
331
12B
  5
132
331
B5
  5
B5
331
30F
  5
316
331
317
  5
4FB
331
47
  5
47
331
4F
  5
4F
331
57
  5
57
331
5F
  5
5F
331
620
  5
627
331
5E9
  5
5F0
331
573
  5
57A
331
4FD
  5
504
331
534
  5
53B
331
5AA
  5
5B1
331
5F1
  5
5F8
331
5B2
  5
5B9
331
505
  5
50C
331
53C
  5
543
331
57B
  5
582
331
628
  5
62F
331
133
  5
13A
331
BD
  5
BD
331
7E
  5
7E
331
F4
  5
F4
331
630
  5
637
331
5BA
  5
5C1
331
583
  5
58A
331
50D
  5
514
331
544
  5
54B
331
5F9
  5
600
331
13B
  5
143
331
C5
  5
C5
331
86
  5
86
331
FC
  5
FC
331
278
  5
296
331
638
  5
63F
331
5C2
  5
5C9
331
58B
  5
592
331
515
  5
51C
331
54C
  5
553
331
601
  5
608
331
143
  5
14A
331
CD
  5
CD
331
104
  5
104
331
8E
  5
8E
331
D5
  5
D5
331
96
  5
96
331
10C
  5
10D
331
14B
  5
17F
331
67
  5
67
331
30
  5
30
331
6F
  5
6F
331
77
  5
77
331
38
  5
38
331
609
  5
610
331
640
  5
647
331
593
  5
59A
331
51D
  5
524
331
554
  5
55B
331
5CA
  5
5D1
331
611
  5
618
331
59B
  5
5A2
331
525
  5
52C
331
55C
  5
563
331
5D2
  5
5D9
331
648
  5
64F
331
DD
  5
DD
331
650
  5
657
331
9E
  5
9E
331
114
  5
115
331
298
  5
30C
331
619
  5
620
331
5A3
  5
5AA
331
52D
  5
534
331
564
  5
56B
331
5DA
  5
5E1
331
E5
  5
E5
331
658
  5
990
331
A6
  5
A6
331
11C
  5
123
331
163
  5
19D
331
19A
  5
1F3
331
5E2
  5
5E9
331
56C
  5
573
331
ED
  5
ED
331
AE
  5
AE
331
124
  5
12B
331
B6
  5
B6
331
12C
  5
133
331
310
  5
317
331
40
  5
40
331
48
  5
48
331
50
  5
50
331
58
  5
58
331
621
  5
628
331
5AB
  5
5B2
331
574
  5
57B
331
4FE
  5
505
331
535
  5
53C
331
5EA
  5
5F1
331
629
  5
630
331
5F2
  5
5F9
331
57C
  5
583
331
506
  5
50D
331
53D
  5
544
331
5B3
  5
5BA
331
318
  5
4FC
331
134
  5
13B
331
BE
  5
BE
331
F5
  5
F5
331
7F
  5
7F
331
271
  5
287
331
631
  5
638
331
5FA
  5
601
331
584
  5
58B
331
50E
  5
515
331
545
  5
54C
331
5BB
  5
5C2
331
13C
  5
144
331
C6
  5
C6
331
87
  5
87
331
FD
  5
FD
331
279
  5
297
331
602
  5
609
331
5C3
  5
5CA
331
516
  5
51D
331
54D
  5
554
331
58C
  5
593
331
639
  5
640
331
289
  5
2AB
331
144
  5
14B
331
CE
  5
CE
331
8F
  5
8F
331
105
  5
105
331
1F2
  5
26F
331
D6
  5
D6
331
97
  5
97
331
10D
  5
10E
331
14C
  5
18C
331
60
  5
60
331
68
  5
68
331
70
  5
70
331
39
  5
39
331
60A
  5
611
331
594
  5
59B
331
5CB
  5
5D2
331
51E
  5
525
331
555
  5
55C
331
641
  5
648
331
612
  5
619
331
59C
  5
5A3
331
5D3
  5
5DA
331
526
  5
52D
331
55D
  5
564
331
649
  5
650
331
DE
  5
DE
331
115
  5
116
331
651
  5
658
331
9F
  5
9F
331
299
  5
30D
331
61A
  5
621
331
5A4
  5
5AB
331
52E
  5
535
331
565
  5
56C
331
5DB
  5
5E2
331
262
  5
26B
331
E6
  5
E6
331
659
  5
991
331
A7
  5
A7
331
11D
  5
124
331
19B
  5
1F4
331
4F7
  5
4FE
331
56D
  5
574
331
5E3
  5
5EA
331
125
  5
12C
331
AF
  5
AF
331
EE
  5
EE
331
12D
  5
134
331
B7
  5
B7
331
311
  5
318
331
41
  5
41
331
49
  5
49
331
51
  5
51
331
59
  5
59
331
5EB
  5
5F2
331
575
  5
57C
331
4FF
  5
506
331
536
  5
53D
331
5AC
  5
5B3
331
622
  5
629
331
78
  5
78
331
5F3
  5
5FA
331
5B4
  5
5BB
331
507
  5
50E
331
53E
  5
545
331
57D
  5
584
331
62A
  5
631
331
135
  5
13C
331
BF
  5
BF
331
80
  5
80
331
F6
  5
F6
331
319
  5
4FD
331
632
  5
639
331
5BC
  5
5C3
331
585
  5
58C
331
50F
  5
516
331
546
  5
54D
331
5FB
  5
602
331
13D
  5
145
331
C7
  5
C7
331
88
  5
88
331
FE
  5
FE
331
27A
  5
298
331
63A
  5
641
331
603
  5
60A
331
58D
  5
594
331
517
  5
51E
331
54E
  5
555
331
5C4
  5
5CB
331
28A
  5
2AC
331
145
  5
14C
331
CF
  5
CF
331
90
  5
90
331
106
  5
106
331
1F3
  5
271
331
18C
  5
1F2
331
D7
  5
D7
331
10E
  5
10F
331
14D
  5
19A
  0
XRECORD
  5
B84
102
{ACAD_REACTORS
330
B83
102
}
330
B83
100
AcDbXrecord
280
     1
 40
2020.0
  1
\U+2205A
  0
XRECORD
  5
B82
102
{ACAD_REACTORS
330
B81
102
}
330
B81
100
AcDbXrecord
280
     1
 40
2020.0
  1
\U+2205A
  0
XRECORD
  5
B7D
102
{ACAD_REACTORS
330
B7C
102
}
330
B7C
100
AcDbXrecord
280
     1
 40
7259.0
  1
{\W1;\U+2205A}
  0
ACDBDETAILVIEWSTYLE
  5
AB9
102
{ACAD_XDICTIONARY
360
BBB
102
}
102
{ACAD_REACTORS
330
AB8
102
}
330
AB8
100
AcDbModelDocViewStyle
 70
     0
  3
Metric50
290
     0
100
AcDbDetailViewStyle
 70
     0
 71
     0
 90
        3
 71
     1
340
11
 62
   256
 40
5.0
340
0
 62
   256
 40
5.0
300

 40
0.0
280
     1
 71
     2
340
16
 90
       25
 62
   256
 71
     3
340
11
 62
   256
 40
5.0
 90
        0
 40
15.0
 90
        1
300
%<\AcVar ViewDetailId>% (%<\AcVar ViewScale \f "%sn">%)
 71
     4
340
16
 90
       25
 62
   256
340
16
 90
       25
 62
   256
280
     0
  0
LAYOUT
  5
1E
102
{ACAD_REACTORS
330
1A
102
}
330
1A
100
AcDbPlotSettings
  1

  2

  4

  6

 40
0.0
 41
0.0
 42
0.0
 43
0.0
 44
0.0
 45
0.0
 46
0.0
 47
0.0
 48
0.0
 49
0.0
140
0.0
141
0.0
142
1.0
143
1.0
 70
   688
 72
     0
 73
     0
 74
     5
  7

 75
    16
147
1.0
 76
     0
 77
     2
 78
   300
148
0.0
149
0.0
100
AcDbLayout
  1
Layout1
 70
     1
 71
     1
 10
-1115.687934875488
 20
-544.503345489502
 11
1284.312461853027
 21
435.4966545104979
 12
0.0
 22
0.0
 32
0.0
 14
1.000000000000000E+20
 24
1.000000000000000E+20
 34
1.000000000000000E+20
 15
-1.000000000000000E+20
 25
-1.000000000000000E+20
 35
-1.000000000000000E+20
146
0.0
 13
0.0
 23
0.0
 33
0.0
 16
1.0
 26
0.0
 36
0.0
 17
0.0
 27
1.0
 37
0.0
 76
     0
330
1B
  0
LAYOUT
  5
26
102
{ACAD_REACTORS
330
1A
102
}
330
1A
100
AcDbPlotSettings
  1

  2

  4

  6

 40
0.0
 41
0.0
 42
0.0
 43
0.0
 44
0.0
 45
0.0
 46
0.0
 47
0.0
 48
0.0
 49
0.0
140
0.0
141
0.0
142
1.0
143
1.0
 70
   688
 72
     0
 73
     0
 74
     5
  7

 75
    16
147
1.0
 76
     0
 77
     2
 78
   300
148
0.0
149
0.0
100
AcDbLayout
  1
Layout2
 70
     1
 71
     2
 10
0.0
 20
0.0
 11
0.0
 21
0.0
 12
0.0
 22
0.0
 32
0.0
 14
0.0
 24
0.0
 34
0.0
 15
0.0
 25
0.0
 35
0.0
146
0.0
 13
0.0
 23
0.0
 33
0.0
 16
1.0
 26
0.0
 36
0.0
 17
0.0
 27
1.0
 37
0.0
 76
     0
330
23
  0
LAYOUT
  5
22
102
{ACAD_REACTORS
330
1A
102
}
330
1A
100
AcDbPlotSettings
  1
111
  2
RICOH IPSiO NX860e RPCS
  4
A4
  6

 40
5.873749732971191
 41
5.873747825622557
 42
5.873748779296875
 43
5.873748779296875
 44
209.9733276367186
 45
296.9259948730469
 46
1.386062251442396
 47
0.0
 48
0.0
 49
0.0
140
0.0
141
0.0
142
1.0
143
0.9696398055180299
 70
 11956
 72
     1
 73
     1
 74
     1
  7
monochrome.ctb
 75
     0
147
1.031310796348495
 76
     0
 77
     2
 78
   300
148
138.0004818772343
149
94.51003845155714
100
AcDbLayout
  1
Model
 70
     1
 71
     0
 10
-1115.687934875488
 20
-544.503345489502
 11
1284.312461853027
 21
435.4966545104979
 12
0.0
 22
0.0
 32
0.0
 14
-1115.687934875488
 24
-544.503345489502
 34
0.0
 15
1284.312461853027
 25
435.4966545104979
 35
0.0
146
0.0
 13
0.0
 23
0.0
 33
0.0
 16
1.0
 26
0.0
 36
0.0
 17
0.0
 27
1.0
 37
0.0
 76
     0
330
1F
331
A49
1001
ACAD_PSEXT
1000
RICOH IPSiO NX860e RPCS
1000
RICOH IPSiO NX860e RPCS
1000
IP_192.168.110.192
1000
RPCS Driver (Windows 2000/XP/Server 2003/Vista)
1070
     0
  0
MATERIAL
  5
A79
102
{ACAD_XDICTIONARY
360
A7A
102
}
102
{ACAD_REACTORS
330
1A6
102
}
330
1A6
100
AcDbMaterial
  1
ByBlock
 72
     0
 43
0.0008202099737533
 43
0.0
 43
0.0
 43
0.0
 43
0.0
 43
0.0008202099737533
 43
0.0
 43
0.0
 43
0.0
 43
0.0
 43
1.0
 43
0.0
 43
0.0
 43
0.0
 43
0.0
 43
1.0
 77
     0
 47
0.0008202099737533
 47
0.0
 47
0.0
 47
0.0
 47
0.0
 47
0.0008202099737533
 47
0.0
 47
0.0
 47
0.0
 47
0.0
 47
1.0
 47
0.0
 47
0.0
 47
0.0
 47
0.0
 47
1.0
171
     0
 49
0.0008202099737533
 49
0.0
 49
0.0
 49
0.0
 49
0.0
 49
0.0008202099737533
 49
0.0
 49
0.0
 49
0.0
 49
0.0
 49
1.0
 49
0.0
 49
0.0
 49
0.0
 49
0.0
 49
1.0
175
     0
142
0.0008202099737533
142
0.0
142
0.0
142
0.0
142
0.0
142
0.0008202099737533
142
0.0
142
0.0
142
0.0
142
0.0
142
1.0
142
0.0
142
0.0
142
0.0
142
0.0
142
1.0
179
     0
144
0.0008202099737533
144
0.0
144
0.0
144
0.0
144
0.0
144
0.0008202099737533
144
0.0
144
0.0
144
0.0
144
0.0
144
1.0
144
0.0
144
0.0
144
0.0
144
0.0
144
1.0
147
0.0008202099737533
147
0.0
147
0.0
147
0.0
147
0.0
147
0.0008202099737533
147
0.0
147
0.0
147
0.0
147
0.0
147
1.0
147
0.0
147
0.0
147
0.0
147
0.0
147
1.0
  0
MATERIAL
  5
A71
102
{ACAD_XDICTIONARY
360
A72
102
}
102
{ACAD_REACTORS
330
1A6
102
}
330
1A6
100
AcDbMaterial
  1
ByLayer
 72
     0
 43
0.0008202099737533
 43
0.0
 43
0.0
 43
0.0
 43
0.0
 43
0.0008202099737533
 43
0.0
 43
0.0
 43
0.0
 43
0.0
 43
1.0
 43
0.0
 43
0.0
 43
0.0
 43
0.0
 43
1.0
 77
     0
 47
0.0008202099737533
 47
0.0
 47
0.0
 47
0.0
 47
0.0
 47
0.0008202099737533
 47
0.0
 47
0.0
 47
0.0
 47
0.0
 47
1.0
 47
0.0
 47
0.0
 47
0.0
 47
0.0
 47
1.0
171
     0
 49
0.0008202099737533
 49
0.0
 49
0.0
 49
0.0
 49
0.0
 49
0.0008202099737533
 49
0.0
 49
0.0
 49
0.0
 49
0.0
 49
1.0
 49
0.0
 49
0.0
 49
0.0
 49
0.0
 49
1.0
175
     0
142
0.0008202099737533
142
0.0
142
0.0
142
0.0
142
0.0
142
0.0008202099737533
142
0.0
142
0.0
142
0.0
142
0.0
142
1.0
142
0.0
142
0.0
142
0.0
142
0.0
142
1.0
179
     0
144
0.0008202099737533
144
0.0
144
0.0
144
0.0
144
0.0
144
0.0008202099737533
144
0.0
144
0.0
144
0.0
144
0.0
144
1.0
144
0.0
144
0.0
144
0.0
144
0.0
144
1.0
147
0.0008202099737533
147
0.0
147
0.0
147
0.0
147
0.0
147
0.0008202099737533
147
0.0
147
0.0
147
0.0
147
0.0
147
1.0
147
0.0
147
0.0
147
0.0
147
0.0
147
1.0
  0
MATERIAL
  5
A81
102
{ACAD_XDICTIONARY
360
A82
102
}
102
{ACAD_REACTORS
330
1A6
102
}
330
1A6
100
AcDbMaterial
  1
Global
 72
     0
 43
0.0008202099737533
 43
0.0
 43
0.0
 43
0.0
 43
0.0
 43
0.0008202099737533
 43
0.0
 43
0.0
 43
0.0
 43
0.0
 43
1.0
 43
0.0
 43
0.0
 43
0.0
 43
0.0
 43
1.0
 77
     0
 47
0.0008202099737533
 47
0.0
 47
0.0
 47
0.0
 47
0.0
 47
0.0008202099737533
 47
0.0
 47
0.0
 47
0.0
 47
0.0
 47
1.0
 47
0.0
 47
0.0
 47
0.0
 47
0.0
 47
1.0
171
     0
 49
0.0008202099737533
 49
0.0
 49
0.0
 49
0.0
 49
0.0
 49
0.0008202099737533
 49
0.0
 49
0.0
 49
0.0
 49
0.0
 49
1.0
 49
0.0
 49
0.0
 49
0.0
 49
0.0
 49
1.0
175
     0
142
0.0008202099737533
142
0.0
142
0.0
142
0.0
142
0.0
142
0.0008202099737533
142
0.0
142
0.0
142
0.0
142
0.0
142
1.0
142
0.0
142
0.0
142
0.0
142
0.0
142
1.0
179
     0
144
0.0008202099737533
144
0.0
144
0.0
144
0.0
144
0.0
144
0.0008202099737533
144
0.0
144
0.0
144
0.0
144
0.0
144
1.0
144
0.0
144
0.0
144
0.0
144
0.0
144
1.0
147
0.0008202099737533
147
0.0
147
0.0
147
0.0
147
0.0
147
0.0008202099737533
147
0.0
147
0.0
147
0.0
147
0.0
147
1.0
147
0.0
147
0.0
147
0.0
147
0.0
147
1.0
  0
MLEADERSTYLE
  5
AB5
102
{ACAD_REACTORS
330
AB4
102
}
330
AB4
100
AcDbMLeaderStyle
170
     2
171
     1
172
     0
 90
        2
 40
0.0
 41
0.0
173
     1
 91
-1056964608
340
14
 92
       -2
290
     1
 42
2.0
291
     1
 43
0.36
  3
Standard
 44
4.0
300

342
11
174
     1
178
     6
175
     1
176
     0
 93
-1056964608
 45
4.0
292
     0
297
     0
 46
4.0
 94
-1056964608
 47
1.0
 49
1.0
140
1.0
293
     1
141
0.0
294
     1
177
     0
142
1.0
295
     0
296
     0
143
0.125
1001
ACAD_MLEADERVER
1070
     2
  0
MLINESTYLE
  5
18
102
{ACAD_REACTORS
330
17
102
}
330
17
100
AcDbMlineStyle
  2
STANDARD
 70
     0
  3

 62
   256
 51
90.0
 52
90.0
 71
     2
 49
0.5
 62
   256
  6
BYLAYER
 49
-0.5
 62
   256
  6
BYLAYER
  0
PLOTSETTINGS
  5
97B
102
{ACAD_REACTORS
330
19
102
}
330
19
100
AcDbPlotSettings
  1
111
  2
RICOH IPSiO NX860e RPCS
  4
A4
  6

 40
5.873749732971191
 41
5.873747825622557
 42
5.873748779296875
 43
5.873748779296875
 44
209.9733276367186
 45
296.9259948730469
 46
1.382206344234629
 47
0.0
 48
0.0
 49
0.0
140
0.0
141
0.0
142
1.0
143
0.9696379639765943
 70
 11956
 72
     1
 73
     1
 74
     1
  7
monochrome.ctb
 75
     0
147
1.031312755019289
 76
     0
 77
     2
 78
   300
148
138.016006241122
149
94.51495291709916
1001
ACAD_PSEXT
1000
RICOH IPSiO NX860e RPCS
1000
RICOH IPSiO NX860e RPCS
1000
IP_192.168.110.192
1000
RPCS Driver (Windows 2000/XP/Server 2003/Vista)
1070
     0
  0
PLOTSETTINGS
  5
B6F
102
{ACAD_REACTORS
330
19
102
}
330
19
100
AcDbPlotSettings
  1
セットアップ1
  2
DWG To PDF.pc3
  4
ISO_expand_A4_(297.00_x_210.00_MM)
  6

 40
5.793749809265136
 41
10.79374980926513
 42
5.79376220703125
 43
10.79374694824219
 44
297.0
 45
210.0
 46
5.249628829452802
 47
0.0
 48
-138.0
 49
-94.50000000000001
140
138.5
141
95.0
142
1.0
143
1.005771892728943
 70
 11956
 72
     1
 73
     0
 74
     4
  7
monochrome.ctb
 75
     0
147
0.9942612308310959
 76
     0
 77
     2
 78
   300
148
138.0
149
94.50000000000001
1001
ACAD_PSEXT
1000
DWG To PDF.pc3
1000
DWG To PDF
1000
ファイル
1000

1070
     0
  0
ACDBPLACEHOLDER
  5
F
102
{ACAD_REACTORS
330
E
102
}
330
E
  0
SCALE
  5
AA3
102
{ACAD_REACTORS
330
AA2
102
}
330
AA2
100
AcDbScale
 70
     0
300
1:1
140
1.0
141
1.0
290
     1
  0
SCALE
  5
AA4
102
{ACAD_REACTORS
330
AA2
102
}
330
AA2
100
AcDbScale
 70
     0
300
1:2
140
1.0
141
2.0
290
     0
  0
SCALE
  5
AA5
102
{ACAD_REACTORS
330
AA2
102
}
330
AA2
100
AcDbScale
 70
     0
300
1:4
140
1.0
141
4.0
290
     0
  0
SCALE
  5
AA6
102
{ACAD_REACTORS
330
AA2
102
}
330
AA2
100
AcDbScale
 70
     0
300
1:5
140
1.0
141
5.0
290
     0
  0
SCALE
  5
AA7
102
{ACAD_REACTORS
330
AA2
102
}
330
AA2
100
AcDbScale
 70
     0
300
1:8
140
1.0
141
8.0
290
     0
  0
SCALE
  5
AA8
102
{ACAD_REACTORS
330
AA2
102
}
330
AA2
100
AcDbScale
 70
     0
300
1:10
140
1.0
141
10.0
290
     0
  0
SCALE
  5
AA9
102
{ACAD_REACTORS
330
AA2
102
}
330
AA2
100
AcDbScale
 70
     0
300
1:16
140
1.0
141
16.0
290
     0
  0
SCALE
  5
AAA
102
{ACAD_REACTORS
330
AA2
102
}
330
AA2
100
AcDbScale
 70
     0
300
1:20
140
1.0
141
20.0
290
     0
  0
SCALE
  5
AAB
102
{ACAD_REACTORS
330
AA2
102
}
330
AA2
100
AcDbScale
 70
     0
300
1:30
140
1.0
141
30.0
290
     0
  0
SCALE
  5
AAC
102
{ACAD_REACTORS
330
AA2
102
}
330
AA2
100
AcDbScale
 70
     0
300
1:40
140
1.0
141
40.0
290
     0
  0
SCALE
  5
AAD
102
{ACAD_REACTORS
330
AA2
102
}
330
AA2
100
AcDbScale
 70
     0
300
1:50
140
1.0
141
50.0
290
     0
  0
SCALE
  5
AAE
102
{ACAD_REACTORS
330
AA2
102
}
330
AA2
100
AcDbScale
 70
     0
300
1:100
140
1.0
141
100.0
290
     0
  0
SCALE
  5
AAF
102
{ACAD_REACTORS
330
AA2
102
}
330
AA2
100
AcDbScale
 70
     0
300
2:1
140
2.0
141
1.0
290
     0
  0
SCALE
  5
AB0
102
{ACAD_REACTORS
330
AA2
102
}
330
AA2
100
AcDbScale
 70
     0
300
4:1
140
4.0
141
1.0
290
     0
  0
SCALE
  5
AB1
102
{ACAD_REACTORS
330
AA2
102
}
330
AA2
100
AcDbScale
 70
     0
300
8:1
140
8.0
141
1.0
290
     0
  0
SCALE
  5
AB2
102
{ACAD_REACTORS
330
AA2
102
}
330
AA2
100
AcDbScale
 70
     0
300
10:1
140
10.0
141
1.0
290
     0
  0
SCALE
  5
AB3
102
{ACAD_REACTORS
330
AA2
102
}
330
AA2
100
AcDbScale
 70
     0
300
100:1
140
100.0
141
1.0
290
     0
  0
ACDBSECTIONVIEWSTYLE
  5
AB7
102
{ACAD_XDICTIONARY
360
BB9
102
}
102
{ACAD_REACTORS
330
AB6
102
}
330
AB6
100
AcDbModelDocViewStyle
 70
     0
  3
Metric50
290
     0
100
AcDbSectionViewStyle
 70
     0
 71
     0
 90
      102
 71
     1
340
11
 62
   256
 40
5.0
340
0
340
0
 62
   256
 40
5.0
300
I, O, Q, S, X, Z
 40
10.0
 90
        0
 40
2.5
 90
        0
 71
     2
340
16
 90
       25
 62
   256
340
16
 90
       50
 62
   256
 40
5.0
 40
2.5
 40
5.0
 71
     3
340
11
 62
   256
 40
5.0
 90
        0
 40
15.0
 90
        1
300
%<\AcVar ViewSectionStartId>%-%<\AcVar ViewSectionEndId>% (%<\AcVar ViewScale \f "%sn">%)
 71
     4
 62
   256
 62
   257
300
ANSI31
 40
1.0
 90
        0
290
     0
290
     0
 90
        6
 40
0.0
 40
1.570796326794896
 40
0.2617993877991494
 40
1.308996938995747
 40
-0.2617993877991494
 40
1.832595714594046
  0
TABLESTYLE
  5
1A9
102
{ACAD_XDICTIONARY
360
B79
102
}
102
{ACAD_REACTORS
330
1A8
102
}
330
1A8
100
AcDbTableStyle
  3
Standard
 70
     0
 71
     0
 40
1.5
 41
1.5
280
     0
281
     0
  7
Standard
140
4.5
170
     2
 62
     0
 63
     7
283
     0
274
    -2
284
     1
 64
     0
275
    -2
285
     1
 65
     0
276
    -2
286
     1
 66
     0
277
    -2
287
     1
 67
     0
278
    -2
288
     1
 68
     0
279
    -2
289
     1
 69
     0
  7
Standard
140
6.0
170
     5
 62
     0
 63
     7
283
     0
274
    -2
284
     1
 64
     0
275
    -2
285
     1
 65
     0
276
    -2
286
     1
 66
     0
277
    -2
287
     1
 67
     0
278
    -2
288
     1
 68
     0
279
    -2
289
     1
 69
     0
  7
Standard
140
4.5
170
     5
 62
     0
 63
     7
283
     0
274
    -2
284
     1
 64
     0
275
    -2
285
     1
 65
     0
276
    -2
286
     1
 66
     0
277
    -2
287
     1
 67
     0
278
    -2
288
     1
 68
     0
279
    -2
289
     1
 69
     0
  0
VISUALSTYLE
  5
A8F
102
{ACAD_XDICTIONARY
360
B92
102
}
102
{ACAD_REACTORS
330
A89
102
}
330
A89
100
AcDbVisualStyle
  2
2dWireframe
 70
     4
 71
     0
 72
     2
 73
     0
 90
        0
 40
-0.6
 41
-30.0
 62
     5
 63
     7
421
 16777215
 74
     1
 91
        4
 64
     7
 65
   257
 75
     1
175
     1
 42
1.0
 92
        0
 66
   257
 43
1.0
 76
     1
 77
     6
 78
     2
 67
     7
 79
     5
170
     0
171
     0
290
     0
174
     0
 93
        1
 44
0.0
173
     0
291
     0
 45
0.0
1001
ACAD
1000
AcDbSavedByObjectVersion
1070
     0
  0
VISUALSTYLE
  5
A8E
102
{ACAD_XDICTIONARY
360
B90
102
}
102
{ACAD_REACTORS
330
A89
102
}
330
A89
100
AcDbVisualStyle
  2
Basic
 70
     7
 71
     1
 72
     0
 73
     1
 90
        0
 40
-0.6
 41
-30.0
 62
     5
 63
     7
421
 16777215
 74
     0
 91
        4
 64
     7
 65
   257
 75
     1
175
     1
 42
1.0
 92
        8
 66
     7
 43
1.0
 76
     1
 77
     6
 78
     2
 67
     7
 79
     5
170
     0
171
     0
290
     0
174
     0
 93
        1
 44
0.0
173
     0
291
     1
 45
0.0
1001
ACAD
1000
AcDbSavedByObjectVersion
1070
     0
  0
VISUALSTYLE
  5
A95
102
{ACAD_XDICTIONARY
360
B9E
102
}
102
{ACAD_REACTORS
330
A89
102
}
330
A89
100
AcDbVisualStyle
  2
Brighten
 70
    12
 71
     2
 72
     2
 73
     0
 90
        0
 40
-0.6
 41
-30.0
 62
     5
 63
     7
421
 16777215
 74
     1
 91
        4
 64
     7
 65
   257
 75
     1
175
     1
 42
1.0
 92
        8
 66
     7
 43
1.0
 76
     1
 77
     6
 78
     2
 67
     7
 79
     5
170
     0
171
     0
290
     0
174
     0
 93
        1
 44
50.0
173
     0
291
     1
 45
0.0
1001
ACAD
1000
AcDbSavedByObjectVersion
1070
     0
  0
VISUALSTYLE
  5
A99
102
{ACAD_XDICTIONARY
360
BA6
102
}
102
{ACAD_REACTORS
330
A89
102
}
330
A89
100
AcDbVisualStyle
  2
ColorChange
 70
    16
 71
     2
 72
     2
 73
     3
 90
        0
 40
-0.6
 41
-30.0
 62
     5
 63
     8
421
  8421504
 74
     1
 91
        4
 64
     7
 65
   257
 75
     1
175
     1
 42
1.0
 92
        8
 66
     8
424
  8421504
 43
1.0
 76
     1
 77
     6
 78
     2
 67
     7
 79
     5
170
     0
171
     0
290
     0
174
     0
 93
        1
 44
0.0
173
     0
291
     1
 45
0.0
1001
ACAD
1000
AcDbSavedByObjectVersion
1070
     0
  0
VISUALSTYLE
  5
A92
102
{ACAD_XDICTIONARY
360
B98
102
}
102
{ACAD_REACTORS
330
A89
102
}
330
A89
100
AcDbVisualStyle
  2
Conceptual
 70
     9
 71
     3
 72
     2
 73
     0
 90
        0
 40
-0.6
 41
-30.0
 62
     5
 63
     7
421
 16777215
 74
     2
 91
        2
 64
     7
 65
   257
 75
     1
175
     1
 42
179.0
 92
        8
 66
     7
 43
1.0
 76
     1
 77
     6
 78
     2
 67
     7
 79
     3
170
     0
171
     0
290
     0
174
     0
 93
        1
 44
0.0
173
     0
291
     0
 45
0.0
1001
ACAD
1000
AcDbSavedByObjectVersion
1070
     0
  0
VISUALSTYLE
  5
A94
102
{ACAD_XDICTIONARY
360
B9C
102
}
102
{ACAD_REACTORS
330
A89
102
}
330
A89
100
AcDbVisualStyle
  2
Dim
 70
    11
 71
     2
 72
     2
 73
     0
 90
        0
 40
-0.6
 41
-30.0
 62
     5
 63
     7
421
 16777215
 74
     1
 91
        4
 64
     7
 65
   257
 75
     1
175
     1
 42
1.0
 92
        8
 66
     7
 43
1.0
 76
     1
 77
     6
 78
     2
 67
     7
 79
     5
170
     0
171
     0
290
     0
174
     0
 93
        1
 44
-50.0
173
     0
291
     1
 45
0.0
1001
ACAD
1000
AcDbSavedByObjectVersion
1070
     0
  0
VISUALSTYLE
  5
AA1
102
{ACAD_XDICTIONARY
360
BB6
102
}
102
{ACAD_REACTORS
330
A89
102
}
330
A89
100
AcDbVisualStyle
  2
EdgeColorOff
 70
    22
 71
     2
 72
     2
 73
     0
 90
        0
 40
-0.6
 41
-30.0
 62
     5
 63
     7
421
 16777215
 74
     1
 91
        4
 64
     7
 65
   257
 75
     1
175
     1
 42
1.0
 92
        8
 66
     7
 43
1.0
 76
     1
 77
     6
 78
     2
 67
     7
 79
     5
170
     0
171
     0
290
     0
174
     0
 93
        1
 44
0.0
173
     0
291
     1
 45
0.0
1001
ACAD
1000
AcDbSavedByObjectVersion
1070
     0
  0
VISUALSTYLE
  5
A98
102
{ACAD_XDICTIONARY
360
BA4
102
}
102
{ACAD_REACTORS
330
A89
102
}
330
A89
100
AcDbVisualStyle
  2
Facepattern
 70
    15
 71
     2
 72
     2
 73
     0
 90
        0
 40
-0.6
 41
-30.0
 62
     5
 63
     7
421
 16777215
 74
     1
 91
        4
 64
     7
 65
   257
 75
     1
175
     1
 42
1.0
 92
        8
 66
     7
 43
1.0
 76
     1
 77
     6
 78
     2
 67
     7
 79
     5
170
     0
171
     0
290
     0
174
     0
 93
        1
 44
0.0
173
     0
291
     1
 45
0.0
1001
ACAD
1000
AcDbSavedByObjectVersion
1070
     0
  0
VISUALSTYLE
  5
A8A
102
{ACAD_XDICTIONARY
360
B88
102
}
102
{ACAD_REACTORS
330
A89
102
}
330
A89
100
AcDbVisualStyle
  2
Flat
 70
     0
 71
     2
 72
     1
 73
     1
 90
        2
 40
-0.6
 41
30.0
 62
     5
 63
     7
421
 16777215
 74
     0
 91
        0
 64
     7
 65
   257
 75
     1
175
     1
 42
1.0
 92
        8
 66
     7
 43
1.0
 76
     1
 77
     6
 78
     2
 67
     7
 79
     5
170
     0
171
     0
290
     0
174
     0
 93
       13
 44
0.0
173
     0
291
     1
 45
0.0
1001
ACAD
1000
AcDbSavedByObjectVersion
1070
     0
  0
VISUALSTYLE
  5
A8B
102
{ACAD_XDICTIONARY
360
B8A
102
}
102
{ACAD_REACTORS
330
A89
102
}
330
A89
100
AcDbVisualStyle
  2
FlatWithEdges
 70
     1
 71
     2
 72
     1
 73
     1
 90
        2
 40
-0.6
 41
30.0
 62
     5
 63
     7
421
 16777215
 74
     1
 91
        0
 64
     7
 65
   257
 75
     1
175
     1
 42
1.0
 92
        0
 66
   257
 43
1.0
 76
     1
 77
     6
 78
     2
 67
     7
 79
     5
170
     0
171
     0
290
     0
174
     0
 93
       13
 44
0.0
173
     0
291
     1
 45
0.0
1001
ACAD
1000
AcDbSavedByObjectVersion
1070
     0
  0
VISUALSTYLE
  5
A8C
102
{ACAD_XDICTIONARY
360
B8C
102
}
102
{ACAD_REACTORS
330
A89
102
}
330
A89
100
AcDbVisualStyle
  2
Gouraud
 70
     2
 71
     2
 72
     2
 73
     1
 90
        2
 40
-0.6
 41
30.0
 62
     5
 63
     7
421
 16777215
 74
     0
 91
        0
 64
     7
 65
   257
 75
     1
175
     1
 42
1.0
 92
        0
 66
     7
 43
1.0
 76
     1
 77
     6
 78
     2
 67
     7
 79
     5
170
     0
171
     0
290
     0
174
     0
 93
       13
 44
0.0
173
     0
291
     1
 45
0.0
1001
ACAD
1000
AcDbSavedByObjectVersion
1070
     0
  0
VISUALSTYLE
  5
A8D
102
{ACAD_XDICTIONARY
360
B8E
102
}
102
{ACAD_REACTORS
330
A89
102
}
330
A89
100
AcDbVisualStyle
  2
GouraudWithEdges
 70
     3
 71
     2
 72
     2
 73
     1
 90
        2
 40
-0.6
 41
30.0
 62
     5
 63
     7
421
 16777215
 74
     1
 91
        0
 64
     7
 65
   257
 75
     1
175
     1
 42
1.0
 92
        0
 66
   257
 43
1.0
 76
     1
 77
     6
 78
     2
 67
     7
 79
     5
170
     0
171
     0
290
     0
174
     0
 93
       13
 44
0.0
173
     0
291
     1
 45
0.0
1001
ACAD
1000
AcDbSavedByObjectVersion
1070
     0
  0
VISUALSTYLE
  5
A91
102
{ACAD_XDICTIONARY
360
B96
102
}
102
{ACAD_REACTORS
330
A89
102
}
330
A89
100
AcDbVisualStyle
  2
Hidden
 70
     6
 71
     1
 72
     2
 73
     2
 90
        0
 40
-0.6
 41
-30.0
 62
     5
 63
     7
421
 16777215
 74
     2
 91
        2
 64
     7
 65
   257
 75
     2
175
     1
 42
40.0
 92
        0
 66
   257
 43
1.0
 76
     1
 77
     6
 78
     2
 67
     7
 79
     3
170
     0
171
     0
290
     0
174
     0
 93
        1
 44
0.0
173
     0
291
     0
 45
0.0
1001
ACAD
1000
AcDbSavedByObjectVersion
1070
     0
  0
VISUALSTYLE
  5
A9F
102
{ACAD_XDICTIONARY
360
BB2
102
}
102
{ACAD_REACTORS
330
A89
102
}
330
A89
100
AcDbVisualStyle
  2
JitterOff
 70
    20
 71
     2
 72
     2
 73
     0
 90
        0
 40
-0.6
 41
-30.0
 62
     5
 63
     7
421
 16777215
 74
     1
 91
        4
 64
     7
 65
   257
 75
     1
175
     1
 42
1.0
 92
       10
 66
     7
 43
1.0
 76
     1
 77
     6
 78
     2
 67
     7
 79
     5
170
     0
171
     0
290
     0
174
     0
 93
        1
 44
0.0
173
     0
291
     1
 45
0.0
1001
ACAD
1000
AcDbSavedByObjectVersion
1070
     0
  0
VISUALSTYLE
  5
A97
102
{ACAD_XDICTIONARY
360
BA2
102
}
102
{ACAD_REACTORS
330
A89
102
}
330
A89
100
AcDbVisualStyle
  2
Linepattern
 70
    14
 71
     2
 72
     2
 73
     0
 90
        0
 40
-0.6
 41
-30.0
 62
     5
 63
     7
421
 16777215
 74
     1
 91
        4
 64
     7
 65
   257
 75
     7
175
     7
 42
1.0
 92
        8
 66
     7
 43
1.0
 76
     1
 77
     6
 78
     2
 67
     7
 79
     5
170
     0
171
     0
290
     0
174
     0
 93
        1
 44
0.0
173
     0
291
     1
 45
0.0
1001
ACAD
1000
AcDbSavedByObjectVersion
1070
     0
  0
VISUALSTYLE
  5
AA0
102
{ACAD_XDICTIONARY
360
BB4
102
}
102
{ACAD_REACTORS
330
A89
102
}
330
A89
100
AcDbVisualStyle
  2
OverhangOff
 70
    21
 71
     2
 72
     2
 73
     0
 90
        0
 40
-0.6
 41
-30.0
 62
     5
 63
     7
421
 16777215
 74
     1
 91
        4
 64
     7
 65
   257
 75
     1
175
     1
 42
1.0
 92
        9
 66
     7
 43
1.0
 76
     1
 77
     6
 78
     2
 67
     7
 79
     5
170
     0
171
     0
290
     0
174
     0
 93
        1
 44
0.0
173
     0
291
     1
 45
0.0
1001
ACAD
1000
AcDbSavedByObjectVersion
1070
     0
  0
VISUALSTYLE
  5
A93
102
{ACAD_XDICTIONARY
360
B9A
102
}
102
{ACAD_REACTORS
330
A89
102
}
330
A89
100
AcDbVisualStyle
  2
Realistic
 70
     8
 71
     2
 72
     3
 73
     0
 90
        2
 40
-0.6
 41
30.0
 62
     5
 63
     7
421
 16777215
 74
     0
 91
        0
 64
     7
 65
   257
 75
     1
175
     1
 42
1.0
 92
        8
 66
   257
 43
1.0
 76
     1
 77
     6
 78
     2
 67
     7
 79
     3
170
     0
171
     0
290
     0
174
     0
 93
       13
 44
0.0
173
     0
291
     0
 45
0.0
1001
ACAD
1000
AcDbSavedByObjectVersion
1070
     0
  0
VISUALSTYLE
  5
A9E
102
{ACAD_XDICTIONARY
360
BB0
102
}
102
{ACAD_REACTORS
330
A89
102
}
330
A89
100
AcDbVisualStyle
  2
Shaded
 70
    27
 71
     2
 72
     2
 73
     1
 90
        2
 40
-0.6
 41
30.0
 62
     5
 63
     7
421
 16777215
 74
     0
 91
        4
 64
     7
 65
   257
 75
     1
175
     1
 42
1.0
 92
        8
 66
   257
 43
1.0
 76
     1
 77
     6
 78
     2
 67
     8
425
  7895160
 79
     3
170
     0
171
     0
290
     0
174
     0
 93
        5
 44
0.0
173
     0
291
     0
 45
0.0
1001
ACAD
1000
AcDbSavedByObjectVersion
1070
     0
  0
VISUALSTYLE
  5
A9D
102
{ACAD_XDICTIONARY
360
BAE
102
}
102
{ACAD_REACTORS
330
A89
102
}
330
A89
100
AcDbVisualStyle
  2
Shaded with edges
 70
    26
 71
     2
 72
     2
 73
     1
 90
        2
 40
-0.6
 41
30.0
 62
     5
 63
     7
421
 16777215
 74
     1
 91
       10
 64
     7
 65
   257
 75
     2
175
     1
 42
1.0
 92
        8
 66
   257
 43
1.0
 76
     1
 77
     6
 78
     2
 67
     7
 79
     3
170
     0
171
     0
290
     0
174
     0
 93
        5
 44
0.0
173
     0
291
     0
 45
0.0
1001
ACAD
1000
AcDbSavedByObjectVersion
1070
     0
  0
VISUALSTYLE
  5
A9A
102
{ACAD_XDICTIONARY
360
BA8
102
}
102
{ACAD_REACTORS
330
A89
102
}
330
A89
100
AcDbVisualStyle
  2
Shades of Gray
 70
    23
 71
     2
 72
     2
 73
     3
 90
        0
 40
-0.6
 41
-30.0
 62
     5
 63
     7
421
 16777215
 74
     2
 91
        2
 64
     7
 65
     7
 75
     1
175
     1
 42
40.0
 92
        8
 66
     7
 43
1.0
 76
     1
 77
     6
 78
     2
 67
     7
 79
     3
170
     0
171
     0
290
     0
174
     0
 93
        1
 44
0.0
173
     0
291
     0
 45
0.0
1001
ACAD
1000
AcDbSavedByObjectVersion
1070
     0
  0
VISUALSTYLE
  5
A9B
102
{ACAD_XDICTIONARY
360
BAA
102
}
102
{ACAD_REACTORS
330
A89
102
}
330
A89
100
AcDbVisualStyle
  2
Sketchy
 70
    24
 71
     1
 72
     2
 73
     2
 90
        0
 40
-0.6
 41
-30.0
 62
     5
 63
     7
421
 16777215
 74
     2
 91
        2
 64
     7
 65
     7
 75
     1
175
     1
 42
40.0
 92
       11
 66
     7
 43
1.0
 76
     1
 77
     6
 78
     2
 67
     7
 79
     6
170
     0
171
     0
290
     0
174
     0
 93
        1
 44
0.0
173
     0
291
     0
 45
0.0
1001
ACAD
1000
AcDbSavedByObjectVersion
1070
     0
  0
VISUALSTYLE
  5
A96
102
{ACAD_XDICTIONARY
360
BA0
102
}
102
{ACAD_REACTORS
330
A89
102
}
330
A89
100
AcDbVisualStyle
  2
Thicken
 70
    13
 71
     2
 72
     2
 73
     0
 90
        0
 40
-0.6
 41
-30.0
 62
     5
 63
     7
421
 16777215
 74
     1
 91
        4
 64
     7
 65
   257
 75
     1
175
     1
 42
1.0
 92
       12
 66
     7
 43
1.0
 76
     1
 77
     6
 78
     2
 67
     7
 79
     5
170
     0
171
     0
290
     0
174
     0
 93
        1
 44
0.0
173
     0
291
     1
 45
0.0
1001
ACAD
1000
AcDbSavedByObjectVersion
1070
     0
  0
VISUALSTYLE
  5
A90
102
{ACAD_XDICTIONARY
360
B94
102
}
102
{ACAD_REACTORS
330
A89
102
}
330
A89
100
AcDbVisualStyle
  2
Wireframe
 70
     5
 71
     0
 72
     2
 73
     0
 90
        0
 40
-0.6
 41
-30.0
 62
     5
 63
     7
421
 16777215
 74
     1
 91
        4
 64
     7
 65
   257
 75
     1
175
     1
 42
1.0
 92
        0
 66
   257
 43
1.0
 76
     1
 77
     6
 78
     2
 67
     7
 79
     3
170
     0
171
     0
290
     0
174
     0
 93
        1
 44
0.0
173
     0
291
     0
 45
0.0
1001
ACAD
1000
AcDbSavedByObjectVersion
1070
     0
  0
VISUALSTYLE
  5
A9C
102
{ACAD_XDICTIONARY
360
BAC
102
}
102
{ACAD_REACTORS
330
A89
102
}
330
A89
100
AcDbVisualStyle
  2
X-Ray
 70
    25
 71
     2
 72
     2
 73
     1
 90
        1
 40
0.5
 41
-30.0
 62
     5
 63
     7
421
 16777215
 74
     1
 91
        0
 64
     7
 65
   257
 75
     1
175
     1
 42
1.0
 92
        8
 66
     7
 43
1.0
 76
     1
 77
     6
 78
     2
 67
     7
 79
     3
170
     0
171
     0
290
     0
174
     0
 93
       13
 44
0.0
173
     0
291
     0
 45
0.0
1001
ACAD
1000
AcDbSavedByObjectVersion
1070
     0
  0
DICTIONARYVAR
  5
B10
102
{ACAD_REACTORS
330
1AE
102
}
330
1AE
100
DictionaryVariables
280
     0
  1
1:1
  0
DICTIONARYVAR
  5
B0C
102
{ACAD_REACTORS
330
1AE
102
}
330
1AE
100
DictionaryVariables
280
     0
  1
STANDARD
  0
DICTIONARYVAR
  5
1AF
102
{ACAD_REACTORS
330
1AE
102
}
330
1AE
100
DictionaryVariables
280
     0
  1
STANDARD
  0
DICTIONARYVAR
  5
B0D
102
{ACAD_REACTORS
330
1AE
102
}
330
1AE
100
DictionaryVariables
280
     0
  1
Metric50
  0
DICTIONARYVAR
  5
B0E
102
{ACAD_REACTORS
330
1AE
102
}
330
1AE
100
DictionaryVariables
280
     0
  1
Metric50
  0
DICTIONARYVAR
  5
1DE
102
{ACAD_REACTORS
330
1AE
102
}
330
1AE
100
DictionaryVariables
280
     0
  1
1
  0
DICTIONARYVAR
  5
B12
102
{ACAD_REACTORS
330
1AE
102
}
330
1AE
100
DictionaryVariables
280
     0
  1
1
  0
DICTIONARYVAR
  5
B13
102
{ACAD_REACTORS
330
1AE
102
}
330
1AE
100
DictionaryVariables
280
     0
  1
15
  0
DICTIONARYVAR
  5
B11
102
{ACAD_REACTORS
330
1AE
102
}
330
1AE
100
DictionaryVariables
280
     0
  1
0
  0
DICTIONARYVAR
  5
B0F
102
{ACAD_REACTORS
330
1AE
102
}
330
1AE
100
DictionaryVariables
280
     0
  1
0
  0
DICTIONARYVAR
  5
1DF
102
{ACAD_REACTORS
330
1AE
102
}
330
1AE
100
DictionaryVariables
280
     0
  1

  0
DICTIONARYVAR
  5
B78
102
{ACAD_REACTORS
330
1AE
102
}
330
1AE
100
DictionaryVariables
280
     0
  1
2
  0
DICTIONARY
  5
BBB
330
AB9
100
AcDbDictionary
280
     1
281
     1
  3
ACAD_XREC_ROUNDTRIP
360
BBC
  0
DICTIONARY
  5
A7A
330
A79
100
AcDbDictionary
280
     1
281
     1
  3
ACAD_XREC_ROUNDTRIP
360
B86
  3
BUMPTILE
360
A7C
  3
DIFFUSETILE
360
A7B
  3
OPACITYTILE
360
A7F
  3
REFLECTIONTILE
360
A7E
  3
REFRACTIONTILE
360
A80
  3
SPECULARTILE
360
A7D
  0
DICTIONARY
  5
A72
330
A71
100
AcDbDictionary
280
     1
281
     1
  3
ACAD_XREC_ROUNDTRIP
360
B85
  3
BUMPTILE
360
A74
  3
DIFFUSETILE
360
A73
  3
OPACITYTILE
360
A77
  3
REFLECTIONTILE
360
A76
  3
REFRACTIONTILE
360
A78
  3
SPECULARTILE
360
A75
  0
DICTIONARY
  5
A82
330
A81
100
AcDbDictionary
280
     1
281
     1
  3
ACAD_XREC_ROUNDTRIP
360
B87
  3
BUMPTILE
360
A84
  3
DIFFUSETILE
360
A83
  3
OPACITYTILE
360
A87
  3
REFLECTIONTILE
360
A86
  3
REFRACTIONTILE
360
A88
  3
SPECULARTILE
360
A85
  0
DICTIONARY
  5
BB9
330
AB7
100
AcDbDictionary
280
     1
281
     1
  3
ACAD_XREC_ROUNDTRIP
360
BBA
  0
DICTIONARY
  5
B79
330
1A9
100
AcDbDictionary
280
     1
281
     1
  3
ACAD_ROUNDTRIP_2008_TABLESTYLE_CELLSTYLEMAP
360
B7A
  3
ACAD_XREC_ROUNDTRIP
360
B7E
  0
DICTIONARY
  5
B92
330
A8F
100
AcDbDictionary
280
     1
281
     1
  3
ACAD_XREC_ROUNDTRIP
360
B93
  0
DICTIONARY
  5
B90
330
A8E
100
AcDbDictionary
280
     1
281
     1
  3
ACAD_XREC_ROUNDTRIP
360
B91
  0
DICTIONARY
  5
B9E
330
A95
100
AcDbDictionary
280
     1
281
     1
  3
ACAD_XREC_ROUNDTRIP
360
B9F
  0
DICTIONARY
  5
BA6
330
A99
100
AcDbDictionary
280
     1
281
     1
  3
ACAD_XREC_ROUNDTRIP
360
BA7
  0
DICTIONARY
  5
B98
330
A92
100
AcDbDictionary
280
     1
281
     1
  3
ACAD_XREC_ROUNDTRIP
360
B99
  0
DICTIONARY
  5
B9C
330
A94
100
AcDbDictionary
280
     1
281
     1
  3
ACAD_XREC_ROUNDTRIP
360
B9D
  0
DICTIONARY
  5
BB6
330
AA1
100
AcDbDictionary
280
     1
281
     1
  3
ACAD_XREC_ROUNDTRIP
360
BB7
  0
DICTIONARY
  5
BA4
330
A98
100
AcDbDictionary
280
     1
281
     1
  3
ACAD_XREC_ROUNDTRIP
360
BA5
  0
DICTIONARY
  5
B88
330
A8A
100
AcDbDictionary
280
     1
281
     1
  3
ACAD_XREC_ROUNDTRIP
360
B89
  0
DICTIONARY
  5
B8A
330
A8B
100
AcDbDictionary
280
     1
281
     1
  3
ACAD_XREC_ROUNDTRIP
360
B8B
  0
DICTIONARY
  5
B8C
330
A8C
100
AcDbDictionary
280
     1
281
     1
  3
ACAD_XREC_ROUNDTRIP
360
B8D
  0
DICTIONARY
  5
B8E
330
A8D
100
AcDbDictionary
280
     1
281
     1
  3
ACAD_XREC_ROUNDTRIP
360
B8F
  0
DICTIONARY
  5
B96
330
A91
100
AcDbDictionary
280
     1
281
     1
  3
ACAD_XREC_ROUNDTRIP
360
B97
  0
DICTIONARY
  5
BB2
330
A9F
100
AcDbDictionary
280
     1
281
     1
  3
ACAD_XREC_ROUNDTRIP
360
BB3
  0
DICTIONARY
  5
BA2
330
A97
100
AcDbDictionary
280
     1
281
     1
  3
ACAD_XREC_ROUNDTRIP
360
BA3
  0
DICTIONARY
  5
BB4
330
AA0
100
AcDbDictionary
280
     1
281
     1
  3
ACAD_XREC_ROUNDTRIP
360
BB5
  0
DICTIONARY
  5
B9A
330
A93
100
AcDbDictionary
280
     1
281
     1
  3
ACAD_XREC_ROUNDTRIP
360
B9B
  0
DICTIONARY
  5
BB0
330
A9E
100
AcDbDictionary
280
     1
281
     1
  3
ACAD_XREC_ROUNDTRIP
360
BB1
  0
DICTIONARY
  5
BAE
330
A9D
100
AcDbDictionary
280
     1
281
     1
  3
ACAD_XREC_ROUNDTRIP
360
BAF
  0
DICTIONARY
  5
BA8
330
A9A
100
AcDbDictionary
280
     1
281
     1
  3
ACAD_XREC_ROUNDTRIP
360
BA9
  0
DICTIONARY
  5
BAA
330
A9B
100
AcDbDictionary
280
     1
281
     1
  3
ACAD_XREC_ROUNDTRIP
360
BAB
  0
DICTIONARY
  5
BA0
330
A96
100
AcDbDictionary
280
     1
281
     1
  3
ACAD_XREC_ROUNDTRIP
360
BA1
  0
DICTIONARY
  5
B94
330
A90
100
AcDbDictionary
280
     1
281
     1
  3
ACAD_XREC_ROUNDTRIP
360
B95
  0
DICTIONARY
  5
BAC
330
A9C
100
AcDbDictionary
280
     1
281
     1
  3
ACAD_XREC_ROUNDTRIP
360
BAD
  0
XRECORD
  5
BBC
102
{ACAD_REACTORS
330
BBB
102
}
330
BBB
100
AcDbXrecord
280
     1
102
DISPLAYNAME
  1
Metric50
102
FLAGS
 90
        0
  0
XRECORD
  5
B86
102
{ACAD_REACTORS
330
A7A
102
}
330
A7A
100
AcDbXrecord
280
     1
102
MATERIAL
148
0.0
149
0.0
149
0.0
 93
        0
 94
      127
282
     0
 72
     0
 77
     0
171
     0
175
     0
179
     0
273
     0
  0
XRECORD
  5
A7C
102
{ACAD_REACTORS
330
A7A
102
}
330
A7A
100
AcDbXrecord
280
     1
270
     1
271
     1
  0
XRECORD
  5
A7B
102
{ACAD_REACTORS
330
A7A
102
}
330
A7A
100
AcDbXrecord
280
     1
270
     1
271
     1
  0
XRECORD
  5
A7F
102
{ACAD_REACTORS
330
A7A
102
}
330
A7A
100
AcDbXrecord
280
     1
270
     1
271
     1
  0
XRECORD
  5
A7E
102
{ACAD_REACTORS
330
A7A
102
}
330
A7A
100
AcDbXrecord
280
     1
270
     1
271
     1
  0
XRECORD
  5
A80
102
{ACAD_REACTORS
330
A7A
102
}
330
A7A
100
AcDbXrecord
280
     1
270
     1
271
     1
  0
XRECORD
  5
A7D
102
{ACAD_REACTORS
330
A7A
102
}
330
A7A
100
AcDbXrecord
280
     1
270
     1
271
     1
  0
XRECORD
  5
B85
102
{ACAD_REACTORS
330
A72
102
}
330
A72
100
AcDbXrecord
280
     1
102
MATERIAL
148
0.0
149
0.0
149
0.0
 93
        0
 94
      127
282
     0
 72
     0
 77
     0
171
     0
175
     0
179
     0
273
     0
  0
XRECORD
  5
A74
102
{ACAD_REACTORS
330
A72
102
}
330
A72
100
AcDbXrecord
280
     1
270
     1
271
     1
  0
XRECORD
  5
A73
102
{ACAD_REACTORS
330
A72
102
}
330
A72
100
AcDbXrecord
280
     1
270
     1
271
     1
  0
XRECORD
  5
A77
102
{ACAD_REACTORS
330
A72
102
}
330
A72
100
AcDbXrecord
280
     1
270
     1
271
     1
  0
XRECORD
  5
A76
102
{ACAD_REACTORS
330
A72
102
}
330
A72
100
AcDbXrecord
280
     1
270
     1
271
     1
  0
XRECORD
  5
A78
102
{ACAD_REACTORS
330
A72
102
}
330
A72
100
AcDbXrecord
280
     1
270
     1
271
     1
  0
XRECORD
  5
A75
102
{ACAD_REACTORS
330
A72
102
}
330
A72
100
AcDbXrecord
280
     1
270
     1
271
     1
  0
XRECORD
  5
B87
102
{ACAD_REACTORS
330
A82
102
}
330
A82
100
AcDbXrecord
280
     1
102
MATERIAL
148
0.0
149
0.0
149
0.0
 93
        0
 94
      127
282
     0
 72
     0
 77
     0
171
     0
175
     0
179
     0
273
     0
  0
XRECORD
  5
A84
102
{ACAD_REACTORS
330
A82
102
}
330
A82
100
AcDbXrecord
280
     1
270
     1
271
     1
  0
XRECORD
  5
A83
102
{ACAD_REACTORS
330
A82
102
}
330
A82
100
AcDbXrecord
280
     1
270
     1
271
     1
  0
XRECORD
  5
A87
102
{ACAD_REACTORS
330
A82
102
}
330
A82
100
AcDbXrecord
280
     1
270
     1
271
     1
  0
XRECORD
  5
A86
102
{ACAD_REACTORS
330
A82
102
}
330
A82
100
AcDbXrecord
280
     1
270
     1
271
     1
  0
XRECORD
  5
A88
102
{ACAD_REACTORS
330
A82
102
}
330
A82
100
AcDbXrecord
280
     1
270
     1
271
     1
  0
XRECORD
  5
A85
102
{ACAD_REACTORS
330
A82
102
}
330
A82
100
AcDbXrecord
280
     1
270
     1
271
     1
  0
XRECORD
  5
BBA
102
{ACAD_REACTORS
330
BB9
102
}
330
BB9
100
AcDbXrecord
280
     1
102
DISPLAYNAME
  1
Metric50
102
FLAGS
 90
        0
  0
CELLSTYLEMAP
  5
B7A
102
{ACAD_REACTORS
330
B79
102
}
330
B79
100
AcDbCellStyleMap
 90
        3
300
CELLSTYLE
  1
TABLEFORMAT_BEGIN
 90
        5
170
     1
 91
        0
 92
    32768
 62
   257
 93
        1
300
CONTENTFORMAT
  1
CONTENTFORMAT_BEGIN
 90
        0
 91
        0
 92
        4
 93
        0
300

 40
0.0
140
1.0
 94
        5
 62
     0
340
11
144
6.0
309
CONTENTFORMAT_END
171
     1
301
MARGIN
  1
CELLMARGIN_BEGIN
 40
1.5
 40
1.5
 40
1.5
 40
1.5
 40
0.18
 40
0.18
309
CELLMARGIN_END
 94
        6
 95
        1
302
GRIDFORMAT
  1
GRIDFORMAT_BEGIN
 90
        0
 91
        1
 62
     0
 92
       -2
340
0
 93
        0
 40
0.045
309
GRIDFORMAT_END
 95
        2
302
GRIDFORMAT
  1
GRIDFORMAT_BEGIN
 90
        0
 91
        1
 62
     0
 92
       -2
340
0
 93
        0
 40
0.045
309
GRIDFORMAT_END
 95
        4
302
GRIDFORMAT
  1
GRIDFORMAT_BEGIN
 90
        0
 91
        1
 62
     0
 92
       -2
340
0
 93
        0
 40
0.045
309
GRIDFORMAT_END
 95
        8
302
GRIDFORMAT
  1
GRIDFORMAT_BEGIN
 90
        0
 91
        1
 62
     0
 92
       -2
340
0
 93
        0
 40
0.045
309
GRIDFORMAT_END
 95
       16
302
GRIDFORMAT
  1
GRIDFORMAT_BEGIN
 90
        0
 91
        1
 62
     0
 92
       -2
340
0
 93
        0
 40
0.045
309
GRIDFORMAT_END
 95
       32
302
GRIDFORMAT
  1
GRIDFORMAT_BEGIN
 90
        0
 91
        1
 62
     0
 92
       -2
340
0
 93
        0
 40
0.045
309
GRIDFORMAT_END
309
TABLEFORMAT_END
  1
CELLSTYLE_BEGIN
 90
        1
 91
        1
300
_TITLE
309
CELLSTYLE_END
300
CELLSTYLE
  1
TABLEFORMAT_BEGIN
 90
        5
170
     1
 91
        0
 92
        0
 62
   257
 93
        1
300
CONTENTFORMAT
  1
CONTENTFORMAT_BEGIN
 90
        0
 91
        0
 92
        4
 93
        0
300

 40
0.0
140
1.0
 94
        5
 62
     0
340
11
144
4.5
309
CONTENTFORMAT_END
171
     1
301
MARGIN
  1
CELLMARGIN_BEGIN
 40
1.5
 40
1.5
 40
1.5
 40
1.5
 40
0.18
 40
0.18
309
CELLMARGIN_END
 94
        6
 95
        1
302
GRIDFORMAT
  1
GRIDFORMAT_BEGIN
 90
        0
 91
        1
 62
     0
 92
       -2
340
0
 93
        0
 40
0.045
309
GRIDFORMAT_END
 95
        2
302
GRIDFORMAT
  1
GRIDFORMAT_BEGIN
 90
        0
 91
        1
 62
     0
 92
       -2
340
0
 93
        0
 40
0.045
309
GRIDFORMAT_END
 95
        4
302
GRIDFORMAT
  1
GRIDFORMAT_BEGIN
 90
        0
 91
        1
 62
     0
 92
       -2
340
0
 93
        0
 40
0.045
309
GRIDFORMAT_END
 95
        8
302
GRIDFORMAT
  1
GRIDFORMAT_BEGIN
 90
        0
 91
        1
 62
     0
 92
       -2
340
0
 93
        0
 40
0.045
309
GRIDFORMAT_END
 95
       16
302
GRIDFORMAT
  1
GRIDFORMAT_BEGIN
 90
        0
 91
        1
 62
     0
 92
       -2
340
0
 93
        0
 40
0.045
309
GRIDFORMAT_END
 95
       32
302
GRIDFORMAT
  1
GRIDFORMAT_BEGIN
 90
        0
 91
        1
 62
     0
 92
       -2
340
0
 93
        0
 40
0.045
309
GRIDFORMAT_END
309
TABLEFORMAT_END
  1
CELLSTYLE_BEGIN
 90
        2
 91
        1
300
_HEADER
309
CELLSTYLE_END
300
CELLSTYLE
  1
TABLEFORMAT_BEGIN
 90
        5
170
     1
 91
        0
 92
        0
 62
   257
 93
        1
300
CONTENTFORMAT
  1
CONTENTFORMAT_BEGIN
 90
        0
 91
        0
 92
        4
 93
        0
300

 40
0.0
140
1.0
 94
        2
 62
     0
340
11
144
4.5
309
CONTENTFORMAT_END
171
     1
301
MARGIN
  1
CELLMARGIN_BEGIN
 40
1.5
 40
1.5
 40
1.5
 40
1.5
 40
0.18
 40
0.18
309
CELLMARGIN_END
 94
        6
 95
        1
302
GRIDFORMAT
  1
GRIDFORMAT_BEGIN
 90
        0
 91
        1
 62
     0
 92
       -2
340
0
 93
        0
 40
0.045
309
GRIDFORMAT_END
 95
        2
302
GRIDFORMAT
  1
GRIDFORMAT_BEGIN
 90
        0
 91
        1
 62
     0
 92
       -2
340
0
 93
        0
 40
0.045
309
GRIDFORMAT_END
 95
        4
302
GRIDFORMAT
  1
GRIDFORMAT_BEGIN
 90
        0
 91
        1
 62
     0
 92
       -2
340
0
 93
        0
 40
0.045
309
GRIDFORMAT_END
 95
        8
302
GRIDFORMAT
  1
GRIDFORMAT_BEGIN
 90
        0
 91
        1
 62
     0
 92
       -2
340
0
 93
        0
 40
0.045
309
GRIDFORMAT_END
 95
       16
302
GRIDFORMAT
  1
GRIDFORMAT_BEGIN
 90
        0
 91
        1
 62
     0
 92
       -2
340
0
 93
        0
 40
0.045
309
GRIDFORMAT_END
 95
       32
302
GRIDFORMAT
  1
GRIDFORMAT_BEGIN
 90
        0
 91
        1
 62
     0
 92
       -2
340
0
 93
        0
 40
0.045
309
GRIDFORMAT_END
309
TABLEFORMAT_END
  1
CELLSTYLE_BEGIN
 90
        3
 91
        2
300
_DATA
309
CELLSTYLE_END
  0
XRECORD
  5
B7E
102
{ACAD_REACTORS
330
B79
102
}
330
B79
100
AcDbXrecord
280
     1
102
ACAD_ROUNDTRIP_PRE2007_TABLESTYLE
 90
        4
 91
        0
  1

 92
        4
 93
        0
  2

 94
        4
 95
        0
  3

  0
XRECORD
  5
B93
102
{ACAD_REACTORS
330
B92
102
}
330
B92
100
AcDbXrecord
280
     1
102
RTVSPost2010Prop28
280
     1
102
RTVSPost2010PropOp28
 70
     1
102
RTVSPost2010Prop29
280
     1
102
RTVSPost2010PropOp29
 70
     1
102
RTVSPost2010Prop30
280
     0
102
RTVSPost2010PropOp30
 70
     1
102
RTVSPost2010Prop31
280
     0
102
RTVSPost2010PropOp31
 70
     1
102
RTVSPost2010Prop32
280
     0
102
RTVSPost2010PropOp32
 70
     1
102
RTVSPost2010Prop33
280
     0
102
RTVSPost2010PropOp33
 70
     1
102
RTVSPost2010Prop34
280
     0
102
RTVSPost2010PropOp34
 70
     1
102
RTVSPost2010Prop35
280
     0
102
RTVSPost2010PropOp35
 70
     1
102
RTVSPost2010Prop36
280
     0
102
RTVSPost2010PropOp36
 70
     1
102
RTVSPost2010Prop37
 90
       50
102
RTVSPost2010PropOp37
 70
     1
102
RTVSPost2010Prop38
140
0.0
102
RTVSPost2010PropOp38
 70
     1
102
RTVSPost2010Prop39
140
1.0
102
RTVSPost2010PropOp39
 70
     1
102
RTVSPost2010Prop40
 90
        0
102
RTVSPost2010PropOp40
 70
     1
102
RTVSPost2010Prop41ColorIndex
 90
       18
102
RTVSPost2010Prop41ColorRGB
 90
        0
102
RTVSPost2010PropOp41
 70
     1
102
RTVSPost2010Prop42
 90
       50
102
RTVSPost2010PropOp42
 70
     1
102
RTVSPost2010Prop43
 90
        3
102
RTVSPost2010PropOp43
 70
     1
102
RTVSPost2010Prop44ColorIndex
 90
        5
102
RTVSPost2010Prop44ColorRGB
 90
      255
102
RTVSPost2010PropOp44
 70
     1
102
RTVSPost2010Prop45
280
     0
102
RTVSPost2010PropOp45
 70
     1
102
RTVSPost2010Prop46
 90
       50
102
RTVSPost2010PropOp46
 70
     1
102
RTVSPost2010Prop47
 90
       50
102
RTVSPost2010PropOp47
 70
     1
102
RTVSPost2010Prop48
 90
       50
102
RTVSPost2010PropOp48
 70
     1
102
RTVSPost2010Prop49
280
     0
102
RTVSPost2010PropOp49
 70
     1
102
RTVSPost2010Prop50
 90
       50
102
RTVSPost2010PropOp50
 70
     1
102
RTVSPost2010Prop51ColorIndex
 90
      256
102
RTVSPost2010Prop51ColorRGB
 90
-16777216
102
RTVSPost2010PropOp51
 70
     0
102
RTVSPost2010Prop52
140
1.0
102
RTVSPost2010PropOp52
 70
     0
102
RTVSPost2010Prop53
 90
        2
102
RTVSPost2010PropOp53
 70
     1
102
RTVSPost2010Prop54
  1
strokes_ogs.tif
102
RTVSPost2010PropOp54
 70
     1
102
RTVSPost2010Prop55
280
     0
102
RTVSPost2010PropOp55
 70
     1
102
RTVSPost2010Prop56
140
1.0
102
RTVSPost2010PropOp56
 70
     1
102
RTVSPost2010Prop57
140
1.0
102
RTVSPost2010PropOp57
 70
     1
102
RTVSPropertyOp0
 70
     1
102
RTVSPropertyOp1
 70
     1
102
RTVSPropertyOp2
 70
     1
102
RTVSPropertyOp3
 70
     1
102
RTVSPropertyOp4
 70
     1
102
RTVSPropertyOp5
 70
     1
102
RTVSPropertyOp6
 70
     1
102
RTVSPropertyOp7
 70
     1
102
RTVSPropertyOp8
 70
     1
102
RTVSPropertyOp9
 70
     1
102
RTVSPropertyOp10
 70
     1
102
RTVSPropertyOp11
 70
     1
102
RTVSPropertyOp12
 70
     1
102
RTVSPropertyOp13
 70
     1
102
RTVSPropertyOp14
 70
     1
102
RTVSPropertyOp15
 70
     1
102
RTVSPropertyOp16
 70
     1
102
RTVSPropertyOp17
 70
     1
102
RTVSPropertyOp18
 70
     1
102
RTVSPropertyOp19
 70
     1
102
RTVSPropertyOp20
 70
     1
102
RTVSPropertyOp21
 70
     1
102
RTVSPropertyOp22
 70
     1
102
RTVSPropertyOp23
 70
     1
102
RTVSPropertyOp24
 70
     1
102
RTVSPropertyOp25
 70
     1
102
RTVSPropertyOp26
 70
     1
102
RTVSPropertyOp27
 70
     1
102
RTVSPropertyOp28
 70
     1
102
RTVSPropertyOp29
 70
     1
102
RTVSPropertyOp30
 70
     1
102
RTVSPropertyOp31
 70
     1
102
RTVSPropertyOp32
 70
     1
102
RTVSPropertyOp33
 70
     1
102
RTVSPropertyOp34
 70
     1
102
RTVSPropertyOp35
 70
     1
102
RTVSPropertyOp36
 70
     1
102
RTVSPropertyOp37
 70
     1
102
RTVSPropertyOp38
 70
     1
102
RTVSPropertyOp39
 70
     1
102
RTVSPropertyOp40
 70
     1
102
RTVSPropertyOp41
 70
     1
102
RTVSPropertyOp42
 70
     1
102
RTVSPropertyOp43
 70
     1
102
RTVSPropertyOp44
 70
     1
102
RTVSPropertyOp45
 70
     1
102
RTVSPropertyOp46
 70
     1
102
RTVSPropertyOp47
 70
     1
102
RTVSPropertyOp48
 70
     1
102
RTVSPropertyOp49
 70
     1
102
RTVSPropertyOp50
 70
     1
102
RTVSPropertyOp51
 70
     0
102
RTVSPropertyOp52
 70
     0
102
RTVSPropertyOp53
 70
     1
102
RTVSPropertyOp54
 70
     1
102
RTVSPropertyOp55
 70
     1
102
RTVSPropertyOp56
 70
     1
102
RTVSPropertyOp57
 70
     1
102
RTVSPropertyOp58
 70
     1
102
RTVSPropertyOp59
 70
     1
102
RTVSPropertyOp60
 70
     1
102
RTVSPropertyOp61
 70
     1
102
RTVSPropertyOp62
 70
     1
  0
XRECORD
  5
B91
102
{ACAD_REACTORS
330
B90
102
}
330
B90
100
AcDbXrecord
280
     1
102
RTVSPost2010Prop28
280
     0
102
RTVSPost2010PropOp28
 70
     1
102
RTVSPost2010Prop29
280
     1
102
RTVSPost2010PropOp29
 70
     1
102
RTVSPost2010Prop30
280
     1
102
RTVSPost2010PropOp30
 70
     1
102
RTVSPost2010Prop31
280
     0
102
RTVSPost2010PropOp31
 70
     1
102
RTVSPost2010Prop32
280
     0
102
RTVSPost2010PropOp32
 70
     1
102
RTVSPost2010Prop33
280
     0
102
RTVSPost2010PropOp33
 70
     1
102
RTVSPost2010Prop34
280
     0
102
RTVSPost2010PropOp34
 70
     1
102
RTVSPost2010Prop35
280
     0
102
RTVSPost2010PropOp35
 70
     1
102
RTVSPost2010Prop36
280
     0
102
RTVSPost2010PropOp36
 70
     1
102
RTVSPost2010Prop37
 90
       50
102
RTVSPost2010PropOp37
 70
     1
102
RTVSPost2010Prop38
140
0.0
102
RTVSPost2010PropOp38
 70
     1
102
RTVSPost2010Prop39
140
1.0
102
RTVSPost2010PropOp39
 70
     1
102
RTVSPost2010Prop40
 90
        0
102
RTVSPost2010PropOp40
 70
     1
102
RTVSPost2010Prop41ColorIndex
 90
       18
102
RTVSPost2010Prop41ColorRGB
 90
        0
102
RTVSPost2010PropOp41
 70
     1
102
RTVSPost2010Prop42
 90
       50
102
RTVSPost2010PropOp42
 70
     1
102
RTVSPost2010Prop43
 90
        3
102
RTVSPost2010PropOp43
 70
     1
102
RTVSPost2010Prop44ColorIndex
 90
        5
102
RTVSPost2010Prop44ColorRGB
 90
      255
102
RTVSPost2010PropOp44
 70
     1
102
RTVSPost2010Prop45
280
     0
102
RTVSPost2010PropOp45
 70
     1
102
RTVSPost2010Prop46
 90
       50
102
RTVSPost2010PropOp46
 70
     1
102
RTVSPost2010Prop47
 90
       50
102
RTVSPost2010PropOp47
 70
     1
102
RTVSPost2010Prop48
 90
       50
102
RTVSPost2010PropOp48
 70
     1
102
RTVSPost2010Prop49
280
     0
102
RTVSPost2010PropOp49
 70
     1
102
RTVSPost2010Prop50
 90
       50
102
RTVSPost2010PropOp50
 70
     1
102
RTVSPost2010Prop51ColorIndex
 90
      256
102
RTVSPost2010Prop51ColorRGB
 90
-16777216
102
RTVSPost2010PropOp51
 70
     0
102
RTVSPost2010Prop52
140
1.0
102
RTVSPost2010PropOp52
 70
     0
102
RTVSPost2010Prop53
 90
        2
102
RTVSPost2010PropOp53
 70
     1
102
RTVSPost2010Prop54
  1
strokes_ogs.tif
102
RTVSPost2010PropOp54
 70
     1
102
RTVSPost2010Prop55
280
     0
102
RTVSPost2010PropOp55
 70
     1
102
RTVSPost2010Prop56
140
1.0
102
RTVSPost2010PropOp56
 70
     1
102
RTVSPost2010Prop57
140
1.0
102
RTVSPost2010PropOp57
 70
     1
102
RTVSPropertyOp0
 70
     1
102
RTVSPropertyOp1
 70
     1
102
RTVSPropertyOp2
 70
     1
102
RTVSPropertyOp3
 70
     1
102
RTVSPropertyOp4
 70
     1
102
RTVSPropertyOp5
 70
     1
102
RTVSPropertyOp6
 70
     1
102
RTVSPropertyOp7
 70
     1
102
RTVSPropertyOp8
 70
     1
102
RTVSPropertyOp9
 70
     1
102
RTVSPropertyOp10
 70
     1
102
RTVSPropertyOp11
 70
     1
102
RTVSPropertyOp12
 70
     1
102
RTVSPropertyOp13
 70
     1
102
RTVSPropertyOp14
 70
     1
102
RTVSPropertyOp15
 70
     1
102
RTVSPropertyOp16
 70
     1
102
RTVSPropertyOp17
 70
     1
102
RTVSPropertyOp18
 70
     1
102
RTVSPropertyOp19
 70
     1
102
RTVSPropertyOp20
 70
     1
102
RTVSPropertyOp21
 70
     1
102
RTVSPropertyOp22
 70
     1
102
RTVSPropertyOp23
 70
     1
102
RTVSPropertyOp24
 70
     1
102
RTVSPropertyOp25
 70
     1
102
RTVSPropertyOp26
 70
     1
102
RTVSPropertyOp27
 70
     1
102
RTVSPropertyOp28
 70
     1
102
RTVSPropertyOp29
 70
     1
102
RTVSPropertyOp30
 70
     1
102
RTVSPropertyOp31
 70
     1
102
RTVSPropertyOp32
 70
     1
102
RTVSPropertyOp33
 70
     1
102
RTVSPropertyOp34
 70
     1
102
RTVSPropertyOp35
 70
     1
102
RTVSPropertyOp36
 70
     1
102
RTVSPropertyOp37
 70
     1
102
RTVSPropertyOp38
 70
     1
102
RTVSPropertyOp39
 70
     1
102
RTVSPropertyOp40
 70
     1
102
RTVSPropertyOp41
 70
     1
102
RTVSPropertyOp42
 70
     1
102
RTVSPropertyOp43
 70
     1
102
RTVSPropertyOp44
 70
     1
102
RTVSPropertyOp45
 70
     1
102
RTVSPropertyOp46
 70
     1
102
RTVSPropertyOp47
 70
     1
102
RTVSPropertyOp48
 70
     1
102
RTVSPropertyOp49
 70
     1
102
RTVSPropertyOp50
 70
     1
102
RTVSPropertyOp51
 70
     0
102
RTVSPropertyOp52
 70
     0
102
RTVSPropertyOp53
 70
     1
102
RTVSPropertyOp54
 70
     1
102
RTVSPropertyOp55
 70
     1
102
RTVSPropertyOp56
 70
     1
102
RTVSPropertyOp57
 70
     1
102
RTVSPropertyOp58
 70
     1
102
RTVSPropertyOp59
 70
     1
102
RTVSPropertyOp60
 70
     1
102
RTVSPropertyOp61
 70
     1
102
RTVSPropertyOp62
 70
     1
  0
XRECORD
  5
B9F
102
{ACAD_REACTORS
330
B9E
102
}
330
B9E
100
AcDbXrecord
280
     1
102
RTVSPost2010Prop28
280
     0
102
RTVSPost2010PropOp28
 70
     1
102
RTVSPost2010Prop29
280
     1
102
RTVSPost2010PropOp29
 70
     1
102
RTVSPost2010Prop30
280
     1
102
RTVSPost2010PropOp30
 70
     1
102
RTVSPost2010Prop31
280
     0
102
RTVSPost2010PropOp31
 70
     1
102
RTVSPost2010Prop32
280
     0
102
RTVSPost2010PropOp32
 70
     1
102
RTVSPost2010Prop33
280
     0
102
RTVSPost2010PropOp33
 70
     1
102
RTVSPost2010Prop34
280
     0
102
RTVSPost2010PropOp34
 70
     1
102
RTVSPost2010Prop35
280
     0
102
RTVSPost2010PropOp35
 70
     1
102
RTVSPost2010Prop36
280
     0
102
RTVSPost2010PropOp36
 70
     1
102
RTVSPost2010Prop37
 90
       50
102
RTVSPost2010PropOp37
 70
     1
102
RTVSPost2010Prop38
140
0.0
102
RTVSPost2010PropOp38
 70
     1
102
RTVSPost2010Prop39
140
1.0
102
RTVSPost2010PropOp39
 70
     1
102
RTVSPost2010Prop40
 90
        0
102
RTVSPost2010PropOp40
 70
     1
102
RTVSPost2010Prop41ColorIndex
 90
       18
102
RTVSPost2010Prop41ColorRGB
 90
        0
102
RTVSPost2010PropOp41
 70
     1
102
RTVSPost2010Prop42
 90
       50
102
RTVSPost2010PropOp42
 70
     1
102
RTVSPost2010Prop43
 90
        3
102
RTVSPost2010PropOp43
 70
     1
102
RTVSPost2010Prop44ColorIndex
 90
        5
102
RTVSPost2010Prop44ColorRGB
 90
      255
102
RTVSPost2010PropOp44
 70
     1
102
RTVSPost2010Prop45
280
     0
102
RTVSPost2010PropOp45
 70
     1
102
RTVSPost2010Prop46
 90
       50
102
RTVSPost2010PropOp46
 70
     1
102
RTVSPost2010Prop47
 90
       50
102
RTVSPost2010PropOp47
 70
     1
102
RTVSPost2010Prop48
 90
       50
102
RTVSPost2010PropOp48
 70
     1
102
RTVSPost2010Prop49
280
     0
102
RTVSPost2010PropOp49
 70
     1
102
RTVSPost2010Prop50
 90
       50
102
RTVSPost2010PropOp50
 70
     1
102
RTVSPost2010Prop51ColorIndex
 90
      256
102
RTVSPost2010Prop51ColorRGB
 90
-16777216
102
RTVSPost2010PropOp51
 70
     0
102
RTVSPost2010Prop52
140
1.0
102
RTVSPost2010PropOp52
 70
     0
102
RTVSPost2010Prop53
 90
        2
102
RTVSPost2010PropOp53
 70
     1
102
RTVSPost2010Prop54
  1
strokes_ogs.tif
102
RTVSPost2010PropOp54
 70
     1
102
RTVSPost2010Prop55
280
     0
102
RTVSPost2010PropOp55
 70
     1
102
RTVSPost2010Prop56
140
1.0
102
RTVSPost2010PropOp56
 70
     1
102
RTVSPost2010Prop57
140
1.0
102
RTVSPost2010PropOp57
 70
     1
102
RTVSPropertyOp0
 70
     1
102
RTVSPropertyOp1
 70
     1
102
RTVSPropertyOp2
 70
     1
102
RTVSPropertyOp3
 70
     1
102
RTVSPropertyOp4
 70
     1
102
RTVSPropertyOp5
 70
     1
102
RTVSPropertyOp6
 70
     1
102
RTVSPropertyOp7
 70
     1
102
RTVSPropertyOp8
 70
     1
102
RTVSPropertyOp9
 70
     1
102
RTVSPropertyOp10
 70
     1
102
RTVSPropertyOp11
 70
     1
102
RTVSPropertyOp12
 70
     1
102
RTVSPropertyOp13
 70
     1
102
RTVSPropertyOp14
 70
     1
102
RTVSPropertyOp15
 70
     1
102
RTVSPropertyOp16
 70
     1
102
RTVSPropertyOp17
 70
     1
102
RTVSPropertyOp18
 70
     1
102
RTVSPropertyOp19
 70
     1
102
RTVSPropertyOp20
 70
     1
102
RTVSPropertyOp21
 70
     1
102
RTVSPropertyOp22
 70
     1
102
RTVSPropertyOp23
 70
     1
102
RTVSPropertyOp24
 70
     1
102
RTVSPropertyOp25
 70
     1
102
RTVSPropertyOp26
 70
     1
102
RTVSPropertyOp27
 70
     1
102
RTVSPropertyOp28
 70
     1
102
RTVSPropertyOp29
 70
     1
102
RTVSPropertyOp30
 70
     1
102
RTVSPropertyOp31
 70
     1
102
RTVSPropertyOp32
 70
     1
102
RTVSPropertyOp33
 70
     1
102
RTVSPropertyOp34
 70
     1
102
RTVSPropertyOp35
 70
     1
102
RTVSPropertyOp36
 70
     1
102
RTVSPropertyOp37
 70
     1
102
RTVSPropertyOp38
 70
     1
102
RTVSPropertyOp39
 70
     1
102
RTVSPropertyOp40
 70
     1
102
RTVSPropertyOp41
 70
     1
102
RTVSPropertyOp42
 70
     1
102
RTVSPropertyOp43
 70
     1
102
RTVSPropertyOp44
 70
     1
102
RTVSPropertyOp45
 70
     1
102
RTVSPropertyOp46
 70
     1
102
RTVSPropertyOp47
 70
     1
102
RTVSPropertyOp48
 70
     1
102
RTVSPropertyOp49
 70
     1
102
RTVSPropertyOp50
 70
     1
102
RTVSPropertyOp51
 70
     0
102
RTVSPropertyOp52
 70
     0
102
RTVSPropertyOp53
 70
     1
102
RTVSPropertyOp54
 70
     1
102
RTVSPropertyOp55
 70
     1
102
RTVSPropertyOp56
 70
     1
102
RTVSPropertyOp57
 70
     1
102
RTVSPropertyOp58
 70
     1
102
RTVSPropertyOp59
 70
     1
102
RTVSPropertyOp60
 70
     1
102
RTVSPropertyOp61
 70
     1
102
RTVSPropertyOp62
 70
     1
  0
XRECORD
  5
BA7
102
{ACAD_REACTORS
330
BA6
102
}
330
BA6
100
AcDbXrecord
280
     1
102
RTVSPost2010Prop28
280
     0
102
RTVSPost2010PropOp28
 70
     1
102
RTVSPost2010Prop29
280
     1
102
RTVSPost2010PropOp29
 70
     1
102
RTVSPost2010Prop30
280
     1
102
RTVSPost2010PropOp30
 70
     1
102
RTVSPost2010Prop31
280
     0
102
RTVSPost2010PropOp31
 70
     1
102
RTVSPost2010Prop32
280
     0
102
RTVSPost2010PropOp32
 70
     1
102
RTVSPost2010Prop33
280
     0
102
RTVSPost2010PropOp33
 70
     1
102
RTVSPost2010Prop34
280
     0
102
RTVSPost2010PropOp34
 70
     1
102
RTVSPost2010Prop35
280
     0
102
RTVSPost2010PropOp35
 70
     1
102
RTVSPost2010Prop36
280
     0
102
RTVSPost2010PropOp36
 70
     1
102
RTVSPost2010Prop37
 90
       50
102
RTVSPost2010PropOp37
 70
     1
102
RTVSPost2010Prop38
140
0.0
102
RTVSPost2010PropOp38
 70
     1
102
RTVSPost2010Prop39
140
1.0
102
RTVSPost2010PropOp39
 70
     1
102
RTVSPost2010Prop40
 90
        0
102
RTVSPost2010PropOp40
 70
     1
102
RTVSPost2010Prop41ColorIndex
 90
       18
102
RTVSPost2010Prop41ColorRGB
 90
        0
102
RTVSPost2010PropOp41
 70
     1
102
RTVSPost2010Prop42
 90
       50
102
RTVSPost2010PropOp42
 70
     1
102
RTVSPost2010Prop43
 90
        3
102
RTVSPost2010PropOp43
 70
     1
102
RTVSPost2010Prop44ColorIndex
 90
        5
102
RTVSPost2010Prop44ColorRGB
 90
      255
102
RTVSPost2010PropOp44
 70
     1
102
RTVSPost2010Prop45
280
     0
102
RTVSPost2010PropOp45
 70
     1
102
RTVSPost2010Prop46
 90
       50
102
RTVSPost2010PropOp46
 70
     1
102
RTVSPost2010Prop47
 90
       50
102
RTVSPost2010PropOp47
 70
     1
102
RTVSPost2010Prop48
 90
       50
102
RTVSPost2010PropOp48
 70
     1
102
RTVSPost2010Prop49
280
     0
102
RTVSPost2010PropOp49
 70
     1
102
RTVSPost2010Prop50
 90
       50
102
RTVSPost2010PropOp50
 70
     1
102
RTVSPost2010Prop51ColorIndex
 90
      256
102
RTVSPost2010Prop51ColorRGB
 90
-16777216
102
RTVSPost2010PropOp51
 70
     0
102
RTVSPost2010Prop52
140
1.0
102
RTVSPost2010PropOp52
 70
     0
102
RTVSPost2010Prop53
 90
        2
102
RTVSPost2010PropOp53
 70
     1
102
RTVSPost2010Prop54
  1
strokes_ogs.tif
102
RTVSPost2010PropOp54
 70
     1
102
RTVSPost2010Prop55
280
     0
102
RTVSPost2010PropOp55
 70
     1
102
RTVSPost2010Prop56
140
1.0
102
RTVSPost2010PropOp56
 70
     1
102
RTVSPost2010Prop57
140
1.0
102
RTVSPost2010PropOp57
 70
     1
102
RTVSPropertyOp0
 70
     1
102
RTVSPropertyOp1
 70
     1
102
RTVSPropertyOp2
 70
     1
102
RTVSPropertyOp3
 70
     1
102
RTVSPropertyOp4
 70
     1
102
RTVSPropertyOp5
 70
     1
102
RTVSPropertyOp6
 70
     1
102
RTVSPropertyOp7
 70
     1
102
RTVSPropertyOp8
 70
     1
102
RTVSPropertyOp9
 70
     1
102
RTVSPropertyOp10
 70
     1
102
RTVSPropertyOp11
 70
     1
102
RTVSPropertyOp12
 70
     1
102
RTVSPropertyOp13
 70
     1
102
RTVSPropertyOp14
 70
     1
102
RTVSPropertyOp15
 70
     1
102
RTVSPropertyOp16
 70
     1
102
RTVSPropertyOp17
 70
     1
102
RTVSPropertyOp18
 70
     1
102
RTVSPropertyOp19
 70
     1
102
RTVSPropertyOp20
 70
     1
102
RTVSPropertyOp21
 70
     1
102
RTVSPropertyOp22
 70
     1
102
RTVSPropertyOp23
 70
     1
102
RTVSPropertyOp24
 70
     1
102
RTVSPropertyOp25
 70
     1
102
RTVSPropertyOp26
 70
     1
102
RTVSPropertyOp27
 70
     1
102
RTVSPropertyOp28
 70
     1
102
RTVSPropertyOp29
 70
     1
102
RTVSPropertyOp30
 70
     1
102
RTVSPropertyOp31
 70
     1
102
RTVSPropertyOp32
 70
     1
102
RTVSPropertyOp33
 70
     1
102
RTVSPropertyOp34
 70
     1
102
RTVSPropertyOp35
 70
     1
102
RTVSPropertyOp36
 70
     1
102
RTVSPropertyOp37
 70
     1
102
RTVSPropertyOp38
 70
     1
102
RTVSPropertyOp39
 70
     1
102
RTVSPropertyOp40
 70
     1
102
RTVSPropertyOp41
 70
     1
102
RTVSPropertyOp42
 70
     1
102
RTVSPropertyOp43
 70
     1
102
RTVSPropertyOp44
 70
     1
102
RTVSPropertyOp45
 70
     1
102
RTVSPropertyOp46
 70
     1
102
RTVSPropertyOp47
 70
     1
102
RTVSPropertyOp48
 70
     1
102
RTVSPropertyOp49
 70
     1
102
RTVSPropertyOp50
 70
     1
102
RTVSPropertyOp51
 70
     0
102
RTVSPropertyOp52
 70
     0
102
RTVSPropertyOp53
 70
     1
102
RTVSPropertyOp54
 70
     1
102
RTVSPropertyOp55
 70
     1
102
RTVSPropertyOp56
 70
     1
102
RTVSPropertyOp57
 70
     1
102
RTVSPropertyOp58
 70
     1
102
RTVSPropertyOp59
 70
     1
102
RTVSPropertyOp60
 70
     1
102
RTVSPropertyOp61
 70
     1
102
RTVSPropertyOp62
 70
     1
  0
XRECORD
  5
B99
102
{ACAD_REACTORS
330
B98
102
}
330
B98
100
AcDbXrecord
280
     1
102
RTVSPost2010Prop28
280
     0
102
RTVSPost2010PropOp28
 70
     1
102
RTVSPost2010Prop29
280
     1
102
RTVSPost2010PropOp29
 70
     1
102
RTVSPost2010Prop30
280
     1
102
RTVSPost2010PropOp30
 70
     1
102
RTVSPost2010Prop31
280
     0
102
RTVSPost2010PropOp31
 70
     1
102
RTVSPost2010Prop32
280
     0
102
RTVSPost2010PropOp32
 70
     1
102
RTVSPost2010Prop33
280
     0
102
RTVSPost2010PropOp33
 70
     1
102
RTVSPost2010Prop34
280
     0
102
RTVSPost2010PropOp34
 70
     1
102
RTVSPost2010Prop35
280
     0
102
RTVSPost2010PropOp35
 70
     1
102
RTVSPost2010Prop36
280
     0
102
RTVSPost2010PropOp36
 70
     1
102
RTVSPost2010Prop37
 90
       50
102
RTVSPost2010PropOp37
 70
     1
102
RTVSPost2010Prop38
140
0.0
102
RTVSPost2010PropOp38
 70
     1
102
RTVSPost2010Prop39
140
1.0
102
RTVSPost2010PropOp39
 70
     1
102
RTVSPost2010Prop40
 90
        0
102
RTVSPost2010PropOp40
 70
     1
102
RTVSPost2010Prop41ColorIndex
 90
       18
102
RTVSPost2010Prop41ColorRGB
 90
        0
102
RTVSPost2010PropOp41
 70
     1
102
RTVSPost2010Prop42
 90
       50
102
RTVSPost2010PropOp42
 70
     1
102
RTVSPost2010Prop43
 90
        3
102
RTVSPost2010PropOp43
 70
     1
102
RTVSPost2010Prop44ColorIndex
 90
        5
102
RTVSPost2010Prop44ColorRGB
 90
      255
102
RTVSPost2010PropOp44
 70
     1
102
RTVSPost2010Prop45
280
     0
102
RTVSPost2010PropOp45
 70
     1
102
RTVSPost2010Prop46
 90
       50
102
RTVSPost2010PropOp46
 70
     1
102
RTVSPost2010Prop47
 90
       50
102
RTVSPost2010PropOp47
 70
     1
102
RTVSPost2010Prop48
 90
       50
102
RTVSPost2010PropOp48
 70
     1
102
RTVSPost2010Prop49
280
     0
102
RTVSPost2010PropOp49
 70
     1
102
RTVSPost2010Prop50
 90
       50
102
RTVSPost2010PropOp50
 70
     1
102
RTVSPost2010Prop51ColorIndex
 90
      256
102
RTVSPost2010Prop51ColorRGB
 90
-16777216
102
RTVSPost2010PropOp51
 70
     0
102
RTVSPost2010Prop52
140
1.0
102
RTVSPost2010PropOp52
 70
     0
102
RTVSPost2010Prop53
 90
        2
102
RTVSPost2010PropOp53
 70
     1
102
RTVSPost2010Prop54
  1
strokes_ogs.tif
102
RTVSPost2010PropOp54
 70
     1
102
RTVSPost2010Prop55
280
     0
102
RTVSPost2010PropOp55
 70
     1
102
RTVSPost2010Prop56
140
1.0
102
RTVSPost2010PropOp56
 70
     1
102
RTVSPost2010Prop57
140
1.0
102
RTVSPost2010PropOp57
 70
     1
102
RTVSPropertyOp0
 70
     1
102
RTVSPropertyOp1
 70
     1
102
RTVSPropertyOp2
 70
     1
102
RTVSPropertyOp3
 70
     1
102
RTVSPropertyOp4
 70
     1
102
RTVSPropertyOp5
 70
     1
102
RTVSPropertyOp6
 70
     1
102
RTVSPropertyOp7
 70
     1
102
RTVSPropertyOp8
 70
     1
102
RTVSPropertyOp9
 70
     1
102
RTVSPropertyOp10
 70
     1
102
RTVSPropertyOp11
 70
     1
102
RTVSPropertyOp12
 70
     1
102
RTVSPropertyOp13
 70
     1
102
RTVSPropertyOp14
 70
     1
102
RTVSPropertyOp15
 70
     1
102
RTVSPropertyOp16
 70
     1
102
RTVSPropertyOp17
 70
     1
102
RTVSPropertyOp18
 70
     1
102
RTVSPropertyOp19
 70
     1
102
RTVSPropertyOp20
 70
     1
102
RTVSPropertyOp21
 70
     1
102
RTVSPropertyOp22
 70
     1
102
RTVSPropertyOp23
 70
     1
102
RTVSPropertyOp24
 70
     1
102
RTVSPropertyOp25
 70
     1
102
RTVSPropertyOp26
 70
     1
102
RTVSPropertyOp27
 70
     1
102
RTVSPropertyOp28
 70
     1
102
RTVSPropertyOp29
 70
     1
102
RTVSPropertyOp30
 70
     1
102
RTVSPropertyOp31
 70
     1
102
RTVSPropertyOp32
 70
     1
102
RTVSPropertyOp33
 70
     1
102
RTVSPropertyOp34
 70
     1
102
RTVSPropertyOp35
 70
     1
102
RTVSPropertyOp36
 70
     1
102
RTVSPropertyOp37
 70
     1
102
RTVSPropertyOp38
 70
     1
102
RTVSPropertyOp39
 70
     1
102
RTVSPropertyOp40
 70
     1
102
RTVSPropertyOp41
 70
     1
102
RTVSPropertyOp42
 70
     1
102
RTVSPropertyOp43
 70
     1
102
RTVSPropertyOp44
 70
     1
102
RTVSPropertyOp45
 70
     1
102
RTVSPropertyOp46
 70
     1
102
RTVSPropertyOp47
 70
     1
102
RTVSPropertyOp48
 70
     1
102
RTVSPropertyOp49
 70
     1
102
RTVSPropertyOp50
 70
     1
102
RTVSPropertyOp51
 70
     0
102
RTVSPropertyOp52
 70
     0
102
RTVSPropertyOp53
 70
     1
102
RTVSPropertyOp54
 70
     1
102
RTVSPropertyOp55
 70
     1
102
RTVSPropertyOp56
 70
     1
102
RTVSPropertyOp57
 70
     1
102
RTVSPropertyOp58
 70
     1
102
RTVSPropertyOp59
 70
     1
102
RTVSPropertyOp60
 70
     1
102
RTVSPropertyOp61
 70
     1
102
RTVSPropertyOp62
 70
     1
  0
XRECORD
  5
B9D
102
{ACAD_REACTORS
330
B9C
102
}
330
B9C
100
AcDbXrecord
280
     1
102
RTVSPost2010Prop28
280
     0
102
RTVSPost2010PropOp28
 70
     1
102
RTVSPost2010Prop29
280
     1
102
RTVSPost2010PropOp29
 70
     1
102
RTVSPost2010Prop30
280
     1
102
RTVSPost2010PropOp30
 70
     1
102
RTVSPost2010Prop31
280
     0
102
RTVSPost2010PropOp31
 70
     1
102
RTVSPost2010Prop32
280
     0
102
RTVSPost2010PropOp32
 70
     1
102
RTVSPost2010Prop33
280
     0
102
RTVSPost2010PropOp33
 70
     1
102
RTVSPost2010Prop34
280
     0
102
RTVSPost2010PropOp34
 70
     1
102
RTVSPost2010Prop35
280
     0
102
RTVSPost2010PropOp35
 70
     1
102
RTVSPost2010Prop36
280
     0
102
RTVSPost2010PropOp36
 70
     1
102
RTVSPost2010Prop37
 90
       50
102
RTVSPost2010PropOp37
 70
     1
102
RTVSPost2010Prop38
140
0.0
102
RTVSPost2010PropOp38
 70
     1
102
RTVSPost2010Prop39
140
1.0
102
RTVSPost2010PropOp39
 70
     1
102
RTVSPost2010Prop40
 90
        0
102
RTVSPost2010PropOp40
 70
     1
102
RTVSPost2010Prop41ColorIndex
 90
       18
102
RTVSPost2010Prop41ColorRGB
 90
        0
102
RTVSPost2010PropOp41
 70
     1
102
RTVSPost2010Prop42
 90
       50
102
RTVSPost2010PropOp42
 70
     1
102
RTVSPost2010Prop43
 90
        3
102
RTVSPost2010PropOp43
 70
     1
102
RTVSPost2010Prop44ColorIndex
 90
        5
102
RTVSPost2010Prop44ColorRGB
 90
      255
102
RTVSPost2010PropOp44
 70
     1
102
RTVSPost2010Prop45
280
     0
102
RTVSPost2010PropOp45
 70
     1
102
RTVSPost2010Prop46
 90
       50
102
RTVSPost2010PropOp46
 70
     1
102
RTVSPost2010Prop47
 90
       50
102
RTVSPost2010PropOp47
 70
     1
102
RTVSPost2010Prop48
 90
       50
102
RTVSPost2010PropOp48
 70
     1
102
RTVSPost2010Prop49
280
     0
102
RTVSPost2010PropOp49
 70
     1
102
RTVSPost2010Prop50
 90
       50
102
RTVSPost2010PropOp50
 70
     1
102
RTVSPost2010Prop51ColorIndex
 90
      256
102
RTVSPost2010Prop51ColorRGB
 90
-16777216
102
RTVSPost2010PropOp51
 70
     0
102
RTVSPost2010Prop52
140
1.0
102
RTVSPost2010PropOp52
 70
     0
102
RTVSPost2010Prop53
 90
        2
102
RTVSPost2010PropOp53
 70
     1
102
RTVSPost2010Prop54
  1
strokes_ogs.tif
102
RTVSPost2010PropOp54
 70
     1
102
RTVSPost2010Prop55
280
     0
102
RTVSPost2010PropOp55
 70
     1
102
RTVSPost2010Prop56
140
1.0
102
RTVSPost2010PropOp56
 70
     1
102
RTVSPost2010Prop57
140
1.0
102
RTVSPost2010PropOp57
 70
     1
102
RTVSPropertyOp0
 70
     1
102
RTVSPropertyOp1
 70
     1
102
RTVSPropertyOp2
 70
     1
102
RTVSPropertyOp3
 70
     1
102
RTVSPropertyOp4
 70
     1
102
RTVSPropertyOp5
 70
     1
102
RTVSPropertyOp6
 70
     1
102
RTVSPropertyOp7
 70
     1
102
RTVSPropertyOp8
 70
     1
102
RTVSPropertyOp9
 70
     1
102
RTVSPropertyOp10
 70
     1
102
RTVSPropertyOp11
 70
     1
102
RTVSPropertyOp12
 70
     1
102
RTVSPropertyOp13
 70
     1
102
RTVSPropertyOp14
 70
     1
102
RTVSPropertyOp15
 70
     1
102
RTVSPropertyOp16
 70
     1
102
RTVSPropertyOp17
 70
     1
102
RTVSPropertyOp18
 70
     1
102
RTVSPropertyOp19
 70
     1
102
RTVSPropertyOp20
 70
     1
102
RTVSPropertyOp21
 70
     1
102
RTVSPropertyOp22
 70
     1
102
RTVSPropertyOp23
 70
     1
102
RTVSPropertyOp24
 70
     1
102
RTVSPropertyOp25
 70
     1
102
RTVSPropertyOp26
 70
     1
102
RTVSPropertyOp27
 70
     1
102
RTVSPropertyOp28
 70
     1
102
RTVSPropertyOp29
 70
     1
102
RTVSPropertyOp30
 70
     1
102
RTVSPropertyOp31
 70
     1
102
RTVSPropertyOp32
 70
     1
102
RTVSPropertyOp33
 70
     1
102
RTVSPropertyOp34
 70
     1
102
RTVSPropertyOp35
 70
     1
102
RTVSPropertyOp36
 70
     1
102
RTVSPropertyOp37
 70
     1
102
RTVSPropertyOp38
 70
     1
102
RTVSPropertyOp39
 70
     1
102
RTVSPropertyOp40
 70
     1
102
RTVSPropertyOp41
 70
     1
102
RTVSPropertyOp42
 70
     1
102
RTVSPropertyOp43
 70
     1
102
RTVSPropertyOp44
 70
     1
102
RTVSPropertyOp45
 70
     1
102
RTVSPropertyOp46
 70
     1
102
RTVSPropertyOp47
 70
     1
102
RTVSPropertyOp48
 70
     1
102
RTVSPropertyOp49
 70
     1
102
RTVSPropertyOp50
 70
     1
102
RTVSPropertyOp51
 70
     0
102
RTVSPropertyOp52
 70
     0
102
RTVSPropertyOp53
 70
     1
102
RTVSPropertyOp54
 70
     1
102
RTVSPropertyOp55
 70
     1
102
RTVSPropertyOp56
 70
     1
102
RTVSPropertyOp57
 70
     1
102
RTVSPropertyOp58
 70
     1
102
RTVSPropertyOp59
 70
     1
102
RTVSPropertyOp60
 70
     1
102
RTVSPropertyOp61
 70
     1
102
RTVSPropertyOp62
 70
     1
  0
XRECORD
  5
BB7
102
{ACAD_REACTORS
330
BB6
102
}
330
BB6
100
AcDbXrecord
280
     1
102
RTVSPost2010Prop28
280
     0
102
RTVSPost2010PropOp28
 70
     1
102
RTVSPost2010Prop29
280
     1
102
RTVSPost2010PropOp29
 70
     1
102
RTVSPost2010Prop30
280
     1
102
RTVSPost2010PropOp30
 70
     1
102
RTVSPost2010Prop31
280
     0
102
RTVSPost2010PropOp31
 70
     1
102
RTVSPost2010Prop32
280
     0
102
RTVSPost2010PropOp32
 70
     1
102
RTVSPost2010Prop33
280
     0
102
RTVSPost2010PropOp33
 70
     1
102
RTVSPost2010Prop34
280
     0
102
RTVSPost2010PropOp34
 70
     1
102
RTVSPost2010Prop35
280
     0
102
RTVSPost2010PropOp35
 70
     1
102
RTVSPost2010Prop36
280
     0
102
RTVSPost2010PropOp36
 70
     1
102
RTVSPost2010Prop37
 90
       50
102
RTVSPost2010PropOp37
 70
     0
102
RTVSPost2010Prop38
140
0.0
102
RTVSPost2010PropOp38
 70
     0
102
RTVSPost2010Prop39
140
1.0
102
RTVSPost2010PropOp39
 70
     0
102
RTVSPost2010Prop40
 90
        0
102
RTVSPost2010PropOp40
 70
     0
102
RTVSPost2010Prop41ColorIndex
 90
       18
102
RTVSPost2010Prop41ColorRGB
 90
        0
102
RTVSPost2010PropOp41
 70
     0
102
RTVSPost2010Prop42
 90
       50
102
RTVSPost2010PropOp42
 70
     0
102
RTVSPost2010Prop43
 90
        3
102
RTVSPost2010PropOp43
 70
     0
102
RTVSPost2010Prop44ColorIndex
 90
        5
102
RTVSPost2010Prop44ColorRGB
 90
      255
102
RTVSPost2010PropOp44
 70
     0
102
RTVSPost2010Prop45
280
     0
102
RTVSPost2010PropOp45
 70
     1
102
RTVSPost2010Prop46
 90
       50
102
RTVSPost2010PropOp46
 70
     0
102
RTVSPost2010Prop47
 90
       50
102
RTVSPost2010PropOp47
 70
     0
102
RTVSPost2010Prop48
 90
       50
102
RTVSPost2010PropOp48
 70
     0
102
RTVSPost2010Prop49
280
     0
102
RTVSPost2010PropOp49
 70
     1
102
RTVSPost2010Prop50
 90
       50
102
RTVSPost2010PropOp50
 70
     0
102
RTVSPost2010Prop51ColorIndex
 90
      256
102
RTVSPost2010Prop51ColorRGB
 90
-16777216
102
RTVSPost2010PropOp51
 70
     0
102
RTVSPost2010Prop52
140
1.0
102
RTVSPost2010PropOp52
 70
     0
102
RTVSPost2010Prop53
 90
        2
102
RTVSPost2010PropOp53
 70
     0
102
RTVSPost2010Prop54
  1
strokes_ogs.tif
102
RTVSPost2010PropOp54
 70
     0
102
RTVSPost2010Prop55
280
     0
102
RTVSPost2010PropOp55
 70
     1
102
RTVSPost2010Prop56
140
1.0
102
RTVSPost2010PropOp56
 70
     0
102
RTVSPost2010Prop57
140
1.0
102
RTVSPost2010PropOp57
 70
     0
102
RTVSPropertyOp0
 70
     0
102
RTVSPropertyOp1
 70
     0
102
RTVSPropertyOp2
 70
     0
102
RTVSPropertyOp3
 70
     0
102
RTVSPropertyOp4
 70
     0
102
RTVSPropertyOp5
 70
     0
102
RTVSPropertyOp6
 70
     0
102
RTVSPropertyOp7
 70
     0
102
RTVSPropertyOp8
 70
     0
102
RTVSPropertyOp9
 70
     0
102
RTVSPropertyOp10
 70
     0
102
RTVSPropertyOp11
 70
     0
102
RTVSPropertyOp12
 70
     0
102
RTVSPropertyOp13
 70
     0
102
RTVSPropertyOp14
 70
     2
102
RTVSPropertyOp15
 70
     0
102
RTVSPropertyOp16
 70
     0
102
RTVSPropertyOp17
 70
     0
102
RTVSPropertyOp18
 70
     0
102
RTVSPropertyOp19
 70
     0
102
RTVSPropertyOp20
 70
     0
102
RTVSPropertyOp21
 70
     0
102
RTVSPropertyOp22
 70
     0
102
RTVSPropertyOp23
 70
     0
102
RTVSPropertyOp24
 70
     0
102
RTVSPropertyOp25
 70
     0
102
RTVSPropertyOp26
 70
     0
102
RTVSPropertyOp27
 70
     0
102
RTVSPropertyOp28
 70
     1
102
RTVSPropertyOp29
 70
     1
102
RTVSPropertyOp30
 70
     1
102
RTVSPropertyOp31
 70
     1
102
RTVSPropertyOp32
 70
     1
102
RTVSPropertyOp33
 70
     1
102
RTVSPropertyOp34
 70
     1
102
RTVSPropertyOp35
 70
     1
102
RTVSPropertyOp36
 70
     1
102
RTVSPropertyOp37
 70
     0
102
RTVSPropertyOp38
 70
     0
102
RTVSPropertyOp39
 70
     0
102
RTVSPropertyOp40
 70
     0
102
RTVSPropertyOp41
 70
     0
102
RTVSPropertyOp42
 70
     0
102
RTVSPropertyOp43
 70
     0
102
RTVSPropertyOp44
 70
     0
102
RTVSPropertyOp45
 70
     1
102
RTVSPropertyOp46
 70
     0
102
RTVSPropertyOp47
 70
     0
102
RTVSPropertyOp48
 70
     0
102
RTVSPropertyOp49
 70
     1
102
RTVSPropertyOp50
 70
     0
102
RTVSPropertyOp51
 70
     0
102
RTVSPropertyOp52
 70
     0
102
RTVSPropertyOp53
 70
     0
102
RTVSPropertyOp54
 70
     0
102
RTVSPropertyOp55
 70
     1
102
RTVSPropertyOp56
 70
     0
102
RTVSPropertyOp57
 70
     0
102
RTVSPropertyOp58
 70
     1
102
RTVSPropertyOp59
 70
     1
102
RTVSPropertyOp60
 70
     1
102
RTVSPropertyOp61
 70
     1
102
RTVSPropertyOp62
 70
     1
  0
XRECORD
  5
BA5
102
{ACAD_REACTORS
330
BA4
102
}
330
BA4
100
AcDbXrecord
280
     1
102
RTVSPost2010Prop28
280
     0
102
RTVSPost2010PropOp28
 70
     1
102
RTVSPost2010Prop29
280
     1
102
RTVSPost2010PropOp29
 70
     1
102
RTVSPost2010Prop30
280
     1
102
RTVSPost2010PropOp30
 70
     1
102
RTVSPost2010Prop31
280
     0
102
RTVSPost2010PropOp31
 70
     1
102
RTVSPost2010Prop32
280
     0
102
RTVSPost2010PropOp32
 70
     1
102
RTVSPost2010Prop33
280
     0
102
RTVSPost2010PropOp33
 70
     1
102
RTVSPost2010Prop34
280
     0
102
RTVSPost2010PropOp34
 70
     1
102
RTVSPost2010Prop35
280
     0
102
RTVSPost2010PropOp35
 70
     1
102
RTVSPost2010Prop36
280
     0
102
RTVSPost2010PropOp36
 70
     1
102
RTVSPost2010Prop37
 90
       50
102
RTVSPost2010PropOp37
 70
     1
102
RTVSPost2010Prop38
140
0.0
102
RTVSPost2010PropOp38
 70
     1
102
RTVSPost2010Prop39
140
1.0
102
RTVSPost2010PropOp39
 70
     1
102
RTVSPost2010Prop40
 90
        0
102
RTVSPost2010PropOp40
 70
     1
102
RTVSPost2010Prop41ColorIndex
 90
       18
102
RTVSPost2010Prop41ColorRGB
 90
        0
102
RTVSPost2010PropOp41
 70
     1
102
RTVSPost2010Prop42
 90
       50
102
RTVSPost2010PropOp42
 70
     1
102
RTVSPost2010Prop43
 90
        3
102
RTVSPost2010PropOp43
 70
     1
102
RTVSPost2010Prop44ColorIndex
 90
        5
102
RTVSPost2010Prop44ColorRGB
 90
      255
102
RTVSPost2010PropOp44
 70
     1
102
RTVSPost2010Prop45
280
     0
102
RTVSPost2010PropOp45
 70
     1
102
RTVSPost2010Prop46
 90
       50
102
RTVSPost2010PropOp46
 70
     1
102
RTVSPost2010Prop47
 90
       50
102
RTVSPost2010PropOp47
 70
     1
102
RTVSPost2010Prop48
 90
       50
102
RTVSPost2010PropOp48
 70
     1
102
RTVSPost2010Prop49
280
     0
102
RTVSPost2010PropOp49
 70
     1
102
RTVSPost2010Prop50
 90
       50
102
RTVSPost2010PropOp50
 70
     1
102
RTVSPost2010Prop51ColorIndex
 90
      256
102
RTVSPost2010Prop51ColorRGB
 90
-16777216
102
RTVSPost2010PropOp51
 70
     0
102
RTVSPost2010Prop52
140
1.0
102
RTVSPost2010PropOp52
 70
     0
102
RTVSPost2010Prop53
 90
        2
102
RTVSPost2010PropOp53
 70
     1
102
RTVSPost2010Prop54
  1
strokes_ogs.tif
102
RTVSPost2010PropOp54
 70
     1
102
RTVSPost2010Prop55
280
     0
102
RTVSPost2010PropOp55
 70
     1
102
RTVSPost2010Prop56
140
1.0
102
RTVSPost2010PropOp56
 70
     1
102
RTVSPost2010Prop57
140
1.0
102
RTVSPost2010PropOp57
 70
     1
102
RTVSPropertyOp0
 70
     1
102
RTVSPropertyOp1
 70
     1
102
RTVSPropertyOp2
 70
     1
102
RTVSPropertyOp3
 70
     1
102
RTVSPropertyOp4
 70
     1
102
RTVSPropertyOp5
 70
     1
102
RTVSPropertyOp6
 70
     1
102
RTVSPropertyOp7
 70
     1
102
RTVSPropertyOp8
 70
     1
102
RTVSPropertyOp9
 70
     1
102
RTVSPropertyOp10
 70
     1
102
RTVSPropertyOp11
 70
     1
102
RTVSPropertyOp12
 70
     1
102
RTVSPropertyOp13
 70
     1
102
RTVSPropertyOp14
 70
     1
102
RTVSPropertyOp15
 70
     1
102
RTVSPropertyOp16
 70
     1
102
RTVSPropertyOp17
 70
     1
102
RTVSPropertyOp18
 70
     1
102
RTVSPropertyOp19
 70
     1
102
RTVSPropertyOp20
 70
     1
102
RTVSPropertyOp21
 70
     1
102
RTVSPropertyOp22
 70
     1
102
RTVSPropertyOp23
 70
     1
102
RTVSPropertyOp24
 70
     1
102
RTVSPropertyOp25
 70
     1
102
RTVSPropertyOp26
 70
     1
102
RTVSPropertyOp27
 70
     1
102
RTVSPropertyOp28
 70
     1
102
RTVSPropertyOp29
 70
     1
102
RTVSPropertyOp30
 70
     1
102
RTVSPropertyOp31
 70
     1
102
RTVSPropertyOp32
 70
     1
102
RTVSPropertyOp33
 70
     1
102
RTVSPropertyOp34
 70
     1
102
RTVSPropertyOp35
 70
     1
102
RTVSPropertyOp36
 70
     1
102
RTVSPropertyOp37
 70
     1
102
RTVSPropertyOp38
 70
     1
102
RTVSPropertyOp39
 70
     1
102
RTVSPropertyOp40
 70
     1
102
RTVSPropertyOp41
 70
     1
102
RTVSPropertyOp42
 70
     1
102
RTVSPropertyOp43
 70
     1
102
RTVSPropertyOp44
 70
     1
102
RTVSPropertyOp45
 70
     1
102
RTVSPropertyOp46
 70
     1
102
RTVSPropertyOp47
 70
     1
102
RTVSPropertyOp48
 70
     1
102
RTVSPropertyOp49
 70
     1
102
RTVSPropertyOp50
 70
     1
102
RTVSPropertyOp51
 70
     0
102
RTVSPropertyOp52
 70
     0
102
RTVSPropertyOp53
 70
     1
102
RTVSPropertyOp54
 70
     1
102
RTVSPropertyOp55
 70
     1
102
RTVSPropertyOp56
 70
     1
102
RTVSPropertyOp57
 70
     1
102
RTVSPropertyOp58
 70
     1
102
RTVSPropertyOp59
 70
     1
102
RTVSPropertyOp60
 70
     1
102
RTVSPropertyOp61
 70
     1
102
RTVSPropertyOp62
 70
     1
  0
XRECORD
  5
B89
102
{ACAD_REACTORS
330
B88
102
}
330
B88
100
AcDbXrecord
280
     1
102
RTVSPost2010Prop28
280
     0
102
RTVSPost2010PropOp28
 70
     1
102
RTVSPost2010Prop29
280
     1
102
RTVSPost2010PropOp29
 70
     1
102
RTVSPost2010Prop30
280
     1
102
RTVSPost2010PropOp30
 70
     1
102
RTVSPost2010Prop31
280
     0
102
RTVSPost2010PropOp31
 70
     1
102
RTVSPost2010Prop32
280
     0
102
RTVSPost2010PropOp32
 70
     1
102
RTVSPost2010Prop33
280
     0
102
RTVSPost2010PropOp33
 70
     1
102
RTVSPost2010Prop34
280
     0
102
RTVSPost2010PropOp34
 70
     1
102
RTVSPost2010Prop35
280
     0
102
RTVSPost2010PropOp35
 70
     1
102
RTVSPost2010Prop36
280
     0
102
RTVSPost2010PropOp36
 70
     1
102
RTVSPost2010Prop37
 90
       50
102
RTVSPost2010PropOp37
 70
     1
102
RTVSPost2010Prop38
140
0.0
102
RTVSPost2010PropOp38
 70
     1
102
RTVSPost2010Prop39
140
1.0
102
RTVSPost2010PropOp39
 70
     1
102
RTVSPost2010Prop40
 90
        0
102
RTVSPost2010PropOp40
 70
     1
102
RTVSPost2010Prop41ColorIndex
 90
       18
102
RTVSPost2010Prop41ColorRGB
 90
        0
102
RTVSPost2010PropOp41
 70
     1
102
RTVSPost2010Prop42
 90
       50
102
RTVSPost2010PropOp42
 70
     1
102
RTVSPost2010Prop43
 90
        3
102
RTVSPost2010PropOp43
 70
     1
102
RTVSPost2010Prop44ColorIndex
 90
        5
102
RTVSPost2010Prop44ColorRGB
 90
      255
102
RTVSPost2010PropOp44
 70
     1
102
RTVSPost2010Prop45
280
     0
102
RTVSPost2010PropOp45
 70
     1
102
RTVSPost2010Prop46
 90
       50
102
RTVSPost2010PropOp46
 70
     1
102
RTVSPost2010Prop47
 90
       50
102
RTVSPost2010PropOp47
 70
     1
102
RTVSPost2010Prop48
 90
       50
102
RTVSPost2010PropOp48
 70
     1
102
RTVSPost2010Prop49
280
     0
102
RTVSPost2010PropOp49
 70
     1
102
RTVSPost2010Prop50
 90
       50
102
RTVSPost2010PropOp50
 70
     1
102
RTVSPost2010Prop51ColorIndex
 90
      256
102
RTVSPost2010Prop51ColorRGB
 90
-16777216
102
RTVSPost2010PropOp51
 70
     0
102
RTVSPost2010Prop52
140
1.0
102
RTVSPost2010PropOp52
 70
     0
102
RTVSPost2010Prop53
 90
        2
102
RTVSPost2010PropOp53
 70
     1
102
RTVSPost2010Prop54
  1
strokes_ogs.tif
102
RTVSPost2010PropOp54
 70
     1
102
RTVSPost2010Prop55
280
     0
102
RTVSPost2010PropOp55
 70
     1
102
RTVSPost2010Prop56
140
1.0
102
RTVSPost2010PropOp56
 70
     1
102
RTVSPost2010Prop57
140
1.0
102
RTVSPost2010PropOp57
 70
     1
102
RTVSPropertyOp0
 70
     1
102
RTVSPropertyOp1
 70
     1
102
RTVSPropertyOp2
 70
     1
102
RTVSPropertyOp3
 70
     1
102
RTVSPropertyOp4
 70
     1
102
RTVSPropertyOp5
 70
     1
102
RTVSPropertyOp6
 70
     1
102
RTVSPropertyOp7
 70
     1
102
RTVSPropertyOp8
 70
     1
102
RTVSPropertyOp9
 70
     1
102
RTVSPropertyOp10
 70
     1
102
RTVSPropertyOp11
 70
     1
102
RTVSPropertyOp12
 70
     1
102
RTVSPropertyOp13
 70
     1
102
RTVSPropertyOp14
 70
     1
102
RTVSPropertyOp15
 70
     1
102
RTVSPropertyOp16
 70
     1
102
RTVSPropertyOp17
 70
     1
102
RTVSPropertyOp18
 70
     1
102
RTVSPropertyOp19
 70
     1
102
RTVSPropertyOp20
 70
     1
102
RTVSPropertyOp21
 70
     1
102
RTVSPropertyOp22
 70
     1
102
RTVSPropertyOp23
 70
     1
102
RTVSPropertyOp24
 70
     1
102
RTVSPropertyOp25
 70
     1
102
RTVSPropertyOp26
 70
     1
102
RTVSPropertyOp27
 70
     1
102
RTVSPropertyOp28
 70
     1
102
RTVSPropertyOp29
 70
     1
102
RTVSPropertyOp30
 70
     1
102
RTVSPropertyOp31
 70
     1
102
RTVSPropertyOp32
 70
     1
102
RTVSPropertyOp33
 70
     1
102
RTVSPropertyOp34
 70
     1
102
RTVSPropertyOp35
 70
     1
102
RTVSPropertyOp36
 70
     1
102
RTVSPropertyOp37
 70
     1
102
RTVSPropertyOp38
 70
     1
102
RTVSPropertyOp39
 70
     1
102
RTVSPropertyOp40
 70
     1
102
RTVSPropertyOp41
 70
     1
102
RTVSPropertyOp42
 70
     1
102
RTVSPropertyOp43
 70
     1
102
RTVSPropertyOp44
 70
     1
102
RTVSPropertyOp45
 70
     1
102
RTVSPropertyOp46
 70
     1
102
RTVSPropertyOp47
 70
     1
102
RTVSPropertyOp48
 70
     1
102
RTVSPropertyOp49
 70
     1
102
RTVSPropertyOp50
 70
     1
102
RTVSPropertyOp51
 70
     0
102
RTVSPropertyOp52
 70
     0
102
RTVSPropertyOp53
 70
     1
102
RTVSPropertyOp54
 70
     1
102
RTVSPropertyOp55
 70
     1
102
RTVSPropertyOp56
 70
     1
102
RTVSPropertyOp57
 70
     1
102
RTVSPropertyOp58
 70
     1
102
RTVSPropertyOp59
 70
     1
102
RTVSPropertyOp60
 70
     1
102
RTVSPropertyOp61
 70
     1
102
RTVSPropertyOp62
 70
     1
  0
XRECORD
  5
B8B
102
{ACAD_REACTORS
330
B8A
102
}
330
B8A
100
AcDbXrecord
280
     1
102
RTVSPost2010Prop28
280
     0
102
RTVSPost2010PropOp28
 70
     1
102
RTVSPost2010Prop29
280
     1
102
RTVSPost2010PropOp29
 70
     1
102
RTVSPost2010Prop30
280
     1
102
RTVSPost2010PropOp30
 70
     1
102
RTVSPost2010Prop31
280
     0
102
RTVSPost2010PropOp31
 70
     1
102
RTVSPost2010Prop32
280
     0
102
RTVSPost2010PropOp32
 70
     1
102
RTVSPost2010Prop33
280
     0
102
RTVSPost2010PropOp33
 70
     1
102
RTVSPost2010Prop34
280
     0
102
RTVSPost2010PropOp34
 70
     1
102
RTVSPost2010Prop35
280
     0
102
RTVSPost2010PropOp35
 70
     1
102
RTVSPost2010Prop36
280
     0
102
RTVSPost2010PropOp36
 70
     1
102
RTVSPost2010Prop37
 90
       50
102
RTVSPost2010PropOp37
 70
     1
102
RTVSPost2010Prop38
140
0.0
102
RTVSPost2010PropOp38
 70
     1
102
RTVSPost2010Prop39
140
1.0
102
RTVSPost2010PropOp39
 70
     1
102
RTVSPost2010Prop40
 90
        0
102
RTVSPost2010PropOp40
 70
     1
102
RTVSPost2010Prop41ColorIndex
 90
       18
102
RTVSPost2010Prop41ColorRGB
 90
        0
102
RTVSPost2010PropOp41
 70
     1
102
RTVSPost2010Prop42
 90
       50
102
RTVSPost2010PropOp42
 70
     1
102
RTVSPost2010Prop43
 90
        3
102
RTVSPost2010PropOp43
 70
     1
102
RTVSPost2010Prop44ColorIndex
 90
        5
102
RTVSPost2010Prop44ColorRGB
 90
      255
102
RTVSPost2010PropOp44
 70
     1
102
RTVSPost2010Prop45
280
     0
102
RTVSPost2010PropOp45
 70
     1
102
RTVSPost2010Prop46
 90
       50
102
RTVSPost2010PropOp46
 70
     1
102
RTVSPost2010Prop47
 90
       50
102
RTVSPost2010PropOp47
 70
     1
102
RTVSPost2010Prop48
 90
       50
102
RTVSPost2010PropOp48
 70
     1
102
RTVSPost2010Prop49
280
     0
102
RTVSPost2010PropOp49
 70
     1
102
RTVSPost2010Prop50
 90
       50
102
RTVSPost2010PropOp50
 70
     1
102
RTVSPost2010Prop51ColorIndex
 90
      256
102
RTVSPost2010Prop51ColorRGB
 90
-16777216
102
RTVSPost2010PropOp51
 70
     0
102
RTVSPost2010Prop52
140
1.0
102
RTVSPost2010PropOp52
 70
     0
102
RTVSPost2010Prop53
 90
        2
102
RTVSPost2010PropOp53
 70
     1
102
RTVSPost2010Prop54
  1
strokes_ogs.tif
102
RTVSPost2010PropOp54
 70
     1
102
RTVSPost2010Prop55
280
     0
102
RTVSPost2010PropOp55
 70
     1
102
RTVSPost2010Prop56
140
1.0
102
RTVSPost2010PropOp56
 70
     1
102
RTVSPost2010Prop57
140
1.0
102
RTVSPost2010PropOp57
 70
     1
102
RTVSPropertyOp0
 70
     1
102
RTVSPropertyOp1
 70
     1
102
RTVSPropertyOp2
 70
     1
102
RTVSPropertyOp3
 70
     1
102
RTVSPropertyOp4
 70
     1
102
RTVSPropertyOp5
 70
     1
102
RTVSPropertyOp6
 70
     1
102
RTVSPropertyOp7
 70
     1
102
RTVSPropertyOp8
 70
     1
102
RTVSPropertyOp9
 70
     1
102
RTVSPropertyOp10
 70
     1
102
RTVSPropertyOp11
 70
     1
102
RTVSPropertyOp12
 70
     1
102
RTVSPropertyOp13
 70
     1
102
RTVSPropertyOp14
 70
     1
102
RTVSPropertyOp15
 70
     1
102
RTVSPropertyOp16
 70
     1
102
RTVSPropertyOp17
 70
     1
102
RTVSPropertyOp18
 70
     1
102
RTVSPropertyOp19
 70
     1
102
RTVSPropertyOp20
 70
     1
102
RTVSPropertyOp21
 70
     1
102
RTVSPropertyOp22
 70
     1
102
RTVSPropertyOp23
 70
     1
102
RTVSPropertyOp24
 70
     1
102
RTVSPropertyOp25
 70
     1
102
RTVSPropertyOp26
 70
     1
102
RTVSPropertyOp27
 70
     1
102
RTVSPropertyOp28
 70
     1
102
RTVSPropertyOp29
 70
     1
102
RTVSPropertyOp30
 70
     1
102
RTVSPropertyOp31
 70
     1
102
RTVSPropertyOp32
 70
     1
102
RTVSPropertyOp33
 70
     1
102
RTVSPropertyOp34
 70
     1
102
RTVSPropertyOp35
 70
     1
102
RTVSPropertyOp36
 70
     1
102
RTVSPropertyOp37
 70
     1
102
RTVSPropertyOp38
 70
     1
102
RTVSPropertyOp39
 70
     1
102
RTVSPropertyOp40
 70
     1
102
RTVSPropertyOp41
 70
     1
102
RTVSPropertyOp42
 70
     1
102
RTVSPropertyOp43
 70
     1
102
RTVSPropertyOp44
 70
     1
102
RTVSPropertyOp45
 70
     1
102
RTVSPropertyOp46
 70
     1
102
RTVSPropertyOp47
 70
     1
102
RTVSPropertyOp48
 70
     1
102
RTVSPropertyOp49
 70
     1
102
RTVSPropertyOp50
 70
     1
102
RTVSPropertyOp51
 70
     0
102
RTVSPropertyOp52
 70
     0
102
RTVSPropertyOp53
 70
     1
102
RTVSPropertyOp54
 70
     1
102
RTVSPropertyOp55
 70
     1
102
RTVSPropertyOp56
 70
     1
102
RTVSPropertyOp57
 70
     1
102
RTVSPropertyOp58
 70
     1
102
RTVSPropertyOp59
 70
     1
102
RTVSPropertyOp60
 70
     1
102
RTVSPropertyOp61
 70
     1
102
RTVSPropertyOp62
 70
     1
  0
XRECORD
  5
B8D
102
{ACAD_REACTORS
330
B8C
102
}
330
B8C
100
AcDbXrecord
280
     1
102
RTVSPost2010Prop28
280
     0
102
RTVSPost2010PropOp28
 70
     1
102
RTVSPost2010Prop29
280
     1
102
RTVSPost2010PropOp29
 70
     1
102
RTVSPost2010Prop30
280
     1
102
RTVSPost2010PropOp30
 70
     1
102
RTVSPost2010Prop31
280
     0
102
RTVSPost2010PropOp31
 70
     1
102
RTVSPost2010Prop32
280
     0
102
RTVSPost2010PropOp32
 70
     1
102
RTVSPost2010Prop33
280
     0
102
RTVSPost2010PropOp33
 70
     1
102
RTVSPost2010Prop34
280
     0
102
RTVSPost2010PropOp34
 70
     1
102
RTVSPost2010Prop35
280
     0
102
RTVSPost2010PropOp35
 70
     1
102
RTVSPost2010Prop36
280
     0
102
RTVSPost2010PropOp36
 70
     1
102
RTVSPost2010Prop37
 90
       50
102
RTVSPost2010PropOp37
 70
     1
102
RTVSPost2010Prop38
140
0.0
102
RTVSPost2010PropOp38
 70
     1
102
RTVSPost2010Prop39
140
1.0
102
RTVSPost2010PropOp39
 70
     1
102
RTVSPost2010Prop40
 90
        0
102
RTVSPost2010PropOp40
 70
     1
102
RTVSPost2010Prop41ColorIndex
 90
       18
102
RTVSPost2010Prop41ColorRGB
 90
        0
102
RTVSPost2010PropOp41
 70
     1
102
RTVSPost2010Prop42
 90
       50
102
RTVSPost2010PropOp42
 70
     1
102
RTVSPost2010Prop43
 90
        3
102
RTVSPost2010PropOp43
 70
     1
102
RTVSPost2010Prop44ColorIndex
 90
        5
102
RTVSPost2010Prop44ColorRGB
 90
      255
102
RTVSPost2010PropOp44
 70
     1
102
RTVSPost2010Prop45
280
     0
102
RTVSPost2010PropOp45
 70
     1
102
RTVSPost2010Prop46
 90
       50
102
RTVSPost2010PropOp46
 70
     1
102
RTVSPost2010Prop47
 90
       50
102
RTVSPost2010PropOp47
 70
     1
102
RTVSPost2010Prop48
 90
       50
102
RTVSPost2010PropOp48
 70
     1
102
RTVSPost2010Prop49
280
     0
102
RTVSPost2010PropOp49
 70
     1
102
RTVSPost2010Prop50
 90
       50
102
RTVSPost2010PropOp50
 70
     1
102
RTVSPost2010Prop51ColorIndex
 90
      256
102
RTVSPost2010Prop51ColorRGB
 90
-16777216
102
RTVSPost2010PropOp51
 70
     0
102
RTVSPost2010Prop52
140
1.0
102
RTVSPost2010PropOp52
 70
     0
102
RTVSPost2010Prop53
 90
        2
102
RTVSPost2010PropOp53
 70
     1
102
RTVSPost2010Prop54
  1
strokes_ogs.tif
102
RTVSPost2010PropOp54
 70
     1
102
RTVSPost2010Prop55
280
     0
102
RTVSPost2010PropOp55
 70
     1
102
RTVSPost2010Prop56
140
1.0
102
RTVSPost2010PropOp56
 70
     1
102
RTVSPost2010Prop57
140
1.0
102
RTVSPost2010PropOp57
 70
     1
102
RTVSPropertyOp0
 70
     1
102
RTVSPropertyOp1
 70
     1
102
RTVSPropertyOp2
 70
     1
102
RTVSPropertyOp3
 70
     1
102
RTVSPropertyOp4
 70
     1
102
RTVSPropertyOp5
 70
     1
102
RTVSPropertyOp6
 70
     1
102
RTVSPropertyOp7
 70
     1
102
RTVSPropertyOp8
 70
     1
102
RTVSPropertyOp9
 70
     1
102
RTVSPropertyOp10
 70
     1
102
RTVSPropertyOp11
 70
     1
102
RTVSPropertyOp12
 70
     1
102
RTVSPropertyOp13
 70
     1
102
RTVSPropertyOp14
 70
     1
102
RTVSPropertyOp15
 70
     1
102
RTVSPropertyOp16
 70
     1
102
RTVSPropertyOp17
 70
     1
102
RTVSPropertyOp18
 70
     1
102
RTVSPropertyOp19
 70
     1
102
RTVSPropertyOp20
 70
     1
102
RTVSPropertyOp21
 70
     1
102
RTVSPropertyOp22
 70
     1
102
RTVSPropertyOp23
 70
     1
102
RTVSPropertyOp24
 70
     1
102
RTVSPropertyOp25
 70
     1
102
RTVSPropertyOp26
 70
     1
102
RTVSPropertyOp27
 70
     1
102
RTVSPropertyOp28
 70
     1
102
RTVSPropertyOp29
 70
     1
102
RTVSPropertyOp30
 70
     1
102
RTVSPropertyOp31
 70
     1
102
RTVSPropertyOp32
 70
     1
102
RTVSPropertyOp33
 70
     1
102
RTVSPropertyOp34
 70
     1
102
RTVSPropertyOp35
 70
     1
102
RTVSPropertyOp36
 70
     1
102
RTVSPropertyOp37
 70
     1
102
RTVSPropertyOp38
 70
     1
102
RTVSPropertyOp39
 70
     1
102
RTVSPropertyOp40
 70
     1
102
RTVSPropertyOp41
 70
     1
102
RTVSPropertyOp42
 70
     1
102
RTVSPropertyOp43
 70
     1
102
RTVSPropertyOp44
 70
     1
102
RTVSPropertyOp45
 70
     1
102
RTVSPropertyOp46
 70
     1
102
RTVSPropertyOp47
 70
     1
102
RTVSPropertyOp48
 70
     1
102
RTVSPropertyOp49
 70
     1
102
RTVSPropertyOp50
 70
     1
102
RTVSPropertyOp51
 70
     0
102
RTVSPropertyOp52
 70
     0
102
RTVSPropertyOp53
 70
     1
102
RTVSPropertyOp54
 70
     1
102
RTVSPropertyOp55
 70
     1
102
RTVSPropertyOp56
 70
     1
102
RTVSPropertyOp57
 70
     1
102
RTVSPropertyOp58
 70
     1
102
RTVSPropertyOp59
 70
     1
102
RTVSPropertyOp60
 70
     1
102
RTVSPropertyOp61
 70
     1
102
RTVSPropertyOp62
 70
     1
  0
XRECORD
  5
B8F
102
{ACAD_REACTORS
330
B8E
102
}
330
B8E
100
AcDbXrecord
280
     1
102
RTVSPost2010Prop28
280
     0
102
RTVSPost2010PropOp28
 70
     1
102
RTVSPost2010Prop29
280
     1
102
RTVSPost2010PropOp29
 70
     1
102
RTVSPost2010Prop30
280
     1
102
RTVSPost2010PropOp30
 70
     1
102
RTVSPost2010Prop31
280
     0
102
RTVSPost2010PropOp31
 70
     1
102
RTVSPost2010Prop32
280
     0
102
RTVSPost2010PropOp32
 70
     1
102
RTVSPost2010Prop33
280
     0
102
RTVSPost2010PropOp33
 70
     1
102
RTVSPost2010Prop34
280
     0
102
RTVSPost2010PropOp34
 70
     1
102
RTVSPost2010Prop35
280
     0
102
RTVSPost2010PropOp35
 70
     1
102
RTVSPost2010Prop36
280
     0
102
RTVSPost2010PropOp36
 70
     1
102
RTVSPost2010Prop37
 90
       50
102
RTVSPost2010PropOp37
 70
     1
102
RTVSPost2010Prop38
140
0.0
102
RTVSPost2010PropOp38
 70
     1
102
RTVSPost2010Prop39
140
1.0
102
RTVSPost2010PropOp39
 70
     1
102
RTVSPost2010Prop40
 90
        0
102
RTVSPost2010PropOp40
 70
     1
102
RTVSPost2010Prop41ColorIndex
 90
       18
102
RTVSPost2010Prop41ColorRGB
 90
        0
102
RTVSPost2010PropOp41
 70
     1
102
RTVSPost2010Prop42
 90
       50
102
RTVSPost2010PropOp42
 70
     1
102
RTVSPost2010Prop43
 90
        3
102
RTVSPost2010PropOp43
 70
     1
102
RTVSPost2010Prop44ColorIndex
 90
        5
102
RTVSPost2010Prop44ColorRGB
 90
      255
102
RTVSPost2010PropOp44
 70
     1
102
RTVSPost2010Prop45
280
     0
102
RTVSPost2010PropOp45
 70
     1
102
RTVSPost2010Prop46
 90
       50
102
RTVSPost2010PropOp46
 70
     1
102
RTVSPost2010Prop47
 90
       50
102
RTVSPost2010PropOp47
 70
     1
102
RTVSPost2010Prop48
 90
       50
102
RTVSPost2010PropOp48
 70
     1
102
RTVSPost2010Prop49
280
     0
102
RTVSPost2010PropOp49
 70
     1
102
RTVSPost2010Prop50
 90
       50
102
RTVSPost2010PropOp50
 70
     1
102
RTVSPost2010Prop51ColorIndex
 90
      256
102
RTVSPost2010Prop51ColorRGB
 90
-16777216
102
RTVSPost2010PropOp51
 70
     0
102
RTVSPost2010Prop52
140
1.0
102
RTVSPost2010PropOp52
 70
     0
102
RTVSPost2010Prop53
 90
        2
102
RTVSPost2010PropOp53
 70
     1
102
RTVSPost2010Prop54
  1
strokes_ogs.tif
102
RTVSPost2010PropOp54
 70
     1
102
RTVSPost2010Prop55
280
     0
102
RTVSPost2010PropOp55
 70
     1
102
RTVSPost2010Prop56
140
1.0
102
RTVSPost2010PropOp56
 70
     1
102
RTVSPost2010Prop57
140
1.0
102
RTVSPost2010PropOp57
 70
     1
102
RTVSPropertyOp0
 70
     1
102
RTVSPropertyOp1
 70
     1
102
RTVSPropertyOp2
 70
     1
102
RTVSPropertyOp3
 70
     1
102
RTVSPropertyOp4
 70
     1
102
RTVSPropertyOp5
 70
     1
102
RTVSPropertyOp6
 70
     1
102
RTVSPropertyOp7
 70
     1
102
RTVSPropertyOp8
 70
     1
102
RTVSPropertyOp9
 70
     1
102
RTVSPropertyOp10
 70
     1
102
RTVSPropertyOp11
 70
     1
102
RTVSPropertyOp12
 70
     1
102
RTVSPropertyOp13
 70
     1
102
RTVSPropertyOp14
 70
     1
102
RTVSPropertyOp15
 70
     1
102
RTVSPropertyOp16
 70
     1
102
RTVSPropertyOp17
 70
     1
102
RTVSPropertyOp18
 70
     1
102
RTVSPropertyOp19
 70
     1
102
RTVSPropertyOp20
 70
     1
102
RTVSPropertyOp21
 70
     1
102
RTVSPropertyOp22
 70
     1
102
RTVSPropertyOp23
 70
     1
102
RTVSPropertyOp24
 70
     1
102
RTVSPropertyOp25
 70
     1
102
RTVSPropertyOp26
 70
     1
102
RTVSPropertyOp27
 70
     1
102
RTVSPropertyOp28
 70
     1
102
RTVSPropertyOp29
 70
     1
102
RTVSPropertyOp30
 70
     1
102
RTVSPropertyOp31
 70
     1
102
RTVSPropertyOp32
 70
     1
102
RTVSPropertyOp33
 70
     1
102
RTVSPropertyOp34
 70
     1
102
RTVSPropertyOp35
 70
     1
102
RTVSPropertyOp36
 70
     1
102
RTVSPropertyOp37
 70
     1
102
RTVSPropertyOp38
 70
     1
102
RTVSPropertyOp39
 70
     1
102
RTVSPropertyOp40
 70
     1
102
RTVSPropertyOp41
 70
     1
102
RTVSPropertyOp42
 70
     1
102
RTVSPropertyOp43
 70
     1
102
RTVSPropertyOp44
 70
     1
102
RTVSPropertyOp45
 70
     1
102
RTVSPropertyOp46
 70
     1
102
RTVSPropertyOp47
 70
     1
102
RTVSPropertyOp48
 70
     1
102
RTVSPropertyOp49
 70
     1
102
RTVSPropertyOp50
 70
     1
102
RTVSPropertyOp51
 70
     0
102
RTVSPropertyOp52
 70
     0
102
RTVSPropertyOp53
 70
     1
102
RTVSPropertyOp54
 70
     1
102
RTVSPropertyOp55
 70
     1
102
RTVSPropertyOp56
 70
     1
102
RTVSPropertyOp57
 70
     1
102
RTVSPropertyOp58
 70
     1
102
RTVSPropertyOp59
 70
     1
102
RTVSPropertyOp60
 70
     1
102
RTVSPropertyOp61
 70
     1
102
RTVSPropertyOp62
 70
     1
  0
XRECORD
  5
B97
102
{ACAD_REACTORS
330
B96
102
}
330
B96
100
AcDbXrecord
280
     1
102
RTVSPost2010Prop28
280
     0
102
RTVSPost2010PropOp28
 70
     1
102
RTVSPost2010Prop29
280
     1
102
RTVSPost2010PropOp29
 70
     1
102
RTVSPost2010Prop30
280
     1
102
RTVSPost2010PropOp30
 70
     1
102
RTVSPost2010Prop31
280
     0
102
RTVSPost2010PropOp31
 70
     1
102
RTVSPost2010Prop32
280
     0
102
RTVSPost2010PropOp32
 70
     1
102
RTVSPost2010Prop33
280
     0
102
RTVSPost2010PropOp33
 70
     1
102
RTVSPost2010Prop34
280
     0
102
RTVSPost2010PropOp34
 70
     1
102
RTVSPost2010Prop35
280
     0
102
RTVSPost2010PropOp35
 70
     1
102
RTVSPost2010Prop36
280
     0
102
RTVSPost2010PropOp36
 70
     1
102
RTVSPost2010Prop37
 90
       50
102
RTVSPost2010PropOp37
 70
     1
102
RTVSPost2010Prop38
140
0.0
102
RTVSPost2010PropOp38
 70
     1
102
RTVSPost2010Prop39
140
1.0
102
RTVSPost2010PropOp39
 70
     1
102
RTVSPost2010Prop40
 90
        0
102
RTVSPost2010PropOp40
 70
     1
102
RTVSPost2010Prop41ColorIndex
 90
       18
102
RTVSPost2010Prop41ColorRGB
 90
        0
102
RTVSPost2010PropOp41
 70
     1
102
RTVSPost2010Prop42
 90
       50
102
RTVSPost2010PropOp42
 70
     1
102
RTVSPost2010Prop43
 90
        3
102
RTVSPost2010PropOp43
 70
     1
102
RTVSPost2010Prop44ColorIndex
 90
        5
102
RTVSPost2010Prop44ColorRGB
 90
      255
102
RTVSPost2010PropOp44
 70
     1
102
RTVSPost2010Prop45
280
     0
102
RTVSPost2010PropOp45
 70
     1
102
RTVSPost2010Prop46
 90
       50
102
RTVSPost2010PropOp46
 70
     1
102
RTVSPost2010Prop47
 90
       50
102
RTVSPost2010PropOp47
 70
     1
102
RTVSPost2010Prop48
 90
       50
102
RTVSPost2010PropOp48
 70
     1
102
RTVSPost2010Prop49
280
     0
102
RTVSPost2010PropOp49
 70
     1
102
RTVSPost2010Prop50
 90
       50
102
RTVSPost2010PropOp50
 70
     1
102
RTVSPost2010Prop51ColorIndex
 90
      256
102
RTVSPost2010Prop51ColorRGB
 90
-16777216
102
RTVSPost2010PropOp51
 70
     0
102
RTVSPost2010Prop52
140
1.0
102
RTVSPost2010PropOp52
 70
     0
102
RTVSPost2010Prop53
 90
        2
102
RTVSPost2010PropOp53
 70
     1
102
RTVSPost2010Prop54
  1
strokes_ogs.tif
102
RTVSPost2010PropOp54
 70
     1
102
RTVSPost2010Prop55
280
     0
102
RTVSPost2010PropOp55
 70
     1
102
RTVSPost2010Prop56
140
1.0
102
RTVSPost2010PropOp56
 70
     1
102
RTVSPost2010Prop57
140
1.0
102
RTVSPost2010PropOp57
 70
     1
102
RTVSPropertyOp0
 70
     1
102
RTVSPropertyOp1
 70
     1
102
RTVSPropertyOp2
 70
     1
102
RTVSPropertyOp3
 70
     1
102
RTVSPropertyOp4
 70
     1
102
RTVSPropertyOp5
 70
     1
102
RTVSPropertyOp6
 70
     1
102
RTVSPropertyOp7
 70
     1
102
RTVSPropertyOp8
 70
     1
102
RTVSPropertyOp9
 70
     1
102
RTVSPropertyOp10
 70
     1
102
RTVSPropertyOp11
 70
     1
102
RTVSPropertyOp12
 70
     1
102
RTVSPropertyOp13
 70
     1
102
RTVSPropertyOp14
 70
     1
102
RTVSPropertyOp15
 70
     1
102
RTVSPropertyOp16
 70
     1
102
RTVSPropertyOp17
 70
     1
102
RTVSPropertyOp18
 70
     1
102
RTVSPropertyOp19
 70
     1
102
RTVSPropertyOp20
 70
     1
102
RTVSPropertyOp21
 70
     1
102
RTVSPropertyOp22
 70
     1
102
RTVSPropertyOp23
 70
     1
102
RTVSPropertyOp24
 70
     1
102
RTVSPropertyOp25
 70
     1
102
RTVSPropertyOp26
 70
     1
102
RTVSPropertyOp27
 70
     1
102
RTVSPropertyOp28
 70
     1
102
RTVSPropertyOp29
 70
     1
102
RTVSPropertyOp30
 70
     1
102
RTVSPropertyOp31
 70
     1
102
RTVSPropertyOp32
 70
     1
102
RTVSPropertyOp33
 70
     1
102
RTVSPropertyOp34
 70
     1
102
RTVSPropertyOp35
 70
     1
102
RTVSPropertyOp36
 70
     1
102
RTVSPropertyOp37
 70
     1
102
RTVSPropertyOp38
 70
     1
102
RTVSPropertyOp39
 70
     1
102
RTVSPropertyOp40
 70
     1
102
RTVSPropertyOp41
 70
     1
102
RTVSPropertyOp42
 70
     1
102
RTVSPropertyOp43
 70
     1
102
RTVSPropertyOp44
 70
     1
102
RTVSPropertyOp45
 70
     1
102
RTVSPropertyOp46
 70
     1
102
RTVSPropertyOp47
 70
     1
102
RTVSPropertyOp48
 70
     1
102
RTVSPropertyOp49
 70
     1
102
RTVSPropertyOp50
 70
     1
102
RTVSPropertyOp51
 70
     0
102
RTVSPropertyOp52
 70
     0
102
RTVSPropertyOp53
 70
     1
102
RTVSPropertyOp54
 70
     1
102
RTVSPropertyOp55
 70
     1
102
RTVSPropertyOp56
 70
     1
102
RTVSPropertyOp57
 70
     1
102
RTVSPropertyOp58
 70
     1
102
RTVSPropertyOp59
 70
     1
102
RTVSPropertyOp60
 70
     1
102
RTVSPropertyOp61
 70
     1
102
RTVSPropertyOp62
 70
     1
  0
XRECORD
  5
BB3
102
{ACAD_REACTORS
330
BB2
102
}
330
BB2
100
AcDbXrecord
280
     1
102
RTVSPost2010Prop28
280
     0
102
RTVSPost2010PropOp28
 70
     1
102
RTVSPost2010Prop29
280
     1
102
RTVSPost2010PropOp29
 70
     1
102
RTVSPost2010Prop30
280
     1
102
RTVSPost2010PropOp30
 70
     1
102
RTVSPost2010Prop31
280
     0
102
RTVSPost2010PropOp31
 70
     1
102
RTVSPost2010Prop32
280
     0
102
RTVSPost2010PropOp32
 70
     1
102
RTVSPost2010Prop33
280
     0
102
RTVSPost2010PropOp33
 70
     1
102
RTVSPost2010Prop34
280
     0
102
RTVSPost2010PropOp34
 70
     1
102
RTVSPost2010Prop35
280
     0
102
RTVSPost2010PropOp35
 70
     1
102
RTVSPost2010Prop36
280
     0
102
RTVSPost2010PropOp36
 70
     1
102
RTVSPost2010Prop37
 90
       50
102
RTVSPost2010PropOp37
 70
     0
102
RTVSPost2010Prop38
140
0.0
102
RTVSPost2010PropOp38
 70
     0
102
RTVSPost2010Prop39
140
1.0
102
RTVSPost2010PropOp39
 70
     0
102
RTVSPost2010Prop40
 90
        0
102
RTVSPost2010PropOp40
 70
     0
102
RTVSPost2010Prop41ColorIndex
 90
       18
102
RTVSPost2010Prop41ColorRGB
 90
        0
102
RTVSPost2010PropOp41
 70
     0
102
RTVSPost2010Prop42
 90
       50
102
RTVSPost2010PropOp42
 70
     0
102
RTVSPost2010Prop43
 90
        3
102
RTVSPost2010PropOp43
 70
     0
102
RTVSPost2010Prop44ColorIndex
 90
        5
102
RTVSPost2010Prop44ColorRGB
 90
      255
102
RTVSPost2010PropOp44
 70
     0
102
RTVSPost2010Prop45
280
     0
102
RTVSPost2010PropOp45
 70
     1
102
RTVSPost2010Prop46
 90
       50
102
RTVSPost2010PropOp46
 70
     0
102
RTVSPost2010Prop47
 90
       50
102
RTVSPost2010PropOp47
 70
     0
102
RTVSPost2010Prop48
 90
       50
102
RTVSPost2010PropOp48
 70
     0
102
RTVSPost2010Prop49
280
     0
102
RTVSPost2010PropOp49
 70
     1
102
RTVSPost2010Prop50
 90
       50
102
RTVSPost2010PropOp50
 70
     0
102
RTVSPost2010Prop51ColorIndex
 90
      256
102
RTVSPost2010Prop51ColorRGB
 90
-16777216
102
RTVSPost2010PropOp51
 70
     0
102
RTVSPost2010Prop52
140
1.0
102
RTVSPost2010PropOp52
 70
     0
102
RTVSPost2010Prop53
 90
        2
102
RTVSPost2010PropOp53
 70
     0
102
RTVSPost2010Prop54
  1
strokes_ogs.tif
102
RTVSPost2010PropOp54
 70
     0
102
RTVSPost2010Prop55
280
     0
102
RTVSPost2010PropOp55
 70
     1
102
RTVSPost2010Prop56
140
1.0
102
RTVSPost2010PropOp56
 70
     0
102
RTVSPost2010Prop57
140
1.0
102
RTVSPost2010PropOp57
 70
     0
102
RTVSPropertyOp0
 70
     0
102
RTVSPropertyOp1
 70
     0
102
RTVSPropertyOp2
 70
     0
102
RTVSPropertyOp3
 70
     0
102
RTVSPropertyOp4
 70
     0
102
RTVSPropertyOp5
 70
     0
102
RTVSPropertyOp6
 70
     0
102
RTVSPropertyOp7
 70
     0
102
RTVSPropertyOp8
 70
     0
102
RTVSPropertyOp9
 70
     0
102
RTVSPropertyOp10
 70
     0
102
RTVSPropertyOp11
 70
     0
102
RTVSPropertyOp12
 70
     0
102
RTVSPropertyOp13
 70
     0
102
RTVSPropertyOp14
 70
     2
102
RTVSPropertyOp15
 70
     0
102
RTVSPropertyOp16
 70
     0
102
RTVSPropertyOp17
 70
     0
102
RTVSPropertyOp18
 70
     0
102
RTVSPropertyOp19
 70
     0
102
RTVSPropertyOp20
 70
     0
102
RTVSPropertyOp21
 70
     0
102
RTVSPropertyOp22
 70
     0
102
RTVSPropertyOp23
 70
     0
102
RTVSPropertyOp24
 70
     0
102
RTVSPropertyOp25
 70
     0
102
RTVSPropertyOp26
 70
     0
102
RTVSPropertyOp27
 70
     0
102
RTVSPropertyOp28
 70
     1
102
RTVSPropertyOp29
 70
     1
102
RTVSPropertyOp30
 70
     1
102
RTVSPropertyOp31
 70
     1
102
RTVSPropertyOp32
 70
     1
102
RTVSPropertyOp33
 70
     1
102
RTVSPropertyOp34
 70
     1
102
RTVSPropertyOp35
 70
     1
102
RTVSPropertyOp36
 70
     1
102
RTVSPropertyOp37
 70
     0
102
RTVSPropertyOp38
 70
     0
102
RTVSPropertyOp39
 70
     0
102
RTVSPropertyOp40
 70
     0
102
RTVSPropertyOp41
 70
     0
102
RTVSPropertyOp42
 70
     0
102
RTVSPropertyOp43
 70
     0
102
RTVSPropertyOp44
 70
     0
102
RTVSPropertyOp45
 70
     1
102
RTVSPropertyOp46
 70
     0
102
RTVSPropertyOp47
 70
     0
102
RTVSPropertyOp48
 70
     0
102
RTVSPropertyOp49
 70
     1
102
RTVSPropertyOp50
 70
     0
102
RTVSPropertyOp51
 70
     0
102
RTVSPropertyOp52
 70
     0
102
RTVSPropertyOp53
 70
     0
102
RTVSPropertyOp54
 70
     0
102
RTVSPropertyOp55
 70
     1
102
RTVSPropertyOp56
 70
     0
102
RTVSPropertyOp57
 70
     0
102
RTVSPropertyOp58
 70
     1
102
RTVSPropertyOp59
 70
     1
102
RTVSPropertyOp60
 70
     1
102
RTVSPropertyOp61
 70
     1
102
RTVSPropertyOp62
 70
     1
  0
XRECORD
  5
BA3
102
{ACAD_REACTORS
330
BA2
102
}
330
BA2
100
AcDbXrecord
280
     1
102
RTVSPost2010Prop28
280
     0
102
RTVSPost2010PropOp28
 70
     1
102
RTVSPost2010Prop29
280
     1
102
RTVSPost2010PropOp29
 70
     1
102
RTVSPost2010Prop30
280
     1
102
RTVSPost2010PropOp30
 70
     1
102
RTVSPost2010Prop31
280
     0
102
RTVSPost2010PropOp31
 70
     1
102
RTVSPost2010Prop32
280
     0
102
RTVSPost2010PropOp32
 70
     1
102
RTVSPost2010Prop33
280
     0
102
RTVSPost2010PropOp33
 70
     1
102
RTVSPost2010Prop34
280
     0
102
RTVSPost2010PropOp34
 70
     1
102
RTVSPost2010Prop35
280
     0
102
RTVSPost2010PropOp35
 70
     1
102
RTVSPost2010Prop36
280
     0
102
RTVSPost2010PropOp36
 70
     1
102
RTVSPost2010Prop37
 90
       50
102
RTVSPost2010PropOp37
 70
     1
102
RTVSPost2010Prop38
140
0.0
102
RTVSPost2010PropOp38
 70
     1
102
RTVSPost2010Prop39
140
1.0
102
RTVSPost2010PropOp39
 70
     1
102
RTVSPost2010Prop40
 90
        0
102
RTVSPost2010PropOp40
 70
     1
102
RTVSPost2010Prop41ColorIndex
 90
       18
102
RTVSPost2010Prop41ColorRGB
 90
        0
102
RTVSPost2010PropOp41
 70
     1
102
RTVSPost2010Prop42
 90
       50
102
RTVSPost2010PropOp42
 70
     1
102
RTVSPost2010Prop43
 90
        3
102
RTVSPost2010PropOp43
 70
     1
102
RTVSPost2010Prop44ColorIndex
 90
        5
102
RTVSPost2010Prop44ColorRGB
 90
      255
102
RTVSPost2010PropOp44
 70
     1
102
RTVSPost2010Prop45
280
     0
102
RTVSPost2010PropOp45
 70
     1
102
RTVSPost2010Prop46
 90
       50
102
RTVSPost2010PropOp46
 70
     1
102
RTVSPost2010Prop47
 90
       50
102
RTVSPost2010PropOp47
 70
     1
102
RTVSPost2010Prop48
 90
       50
102
RTVSPost2010PropOp48
 70
     1
102
RTVSPost2010Prop49
280
     0
102
RTVSPost2010PropOp49
 70
     1
102
RTVSPost2010Prop50
 90
       50
102
RTVSPost2010PropOp50
 70
     1
102
RTVSPost2010Prop51ColorIndex
 90
      256
102
RTVSPost2010Prop51ColorRGB
 90
-16777216
102
RTVSPost2010PropOp51
 70
     0
102
RTVSPost2010Prop52
140
1.0
102
RTVSPost2010PropOp52
 70
     0
102
RTVSPost2010Prop53
 90
        2
102
RTVSPost2010PropOp53
 70
     1
102
RTVSPost2010Prop54
  1
strokes_ogs.tif
102
RTVSPost2010PropOp54
 70
     1
102
RTVSPost2010Prop55
280
     0
102
RTVSPost2010PropOp55
 70
     1
102
RTVSPost2010Prop56
140
1.0
102
RTVSPost2010PropOp56
 70
     1
102
RTVSPost2010Prop57
140
1.0
102
RTVSPost2010PropOp57
 70
     1
102
RTVSPropertyOp0
 70
     1
102
RTVSPropertyOp1
 70
     1
102
RTVSPropertyOp2
 70
     1
102
RTVSPropertyOp3
 70
     1
102
RTVSPropertyOp4
 70
     1
102
RTVSPropertyOp5
 70
     1
102
RTVSPropertyOp6
 70
     1
102
RTVSPropertyOp7
 70
     1
102
RTVSPropertyOp8
 70
     1
102
RTVSPropertyOp9
 70
     1
102
RTVSPropertyOp10
 70
     1
102
RTVSPropertyOp11
 70
     1
102
RTVSPropertyOp12
 70
     1
102
RTVSPropertyOp13
 70
     1
102
RTVSPropertyOp14
 70
     1
102
RTVSPropertyOp15
 70
     1
102
RTVSPropertyOp16
 70
     1
102
RTVSPropertyOp17
 70
     1
102
RTVSPropertyOp18
 70
     1
102
RTVSPropertyOp19
 70
     1
102
RTVSPropertyOp20
 70
     1
102
RTVSPropertyOp21
 70
     1
102
RTVSPropertyOp22
 70
     1
102
RTVSPropertyOp23
 70
     1
102
RTVSPropertyOp24
 70
     1
102
RTVSPropertyOp25
 70
     1
102
RTVSPropertyOp26
 70
     1
102
RTVSPropertyOp27
 70
     1
102
RTVSPropertyOp28
 70
     1
102
RTVSPropertyOp29
 70
     1
102
RTVSPropertyOp30
 70
     1
102
RTVSPropertyOp31
 70
     1
102
RTVSPropertyOp32
 70
     1
102
RTVSPropertyOp33
 70
     1
102
RTVSPropertyOp34
 70
     1
102
RTVSPropertyOp35
 70
     1
102
RTVSPropertyOp36
 70
     1
102
RTVSPropertyOp37
 70
     1
102
RTVSPropertyOp38
 70
     1
102
RTVSPropertyOp39
 70
     1
102
RTVSPropertyOp40
 70
     1
102
RTVSPropertyOp41
 70
     1
102
RTVSPropertyOp42
 70
     1
102
RTVSPropertyOp43
 70
     1
102
RTVSPropertyOp44
 70
     1
102
RTVSPropertyOp45
 70
     1
102
RTVSPropertyOp46
 70
     1
102
RTVSPropertyOp47
 70
     1
102
RTVSPropertyOp48
 70
     1
102
RTVSPropertyOp49
 70
     1
102
RTVSPropertyOp50
 70
     1
102
RTVSPropertyOp51
 70
     0
102
RTVSPropertyOp52
 70
     0
102
RTVSPropertyOp53
 70
     1
102
RTVSPropertyOp54
 70
     1
102
RTVSPropertyOp55
 70
     1
102
RTVSPropertyOp56
 70
     1
102
RTVSPropertyOp57
 70
     1
102
RTVSPropertyOp58
 70
     1
102
RTVSPropertyOp59
 70
     1
102
RTVSPropertyOp60
 70
     1
102
RTVSPropertyOp61
 70
     1
102
RTVSPropertyOp62
 70
     1
  0
XRECORD
  5
BB5
102
{ACAD_REACTORS
330
BB4
102
}
330
BB4
100
AcDbXrecord
280
     1
102
RTVSPost2010Prop28
280
     0
102
RTVSPost2010PropOp28
 70
     1
102
RTVSPost2010Prop29
280
     1
102
RTVSPost2010PropOp29
 70
     1
102
RTVSPost2010Prop30
280
     1
102
RTVSPost2010PropOp30
 70
     1
102
RTVSPost2010Prop31
280
     0
102
RTVSPost2010PropOp31
 70
     1
102
RTVSPost2010Prop32
280
     0
102
RTVSPost2010PropOp32
 70
     1
102
RTVSPost2010Prop33
280
     0
102
RTVSPost2010PropOp33
 70
     1
102
RTVSPost2010Prop34
280
     0
102
RTVSPost2010PropOp34
 70
     1
102
RTVSPost2010Prop35
280
     0
102
RTVSPost2010PropOp35
 70
     1
102
RTVSPost2010Prop36
280
     0
102
RTVSPost2010PropOp36
 70
     1
102
RTVSPost2010Prop37
 90
       50
102
RTVSPost2010PropOp37
 70
     0
102
RTVSPost2010Prop38
140
0.0
102
RTVSPost2010PropOp38
 70
     0
102
RTVSPost2010Prop39
140
1.0
102
RTVSPost2010PropOp39
 70
     0
102
RTVSPost2010Prop40
 90
        0
102
RTVSPost2010PropOp40
 70
     0
102
RTVSPost2010Prop41ColorIndex
 90
       18
102
RTVSPost2010Prop41ColorRGB
 90
        0
102
RTVSPost2010PropOp41
 70
     0
102
RTVSPost2010Prop42
 90
       50
102
RTVSPost2010PropOp42
 70
     0
102
RTVSPost2010Prop43
 90
        3
102
RTVSPost2010PropOp43
 70
     0
102
RTVSPost2010Prop44ColorIndex
 90
        5
102
RTVSPost2010Prop44ColorRGB
 90
      255
102
RTVSPost2010PropOp44
 70
     0
102
RTVSPost2010Prop45
280
     0
102
RTVSPost2010PropOp45
 70
     1
102
RTVSPost2010Prop46
 90
       50
102
RTVSPost2010PropOp46
 70
     0
102
RTVSPost2010Prop47
 90
       50
102
RTVSPost2010PropOp47
 70
     0
102
RTVSPost2010Prop48
 90
       50
102
RTVSPost2010PropOp48
 70
     0
102
RTVSPost2010Prop49
280
     0
102
RTVSPost2010PropOp49
 70
     1
102
RTVSPost2010Prop50
 90
       50
102
RTVSPost2010PropOp50
 70
     0
102
RTVSPost2010Prop51ColorIndex
 90
      256
102
RTVSPost2010Prop51ColorRGB
 90
-16777216
102
RTVSPost2010PropOp51
 70
     0
102
RTVSPost2010Prop52
140
1.0
102
RTVSPost2010PropOp52
 70
     0
102
RTVSPost2010Prop53
 90
        2
102
RTVSPost2010PropOp53
 70
     0
102
RTVSPost2010Prop54
  1
strokes_ogs.tif
102
RTVSPost2010PropOp54
 70
     0
102
RTVSPost2010Prop55
280
     0
102
RTVSPost2010PropOp55
 70
     1
102
RTVSPost2010Prop56
140
1.0
102
RTVSPost2010PropOp56
 70
     0
102
RTVSPost2010Prop57
140
1.0
102
RTVSPost2010PropOp57
 70
     0
102
RTVSPropertyOp0
 70
     0
102
RTVSPropertyOp1
 70
     0
102
RTVSPropertyOp2
 70
     0
102
RTVSPropertyOp3
 70
     0
102
RTVSPropertyOp4
 70
     0
102
RTVSPropertyOp5
 70
     0
102
RTVSPropertyOp6
 70
     0
102
RTVSPropertyOp7
 70
     0
102
RTVSPropertyOp8
 70
     0
102
RTVSPropertyOp9
 70
     0
102
RTVSPropertyOp10
 70
     0
102
RTVSPropertyOp11
 70
     0
102
RTVSPropertyOp12
 70
     0
102
RTVSPropertyOp13
 70
     0
102
RTVSPropertyOp14
 70
     2
102
RTVSPropertyOp15
 70
     0
102
RTVSPropertyOp16
 70
     0
102
RTVSPropertyOp17
 70
     0
102
RTVSPropertyOp18
 70
     0
102
RTVSPropertyOp19
 70
     0
102
RTVSPropertyOp20
 70
     0
102
RTVSPropertyOp21
 70
     0
102
RTVSPropertyOp22
 70
     0
102
RTVSPropertyOp23
 70
     0
102
RTVSPropertyOp24
 70
     0
102
RTVSPropertyOp25
 70
     0
102
RTVSPropertyOp26
 70
     0
102
RTVSPropertyOp27
 70
     0
102
RTVSPropertyOp28
 70
     1
102
RTVSPropertyOp29
 70
     1
102
RTVSPropertyOp30
 70
     1
102
RTVSPropertyOp31
 70
     1
102
RTVSPropertyOp32
 70
     1
102
RTVSPropertyOp33
 70
     1
102
RTVSPropertyOp34
 70
     1
102
RTVSPropertyOp35
 70
     1
102
RTVSPropertyOp36
 70
     1
102
RTVSPropertyOp37
 70
     0
102
RTVSPropertyOp38
 70
     0
102
RTVSPropertyOp39
 70
     0
102
RTVSPropertyOp40
 70
     0
102
RTVSPropertyOp41
 70
     0
102
RTVSPropertyOp42
 70
     0
102
RTVSPropertyOp43
 70
     0
102
RTVSPropertyOp44
 70
     0
102
RTVSPropertyOp45
 70
     1
102
RTVSPropertyOp46
 70
     0
102
RTVSPropertyOp47
 70
     0
102
RTVSPropertyOp48
 70
     0
102
RTVSPropertyOp49
 70
     1
102
RTVSPropertyOp50
 70
     0
102
RTVSPropertyOp51
 70
     0
102
RTVSPropertyOp52
 70
     0
102
RTVSPropertyOp53
 70
     0
102
RTVSPropertyOp54
 70
     0
102
RTVSPropertyOp55
 70
     1
102
RTVSPropertyOp56
 70
     0
102
RTVSPropertyOp57
 70
     0
102
RTVSPropertyOp58
 70
     1
102
RTVSPropertyOp59
 70
     1
102
RTVSPropertyOp60
 70
     1
102
RTVSPropertyOp61
 70
     1
102
RTVSPropertyOp62
 70
     1
  0
XRECORD
  5
B9B
102
{ACAD_REACTORS
330
B9A
102
}
330
B9A
100
AcDbXrecord
280
     1
102
RTVSPost2010Prop28
280
     0
102
RTVSPost2010PropOp28
 70
     1
102
RTVSPost2010Prop29
280
     1
102
RTVSPost2010PropOp29
 70
     1
102
RTVSPost2010Prop30
280
     1
102
RTVSPost2010PropOp30
 70
     1
102
RTVSPost2010Prop31
280
     0
102
RTVSPost2010PropOp31
 70
     1
102
RTVSPost2010Prop32
280
     0
102
RTVSPost2010PropOp32
 70
     1
102
RTVSPost2010Prop33
280
     0
102
RTVSPost2010PropOp33
 70
     1
102
RTVSPost2010Prop34
280
     0
102
RTVSPost2010PropOp34
 70
     1
102
RTVSPost2010Prop35
280
     0
102
RTVSPost2010PropOp35
 70
     1
102
RTVSPost2010Prop36
280
     0
102
RTVSPost2010PropOp36
 70
     1
102
RTVSPost2010Prop37
 90
       50
102
RTVSPost2010PropOp37
 70
     1
102
RTVSPost2010Prop38
140
0.0
102
RTVSPost2010PropOp38
 70
     1
102
RTVSPost2010Prop39
140
1.0
102
RTVSPost2010PropOp39
 70
     1
102
RTVSPost2010Prop40
 90
        0
102
RTVSPost2010PropOp40
 70
     1
102
RTVSPost2010Prop41ColorIndex
 90
       18
102
RTVSPost2010Prop41ColorRGB
 90
        0
102
RTVSPost2010PropOp41
 70
     1
102
RTVSPost2010Prop42
 90
       50
102
RTVSPost2010PropOp42
 70
     1
102
RTVSPost2010Prop43
 90
        3
102
RTVSPost2010PropOp43
 70
     1
102
RTVSPost2010Prop44ColorIndex
 90
        5
102
RTVSPost2010Prop44ColorRGB
 90
      255
102
RTVSPost2010PropOp44
 70
     1
102
RTVSPost2010Prop45
280
     0
102
RTVSPost2010PropOp45
 70
     1
102
RTVSPost2010Prop46
 90
       50
102
RTVSPost2010PropOp46
 70
     1
102
RTVSPost2010Prop47
 90
       50
102
RTVSPost2010PropOp47
 70
     1
102
RTVSPost2010Prop48
 90
       50
102
RTVSPost2010PropOp48
 70
     1
102
RTVSPost2010Prop49
280
     0
102
RTVSPost2010PropOp49
 70
     1
102
RTVSPost2010Prop50
 90
       50
102
RTVSPost2010PropOp50
 70
     1
102
RTVSPost2010Prop51ColorIndex
 90
      256
102
RTVSPost2010Prop51ColorRGB
 90
-16777216
102
RTVSPost2010PropOp51
 70
     0
102
RTVSPost2010Prop52
140
1.0
102
RTVSPost2010PropOp52
 70
     0
102
RTVSPost2010Prop53
 90
        2
102
RTVSPost2010PropOp53
 70
     1
102
RTVSPost2010Prop54
  1
strokes_ogs.tif
102
RTVSPost2010PropOp54
 70
     1
102
RTVSPost2010Prop55
280
     0
102
RTVSPost2010PropOp55
 70
     1
102
RTVSPost2010Prop56
140
1.0
102
RTVSPost2010PropOp56
 70
     1
102
RTVSPost2010Prop57
140
1.0
102
RTVSPost2010PropOp57
 70
     1
102
RTVSPropertyOp0
 70
     1
102
RTVSPropertyOp1
 70
     1
102
RTVSPropertyOp2
 70
     1
102
RTVSPropertyOp3
 70
     1
102
RTVSPropertyOp4
 70
     1
102
RTVSPropertyOp5
 70
     1
102
RTVSPropertyOp6
 70
     1
102
RTVSPropertyOp7
 70
     1
102
RTVSPropertyOp8
 70
     1
102
RTVSPropertyOp9
 70
     1
102
RTVSPropertyOp10
 70
     1
102
RTVSPropertyOp11
 70
     1
102
RTVSPropertyOp12
 70
     1
102
RTVSPropertyOp13
 70
     1
102
RTVSPropertyOp14
 70
     1
102
RTVSPropertyOp15
 70
     1
102
RTVSPropertyOp16
 70
     1
102
RTVSPropertyOp17
 70
     1
102
RTVSPropertyOp18
 70
     1
102
RTVSPropertyOp19
 70
     1
102
RTVSPropertyOp20
 70
     1
102
RTVSPropertyOp21
 70
     1
102
RTVSPropertyOp22
 70
     1
102
RTVSPropertyOp23
 70
     1
102
RTVSPropertyOp24
 70
     1
102
RTVSPropertyOp25
 70
     1
102
RTVSPropertyOp26
 70
     1
102
RTVSPropertyOp27
 70
     1
102
RTVSPropertyOp28
 70
     1
102
RTVSPropertyOp29
 70
     1
102
RTVSPropertyOp30
 70
     1
102
RTVSPropertyOp31
 70
     1
102
RTVSPropertyOp32
 70
     1
102
RTVSPropertyOp33
 70
     1
102
RTVSPropertyOp34
 70
     1
102
RTVSPropertyOp35
 70
     1
102
RTVSPropertyOp36
 70
     1
102
RTVSPropertyOp37
 70
     1
102
RTVSPropertyOp38
 70
     1
102
RTVSPropertyOp39
 70
     1
102
RTVSPropertyOp40
 70
     1
102
RTVSPropertyOp41
 70
     1
102
RTVSPropertyOp42
 70
     1
102
RTVSPropertyOp43
 70
     1
102
RTVSPropertyOp44
 70
     1
102
RTVSPropertyOp45
 70
     1
102
RTVSPropertyOp46
 70
     1
102
RTVSPropertyOp47
 70
     1
102
RTVSPropertyOp48
 70
     1
102
RTVSPropertyOp49
 70
     1
102
RTVSPropertyOp50
 70
     1
102
RTVSPropertyOp51
 70
     0
102
RTVSPropertyOp52
 70
     0
102
RTVSPropertyOp53
 70
     1
102
RTVSPropertyOp54
 70
     1
102
RTVSPropertyOp55
 70
     1
102
RTVSPropertyOp56
 70
     1
102
RTVSPropertyOp57
 70
     1
102
RTVSPropertyOp58
 70
     1
102
RTVSPropertyOp59
 70
     1
102
RTVSPropertyOp60
 70
     1
102
RTVSPropertyOp61
 70
     1
102
RTVSPropertyOp62
 70
     1
  0
XRECORD
  5
BB1
102
{ACAD_REACTORS
330
BB0
102
}
330
BB0
100
AcDbXrecord
280
     1
102
RTVSPost2010Prop28
280
     0
102
RTVSPost2010PropOp28
 70
     1
102
RTVSPost2010Prop29
280
     1
102
RTVSPost2010PropOp29
 70
     1
102
RTVSPost2010Prop30
280
     1
102
RTVSPost2010PropOp30
 70
     1
102
RTVSPost2010Prop31
280
     0
102
RTVSPost2010PropOp31
 70
     1
102
RTVSPost2010Prop32
280
     0
102
RTVSPost2010PropOp32
 70
     1
102
RTVSPost2010Prop33
280
     0
102
RTVSPost2010PropOp33
 70
     1
102
RTVSPost2010Prop34
280
     0
102
RTVSPost2010PropOp34
 70
     1
102
RTVSPost2010Prop35
280
     0
102
RTVSPost2010PropOp35
 70
     1
102
RTVSPost2010Prop36
280
     0
102
RTVSPost2010PropOp36
 70
     1
102
RTVSPost2010Prop37
 90
       50
102
RTVSPost2010PropOp37
 70
     1
102
RTVSPost2010Prop38
140
0.0
102
RTVSPost2010PropOp38
 70
     1
102
RTVSPost2010Prop39
140
1.0
102
RTVSPost2010PropOp39
 70
     1
102
RTVSPost2010Prop40
 90
        0
102
RTVSPost2010PropOp40
 70
     1
102
RTVSPost2010Prop41ColorIndex
 90
       18
102
RTVSPost2010Prop41ColorRGB
 90
        0
102
RTVSPost2010PropOp41
 70
     1
102
RTVSPost2010Prop42
 90
       50
102
RTVSPost2010PropOp42
 70
     1
102
RTVSPost2010Prop43
 90
        3
102
RTVSPost2010PropOp43
 70
     1
102
RTVSPost2010Prop44ColorIndex
 90
        5
102
RTVSPost2010Prop44ColorRGB
 90
      255
102
RTVSPost2010PropOp44
 70
     1
102
RTVSPost2010Prop45
280
     0
102
RTVSPost2010PropOp45
 70
     1
102
RTVSPost2010Prop46
 90
       50
102
RTVSPost2010PropOp46
 70
     1
102
RTVSPost2010Prop47
 90
       50
102
RTVSPost2010PropOp47
 70
     1
102
RTVSPost2010Prop48
 90
       50
102
RTVSPost2010PropOp48
 70
     1
102
RTVSPost2010Prop49
280
     0
102
RTVSPost2010PropOp49
 70
     1
102
RTVSPost2010Prop50
 90
       50
102
RTVSPost2010PropOp50
 70
     1
102
RTVSPost2010Prop51ColorIndex
 90
      256
102
RTVSPost2010Prop51ColorRGB
 90
-16777216
102
RTVSPost2010PropOp51
 70
     0
102
RTVSPost2010Prop52
140
1.0
102
RTVSPost2010PropOp52
 70
     0
102
RTVSPost2010Prop53
 90
        2
102
RTVSPost2010PropOp53
 70
     1
102
RTVSPost2010Prop54
  1
strokes_ogs.tif
102
RTVSPost2010PropOp54
 70
     1
102
RTVSPost2010Prop55
280
     0
102
RTVSPost2010PropOp55
 70
     1
102
RTVSPost2010Prop56
140
1.0
102
RTVSPost2010PropOp56
 70
     1
102
RTVSPost2010Prop57
140
1.0
102
RTVSPost2010PropOp57
 70
     1
102
RTVSPropertyOp0
 70
     1
102
RTVSPropertyOp1
 70
     1
102
RTVSPropertyOp2
 70
     1
102
RTVSPropertyOp3
 70
     1
102
RTVSPropertyOp4
 70
     1
102
RTVSPropertyOp5
 70
     1
102
RTVSPropertyOp6
 70
     1
102
RTVSPropertyOp7
 70
     1
102
RTVSPropertyOp8
 70
     1
102
RTVSPropertyOp9
 70
     1
102
RTVSPropertyOp10
 70
     1
102
RTVSPropertyOp11
 70
     1
102
RTVSPropertyOp12
 70
     1
102
RTVSPropertyOp13
 70
     1
102
RTVSPropertyOp14
 70
     1
102
RTVSPropertyOp15
 70
     1
102
RTVSPropertyOp16
 70
     1
102
RTVSPropertyOp17
 70
     1
102
RTVSPropertyOp18
 70
     1
102
RTVSPropertyOp19
 70
     1
102
RTVSPropertyOp20
 70
     1
102
RTVSPropertyOp21
 70
     1
102
RTVSPropertyOp22
 70
     1
102
RTVSPropertyOp23
 70
     1
102
RTVSPropertyOp24
 70
     1
102
RTVSPropertyOp25
 70
     1
102
RTVSPropertyOp26
 70
     1
102
RTVSPropertyOp27
 70
     1
102
RTVSPropertyOp28
 70
     1
102
RTVSPropertyOp29
 70
     1
102
RTVSPropertyOp30
 70
     1
102
RTVSPropertyOp31
 70
     1
102
RTVSPropertyOp32
 70
     1
102
RTVSPropertyOp33
 70
     1
102
RTVSPropertyOp34
 70
     1
102
RTVSPropertyOp35
 70
     1
102
RTVSPropertyOp36
 70
     1
102
RTVSPropertyOp37
 70
     1
102
RTVSPropertyOp38
 70
     1
102
RTVSPropertyOp39
 70
     1
102
RTVSPropertyOp40
 70
     1
102
RTVSPropertyOp41
 70
     1
102
RTVSPropertyOp42
 70
     1
102
RTVSPropertyOp43
 70
     1
102
RTVSPropertyOp44
 70
     1
102
RTVSPropertyOp45
 70
     1
102
RTVSPropertyOp46
 70
     1
102
RTVSPropertyOp47
 70
     1
102
RTVSPropertyOp48
 70
     1
102
RTVSPropertyOp49
 70
     1
102
RTVSPropertyOp50
 70
     1
102
RTVSPropertyOp51
 70
     0
102
RTVSPropertyOp52
 70
     0
102
RTVSPropertyOp53
 70
     1
102
RTVSPropertyOp54
 70
     1
102
RTVSPropertyOp55
 70
     1
102
RTVSPropertyOp56
 70
     1
102
RTVSPropertyOp57
 70
     1
102
RTVSPropertyOp58
 70
     1
102
RTVSPropertyOp59
 70
     1
102
RTVSPropertyOp60
 70
     1
102
RTVSPropertyOp61
 70
     1
102
RTVSPropertyOp62
 70
     1
  0
XRECORD
  5
BAF
102
{ACAD_REACTORS
330
BAE
102
}
330
BAE
100
AcDbXrecord
280
     1
102
RTVSPost2010Prop28
280
     0
102
RTVSPost2010PropOp28
 70
     1
102
RTVSPost2010Prop29
280
     1
102
RTVSPost2010PropOp29
 70
     1
102
RTVSPost2010Prop30
280
     1
102
RTVSPost2010PropOp30
 70
     1
102
RTVSPost2010Prop31
280
     0
102
RTVSPost2010PropOp31
 70
     1
102
RTVSPost2010Prop32
280
     0
102
RTVSPost2010PropOp32
 70
     1
102
RTVSPost2010Prop33
280
     0
102
RTVSPost2010PropOp33
 70
     1
102
RTVSPost2010Prop34
280
     0
102
RTVSPost2010PropOp34
 70
     1
102
RTVSPost2010Prop35
280
     0
102
RTVSPost2010PropOp35
 70
     1
102
RTVSPost2010Prop36
280
     0
102
RTVSPost2010PropOp36
 70
     1
102
RTVSPost2010Prop37
 90
       50
102
RTVSPost2010PropOp37
 70
     1
102
RTVSPost2010Prop38
140
0.0
102
RTVSPost2010PropOp38
 70
     1
102
RTVSPost2010Prop39
140
1.0
102
RTVSPost2010PropOp39
 70
     1
102
RTVSPost2010Prop40
 90
        0
102
RTVSPost2010PropOp40
 70
     1
102
RTVSPost2010Prop41ColorIndex
 90
       18
102
RTVSPost2010Prop41ColorRGB
 90
        0
102
RTVSPost2010PropOp41
 70
     1
102
RTVSPost2010Prop42
 90
       50
102
RTVSPost2010PropOp42
 70
     1
102
RTVSPost2010Prop43
 90
        3
102
RTVSPost2010PropOp43
 70
     1
102
RTVSPost2010Prop44ColorIndex
 90
        5
102
RTVSPost2010Prop44ColorRGB
 90
      255
102
RTVSPost2010PropOp44
 70
     1
102
RTVSPost2010Prop45
280
     0
102
RTVSPost2010PropOp45
 70
     1
102
RTVSPost2010Prop46
 90
       50
102
RTVSPost2010PropOp46
 70
     1
102
RTVSPost2010Prop47
 90
       50
102
RTVSPost2010PropOp47
 70
     1
102
RTVSPost2010Prop48
 90
       50
102
RTVSPost2010PropOp48
 70
     1
102
RTVSPost2010Prop49
280
     0
102
RTVSPost2010PropOp49
 70
     1
102
RTVSPost2010Prop50
 90
       50
102
RTVSPost2010PropOp50
 70
     1
102
RTVSPost2010Prop51ColorIndex
 90
      256
102
RTVSPost2010Prop51ColorRGB
 90
-16777216
102
RTVSPost2010PropOp51
 70
     0
102
RTVSPost2010Prop52
140
1.0
102
RTVSPost2010PropOp52
 70
     0
102
RTVSPost2010Prop53
 90
        2
102
RTVSPost2010PropOp53
 70
     1
102
RTVSPost2010Prop54
  1
strokes_ogs.tif
102
RTVSPost2010PropOp54
 70
     1
102
RTVSPost2010Prop55
280
     0
102
RTVSPost2010PropOp55
 70
     1
102
RTVSPost2010Prop56
140
1.0
102
RTVSPost2010PropOp56
 70
     1
102
RTVSPost2010Prop57
140
1.0
102
RTVSPost2010PropOp57
 70
     1
102
RTVSPropertyOp0
 70
     1
102
RTVSPropertyOp1
 70
     1
102
RTVSPropertyOp2
 70
     1
102
RTVSPropertyOp3
 70
     1
102
RTVSPropertyOp4
 70
     1
102
RTVSPropertyOp5
 70
     1
102
RTVSPropertyOp6
 70
     1
102
RTVSPropertyOp7
 70
     1
102
RTVSPropertyOp8
 70
     1
102
RTVSPropertyOp9
 70
     1
102
RTVSPropertyOp10
 70
     1
102
RTVSPropertyOp11
 70
     1
102
RTVSPropertyOp12
 70
     1
102
RTVSPropertyOp13
 70
     1
102
RTVSPropertyOp14
 70
     1
102
RTVSPropertyOp15
 70
     1
102
RTVSPropertyOp16
 70
     1
102
RTVSPropertyOp17
 70
     1
102
RTVSPropertyOp18
 70
     1
102
RTVSPropertyOp19
 70
     1
102
RTVSPropertyOp20
 70
     1
102
RTVSPropertyOp21
 70
     1
102
RTVSPropertyOp22
 70
     1
102
RTVSPropertyOp23
 70
     1
102
RTVSPropertyOp24
 70
     1
102
RTVSPropertyOp25
 70
     1
102
RTVSPropertyOp26
 70
     1
102
RTVSPropertyOp27
 70
     1
102
RTVSPropertyOp28
 70
     1
102
RTVSPropertyOp29
 70
     1
102
RTVSPropertyOp30
 70
     1
102
RTVSPropertyOp31
 70
     1
102
RTVSPropertyOp32
 70
     1
102
RTVSPropertyOp33
 70
     1
102
RTVSPropertyOp34
 70
     1
102
RTVSPropertyOp35
 70
     1
102
RTVSPropertyOp36
 70
     1
102
RTVSPropertyOp37
 70
     1
102
RTVSPropertyOp38
 70
     1
102
RTVSPropertyOp39
 70
     1
102
RTVSPropertyOp40
 70
     1
102
RTVSPropertyOp41
 70
     1
102
RTVSPropertyOp42
 70
     1
102
RTVSPropertyOp43
 70
     1
102
RTVSPropertyOp44
 70
     1
102
RTVSPropertyOp45
 70
     1
102
RTVSPropertyOp46
 70
     1
102
RTVSPropertyOp47
 70
     1
102
RTVSPropertyOp48
 70
     1
102
RTVSPropertyOp49
 70
     1
102
RTVSPropertyOp50
 70
     1
102
RTVSPropertyOp51
 70
     0
102
RTVSPropertyOp52
 70
     0
102
RTVSPropertyOp53
 70
     1
102
RTVSPropertyOp54
 70
     1
102
RTVSPropertyOp55
 70
     1
102
RTVSPropertyOp56
 70
     1
102
RTVSPropertyOp57
 70
     1
102
RTVSPropertyOp58
 70
     1
102
RTVSPropertyOp59
 70
     1
102
RTVSPropertyOp60
 70
     1
102
RTVSPropertyOp61
 70
     1
102
RTVSPropertyOp62
 70
     1
  0
XRECORD
  5
BA9
102
{ACAD_REACTORS
330
BA8
102
}
330
BA8
100
AcDbXrecord
280
     1
102
RTVSPost2010Prop28
280
     0
102
RTVSPost2010PropOp28
 70
     1
102
RTVSPost2010Prop29
280
     1
102
RTVSPost2010PropOp29
 70
     1
102
RTVSPost2010Prop30
280
     1
102
RTVSPost2010PropOp30
 70
     1
102
RTVSPost2010Prop31
280
     0
102
RTVSPost2010PropOp31
 70
     1
102
RTVSPost2010Prop32
280
     0
102
RTVSPost2010PropOp32
 70
     1
102
RTVSPost2010Prop33
280
     0
102
RTVSPost2010PropOp33
 70
     1
102
RTVSPost2010Prop34
280
     0
102
RTVSPost2010PropOp34
 70
     1
102
RTVSPost2010Prop35
280
     0
102
RTVSPost2010PropOp35
 70
     1
102
RTVSPost2010Prop36
280
     0
102
RTVSPost2010PropOp36
 70
     1
102
RTVSPost2010Prop37
 90
       50
102
RTVSPost2010PropOp37
 70
     1
102
RTVSPost2010Prop38
140
0.0
102
RTVSPost2010PropOp38
 70
     1
102
RTVSPost2010Prop39
140
1.0
102
RTVSPost2010PropOp39
 70
     1
102
RTVSPost2010Prop40
 90
        0
102
RTVSPost2010PropOp40
 70
     1
102
RTVSPost2010Prop41ColorIndex
 90
       18
102
RTVSPost2010Prop41ColorRGB
 90
        0
102
RTVSPost2010PropOp41
 70
     1
102
RTVSPost2010Prop42
 90
       50
102
RTVSPost2010PropOp42
 70
     1
102
RTVSPost2010Prop43
 90
        3
102
RTVSPost2010PropOp43
 70
     1
102
RTVSPost2010Prop44ColorIndex
 90
        5
102
RTVSPost2010Prop44ColorRGB
 90
      255
102
RTVSPost2010PropOp44
 70
     1
102
RTVSPost2010Prop45
280
     0
102
RTVSPost2010PropOp45
 70
     1
102
RTVSPost2010Prop46
 90
       50
102
RTVSPost2010PropOp46
 70
     1
102
RTVSPost2010Prop47
 90
       50
102
RTVSPost2010PropOp47
 70
     1
102
RTVSPost2010Prop48
 90
       50
102
RTVSPost2010PropOp48
 70
     1
102
RTVSPost2010Prop49
280
     0
102
RTVSPost2010PropOp49
 70
     1
102
RTVSPost2010Prop50
 90
       50
102
RTVSPost2010PropOp50
 70
     1
102
RTVSPost2010Prop51ColorIndex
 90
      256
102
RTVSPost2010Prop51ColorRGB
 90
-16777216
102
RTVSPost2010PropOp51
 70
     0
102
RTVSPost2010Prop52
140
1.0
102
RTVSPost2010PropOp52
 70
     0
102
RTVSPost2010Prop53
 90
        2
102
RTVSPost2010PropOp53
 70
     1
102
RTVSPost2010Prop54
  1
strokes_ogs.tif
102
RTVSPost2010PropOp54
 70
     1
102
RTVSPost2010Prop55
280
     0
102
RTVSPost2010PropOp55
 70
     1
102
RTVSPost2010Prop56
140
1.0
102
RTVSPost2010PropOp56
 70
     1
102
RTVSPost2010Prop57
140
1.0
102
RTVSPost2010PropOp57
 70
     1
102
RTVSPropertyOp0
 70
     1
102
RTVSPropertyOp1
 70
     1
102
RTVSPropertyOp2
 70
     1
102
RTVSPropertyOp3
 70
     1
102
RTVSPropertyOp4
 70
     1
102
RTVSPropertyOp5
 70
     1
102
RTVSPropertyOp6
 70
     1
102
RTVSPropertyOp7
 70
     1
102
RTVSPropertyOp8
 70
     1
102
RTVSPropertyOp9
 70
     1
102
RTVSPropertyOp10
 70
     1
102
RTVSPropertyOp11
 70
     1
102
RTVSPropertyOp12
 70
     1
102
RTVSPropertyOp13
 70
     1
102
RTVSPropertyOp14
 70
     1
102
RTVSPropertyOp15
 70
     1
102
RTVSPropertyOp16
 70
     1
102
RTVSPropertyOp17
 70
     1
102
RTVSPropertyOp18
 70
     1
102
RTVSPropertyOp19
 70
     1
102
RTVSPropertyOp20
 70
     1
102
RTVSPropertyOp21
 70
     1
102
RTVSPropertyOp22
 70
     1
102
RTVSPropertyOp23
 70
     1
102
RTVSPropertyOp24
 70
     1
102
RTVSPropertyOp25
 70
     1
102
RTVSPropertyOp26
 70
     1
102
RTVSPropertyOp27
 70
     1
102
RTVSPropertyOp28
 70
     1
102
RTVSPropertyOp29
 70
     1
102
RTVSPropertyOp30
 70
     1
102
RTVSPropertyOp31
 70
     1
102
RTVSPropertyOp32
 70
     1
102
RTVSPropertyOp33
 70
     1
102
RTVSPropertyOp34
 70
     1
102
RTVSPropertyOp35
 70
     1
102
RTVSPropertyOp36
 70
     1
102
RTVSPropertyOp37
 70
     1
102
RTVSPropertyOp38
 70
     1
102
RTVSPropertyOp39
 70
     1
102
RTVSPropertyOp40
 70
     1
102
RTVSPropertyOp41
 70
     1
102
RTVSPropertyOp42
 70
     1
102
RTVSPropertyOp43
 70
     1
102
RTVSPropertyOp44
 70
     1
102
RTVSPropertyOp45
 70
     1
102
RTVSPropertyOp46
 70
     1
102
RTVSPropertyOp47
 70
     1
102
RTVSPropertyOp48
 70
     1
102
RTVSPropertyOp49
 70
     1
102
RTVSPropertyOp50
 70
     1
102
RTVSPropertyOp51
 70
     0
102
RTVSPropertyOp52
 70
     0
102
RTVSPropertyOp53
 70
     1
102
RTVSPropertyOp54
 70
     1
102
RTVSPropertyOp55
 70
     1
102
RTVSPropertyOp56
 70
     1
102
RTVSPropertyOp57
 70
     1
102
RTVSPropertyOp58
 70
     1
102
RTVSPropertyOp59
 70
     1
102
RTVSPropertyOp60
 70
     1
102
RTVSPropertyOp61
 70
     1
102
RTVSPropertyOp62
 70
     1
  0
XRECORD
  5
BAB
102
{ACAD_REACTORS
330
BAA
102
}
330
BAA
100
AcDbXrecord
280
     1
102
RTVSPost2010Prop28
280
     0
102
RTVSPost2010PropOp28
 70
     1
102
RTVSPost2010Prop29
280
     1
102
RTVSPost2010PropOp29
 70
     1
102
RTVSPost2010Prop30
280
     1
102
RTVSPost2010PropOp30
 70
     1
102
RTVSPost2010Prop31
280
     0
102
RTVSPost2010PropOp31
 70
     1
102
RTVSPost2010Prop32
280
     0
102
RTVSPost2010PropOp32
 70
     1
102
RTVSPost2010Prop33
280
     0
102
RTVSPost2010PropOp33
 70
     1
102
RTVSPost2010Prop34
280
     0
102
RTVSPost2010PropOp34
 70
     1
102
RTVSPost2010Prop35
280
     0
102
RTVSPost2010PropOp35
 70
     1
102
RTVSPost2010Prop36
280
     0
102
RTVSPost2010PropOp36
 70
     1
102
RTVSPost2010Prop37
 90
       50
102
RTVSPost2010PropOp37
 70
     1
102
RTVSPost2010Prop38
140
0.0
102
RTVSPost2010PropOp38
 70
     1
102
RTVSPost2010Prop39
140
1.0
102
RTVSPost2010PropOp39
 70
     1
102
RTVSPost2010Prop40
 90
        0
102
RTVSPost2010PropOp40
 70
     1
102
RTVSPost2010Prop41ColorIndex
 90
       18
102
RTVSPost2010Prop41ColorRGB
 90
        0
102
RTVSPost2010PropOp41
 70
     1
102
RTVSPost2010Prop42
 90
       50
102
RTVSPost2010PropOp42
 70
     1
102
RTVSPost2010Prop43
 90
        3
102
RTVSPost2010PropOp43
 70
     1
102
RTVSPost2010Prop44ColorIndex
 90
        5
102
RTVSPost2010Prop44ColorRGB
 90
      255
102
RTVSPost2010PropOp44
 70
     1
102
RTVSPost2010Prop45
280
     0
102
RTVSPost2010PropOp45
 70
     1
102
RTVSPost2010Prop46
 90
       50
102
RTVSPost2010PropOp46
 70
     1
102
RTVSPost2010Prop47
 90
       50
102
RTVSPost2010PropOp47
 70
     1
102
RTVSPost2010Prop48
 90
       50
102
RTVSPost2010PropOp48
 70
     1
102
RTVSPost2010Prop49
280
     0
102
RTVSPost2010PropOp49
 70
     1
102
RTVSPost2010Prop50
 90
       50
102
RTVSPost2010PropOp50
 70
     1
102
RTVSPost2010Prop51ColorIndex
 90
      256
102
RTVSPost2010Prop51ColorRGB
 90
-16777216
102
RTVSPost2010PropOp51
 70
     0
102
RTVSPost2010Prop52
140
1.0
102
RTVSPost2010PropOp52
 70
     0
102
RTVSPost2010Prop53
 90
        2
102
RTVSPost2010PropOp53
 70
     1
102
RTVSPost2010Prop54
  1
strokes_ogs.tif
102
RTVSPost2010PropOp54
 70
     1
102
RTVSPost2010Prop55
280
     0
102
RTVSPost2010PropOp55
 70
     1
102
RTVSPost2010Prop56
140
1.0
102
RTVSPost2010PropOp56
 70
     1
102
RTVSPost2010Prop57
140
1.0
102
RTVSPost2010PropOp57
 70
     1
102
RTVSPropertyOp0
 70
     1
102
RTVSPropertyOp1
 70
     1
102
RTVSPropertyOp2
 70
     1
102
RTVSPropertyOp3
 70
     1
102
RTVSPropertyOp4
 70
     1
102
RTVSPropertyOp5
 70
     1
102
RTVSPropertyOp6
 70
     1
102
RTVSPropertyOp7
 70
     1
102
RTVSPropertyOp8
 70
     1
102
RTVSPropertyOp9
 70
     1
102
RTVSPropertyOp10
 70
     1
102
RTVSPropertyOp11
 70
     1
102
RTVSPropertyOp12
 70
     1
102
RTVSPropertyOp13
 70
     1
102
RTVSPropertyOp14
 70
     1
102
RTVSPropertyOp15
 70
     1
102
RTVSPropertyOp16
 70
     1
102
RTVSPropertyOp17
 70
     1
102
RTVSPropertyOp18
 70
     1
102
RTVSPropertyOp19
 70
     1
102
RTVSPropertyOp20
 70
     1
102
RTVSPropertyOp21
 70
     1
102
RTVSPropertyOp22
 70
     1
102
RTVSPropertyOp23
 70
     1
102
RTVSPropertyOp24
 70
     1
102
RTVSPropertyOp25
 70
     1
102
RTVSPropertyOp26
 70
     1
102
RTVSPropertyOp27
 70
     1
102
RTVSPropertyOp28
 70
     1
102
RTVSPropertyOp29
 70
     1
102
RTVSPropertyOp30
 70
     1
102
RTVSPropertyOp31
 70
     1
102
RTVSPropertyOp32
 70
     1
102
RTVSPropertyOp33
 70
     1
102
RTVSPropertyOp34
 70
     1
102
RTVSPropertyOp35
 70
     1
102
RTVSPropertyOp36
 70
     1
102
RTVSPropertyOp37
 70
     1
102
RTVSPropertyOp38
 70
     1
102
RTVSPropertyOp39
 70
     1
102
RTVSPropertyOp40
 70
     1
102
RTVSPropertyOp41
 70
     1
102
RTVSPropertyOp42
 70
     1
102
RTVSPropertyOp43
 70
     1
102
RTVSPropertyOp44
 70
     1
102
RTVSPropertyOp45
 70
     1
102
RTVSPropertyOp46
 70
     1
102
RTVSPropertyOp47
 70
     1
102
RTVSPropertyOp48
 70
     1
102
RTVSPropertyOp49
 70
     1
102
RTVSPropertyOp50
 70
     1
102
RTVSPropertyOp51
 70
     0
102
RTVSPropertyOp52
 70
     0
102
RTVSPropertyOp53
 70
     1
102
RTVSPropertyOp54
 70
     1
102
RTVSPropertyOp55
 70
     1
102
RTVSPropertyOp56
 70
     1
102
RTVSPropertyOp57
 70
     1
102
RTVSPropertyOp58
 70
     1
102
RTVSPropertyOp59
 70
     1
102
RTVSPropertyOp60
 70
     1
102
RTVSPropertyOp61
 70
     1
102
RTVSPropertyOp62
 70
     1
  0
XRECORD
  5
BA1
102
{ACAD_REACTORS
330
BA0
102
}
330
BA0
100
AcDbXrecord
280
     1
102
RTVSPost2010Prop28
280
     0
102
RTVSPost2010PropOp28
 70
     1
102
RTVSPost2010Prop29
280
     1
102
RTVSPost2010PropOp29
 70
     1
102
RTVSPost2010Prop30
280
     1
102
RTVSPost2010PropOp30
 70
     1
102
RTVSPost2010Prop31
280
     0
102
RTVSPost2010PropOp31
 70
     1
102
RTVSPost2010Prop32
280
     0
102
RTVSPost2010PropOp32
 70
     1
102
RTVSPost2010Prop33
280
     0
102
RTVSPost2010PropOp33
 70
     1
102
RTVSPost2010Prop34
280
     0
102
RTVSPost2010PropOp34
 70
     1
102
RTVSPost2010Prop35
280
     0
102
RTVSPost2010PropOp35
 70
     1
102
RTVSPost2010Prop36
280
     0
102
RTVSPost2010PropOp36
 70
     1
102
RTVSPost2010Prop37
 90
       50
102
RTVSPost2010PropOp37
 70
     1
102
RTVSPost2010Prop38
140
0.0
102
RTVSPost2010PropOp38
 70
     1
102
RTVSPost2010Prop39
140
1.0
102
RTVSPost2010PropOp39
 70
     1
102
RTVSPost2010Prop40
 90
        0
102
RTVSPost2010PropOp40
 70
     1
102
RTVSPost2010Prop41ColorIndex
 90
       18
102
RTVSPost2010Prop41ColorRGB
 90
        0
102
RTVSPost2010PropOp41
 70
     1
102
RTVSPost2010Prop42
 90
       50
102
RTVSPost2010PropOp42
 70
     1
102
RTVSPost2010Prop43
 90
        3
102
RTVSPost2010PropOp43
 70
     1
102
RTVSPost2010Prop44ColorIndex
 90
        5
102
RTVSPost2010Prop44ColorRGB
 90
      255
102
RTVSPost2010PropOp44
 70
     1
102
RTVSPost2010Prop45
280
     0
102
RTVSPost2010PropOp45
 70
     1
102
RTVSPost2010Prop46
 90
       50
102
RTVSPost2010PropOp46
 70
     1
102
RTVSPost2010Prop47
 90
       50
102
RTVSPost2010PropOp47
 70
     1
102
RTVSPost2010Prop48
 90
       50
102
RTVSPost2010PropOp48
 70
     1
102
RTVSPost2010Prop49
280
     0
102
RTVSPost2010PropOp49
 70
     1
102
RTVSPost2010Prop50
 90
       50
102
RTVSPost2010PropOp50
 70
     1
102
RTVSPost2010Prop51ColorIndex
 90
      256
102
RTVSPost2010Prop51ColorRGB
 90
-16777216
102
RTVSPost2010PropOp51
 70
     0
102
RTVSPost2010Prop52
140
1.0
102
RTVSPost2010PropOp52
 70
     0
102
RTVSPost2010Prop53
 90
        2
102
RTVSPost2010PropOp53
 70
     1
102
RTVSPost2010Prop54
  1
strokes_ogs.tif
102
RTVSPost2010PropOp54
 70
     1
102
RTVSPost2010Prop55
280
     0
102
RTVSPost2010PropOp55
 70
     1
102
RTVSPost2010Prop56
140
1.0
102
RTVSPost2010PropOp56
 70
     1
102
RTVSPost2010Prop57
140
1.0
102
RTVSPost2010PropOp57
 70
     1
102
RTVSPropertyOp0
 70
     1
102
RTVSPropertyOp1
 70
     1
102
RTVSPropertyOp2
 70
     1
102
RTVSPropertyOp3
 70
     1
102
RTVSPropertyOp4
 70
     1
102
RTVSPropertyOp5
 70
     1
102
RTVSPropertyOp6
 70
     1
102
RTVSPropertyOp7
 70
     1
102
RTVSPropertyOp8
 70
     1
102
RTVSPropertyOp9
 70
     1
102
RTVSPropertyOp10
 70
     1
102
RTVSPropertyOp11
 70
     1
102
RTVSPropertyOp12
 70
     1
102
RTVSPropertyOp13
 70
     1
102
RTVSPropertyOp14
 70
     1
102
RTVSPropertyOp15
 70
     1
102
RTVSPropertyOp16
 70
     1
102
RTVSPropertyOp17
 70
     1
102
RTVSPropertyOp18
 70
     1
102
RTVSPropertyOp19
 70
     1
102
RTVSPropertyOp20
 70
     1
102
RTVSPropertyOp21
 70
     1
102
RTVSPropertyOp22
 70
     1
102
RTVSPropertyOp23
 70
     1
102
RTVSPropertyOp24
 70
     1
102
RTVSPropertyOp25
 70
     1
102
RTVSPropertyOp26
 70
     1
102
RTVSPropertyOp27
 70
     1
102
RTVSPropertyOp28
 70
     1
102
RTVSPropertyOp29
 70
     1
102
RTVSPropertyOp30
 70
     1
102
RTVSPropertyOp31
 70
     1
102
RTVSPropertyOp32
 70
     1
102
RTVSPropertyOp33
 70
     1
102
RTVSPropertyOp34
 70
     1
102
RTVSPropertyOp35
 70
     1
102
RTVSPropertyOp36
 70
     1
102
RTVSPropertyOp37
 70
     1
102
RTVSPropertyOp38
 70
     1
102
RTVSPropertyOp39
 70
     1
102
RTVSPropertyOp40
 70
     1
102
RTVSPropertyOp41
 70
     1
102
RTVSPropertyOp42
 70
     1
102
RTVSPropertyOp43
 70
     1
102
RTVSPropertyOp44
 70
     1
102
RTVSPropertyOp45
 70
     1
102
RTVSPropertyOp46
 70
     1
102
RTVSPropertyOp47
 70
     1
102
RTVSPropertyOp48
 70
     1
102
RTVSPropertyOp49
 70
     1
102
RTVSPropertyOp50
 70
     1
102
RTVSPropertyOp51
 70
     0
102
RTVSPropertyOp52
 70
     0
102
RTVSPropertyOp53
 70
     1
102
RTVSPropertyOp54
 70
     1
102
RTVSPropertyOp55
 70
     1
102
RTVSPropertyOp56
 70
     1
102
RTVSPropertyOp57
 70
     1
102
RTVSPropertyOp58
 70
     1
102
RTVSPropertyOp59
 70
     1
102
RTVSPropertyOp60
 70
     1
102
RTVSPropertyOp61
 70
     1
102
RTVSPropertyOp62
 70
     1
  0
XRECORD
  5
B95
102
{ACAD_REACTORS
330
B94
102
}
330
B94
100
AcDbXrecord
280
     1
102
RTVSPost2010Prop28
280
     0
102
RTVSPost2010PropOp28
 70
     1
102
RTVSPost2010Prop29
280
     1
102
RTVSPost2010PropOp29
 70
     1
102
RTVSPost2010Prop30
280
     1
102
RTVSPost2010PropOp30
 70
     1
102
RTVSPost2010Prop31
280
     0
102
RTVSPost2010PropOp31
 70
     1
102
RTVSPost2010Prop32
280
     0
102
RTVSPost2010PropOp32
 70
     1
102
RTVSPost2010Prop33
280
     0
102
RTVSPost2010PropOp33
 70
     1
102
RTVSPost2010Prop34
280
     0
102
RTVSPost2010PropOp34
 70
     1
102
RTVSPost2010Prop35
280
     0
102
RTVSPost2010PropOp35
 70
     1
102
RTVSPost2010Prop36
280
     0
102
RTVSPost2010PropOp36
 70
     1
102
RTVSPost2010Prop37
 90
       50
102
RTVSPost2010PropOp37
 70
     1
102
RTVSPost2010Prop38
140
0.0
102
RTVSPost2010PropOp38
 70
     1
102
RTVSPost2010Prop39
140
1.0
102
RTVSPost2010PropOp39
 70
     1
102
RTVSPost2010Prop40
 90
        0
102
RTVSPost2010PropOp40
 70
     1
102
RTVSPost2010Prop41ColorIndex
 90
       18
102
RTVSPost2010Prop41ColorRGB
 90
        0
102
RTVSPost2010PropOp41
 70
     1
102
RTVSPost2010Prop42
 90
       50
102
RTVSPost2010PropOp42
 70
     1
102
RTVSPost2010Prop43
 90
        3
102
RTVSPost2010PropOp43
 70
     1
102
RTVSPost2010Prop44ColorIndex
 90
        5
102
RTVSPost2010Prop44ColorRGB
 90
      255
102
RTVSPost2010PropOp44
 70
     1
102
RTVSPost2010Prop45
280
     0
102
RTVSPost2010PropOp45
 70
     1
102
RTVSPost2010Prop46
 90
       50
102
RTVSPost2010PropOp46
 70
     1
102
RTVSPost2010Prop47
 90
       50
102
RTVSPost2010PropOp47
 70
     1
102
RTVSPost2010Prop48
 90
       50
102
RTVSPost2010PropOp48
 70
     1
102
RTVSPost2010Prop49
280
     0
102
RTVSPost2010PropOp49
 70
     1
102
RTVSPost2010Prop50
 90
       50
102
RTVSPost2010PropOp50
 70
     1
102
RTVSPost2010Prop51ColorIndex
 90
      256
102
RTVSPost2010Prop51ColorRGB
 90
-16777216
102
RTVSPost2010PropOp51
 70
     0
102
RTVSPost2010Prop52
140
1.0
102
RTVSPost2010PropOp52
 70
     0
102
RTVSPost2010Prop53
 90
        2
102
RTVSPost2010PropOp53
 70
     1
102
RTVSPost2010Prop54
  1
strokes_ogs.tif
102
RTVSPost2010PropOp54
 70
     1
102
RTVSPost2010Prop55
280
     0
102
RTVSPost2010PropOp55
 70
     1
102
RTVSPost2010Prop56
140
1.0
102
RTVSPost2010PropOp56
 70
     1
102
RTVSPost2010Prop57
140
1.0
102
RTVSPost2010PropOp57
 70
     1
102
RTVSPropertyOp0
 70
     1
102
RTVSPropertyOp1
 70
     1
102
RTVSPropertyOp2
 70
     1
102
RTVSPropertyOp3
 70
     1
102
RTVSPropertyOp4
 70
     1
102
RTVSPropertyOp5
 70
     1
102
RTVSPropertyOp6
 70
     1
102
RTVSPropertyOp7
 70
     1
102
RTVSPropertyOp8
 70
     1
102
RTVSPropertyOp9
 70
     1
102
RTVSPropertyOp10
 70
     1
102
RTVSPropertyOp11
 70
     1
102
RTVSPropertyOp12
 70
     1
102
RTVSPropertyOp13
 70
     1
102
RTVSPropertyOp14
 70
     1
102
RTVSPropertyOp15
 70
     1
102
RTVSPropertyOp16
 70
     1
102
RTVSPropertyOp17
 70
     1
102
RTVSPropertyOp18
 70
     1
102
RTVSPropertyOp19
 70
     1
102
RTVSPropertyOp20
 70
     1
102
RTVSPropertyOp21
 70
     1
102
RTVSPropertyOp22
 70
     1
102
RTVSPropertyOp23
 70
     1
102
RTVSPropertyOp24
 70
     1
102
RTVSPropertyOp25
 70
     1
102
RTVSPropertyOp26
 70
     1
102
RTVSPropertyOp27
 70
     1
102
RTVSPropertyOp28
 70
     1
102
RTVSPropertyOp29
 70
     1
102
RTVSPropertyOp30
 70
     1
102
RTVSPropertyOp31
 70
     1
102
RTVSPropertyOp32
 70
     1
102
RTVSPropertyOp33
 70
     1
102
RTVSPropertyOp34
 70
     1
102
RTVSPropertyOp35
 70
     1
102
RTVSPropertyOp36
 70
     1
102
RTVSPropertyOp37
 70
     1
102
RTVSPropertyOp38
 70
     1
102
RTVSPropertyOp39
 70
     1
102
RTVSPropertyOp40
 70
     1
102
RTVSPropertyOp41
 70
     1
102
RTVSPropertyOp42
 70
     1
102
RTVSPropertyOp43
 70
     1
102
RTVSPropertyOp44
 70
     1
102
RTVSPropertyOp45
 70
     1
102
RTVSPropertyOp46
 70
     1
102
RTVSPropertyOp47
 70
     1
102
RTVSPropertyOp48
 70
     1
102
RTVSPropertyOp49
 70
     1
102
RTVSPropertyOp50
 70
     1
102
RTVSPropertyOp51
 70
     0
102
RTVSPropertyOp52
 70
     0
102
RTVSPropertyOp53
 70
     1
102
RTVSPropertyOp54
 70
     1
102
RTVSPropertyOp55
 70
     1
102
RTVSPropertyOp56
 70
     1
102
RTVSPropertyOp57
 70
     1
102
RTVSPropertyOp58
 70
     1
102
RTVSPropertyOp59
 70
     1
102
RTVSPropertyOp60
 70
     1
102
RTVSPropertyOp61
 70
     1
102
RTVSPropertyOp62
 70
     1
  0
XRECORD
  5
BAD
102
{ACAD_REACTORS
330
BAC
102
}
330
BAC
100
AcDbXrecord
280
     1
102
RTVSPost2010Prop28
280
     0
102
RTVSPost2010PropOp28
 70
     1
102
RTVSPost2010Prop29
280
     1
102
RTVSPost2010PropOp29
 70
     1
102
RTVSPost2010Prop30
280
     1
102
RTVSPost2010PropOp30
 70
     1
102
RTVSPost2010Prop31
280
     0
102
RTVSPost2010PropOp31
 70
     1
102
RTVSPost2010Prop32
280
     0
102
RTVSPost2010PropOp32
 70
     1
102
RTVSPost2010Prop33
280
     0
102
RTVSPost2010PropOp33
 70
     1
102
RTVSPost2010Prop34
280
     0
102
RTVSPost2010PropOp34
 70
     1
102
RTVSPost2010Prop35
280
     0
102
RTVSPost2010PropOp35
 70
     1
102
RTVSPost2010Prop36
280
     0
102
RTVSPost2010PropOp36
 70
     1
102
RTVSPost2010Prop37
 90
       50
102
RTVSPost2010PropOp37
 70
     1
102
RTVSPost2010Prop38
140
0.0
102
RTVSPost2010PropOp38
 70
     1
102
RTVSPost2010Prop39
140
1.0
102
RTVSPost2010PropOp39
 70
     1
102
RTVSPost2010Prop40
 90
        0
102
RTVSPost2010PropOp40
 70
     1
102
RTVSPost2010Prop41ColorIndex
 90
       18
102
RTVSPost2010Prop41ColorRGB
 90
        0
102
RTVSPost2010PropOp41
 70
     1
102
RTVSPost2010Prop42
 90
       50
102
RTVSPost2010PropOp42
 70
     1
102
RTVSPost2010Prop43
 90
        3
102
RTVSPost2010PropOp43
 70
     1
102
RTVSPost2010Prop44ColorIndex
 90
        5
102
RTVSPost2010Prop44ColorRGB
 90
      255
102
RTVSPost2010PropOp44
 70
     1
102
RTVSPost2010Prop45
280
     0
102
RTVSPost2010PropOp45
 70
     1
102
RTVSPost2010Prop46
 90
       50
102
RTVSPost2010PropOp46
 70
     1
102
RTVSPost2010Prop47
 90
       50
102
RTVSPost2010PropOp47
 70
     1
102
RTVSPost2010Prop48
 90
       50
102
RTVSPost2010PropOp48
 70
     1
102
RTVSPost2010Prop49
280
     0
102
RTVSPost2010PropOp49
 70
     1
102
RTVSPost2010Prop50
 90
       50
102
RTVSPost2010PropOp50
 70
     1
102
RTVSPost2010Prop51ColorIndex
 90
      256
102
RTVSPost2010Prop51ColorRGB
 90
-16777216
102
RTVSPost2010PropOp51
 70
     0
102
RTVSPost2010Prop52
140
1.0
102
RTVSPost2010PropOp52
 70
     0
102
RTVSPost2010Prop53
 90
        2
102
RTVSPost2010PropOp53
 70
     1
102
RTVSPost2010Prop54
  1
strokes_ogs.tif
102
RTVSPost2010PropOp54
 70
     1
102
RTVSPost2010Prop55
280
     0
102
RTVSPost2010PropOp55
 70
     1
102
RTVSPost2010Prop56
140
1.0
102
RTVSPost2010PropOp56
 70
     1
102
RTVSPost2010Prop57
140
1.0
102
RTVSPost2010PropOp57
 70
     1
102
RTVSPropertyOp0
 70
     1
102
RTVSPropertyOp1
 70
     1
102
RTVSPropertyOp2
 70
     1
102
RTVSPropertyOp3
 70
     1
102
RTVSPropertyOp4
 70
     1
102
RTVSPropertyOp5
 70
     1
102
RTVSPropertyOp6
 70
     1
102
RTVSPropertyOp7
 70
     1
102
RTVSPropertyOp8
 70
     1
102
RTVSPropertyOp9
 70
     1
102
RTVSPropertyOp10
 70
     1
102
RTVSPropertyOp11
 70
     1
102
RTVSPropertyOp12
 70
     1
102
RTVSPropertyOp13
 70
     1
102
RTVSPropertyOp14
 70
     1
102
RTVSPropertyOp15
 70
     1
102
RTVSPropertyOp16
 70
     1
102
RTVSPropertyOp17
 70
     1
102
RTVSPropertyOp18
 70
     1
102
RTVSPropertyOp19
 70
     1
102
RTVSPropertyOp20
 70
     1
102
RTVSPropertyOp21
 70
     1
102
RTVSPropertyOp22
 70
     1
102
RTVSPropertyOp23
 70
     1
102
RTVSPropertyOp24
 70
     1
102
RTVSPropertyOp25
 70
     1
102
RTVSPropertyOp26
 70
     1
102
RTVSPropertyOp27
 70
     1
102
RTVSPropertyOp28
 70
     1
102
RTVSPropertyOp29
 70
     1
102
RTVSPropertyOp30
 70
     1
102
RTVSPropertyOp31
 70
     1
102
RTVSPropertyOp32
 70
     1
102
RTVSPropertyOp33
 70
     1
102
RTVSPropertyOp34
 70
     1
102
RTVSPropertyOp35
 70
     1
102
RTVSPropertyOp36
 70
     1
102
RTVSPropertyOp37
 70
     1
102
RTVSPropertyOp38
 70
     1
102
RTVSPropertyOp39
 70
     1
102
RTVSPropertyOp40
 70
     1
102
RTVSPropertyOp41
 70
     1
102
RTVSPropertyOp42
 70
     1
102
RTVSPropertyOp43
 70
     1
102
RTVSPropertyOp44
 70
     1
102
RTVSPropertyOp45
 70
     1
102
RTVSPropertyOp46
 70
     1
102
RTVSPropertyOp47
 70
     1
102
RTVSPropertyOp48
 70
     1
102
RTVSPropertyOp49
 70
     1
102
RTVSPropertyOp50
 70
     1
102
RTVSPropertyOp51
 70
     0
102
RTVSPropertyOp52
 70
     0
102
RTVSPropertyOp53
 70
     1
102
RTVSPropertyOp54
 70
     1
102
RTVSPropertyOp55
 70
     1
102
RTVSPropertyOp56
 70
     1
102
RTVSPropertyOp57
 70
     1
102
RTVSPropertyOp58
 70
     1
102
RTVSPropertyOp59
 70
     1
102
RTVSPropertyOp60
 70
     1
102
RTVSPropertyOp61
 70
     1
102
RTVSPropertyOp62
 70
     1
  0
ENDSEC
  0
EOF
