  0
SECTION
  2
HEADER
  9
$ACADVER
  1
AC1018
  9
$ACADMAINTVER
 70
   104
  9
$DWGCODEPAGE
  3
ANSI_932
  9
$LASTSAVEDBY
  1
CPTIO008
  9
$INSBASE
 10
0.0
 20
0.0
 30
0.0
  9
$EXTMIN
 10
-138.0163109423782
 20
-94.50884959708066
 30
-0.0000000000000053
  9
$EXTMAX
 10
138.51780768614
 20
95.01217699040683
 30
0.0000000000000099
  9
$LIMMIN
 10
-148.0
 20
-104.5
  9
$LIMMAX
 10
149.0
 20
105.5
  9
$ORTHOMODE
 70
     1
  9
$REGENMODE
 70
     1
  9
$FILLMODE
 70
     1
  9
$QTEXTMODE
 70
     0
  9
$MIRRTEXT
 70
     1
  9
$LTSCALE
 40
0.3
  9
$ATTMODE
 70
     1
  9
$TEXTSIZE
 40
2.5
  9
$TRACEWID
 40
1.0
  9
$TEXTSTYLE
  7
Standard
  9
$CLAYER
  8
0
  9
$CELTYPE
  6
ByLayer
  9
$CECOLOR
 62
   256
  9
$CELTSCALE
 40
1.0
  9
$DISPSILH
 70
     0
  9
$DIMSCALE
 40
1.0
  9
$DIMASZ
 40
2.5
  9
$DIMEXO
 40
0.625
  9
$DIMDLI
 40
3.75
  9
$DIMRND
 40
0.0
  9
$DIMDLE
 40
0.0
  9
$DIMEXE
 40
1.25
  9
$DIMTP
 40
0.0
  9
$DIMTM
 40
0.0
  9
$DIMTXT
 40
2.5
  9
$DIMCEN
 40
2.5
  9
$DIMTSZ
 40
0.0
  9
$DIMTOL
 70
     0
  9
$DIMLIM
 70
     0
  9
$DIMTIH
 70
     0
  9
$DIMTOH
 70
     0
  9
$DIMSE1
 70
     0
  9
$DIMSE2
 70
     0
  9
$DIMTAD
 70
     1
  9
$DIMZIN
 70
     8
  9
$DIMBLK
  1

  9
$DIMASO
 70
     1
  9
$DIMSHO
 70
     1
  9
$DIMPOST
  1

  9
$DIMAPOST
  1

  9
$DIMALT
 70
     0
  9
$DIMALTD
 70
     3
  9
$DIMALTF
 40
0.03937007874016
  9
$DIMLFAC
 40
1.0
  9
$DIMTOFL
 70
     1
  9
$DIMTVP
 40
0.0
  9
$DIMTIX
 70
     0
  9
$DIMSOXD
 70
     0
  9
$DIMSAH
 70
     0
  9
$DIMBLK1
  1

  9
$DIMBLK2
  1

  9
$DIMSTYLE
  2
ISO-25
  9
$DIMCLRD
 70
     0
  9
$DIMCLRE
 70
     0
  9
$DIMCLRT
 70
     0
  9
$DIMTFAC
 40
1.0
  9
$DIMGAP
 40
0.625
  9
$DIMJUST
 70
     0
  9
$DIMSD1
 70
     0
  9
$DIMSD2
 70
     0
  9
$DIMTOLJ
 70
     0
  9
$DIMTZIN
 70
     8
  9
$DIMALTZ
 70
     0
  9
$DIMALTTZ
 70
     0
  9
$DIMUPT
 70
     0
  9
$DIMDEC
 70
     2
  9
$DIMTDEC
 70
     2
  9
$DIMALTU
 70
     2
  9
$DIMALTTD
 70
     3
  9
$DIMTXSTY
  7
Standard
  9
$DIMAUNIT
 70
     0
  9
$DIMADEC
 70
     0
  9
$DIMALTRND
 40
0.0
  9
$DIMAZIN
 70
     0
  9
$DIMDSEP
 70
    44
  9
$DIMATFIT
 70
     3
  9
$DIMFRAC
 70
     0
  9
$DIMLDRBLK
  1

  9
$DIMLUNIT
 70
     2
  9
$DIMLWD
 70
    -2
  9
$DIMLWE
 70
    -2
  9
$DIMTMOVE
 70
     0
  9
$LUNITS
 70
     2
  9
$LUPREC
 70
     4
  9
$SKETCHINC
 40
1.0
  9
$FILLETRAD
 40
10.0
  9
$AUNITS
 70
     0
  9
$AUPREC
 70
     0
  9
$MENU
  1
.
  9
$ELEVATION
 40
0.0
  9
$PELEVATION
 40
0.0
  9
$THICKNESS
 40
0.0
  9
$LIMCHECK
 70
     0
  9
$CHAMFERA
 40
10.0
  9
$CHAMFERB
 40
10.0
  9
$CHAMFERC
 40
20.0
  9
$CHAMFERD
 40
0.0
  9
$SKPOLY
 70
     0
  9
$TDCREATE
 40
2454600.645684491
  9
$TDUCREATE
 40
2454600.270684491
  9
$TDUPDATE
 40
2457450.463753958
  9
$TDUUPDATE
 40
2457450.088753958
  9
$TDINDWG
 40
0.0412842708
  9
$TDUSRTIMER
 40
0.0412327315
  9
$USRTIMER
 70
     1
  9
$ANGBASE
 50
0.0
  9
$ANGDIR
 70
     0
  9
$PDMODE
 70
     0
  9
$PDSIZE
 40
0.0
  9
$PLINEWID
 40
0.0
  9
$SPLFRAME
 70
     0
  9
$SPLINETYPE
 70
     6
  9
$SPLINESEGS
 70
     8
  9
$HANDSEED
  5
917
  9
$SURFTAB1
 70
     6
  9
$SURFTAB2
 70
     6
  9
$SURFTYPE
 70
     6
  9
$SURFU
 70
     6
  9
$SURFV
 70
     6
  9
$UCSBASE
  2

  9
$UCSNAME
  2

  9
$UCSORG
 10
0.0
 20
0.0
 30
0.0
  9
$UCSXDIR
 10
1.0
 20
0.0
 30
0.0
  9
$UCSYDIR
 10
0.0
 20
1.0
 30
0.0
  9
$UCSORTHOREF
  2

  9
$UCSORTHOVIEW
 70
     0
  9
$UCSORGTOP
 10
0.0
 20
0.0
 30
0.0
  9
$UCSORGBOTTOM
 10
0.0
 20
0.0
 30
0.0
  9
$UCSORGLEFT
 10
0.0
 20
0.0
 30
0.0
  9
$UCSORGRIGHT
 10
0.0
 20
0.0
 30
0.0
  9
$UCSORGFRONT
 10
0.0
 20
0.0
 30
0.0
  9
$UCSORGBACK
 10
0.0
 20
0.0
 30
0.0
  9
$PUCSBASE
  2

  9
$PUCSNAME
  2

  9
$PUCSORG
 10
0.0
 20
0.0
 30
0.0
  9
$PUCSXDIR
 10
1.0
 20
0.0
 30
0.0
  9
$PUCSYDIR
 10
0.0
 20
1.0
 30
0.0
  9
$PUCSORTHOREF
  2

  9
$PUCSORTHOVIEW
 70
     0
  9
$PUCSORGTOP
 10
0.0
 20
0.0
 30
0.0
  9
$PUCSORGBOTTOM
 10
0.0
 20
0.0
 30
0.0
  9
$PUCSORGLEFT
 10
0.0
 20
0.0
 30
0.0
  9
$PUCSORGRIGHT
 10
0.0
 20
0.0
 30
0.0
  9
$PUCSORGFRONT
 10
0.0
 20
0.0
 30
0.0
  9
$PUCSORGBACK
 10
0.0
 20
0.0
 30
0.0
  9
$USERI1
 70
     0
  9
$USERI2
 70
     0
  9
$USERI3
 70
     0
  9
$USERI4
 70
     0
  9
$USERI5
 70
     0
  9
$USERR1
 40
0.0
  9
$USERR2
 40
0.0
  9
$USERR3
 40
0.0
  9
$USERR4
 40
0.0
  9
$USERR5
 40
0.0
  9
$WORLDVIEW
 70
     1
  9
$SHADEDGE
 70
     3
  9
$SHADEDIF
 70
    70
  9
$TILEMODE
 70
     1
  9
$MAXACTVP
 70
    64
  9
$PINSBASE
 10
0.0
 20
0.0
 30
0.0
  9
$PLIMCHECK
 70
     0
  9
$PEXTMIN
 10
1.000000000000000E+20
 20
1.000000000000000E+20
 30
1.000000000000000E+20
  9
$PEXTMAX
 10
-1.000000000000000E+20
 20
-1.000000000000000E+20
 30
-1.000000000000000E+20
  9
$PLIMMIN
 10
-148.0
 20
-104.5
  9
$PLIMMAX
 10
149.0
 20
105.5
  9
$UNITMODE
 70
     0
  9
$VISRETAIN
 70
     1
  9
$PLINEGEN
 70
     0
  9
$PSLTSCALE
 70
     1
  9
$TREEDEPTH
 70
  3020
  9
$CMLSTYLE
  2
Standard
  9
$CMLJUST
 70
     0
  9
$CMLSCALE
 40
20.0
  9
$PROXYGRAPHICS
 70
     1
  9
$MEASUREMENT
 70
     1
  9
$CELWEIGHT
370
    -1
  9
$ENDCAPS
280
     0
  9
$JOINSTYLE
280
     0
  9
$LWDISPLAY
290
     1
  9
$INSUNITS
 70
     4
  9
$HYPERLINKBASE
  1

  9
$STYLESHEET
  1
monochrome.ctb
  9
$XEDIT
290
     1
  9
$CEPSNTYPE
380
     0
  9
$PSTYLEMODE
290
     1
  9
$FINGERPRINTGUID
  2
{FE26E940-EA50-4966-BEB0-484AF5C81D0E}
  9
$VERSIONGUID
  2
{26A64BB4-60D3-4A3B-9716-0DC08E37C204}
  9
$EXTNAMES
290
     1
  9
$PSVPSCALE
 40
0.0
  9
$OLESTARTUP
290
     0
  9
$SORTENTS
280
   127
  9
$INDEXCTL
280
     0
  9
$HIDETEXT
280
     0
  9
$XCLIPFRAME
290
     0
  9
$HALOGAP
280
     0
  9
$OBSCOLOR
 70
   257
  9
$OBSLTYPE
280
     0
  9
$INTERSECTIONDISPLAY
280
     0
  9
$INTERSECTIONCOLOR
 70
   257
  9
$DIMASSOC
280
     1
  9
$PROJECTNAME
  1

  0
ENDSEC
  0
SECTION
  2
CLASSES
  0
CLASS
  1
ACDBDICTIONARYWDFLT
  2
AcDbDictionaryWithDefault
  3
ObjectDBX Classes
 90
        0
 91
        1
280
     0
281
     0
  0
CLASS
  1
TABLESTYLE
  2
AcDbTableStyle
  3
ObjectDBX Classes
 90
     4095
 91
        1
280
     0
281
     0
  0
CLASS
  1
DICTIONARYVAR
  2
AcDbDictionaryVar
  3
ObjectDBX Classes
 90
        0
 91
       13
280
     0
281
     0
  0
CLASS
  1
SORTENTSTABLE
  2
AcDbSortentsTable
  3
ObjectDBX Classes
 90
        0
 91
        1
280
     0
281
     0
  0
CLASS
  1
PLOTSETTINGS
  2
AcDbPlotSettings
  3
ObjectDBX Classes
 90
        0
 91
        2
280
     0
281
     0
  0
CLASS
  1
MATERIAL
  2
AcDbMaterial
  3
ObjectDBX Classes
 90
     1153
 91
        3
280
     0
281
     0
  0
CLASS
  1
VISUALSTYLE
  2
AcDbVisualStyle
  3
ObjectDBX Classes
 90
     4095
 91
       24
280
     0
281
     0
  0
CLASS
  1
SCALE
  2
AcDbScale
  3
ObjectDBX Classes
 90
     1153
 91
       17
280
     0
281
     0
  0
CLASS
  1
MLEADERSTYLE
  2
AcDbMLeaderStyle
  3
ACDB_MLEADERSTYLE_CLASS
 90
     4095
 91
        1
280
     0
281
     0
  0
CLASS
  1
ACDBSECTIONVIEWSTYLE
  2
AcDbSectionViewStyle
  3
ObjectDBX Classes
 90
     1025
 91
        1
280
     0
281
     0
  0
CLASS
  1
ACDBDETAILVIEWSTYLE
  2
AcDbDetailViewStyle
  3
ObjectDBX Classes
 90
     1025
 91
        1
280
     0
281
     0
  0
CLASS
  1
CELLSTYLEMAP
  2
AcDbCellStyleMap
  3
ObjectDBX Classes
 90
     1152
 91
        2
280
     0
281
     0
  0
ENDSEC
  0
SECTION
  2
TABLES
  0
TABLE
  2
VPORT
  5
8
330
0
100
AcDbSymbolTable
 70
     1
  0
VPORT
  5
7A2
330
8
100
AcDbSymbolTableRecord
100
AcDbViewportTableRecord
  2
*Active
 70
     0
 10
0.0
 20
0.0
 11
1.0
 21
1.0
 12
3.045191899395291
 22
9.727057217378131
 13
0.0
 23
0.0
 14
10.0
 24
10.0
 15
10.0
 25
10.0
 16
0.0
 26
0.0
 36
1.0
 17
0.0
 27
0.0
 37
0.0
 40
151.7444706857671
 41
2.047557840616966
 42
50.0
 43
0.0
 44
0.0
 50
0.0
 51
0.0
 71
     0
 72
   100
 73
     1
 74
     3
 75
     0
 76
     0
 77
     0
 78
     0
281
     0
 65
     1
110
0.0
120
0.0
130
0.0
111
1.0
121
0.0
131
0.0
112
0.0
122
1.0
132
0.0
 79
     0
146
0.0
1001
ACAD_NAV_VCDISPLAY
1070
     3
  0
ENDTAB
  0
TABLE
  2
LTYPE
  5
5
330
0
100
AcDbSymbolTable
 70
     8
  0
LTYPE
  5
14
330
5
100
AcDbSymbolTableRecord
100
AcDbLinetypeTableRecord
  2
ByBlock
 70
     0
  3

 72
    65
 73
     0
 40
0.0
  0
LTYPE
  5
15
330
5
100
AcDbSymbolTableRecord
100
AcDbLinetypeTableRecord
  2
ByLayer
 70
     0
  3

 72
    65
 73
     0
 40
0.0
  0
LTYPE
  5
16
330
5
100
AcDbSymbolTableRecord
100
AcDbLinetypeTableRecord
  2
Continuous
 70
     0
  3
Solid line
 72
    65
 73
     0
 40
0.0
  0
LTYPE
  5
2A
330
5
100
AcDbSymbolTableRecord
100
AcDbLinetypeTableRecord
  2
CONTINOUS
 70
     0
  3
______________________________
 72
    65
 73
     0
 40
0.0
  0
LTYPE
  5
2B
330
5
100
AcDbSymbolTableRecord
100
AcDbLinetypeTableRecord
  2
DASHED
 70
     0
  3
__ __ __ __ __ __ __ __ __ __ __ __ __ __ __ __
 72
    65
 73
     2
 40
4.5
 49
3.0
 74
     0
 49
-1.5
 74
     0
  0
LTYPE
  5
2C
330
5
100
AcDbSymbolTableRecord
100
AcDbLinetypeTableRecord
  2
PHANTOM
 70
     0
  3
______  __  __  ______  __  __  _____
 72
    65
 73
     6
 40
15.0
 49
7.5
 74
     0
 49
-1.5
 74
     0
 49
1.5
 74
     0
 49
-1.5
 74
     0
 49
1.5
 74
     0
 49
-1.5
 74
     0
  0
LTYPE
  5
2D
330
5
100
AcDbSymbolTableRecord
100
AcDbLinetypeTableRecord
  2
CENTER
 70
     0
  3
____ _ ____ _ ____ _ ____ _ ____ _ ____
 72
    65
 73
     4
 40
12.0
 49
7.5
 74
     0
 49
-1.5
 74
     0
 49
1.5
 74
     0
 49
-1.5
 74
     0
  0
LTYPE
  5
229
330
5
100
AcDbSymbolTableRecord
100
AcDbLinetypeTableRecord
  2
CENTER2
 70
     0
  3
Center (.5x) ___ _ ___ _ ___ _ ___ _ ___ _ ___
 72
    65
 73
     4
 40
28.575
 49
19.05
 74
     0
 49
-3.174999999999998
 74
     0
 49
3.174999999999998
 74
     0
 49
-3.174999999999998
 74
     0
  0
LTYPE
  5
22A
330
5
100
AcDbSymbolTableRecord
100
AcDbLinetypeTableRecord
  2
HIDDEN2
 70
     0
  3
Hidden (.5x) _ _ _ _ _ _ _ _ _ _ _ _ _ _ _ _ _
 72
    65
 73
     2
 40
4.762499999999998
 49
3.174999999999998
 74
     0
 49
-1.587499999999999
 74
     0
  0
ENDTAB
  0
TABLE
  2
LAYER
  5
2
330
0
100
AcDbSymbolTable
 70
    11
  0
LAYER
  5
10
102
{ACAD_XDICTIONARY
360
80F
102
}
330
2
100
AcDbSymbolTableRecord
100
AcDbLayerTableRecord
  2
0
 70
     0
 62
     7
  6
Continuous
370
    -3
390
F
  0
LAYER
  5
198
330
2
100
AcDbSymbolTableRecord
100
AcDbLayerTableRecord
  2
Defpoints
 70
     0
 62
     7
  6
Continuous
290
     0
370
    -3
390
F
  0
LAYER
  5
1E3
102
{ACAD_XDICTIONARY
360
811
102
}
330
2
100
AcDbSymbolTableRecord
100
AcDbLayerTableRecord
  2
VIEW0001
 70
     0
 62
     7
  6
Continuous
370
    -3
390
F
  0
LAYER
  5
22B
102
{ACAD_XDICTIONARY
360
813
102
}
330
2
100
AcDbSymbolTableRecord
100
AcDbLayerTableRecord
  2
外形線
 70
     0
 62
     7
  6
Continuous
370
    30
390
F
1001
AcAecLayerStandard
1000

1000

  0
LAYER
  5
22C
102
{ACAD_XDICTIONARY
360
815
102
}
330
2
100
AcDbSymbolTableRecord
100
AcDbLayerTableRecord
  2
図枠
 70
     0
 62
     7
  6
Continuous
370
    50
390
F
1001
AcAecLayerStandard
1000

1000

  0
LAYER
  5
22D
102
{ACAD_XDICTIONARY
360
817
102
}
330
2
100
AcDbSymbolTableRecord
100
AcDbLayerTableRecord
  2
寸法線
 70
     0
 62
     3
  6
Continuous
370
    15
390
F
1001
AcAecLayerStandard
1000

1000

  0
LAYER
  5
22E
102
{ACAD_XDICTIONARY
360
819
102
}
330
2
100
AcDbSymbolTableRecord
100
AcDbLayerTableRecord
  2
中心線
 70
     0
 62
     5
  6
CENTER2
370
    -3
390
F
1001
AcAecLayerStandard
1000

1000

  0
LAYER
  5
22F
102
{ACAD_XDICTIONARY
360
81B
102
}
330
2
100
AcDbSymbolTableRecord
100
AcDbLayerTableRecord
  2
破線
 70
     0
 62
     4
  6
HIDDEN2
370
    -3
390
F
1001
AcAecLayerStandard
1000

1000

  0
LAYER
  5
230
102
{ACAD_XDICTIONARY
360
81D
102
}
330
2
100
AcDbSymbolTableRecord
100
AcDbLayerTableRecord
  2
文字
 70
     0
 62
     2
  6
Continuous
370
    -3
390
F
1001
AcAecLayerStandard
1000

1000

  0
LAYER
  5
231
102
{ACAD_XDICTIONARY
360
81F
102
}
330
2
100
AcDbSymbolTableRecord
100
AcDbLayerTableRecord
  2
補助線
 70
     0
 62
   252
  6
HIDDEN2
290
     0
370
    -3
390
F
1001
AcAecLayerStandard
1000

1000

  0
LAYER
  5
33B
102
{ACAD_XDICTIONARY
360
821
102
}
330
2
100
AcDbSymbolTableRecord
100
AcDbLayerTableRecord
  2
VIEW0002
 70
     0
 62
     7
  6
Continuous
370
    -3
390
F
  0
ENDTAB
  0
TABLE
  2
STYLE
  5
3
330
0
100
AcDbSymbolTable
 70
     3
  0
STYLE
  5
11
330
3
100
AcDbSymbolTableRecord
100
AcDbTextStyleTableRecord
  2
Standard
 70
     0
 40
0.0
 41
1.0
 50
0.0
 71
     0
 42
2.5
  3
txt
  4
EXTFONT
  0
ENDTAB
  0
TABLE
  2
VIEW
  5
6
330
0
100
AcDbSymbolTable
 70
     0
  0
ENDTAB
  0
TABLE
  2
UCS
  5
7
330
0
100
AcDbSymbolTable
 70
     0
  0
ENDTAB
  0
TABLE
  2
APPID
  5
9
330
0
100
AcDbSymbolTable
 70
     6
  0
APPID
  5
12
330
9
100
AcDbSymbolTableRecord
100
AcDbRegAppTableRecord
  2
ACAD
 70
     0
  0
APPID
  5
233
330
9
100
AcDbSymbolTableRecord
100
AcDbRegAppTableRecord
  2
AcAecLayerStandard
 70
     0
  0
APPID
  5
6F6
330
9
100
AcDbSymbolTableRecord
100
AcDbRegAppTableRecord
  2
ACAD_PSEXT
 70
     0
  0
APPID
  5
806
330
9
100
AcDbSymbolTableRecord
100
AcDbRegAppTableRecord
  2
ACAD_NAV_VCDISPLAY
 70
     0
  0
APPID
  5
8BF
330
9
100
AcDbSymbolTableRecord
100
AcDbRegAppTableRecord
  2
ACAD_EXEMPT_FROM_CAD_STANDARDS
 70
     0
  0
APPID
  5
912
330
9
100
AcDbSymbolTableRecord
100
AcDbRegAppTableRecord
  2
ACAD_MLEADERVER
 70
     0
  0
ENDTAB
  0
TABLE
  2
DIMSTYLE
  5
A
330
0
100
AcDbSymbolTable
 70
     5
100
AcDbDimStyleTable
 71
     1
340
27
  0
DIMSTYLE
105
27
102
{ACAD_REACTORS
330
628
330
629
330
62A
330
62B
102
}
330
A
100
AcDbSymbolTableRecord
100
AcDbDimStyleTableRecord
  2
ISO-25
 70
     0
 41
2.5
 42
0.625
 43
3.75
 44
1.25
 73
     0
 74
     0
 77
     1
 78
     8
140
2.5
141
2.5
143
0.03937007874016
147
0.625
171
     3
172
     1
271
     2
272
     2
274
     3
278
    44
283
     0
284
     8
340
11
  0
DIMSTYLE
105
232
330
A
100
AcDbSymbolTableRecord
100
AcDbDimStyleTableRecord
  2
Standard
 70
     0
340
11
  0
DIMSTYLE
105
805
330
A
100
AcDbSymbolTableRecord
100
AcDbDimStyleTableRecord
  2
DIMSTYLE
 70
     0
 41
1.0
 42
2.539999961853026
 44
2.54
 73
     0
 74
     0
140
3.200000047683716
147
1.600000023841858
173
     1
271
     2
275
     1
340
11
341
192
342
192
343
192
344
192
  0
ENDTAB
  0
TABLE
  2
BLOCK_RECORD
  5
1
330
0
100
AcDbSymbolTable
 70
    16
  0
BLOCK_RECORD
  5
1F
102
{ACAD_XDICTIONARY
360
302
102
}
330
1
100
AcDbSymbolTableRecord
100
AcDbBlockTableRecord
  2
*Model_Space
340
22
  0
BLOCK_RECORD
  5
1B
330
1
100
AcDbSymbolTableRecord
100
AcDbBlockTableRecord
  2
*Paper_Space
340
1E
  0
BLOCK_RECORD
  5
23
330
1
100
AcDbSymbolTableRecord
100
AcDbBlockTableRecord
  2
*Paper_Space0
340
26
  0
BLOCK_RECORD
  5
192
330
1
100
AcDbSymbolTableRecord
100
AcDbBlockTableRecord
  2
_Open30
340
0
102
{BLKREFS
331
712
331
713
331
71B
331
71C
331
724
331
725
331
7B3
331
7B4
102
}
  0
BLOCK_RECORD
  5
62C
330
1
100
AcDbSymbolTableRecord
100
AcDbBlockTableRecord
  2
*D10
340
0
  0
BLOCK_RECORD
  5
638
330
1
100
AcDbSymbolTableRecord
100
AcDbBlockTableRecord
  2
*D11
340
0
  0
BLOCK_RECORD
  5
644
330
1
100
AcDbSymbolTableRecord
100
AcDbBlockTableRecord
  2
*D12
340
0
  0
BLOCK_RECORD
  5
650
330
1
100
AcDbSymbolTableRecord
100
AcDbBlockTableRecord
  2
*D13
340
0
  0
ENDTAB
  0
ENDSEC
  0
SECTION
  2
BLOCKS
  0
BLOCK
  5
20
330
1F
100
AcDbEntity
  8
0
100
AcDbBlockBegin
  2
*Model_Space
 70
     0
 10
0.0
 20
0.0
 30
0.0
  3
*Model_Space
  1

  0
ENDBLK
  5
21
330
1F
100
AcDbEntity
  8
0
100
AcDbBlockEnd
  0
BLOCK
  5
1C
330
1B
100
AcDbEntity
 67
     1
  8
0
100
AcDbBlockBegin
  2
*Paper_Space
 70
     0
 10
0.0
 20
0.0
 30
0.0
  3
*Paper_Space
  1

  0
ENDBLK
  5
1D
330
1B
100
AcDbEntity
 67
     1
  8
0
100
AcDbBlockEnd
  0
BLOCK
  5
24
330
23
100
AcDbEntity
 67
     1
  8
0
100
AcDbBlockBegin
  2
*Paper_Space0
 70
     0
 10
0.0
 20
0.0
 30
0.0
  3
*Paper_Space0
  1

  0
ENDBLK
  5
25
330
23
100
AcDbEntity
 67
     1
  8
0
100
AcDbBlockEnd
  0
BLOCK
  5
193
330
192
100
AcDbEntity
  8
0
100
AcDbBlockBegin
  2
_Open30
 70
     0
 10
0.0
 20
0.0
 30
0.0
  3
_Open30
  1

  0
LINE
  5
195
330
192
100
AcDbEntity
  8
0
  6
ByBlock
 62
     0
370
    -2
100
AcDbLine
 10
-1.0
 20
0.267949
 30
0.0
 11
0.0
 21
0.0
 31
0.0
  0
LINE
  5
196
330
192
100
AcDbEntity
  8
0
  6
ByBlock
 62
     0
370
    -2
100
AcDbLine
 10
0.0
 20
0.0
 30
0.0
 11
-1.0
 21
-0.267949
 31
0.0
  0
LINE
  5
197
330
192
100
AcDbEntity
  8
0
  6
ByBlock
 62
     0
370
    -2
100
AcDbLine
 10
0.0
 20
0.0
 30
0.0
 11
-1.0
 21
0.0
 31
0.0
  0
ENDBLK
  5
194
330
192
100
AcDbEntity
  8
0
100
AcDbBlockEnd
  0
BLOCK
  5
636
330
62C
100
AcDbEntity
  8
0
100
AcDbBlockBegin
  2
*D10
 70
     1
 10
0.0
 20
0.0
 30
0.0
  3
*D10
  1

  0
LINE
  5
70F
330
62C
100
AcDbEntity
  8
寸法線
 62
     0
440
 16777216
370
    -2
100
AcDbLine
 10
-25.38876124289614
 20
45.42301368554844
 30
0.0
 11
-10.7989158504851
 21
45.42301368554844
 31
0.0
  0
LINE
  5
710
330
62C
100
AcDbEntity
  8
寸法線
 62
     0
440
 16777216
370
    -2
100
AcDbLine
 10
-25.38875552085023
 20
-16.17899513403162
 30
0.0
 11
-10.79891585048512
 21
-16.17899513403163
 31
0.0
  0
LINE
  5
711
330
62C
100
AcDbEntity
  8
寸法線
 62
     0
440
 16777216
370
    -2
100
AcDbLine
 10
-13.08491585048513
 20
42.42301368554842
 30
0.0
 11
-13.08491585048515
 21
-13.17899513403163
 31
0.0
  0
INSERT
  5
712
330
62C
100
AcDbEntity
  8
寸法線
 62
     0
440
 16777216
370
    -2
100
AcDbBlockReference
  2
_Open30
 10
-13.08491585048513
 20
45.42301368554844
 30
0.0
 41
3.0
 42
3.0
 43
3.0
 50
90.0
  0
INSERT
  5
713
330
62C
100
AcDbEntity
  8
寸法線
 62
     0
440
 16777216
370
    -2
100
AcDbBlockReference
  2
_Open30
 10
-13.08491585048515
 20
-16.17899513403163
 30
0.0
 41
3.0
 42
3.0
 43
3.0
 50
270.0
  0
MTEXT
  5
714
330
62C
100
AcDbEntity
  8
寸法線
 62
     0
440
 16777216
100
AcDbMText
 10
-15.48491588624793
 20
14.62200927575839
 30
0.0
 40
3.200000047683716
 41
0.0
 71
     5
 72
     1
  1
L1
 11
0.0000000000000001
 21
1.0
 31
0.0
 73
     1
 44
1.0
  0
POINT
  5
715
330
62C
100
AcDbEntity
  8
Defpoints
 62
     0
440
 16777216
100
AcDbPoint
 10
-27.92876124289614
 20
45.42301368554844
 30
0.0
  0
POINT
  5
716
330
62C
100
AcDbEntity
  8
Defpoints
 62
     0
440
 16777216
100
AcDbPoint
 10
-27.92875552085023
 20
-16.17899513403162
 30
0.0
  0
POINT
  5
717
330
62C
100
AcDbEntity
  8
Defpoints
 62
     0
440
 16777216
100
AcDbPoint
 10
-13.08491585048515
 20
-16.17899513403163
 30
0.0
  0
ENDBLK
  5
637
330
62C
100
AcDbEntity
  8
0
100
AcDbBlockEnd
  0
BLOCK
  5
642
330
638
100
AcDbEntity
  8
0
100
AcDbBlockBegin
  2
*D11
 70
     1
 10
0.0
 20
0.0
 30
0.0
  3
*D11
  1

  0
LINE
  5
718
330
638
100
AcDbEntity
  8
寸法線
 62
     0
440
 16777216
370
    -2
100
AcDbLine
 10
-27.92875552085023
 20
-18.71900276342617
 30
0.0
 11
-27.92875552085023
 21
-31.41197918338639
 31
0.0
  0
LINE
  5
719
330
638
100
AcDbEntity
  8
寸法線
 62
     0
440
 16777216
370
    -2
100
AcDbLine
 10
-52.13474917319404
 20
-17.99427131811366
 30
0.0
 11
-52.13474917319404
 21
-31.41197918338639
 31
0.0
  0
LINE
  5
71A
330
638
100
AcDbEntity
  8
寸法線
 62
     0
440
 16777216
370
    -2
100
AcDbLine
 10
-30.92875552085022
 20
-29.12597918338639
 30
0.0
 11
-49.13474917319404
 21
-29.12597918338639
 31
0.0
  0
INSERT
  5
71B
330
638
100
AcDbEntity
  8
寸法線
 62
     0
440
 16777216
370
    -2
100
AcDbBlockReference
  2
_Open30
 10
-27.92875552085023
 20
-29.12597918338639
 30
0.0
 41
3.0
 42
3.0
 43
3.0
  0
INSERT
  5
71C
330
638
100
AcDbEntity
  8
寸法線
 62
     0
440
 16777216
370
    -2
100
AcDbBlockReference
  2
_Open30
 10
-52.13474917319404
 20
-29.12597918338639
 30
0.0
 41
3.0
 42
3.0
 43
3.0
 50
180.0
  0
MTEXT
  5
71D
102
{ACAD_XDICTIONARY
360
8DD
102
}
330
638
100
AcDbEntity
  8
寸法線
 62
     0
440
 16777216
100
AcDbMText
 10
-40.26730538906082
 20
-26.72597914762361
 30
0.0
 40
3.200000047683716
 41
0.0
 71
     5
 72
     1
  1
\U+2205A
 73
     1
 44
1.0
  0
POINT
  5
71E
330
638
100
AcDbEntity
  8
Defpoints
 62
     0
440
 16777216
100
AcDbPoint
 10
-27.92875552085023
 20
-16.17900276342617
 30
0.0
  0
POINT
  5
71F
330
638
100
AcDbEntity
  8
Defpoints
 62
     0
440
 16777216
100
AcDbPoint
 10
-52.13474917319404
 20
-15.45427131811366
 30
0.0
  0
POINT
  5
720
330
638
100
AcDbEntity
  8
Defpoints
 62
     0
440
 16777216
100
AcDbPoint
 10
-52.13474917319404
 20
-29.12597918338639
 30
0.0
  0
ENDBLK
  5
643
330
638
100
AcDbEntity
  8
0
100
AcDbBlockEnd
  0
BLOCK
  5
64E
330
644
100
AcDbEntity
  8
0
100
AcDbBlockBegin
  2
*D12
 70
     1
 10
0.0
 20
0.0
 30
0.0
  3
*D12
  1

  0
LINE
  5
721
330
644
100
AcDbEntity
  8
寸法線
 62
     0
440
 16777216
370
    -2
100
AcDbLine
 10
-70.18319082744503
 20
26.87273375349166
 30
0.0
 11
-88.11511110258448
 21
8.765833038333973
 31
0.0
  0
LINE
  5
722
330
644
100
AcDbEntity
  8
寸法線
 62
     0
440
 16777216
370
    -2
100
AcDbLine
 10
-40.85499225164182
 20
-1.189907532386609
 30
0.0
 11
-59.27795792826692
 21
-19.79264529092344
 31
0.0
  0
LINE
  5
723
330
644
100
AcDbEntity
  8
寸法線
 62
     0
440
 16777216
370
    -2
100
AcDbLine
 10
-84.37493741081373
 20
8.279112630516834
 30
0.0
 11
-59.80097410216377
 21
-16.05737420546763
 31
0.0
  0
INSERT
  5
724
330
644
100
AcDbEntity
  8
寸法線
 62
     0
440
 16777216
370
    -2
100
AcDbBlockReference
  2
_Open30
 10
-86.50653234364751
 20
10.39010837715331
 30
0.0
 41
3.0
 42
3.0
 43
3.0
 50
135.2781878444881
  0
INSERT
  5
725
330
644
100
AcDbEntity
  8
寸法線
 62
     0
440
 16777216
370
    -2
100
AcDbBlockReference
  2
_Open30
 10
-57.66937916932995
 20
-18.1683699521041
 30
0.0
 41
3.0
 42
3.0
 43
3.0
 50
315.2781878444882
  0
MTEXT
  5
726
330
644
100
AcDbEntity
  8
寸法線
 62
     0
440
 16777216
100
AcDbMText
 10
-70.39915911375323
 20
-2.183854835863253
 30
0.0
 40
3.200000047683716
 41
0.0
 71
     5
 72
     1
  1
L2
 11
0.7105316442779316
 21
-0.7036652488788252
 31
0.0
 73
     1
 44
1.0
  0
POINT
  5
727
330
644
100
AcDbEntity
  8
Defpoints
 62
     0
440
 16777216
100
AcDbPoint
 10
-68.39588109529282
 20
28.67748412995761
 30
0.0
  0
POINT
  5
728
330
644
100
AcDbEntity
  8
Defpoints
 62
     0
440
 16777216
100
AcDbPoint
 10
-39.06768251948962
 20
0.6148428440793339
 30
0.0
  0
POINT
  5
729
330
644
100
AcDbEntity
  8
Defpoints
 62
     0
440
 16777216
100
AcDbPoint
 10
-57.66937916932995
 20
-18.1683699521041
 30
0.0
  0
ENDBLK
  5
64F
330
644
100
AcDbEntity
  8
0
100
AcDbBlockEnd
  0
BLOCK
  5
65B
330
650
100
AcDbEntity
  8
0
100
AcDbBlockBegin
  2
*D13
 70
     1
 10
0.0
 20
0.0
 30
0.0
  3
*D13
  1

  0
LINE
  5
7B0
330
650
100
AcDbEntity
  8
寸法線
 62
     0
440
 16777216
370
    -2
100
AcDbLine
 10
-40.03177795262113
 20
51.77881729568508
 30
0.0
 11
-40.0317742154291
 21
59.97390851004317
 31
0.0
  0
LINE
  5
7B1
330
650
100
AcDbEntity
  8
寸法線
 62
     0
440
 16777216
370
    -2
100
AcDbLine
 10
-73.77238688965701
 20
34.05397442026667
 30
0.0
 11
-82.21816053563598
 21
42.49975162587374
 31
0.0
  0
ARC
  5
7B2
330
650
100
AcDbEntity
  8
寸法線
 62
     0
440
 16777216
370
    -2
100
AcDbCircle
 10
-40.03180142231005
 20
0.3133747323235116
 30
0.0
 40
58.66053349648331
100
AcDbArc
 50
92.93049744098967
 51
132.0694643563413
  0
INSERT
  5
7B3
330
650
100
AcDbEntity
  8
寸法線
 62
     0
440
 16777216
370
    -2
100
AcDbBlockReference
  2
_Open30
 10
-40.03177467145735
 20
58.97390822880071
 30
0.0
 41
3.0
 42
3.0
 43
3.0
 50
1.46523565625158
  0
INSERT
  5
7B4
330
650
100
AcDbEntity
  8
寸法線
 62
     0
440
 16777216
370
    -2
100
AcDbBlockReference
  2
_Open30
 10
-81.51105370459259
 20
41.79264449680704
 30
0.0
 41
3.0
 42
3.0
 43
3.0
 50
223.5347261410794
  0
MTEXT
  5
7B5
330
650
100
AcDbEntity
  8
寸法線
 62
     0
440
 16777216
100
AcDbMText
 10
-63.39863716958088
 20
56.72595969705116
 30
0.0
 40
3.200000047683716
 41
0.0
 71
     5
 72
     1
  1
45\U+00B0
 11
0.9238796600906892
 21
0.3826831243610208
 31
0.0
 73
     1
 44
1.0
  0
POINT
  5
7B6
330
650
100
AcDbEntity
  8
Defpoints
 62
     0
440
 16777216
100
AcDbPoint
 10
-40.03180142231005
 20
0.3133747323235116
 30
0.0
  0
POINT
  5
7B7
330
650
100
AcDbEntity
  8
Defpoints
 62
     0
440
 16777216
100
AcDbPoint
 10
-40.03177911093255
 20
49.23881729568535
 30
0.0
  0
POINT
  5
7B8
330
650
100
AcDbEntity
  8
Defpoints
 62
     0
440
 16777216
100
AcDbPoint
 10
-71.97633604393272
 20
32.25792281756338
 30
0.0
  0
POINT
  5
7B9
330
650
100
AcDbEntity
  8
Defpoints
 62
     0
440
 16777216
100
AcDbPoint
 10
-55.21424348065846
 20
56.97510470270947
 30
0.0
  0
ENDBLK
  5
65C
330
650
100
AcDbEntity
  8
0
100
AcDbBlockEnd
  0
ENDSEC
  0
SECTION
  2
ENTITIES
  0
LINE
  5
2E
330
1F
100
AcDbEntity
  8
0
  6
Continuous
 62
     7
100
AcDbLine
 10
20.86323008276008
 20
50.35204396303072
 30
0.0
 11
105.8632319901087
 21
50.35204396303072
 31
0.0
  0
LINE
  5
2F
330
1F
100
AcDbEntity
  8
0
  6
Continuous
 62
     7
100
AcDbLine
 10
20.86323008276007
 20
-27.64795412962064
 30
0.0
 11
105.8632319901087
 21
-27.64795412962064
 31
0.0
  0
LINE
  5
30
330
1F
100
AcDbEntity
  8
0
  6
Continuous
 62
     7
100
AcDbLine
 10
20.86323008276008
 20
74.35203633363617
 30
0.0
 11
20.86323008276007
 21
-27.64795412962064
 31
0.0
  0
LINE
  5
31
330
1F
100
AcDbEntity
  8
0
  6
Continuous
 62
     7
100
AcDbLine
 10
45.86323199010869
 20
74.35203633363617
 30
0.0
 11
45.8632319901087
 21
-27.64795412962064
 31
0.0
  0
LINE
  5
32
330
1F
100
AcDbEntity
  8
0
  6
Continuous
 62
     7
100
AcDbLine
 10
65.86323199010871
 20
74.35203633363617
 30
0.0
 11
65.8632319901087
 21
-27.64795412962064
 31
0.0
  0
LINE
  5
33
330
1F
100
AcDbEntity
  8
0
  6
Continuous
 62
     7
100
AcDbLine
 10
65.86323199010871
 20
74.35203633363617
 30
0.0
 11
65.8632319901087
 21
-27.64795412962064
 31
0.0
  0
LINE
  5
34
330
1F
100
AcDbEntity
  8
0
  6
Continuous
 62
     7
100
AcDbLine
 10
85.86323199010871
 20
74.35203633363617
 30
0.0
 11
85.8632319901087
 21
-27.64795412962064
 31
0.0
  0
LINE
  5
35
330
1F
100
AcDbEntity
  8
0
  6
Continuous
 62
     7
100
AcDbLine
 10
105.8632319901087
 20
74.35203633363617
 30
0.0
 11
105.8632319901087
 21
-27.64795412962064
 31
0.0
  0
LINE
  5
38
330
1F
100
AcDbEntity
  8
0
  6
Continuous
 62
     7
100
AcDbLine
 10
20.86323008276007
 20
44.35204777772795
 30
0.0
 11
105.8632319901087
 21
44.35204777772795
 31
0.0
  0
LINE
  5
39
330
1F
100
AcDbEntity
  8
0
  6
Continuous
 62
     7
100
AcDbLine
 10
20.86323008276007
 20
38.35204777772799
 30
0.0
 11
105.8632319901087
 21
38.35204777772799
 31
0.0
  0
LINE
  5
3A
330
1F
100
AcDbEntity
  8
0
  6
Continuous
 62
     7
100
AcDbLine
 10
20.86323008276007
 20
32.35204730089082
 30
0.0
 11
105.8632319901087
 21
32.35204730089082
 31
0.0
  0
LINE
  5
3B
330
1F
100
AcDbEntity
  8
0
  6
Continuous
 62
     7
100
AcDbLine
 10
20.86323008276007
 20
26.35204736049548
 30
0.0
 11
105.8632319901087
 21
26.35204736049548
 31
0.0
  0
LINE
  5
3C
330
1F
100
AcDbEntity
  8
0
  6
Continuous
 62
     7
100
AcDbLine
 10
20.86323008276007
 20
20.35204730089083
 30
0.0
 11
105.8632319901087
 21
20.35204730089083
 31
0.0
  0
LINE
  5
3D
330
1F
100
AcDbEntity
  8
0
  6
Continuous
 62
     7
100
AcDbLine
 10
20.86323008276007
 20
14.35204777772799
 30
0.0
 11
105.8632319901087
 21
14.35204777772799
 31
0.0
  0
LINE
  5
3E
330
1F
100
AcDbEntity
  8
0
  6
Continuous
 62
     7
100
AcDbLine
 10
20.86323008276007
 20
8.352047777727987
 30
0.0
 11
105.8632319901087
 21
8.352047777727987
 31
0.0
  0
LINE
  5
3F
330
1F
100
AcDbEntity
  8
0
  6
Continuous
 62
     7
100
AcDbLine
 10
20.86323008276007
 20
2.352047777727989
 30
0.0
 11
105.8632319901087
 21
2.352047777727989
 31
0.0
  0
LINE
  5
40
330
1F
100
AcDbEntity
  8
0
  6
Continuous
 62
     7
100
AcDbLine
 10
20.86323008276007
 20
-3.647952222272006
 30
0.0
 11
105.8632319901087
 21
-3.647952222272006
 31
0.0
  0
LINE
  5
41
330
1F
100
AcDbEntity
  8
0
  6
Continuous
 62
     7
100
AcDbLine
 10
20.86323008276007
 20
-9.647954129620645
 30
0.0
 11
105.8632319901087
 21
-9.647954129620645
 31
0.0
  0
LINE
  5
42
330
1F
100
AcDbEntity
  8
0
  6
Continuous
 62
     7
100
AcDbLine
 10
20.86323008276007
 20
-15.64795412962064
 30
0.0
 11
105.8632319901087
 21
-15.64795412962064
 31
0.0
  0
LINE
  5
44
330
1F
100
AcDbEntity
  8
0
  6
Continuous
 62
     7
100
AcDbLine
 10
20.86323008276008
 20
74.35203633363617
 30
0.0
 11
20.86323008276007
 21
-27.64795412962064
 31
0.0
  0
LINE
  5
45
330
1F
100
AcDbEntity
  8
0
  6
Continuous
 62
     7
100
AcDbLine
 10
45.86323199010869
 20
74.35203633363617
 30
0.0
 11
45.8632319901087
 21
-27.64795412962064
 31
0.0
  0
LINE
  5
46
330
1F
100
AcDbEntity
  8
0
  6
Continuous
 62
     7
100
AcDbLine
 10
65.86323199010871
 20
74.35203633363617
 30
0.0
 11
65.8632319901087
 21
-27.64795412962064
 31
0.0
  0
LINE
  5
47
330
1F
100
AcDbEntity
  8
0
  6
Continuous
 62
     7
100
AcDbLine
 10
85.86323199010871
 20
74.35203633363617
 30
0.0
 11
85.8632319901087
 21
-27.64795412962064
 31
0.0
  0
LINE
  5
48
330
1F
100
AcDbEntity
  8
0
  6
Continuous
 62
     7
100
AcDbLine
 10
105.8632319901087
 20
74.35203633363617
 30
0.0
 11
105.8632319901087
 21
-27.64795412962064
 31
0.0
  0
MTEXT
  5
153
330
1F
100
AcDbEntity
  8
0
 62
     7
100
AcDbMText
 10
24.81406965993653
 20
-20.2479541534625
 30
0.0
 40
3.200000047683716
 41
0.0
 71
     7
 72
     1
  1
{\W1;TDS1000}
 73
     1
 44
1.0
  0
MTEXT
  5
154
330
1F
100
AcDbEntity
  8
0
 62
     7
100
AcDbMText
 10
56.16269639944646
 20
-18.64795412962064
 30
0.0
 40
3.200000047683716
 41
0.0
 71
     5
 72
     1
  1
{\W1;1101}
 73
     1
 44
1.0
  0
MTEXT
  5
155
330
1F
100
AcDbEntity
  8
0
 62
     7
100
AcDbMText
 10
33.36323103643441
 20
71.35203824098477
 30
0.0
 40
3.200000047683716
 41
0.0
 71
     5
 72
     1
  1
{\W0.833333;呼称径}
 73
     1
 44
1.0
  0
MTEXT
  5
156
102
{ACAD_XDICTIONARY
360
8D6
102
}
330
1F
100
AcDbEntity
  8
0
 62
     7
100
AcDbMText
 10
55.86323199010873
 20
71.35203824098477
 30
0.0
 40
3.200000047683716
 41
0.0
 71
     5
 72
     1
  1
{\W1;\U+2205A}
 73
     1
 44
1.0
  0
MTEXT
  5
157
330
1F
100
AcDbEntity
  8
0
 62
     7
100
AcDbMText
 10
75.86323199010871
 20
71.35203824098477
 30
0.0
 40
3.200000047683716
 41
0.0
 71
     5
 72
     1
  1
{\W1;L1}
 73
     1
 44
1.0
  0
MTEXT
  5
158
330
1F
100
AcDbEntity
  8
0
 62
     7
100
AcDbMText
 10
95.86323199010871
 20
71.35203824098477
 30
0.0
 40
3.200000047683716
 41
0.0
 71
     5
 72
     1
  1
{\W1;L2}
 73
     1
 44
1.0
  0
MTEXT
  5
15F
330
1F
100
AcDbEntity
  8
0
 62
     7
100
AcDbMText
 10
24.81406965993653
 20
39.75204775388613
 30
0.0
 40
3.200000047683716
 41
0.0
 71
     7
 72
     1
  1
{\W1;TDS250}
 73
     1
 44
1.0
  0
MTEXT
  5
160
330
1F
100
AcDbEntity
  8
0
 62
     7
100
AcDbMText
 10
55.8632319901087
 20
41.35204777772798
 30
0.0
 40
3.200000047683716
 41
0.0
 71
     5
 72
     1
  1
{\W1;273}
 73
     1
 44
1.0
  0
MTEXT
  5
161
330
1F
100
AcDbEntity
  8
0
 62
     7
100
AcDbMText
 10
24.81406965993653
 20
33.75204775388612
 30
0.0
 40
3.200000047683716
 41
0.0
 71
     7
 72
     1
  1
{\W1;TDS300}
 73
     1
 44
1.0
  0
MTEXT
  5
162
330
1F
100
AcDbEntity
  8
0
 62
     7
100
AcDbMText
 10
55.8632319901087
 20
35.35204777772797
 30
0.0
 40
3.200000047683716
 41
0.0
 71
     5
 72
     1
  1
{\W1;328}
 73
     1
 44
1.0
  0
MTEXT
  5
163
330
1F
100
AcDbEntity
  8
0
 62
     7
100
AcDbMText
 10
24.81406965993653
 20
27.75204727704898
 30
0.0
 40
3.200000047683716
 41
0.0
 71
     7
 72
     1
  1
{\W1;TDS350}
 73
     1
 44
1.0
  0
MTEXT
  5
164
330
1F
100
AcDbEntity
  8
0
 62
     7
100
AcDbMText
 10
55.8632319901087
 20
29.35204730089084
 30
0.0
 40
3.200000047683716
 41
0.0
 71
     5
 72
     1
  1
{\W1;388}
 73
     1
 44
1.0
  0
MTEXT
  5
165
330
1F
100
AcDbEntity
  8
0
 62
     7
100
AcDbMText
 10
24.81406965993653
 20
21.75204727704898
 30
0.0
 40
3.200000047683716
 41
0.0
 71
     7
 72
     1
  1
{\W1;TDS400}
 73
     1
 44
1.0
  0
MTEXT
  5
166
330
1F
100
AcDbEntity
  8
0
 62
     7
100
AcDbMText
 10
55.8632319901087
 20
23.35204730089084
 30
0.0
 40
3.200000047683716
 41
0.0
 71
     5
 72
     1
  1
{\W1;428}
 73
     1
 44
1.0
  0
MTEXT
  5
167
330
1F
100
AcDbEntity
  8
0
 62
     7
100
AcDbMText
 10
24.81406965993653
 20
15.75204775388613
 30
0.0
 40
3.200000047683716
 41
0.0
 71
     7
 72
     1
  1
{\W1;TDS450}
 73
     1
 44
1.0
  0
MTEXT
  5
168
330
1F
100
AcDbEntity
  8
0
 62
     7
100
AcDbMText
 10
55.8632319901087
 20
17.35204777772799
 30
0.0
 40
3.200000047683716
 41
0.0
 71
     5
 72
     1
  1
{\W1;487}
 73
     1
 44
1.0
  0
MTEXT
  5
169
330
1F
100
AcDbEntity
  8
0
 62
     7
100
AcDbMText
 10
24.81406965993653
 20
9.752047753886127
 30
0.0
 40
3.200000047683716
 41
0.0
 71
     7
 72
     1
  1
{\W1;TDS500}
 73
     1
 44
1.0
  0
MTEXT
  5
16A
330
1F
100
AcDbEntity
  8
0
 62
     7
100
AcDbMText
 10
55.8632319901087
 20
11.35204777772798
 30
0.0
 40
3.200000047683716
 41
0.0
 71
     5
 72
     1
  1
{\W1;549}
 73
     1
 44
1.0
  0
MTEXT
  5
16B
330
1F
100
AcDbEntity
  8
0
 62
     7
100
AcDbMText
 10
24.81406965993653
 20
3.752047753886131
 30
0.0
 40
3.200000047683716
 41
0.0
 71
     7
 72
     1
  1
{\W1;TDS600}
 73
     1
 44
1.0
  0
MTEXT
  5
16C
330
1F
100
AcDbEntity
  8
0
 62
     7
100
AcDbMText
 10
55.8632319901087
 20
5.352047777727987
 30
0.0
 40
3.200000047683716
 41
0.0
 71
     5
 72
     1
  1
{\W1;665}
 73
     1
 44
1.0
  0
MTEXT
  5
16D
330
1F
100
AcDbEntity
  8
0
 62
     7
100
AcDbMText
 10
24.81406965993653
 20
-2.247952246113868
 30
0.0
 40
3.200000047683716
 41
0.0
 71
     7
 72
     1
  1
{\W1;TDS700}
 73
     1
 44
1.0
  0
MTEXT
  5
16E
330
1F
100
AcDbEntity
  8
0
 62
     7
100
AcDbMText
 10
55.8632319901087
 20
-0.6479522222720118
 30
0.0
 40
3.200000047683716
 41
0.0
 71
     5
 72
     1
  1
{\W1;777}
 73
     1
 44
1.0
  0
MTEXT
  5
16F
330
1F
100
AcDbEntity
  8
0
 62
     7
100
AcDbMText
 10
24.81406965993653
 20
-8.247954153462501
 30
0.0
 40
3.200000047683716
 41
0.0
 71
     7
 72
     1
  1
{\W1;TDS800}
 73
     1
 44
1.0
  0
MTEXT
  5
170
330
1F
100
AcDbEntity
  8
0
 62
     7
100
AcDbMText
 10
55.8632319901087
 20
-6.647954129620645
 30
0.0
 40
3.200000047683716
 41
0.0
 71
     5
 72
     1
  1
{\W1;862}
 73
     1
 44
1.0
  0
MTEXT
  5
171
330
1F
100
AcDbEntity
  8
0
 62
     7
100
AcDbMText
 10
24.81406965993653
 20
-14.2479541534625
 30
0.0
 40
3.200000047683716
 41
0.0
 71
     7
 72
     1
  1
{\W1;TDS900}
 73
     1
 44
1.0
  0
MTEXT
  5
172
330
1F
100
AcDbEntity
  8
0
 62
     7
100
AcDbMText
 10
55.8632319901087
 20
-12.64795412962064
 30
0.0
 40
3.200000047683716
 41
0.0
 71
     5
 72
     1
  1
{\W1;978}
 73
     1
 44
1.0
  0
MTEXT
  5
176
330
1F
100
AcDbEntity
  8
0
 62
     7
100
AcDbMText
 10
95.8632319901087
 20
-18.64795412962064
 30
0.0
 40
3.200000047683716
 41
0.0
 71
     5
 72
     1
  1
{\W1;1650}
 73
     1
 44
1.0
  0
MTEXT
  5
177
330
1F
100
AcDbEntity
  8
0
 62
     7
100
AcDbMText
 10
95.8632319901087
 20
-12.64795412962064
 30
0.0
 40
3.200000047683716
 41
0.0
 71
     5
 72
     1
  1
{\W1;1480}
 73
     1
 44
1.0
  0
MTEXT
  5
178
330
1F
100
AcDbEntity
  8
0
 62
     7
100
AcDbMText
 10
95.8632319901087
 20
-6.647954129620642
 30
0.0
 40
3.200000047683716
 41
0.0
 71
     5
 72
     1
  1
{\W1;1320}
 73
     1
 44
1.0
  0
MTEXT
  5
179
330
1F
100
AcDbEntity
  8
0
 62
     7
100
AcDbMText
 10
95.8632319901087
 20
-0.6479522222720096
 30
0.0
 40
3.200000047683716
 41
0.0
 71
     5
 72
     1
  1
{\W1;1150}
 73
     1
 44
1.0
  0
MTEXT
  5
17A
330
1F
100
AcDbEntity
  8
0
 62
     7
100
AcDbMText
 10
95.8632319901087
 20
5.35204777772799
 30
0.0
 40
3.200000047683716
 41
0.0
 71
     5
 72
     1
  1
{\W1;1100}
 73
     1
 44
1.0
  0
MTEXT
  5
17B
330
1F
100
AcDbEntity
  8
0
 62
     7
100
AcDbMText
 10
95.8632319901087
 20
11.24659123176411
 30
0.0
 40
3.200000047683716
 41
0.0
 71
     5
 72
     1
  1
{\W1;910}
 73
     1
 44
1.0
  0
MTEXT
  5
17C
330
1F
100
AcDbEntity
  8
0
 62
     7
100
AcDbMText
 10
95.8632319901087
 20
17.24659123176411
 30
0.0
 40
3.200000047683716
 41
0.0
 71
     5
 72
     1
  1
{\W1;820}
 73
     1
 44
1.0
  0
MTEXT
  5
17D
330
1F
100
AcDbEntity
  8
0
 62
     7
100
AcDbMText
 10
95.8632319901087
 20
23.24659075492697
 30
0.0
 40
3.200000047683716
 41
0.0
 71
     5
 72
     1
  1
{\W1;730}
 73
     1
 44
1.0
  0
MTEXT
  5
17E
330
1F
100
AcDbEntity
  8
0
 62
     7
100
AcDbMText
 10
95.8632319901087
 20
29.24659075492697
 30
0.0
 40
3.200000047683716
 41
0.0
 71
     5
 72
     1
  1
{\W1;640}
 73
     1
 44
1.0
  0
MTEXT
  5
17F
330
1F
100
AcDbEntity
  8
0
 62
     7
100
AcDbMText
 10
95.8632319901087
 20
35.24659123176411
 30
0.0
 40
3.200000047683716
 41
0.0
 71
     5
 72
     1
  1
{\W1;610}
 73
     1
 44
1.0
  0
MTEXT
  5
180
330
1F
100
AcDbEntity
  8
0
 62
     7
100
AcDbMText
 10
95.8632319901087
 20
41.24659123176411
 30
0.0
 40
3.200000047683716
 41
0.0
 71
     5
 72
     1
  1
{\W1;520}
 73
     1
 44
1.0
  0
MTEXT
  5
184
330
1F
100
AcDbEntity
  8
0
 62
     7
100
AcDbMText
 10
91.24906224656021
 20
-33.28147782654508
 30
0.0
 40
3.200000047683716
 41
0.0
 71
     7
 72
     1
  1
{\W1;(mm)}
 73
     1
 44
1.0
  0
MTEXT
  5
185
330
1F
100
AcDbEntity
  8
0
 62
     7
100
AcDbMText
 10
0.7124996185302736
 20
-90.75000000000001
 30
0.0
 40
3.200000047683716
 41
0.0
 71
     5
 72
     1
  1
45\U+00B0ﾁ-ｽﾞ{\H0.875x;(ﾄﾖﾄﾞﾚﾝｼﾝｸﾞﾙ管用）}
 73
     1
 44
1.0
  0
MTEXT
  5
186
330
1F
100
AcDbEntity
  8
0
 62
     7
100
AcDbMText
 10
75.75187103638659
 20
41.35204777772798
 30
0.0
 40
3.200000047683716
 41
0.0
 71
     5
 72
     1
  1
{\W1;710}
 73
     1
 44
1.0
  0
MTEXT
  5
187
330
1F
100
AcDbEntity
  8
0
 62
     7
100
AcDbMText
 10
75.8632319901087
 20
35.35204777772797
 30
0.0
 40
3.200000047683716
 41
0.0
 71
     5
 72
     1
  1
{\W1;850}
 73
     1
 44
1.0
  0
MTEXT
  5
188
330
1F
100
AcDbEntity
  8
0
 62
     7
100
AcDbMText
 10
75.8632319901087
 20
29.35204730089084
 30
0.0
 40
3.200000047683716
 41
0.0
 71
     5
 72
     1
  1
{\W1;980}
 73
     1
 44
1.0
  0
MTEXT
  5
189
330
1F
100
AcDbEntity
  8
0
 62
     7
100
AcDbMText
 10
75.8632319901087
 20
23.35204730089084
 30
0.0
 40
3.200000047683716
 41
0.0
 71
     5
 72
     1
  1
{\W1;1120}
 73
     1
 44
1.0
  0
MTEXT
  5
18A
330
1F
100
AcDbEntity
  8
0
 62
     7
100
AcDbMText
 10
75.8632319901087
 20
17.35204777772798
 30
0.0
 40
3.200000047683716
 41
0.0
 71
     5
 72
     1
  1
{\W1;1270}
 73
     1
 44
1.0
  0
MTEXT
  5
18B
330
1F
100
AcDbEntity
  8
0
 62
     7
100
AcDbMText
 10
75.8632319901087
 20
11.35204777772798
 30
0.0
 40
3.200000047683716
 41
0.0
 71
     5
 72
     1
  1
{\W1;1410}
 73
     1
 44
1.0
  0
MTEXT
  5
18C
330
1F
100
AcDbEntity
  8
0
 62
     7
100
AcDbMText
 10
75.8632319901087
 20
5.352047777727988
 30
0.0
 40
3.200000047683716
 41
0.0
 71
     5
 72
     1
  1
{\W1;1690}
 73
     1
 44
1.0
  0
MTEXT
  5
18D
330
1F
100
AcDbEntity
  8
0
 62
     7
100
AcDbMText
 10
75.8632319901087
 20
-0.6479522222720107
 30
0.0
 40
3.200000047683716
 41
0.0
 71
     5
 72
     1
  1
{\W1;1840}
 73
     1
 44
1.0
  0
MTEXT
  5
18F
330
1F
100
AcDbEntity
  8
0
 62
     7
100
AcDbMText
 10
75.8632319901087
 20
-12.64795412962064
 30
0.0
 40
3.200000047683716
 41
0.0
 71
     5
 72
     1
  1
{\W1;2370}
 73
     1
 44
1.0
  0
MTEXT
  5
190
330
1F
100
AcDbEntity
  8
0
 62
     7
100
AcDbMText
 10
75.8632319901087
 20
-18.64795412962064
 30
0.0
 40
3.200000047683716
 41
0.0
 71
     5
 72
     1
  1
{\W1;2630}
 73
     1
 44
1.0
  0
LINE
  5
1E4
330
1F
100
AcDbEntity
  8
外形線
370
    30
100
AcDbLine
 10
-138.0
 20
95.0
 30
0.0
 11
138.5
 21
95.0
 31
0.0
  0
LINE
  5
1E5
330
1F
100
AcDbEntity
  8
外形線
370
    30
100
AcDbLine
 10
138.5
 20
95.0
 30
0.0
 11
138.5
 21
-94.50000000000001
 31
0.0
  0
LINE
  5
1E6
330
1F
100
AcDbEntity
  8
外形線
370
    30
100
AcDbLine
 10
-138.0
 20
-94.50000000000001
 30
0.0
 11
138.5
 21
-94.50000000000001
 31
0.0
  0
LINE
  5
1E7
330
1F
100
AcDbEntity
  8
外形線
370
    30
100
AcDbLine
 10
-138.0
 20
95.0
 30
0.0
 11
-138.0
 21
-94.50000000000001
 31
0.0
  0
LINE
  5
1EA
330
1F
100
AcDbEntity
  8
外形線
100
AcDbLine
 10
-50.57500076293945
 20
-87.0
 30
0.0
 11
-50.57500076293945
 21
-94.50000000000001
 31
0.0
  0
LINE
  5
301
330
1F
100
AcDbEntity
  8
外形線
100
AcDbLine
 10
52.0
 20
-94.50000000000001
 30
0.0
 11
52.0
 21
-87.0
 31
0.0
  0
LINE
  5
304
330
1F
100
AcDbEntity
  8
外形線
100
AcDbLine
 10
138.5
 20
-87.0
 30
0.0
 11
-50.57500076293945
 21
-87.0
 31
0.0
  0
MTEXT
  5
345
330
1F
100
AcDbEntity
  8
VIEW0002
 62
     7
100
AcDbMText
 10
-36.70051037479853
 20
-65.30477739347161
 30
0.0
 40
3.200000047683716
 41
0.0
 71
     7
 72
     1
  1
{\W0.833333;*形状は規格毎に異なります。}
 73
     1
 44
1.0
  0
MTEXT
  5
346
330
1F
100
AcDbEntity
  8
VIEW0002
 62
     7
100
AcDbMText
 10
-36.56052251092731
 20
-70.30266691876009
 30
0.0
 40
3.200000047683716
 41
0.0
 71
     7
 72
     1
  1
{\W0.833333;*ストッパ－の位置及び数は、規格毎に異なります。}
 73
     1
 44
1.0
  0
MTEXT
  5
347
330
1F
100
AcDbEntity
  8
VIEW0002
 62
     7
100
AcDbMText
 10
-36.79530005816964
 20
-75.5326632081481
 30
0.0
 40
3.200000047683716
 41
0.0
 71
     7
 72
     1
  1
\W0.833333;*寸法、仕様等は製品改良の為、予告無く変更する場合があります。（Ｈ２２．１０）
 73
     1
 44
1.0
  0
LINE
  5
350
330
1F
100
AcDbEntity
  8
0
  6
Continuous
 62
     7
100
AcDbLine
 10
20.86323008276007
 20
-21.64795412962064
 30
0.0
 11
105.8632319901087
 21
-21.64795412962064
 31
0.0
  0
MTEXT
  5
351
330
1F
100
AcDbEntity
  8
0
 62
     7
100
AcDbMText
 10
24.81406965993653
 20
-26.2479541534625
 30
0.0
 40
3.200000047683716
 41
0.0
 71
     7
 72
     1
  1
TDS1100
 73
     1
 44
1.0
  0
MTEXT
  5
353
330
1F
100
AcDbEntity
  8
0
 62
     7
100
AcDbMText
 10
95.8632319901087
 20
-24.64795412962065
 30
0.0
 40
3.200000047683716
 41
0.0
 71
     5
 72
     1
  1
2000
 73
     1
 44
1.0
  0
MTEXT
  5
354
330
1F
100
AcDbEntity
  8
0
 62
     7
100
AcDbMText
 10
75.8632319901087
 20
-24.64795412962065
 30
0.0
 40
3.200000047683716
 41
0.0
 71
     5
 72
     1
  1
2800
 73
     1
 44
1.0
  0
MTEXT
  5
385
330
1F
100
AcDbEntity
  8
0
 62
     7
100
AcDbMText
 10
75.8632319901087
 20
-6.647954129620641
 30
0.0
 40
3.200000047683716
 41
0.0
 71
     5
 72
     1
  1
2110
 73
     1
 44
1.0
  0
LINE
  5
51F
330
1F
100
AcDbEntity
  8
外形線
100
AcDbLine
 10
-57.02171127876979
 20
31.60017035663248
 30
0.0
 11
-55.46898228916346
 21
32.4765085466907
 31
0.0
  0
LINE
  5
520
330
1F
100
AcDbEntity
  8
外形線
100
AcDbLine
 10
-73.48221496652133
 20
16.25729402588466
 30
0.0
 11
-72.41482887705569
 21
15.18990784644512
 31
0.0
  0
LINE
  5
521
330
1F
100
AcDbEntity
  8
外形線
100
AcDbLine
 10
-55.46898166066831
 20
32.47651864527298
 30
0.0
 11
-54.40158208421173
 21
31.40911897884134
 31
0.0
  0
LINE
  5
522
330
1F
100
AcDbEntity
  8
外形線
100
AcDbLine
 10
-58.09935635250496
 20
32.677829637712
 30
0.0
 11
-57.02171475511716
 21
31.60018794948576
 31
0.0
  0
LINE
  5
523
330
1F
100
AcDbEntity
  8
外形線
100
AcDbLine
 10
-73.55624023704995
 20
18.76036973678265
 30
0.0
 11
-72.47859661661346
 21
17.68272602550758
 31
0.0
  0
LINE
  5
524
330
1F
100
AcDbEntity
  8
外形線
100
AcDbLine
 10
-54.40158673760866
 20
31.40911533770897
 30
0.0
 11
-72.41482199740315
 21
15.18989162218325
 31
0.0
  0
LINE
  5
525
330
1F
100
AcDbEntity
  8
外形線
100
AcDbLine
 10
-55.46895892488965
 20
32.47650265838607
 30
0.0
 11
-73.48216158368045
 21
16.25730829699719
 31
0.0
  0
LINE
  5
526
330
1F
100
AcDbEntity
  8
外形線
100
AcDbLine
 10
-57.02169925688322
 20
31.60015852095674
 30
0.0
 11
-72.47854949160305
 21
17.68271902279755
 31
0.0
  0
LINE
  5
527
330
1F
100
AcDbEntity
  8
外形線
100
AcDbLine
 10
-58.09934654481143
 20
32.67777452212087
 30
0.0
 11
-73.55619394466143
 21
18.76033757649533
 31
0.0
  0
LINE
  5
528
330
1F
100
AcDbEntity
  8
外形線
100
AcDbLine
 10
-75.10895641793779
 20
17.88406148714347
 30
0.0
 11
-73.55622244515679
 21
18.76040248963471
 31
0.0
  0
LINE
  5
529
330
1F
100
AcDbEntity
  8
外形線
100
AcDbLine
 10
-72.47855459695545
 20
17.68273448998883
 30
0.0
 11
-73.48218937293765
 21
16.25731164790025
 31
0.0
  0
LINE
  5
52A
330
1F
100
AcDbEntity
  8
外形線
100
AcDbLine
 10
-58.09937878909804
 20
32.67783838145394
 30
0.0
 11
-57.09573901193293
 21
34.10326236763433
 31
0.0
  0
LINE
  5
52B
330
1F
100
AcDbEntity
  8
外形線
100
AcDbLine
 10
-59.71214535847447
 20
34.29055943966651
 30
0.0
 11
-58.15940972463518
 21
35.16690137963542
 31
0.0
  0
LINE
  5
52C
330
1F
100
AcDbEntity
  8
外形線
100
AcDbLine
 10
-76.17263296536299
 20
18.94771225151155
 30
0.0
 11
-75.10525429374236
 21
17.88033348991766
 31
0.0
  0
LINE
  5
52D
330
1F
100
AcDbEntity
  8
外形線
100
AcDbLine
 10
-58.15940235690813
 20
35.16693956829828
 30
0.0
 11
-57.09202098788932
 21
34.09955810930596
 31
0.0
  0
LINE
  5
52E
330
1F
100
AcDbEntity
  8
外形線
100
AcDbLine
 10
-60.78978311789065
 20
35.36825662988376
 30
0.0
 11
-59.71214152050283
 21
34.2906149416575
 31
0.0
  0
LINE
  5
52F
330
1F
100
AcDbEntity
  8
外形線
100
AcDbLine
 10
-75.93461242356268
 20
21.13874212377719
 30
0.0
 11
-75.16901933590195
 21
20.37314897158172
 31
0.0
  0
LINE
  5
530
330
1F
100
AcDbEntity
  8
外形線
100
AcDbLine
 10
-57.09197653820985
 20
34.09956466372479
 30
0.0
 11
-75.10518770161036
 21
17.88036264473499
 31
0.0
  0
LINE
  5
531
330
1F
100
AcDbEntity
  8
外形線
100
AcDbLine
 10
-58.15940698724529
 20
35.16692262451137
 30
0.0
 11
-76.1726124809061
 21
18.94772571058885
 31
0.0
  0
LINE
  5
532
330
1F
100
AcDbEntity
  8
外形線
100
AcDbLine
 10
-59.71214675456645
 20
34.29058926188917
 30
0.0
 11
-75.16898564980674
 21
20.37315997386457
 31
0.0
  0
LINE
  5
533
330
1F
100
AcDbEntity
  8
外形線
100
AcDbLine
 10
-60.78979157492932
 20
35.36826523320943
 30
0.0
 11
-69.98020728515074
 21
27.09316049533553
 31
0.0
  0
LINE
  5
534
330
1F
100
AcDbEntity
  8
外形線
100
AcDbLine
 10
-75.16900073875945
 20
20.37318218507903
 30
0.0
 11
-76.17263990704515
 21
18.94775310477516
 31
0.0
  0
LINE
  5
535
330
1F
100
AcDbEntity
  8
外形線
100
AcDbLine
 10
-60.78978054098229
 20
35.36820319343124
 30
0.0
 11
-59.78614295997513
 21
36.79362406050831
 31
0.0
  0
LINE
  5
536
330
1F
100
AcDbEntity
  8
外形線
100
AcDbLine
 10
-60.03291196490314
 20
37.04044933421835
 30
0.0
 11
-59.78244235847864
 21
36.78997970668087
 31
0.0
  0
LINE
  5
537
330
1F
100
AcDbEntity
  8
外形線
100
AcDbLine
 10
-59.78245558101264
 20
36.78999908365899
 30
0.0
 11
-64.81214835172554
 21
32.2612339233751
 31
0.0
  0
LINE
  5
538
330
1F
100
AcDbEntity
  8
外形線
100
AcDbLine
 10
-55.40891238597632
 20
29.98739850223248
 30
0.0
 11
-70.86579096939502
 21
16.06993347873697
 31
0.0
  0
LINE
  5
539
330
1F
100
AcDbEntity
  8
外形線
100
AcDbLine
 10
-54.33123545006761
 20
28.90970396596663
 30
0.0
 11
-69.78811403348633
 21
14.99223894247112
 31
0.0
  0
LINE
  5
53A
330
1F
100
AcDbEntity
  8
外形線
100
AcDbLine
 10
-52.77853098895933
 20
29.78605943712181
 30
0.0
 11
-70.79176199644905
 21
13.56683955039658
 31
0.0
  0
LINE
  5
53B
330
1F
100
AcDbEntity
  8
外形線
100
AcDbLine
 10
-51.71117156434647
 20
28.71868629079414
 30
0.0
 11
-69.72439831953136
 21
12.49947023286938
 31
0.0
  0
LINE
  5
53C
330
1F
100
AcDbEntity
  8
外形線
100
AcDbLine
 10
-51.64080199131944
 20
26.21928881681866
 30
0.0
 11
-67.09687547169062
 21
12.30254871287558
 31
0.0
  0
LINE
  5
53D
330
1F
100
AcDbEntity
  8
外形線
100
AcDbLine
 10
-50.41506291246843
 20
26.80121705532883
 30
0.0
 11
-68.10131860990253
 21
10.87640767436552
 31
0.0
  0
LINE
  5
53E
330
1F
100
AcDbEntity
  8
外形線
100
AcDbLine
 10
-49.35647928593605
 20
25.7259652277711
 30
0.0
 11
-67.03397019670411
 21
9.809047712633436
 31
0.0
  0
LINE
  5
53F
330
1F
100
AcDbEntity
  8
外形線
100
AcDbLine
 10
-49.15974984952143
 20
25.38838415533773
 30
0.0
 11
-65.48292968594481
 21
10.69089635276469
 31
0.0
  0
LINE
  5
540
330
1F
100
AcDbEntity
  8
外形線
100
AcDbLine
 10
-48.40263836005965
 20
24.02206599202599
 30
0.0
 11
-64.40444640026814
 21
9.613943258164546
 31
0.0
  0
LINE
  5
541
330
1F
100
AcDbEntity
  8
外形線
100
AcDbLine
 10
-48.21572161393323
 20
23.6686427158549
 30
0.0
 11
-65.41091215365395
 21
8.185991311345262
 31
0.0
  0
LINE
  5
542
330
1F
100
AcDbEntity
  8
外形線
100
AcDbLine
 10
-47.50792868577176
 20
22.27751633309875
 30
0.0
 11
-64.34354629105453
 21
7.118626528411922
 31
0.0
  0
LINE
  5
543
330
1F
100
AcDbEntity
  8
外形線
100
AcDbLine
 10
-47.33235534422262
 20
21.92088362095358
 30
0.0
 11
-62.79049570034415
 21
8.002282489843345
 31
0.0
  0
LINE
  5
544
330
1F
100
AcDbEntity
  8
外形線
100
AcDbLine
 10
-46.6451371740518
 20
20.49164593195827
 30
0.0
 11
-61.71201917246253
 21
6.925336143450159
 31
0.0
  0
LINE
  5
545
330
1F
100
AcDbEntity
  8
外形線
100
AcDbLine
 10
-46.47213852249103
 20
20.12568302122769
 30
0.0
 11
-62.72048959855514
 21
5.495571477673051
 31
0.0
  0
LINE
  5
546
330
1F
100
AcDbEntity
  8
外形線
100
AcDbLine
 10
-45.80288559142647
 20
18.6998472970439
 30
0.0
 11
-61.65311968430373
 21
4.428202643091751
 31
0.0
  0
LINE
  5
547
330
1F
100
AcDbEntity
  8
外形線
100
AcDbLine
 10
-45.63317857352092
 20
18.33794277871787
 30
0.0
 11
-60.09806576942047
 21
5.313672675846174
 31
0.0
  0
LINE
  5
548
330
1F
100
AcDbEntity
  8
外形線
100
AcDbLine
 10
-44.95441714071183
 20
16.90109572650145
 30
0.0
 11
-59.01959194465693
 21
4.236729028735791
 31
0.0
  0
LINE
  5
549
330
1F
100
AcDbEntity
  8
外形線
100
AcDbLine
 10
-44.780012142165
 20
16.53639396574024
 30
0.0
 11
-60.03006839400703
 21
2.805152994550147
 31
0.0
  0
LINE
  5
54A
330
1F
100
AcDbEntity
  8
外形線
100
AcDbLine
 10
-44.09377754354063
 20
15.12583836923254
 30
0.0
 11
-58.96269307755282
 21
1.737778757771635
 31
0.0
  0
LINE
  5
54B
330
1F
100
AcDbEntity
  8
外形線
100
AcDbLine
 10
-43.91805505227861
 20
14.76935535193105
 30
0.0
 11
-57.40563313537863
 21
2.6250601625662
 31
0.0
  0
LINE
  5
54C
330
1F
100
AcDbEntity
  8
外形線
100
AcDbLine
 10
-43.21987488496628
 20
13.34997764371452
 30
0.0
 11
-56.32715120126104
 21
1.548108417607485
 31
0.0
  0
LINE
  5
54D
330
1F
100
AcDbEntity
  8
外形線
100
AcDbLine
 10
-43.0435363241887
 20
12.98702200702402
 30
0.0
 11
-57.33963908615471
 21
0.1147264081313395
 31
0.0
  0
LINE
  5
54E
330
1F
100
AcDbEntity
  8
外形線
100
AcDbLine
 10
-42.37109998753433
 20
11.56407830601924
 30
0.0
 11
-56.27228267741012
 21
-0.9526289209567552
 31
0.0
  0
LINE
  5
54F
330
1F
100
AcDbEntity
  8
外形線
100
AcDbLine
 10
-42.20509814507379
 20
11.1988222262189
 30
0.0
 11
-54.71320320445502
 21
-0.0635496514309892
 31
0.0
  0
LINE
  5
550
330
1F
100
AcDbEntity
  8
外形線
100
AcDbLine
 10
-41.57226291358596
 20
9.720612683951612
 30
0.0
 11
-53.63472397345546
 21
-1.140498697106932
 31
0.0
  0
LINE
  5
551
330
1F
100
AcDbEntity
  8
外形線
100
AcDbLine
 10
-41.42001222077822
 20
9.335963055088782
 30
0.0
 11
-54.64921788160664
 21
-2.575692074991493
 31
0.0
  0
LINE
  5
552
330
1F
100
AcDbEntity
  8
外形線
100
AcDbLine
 10
-40.87709019745996
 20
7.796388499718396
 30
0.0
 11
-53.58185336955797
 21
-3.643055507375535
 31
0.0
  0
LINE
  5
553
330
1F
100
AcDbEntity
  8
外形線
100
AcDbLine
 10
-40.75509761621903
 20
7.391526753205909
 30
0.0
 11
-52.02077597664946
 21
-2.75215676614541
 31
0.0
  0
LINE
  5
554
330
1F
100
AcDbEntity
  8
外形線
100
AcDbLine
 10
-40.36433763446843
 20
5.695335822768811
 30
0.0
 11
-50.94228863629555
 21
-3.829113909669706
 31
0.0
  0
LINE
  5
555
330
1F
100
AcDbEntity
  8
外形線
100
AcDbLine
 10
-40.29793561310405
 20
5.233392674865946
 30
0.0
 11
-50.66754641982246
 21
-4.103466311953191
 31
0.0
  0
LINE
  5
556
330
1F
100
AcDbEntity
  8
外形線
100
AcDbLine
 10
-40.27736893906411
 20
3.223496535605836
 30
0.0
 11
-47.89356034281714
 21
-3.634167313011586
 31
0.0
  0
LINE
  5
557
330
1F
100
AcDbEntity
  8
外形線
100
AcDbLine
 10
-40.37998612825377
 20
2.616379421934829
 30
0.0
 11
-46.92758002370704
 21
-3.279112901190295
 31
0.0
  0
LINE
  5
558
330
1F
100
AcDbEntity
  8
外形線
100
AcDbLine
 10
-29.64635538962463
 20
-1.796533586180073
 30
0.0
 11
-29.64635538962463
 21
-3.320550920164443
 31
0.0
  0
LINE
  5
559
330
1F
100
AcDbEntity
  8
外形線
100
AcDbLine
 10
-29.64637748275604
 20
-3.320614578991595
 30
0.0
 11
-45.19611181095314
 21
-2.505704343333086
 31
0.0
  0
LINE
  5
55A
330
1F
100
AcDbEntity
  8
外形線
100
AcDbLine
 10
-29.64637541936776
 20
-3.320546500843171
 30
0.0
 11
-27.92876001215731
 21
-3.798828484393857
 31
0.0
  0
LINE
  5
55B
330
1F
100
AcDbEntity
  8
外形線
100
AcDbLine
 10
-27.92875436471315
 20
-3.7988797978104
 30
0.0
 11
-45.92575536863175
 21
-2.855716395805826
 31
0.0
  0
LINE
  5
55C
330
1F
100
AcDbEntity
  8
外形線
100
AcDbLine
 10
-27.92875552085022
 20
-3.798822404539443
 30
0.0
 11
-27.92875552085022
 21
-5.308336259519911
 31
0.0
  0
LINE
  5
55D
330
1F
100
AcDbEntity
  8
外形線
100
AcDbLine
 10
-27.92874726277825
 20
-5.308372192069511
 30
0.0
 11
-49.75763488869816
 21
-4.164392263927297
 31
0.0
  0
LINE
  5
55E
330
1F
100
AcDbEntity
  8
外形線
100
AcDbLine
 10
-29.64638307260735
 20
-5.601381165496448
 30
0.0
 11
-50.4171562102443
 21
-4.512853524113666
 31
0.0
  0
LINE
  5
55F
330
1F
100
AcDbEntity
  8
外形線
100
AcDbLine
 10
-29.64637795468525
 20
-5.601368010003938
 30
0.0
 11
-27.92877425660984
 21
-5.303122174045838
 31
0.0
  0
LINE
  5
560
330
1F
100
AcDbEntity
  8
外形線
100
AcDbLine
 10
-29.64635538962463
 20
-5.601366044676161
 30
0.0
 11
-29.64635538962463
 21
-7.125375749266012
 31
0.0
  0
LINE
  5
561
330
1F
100
AcDbEntity
  8
外形線
100
AcDbLine
 10
-29.64637630885474
 20
-7.125458042921437
 30
0.0
 11
-50.41711992310251
 21
-6.036931948762003
 31
0.0
  0
LINE
  5
562
330
1F
100
AcDbEntity
  8
外形線
100
AcDbLine
 10
-29.64637235123604
 20
-7.125388655965303
 30
0.0
 11
-27.92875694402565
 21
-7.603670639515971
 31
0.0
  0
LINE
  5
563
330
1F
100
AcDbEntity
  8
外形線
100
AcDbLine
 10
-27.92875850573285
 20
-7.603715343338482
 30
0.0
 11
-52.13473719767144
 21
-6.335159920856262
 31
0.0
  0
LINE
  5
564
330
1F
100
AcDbEntity
  8
外形線
100
AcDbLine
 10
-27.92875552085022
 20
-7.603662492430075
 30
0.0
 11
-27.92875552085022
 21
-9.113168718016011
 31
0.0
  0
LINE
  5
565
330
1F
100
AcDbEntity
  8
外形線
100
AcDbLine
 10
-27.92874258700843
 20
-9.113185280063616
 30
0.0
 11
-52.13470080304804
 21
-7.844630930655652
 31
0.0
  0
LINE
  5
566
330
1F
100
AcDbEntity
  8
外形線
100
AcDbLine
 10
-52.13474917319404
 20
-6.335107804930075
 30
0.0
 11
-52.13474917319404
 21
-7.844606401121481
 31
0.0
  0
LINE
  5
567
330
1F
100
AcDbEntity
  8
外形線
100
AcDbLine
 10
-50.41714360934744
 20
-6.036840193077296
 30
0.0
 11
-52.13475046964095
 21
-6.335090115389732
 31
0.0
  0
LINE
  5
568
330
1F
100
AcDbEntity
  8
外形線
100
AcDbLine
 10
-50.41714787390816
 20
-4.512819291746481
 30
0.0
 11
-50.41714787390816
 21
-6.036836625730842
 31
0.0
  0
LINE
  5
569
330
1F
100
AcDbEntity
  8
外形線
100
AcDbLine
 10
-29.64638260559062
 20
-9.406201672788007
 30
0.0
 11
-50.41715644262247
 21
-8.317673994752269
 31
0.0
  0
LINE
  5
56A
330
1F
100
AcDbEntity
  8
外形線
100
AcDbLine
 10
-29.64637983001822
 20
-9.406196347274724
 30
0.0
 11
-27.92877589703934
 21
-9.107950470527839
 31
0.0
  0
LINE
  5
56B
330
1F
100
AcDbEntity
  8
外形線
100
AcDbLine
 10
-50.41714787390816
 20
-15.92730903784023
 30
0.0
 11
-50.41714787390816
 21
-16.17900276342617
 31
0.0
  0
LINE
  5
56C
330
1F
100
AcDbEntity
  8
外形線
100
AcDbLine
 10
-52.13472812655773
 20
-7.839379988772646
 30
0.0
 11
-50.41711180062614
 21
-8.317662228147632
 31
0.0
  0
LINE
  5
56D
330
1F
100
AcDbEntity
  8
外形線
100
AcDbLine
 10
-52.71992120962432
 20
27.29840273561267
 30
0.0
 11
-68.17679979304305
 21
13.38093771211716
 31
0.0
  0
LINE
  5
56E
330
1F
100
AcDbEntity
  8
外形線
100
AcDbLine
 10
-54.40158600257433
 20
31.40910481027326
 30
0.0
 11
-55.40891396416305
 21
29.9873880176644
 31
0.0
  0
LINE
  5
56F
330
1F
100
AcDbEntity
  8
外形線
100
AcDbLine
 10
-55.40891744882729
 20
29.98739050724739
 30
0.0
 11
-54.33123808786485
 21
28.9097110554433
 31
0.0
  0
LINE
  5
570
330
1F
100
AcDbEntity
  8
外形線
100
AcDbLine
 10
-54.33122702068875
 20
28.9097097159577
 30
0.0
 11
-52.77851482852891
 21
29.7860505040787
 31
0.0
  0
LINE
  5
571
330
1F
100
AcDbEntity
  8
外形線
100
AcDbLine
 10
-52.77852252650433
 20
29.78605928432022
 30
0.0
 11
-51.71116071362246
 21
28.71869738146644
 31
0.0
  0
LINE
  5
572
330
1F
100
AcDbEntity
  8
外形線
100
AcDbLine
 10
-51.71116358657908
 20
28.71868793159227
 30
0.0
 11
-52.71992459852532
 21
27.29840399061131
 31
0.0
  0
LINE
  5
573
330
1F
100
AcDbEntity
  8
外形線
100
AcDbLine
 10
-52.71992704797844
 20
27.29839987973344
 30
0.0
 11
-51.64081671727554
 21
26.21928945806839
 31
0.0
  0
LINE
  5
574
330
1F
100
AcDbEntity
  8
外形線
100
AcDbLine
 10
-51.64081369960314
 20
26.21929276796135
 30
0.0
 11
-50.41514214931803
 21
26.91105228131384
 31
0.0
  0
LINE
  5
575
330
1F
100
AcDbEntity
  8
外形線
100
AcDbLine
 10
-50.41714978125675
 20
-16.17899513403162
 30
0.0
 11
-27.92875742819882
 21
-16.17899513403162
 31
0.0
  0
LINE
  5
576
330
1F
100
AcDbEntity
  8
外形線
100
AcDbLine
 10
-29.64635538962463
 20
-9.406190873777733
 30
0.0
 11
-29.64635538962463
 21
-10.93020820776209
 31
0.0
  0
LINE
  5
577
330
1F
100
AcDbEntity
  8
外形線
100
AcDbLine
 10
-29.64637052691714
 20
-10.93028646861472
 30
0.0
 11
-50.41711760837745
 21
-9.841760192750122
 31
0.0
  0
LINE
  5
578
330
1F
100
AcDbEntity
  8
外形線
100
AcDbLine
 10
-27.92875613398133
 20
-11.40853595045091
 30
0.0
 11
-52.13473411164431
 21
-10.13998056540151
 31
0.0
  0
LINE
  5
579
330
1F
100
AcDbEntity
  8
外形線
100
AcDbLine
 10
-29.64636886479997
 20
-10.93021508825115
 30
0.0
 11
-27.92876448224385
 21
-11.40849400191001
 31
0.0
  0
LINE
  5
57A
330
1F
100
AcDbEntity
  8
外形線
100
AcDbLine
 10
-27.92875552085022
 20
-11.40849495092615
 30
0.0
 11
-27.92875552085022
 21
-12.91799354711757
 31
0.0
  0
LINE
  5
57B
330
1F
100
AcDbEntity
  8
外形線
100
AcDbLine
 10
-27.92874331784205
 20
-12.91802864417262
 30
0.0
 11
-52.13470927186673
 21
-11.64947388924239
 31
0.0
  0
LINE
  5
57C
330
1F
100
AcDbEntity
  8
外形線
100
AcDbLine
 10
-29.64637762221986
 20
-13.21104533635955
 30
0.0
 11
-50.41714920731894
 21
-12.12251777634016
 31
0.0
  0
LINE
  5
57D
330
1F
100
AcDbEntity
  8
外形線
100
AcDbLine
 10
-29.64638204443432
 20
-13.21103248698183
 30
0.0
 11
-27.92877811145533
 21
-12.91278661023492
 31
0.0
  0
LINE
  5
57E
330
1F
100
AcDbEntity
  8
外形線
100
AcDbLine
 10
-52.13474917319404
 20
-10.13993263403162
 30
0.0
 11
-52.13474917319404
 21
-11.64943885961757
 31
0.0
  0
LINE
  5
57F
330
1F
100
AcDbEntity
  8
外形線
100
AcDbLine
 10
-52.13473290861227
 20
-11.64420411863956
 30
0.0
 11
-50.41711750140194
 21
-12.12248610219023
 31
0.0
  0
LINE
  5
580
330
1F
100
AcDbEntity
  8
外形線
100
AcDbLine
 10
-50.41715513042383
 20
-9.841679269609473
 30
0.0
 11
-52.13476199071724
 21
-10.13992919192189
 31
0.0
  0
LINE
  5
581
330
1F
100
AcDbEntity
  8
外形線
100
AcDbLine
 10
-50.41714787390816
 20
-8.317651750242575
 30
0.0
 11
-50.41714787390816
 21
-9.841669084226943
 31
0.0
  0
LINE
  5
582
330
1F
100
AcDbEntity
  8
外形線
100
AcDbLine
 10
-29.64635538962463
 20
-13.21101570287929
 30
0.0
 11
-29.64635538962463
 21
-14.73503303686366
 31
0.0
  0
LINE
  5
583
330
1F
100
AcDbEntity
  8
外形線
100
AcDbLine
 10
-29.64637807812295
 20
-14.73511419556198
 30
0.0
 11
-50.41712913274096
 21
-13.64658771147731
 31
0.0
  0
LINE
  5
584
330
1F
100
AcDbEntity
  8
外形線
100
AcDbLine
 10
-27.92875456079674
 20
-15.21337179544159
 30
0.0
 11
-52.13473968121514
 21
-13.94481603606394
 31
0.0
  0
LINE
  5
585
330
1F
100
AcDbEntity
  8
外形線
100
AcDbLine
 10
-29.64637477472797
 20
-14.73504682371191
 30
0.0
 11
-27.92876671728706
 21
-15.21332676066805
 31
0.0
  0
LINE
  5
586
330
1F
100
AcDbEntity
  8
外形線
100
AcDbLine
 10
-27.92875552085022
 20
-15.21331978002772
 30
0.0
 11
-27.92875552085022
 21
-16.17900276342617
 31
0.0
  0
LINE
  5
587
330
1F
100
AcDbEntity
  8
外形線
100
AcDbLine
 10
-38.30665684247273
 20
-16.17899222359865
 30
0.0
 11
-52.13471103196794
 21
-15.45430955954656
 31
0.0
  0
LINE
  5
588
330
1F
100
AcDbEntity
  8
外形線
100
AcDbLine
 10
-45.61549630194543
 20
-16.17899231406201
 30
0.0
 11
-50.41715582348254
 21
-15.92735319215418
 31
0.0
  0
LINE
  5
589
330
1F
100
AcDbEntity
  8
外形線
100
AcDbLine
 10
-52.13474917319404
 20
-13.94476509252773
 30
0.0
 11
-52.13474917319404
 21
-15.45427131811366
 31
0.0
  0
LINE
  5
58A
330
1F
100
AcDbEntity
  8
外形線
100
AcDbLine
 10
-52.13472044411653
 20
-15.44904097058682
 30
0.0
 11
-50.41710503690612
 21
-15.92732295413751
 31
0.0
  0
LINE
  5
58B
330
1F
100
AcDbEntity
  8
外形線
100
AcDbLine
 10
-50.41715161767624
 20
-13.64651573562762
 30
0.0
 11
-52.13475847796964
 21
-13.94476565794005
 31
0.0
  0
LINE
  5
58C
330
1F
100
AcDbEntity
  8
外形線
100
AcDbLine
 10
-50.41714787390816
 20
-12.12248420873866
 30
0.0
 11
-50.41714787390816
 21
-13.64649391332851
 31
0.0
  0
LINE
  5
58D
330
1F
100
AcDbEntity
  8
中心線
100
AcDbLine
 10
-40.03177189734564
 20
-20.44040870825039
 30
0.0
 11
-40.03177911093255
 21
49.23881729568535
 31
0.0
  0
LINE
  5
58E
330
1F
100
AcDbEntity
  8
中心線
100
AcDbLine
 10
-36.72411030869205
 20
-2.994281190331476
 30
0.0
 11
-71.97632897942573
 21
32.25793450886269
 31
0.0
  0
LINE
  5
58F
330
1F
100
AcDbEntity
  8
外形線
100
AcDbLine
 10
-50.41714787390804
 20
-16.17899513403162
 30
0.0
 11
-27.92875552085022
 21
-16.17899513403162
 31
0.0
  0
LINE
  5
590
330
1F
100
AcDbEntity
  8
外形線
100
AcDbLine
 10
-67.09688542384895
 20
12.30254599633876
 30
0.0
 11
-68.17680125174613
 21
13.38092860077064
 31
0.0
  0
LINE
  5
591
330
1F
100
AcDbEntity
  8
外形線
100
AcDbLine
 10
-72.41480862956425
 20
15.18989273429191
 30
0.0
 11
-70.86579071863233
 21
16.0699240812612
 31
0.0
  0
LINE
  5
592
330
1F
100
AcDbEntity
  8
外形線
100
AcDbLine
 10
-70.86578447463373
 20
16.06991374757791
 30
0.0
 11
-69.78810646237021
 21
14.99223564447301
 31
0.0
  0
LINE
  5
593
330
1F
100
AcDbEntity
  8
外形線
100
AcDbLine
 10
-69.78810019395705
 20
14.99224574676948
 30
0.0
 11
-70.79174453683574
 21
13.56683430617859
 31
0.0
  0
LINE
  5
594
330
1F
100
AcDbEntity
  8
外形線
100
AcDbLine
 10
-70.79174639146365
 20
13.56682522403744
 30
0.0
 11
-69.72438457858172
 21
12.49946332118366
 31
0.0
  0
LINE
  5
595
330
1F
100
AcDbEntity
  8
外形線
100
AcDbLine
 10
-69.72438560579215
 20
12.49947478991954
 30
0.0
 11
-68.17679495506084
 21
13.38094277743647
 31
0.0
  0
LINE
  5
596
330
1F
100
AcDbEntity
  8
外形線
100
AcDbLine
 10
-29.64636769759383
 20
34.72773566232675
 30
0.0
 11
-27.92875780271052
 21
34.249455213722
 31
0.0
  0
LINE
  5
597
330
1F
100
AcDbEntity
  8
外形線
100
AcDbLine
 10
-52.13474917319404
 20
35.5180225356461
 30
0.0
 11
-52.13474917319404
 21
34.0085124953629
 31
0.0
  0
LINE
  5
598
330
1F
100
AcDbEntity
  8
外形線
100
AcDbLine
 10
-27.92875552085022
 20
34.24946021875157
 30
0.0
 11
-27.92875552085022
 21
32.73992729028477
 31
0.0
  0
LINE
  5
599
330
1F
100
AcDbEntity
  8
外形線
100
AcDbLine
 10
-29.64635538962463
 20
36.25176429590001
 30
0.0
 11
-29.64635538962463
 21
34.72775077661289
 31
0.0
  0
LINE
  5
59A
330
1F
100
AcDbEntity
  8
外形線
100
AcDbLine
 10
-50.41714787390816
 20
37.34030532678382
 30
0.0
 11
-50.41714787390816
 21
35.81628990014805
 31
0.0
  0
LINE
  5
59B
330
1F
100
AcDbEntity
  8
外形線
100
AcDbLine
 10
-27.92875095101374
 20
32.73992450775745
 30
0.0
 11
-52.13474964266755
 21
34.00848097835871
 31
0.0
  0
LINE
  5
59C
330
1F
100
AcDbEntity
  8
外形線
100
AcDbLine
 10
-27.92873860631733
 20
34.24942352274707
 30
0.0
 11
-52.13469825090805
 21
35.5179779470207
 31
0.0
  0
LINE
  5
59D
330
1F
100
AcDbEntity
  8
外形線
100
AcDbLine
 10
-29.64636453562122
 20
34.72770798855542
 30
0.0
 11
-50.41712570914281
 21
35.81623500293843
 31
0.0
  0
LINE
  5
59E
330
1F
100
AcDbEntity
  8
外形線
100
AcDbLine
 10
-29.64637709712216
 20
36.25171068114469
 30
0.0
 11
-50.41713279453114
 21
37.34023740854271
 31
0.0
  0
LINE
  5
59F
330
1F
100
AcDbEntity
  8
外形線
100
AcDbLine
 10
-52.13473674032464
 20
37.81860318410295
 30
0.0
 11
-50.41712087375366
 21
37.34032107264011
 31
0.0
  0
LINE
  5
5A0
330
1F
100
AcDbEntity
  8
外形線
100
AcDbLine
 10
-50.41710939970329
 20
35.81625355778661
 30
0.0
 11
-52.13471250154075
 21
35.5180042881027
 31
0.0
  0
LINE
  5
5A1
330
1F
100
AcDbEntity
  8
外形線
100
AcDbLine
 10
-29.64636962064196
 20
36.25178802647543
 30
0.0
 11
-27.92876404333796
 21
36.55003418874401
 31
0.0
  0
LINE
  5
5A2
330
1F
100
AcDbEntity
  8
外形線
100
AcDbLine
 10
-29.64640069891581
 20
38.5325485341788
 30
0.0
 11
-27.92878529170548
 21
38.05426655062812
 31
0.0
  0
LINE
  5
5A3
330
1F
100
AcDbEntity
  8
外形線
100
AcDbLine
 10
-52.13474917319404
 20
39.32285308679356
 30
0.0
 11
-52.13474917319404
 21
37.81334876855626
 31
0.0
  0
LINE
  5
5A4
330
1F
100
AcDbEntity
  8
外形線
100
AcDbLine
 10
-27.92875552085022
 20
38.0542888625504
 30
0.0
 11
-27.92875552085022
 21
36.54478454431309
 31
0.0
  0
LINE
  5
5A5
330
1F
100
AcDbEntity
  8
外形線
100
AcDbLine
 10
-29.64635538962463
 20
40.05660056909336
 30
0.0
 11
-29.64635538962463
 21
38.53258704980625
 31
0.0
  0
LINE
  5
5A6
330
1F
100
AcDbEntity
  8
外形線
100
AcDbLine
 10
-50.41714787390816
 20
41.14513587793125
 30
0.0
 11
-50.41714787390816
 21
39.62112045129553
 31
0.0
  0
LINE
  5
5A7
330
1F
100
AcDbEntity
  8
外形線
100
AcDbLine
 10
-27.92871923718081
 20
36.54473950862479
 30
0.0
 11
-52.13469364346615
 21
37.81329470651011
 31
0.0
  0
LINE
  5
5A8
330
1F
100
AcDbEntity
  8
外形線
100
AcDbLine
 10
-27.92876855088195
 20
38.05426467452026
 30
0.0
 11
-52.13473152875853
 21
39.32281927348041
 31
0.0
  0
LINE
  5
5A9
330
1F
100
AcDbEntity
  8
外形線
100
AcDbLine
 10
-29.64637864338235
 20
38.53255977017048
 30
0.0
 11
-50.41712505520933
 21
39.62108601094179
 31
0.0
  0
LINE
  5
5AA
330
1F
100
AcDbEntity
  8
外形線
100
AcDbLine
 10
-29.64636966201398
 20
40.05660908292068
 30
0.0
 11
-50.41711512147355
 21
41.14513527378156
 31
0.0
  0
LINE
  5
5AB
330
1F
100
AcDbEntity
  8
外形線
100
AcDbLine
 10
-52.13474360011673
 20
41.62340283692024
 30
0.0
 11
-50.41713404975393
 21
41.14512248424957
 31
0.0
  0
LINE
  5
5AC
330
1F
100
AcDbEntity
  8
外形線
100
AcDbLine
 10
-50.41711903376421
 20
39.62111412745432
 30
0.0
 11
-52.13472871289964
 21
39.32286371567051
 31
0.0
  0
LINE
  5
5AD
330
1F
100
AcDbEntity
  8
外形線
100
AcDbLine
 10
-29.64639025573598
 20
40.05657180134337
 30
0.0
 11
-27.92878655766055
 21
40.35481763730149
 31
0.0
  0
LINE
  5
5AE
330
1F
100
AcDbEntity
  8
外形線
100
AcDbLine
 10
-29.64636843733814
 20
42.33739669081306
 30
0.0
 11
-27.92875854245483
 21
41.85911624220827
 31
0.0
  0
LINE
  5
5AF
330
1F
100
AcDbEntity
  8
外形線
100
AcDbLine
 10
-52.13474917319404
 20
43.12768554528966
 30
0.0
 11
-52.13474917319404
 21
41.61818122705234
 31
0.0
  0
LINE
  5
5B0
330
1F
100
AcDbEntity
  8
外形線
100
AcDbLine
 10
-27.92875552085022
 20
41.85911750634922
 30
0.0
 11
-27.92875552085022
 21
40.34961318811189
 31
0.0
  0
LINE
  5
5B1
330
1F
100
AcDbEntity
  8
外形線
100
AcDbLine
 10
-29.64635538962463
 20
43.86142539819492
 30
0.0
 11
-29.64635538962463
 21
42.3374156936051
 31
0.0
  0
LINE
  5
5B2
330
1F
100
AcDbEntity
  8
外形線
100
AcDbLine
 10
-50.41714787390816
 20
44.94996452173007
 30
0.0
 11
-50.41714787390816
 21
43.42594909509434
 31
0.0
  0
LINE
  5
5B3
330
1F
100
AcDbEntity
  8
外形線
100
AcDbLine
 10
-27.92874488131005
 20
40.34962627421196
 30
0.0
 11
-52.13471262102364
 21
41.61818112272427
 31
0.0
  0
LINE
  5
5B4
330
1F
100
AcDbEntity
  8
外形線
100
AcDbLine
 10
-27.92877002424572
 20
41.85910242424575
 30
0.0
 11
-52.13474395434732
 21
43.12765759717581
 31
0.0
  0
LINE
  5
5B5
330
1F
100
AcDbEntity
  8
外形線
100
AcDbLine
 10
-29.64639165311414
 20
42.3374325038681
 30
0.0
 11
-50.41713996967594
 21
43.42595884446027
 31
0.0
  0
LINE
  5
5B6
330
1F
100
AcDbEntity
  8
外形線
100
AcDbLine
 10
-29.64635879230434
 20
43.86139079677053
 30
0.0
 11
-50.41711329925422
 21
44.9499174617805
 31
0.0
  0
LINE
  5
5B7
330
1F
100
AcDbEntity
  8
外形線
100
AcDbLine
 10
-52.13475588513803
 20
45.42822577949
 30
0.0
 11
-50.41714090857821
 21
44.94994391585698
 31
0.0
  0
LINE
  5
5B8
330
1F
100
AcDbEntity
  8
外形線
100
AcDbLine
 10
-50.41715090393076
 20
43.42592437462235
 30
0.0
 11
-52.13476058306611
 21
43.12767396283853
 31
0.0
  0
LINE
  5
5B9
330
1F
100
AcDbEntity
  8
外形線
100
AcDbLine
 10
-29.64630474195613
 20
43.86142434109621
 30
0.0
 11
-27.92870104388072
 21
44.15967017705431
 31
0.0
  0
LINE
  5
5BA
330
1F
100
AcDbEntity
  8
外形線
100
AcDbLine
 10
-27.92875552085022
 20
45.42300796350253
 30
0.0
 11
-27.92875552085022
 21
44.15444373925939
 31
0.0
  0
LINE
  5
5BB
330
1F
100
AcDbEntity
  8
外形線
100
AcDbLine
 10
-27.92874615503203
 20
44.15446783340704
 30
0.0
 11
-52.13471103764343
 21
45.42302253218799
 31
0.0
  0
LINE
  5
5BC
330
1F
100
AcDbEntity
  8
外形線
100
AcDbLine
 10
-29.64635097016532
 20
32.44690601879499
 30
0.0
 11
-50.41714857173971
 21
33.53543494225197
 31
0.0
  0
LINE
  5
5BD
330
1F
100
AcDbEntity
  8
外形線
100
AcDbLine
 10
-29.64635333080332
 20
30.92283725941346
 30
0.0
 11
-50.41714974191845
 21
32.01136612048236
 31
0.0
  0
LINE
  5
5BE
330
1F
100
AcDbEntity
  8
外形線
100
AcDbLine
 10
-27.92875096520134
 20
30.44457694809367
 30
0.0
 11
-52.13474965685509
 21
31.71313341869495
 31
0.0
  0
LINE
  5
5BF
330
1F
100
AcDbEntity
  8
外形線
100
AcDbLine
 10
-27.92875679712655
 20
28.9350928715198
 30
0.0
 11
-52.13475096503525
 21
30.20364910504652
 31
0.0
  0
LINE
  5
5C0
330
1F
100
AcDbEntity
  8
外形線
100
AcDbLine
 10
-29.64634925395873
 20
27.11801274301061
 30
0.0
 11
-50.41714756980865
 21
28.2065417039004
 31
0.0
  0
LINE
  5
5C1
330
1F
100
AcDbEntity
  8
外形線
100
AcDbLine
 10
-27.92875550550454
 20
26.63973378362647
 30
0.0
 11
-50.4171479379142
 21
27.818276181193
 31
0.0
  0
LINE
  5
5C2
330
1F
100
AcDbEntity
  8
外形線
100
AcDbLine
 10
-27.92875843448624
 20
25.13026865457951
 30
0.0
 11
-49.68289496508162
 21
26.2703311246211
 31
0.0
  0
LINE
  5
5C3
330
1F
100
AcDbEntity
  8
外形線
100
AcDbLine
 10
-29.64635464416833
 20
24.8372499659753
 30
0.0
 11
-49.44457509482173
 21
25.87480933210576
 31
0.0
  0
LINE
  5
5C4
330
1F
100
AcDbEntity
  8
外形線
100
AcDbLine
 10
-29.64634958550883
 20
23.3131769978408
 30
0.0
 11
-48.55421724955819
 21
24.3040759140988
 31
0.0
  0
LINE
  5
5C5
330
1F
100
AcDbEntity
  8
外形線
100
AcDbLine
 10
-27.92875273446965
 20
22.83492079545319
 30
0.0
 11
-48.34015689586024
 21
23.90461509531769
 31
0.0
  0
LINE
  5
5C6
330
1F
100
AcDbEntity
  8
外形線
100
AcDbLine
 10
-27.92874753726943
 20
21.32542850101493
 30
0.0
 11
-47.54559552045412
 21
22.35348273496193
 31
0.0
  0
LINE
  5
5C7
330
1F
100
AcDbEntity
  8
外形線
100
AcDbLine
 10
-29.64635538962475
 20
21.03241424249697
 30
0.0
 11
-47.35165854706892
 21
21.96029072346519
 31
0.0
  0
LINE
  5
5C8
330
1F
100
AcDbEntity
  8
外形線
100
AcDbLine
 10
-29.64635272832004
 20
19.50836049966051
 30
0.0
 11
-46.60024631801078
 21
20.3968580861081
 31
0.0
  0
LINE
  5
5C9
330
1F
100
AcDbEntity
  8
外形線
100
AcDbLine
 10
-27.92874314306232
 20
19.03009217011817
 30
0.0
 11
-46.41231759647847
 21
19.9987552800937
 31
0.0
  0
LINE
  5
5CA
330
1F
100
AcDbEntity
  8
外形線
100
AcDbLine
 10
-27.92874897498757
 20
17.52060809354427
 30
0.0
 11
-45.68632563214782
 21
18.45122405604144
 31
0.0
  0
LINE
  5
5CB
330
1F
100
AcDbEntity
  8
外形線
100
AcDbLine
 10
-29.64635069923224
 20
17.22759351387219
 30
0.0
 11
-45.50194107415946
 21
18.05853265509639
 31
0.0
  0
LINE
  5
5CC
330
1F
100
AcDbEntity
  8
外形線
100
AcDbLine
 10
-29.64635456532153
 20
15.70353247325069
 30
0.0
 11
-44.76043925794772
 21
16.49561174989119
 31
0.0
  0
LINE
  5
5CD
330
1F
100
AcDbEntity
  8
外形線
100
AcDbLine
 10
-27.92875811356564
 20
15.22526865192395
 30
0.0
 11
-44.56874717395157
 21
16.09731553840773
 31
0.0
  0
LINE
  5
5CE
330
1F
100
AcDbEntity
  8
外形線
100
AcDbLine
 10
-27.92875291636554
 20
13.71577635748572
 30
0.0
 11
-43.8088083476872
 21
14.54799763153942
 31
0.0
  0
LINE
  5
5CF
330
1F
100
AcDbEntity
  8
外形線
100
AcDbLine
 10
-29.64635293551723
 20
13.42275786852326
 30
0.0
 11
-43.61482625121956
 21
14.15479943535872
 31
0.0
  0
LINE
  5
5D0
330
1F
100
AcDbEntity
  8
外形線
100
AcDbLine
 10
-29.64635700124814
 20
11.8986930184321
 30
0.0
 11
-42.85288907435111
 21
12.59080376044063
 31
0.0
  0
LINE
  5
5D1
330
1F
100
AcDbEntity
  8
外形線
100
AcDbLine
 10
-27.92875674002272
 20
11.4204289974637
 30
0.0
 11
-42.66370752996762
 21
12.19263911804926
 31
0.0
  0
LINE
  5
5D2
330
1F
100
AcDbEntity
  8
外形線
100
AcDbLine
 10
-27.92876006828797
 20
9.9109562494776
 30
0.0
 11
-41.96062909127561
 21
10.64632017601859
 31
0.0
  0
LINE
  5
5D3
330
1F
100
AcDbEntity
  8
外形線
100
AcDbLine
 10
-29.64635818270486
 20
9.617937660694279
 30
0.0
 11
-41.79272781458694
 21
10.25448878949162
 31
0.0
  0
LINE
  5
5D4
330
1F
100
AcDbEntity
  8
外形線
100
AcDbLine
 10
-29.64634550510615
 20
8.093864293276297
 30
0.0
 11
-41.18131639068464
 21
8.698374032432127
 31
0.0
  0
LINE
  5
5D5
330
1F
100
AcDbEntity
  8
外形線
100
AcDbLine
 10
-27.92876048175904
 20
7.615601070874668
 30
0.0
 11
-41.04273840098014
 21
8.30286135526385
 31
0.0
  0
LINE
  5
5D6
330
1F
100
AcDbEntity
  8
外形線
100
AcDbLine
 10
-27.92875639072682
 20
6.106124114135637
 30
0.0
 11
-40.58768188425662
 21
6.769536603338727
 31
0.0
  0
LINE
  5
5D7
330
1F
100
AcDbEntity
  8
外形線
100
AcDbLine
 10
-29.64635029639072
 20
5.813112944649702
 30
0.0
 11
-40.49678352953722
 21
6.381748325576211
 31
0.0
  0
LINE
  5
5D8
330
1F
100
AcDbEntity
  8
外形線
100
AcDbLine
 10
-29.64634333299645
 20
4.289039876694296
 30
0.0
 11
-40.25785980600263
 21
4.84515441905215
 31
0.0
  0
LINE
  5
5D9
330
1F
100
AcDbEntity
  8
外形線
100
AcDbLine
 10
-27.92874918525874
 20
3.810768536249298
 30
0.0
 11
-40.23342548140833
 21
4.455615994640544
 31
0.0
  0
LINE
  5
5DA
330
1F
100
AcDbEntity
  8
外形線
100
AcDbLine
 10
-27.92874850441265
 20
2.301299398091074
 30
0.0
 11
-40.31604534222203
 21
2.950476726282848
 31
0.0
  0
LINE
  5
5DB
330
1F
100
AcDbEntity
  8
外形線
100
AcDbLine
 10
-29.64635233303395
 20
2.008281108770288
 30
0.0
 11
-40.39009035952728
 21
2.571324946191154
 31
0.0
  0
LINE
  5
5DC
330
1F
100
AcDbEntity
  8
外形線
100
AcDbLine
 10
-29.64635538962463
 20
2.008298872316018
 30
0.0
 11
-29.64635538962463
 21
0.4842815383316508
 31
0.0
  0
LINE
  5
5DD
330
1F
100
AcDbEntity
  8
外形線
100
AcDbLine
 10
-29.64637945522404
 20
0.484213647059953
 30
0.0
 11
-40.96491401143931
 21
1.077380672800636
 31
0.0
  0
LINE
  5
5DE
330
1F
100
AcDbEntity
  8
外形線
100
AcDbLine
 10
-29.64635890308983
 20
0.48426644188951
 30
0.0
 11
-27.92857077629634
 21
0.0059363633668781
 31
0.0
  0
LINE
  5
5DF
330
1F
100
AcDbEntity
  8
外形線
100
AcDbLine
 10
-27.9287502236933
 20
0.0059557477177137
 30
0.0
 11
-41.19829450045926
 21
0.7013687512731366
 31
0.0
  0
LINE
  5
5E0
330
1F
100
AcDbEntity
  8
外形線
100
AcDbLine
 10
-27.92875552085022
 20
0.0059337600113381
 30
0.0
 11
-27.92875552085022
 21
-1.503503801023823
 31
0.0
  0
LINE
  5
5E1
330
1F
100
AcDbEntity
  8
外形線
100
AcDbLine
 10
-27.92874693122795
 20
-1.503536446899673
 30
0.0
 11
-42.49967246343464
 21
-0.7399223485107882
 31
0.0
  0
LINE
  5
5E2
330
1F
100
AcDbEntity
  8
外形線
100
AcDbLine
 10
-29.64637742613624
 20
-1.796553338728344
 30
0.0
 11
-42.93806903234875
 21
-1.099979666760366
 31
0.0
  0
LINE
  5
5E3
330
1F
100
AcDbEntity
  8
外形線
100
AcDbLine
 10
-29.64638560621955
 20
-1.796533583426935
 30
0.0
 11
-27.92878143833696
 21
-1.498287665891225
 31
0.0
  0
LINE
  5
5E4
330
1F
100
AcDbEntity
  8
外形線
100
AcDbLine
 10
-27.92875740181066
 20
2.301297254745755
 30
0.0
 11
-29.64635736805104
 21
2.008309302881905
 31
0.0
  0
LINE
  5
5E5
330
1F
100
AcDbEntity
  8
外形線
100
AcDbLine
 10
-29.64635025201582
 20
28.64409478264507
 30
0.0
 11
-50.41714904404942
 21
29.73262376849007
 31
0.0
  0
LINE
  5
5E6
330
1F
100
AcDbEntity
  8
外形線
100
AcDbLine
 10
-27.92875276184734
 20
32.73992491682327
 30
0.0
 11
-29.64634771510024
 21
32.44690757855428
 31
0.0
  0
LINE
  5
5E7
330
1F
100
AcDbEntity
  8
外形線
100
AcDbLine
 10
-29.64635538962463
 20
32.44690894922032
 30
0.0
 11
-29.64635538962463
 21
30.92284202417149
 31
0.0
  0
LINE
  5
5E8
330
1F
100
AcDbEntity
  8
外形線
100
AcDbLine
 10
-29.64635252908775
 20
30.92284754933276
 30
0.0
 11
-27.92875450461564
 21
30.44458135405154
 31
0.0
  0
LINE
  5
5E9
330
1F
100
AcDbEntity
  8
外形線
100
AcDbLine
 10
-27.92875552085022
 20
30.44457435449376
 30
0.0
 11
-27.92875552085022
 21
28.93509864648594
 31
0.0
  0
LINE
  5
5EA
330
1F
100
AcDbEntity
  8
外形線
100
AcDbLine
 10
-27.92875546285865
 20
28.93509565131525
 30
0.0
 11
-29.64635148560147
 21
28.64410458554198
 31
0.0
  0
LINE
  5
5EB
330
1F
100
AcDbEntity
  8
外形線
100
AcDbLine
 10
-29.64635538962463
 20
28.64410209497227
 30
0.0
 11
-29.64635538962463
 21
27.1180095656754
 31
0.0
  0
LINE
  5
5EC
330
1F
100
AcDbEntity
  8
外形線
100
AcDbLine
 10
-29.64634943206531
 20
27.11801654522397
 30
0.0
 11
-27.92875741128802
 21
26.63975012024267
 31
0.0
  0
LINE
  5
5ED
330
1F
100
AcDbEntity
  8
外形線
100
AcDbLine
 10
-27.92875552085022
 20
26.63974571069493
 30
0.0
 11
-27.92875552085022
 21
25.13027000268711
 31
0.0
  0
LINE
  5
5EE
330
1F
100
AcDbEntity
  8
外形線
100
AcDbLine
 10
-27.92875719876014
 20
25.13027207675452
 30
0.0
 11
-29.64635874126847
 21
24.83725366630334
 31
0.0
  0
LINE
  5
5EF
330
1F
100
AcDbEntity
  8
外形線
100
AcDbLine
 10
-29.64635538962463
 20
24.83724784692539
 30
0.0
 11
-29.64635538962463
 21
23.31318092187657
 31
0.0
  0
LINE
  5
5F0
330
1F
100
AcDbEntity
  8
外形線
100
AcDbLine
 10
-29.64634695218385
 20
23.31317869565446
 30
0.0
 11
-27.92875180760124
 21
22.83491637874697
 31
0.0
  0
LINE
  5
5F1
330
1F
100
AcDbEntity
  8
外形線
100
AcDbLine
 10
-27.92875552085022
 20
22.8349170668961
 30
0.0
 11
-27.92875552085022
 21
21.32543754419102
 31
0.0
  0
LINE
  5
5F2
330
1F
100
AcDbEntity
  8
外形線
100
AcDbLine
 10
-27.92875925042756
 20
21.32544810187953
 30
0.0
 11
-29.64635702395773
 21
21.0324302824784
 31
0.0
  0
LINE
  5
5F3
330
1F
100
AcDbEntity
  8
外形線
100
AcDbLine
 10
-29.64635538962463
 20
21.03241920312656
 30
0.0
 11
-29.64635538962463
 21
19.50835227807774
 31
0.0
  0
LINE
  5
5F4
330
1F
100
AcDbEntity
  8
外形線
100
AcDbLine
 10
-29.64635519610806
 20
19.50836244154986
 30
0.0
 11
-27.92875619177056
 21
19.03009265481313
 31
0.0
  0
LINE
  5
5F5
330
1F
100
AcDbEntity
  8
外形線
100
AcDbLine
 10
-27.92875552085022
 20
19.0300846084
 30
0.0
 11
-27.92875552085022
 21
17.52060890039217
 31
0.0
  0
LINE
  5
5F6
330
1F
100
AcDbEntity
  8
外形線
100
AcDbLine
 10
-27.92875301951003
 20
17.52061511809111
 30
0.0
 11
-29.64635462521324
 21
17.227597078073
 31
0.0
  0
LINE
  5
5F7
330
1F
100
AcDbEntity
  8
外形線
100
AcDbLine
 10
-29.64635538962463
 20
17.22759055932774
 30
0.0
 11
-29.64635538962463
 21
15.70351981958164
 31
0.0
  0
LINE
  5
5F8
330
1F
100
AcDbEntity
  8
外形線
100
AcDbLine
 10
-29.64634740062312
 20
15.70353967104505
 30
0.0
 11
-27.92874992243566
 21
15.22527151389534
 31
0.0
  0
LINE
  5
5F9
330
1F
100
AcDbEntity
  8
外形線
100
AcDbLine
 10
-27.92872881796933
 20
15.22524833520664
 30
0.0
 11
-27.92872881796933
 21
13.71577262719883
 31
0.0
  0
LINE
  5
5FA
330
1F
100
AcDbEntity
  8
外形線
100
AcDbLine
 10
-27.92875669929845
 20
13.71577709505515
 30
0.0
 11
-29.64635840486972
 21
13.42276247594631
 31
0.0
  0
LINE
  5
5FB
330
1F
100
AcDbEntity
  8
外形線
100
AcDbLine
 10
-29.64630389121154
 20
13.42275810083164
 30
0.0
 11
-29.64630389121154
 21
11.89869117578281
 31
0.0
  0
LINE
  5
5FC
330
1F
100
AcDbEntity
  8
外形線
100
AcDbLine
 10
-29.64635001048325
 20
11.89869860231651
 30
0.0
 11
-27.92875167471863
 21
11.42043352498181
 31
0.0
  0
LINE
  5
5FD
330
1F
100
AcDbEntity
  8
外形線
100
AcDbLine
 10
-27.92872881796933
 20
11.42041969140781
 30
0.0
 11
-27.92872881796933
 21
9.910943983400001
 31
0.0
  0
LINE
  5
5FE
330
1F
100
AcDbEntity
  8
外形線
100
AcDbLine
 10
-27.9287591290618
 20
9.910942670633282
 30
0.0
 11
-29.64636028623946
 21
9.617924836952512
 31
0.0
  0
LINE
  5
5FF
330
1F
100
AcDbEntity
  8
外形線
100
AcDbLine
 10
-29.64635538962463
 20
9.617921827638282
 30
0.0
 11
-29.64635538962463
 21
8.093862531983987
 31
0.0
  0
LINE
  5
600
330
1F
100
AcDbEntity
  8
外形線
100
AcDbLine
 10
-29.64634897985707
 20
8.093857481161485
 30
0.0
 11
-27.92874929800624
 21
7.615590127568977
 31
0.0
  0
LINE
  5
601
330
1F
100
AcDbEntity
  8
外形線
100
AcDbLine
 10
-27.92875552085022
 20
7.615591047608987
 30
0.0
 11
-27.92875552085022
 21
6.106103895509377
 31
0.0
  0
LINE
  5
602
330
1F
100
AcDbEntity
  8
外形線
100
AcDbLine
 10
-27.92875469554684
 20
6.106114052228057
 30
0.0
 11
-29.64635742248925
 21
5.813102584721647
 31
0.0
  0
LINE
  5
603
330
1F
100
AcDbEntity
  8
外形線
100
AcDbLine
 10
-29.64630961325744
 20
5.813100813233987
 30
0.0
 11
-29.64630961325744
 21
4.289030073487896
 31
0.0
  0
LINE
  5
604
330
1F
100
AcDbEntity
  8
外形線
100
AcDbLine
 10
-29.64634561724844
 20
4.289031705102515
 30
0.0
 11
-27.92874518158586
 21
3.810767058679686
 31
0.0
  0
LINE
  5
605
330
1F
100
AcDbEntity
  8
外形線
100
AcDbLine
 10
-27.92878222373116
 20
3.8107585891129
 30
0.0
 11
-27.92878222373116
 21
2.301290510499619
 31
0.0
  0
LINE
  5
606
330
1F
100
AcDbEntity
  8
外形線
100
AcDbLine
 10
-52.13474583533383
 20
45.42301368554844
 30
0.0
 11
-27.92875170615295
 21
45.42301368554844
 31
0.0
  0
LINE
  5
607
330
1F
100
AcDbEntity
  8
外形線
100
AcDbLine
 10
-52.13475049133815
 20
30.2036585623096
 30
0.0
 11
-50.41714893534464
 21
29.73263941455636
 31
0.0
  0
LINE
  5
608
330
1F
100
AcDbEntity
  8
外形線
100
AcDbLine
 10
-50.41714993723704
 20
32.01137221106055
 30
0.0
 11
-52.13475080472193
 21
31.71313794593937
 31
0.0
  0
LINE
  5
609
330
1F
100
AcDbEntity
  8
外形線
100
AcDbLine
 10
-50.41715311911683
 20
45.42301368554844
 30
0.0
 11
-27.92876124289615
 21
45.42301368554844
 31
0.0
  0
LINE
  5
60A
330
1F
100
AcDbEntity
  8
外形線
100
AcDbLine
 10
-52.13474917319404
 20
31.71312904199375
 30
0.0
 11
-52.13474917319404
 21
30.20364951928868
 31
0.0
  0
LINE
  5
60B
330
1F
100
AcDbEntity
  8
外形線
100
AcDbLine
 10
-50.41714787390816
 20
33.53543281396641
 30
0.0
 11
-50.41714787390816
 21
32.01136588891758
 31
0.0
  0
LINE
  5
60C
330
1F
100
AcDbEntity
  8
外形線
100
AcDbLine
 10
-50.41578877826424
 20
27.81820495212327
 30
0.0
 11
-50.41714881125705
 21
29.73263634411646
 31
0.0
  0
LINE
  5
60D
330
1F
100
AcDbEntity
  8
外形線
100
AcDbLine
 10
-52.13474498846185
 20
34.00848966873895
 30
0.0
 11
-50.41714454579214
 21
33.53544392834866
 31
0.0
  0
LINE
  5
60E
330
1F
100
AcDbEntity
  8
外形線
100
AcDbLine
 10
-75.93462329279157
 20
21.13874905896635
 30
0.0
 11
-60.03292552324454
 21
37.04044816892638
 31
0.0
  0
LINE
  5
60F
330
1F
100
AcDbEntity
  8
外形線
100
AcDbLine
 10
-67.09688039873213
 20
12.30255111447975
 30
0.0
 11
-68.10132398449463
 21
10.87640078897726
 31
0.0
  0
LINE
  5
610
330
1F
100
AcDbEntity
  8
外形線
100
AcDbLine
 10
-68.10132767064212
 20
10.8764012774223
 30
0.0
 11
-67.03397988631285
 21
9.809046925212491
 31
0.0
  0
LINE
  5
611
330
1F
100
AcDbEntity
  8
外形線
100
AcDbLine
 10
-67.03396719817013
 20
9.809044199419275
 30
0.0
 11
-65.48292937756682
 21
10.69088709799206
 31
0.0
  0
LINE
  5
612
330
1F
100
AcDbEntity
  8
外形線
100
AcDbLine
 10
-65.48292759051321
 20
10.69089426030609
 30
0.0
 11
-64.40444289819848
 21
9.613939761063667
 31
0.0
  0
LINE
  5
613
330
1F
100
AcDbEntity
  8
外形線
100
AcDbLine
 10
-64.40444090884414
 20
9.61393470572284
 30
0.0
 11
-65.41090508897273
 21
8.185983511859632
 31
0.0
  0
LINE
  5
614
330
1F
100
AcDbEntity
  8
外形線
100
AcDbLine
 10
-65.41090722150875
 20
8.185990938604701
 30
0.0
 11
-64.34354680496753
 21
7.118622244629705
 31
0.0
  0
LINE
  5
615
330
1F
100
AcDbEntity
  8
外形線
100
AcDbLine
 10
-64.34354465263904
 20
7.118618814658162
 30
0.0
 11
-62.79049615115146
 21
8.00227368063819
 31
0.0
  0
LINE
  5
616
330
1F
100
AcDbEntity
  8
外形線
100
AcDbLine
 10
-62.79049353469702
 20
8.002278455034156
 30
0.0
 11
-61.71201620204612
 21
6.925335480881977
 31
0.0
  0
LINE
  5
617
330
1F
100
AcDbEntity
  8
外形線
100
AcDbLine
 10
-61.71201725035483
 20
6.925333899052901
 30
0.0
 11
-62.72048705987972
 21
5.495571545454557
 31
0.0
  0
LINE
  5
618
330
1F
100
AcDbEntity
  8
外形線
100
AcDbLine
 10
-62.72049261724933
 20
5.495562200202761
 30
0.0
 11
-61.65312505235984
 21
4.428187167581551
 31
0.0
  0
LINE
  5
619
330
1F
100
AcDbEntity
  8
外形線
100
AcDbLine
 10
-61.65312723338383
 20
4.428205228196294
 30
0.0
 11
-60.09807285886552
 21
5.313672414645123
 31
0.0
  0
LINE
  5
61A
330
1F
100
AcDbEntity
  8
外形線
100
AcDbLine
 10
-60.09807061238468
 20
5.313666071019341
 30
0.0
 11
-59.01959262022444
 21
4.236729155967758
 31
0.0
  0
LINE
  5
61B
330
1F
100
AcDbEntity
  8
外形線
100
AcDbLine
 10
-59.01959673947132
 20
4.236738652123833
 30
0.0
 11
-60.03007632307141
 21
2.8051636427382
 31
0.0
  0
LINE
  5
61C
330
1F
100
AcDbEntity
  8
外形線
100
AcDbLine
 10
-60.03006946958564
 20
2.80515698173233
 30
0.0
 11
-58.96269857570086
 21
1.737785278093475
 31
0.0
  0
LINE
  5
61D
330
1F
100
AcDbEntity
  8
外形線
100
AcDbLine
 10
-58.96270111524835
 20
1.737785672066571
 30
0.0
 11
-57.40564020494156
 21
2.625063633136837
 31
0.0
  0
LINE
  5
61E
330
1F
100
AcDbEntity
  8
外形線
100
AcDbLine
 10
-57.40564189273765
 20
2.62505195894895
 30
0.0
 11
-56.32715816287229
 21
1.548104593844354
 31
0.0
  0
LINE
  5
61F
330
1F
100
AcDbEntity
  8
外形線
100
AcDbLine
 10
-56.32714905527304
 20
1.548112916217198
 30
0.0
 11
-57.33964015225733
 21
0.1147267283549169
 31
0.0
  0
LINE
  5
620
330
1F
100
AcDbEntity
  8
外形線
100
AcDbLine
 10
-57.33963595474254
 20
0.1147232767223087
 30
0.0
 11
-56.27227760314305
 21
-0.9526339952187186
 31
0.0
  0
LINE
  5
621
330
1F
100
AcDbEntity
  8
外形線
100
AcDbLine
 10
-56.27228645119775
 20
-0.9526309773541823
 30
0.0
 11
-54.71320646642482
 21
-0.0635492066313646
 31
0.0
  0
LINE
  5
622
330
1F
100
AcDbEntity
  8
外形線
100
AcDbLine
 10
-54.71320789579265
 20
-0.0635514684914682
 30
0.0
 11
-53.63472629928825
 21
-1.140500969996202
 31
0.0
  0
LINE
  5
623
330
1F
100
AcDbEntity
  8
外形線
100
AcDbLine
 10
-53.63472505531882
 20
-1.140511836109324
 30
0.0
 11
-54.64922017985305
 21
-2.575704901388029
 31
0.0
  0
LINE
  5
624
330
1F
100
AcDbEntity
  8
外形線
100
AcDbLine
 10
-54.64922698658861
 20
-2.575705486134495
 30
0.0
 11
-53.58186975963334
 21
-3.643063882719701
 31
0.0
  0
LINE
  5
625
330
1F
100
AcDbEntity
  8
外形線
100
AcDbLine
 10
-53.58186051164651
 20
-3.643073359560062
 30
0.0
 11
-52.02077452386816
 21
-2.752165235503497
 31
0.0
  0
LINE
  5
626
330
1F
100
AcDbEntity
  8
外形線
100
AcDbLine
 10
-50.35520044872964
 20
-4.415368656494131
 30
0.0
 11
-52.02077736821197
 21
-2.752157301035403
 31
0.0
  0
LWPOLYLINE
  5
627
330
1F
100
AcDbEntity
  8
外形線
100
AcDbPolyline
 90
       14
 70
     0
 43
1.750000026077032
 10
-50.41550805203704
 20
27.42304461066577
 10
-48.76079792739454
 20
24.68164771998316
 10
-47.30664828962242
 20
21.86833023236701
 10
-44.42998298886073
 20
15.81202458172928
 10
-42.29715185345222
 20
11.40224622180859
 10
-40.63838519380825
 20
6.968249253588117
 10
-40.22652379197822
 20
4.188000010168654
 10
-40.3592058590631
 20
2.714594894345403
 10
-40.91518828040324
 20
1.167046629823301
 10
-41.7254300744972
 20
0.0238292111151566
 10
-42.81175024043679
 20
-1.000361433078059
 10
-45.56858720065624
 20
-2.689206402756632
 10
-47.6433833967611
 20
-3.546808989849949
 10
-50.41714787390816
 20
-4.353509213202526
  0
DIMENSION
  5
628
330
1F
100
AcDbEntity
  8
寸法線
100
AcDbDimension
  2
*D10
 10
-13.08491585048515
 20
-16.17899513403163
 30
0.0
 11
-13.08491585048514
 21
14.62200927575839
 31
0.0
 70
   160
  1
L1
 71
     5
 42
61.60200881958007
  3
ISO-25
100
AcDbAlignedDimension
 13
-27.92876124289614
 23
45.42301368554844
 33
0.0
 14
-27.92875552085023
 24
-16.17899513403162
 34
0.0
 50
90.0
100
AcDbRotatedDimension
1001
ACAD
1000
DSTYLE
1002
{
1070
   278
1070
    46
1070
   147
1040
0.8000000119209291
1070
    77
1070
     1
1070
    74
1070
     0
1070
    73
1070
     0
1070
    42
1040
2.54
1070
    44
1040
2.286000000000029
1070
    76
1070
     0
1070
    75
1070
     0
1070
   279
1070
     0
1070
   271
1070
     0
1070
   173
1070
     1
1070
    41
1040
3.0
1070
   140
1040
3.200000047683716
1070
   344
1005
192
1070
   343
1005
192
1002
}
  0
DIMENSION
  5
629
330
1F
100
AcDbEntity
  8
寸法線
100
AcDbDimension
  2
*D11
 10
-52.13474917319404
 20
-29.12597918338639
 30
0.0
 11
-40.26730538906082
 21
-29.12597918338639
 31
0.0
 70
   160
  1
\U+2205A
 71
     5
 42
24.20599365234382
  3
ISO-25
100
AcDbAlignedDimension
 13
-27.92875552085023
 23
-16.17900276342617
 33
0.0
 14
-52.13474917319404
 24
-15.45427131811366
 34
0.0
100
AcDbRotatedDimension
1001
ACAD
1000
DSTYLE
1002
{
1070
   278
1070
    46
1070
   147
1040
0.8000000119209291
1070
    77
1070
     1
1070
    74
1070
     0
1070
    73
1070
     0
1070
    42
1040
2.54
1070
    44
1040
2.286
1070
    76
1070
     0
1070
    75
1070
     0
1070
   279
1070
     0
1070
   271
1070
     0
1070
   173
1070
     1
1070
    41
1040
3.0
1070
   140
1040
3.200000047683716
1070
   344
1005
192
1070
   343
1005
192
1002
}
  0
DIMENSION
  5
62A
330
1F
100
AcDbEntity
  8
寸法線
100
AcDbDimension
  2
*D12
 10
-57.66937916932995
 20
-18.1683699521041
 30
0.0
 11
-72.08795573622746
 21
-3.889130807540878
 31
0.0
 70
   160
  1
L2
 71
     5
 42
40.58531862239987
  3
ISO-25
100
AcDbAlignedDimension
 13
-68.39588109529282
 23
28.67748412995762
 33
0.0
 14
-39.06768251948962
 24
0.6148428440793339
 34
0.0
 50
135.2781878444881
100
AcDbRotatedDimension
1001
ACAD
1000
DSTYLE
1002
{
1070
   278
1070
    46
1070
   147
1040
0.8000000119209291
1070
    77
1070
     1
1070
    74
1070
     0
1070
    73
1070
     0
1070
    42
1040
2.54
1070
    44
1040
2.285999999999979
1070
    76
1070
     0
1070
    75
1070
     0
1070
   279
1070
     0
1070
   271
1070
     0
1070
   173
1070
     1
1070
    41
1040
3.0
1070
   140
1040
3.200000047683716
1070
   344
1005
192
1070
   343
1005
192
1002
}
  0
DIMENSION
  5
62B
330
1F
100
AcDbEntity
  8
寸法線
100
AcDbDimension
  2
*D13
 10
-55.21424348065846
 20
56.97510470270947
 30
0.0
 11
-63.39863716958088
 21
56.72595969705116
 31
0.0
 70
    37
  1
45\U+00B0
 71
     5
 42
0.7853984086913276
  3
ISO-25
100
AcDb3PointAngularDimension
 13
-40.03177911093255
 23
49.23881729568535
 33
0.0
 14
-71.97633604393272
 24
32.25792281756338
 34
0.0
 15
-40.03180142231005
 25
0.3133747323235099
 35
0.0
1001
ACAD
1000
DSTYLE
1002
{
1070
   278
1070
    46
1070
   275
1070
     3
1070
   147
1040
0.8000000119209291
1070
    77
1070
     1
1070
    74
1070
     0
1070
    73
1070
     0
1070
    42
1040
2.54
1070
    44
1040
1.000000281242547
1070
    76
1070
     0
1070
    75
1070
     0
1070
   279
1070
     0
1070
   179
1070
     0
1070
   173
1070
     1
1070
    41
1040
3.0
1070
   140
1040
3.200000047683716
1070
   344
1005
192
1070
   343
1005
192
1002
}
  0
MTEXT
  5
6CC
330
1F
100
AcDbEntity
  8
0
 62
     7
100
AcDbMText
 10
56.39939581980274
 20
-24.64795412962065
 30
0.0
 40
3.200000047683716
 41
0.0
 71
     5
 72
     1
  1
1299
 73
     1
 44
1.0
  0
MTEXT
  5
80E
330
1F
100
AcDbEntity
  8
VIEW0001
 62
     7
100
AcDbMText
 10
59.89285540580749
 20
-93.0
 30
0.0
 40
4.5
 41
0.0
 71
     7
 72
     1
  1
{\W1.3889;　デンカ株式会社}
 73
     1
 44
1.0
  0
LINE
  5
8AB
330
1F
100
AcDbEntity
  8
0
  6
Continuous
 62
     7
100
AcDbLine
 10
20.86323008276009
 20
62.35204014833344
 30
0.0
 11
105.8632319901087
 21
62.35204014833344
 31
0.0
  0
LINE
  5
8AC
330
1F
100
AcDbEntity
  8
0
  6
Continuous
 62
     7
100
AcDbLine
 10
20.86323008276008
 20
56.35204396303068
 30
0.0
 11
105.8632319901087
 21
56.35204396303068
 31
0.0
  0
LINE
  5
8AD
330
1F
100
AcDbEntity
  8
0
  6
Continuous
 62
     7
100
AcDbLine
 10
20.8632300827601
 20
74.35203633363617
 30
0.0
 11
105.8632319901087
 21
74.35203633363617
 31
0.0
  0
LINE
  5
8AE
330
1F
100
AcDbEntity
  8
0
  6
Continuous
 62
     7
100
AcDbLine
 10
20.86323008276009
 20
68.3520401483334
 30
0.0
 11
105.8632319901087
 21
68.3520401483334
 31
0.0
  0
MTEXT
  5
8AF
330
1F
100
AcDbEntity
  8
0
 62
     7
100
AcDbMText
 10
24.81406965993653
 20
45.75204775388609
 30
0.0
 40
3.200000047683716
 41
0.0
 71
     7
 72
     1
  1
TDS200
 73
     1
 44
1.0
  0
MTEXT
  5
8B0
330
1F
100
AcDbEntity
  8
0
 62
     7
100
AcDbMText
 10
55.8632319901087
 20
47.35204777772794
 30
0.0
 40
3.200000047683716
 41
0.0
 71
     5
 72
     1
  1
225
 73
     1
 44
1.0
  0
MTEXT
  5
8B1
330
1F
100
AcDbEntity
  8
0
 62
     7
100
AcDbMText
 10
95.8632319901087
 20
47.24659123176407
 30
0.0
 40
3.200000047683716
 41
0.0
 71
     5
 72
     1
  1
430
 73
     1
 44
1.0
  0
MTEXT
  5
8B2
330
1F
100
AcDbEntity
  8
0
 62
     7
100
AcDbMText
 10
75.75187103638659
 20
47.35204777772794
 30
0.0
 40
3.200000047683716
 41
0.0
 71
     5
 72
     1
  1
600
 73
     1
 44
1.0
  0
MTEXT
  5
8B3
330
1F
100
AcDbEntity
  8
0
 62
     7
100
AcDbMText
 10
24.81406965993653
 20
51.75204393918885
 30
0.0
 40
3.200000047683716
 41
0.0
 71
     7
 72
     1
  1
TDS150
 73
     1
 44
1.0
  0
MTEXT
  5
8B4
330
1F
100
AcDbEntity
  8
0
 62
     7
100
AcDbMText
 10
55.8632319901087
 20
53.3520439630307
 30
0.0
 40
3.200000047683716
 41
0.0
 71
     5
 72
     1
  1
173
 73
     1
 44
1.0
  0
MTEXT
  5
8B5
330
1F
100
AcDbEntity
  8
0
 62
     7
100
AcDbMText
 10
95.8632319901087
 20
53.24658741706684
 30
0.0
 40
3.200000047683716
 41
0.0
 71
     5
 72
     1
  1
330
 73
     1
 44
1.0
  0
MTEXT
  5
8B6
330
1F
100
AcDbEntity
  8
0
 62
     7
100
AcDbMText
 10
75.75187103638659
 20
53.3520439630307
 30
0.0
 40
3.200000047683716
 41
0.0
 71
     5
 72
     1
  1
500
 73
     1
 44
1.0
  0
MTEXT
  5
8B7
330
1F
100
AcDbEntity
  8
0
 62
     7
100
AcDbMText
 10
24.81406965993653
 20
57.75204393918882
 30
0.0
 40
3.200000047683716
 41
0.0
 71
     7
 72
     1
  1
TDS100
 73
     1
 44
1.0
  0
MTEXT
  5
8B8
330
1F
100
AcDbEntity
  8
0
 62
     7
100
AcDbMText
 10
55.8632319901087
 20
59.35204396303067
 30
0.0
 40
3.200000047683716
 41
0.0
 71
     5
 72
     1
  1
117
 73
     1
 44
1.0
  0
MTEXT
  5
8B9
330
1F
100
AcDbEntity
  8
0
 62
     7
100
AcDbMText
 10
95.8632319901087
 20
59.2465874170668
 30
0.0
 40
3.200000047683716
 41
0.0
 71
     5
 72
     1
  1
300
 73
     1
 44
1.0
  0
MTEXT
  5
8BA
330
1F
100
AcDbEntity
  8
0
 62
     7
100
AcDbMText
 10
75.75187103638659
 20
59.35204396303067
 30
0.0
 40
3.200000047683716
 41
0.0
 71
     5
 72
     1
  1
420
 73
     1
 44
1.0
  0
MTEXT
  5
8BB
330
1F
100
AcDbEntity
  8
0
 62
     7
100
AcDbMText
 10
24.81406965993655
 20
63.75204012449159
 30
0.0
 40
3.200000047683716
 41
0.0
 71
     7
 72
     1
  1
TDS75
 73
     1
 44
1.0
  0
MTEXT
  5
8BC
330
1F
100
AcDbEntity
  8
0
 62
     7
100
AcDbMText
 10
55.86323199010871
 20
65.35204014833343
 30
0.0
 40
3.200000047683716
 41
0.0
 71
     5
 72
     1
  1
87
 73
     1
 44
1.0
  0
MTEXT
  5
8BD
330
1F
100
AcDbEntity
  8
0
 62
     7
100
AcDbMText
 10
95.86323199010871
 20
65.24658360236957
 30
0.0
 40
3.200000047683716
 41
0.0
 71
     5
 72
     1
  1
350
 73
     1
 44
1.0
  0
MTEXT
  5
8BE
330
1F
100
AcDbEntity
  8
0
 62
     7
100
AcDbMText
 10
75.7518710363866
 20
65.35204014833343
 30
0.0
 40
3.200000047683716
 41
0.0
 71
     5
 72
     1
  1
600
 73
     1
 44
1.0
  0
ENDSEC
  0
SECTION
  2
OBJECTS
  0
DICTIONARY
  5
C
330
0
100
AcDbDictionary
281
     1
  3
ACAD_CIP_PREVIOUS_PRODUCT_INFO
350
804
  3
ACAD_COLOR
350
1F1
  3
ACAD_DETAILVIEWSTYLE
350
801
  3
ACAD_GROUP
350
D
  3
ACAD_LAYOUT
350
1A
  3
ACAD_MATERIAL
350
1F0
  3
ACAD_MLEADERSTYLE
350
7FD
  3
ACAD_MLINESTYLE
350
17
  3
ACAD_PLOTSETTINGS
350
19
  3
ACAD_PLOTSTYLENAME
350
E
  3
ACAD_SCALELIST
350
7EB
  3
ACAD_SECTIONVIEWSTYLE
350
7FF
  3
ACAD_TABLESTYLE
350
1F2
  3
ACAD_VISUALSTYLE
350
7D2
  3
ACDB_RECOMPOSE_DATA
350
8D5
  3
AcDbVariableDictionary
350
1F8
  0
DICTIONARY
  5
80F
330
10
100
AcDbDictionary
280
     1
281
     1
  3
ADSK_XREC_LAYER_RECONCILED
360
810
  0
DICTIONARY
  5
811
330
1E3
100
AcDbDictionary
280
     1
281
     1
  3
ADSK_XREC_LAYER_RECONCILED
360
812
  0
DICTIONARY
  5
813
330
22B
100
AcDbDictionary
280
     1
281
     1
  3
ADSK_XREC_LAYER_RECONCILED
360
814
  0
DICTIONARY
  5
815
330
22C
100
AcDbDictionary
280
     1
281
     1
  3
ADSK_XREC_LAYER_RECONCILED
360
816
  0
DICTIONARY
  5
817
330
22D
100
AcDbDictionary
280
     1
281
     1
  3
ADSK_XREC_LAYER_RECONCILED
360
818
  0
DICTIONARY
  5
819
330
22E
100
AcDbDictionary
280
     1
281
     1
  3
ADSK_XREC_LAYER_RECONCILED
360
81A
  0
DICTIONARY
  5
81B
330
22F
100
AcDbDictionary
280
     1
281
     1
  3
ADSK_XREC_LAYER_RECONCILED
360
81C
  0
DICTIONARY
  5
81D
330
230
100
AcDbDictionary
280
     1
281
     1
  3
ADSK_XREC_LAYER_RECONCILED
360
81E
  0
DICTIONARY
  5
81F
330
231
100
AcDbDictionary
280
     1
281
     1
  3
ADSK_XREC_LAYER_RECONCILED
360
820
  0
DICTIONARY
  5
821
330
33B
100
AcDbDictionary
280
     1
281
     1
  3
ADSK_XREC_LAYER_RECONCILED
360
822
  0
DICTIONARY
  5
302
330
1F
100
AcDbDictionary
280
     1
281
     1
  3
ACAD_SORTENTS
360
303
  0
DICTIONARY
  5
8DD
330
71D
100
AcDbDictionary
280
     1
281
     1
  3
ACAD_MTEXT_2008_RT
360
8DE
  0
DICTIONARY
  5
8D6
330
156
100
AcDbDictionary
280
     1
281
     1
  3
ACAD_MTEXT_2008_RT
360
8D7
  0
XRECORD
  5
804
102
{ACAD_REACTORS
330
C
102
}
330
C
100
AcDbXrecord
280
     1
300
ACDLT
300
2014
300
INVLTS_F_S
  0
DICTIONARY
  5
1F1
102
{ACAD_REACTORS
330
C
102
}
330
C
100
AcDbDictionary
281
     1
  0
DICTIONARY
  5
801
102
{ACAD_REACTORS
330
C
102
}
330
C
100
AcDbDictionary
281
     1
  3
Metric50
350
802
  0
DICTIONARY
  5
D
102
{ACAD_REACTORS
330
C
102
}
330
C
100
AcDbDictionary
281
     1
  0
DICTIONARY
  5
1A
102
{ACAD_REACTORS
330
C
102
}
330
C
100
AcDbDictionary
281
     1
  3
Layout1
350
1E
  3
Layout2
350
26
  3
Model
350
22
  0
DICTIONARY
  5
1F0
102
{ACAD_REACTORS
330
C
102
}
330
C
100
AcDbDictionary
281
     1
  3
ByBlock
350
7C2
  3
ByLayer
350
7BA
  3
Global
350
7CA
  0
DICTIONARY
  5
7FD
102
{ACAD_REACTORS
330
C
102
}
330
C
100
AcDbDictionary
281
     1
  3
Standard
350
7FE
  0
DICTIONARY
  5
17
102
{ACAD_REACTORS
330
C
102
}
330
C
100
AcDbDictionary
281
     1
  3
Standard
350
18
  0
DICTIONARY
  5
19
102
{ACAD_REACTORS
330
C
102
}
330
C
100
AcDbDictionary
281
     1
  3
111
350
6FF
  3
セットアップ1
350
8C9
  0
ACDBDICTIONARYWDFLT
  5
E
102
{ACAD_REACTORS
330
C
102
}
330
C
100
AcDbDictionary
281
     1
  3
Normal
350
F
100
AcDbDictionaryWithDefault
340
F
  0
DICTIONARY
  5
7EB
102
{ACAD_REACTORS
330
C
102
}
330
C
100
AcDbDictionary
281
     1
  3
A0
350
7EC
  3
A1
350
7ED
  3
A2
350
7EE
  3
A3
350
7EF
  3
A4
350
7F0
  3
A5
350
7F1
  3
A6
350
7F2
  3
A7
350
7F3
  3
A8
350
7F4
  3
A9
350
7F5
  3
B0
350
7F6
  3
B1
350
7F7
  3
B2
350
7F8
  3
B3
350
7F9
  3
B4
350
7FA
  3
B5
350
7FB
  3
B6
350
7FC
  0
DICTIONARY
  5
7FF
102
{ACAD_REACTORS
330
C
102
}
330
C
100
AcDbDictionary
281
     1
  3
Metric50
350
800
  0
DICTIONARY
  5
1F2
102
{ACAD_REACTORS
330
C
102
}
330
C
100
AcDbDictionary
281
     1
  3
Standard
350
1F3
  0
DICTIONARY
  5
7D2
102
{ACAD_REACTORS
330
C
102
}
330
C
100
AcDbDictionary
281
     1
  3
2dWireframe
350
7D8
  3
Basic
350
7D7
  3
Brighten
350
7DE
  3
ColorChange
350
7E2
  3
Conceptual
350
7DB
  3
Dim
350
7DD
  3
EdgeColorOff
350
7EA
  3
Facepattern
350
7E1
  3
Flat
350
7D3
  3
FlatWithEdges
350
7D4
  3
Gouraud
350
7D5
  3
GouraudWithEdges
350
7D6
  3
Hidden
350
7DA
  3
JitterOff
350
7E8
  3
Linepattern
350
7E0
  3
OverhangOff
350
7E9
  3
Realistic
350
7DC
  3
Shaded
350
7E7
  3
Shaded with edges
350
7E6
  3
Shades of Gray
350
7E3
  3
Sketchy
350
7E4
  3
Thicken
350
7DF
  3
Wireframe
350
7D9
  3
X-Ray
350
7E5
  0
XRECORD
  5
8D5
102
{ACAD_REACTORS
330
C
102
}
330
C
100
AcDbXrecord
280
     1
 90
        1
330
1F3
  0
DICTIONARY
  5
1F8
102
{ACAD_REACTORS
330
C
102
}
330
C
100
AcDbDictionary
281
     1
  3
CANNOSCALE
350
85B
  3
CMLEADERSTYLE
350
857
  3
CTABLESTYLE
350
1F9
  3
CVIEWDETAILSTYLE
350
858
  3
CVIEWSECTIONSTYLE
350
859
  3
DIMASSOC
350
1FA
  3
LAYEREVAL
350
85D
  3
LAYERNOTIFY
350
85E
  3
LIGHTINGUNITS
350
85C
  3
MSLTSCALE
350
85A
  3
PROJECTNAME
350
1FB
  3
XCLIPFRAME
350
8D2
  0
XRECORD
  5
810
102
{ACAD_REACTORS
330
80F
102
}
330
80F
100
AcDbXrecord
280
     1
290
     1
  0
XRECORD
  5
812
102
{ACAD_REACTORS
330
811
102
}
330
811
100
AcDbXrecord
280
     1
290
     1
  0
XRECORD
  5
814
102
{ACAD_REACTORS
330
813
102
}
330
813
100
AcDbXrecord
280
     1
290
     1
  0
XRECORD
  5
816
102
{ACAD_REACTORS
330
815
102
}
330
815
100
AcDbXrecord
280
     1
290
     1
  0
XRECORD
  5
818
102
{ACAD_REACTORS
330
817
102
}
330
817
100
AcDbXrecord
280
     1
290
     1
  0
XRECORD
  5
81A
102
{ACAD_REACTORS
330
819
102
}
330
819
100
AcDbXrecord
280
     1
290
     1
  0
XRECORD
  5
81C
102
{ACAD_REACTORS
330
81B
102
}
330
81B
100
AcDbXrecord
280
     1
290
     1
  0
XRECORD
  5
81E
102
{ACAD_REACTORS
330
81D
102
}
330
81D
100
AcDbXrecord
280
     1
290
     1
  0
XRECORD
  5
820
102
{ACAD_REACTORS
330
81F
102
}
330
81F
100
AcDbXrecord
280
     1
290
     1
  0
XRECORD
  5
822
102
{ACAD_REACTORS
330
821
102
}
330
821
100
AcDbXrecord
280
     1
290
     1
  0
SORTENTSTABLE
  5
303
102
{ACAD_REACTORS
330
302
102
}
330
302
100
AcDbSortentsTable
330
1F
331
161
  5
165
331
600
  5
604
331
169
  5
16D
331
608
  5
60C
331
32
  5
32
331
171
  5
178
331
3A
  5
3A
331
5B9
  5
5BD
331
1E7
  5
304
331
543
  5
547
331
57A
  5
57E
331
54B
  5
54F
331
346
  5
353
331
582
  5
586
331
5C1
  5
5C5
331
5C9
  5
5CD
331
553
  5
557
331
58A
  5
58E
331
592
  5
596
331
5D1
  5
5D5
331
610
  5
614
331
618
  5
61C
331
5D9
  5
5DD
331
42
  5
42
331
620
  5
624
331
5E1
  5
5E5
331
628
  5
6CC
331
5E9
  5
5ED
331
179
  5
17D
331
59A
  5
59E
331
524
  5
528
331
55B
  5
55F
331
5A2
  5
5A6
331
189
  5
18D
331
52C
  5
530
331
563
  5
567
331
5AA
  5
5AE
331
534
  5
538
331
56B
  5
56F
331
53C
  5
540
331
573
  5
577
331
5B2
  5
5B6
331
5F1
  5
5F5
331
5F9
  5
5FD
331
162
  5
166
331
601
  5
605
331
16A
  5
16E
331
609
  5
60D
331
172
  5
179
331
33
  5
33
331
3B
  5
3B
331
5BA
  5
5BE
331
544
  5
548
331
57B
  5
57F
331
5C2
  5
5C6
331
54C
  5
550
331
347
  5
354
331
583
  5
587
331
5CA
  5
5CE
331
554
  5
558
331
58B
  5
58F
331
593
  5
597
331
611
  5
615
331
5D2
  5
5D6
331
619
  5
61D
331
5DA
  5
5DE
331
5E2
  5
5E6
331
621
  5
625
331
629
  5
749
331
5EA
  5
5EE
331
153
  5
157
331
17A
  5
17E
331
525
  5
529
331
55C
  5
560
331
59B
  5
59F
331
18A
  5
18F
331
52D
  5
531
331
564
  5
568
331
5A3
  5
5A7
331
5AB
  5
5AF
331
535
  5
539
331
56C
  5
570
331
5B3
  5
5B7
331
53D
  5
541
331
574
  5
578
331
5F2
  5
5F6
331
5FA
  5
5FE
331
163
  5
167
331
602
  5
606
331
16B
  5
16F
331
60A
  5
60E
331
34
  5
34
331
3C
  5
3C
331
5BB
  5
5BF
331
545
  5
549
331
57C
  5
580
331
54D
  5
551
331
350
  5
385
331
584
  5
588
331
5C3
  5
5C7
331
5CB
  5
5CF
331
555
  5
559
331
58C
  5
590
331
594
  5
598
331
5D3
  5
5D7
331
612
  5
616
331
61A
  5
61E
331
5DB
  5
5DF
331
44
  5
44
331
622
  5
626
331
5E3
  5
5E7
331
5EB
  5
5EF
331
62A
  5
74A
331
154
  5
158
331
17B
  5
17F
331
59C
  5
5A0
331
526
  5
52A
331
55D
  5
561
331
5A4
  5
5A8
331
18B
  5
190
331
52E
  5
532
331
565
  5
569
331
536
  5
53A
331
56D
  5
571
331
5AC
  5
5B0
331
301
  5
345
331
53E
  5
542
331
575
  5
579
331
5B4
  5
5B8
331
5F3
  5
5F7
331
5FB
  5
5FF
331
603
  5
607
331
164
  5
168
331
60B
  5
60F
331
16C
  5
170
331
35
  5
35
331
3D
  5
3D
331
5BC
  5
5C0
331
546
  5
54A
331
1EA
  5
347
331
57D
  5
581
331
5C4
  5
5C8
331
54E
  5
552
331
351
  5
51F
331
585
  5
589
331
5CC
  5
5D0
331
556
  5
55A
331
58D
  5
591
331
51F
  5
523
331
595
  5
599
331
613
  5
617
331
5D4
  5
5D8
331
5DC
  5
5E0
331
61B
  5
61F
331
5E4
  5
5E8
331
623
  5
627
331
45
  5
46
331
5EC
  5
5F0
331
62B
  5
74B
331
155
  5
15F
331
17C
  5
180
331
527
  5
52B
331
55E
  5
562
331
59D
  5
5A1
331
184
  5
188
331
52F
  5
533
331
566
  5
56A
331
5A5
  5
5A9
331
18C
  5
1E4
331
5AD
  5
5B1
331
537
  5
53B
331
56E
  5
572
331
5B5
  5
5B9
331
53F
  5
543
331
576
  5
57A
331
5F4
  5
5F8
331
5FC
  5
600
331
604
  5
608
331
165
  5
169
331
2E
  5
2E
331
60C
  5
610
331
16D
  5
171
331
3E
  5
3E
331
57E
  5
582
331
5BD
  5
5C1
331
547
  5
54B
331
586
  5
58A
331
5C5
  5
5C9
331
54F
  5
553
331
5CD
  5
5D1
331
58E
  5
592
331
557
  5
55B
331
596
  5
59A
331
5D5
  5
5D9
331
614
  5
618
331
61C
  5
620
331
5DD
  5
5E1
331
624
  5
628
331
5E5
  5
5E9
331
46
  5
48
331
5ED
  5
5F1
331
156
  5
160
331
17D
  5
184
331
520
  5
524
331
59E
  5
5A2
331
55F
  5
563
331
185
  5
189
331
528
  5
52C
331
5A6
  5
5AA
331
567
  5
56B
331
18D
  5
1E5
331
530
  5
534
331
56F
  5
573
331
5AE
  5
5B2
331
538
  5
53C
331
577
  5
57B
331
5B6
  5
5BA
331
5F5
  5
5F9
331
5FD
  5
601
331
605
  5
609
331
166
  5
16A
331
2F
  5
2F
331
60D
  5
611
331
16E
  5
172
331
176
  5
17A
331
3F
  5
3F
331
1E4
  5
1E9
331
540
  5
544
331
5BE
  5
5C2
331
57F
  5
583
331
548
  5
54C
331
5C6
  5
5CA
331
587
  5
58B
331
550
  5
554
331
353
  5
520
331
58F
  5
593
331
5CE
  5
5D2
331
597
  5
59B
331
615
  5
619
331
5D6
  5
5DA
331
5DE
  5
5E2
331
61D
  5
621
331
5E6
  5
5EA
331
625
  5
629
331
47
  5
154
331
5EE
  5
5F2
331
6CC
  5
74C
331
157
  5
161
331
15F
  5
163
331
558
  5
55C
331
17E
  5
185
331
521
  5
525
331
560
  5
564
331
59F
  5
5A3
331
186
  5
18A
331
529
  5
52D
331
5A7
  5
5AB
331
568
  5
56C
331
531
  5
535
331
5AF
  5
5B3
331
570
  5
574
331
304
  5
346
331
539
  5
53D
331
5B7
  5
5BB
331
5F6
  5
5FA
331
5FE
  5
602
331
606
  5
60A
331
167
  5
16B
331
60E
  5
612
331
30
  5
30
331
16F
  5
176
331
177
  5
17B
331
38
  5
38
331
578
  5
57C
331
1E5
  5
1EB
331
541
  5
545
331
580
  5
584
331
5BF
  5
5C3
331
549
  5
54D
331
588
  5
58C
331
5C7
  5
5CB
331
551
  5
555
331
354
  5
521
331
5CF
  5
5D3
331
590
  5
594
331
616
  5
61A
331
5D7
  5
5DB
331
61E
  5
622
331
5DF
  5
5E3
331
40
  5
40
331
626
  5
62A
331
5E7
  5
5EB
331
48
  5
156
331
5EF
  5
5F3
331
158
  5
162
331
598
  5
59C
331
559
  5
55D
331
17F
  5
186
331
522
  5
526
331
5A0
  5
5A4
331
561
  5
565
331
187
  5
18B
331
52A
  5
52E
331
5A8
  5
5AC
331
569
  5
56D
331
18F
  5
1E6
331
532
  5
536
331
571
  5
575
331
5B0
  5
5B4
331
53A
  5
53E
331
5F7
  5
5FB
331
5FF
  5
603
331
160
  5
164
331
607
  5
60B
331
168
  5
16C
331
170
  5
177
331
60F
  5
613
331
31
  5
31
331
39
  5
39
331
5B8
  5
5BC
331
579
  5
57D
331
1E6
  5
301
331
542
  5
546
331
5C0
  5
5C4
331
581
  5
585
331
54A
  5
54E
331
345
  5
351
331
5C8
  5
5CC
331
589
  5
58D
331
552
  5
556
331
591
  5
595
331
385
  5
522
331
5D0
  5
5D4
331
617
  5
61B
331
5D8
  5
5DC
331
5E0
  5
5E4
331
61F
  5
623
331
41
  5
41
331
627
  5
62B
331
5E8
  5
5EC
331
178
  5
17C
331
599
  5
59D
331
55A
  5
55E
331
180
  5
187
331
523
  5
527
331
562
  5
566
331
5A1
  5
5A5
331
188
  5
18C
331
52B
  5
52F
331
5A9
  5
5AD
331
56A
  5
56E
331
190
  5
1E7
331
533
  5
537
331
5B1
  5
5B5
331
572
  5
576
331
53B
  5
53F
331
5F0
  5
5F4
331
5F8
  5
5FC
  0
XRECORD
  5
8DE
102
{ACAD_REACTORS
330
8DD
102
}
330
8DD
100
AcDbXrecord
280
     1
 40
2020.0
  1
\U+2205A
  0
XRECORD
  5
8D7
102
{ACAD_REACTORS
330
8D6
102
}
330
8D6
100
AcDbXrecord
280
     1
 40
7259.0
  1
{\W1;\U+2205A}
  0
ACDBDETAILVIEWSTYLE
  5
802
102
{ACAD_XDICTIONARY
360
915
102
}
102
{ACAD_REACTORS
330
801
102
}
330
801
100
AcDbModelDocViewStyle
 70
     0
  3
Metric50
290
     0
100
AcDbDetailViewStyle
 70
     0
 71
     0
 90
        3
 71
     1
340
11
 62
   256
 40
5.0
340
0
 62
   256
 40
5.0
300

 40
0.0
280
     1
 71
     2
340
16
 90
       25
 62
   256
 71
     3
340
11
 62
   256
 40
5.0
 90
        0
 40
15.0
 90
        1
300
%<\AcVar ViewDetailId>% (%<\AcVar ViewScale \f "%sn">%)
 71
     4
340
16
 90
       25
 62
   256
340
16
 90
       25
 62
   256
280
     0
  0
LAYOUT
  5
1E
102
{ACAD_REACTORS
330
1A
102
}
330
1A
100
AcDbPlotSettings
  1

  2

  4

  6

 40
0.0
 41
0.0
 42
0.0
 43
0.0
 44
0.0
 45
0.0
 46
0.0
 47
0.0
 48
0.0
 49
0.0
140
0.0
141
0.0
142
1.0
143
1.0
 70
   688
 72
     0
 73
     0
 74
     5
  7

 75
    16
147
1.0
 76
     0
 77
     2
 78
   300
148
0.0
149
0.0
100
AcDbLayout
  1
Layout1
 70
     1
 71
     1
 10
-148.0
 20
-104.5
 11
149.0
 21
105.5
 12
0.0
 22
0.0
 32
0.0
 14
1.000000000000000E+20
 24
1.000000000000000E+20
 34
1.000000000000000E+20
 15
-1.000000000000000E+20
 25
-1.000000000000000E+20
 35
-1.000000000000000E+20
146
0.0
 13
0.0
 23
0.0
 33
0.0
 16
1.0
 26
0.0
 36
0.0
 17
0.0
 27
1.0
 37
0.0
 76
     0
330
1B
  0
LAYOUT
  5
26
102
{ACAD_REACTORS
330
1A
102
}
330
1A
100
AcDbPlotSettings
  1

  2

  4

  6

 40
0.0
 41
0.0
 42
0.0
 43
0.0
 44
0.0
 45
0.0
 46
0.0
 47
0.0
 48
0.0
 49
0.0
140
0.0
141
0.0
142
1.0
143
1.0
 70
   688
 72
     0
 73
     0
 74
     5
  7

 75
    16
147
1.0
 76
     0
 77
     2
 78
   300
148
0.0
149
0.0
100
AcDbLayout
  1
Layout2
 70
     1
 71
     2
 10
0.0
 20
0.0
 11
0.0
 21
0.0
 12
0.0
 22
0.0
 32
0.0
 14
0.0
 24
0.0
 34
0.0
 15
0.0
 25
0.0
 35
0.0
146
0.0
 13
0.0
 23
0.0
 33
0.0
 16
1.0
 26
0.0
 36
0.0
 17
0.0
 27
1.0
 37
0.0
 76
     0
330
23
  0
LAYOUT
  5
22
102
{ACAD_REACTORS
330
1A
102
}
330
1A
100
AcDbPlotSettings
  1

  2
Adobe PDF
  4
A4
  6

 40
3.174999952316283
 41
3.174999952316283
 42
3.175003051757812
 43
3.17498779296875
 44
209.9733276367186
 45
297.0318298339844
 46
7.051149022578584
 47
7.073861730090527
 48
0.0
 49
0.0
140
0.0
141
0.0
142
1.0
143
1.0
 70
 11956
 72
     1
 73
     1
 74
     1
  7
monochrome.ctb
 75
    16
147
1.0
 76
     0
 77
     2
 78
   300
148
138.0163109423782
149
94.50884959708066
100
AcDbLayout
  1
Model
 70
     1
 71
     0
 10
-148.0
 20
-104.5
 11
149.0
 21
105.5
 12
0.0
 22
0.0
 32
0.0
 14
-148.0
 24
-104.5
 34
0.0
 15
149.0
 25
105.5
 35
0.0
146
0.0
 13
0.0
 23
0.0
 33
0.0
 16
1.0
 26
0.0
 36
0.0
 17
0.0
 27
1.0
 37
0.0
 76
     0
330
1F
331
7A2
1001
ACAD_PSEXT
1000
Adobe PDF
1000
Adobe PDF Converter
1000
My Documents
1000

1070
     0
  0
MATERIAL
  5
7C2
102
{ACAD_XDICTIONARY
360
7C3
102
}
102
{ACAD_REACTORS
330
1F0
102
}
330
1F0
100
AcDbMaterial
  1
ByBlock
 72
     0
 43
0.0008202099737533
 43
0.0
 43
0.0
 43
0.0
 43
0.0
 43
0.0008202099737533
 43
0.0
 43
0.0
 43
0.0
 43
0.0
 43
1.0
 43
0.0
 43
0.0
 43
0.0
 43
0.0
 43
1.0
 77
     0
 47
0.0008202099737533
 47
0.0
 47
0.0
 47
0.0
 47
0.0
 47
0.0008202099737533
 47
0.0
 47
0.0
 47
0.0
 47
0.0
 47
1.0
 47
0.0
 47
0.0
 47
0.0
 47
0.0
 47
1.0
171
     0
 49
0.0008202099737533
 49
0.0
 49
0.0
 49
0.0
 49
0.0
 49
0.0008202099737533
 49
0.0
 49
0.0
 49
0.0
 49
0.0
 49
1.0
 49
0.0
 49
0.0
 49
0.0
 49
0.0
 49
1.0
175
     0
142
0.0008202099737533
142
0.0
142
0.0
142
0.0
142
0.0
142
0.0008202099737533
142
0.0
142
0.0
142
0.0
142
0.0
142
1.0
142
0.0
142
0.0
142
0.0
142
0.0
142
1.0
179
     0
144
0.0008202099737533
144
0.0
144
0.0
144
0.0
144
0.0
144
0.0008202099737533
144
0.0
144
0.0
144
0.0
144
0.0
144
1.0
144
0.0
144
0.0
144
0.0
144
0.0
144
1.0
147
0.0008202099737533
147
0.0
147
0.0
147
0.0
147
0.0
147
0.0008202099737533
147
0.0
147
0.0
147
0.0
147
0.0
147
1.0
147
0.0
147
0.0
147
0.0
147
0.0
147
1.0
  0
MATERIAL
  5
7BA
102
{ACAD_XDICTIONARY
360
7BB
102
}
102
{ACAD_REACTORS
330
1F0
102
}
330
1F0
100
AcDbMaterial
  1
ByLayer
 72
     0
 43
0.0008202099737533
 43
0.0
 43
0.0
 43
0.0
 43
0.0
 43
0.0008202099737533
 43
0.0
 43
0.0
 43
0.0
 43
0.0
 43
1.0
 43
0.0
 43
0.0
 43
0.0
 43
0.0
 43
1.0
 77
     0
 47
0.0008202099737533
 47
0.0
 47
0.0
 47
0.0
 47
0.0
 47
0.0008202099737533
 47
0.0
 47
0.0
 47
0.0
 47
0.0
 47
1.0
 47
0.0
 47
0.0
 47
0.0
 47
0.0
 47
1.0
171
     0
 49
0.0008202099737533
 49
0.0
 49
0.0
 49
0.0
 49
0.0
 49
0.0008202099737533
 49
0.0
 49
0.0
 49
0.0
 49
0.0
 49
1.0
 49
0.0
 49
0.0
 49
0.0
 49
0.0
 49
1.0
175
     0
142
0.0008202099737533
142
0.0
142
0.0
142
0.0
142
0.0
142
0.0008202099737533
142
0.0
142
0.0
142
0.0
142
0.0
142
1.0
142
0.0
142
0.0
142
0.0
142
0.0
142
1.0
179
     0
144
0.0008202099737533
144
0.0
144
0.0
144
0.0
144
0.0
144
0.0008202099737533
144
0.0
144
0.0
144
0.0
144
0.0
144
1.0
144
0.0
144
0.0
144
0.0
144
0.0
144
1.0
147
0.0008202099737533
147
0.0
147
0.0
147
0.0
147
0.0
147
0.0008202099737533
147
0.0
147
0.0
147
0.0
147
0.0
147
1.0
147
0.0
147
0.0
147
0.0
147
0.0
147
1.0
  0
MATERIAL
  5
7CA
102
{ACAD_XDICTIONARY
360
7CB
102
}
102
{ACAD_REACTORS
330
1F0
102
}
330
1F0
100
AcDbMaterial
  1
Global
 72
     0
 43
0.0008202099737533
 43
0.0
 43
0.0
 43
0.0
 43
0.0
 43
0.0008202099737533
 43
0.0
 43
0.0
 43
0.0
 43
0.0
 43
1.0
 43
0.0
 43
0.0
 43
0.0
 43
0.0
 43
1.0
 77
     0
 47
0.0008202099737533
 47
0.0
 47
0.0
 47
0.0
 47
0.0
 47
0.0008202099737533
 47
0.0
 47
0.0
 47
0.0
 47
0.0
 47
1.0
 47
0.0
 47
0.0
 47
0.0
 47
0.0
 47
1.0
171
     0
 49
0.0008202099737533
 49
0.0
 49
0.0
 49
0.0
 49
0.0
 49
0.0008202099737533
 49
0.0
 49
0.0
 49
0.0
 49
0.0
 49
1.0
 49
0.0
 49
0.0
 49
0.0
 49
0.0
 49
1.0
175
     0
142
0.0008202099737533
142
0.0
142
0.0
142
0.0
142
0.0
142
0.0008202099737533
142
0.0
142
0.0
142
0.0
142
0.0
142
1.0
142
0.0
142
0.0
142
0.0
142
0.0
142
1.0
179
     0
144
0.0008202099737533
144
0.0
144
0.0
144
0.0
144
0.0
144
0.0008202099737533
144
0.0
144
0.0
144
0.0
144
0.0
144
1.0
144
0.0
144
0.0
144
0.0
144
0.0
144
1.0
147
0.0008202099737533
147
0.0
147
0.0
147
0.0
147
0.0
147
0.0008202099737533
147
0.0
147
0.0
147
0.0
147
0.0
147
1.0
147
0.0
147
0.0
147
0.0
147
0.0
147
1.0
  0
MLEADERSTYLE
  5
7FE
102
{ACAD_REACTORS
330
7FD
102
}
330
7FD
100
AcDbMLeaderStyle
170
     2
171
     1
172
     0
 90
        2
 40
0.0
 41
0.0
173
     1
 91
-1056964608
340
14
 92
       -2
290
     1
 42
2.0
291
     1
 43
0.36
  3
Standard
 44
4.0
300

342
11
174
     1
178
     6
175
     1
176
     0
 93
-1056964608
 45
4.0
292
     0
297
     0
 46
4.0
 94
-1056964608
 47
1.0
 49
1.0
140
1.0
293
     1
141
0.0
294
     1
177
     0
142
1.0
295
     0
296
     0
143
0.125
1001
ACAD_MLEADERVER
1070
     2
  0
MLINESTYLE
  5
18
102
{ACAD_REACTORS
330
17
102
}
330
17
100
AcDbMlineStyle
  2
STANDARD
 70
     0
  3

 62
   256
 51
90.0
 52
90.0
 71
     2
 49
0.5
 62
   256
  6
BYLAYER
 49
-0.5
 62
   256
  6
BYLAYER
  0
PLOTSETTINGS
  5
6FF
102
{ACAD_REACTORS
330
19
102
}
330
19
100
AcDbPlotSettings
  1
111
  2
RICOH IPSiO NX860e RPCS
  4
A4
  6

 40
5.873749732971191
 41
5.873747825622557
 42
5.873748779296875
 43
5.873748779296875
 44
209.9733276367186
 45
296.9259948730469
 46
1.382206344234629
 47
0.0
 48
0.0
 49
0.0
140
0.0
141
0.0
142
1.0
143
0.9696379639765943
 70
 11956
 72
     1
 73
     1
 74
     1
  7
monochrome.ctb
 75
     0
147
1.031312755019289
 76
     0
 77
     2
 78
   300
148
138.016006241122
149
94.51495291709916
1001
ACAD_PSEXT
1000
RICOH IPSiO NX860e RPCS
1000
RICOH IPSiO NX860e RPCS
1000
IP_192.168.110.192
1000
RPCS Driver (Windows 2000/XP/Server 2003/Vista)
1070
     0
  0
PLOTSETTINGS
  5
8C9
102
{ACAD_REACTORS
330
19
102
}
330
19
100
AcDbPlotSettings
  1
セットアップ1
  2
DWG To PDF.pc3
  4
ISO_expand_A4_(297.00_x_210.00_MM)
  6

 40
5.793749809265136
 41
10.79374980926513
 42
5.79376220703125
 43
10.79374694824219
 44
297.0
 45
210.0
 46
5.249628829452802
 47
0.0
 48
-138.0
 49
-94.50000000000001
140
138.5
141
95.0
142
1.0
143
1.005771892728943
 70
 11956
 72
     1
 73
     0
 74
     4
  7
monochrome.ctb
 75
     0
147
0.9942612308310959
 76
     0
 77
     2
 78
   300
148
138.0
149
94.50000000000001
1001
ACAD_PSEXT
1000
DWG To PDF.pc3
1000
DWG To PDF
1000
ファイル
1000

1070
     0
  0
ACDBPLACEHOLDER
  5
F
102
{ACAD_REACTORS
330
E
102
}
330
E
  0
SCALE
  5
7EC
102
{ACAD_REACTORS
330
7EB
102
}
330
7EB
100
AcDbScale
 70
     0
300
1:1
140
1.0
141
1.0
290
     1
  0
SCALE
  5
7ED
102
{ACAD_REACTORS
330
7EB
102
}
330
7EB
100
AcDbScale
 70
     0
300
1:2
140
1.0
141
2.0
290
     0
  0
SCALE
  5
7EE
102
{ACAD_REACTORS
330
7EB
102
}
330
7EB
100
AcDbScale
 70
     0
300
1:4
140
1.0
141
4.0
290
     0
  0
SCALE
  5
7EF
102
{ACAD_REACTORS
330
7EB
102
}
330
7EB
100
AcDbScale
 70
     0
300
1:5
140
1.0
141
5.0
290
     0
  0
SCALE
  5
7F0
102
{ACAD_REACTORS
330
7EB
102
}
330
7EB
100
AcDbScale
 70
     0
300
1:8
140
1.0
141
8.0
290
     0
  0
SCALE
  5
7F1
102
{ACAD_REACTORS
330
7EB
102
}
330
7EB
100
AcDbScale
 70
     0
300
1:10
140
1.0
141
10.0
290
     0
  0
SCALE
  5
7F2
102
{ACAD_REACTORS
330
7EB
102
}
330
7EB
100
AcDbScale
 70
     0
300
1:16
140
1.0
141
16.0
290
     0
  0
SCALE
  5
7F3
102
{ACAD_REACTORS
330
7EB
102
}
330
7EB
100
AcDbScale
 70
     0
300
1:20
140
1.0
141
20.0
290
     0
  0
SCALE
  5
7F4
102
{ACAD_REACTORS
330
7EB
102
}
330
7EB
100
AcDbScale
 70
     0
300
1:30
140
1.0
141
30.0
290
     0
  0
SCALE
  5
7F5
102
{ACAD_REACTORS
330
7EB
102
}
330
7EB
100
AcDbScale
 70
     0
300
1:40
140
1.0
141
40.0
290
     0
  0
SCALE
  5
7F6
102
{ACAD_REACTORS
330
7EB
102
}
330
7EB
100
AcDbScale
 70
     0
300
1:50
140
1.0
141
50.0
290
     0
  0
SCALE
  5
7F7
102
{ACAD_REACTORS
330
7EB
102
}
330
7EB
100
AcDbScale
 70
     0
300
1:100
140
1.0
141
100.0
290
     0
  0
SCALE
  5
7F8
102
{ACAD_REACTORS
330
7EB
102
}
330
7EB
100
AcDbScale
 70
     0
300
2:1
140
2.0
141
1.0
290
     0
  0
SCALE
  5
7F9
102
{ACAD_REACTORS
330
7EB
102
}
330
7EB
100
AcDbScale
 70
     0
300
4:1
140
4.0
141
1.0
290
     0
  0
SCALE
  5
7FA
102
{ACAD_REACTORS
330
7EB
102
}
330
7EB
100
AcDbScale
 70
     0
300
8:1
140
8.0
141
1.0
290
     0
  0
SCALE
  5
7FB
102
{ACAD_REACTORS
330
7EB
102
}
330
7EB
100
AcDbScale
 70
     0
300
10:1
140
10.0
141
1.0
290
     0
  0
SCALE
  5
7FC
102
{ACAD_REACTORS
330
7EB
102
}
330
7EB
100
AcDbScale
 70
     0
300
100:1
140
100.0
141
1.0
290
     0
  0
ACDBSECTIONVIEWSTYLE
  5
800
102
{ACAD_XDICTIONARY
360
913
102
}
102
{ACAD_REACTORS
330
7FF
102
}
330
7FF
100
AcDbModelDocViewStyle
 70
     0
  3
Metric50
290
     0
100
AcDbSectionViewStyle
 70
     0
 71
     0
 90
      102
 71
     1
340
11
 62
   256
 40
5.0
340
0
340
0
 62
   256
 40
5.0
300
I, O, Q, S, X, Z
 40
10.0
 90
        0
 40
2.5
 90
        0
 71
     2
340
16
 90
       25
 62
   256
340
16
 90
       50
 62
   256
 40
5.0
 40
2.5
 40
5.0
 71
     3
340
11
 62
   256
 40
5.0
 90
        0
 40
15.0
 90
        1
300
%<\AcVar ViewSectionStartId>%-%<\AcVar ViewSectionEndId>% (%<\AcVar ViewScale \f "%sn">%)
 71
     4
 62
   256
 62
   257
300
ANSI31
 40
1.0
 90
        0
290
     0
290
     0
 90
        6
 40
0.0
 40
1.570796326794896
 40
0.2617993877991494
 40
1.308996938995747
 40
-0.2617993877991494
 40
1.832595714594046
  0
TABLESTYLE
  5
1F3
102
{ACAD_XDICTIONARY
360
8D3
102
}
102
{ACAD_REACTORS
330
1F2
102
}
330
1F2
100
AcDbTableStyle
  3
Standard
 70
     0
 71
     0
 40
1.5
 41
1.5
280
     0
281
     0
  7
Standard
140
4.5
170
     2
 62
     0
 63
     7
283
     0
274
    -2
284
     1
 64
     0
275
    -2
285
     1
 65
     0
276
    -2
286
     1
 66
     0
277
    -2
287
     1
 67
     0
278
    -2
288
     1
 68
     0
279
    -2
289
     1
 69
     0
  7
Standard
140
6.0
170
     5
 62
     0
 63
     7
283
     0
274
    -2
284
     1
 64
     0
275
    -2
285
     1
 65
     0
276
    -2
286
     1
 66
     0
277
    -2
287
     1
 67
     0
278
    -2
288
     1
 68
     0
279
    -2
289
     1
 69
     0
  7
Standard
140
4.5
170
     5
 62
     0
 63
     7
283
     0
274
    -2
284
     1
 64
     0
275
    -2
285
     1
 65
     0
276
    -2
286
     1
 66
     0
277
    -2
287
     1
 67
     0
278
    -2
288
     1
 68
     0
279
    -2
289
     1
 69
     0
  0
VISUALSTYLE
  5
7D8
102
{ACAD_XDICTIONARY
360
8EC
102
}
102
{ACAD_REACTORS
330
7D2
102
}
330
7D2
100
AcDbVisualStyle
  2
2dWireframe
 70
     4
 71
     0
 72
     2
 73
     0
 90
        0
 40
-0.6
 41
-30.0
 62
     5
 63
     7
421
 16777215
 74
     1
 91
        4
 64
     7
 65
   257
 75
     1
175
     1
 42
1.0
 92
        0
 66
   257
 43
1.0
 76
     1
 77
     6
 78
     2
 67
     7
 79
     5
170
     0
171
     0
290
     0
174
     0
 93
        1
 44
0.0
173
     0
291
     0
 45
0.0
1001
ACAD
1000
AcDbSavedByObjectVersion
1070
     0
  0
VISUALSTYLE
  5
7D7
102
{ACAD_XDICTIONARY
360
8EA
102
}
102
{ACAD_REACTORS
330
7D2
102
}
330
7D2
100
AcDbVisualStyle
  2
Basic
 70
     7
 71
     1
 72
     0
 73
     1
 90
        0
 40
-0.6
 41
-30.0
 62
     5
 63
     7
421
 16777215
 74
     0
 91
        4
 64
     7
 65
   257
 75
     1
175
     1
 42
1.0
 92
        8
 66
     7
 43
1.0
 76
     1
 77
     6
 78
     2
 67
     7
 79
     5
170
     0
171
     0
290
     0
174
     0
 93
        1
 44
0.0
173
     0
291
     1
 45
0.0
1001
ACAD
1000
AcDbSavedByObjectVersion
1070
     0
  0
VISUALSTYLE
  5
7DE
102
{ACAD_XDICTIONARY
360
8F8
102
}
102
{ACAD_REACTORS
330
7D2
102
}
330
7D2
100
AcDbVisualStyle
  2
Brighten
 70
    12
 71
     2
 72
     2
 73
     0
 90
        0
 40
-0.6
 41
-30.0
 62
     5
 63
     7
421
 16777215
 74
     1
 91
        4
 64
     7
 65
   257
 75
     1
175
     1
 42
1.0
 92
        8
 66
     7
 43
1.0
 76
     1
 77
     6
 78
     2
 67
     7
 79
     5
170
     0
171
     0
290
     0
174
     0
 93
        1
 44
50.0
173
     0
291
     1
 45
0.0
1001
ACAD
1000
AcDbSavedByObjectVersion
1070
     0
  0
VISUALSTYLE
  5
7E2
102
{ACAD_XDICTIONARY
360
900
102
}
102
{ACAD_REACTORS
330
7D2
102
}
330
7D2
100
AcDbVisualStyle
  2
ColorChange
 70
    16
 71
     2
 72
     2
 73
     3
 90
        0
 40
-0.6
 41
-30.0
 62
     5
 63
     8
421
  8421504
 74
     1
 91
        4
 64
     7
 65
   257
 75
     1
175
     1
 42
1.0
 92
        8
 66
     8
424
  8421504
 43
1.0
 76
     1
 77
     6
 78
     2
 67
     7
 79
     5
170
     0
171
     0
290
     0
174
     0
 93
        1
 44
0.0
173
     0
291
     1
 45
0.0
1001
ACAD
1000
AcDbSavedByObjectVersion
1070
     0
  0
VISUALSTYLE
  5
7DB
102
{ACAD_XDICTIONARY
360
8F2
102
}
102
{ACAD_REACTORS
330
7D2
102
}
330
7D2
100
AcDbVisualStyle
  2
Conceptual
 70
     9
 71
     3
 72
     2
 73
     0
 90
        0
 40
-0.6
 41
-30.0
 62
     5
 63
     7
421
 16777215
 74
     2
 91
        2
 64
     7
 65
   257
 75
     1
175
     1
 42
179.0
 92
        8
 66
     7
 43
1.0
 76
     1
 77
     6
 78
     2
 67
     7
 79
     3
170
     0
171
     0
290
     0
174
     0
 93
        1
 44
0.0
173
     0
291
     0
 45
0.0
1001
ACAD
1000
AcDbSavedByObjectVersion
1070
     0
  0
VISUALSTYLE
  5
7DD
102
{ACAD_XDICTIONARY
360
8F6
102
}
102
{ACAD_REACTORS
330
7D2
102
}
330
7D2
100
AcDbVisualStyle
  2
Dim
 70
    11
 71
     2
 72
     2
 73
     0
 90
        0
 40
-0.6
 41
-30.0
 62
     5
 63
     7
421
 16777215
 74
     1
 91
        4
 64
     7
 65
   257
 75
     1
175
     1
 42
1.0
 92
        8
 66
     7
 43
1.0
 76
     1
 77
     6
 78
     2
 67
     7
 79
     5
170
     0
171
     0
290
     0
174
     0
 93
        1
 44
-50.0
173
     0
291
     1
 45
0.0
1001
ACAD
1000
AcDbSavedByObjectVersion
1070
     0
  0
VISUALSTYLE
  5
7EA
102
{ACAD_XDICTIONARY
360
910
102
}
102
{ACAD_REACTORS
330
7D2
102
}
330
7D2
100
AcDbVisualStyle
  2
EdgeColorOff
 70
    22
 71
     2
 72
     2
 73
     0
 90
        0
 40
-0.6
 41
-30.0
 62
     5
 63
     7
421
 16777215
 74
     1
 91
        4
 64
     7
 65
   257
 75
     1
175
     1
 42
1.0
 92
        8
 66
     7
 43
1.0
 76
     1
 77
     6
 78
     2
 67
     7
 79
     5
170
     0
171
     0
290
     0
174
     0
 93
        1
 44
0.0
173
     0
291
     1
 45
0.0
1001
ACAD
1000
AcDbSavedByObjectVersion
1070
     0
  0
VISUALSTYLE
  5
7E1
102
{ACAD_XDICTIONARY
360
8FE
102
}
102
{ACAD_REACTORS
330
7D2
102
}
330
7D2
100
AcDbVisualStyle
  2
Facepattern
 70
    15
 71
     2
 72
     2
 73
     0
 90
        0
 40
-0.6
 41
-30.0
 62
     5
 63
     7
421
 16777215
 74
     1
 91
        4
 64
     7
 65
   257
 75
     1
175
     1
 42
1.0
 92
        8
 66
     7
 43
1.0
 76
     1
 77
     6
 78
     2
 67
     7
 79
     5
170
     0
171
     0
290
     0
174
     0
 93
        1
 44
0.0
173
     0
291
     1
 45
0.0
1001
ACAD
1000
AcDbSavedByObjectVersion
1070
     0
  0
VISUALSTYLE
  5
7D3
102
{ACAD_XDICTIONARY
360
8E2
102
}
102
{ACAD_REACTORS
330
7D2
102
}
330
7D2
100
AcDbVisualStyle
  2
Flat
 70
     0
 71
     2
 72
     1
 73
     1
 90
        2
 40
-0.6
 41
30.0
 62
     5
 63
     7
421
 16777215
 74
     0
 91
        0
 64
     7
 65
   257
 75
     1
175
     1
 42
1.0
 92
        8
 66
     7
 43
1.0
 76
     1
 77
     6
 78
     2
 67
     7
 79
     5
170
     0
171
     0
290
     0
174
     0
 93
       13
 44
0.0
173
     0
291
     1
 45
0.0
1001
ACAD
1000
AcDbSavedByObjectVersion
1070
     0
  0
VISUALSTYLE
  5
7D4
102
{ACAD_XDICTIONARY
360
8E4
102
}
102
{ACAD_REACTORS
330
7D2
102
}
330
7D2
100
AcDbVisualStyle
  2
FlatWithEdges
 70
     1
 71
     2
 72
     1
 73
     1
 90
        2
 40
-0.6
 41
30.0
 62
     5
 63
     7
421
 16777215
 74
     1
 91
        0
 64
     7
 65
   257
 75
     1
175
     1
 42
1.0
 92
        0
 66
   257
 43
1.0
 76
     1
 77
     6
 78
     2
 67
     7
 79
     5
170
     0
171
     0
290
     0
174
     0
 93
       13
 44
0.0
173
     0
291
     1
 45
0.0
1001
ACAD
1000
AcDbSavedByObjectVersion
1070
     0
  0
VISUALSTYLE
  5
7D5
102
{ACAD_XDICTIONARY
360
8E6
102
}
102
{ACAD_REACTORS
330
7D2
102
}
330
7D2
100
AcDbVisualStyle
  2
Gouraud
 70
     2
 71
     2
 72
     2
 73
     1
 90
        2
 40
-0.6
 41
30.0
 62
     5
 63
     7
421
 16777215
 74
     0
 91
        0
 64
     7
 65
   257
 75
     1
175
     1
 42
1.0
 92
        0
 66
     7
 43
1.0
 76
     1
 77
     6
 78
     2
 67
     7
 79
     5
170
     0
171
     0
290
     0
174
     0
 93
       13
 44
0.0
173
     0
291
     1
 45
0.0
1001
ACAD
1000
AcDbSavedByObjectVersion
1070
     0
  0
VISUALSTYLE
  5
7D6
102
{ACAD_XDICTIONARY
360
8E8
102
}
102
{ACAD_REACTORS
330
7D2
102
}
330
7D2
100
AcDbVisualStyle
  2
GouraudWithEdges
 70
     3
 71
     2
 72
     2
 73
     1
 90
        2
 40
-0.6
 41
30.0
 62
     5
 63
     7
421
 16777215
 74
     1
 91
        0
 64
     7
 65
   257
 75
     1
175
     1
 42
1.0
 92
        0
 66
   257
 43
1.0
 76
     1
 77
     6
 78
     2
 67
     7
 79
     5
170
     0
171
     0
290
     0
174
     0
 93
       13
 44
0.0
173
     0
291
     1
 45
0.0
1001
ACAD
1000
AcDbSavedByObjectVersion
1070
     0
  0
VISUALSTYLE
  5
7DA
102
{ACAD_XDICTIONARY
360
8F0
102
}
102
{ACAD_REACTORS
330
7D2
102
}
330
7D2
100
AcDbVisualStyle
  2
Hidden
 70
     6
 71
     1
 72
     2
 73
     2
 90
        0
 40
-0.6
 41
-30.0
 62
     5
 63
     7
421
 16777215
 74
     2
 91
        2
 64
     7
 65
   257
 75
     2
175
     1
 42
40.0
 92
        0
 66
   257
 43
1.0
 76
     1
 77
     6
 78
     2
 67
     7
 79
     3
170
     0
171
     0
290
     0
174
     0
 93
        1
 44
0.0
173
     0
291
     0
 45
0.0
1001
ACAD
1000
AcDbSavedByObjectVersion
1070
     0
  0
VISUALSTYLE
  5
7E8
102
{ACAD_XDICTIONARY
360
90C
102
}
102
{ACAD_REACTORS
330
7D2
102
}
330
7D2
100
AcDbVisualStyle
  2
JitterOff
 70
    20
 71
     2
 72
     2
 73
     0
 90
        0
 40
-0.6
 41
-30.0
 62
     5
 63
     7
421
 16777215
 74
     1
 91
        4
 64
     7
 65
   257
 75
     1
175
     1
 42
1.0
 92
       10
 66
     7
 43
1.0
 76
     1
 77
     6
 78
     2
 67
     7
 79
     5
170
     0
171
     0
290
     0
174
     0
 93
        1
 44
0.0
173
     0
291
     1
 45
0.0
1001
ACAD
1000
AcDbSavedByObjectVersion
1070
     0
  0
VISUALSTYLE
  5
7E0
102
{ACAD_XDICTIONARY
360
8FC
102
}
102
{ACAD_REACTORS
330
7D2
102
}
330
7D2
100
AcDbVisualStyle
  2
Linepattern
 70
    14
 71
     2
 72
     2
 73
     0
 90
        0
 40
-0.6
 41
-30.0
 62
     5
 63
     7
421
 16777215
 74
     1
 91
        4
 64
     7
 65
   257
 75
     7
175
     7
 42
1.0
 92
        8
 66
     7
 43
1.0
 76
     1
 77
     6
 78
     2
 67
     7
 79
     5
170
     0
171
     0
290
     0
174
     0
 93
        1
 44
0.0
173
     0
291
     1
 45
0.0
1001
ACAD
1000
AcDbSavedByObjectVersion
1070
     0
  0
VISUALSTYLE
  5
7E9
102
{ACAD_XDICTIONARY
360
90E
102
}
102
{ACAD_REACTORS
330
7D2
102
}
330
7D2
100
AcDbVisualStyle
  2
OverhangOff
 70
    21
 71
     2
 72
     2
 73
     0
 90
        0
 40
-0.6
 41
-30.0
 62
     5
 63
     7
421
 16777215
 74
     1
 91
        4
 64
     7
 65
   257
 75
     1
175
     1
 42
1.0
 92
        9
 66
     7
 43
1.0
 76
     1
 77
     6
 78
     2
 67
     7
 79
     5
170
     0
171
     0
290
     0
174
     0
 93
        1
 44
0.0
173
     0
291
     1
 45
0.0
1001
ACAD
1000
AcDbSavedByObjectVersion
1070
     0
  0
VISUALSTYLE
  5
7DC
102
{ACAD_XDICTIONARY
360
8F4
102
}
102
{ACAD_REACTORS
330
7D2
102
}
330
7D2
100
AcDbVisualStyle
  2
Realistic
 70
     8
 71
     2
 72
     3
 73
     0
 90
        2
 40
-0.6
 41
30.0
 62
     5
 63
     7
421
 16777215
 74
     0
 91
        0
 64
     7
 65
   257
 75
     1
175
     1
 42
1.0
 92
        8
 66
   257
 43
1.0
 76
     1
 77
     6
 78
     2
 67
     7
 79
     3
170
     0
171
     0
290
     0
174
     0
 93
       13
 44
0.0
173
     0
291
     0
 45
0.0
1001
ACAD
1000
AcDbSavedByObjectVersion
1070
     0
  0
VISUALSTYLE
  5
7E7
102
{ACAD_XDICTIONARY
360
90A
102
}
102
{ACAD_REACTORS
330
7D2
102
}
330
7D2
100
AcDbVisualStyle
  2
Shaded
 70
    27
 71
     2
 72
     2
 73
     1
 90
        2
 40
-0.6
 41
30.0
 62
     5
 63
     7
421
 16777215
 74
     0
 91
        4
 64
     7
 65
   257
 75
     1
175
     1
 42
1.0
 92
        8
 66
   257
 43
1.0
 76
     1
 77
     6
 78
     2
 67
     8
425
  7895160
 79
     3
170
     0
171
     0
290
     0
174
     0
 93
        5
 44
0.0
173
     0
291
     0
 45
0.0
1001
ACAD
1000
AcDbSavedByObjectVersion
1070
     0
  0
VISUALSTYLE
  5
7E6
102
{ACAD_XDICTIONARY
360
908
102
}
102
{ACAD_REACTORS
330
7D2
102
}
330
7D2
100
AcDbVisualStyle
  2
Shaded with edges
 70
    26
 71
     2
 72
     2
 73
     1
 90
        2
 40
-0.6
 41
30.0
 62
     5
 63
     7
421
 16777215
 74
     1
 91
       10
 64
     7
 65
   257
 75
     2
175
     1
 42
1.0
 92
        8
 66
   257
 43
1.0
 76
     1
 77
     6
 78
     2
 67
     7
 79
     3
170
     0
171
     0
290
     0
174
     0
 93
        5
 44
0.0
173
     0
291
     0
 45
0.0
1001
ACAD
1000
AcDbSavedByObjectVersion
1070
     0
  0
VISUALSTYLE
  5
7E3
102
{ACAD_XDICTIONARY
360
902
102
}
102
{ACAD_REACTORS
330
7D2
102
}
330
7D2
100
AcDbVisualStyle
  2
Shades of Gray
 70
    23
 71
     2
 72
     2
 73
     3
 90
        0
 40
-0.6
 41
-30.0
 62
     5
 63
     7
421
 16777215
 74
     2
 91
        2
 64
     7
 65
     7
 75
     1
175
     1
 42
40.0
 92
        8
 66
     7
 43
1.0
 76
     1
 77
     6
 78
     2
 67
     7
 79
     3
170
     0
171
     0
290
     0
174
     0
 93
        1
 44
0.0
173
     0
291
     0
 45
0.0
1001
ACAD
1000
AcDbSavedByObjectVersion
1070
     0
  0
VISUALSTYLE
  5
7E4
102
{ACAD_XDICTIONARY
360
904
102
}
102
{ACAD_REACTORS
330
7D2
102
}
330
7D2
100
AcDbVisualStyle
  2
Sketchy
 70
    24
 71
     1
 72
     2
 73
     2
 90
        0
 40
-0.6
 41
-30.0
 62
     5
 63
     7
421
 16777215
 74
     2
 91
        2
 64
     7
 65
     7
 75
     1
175
     1
 42
40.0
 92
       11
 66
     7
 43
1.0
 76
     1
 77
     6
 78
     2
 67
     7
 79
     6
170
     0
171
     0
290
     0
174
     0
 93
        1
 44
0.0
173
     0
291
     0
 45
0.0
1001
ACAD
1000
AcDbSavedByObjectVersion
1070
     0
  0
VISUALSTYLE
  5
7DF
102
{ACAD_XDICTIONARY
360
8FA
102
}
102
{ACAD_REACTORS
330
7D2
102
}
330
7D2
100
AcDbVisualStyle
  2
Thicken
 70
    13
 71
     2
 72
     2
 73
     0
 90
        0
 40
-0.6
 41
-30.0
 62
     5
 63
     7
421
 16777215
 74
     1
 91
        4
 64
     7
 65
   257
 75
     1
175
     1
 42
1.0
 92
       12
 66
     7
 43
1.0
 76
     1
 77
     6
 78
     2
 67
     7
 79
     5
170
     0
171
     0
290
     0
174
     0
 93
        1
 44
0.0
173
     0
291
     1
 45
0.0
1001
ACAD
1000
AcDbSavedByObjectVersion
1070
     0
  0
VISUALSTYLE
  5
7D9
102
{ACAD_XDICTIONARY
360
8EE
102
}
102
{ACAD_REACTORS
330
7D2
102
}
330
7D2
100
AcDbVisualStyle
  2
Wireframe
 70
     5
 71
     0
 72
     2
 73
     0
 90
        0
 40
-0.6
 41
-30.0
 62
     5
 63
     7
421
 16777215
 74
     1
 91
        4
 64
     7
 65
   257
 75
     1
175
     1
 42
1.0
 92
        0
 66
   257
 43
1.0
 76
     1
 77
     6
 78
     2
 67
     7
 79
     3
170
     0
171
     0
290
     0
174
     0
 93
        1
 44
0.0
173
     0
291
     0
 45
0.0
1001
ACAD
1000
AcDbSavedByObjectVersion
1070
     0
  0
VISUALSTYLE
  5
7E5
102
{ACAD_XDICTIONARY
360
906
102
}
102
{ACAD_REACTORS
330
7D2
102
}
330
7D2
100
AcDbVisualStyle
  2
X-Ray
 70
    25
 71
     2
 72
     2
 73
     1
 90
        1
 40
0.5
 41
-30.0
 62
     5
 63
     7
421
 16777215
 74
     1
 91
        0
 64
     7
 65
   257
 75
     1
175
     1
 42
1.0
 92
        8
 66
     7
 43
1.0
 76
     1
 77
     6
 78
     2
 67
     7
 79
     3
170
     0
171
     0
290
     0
174
     0
 93
       13
 44
0.0
173
     0
291
     0
 45
0.0
1001
ACAD
1000
AcDbSavedByObjectVersion
1070
     0
  0
DICTIONARYVAR
  5
85B
102
{ACAD_REACTORS
330
1F8
102
}
330
1F8
100
DictionaryVariables
280
     0
  1
1:1
  0
DICTIONARYVAR
  5
857
102
{ACAD_REACTORS
330
1F8
102
}
330
1F8
100
DictionaryVariables
280
     0
  1
STANDARD
  0
DICTIONARYVAR
  5
1F9
102
{ACAD_REACTORS
330
1F8
102
}
330
1F8
100
DictionaryVariables
280
     0
  1
STANDARD
  0
DICTIONARYVAR
  5
858
102
{ACAD_REACTORS
330
1F8
102
}
330
1F8
100
DictionaryVariables
280
     0
  1
Metric50
  0
DICTIONARYVAR
  5
859
102
{ACAD_REACTORS
330
1F8
102
}
330
1F8
100
DictionaryVariables
280
     0
  1
Metric50
  0
DICTIONARYVAR
  5
1FA
102
{ACAD_REACTORS
330
1F8
102
}
330
1F8
100
DictionaryVariables
280
     0
  1
1
  0
DICTIONARYVAR
  5
85D
102
{ACAD_REACTORS
330
1F8
102
}
330
1F8
100
DictionaryVariables
280
     0
  1
1
  0
DICTIONARYVAR
  5
85E
102
{ACAD_REACTORS
330
1F8
102
}
330
1F8
100
DictionaryVariables
280
     0
  1
15
  0
DICTIONARYVAR
  5
85C
102
{ACAD_REACTORS
330
1F8
102
}
330
1F8
100
DictionaryVariables
280
     0
  1
0
  0
DICTIONARYVAR
  5
85A
102
{ACAD_REACTORS
330
1F8
102
}
330
1F8
100
DictionaryVariables
280
     0
  1
0
  0
DICTIONARYVAR
  5
1FB
102
{ACAD_REACTORS
330
1F8
102
}
330
1F8
100
DictionaryVariables
280
     0
  1

  0
DICTIONARYVAR
  5
8D2
102
{ACAD_REACTORS
330
1F8
102
}
330
1F8
100
DictionaryVariables
280
     0
  1
2
  0
DICTIONARY
  5
915
330
802
100
AcDbDictionary
280
     1
281
     1
  3
ACAD_XREC_ROUNDTRIP
360
916
  0
DICTIONARY
  5
7C3
330
7C2
100
AcDbDictionary
280
     1
281
     1
  3
ACAD_XREC_ROUNDTRIP
360
8E0
  3
BUMPTILE
360
7C5
  3
DIFFUSETILE
360
7C4
  3
OPACITYTILE
360
7C8
  3
REFLECTIONTILE
360
7C7
  3
REFRACTIONTILE
360
7C9
  3
SPECULARTILE
360
7C6
  0
DICTIONARY
  5
7BB
330
7BA
100
AcDbDictionary
280
     1
281
     1
  3
ACAD_XREC_ROUNDTRIP
360
8DF
  3
BUMPTILE
360
7BD
  3
DIFFUSETILE
360
7BC
  3
OPACITYTILE
360
7C0
  3
REFLECTIONTILE
360
7BF
  3
REFRACTIONTILE
360
7C1
  3
SPECULARTILE
360
7BE
  0
DICTIONARY
  5
7CB
330
7CA
100
AcDbDictionary
280
     1
281
     1
  3
ACAD_XREC_ROUNDTRIP
360
8E1
  3
BUMPTILE
360
7CD
  3
DIFFUSETILE
360
7CC
  3
OPACITYTILE
360
7D0
  3
REFLECTIONTILE
360
7CF
  3
REFRACTIONTILE
360
7D1
  3
SPECULARTILE
360
7CE
  0
DICTIONARY
  5
913
330
800
100
AcDbDictionary
280
     1
281
     1
  3
ACAD_XREC_ROUNDTRIP
360
914
  0
DICTIONARY
  5
8D3
330
1F3
100
AcDbDictionary
280
     1
281
     1
  3
ACAD_ROUNDTRIP_2008_TABLESTYLE_CELLSTYLEMAP
360
8D4
  3
ACAD_XREC_ROUNDTRIP
360
8D8
  0
DICTIONARY
  5
8EC
330
7D8
100
AcDbDictionary
280
     1
281
     1
  3
ACAD_XREC_ROUNDTRIP
360
8ED
  0
DICTIONARY
  5
8EA
330
7D7
100
AcDbDictionary
280
     1
281
     1
  3
ACAD_XREC_ROUNDTRIP
360
8EB
  0
DICTIONARY
  5
8F8
330
7DE
100
AcDbDictionary
280
     1
281
     1
  3
ACAD_XREC_ROUNDTRIP
360
8F9
  0
DICTIONARY
  5
900
330
7E2
100
AcDbDictionary
280
     1
281
     1
  3
ACAD_XREC_ROUNDTRIP
360
901
  0
DICTIONARY
  5
8F2
330
7DB
100
AcDbDictionary
280
     1
281
     1
  3
ACAD_XREC_ROUNDTRIP
360
8F3
  0
DICTIONARY
  5
8F6
330
7DD
100
AcDbDictionary
280
     1
281
     1
  3
ACAD_XREC_ROUNDTRIP
360
8F7
  0
DICTIONARY
  5
910
330
7EA
100
AcDbDictionary
280
     1
281
     1
  3
ACAD_XREC_ROUNDTRIP
360
911
  0
DICTIONARY
  5
8FE
330
7E1
100
AcDbDictionary
280
     1
281
     1
  3
ACAD_XREC_ROUNDTRIP
360
8FF
  0
DICTIONARY
  5
8E2
330
7D3
100
AcDbDictionary
280
     1
281
     1
  3
ACAD_XREC_ROUNDTRIP
360
8E3
  0
DICTIONARY
  5
8E4
330
7D4
100
AcDbDictionary
280
     1
281
     1
  3
ACAD_XREC_ROUNDTRIP
360
8E5
  0
DICTIONARY
  5
8E6
330
7D5
100
AcDbDictionary
280
     1
281
     1
  3
ACAD_XREC_ROUNDTRIP
360
8E7
  0
DICTIONARY
  5
8E8
330
7D6
100
AcDbDictionary
280
     1
281
     1
  3
ACAD_XREC_ROUNDTRIP
360
8E9
  0
DICTIONARY
  5
8F0
330
7DA
100
AcDbDictionary
280
     1
281
     1
  3
ACAD_XREC_ROUNDTRIP
360
8F1
  0
DICTIONARY
  5
90C
330
7E8
100
AcDbDictionary
280
     1
281
     1
  3
ACAD_XREC_ROUNDTRIP
360
90D
  0
DICTIONARY
  5
8FC
330
7E0
100
AcDbDictionary
280
     1
281
     1
  3
ACAD_XREC_ROUNDTRIP
360
8FD
  0
DICTIONARY
  5
90E
330
7E9
100
AcDbDictionary
280
     1
281
     1
  3
ACAD_XREC_ROUNDTRIP
360
90F
  0
DICTIONARY
  5
8F4
330
7DC
100
AcDbDictionary
280
     1
281
     1
  3
ACAD_XREC_ROUNDTRIP
360
8F5
  0
DICTIONARY
  5
90A
330
7E7
100
AcDbDictionary
280
     1
281
     1
  3
ACAD_XREC_ROUNDTRIP
360
90B
  0
DICTIONARY
  5
908
330
7E6
100
AcDbDictionary
280
     1
281
     1
  3
ACAD_XREC_ROUNDTRIP
360
909
  0
DICTIONARY
  5
902
330
7E3
100
AcDbDictionary
280
     1
281
     1
  3
ACAD_XREC_ROUNDTRIP
360
903
  0
DICTIONARY
  5
904
330
7E4
100
AcDbDictionary
280
     1
281
     1
  3
ACAD_XREC_ROUNDTRIP
360
905
  0
DICTIONARY
  5
8FA
330
7DF
100
AcDbDictionary
280
     1
281
     1
  3
ACAD_XREC_ROUNDTRIP
360
8FB
  0
DICTIONARY
  5
8EE
330
7D9
100
AcDbDictionary
280
     1
281
     1
  3
ACAD_XREC_ROUNDTRIP
360
8EF
  0
DICTIONARY
  5
906
330
7E5
100
AcDbDictionary
280
     1
281
     1
  3
ACAD_XREC_ROUNDTRIP
360
907
  0
XRECORD
  5
916
102
{ACAD_REACTORS
330
915
102
}
330
915
100
AcDbXrecord
280
     1
102
DISPLAYNAME
  1
Metric50
102
FLAGS
 90
        0
  0
XRECORD
  5
8E0
102
{ACAD_REACTORS
330
7C3
102
}
330
7C3
100
AcDbXrecord
280
     1
102
MATERIAL
148
0.0
149
0.0
149
0.0
 93
        0
 94
      127
282
     0
 72
     0
 77
     0
171
     0
175
     0
179
     0
273
     0
  0
XRECORD
  5
7C5
102
{ACAD_REACTORS
330
7C3
102
}
330
7C3
100
AcDbXrecord
280
     1
270
     1
271
     1
  0
XRECORD
  5
7C4
102
{ACAD_REACTORS
330
7C3
102
}
330
7C3
100
AcDbXrecord
280
     1
270
     1
271
     1
  0
XRECORD
  5
7C8
102
{ACAD_REACTORS
330
7C3
102
}
330
7C3
100
AcDbXrecord
280
     1
270
     1
271
     1
  0
XRECORD
  5
7C7
102
{ACAD_REACTORS
330
7C3
102
}
330
7C3
100
AcDbXrecord
280
     1
270
     1
271
     1
  0
XRECORD
  5
7C9
102
{ACAD_REACTORS
330
7C3
102
}
330
7C3
100
AcDbXrecord
280
     1
270
     1
271
     1
  0
XRECORD
  5
7C6
102
{ACAD_REACTORS
330
7C3
102
}
330
7C3
100
AcDbXrecord
280
     1
270
     1
271
     1
  0
XRECORD
  5
8DF
102
{ACAD_REACTORS
330
7BB
102
}
330
7BB
100
AcDbXrecord
280
     1
102
MATERIAL
148
0.0
149
0.0
149
0.0
 93
        0
 94
      127
282
     0
 72
     0
 77
     0
171
     0
175
     0
179
     0
273
     0
  0
XRECORD
  5
7BD
102
{ACAD_REACTORS
330
7BB
102
}
330
7BB
100
AcDbXrecord
280
     1
270
     1
271
     1
  0
XRECORD
  5
7BC
102
{ACAD_REACTORS
330
7BB
102
}
330
7BB
100
AcDbXrecord
280
     1
270
     1
271
     1
  0
XRECORD
  5
7C0
102
{ACAD_REACTORS
330
7BB
102
}
330
7BB
100
AcDbXrecord
280
     1
270
     1
271
     1
  0
XRECORD
  5
7BF
102
{ACAD_REACTORS
330
7BB
102
}
330
7BB
100
AcDbXrecord
280
     1
270
     1
271
     1
  0
XRECORD
  5
7C1
102
{ACAD_REACTORS
330
7BB
102
}
330
7BB
100
AcDbXrecord
280
     1
270
     1
271
     1
  0
XRECORD
  5
7BE
102
{ACAD_REACTORS
330
7BB
102
}
330
7BB
100
AcDbXrecord
280
     1
270
     1
271
     1
  0
XRECORD
  5
8E1
102
{ACAD_REACTORS
330
7CB
102
}
330
7CB
100
AcDbXrecord
280
     1
102
MATERIAL
148
0.0
149
0.0
149
0.0
 93
        0
 94
      127
282
     0
 72
     0
 77
     0
171
     0
175
     0
179
     0
273
     0
  0
XRECORD
  5
7CD
102
{ACAD_REACTORS
330
7CB
102
}
330
7CB
100
AcDbXrecord
280
     1
270
     1
271
     1
  0
XRECORD
  5
7CC
102
{ACAD_REACTORS
330
7CB
102
}
330
7CB
100
AcDbXrecord
280
     1
270
     1
271
     1
  0
XRECORD
  5
7D0
102
{ACAD_REACTORS
330
7CB
102
}
330
7CB
100
AcDbXrecord
280
     1
270
     1
271
     1
  0
XRECORD
  5
7CF
102
{ACAD_REACTORS
330
7CB
102
}
330
7CB
100
AcDbXrecord
280
     1
270
     1
271
     1
  0
XRECORD
  5
7D1
102
{ACAD_REACTORS
330
7CB
102
}
330
7CB
100
AcDbXrecord
280
     1
270
     1
271
     1
  0
XRECORD
  5
7CE
102
{ACAD_REACTORS
330
7CB
102
}
330
7CB
100
AcDbXrecord
280
     1
270
     1
271
     1
  0
XRECORD
  5
914
102
{ACAD_REACTORS
330
913
102
}
330
913
100
AcDbXrecord
280
     1
102
DISPLAYNAME
  1
Metric50
102
FLAGS
 90
        0
  0
CELLSTYLEMAP
  5
8D4
102
{ACAD_REACTORS
330
8D3
102
}
330
8D3
100
AcDbCellStyleMap
 90
        3
300
CELLSTYLE
  1
TABLEFORMAT_BEGIN
 90
        5
170
     1
 91
        0
 92
    32768
 62
   257
 93
        1
300
CONTENTFORMAT
  1
CONTENTFORMAT_BEGIN
 90
        0
 91
        0
 92
        4
 93
        0
300

 40
0.0
140
1.0
 94
        5
 62
     0
340
11
144
6.0
309
CONTENTFORMAT_END
171
     1
301
MARGIN
  1
CELLMARGIN_BEGIN
 40
1.5
 40
1.5
 40
1.5
 40
1.5
 40
0.18
 40
0.18
309
CELLMARGIN_END
 94
        6
 95
        1
302
GRIDFORMAT
  1
GRIDFORMAT_BEGIN
 90
        0
 91
        1
 62
     0
 92
       -2
340
0
 93
        0
 40
0.045
309
GRIDFORMAT_END
 95
        2
302
GRIDFORMAT
  1
GRIDFORMAT_BEGIN
 90
        0
 91
        1
 62
     0
 92
       -2
340
0
 93
        0
 40
0.045
309
GRIDFORMAT_END
 95
        4
302
GRIDFORMAT
  1
GRIDFORMAT_BEGIN
 90
        0
 91
        1
 62
     0
 92
       -2
340
0
 93
        0
 40
0.045
309
GRIDFORMAT_END
 95
        8
302
GRIDFORMAT
  1
GRIDFORMAT_BEGIN
 90
        0
 91
        1
 62
     0
 92
       -2
340
0
 93
        0
 40
0.045
309
GRIDFORMAT_END
 95
       16
302
GRIDFORMAT
  1
GRIDFORMAT_BEGIN
 90
        0
 91
        1
 62
     0
 92
       -2
340
0
 93
        0
 40
0.045
309
GRIDFORMAT_END
 95
       32
302
GRIDFORMAT
  1
GRIDFORMAT_BEGIN
 90
        0
 91
        1
 62
     0
 92
       -2
340
0
 93
        0
 40
0.045
309
GRIDFORMAT_END
309
TABLEFORMAT_END
  1
CELLSTYLE_BEGIN
 90
        1
 91
        1
300
_TITLE
309
CELLSTYLE_END
300
CELLSTYLE
  1
TABLEFORMAT_BEGIN
 90
        5
170
     1
 91
        0
 92
        0
 62
   257
 93
        1
300
CONTENTFORMAT
  1
CONTENTFORMAT_BEGIN
 90
        0
 91
        0
 92
        4
 93
        0
300

 40
0.0
140
1.0
 94
        5
 62
     0
340
11
144
4.5
309
CONTENTFORMAT_END
171
     1
301
MARGIN
  1
CELLMARGIN_BEGIN
 40
1.5
 40
1.5
 40
1.5
 40
1.5
 40
0.18
 40
0.18
309
CELLMARGIN_END
 94
        6
 95
        1
302
GRIDFORMAT
  1
GRIDFORMAT_BEGIN
 90
        0
 91
        1
 62
     0
 92
       -2
340
0
 93
        0
 40
0.045
309
GRIDFORMAT_END
 95
        2
302
GRIDFORMAT
  1
GRIDFORMAT_BEGIN
 90
        0
 91
        1
 62
     0
 92
       -2
340
0
 93
        0
 40
0.045
309
GRIDFORMAT_END
 95
        4
302
GRIDFORMAT
  1
GRIDFORMAT_BEGIN
 90
        0
 91
        1
 62
     0
 92
       -2
340
0
 93
        0
 40
0.045
309
GRIDFORMAT_END
 95
        8
302
GRIDFORMAT
  1
GRIDFORMAT_BEGIN
 90
        0
 91
        1
 62
     0
 92
       -2
340
0
 93
        0
 40
0.045
309
GRIDFORMAT_END
 95
       16
302
GRIDFORMAT
  1
GRIDFORMAT_BEGIN
 90
        0
 91
        1
 62
     0
 92
       -2
340
0
 93
        0
 40
0.045
309
GRIDFORMAT_END
 95
       32
302
GRIDFORMAT
  1
GRIDFORMAT_BEGIN
 90
        0
 91
        1
 62
     0
 92
       -2
340
0
 93
        0
 40
0.045
309
GRIDFORMAT_END
309
TABLEFORMAT_END
  1
CELLSTYLE_BEGIN
 90
        2
 91
        1
300
_HEADER
309
CELLSTYLE_END
300
CELLSTYLE
  1
TABLEFORMAT_BEGIN
 90
        5
170
     1
 91
        0
 92
        0
 62
   257
 93
        1
300
CONTENTFORMAT
  1
CONTENTFORMAT_BEGIN
 90
        0
 91
        0
 92
        4
 93
        0
300

 40
0.0
140
1.0
 94
        2
 62
     0
340
11
144
4.5
309
CONTENTFORMAT_END
171
     1
301
MARGIN
  1
CELLMARGIN_BEGIN
 40
1.5
 40
1.5
 40
1.5
 40
1.5
 40
0.18
 40
0.18
309
CELLMARGIN_END
 94
        6
 95
        1
302
GRIDFORMAT
  1
GRIDFORMAT_BEGIN
 90
        0
 91
        1
 62
     0
 92
       -2
340
0
 93
        0
 40
0.045
309
GRIDFORMAT_END
 95
        2
302
GRIDFORMAT
  1
GRIDFORMAT_BEGIN
 90
        0
 91
        1
 62
     0
 92
       -2
340
0
 93
        0
 40
0.045
309
GRIDFORMAT_END
 95
        4
302
GRIDFORMAT
  1
GRIDFORMAT_BEGIN
 90
        0
 91
        1
 62
     0
 92
       -2
340
0
 93
        0
 40
0.045
309
GRIDFORMAT_END
 95
        8
302
GRIDFORMAT
  1
GRIDFORMAT_BEGIN
 90
        0
 91
        1
 62
     0
 92
       -2
340
0
 93
        0
 40
0.045
309
GRIDFORMAT_END
 95
       16
302
GRIDFORMAT
  1
GRIDFORMAT_BEGIN
 90
        0
 91
        1
 62
     0
 92
       -2
340
0
 93
        0
 40
0.045
309
GRIDFORMAT_END
 95
       32
302
GRIDFORMAT
  1
GRIDFORMAT_BEGIN
 90
        0
 91
        1
 62
     0
 92
       -2
340
0
 93
        0
 40
0.045
309
GRIDFORMAT_END
309
TABLEFORMAT_END
  1
CELLSTYLE_BEGIN
 90
        3
 91
        2
300
_DATA
309
CELLSTYLE_END
  0
XRECORD
  5
8D8
102
{ACAD_REACTORS
330
8D3
102
}
330
8D3
100
AcDbXrecord
280
     1
102
ACAD_ROUNDTRIP_PRE2007_TABLESTYLE
 90
        4
 91
        0
  1

 92
        4
 93
        0
  2

 94
        4
 95
        0
  3

  0
XRECORD
  5
8ED
102
{ACAD_REACTORS
330
8EC
102
}
330
8EC
100
AcDbXrecord
280
     1
102
RTVSPost2010Prop28
280
     1
102
RTVSPost2010PropOp28
 70
     1
102
RTVSPost2010Prop29
280
     1
102
RTVSPost2010PropOp29
 70
     1
102
RTVSPost2010Prop30
280
     0
102
RTVSPost2010PropOp30
 70
     1
102
RTVSPost2010Prop31
280
     0
102
RTVSPost2010PropOp31
 70
     1
102
RTVSPost2010Prop32
280
     0
102
RTVSPost2010PropOp32
 70
     1
102
RTVSPost2010Prop33
280
     0
102
RTVSPost2010PropOp33
 70
     1
102
RTVSPost2010Prop34
280
     0
102
RTVSPost2010PropOp34
 70
     1
102
RTVSPost2010Prop35
280
     0
102
RTVSPost2010PropOp35
 70
     1
102
RTVSPost2010Prop36
280
     0
102
RTVSPost2010PropOp36
 70
     1
102
RTVSPost2010Prop37
 90
       50
102
RTVSPost2010PropOp37
 70
     1
102
RTVSPost2010Prop38
140
0.0
102
RTVSPost2010PropOp38
 70
     1
102
RTVSPost2010Prop39
140
1.0
102
RTVSPost2010PropOp39
 70
     1
102
RTVSPost2010Prop40
 90
        0
102
RTVSPost2010PropOp40
 70
     1
102
RTVSPost2010Prop41ColorIndex
 90
       18
102
RTVSPost2010Prop41ColorRGB
 90
        0
102
RTVSPost2010PropOp41
 70
     1
102
RTVSPost2010Prop42
 90
       50
102
RTVSPost2010PropOp42
 70
     1
102
RTVSPost2010Prop43
 90
        3
102
RTVSPost2010PropOp43
 70
     1
102
RTVSPost2010Prop44ColorIndex
 90
        5
102
RTVSPost2010Prop44ColorRGB
 90
      255
102
RTVSPost2010PropOp44
 70
     1
102
RTVSPost2010Prop45
280
     0
102
RTVSPost2010PropOp45
 70
     1
102
RTVSPost2010Prop46
 90
       50
102
RTVSPost2010PropOp46
 70
     1
102
RTVSPost2010Prop47
 90
       50
102
RTVSPost2010PropOp47
 70
     1
102
RTVSPost2010Prop48
 90
       50
102
RTVSPost2010PropOp48
 70
     1
102
RTVSPost2010Prop49
280
     0
102
RTVSPost2010PropOp49
 70
     1
102
RTVSPost2010Prop50
 90
       50
102
RTVSPost2010PropOp50
 70
     1
102
RTVSPost2010Prop51ColorIndex
 90
      256
102
RTVSPost2010Prop51ColorRGB
 90
-16777216
102
RTVSPost2010PropOp51
 70
     0
102
RTVSPost2010Prop52
140
1.0
102
RTVSPost2010PropOp52
 70
     0
102
RTVSPost2010Prop53
 90
        2
102
RTVSPost2010PropOp53
 70
     1
102
RTVSPost2010Prop54
  1
strokes_ogs.tif
102
RTVSPost2010PropOp54
 70
     1
102
RTVSPost2010Prop55
280
     0
102
RTVSPost2010PropOp55
 70
     1
102
RTVSPost2010Prop56
140
1.0
102
RTVSPost2010PropOp56
 70
     1
102
RTVSPost2010Prop57
140
1.0
102
RTVSPost2010PropOp57
 70
     1
102
RTVSPropertyOp0
 70
     1
102
RTVSPropertyOp1
 70
     1
102
RTVSPropertyOp2
 70
     1
102
RTVSPropertyOp3
 70
     1
102
RTVSPropertyOp4
 70
     1
102
RTVSPropertyOp5
 70
     1
102
RTVSPropertyOp6
 70
     1
102
RTVSPropertyOp7
 70
     1
102
RTVSPropertyOp8
 70
     1
102
RTVSPropertyOp9
 70
     1
102
RTVSPropertyOp10
 70
     1
102
RTVSPropertyOp11
 70
     1
102
RTVSPropertyOp12
 70
     1
102
RTVSPropertyOp13
 70
     1
102
RTVSPropertyOp14
 70
     1
102
RTVSPropertyOp15
 70
     1
102
RTVSPropertyOp16
 70
     1
102
RTVSPropertyOp17
 70
     1
102
RTVSPropertyOp18
 70
     1
102
RTVSPropertyOp19
 70
     1
102
RTVSPropertyOp20
 70
     1
102
RTVSPropertyOp21
 70
     1
102
RTVSPropertyOp22
 70
     1
102
RTVSPropertyOp23
 70
     1
102
RTVSPropertyOp24
 70
     1
102
RTVSPropertyOp25
 70
     1
102
RTVSPropertyOp26
 70
     1
102
RTVSPropertyOp27
 70
     1
102
RTVSPropertyOp28
 70
     1
102
RTVSPropertyOp29
 70
     1
102
RTVSPropertyOp30
 70
     1
102
RTVSPropertyOp31
 70
     1
102
RTVSPropertyOp32
 70
     1
102
RTVSPropertyOp33
 70
     1
102
RTVSPropertyOp34
 70
     1
102
RTVSPropertyOp35
 70
     1
102
RTVSPropertyOp36
 70
     1
102
RTVSPropertyOp37
 70
     1
102
RTVSPropertyOp38
 70
     1
102
RTVSPropertyOp39
 70
     1
102
RTVSPropertyOp40
 70
     1
102
RTVSPropertyOp41
 70
     1
102
RTVSPropertyOp42
 70
     1
102
RTVSPropertyOp43
 70
     1
102
RTVSPropertyOp44
 70
     1
102
RTVSPropertyOp45
 70
     1
102
RTVSPropertyOp46
 70
     1
102
RTVSPropertyOp47
 70
     1
102
RTVSPropertyOp48
 70
     1
102
RTVSPropertyOp49
 70
     1
102
RTVSPropertyOp50
 70
     1
102
RTVSPropertyOp51
 70
     0
102
RTVSPropertyOp52
 70
     0
102
RTVSPropertyOp53
 70
     1
102
RTVSPropertyOp54
 70
     1
102
RTVSPropertyOp55
 70
     1
102
RTVSPropertyOp56
 70
     1
102
RTVSPropertyOp57
 70
     1
102
RTVSPropertyOp58
 70
     1
102
RTVSPropertyOp59
 70
     1
102
RTVSPropertyOp60
 70
     1
102
RTVSPropertyOp61
 70
     1
102
RTVSPropertyOp62
 70
     1
  0
XRECORD
  5
8EB
102
{ACAD_REACTORS
330
8EA
102
}
330
8EA
100
AcDbXrecord
280
     1
102
RTVSPost2010Prop28
280
     0
102
RTVSPost2010PropOp28
 70
     1
102
RTVSPost2010Prop29
280
     1
102
RTVSPost2010PropOp29
 70
     1
102
RTVSPost2010Prop30
280
     1
102
RTVSPost2010PropOp30
 70
     1
102
RTVSPost2010Prop31
280
     0
102
RTVSPost2010PropOp31
 70
     1
102
RTVSPost2010Prop32
280
     0
102
RTVSPost2010PropOp32
 70
     1
102
RTVSPost2010Prop33
280
     0
102
RTVSPost2010PropOp33
 70
     1
102
RTVSPost2010Prop34
280
     0
102
RTVSPost2010PropOp34
 70
     1
102
RTVSPost2010Prop35
280
     0
102
RTVSPost2010PropOp35
 70
     1
102
RTVSPost2010Prop36
280
     0
102
RTVSPost2010PropOp36
 70
     1
102
RTVSPost2010Prop37
 90
       50
102
RTVSPost2010PropOp37
 70
     1
102
RTVSPost2010Prop38
140
0.0
102
RTVSPost2010PropOp38
 70
     1
102
RTVSPost2010Prop39
140
1.0
102
RTVSPost2010PropOp39
 70
     1
102
RTVSPost2010Prop40
 90
        0
102
RTVSPost2010PropOp40
 70
     1
102
RTVSPost2010Prop41ColorIndex
 90
       18
102
RTVSPost2010Prop41ColorRGB
 90
        0
102
RTVSPost2010PropOp41
 70
     1
102
RTVSPost2010Prop42
 90
       50
102
RTVSPost2010PropOp42
 70
     1
102
RTVSPost2010Prop43
 90
        3
102
RTVSPost2010PropOp43
 70
     1
102
RTVSPost2010Prop44ColorIndex
 90
        5
102
RTVSPost2010Prop44ColorRGB
 90
      255
102
RTVSPost2010PropOp44
 70
     1
102
RTVSPost2010Prop45
280
     0
102
RTVSPost2010PropOp45
 70
     1
102
RTVSPost2010Prop46
 90
       50
102
RTVSPost2010PropOp46
 70
     1
102
RTVSPost2010Prop47
 90
       50
102
RTVSPost2010PropOp47
 70
     1
102
RTVSPost2010Prop48
 90
       50
102
RTVSPost2010PropOp48
 70
     1
102
RTVSPost2010Prop49
280
     0
102
RTVSPost2010PropOp49
 70
     1
102
RTVSPost2010Prop50
 90
       50
102
RTVSPost2010PropOp50
 70
     1
102
RTVSPost2010Prop51ColorIndex
 90
      256
102
RTVSPost2010Prop51ColorRGB
 90
-16777216
102
RTVSPost2010PropOp51
 70
     0
102
RTVSPost2010Prop52
140
1.0
102
RTVSPost2010PropOp52
 70
     0
102
RTVSPost2010Prop53
 90
        2
102
RTVSPost2010PropOp53
 70
     1
102
RTVSPost2010Prop54
  1
strokes_ogs.tif
102
RTVSPost2010PropOp54
 70
     1
102
RTVSPost2010Prop55
280
     0
102
RTVSPost2010PropOp55
 70
     1
102
RTVSPost2010Prop56
140
1.0
102
RTVSPost2010PropOp56
 70
     1
102
RTVSPost2010Prop57
140
1.0
102
RTVSPost2010PropOp57
 70
     1
102
RTVSPropertyOp0
 70
     1
102
RTVSPropertyOp1
 70
     1
102
RTVSPropertyOp2
 70
     1
102
RTVSPropertyOp3
 70
     1
102
RTVSPropertyOp4
 70
     1
102
RTVSPropertyOp5
 70
     1
102
RTVSPropertyOp6
 70
     1
102
RTVSPropertyOp7
 70
     1
102
RTVSPropertyOp8
 70
     1
102
RTVSPropertyOp9
 70
     1
102
RTVSPropertyOp10
 70
     1
102
RTVSPropertyOp11
 70
     1
102
RTVSPropertyOp12
 70
     1
102
RTVSPropertyOp13
 70
     1
102
RTVSPropertyOp14
 70
     1
102
RTVSPropertyOp15
 70
     1
102
RTVSPropertyOp16
 70
     1
102
RTVSPropertyOp17
 70
     1
102
RTVSPropertyOp18
 70
     1
102
RTVSPropertyOp19
 70
     1
102
RTVSPropertyOp20
 70
     1
102
RTVSPropertyOp21
 70
     1
102
RTVSPropertyOp22
 70
     1
102
RTVSPropertyOp23
 70
     1
102
RTVSPropertyOp24
 70
     1
102
RTVSPropertyOp25
 70
     1
102
RTVSPropertyOp26
 70
     1
102
RTVSPropertyOp27
 70
     1
102
RTVSPropertyOp28
 70
     1
102
RTVSPropertyOp29
 70
     1
102
RTVSPropertyOp30
 70
     1
102
RTVSPropertyOp31
 70
     1
102
RTVSPropertyOp32
 70
     1
102
RTVSPropertyOp33
 70
     1
102
RTVSPropertyOp34
 70
     1
102
RTVSPropertyOp35
 70
     1
102
RTVSPropertyOp36
 70
     1
102
RTVSPropertyOp37
 70
     1
102
RTVSPropertyOp38
 70
     1
102
RTVSPropertyOp39
 70
     1
102
RTVSPropertyOp40
 70
     1
102
RTVSPropertyOp41
 70
     1
102
RTVSPropertyOp42
 70
     1
102
RTVSPropertyOp43
 70
     1
102
RTVSPropertyOp44
 70
     1
102
RTVSPropertyOp45
 70
     1
102
RTVSPropertyOp46
 70
     1
102
RTVSPropertyOp47
 70
     1
102
RTVSPropertyOp48
 70
     1
102
RTVSPropertyOp49
 70
     1
102
RTVSPropertyOp50
 70
     1
102
RTVSPropertyOp51
 70
     0
102
RTVSPropertyOp52
 70
     0
102
RTVSPropertyOp53
 70
     1
102
RTVSPropertyOp54
 70
     1
102
RTVSPropertyOp55
 70
     1
102
RTVSPropertyOp56
 70
     1
102
RTVSPropertyOp57
 70
     1
102
RTVSPropertyOp58
 70
     1
102
RTVSPropertyOp59
 70
     1
102
RTVSPropertyOp60
 70
     1
102
RTVSPropertyOp61
 70
     1
102
RTVSPropertyOp62
 70
     1
  0
XRECORD
  5
8F9
102
{ACAD_REACTORS
330
8F8
102
}
330
8F8
100
AcDbXrecord
280
     1
102
RTVSPost2010Prop28
280
     0
102
RTVSPost2010PropOp28
 70
     1
102
RTVSPost2010Prop29
280
     1
102
RTVSPost2010PropOp29
 70
     1
102
RTVSPost2010Prop30
280
     1
102
RTVSPost2010PropOp30
 70
     1
102
RTVSPost2010Prop31
280
     0
102
RTVSPost2010PropOp31
 70
     1
102
RTVSPost2010Prop32
280
     0
102
RTVSPost2010PropOp32
 70
     1
102
RTVSPost2010Prop33
280
     0
102
RTVSPost2010PropOp33
 70
     1
102
RTVSPost2010Prop34
280
     0
102
RTVSPost2010PropOp34
 70
     1
102
RTVSPost2010Prop35
280
     0
102
RTVSPost2010PropOp35
 70
     1
102
RTVSPost2010Prop36
280
     0
102
RTVSPost2010PropOp36
 70
     1
102
RTVSPost2010Prop37
 90
       50
102
RTVSPost2010PropOp37
 70
     1
102
RTVSPost2010Prop38
140
0.0
102
RTVSPost2010PropOp38
 70
     1
102
RTVSPost2010Prop39
140
1.0
102
RTVSPost2010PropOp39
 70
     1
102
RTVSPost2010Prop40
 90
        0
102
RTVSPost2010PropOp40
 70
     1
102
RTVSPost2010Prop41ColorIndex
 90
       18
102
RTVSPost2010Prop41ColorRGB
 90
        0
102
RTVSPost2010PropOp41
 70
     1
102
RTVSPost2010Prop42
 90
       50
102
RTVSPost2010PropOp42
 70
     1
102
RTVSPost2010Prop43
 90
        3
102
RTVSPost2010PropOp43
 70
     1
102
RTVSPost2010Prop44ColorIndex
 90
        5
102
RTVSPost2010Prop44ColorRGB
 90
      255
102
RTVSPost2010PropOp44
 70
     1
102
RTVSPost2010Prop45
280
     0
102
RTVSPost2010PropOp45
 70
     1
102
RTVSPost2010Prop46
 90
       50
102
RTVSPost2010PropOp46
 70
     1
102
RTVSPost2010Prop47
 90
       50
102
RTVSPost2010PropOp47
 70
     1
102
RTVSPost2010Prop48
 90
       50
102
RTVSPost2010PropOp48
 70
     1
102
RTVSPost2010Prop49
280
     0
102
RTVSPost2010PropOp49
 70
     1
102
RTVSPost2010Prop50
 90
       50
102
RTVSPost2010PropOp50
 70
     1
102
RTVSPost2010Prop51ColorIndex
 90
      256
102
RTVSPost2010Prop51ColorRGB
 90
-16777216
102
RTVSPost2010PropOp51
 70
     0
102
RTVSPost2010Prop52
140
1.0
102
RTVSPost2010PropOp52
 70
     0
102
RTVSPost2010Prop53
 90
        2
102
RTVSPost2010PropOp53
 70
     1
102
RTVSPost2010Prop54
  1
strokes_ogs.tif
102
RTVSPost2010PropOp54
 70
     1
102
RTVSPost2010Prop55
280
     0
102
RTVSPost2010PropOp55
 70
     1
102
RTVSPost2010Prop56
140
1.0
102
RTVSPost2010PropOp56
 70
     1
102
RTVSPost2010Prop57
140
1.0
102
RTVSPost2010PropOp57
 70
     1
102
RTVSPropertyOp0
 70
     1
102
RTVSPropertyOp1
 70
     1
102
RTVSPropertyOp2
 70
     1
102
RTVSPropertyOp3
 70
     1
102
RTVSPropertyOp4
 70
     1
102
RTVSPropertyOp5
 70
     1
102
RTVSPropertyOp6
 70
     1
102
RTVSPropertyOp7
 70
     1
102
RTVSPropertyOp8
 70
     1
102
RTVSPropertyOp9
 70
     1
102
RTVSPropertyOp10
 70
     1
102
RTVSPropertyOp11
 70
     1
102
RTVSPropertyOp12
 70
     1
102
RTVSPropertyOp13
 70
     1
102
RTVSPropertyOp14
 70
     1
102
RTVSPropertyOp15
 70
     1
102
RTVSPropertyOp16
 70
     1
102
RTVSPropertyOp17
 70
     1
102
RTVSPropertyOp18
 70
     1
102
RTVSPropertyOp19
 70
     1
102
RTVSPropertyOp20
 70
     1
102
RTVSPropertyOp21
 70
     1
102
RTVSPropertyOp22
 70
     1
102
RTVSPropertyOp23
 70
     1
102
RTVSPropertyOp24
 70
     1
102
RTVSPropertyOp25
 70
     1
102
RTVSPropertyOp26
 70
     1
102
RTVSPropertyOp27
 70
     1
102
RTVSPropertyOp28
 70
     1
102
RTVSPropertyOp29
 70
     1
102
RTVSPropertyOp30
 70
     1
102
RTVSPropertyOp31
 70
     1
102
RTVSPropertyOp32
 70
     1
102
RTVSPropertyOp33
 70
     1
102
RTVSPropertyOp34
 70
     1
102
RTVSPropertyOp35
 70
     1
102
RTVSPropertyOp36
 70
     1
102
RTVSPropertyOp37
 70
     1
102
RTVSPropertyOp38
 70
     1
102
RTVSPropertyOp39
 70
     1
102
RTVSPropertyOp40
 70
     1
102
RTVSPropertyOp41
 70
     1
102
RTVSPropertyOp42
 70
     1
102
RTVSPropertyOp43
 70
     1
102
RTVSPropertyOp44
 70
     1
102
RTVSPropertyOp45
 70
     1
102
RTVSPropertyOp46
 70
     1
102
RTVSPropertyOp47
 70
     1
102
RTVSPropertyOp48
 70
     1
102
RTVSPropertyOp49
 70
     1
102
RTVSPropertyOp50
 70
     1
102
RTVSPropertyOp51
 70
     0
102
RTVSPropertyOp52
 70
     0
102
RTVSPropertyOp53
 70
     1
102
RTVSPropertyOp54
 70
     1
102
RTVSPropertyOp55
 70
     1
102
RTVSPropertyOp56
 70
     1
102
RTVSPropertyOp57
 70
     1
102
RTVSPropertyOp58
 70
     1
102
RTVSPropertyOp59
 70
     1
102
RTVSPropertyOp60
 70
     1
102
RTVSPropertyOp61
 70
     1
102
RTVSPropertyOp62
 70
     1
  0
XRECORD
  5
901
102
{ACAD_REACTORS
330
900
102
}
330
900
100
AcDbXrecord
280
     1
102
RTVSPost2010Prop28
280
     0
102
RTVSPost2010PropOp28
 70
     1
102
RTVSPost2010Prop29
280
     1
102
RTVSPost2010PropOp29
 70
     1
102
RTVSPost2010Prop30
280
     1
102
RTVSPost2010PropOp30
 70
     1
102
RTVSPost2010Prop31
280
     0
102
RTVSPost2010PropOp31
 70
     1
102
RTVSPost2010Prop32
280
     0
102
RTVSPost2010PropOp32
 70
     1
102
RTVSPost2010Prop33
280
     0
102
RTVSPost2010PropOp33
 70
     1
102
RTVSPost2010Prop34
280
     0
102
RTVSPost2010PropOp34
 70
     1
102
RTVSPost2010Prop35
280
     0
102
RTVSPost2010PropOp35
 70
     1
102
RTVSPost2010Prop36
280
     0
102
RTVSPost2010PropOp36
 70
     1
102
RTVSPost2010Prop37
 90
       50
102
RTVSPost2010PropOp37
 70
     1
102
RTVSPost2010Prop38
140
0.0
102
RTVSPost2010PropOp38
 70
     1
102
RTVSPost2010Prop39
140
1.0
102
RTVSPost2010PropOp39
 70
     1
102
RTVSPost2010Prop40
 90
        0
102
RTVSPost2010PropOp40
 70
     1
102
RTVSPost2010Prop41ColorIndex
 90
       18
102
RTVSPost2010Prop41ColorRGB
 90
        0
102
RTVSPost2010PropOp41
 70
     1
102
RTVSPost2010Prop42
 90
       50
102
RTVSPost2010PropOp42
 70
     1
102
RTVSPost2010Prop43
 90
        3
102
RTVSPost2010PropOp43
 70
     1
102
RTVSPost2010Prop44ColorIndex
 90
        5
102
RTVSPost2010Prop44ColorRGB
 90
      255
102
RTVSPost2010PropOp44
 70
     1
102
RTVSPost2010Prop45
280
     0
102
RTVSPost2010PropOp45
 70
     1
102
RTVSPost2010Prop46
 90
       50
102
RTVSPost2010PropOp46
 70
     1
102
RTVSPost2010Prop47
 90
       50
102
RTVSPost2010PropOp47
 70
     1
102
RTVSPost2010Prop48
 90
       50
102
RTVSPost2010PropOp48
 70
     1
102
RTVSPost2010Prop49
280
     0
102
RTVSPost2010PropOp49
 70
     1
102
RTVSPost2010Prop50
 90
       50
102
RTVSPost2010PropOp50
 70
     1
102
RTVSPost2010Prop51ColorIndex
 90
      256
102
RTVSPost2010Prop51ColorRGB
 90
-16777216
102
RTVSPost2010PropOp51
 70
     0
102
RTVSPost2010Prop52
140
1.0
102
RTVSPost2010PropOp52
 70
     0
102
RTVSPost2010Prop53
 90
        2
102
RTVSPost2010PropOp53
 70
     1
102
RTVSPost2010Prop54
  1
strokes_ogs.tif
102
RTVSPost2010PropOp54
 70
     1
102
RTVSPost2010Prop55
280
     0
102
RTVSPost2010PropOp55
 70
     1
102
RTVSPost2010Prop56
140
1.0
102
RTVSPost2010PropOp56
 70
     1
102
RTVSPost2010Prop57
140
1.0
102
RTVSPost2010PropOp57
 70
     1
102
RTVSPropertyOp0
 70
     1
102
RTVSPropertyOp1
 70
     1
102
RTVSPropertyOp2
 70
     1
102
RTVSPropertyOp3
 70
     1
102
RTVSPropertyOp4
 70
     1
102
RTVSPropertyOp5
 70
     1
102
RTVSPropertyOp6
 70
     1
102
RTVSPropertyOp7
 70
     1
102
RTVSPropertyOp8
 70
     1
102
RTVSPropertyOp9
 70
     1
102
RTVSPropertyOp10
 70
     1
102
RTVSPropertyOp11
 70
     1
102
RTVSPropertyOp12
 70
     1
102
RTVSPropertyOp13
 70
     1
102
RTVSPropertyOp14
 70
     1
102
RTVSPropertyOp15
 70
     1
102
RTVSPropertyOp16
 70
     1
102
RTVSPropertyOp17
 70
     1
102
RTVSPropertyOp18
 70
     1
102
RTVSPropertyOp19
 70
     1
102
RTVSPropertyOp20
 70
     1
102
RTVSPropertyOp21
 70
     1
102
RTVSPropertyOp22
 70
     1
102
RTVSPropertyOp23
 70
     1
102
RTVSPropertyOp24
 70
     1
102
RTVSPropertyOp25
 70
     1
102
RTVSPropertyOp26
 70
     1
102
RTVSPropertyOp27
 70
     1
102
RTVSPropertyOp28
 70
     1
102
RTVSPropertyOp29
 70
     1
102
RTVSPropertyOp30
 70
     1
102
RTVSPropertyOp31
 70
     1
102
RTVSPropertyOp32
 70
     1
102
RTVSPropertyOp33
 70
     1
102
RTVSPropertyOp34
 70
     1
102
RTVSPropertyOp35
 70
     1
102
RTVSPropertyOp36
 70
     1
102
RTVSPropertyOp37
 70
     1
102
RTVSPropertyOp38
 70
     1
102
RTVSPropertyOp39
 70
     1
102
RTVSPropertyOp40
 70
     1
102
RTVSPropertyOp41
 70
     1
102
RTVSPropertyOp42
 70
     1
102
RTVSPropertyOp43
 70
     1
102
RTVSPropertyOp44
 70
     1
102
RTVSPropertyOp45
 70
     1
102
RTVSPropertyOp46
 70
     1
102
RTVSPropertyOp47
 70
     1
102
RTVSPropertyOp48
 70
     1
102
RTVSPropertyOp49
 70
     1
102
RTVSPropertyOp50
 70
     1
102
RTVSPropertyOp51
 70
     0
102
RTVSPropertyOp52
 70
     0
102
RTVSPropertyOp53
 70
     1
102
RTVSPropertyOp54
 70
     1
102
RTVSPropertyOp55
 70
     1
102
RTVSPropertyOp56
 70
     1
102
RTVSPropertyOp57
 70
     1
102
RTVSPropertyOp58
 70
     1
102
RTVSPropertyOp59
 70
     1
102
RTVSPropertyOp60
 70
     1
102
RTVSPropertyOp61
 70
     1
102
RTVSPropertyOp62
 70
     1
  0
XRECORD
  5
8F3
102
{ACAD_REACTORS
330
8F2
102
}
330
8F2
100
AcDbXrecord
280
     1
102
RTVSPost2010Prop28
280
     0
102
RTVSPost2010PropOp28
 70
     1
102
RTVSPost2010Prop29
280
     1
102
RTVSPost2010PropOp29
 70
     1
102
RTVSPost2010Prop30
280
     1
102
RTVSPost2010PropOp30
 70
     1
102
RTVSPost2010Prop31
280
     0
102
RTVSPost2010PropOp31
 70
     1
102
RTVSPost2010Prop32
280
     0
102
RTVSPost2010PropOp32
 70
     1
102
RTVSPost2010Prop33
280
     0
102
RTVSPost2010PropOp33
 70
     1
102
RTVSPost2010Prop34
280
     0
102
RTVSPost2010PropOp34
 70
     1
102
RTVSPost2010Prop35
280
     0
102
RTVSPost2010PropOp35
 70
     1
102
RTVSPost2010Prop36
280
     0
102
RTVSPost2010PropOp36
 70
     1
102
RTVSPost2010Prop37
 90
       50
102
RTVSPost2010PropOp37
 70
     1
102
RTVSPost2010Prop38
140
0.0
102
RTVSPost2010PropOp38
 70
     1
102
RTVSPost2010Prop39
140
1.0
102
RTVSPost2010PropOp39
 70
     1
102
RTVSPost2010Prop40
 90
        0
102
RTVSPost2010PropOp40
 70
     1
102
RTVSPost2010Prop41ColorIndex
 90
       18
102
RTVSPost2010Prop41ColorRGB
 90
        0
102
RTVSPost2010PropOp41
 70
     1
102
RTVSPost2010Prop42
 90
       50
102
RTVSPost2010PropOp42
 70
     1
102
RTVSPost2010Prop43
 90
        3
102
RTVSPost2010PropOp43
 70
     1
102
RTVSPost2010Prop44ColorIndex
 90
        5
102
RTVSPost2010Prop44ColorRGB
 90
      255
102
RTVSPost2010PropOp44
 70
     1
102
RTVSPost2010Prop45
280
     0
102
RTVSPost2010PropOp45
 70
     1
102
RTVSPost2010Prop46
 90
       50
102
RTVSPost2010PropOp46
 70
     1
102
RTVSPost2010Prop47
 90
       50
102
RTVSPost2010PropOp47
 70
     1
102
RTVSPost2010Prop48
 90
       50
102
RTVSPost2010PropOp48
 70
     1
102
RTVSPost2010Prop49
280
     0
102
RTVSPost2010PropOp49
 70
     1
102
RTVSPost2010Prop50
 90
       50
102
RTVSPost2010PropOp50
 70
     1
102
RTVSPost2010Prop51ColorIndex
 90
      256
102
RTVSPost2010Prop51ColorRGB
 90
-16777216
102
RTVSPost2010PropOp51
 70
     0
102
RTVSPost2010Prop52
140
1.0
102
RTVSPost2010PropOp52
 70
     0
102
RTVSPost2010Prop53
 90
        2
102
RTVSPost2010PropOp53
 70
     1
102
RTVSPost2010Prop54
  1
strokes_ogs.tif
102
RTVSPost2010PropOp54
 70
     1
102
RTVSPost2010Prop55
280
     0
102
RTVSPost2010PropOp55
 70
     1
102
RTVSPost2010Prop56
140
1.0
102
RTVSPost2010PropOp56
 70
     1
102
RTVSPost2010Prop57
140
1.0
102
RTVSPost2010PropOp57
 70
     1
102
RTVSPropertyOp0
 70
     1
102
RTVSPropertyOp1
 70
     1
102
RTVSPropertyOp2
 70
     1
102
RTVSPropertyOp3
 70
     1
102
RTVSPropertyOp4
 70
     1
102
RTVSPropertyOp5
 70
     1
102
RTVSPropertyOp6
 70
     1
102
RTVSPropertyOp7
 70
     1
102
RTVSPropertyOp8
 70
     1
102
RTVSPropertyOp9
 70
     1
102
RTVSPropertyOp10
 70
     1
102
RTVSPropertyOp11
 70
     1
102
RTVSPropertyOp12
 70
     1
102
RTVSPropertyOp13
 70
     1
102
RTVSPropertyOp14
 70
     1
102
RTVSPropertyOp15
 70
     1
102
RTVSPropertyOp16
 70
     1
102
RTVSPropertyOp17
 70
     1
102
RTVSPropertyOp18
 70
     1
102
RTVSPropertyOp19
 70
     1
102
RTVSPropertyOp20
 70
     1
102
RTVSPropertyOp21
 70
     1
102
RTVSPropertyOp22
 70
     1
102
RTVSPropertyOp23
 70
     1
102
RTVSPropertyOp24
 70
     1
102
RTVSPropertyOp25
 70
     1
102
RTVSPropertyOp26
 70
     1
102
RTVSPropertyOp27
 70
     1
102
RTVSPropertyOp28
 70
     1
102
RTVSPropertyOp29
 70
     1
102
RTVSPropertyOp30
 70
     1
102
RTVSPropertyOp31
 70
     1
102
RTVSPropertyOp32
 70
     1
102
RTVSPropertyOp33
 70
     1
102
RTVSPropertyOp34
 70
     1
102
RTVSPropertyOp35
 70
     1
102
RTVSPropertyOp36
 70
     1
102
RTVSPropertyOp37
 70
     1
102
RTVSPropertyOp38
 70
     1
102
RTVSPropertyOp39
 70
     1
102
RTVSPropertyOp40
 70
     1
102
RTVSPropertyOp41
 70
     1
102
RTVSPropertyOp42
 70
     1
102
RTVSPropertyOp43
 70
     1
102
RTVSPropertyOp44
 70
     1
102
RTVSPropertyOp45
 70
     1
102
RTVSPropertyOp46
 70
     1
102
RTVSPropertyOp47
 70
     1
102
RTVSPropertyOp48
 70
     1
102
RTVSPropertyOp49
 70
     1
102
RTVSPropertyOp50
 70
     1
102
RTVSPropertyOp51
 70
     0
102
RTVSPropertyOp52
 70
     0
102
RTVSPropertyOp53
 70
     1
102
RTVSPropertyOp54
 70
     1
102
RTVSPropertyOp55
 70
     1
102
RTVSPropertyOp56
 70
     1
102
RTVSPropertyOp57
 70
     1
102
RTVSPropertyOp58
 70
     1
102
RTVSPropertyOp59
 70
     1
102
RTVSPropertyOp60
 70
     1
102
RTVSPropertyOp61
 70
     1
102
RTVSPropertyOp62
 70
     1
  0
XRECORD
  5
8F7
102
{ACAD_REACTORS
330
8F6
102
}
330
8F6
100
AcDbXrecord
280
     1
102
RTVSPost2010Prop28
280
     0
102
RTVSPost2010PropOp28
 70
     1
102
RTVSPost2010Prop29
280
     1
102
RTVSPost2010PropOp29
 70
     1
102
RTVSPost2010Prop30
280
     1
102
RTVSPost2010PropOp30
 70
     1
102
RTVSPost2010Prop31
280
     0
102
RTVSPost2010PropOp31
 70
     1
102
RTVSPost2010Prop32
280
     0
102
RTVSPost2010PropOp32
 70
     1
102
RTVSPost2010Prop33
280
     0
102
RTVSPost2010PropOp33
 70
     1
102
RTVSPost2010Prop34
280
     0
102
RTVSPost2010PropOp34
 70
     1
102
RTVSPost2010Prop35
280
     0
102
RTVSPost2010PropOp35
 70
     1
102
RTVSPost2010Prop36
280
     0
102
RTVSPost2010PropOp36
 70
     1
102
RTVSPost2010Prop37
 90
       50
102
RTVSPost2010PropOp37
 70
     1
102
RTVSPost2010Prop38
140
0.0
102
RTVSPost2010PropOp38
 70
     1
102
RTVSPost2010Prop39
140
1.0
102
RTVSPost2010PropOp39
 70
     1
102
RTVSPost2010Prop40
 90
        0
102
RTVSPost2010PropOp40
 70
     1
102
RTVSPost2010Prop41ColorIndex
 90
       18
102
RTVSPost2010Prop41ColorRGB
 90
        0
102
RTVSPost2010PropOp41
 70
     1
102
RTVSPost2010Prop42
 90
       50
102
RTVSPost2010PropOp42
 70
     1
102
RTVSPost2010Prop43
 90
        3
102
RTVSPost2010PropOp43
 70
     1
102
RTVSPost2010Prop44ColorIndex
 90
        5
102
RTVSPost2010Prop44ColorRGB
 90
      255
102
RTVSPost2010PropOp44
 70
     1
102
RTVSPost2010Prop45
280
     0
102
RTVSPost2010PropOp45
 70
     1
102
RTVSPost2010Prop46
 90
       50
102
RTVSPost2010PropOp46
 70
     1
102
RTVSPost2010Prop47
 90
       50
102
RTVSPost2010PropOp47
 70
     1
102
RTVSPost2010Prop48
 90
       50
102
RTVSPost2010PropOp48
 70
     1
102
RTVSPost2010Prop49
280
     0
102
RTVSPost2010PropOp49
 70
     1
102
RTVSPost2010Prop50
 90
       50
102
RTVSPost2010PropOp50
 70
     1
102
RTVSPost2010Prop51ColorIndex
 90
      256
102
RTVSPost2010Prop51ColorRGB
 90
-16777216
102
RTVSPost2010PropOp51
 70
     0
102
RTVSPost2010Prop52
140
1.0
102
RTVSPost2010PropOp52
 70
     0
102
RTVSPost2010Prop53
 90
        2
102
RTVSPost2010PropOp53
 70
     1
102
RTVSPost2010Prop54
  1
strokes_ogs.tif
102
RTVSPost2010PropOp54
 70
     1
102
RTVSPost2010Prop55
280
     0
102
RTVSPost2010PropOp55
 70
     1
102
RTVSPost2010Prop56
140
1.0
102
RTVSPost2010PropOp56
 70
     1
102
RTVSPost2010Prop57
140
1.0
102
RTVSPost2010PropOp57
 70
     1
102
RTVSPropertyOp0
 70
     1
102
RTVSPropertyOp1
 70
     1
102
RTVSPropertyOp2
 70
     1
102
RTVSPropertyOp3
 70
     1
102
RTVSPropertyOp4
 70
     1
102
RTVSPropertyOp5
 70
     1
102
RTVSPropertyOp6
 70
     1
102
RTVSPropertyOp7
 70
     1
102
RTVSPropertyOp8
 70
     1
102
RTVSPropertyOp9
 70
     1
102
RTVSPropertyOp10
 70
     1
102
RTVSPropertyOp11
 70
     1
102
RTVSPropertyOp12
 70
     1
102
RTVSPropertyOp13
 70
     1
102
RTVSPropertyOp14
 70
     1
102
RTVSPropertyOp15
 70
     1
102
RTVSPropertyOp16
 70
     1
102
RTVSPropertyOp17
 70
     1
102
RTVSPropertyOp18
 70
     1
102
RTVSPropertyOp19
 70
     1
102
RTVSPropertyOp20
 70
     1
102
RTVSPropertyOp21
 70
     1
102
RTVSPropertyOp22
 70
     1
102
RTVSPropertyOp23
 70
     1
102
RTVSPropertyOp24
 70
     1
102
RTVSPropertyOp25
 70
     1
102
RTVSPropertyOp26
 70
     1
102
RTVSPropertyOp27
 70
     1
102
RTVSPropertyOp28
 70
     1
102
RTVSPropertyOp29
 70
     1
102
RTVSPropertyOp30
 70
     1
102
RTVSPropertyOp31
 70
     1
102
RTVSPropertyOp32
 70
     1
102
RTVSPropertyOp33
 70
     1
102
RTVSPropertyOp34
 70
     1
102
RTVSPropertyOp35
 70
     1
102
RTVSPropertyOp36
 70
     1
102
RTVSPropertyOp37
 70
     1
102
RTVSPropertyOp38
 70
     1
102
RTVSPropertyOp39
 70
     1
102
RTVSPropertyOp40
 70
     1
102
RTVSPropertyOp41
 70
     1
102
RTVSPropertyOp42
 70
     1
102
RTVSPropertyOp43
 70
     1
102
RTVSPropertyOp44
 70
     1
102
RTVSPropertyOp45
 70
     1
102
RTVSPropertyOp46
 70
     1
102
RTVSPropertyOp47
 70
     1
102
RTVSPropertyOp48
 70
     1
102
RTVSPropertyOp49
 70
     1
102
RTVSPropertyOp50
 70
     1
102
RTVSPropertyOp51
 70
     0
102
RTVSPropertyOp52
 70
     0
102
RTVSPropertyOp53
 70
     1
102
RTVSPropertyOp54
 70
     1
102
RTVSPropertyOp55
 70
     1
102
RTVSPropertyOp56
 70
     1
102
RTVSPropertyOp57
 70
     1
102
RTVSPropertyOp58
 70
     1
102
RTVSPropertyOp59
 70
     1
102
RTVSPropertyOp60
 70
     1
102
RTVSPropertyOp61
 70
     1
102
RTVSPropertyOp62
 70
     1
  0
XRECORD
  5
911
102
{ACAD_REACTORS
330
910
102
}
330
910
100
AcDbXrecord
280
     1
102
RTVSPost2010Prop28
280
     0
102
RTVSPost2010PropOp28
 70
     1
102
RTVSPost2010Prop29
280
     1
102
RTVSPost2010PropOp29
 70
     1
102
RTVSPost2010Prop30
280
     1
102
RTVSPost2010PropOp30
 70
     1
102
RTVSPost2010Prop31
280
     0
102
RTVSPost2010PropOp31
 70
     1
102
RTVSPost2010Prop32
280
     0
102
RTVSPost2010PropOp32
 70
     1
102
RTVSPost2010Prop33
280
     0
102
RTVSPost2010PropOp33
 70
     1
102
RTVSPost2010Prop34
280
     0
102
RTVSPost2010PropOp34
 70
     1
102
RTVSPost2010Prop35
280
     0
102
RTVSPost2010PropOp35
 70
     1
102
RTVSPost2010Prop36
280
     0
102
RTVSPost2010PropOp36
 70
     1
102
RTVSPost2010Prop37
 90
       50
102
RTVSPost2010PropOp37
 70
     0
102
RTVSPost2010Prop38
140
0.0
102
RTVSPost2010PropOp38
 70
     0
102
RTVSPost2010Prop39
140
1.0
102
RTVSPost2010PropOp39
 70
     0
102
RTVSPost2010Prop40
 90
        0
102
RTVSPost2010PropOp40
 70
     0
102
RTVSPost2010Prop41ColorIndex
 90
       18
102
RTVSPost2010Prop41ColorRGB
 90
        0
102
RTVSPost2010PropOp41
 70
     0
102
RTVSPost2010Prop42
 90
       50
102
RTVSPost2010PropOp42
 70
     0
102
RTVSPost2010Prop43
 90
        3
102
RTVSPost2010PropOp43
 70
     0
102
RTVSPost2010Prop44ColorIndex
 90
        5
102
RTVSPost2010Prop44ColorRGB
 90
      255
102
RTVSPost2010PropOp44
 70
     0
102
RTVSPost2010Prop45
280
     0
102
RTVSPost2010PropOp45
 70
     1
102
RTVSPost2010Prop46
 90
       50
102
RTVSPost2010PropOp46
 70
     0
102
RTVSPost2010Prop47
 90
       50
102
RTVSPost2010PropOp47
 70
     0
102
RTVSPost2010Prop48
 90
       50
102
RTVSPost2010PropOp48
 70
     0
102
RTVSPost2010Prop49
280
     0
102
RTVSPost2010PropOp49
 70
     1
102
RTVSPost2010Prop50
 90
       50
102
RTVSPost2010PropOp50
 70
     0
102
RTVSPost2010Prop51ColorIndex
 90
      256
102
RTVSPost2010Prop51ColorRGB
 90
-16777216
102
RTVSPost2010PropOp51
 70
     0
102
RTVSPost2010Prop52
140
1.0
102
RTVSPost2010PropOp52
 70
     0
102
RTVSPost2010Prop53
 90
        2
102
RTVSPost2010PropOp53
 70
     0
102
RTVSPost2010Prop54
  1
strokes_ogs.tif
102
RTVSPost2010PropOp54
 70
     0
102
RTVSPost2010Prop55
280
     0
102
RTVSPost2010PropOp55
 70
     1
102
RTVSPost2010Prop56
140
1.0
102
RTVSPost2010PropOp56
 70
     0
102
RTVSPost2010Prop57
140
1.0
102
RTVSPost2010PropOp57
 70
     0
102
RTVSPropertyOp0
 70
     0
102
RTVSPropertyOp1
 70
     0
102
RTVSPropertyOp2
 70
     0
102
RTVSPropertyOp3
 70
     0
102
RTVSPropertyOp4
 70
     0
102
RTVSPropertyOp5
 70
     0
102
RTVSPropertyOp6
 70
     0
102
RTVSPropertyOp7
 70
     0
102
RTVSPropertyOp8
 70
     0
102
RTVSPropertyOp9
 70
     0
102
RTVSPropertyOp10
 70
     0
102
RTVSPropertyOp11
 70
     0
102
RTVSPropertyOp12
 70
     0
102
RTVSPropertyOp13
 70
     0
102
RTVSPropertyOp14
 70
     2
102
RTVSPropertyOp15
 70
     0
102
RTVSPropertyOp16
 70
     0
102
RTVSPropertyOp17
 70
     0
102
RTVSPropertyOp18
 70
     0
102
RTVSPropertyOp19
 70
     0
102
RTVSPropertyOp20
 70
     0
102
RTVSPropertyOp21
 70
     0
102
RTVSPropertyOp22
 70
     0
102
RTVSPropertyOp23
 70
     0
102
RTVSPropertyOp24
 70
     0
102
RTVSPropertyOp25
 70
     0
102
RTVSPropertyOp26
 70
     0
102
RTVSPropertyOp27
 70
     0
102
RTVSPropertyOp28
 70
     1
102
RTVSPropertyOp29
 70
     1
102
RTVSPropertyOp30
 70
     1
102
RTVSPropertyOp31
 70
     1
102
RTVSPropertyOp32
 70
     1
102
RTVSPropertyOp33
 70
     1
102
RTVSPropertyOp34
 70
     1
102
RTVSPropertyOp35
 70
     1
102
RTVSPropertyOp36
 70
     1
102
RTVSPropertyOp37
 70
     0
102
RTVSPropertyOp38
 70
     0
102
RTVSPropertyOp39
 70
     0
102
RTVSPropertyOp40
 70
     0
102
RTVSPropertyOp41
 70
     0
102
RTVSPropertyOp42
 70
     0
102
RTVSPropertyOp43
 70
     0
102
RTVSPropertyOp44
 70
     0
102
RTVSPropertyOp45
 70
     1
102
RTVSPropertyOp46
 70
     0
102
RTVSPropertyOp47
 70
     0
102
RTVSPropertyOp48
 70
     0
102
RTVSPropertyOp49
 70
     1
102
RTVSPropertyOp50
 70
     0
102
RTVSPropertyOp51
 70
     0
102
RTVSPropertyOp52
 70
     0
102
RTVSPropertyOp53
 70
     0
102
RTVSPropertyOp54
 70
     0
102
RTVSPropertyOp55
 70
     1
102
RTVSPropertyOp56
 70
     0
102
RTVSPropertyOp57
 70
     0
102
RTVSPropertyOp58
 70
     1
102
RTVSPropertyOp59
 70
     1
102
RTVSPropertyOp60
 70
     1
102
RTVSPropertyOp61
 70
     1
102
RTVSPropertyOp62
 70
     1
  0
XRECORD
  5
8FF
102
{ACAD_REACTORS
330
8FE
102
}
330
8FE
100
AcDbXrecord
280
     1
102
RTVSPost2010Prop28
280
     0
102
RTVSPost2010PropOp28
 70
     1
102
RTVSPost2010Prop29
280
     1
102
RTVSPost2010PropOp29
 70
     1
102
RTVSPost2010Prop30
280
     1
102
RTVSPost2010PropOp30
 70
     1
102
RTVSPost2010Prop31
280
     0
102
RTVSPost2010PropOp31
 70
     1
102
RTVSPost2010Prop32
280
     0
102
RTVSPost2010PropOp32
 70
     1
102
RTVSPost2010Prop33
280
     0
102
RTVSPost2010PropOp33
 70
     1
102
RTVSPost2010Prop34
280
     0
102
RTVSPost2010PropOp34
 70
     1
102
RTVSPost2010Prop35
280
     0
102
RTVSPost2010PropOp35
 70
     1
102
RTVSPost2010Prop36
280
     0
102
RTVSPost2010PropOp36
 70
     1
102
RTVSPost2010Prop37
 90
       50
102
RTVSPost2010PropOp37
 70
     1
102
RTVSPost2010Prop38
140
0.0
102
RTVSPost2010PropOp38
 70
     1
102
RTVSPost2010Prop39
140
1.0
102
RTVSPost2010PropOp39
 70
     1
102
RTVSPost2010Prop40
 90
        0
102
RTVSPost2010PropOp40
 70
     1
102
RTVSPost2010Prop41ColorIndex
 90
       18
102
RTVSPost2010Prop41ColorRGB
 90
        0
102
RTVSPost2010PropOp41
 70
     1
102
RTVSPost2010Prop42
 90
       50
102
RTVSPost2010PropOp42
 70
     1
102
RTVSPost2010Prop43
 90
        3
102
RTVSPost2010PropOp43
 70
     1
102
RTVSPost2010Prop44ColorIndex
 90
        5
102
RTVSPost2010Prop44ColorRGB
 90
      255
102
RTVSPost2010PropOp44
 70
     1
102
RTVSPost2010Prop45
280
     0
102
RTVSPost2010PropOp45
 70
     1
102
RTVSPost2010Prop46
 90
       50
102
RTVSPost2010PropOp46
 70
     1
102
RTVSPost2010Prop47
 90
       50
102
RTVSPost2010PropOp47
 70
     1
102
RTVSPost2010Prop48
 90
       50
102
RTVSPost2010PropOp48
 70
     1
102
RTVSPost2010Prop49
280
     0
102
RTVSPost2010PropOp49
 70
     1
102
RTVSPost2010Prop50
 90
       50
102
RTVSPost2010PropOp50
 70
     1
102
RTVSPost2010Prop51ColorIndex
 90
      256
102
RTVSPost2010Prop51ColorRGB
 90
-16777216
102
RTVSPost2010PropOp51
 70
     0
102
RTVSPost2010Prop52
140
1.0
102
RTVSPost2010PropOp52
 70
     0
102
RTVSPost2010Prop53
 90
        2
102
RTVSPost2010PropOp53
 70
     1
102
RTVSPost2010Prop54
  1
strokes_ogs.tif
102
RTVSPost2010PropOp54
 70
     1
102
RTVSPost2010Prop55
280
     0
102
RTVSPost2010PropOp55
 70
     1
102
RTVSPost2010Prop56
140
1.0
102
RTVSPost2010PropOp56
 70
     1
102
RTVSPost2010Prop57
140
1.0
102
RTVSPost2010PropOp57
 70
     1
102
RTVSPropertyOp0
 70
     1
102
RTVSPropertyOp1
 70
     1
102
RTVSPropertyOp2
 70
     1
102
RTVSPropertyOp3
 70
     1
102
RTVSPropertyOp4
 70
     1
102
RTVSPropertyOp5
 70
     1
102
RTVSPropertyOp6
 70
     1
102
RTVSPropertyOp7
 70
     1
102
RTVSPropertyOp8
 70
     1
102
RTVSPropertyOp9
 70
     1
102
RTVSPropertyOp10
 70
     1
102
RTVSPropertyOp11
 70
     1
102
RTVSPropertyOp12
 70
     1
102
RTVSPropertyOp13
 70
     1
102
RTVSPropertyOp14
 70
     1
102
RTVSPropertyOp15
 70
     1
102
RTVSPropertyOp16
 70
     1
102
RTVSPropertyOp17
 70
     1
102
RTVSPropertyOp18
 70
     1
102
RTVSPropertyOp19
 70
     1
102
RTVSPropertyOp20
 70
     1
102
RTVSPropertyOp21
 70
     1
102
RTVSPropertyOp22
 70
     1
102
RTVSPropertyOp23
 70
     1
102
RTVSPropertyOp24
 70
     1
102
RTVSPropertyOp25
 70
     1
102
RTVSPropertyOp26
 70
     1
102
RTVSPropertyOp27
 70
     1
102
RTVSPropertyOp28
 70
     1
102
RTVSPropertyOp29
 70
     1
102
RTVSPropertyOp30
 70
     1
102
RTVSPropertyOp31
 70
     1
102
RTVSPropertyOp32
 70
     1
102
RTVSPropertyOp33
 70
     1
102
RTVSPropertyOp34
 70
     1
102
RTVSPropertyOp35
 70
     1
102
RTVSPropertyOp36
 70
     1
102
RTVSPropertyOp37
 70
     1
102
RTVSPropertyOp38
 70
     1
102
RTVSPropertyOp39
 70
     1
102
RTVSPropertyOp40
 70
     1
102
RTVSPropertyOp41
 70
     1
102
RTVSPropertyOp42
 70
     1
102
RTVSPropertyOp43
 70
     1
102
RTVSPropertyOp44
 70
     1
102
RTVSPropertyOp45
 70
     1
102
RTVSPropertyOp46
 70
     1
102
RTVSPropertyOp47
 70
     1
102
RTVSPropertyOp48
 70
     1
102
RTVSPropertyOp49
 70
     1
102
RTVSPropertyOp50
 70
     1
102
RTVSPropertyOp51
 70
     0
102
RTVSPropertyOp52
 70
     0
102
RTVSPropertyOp53
 70
     1
102
RTVSPropertyOp54
 70
     1
102
RTVSPropertyOp55
 70
     1
102
RTVSPropertyOp56
 70
     1
102
RTVSPropertyOp57
 70
     1
102
RTVSPropertyOp58
 70
     1
102
RTVSPropertyOp59
 70
     1
102
RTVSPropertyOp60
 70
     1
102
RTVSPropertyOp61
 70
     1
102
RTVSPropertyOp62
 70
     1
  0
XRECORD
  5
8E3
102
{ACAD_REACTORS
330
8E2
102
}
330
8E2
100
AcDbXrecord
280
     1
102
RTVSPost2010Prop28
280
     0
102
RTVSPost2010PropOp28
 70
     1
102
RTVSPost2010Prop29
280
     1
102
RTVSPost2010PropOp29
 70
     1
102
RTVSPost2010Prop30
280
     1
102
RTVSPost2010PropOp30
 70
     1
102
RTVSPost2010Prop31
280
     0
102
RTVSPost2010PropOp31
 70
     1
102
RTVSPost2010Prop32
280
     0
102
RTVSPost2010PropOp32
 70
     1
102
RTVSPost2010Prop33
280
     0
102
RTVSPost2010PropOp33
 70
     1
102
RTVSPost2010Prop34
280
     0
102
RTVSPost2010PropOp34
 70
     1
102
RTVSPost2010Prop35
280
     0
102
RTVSPost2010PropOp35
 70
     1
102
RTVSPost2010Prop36
280
     0
102
RTVSPost2010PropOp36
 70
     1
102
RTVSPost2010Prop37
 90
       50
102
RTVSPost2010PropOp37
 70
     1
102
RTVSPost2010Prop38
140
0.0
102
RTVSPost2010PropOp38
 70
     1
102
RTVSPost2010Prop39
140
1.0
102
RTVSPost2010PropOp39
 70
     1
102
RTVSPost2010Prop40
 90
        0
102
RTVSPost2010PropOp40
 70
     1
102
RTVSPost2010Prop41ColorIndex
 90
       18
102
RTVSPost2010Prop41ColorRGB
 90
        0
102
RTVSPost2010PropOp41
 70
     1
102
RTVSPost2010Prop42
 90
       50
102
RTVSPost2010PropOp42
 70
     1
102
RTVSPost2010Prop43
 90
        3
102
RTVSPost2010PropOp43
 70
     1
102
RTVSPost2010Prop44ColorIndex
 90
        5
102
RTVSPost2010Prop44ColorRGB
 90
      255
102
RTVSPost2010PropOp44
 70
     1
102
RTVSPost2010Prop45
280
     0
102
RTVSPost2010PropOp45
 70
     1
102
RTVSPost2010Prop46
 90
       50
102
RTVSPost2010PropOp46
 70
     1
102
RTVSPost2010Prop47
 90
       50
102
RTVSPost2010PropOp47
 70
     1
102
RTVSPost2010Prop48
 90
       50
102
RTVSPost2010PropOp48
 70
     1
102
RTVSPost2010Prop49
280
     0
102
RTVSPost2010PropOp49
 70
     1
102
RTVSPost2010Prop50
 90
       50
102
RTVSPost2010PropOp50
 70
     1
102
RTVSPost2010Prop51ColorIndex
 90
      256
102
RTVSPost2010Prop51ColorRGB
 90
-16777216
102
RTVSPost2010PropOp51
 70
     0
102
RTVSPost2010Prop52
140
1.0
102
RTVSPost2010PropOp52
 70
     0
102
RTVSPost2010Prop53
 90
        2
102
RTVSPost2010PropOp53
 70
     1
102
RTVSPost2010Prop54
  1
strokes_ogs.tif
102
RTVSPost2010PropOp54
 70
     1
102
RTVSPost2010Prop55
280
     0
102
RTVSPost2010PropOp55
 70
     1
102
RTVSPost2010Prop56
140
1.0
102
RTVSPost2010PropOp56
 70
     1
102
RTVSPost2010Prop57
140
1.0
102
RTVSPost2010PropOp57
 70
     1
102
RTVSPropertyOp0
 70
     1
102
RTVSPropertyOp1
 70
     1
102
RTVSPropertyOp2
 70
     1
102
RTVSPropertyOp3
 70
     1
102
RTVSPropertyOp4
 70
     1
102
RTVSPropertyOp5
 70
     1
102
RTVSPropertyOp6
 70
     1
102
RTVSPropertyOp7
 70
     1
102
RTVSPropertyOp8
 70
     1
102
RTVSPropertyOp9
 70
     1
102
RTVSPropertyOp10
 70
     1
102
RTVSPropertyOp11
 70
     1
102
RTVSPropertyOp12
 70
     1
102
RTVSPropertyOp13
 70
     1
102
RTVSPropertyOp14
 70
     1
102
RTVSPropertyOp15
 70
     1
102
RTVSPropertyOp16
 70
     1
102
RTVSPropertyOp17
 70
     1
102
RTVSPropertyOp18
 70
     1
102
RTVSPropertyOp19
 70
     1
102
RTVSPropertyOp20
 70
     1
102
RTVSPropertyOp21
 70
     1
102
RTVSPropertyOp22
 70
     1
102
RTVSPropertyOp23
 70
     1
102
RTVSPropertyOp24
 70
     1
102
RTVSPropertyOp25
 70
     1
102
RTVSPropertyOp26
 70
     1
102
RTVSPropertyOp27
 70
     1
102
RTVSPropertyOp28
 70
     1
102
RTVSPropertyOp29
 70
     1
102
RTVSPropertyOp30
 70
     1
102
RTVSPropertyOp31
 70
     1
102
RTVSPropertyOp32
 70
     1
102
RTVSPropertyOp33
 70
     1
102
RTVSPropertyOp34
 70
     1
102
RTVSPropertyOp35
 70
     1
102
RTVSPropertyOp36
 70
     1
102
RTVSPropertyOp37
 70
     1
102
RTVSPropertyOp38
 70
     1
102
RTVSPropertyOp39
 70
     1
102
RTVSPropertyOp40
 70
     1
102
RTVSPropertyOp41
 70
     1
102
RTVSPropertyOp42
 70
     1
102
RTVSPropertyOp43
 70
     1
102
RTVSPropertyOp44
 70
     1
102
RTVSPropertyOp45
 70
     1
102
RTVSPropertyOp46
 70
     1
102
RTVSPropertyOp47
 70
     1
102
RTVSPropertyOp48
 70
     1
102
RTVSPropertyOp49
 70
     1
102
RTVSPropertyOp50
 70
     1
102
RTVSPropertyOp51
 70
     0
102
RTVSPropertyOp52
 70
     0
102
RTVSPropertyOp53
 70
     1
102
RTVSPropertyOp54
 70
     1
102
RTVSPropertyOp55
 70
     1
102
RTVSPropertyOp56
 70
     1
102
RTVSPropertyOp57
 70
     1
102
RTVSPropertyOp58
 70
     1
102
RTVSPropertyOp59
 70
     1
102
RTVSPropertyOp60
 70
     1
102
RTVSPropertyOp61
 70
     1
102
RTVSPropertyOp62
 70
     1
  0
XRECORD
  5
8E5
102
{ACAD_REACTORS
330
8E4
102
}
330
8E4
100
AcDbXrecord
280
     1
102
RTVSPost2010Prop28
280
     0
102
RTVSPost2010PropOp28
 70
     1
102
RTVSPost2010Prop29
280
     1
102
RTVSPost2010PropOp29
 70
     1
102
RTVSPost2010Prop30
280
     1
102
RTVSPost2010PropOp30
 70
     1
102
RTVSPost2010Prop31
280
     0
102
RTVSPost2010PropOp31
 70
     1
102
RTVSPost2010Prop32
280
     0
102
RTVSPost2010PropOp32
 70
     1
102
RTVSPost2010Prop33
280
     0
102
RTVSPost2010PropOp33
 70
     1
102
RTVSPost2010Prop34
280
     0
102
RTVSPost2010PropOp34
 70
     1
102
RTVSPost2010Prop35
280
     0
102
RTVSPost2010PropOp35
 70
     1
102
RTVSPost2010Prop36
280
     0
102
RTVSPost2010PropOp36
 70
     1
102
RTVSPost2010Prop37
 90
       50
102
RTVSPost2010PropOp37
 70
     1
102
RTVSPost2010Prop38
140
0.0
102
RTVSPost2010PropOp38
 70
     1
102
RTVSPost2010Prop39
140
1.0
102
RTVSPost2010PropOp39
 70
     1
102
RTVSPost2010Prop40
 90
        0
102
RTVSPost2010PropOp40
 70
     1
102
RTVSPost2010Prop41ColorIndex
 90
       18
102
RTVSPost2010Prop41ColorRGB
 90
        0
102
RTVSPost2010PropOp41
 70
     1
102
RTVSPost2010Prop42
 90
       50
102
RTVSPost2010PropOp42
 70
     1
102
RTVSPost2010Prop43
 90
        3
102
RTVSPost2010PropOp43
 70
     1
102
RTVSPost2010Prop44ColorIndex
 90
        5
102
RTVSPost2010Prop44ColorRGB
 90
      255
102
RTVSPost2010PropOp44
 70
     1
102
RTVSPost2010Prop45
280
     0
102
RTVSPost2010PropOp45
 70
     1
102
RTVSPost2010Prop46
 90
       50
102
RTVSPost2010PropOp46
 70
     1
102
RTVSPost2010Prop47
 90
       50
102
RTVSPost2010PropOp47
 70
     1
102
RTVSPost2010Prop48
 90
       50
102
RTVSPost2010PropOp48
 70
     1
102
RTVSPost2010Prop49
280
     0
102
RTVSPost2010PropOp49
 70
     1
102
RTVSPost2010Prop50
 90
       50
102
RTVSPost2010PropOp50
 70
     1
102
RTVSPost2010Prop51ColorIndex
 90
      256
102
RTVSPost2010Prop51ColorRGB
 90
-16777216
102
RTVSPost2010PropOp51
 70
     0
102
RTVSPost2010Prop52
140
1.0
102
RTVSPost2010PropOp52
 70
     0
102
RTVSPost2010Prop53
 90
        2
102
RTVSPost2010PropOp53
 70
     1
102
RTVSPost2010Prop54
  1
strokes_ogs.tif
102
RTVSPost2010PropOp54
 70
     1
102
RTVSPost2010Prop55
280
     0
102
RTVSPost2010PropOp55
 70
     1
102
RTVSPost2010Prop56
140
1.0
102
RTVSPost2010PropOp56
 70
     1
102
RTVSPost2010Prop57
140
1.0
102
RTVSPost2010PropOp57
 70
     1
102
RTVSPropertyOp0
 70
     1
102
RTVSPropertyOp1
 70
     1
102
RTVSPropertyOp2
 70
     1
102
RTVSPropertyOp3
 70
     1
102
RTVSPropertyOp4
 70
     1
102
RTVSPropertyOp5
 70
     1
102
RTVSPropertyOp6
 70
     1
102
RTVSPropertyOp7
 70
     1
102
RTVSPropertyOp8
 70
     1
102
RTVSPropertyOp9
 70
     1
102
RTVSPropertyOp10
 70
     1
102
RTVSPropertyOp11
 70
     1
102
RTVSPropertyOp12
 70
     1
102
RTVSPropertyOp13
 70
     1
102
RTVSPropertyOp14
 70
     1
102
RTVSPropertyOp15
 70
     1
102
RTVSPropertyOp16
 70
     1
102
RTVSPropertyOp17
 70
     1
102
RTVSPropertyOp18
 70
     1
102
RTVSPropertyOp19
 70
     1
102
RTVSPropertyOp20
 70
     1
102
RTVSPropertyOp21
 70
     1
102
RTVSPropertyOp22
 70
     1
102
RTVSPropertyOp23
 70
     1
102
RTVSPropertyOp24
 70
     1
102
RTVSPropertyOp25
 70
     1
102
RTVSPropertyOp26
 70
     1
102
RTVSPropertyOp27
 70
     1
102
RTVSPropertyOp28
 70
     1
102
RTVSPropertyOp29
 70
     1
102
RTVSPropertyOp30
 70
     1
102
RTVSPropertyOp31
 70
     1
102
RTVSPropertyOp32
 70
     1
102
RTVSPropertyOp33
 70
     1
102
RTVSPropertyOp34
 70
     1
102
RTVSPropertyOp35
 70
     1
102
RTVSPropertyOp36
 70
     1
102
RTVSPropertyOp37
 70
     1
102
RTVSPropertyOp38
 70
     1
102
RTVSPropertyOp39
 70
     1
102
RTVSPropertyOp40
 70
     1
102
RTVSPropertyOp41
 70
     1
102
RTVSPropertyOp42
 70
     1
102
RTVSPropertyOp43
 70
     1
102
RTVSPropertyOp44
 70
     1
102
RTVSPropertyOp45
 70
     1
102
RTVSPropertyOp46
 70
     1
102
RTVSPropertyOp47
 70
     1
102
RTVSPropertyOp48
 70
     1
102
RTVSPropertyOp49
 70
     1
102
RTVSPropertyOp50
 70
     1
102
RTVSPropertyOp51
 70
     0
102
RTVSPropertyOp52
 70
     0
102
RTVSPropertyOp53
 70
     1
102
RTVSPropertyOp54
 70
     1
102
RTVSPropertyOp55
 70
     1
102
RTVSPropertyOp56
 70
     1
102
RTVSPropertyOp57
 70
     1
102
RTVSPropertyOp58
 70
     1
102
RTVSPropertyOp59
 70
     1
102
RTVSPropertyOp60
 70
     1
102
RTVSPropertyOp61
 70
     1
102
RTVSPropertyOp62
 70
     1
  0
XRECORD
  5
8E7
102
{ACAD_REACTORS
330
8E6
102
}
330
8E6
100
AcDbXrecord
280
     1
102
RTVSPost2010Prop28
280
     0
102
RTVSPost2010PropOp28
 70
     1
102
RTVSPost2010Prop29
280
     1
102
RTVSPost2010PropOp29
 70
     1
102
RTVSPost2010Prop30
280
     1
102
RTVSPost2010PropOp30
 70
     1
102
RTVSPost2010Prop31
280
     0
102
RTVSPost2010PropOp31
 70
     1
102
RTVSPost2010Prop32
280
     0
102
RTVSPost2010PropOp32
 70
     1
102
RTVSPost2010Prop33
280
     0
102
RTVSPost2010PropOp33
 70
     1
102
RTVSPost2010Prop34
280
     0
102
RTVSPost2010PropOp34
 70
     1
102
RTVSPost2010Prop35
280
     0
102
RTVSPost2010PropOp35
 70
     1
102
RTVSPost2010Prop36
280
     0
102
RTVSPost2010PropOp36
 70
     1
102
RTVSPost2010Prop37
 90
       50
102
RTVSPost2010PropOp37
 70
     1
102
RTVSPost2010Prop38
140
0.0
102
RTVSPost2010PropOp38
 70
     1
102
RTVSPost2010Prop39
140
1.0
102
RTVSPost2010PropOp39
 70
     1
102
RTVSPost2010Prop40
 90
        0
102
RTVSPost2010PropOp40
 70
     1
102
RTVSPost2010Prop41ColorIndex
 90
       18
102
RTVSPost2010Prop41ColorRGB
 90
        0
102
RTVSPost2010PropOp41
 70
     1
102
RTVSPost2010Prop42
 90
       50
102
RTVSPost2010PropOp42
 70
     1
102
RTVSPost2010Prop43
 90
        3
102
RTVSPost2010PropOp43
 70
     1
102
RTVSPost2010Prop44ColorIndex
 90
        5
102
RTVSPost2010Prop44ColorRGB
 90
      255
102
RTVSPost2010PropOp44
 70
     1
102
RTVSPost2010Prop45
280
     0
102
RTVSPost2010PropOp45
 70
     1
102
RTVSPost2010Prop46
 90
       50
102
RTVSPost2010PropOp46
 70
     1
102
RTVSPost2010Prop47
 90
       50
102
RTVSPost2010PropOp47
 70
     1
102
RTVSPost2010Prop48
 90
       50
102
RTVSPost2010PropOp48
 70
     1
102
RTVSPost2010Prop49
280
     0
102
RTVSPost2010PropOp49
 70
     1
102
RTVSPost2010Prop50
 90
       50
102
RTVSPost2010PropOp50
 70
     1
102
RTVSPost2010Prop51ColorIndex
 90
      256
102
RTVSPost2010Prop51ColorRGB
 90
-16777216
102
RTVSPost2010PropOp51
 70
     0
102
RTVSPost2010Prop52
140
1.0
102
RTVSPost2010PropOp52
 70
     0
102
RTVSPost2010Prop53
 90
        2
102
RTVSPost2010PropOp53
 70
     1
102
RTVSPost2010Prop54
  1
strokes_ogs.tif
102
RTVSPost2010PropOp54
 70
     1
102
RTVSPost2010Prop55
280
     0
102
RTVSPost2010PropOp55
 70
     1
102
RTVSPost2010Prop56
140
1.0
102
RTVSPost2010PropOp56
 70
     1
102
RTVSPost2010Prop57
140
1.0
102
RTVSPost2010PropOp57
 70
     1
102
RTVSPropertyOp0
 70
     1
102
RTVSPropertyOp1
 70
     1
102
RTVSPropertyOp2
 70
     1
102
RTVSPropertyOp3
 70
     1
102
RTVSPropertyOp4
 70
     1
102
RTVSPropertyOp5
 70
     1
102
RTVSPropertyOp6
 70
     1
102
RTVSPropertyOp7
 70
     1
102
RTVSPropertyOp8
 70
     1
102
RTVSPropertyOp9
 70
     1
102
RTVSPropertyOp10
 70
     1
102
RTVSPropertyOp11
 70
     1
102
RTVSPropertyOp12
 70
     1
102
RTVSPropertyOp13
 70
     1
102
RTVSPropertyOp14
 70
     1
102
RTVSPropertyOp15
 70
     1
102
RTVSPropertyOp16
 70
     1
102
RTVSPropertyOp17
 70
     1
102
RTVSPropertyOp18
 70
     1
102
RTVSPropertyOp19
 70
     1
102
RTVSPropertyOp20
 70
     1
102
RTVSPropertyOp21
 70
     1
102
RTVSPropertyOp22
 70
     1
102
RTVSPropertyOp23
 70
     1
102
RTVSPropertyOp24
 70
     1
102
RTVSPropertyOp25
 70
     1
102
RTVSPropertyOp26
 70
     1
102
RTVSPropertyOp27
 70
     1
102
RTVSPropertyOp28
 70
     1
102
RTVSPropertyOp29
 70
     1
102
RTVSPropertyOp30
 70
     1
102
RTVSPropertyOp31
 70
     1
102
RTVSPropertyOp32
 70
     1
102
RTVSPropertyOp33
 70
     1
102
RTVSPropertyOp34
 70
     1
102
RTVSPropertyOp35
 70
     1
102
RTVSPropertyOp36
 70
     1
102
RTVSPropertyOp37
 70
     1
102
RTVSPropertyOp38
 70
     1
102
RTVSPropertyOp39
 70
     1
102
RTVSPropertyOp40
 70
     1
102
RTVSPropertyOp41
 70
     1
102
RTVSPropertyOp42
 70
     1
102
RTVSPropertyOp43
 70
     1
102
RTVSPropertyOp44
 70
     1
102
RTVSPropertyOp45
 70
     1
102
RTVSPropertyOp46
 70
     1
102
RTVSPropertyOp47
 70
     1
102
RTVSPropertyOp48
 70
     1
102
RTVSPropertyOp49
 70
     1
102
RTVSPropertyOp50
 70
     1
102
RTVSPropertyOp51
 70
     0
102
RTVSPropertyOp52
 70
     0
102
RTVSPropertyOp53
 70
     1
102
RTVSPropertyOp54
 70
     1
102
RTVSPropertyOp55
 70
     1
102
RTVSPropertyOp56
 70
     1
102
RTVSPropertyOp57
 70
     1
102
RTVSPropertyOp58
 70
     1
102
RTVSPropertyOp59
 70
     1
102
RTVSPropertyOp60
 70
     1
102
RTVSPropertyOp61
 70
     1
102
RTVSPropertyOp62
 70
     1
  0
XRECORD
  5
8E9
102
{ACAD_REACTORS
330
8E8
102
}
330
8E8
100
AcDbXrecord
280
     1
102
RTVSPost2010Prop28
280
     0
102
RTVSPost2010PropOp28
 70
     1
102
RTVSPost2010Prop29
280
     1
102
RTVSPost2010PropOp29
 70
     1
102
RTVSPost2010Prop30
280
     1
102
RTVSPost2010PropOp30
 70
     1
102
RTVSPost2010Prop31
280
     0
102
RTVSPost2010PropOp31
 70
     1
102
RTVSPost2010Prop32
280
     0
102
RTVSPost2010PropOp32
 70
     1
102
RTVSPost2010Prop33
280
     0
102
RTVSPost2010PropOp33
 70
     1
102
RTVSPost2010Prop34
280
     0
102
RTVSPost2010PropOp34
 70
     1
102
RTVSPost2010Prop35
280
     0
102
RTVSPost2010PropOp35
 70
     1
102
RTVSPost2010Prop36
280
     0
102
RTVSPost2010PropOp36
 70
     1
102
RTVSPost2010Prop37
 90
       50
102
RTVSPost2010PropOp37
 70
     1
102
RTVSPost2010Prop38
140
0.0
102
RTVSPost2010PropOp38
 70
     1
102
RTVSPost2010Prop39
140
1.0
102
RTVSPost2010PropOp39
 70
     1
102
RTVSPost2010Prop40
 90
        0
102
RTVSPost2010PropOp40
 70
     1
102
RTVSPost2010Prop41ColorIndex
 90
       18
102
RTVSPost2010Prop41ColorRGB
 90
        0
102
RTVSPost2010PropOp41
 70
     1
102
RTVSPost2010Prop42
 90
       50
102
RTVSPost2010PropOp42
 70
     1
102
RTVSPost2010Prop43
 90
        3
102
RTVSPost2010PropOp43
 70
     1
102
RTVSPost2010Prop44ColorIndex
 90
        5
102
RTVSPost2010Prop44ColorRGB
 90
      255
102
RTVSPost2010PropOp44
 70
     1
102
RTVSPost2010Prop45
280
     0
102
RTVSPost2010PropOp45
 70
     1
102
RTVSPost2010Prop46
 90
       50
102
RTVSPost2010PropOp46
 70
     1
102
RTVSPost2010Prop47
 90
       50
102
RTVSPost2010PropOp47
 70
     1
102
RTVSPost2010Prop48
 90
       50
102
RTVSPost2010PropOp48
 70
     1
102
RTVSPost2010Prop49
280
     0
102
RTVSPost2010PropOp49
 70
     1
102
RTVSPost2010Prop50
 90
       50
102
RTVSPost2010PropOp50
 70
     1
102
RTVSPost2010Prop51ColorIndex
 90
      256
102
RTVSPost2010Prop51ColorRGB
 90
-16777216
102
RTVSPost2010PropOp51
 70
     0
102
RTVSPost2010Prop52
140
1.0
102
RTVSPost2010PropOp52
 70
     0
102
RTVSPost2010Prop53
 90
        2
102
RTVSPost2010PropOp53
 70
     1
102
RTVSPost2010Prop54
  1
strokes_ogs.tif
102
RTVSPost2010PropOp54
 70
     1
102
RTVSPost2010Prop55
280
     0
102
RTVSPost2010PropOp55
 70
     1
102
RTVSPost2010Prop56
140
1.0
102
RTVSPost2010PropOp56
 70
     1
102
RTVSPost2010Prop57
140
1.0
102
RTVSPost2010PropOp57
 70
     1
102
RTVSPropertyOp0
 70
     1
102
RTVSPropertyOp1
 70
     1
102
RTVSPropertyOp2
 70
     1
102
RTVSPropertyOp3
 70
     1
102
RTVSPropertyOp4
 70
     1
102
RTVSPropertyOp5
 70
     1
102
RTVSPropertyOp6
 70
     1
102
RTVSPropertyOp7
 70
     1
102
RTVSPropertyOp8
 70
     1
102
RTVSPropertyOp9
 70
     1
102
RTVSPropertyOp10
 70
     1
102
RTVSPropertyOp11
 70
     1
102
RTVSPropertyOp12
 70
     1
102
RTVSPropertyOp13
 70
     1
102
RTVSPropertyOp14
 70
     1
102
RTVSPropertyOp15
 70
     1
102
RTVSPropertyOp16
 70
     1
102
RTVSPropertyOp17
 70
     1
102
RTVSPropertyOp18
 70
     1
102
RTVSPropertyOp19
 70
     1
102
RTVSPropertyOp20
 70
     1
102
RTVSPropertyOp21
 70
     1
102
RTVSPropertyOp22
 70
     1
102
RTVSPropertyOp23
 70
     1
102
RTVSPropertyOp24
 70
     1
102
RTVSPropertyOp25
 70
     1
102
RTVSPropertyOp26
 70
     1
102
RTVSPropertyOp27
 70
     1
102
RTVSPropertyOp28
 70
     1
102
RTVSPropertyOp29
 70
     1
102
RTVSPropertyOp30
 70
     1
102
RTVSPropertyOp31
 70
     1
102
RTVSPropertyOp32
 70
     1
102
RTVSPropertyOp33
 70
     1
102
RTVSPropertyOp34
 70
     1
102
RTVSPropertyOp35
 70
     1
102
RTVSPropertyOp36
 70
     1
102
RTVSPropertyOp37
 70
     1
102
RTVSPropertyOp38
 70
     1
102
RTVSPropertyOp39
 70
     1
102
RTVSPropertyOp40
 70
     1
102
RTVSPropertyOp41
 70
     1
102
RTVSPropertyOp42
 70
     1
102
RTVSPropertyOp43
 70
     1
102
RTVSPropertyOp44
 70
     1
102
RTVSPropertyOp45
 70
     1
102
RTVSPropertyOp46
 70
     1
102
RTVSPropertyOp47
 70
     1
102
RTVSPropertyOp48
 70
     1
102
RTVSPropertyOp49
 70
     1
102
RTVSPropertyOp50
 70
     1
102
RTVSPropertyOp51
 70
     0
102
RTVSPropertyOp52
 70
     0
102
RTVSPropertyOp53
 70
     1
102
RTVSPropertyOp54
 70
     1
102
RTVSPropertyOp55
 70
     1
102
RTVSPropertyOp56
 70
     1
102
RTVSPropertyOp57
 70
     1
102
RTVSPropertyOp58
 70
     1
102
RTVSPropertyOp59
 70
     1
102
RTVSPropertyOp60
 70
     1
102
RTVSPropertyOp61
 70
     1
102
RTVSPropertyOp62
 70
     1
  0
XRECORD
  5
8F1
102
{ACAD_REACTORS
330
8F0
102
}
330
8F0
100
AcDbXrecord
280
     1
102
RTVSPost2010Prop28
280
     0
102
RTVSPost2010PropOp28
 70
     1
102
RTVSPost2010Prop29
280
     1
102
RTVSPost2010PropOp29
 70
     1
102
RTVSPost2010Prop30
280
     1
102
RTVSPost2010PropOp30
 70
     1
102
RTVSPost2010Prop31
280
     0
102
RTVSPost2010PropOp31
 70
     1
102
RTVSPost2010Prop32
280
     0
102
RTVSPost2010PropOp32
 70
     1
102
RTVSPost2010Prop33
280
     0
102
RTVSPost2010PropOp33
 70
     1
102
RTVSPost2010Prop34
280
     0
102
RTVSPost2010PropOp34
 70
     1
102
RTVSPost2010Prop35
280
     0
102
RTVSPost2010PropOp35
 70
     1
102
RTVSPost2010Prop36
280
     0
102
RTVSPost2010PropOp36
 70
     1
102
RTVSPost2010Prop37
 90
       50
102
RTVSPost2010PropOp37
 70
     1
102
RTVSPost2010Prop38
140
0.0
102
RTVSPost2010PropOp38
 70
     1
102
RTVSPost2010Prop39
140
1.0
102
RTVSPost2010PropOp39
 70
     1
102
RTVSPost2010Prop40
 90
        0
102
RTVSPost2010PropOp40
 70
     1
102
RTVSPost2010Prop41ColorIndex
 90
       18
102
RTVSPost2010Prop41ColorRGB
 90
        0
102
RTVSPost2010PropOp41
 70
     1
102
RTVSPost2010Prop42
 90
       50
102
RTVSPost2010PropOp42
 70
     1
102
RTVSPost2010Prop43
 90
        3
102
RTVSPost2010PropOp43
 70
     1
102
RTVSPost2010Prop44ColorIndex
 90
        5
102
RTVSPost2010Prop44ColorRGB
 90
      255
102
RTVSPost2010PropOp44
 70
     1
102
RTVSPost2010Prop45
280
     0
102
RTVSPost2010PropOp45
 70
     1
102
RTVSPost2010Prop46
 90
       50
102
RTVSPost2010PropOp46
 70
     1
102
RTVSPost2010Prop47
 90
       50
102
RTVSPost2010PropOp47
 70
     1
102
RTVSPost2010Prop48
 90
       50
102
RTVSPost2010PropOp48
 70
     1
102
RTVSPost2010Prop49
280
     0
102
RTVSPost2010PropOp49
 70
     1
102
RTVSPost2010Prop50
 90
       50
102
RTVSPost2010PropOp50
 70
     1
102
RTVSPost2010Prop51ColorIndex
 90
      256
102
RTVSPost2010Prop51ColorRGB
 90
-16777216
102
RTVSPost2010PropOp51
 70
     0
102
RTVSPost2010Prop52
140
1.0
102
RTVSPost2010PropOp52
 70
     0
102
RTVSPost2010Prop53
 90
        2
102
RTVSPost2010PropOp53
 70
     1
102
RTVSPost2010Prop54
  1
strokes_ogs.tif
102
RTVSPost2010PropOp54
 70
     1
102
RTVSPost2010Prop55
280
     0
102
RTVSPost2010PropOp55
 70
     1
102
RTVSPost2010Prop56
140
1.0
102
RTVSPost2010PropOp56
 70
     1
102
RTVSPost2010Prop57
140
1.0
102
RTVSPost2010PropOp57
 70
     1
102
RTVSPropertyOp0
 70
     1
102
RTVSPropertyOp1
 70
     1
102
RTVSPropertyOp2
 70
     1
102
RTVSPropertyOp3
 70
     1
102
RTVSPropertyOp4
 70
     1
102
RTVSPropertyOp5
 70
     1
102
RTVSPropertyOp6
 70
     1
102
RTVSPropertyOp7
 70
     1
102
RTVSPropertyOp8
 70
     1
102
RTVSPropertyOp9
 70
     1
102
RTVSPropertyOp10
 70
     1
102
RTVSPropertyOp11
 70
     1
102
RTVSPropertyOp12
 70
     1
102
RTVSPropertyOp13
 70
     1
102
RTVSPropertyOp14
 70
     1
102
RTVSPropertyOp15
 70
     1
102
RTVSPropertyOp16
 70
     1
102
RTVSPropertyOp17
 70
     1
102
RTVSPropertyOp18
 70
     1
102
RTVSPropertyOp19
 70
     1
102
RTVSPropertyOp20
 70
     1
102
RTVSPropertyOp21
 70
     1
102
RTVSPropertyOp22
 70
     1
102
RTVSPropertyOp23
 70
     1
102
RTVSPropertyOp24
 70
     1
102
RTVSPropertyOp25
 70
     1
102
RTVSPropertyOp26
 70
     1
102
RTVSPropertyOp27
 70
     1
102
RTVSPropertyOp28
 70
     1
102
RTVSPropertyOp29
 70
     1
102
RTVSPropertyOp30
 70
     1
102
RTVSPropertyOp31
 70
     1
102
RTVSPropertyOp32
 70
     1
102
RTVSPropertyOp33
 70
     1
102
RTVSPropertyOp34
 70
     1
102
RTVSPropertyOp35
 70
     1
102
RTVSPropertyOp36
 70
     1
102
RTVSPropertyOp37
 70
     1
102
RTVSPropertyOp38
 70
     1
102
RTVSPropertyOp39
 70
     1
102
RTVSPropertyOp40
 70
     1
102
RTVSPropertyOp41
 70
     1
102
RTVSPropertyOp42
 70
     1
102
RTVSPropertyOp43
 70
     1
102
RTVSPropertyOp44
 70
     1
102
RTVSPropertyOp45
 70
     1
102
RTVSPropertyOp46
 70
     1
102
RTVSPropertyOp47
 70
     1
102
RTVSPropertyOp48
 70
     1
102
RTVSPropertyOp49
 70
     1
102
RTVSPropertyOp50
 70
     1
102
RTVSPropertyOp51
 70
     0
102
RTVSPropertyOp52
 70
     0
102
RTVSPropertyOp53
 70
     1
102
RTVSPropertyOp54
 70
     1
102
RTVSPropertyOp55
 70
     1
102
RTVSPropertyOp56
 70
     1
102
RTVSPropertyOp57
 70
     1
102
RTVSPropertyOp58
 70
     1
102
RTVSPropertyOp59
 70
     1
102
RTVSPropertyOp60
 70
     1
102
RTVSPropertyOp61
 70
     1
102
RTVSPropertyOp62
 70
     1
  0
XRECORD
  5
90D
102
{ACAD_REACTORS
330
90C
102
}
330
90C
100
AcDbXrecord
280
     1
102
RTVSPost2010Prop28
280
     0
102
RTVSPost2010PropOp28
 70
     1
102
RTVSPost2010Prop29
280
     1
102
RTVSPost2010PropOp29
 70
     1
102
RTVSPost2010Prop30
280
     1
102
RTVSPost2010PropOp30
 70
     1
102
RTVSPost2010Prop31
280
     0
102
RTVSPost2010PropOp31
 70
     1
102
RTVSPost2010Prop32
280
     0
102
RTVSPost2010PropOp32
 70
     1
102
RTVSPost2010Prop33
280
     0
102
RTVSPost2010PropOp33
 70
     1
102
RTVSPost2010Prop34
280
     0
102
RTVSPost2010PropOp34
 70
     1
102
RTVSPost2010Prop35
280
     0
102
RTVSPost2010PropOp35
 70
     1
102
RTVSPost2010Prop36
280
     0
102
RTVSPost2010PropOp36
 70
     1
102
RTVSPost2010Prop37
 90
       50
102
RTVSPost2010PropOp37
 70
     0
102
RTVSPost2010Prop38
140
0.0
102
RTVSPost2010PropOp38
 70
     0
102
RTVSPost2010Prop39
140
1.0
102
RTVSPost2010PropOp39
 70
     0
102
RTVSPost2010Prop40
 90
        0
102
RTVSPost2010PropOp40
 70
     0
102
RTVSPost2010Prop41ColorIndex
 90
       18
102
RTVSPost2010Prop41ColorRGB
 90
        0
102
RTVSPost2010PropOp41
 70
     0
102
RTVSPost2010Prop42
 90
       50
102
RTVSPost2010PropOp42
 70
     0
102
RTVSPost2010Prop43
 90
        3
102
RTVSPost2010PropOp43
 70
     0
102
RTVSPost2010Prop44ColorIndex
 90
        5
102
RTVSPost2010Prop44ColorRGB
 90
      255
102
RTVSPost2010PropOp44
 70
     0
102
RTVSPost2010Prop45
280
     0
102
RTVSPost2010PropOp45
 70
     1
102
RTVSPost2010Prop46
 90
       50
102
RTVSPost2010PropOp46
 70
     0
102
RTVSPost2010Prop47
 90
       50
102
RTVSPost2010PropOp47
 70
     0
102
RTVSPost2010Prop48
 90
       50
102
RTVSPost2010PropOp48
 70
     0
102
RTVSPost2010Prop49
280
     0
102
RTVSPost2010PropOp49
 70
     1
102
RTVSPost2010Prop50
 90
       50
102
RTVSPost2010PropOp50
 70
     0
102
RTVSPost2010Prop51ColorIndex
 90
      256
102
RTVSPost2010Prop51ColorRGB
 90
-16777216
102
RTVSPost2010PropOp51
 70
     0
102
RTVSPost2010Prop52
140
1.0
102
RTVSPost2010PropOp52
 70
     0
102
RTVSPost2010Prop53
 90
        2
102
RTVSPost2010PropOp53
 70
     0
102
RTVSPost2010Prop54
  1
strokes_ogs.tif
102
RTVSPost2010PropOp54
 70
     0
102
RTVSPost2010Prop55
280
     0
102
RTVSPost2010PropOp55
 70
     1
102
RTVSPost2010Prop56
140
1.0
102
RTVSPost2010PropOp56
 70
     0
102
RTVSPost2010Prop57
140
1.0
102
RTVSPost2010PropOp57
 70
     0
102
RTVSPropertyOp0
 70
     0
102
RTVSPropertyOp1
 70
     0
102
RTVSPropertyOp2
 70
     0
102
RTVSPropertyOp3
 70
     0
102
RTVSPropertyOp4
 70
     0
102
RTVSPropertyOp5
 70
     0
102
RTVSPropertyOp6
 70
     0
102
RTVSPropertyOp7
 70
     0
102
RTVSPropertyOp8
 70
     0
102
RTVSPropertyOp9
 70
     0
102
RTVSPropertyOp10
 70
     0
102
RTVSPropertyOp11
 70
     0
102
RTVSPropertyOp12
 70
     0
102
RTVSPropertyOp13
 70
     0
102
RTVSPropertyOp14
 70
     2
102
RTVSPropertyOp15
 70
     0
102
RTVSPropertyOp16
 70
     0
102
RTVSPropertyOp17
 70
     0
102
RTVSPropertyOp18
 70
     0
102
RTVSPropertyOp19
 70
     0
102
RTVSPropertyOp20
 70
     0
102
RTVSPropertyOp21
 70
     0
102
RTVSPropertyOp22
 70
     0
102
RTVSPropertyOp23
 70
     0
102
RTVSPropertyOp24
 70
     0
102
RTVSPropertyOp25
 70
     0
102
RTVSPropertyOp26
 70
     0
102
RTVSPropertyOp27
 70
     0
102
RTVSPropertyOp28
 70
     1
102
RTVSPropertyOp29
 70
     1
102
RTVSPropertyOp30
 70
     1
102
RTVSPropertyOp31
 70
     1
102
RTVSPropertyOp32
 70
     1
102
RTVSPropertyOp33
 70
     1
102
RTVSPropertyOp34
 70
     1
102
RTVSPropertyOp35
 70
     1
102
RTVSPropertyOp36
 70
     1
102
RTVSPropertyOp37
 70
     0
102
RTVSPropertyOp38
 70
     0
102
RTVSPropertyOp39
 70
     0
102
RTVSPropertyOp40
 70
     0
102
RTVSPropertyOp41
 70
     0
102
RTVSPropertyOp42
 70
     0
102
RTVSPropertyOp43
 70
     0
102
RTVSPropertyOp44
 70
     0
102
RTVSPropertyOp45
 70
     1
102
RTVSPropertyOp46
 70
     0
102
RTVSPropertyOp47
 70
     0
102
RTVSPropertyOp48
 70
     0
102
RTVSPropertyOp49
 70
     1
102
RTVSPropertyOp50
 70
     0
102
RTVSPropertyOp51
 70
     0
102
RTVSPropertyOp52
 70
     0
102
RTVSPropertyOp53
 70
     0
102
RTVSPropertyOp54
 70
     0
102
RTVSPropertyOp55
 70
     1
102
RTVSPropertyOp56
 70
     0
102
RTVSPropertyOp57
 70
     0
102
RTVSPropertyOp58
 70
     1
102
RTVSPropertyOp59
 70
     1
102
RTVSPropertyOp60
 70
     1
102
RTVSPropertyOp61
 70
     1
102
RTVSPropertyOp62
 70
     1
  0
XRECORD
  5
8FD
102
{ACAD_REACTORS
330
8FC
102
}
330
8FC
100
AcDbXrecord
280
     1
102
RTVSPost2010Prop28
280
     0
102
RTVSPost2010PropOp28
 70
     1
102
RTVSPost2010Prop29
280
     1
102
RTVSPost2010PropOp29
 70
     1
102
RTVSPost2010Prop30
280
     1
102
RTVSPost2010PropOp30
 70
     1
102
RTVSPost2010Prop31
280
     0
102
RTVSPost2010PropOp31
 70
     1
102
RTVSPost2010Prop32
280
     0
102
RTVSPost2010PropOp32
 70
     1
102
RTVSPost2010Prop33
280
     0
102
RTVSPost2010PropOp33
 70
     1
102
RTVSPost2010Prop34
280
     0
102
RTVSPost2010PropOp34
 70
     1
102
RTVSPost2010Prop35
280
     0
102
RTVSPost2010PropOp35
 70
     1
102
RTVSPost2010Prop36
280
     0
102
RTVSPost2010PropOp36
 70
     1
102
RTVSPost2010Prop37
 90
       50
102
RTVSPost2010PropOp37
 70
     1
102
RTVSPost2010Prop38
140
0.0
102
RTVSPost2010PropOp38
 70
     1
102
RTVSPost2010Prop39
140
1.0
102
RTVSPost2010PropOp39
 70
     1
102
RTVSPost2010Prop40
 90
        0
102
RTVSPost2010PropOp40
 70
     1
102
RTVSPost2010Prop41ColorIndex
 90
       18
102
RTVSPost2010Prop41ColorRGB
 90
        0
102
RTVSPost2010PropOp41
 70
     1
102
RTVSPost2010Prop42
 90
       50
102
RTVSPost2010PropOp42
 70
     1
102
RTVSPost2010Prop43
 90
        3
102
RTVSPost2010PropOp43
 70
     1
102
RTVSPost2010Prop44ColorIndex
 90
        5
102
RTVSPost2010Prop44ColorRGB
 90
      255
102
RTVSPost2010PropOp44
 70
     1
102
RTVSPost2010Prop45
280
     0
102
RTVSPost2010PropOp45
 70
     1
102
RTVSPost2010Prop46
 90
       50
102
RTVSPost2010PropOp46
 70
     1
102
RTVSPost2010Prop47
 90
       50
102
RTVSPost2010PropOp47
 70
     1
102
RTVSPost2010Prop48
 90
       50
102
RTVSPost2010PropOp48
 70
     1
102
RTVSPost2010Prop49
280
     0
102
RTVSPost2010PropOp49
 70
     1
102
RTVSPost2010Prop50
 90
       50
102
RTVSPost2010PropOp50
 70
     1
102
RTVSPost2010Prop51ColorIndex
 90
      256
102
RTVSPost2010Prop51ColorRGB
 90
-16777216
102
RTVSPost2010PropOp51
 70
     0
102
RTVSPost2010Prop52
140
1.0
102
RTVSPost2010PropOp52
 70
     0
102
RTVSPost2010Prop53
 90
        2
102
RTVSPost2010PropOp53
 70
     1
102
RTVSPost2010Prop54
  1
strokes_ogs.tif
102
RTVSPost2010PropOp54
 70
     1
102
RTVSPost2010Prop55
280
     0
102
RTVSPost2010PropOp55
 70
     1
102
RTVSPost2010Prop56
140
1.0
102
RTVSPost2010PropOp56
 70
     1
102
RTVSPost2010Prop57
140
1.0
102
RTVSPost2010PropOp57
 70
     1
102
RTVSPropertyOp0
 70
     1
102
RTVSPropertyOp1
 70
     1
102
RTVSPropertyOp2
 70
     1
102
RTVSPropertyOp3
 70
     1
102
RTVSPropertyOp4
 70
     1
102
RTVSPropertyOp5
 70
     1
102
RTVSPropertyOp6
 70
     1
102
RTVSPropertyOp7
 70
     1
102
RTVSPropertyOp8
 70
     1
102
RTVSPropertyOp9
 70
     1
102
RTVSPropertyOp10
 70
     1
102
RTVSPropertyOp11
 70
     1
102
RTVSPropertyOp12
 70
     1
102
RTVSPropertyOp13
 70
     1
102
RTVSPropertyOp14
 70
     1
102
RTVSPropertyOp15
 70
     1
102
RTVSPropertyOp16
 70
     1
102
RTVSPropertyOp17
 70
     1
102
RTVSPropertyOp18
 70
     1
102
RTVSPropertyOp19
 70
     1
102
RTVSPropertyOp20
 70
     1
102
RTVSPropertyOp21
 70
     1
102
RTVSPropertyOp22
 70
     1
102
RTVSPropertyOp23
 70
     1
102
RTVSPropertyOp24
 70
     1
102
RTVSPropertyOp25
 70
     1
102
RTVSPropertyOp26
 70
     1
102
RTVSPropertyOp27
 70
     1
102
RTVSPropertyOp28
 70
     1
102
RTVSPropertyOp29
 70
     1
102
RTVSPropertyOp30
 70
     1
102
RTVSPropertyOp31
 70
     1
102
RTVSPropertyOp32
 70
     1
102
RTVSPropertyOp33
 70
     1
102
RTVSPropertyOp34
 70
     1
102
RTVSPropertyOp35
 70
     1
102
RTVSPropertyOp36
 70
     1
102
RTVSPropertyOp37
 70
     1
102
RTVSPropertyOp38
 70
     1
102
RTVSPropertyOp39
 70
     1
102
RTVSPropertyOp40
 70
     1
102
RTVSPropertyOp41
 70
     1
102
RTVSPropertyOp42
 70
     1
102
RTVSPropertyOp43
 70
     1
102
RTVSPropertyOp44
 70
     1
102
RTVSPropertyOp45
 70
     1
102
RTVSPropertyOp46
 70
     1
102
RTVSPropertyOp47
 70
     1
102
RTVSPropertyOp48
 70
     1
102
RTVSPropertyOp49
 70
     1
102
RTVSPropertyOp50
 70
     1
102
RTVSPropertyOp51
 70
     0
102
RTVSPropertyOp52
 70
     0
102
RTVSPropertyOp53
 70
     1
102
RTVSPropertyOp54
 70
     1
102
RTVSPropertyOp55
 70
     1
102
RTVSPropertyOp56
 70
     1
102
RTVSPropertyOp57
 70
     1
102
RTVSPropertyOp58
 70
     1
102
RTVSPropertyOp59
 70
     1
102
RTVSPropertyOp60
 70
     1
102
RTVSPropertyOp61
 70
     1
102
RTVSPropertyOp62
 70
     1
  0
XRECORD
  5
90F
102
{ACAD_REACTORS
330
90E
102
}
330
90E
100
AcDbXrecord
280
     1
102
RTVSPost2010Prop28
280
     0
102
RTVSPost2010PropOp28
 70
     1
102
RTVSPost2010Prop29
280
     1
102
RTVSPost2010PropOp29
 70
     1
102
RTVSPost2010Prop30
280
     1
102
RTVSPost2010PropOp30
 70
     1
102
RTVSPost2010Prop31
280
     0
102
RTVSPost2010PropOp31
 70
     1
102
RTVSPost2010Prop32
280
     0
102
RTVSPost2010PropOp32
 70
     1
102
RTVSPost2010Prop33
280
     0
102
RTVSPost2010PropOp33
 70
     1
102
RTVSPost2010Prop34
280
     0
102
RTVSPost2010PropOp34
 70
     1
102
RTVSPost2010Prop35
280
     0
102
RTVSPost2010PropOp35
 70
     1
102
RTVSPost2010Prop36
280
     0
102
RTVSPost2010PropOp36
 70
     1
102
RTVSPost2010Prop37
 90
       50
102
RTVSPost2010PropOp37
 70
     0
102
RTVSPost2010Prop38
140
0.0
102
RTVSPost2010PropOp38
 70
     0
102
RTVSPost2010Prop39
140
1.0
102
RTVSPost2010PropOp39
 70
     0
102
RTVSPost2010Prop40
 90
        0
102
RTVSPost2010PropOp40
 70
     0
102
RTVSPost2010Prop41ColorIndex
 90
       18
102
RTVSPost2010Prop41ColorRGB
 90
        0
102
RTVSPost2010PropOp41
 70
     0
102
RTVSPost2010Prop42
 90
       50
102
RTVSPost2010PropOp42
 70
     0
102
RTVSPost2010Prop43
 90
        3
102
RTVSPost2010PropOp43
 70
     0
102
RTVSPost2010Prop44ColorIndex
 90
        5
102
RTVSPost2010Prop44ColorRGB
 90
      255
102
RTVSPost2010PropOp44
 70
     0
102
RTVSPost2010Prop45
280
     0
102
RTVSPost2010PropOp45
 70
     1
102
RTVSPost2010Prop46
 90
       50
102
RTVSPost2010PropOp46
 70
     0
102
RTVSPost2010Prop47
 90
       50
102
RTVSPost2010PropOp47
 70
     0
102
RTVSPost2010Prop48
 90
       50
102
RTVSPost2010PropOp48
 70
     0
102
RTVSPost2010Prop49
280
     0
102
RTVSPost2010PropOp49
 70
     1
102
RTVSPost2010Prop50
 90
       50
102
RTVSPost2010PropOp50
 70
     0
102
RTVSPost2010Prop51ColorIndex
 90
      256
102
RTVSPost2010Prop51ColorRGB
 90
-16777216
102
RTVSPost2010PropOp51
 70
     0
102
RTVSPost2010Prop52
140
1.0
102
RTVSPost2010PropOp52
 70
     0
102
RTVSPost2010Prop53
 90
        2
102
RTVSPost2010PropOp53
 70
     0
102
RTVSPost2010Prop54
  1
strokes_ogs.tif
102
RTVSPost2010PropOp54
 70
     0
102
RTVSPost2010Prop55
280
     0
102
RTVSPost2010PropOp55
 70
     1
102
RTVSPost2010Prop56
140
1.0
102
RTVSPost2010PropOp56
 70
     0
102
RTVSPost2010Prop57
140
1.0
102
RTVSPost2010PropOp57
 70
     0
102
RTVSPropertyOp0
 70
     0
102
RTVSPropertyOp1
 70
     0
102
RTVSPropertyOp2
 70
     0
102
RTVSPropertyOp3
 70
     0
102
RTVSPropertyOp4
 70
     0
102
RTVSPropertyOp5
 70
     0
102
RTVSPropertyOp6
 70
     0
102
RTVSPropertyOp7
 70
     0
102
RTVSPropertyOp8
 70
     0
102
RTVSPropertyOp9
 70
     0
102
RTVSPropertyOp10
 70
     0
102
RTVSPropertyOp11
 70
     0
102
RTVSPropertyOp12
 70
     0
102
RTVSPropertyOp13
 70
     0
102
RTVSPropertyOp14
 70
     2
102
RTVSPropertyOp15
 70
     0
102
RTVSPropertyOp16
 70
     0
102
RTVSPropertyOp17
 70
     0
102
RTVSPropertyOp18
 70
     0
102
RTVSPropertyOp19
 70
     0
102
RTVSPropertyOp20
 70
     0
102
RTVSPropertyOp21
 70
     0
102
RTVSPropertyOp22
 70
     0
102
RTVSPropertyOp23
 70
     0
102
RTVSPropertyOp24
 70
     0
102
RTVSPropertyOp25
 70
     0
102
RTVSPropertyOp26
 70
     0
102
RTVSPropertyOp27
 70
     0
102
RTVSPropertyOp28
 70
     1
102
RTVSPropertyOp29
 70
     1
102
RTVSPropertyOp30
 70
     1
102
RTVSPropertyOp31
 70
     1
102
RTVSPropertyOp32
 70
     1
102
RTVSPropertyOp33
 70
     1
102
RTVSPropertyOp34
 70
     1
102
RTVSPropertyOp35
 70
     1
102
RTVSPropertyOp36
 70
     1
102
RTVSPropertyOp37
 70
     0
102
RTVSPropertyOp38
 70
     0
102
RTVSPropertyOp39
 70
     0
102
RTVSPropertyOp40
 70
     0
102
RTVSPropertyOp41
 70
     0
102
RTVSPropertyOp42
 70
     0
102
RTVSPropertyOp43
 70
     0
102
RTVSPropertyOp44
 70
     0
102
RTVSPropertyOp45
 70
     1
102
RTVSPropertyOp46
 70
     0
102
RTVSPropertyOp47
 70
     0
102
RTVSPropertyOp48
 70
     0
102
RTVSPropertyOp49
 70
     1
102
RTVSPropertyOp50
 70
     0
102
RTVSPropertyOp51
 70
     0
102
RTVSPropertyOp52
 70
     0
102
RTVSPropertyOp53
 70
     0
102
RTVSPropertyOp54
 70
     0
102
RTVSPropertyOp55
 70
     1
102
RTVSPropertyOp56
 70
     0
102
RTVSPropertyOp57
 70
     0
102
RTVSPropertyOp58
 70
     1
102
RTVSPropertyOp59
 70
     1
102
RTVSPropertyOp60
 70
     1
102
RTVSPropertyOp61
 70
     1
102
RTVSPropertyOp62
 70
     1
  0
XRECORD
  5
8F5
102
{ACAD_REACTORS
330
8F4
102
}
330
8F4
100
AcDbXrecord
280
     1
102
RTVSPost2010Prop28
280
     0
102
RTVSPost2010PropOp28
 70
     1
102
RTVSPost2010Prop29
280
     1
102
RTVSPost2010PropOp29
 70
     1
102
RTVSPost2010Prop30
280
     1
102
RTVSPost2010PropOp30
 70
     1
102
RTVSPost2010Prop31
280
     0
102
RTVSPost2010PropOp31
 70
     1
102
RTVSPost2010Prop32
280
     0
102
RTVSPost2010PropOp32
 70
     1
102
RTVSPost2010Prop33
280
     0
102
RTVSPost2010PropOp33
 70
     1
102
RTVSPost2010Prop34
280
     0
102
RTVSPost2010PropOp34
 70
     1
102
RTVSPost2010Prop35
280
     0
102
RTVSPost2010PropOp35
 70
     1
102
RTVSPost2010Prop36
280
     0
102
RTVSPost2010PropOp36
 70
     1
102
RTVSPost2010Prop37
 90
       50
102
RTVSPost2010PropOp37
 70
     1
102
RTVSPost2010Prop38
140
0.0
102
RTVSPost2010PropOp38
 70
     1
102
RTVSPost2010Prop39
140
1.0
102
RTVSPost2010PropOp39
 70
     1
102
RTVSPost2010Prop40
 90
        0
102
RTVSPost2010PropOp40
 70
     1
102
RTVSPost2010Prop41ColorIndex
 90
       18
102
RTVSPost2010Prop41ColorRGB
 90
        0
102
RTVSPost2010PropOp41
 70
     1
102
RTVSPost2010Prop42
 90
       50
102
RTVSPost2010PropOp42
 70
     1
102
RTVSPost2010Prop43
 90
        3
102
RTVSPost2010PropOp43
 70
     1
102
RTVSPost2010Prop44ColorIndex
 90
        5
102
RTVSPost2010Prop44ColorRGB
 90
      255
102
RTVSPost2010PropOp44
 70
     1
102
RTVSPost2010Prop45
280
     0
102
RTVSPost2010PropOp45
 70
     1
102
RTVSPost2010Prop46
 90
       50
102
RTVSPost2010PropOp46
 70
     1
102
RTVSPost2010Prop47
 90
       50
102
RTVSPost2010PropOp47
 70
     1
102
RTVSPost2010Prop48
 90
       50
102
RTVSPost2010PropOp48
 70
     1
102
RTVSPost2010Prop49
280
     0
102
RTVSPost2010PropOp49
 70
     1
102
RTVSPost2010Prop50
 90
       50
102
RTVSPost2010PropOp50
 70
     1
102
RTVSPost2010Prop51ColorIndex
 90
      256
102
RTVSPost2010Prop51ColorRGB
 90
-16777216
102
RTVSPost2010PropOp51
 70
     0
102
RTVSPost2010Prop52
140
1.0
102
RTVSPost2010PropOp52
 70
     0
102
RTVSPost2010Prop53
 90
        2
102
RTVSPost2010PropOp53
 70
     1
102
RTVSPost2010Prop54
  1
strokes_ogs.tif
102
RTVSPost2010PropOp54
 70
     1
102
RTVSPost2010Prop55
280
     0
102
RTVSPost2010PropOp55
 70
     1
102
RTVSPost2010Prop56
140
1.0
102
RTVSPost2010PropOp56
 70
     1
102
RTVSPost2010Prop57
140
1.0
102
RTVSPost2010PropOp57
 70
     1
102
RTVSPropertyOp0
 70
     1
102
RTVSPropertyOp1
 70
     1
102
RTVSPropertyOp2
 70
     1
102
RTVSPropertyOp3
 70
     1
102
RTVSPropertyOp4
 70
     1
102
RTVSPropertyOp5
 70
     1
102
RTVSPropertyOp6
 70
     1
102
RTVSPropertyOp7
 70
     1
102
RTVSPropertyOp8
 70
     1
102
RTVSPropertyOp9
 70
     1
102
RTVSPropertyOp10
 70
     1
102
RTVSPropertyOp11
 70
     1
102
RTVSPropertyOp12
 70
     1
102
RTVSPropertyOp13
 70
     1
102
RTVSPropertyOp14
 70
     1
102
RTVSPropertyOp15
 70
     1
102
RTVSPropertyOp16
 70
     1
102
RTVSPropertyOp17
 70
     1
102
RTVSPropertyOp18
 70
     1
102
RTVSPropertyOp19
 70
     1
102
RTVSPropertyOp20
 70
     1
102
RTVSPropertyOp21
 70
     1
102
RTVSPropertyOp22
 70
     1
102
RTVSPropertyOp23
 70
     1
102
RTVSPropertyOp24
 70
     1
102
RTVSPropertyOp25
 70
     1
102
RTVSPropertyOp26
 70
     1
102
RTVSPropertyOp27
 70
     1
102
RTVSPropertyOp28
 70
     1
102
RTVSPropertyOp29
 70
     1
102
RTVSPropertyOp30
 70
     1
102
RTVSPropertyOp31
 70
     1
102
RTVSPropertyOp32
 70
     1
102
RTVSPropertyOp33
 70
     1
102
RTVSPropertyOp34
 70
     1
102
RTVSPropertyOp35
 70
     1
102
RTVSPropertyOp36
 70
     1
102
RTVSPropertyOp37
 70
     1
102
RTVSPropertyOp38
 70
     1
102
RTVSPropertyOp39
 70
     1
102
RTVSPropertyOp40
 70
     1
102
RTVSPropertyOp41
 70
     1
102
RTVSPropertyOp42
 70
     1
102
RTVSPropertyOp43
 70
     1
102
RTVSPropertyOp44
 70
     1
102
RTVSPropertyOp45
 70
     1
102
RTVSPropertyOp46
 70
     1
102
RTVSPropertyOp47
 70
     1
102
RTVSPropertyOp48
 70
     1
102
RTVSPropertyOp49
 70
     1
102
RTVSPropertyOp50
 70
     1
102
RTVSPropertyOp51
 70
     0
102
RTVSPropertyOp52
 70
     0
102
RTVSPropertyOp53
 70
     1
102
RTVSPropertyOp54
 70
     1
102
RTVSPropertyOp55
 70
     1
102
RTVSPropertyOp56
 70
     1
102
RTVSPropertyOp57
 70
     1
102
RTVSPropertyOp58
 70
     1
102
RTVSPropertyOp59
 70
     1
102
RTVSPropertyOp60
 70
     1
102
RTVSPropertyOp61
 70
     1
102
RTVSPropertyOp62
 70
     1
  0
XRECORD
  5
90B
102
{ACAD_REACTORS
330
90A
102
}
330
90A
100
AcDbXrecord
280
     1
102
RTVSPost2010Prop28
280
     0
102
RTVSPost2010PropOp28
 70
     1
102
RTVSPost2010Prop29
280
     1
102
RTVSPost2010PropOp29
 70
     1
102
RTVSPost2010Prop30
280
     1
102
RTVSPost2010PropOp30
 70
     1
102
RTVSPost2010Prop31
280
     0
102
RTVSPost2010PropOp31
 70
     1
102
RTVSPost2010Prop32
280
     0
102
RTVSPost2010PropOp32
 70
     1
102
RTVSPost2010Prop33
280
     0
102
RTVSPost2010PropOp33
 70
     1
102
RTVSPost2010Prop34
280
     0
102
RTVSPost2010PropOp34
 70
     1
102
RTVSPost2010Prop35
280
     0
102
RTVSPost2010PropOp35
 70
     1
102
RTVSPost2010Prop36
280
     0
102
RTVSPost2010PropOp36
 70
     1
102
RTVSPost2010Prop37
 90
       50
102
RTVSPost2010PropOp37
 70
     1
102
RTVSPost2010Prop38
140
0.0
102
RTVSPost2010PropOp38
 70
     1
102
RTVSPost2010Prop39
140
1.0
102
RTVSPost2010PropOp39
 70
     1
102
RTVSPost2010Prop40
 90
        0
102
RTVSPost2010PropOp40
 70
     1
102
RTVSPost2010Prop41ColorIndex
 90
       18
102
RTVSPost2010Prop41ColorRGB
 90
        0
102
RTVSPost2010PropOp41
 70
     1
102
RTVSPost2010Prop42
 90
       50
102
RTVSPost2010PropOp42
 70
     1
102
RTVSPost2010Prop43
 90
        3
102
RTVSPost2010PropOp43
 70
     1
102
RTVSPost2010Prop44ColorIndex
 90
        5
102
RTVSPost2010Prop44ColorRGB
 90
      255
102
RTVSPost2010PropOp44
 70
     1
102
RTVSPost2010Prop45
280
     0
102
RTVSPost2010PropOp45
 70
     1
102
RTVSPost2010Prop46
 90
       50
102
RTVSPost2010PropOp46
 70
     1
102
RTVSPost2010Prop47
 90
       50
102
RTVSPost2010PropOp47
 70
     1
102
RTVSPost2010Prop48
 90
       50
102
RTVSPost2010PropOp48
 70
     1
102
RTVSPost2010Prop49
280
     0
102
RTVSPost2010PropOp49
 70
     1
102
RTVSPost2010Prop50
 90
       50
102
RTVSPost2010PropOp50
 70
     1
102
RTVSPost2010Prop51ColorIndex
 90
      256
102
RTVSPost2010Prop51ColorRGB
 90
-16777216
102
RTVSPost2010PropOp51
 70
     0
102
RTVSPost2010Prop52
140
1.0
102
RTVSPost2010PropOp52
 70
     0
102
RTVSPost2010Prop53
 90
        2
102
RTVSPost2010PropOp53
 70
     1
102
RTVSPost2010Prop54
  1
strokes_ogs.tif
102
RTVSPost2010PropOp54
 70
     1
102
RTVSPost2010Prop55
280
     0
102
RTVSPost2010PropOp55
 70
     1
102
RTVSPost2010Prop56
140
1.0
102
RTVSPost2010PropOp56
 70
     1
102
RTVSPost2010Prop57
140
1.0
102
RTVSPost2010PropOp57
 70
     1
102
RTVSPropertyOp0
 70
     1
102
RTVSPropertyOp1
 70
     1
102
RTVSPropertyOp2
 70
     1
102
RTVSPropertyOp3
 70
     1
102
RTVSPropertyOp4
 70
     1
102
RTVSPropertyOp5
 70
     1
102
RTVSPropertyOp6
 70
     1
102
RTVSPropertyOp7
 70
     1
102
RTVSPropertyOp8
 70
     1
102
RTVSPropertyOp9
 70
     1
102
RTVSPropertyOp10
 70
     1
102
RTVSPropertyOp11
 70
     1
102
RTVSPropertyOp12
 70
     1
102
RTVSPropertyOp13
 70
     1
102
RTVSPropertyOp14
 70
     1
102
RTVSPropertyOp15
 70
     1
102
RTVSPropertyOp16
 70
     1
102
RTVSPropertyOp17
 70
     1
102
RTVSPropertyOp18
 70
     1
102
RTVSPropertyOp19
 70
     1
102
RTVSPropertyOp20
 70
     1
102
RTVSPropertyOp21
 70
     1
102
RTVSPropertyOp22
 70
     1
102
RTVSPropertyOp23
 70
     1
102
RTVSPropertyOp24
 70
     1
102
RTVSPropertyOp25
 70
     1
102
RTVSPropertyOp26
 70
     1
102
RTVSPropertyOp27
 70
     1
102
RTVSPropertyOp28
 70
     1
102
RTVSPropertyOp29
 70
     1
102
RTVSPropertyOp30
 70
     1
102
RTVSPropertyOp31
 70
     1
102
RTVSPropertyOp32
 70
     1
102
RTVSPropertyOp33
 70
     1
102
RTVSPropertyOp34
 70
     1
102
RTVSPropertyOp35
 70
     1
102
RTVSPropertyOp36
 70
     1
102
RTVSPropertyOp37
 70
     1
102
RTVSPropertyOp38
 70
     1
102
RTVSPropertyOp39
 70
     1
102
RTVSPropertyOp40
 70
     1
102
RTVSPropertyOp41
 70
     1
102
RTVSPropertyOp42
 70
     1
102
RTVSPropertyOp43
 70
     1
102
RTVSPropertyOp44
 70
     1
102
RTVSPropertyOp45
 70
     1
102
RTVSPropertyOp46
 70
     1
102
RTVSPropertyOp47
 70
     1
102
RTVSPropertyOp48
 70
     1
102
RTVSPropertyOp49
 70
     1
102
RTVSPropertyOp50
 70
     1
102
RTVSPropertyOp51
 70
     0
102
RTVSPropertyOp52
 70
     0
102
RTVSPropertyOp53
 70
     1
102
RTVSPropertyOp54
 70
     1
102
RTVSPropertyOp55
 70
     1
102
RTVSPropertyOp56
 70
     1
102
RTVSPropertyOp57
 70
     1
102
RTVSPropertyOp58
 70
     1
102
RTVSPropertyOp59
 70
     1
102
RTVSPropertyOp60
 70
     1
102
RTVSPropertyOp61
 70
     1
102
RTVSPropertyOp62
 70
     1
  0
XRECORD
  5
909
102
{ACAD_REACTORS
330
908
102
}
330
908
100
AcDbXrecord
280
     1
102
RTVSPost2010Prop28
280
     0
102
RTVSPost2010PropOp28
 70
     1
102
RTVSPost2010Prop29
280
     1
102
RTVSPost2010PropOp29
 70
     1
102
RTVSPost2010Prop30
280
     1
102
RTVSPost2010PropOp30
 70
     1
102
RTVSPost2010Prop31
280
     0
102
RTVSPost2010PropOp31
 70
     1
102
RTVSPost2010Prop32
280
     0
102
RTVSPost2010PropOp32
 70
     1
102
RTVSPost2010Prop33
280
     0
102
RTVSPost2010PropOp33
 70
     1
102
RTVSPost2010Prop34
280
     0
102
RTVSPost2010PropOp34
 70
     1
102
RTVSPost2010Prop35
280
     0
102
RTVSPost2010PropOp35
 70
     1
102
RTVSPost2010Prop36
280
     0
102
RTVSPost2010PropOp36
 70
     1
102
RTVSPost2010Prop37
 90
       50
102
RTVSPost2010PropOp37
 70
     1
102
RTVSPost2010Prop38
140
0.0
102
RTVSPost2010PropOp38
 70
     1
102
RTVSPost2010Prop39
140
1.0
102
RTVSPost2010PropOp39
 70
     1
102
RTVSPost2010Prop40
 90
        0
102
RTVSPost2010PropOp40
 70
     1
102
RTVSPost2010Prop41ColorIndex
 90
       18
102
RTVSPost2010Prop41ColorRGB
 90
        0
102
RTVSPost2010PropOp41
 70
     1
102
RTVSPost2010Prop42
 90
       50
102
RTVSPost2010PropOp42
 70
     1
102
RTVSPost2010Prop43
 90
        3
102
RTVSPost2010PropOp43
 70
     1
102
RTVSPost2010Prop44ColorIndex
 90
        5
102
RTVSPost2010Prop44ColorRGB
 90
      255
102
RTVSPost2010PropOp44
 70
     1
102
RTVSPost2010Prop45
280
     0
102
RTVSPost2010PropOp45
 70
     1
102
RTVSPost2010Prop46
 90
       50
102
RTVSPost2010PropOp46
 70
     1
102
RTVSPost2010Prop47
 90
       50
102
RTVSPost2010PropOp47
 70
     1
102
RTVSPost2010Prop48
 90
       50
102
RTVSPost2010PropOp48
 70
     1
102
RTVSPost2010Prop49
280
     0
102
RTVSPost2010PropOp49
 70
     1
102
RTVSPost2010Prop50
 90
       50
102
RTVSPost2010PropOp50
 70
     1
102
RTVSPost2010Prop51ColorIndex
 90
      256
102
RTVSPost2010Prop51ColorRGB
 90
-16777216
102
RTVSPost2010PropOp51
 70
     0
102
RTVSPost2010Prop52
140
1.0
102
RTVSPost2010PropOp52
 70
     0
102
RTVSPost2010Prop53
 90
        2
102
RTVSPost2010PropOp53
 70
     1
102
RTVSPost2010Prop54
  1
strokes_ogs.tif
102
RTVSPost2010PropOp54
 70
     1
102
RTVSPost2010Prop55
280
     0
102
RTVSPost2010PropOp55
 70
     1
102
RTVSPost2010Prop56
140
1.0
102
RTVSPost2010PropOp56
 70
     1
102
RTVSPost2010Prop57
140
1.0
102
RTVSPost2010PropOp57
 70
     1
102
RTVSPropertyOp0
 70
     1
102
RTVSPropertyOp1
 70
     1
102
RTVSPropertyOp2
 70
     1
102
RTVSPropertyOp3
 70
     1
102
RTVSPropertyOp4
 70
     1
102
RTVSPropertyOp5
 70
     1
102
RTVSPropertyOp6
 70
     1
102
RTVSPropertyOp7
 70
     1
102
RTVSPropertyOp8
 70
     1
102
RTVSPropertyOp9
 70
     1
102
RTVSPropertyOp10
 70
     1
102
RTVSPropertyOp11
 70
     1
102
RTVSPropertyOp12
 70
     1
102
RTVSPropertyOp13
 70
     1
102
RTVSPropertyOp14
 70
     1
102
RTVSPropertyOp15
 70
     1
102
RTVSPropertyOp16
 70
     1
102
RTVSPropertyOp17
 70
     1
102
RTVSPropertyOp18
 70
     1
102
RTVSPropertyOp19
 70
     1
102
RTVSPropertyOp20
 70
     1
102
RTVSPropertyOp21
 70
     1
102
RTVSPropertyOp22
 70
     1
102
RTVSPropertyOp23
 70
     1
102
RTVSPropertyOp24
 70
     1
102
RTVSPropertyOp25
 70
     1
102
RTVSPropertyOp26
 70
     1
102
RTVSPropertyOp27
 70
     1
102
RTVSPropertyOp28
 70
     1
102
RTVSPropertyOp29
 70
     1
102
RTVSPropertyOp30
 70
     1
102
RTVSPropertyOp31
 70
     1
102
RTVSPropertyOp32
 70
     1
102
RTVSPropertyOp33
 70
     1
102
RTVSPropertyOp34
 70
     1
102
RTVSPropertyOp35
 70
     1
102
RTVSPropertyOp36
 70
     1
102
RTVSPropertyOp37
 70
     1
102
RTVSPropertyOp38
 70
     1
102
RTVSPropertyOp39
 70
     1
102
RTVSPropertyOp40
 70
     1
102
RTVSPropertyOp41
 70
     1
102
RTVSPropertyOp42
 70
     1
102
RTVSPropertyOp43
 70
     1
102
RTVSPropertyOp44
 70
     1
102
RTVSPropertyOp45
 70
     1
102
RTVSPropertyOp46
 70
     1
102
RTVSPropertyOp47
 70
     1
102
RTVSPropertyOp48
 70
     1
102
RTVSPropertyOp49
 70
     1
102
RTVSPropertyOp50
 70
     1
102
RTVSPropertyOp51
 70
     0
102
RTVSPropertyOp52
 70
     0
102
RTVSPropertyOp53
 70
     1
102
RTVSPropertyOp54
 70
     1
102
RTVSPropertyOp55
 70
     1
102
RTVSPropertyOp56
 70
     1
102
RTVSPropertyOp57
 70
     1
102
RTVSPropertyOp58
 70
     1
102
RTVSPropertyOp59
 70
     1
102
RTVSPropertyOp60
 70
     1
102
RTVSPropertyOp61
 70
     1
102
RTVSPropertyOp62
 70
     1
  0
XRECORD
  5
903
102
{ACAD_REACTORS
330
902
102
}
330
902
100
AcDbXrecord
280
     1
102
RTVSPost2010Prop28
280
     0
102
RTVSPost2010PropOp28
 70
     1
102
RTVSPost2010Prop29
280
     1
102
RTVSPost2010PropOp29
 70
     1
102
RTVSPost2010Prop30
280
     1
102
RTVSPost2010PropOp30
 70
     1
102
RTVSPost2010Prop31
280
     0
102
RTVSPost2010PropOp31
 70
     1
102
RTVSPost2010Prop32
280
     0
102
RTVSPost2010PropOp32
 70
     1
102
RTVSPost2010Prop33
280
     0
102
RTVSPost2010PropOp33
 70
     1
102
RTVSPost2010Prop34
280
     0
102
RTVSPost2010PropOp34
 70
     1
102
RTVSPost2010Prop35
280
     0
102
RTVSPost2010PropOp35
 70
     1
102
RTVSPost2010Prop36
280
     0
102
RTVSPost2010PropOp36
 70
     1
102
RTVSPost2010Prop37
 90
       50
102
RTVSPost2010PropOp37
 70
     1
102
RTVSPost2010Prop38
140
0.0
102
RTVSPost2010PropOp38
 70
     1
102
RTVSPost2010Prop39
140
1.0
102
RTVSPost2010PropOp39
 70
     1
102
RTVSPost2010Prop40
 90
        0
102
RTVSPost2010PropOp40
 70
     1
102
RTVSPost2010Prop41ColorIndex
 90
       18
102
RTVSPost2010Prop41ColorRGB
 90
        0
102
RTVSPost2010PropOp41
 70
     1
102
RTVSPost2010Prop42
 90
       50
102
RTVSPost2010PropOp42
 70
     1
102
RTVSPost2010Prop43
 90
        3
102
RTVSPost2010PropOp43
 70
     1
102
RTVSPost2010Prop44ColorIndex
 90
        5
102
RTVSPost2010Prop44ColorRGB
 90
      255
102
RTVSPost2010PropOp44
 70
     1
102
RTVSPost2010Prop45
280
     0
102
RTVSPost2010PropOp45
 70
     1
102
RTVSPost2010Prop46
 90
       50
102
RTVSPost2010PropOp46
 70
     1
102
RTVSPost2010Prop47
 90
       50
102
RTVSPost2010PropOp47
 70
     1
102
RTVSPost2010Prop48
 90
       50
102
RTVSPost2010PropOp48
 70
     1
102
RTVSPost2010Prop49
280
     0
102
RTVSPost2010PropOp49
 70
     1
102
RTVSPost2010Prop50
 90
       50
102
RTVSPost2010PropOp50
 70
     1
102
RTVSPost2010Prop51ColorIndex
 90
      256
102
RTVSPost2010Prop51ColorRGB
 90
-16777216
102
RTVSPost2010PropOp51
 70
     0
102
RTVSPost2010Prop52
140
1.0
102
RTVSPost2010PropOp52
 70
     0
102
RTVSPost2010Prop53
 90
        2
102
RTVSPost2010PropOp53
 70
     1
102
RTVSPost2010Prop54
  1
strokes_ogs.tif
102
RTVSPost2010PropOp54
 70
     1
102
RTVSPost2010Prop55
280
     0
102
RTVSPost2010PropOp55
 70
     1
102
RTVSPost2010Prop56
140
1.0
102
RTVSPost2010PropOp56
 70
     1
102
RTVSPost2010Prop57
140
1.0
102
RTVSPost2010PropOp57
 70
     1
102
RTVSPropertyOp0
 70
     1
102
RTVSPropertyOp1
 70
     1
102
RTVSPropertyOp2
 70
     1
102
RTVSPropertyOp3
 70
     1
102
RTVSPropertyOp4
 70
     1
102
RTVSPropertyOp5
 70
     1
102
RTVSPropertyOp6
 70
     1
102
RTVSPropertyOp7
 70
     1
102
RTVSPropertyOp8
 70
     1
102
RTVSPropertyOp9
 70
     1
102
RTVSPropertyOp10
 70
     1
102
RTVSPropertyOp11
 70
     1
102
RTVSPropertyOp12
 70
     1
102
RTVSPropertyOp13
 70
     1
102
RTVSPropertyOp14
 70
     1
102
RTVSPropertyOp15
 70
     1
102
RTVSPropertyOp16
 70
     1
102
RTVSPropertyOp17
 70
     1
102
RTVSPropertyOp18
 70
     1
102
RTVSPropertyOp19
 70
     1
102
RTVSPropertyOp20
 70
     1
102
RTVSPropertyOp21
 70
     1
102
RTVSPropertyOp22
 70
     1
102
RTVSPropertyOp23
 70
     1
102
RTVSPropertyOp24
 70
     1
102
RTVSPropertyOp25
 70
     1
102
RTVSPropertyOp26
 70
     1
102
RTVSPropertyOp27
 70
     1
102
RTVSPropertyOp28
 70
     1
102
RTVSPropertyOp29
 70
     1
102
RTVSPropertyOp30
 70
     1
102
RTVSPropertyOp31
 70
     1
102
RTVSPropertyOp32
 70
     1
102
RTVSPropertyOp33
 70
     1
102
RTVSPropertyOp34
 70
     1
102
RTVSPropertyOp35
 70
     1
102
RTVSPropertyOp36
 70
     1
102
RTVSPropertyOp37
 70
     1
102
RTVSPropertyOp38
 70
     1
102
RTVSPropertyOp39
 70
     1
102
RTVSPropertyOp40
 70
     1
102
RTVSPropertyOp41
 70
     1
102
RTVSPropertyOp42
 70
     1
102
RTVSPropertyOp43
 70
     1
102
RTVSPropertyOp44
 70
     1
102
RTVSPropertyOp45
 70
     1
102
RTVSPropertyOp46
 70
     1
102
RTVSPropertyOp47
 70
     1
102
RTVSPropertyOp48
 70
     1
102
RTVSPropertyOp49
 70
     1
102
RTVSPropertyOp50
 70
     1
102
RTVSPropertyOp51
 70
     0
102
RTVSPropertyOp52
 70
     0
102
RTVSPropertyOp53
 70
     1
102
RTVSPropertyOp54
 70
     1
102
RTVSPropertyOp55
 70
     1
102
RTVSPropertyOp56
 70
     1
102
RTVSPropertyOp57
 70
     1
102
RTVSPropertyOp58
 70
     1
102
RTVSPropertyOp59
 70
     1
102
RTVSPropertyOp60
 70
     1
102
RTVSPropertyOp61
 70
     1
102
RTVSPropertyOp62
 70
     1
  0
XRECORD
  5
905
102
{ACAD_REACTORS
330
904
102
}
330
904
100
AcDbXrecord
280
     1
102
RTVSPost2010Prop28
280
     0
102
RTVSPost2010PropOp28
 70
     1
102
RTVSPost2010Prop29
280
     1
102
RTVSPost2010PropOp29
 70
     1
102
RTVSPost2010Prop30
280
     1
102
RTVSPost2010PropOp30
 70
     1
102
RTVSPost2010Prop31
280
     0
102
RTVSPost2010PropOp31
 70
     1
102
RTVSPost2010Prop32
280
     0
102
RTVSPost2010PropOp32
 70
     1
102
RTVSPost2010Prop33
280
     0
102
RTVSPost2010PropOp33
 70
     1
102
RTVSPost2010Prop34
280
     0
102
RTVSPost2010PropOp34
 70
     1
102
RTVSPost2010Prop35
280
     0
102
RTVSPost2010PropOp35
 70
     1
102
RTVSPost2010Prop36
280
     0
102
RTVSPost2010PropOp36
 70
     1
102
RTVSPost2010Prop37
 90
       50
102
RTVSPost2010PropOp37
 70
     1
102
RTVSPost2010Prop38
140
0.0
102
RTVSPost2010PropOp38
 70
     1
102
RTVSPost2010Prop39
140
1.0
102
RTVSPost2010PropOp39
 70
     1
102
RTVSPost2010Prop40
 90
        0
102
RTVSPost2010PropOp40
 70
     1
102
RTVSPost2010Prop41ColorIndex
 90
       18
102
RTVSPost2010Prop41ColorRGB
 90
        0
102
RTVSPost2010PropOp41
 70
     1
102
RTVSPost2010Prop42
 90
       50
102
RTVSPost2010PropOp42
 70
     1
102
RTVSPost2010Prop43
 90
        3
102
RTVSPost2010PropOp43
 70
     1
102
RTVSPost2010Prop44ColorIndex
 90
        5
102
RTVSPost2010Prop44ColorRGB
 90
      255
102
RTVSPost2010PropOp44
 70
     1
102
RTVSPost2010Prop45
280
     0
102
RTVSPost2010PropOp45
 70
     1
102
RTVSPost2010Prop46
 90
       50
102
RTVSPost2010PropOp46
 70
     1
102
RTVSPost2010Prop47
 90
       50
102
RTVSPost2010PropOp47
 70
     1
102
RTVSPost2010Prop48
 90
       50
102
RTVSPost2010PropOp48
 70
     1
102
RTVSPost2010Prop49
280
     0
102
RTVSPost2010PropOp49
 70
     1
102
RTVSPost2010Prop50
 90
       50
102
RTVSPost2010PropOp50
 70
     1
102
RTVSPost2010Prop51ColorIndex
 90
      256
102
RTVSPost2010Prop51ColorRGB
 90
-16777216
102
RTVSPost2010PropOp51
 70
     0
102
RTVSPost2010Prop52
140
1.0
102
RTVSPost2010PropOp52
 70
     0
102
RTVSPost2010Prop53
 90
        2
102
RTVSPost2010PropOp53
 70
     1
102
RTVSPost2010Prop54
  1
strokes_ogs.tif
102
RTVSPost2010PropOp54
 70
     1
102
RTVSPost2010Prop55
280
     0
102
RTVSPost2010PropOp55
 70
     1
102
RTVSPost2010Prop56
140
1.0
102
RTVSPost2010PropOp56
 70
     1
102
RTVSPost2010Prop57
140
1.0
102
RTVSPost2010PropOp57
 70
     1
102
RTVSPropertyOp0
 70
     1
102
RTVSPropertyOp1
 70
     1
102
RTVSPropertyOp2
 70
     1
102
RTVSPropertyOp3
 70
     1
102
RTVSPropertyOp4
 70
     1
102
RTVSPropertyOp5
 70
     1
102
RTVSPropertyOp6
 70
     1
102
RTVSPropertyOp7
 70
     1
102
RTVSPropertyOp8
 70
     1
102
RTVSPropertyOp9
 70
     1
102
RTVSPropertyOp10
 70
     1
102
RTVSPropertyOp11
 70
     1
102
RTVSPropertyOp12
 70
     1
102
RTVSPropertyOp13
 70
     1
102
RTVSPropertyOp14
 70
     1
102
RTVSPropertyOp15
 70
     1
102
RTVSPropertyOp16
 70
     1
102
RTVSPropertyOp17
 70
     1
102
RTVSPropertyOp18
 70
     1
102
RTVSPropertyOp19
 70
     1
102
RTVSPropertyOp20
 70
     1
102
RTVSPropertyOp21
 70
     1
102
RTVSPropertyOp22
 70
     1
102
RTVSPropertyOp23
 70
     1
102
RTVSPropertyOp24
 70
     1
102
RTVSPropertyOp25
 70
     1
102
RTVSPropertyOp26
 70
     1
102
RTVSPropertyOp27
 70
     1
102
RTVSPropertyOp28
 70
     1
102
RTVSPropertyOp29
 70
     1
102
RTVSPropertyOp30
 70
     1
102
RTVSPropertyOp31
 70
     1
102
RTVSPropertyOp32
 70
     1
102
RTVSPropertyOp33
 70
     1
102
RTVSPropertyOp34
 70
     1
102
RTVSPropertyOp35
 70
     1
102
RTVSPropertyOp36
 70
     1
102
RTVSPropertyOp37
 70
     1
102
RTVSPropertyOp38
 70
     1
102
RTVSPropertyOp39
 70
     1
102
RTVSPropertyOp40
 70
     1
102
RTVSPropertyOp41
 70
     1
102
RTVSPropertyOp42
 70
     1
102
RTVSPropertyOp43
 70
     1
102
RTVSPropertyOp44
 70
     1
102
RTVSPropertyOp45
 70
     1
102
RTVSPropertyOp46
 70
     1
102
RTVSPropertyOp47
 70
     1
102
RTVSPropertyOp48
 70
     1
102
RTVSPropertyOp49
 70
     1
102
RTVSPropertyOp50
 70
     1
102
RTVSPropertyOp51
 70
     0
102
RTVSPropertyOp52
 70
     0
102
RTVSPropertyOp53
 70
     1
102
RTVSPropertyOp54
 70
     1
102
RTVSPropertyOp55
 70
     1
102
RTVSPropertyOp56
 70
     1
102
RTVSPropertyOp57
 70
     1
102
RTVSPropertyOp58
 70
     1
102
RTVSPropertyOp59
 70
     1
102
RTVSPropertyOp60
 70
     1
102
RTVSPropertyOp61
 70
     1
102
RTVSPropertyOp62
 70
     1
  0
XRECORD
  5
8FB
102
{ACAD_REACTORS
330
8FA
102
}
330
8FA
100
AcDbXrecord
280
     1
102
RTVSPost2010Prop28
280
     0
102
RTVSPost2010PropOp28
 70
     1
102
RTVSPost2010Prop29
280
     1
102
RTVSPost2010PropOp29
 70
     1
102
RTVSPost2010Prop30
280
     1
102
RTVSPost2010PropOp30
 70
     1
102
RTVSPost2010Prop31
280
     0
102
RTVSPost2010PropOp31
 70
     1
102
RTVSPost2010Prop32
280
     0
102
RTVSPost2010PropOp32
 70
     1
102
RTVSPost2010Prop33
280
     0
102
RTVSPost2010PropOp33
 70
     1
102
RTVSPost2010Prop34
280
     0
102
RTVSPost2010PropOp34
 70
     1
102
RTVSPost2010Prop35
280
     0
102
RTVSPost2010PropOp35
 70
     1
102
RTVSPost2010Prop36
280
     0
102
RTVSPost2010PropOp36
 70
     1
102
RTVSPost2010Prop37
 90
       50
102
RTVSPost2010PropOp37
 70
     1
102
RTVSPost2010Prop38
140
0.0
102
RTVSPost2010PropOp38
 70
     1
102
RTVSPost2010Prop39
140
1.0
102
RTVSPost2010PropOp39
 70
     1
102
RTVSPost2010Prop40
 90
        0
102
RTVSPost2010PropOp40
 70
     1
102
RTVSPost2010Prop41ColorIndex
 90
       18
102
RTVSPost2010Prop41ColorRGB
 90
        0
102
RTVSPost2010PropOp41
 70
     1
102
RTVSPost2010Prop42
 90
       50
102
RTVSPost2010PropOp42
 70
     1
102
RTVSPost2010Prop43
 90
        3
102
RTVSPost2010PropOp43
 70
     1
102
RTVSPost2010Prop44ColorIndex
 90
        5
102
RTVSPost2010Prop44ColorRGB
 90
      255
102
RTVSPost2010PropOp44
 70
     1
102
RTVSPost2010Prop45
280
     0
102
RTVSPost2010PropOp45
 70
     1
102
RTVSPost2010Prop46
 90
       50
102
RTVSPost2010PropOp46
 70
     1
102
RTVSPost2010Prop47
 90
       50
102
RTVSPost2010PropOp47
 70
     1
102
RTVSPost2010Prop48
 90
       50
102
RTVSPost2010PropOp48
 70
     1
102
RTVSPost2010Prop49
280
     0
102
RTVSPost2010PropOp49
 70
     1
102
RTVSPost2010Prop50
 90
       50
102
RTVSPost2010PropOp50
 70
     1
102
RTVSPost2010Prop51ColorIndex
 90
      256
102
RTVSPost2010Prop51ColorRGB
 90
-16777216
102
RTVSPost2010PropOp51
 70
     0
102
RTVSPost2010Prop52
140
1.0
102
RTVSPost2010PropOp52
 70
     0
102
RTVSPost2010Prop53
 90
        2
102
RTVSPost2010PropOp53
 70
     1
102
RTVSPost2010Prop54
  1
strokes_ogs.tif
102
RTVSPost2010PropOp54
 70
     1
102
RTVSPost2010Prop55
280
     0
102
RTVSPost2010PropOp55
 70
     1
102
RTVSPost2010Prop56
140
1.0
102
RTVSPost2010PropOp56
 70
     1
102
RTVSPost2010Prop57
140
1.0
102
RTVSPost2010PropOp57
 70
     1
102
RTVSPropertyOp0
 70
     1
102
RTVSPropertyOp1
 70
     1
102
RTVSPropertyOp2
 70
     1
102
RTVSPropertyOp3
 70
     1
102
RTVSPropertyOp4
 70
     1
102
RTVSPropertyOp5
 70
     1
102
RTVSPropertyOp6
 70
     1
102
RTVSPropertyOp7
 70
     1
102
RTVSPropertyOp8
 70
     1
102
RTVSPropertyOp9
 70
     1
102
RTVSPropertyOp10
 70
     1
102
RTVSPropertyOp11
 70
     1
102
RTVSPropertyOp12
 70
     1
102
RTVSPropertyOp13
 70
     1
102
RTVSPropertyOp14
 70
     1
102
RTVSPropertyOp15
 70
     1
102
RTVSPropertyOp16
 70
     1
102
RTVSPropertyOp17
 70
     1
102
RTVSPropertyOp18
 70
     1
102
RTVSPropertyOp19
 70
     1
102
RTVSPropertyOp20
 70
     1
102
RTVSPropertyOp21
 70
     1
102
RTVSPropertyOp22
 70
     1
102
RTVSPropertyOp23
 70
     1
102
RTVSPropertyOp24
 70
     1
102
RTVSPropertyOp25
 70
     1
102
RTVSPropertyOp26
 70
     1
102
RTVSPropertyOp27
 70
     1
102
RTVSPropertyOp28
 70
     1
102
RTVSPropertyOp29
 70
     1
102
RTVSPropertyOp30
 70
     1
102
RTVSPropertyOp31
 70
     1
102
RTVSPropertyOp32
 70
     1
102
RTVSPropertyOp33
 70
     1
102
RTVSPropertyOp34
 70
     1
102
RTVSPropertyOp35
 70
     1
102
RTVSPropertyOp36
 70
     1
102
RTVSPropertyOp37
 70
     1
102
RTVSPropertyOp38
 70
     1
102
RTVSPropertyOp39
 70
     1
102
RTVSPropertyOp40
 70
     1
102
RTVSPropertyOp41
 70
     1
102
RTVSPropertyOp42
 70
     1
102
RTVSPropertyOp43
 70
     1
102
RTVSPropertyOp44
 70
     1
102
RTVSPropertyOp45
 70
     1
102
RTVSPropertyOp46
 70
     1
102
RTVSPropertyOp47
 70
     1
102
RTVSPropertyOp48
 70
     1
102
RTVSPropertyOp49
 70
     1
102
RTVSPropertyOp50
 70
     1
102
RTVSPropertyOp51
 70
     0
102
RTVSPropertyOp52
 70
     0
102
RTVSPropertyOp53
 70
     1
102
RTVSPropertyOp54
 70
     1
102
RTVSPropertyOp55
 70
     1
102
RTVSPropertyOp56
 70
     1
102
RTVSPropertyOp57
 70
     1
102
RTVSPropertyOp58
 70
     1
102
RTVSPropertyOp59
 70
     1
102
RTVSPropertyOp60
 70
     1
102
RTVSPropertyOp61
 70
     1
102
RTVSPropertyOp62
 70
     1
  0
XRECORD
  5
8EF
102
{ACAD_REACTORS
330
8EE
102
}
330
8EE
100
AcDbXrecord
280
     1
102
RTVSPost2010Prop28
280
     0
102
RTVSPost2010PropOp28
 70
     1
102
RTVSPost2010Prop29
280
     1
102
RTVSPost2010PropOp29
 70
     1
102
RTVSPost2010Prop30
280
     1
102
RTVSPost2010PropOp30
 70
     1
102
RTVSPost2010Prop31
280
     0
102
RTVSPost2010PropOp31
 70
     1
102
RTVSPost2010Prop32
280
     0
102
RTVSPost2010PropOp32
 70
     1
102
RTVSPost2010Prop33
280
     0
102
RTVSPost2010PropOp33
 70
     1
102
RTVSPost2010Prop34
280
     0
102
RTVSPost2010PropOp34
 70
     1
102
RTVSPost2010Prop35
280
     0
102
RTVSPost2010PropOp35
 70
     1
102
RTVSPost2010Prop36
280
     0
102
RTVSPost2010PropOp36
 70
     1
102
RTVSPost2010Prop37
 90
       50
102
RTVSPost2010PropOp37
 70
     1
102
RTVSPost2010Prop38
140
0.0
102
RTVSPost2010PropOp38
 70
     1
102
RTVSPost2010Prop39
140
1.0
102
RTVSPost2010PropOp39
 70
     1
102
RTVSPost2010Prop40
 90
        0
102
RTVSPost2010PropOp40
 70
     1
102
RTVSPost2010Prop41ColorIndex
 90
       18
102
RTVSPost2010Prop41ColorRGB
 90
        0
102
RTVSPost2010PropOp41
 70
     1
102
RTVSPost2010Prop42
 90
       50
102
RTVSPost2010PropOp42
 70
     1
102
RTVSPost2010Prop43
 90
        3
102
RTVSPost2010PropOp43
 70
     1
102
RTVSPost2010Prop44ColorIndex
 90
        5
102
RTVSPost2010Prop44ColorRGB
 90
      255
102
RTVSPost2010PropOp44
 70
     1
102
RTVSPost2010Prop45
280
     0
102
RTVSPost2010PropOp45
 70
     1
102
RTVSPost2010Prop46
 90
       50
102
RTVSPost2010PropOp46
 70
     1
102
RTVSPost2010Prop47
 90
       50
102
RTVSPost2010PropOp47
 70
     1
102
RTVSPost2010Prop48
 90
       50
102
RTVSPost2010PropOp48
 70
     1
102
RTVSPost2010Prop49
280
     0
102
RTVSPost2010PropOp49
 70
     1
102
RTVSPost2010Prop50
 90
       50
102
RTVSPost2010PropOp50
 70
     1
102
RTVSPost2010Prop51ColorIndex
 90
      256
102
RTVSPost2010Prop51ColorRGB
 90
-16777216
102
RTVSPost2010PropOp51
 70
     0
102
RTVSPost2010Prop52
140
1.0
102
RTVSPost2010PropOp52
 70
     0
102
RTVSPost2010Prop53
 90
        2
102
RTVSPost2010PropOp53
 70
     1
102
RTVSPost2010Prop54
  1
strokes_ogs.tif
102
RTVSPost2010PropOp54
 70
     1
102
RTVSPost2010Prop55
280
     0
102
RTVSPost2010PropOp55
 70
     1
102
RTVSPost2010Prop56
140
1.0
102
RTVSPost2010PropOp56
 70
     1
102
RTVSPost2010Prop57
140
1.0
102
RTVSPost2010PropOp57
 70
     1
102
RTVSPropertyOp0
 70
     1
102
RTVSPropertyOp1
 70
     1
102
RTVSPropertyOp2
 70
     1
102
RTVSPropertyOp3
 70
     1
102
RTVSPropertyOp4
 70
     1
102
RTVSPropertyOp5
 70
     1
102
RTVSPropertyOp6
 70
     1
102
RTVSPropertyOp7
 70
     1
102
RTVSPropertyOp8
 70
     1
102
RTVSPropertyOp9
 70
     1
102
RTVSPropertyOp10
 70
     1
102
RTVSPropertyOp11
 70
     1
102
RTVSPropertyOp12
 70
     1
102
RTVSPropertyOp13
 70
     1
102
RTVSPropertyOp14
 70
     1
102
RTVSPropertyOp15
 70
     1
102
RTVSPropertyOp16
 70
     1
102
RTVSPropertyOp17
 70
     1
102
RTVSPropertyOp18
 70
     1
102
RTVSPropertyOp19
 70
     1
102
RTVSPropertyOp20
 70
     1
102
RTVSPropertyOp21
 70
     1
102
RTVSPropertyOp22
 70
     1
102
RTVSPropertyOp23
 70
     1
102
RTVSPropertyOp24
 70
     1
102
RTVSPropertyOp25
 70
     1
102
RTVSPropertyOp26
 70
     1
102
RTVSPropertyOp27
 70
     1
102
RTVSPropertyOp28
 70
     1
102
RTVSPropertyOp29
 70
     1
102
RTVSPropertyOp30
 70
     1
102
RTVSPropertyOp31
 70
     1
102
RTVSPropertyOp32
 70
     1
102
RTVSPropertyOp33
 70
     1
102
RTVSPropertyOp34
 70
     1
102
RTVSPropertyOp35
 70
     1
102
RTVSPropertyOp36
 70
     1
102
RTVSPropertyOp37
 70
     1
102
RTVSPropertyOp38
 70
     1
102
RTVSPropertyOp39
 70
     1
102
RTVSPropertyOp40
 70
     1
102
RTVSPropertyOp41
 70
     1
102
RTVSPropertyOp42
 70
     1
102
RTVSPropertyOp43
 70
     1
102
RTVSPropertyOp44
 70
     1
102
RTVSPropertyOp45
 70
     1
102
RTVSPropertyOp46
 70
     1
102
RTVSPropertyOp47
 70
     1
102
RTVSPropertyOp48
 70
     1
102
RTVSPropertyOp49
 70
     1
102
RTVSPropertyOp50
 70
     1
102
RTVSPropertyOp51
 70
     0
102
RTVSPropertyOp52
 70
     0
102
RTVSPropertyOp53
 70
     1
102
RTVSPropertyOp54
 70
     1
102
RTVSPropertyOp55
 70
     1
102
RTVSPropertyOp56
 70
     1
102
RTVSPropertyOp57
 70
     1
102
RTVSPropertyOp58
 70
     1
102
RTVSPropertyOp59
 70
     1
102
RTVSPropertyOp60
 70
     1
102
RTVSPropertyOp61
 70
     1
102
RTVSPropertyOp62
 70
     1
  0
XRECORD
  5
907
102
{ACAD_REACTORS
330
906
102
}
330
906
100
AcDbXrecord
280
     1
102
RTVSPost2010Prop28
280
     0
102
RTVSPost2010PropOp28
 70
     1
102
RTVSPost2010Prop29
280
     1
102
RTVSPost2010PropOp29
 70
     1
102
RTVSPost2010Prop30
280
     1
102
RTVSPost2010PropOp30
 70
     1
102
RTVSPost2010Prop31
280
     0
102
RTVSPost2010PropOp31
 70
     1
102
RTVSPost2010Prop32
280
     0
102
RTVSPost2010PropOp32
 70
     1
102
RTVSPost2010Prop33
280
     0
102
RTVSPost2010PropOp33
 70
     1
102
RTVSPost2010Prop34
280
     0
102
RTVSPost2010PropOp34
 70
     1
102
RTVSPost2010Prop35
280
     0
102
RTVSPost2010PropOp35
 70
     1
102
RTVSPost2010Prop36
280
     0
102
RTVSPost2010PropOp36
 70
     1
102
RTVSPost2010Prop37
 90
       50
102
RTVSPost2010PropOp37
 70
     1
102
RTVSPost2010Prop38
140
0.0
102
RTVSPost2010PropOp38
 70
     1
102
RTVSPost2010Prop39
140
1.0
102
RTVSPost2010PropOp39
 70
     1
102
RTVSPost2010Prop40
 90
        0
102
RTVSPost2010PropOp40
 70
     1
102
RTVSPost2010Prop41ColorIndex
 90
       18
102
RTVSPost2010Prop41ColorRGB
 90
        0
102
RTVSPost2010PropOp41
 70
     1
102
RTVSPost2010Prop42
 90
       50
102
RTVSPost2010PropOp42
 70
     1
102
RTVSPost2010Prop43
 90
        3
102
RTVSPost2010PropOp43
 70
     1
102
RTVSPost2010Prop44ColorIndex
 90
        5
102
RTVSPost2010Prop44ColorRGB
 90
      255
102
RTVSPost2010PropOp44
 70
     1
102
RTVSPost2010Prop45
280
     0
102
RTVSPost2010PropOp45
 70
     1
102
RTVSPost2010Prop46
 90
       50
102
RTVSPost2010PropOp46
 70
     1
102
RTVSPost2010Prop47
 90
       50
102
RTVSPost2010PropOp47
 70
     1
102
RTVSPost2010Prop48
 90
       50
102
RTVSPost2010PropOp48
 70
     1
102
RTVSPost2010Prop49
280
     0
102
RTVSPost2010PropOp49
 70
     1
102
RTVSPost2010Prop50
 90
       50
102
RTVSPost2010PropOp50
 70
     1
102
RTVSPost2010Prop51ColorIndex
 90
      256
102
RTVSPost2010Prop51ColorRGB
 90
-16777216
102
RTVSPost2010PropOp51
 70
     0
102
RTVSPost2010Prop52
140
1.0
102
RTVSPost2010PropOp52
 70
     0
102
RTVSPost2010Prop53
 90
        2
102
RTVSPost2010PropOp53
 70
     1
102
RTVSPost2010Prop54
  1
strokes_ogs.tif
102
RTVSPost2010PropOp54
 70
     1
102
RTVSPost2010Prop55
280
     0
102
RTVSPost2010PropOp55
 70
     1
102
RTVSPost2010Prop56
140
1.0
102
RTVSPost2010PropOp56
 70
     1
102
RTVSPost2010Prop57
140
1.0
102
RTVSPost2010PropOp57
 70
     1
102
RTVSPropertyOp0
 70
     1
102
RTVSPropertyOp1
 70
     1
102
RTVSPropertyOp2
 70
     1
102
RTVSPropertyOp3
 70
     1
102
RTVSPropertyOp4
 70
     1
102
RTVSPropertyOp5
 70
     1
102
RTVSPropertyOp6
 70
     1
102
RTVSPropertyOp7
 70
     1
102
RTVSPropertyOp8
 70
     1
102
RTVSPropertyOp9
 70
     1
102
RTVSPropertyOp10
 70
     1
102
RTVSPropertyOp11
 70
     1
102
RTVSPropertyOp12
 70
     1
102
RTVSPropertyOp13
 70
     1
102
RTVSPropertyOp14
 70
     1
102
RTVSPropertyOp15
 70
     1
102
RTVSPropertyOp16
 70
     1
102
RTVSPropertyOp17
 70
     1
102
RTVSPropertyOp18
 70
     1
102
RTVSPropertyOp19
 70
     1
102
RTVSPropertyOp20
 70
     1
102
RTVSPropertyOp21
 70
     1
102
RTVSPropertyOp22
 70
     1
102
RTVSPropertyOp23
 70
     1
102
RTVSPropertyOp24
 70
     1
102
RTVSPropertyOp25
 70
     1
102
RTVSPropertyOp26
 70
     1
102
RTVSPropertyOp27
 70
     1
102
RTVSPropertyOp28
 70
     1
102
RTVSPropertyOp29
 70
     1
102
RTVSPropertyOp30
 70
     1
102
RTVSPropertyOp31
 70
     1
102
RTVSPropertyOp32
 70
     1
102
RTVSPropertyOp33
 70
     1
102
RTVSPropertyOp34
 70
     1
102
RTVSPropertyOp35
 70
     1
102
RTVSPropertyOp36
 70
     1
102
RTVSPropertyOp37
 70
     1
102
RTVSPropertyOp38
 70
     1
102
RTVSPropertyOp39
 70
     1
102
RTVSPropertyOp40
 70
     1
102
RTVSPropertyOp41
 70
     1
102
RTVSPropertyOp42
 70
     1
102
RTVSPropertyOp43
 70
     1
102
RTVSPropertyOp44
 70
     1
102
RTVSPropertyOp45
 70
     1
102
RTVSPropertyOp46
 70
     1
102
RTVSPropertyOp47
 70
     1
102
RTVSPropertyOp48
 70
     1
102
RTVSPropertyOp49
 70
     1
102
RTVSPropertyOp50
 70
     1
102
RTVSPropertyOp51
 70
     0
102
RTVSPropertyOp52
 70
     0
102
RTVSPropertyOp53
 70
     1
102
RTVSPropertyOp54
 70
     1
102
RTVSPropertyOp55
 70
     1
102
RTVSPropertyOp56
 70
     1
102
RTVSPropertyOp57
 70
     1
102
RTVSPropertyOp58
 70
     1
102
RTVSPropertyOp59
 70
     1
102
RTVSPropertyOp60
 70
     1
102
RTVSPropertyOp61
 70
     1
102
RTVSPropertyOp62
 70
     1
  0
ENDSEC
  0
EOF
