  0
SECTION
  2
HEADER
  9
$ACADVER
  1
AC1018
  9
$ACADMAINTVER
 70
   104
  9
$DWGCODEPAGE
  3
ANSI_932
  9
$LASTSAVEDBY
  1
CPTIO008
  9
$INSBASE
 10
0.0
 20
0.0
 30
0.0
  9
$EXTMIN
 10
-138.0163109423782
 20
-94.50884959708066
 30
-0.0000000349181948
  9
$EXTMAX
 10
138.51780768614
 20
95.01217699040683
 30
0.0000000814935746
  9
$LIMMIN
 10
-148.0
 20
-104.5
  9
$LIMMAX
 10
149.0
 20
105.5
  9
$ORTHOMODE
 70
     1
  9
$REGENMODE
 70
     1
  9
$FILLMODE
 70
     1
  9
$QTEXTMODE
 70
     0
  9
$MIRRTEXT
 70
     1
  9
$LTSCALE
 40
0.5
  9
$ATTMODE
 70
     1
  9
$TEXTSIZE
 40
2.5
  9
$TRACEWID
 40
1.0
  9
$TEXTSTYLE
  7
Standard
  9
$CLAYER
  8
寸法線
  9
$CELTYPE
  6
ByLayer
  9
$CECOLOR
 62
   256
  9
$CELTSCALE
 40
1.0
  9
$DISPSILH
 70
     0
  9
$DIMSCALE
 40
1.0
  9
$DIMASZ
 40
2.5
  9
$DIMEXO
 40
0.625
  9
$DIMDLI
 40
3.75
  9
$DIMRND
 40
0.0
  9
$DIMDLE
 40
0.0
  9
$DIMEXE
 40
1.25
  9
$DIMTP
 40
0.0
  9
$DIMTM
 40
0.0
  9
$DIMTXT
 40
2.5
  9
$DIMCEN
 40
2.5
  9
$DIMTSZ
 40
0.0
  9
$DIMTOL
 70
     0
  9
$DIMLIM
 70
     0
  9
$DIMTIH
 70
     0
  9
$DIMTOH
 70
     0
  9
$DIMSE1
 70
     0
  9
$DIMSE2
 70
     0
  9
$DIMTAD
 70
     1
  9
$DIMZIN
 70
     8
  9
$DIMBLK
  1

  9
$DIMASO
 70
     1
  9
$DIMSHO
 70
     1
  9
$DIMPOST
  1

  9
$DIMAPOST
  1

  9
$DIMALT
 70
     0
  9
$DIMALTD
 70
     3
  9
$DIMALTF
 40
0.03937007874016
  9
$DIMLFAC
 40
1.0
  9
$DIMTOFL
 70
     1
  9
$DIMTVP
 40
0.0
  9
$DIMTIX
 70
     0
  9
$DIMSOXD
 70
     0
  9
$DIMSAH
 70
     0
  9
$DIMBLK1
  1

  9
$DIMBLK2
  1

  9
$DIMSTYLE
  2
ISO-25
  9
$DIMCLRD
 70
     0
  9
$DIMCLRE
 70
     0
  9
$DIMCLRT
 70
     0
  9
$DIMTFAC
 40
1.0
  9
$DIMGAP
 40
0.625
  9
$DIMJUST
 70
     0
  9
$DIMSD1
 70
     0
  9
$DIMSD2
 70
     0
  9
$DIMTOLJ
 70
     0
  9
$DIMTZIN
 70
     8
  9
$DIMALTZ
 70
     0
  9
$DIMALTTZ
 70
     0
  9
$DIMUPT
 70
     0
  9
$DIMDEC
 70
     2
  9
$DIMTDEC
 70
     2
  9
$DIMALTU
 70
     2
  9
$DIMALTTD
 70
     3
  9
$DIMTXSTY
  7
Standard
  9
$DIMAUNIT
 70
     0
  9
$DIMADEC
 70
     0
  9
$DIMALTRND
 40
0.0
  9
$DIMAZIN
 70
     0
  9
$DIMDSEP
 70
    44
  9
$DIMATFIT
 70
     3
  9
$DIMFRAC
 70
     0
  9
$DIMLDRBLK
  1

  9
$DIMLUNIT
 70
     2
  9
$DIMLWD
 70
    -2
  9
$DIMLWE
 70
    -2
  9
$DIMTMOVE
 70
     0
  9
$LUNITS
 70
     2
  9
$LUPREC
 70
     4
  9
$SKETCHINC
 40
1.0
  9
$FILLETRAD
 40
0.0
  9
$AUNITS
 70
     0
  9
$AUPREC
 70
     0
  9
$MENU
  1
.
  9
$ELEVATION
 40
0.0
  9
$PELEVATION
 40
0.0
  9
$THICKNESS
 40
0.0
  9
$LIMCHECK
 70
     0
  9
$CHAMFERA
 40
10.0
  9
$CHAMFERB
 40
10.0
  9
$CHAMFERC
 40
20.0
  9
$CHAMFERD
 40
0.0
  9
$SKPOLY
 70
     0
  9
$TDCREATE
 40
2454600.760061123
  9
$TDUCREATE
 40
2454600.385061123
  9
$TDUPDATE
 40
2457458.678140429
  9
$TDUUPDATE
 40
2457458.303140429
  9
$TDINDWG
 40
0.0256389468
  9
$TDUSRTIMER
 40
0.0256327546
  9
$USRTIMER
 70
     1
  9
$ANGBASE
 50
0.0
  9
$ANGDIR
 70
     0
  9
$PDMODE
 70
     0
  9
$PDSIZE
 40
0.0
  9
$PLINEWID
 40
0.0
  9
$SPLFRAME
 70
     0
  9
$SPLINETYPE
 70
     6
  9
$SPLINESEGS
 70
     8
  9
$HANDSEED
  5
BE6
  9
$SURFTAB1
 70
     6
  9
$SURFTAB2
 70
     6
  9
$SURFTYPE
 70
     6
  9
$SURFU
 70
     6
  9
$SURFV
 70
     6
  9
$UCSBASE
  2

  9
$UCSNAME
  2

  9
$UCSORG
 10
0.0
 20
0.0
 30
0.0
  9
$UCSXDIR
 10
1.0
 20
0.0
 30
0.0
  9
$UCSYDIR
 10
0.0
 20
1.0
 30
0.0
  9
$UCSORTHOREF
  2

  9
$UCSORTHOVIEW
 70
     0
  9
$UCSORGTOP
 10
0.0
 20
0.0
 30
0.0
  9
$UCSORGBOTTOM
 10
0.0
 20
0.0
 30
0.0
  9
$UCSORGLEFT
 10
0.0
 20
0.0
 30
0.0
  9
$UCSORGRIGHT
 10
0.0
 20
0.0
 30
0.0
  9
$UCSORGFRONT
 10
0.0
 20
0.0
 30
0.0
  9
$UCSORGBACK
 10
0.0
 20
0.0
 30
0.0
  9
$PUCSBASE
  2

  9
$PUCSNAME
  2

  9
$PUCSORG
 10
0.0
 20
0.0
 30
0.0
  9
$PUCSXDIR
 10
1.0
 20
0.0
 30
0.0
  9
$PUCSYDIR
 10
0.0
 20
1.0
 30
0.0
  9
$PUCSORTHOREF
  2

  9
$PUCSORTHOVIEW
 70
     0
  9
$PUCSORGTOP
 10
0.0
 20
0.0
 30
0.0
  9
$PUCSORGBOTTOM
 10
0.0
 20
0.0
 30
0.0
  9
$PUCSORGLEFT
 10
0.0
 20
0.0
 30
0.0
  9
$PUCSORGRIGHT
 10
0.0
 20
0.0
 30
0.0
  9
$PUCSORGFRONT
 10
0.0
 20
0.0
 30
0.0
  9
$PUCSORGBACK
 10
0.0
 20
0.0
 30
0.0
  9
$USERI1
 70
     0
  9
$USERI2
 70
     0
  9
$USERI3
 70
     0
  9
$USERI4
 70
     0
  9
$USERI5
 70
     0
  9
$USERR1
 40
0.0
  9
$USERR2
 40
0.0
  9
$USERR3
 40
0.0
  9
$USERR4
 40
0.0
  9
$USERR5
 40
0.0
  9
$WORLDVIEW
 70
     1
  9
$SHADEDGE
 70
     3
  9
$SHADEDIF
 70
    70
  9
$TILEMODE
 70
     1
  9
$MAXACTVP
 70
    64
  9
$PINSBASE
 10
0.0
 20
0.0
 30
0.0
  9
$PLIMCHECK
 70
     0
  9
$PEXTMIN
 10
1.000000000000000E+20
 20
1.000000000000000E+20
 30
1.000000000000000E+20
  9
$PEXTMAX
 10
-1.000000000000000E+20
 20
-1.000000000000000E+20
 30
-1.000000000000000E+20
  9
$PLIMMIN
 10
-148.0
 20
-104.5
  9
$PLIMMAX
 10
149.0
 20
105.5
  9
$UNITMODE
 70
     0
  9
$VISRETAIN
 70
     1
  9
$PLINEGEN
 70
     0
  9
$PSLTSCALE
 70
     1
  9
$TREEDEPTH
 70
  3020
  9
$CMLSTYLE
  2
Standard
  9
$CMLJUST
 70
     0
  9
$CMLSCALE
 40
20.0
  9
$PROXYGRAPHICS
 70
     1
  9
$MEASUREMENT
 70
     1
  9
$CELWEIGHT
370
    -1
  9
$ENDCAPS
280
     0
  9
$JOINSTYLE
280
     0
  9
$LWDISPLAY
290
     1
  9
$INSUNITS
 70
     4
  9
$HYPERLINKBASE
  1

  9
$STYLESHEET
  1
monochrome.ctb
  9
$XEDIT
290
     1
  9
$CEPSNTYPE
380
     0
  9
$PSTYLEMODE
290
     1
  9
$FINGERPRINTGUID
  2
{8C06FE31-D86F-4001-81BB-12477223A285}
  9
$VERSIONGUID
  2
{53B22849-1B20-4FF5-AA77-5FEDBAB7E88E}
  9
$EXTNAMES
290
     1
  9
$PSVPSCALE
 40
0.0
  9
$OLESTARTUP
290
     0
  9
$SORTENTS
280
   127
  9
$INDEXCTL
280
     0
  9
$HIDETEXT
280
     0
  9
$XCLIPFRAME
290
     0
  9
$HALOGAP
280
     0
  9
$OBSCOLOR
 70
   257
  9
$OBSLTYPE
280
     0
  9
$INTERSECTIONDISPLAY
280
     0
  9
$INTERSECTIONCOLOR
 70
   257
  9
$DIMASSOC
280
     1
  9
$PROJECTNAME
  1

  0
ENDSEC
  0
SECTION
  2
CLASSES
  0
CLASS
  1
ACDBDICTIONARYWDFLT
  2
AcDbDictionaryWithDefault
  3
ObjectDBX Classes
 90
        0
 91
        1
280
     0
281
     0
  0
CLASS
  1
TABLESTYLE
  2
AcDbTableStyle
  3
ObjectDBX Classes
 90
     4095
 91
        1
280
     0
281
     0
  0
CLASS
  1
SORTENTSTABLE
  2
AcDbSortentsTable
  3
ObjectDBX Classes
 90
        0
 91
        1
280
     0
281
     0
  0
CLASS
  1
DICTIONARYVAR
  2
AcDbDictionaryVar
  3
ObjectDBX Classes
 90
        0
 91
       13
280
     0
281
     0
  0
CLASS
  1
PLOTSETTINGS
  2
AcDbPlotSettings
  3
ObjectDBX Classes
 90
        0
 91
        2
280
     0
281
     0
  0
CLASS
  1
MATERIAL
  2
AcDbMaterial
  3
ObjectDBX Classes
 90
     1153
 91
        3
280
     0
281
     0
  0
CLASS
  1
VISUALSTYLE
  2
AcDbVisualStyle
  3
ObjectDBX Classes
 90
     4095
 91
       24
280
     0
281
     0
  0
CLASS
  1
SCALE
  2
AcDbScale
  3
ObjectDBX Classes
 90
     1153
 91
       17
280
     0
281
     0
  0
CLASS
  1
MLEADERSTYLE
  2
AcDbMLeaderStyle
  3
ACDB_MLEADERSTYLE_CLASS
 90
     4095
 91
        1
280
     0
281
     0
  0
CLASS
  1
ACDBSECTIONVIEWSTYLE
  2
AcDbSectionViewStyle
  3
ObjectDBX Classes
 90
     1025
 91
        1
280
     0
281
     0
  0
CLASS
  1
ACDBDETAILVIEWSTYLE
  2
AcDbDetailViewStyle
  3
ObjectDBX Classes
 90
     1025
 91
        1
280
     0
281
     0
  0
CLASS
  1
CELLSTYLEMAP
  2
AcDbCellStyleMap
  3
ObjectDBX Classes
 90
     1152
 91
        2
280
     0
281
     0
  0
ENDSEC
  0
SECTION
  2
TABLES
  0
TABLE
  2
VPORT
  5
8
330
0
100
AcDbSymbolTable
 70
     1
  0
VPORT
  5
A4D
330
8
100
AcDbSymbolTableRecord
100
AcDbViewportTableRecord
  2
*Active
 70
     0
 10
0.0
 20
0.0
 11
1.0
 21
1.0
 12
-47.49384101955334
 22
-4.357275129474345
 13
0.0
 23
0.0
 14
10.0
 24
10.0
 15
10.0
 25
10.0
 16
0.0
 26
0.0
 36
1.0
 17
0.0
 27
0.0
 37
0.0
 40
214.1884867669684
 41
2.047557840616966
 42
50.0
 43
0.0
 44
0.0
 50
0.0
 51
0.0
 71
     0
 72
   100
 73
     1
 74
     3
 75
     0
 76
     0
 77
     0
 78
     0
281
     0
 65
     1
110
0.0
120
0.0
130
0.0
111
1.0
121
0.0
131
0.0
112
0.0
122
1.0
132
0.0
 79
     0
146
0.0
1001
ACAD_NAV_VCDISPLAY
1070
     3
  0
ENDTAB
  0
TABLE
  2
LTYPE
  5
5
330
0
100
AcDbSymbolTable
 70
     8
  0
LTYPE
  5
14
330
5
100
AcDbSymbolTableRecord
100
AcDbLinetypeTableRecord
  2
ByBlock
 70
     0
  3

 72
    65
 73
     0
 40
0.0
  0
LTYPE
  5
15
330
5
100
AcDbSymbolTableRecord
100
AcDbLinetypeTableRecord
  2
ByLayer
 70
     0
  3

 72
    65
 73
     0
 40
0.0
  0
LTYPE
  5
16
330
5
100
AcDbSymbolTableRecord
100
AcDbLinetypeTableRecord
  2
Continuous
 70
     0
  3
Solid line
 72
    65
 73
     0
 40
0.0
  0
LTYPE
  5
2A
330
5
100
AcDbSymbolTableRecord
100
AcDbLinetypeTableRecord
  2
CONTINOUS
 70
     0
  3
______________________________
 72
    65
 73
     0
 40
0.0
  0
LTYPE
  5
2B
330
5
100
AcDbSymbolTableRecord
100
AcDbLinetypeTableRecord
  2
DASHED
 70
     0
  3
__ __ __ __ __ __ __ __ __ __ __ __ __ __ __ __
 72
    65
 73
     2
 40
4.5
 49
3.0
 74
     0
 49
-1.5
 74
     0
  0
LTYPE
  5
2C
330
5
100
AcDbSymbolTableRecord
100
AcDbLinetypeTableRecord
  2
PHANTOM
 70
     0
  3
______  __  __  ______  __  __  _____
 72
    65
 73
     6
 40
15.0
 49
7.5
 74
     0
 49
-1.5
 74
     0
 49
1.5
 74
     0
 49
-1.5
 74
     0
 49
1.5
 74
     0
 49
-1.5
 74
     0
  0
LTYPE
  5
2D
330
5
100
AcDbSymbolTableRecord
100
AcDbLinetypeTableRecord
  2
CENTER
 70
     0
  3
____ _ ____ _ ____ _ ____ _ ____ _ ____
 72
    65
 73
     4
 40
12.0
 49
7.5
 74
     0
 49
-1.5
 74
     0
 49
1.5
 74
     0
 49
-1.5
 74
     0
  0
LTYPE
  5
294
330
5
100
AcDbSymbolTableRecord
100
AcDbLinetypeTableRecord
  2
CENTER2
 70
     0
  3
Center (.5x) ___ _ ___ _ ___ _ ___ _ ___ _ ___
 72
    65
 73
     4
 40
28.575
 49
19.05
 74
     0
 49
-3.174999999999998
 74
     0
 49
3.174999999999998
 74
     0
 49
-3.174999999999998
 74
     0
  0
LTYPE
  5
295
330
5
100
AcDbSymbolTableRecord
100
AcDbLinetypeTableRecord
  2
HIDDEN2
 70
     0
  3
Hidden (.5x) _ _ _ _ _ _ _ _ _ _ _ _ _ _ _ _ _
 72
    65
 73
     2
 40
4.762499999999998
 49
3.174999999999998
 74
     0
 49
-1.587499999999999
 74
     0
  0
ENDTAB
  0
TABLE
  2
LAYER
  5
2
330
0
100
AcDbSymbolTable
 70
    10
  0
LAYER
  5
10
102
{ACAD_XDICTIONARY
360
AAF
102
}
330
2
100
AcDbSymbolTableRecord
100
AcDbLayerTableRecord
  2
0
 70
     0
 62
     7
  6
Continuous
370
    -3
390
F
  0
LAYER
  5
23C
330
2
100
AcDbSymbolTableRecord
100
AcDbLayerTableRecord
  2
Defpoints
 70
     0
 62
     7
  6
Continuous
290
     0
370
    -3
390
F
  0
LAYER
  5
27B
102
{ACAD_XDICTIONARY
360
AB1
102
}
330
2
100
AcDbSymbolTableRecord
100
AcDbLayerTableRecord
  2
VIEW0001
 70
     0
 62
     7
  6
Continuous
370
    -3
390
F
  0
LAYER
  5
296
102
{ACAD_XDICTIONARY
360
AB3
102
}
330
2
100
AcDbSymbolTableRecord
100
AcDbLayerTableRecord
  2
外形線
 70
     0
 62
     7
  6
Continuous
370
    30
390
F
1001
AcAecLayerStandard
1000

1000

  0
LAYER
  5
297
102
{ACAD_XDICTIONARY
360
AB5
102
}
330
2
100
AcDbSymbolTableRecord
100
AcDbLayerTableRecord
  2
図枠
 70
     0
 62
     7
  6
Continuous
370
    50
390
F
1001
AcAecLayerStandard
1000

1000

  0
LAYER
  5
298
102
{ACAD_XDICTIONARY
360
AB7
102
}
330
2
100
AcDbSymbolTableRecord
100
AcDbLayerTableRecord
  2
寸法線
 70
     0
 62
     3
  6
Continuous
370
    15
390
F
1001
AcAecLayerStandard
1000

1000

  0
LAYER
  5
299
102
{ACAD_XDICTIONARY
360
AB9
102
}
330
2
100
AcDbSymbolTableRecord
100
AcDbLayerTableRecord
  2
中心線
 70
     0
 62
     5
  6
CENTER2
370
    -3
390
F
1001
AcAecLayerStandard
1000

1000

  0
LAYER
  5
29A
102
{ACAD_XDICTIONARY
360
ABB
102
}
330
2
100
AcDbSymbolTableRecord
100
AcDbLayerTableRecord
  2
破線
 70
     0
 62
     4
  6
HIDDEN2
370
    -3
390
F
1001
AcAecLayerStandard
1000

1000

  0
LAYER
  5
29B
102
{ACAD_XDICTIONARY
360
ABD
102
}
330
2
100
AcDbSymbolTableRecord
100
AcDbLayerTableRecord
  2
文字
 70
     0
 62
     2
  6
Continuous
370
    -3
390
F
1001
AcAecLayerStandard
1000

1000

  0
LAYER
  5
29C
102
{ACAD_XDICTIONARY
360
ABF
102
}
330
2
100
AcDbSymbolTableRecord
100
AcDbLayerTableRecord
  2
補助線
 70
     0
 62
   252
  6
HIDDEN2
290
     0
370
    -3
390
F
1001
AcAecLayerStandard
1000

1000

  0
ENDTAB
  0
TABLE
  2
STYLE
  5
3
330
0
100
AcDbSymbolTable
 70
     3
  0
STYLE
  5
11
330
3
100
AcDbSymbolTableRecord
100
AcDbTextStyleTableRecord
  2
Standard
 70
     0
 40
0.0
 41
1.0
 50
0.0
 71
     0
 42
2.5
  3
txt
  4
EXTFONT
  0
ENDTAB
  0
TABLE
  2
VIEW
  5
6
330
0
100
AcDbSymbolTable
 70
     0
  0
ENDTAB
  0
TABLE
  2
UCS
  5
7
330
0
100
AcDbSymbolTable
 70
     0
  0
ENDTAB
  0
TABLE
  2
APPID
  5
9
330
0
100
AcDbSymbolTable
 70
     6
  0
APPID
  5
12
330
9
100
AcDbSymbolTableRecord
100
AcDbRegAppTableRecord
  2
ACAD
 70
     0
  0
APPID
  5
29E
330
9
100
AcDbSymbolTableRecord
100
AcDbRegAppTableRecord
  2
AcAecLayerStandard
 70
     0
  0
APPID
  5
9F1
330
9
100
AcDbSymbolTableRecord
100
AcDbRegAppTableRecord
  2
ACAD_PSEXT
 70
     0
  0
APPID
  5
AA6
330
9
100
AcDbSymbolTableRecord
100
AcDbRegAppTableRecord
  2
ACAD_NAV_VCDISPLAY
 70
     0
  0
APPID
  5
B56
330
9
100
AcDbSymbolTableRecord
100
AcDbRegAppTableRecord
  2
ACAD_EXEMPT_FROM_CAD_STANDARDS
 70
     0
  0
APPID
  5
BDD
330
9
100
AcDbSymbolTableRecord
100
AcDbRegAppTableRecord
  2
ACAD_MLEADERVER
 70
     0
  0
ENDTAB
  0
TABLE
  2
DIMSTYLE
  5
A
330
0
100
AcDbSymbolTable
 70
     5
100
AcDbDimStyleTable
 71
     1
340
27
  0
DIMSTYLE
105
27
102
{ACAD_REACTORS
330
235
330
248
330
254
330
261
330
26E
102
}
330
A
100
AcDbSymbolTableRecord
100
AcDbDimStyleTableRecord
  2
ISO-25
 70
     0
 41
2.5
 42
0.625
 43
3.75
 44
1.25
 73
     0
 74
     0
 77
     1
 78
     8
140
2.5
141
2.5
143
0.03937007874016
147
0.625
171
     3
172
     1
271
     2
272
     2
274
     3
278
    44
283
     0
284
     8
340
11
  0
DIMSTYLE
105
29D
330
A
100
AcDbSymbolTableRecord
100
AcDbDimStyleTableRecord
  2
Standard
 70
     0
340
11
  0
ENDTAB
  0
TABLE
  2
BLOCK_RECORD
  5
1
330
0
100
AcDbSymbolTable
 70
    20
  0
BLOCK_RECORD
  5
1F
102
{ACAD_XDICTIONARY
360
290
102
}
330
1
100
AcDbSymbolTableRecord
100
AcDbBlockTableRecord
  2
*Model_Space
340
22
  0
BLOCK_RECORD
  5
1B
330
1
100
AcDbSymbolTableRecord
100
AcDbBlockTableRecord
  2
*Paper_Space
340
1E
  0
BLOCK_RECORD
  5
23
330
1
100
AcDbSymbolTableRecord
100
AcDbBlockTableRecord
  2
*Paper_Space0
340
26
  0
BLOCK_RECORD
  5
236
330
1
100
AcDbSymbolTableRecord
100
AcDbBlockTableRecord
  2
_Open30
340
0
102
{BLKREFS
331
98D
331
98E
331
995
331
996
331
99E
331
99F
331
9A7
331
9A8
331
9B0
331
9B1
331
B5F
331
B60
331
B67
331
B68
331
B70
331
B71
331
B79
331
B7A
331
B82
331
B83
102
}
  0
BLOCK_RECORD
  5
23D
330
1
100
AcDbSymbolTableRecord
100
AcDbBlockTableRecord
  2
*D2
340
0
  0
BLOCK_RECORD
  5
249
330
1
100
AcDbSymbolTableRecord
100
AcDbBlockTableRecord
  2
*D3
340
0
  0
BLOCK_RECORD
  5
255
330
1
100
AcDbSymbolTableRecord
100
AcDbBlockTableRecord
  2
*D4
340
0
  0
BLOCK_RECORD
  5
262
330
1
100
AcDbSymbolTableRecord
100
AcDbBlockTableRecord
  2
*D5
340
0
  0
BLOCK_RECORD
  5
26F
330
1
100
AcDbSymbolTableRecord
100
AcDbBlockTableRecord
  2
*D6
340
0
  0
BLOCK_RECORD
  5
6B1
330
1
100
AcDbSymbolTableRecord
100
AcDbBlockTableRecord
  2
*D12
340
0
  0
BLOCK_RECORD
  5
6BC
330
1
100
AcDbSymbolTableRecord
100
AcDbBlockTableRecord
  2
*D13
340
0
  0
BLOCK_RECORD
  5
6C7
330
1
100
AcDbSymbolTableRecord
100
AcDbBlockTableRecord
  2
*D14
340
0
  0
BLOCK_RECORD
  5
6D3
330
1
100
AcDbSymbolTableRecord
100
AcDbBlockTableRecord
  2
*D15
340
0
  0
BLOCK_RECORD
  5
6DF
330
1
100
AcDbSymbolTableRecord
100
AcDbBlockTableRecord
  2
*D16
340
0
  0
ENDTAB
  0
ENDSEC
  0
SECTION
  2
BLOCKS
  0
BLOCK
  5
20
330
1F
100
AcDbEntity
  8
0
100
AcDbBlockBegin
  2
*Model_Space
 70
     0
 10
0.0
 20
0.0
 30
0.0
  3
*Model_Space
  1

  0
ENDBLK
  5
21
330
1F
100
AcDbEntity
  8
0
100
AcDbBlockEnd
  0
BLOCK
  5
1C
330
1B
100
AcDbEntity
 67
     1
  8
0
100
AcDbBlockBegin
  2
*Paper_Space
 70
     0
 10
0.0
 20
0.0
 30
0.0
  3
*Paper_Space
  1

  0
ENDBLK
  5
1D
330
1B
100
AcDbEntity
 67
     1
  8
0
100
AcDbBlockEnd
  0
BLOCK
  5
24
330
23
100
AcDbEntity
 67
     1
  8
0
100
AcDbBlockBegin
  2
*Paper_Space0
 70
     0
 10
0.0
 20
0.0
 30
0.0
  3
*Paper_Space0
  1

  0
ENDBLK
  5
25
330
23
100
AcDbEntity
 67
     1
  8
0
100
AcDbBlockEnd
  0
BLOCK
  5
237
330
236
100
AcDbEntity
  8
0
100
AcDbBlockBegin
  2
_Open30
 70
     0
 10
0.0
 20
0.0
 30
0.0
  3
_Open30
  1

  0
LINE
  5
239
330
236
100
AcDbEntity
  8
0
  6
ByBlock
 62
     0
370
    -2
100
AcDbLine
 10
-1.0
 20
0.267949
 30
0.0
 11
0.0
 21
0.0
 31
0.0
  0
LINE
  5
23A
330
236
100
AcDbEntity
  8
0
  6
ByBlock
 62
     0
370
    -2
100
AcDbLine
 10
0.0
 20
0.0
 30
0.0
 11
-1.0
 21
-0.267949
 31
0.0
  0
LINE
  5
23B
330
236
100
AcDbEntity
  8
0
  6
ByBlock
 62
     0
370
    -2
100
AcDbLine
 10
0.0
 20
0.0
 30
0.0
 11
-1.0
 21
0.0
 31
0.0
  0
ENDBLK
  5
238
330
236
100
AcDbEntity
  8
0
100
AcDbBlockEnd
  0
BLOCK
  5
246
330
23D
100
AcDbEntity
  8
0
100
AcDbBlockBegin
  2
*D2
 70
     1
 10
0.0
 20
0.0
 30
0.0
  3
*D2
  1

  0
LINE
  5
B5D
330
23D
100
AcDbEntity
  8
寸法線
 62
     0
440
 16777216
370
    -2
100
AcDbLine
 10
-11.20730049184703
 20
45.85622245160219
 30
0.0
 11
-11.20730049184703
 21
57.09757176775077
 31
0.0
  0
LINE
  5
B5E
330
23D
100
AcDbEntity
  8
寸法線
 62
     0
440
 16777216
370
    -2
100
AcDbLine
 10
-55.70730049184701
 20
54.81157176775077
 30
0.0
 11
-14.20730049184703
 21
54.81157176775077
 31
0.0
  0
INSERT
  5
B5F
330
23D
100
AcDbEntity
  8
寸法線
 62
     0
440
 16777216
370
    -2
100
AcDbBlockReference
  2
_Open30
 10
-58.70730049184701
 20
54.81157176775077
 30
0.0
 41
3.0
 42
3.0
 43
3.0
 50
180.0
  0
INSERT
  5
B60
330
23D
100
AcDbEntity
  8
寸法線
 62
     0
440
 16777216
370
    -2
100
AcDbBlockReference
  2
_Open30
 10
-11.20730049184703
 20
54.81157176775077
 30
0.0
 41
3.0
 42
3.0
 43
3.0
  0
MTEXT
  5
B61
330
23D
100
AcDbEntity
  8
寸法線
 62
     0
440
 16777216
100
AcDbMText
 10
-34.95730049184702
 20
57.21157180351356
 30
0.0
 40
3.200000047683716
 41
0.0
 71
     5
 72
     1
  1
L2
 73
     1
 44
1.0
  0
POINT
  5
B62
330
23D
100
AcDbEntity
  8
Defpoints
 62
     0
440
 16777216
100
AcDbPoint
 10
-58.70730049184701
 20
45.0562224516022
 30
0.0
  0
POINT
  5
B63
330
23D
100
AcDbEntity
  8
Defpoints
 62
     0
440
 16777216
100
AcDbPoint
 10
-11.20730049184703
 20
45.0562224516022
 30
0.0
  0
POINT
  5
B64
330
23D
100
AcDbEntity
  8
Defpoints
 62
     0
440
 16777216
100
AcDbPoint
 10
-11.20730049184703
 20
54.81157176775077
 30
0.0
  0
ENDBLK
  5
247
330
23D
100
AcDbEntity
  8
0
100
AcDbBlockEnd
  0
BLOCK
  5
252
330
249
100
AcDbEntity
  8
0
100
AcDbBlockBegin
  2
*D3
 70
     1
 10
0.0
 20
0.0
 30
0.0
  3
*D3
  1

  0
LINE
  5
B65
330
249
100
AcDbEntity
  8
寸法線
 62
     0
440
 16777216
370
    -2
100
AcDbLine
 10
-6.742300491847025
 20
37.4012195524323
 30
0.0
 11
-6.742300491847024
 21
57.09757176775077
 31
0.0
  0
LINE
  5
B66
330
249
100
AcDbEntity
  8
寸法線
 62
     0
440
 16777216
370
    -2
100
AcDbLine
 10
-3.742300491847024
 20
54.81157176775077
 30
0.0
 11
13.05769660898306
 21
54.81157176775077
 31
0.0
  0
INSERT
  5
B67
330
249
100
AcDbEntity
  8
寸法線
 62
     0
440
 16777216
370
    -2
100
AcDbBlockReference
  2
_Open30
 10
-6.742300491847024
 20
54.81157176775077
 30
0.0
 41
3.0
 42
3.0
 43
3.0
 50
180.0
  0
INSERT
  5
B68
330
249
100
AcDbEntity
  8
寸法線
 62
     0
440
 16777216
370
    -2
100
AcDbBlockReference
  2
_Open30
 10
16.05769660898306
 20
54.81157176775077
 30
0.0
 41
3.0
 42
3.0
 43
3.0
  0
MTEXT
  5
B69
330
249
100
AcDbEntity
  8
寸法線
 62
     0
440
 16777216
100
AcDbMText
 10
4.657698058568016
 20
57.21157180351356
 30
0.0
 40
3.200000047683716
 41
0.0
 71
     5
 72
     1
  1
L3
 73
     1
 44
1.0
  0
POINT
  5
B6A
330
249
100
AcDbEntity
  8
Defpoints
 62
     0
440
 16777216
100
AcDbPoint
 10
-6.742300491847025
 20
36.6012195524323
 30
0.0
  0
POINT
  5
B6B
330
249
100
AcDbEntity
  8
Defpoints
 62
     0
440
 16777216
100
AcDbPoint
 10
16.05769660898306
 20
37.96921897259831
 30
0.0
  0
POINT
  5
B6C
330
249
100
AcDbEntity
  8
Defpoints
 62
     0
440
 16777216
100
AcDbPoint
 10
16.05769660898306
 20
54.81157176775077
 30
0.0
  0
ENDBLK
  5
253
330
249
100
AcDbEntity
  8
0
100
AcDbBlockEnd
  0
BLOCK
  5
25F
330
255
100
AcDbEntity
  8
0
100
AcDbBlockBegin
  2
*D4
 70
     1
 10
0.0
 20
0.0
 30
0.0
  3
*D4
  1

  0
LINE
  5
B6D
330
255
100
AcDbEntity
  8
寸法線
 62
     0
440
 16777216
370
    -2
100
AcDbLine
 10
16.05769660898306
 20
38.76921897259831
 30
0.0
 11
16.05769660898306
 21
63.57994913287978
 31
0.0
  0
LINE
  5
B6E
330
255
100
AcDbEntity
  8
寸法線
 62
     0
440
 16777216
370
    -2
100
AcDbLine
 10
-58.70730049184701
 20
45.85622245160219
 30
0.0
 11
-58.70730049184701
 21
63.57994913287978
 31
0.0
  0
LINE
  5
B6F
330
255
100
AcDbEntity
  8
寸法線
 62
     0
440
 16777216
370
    -2
100
AcDbLine
 10
13.05769660898306
 20
61.29394913287978
 30
0.0
 11
-55.70730049184701
 21
61.29394913287978
 31
0.0
  0
INSERT
  5
B70
330
255
100
AcDbEntity
  8
寸法線
 62
     0
440
 16777216
370
    -2
100
AcDbBlockReference
  2
_Open30
 10
16.05769660898306
 20
61.29394913287978
 30
0.0
 41
3.0
 42
3.0
 43
3.0
  0
INSERT
  5
B71
330
255
100
AcDbEntity
  8
寸法線
 62
     0
440
 16777216
370
    -2
100
AcDbBlockReference
  2
_Open30
 10
-58.70730049184701
 20
61.29394913287978
 30
0.0
 41
3.0
 42
3.0
 43
3.0
 50
180.0
  0
MTEXT
  5
B72
330
255
100
AcDbEntity
  8
寸法線
 62
     0
440
 16777216
100
AcDbMText
 10
-17.28111137128011
 20
63.69394916864257
 30
0.0
 40
3.200000047683716
 41
0.0
 71
     5
 72
     1
  1
L1
 73
     1
 44
1.0
  0
POINT
  5
B73
330
255
100
AcDbEntity
  8
Defpoints
 62
     0
440
 16777216
100
AcDbPoint
 10
16.05769660898306
 20
37.96921897259831
 30
0.0
  0
POINT
  5
B74
330
255
100
AcDbEntity
  8
Defpoints
 62
     0
440
 16777216
100
AcDbPoint
 10
-58.70730049184701
 20
45.0562224516022
 30
0.0
  0
POINT
  5
B75
330
255
100
AcDbEntity
  8
Defpoints
 62
     0
440
 16777216
100
AcDbPoint
 10
-58.70730049184701
 20
61.29394913287978
 30
0.0
  0
ENDBLK
  5
260
330
255
100
AcDbEntity
  8
0
100
AcDbBlockEnd
  0
BLOCK
  5
26C
330
262
100
AcDbEntity
  8
0
100
AcDbBlockBegin
  2
*D5
 70
     1
 10
0.0
 20
0.0
 30
0.0
  3
*D5
  1

  0
LINE
  5
B76
330
262
100
AcDbEntity
  8
寸法線
 62
     0
440
 16777216
370
    -2
100
AcDbLine
 10
-61.50592880105651
 20
48.38671958294988
 30
0.0
 11
-69.11911155600643
 21
48.38671958294988
 31
0.0
  0
LINE
  5
B77
330
262
100
AcDbEntity
  8
寸法線
 62
     0
440
 16777216
370
    -2
100
AcDbLine
 10
-58.69900741433776
 20
2.566718362246751
 30
0.0
 11
-69.11911155600645
 21
2.566718362246754
 31
0.0
  0
LINE
  5
B78
330
262
100
AcDbEntity
  8
寸法線
 62
     0
440
 16777216
370
    -2
100
AcDbLine
 10
-67.91911155600641
 20
45.38671958294989
 30
0.0
 11
-67.91911155600643
 21
5.566718362246754
 31
0.0
  0
INSERT
  5
B79
330
262
100
AcDbEntity
  8
寸法線
 62
     0
440
 16777216
370
    -2
100
AcDbBlockReference
  2
_Open30
 10
-67.91911155600641
 20
48.38671958294988
 30
0.0
 41
3.0
 42
3.0
 43
3.0
 50
90.0
  0
INSERT
  5
B7A
330
262
100
AcDbEntity
  8
寸法線
 62
     0
440
 16777216
370
    -2
100
AcDbBlockReference
  2
_Open30
 10
-67.91911155600643
 20
2.566718362246753
 30
0.0
 41
3.0
 42
3.0
 43
3.0
 50
270.0
  0
MTEXT
  5
B7B
102
{ACAD_XDICTIONARY
360
BE2
102
}
330
262
100
AcDbEntity
  8
寸法線
 62
     0
440
 16777216
100
AcDbMText
 10
-70.31911159176921
 20
25.47671897259832
 30
0.0
 40
3.200000047683716
 41
0.0
 71
     5
 72
     1
  1
\U+2205B
 11
0.0000000000000001
 21
1.0
 31
0.0
 73
     1
 44
1.0
  0
POINT
  5
B7C
330
262
100
AcDbEntity
  8
Defpoints
 62
     0
440
 16777216
100
AcDbPoint
 10
-60.70592880105651
 20
48.38671958294988
 30
0.0
  0
POINT
  5
B7D
330
262
100
AcDbEntity
  8
Defpoints
 62
     0
440
 16777216
100
AcDbPoint
 10
-57.89900741433775
 20
2.566718362246751
 30
0.0
  0
POINT
  5
B7E
330
262
100
AcDbEntity
  8
Defpoints
 62
     0
440
 16777216
100
AcDbPoint
 10
-67.91911155600643
 20
2.566718362246753
 30
0.0
  0
ENDBLK
  5
26D
330
262
100
AcDbEntity
  8
0
100
AcDbBlockEnd
  0
BLOCK
  5
279
330
26F
100
AcDbEntity
  8
0
100
AcDbBlockBegin
  2
*D6
 70
     1
 10
0.0
 20
0.0
 30
0.0
  3
*D6
  1

  0
LINE
  5
B7F
330
26F
100
AcDbEntity
  8
寸法線
 62
     0
440
 16777216
370
    -2
100
AcDbLine
 10
9.257699508152978
 20
36.96221839276434
 30
0.0
 11
25.33582191415886
 21
36.96221839276434
 31
0.0
  0
LINE
  5
B80
330
26F
100
AcDbEntity
  8
寸法線
 62
     0
440
 16777216
370
    -2
100
AcDbLine
 10
9.257699508152978
 20
13.9912195524323
 30
0.0
 11
25.33582191415885
 21
13.99121955243229
 31
0.0
  0
LINE
  5
B81
330
26F
100
AcDbEntity
  8
寸法線
 62
     0
440
 16777216
370
    -2
100
AcDbLine
 10
24.13582191415887
 20
33.96221839276434
 30
0.0
 11
24.13582191415887
 21
16.99121955243229
 31
0.0
  0
INSERT
  5
B82
330
26F
100
AcDbEntity
  8
寸法線
 62
     0
440
 16777216
370
    -2
100
AcDbBlockReference
  2
_Open30
 10
24.13582191415887
 20
36.96221839276434
 30
0.0
 41
3.0
 42
3.0
 43
3.0
 50
90.0
  0
INSERT
  5
B83
330
26F
100
AcDbEntity
  8
寸法線
 62
     0
440
 16777216
370
    -2
100
AcDbBlockReference
  2
_Open30
 10
24.13582191415887
 20
13.99121955243229
 30
0.0
 41
3.0
 42
3.0
 43
3.0
 50
270.0
  0
MTEXT
  5
B84
102
{ACAD_XDICTIONARY
360
BE4
102
}
330
26F
100
AcDbEntity
  8
寸法線
 62
     0
440
 16777216
100
AcDbMText
 10
21.73582187839607
 20
25.47671897259832
 30
0.0
 40
3.200000047683716
 41
0.0
 71
     5
 72
     1
  1
\U+2205A
 11
0.0000000000000001
 21
1.0
 31
0.0
 73
     1
 44
1.0
  0
POINT
  5
B85
330
26F
100
AcDbEntity
  8
Defpoints
 62
     0
440
 16777216
100
AcDbPoint
 10
8.457699508152977
 20
36.96221839276434
 30
0.0
  0
POINT
  5
B86
330
26F
100
AcDbEntity
  8
Defpoints
 62
     0
440
 16777216
100
AcDbPoint
 10
8.457699508152977
 20
13.9912195524323
 30
0.0
  0
POINT
  5
B87
330
26F
100
AcDbEntity
  8
Defpoints
 62
     0
440
 16777216
100
AcDbPoint
 10
24.13582191415887
 20
13.99121955243229
 30
0.0
  0
ENDBLK
  5
27A
330
26F
100
AcDbEntity
  8
0
100
AcDbBlockEnd
  0
BLOCK
  5
6BA
330
6B1
100
AcDbEntity
  8
0
100
AcDbBlockBegin
  2
*D12
 70
     1
 10
0.0
 20
0.0
 30
0.0
  3
*D12
  1

  0
LINE
  5
98B
330
6B1
100
AcDbEntity
  8
寸法線
 62
     0
440
 16777216
370
    -2
100
AcDbLine
 10
-68.42101006095117
 20
48.53741164532785
 30
0.0
 11
-68.42101006095117
 21
60.52900503674627
 31
0.0
  0
LINE
  5
98C
330
6B1
100
AcDbEntity
  8
寸法線
 62
     0
440
 16777216
370
    -2
100
AcDbLine
 10
-111.0743226219863
 20
59.02900503674627
 30
0.0
 11
-71.42101006095117
 21
59.02900503674627
 31
0.0
  0
INSERT
  5
98D
330
6B1
100
AcDbEntity
  8
寸法線
 62
     0
440
 16777216
370
    -2
100
AcDbBlockReference
  2
_Open30
 10
-114.0743226219863
 20
59.02900503674627
 30
0.0
 41
3.0
 42
3.0
 43
3.0
 50
180.0
  0
INSERT
  5
98E
330
6B1
100
AcDbEntity
  8
寸法線
 62
     0
440
 16777216
370
    -2
100
AcDbBlockReference
  2
_Open30
 10
-68.42101006095117
 20
59.02900503674627
 30
0.0
 41
3.0
 42
3.0
 43
3.0
  0
MTEXT
  5
98F
330
6B1
100
AcDbEntity
  8
寸法線
 62
     0
440
 16777216
100
AcDbMText
 10
-91.24765587393943
 20
61.42900507250906
 30
0.0
 40
3.200000047683716
 41
0.0
 71
     5
 72
     1
  1
L2
 73
     1
 44
1.0
  0
POINT
  5
990
330
6B1
100
AcDbEntity
  8
Defpoints
 62
     0
440
 16777216
100
AcDbPoint
 10
-114.0743226219863
 20
45.66226059857489
 30
0.0
  0
POINT
  5
991
330
6B1
100
AcDbEntity
  8
Defpoints
 62
     0
440
 16777216
100
AcDbPoint
 10
-68.42101006095117
 20
47.73741164532784
 30
0.0
  0
POINT
  5
992
330
6B1
100
AcDbEntity
  8
Defpoints
 62
     0
440
 16777216
100
AcDbPoint
 10
-68.42101006095117
 20
59.02900503674627
 30
0.0
  0
ENDBLK
  5
6BB
330
6B1
100
AcDbEntity
  8
0
100
AcDbBlockEnd
  0
BLOCK
  5
6C5
330
6BC
100
AcDbEntity
  8
0
100
AcDbBlockBegin
  2
*D13
 70
     1
 10
0.0
 20
0.0
 30
0.0
  3
*D13
  1

  0
LINE
  5
993
330
6BC
100
AcDbEntity
  8
寸法線
 62
     0
440
 16777216
370
    -2
100
AcDbLine
 10
-64.27071320120996
 20
43.17043852749946
 30
0.0
 11
-64.27071320120996
 21
60.52900503674627
 31
0.0
  0
LINE
  5
994
330
6BC
100
AcDbEntity
  8
寸法線
 62
     0
440
 16777216
370
    -2
100
AcDbLine
 10
-61.27071320120997
 20
59.02900503674627
 30
0.0
 11
-43.87811163108056
 21
59.02900503674627
 31
0.0
  0
INSERT
  5
995
330
6BC
100
AcDbEntity
  8
寸法線
 62
     0
440
 16777216
370
    -2
100
AcDbBlockReference
  2
_Open30
 10
-64.27071320120996
 20
59.02900503674627
 30
0.0
 41
3.0
 42
3.0
 43
3.0
 50
180.0
  0
INSERT
  5
996
330
6BC
100
AcDbEntity
  8
寸法線
 62
     0
440
 16777216
370
    -2
100
AcDbBlockReference
  2
_Open30
 10
-40.87811163108058
 20
59.02900503674627
 30
0.0
 41
3.0
 42
3.0
 43
3.0
  0
MTEXT
  5
997
330
6BC
100
AcDbEntity
  8
寸法線
 62
     0
440
 16777216
100
AcDbMText
 10
-52.57441110770411
 20
61.42900507250906
 30
0.0
 40
3.200000047683716
 41
0.0
 71
     5
 72
     1
  1
L3
 73
     1
 44
1.0
  0
POINT
  5
998
330
6BC
100
AcDbEntity
  8
Defpoints
 62
     0
440
 16777216
100
AcDbPoint
 10
-64.27071320120996
 20
42.37043852749946
 30
0.0
  0
POINT
  5
999
330
6BC
100
AcDbEntity
  8
Defpoints
 62
     0
440
 16777216
100
AcDbPoint
 10
-40.87811163108058
 20
43.2664080061066
 30
0.0
  0
POINT
  5
99A
330
6BC
100
AcDbEntity
  8
Defpoints
 62
     0
440
 16777216
100
AcDbPoint
 10
-40.87811163108058
 20
59.02900503674627
 30
0.0
  0
ENDBLK
  5
6C6
330
6BC
100
AcDbEntity
  8
0
100
AcDbBlockEnd
  0
BLOCK
  5
6D1
330
6C7
100
AcDbEntity
  8
0
100
AcDbBlockBegin
  2
*D14
 70
     1
 10
0.0
 20
0.0
 30
0.0
  3
*D14
  1

  0
LINE
  5
99B
330
6C7
100
AcDbEntity
  8
寸法線
 62
     0
440
 16777216
370
    -2
100
AcDbLine
 10
-40.87811163108058
 20
44.0664080061066
 30
0.0
 11
-40.87811163108058
 21
67.57696260968327
 31
0.0
  0
LINE
  5
99C
330
6C7
100
AcDbEntity
  8
寸法線
 62
     0
440
 16777216
370
    -2
100
AcDbLine
 10
-114.0743226219863
 20
46.46226059857489
 30
0.0
 11
-114.0743226219863
 21
67.57696260968327
 31
0.0
  0
LINE
  5
99D
330
6C7
100
AcDbEntity
  8
寸法線
 62
     0
440
 16777216
370
    -2
100
AcDbLine
 10
-43.87811163108056
 20
66.07696260968328
 30
0.0
 11
-111.0743226219863
 21
66.07696260968328
 31
0.0
  0
INSERT
  5
99E
330
6C7
100
AcDbEntity
  8
寸法線
 62
     0
440
 16777216
370
    -2
100
AcDbBlockReference
  2
_Open30
 10
-40.87811163108058
 20
66.07696260968328
 30
0.0
 41
3.0
 42
3.0
 43
3.0
  0
INSERT
  5
99F
330
6C7
100
AcDbEntity
  8
寸法線
 62
     0
440
 16777216
370
    -2
100
AcDbBlockReference
  2
_Open30
 10
-114.0743226219863
 20
66.07696260968328
 30
0.0
 41
3.0
 42
3.0
 43
3.0
 50
180.0
  0
MTEXT
  5
9A0
330
6C7
100
AcDbEntity
  8
寸法線
 62
     0
440
 16777216
100
AcDbMText
 10
-77.47620796744532
 20
68.47696264544606
 30
0.0
 40
3.200000047683716
 41
0.0
 71
     5
 72
     1
  1
L1
 73
     1
 44
1.0
  0
POINT
  5
9A1
330
6C7
100
AcDbEntity
  8
Defpoints
 62
     0
440
 16777216
100
AcDbPoint
 10
-40.87811163108058
 20
43.2664080061066
 30
0.0
  0
POINT
  5
9A2
330
6C7
100
AcDbEntity
  8
Defpoints
 62
     0
440
 16777216
100
AcDbPoint
 10
-114.0743226219863
 20
45.66226059857489
 30
0.0
  0
POINT
  5
9A3
330
6C7
100
AcDbEntity
  8
Defpoints
 62
     0
440
 16777216
100
AcDbPoint
 10
-114.0743226219863
 20
66.07696260968328
 30
0.0
  0
ENDBLK
  5
6D2
330
6C7
100
AcDbEntity
  8
0
100
AcDbBlockEnd
  0
BLOCK
  5
6DD
330
6D3
100
AcDbEntity
  8
0
100
AcDbBlockBegin
  2
*D15
 70
     1
 10
0.0
 20
0.0
 30
0.0
  3
*D15
  1

  0
LINE
  5
9A4
330
6D3
100
AcDbEntity
  8
寸法線
 62
     0
440
 16777216
370
    -2
100
AcDbLine
 10
-114.3083590141982
 20
47.73741687909246
 30
0.0
 11
-121.9467053096543
 21
47.73741687909246
 31
0.0
  0
LINE
  5
9A5
330
6D3
100
AcDbEntity
  8
寸法線
 62
     0
440
 16777216
370
    -2
100
AcDbLine
 10
-114.3083590141982
 20
3.216021066104183
 30
0.0
 11
-121.9467053096543
 21
3.216021066104186
 31
0.0
  0
LINE
  5
9A6
330
6D3
100
AcDbEntity
  8
寸法線
 62
     0
440
 16777216
370
    -2
100
AcDbLine
 10
-120.4467129390488
 20
44.73741687909246
 30
0.0
 11
-120.4467129390489
 21
6.216021066104188
 31
0.0
  0
INSERT
  5
9A7
330
6D3
100
AcDbEntity
  8
寸法線
 62
     0
440
 16777216
370
    -2
100
AcDbBlockReference
  2
_Open30
 10
-120.4467129390488
 20
47.73741687909246
 30
0.0
 41
3.0
 42
3.0
 43
3.0
 50
90.0
  0
INSERT
  5
9A8
330
6D3
100
AcDbEntity
  8
寸法線
 62
     0
440
 16777216
370
    -2
100
AcDbBlockReference
  2
_Open30
 10
-120.4467129390489
 20
3.216021066104186
 30
0.0
 41
3.0
 42
3.0
 43
3.0
 50
270.0
  0
MTEXT
  5
9A9
102
{ACAD_XDICTIONARY
360
BA6
102
}
330
6D3
100
AcDbEntity
  8
寸法線
 62
     0
440
 16777216
100
AcDbMText
 10
-122.8467129748117
 20
25.47671897259832
 30
0.0
 40
3.200000047683716
 41
0.0
 71
     5
 72
     1
  1
\U+2205B
 11
0.0000000000000001
 21
1.0
 31
0.0
 73
     1
 44
1.0
  0
POINT
  5
9AA
330
6D3
100
AcDbEntity
  8
Defpoints
 62
     0
440
 16777216
100
AcDbPoint
 10
-113.5083590141982
 20
47.73741687909246
 30
0.0
  0
POINT
  5
9AB
330
6D3
100
AcDbEntity
  8
Defpoints
 62
     0
440
 16777216
100
AcDbPoint
 10
-113.5083590141982
 20
3.216021066104183
 30
0.0
  0
POINT
  5
9AC
330
6D3
100
AcDbEntity
  8
Defpoints
 62
     0
440
 16777216
100
AcDbPoint
 10
-120.4467129390489
 20
3.216021066104186
 30
0.0
  0
ENDBLK
  5
6DE
330
6D3
100
AcDbEntity
  8
0
100
AcDbBlockEnd
  0
BLOCK
  5
6E9
330
6DF
100
AcDbEntity
  8
0
100
AcDbBlockBegin
  2
*D16
 70
     1
 10
0.0
 20
0.0
 30
0.0
  3
*D16
  1

  0
LINE
  5
9AD
330
6DF
100
AcDbEntity
  8
寸法線
 62
     0
440
 16777216
370
    -2
100
AcDbLine
 10
-42.71921058432766
 20
42.51181166974187
 30
0.0
 11
-31.4672986474045
 21
42.51181166974187
 31
0.0
  0
LINE
  5
9AE
330
6DF
100
AcDbEntity
  8
寸法線
 62
     0
440
 16777216
370
    -2
100
AcDbLine
 10
-42.71921058432766
 20
8.441621041690121
 30
0.0
 11
-31.4672986474045
 21
8.441621041690121
 31
0.0
  0
LINE
  5
9AF
330
6DF
100
AcDbEntity
  8
寸法線
 62
     0
440
 16777216
370
    -2
100
AcDbLine
 10
-32.9672986474045
 20
39.51181166974187
 30
0.0
 11
-32.96729864740451
 21
11.44162104169011
 31
0.0
  0
INSERT
  5
9B0
330
6DF
100
AcDbEntity
  8
寸法線
 62
     0
440
 16777216
370
    -2
100
AcDbBlockReference
  2
_Open30
 10
-32.9672986474045
 20
42.51181166974187
 30
0.0
 41
3.0
 42
3.0
 43
3.0
 50
90.0
  0
INSERT
  5
9B1
330
6DF
100
AcDbEntity
  8
寸法線
 62
     0
440
 16777216
370
    -2
100
AcDbBlockReference
  2
_Open30
 10
-32.96729864740451
 20
8.441621041690121
 30
0.0
 41
3.0
 42
3.0
 43
3.0
 50
270.0
  0
MTEXT
  5
9B2
102
{ACAD_XDICTIONARY
360
BA8
102
}
330
6DF
100
AcDbEntity
  8
寸法線
 62
     0
440
 16777216
100
AcDbMText
 10
-35.36729868316729
 20
25.0043805450547
 30
0.0
 40
3.200000047683716
 41
0.0
 71
     5
 72
     1
  1
\U+2205A
 11
0.0000000000000001
 21
1.0
 31
0.0
 73
     1
 44
1.0
  0
POINT
  5
9B3
330
6DF
100
AcDbEntity
  8
Defpoints
 62
     0
440
 16777216
100
AcDbPoint
 10
-43.51921058432766
 20
42.51181166974187
 30
0.0
  0
POINT
  5
9B4
330
6DF
100
AcDbEntity
  8
Defpoints
 62
     0
440
 16777216
100
AcDbPoint
 10
-43.51921058432766
 20
8.441621041690121
 30
0.0
  0
POINT
  5
9B5
330
6DF
100
AcDbEntity
  8
Defpoints
 62
     0
440
 16777216
100
AcDbPoint
 10
-32.96729864740451
 20
8.441621041690121
 30
0.0
  0
ENDBLK
  5
6EA
330
6DF
100
AcDbEntity
  8
0
100
AcDbBlockEnd
  0
ENDSEC
  0
SECTION
  2
ENTITIES
  0
LINE
  5
2E
330
1F
100
AcDbEntity
  8
0
  6
Continuous
 62
     7
100
AcDbLine
 10
-91.03360473140057
 20
-26.74586378271522
 30
0.0
 11
88.96640021578487
 21
-26.74586378271522
 31
0.0
  0
LINE
  5
2F
330
1F
100
AcDbEntity
  8
0
  6
Continuous
 62
     7
100
AcDbLine
 10
-91.03360473140057
 20
-32.74586369330827
 30
0.0
 11
88.96640021578487
 21
-32.74586369330827
 31
0.0
  0
LINE
  5
30
330
1F
100
AcDbEntity
  8
0
  6
Continuous
 62
     7
100
AcDbLine
 10
-91.03359710200615
 20
-38.74586360390133
 30
0.0
 11
88.96640784517925
 21
-38.74586360390133
 31
0.0
  0
LINE
  5
31
330
1F
100
AcDbEntity
  8
0
  6
Continuous
 62
     7
100
AcDbLine
 10
-91.03359710200615
 20
-44.74586351449431
 30
0.0
 11
88.96640784517925
 21
-44.74586351449431
 31
0.0
  0
LINE
  5
32
330
1F
100
AcDbEntity
  8
0
  6
Continuous
 62
     7
100
AcDbLine
 10
-91.03359710200615
 20
-50.74586342508739
 30
0.0
 11
88.96640784517925
 21
-50.74586342508739
 31
0.0
  0
LINE
  5
33
330
1F
100
AcDbEntity
  8
0
  6
Continuous
 62
     7
100
AcDbLine
 10
-91.03359455887467
 20
-26.74586378271522
 30
0.0
 11
-91.03358947261169
 21
-50.74586342508739
 31
0.0
  0
LINE
  5
34
330
1F
100
AcDbEntity
  8
0
  6
Continuous
 62
     7
100
AcDbLine
 10
-41.0335978470642
 20
-26.74586378271522
 30
0.0
 11
-41.03359657549846
 21
-32.74586369330827
 31
0.0
  0
LINE
  5
35
330
1F
100
AcDbEntity
  8
0
  6
Continuous
 62
     7
100
AcDbLine
 10
-15.0335829757055
 20
-26.74586378271522
 30
0.0
 11
-15.03358170413976
 21
-32.74586369330827
 31
0.0
  0
LINE
  5
36
330
1F
100
AcDbEntity
  8
0
  6
Continuous
 62
     7
100
AcDbLine
 10
10.96641663686431
 20
-26.74586378271522
 30
0.0
 11
10.96641790843005
 21
-32.74586369330827
 31
0.0
  0
LINE
  5
37
330
1F
100
AcDbEntity
  8
0
  6
Continuous
 62
     7
100
AcDbLine
 10
36.96643150822293
 20
-26.74586378271522
 30
0.0
 11
36.96643277978866
 21
-32.74586369330827
 31
0.0
  0
LINE
  5
38
330
1F
100
AcDbEntity
  8
0
  6
Continuous
 62
     7
100
AcDbLine
 10
62.96640060321506
 20
-26.74586378271522
 30
0.0
 11
62.96640187478079
 21
-32.74586369330827
 31
0.0
  0
LINE
  5
39
330
1F
100
AcDbEntity
  8
0
  6
Continuous
 62
     7
100
AcDbLine
 10
88.96640784517936
 20
-26.74586378271522
 30
0.0
 11
88.96640784517936
 21
-50.74586342508739
 31
0.0
  0
LINE
  5
3A
330
1F
100
AcDbEntity
  8
破線
  6
DASHED
100
AcDbLine
 10
-18.30509977758457
 20
5.772030175998994
 30
0.0
 11
-18.76793234973336
 21
4.044714613648363
 31
0.0
  0
LINE
  5
3B
330
1F
100
AcDbEntity
  8
外形線
  6
Continuous
100
AcDbLine
 10
-56.15976619830291
 20
47.09502152168839
 30
0.0
 11
-57.1837879669648
 21
28.32672154000557
 31
0.0
  0
LINE
  5
3C
330
1F
100
AcDbEntity
  8
破線
  6
DASHED
100
AcDbLine
 10
5.377255114621441
 20
36.2299605291734
 30
0.0
 11
6.052387072654717
 21
36.90509243029732
 31
0.0
  0
LINE
  5
3D
330
1F
100
AcDbEntity
  8
中心線
  6
CENTER
100
AcDbLine
 10
-52.76979873333675
 20
3.712217937139293
 30
0.0
 11
-50.39479903792781
 21
47.24121414488521
 31
0.0
  0
LINE
  5
3E
330
1F
100
AcDbEntity
  8
中心線
  6
CENTER
100
AcDbLine
 10
-19.5198033582979
 20
3.712216502184421
 30
0.0
 11
-17.14480358391511
 21
47.24121415736244
 31
0.0
  0
LINE
  5
3F
330
1F
100
AcDbEntity
  8
外形線
  6
Continuous
100
AcDbLine
 10
-24.83365715078257
 20
45.05622245160222
 30
0.0
 11
-24.26981208852672
 21
45.05622245160222
 31
0.0
  0
LINE
  5
40
330
1F
100
AcDbEntity
  8
破線
  6
DASHED
100
AcDbLine
 10
-29.01981208852671
 20
44.72372535077214
 30
0.0
 11
-28.45596702627085
 21
44.72372535077214
 31
0.0
  0
LINE
  5
41
330
1F
100
AcDbEntity
  8
外形線
  6
Continuous
100
AcDbLine
 10
-14.74481254629036
 20
22.62671897259831
 30
0.0
 11
-12.73081283620736
 21
22.62671897259831
 31
0.0
  0
LINE
  5
42
330
1F
100
AcDbEntity
  8
破線
  6
DASHED
100
AcDbLine
 10
-51.14667701772591
 20
46.90872535077214
 30
0.0
 11
-49.64294715932748
 21
46.90872535077214
 31
0.0
  0
LINE
  5
43
330
1F
100
AcDbEntity
  8
外形線
  6
Continuous
100
AcDbLine
 10
-48.85892863416628
 20
45.26745880580356
 30
0.0
 11
-49.31232768000558
 21
46.95956795057957
 31
0.0
  0
LINE
  5
44
330
1F
100
AcDbEntity
  8
中心線
  6
CENTER
100
AcDbLine
 10
-56.4532933772973
 20
23.25866467441477
 30
0.0
 11
-55.14477354523386
 21
47.24121714284422
 31
0.0
  0
LINE
  5
45
330
1F
100
AcDbEntity
  8
外形線
  6
Continuous
100
AcDbLine
 10
-25.10894033418323
 20
45.26747848428546
 30
0.0
 11
-25.56233938002255
 21
46.95958762906147
 31
0.0
  0
LINE
  5
46
330
1F
100
AcDbEntity
  8
外形線
  6
Continuous
100
AcDbLine
 10
-26.64481208852671
 20
47.24121955243229
 30
0.0
 11
-25.9293955235853
 21
47.24121955243229
 31
0.0
  0
LINE
  5
47
330
1F
100
AcDbEntity
  8
外形線
  6
Continuous
100
AcDbLine
 10
-27.48394310184294
 20
5.685985073422307
 30
0.0
 11
-27.93734139732222
 21
3.993878729029496
 31
0.0
  0
LINE
  5
48
330
1F
100
AcDbEntity
  8
外形線
  6
Continuous
100
AcDbLine
 10
-53.60895354907619
 20
45.2674613738096
 30
0.0
 11
-54.06235259491552
 21
46.9595705185856
 31
0.0
  0
LINE
  5
49
330
1F
100
AcDbEntity
  8
外形線
  6
Continuous
100
AcDbLine
 10
-26.64481208852671
 20
47.24121955243229
 30
0.0
 11
-27.36022865346811
 21
47.24121955243229
 31
0.0
  0
LINE
  5
4A
330
1F
100
AcDbEntity
  8
外形線
  6
Continuous
100
AcDbLine
 10
-55.14480629018685
 20
47.24121955243229
 30
0.0
 11
-55.86022865346812
 21
47.24121955243229
 31
0.0
  0
LINE
  5
4B
330
1F
100
AcDbEntity
  8
外形線
  6
Continuous
100
AcDbLine
 10
-28.18068858283571
 20
45.2674594400997
 30
0.0
 11
-27.72728953699639
 21
46.95956858487567
 31
0.0
  0
LINE
  5
4C
330
1F
100
AcDbEntity
  8
破線
  6
DASHED
100
AcDbLine
 10
-27.39667701772594
 20
46.90872535077214
 30
0.0
 11
-25.89295005849742
 21
46.90872535077214
 31
0.0
  0
LINE
  5
4D
330
1F
100
AcDbEntity
  8
外形線
  6
Continuous
100
AcDbLine
 10
-48.58365425161263
 20
45.05622245160222
 30
0.0
 11
-48.01980629018686
 21
45.05622245160222
 31
0.0
  0
LINE
  5
4E
330
1F
100
AcDbEntity
  8
外形線
  6
Continuous
100
AcDbLine
 10
-50.39480629018686
 20
47.24121955243229
 30
0.0
 11
-51.11022285512827
 21
47.24121955243229
 31
0.0
  0
LINE
  5
4F
330
1F
100
AcDbEntity
  8
外形線
  6
Continuous
100
AcDbLine
 10
-51.93067297709585
 20
45.26746569110081
 30
0.0
 11
-51.47727430643658
 21
46.95957343568524
 31
0.0
  0
LINE
  5
50
330
1F
100
AcDbEntity
  8
破線
  6
DASHED
100
AcDbLine
 10
-37.30510912126272
 20
5.772037724078612
 30
0.0
 11
-37.76794244377156
 21
4.044719361344788
 31
0.0
  0
LINE
  5
51
330
1F
100
AcDbEntity
  8
外形線
  6
Continuous
100
AcDbLine
 10
-29.01981208852671
 20
45.05622245160222
 30
0.0
 11
-28.45596702627085
 21
45.05622245160222
 31
0.0
  0
LINE
  5
52
330
1F
100
AcDbEntity
  8
外形線
  6
Continuous
100
AcDbLine
 10
-11.20730049184703
 20
45.0562224516022
 30
0.0
 11
-11.20730049184703
 21
5.897218392764326
 31
0.0
  0
LINE
  5
53
330
1F
100
AcDbEntity
  8
外形線
  6
Continuous
100
AcDbLine
 10
-55.14480629018685
 20
47.24121955243229
 30
0.0
 11
-54.42939552358529
 21
47.24121955243229
 31
0.0
  0
LINE
  5
54
330
1F
100
AcDbEntity
  8
破線
  6
DASHED
100
AcDbLine
 10
-40.89480629018686
 20
6.229712594424487
 30
0.0
 11
-40.33096412710093
 21
6.229712594424487
 31
0.0
  0
LINE
  5
55
330
1F
100
AcDbEntity
  8
破線
  6
DASHED
100
AcDbLine
 10
-48.01980629018686
 20
44.72372535077214
 30
0.0
 11
-47.45595832876108
 21
44.72372535077214
 31
0.0
  0
LINE
  5
56
330
1F
100
AcDbEntity
  8
外形線
  6
Continuous
100
AcDbLine
 10
-29.01981208852671
 20
3.712218392764331
 30
0.0
 11
-29.73522865346811
 21
3.712218392764331
 31
0.0
  0
LINE
  5
57
330
1F
100
AcDbEntity
  8
外形線
  6
Continuous
100
AcDbLine
 10
-18.15979905287461
 20
47.0950232513011
 30
0.0
 11
-20.51982422180187
 21
3.840415106956029
 31
0.0
  0
LINE
  5
58
330
1F
100
AcDbEntity
  8
外形線
  6
Continuous
100
AcDbLine
 10
-57.18380409292123
 20
28.32671897259832
 30
0.0
 11
-55.16980873159312
 21
28.32671897259832
 31
0.0
  0
LINE
  5
59
330
1F
100
AcDbEntity
  8
外形線
  6
Continuous
100
AcDbLine
 10
-50.39480629018686
 20
47.24121955243229
 30
0.0
 11
-49.67939552358529
 21
47.24121955243229
 31
0.0
  0
LINE
  5
5A
330
1F
100
AcDbEntity
  8
外形線
  6
Continuous
100
AcDbLine
 10
-58.70730049184703
 20
45.0562224516022
 30
0.0
 11
-58.70730049184703
 21
5.897218392764326
 31
0.0
  0
LINE
  5
5B
330
1F
100
AcDbEntity
  8
外形線
  6
Continuous
100
AcDbLine
 10
-40.0556733925736
 20
5.685972147759891
 30
0.0
 11
-39.60227622263436
 21
3.993870003941886
 31
0.0
  0
LINE
  5
5C
330
1F
100
AcDbEntity
  8
外形線
  6
Continuous
100
AcDbLine
 10
-38.51980629018687
 20
3.712218392764331
 30
0.0
 11
-39.23522285512826
 21
3.712218392764331
 31
0.0
  0
LINE
  5
5D
330
1F
100
AcDbEntity
  8
破線
  6
DASHED
100
AcDbLine
 10
-27.85950684541527
 20
45.18139984752235
 30
0.0
 11
-27.39667483603648
 21
46.90871330958557
 31
0.0
  0
LINE
  5
5E
330
1F
100
AcDbEntity
  8
破線
  6
DASHED
100
AcDbLine
 10
-25.43010908123238
 20
45.18140961633963
 30
0.0
 11
-25.89294165338117
 21
46.90872517869027
 31
0.0
  0
LINE
  5
5F
330
1F
100
AcDbEntity
  8
外形線
  6
Continuous
100
AcDbLine
 10
-19.51980339101694
 20
3.712218392764331
 30
0.0
 11
-20.23521995595834
 21
3.712218392764331
 31
0.0
  0
LINE
  5
60
330
1F
100
AcDbEntity
  8
外形線
  6
Continuous
100
AcDbLine
 10
-21.05563297002871
 20
5.685992525554672
 30
0.0
 11
-20.60223504972944
 21
3.993887581353464
 31
0.0
  0
LINE
  5
61
330
1F
100
AcDbEntity
  8
外形線
  6
Continuous
100
AcDbLine
 10
-17.7086484532728
 20
5.89721839276433
 30
0.0
 11
-17.14480339101694
 21
5.89721839276433
 31
0.0
  0
LINE
  5
62
330
1F
100
AcDbEntity
  8
破線
  6
DASHED
100
AcDbLine
 10
-20.73446969628367
 20
5.772031413239972
 30
0.0
 11
-20.2716374993149
 21
4.044717251080946
 31
0.0
  0
LINE
  5
63
330
1F
100
AcDbEntity
  8
外形線
  6
Continuous
100
AcDbLine
 10
14.89356391855336
 20
12.98421897259831
 30
0.0
 11
16.05769660898306
 21
12.98421897259831
 31
0.0
  0
LINE
  5
64
330
1F
100
AcDbEntity
  8
外形線
  6
Continuous
100
AcDbLine
 10
-55.16979994232567
 20
28.32671651116254
 30
0.0
 11
-54.14479242612634
 21
47.11302164157099
 31
0.0
  0
LINE
  5
65
330
1F
100
AcDbEntity
  8
外形線
  6
Continuous
100
AcDbLine
 10
-22.90977869221415
 20
47.09501162314754
 30
0.0
 11
-25.26980386114143
 21
3.840403478802436
 31
0.0
  0
LINE
  5
66
330
1F
100
AcDbEntity
  8
破線
  6
DASHED
100
AcDbLine
 10
-21.89480339101694
 20
6.229712594424487
 30
0.0
 11
-21.33095832876108
 21
6.229712594424487
 31
0.0
  0
LINE
  5
67
330
1F
100
AcDbEntity
  8
破線
  6
DASHED
100
AcDbLine
 10
-36.70865425161264
 20
6.229712594424487
 30
0.0
 11
-36.14480629018685
 21
6.229712594424487
 31
0.0
  0
LINE
  5
68
330
1F
100
AcDbEntity
  8
外形線
  6
Continuous
100
AcDbLine
 10
-52.76980629018686
 20
45.05622245160222
 30
0.0
 11
-52.2059641271009
 21
45.05622245160222
 31
0.0
  0
LINE
  5
69
330
1F
100
AcDbEntity
  8
外形線
  6
Continuous
100
AcDbLine
 10
-38.51980629018687
 20
3.712218392764331
 30
0.0
 11
-37.80438972524546
 21
3.712218392764331
 31
0.0
  0
LINE
  5
6A
330
1F
100
AcDbEntity
  8
外形線
  6
Continuous
100
AcDbLine
 10
-40.89480629018686
 20
5.89721839276433
 30
0.0
 11
-40.33096412710093
 21
5.89721839276433
 31
0.0
  0
LINE
  5
6B
330
1F
100
AcDbEntity
  8
外形線
  6
Continuous
100
AcDbLine
 10
-58.70730629018686
 20
45.05622245160222
 30
0.0
 11
-56.95596412710091
 21
45.05622245160222
 31
0.0
  0
LINE
  5
6C
330
1F
100
AcDbEntity
  8
破線
  6
DASHED
100
AcDbLine
 10
-39.271674118556
 20
4.044718392764327
 30
0.0
 11
-37.76794426015758
 21
4.044718392764327
 31
0.0
  0
LINE
  5
6D
330
1F
100
AcDbEntity
  8
外形線
  6
Continuous
100
AcDbLine
 10
-36.98393952332511
 20
5.685977632462409
 30
0.0
 11
-37.43733781880441
 21
3.993871288069597
 31
0.0
  0
LINE
  5
6E
330
1F
100
AcDbEntity
  8
破線
  6
DASHED
100
AcDbLine
 10
-24.83365715078257
 20
44.72372535077214
 30
0.0
 11
-24.26981208852672
 21
44.72372535077214
 31
0.0
  0
LINE
  5
6F
330
1F
100
AcDbEntity
  8
破線
  6
DASHED
100
AcDbLine
 10
-55.89666542104623
 20
46.90872535077214
 30
0.0
 11
-54.39294715932748
 21
46.90872535077214
 31
0.0
  0
LINE
  5
70
330
1F
100
AcDbEntity
  8
破線
  6
DASHED
100
AcDbLine
 10
-43.83365425161263
 20
44.72372535077214
 30
0.0
 11
-43.26980629018685
 21
44.72372535077214
 31
0.0
  0
LINE
  5
71
330
1F
100
AcDbEntity
  8
中心線
  6
CENTER
100
AcDbLine
 10
-29.01980334892888
 20
3.712219472457518
 30
0.0
 11
-26.6448036535199
 21
47.24121568020342
 31
0.0
  0
LINE
  5
72
330
1F
100
AcDbEntity
  8
破線
  6
DASHED
100
AcDbLine
 10
-51.6095145337935
 20
45.18140877594869
 30
0.0
 11
-51.14668266510727
 21
46.90872171294007
 31
0.0
  0
LINE
  5
73
330
1F
100
AcDbEntity
  8
破線
  6
DASHED
100
AcDbLine
 10
-49.18011018399671
 20
45.18139851313041
 30
0.0
 11
-49.64294350650555
 21
46.90871687586422
 31
0.0
  0
LINE
  5
74
330
1F
100
AcDbEntity
  8
破線
  6
DASHED
100
AcDbLine
 10
-52.76980629018686
 20
44.72372535077214
 30
0.0
 11
-52.2059641271009
 21
44.72372535077214
 31
0.0
  0
LINE
  5
75
330
1F
100
AcDbEntity
  8
破線
  6
DASHED
100
AcDbLine
 10
-48.58365425161263
 20
44.72372535077214
 30
0.0
 11
-48.01980629018686
 21
44.72372535077214
 31
0.0
  0
LINE
  5
76
330
1F
100
AcDbEntity
  8
外形線
  6
Continuous
100
AcDbLine
 10
-53.33364845327281
 20
45.05622245160222
 30
0.0
 11
-52.76980629018686
 21
45.05622245160222
 31
0.0
  0
LINE
  5
77
330
1F
100
AcDbEntity
  8
外形線
  6
Continuous
100
AcDbLine
 10
-56.68066992160441
 20
45.26746669626754
 30
0.0
 11
-56.22727092266259
 21
46.9595756660196
 31
0.0
  0
LINE
  5
78
330
1F
100
AcDbEntity
  8
破線
  6
DASHED
100
AcDbLine
 10
-56.35951072794204
 20
45.18141258149859
 30
0.0
 11
-55.89667853097327
 21
46.90872674365762
 31
0.0
  0
LINE
  5
79
330
1F
100
AcDbEntity
  8
中心線
  6
CENTER
100
AcDbLine
 10
-53.95727680681852
 20
25.47671870531767
 30
0.0
 11
-55.14477662490781
 21
47.24121626640356
 31
0.0
  0
LINE
  5
7A
330
1F
100
AcDbEntity
  8
外形線
  6
Continuous
100
AcDbLine
 10
-53.55233627349655
 20
45.05621471771978
 30
0.0
 11
-54.73983822644569
 21
25.47671172287091
 31
0.0
  0
LINE
  5
7B
330
1F
100
AcDbEntity
  8
外形線
  6
Continuous
100
AcDbLine
 10
-23.25482520588874
 20
3.858416268158901
 30
0.0
 11
-20.89479215597379
 21
47.11302688598881
 31
0.0
  0
LINE
  5
7C
330
1F
100
AcDbEntity
  8
外形線
  6
Continuous
100
AcDbLine
 10
-54.3622584059675
 20
5.897215375223691
 30
0.0
 11
-51.9872620000147
 21
45.05621818917282
 31
0.0
  0
LINE
  5
7D
330
1F
100
AcDbEntity
  8
外形線
  6
Continuous
100
AcDbLine
 10
14.72769660898306
 20
37.87189093915105
 30
0.0
 11
14.72769660898306
 21
25.47671897259832
 31
0.0
  0
LINE
  5
7E
330
1F
100
AcDbEntity
  8
外形線
  6
Continuous
100
AcDbLine
 10
-11.20730237252085
 20
45.05622182741339
 30
0.0
 11
-7.964026278612074
 21
35.99306405637807
 31
0.0
  0
LINE
  5
7F
330
1F
100
AcDbEntity
  8
破線
  6
DASHED
100
AcDbLine
 10
-53.33364845327281
 20
44.72372535077214
 30
0.0
 11
-52.76980629018686
 21
44.72372535077214
 31
0.0
  0
LINE
  5
80
330
1F
100
AcDbEntity
  8
破線
  6
DASHED
100
AcDbLine
 10
-53.9301089440409
 20
45.18139308210075
 30
0.0
 11
-54.39294226654973
 21
46.90871144483454
 31
0.0
  0
LINE
  5
81
330
1F
100
AcDbEntity
  8
破線
  6
DASHED
100
AcDbLine
 10
-58.70730629018686
 20
44.72372535077214
 30
0.0
 11
-56.95596412710091
 21
44.72372535077214
 31
0.0
  0
LINE
  5
82
330
1F
100
AcDbEntity
  8
破線
  6
DASHED
100
AcDbLine
 10
-29.77167701772593
 20
4.044718392764327
 30
0.0
 11
-28.26795005849742
 21
4.044718392764327
 31
0.0
  0
LINE
  5
83
330
1F
100
AcDbEntity
  8
外形線
  6
Continuous
100
AcDbLine
 10
-31.39481208852669
 20
5.89721839276433
 30
0.0
 11
-30.83096702627085
 21
5.89721839276433
 31
0.0
  0
LINE
  5
84
330
1F
100
AcDbEntity
  8
外形線
  6
Continuous
100
AcDbLine
 10
-29.01981208852671
 20
3.712218392764331
 30
0.0
 11
-28.3043955235853
 21
3.712218392764331
 31
0.0
  0
LINE
  5
85
330
1F
100
AcDbEntity
  8
外形線
  6
Continuous
100
AcDbLine
 10
-15.55231809663302
 20
45.05621213360448
 30
0.0
 11
-17.9273217831401
 21
5.897209761222168
 31
0.0
  0
LINE
  5
86
330
1F
100
AcDbEntity
  8
外形線
  6
Continuous
100
AcDbLine
 10
-30.55566074502917
 20
5.685982561044601
 30
0.0
 11
-30.10226282472993
 21
3.993877616843395
 31
0.0
  0
LINE
  5
87
330
1F
100
AcDbEntity
  8
外形線
  6
Continuous
100
AcDbLine
 10
-27.20865715078256
 20
5.89721839276433
 30
0.0
 11
-26.64481208852671
 21
5.89721839276433
 31
0.0
  0
LINE
  5
88
330
1F
100
AcDbEntity
  8
外形線
  6
Continuous
100
AcDbLine
 10
-57.92477485611175
 20
25.47671860676762
 30
0.0
 11
-56.73727630211066
 21
45.05622580144697
 31
0.0
  0
LINE
  5
89
330
1F
100
AcDbEntity
  8
破線
  6
DASHED
100
AcDbLine
 10
-30.23449393400782
 20
5.772030650503761
 30
0.0
 11
-29.77166192462905
 21
4.044717188440536
 31
0.0
  0
LINE
  5
8A
330
1F
100
AcDbEntity
  8
破線
  6
DASHED
100
AcDbLine
 10
-27.80511795230078
 20
5.772025562356127
 30
0.0
 11
-28.26795052444958
 21
4.044710000005505
 31
0.0
  0
LINE
  5
8B
330
1F
100
AcDbEntity
  8
破線
  6
DASHED
100
AcDbLine
 10
-31.39481208852669
 20
6.229712594424487
 30
0.0
 11
-30.83096702627085
 21
6.229712594424487
 31
0.0
  0
LINE
  5
8C
330
1F
100
AcDbEntity
  8
外形線
  6
Continuous
100
AcDbLine
 10
-19.51980339101694
 20
3.712218392764331
 30
0.0
 11
-18.80438682607553
 21
3.712218392764331
 31
0.0
  0
LINE
  5
8D
330
1F
100
AcDbEntity
  8
外形線
  6
Continuous
100
AcDbLine
 10
-21.89480339101694
 20
5.89721839276433
 30
0.0
 11
-21.33095832876108
 21
5.89721839276433
 31
0.0
  0
LINE
  5
8E
330
1F
100
AcDbEntity
  8
破線
  6
DASHED
100
AcDbLine
 10
-20.27167121938608
 20
4.044718392764327
 30
0.0
 11
-18.7679428105726
 21
4.044718392764327
 31
0.0
  0
LINE
  5
8F
330
1F
100
AcDbEntity
  8
外形線
  6
Continuous
100
AcDbLine
 10
-17.98393653077337
 20
5.685968784719637
 30
0.0
 11
-18.43733557661269
 21
3.993859639943633
 31
0.0
  0
LINE
  5
90
330
1F
100
AcDbEntity
  8
破線
  6
DASHED
100
AcDbLine
 10
-27.20865715078256
 20
6.229712594424487
 30
0.0
 11
-26.64481208852671
 21
6.229712594424487
 31
0.0
  0
LINE
  5
91
330
1F
100
AcDbEntity
  8
外形線
  6
Continuous
100
AcDbLine
 10
-20.30231972741763
 20
45.05621405150217
 30
0.0
 11
-22.67732341392473
 21
5.897211679119862
 31
0.0
  0
LINE
  5
92
330
1F
100
AcDbEntity
  8
外形線
  6
Continuous
100
AcDbLine
 10
-7.631563056525706
 20
35.94520819055432
 30
0.0
 11
-6.914363857802634
 21
36.92972745494768
 31
0.0
  0
LINE
  5
93
330
1F
100
AcDbEntity
  8
破線
  6
DASHED
100
AcDbLine
 10
-11.44146572640931
 20
44.72372407934471
 30
0.0
 11
-8.065330612935845
 21
35.28929904004284
 31
0.0
  0
LINE
  5
94
330
1F
100
AcDbEntity
  8
破線
  6
DASHED
100
AcDbLine
 10
15.1171508020983
 20
13.31671897259831
 30
0.0
 11
15.72519660898307
 21
13.31671897259831
 31
0.0
  0
LINE
  5
95
330
1F
100
AcDbEntity
  8
外形線
  6
Continuous
100
AcDbLine
 10
-57.9247691438615
 20
25.47671975399728
 30
0.0
 11
-57.18380183737058
 21
28.32671796768925
 31
0.0
  0
LINE
  5
96
330
1F
100
AcDbEntity
  8
外形線
  6
Continuous
100
AcDbLine
 10
11.30769950815297
 20
37.96921897259831
 30
0.0
 11
11.30769950815297
 21
25.47671897259832
 31
0.0
  0
LINE
  5
97
330
1F
100
AcDbEntity
  8
外形線
  6
Continuous
100
AcDbLine
 10
-55.16983868452362
 20
28.32671560390028
 30
0.0
 11
-54.73987046605961
 21
25.47671436901651
 31
0.0
  0
LINE
  5
98
330
1F
100
AcDbEntity
  8
外形線
  6
Continuous
100
AcDbLine
 10
-6.914366226710285
 20
36.92972594586491
 30
0.0
 11
-6.914366226710285
 21
25.47671897259832
 31
0.0
  0
LINE
  5
99
330
1F
100
AcDbEntity
  8
外形線
  6
Continuous
100
AcDbLine
 10
-21.11226571275755
 20
5.897210719634047
 30
0.0
 11
-18.7372694823171
 21
45.05621063973081
 31
0.0
  0
LINE
  5
9A
330
1F
100
AcDbEntity
  8
外形線
  6
Continuous
100
AcDbLine
 10
-52.76980629018686
 20
3.712218392764331
 30
0.0
 11
-52.05439552358529
 21
3.712218392764331
 31
0.0
  0
LINE
  5
9B
330
1F
100
AcDbEntity
  8
外形線
  6
Continuous
100
AcDbLine
 10
-16.36226907987181
 20
5.897223058230776
 30
0.0
 11
-15.17477124985918
 21
25.47671831576904
 31
0.0
  0
LINE
  5
9C
330
1F
100
AcDbEntity
  8
外形線
  6
Continuous
100
AcDbLine
 10
-14.74480619548557
 20
22.62672074485381
 30
0.0
 11
-15.76981063382864
 21
3.840410365419843
 31
0.0
  0
LINE
  5
9D
330
1F
100
AcDbEntity
  8
外形線
  6
Continuous
100
AcDbLine
 10
13.58769660898307
 20
13.08154700604557
 30
0.0
 11
13.58769660898307
 21
25.47671897259832
 31
0.0
  0
LINE
  5
9E
330
1F
100
AcDbEntity
  8
外形線
  6
Continuous
100
AcDbLine
 10
14.72769660898306
 20
13.08154700604557
 30
0.0
 11
14.72769660898306
 21
25.47671897259832
 31
0.0
  0
LINE
  5
9F
330
1F
100
AcDbEntity
  8
外形線
  6
Continuous
100
AcDbLine
 10
-6.914366226710285
 20
14.02371199933171
 30
0.0
 11
-6.914366226710285
 21
25.47671897259832
 31
0.0
  0
LINE
  5
A0
330
1F
100
AcDbEntity
  8
中心線
  6
CENTER
100
AcDbLine
 10
-52.76984052640929
 20
3.712215109163944
 30
0.0
 11
-53.95734054234469
 21
25.47671610734005
 31
0.0
  0
LINE
  5
A1
330
1F
100
AcDbEntity
  8
外形線
  6
Continuous
100
AcDbLine
 10
16.05769660898306
 20
37.96921897259831
 30
0.0
 11
16.05769660898306
 21
25.47671897259832
 31
0.0
  0
LINE
  5
A2
330
1F
100
AcDbEntity
  8
外形線
  6
Continuous
100
AcDbLine
 10
-6.914366593941572
 20
36.92972477414244
 30
0.0
 11
4.843182968945946
 21
37.208965692122
 31
0.0
  0
LINE
  5
A3
330
1F
100
AcDbEntity
  8
外形線
  6
Continuous
100
AcDbLine
 10
-7.787300491847013
 20
35.86709319440007
 30
0.0
 11
-7.787300491847013
 21
25.47671897259832
 31
0.0
  0
LINE
  5
A4
330
1F
100
AcDbEntity
  8
外形線
  6
Continuous
100
AcDbLine
 10
-33.76981208852671
 20
3.712218392764331
 30
0.0
 11
-33.0543955235853
 21
3.712218392764331
 31
0.0
  0
LINE
  5
A5
330
1F
100
AcDbEntity
  8
破線
  6
DASHED
100
AcDbLine
 10
15.72519660898307
 20
13.31671897259831
 30
0.0
 11
15.72519660898307
 21
13.69671897259831
 31
0.0
  0
LINE
  5
A6
330
1F
100
AcDbEntity
  8
外形線
  6
Continuous
100
AcDbLine
 10
-36.14481208852672
 20
5.89721839276433
 30
0.0
 11
-35.58096702627083
 21
5.89721839276433
 31
0.0
  0
LINE
  5
A7
330
1F
100
AcDbEntity
  8
外形線
  6
Continuous
100
AcDbLine
 10
-36.70865425161264
 20
5.89721839276433
 30
0.0
 11
-36.14480629018685
 21
5.89721839276433
 31
0.0
  0
LINE
  5
A8
330
1F
100
AcDbEntity
  8
外形線
  6
Continuous
100
AcDbLine
 10
-32.2339497137336
 20
5.685983604022451
 30
0.0
 11
-32.6873480092129
 21
3.993877259629638
 31
0.0
  0
LINE
  5
A9
330
1F
100
AcDbEntity
  8
外形線
  6
Continuous
100
AcDbLine
 10
-33.76981208852671
 20
3.712218392764331
 30
0.0
 11
-34.48522865346812
 21
3.712218392764331
 31
0.0
  0
LINE
  5
AA
330
1F
100
AcDbEntity
  8
外形線
  6
Continuous
100
AcDbLine
 10
-35.30567855845266
 20
5.685981029004341
 30
0.0
 11
-34.8522810133334
 21
3.993877484994726
 31
0.0
  0
LINE
  5
AB
330
1F
100
AcDbEntity
  8
外形線
  6
Continuous
100
AcDbLine
 10
-31.95865715078256
 20
5.89721839276433
 30
0.0
 11
-31.39481208852669
 21
5.89721839276433
 31
0.0
  0
LINE
  5
AC
330
1F
100
AcDbEntity
  8
破線
  6
DASHED
100
AcDbLine
 10
-34.98449475754207
 20
5.772032920527879
 30
0.0
 11
-34.52166256057334
 21
4.044718758368855
 31
0.0
  0
LINE
  5
AD
330
1F
100
AcDbEntity
  8
破線
  6
DASHED
100
AcDbLine
 10
-32.55512081239131
 20
5.772038094872257
 30
0.0
 11
-33.01795413490014
 21
4.044719732138431
 31
0.0
  0
LINE
  5
AE
330
1F
100
AcDbEntity
  8
破線
  6
DASHED
100
AcDbLine
 10
-36.14481208852672
 20
6.229712594424487
 30
0.0
 11
-35.58096702627083
 21
6.229712594424487
 31
0.0
  0
LINE
  5
AF
330
1F
100
AcDbEntity
  8
破線
  6
DASHED
100
AcDbLine
 10
-31.95865715078256
 20
6.229712594424487
 30
0.0
 11
-31.39481208852669
 21
6.229712594424487
 31
0.0
  0
LINE
  5
B0
330
1F
100
AcDbEntity
  8
破線
  6
DASHED
100
AcDbLine
 10
-34.33365425161263
 20
44.72372535077214
 30
0.0
 11
-33.76980629018685
 21
44.72372535077214
 31
0.0
  0
LINE
  5
B1
330
1F
100
AcDbEntity
  8
外形線
  6
Continuous
100
AcDbLine
 10
8.381120057364228
 20
37.285782200941
 30
0.0
 11
11.26888460837833
 21
37.96922041863205
 31
0.0
  0
LINE
  5
B2
330
1F
100
AcDbEntity
  8
中心線
  6
CENTER
100
AcDbLine
 10
-63.29557319692514
 20
25.47671897259832
 30
0.0
 11
18.12258399911977
 21
25.47671897259832
 31
0.0
  0
LINE
  5
B3
330
1F
100
AcDbEntity
  8
外形線
  6
Continuous
100
AcDbLine
 10
-51.40976869003031
 20
47.09501475399863
 30
0.0
 11
-53.76979401690496
 21
3.840403714789323
 31
0.0
  0
LINE
  5
B4
330
1F
100
AcDbEntity
  8
外形線
  6
Continuous
100
AcDbLine
 10
-51.75482725700433
 20
3.858416434835822
 30
0.0
 11
-49.39479452298521
 21
47.11302126293738
 31
0.0
  0
LINE
  5
B5
330
1F
100
AcDbEntity
  8
外形線
  6
Continuous
100
AcDbLine
 10
-21.89480339101694
 20
47.24121955243229
 30
0.0
 11
-21.17938682607553
 21
47.24121955243229
 31
0.0
  0
LINE
  5
B6
330
1F
100
AcDbEntity
  8
外形線
  6
Continuous
100
AcDbLine
 10
-24.26980339101695
 20
45.05622245160222
 30
0.0
 11
-23.70595832876107
 21
45.05622245160222
 31
0.0
  0
LINE
  5
B7
330
1F
100
AcDbEntity
  8
中心線
  6
CENTER
100
AcDbLine
 10
-24.26979394530471
 20
3.712217473991187
 30
0.0
 11
-21.89479417092191
 21
47.2412151291692
 31
0.0
  0
LINE
  5
B8
330
1F
100
AcDbEntity
  8
破線
  6
DASHED
100
AcDbLine
 10
-22.64666832021616
 20
46.90872535077214
 30
0.0
 11
-21.14294136098764
 21
46.90872535077214
 31
0.0
  0
LINE
  5
B9
330
1F
100
AcDbEntity
  8
外形線
  6
Continuous
100
AcDbLine
 10
-48.80234450792587
 20
45.05621775489577
 30
0.0
 11
-51.17734836994588
 21
5.897212488661097
 31
0.0
  0
LINE
  5
BA
330
1F
100
AcDbEntity
  8
外形線
  6
Continuous
100
AcDbLine
 10
-20.35892177039973
 20
45.26747721594253
 30
0.0
 11
-20.81232006587901
 21
46.95958356033535
 31
0.0
  0
LINE
  5
BB
330
1F
100
AcDbEntity
  8
外形線
  6
Continuous
100
AcDbLine
 10
-21.89480339101694
 20
47.24121955243229
 30
0.0
 11
-22.61021995595835
 21
47.24121955243229
 31
0.0
  0
LINE
  5
BC
330
1F
100
AcDbEntity
  8
外形線
  6
Continuous
100
AcDbLine
 10
-23.43067787089867
 20
45.26745380801309
 30
0.0
 11
-22.97727882505936
 21
46.9595629527891
 31
0.0
  0
LINE
  5
BD
330
1F
100
AcDbEntity
  8
外形線
  6
Continuous
100
AcDbLine
 10
-20.0836484532728
 20
45.05622245160222
 30
0.0
 11
-19.51980339101694
 21
45.05622245160222
 31
0.0
  0
LINE
  5
BE
330
1F
100
AcDbEntity
  8
外形線
  6
Continuous
100
AcDbLine
 10
-49.61227242810219
 20
5.897219646556507
 30
0.0
 11
-47.23727628541793
 21
45.05621811972708
 31
0.0
  0
LINE
  5
BF
330
1F
100
AcDbEntity
  8
破線
  6
DASHED
100
AcDbLine
 10
-11.44146452651261
 20
6.22971700366418
 30
0.0
 11
-8.065329901446538
 21
15.6641406781383
 31
0.0
  0
LINE
  5
C0
330
1F
100
AcDbEntity
  8
外形線
  6
Continuous
100
AcDbLine
 10
-7.631568152016562
 20
15.00822750345188
 30
0.0
 11
-6.914368953293518
 21
14.02370823905851
 31
0.0
  0
LINE
  5
C1
330
1F
100
AcDbEntity
  8
破線
  6
DASHED
100
AcDbLine
 10
-7.732870678885596
 20
15.71199350244354
 30
0.0
 11
-6.742304671160496
 21
14.35221602500776
 31
0.0
  0
LINE
  5
C2
330
1F
100
AcDbEntity
  8
外形線
  6
Continuous
100
AcDbLine
 10
-46.65976452331853
 20
47.0950235921673
 30
0.0
 11
-49.01978992916691
 21
3.84041110552588
 31
0.0
  0
LINE
  5
C3
330
1F
100
AcDbEntity
  8
外形線
  6
Continuous
100
AcDbLine
 10
-47.00482332721296
 20
3.858420082602705
 30
0.0
 11
-44.64479051421988
 21
47.11302635813637
 31
0.0
  0
LINE
  5
C4
330
1F
100
AcDbEntity
  8
破線
  6
DASHED
100
AcDbLine
 10
-53.98449580059911
 20
5.772033599474762
 30
0.0
 11
-53.52166360363036
 21
4.04471943731573
 31
0.0
  0
LINE
  5
C5
330
1F
100
AcDbEntity
  8
破線
  6
DASHED
100
AcDbLine
 10
-51.55510635281228
 20
5.772039264891628
 30
0.0
 11
-52.01793967532108
 21
4.044720902157801
 31
0.0
  0
LINE
  5
C6
330
1F
100
AcDbEntity
  8
破線
  6
DASHED
100
AcDbLine
 10
-58.70730629018686
 20
6.229712594424487
 30
0.0
 11
-54.58096412710091
 21
6.229712594424487
 31
0.0
  0
LINE
  5
C7
330
1F
100
AcDbEntity
  8
破線
  6
DASHED
100
AcDbLine
 10
-50.9586484532728
 20
6.229712594424487
 30
0.0
 11
-50.39480629018686
 21
6.229712594424487
 31
0.0
  0
LINE
  5
C8
330
1F
100
AcDbEntity
  8
破線
  6
DASHED
100
AcDbLine
 10
-23.10950846055106
 20
45.18139301630109
 30
0.0
 11
-22.64667663876229
 21
46.90870577826851
 31
0.0
  0
LINE
  5
C9
330
1F
100
AcDbEntity
  8
破線
  6
DASHED
100
AcDbLine
 10
-20.68010181951012
 20
45.18141132250299
 30
0.0
 11
-21.14293514201894
 21
46.90872968523683
 31
0.0
  0
LINE
  5
CA
330
1F
100
AcDbEntity
  8
外形線
  6
Continuous
100
AcDbLine
 10
-44.0523411669457
 20
45.05622009002014
 30
0.0
 11
-46.4273448534528
 21
5.897217717637839
 31
0.0
  0
LINE
  5
CB
330
1F
100
AcDbEntity
  8
破線
  6
DASHED
100
AcDbLine
 10
-24.26980339101695
 20
44.72372535077214
 30
0.0
 11
-23.70595832876107
 21
44.72372535077214
 31
0.0
  0
LINE
  5
CC
330
1F
100
AcDbEntity
  8
破線
  6
DASHED
100
AcDbLine
 10
-20.0836484532728
 20
44.72372535077214
 30
0.0
 11
-19.51980339101694
 21
44.72372535077214
 31
0.0
  0
LINE
  5
CD
330
1F
100
AcDbEntity
  8
外形線
  6
Continuous
100
AcDbLine
 10
-44.86228136458155
 20
5.897211991455062
 30
0.0
 11
-42.48728504638495
 21
45.056213358478
 31
0.0
  0
LINE
  5
CE
330
1F
100
AcDbEntity
  8
外形線
  6
Continuous
100
AcDbLine
 10
-24.26980339101695
 20
3.712218392764331
 30
0.0
 11
-23.55438682607553
 21
3.712218392764331
 31
0.0
  0
LINE
  5
CF
330
1F
100
AcDbEntity
  8
外形線
  6
Continuous
100
AcDbLine
 10
-26.64480339101694
 20
5.89721839276433
 30
0.0
 11
-26.08095832876108
 21
5.89721839276433
 31
0.0
  0
LINE
  5
D0
330
1F
100
AcDbEntity
  8
破線
  6
DASHED
100
AcDbLine
 10
-25.02166832021616
 20
4.044718392764327
 30
0.0
 11
-23.51794136098764
 21
4.044718392764327
 31
0.0
  0
LINE
  5
D1
330
1F
100
AcDbEntity
  8
外形線
  6
Continuous
100
AcDbLine
 10
-41.90977851552911
 20
47.0950189036992
 30
0.0
 11
-44.26980368445637
 21
3.840410759354116
 31
0.0
  0
LINE
  5
D2
330
1F
100
AcDbEntity
  8
外形線
  6
Continuous
100
AcDbLine
 10
-22.73393464098601
 20
5.685971040186107
 30
0.0
 11
-23.18733368682532
 21
3.993861895410098
 31
0.0
  0
LINE
  5
D3
330
1F
100
AcDbEntity
  8
破線
  6
DASHED
100
AcDbLine
 10
-38.51980629018687
 20
44.72372535077214
 30
0.0
 11
-37.95596412710093
 21
44.72372535077214
 31
0.0
  0
LINE
  5
D4
330
1F
100
AcDbEntity
  8
外形線
  6
Continuous
100
AcDbLine
 10
-24.26980339101695
 20
3.712218392764331
 30
0.0
 11
-24.98521995595834
 21
3.712218392764331
 31
0.0
  0
LINE
  5
D5
330
1F
100
AcDbEntity
  8
外形線
  6
Continuous
100
AcDbLine
 10
-25.80564518268579
 20
5.685992494234472
 30
0.0
 11
-25.35224763756652
 21
3.993888950224856
 31
0.0
  0
LINE
  5
D6
330
1F
100
AcDbEntity
  8
外形線
  6
Continuous
100
AcDbLine
 10
-22.4586484532728
 20
5.89721839276433
 30
0.0
 11
-21.89480339101694
 21
5.89721839276433
 31
0.0
  0
LINE
  5
D7
330
1F
100
AcDbEntity
  8
外形線
  6
Continuous
100
AcDbLine
 10
-42.25482518715
 20
3.858424046265397
 30
0.0
 11
-39.89479261107876
 21
47.11302597950277
 31
0.0
  0
LINE
  5
D8
330
1F
100
AcDbEntity
  8
外形線
  6
Continuous
100
AcDbLine
 10
-39.30234089533082
 20
45.05621970680507
 30
0.0
 11
-41.67734475735082
 21
5.897214440570419
 31
0.0
  0
LINE
  5
D9
330
1F
100
AcDbEntity
  8
外形線
  6
Continuous
100
AcDbLine
 10
-40.11227828687047
 20
5.897210868935147
 30
0.0
 11
-37.73728205643005
 21
45.05621078903191
 31
0.0
  0
LINE
  5
DA
330
1F
100
AcDbEntity
  8
外形線
  6
Continuous
100
AcDbLine
 10
-15.17477365998316
 20
25.47671590074827
 30
0.0
 11
-14.7448121254313
 21
22.62671512348588
 31
0.0
  0
LINE
  5
DB
330
1F
100
AcDbEntity
  8
外形線
  6
Continuous
100
AcDbLine
 10
-45.64480629018685
 20
47.24121955243229
 30
0.0
 11
-44.92938972524544
 21
47.24121955243229
 31
0.0
  0
LINE
  5
DC
330
1F
100
AcDbEntity
  8
外形線
  6
Continuous
100
AcDbLine
 10
-48.01980629018686
 20
45.05622245160222
 30
0.0
 11
-47.45595832876108
 21
45.05622245160222
 31
0.0
  0
LINE
  5
DD
330
1F
100
AcDbEntity
  8
中心線
  6
CENTER
100
AcDbLine
 10
-48.01978932971264
 20
3.712215938672958
 30
0.0
 11
-45.64478963430364
 21
47.24121214641884
 31
0.0
  0
LINE
  5
DE
330
1F
100
AcDbEntity
  8
破線
  6
DASHED
100
AcDbLine
 10
-25.48447033222794
 20
5.772032983168291
 30
0.0
 11
-25.02163813525915
 21
4.044718821009261
 31
0.0
  0
LINE
  5
DF
330
1F
100
AcDbEntity
  8
破線
  6
DASHED
100
AcDbLine
 10
-23.05510498928367
 20
5.772028331419122
 30
0.0
 11
-23.51793831179248
 21
4.044709968685296
 31
0.0
  0
LINE
  5
E0
330
1F
100
AcDbEntity
  8
外形線
  6
Continuous
100
AcDbLine
 10
-37.15978100725646
 20
47.09501213600942
 30
0.0
 11
-39.51980617618377
 21
3.840403991664351
 31
0.0
  0
LINE
  5
E1
330
1F
100
AcDbEntity
  8
破線
  6
DASHED
100
AcDbLine
 10
-26.64480339101694
 20
6.229712594424487
 30
0.0
 11
-26.08095832876108
 21
6.229712594424487
 31
0.0
  0
LINE
  5
E2
330
1F
100
AcDbEntity
  8
破線
  6
DASHED
100
AcDbLine
 10
-22.4586484532728
 20
6.229712594424487
 30
0.0
 11
-21.89480339101694
 21
6.229712594424487
 31
0.0
  0
LINE
  5
E3
330
1F
100
AcDbEntity
  8
外形線
  6
Continuous
100
AcDbLine
 10
-37.50482688913911
 20
3.858430904792271
 30
0.0
 11
-35.14479415511998
 21
47.11303573289383
 31
0.0
  0
LINE
  5
E4
330
1F
100
AcDbEntity
  8
外形線
  6
Continuous
100
AcDbLine
 10
-34.55233799313289
 20
45.0562148072986
 30
0.0
 11
-36.92734167964
 21
5.89721243491628
 31
0.0
  0
LINE
  5
E5
330
1F
100
AcDbEntity
  8
外形線
  6
Continuous
100
AcDbLine
 10
-35.36227775198705
 20
5.89721570963236
 30
0.0
 11
-32.98728143379042
 21
45.05621707665532
 31
0.0
  0
LINE
  5
E6
330
1F
100
AcDbEntity
  8
外形線
  6
Continuous
100
AcDbLine
 10
-32.40978255129951
 20
47.09502273750501
 30
0.0
 11
-34.76980787817418
 21
3.840411698295696
 31
0.0
  0
LINE
  5
E7
330
1F
100
AcDbEntity
  8
外形線
  6
Continuous
100
AcDbLine
 10
-32.75482953881567
 20
3.858420394134004
 30
0.0
 11
-30.39479680479655
 21
47.11302522223554
 31
0.0
  0
LINE
  5
E8
330
1F
100
AcDbEntity
  8
外形線
  6
Continuous
100
AcDbLine
 10
-12.73080721295882
 20
22.62671791447202
 30
0.0
 11
-11.98981869624022
 21
25.47671548144037
 31
0.0
  0
LINE
  5
E9
330
1F
100
AcDbEntity
  8
破線
  6
DASHED
100
AcDbLine
 10
-46.39667121938608
 20
46.90872535077214
 30
0.0
 11
-44.89294136098764
 21
46.90872535077214
 31
0.0
  0
LINE
  5
EA
330
1F
100
AcDbEntity
  8
外形線
  6
Continuous
100
AcDbLine
 10
-44.10894182601492
 20
45.26746403577631
 30
0.0
 11
-44.56234012149422
 21
46.95957038016913
 31
0.0
  0
LINE
  5
EB
330
1F
100
AcDbEntity
  8
外形線
  6
Continuous
100
AcDbLine
 10
-45.64480629018685
 20
47.24121955243229
 30
0.0
 11
-46.36022285512828
 21
47.24121955243229
 31
0.0
  0
LINE
  5
EC
330
1F
100
AcDbEntity
  8
外形線
  6
Continuous
100
AcDbLine
 10
-47.1806695407684
 20
45.26746651066909
 30
0.0
 11
-46.72727049492908
 21
46.95957565544513
 31
0.0
  0
LINE
  5
ED
330
1F
100
AcDbEntity
  8
外形線
  6
Continuous
100
AcDbLine
 10
-43.83365425161263
 20
45.05622245160222
 30
0.0
 11
-43.26980629018685
 21
45.05622245160222
 31
0.0
  0
LINE
  5
EE
330
1F
100
AcDbEntity
  8
破線
  6
DASHED
100
AcDbLine
 10
-46.85951918380008
 20
45.18140181996771
 30
0.0
 11
-46.39668708062628
 21
46.90871563207883
 31
0.0
  0
LINE
  5
EF
330
1F
100
AcDbEntity
  8
破線
  6
DASHED
100
AcDbLine
 10
-44.43010992323247
 20
45.18139834339367
 30
0.0
 11
-44.8929432457413
 21
46.90871670612753
 31
0.0
  0
LINE
  5
F0
330
1F
100
AcDbEntity
  8
外形線
  6
Continuous
100
AcDbLine
 10
-17.14480339101694
 20
47.24121955243229
 30
0.0
 11
-16.42938537649057
 21
47.24121955243229
 31
0.0
  0
LINE
  5
F1
330
1F
100
AcDbEntity
  8
外形線
  6
Continuous
100
AcDbLine
 10
-19.51980339101694
 20
45.05622245160222
 30
0.0
 11
-18.95595832876106
 21
45.05622245160222
 31
0.0
  0
LINE
  5
F2
330
1F
100
AcDbEntity
  8
外形線
  6
Continuous
100
AcDbLine
 10
-29.80234657858797
 20
45.05621205676987
 30
0.0
 11
-32.17735000182573
 21
5.897214025166086
 31
0.0
  0
LINE
  5
F3
330
1F
100
AcDbEntity
  8
中心線
  6
CENTER
100
AcDbLine
 10
-14.76979958645453
 20
3.712217714477548
 30
0.0
 11
-13.22019118319831
 21
32.11344169746253
 31
0.0
  0
LINE
  5
F4
330
1F
100
AcDbEntity
  8
外形線
  6
Continuous
100
AcDbLine
 10
-30.61228660071023
 20
5.897209501457111
 30
0.0
 11
-28.23729019475742
 21
45.05621231540628
 31
0.0
  0
LINE
  5
F5
330
1F
100
AcDbEntity
  8
破線
  6
DASHED
100
AcDbLine
 10
-17.89666976980111
 20
46.90872535077214
 30
0.0
 11
-16.3929428105726
 21
46.90872535077214
 31
0.0
  0
LINE
  5
F6
330
1F
100
AcDbEntity
  8
破線
  6
DASHED
100
AcDbLine
 10
15.72519660898307
 20
13.69671897259831
 30
0.0
 11
16.05769660898306
 21
13.69671897259831
 31
0.0
  0
LINE
  5
F7
330
1F
100
AcDbEntity
  8
外形線
  6
Continuous
100
AcDbLine
 10
-15.60892776023345
 20
45.26747236992254
 30
0.0
 11
-16.06232680607277
 21
46.95958151469854
 31
0.0
  0
LINE
  5
F8
330
1F
100
AcDbEntity
  8
外形線
  6
Continuous
100
AcDbLine
 10
-17.14480339101694
 20
47.24121955243229
 30
0.0
 11
-17.86022140554331
 21
47.24121955243229
 31
0.0
  0
LINE
  5
F9
330
1F
100
AcDbEntity
  8
外形線
  6
Continuous
100
AcDbLine
 10
-18.68067836049446
 20
45.26745117736661
 30
0.0
 11
-18.22727931465514
 21
46.95956032214262
 31
0.0
  0
LINE
  5
FA
330
1F
100
AcDbEntity
  8
外形線
  6
Continuous
100
AcDbLine
 10
-15.3336484532728
 20
45.05622245160222
 30
0.0
 11
-11.2073091893568
 21
45.05622245160222
 31
0.0
  0
LINE
  5
FB
330
1F
100
AcDbEntity
  8
外形線
  6
Continuous
100
AcDbLine
 10
-27.65978793789106
 20
47.09501612776261
 30
0.0
 11
-30.01981294887096
 21
3.840410878281758
 31
0.0
  0
LINE
  5
FC
330
1F
100
AcDbEntity
  8
破線
  6
DASHED
100
AcDbLine
 10
-18.35950895014684
 20
45.1813903856546
 30
0.0
 11
-17.89667619040803
 21
46.90870664810103
 31
0.0
  0
LINE
  5
FD
330
1F
100
AcDbEntity
  8
破線
  6
DASHED
100
AcDbLine
 10
-15.9300988588911
 20
45.18141787907272
 30
0.0
 11
-16.39293218139995
 21
46.90873624180653
 31
0.0
  0
LINE
  5
FE
330
1F
100
AcDbEntity
  8
外形線
  6
Continuous
100
AcDbLine
 10
11.26888542123893
 20
12.98421897259831
 30
0.0
 11
13.42182929941273
 21
12.98421897259831
 31
0.0
  0
LINE
  5
FF
330
1F
100
AcDbEntity
  8
破線
  6
DASHED
100
AcDbLine
 10
11.30769370981311
 20
13.31671897259831
 30
0.0
 11
13.19824241586782
 21
13.31671897259831
 31
0.0
  0
LINE
  5
100
330
1F
100
AcDbEntity
  8
破線
  6
DASHED
100
AcDbLine
 10
-19.51980339101694
 20
44.72372535077214
 30
0.0
 11
-18.95595832876106
 21
44.72372535077214
 31
0.0
  0
LINE
  5
101
330
1F
100
AcDbEntity
  8
破線
  6
DASHED
100
AcDbLine
 10
-15.3336484532728
 20
44.72372535077214
 30
0.0
 11
-11.44146644643685
 21
44.72372535077214
 31
0.0
  0
LINE
  5
102
330
1F
100
AcDbEntity
  8
外形線
  6
Continuous
100
AcDbLine
 10
-28.00483445156478
 20
3.858421620880413
 30
0.0
 11
-25.64480155959773
 21
47.11302934384617
 31
0.0
  0
LINE
  5
103
330
1F
100
AcDbEntity
  8
外形線
  6
Continuous
100
AcDbLine
 10
-25.05234665799888
 20
45.05620588585006
 30
0.0
 11
-27.42735016899307
 21
5.89720640732013
 31
0.0
  0
LINE
  5
104
330
1F
100
AcDbEntity
  8
外形線
  6
Continuous
100
AcDbLine
 10
-25.86227124554013
 20
5.897219252297297
 30
0.0
 11
-23.48727492734351
 21
45.05622061932025
 31
0.0
  0
LINE
  5
105
330
1F
100
AcDbEntity
  8
外形線
  6
Continuous
100
AcDbLine
 10
-15.17477394155406
 20
25.47671897259832
 30
0.0
 11
-11.98982414297006
 21
25.47671897259832
 31
0.0
  0
LINE
  5
106
330
1F
100
AcDbEntity
  8
外形線
  6
Continuous
100
AcDbLine
 10
-48.01980629018686
 20
3.712218392764331
 30
0.0
 11
-47.30438972524545
 21
3.712218392764331
 31
0.0
  0
LINE
  5
107
330
1F
100
AcDbEntity
  8
外形線
  6
Continuous
100
AcDbLine
 10
-50.39480629018686
 20
5.89721839276433
 30
0.0
 11
-49.8309641271009
 21
5.89721839276433
 31
0.0
  0
LINE
  5
108
330
1F
100
AcDbEntity
  8
破線
  6
DASHED
100
AcDbLine
 10
-48.77167121938608
 20
4.044718392764327
 30
0.0
 11
-47.26794136098764
 21
4.044718392764327
 31
0.0
  0
LINE
  5
109
330
1F
100
AcDbEntity
  8
外形線
  6
Continuous
100
AcDbLine
 10
-46.48394844600323
 20
5.685979544069056
 30
0.0
 11
-46.93734749184255
 21
3.993870399293046
 31
0.0
  0
LINE
  5
10A
330
1F
100
AcDbEntity
  8
外形線
  6
Continuous
100
AcDbLine
 10
-48.01980629018686
 20
3.712218392764331
 30
0.0
 11
-48.73522285512827
 21
3.712218392764331
 31
0.0
  0
LINE
  5
10B
330
1F
100
AcDbEntity
  8
外形線
  6
Continuous
100
AcDbLine
 10
-49.55567410169212
 20
5.685973187329137
 30
0.0
 11
-49.10227655657287
 21
3.993869643319527
 31
0.0
  0
LINE
  5
10C
330
1F
100
AcDbEntity
  8
外形線
  6
Continuous
100
AcDbLine
 10
-46.20865425161263
 20
5.89721839276433
 30
0.0
 11
-45.64480629018685
 21
5.89721839276433
 31
0.0
  0
LINE
  5
10D
330
1F
100
AcDbEntity
  8
破線
  6
DASHED
100
AcDbLine
 10
-49.23451645564733
 20
5.772033077888423
 30
0.0
 11
-48.77168350831852
 21
4.044716115346195
 31
0.0
  0
LINE
  5
10E
330
1F
100
AcDbEntity
  8
破線
  6
DASHED
100
AcDbLine
 10
-46.80510684240804
 20
5.772036634245147
 30
0.0
 11
-47.26793941455684
 21
4.044721071894514
 31
0.0
  0
LINE
  5
10F
330
1F
100
AcDbEntity
  8
破線
  6
DASHED
100
AcDbLine
 10
-50.39480629018686
 20
6.229712594424487
 30
0.0
 11
-49.8309641271009
 21
6.229712594424487
 31
0.0
  0
LINE
  5
110
330
1F
100
AcDbEntity
  8
破線
  6
DASHED
100
AcDbLine
 10
-46.20865425161263
 20
6.229712594424487
 30
0.0
 11
-45.64480629018685
 21
6.229712594424487
 31
0.0
  0
LINE
  5
111
330
1F
100
AcDbEntity
  8
外形線
  6
Continuous
100
AcDbLine
 10
-40.89480629018686
 20
47.24121955243229
 30
0.0
 11
-40.17938972524546
 21
47.24121955243229
 31
0.0
  0
LINE
  5
112
330
1F
100
AcDbEntity
  8
外形線
  6
Continuous
100
AcDbLine
 10
-43.26980629018685
 20
45.05622245160222
 30
0.0
 11
-42.70596122793099
 21
45.05622245160222
 31
0.0
  0
LINE
  5
113
330
1F
100
AcDbEntity
  8
破線
  6
DASHED
100
AcDbLine
 10
-7.732871763708679
 20
35.24144355526543
 30
0.0
 11
-6.742305755983565
 21
36.60122103270122
 31
0.0
  0
LINE
  5
114
330
1F
100
AcDbEntity
  8
中心線
  6
CENTER
100
AcDbLine
 10
-43.26979424246188
 20
3.712217624808964
 30
0.0
 11
-40.8947945470529
 21
47.24121383255488
 31
0.0
  0
LINE
  5
115
330
1F
100
AcDbEntity
  8
破線
  6
DASHED
100
AcDbLine
 10
-41.646674118556
 20
46.90872535077214
 30
0.0
 11
-40.14294426015758
 21
46.90872535077214
 31
0.0
  0
LINE
  5
116
330
1F
100
AcDbEntity
  8
外形線
  6
Continuous
100
AcDbLine
 10
-39.35893036371786
 20
45.26746686747971
 30
0.0
 11
-39.81232865919714
 21
46.95957321187253
 31
0.0
  0
LINE
  5
117
330
1F
100
AcDbEntity
  8
外形線
  6
Continuous
100
AcDbLine
 10
-40.89480629018686
 20
47.24121955243229
 30
0.0
 11
-41.61022285512828
 21
47.24121955243229
 31
0.0
  0
LINE
  5
118
330
1F
100
AcDbEntity
  8
外形線
  6
Continuous
100
AcDbLine
 10
-42.43067329972239
 20
45.26746288014318
 30
0.0
 11
-41.97727406629307
 21
46.95957272501497
 31
0.0
  0
LINE
  5
119
330
1F
100
AcDbEntity
  8
外形線
  6
Continuous
100
AcDbLine
 10
-39.08365425161264
 20
45.05622245160222
 30
0.0
 11
-38.51980629018687
 21
45.05622245160222
 31
0.0
  0
LINE
  5
11A
330
1F
100
AcDbEntity
  8
破線
  6
DASHED
100
AcDbLine
 10
-42.1095043583498
 20
45.18140033819165
 30
0.0
 11
-41.64667281794605
 21
46.90871205001536
 31
0.0
  0
LINE
  5
11B
330
1F
100
AcDbEntity
  8
破線
  6
DASHED
100
AcDbLine
 10
-39.68009996165547
 20
45.18140677586349
 30
0.0
 11
-40.14293328416431
 21
46.90872513859732
 31
0.0
  0
LINE
  5
11C
330
1F
100
AcDbEntity
  8
破線
  6
DASHED
100
AcDbLine
 10
-43.26980629018685
 20
44.72372535077214
 30
0.0
 11
-42.70596122793099
 21
44.72372535077214
 31
0.0
  0
LINE
  5
11D
330
1F
100
AcDbEntity
  8
破線
  6
DASHED
100
AcDbLine
 10
-39.08365425161264
 20
44.72372535077214
 30
0.0
 11
-38.51980629018687
 21
44.72372535077214
 31
0.0
  0
LINE
  5
11E
330
1F
100
AcDbEntity
  8
外形線
  6
Continuous
100
AcDbLine
 10
-43.26980629018685
 20
3.712218392764331
 30
0.0
 11
-42.55439262441536
 21
3.712218392764331
 31
0.0
  0
LINE
  5
11F
330
1F
100
AcDbEntity
  8
外形線
  6
Continuous
100
AcDbLine
 10
-45.64480629018685
 20
5.89721839276433
 30
0.0
 11
-45.08095832876107
 21
5.89721839276433
 31
0.0
  0
LINE
  5
120
330
1F
100
AcDbEntity
  8
破線
  6
DASHED
100
AcDbLine
 10
-44.02167121938608
 20
4.044718392764327
 30
0.0
 11
-42.51794426015757
 21
4.044718392764327
 31
0.0
  0
LINE
  5
121
330
1F
100
AcDbEntity
  8
外形線
  6
Continuous
100
AcDbLine
 10
-41.73393828336933
 20
5.685983063492082
 30
0.0
 11
-42.18733732920863
 21
3.993873918716068
 31
0.0
  0
LINE
  5
122
330
1F
100
AcDbEntity
  8
外形線
  6
Continuous
100
AcDbLine
 10
-43.26980629018685
 20
3.712218392764331
 30
0.0
 11
-43.98522285512828
 21
3.712218392764331
 31
0.0
  0
LINE
  5
123
330
1F
100
AcDbEntity
  8
外形線
  6
Continuous
100
AcDbLine
 10
-44.80567720408108
 20
5.685974367519777
 30
0.0
 11
-44.35227965896181
 21
3.993870823510171
 31
0.0
  0
LINE
  5
124
330
1F
100
AcDbEntity
  8
外形線
  6
Continuous
100
AcDbLine
 10
-41.45865425161264
 20
5.89721839276433
 30
0.0
 11
-40.89480629018686
 21
5.89721839276433
 31
0.0
  0
LINE
  5
125
330
1F
100
AcDbEntity
  8
破線
  6
DASHED
100
AcDbLine
 10
-44.48449471630061
 20
5.772031159713923
 30
0.0
 11
-44.02166233174183
 21
4.044716297459096
 31
0.0
  0
LINE
  5
126
330
1F
100
AcDbEntity
  8
破線
  6
DASHED
100
AcDbLine
 10
-42.05511218241019
 20
5.772038304701924
 30
0.0
 11
-42.51794550491902
 21
4.044719941968103
 31
0.0
  0
LINE
  5
127
330
1F
100
AcDbEntity
  8
破線
  6
DASHED
100
AcDbLine
 10
-45.64480629018685
 20
6.229712594424487
 30
0.0
 11
-45.08095832876107
 21
6.229712594424487
 31
0.0
  0
LINE
  5
128
330
1F
100
AcDbEntity
  8
破線
  6
DASHED
100
AcDbLine
 10
-41.45865425161264
 20
6.229712594424487
 30
0.0
 11
-40.89480629018686
 21
6.229712594424487
 31
0.0
  0
LINE
  5
129
330
1F
100
AcDbEntity
  8
外形線
  6
Continuous
100
AcDbLine
 10
-54.30567660006953
 20
5.685970506418427
 30
0.0
 11
-53.85227905495031
 21
3.993866962408816
 31
0.0
  0
LINE
  5
12A
330
1F
100
AcDbEntity
  8
外形線
  6
Continuous
100
AcDbLine
 10
-52.76980629018686
 20
3.712218392764331
 30
0.0
 11
-53.48522285512828
 21
3.712218392764331
 31
0.0
  0
LINE
  5
12B
330
1F
100
AcDbEntity
  8
外形線
  6
Continuous
100
AcDbLine
 10
-51.23394795640745
 20
5.685982174715531
 30
0.0
 11
-51.68734700224677
 21
3.993873029939525
 31
0.0
  0
LINE
  5
12C
330
1F
100
AcDbEntity
  8
外形線
  6
Continuous
100
AcDbLine
 10
-58.70730629018686
 20
5.89721839276433
 30
0.0
 11
-54.58096412710091
 21
5.89721839276433
 31
0.0
  0
LINE
  5
12D
330
1F
100
AcDbEntity
  8
破線
  6
DASHED
100
AcDbLine
 10
-53.52167701772591
 20
4.044718392764327
 30
0.0
 11
-52.01794715932749
 21
4.044718392764327
 31
0.0
  0
LINE
  5
12E
330
1F
100
AcDbEntity
  8
外形線
  6
Continuous
100
AcDbLine
 10
-50.9586484532728
 20
5.89721839276433
 30
0.0
 11
-50.39480629018686
 21
5.89721839276433
 31
0.0
  0
LINE
  5
12F
330
1F
100
AcDbEntity
  8
外形線
  6
Continuous
100
AcDbLine
 10
-36.14480629018685
 20
47.24121955243229
 30
0.0
 11
-35.42938972524546
 21
47.24121955243229
 31
0.0
  0
LINE
  5
130
330
1F
100
AcDbEntity
  8
外形線
  6
Continuous
100
AcDbLine
 10
-38.51980629018687
 20
45.05622245160222
 30
0.0
 11
-37.95596412710093
 21
45.05622245160222
 31
0.0
  0
LINE
  5
131
330
1F
100
AcDbEntity
  8
中心線
  6
CENTER
100
AcDbLine
 10
-38.5197965762422
 20
3.712213363268921
 30
0.0
 11
-36.14479672288562
 21
47.24121246587904
 31
0.0
  0
LINE
  5
132
330
1F
100
AcDbEntity
  8
破線
  6
DASHED
100
AcDbLine
 10
-36.896674118556
 20
46.90872535077214
 30
0.0
 11
-35.39294426015758
 21
46.90872535077214
 31
0.0
  0
LINE
  5
133
330
1F
100
AcDbEntity
  8
外形線
  6
Continuous
100
AcDbLine
 10
-34.60893720444007
 20
45.26747079778931
 30
0.0
 11
-35.06233549991935
 21
46.95957714218214
 31
0.0
  0
LINE
  5
134
330
1F
100
AcDbEntity
  8
外形線
  6
Continuous
100
AcDbLine
 10
-36.14480629018685
 20
47.24121955243229
 30
0.0
 11
-36.86022285512827
 21
47.24121955243229
 31
0.0
  0
LINE
  5
135
330
1F
100
AcDbEntity
  8
外形線
  6
Continuous
100
AcDbLine
 10
-37.68067378931818
 20
45.26746024949669
 30
0.0
 11
-37.22727511865887
 21
46.95956799408111
 31
0.0
  0
LINE
  5
136
330
1F
100
AcDbEntity
  8
外形線
  6
Continuous
100
AcDbLine
 10
-34.33365425161263
 20
45.05622245160222
 30
0.0
 11
-33.76980629018685
 21
45.05622245160222
 31
0.0
  0
LINE
  5
137
330
1F
100
AcDbEntity
  8
破線
  6
DASHED
100
AcDbLine
 10
-37.35951633086337
 20
45.18139965884161
 30
0.0
 11
-36.89668450907461
 21
46.90871242080904
 31
0.0
  0
LINE
  5
138
330
1F
100
AcDbEntity
  8
破線
  6
DASHED
100
AcDbLine
 10
-34.93009895053119
 20
45.18140380574357
 30
0.0
 11
-35.39293227304002
 21
46.90872216847739
 31
0.0
  0
LINE
  5
139
330
1F
100
AcDbEntity
  8
外形線
  6
Continuous
100
AcDbLine
 10
11.30769950815297
 20
12.98421897259831
 30
0.0
 11
11.30769950815297
 21
25.47671897259832
 31
0.0
  0
LINE
  5
13A
330
1F
100
AcDbEntity
  8
破線
  6
DASHED
100
AcDbLine
 10
-6.742300401015
 20
14.35222085714753
 30
0.0
 11
6.272698946289459
 21
14.04311560134523
 31
0.0
  0
LINE
  5
13B
330
1F
100
AcDbEntity
  8
外形線
  6
Continuous
100
AcDbLine
 10
8.381115169581285
 20
13.66765672469936
 30
0.0
 11
11.26887725201396
 21
12.98421909123977
 31
0.0
  0
LINE
  5
13C
330
1F
100
AcDbEntity
  8
外形線
  6
Continuous
100
AcDbLine
 10
8.457699508152977
 20
13.65862677899479
 30
0.0
 11
8.457699508152977
 21
25.47671897259832
 31
0.0
  0
LINE
  5
13D
330
1F
100
AcDbEntity
  8
破線
  6
DASHED
100
AcDbLine
 10
8.457691017035479
 20
13.99121950311295
 30
0.0
 11
11.30768662470972
 21
13.31671994328832
 31
0.0
  0
LINE
  5
13E
330
1F
100
AcDbEntity
  8
外形線
  6
Continuous
100
AcDbLine
 10
-6.914362064523956
 20
14.02371354714035
 30
0.0
 11
6.363187996319553
 21
13.70837273163467
 31
0.0
  0
LINE
  5
13F
330
1F
100
AcDbEntity
  8
外形線
  6
Continuous
100
AcDbLine
 10
-14.76981353811166
 20
3.712218392764331
 30
0.0
 11
-14.05439407400034
 21
3.712218392764331
 31
0.0
  0
LINE
  5
140
330
1F
100
AcDbEntity
  8
外形線
  6
Continuous
100
AcDbLine
 10
-17.14481353811167
 20
5.89721839276433
 30
0.0
 11
-16.58096847585581
 21
5.89721839276433
 31
0.0
  0
LINE
  5
141
330
1F
100
AcDbEntity
  8
破線
  6
DASHED
100
AcDbLine
 10
-15.52167846731088
 20
4.044718392764327
 30
0.0
 11
-14.01795150808235
 21
4.044718392764327
 31
0.0
  0
LINE
  5
142
330
1F
100
AcDbEntity
  8
外形線
  6
Continuous
100
AcDbLine
 10
-13.23394672118189
 20
5.685974756279683
 30
0.0
 11
-13.68734501666117
 21
3.993868411886875
 31
0.0
  0
LINE
  5
143
330
1F
100
AcDbEntity
  8
外形線
  6
Continuous
100
AcDbLine
 10
-14.76981353811166
 20
3.712218392764331
 30
0.0
 11
-15.48523155263803
 21
3.712218392764331
 31
0.0
  0
LINE
  5
144
330
1F
100
AcDbEntity
  8
外形線
  6
Continuous
100
AcDbLine
 10
-16.30563981075089
 20
5.685996455864291
 30
0.0
 11
-15.85224189045164
 21
3.993891511663078
 31
0.0
  0
LINE
  5
145
330
1F
100
AcDbEntity
  8
外形線
  6
Continuous
100
AcDbLine
 10
-12.95865860036752
 20
5.89721839276433
 30
0.0
 11
-12.39481353811164
 21
5.89721839276433
 31
0.0
  0
LINE
  5
146
330
1F
100
AcDbEntity
  8
破線
  6
DASHED
100
AcDbLine
 10
-15.98447168659952
 20
5.772039644652847
 30
0.0
 11
-15.52163911445071
 21
4.04472408230222
 31
0.0
  0
LINE
  5
147
330
1F
100
AcDbEntity
  8
破線
  6
DASHED
100
AcDbLine
 10
-13.55512157163973
 20
5.772015245213507
 30
0.0
 11
-14.01795489414856
 21
4.044696882479684
 31
0.0
  0
LINE
  5
148
330
1F
100
AcDbEntity
  8
破線
  6
DASHED
100
AcDbLine
 10
-17.14481353811167
 20
6.229712594424487
 30
0.0
 11
-16.58096847585581
 21
6.229712594424487
 31
0.0
  0
LINE
  5
149
330
1F
100
AcDbEntity
  8
外形線
  6
Continuous
100
AcDbLine
 10
6.139549839676782
 20
37.23975430781822
 30
0.0
 11
8.449799175760425
 21
37.29462255582511
 31
0.0
  0
LINE
  5
14A
330
1F
100
AcDbEntity
  8
破線
  6
DASHED
100
AcDbLine
 10
4.752699508152971
 20
36.87422423688055
 30
0.0
 11
4.752699508152971
 21
36.4886592802155
 31
0.0
  0
LINE
  5
14B
330
1F
100
AcDbEntity
  8
破線
  6
DASHED
100
AcDbLine
 10
-12.95865860036752
 20
6.229712594424487
 30
0.0
 11
-12.39481353811164
 21
6.229712594424487
 31
0.0
  0
LINE
  5
14C
330
1F
100
AcDbEntity
  8
外形線
  6
Continuous
100
AcDbLine
 10
-18.50482867120577
 20
3.858417415931351
 30
0.0
 11
-16.14479577923872
 21
47.11302513889711
 31
0.0
  0
LINE
  5
14D
330
1F
100
AcDbEntity
  8
外形線
  6
Continuous
100
AcDbLine
 10
14.89356391855336
 20
37.96921897259831
 30
0.0
 11
16.05769660898306
 21
37.96921897259831
 31
0.0
  0
LINE
  5
14E
330
1F
100
AcDbEntity
  8
外形線
  6
Continuous
100
AcDbLine
 10
16.05769660898306
 20
12.98421897259831
 30
0.0
 11
16.05769660898306
 21
25.47671897259832
 31
0.0
  0
LINE
  5
14F
330
1F
100
AcDbEntity
  8
外形線
  6
Continuous
100
AcDbLine
 10
-7.787300491847013
 20
15.08634475079655
 30
0.0
 11
-7.787300491847013
 21
25.47671897259832
 31
0.0
  0
LINE
  5
150
330
1F
100
AcDbEntity
  8
破線
  6
DASHED
100
AcDbLine
 10
-6.906467622618471
 20
36.59731861254048
 30
0.0
 11
4.752698311731514
 21
36.87422292674047
 31
0.0
  0
LINE
  5
151
330
1F
100
AcDbEntity
  8
外形線
  6
Continuous
100
AcDbLine
 10
-11.20730283185278
 20
5.897216770143725
 30
0.0
 11
-7.964025761129214
 21
14.96037727083453
 31
0.0
  0
LINE
  5
152
330
1F
100
AcDbEntity
  8
破線
  6
DASHED
100
AcDbLine
 10
15.1171508020983
 20
37.63671897259832
 30
0.0
 11
15.72519660898307
 21
37.63671897259832
 31
0.0
  0
LINE
  5
153
330
1F
100
AcDbEntity
  8
外形線
  6
Continuous
100
AcDbLine
 10
-12.39481353811164
 20
5.89721839276433
 30
0.0
 11
-11.2073091893568
 21
5.89721839276433
 31
0.0
  0
LINE
  5
154
330
1F
100
AcDbEntity
  8
外形線
  6
Continuous
100
AcDbLine
 10
8.457699508152977
 20
37.29481116620185
 30
0.0
 11
8.457699508152977
 21
25.47671897259832
 31
0.0
  0
LINE
  5
155
330
1F
100
AcDbEntity
  8
破線
  6
DASHED
100
AcDbLine
 10
6.052387373862039
 20
36.90509044423264
 30
0.0
 11
8.457698147083533
 21
36.96221639422314
 31
0.0
  0
LINE
  5
156
330
1F
100
AcDbEntity
  8
破線
  6
DASHED
100
AcDbLine
 10
8.457696090549632
 20
36.96222021129804
 30
0.0
 11
11.30769169822391
 21
37.63671977112267
 31
0.0
  0
LINE
  5
157
330
1F
100
AcDbEntity
  8
破線
  6
DASHED
100
AcDbLine
 10
-12.39481353811164
 20
6.229712594424487
 30
0.0
 11
-11.2073091893568
 21
6.229712594424487
 31
0.0
  0
LINE
  5
158
330
1F
100
AcDbEntity
  8
外形線
  6
Continuous
100
AcDbLine
 10
7.659554459469582
 20
13.67758412561845
 30
0.0
 11
8.449804792060263
 21
13.65881573964431
 31
0.0
  0
LINE
  5
159
330
1F
100
AcDbEntity
  8
破線
  6
DASHED
100
AcDbLine
 10
-39.73449501830638
 20
5.772033090264603
 30
0.0
 11
-39.27166244615758
 21
4.044717527913975
 31
0.0
  0
LINE
  5
15A
330
1F
100
AcDbEntity
  8
破線
  6
DASHED
100
AcDbLine
 10
11.30769370981311
 20
37.63671897259832
 30
0.0
 11
13.19824241586782
 21
37.63671897259832
 31
0.0
  0
LINE
  5
15B
330
1F
100
AcDbEntity
  8
外形線
  6
Continuous
100
AcDbLine
 10
11.26888542123893
 20
37.96921897259831
 30
0.0
 11
13.42182929941273
 21
37.96921897259831
 31
0.0
  0
LINE
  5
15C
330
1F
100
AcDbEntity
  8
破線
  6
DASHED
100
AcDbLine
 10
15.72519660898307
 20
37.25671897259831
 30
0.0
 11
16.05769660898306
 21
37.25671897259831
 31
0.0
  0
LINE
  5
15D
330
1F
100
AcDbEntity
  8
破線
  6
DASHED
100
AcDbLine
 10
15.72519660898307
 20
37.63671897259832
 30
0.0
 11
15.72519660898307
 21
37.25671897259831
 31
0.0
  0
LINE
  5
15E
330
1F
100
AcDbEntity
  8
外形線
  6
Continuous
100
AcDbLine
 10
-13.75483021524696
 20
3.858427169322427
 30
0.0
 11
-12.73080537194456
 21
22.62672190215521
 31
0.0
  0
LINE
  5
15F
330
1F
100
AcDbEntity
  8
外形線
  6
Continuous
100
AcDbLine
 10
-11.98981758511124
 20
25.47672096665659
 30
0.0
 11
-13.17731971357324
 21
5.897215077955367
 31
0.0
  0
LINE
  5
160
330
1F
100
AcDbEntity
  8
外形線
  6
Continuous
100
AcDbLine
 10
13.58769660898307
 20
37.87189093915105
 30
0.0
 11
13.58769660898307
 21
25.47671897259832
 31
0.0
  0
LINE
  5
161
330
1F
100
AcDbEntity
  8
外形線
  6
Continuous
100
AcDbLine
 10
-57.92477394155403
 20
25.47671897259832
 30
0.0
 11
-54.73983863881965
 21
25.47671897259832
 31
0.0
  0
LINE
  5
162
330
1F
100
AcDbEntity
  8
破線
  6
DASHED
100
AcDbLine
 10
-34.52167701772591
 20
4.044718392764327
 30
0.0
 11
-33.01794715932748
 21
4.044718392764327
 31
0.0
  0
LINE
  5
163
330
1F
100
AcDbEntity
  8
破線
  6
DASHED
100
AcDbLine
 10
-17.7086484532728
 20
6.229712594424487
 30
0.0
 11
-17.14480339101694
 21
6.229712594424487
 31
0.0
  0
LINE
  5
164
330
1F
100
AcDbEntity
  8
破線
  6
DASHED
100
AcDbLine
 10
-29.58365715078254
 20
44.72372535077214
 30
0.0
 11
-29.01981208852671
 21
44.72372535077214
 31
0.0
  0
LINE
  5
165
330
1F
100
AcDbEntity
  8
外形線
  6
Continuous
100
AcDbLine
 10
-29.58365715078254
 20
45.05622245160222
 30
0.0
 11
-29.01981208852671
 21
45.05622245160222
 31
0.0
  0
LINE
  5
166
330
1F
100
AcDbEntity
  8
外形線
  6
Continuous
100
AcDbLine
 10
5.037699508152975
 20
37.01902037945866
 30
0.0
 11
5.037699508152975
 21
36.45337348309637
 31
0.0
  0
LINE
  5
167
330
1F
100
AcDbEntity
  8
外形線
  6
Continuous
100
AcDbLine
 10
5.037692924623428
 20
36.45336952677315
 30
0.0
 11
5.132692228327123
 21
36.45562575309241
 31
0.0
  0
LINE
  5
168
330
1F
100
AcDbEntity
  8
外形線
  6
Continuous
100
AcDbLine
 10
-31.39481208852669
 20
47.24121955243229
 30
0.0
 11
-30.6793955235853
 21
47.24121955243229
 31
0.0
  0
LINE
  5
169
330
1F
100
AcDbEntity
  8
外形線
  6
Continuous
100
AcDbLine
 10
-29.85893899369898
 20
45.26746707730937
 30
0.0
 11
-30.31233803953829
 21
46.95957622208537
 31
0.0
  0
LINE
  5
16A
330
1F
100
AcDbEntity
  8
破線
  6
DASHED
100
AcDbLine
 10
-30.18010579125341
 20
45.18140773605319
 30
0.0
 11
-30.64293911376222
 21
46.90872609878701
 31
0.0
  0
LINE
  5
16B
330
1F
100
AcDbEntity
  8
中心線
  6
CENTER
100
AcDbLine
 10
-33.76981001563642
 20
3.712218418112017
 30
0.0
 11
-31.39481032022748
 21
47.24121462585793
 31
0.0
  0
LINE
  5
16C
330
1F
100
AcDbEntity
  8
破線
  6
DASHED
100
AcDbLine
 10
-32.14667701772594
 20
46.90872535077214
 30
0.0
 11
-30.64294715932748
 21
46.90872535077214
 31
0.0
  0
LINE
  5
16D
330
1F
100
AcDbEntity
  8
外形線
  6
Continuous
100
AcDbLine
 10
-31.39481208852669
 20
47.24121955243229
 30
0.0
 11
-32.11022865346813
 21
47.24121955243229
 31
0.0
  0
LINE
  5
16E
330
1F
100
AcDbEntity
  8
外形線
  6
Continuous
100
AcDbLine
 10
5.13269330845771
 20
36.45563037085743
 30
0.0
 11
5.750031023770567
 21
37.07296803413262
 31
0.0
  0
LINE
  5
16F
330
1F
100
AcDbEntity
  8
外形線
  6
Continuous
100
AcDbLine
 10
-32.93069183157316
 20
45.2674593206272
 30
0.0
 11
-32.47729278573384
 21
46.95956846540322
 31
0.0
  0
LINE
  5
170
330
1F
100
AcDbEntity
  8
外形線
  6
Continuous
100
AcDbLine
 10
-33.76981208852671
 20
45.05622245160222
 30
0.0
 11
-33.20596702627085
 21
45.05622245160222
 31
0.0
  0
LINE
  5
171
330
1F
100
AcDbEntity
  8
破線
  6
DASHED
100
AcDbLine
 10
-32.60951046933275
 20
45.18139832785823
 30
0.0
 11
-32.14667864754398
 21
46.9087110898257
 31
0.0
  0
LINE
  5
172
330
1F
100
AcDbEntity
  8
破線
  6
DASHED
100
AcDbLine
 10
-33.76981208852671
 20
44.72372535077214
 30
0.0
 11
-33.20596702627085
 21
44.72372535077214
 31
0.0
  0
LINE
  5
173
330
1F
100
AcDbEntity
  8
外形線
  6
Continuous
100
AcDbLine
 10
6.557699508152985
 20
13.89831565228581
 30
0.0
 11
6.557699508152985
 21
14.46396254864811
 31
0.0
  0
LINE
  5
174
330
1F
100
AcDbEntity
  8
外形線
  6
Continuous
100
AcDbLine
 10
6.557697928448178
 20
14.46396599755533
 30
0.0
 11
6.65269723215183
 21
14.46170977123608
 31
0.0
  0
LINE
  5
175
330
1F
100
AcDbEntity
  8
外形線
  6
Continuous
100
AcDbLine
 10
6.652694075362141
 20
14.46170657168781
 30
0.0
 11
7.270031790674998
 21
13.84436890841262
 31
0.0
  0
LINE
  5
176
330
1F
100
AcDbEntity
  8
破線
  6
DASHED
100
AcDbLine
 10
6.897256137778697
 20
14.68737666962468
 30
0.0
 11
7.572387070800566
 21
14.01224579351208
 31
0.0
  0
LINE
  5
177
330
1F
100
AcDbEntity
  8
破線
  6
DASHED
100
AcDbLine
 10
6.272699508152982
 20
14.04311179486393
 30
0.0
 11
6.272699508152982
 21
14.42867675152897
 31
0.0
  0
LINE
  5
178
330
1F
100
AcDbEntity
  8
破線
  6
DASHED
100
AcDbLine
 10
7.572391450213672
 20
14.01224800211073
 30
0.0
 11
8.457699053560382
 21
13.99122201310422
 31
0.0
  0
LINE
  5
179
330
1F
100
AcDbEntity
  8
中心線
  6
CENTER
100
AcDbLine
 10
6.557693670800176
 20
13.70375229696251
 30
0.0
 11
5.037693685118505
 21
37.21358671576473
 31
0.0
  0
LINE
  5
17A
330
1F
100
AcDbEntity
  8
中心線
  6
CENTER
100
AcDbLine
 10
52.03253678718535
 20
51.04121955243231
 30
0.0
 11
52.03253678718535
 21
-0.087781607235673
 31
0.0
  0
LINE
  5
17B
330
1F
100
AcDbEntity
  8
中心線
  6
CENTER
100
AcDbLine
 10
6.557696861366657
 20
13.7037512181053
 30
0.0
 11
7.430100777593757
 21
27.19721951416953
 31
0.0
  0
LINE
  5
17C
330
1F
100
AcDbEntity
  8
中心線
  6
CENTER
100
AcDbLine
 10
4.189960844231478
 20
24.10169807727764
 30
0.0
 11
5.03769411367697
 21
37.21358556656297
 31
0.0
  0
LINE
  5
17D
330
1F
100
AcDbEntity
  8
外形線
  6
Continuous
100
AcDbLine
 10
53.05198088184066
 20
36.22192176856629
 30
0.0
 11
53.93253947439024
 21
37.1024802868904
 31
0.0
  0
LINE
  5
17E
330
1F
100
AcDbEntity
  8
外形線
  6
Continuous
100
AcDbLine
 10
51.01309928871934
 20
36.2219327096391
 30
0.0
 11
50.13253659612405
 21
37.10249532800848
 31
0.0
  0
LINE
  5
17F
330
1F
100
AcDbEntity
  8
外形線
  6
Continuous
100
AcDbLine
 10
53.05198513265106
 20
14.73150575975308
 30
0.0
 11
53.93254372520067
 21
13.85094724142896
 31
0.0
  0
LINE
  5
180
330
1F
100
AcDbEntity
  8
外形線
  6
Continuous
100
AcDbLine
 10
51.01310118797756
 20
14.73150506879355
 30
0.0
 11
50.13254054540515
 21
13.85094450044681
 31
0.0
  0
LINE
  5
181
330
1F
100
AcDbEntity
  8
中心線
  6
CENTER
100
AcDbLine
 10
26.46803620735143
 20
25.47671897259832
 30
0.0
 11
77.59703736701934
 21
25.47671897259832
 31
0.0
  0
LINE
  5
182
330
1F
100
AcDbEntity
  8
外形線
  6
Continuous
100
AcDbLine
 10
32.28320951549485
 20
25.2344243860832
 30
0.0
 11
30.67050314074155
 21
22.93354918225359
 31
0.0
  0
ARC
  5
183
330
1F
100
AcDbEntity
  8
破線
  6
DASHED
100
AcDbCircle
 10
13.19824241586782
 20
37.44671897259831
 30
0.0
 40
0.19
100
AcDbArc
 50
28.57197903410565
 51
89.99998201391056
  0
ARC
  5
184
330
1F
100
AcDbEntity
  8
破線
  6
DASHED
100
AcDbCircle
 10
-50.95864265493295
 20
5.612212594424483
 30
0.0
 40
0.6174999547004703
100
AcDbArc
 50
89.9999273723972
 51
165.000212912313
  0
ARC
  5
185
330
1F
100
AcDbEntity
  8
外形線
  6
Continuous
100
AcDbCircle
 10
-27.36022285512826
 20
46.86121665326234
 30
0.0
 40
0.38
100
AcDbArc
 50
89.99998201391056
 51
165.0000489877729
  0
ARC
  5
186
330
1F
100
AcDbEntity
  8
外形線
  6
Continuous
100
AcDbCircle
 10
-34.33364265493292
 20
45.34121955243231
 30
0.0
 40
0.285
100
AcDbArc
 50
194.9997324461737
 51
270.0000179860895
  0
ARC
  5
187
330
1F
100
AcDbEntity
  8
外形線
  6
Continuous
100
AcDbCircle
 10
-36.86022285512827
 20
46.86121665326234
 30
0.0
 40
0.38
100
AcDbArc
 50
89.99998201391056
 51
165.0000489877729
  0
ARC
  5
188
330
1F
100
AcDbEntity
  8
破線
  6
DASHED
100
AcDbCircle
 10
-40.33095832876106
 20
5.612212594424483
 30
0.0
 40
0.6174999547004703
100
AcDbArc
 50
14.99975111550829
 51
89.99994103277554
  0
ARC
  5
189
330
1F
100
AcDbEntity
  8
外形線
  6
Continuous
100
AcDbCircle
 10
-36.70864265493296
 20
5.612212594424483
 30
0.0
 40
0.285
100
AcDbArc
 50
89.9999273723972
 51
165.000212912313
  0
ARC
  5
18A
330
1F
100
AcDbEntity
  8
破線
  6
DASHED
100
AcDbCircle
 10
-37.95595832876106
 20
45.34121955243231
 30
0.0
 40
0.6174999547004703
100
AcDbArc
 50
270.0000179860895
 51
345.0002044882621
  0
ARC
  5
18B
330
1F
100
AcDbEntity
  8
破線
  6
DASHED
100
AcDbCircle
 10
-27.20864265493295
 20
5.612212594424483
 30
0.0
 40
0.6174999547004703
100
AcDbArc
 50
89.9999273723972
 51
165.000212912313
  0
ARC
  5
18C
330
1F
100
AcDbEntity
  8
外形線
  6
Continuous
100
AcDbCircle
 10
-48.73522285512827
 20
4.092224191104171
 30
0.0
 40
0.38
100
AcDbArc
 50
194.9998963707136
 51
269.9999633445761
  0
ARC
  5
18D
330
1F
100
AcDbEntity
  8
破線
  6
DASHED
100
AcDbCircle
 10
-34.33364265493292
 20
45.34121955243231
 30
0.0
 40
0.6174999547004703
100
AcDbArc
 50
194.9997324461737
 51
270.0000179860895
  0
ARC
  5
18E
330
1F
100
AcDbEntity
  8
外形線
  6
Continuous
100
AcDbCircle
 10
-28.30438972524546
 20
4.092224191104171
 30
0.0
 40
0.38
100
AcDbArc
 50
269.9999633445761
 51
345.0000303184381
  0
ARC
  5
18F
330
1F
100
AcDbEntity
  8
外形線
  6
Continuous
100
AcDbCircle
 10
-40.33095832876106
 20
5.612212594424483
 30
0.0
 40
0.285
100
AcDbArc
 50
14.99975111550829
 51
89.99994103277554
  0
ARC
  5
190
330
1F
100
AcDbEntity
  8
外形線
  6
Continuous
100
AcDbCircle
 10
-52.05438972524547
 20
4.092224191104171
 30
0.0
 40
0.38
100
AcDbArc
 50
269.9999633445761
 51
345.0000303184381
  0
ARC
  5
191
330
1F
100
AcDbEntity
  8
外形線
  6
Continuous
100
AcDbCircle
 10
-39.23522285512826
 20
4.092224191104171
 30
0.0
 40
0.38
100
AcDbArc
 50
194.9998963707136
 51
269.9999633445761
  0
ARC
  5
192
330
1F
100
AcDbEntity
  8
外形線
  6
Continuous
100
AcDbCircle
 10
-35.42938392690562
 20
46.86121665326234
 30
0.0
 40
0.38
100
AcDbArc
 50
14.99991162495386
 51
89.99998201391056
  0
ARC
  5
193
330
1F
100
AcDbEntity
  8
外形線
  6
Continuous
100
AcDbCircle
 10
-37.95595832876106
 20
45.34121955243231
 30
0.0
 40
0.285
100
AcDbArc
 50
270.0000179860895
 51
345.0002044882621
  0
ARC
  5
194
330
1F
100
AcDbEntity
  8
外形線
  6
Continuous
100
AcDbCircle
 10
-33.05438972524546
 20
4.092224191104171
 30
0.0
 40
0.38
100
AcDbArc
 50
269.9999633445761
 51
345.0000303184381
  0
ARC
  5
195
330
1F
100
AcDbEntity
  8
外形線
  6
Continuous
100
AcDbCircle
 10
-53.48521125844859
 20
4.092224191104171
 30
0.0
 40
0.38
100
AcDbArc
 50
194.9998963707136
 51
269.9999633445761
  0
ARC
  5
196
330
1F
100
AcDbEntity
  8
外形線
  6
Continuous
100
AcDbCircle
 10
-49.83095832876108
 20
5.612212594424483
 30
0.0
 40
0.285
100
AcDbArc
 50
14.99975111550829
 51
89.99994103277554
  0
ARC
  5
197
330
1F
100
AcDbEntity
  8
外形線
  6
Continuous
100
AcDbCircle
 10
-29.73522285512827
 20
4.092224191104171
 30
0.0
 40
0.38
100
AcDbArc
 50
194.9998963707136
 51
269.9999633445761
  0
ARC
  5
198
330
1F
100
AcDbEntity
  8
外形線
  6
Continuous
100
AcDbCircle
 10
-30.83095832876107
 20
5.612212594424483
 30
0.0
 40
0.285
100
AcDbArc
 50
14.99975111550829
 51
89.99994103277554
  0
ARC
  5
199
330
1F
100
AcDbEntity
  8
外形線
  6
Continuous
100
AcDbCircle
 10
-21.33094673208137
 20
5.612212594424483
 30
0.0
 40
0.285
100
AcDbArc
 50
14.99975111550829
 51
89.99994103277554
  0
ARC
  5
19A
330
1F
100
AcDbEntity
  8
破線
  6
DASHED
100
AcDbCircle
 10
-28.45595832876107
 20
45.34121955243231
 30
0.0
 40
0.6174999547004703
100
AcDbArc
 50
270.0000179860895
 51
345.0002044882621
  0
ARC
  5
19B
330
1F
100
AcDbEntity
  8
外形線
  6
Continuous
100
AcDbCircle
 10
-24.83364265493295
 20
45.34121955243231
 30
0.0
 40
0.285
100
AcDbArc
 50
194.9997324461737
 51
270.0000179860895
  0
ARC
  5
19C
330
1F
100
AcDbEntity
  8
破線
  6
DASHED
100
AcDbCircle
 10
-24.83364265493295
 20
45.34121955243231
 30
0.0
 40
0.6174999547004703
100
AcDbArc
 50
194.9997324461737
 51
270.0000179860895
  0
ARC
  5
19D
330
1F
100
AcDbEntity
  8
外形線
  6
Continuous
100
AcDbCircle
 10
-25.92938972524546
 20
46.86121665326234
 30
0.0
 40
0.38
100
AcDbArc
 50
14.99991162495386
 51
89.99998201391056
  0
ARC
  5
19E
330
1F
100
AcDbEntity
  8
破線
  6
DASHED
100
AcDbCircle
 10
-7.886440506495461
 20
35.35331534711004
 30
0.0
 40
0.19
100
AcDbArc
 50
199.6899140661946
 51
323.9276331439526
  0
ARC
  5
19F
330
1F
100
AcDbEntity
  8
外形線
  6
Continuous
100
AcDbCircle
 10
-7.785137711085283
 20
36.0570801481354
 30
0.0
 40
0.19
100
AcDbArc
 50
199.689845764303
 51
323.9276331439526
  0
ARC
  5
1A0
330
1F
100
AcDbEntity
  8
外形線
  6
Continuous
100
AcDbCircle
 10
-54.58095832876107
 20
5.612212594424483
 30
0.0
 40
0.285
100
AcDbArc
 50
14.99975111550829
 51
89.99994103277554
  0
ARC
  5
1A1
330
1F
100
AcDbEntity
  8
破線
  6
DASHED
100
AcDbCircle
 10
-12.95864845327281
 20
5.612212594424483
 30
0.0
 40
0.6174999547004703
100
AcDbArc
 50
89.9999273723972
 51
165.000212912313
  0
ARC
  5
1A2
330
1F
100
AcDbEntity
  8
外形線
  6
Continuous
100
AcDbCircle
 10
-7.785137711085283
 20
14.8963577970612
 30
0.0
 40
0.19
100
AcDbArc
 50
36.07230538434512
 51
160.3100859338052
  0
ARC
  5
1A3
330
1F
100
AcDbEntity
  8
外形線
  6
Continuous
100
AcDbCircle
 10
-35.58095832876106
 20
5.612212594424483
 30
0.0
 40
0.285
100
AcDbArc
 50
14.99975111550829
 51
89.99994103277554
  0
ARC
  5
1A4
330
1F
100
AcDbEntity
  8
破線
  6
DASHED
100
AcDbCircle
 10
-33.20595832876108
 20
45.34121955243231
 30
0.0
 40
0.6174999547004703
100
AcDbArc
 50
270.0000179860895
 51
345.0002044882621
  0
ARC
  5
1A5
330
1F
100
AcDbEntity
  8
破線
  6
DASHED
100
AcDbCircle
 10
-56.95595832876108
 20
45.34121955243231
 30
0.0
 40
0.6174999547004703
100
AcDbArc
 50
270.0000179860895
 51
345.0002044882621
  0
ARC
  5
1A6
330
1F
100
AcDbEntity
  8
外形線
  6
Continuous
100
AcDbCircle
 10
-53.33364265493295
 20
45.34121955243231
 30
0.0
 40
0.285
100
AcDbArc
 50
194.9997324461737
 51
270.0000179860895
  0
ARC
  5
1A7
330
1F
100
AcDbEntity
  8
外形線
  6
Continuous
100
AcDbCircle
 10
-28.45595832876107
 20
45.34121955243231
 30
0.0
 40
0.285
100
AcDbArc
 50
270.0000179860895
 51
345.0002044882621
  0
ARC
  5
1A8
330
1F
100
AcDbEntity
  8
破線
  6
DASHED
100
AcDbCircle
 10
-30.83095832876107
 20
5.612212594424483
 30
0.0
 40
0.6174999547004703
100
AcDbArc
 50
14.99975111550829
 51
89.99994103277554
  0
ARC
  5
1A9
330
1F
100
AcDbEntity
  8
外形線
  6
Continuous
100
AcDbCircle
 10
-27.20864265493295
 20
5.612212594424483
 30
0.0
 40
0.285
100
AcDbArc
 50
89.9999273723972
 51
165.000212912313
  0
ARC
  5
1AA
330
1F
100
AcDbEntity
  8
外形線
  6
Continuous
100
AcDbCircle
 10
-23.55437812856576
 20
4.092224191104171
 30
0.0
 40
0.38
100
AcDbArc
 50
269.9999633445761
 51
345.0000303184381
  0
ARC
  5
1AB
330
1F
100
AcDbEntity
  8
破線
  6
DASHED
100
AcDbCircle
 10
-22.45863685659311
 20
5.612212594424483
 30
0.0
 40
0.6174999547004703
100
AcDbArc
 50
89.9999273723972
 51
165.000212912313
  0
ARC
  5
1AC
330
1F
100
AcDbEntity
  8
外形線
  6
Continuous
100
AcDbCircle
 10
14.89356391855336
 20
37.77921897259832
 30
0.0
 40
0.19
100
AcDbArc
 50
89.99998201391056
 51
165.5225174781439
  0
ARC
  5
1AD
330
1F
100
AcDbEntity
  8
破線
  6
DASHED
100
AcDbCircle
 10
-52.20595832876107
 20
45.34121955243231
 30
0.0
 40
0.6174999547004703
100
AcDbArc
 50
270.0000179860895
 51
345.0002044882621
  0
ARC
  5
1AE
330
1F
100
AcDbEntity
  8
外形線
  6
Continuous
100
AcDbCircle
 10
-48.58364265493295
 20
45.34121955243231
 30
0.0
 40
0.285
100
AcDbArc
 50
194.9997324461737
 51
270.0000179860895
  0
ARC
  5
1AF
330
1F
100
AcDbEntity
  8
破線
  6
DASHED
100
AcDbCircle
 10
-48.58364265493295
 20
45.34121955243231
 30
0.0
 40
0.6174999547004703
100
AcDbArc
 50
194.9997324461737
 51
270.0000179860895
  0
ARC
  5
1B0
330
1F
100
AcDbEntity
  8
外形線
  6
Continuous
100
AcDbCircle
 10
-49.67938972524545
 20
46.86121665326234
 30
0.0
 40
0.38
100
AcDbArc
 50
14.99991162495386
 51
89.99998201391056
  0
ARC
  5
1B1
330
1F
100
AcDbEntity
  8
外形線
  6
Continuous
100
AcDbCircle
 10
-24.98521125844856
 20
4.092224191104171
 30
0.0
 40
0.38
100
AcDbArc
 50
194.9998963707136
 51
269.9999633445761
  0
ARC
  5
1B2
330
1F
100
AcDbEntity
  8
外形線
  6
Continuous
100
AcDbCircle
 10
-26.08094673208139
 20
5.612212594424483
 30
0.0
 40
0.285
100
AcDbArc
 50
14.99975111550829
 51
89.99994103277554
  0
ARC
  5
1B3
330
1F
100
AcDbEntity
  8
外形線
  6
Continuous
100
AcDbCircle
 10
-51.11021125844859
 20
46.86121665326234
 30
0.0
 40
0.38
100
AcDbArc
 50
89.99998201391056
 51
165.0000489877729
  0
ARC
  5
1B4
330
1F
100
AcDbEntity
  8
外形線
  6
Continuous
100
AcDbCircle
 10
-52.20595832876107
 20
45.34121955243231
 30
0.0
 40
0.285
100
AcDbArc
 50
270.0000179860895
 51
345.0002044882621
  0
ARC
  5
1B5
330
1F
100
AcDbEntity
  8
破線
  6
DASHED
100
AcDbCircle
 10
-54.58095832876107
 20
5.612212594424483
 30
0.0
 40
0.6174999547004703
100
AcDbArc
 50
14.99975111550829
 51
89.99994103277554
  0
ARC
  5
1B6
330
1F
100
AcDbEntity
  8
外形線
  6
Continuous
100
AcDbCircle
 10
-50.95864265493295
 20
5.612212594424483
 30
0.0
 40
0.285
100
AcDbArc
 50
89.9999273723972
 51
165.000212912313
  0
ARC
  5
1B7
330
1F
100
AcDbEntity
  8
外形線
  6
Continuous
100
AcDbCircle
 10
-47.30438972524545
 20
4.092224191104171
 30
0.0
 40
0.38
100
AcDbArc
 50
269.9999633445761
 51
345.0000303184381
  0
ARC
  5
1B8
330
1F
100
AcDbEntity
  8
破線
  6
DASHED
100
AcDbCircle
 10
-23.70594673208137
 20
45.34121955243231
 30
0.0
 40
0.6174999547004703
100
AcDbArc
 50
270.0000179860895
 51
345.0002044882621
  0
ARC
  5
1B9
330
1F
100
AcDbEntity
  8
外形線
  6
Continuous
100
AcDbCircle
 10
-20.08363685659311
 20
45.34121955243231
 30
0.0
 40
0.285
100
AcDbArc
 50
194.9997324461737
 51
270.0000179860895
  0
ARC
  5
1BA
330
1F
100
AcDbEntity
  8
破線
  6
DASHED
100
AcDbCircle
 10
-20.08363685659311
 20
45.34121955243231
 30
0.0
 40
0.6174999547004703
100
AcDbArc
 50
194.9997324461737
 51
270.0000179860895
  0
ARC
  5
1BB
330
1F
100
AcDbEntity
  8
外形線
  6
Continuous
100
AcDbCircle
 10
-21.17937812856576
 20
46.86121665326234
 30
0.0
 40
0.38
100
AcDbArc
 50
14.99991162495386
 51
89.99998201391056
  0
ARC
  5
1BC
330
1F
100
AcDbEntity
  8
外形線
  6
Continuous
100
AcDbCircle
 10
-22.61021125844857
 20
46.86121665326234
 30
0.0
 40
0.38
100
AcDbArc
 50
89.99998201391056
 51
165.0000489877729
  0
ARC
  5
1BD
330
1F
100
AcDbEntity
  8
外形線
  6
Continuous
100
AcDbCircle
 10
-23.70594673208137
 20
45.34121955243231
 30
0.0
 40
0.285
100
AcDbArc
 50
270.0000179860895
 51
345.0002044882621
  0
ARC
  5
1BE
330
1F
100
AcDbEntity
  8
破線
  6
DASHED
100
AcDbCircle
 10
-26.08094673208139
 20
5.612212594424483
 30
0.0
 40
0.6174999547004703
100
AcDbArc
 50
14.99975111550829
 51
89.99994103277554
  0
ARC
  5
1BF
330
1F
100
AcDbEntity
  8
外形線
  6
Continuous
100
AcDbCircle
 10
-22.45863685659311
 20
5.612212594424483
 30
0.0
 40
0.285
100
AcDbArc
 50
89.9999273723972
 51
165.000212912313
  0
ARC
  5
1C0
330
1F
100
AcDbEntity
  8
外形線
  6
Continuous
100
AcDbCircle
 10
-18.80437812856576
 20
4.092224191104171
 30
0.0
 40
0.38
100
AcDbArc
 50
269.9999633445761
 51
345.0000303184381
  0
ARC
  5
1C1
330
1F
100
AcDbEntity
  8
破線
  6
DASHED
100
AcDbCircle
 10
-46.20864265493294
 20
5.612212594424483
 30
0.0
 40
0.6174999547004703
100
AcDbArc
 50
89.9999273723972
 51
165.000212912313
  0
ARC
  5
1C2
330
1F
100
AcDbEntity
  8
外形線
  6
Continuous
100
AcDbCircle
 10
-54.42938972524546
 20
46.86121665326234
 30
0.0
 40
0.38
100
AcDbArc
 50
14.99991162495386
 51
89.99998201391056
  0
ARC
  5
1C3
330
1F
100
AcDbEntity
  8
破線
  6
DASHED
100
AcDbCircle
 10
-17.7086368565931
 20
5.612212594424483
 30
0.0
 40
0.6174999547004703
100
AcDbArc
 50
89.9999273723972
 51
165.000212912313
  0
ARC
  5
1C4
330
1F
100
AcDbEntity
  8
破線
  6
DASHED
100
AcDbCircle
 10
5.118551558934235
 20
36.4886592802155
 30
0.0
 40
0.3658563995361328
100
AcDbArc
 50
179.9999813306653
 51
314.9999987477608
  0
ARC
  5
1C5
330
1F
100
AcDbEntity
  8
破線
  6
DASHED
100
AcDbCircle
 10
-35.58095832876106
 20
5.612212594424483
 30
0.0
 40
0.6174999547004703
100
AcDbArc
 50
14.99975111550829
 51
89.99994103277554
  0
ARC
  5
1C6
330
1F
100
AcDbEntity
  8
外形線
  6
Continuous
100
AcDbCircle
 10
-33.20595832876108
 20
45.34121955243231
 30
0.0
 40
0.285
100
AcDbArc
 50
270.0000179860895
 51
345.0002044882621
  0
ARC
  5
1C7
330
1F
100
AcDbEntity
  8
破線
  6
DASHED
100
AcDbCircle
 10
-47.45595832876108
 20
45.34121955243231
 30
0.0
 40
0.6174999547004703
100
AcDbArc
 50
270.0000179860895
 51
345.0002044882621
  0
ARC
  5
1C8
330
1F
100
AcDbEntity
  8
外形線
  6
Continuous
100
AcDbCircle
 10
-43.83364265493295
 20
45.34121955243231
 30
0.0
 40
0.285
100
AcDbArc
 50
194.9997324461737
 51
270.0000179860895
  0
ARC
  5
1C9
330
1F
100
AcDbEntity
  8
破線
  6
DASHED
100
AcDbCircle
 10
-43.83364265493295
 20
45.34121955243231
 30
0.0
 40
0.6174999547004703
100
AcDbArc
 50
194.9997324461737
 51
270.0000179860895
  0
ARC
  5
1CA
330
1F
100
AcDbEntity
  8
外形線
  6
Continuous
100
AcDbCircle
 10
-44.92938972524544
 20
46.86121665326234
 30
0.0
 40
0.38
100
AcDbArc
 50
14.99991162495386
 51
89.99998201391056
  0
ARC
  5
1CB
330
1F
100
AcDbEntity
  8
外形線
  6
Continuous
100
AcDbCircle
 10
-46.36022285512828
 20
46.86121665326234
 30
0.0
 40
0.38
100
AcDbArc
 50
89.99998201391056
 51
165.0000489877729
  0
ARC
  5
1CC
330
1F
100
AcDbEntity
  8
外形線
  6
Continuous
100
AcDbCircle
 10
-47.45595832876108
 20
45.34121955243231
 30
0.0
 40
0.285
100
AcDbArc
 50
270.0000179860895
 51
345.0002044882621
  0
ARC
  5
1CD
330
1F
100
AcDbEntity
  8
破線
  6
DASHED
100
AcDbCircle
 10
-49.83095832876108
 20
5.612212594424483
 30
0.0
 40
0.6174999547004703
100
AcDbArc
 50
14.99975111550829
 51
89.99994103277554
  0
ARC
  5
1CE
330
1F
100
AcDbEntity
  8
外形線
  6
Continuous
100
AcDbCircle
 10
-46.20864265493294
 20
5.612212594424483
 30
0.0
 40
0.285
100
AcDbArc
 50
89.9999273723972
 51
165.000212912313
  0
ARC
  5
1CF
330
1F
100
AcDbEntity
  8
外形線
  6
Continuous
100
AcDbCircle
 10
-42.55438972524545
 20
4.092224191104171
 30
0.0
 40
0.38
100
AcDbArc
 50
269.9999633445761
 51
345.0000303184381
  0
ARC
  5
1D0
330
1F
100
AcDbEntity
  8
外形線
  6
Continuous
100
AcDbCircle
 10
-30.67938972524546
 20
46.86121665326234
 30
0.0
 40
0.38
100
AcDbArc
 50
14.99991162495386
 51
89.99998201391056
  0
ARC
  5
1D1
330
1F
100
AcDbEntity
  8
外形線
  6
Continuous
100
AcDbCircle
 10
-32.11022285512829
 20
46.86121665326234
 30
0.0
 40
0.38
100
AcDbArc
 50
89.99998201391056
 51
165.0000489877729
  0
ARC
  5
1D2
330
1F
100
AcDbEntity
  8
外形線
  6
Continuous
100
AcDbCircle
 10
-31.95864845327282
 20
5.612212594424483
 30
0.0
 40
0.285
100
AcDbArc
 50
89.9999273723972
 51
165.000212912313
  0
ARC
  5
1D3
330
1F
100
AcDbEntity
  8
破線
  6
DASHED
100
AcDbCircle
 10
-29.58364845327281
 20
45.34121955243231
 30
0.0
 40
0.6174999547004703
100
AcDbArc
 50
194.9997324461737
 51
270.0000179860895
  0
ARC
  5
1D4
330
1F
100
AcDbEntity
  8
外形線
  6
Continuous
100
AcDbCircle
 10
-29.58364845327281
 20
45.34121955243231
 30
0.0
 40
0.285
100
AcDbArc
 50
194.9997324461737
 51
270.0000179860895
  0
ARC
  5
1D5
330
1F
100
AcDbEntity
  8
外形線
  6
Continuous
100
AcDbCircle
 10
-55.86021125844859
 20
46.86121665326234
 30
0.0
 40
0.38
100
AcDbArc
 50
89.99998201391056
 51
165.0000489877729
  0
ARC
  5
1D6
330
1F
100
AcDbEntity
  8
破線
  6
DASHED
100
AcDbCircle
 10
-41.45864265493295
 20
5.612212594424483
 30
0.0
 40
0.6174999547004703
100
AcDbArc
 50
89.9999273723972
 51
165.000212912313
  0
ARC
  5
1D7
330
1F
100
AcDbEntity
  8
外形線
  6
Continuous
100
AcDbCircle
 10
-43.98522285512828
 20
4.092224191104171
 30
0.0
 40
0.38
100
AcDbArc
 50
194.9998963707136
 51
269.9999633445761
  0
ARC
  5
1D8
330
1F
100
AcDbEntity
  8
外形線
  6
Continuous
100
AcDbCircle
 10
-45.08095832876107
 20
5.612212594424483
 30
0.0
 40
0.285
100
AcDbArc
 50
14.99975111550829
 51
89.99994103277554
  0
ARC
  5
1D9
330
1F
100
AcDbEntity
  8
破線
  6
DASHED
100
AcDbCircle
 10
-42.70595832876107
 20
45.34121955243231
 30
0.0
 40
0.6174999547004703
100
AcDbArc
 50
270.0000179860895
 51
345.0002044882621
  0
ARC
  5
1DA
330
1F
100
AcDbEntity
  8
外形線
  6
Continuous
100
AcDbCircle
 10
-56.95595832876108
 20
45.34121955243231
 30
0.0
 40
0.285
100
AcDbArc
 50
270.0000179860895
 51
345.0002044882621
  0
ARC
  5
1DB
330
1F
100
AcDbEntity
  8
外形線
  6
Continuous
100
AcDbCircle
 10
-39.08364265493296
 20
45.34121955243231
 30
0.0
 40
0.285
100
AcDbArc
 50
194.9997324461737
 51
270.0000179860895
  0
ARC
  5
1DC
330
1F
100
AcDbEntity
  8
破線
  6
DASHED
100
AcDbCircle
 10
-39.08364265493296
 20
45.34121955243231
 30
0.0
 40
0.6174999547004703
100
AcDbArc
 50
194.9997324461737
 51
270.0000179860895
  0
ARC
  5
1DD
330
1F
100
AcDbEntity
  8
外形線
  6
Continuous
100
AcDbCircle
 10
-40.17938972524546
 20
46.86121665326234
 30
0.0
 40
0.38
100
AcDbArc
 50
14.99991162495386
 51
89.99998201391056
  0
ARC
  5
1DE
330
1F
100
AcDbEntity
  8
外形線
  6
Continuous
100
AcDbCircle
 10
-41.61022285512828
 20
46.86121665326234
 30
0.0
 40
0.38
100
AcDbArc
 50
89.99998201391056
 51
165.0000489877729
  0
ARC
  5
1DF
330
1F
100
AcDbEntity
  8
外形線
  6
Continuous
100
AcDbCircle
 10
-42.70595832876107
 20
45.34121955243231
 30
0.0
 40
0.285
100
AcDbArc
 50
270.0000179860895
 51
345.0002044882621
  0
ARC
  5
1E0
330
1F
100
AcDbEntity
  8
破線
  6
DASHED
100
AcDbCircle
 10
-45.08095832876107
 20
5.612212594424483
 30
0.0
 40
0.6174999547004703
100
AcDbArc
 50
14.99975111550829
 51
89.99994103277554
  0
ARC
  5
1E1
330
1F
100
AcDbEntity
  8
外形線
  6
Continuous
100
AcDbCircle
 10
-41.45864265493295
 20
5.612212594424483
 30
0.0
 40
0.285
100
AcDbArc
 50
89.9999273723972
 51
165.000212912313
  0
ARC
  5
1E2
330
1F
100
AcDbEntity
  8
外形線
  6
Continuous
100
AcDbCircle
 10
-37.80438972524546
 20
4.092224191104171
 30
0.0
 40
0.38
100
AcDbArc
 50
269.9999633445761
 51
345.0000303184381
  0
ARC
  5
1E3
330
1F
100
AcDbEntity
  8
破線
  6
DASHED
100
AcDbCircle
 10
-36.70864265493296
 20
5.612212594424483
 30
0.0
 40
0.6174999547004703
100
AcDbArc
 50
89.9999273723972
 51
165.000212912313
  0
ARC
  5
1E4
330
1F
100
AcDbEntity
  8
破線
  6
DASHED
100
AcDbCircle
 10
-53.33364265493295
 20
45.34121955243231
 30
0.0
 40
0.6174999547004703
100
AcDbArc
 50
194.9997324461737
 51
270.0000179860895
  0
ARC
  5
1E5
330
1F
100
AcDbEntity
  8
外形線
  6
Continuous
100
AcDbCircle
 10
-15.48522285512827
 20
4.092224191104171
 30
0.0
 40
0.38
100
AcDbArc
 50
194.9998963707136
 51
269.9999633445761
  0
ARC
  5
1E6
330
1F
100
AcDbEntity
  8
外形線
  6
Continuous
100
AcDbCircle
 10
-16.58095832876107
 20
5.612212594424483
 30
0.0
 40
0.285
100
AcDbArc
 50
14.99975111550829
 51
89.99994103277554
  0
ARC
  5
1E7
330
1F
100
AcDbEntity
  8
破線
  6
DASHED
100
AcDbCircle
 10
-7.886440506495461
 20
15.60012259808659
 30
0.0
 40
0.19
100
AcDbArc
 50
36.07230538434512
 51
160.3100312922919
  0
ARC
  5
1E8
330
1F
100
AcDbEntity
  8
外形線
  6
Continuous
100
AcDbCircle
 10
14.15769660898306
 20
12.98421897259831
 30
0.0
 40
0.5700000000000001
100
AcDbArc
 50
14.47746021005581
 51
165.5224764970088
  0
ARC
  5
1E9
330
1F
100
AcDbEntity
  8
破線
  6
DASHED
100
AcDbCircle
 10
14.15769660898306
 20
12.98421897259831
 30
0.0
 40
0.9025
100
AcDbArc
 50
28.57177412843061
 51
151.4281625786341
  0
ARC
  5
1EA
330
1F
100
AcDbEntity
  8
外形線
  6
Continuous
100
AcDbCircle
 10
13.42182929941273
 20
13.17421897259831
 30
0.0
 40
0.19
100
AcDbArc
 50
269.9999633445761
 51
345.5224441672958
  0
ARC
  5
1EB
330
1F
100
AcDbEntity
  8
破線
  6
DASHED
100
AcDbCircle
 10
-16.58095832876107
 20
5.612212594424483
 30
0.0
 40
0.6174999547004703
100
AcDbArc
 50
14.99975111550829
 51
89.99994103277554
  0
ARC
  5
1EC
330
1F
100
AcDbEntity
  8
外形線
  6
Continuous
100
AcDbCircle
 10
-12.95864845327281
 20
5.612212594424483
 30
0.0
 40
0.285
100
AcDbArc
 50
89.9999273723972
 51
165.000212912313
  0
ARC
  5
1ED
330
1F
100
AcDbEntity
  8
破線
  6
DASHED
100
AcDbCircle
 10
14.15769660898306
 20
37.96921897259831
 30
0.0
 40
0.9025
100
AcDbArc
 50
208.5717964402309
 51
331.4281797677927
  0
ARC
  5
1EE
330
1F
100
AcDbEntity
  8
外形線
  6
Continuous
100
AcDbCircle
 10
4.847699508152985
 20
37.01902037945867
 30
0.0
 40
0.19
100
AcDbArc
 50
0.0
 51
91.36049422487458
  0
ARC
  5
1EF
330
1F
100
AcDbEntity
  8
外形線
  6
Continuous
100
AcDbCircle
 10
6.153085555516263
 20
36.66991683331609
 30
0.0
 40
0.5700000000000001
100
AcDbArc
 50
91.36050105506395
 51
135.0000140020009
  0
ARC
  5
1F0
330
1F
100
AcDbEntity
  8
破線
  6
DASHED
100
AcDbCircle
 10
15.1171508020983
 20
37.44671897259831
 30
0.0
 40
0.19
100
AcDbArc
 50
89.99998201391056
 51
151.4280396352289
  0
ARC
  5
1F1
330
1F
100
AcDbEntity
  8
外形線
  6
Continuous
100
AcDbCircle
 10
14.89356391855336
 20
13.17421897259831
 30
0.0
 40
0.19
100
AcDbArc
 50
194.4774278803428
 51
269.9999633445761
  0
ARC
  5
1F2
330
1F
100
AcDbEntity
  8
破線
  6
DASHED
100
AcDbCircle
 10
13.19824241586782
 20
13.50671897259831
 30
0.0
 40
0.19
100
AcDbArc
 50
269.9999633445761
 51
331.427966324381
  0
ARC
  5
1F3
330
1F
100
AcDbEntity
  8
破線
  6
DASHED
100
AcDbCircle
 10
15.1171508020983
 20
13.50671897259831
 30
0.0
 40
0.19
100
AcDbArc
 50
208.5719057232576
 51
269.9999633445761
  0
ARC
  5
1F4
330
1F
100
AcDbEntity
  8
外形線
  6
Continuous
100
AcDbCircle
 10
13.42182929941273
 20
37.77921897259832
 30
0.0
 40
0.19
100
AcDbArc
 50
14.47750289873805
 51
89.99998201391056
  0
ARC
  5
1F5
330
1F
100
AcDbEntity
  8
外形線
  6
Continuous
100
AcDbCircle
 10
14.15769660898306
 20
37.96921897259831
 30
0.0
 40
0.5700000000000001
100
AcDbArc
 50
194.4774825218559
 51
345.5224971012618
  0
ARC
  5
1F6
330
1F
100
AcDbEntity
  8
外形線
  6
Continuous
100
AcDbCircle
 10
-34.48522285512826
 20
4.092224191104171
 30
0.0
 40
0.38
100
AcDbArc
 50
194.9998963707136
 51
269.9999633445761
  0
ARC
  5
1F7
330
1F
100
AcDbEntity
  8
外形線
  6
Continuous
100
AcDbCircle
 10
-14.05438972524546
 20
4.092224191104171
 30
0.0
 40
0.38
100
AcDbArc
 50
269.9999633445761
 51
345.0000303184381
  0
ARC
  5
1F8
330
1F
100
AcDbEntity
  8
破線
  6
DASHED
100
AcDbCircle
 10
-18.95594673208139
 20
45.34121955243231
 30
0.0
 40
0.6174999547004703
100
AcDbArc
 50
270.0000179860895
 51
345.0002044882621
  0
ARC
  5
1F9
330
1F
100
AcDbEntity
  8
外形線
  6
Continuous
100
AcDbCircle
 10
-17.86021705678842
 20
46.86121665326234
 30
0.0
 40
0.38
100
AcDbArc
 50
89.99998201391056
 51
165.0000489877729
  0
ARC
  5
1FA
330
1F
100
AcDbEntity
  8
破線
  6
DASHED
100
AcDbCircle
 10
-21.33094673208137
 20
5.612212594424483
 30
0.0
 40
0.6174999547004703
100
AcDbArc
 50
14.99975111550829
 51
89.99994103277554
  0
ARC
  5
1FB
330
1F
100
AcDbEntity
  8
外形線
  6
Continuous
100
AcDbCircle
 10
-16.42937812856575
 20
46.86121665326234
 30
0.0
 40
0.38
100
AcDbArc
 50
14.99991162495386
 51
89.99998201391056
  0
ARC
  5
1FC
330
1F
100
AcDbEntity
  8
外形線
  6
Continuous
100
AcDbCircle
 10
-15.33363685659311
 20
45.34121955243231
 30
0.0
 40
0.285
100
AcDbArc
 50
194.9997324461737
 51
270.0000179860895
  0
ARC
  5
1FD
330
1F
100
AcDbEntity
  8
外形線
  6
Continuous
100
AcDbCircle
 10
-17.7086368565931
 20
5.612212594424483
 30
0.0
 40
0.285
100
AcDbArc
 50
89.9999273723972
 51
165.000212912313
  0
ARC
  5
1FE
330
1F
100
AcDbEntity
  8
破線
  6
DASHED
100
AcDbCircle
 10
-15.33363685659311
 20
45.34121955243231
 30
0.0
 40
0.6174999547004703
100
AcDbArc
 50
194.9997324461737
 51
270.0000179860895
  0
ARC
  5
1FF
330
1F
100
AcDbEntity
  8
外形線
  6
Continuous
100
AcDbCircle
 10
-18.95594673208139
 20
45.34121955243231
 30
0.0
 40
0.285
100
AcDbArc
 50
270.0000179860895
 51
345.0002044882621
  0
ARC
  5
200
330
1F
100
AcDbEntity
  8
破線
  6
DASHED
100
AcDbCircle
 10
-31.95864845327282
 20
5.612212594424483
 30
0.0
 40
0.6174999547004703
100
AcDbArc
 50
89.9999273723972
 51
165.000212912313
  0
ARC
  5
201
330
1F
100
AcDbEntity
  8
外形線
  6
Continuous
100
AcDbCircle
 10
-20.23521705678842
 20
4.092224191104171
 30
0.0
 40
0.38
100
AcDbArc
 50
194.9998963707136
 51
269.9999633445761
  0
ARC
  5
202
330
1F
100
AcDbEntity
  8
破線
  6
DASHED
100
AcDbCircle
 10
6.638551558934224
 20
14.42867675152897
 30
0.0
 40
0.3658563995361328
100
AcDbArc
 50
44.99993636544209
 51
179.999950367443
  0
ARC
  5
203
330
1F
100
AcDbEntity
  8
外形線
  6
Continuous
100
AcDbCircle
 10
7.673085555516273
 20
14.24741919842839
 30
0.0
 40
0.5700000000000001
100
AcDbArc
 50
224.9999313564855
 51
268.6394443034226
  0
ARC
  5
204
330
1F
100
AcDbEntity
  8
外形線
  6
Continuous
100
AcDbCircle
 10
6.367699508152988
 20
13.89831565228581
 30
0.0
 40
0.19
100
AcDbArc
 50
268.6394511336122
 51
359.9999453584866
  0
CIRCLE
  5
205
330
1F
100
AcDbEntity
  8
外形線
  6
Continuous
100
AcDbCircle
 10
52.03253678718535
 20
25.47671897259832
 30
0.0
 40
21.76450057983398
  0
CIRCLE
  5
206
330
1F
100
AcDbEntity
  8
外形線
  6
Continuous
100
AcDbCircle
 10
52.03253678718535
 20
25.47671897259832
 30
0.0
 40
19.57950057983398
  0
CIRCLE
  5
207
330
1F
100
AcDbEntity
  8
外形線
  6
Continuous
100
AcDbCircle
 10
52.03253678718535
 20
25.47671897259832
 30
0.0
 40
9.689999999999999
  0
CIRCLE
  5
208
330
1F
100
AcDbEntity
  8
外形線
  6
Continuous
100
AcDbCircle
 10
52.03253678718535
 20
25.47671897259832
 30
0.0
 40
12.16
  0
CIRCLE
  5
209
330
1F
100
AcDbEntity
  8
外形線
  6
Continuous
100
AcDbCircle
 10
52.03253678718535
 20
25.47671897259832
 30
0.0
 40
12.635
  0
ARC
  5
20A
330
1F
100
AcDbEntity
  8
外形線
  6
Continuous
100
AcDbCircle
 10
52.03253678718535
 20
25.47671897259832
 30
0.0
 40
10.72550014495849
100
AcDbArc
 50
84.8811104008228
 51
89.99998201391056
  0
ARC
  5
20B
330
1F
100
AcDbEntity
  8
外形線
  6
Continuous
100
AcDbCircle
 10
52.03253678718535
 20
25.47671897259832
 30
0.0
 40
11.1244998550415
100
AcDbArc
 50
0.0
 51
83.18475095818008
  0
CIRCLE
  5
20C
330
1F
100
AcDbEntity
  8
外形線
  6
Continuous
100
AcDbCircle
 10
52.03253678718535
 20
25.47671897259832
 30
0.0
 40
11.78
  0
ARC
  5
20D
330
1F
100
AcDbEntity
  8
外形線
  6
Continuous
100
AcDbCircle
 10
52.91763017097445
 20
36.35627665845036
 30
0.0
 40
0.19
100
AcDbArc
 50
265.3490553122825
 51
314.9995377099921
  0
ARC
  5
20E
330
1F
100
AcDbEntity
  8
外形線
  6
Continuous
100
AcDbCircle
 10
52.03253678718535
 20
25.47671897259832
 30
0.0
 40
10.72550014495849
100
AcDbArc
 50
89.99998201391056
 51
95.11885362699834
  0
ARC
  5
20F
330
1F
100
AcDbEntity
  8
外形線
  6
Continuous
100
AcDbCircle
 10
51.14744340339636
 20
36.35627665845036
 30
0.0
 40
0.19
100
AcDbArc
 50
225.0004367904843
 51
274.6509191881939
  0
ARC
  5
210
330
1F
100
AcDbEntity
  8
外形線
  6
Continuous
100
AcDbCircle
 10
52.03253678718535
 20
25.47671897259832
 30
0.0
 40
11.1244998550415
100
AcDbArc
 50
96.81521306964128
 51
179.9999640278213
  0
ARC
  5
211
330
1F
100
AcDbEntity
  8
外形線
  6
Continuous
100
AcDbCircle
 10
52.03253678718535
 20
25.47671897259832
 30
0.0
 40
11.1244998550415
100
AcDbArc
 50
179.9999813306653
 51
263.1847322888457
  0
ARC
  5
212
330
1F
100
AcDbEntity
  8
外形線
  6
Continuous
100
AcDbCircle
 10
52.03253678718535
 20
25.47671897259832
 30
0.0
 40
10.72550014495849
100
AcDbArc
 50
269.9999633445761
 51
275.1188349576637
  0
ARC
  5
213
330
1F
100
AcDbEntity
  8
外形線
  6
Continuous
100
AcDbCircle
 10
52.03253678718535
 20
25.47671897259832
 30
0.0
 40
11.1244998550415
100
AcDbArc
 50
276.8151944003065
 51
359.9999453584866
  0
ARC
  5
214
330
1F
100
AcDbEntity
  8
外形線
  6
Continuous
100
AcDbCircle
 10
52.91763017097445
 20
14.59716056195378
 30
0.0
 40
0.19
100
AcDbArc
 50
45.0004008183055
 51
94.65088321601488
  0
ARC
  5
215
330
1F
100
AcDbEntity
  8
外形線
  6
Continuous
100
AcDbCircle
 10
52.03253678718535
 20
25.47671897259832
 30
0.0
 40
10.72550014495849
100
AcDbArc
 50
264.8810917314882
 51
269.9999633445761
  0
ARC
  5
216
330
1F
100
AcDbEntity
  8
外形線
  6
Continuous
100
AcDbCircle
 10
51.14744340339636
 20
14.59716056195378
 30
0.0
 40
0.19
100
AcDbArc
 50
85.34903300048201
 51
134.9995085680025
  0
ARC
  5
217
330
1F
100
AcDbEntity
  8
外形線
  6
Continuous
100
AcDbCircle
 10
31.44844074906306
 20
22.38828495496642
 30
0.0
 40
0.95
100
AcDbArc
 50
144.9730031097204
 51
188.5329967829273
  0
ARC
  5
218
330
1F
100
AcDbEntity
  8
外形線
  6
Continuous
100
AcDbCircle
 10
31.50527190717337
 20
25.77968861337035
 30
0.0
 40
0.95
100
AcDbArc
 50
324.9730031097203
 51
359.1544113879111
  0
MTEXT
  5
219
330
1F
100
AcDbEntity
  8
0
 62
     7
100
AcDbMText
 10
-73.68538912041531
 20
-31.53434032154509
 30
0.0
 40
3.200000047683716
 41
0.0
 71
     7
 72
     1
  1
{\W0.833333;規　　　格}
 73
     1
 44
1.0
  0
MTEXT
  5
21A
330
1F
100
AcDbEntity
  8
0
 62
     7
100
AcDbMText
 10
-83.27684141986853
 20
-37.34586367244661
 30
0.0
 40
3.200000047683716
 41
0.0
 71
     7
 72
     1
  1
{\W0.833333;TDS150-TDS100}
 73
     1
 44
1.0
  0
MTEXT
  5
21B
330
1F
100
AcDbEntity
  8
0
 62
     7
100
AcDbMText
 10
-83.27684141986853
 20
-43.34586358303968
 30
0.0
 40
3.200000047683716
 41
0.0
 71
     7
 72
     1
  1
\W0.833333;TDS200-TDS100
 73
     1
 44
1.0
  0
MTEXT
  5
21C
330
1F
100
AcDbEntity
  8
0
 62
     7
100
AcDbMText
 10
-83.27684141986853
 20
-49.34586349363275
 30
0.0
 40
3.200000047683716
 41
0.0
 71
     7
 72
     1
  1
\W0.833333;TDS200-TDS150
 73
     1
 44
1.0
  0
MTEXT
  5
21D
330
1F
100
AcDbEntity
  8
0
 62
     7
100
AcDbMText
 10
-56.62889039615208
 20
-67.1076437550274
 30
0.0
 40
2.5
 41
0.0
 71
     7
 72
     1
  1
{\W0.8333;*寸法、仕様等は製品改良の為、予告無く変更する場合があります。（Ｈ２４．６）}
 73
     1
 44
1.0
  0
MTEXT
  5
21E
330
1F
100
AcDbEntity
  8
0
 62
     7
100
AcDbMText
 10
-56.73973676131328
 20
-58.60323351645142
 30
0.0
 40
2.5
 41
0.0
 71
     7
 72
     1
  1
{\W0.833333;*形状は規格毎に異なります。}
 73
     1
 44
1.0
  0
MTEXT
  5
21F
330
1F
100
AcDbEntity
  8
0
 62
     7
100
AcDbMText
 10
-56.57205076215984
 20
-62.68176745597912
 30
0.0
 40
2.5
 41
0.0
 71
     7
 72
     1
  1
{\W0.833333;*ストッパ－の位置及び数は、規格毎に異なります。}
 73
     1
 44
1.0
  0
MTEXT
  5
220
102
{ACAD_XDICTIONARY
360
B9D
102
}
330
1F
100
AcDbEntity
  8
0
 62
     7
100
AcDbMText
 10
-30.7765904121001
 20
-31.3458637618536
 30
0.0
 40
3.200000047683716
 41
0.0
 71
     7
 72
     1
  1
{\W1;\U+2205A}
 73
     1
 44
1.0
  0
MTEXT
  5
221
330
1F
100
AcDbEntity
  8
0
 62
     7
100
AcDbMText
 10
-1.857377885069879
 20
-35.78652711427439
 30
0.0
 40
3.200000047683716
 41
0.0
 71
     5
 72
     1
  1
{\W1;174}
 73
     1
 44
1.0
  0
MTEXT
  5
222
330
1F
100
AcDbEntity
  8
0
 62
     7
100
AcDbMText
 10
-2.033585076769226
 20
-41.74586355919783
 30
0.0
 40
3.200000047683716
 41
0.0
 71
     5
 72
     1
  1
{\W1;229}
 73
     1
 44
1.0
  0
MTEXT
  5
223
330
1F
100
AcDbEntity
  8
0
 62
     7
100
AcDbMText
 10
-2.033583805203488
 20
-47.74586346979086
 30
0.0
 40
3.200000047683716
 41
0.0
 71
     5
 72
     1
  1
{\W1;229}
 73
     1
 44
1.0
  0
MTEXT
  5
224
330
1F
100
AcDbEntity
  8
0
 62
     7
100
AcDbMText
 10
71.76866467826823
 20
-55.32217436575963
 30
0.0
 40
3.200000047683716
 41
0.0
 71
     7
 72
     1
  1
{\W1;(mm)}
 73
     1
 44
1.0
  0
MTEXT
  5
225
102
{ACAD_XDICTIONARY
360
B9F
102
}
330
1F
100
AcDbEntity
  8
0
 62
     7
100
AcDbMText
 10
-4.776583170135851
 20
-31.3458637618536
 30
0.0
 40
3.200000047683716
 41
0.0
 71
     7
 72
     1
  1
{\W1;\U+2205B}
 73
     1
 44
1.0
  0
MTEXT
  5
226
330
1F
100
AcDbEntity
  8
0
 62
     7
100
AcDbMText
 10
21.65309100052535
 20
-31.3458637618536
 30
0.0
 40
3.200000047683716
 41
0.0
 71
     7
 72
     1
  1
L1
 73
     1
 44
1.0
  0
MTEXT
  5
227
330
1F
100
AcDbEntity
  8
0
 62
     7
100
AcDbMText
 10
47.22341605500374
 20
-31.3458637618536
 30
0.0
 40
3.200000047683716
 41
0.0
 71
     7
 72
     1
  1
L2
 73
     1
 44
1.0
  0
MTEXT
  5
228
330
1F
100
AcDbEntity
  8
0
 62
     7
100
AcDbMText
 10
73.22341566757355
 20
-31.3458637618536
 30
0.0
 40
3.200000047683716
 41
0.0
 71
     7
 72
     1
  1
L3
 73
     1
 44
1.0
  0
MTEXT
  5
229
330
1F
100
AcDbEntity
  8
0
 62
     7
100
AcDbMText
 10
-28.03358596090477
 20
-35.7458636486048
 30
0.0
 40
3.200000047683716
 41
0.0
 71
     5
 72
     1
  1
{\W1;121}
 73
     1
 44
1.0
  0
MTEXT
  5
22A
330
1F
100
AcDbEntity
  8
0
 62
     7
100
AcDbMText
 10
-28.03358468933904
 20
-41.74586355919783
 30
0.0
 40
3.200000047683716
 41
0.0
 71
     5
 72
     1
  1
{\W1;121}
 73
     1
 44
1.0
  0
MTEXT
  5
22B
330
1F
100
AcDbEntity
  8
0
 62
     7
100
AcDbMText
 10
-28.0335834177733
 20
-47.74586346979086
 30
0.0
 40
3.200000047683716
 41
0.0
 71
     5
 72
     1
  1
{\W1;177}
 73
     1
 44
1.0
  0
MTEXT
  5
22C
330
1F
100
AcDbEntity
  8
0
 62
     7
100
AcDbMText
 10
23.96642852302365
 20
-35.7458636486048
 30
0.0
 40
3.200000047683716
 41
0.0
 71
     5
 72
     1
  1
{\W1;323}
 73
     1
 44
1.0
  0
MTEXT
  5
22D
330
1F
100
AcDbEntity
  8
0
 62
     7
100
AcDbMText
 10
23.96642979458939
 20
-41.74586355919783
 30
0.0
 40
3.200000047683716
 41
0.0
 71
     5
 72
     1
  1
{\W1;394}
 73
     1
 44
1.0
  0
MTEXT
  5
22E
330
1F
100
AcDbEntity
  8
0
 62
     7
100
AcDbMText
 10
23.96643106615512
 20
-47.74586346979086
 30
0.0
 40
3.200000047683716
 41
0.0
 71
     5
 72
     1
  1
{\W1;444}
 73
     1
 44
1.0
  0
MTEXT
  5
22F
330
1F
100
AcDbEntity
  8
0
 62
     7
100
AcDbMText
 10
49.96639761801578
 20
-35.7458636486048
 30
0.0
 40
3.200000047683716
 41
0.0
 71
     5
 72
     1
  1
{\W1;190}
 73
     1
 44
1.0
  0
MTEXT
  5
230
330
1F
100
AcDbEntity
  8
0
 62
     7
100
AcDbMText
 10
49.96639888958153
 20
-41.74586355919783
 30
0.0
 40
3.200000047683716
 41
0.0
 71
     5
 72
     1
  1
{\W1;250}
 73
     1
 44
1.0
  0
MTEXT
  5
231
330
1F
100
AcDbEntity
  8
0
 62
     7
100
AcDbMText
 10
49.96640016114726
 20
-47.74586346979086
 30
0.0
 40
3.200000047683716
 41
0.0
 71
     5
 72
     1
  1
{\W1;250}
 73
     1
 44
1.0
  0
MTEXT
  5
232
330
1F
100
AcDbEntity
  8
0
 62
     7
100
AcDbMText
 10
75.9663972305856
 20
-35.7458636486048
 30
0.0
 40
3.200000047683716
 41
0.0
 71
     5
 72
     1
  1
{\W1;120}
 73
     1
 44
1.0
  0
MTEXT
  5
233
330
1F
100
AcDbEntity
  8
0
 62
     7
100
AcDbMText
 10
75.96639850215129
 20
-41.74586355919783
 30
0.0
 40
3.200000047683716
 41
0.0
 71
     5
 72
     1
  1
{\W1;120}
 73
     1
 44
1.0
  0
MTEXT
  5
234
330
1F
100
AcDbEntity
  8
0
 62
     7
100
AcDbMText
 10
75.96639977371705
 20
-47.74586346979086
 30
0.0
 40
3.200000047683716
 41
0.0
 71
     5
 72
     1
  1
{\W1;180}
 73
     1
 44
1.0
  0
DIMENSION
  5
235
330
1F
100
AcDbEntity
  8
寸法線
100
AcDbDimension
  2
*D2
 10
-11.20730049184703
 20
54.81157176775077
 30
0.0
 11
-34.95730049184702
 21
54.81157176775077
 31
0.0
 70
   160
  1
L2
 71
     5
 42
47.49999999999998
  3
ISO-25
100
AcDbAlignedDimension
 13
-58.70730049184701
 23
45.0562224516022
 33
0.0
 14
-11.20730049184703
 24
45.0562224516022
 34
0.0
 50
180.0
100
AcDbRotatedDimension
1001
ACAD
1000
DSTYLE
1002
{
1070
   278
1070
    46
1070
   147
1040
0.8000000119209291
1070
    77
1070
     1
1070
    74
1070
     0
1070
    73
1070
     0
1070
    42
1040
0.8
1070
    44
1040
2.286
1070
    76
1070
     0
1070
    75
1070
     1
1070
   279
1070
     0
1070
   271
1070
     0
1070
   173
1070
     1
1070
    41
1040
3.0
1070
   140
1040
3.200000047683716
1070
   344
1005
236
1070
   343
1005
236
1002
}
  0
DIMENSION
  5
248
330
1F
100
AcDbEntity
  8
寸法線
100
AcDbDimension
  2
*D3
 10
16.05769660898306
 20
54.81157176775077
 30
0.0
 11
4.657698058568016
 21
54.81157176775077
 31
0.0
 70
   160
  1
L3
 71
     5
 42
22.79999710083008
  3
ISO-25
100
AcDbAlignedDimension
 13
-6.742300491847025
 23
36.6012195524323
 33
0.0
 14
16.05769660898306
 24
37.96921897259831
 34
0.0
 50
180.0
100
AcDbRotatedDimension
1001
ACAD
1000
DSTYLE
1002
{
1070
   278
1070
    46
1070
   147
1040
0.8000000119209291
1070
    77
1070
     1
1070
    74
1070
     0
1070
    73
1070
     0
1070
    42
1040
0.8
1070
    44
1040
2.286
1070
    76
1070
     1
1070
    75
1070
     0
1070
   279
1070
     0
1070
   271
1070
     0
1070
   173
1070
     1
1070
    41
1040
3.0
1070
   140
1040
3.200000047683716
1070
   344
1005
236
1070
   343
1005
236
1002
}
  0
DIMENSION
  5
254
330
1F
100
AcDbEntity
  8
寸法線
100
AcDbDimension
  2
*D4
 10
-58.70730049184701
 20
61.29394913287978
 30
0.0
 11
-17.28111137128011
 21
61.29394913287978
 31
0.0
 70
   160
  1
L1
 71
     5
 42
74.76499710083007
  3
ISO-25
100
AcDbAlignedDimension
 13
16.05769660898306
 23
37.96921897259831
 33
0.0
 14
-58.70730049184701
 24
45.0562224516022
 34
0.0
100
AcDbRotatedDimension
1001
ACAD
1000
DSTYLE
1002
{
1070
   278
1070
    46
1070
   147
1040
0.8000000119209291
1070
    77
1070
     1
1070
    74
1070
     0
1070
    73
1070
     0
1070
    42
1040
0.8
1070
    44
1040
2.286
1070
    76
1070
     0
1070
    75
1070
     0
1070
   279
1070
     0
1070
   271
1070
     0
1070
   173
1070
     1
1070
    41
1040
3.0
1070
   140
1040
3.200000047683716
1070
   344
1005
236
1070
   343
1005
236
1002
}
  0
DIMENSION
  5
261
330
1F
100
AcDbEntity
  8
寸法線
100
AcDbDimension
  2
*D5
 10
-67.91911155600643
 20
2.566718362246753
 30
0.0
 11
-67.91911155600643
 21
25.47671897259832
 31
0.0
 70
   160
  1
\U+2205B
 71
     5
 42
45.82000122070313
  3
ISO-25
100
AcDbAlignedDimension
 13
-60.70592880105651
 23
48.38671958294988
 33
0.0
 14
-57.89900741433775
 24
2.566718362246751
 34
0.0
 50
90.0
100
AcDbRotatedDimension
1001
ACAD
1000
DSTYLE
1002
{
1070
   278
1070
    46
1070
   147
1040
0.8000000119209291
1070
    77
1070
     1
1070
    74
1070
     0
1070
    73
1070
     0
1070
    42
1040
0.8
1070
    44
1040
1.200000000000017
1070
    76
1070
     0
1070
    75
1070
     0
1070
   279
1070
     0
1070
   271
1070
     0
1070
   173
1070
     1
1070
    41
1040
3.0
1070
   140
1040
3.200000047683716
1070
   344
1005
236
1070
   343
1005
236
1002
}
  0
DIMENSION
  5
26E
330
1F
100
AcDbEntity
  8
寸法線
100
AcDbDimension
  2
*D6
 10
24.13582191415887
 20
13.99121955243229
 30
0.0
 11
24.13582191415886
 21
25.47671897259832
 31
0.0
 70
   160
  1
\U+2205A
 71
     5
 42
22.97099884033204
  3
ISO-25
100
AcDbAlignedDimension
 13
8.457699508152977
 23
36.96221839276434
 33
0.0
 14
8.457699508152977
 24
13.9912195524323
 34
0.0
 50
90.0
100
AcDbRotatedDimension
1001
ACAD
1000
DSTYLE
1002
{
1070
   278
1070
    46
1070
   147
1040
0.8000000119209291
1070
    77
1070
     1
1070
    74
1070
     0
1070
    73
1070
     0
1070
    42
1040
0.8
1070
    44
1040
1.199999999999989
1070
    76
1070
     0
1070
    75
1070
     0
1070
   279
1070
     0
1070
   271
1070
     0
1070
   173
1070
     1
1070
    41
1040
3.0
1070
   140
1040
3.200000047683716
1070
   344
1005
236
1070
   343
1005
236
1002
}
  0
LINE
  5
27D
330
1F
100
AcDbEntity
  8
VIEW0001
  6
Continuous
 62
     7
370
    30
100
AcDbLine
 10
-138.0
 20
95.0
 30
0.0
 11
138.5
 21
95.0
 31
0.0
  0
LINE
  5
27E
330
1F
100
AcDbEntity
  8
VIEW0001
  6
Continuous
 62
     7
370
    30
100
AcDbLine
 10
138.5
 20
95.0
 30
0.0
 11
138.5
 21
-94.50000000000001
 31
0.0
  0
LINE
  5
27F
330
1F
100
AcDbEntity
  8
VIEW0001
  6
Continuous
 62
     7
370
    30
100
AcDbLine
 10
-138.0
 20
-94.50000000000001
 30
0.0
 11
138.5
 21
-94.50000000000001
 31
0.0
  0
LINE
  5
280
330
1F
100
AcDbEntity
  8
VIEW0001
  6
Continuous
 62
     7
370
    30
100
AcDbLine
 10
-138.0
 20
95.0
 30
0.0
 11
-138.0
 21
-94.50000000000001
 31
0.0
  0
MTEXT
  5
285
330
1F
100
AcDbEntity
  8
VIEW0001
 62
     7
100
AcDbMText
 10
-16.5324204327034
 20
-92.19652516097928
 30
0.0
 40
3.200000047683716
 41
0.0
 71
     7
 72
     1
  1
\W0.833333;片落カラ－（ﾄﾖﾄﾞﾚﾝシングル管用）
 73
     1
 44
1.0
  0
LINE
  5
28F
330
1F
100
AcDbEntity
  8
外形線
  6
Continuous
100
AcDbLine
 10
138.5
 20
-87.0
 30
0.0
 11
-38.0
 21
-87.0
 31
0.0
  0
LINE
  5
292
330
1F
100
AcDbEntity
  8
外形線
  6
Continuous
100
AcDbLine
 10
52.0
 20
-94.50000000000001
 30
0.0
 11
52.0
 21
-87.0
 31
0.0
  0
LINE
  5
293
330
1F
100
AcDbEntity
  8
外形線
  6
Continuous
100
AcDbLine
 10
-38.0
 20
-94.50000000000001
 30
0.0
 11
-38.0
 21
-87.0
 31
0.0
  0
MTEXT
  5
9D3
330
1F
100
AcDbEntity
  8
0
 62
     7
100
AcDbMText
 10
-30.99455978248125
 20
-4.252131808015178
 30
0.0
 40
3.200000047683716
 41
0.0
 71
     7
 72
     1
  1
{\W0.833333;TDS150-TDS100}
 73
     1
 44
1.0
  0
MTEXT
  5
9D4
330
1F
100
AcDbEntity
  8
0
 62
     7
100
AcDbMText
 10
-30.99455978248125
 20
-10.25213171860825
 30
0.0
 40
3.200000047683716
 41
0.0
 71
     7
 72
     1
  1
\W0.833333;TDS200-TDS100
 73
     1
 44
1.0
  0
MTEXT
  5
9D5
330
1F
100
AcDbEntity
  8
0
 62
     7
100
AcDbMText
 10
-30.99455978248125
 20
-16.2521316292013
 30
0.0
 40
3.200000047683716
 41
0.0
 71
     7
 72
     1
  1
\W0.833333;TDS200-TDS150
 73
     1
 44
1.0
  0
MTEXT
  5
AAE
330
1F
100
AcDbEntity
  8
VIEW0001
 62
     7
100
AcDbMText
 10
59.89285540580747
 20
-93.0
 30
0.0
 40
4.5
 41
0.0
 71
     7
 72
     1
  1
{\W1.3889;　デンカ株式会社}
 73
     1
 44
1.0
  0
LINE
  5
B51
330
1F
100
AcDbEntity
  8
0
  6
Continuous
 62
     7
100
AcDbLine
 10
62.96640441791227
 20
-32.74586369330827
 30
0.0
 11
62.96640823260947
 21
-50.74586342508739
 31
0.0
  0
LINE
  5
B52
330
1F
100
AcDbEntity
  8
0
  6
Continuous
 62
     7
100
AcDbLine
 10
36.96643532292013
 20
-32.74586369330827
 30
0.0
 11
36.96643913761735
 21
-50.74586342508739
 31
0.0
  0
LINE
  5
B53
330
1F
100
AcDbEntity
  8
0
  6
Continuous
 62
     7
100
AcDbLine
 10
10.96642045156151
 20
-32.74586369330827
 30
0.0
 11
10.96642426625872
 21
-50.74586342508739
 31
0.0
  0
LINE
  5
B54
330
1F
100
AcDbEntity
  8
0
  6
Continuous
 62
     7
100
AcDbLine
 10
-15.03357916100829
 20
-32.74586369330827
 30
0.0
 11
-15.03357534631108
 21
-50.74586342508739
 31
0.0
  0
LINE
  5
B55
330
1F
100
AcDbEntity
  8
0
  6
Continuous
 62
     7
100
AcDbLine
 10
-41.03359403236699
 20
-32.74586369330827
 30
0.0
 11
-41.03359021766978
 21
-50.74586342508739
 31
0.0
  0
ENDSEC
  0
SECTION
  2
OBJECTS
  0
DICTIONARY
  5
C
330
0
100
AcDbDictionary
281
     1
  3
ACAD_CIP_PREVIOUS_PRODUCT_INFO
350
AA5
  3
ACAD_COLOR
350
289
  3
ACAD_DETAILVIEWSTYLE
350
AA0
  3
ACAD_GROUP
350
D
  3
ACAD_LAYOUT
350
1A
  3
ACAD_MATERIAL
350
288
  3
ACAD_MLEADERSTYLE
350
A9C
  3
ACAD_MLINESTYLE
350
17
  3
ACAD_PLOTSETTINGS
350
19
  3
ACAD_PLOTSTYLENAME
350
E
  3
ACAD_SCALELIST
350
A8A
  3
ACAD_SECTIONVIEWSTYLE
350
A9E
  3
ACAD_TABLESTYLE
350
28A
  3
ACAD_VISUALSTYLE
350
A71
  3
ACDB_RECOMPOSE_DATA
350
B9C
  3
AcDbVariableDictionary
350
2F9
  0
DICTIONARY
  5
AAF
330
10
100
AcDbDictionary
280
     1
281
     1
  3
ADSK_XREC_LAYER_RECONCILED
360
AB0
  0
DICTIONARY
  5
AB1
330
27B
100
AcDbDictionary
280
     1
281
     1
  3
ADSK_XREC_LAYER_RECONCILED
360
AB2
  0
DICTIONARY
  5
AB3
330
296
100
AcDbDictionary
280
     1
281
     1
  3
ADSK_XREC_LAYER_RECONCILED
360
AB4
  0
DICTIONARY
  5
AB5
330
297
100
AcDbDictionary
280
     1
281
     1
  3
ADSK_XREC_LAYER_RECONCILED
360
AB6
  0
DICTIONARY
  5
AB7
330
298
100
AcDbDictionary
280
     1
281
     1
  3
ADSK_XREC_LAYER_RECONCILED
360
AB8
  0
DICTIONARY
  5
AB9
330
299
100
AcDbDictionary
280
     1
281
     1
  3
ADSK_XREC_LAYER_RECONCILED
360
ABA
  0
DICTIONARY
  5
ABB
330
29A
100
AcDbDictionary
280
     1
281
     1
  3
ADSK_XREC_LAYER_RECONCILED
360
ABC
  0
DICTIONARY
  5
ABD
330
29B
100
AcDbDictionary
280
     1
281
     1
  3
ADSK_XREC_LAYER_RECONCILED
360
ABE
  0
DICTIONARY
  5
ABF
330
29C
100
AcDbDictionary
280
     1
281
     1
  3
ADSK_XREC_LAYER_RECONCILED
360
AC0
  0
DICTIONARY
  5
290
330
1F
100
AcDbDictionary
280
     1
281
     1
  3
ACAD_SORTENTS
360
291
  0
DICTIONARY
  5
BE2
330
B7B
100
AcDbDictionary
280
     1
281
     1
  3
ACAD_MTEXT_2008_RT
360
BE3
  0
DICTIONARY
  5
BE4
330
B84
100
AcDbDictionary
280
     1
281
     1
  3
ACAD_MTEXT_2008_RT
360
BE5
  0
DICTIONARY
  5
BA6
330
9A9
100
AcDbDictionary
280
     1
281
     1
  3
ACAD_MTEXT_2008_RT
360
BA7
  0
DICTIONARY
  5
BA8
330
9B2
100
AcDbDictionary
280
     1
281
     1
  3
ACAD_MTEXT_2008_RT
360
BA9
  0
DICTIONARY
  5
B9D
330
220
100
AcDbDictionary
280
     1
281
     1
  3
ACAD_MTEXT_2008_RT
360
B9E
  0
DICTIONARY
  5
B9F
330
225
100
AcDbDictionary
280
     1
281
     1
  3
ACAD_MTEXT_2008_RT
360
BA0
  0
XRECORD
  5
AA5
102
{ACAD_REACTORS
330
C
102
}
330
C
100
AcDbXrecord
280
     1
300
ACDLT
300
2014
300
INVLTS_F_S
  0
DICTIONARY
  5
289
102
{ACAD_REACTORS
330
C
102
}
330
C
100
AcDbDictionary
281
     1
  0
DICTIONARY
  5
AA0
102
{ACAD_REACTORS
330
C
102
}
330
C
100
AcDbDictionary
281
     1
  3
Metric50
350
AA1
  0
DICTIONARY
  5
D
102
{ACAD_REACTORS
330
C
102
}
330
C
100
AcDbDictionary
281
     1
  0
DICTIONARY
  5
1A
102
{ACAD_REACTORS
330
C
102
}
330
C
100
AcDbDictionary
281
     1
  3
Layout1
350
1E
  3
Layout2
350
26
  3
Model
350
22
  0
DICTIONARY
  5
288
102
{ACAD_REACTORS
330
C
102
}
330
C
100
AcDbDictionary
281
     1
  3
ByBlock
350
A61
  3
ByLayer
350
A59
  3
Global
350
A69
  0
DICTIONARY
  5
A9C
102
{ACAD_REACTORS
330
C
102
}
330
C
100
AcDbDictionary
281
     1
  3
Standard
350
A9D
  0
DICTIONARY
  5
17
102
{ACAD_REACTORS
330
C
102
}
330
C
100
AcDbDictionary
281
     1
  3
Standard
350
18
  0
DICTIONARY
  5
19
102
{ACAD_REACTORS
330
C
102
}
330
C
100
AcDbDictionary
281
     1
  3
111
350
9F2
  3
セットアップ1
350
B90
  0
ACDBDICTIONARYWDFLT
  5
E
102
{ACAD_REACTORS
330
C
102
}
330
C
100
AcDbDictionary
281
     1
  3
Normal
350
F
100
AcDbDictionaryWithDefault
340
F
  0
DICTIONARY
  5
A8A
102
{ACAD_REACTORS
330
C
102
}
330
C
100
AcDbDictionary
281
     1
  3
A0
350
A8B
  3
A1
350
A8C
  3
A2
350
A8D
  3
A3
350
A8E
  3
A4
350
A8F
  3
A5
350
A90
  3
A6
350
A91
  3
A7
350
A92
  3
A8
350
A93
  3
A9
350
A94
  3
B0
350
A95
  3
B1
350
A96
  3
B2
350
A97
  3
B3
350
A98
  3
B4
350
A99
  3
B5
350
A9A
  3
B6
350
A9B
  0
DICTIONARY
  5
A9E
102
{ACAD_REACTORS
330
C
102
}
330
C
100
AcDbDictionary
281
     1
  3
Metric50
350
A9F
  0
DICTIONARY
  5
28A
102
{ACAD_REACTORS
330
C
102
}
330
C
100
AcDbDictionary
281
     1
  3
Standard
350
28B
  0
DICTIONARY
  5
A71
102
{ACAD_REACTORS
330
C
102
}
330
C
100
AcDbDictionary
281
     1
  3
2dWireframe
350
A77
  3
Basic
350
A76
  3
Brighten
350
A7D
  3
ColorChange
350
A81
  3
Conceptual
350
A7A
  3
Dim
350
A7C
  3
EdgeColorOff
350
A89
  3
Facepattern
350
A80
  3
Flat
350
A72
  3
FlatWithEdges
350
A73
  3
Gouraud
350
A74
  3
GouraudWithEdges
350
A75
  3
Hidden
350
A79
  3
JitterOff
350
A87
  3
Linepattern
350
A7F
  3
OverhangOff
350
A88
  3
Realistic
350
A7B
  3
Shaded
350
A86
  3
Shaded with edges
350
A85
  3
Shades of Gray
350
A82
  3
Sketchy
350
A83
  3
Thicken
350
A7E
  3
Wireframe
350
A78
  3
X-Ray
350
A84
  0
XRECORD
  5
B9C
102
{ACAD_REACTORS
330
C
102
}
330
C
100
AcDbXrecord
280
     1
 90
        1
330
28B
  0
DICTIONARY
  5
2F9
102
{ACAD_REACTORS
330
C
102
}
330
C
100
AcDbDictionary
281
     1
  3
CANNOSCALE
350
AF9
  3
CMLEADERSTYLE
350
AF5
  3
CTABLESTYLE
350
2FA
  3
CVIEWDETAILSTYLE
350
AF6
  3
CVIEWSECTIONSTYLE
350
AF7
  3
DIMASSOC
350
2FB
  3
LAYEREVAL
350
AFB
  3
LAYERNOTIFY
350
AFC
  3
LIGHTINGUNITS
350
AFA
  3
MSLTSCALE
350
AF8
  3
PROJECTNAME
350
2FC
  3
XCLIPFRAME
350
B99
  0
XRECORD
  5
AB0
102
{ACAD_REACTORS
330
AAF
102
}
330
AAF
100
AcDbXrecord
280
     1
290
     1
  0
XRECORD
  5
AB2
102
{ACAD_REACTORS
330
AB1
102
}
330
AB1
100
AcDbXrecord
280
     1
290
     1
  0
XRECORD
  5
AB4
102
{ACAD_REACTORS
330
AB3
102
}
330
AB3
100
AcDbXrecord
280
     1
290
     1
  0
XRECORD
  5
AB6
102
{ACAD_REACTORS
330
AB5
102
}
330
AB5
100
AcDbXrecord
280
     1
290
     1
  0
XRECORD
  5
AB8
102
{ACAD_REACTORS
330
AB7
102
}
330
AB7
100
AcDbXrecord
280
     1
290
     1
  0
XRECORD
  5
ABA
102
{ACAD_REACTORS
330
AB9
102
}
330
AB9
100
AcDbXrecord
280
     1
290
     1
  0
XRECORD
  5
ABC
102
{ACAD_REACTORS
330
ABB
102
}
330
ABB
100
AcDbXrecord
280
     1
290
     1
  0
XRECORD
  5
ABE
102
{ACAD_REACTORS
330
ABD
102
}
330
ABD
100
AcDbXrecord
280
     1
290
     1
  0
XRECORD
  5
AC0
102
{ACAD_REACTORS
330
ABF
102
}
330
ABF
100
AcDbXrecord
280
     1
290
     1
  0
SORTENTSTABLE
  5
291
102
{ACAD_REACTORS
330
290
102
}
330
290
100
AcDbSortentsTable
330
1F
331
67
  5
6C
331
6F
  5
74
331
30
  5
30
331
200
  5
205
331
1C9
  5
1CE
331
18A
  5
18F
331
153
  5
158
331
114
  5
119
331
DD
  5
E2
331
9E
  5
A3
331
38
  5
3C
331
77
  5
7C
331
208
  5
20D
331
1D1
  5
1D6
331
192
  5
197
331
15B
  5
160
331
11C
  5
121
331
E5
  5
EA
331
A6
  5
AB
331
210
  5
215
331
1D9
  5
1DE
331
19A
  5
19F
331
163
  5
168
331
124
  5
129
331
ED
  5
F2
331
AE
  5
B3
331
218
  5
21D
331
1A2
  5
1A7
331
12C
  5
131
331
B6
  5
BB
331
27F
  5
293
331
40
  5
45
331
48
  5
4D
331
50
  5
55
331
220
  5
225
331
1E1
  5
1E6
331
1AA
  5
1AF
331
16B
  5
170
331
134
  5
139
331
F5
  5
FA
331
7F
  5
84
331
BE
  5
C3
331
58
  5
5D
331
228
  5
22D
331
1E9
  5
1EE
331
1B2
  5
1B7
331
173
  5
178
331
13C
  5
141
331
FD
  5
102
331
87
  5
8C
331
C6
  5
CB
331
230
  5
235
331
1F1
  5
1F6
331
1BA
  5
1BF
331
17B
  5
180
331
144
  5
149
331
105
  5
10A
331
CE
  5
D3
331
8F
  5
94
331
1F9
  5
1FE
331
1C2
  5
1C7
331
183
  5
188
331
14C
  5
151
331
10D
  5
112
331
D6
  5
DB
331
97
  5
9C
331
28F
  5
377
331
9D5
  5
B54
331
60
  5
65
331
68
  5
6D
331
70
  5
75
331
31
  5
31
331
201
  5
206
331
1CA
  5
1CF
331
18B
  5
190
331
154
  5
159
331
115
  5
11A
331
DE
  5
E3
331
9F
  5
A4
331
39
  5
3E
331
248
  5
27E
331
209
  5
20E
331
1D2
  5
1D7
331
193
  5
198
331
15C
  5
161
331
11D
  5
122
331
A7
  5
AC
331
E6
  5
EB
331
211
  5
216
331
1DA
  5
1DF
331
19B
  5
1A0
331
164
  5
169
331
125
  5
12A
331
EE
  5
F3
331
AF
  5
B4
331
219
  5
21E
331
1A3
  5
1A8
331
12D
  5
132
331
B7
  5
BC
331
41
  5
46
331
B51
  5
3D
331
49
  5
4E
331
78
  5
7D
331
51
  5
56
331
221
  5
226
331
1E2
  5
1E7
331
1AB
  5
1B0
331
16C
  5
171
331
135
  5
13A
331
F6
  5
FB
331
80
  5
85
331
59
  5
5E
331
BF
  5
C4
331
229
  5
22E
331
1EA
  5
1EF
331
1B3
  5
1B8
331
174
  5
179
331
13D
  5
142
331
FE
  5
103
331
88
  5
8D
331
C7
  5
CC
331
231
  5
248
331
1F2
  5
1F7
331
1BB
  5
1C0
331
17C
  5
181
331
145
  5
14A
331
106
  5
10B
331
90
  5
95
331
CF
  5
D4
331
1FA
  5
1FF
331
1C3
  5
1C8
331
184
  5
189
331
14D
  5
152
331
10E
  5
113
331
D7
  5
DC
331
280
  5
374
331
61
  5
66
331
69
  5
6E
331
98
  5
9D
331
71
  5
76
331
32
  5
32
331
202
  5
207
331
1CB
  5
1D0
331
18C
  5
191
331
155
  5
15A
331
116
  5
11B
331
DF
  5
E4
331
A0
  5
A5
331
3A
  5
3F
331
20A
  5
20F
331
1D3
  5
1D8
331
194
  5
199
331
15D
  5
162
331
11E
  5
123
331
E7
  5
EC
331
A8
  5
AD
331
212
  5
217
331
1DB
  5
1E0
331
19C
  5
1A1
331
165
  5
16A
331
126
  5
12B
331
EF
  5
F4
331
B0
  5
B5
331
21A
  5
21F
331
1A4
  5
1A9
331
12E
  5
133
331
261
  5
280
331
42
  5
47
331
B52
  5
3B
331
4A
  5
4F
331
B8
  5
BD
331
79
  5
7E
331
52
  5
57
331
222
  5
227
331
1E3
  5
1E8
331
1AC
  5
1B1
331
16D
  5
172
331
136
  5
13B
331
F7
  5
FC
331
81
  5
86
331
5A
  5
5F
331
C0
  5
C5
331
22A
  5
22F
331
1EB
  5
1F0
331
1B4
  5
1B9
331
175
  5
17A
331
13E
  5
143
331
FF
  5
104
331
89
  5
8E
331
C8
  5
CD
331
232
  5
254
331
1F3
  5
1F8
331
1BC
  5
1C1
331
17D
  5
182
331
146
  5
14B
331
107
  5
10C
331
91
  5
96
331
D0
  5
D5
331
1FB
  5
200
331
1C4
  5
1C9
331
185
  5
18A
331
14E
  5
153
331
10F
  5
114
331
62
  5
67
331
6A
  5
6F
331
D8
  5
DD
331
99
  5
9E
331
72
  5
77
331
33
  5
33
331
203
  5
208
331
1CC
  5
1D1
331
18D
  5
192
331
156
  5
15B
331
117
  5
11C
331
E0
  5
E5
331
A1
  5
A6
331
3B
  5
40
331
20B
  5
210
331
1D4
  5
1D9
331
195
  5
19A
331
15E
  5
163
331
11F
  5
124
331
E8
  5
ED
331
A9
  5
AE
331
213
  5
218
331
1DC
  5
1E1
331
19D
  5
1A2
331
166
  5
16B
331
127
  5
12C
331
B1
  5
B6
331
21B
  5
220
331
1A5
  5
1AA
331
12F
  5
134
331
43
  5
48
331
B53
  5
39
331
4B
  5
50
331
F0
  5
F5
331
B9
  5
BE
331
7A
  5
7F
331
53
  5
58
331
223
  5
228
331
1E4
  5
1E9
331
1AD
  5
1B2
331
16E
  5
173
331
137
  5
13C
331
F8
  5
FD
331
82
  5
87
331
5B
  5
60
331
C1
  5
C6
331
22B
  5
230
331
1EC
  5
1F1
331
1B5
  5
1BA
331
176
  5
17B
331
13F
  5
144
331
100
  5
105
331
8A
  5
8F
331
C9
  5
CE
331
233
  5
261
331
1F4
  5
1F9
331
1BD
  5
1C2
331
17E
  5
183
331
147
  5
14C
331
108
  5
10D
331
92
  5
97
331
D1
  5
D6
331
1FC
  5
201
331
1C5
  5
1CA
331
186
  5
18B
331
14F
  5
154
331
292
  5
375
331
AAE
  5
B55
331
63
  5
68
331
6B
  5
70
331
110
  5
115
331
D9
  5
DE
331
9A
  5
9F
331
73
  5
78
331
34
  5
34
331
204
  5
209
331
1CD
  5
1D2
331
18E
  5
193
331
157
  5
15C
331
118
  5
11D
331
E1
  5
E6
331
A2
  5
A7
331
3C
  5
41
331
20C
  5
211
331
1D5
  5
1DA
331
196
  5
19B
331
15F
  5
164
331
120
  5
125
331
E9
  5
EE
331
AA
  5
AF
331
214
  5
219
331
1DD
  5
1E2
331
19E
  5
1A3
331
167
  5
16C
331
128
  5
12D
331
B2
  5
B7
331
21C
  5
221
331
1A6
  5
1AB
331
44
  5
49
331
B54
  5
37
331
4C
  5
51
331
130
  5
135
331
F1
  5
F6
331
BA
  5
BF
331
7B
  5
80
331
54
  5
59
331
224
  5
229
331
1E5
  5
1EA
331
1AE
  5
1B3
331
16F
  5
174
331
138
  5
13D
331
F9
  5
FE
331
83
  5
88
331
5C
  5
61
331
C2
  5
C7
331
22C
  5
231
331
1ED
  5
1F2
331
1B6
  5
1BB
331
177
  5
17C
331
140
  5
145
331
101
  5
106
331
8B
  5
90
331
CA
  5
CF
331
234
  5
26E
331
1F5
  5
1FA
331
1BE
  5
1C3
331
17F
  5
184
331
148
  5
14D
331
109
  5
10E
331
93
  5
98
331
D2
  5
D7
331
1FD
  5
202
331
1C6
  5
1CB
331
187
  5
18C
331
293
  5
376
331
64
  5
69
331
6C
  5
71
331
150
  5
155
331
111
  5
116
331
DA
  5
DF
331
9B
  5
A0
331
74
  5
79
331
35
  5
36
331
205
  5
20A
331
1CE
  5
1D3
331
18F
  5
194
331
158
  5
15D
331
119
  5
11E
331
E2
  5
E7
331
A3
  5
A8
331
3D
  5
42
331
20D
  5
212
331
1D6
  5
1DB
331
197
  5
19C
331
160
  5
165
331
121
  5
126
331
EA
  5
EF
331
AB
  5
B0
331
254
  5
27F
331
215
  5
21A
331
1DE
  5
1E3
331
19F
  5
1A4
331
129
  5
12E
331
B3
  5
B8
331
21D
  5
222
331
1A7
  5
1AC
331
45
  5
4A
331
B55
  5
35
331
4D
  5
52
331
168
  5
16D
331
131
  5
136
331
F2
  5
F7
331
BB
  5
C0
331
7C
  5
81
331
55
  5
5A
331
225
  5
22A
331
1E6
  5
1EB
331
1AF
  5
1B4
331
170
  5
175
331
139
  5
13E
331
FA
  5
FF
331
84
  5
89
331
C3
  5
C8
331
5D
  5
62
331
22D
  5
232
331
1EE
  5
1F3
331
1B7
  5
1BC
331
178
  5
17D
331
141
  5
146
331
102
  5
107
331
8C
  5
91
331
CB
  5
D0
331
235
  5
27D
331
1F6
  5
1FB
331
1BF
  5
1C4
331
180
  5
185
331
149
  5
14E
331
10A
  5
10F
331
94
  5
99
331
D3
  5
D8
331
1FE
  5
203
331
1C7
  5
1CC
331
65
  5
6A
331
6D
  5
72
331
2E
  5
2E
331
188
  5
18D
331
151
  5
156
331
112
  5
117
331
DB
  5
E0
331
9C
  5
A1
331
75
  5
7A
331
36
  5
38
331
206
  5
20B
331
1CF
  5
1D4
331
190
  5
195
331
159
  5
15E
331
11A
  5
11F
331
E3
  5
E8
331
A4
  5
A9
331
3E
  5
43
331
20E
  5
213
331
1D7
  5
1DC
331
198
  5
19D
331
161
  5
166
331
122
  5
127
331
EB
  5
F0
331
AC
  5
B1
331
216
  5
21B
331
1DF
  5
1E4
331
1A0
  5
1A5
331
12A
  5
12F
331
B4
  5
B9
331
21E
  5
223
331
27D
  5
285
331
46
  5
4B
331
4E
  5
53
331
1A8
  5
1AD
331
169
  5
16E
331
132
  5
137
331
F3
  5
F8
331
BC
  5
C1
331
7D
  5
82
331
56
  5
5B
331
226
  5
22B
331
1E7
  5
1EC
331
1B0
  5
1B5
331
171
  5
176
331
13A
  5
13F
331
FB
  5
100
331
85
  5
8A
331
C4
  5
C9
331
5E
  5
63
331
22E
  5
233
331
1EF
  5
1F4
331
1B8
  5
1BD
331
179
  5
17E
331
142
  5
147
331
103
  5
108
331
8D
  5
92
331
CC
  5
D1
331
1F7
  5
1FC
331
1C0
  5
1C5
331
181
  5
186
331
14A
  5
14F
331
10B
  5
110
331
D4
  5
D9
331
95
  5
9A
331
1FF
  5
204
331
285
  5
37A
331
9D3
  5
B52
331
66
  5
6B
331
6E
  5
73
331
2F
  5
2F
331
1C8
  5
1CD
331
189
  5
18E
331
152
  5
157
331
113
  5
118
331
DC
  5
E1
331
9D
  5
A2
331
37
  5
3A
331
76
  5
7B
331
207
  5
20C
331
1D0
  5
1D5
331
191
  5
196
331
15A
  5
15F
331
11B
  5
120
331
E4
  5
E9
331
A5
  5
AA
331
3F
  5
44
331
20F
  5
214
331
1D8
  5
1DD
331
199
  5
19E
331
162
  5
167
331
123
  5
128
331
EC
  5
F1
331
AD
  5
B2
331
217
  5
21C
331
1A1
  5
1A6
331
12B
  5
130
331
B5
  5
BA
331
21F
  5
224
331
26E
  5
282
331
27E
  5
28F
331
47
  5
4C
331
4F
  5
54
331
1E0
  5
1E5
331
1A9
  5
1AE
331
16A
  5
16F
331
133
  5
138
331
F4
  5
F9
331
BD
  5
C2
331
7E
  5
83
331
57
  5
5C
331
227
  5
22C
331
1E8
  5
1ED
331
1B1
  5
1B6
331
172
  5
177
331
13B
  5
140
331
FC
  5
101
331
86
  5
8B
331
C5
  5
CA
331
5F
  5
64
331
22F
  5
234
331
1F0
  5
1F5
331
1B9
  5
1BE
331
17A
  5
17F
331
143
  5
148
331
104
  5
109
331
8E
  5
93
331
CD
  5
D2
331
1F8
  5
1FD
331
1C1
  5
1C6
331
182
  5
187
331
14B
  5
150
331
10C
  5
111
331
D5
  5
DA
331
96
  5
9B
331
9D4
  5
B53
  0
XRECORD
  5
BE3
102
{ACAD_REACTORS
330
BE2
102
}
330
BE2
100
AcDbXrecord
280
     1
 40
2028.0
  1
\U+2205B
  0
XRECORD
  5
BE5
102
{ACAD_REACTORS
330
BE4
102
}
330
BE4
100
AcDbXrecord
280
     1
 40
2020.0
  1
\U+2205A
  0
XRECORD
  5
BA7
102
{ACAD_REACTORS
330
BA6
102
}
330
BA6
100
AcDbXrecord
280
     1
 40
2028.0
  1
\U+2205B
  0
XRECORD
  5
BA9
102
{ACAD_REACTORS
330
BA8
102
}
330
BA8
100
AcDbXrecord
280
     1
 40
2020.0
  1
\U+2205A
  0
XRECORD
  5
B9E
102
{ACAD_REACTORS
330
B9D
102
}
330
B9D
100
AcDbXrecord
280
     1
 40
7259.0
  1
{\W1;\U+2205A}
  0
XRECORD
  5
BA0
102
{ACAD_REACTORS
330
B9F
102
}
330
B9F
100
AcDbXrecord
280
     1
 40
7272.0
  1
{\W1;\U+2205B}
  0
ACDBDETAILVIEWSTYLE
  5
AA1
102
{ACAD_XDICTIONARY
360
BE0
102
}
102
{ACAD_REACTORS
330
AA0
102
}
330
AA0
100
AcDbModelDocViewStyle
 70
     0
  3
Metric50
290
     0
100
AcDbDetailViewStyle
 70
     0
 71
     0
 90
        3
 71
     1
340
11
 62
   256
 40
5.0
340
0
 62
   256
 40
5.0
300

 40
0.0
280
     1
 71
     2
340
16
 90
       25
 62
   256
 71
     3
340
11
 62
   256
 40
5.0
 90
        0
 40
15.0
 90
        1
300
%<\AcVar ViewDetailId>% (%<\AcVar ViewScale \f "%sn">%)
 71
     4
340
16
 90
       25
 62
   256
340
16
 90
       25
 62
   256
280
     0
  0
LAYOUT
  5
1E
102
{ACAD_REACTORS
330
1A
102
}
330
1A
100
AcDbPlotSettings
  1

  2

  4

  6

 40
0.0
 41
0.0
 42
0.0
 43
0.0
 44
0.0
 45
0.0
 46
0.0
 47
0.0
 48
0.0
 49
0.0
140
0.0
141
0.0
142
1.0
143
1.0
 70
   688
 72
     0
 73
     0
 74
     5
  7

 75
    16
147
1.0
 76
     0
 77
     2
 78
   300
148
0.0
149
0.0
100
AcDbLayout
  1
Layout1
 70
     1
 71
     1
 10
-148.0
 20
-104.5
 11
149.0
 21
105.5
 12
0.0
 22
0.0
 32
0.0
 14
1.000000000000000E+20
 24
1.000000000000000E+20
 34
1.000000000000000E+20
 15
-1.000000000000000E+20
 25
-1.000000000000000E+20
 35
-1.000000000000000E+20
146
0.0
 13
0.0
 23
0.0
 33
0.0
 16
1.0
 26
0.0
 36
0.0
 17
0.0
 27
1.0
 37
0.0
 76
     0
330
1B
  0
LAYOUT
  5
26
102
{ACAD_REACTORS
330
1A
102
}
330
1A
100
AcDbPlotSettings
  1

  2

  4

  6

 40
0.0
 41
0.0
 42
0.0
 43
0.0
 44
0.0
 45
0.0
 46
0.0
 47
0.0
 48
0.0
 49
0.0
140
0.0
141
0.0
142
1.0
143
1.0
 70
   688
 72
     0
 73
     0
 74
     5
  7

 75
    16
147
1.0
 76
     0
 77
     2
 78
   300
148
0.0
149
0.0
100
AcDbLayout
  1
Layout2
 70
     1
 71
     2
 10
0.0
 20
0.0
 11
0.0
 21
0.0
 12
0.0
 22
0.0
 32
0.0
 14
0.0
 24
0.0
 34
0.0
 15
0.0
 25
0.0
 35
0.0
146
0.0
 13
0.0
 23
0.0
 33
0.0
 16
1.0
 26
0.0
 36
0.0
 17
0.0
 27
1.0
 37
0.0
 76
     0
330
23
  0
LAYOUT
  5
22
102
{ACAD_REACTORS
330
1A
102
}
330
1A
100
AcDbPlotSettings
  1

  2
Adobe PDF
  4
A4
  6

 40
3.174999952316282
 41
3.174999952316282
 42
3.175003051757812
 43
3.17498779296875
 44
209.9733276367186
 45
297.0318298339844
 46
7.051149022578584
 47
7.073861730090527
 48
0.0
 49
0.0
140
0.0
141
0.0
142
1.0
143
1.0
 70
 11956
 72
     1
 73
     1
 74
     1
  7
monochrome.ctb
 75
    16
147
1.0
 76
     0
 77
     2
 78
   300
148
138.0163109423782
149
94.50884959708066
100
AcDbLayout
  1
Model
 70
     1
 71
     0
 10
-148.0
 20
-104.5
 11
149.0
 21
105.5
 12
0.0
 22
0.0
 32
0.0
 14
-148.0
 24
-104.5
 34
0.0
 15
149.0
 25
105.5
 35
0.0
146
0.0
 13
0.0
 23
0.0
 33
0.0
 16
1.0
 26
0.0
 36
0.0
 17
0.0
 27
1.0
 37
0.0
 76
     0
330
1F
331
A4D
1001
ACAD_PSEXT
1000
Adobe PDF
1000
Adobe PDF Converter
1000
My Documents
1000

1070
     0
  0
MATERIAL
  5
A61
102
{ACAD_XDICTIONARY
360
A62
102
}
102
{ACAD_REACTORS
330
288
102
}
330
288
100
AcDbMaterial
  1
ByBlock
 72
     0
 43
0.0008202099737533
 43
0.0
 43
0.0
 43
0.0
 43
0.0
 43
0.0008202099737533
 43
0.0
 43
0.0
 43
0.0
 43
0.0
 43
1.0
 43
0.0
 43
0.0
 43
0.0
 43
0.0
 43
1.0
 77
     0
 47
0.0008202099737533
 47
0.0
 47
0.0
 47
0.0
 47
0.0
 47
0.0008202099737533
 47
0.0
 47
0.0
 47
0.0
 47
0.0
 47
1.0
 47
0.0
 47
0.0
 47
0.0
 47
0.0
 47
1.0
171
     0
 49
0.0008202099737533
 49
0.0
 49
0.0
 49
0.0
 49
0.0
 49
0.0008202099737533
 49
0.0
 49
0.0
 49
0.0
 49
0.0
 49
1.0
 49
0.0
 49
0.0
 49
0.0
 49
0.0
 49
1.0
175
     0
142
0.0008202099737533
142
0.0
142
0.0
142
0.0
142
0.0
142
0.0008202099737533
142
0.0
142
0.0
142
0.0
142
0.0
142
1.0
142
0.0
142
0.0
142
0.0
142
0.0
142
1.0
179
     0
144
0.0008202099737533
144
0.0
144
0.0
144
0.0
144
0.0
144
0.0008202099737533
144
0.0
144
0.0
144
0.0
144
0.0
144
1.0
144
0.0
144
0.0
144
0.0
144
0.0
144
1.0
147
0.0008202099737533
147
0.0
147
0.0
147
0.0
147
0.0
147
0.0008202099737533
147
0.0
147
0.0
147
0.0
147
0.0
147
1.0
147
0.0
147
0.0
147
0.0
147
0.0
147
1.0
  0
MATERIAL
  5
A59
102
{ACAD_XDICTIONARY
360
A5A
102
}
102
{ACAD_REACTORS
330
288
102
}
330
288
100
AcDbMaterial
  1
ByLayer
 72
     0
 43
0.0008202099737533
 43
0.0
 43
0.0
 43
0.0
 43
0.0
 43
0.0008202099737533
 43
0.0
 43
0.0
 43
0.0
 43
0.0
 43
1.0
 43
0.0
 43
0.0
 43
0.0
 43
0.0
 43
1.0
 77
     0
 47
0.0008202099737533
 47
0.0
 47
0.0
 47
0.0
 47
0.0
 47
0.0008202099737533
 47
0.0
 47
0.0
 47
0.0
 47
0.0
 47
1.0
 47
0.0
 47
0.0
 47
0.0
 47
0.0
 47
1.0
171
     0
 49
0.0008202099737533
 49
0.0
 49
0.0
 49
0.0
 49
0.0
 49
0.0008202099737533
 49
0.0
 49
0.0
 49
0.0
 49
0.0
 49
1.0
 49
0.0
 49
0.0
 49
0.0
 49
0.0
 49
1.0
175
     0
142
0.0008202099737533
142
0.0
142
0.0
142
0.0
142
0.0
142
0.0008202099737533
142
0.0
142
0.0
142
0.0
142
0.0
142
1.0
142
0.0
142
0.0
142
0.0
142
0.0
142
1.0
179
     0
144
0.0008202099737533
144
0.0
144
0.0
144
0.0
144
0.0
144
0.0008202099737533
144
0.0
144
0.0
144
0.0
144
0.0
144
1.0
144
0.0
144
0.0
144
0.0
144
0.0
144
1.0
147
0.0008202099737533
147
0.0
147
0.0
147
0.0
147
0.0
147
0.0008202099737533
147
0.0
147
0.0
147
0.0
147
0.0
147
1.0
147
0.0
147
0.0
147
0.0
147
0.0
147
1.0
  0
MATERIAL
  5
A69
102
{ACAD_XDICTIONARY
360
A6A
102
}
102
{ACAD_REACTORS
330
288
102
}
330
288
100
AcDbMaterial
  1
Global
 72
     0
 43
0.0008202099737533
 43
0.0
 43
0.0
 43
0.0
 43
0.0
 43
0.0008202099737533
 43
0.0
 43
0.0
 43
0.0
 43
0.0
 43
1.0
 43
0.0
 43
0.0
 43
0.0
 43
0.0
 43
1.0
 77
     0
 47
0.0008202099737533
 47
0.0
 47
0.0
 47
0.0
 47
0.0
 47
0.0008202099737533
 47
0.0
 47
0.0
 47
0.0
 47
0.0
 47
1.0
 47
0.0
 47
0.0
 47
0.0
 47
0.0
 47
1.0
171
     0
 49
0.0008202099737533
 49
0.0
 49
0.0
 49
0.0
 49
0.0
 49
0.0008202099737533
 49
0.0
 49
0.0
 49
0.0
 49
0.0
 49
1.0
 49
0.0
 49
0.0
 49
0.0
 49
0.0
 49
1.0
175
     0
142
0.0008202099737533
142
0.0
142
0.0
142
0.0
142
0.0
142
0.0008202099737533
142
0.0
142
0.0
142
0.0
142
0.0
142
1.0
142
0.0
142
0.0
142
0.0
142
0.0
142
1.0
179
     0
144
0.0008202099737533
144
0.0
144
0.0
144
0.0
144
0.0
144
0.0008202099737533
144
0.0
144
0.0
144
0.0
144
0.0
144
1.0
144
0.0
144
0.0
144
0.0
144
0.0
144
1.0
147
0.0008202099737533
147
0.0
147
0.0
147
0.0
147
0.0
147
0.0008202099737533
147
0.0
147
0.0
147
0.0
147
0.0
147
1.0
147
0.0
147
0.0
147
0.0
147
0.0
147
1.0
  0
MLEADERSTYLE
  5
A9D
102
{ACAD_REACTORS
330
A9C
102
}
330
A9C
100
AcDbMLeaderStyle
170
     2
171
     1
172
     0
 90
        2
 40
0.0
 41
0.0
173
     1
 91
-1056964608
340
14
 92
       -2
290
     1
 42
2.0
291
     1
 43
0.36
  3
Standard
 44
4.0
300

342
11
174
     1
178
     6
175
     1
176
     0
 93
-1056964608
 45
4.0
292
     0
297
     0
 46
4.0
 94
-1056964608
 47
1.0
 49
1.0
140
1.0
293
     1
141
0.0
294
     1
177
     0
142
1.0
295
     0
296
     0
143
0.125
1001
ACAD_MLEADERVER
1070
     2
  0
MLINESTYLE
  5
18
102
{ACAD_REACTORS
330
17
102
}
330
17
100
AcDbMlineStyle
  2
STANDARD
 70
     0
  3

 62
   256
 51
90.0
 52
90.0
 71
     2
 49
0.5
 62
   256
  6
BYLAYER
 49
-0.5
 62
   256
  6
BYLAYER
  0
PLOTSETTINGS
  5
9F2
102
{ACAD_REACTORS
330
19
102
}
330
19
100
AcDbPlotSettings
  1
111
  2
RICOH IPSiO NX860e RPCS
  4
A4
  6

 40
5.873749732971191
 41
5.873747825622557
 42
5.873748779296875
 43
5.873748779296875
 44
209.9733276367186
 45
296.9259948730469
 46
1.382206344234629
 47
0.0
 48
0.0
 49
0.0
140
0.0
141
0.0
142
1.0
143
0.9696379639765943
 70
 11956
 72
     1
 73
     1
 74
     1
  7
monochrome.ctb
 75
     0
147
1.031312755019289
 76
     0
 77
     2
 78
   300
148
138.016006241122
149
94.51495291709916
1001
ACAD_PSEXT
1000
RICOH IPSiO NX860e RPCS
1000
RICOH IPSiO NX860e RPCS
1000
IP_192.168.110.192
1000
RPCS Driver (Windows 2000/XP/Server 2003/Vista)
1070
     0
  0
PLOTSETTINGS
  5
B90
102
{ACAD_REACTORS
330
19
102
}
330
19
100
AcDbPlotSettings
  1
セットアップ1
  2
DWG To PDF.pc3
  4
ISO_expand_A4_(297.00_x_210.00_MM)
  6

 40
5.793749809265136
 41
10.79374980926513
 42
5.79376220703125
 43
10.79374694824219
 44
297.0
 45
210.0
 46
5.249628829452802
 47
0.0
 48
-138.0
 49
-94.50000000000001
140
138.5
141
95.0
142
1.0
143
1.005771892728943
 70
 11956
 72
     1
 73
     0
 74
     4
  7
monochrome.ctb
 75
     0
147
0.9942612308310959
 76
     0
 77
     2
 78
   300
148
138.0
149
94.50000000000001
1001
ACAD_PSEXT
1000
DWG To PDF.pc3
1000
DWG To PDF
1000
ファイル
1000

1070
     0
  0
ACDBPLACEHOLDER
  5
F
102
{ACAD_REACTORS
330
E
102
}
330
E
  0
SCALE
  5
A8B
102
{ACAD_REACTORS
330
A8A
102
}
330
A8A
100
AcDbScale
 70
     0
300
1:1
140
1.0
141
1.0
290
     1
  0
SCALE
  5
A8C
102
{ACAD_REACTORS
330
A8A
102
}
330
A8A
100
AcDbScale
 70
     0
300
1:2
140
1.0
141
2.0
290
     0
  0
SCALE
  5
A8D
102
{ACAD_REACTORS
330
A8A
102
}
330
A8A
100
AcDbScale
 70
     0
300
1:4
140
1.0
141
4.0
290
     0
  0
SCALE
  5
A8E
102
{ACAD_REACTORS
330
A8A
102
}
330
A8A
100
AcDbScale
 70
     0
300
1:5
140
1.0
141
5.0
290
     0
  0
SCALE
  5
A8F
102
{ACAD_REACTORS
330
A8A
102
}
330
A8A
100
AcDbScale
 70
     0
300
1:8
140
1.0
141
8.0
290
     0
  0
SCALE
  5
A90
102
{ACAD_REACTORS
330
A8A
102
}
330
A8A
100
AcDbScale
 70
     0
300
1:10
140
1.0
141
10.0
290
     0
  0
SCALE
  5
A91
102
{ACAD_REACTORS
330
A8A
102
}
330
A8A
100
AcDbScale
 70
     0
300
1:16
140
1.0
141
16.0
290
     0
  0
SCALE
  5
A92
102
{ACAD_REACTORS
330
A8A
102
}
330
A8A
100
AcDbScale
 70
     0
300
1:20
140
1.0
141
20.0
290
     0
  0
SCALE
  5
A93
102
{ACAD_REACTORS
330
A8A
102
}
330
A8A
100
AcDbScale
 70
     0
300
1:30
140
1.0
141
30.0
290
     0
  0
SCALE
  5
A94
102
{ACAD_REACTORS
330
A8A
102
}
330
A8A
100
AcDbScale
 70
     0
300
1:40
140
1.0
141
40.0
290
     0
  0
SCALE
  5
A95
102
{ACAD_REACTORS
330
A8A
102
}
330
A8A
100
AcDbScale
 70
     0
300
1:50
140
1.0
141
50.0
290
     0
  0
SCALE
  5
A96
102
{ACAD_REACTORS
330
A8A
102
}
330
A8A
100
AcDbScale
 70
     0
300
1:100
140
1.0
141
100.0
290
     0
  0
SCALE
  5
A97
102
{ACAD_REACTORS
330
A8A
102
}
330
A8A
100
AcDbScale
 70
     0
300
2:1
140
2.0
141
1.0
290
     0
  0
SCALE
  5
A98
102
{ACAD_REACTORS
330
A8A
102
}
330
A8A
100
AcDbScale
 70
     0
300
4:1
140
4.0
141
1.0
290
     0
  0
SCALE
  5
A99
102
{ACAD_REACTORS
330
A8A
102
}
330
A8A
100
AcDbScale
 70
     0
300
8:1
140
8.0
141
1.0
290
     0
  0
SCALE
  5
A9A
102
{ACAD_REACTORS
330
A8A
102
}
330
A8A
100
AcDbScale
 70
     0
300
10:1
140
10.0
141
1.0
290
     0
  0
SCALE
  5
A9B
102
{ACAD_REACTORS
330
A8A
102
}
330
A8A
100
AcDbScale
 70
     0
300
100:1
140
100.0
141
1.0
290
     0
  0
ACDBSECTIONVIEWSTYLE
  5
A9F
102
{ACAD_XDICTIONARY
360
BDE
102
}
102
{ACAD_REACTORS
330
A9E
102
}
330
A9E
100
AcDbModelDocViewStyle
 70
     0
  3
Metric50
290
     0
100
AcDbSectionViewStyle
 70
     0
 71
     0
 90
      102
 71
     1
340
11
 62
   256
 40
5.0
340
0
340
0
 62
   256
 40
5.0
300
I, O, Q, S, X, Z
 40
10.0
 90
        0
 40
2.5
 90
        0
 71
     2
340
16
 90
       25
 62
   256
340
16
 90
       50
 62
   256
 40
5.0
 40
2.5
 40
5.0
 71
     3
340
11
 62
   256
 40
5.0
 90
        0
 40
15.0
 90
        1
300
%<\AcVar ViewSectionStartId>%-%<\AcVar ViewSectionEndId>% (%<\AcVar ViewScale \f "%sn">%)
 71
     4
 62
   256
 62
   257
300
ANSI31
 40
1.0
 90
        0
290
     0
290
     0
 90
        6
 40
0.0
 40
1.570796326794896
 40
0.2617993877991494
 40
1.308996938995747
 40
-0.2617993877991494
 40
1.832595714594046
  0
TABLESTYLE
  5
28B
102
{ACAD_XDICTIONARY
360
B9A
102
}
102
{ACAD_REACTORS
330
28A
102
}
330
28A
100
AcDbTableStyle
  3
Standard
 70
     0
 71
     0
 40
1.5
 41
1.5
280
     0
281
     0
  7
Standard
140
4.5
170
     2
 62
     0
 63
     7
283
     0
274
    -2
284
     1
 64
     0
275
    -2
285
     1
 65
     0
276
    -2
286
     1
 66
     0
277
    -2
287
     1
 67
     0
278
    -2
288
     1
 68
     0
279
    -2
289
     1
 69
     0
  7
Standard
140
6.0
170
     5
 62
     0
 63
     7
283
     0
274
    -2
284
     1
 64
     0
275
    -2
285
     1
 65
     0
276
    -2
286
     1
 66
     0
277
    -2
287
     1
 67
     0
278
    -2
288
     1
 68
     0
279
    -2
289
     1
 69
     0
  7
Standard
140
4.5
170
     5
 62
     0
 63
     7
283
     0
274
    -2
284
     1
 64
     0
275
    -2
285
     1
 65
     0
276
    -2
286
     1
 66
     0
277
    -2
287
     1
 67
     0
278
    -2
288
     1
 68
     0
279
    -2
289
     1
 69
     0
  0
VISUALSTYLE
  5
A77
102
{ACAD_XDICTIONARY
360
BB7
102
}
102
{ACAD_REACTORS
330
A71
102
}
330
A71
100
AcDbVisualStyle
  2
2dWireframe
 70
     4
 71
     0
 72
     2
 73
     0
 90
        0
 40
-0.6
 41
-30.0
 62
     5
 63
     7
421
 16777215
 74
     1
 91
        4
 64
     7
 65
   257
 75
     1
175
     1
 42
1.0
 92
        0
 66
   257
 43
1.0
 76
     1
 77
     6
 78
     2
 67
     7
 79
     5
170
     0
171
     0
290
     0
174
     0
 93
        1
 44
0.0
173
     0
291
     0
 45
0.0
1001
ACAD
1000
AcDbSavedByObjectVersion
1070
     0
  0
VISUALSTYLE
  5
A76
102
{ACAD_XDICTIONARY
360
BB5
102
}
102
{ACAD_REACTORS
330
A71
102
}
330
A71
100
AcDbVisualStyle
  2
Basic
 70
     7
 71
     1
 72
     0
 73
     1
 90
        0
 40
-0.6
 41
-30.0
 62
     5
 63
     7
421
 16777215
 74
     0
 91
        4
 64
     7
 65
   257
 75
     1
175
     1
 42
1.0
 92
        8
 66
     7
 43
1.0
 76
     1
 77
     6
 78
     2
 67
     7
 79
     5
170
     0
171
     0
290
     0
174
     0
 93
        1
 44
0.0
173
     0
291
     1
 45
0.0
1001
ACAD
1000
AcDbSavedByObjectVersion
1070
     0
  0
VISUALSTYLE
  5
A7D
102
{ACAD_XDICTIONARY
360
BC3
102
}
102
{ACAD_REACTORS
330
A71
102
}
330
A71
100
AcDbVisualStyle
  2
Brighten
 70
    12
 71
     2
 72
     2
 73
     0
 90
        0
 40
-0.6
 41
-30.0
 62
     5
 63
     7
421
 16777215
 74
     1
 91
        4
 64
     7
 65
   257
 75
     1
175
     1
 42
1.0
 92
        8
 66
     7
 43
1.0
 76
     1
 77
     6
 78
     2
 67
     7
 79
     5
170
     0
171
     0
290
     0
174
     0
 93
        1
 44
50.0
173
     0
291
     1
 45
0.0
1001
ACAD
1000
AcDbSavedByObjectVersion
1070
     0
  0
VISUALSTYLE
  5
A81
102
{ACAD_XDICTIONARY
360
BCB
102
}
102
{ACAD_REACTORS
330
A71
102
}
330
A71
100
AcDbVisualStyle
  2
ColorChange
 70
    16
 71
     2
 72
     2
 73
     3
 90
        0
 40
-0.6
 41
-30.0
 62
     5
 63
     8
421
  8421504
 74
     1
 91
        4
 64
     7
 65
   257
 75
     1
175
     1
 42
1.0
 92
        8
 66
     8
424
  8421504
 43
1.0
 76
     1
 77
     6
 78
     2
 67
     7
 79
     5
170
     0
171
     0
290
     0
174
     0
 93
        1
 44
0.0
173
     0
291
     1
 45
0.0
1001
ACAD
1000
AcDbSavedByObjectVersion
1070
     0
  0
VISUALSTYLE
  5
A7A
102
{ACAD_XDICTIONARY
360
BBD
102
}
102
{ACAD_REACTORS
330
A71
102
}
330
A71
100
AcDbVisualStyle
  2
Conceptual
 70
     9
 71
     3
 72
     2
 73
     0
 90
        0
 40
-0.6
 41
-30.0
 62
     5
 63
     7
421
 16777215
 74
     2
 91
        2
 64
     7
 65
   257
 75
     1
175
     1
 42
179.0
 92
        8
 66
     7
 43
1.0
 76
     1
 77
     6
 78
     2
 67
     7
 79
     3
170
     0
171
     0
290
     0
174
     0
 93
        1
 44
0.0
173
     0
291
     0
 45
0.0
1001
ACAD
1000
AcDbSavedByObjectVersion
1070
     0
  0
VISUALSTYLE
  5
A7C
102
{ACAD_XDICTIONARY
360
BC1
102
}
102
{ACAD_REACTORS
330
A71
102
}
330
A71
100
AcDbVisualStyle
  2
Dim
 70
    11
 71
     2
 72
     2
 73
     0
 90
        0
 40
-0.6
 41
-30.0
 62
     5
 63
     7
421
 16777215
 74
     1
 91
        4
 64
     7
 65
   257
 75
     1
175
     1
 42
1.0
 92
        8
 66
     7
 43
1.0
 76
     1
 77
     6
 78
     2
 67
     7
 79
     5
170
     0
171
     0
290
     0
174
     0
 93
        1
 44
-50.0
173
     0
291
     1
 45
0.0
1001
ACAD
1000
AcDbSavedByObjectVersion
1070
     0
  0
VISUALSTYLE
  5
A89
102
{ACAD_XDICTIONARY
360
BDB
102
}
102
{ACAD_REACTORS
330
A71
102
}
330
A71
100
AcDbVisualStyle
  2
EdgeColorOff
 70
    22
 71
     2
 72
     2
 73
     0
 90
        0
 40
-0.6
 41
-30.0
 62
     5
 63
     7
421
 16777215
 74
     1
 91
        4
 64
     7
 65
   257
 75
     1
175
     1
 42
1.0
 92
        8
 66
     7
 43
1.0
 76
     1
 77
     6
 78
     2
 67
     7
 79
     5
170
     0
171
     0
290
     0
174
     0
 93
        1
 44
0.0
173
     0
291
     1
 45
0.0
1001
ACAD
1000
AcDbSavedByObjectVersion
1070
     0
  0
VISUALSTYLE
  5
A80
102
{ACAD_XDICTIONARY
360
BC9
102
}
102
{ACAD_REACTORS
330
A71
102
}
330
A71
100
AcDbVisualStyle
  2
Facepattern
 70
    15
 71
     2
 72
     2
 73
     0
 90
        0
 40
-0.6
 41
-30.0
 62
     5
 63
     7
421
 16777215
 74
     1
 91
        4
 64
     7
 65
   257
 75
     1
175
     1
 42
1.0
 92
        8
 66
     7
 43
1.0
 76
     1
 77
     6
 78
     2
 67
     7
 79
     5
170
     0
171
     0
290
     0
174
     0
 93
        1
 44
0.0
173
     0
291
     1
 45
0.0
1001
ACAD
1000
AcDbSavedByObjectVersion
1070
     0
  0
VISUALSTYLE
  5
A72
102
{ACAD_XDICTIONARY
360
BAD
102
}
102
{ACAD_REACTORS
330
A71
102
}
330
A71
100
AcDbVisualStyle
  2
Flat
 70
     0
 71
     2
 72
     1
 73
     1
 90
        2
 40
-0.6
 41
30.0
 62
     5
 63
     7
421
 16777215
 74
     0
 91
        0
 64
     7
 65
   257
 75
     1
175
     1
 42
1.0
 92
        8
 66
     7
 43
1.0
 76
     1
 77
     6
 78
     2
 67
     7
 79
     5
170
     0
171
     0
290
     0
174
     0
 93
       13
 44
0.0
173
     0
291
     1
 45
0.0
1001
ACAD
1000
AcDbSavedByObjectVersion
1070
     0
  0
VISUALSTYLE
  5
A73
102
{ACAD_XDICTIONARY
360
BAF
102
}
102
{ACAD_REACTORS
330
A71
102
}
330
A71
100
AcDbVisualStyle
  2
FlatWithEdges
 70
     1
 71
     2
 72
     1
 73
     1
 90
        2
 40
-0.6
 41
30.0
 62
     5
 63
     7
421
 16777215
 74
     1
 91
        0
 64
     7
 65
   257
 75
     1
175
     1
 42
1.0
 92
        0
 66
   257
 43
1.0
 76
     1
 77
     6
 78
     2
 67
     7
 79
     5
170
     0
171
     0
290
     0
174
     0
 93
       13
 44
0.0
173
     0
291
     1
 45
0.0
1001
ACAD
1000
AcDbSavedByObjectVersion
1070
     0
  0
VISUALSTYLE
  5
A74
102
{ACAD_XDICTIONARY
360
BB1
102
}
102
{ACAD_REACTORS
330
A71
102
}
330
A71
100
AcDbVisualStyle
  2
Gouraud
 70
     2
 71
     2
 72
     2
 73
     1
 90
        2
 40
-0.6
 41
30.0
 62
     5
 63
     7
421
 16777215
 74
     0
 91
        0
 64
     7
 65
   257
 75
     1
175
     1
 42
1.0
 92
        0
 66
     7
 43
1.0
 76
     1
 77
     6
 78
     2
 67
     7
 79
     5
170
     0
171
     0
290
     0
174
     0
 93
       13
 44
0.0
173
     0
291
     1
 45
0.0
1001
ACAD
1000
AcDbSavedByObjectVersion
1070
     0
  0
VISUALSTYLE
  5
A75
102
{ACAD_XDICTIONARY
360
BB3
102
}
102
{ACAD_REACTORS
330
A71
102
}
330
A71
100
AcDbVisualStyle
  2
GouraudWithEdges
 70
     3
 71
     2
 72
     2
 73
     1
 90
        2
 40
-0.6
 41
30.0
 62
     5
 63
     7
421
 16777215
 74
     1
 91
        0
 64
     7
 65
   257
 75
     1
175
     1
 42
1.0
 92
        0
 66
   257
 43
1.0
 76
     1
 77
     6
 78
     2
 67
     7
 79
     5
170
     0
171
     0
290
     0
174
     0
 93
       13
 44
0.0
173
     0
291
     1
 45
0.0
1001
ACAD
1000
AcDbSavedByObjectVersion
1070
     0
  0
VISUALSTYLE
  5
A79
102
{ACAD_XDICTIONARY
360
BBB
102
}
102
{ACAD_REACTORS
330
A71
102
}
330
A71
100
AcDbVisualStyle
  2
Hidden
 70
     6
 71
     1
 72
     2
 73
     2
 90
        0
 40
-0.6
 41
-30.0
 62
     5
 63
     7
421
 16777215
 74
     2
 91
        2
 64
     7
 65
   257
 75
     2
175
     1
 42
40.0
 92
        0
 66
   257
 43
1.0
 76
     1
 77
     6
 78
     2
 67
     7
 79
     3
170
     0
171
     0
290
     0
174
     0
 93
        1
 44
0.0
173
     0
291
     0
 45
0.0
1001
ACAD
1000
AcDbSavedByObjectVersion
1070
     0
  0
VISUALSTYLE
  5
A87
102
{ACAD_XDICTIONARY
360
BD7
102
}
102
{ACAD_REACTORS
330
A71
102
}
330
A71
100
AcDbVisualStyle
  2
JitterOff
 70
    20
 71
     2
 72
     2
 73
     0
 90
        0
 40
-0.6
 41
-30.0
 62
     5
 63
     7
421
 16777215
 74
     1
 91
        4
 64
     7
 65
   257
 75
     1
175
     1
 42
1.0
 92
       10
 66
     7
 43
1.0
 76
     1
 77
     6
 78
     2
 67
     7
 79
     5
170
     0
171
     0
290
     0
174
     0
 93
        1
 44
0.0
173
     0
291
     1
 45
0.0
1001
ACAD
1000
AcDbSavedByObjectVersion
1070
     0
  0
VISUALSTYLE
  5
A7F
102
{ACAD_XDICTIONARY
360
BC7
102
}
102
{ACAD_REACTORS
330
A71
102
}
330
A71
100
AcDbVisualStyle
  2
Linepattern
 70
    14
 71
     2
 72
     2
 73
     0
 90
        0
 40
-0.6
 41
-30.0
 62
     5
 63
     7
421
 16777215
 74
     1
 91
        4
 64
     7
 65
   257
 75
     7
175
     7
 42
1.0
 92
        8
 66
     7
 43
1.0
 76
     1
 77
     6
 78
     2
 67
     7
 79
     5
170
     0
171
     0
290
     0
174
     0
 93
        1
 44
0.0
173
     0
291
     1
 45
0.0
1001
ACAD
1000
AcDbSavedByObjectVersion
1070
     0
  0
VISUALSTYLE
  5
A88
102
{ACAD_XDICTIONARY
360
BD9
102
}
102
{ACAD_REACTORS
330
A71
102
}
330
A71
100
AcDbVisualStyle
  2
OverhangOff
 70
    21
 71
     2
 72
     2
 73
     0
 90
        0
 40
-0.6
 41
-30.0
 62
     5
 63
     7
421
 16777215
 74
     1
 91
        4
 64
     7
 65
   257
 75
     1
175
     1
 42
1.0
 92
        9
 66
     7
 43
1.0
 76
     1
 77
     6
 78
     2
 67
     7
 79
     5
170
     0
171
     0
290
     0
174
     0
 93
        1
 44
0.0
173
     0
291
     1
 45
0.0
1001
ACAD
1000
AcDbSavedByObjectVersion
1070
     0
  0
VISUALSTYLE
  5
A7B
102
{ACAD_XDICTIONARY
360
BBF
102
}
102
{ACAD_REACTORS
330
A71
102
}
330
A71
100
AcDbVisualStyle
  2
Realistic
 70
     8
 71
     2
 72
     3
 73
     0
 90
        2
 40
-0.6
 41
30.0
 62
     5
 63
     7
421
 16777215
 74
     0
 91
        0
 64
     7
 65
   257
 75
     1
175
     1
 42
1.0
 92
        8
 66
   257
 43
1.0
 76
     1
 77
     6
 78
     2
 67
     7
 79
     3
170
     0
171
     0
290
     0
174
     0
 93
       13
 44
0.0
173
     0
291
     0
 45
0.0
1001
ACAD
1000
AcDbSavedByObjectVersion
1070
     0
  0
VISUALSTYLE
  5
A86
102
{ACAD_XDICTIONARY
360
BD5
102
}
102
{ACAD_REACTORS
330
A71
102
}
330
A71
100
AcDbVisualStyle
  2
Shaded
 70
    27
 71
     2
 72
     2
 73
     1
 90
        2
 40
-0.6
 41
30.0
 62
     5
 63
     7
421
 16777215
 74
     0
 91
        4
 64
     7
 65
   257
 75
     1
175
     1
 42
1.0
 92
        8
 66
   257
 43
1.0
 76
     1
 77
     6
 78
     2
 67
     8
425
  7895160
 79
     3
170
     0
171
     0
290
     0
174
     0
 93
        5
 44
0.0
173
     0
291
     0
 45
0.0
1001
ACAD
1000
AcDbSavedByObjectVersion
1070
     0
  0
VISUALSTYLE
  5
A85
102
{ACAD_XDICTIONARY
360
BD3
102
}
102
{ACAD_REACTORS
330
A71
102
}
330
A71
100
AcDbVisualStyle
  2
Shaded with edges
 70
    26
 71
     2
 72
     2
 73
     1
 90
        2
 40
-0.6
 41
30.0
 62
     5
 63
     7
421
 16777215
 74
     1
 91
       10
 64
     7
 65
   257
 75
     2
175
     1
 42
1.0
 92
        8
 66
   257
 43
1.0
 76
     1
 77
     6
 78
     2
 67
     7
 79
     3
170
     0
171
     0
290
     0
174
     0
 93
        5
 44
0.0
173
     0
291
     0
 45
0.0
1001
ACAD
1000
AcDbSavedByObjectVersion
1070
     0
  0
VISUALSTYLE
  5
A82
102
{ACAD_XDICTIONARY
360
BCD
102
}
102
{ACAD_REACTORS
330
A71
102
}
330
A71
100
AcDbVisualStyle
  2
Shades of Gray
 70
    23
 71
     2
 72
     2
 73
     3
 90
        0
 40
-0.6
 41
-30.0
 62
     5
 63
     7
421
 16777215
 74
     2
 91
        2
 64
     7
 65
     7
 75
     1
175
     1
 42
40.0
 92
        8
 66
     7
 43
1.0
 76
     1
 77
     6
 78
     2
 67
     7
 79
     3
170
     0
171
     0
290
     0
174
     0
 93
        1
 44
0.0
173
     0
291
     0
 45
0.0
1001
ACAD
1000
AcDbSavedByObjectVersion
1070
     0
  0
VISUALSTYLE
  5
A83
102
{ACAD_XDICTIONARY
360
BCF
102
}
102
{ACAD_REACTORS
330
A71
102
}
330
A71
100
AcDbVisualStyle
  2
Sketchy
 70
    24
 71
     1
 72
     2
 73
     2
 90
        0
 40
-0.6
 41
-30.0
 62
     5
 63
     7
421
 16777215
 74
     2
 91
        2
 64
     7
 65
     7
 75
     1
175
     1
 42
40.0
 92
       11
 66
     7
 43
1.0
 76
     1
 77
     6
 78
     2
 67
     7
 79
     6
170
     0
171
     0
290
     0
174
     0
 93
        1
 44
0.0
173
     0
291
     0
 45
0.0
1001
ACAD
1000
AcDbSavedByObjectVersion
1070
     0
  0
VISUALSTYLE
  5
A7E
102
{ACAD_XDICTIONARY
360
BC5
102
}
102
{ACAD_REACTORS
330
A71
102
}
330
A71
100
AcDbVisualStyle
  2
Thicken
 70
    13
 71
     2
 72
     2
 73
     0
 90
        0
 40
-0.6
 41
-30.0
 62
     5
 63
     7
421
 16777215
 74
     1
 91
        4
 64
     7
 65
   257
 75
     1
175
     1
 42
1.0
 92
       12
 66
     7
 43
1.0
 76
     1
 77
     6
 78
     2
 67
     7
 79
     5
170
     0
171
     0
290
     0
174
     0
 93
        1
 44
0.0
173
     0
291
     1
 45
0.0
1001
ACAD
1000
AcDbSavedByObjectVersion
1070
     0
  0
VISUALSTYLE
  5
A78
102
{ACAD_XDICTIONARY
360
BB9
102
}
102
{ACAD_REACTORS
330
A71
102
}
330
A71
100
AcDbVisualStyle
  2
Wireframe
 70
     5
 71
     0
 72
     2
 73
     0
 90
        0
 40
-0.6
 41
-30.0
 62
     5
 63
     7
421
 16777215
 74
     1
 91
        4
 64
     7
 65
   257
 75
     1
175
     1
 42
1.0
 92
        0
 66
   257
 43
1.0
 76
     1
 77
     6
 78
     2
 67
     7
 79
     3
170
     0
171
     0
290
     0
174
     0
 93
        1
 44
0.0
173
     0
291
     0
 45
0.0
1001
ACAD
1000
AcDbSavedByObjectVersion
1070
     0
  0
VISUALSTYLE
  5
A84
102
{ACAD_XDICTIONARY
360
BD1
102
}
102
{ACAD_REACTORS
330
A71
102
}
330
A71
100
AcDbVisualStyle
  2
X-Ray
 70
    25
 71
     2
 72
     2
 73
     1
 90
        1
 40
0.5
 41
-30.0
 62
     5
 63
     7
421
 16777215
 74
     1
 91
        0
 64
     7
 65
   257
 75
     1
175
     1
 42
1.0
 92
        8
 66
     7
 43
1.0
 76
     1
 77
     6
 78
     2
 67
     7
 79
     3
170
     0
171
     0
290
     0
174
     0
 93
       13
 44
0.0
173
     0
291
     0
 45
0.0
1001
ACAD
1000
AcDbSavedByObjectVersion
1070
     0
  0
DICTIONARYVAR
  5
AF9
102
{ACAD_REACTORS
330
2F9
102
}
330
2F9
100
DictionaryVariables
280
     0
  1
1:1
  0
DICTIONARYVAR
  5
AF5
102
{ACAD_REACTORS
330
2F9
102
}
330
2F9
100
DictionaryVariables
280
     0
  1
STANDARD
  0
DICTIONARYVAR
  5
2FA
102
{ACAD_REACTORS
330
2F9
102
}
330
2F9
100
DictionaryVariables
280
     0
  1
STANDARD
  0
DICTIONARYVAR
  5
AF6
102
{ACAD_REACTORS
330
2F9
102
}
330
2F9
100
DictionaryVariables
280
     0
  1
Metric50
  0
DICTIONARYVAR
  5
AF7
102
{ACAD_REACTORS
330
2F9
102
}
330
2F9
100
DictionaryVariables
280
     0
  1
Metric50
  0
DICTIONARYVAR
  5
2FB
102
{ACAD_REACTORS
330
2F9
102
}
330
2F9
100
DictionaryVariables
280
     0
  1
1
  0
DICTIONARYVAR
  5
AFB
102
{ACAD_REACTORS
330
2F9
102
}
330
2F9
100
DictionaryVariables
280
     0
  1
1
  0
DICTIONARYVAR
  5
AFC
102
{ACAD_REACTORS
330
2F9
102
}
330
2F9
100
DictionaryVariables
280
     0
  1
15
  0
DICTIONARYVAR
  5
AFA
102
{ACAD_REACTORS
330
2F9
102
}
330
2F9
100
DictionaryVariables
280
     0
  1
0
  0
DICTIONARYVAR
  5
AF8
102
{ACAD_REACTORS
330
2F9
102
}
330
2F9
100
DictionaryVariables
280
     0
  1
0
  0
DICTIONARYVAR
  5
2FC
102
{ACAD_REACTORS
330
2F9
102
}
330
2F9
100
DictionaryVariables
280
     0
  1

  0
DICTIONARYVAR
  5
B99
102
{ACAD_REACTORS
330
2F9
102
}
330
2F9
100
DictionaryVariables
280
     0
  1
2
  0
DICTIONARY
  5
BE0
330
AA1
100
AcDbDictionary
280
     1
281
     1
  3
ACAD_XREC_ROUNDTRIP
360
BE1
  0
DICTIONARY
  5
A62
330
A61
100
AcDbDictionary
280
     1
281
     1
  3
ACAD_XREC_ROUNDTRIP
360
BAB
  3
BUMPTILE
360
A64
  3
DIFFUSETILE
360
A63
  3
OPACITYTILE
360
A67
  3
REFLECTIONTILE
360
A66
  3
REFRACTIONTILE
360
A68
  3
SPECULARTILE
360
A65
  0
DICTIONARY
  5
A5A
330
A59
100
AcDbDictionary
280
     1
281
     1
  3
ACAD_XREC_ROUNDTRIP
360
BAA
  3
BUMPTILE
360
A5C
  3
DIFFUSETILE
360
A5B
  3
OPACITYTILE
360
A5F
  3
REFLECTIONTILE
360
A5E
  3
REFRACTIONTILE
360
A60
  3
SPECULARTILE
360
A5D
  0
DICTIONARY
  5
A6A
330
A69
100
AcDbDictionary
280
     1
281
     1
  3
ACAD_XREC_ROUNDTRIP
360
BAC
  3
BUMPTILE
360
A6C
  3
DIFFUSETILE
360
A6B
  3
OPACITYTILE
360
A6F
  3
REFLECTIONTILE
360
A6E
  3
REFRACTIONTILE
360
A70
  3
SPECULARTILE
360
A6D
  0
DICTIONARY
  5
BDE
330
A9F
100
AcDbDictionary
280
     1
281
     1
  3
ACAD_XREC_ROUNDTRIP
360
BDF
  0
DICTIONARY
  5
B9A
330
28B
100
AcDbDictionary
280
     1
281
     1
  3
ACAD_ROUNDTRIP_2008_TABLESTYLE_CELLSTYLEMAP
360
B9B
  3
ACAD_XREC_ROUNDTRIP
360
BA1
  0
DICTIONARY
  5
BB7
330
A77
100
AcDbDictionary
280
     1
281
     1
  3
ACAD_XREC_ROUNDTRIP
360
BB8
  0
DICTIONARY
  5
BB5
330
A76
100
AcDbDictionary
280
     1
281
     1
  3
ACAD_XREC_ROUNDTRIP
360
BB6
  0
DICTIONARY
  5
BC3
330
A7D
100
AcDbDictionary
280
     1
281
     1
  3
ACAD_XREC_ROUNDTRIP
360
BC4
  0
DICTIONARY
  5
BCB
330
A81
100
AcDbDictionary
280
     1
281
     1
  3
ACAD_XREC_ROUNDTRIP
360
BCC
  0
DICTIONARY
  5
BBD
330
A7A
100
AcDbDictionary
280
     1
281
     1
  3
ACAD_XREC_ROUNDTRIP
360
BBE
  0
DICTIONARY
  5
BC1
330
A7C
100
AcDbDictionary
280
     1
281
     1
  3
ACAD_XREC_ROUNDTRIP
360
BC2
  0
DICTIONARY
  5
BDB
330
A89
100
AcDbDictionary
280
     1
281
     1
  3
ACAD_XREC_ROUNDTRIP
360
BDC
  0
DICTIONARY
  5
BC9
330
A80
100
AcDbDictionary
280
     1
281
     1
  3
ACAD_XREC_ROUNDTRIP
360
BCA
  0
DICTIONARY
  5
BAD
330
A72
100
AcDbDictionary
280
     1
281
     1
  3
ACAD_XREC_ROUNDTRIP
360
BAE
  0
DICTIONARY
  5
BAF
330
A73
100
AcDbDictionary
280
     1
281
     1
  3
ACAD_XREC_ROUNDTRIP
360
BB0
  0
DICTIONARY
  5
BB1
330
A74
100
AcDbDictionary
280
     1
281
     1
  3
ACAD_XREC_ROUNDTRIP
360
BB2
  0
DICTIONARY
  5
BB3
330
A75
100
AcDbDictionary
280
     1
281
     1
  3
ACAD_XREC_ROUNDTRIP
360
BB4
  0
DICTIONARY
  5
BBB
330
A79
100
AcDbDictionary
280
     1
281
     1
  3
ACAD_XREC_ROUNDTRIP
360
BBC
  0
DICTIONARY
  5
BD7
330
A87
100
AcDbDictionary
280
     1
281
     1
  3
ACAD_XREC_ROUNDTRIP
360
BD8
  0
DICTIONARY
  5
BC7
330
A7F
100
AcDbDictionary
280
     1
281
     1
  3
ACAD_XREC_ROUNDTRIP
360
BC8
  0
DICTIONARY
  5
BD9
330
A88
100
AcDbDictionary
280
     1
281
     1
  3
ACAD_XREC_ROUNDTRIP
360
BDA
  0
DICTIONARY
  5
BBF
330
A7B
100
AcDbDictionary
280
     1
281
     1
  3
ACAD_XREC_ROUNDTRIP
360
BC0
  0
DICTIONARY
  5
BD5
330
A86
100
AcDbDictionary
280
     1
281
     1
  3
ACAD_XREC_ROUNDTRIP
360
BD6
  0
DICTIONARY
  5
BD3
330
A85
100
AcDbDictionary
280
     1
281
     1
  3
ACAD_XREC_ROUNDTRIP
360
BD4
  0
DICTIONARY
  5
BCD
330
A82
100
AcDbDictionary
280
     1
281
     1
  3
ACAD_XREC_ROUNDTRIP
360
BCE
  0
DICTIONARY
  5
BCF
330
A83
100
AcDbDictionary
280
     1
281
     1
  3
ACAD_XREC_ROUNDTRIP
360
BD0
  0
DICTIONARY
  5
BC5
330
A7E
100
AcDbDictionary
280
     1
281
     1
  3
ACAD_XREC_ROUNDTRIP
360
BC6
  0
DICTIONARY
  5
BB9
330
A78
100
AcDbDictionary
280
     1
281
     1
  3
ACAD_XREC_ROUNDTRIP
360
BBA
  0
DICTIONARY
  5
BD1
330
A84
100
AcDbDictionary
280
     1
281
     1
  3
ACAD_XREC_ROUNDTRIP
360
BD2
  0
XRECORD
  5
BE1
102
{ACAD_REACTORS
330
BE0
102
}
330
BE0
100
AcDbXrecord
280
     1
102
DISPLAYNAME
  1
Metric50
102
FLAGS
 90
        0
  0
XRECORD
  5
BAB
102
{ACAD_REACTORS
330
A62
102
}
330
A62
100
AcDbXrecord
280
     1
102
MATERIAL
148
0.0
149
0.0
149
0.0
 93
        0
 94
      127
282
     0
 72
     0
 77
     0
171
     0
175
     0
179
     0
273
     0
  0
XRECORD
  5
A64
102
{ACAD_REACTORS
330
A62
102
}
330
A62
100
AcDbXrecord
280
     1
270
     1
271
     1
  0
XRECORD
  5
A63
102
{ACAD_REACTORS
330
A62
102
}
330
A62
100
AcDbXrecord
280
     1
270
     1
271
     1
  0
XRECORD
  5
A67
102
{ACAD_REACTORS
330
A62
102
}
330
A62
100
AcDbXrecord
280
     1
270
     1
271
     1
  0
XRECORD
  5
A66
102
{ACAD_REACTORS
330
A62
102
}
330
A62
100
AcDbXrecord
280
     1
270
     1
271
     1
  0
XRECORD
  5
A68
102
{ACAD_REACTORS
330
A62
102
}
330
A62
100
AcDbXrecord
280
     1
270
     1
271
     1
  0
XRECORD
  5
A65
102
{ACAD_REACTORS
330
A62
102
}
330
A62
100
AcDbXrecord
280
     1
270
     1
271
     1
  0
XRECORD
  5
BAA
102
{ACAD_REACTORS
330
A5A
102
}
330
A5A
100
AcDbXrecord
280
     1
102
MATERIAL
148
0.0
149
0.0
149
0.0
 93
        0
 94
      127
282
     0
 72
     0
 77
     0
171
     0
175
     0
179
     0
273
     0
  0
XRECORD
  5
A5C
102
{ACAD_REACTORS
330
A5A
102
}
330
A5A
100
AcDbXrecord
280
     1
270
     1
271
     1
  0
XRECORD
  5
A5B
102
{ACAD_REACTORS
330
A5A
102
}
330
A5A
100
AcDbXrecord
280
     1
270
     1
271
     1
  0
XRECORD
  5
A5F
102
{ACAD_REACTORS
330
A5A
102
}
330
A5A
100
AcDbXrecord
280
     1
270
     1
271
     1
  0
XRECORD
  5
A5E
102
{ACAD_REACTORS
330
A5A
102
}
330
A5A
100
AcDbXrecord
280
     1
270
     1
271
     1
  0
XRECORD
  5
A60
102
{ACAD_REACTORS
330
A5A
102
}
330
A5A
100
AcDbXrecord
280
     1
270
     1
271
     1
  0
XRECORD
  5
A5D
102
{ACAD_REACTORS
330
A5A
102
}
330
A5A
100
AcDbXrecord
280
     1
270
     1
271
     1
  0
XRECORD
  5
BAC
102
{ACAD_REACTORS
330
A6A
102
}
330
A6A
100
AcDbXrecord
280
     1
102
MATERIAL
148
0.0
149
0.0
149
0.0
 93
        0
 94
      127
282
     0
 72
     0
 77
     0
171
     0
175
     0
179
     0
273
     0
  0
XRECORD
  5
A6C
102
{ACAD_REACTORS
330
A6A
102
}
330
A6A
100
AcDbXrecord
280
     1
270
     1
271
     1
  0
XRECORD
  5
A6B
102
{ACAD_REACTORS
330
A6A
102
}
330
A6A
100
AcDbXrecord
280
     1
270
     1
271
     1
  0
XRECORD
  5
A6F
102
{ACAD_REACTORS
330
A6A
102
}
330
A6A
100
AcDbXrecord
280
     1
270
     1
271
     1
  0
XRECORD
  5
A6E
102
{ACAD_REACTORS
330
A6A
102
}
330
A6A
100
AcDbXrecord
280
     1
270
     1
271
     1
  0
XRECORD
  5
A70
102
{ACAD_REACTORS
330
A6A
102
}
330
A6A
100
AcDbXrecord
280
     1
270
     1
271
     1
  0
XRECORD
  5
A6D
102
{ACAD_REACTORS
330
A6A
102
}
330
A6A
100
AcDbXrecord
280
     1
270
     1
271
     1
  0
XRECORD
  5
BDF
102
{ACAD_REACTORS
330
BDE
102
}
330
BDE
100
AcDbXrecord
280
     1
102
DISPLAYNAME
  1
Metric50
102
FLAGS
 90
        0
  0
CELLSTYLEMAP
  5
B9B
102
{ACAD_REACTORS
330
B9A
102
}
330
B9A
100
AcDbCellStyleMap
 90
        3
300
CELLSTYLE
  1
TABLEFORMAT_BEGIN
 90
        5
170
     1
 91
        0
 92
    32768
 62
   257
 93
        1
300
CONTENTFORMAT
  1
CONTENTFORMAT_BEGIN
 90
        0
 91
        0
 92
        4
 93
        0
300

 40
0.0
140
1.0
 94
        5
 62
     0
340
11
144
6.0
309
CONTENTFORMAT_END
171
     1
301
MARGIN
  1
CELLMARGIN_BEGIN
 40
1.5
 40
1.5
 40
1.5
 40
1.5
 40
0.18
 40
0.18
309
CELLMARGIN_END
 94
        6
 95
        1
302
GRIDFORMAT
  1
GRIDFORMAT_BEGIN
 90
        0
 91
        1
 62
     0
 92
       -2
340
0
 93
        0
 40
0.045
309
GRIDFORMAT_END
 95
        2
302
GRIDFORMAT
  1
GRIDFORMAT_BEGIN
 90
        0
 91
        1
 62
     0
 92
       -2
340
0
 93
        0
 40
0.045
309
GRIDFORMAT_END
 95
        4
302
GRIDFORMAT
  1
GRIDFORMAT_BEGIN
 90
        0
 91
        1
 62
     0
 92
       -2
340
0
 93
        0
 40
0.045
309
GRIDFORMAT_END
 95
        8
302
GRIDFORMAT
  1
GRIDFORMAT_BEGIN
 90
        0
 91
        1
 62
     0
 92
       -2
340
0
 93
        0
 40
0.045
309
GRIDFORMAT_END
 95
       16
302
GRIDFORMAT
  1
GRIDFORMAT_BEGIN
 90
        0
 91
        1
 62
     0
 92
       -2
340
0
 93
        0
 40
0.045
309
GRIDFORMAT_END
 95
       32
302
GRIDFORMAT
  1
GRIDFORMAT_BEGIN
 90
        0
 91
        1
 62
     0
 92
       -2
340
0
 93
        0
 40
0.045
309
GRIDFORMAT_END
309
TABLEFORMAT_END
  1
CELLSTYLE_BEGIN
 90
        1
 91
        1
300
_TITLE
309
CELLSTYLE_END
300
CELLSTYLE
  1
TABLEFORMAT_BEGIN
 90
        5
170
     1
 91
        0
 92
        0
 62
   257
 93
        1
300
CONTENTFORMAT
  1
CONTENTFORMAT_BEGIN
 90
        0
 91
        0
 92
        4
 93
        0
300

 40
0.0
140
1.0
 94
        5
 62
     0
340
11
144
4.5
309
CONTENTFORMAT_END
171
     1
301
MARGIN
  1
CELLMARGIN_BEGIN
 40
1.5
 40
1.5
 40
1.5
 40
1.5
 40
0.18
 40
0.18
309
CELLMARGIN_END
 94
        6
 95
        1
302
GRIDFORMAT
  1
GRIDFORMAT_BEGIN
 90
        0
 91
        1
 62
     0
 92
       -2
340
0
 93
        0
 40
0.045
309
GRIDFORMAT_END
 95
        2
302
GRIDFORMAT
  1
GRIDFORMAT_BEGIN
 90
        0
 91
        1
 62
     0
 92
       -2
340
0
 93
        0
 40
0.045
309
GRIDFORMAT_END
 95
        4
302
GRIDFORMAT
  1
GRIDFORMAT_BEGIN
 90
        0
 91
        1
 62
     0
 92
       -2
340
0
 93
        0
 40
0.045
309
GRIDFORMAT_END
 95
        8
302
GRIDFORMAT
  1
GRIDFORMAT_BEGIN
 90
        0
 91
        1
 62
     0
 92
       -2
340
0
 93
        0
 40
0.045
309
GRIDFORMAT_END
 95
       16
302
GRIDFORMAT
  1
GRIDFORMAT_BEGIN
 90
        0
 91
        1
 62
     0
 92
       -2
340
0
 93
        0
 40
0.045
309
GRIDFORMAT_END
 95
       32
302
GRIDFORMAT
  1
GRIDFORMAT_BEGIN
 90
        0
 91
        1
 62
     0
 92
       -2
340
0
 93
        0
 40
0.045
309
GRIDFORMAT_END
309
TABLEFORMAT_END
  1
CELLSTYLE_BEGIN
 90
        2
 91
        1
300
_HEADER
309
CELLSTYLE_END
300
CELLSTYLE
  1
TABLEFORMAT_BEGIN
 90
        5
170
     1
 91
        0
 92
        0
 62
   257
 93
        1
300
CONTENTFORMAT
  1
CONTENTFORMAT_BEGIN
 90
        0
 91
        0
 92
        4
 93
        0
300

 40
0.0
140
1.0
 94
        2
 62
     0
340
11
144
4.5
309
CONTENTFORMAT_END
171
     1
301
MARGIN
  1
CELLMARGIN_BEGIN
 40
1.5
 40
1.5
 40
1.5
 40
1.5
 40
0.18
 40
0.18
309
CELLMARGIN_END
 94
        6
 95
        1
302
GRIDFORMAT
  1
GRIDFORMAT_BEGIN
 90
        0
 91
        1
 62
     0
 92
       -2
340
0
 93
        0
 40
0.045
309
GRIDFORMAT_END
 95
        2
302
GRIDFORMAT
  1
GRIDFORMAT_BEGIN
 90
        0
 91
        1
 62
     0
 92
       -2
340
0
 93
        0
 40
0.045
309
GRIDFORMAT_END
 95
        4
302
GRIDFORMAT
  1
GRIDFORMAT_BEGIN
 90
        0
 91
        1
 62
     0
 92
       -2
340
0
 93
        0
 40
0.045
309
GRIDFORMAT_END
 95
        8
302
GRIDFORMAT
  1
GRIDFORMAT_BEGIN
 90
        0
 91
        1
 62
     0
 92
       -2
340
0
 93
        0
 40
0.045
309
GRIDFORMAT_END
 95
       16
302
GRIDFORMAT
  1
GRIDFORMAT_BEGIN
 90
        0
 91
        1
 62
     0
 92
       -2
340
0
 93
        0
 40
0.045
309
GRIDFORMAT_END
 95
       32
302
GRIDFORMAT
  1
GRIDFORMAT_BEGIN
 90
        0
 91
        1
 62
     0
 92
       -2
340
0
 93
        0
 40
0.045
309
GRIDFORMAT_END
309
TABLEFORMAT_END
  1
CELLSTYLE_BEGIN
 90
        3
 91
        2
300
_DATA
309
CELLSTYLE_END
  0
XRECORD
  5
BA1
102
{ACAD_REACTORS
330
B9A
102
}
330
B9A
100
AcDbXrecord
280
     1
102
ACAD_ROUNDTRIP_PRE2007_TABLESTYLE
 90
        4
 91
        0
  1

 92
        4
 93
        0
  2

 94
        4
 95
        0
  3

  0
XRECORD
  5
BB8
102
{ACAD_REACTORS
330
BB7
102
}
330
BB7
100
AcDbXrecord
280
     1
102
RTVSPost2010Prop28
280
     1
102
RTVSPost2010PropOp28
 70
     1
102
RTVSPost2010Prop29
280
     1
102
RTVSPost2010PropOp29
 70
     1
102
RTVSPost2010Prop30
280
     0
102
RTVSPost2010PropOp30
 70
     1
102
RTVSPost2010Prop31
280
     0
102
RTVSPost2010PropOp31
 70
     1
102
RTVSPost2010Prop32
280
     0
102
RTVSPost2010PropOp32
 70
     1
102
RTVSPost2010Prop33
280
     0
102
RTVSPost2010PropOp33
 70
     1
102
RTVSPost2010Prop34
280
     0
102
RTVSPost2010PropOp34
 70
     1
102
RTVSPost2010Prop35
280
     0
102
RTVSPost2010PropOp35
 70
     1
102
RTVSPost2010Prop36
280
     0
102
RTVSPost2010PropOp36
 70
     1
102
RTVSPost2010Prop37
 90
       50
102
RTVSPost2010PropOp37
 70
     1
102
RTVSPost2010Prop38
140
0.0
102
RTVSPost2010PropOp38
 70
     1
102
RTVSPost2010Prop39
140
1.0
102
RTVSPost2010PropOp39
 70
     1
102
RTVSPost2010Prop40
 90
        0
102
RTVSPost2010PropOp40
 70
     1
102
RTVSPost2010Prop41ColorIndex
 90
       18
102
RTVSPost2010Prop41ColorRGB
 90
        0
102
RTVSPost2010PropOp41
 70
     1
102
RTVSPost2010Prop42
 90
       50
102
RTVSPost2010PropOp42
 70
     1
102
RTVSPost2010Prop43
 90
        3
102
RTVSPost2010PropOp43
 70
     1
102
RTVSPost2010Prop44ColorIndex
 90
        5
102
RTVSPost2010Prop44ColorRGB
 90
      255
102
RTVSPost2010PropOp44
 70
     1
102
RTVSPost2010Prop45
280
     0
102
RTVSPost2010PropOp45
 70
     1
102
RTVSPost2010Prop46
 90
       50
102
RTVSPost2010PropOp46
 70
     1
102
RTVSPost2010Prop47
 90
       50
102
RTVSPost2010PropOp47
 70
     1
102
RTVSPost2010Prop48
 90
       50
102
RTVSPost2010PropOp48
 70
     1
102
RTVSPost2010Prop49
280
     0
102
RTVSPost2010PropOp49
 70
     1
102
RTVSPost2010Prop50
 90
       50
102
RTVSPost2010PropOp50
 70
     1
102
RTVSPost2010Prop51ColorIndex
 90
      256
102
RTVSPost2010Prop51ColorRGB
 90
-16777216
102
RTVSPost2010PropOp51
 70
     0
102
RTVSPost2010Prop52
140
1.0
102
RTVSPost2010PropOp52
 70
     0
102
RTVSPost2010Prop53
 90
        2
102
RTVSPost2010PropOp53
 70
     1
102
RTVSPost2010Prop54
  1
strokes_ogs.tif
102
RTVSPost2010PropOp54
 70
     1
102
RTVSPost2010Prop55
280
     0
102
RTVSPost2010PropOp55
 70
     1
102
RTVSPost2010Prop56
140
1.0
102
RTVSPost2010PropOp56
 70
     1
102
RTVSPost2010Prop57
140
1.0
102
RTVSPost2010PropOp57
 70
     1
102
RTVSPropertyOp0
 70
     1
102
RTVSPropertyOp1
 70
     1
102
RTVSPropertyOp2
 70
     1
102
RTVSPropertyOp3
 70
     1
102
RTVSPropertyOp4
 70
     1
102
RTVSPropertyOp5
 70
     1
102
RTVSPropertyOp6
 70
     1
102
RTVSPropertyOp7
 70
     1
102
RTVSPropertyOp8
 70
     1
102
RTVSPropertyOp9
 70
     1
102
RTVSPropertyOp10
 70
     1
102
RTVSPropertyOp11
 70
     1
102
RTVSPropertyOp12
 70
     1
102
RTVSPropertyOp13
 70
     1
102
RTVSPropertyOp14
 70
     1
102
RTVSPropertyOp15
 70
     1
102
RTVSPropertyOp16
 70
     1
102
RTVSPropertyOp17
 70
     1
102
RTVSPropertyOp18
 70
     1
102
RTVSPropertyOp19
 70
     1
102
RTVSPropertyOp20
 70
     1
102
RTVSPropertyOp21
 70
     1
102
RTVSPropertyOp22
 70
     1
102
RTVSPropertyOp23
 70
     1
102
RTVSPropertyOp24
 70
     1
102
RTVSPropertyOp25
 70
     1
102
RTVSPropertyOp26
 70
     1
102
RTVSPropertyOp27
 70
     1
102
RTVSPropertyOp28
 70
     1
102
RTVSPropertyOp29
 70
     1
102
RTVSPropertyOp30
 70
     1
102
RTVSPropertyOp31
 70
     1
102
RTVSPropertyOp32
 70
     1
102
RTVSPropertyOp33
 70
     1
102
RTVSPropertyOp34
 70
     1
102
RTVSPropertyOp35
 70
     1
102
RTVSPropertyOp36
 70
     1
102
RTVSPropertyOp37
 70
     1
102
RTVSPropertyOp38
 70
     1
102
RTVSPropertyOp39
 70
     1
102
RTVSPropertyOp40
 70
     1
102
RTVSPropertyOp41
 70
     1
102
RTVSPropertyOp42
 70
     1
102
RTVSPropertyOp43
 70
     1
102
RTVSPropertyOp44
 70
     1
102
RTVSPropertyOp45
 70
     1
102
RTVSPropertyOp46
 70
     1
102
RTVSPropertyOp47
 70
     1
102
RTVSPropertyOp48
 70
     1
102
RTVSPropertyOp49
 70
     1
102
RTVSPropertyOp50
 70
     1
102
RTVSPropertyOp51
 70
     0
102
RTVSPropertyOp52
 70
     0
102
RTVSPropertyOp53
 70
     1
102
RTVSPropertyOp54
 70
     1
102
RTVSPropertyOp55
 70
     1
102
RTVSPropertyOp56
 70
     1
102
RTVSPropertyOp57
 70
     1
102
RTVSPropertyOp58
 70
     1
102
RTVSPropertyOp59
 70
     1
102
RTVSPropertyOp60
 70
     1
102
RTVSPropertyOp61
 70
     1
102
RTVSPropertyOp62
 70
     1
  0
XRECORD
  5
BB6
102
{ACAD_REACTORS
330
BB5
102
}
330
BB5
100
AcDbXrecord
280
     1
102
RTVSPost2010Prop28
280
     0
102
RTVSPost2010PropOp28
 70
     1
102
RTVSPost2010Prop29
280
     1
102
RTVSPost2010PropOp29
 70
     1
102
RTVSPost2010Prop30
280
     1
102
RTVSPost2010PropOp30
 70
     1
102
RTVSPost2010Prop31
280
     0
102
RTVSPost2010PropOp31
 70
     1
102
RTVSPost2010Prop32
280
     0
102
RTVSPost2010PropOp32
 70
     1
102
RTVSPost2010Prop33
280
     0
102
RTVSPost2010PropOp33
 70
     1
102
RTVSPost2010Prop34
280
     0
102
RTVSPost2010PropOp34
 70
     1
102
RTVSPost2010Prop35
280
     0
102
RTVSPost2010PropOp35
 70
     1
102
RTVSPost2010Prop36
280
     0
102
RTVSPost2010PropOp36
 70
     1
102
RTVSPost2010Prop37
 90
       50
102
RTVSPost2010PropOp37
 70
     1
102
RTVSPost2010Prop38
140
0.0
102
RTVSPost2010PropOp38
 70
     1
102
RTVSPost2010Prop39
140
1.0
102
RTVSPost2010PropOp39
 70
     1
102
RTVSPost2010Prop40
 90
        0
102
RTVSPost2010PropOp40
 70
     1
102
RTVSPost2010Prop41ColorIndex
 90
       18
102
RTVSPost2010Prop41ColorRGB
 90
        0
102
RTVSPost2010PropOp41
 70
     1
102
RTVSPost2010Prop42
 90
       50
102
RTVSPost2010PropOp42
 70
     1
102
RTVSPost2010Prop43
 90
        3
102
RTVSPost2010PropOp43
 70
     1
102
RTVSPost2010Prop44ColorIndex
 90
        5
102
RTVSPost2010Prop44ColorRGB
 90
      255
102
RTVSPost2010PropOp44
 70
     1
102
RTVSPost2010Prop45
280
     0
102
RTVSPost2010PropOp45
 70
     1
102
RTVSPost2010Prop46
 90
       50
102
RTVSPost2010PropOp46
 70
     1
102
RTVSPost2010Prop47
 90
       50
102
RTVSPost2010PropOp47
 70
     1
102
RTVSPost2010Prop48
 90
       50
102
RTVSPost2010PropOp48
 70
     1
102
RTVSPost2010Prop49
280
     0
102
RTVSPost2010PropOp49
 70
     1
102
RTVSPost2010Prop50
 90
       50
102
RTVSPost2010PropOp50
 70
     1
102
RTVSPost2010Prop51ColorIndex
 90
      256
102
RTVSPost2010Prop51ColorRGB
 90
-16777216
102
RTVSPost2010PropOp51
 70
     0
102
RTVSPost2010Prop52
140
1.0
102
RTVSPost2010PropOp52
 70
     0
102
RTVSPost2010Prop53
 90
        2
102
RTVSPost2010PropOp53
 70
     1
102
RTVSPost2010Prop54
  1
strokes_ogs.tif
102
RTVSPost2010PropOp54
 70
     1
102
RTVSPost2010Prop55
280
     0
102
RTVSPost2010PropOp55
 70
     1
102
RTVSPost2010Prop56
140
1.0
102
RTVSPost2010PropOp56
 70
     1
102
RTVSPost2010Prop57
140
1.0
102
RTVSPost2010PropOp57
 70
     1
102
RTVSPropertyOp0
 70
     1
102
RTVSPropertyOp1
 70
     1
102
RTVSPropertyOp2
 70
     1
102
RTVSPropertyOp3
 70
     1
102
RTVSPropertyOp4
 70
     1
102
RTVSPropertyOp5
 70
     1
102
RTVSPropertyOp6
 70
     1
102
RTVSPropertyOp7
 70
     1
102
RTVSPropertyOp8
 70
     1
102
RTVSPropertyOp9
 70
     1
102
RTVSPropertyOp10
 70
     1
102
RTVSPropertyOp11
 70
     1
102
RTVSPropertyOp12
 70
     1
102
RTVSPropertyOp13
 70
     1
102
RTVSPropertyOp14
 70
     1
102
RTVSPropertyOp15
 70
     1
102
RTVSPropertyOp16
 70
     1
102
RTVSPropertyOp17
 70
     1
102
RTVSPropertyOp18
 70
     1
102
RTVSPropertyOp19
 70
     1
102
RTVSPropertyOp20
 70
     1
102
RTVSPropertyOp21
 70
     1
102
RTVSPropertyOp22
 70
     1
102
RTVSPropertyOp23
 70
     1
102
RTVSPropertyOp24
 70
     1
102
RTVSPropertyOp25
 70
     1
102
RTVSPropertyOp26
 70
     1
102
RTVSPropertyOp27
 70
     1
102
RTVSPropertyOp28
 70
     1
102
RTVSPropertyOp29
 70
     1
102
RTVSPropertyOp30
 70
     1
102
RTVSPropertyOp31
 70
     1
102
RTVSPropertyOp32
 70
     1
102
RTVSPropertyOp33
 70
     1
102
RTVSPropertyOp34
 70
     1
102
RTVSPropertyOp35
 70
     1
102
RTVSPropertyOp36
 70
     1
102
RTVSPropertyOp37
 70
     1
102
RTVSPropertyOp38
 70
     1
102
RTVSPropertyOp39
 70
     1
102
RTVSPropertyOp40
 70
     1
102
RTVSPropertyOp41
 70
     1
102
RTVSPropertyOp42
 70
     1
102
RTVSPropertyOp43
 70
     1
102
RTVSPropertyOp44
 70
     1
102
RTVSPropertyOp45
 70
     1
102
RTVSPropertyOp46
 70
     1
102
RTVSPropertyOp47
 70
     1
102
RTVSPropertyOp48
 70
     1
102
RTVSPropertyOp49
 70
     1
102
RTVSPropertyOp50
 70
     1
102
RTVSPropertyOp51
 70
     0
102
RTVSPropertyOp52
 70
     0
102
RTVSPropertyOp53
 70
     1
102
RTVSPropertyOp54
 70
     1
102
RTVSPropertyOp55
 70
     1
102
RTVSPropertyOp56
 70
     1
102
RTVSPropertyOp57
 70
     1
102
RTVSPropertyOp58
 70
     1
102
RTVSPropertyOp59
 70
     1
102
RTVSPropertyOp60
 70
     1
102
RTVSPropertyOp61
 70
     1
102
RTVSPropertyOp62
 70
     1
  0
XRECORD
  5
BC4
102
{ACAD_REACTORS
330
BC3
102
}
330
BC3
100
AcDbXrecord
280
     1
102
RTVSPost2010Prop28
280
     0
102
RTVSPost2010PropOp28
 70
     1
102
RTVSPost2010Prop29
280
     1
102
RTVSPost2010PropOp29
 70
     1
102
RTVSPost2010Prop30
280
     1
102
RTVSPost2010PropOp30
 70
     1
102
RTVSPost2010Prop31
280
     0
102
RTVSPost2010PropOp31
 70
     1
102
RTVSPost2010Prop32
280
     0
102
RTVSPost2010PropOp32
 70
     1
102
RTVSPost2010Prop33
280
     0
102
RTVSPost2010PropOp33
 70
     1
102
RTVSPost2010Prop34
280
     0
102
RTVSPost2010PropOp34
 70
     1
102
RTVSPost2010Prop35
280
     0
102
RTVSPost2010PropOp35
 70
     1
102
RTVSPost2010Prop36
280
     0
102
RTVSPost2010PropOp36
 70
     1
102
RTVSPost2010Prop37
 90
       50
102
RTVSPost2010PropOp37
 70
     1
102
RTVSPost2010Prop38
140
0.0
102
RTVSPost2010PropOp38
 70
     1
102
RTVSPost2010Prop39
140
1.0
102
RTVSPost2010PropOp39
 70
     1
102
RTVSPost2010Prop40
 90
        0
102
RTVSPost2010PropOp40
 70
     1
102
RTVSPost2010Prop41ColorIndex
 90
       18
102
RTVSPost2010Prop41ColorRGB
 90
        0
102
RTVSPost2010PropOp41
 70
     1
102
RTVSPost2010Prop42
 90
       50
102
RTVSPost2010PropOp42
 70
     1
102
RTVSPost2010Prop43
 90
        3
102
RTVSPost2010PropOp43
 70
     1
102
RTVSPost2010Prop44ColorIndex
 90
        5
102
RTVSPost2010Prop44ColorRGB
 90
      255
102
RTVSPost2010PropOp44
 70
     1
102
RTVSPost2010Prop45
280
     0
102
RTVSPost2010PropOp45
 70
     1
102
RTVSPost2010Prop46
 90
       50
102
RTVSPost2010PropOp46
 70
     1
102
RTVSPost2010Prop47
 90
       50
102
RTVSPost2010PropOp47
 70
     1
102
RTVSPost2010Prop48
 90
       50
102
RTVSPost2010PropOp48
 70
     1
102
RTVSPost2010Prop49
280
     0
102
RTVSPost2010PropOp49
 70
     1
102
RTVSPost2010Prop50
 90
       50
102
RTVSPost2010PropOp50
 70
     1
102
RTVSPost2010Prop51ColorIndex
 90
      256
102
RTVSPost2010Prop51ColorRGB
 90
-16777216
102
RTVSPost2010PropOp51
 70
     0
102
RTVSPost2010Prop52
140
1.0
102
RTVSPost2010PropOp52
 70
     0
102
RTVSPost2010Prop53
 90
        2
102
RTVSPost2010PropOp53
 70
     1
102
RTVSPost2010Prop54
  1
strokes_ogs.tif
102
RTVSPost2010PropOp54
 70
     1
102
RTVSPost2010Prop55
280
     0
102
RTVSPost2010PropOp55
 70
     1
102
RTVSPost2010Prop56
140
1.0
102
RTVSPost2010PropOp56
 70
     1
102
RTVSPost2010Prop57
140
1.0
102
RTVSPost2010PropOp57
 70
     1
102
RTVSPropertyOp0
 70
     1
102
RTVSPropertyOp1
 70
     1
102
RTVSPropertyOp2
 70
     1
102
RTVSPropertyOp3
 70
     1
102
RTVSPropertyOp4
 70
     1
102
RTVSPropertyOp5
 70
     1
102
RTVSPropertyOp6
 70
     1
102
RTVSPropertyOp7
 70
     1
102
RTVSPropertyOp8
 70
     1
102
RTVSPropertyOp9
 70
     1
102
RTVSPropertyOp10
 70
     1
102
RTVSPropertyOp11
 70
     1
102
RTVSPropertyOp12
 70
     1
102
RTVSPropertyOp13
 70
     1
102
RTVSPropertyOp14
 70
     1
102
RTVSPropertyOp15
 70
     1
102
RTVSPropertyOp16
 70
     1
102
RTVSPropertyOp17
 70
     1
102
RTVSPropertyOp18
 70
     1
102
RTVSPropertyOp19
 70
     1
102
RTVSPropertyOp20
 70
     1
102
RTVSPropertyOp21
 70
     1
102
RTVSPropertyOp22
 70
     1
102
RTVSPropertyOp23
 70
     1
102
RTVSPropertyOp24
 70
     1
102
RTVSPropertyOp25
 70
     1
102
RTVSPropertyOp26
 70
     1
102
RTVSPropertyOp27
 70
     1
102
RTVSPropertyOp28
 70
     1
102
RTVSPropertyOp29
 70
     1
102
RTVSPropertyOp30
 70
     1
102
RTVSPropertyOp31
 70
     1
102
RTVSPropertyOp32
 70
     1
102
RTVSPropertyOp33
 70
     1
102
RTVSPropertyOp34
 70
     1
102
RTVSPropertyOp35
 70
     1
102
RTVSPropertyOp36
 70
     1
102
RTVSPropertyOp37
 70
     1
102
RTVSPropertyOp38
 70
     1
102
RTVSPropertyOp39
 70
     1
102
RTVSPropertyOp40
 70
     1
102
RTVSPropertyOp41
 70
     1
102
RTVSPropertyOp42
 70
     1
102
RTVSPropertyOp43
 70
     1
102
RTVSPropertyOp44
 70
     1
102
RTVSPropertyOp45
 70
     1
102
RTVSPropertyOp46
 70
     1
102
RTVSPropertyOp47
 70
     1
102
RTVSPropertyOp48
 70
     1
102
RTVSPropertyOp49
 70
     1
102
RTVSPropertyOp50
 70
     1
102
RTVSPropertyOp51
 70
     0
102
RTVSPropertyOp52
 70
     0
102
RTVSPropertyOp53
 70
     1
102
RTVSPropertyOp54
 70
     1
102
RTVSPropertyOp55
 70
     1
102
RTVSPropertyOp56
 70
     1
102
RTVSPropertyOp57
 70
     1
102
RTVSPropertyOp58
 70
     1
102
RTVSPropertyOp59
 70
     1
102
RTVSPropertyOp60
 70
     1
102
RTVSPropertyOp61
 70
     1
102
RTVSPropertyOp62
 70
     1
  0
XRECORD
  5
BCC
102
{ACAD_REACTORS
330
BCB
102
}
330
BCB
100
AcDbXrecord
280
     1
102
RTVSPost2010Prop28
280
     0
102
RTVSPost2010PropOp28
 70
     1
102
RTVSPost2010Prop29
280
     1
102
RTVSPost2010PropOp29
 70
     1
102
RTVSPost2010Prop30
280
     1
102
RTVSPost2010PropOp30
 70
     1
102
RTVSPost2010Prop31
280
     0
102
RTVSPost2010PropOp31
 70
     1
102
RTVSPost2010Prop32
280
     0
102
RTVSPost2010PropOp32
 70
     1
102
RTVSPost2010Prop33
280
     0
102
RTVSPost2010PropOp33
 70
     1
102
RTVSPost2010Prop34
280
     0
102
RTVSPost2010PropOp34
 70
     1
102
RTVSPost2010Prop35
280
     0
102
RTVSPost2010PropOp35
 70
     1
102
RTVSPost2010Prop36
280
     0
102
RTVSPost2010PropOp36
 70
     1
102
RTVSPost2010Prop37
 90
       50
102
RTVSPost2010PropOp37
 70
     1
102
RTVSPost2010Prop38
140
0.0
102
RTVSPost2010PropOp38
 70
     1
102
RTVSPost2010Prop39
140
1.0
102
RTVSPost2010PropOp39
 70
     1
102
RTVSPost2010Prop40
 90
        0
102
RTVSPost2010PropOp40
 70
     1
102
RTVSPost2010Prop41ColorIndex
 90
       18
102
RTVSPost2010Prop41ColorRGB
 90
        0
102
RTVSPost2010PropOp41
 70
     1
102
RTVSPost2010Prop42
 90
       50
102
RTVSPost2010PropOp42
 70
     1
102
RTVSPost2010Prop43
 90
        3
102
RTVSPost2010PropOp43
 70
     1
102
RTVSPost2010Prop44ColorIndex
 90
        5
102
RTVSPost2010Prop44ColorRGB
 90
      255
102
RTVSPost2010PropOp44
 70
     1
102
RTVSPost2010Prop45
280
     0
102
RTVSPost2010PropOp45
 70
     1
102
RTVSPost2010Prop46
 90
       50
102
RTVSPost2010PropOp46
 70
     1
102
RTVSPost2010Prop47
 90
       50
102
RTVSPost2010PropOp47
 70
     1
102
RTVSPost2010Prop48
 90
       50
102
RTVSPost2010PropOp48
 70
     1
102
RTVSPost2010Prop49
280
     0
102
RTVSPost2010PropOp49
 70
     1
102
RTVSPost2010Prop50
 90
       50
102
RTVSPost2010PropOp50
 70
     1
102
RTVSPost2010Prop51ColorIndex
 90
      256
102
RTVSPost2010Prop51ColorRGB
 90
-16777216
102
RTVSPost2010PropOp51
 70
     0
102
RTVSPost2010Prop52
140
1.0
102
RTVSPost2010PropOp52
 70
     0
102
RTVSPost2010Prop53
 90
        2
102
RTVSPost2010PropOp53
 70
     1
102
RTVSPost2010Prop54
  1
strokes_ogs.tif
102
RTVSPost2010PropOp54
 70
     1
102
RTVSPost2010Prop55
280
     0
102
RTVSPost2010PropOp55
 70
     1
102
RTVSPost2010Prop56
140
1.0
102
RTVSPost2010PropOp56
 70
     1
102
RTVSPost2010Prop57
140
1.0
102
RTVSPost2010PropOp57
 70
     1
102
RTVSPropertyOp0
 70
     1
102
RTVSPropertyOp1
 70
     1
102
RTVSPropertyOp2
 70
     1
102
RTVSPropertyOp3
 70
     1
102
RTVSPropertyOp4
 70
     1
102
RTVSPropertyOp5
 70
     1
102
RTVSPropertyOp6
 70
     1
102
RTVSPropertyOp7
 70
     1
102
RTVSPropertyOp8
 70
     1
102
RTVSPropertyOp9
 70
     1
102
RTVSPropertyOp10
 70
     1
102
RTVSPropertyOp11
 70
     1
102
RTVSPropertyOp12
 70
     1
102
RTVSPropertyOp13
 70
     1
102
RTVSPropertyOp14
 70
     1
102
RTVSPropertyOp15
 70
     1
102
RTVSPropertyOp16
 70
     1
102
RTVSPropertyOp17
 70
     1
102
RTVSPropertyOp18
 70
     1
102
RTVSPropertyOp19
 70
     1
102
RTVSPropertyOp20
 70
     1
102
RTVSPropertyOp21
 70
     1
102
RTVSPropertyOp22
 70
     1
102
RTVSPropertyOp23
 70
     1
102
RTVSPropertyOp24
 70
     1
102
RTVSPropertyOp25
 70
     1
102
RTVSPropertyOp26
 70
     1
102
RTVSPropertyOp27
 70
     1
102
RTVSPropertyOp28
 70
     1
102
RTVSPropertyOp29
 70
     1
102
RTVSPropertyOp30
 70
     1
102
RTVSPropertyOp31
 70
     1
102
RTVSPropertyOp32
 70
     1
102
RTVSPropertyOp33
 70
     1
102
RTVSPropertyOp34
 70
     1
102
RTVSPropertyOp35
 70
     1
102
RTVSPropertyOp36
 70
     1
102
RTVSPropertyOp37
 70
     1
102
RTVSPropertyOp38
 70
     1
102
RTVSPropertyOp39
 70
     1
102
RTVSPropertyOp40
 70
     1
102
RTVSPropertyOp41
 70
     1
102
RTVSPropertyOp42
 70
     1
102
RTVSPropertyOp43
 70
     1
102
RTVSPropertyOp44
 70
     1
102
RTVSPropertyOp45
 70
     1
102
RTVSPropertyOp46
 70
     1
102
RTVSPropertyOp47
 70
     1
102
RTVSPropertyOp48
 70
     1
102
RTVSPropertyOp49
 70
     1
102
RTVSPropertyOp50
 70
     1
102
RTVSPropertyOp51
 70
     0
102
RTVSPropertyOp52
 70
     0
102
RTVSPropertyOp53
 70
     1
102
RTVSPropertyOp54
 70
     1
102
RTVSPropertyOp55
 70
     1
102
RTVSPropertyOp56
 70
     1
102
RTVSPropertyOp57
 70
     1
102
RTVSPropertyOp58
 70
     1
102
RTVSPropertyOp59
 70
     1
102
RTVSPropertyOp60
 70
     1
102
RTVSPropertyOp61
 70
     1
102
RTVSPropertyOp62
 70
     1
  0
XRECORD
  5
BBE
102
{ACAD_REACTORS
330
BBD
102
}
330
BBD
100
AcDbXrecord
280
     1
102
RTVSPost2010Prop28
280
     0
102
RTVSPost2010PropOp28
 70
     1
102
RTVSPost2010Prop29
280
     1
102
RTVSPost2010PropOp29
 70
     1
102
RTVSPost2010Prop30
280
     1
102
RTVSPost2010PropOp30
 70
     1
102
RTVSPost2010Prop31
280
     0
102
RTVSPost2010PropOp31
 70
     1
102
RTVSPost2010Prop32
280
     0
102
RTVSPost2010PropOp32
 70
     1
102
RTVSPost2010Prop33
280
     0
102
RTVSPost2010PropOp33
 70
     1
102
RTVSPost2010Prop34
280
     0
102
RTVSPost2010PropOp34
 70
     1
102
RTVSPost2010Prop35
280
     0
102
RTVSPost2010PropOp35
 70
     1
102
RTVSPost2010Prop36
280
     0
102
RTVSPost2010PropOp36
 70
     1
102
RTVSPost2010Prop37
 90
       50
102
RTVSPost2010PropOp37
 70
     1
102
RTVSPost2010Prop38
140
0.0
102
RTVSPost2010PropOp38
 70
     1
102
RTVSPost2010Prop39
140
1.0
102
RTVSPost2010PropOp39
 70
     1
102
RTVSPost2010Prop40
 90
        0
102
RTVSPost2010PropOp40
 70
     1
102
RTVSPost2010Prop41ColorIndex
 90
       18
102
RTVSPost2010Prop41ColorRGB
 90
        0
102
RTVSPost2010PropOp41
 70
     1
102
RTVSPost2010Prop42
 90
       50
102
RTVSPost2010PropOp42
 70
     1
102
RTVSPost2010Prop43
 90
        3
102
RTVSPost2010PropOp43
 70
     1
102
RTVSPost2010Prop44ColorIndex
 90
        5
102
RTVSPost2010Prop44ColorRGB
 90
      255
102
RTVSPost2010PropOp44
 70
     1
102
RTVSPost2010Prop45
280
     0
102
RTVSPost2010PropOp45
 70
     1
102
RTVSPost2010Prop46
 90
       50
102
RTVSPost2010PropOp46
 70
     1
102
RTVSPost2010Prop47
 90
       50
102
RTVSPost2010PropOp47
 70
     1
102
RTVSPost2010Prop48
 90
       50
102
RTVSPost2010PropOp48
 70
     1
102
RTVSPost2010Prop49
280
     0
102
RTVSPost2010PropOp49
 70
     1
102
RTVSPost2010Prop50
 90
       50
102
RTVSPost2010PropOp50
 70
     1
102
RTVSPost2010Prop51ColorIndex
 90
      256
102
RTVSPost2010Prop51ColorRGB
 90
-16777216
102
RTVSPost2010PropOp51
 70
     0
102
RTVSPost2010Prop52
140
1.0
102
RTVSPost2010PropOp52
 70
     0
102
RTVSPost2010Prop53
 90
        2
102
RTVSPost2010PropOp53
 70
     1
102
RTVSPost2010Prop54
  1
strokes_ogs.tif
102
RTVSPost2010PropOp54
 70
     1
102
RTVSPost2010Prop55
280
     0
102
RTVSPost2010PropOp55
 70
     1
102
RTVSPost2010Prop56
140
1.0
102
RTVSPost2010PropOp56
 70
     1
102
RTVSPost2010Prop57
140
1.0
102
RTVSPost2010PropOp57
 70
     1
102
RTVSPropertyOp0
 70
     1
102
RTVSPropertyOp1
 70
     1
102
RTVSPropertyOp2
 70
     1
102
RTVSPropertyOp3
 70
     1
102
RTVSPropertyOp4
 70
     1
102
RTVSPropertyOp5
 70
     1
102
RTVSPropertyOp6
 70
     1
102
RTVSPropertyOp7
 70
     1
102
RTVSPropertyOp8
 70
     1
102
RTVSPropertyOp9
 70
     1
102
RTVSPropertyOp10
 70
     1
102
RTVSPropertyOp11
 70
     1
102
RTVSPropertyOp12
 70
     1
102
RTVSPropertyOp13
 70
     1
102
RTVSPropertyOp14
 70
     1
102
RTVSPropertyOp15
 70
     1
102
RTVSPropertyOp16
 70
     1
102
RTVSPropertyOp17
 70
     1
102
RTVSPropertyOp18
 70
     1
102
RTVSPropertyOp19
 70
     1
102
RTVSPropertyOp20
 70
     1
102
RTVSPropertyOp21
 70
     1
102
RTVSPropertyOp22
 70
     1
102
RTVSPropertyOp23
 70
     1
102
RTVSPropertyOp24
 70
     1
102
RTVSPropertyOp25
 70
     1
102
RTVSPropertyOp26
 70
     1
102
RTVSPropertyOp27
 70
     1
102
RTVSPropertyOp28
 70
     1
102
RTVSPropertyOp29
 70
     1
102
RTVSPropertyOp30
 70
     1
102
RTVSPropertyOp31
 70
     1
102
RTVSPropertyOp32
 70
     1
102
RTVSPropertyOp33
 70
     1
102
RTVSPropertyOp34
 70
     1
102
RTVSPropertyOp35
 70
     1
102
RTVSPropertyOp36
 70
     1
102
RTVSPropertyOp37
 70
     1
102
RTVSPropertyOp38
 70
     1
102
RTVSPropertyOp39
 70
     1
102
RTVSPropertyOp40
 70
     1
102
RTVSPropertyOp41
 70
     1
102
RTVSPropertyOp42
 70
     1
102
RTVSPropertyOp43
 70
     1
102
RTVSPropertyOp44
 70
     1
102
RTVSPropertyOp45
 70
     1
102
RTVSPropertyOp46
 70
     1
102
RTVSPropertyOp47
 70
     1
102
RTVSPropertyOp48
 70
     1
102
RTVSPropertyOp49
 70
     1
102
RTVSPropertyOp50
 70
     1
102
RTVSPropertyOp51
 70
     0
102
RTVSPropertyOp52
 70
     0
102
RTVSPropertyOp53
 70
     1
102
RTVSPropertyOp54
 70
     1
102
RTVSPropertyOp55
 70
     1
102
RTVSPropertyOp56
 70
     1
102
RTVSPropertyOp57
 70
     1
102
RTVSPropertyOp58
 70
     1
102
RTVSPropertyOp59
 70
     1
102
RTVSPropertyOp60
 70
     1
102
RTVSPropertyOp61
 70
     1
102
RTVSPropertyOp62
 70
     1
  0
XRECORD
  5
BC2
102
{ACAD_REACTORS
330
BC1
102
}
330
BC1
100
AcDbXrecord
280
     1
102
RTVSPost2010Prop28
280
     0
102
RTVSPost2010PropOp28
 70
     1
102
RTVSPost2010Prop29
280
     1
102
RTVSPost2010PropOp29
 70
     1
102
RTVSPost2010Prop30
280
     1
102
RTVSPost2010PropOp30
 70
     1
102
RTVSPost2010Prop31
280
     0
102
RTVSPost2010PropOp31
 70
     1
102
RTVSPost2010Prop32
280
     0
102
RTVSPost2010PropOp32
 70
     1
102
RTVSPost2010Prop33
280
     0
102
RTVSPost2010PropOp33
 70
     1
102
RTVSPost2010Prop34
280
     0
102
RTVSPost2010PropOp34
 70
     1
102
RTVSPost2010Prop35
280
     0
102
RTVSPost2010PropOp35
 70
     1
102
RTVSPost2010Prop36
280
     0
102
RTVSPost2010PropOp36
 70
     1
102
RTVSPost2010Prop37
 90
       50
102
RTVSPost2010PropOp37
 70
     1
102
RTVSPost2010Prop38
140
0.0
102
RTVSPost2010PropOp38
 70
     1
102
RTVSPost2010Prop39
140
1.0
102
RTVSPost2010PropOp39
 70
     1
102
RTVSPost2010Prop40
 90
        0
102
RTVSPost2010PropOp40
 70
     1
102
RTVSPost2010Prop41ColorIndex
 90
       18
102
RTVSPost2010Prop41ColorRGB
 90
        0
102
RTVSPost2010PropOp41
 70
     1
102
RTVSPost2010Prop42
 90
       50
102
RTVSPost2010PropOp42
 70
     1
102
RTVSPost2010Prop43
 90
        3
102
RTVSPost2010PropOp43
 70
     1
102
RTVSPost2010Prop44ColorIndex
 90
        5
102
RTVSPost2010Prop44ColorRGB
 90
      255
102
RTVSPost2010PropOp44
 70
     1
102
RTVSPost2010Prop45
280
     0
102
RTVSPost2010PropOp45
 70
     1
102
RTVSPost2010Prop46
 90
       50
102
RTVSPost2010PropOp46
 70
     1
102
RTVSPost2010Prop47
 90
       50
102
RTVSPost2010PropOp47
 70
     1
102
RTVSPost2010Prop48
 90
       50
102
RTVSPost2010PropOp48
 70
     1
102
RTVSPost2010Prop49
280
     0
102
RTVSPost2010PropOp49
 70
     1
102
RTVSPost2010Prop50
 90
       50
102
RTVSPost2010PropOp50
 70
     1
102
RTVSPost2010Prop51ColorIndex
 90
      256
102
RTVSPost2010Prop51ColorRGB
 90
-16777216
102
RTVSPost2010PropOp51
 70
     0
102
RTVSPost2010Prop52
140
1.0
102
RTVSPost2010PropOp52
 70
     0
102
RTVSPost2010Prop53
 90
        2
102
RTVSPost2010PropOp53
 70
     1
102
RTVSPost2010Prop54
  1
strokes_ogs.tif
102
RTVSPost2010PropOp54
 70
     1
102
RTVSPost2010Prop55
280
     0
102
RTVSPost2010PropOp55
 70
     1
102
RTVSPost2010Prop56
140
1.0
102
RTVSPost2010PropOp56
 70
     1
102
RTVSPost2010Prop57
140
1.0
102
RTVSPost2010PropOp57
 70
     1
102
RTVSPropertyOp0
 70
     1
102
RTVSPropertyOp1
 70
     1
102
RTVSPropertyOp2
 70
     1
102
RTVSPropertyOp3
 70
     1
102
RTVSPropertyOp4
 70
     1
102
RTVSPropertyOp5
 70
     1
102
RTVSPropertyOp6
 70
     1
102
RTVSPropertyOp7
 70
     1
102
RTVSPropertyOp8
 70
     1
102
RTVSPropertyOp9
 70
     1
102
RTVSPropertyOp10
 70
     1
102
RTVSPropertyOp11
 70
     1
102
RTVSPropertyOp12
 70
     1
102
RTVSPropertyOp13
 70
     1
102
RTVSPropertyOp14
 70
     1
102
RTVSPropertyOp15
 70
     1
102
RTVSPropertyOp16
 70
     1
102
RTVSPropertyOp17
 70
     1
102
RTVSPropertyOp18
 70
     1
102
RTVSPropertyOp19
 70
     1
102
RTVSPropertyOp20
 70
     1
102
RTVSPropertyOp21
 70
     1
102
RTVSPropertyOp22
 70
     1
102
RTVSPropertyOp23
 70
     1
102
RTVSPropertyOp24
 70
     1
102
RTVSPropertyOp25
 70
     1
102
RTVSPropertyOp26
 70
     1
102
RTVSPropertyOp27
 70
     1
102
RTVSPropertyOp28
 70
     1
102
RTVSPropertyOp29
 70
     1
102
RTVSPropertyOp30
 70
     1
102
RTVSPropertyOp31
 70
     1
102
RTVSPropertyOp32
 70
     1
102
RTVSPropertyOp33
 70
     1
102
RTVSPropertyOp34
 70
     1
102
RTVSPropertyOp35
 70
     1
102
RTVSPropertyOp36
 70
     1
102
RTVSPropertyOp37
 70
     1
102
RTVSPropertyOp38
 70
     1
102
RTVSPropertyOp39
 70
     1
102
RTVSPropertyOp40
 70
     1
102
RTVSPropertyOp41
 70
     1
102
RTVSPropertyOp42
 70
     1
102
RTVSPropertyOp43
 70
     1
102
RTVSPropertyOp44
 70
     1
102
RTVSPropertyOp45
 70
     1
102
RTVSPropertyOp46
 70
     1
102
RTVSPropertyOp47
 70
     1
102
RTVSPropertyOp48
 70
     1
102
RTVSPropertyOp49
 70
     1
102
RTVSPropertyOp50
 70
     1
102
RTVSPropertyOp51
 70
     0
102
RTVSPropertyOp52
 70
     0
102
RTVSPropertyOp53
 70
     1
102
RTVSPropertyOp54
 70
     1
102
RTVSPropertyOp55
 70
     1
102
RTVSPropertyOp56
 70
     1
102
RTVSPropertyOp57
 70
     1
102
RTVSPropertyOp58
 70
     1
102
RTVSPropertyOp59
 70
     1
102
RTVSPropertyOp60
 70
     1
102
RTVSPropertyOp61
 70
     1
102
RTVSPropertyOp62
 70
     1
  0
XRECORD
  5
BDC
102
{ACAD_REACTORS
330
BDB
102
}
330
BDB
100
AcDbXrecord
280
     1
102
RTVSPost2010Prop28
280
     0
102
RTVSPost2010PropOp28
 70
     1
102
RTVSPost2010Prop29
280
     1
102
RTVSPost2010PropOp29
 70
     1
102
RTVSPost2010Prop30
280
     1
102
RTVSPost2010PropOp30
 70
     1
102
RTVSPost2010Prop31
280
     0
102
RTVSPost2010PropOp31
 70
     1
102
RTVSPost2010Prop32
280
     0
102
RTVSPost2010PropOp32
 70
     1
102
RTVSPost2010Prop33
280
     0
102
RTVSPost2010PropOp33
 70
     1
102
RTVSPost2010Prop34
280
     0
102
RTVSPost2010PropOp34
 70
     1
102
RTVSPost2010Prop35
280
     0
102
RTVSPost2010PropOp35
 70
     1
102
RTVSPost2010Prop36
280
     0
102
RTVSPost2010PropOp36
 70
     1
102
RTVSPost2010Prop37
 90
       50
102
RTVSPost2010PropOp37
 70
     0
102
RTVSPost2010Prop38
140
0.0
102
RTVSPost2010PropOp38
 70
     0
102
RTVSPost2010Prop39
140
1.0
102
RTVSPost2010PropOp39
 70
     0
102
RTVSPost2010Prop40
 90
        0
102
RTVSPost2010PropOp40
 70
     0
102
RTVSPost2010Prop41ColorIndex
 90
       18
102
RTVSPost2010Prop41ColorRGB
 90
        0
102
RTVSPost2010PropOp41
 70
     0
102
RTVSPost2010Prop42
 90
       50
102
RTVSPost2010PropOp42
 70
     0
102
RTVSPost2010Prop43
 90
        3
102
RTVSPost2010PropOp43
 70
     0
102
RTVSPost2010Prop44ColorIndex
 90
        5
102
RTVSPost2010Prop44ColorRGB
 90
      255
102
RTVSPost2010PropOp44
 70
     0
102
RTVSPost2010Prop45
280
     0
102
RTVSPost2010PropOp45
 70
     1
102
RTVSPost2010Prop46
 90
       50
102
RTVSPost2010PropOp46
 70
     0
102
RTVSPost2010Prop47
 90
       50
102
RTVSPost2010PropOp47
 70
     0
102
RTVSPost2010Prop48
 90
       50
102
RTVSPost2010PropOp48
 70
     0
102
RTVSPost2010Prop49
280
     0
102
RTVSPost2010PropOp49
 70
     1
102
RTVSPost2010Prop50
 90
       50
102
RTVSPost2010PropOp50
 70
     0
102
RTVSPost2010Prop51ColorIndex
 90
      256
102
RTVSPost2010Prop51ColorRGB
 90
-16777216
102
RTVSPost2010PropOp51
 70
     0
102
RTVSPost2010Prop52
140
1.0
102
RTVSPost2010PropOp52
 70
     0
102
RTVSPost2010Prop53
 90
        2
102
RTVSPost2010PropOp53
 70
     0
102
RTVSPost2010Prop54
  1
strokes_ogs.tif
102
RTVSPost2010PropOp54
 70
     0
102
RTVSPost2010Prop55
280
     0
102
RTVSPost2010PropOp55
 70
     1
102
RTVSPost2010Prop56
140
1.0
102
RTVSPost2010PropOp56
 70
     0
102
RTVSPost2010Prop57
140
1.0
102
RTVSPost2010PropOp57
 70
     0
102
RTVSPropertyOp0
 70
     0
102
RTVSPropertyOp1
 70
     0
102
RTVSPropertyOp2
 70
     0
102
RTVSPropertyOp3
 70
     0
102
RTVSPropertyOp4
 70
     0
102
RTVSPropertyOp5
 70
     0
102
RTVSPropertyOp6
 70
     0
102
RTVSPropertyOp7
 70
     0
102
RTVSPropertyOp8
 70
     0
102
RTVSPropertyOp9
 70
     0
102
RTVSPropertyOp10
 70
     0
102
RTVSPropertyOp11
 70
     0
102
RTVSPropertyOp12
 70
     0
102
RTVSPropertyOp13
 70
     0
102
RTVSPropertyOp14
 70
     2
102
RTVSPropertyOp15
 70
     0
102
RTVSPropertyOp16
 70
     0
102
RTVSPropertyOp17
 70
     0
102
RTVSPropertyOp18
 70
     0
102
RTVSPropertyOp19
 70
     0
102
RTVSPropertyOp20
 70
     0
102
RTVSPropertyOp21
 70
     0
102
RTVSPropertyOp22
 70
     0
102
RTVSPropertyOp23
 70
     0
102
RTVSPropertyOp24
 70
     0
102
RTVSPropertyOp25
 70
     0
102
RTVSPropertyOp26
 70
     0
102
RTVSPropertyOp27
 70
     0
102
RTVSPropertyOp28
 70
     1
102
RTVSPropertyOp29
 70
     1
102
RTVSPropertyOp30
 70
     1
102
RTVSPropertyOp31
 70
     1
102
RTVSPropertyOp32
 70
     1
102
RTVSPropertyOp33
 70
     1
102
RTVSPropertyOp34
 70
     1
102
RTVSPropertyOp35
 70
     1
102
RTVSPropertyOp36
 70
     1
102
RTVSPropertyOp37
 70
     0
102
RTVSPropertyOp38
 70
     0
102
RTVSPropertyOp39
 70
     0
102
RTVSPropertyOp40
 70
     0
102
RTVSPropertyOp41
 70
     0
102
RTVSPropertyOp42
 70
     0
102
RTVSPropertyOp43
 70
     0
102
RTVSPropertyOp44
 70
     0
102
RTVSPropertyOp45
 70
     1
102
RTVSPropertyOp46
 70
     0
102
RTVSPropertyOp47
 70
     0
102
RTVSPropertyOp48
 70
     0
102
RTVSPropertyOp49
 70
     1
102
RTVSPropertyOp50
 70
     0
102
RTVSPropertyOp51
 70
     0
102
RTVSPropertyOp52
 70
     0
102
RTVSPropertyOp53
 70
     0
102
RTVSPropertyOp54
 70
     0
102
RTVSPropertyOp55
 70
     1
102
RTVSPropertyOp56
 70
     0
102
RTVSPropertyOp57
 70
     0
102
RTVSPropertyOp58
 70
     1
102
RTVSPropertyOp59
 70
     1
102
RTVSPropertyOp60
 70
     1
102
RTVSPropertyOp61
 70
     1
102
RTVSPropertyOp62
 70
     1
  0
XRECORD
  5
BCA
102
{ACAD_REACTORS
330
BC9
102
}
330
BC9
100
AcDbXrecord
280
     1
102
RTVSPost2010Prop28
280
     0
102
RTVSPost2010PropOp28
 70
     1
102
RTVSPost2010Prop29
280
     1
102
RTVSPost2010PropOp29
 70
     1
102
RTVSPost2010Prop30
280
     1
102
RTVSPost2010PropOp30
 70
     1
102
RTVSPost2010Prop31
280
     0
102
RTVSPost2010PropOp31
 70
     1
102
RTVSPost2010Prop32
280
     0
102
RTVSPost2010PropOp32
 70
     1
102
RTVSPost2010Prop33
280
     0
102
RTVSPost2010PropOp33
 70
     1
102
RTVSPost2010Prop34
280
     0
102
RTVSPost2010PropOp34
 70
     1
102
RTVSPost2010Prop35
280
     0
102
RTVSPost2010PropOp35
 70
     1
102
RTVSPost2010Prop36
280
     0
102
RTVSPost2010PropOp36
 70
     1
102
RTVSPost2010Prop37
 90
       50
102
RTVSPost2010PropOp37
 70
     1
102
RTVSPost2010Prop38
140
0.0
102
RTVSPost2010PropOp38
 70
     1
102
RTVSPost2010Prop39
140
1.0
102
RTVSPost2010PropOp39
 70
     1
102
RTVSPost2010Prop40
 90
        0
102
RTVSPost2010PropOp40
 70
     1
102
RTVSPost2010Prop41ColorIndex
 90
       18
102
RTVSPost2010Prop41ColorRGB
 90
        0
102
RTVSPost2010PropOp41
 70
     1
102
RTVSPost2010Prop42
 90
       50
102
RTVSPost2010PropOp42
 70
     1
102
RTVSPost2010Prop43
 90
        3
102
RTVSPost2010PropOp43
 70
     1
102
RTVSPost2010Prop44ColorIndex
 90
        5
102
RTVSPost2010Prop44ColorRGB
 90
      255
102
RTVSPost2010PropOp44
 70
     1
102
RTVSPost2010Prop45
280
     0
102
RTVSPost2010PropOp45
 70
     1
102
RTVSPost2010Prop46
 90
       50
102
RTVSPost2010PropOp46
 70
     1
102
RTVSPost2010Prop47
 90
       50
102
RTVSPost2010PropOp47
 70
     1
102
RTVSPost2010Prop48
 90
       50
102
RTVSPost2010PropOp48
 70
     1
102
RTVSPost2010Prop49
280
     0
102
RTVSPost2010PropOp49
 70
     1
102
RTVSPost2010Prop50
 90
       50
102
RTVSPost2010PropOp50
 70
     1
102
RTVSPost2010Prop51ColorIndex
 90
      256
102
RTVSPost2010Prop51ColorRGB
 90
-16777216
102
RTVSPost2010PropOp51
 70
     0
102
RTVSPost2010Prop52
140
1.0
102
RTVSPost2010PropOp52
 70
     0
102
RTVSPost2010Prop53
 90
        2
102
RTVSPost2010PropOp53
 70
     1
102
RTVSPost2010Prop54
  1
strokes_ogs.tif
102
RTVSPost2010PropOp54
 70
     1
102
RTVSPost2010Prop55
280
     0
102
RTVSPost2010PropOp55
 70
     1
102
RTVSPost2010Prop56
140
1.0
102
RTVSPost2010PropOp56
 70
     1
102
RTVSPost2010Prop57
140
1.0
102
RTVSPost2010PropOp57
 70
     1
102
RTVSPropertyOp0
 70
     1
102
RTVSPropertyOp1
 70
     1
102
RTVSPropertyOp2
 70
     1
102
RTVSPropertyOp3
 70
     1
102
RTVSPropertyOp4
 70
     1
102
RTVSPropertyOp5
 70
     1
102
RTVSPropertyOp6
 70
     1
102
RTVSPropertyOp7
 70
     1
102
RTVSPropertyOp8
 70
     1
102
RTVSPropertyOp9
 70
     1
102
RTVSPropertyOp10
 70
     1
102
RTVSPropertyOp11
 70
     1
102
RTVSPropertyOp12
 70
     1
102
RTVSPropertyOp13
 70
     1
102
RTVSPropertyOp14
 70
     1
102
RTVSPropertyOp15
 70
     1
102
RTVSPropertyOp16
 70
     1
102
RTVSPropertyOp17
 70
     1
102
RTVSPropertyOp18
 70
     1
102
RTVSPropertyOp19
 70
     1
102
RTVSPropertyOp20
 70
     1
102
RTVSPropertyOp21
 70
     1
102
RTVSPropertyOp22
 70
     1
102
RTVSPropertyOp23
 70
     1
102
RTVSPropertyOp24
 70
     1
102
RTVSPropertyOp25
 70
     1
102
RTVSPropertyOp26
 70
     1
102
RTVSPropertyOp27
 70
     1
102
RTVSPropertyOp28
 70
     1
102
RTVSPropertyOp29
 70
     1
102
RTVSPropertyOp30
 70
     1
102
RTVSPropertyOp31
 70
     1
102
RTVSPropertyOp32
 70
     1
102
RTVSPropertyOp33
 70
     1
102
RTVSPropertyOp34
 70
     1
102
RTVSPropertyOp35
 70
     1
102
RTVSPropertyOp36
 70
     1
102
RTVSPropertyOp37
 70
     1
102
RTVSPropertyOp38
 70
     1
102
RTVSPropertyOp39
 70
     1
102
RTVSPropertyOp40
 70
     1
102
RTVSPropertyOp41
 70
     1
102
RTVSPropertyOp42
 70
     1
102
RTVSPropertyOp43
 70
     1
102
RTVSPropertyOp44
 70
     1
102
RTVSPropertyOp45
 70
     1
102
RTVSPropertyOp46
 70
     1
102
RTVSPropertyOp47
 70
     1
102
RTVSPropertyOp48
 70
     1
102
RTVSPropertyOp49
 70
     1
102
RTVSPropertyOp50
 70
     1
102
RTVSPropertyOp51
 70
     0
102
RTVSPropertyOp52
 70
     0
102
RTVSPropertyOp53
 70
     1
102
RTVSPropertyOp54
 70
     1
102
RTVSPropertyOp55
 70
     1
102
RTVSPropertyOp56
 70
     1
102
RTVSPropertyOp57
 70
     1
102
RTVSPropertyOp58
 70
     1
102
RTVSPropertyOp59
 70
     1
102
RTVSPropertyOp60
 70
     1
102
RTVSPropertyOp61
 70
     1
102
RTVSPropertyOp62
 70
     1
  0
XRECORD
  5
BAE
102
{ACAD_REACTORS
330
BAD
102
}
330
BAD
100
AcDbXrecord
280
     1
102
RTVSPost2010Prop28
280
     0
102
RTVSPost2010PropOp28
 70
     1
102
RTVSPost2010Prop29
280
     1
102
RTVSPost2010PropOp29
 70
     1
102
RTVSPost2010Prop30
280
     1
102
RTVSPost2010PropOp30
 70
     1
102
RTVSPost2010Prop31
280
     0
102
RTVSPost2010PropOp31
 70
     1
102
RTVSPost2010Prop32
280
     0
102
RTVSPost2010PropOp32
 70
     1
102
RTVSPost2010Prop33
280
     0
102
RTVSPost2010PropOp33
 70
     1
102
RTVSPost2010Prop34
280
     0
102
RTVSPost2010PropOp34
 70
     1
102
RTVSPost2010Prop35
280
     0
102
RTVSPost2010PropOp35
 70
     1
102
RTVSPost2010Prop36
280
     0
102
RTVSPost2010PropOp36
 70
     1
102
RTVSPost2010Prop37
 90
       50
102
RTVSPost2010PropOp37
 70
     1
102
RTVSPost2010Prop38
140
0.0
102
RTVSPost2010PropOp38
 70
     1
102
RTVSPost2010Prop39
140
1.0
102
RTVSPost2010PropOp39
 70
     1
102
RTVSPost2010Prop40
 90
        0
102
RTVSPost2010PropOp40
 70
     1
102
RTVSPost2010Prop41ColorIndex
 90
       18
102
RTVSPost2010Prop41ColorRGB
 90
        0
102
RTVSPost2010PropOp41
 70
     1
102
RTVSPost2010Prop42
 90
       50
102
RTVSPost2010PropOp42
 70
     1
102
RTVSPost2010Prop43
 90
        3
102
RTVSPost2010PropOp43
 70
     1
102
RTVSPost2010Prop44ColorIndex
 90
        5
102
RTVSPost2010Prop44ColorRGB
 90
      255
102
RTVSPost2010PropOp44
 70
     1
102
RTVSPost2010Prop45
280
     0
102
RTVSPost2010PropOp45
 70
     1
102
RTVSPost2010Prop46
 90
       50
102
RTVSPost2010PropOp46
 70
     1
102
RTVSPost2010Prop47
 90
       50
102
RTVSPost2010PropOp47
 70
     1
102
RTVSPost2010Prop48
 90
       50
102
RTVSPost2010PropOp48
 70
     1
102
RTVSPost2010Prop49
280
     0
102
RTVSPost2010PropOp49
 70
     1
102
RTVSPost2010Prop50
 90
       50
102
RTVSPost2010PropOp50
 70
     1
102
RTVSPost2010Prop51ColorIndex
 90
      256
102
RTVSPost2010Prop51ColorRGB
 90
-16777216
102
RTVSPost2010PropOp51
 70
     0
102
RTVSPost2010Prop52
140
1.0
102
RTVSPost2010PropOp52
 70
     0
102
RTVSPost2010Prop53
 90
        2
102
RTVSPost2010PropOp53
 70
     1
102
RTVSPost2010Prop54
  1
strokes_ogs.tif
102
RTVSPost2010PropOp54
 70
     1
102
RTVSPost2010Prop55
280
     0
102
RTVSPost2010PropOp55
 70
     1
102
RTVSPost2010Prop56
140
1.0
102
RTVSPost2010PropOp56
 70
     1
102
RTVSPost2010Prop57
140
1.0
102
RTVSPost2010PropOp57
 70
     1
102
RTVSPropertyOp0
 70
     1
102
RTVSPropertyOp1
 70
     1
102
RTVSPropertyOp2
 70
     1
102
RTVSPropertyOp3
 70
     1
102
RTVSPropertyOp4
 70
     1
102
RTVSPropertyOp5
 70
     1
102
RTVSPropertyOp6
 70
     1
102
RTVSPropertyOp7
 70
     1
102
RTVSPropertyOp8
 70
     1
102
RTVSPropertyOp9
 70
     1
102
RTVSPropertyOp10
 70
     1
102
RTVSPropertyOp11
 70
     1
102
RTVSPropertyOp12
 70
     1
102
RTVSPropertyOp13
 70
     1
102
RTVSPropertyOp14
 70
     1
102
RTVSPropertyOp15
 70
     1
102
RTVSPropertyOp16
 70
     1
102
RTVSPropertyOp17
 70
     1
102
RTVSPropertyOp18
 70
     1
102
RTVSPropertyOp19
 70
     1
102
RTVSPropertyOp20
 70
     1
102
RTVSPropertyOp21
 70
     1
102
RTVSPropertyOp22
 70
     1
102
RTVSPropertyOp23
 70
     1
102
RTVSPropertyOp24
 70
     1
102
RTVSPropertyOp25
 70
     1
102
RTVSPropertyOp26
 70
     1
102
RTVSPropertyOp27
 70
     1
102
RTVSPropertyOp28
 70
     1
102
RTVSPropertyOp29
 70
     1
102
RTVSPropertyOp30
 70
     1
102
RTVSPropertyOp31
 70
     1
102
RTVSPropertyOp32
 70
     1
102
RTVSPropertyOp33
 70
     1
102
RTVSPropertyOp34
 70
     1
102
RTVSPropertyOp35
 70
     1
102
RTVSPropertyOp36
 70
     1
102
RTVSPropertyOp37
 70
     1
102
RTVSPropertyOp38
 70
     1
102
RTVSPropertyOp39
 70
     1
102
RTVSPropertyOp40
 70
     1
102
RTVSPropertyOp41
 70
     1
102
RTVSPropertyOp42
 70
     1
102
RTVSPropertyOp43
 70
     1
102
RTVSPropertyOp44
 70
     1
102
RTVSPropertyOp45
 70
     1
102
RTVSPropertyOp46
 70
     1
102
RTVSPropertyOp47
 70
     1
102
RTVSPropertyOp48
 70
     1
102
RTVSPropertyOp49
 70
     1
102
RTVSPropertyOp50
 70
     1
102
RTVSPropertyOp51
 70
     0
102
RTVSPropertyOp52
 70
     0
102
RTVSPropertyOp53
 70
     1
102
RTVSPropertyOp54
 70
     1
102
RTVSPropertyOp55
 70
     1
102
RTVSPropertyOp56
 70
     1
102
RTVSPropertyOp57
 70
     1
102
RTVSPropertyOp58
 70
     1
102
RTVSPropertyOp59
 70
     1
102
RTVSPropertyOp60
 70
     1
102
RTVSPropertyOp61
 70
     1
102
RTVSPropertyOp62
 70
     1
  0
XRECORD
  5
BB0
102
{ACAD_REACTORS
330
BAF
102
}
330
BAF
100
AcDbXrecord
280
     1
102
RTVSPost2010Prop28
280
     0
102
RTVSPost2010PropOp28
 70
     1
102
RTVSPost2010Prop29
280
     1
102
RTVSPost2010PropOp29
 70
     1
102
RTVSPost2010Prop30
280
     1
102
RTVSPost2010PropOp30
 70
     1
102
RTVSPost2010Prop31
280
     0
102
RTVSPost2010PropOp31
 70
     1
102
RTVSPost2010Prop32
280
     0
102
RTVSPost2010PropOp32
 70
     1
102
RTVSPost2010Prop33
280
     0
102
RTVSPost2010PropOp33
 70
     1
102
RTVSPost2010Prop34
280
     0
102
RTVSPost2010PropOp34
 70
     1
102
RTVSPost2010Prop35
280
     0
102
RTVSPost2010PropOp35
 70
     1
102
RTVSPost2010Prop36
280
     0
102
RTVSPost2010PropOp36
 70
     1
102
RTVSPost2010Prop37
 90
       50
102
RTVSPost2010PropOp37
 70
     1
102
RTVSPost2010Prop38
140
0.0
102
RTVSPost2010PropOp38
 70
     1
102
RTVSPost2010Prop39
140
1.0
102
RTVSPost2010PropOp39
 70
     1
102
RTVSPost2010Prop40
 90
        0
102
RTVSPost2010PropOp40
 70
     1
102
RTVSPost2010Prop41ColorIndex
 90
       18
102
RTVSPost2010Prop41ColorRGB
 90
        0
102
RTVSPost2010PropOp41
 70
     1
102
RTVSPost2010Prop42
 90
       50
102
RTVSPost2010PropOp42
 70
     1
102
RTVSPost2010Prop43
 90
        3
102
RTVSPost2010PropOp43
 70
     1
102
RTVSPost2010Prop44ColorIndex
 90
        5
102
RTVSPost2010Prop44ColorRGB
 90
      255
102
RTVSPost2010PropOp44
 70
     1
102
RTVSPost2010Prop45
280
     0
102
RTVSPost2010PropOp45
 70
     1
102
RTVSPost2010Prop46
 90
       50
102
RTVSPost2010PropOp46
 70
     1
102
RTVSPost2010Prop47
 90
       50
102
RTVSPost2010PropOp47
 70
     1
102
RTVSPost2010Prop48
 90
       50
102
RTVSPost2010PropOp48
 70
     1
102
RTVSPost2010Prop49
280
     0
102
RTVSPost2010PropOp49
 70
     1
102
RTVSPost2010Prop50
 90
       50
102
RTVSPost2010PropOp50
 70
     1
102
RTVSPost2010Prop51ColorIndex
 90
      256
102
RTVSPost2010Prop51ColorRGB
 90
-16777216
102
RTVSPost2010PropOp51
 70
     0
102
RTVSPost2010Prop52
140
1.0
102
RTVSPost2010PropOp52
 70
     0
102
RTVSPost2010Prop53
 90
        2
102
RTVSPost2010PropOp53
 70
     1
102
RTVSPost2010Prop54
  1
strokes_ogs.tif
102
RTVSPost2010PropOp54
 70
     1
102
RTVSPost2010Prop55
280
     0
102
RTVSPost2010PropOp55
 70
     1
102
RTVSPost2010Prop56
140
1.0
102
RTVSPost2010PropOp56
 70
     1
102
RTVSPost2010Prop57
140
1.0
102
RTVSPost2010PropOp57
 70
     1
102
RTVSPropertyOp0
 70
     1
102
RTVSPropertyOp1
 70
     1
102
RTVSPropertyOp2
 70
     1
102
RTVSPropertyOp3
 70
     1
102
RTVSPropertyOp4
 70
     1
102
RTVSPropertyOp5
 70
     1
102
RTVSPropertyOp6
 70
     1
102
RTVSPropertyOp7
 70
     1
102
RTVSPropertyOp8
 70
     1
102
RTVSPropertyOp9
 70
     1
102
RTVSPropertyOp10
 70
     1
102
RTVSPropertyOp11
 70
     1
102
RTVSPropertyOp12
 70
     1
102
RTVSPropertyOp13
 70
     1
102
RTVSPropertyOp14
 70
     1
102
RTVSPropertyOp15
 70
     1
102
RTVSPropertyOp16
 70
     1
102
RTVSPropertyOp17
 70
     1
102
RTVSPropertyOp18
 70
     1
102
RTVSPropertyOp19
 70
     1
102
RTVSPropertyOp20
 70
     1
102
RTVSPropertyOp21
 70
     1
102
RTVSPropertyOp22
 70
     1
102
RTVSPropertyOp23
 70
     1
102
RTVSPropertyOp24
 70
     1
102
RTVSPropertyOp25
 70
     1
102
RTVSPropertyOp26
 70
     1
102
RTVSPropertyOp27
 70
     1
102
RTVSPropertyOp28
 70
     1
102
RTVSPropertyOp29
 70
     1
102
RTVSPropertyOp30
 70
     1
102
RTVSPropertyOp31
 70
     1
102
RTVSPropertyOp32
 70
     1
102
RTVSPropertyOp33
 70
     1
102
RTVSPropertyOp34
 70
     1
102
RTVSPropertyOp35
 70
     1
102
RTVSPropertyOp36
 70
     1
102
RTVSPropertyOp37
 70
     1
102
RTVSPropertyOp38
 70
     1
102
RTVSPropertyOp39
 70
     1
102
RTVSPropertyOp40
 70
     1
102
RTVSPropertyOp41
 70
     1
102
RTVSPropertyOp42
 70
     1
102
RTVSPropertyOp43
 70
     1
102
RTVSPropertyOp44
 70
     1
102
RTVSPropertyOp45
 70
     1
102
RTVSPropertyOp46
 70
     1
102
RTVSPropertyOp47
 70
     1
102
RTVSPropertyOp48
 70
     1
102
RTVSPropertyOp49
 70
     1
102
RTVSPropertyOp50
 70
     1
102
RTVSPropertyOp51
 70
     0
102
RTVSPropertyOp52
 70
     0
102
RTVSPropertyOp53
 70
     1
102
RTVSPropertyOp54
 70
     1
102
RTVSPropertyOp55
 70
     1
102
RTVSPropertyOp56
 70
     1
102
RTVSPropertyOp57
 70
     1
102
RTVSPropertyOp58
 70
     1
102
RTVSPropertyOp59
 70
     1
102
RTVSPropertyOp60
 70
     1
102
RTVSPropertyOp61
 70
     1
102
RTVSPropertyOp62
 70
     1
  0
XRECORD
  5
BB2
102
{ACAD_REACTORS
330
BB1
102
}
330
BB1
100
AcDbXrecord
280
     1
102
RTVSPost2010Prop28
280
     0
102
RTVSPost2010PropOp28
 70
     1
102
RTVSPost2010Prop29
280
     1
102
RTVSPost2010PropOp29
 70
     1
102
RTVSPost2010Prop30
280
     1
102
RTVSPost2010PropOp30
 70
     1
102
RTVSPost2010Prop31
280
     0
102
RTVSPost2010PropOp31
 70
     1
102
RTVSPost2010Prop32
280
     0
102
RTVSPost2010PropOp32
 70
     1
102
RTVSPost2010Prop33
280
     0
102
RTVSPost2010PropOp33
 70
     1
102
RTVSPost2010Prop34
280
     0
102
RTVSPost2010PropOp34
 70
     1
102
RTVSPost2010Prop35
280
     0
102
RTVSPost2010PropOp35
 70
     1
102
RTVSPost2010Prop36
280
     0
102
RTVSPost2010PropOp36
 70
     1
102
RTVSPost2010Prop37
 90
       50
102
RTVSPost2010PropOp37
 70
     1
102
RTVSPost2010Prop38
140
0.0
102
RTVSPost2010PropOp38
 70
     1
102
RTVSPost2010Prop39
140
1.0
102
RTVSPost2010PropOp39
 70
     1
102
RTVSPost2010Prop40
 90
        0
102
RTVSPost2010PropOp40
 70
     1
102
RTVSPost2010Prop41ColorIndex
 90
       18
102
RTVSPost2010Prop41ColorRGB
 90
        0
102
RTVSPost2010PropOp41
 70
     1
102
RTVSPost2010Prop42
 90
       50
102
RTVSPost2010PropOp42
 70
     1
102
RTVSPost2010Prop43
 90
        3
102
RTVSPost2010PropOp43
 70
     1
102
RTVSPost2010Prop44ColorIndex
 90
        5
102
RTVSPost2010Prop44ColorRGB
 90
      255
102
RTVSPost2010PropOp44
 70
     1
102
RTVSPost2010Prop45
280
     0
102
RTVSPost2010PropOp45
 70
     1
102
RTVSPost2010Prop46
 90
       50
102
RTVSPost2010PropOp46
 70
     1
102
RTVSPost2010Prop47
 90
       50
102
RTVSPost2010PropOp47
 70
     1
102
RTVSPost2010Prop48
 90
       50
102
RTVSPost2010PropOp48
 70
     1
102
RTVSPost2010Prop49
280
     0
102
RTVSPost2010PropOp49
 70
     1
102
RTVSPost2010Prop50
 90
       50
102
RTVSPost2010PropOp50
 70
     1
102
RTVSPost2010Prop51ColorIndex
 90
      256
102
RTVSPost2010Prop51ColorRGB
 90
-16777216
102
RTVSPost2010PropOp51
 70
     0
102
RTVSPost2010Prop52
140
1.0
102
RTVSPost2010PropOp52
 70
     0
102
RTVSPost2010Prop53
 90
        2
102
RTVSPost2010PropOp53
 70
     1
102
RTVSPost2010Prop54
  1
strokes_ogs.tif
102
RTVSPost2010PropOp54
 70
     1
102
RTVSPost2010Prop55
280
     0
102
RTVSPost2010PropOp55
 70
     1
102
RTVSPost2010Prop56
140
1.0
102
RTVSPost2010PropOp56
 70
     1
102
RTVSPost2010Prop57
140
1.0
102
RTVSPost2010PropOp57
 70
     1
102
RTVSPropertyOp0
 70
     1
102
RTVSPropertyOp1
 70
     1
102
RTVSPropertyOp2
 70
     1
102
RTVSPropertyOp3
 70
     1
102
RTVSPropertyOp4
 70
     1
102
RTVSPropertyOp5
 70
     1
102
RTVSPropertyOp6
 70
     1
102
RTVSPropertyOp7
 70
     1
102
RTVSPropertyOp8
 70
     1
102
RTVSPropertyOp9
 70
     1
102
RTVSPropertyOp10
 70
     1
102
RTVSPropertyOp11
 70
     1
102
RTVSPropertyOp12
 70
     1
102
RTVSPropertyOp13
 70
     1
102
RTVSPropertyOp14
 70
     1
102
RTVSPropertyOp15
 70
     1
102
RTVSPropertyOp16
 70
     1
102
RTVSPropertyOp17
 70
     1
102
RTVSPropertyOp18
 70
     1
102
RTVSPropertyOp19
 70
     1
102
RTVSPropertyOp20
 70
     1
102
RTVSPropertyOp21
 70
     1
102
RTVSPropertyOp22
 70
     1
102
RTVSPropertyOp23
 70
     1
102
RTVSPropertyOp24
 70
     1
102
RTVSPropertyOp25
 70
     1
102
RTVSPropertyOp26
 70
     1
102
RTVSPropertyOp27
 70
     1
102
RTVSPropertyOp28
 70
     1
102
RTVSPropertyOp29
 70
     1
102
RTVSPropertyOp30
 70
     1
102
RTVSPropertyOp31
 70
     1
102
RTVSPropertyOp32
 70
     1
102
RTVSPropertyOp33
 70
     1
102
RTVSPropertyOp34
 70
     1
102
RTVSPropertyOp35
 70
     1
102
RTVSPropertyOp36
 70
     1
102
RTVSPropertyOp37
 70
     1
102
RTVSPropertyOp38
 70
     1
102
RTVSPropertyOp39
 70
     1
102
RTVSPropertyOp40
 70
     1
102
RTVSPropertyOp41
 70
     1
102
RTVSPropertyOp42
 70
     1
102
RTVSPropertyOp43
 70
     1
102
RTVSPropertyOp44
 70
     1
102
RTVSPropertyOp45
 70
     1
102
RTVSPropertyOp46
 70
     1
102
RTVSPropertyOp47
 70
     1
102
RTVSPropertyOp48
 70
     1
102
RTVSPropertyOp49
 70
     1
102
RTVSPropertyOp50
 70
     1
102
RTVSPropertyOp51
 70
     0
102
RTVSPropertyOp52
 70
     0
102
RTVSPropertyOp53
 70
     1
102
RTVSPropertyOp54
 70
     1
102
RTVSPropertyOp55
 70
     1
102
RTVSPropertyOp56
 70
     1
102
RTVSPropertyOp57
 70
     1
102
RTVSPropertyOp58
 70
     1
102
RTVSPropertyOp59
 70
     1
102
RTVSPropertyOp60
 70
     1
102
RTVSPropertyOp61
 70
     1
102
RTVSPropertyOp62
 70
     1
  0
XRECORD
  5
BB4
102
{ACAD_REACTORS
330
BB3
102
}
330
BB3
100
AcDbXrecord
280
     1
102
RTVSPost2010Prop28
280
     0
102
RTVSPost2010PropOp28
 70
     1
102
RTVSPost2010Prop29
280
     1
102
RTVSPost2010PropOp29
 70
     1
102
RTVSPost2010Prop30
280
     1
102
RTVSPost2010PropOp30
 70
     1
102
RTVSPost2010Prop31
280
     0
102
RTVSPost2010PropOp31
 70
     1
102
RTVSPost2010Prop32
280
     0
102
RTVSPost2010PropOp32
 70
     1
102
RTVSPost2010Prop33
280
     0
102
RTVSPost2010PropOp33
 70
     1
102
RTVSPost2010Prop34
280
     0
102
RTVSPost2010PropOp34
 70
     1
102
RTVSPost2010Prop35
280
     0
102
RTVSPost2010PropOp35
 70
     1
102
RTVSPost2010Prop36
280
     0
102
RTVSPost2010PropOp36
 70
     1
102
RTVSPost2010Prop37
 90
       50
102
RTVSPost2010PropOp37
 70
     1
102
RTVSPost2010Prop38
140
0.0
102
RTVSPost2010PropOp38
 70
     1
102
RTVSPost2010Prop39
140
1.0
102
RTVSPost2010PropOp39
 70
     1
102
RTVSPost2010Prop40
 90
        0
102
RTVSPost2010PropOp40
 70
     1
102
RTVSPost2010Prop41ColorIndex
 90
       18
102
RTVSPost2010Prop41ColorRGB
 90
        0
102
RTVSPost2010PropOp41
 70
     1
102
RTVSPost2010Prop42
 90
       50
102
RTVSPost2010PropOp42
 70
     1
102
RTVSPost2010Prop43
 90
        3
102
RTVSPost2010PropOp43
 70
     1
102
RTVSPost2010Prop44ColorIndex
 90
        5
102
RTVSPost2010Prop44ColorRGB
 90
      255
102
RTVSPost2010PropOp44
 70
     1
102
RTVSPost2010Prop45
280
     0
102
RTVSPost2010PropOp45
 70
     1
102
RTVSPost2010Prop46
 90
       50
102
RTVSPost2010PropOp46
 70
     1
102
RTVSPost2010Prop47
 90
       50
102
RTVSPost2010PropOp47
 70
     1
102
RTVSPost2010Prop48
 90
       50
102
RTVSPost2010PropOp48
 70
     1
102
RTVSPost2010Prop49
280
     0
102
RTVSPost2010PropOp49
 70
     1
102
RTVSPost2010Prop50
 90
       50
102
RTVSPost2010PropOp50
 70
     1
102
RTVSPost2010Prop51ColorIndex
 90
      256
102
RTVSPost2010Prop51ColorRGB
 90
-16777216
102
RTVSPost2010PropOp51
 70
     0
102
RTVSPost2010Prop52
140
1.0
102
RTVSPost2010PropOp52
 70
     0
102
RTVSPost2010Prop53
 90
        2
102
RTVSPost2010PropOp53
 70
     1
102
RTVSPost2010Prop54
  1
strokes_ogs.tif
102
RTVSPost2010PropOp54
 70
     1
102
RTVSPost2010Prop55
280
     0
102
RTVSPost2010PropOp55
 70
     1
102
RTVSPost2010Prop56
140
1.0
102
RTVSPost2010PropOp56
 70
     1
102
RTVSPost2010Prop57
140
1.0
102
RTVSPost2010PropOp57
 70
     1
102
RTVSPropertyOp0
 70
     1
102
RTVSPropertyOp1
 70
     1
102
RTVSPropertyOp2
 70
     1
102
RTVSPropertyOp3
 70
     1
102
RTVSPropertyOp4
 70
     1
102
RTVSPropertyOp5
 70
     1
102
RTVSPropertyOp6
 70
     1
102
RTVSPropertyOp7
 70
     1
102
RTVSPropertyOp8
 70
     1
102
RTVSPropertyOp9
 70
     1
102
RTVSPropertyOp10
 70
     1
102
RTVSPropertyOp11
 70
     1
102
RTVSPropertyOp12
 70
     1
102
RTVSPropertyOp13
 70
     1
102
RTVSPropertyOp14
 70
     1
102
RTVSPropertyOp15
 70
     1
102
RTVSPropertyOp16
 70
     1
102
RTVSPropertyOp17
 70
     1
102
RTVSPropertyOp18
 70
     1
102
RTVSPropertyOp19
 70
     1
102
RTVSPropertyOp20
 70
     1
102
RTVSPropertyOp21
 70
     1
102
RTVSPropertyOp22
 70
     1
102
RTVSPropertyOp23
 70
     1
102
RTVSPropertyOp24
 70
     1
102
RTVSPropertyOp25
 70
     1
102
RTVSPropertyOp26
 70
     1
102
RTVSPropertyOp27
 70
     1
102
RTVSPropertyOp28
 70
     1
102
RTVSPropertyOp29
 70
     1
102
RTVSPropertyOp30
 70
     1
102
RTVSPropertyOp31
 70
     1
102
RTVSPropertyOp32
 70
     1
102
RTVSPropertyOp33
 70
     1
102
RTVSPropertyOp34
 70
     1
102
RTVSPropertyOp35
 70
     1
102
RTVSPropertyOp36
 70
     1
102
RTVSPropertyOp37
 70
     1
102
RTVSPropertyOp38
 70
     1
102
RTVSPropertyOp39
 70
     1
102
RTVSPropertyOp40
 70
     1
102
RTVSPropertyOp41
 70
     1
102
RTVSPropertyOp42
 70
     1
102
RTVSPropertyOp43
 70
     1
102
RTVSPropertyOp44
 70
     1
102
RTVSPropertyOp45
 70
     1
102
RTVSPropertyOp46
 70
     1
102
RTVSPropertyOp47
 70
     1
102
RTVSPropertyOp48
 70
     1
102
RTVSPropertyOp49
 70
     1
102
RTVSPropertyOp50
 70
     1
102
RTVSPropertyOp51
 70
     0
102
RTVSPropertyOp52
 70
     0
102
RTVSPropertyOp53
 70
     1
102
RTVSPropertyOp54
 70
     1
102
RTVSPropertyOp55
 70
     1
102
RTVSPropertyOp56
 70
     1
102
RTVSPropertyOp57
 70
     1
102
RTVSPropertyOp58
 70
     1
102
RTVSPropertyOp59
 70
     1
102
RTVSPropertyOp60
 70
     1
102
RTVSPropertyOp61
 70
     1
102
RTVSPropertyOp62
 70
     1
  0
XRECORD
  5
BBC
102
{ACAD_REACTORS
330
BBB
102
}
330
BBB
100
AcDbXrecord
280
     1
102
RTVSPost2010Prop28
280
     0
102
RTVSPost2010PropOp28
 70
     1
102
RTVSPost2010Prop29
280
     1
102
RTVSPost2010PropOp29
 70
     1
102
RTVSPost2010Prop30
280
     1
102
RTVSPost2010PropOp30
 70
     1
102
RTVSPost2010Prop31
280
     0
102
RTVSPost2010PropOp31
 70
     1
102
RTVSPost2010Prop32
280
     0
102
RTVSPost2010PropOp32
 70
     1
102
RTVSPost2010Prop33
280
     0
102
RTVSPost2010PropOp33
 70
     1
102
RTVSPost2010Prop34
280
     0
102
RTVSPost2010PropOp34
 70
     1
102
RTVSPost2010Prop35
280
     0
102
RTVSPost2010PropOp35
 70
     1
102
RTVSPost2010Prop36
280
     0
102
RTVSPost2010PropOp36
 70
     1
102
RTVSPost2010Prop37
 90
       50
102
RTVSPost2010PropOp37
 70
     1
102
RTVSPost2010Prop38
140
0.0
102
RTVSPost2010PropOp38
 70
     1
102
RTVSPost2010Prop39
140
1.0
102
RTVSPost2010PropOp39
 70
     1
102
RTVSPost2010Prop40
 90
        0
102
RTVSPost2010PropOp40
 70
     1
102
RTVSPost2010Prop41ColorIndex
 90
       18
102
RTVSPost2010Prop41ColorRGB
 90
        0
102
RTVSPost2010PropOp41
 70
     1
102
RTVSPost2010Prop42
 90
       50
102
RTVSPost2010PropOp42
 70
     1
102
RTVSPost2010Prop43
 90
        3
102
RTVSPost2010PropOp43
 70
     1
102
RTVSPost2010Prop44ColorIndex
 90
        5
102
RTVSPost2010Prop44ColorRGB
 90
      255
102
RTVSPost2010PropOp44
 70
     1
102
RTVSPost2010Prop45
280
     0
102
RTVSPost2010PropOp45
 70
     1
102
RTVSPost2010Prop46
 90
       50
102
RTVSPost2010PropOp46
 70
     1
102
RTVSPost2010Prop47
 90
       50
102
RTVSPost2010PropOp47
 70
     1
102
RTVSPost2010Prop48
 90
       50
102
RTVSPost2010PropOp48
 70
     1
102
RTVSPost2010Prop49
280
     0
102
RTVSPost2010PropOp49
 70
     1
102
RTVSPost2010Prop50
 90
       50
102
RTVSPost2010PropOp50
 70
     1
102
RTVSPost2010Prop51ColorIndex
 90
      256
102
RTVSPost2010Prop51ColorRGB
 90
-16777216
102
RTVSPost2010PropOp51
 70
     0
102
RTVSPost2010Prop52
140
1.0
102
RTVSPost2010PropOp52
 70
     0
102
RTVSPost2010Prop53
 90
        2
102
RTVSPost2010PropOp53
 70
     1
102
RTVSPost2010Prop54
  1
strokes_ogs.tif
102
RTVSPost2010PropOp54
 70
     1
102
RTVSPost2010Prop55
280
     0
102
RTVSPost2010PropOp55
 70
     1
102
RTVSPost2010Prop56
140
1.0
102
RTVSPost2010PropOp56
 70
     1
102
RTVSPost2010Prop57
140
1.0
102
RTVSPost2010PropOp57
 70
     1
102
RTVSPropertyOp0
 70
     1
102
RTVSPropertyOp1
 70
     1
102
RTVSPropertyOp2
 70
     1
102
RTVSPropertyOp3
 70
     1
102
RTVSPropertyOp4
 70
     1
102
RTVSPropertyOp5
 70
     1
102
RTVSPropertyOp6
 70
     1
102
RTVSPropertyOp7
 70
     1
102
RTVSPropertyOp8
 70
     1
102
RTVSPropertyOp9
 70
     1
102
RTVSPropertyOp10
 70
     1
102
RTVSPropertyOp11
 70
     1
102
RTVSPropertyOp12
 70
     1
102
RTVSPropertyOp13
 70
     1
102
RTVSPropertyOp14
 70
     1
102
RTVSPropertyOp15
 70
     1
102
RTVSPropertyOp16
 70
     1
102
RTVSPropertyOp17
 70
     1
102
RTVSPropertyOp18
 70
     1
102
RTVSPropertyOp19
 70
     1
102
RTVSPropertyOp20
 70
     1
102
RTVSPropertyOp21
 70
     1
102
RTVSPropertyOp22
 70
     1
102
RTVSPropertyOp23
 70
     1
102
RTVSPropertyOp24
 70
     1
102
RTVSPropertyOp25
 70
     1
102
RTVSPropertyOp26
 70
     1
102
RTVSPropertyOp27
 70
     1
102
RTVSPropertyOp28
 70
     1
102
RTVSPropertyOp29
 70
     1
102
RTVSPropertyOp30
 70
     1
102
RTVSPropertyOp31
 70
     1
102
RTVSPropertyOp32
 70
     1
102
RTVSPropertyOp33
 70
     1
102
RTVSPropertyOp34
 70
     1
102
RTVSPropertyOp35
 70
     1
102
RTVSPropertyOp36
 70
     1
102
RTVSPropertyOp37
 70
     1
102
RTVSPropertyOp38
 70
     1
102
RTVSPropertyOp39
 70
     1
102
RTVSPropertyOp40
 70
     1
102
RTVSPropertyOp41
 70
     1
102
RTVSPropertyOp42
 70
     1
102
RTVSPropertyOp43
 70
     1
102
RTVSPropertyOp44
 70
     1
102
RTVSPropertyOp45
 70
     1
102
RTVSPropertyOp46
 70
     1
102
RTVSPropertyOp47
 70
     1
102
RTVSPropertyOp48
 70
     1
102
RTVSPropertyOp49
 70
     1
102
RTVSPropertyOp50
 70
     1
102
RTVSPropertyOp51
 70
     0
102
RTVSPropertyOp52
 70
     0
102
RTVSPropertyOp53
 70
     1
102
RTVSPropertyOp54
 70
     1
102
RTVSPropertyOp55
 70
     1
102
RTVSPropertyOp56
 70
     1
102
RTVSPropertyOp57
 70
     1
102
RTVSPropertyOp58
 70
     1
102
RTVSPropertyOp59
 70
     1
102
RTVSPropertyOp60
 70
     1
102
RTVSPropertyOp61
 70
     1
102
RTVSPropertyOp62
 70
     1
  0
XRECORD
  5
BD8
102
{ACAD_REACTORS
330
BD7
102
}
330
BD7
100
AcDbXrecord
280
     1
102
RTVSPost2010Prop28
280
     0
102
RTVSPost2010PropOp28
 70
     1
102
RTVSPost2010Prop29
280
     1
102
RTVSPost2010PropOp29
 70
     1
102
RTVSPost2010Prop30
280
     1
102
RTVSPost2010PropOp30
 70
     1
102
RTVSPost2010Prop31
280
     0
102
RTVSPost2010PropOp31
 70
     1
102
RTVSPost2010Prop32
280
     0
102
RTVSPost2010PropOp32
 70
     1
102
RTVSPost2010Prop33
280
     0
102
RTVSPost2010PropOp33
 70
     1
102
RTVSPost2010Prop34
280
     0
102
RTVSPost2010PropOp34
 70
     1
102
RTVSPost2010Prop35
280
     0
102
RTVSPost2010PropOp35
 70
     1
102
RTVSPost2010Prop36
280
     0
102
RTVSPost2010PropOp36
 70
     1
102
RTVSPost2010Prop37
 90
       50
102
RTVSPost2010PropOp37
 70
     0
102
RTVSPost2010Prop38
140
0.0
102
RTVSPost2010PropOp38
 70
     0
102
RTVSPost2010Prop39
140
1.0
102
RTVSPost2010PropOp39
 70
     0
102
RTVSPost2010Prop40
 90
        0
102
RTVSPost2010PropOp40
 70
     0
102
RTVSPost2010Prop41ColorIndex
 90
       18
102
RTVSPost2010Prop41ColorRGB
 90
        0
102
RTVSPost2010PropOp41
 70
     0
102
RTVSPost2010Prop42
 90
       50
102
RTVSPost2010PropOp42
 70
     0
102
RTVSPost2010Prop43
 90
        3
102
RTVSPost2010PropOp43
 70
     0
102
RTVSPost2010Prop44ColorIndex
 90
        5
102
RTVSPost2010Prop44ColorRGB
 90
      255
102
RTVSPost2010PropOp44
 70
     0
102
RTVSPost2010Prop45
280
     0
102
RTVSPost2010PropOp45
 70
     1
102
RTVSPost2010Prop46
 90
       50
102
RTVSPost2010PropOp46
 70
     0
102
RTVSPost2010Prop47
 90
       50
102
RTVSPost2010PropOp47
 70
     0
102
RTVSPost2010Prop48
 90
       50
102
RTVSPost2010PropOp48
 70
     0
102
RTVSPost2010Prop49
280
     0
102
RTVSPost2010PropOp49
 70
     1
102
RTVSPost2010Prop50
 90
       50
102
RTVSPost2010PropOp50
 70
     0
102
RTVSPost2010Prop51ColorIndex
 90
      256
102
RTVSPost2010Prop51ColorRGB
 90
-16777216
102
RTVSPost2010PropOp51
 70
     0
102
RTVSPost2010Prop52
140
1.0
102
RTVSPost2010PropOp52
 70
     0
102
RTVSPost2010Prop53
 90
        2
102
RTVSPost2010PropOp53
 70
     0
102
RTVSPost2010Prop54
  1
strokes_ogs.tif
102
RTVSPost2010PropOp54
 70
     0
102
RTVSPost2010Prop55
280
     0
102
RTVSPost2010PropOp55
 70
     1
102
RTVSPost2010Prop56
140
1.0
102
RTVSPost2010PropOp56
 70
     0
102
RTVSPost2010Prop57
140
1.0
102
RTVSPost2010PropOp57
 70
     0
102
RTVSPropertyOp0
 70
     0
102
RTVSPropertyOp1
 70
     0
102
RTVSPropertyOp2
 70
     0
102
RTVSPropertyOp3
 70
     0
102
RTVSPropertyOp4
 70
     0
102
RTVSPropertyOp5
 70
     0
102
RTVSPropertyOp6
 70
     0
102
RTVSPropertyOp7
 70
     0
102
RTVSPropertyOp8
 70
     0
102
RTVSPropertyOp9
 70
     0
102
RTVSPropertyOp10
 70
     0
102
RTVSPropertyOp11
 70
     0
102
RTVSPropertyOp12
 70
     0
102
RTVSPropertyOp13
 70
     0
102
RTVSPropertyOp14
 70
     2
102
RTVSPropertyOp15
 70
     0
102
RTVSPropertyOp16
 70
     0
102
RTVSPropertyOp17
 70
     0
102
RTVSPropertyOp18
 70
     0
102
RTVSPropertyOp19
 70
     0
102
RTVSPropertyOp20
 70
     0
102
RTVSPropertyOp21
 70
     0
102
RTVSPropertyOp22
 70
     0
102
RTVSPropertyOp23
 70
     0
102
RTVSPropertyOp24
 70
     0
102
RTVSPropertyOp25
 70
     0
102
RTVSPropertyOp26
 70
     0
102
RTVSPropertyOp27
 70
     0
102
RTVSPropertyOp28
 70
     1
102
RTVSPropertyOp29
 70
     1
102
RTVSPropertyOp30
 70
     1
102
RTVSPropertyOp31
 70
     1
102
RTVSPropertyOp32
 70
     1
102
RTVSPropertyOp33
 70
     1
102
RTVSPropertyOp34
 70
     1
102
RTVSPropertyOp35
 70
     1
102
RTVSPropertyOp36
 70
     1
102
RTVSPropertyOp37
 70
     0
102
RTVSPropertyOp38
 70
     0
102
RTVSPropertyOp39
 70
     0
102
RTVSPropertyOp40
 70
     0
102
RTVSPropertyOp41
 70
     0
102
RTVSPropertyOp42
 70
     0
102
RTVSPropertyOp43
 70
     0
102
RTVSPropertyOp44
 70
     0
102
RTVSPropertyOp45
 70
     1
102
RTVSPropertyOp46
 70
     0
102
RTVSPropertyOp47
 70
     0
102
RTVSPropertyOp48
 70
     0
102
RTVSPropertyOp49
 70
     1
102
RTVSPropertyOp50
 70
     0
102
RTVSPropertyOp51
 70
     0
102
RTVSPropertyOp52
 70
     0
102
RTVSPropertyOp53
 70
     0
102
RTVSPropertyOp54
 70
     0
102
RTVSPropertyOp55
 70
     1
102
RTVSPropertyOp56
 70
     0
102
RTVSPropertyOp57
 70
     0
102
RTVSPropertyOp58
 70
     1
102
RTVSPropertyOp59
 70
     1
102
RTVSPropertyOp60
 70
     1
102
RTVSPropertyOp61
 70
     1
102
RTVSPropertyOp62
 70
     1
  0
XRECORD
  5
BC8
102
{ACAD_REACTORS
330
BC7
102
}
330
BC7
100
AcDbXrecord
280
     1
102
RTVSPost2010Prop28
280
     0
102
RTVSPost2010PropOp28
 70
     1
102
RTVSPost2010Prop29
280
     1
102
RTVSPost2010PropOp29
 70
     1
102
RTVSPost2010Prop30
280
     1
102
RTVSPost2010PropOp30
 70
     1
102
RTVSPost2010Prop31
280
     0
102
RTVSPost2010PropOp31
 70
     1
102
RTVSPost2010Prop32
280
     0
102
RTVSPost2010PropOp32
 70
     1
102
RTVSPost2010Prop33
280
     0
102
RTVSPost2010PropOp33
 70
     1
102
RTVSPost2010Prop34
280
     0
102
RTVSPost2010PropOp34
 70
     1
102
RTVSPost2010Prop35
280
     0
102
RTVSPost2010PropOp35
 70
     1
102
RTVSPost2010Prop36
280
     0
102
RTVSPost2010PropOp36
 70
     1
102
RTVSPost2010Prop37
 90
       50
102
RTVSPost2010PropOp37
 70
     1
102
RTVSPost2010Prop38
140
0.0
102
RTVSPost2010PropOp38
 70
     1
102
RTVSPost2010Prop39
140
1.0
102
RTVSPost2010PropOp39
 70
     1
102
RTVSPost2010Prop40
 90
        0
102
RTVSPost2010PropOp40
 70
     1
102
RTVSPost2010Prop41ColorIndex
 90
       18
102
RTVSPost2010Prop41ColorRGB
 90
        0
102
RTVSPost2010PropOp41
 70
     1
102
RTVSPost2010Prop42
 90
       50
102
RTVSPost2010PropOp42
 70
     1
102
RTVSPost2010Prop43
 90
        3
102
RTVSPost2010PropOp43
 70
     1
102
RTVSPost2010Prop44ColorIndex
 90
        5
102
RTVSPost2010Prop44ColorRGB
 90
      255
102
RTVSPost2010PropOp44
 70
     1
102
RTVSPost2010Prop45
280
     0
102
RTVSPost2010PropOp45
 70
     1
102
RTVSPost2010Prop46
 90
       50
102
RTVSPost2010PropOp46
 70
     1
102
RTVSPost2010Prop47
 90
       50
102
RTVSPost2010PropOp47
 70
     1
102
RTVSPost2010Prop48
 90
       50
102
RTVSPost2010PropOp48
 70
     1
102
RTVSPost2010Prop49
280
     0
102
RTVSPost2010PropOp49
 70
     1
102
RTVSPost2010Prop50
 90
       50
102
RTVSPost2010PropOp50
 70
     1
102
RTVSPost2010Prop51ColorIndex
 90
      256
102
RTVSPost2010Prop51ColorRGB
 90
-16777216
102
RTVSPost2010PropOp51
 70
     0
102
RTVSPost2010Prop52
140
1.0
102
RTVSPost2010PropOp52
 70
     0
102
RTVSPost2010Prop53
 90
        2
102
RTVSPost2010PropOp53
 70
     1
102
RTVSPost2010Prop54
  1
strokes_ogs.tif
102
RTVSPost2010PropOp54
 70
     1
102
RTVSPost2010Prop55
280
     0
102
RTVSPost2010PropOp55
 70
     1
102
RTVSPost2010Prop56
140
1.0
102
RTVSPost2010PropOp56
 70
     1
102
RTVSPost2010Prop57
140
1.0
102
RTVSPost2010PropOp57
 70
     1
102
RTVSPropertyOp0
 70
     1
102
RTVSPropertyOp1
 70
     1
102
RTVSPropertyOp2
 70
     1
102
RTVSPropertyOp3
 70
     1
102
RTVSPropertyOp4
 70
     1
102
RTVSPropertyOp5
 70
     1
102
RTVSPropertyOp6
 70
     1
102
RTVSPropertyOp7
 70
     1
102
RTVSPropertyOp8
 70
     1
102
RTVSPropertyOp9
 70
     1
102
RTVSPropertyOp10
 70
     1
102
RTVSPropertyOp11
 70
     1
102
RTVSPropertyOp12
 70
     1
102
RTVSPropertyOp13
 70
     1
102
RTVSPropertyOp14
 70
     1
102
RTVSPropertyOp15
 70
     1
102
RTVSPropertyOp16
 70
     1
102
RTVSPropertyOp17
 70
     1
102
RTVSPropertyOp18
 70
     1
102
RTVSPropertyOp19
 70
     1
102
RTVSPropertyOp20
 70
     1
102
RTVSPropertyOp21
 70
     1
102
RTVSPropertyOp22
 70
     1
102
RTVSPropertyOp23
 70
     1
102
RTVSPropertyOp24
 70
     1
102
RTVSPropertyOp25
 70
     1
102
RTVSPropertyOp26
 70
     1
102
RTVSPropertyOp27
 70
     1
102
RTVSPropertyOp28
 70
     1
102
RTVSPropertyOp29
 70
     1
102
RTVSPropertyOp30
 70
     1
102
RTVSPropertyOp31
 70
     1
102
RTVSPropertyOp32
 70
     1
102
RTVSPropertyOp33
 70
     1
102
RTVSPropertyOp34
 70
     1
102
RTVSPropertyOp35
 70
     1
102
RTVSPropertyOp36
 70
     1
102
RTVSPropertyOp37
 70
     1
102
RTVSPropertyOp38
 70
     1
102
RTVSPropertyOp39
 70
     1
102
RTVSPropertyOp40
 70
     1
102
RTVSPropertyOp41
 70
     1
102
RTVSPropertyOp42
 70
     1
102
RTVSPropertyOp43
 70
     1
102
RTVSPropertyOp44
 70
     1
102
RTVSPropertyOp45
 70
     1
102
RTVSPropertyOp46
 70
     1
102
RTVSPropertyOp47
 70
     1
102
RTVSPropertyOp48
 70
     1
102
RTVSPropertyOp49
 70
     1
102
RTVSPropertyOp50
 70
     1
102
RTVSPropertyOp51
 70
     0
102
RTVSPropertyOp52
 70
     0
102
RTVSPropertyOp53
 70
     1
102
RTVSPropertyOp54
 70
     1
102
RTVSPropertyOp55
 70
     1
102
RTVSPropertyOp56
 70
     1
102
RTVSPropertyOp57
 70
     1
102
RTVSPropertyOp58
 70
     1
102
RTVSPropertyOp59
 70
     1
102
RTVSPropertyOp60
 70
     1
102
RTVSPropertyOp61
 70
     1
102
RTVSPropertyOp62
 70
     1
  0
XRECORD
  5
BDA
102
{ACAD_REACTORS
330
BD9
102
}
330
BD9
100
AcDbXrecord
280
     1
102
RTVSPost2010Prop28
280
     0
102
RTVSPost2010PropOp28
 70
     1
102
RTVSPost2010Prop29
280
     1
102
RTVSPost2010PropOp29
 70
     1
102
RTVSPost2010Prop30
280
     1
102
RTVSPost2010PropOp30
 70
     1
102
RTVSPost2010Prop31
280
     0
102
RTVSPost2010PropOp31
 70
     1
102
RTVSPost2010Prop32
280
     0
102
RTVSPost2010PropOp32
 70
     1
102
RTVSPost2010Prop33
280
     0
102
RTVSPost2010PropOp33
 70
     1
102
RTVSPost2010Prop34
280
     0
102
RTVSPost2010PropOp34
 70
     1
102
RTVSPost2010Prop35
280
     0
102
RTVSPost2010PropOp35
 70
     1
102
RTVSPost2010Prop36
280
     0
102
RTVSPost2010PropOp36
 70
     1
102
RTVSPost2010Prop37
 90
       50
102
RTVSPost2010PropOp37
 70
     0
102
RTVSPost2010Prop38
140
0.0
102
RTVSPost2010PropOp38
 70
     0
102
RTVSPost2010Prop39
140
1.0
102
RTVSPost2010PropOp39
 70
     0
102
RTVSPost2010Prop40
 90
        0
102
RTVSPost2010PropOp40
 70
     0
102
RTVSPost2010Prop41ColorIndex
 90
       18
102
RTVSPost2010Prop41ColorRGB
 90
        0
102
RTVSPost2010PropOp41
 70
     0
102
RTVSPost2010Prop42
 90
       50
102
RTVSPost2010PropOp42
 70
     0
102
RTVSPost2010Prop43
 90
        3
102
RTVSPost2010PropOp43
 70
     0
102
RTVSPost2010Prop44ColorIndex
 90
        5
102
RTVSPost2010Prop44ColorRGB
 90
      255
102
RTVSPost2010PropOp44
 70
     0
102
RTVSPost2010Prop45
280
     0
102
RTVSPost2010PropOp45
 70
     1
102
RTVSPost2010Prop46
 90
       50
102
RTVSPost2010PropOp46
 70
     0
102
RTVSPost2010Prop47
 90
       50
102
RTVSPost2010PropOp47
 70
     0
102
RTVSPost2010Prop48
 90
       50
102
RTVSPost2010PropOp48
 70
     0
102
RTVSPost2010Prop49
280
     0
102
RTVSPost2010PropOp49
 70
     1
102
RTVSPost2010Prop50
 90
       50
102
RTVSPost2010PropOp50
 70
     0
102
RTVSPost2010Prop51ColorIndex
 90
      256
102
RTVSPost2010Prop51ColorRGB
 90
-16777216
102
RTVSPost2010PropOp51
 70
     0
102
RTVSPost2010Prop52
140
1.0
102
RTVSPost2010PropOp52
 70
     0
102
RTVSPost2010Prop53
 90
        2
102
RTVSPost2010PropOp53
 70
     0
102
RTVSPost2010Prop54
  1
strokes_ogs.tif
102
RTVSPost2010PropOp54
 70
     0
102
RTVSPost2010Prop55
280
     0
102
RTVSPost2010PropOp55
 70
     1
102
RTVSPost2010Prop56
140
1.0
102
RTVSPost2010PropOp56
 70
     0
102
RTVSPost2010Prop57
140
1.0
102
RTVSPost2010PropOp57
 70
     0
102
RTVSPropertyOp0
 70
     0
102
RTVSPropertyOp1
 70
     0
102
RTVSPropertyOp2
 70
     0
102
RTVSPropertyOp3
 70
     0
102
RTVSPropertyOp4
 70
     0
102
RTVSPropertyOp5
 70
     0
102
RTVSPropertyOp6
 70
     0
102
RTVSPropertyOp7
 70
     0
102
RTVSPropertyOp8
 70
     0
102
RTVSPropertyOp9
 70
     0
102
RTVSPropertyOp10
 70
     0
102
RTVSPropertyOp11
 70
     0
102
RTVSPropertyOp12
 70
     0
102
RTVSPropertyOp13
 70
     0
102
RTVSPropertyOp14
 70
     2
102
RTVSPropertyOp15
 70
     0
102
RTVSPropertyOp16
 70
     0
102
RTVSPropertyOp17
 70
     0
102
RTVSPropertyOp18
 70
     0
102
RTVSPropertyOp19
 70
     0
102
RTVSPropertyOp20
 70
     0
102
RTVSPropertyOp21
 70
     0
102
RTVSPropertyOp22
 70
     0
102
RTVSPropertyOp23
 70
     0
102
RTVSPropertyOp24
 70
     0
102
RTVSPropertyOp25
 70
     0
102
RTVSPropertyOp26
 70
     0
102
RTVSPropertyOp27
 70
     0
102
RTVSPropertyOp28
 70
     1
102
RTVSPropertyOp29
 70
     1
102
RTVSPropertyOp30
 70
     1
102
RTVSPropertyOp31
 70
     1
102
RTVSPropertyOp32
 70
     1
102
RTVSPropertyOp33
 70
     1
102
RTVSPropertyOp34
 70
     1
102
RTVSPropertyOp35
 70
     1
102
RTVSPropertyOp36
 70
     1
102
RTVSPropertyOp37
 70
     0
102
RTVSPropertyOp38
 70
     0
102
RTVSPropertyOp39
 70
     0
102
RTVSPropertyOp40
 70
     0
102
RTVSPropertyOp41
 70
     0
102
RTVSPropertyOp42
 70
     0
102
RTVSPropertyOp43
 70
     0
102
RTVSPropertyOp44
 70
     0
102
RTVSPropertyOp45
 70
     1
102
RTVSPropertyOp46
 70
     0
102
RTVSPropertyOp47
 70
     0
102
RTVSPropertyOp48
 70
     0
102
RTVSPropertyOp49
 70
     1
102
RTVSPropertyOp50
 70
     0
102
RTVSPropertyOp51
 70
     0
102
RTVSPropertyOp52
 70
     0
102
RTVSPropertyOp53
 70
     0
102
RTVSPropertyOp54
 70
     0
102
RTVSPropertyOp55
 70
     1
102
RTVSPropertyOp56
 70
     0
102
RTVSPropertyOp57
 70
     0
102
RTVSPropertyOp58
 70
     1
102
RTVSPropertyOp59
 70
     1
102
RTVSPropertyOp60
 70
     1
102
RTVSPropertyOp61
 70
     1
102
RTVSPropertyOp62
 70
     1
  0
XRECORD
  5
BC0
102
{ACAD_REACTORS
330
BBF
102
}
330
BBF
100
AcDbXrecord
280
     1
102
RTVSPost2010Prop28
280
     0
102
RTVSPost2010PropOp28
 70
     1
102
RTVSPost2010Prop29
280
     1
102
RTVSPost2010PropOp29
 70
     1
102
RTVSPost2010Prop30
280
     1
102
RTVSPost2010PropOp30
 70
     1
102
RTVSPost2010Prop31
280
     0
102
RTVSPost2010PropOp31
 70
     1
102
RTVSPost2010Prop32
280
     0
102
RTVSPost2010PropOp32
 70
     1
102
RTVSPost2010Prop33
280
     0
102
RTVSPost2010PropOp33
 70
     1
102
RTVSPost2010Prop34
280
     0
102
RTVSPost2010PropOp34
 70
     1
102
RTVSPost2010Prop35
280
     0
102
RTVSPost2010PropOp35
 70
     1
102
RTVSPost2010Prop36
280
     0
102
RTVSPost2010PropOp36
 70
     1
102
RTVSPost2010Prop37
 90
       50
102
RTVSPost2010PropOp37
 70
     1
102
RTVSPost2010Prop38
140
0.0
102
RTVSPost2010PropOp38
 70
     1
102
RTVSPost2010Prop39
140
1.0
102
RTVSPost2010PropOp39
 70
     1
102
RTVSPost2010Prop40
 90
        0
102
RTVSPost2010PropOp40
 70
     1
102
RTVSPost2010Prop41ColorIndex
 90
       18
102
RTVSPost2010Prop41ColorRGB
 90
        0
102
RTVSPost2010PropOp41
 70
     1
102
RTVSPost2010Prop42
 90
       50
102
RTVSPost2010PropOp42
 70
     1
102
RTVSPost2010Prop43
 90
        3
102
RTVSPost2010PropOp43
 70
     1
102
RTVSPost2010Prop44ColorIndex
 90
        5
102
RTVSPost2010Prop44ColorRGB
 90
      255
102
RTVSPost2010PropOp44
 70
     1
102
RTVSPost2010Prop45
280
     0
102
RTVSPost2010PropOp45
 70
     1
102
RTVSPost2010Prop46
 90
       50
102
RTVSPost2010PropOp46
 70
     1
102
RTVSPost2010Prop47
 90
       50
102
RTVSPost2010PropOp47
 70
     1
102
RTVSPost2010Prop48
 90
       50
102
RTVSPost2010PropOp48
 70
     1
102
RTVSPost2010Prop49
280
     0
102
RTVSPost2010PropOp49
 70
     1
102
RTVSPost2010Prop50
 90
       50
102
RTVSPost2010PropOp50
 70
     1
102
RTVSPost2010Prop51ColorIndex
 90
      256
102
RTVSPost2010Prop51ColorRGB
 90
-16777216
102
RTVSPost2010PropOp51
 70
     0
102
RTVSPost2010Prop52
140
1.0
102
RTVSPost2010PropOp52
 70
     0
102
RTVSPost2010Prop53
 90
        2
102
RTVSPost2010PropOp53
 70
     1
102
RTVSPost2010Prop54
  1
strokes_ogs.tif
102
RTVSPost2010PropOp54
 70
     1
102
RTVSPost2010Prop55
280
     0
102
RTVSPost2010PropOp55
 70
     1
102
RTVSPost2010Prop56
140
1.0
102
RTVSPost2010PropOp56
 70
     1
102
RTVSPost2010Prop57
140
1.0
102
RTVSPost2010PropOp57
 70
     1
102
RTVSPropertyOp0
 70
     1
102
RTVSPropertyOp1
 70
     1
102
RTVSPropertyOp2
 70
     1
102
RTVSPropertyOp3
 70
     1
102
RTVSPropertyOp4
 70
     1
102
RTVSPropertyOp5
 70
     1
102
RTVSPropertyOp6
 70
     1
102
RTVSPropertyOp7
 70
     1
102
RTVSPropertyOp8
 70
     1
102
RTVSPropertyOp9
 70
     1
102
RTVSPropertyOp10
 70
     1
102
RTVSPropertyOp11
 70
     1
102
RTVSPropertyOp12
 70
     1
102
RTVSPropertyOp13
 70
     1
102
RTVSPropertyOp14
 70
     1
102
RTVSPropertyOp15
 70
     1
102
RTVSPropertyOp16
 70
     1
102
RTVSPropertyOp17
 70
     1
102
RTVSPropertyOp18
 70
     1
102
RTVSPropertyOp19
 70
     1
102
RTVSPropertyOp20
 70
     1
102
RTVSPropertyOp21
 70
     1
102
RTVSPropertyOp22
 70
     1
102
RTVSPropertyOp23
 70
     1
102
RTVSPropertyOp24
 70
     1
102
RTVSPropertyOp25
 70
     1
102
RTVSPropertyOp26
 70
     1
102
RTVSPropertyOp27
 70
     1
102
RTVSPropertyOp28
 70
     1
102
RTVSPropertyOp29
 70
     1
102
RTVSPropertyOp30
 70
     1
102
RTVSPropertyOp31
 70
     1
102
RTVSPropertyOp32
 70
     1
102
RTVSPropertyOp33
 70
     1
102
RTVSPropertyOp34
 70
     1
102
RTVSPropertyOp35
 70
     1
102
RTVSPropertyOp36
 70
     1
102
RTVSPropertyOp37
 70
     1
102
RTVSPropertyOp38
 70
     1
102
RTVSPropertyOp39
 70
     1
102
RTVSPropertyOp40
 70
     1
102
RTVSPropertyOp41
 70
     1
102
RTVSPropertyOp42
 70
     1
102
RTVSPropertyOp43
 70
     1
102
RTVSPropertyOp44
 70
     1
102
RTVSPropertyOp45
 70
     1
102
RTVSPropertyOp46
 70
     1
102
RTVSPropertyOp47
 70
     1
102
RTVSPropertyOp48
 70
     1
102
RTVSPropertyOp49
 70
     1
102
RTVSPropertyOp50
 70
     1
102
RTVSPropertyOp51
 70
     0
102
RTVSPropertyOp52
 70
     0
102
RTVSPropertyOp53
 70
     1
102
RTVSPropertyOp54
 70
     1
102
RTVSPropertyOp55
 70
     1
102
RTVSPropertyOp56
 70
     1
102
RTVSPropertyOp57
 70
     1
102
RTVSPropertyOp58
 70
     1
102
RTVSPropertyOp59
 70
     1
102
RTVSPropertyOp60
 70
     1
102
RTVSPropertyOp61
 70
     1
102
RTVSPropertyOp62
 70
     1
  0
XRECORD
  5
BD6
102
{ACAD_REACTORS
330
BD5
102
}
330
BD5
100
AcDbXrecord
280
     1
102
RTVSPost2010Prop28
280
     0
102
RTVSPost2010PropOp28
 70
     1
102
RTVSPost2010Prop29
280
     1
102
RTVSPost2010PropOp29
 70
     1
102
RTVSPost2010Prop30
280
     1
102
RTVSPost2010PropOp30
 70
     1
102
RTVSPost2010Prop31
280
     0
102
RTVSPost2010PropOp31
 70
     1
102
RTVSPost2010Prop32
280
     0
102
RTVSPost2010PropOp32
 70
     1
102
RTVSPost2010Prop33
280
     0
102
RTVSPost2010PropOp33
 70
     1
102
RTVSPost2010Prop34
280
     0
102
RTVSPost2010PropOp34
 70
     1
102
RTVSPost2010Prop35
280
     0
102
RTVSPost2010PropOp35
 70
     1
102
RTVSPost2010Prop36
280
     0
102
RTVSPost2010PropOp36
 70
     1
102
RTVSPost2010Prop37
 90
       50
102
RTVSPost2010PropOp37
 70
     1
102
RTVSPost2010Prop38
140
0.0
102
RTVSPost2010PropOp38
 70
     1
102
RTVSPost2010Prop39
140
1.0
102
RTVSPost2010PropOp39
 70
     1
102
RTVSPost2010Prop40
 90
        0
102
RTVSPost2010PropOp40
 70
     1
102
RTVSPost2010Prop41ColorIndex
 90
       18
102
RTVSPost2010Prop41ColorRGB
 90
        0
102
RTVSPost2010PropOp41
 70
     1
102
RTVSPost2010Prop42
 90
       50
102
RTVSPost2010PropOp42
 70
     1
102
RTVSPost2010Prop43
 90
        3
102
RTVSPost2010PropOp43
 70
     1
102
RTVSPost2010Prop44ColorIndex
 90
        5
102
RTVSPost2010Prop44ColorRGB
 90
      255
102
RTVSPost2010PropOp44
 70
     1
102
RTVSPost2010Prop45
280
     0
102
RTVSPost2010PropOp45
 70
     1
102
RTVSPost2010Prop46
 90
       50
102
RTVSPost2010PropOp46
 70
     1
102
RTVSPost2010Prop47
 90
       50
102
RTVSPost2010PropOp47
 70
     1
102
RTVSPost2010Prop48
 90
       50
102
RTVSPost2010PropOp48
 70
     1
102
RTVSPost2010Prop49
280
     0
102
RTVSPost2010PropOp49
 70
     1
102
RTVSPost2010Prop50
 90
       50
102
RTVSPost2010PropOp50
 70
     1
102
RTVSPost2010Prop51ColorIndex
 90
      256
102
RTVSPost2010Prop51ColorRGB
 90
-16777216
102
RTVSPost2010PropOp51
 70
     0
102
RTVSPost2010Prop52
140
1.0
102
RTVSPost2010PropOp52
 70
     0
102
RTVSPost2010Prop53
 90
        2
102
RTVSPost2010PropOp53
 70
     1
102
RTVSPost2010Prop54
  1
strokes_ogs.tif
102
RTVSPost2010PropOp54
 70
     1
102
RTVSPost2010Prop55
280
     0
102
RTVSPost2010PropOp55
 70
     1
102
RTVSPost2010Prop56
140
1.0
102
RTVSPost2010PropOp56
 70
     1
102
RTVSPost2010Prop57
140
1.0
102
RTVSPost2010PropOp57
 70
     1
102
RTVSPropertyOp0
 70
     1
102
RTVSPropertyOp1
 70
     1
102
RTVSPropertyOp2
 70
     1
102
RTVSPropertyOp3
 70
     1
102
RTVSPropertyOp4
 70
     1
102
RTVSPropertyOp5
 70
     1
102
RTVSPropertyOp6
 70
     1
102
RTVSPropertyOp7
 70
     1
102
RTVSPropertyOp8
 70
     1
102
RTVSPropertyOp9
 70
     1
102
RTVSPropertyOp10
 70
     1
102
RTVSPropertyOp11
 70
     1
102
RTVSPropertyOp12
 70
     1
102
RTVSPropertyOp13
 70
     1
102
RTVSPropertyOp14
 70
     1
102
RTVSPropertyOp15
 70
     1
102
RTVSPropertyOp16
 70
     1
102
RTVSPropertyOp17
 70
     1
102
RTVSPropertyOp18
 70
     1
102
RTVSPropertyOp19
 70
     1
102
RTVSPropertyOp20
 70
     1
102
RTVSPropertyOp21
 70
     1
102
RTVSPropertyOp22
 70
     1
102
RTVSPropertyOp23
 70
     1
102
RTVSPropertyOp24
 70
     1
102
RTVSPropertyOp25
 70
     1
102
RTVSPropertyOp26
 70
     1
102
RTVSPropertyOp27
 70
     1
102
RTVSPropertyOp28
 70
     1
102
RTVSPropertyOp29
 70
     1
102
RTVSPropertyOp30
 70
     1
102
RTVSPropertyOp31
 70
     1
102
RTVSPropertyOp32
 70
     1
102
RTVSPropertyOp33
 70
     1
102
RTVSPropertyOp34
 70
     1
102
RTVSPropertyOp35
 70
     1
102
RTVSPropertyOp36
 70
     1
102
RTVSPropertyOp37
 70
     1
102
RTVSPropertyOp38
 70
     1
102
RTVSPropertyOp39
 70
     1
102
RTVSPropertyOp40
 70
     1
102
RTVSPropertyOp41
 70
     1
102
RTVSPropertyOp42
 70
     1
102
RTVSPropertyOp43
 70
     1
102
RTVSPropertyOp44
 70
     1
102
RTVSPropertyOp45
 70
     1
102
RTVSPropertyOp46
 70
     1
102
RTVSPropertyOp47
 70
     1
102
RTVSPropertyOp48
 70
     1
102
RTVSPropertyOp49
 70
     1
102
RTVSPropertyOp50
 70
     1
102
RTVSPropertyOp51
 70
     0
102
RTVSPropertyOp52
 70
     0
102
RTVSPropertyOp53
 70
     1
102
RTVSPropertyOp54
 70
     1
102
RTVSPropertyOp55
 70
     1
102
RTVSPropertyOp56
 70
     1
102
RTVSPropertyOp57
 70
     1
102
RTVSPropertyOp58
 70
     1
102
RTVSPropertyOp59
 70
     1
102
RTVSPropertyOp60
 70
     1
102
RTVSPropertyOp61
 70
     1
102
RTVSPropertyOp62
 70
     1
  0
XRECORD
  5
BD4
102
{ACAD_REACTORS
330
BD3
102
}
330
BD3
100
AcDbXrecord
280
     1
102
RTVSPost2010Prop28
280
     0
102
RTVSPost2010PropOp28
 70
     1
102
RTVSPost2010Prop29
280
     1
102
RTVSPost2010PropOp29
 70
     1
102
RTVSPost2010Prop30
280
     1
102
RTVSPost2010PropOp30
 70
     1
102
RTVSPost2010Prop31
280
     0
102
RTVSPost2010PropOp31
 70
     1
102
RTVSPost2010Prop32
280
     0
102
RTVSPost2010PropOp32
 70
     1
102
RTVSPost2010Prop33
280
     0
102
RTVSPost2010PropOp33
 70
     1
102
RTVSPost2010Prop34
280
     0
102
RTVSPost2010PropOp34
 70
     1
102
RTVSPost2010Prop35
280
     0
102
RTVSPost2010PropOp35
 70
     1
102
RTVSPost2010Prop36
280
     0
102
RTVSPost2010PropOp36
 70
     1
102
RTVSPost2010Prop37
 90
       50
102
RTVSPost2010PropOp37
 70
     1
102
RTVSPost2010Prop38
140
0.0
102
RTVSPost2010PropOp38
 70
     1
102
RTVSPost2010Prop39
140
1.0
102
RTVSPost2010PropOp39
 70
     1
102
RTVSPost2010Prop40
 90
        0
102
RTVSPost2010PropOp40
 70
     1
102
RTVSPost2010Prop41ColorIndex
 90
       18
102
RTVSPost2010Prop41ColorRGB
 90
        0
102
RTVSPost2010PropOp41
 70
     1
102
RTVSPost2010Prop42
 90
       50
102
RTVSPost2010PropOp42
 70
     1
102
RTVSPost2010Prop43
 90
        3
102
RTVSPost2010PropOp43
 70
     1
102
RTVSPost2010Prop44ColorIndex
 90
        5
102
RTVSPost2010Prop44ColorRGB
 90
      255
102
RTVSPost2010PropOp44
 70
     1
102
RTVSPost2010Prop45
280
     0
102
RTVSPost2010PropOp45
 70
     1
102
RTVSPost2010Prop46
 90
       50
102
RTVSPost2010PropOp46
 70
     1
102
RTVSPost2010Prop47
 90
       50
102
RTVSPost2010PropOp47
 70
     1
102
RTVSPost2010Prop48
 90
       50
102
RTVSPost2010PropOp48
 70
     1
102
RTVSPost2010Prop49
280
     0
102
RTVSPost2010PropOp49
 70
     1
102
RTVSPost2010Prop50
 90
       50
102
RTVSPost2010PropOp50
 70
     1
102
RTVSPost2010Prop51ColorIndex
 90
      256
102
RTVSPost2010Prop51ColorRGB
 90
-16777216
102
RTVSPost2010PropOp51
 70
     0
102
RTVSPost2010Prop52
140
1.0
102
RTVSPost2010PropOp52
 70
     0
102
RTVSPost2010Prop53
 90
        2
102
RTVSPost2010PropOp53
 70
     1
102
RTVSPost2010Prop54
  1
strokes_ogs.tif
102
RTVSPost2010PropOp54
 70
     1
102
RTVSPost2010Prop55
280
     0
102
RTVSPost2010PropOp55
 70
     1
102
RTVSPost2010Prop56
140
1.0
102
RTVSPost2010PropOp56
 70
     1
102
RTVSPost2010Prop57
140
1.0
102
RTVSPost2010PropOp57
 70
     1
102
RTVSPropertyOp0
 70
     1
102
RTVSPropertyOp1
 70
     1
102
RTVSPropertyOp2
 70
     1
102
RTVSPropertyOp3
 70
     1
102
RTVSPropertyOp4
 70
     1
102
RTVSPropertyOp5
 70
     1
102
RTVSPropertyOp6
 70
     1
102
RTVSPropertyOp7
 70
     1
102
RTVSPropertyOp8
 70
     1
102
RTVSPropertyOp9
 70
     1
102
RTVSPropertyOp10
 70
     1
102
RTVSPropertyOp11
 70
     1
102
RTVSPropertyOp12
 70
     1
102
RTVSPropertyOp13
 70
     1
102
RTVSPropertyOp14
 70
     1
102
RTVSPropertyOp15
 70
     1
102
RTVSPropertyOp16
 70
     1
102
RTVSPropertyOp17
 70
     1
102
RTVSPropertyOp18
 70
     1
102
RTVSPropertyOp19
 70
     1
102
RTVSPropertyOp20
 70
     1
102
RTVSPropertyOp21
 70
     1
102
RTVSPropertyOp22
 70
     1
102
RTVSPropertyOp23
 70
     1
102
RTVSPropertyOp24
 70
     1
102
RTVSPropertyOp25
 70
     1
102
RTVSPropertyOp26
 70
     1
102
RTVSPropertyOp27
 70
     1
102
RTVSPropertyOp28
 70
     1
102
RTVSPropertyOp29
 70
     1
102
RTVSPropertyOp30
 70
     1
102
RTVSPropertyOp31
 70
     1
102
RTVSPropertyOp32
 70
     1
102
RTVSPropertyOp33
 70
     1
102
RTVSPropertyOp34
 70
     1
102
RTVSPropertyOp35
 70
     1
102
RTVSPropertyOp36
 70
     1
102
RTVSPropertyOp37
 70
     1
102
RTVSPropertyOp38
 70
     1
102
RTVSPropertyOp39
 70
     1
102
RTVSPropertyOp40
 70
     1
102
RTVSPropertyOp41
 70
     1
102
RTVSPropertyOp42
 70
     1
102
RTVSPropertyOp43
 70
     1
102
RTVSPropertyOp44
 70
     1
102
RTVSPropertyOp45
 70
     1
102
RTVSPropertyOp46
 70
     1
102
RTVSPropertyOp47
 70
     1
102
RTVSPropertyOp48
 70
     1
102
RTVSPropertyOp49
 70
     1
102
RTVSPropertyOp50
 70
     1
102
RTVSPropertyOp51
 70
     0
102
RTVSPropertyOp52
 70
     0
102
RTVSPropertyOp53
 70
     1
102
RTVSPropertyOp54
 70
     1
102
RTVSPropertyOp55
 70
     1
102
RTVSPropertyOp56
 70
     1
102
RTVSPropertyOp57
 70
     1
102
RTVSPropertyOp58
 70
     1
102
RTVSPropertyOp59
 70
     1
102
RTVSPropertyOp60
 70
     1
102
RTVSPropertyOp61
 70
     1
102
RTVSPropertyOp62
 70
     1
  0
XRECORD
  5
BCE
102
{ACAD_REACTORS
330
BCD
102
}
330
BCD
100
AcDbXrecord
280
     1
102
RTVSPost2010Prop28
280
     0
102
RTVSPost2010PropOp28
 70
     1
102
RTVSPost2010Prop29
280
     1
102
RTVSPost2010PropOp29
 70
     1
102
RTVSPost2010Prop30
280
     1
102
RTVSPost2010PropOp30
 70
     1
102
RTVSPost2010Prop31
280
     0
102
RTVSPost2010PropOp31
 70
     1
102
RTVSPost2010Prop32
280
     0
102
RTVSPost2010PropOp32
 70
     1
102
RTVSPost2010Prop33
280
     0
102
RTVSPost2010PropOp33
 70
     1
102
RTVSPost2010Prop34
280
     0
102
RTVSPost2010PropOp34
 70
     1
102
RTVSPost2010Prop35
280
     0
102
RTVSPost2010PropOp35
 70
     1
102
RTVSPost2010Prop36
280
     0
102
RTVSPost2010PropOp36
 70
     1
102
RTVSPost2010Prop37
 90
       50
102
RTVSPost2010PropOp37
 70
     1
102
RTVSPost2010Prop38
140
0.0
102
RTVSPost2010PropOp38
 70
     1
102
RTVSPost2010Prop39
140
1.0
102
RTVSPost2010PropOp39
 70
     1
102
RTVSPost2010Prop40
 90
        0
102
RTVSPost2010PropOp40
 70
     1
102
RTVSPost2010Prop41ColorIndex
 90
       18
102
RTVSPost2010Prop41ColorRGB
 90
        0
102
RTVSPost2010PropOp41
 70
     1
102
RTVSPost2010Prop42
 90
       50
102
RTVSPost2010PropOp42
 70
     1
102
RTVSPost2010Prop43
 90
        3
102
RTVSPost2010PropOp43
 70
     1
102
RTVSPost2010Prop44ColorIndex
 90
        5
102
RTVSPost2010Prop44ColorRGB
 90
      255
102
RTVSPost2010PropOp44
 70
     1
102
RTVSPost2010Prop45
280
     0
102
RTVSPost2010PropOp45
 70
     1
102
RTVSPost2010Prop46
 90
       50
102
RTVSPost2010PropOp46
 70
     1
102
RTVSPost2010Prop47
 90
       50
102
RTVSPost2010PropOp47
 70
     1
102
RTVSPost2010Prop48
 90
       50
102
RTVSPost2010PropOp48
 70
     1
102
RTVSPost2010Prop49
280
     0
102
RTVSPost2010PropOp49
 70
     1
102
RTVSPost2010Prop50
 90
       50
102
RTVSPost2010PropOp50
 70
     1
102
RTVSPost2010Prop51ColorIndex
 90
      256
102
RTVSPost2010Prop51ColorRGB
 90
-16777216
102
RTVSPost2010PropOp51
 70
     0
102
RTVSPost2010Prop52
140
1.0
102
RTVSPost2010PropOp52
 70
     0
102
RTVSPost2010Prop53
 90
        2
102
RTVSPost2010PropOp53
 70
     1
102
RTVSPost2010Prop54
  1
strokes_ogs.tif
102
RTVSPost2010PropOp54
 70
     1
102
RTVSPost2010Prop55
280
     0
102
RTVSPost2010PropOp55
 70
     1
102
RTVSPost2010Prop56
140
1.0
102
RTVSPost2010PropOp56
 70
     1
102
RTVSPost2010Prop57
140
1.0
102
RTVSPost2010PropOp57
 70
     1
102
RTVSPropertyOp0
 70
     1
102
RTVSPropertyOp1
 70
     1
102
RTVSPropertyOp2
 70
     1
102
RTVSPropertyOp3
 70
     1
102
RTVSPropertyOp4
 70
     1
102
RTVSPropertyOp5
 70
     1
102
RTVSPropertyOp6
 70
     1
102
RTVSPropertyOp7
 70
     1
102
RTVSPropertyOp8
 70
     1
102
RTVSPropertyOp9
 70
     1
102
RTVSPropertyOp10
 70
     1
102
RTVSPropertyOp11
 70
     1
102
RTVSPropertyOp12
 70
     1
102
RTVSPropertyOp13
 70
     1
102
RTVSPropertyOp14
 70
     1
102
RTVSPropertyOp15
 70
     1
102
RTVSPropertyOp16
 70
     1
102
RTVSPropertyOp17
 70
     1
102
RTVSPropertyOp18
 70
     1
102
RTVSPropertyOp19
 70
     1
102
RTVSPropertyOp20
 70
     1
102
RTVSPropertyOp21
 70
     1
102
RTVSPropertyOp22
 70
     1
102
RTVSPropertyOp23
 70
     1
102
RTVSPropertyOp24
 70
     1
102
RTVSPropertyOp25
 70
     1
102
RTVSPropertyOp26
 70
     1
102
RTVSPropertyOp27
 70
     1
102
RTVSPropertyOp28
 70
     1
102
RTVSPropertyOp29
 70
     1
102
RTVSPropertyOp30
 70
     1
102
RTVSPropertyOp31
 70
     1
102
RTVSPropertyOp32
 70
     1
102
RTVSPropertyOp33
 70
     1
102
RTVSPropertyOp34
 70
     1
102
RTVSPropertyOp35
 70
     1
102
RTVSPropertyOp36
 70
     1
102
RTVSPropertyOp37
 70
     1
102
RTVSPropertyOp38
 70
     1
102
RTVSPropertyOp39
 70
     1
102
RTVSPropertyOp40
 70
     1
102
RTVSPropertyOp41
 70
     1
102
RTVSPropertyOp42
 70
     1
102
RTVSPropertyOp43
 70
     1
102
RTVSPropertyOp44
 70
     1
102
RTVSPropertyOp45
 70
     1
102
RTVSPropertyOp46
 70
     1
102
RTVSPropertyOp47
 70
     1
102
RTVSPropertyOp48
 70
     1
102
RTVSPropertyOp49
 70
     1
102
RTVSPropertyOp50
 70
     1
102
RTVSPropertyOp51
 70
     0
102
RTVSPropertyOp52
 70
     0
102
RTVSPropertyOp53
 70
     1
102
RTVSPropertyOp54
 70
     1
102
RTVSPropertyOp55
 70
     1
102
RTVSPropertyOp56
 70
     1
102
RTVSPropertyOp57
 70
     1
102
RTVSPropertyOp58
 70
     1
102
RTVSPropertyOp59
 70
     1
102
RTVSPropertyOp60
 70
     1
102
RTVSPropertyOp61
 70
     1
102
RTVSPropertyOp62
 70
     1
  0
XRECORD
  5
BD0
102
{ACAD_REACTORS
330
BCF
102
}
330
BCF
100
AcDbXrecord
280
     1
102
RTVSPost2010Prop28
280
     0
102
RTVSPost2010PropOp28
 70
     1
102
RTVSPost2010Prop29
280
     1
102
RTVSPost2010PropOp29
 70
     1
102
RTVSPost2010Prop30
280
     1
102
RTVSPost2010PropOp30
 70
     1
102
RTVSPost2010Prop31
280
     0
102
RTVSPost2010PropOp31
 70
     1
102
RTVSPost2010Prop32
280
     0
102
RTVSPost2010PropOp32
 70
     1
102
RTVSPost2010Prop33
280
     0
102
RTVSPost2010PropOp33
 70
     1
102
RTVSPost2010Prop34
280
     0
102
RTVSPost2010PropOp34
 70
     1
102
RTVSPost2010Prop35
280
     0
102
RTVSPost2010PropOp35
 70
     1
102
RTVSPost2010Prop36
280
     0
102
RTVSPost2010PropOp36
 70
     1
102
RTVSPost2010Prop37
 90
       50
102
RTVSPost2010PropOp37
 70
     1
102
RTVSPost2010Prop38
140
0.0
102
RTVSPost2010PropOp38
 70
     1
102
RTVSPost2010Prop39
140
1.0
102
RTVSPost2010PropOp39
 70
     1
102
RTVSPost2010Prop40
 90
        0
102
RTVSPost2010PropOp40
 70
     1
102
RTVSPost2010Prop41ColorIndex
 90
       18
102
RTVSPost2010Prop41ColorRGB
 90
        0
102
RTVSPost2010PropOp41
 70
     1
102
RTVSPost2010Prop42
 90
       50
102
RTVSPost2010PropOp42
 70
     1
102
RTVSPost2010Prop43
 90
        3
102
RTVSPost2010PropOp43
 70
     1
102
RTVSPost2010Prop44ColorIndex
 90
        5
102
RTVSPost2010Prop44ColorRGB
 90
      255
102
RTVSPost2010PropOp44
 70
     1
102
RTVSPost2010Prop45
280
     0
102
RTVSPost2010PropOp45
 70
     1
102
RTVSPost2010Prop46
 90
       50
102
RTVSPost2010PropOp46
 70
     1
102
RTVSPost2010Prop47
 90
       50
102
RTVSPost2010PropOp47
 70
     1
102
RTVSPost2010Prop48
 90
       50
102
RTVSPost2010PropOp48
 70
     1
102
RTVSPost2010Prop49
280
     0
102
RTVSPost2010PropOp49
 70
     1
102
RTVSPost2010Prop50
 90
       50
102
RTVSPost2010PropOp50
 70
     1
102
RTVSPost2010Prop51ColorIndex
 90
      256
102
RTVSPost2010Prop51ColorRGB
 90
-16777216
102
RTVSPost2010PropOp51
 70
     0
102
RTVSPost2010Prop52
140
1.0
102
RTVSPost2010PropOp52
 70
     0
102
RTVSPost2010Prop53
 90
        2
102
RTVSPost2010PropOp53
 70
     1
102
RTVSPost2010Prop54
  1
strokes_ogs.tif
102
RTVSPost2010PropOp54
 70
     1
102
RTVSPost2010Prop55
280
     0
102
RTVSPost2010PropOp55
 70
     1
102
RTVSPost2010Prop56
140
1.0
102
RTVSPost2010PropOp56
 70
     1
102
RTVSPost2010Prop57
140
1.0
102
RTVSPost2010PropOp57
 70
     1
102
RTVSPropertyOp0
 70
     1
102
RTVSPropertyOp1
 70
     1
102
RTVSPropertyOp2
 70
     1
102
RTVSPropertyOp3
 70
     1
102
RTVSPropertyOp4
 70
     1
102
RTVSPropertyOp5
 70
     1
102
RTVSPropertyOp6
 70
     1
102
RTVSPropertyOp7
 70
     1
102
RTVSPropertyOp8
 70
     1
102
RTVSPropertyOp9
 70
     1
102
RTVSPropertyOp10
 70
     1
102
RTVSPropertyOp11
 70
     1
102
RTVSPropertyOp12
 70
     1
102
RTVSPropertyOp13
 70
     1
102
RTVSPropertyOp14
 70
     1
102
RTVSPropertyOp15
 70
     1
102
RTVSPropertyOp16
 70
     1
102
RTVSPropertyOp17
 70
     1
102
RTVSPropertyOp18
 70
     1
102
RTVSPropertyOp19
 70
     1
102
RTVSPropertyOp20
 70
     1
102
RTVSPropertyOp21
 70
     1
102
RTVSPropertyOp22
 70
     1
102
RTVSPropertyOp23
 70
     1
102
RTVSPropertyOp24
 70
     1
102
RTVSPropertyOp25
 70
     1
102
RTVSPropertyOp26
 70
     1
102
RTVSPropertyOp27
 70
     1
102
RTVSPropertyOp28
 70
     1
102
RTVSPropertyOp29
 70
     1
102
RTVSPropertyOp30
 70
     1
102
RTVSPropertyOp31
 70
     1
102
RTVSPropertyOp32
 70
     1
102
RTVSPropertyOp33
 70
     1
102
RTVSPropertyOp34
 70
     1
102
RTVSPropertyOp35
 70
     1
102
RTVSPropertyOp36
 70
     1
102
RTVSPropertyOp37
 70
     1
102
RTVSPropertyOp38
 70
     1
102
RTVSPropertyOp39
 70
     1
102
RTVSPropertyOp40
 70
     1
102
RTVSPropertyOp41
 70
     1
102
RTVSPropertyOp42
 70
     1
102
RTVSPropertyOp43
 70
     1
102
RTVSPropertyOp44
 70
     1
102
RTVSPropertyOp45
 70
     1
102
RTVSPropertyOp46
 70
     1
102
RTVSPropertyOp47
 70
     1
102
RTVSPropertyOp48
 70
     1
102
RTVSPropertyOp49
 70
     1
102
RTVSPropertyOp50
 70
     1
102
RTVSPropertyOp51
 70
     0
102
RTVSPropertyOp52
 70
     0
102
RTVSPropertyOp53
 70
     1
102
RTVSPropertyOp54
 70
     1
102
RTVSPropertyOp55
 70
     1
102
RTVSPropertyOp56
 70
     1
102
RTVSPropertyOp57
 70
     1
102
RTVSPropertyOp58
 70
     1
102
RTVSPropertyOp59
 70
     1
102
RTVSPropertyOp60
 70
     1
102
RTVSPropertyOp61
 70
     1
102
RTVSPropertyOp62
 70
     1
  0
XRECORD
  5
BC6
102
{ACAD_REACTORS
330
BC5
102
}
330
BC5
100
AcDbXrecord
280
     1
102
RTVSPost2010Prop28
280
     0
102
RTVSPost2010PropOp28
 70
     1
102
RTVSPost2010Prop29
280
     1
102
RTVSPost2010PropOp29
 70
     1
102
RTVSPost2010Prop30
280
     1
102
RTVSPost2010PropOp30
 70
     1
102
RTVSPost2010Prop31
280
     0
102
RTVSPost2010PropOp31
 70
     1
102
RTVSPost2010Prop32
280
     0
102
RTVSPost2010PropOp32
 70
     1
102
RTVSPost2010Prop33
280
     0
102
RTVSPost2010PropOp33
 70
     1
102
RTVSPost2010Prop34
280
     0
102
RTVSPost2010PropOp34
 70
     1
102
RTVSPost2010Prop35
280
     0
102
RTVSPost2010PropOp35
 70
     1
102
RTVSPost2010Prop36
280
     0
102
RTVSPost2010PropOp36
 70
     1
102
RTVSPost2010Prop37
 90
       50
102
RTVSPost2010PropOp37
 70
     1
102
RTVSPost2010Prop38
140
0.0
102
RTVSPost2010PropOp38
 70
     1
102
RTVSPost2010Prop39
140
1.0
102
RTVSPost2010PropOp39
 70
     1
102
RTVSPost2010Prop40
 90
        0
102
RTVSPost2010PropOp40
 70
     1
102
RTVSPost2010Prop41ColorIndex
 90
       18
102
RTVSPost2010Prop41ColorRGB
 90
        0
102
RTVSPost2010PropOp41
 70
     1
102
RTVSPost2010Prop42
 90
       50
102
RTVSPost2010PropOp42
 70
     1
102
RTVSPost2010Prop43
 90
        3
102
RTVSPost2010PropOp43
 70
     1
102
RTVSPost2010Prop44ColorIndex
 90
        5
102
RTVSPost2010Prop44ColorRGB
 90
      255
102
RTVSPost2010PropOp44
 70
     1
102
RTVSPost2010Prop45
280
     0
102
RTVSPost2010PropOp45
 70
     1
102
RTVSPost2010Prop46
 90
       50
102
RTVSPost2010PropOp46
 70
     1
102
RTVSPost2010Prop47
 90
       50
102
RTVSPost2010PropOp47
 70
     1
102
RTVSPost2010Prop48
 90
       50
102
RTVSPost2010PropOp48
 70
     1
102
RTVSPost2010Prop49
280
     0
102
RTVSPost2010PropOp49
 70
     1
102
RTVSPost2010Prop50
 90
       50
102
RTVSPost2010PropOp50
 70
     1
102
RTVSPost2010Prop51ColorIndex
 90
      256
102
RTVSPost2010Prop51ColorRGB
 90
-16777216
102
RTVSPost2010PropOp51
 70
     0
102
RTVSPost2010Prop52
140
1.0
102
RTVSPost2010PropOp52
 70
     0
102
RTVSPost2010Prop53
 90
        2
102
RTVSPost2010PropOp53
 70
     1
102
RTVSPost2010Prop54
  1
strokes_ogs.tif
102
RTVSPost2010PropOp54
 70
     1
102
RTVSPost2010Prop55
280
     0
102
RTVSPost2010PropOp55
 70
     1
102
RTVSPost2010Prop56
140
1.0
102
RTVSPost2010PropOp56
 70
     1
102
RTVSPost2010Prop57
140
1.0
102
RTVSPost2010PropOp57
 70
     1
102
RTVSPropertyOp0
 70
     1
102
RTVSPropertyOp1
 70
     1
102
RTVSPropertyOp2
 70
     1
102
RTVSPropertyOp3
 70
     1
102
RTVSPropertyOp4
 70
     1
102
RTVSPropertyOp5
 70
     1
102
RTVSPropertyOp6
 70
     1
102
RTVSPropertyOp7
 70
     1
102
RTVSPropertyOp8
 70
     1
102
RTVSPropertyOp9
 70
     1
102
RTVSPropertyOp10
 70
     1
102
RTVSPropertyOp11
 70
     1
102
RTVSPropertyOp12
 70
     1
102
RTVSPropertyOp13
 70
     1
102
RTVSPropertyOp14
 70
     1
102
RTVSPropertyOp15
 70
     1
102
RTVSPropertyOp16
 70
     1
102
RTVSPropertyOp17
 70
     1
102
RTVSPropertyOp18
 70
     1
102
RTVSPropertyOp19
 70
     1
102
RTVSPropertyOp20
 70
     1
102
RTVSPropertyOp21
 70
     1
102
RTVSPropertyOp22
 70
     1
102
RTVSPropertyOp23
 70
     1
102
RTVSPropertyOp24
 70
     1
102
RTVSPropertyOp25
 70
     1
102
RTVSPropertyOp26
 70
     1
102
RTVSPropertyOp27
 70
     1
102
RTVSPropertyOp28
 70
     1
102
RTVSPropertyOp29
 70
     1
102
RTVSPropertyOp30
 70
     1
102
RTVSPropertyOp31
 70
     1
102
RTVSPropertyOp32
 70
     1
102
RTVSPropertyOp33
 70
     1
102
RTVSPropertyOp34
 70
     1
102
RTVSPropertyOp35
 70
     1
102
RTVSPropertyOp36
 70
     1
102
RTVSPropertyOp37
 70
     1
102
RTVSPropertyOp38
 70
     1
102
RTVSPropertyOp39
 70
     1
102
RTVSPropertyOp40
 70
     1
102
RTVSPropertyOp41
 70
     1
102
RTVSPropertyOp42
 70
     1
102
RTVSPropertyOp43
 70
     1
102
RTVSPropertyOp44
 70
     1
102
RTVSPropertyOp45
 70
     1
102
RTVSPropertyOp46
 70
     1
102
RTVSPropertyOp47
 70
     1
102
RTVSPropertyOp48
 70
     1
102
RTVSPropertyOp49
 70
     1
102
RTVSPropertyOp50
 70
     1
102
RTVSPropertyOp51
 70
     0
102
RTVSPropertyOp52
 70
     0
102
RTVSPropertyOp53
 70
     1
102
RTVSPropertyOp54
 70
     1
102
RTVSPropertyOp55
 70
     1
102
RTVSPropertyOp56
 70
     1
102
RTVSPropertyOp57
 70
     1
102
RTVSPropertyOp58
 70
     1
102
RTVSPropertyOp59
 70
     1
102
RTVSPropertyOp60
 70
     1
102
RTVSPropertyOp61
 70
     1
102
RTVSPropertyOp62
 70
     1
  0
XRECORD
  5
BBA
102
{ACAD_REACTORS
330
BB9
102
}
330
BB9
100
AcDbXrecord
280
     1
102
RTVSPost2010Prop28
280
     0
102
RTVSPost2010PropOp28
 70
     1
102
RTVSPost2010Prop29
280
     1
102
RTVSPost2010PropOp29
 70
     1
102
RTVSPost2010Prop30
280
     1
102
RTVSPost2010PropOp30
 70
     1
102
RTVSPost2010Prop31
280
     0
102
RTVSPost2010PropOp31
 70
     1
102
RTVSPost2010Prop32
280
     0
102
RTVSPost2010PropOp32
 70
     1
102
RTVSPost2010Prop33
280
     0
102
RTVSPost2010PropOp33
 70
     1
102
RTVSPost2010Prop34
280
     0
102
RTVSPost2010PropOp34
 70
     1
102
RTVSPost2010Prop35
280
     0
102
RTVSPost2010PropOp35
 70
     1
102
RTVSPost2010Prop36
280
     0
102
RTVSPost2010PropOp36
 70
     1
102
RTVSPost2010Prop37
 90
       50
102
RTVSPost2010PropOp37
 70
     1
102
RTVSPost2010Prop38
140
0.0
102
RTVSPost2010PropOp38
 70
     1
102
RTVSPost2010Prop39
140
1.0
102
RTVSPost2010PropOp39
 70
     1
102
RTVSPost2010Prop40
 90
        0
102
RTVSPost2010PropOp40
 70
     1
102
RTVSPost2010Prop41ColorIndex
 90
       18
102
RTVSPost2010Prop41ColorRGB
 90
        0
102
RTVSPost2010PropOp41
 70
     1
102
RTVSPost2010Prop42
 90
       50
102
RTVSPost2010PropOp42
 70
     1
102
RTVSPost2010Prop43
 90
        3
102
RTVSPost2010PropOp43
 70
     1
102
RTVSPost2010Prop44ColorIndex
 90
        5
102
RTVSPost2010Prop44ColorRGB
 90
      255
102
RTVSPost2010PropOp44
 70
     1
102
RTVSPost2010Prop45
280
     0
102
RTVSPost2010PropOp45
 70
     1
102
RTVSPost2010Prop46
 90
       50
102
RTVSPost2010PropOp46
 70
     1
102
RTVSPost2010Prop47
 90
       50
102
RTVSPost2010PropOp47
 70
     1
102
RTVSPost2010Prop48
 90
       50
102
RTVSPost2010PropOp48
 70
     1
102
RTVSPost2010Prop49
280
     0
102
RTVSPost2010PropOp49
 70
     1
102
RTVSPost2010Prop50
 90
       50
102
RTVSPost2010PropOp50
 70
     1
102
RTVSPost2010Prop51ColorIndex
 90
      256
102
RTVSPost2010Prop51ColorRGB
 90
-16777216
102
RTVSPost2010PropOp51
 70
     0
102
RTVSPost2010Prop52
140
1.0
102
RTVSPost2010PropOp52
 70
     0
102
RTVSPost2010Prop53
 90
        2
102
RTVSPost2010PropOp53
 70
     1
102
RTVSPost2010Prop54
  1
strokes_ogs.tif
102
RTVSPost2010PropOp54
 70
     1
102
RTVSPost2010Prop55
280
     0
102
RTVSPost2010PropOp55
 70
     1
102
RTVSPost2010Prop56
140
1.0
102
RTVSPost2010PropOp56
 70
     1
102
RTVSPost2010Prop57
140
1.0
102
RTVSPost2010PropOp57
 70
     1
102
RTVSPropertyOp0
 70
     1
102
RTVSPropertyOp1
 70
     1
102
RTVSPropertyOp2
 70
     1
102
RTVSPropertyOp3
 70
     1
102
RTVSPropertyOp4
 70
     1
102
RTVSPropertyOp5
 70
     1
102
RTVSPropertyOp6
 70
     1
102
RTVSPropertyOp7
 70
     1
102
RTVSPropertyOp8
 70
     1
102
RTVSPropertyOp9
 70
     1
102
RTVSPropertyOp10
 70
     1
102
RTVSPropertyOp11
 70
     1
102
RTVSPropertyOp12
 70
     1
102
RTVSPropertyOp13
 70
     1
102
RTVSPropertyOp14
 70
     1
102
RTVSPropertyOp15
 70
     1
102
RTVSPropertyOp16
 70
     1
102
RTVSPropertyOp17
 70
     1
102
RTVSPropertyOp18
 70
     1
102
RTVSPropertyOp19
 70
     1
102
RTVSPropertyOp20
 70
     1
102
RTVSPropertyOp21
 70
     1
102
RTVSPropertyOp22
 70
     1
102
RTVSPropertyOp23
 70
     1
102
RTVSPropertyOp24
 70
     1
102
RTVSPropertyOp25
 70
     1
102
RTVSPropertyOp26
 70
     1
102
RTVSPropertyOp27
 70
     1
102
RTVSPropertyOp28
 70
     1
102
RTVSPropertyOp29
 70
     1
102
RTVSPropertyOp30
 70
     1
102
RTVSPropertyOp31
 70
     1
102
RTVSPropertyOp32
 70
     1
102
RTVSPropertyOp33
 70
     1
102
RTVSPropertyOp34
 70
     1
102
RTVSPropertyOp35
 70
     1
102
RTVSPropertyOp36
 70
     1
102
RTVSPropertyOp37
 70
     1
102
RTVSPropertyOp38
 70
     1
102
RTVSPropertyOp39
 70
     1
102
RTVSPropertyOp40
 70
     1
102
RTVSPropertyOp41
 70
     1
102
RTVSPropertyOp42
 70
     1
102
RTVSPropertyOp43
 70
     1
102
RTVSPropertyOp44
 70
     1
102
RTVSPropertyOp45
 70
     1
102
RTVSPropertyOp46
 70
     1
102
RTVSPropertyOp47
 70
     1
102
RTVSPropertyOp48
 70
     1
102
RTVSPropertyOp49
 70
     1
102
RTVSPropertyOp50
 70
     1
102
RTVSPropertyOp51
 70
     0
102
RTVSPropertyOp52
 70
     0
102
RTVSPropertyOp53
 70
     1
102
RTVSPropertyOp54
 70
     1
102
RTVSPropertyOp55
 70
     1
102
RTVSPropertyOp56
 70
     1
102
RTVSPropertyOp57
 70
     1
102
RTVSPropertyOp58
 70
     1
102
RTVSPropertyOp59
 70
     1
102
RTVSPropertyOp60
 70
     1
102
RTVSPropertyOp61
 70
     1
102
RTVSPropertyOp62
 70
     1
  0
XRECORD
  5
BD2
102
{ACAD_REACTORS
330
BD1
102
}
330
BD1
100
AcDbXrecord
280
     1
102
RTVSPost2010Prop28
280
     0
102
RTVSPost2010PropOp28
 70
     1
102
RTVSPost2010Prop29
280
     1
102
RTVSPost2010PropOp29
 70
     1
102
RTVSPost2010Prop30
280
     1
102
RTVSPost2010PropOp30
 70
     1
102
RTVSPost2010Prop31
280
     0
102
RTVSPost2010PropOp31
 70
     1
102
RTVSPost2010Prop32
280
     0
102
RTVSPost2010PropOp32
 70
     1
102
RTVSPost2010Prop33
280
     0
102
RTVSPost2010PropOp33
 70
     1
102
RTVSPost2010Prop34
280
     0
102
RTVSPost2010PropOp34
 70
     1
102
RTVSPost2010Prop35
280
     0
102
RTVSPost2010PropOp35
 70
     1
102
RTVSPost2010Prop36
280
     0
102
RTVSPost2010PropOp36
 70
     1
102
RTVSPost2010Prop37
 90
       50
102
RTVSPost2010PropOp37
 70
     1
102
RTVSPost2010Prop38
140
0.0
102
RTVSPost2010PropOp38
 70
     1
102
RTVSPost2010Prop39
140
1.0
102
RTVSPost2010PropOp39
 70
     1
102
RTVSPost2010Prop40
 90
        0
102
RTVSPost2010PropOp40
 70
     1
102
RTVSPost2010Prop41ColorIndex
 90
       18
102
RTVSPost2010Prop41ColorRGB
 90
        0
102
RTVSPost2010PropOp41
 70
     1
102
RTVSPost2010Prop42
 90
       50
102
RTVSPost2010PropOp42
 70
     1
102
RTVSPost2010Prop43
 90
        3
102
RTVSPost2010PropOp43
 70
     1
102
RTVSPost2010Prop44ColorIndex
 90
        5
102
RTVSPost2010Prop44ColorRGB
 90
      255
102
RTVSPost2010PropOp44
 70
     1
102
RTVSPost2010Prop45
280
     0
102
RTVSPost2010PropOp45
 70
     1
102
RTVSPost2010Prop46
 90
       50
102
RTVSPost2010PropOp46
 70
     1
102
RTVSPost2010Prop47
 90
       50
102
RTVSPost2010PropOp47
 70
     1
102
RTVSPost2010Prop48
 90
       50
102
RTVSPost2010PropOp48
 70
     1
102
RTVSPost2010Prop49
280
     0
102
RTVSPost2010PropOp49
 70
     1
102
RTVSPost2010Prop50
 90
       50
102
RTVSPost2010PropOp50
 70
     1
102
RTVSPost2010Prop51ColorIndex
 90
      256
102
RTVSPost2010Prop51ColorRGB
 90
-16777216
102
RTVSPost2010PropOp51
 70
     0
102
RTVSPost2010Prop52
140
1.0
102
RTVSPost2010PropOp52
 70
     0
102
RTVSPost2010Prop53
 90
        2
102
RTVSPost2010PropOp53
 70
     1
102
RTVSPost2010Prop54
  1
strokes_ogs.tif
102
RTVSPost2010PropOp54
 70
     1
102
RTVSPost2010Prop55
280
     0
102
RTVSPost2010PropOp55
 70
     1
102
RTVSPost2010Prop56
140
1.0
102
RTVSPost2010PropOp56
 70
     1
102
RTVSPost2010Prop57
140
1.0
102
RTVSPost2010PropOp57
 70
     1
102
RTVSPropertyOp0
 70
     1
102
RTVSPropertyOp1
 70
     1
102
RTVSPropertyOp2
 70
     1
102
RTVSPropertyOp3
 70
     1
102
RTVSPropertyOp4
 70
     1
102
RTVSPropertyOp5
 70
     1
102
RTVSPropertyOp6
 70
     1
102
RTVSPropertyOp7
 70
     1
102
RTVSPropertyOp8
 70
     1
102
RTVSPropertyOp9
 70
     1
102
RTVSPropertyOp10
 70
     1
102
RTVSPropertyOp11
 70
     1
102
RTVSPropertyOp12
 70
     1
102
RTVSPropertyOp13
 70
     1
102
RTVSPropertyOp14
 70
     1
102
RTVSPropertyOp15
 70
     1
102
RTVSPropertyOp16
 70
     1
102
RTVSPropertyOp17
 70
     1
102
RTVSPropertyOp18
 70
     1
102
RTVSPropertyOp19
 70
     1
102
RTVSPropertyOp20
 70
     1
102
RTVSPropertyOp21
 70
     1
102
RTVSPropertyOp22
 70
     1
102
RTVSPropertyOp23
 70
     1
102
RTVSPropertyOp24
 70
     1
102
RTVSPropertyOp25
 70
     1
102
RTVSPropertyOp26
 70
     1
102
RTVSPropertyOp27
 70
     1
102
RTVSPropertyOp28
 70
     1
102
RTVSPropertyOp29
 70
     1
102
RTVSPropertyOp30
 70
     1
102
RTVSPropertyOp31
 70
     1
102
RTVSPropertyOp32
 70
     1
102
RTVSPropertyOp33
 70
     1
102
RTVSPropertyOp34
 70
     1
102
RTVSPropertyOp35
 70
     1
102
RTVSPropertyOp36
 70
     1
102
RTVSPropertyOp37
 70
     1
102
RTVSPropertyOp38
 70
     1
102
RTVSPropertyOp39
 70
     1
102
RTVSPropertyOp40
 70
     1
102
RTVSPropertyOp41
 70
     1
102
RTVSPropertyOp42
 70
     1
102
RTVSPropertyOp43
 70
     1
102
RTVSPropertyOp44
 70
     1
102
RTVSPropertyOp45
 70
     1
102
RTVSPropertyOp46
 70
     1
102
RTVSPropertyOp47
 70
     1
102
RTVSPropertyOp48
 70
     1
102
RTVSPropertyOp49
 70
     1
102
RTVSPropertyOp50
 70
     1
102
RTVSPropertyOp51
 70
     0
102
RTVSPropertyOp52
 70
     0
102
RTVSPropertyOp53
 70
     1
102
RTVSPropertyOp54
 70
     1
102
RTVSPropertyOp55
 70
     1
102
RTVSPropertyOp56
 70
     1
102
RTVSPropertyOp57
 70
     1
102
RTVSPropertyOp58
 70
     1
102
RTVSPropertyOp59
 70
     1
102
RTVSPropertyOp60
 70
     1
102
RTVSPropertyOp61
 70
     1
102
RTVSPropertyOp62
 70
     1
  0
ENDSEC
  0
EOF
