  0
SECTION
  2
HEADER
  9
$ACADVER
  1
AC1018
  9
$ACADMAINTVER
 70
   104
  9
$DWGCODEPAGE
  3
ANSI_932
  9
$LASTSAVEDBY
  1
CPTIO008
  9
$INSBASE
 10
0.0
 20
0.0
 30
0.0
  9
$EXTMIN
 10
-237.2263146483291
 20
-53.74623665258929
 30
-0.0000000349181948
  9
$EXTMAX
 10
39.30780398018919
 20
135.7747899348982
 30
0.0000000814935746
  9
$LIMMIN
 10
-247.2100037059508
 20
-63.73738705550861
  9
$LIMMAX
 10
49.78999629404917
 20
146.2626129444914
  9
$ORTHOMODE
 70
     1
  9
$REGENMODE
 70
     1
  9
$FILLMODE
 70
     1
  9
$QTEXTMODE
 70
     0
  9
$MIRRTEXT
 70
     1
  9
$LTSCALE
 40
0.3
  9
$ATTMODE
 70
     1
  9
$TEXTSIZE
 40
2.5
  9
$TRACEWID
 40
1.0
  9
$TEXTSTYLE
  7
Standard
  9
$CLAYER
  8
寸法線
  9
$CELTYPE
  6
ByLayer
  9
$CECOLOR
 62
   256
  9
$CELTSCALE
 40
1.0
  9
$DISPSILH
 70
     0
  9
$DIMSCALE
 40
1.0
  9
$DIMASZ
 40
2.5
  9
$DIMEXO
 40
0.625
  9
$DIMDLI
 40
3.75
  9
$DIMRND
 40
0.0
  9
$DIMDLE
 40
0.0
  9
$DIMEXE
 40
1.25
  9
$DIMTP
 40
0.0
  9
$DIMTM
 40
0.0
  9
$DIMTXT
 40
2.5
  9
$DIMCEN
 40
2.5
  9
$DIMTSZ
 40
0.0
  9
$DIMTOL
 70
     0
  9
$DIMLIM
 70
     0
  9
$DIMTIH
 70
     0
  9
$DIMTOH
 70
     0
  9
$DIMSE1
 70
     0
  9
$DIMSE2
 70
     0
  9
$DIMTAD
 70
     1
  9
$DIMZIN
 70
     8
  9
$DIMBLK
  1

  9
$DIMASO
 70
     1
  9
$DIMSHO
 70
     1
  9
$DIMPOST
  1

  9
$DIMAPOST
  1

  9
$DIMALT
 70
     0
  9
$DIMALTD
 70
     3
  9
$DIMALTF
 40
0.03937007874016
  9
$DIMLFAC
 40
1.0
  9
$DIMTOFL
 70
     1
  9
$DIMTVP
 40
0.0
  9
$DIMTIX
 70
     0
  9
$DIMSOXD
 70
     0
  9
$DIMSAH
 70
     0
  9
$DIMBLK1
  1

  9
$DIMBLK2
  1

  9
$DIMSTYLE
  2
ISO-25
  9
$DIMCLRD
 70
     0
  9
$DIMCLRE
 70
     0
  9
$DIMCLRT
 70
     0
  9
$DIMTFAC
 40
1.0
  9
$DIMGAP
 40
0.625
  9
$DIMJUST
 70
     0
  9
$DIMSD1
 70
     0
  9
$DIMSD2
 70
     0
  9
$DIMTOLJ
 70
     0
  9
$DIMTZIN
 70
     8
  9
$DIMALTZ
 70
     0
  9
$DIMALTTZ
 70
     0
  9
$DIMUPT
 70
     0
  9
$DIMDEC
 70
     2
  9
$DIMTDEC
 70
     2
  9
$DIMALTU
 70
     2
  9
$DIMALTTD
 70
     3
  9
$DIMTXSTY
  7
Standard
  9
$DIMAUNIT
 70
     0
  9
$DIMADEC
 70
     0
  9
$DIMALTRND
 40
0.0
  9
$DIMAZIN
 70
     0
  9
$DIMDSEP
 70
    44
  9
$DIMATFIT
 70
     3
  9
$DIMFRAC
 70
     0
  9
$DIMLDRBLK
  1

  9
$DIMLUNIT
 70
     2
  9
$DIMLWD
 70
    -2
  9
$DIMLWE
 70
    -2
  9
$DIMTMOVE
 70
     0
  9
$LUNITS
 70
     2
  9
$LUPREC
 70
     4
  9
$SKETCHINC
 40
1.0
  9
$FILLETRAD
 40
10.0
  9
$AUNITS
 70
     0
  9
$AUPREC
 70
     0
  9
$MENU
  1
.
  9
$ELEVATION
 40
0.0
  9
$PELEVATION
 40
0.0
  9
$THICKNESS
 40
0.0
  9
$LIMCHECK
 70
     0
  9
$CHAMFERA
 40
10.0
  9
$CHAMFERB
 40
10.0
  9
$CHAMFERC
 40
20.0
  9
$CHAMFERD
 40
0.0
  9
$SKPOLY
 70
     0
  9
$TDCREATE
 40
2454600.758122465
  9
$TDUCREATE
 40
2454600.383122465
  9
$TDUPDATE
 40
2457458.618529433
  9
$TDUUPDATE
 40
2457458.243529433
  9
$TDINDWG
 40
0.0296687384
  9
$TDUSRTIMER
 40
0.0296625810
  9
$USRTIMER
 70
     1
  9
$ANGBASE
 50
0.0
  9
$ANGDIR
 70
     0
  9
$PDMODE
 70
     0
  9
$PDSIZE
 40
0.0
  9
$PLINEWID
 40
0.0
  9
$SPLFRAME
 70
     0
  9
$SPLINETYPE
 70
     6
  9
$SPLINESEGS
 70
     8
  9
$HANDSEED
  5
1003
  9
$SURFTAB1
 70
     6
  9
$SURFTAB2
 70
     6
  9
$SURFTYPE
 70
     6
  9
$SURFU
 70
     6
  9
$SURFV
 70
     6
  9
$UCSBASE
  2

  9
$UCSNAME
  2

  9
$UCSORG
 10
0.0
 20
0.0
 30
0.0
  9
$UCSXDIR
 10
1.0
 20
0.0
 30
0.0
  9
$UCSYDIR
 10
0.0
 20
1.0
 30
0.0
  9
$UCSORTHOREF
  2

  9
$UCSORTHOVIEW
 70
     0
  9
$UCSORGTOP
 10
0.0
 20
0.0
 30
0.0
  9
$UCSORGBOTTOM
 10
0.0
 20
0.0
 30
0.0
  9
$UCSORGLEFT
 10
0.0
 20
0.0
 30
0.0
  9
$UCSORGRIGHT
 10
0.0
 20
0.0
 30
0.0
  9
$UCSORGFRONT
 10
0.0
 20
0.0
 30
0.0
  9
$UCSORGBACK
 10
0.0
 20
0.0
 30
0.0
  9
$PUCSBASE
  2

  9
$PUCSNAME
  2

  9
$PUCSORG
 10
0.0
 20
0.0
 30
0.0
  9
$PUCSXDIR
 10
1.0
 20
0.0
 30
0.0
  9
$PUCSYDIR
 10
0.0
 20
1.0
 30
0.0
  9
$PUCSORTHOREF
  2

  9
$PUCSORTHOVIEW
 70
     0
  9
$PUCSORGTOP
 10
0.0
 20
0.0
 30
0.0
  9
$PUCSORGBOTTOM
 10
0.0
 20
0.0
 30
0.0
  9
$PUCSORGLEFT
 10
0.0
 20
0.0
 30
0.0
  9
$PUCSORGRIGHT
 10
0.0
 20
0.0
 30
0.0
  9
$PUCSORGFRONT
 10
0.0
 20
0.0
 30
0.0
  9
$PUCSORGBACK
 10
0.0
 20
0.0
 30
0.0
  9
$USERI1
 70
     0
  9
$USERI2
 70
     0
  9
$USERI3
 70
     0
  9
$USERI4
 70
     0
  9
$USERI5
 70
     0
  9
$USERR1
 40
0.0
  9
$USERR2
 40
0.0
  9
$USERR3
 40
0.0
  9
$USERR4
 40
0.0
  9
$USERR5
 40
0.0
  9
$WORLDVIEW
 70
     1
  9
$SHADEDGE
 70
     3
  9
$SHADEDIF
 70
    70
  9
$TILEMODE
 70
     1
  9
$MAXACTVP
 70
    64
  9
$PINSBASE
 10
0.0
 20
0.0
 30
0.0
  9
$PLIMCHECK
 70
     0
  9
$PEXTMIN
 10
1.000000000000000E+20
 20
1.000000000000000E+20
 30
1.000000000000000E+20
  9
$PEXTMAX
 10
-1.000000000000000E+20
 20
-1.000000000000000E+20
 30
-1.000000000000000E+20
  9
$PLIMMIN
 10
-247.2100037059508
 20
-63.73738705550861
  9
$PLIMMAX
 10
49.78999629404917
 20
146.2626129444914
  9
$UNITMODE
 70
     0
  9
$VISRETAIN
 70
     1
  9
$PLINEGEN
 70
     0
  9
$PSLTSCALE
 70
     1
  9
$TREEDEPTH
 70
  3020
  9
$CMLSTYLE
  2
Standard
  9
$CMLJUST
 70
     0
  9
$CMLSCALE
 40
20.0
  9
$PROXYGRAPHICS
 70
     1
  9
$MEASUREMENT
 70
     1
  9
$CELWEIGHT
370
    -1
  9
$ENDCAPS
280
     0
  9
$JOINSTYLE
280
     0
  9
$LWDISPLAY
290
     1
  9
$INSUNITS
 70
     4
  9
$HYPERLINKBASE
  1

  9
$STYLESHEET
  1
monochrome.ctb
  9
$XEDIT
290
     1
  9
$CEPSNTYPE
380
     0
  9
$PSTYLEMODE
290
     1
  9
$FINGERPRINTGUID
  2
{7B765ED9-52E4-474D-9527-E9649F3754D7}
  9
$VERSIONGUID
  2
{6FD9BEBC-7B9C-4F12-B9CB-82411CBEEE12}
  9
$EXTNAMES
290
     1
  9
$PSVPSCALE
 40
0.0
  9
$OLESTARTUP
290
     0
  9
$SORTENTS
280
   127
  9
$INDEXCTL
280
     0
  9
$HIDETEXT
280
     0
  9
$XCLIPFRAME
290
     0
  9
$HALOGAP
280
     0
  9
$OBSCOLOR
 70
   257
  9
$OBSLTYPE
280
     0
  9
$INTERSECTIONDISPLAY
280
     0
  9
$INTERSECTIONCOLOR
 70
   257
  9
$DIMASSOC
280
     1
  9
$PROJECTNAME
  1

  0
ENDSEC
  0
SECTION
  2
CLASSES
  0
CLASS
  1
ACDBDICTIONARYWDFLT
  2
AcDbDictionaryWithDefault
  3
ObjectDBX Classes
 90
        0
 91
        1
280
     0
281
     0
  0
CLASS
  1
TABLESTYLE
  2
AcDbTableStyle
  3
ObjectDBX Classes
 90
     4095
 91
        1
280
     0
281
     0
  0
CLASS
  1
SORTENTSTABLE
  2
AcDbSortentsTable
  3
ObjectDBX Classes
 90
        0
 91
        1
280
     0
281
     0
  0
CLASS
  1
DICTIONARYVAR
  2
AcDbDictionaryVar
  3
ObjectDBX Classes
 90
        0
 91
       12
280
     0
281
     0
  0
CLASS
  1
PLOTSETTINGS
  2
AcDbPlotSettings
  3
ObjectDBX Classes
 90
        0
 91
        2
280
     0
281
     0
  0
CLASS
  1
MATERIAL
  2
AcDbMaterial
  3
ObjectDBX Classes
 90
     1153
 91
        3
280
     0
281
     0
  0
CLASS
  1
VISUALSTYLE
  2
AcDbVisualStyle
  3
ObjectDBX Classes
 90
     4095
 91
       24
280
     0
281
     0
  0
CLASS
  1
SCALE
  2
AcDbScale
  3
ObjectDBX Classes
 90
     1153
 91
       17
280
     0
281
     0
  0
CLASS
  1
MLEADERSTYLE
  2
AcDbMLeaderStyle
  3
ACDB_MLEADERSTYLE_CLASS
 90
     4095
 91
        1
280
     0
281
     0
  0
CLASS
  1
ACDBSECTIONVIEWSTYLE
  2
AcDbSectionViewStyle
  3
ObjectDBX Classes
 90
     1025
 91
        1
280
     0
281
     0
  0
CLASS
  1
ACDBDETAILVIEWSTYLE
  2
AcDbDetailViewStyle
  3
ObjectDBX Classes
 90
     1025
 91
        1
280
     0
281
     0
  0
CLASS
  1
CELLSTYLEMAP
  2
AcDbCellStyleMap
  3
ObjectDBX Classes
 90
     1152
 91
        2
280
     0
281
     0
  0
ENDSEC
  0
SECTION
  2
TABLES
  0
TABLE
  2
VPORT
  5
8
330
0
100
AcDbSymbolTable
 70
     1
  0
VPORT
  5
E70
330
8
100
AcDbSymbolTableRecord
100
AcDbViewportTableRecord
  2
*Active
 70
     0
 10
0.0
 20
0.0
 11
1.0
 21
1.0
 12
-24.47361239253027
 22
-61.14264094210236
 13
0.0
 23
0.0
 14
10.0
 24
10.0
 15
10.0
 25
10.0
 16
0.0
 26
0.0
 36
1.0
 17
0.0
 27
0.0
 37
0.0
 40
228.5569314613968
 41
2.047557840616966
 42
50.0
 43
0.0
 44
0.0
 50
0.0
 51
0.0
 71
     0
 72
   100
 73
     1
 74
     3
 75
     0
 76
     0
 77
     0
 78
     0
281
     0
 65
     1
110
0.0
120
0.0
130
0.0
111
1.0
121
0.0
131
0.0
112
0.0
122
1.0
132
0.0
 79
     0
146
0.0
1001
ACAD_NAV_VCDISPLAY
1070
     3
  0
ENDTAB
  0
TABLE
  2
LTYPE
  5
5
330
0
100
AcDbSymbolTable
 70
     8
  0
LTYPE
  5
14
330
5
100
AcDbSymbolTableRecord
100
AcDbLinetypeTableRecord
  2
ByBlock
 70
     0
  3

 72
    65
 73
     0
 40
0.0
  0
LTYPE
  5
15
330
5
100
AcDbSymbolTableRecord
100
AcDbLinetypeTableRecord
  2
ByLayer
 70
     0
  3

 72
    65
 73
     0
 40
0.0
  0
LTYPE
  5
16
330
5
100
AcDbSymbolTableRecord
100
AcDbLinetypeTableRecord
  2
Continuous
 70
     0
  3
Solid line
 72
    65
 73
     0
 40
0.0
  0
LTYPE
  5
2A
330
5
100
AcDbSymbolTableRecord
100
AcDbLinetypeTableRecord
  2
CONTINOUS
 70
     0
  3
______________________________
 72
    65
 73
     0
 40
0.0
  0
LTYPE
  5
2B
330
5
100
AcDbSymbolTableRecord
100
AcDbLinetypeTableRecord
  2
DASHED
 70
     0
  3
__ __ __ __ __ __ __ __ __ __ __ __ __ __ __ __
 72
    65
 73
     2
 40
4.5
 49
3.0
 74
     0
 49
-1.5
 74
     0
  0
LTYPE
  5
2C
330
5
100
AcDbSymbolTableRecord
100
AcDbLinetypeTableRecord
  2
PHANTOM
 70
     0
  3
______  __  __  ______  __  __  _____
 72
    65
 73
     6
 40
15.0
 49
7.5
 74
     0
 49
-1.5
 74
     0
 49
1.5
 74
     0
 49
-1.5
 74
     0
 49
1.5
 74
     0
 49
-1.5
 74
     0
  0
LTYPE
  5
2D
330
5
100
AcDbSymbolTableRecord
100
AcDbLinetypeTableRecord
  2
CENTER
 70
     0
  3
____ _ ____ _ ____ _ ____ _ ____ _ ____
 72
    65
 73
     4
 40
12.0
 49
7.5
 74
     0
 49
-1.5
 74
     0
 49
1.5
 74
     0
 49
-1.5
 74
     0
  0
LTYPE
  5
160
330
5
100
AcDbSymbolTableRecord
100
AcDbLinetypeTableRecord
  2
CENTER2
 70
     0
  3
Center (.5x) ___ _ ___ _ ___ _ ___ _ ___ _ ___
 72
    65
 73
     4
 40
28.575
 49
19.05
 74
     0
 49
-3.174999999999998
 74
     0
 49
3.174999999999998
 74
     0
 49
-3.174999999999998
 74
     0
  0
LTYPE
  5
161
330
5
100
AcDbSymbolTableRecord
100
AcDbLinetypeTableRecord
  2
HIDDEN2
 70
     0
  3
Hidden (.5x) _ _ _ _ _ _ _ _ _ _ _ _ _ _ _ _ _
 72
    65
 73
     2
 40
4.762499999999998
 49
3.174999999999998
 74
     0
 49
-1.587499999999999
 74
     0
  0
ENDTAB
  0
TABLE
  2
LAYER
  5
2
102
{ACAD_XDICTIONARY
360
F42
102
}
330
0
100
AcDbSymbolTable
 70
    11
  0
LAYER
  5
10
102
{ACAD_XDICTIONARY
360
EDA
102
}
330
2
100
AcDbSymbolTableRecord
100
AcDbLayerTableRecord
  2
0
 70
     0
 62
     7
  6
Continuous
370
    -3
390
F
  0
LAYER
  5
CC
330
2
100
AcDbSymbolTableRecord
100
AcDbLayerTableRecord
  2
Defpoints
 70
     0
 62
     7
  6
Continuous
290
     0
370
    -3
390
F
  0
LAYER
  5
124
102
{ACAD_XDICTIONARY
360
EDC
102
}
330
2
100
AcDbSymbolTableRecord
100
AcDbLayerTableRecord
  2
VIEW0001
 70
     0
 62
     7
  6
Continuous
370
    -3
390
F
  0
LAYER
  5
12E
102
{ACAD_XDICTIONARY
360
EDE
102
}
330
2
100
AcDbSymbolTableRecord
100
AcDbLayerTableRecord
  2
VIEW0002
 70
     0
 62
     7
  6
Continuous
370
    -3
390
F
  0
LAYER
  5
162
102
{ACAD_XDICTIONARY
360
EE0
102
}
330
2
100
AcDbSymbolTableRecord
100
AcDbLayerTableRecord
  2
外形線
 70
     0
 62
     7
  6
Continuous
370
    30
390
F
1001
AcAecLayerStandard
1000

1000

  0
LAYER
  5
163
102
{ACAD_XDICTIONARY
360
EE2
102
}
330
2
100
AcDbSymbolTableRecord
100
AcDbLayerTableRecord
  2
図枠
 70
     0
 62
     7
  6
Continuous
370
    50
390
F
1001
AcAecLayerStandard
1000

1000

  0
LAYER
  5
164
102
{ACAD_XDICTIONARY
360
EE4
102
}
330
2
100
AcDbSymbolTableRecord
100
AcDbLayerTableRecord
  2
寸法線
 70
     0
 62
     3
  6
Continuous
370
    15
390
F
1001
AcAecLayerStandard
1000

1000

  0
LAYER
  5
165
102
{ACAD_XDICTIONARY
360
EE6
102
}
330
2
100
AcDbSymbolTableRecord
100
AcDbLayerTableRecord
  2
中心線
 70
     0
 62
     5
  6
CENTER2
370
    -3
390
F
1001
AcAecLayerStandard
1000

1000

  0
LAYER
  5
166
102
{ACAD_XDICTIONARY
360
EE8
102
}
330
2
100
AcDbSymbolTableRecord
100
AcDbLayerTableRecord
  2
破線
 70
     0
 62
     4
  6
HIDDEN2
370
    -3
390
F
1001
AcAecLayerStandard
1000

1000

  0
LAYER
  5
167
102
{ACAD_XDICTIONARY
360
EEA
102
}
330
2
100
AcDbSymbolTableRecord
100
AcDbLayerTableRecord
  2
文字
 70
     0
 62
     2
  6
Continuous
370
    -3
390
F
1001
AcAecLayerStandard
1000

1000

  0
LAYER
  5
168
102
{ACAD_XDICTIONARY
360
EEC
102
}
330
2
100
AcDbSymbolTableRecord
100
AcDbLayerTableRecord
  2
補助線
 70
     0
 62
   252
  6
HIDDEN2
290
     0
370
    -3
390
F
1001
AcAecLayerStandard
1000

1000

  0
ENDTAB
  0
TABLE
  2
STYLE
  5
3
330
0
100
AcDbSymbolTable
 70
     3
  0
STYLE
  5
11
330
3
100
AcDbSymbolTableRecord
100
AcDbTextStyleTableRecord
  2
Standard
 70
     0
 40
0.0
 41
1.0
 50
0.0
 71
     0
 42
2.5
  3
txt
  4
EXTFONT
  0
ENDTAB
  0
TABLE
  2
VIEW
  5
6
330
0
100
AcDbSymbolTable
 70
     1
  0
ENDTAB
  0
TABLE
  2
UCS
  5
7
330
0
100
AcDbSymbolTable
 70
     0
  0
ENDTAB
  0
TABLE
  2
APPID
  5
9
330
0
100
AcDbSymbolTable
 70
     7
  0
APPID
  5
12
330
9
100
AcDbSymbolTableRecord
100
AcDbRegAppTableRecord
  2
ACAD
 70
     0
  0
APPID
  5
16A
330
9
100
AcDbSymbolTableRecord
100
AcDbRegAppTableRecord
  2
AcAecLayerStandard
 70
     0
  0
APPID
  5
AB8
330
9
100
AcDbSymbolTableRecord
100
AcDbRegAppTableRecord
  2
ACAD_DSTYLE_DIMTEXT_FILL
 70
     0
  0
APPID
  5
E0D
330
9
100
AcDbSymbolTableRecord
100
AcDbRegAppTableRecord
  2
ACAD_PSEXT
 70
     0
  0
APPID
  5
ED1
330
9
100
AcDbSymbolTableRecord
100
AcDbRegAppTableRecord
  2
ACAD_NAV_VCDISPLAY
 70
     0
  0
APPID
  5
F3D
330
9
100
AcDbSymbolTableRecord
100
AcDbRegAppTableRecord
  2
ACAD_EXEMPT_FROM_CAD_STANDARDS
 70
     0
  0
APPID
  5
FFE
330
9
100
AcDbSymbolTableRecord
100
AcDbRegAppTableRecord
  2
ACAD_MLEADERVER
 70
     0
  0
ENDTAB
  0
TABLE
  2
DIMSTYLE
  5
A
330
0
100
AcDbSymbolTable
 70
     4
100
AcDbDimStyleTable
 71
     1
340
27
  0
DIMSTYLE
105
27
102
{ACAD_REACTORS
330
7B3
330
7B4
330
7B5
330
7B6
330
7B7
330
7B8
330
7B9
330
7BA
330
7BB
330
7BC
330
7BD
330
7BE
330
7BF
102
}
330
A
100
AcDbSymbolTableRecord
100
AcDbDimStyleTableRecord
  2
ISO-25
 70
     0
 41
2.5
 42
0.625
 43
3.75
 44
1.25
 73
     0
 74
     0
 77
     1
 78
     8
140
2.5
141
2.5
143
0.03937007874016
147
0.625
171
     3
172
     1
271
     2
272
     2
274
     3
278
    44
283
     0
284
     8
340
11
  0
DIMSTYLE
105
169
330
A
100
AcDbSymbolTableRecord
100
AcDbDimStyleTableRecord
  2
Standard
 70
     0
340
11
  0
ENDTAB
  0
TABLE
  2
BLOCK_RECORD
  5
1
330
0
100
AcDbSymbolTable
 70
    39
  0
BLOCK_RECORD
  5
1F
102
{ACAD_XDICTIONARY
360
1EA
102
}
330
1
100
AcDbSymbolTableRecord
100
AcDbBlockTableRecord
  2
*Model_Space
340
22
  0
BLOCK_RECORD
  5
1B
330
1
100
AcDbSymbolTableRecord
100
AcDbBlockTableRecord
  2
*Paper_Space
340
1E
  0
BLOCK_RECORD
  5
23
330
1
100
AcDbSymbolTableRecord
100
AcDbBlockTableRecord
  2
*Paper_Space0
340
26
  0
BLOCK_RECORD
  5
2E
330
1
100
AcDbSymbolTableRecord
100
AcDbBlockTableRecord
  2
DTL0001
340
0
  0
BLOCK_RECORD
  5
C6
330
1
100
AcDbSymbolTableRecord
100
AcDbBlockTableRecord
  2
_Open30
340
0
102
{BLKREFS
331
D63
331
D64
331
D6B
331
D6C
331
D72
331
D73
331
D7B
331
D7C
331
D84
331
D85
331
D8D
331
D8E
331
D9E
331
D9F
331
DAE
331
DAF
331
DB7
331
DB8
331
DC0
331
DC1
331
DD9
331
DDA
331
DE9
331
DEA
331
E7F
331
E80
102
}
  0
BLOCK_RECORD
  5
7C0
330
1
100
AcDbSymbolTableRecord
100
AcDbBlockTableRecord
  2
*D24
340
0
  0
BLOCK_RECORD
  5
7CB
330
1
100
AcDbSymbolTableRecord
100
AcDbBlockTableRecord
  2
*D25
340
0
  0
BLOCK_RECORD
  5
7D7
330
1
100
AcDbSymbolTableRecord
100
AcDbBlockTableRecord
  2
*D26
340
0
  0
BLOCK_RECORD
  5
7E2
330
1
100
AcDbSymbolTableRecord
100
AcDbBlockTableRecord
  2
*D27
340
0
  0
BLOCK_RECORD
  5
7EC
330
1
100
AcDbSymbolTableRecord
100
AcDbBlockTableRecord
  2
*D28
340
0
  0
BLOCK_RECORD
  5
7F8
330
1
100
AcDbSymbolTableRecord
100
AcDbBlockTableRecord
  2
*D29
340
0
  0
BLOCK_RECORD
  5
804
330
1
100
AcDbSymbolTableRecord
100
AcDbBlockTableRecord
  2
*D30
340
0
  0
BLOCK_RECORD
  5
810
330
1
100
AcDbSymbolTableRecord
100
AcDbBlockTableRecord
  2
*D31
340
0
  0
BLOCK_RECORD
  5
81B
330
1
100
AcDbSymbolTableRecord
100
AcDbBlockTableRecord
  2
*D32
340
0
  0
BLOCK_RECORD
  5
827
330
1
100
AcDbSymbolTableRecord
100
AcDbBlockTableRecord
  2
*D33
340
0
  0
BLOCK_RECORD
  5
831
330
1
100
AcDbSymbolTableRecord
100
AcDbBlockTableRecord
  2
*D34
340
0
  0
BLOCK_RECORD
  5
83D
330
1
100
AcDbSymbolTableRecord
100
AcDbBlockTableRecord
  2
*D35
340
0
  0
BLOCK_RECORD
  5
849
330
1
100
AcDbSymbolTableRecord
100
AcDbBlockTableRecord
  2
*D36
340
0
  0
ENDTAB
  0
ENDSEC
  0
SECTION
  2
BLOCKS
  0
BLOCK
  5
20
330
1F
100
AcDbEntity
  8
0
100
AcDbBlockBegin
  2
*Model_Space
 70
     0
 10
0.0
 20
0.0
 30
0.0
  3
*Model_Space
  1

  0
ENDBLK
  5
21
330
1F
100
AcDbEntity
  8
0
100
AcDbBlockEnd
  0
BLOCK
  5
1C
330
1B
100
AcDbEntity
 67
     1
  8
0
100
AcDbBlockBegin
  2
*Paper_Space
 70
     0
 10
0.0
 20
0.0
 30
0.0
  3
*Paper_Space
  1

  0
ENDBLK
  5
1D
330
1B
100
AcDbEntity
 67
     1
  8
0
100
AcDbBlockEnd
  0
BLOCK
  5
24
330
23
100
AcDbEntity
 67
     1
  8
0
100
AcDbBlockBegin
  2
*Paper_Space0
 70
     0
 10
0.0
 20
0.0
 30
0.0
  3
*Paper_Space0
  1

  0
ENDBLK
  5
25
330
23
100
AcDbEntity
 67
     1
  8
0
100
AcDbBlockEnd
  0
BLOCK
  5
2F
330
2E
100
AcDbEntity
  8
0
100
AcDbBlockBegin
  2
DTL0001
 70
     0
 10
0.0
 20
0.0
 30
0.0
  3
DTL0001
  1

  0
POINT
  5
31
330
2E
100
AcDbEntity
  8
0
 62
     0
100
AcDbPoint
 10
-210.0
 20
148.5
 30
0.0
  0
POINT
  5
32
330
2E
100
AcDbEntity
  8
0
 62
     0
100
AcDbPoint
 10
210.0
 20
-148.5
 30
0.0
  0
POINT
  5
33
330
2E
100
AcDbEntity
  8
0
 62
     0
100
AcDbPoint
 10
0.0
 20
0.0
 30
0.0
  0
POINT
  5
34
330
2E
100
AcDbEntity
  8
0
 62
     0
100
AcDbPoint
 10
199.0
 20
-143.5
 30
0.0
  0
MTEXT
  5
35
330
2E
100
AcDbEntity
  8
0
 62
     3
100
AcDbMText
 10
-176.0001562833786
 20
127.0
 30
0.0
 40
7.0
 41
0.0
 71
     7
 72
     1
  1
{\W1;A3}
 73
     1
 44
1.0
  0
ENDBLK
  5
30
330
2E
100
AcDbEntity
  8
0
100
AcDbBlockEnd
  0
BLOCK
  5
C7
330
C6
100
AcDbEntity
  8
0
100
AcDbBlockBegin
  2
_Open30
 70
     0
 10
0.0
 20
0.0
 30
0.0
  3
_Open30
  1

  0
LINE
  5
C9
330
C6
100
AcDbEntity
  8
0
  6
ByBlock
 62
     0
370
    -2
100
AcDbLine
 10
-1.0
 20
0.267949
 30
0.0
 11
0.0
 21
0.0
 31
0.0
  0
LINE
  5
CA
330
C6
100
AcDbEntity
  8
0
  6
ByBlock
 62
     0
370
    -2
100
AcDbLine
 10
0.0
 20
0.0
 30
0.0
 11
-1.0
 21
-0.267949
 31
0.0
  0
LINE
  5
CB
330
C6
100
AcDbEntity
  8
0
  6
ByBlock
 62
     0
370
    -2
100
AcDbLine
 10
0.0
 20
0.0
 30
0.0
 11
-1.0
 21
0.0
 31
0.0
  0
ENDBLK
  5
C8
330
C6
100
AcDbEntity
  8
0
100
AcDbBlockEnd
  0
BLOCK
  5
7C9
330
7C0
100
AcDbEntity
  8
0
100
AcDbBlockBegin
  2
*D24
 70
     1
 10
0.0
 20
0.0
 30
0.0
  3
*D24
  1

  0
ARC
  5
E7E
330
7C0
100
AcDbEntity
  8
寸法線
 62
     0
440
 16777216
370
    -2
100
AcDbCircle
 10
-154.1348968398499
 20
81.54628571280351
 30
0.0
 40
12.46460383901792
100
AcDbArc
 50
283.8235352904214
 51
346.1764808554845
  0
INSERT
  5
E7F
330
7C0
100
AcDbEntity
  8
寸法線
 62
     0
440
 16777216
370
    -2
100
AcDbBlockReference
  2
_Open30
 10
-154.1348977230214
 20
69.08168187378561
 30
0.0
 41
3.0
 42
3.0
 43
3.0
 50
186.9117656153828
  0
INSERT
  5
E80
330
7C0
100
AcDbEntity
  8
寸法線
 62
     0
440
 16777216
370
    -2
100
AcDbBlockReference
  2
_Open30
 10
-141.6702930008328
 20
81.54629010849067
 30
0.0
 41
3.0
 42
3.0
 43
3.0
 50
83.08825053052308
  0
MTEXT
  5
E81
330
7C0
100
AcDbEntity
  8
寸法線
 62
     0
440
 16777216
100
AcDbMText
 10
-146.4331273250334
 20
75.06716570641834
 30
0.0
 40
3.200000047683714
 41
0.0
 71
     5
 72
     1
  1
90\U+00B0
 11
0.6437531107076132
 21
0.7652332536255018
 31
0.0
 73
     1
 44
1.0
  0
POINT
  5
E82
330
7C0
100
AcDbEntity
  8
Defpoints
 62
     0
440
 16777216
100
AcDbPoint
 10
-154.1348968398499
 20
81.54628571280351
 30
0.0
  0
POINT
  5
E83
330
7C0
100
AcDbEntity
  8
Defpoints
 62
     0
440
 16777216
100
AcDbPoint
 10
-154.1348996724184
 20
41.56895137402279
 30
0.0
  0
POINT
  5
E84
330
7C0
100
AcDbEntity
  8
Defpoints
 62
     0
440
 16777216
100
AcDbPoint
 10
-110.0128186445316
 20
81.54630127261233
 30
0.0
  0
POINT
  5
E85
330
7C0
100
AcDbEntity
  8
Defpoints
 62
     0
440
 16777216
100
AcDbPoint
 10
-147.9025941613147
 20
70.75162257832897
 30
0.0
  0
ENDBLK
  5
7CA
330
7C0
100
AcDbEntity
  8
0
100
AcDbBlockEnd
  0
BLOCK
  5
7D5
330
7CB
100
AcDbEntity
  8
0
100
AcDbBlockBegin
  2
*D25
 70
     1
 10
0.0
 20
0.0
 30
0.0
  3
*D25
  1

  0
LINE
  5
D60
330
7CB
100
AcDbEntity
  8
寸法線
 62
     0
440
 16777216
370
    -2
100
AcDbLine
 10
-162.1558872548376
 20
51.90128394742174
 30
0.0
 11
-162.1558872548376
 21
37.13364449621066
 31
0.0
  0
LINE
  5
D61
330
7CB
100
AcDbEntity
  8
寸法線
 62
     0
440
 16777216
370
    -2
100
AcDbLine
 10
-146.1138922546241
 20
51.25130379353302
 30
0.0
 11
-146.1138922546241
 21
37.13364449621066
 31
0.0
  0
LINE
  5
D62
330
7CB
100
AcDbEntity
  8
寸法線
 62
     0
440
 16777216
370
    -2
100
AcDbLine
 10
-159.1558872548375
 20
38.13364449621067
 30
0.0
 11
-149.1138922546241
 21
38.13364449621067
 31
0.0
  0
INSERT
  5
D63
330
7CB
100
AcDbEntity
  8
寸法線
 62
     0
440
 16777216
370
    -2
100
AcDbBlockReference
  2
_Open30
 10
-162.1558872548376
 20
38.13364449621067
 30
0.0
 41
3.0
 42
3.0
 43
3.0
 50
180.0
  0
INSERT
  5
D64
330
7CB
100
AcDbEntity
  8
寸法線
 62
     0
440
 16777216
370
    -2
100
AcDbBlockReference
  2
_Open30
 10
-146.1138922546241
 20
38.13364449621067
 30
0.0
 41
3.0
 42
3.0
 43
3.0
  0
MTEXT
  5
D65
102
{ACAD_XDICTIONARY
360
FC7
102
}
330
7CB
100
AcDbEntity
  8
寸法線
 62
     0
440
 16777216
100
AcDbMText
 10
-154.1348897547308
 20
40.53364453197345
 30
0.0
 40
3.200000047683714
 41
0.0
 71
     5
 72
     1
  1
\U+2205A
 73
     1
 44
1.0
  0
POINT
  5
D66
330
7CB
100
AcDbEntity
  8
Defpoints
 62
     0
440
 16777216
100
AcDbPoint
 10
-162.1558872548376
 20
54.44128394742175
 30
0.0
  0
POINT
  5
D67
330
7CB
100
AcDbEntity
  8
Defpoints
 62
     0
440
 16777216
100
AcDbPoint
 10
-146.1138922546241
 20
53.79130379353302
 30
0.0
  0
POINT
  5
D68
330
7CB
100
AcDbEntity
  8
Defpoints
 62
     0
440
 16777216
100
AcDbPoint
 10
-146.1138922546241
 20
38.13364449621067
 30
0.0
  0
ENDBLK
  5
7D6
330
7CB
100
AcDbEntity
  8
0
100
AcDbBlockEnd
  0
BLOCK
  5
7E0
330
7D7
100
AcDbEntity
  8
0
100
AcDbBlockBegin
  2
*D26
 70
     1
 10
0.0
 20
0.0
 30
0.0
  3
*D26
  1

  0
LINE
  5
D69
330
7D7
100
AcDbEntity
  8
寸法線
 62
     0
440
 16777216
370
    -2
100
AcDbLine
 10
-168.6446947216305
 20
81.54629147809599
 30
0.0
 11
-175.9924150786951
 21
81.54629147809599
 31
0.0
  0
LINE
  5
D6A
330
7D7
100
AcDbEntity
  8
寸法線
 62
     0
440
 16777216
370
    -2
100
AcDbLine
 10
-174.9924150786951
 20
50.29130389039056
 30
0.0
 11
-174.9924150786951
 21
78.54629147809602
 31
0.0
  0
INSERT
  5
D6B
330
7D7
100
AcDbEntity
  8
寸法線
 62
     0
440
 16777216
370
    -2
100
AcDbBlockReference
  2
_Open30
 10
-174.9924150786951
 20
47.29130389039055
 30
0.0
 41
3.0
 42
3.0
 43
3.0
 50
270.0
  0
INSERT
  5
D6C
330
7D7
100
AcDbEntity
  8
寸法線
 62
     0
440
 16777216
370
    -2
100
AcDbBlockReference
  2
_Open30
 10
-174.9924150786951
 20
81.54629147809599
 30
0.0
 41
3.0
 42
3.0
 43
3.0
 50
90.0
  0
MTEXT
  5
D6D
330
7D7
100
AcDbEntity
  8
寸法線
 62
     0
440
 16777216
100
AcDbMText
 10
-177.3924151144579
 20
64.41880760245601
 30
0.0
 40
3.200000047683714
 41
0.0
 71
     5
 72
     1
  1
L2
 11
0.0000000000000001
 21
1.0
 31
0.0
 73
     1
 44
1.0
  0
POINT
  5
D6E
330
7D7
100
AcDbEntity
  8
Defpoints
 62
     0
440
 16777216
100
AcDbPoint
 10
-163.0399124339252
 20
47.29130389039055
 30
0.0
  0
POINT
  5
D6F
330
7D7
100
AcDbEntity
  8
Defpoints
 62
     0
440
 16777216
100
AcDbPoint
 10
-166.1046947216305
 20
81.54629147809599
 30
0.0
  0
POINT
  5
D70
330
7D7
100
AcDbEntity
  8
Defpoints
 62
     0
440
 16777216
100
AcDbPoint
 10
-174.9924150786951
 20
81.54629147809599
 30
0.0
  0
ENDBLK
  5
7E1
330
7D7
100
AcDbEntity
  8
0
100
AcDbBlockEnd
  0
BLOCK
  5
7EA
330
7E2
100
AcDbEntity
  8
0
100
AcDbBlockBegin
  2
*D27
 70
     1
 10
0.0
 20
0.0
 30
0.0
  3
*D27
  1

  0
LINE
  5
D71
330
7E2
100
AcDbEntity
  8
寸法線
 62
     0
440
 16777216
370
    -2
100
AcDbLine
 10
-174.9924150786951
 20
84.54629147809603
 30
0.0
 11
-174.9924150786951
 21
102.4013139345181
 31
0.0
  0
INSERT
  5
D72
330
7E2
100
AcDbEntity
  8
寸法線
 62
     0
440
 16777216
370
    -2
100
AcDbBlockReference
  2
_Open30
 10
-174.9924150786951
 20
81.54629147809599
 30
0.0
 41
3.0
 42
3.0
 43
3.0
 50
270.0
  0
INSERT
  5
D73
330
7E2
100
AcDbEntity
  8
寸法線
 62
     0
440
 16777216
370
    -2
100
AcDbBlockReference
  2
_Open30
 10
-174.9924150786951
 20
105.4013139345181
 30
0.0
 41
3.0
 42
3.0
 43
3.0
 50
90.0
  0
MTEXT
  5
D74
330
7E2
100
AcDbEntity
  8
寸法線
 62
     0
440
 16777216
100
AcDbMText
 10
-177.3924151144579
 20
93.47380518586023
 30
0.0
 40
3.200000047683714
 41
0.0
 71
     5
 72
     1
  1
L1
 11
0.0000000000000001
 21
1.0
 31
0.0
 73
     1
 44
1.0
  0
POINT
  5
D75
330
7E2
100
AcDbEntity
  8
Defpoints
 62
     0
440
 16777216
100
AcDbPoint
 10
-166.1046947216305
 20
81.54629147809599
 30
0.0
  0
POINT
  5
D76
330
7E2
100
AcDbEntity
  8
Defpoints
 62
     0
440
 16777216
100
AcDbPoint
 10
-163.0399124339252
 20
105.4013139345181
 30
0.0
  0
POINT
  5
D77
330
7E2
100
AcDbEntity
  8
Defpoints
 62
     0
440
 16777216
100
AcDbPoint
 10
-174.9924150786951
 20
105.4013139345181
 30
0.0
  0
ENDBLK
  5
7EB
330
7E2
100
AcDbEntity
  8
0
100
AcDbBlockEnd
  0
BLOCK
  5
7F6
330
7EC
100
AcDbEntity
  8
0
100
AcDbBlockBegin
  2
*D28
 70
     1
 10
0.0
 20
0.0
 30
0.0
  3
*D28
  1

  0
LINE
  5
D78
330
7EC
100
AcDbEntity
  8
寸法線
 62
     0
440
 16777216
370
    -2
100
AcDbLine
 10
-163.5399124339252
 20
105.4013139345181
 30
0.0
 11
-187.9311512441779
 21
105.4013139345181
 31
0.0
  0
LINE
  5
D79
330
7EC
100
AcDbEntity
  8
寸法線
 62
     0
440
 16777216
370
    -2
100
AcDbLine
 10
-163.5399124339252
 20
47.29130389039055
 30
0.0
 11
-187.931151244178
 21
47.29130389039055
 31
0.0
  0
LINE
  5
D7A
330
7EC
100
AcDbEntity
  8
寸法線
 62
     0
440
 16777216
370
    -2
100
AcDbLine
 10
-186.9311512441779
 20
102.4013139345181
 30
0.0
 11
-186.931151244178
 21
50.29130389039057
 31
0.0
  0
INSERT
  5
D7B
330
7EC
100
AcDbEntity
  8
寸法線
 62
     0
440
 16777216
370
    -2
100
AcDbBlockReference
  2
_Open30
 10
-186.9311512441779
 20
105.4013139345181
 30
0.0
 41
3.0
 42
3.0
 43
3.0
 50
90.0
  0
INSERT
  5
D7C
330
7EC
100
AcDbEntity
  8
寸法線
 62
     0
440
 16777216
370
    -2
100
AcDbBlockReference
  2
_Open30
 10
-186.931151244178
 20
47.29130389039055
 30
0.0
 41
3.0
 42
3.0
 43
3.0
 50
270.0
  0
MTEXT
  5
D7D
330
7EC
100
AcDbEntity
  8
寸法線
 62
     0
440
 16777216
100
AcDbMText
 10
-189.3311512799408
 20
76.34631139200751
 30
0.0
 40
3.200000047683714
 41
0.0
 71
     5
 72
     1
  1
L5
 11
0.0000000000000001
 21
1.0
 31
0.0
 73
     1
 44
1.0
  0
POINT
  5
D7E
330
7EC
100
AcDbEntity
  8
Defpoints
 62
     0
440
 16777216
100
AcDbPoint
 10
-163.0399124339252
 20
105.4013139345181
 30
0.0
  0
POINT
  5
D7F
330
7EC
100
AcDbEntity
  8
Defpoints
 62
     0
440
 16777216
100
AcDbPoint
 10
-163.0399124339252
 20
47.29130389039055
 30
0.0
  0
POINT
  5
D80
330
7EC
100
AcDbEntity
  8
Defpoints
 62
     0
440
 16777216
100
AcDbPoint
 10
-186.931151244178
 20
47.29130389039055
 30
0.0
  0
ENDBLK
  5
7F7
330
7EC
100
AcDbEntity
  8
0
100
AcDbBlockEnd
  0
BLOCK
  5
802
330
7F8
100
AcDbEntity
  8
0
100
AcDbBlockBegin
  2
*D29
 70
     1
 10
0.0
 20
0.0
 30
0.0
  3
*D29
  1

  0
LINE
  5
D81
330
7F8
100
AcDbEntity
  8
寸法線
 62
     0
440
 16777216
370
    -2
100
AcDbLine
 10
-154.1348996729436
 20
109.7853133196962
 30
0.0
 11
-154.1348996729436
 21
115.6428938062683
 31
0.0
  0
LINE
  5
D82
330
7F8
100
AcDbEntity
  8
寸法線
 62
     0
440
 16777216
370
    -2
100
AcDbLine
 10
-119.8798922488126
 20
90.95129927997135
 30
0.0
 11
-119.8798922488126
 21
115.6428938062683
 31
0.0
  0
LINE
  5
D83
330
7F8
100
AcDbEntity
  8
寸法線
 62
     0
440
 16777216
370
    -2
100
AcDbLine
 10
-151.1348996729436
 20
114.6428938062683
 30
0.0
 11
-122.8798922488126
 21
114.6428938062683
 31
0.0
  0
INSERT
  5
D84
330
7F8
100
AcDbEntity
  8
寸法線
 62
     0
440
 16777216
370
    -2
100
AcDbBlockReference
  2
_Open30
 10
-154.1348996729436
 20
114.6428938062683
 30
0.0
 41
3.0
 42
3.0
 43
3.0
 50
180.0
  0
INSERT
  5
D85
330
7F8
100
AcDbEntity
  8
寸法線
 62
     0
440
 16777216
370
    -2
100
AcDbBlockReference
  2
_Open30
 10
-119.8798922488126
 20
114.6428938062683
 30
0.0
 41
3.0
 42
3.0
 43
3.0
  0
MTEXT
  5
D86
330
7F8
100
AcDbEntity
  8
寸法線
 62
     0
440
 16777216
100
AcDbMText
 10
-137.0073959608781
 20
117.0428938420311
 30
0.0
 40
3.200000047683714
 41
0.0
 71
     5
 72
     1
  1
L3
 73
     1
 44
1.0
  0
POINT
  5
D87
330
7F8
100
AcDbEntity
  8
Defpoints
 62
     0
440
 16777216
100
AcDbPoint
 10
-154.1348996729436
 20
109.2853133196962
 30
0.0
  0
POINT
  5
D88
330
7F8
100
AcDbEntity
  8
Defpoints
 62
     0
440
 16777216
100
AcDbPoint
 10
-119.8798922488126
 20
90.45129927997136
 30
0.0
  0
POINT
  5
D89
330
7F8
100
AcDbEntity
  8
Defpoints
 62
     0
440
 16777216
100
AcDbPoint
 10
-119.8798922488126
 20
114.6428938062683
 30
0.0
  0
ENDBLK
  5
803
330
7F8
100
AcDbEntity
  8
0
100
AcDbBlockEnd
  0
BLOCK
  5
80E
330
804
100
AcDbEntity
  8
0
100
AcDbBlockBegin
  2
*D30
 70
     1
 10
0.0
 20
0.0
 30
0.0
  3
*D30
  1

  0
LINE
  5
D8A
330
804
100
AcDbEntity
  8
寸法線
 62
     0
440
 16777216
370
    -2
100
AcDbLine
 10
-163.5399124339252
 20
47.29130389039055
 30
0.0
 11
-168.6664644373717
 21
47.29130389039055
 31
0.0
  0
LINE
  5
D8B
330
804
100
AcDbEntity
  8
寸法線
 62
     0
440
 16777216
370
    -2
100
AcDbLine
 10
-162.4089064006687
 20
64.19132347498642
 30
0.0
 11
-168.6664644373717
 21
64.19132347498642
 31
0.0
  0
LINE
  5
D8C
330
804
100
AcDbEntity
  8
寸法線
 62
     0
440
 16777216
370
    -2
100
AcDbLine
 10
-167.6664644373717
 20
50.29130389039056
 30
0.0
 11
-167.6664644373717
 21
61.19132347498641
 31
0.0
  0
INSERT
  5
D8D
330
804
100
AcDbEntity
  8
寸法線
 62
     0
440
 16777216
370
    -2
100
AcDbBlockReference
  2
_Open30
 10
-167.6664644373717
 20
47.29130389039055
 30
0.0
 41
3.0
 42
3.0
 43
3.0
 50
270.0
  0
INSERT
  5
D8E
330
804
100
AcDbEntity
  8
寸法線
 62
     0
440
 16777216
370
    -2
100
AcDbBlockReference
  2
_Open30
 10
-167.6664644373717
 20
64.19132347498642
 30
0.0
 41
3.0
 42
3.0
 43
3.0
 50
90.0
  0
MTEXT
  5
D8F
330
804
100
AcDbEntity
  8
寸法線
 62
     0
440
 16777216
100
AcDbMText
 10
-170.0664644731345
 20
55.74131368268849
 30
0.0
 40
3.200000047683714
 41
0.0
 71
     5
 72
     1
  1
L4
 11
0.0000000000000001
 21
1.0
 31
0.0
 73
     1
 44
1.0
  0
POINT
  5
D90
330
804
100
AcDbEntity
  8
Defpoints
 62
     0
440
 16777216
100
AcDbPoint
 10
-163.0399124339252
 20
47.29130389039055
 30
0.0
  0
POINT
  5
D91
330
804
100
AcDbEntity
  8
Defpoints
 62
     0
440
 16777216
100
AcDbPoint
 10
-161.9089064006687
 20
64.19132347498642
 30
0.0
  0
POINT
  5
D92
330
804
100
AcDbEntity
  8
Defpoints
 62
     0
440
 16777216
100
AcDbPoint
 10
-167.6664644373717
 20
64.19132347498642
 30
0.0
  0
ENDBLK
  5
80F
330
804
100
AcDbEntity
  8
0
100
AcDbBlockEnd
  0
BLOCK
  5
819
330
810
100
AcDbEntity
  8
0
100
AcDbBlockBegin
  2
*D31
 70
     1
 10
0.0
 20
0.0
 30
0.0
  3
*D31
  1

  0
LINE
  5
DE7
330
810
100
AcDbEntity
  8
寸法線
 62
     0
440
 16777216
370
    -2
100
AcDbLine
 10
-68.60373912355758
 20
78.29817299450741
 30
0.0
 11
-81.35271259391814
 21
78.29817299450741
 31
0.0
  0
LINE
  5
DE8
330
810
100
AcDbEntity
  8
寸法線
 62
     0
440
 16777216
370
    -2
100
AcDbLine
 10
-80.35271259391814
 20
39.76317299450741
 30
0.0
 11
-80.35271259391814
 21
75.29817299450741
 31
0.0
  0
INSERT
  5
DE9
330
810
100
AcDbEntity
  8
寸法線
 62
     0
440
 16777216
370
    -2
100
AcDbBlockReference
  2
_Open30
 10
-80.35271259391814
 20
36.76317299450742
 30
0.0
 41
3.0
 42
3.0
 43
3.0
 50
270.0
  0
INSERT
  5
DEA
330
810
100
AcDbEntity
  8
寸法線
 62
     0
440
 16777216
370
    -2
100
AcDbBlockReference
  2
_Open30
 10
-80.35271259391814
 20
78.29817299450741
 30
0.0
 41
3.0
 42
3.0
 43
3.0
 50
90.0
  0
MTEXT
  5
DEB
330
810
100
AcDbEntity
  8
寸法線
 62
     0
440
 16777216
100
AcDbMText
 10
-82.75271262968095
 20
55.56963035477325
 30
0.0
 40
3.200000047683714
 41
0.0
 71
     5
 72
     1
  1
L2
 11
0.0000000000000001
 21
1.0
 31
0.0
 73
     1
 44
1.0
  0
POINT
  5
DEC
330
810
100
AcDbEntity
  8
Defpoints
 62
     0
440
 16777216
100
AcDbPoint
 10
-65.73220589271378
 20
36.76317299450741
 30
0.0
  0
POINT
  5
DED
330
810
100
AcDbEntity
  8
Defpoints
 62
     0
440
 16777216
100
AcDbPoint
 10
-68.1037391235576
 20
78.29817299450741
 30
0.0
  0
POINT
  5
DEE
330
810
100
AcDbEntity
  8
Defpoints
 62
     0
440
 16777216
100
AcDbPoint
 10
-80.35271259391814
 20
78.29817299450741
 30
0.0
  0
ENDBLK
  5
81A
330
810
100
AcDbEntity
  8
0
100
AcDbBlockEnd
  0
BLOCK
  5
825
330
81B
100
AcDbEntity
  8
0
100
AcDbBlockBegin
  2
*D32
 70
     1
 10
0.0
 20
0.0
 30
0.0
  3
*D32
  1

  0
LINE
  5
D9B
330
81B
100
AcDbEntity
  8
寸法線
 62
     0
440
 16777216
370
    -2
100
AcDbLine
 10
-66.23220589271378
 20
116.3231729945076
 30
0.0
 11
-88.66432107525637
 21
116.3231729945076
 31
0.0
  0
LINE
  5
D9C
330
81B
100
AcDbEntity
  8
寸法線
 62
     0
440
 16777216
370
    -2
100
AcDbLine
 10
-66.23220589271378
 20
36.76317299450741
 30
0.0
 11
-88.66432107525637
 21
36.76317299450742
 31
0.0
  0
LINE
  5
D9D
330
81B
100
AcDbEntity
  8
寸法線
 62
     0
440
 16777216
370
    -2
100
AcDbLine
 10
-87.66432107525636
 20
113.3231729945076
 30
0.0
 11
-87.66432107525636
 21
39.76317299450741
 31
0.0
  0
INSERT
  5
D9E
330
81B
100
AcDbEntity
  8
寸法線
 62
     0
440
 16777216
370
    -2
100
AcDbBlockReference
  2
_Open30
 10
-87.66432107525636
 20
116.3231729945076
 30
0.0
 41
3.0
 42
3.0
 43
3.0
 50
90.0
  0
INSERT
  5
D9F
330
81B
100
AcDbEntity
  8
寸法線
 62
     0
440
 16777216
370
    -2
100
AcDbBlockReference
  2
_Open30
 10
-87.66432107525636
 20
36.76317299450742
 30
0.0
 41
3.0
 42
3.0
 43
3.0
 50
270.0
  0
MTEXT
  5
DA0
330
81B
100
AcDbEntity
  8
寸法線
 62
     0
440
 16777216
100
AcDbMText
 10
-90.06432111101917
 20
76.54317299450756
 30
0.0
 40
3.200000047683714
 41
0.0
 71
     5
 72
     1
  1
L5
 11
0.0000000000000001
 21
1.0
 31
0.0
 73
     1
 44
1.0
  0
POINT
  5
DA1
330
81B
100
AcDbEntity
  8
Defpoints
 62
     0
440
 16777216
100
AcDbPoint
 10
-65.73220589271378
 20
116.3231729945076
 30
0.0
  0
POINT
  5
DA2
330
81B
100
AcDbEntity
  8
Defpoints
 62
     0
440
 16777216
100
AcDbPoint
 10
-65.73220589271378
 20
36.76317299450741
 30
0.0
  0
POINT
  5
DA3
330
81B
100
AcDbEntity
  8
Defpoints
 62
     0
440
 16777216
100
AcDbPoint
 10
-87.66432107525636
 20
36.76317299450742
 30
0.0
  0
ENDBLK
  5
826
330
81B
100
AcDbEntity
  8
0
100
AcDbBlockEnd
  0
BLOCK
  5
82F
330
827
100
AcDbEntity
  8
0
100
AcDbBlockBegin
  2
*D33
 70
     1
 10
0.0
 20
0.0
 30
0.0
  3
*D33
  1

  0
LINE
  5
DD8
330
827
100
AcDbEntity
  8
寸法線
 62
     0
440
 16777216
370
    -2
100
AcDbLine
 10
-80.35271259391814
 20
81.2981729945074
 30
0.0
 11
-80.3527125939181
 21
113.3231729945076
 31
0.0
  0
INSERT
  5
DD9
330
827
100
AcDbEntity
  8
寸法線
 62
     0
440
 16777216
370
    -2
100
AcDbBlockReference
  2
_Open30
 10
-80.35271259391814
 20
78.29817299450741
 30
0.0
 41
3.0
 42
3.0
 43
3.0
 50
270.0
  0
INSERT
  5
DDA
330
827
100
AcDbEntity
  8
寸法線
 62
     0
440
 16777216
370
    -2
100
AcDbBlockReference
  2
_Open30
 10
-80.3527125939181
 20
116.3231729945076
 30
0.0
 41
3.0
 42
3.0
 43
3.0
 50
90.0
  0
MTEXT
  5
DDB
330
827
100
AcDbEntity
  8
寸法線
 62
     0
440
 16777216
100
AcDbMText
 10
-82.75271262968095
 20
97.31067299450756
 30
0.0
 40
3.200000047683714
 41
0.0
 71
     5
 72
     1
  1
L1
 11
0.0000000000000001
 21
1.0
 31
0.0
 73
     1
 44
1.0
  0
POINT
  5
DDC
330
827
100
AcDbEntity
  8
Defpoints
 62
     0
440
 16777216
100
AcDbPoint
 10
-68.1037391235576
 20
78.29817299450741
 30
0.0
  0
POINT
  5
DDD
330
827
100
AcDbEntity
  8
Defpoints
 62
     0
440
 16777216
100
AcDbPoint
 10
-65.73220589271378
 20
116.3231729945076
 30
0.0
  0
POINT
  5
DDE
330
827
100
AcDbEntity
  8
Defpoints
 62
     0
440
 16777216
100
AcDbPoint
 10
-80.3527125939181
 20
116.3231729945076
 30
0.0
  0
ENDBLK
  5
830
330
827
100
AcDbEntity
  8
0
100
AcDbBlockEnd
  0
BLOCK
  5
83B
330
831
100
AcDbEntity
  8
0
100
AcDbBlockBegin
  2
*D34
 70
     1
 10
0.0
 20
0.0
 30
0.0
  3
*D34
  1

  0
LINE
  5
DAB
330
831
100
AcDbEntity
  8
寸法線
 62
     0
440
 16777216
370
    -2
100
AcDbLine
 10
-64.50370589271378
 20
46.31067398135153
 30
0.0
 11
-64.50370589271378
 21
28.25724772950093
 31
0.0
  0
LINE
  5
DAC
330
831
100
AcDbEntity
  8
寸法線
 62
     0
440
 16777216
370
    -2
100
AcDbLine
 10
-36.77470589271384
 20
46.32517299450731
 30
0.0
 11
-36.77470589271384
 21
28.25724772950093
 31
0.0
  0
LINE
  5
DAD
330
831
100
AcDbEntity
  8
寸法線
 62
     0
440
 16777216
370
    -2
100
AcDbLine
 10
-61.50370589271378
 20
29.25724772950093
 30
0.0
 11
-39.77470589271384
 21
29.25724772950093
 31
0.0
  0
INSERT
  5
DAE
330
831
100
AcDbEntity
  8
寸法線
 62
     0
440
 16777216
370
    -2
100
AcDbBlockReference
  2
_Open30
 10
-64.50370589271378
 20
29.25724772950093
 30
0.0
 41
3.0
 42
3.0
 43
3.0
 50
180.0
  0
INSERT
  5
DAF
330
831
100
AcDbEntity
  8
寸法線
 62
     0
440
 16777216
370
    -2
100
AcDbBlockReference
  2
_Open30
 10
-36.77470589271384
 20
29.25724772950093
 30
0.0
 41
3.0
 42
3.0
 43
3.0
  0
MTEXT
  5
DB0
102
{ACAD_XDICTIONARY
360
FC9
102
}
330
831
100
AcDbEntity
  8
寸法線
 62
     0
440
 16777216
100
AcDbMText
 10
-50.63920589271381
 20
31.65724776526372
 30
0.0
 40
3.200000047683714
 41
0.0
 71
     5
 72
     1
  1
\U+2205A
 73
     1
 44
1.0
  0
POINT
  5
DB1
330
831
100
AcDbEntity
  8
Defpoints
 62
     0
440
 16777216
100
AcDbPoint
 10
-64.50370589271378
 20
46.81067398135152
 30
0.0
  0
POINT
  5
DB2
330
831
100
AcDbEntity
  8
Defpoints
 62
     0
440
 16777216
100
AcDbPoint
 10
-36.77470589271384
 20
46.82517299450731
 30
0.0
  0
POINT
  5
DB3
330
831
100
AcDbEntity
  8
Defpoints
 62
     0
440
 16777216
100
AcDbPoint
 10
-36.77470589271384
 20
29.25724772950093
 30
0.0
  0
ENDBLK
  5
83C
330
831
100
AcDbEntity
  8
0
100
AcDbBlockEnd
  0
BLOCK
  5
847
330
83D
100
AcDbEntity
  8
0
100
AcDbBlockBegin
  2
*D35
 70
     1
 10
0.0
 20
0.0
 30
0.0
  3
*D35
  1

  0
LINE
  5
DB4
330
83D
100
AcDbEntity
  8
寸法線
 62
     0
440
 16777216
370
    -2
100
AcDbLine
 10
-50.63920589271384
 20
118.6731984677148
 30
0.0
 11
-50.63920589271384
 21
125.2872506507632
 31
0.0
  0
LINE
  5
DB5
330
83D
100
AcDbEntity
  8
寸法線
 62
     0
440
 16777216
370
    -2
100
AcDbLine
 10
-9.104205892713626
 20
93.89117299450743
 30
0.0
 11
-9.104205892713622
 21
125.2872506507632
 31
0.0
  0
LINE
  5
DB6
330
83D
100
AcDbEntity
  8
寸法線
 62
     0
440
 16777216
370
    -2
100
AcDbLine
 10
-47.63920589271384
 20
124.2872506507632
 30
0.0
 11
-12.10420589271362
 21
124.2872506507632
 31
0.0
  0
INSERT
  5
DB7
330
83D
100
AcDbEntity
  8
寸法線
 62
     0
440
 16777216
370
    -2
100
AcDbBlockReference
  2
_Open30
 10
-50.63920589271384
 20
124.2872506507632
 30
0.0
 41
3.0
 42
3.0
 43
3.0
 50
180.0
  0
INSERT
  5
DB8
330
83D
100
AcDbEntity
  8
寸法線
 62
     0
440
 16777216
370
    -2
100
AcDbBlockReference
  2
_Open30
 10
-9.104205892713622
 20
124.2872506507632
 30
0.0
 41
3.0
 42
3.0
 43
3.0
  0
MTEXT
  5
DB9
330
83D
100
AcDbEntity
  8
寸法線
 62
     0
440
 16777216
100
AcDbMText
 10
-30.26780838829392
 20
126.6872506865259
 30
0.0
 40
3.200000047683714
 41
0.0
 71
     5
 72
     1
  1
L3
 73
     1
 44
1.0
  0
POINT
  5
DBA
330
83D
100
AcDbEntity
  8
Defpoints
 62
     0
440
 16777216
100
AcDbPoint
 10
-50.63920589271384
 20
118.1731984677148
 30
0.0
  0
POINT
  5
DBB
330
83D
100
AcDbEntity
  8
Defpoints
 62
     0
440
 16777216
100
AcDbPoint
 10
-9.104205892713626
 20
93.39117299450744
 30
0.0
  0
POINT
  5
DBC
330
83D
100
AcDbEntity
  8
Defpoints
 62
     0
440
 16777216
100
AcDbPoint
 10
-9.104205892713622
 20
124.2872506507632
 30
0.0
  0
ENDBLK
  5
848
330
83D
100
AcDbEntity
  8
0
100
AcDbBlockEnd
  0
BLOCK
  5
853
330
849
100
AcDbEntity
  8
0
100
AcDbBlockBegin
  2
*D36
 70
     1
 10
0.0
 20
0.0
 30
0.0
  3
*D36
  1

  0
LINE
  5
DBD
330
849
100
AcDbEntity
  8
寸法線
 62
     0
440
 16777216
370
    -2
100
AcDbLine
 10
-64.86915589271379
 20
60.16317299450734
 30
0.0
 11
-73.80498290051294
 21
60.16317299450734
 31
0.0
  0
LINE
  5
DBE
330
849
100
AcDbEntity
  8
寸法線
 62
     0
440
 16777216
370
    -2
100
AcDbLine
 10
-66.2322058927138
 20
36.76317299450713
 30
0.0
 11
-73.80498290051294
 21
36.76317299450713
 31
0.0
  0
LINE
  5
DBF
330
849
100
AcDbEntity
  8
寸法線
 62
     0
440
 16777216
370
    -2
100
AcDbLine
 10
-72.80498290051294
 20
57.16317299450734
 30
0.0
 11
-72.80498290051294
 21
39.76317299450713
 31
0.0
  0
INSERT
  5
DC0
330
849
100
AcDbEntity
  8
寸法線
 62
     0
440
 16777216
370
    -2
100
AcDbBlockReference
  2
_Open30
 10
-72.80498290051294
 20
60.16317299450734
 30
0.0
 41
3.0
 42
3.0
 43
3.0
 50
90.0
  0
INSERT
  5
DC1
330
849
100
AcDbEntity
  8
寸法線
 62
     0
440
 16777216
370
    -2
100
AcDbBlockReference
  2
_Open30
 10
-72.80498290051294
 20
36.76317299450713
 30
0.0
 41
3.0
 42
3.0
 43
3.0
 50
270.0
  0
MTEXT
  5
DC2
330
849
100
AcDbEntity
  8
寸法線
 62
     0
440
 16777216
100
AcDbMText
 10
-75.20498293627572
 20
48.46317299450724
 30
0.0
 40
3.200000047683714
 41
0.0
 71
     5
 72
     1
  1
L4
 11
0.0000000000000001
 21
1.0
 31
0.0
 73
     1
 44
1.0
  0
POINT
  5
DC3
330
849
100
AcDbEntity
  8
Defpoints
 62
     0
440
 16777216
100
AcDbPoint
 10
-64.36915589271379
 20
60.16317299450734
 30
0.0
  0
POINT
  5
DC4
330
849
100
AcDbEntity
  8
Defpoints
 62
     0
440
 16777216
100
AcDbPoint
 10
-65.73220589271378
 20
36.76317299450713
 30
0.0
  0
POINT
  5
DC5
330
849
100
AcDbEntity
  8
Defpoints
 62
     0
440
 16777216
100
AcDbPoint
 10
-72.80498290051294
 20
36.76317299450713
 30
0.0
  0
ENDBLK
  5
854
330
849
100
AcDbEntity
  8
0
100
AcDbBlockEnd
  0
ENDSEC
  0
SECTION
  2
ENTITIES
  0
LINE
  5
125
330
1F
100
AcDbEntity
  8
外形線
  6
Continuous
100
AcDbLine
 10
-149.7850044688903
 20
-46.23738705550861
 30
0.0
 11
-149.7850044688903
 21
-53.73738705550861
 31
0.0
  0
LINE
  5
126
330
1F
100
AcDbEntity
  8
VIEW0001
  6
Continuous
 62
     7
370
    30
100
AcDbLine
 10
-237.2100037059508
 20
135.7626129444914
 30
0.0
 11
-237.2100037059508
 21
-53.73738705550861
 31
0.0
  0
LINE
  5
127
330
1F
100
AcDbEntity
  8
VIEW0001
  6
Continuous
 62
     7
370
    30
100
AcDbLine
 10
-237.2100037059508
 20
-53.73738705550861
 30
0.0
 11
39.28999629404916
 21
-53.73738705550861
 31
0.0
  0
LINE
  5
128
330
1F
100
AcDbEntity
  8
VIEW0001
  6
Continuous
 62
     7
370
    30
100
AcDbLine
 10
39.28999629404918
 20
135.7626129444914
 30
0.0
 11
39.28999629404918
 21
-53.73738705550861
 31
0.0
  0
LINE
  5
129
330
1F
100
AcDbEntity
  8
VIEW0001
  6
Continuous
 62
     7
370
    30
100
AcDbLine
 10
-237.2100037059508
 20
135.7626129444914
 30
0.0
 11
39.28999629404916
 21
135.7626129444914
 31
0.0
  0
MTEXT
  5
12D
330
1F
100
AcDbEntity
  8
VIEW0001
 62
     7
100
AcDbMText
 10
-98.49750408742055
 20
-49.98738705550861
 30
0.0
 40
3.200000047683714
 41
0.0
 71
     5
 72
     1
  1
{\W0.833333;９０\U+00B0チ－ズ（ﾄﾖﾄﾞﾚﾝシングル管用）}
 73
     1
 44
1.0
  0
LINE
  5
12F
330
1F
100
AcDbEntity
  8
VIEW0002
  6
Continuous
 62
     7
100
AcDbLine
 10
-181.6188294975508
 20
-4.968588332431561
 30
0.0
 11
-13.61882949755074
 21
-4.968588332431561
 31
0.0
  0
LINE
  5
130
330
1F
100
AcDbEntity
  8
VIEW0002
  6
Continuous
 62
     7
100
AcDbLine
 10
-181.6188294975508
 20
7.031411667568431
 30
0.0
 11
-13.61882949755074
 21
7.031411667568431
 31
0.0
  0
LINE
  5
131
330
1F
100
AcDbEntity
  8
VIEW0002
  6
Continuous
 62
     7
100
AcDbLine
 10
-157.6188294975508
 20
13.03141166756843
 30
0.0
 11
-157.6188294975508
 21
-16.96858833243155
 31
0.0
  0
LINE
  5
132
330
1F
100
AcDbEntity
  8
VIEW0002
  6
Continuous
 62
     7
100
AcDbLine
 10
-181.6188294975508
 20
13.03141166756843
 30
0.0
 11
-181.6188294975508
 21
-16.96858833243155
 31
0.0
  0
LINE
  5
133
330
1F
100
AcDbEntity
  8
VIEW0002
  6
Continuous
 62
     7
100
AcDbLine
 10
-133.6188294975506
 20
13.03141166756843
 30
0.0
 11
-133.6188294975507
 21
-16.96858833243155
 31
0.0
  0
LINE
  5
134
330
1F
100
AcDbEntity
  8
VIEW0002
  6
Continuous
 62
     7
100
AcDbLine
 10
-109.6188294975507
 20
13.03141166756843
 30
0.0
 11
-109.6188294975507
 21
-16.96858833243155
 31
0.0
  0
LINE
  5
135
330
1F
100
AcDbEntity
  8
VIEW0002
  6
Continuous
 62
     7
100
AcDbLine
 10
-85.61882949755068
 20
13.03141166756843
 30
0.0
 11
-85.61882949755071
 21
-16.96858833243155
 31
0.0
  0
LINE
  5
136
330
1F
100
AcDbEntity
  8
VIEW0002
  6
Continuous
 62
     7
100
AcDbLine
 10
-61.61882949755071
 20
13.03141166756843
 30
0.0
 11
-61.61882949755071
 21
-16.96858833243155
 31
0.0
  0
LINE
  5
137
330
1F
100
AcDbEntity
  8
VIEW0002
  6
Continuous
 62
     7
100
AcDbLine
 10
-181.6188294975508
 20
-10.96858833243156
 30
0.0
 11
-13.61882949755074
 21
-10.96858833243156
 31
0.0
  0
LINE
  5
138
330
1F
100
AcDbEntity
  8
VIEW0002
  6
Continuous
 62
     7
100
AcDbLine
 10
-181.6188294975508
 20
-16.96858833243155
 30
0.0
 11
-13.61882949755074
 21
-16.96858833243155
 31
0.0
  0
LINE
  5
139
330
1F
100
AcDbEntity
  8
VIEW0002
  6
Continuous
 62
     7
100
AcDbLine
 10
-181.6188294975508
 20
13.03141166756843
 30
0.0
 11
-13.61882949755074
 21
13.03141166756843
 31
0.0
  0
LINE
  5
13A
330
1F
100
AcDbEntity
  8
VIEW0002
  6
Continuous
 62
     7
100
AcDbLine
 10
-13.61882949755074
 20
13.03141166756843
 30
0.0
 11
-13.61882949755074
 21
-16.96858833243155
 31
0.0
  0
MTEXT
  5
13B
330
1F
100
AcDbEntity
  8
VIEW0002
 62
     7
100
AcDbMText
 10
-177.928526116318
 20
-3.56858835627342
 30
0.0
 40
3.200000047683714
 41
0.0
 71
     7
 72
     1
  1
{\W1;TDS100}
 73
     1
 44
1.0
  0
MTEXT
  5
13C
330
1F
100
AcDbEntity
  8
VIEW0002
 62
     7
100
AcDbMText
 10
-145.6188294975506
 20
-1.968588332431563
 30
0.0
 40
3.200000047683714
 41
0.0
 71
     5
 72
     1
  1
{\W1;121}
 73
     1
 44
1.0
  0
MTEXT
  5
13D
330
1F
100
AcDbEntity
  8
VIEW0002
 62
     7
100
AcDbMText
 10
-25.61882949755079
 20
-1.968588332431563
 30
0.0
 40
3.200000047683714
 41
0.0
 71
     5
 72
     1
  1
446
 73
     1
 44
1.0
  0
MTEXT
  5
13E
330
1F
100
AcDbEntity
  8
VIEW0002
 62
     7
100
AcDbMText
 10
-121.6188294975507
 20
-1.968588332431563
 30
0.0
 40
3.200000047683714
 41
0.0
 71
     5
 72
     1
  1
183
 73
     1
 44
1.0
  0
MTEXT
  5
13F
330
1F
100
AcDbEntity
  8
VIEW0002
 62
     7
100
AcDbMText
 10
-97.61882949755078
 20
-1.968588332431563
 30
0.0
 40
3.200000047683714
 41
0.0
 71
     5
 72
     1
  1
{\W1;263}
 73
     1
 44
1.0
  0
MTEXT
  5
140
330
1F
100
AcDbEntity
  8
VIEW0002
 62
     7
100
AcDbMText
 10
-97.61882949755078
 20
-7.968588332431558
 30
0.0
 40
3.200000047683714
 41
0.0
 71
     5
 72
     1
  1
{\W1;363}
 73
     1
 44
1.0
  0
MTEXT
  5
141
330
1F
100
AcDbEntity
  8
VIEW0002
 62
     7
100
AcDbMText
 10
-121.4817354523685
 20
-7.934314821136019
 30
0.0
 40
3.200000047683714
 41
0.0
 71
     5
 72
     1
  1
{\W1;272}
 73
     1
 44
1.0
  0
MTEXT
  5
142
330
1F
100
AcDbEntity
  8
VIEW0002
 62
     7
100
AcDbMText
 10
-25.61882949755079
 20
-7.968588332431558
 30
0.0
 40
3.200000047683714
 41
0.0
 71
     5
 72
     1
  1
{\W1;635}
 73
     1
 44
1.0
  0
MTEXT
  5
143
330
1F
100
AcDbEntity
  8
VIEW0002
 62
     7
100
AcDbMText
 10
-145.6188294975506
 20
-7.96858833243156
 30
0.0
 40
3.200000047683714
 41
0.0
 71
     5
 72
     1
  1
{\W1;177}
 73
     1
 44
1.0
  0
MTEXT
  5
144
330
1F
100
AcDbEntity
  8
VIEW0002
 62
     7
100
AcDbMText
 10
-177.928526116318
 20
-9.568588356273419
 30
0.0
 40
3.200000047683714
 41
0.0
 71
     7
 72
     1
  1
{\W1;TDS150}
 73
     1
 44
1.0
  0
MTEXT
  5
145
330
1F
100
AcDbEntity
  8
VIEW0002
 62
     7
100
AcDbMText
 10
-177.928526116318
 20
-15.56858835627342
 30
0.0
 40
3.200000047683714
 41
0.0
 71
     7
 72
     1
  1
{\W1;TDS200}
 73
     1
 44
1.0
  0
MTEXT
  5
146
330
1F
100
AcDbEntity
  8
VIEW0002
 62
     7
100
AcDbMText
 10
-145.6188294975506
 20
-13.96858833243155
 30
0.0
 40
3.200000047683714
 41
0.0
 71
     5
 72
     1
  1
237
 73
     1
 44
1.0
  0
MTEXT
  5
147
330
1F
100
AcDbEntity
  8
VIEW0002
 62
     7
100
AcDbMText
 10
-25.61882949755079
 20
-13.96858833243155
 30
0.0
 40
3.200000047683714
 41
0.0
 71
     5
 72
     1
  1
680
 73
     1
 44
1.0
  0
MTEXT
  5
148
330
1F
100
AcDbEntity
  8
VIEW0002
 62
     7
100
AcDbMText
 10
-121.6188294975507
 20
-13.96858833243155
 30
0.0
 40
3.200000047683714
 41
0.0
 71
     5
 72
     1
  1
325
 73
     1
 44
1.0
  0
MTEXT
  5
149
330
1F
100
AcDbEntity
  8
VIEW0002
 62
     7
100
AcDbMText
 10
-97.61882949755078
 20
-13.96858833243155
 30
0.0
 40
3.200000047683714
 41
0.0
 71
     5
 72
     1
  1
355
 73
     1
 44
1.0
  0
MTEXT
  5
14A
330
1F
100
AcDbEntity
  8
VIEW0002
 62
     7
100
AcDbMText
 10
-154.1596658920733
 20
-25.49684589319703
 30
0.0
 40
3.200000047683714
 41
0.0
 71
     7
 72
     1
  1
{\W0.833333;*形状は規格毎に異なります。}
 73
     1
 44
1.0
  0
MTEXT
  5
14B
330
1F
100
AcDbEntity
  8
VIEW0002
 62
     7
100
AcDbMText
 10
-154.0196780282021
 20
-30.49473541848548
 30
0.0
 40
3.200000047683714
 41
0.0
 71
     7
 72
     1
  1
{\W0.833333;*ストッパ－の位置及び数は、規格毎に異なります。}
 73
     1
 44
1.0
  0
MTEXT
  5
14C
330
1F
100
AcDbEntity
  8
VIEW0002
 62
     7
100
AcDbMText
 10
-154.2544555754444
 20
-35.7247317078735
 30
0.0
 40
3.200000047683714
 41
0.0
 71
     7
 72
     1
  1
{\W0.8333;*寸法、仕様等は製品改良の為、予告無く変更する場合があります。（Ｈ２４．６）}
 73
     1
 44
1.0
  0
MTEXT
  5
14D
330
1F
100
AcDbEntity
  8
VIEW0002
 62
     7
100
AcDbMText
 10
-73.61882949755076
 20
10.03141166756843
 30
0.0
 40
3.200000047683714
 41
0.0
 71
     5
 72
     1
  1
{\W1;L3}
 73
     1
 44
1.0
  0
MTEXT
  5
14E
330
1F
100
AcDbEntity
  8
VIEW0002
 62
     7
100
AcDbMText
 10
-97.61882949755078
 20
10.03141166756843
 30
0.0
 40
3.200000047683714
 41
0.0
 71
     5
 72
     1
  1
{\W1;L2}
 73
     1
 44
1.0
  0
MTEXT
  5
14F
330
1F
100
AcDbEntity
  8
VIEW0002
 62
     7
100
AcDbMText
 10
-121.6188294975507
 20
10.03141166756843
 30
0.0
 40
3.200000047683714
 41
0.0
 71
     5
 72
     1
  1
{\W1;L1}
 73
     1
 44
1.0
  0
MTEXT
  5
150
102
{ACAD_XDICTIONARY
360
FBC
102
}
330
1F
100
AcDbEntity
  8
VIEW0002
 62
     7
100
AcDbMText
 10
-145.6188294975506
 20
10.03141166756843
 30
0.0
 40
3.200000047683714
 41
0.0
 71
     5
 72
     1
  1
{\W1;\U+2205A}
 73
     1
 44
1.0
  0
MTEXT
  5
151
330
1F
100
AcDbEntity
  8
VIEW0002
 62
     7
100
AcDbMText
 10
-175.561829486345
 20
8.431411643726582
 30
0.0
 40
3.200000047683714
 41
0.0
 71
     7
 72
     1
  1
{\W0.833333;規　　格}
 73
     1
 44
1.0
  0
MTEXT
  5
152
330
1F
100
AcDbEntity
  8
VIEW0002
 62
     7
100
AcDbMText
 10
-49.61882949755072
 20
-13.96858833243155
 30
0.0
 40
3.200000047683714
 41
0.0
 71
     5
 72
     1
  1
200
 73
     1
 44
1.0
  0
MTEXT
  5
153
330
1F
100
AcDbEntity
  8
VIEW0002
 62
     7
100
AcDbMText
 10
-49.61882949755072
 20
-7.968588332431558
 30
0.0
 40
3.200000047683714
 41
0.0
 71
     5
 72
     1
  1
{\W1;190}
 73
     1
 44
1.0
  0
MTEXT
  5
154
330
1F
100
AcDbEntity
  8
VIEW0002
 62
     7
100
AcDbMText
 10
-49.61882949755072
 20
-1.968588332431563
 30
0.0
 40
3.200000047683714
 41
0.0
 71
     5
 72
     1
  1
{\W1;130}
 73
     1
 44
1.0
  0
MTEXT
  5
155
330
1F
100
AcDbEntity
  8
VIEW0002
 62
     7
100
AcDbMText
 10
-49.61882949755072
 20
10.03141166756843
 30
0.0
 40
3.200000047683714
 41
0.0
 71
     5
 72
     1
  1
{\W1;L4}
 73
     1
 44
1.0
  0
MTEXT
  5
156
330
1F
100
AcDbEntity
  8
VIEW0002
 62
     7
100
AcDbMText
 10
-25.10702359516031
 20
-22.12164467856906
 30
0.0
 40
3.200000047683714
 41
0.0
 71
     7
 72
     1
  1
{\W1;(mm)}
 73
     1
 44
1.0
  0
LINE
  5
1E9
330
1F
100
AcDbEntity
  8
外形線
  6
Continuous
100
AcDbLine
 10
-47.21000370595083
 20
-53.73738705550861
 30
0.0
 11
-47.21000370595083
 21
-46.23738705550861
 31
0.0
  0
LINE
  5
1EC
330
1F
100
AcDbEntity
  8
外形線
  6
Continuous
100
AcDbLine
 10
39.28999629404916
 20
-46.23738705550861
 30
0.0
 11
-149.7850044688903
 21
-46.23738705550861
 31
0.0
  0
MTEXT
  5
24D
330
1F
100
AcDbEntity
  8
VIEW0002
 62
     7
100
AcDbMText
 10
-73.61882949755076
 20
-1.968588332431563
 30
0.0
 40
3.200000047683714
 41
0.0
 71
     5
 72
     1
  1
{\W1;263}
 73
     1
 44
1.0
  0
MTEXT
  5
24E
330
1F
100
AcDbEntity
  8
VIEW0002
 62
     7
100
AcDbMText
 10
-73.61882949755076
 20
-7.968588332431558
 30
0.0
 40
3.200000047683714
 41
0.0
 71
     5
 72
     1
  1
{\W1;363}
 73
     1
 44
1.0
  0
MTEXT
  5
24F
330
1F
100
AcDbEntity
  8
VIEW0002
 62
     7
100
AcDbMText
 10
-73.61882949755076
 20
-13.96858833243155
 30
0.0
 40
3.200000047683714
 41
0.0
 71
     5
 72
     1
  1
355
 73
     1
 44
1.0
  0
LINE
  5
260
330
1F
100
AcDbEntity
  8
VIEW0002
  6
Continuous
 62
     7
100
AcDbLine
 10
-37.61882949755069
 20
13.03141166756843
 30
0.0
 11
-37.61882949755069
 21
-16.96858833243155
 31
0.0
  0
MTEXT
  5
261
330
1F
100
AcDbEntity
  8
VIEW0002
 62
     7
100
AcDbMText
 10
-25.61882949755079
 20
10.03141166756843
 30
0.0
 40
3.200000047683714
 41
0.0
 71
     5
 72
     1
  1
L5
 73
     1
 44
1.0
  0
LINE
  5
5BC
330
1F
100
AcDbEntity
  8
外形線
100
AcDbLine
 10
-152.2400930109441
 20
98.17290894691431
 30
0.0
 11
-152.1848869592052
 21
97.26458904361535
 31
0.0
  0
LINE
  5
5BD
330
1F
100
AcDbEntity
  8
外形線
100
AcDbLine
 10
-163.0399273112444
 20
101.2412981273665
 30
0.0
 11
-154.1349195093691
 21
101.2412981273665
 31
0.0
  0
LINE
  5
5BE
330
1F
100
AcDbEntity
  8
外形線
100
AcDbLine
 10
-136.7799188136703
 20
73.77230069293138
 30
0.0
 11
-127.0299179244877
 21
73.52530080798728
 31
0.0
  0
LINE
  5
5BF
330
1F
100
AcDbEntity
  8
外形線
100
AcDbLine
 10
-162.1558971730504
 20
98.2513016432955
 30
0.0
 11
-162.1558971730504
 21
98.90130163360971
 31
0.0
  0
LINE
  5
5C0
330
1F
100
AcDbEntity
  8
外形線
100
AcDbLine
 10
-126.3798965211398
 20
89.56729882783049
 30
0.0
 11
-124.819897791072
 21
90.45129889551112
 31
0.0
  0
LINE
  5
5C1
330
1F
100
AcDbEntity
  8
外形線
100
AcDbLine
 10
-145.2298918710682
 20
100.461300122632
 30
0.0
 11
-145.2298918710682
 21
101.2413080455793
 31
0.0
  0
LINE
  5
5C2
330
1F
100
AcDbEntity
  8
外形線
100
AcDbLine
 10
-124.8199159789115
 20
90.45129927997136
 30
0.0
 11
-124.8199159789115
 21
81.54629891675554
 31
0.0
  0
LINE
  5
5C3
330
1F
100
AcDbEntity
  8
外形線
100
AcDbLine
 10
-128.2536605432416
 20
83.49630088458264
 30
0.0
 11
-128.016626442253
 21
79.59629926702337
 31
0.0
  0
LINE
  5
5C4
330
1F
100
AcDbEntity
  8
外形線
100
AcDbLine
 10
-127.3453335206716
 20
83.55151241717644
 30
0.0
 11
-128.2536534379352
 21
83.4963065952021
 31
0.0
  0
LINE
  5
5C5
330
1F
100
AcDbEntity
  8
外形線
100
AcDbLine
 10
-128.0840413775117
 20
82.84826590477248
 30
0.0
 11
-128.2138024264005
 21
82.84037929430848
 31
0.0
  0
LINE
  5
5C6
330
1F
100
AcDbEntity
  8
外形線
100
AcDbLine
 10
-145.2299117074937
 20
100.461300122632
 30
0.0
 11
-154.1349269480286
 21
100.461300122632
 31
0.0
  0
LINE
  5
5C7
330
1F
100
AcDbEntity
  8
外形線
100
AcDbLine
 10
-163.0398975566061
 20
104.4913079971505
 30
0.0
 11
-163.0398975566061
 21
105.401299057199
 31
0.0
  0
LINE
  5
5C8
330
1F
100
AcDbEntity
  8
外形線
100
AcDbLine
 10
-145.2299117074937
 20
105.4013139345181
 30
0.0
 11
-154.1349120707096
 21
105.4013139345181
 31
0.0
  0
LINE
  5
5C9
330
1F
100
AcDbEntity
  8
外形線
100
AcDbLine
 10
-126.3799070157743
 20
73.5253010164397
 30
0.0
 11
-124.8199082857064
 21
72.64130094875905
 31
0.0
  0
LINE
  5
5CA
330
1F
100
AcDbEntity
  8
中心線
100
AcDbLine
 10
-154.1348996729436
 20
109.2853133196962
 30
0.0
 11
-154.1348996729436
 21
44.85287299397053
 31
0.0
  0
LINE
  5
5CB
330
1F
100
AcDbEntity
  8
外形線
100
AcDbLine
 10
-163.0399124339252
 20
105.4013139345181
 30
0.0
 11
-154.1349120707096
 21
105.4013139345181
 31
0.0
  0
LINE
  5
5CC
330
1F
100
AcDbEntity
  8
外形線
100
AcDbLine
 10
-119.8798922488126
 20
90.45129927997136
 30
0.0
 11
-119.8798922488126
 21
81.54629891675554
 31
0.0
  0
LINE
  5
5CD
330
1F
100
AcDbEntity
  8
外形線
100
AcDbLine
 10
-122.0899080850214
 20
72.64129855353973
 30
0.0
 11
-122.0899080850214
 21
81.54629891675554
 31
0.0
  0
LINE
  5
5CE
330
1F
100
AcDbEntity
  8
外形線
100
AcDbLine
 10
-152.8487041843396
 20
97.3544738717441
 30
0.0
 11
-152.8408174658393
 21
97.22471158735714
 31
0.0
  0
LINE
  5
5CF
330
1F
100
AcDbEntity
  8
外形線
100
AcDbLine
 10
-146.1139220092624
 20
98.90129295517358
 30
0.0
 11
-154.1349269480286
 21
98.90129295517358
 31
0.0
  0
LINE
  5
5D0
330
1F
100
AcDbEntity
  8
外形線
100
AcDbLine
 10
-124.8199134993584
 20
90.45129432086495
 30
0.0
 11
-124.0399105355173
 21
90.45129432086495
 31
0.0
  0
LINE
  5
5D1
330
1F
100
AcDbEntity
  8
外形線
100
AcDbLine
 10
-128.0840260951243
 20
82.84825969173473
 30
0.0
 11
-127.9267236512281
 21
80.26010978806125
 31
0.0
  0
LINE
  5
5D2
330
1F
100
AcDbEntity
  8
外形線
100
AcDbLine
 10
-127.0298921422694
 20
89.56729889641547
 30
0.0
 11
-127.0298921422694
 21
81.54629891675554
 31
0.0
  0
LINE
  5
5D3
330
1F
100
AcDbEntity
  8
外形線
100
AcDbLine
 10
-137.2576537863942
 20
74.25003831919561
 30
0.0
 11
-136.7799069049094
 21
73.77229147798186
 31
0.0
  0
LINE
  5
5D4
330
1F
100
AcDbEntity
  8
外形線
100
AcDbLine
 10
-137.2576557187514
 20
88.84255706452696
 30
0.0
 11
-136.7799079606121
 21
89.32030478239509
 31
0.0
  0
LINE
  5
5D5
330
1F
100
AcDbEntity
  8
外形線
100
AcDbLine
 10
-120.789908104393
 20
72.64129855353973
 30
0.0
 11
-120.789908104393
 21
81.54629891675554
 31
0.0
  0
LINE
  5
5D6
330
1F
100
AcDbEntity
  8
外形線
100
AcDbLine
 10
-137.2576523048053
 20
88.84254781621166
 30
0.0
 11
-137.2576523048053
 21
74.25004753774622
 31
0.0
  0
LINE
  5
5D7
330
1F
100
AcDbEntity
  8
外形線
100
AcDbLine
 10
-122.7399080753358
 20
72.64129855353973
 30
0.0
 11
-122.7399080753358
 21
81.54629891675554
 31
0.0
  0
LINE
  5
5D8
330
1F
100
AcDbEntity
  8
外形線
100
AcDbLine
 10
-127.0299119786949
 20
73.525303896202
 30
0.0
 11
-126.3799119883806
 21
73.525303896202
 31
0.0
  0
LINE
  5
5D9
330
1F
100
AcDbEntity
  8
外形線
100
AcDbLine
 10
-124.0399080559643
 20
72.64129855353973
 30
0.0
 11
-124.0399080559643
 21
81.54629891675554
 31
0.0
  0
LINE
  5
5DA
330
1F
100
AcDbEntity
  8
外形線
100
AcDbLine
 10
-155.4368627268934
 20
97.19717769807301
 30
0.0
 11
-155.4289756323299
 21
97.06740922622078
 31
0.0
  0
LINE
  5
5DB
330
1F
100
AcDbEntity
  8
外形線
100
AcDbLine
 10
-152.8487148929506
 20
97.35447058866832
 30
0.0
 11
-152.2401083392917
 21
98.17290136535952
 31
0.0
  0
LINE
  5
5DC
330
1F
100
AcDbEntity
  8
外形線
100
AcDbLine
 10
-155.4368649839501
 20
97.19716934455192
 30
0.0
 11
-156.1401073238206
 21
97.93586137187368
 31
0.0
  0
LINE
  5
5DD
330
1F
100
AcDbEntity
  8
外形線
100
AcDbLine
 10
-156.1401221003151
 20
97.93585107097307
 30
0.0
 11
-156.0849164998519
 21
97.02753859263246
 31
0.0
  0
LINE
  5
5DE
330
1F
100
AcDbEntity
  8
外形線
100
AcDbLine
 10
-126.3798921519551
 20
89.56729889641547
 30
0.0
 11
-126.3798921519551
 21
81.54629891675554
 31
0.0
  0
LINE
  5
5DF
330
1F
100
AcDbEntity
  8
外形線
100
AcDbLine
 10
-163.0398975566061
 20
100.4613050817384
 30
0.0
 11
-163.0398975566061
 21
101.2413130046856
 31
0.0
  0
LINE
  5
5E0
330
1F
100
AcDbEntity
  8
外形線
100
AcDbLine
 10
-146.1139158103794
 20
98.25129296485934
 30
0.0
 11
-154.1349195093691
 21
98.25129296485934
 31
0.0
  0
LINE
  5
5E1
330
1F
100
AcDbEntity
  8
外形線
100
AcDbLine
 10
-146.1138987590263
 20
98.90130469387813
 30
0.0
 11
-145.2299003749121
 21
100.4613015279786
 31
0.0
  0
LINE
  5
5E2
330
1F
100
AcDbEntity
  8
外形線
100
AcDbLine
 10
-163.0399198725848
 20
100.461300122632
 30
0.0
 11
-154.1349269480286
 21
100.461300122632
 31
0.0
  0
LINE
  5
5E3
330
1F
100
AcDbEntity
  8
外形線
100
AcDbLine
 10
-127.9267289079255
 20
80.26011453386358
 30
0.0
 11
-128.0564899568144
 21
80.25222792339958
 31
0.0
  0
LINE
  5
5E4
330
1F
100
AcDbEntity
  8
外形線
100
AcDbLine
 10
-127.1083068211376
 20
79.65150996162687
 30
0.0
 11
-128.0166292133875
 21
79.59630398922795
 31
0.0
  0
LINE
  5
5E5
330
1F
100
AcDbEntity
  8
外形線
100
AcDbLine
 10
-127.3453505259226
 20
83.55150610485869
 30
0.0
 11
-127.1083164272843
 21
79.65150452597106
 31
0.0
  0
LINE
  5
5E6
330
1F
100
AcDbEntity
  8
外形線
100
AcDbLine
 10
-128.0840362927968
 20
82.84826126339014
 30
0.0
 11
-127.3453422918206
 21
83.55150512620284
 31
0.0
  0
LINE
  5
5E7
330
1F
100
AcDbEntity
  8
外形線
100
AcDbLine
 10
-127.9267356504629
 20
80.26011286010637
 30
0.0
 11
-127.108307044862
 21
79.6515075421417
 31
0.0
  0
LINE
  5
5E8
330
1F
100
AcDbEntity
  8
中心線
100
AcDbLine
 10
-166.1046947216305
 20
81.54629147809599
 30
0.0
 11
-117.6213094043554
 21
81.54629147809599
 31
0.0
  0
LINE
  5
5E9
330
1F
100
AcDbEntity
  8
外形線
100
AcDbLine
 10
-162.1559219685821
 20
98.90129295517358
 30
0.0
 11
-154.1349269480286
 21
98.90129295517358
 31
0.0
  0
LINE
  5
5EA
330
1F
100
AcDbEntity
  8
外形線
100
AcDbLine
 10
-156.084928786785
 20
97.02754405617696
 30
0.0
 11
-152.1849248702139
 21
97.26457928706681
 31
0.0
  0
LINE
  5
5EB
330
1F
100
AcDbEntity
  8
外形線
100
AcDbLine
 10
-163.0399198725848
 20
102.5413080262078
 30
0.0
 11
-154.1349120707096
 21
102.5413080262078
 31
0.0
  0
LINE
  5
5EC
330
1F
100
AcDbEntity
  8
外形線
100
AcDbLine
 10
-163.0399198725848
 20
103.191308016522
 30
0.0
 11
-154.1349195093691
 21
103.191308016522
 31
0.0
  0
LINE
  5
5ED
330
1F
100
AcDbEntity
  8
外形線
100
AcDbLine
 10
-162.1558956788511
 20
98.9012995835327
 30
0.0
 11
-163.0398949393529
 21
100.4612959210132
 31
0.0
  0
LINE
  5
5EE
330
1F
100
AcDbEntity
  8
外形線
100
AcDbLine
 10
-162.1559170094757
 20
98.25129296485934
 30
0.0
 11
-154.1349195093691
 21
98.25129296485934
 31
0.0
  0
LINE
  5
5EF
330
1F
100
AcDbEntity
  8
外形線
100
AcDbLine
 10
-136.7799019151958
 20
89.32029820582114
 30
0.0
 11
-136.7799019151958
 21
73.77229714813672
 31
0.0
  0
LINE
  5
5F0
330
1F
100
AcDbEntity
  8
外形線
100
AcDbLine
 10
-136.7799032805379
 20
89.32030465502045
 30
0.0
 11
-127.0299036307343
 21
89.56730450856694
 31
0.0
  0
LINE
  5
5F1
330
1F
100
AcDbEntity
  8
外形線
100
AcDbLine
 10
-127.0299119786949
 20
89.56729889641549
 30
0.0
 11
-126.3799119883806
 21
89.56729889641549
 31
0.0
  0
LINE
  5
5F2
330
1F
100
AcDbEntity
  8
外形線
100
AcDbLine
 10
-122.7399105548889
 20
90.45129432086495
 30
0.0
 11
-122.0899080850214
 21
90.45129432086495
 31
0.0
  0
LINE
  5
5F3
330
1F
100
AcDbEntity
  8
外形線
100
AcDbLine
 10
-120.7899081043929
 20
90.45129432086495
 30
0.0
 11
-119.8799145647913
 21
90.45129432086495
 31
0.0
  0
LINE
  5
5F4
330
1F
100
AcDbEntity
  8
外形線
100
AcDbLine
 10
-124.0399080559643
 20
90.45129927997136
 30
0.0
 11
-124.0399080559643
 21
81.54629891675554
 31
0.0
  0
LINE
  5
5F5
330
1F
100
AcDbEntity
  8
外形線
100
AcDbLine
 10
-122.7399080753358
 20
90.45129927997136
 30
0.0
 11
-122.7399080753358
 21
81.54629891675554
 31
0.0
  0
LINE
  5
5F6
330
1F
100
AcDbEntity
  8
外形線
100
AcDbLine
 10
-122.0899080850214
 20
90.45129927997136
 30
0.0
 11
-122.0899080850214
 21
81.54629891675554
 31
0.0
  0
LINE
  5
5F7
330
1F
100
AcDbEntity
  8
外形線
100
AcDbLine
 10
-120.789908104393
 20
90.45129927997136
 30
0.0
 11
-120.789908104393
 21
81.54629891675554
 31
0.0
  0
LINE
  5
5F8
330
1F
100
AcDbEntity
  8
外形線
100
AcDbLine
 10
-119.8798922488126
 20
72.64129855353973
 30
0.0
 11
-119.8798922488126
 21
81.54629891675554
 31
0.0
  0
LINE
  5
5F9
330
1F
100
AcDbEntity
  8
外形線
100
AcDbLine
 10
-124.8199159789115
 20
72.64129855353973
 30
0.0
 11
-124.8199159789115
 21
81.54629891675554
 31
0.0
  0
LINE
  5
5FA
330
1F
100
AcDbEntity
  8
外形線
100
AcDbLine
 10
-126.3798921519551
 20
73.52529893709564
 30
0.0
 11
-126.3798921519551
 21
81.54629891675554
 31
0.0
  0
LINE
  5
5FB
330
1F
100
AcDbEntity
  8
外形線
100
AcDbLine
 10
-156.140131167166
 20
97.93588529770843
 30
0.0
 11
-152.2401334380601
 21
98.17292015253523
 31
0.0
  0
LINE
  5
5FC
330
1F
100
AcDbEntity
  8
外形線
100
AcDbLine
 10
-161.9089187984346
 20
88.50128939081589
 30
0.0
 11
-146.360915261197
 21
88.50128939081589
 31
0.0
  0
LINE
  5
5FD
330
1F
100
AcDbEntity
  8
外形線
100
AcDbLine
 10
-163.0399322703507
 20
104.4913079971505
 30
0.0
 11
-154.134931907135
 21
104.4913079971505
 31
0.0
  0
LINE
  5
5FE
330
1F
100
AcDbEntity
  8
外形線
100
AcDbLine
 10
-155.436872260442
 20
97.19717090831995
 30
0.0
 11
-152.8487235953807
 21
97.35447393404086
 31
0.0
  0
LINE
  5
5FF
330
1F
100
AcDbEntity
  8
外形線
100
AcDbLine
 10
-127.0298921422694
 20
73.52529893709564
 30
0.0
 11
-127.0298921422694
 21
81.54629891675554
 31
0.0
  0
LINE
  5
600
330
1F
100
AcDbEntity
  8
外形線
100
AcDbLine
 10
-124.8199134993584
 20
72.64130351264616
 30
0.0
 11
-124.0399105355173
 21
72.64130351264616
 31
0.0
  0
LINE
  5
601
330
1F
100
AcDbEntity
  8
外形線
100
AcDbLine
 10
-122.7399105548889
 20
72.64130351264616
 30
0.0
 11
-122.0899080850214
 21
72.64130351264616
 31
0.0
  0
LINE
  5
602
330
1F
100
AcDbEntity
  8
外形線
100
AcDbLine
 10
-120.7899081043929
 20
72.64130351264616
 30
0.0
 11
-119.8799145647913
 21
72.64130351264616
 31
0.0
  0
LINE
  5
603
330
1F
100
AcDbEntity
  8
外形線
100
AcDbLine
 10
-146.1139158103794
 20
54.44132362027276
 30
0.0
 11
-154.1349120707096
 21
54.44132362027276
 31
0.0
  0
LINE
  5
604
330
1F
100
AcDbEntity
  8
外形線
100
AcDbLine
 10
-146.113902995703
 20
53.7912977282461
 30
0.0
 11
-145.2299039832865
 21
52.23130125018386
 31
0.0
  0
LINE
  5
605
330
1F
100
AcDbEntity
  8
外形線
100
AcDbLine
 10
-146.1139021728369
 20
53.7913236299585
 30
0.0
 11
-154.1348996729436
 21
53.7913236299585
 31
0.0
  0
LINE
  5
606
330
1F
100
AcDbEntity
  8
外形線
100
AcDbLine
 10
-145.2299117074937
 20
52.23130778406392
 30
0.0
 11
-154.1349071116031
 21
52.23130778406392
 31
0.0
  0
LINE
  5
607
330
1F
100
AcDbEntity
  8
外形線
100
AcDbLine
 10
-145.2299117074937
 20
52.23129786585115
 30
0.0
 11
-145.2299117074937
 21
51.45128994290388
 31
0.0
  0
LINE
  5
608
330
1F
100
AcDbEntity
  8
外形線
100
AcDbLine
 10
-145.2299117074937
 20
47.29130389039055
 30
0.0
 11
-154.1349120707096
 21
47.29130389039055
 31
0.0
  0
LINE
  5
609
330
1F
100
AcDbEntity
  8
外形線
100
AcDbLine
 10
-161.4311485119455
 20
64.66905795753611
 30
0.0
 11
-161.9088935998505
 21
64.19131282936032
 31
0.0
  0
LINE
  5
60A
330
1F
100
AcDbEntity
  8
外形線
100
AcDbLine
 10
-146.8386594519236
 20
64.66906394638318
 30
0.0
 11
-161.431153531506
 21
64.66906394638318
 31
0.0
  0
LINE
  5
60B
330
1F
100
AcDbEntity
  8
外形線
100
AcDbLine
 10
-146.8386514619795
 20
88.02353666516095
 30
0.0
 11
-146.3609063740746
 21
88.50128179333678
 31
0.0
  0
LINE
  5
60C
330
1F
100
AcDbEntity
  8
外形線
100
AcDbLine
 10
-146.838645814381
 20
86.71115613196846
 30
0.0
 11
-146.838645814381
 21
88.02354643986594
 31
0.0
  0
LINE
  5
60D
330
1F
100
AcDbEntity
  8
外形線
100
AcDbLine
 10
-161.4311733679316
 20
88.02353900120641
 30
0.0
 11
-146.8386755690193
 21
88.02353900120641
 31
0.0
  0
LINE
  5
60E
330
1F
100
AcDbEntity
  8
外形線
100
AcDbLine
 10
-161.4311485723997
 20
64.66906394638313
 30
0.0
 11
-161.4311485723997
 21
88.02354891941911
 31
0.0
  0
LINE
  5
60F
330
1F
100
AcDbEntity
  8
外形線
100
AcDbLine
 10
-161.431159139462
 20
88.02354196754981
 30
0.0
 11
-161.9089104042191
 21
88.50129319203551
 31
0.0
  0
LINE
  5
610
330
1F
100
AcDbEntity
  8
外形線
100
AcDbLine
 10
-145.229929064366
 20
104.4913079971505
 30
0.0
 11
-154.134931907135
 21
104.4913079971505
 31
0.0
  0
LINE
  5
611
330
1F
100
AcDbEntity
  8
外形線
100
AcDbLine
 10
-145.2299191461533
 20
103.191308016522
 30
0.0
 11
-154.1349195093691
 21
103.191308016522
 31
0.0
  0
LINE
  5
612
330
1F
100
AcDbEntity
  8
外形線
100
AcDbLine
 10
-145.2299117074937
 20
102.5413080262078
 30
0.0
 11
-154.1349120707096
 21
102.5413080262078
 31
0.0
  0
LINE
  5
613
330
1F
100
AcDbEntity
  8
外形線
100
AcDbLine
 10
-145.2299216257065
 20
101.2412981273665
 30
0.0
 11
-154.1349195093691
 21
101.2412981273665
 31
0.0
  0
LINE
  5
614
330
1F
100
AcDbEntity
  8
外形線
100
AcDbLine
 10
-145.2298918710682
 20
104.4913079971505
 30
0.0
 11
-145.2298918710682
 21
105.401299057199
 31
0.0
  0
LINE
  5
615
330
1F
100
AcDbEntity
  8
外形線
100
AcDbLine
 10
-145.2298918710682
 20
102.5413080262077
 30
0.0
 11
-145.2298918710682
 21
103.191308016522
 31
0.0
  0
LINE
  5
616
330
1F
100
AcDbEntity
  8
外形線
100
AcDbLine
 10
-146.1138823364113
 20
98.25131156150824
 30
0.0
 11
-146.1138823364113
 21
98.90131155182249
 31
0.0
  0
LINE
  5
617
330
1F
100
AcDbEntity
  8
外形線
100
AcDbLine
 10
-146.3608655874176
 20
88.50131506865128
 30
0.0
 11
-146.1138680376097
 21
98.25131973751341
 31
0.0
  0
LINE
  5
618
330
1F
100
AcDbEntity
  8
外形線
100
AcDbLine
 10
-161.9088917962272
 20
88.50130279047915
 30
0.0
 11
-162.155894089907
 21
98.25130051820423
 31
0.0
  0
LINE
  5
619
330
1F
100
AcDbEntity
  8
外形線
100
AcDbLine
 10
-163.0398975566061
 20
102.5413129853141
 30
0.0
 11
-163.0398975566061
 21
103.191308016522
 31
0.0
  0
LINE
  5
61A
330
1F
100
AcDbEntity
  8
外形線
100
AcDbLine
 10
-152.8329256290421
 20
55.49543875745682
 30
0.0
 11
-155.4210755579181
 21
55.33813608959659
 31
0.0
  0
LINE
  5
61B
330
1F
100
AcDbEntity
  8
外形線
100
AcDbLine
 10
-152.1848779964991
 20
55.66504881205172
 30
0.0
 11
-156.0848745277749
 21
55.42801468502116
 31
0.0
  0
LINE
  5
61C
330
1F
100
AcDbEntity
  8
外形線
100
AcDbLine
 10
-152.1296944492828
 20
54.7567498981299
 30
0.0
 11
-152.1849000481836
 21
55.66506486069418
 31
0.0
  0
LINE
  5
61D
330
1F
100
AcDbEntity
  8
外形線
100
AcDbLine
 10
-163.0399025157126
 20
52.23129786585115
 30
0.0
 11
-163.0399025157126
 21
51.45128994290388
 31
0.0
  0
LINE
  5
61E
330
1F
100
AcDbEntity
  8
外形線
100
AcDbLine
 10
-163.0399025157126
 20
50.15128996227538
 30
0.0
 11
-163.0399025157126
 21
49.50128997196113
 31
0.0
  0
LINE
  5
61F
330
1F
100
AcDbEntity
  8
外形線
100
AcDbLine
 10
-163.0399025157126
 20
48.20128999133263
 30
0.0
 11
-163.0399025157126
 21
47.29129893128418
 31
0.0
  0
LINE
  5
620
330
1F
100
AcDbEntity
  8
外形線
100
AcDbLine
 10
-152.8329459518281
 20
55.49542013337699
 30
0.0
 11
-152.8408330246774
 21
55.625188606549
 31
0.0
  0
LINE
  5
621
330
1F
100
AcDbEntity
  8
外形線
100
AcDbLine
 10
-155.4211041877312
 20
55.33812689714661
 30
0.0
 11
-155.4289906588814
 21
55.46788547037403
 31
0.0
  0
LINE
  5
622
330
1F
100
AcDbEntity
  8
外形線
100
AcDbLine
 10
-156.0297161040358
 20
54.51969933937174
 30
0.0
 11
-156.0849220037862
 21
55.42801925190828
 31
0.0
  0
LINE
  5
623
330
1F
100
AcDbEntity
  8
外形線
100
AcDbLine
 10
-152.1296918966378
 20
54.75672769611691
 30
0.0
 11
-156.0296909028996
 21
54.51969341866153
 31
0.0
  0
LINE
  5
624
330
1F
100
AcDbEntity
  8
外形線
100
AcDbLine
 10
-152.8329379750113
 20
55.49542634462365
 30
0.0
 11
-152.1296957596373
 21
54.75673419877995
 31
0.0
  0
LINE
  5
625
330
1F
100
AcDbEntity
  8
外形線
100
AcDbLine
 10
-155.421085713521
 20
55.33812820234365
 30
0.0
 11
-156.0296909341218
 21
54.51969952434033
 31
0.0
  0
LINE
  5
626
330
1F
100
AcDbEntity
  8
外形線
100
AcDbLine
 10
-146.3609053429844
 20
64.19132347498642
 30
0.0
 11
-161.9089064006687
 21
64.19132347498642
 31
0.0
  0
LINE
  5
627
330
1F
100
AcDbEntity
  8
外形線
100
AcDbLine
 10
-146.3608989260357
 20
64.19129574014714
 30
0.0
 11
-146.1138981878081
 21
54.44129487258112
 31
0.0
  0
LINE
  5
628
330
1F
100
AcDbEntity
  8
外形線
100
AcDbLine
 10
-146.1139120910497
 20
54.44130378384723
 30
0.0
 11
-146.1139120910497
 21
53.79130379353298
 31
0.0
  0
LINE
  5
629
330
1F
100
AcDbEntity
  8
外形線
100
AcDbLine
 10
-145.2299117074937
 20
50.15128996227538
 30
0.0
 11
-145.2299117074937
 21
49.50128997196113
 31
0.0
  0
LINE
  5
62A
330
1F
100
AcDbEntity
  8
外形線
100
AcDbLine
 10
-145.2299117074937
 20
48.20128999133263
 30
0.0
 11
-145.2299117074937
 21
47.29129893128418
 31
0.0
  0
LINE
  5
62B
330
1F
100
AcDbEntity
  8
外形線
100
AcDbLine
 10
-145.2298993097277
 20
51.45129986111663
 30
0.0
 11
-154.1349071116031
 21
51.45129986111663
 31
0.0
  0
LINE
  5
62C
330
1F
100
AcDbEntity
  8
外形線
100
AcDbLine
 10
-145.2299117074937
 20
50.15129988048816
 30
0.0
 11
-154.1349120707096
 21
50.15129988048816
 31
0.0
  0
LINE
  5
62D
330
1F
100
AcDbEntity
  8
外形線
100
AcDbLine
 10
-145.2299117074937
 20
49.50129989017389
 30
0.0
 11
-154.1349120707096
 21
49.50129989017389
 31
0.0
  0
LINE
  5
62E
330
1F
100
AcDbEntity
  8
外形線
100
AcDbLine
 10
-145.2298993097277
 20
48.20129990954541
 30
0.0
 11
-154.1348996729436
 21
48.20129990954541
 31
0.0
  0
LINE
  5
62F
330
1F
100
AcDbEntity
  8
外形線
100
AcDbLine
 10
-163.0399124339252
 20
47.29130389039055
 30
0.0
 11
-154.1349120707096
 21
47.29130389039055
 31
0.0
  0
LINE
  5
630
330
1F
100
AcDbEntity
  8
外形線
100
AcDbLine
 10
-163.0399124339252
 20
52.23130778406392
 30
0.0
 11
-154.1349071116031
 21
52.23130778406392
 31
0.0
  0
LINE
  5
631
330
1F
100
AcDbEntity
  8
外形線
100
AcDbLine
 10
-162.1559021321566
 20
53.7913236299585
 30
0.0
 11
-154.1348996729436
 21
53.7913236299585
 31
0.0
  0
LINE
  5
632
330
1F
100
AcDbEntity
  8
外形線
100
AcDbLine
 10
-162.1559111575816
 20
53.79130319160196
 30
0.0
 11
-163.0399097951741
 21
52.23130650113918
 31
0.0
  0
LINE
  5
633
330
1F
100
AcDbEntity
  8
外形線
100
AcDbLine
 10
-162.1559170094757
 20
54.44132362027276
 30
0.0
 11
-154.1349120707096
 21
54.44132362027276
 31
0.0
  0
LINE
  5
634
330
1F
100
AcDbEntity
  8
外形線
100
AcDbLine
 10
-161.9089322741032
 20
64.19130050235452
 30
0.0
 11
-162.1559314892561
 21
54.44129463550652
 31
0.0
  0
LINE
  5
635
330
1F
100
AcDbEntity
  8
外形線
100
AcDbLine
 10
-162.1559120503694
 20
54.44129386563449
 30
0.0
 11
-162.1559120503694
 21
53.79129387532027
 31
0.0
  0
LINE
  5
636
330
1F
100
AcDbEntity
  8
外形線
100
AcDbLine
 10
-163.0399000361594
 20
51.45129986111663
 30
0.0
 11
-154.1349071116031
 21
51.45129986111663
 31
0.0
  0
LINE
  5
637
330
1F
100
AcDbEntity
  8
外形線
100
AcDbLine
 10
-163.0399124339252
 20
50.15129988048816
 30
0.0
 11
-154.1349120707096
 21
50.15129988048816
 31
0.0
  0
LINE
  5
638
330
1F
100
AcDbEntity
  8
外形線
100
AcDbLine
 10
-163.0399124339252
 20
49.50129989017389
 30
0.0
 11
-154.1349120707096
 21
49.50129989017389
 31
0.0
  0
LINE
  5
639
330
1F
100
AcDbEntity
  8
外形線
100
AcDbLine
 10
-163.0399000361594
 20
48.20129990954541
 30
0.0
 11
-154.1348996729436
 21
48.20129990954541
 31
0.0
  0
LINE
  5
63A
330
1F
100
AcDbEntity
  8
外形線
100
AcDbLine
 10
-146.8386456560615
 20
64.66903862867524
 30
0.0
 11
-146.3609005278855
 21
64.19129354077028
 31
0.0
  0
LINE
  5
63B
330
1F
100
AcDbEntity
  8
外形線
100
AcDbLine
 10
-48.2667922106035
 20
104.8571729945076
 30
0.0
 11
-48.2667922106035
 21
105.6176729945076
 31
0.0
  0
LINE
  5
63C
330
1F
100
AcDbEntity
  8
外形線
100
AcDbLine
 10
-53.0116195748242
 20
104.8571729945076
 30
0.0
 11
-53.0116195748242
 21
105.6176729945076
 31
0.0
  0
LINE
  5
63D
330
1F
100
AcDbEntity
  8
外形線
100
AcDbLine
 10
-20.57020589271358
 20
80.67058667661772
 30
0.0
 11
-19.80970589271365
 21
80.67058667661772
 31
0.0
  0
LINE
  5
63E
330
1F
100
AcDbEntity
  8
外形線
100
AcDbLine
 10
-20.57020589271358
 20
75.92575931239709
 30
0.0
 11
-19.80970589271365
 21
75.92575931239709
 31
0.0
  0
LINE
  5
63F
330
1F
100
AcDbEntity
  8
破線
100
AcDbLine
 10
-63.95965589271381
 20
58.57277494169785
 30
0.0
 11
-63.95965589271381
 21
59.98133188608367
 31
0.0
  0
LINE
  5
640
330
1F
100
AcDbEntity
  8
外形線
100
AcDbLine
 10
-50.63920589271378
 20
36.76317299450712
 30
0.0
 11
-65.73220589271378
 21
36.76317299450712
 31
0.0
  0
LINE
  5
641
330
1F
100
AcDbEntity
  8
外形線
100
AcDbLine
 10
-36.90925589271387
 20
54.66417299450758
 30
0.0
 11
-36.36520589271382
 21
54.07917299450756
 31
0.0
  0
LINE
  5
642
330
1F
100
AcDbEntity
  8
外形線
100
AcDbLine
 10
-28.64046769034842
 20
67.36562548211566
 30
0.0
 11
-27.88104400769043
 21
67.32517897153524
 31
0.0
  0
LINE
  5
643
330
1F
100
AcDbEntity
  8
外形線
100
AcDbLine
 10
-27.88104400769049
 20
67.32517897153529
 30
0.0
 11
-27.74115960721221
 21
69.95164847491499
 31
0.0
  0
LINE
  5
644
330
1F
100
AcDbEntity
  8
外形線
100
AcDbLine
 10
-28.64046769034847
 20
67.36562548211572
 30
0.0
 11
-28.50058328987018
 21
69.9920949854955
 31
0.0
  0
LINE
  5
645
330
1F
100
AcDbEntity
  8
外形線
100
AcDbLine
 10
-30.4009440950794
 20
89.23072050689915
 30
0.0
 11
-29.64152041242135
 21
89.19027399631874
 31
0.0
  0
LINE
  5
646
330
1F
100
AcDbEntity
  8
外形線
100
AcDbLine
 10
-28.58870801654136
 20
68.33746511751889
 30
0.0
 11
-27.87888984756154
 21
67.36562548211569
 31
0.0
  0
LINE
  5
647
330
1F
100
AcDbEntity
  8
外形線
100
AcDbLine
 10
-29.78395589271382
 20
64.56822299450736
 30
0.0
 11
-28.3214558927138
 21
92.02812299450744
 31
0.0
  0
LINE
  5
648
330
1F
100
AcDbEntity
  8
外形線
100
AcDbLine
 10
-29.64152041242129
 20
89.19027399631861
 30
0.0
 11
-29.78140481289958
 21
86.56380449293889
 31
0.0
  0
LINE
  5
649
330
1F
100
AcDbEntity
  8
外形線
100
AcDbLine
 10
-30.54082849555759
 20
86.60425100351933
 30
0.0
 11
-30.40094409507933
 21
89.23072050689908
 31
0.0
  0
LINE
  5
64A
330
1F
100
AcDbEntity
  8
破線
100
AcDbLine
 10
-28.63240165263962
 20
75.91875815903984
 30
0.0
 11
-29.39182533529772
 21
75.8783116484594
 31
0.0
  0
LINE
  5
64B
330
1F
100
AcDbEntity
  8
破線
100
AcDbLine
 10
-28.63240165263946
 20
75.91875815903986
 30
0.0
 11
-28.89016276747206
 21
80.7584808511358
 31
0.0
  0
LINE
  5
64C
330
1F
100
AcDbEntity
  8
破線
100
AcDbLine
 10
-29.42723550498487
 20
76.54317299450744
 30
0.0
 11
-28.63240165263956
 21
75.91875815903986
 31
0.0
  0
LINE
  5
64D
330
1F
100
AcDbEntity
  8
破線
100
AcDbLine
 10
-29.39182533529764
 20
75.87831164845948
 30
0.0
 11
-29.64958645013012
 21
80.71803434055539
 31
0.0
  0
LINE
  5
64E
330
1F
100
AcDbEntity
  8
破線
100
AcDbLine
 10
-29.61417628044276
 20
80.05317299450739
 30
0.0
 11
-28.89016276747206
 21
80.75848085113577
 31
0.0
  0
LINE
  5
64F
330
1F
100
AcDbEntity
  8
破線
100
AcDbLine
 10
-29.64958645013027
 20
80.71803434055535
 30
0.0
 11
-28.89016276747209
 21
80.75848085113577
 31
0.0
  0
LINE
  5
650
330
1F
100
AcDbEntity
  8
外形線
100
AcDbLine
 10
-10.11923292023417
 20
63.20517299450738
 30
0.0
 11
-9.104205892713563
 21
63.20517299450738
 31
0.0
  0
LINE
  5
651
330
1F
100
AcDbEntity
  8
破線
100
AcDbLine
 10
-65.32270589271381
 20
39.61602934114715
 30
0.0
 11
-65.32270589271381
 21
39.29426319545024
 31
0.0
  0
LINE
  5
652
330
1F
100
AcDbEntity
  8
破線
100
AcDbLine
 10
-64.85383595192448
 20
40.97517299450735
 30
0.0
 11
-64.50283595192448
 21
46.82517299450732
 31
0.0
  0
LINE
  5
653
330
1F
100
AcDbEntity
  8
破線
100
AcDbLine
 10
-36.90925589271423
 20
56.9164229945057
 30
0.0
 11
-49.02672317576015
 21
56.27105298582197
 31
0.0
  0
LINE
  5
654
330
1F
100
AcDbEntity
  8
外形線
100
AcDbLine
 10
-65.73220589271383
 20
39.68817299450704
 30
0.0
 11
-65.73220589271383
 21
39.25814596698648
 31
0.0
  0
LINE
  5
655
330
1F
100
AcDbEntity
  8
外形線
100
AcDbLine
 10
-64.36915589271376
 20
98.42217299450709
 30
0.0
 11
-64.91320589271379
 21
99.00717299450709
 31
0.0
  0
LINE
  5
656
330
1F
100
AcDbEntity
  8
破線
100
AcDbLine
 10
-35.95570589271384
 20
115.3442631954508
 30
0.0
 11
-35.95570589271384
 21
115.9136729945076
 31
0.0
  0
LINE
  5
657
330
1F
100
AcDbEntity
  8
破線
100
AcDbLine
 10
-36.42457583350321
 20
112.1111729945073
 30
0.0
 11
-36.77557583350321
 21
106.2611729945073
 31
0.0
  0
LINE
  5
658
330
1F
100
AcDbEntity
  8
破線
100
AcDbLine
 10
-36.90925589271416
 20
55.98042299450565
 30
0.0
 11
-48.97701330793527
 21
55.33770050754245
 31
0.0
  0
LINE
  5
659
330
1F
100
AcDbEntity
  8
破線
100
AcDbLine
 10
-35.95570589271384
 20
113.4703166478675
 30
0.0
 11
-35.95570589271384
 21
113.7920827935645
 31
0.0
  0
LINE
  5
65A
330
1F
100
AcDbEntity
  8
外形線
100
AcDbLine
 10
-35.54620589271383
 20
115.308145966987
 30
0.0
 11
-35.54620589271383
 21
116.3231729945076
 31
0.0
  0
LINE
  5
65B
330
1F
100
AcDbEntity
  8
破線
100
AcDbLine
 10
-64.36915589271359
 20
96.16992299450906
 30
0.0
 11
-52.25168860966761
 21
96.81529300319281
 31
0.0
  0
LINE
  5
65C
330
1F
100
AcDbEntity
  8
外形線
100
AcDbLine
 10
-35.54620589271383
 20
113.3981729945077
 30
0.0
 11
-35.54620589271383
 21
113.8282000220283
 31
0.0
  0
LINE
  5
65D
330
1F
100
AcDbEntity
  8
外形線
100
AcDbLine
 10
-65.32235611965266
 20
40.81525987042549
 30
0.0
 11
-65.73220589271381
 21
39.68817299450714
 31
0.0
  0
LINE
  5
65E
330
1F
100
AcDbEntity
  8
破線
100
AcDbLine
 10
-37.318755892714
 20
54.5031851519716
 30
0.0
 11
-36.77470589271397
 21
53.9181851519716
 31
0.0
  0
LINE
  5
65F
330
1F
100
AcDbEntity
  8
破線
100
AcDbLine
 10
-64.36915589271359
 20
97.10592299450908
 30
0.0
 11
-52.3013984774924
 21
97.74864548147228
 31
0.0
  0
LINE
  5
660
330
1F
100
AcDbEntity
  8
外形線
100
AcDbLine
 10
-35.95605566577511
 20
112.2710861185892
 30
0.0
 11
-35.54620589271396
 21
113.3981729945076
 31
0.0
  0
LINE
  5
661
330
1F
100
AcDbEntity
  8
破線
100
AcDbLine
 10
-63.95965589271359
 20
98.58316083704297
 30
0.0
 11
-64.50370589271357
 21
99.16816083704297
 31
0.0
  0
LINE
  5
662
330
1F
100
AcDbEntity
  8
破線
100
AcDbLine
 10
-36.01420589271363
 20
115.9136729945076
 30
0.0
 11
-35.95570589271375
 21
115.9136729945076
 31
0.0
  0
LINE
  5
663
330
1F
100
AcDbEntity
  8
破線
100
AcDbLine
 10
-37.31875589271385
 20
57.11027494169787
 30
0.0
 11
-37.31875589271385
 21
59.98133188608367
 31
0.0
  0
LINE
  5
664
330
1F
100
AcDbEntity
  8
破線
100
AcDbLine
 10
-64.85383595192478
 20
40.97517299450749
 30
0.0
 11
-65.32270589271404
 21
39.61602934114729
 31
0.0
  0
LINE
  5
665
330
1F
100
AcDbEntity
  8
破線
100
AcDbLine
 10
-37.31875589271385
 20
54.66417299450732
 30
0.0
 11
-37.31875589271385
 21
55.78657104731663
 31
0.0
  0
LINE
  5
666
330
1F
100
AcDbEntity
  8
破線
100
AcDbLine
 10
-63.95965589271381
 20
54.50318515197462
 30
0.0
 11
-63.95965589271381
 21
57.24907104731664
 31
0.0
  0
LINE
  5
667
330
1F
100
AcDbEntity
  8
破線
100
AcDbLine
 10
-63.95965589271536
 20
54.50318515197306
 30
0.0
 11
-64.5037058927154
 21
53.91818515197305
 31
0.0
  0
LINE
  5
668
330
1F
100
AcDbEntity
  8
破線
100
AcDbLine
 10
-52.25168860966812
 20
58.08829300318967
 30
0.0
 11
-64.36915589271418
 21
57.44292299450592
 31
0.0
  0
LINE
  5
669
330
1F
100
AcDbEntity
  8
破線
100
AcDbLine
 10
-62.92420589271433
 20
60.91733188608438
 30
0.0
 11
-63.95965589271431
 21
59.9813318860844
 31
0.0
  0
LINE
  5
66A
330
1F
100
AcDbEntity
  8
外形線
100
AcDbLine
 10
-64.36915589271379
 20
54.66417299451006
 30
0.0
 11
-64.36915589271379
 21
57.24907104731664
 31
0.0
  0
LINE
  5
66B
330
1F
100
AcDbEntity
  8
破線
100
AcDbLine
 10
-13.31620589271389
 20
92.51280305371798
 30
0.0
 11
-11.95706223935374
 21
92.98167299450723
 31
0.0
  0
LINE
  5
66C
330
1F
100
AcDbEntity
  8
破線
100
AcDbLine
 10
-63.95965589271381
 20
95.97607104731684
 30
0.0
 11
-63.95965589271381
 21
93.10501410293111
 31
0.0
  0
LINE
  5
66D
330
1F
100
AcDbEntity
  8
外形線
100
AcDbLine
 10
-20.5702058927136
 20
80.67058667661774
 30
0.0
 11
-20.5702058927136
 21
78.29817299450741
 31
0.0
  0
LINE
  5
66E
330
1F
100
AcDbEntity
  8
外形線
100
AcDbLine
 10
-19.80970589271374
 20
80.67058667661774
 30
0.0
 11
-19.80970589271374
 21
78.29817299450741
 31
0.0
  0
LINE
  5
66F
330
1F
100
AcDbEntity
  8
外形線
100
AcDbLine
 10
-19.80970589271374
 20
75.92575931239711
 30
0.0
 11
-19.80970589271374
 21
78.29817299450741
 31
0.0
  0
LINE
  5
670
330
1F
100
AcDbEntity
  8
破線
100
AcDbLine
 10
-36.42457583350271
 20
112.1111729945071
 30
0.0
 11
-35.95570589271343
 21
113.4703166478673
 31
0.0
  0
LINE
  5
671
330
1F
100
AcDbEntity
  8
外形線
100
AcDbLine
 10
-20.5702058927136
 20
75.92575931239711
 30
0.0
 11
-20.5702058927136
 21
78.29817299450741
 31
0.0
  0
LINE
  5
672
330
1F
100
AcDbEntity
  8
破線
100
AcDbLine
 10
-63.95965589271381
 20
98.42217299450744
 30
0.0
 11
-63.95965589271381
 21
97.29977494169808
 31
0.0
  0
LINE
  5
673
330
1F
100
AcDbEntity
  8
破線
100
AcDbLine
 10
-26.25921805017808
 20
92.16267299450738
 30
0.0
 11
-19.1662058927138
 21
92.16267299450738
 31
0.0
  0
LINE
  5
674
330
1F
100
AcDbEntity
  8
外形線
100
AcDbLine
 10
-19.16620589271383
 20
92.57217299450758
 30
0.0
 11
-13.48605817229168
 21
92.91298185773293
 31
0.0
  0
LINE
  5
675
330
1F
100
AcDbEntity
  8
外形線
100
AcDbLine
 10
-26.42020589271402
 20
92.57217299450742
 30
0.0
 11
-19.16398084291633
 21
92.57217299450742
 31
0.0
  0
LINE
  5
676
330
1F
100
AcDbEntity
  8
外形線
100
AcDbLine
 10
-63.33370589271442
 20
61.09917299450759
 30
0.0
 11
-64.36915589271439
 21
60.16317299450764
 31
0.0
  0
LINE
  5
677
330
1F
100
AcDbEntity
  8
破線
100
AcDbLine
 10
-64.36915589271385
 20
58.37892299450603
 30
0.0
 11
-52.30139847749271
 21
59.02164548147027
 31
0.0
  0
LINE
  5
678
330
1F
100
AcDbEntity
  8
外形線
100
AcDbLine
 10
-36.90925589271385
 20
57.11027494169787
 30
0.0
 11
-36.90925589271385
 21
60.16317299450746
 31
0.0
  0
LINE
  5
679
330
1F
100
AcDbEntity
  8
外形線
100
AcDbLine
 10
-64.36915589271326
 20
58.37892299450609
 30
0.0
 11
-36.90925589271325
 21
56.91642299450609
 31
0.0
  0
LINE
  5
67A
330
1F
100
AcDbEntity
  8
外形線
100
AcDbLine
 10
-36.90925589271377
 20
54.66417299450734
 30
0.0
 11
-64.36915589271379
 21
54.66417299450734
 31
0.0
  0
LINE
  5
67B
330
1F
100
AcDbEntity
  8
外形線
100
AcDbLine
 10
-33.44020589271382
 20
78.29817299450741
 30
0.0
 11
-33.44020589271382
 21
90.99267299450742
 31
0.0
  0
LINE
  5
67C
330
1F
100
AcDbEntity
  8
外形線
100
AcDbLine
 10
-50.63920589271378
 20
54.07917299450733
 30
0.0
 11
-64.91320589271379
 21
54.07917299450733
 31
0.0
  0
LINE
  5
67D
330
1F
100
AcDbEntity
  8
外形線
100
AcDbLine
 10
-64.36915589271379
 20
58.57277494169785
 30
0.0
 11
-64.36915589271379
 21
60.16317299450733
 31
0.0
  0
LINE
  5
67E
330
1F
100
AcDbEntity
  8
外形線
100
AcDbLine
 10
-50.63920589271378
 20
36.76317299450712
 30
0.0
 11
-35.5462058927138
 21
36.76317299450712
 31
0.0
  0
LINE
  5
67F
330
1F
100
AcDbEntity
  8
破線
100
AcDbLine
 10
-35.95570589271384
 20
37.7420827935639
 30
0.0
 11
-35.95570589271384
 21
37.17267299450708
 31
0.0
  0
LINE
  5
680
330
1F
100
AcDbEntity
  8
外形線
100
AcDbLine
 10
-34.25920589271381
 20
90.9926729945074
 30
0.0
 11
-33.44020589271379
 21
90.9926729945074
 31
0.0
  0
LINE
  5
681
330
1F
100
AcDbEntity
  8
外形線
100
AcDbLine
 10
-64.91320589271381
 20
54.07917299450731
 30
0.0
 11
-64.91320589271381
 21
46.82517299450783
 31
0.0
  0
LINE
  5
682
330
1F
100
AcDbEntity
  8
外形線
100
AcDbLine
 10
-35.67532371172412
 20
38.05017299450714
 30
0.0
 11
-50.63920589271378
 21
38.05017299450714
 31
0.0
  0
LINE
  5
683
330
1F
100
AcDbEntity
  8
破線
100
AcDbLine
 10
-38.35420589271382
 20
62.26917299450743
 30
0.0
 11
-38.35420589271382
 21
60.9173318860838
 31
0.0
  0
LINE
  5
684
330
1F
100
AcDbEntity
  8
外形線
100
AcDbLine
 10
-64.91320589271373
 20
46.82517299450736
 30
0.0
 11
-65.25401475593906
 21
41.14502527408517
 31
0.0
  0
LINE
  5
685
330
1F
100
AcDbEntity
  8
外形線
100
AcDbLine
 10
-64.36915589271521
 20
54.66417299450867
 30
0.0
 11
-64.91320589271521
 21
54.07917299450867
 31
0.0
  0
LINE
  5
686
330
1F
100
AcDbEntity
  8
外形線
100
AcDbLine
 10
-65.27677889171797
 20
40.97517299450724
 30
0.0
 11
-50.63920589271378
 21
40.97517299450724
 31
0.0
  0
LINE
  5
687
330
1F
100
AcDbEntity
  8
破線
100
AcDbLine
 10
-64.50370589271378
 20
53.91818515197132
 30
0.0
 11
-64.50370589271378
 21
46.81067398135152
 31
0.0
  0
LINE
  5
688
330
1F
100
AcDbEntity
  8
外形線
100
AcDbLine
 10
-35.5462058927138
 20
39.68817299450704
 30
0.0
 11
-35.5462058927138
 21
39.25814596698648
 31
0.0
  0
LINE
  5
689
330
1F
100
AcDbEntity
  8
外形線
100
AcDbLine
 10
-65.60308807370344
 20
38.98617299450715
 30
0.0
 11
-50.63920589271378
 21
38.98617299450715
 31
0.0
  0
LINE
  5
68A
330
1F
100
AcDbEntity
  8
破線
100
AcDbLine
 10
-35.95570589271384
 20
39.61602934114715
 30
0.0
 11
-35.95570589271384
 21
39.29426319545024
 31
0.0
  0
LINE
  5
68B
330
1F
100
AcDbEntity
  8
破線
100
AcDbLine
 10
-36.42457583350296
 20
40.97517299450749
 30
0.0
 11
-36.77557583350296
 21
46.82517299450746
 31
0.0
  0
LINE
  5
68C
330
1F
100
AcDbEntity
  8
外形線
100
AcDbLine
 10
-35.95605566577494
 20
40.81525987042559
 30
0.0
 11
-35.54620589271378
 21
39.68817299450716
 31
0.0
  0
LINE
  5
68D
330
1F
100
AcDbEntity
  8
外形線
100
AcDbLine
 10
-48.88420589271373
 20
48.22917299450717
 30
0.0
 11
-48.26679221060341
 21
47.46867299450721
 31
0.0
  0
LINE
  5
68E
330
1F
100
AcDbEntity
  8
外形線
100
AcDbLine
 10
-35.5462058927138
 20
37.77820002202766
 30
0.0
 11
-35.5462058927138
 21
36.7631729945071
 31
0.0
  0
LINE
  5
68F
330
1F
100
AcDbEntity
  8
外形線
100
AcDbLine
 10
-36.00163289370957
 20
40.97517299450724
 30
0.0
 11
-50.63920589271378
 21
40.97517299450724
 31
0.0
  0
LINE
  5
690
330
1F
100
AcDbEntity
  8
外形線
100
AcDbLine
 10
-65.73220589271378
 20
39.68817299450709
 30
0.0
 11
-50.63920589271378
 21
39.68817299450709
 31
0.0
  0
LINE
  5
691
330
1F
100
AcDbEntity
  8
外形線
100
AcDbLine
 10
-35.5462058927138
 20
39.68817299450709
 30
0.0
 11
-50.63920589271378
 21
39.68817299450709
 31
0.0
  0
LINE
  5
692
330
1F
100
AcDbEntity
  8
外形線
100
AcDbLine
 10
-64.91320589271379
 20
46.82517299450795
 30
0.0
 11
-50.63920589271378
 21
46.82517299450795
 31
0.0
  0
LINE
  5
693
330
1F
100
AcDbEntity
  8
外形線
100
AcDbLine
 10
-36.90925589271385
 20
54.66417299450732
 30
0.0
 11
-36.90925589271385
 21
55.78657104731663
 31
0.0
  0
LINE
  5
694
330
1F
100
AcDbEntity
  8
外形線
100
AcDbLine
 10
-65.60308807370344
 20
38.05017299450714
 30
0.0
 11
-50.63920589271378
 21
38.05017299450714
 31
0.0
  0
LINE
  5
695
330
1F
100
AcDbEntity
  8
破線
100
AcDbLine
 10
-33.25836478428984
 20
90.58317299450779
 30
0.0
 11
-32.3223647842899
 21
91.61862299450772
 31
0.0
  0
LINE
  5
696
330
1F
100
AcDbEntity
  8
外形線
100
AcDbLine
 10
-35.67532371172412
 20
38.98617299450715
 30
0.0
 11
-50.63920589271378
 21
38.98617299450715
 31
0.0
  0
LINE
  5
697
330
1F
100
AcDbEntity
  8
外形線
100
AcDbLine
 10
-63.33370589271388
 20
78.29817299450741
 30
0.0
 11
-63.33370589271388
 21
61.09917299450746
 31
0.0
  0
LINE
  5
698
330
1F
100
AcDbEntity
  8
破線
100
AcDbLine
 10
-36.01420589271365
 20
37.17267299450715
 30
0.0
 11
-35.95570589271378
 21
37.17267299450715
 31
0.0
  0
LINE
  5
699
330
1F
100
AcDbEntity
  8
外形線
100
AcDbLine
 10
-50.63920589271378
 20
60.16317299450734
 30
0.0
 11
-64.36915589271379
 21
60.16317299450734
 31
0.0
  0
LINE
  5
69A
330
1F
100
AcDbEntity
  8
外形線
100
AcDbLine
 10
-36.36520589271379
 20
46.82517299450795
 30
0.0
 11
-50.63920589271378
 21
46.82517299450795
 31
0.0
  0
LINE
  5
69B
330
1F
100
AcDbEntity
  8
破線
100
AcDbLine
 10
-37.31875589271385
 20
94.51357104731682
 30
0.0
 11
-37.31875589271385
 21
93.10501410293111
 31
0.0
  0
LINE
  5
69C
330
1F
100
AcDbEntity
  8
破線
100
AcDbLine
 10
-37.31875589271385
 20
54.50318515197152
 30
0.0
 11
-37.31875589271385
 21
55.89355007537147
 31
0.0
  0
LINE
  5
69D
330
1F
100
AcDbEntity
  8
外形線
100
AcDbLine
 10
-50.63920589271378
 20
60.16317299450734
 30
0.0
 11
-36.90925589271377
 21
60.16317299450734
 31
0.0
  0
LINE
  5
69E
330
1F
100
AcDbEntity
  8
外形線
100
AcDbLine
 10
-26.42020589271384
 20
78.29817299450741
 30
0.0
 11
-26.42020589271384
 21
92.57217299450742
 31
0.0
  0
LINE
  5
69F
330
1F
100
AcDbEntity
  8
外形線
100
AcDbLine
 10
-37.94470589271336
 20
61.09917299450707
 30
0.0
 11
-36.90925589271343
 21
60.16317299450714
 31
0.0
  0
LINE
  5
6A0
330
1F
100
AcDbEntity
  8
外形線
100
AcDbLine
 10
-58.94528390172581
 20
56.15955039166372
 30
0.0
 11
-58.98573041230625
 21
55.40012670900583
 31
0.0
  0
LINE
  5
6A1
330
1F
100
AcDbEntity
  8
外形線
100
AcDbLine
 10
-20.57020589271363
 20
76.54317299450744
 30
0.0
 11
-19.80970589271365
 21
75.92575931239709
 31
0.0
  0
LINE
  5
6A2
330
1F
100
AcDbEntity
  8
外形線
100
AcDbLine
 10
-42.33312788370183
 20
58.19979559735113
 30
0.0
 11
-42.37357439428225
 21
57.44037191469312
 31
0.0
  0
LINE
  5
6A3
330
1F
100
AcDbEntity
  8
外形線
100
AcDbLine
 10
-40.67849801572529
 20
58.11167087068001
 30
0.0
 11
-39.74710489090251
 21
57.30048751421475
 31
0.0
  0
LINE
  5
6A4
330
1F
100
AcDbEntity
  8
外形線
100
AcDbLine
 10
-52.39420589271379
 20
48.22917299450711
 30
0.0
 11
-53.01161957482412
 21
47.46867299450718
 31
0.0
  0
LINE
  5
6A5
330
1F
100
AcDbEntity
  8
外形線
100
AcDbLine
 10
-50.63920589271378
 20
54.07917299450733
 30
0.0
 11
-36.36520589271379
 21
54.07917299450733
 31
0.0
  0
LINE
  5
6A6
330
1F
100
AcDbEntity
  8
破線
100
AcDbLine
 10
-38.3542058927134
 20
60.91733188608335
 30
0.0
 11
-37.3187558927135
 21
59.98133188608342
 31
0.0
  0
LINE
  5
6A7
330
1F
100
AcDbEntity
  8
外形線
100
AcDbLine
 10
-36.36520589271382
 20
54.0791729945075
 30
0.0
 11
-36.36520589271382
 21
46.82294794470982
 31
0.0
  0
LINE
  5
6A8
330
1F
100
AcDbEntity
  8
外形線
100
AcDbLine
 10
-36.36520589271365
 20
46.82517299450735
 30
0.0
 11
-36.0243970294883
 21
41.14502527408517
 31
0.0
  0
LINE
  5
6A9
330
1F
100
AcDbEntity
  8
破線
100
AcDbLine
 10
-36.77470589271383
 20
53.91818515197162
 30
0.0
 11
-36.77470589271383
 21
46.82517299450731
 31
0.0
  0
LINE
  5
6AA
330
1F
100
AcDbEntity
  8
外形線
100
AcDbLine
 10
-53.01161957482412
 20
48.22917299450713
 30
0.0
 11
-50.63920589271378
 21
48.22917299450713
 31
0.0
  0
LINE
  5
6AB
330
1F
100
AcDbEntity
  8
外形線
100
AcDbLine
 10
-53.01161957482412
 20
47.46867299450721
 30
0.0
 11
-50.63920589271378
 21
47.46867299450721
 31
0.0
  0
LINE
  5
6AC
330
1F
100
AcDbEntity
  8
外形線
100
AcDbLine
 10
-48.26679221060347
 20
47.46867299450721
 30
0.0
 11
-50.63920589271378
 21
47.46867299450721
 31
0.0
  0
LINE
  5
6AD
330
1F
100
AcDbEntity
  8
外形線
100
AcDbLine
 10
-48.26679221060347
 20
48.22917299450713
 30
0.0
 11
-50.63920589271378
 21
48.22917299450713
 31
0.0
  0
LINE
  5
6AE
330
1F
100
AcDbEntity
  8
破線
100
AcDbLine
 10
-36.42457583350326
 20
40.97517299450738
 30
0.0
 11
-35.955705892714
 21
39.61602934114722
 31
0.0
  0
LINE
  5
6AF
330
1F
100
AcDbEntity
  8
外形線
100
AcDbLine
 10
-65.73220589271383
 20
37.77820002202766
 30
0.0
 11
-65.73220589271383
 21
36.7631729945071
 31
0.0
  0
LINE
  5
6B0
330
1F
100
AcDbEntity
  8
外形線
100
AcDbLine
 10
-30.45270376888649
 20
88.25888087149593
 30
0.0
 11
-29.64152041242126
 21
89.19027399631872
 31
0.0
  0
LINE
  5
6B1
330
1F
100
AcDbEntity
  8
破線
100
AcDbLine
 10
-48.21934454666589
 20
57.30855355192378
 30
0.0
 11
-48.17889803608544
 21
56.54912986926561
 31
0.0
  0
LINE
  5
6B2
330
1F
100
AcDbEntity
  8
破線
100
AcDbLine
 10
-48.88420589271382
 20
57.27314338223624
 30
0.0
 11
-48.17889803608544
 21
56.54912986926555
 31
0.0
  0
LINE
  5
6B3
330
1F
100
AcDbEntity
  8
外形線
100
AcDbLine
 10
-30.54082849555765
 20
86.60425100351938
 30
0.0
 11
-29.78140481289961
 21
86.56380449293896
 31
0.0
  0
LINE
  5
6B4
330
1F
100
AcDbEntity
  8
破線
100
AcDbLine
 10
-53.05906723876177
 20
57.05079243709114
 30
0.0
 11
-48.21934454666581
 21
57.3085535519236
 31
0.0
  0
LINE
  5
6B5
330
1F
100
AcDbEntity
  8
外形線
100
AcDbLine
 10
-28.50058328987022
 20
69.99209498549538
 30
0.0
 11
-27.74115960721232
 21
69.95164847491496
 31
0.0
  0
LINE
  5
6B6
330
1F
100
AcDbEntity
  8
破線
100
AcDbLine
 10
-52.39420589271379
 20
57.0862026067784
 30
0.0
 11
-53.01862072818135
 21
56.29136875443307
 31
0.0
  0
LINE
  5
6B7
330
1F
100
AcDbEntity
  8
破線
100
AcDbLine
 10
-53.0186207281814
 20
56.29136875443297
 30
0.0
 11
-48.17889803608546
 21
56.54912986926556
 31
0.0
  0
LINE
  5
6B8
330
1F
100
AcDbEntity
  8
破線
100
AcDbLine
 10
-37.31875589271385
 20
98.58316083704012
 30
0.0
 11
-37.31875589271385
 21
95.83727494169805
 31
0.0
  0
LINE
  5
6B9
330
1F
100
AcDbEntity
  8
破線
100
AcDbLine
 10
-37.31875589271232
 20
98.58316083704158
 30
0.0
 11
-36.77470589271225
 21
99.16816083704169
 31
0.0
  0
LINE
  5
6BA
330
1F
100
AcDbEntity
  8
破線
100
AcDbLine
 10
-53.0186207281814
 20
56.29136875443311
 30
0.0
 11
-53.05906723876183
 21
57.05079243709121
 31
0.0
  0
LINE
  5
6BB
330
1F
100
AcDbEntity
  8
外形線
100
AcDbLine
 10
-37.94470589271386
 20
91.41517012980921
 30
0.0
 11
-37.94470589271386
 21
91.98717299450738
 31
0.0
  0
LINE
  5
6BC
330
1F
100
AcDbEntity
  8
外形線
100
AcDbLine
 10
-33.44020589271357
 20
90.99267299450787
 30
0.0
 11
-32.50420589271363
 21
92.02812299450778
 31
0.0
  0
LINE
  5
6BD
330
1F
100
AcDbEntity
  8
外形線
100
AcDbLine
 10
-32.50420589271383
 20
78.29817299450741
 30
0.0
 11
-32.50420589271383
 21
92.02812299450744
 31
0.0
  0
LINE
  5
6BE
330
1F
100
AcDbEntity
  8
外形線
100
AcDbLine
 10
-50.63920589271378
 20
91.9871729945074
 30
0.0
 11
-37.94470589271378
 21
91.9871729945074
 31
0.0
  0
LINE
  5
6BF
330
1F
100
AcDbEntity
  8
破線
100
AcDbLine
 10
-49.02672317575957
 20
94.99805298582513
 30
0.0
 11
-36.90925589271356
 21
95.64342299450888
 31
0.0
  0
LINE
  5
6C0
330
1F
100
AcDbEntity
  8
外形線
100
AcDbLine
 10
-42.33312788370191
 20
58.19979559735108
 30
0.0
 11
-39.70665838032213
 21
58.05991119687281
 31
0.0
  0
LINE
  5
6C1
330
1F
100
AcDbEntity
  8
破線
100
AcDbLine
 10
-26.844218050178
 20
91.6186229945074
 30
0.0
 11
-28.23458297357796
 21
91.6186229945074
 31
0.0
  0
LINE
  5
6C2
330
1F
100
AcDbEntity
  8
外形線
100
AcDbLine
 10
-19.16620589271443
 20
92.57217299450742
 30
0.0
 11
-19.16620589271443
 21
78.29817299450741
 31
0.0
  0
LINE
  5
6C3
330
1F
100
AcDbEntity
  8
破線
100
AcDbLine
 10
-38.35420589271324
 20
92.16901410293038
 30
0.0
 11
-37.31875589271323
 21
93.10501410293042
 31
0.0
  0
LINE
  5
6C4
330
1F
100
AcDbEntity
  8
外形線
100
AcDbLine
 10
-32.50420589271383
 20
78.29817299450741
 30
0.0
 11
-32.50420589271383
 21
64.56822299450741
 31
0.0
  0
LINE
  5
6C5
330
1F
100
AcDbEntity
  8
外形線
100
AcDbLine
 10
-36.90925589271385
 20
98.42217299450467
 30
0.0
 11
-36.90925589271385
 21
95.83727494169805
 31
0.0
  0
LINE
  5
6C6
330
1F
100
AcDbEntity
  8
外形線
100
AcDbLine
 10
-37.9447058927131
 20
91.98717299450724
 30
0.0
 11
-36.90925589271321
 21
92.92317299450715
 31
0.0
  0
LINE
  5
6C7
330
1F
100
AcDbEntity
  8
破線
100
AcDbLine
 10
-36.90925589271397
 20
94.7074229945087
 30
0.0
 11
-48.97701330793509
 21
94.06470050754448
 31
0.0
  0
LINE
  5
6C8
330
1F
100
AcDbEntity
  8
破線
100
AcDbLine
 10
-9.513705892713659
 20
92.92317299450756
 30
0.0
 11
-9.513705892713659
 21
92.98167299450744
 31
0.0
  0
LINE
  5
6C9
330
1F
100
AcDbEntity
  8
破線
100
AcDbLine
 10
-62.92420589271384
 20
78.29817299450741
 30
0.0
 11
-62.92420589271384
 21
92.16901410293109
 31
0.0
  0
LINE
  5
6CA
330
1F
100
AcDbEntity
  8
外形線
100
AcDbLine
 10
-11.32720589271362
 20
93.26205517549707
 30
0.0
 11
-11.32720589271362
 21
78.29817299450741
 31
0.0
  0
LINE
  5
6CB
330
1F
100
AcDbEntity
  8
外形線
100
AcDbLine
 10
-50.63920589271378
 20
91.9871729945074
 30
0.0
 11
-63.33370589271378
 21
91.9871729945074
 31
0.0
  0
LINE
  5
6CC
330
1F
100
AcDbEntity
  8
外形線
100
AcDbLine
 10
-10.39120589271365
 20
63.33429081351777
 30
0.0
 11
-10.39120589271365
 21
78.29817299450741
 31
0.0
  0
LINE
  5
6CD
330
1F
100
AcDbEntity
  8
外形線
100
AcDbLine
 10
-64.36915589271385
 20
95.97607104731684
 30
0.0
 11
-64.36915589271385
 21
92.92317299450727
 31
0.0
  0
LINE
  5
6CE
330
1F
100
AcDbEntity
  8
外形線
100
AcDbLine
 10
-27.00520589271379
 20
92.02812299450735
 30
0.0
 11
-28.12760394552312
 21
92.02812299450735
 31
0.0
  0
LINE
  5
6CF
330
1F
100
AcDbEntity
  8
外形線
100
AcDbLine
 10
-36.90925589271426
 20
94.7074229945086
 30
0.0
 11
-64.36915589271421
 21
96.16992299450865
 31
0.0
  0
LINE
  5
6D0
330
1F
100
AcDbEntity
  8
外形線
100
AcDbLine
 10
-19.16620589271443
 20
64.02417299450744
 30
0.0
 11
-19.16620589271443
 21
78.29817299450741
 31
0.0
  0
LINE
  5
6D1
330
1F
100
AcDbEntity
  8
外形線
100
AcDbLine
 10
-64.36915589271375
 20
98.42217299450744
 30
0.0
 11
-36.90925589271375
 21
98.42217299450744
 31
0.0
  0
LINE
  5
6D2
330
1F
100
AcDbEntity
  8
外形線
100
AcDbLine
 10
-12.02920589271357
 20
93.39117299450744
 30
0.0
 11
-12.02920589271357
 21
78.29817299450741
 31
0.0
  0
LINE
  5
6D3
330
1F
100
AcDbEntity
  8
外形線
100
AcDbLine
 10
-50.63920589271378
 20
99.00717299450741
 30
0.0
 11
-36.36520589271377
 21
99.00717299450741
 31
0.0
  0
LINE
  5
6D4
330
1F
100
AcDbEntity
  8
外形線
100
AcDbLine
 10
-39.74710489090261
 20
57.30048751421482
 30
0.0
 11
-42.3735743942823
 21
57.4403719146931
 31
0.0
  0
LINE
  5
6D5
330
1F
100
AcDbEntity
  8
外形線
100
AcDbLine
 10
-36.90925589271385
 20
94.51357104731682
 30
0.0
 11
-36.90925589271385
 21
92.92317299450742
 31
0.0
  0
LINE
  5
6D6
330
1F
100
AcDbEntity
  8
外形線
100
AcDbLine
 10
-12.02920589271357
 20
63.20517299450743
 30
0.0
 11
-12.02920589271357
 21
78.29817299450741
 31
0.0
  0
LINE
  5
6D7
330
1F
100
AcDbEntity
  8
外形線
100
AcDbLine
 10
-50.63920589271378
 20
116.3231729945076
 30
0.0
 11
-65.73220589271378
 21
116.3231729945076
 31
0.0
  0
LINE
  5
6D8
330
1F
100
AcDbEntity
  8
破線
100
AcDbLine
 10
-65.32270589271383
 20
115.3442631954508
 30
0.0
 11
-65.32270589271383
 21
115.9136729945076
 31
0.0
  0
LINE
  5
6D9
330
1F
100
AcDbEntity
  8
外形線
100
AcDbLine
 10
-64.36915589271388
 20
57.44292299450729
 30
0.0
 11
-36.9092558927138
 21
55.98042299450729
 31
0.0
  0
LINE
  5
6DA
330
1F
100
AcDbEntity
  8
外形線
100
AcDbLine
 10
-36.36520589271382
 20
99.00717299450745
 30
0.0
 11
-36.36520589271382
 21
106.2611729945069
 31
0.0
  0
LINE
  5
6DB
330
1F
100
AcDbEntity
  8
外形線
100
AcDbLine
 10
-13.31620589271372
 20
92.93574599351165
 30
0.0
 11
-13.31620589271372
 21
78.29817299450741
 31
0.0
  0
LINE
  5
6DC
330
1F
100
AcDbEntity
  8
外形線
100
AcDbLine
 10
-65.60308807370339
 20
115.0361729945076
 30
0.0
 11
-50.63920589271378
 21
115.0361729945076
 31
0.0
  0
LINE
  5
6DD
330
1F
100
AcDbEntity
  8
外形線
100
AcDbLine
 10
-36.36520589271388
 20
106.2611729945074
 30
0.0
 11
-36.02439702948855
 21
111.9413207149295
 31
0.0
  0
LINE
  5
6DE
330
1F
100
AcDbEntity
  8
外形線
100
AcDbLine
 10
-10.11923292023417
 20
93.39117299450744
 30
0.0
 11
-9.104205892713563
 21
93.39117299450744
 31
0.0
  0
LINE
  5
6DF
330
1F
100
AcDbEntity
  8
外形線
100
AcDbLine
 10
-36.9092558927124
 20
98.422172994506
 30
0.0
 11
-36.36520589271237
 21
99.00717299450604
 31
0.0
  0
LINE
  5
6E0
330
1F
100
AcDbEntity
  8
外形線
100
AcDbLine
 10
-20.57020589271366
 20
80.05317299450743
 30
0.0
 11
-19.80970589271374
 21
80.67058667661779
 31
0.0
  0
LINE
  5
6E1
330
1F
100
AcDbEntity
  8
外形線
100
AcDbLine
 10
-60.59991376970232
 20
56.24767511833482
 30
0.0
 11
-61.5717534051055
 21
55.53785694935504
 31
0.0
  0
LINE
  5
6E2
330
1F
100
AcDbEntity
  8
外形線
100
AcDbLine
 10
-36.00163289370957
 20
112.1111729945075
 30
0.0
 11
-50.63920589271378
 21
112.1111729945075
 31
0.0
  0
LINE
  5
6E3
330
1F
100
AcDbEntity
  8
破線
100
AcDbLine
 10
-36.77470589271385
 20
99.16816083704345
 30
0.0
 11
-36.77470589271385
 21
106.2756720076632
 31
0.0
  0
LINE
  5
6E4
330
1F
100
AcDbEntity
  8
外形線
100
AcDbLine
 10
-65.73220589271385
 20
113.3981729945077
 30
0.0
 11
-65.73220589271385
 21
113.8282000220283
 31
0.0
  0
LINE
  5
6E5
330
1F
100
AcDbEntity
  8
外形線
100
AcDbLine
 10
-35.6753237117241
 20
114.1001729945076
 30
0.0
 11
-50.63920589271378
 21
114.1001729945076
 31
0.0
  0
LINE
  5
6E6
330
1F
100
AcDbEntity
  8
破線
100
AcDbLine
 10
-65.32270589271383
 20
113.4703166478675
 30
0.0
 11
-65.32270589271383
 21
113.7920827935645
 31
0.0
  0
LINE
  5
6E7
330
1F
100
AcDbEntity
  8
破線
100
AcDbLine
 10
-64.85383595192478
 20
112.1111729945073
 30
0.0
 11
-64.50283595192477
 21
106.2611729945072
 31
0.0
  0
LINE
  5
6E8
330
1F
100
AcDbEntity
  8
外形線
100
AcDbLine
 10
-13.15629276863205
 20
92.98132322144629
 30
0.0
 11
-12.02920589271365
 21
93.39117299450744
 31
0.0
  0
LINE
  5
6E9
330
1F
100
AcDbEntity
  8
外形線
100
AcDbLine
 10
-65.32235611965288
 20
112.2710861185893
 30
0.0
 11
-65.73220589271405
 21
113.3981729945077
 31
0.0
  0
LINE
  5
6EA
330
1F
100
AcDbEntity
  8
外形線
100
AcDbLine
 10
-65.73220589271385
 20
115.308145966987
 30
0.0
 11
-65.73220589271385
 21
116.3231729945076
 31
0.0
  0
LINE
  5
6EB
330
1F
100
AcDbEntity
  8
破線
100
AcDbLine
 10
-13.31620589271398
 20
92.51280305371826
 30
0.0
 11
-19.16620589271396
 21
92.16180305371826
 31
0.0
  0
LINE
  5
6EC
330
1F
100
AcDbEntity
  8
外形線
100
AcDbLine
 10
-65.27677889171797
 20
112.1111729945075
 30
0.0
 11
-50.63920589271378
 21
112.1111729945075
 31
0.0
  0
LINE
  5
6ED
330
1F
100
AcDbEntity
  8
破線
100
AcDbLine
 10
-11.95706223935363
 20
92.9816729945074
 30
0.0
 11
-11.63529609365672
 21
92.9816729945074
 31
0.0
  0
LINE
  5
6EE
330
1F
100
AcDbEntity
  8
外形線
100
AcDbLine
 10
-35.54620589271378
 20
113.3981729945077
 30
0.0
 11
-50.63920589271378
 21
113.3981729945077
 31
0.0
  0
LINE
  5
6EF
330
1F
100
AcDbEntity
  8
外形線
100
AcDbLine
 10
-65.73220589271378
 20
113.3981729945077
 30
0.0
 11
-50.63920589271378
 21
113.3981729945077
 31
0.0
  0
LINE
  5
6F0
330
1F
100
AcDbEntity
  8
外形線
100
AcDbLine
 10
-36.36520589271377
 20
106.2611729945069
 30
0.0
 11
-50.63920589271378
 21
106.2611729945069
 31
0.0
  0
LINE
  5
6F1
330
1F
100
AcDbEntity
  8
外形線
100
AcDbLine
 10
-64.36915589271385
 20
98.42217299450744
 30
0.0
 11
-64.36915589271385
 21
97.29977494169808
 31
0.0
  0
LINE
  5
6F2
330
1F
100
AcDbEntity
  8
外形線
100
AcDbLine
 10
-35.6753237117241
 20
115.0361729945076
 30
0.0
 11
-50.63920589271378
 21
115.0361729945076
 31
0.0
  0
LINE
  5
6F3
330
1F
100
AcDbEntity
  8
外形線
100
AcDbLine
 10
-65.60308807370339
 20
114.1001729945076
 30
0.0
 11
-50.63920589271378
 21
114.1001729945076
 31
0.0
  0
LINE
  5
6F4
330
1F
100
AcDbEntity
  8
破線
100
AcDbLine
 10
-65.26420589271386
 20
115.9136729945076
 30
0.0
 11
-65.32270589271378
 21
115.9136729945076
 31
0.0
  0
LINE
  5
6F5
330
1F
100
AcDbEntity
  8
外形線
100
AcDbLine
 10
-50.63920589271378
 20
92.92317299450742
 30
0.0
 11
-36.90925589271375
 21
92.92317299450742
 31
0.0
  0
LINE
  5
6F6
330
1F
100
AcDbEntity
  8
外形線
100
AcDbLine
 10
-64.91320589271379
 20
106.2611729945069
 30
0.0
 11
-50.63920589271378
 21
106.2611729945069
 31
0.0
  0
LINE
  5
6F7
330
1F
100
AcDbEntity
  8
破線
100
AcDbLine
 10
-63.95965589271381
 20
98.58316083704321
 30
0.0
 11
-63.95965589271381
 21
97.19279591364326
 31
0.0
  0
LINE
  5
6F8
330
1F
100
AcDbEntity
  8
外形線
100
AcDbLine
 10
-50.63920589271378
 20
92.92317299450742
 30
0.0
 11
-64.36915589271375
 21
92.92317299450742
 31
0.0
  0
LINE
  5
6F9
330
1F
100
AcDbEntity
  8
外形線
100
AcDbLine
 10
-63.33370589271421
 20
91.98717299450763
 30
0.0
 11
-64.36915589271418
 21
92.92317299450763
 31
0.0
  0
LINE
  5
6FA
330
1F
100
AcDbEntity
  8
外形線
100
AcDbLine
 10
-52.39420589271386
 20
104.8571729945076
 30
0.0
 11
-53.01161957482418
 21
105.6176729945075
 31
0.0
  0
LINE
  5
6FB
330
1F
100
AcDbEntity
  8
外形線
100
AcDbLine
 10
-50.63920589271378
 20
99.00717299450741
 30
0.0
 11
-64.91320589271379
 21
99.00717299450741
 31
0.0
  0
LINE
  5
6FC
330
1F
100
AcDbEntity
  8
破線
100
AcDbLine
 10
-62.92420589271418
 20
92.1690141029315
 30
0.0
 11
-63.95965589271414
 21
93.10501410293147
 31
0.0
  0
LINE
  5
6FD
330
1F
100
AcDbEntity
  8
外形線
100
AcDbLine
 10
-11.32720589271362
 20
63.33429081351777
 30
0.0
 11
-11.32720589271362
 21
78.29817299450741
 31
0.0
  0
LINE
  5
6FE
330
1F
100
AcDbEntity
  8
外形線
100
AcDbLine
 10
-12.02920589271352
 20
93.39117299450744
 30
0.0
 11
-11.59917886519295
 21
93.39117299450744
 31
0.0
  0
LINE
  5
6FF
330
1F
100
AcDbEntity
  8
外形線
100
AcDbLine
 10
-64.91320589271385
 20
99.00717299450725
 30
0.0
 11
-64.91320589271385
 21
106.2633980443049
 31
0.0
  0
LINE
  5
700
330
1F
100
AcDbEntity
  8
外形線
100
AcDbLine
 10
-63.33370589271388
 20
78.29817299450741
 30
0.0
 11
-63.33370589271388
 21
91.98717299450738
 31
0.0
  0
LINE
  5
701
330
1F
100
AcDbEntity
  8
破線
100
AcDbLine
 10
-26.25921805017779
 20
64.4336729945074
 30
0.0
 11
-19.15170687955802
 21
64.4336729945074
 31
0.0
  0
LINE
  5
702
330
1F
100
AcDbEntity
  8
外形線
100
AcDbLine
 10
-64.9132058927139
 20
106.2611729945073
 30
0.0
 11
-65.25401475593925
 21
111.9413207149295
 31
0.0
  0
LINE
  5
703
330
1F
100
AcDbEntity
  8
破線
100
AcDbLine
 10
-64.50370589271378
 20
99.16816083704315
 30
0.0
 11
-64.50370589271378
 21
106.2611729945074
 31
0.0
  0
LINE
  5
704
330
1F
100
AcDbEntity
  8
外形線
100
AcDbLine
 10
-53.01161957482417
 20
104.8571729945076
 30
0.0
 11
-50.63920589271386
 21
104.8571729945076
 31
0.0
  0
LINE
  5
705
330
1F
100
AcDbEntity
  8
外形線
100
AcDbLine
 10
-48.26679221060354
 20
104.8571729945076
 30
0.0
 11
-50.63920589271386
 21
104.8571729945076
 31
0.0
  0
LINE
  5
706
330
1F
100
AcDbEntity
  8
外形線
100
AcDbLine
 10
-48.26679221060354
 20
105.6176729945075
 30
0.0
 11
-50.63920589271386
 21
105.6176729945075
 31
0.0
  0
LINE
  5
707
330
1F
100
AcDbEntity
  8
外形線
100
AcDbLine
 10
-53.01161957482417
 20
105.6176729945075
 30
0.0
 11
-50.63920589271386
 21
105.6176729945075
 31
0.0
  0
LINE
  5
708
330
1F
100
AcDbEntity
  8
中心線
100
AcDbLine
 10
-50.63920589271383
 20
35.55216859692418
 30
0.0
 11
-50.63920589271383
 21
118.1731984677148
 31
0.0
  0
LINE
  5
709
330
1F
100
AcDbEntity
  8
外形線
100
AcDbLine
 10
-48.88420589271396
 20
104.8571729945076
 30
0.0
 11
-48.26679221060365
 21
105.6176729945075
 31
0.0
  0
LINE
  5
70A
330
1F
100
AcDbEntity
  8
破線
100
AcDbLine
 10
-64.85383595192428
 20
112.1111729945074
 30
0.0
 11
-65.32270589271354
 21
113.4703166478675
 31
0.0
  0
LINE
  5
70B
330
1F
100
AcDbEntity
  8
外形線
100
AcDbLine
 10
-13.31620589271372
 20
63.66059999550323
 30
0.0
 11
-13.31620589271372
 21
78.29817299450741
 31
0.0
  0
LINE
  5
70C
330
1F
100
AcDbEntity
  8
破線
100
AcDbLine
 10
-53.05906723876177
 20
95.77779243709107
 30
0.0
 11
-53.09951374934218
 21
96.53721611974921
 31
0.0
  0
LINE
  5
70D
330
1F
100
AcDbEntity
  8
破線
100
AcDbLine
 10
-52.39420589271382
 20
95.81320260677832
 30
0.0
 11
-53.09951374934228
 21
96.53721611974908
 31
0.0
  0
LINE
  5
70E
330
1F
100
AcDbEntity
  8
外形線
100
AcDbLine
 10
-39.70665838032206
 20
58.0599111968729
 30
0.0
 11
-39.74710489090248
 21
57.30048751421485
 31
0.0
  0
LINE
  5
70F
330
1F
100
AcDbEntity
  8
外形線
100
AcDbLine
 10
-61.5717534051055
 20
56.29943479214198
 30
0.0
 11
-58.9452839017257
 21
56.15955039166369
 31
0.0
  0
LINE
  5
710
330
1F
100
AcDbEntity
  8
外形線
100
AcDbLine
 10
-61.61219991568595
 20
55.54001110948394
 30
0.0
 11
-58.98573041230625
 21
55.40012670900567
 31
0.0
  0
LINE
  5
711
330
1F
100
AcDbEntity
  8
外形線
100
AcDbLine
 10
-61.57175340510555
 20
56.29943479214193
 30
0.0
 11
-61.61219991568597
 21
55.54001110948394
 31
0.0
  0
LINE
  5
712
330
1F
100
AcDbEntity
  8
破線
100
AcDbLine
 10
-48.21934454666575
 20
96.0355535519236
 30
0.0
 11
-53.05906723876173
 21
95.77779243709114
 31
0.0
  0
LINE
  5
713
330
1F
100
AcDbEntity
  8
外形線
100
AcDbLine
 10
-48.26679221060349
 20
48.22917299450708
 30
0.0
 11
-48.26679221060349
 21
47.46867299450715
 31
0.0
  0
LINE
  5
714
330
1F
100
AcDbEntity
  8
破線
100
AcDbLine
 10
-48.88420589271385
 20
96.00014338223644
 30
0.0
 11
-48.25979105724628
 21
96.79497723458172
 31
0.0
  0
LINE
  5
715
330
1F
100
AcDbEntity
  8
外形線
100
AcDbLine
 10
-27.00520589271514
 20
64.56822299450606
 30
0.0
 11
-26.42020589271515
 21
64.02417299450603
 31
0.0
  0
LINE
  5
716
330
1F
100
AcDbEntity
  8
破線
100
AcDbLine
 10
-48.25979105724634
 20
96.79497723458169
 30
0.0
 11
-53.09951374934231
 21
96.53721611974905
 31
0.0
  0
LINE
  5
717
330
1F
100
AcDbEntity
  8
破線
100
AcDbLine
 10
-48.25979105724627
 20
96.79497723458169
 30
0.0
 11
-48.21934454666584
 21
96.03555355192364
 31
0.0
  0
LINE
  5
718
330
1F
100
AcDbEntity
  8
外形線
100
AcDbLine
 10
-60.96661346659272
 20
94.99420535357605
 30
0.0
 11
-61.90686939927154
 21
95.80586073858064
 31
0.0
  0
LINE
  5
719
330
1F
100
AcDbEntity
  8
外形線
100
AcDbLine
 10
-58.48466866462796
 20
94.86201826356943
 30
0.0
 11
-61.90686939927148
 21
95.04428289579376
 31
0.0
  0
LINE
  5
71A
330
1F
100
AcDbEntity
  8
外形線
100
AcDbLine
 10
-61.90686939927143
 20
95.80586073858059
 30
0.0
 11
-58.48466866462793
 21
95.62359610635628
 31
0.0
  0
LINE
  5
71B
330
1F
100
AcDbEntity
  8
外形線
100
AcDbLine
 10
-50.63920589271378
 20
61.09917299450739
 30
0.0
 11
-63.33370589271378
 21
61.09917299450739
 31
0.0
  0
LINE
  5
71C
330
1F
100
AcDbEntity
  8
破線
100
AcDbLine
 10
-38.35420589271382
 20
91.76617012980921
 30
0.0
 11
-38.35420589271382
 21
92.16901410293109
 31
0.0
  0
LINE
  5
71D
330
1F
100
AcDbEntity
  8
外形線
100
AcDbLine
 10
-36.9092558927139
 20
95.64342299450755
 30
0.0
 11
-64.36915589271396
 21
97.10592299450754
 31
0.0
  0
LINE
  5
71E
330
1F
100
AcDbEntity
  8
外形線
100
AcDbLine
 10
-19.16620589271386
 20
64.02417299450746
 30
0.0
 11
-13.48605817229168
 21
63.68336413128213
 31
0.0
  0
LINE
  5
71F
330
1F
100
AcDbEntity
  8
外形線
100
AcDbLine
 10
-10.39120589271365
 20
93.26205517549707
 30
0.0
 11
-10.39120589271365
 21
78.29817299450741
 31
0.0
  0
LINE
  5
720
330
1F
100
AcDbEntity
  8
外形線
100
AcDbLine
 10
-58.48466866462793
 20
94.86201826356943
 30
0.0
 11
-58.48466866462793
 21
95.62359610635636
 31
0.0
  0
LINE
  5
721
330
1F
100
AcDbEntity
  8
外形線
100
AcDbLine
 10
-40.311798318835
 20
96.81914063543866
 30
0.0
 11
-39.37154238615632
 21
97.53064093600796
 31
0.0
  0
LINE
  5
722
330
1F
100
AcDbEntity
  8
外形線
100
AcDbLine
 10
-26.42020589271381
 20
64.02417299450738
 30
0.0
 11
-19.16620589271431
 21
64.02417299450738
 31
0.0
  0
LINE
  5
723
330
1F
100
AcDbEntity
  8
破線
100
AcDbLine
 10
-10.08311569177039
 20
92.9816729945074
 30
0.0
 11
-9.513705892713574
 21
92.9816729945074
 31
0.0
  0
LINE
  5
724
330
1F
100
AcDbEntity
  8
外形線
100
AcDbLine
 10
-61.90686939927144
 20
95.04428289579369
 30
0.0
 11
-61.90686939927144
 21
95.80586073858066
 31
0.0
  0
LINE
  5
725
330
1F
100
AcDbEntity
  8
外形線
100
AcDbLine
 10
-9.104205892713622
 20
78.29817299450741
 30
0.0
 11
-9.104205892713622
 21
93.39117299450744
 31
0.0
  0
LINE
  5
726
330
1F
100
AcDbEntity
  8
外形線
100
AcDbLine
 10
-39.37154238615626
 20
96.76906309322092
 30
0.0
 11
-42.79374312079975
 21
96.95132772544525
 31
0.0
  0
LINE
  5
727
330
1F
100
AcDbEntity
  8
外形線
100
AcDbLine
 10
-39.37154238615619
 20
97.53064093600794
 30
0.0
 11
-42.79374312079975
 21
97.71290556823229
 31
0.0
  0
LINE
  5
728
330
1F
100
AcDbEntity
  8
外形線
100
AcDbLine
 10
-30.91380783990434
 20
64.56822299450744
 30
0.0
 11
-32.5042058927138
 21
64.56822299450744
 31
0.0
  0
LINE
  5
729
330
1F
100
AcDbEntity
  8
外形線
100
AcDbLine
 10
-53.01161957482412
 20
48.22917299450708
 30
0.0
 11
-53.01161957482412
 21
47.46867299450715
 31
0.0
  0
LINE
  5
72A
330
1F
100
AcDbEntity
  8
外形線
100
AcDbLine
 10
-26.42020589271384
 20
78.29817299450741
 30
0.0
 11
-26.42020589271384
 21
64.02417299450744
 31
0.0
  0
LINE
  5
72B
330
1F
100
AcDbEntity
  8
外形線
100
AcDbLine
 10
-27.00520589271382
 20
92.02812299450744
 30
0.0
 11
-27.00520589271382
 21
64.56822299450741
 31
0.0
  0
LINE
  5
72C
330
1F
100
AcDbEntity
  8
破線
100
AcDbLine
 10
-62.92420589271384
 20
78.29817299450741
 30
0.0
 11
-62.92420589271384
 21
60.9173318860838
 31
0.0
  0
LINE
  5
72D
330
1F
100
AcDbEntity
  8
外形線
100
AcDbLine
 10
-30.71995589271259
 20
64.56822299450796
 30
0.0
 11
-29.25745589271258
 21
92.02812299450798
 31
0.0
  0
LINE
  5
72E
330
1F
100
AcDbEntity
  8
外形線
100
AcDbLine
 10
-29.45130783990433
 20
92.02812299450735
 30
0.0
 11
-32.50420589271396
 21
92.02812299450735
 31
0.0
  0
LINE
  5
72F
330
1F
100
AcDbEntity
  8
破線
100
AcDbLine
 10
-30.71995589271253
 20
64.56822299450738
 30
0.0
 11
-31.36267837967679
 21
76.63598040972853
 31
0.0
  0
LINE
  5
730
330
1F
100
AcDbEntity
  8
外形線
100
AcDbLine
 10
-33.44020589271408
 20
65.60367299450679
 30
0.0
 11
-32.50420589271411
 21
64.56822299450684
 31
0.0
  0
LINE
  5
731
330
1F
100
AcDbEntity
  8
外形線
100
AcDbLine
 10
-27.00520589271656
 20
64.56822299450744
 30
0.0
 11
-29.59010394552311
 21
64.56822299450744
 31
0.0
  0
LINE
  5
732
330
1F
100
AcDbEntity
  8
破線
100
AcDbLine
 10
-33.25836478429085
 20
66.0131729945069
 30
0.0
 11
-32.3223647842909
 21
64.97772299450693
 31
0.0
  0
LINE
  5
733
330
1F
100
AcDbEntity
  8
破線
100
AcDbLine
 10
-30.42932590139618
 20
76.68569027755308
 30
0.0
 11
-29.78395589271242
 21
64.56822299450704
 31
0.0
  0
LINE
  5
734
330
1F
100
AcDbEntity
  8
外形線
100
AcDbLine
 10
-39.37154238615622
 20
96.76906309322099
 30
0.0
 11
-39.37154238615622
 21
97.53064093600784
 31
0.0
  0
LINE
  5
735
330
1F
100
AcDbEntity
  8
破線
100
AcDbLine
 10
-26.84421805017952
 20
64.97772299450587
 30
0.0
 11
-26.25921805017951
 21
64.43367299450582
 31
0.0
  0
LINE
  5
736
330
1F
100
AcDbEntity
  8
破線
100
AcDbLine
 10
-26.8442180501811
 20
64.9777229945074
 30
0.0
 11
-29.59010394552311
 21
64.9777229945074
 31
0.0
  0
LINE
  5
737
330
1F
100
AcDbEntity
  8
破線
100
AcDbLine
 10
-27.00520589271379
 20
91.6186229945074
 30
0.0
 11
-28.12760394552312
 21
91.6186229945074
 31
0.0
  0
LINE
  5
738
330
1F
100
AcDbEntity
  8
外形線
100
AcDbLine
 10
-34.25920589271381
 20
65.60367299450742
 30
0.0
 11
-33.44020589271379
 21
65.60367299450742
 31
0.0
  0
LINE
  5
739
330
1F
100
AcDbEntity
  8
破線
100
AcDbLine
 10
-13.31620589271398
 20
64.08354293529646
 30
0.0
 11
-11.95706223935379
 21
63.61467299450719
 31
0.0
  0
LINE
  5
73A
330
1F
100
AcDbEntity
  8
外形線
100
AcDbLine
 10
-50.63920589271378
 20
116.3231729945076
 30
0.0
 11
-35.54620589271378
 21
116.3231729945076
 31
0.0
  0
LINE
  5
73B
330
1F
100
AcDbEntity
  8
破線
100
AcDbLine
 10
-29.45130783990433
 20
91.6186229945074
 30
0.0
 11
-32.32236478429016
 21
91.6186229945074
 31
0.0
  0
LINE
  5
73C
330
1F
100
AcDbEntity
  8
中心線
100
AcDbLine
 10
-68.1037391235576
 20
78.29817299450741
 30
0.0
 11
-7.871380450784427
 21
78.29817299450741
 31
0.0
  0
LINE
  5
73D
330
1F
100
AcDbEntity
  8
外形線
100
AcDbLine
 10
-37.94470589271386
 20
62.26917299450743
 30
0.0
 11
-37.94470589271386
 21
61.09917299450746
 31
0.0
  0
LINE
  5
73E
330
1F
100
AcDbEntity
  8
破線
100
AcDbLine
 10
-26.84421805017811
 20
91.61862299450723
 30
0.0
 11
-26.25921805017808
 21
92.16267299450727
 31
0.0
  0
LINE
  5
73F
330
1F
100
AcDbEntity
  8
外形線
100
AcDbLine
 10
-13.15629276863197
 20
63.61502276756857
 30
0.0
 11
-12.0292058927136
 21
63.20517299450743
 31
0.0
  0
LINE
  5
740
330
1F
100
AcDbEntity
  8
破線
100
AcDbLine
 10
-28.32145589271215
 20
92.02812299450709
 30
0.0
 11
-27.67873340574897
 21
79.96036557928595
 31
0.0
  0
LINE
  5
741
330
1F
100
AcDbEntity
  8
外形線
100
AcDbLine
 10
-50.63920589271378
 20
61.09917299450739
 30
0.0
 11
-37.94470589271378
 21
61.09917299450739
 31
0.0
  0
LINE
  5
742
330
1F
100
AcDbEntity
  8
外形線
100
AcDbLine
 10
-42.79374312079975
 20
96.9513277254453
 30
0.0
 11
-42.79374312079975
 21
97.71290556823224
 31
0.0
  0
LINE
  5
743
330
1F
100
AcDbEntity
  8
外形線
100
AcDbLine
 10
-12.02920589271352
 20
63.20517299450738
 30
0.0
 11
-11.59917886519295
 21
63.20517299450738
 31
0.0
  0
LINE
  5
744
330
1F
100
AcDbEntity
  8
破線
100
AcDbLine
 10
-29.25745589271223
 20
92.02812299450698
 30
0.0
 11
-28.61208588402852
 21
79.91065571146108
 31
0.0
  0
LINE
  5
745
330
1F
100
AcDbEntity
  8
破線
100
AcDbLine
 10
-34.25920589271381
 20
90.58317299450742
 30
0.0
 11
-33.25836478429008
 21
90.58317299450742
 31
0.0
  0
LINE
  5
746
330
1F
100
AcDbEntity
  8
破線
100
AcDbLine
 10
-11.95706223935363
 20
63.6146729945074
 30
0.0
 11
-11.63529609365672
 21
63.6146729945074
 31
0.0
  0
LINE
  5
747
330
1F
100
AcDbEntity
  8
破線
100
AcDbLine
 10
-13.31620589271384
 20
64.08354293529675
 30
0.0
 11
-19.1662058927138
 21
64.43454293529673
 31
0.0
  0
LINE
  5
748
330
1F
100
AcDbEntity
  8
外形線
100
AcDbLine
 10
-27.00520589271408
 20
92.02812299450735
 30
0.0
 11
-26.42020589271404
 21
92.57217299450742
 31
0.0
  0
LINE
  5
749
330
1F
100
AcDbEntity
  8
外形線
100
AcDbLine
 10
-9.104205892713622
 20
78.29817299450741
 30
0.0
 11
-9.104205892713622
 21
63.20517299450743
 31
0.0
  0
LINE
  5
74A
330
1F
100
AcDbEntity
  8
外形線
100
AcDbLine
 10
-33.44020589271382
 20
78.29817299450741
 30
0.0
 11
-33.44020589271382
 21
65.60367299450742
 31
0.0
  0
LINE
  5
74B
330
1F
100
AcDbEntity
  8
破線
100
AcDbLine
 10
-34.25920589271381
 20
66.0131729945074
 30
0.0
 11
-33.25836478429008
 21
66.0131729945074
 31
0.0
  0
LINE
  5
74C
330
1F
100
AcDbEntity
  8
破線
100
AcDbLine
 10
-30.91380783990434
 20
64.9777229945074
 30
0.0
 11
-32.32236478429016
 21
64.9777229945074
 31
0.0
  0
ARC
  5
74D
330
1F
100
AcDbEntity
  8
中心線
100
AcDbCircle
 10
-135.9348999441448
 20
63.34629174929713
 30
0.0
 40
18.19999848902228
100
AcDbArc
 50
89.99998201391097
 51
179.9999640278213
  0
ARC
  5
74E
330
1F
100
AcDbEntity
  8
外形線
100
AcDbCircle
 10
-135.9348999441448
 20
63.34629174929713
 30
0.0
 40
10.98499834857883
100
AcDbArc
 50
96.91601983160204
 51
173.0839330403198
  0
ARC
  5
74F
330
1F
100
AcDbEntity
  8
外形線
100
AcDbCircle
 10
-163.0399025157126
 20
103.8412980886235
 30
0.0
 40
0.649999951571227
100
AcDbArc
 50
269.9998199106031
 51
90.00002982523517
  0
ARC
  5
750
330
1F
100
AcDbEntity
  8
外形線
100
AcDbCircle
 10
-163.0398975566061
 20
101.8913080358935
 30
0.0
 40
0.649999951571227
100
AcDbArc
 50
269.9998199106031
 51
90.00002982523517
  0
ARC
  5
751
330
1F
100
AcDbEntity
  8
外形線
100
AcDbCircle
 10
-121.4399080947073
 20
90.45129432086495
 30
0.0
 40
0.649999951571227
100
AcDbArc
 50
179.9998001032811
 51
0.0
  0
ARC
  5
752
330
1F
100
AcDbEntity
  8
外形線
100
AcDbCircle
 10
-123.38990806565
 20
90.45129432086495
 30
0.0
 40
0.649999951571227
100
AcDbArc
 50
179.9998001032811
 51
0.0
  0
ARC
  5
753
330
1F
100
AcDbEntity
  8
外形線
100
AcDbCircle
 10
-121.4399080947073
 20
72.64130351264616
 30
0.0
 40
0.649999951571227
100
AcDbArc
 50
359.9999453584866
 51
180.0001279523614
  0
ARC
  5
754
330
1F
100
AcDbEntity
  8
外形線
100
AcDbCircle
 10
-123.38990806565
 20
72.64130351264616
 30
0.0
 40
0.649999951571227
100
AcDbArc
 50
359.9999453584866
 51
180.0001279523614
  0
ARC
  5
755
330
1F
100
AcDbEntity
  8
外形線
100
AcDbCircle
 10
-163.0398975566061
 20
50.80129987080238
 30
0.0
 40
0.649999951571227
100
AcDbArc
 50
269.9999496841974
 51
90.00013910826188
  0
ARC
  5
756
330
1F
100
AcDbEntity
  8
外形線
100
AcDbCircle
 10
-163.0398975566061
 20
48.85129989985965
 30
0.0
 40
0.649999951571227
100
AcDbArc
 50
269.9999496841974
 51
90.00013910826188
  0
ARC
  5
757
330
1F
100
AcDbEntity
  8
外形線
100
AcDbCircle
 10
-145.2299117074937
 20
50.80129987080238
 30
0.0
 40
0.649999951571227
100
AcDbArc
 50
89.99981125918171
 51
270.0000006832446
  0
ARC
  5
758
330
1F
100
AcDbEntity
  8
外形線
100
AcDbCircle
 10
-145.2299117074937
 20
48.85129989985965
 30
0.0
 40
0.649999951571227
100
AcDbArc
 50
89.99981125918171
 51
270.0000006832446
  0
ARC
  5
759
330
1F
100
AcDbEntity
  8
外形線
100
AcDbCircle
 10
-145.2299117074937
 20
101.8913179541063
 30
0.0
 40
0.649999951571227
100
AcDbArc
 50
89.99994786296509
 51
270.000137287028
  0
ARC
  5
75A
330
1F
100
AcDbEntity
  8
外形線
100
AcDbCircle
 10
-145.2299117074937
 20
103.8413080068362
 30
0.0
 40
0.649999951571227
100
AcDbArc
 50
89.99994786296509
 51
270.000137287028
  0
ARC
  5
75B
330
1F
100
AcDbEntity
  8
外形線
100
AcDbCircle
 10
-135.9348999441448
 20
63.34629174929713
 30
0.0
 40
25.41499862946572
100
AcDbArc
 50
92.98338132261532
 51
114.4914079623649
  0
ARC
  5
75C
330
1F
100
AcDbEntity
  8
外形線
100
AcDbCircle
 10
-146.5786398673277
 20
86.71116109107485
 30
0.0
 40
0.26
100
AcDbArc
 50
179.9999813306653
 51
294.491484915678
  0
ARC
  5
75D
330
1F
100
AcDbEntity
  8
破線
100
AcDbCircle
 10
-65.73220589271383
 20
38.51817299450713
 30
0.0
 40
0.8774999999999998
100
AcDbArc
 50
297.818139284654
 51
62.18186071534593
  0
ARC
  5
75E
330
1F
100
AcDbEntity
  8
破線
100
AcDbCircle
 10
-49.00186824184739
 20
55.80437674668374
 30
0.0
 40
0.4673376508664293
100
AcDbArc
 50
93.04866302671783
 51
273.0486630267195
  0
ARC
  5
75F
330
1F
100
AcDbEntity
  8
破線
100
AcDbCircle
 10
-64.60315589271378
 20
58.5727749416979
 30
0.0
 40
0.6435000000000001
100
AcDbArc
 50
289.4712206344878
 51
0.0000000000002036
  0
ARC
  5
760
330
1F
100
AcDbEntity
  8
外形線
100
AcDbCircle
 10
-37.35970589271384
 20
91.41517012980921
 30
0.0
 40
0.5850000000000001
100
AcDbArc
 50
180.0
 51
276.0004623824694
  0
ARC
  5
761
330
1F
100
AcDbEntity
  8
破線
100
AcDbCircle
 10
-37.35970589271384
 20
91.41517012980921
 30
0.0
 40
0.9945
100
AcDbArc
 50
180.0
 51
276.0004623824694
  0
ARC
  5
762
330
1F
100
AcDbEntity
  8
破線
100
AcDbCircle
 10
-52.2765435435803
 20
97.28196924233104
 30
0.0
 40
0.4673376508664293
100
AcDbArc
 50
273.0486630267179
 51
93.04866302671952
  0
ARC
  5
763
330
1F
100
AcDbEntity
  8
破線
100
AcDbCircle
 10
-52.27654354358023
 20
58.55496924233074
 30
0.0
 40
0.4673376508663761
100
AcDbArc
 50
273.0486630267195
 51
93.04866302671783
  0
ARC
  5
764
330
1F
100
AcDbEntity
  8
破線
100
AcDbCircle
 10
-64.36915589271379
 20
57.91092299450731
 30
0.0
 40
0.0585
100
AcDbArc
 50
109.4712206344913
 51
250.5287793655087
  0
ARC
  5
765
330
1F
100
AcDbEntity
  8
破線
100
AcDbCircle
 10
-36.01420589271376
 20
116.3231729945077
 30
0.0
 40
0.4095000000001596
100
AcDbArc
 50
180.0000000000075
 51
270.0
  0
ARC
  5
766
330
1F
100
AcDbEntity
  8
破線
100
AcDbCircle
 10
-36.67525589271387
 20
94.51357104731682
 30
0.0
 40
0.6435000000000001
100
AcDbArc
 50
109.4712206344878
 51
180.0
  0
ARC
  5
767
330
1F
100
AcDbEntity
  8
破線
100
AcDbCircle
 10
-49.00186824184743
 20
94.53137674668402
 30
0.0
 40
0.4673376508663761
100
AcDbArc
 50
93.04866302671952
 51
273.0486630267179
  0
ARC
  5
768
330
1F
100
AcDbEntity
  8
破線
100
AcDbCircle
 10
-36.90925589271385
 20
95.17542299450743
 30
0.0
 40
0.0585
100
AcDbArc
 50
289.4712206344914
 51
70.5287793655087
  0
ARC
  5
769
330
1F
100
AcDbEntity
  8
外形線
100
AcDbCircle
 10
-65.38120589271378
 20
39.2581459669865
 30
0.0
 40
0.351
100
AcDbArc
 50
180.0
 51
244.6230664748485
  0
ARC
  5
76A
330
1F
100
AcDbEntity
  8
外形線
100
AcDbCircle
 10
-65.38120589271378
 20
37.77820002202772
 30
0.0
 40
0.351
100
AcDbArc
 50
115.3769335251515
 51
180.0
  0
ARC
  5
76B
330
1F
100
AcDbEntity
  8
外形線
100
AcDbCircle
 10
-36.67525589271387
 20
57.1102749416979
 30
0.0
 40
0.234
100
AcDbArc
 50
180.0
 51
250.5287793655122
  0
ARC
  5
76C
330
1F
100
AcDbEntity
  8
破線
100
AcDbCircle
 10
-64.60315589271378
 20
57.24907104731665
 30
0.0
 40
0.6435000000000001
100
AcDbArc
 50
0.0
 51
70.52877936551219
  0
ARC
  5
76D
330
1F
100
AcDbEntity
  8
破線
100
AcDbCircle
 10
-36.67525589271387
 20
55.78657104731668
 30
0.0
 40
0.6435000000000001
100
AcDbArc
 50
109.4712206344878
 51
180.0
  0
ARC
  5
76E
330
1F
100
AcDbEntity
  8
外形線
100
AcDbCircle
 10
-65.73220589271383
 20
38.51817299450713
 30
0.0
 40
0.4680000000000001
100
AcDbArc
 50
295.3769335251534
 51
64.62306647484668
  0
ARC
  5
76F
330
1F
100
AcDbEntity
  8
外形線
100
AcDbCircle
 10
-36.90925589271385
 20
56.44842299450731
 30
0.0
 40
0.4680000000000001
100
AcDbArc
 50
289.4712206344914
 51
70.5287793655087
  0
ARC
  5
770
330
1F
100
AcDbEntity
  8
外形線
100
AcDbCircle
 10
-64.36915589271379
 20
57.91092299450731
 30
0.0
 40
0.4680000000000001
100
AcDbArc
 50
109.4712206344913
 51
250.5287793655087
  0
ARC
  5
771
330
1F
100
AcDbEntity
  8
外形線
100
AcDbCircle
 10
-35.89720589271387
 20
113.8282000220283
 30
0.0
 40
0.351
100
AcDbArc
 50
0.0
 51
64.6230664748485
  0
ARC
  5
772
330
1F
100
AcDbEntity
  8
外形線
100
AcDbCircle
 10
-64.60315589271378
 20
58.5727749416979
 30
0.0
 40
0.234
100
AcDbArc
 50
289.4712206344878
 51
0.0000000000002036
  0
ARC
  5
773
330
1F
100
AcDbEntity
  8
破線
100
AcDbCircle
 10
-10.85920589271362
 20
93.39117299450744
 30
0.0
 40
0.8774999999999998
100
AcDbArc
 50
207.8181392846536
 51
332.1818607153464
  0
ARC
  5
774
330
1F
100
AcDbEntity
  8
外形線
100
AcDbCircle
 10
-10.11923292023421
 20
93.04017299450741
 30
0.0
 40
0.351
100
AcDbArc
 50
90.0
 51
154.6230664748489
  0
ARC
  5
775
330
1F
100
AcDbEntity
  8
外形線
100
AcDbCircle
 10
-10.85920589271362
 20
93.39117299450744
 30
0.0
 40
0.4680000000000001
100
AcDbArc
 50
205.376933525154
 51
334.623066474846
  0
ARC
  5
776
330
1F
100
AcDbEntity
  8
外形線
100
AcDbCircle
 10
-35.89720589271387
 20
115.308145966987
 30
0.0
 40
0.351
100
AcDbArc
 50
295.3769335251513
 51
359.9999999999998
  0
ARC
  5
777
330
1F
100
AcDbEntity
  8
外形線
100
AcDbCircle
 10
-64.60315589271381
 20
95.97607104731682
 30
0.0
 40
0.234
100
AcDbArc
 50
0.0
 51
70.52877936551219
  0
ARC
  5
778
330
1F
100
AcDbEntity
  8
破線
100
AcDbCircle
 10
-36.67525589271387
 20
95.83727494169805
 30
0.0
 40
0.6435000000000001
100
AcDbArc
 50
180.0
 51
250.5287793655122
  0
ARC
  5
779
330
1F
100
AcDbEntity
  8
破線
100
AcDbCircle
 10
-64.60315589271381
 20
97.29977494169808
 30
0.0
 40
0.6435000000000001
100
AcDbArc
 50
289.4712206344878
 51
0.0
  0
ARC
  5
77A
330
1F
100
AcDbEntity
  8
破線
100
AcDbCircle
 10
-19.56739095872538
 20
91.9871729945074
 30
0.0
 40
0.1755
100
AcDbArc
 50
90.0
 51
135.0000000000003
  0
ARC
  5
77B
330
1F
100
AcDbEntity
  8
外形線
100
AcDbCircle
 10
-36.67525589271387
 20
55.78657104731668
 30
0.0
 40
0.234
100
AcDbArc
 50
109.4712206344878
 51
180.0
  0
ARC
  5
77C
330
1F
100
AcDbEntity
  8
破線
100
AcDbCircle
 10
-36.67525589271387
 20
57.1102749416979
 30
0.0
 40
0.6435000000000001
100
AcDbArc
 50
180.0
 51
250.5287793655122
  0
ARC
  5
77D
330
1F
100
AcDbEntity
  8
破線
100
AcDbCircle
 10
-36.90925589271385
 20
56.44842299450731
 30
0.0
 40
0.0585
100
AcDbArc
 50
289.4712206344914
 51
70.5287793655087
  0
ARC
  5
77E
330
1F
100
AcDbEntity
  8
外形線
100
AcDbCircle
 10
-35.54620589271383
 20
114.5681729945076
 30
0.0
 40
0.4680000000000001
100
AcDbArc
 50
115.3769335251533
 51
244.6230664748466
  0
ARC
  5
77F
330
1F
100
AcDbEntity
  8
外形線
100
AcDbCircle
 10
-64.60315589271378
 20
57.24907104731665
 30
0.0
 40
0.234
100
AcDbArc
 50
0.0
 51
70.52877936551219
  0
ARC
  5
780
330
1F
100
AcDbEntity
  8
破線
100
AcDbCircle
 10
-35.54620589271383
 20
114.5681729945076
 30
0.0
 40
0.8774999999999998
100
AcDbArc
 50
117.818139284654
 51
242.1818607153459
  0
ARC
  5
781
330
1F
100
AcDbEntity
  8
外形線
100
AcDbCircle
 10
-64.36915589271385
 20
96.63792299450745
 30
0.0
 40
0.4680000000000001
100
AcDbArc
 50
109.4712206344913
 51
250.5287793655087
  0
ARC
  5
782
330
1F
100
AcDbEntity
  8
外形線
100
AcDbCircle
 10
-35.89720589271384
 20
39.2581459669865
 30
0.0
 40
0.351
100
AcDbArc
 50
295.3769335251513
 51
0.0000000000002036
  0
ARC
  5
783
330
1F
100
AcDbEntity
  8
外形線
100
AcDbCircle
 10
-66.42191442513411
 20
41.21509925423686
 30
0.0
 40
1.169999999999999
100
AcDbArc
 50
340.0168934781039
 51
356.5663696375498
  0
ARC
  5
784
330
1F
100
AcDbEntity
  8
破線
100
AcDbCircle
 10
-36.01420589271369
 20
36.7631729945071
 30
0.0
 40
0.4095000000001596
100
AcDbArc
 50
90.0
 51
179.9999999999926
  0
ARC
  5
785
330
1F
100
AcDbEntity
  8
外形線
100
AcDbCircle
 10
-34.85649736029343
 20
41.21509925423686
 30
0.0
 40
1.169999999999999
100
AcDbArc
 50
183.4336303624501
 51
199.9831065218963
  0
ARC
  5
786
330
1F
100
AcDbEntity
  8
破線
100
AcDbCircle
 10
-36.9502058927138
 20
47.22635806051889
 30
0.0
 40
0.1755
100
AcDbArc
 50
0.0
 51
44.9999999999997
  0
ARC
  5
787
330
1F
100
AcDbEntity
  8
外形線
100
AcDbCircle
 10
-35.5462058927138
 20
38.51817299450713
 30
0.0
 40
0.4680000000000001
100
AcDbArc
 50
115.3769335251533
 51
244.6230664748466
  0
ARC
  5
788
330
1F
100
AcDbEntity
  8
外形線
100
AcDbCircle
 10
-35.89720589271384
 20
37.77820002202772
 30
0.0
 40
0.351
100
AcDbArc
 50
0.0
 51
64.6230664748485
  0
ARC
  5
789
330
1F
100
AcDbEntity
  8
破線
100
AcDbCircle
 10
-35.5462058927138
 20
38.51817299450713
 30
0.0
 40
0.8774999999999998
100
AcDbArc
 50
117.818139284654
 51
242.1818607153459
  0
ARC
  5
78A
330
1F
100
AcDbEntity
  8
外形線
100
AcDbCircle
 10
-36.90925589271385
 20
95.17542299450743
 30
0.0
 40
0.4680000000000001
100
AcDbArc
 50
289.4712206344914
 51
70.5287793655087
  0
ARC
  5
78B
330
1F
100
AcDbEntity
  8
外形線
100
AcDbCircle
 10
-36.67525589271387
 20
94.51357104731682
 30
0.0
 40
0.234
100
AcDbArc
 50
109.4712206344878
 51
180.0
  0
ARC
  5
78C
330
1F
100
AcDbEntity
  8
外形線
100
AcDbCircle
 10
-64.60315589271381
 20
97.29977494169808
 30
0.0
 40
0.234
100
AcDbArc
 50
289.4712206344878
 51
0.0
  0
ARC
  5
78D
330
1F
100
AcDbEntity
  8
破線
100
AcDbCircle
 10
-64.60315589271381
 20
95.97607104731682
 30
0.0
 40
0.6435000000000001
100
AcDbArc
 50
0.0
 51
70.52877936551219
  0
ARC
  5
78E
330
1F
100
AcDbEntity
  8
破線
100
AcDbCircle
 10
-64.36915589271385
 20
96.63792299450745
 30
0.0
 40
0.0585
100
AcDbArc
 50
109.4712206344913
 51
250.5287793655087
  0
ARC
  5
78F
330
1F
100
AcDbEntity
  8
外形線
100
AcDbCircle
 10
-36.67525589271387
 20
95.83727494169805
 30
0.0
 40
0.234
100
AcDbArc
 50
180.0
 51
250.5287793655122
  0
ARC
  5
790
330
1F
100
AcDbEntity
  8
外形線
100
AcDbCircle
 10
-13.55613215244335
 20
94.08088152692778
 30
0.0
 40
1.169999999999999
100
AcDbArc
 50
273.4336303624496
 51
289.9831065218968
  0
ARC
  5
791
330
1F
100
AcDbEntity
  8
外形線
100
AcDbCircle
 10
-34.25920589271385
 20
61.9181729945074
 30
0.0
 40
29.0745
100
AcDbArc
 50
90.0
 51
96.00046238246775
  0
ARC
  5
792
330
1F
100
AcDbEntity
  8
破線
100
AcDbCircle
 10
-34.25920589271385
 20
61.9181729945074
 30
0.0
 40
28.665
100
AcDbArc
 50
90.0
 51
96.00046238246775
  0
ARC
  5
793
330
1F
100
AcDbEntity
  8
外形線
100
AcDbCircle
 10
-65.38120589271385
 20
113.8282000220283
 30
0.0
 40
0.351
100
AcDbArc
 50
115.3769335251515
 51
180.0
  0
ARC
  5
794
330
1F
100
AcDbEntity
  8
外形線
100
AcDbCircle
 10
-34.85649736029359
 20
111.8712467347779
 30
0.0
 40
1.169999999999999
100
AcDbArc
 50
160.0168934781036
 51
176.5663696375498
  0
ARC
  5
795
330
1F
100
AcDbEntity
  8
破線
100
AcDbCircle
 10
-65.26420589271402
 20
116.3231729945077
 30
0.0
 40
0.4095000000001596
100
AcDbArc
 50
270.0
 51
359.9999999999925
  0
ARC
  5
796
330
1F
100
AcDbEntity
  8
破線
100
AcDbCircle
 10
-9.104205892713563
 20
92.92317299450754
 30
0.0
 40
0.4095000000001596
100
AcDbArc
 50
180.0
 51
269.999999999992
  0
ARC
  5
797
330
1F
100
AcDbEntity
  8
外形線
100
AcDbCircle
 10
-66.42191442513414
 20
111.8712467347779
 30
0.0
 40
1.169999999999999
100
AcDbArc
 50
3.433630362450386
 51
19.98310652189634
  0
ARC
  5
798
330
1F
100
AcDbEntity
  8
破線
100
AcDbCircle
 10
-64.32820589271384
 20
105.8599879284959
 30
0.0
 40
0.1755
100
AcDbArc
 50
180.0
 51
224.9999999999997
  0
ARC
  5
799
330
1F
100
AcDbEntity
  8
外形線
100
AcDbCircle
 10
-65.73220589271385
 20
114.5681729945076
 30
0.0
 40
0.4680000000000001
100
AcDbArc
 50
295.3769335251534
 51
64.62306647484668
  0
ARC
  5
79A
330
1F
100
AcDbEntity
  8
外形線
100
AcDbCircle
 10
-65.38120589271385
 20
115.308145966987
 30
0.0
 40
0.351
100
AcDbArc
 50
180.0
 51
244.6230664748485
  0
ARC
  5
79B
330
1F
100
AcDbEntity
  8
破線
100
AcDbCircle
 10
-65.73220589271385
 20
114.5681729945076
 30
0.0
 40
0.8774999999999998
100
AcDbArc
 50
297.818139284654
 51
62.18186071534593
  0
ARC
  5
79C
330
1F
100
AcDbEntity
  8
外形線
100
AcDbCircle
 10
-13.55613215244335
 20
62.51546446208712
 30
0.0
 40
1.169999999999999
100
AcDbArc
 50
70.01689347810316
 51
86.56636963755044
  0
ARC
  5
79D
330
1F
100
AcDbEntity
  8
外形線
100
AcDbCircle
 10
-11.59917886519298
 20
93.04017299450741
 30
0.0
 40
0.351
100
AcDbArc
 50
25.37693352515106
 51
90.0
  0
ARC
  5
79E
330
1F
100
AcDbEntity
  8
外形線
100
AcDbCircle
 10
-29.59010394552317
 20
64.33422299450743
 30
0.0
 40
0.234
100
AcDbArc
 50
90.0
 51
160.5287793655121
  0
ARC
  5
79F
330
1F
100
AcDbEntity
  8
破線
100
AcDbCircle
 10
-28.7894558927138
 20
92.02812299450735
 30
0.0
 40
0.0585
100
AcDbArc
 50
19.47122063449199
 51
160.528779365508
  0
ARC
  5
7A0
330
1F
100
AcDbEntity
  8
破線
100
AcDbCircle
 10
-29.45130783990439
 20
92.26212299450734
 30
0.0
 40
0.6435000000000001
100
AcDbArc
 50
270.0
 51
340.5287793655122
  0
ARC
  5
7A1
330
1F
100
AcDbEntity
  8
外形線
100
AcDbCircle
 10
-28.12760394552316
 20
92.26212299450734
 30
0.0
 40
0.234
100
AcDbArc
 50
199.4712206344878
 51
270.0
  0
ARC
  5
7A2
330
1F
100
AcDbEntity
  8
外形線
100
AcDbCircle
 10
-30.9138078399044
 20
64.33422299450743
 30
0.0
 40
0.234
100
AcDbArc
 50
19.4712206344878
 51
90.0
  0
ARC
  5
7A3
330
1F
100
AcDbEntity
  8
外形線
100
AcDbCircle
 10
-30.25195589271381
 20
64.56822299450744
 30
0.0
 40
0.4680000000000001
100
AcDbArc
 50
199.471220634492
 51
340.528779365508
  0
ARC
  5
7A4
330
1F
100
AcDbEntity
  8
外形線
100
AcDbCircle
 10
-28.7894558927138
 20
92.02812299450735
 30
0.0
 40
0.4680000000000001
100
AcDbArc
 50
19.47122063449199
 51
160.528779365508
  0
ARC
  5
7A5
330
1F
100
AcDbEntity
  8
外形線
100
AcDbCircle
 10
-10.85920589271362
 20
63.20517299450738
 30
0.0
 40
0.4680000000000001
100
AcDbArc
 50
25.37693352515397
 51
154.623066474846
  0
ARC
  5
7A6
330
1F
100
AcDbEntity
  8
破線
100
AcDbCircle
 10
-28.12760394552316
 20
92.26212299450734
 30
0.0
 40
0.6435000000000001
100
AcDbArc
 50
199.4712206344878
 51
270.0
  0
ARC
  5
7A7
330
1F
100
AcDbEntity
  8
破線
100
AcDbCircle
 10
-29.59010394552317
 20
64.33422299450743
 30
0.0
 40
0.6435000000000001
100
AcDbArc
 50
90.0
 51
160.5287793655121
  0
ARC
  5
7A8
330
1F
100
AcDbEntity
  8
外形線
100
AcDbCircle
 10
-29.45130783990439
 20
92.26212299450734
 30
0.0
 40
0.234
100
AcDbArc
 50
270.0
 51
340.5287793655122
  0
ARC
  5
7A9
330
1F
100
AcDbEntity
  8
外形線
100
AcDbCircle
 10
-10.11923292023421
 20
63.55617299450742
 30
0.0
 40
0.351
100
AcDbArc
 50
205.3769335251511
 51
270.0
  0
ARC
  5
7AA
330
1F
100
AcDbEntity
  8
外形線
100
AcDbCircle
 10
-11.59917886519298
 20
63.55617299450742
 30
0.0
 40
0.351
100
AcDbArc
 50
270.0
 51
334.6230664748489
  0
ARC
  5
7AB
330
1F
100
AcDbEntity
  8
破線
100
AcDbCircle
 10
-30.25195589271381
 20
64.56822299450744
 30
0.0
 40
0.0585
100
AcDbArc
 50
199.471220634492
 51
340.528779365508
  0
ARC
  5
7AC
330
1F
100
AcDbEntity
  8
破線
100
AcDbCircle
 10
-30.89600214053727
 20
76.66083534364098
 30
0.0
 40
0.4673376508663761
100
AcDbArc
 50
3.048663026718918
 51
183.0486630267179
  0
ARC
  5
7AD
330
1F
100
AcDbEntity
  8
外形線
100
AcDbCircle
 10
-34.25920589271385
 20
61.9181729945074
 30
0.0
 40
3.685499999999997
100
AcDbArc
 50
90.0
 51
180.0
  0
ARC
  5
7AE
330
1F
100
AcDbEntity
  8
破線
100
AcDbCircle
 10
-30.9138078399044
 20
64.33422299450743
 30
0.0
 40
0.6435000000000001
100
AcDbArc
 50
19.4712206344878
 51
90.0
  0
ARC
  5
7AF
330
1F
100
AcDbEntity
  8
破線
100
AcDbCircle
 10
-28.14540964489022
 20
79.93551064537381
 30
0.0
 40
0.4673376508664293
100
AcDbArc
 50
183.0486630267185
 51
3.048663026718918
  0
ARC
  5
7B0
330
1F
100
AcDbEntity
  8
中心線
100
AcDbCircle
 10
-34.25920589271385
 20
61.9181729945074
 30
0.0
 40
16.38
100
AcDbArc
 50
90.0
 51
180.0
  0
ARC
  5
7B1
330
1F
100
AcDbEntity
  8
破線
100
AcDbCircle
 10
-34.25920589271385
 20
61.9181729945074
 30
0.0
 40
4.094999999999997
100
AcDbArc
 50
90.0
 51
180.0
  0
ARC
  5
7B2
330
1F
100
AcDbEntity
  8
破線
100
AcDbCircle
 10
-10.85920589271362
 20
63.20517299450738
 30
0.0
 40
0.8774999999999998
100
AcDbArc
 50
27.8181392846536
 51
152.1818607153464
  0
DIMENSION
  5
7B3
330
1F
100
AcDbEntity
  8
寸法線
100
AcDbDimension
  2
*D24
 10
-147.9025941613147
 20
70.75162257832897
 30
0.0
 11
-144.5965674889653
 21
73.52215821769767
 31
0.0
 70
   165
  1
90\U+00B0
 71
     5
 42
1.570796750302837
  3
ISO-25
100
AcDb3PointAngularDimension
 13
-154.1348996724184
 23
41.56895137402279
 33
0.0
 14
-110.0128186445316
 24
81.54630127261233
 34
0.0
 15
-154.1348968398499
 25
81.54628571280351
 35
0.0
1001
ACAD
1000
DSTYLE
1002
{
1070
   278
1070
    46
1070
   275
1070
     3
1070
   147
1040
0.8000000119209291
1070
    77
1070
     1
1070
    74
1070
     0
1070
    73
1070
     0
1070
    42
1040
2.54
1070
    44
1040
1.0
1070
    76
1070
     1
1070
    75
1070
     1
1070
   279
1070
     0
1070
   179
1070
     0
1070
   173
1070
     1
1070
    41
1040
3.0
1070
   140
1040
3.200000047683714
1070
   344
1005
C6
1070
   343
1005
C6
1002
}
  0
DIMENSION
  5
7B4
330
1F
100
AcDbEntity
  8
寸法線
100
AcDbDimension
  2
*D25
 10
-146.1138922546241
 20
38.13364449621067
 30
0.0
 11
-154.1348897547308
 21
38.13364449621067
 31
0.0
 70
   160
  1
\U+2205A
 71
     5
 42
16.04199500021343
  3
ISO-25
100
AcDbAlignedDimension
 13
-162.1558872548376
 23
54.44128394742175
 33
0.0
 14
-146.1138922546241
 24
53.79130379353302
 34
0.0
 50
180.0
100
AcDbRotatedDimension
1001
ACAD
1000
DSTYLE
1002
{
1070
   278
1070
    46
1070
   147
1040
0.8000000119209291
1070
    77
1070
     1
1070
    74
1070
     0
1070
    73
1070
     0
1070
    42
1040
2.54
1070
    44
1040
1.0
1070
    76
1070
     0
1070
    75
1070
     0
1070
   279
1070
     0
1070
   271
1070
     0
1070
   173
1070
     1
1070
    41
1040
3.0
1070
   140
1040
3.200000047683714
1070
   344
1005
C6
1070
   343
1005
C6
1002
}
  0
DIMENSION
  5
7B5
330
1F
100
AcDbEntity
  8
寸法線
100
AcDbDimension
  2
*D26
 10
-174.9924150786951
 20
81.54629147809599
 30
0.0
 11
-174.9924150786951
 21
64.41880760245601
 31
0.0
 70
   160
  1
L2
 71
     5
 42
34.25498758770544
  3
ISO-25
100
AcDbAlignedDimension
 13
-163.0399124339252
 23
47.29130389039055
 33
0.0
 14
-166.1046947216305
 24
81.54629147809599
 34
0.0
 50
270.0
100
AcDbRotatedDimension
1001
ACAD
1000
DSTYLE
1002
{
1070
   278
1070
    46
1070
   147
1040
0.8000000119209291
1070
    77
1070
     1
1070
    74
1070
     0
1070
    73
1070
     0
1070
    42
1040
2.54
1070
    44
1040
1.0
1070
    76
1070
     0
1070
    75
1070
     1
1070
   279
1070
     0
1070
   271
1070
     0
1070
   173
1070
     1
1070
    41
1040
3.0
1070
   140
1040
3.200000047683714
1070
   344
1005
C6
1070
   343
1005
C6
1002
}
  0
DIMENSION
  5
7B6
330
1F
100
AcDbEntity
  8
寸法線
100
AcDbDimension
  2
*D27
 10
-174.9924150786951
 20
105.4013139345181
 30
0.0
 11
-174.9924150786951
 21
93.47380518586023
 31
0.0
 70
   160
  1
L1
 71
     5
 42
23.85502245642211
  3
ISO-25
100
AcDbAlignedDimension
 13
-166.1046947216305
 23
81.54629147809599
 33
0.0
 14
-163.0399124339252
 24
105.4013139345181
 34
0.0
 50
270.0
100
AcDbRotatedDimension
1001
ACAD
1000
DSTYLE
1002
{
1070
   278
1070
    46
1070
   147
1040
0.8000000119209291
1070
    77
1070
     1
1070
    74
1070
     0
1070
    73
1070
     0
1070
    42
1040
2.54
1070
    44
1040
1.0
1070
    76
1070
     1
1070
    75
1070
     1
1070
   279
1070
     0
1070
   271
1070
     0
1070
   173
1070
     1
1070
    41
1040
3.0
1070
   140
1040
3.200000047683714
1070
   344
1005
C6
1070
   343
1005
C6
1002
}
  0
DIMENSION
  5
7B7
330
1F
100
AcDbEntity
  8
寸法線
100
AcDbDimension
  2
*D28
 10
-186.931151244178
 20
47.29130389039055
 30
0.0
 11
-186.931151244178
 21
76.34631139200751
 31
0.0
 70
   160
  1
L5
 71
     5
 42
58.11001004412755
  3
ISO-25
100
AcDbAlignedDimension
 13
-163.0399124339252
 23
105.4013139345181
 33
0.0
 14
-163.0399124339252
 24
47.29130389039055
 34
0.0
 50
90.0
100
AcDbRotatedDimension
1001
ACAD
1000
DSTYLE
1002
{
1070
   278
1070
    46
1070
   147
1040
0.8000000119209291
1070
    77
1070
     1
1070
    74
1070
     0
1070
    73
1070
     0
1070
    42
1040
0.5
1070
    44
1040
1.0
1070
    76
1070
     0
1070
    75
1070
     0
1070
   279
1070
     0
1070
   271
1070
     0
1070
   173
1070
     1
1070
    41
1040
3.0
1070
   140
1040
3.200000047683714
1070
   344
1005
C6
1070
   343
1005
C6
1002
}
  0
DIMENSION
  5
7B8
330
1F
100
AcDbEntity
  8
寸法線
100
AcDbDimension
  2
*D29
 10
-119.8798922488126
 20
114.6428938062683
 30
0.0
 11
-137.0073959608781
 21
114.6428938062683
 31
0.0
 70
   160
  1
L3
 71
     5
 42
34.25500742413101
  3
ISO-25
100
AcDbAlignedDimension
 13
-154.1348996729436
 23
109.2853133196962
 33
0.0
 14
-119.8798922488126
 24
90.45129927997136
 34
0.0
 50
180.0
100
AcDbRotatedDimension
1001
ACAD
1000
DSTYLE
1002
{
1070
   278
1070
    46
1070
   147
1040
0.8000000119209291
1070
    77
1070
     1
1070
    74
1070
     0
1070
    73
1070
     0
1070
    42
1040
0.5
1070
    44
1040
1.0
1070
    76
1070
     0
1070
    75
1070
     0
1070
   279
1070
     0
1070
   271
1070
     0
1070
   173
1070
     1
1070
    41
1040
3.0
1070
   140
1040
3.200000047683714
1070
   344
1005
C6
1070
   343
1005
C6
1002
}
  0
DIMENSION
  5
7B9
330
1F
100
AcDbEntity
  8
寸法線
100
AcDbDimension
  2
*D30
 10
-167.6664644373717
 20
64.19132347498642
 30
0.0
 11
-167.6664644373717
 21
55.74131368268849
 31
0.0
 70
   160
  1
L4
 71
     5
 42
16.90001958459585
  3
ISO-25
100
AcDbAlignedDimension
 13
-163.0399124339252
 23
47.29130389039055
 33
0.0
 14
-161.9089064006687
 24
64.19132347498642
 34
0.0
 50
270.0
100
AcDbRotatedDimension
1001
ACAD
1000
DSTYLE
1002
{
1070
   278
1070
    46
1070
   147
1040
0.8000000119209291
1070
    77
1070
     1
1070
    74
1070
     0
1070
    73
1070
     0
1070
    42
1040
0.5
1070
    44
1040
1.0
1070
    76
1070
     0
1070
    75
1070
     0
1070
   279
1070
     0
1070
   271
1070
     0
1070
   173
1070
     1
1070
    41
1040
3.0
1070
   140
1040
3.200000047683714
1070
   344
1005
C6
1070
   343
1005
C6
1002
}
  0
DIMENSION
  5
7BA
330
1F
100
AcDbEntity
  8
寸法線
100
AcDbDimension
  2
*D31
 10
-80.35271259391814
 20
78.29817299450741
 30
0.0
 11
-80.35271259391816
 21
55.56963035477325
 31
0.0
 70
   160
  1
L2
 71
     5
 42
41.535
  3
ISO-25
100
AcDbAlignedDimension
 13
-65.73220589271378
 23
36.76317299450741
 33
0.0
 14
-68.1037391235576
 24
78.29817299450741
 34
0.0
 50
270.0
100
AcDbRotatedDimension
1001
ACAD
1000
DSTYLE
1002
{
1070
   278
1070
    46
1070
   147
1040
0.8000000119209291
1070
    77
1070
     1
1070
    74
1070
     0
1070
    73
1070
     0
1070
    42
1040
0.5
1070
    44
1040
1.0
1070
    76
1070
     0
1070
    75
1070
     1
1070
   279
1070
     0
1070
   271
1070
     0
1070
   173
1070
     1
1070
    41
1040
3.0
1070
   140
1040
3.200000047683714
1070
   344
1005
C6
1070
   343
1005
C6
1002
}
  0
DIMENSION
  5
7BB
330
1F
100
AcDbEntity
  8
寸法線
100
AcDbDimension
  2
*D32
 10
-87.66432107525636
 20
36.76317299450742
 30
0.0
 11
-87.66432107525636
 21
76.54317299450756
 31
0.0
 70
   160
  1
L5
 71
     5
 42
79.56000000000024
  3
ISO-25
100
AcDbAlignedDimension
 13
-65.73220589271378
 23
116.3231729945076
 33
0.0
 14
-65.73220589271378
 24
36.76317299450741
 34
0.0
 50
90.0
100
AcDbRotatedDimension
1001
ACAD
1000
DSTYLE
1002
{
1070
   278
1070
    46
1070
   147
1040
0.8000000119209291
1070
    77
1070
     1
1070
    74
1070
     0
1070
    73
1070
     0
1070
    42
1040
0.5
1070
    44
1040
1.0
1070
    76
1070
     0
1070
    75
1070
     0
1070
   279
1070
     0
1070
   271
1070
     0
1070
   173
1070
     1
1070
    41
1040
3.0
1070
   140
1040
3.200000047683714
1070
   344
1005
C6
1070
   343
1005
C6
1002
}
  0
DIMENSION
  5
7BC
330
1F
100
AcDbEntity
  8
寸法線
100
AcDbDimension
  2
*D33
 10
-80.3527125939181
 20
116.3231729945076
 30
0.0
 11
-80.35271259391816
 21
97.31067299450756
 31
0.0
 70
   160
  1
L1
 71
     5
 42
38.02500000000022
  3
ISO-25
100
AcDbAlignedDimension
 13
-68.1037391235576
 23
78.29817299450741
 33
0.0
 14
-65.73220589271378
 24
116.3231729945076
 34
0.0
 50
270.0
100
AcDbRotatedDimension
1001
ACAD
1000
DSTYLE
1002
{
1070
   278
1070
    46
1070
   147
1040
0.8000000119209291
1070
    77
1070
     1
1070
    74
1070
     0
1070
    73
1070
     0
1070
    42
1040
2.54
1070
    44
1040
1.0
1070
    76
1070
     1
1070
    75
1070
     1
1070
   279
1070
     0
1070
   271
1070
     0
1070
   173
1070
     1
1070
    41
1040
3.0
1070
   140
1040
3.200000047683714
1070
   344
1005
C6
1070
   343
1005
C6
1002
}
  0
DIMENSION
  5
7BD
330
1F
100
AcDbEntity
  8
寸法線
100
AcDbDimension
  2
*D34
 10
-36.77470589271384
 20
29.25724772950093
 30
0.0
 11
-50.63920589271381
 21
29.25724772950093
 31
0.0
 70
   160
  1
\U+2205A
 71
     5
 42
27.72899999999995
  3
ISO-25
100
AcDbAlignedDimension
 13
-64.50370589271378
 23
46.81067398135152
 33
0.0
 14
-36.77470589271384
 24
46.82517299450731
 34
0.0
 50
180.0
100
AcDbRotatedDimension
1001
ACAD
1000
DSTYLE
1002
{
1070
   278
1070
    46
1070
   147
1040
0.8000000119209291
1070
    77
1070
     1
1070
    74
1070
     0
1070
    73
1070
     0
1070
    42
1040
0.5
1070
    44
1040
1.0
1070
    76
1070
     0
1070
    75
1070
     0
1070
   279
1070
     0
1070
   271
1070
     0
1070
   173
1070
     1
1070
    41
1040
3.0
1070
   140
1040
3.200000047683714
1070
   344
1005
C6
1070
   343
1005
C6
1002
}
  0
DIMENSION
  5
7BE
330
1F
100
AcDbEntity
  8
寸法線
100
AcDbDimension
  2
*D35
 10
-9.104205892713622
 20
124.2872506507632
 30
0.0
 11
-30.26780838829392
 21
124.2872506507632
 31
0.0
 70
   160
  1
L3
 71
     5
 42
41.53500000000021
  3
ISO-25
100
AcDbAlignedDimension
 13
-50.63920589271384
 23
118.1731984677148
 33
0.0
 14
-9.104205892713626
 24
93.39117299450744
 34
0.0
 50
180.0
100
AcDbRotatedDimension
1001
ACAD
1000
DSTYLE
1002
{
1070
   278
1070
    46
1070
   147
1040
0.8000000119209291
1070
    77
1070
     1
1070
    74
1070
     0
1070
    73
1070
     0
1070
    42
1040
0.5
1070
    44
1040
1.0
1070
    76
1070
     0
1070
    75
1070
     0
1070
   279
1070
     0
1070
   271
1070
     0
1070
   173
1070
     1
1070
    41
1040
3.0
1070
   140
1040
3.200000047683714
1070
   344
1005
C6
1070
   343
1005
C6
1002
}
  0
DIMENSION
  5
7BF
330
1F
100
AcDbEntity
  8
寸法線
100
AcDbDimension
  2
*D36
 10
-72.80498290051294
 20
36.76317299450713
 30
0.0
 11
-72.80498290051295
 21
48.46317299450724
 31
0.0
 70
   160
  1
L4
 71
     5
 42
23.40000000000021
  3
ISO-25
100
AcDbAlignedDimension
 13
-64.36915589271379
 23
60.16317299450734
 33
0.0
 14
-65.73220589271378
 24
36.76317299450713
 34
0.0
 50
90.0
100
AcDbRotatedDimension
1001
ACAD
1000
DSTYLE
1002
{
1070
   278
1070
    46
1070
   147
1040
0.8000000119209291
1070
    77
1070
     1
1070
    74
1070
     0
1070
    73
1070
     0
1070
    42
1040
0.5
1070
    44
1040
1.0
1070
    76
1070
     0
1070
    75
1070
     0
1070
   279
1070
     0
1070
   271
1070
     0
1070
   173
1070
     1
1070
    41
1040
3.0
1070
   140
1040
3.200000047683714
1070
   344
1005
C6
1070
   343
1005
C6
1002
}
  0
MTEXT
  5
D56
330
1F
100
AcDbEntity
  8
VIEW0002
 62
     7
100
AcDbMText
 10
-165.171489226802
 20
23.89515446519521
 30
0.0
 40
3.200000047683714
 41
0.0
 71
     7
 72
     1
  1
{\W0.83333;TDS75,100,150}
 73
     1
 44
1.0
  0
MTEXT
  5
D57
330
1F
100
AcDbEntity
  8
VIEW0002
 62
     7
100
AcDbMText
 10
-57.59445687814952
 20
21.91947436088264
 30
0.0
 40
3.200000047683714
 41
0.0
 71
     7
 72
     1
  1
\W0.833333;TDS200
 73
     1
 44
1.0
  0
MTEXT
  5
ED9
330
1F
100
AcDbEntity
  8
VIEW0001
 62
     7
100
AcDbMText
 10
-39.31714830014337
 20
-52.23738705550862
 30
0.0
 40
4.5
 41
0.0
 71
     7
 72
     1
  1
{\W1.3889;　デンカ株式会社}
 73
     1
 44
1.0
  0
MTEXT
  5
F35
330
1F
100
AcDbEntity
  8
VIEW0002
 62
     7
100
AcDbMText
 10
-177.928526116318
 20
2.431411643726577
 30
0.0
 40
3.200000047683714
 41
0.0
 71
     7
 72
     1
  1
TDS75
 73
     1
 44
1.0
  0
MTEXT
  5
F36
330
1F
100
AcDbEntity
  8
VIEW0002
 62
     7
100
AcDbMText
 10
-145.6188294975506
 20
4.031411667568434
 30
0.0
 40
3.200000047683714
 41
0.0
 71
     5
 72
     1
  1
91
 73
     1
 44
1.0
  0
MTEXT
  5
F37
330
1F
100
AcDbEntity
  8
VIEW0002
 62
     7
100
AcDbMText
 10
-25.61882949755079
 20
4.031411667568434
 30
0.0
 40
3.200000047683714
 41
0.0
 71
     5
 72
     1
  1
300
 73
     1
 44
1.0
  0
MTEXT
  5
F38
330
1F
100
AcDbEntity
  8
VIEW0002
 62
     7
100
AcDbMText
 10
-121.6188294975507
 20
4.031411667568434
 30
0.0
 40
3.200000047683714
 41
0.0
 71
     5
 72
     1
  1
155
 73
     1
 44
1.0
  0
MTEXT
  5
F39
330
1F
100
AcDbEntity
  8
VIEW0002
 62
     7
100
AcDbMText
 10
-97.61882949755078
 20
4.031411667568434
 30
0.0
 40
3.200000047683714
 41
0.0
 71
     5
 72
     1
  1
155
 73
     1
 44
1.0
  0
MTEXT
  5
F3A
330
1F
100
AcDbEntity
  8
VIEW0002
 62
     7
100
AcDbMText
 10
-49.61882949755072
 20
4.031411667568434
 30
0.0
 40
3.200000047683714
 41
0.0
 71
     5
 72
     1
  1
90
 73
     1
 44
1.0
  0
MTEXT
  5
F3B
330
1F
100
AcDbEntity
  8
VIEW0002
 62
     7
100
AcDbMText
 10
-73.61882949755076
 20
4.031411667568434
 30
0.0
 40
3.200000047683714
 41
0.0
 71
     5
 72
     1
  1
155
 73
     1
 44
1.0
  0
LINE
  5
F3C
330
1F
100
AcDbEntity
  8
VIEW0002
  6
Continuous
 62
     7
100
AcDbLine
 10
-181.6188294975508
 20
1.031411667568436
 30
0.0
 11
-13.61882949755074
 21
1.031411667568436
 31
0.0
  0
ENDSEC
  0
SECTION
  2
OBJECTS
  0
DICTIONARY
  5
C
330
0
100
AcDbDictionary
281
     1
  3
ACAD_CIP_PREVIOUS_PRODUCT_INFO
350
ED0
  3
ACAD_COLOR
350
15A
  3
ACAD_DETAILVIEWSTYLE
350
ECD
  3
ACAD_GROUP
350
D
  3
ACAD_LAYOUT
350
1A
  3
ACAD_MATERIAL
350
159
  3
ACAD_MLEADERSTYLE
350
EC9
  3
ACAD_MLINESTYLE
350
17
  3
ACAD_PLOTSETTINGS
350
19
  3
ACAD_PLOTSTYLENAME
350
E
  3
ACAD_SCALELIST
350
EB7
  3
ACAD_SECTIONVIEWSTYLE
350
ECB
  3
ACAD_TABLESTYLE
350
15B
  3
ACAD_VISUALSTYLE
350
E9E
  3
ACDB_RECOMPOSE_DATA
350
FB3
  3
AcDbVariableDictionary
350
1ED
  3
AcDsDecomposeData
350
FB9
  0
DICTIONARY
  5
F42
330
2
100
AcDbDictionary
280
     1
281
     1
  3
ACAD_LAYERSTATES
360
F43
  0
DICTIONARY
  5
EDA
330
10
100
AcDbDictionary
280
     1
281
     1
  3
ADSK_XREC_LAYER_RECONCILED
360
EDB
  0
DICTIONARY
  5
EDC
330
124
100
AcDbDictionary
280
     1
281
     1
  3
ADSK_XREC_LAYER_RECONCILED
360
EDD
  0
DICTIONARY
  5
EDE
330
12E
100
AcDbDictionary
280
     1
281
     1
  3
ADSK_XREC_LAYER_RECONCILED
360
EDF
  0
DICTIONARY
  5
EE0
330
162
100
AcDbDictionary
280
     1
281
     1
  3
ADSK_XREC_LAYER_RECONCILED
360
EE1
  0
DICTIONARY
  5
EE2
330
163
100
AcDbDictionary
280
     1
281
     1
  3
ADSK_XREC_LAYER_RECONCILED
360
EE3
  0
DICTIONARY
  5
EE4
330
164
100
AcDbDictionary
280
     1
281
     1
  3
ADSK_XREC_LAYER_RECONCILED
360
EE5
  0
DICTIONARY
  5
EE6
330
165
100
AcDbDictionary
280
     1
281
     1
  3
ADSK_XREC_LAYER_RECONCILED
360
EE7
  0
DICTIONARY
  5
EE8
330
166
100
AcDbDictionary
280
     1
281
     1
  3
ADSK_XREC_LAYER_RECONCILED
360
EE9
  0
DICTIONARY
  5
EEA
330
167
100
AcDbDictionary
280
     1
281
     1
  3
ADSK_XREC_LAYER_RECONCILED
360
EEB
  0
DICTIONARY
  5
EEC
330
168
100
AcDbDictionary
280
     1
281
     1
  3
ADSK_XREC_LAYER_RECONCILED
360
EED
  0
DICTIONARY
  5
1EA
330
1F
100
AcDbDictionary
280
     1
281
     1
  3
ACAD_SORTENTS
360
1EB
  0
DICTIONARY
  5
FC7
330
D65
100
AcDbDictionary
280
     1
281
     1
  3
ACAD_MTEXT_2008_RT
360
FC8
  0
DICTIONARY
  5
FC9
330
DB0
100
AcDbDictionary
280
     1
281
     1
  3
ACAD_MTEXT_2008_RT
360
FCA
  0
DICTIONARY
  5
FBC
330
150
100
AcDbDictionary
280
     1
281
     1
  3
ACAD_MTEXT_2008_RT
360
FBD
  0
XRECORD
  5
ED0
102
{ACAD_REACTORS
330
C
102
}
330
C
100
AcDbXrecord
280
     1
300
ACDLT
300
2014
300
INVLTS_F_S
  0
DICTIONARY
  5
15A
102
{ACAD_REACTORS
330
C
102
}
330
C
100
AcDbDictionary
281
     1
  0
DICTIONARY
  5
ECD
102
{ACAD_REACTORS
330
C
102
}
330
C
100
AcDbDictionary
281
     1
  3
Metric50
350
ECE
  0
DICTIONARY
  5
D
102
{ACAD_REACTORS
330
C
102
}
330
C
100
AcDbDictionary
281
     1
  0
DICTIONARY
  5
1A
102
{ACAD_REACTORS
330
C
102
}
330
C
100
AcDbDictionary
281
     1
  3
Layout1
350
1E
  3
Layout2
350
26
  3
Model
350
22
  0
DICTIONARY
  5
159
102
{ACAD_REACTORS
330
C
102
}
330
C
100
AcDbDictionary
281
     1
  3
ByBlock
350
E8E
  3
ByLayer
350
E86
  3
Global
350
E96
  0
DICTIONARY
  5
EC9
102
{ACAD_REACTORS
330
C
102
}
330
C
100
AcDbDictionary
281
     1
  3
Standard
350
ECA
  0
DICTIONARY
  5
17
102
{ACAD_REACTORS
330
C
102
}
330
C
100
AcDbDictionary
281
     1
  3
Standard
350
18
  0
DICTIONARY
  5
19
102
{ACAD_REACTORS
330
C
102
}
330
C
100
AcDbDictionary
281
     1
  3
111
350
E0E
  3
セットアップ1
350
F55
  0
ACDBDICTIONARYWDFLT
  5
E
102
{ACAD_REACTORS
330
C
102
}
330
C
100
AcDbDictionary
281
     1
  3
Normal
350
F
100
AcDbDictionaryWithDefault
340
F
  0
DICTIONARY
  5
EB7
102
{ACAD_REACTORS
330
C
102
}
330
C
100
AcDbDictionary
281
     1
  3
A0
350
EB8
  3
A1
350
EB9
  3
A2
350
EBA
  3
A3
350
EBB
  3
A4
350
EBC
  3
A5
350
EBD
  3
A6
350
EBE
  3
A7
350
EBF
  3
A8
350
EC0
  3
A9
350
EC1
  3
B0
350
EC2
  3
B1
350
EC3
  3
B2
350
EC4
  3
B3
350
EC5
  3
B4
350
EC6
  3
B5
350
EC7
  3
B6
350
EC8
  0
DICTIONARY
  5
ECB
102
{ACAD_REACTORS
330
C
102
}
330
C
100
AcDbDictionary
281
     1
  3
Metric50
350
ECC
  0
DICTIONARY
  5
15B
102
{ACAD_REACTORS
330
C
102
}
330
C
100
AcDbDictionary
281
     1
  3
Standard
350
15C
  0
DICTIONARY
  5
E9E
102
{ACAD_REACTORS
330
C
102
}
330
C
100
AcDbDictionary
281
     1
  3
2dWireframe
350
EA4
  3
Basic
350
EA3
  3
Brighten
350
EAA
  3
ColorChange
350
EAE
  3
Conceptual
350
EA7
  3
Dim
350
EA9
  3
EdgeColorOff
350
EB6
  3
Facepattern
350
EAD
  3
Flat
350
E9F
  3
FlatWithEdges
350
EA0
  3
Gouraud
350
EA1
  3
GouraudWithEdges
350
EA2
  3
Hidden
350
EA6
  3
JitterOff
350
EB4
  3
Linepattern
350
EAC
  3
OverhangOff
350
EB5
  3
Realistic
350
EA8
  3
Shaded
350
EB3
  3
Shaded with edges
350
EB2
  3
Shades of Gray
350
EAF
  3
Sketchy
350
EB0
  3
Thicken
350
EAB
  3
Wireframe
350
EA5
  3
X-Ray
350
EB1
  0
XRECORD
  5
FB3
102
{ACAD_REACTORS
330
C
102
}
330
C
100
AcDbXrecord
280
     1
 90
        1
330
15C
  0
DICTIONARY
  5
1ED
102
{ACAD_REACTORS
330
C
102
}
330
C
100
AcDbDictionary
281
     1
  3
CANNOSCALE
350
F26
  3
CMLEADERSTYLE
350
F22
  3
CTABLESTYLE
350
1EE
  3
CVIEWDETAILSTYLE
350
F23
  3
CVIEWSECTIONSTYLE
350
F24
  3
DIMASSOC
350
1EF
  3
LAYEREVAL
350
F28
  3
LAYERNOTIFY
350
F29
  3
LIGHTINGUNITS
350
F27
  3
MSLTSCALE
350
F25
  3
PROJECTNAME
350
1F0
  3
XCLIPFRAME
350
F5E
  0
DICTIONARY
  5
FB9
102
{ACAD_REACTORS
330
C
102
}
330
C
100
AcDbDictionary
281
     1
  3
AcDsRecords
350
FBB
  3
AcDsSchemas
350
FBA
1001
ACAD
1070
     2
  0
DICTIONARY
  5
F43
102
{ACAD_REACTORS
330
F42
102
}
330
F42
100
AcDbDictionary
281
     1
  0
XRECORD
  5
EDB
102
{ACAD_REACTORS
330
EDA
102
}
330
EDA
100
AcDbXrecord
280
     1
290
     1
  0
XRECORD
  5
EDD
102
{ACAD_REACTORS
330
EDC
102
}
330
EDC
100
AcDbXrecord
280
     1
290
     1
  0
XRECORD
  5
EDF
102
{ACAD_REACTORS
330
EDE
102
}
330
EDE
100
AcDbXrecord
280
     1
290
     1
  0
XRECORD
  5
EE1
102
{ACAD_REACTORS
330
EE0
102
}
330
EE0
100
AcDbXrecord
280
     1
290
     1
  0
XRECORD
  5
EE3
102
{ACAD_REACTORS
330
EE2
102
}
330
EE2
100
AcDbXrecord
280
     1
290
     1
  0
XRECORD
  5
EE5
102
{ACAD_REACTORS
330
EE4
102
}
330
EE4
100
AcDbXrecord
280
     1
290
     1
  0
XRECORD
  5
EE7
102
{ACAD_REACTORS
330
EE6
102
}
330
EE6
100
AcDbXrecord
280
     1
290
     1
  0
XRECORD
  5
EE9
102
{ACAD_REACTORS
330
EE8
102
}
330
EE8
100
AcDbXrecord
280
     1
290
     1
  0
XRECORD
  5
EEB
102
{ACAD_REACTORS
330
EEA
102
}
330
EEA
100
AcDbXrecord
280
     1
290
     1
  0
XRECORD
  5
EED
102
{ACAD_REACTORS
330
EEC
102
}
330
EEC
100
AcDbXrecord
280
     1
290
     1
  0
SORTENTSTABLE
  5
1EB
102
{ACAD_REACTORS
330
1EA
102
}
330
1EA
100
AcDbSortentsTable
330
1F
331
138
  5
13A
331
150
  5
152
331
14F
  5
151
331
142
  5
144
331
135
  5
137
331
14C
  5
14E
331
127
  5
127
331
13F
  5
141
331
132
  5
134
331
149
  5
14B
331
13C
  5
13E
331
154
  5
156
331
146
  5
148
331
139
  5
13B
331
151
  5
153
331
143
  5
145
331
136
  5
138
331
128
  5
128
331
14D
  5
14F
331
140
  5
142
331
133
  5
135
331
125
  5
125
331
14A
  5
14C
331
13D
  5
13F
331
155
  5
1E9
331
130
  5
132
331
12F
  5
131
331
147
  5
149
331
13A
  5
13C
331
1EC
  5
12D
331
152
  5
154
331
144
  5
146
331
137
  5
139
331
1E9
  5
12B
331
129
  5
129
331
14E
  5
150
331
141
  5
143
331
134
  5
136
331
126
  5
126
331
14B
  5
14D
331
13E
  5
140
331
131
  5
133
331
156
  5
1EC
331
148
  5
14A
331
13B
  5
13D
331
153
  5
155
331
12D
  5
130
331
145
  5
147
  0
XRECORD
  5
FC8
102
{ACAD_REACTORS
330
FC7
102
}
330
FC7
100
AcDbXrecord
280
     1
 40
2020.0
  1
\U+2205A
  0
XRECORD
  5
FCA
102
{ACAD_REACTORS
330
FC9
102
}
330
FC9
100
AcDbXrecord
280
     1
 40
2020.0
  1
\U+2205A
  0
XRECORD
  5
FBD
102
{ACAD_REACTORS
330
FBC
102
}
330
FBC
100
AcDbXrecord
280
     1
 40
7259.0
  1
{\W1;\U+2205A}
  0
ACDBDETAILVIEWSTYLE
  5
ECE
102
{ACAD_XDICTIONARY
360
1001
102
}
102
{ACAD_REACTORS
330
ECD
102
}
330
ECD
100
AcDbModelDocViewStyle
 70
     0
  3
Metric50
290
     0
100
AcDbDetailViewStyle
 70
     0
 71
     0
 90
        3
 71
     1
340
11
 62
   256
 40
5.0
340
0
 62
   256
 40
5.0
300

 40
0.0
280
     1
 71
     2
340
16
 90
       25
 62
   256
 71
     3
340
11
 62
   256
 40
5.0
 90
        0
 40
15.0
 90
        1
300
%<\AcVar ViewDetailId>% (%<\AcVar ViewScale \f "%sn">%)
 71
     4
340
16
 90
       25
 62
   256
340
16
 90
       25
 62
   256
280
     0
  0
LAYOUT
  5
1E
102
{ACAD_REACTORS
330
1A
102
}
330
1A
100
AcDbPlotSettings
  1

  2

  4

  6

 40
0.0
 41
0.0
 42
0.0
 43
0.0
 44
0.0
 45
0.0
 46
0.0
 47
0.0
 48
0.0
 49
0.0
140
0.0
141
0.0
142
1.0
143
1.0
 70
   688
 72
     0
 73
     0
 74
     5
  7

 75
    16
147
1.0
 76
     0
 77
     2
 78
   300
148
0.0
149
0.0
100
AcDbLayout
  1
Layout1
 70
     1
 71
     1
 10
-247.2100037059508
 20
-63.73738705550861
 11
49.78999629404917
 21
146.2626129444914
 12
0.0
 22
0.0
 32
0.0
 14
1.000000000000000E+20
 24
1.000000000000000E+20
 34
1.000000000000000E+20
 15
-1.000000000000000E+20
 25
-1.000000000000000E+20
 35
-1.000000000000000E+20
146
0.0
 13
0.0
 23
0.0
 33
0.0
 16
1.0
 26
0.0
 36
0.0
 17
0.0
 27
1.0
 37
0.0
 76
     0
330
1B
  0
LAYOUT
  5
26
102
{ACAD_REACTORS
330
1A
102
}
330
1A
100
AcDbPlotSettings
  1

  2

  4

  6

 40
0.0
 41
0.0
 42
0.0
 43
0.0
 44
0.0
 45
0.0
 46
0.0
 47
0.0
 48
0.0
 49
0.0
140
0.0
141
0.0
142
1.0
143
1.0
 70
   688
 72
     0
 73
     0
 74
     5
  7

 75
    16
147
1.0
 76
     0
 77
     2
 78
   300
148
0.0
149
0.0
100
AcDbLayout
  1
Layout2
 70
     1
 71
     2
 10
0.0
 20
0.0
 11
0.0
 21
0.0
 12
0.0
 22
0.0
 32
0.0
 14
0.0
 24
0.0
 34
0.0
 15
0.0
 25
0.0
 35
0.0
146
0.0
 13
0.0
 23
0.0
 33
0.0
 16
1.0
 26
0.0
 36
0.0
 17
0.0
 27
1.0
 37
0.0
 76
     0
330
23
  0
LAYOUT
  5
22
102
{ACAD_REACTORS
330
1A
102
}
330
1A
100
AcDbPlotSettings
  1

  2
Adobe PDF
  4
A4
  6

 40
3.174999952316282
 41
3.174999952316282
 42
3.175003051757812
 43
3.17498779296875
 44
209.9733276367186
 45
297.0318298339844
 46
7.051149022578584
 47
7.073861730090527
 48
0.0
 49
0.0
140
0.0
141
0.0
142
1.0
143
1.0
 70
 11956
 72
     1
 73
     1
 74
     1
  7
monochrome.ctb
 75
    16
147
1.0
 76
     0
 77
     2
 78
   300
148
237.2263146483291
149
53.7462366525893
100
AcDbLayout
  1
Model
 70
     1
 71
     0
 10
-247.2100037059508
 20
-63.73738705550861
 11
49.78999629404917
 21
146.2626129444914
 12
0.0
 22
0.0
 32
0.0
 14
-247.2100037059508
 24
-63.73738705550861
 34
0.0
 15
49.78999629404917
 25
146.2626129444914
 35
0.0
146
0.0
 13
0.0
 23
0.0
 33
0.0
 16
1.0
 26
0.0
 36
0.0
 17
0.0
 27
1.0
 37
0.0
 76
     0
330
1F
331
E70
1001
ACAD_PSEXT
1000
Adobe PDF
1000
Adobe PDF Converter
1000
My Documents
1000

1070
     0
  0
MATERIAL
  5
E8E
102
{ACAD_XDICTIONARY
360
E8F
102
}
102
{ACAD_REACTORS
330
159
102
}
330
159
100
AcDbMaterial
  1
ByBlock
 72
     0
 43
0.0008202099737533
 43
0.0
 43
0.0
 43
0.0
 43
0.0
 43
0.0008202099737533
 43
0.0
 43
0.0
 43
0.0
 43
0.0
 43
1.0
 43
0.0
 43
0.0
 43
0.0
 43
0.0
 43
1.0
 77
     0
 47
0.0008202099737533
 47
0.0
 47
0.0
 47
0.0
 47
0.0
 47
0.0008202099737533
 47
0.0
 47
0.0
 47
0.0
 47
0.0
 47
1.0
 47
0.0
 47
0.0
 47
0.0
 47
0.0
 47
1.0
171
     0
 49
0.0008202099737533
 49
0.0
 49
0.0
 49
0.0
 49
0.0
 49
0.0008202099737533
 49
0.0
 49
0.0
 49
0.0
 49
0.0
 49
1.0
 49
0.0
 49
0.0
 49
0.0
 49
0.0
 49
1.0
175
     0
142
0.0008202099737533
142
0.0
142
0.0
142
0.0
142
0.0
142
0.0008202099737533
142
0.0
142
0.0
142
0.0
142
0.0
142
1.0
142
0.0
142
0.0
142
0.0
142
0.0
142
1.0
179
     0
144
0.0008202099737533
144
0.0
144
0.0
144
0.0
144
0.0
144
0.0008202099737533
144
0.0
144
0.0
144
0.0
144
0.0
144
1.0
144
0.0
144
0.0
144
0.0
144
0.0
144
1.0
147
0.0008202099737533
147
0.0
147
0.0
147
0.0
147
0.0
147
0.0008202099737533
147
0.0
147
0.0
147
0.0
147
0.0
147
1.0
147
0.0
147
0.0
147
0.0
147
0.0
147
1.0
  0
MATERIAL
  5
E86
102
{ACAD_XDICTIONARY
360
E87
102
}
102
{ACAD_REACTORS
330
159
102
}
330
159
100
AcDbMaterial
  1
ByLayer
 72
     0
 43
0.0008202099737533
 43
0.0
 43
0.0
 43
0.0
 43
0.0
 43
0.0008202099737533
 43
0.0
 43
0.0
 43
0.0
 43
0.0
 43
1.0
 43
0.0
 43
0.0
 43
0.0
 43
0.0
 43
1.0
 77
     0
 47
0.0008202099737533
 47
0.0
 47
0.0
 47
0.0
 47
0.0
 47
0.0008202099737533
 47
0.0
 47
0.0
 47
0.0
 47
0.0
 47
1.0
 47
0.0
 47
0.0
 47
0.0
 47
0.0
 47
1.0
171
     0
 49
0.0008202099737533
 49
0.0
 49
0.0
 49
0.0
 49
0.0
 49
0.0008202099737533
 49
0.0
 49
0.0
 49
0.0
 49
0.0
 49
1.0
 49
0.0
 49
0.0
 49
0.0
 49
0.0
 49
1.0
175
     0
142
0.0008202099737533
142
0.0
142
0.0
142
0.0
142
0.0
142
0.0008202099737533
142
0.0
142
0.0
142
0.0
142
0.0
142
1.0
142
0.0
142
0.0
142
0.0
142
0.0
142
1.0
179
     0
144
0.0008202099737533
144
0.0
144
0.0
144
0.0
144
0.0
144
0.0008202099737533
144
0.0
144
0.0
144
0.0
144
0.0
144
1.0
144
0.0
144
0.0
144
0.0
144
0.0
144
1.0
147
0.0008202099737533
147
0.0
147
0.0
147
0.0
147
0.0
147
0.0008202099737533
147
0.0
147
0.0
147
0.0
147
0.0
147
1.0
147
0.0
147
0.0
147
0.0
147
0.0
147
1.0
  0
MATERIAL
  5
E96
102
{ACAD_XDICTIONARY
360
E97
102
}
102
{ACAD_REACTORS
330
159
102
}
330
159
100
AcDbMaterial
  1
Global
 72
     0
 43
0.0008202099737533
 43
0.0
 43
0.0
 43
0.0
 43
0.0
 43
0.0008202099737533
 43
0.0
 43
0.0
 43
0.0
 43
0.0
 43
1.0
 43
0.0
 43
0.0
 43
0.0
 43
0.0
 43
1.0
 77
     0
 47
0.0008202099737533
 47
0.0
 47
0.0
 47
0.0
 47
0.0
 47
0.0008202099737533
 47
0.0
 47
0.0
 47
0.0
 47
0.0
 47
1.0
 47
0.0
 47
0.0
 47
0.0
 47
0.0
 47
1.0
171
     0
 49
0.0008202099737533
 49
0.0
 49
0.0
 49
0.0
 49
0.0
 49
0.0008202099737533
 49
0.0
 49
0.0
 49
0.0
 49
0.0
 49
1.0
 49
0.0
 49
0.0
 49
0.0
 49
0.0
 49
1.0
175
     0
142
0.0008202099737533
142
0.0
142
0.0
142
0.0
142
0.0
142
0.0008202099737533
142
0.0
142
0.0
142
0.0
142
0.0
142
1.0
142
0.0
142
0.0
142
0.0
142
0.0
142
1.0
179
     0
144
0.0008202099737533
144
0.0
144
0.0
144
0.0
144
0.0
144
0.0008202099737533
144
0.0
144
0.0
144
0.0
144
0.0
144
1.0
144
0.0
144
0.0
144
0.0
144
0.0
144
1.0
147
0.0008202099737533
147
0.0
147
0.0
147
0.0
147
0.0
147
0.0008202099737533
147
0.0
147
0.0
147
0.0
147
0.0
147
1.0
147
0.0
147
0.0
147
0.0
147
0.0
147
1.0
  0
MLEADERSTYLE
  5
ECA
102
{ACAD_REACTORS
330
EC9
102
}
330
EC9
100
AcDbMLeaderStyle
170
     2
171
     1
172
     0
 90
        2
 40
0.0
 41
0.0
173
     1
 91
-1056964608
340
14
 92
       -2
290
     1
 42
2.0
291
     1
 43
0.36
  3
Standard
 44
4.0
300

342
11
174
     1
178
     6
175
     1
176
     0
 93
-1056964608
 45
4.0
292
     0
297
     0
 46
4.0
 94
-1056964608
 47
1.0
 49
1.0
140
1.0
293
     1
141
0.0
294
     1
177
     0
142
1.0
295
     0
296
     0
143
0.125
1001
ACAD_MLEADERVER
1070
     2
  0
MLINESTYLE
  5
18
102
{ACAD_REACTORS
330
17
102
}
330
17
100
AcDbMlineStyle
  2
STANDARD
 70
     0
  3

 62
   256
 51
90.0
 52
90.0
 71
     2
 49
0.5
 62
   256
  6
BYLAYER
 49
-0.5
 62
   256
  6
BYLAYER
  0
PLOTSETTINGS
  5
E0E
102
{ACAD_REACTORS
330
19
102
}
330
19
100
AcDbPlotSettings
  1
111
  2
RICOH IPSiO NX860e RPCS
  4
A4
  6

 40
5.873749732971191
 41
5.873747825622557
 42
5.873748779296875
 43
5.873748779296875
 44
209.9733276367186
 45
296.9259948730469
 46
1.390213977387332
 47
0.0
 48
0.0
 49
0.0
140
0.0
141
0.0
142
1.0
143
0.9696878281774187
 70
 11956
 72
     1
 73
     1
 74
     1
  7
monochrome.ctb
 75
     0
147
1.031259721883435
 76
     0
 77
     2
 78
   300
148
237.226314648329
149
53.7462366525893
1001
ACAD_PSEXT
1000
RICOH IPSiO NX860e RPCS
1000
RICOH IPSiO NX860e RPCS
1000
IP_192.168.110.192
1000
RPCS Driver (Windows 2000/XP/Server 2003/Vista)
1070
     0
  0
PLOTSETTINGS
  5
F55
102
{ACAD_REACTORS
330
19
102
}
330
19
100
AcDbPlotSettings
  1
セットアップ1
  2
DWG To PDF.pc3
  4
ISO_expand_A4_(297.00_x_210.00_MM)
  6

 40
5.793749809265136
 41
10.79374980926513
 42
5.79376220703125
 43
10.79374694824219
 44
297.0
 45
210.0
 46
5.249628829452802
 47
0.0
 48
-237.2100037059508
 49
-53.73738705550861
140
39.28999629404918
141
135.7626129444914
142
1.0
143
1.005771892728943
 70
 11956
 72
     1
 73
     0
 74
     4
  7
monochrome.ctb
 75
     0
147
0.9942612308310959
 76
     0
 77
     2
 78
   300
148
237.2100037059508
149
53.73738705550861
1001
ACAD_PSEXT
1000
DWG To PDF.pc3
1000
DWG To PDF
1000
ファイル
1000

1070
     0
  0
ACDBPLACEHOLDER
  5
F
102
{ACAD_REACTORS
330
E
102
}
330
E
  0
SCALE
  5
EB8
102
{ACAD_REACTORS
330
EB7
102
}
330
EB7
100
AcDbScale
 70
     0
300
1:1
140
1.0
141
1.0
290
     1
  0
SCALE
  5
EB9
102
{ACAD_REACTORS
330
EB7
102
}
330
EB7
100
AcDbScale
 70
     0
300
1:2
140
1.0
141
2.0
290
     0
  0
SCALE
  5
EBA
102
{ACAD_REACTORS
330
EB7
102
}
330
EB7
100
AcDbScale
 70
     0
300
1:4
140
1.0
141
4.0
290
     0
  0
SCALE
  5
EBB
102
{ACAD_REACTORS
330
EB7
102
}
330
EB7
100
AcDbScale
 70
     0
300
1:5
140
1.0
141
5.0
290
     0
  0
SCALE
  5
EBC
102
{ACAD_REACTORS
330
EB7
102
}
330
EB7
100
AcDbScale
 70
     0
300
1:8
140
1.0
141
8.0
290
     0
  0
SCALE
  5
EBD
102
{ACAD_REACTORS
330
EB7
102
}
330
EB7
100
AcDbScale
 70
     0
300
1:10
140
1.0
141
10.0
290
     0
  0
SCALE
  5
EBE
102
{ACAD_REACTORS
330
EB7
102
}
330
EB7
100
AcDbScale
 70
     0
300
1:16
140
1.0
141
16.0
290
     0
  0
SCALE
  5
EBF
102
{ACAD_REACTORS
330
EB7
102
}
330
EB7
100
AcDbScale
 70
     0
300
1:20
140
1.0
141
20.0
290
     0
  0
SCALE
  5
EC0
102
{ACAD_REACTORS
330
EB7
102
}
330
EB7
100
AcDbScale
 70
     0
300
1:30
140
1.0
141
30.0
290
     0
  0
SCALE
  5
EC1
102
{ACAD_REACTORS
330
EB7
102
}
330
EB7
100
AcDbScale
 70
     0
300
1:40
140
1.0
141
40.0
290
     0
  0
SCALE
  5
EC2
102
{ACAD_REACTORS
330
EB7
102
}
330
EB7
100
AcDbScale
 70
     0
300
1:50
140
1.0
141
50.0
290
     0
  0
SCALE
  5
EC3
102
{ACAD_REACTORS
330
EB7
102
}
330
EB7
100
AcDbScale
 70
     0
300
1:100
140
1.0
141
100.0
290
     0
  0
SCALE
  5
EC4
102
{ACAD_REACTORS
330
EB7
102
}
330
EB7
100
AcDbScale
 70
     0
300
2:1
140
2.0
141
1.0
290
     0
  0
SCALE
  5
EC5
102
{ACAD_REACTORS
330
EB7
102
}
330
EB7
100
AcDbScale
 70
     0
300
4:1
140
4.0
141
1.0
290
     0
  0
SCALE
  5
EC6
102
{ACAD_REACTORS
330
EB7
102
}
330
EB7
100
AcDbScale
 70
     0
300
8:1
140
8.0
141
1.0
290
     0
  0
SCALE
  5
EC7
102
{ACAD_REACTORS
330
EB7
102
}
330
EB7
100
AcDbScale
 70
     0
300
10:1
140
10.0
141
1.0
290
     0
  0
SCALE
  5
EC8
102
{ACAD_REACTORS
330
EB7
102
}
330
EB7
100
AcDbScale
 70
     0
300
100:1
140
100.0
141
1.0
290
     0
  0
ACDBSECTIONVIEWSTYLE
  5
ECC
102
{ACAD_XDICTIONARY
360
FFF
102
}
102
{ACAD_REACTORS
330
ECB
102
}
330
ECB
100
AcDbModelDocViewStyle
 70
     0
  3
Metric50
290
     0
100
AcDbSectionViewStyle
 70
     0
 71
     0
 90
      102
 71
     1
340
11
 62
   256
 40
5.0
340
0
340
0
 62
   256
 40
5.0
300
I, O, Q, S, X, Z
 40
10.0
 90
        0
 40
2.5
 90
        0
 71
     2
340
16
 90
       25
 62
   256
340
16
 90
       50
 62
   256
 40
5.0
 40
2.5
 40
5.0
 71
     3
340
11
 62
   256
 40
5.0
 90
        0
 40
15.0
 90
        1
300
%<\AcVar ViewSectionStartId>%-%<\AcVar ViewSectionEndId>% (%<\AcVar ViewScale \f "%sn">%)
 71
     4
 62
   256
 62
   257
300
ANSI31
 40
1.0
 90
        0
290
     0
290
     0
 90
        6
 40
0.0
 40
1.570796326794896
 40
0.2617993877991494
 40
1.308996938995747
 40
-0.2617993877991494
 40
1.832595714594046
  0
TABLESTYLE
  5
15C
102
{ACAD_XDICTIONARY
360
FB1
102
}
102
{ACAD_REACTORS
330
15B
102
}
330
15B
100
AcDbTableStyle
  3
Standard
 70
     0
 71
     0
 40
1.5
 41
1.5
280
     0
281
     0
  7
Standard
140
4.5
170
     2
 62
     0
 63
     7
283
     0
274
    -2
284
     1
 64
     0
275
    -2
285
     1
 65
     0
276
    -2
286
     1
 66
     0
277
    -2
287
     1
 67
     0
278
    -2
288
     1
 68
     0
279
    -2
289
     1
 69
     0
  7
Standard
140
6.0
170
     5
 62
     0
 63
     7
283
     0
274
    -2
284
     1
 64
     0
275
    -2
285
     1
 65
     0
276
    -2
286
     1
 66
     0
277
    -2
287
     1
 67
     0
278
    -2
288
     1
 68
     0
279
    -2
289
     1
 69
     0
  7
Standard
140
4.5
170
     5
 62
     0
 63
     7
283
     0
274
    -2
284
     1
 64
     0
275
    -2
285
     1
 65
     0
276
    -2
286
     1
 66
     0
277
    -2
287
     1
 67
     0
278
    -2
288
     1
 68
     0
279
    -2
289
     1
 69
     0
  0
VISUALSTYLE
  5
EA4
102
{ACAD_XDICTIONARY
360
FD8
102
}
102
{ACAD_REACTORS
330
E9E
102
}
330
E9E
100
AcDbVisualStyle
  2
2dWireframe
 70
     4
 71
     0
 72
     2
 73
     0
 90
        0
 40
-0.6
 41
-30.0
 62
     5
 63
     7
421
 16777215
 74
     1
 91
        4
 64
     7
 65
   257
 75
     1
175
     1
 42
1.0
 92
        0
 66
   257
 43
1.0
 76
     1
 77
     6
 78
     2
 67
     7
 79
     5
170
     0
171
     0
290
     0
174
     0
 93
        1
 44
0.0
173
     0
291
     0
 45
0.0
1001
ACAD
1000
AcDbSavedByObjectVersion
1070
     0
  0
VISUALSTYLE
  5
EA3
102
{ACAD_XDICTIONARY
360
FD6
102
}
102
{ACAD_REACTORS
330
E9E
102
}
330
E9E
100
AcDbVisualStyle
  2
Basic
 70
     7
 71
     1
 72
     0
 73
     1
 90
        0
 40
-0.6
 41
-30.0
 62
     5
 63
     7
421
 16777215
 74
     0
 91
        4
 64
     7
 65
   257
 75
     1
175
     1
 42
1.0
 92
        8
 66
     7
 43
1.0
 76
     1
 77
     6
 78
     2
 67
     7
 79
     5
170
     0
171
     0
290
     0
174
     0
 93
        1
 44
0.0
173
     0
291
     1
 45
0.0
1001
ACAD
1000
AcDbSavedByObjectVersion
1070
     0
  0
VISUALSTYLE
  5
EAA
102
{ACAD_XDICTIONARY
360
FE4
102
}
102
{ACAD_REACTORS
330
E9E
102
}
330
E9E
100
AcDbVisualStyle
  2
Brighten
 70
    12
 71
     2
 72
     2
 73
     0
 90
        0
 40
-0.6
 41
-30.0
 62
     5
 63
     7
421
 16777215
 74
     1
 91
        4
 64
     7
 65
   257
 75
     1
175
     1
 42
1.0
 92
        8
 66
     7
 43
1.0
 76
     1
 77
     6
 78
     2
 67
     7
 79
     5
170
     0
171
     0
290
     0
174
     0
 93
        1
 44
50.0
173
     0
291
     1
 45
0.0
1001
ACAD
1000
AcDbSavedByObjectVersion
1070
     0
  0
VISUALSTYLE
  5
EAE
102
{ACAD_XDICTIONARY
360
FEC
102
}
102
{ACAD_REACTORS
330
E9E
102
}
330
E9E
100
AcDbVisualStyle
  2
ColorChange
 70
    16
 71
     2
 72
     2
 73
     3
 90
        0
 40
-0.6
 41
-30.0
 62
     5
 63
     8
421
  8421504
 74
     1
 91
        4
 64
     7
 65
   257
 75
     1
175
     1
 42
1.0
 92
        8
 66
     8
424
  8421504
 43
1.0
 76
     1
 77
     6
 78
     2
 67
     7
 79
     5
170
     0
171
     0
290
     0
174
     0
 93
        1
 44
0.0
173
     0
291
     1
 45
0.0
1001
ACAD
1000
AcDbSavedByObjectVersion
1070
     0
  0
VISUALSTYLE
  5
EA7
102
{ACAD_XDICTIONARY
360
FDE
102
}
102
{ACAD_REACTORS
330
E9E
102
}
330
E9E
100
AcDbVisualStyle
  2
Conceptual
 70
     9
 71
     3
 72
     2
 73
     0
 90
        0
 40
-0.6
 41
-30.0
 62
     5
 63
     7
421
 16777215
 74
     2
 91
        2
 64
     7
 65
   257
 75
     1
175
     1
 42
179.0
 92
        8
 66
     7
 43
1.0
 76
     1
 77
     6
 78
     2
 67
     7
 79
     3
170
     0
171
     0
290
     0
174
     0
 93
        1
 44
0.0
173
     0
291
     0
 45
0.0
1001
ACAD
1000
AcDbSavedByObjectVersion
1070
     0
  0
VISUALSTYLE
  5
EA9
102
{ACAD_XDICTIONARY
360
FE2
102
}
102
{ACAD_REACTORS
330
E9E
102
}
330
E9E
100
AcDbVisualStyle
  2
Dim
 70
    11
 71
     2
 72
     2
 73
     0
 90
        0
 40
-0.6
 41
-30.0
 62
     5
 63
     7
421
 16777215
 74
     1
 91
        4
 64
     7
 65
   257
 75
     1
175
     1
 42
1.0
 92
        8
 66
     7
 43
1.0
 76
     1
 77
     6
 78
     2
 67
     7
 79
     5
170
     0
171
     0
290
     0
174
     0
 93
        1
 44
-50.0
173
     0
291
     1
 45
0.0
1001
ACAD
1000
AcDbSavedByObjectVersion
1070
     0
  0
VISUALSTYLE
  5
EB6
102
{ACAD_XDICTIONARY
360
FFC
102
}
102
{ACAD_REACTORS
330
E9E
102
}
330
E9E
100
AcDbVisualStyle
  2
EdgeColorOff
 70
    22
 71
     2
 72
     2
 73
     0
 90
        0
 40
-0.6
 41
-30.0
 62
     5
 63
     7
421
 16777215
 74
     1
 91
        4
 64
     7
 65
   257
 75
     1
175
     1
 42
1.0
 92
        8
 66
     7
 43
1.0
 76
     1
 77
     6
 78
     2
 67
     7
 79
     5
170
     0
171
     0
290
     0
174
     0
 93
        1
 44
0.0
173
     0
291
     1
 45
0.0
1001
ACAD
1000
AcDbSavedByObjectVersion
1070
     0
  0
VISUALSTYLE
  5
EAD
102
{ACAD_XDICTIONARY
360
FEA
102
}
102
{ACAD_REACTORS
330
E9E
102
}
330
E9E
100
AcDbVisualStyle
  2
Facepattern
 70
    15
 71
     2
 72
     2
 73
     0
 90
        0
 40
-0.6
 41
-30.0
 62
     5
 63
     7
421
 16777215
 74
     1
 91
        4
 64
     7
 65
   257
 75
     1
175
     1
 42
1.0
 92
        8
 66
     7
 43
1.0
 76
     1
 77
     6
 78
     2
 67
     7
 79
     5
170
     0
171
     0
290
     0
174
     0
 93
        1
 44
0.0
173
     0
291
     1
 45
0.0
1001
ACAD
1000
AcDbSavedByObjectVersion
1070
     0
  0
VISUALSTYLE
  5
E9F
102
{ACAD_XDICTIONARY
360
FCE
102
}
102
{ACAD_REACTORS
330
E9E
102
}
330
E9E
100
AcDbVisualStyle
  2
Flat
 70
     0
 71
     2
 72
     1
 73
     1
 90
        2
 40
-0.6
 41
30.0
 62
     5
 63
     7
421
 16777215
 74
     0
 91
        0
 64
     7
 65
   257
 75
     1
175
     1
 42
1.0
 92
        8
 66
     7
 43
1.0
 76
     1
 77
     6
 78
     2
 67
     7
 79
     5
170
     0
171
     0
290
     0
174
     0
 93
       13
 44
0.0
173
     0
291
     1
 45
0.0
1001
ACAD
1000
AcDbSavedByObjectVersion
1070
     0
  0
VISUALSTYLE
  5
EA0
102
{ACAD_XDICTIONARY
360
FD0
102
}
102
{ACAD_REACTORS
330
E9E
102
}
330
E9E
100
AcDbVisualStyle
  2
FlatWithEdges
 70
     1
 71
     2
 72
     1
 73
     1
 90
        2
 40
-0.6
 41
30.0
 62
     5
 63
     7
421
 16777215
 74
     1
 91
        0
 64
     7
 65
   257
 75
     1
175
     1
 42
1.0
 92
        0
 66
   257
 43
1.0
 76
     1
 77
     6
 78
     2
 67
     7
 79
     5
170
     0
171
     0
290
     0
174
     0
 93
       13
 44
0.0
173
     0
291
     1
 45
0.0
1001
ACAD
1000
AcDbSavedByObjectVersion
1070
     0
  0
VISUALSTYLE
  5
EA1
102
{ACAD_XDICTIONARY
360
FD2
102
}
102
{ACAD_REACTORS
330
E9E
102
}
330
E9E
100
AcDbVisualStyle
  2
Gouraud
 70
     2
 71
     2
 72
     2
 73
     1
 90
        2
 40
-0.6
 41
30.0
 62
     5
 63
     7
421
 16777215
 74
     0
 91
        0
 64
     7
 65
   257
 75
     1
175
     1
 42
1.0
 92
        0
 66
     7
 43
1.0
 76
     1
 77
     6
 78
     2
 67
     7
 79
     5
170
     0
171
     0
290
     0
174
     0
 93
       13
 44
0.0
173
     0
291
     1
 45
0.0
1001
ACAD
1000
AcDbSavedByObjectVersion
1070
     0
  0
VISUALSTYLE
  5
EA2
102
{ACAD_XDICTIONARY
360
FD4
102
}
102
{ACAD_REACTORS
330
E9E
102
}
330
E9E
100
AcDbVisualStyle
  2
GouraudWithEdges
 70
     3
 71
     2
 72
     2
 73
     1
 90
        2
 40
-0.6
 41
30.0
 62
     5
 63
     7
421
 16777215
 74
     1
 91
        0
 64
     7
 65
   257
 75
     1
175
     1
 42
1.0
 92
        0
 66
   257
 43
1.0
 76
     1
 77
     6
 78
     2
 67
     7
 79
     5
170
     0
171
     0
290
     0
174
     0
 93
       13
 44
0.0
173
     0
291
     1
 45
0.0
1001
ACAD
1000
AcDbSavedByObjectVersion
1070
     0
  0
VISUALSTYLE
  5
EA6
102
{ACAD_XDICTIONARY
360
FDC
102
}
102
{ACAD_REACTORS
330
E9E
102
}
330
E9E
100
AcDbVisualStyle
  2
Hidden
 70
     6
 71
     1
 72
     2
 73
     2
 90
        0
 40
-0.6
 41
-30.0
 62
     5
 63
     7
421
 16777215
 74
     2
 91
        2
 64
     7
 65
   257
 75
     2
175
     1
 42
40.0
 92
        0
 66
   257
 43
1.0
 76
     1
 77
     6
 78
     2
 67
     7
 79
     3
170
     0
171
     0
290
     0
174
     0
 93
        1
 44
0.0
173
     0
291
     0
 45
0.0
1001
ACAD
1000
AcDbSavedByObjectVersion
1070
     0
  0
VISUALSTYLE
  5
EB4
102
{ACAD_XDICTIONARY
360
FF8
102
}
102
{ACAD_REACTORS
330
E9E
102
}
330
E9E
100
AcDbVisualStyle
  2
JitterOff
 70
    20
 71
     2
 72
     2
 73
     0
 90
        0
 40
-0.6
 41
-30.0
 62
     5
 63
     7
421
 16777215
 74
     1
 91
        4
 64
     7
 65
   257
 75
     1
175
     1
 42
1.0
 92
       10
 66
     7
 43
1.0
 76
     1
 77
     6
 78
     2
 67
     7
 79
     5
170
     0
171
     0
290
     0
174
     0
 93
        1
 44
0.0
173
     0
291
     1
 45
0.0
1001
ACAD
1000
AcDbSavedByObjectVersion
1070
     0
  0
VISUALSTYLE
  5
EAC
102
{ACAD_XDICTIONARY
360
FE8
102
}
102
{ACAD_REACTORS
330
E9E
102
}
330
E9E
100
AcDbVisualStyle
  2
Linepattern
 70
    14
 71
     2
 72
     2
 73
     0
 90
        0
 40
-0.6
 41
-30.0
 62
     5
 63
     7
421
 16777215
 74
     1
 91
        4
 64
     7
 65
   257
 75
     7
175
     7
 42
1.0
 92
        8
 66
     7
 43
1.0
 76
     1
 77
     6
 78
     2
 67
     7
 79
     5
170
     0
171
     0
290
     0
174
     0
 93
        1
 44
0.0
173
     0
291
     1
 45
0.0
1001
ACAD
1000
AcDbSavedByObjectVersion
1070
     0
  0
VISUALSTYLE
  5
EB5
102
{ACAD_XDICTIONARY
360
FFA
102
}
102
{ACAD_REACTORS
330
E9E
102
}
330
E9E
100
AcDbVisualStyle
  2
OverhangOff
 70
    21
 71
     2
 72
     2
 73
     0
 90
        0
 40
-0.6
 41
-30.0
 62
     5
 63
     7
421
 16777215
 74
     1
 91
        4
 64
     7
 65
   257
 75
     1
175
     1
 42
1.0
 92
        9
 66
     7
 43
1.0
 76
     1
 77
     6
 78
     2
 67
     7
 79
     5
170
     0
171
     0
290
     0
174
     0
 93
        1
 44
0.0
173
     0
291
     1
 45
0.0
1001
ACAD
1000
AcDbSavedByObjectVersion
1070
     0
  0
VISUALSTYLE
  5
EA8
102
{ACAD_XDICTIONARY
360
FE0
102
}
102
{ACAD_REACTORS
330
E9E
102
}
330
E9E
100
AcDbVisualStyle
  2
Realistic
 70
     8
 71
     2
 72
     3
 73
     0
 90
        2
 40
-0.6
 41
30.0
 62
     5
 63
     7
421
 16777215
 74
     0
 91
        0
 64
     7
 65
   257
 75
     1
175
     1
 42
1.0
 92
        8
 66
   257
 43
1.0
 76
     1
 77
     6
 78
     2
 67
     7
 79
     3
170
     0
171
     0
290
     0
174
     0
 93
       13
 44
0.0
173
     0
291
     0
 45
0.0
1001
ACAD
1000
AcDbSavedByObjectVersion
1070
     0
  0
VISUALSTYLE
  5
EB3
102
{ACAD_XDICTIONARY
360
FF6
102
}
102
{ACAD_REACTORS
330
E9E
102
}
330
E9E
100
AcDbVisualStyle
  2
Shaded
 70
    27
 71
     2
 72
     2
 73
     1
 90
        2
 40
-0.6
 41
30.0
 62
     5
 63
     7
421
 16777215
 74
     0
 91
        4
 64
     7
 65
   257
 75
     1
175
     1
 42
1.0
 92
        8
 66
   257
 43
1.0
 76
     1
 77
     6
 78
     2
 67
     8
425
  7895160
 79
     3
170
     0
171
     0
290
     0
174
     0
 93
        5
 44
0.0
173
     0
291
     0
 45
0.0
1001
ACAD
1000
AcDbSavedByObjectVersion
1070
     0
  0
VISUALSTYLE
  5
EB2
102
{ACAD_XDICTIONARY
360
FF4
102
}
102
{ACAD_REACTORS
330
E9E
102
}
330
E9E
100
AcDbVisualStyle
  2
Shaded with edges
 70
    26
 71
     2
 72
     2
 73
     1
 90
        2
 40
-0.6
 41
30.0
 62
     5
 63
     7
421
 16777215
 74
     1
 91
       10
 64
     7
 65
   257
 75
     2
175
     1
 42
1.0
 92
        8
 66
   257
 43
1.0
 76
     1
 77
     6
 78
     2
 67
     7
 79
     3
170
     0
171
     0
290
     0
174
     0
 93
        5
 44
0.0
173
     0
291
     0
 45
0.0
1001
ACAD
1000
AcDbSavedByObjectVersion
1070
     0
  0
VISUALSTYLE
  5
EAF
102
{ACAD_XDICTIONARY
360
FEE
102
}
102
{ACAD_REACTORS
330
E9E
102
}
330
E9E
100
AcDbVisualStyle
  2
Shades of Gray
 70
    23
 71
     2
 72
     2
 73
     3
 90
        0
 40
-0.6
 41
-30.0
 62
     5
 63
     7
421
 16777215
 74
     2
 91
        2
 64
     7
 65
     7
 75
     1
175
     1
 42
40.0
 92
        8
 66
     7
 43
1.0
 76
     1
 77
     6
 78
     2
 67
     7
 79
     3
170
     0
171
     0
290
     0
174
     0
 93
        1
 44
0.0
173
     0
291
     0
 45
0.0
1001
ACAD
1000
AcDbSavedByObjectVersion
1070
     0
  0
VISUALSTYLE
  5
EB0
102
{ACAD_XDICTIONARY
360
FF0
102
}
102
{ACAD_REACTORS
330
E9E
102
}
330
E9E
100
AcDbVisualStyle
  2
Sketchy
 70
    24
 71
     1
 72
     2
 73
     2
 90
        0
 40
-0.6
 41
-30.0
 62
     5
 63
     7
421
 16777215
 74
     2
 91
        2
 64
     7
 65
     7
 75
     1
175
     1
 42
40.0
 92
       11
 66
     7
 43
1.0
 76
     1
 77
     6
 78
     2
 67
     7
 79
     6
170
     0
171
     0
290
     0
174
     0
 93
        1
 44
0.0
173
     0
291
     0
 45
0.0
1001
ACAD
1000
AcDbSavedByObjectVersion
1070
     0
  0
VISUALSTYLE
  5
EAB
102
{ACAD_XDICTIONARY
360
FE6
102
}
102
{ACAD_REACTORS
330
E9E
102
}
330
E9E
100
AcDbVisualStyle
  2
Thicken
 70
    13
 71
     2
 72
     2
 73
     0
 90
        0
 40
-0.6
 41
-30.0
 62
     5
 63
     7
421
 16777215
 74
     1
 91
        4
 64
     7
 65
   257
 75
     1
175
     1
 42
1.0
 92
       12
 66
     7
 43
1.0
 76
     1
 77
     6
 78
     2
 67
     7
 79
     5
170
     0
171
     0
290
     0
174
     0
 93
        1
 44
0.0
173
     0
291
     1
 45
0.0
1001
ACAD
1000
AcDbSavedByObjectVersion
1070
     0
  0
VISUALSTYLE
  5
EA5
102
{ACAD_XDICTIONARY
360
FDA
102
}
102
{ACAD_REACTORS
330
E9E
102
}
330
E9E
100
AcDbVisualStyle
  2
Wireframe
 70
     5
 71
     0
 72
     2
 73
     0
 90
        0
 40
-0.6
 41
-30.0
 62
     5
 63
     7
421
 16777215
 74
     1
 91
        4
 64
     7
 65
   257
 75
     1
175
     1
 42
1.0
 92
        0
 66
   257
 43
1.0
 76
     1
 77
     6
 78
     2
 67
     7
 79
     3
170
     0
171
     0
290
     0
174
     0
 93
        1
 44
0.0
173
     0
291
     0
 45
0.0
1001
ACAD
1000
AcDbSavedByObjectVersion
1070
     0
  0
VISUALSTYLE
  5
EB1
102
{ACAD_XDICTIONARY
360
FF2
102
}
102
{ACAD_REACTORS
330
E9E
102
}
330
E9E
100
AcDbVisualStyle
  2
X-Ray
 70
    25
 71
     2
 72
     2
 73
     1
 90
        1
 40
0.5
 41
-30.0
 62
     5
 63
     7
421
 16777215
 74
     1
 91
        0
 64
     7
 65
   257
 75
     1
175
     1
 42
1.0
 92
        8
 66
     7
 43
1.0
 76
     1
 77
     6
 78
     2
 67
     7
 79
     3
170
     0
171
     0
290
     0
174
     0
 93
       13
 44
0.0
173
     0
291
     0
 45
0.0
1001
ACAD
1000
AcDbSavedByObjectVersion
1070
     0
  0
DICTIONARYVAR
  5
F26
102
{ACAD_REACTORS
330
1ED
102
}
330
1ED
100
DictionaryVariables
280
     0
  1
1:1
  0
DICTIONARYVAR
  5
F22
102
{ACAD_REACTORS
330
1ED
102
}
330
1ED
100
DictionaryVariables
280
     0
  1
STANDARD
  0
DICTIONARYVAR
  5
1EE
102
{ACAD_REACTORS
330
1ED
102
}
330
1ED
100
DictionaryVariables
280
     0
  1
STANDARD
  0
DICTIONARYVAR
  5
F23
102
{ACAD_REACTORS
330
1ED
102
}
330
1ED
100
DictionaryVariables
280
     0
  1
Metric50
  0
DICTIONARYVAR
  5
F24
102
{ACAD_REACTORS
330
1ED
102
}
330
1ED
100
DictionaryVariables
280
     0
  1
Metric50
  0
DICTIONARYVAR
  5
1EF
102
{ACAD_REACTORS
330
1ED
102
}
330
1ED
100
DictionaryVariables
280
     0
  1
1
  0
DICTIONARYVAR
  5
F28
102
{ACAD_REACTORS
330
1ED
102
}
330
1ED
100
DictionaryVariables
280
     0
  1
1
  0
DICTIONARYVAR
  5
F29
102
{ACAD_REACTORS
330
1ED
102
}
330
1ED
100
DictionaryVariables
280
     0
  1
15
  0
DICTIONARYVAR
  5
F27
102
{ACAD_REACTORS
330
1ED
102
}
330
1ED
100
DictionaryVariables
280
     0
  1
0
  0
DICTIONARYVAR
  5
F25
102
{ACAD_REACTORS
330
1ED
102
}
330
1ED
100
DictionaryVariables
280
     0
  1
0
  0
DICTIONARYVAR
  5
1F0
102
{ACAD_REACTORS
330
1ED
102
}
330
1ED
100
DictionaryVariables
280
     0
  1

  0
DICTIONARYVAR
  5
F5E
102
{ACAD_REACTORS
330
1ED
102
}
330
1ED
100
DictionaryVariables
280
     0
  1
2
  0
DICTIONARY
  5
FBB
102
{ACAD_REACTORS
330
FB9
102
}
330
FB9
100
AcDbDictionary
281
     1
  0
DICTIONARY
  5
FBA
102
{ACAD_REACTORS
330
FB9
102
}
330
FB9
100
AcDbDictionary
281
     1
  3
2128401056
350
FB4
  3
2128401064
350
FB5
  3
2128401072
350
FB6
  3
2128401080
350
FB7
  3
2128401088
350
FB8
  0
DICTIONARY
  5
1001
330
ECE
100
AcDbDictionary
280
     1
281
     1
  3
ACAD_XREC_ROUNDTRIP
360
1002
  0
DICTIONARY
  5
E8F
330
E8E
100
AcDbDictionary
280
     1
281
     1
  3
ACAD_XREC_ROUNDTRIP
360
FCC
  3
BUMPTILE
360
E91
  3
DIFFUSETILE
360
E90
  3
OPACITYTILE
360
E94
  3
REFLECTIONTILE
360
E93
  3
REFRACTIONTILE
360
E95
  3
SPECULARTILE
360
E92
  0
DICTIONARY
  5
E87
330
E86
100
AcDbDictionary
280
     1
281
     1
  3
ACAD_XREC_ROUNDTRIP
360
FCB
  3
BUMPTILE
360
E89
  3
DIFFUSETILE
360
E88
  3
OPACITYTILE
360
E8C
  3
REFLECTIONTILE
360
E8B
  3
REFRACTIONTILE
360
E8D
  3
SPECULARTILE
360
E8A
  0
DICTIONARY
  5
E97
330
E96
100
AcDbDictionary
280
     1
281
     1
  3
ACAD_XREC_ROUNDTRIP
360
FCD
  3
BUMPTILE
360
E99
  3
DIFFUSETILE
360
E98
  3
OPACITYTILE
360
E9C
  3
REFLECTIONTILE
360
E9B
  3
REFRACTIONTILE
360
E9D
  3
SPECULARTILE
360
E9A
  0
DICTIONARY
  5
FFF
330
ECC
100
AcDbDictionary
280
     1
281
     1
  3
ACAD_XREC_ROUNDTRIP
360
1000
  0
DICTIONARY
  5
FB1
330
15C
100
AcDbDictionary
280
     1
281
     1
  3
ACAD_ROUNDTRIP_2008_TABLESTYLE_CELLSTYLEMAP
360
FB2
  3
ACAD_XREC_ROUNDTRIP
360
FBE
  0
DICTIONARY
  5
FD8
330
EA4
100
AcDbDictionary
280
     1
281
     1
  3
ACAD_XREC_ROUNDTRIP
360
FD9
  0
DICTIONARY
  5
FD6
330
EA3
100
AcDbDictionary
280
     1
281
     1
  3
ACAD_XREC_ROUNDTRIP
360
FD7
  0
DICTIONARY
  5
FE4
330
EAA
100
AcDbDictionary
280
     1
281
     1
  3
ACAD_XREC_ROUNDTRIP
360
FE5
  0
DICTIONARY
  5
FEC
330
EAE
100
AcDbDictionary
280
     1
281
     1
  3
ACAD_XREC_ROUNDTRIP
360
FED
  0
DICTIONARY
  5
FDE
330
EA7
100
AcDbDictionary
280
     1
281
     1
  3
ACAD_XREC_ROUNDTRIP
360
FDF
  0
DICTIONARY
  5
FE2
330
EA9
100
AcDbDictionary
280
     1
281
     1
  3
ACAD_XREC_ROUNDTRIP
360
FE3
  0
DICTIONARY
  5
FFC
330
EB6
100
AcDbDictionary
280
     1
281
     1
  3
ACAD_XREC_ROUNDTRIP
360
FFD
  0
DICTIONARY
  5
FEA
330
EAD
100
AcDbDictionary
280
     1
281
     1
  3
ACAD_XREC_ROUNDTRIP
360
FEB
  0
DICTIONARY
  5
FCE
330
E9F
100
AcDbDictionary
280
     1
281
     1
  3
ACAD_XREC_ROUNDTRIP
360
FCF
  0
DICTIONARY
  5
FD0
330
EA0
100
AcDbDictionary
280
     1
281
     1
  3
ACAD_XREC_ROUNDTRIP
360
FD1
  0
DICTIONARY
  5
FD2
330
EA1
100
AcDbDictionary
280
     1
281
     1
  3
ACAD_XREC_ROUNDTRIP
360
FD3
  0
DICTIONARY
  5
FD4
330
EA2
100
AcDbDictionary
280
     1
281
     1
  3
ACAD_XREC_ROUNDTRIP
360
FD5
  0
DICTIONARY
  5
FDC
330
EA6
100
AcDbDictionary
280
     1
281
     1
  3
ACAD_XREC_ROUNDTRIP
360
FDD
  0
DICTIONARY
  5
FF8
330
EB4
100
AcDbDictionary
280
     1
281
     1
  3
ACAD_XREC_ROUNDTRIP
360
FF9
  0
DICTIONARY
  5
FE8
330
EAC
100
AcDbDictionary
280
     1
281
     1
  3
ACAD_XREC_ROUNDTRIP
360
FE9
  0
DICTIONARY
  5
FFA
330
EB5
100
AcDbDictionary
280
     1
281
     1
  3
ACAD_XREC_ROUNDTRIP
360
FFB
  0
DICTIONARY
  5
FE0
330
EA8
100
AcDbDictionary
280
     1
281
     1
  3
ACAD_XREC_ROUNDTRIP
360
FE1
  0
DICTIONARY
  5
FF6
330
EB3
100
AcDbDictionary
280
     1
281
     1
  3
ACAD_XREC_ROUNDTRIP
360
FF7
  0
DICTIONARY
  5
FF4
330
EB2
100
AcDbDictionary
280
     1
281
     1
  3
ACAD_XREC_ROUNDTRIP
360
FF5
  0
DICTIONARY
  5
FEE
330
EAF
100
AcDbDictionary
280
     1
281
     1
  3
ACAD_XREC_ROUNDTRIP
360
FEF
  0
DICTIONARY
  5
FF0
330
EB0
100
AcDbDictionary
280
     1
281
     1
  3
ACAD_XREC_ROUNDTRIP
360
FF1
  0
DICTIONARY
  5
FE6
330
EAB
100
AcDbDictionary
280
     1
281
     1
  3
ACAD_XREC_ROUNDTRIP
360
FE7
  0
DICTIONARY
  5
FDA
330
EA5
100
AcDbDictionary
280
     1
281
     1
  3
ACAD_XREC_ROUNDTRIP
360
FDB
  0
DICTIONARY
  5
FF2
330
EB1
100
AcDbDictionary
280
     1
281
     1
  3
ACAD_XREC_ROUNDTRIP
360
FF3
  0
XRECORD
  5
FB4
102
{ACAD_REACTORS
330
FBA
102
}
330
FBA
100
AcDbXrecord
280
     1
  1
AcDb_Thumbnail_Schema
102
{ATTRRECORD
341
FB5
  2
AcDbDs::TreatedAsObjectData
280
     1
291
     1
102
ATTRRECORD}
102
{ATTRRECORD
341
FB6
  2
AcDbDs::Legacy
280
     1
291
     1
102
ATTRRECORD}
  2
AcDbDs::ID
280
    10
 91
        8
102
{ATTRRECORD
341
FB7
  2
AcDs:Indexable
280
     1
291
     1
102
ATTRRECORD}
102
{ATTRRECORD
341
FB8
  2
AcDbDs::HandleAttribute
280
     7
282
     1
102
ATTRRECORD}
  2
Thumbnail_Data
280
    15
 91
        0
  0
XRECORD
  5
FB5
102
{ACAD_REACTORS
330
FBA
102
}
330
FBA
100
AcDbXrecord
280
     1
  1
AcDbDs::TreatedAsObjectDataSchema
  2
AcDbDs::TreatedAsObjectData
280
     1
 91
        0
  0
XRECORD
  5
FB6
102
{ACAD_REACTORS
330
FBA
102
}
330
FBA
100
AcDbXrecord
280
     1
  1
AcDbDs::LegacySchema
  2
AcDbDs::Legacy
280
     1
 91
        0
  0
XRECORD
  5
FB7
102
{ACAD_REACTORS
330
FBA
102
}
330
FBA
100
AcDbXrecord
280
     1
  1
AcDbDs::IndexedPropertySchema
  2
AcDs:Indexable
280
     1
 91
        0
  0
XRECORD
  5
FB8
102
{ACAD_REACTORS
330
FBA
102
}
330
FBA
100
AcDbXrecord
280
     1
  1
AcDbDs::HandleAttributeSchema
  2
AcDbDs::HandleAttribute
280
     7
 91
        1
284
     1
  0
XRECORD
  5
1002
102
{ACAD_REACTORS
330
1001
102
}
330
1001
100
AcDbXrecord
280
     1
102
DISPLAYNAME
  1
Metric50
102
FLAGS
 90
        0
  0
XRECORD
  5
FCC
102
{ACAD_REACTORS
330
E8F
102
}
330
E8F
100
AcDbXrecord
280
     1
102
MATERIAL
148
0.0
149
0.0
149
0.0
 93
        0
 94
      127
282
     0
 72
     0
 77
     0
171
     0
175
     0
179
     0
273
     0
  0
XRECORD
  5
E91
102
{ACAD_REACTORS
330
E8F
102
}
330
E8F
100
AcDbXrecord
280
     1
270
     1
271
     1
  0
XRECORD
  5
E90
102
{ACAD_REACTORS
330
E8F
102
}
330
E8F
100
AcDbXrecord
280
     1
270
     1
271
     1
  0
XRECORD
  5
E94
102
{ACAD_REACTORS
330
E8F
102
}
330
E8F
100
AcDbXrecord
280
     1
270
     1
271
     1
  0
XRECORD
  5
E93
102
{ACAD_REACTORS
330
E8F
102
}
330
E8F
100
AcDbXrecord
280
     1
270
     1
271
     1
  0
XRECORD
  5
E95
102
{ACAD_REACTORS
330
E8F
102
}
330
E8F
100
AcDbXrecord
280
     1
270
     1
271
     1
  0
XRECORD
  5
E92
102
{ACAD_REACTORS
330
E8F
102
}
330
E8F
100
AcDbXrecord
280
     1
270
     1
271
     1
  0
XRECORD
  5
FCB
102
{ACAD_REACTORS
330
E87
102
}
330
E87
100
AcDbXrecord
280
     1
102
MATERIAL
148
0.0
149
0.0
149
0.0
 93
        0
 94
      127
282
     0
 72
     0
 77
     0
171
     0
175
     0
179
     0
273
     0
  0
XRECORD
  5
E89
102
{ACAD_REACTORS
330
E87
102
}
330
E87
100
AcDbXrecord
280
     1
270
     1
271
     1
  0
XRECORD
  5
E88
102
{ACAD_REACTORS
330
E87
102
}
330
E87
100
AcDbXrecord
280
     1
270
     1
271
     1
  0
XRECORD
  5
E8C
102
{ACAD_REACTORS
330
E87
102
}
330
E87
100
AcDbXrecord
280
     1
270
     1
271
     1
  0
XRECORD
  5
E8B
102
{ACAD_REACTORS
330
E87
102
}
330
E87
100
AcDbXrecord
280
     1
270
     1
271
     1
  0
XRECORD
  5
E8D
102
{ACAD_REACTORS
330
E87
102
}
330
E87
100
AcDbXrecord
280
     1
270
     1
271
     1
  0
XRECORD
  5
E8A
102
{ACAD_REACTORS
330
E87
102
}
330
E87
100
AcDbXrecord
280
     1
270
     1
271
     1
  0
XRECORD
  5
FCD
102
{ACAD_REACTORS
330
E97
102
}
330
E97
100
AcDbXrecord
280
     1
102
MATERIAL
148
0.0
149
0.0
149
0.0
 93
        0
 94
      127
282
     0
 72
     0
 77
     0
171
     0
175
     0
179
     0
273
     0
  0
XRECORD
  5
E99
102
{ACAD_REACTORS
330
E97
102
}
330
E97
100
AcDbXrecord
280
     1
270
     1
271
     1
  0
XRECORD
  5
E98
102
{ACAD_REACTORS
330
E97
102
}
330
E97
100
AcDbXrecord
280
     1
270
     1
271
     1
  0
XRECORD
  5
E9C
102
{ACAD_REACTORS
330
E97
102
}
330
E97
100
AcDbXrecord
280
     1
270
     1
271
     1
  0
XRECORD
  5
E9B
102
{ACAD_REACTORS
330
E97
102
}
330
E97
100
AcDbXrecord
280
     1
270
     1
271
     1
  0
XRECORD
  5
E9D
102
{ACAD_REACTORS
330
E97
102
}
330
E97
100
AcDbXrecord
280
     1
270
     1
271
     1
  0
XRECORD
  5
E9A
102
{ACAD_REACTORS
330
E97
102
}
330
E97
100
AcDbXrecord
280
     1
270
     1
271
     1
  0
XRECORD
  5
1000
102
{ACAD_REACTORS
330
FFF
102
}
330
FFF
100
AcDbXrecord
280
     1
102
DISPLAYNAME
  1
Metric50
102
FLAGS
 90
        0
  0
CELLSTYLEMAP
  5
FB2
102
{ACAD_REACTORS
330
FB1
102
}
330
FB1
100
AcDbCellStyleMap
 90
        3
300
CELLSTYLE
  1
TABLEFORMAT_BEGIN
 90
        5
170
     1
 91
        0
 92
    32768
 62
   257
 93
        1
300
CONTENTFORMAT
  1
CONTENTFORMAT_BEGIN
 90
        0
 91
        0
 92
        4
 93
        0
300

 40
0.0
140
1.0
 94
        5
 62
     0
340
11
144
6.0
309
CONTENTFORMAT_END
171
     1
301
MARGIN
  1
CELLMARGIN_BEGIN
 40
1.5
 40
1.5
 40
1.5
 40
1.5
 40
0.18
 40
0.18
309
CELLMARGIN_END
 94
        6
 95
        1
302
GRIDFORMAT
  1
GRIDFORMAT_BEGIN
 90
        0
 91
        1
 62
     0
 92
       -2
340
0
 93
        0
 40
0.045
309
GRIDFORMAT_END
 95
        2
302
GRIDFORMAT
  1
GRIDFORMAT_BEGIN
 90
        0
 91
        1
 62
     0
 92
       -2
340
0
 93
        0
 40
0.045
309
GRIDFORMAT_END
 95
        4
302
GRIDFORMAT
  1
GRIDFORMAT_BEGIN
 90
        0
 91
        1
 62
     0
 92
       -2
340
0
 93
        0
 40
0.045
309
GRIDFORMAT_END
 95
        8
302
GRIDFORMAT
  1
GRIDFORMAT_BEGIN
 90
        0
 91
        1
 62
     0
 92
       -2
340
0
 93
        0
 40
0.045
309
GRIDFORMAT_END
 95
       16
302
GRIDFORMAT
  1
GRIDFORMAT_BEGIN
 90
        0
 91
        1
 62
     0
 92
       -2
340
0
 93
        0
 40
0.045
309
GRIDFORMAT_END
 95
       32
302
GRIDFORMAT
  1
GRIDFORMAT_BEGIN
 90
        0
 91
        1
 62
     0
 92
       -2
340
0
 93
        0
 40
0.045
309
GRIDFORMAT_END
309
TABLEFORMAT_END
  1
CELLSTYLE_BEGIN
 90
        1
 91
        1
300
_TITLE
309
CELLSTYLE_END
300
CELLSTYLE
  1
TABLEFORMAT_BEGIN
 90
        5
170
     1
 91
        0
 92
        0
 62
   257
 93
        1
300
CONTENTFORMAT
  1
CONTENTFORMAT_BEGIN
 90
        0
 91
        0
 92
        4
 93
        0
300

 40
0.0
140
1.0
 94
        5
 62
     0
340
11
144
4.5
309
CONTENTFORMAT_END
171
     1
301
MARGIN
  1
CELLMARGIN_BEGIN
 40
1.5
 40
1.5
 40
1.5
 40
1.5
 40
0.18
 40
0.18
309
CELLMARGIN_END
 94
        6
 95
        1
302
GRIDFORMAT
  1
GRIDFORMAT_BEGIN
 90
        0
 91
        1
 62
     0
 92
       -2
340
0
 93
        0
 40
0.045
309
GRIDFORMAT_END
 95
        2
302
GRIDFORMAT
  1
GRIDFORMAT_BEGIN
 90
        0
 91
        1
 62
     0
 92
       -2
340
0
 93
        0
 40
0.045
309
GRIDFORMAT_END
 95
        4
302
GRIDFORMAT
  1
GRIDFORMAT_BEGIN
 90
        0
 91
        1
 62
     0
 92
       -2
340
0
 93
        0
 40
0.045
309
GRIDFORMAT_END
 95
        8
302
GRIDFORMAT
  1
GRIDFORMAT_BEGIN
 90
        0
 91
        1
 62
     0
 92
       -2
340
0
 93
        0
 40
0.045
309
GRIDFORMAT_END
 95
       16
302
GRIDFORMAT
  1
GRIDFORMAT_BEGIN
 90
        0
 91
        1
 62
     0
 92
       -2
340
0
 93
        0
 40
0.045
309
GRIDFORMAT_END
 95
       32
302
GRIDFORMAT
  1
GRIDFORMAT_BEGIN
 90
        0
 91
        1
 62
     0
 92
       -2
340
0
 93
        0
 40
0.045
309
GRIDFORMAT_END
309
TABLEFORMAT_END
  1
CELLSTYLE_BEGIN
 90
        2
 91
        1
300
_HEADER
309
CELLSTYLE_END
300
CELLSTYLE
  1
TABLEFORMAT_BEGIN
 90
        5
170
     1
 91
        0
 92
        0
 62
   257
 93
        1
300
CONTENTFORMAT
  1
CONTENTFORMAT_BEGIN
 90
        0
 91
        0
 92
        4
 93
        0
300

 40
0.0
140
1.0
 94
        2
 62
     0
340
11
144
4.5
309
CONTENTFORMAT_END
171
     1
301
MARGIN
  1
CELLMARGIN_BEGIN
 40
1.5
 40
1.5
 40
1.5
 40
1.5
 40
0.18
 40
0.18
309
CELLMARGIN_END
 94
        6
 95
        1
302
GRIDFORMAT
  1
GRIDFORMAT_BEGIN
 90
        0
 91
        1
 62
     0
 92
       -2
340
0
 93
        0
 40
0.045
309
GRIDFORMAT_END
 95
        2
302
GRIDFORMAT
  1
GRIDFORMAT_BEGIN
 90
        0
 91
        1
 62
     0
 92
       -2
340
0
 93
        0
 40
0.045
309
GRIDFORMAT_END
 95
        4
302
GRIDFORMAT
  1
GRIDFORMAT_BEGIN
 90
        0
 91
        1
 62
     0
 92
       -2
340
0
 93
        0
 40
0.045
309
GRIDFORMAT_END
 95
        8
302
GRIDFORMAT
  1
GRIDFORMAT_BEGIN
 90
        0
 91
        1
 62
     0
 92
       -2
340
0
 93
        0
 40
0.045
309
GRIDFORMAT_END
 95
       16
302
GRIDFORMAT
  1
GRIDFORMAT_BEGIN
 90
        0
 91
        1
 62
     0
 92
       -2
340
0
 93
        0
 40
0.045
309
GRIDFORMAT_END
 95
       32
302
GRIDFORMAT
  1
GRIDFORMAT_BEGIN
 90
        0
 91
        1
 62
     0
 92
       -2
340
0
 93
        0
 40
0.045
309
GRIDFORMAT_END
309
TABLEFORMAT_END
  1
CELLSTYLE_BEGIN
 90
        3
 91
        2
300
_DATA
309
CELLSTYLE_END
  0
XRECORD
  5
FBE
102
{ACAD_REACTORS
330
FB1
102
}
330
FB1
100
AcDbXrecord
280
     1
102
ACAD_ROUNDTRIP_PRE2007_TABLESTYLE
 90
        4
 91
        0
  1

 92
        4
 93
        0
  2

 94
        4
 95
        0
  3

  0
XRECORD
  5
FD9
102
{ACAD_REACTORS
330
FD8
102
}
330
FD8
100
AcDbXrecord
280
     1
102
RTVSPost2010Prop28
280
     1
102
RTVSPost2010PropOp28
 70
     1
102
RTVSPost2010Prop29
280
     1
102
RTVSPost2010PropOp29
 70
     1
102
RTVSPost2010Prop30
280
     0
102
RTVSPost2010PropOp30
 70
     1
102
RTVSPost2010Prop31
280
     0
102
RTVSPost2010PropOp31
 70
     1
102
RTVSPost2010Prop32
280
     0
102
RTVSPost2010PropOp32
 70
     1
102
RTVSPost2010Prop33
280
     0
102
RTVSPost2010PropOp33
 70
     1
102
RTVSPost2010Prop34
280
     0
102
RTVSPost2010PropOp34
 70
     1
102
RTVSPost2010Prop35
280
     0
102
RTVSPost2010PropOp35
 70
     1
102
RTVSPost2010Prop36
280
     0
102
RTVSPost2010PropOp36
 70
     1
102
RTVSPost2010Prop37
 90
       50
102
RTVSPost2010PropOp37
 70
     1
102
RTVSPost2010Prop38
140
0.0
102
RTVSPost2010PropOp38
 70
     1
102
RTVSPost2010Prop39
140
1.0
102
RTVSPost2010PropOp39
 70
     1
102
RTVSPost2010Prop40
 90
        0
102
RTVSPost2010PropOp40
 70
     1
102
RTVSPost2010Prop41ColorIndex
 90
       18
102
RTVSPost2010Prop41ColorRGB
 90
        0
102
RTVSPost2010PropOp41
 70
     1
102
RTVSPost2010Prop42
 90
       50
102
RTVSPost2010PropOp42
 70
     1
102
RTVSPost2010Prop43
 90
        3
102
RTVSPost2010PropOp43
 70
     1
102
RTVSPost2010Prop44ColorIndex
 90
        5
102
RTVSPost2010Prop44ColorRGB
 90
      255
102
RTVSPost2010PropOp44
 70
     1
102
RTVSPost2010Prop45
280
     0
102
RTVSPost2010PropOp45
 70
     1
102
RTVSPost2010Prop46
 90
       50
102
RTVSPost2010PropOp46
 70
     1
102
RTVSPost2010Prop47
 90
       50
102
RTVSPost2010PropOp47
 70
     1
102
RTVSPost2010Prop48
 90
       50
102
RTVSPost2010PropOp48
 70
     1
102
RTVSPost2010Prop49
280
     0
102
RTVSPost2010PropOp49
 70
     1
102
RTVSPost2010Prop50
 90
       50
102
RTVSPost2010PropOp50
 70
     1
102
RTVSPost2010Prop51ColorIndex
 90
      256
102
RTVSPost2010Prop51ColorRGB
 90
-16777216
102
RTVSPost2010PropOp51
 70
     0
102
RTVSPost2010Prop52
140
1.0
102
RTVSPost2010PropOp52
 70
     0
102
RTVSPost2010Prop53
 90
        2
102
RTVSPost2010PropOp53
 70
     1
102
RTVSPost2010Prop54
  1
strokes_ogs.tif
102
RTVSPost2010PropOp54
 70
     1
102
RTVSPost2010Prop55
280
     0
102
RTVSPost2010PropOp55
 70
     1
102
RTVSPost2010Prop56
140
1.0
102
RTVSPost2010PropOp56
 70
     1
102
RTVSPost2010Prop57
140
1.0
102
RTVSPost2010PropOp57
 70
     1
102
RTVSPropertyOp0
 70
     1
102
RTVSPropertyOp1
 70
     1
102
RTVSPropertyOp2
 70
     1
102
RTVSPropertyOp3
 70
     1
102
RTVSPropertyOp4
 70
     1
102
RTVSPropertyOp5
 70
     1
102
RTVSPropertyOp6
 70
     1
102
RTVSPropertyOp7
 70
     1
102
RTVSPropertyOp8
 70
     1
102
RTVSPropertyOp9
 70
     1
102
RTVSPropertyOp10
 70
     1
102
RTVSPropertyOp11
 70
     1
102
RTVSPropertyOp12
 70
     1
102
RTVSPropertyOp13
 70
     1
102
RTVSPropertyOp14
 70
     1
102
RTVSPropertyOp15
 70
     1
102
RTVSPropertyOp16
 70
     1
102
RTVSPropertyOp17
 70
     1
102
RTVSPropertyOp18
 70
     1
102
RTVSPropertyOp19
 70
     1
102
RTVSPropertyOp20
 70
     1
102
RTVSPropertyOp21
 70
     1
102
RTVSPropertyOp22
 70
     1
102
RTVSPropertyOp23
 70
     1
102
RTVSPropertyOp24
 70
     1
102
RTVSPropertyOp25
 70
     1
102
RTVSPropertyOp26
 70
     1
102
RTVSPropertyOp27
 70
     1
102
RTVSPropertyOp28
 70
     1
102
RTVSPropertyOp29
 70
     1
102
RTVSPropertyOp30
 70
     1
102
RTVSPropertyOp31
 70
     1
102
RTVSPropertyOp32
 70
     1
102
RTVSPropertyOp33
 70
     1
102
RTVSPropertyOp34
 70
     1
102
RTVSPropertyOp35
 70
     1
102
RTVSPropertyOp36
 70
     1
102
RTVSPropertyOp37
 70
     1
102
RTVSPropertyOp38
 70
     1
102
RTVSPropertyOp39
 70
     1
102
RTVSPropertyOp40
 70
     1
102
RTVSPropertyOp41
 70
     1
102
RTVSPropertyOp42
 70
     1
102
RTVSPropertyOp43
 70
     1
102
RTVSPropertyOp44
 70
     1
102
RTVSPropertyOp45
 70
     1
102
RTVSPropertyOp46
 70
     1
102
RTVSPropertyOp47
 70
     1
102
RTVSPropertyOp48
 70
     1
102
RTVSPropertyOp49
 70
     1
102
RTVSPropertyOp50
 70
     1
102
RTVSPropertyOp51
 70
     0
102
RTVSPropertyOp52
 70
     0
102
RTVSPropertyOp53
 70
     1
102
RTVSPropertyOp54
 70
     1
102
RTVSPropertyOp55
 70
     1
102
RTVSPropertyOp56
 70
     1
102
RTVSPropertyOp57
 70
     1
102
RTVSPropertyOp58
 70
     1
102
RTVSPropertyOp59
 70
     1
102
RTVSPropertyOp60
 70
     1
102
RTVSPropertyOp61
 70
     1
102
RTVSPropertyOp62
 70
     1
  0
XRECORD
  5
FD7
102
{ACAD_REACTORS
330
FD6
102
}
330
FD6
100
AcDbXrecord
280
     1
102
RTVSPost2010Prop28
280
     0
102
RTVSPost2010PropOp28
 70
     1
102
RTVSPost2010Prop29
280
     1
102
RTVSPost2010PropOp29
 70
     1
102
RTVSPost2010Prop30
280
     1
102
RTVSPost2010PropOp30
 70
     1
102
RTVSPost2010Prop31
280
     0
102
RTVSPost2010PropOp31
 70
     1
102
RTVSPost2010Prop32
280
     0
102
RTVSPost2010PropOp32
 70
     1
102
RTVSPost2010Prop33
280
     0
102
RTVSPost2010PropOp33
 70
     1
102
RTVSPost2010Prop34
280
     0
102
RTVSPost2010PropOp34
 70
     1
102
RTVSPost2010Prop35
280
     0
102
RTVSPost2010PropOp35
 70
     1
102
RTVSPost2010Prop36
280
     0
102
RTVSPost2010PropOp36
 70
     1
102
RTVSPost2010Prop37
 90
       50
102
RTVSPost2010PropOp37
 70
     1
102
RTVSPost2010Prop38
140
0.0
102
RTVSPost2010PropOp38
 70
     1
102
RTVSPost2010Prop39
140
1.0
102
RTVSPost2010PropOp39
 70
     1
102
RTVSPost2010Prop40
 90
        0
102
RTVSPost2010PropOp40
 70
     1
102
RTVSPost2010Prop41ColorIndex
 90
       18
102
RTVSPost2010Prop41ColorRGB
 90
        0
102
RTVSPost2010PropOp41
 70
     1
102
RTVSPost2010Prop42
 90
       50
102
RTVSPost2010PropOp42
 70
     1
102
RTVSPost2010Prop43
 90
        3
102
RTVSPost2010PropOp43
 70
     1
102
RTVSPost2010Prop44ColorIndex
 90
        5
102
RTVSPost2010Prop44ColorRGB
 90
      255
102
RTVSPost2010PropOp44
 70
     1
102
RTVSPost2010Prop45
280
     0
102
RTVSPost2010PropOp45
 70
     1
102
RTVSPost2010Prop46
 90
       50
102
RTVSPost2010PropOp46
 70
     1
102
RTVSPost2010Prop47
 90
       50
102
RTVSPost2010PropOp47
 70
     1
102
RTVSPost2010Prop48
 90
       50
102
RTVSPost2010PropOp48
 70
     1
102
RTVSPost2010Prop49
280
     0
102
RTVSPost2010PropOp49
 70
     1
102
RTVSPost2010Prop50
 90
       50
102
RTVSPost2010PropOp50
 70
     1
102
RTVSPost2010Prop51ColorIndex
 90
      256
102
RTVSPost2010Prop51ColorRGB
 90
-16777216
102
RTVSPost2010PropOp51
 70
     0
102
RTVSPost2010Prop52
140
1.0
102
RTVSPost2010PropOp52
 70
     0
102
RTVSPost2010Prop53
 90
        2
102
RTVSPost2010PropOp53
 70
     1
102
RTVSPost2010Prop54
  1
strokes_ogs.tif
102
RTVSPost2010PropOp54
 70
     1
102
RTVSPost2010Prop55
280
     0
102
RTVSPost2010PropOp55
 70
     1
102
RTVSPost2010Prop56
140
1.0
102
RTVSPost2010PropOp56
 70
     1
102
RTVSPost2010Prop57
140
1.0
102
RTVSPost2010PropOp57
 70
     1
102
RTVSPropertyOp0
 70
     1
102
RTVSPropertyOp1
 70
     1
102
RTVSPropertyOp2
 70
     1
102
RTVSPropertyOp3
 70
     1
102
RTVSPropertyOp4
 70
     1
102
RTVSPropertyOp5
 70
     1
102
RTVSPropertyOp6
 70
     1
102
RTVSPropertyOp7
 70
     1
102
RTVSPropertyOp8
 70
     1
102
RTVSPropertyOp9
 70
     1
102
RTVSPropertyOp10
 70
     1
102
RTVSPropertyOp11
 70
     1
102
RTVSPropertyOp12
 70
     1
102
RTVSPropertyOp13
 70
     1
102
RTVSPropertyOp14
 70
     1
102
RTVSPropertyOp15
 70
     1
102
RTVSPropertyOp16
 70
     1
102
RTVSPropertyOp17
 70
     1
102
RTVSPropertyOp18
 70
     1
102
RTVSPropertyOp19
 70
     1
102
RTVSPropertyOp20
 70
     1
102
RTVSPropertyOp21
 70
     1
102
RTVSPropertyOp22
 70
     1
102
RTVSPropertyOp23
 70
     1
102
RTVSPropertyOp24
 70
     1
102
RTVSPropertyOp25
 70
     1
102
RTVSPropertyOp26
 70
     1
102
RTVSPropertyOp27
 70
     1
102
RTVSPropertyOp28
 70
     1
102
RTVSPropertyOp29
 70
     1
102
RTVSPropertyOp30
 70
     1
102
RTVSPropertyOp31
 70
     1
102
RTVSPropertyOp32
 70
     1
102
RTVSPropertyOp33
 70
     1
102
RTVSPropertyOp34
 70
     1
102
RTVSPropertyOp35
 70
     1
102
RTVSPropertyOp36
 70
     1
102
RTVSPropertyOp37
 70
     1
102
RTVSPropertyOp38
 70
     1
102
RTVSPropertyOp39
 70
     1
102
RTVSPropertyOp40
 70
     1
102
RTVSPropertyOp41
 70
     1
102
RTVSPropertyOp42
 70
     1
102
RTVSPropertyOp43
 70
     1
102
RTVSPropertyOp44
 70
     1
102
RTVSPropertyOp45
 70
     1
102
RTVSPropertyOp46
 70
     1
102
RTVSPropertyOp47
 70
     1
102
RTVSPropertyOp48
 70
     1
102
RTVSPropertyOp49
 70
     1
102
RTVSPropertyOp50
 70
     1
102
RTVSPropertyOp51
 70
     0
102
RTVSPropertyOp52
 70
     0
102
RTVSPropertyOp53
 70
     1
102
RTVSPropertyOp54
 70
     1
102
RTVSPropertyOp55
 70
     1
102
RTVSPropertyOp56
 70
     1
102
RTVSPropertyOp57
 70
     1
102
RTVSPropertyOp58
 70
     1
102
RTVSPropertyOp59
 70
     1
102
RTVSPropertyOp60
 70
     1
102
RTVSPropertyOp61
 70
     1
102
RTVSPropertyOp62
 70
     1
  0
XRECORD
  5
FE5
102
{ACAD_REACTORS
330
FE4
102
}
330
FE4
100
AcDbXrecord
280
     1
102
RTVSPost2010Prop28
280
     0
102
RTVSPost2010PropOp28
 70
     1
102
RTVSPost2010Prop29
280
     1
102
RTVSPost2010PropOp29
 70
     1
102
RTVSPost2010Prop30
280
     1
102
RTVSPost2010PropOp30
 70
     1
102
RTVSPost2010Prop31
280
     0
102
RTVSPost2010PropOp31
 70
     1
102
RTVSPost2010Prop32
280
     0
102
RTVSPost2010PropOp32
 70
     1
102
RTVSPost2010Prop33
280
     0
102
RTVSPost2010PropOp33
 70
     1
102
RTVSPost2010Prop34
280
     0
102
RTVSPost2010PropOp34
 70
     1
102
RTVSPost2010Prop35
280
     0
102
RTVSPost2010PropOp35
 70
     1
102
RTVSPost2010Prop36
280
     0
102
RTVSPost2010PropOp36
 70
     1
102
RTVSPost2010Prop37
 90
       50
102
RTVSPost2010PropOp37
 70
     1
102
RTVSPost2010Prop38
140
0.0
102
RTVSPost2010PropOp38
 70
     1
102
RTVSPost2010Prop39
140
1.0
102
RTVSPost2010PropOp39
 70
     1
102
RTVSPost2010Prop40
 90
        0
102
RTVSPost2010PropOp40
 70
     1
102
RTVSPost2010Prop41ColorIndex
 90
       18
102
RTVSPost2010Prop41ColorRGB
 90
        0
102
RTVSPost2010PropOp41
 70
     1
102
RTVSPost2010Prop42
 90
       50
102
RTVSPost2010PropOp42
 70
     1
102
RTVSPost2010Prop43
 90
        3
102
RTVSPost2010PropOp43
 70
     1
102
RTVSPost2010Prop44ColorIndex
 90
        5
102
RTVSPost2010Prop44ColorRGB
 90
      255
102
RTVSPost2010PropOp44
 70
     1
102
RTVSPost2010Prop45
280
     0
102
RTVSPost2010PropOp45
 70
     1
102
RTVSPost2010Prop46
 90
       50
102
RTVSPost2010PropOp46
 70
     1
102
RTVSPost2010Prop47
 90
       50
102
RTVSPost2010PropOp47
 70
     1
102
RTVSPost2010Prop48
 90
       50
102
RTVSPost2010PropOp48
 70
     1
102
RTVSPost2010Prop49
280
     0
102
RTVSPost2010PropOp49
 70
     1
102
RTVSPost2010Prop50
 90
       50
102
RTVSPost2010PropOp50
 70
     1
102
RTVSPost2010Prop51ColorIndex
 90
      256
102
RTVSPost2010Prop51ColorRGB
 90
-16777216
102
RTVSPost2010PropOp51
 70
     0
102
RTVSPost2010Prop52
140
1.0
102
RTVSPost2010PropOp52
 70
     0
102
RTVSPost2010Prop53
 90
        2
102
RTVSPost2010PropOp53
 70
     1
102
RTVSPost2010Prop54
  1
strokes_ogs.tif
102
RTVSPost2010PropOp54
 70
     1
102
RTVSPost2010Prop55
280
     0
102
RTVSPost2010PropOp55
 70
     1
102
RTVSPost2010Prop56
140
1.0
102
RTVSPost2010PropOp56
 70
     1
102
RTVSPost2010Prop57
140
1.0
102
RTVSPost2010PropOp57
 70
     1
102
RTVSPropertyOp0
 70
     1
102
RTVSPropertyOp1
 70
     1
102
RTVSPropertyOp2
 70
     1
102
RTVSPropertyOp3
 70
     1
102
RTVSPropertyOp4
 70
     1
102
RTVSPropertyOp5
 70
     1
102
RTVSPropertyOp6
 70
     1
102
RTVSPropertyOp7
 70
     1
102
RTVSPropertyOp8
 70
     1
102
RTVSPropertyOp9
 70
     1
102
RTVSPropertyOp10
 70
     1
102
RTVSPropertyOp11
 70
     1
102
RTVSPropertyOp12
 70
     1
102
RTVSPropertyOp13
 70
     1
102
RTVSPropertyOp14
 70
     1
102
RTVSPropertyOp15
 70
     1
102
RTVSPropertyOp16
 70
     1
102
RTVSPropertyOp17
 70
     1
102
RTVSPropertyOp18
 70
     1
102
RTVSPropertyOp19
 70
     1
102
RTVSPropertyOp20
 70
     1
102
RTVSPropertyOp21
 70
     1
102
RTVSPropertyOp22
 70
     1
102
RTVSPropertyOp23
 70
     1
102
RTVSPropertyOp24
 70
     1
102
RTVSPropertyOp25
 70
     1
102
RTVSPropertyOp26
 70
     1
102
RTVSPropertyOp27
 70
     1
102
RTVSPropertyOp28
 70
     1
102
RTVSPropertyOp29
 70
     1
102
RTVSPropertyOp30
 70
     1
102
RTVSPropertyOp31
 70
     1
102
RTVSPropertyOp32
 70
     1
102
RTVSPropertyOp33
 70
     1
102
RTVSPropertyOp34
 70
     1
102
RTVSPropertyOp35
 70
     1
102
RTVSPropertyOp36
 70
     1
102
RTVSPropertyOp37
 70
     1
102
RTVSPropertyOp38
 70
     1
102
RTVSPropertyOp39
 70
     1
102
RTVSPropertyOp40
 70
     1
102
RTVSPropertyOp41
 70
     1
102
RTVSPropertyOp42
 70
     1
102
RTVSPropertyOp43
 70
     1
102
RTVSPropertyOp44
 70
     1
102
RTVSPropertyOp45
 70
     1
102
RTVSPropertyOp46
 70
     1
102
RTVSPropertyOp47
 70
     1
102
RTVSPropertyOp48
 70
     1
102
RTVSPropertyOp49
 70
     1
102
RTVSPropertyOp50
 70
     1
102
RTVSPropertyOp51
 70
     0
102
RTVSPropertyOp52
 70
     0
102
RTVSPropertyOp53
 70
     1
102
RTVSPropertyOp54
 70
     1
102
RTVSPropertyOp55
 70
     1
102
RTVSPropertyOp56
 70
     1
102
RTVSPropertyOp57
 70
     1
102
RTVSPropertyOp58
 70
     1
102
RTVSPropertyOp59
 70
     1
102
RTVSPropertyOp60
 70
     1
102
RTVSPropertyOp61
 70
     1
102
RTVSPropertyOp62
 70
     1
  0
XRECORD
  5
FED
102
{ACAD_REACTORS
330
FEC
102
}
330
FEC
100
AcDbXrecord
280
     1
102
RTVSPost2010Prop28
280
     0
102
RTVSPost2010PropOp28
 70
     1
102
RTVSPost2010Prop29
280
     1
102
RTVSPost2010PropOp29
 70
     1
102
RTVSPost2010Prop30
280
     1
102
RTVSPost2010PropOp30
 70
     1
102
RTVSPost2010Prop31
280
     0
102
RTVSPost2010PropOp31
 70
     1
102
RTVSPost2010Prop32
280
     0
102
RTVSPost2010PropOp32
 70
     1
102
RTVSPost2010Prop33
280
     0
102
RTVSPost2010PropOp33
 70
     1
102
RTVSPost2010Prop34
280
     0
102
RTVSPost2010PropOp34
 70
     1
102
RTVSPost2010Prop35
280
     0
102
RTVSPost2010PropOp35
 70
     1
102
RTVSPost2010Prop36
280
     0
102
RTVSPost2010PropOp36
 70
     1
102
RTVSPost2010Prop37
 90
       50
102
RTVSPost2010PropOp37
 70
     1
102
RTVSPost2010Prop38
140
0.0
102
RTVSPost2010PropOp38
 70
     1
102
RTVSPost2010Prop39
140
1.0
102
RTVSPost2010PropOp39
 70
     1
102
RTVSPost2010Prop40
 90
        0
102
RTVSPost2010PropOp40
 70
     1
102
RTVSPost2010Prop41ColorIndex
 90
       18
102
RTVSPost2010Prop41ColorRGB
 90
        0
102
RTVSPost2010PropOp41
 70
     1
102
RTVSPost2010Prop42
 90
       50
102
RTVSPost2010PropOp42
 70
     1
102
RTVSPost2010Prop43
 90
        3
102
RTVSPost2010PropOp43
 70
     1
102
RTVSPost2010Prop44ColorIndex
 90
        5
102
RTVSPost2010Prop44ColorRGB
 90
      255
102
RTVSPost2010PropOp44
 70
     1
102
RTVSPost2010Prop45
280
     0
102
RTVSPost2010PropOp45
 70
     1
102
RTVSPost2010Prop46
 90
       50
102
RTVSPost2010PropOp46
 70
     1
102
RTVSPost2010Prop47
 90
       50
102
RTVSPost2010PropOp47
 70
     1
102
RTVSPost2010Prop48
 90
       50
102
RTVSPost2010PropOp48
 70
     1
102
RTVSPost2010Prop49
280
     0
102
RTVSPost2010PropOp49
 70
     1
102
RTVSPost2010Prop50
 90
       50
102
RTVSPost2010PropOp50
 70
     1
102
RTVSPost2010Prop51ColorIndex
 90
      256
102
RTVSPost2010Prop51ColorRGB
 90
-16777216
102
RTVSPost2010PropOp51
 70
     0
102
RTVSPost2010Prop52
140
1.0
102
RTVSPost2010PropOp52
 70
     0
102
RTVSPost2010Prop53
 90
        2
102
RTVSPost2010PropOp53
 70
     1
102
RTVSPost2010Prop54
  1
strokes_ogs.tif
102
RTVSPost2010PropOp54
 70
     1
102
RTVSPost2010Prop55
280
     0
102
RTVSPost2010PropOp55
 70
     1
102
RTVSPost2010Prop56
140
1.0
102
RTVSPost2010PropOp56
 70
     1
102
RTVSPost2010Prop57
140
1.0
102
RTVSPost2010PropOp57
 70
     1
102
RTVSPropertyOp0
 70
     1
102
RTVSPropertyOp1
 70
     1
102
RTVSPropertyOp2
 70
     1
102
RTVSPropertyOp3
 70
     1
102
RTVSPropertyOp4
 70
     1
102
RTVSPropertyOp5
 70
     1
102
RTVSPropertyOp6
 70
     1
102
RTVSPropertyOp7
 70
     1
102
RTVSPropertyOp8
 70
     1
102
RTVSPropertyOp9
 70
     1
102
RTVSPropertyOp10
 70
     1
102
RTVSPropertyOp11
 70
     1
102
RTVSPropertyOp12
 70
     1
102
RTVSPropertyOp13
 70
     1
102
RTVSPropertyOp14
 70
     1
102
RTVSPropertyOp15
 70
     1
102
RTVSPropertyOp16
 70
     1
102
RTVSPropertyOp17
 70
     1
102
RTVSPropertyOp18
 70
     1
102
RTVSPropertyOp19
 70
     1
102
RTVSPropertyOp20
 70
     1
102
RTVSPropertyOp21
 70
     1
102
RTVSPropertyOp22
 70
     1
102
RTVSPropertyOp23
 70
     1
102
RTVSPropertyOp24
 70
     1
102
RTVSPropertyOp25
 70
     1
102
RTVSPropertyOp26
 70
     1
102
RTVSPropertyOp27
 70
     1
102
RTVSPropertyOp28
 70
     1
102
RTVSPropertyOp29
 70
     1
102
RTVSPropertyOp30
 70
     1
102
RTVSPropertyOp31
 70
     1
102
RTVSPropertyOp32
 70
     1
102
RTVSPropertyOp33
 70
     1
102
RTVSPropertyOp34
 70
     1
102
RTVSPropertyOp35
 70
     1
102
RTVSPropertyOp36
 70
     1
102
RTVSPropertyOp37
 70
     1
102
RTVSPropertyOp38
 70
     1
102
RTVSPropertyOp39
 70
     1
102
RTVSPropertyOp40
 70
     1
102
RTVSPropertyOp41
 70
     1
102
RTVSPropertyOp42
 70
     1
102
RTVSPropertyOp43
 70
     1
102
RTVSPropertyOp44
 70
     1
102
RTVSPropertyOp45
 70
     1
102
RTVSPropertyOp46
 70
     1
102
RTVSPropertyOp47
 70
     1
102
RTVSPropertyOp48
 70
     1
102
RTVSPropertyOp49
 70
     1
102
RTVSPropertyOp50
 70
     1
102
RTVSPropertyOp51
 70
     0
102
RTVSPropertyOp52
 70
     0
102
RTVSPropertyOp53
 70
     1
102
RTVSPropertyOp54
 70
     1
102
RTVSPropertyOp55
 70
     1
102
RTVSPropertyOp56
 70
     1
102
RTVSPropertyOp57
 70
     1
102
RTVSPropertyOp58
 70
     1
102
RTVSPropertyOp59
 70
     1
102
RTVSPropertyOp60
 70
     1
102
RTVSPropertyOp61
 70
     1
102
RTVSPropertyOp62
 70
     1
  0
XRECORD
  5
FDF
102
{ACAD_REACTORS
330
FDE
102
}
330
FDE
100
AcDbXrecord
280
     1
102
RTVSPost2010Prop28
280
     0
102
RTVSPost2010PropOp28
 70
     1
102
RTVSPost2010Prop29
280
     1
102
RTVSPost2010PropOp29
 70
     1
102
RTVSPost2010Prop30
280
     1
102
RTVSPost2010PropOp30
 70
     1
102
RTVSPost2010Prop31
280
     0
102
RTVSPost2010PropOp31
 70
     1
102
RTVSPost2010Prop32
280
     0
102
RTVSPost2010PropOp32
 70
     1
102
RTVSPost2010Prop33
280
     0
102
RTVSPost2010PropOp33
 70
     1
102
RTVSPost2010Prop34
280
     0
102
RTVSPost2010PropOp34
 70
     1
102
RTVSPost2010Prop35
280
     0
102
RTVSPost2010PropOp35
 70
     1
102
RTVSPost2010Prop36
280
     0
102
RTVSPost2010PropOp36
 70
     1
102
RTVSPost2010Prop37
 90
       50
102
RTVSPost2010PropOp37
 70
     1
102
RTVSPost2010Prop38
140
0.0
102
RTVSPost2010PropOp38
 70
     1
102
RTVSPost2010Prop39
140
1.0
102
RTVSPost2010PropOp39
 70
     1
102
RTVSPost2010Prop40
 90
        0
102
RTVSPost2010PropOp40
 70
     1
102
RTVSPost2010Prop41ColorIndex
 90
       18
102
RTVSPost2010Prop41ColorRGB
 90
        0
102
RTVSPost2010PropOp41
 70
     1
102
RTVSPost2010Prop42
 90
       50
102
RTVSPost2010PropOp42
 70
     1
102
RTVSPost2010Prop43
 90
        3
102
RTVSPost2010PropOp43
 70
     1
102
RTVSPost2010Prop44ColorIndex
 90
        5
102
RTVSPost2010Prop44ColorRGB
 90
      255
102
RTVSPost2010PropOp44
 70
     1
102
RTVSPost2010Prop45
280
     0
102
RTVSPost2010PropOp45
 70
     1
102
RTVSPost2010Prop46
 90
       50
102
RTVSPost2010PropOp46
 70
     1
102
RTVSPost2010Prop47
 90
       50
102
RTVSPost2010PropOp47
 70
     1
102
RTVSPost2010Prop48
 90
       50
102
RTVSPost2010PropOp48
 70
     1
102
RTVSPost2010Prop49
280
     0
102
RTVSPost2010PropOp49
 70
     1
102
RTVSPost2010Prop50
 90
       50
102
RTVSPost2010PropOp50
 70
     1
102
RTVSPost2010Prop51ColorIndex
 90
      256
102
RTVSPost2010Prop51ColorRGB
 90
-16777216
102
RTVSPost2010PropOp51
 70
     0
102
RTVSPost2010Prop52
140
1.0
102
RTVSPost2010PropOp52
 70
     0
102
RTVSPost2010Prop53
 90
        2
102
RTVSPost2010PropOp53
 70
     1
102
RTVSPost2010Prop54
  1
strokes_ogs.tif
102
RTVSPost2010PropOp54
 70
     1
102
RTVSPost2010Prop55
280
     0
102
RTVSPost2010PropOp55
 70
     1
102
RTVSPost2010Prop56
140
1.0
102
RTVSPost2010PropOp56
 70
     1
102
RTVSPost2010Prop57
140
1.0
102
RTVSPost2010PropOp57
 70
     1
102
RTVSPropertyOp0
 70
     1
102
RTVSPropertyOp1
 70
     1
102
RTVSPropertyOp2
 70
     1
102
RTVSPropertyOp3
 70
     1
102
RTVSPropertyOp4
 70
     1
102
RTVSPropertyOp5
 70
     1
102
RTVSPropertyOp6
 70
     1
102
RTVSPropertyOp7
 70
     1
102
RTVSPropertyOp8
 70
     1
102
RTVSPropertyOp9
 70
     1
102
RTVSPropertyOp10
 70
     1
102
RTVSPropertyOp11
 70
     1
102
RTVSPropertyOp12
 70
     1
102
RTVSPropertyOp13
 70
     1
102
RTVSPropertyOp14
 70
     1
102
RTVSPropertyOp15
 70
     1
102
RTVSPropertyOp16
 70
     1
102
RTVSPropertyOp17
 70
     1
102
RTVSPropertyOp18
 70
     1
102
RTVSPropertyOp19
 70
     1
102
RTVSPropertyOp20
 70
     1
102
RTVSPropertyOp21
 70
     1
102
RTVSPropertyOp22
 70
     1
102
RTVSPropertyOp23
 70
     1
102
RTVSPropertyOp24
 70
     1
102
RTVSPropertyOp25
 70
     1
102
RTVSPropertyOp26
 70
     1
102
RTVSPropertyOp27
 70
     1
102
RTVSPropertyOp28
 70
     1
102
RTVSPropertyOp29
 70
     1
102
RTVSPropertyOp30
 70
     1
102
RTVSPropertyOp31
 70
     1
102
RTVSPropertyOp32
 70
     1
102
RTVSPropertyOp33
 70
     1
102
RTVSPropertyOp34
 70
     1
102
RTVSPropertyOp35
 70
     1
102
RTVSPropertyOp36
 70
     1
102
RTVSPropertyOp37
 70
     1
102
RTVSPropertyOp38
 70
     1
102
RTVSPropertyOp39
 70
     1
102
RTVSPropertyOp40
 70
     1
102
RTVSPropertyOp41
 70
     1
102
RTVSPropertyOp42
 70
     1
102
RTVSPropertyOp43
 70
     1
102
RTVSPropertyOp44
 70
     1
102
RTVSPropertyOp45
 70
     1
102
RTVSPropertyOp46
 70
     1
102
RTVSPropertyOp47
 70
     1
102
RTVSPropertyOp48
 70
     1
102
RTVSPropertyOp49
 70
     1
102
RTVSPropertyOp50
 70
     1
102
RTVSPropertyOp51
 70
     0
102
RTVSPropertyOp52
 70
     0
102
RTVSPropertyOp53
 70
     1
102
RTVSPropertyOp54
 70
     1
102
RTVSPropertyOp55
 70
     1
102
RTVSPropertyOp56
 70
     1
102
RTVSPropertyOp57
 70
     1
102
RTVSPropertyOp58
 70
     1
102
RTVSPropertyOp59
 70
     1
102
RTVSPropertyOp60
 70
     1
102
RTVSPropertyOp61
 70
     1
102
RTVSPropertyOp62
 70
     1
  0
XRECORD
  5
FE3
102
{ACAD_REACTORS
330
FE2
102
}
330
FE2
100
AcDbXrecord
280
     1
102
RTVSPost2010Prop28
280
     0
102
RTVSPost2010PropOp28
 70
     1
102
RTVSPost2010Prop29
280
     1
102
RTVSPost2010PropOp29
 70
     1
102
RTVSPost2010Prop30
280
     1
102
RTVSPost2010PropOp30
 70
     1
102
RTVSPost2010Prop31
280
     0
102
RTVSPost2010PropOp31
 70
     1
102
RTVSPost2010Prop32
280
     0
102
RTVSPost2010PropOp32
 70
     1
102
RTVSPost2010Prop33
280
     0
102
RTVSPost2010PropOp33
 70
     1
102
RTVSPost2010Prop34
280
     0
102
RTVSPost2010PropOp34
 70
     1
102
RTVSPost2010Prop35
280
     0
102
RTVSPost2010PropOp35
 70
     1
102
RTVSPost2010Prop36
280
     0
102
RTVSPost2010PropOp36
 70
     1
102
RTVSPost2010Prop37
 90
       50
102
RTVSPost2010PropOp37
 70
     1
102
RTVSPost2010Prop38
140
0.0
102
RTVSPost2010PropOp38
 70
     1
102
RTVSPost2010Prop39
140
1.0
102
RTVSPost2010PropOp39
 70
     1
102
RTVSPost2010Prop40
 90
        0
102
RTVSPost2010PropOp40
 70
     1
102
RTVSPost2010Prop41ColorIndex
 90
       18
102
RTVSPost2010Prop41ColorRGB
 90
        0
102
RTVSPost2010PropOp41
 70
     1
102
RTVSPost2010Prop42
 90
       50
102
RTVSPost2010PropOp42
 70
     1
102
RTVSPost2010Prop43
 90
        3
102
RTVSPost2010PropOp43
 70
     1
102
RTVSPost2010Prop44ColorIndex
 90
        5
102
RTVSPost2010Prop44ColorRGB
 90
      255
102
RTVSPost2010PropOp44
 70
     1
102
RTVSPost2010Prop45
280
     0
102
RTVSPost2010PropOp45
 70
     1
102
RTVSPost2010Prop46
 90
       50
102
RTVSPost2010PropOp46
 70
     1
102
RTVSPost2010Prop47
 90
       50
102
RTVSPost2010PropOp47
 70
     1
102
RTVSPost2010Prop48
 90
       50
102
RTVSPost2010PropOp48
 70
     1
102
RTVSPost2010Prop49
280
     0
102
RTVSPost2010PropOp49
 70
     1
102
RTVSPost2010Prop50
 90
       50
102
RTVSPost2010PropOp50
 70
     1
102
RTVSPost2010Prop51ColorIndex
 90
      256
102
RTVSPost2010Prop51ColorRGB
 90
-16777216
102
RTVSPost2010PropOp51
 70
     0
102
RTVSPost2010Prop52
140
1.0
102
RTVSPost2010PropOp52
 70
     0
102
RTVSPost2010Prop53
 90
        2
102
RTVSPost2010PropOp53
 70
     1
102
RTVSPost2010Prop54
  1
strokes_ogs.tif
102
RTVSPost2010PropOp54
 70
     1
102
RTVSPost2010Prop55
280
     0
102
RTVSPost2010PropOp55
 70
     1
102
RTVSPost2010Prop56
140
1.0
102
RTVSPost2010PropOp56
 70
     1
102
RTVSPost2010Prop57
140
1.0
102
RTVSPost2010PropOp57
 70
     1
102
RTVSPropertyOp0
 70
     1
102
RTVSPropertyOp1
 70
     1
102
RTVSPropertyOp2
 70
     1
102
RTVSPropertyOp3
 70
     1
102
RTVSPropertyOp4
 70
     1
102
RTVSPropertyOp5
 70
     1
102
RTVSPropertyOp6
 70
     1
102
RTVSPropertyOp7
 70
     1
102
RTVSPropertyOp8
 70
     1
102
RTVSPropertyOp9
 70
     1
102
RTVSPropertyOp10
 70
     1
102
RTVSPropertyOp11
 70
     1
102
RTVSPropertyOp12
 70
     1
102
RTVSPropertyOp13
 70
     1
102
RTVSPropertyOp14
 70
     1
102
RTVSPropertyOp15
 70
     1
102
RTVSPropertyOp16
 70
     1
102
RTVSPropertyOp17
 70
     1
102
RTVSPropertyOp18
 70
     1
102
RTVSPropertyOp19
 70
     1
102
RTVSPropertyOp20
 70
     1
102
RTVSPropertyOp21
 70
     1
102
RTVSPropertyOp22
 70
     1
102
RTVSPropertyOp23
 70
     1
102
RTVSPropertyOp24
 70
     1
102
RTVSPropertyOp25
 70
     1
102
RTVSPropertyOp26
 70
     1
102
RTVSPropertyOp27
 70
     1
102
RTVSPropertyOp28
 70
     1
102
RTVSPropertyOp29
 70
     1
102
RTVSPropertyOp30
 70
     1
102
RTVSPropertyOp31
 70
     1
102
RTVSPropertyOp32
 70
     1
102
RTVSPropertyOp33
 70
     1
102
RTVSPropertyOp34
 70
     1
102
RTVSPropertyOp35
 70
     1
102
RTVSPropertyOp36
 70
     1
102
RTVSPropertyOp37
 70
     1
102
RTVSPropertyOp38
 70
     1
102
RTVSPropertyOp39
 70
     1
102
RTVSPropertyOp40
 70
     1
102
RTVSPropertyOp41
 70
     1
102
RTVSPropertyOp42
 70
     1
102
RTVSPropertyOp43
 70
     1
102
RTVSPropertyOp44
 70
     1
102
RTVSPropertyOp45
 70
     1
102
RTVSPropertyOp46
 70
     1
102
RTVSPropertyOp47
 70
     1
102
RTVSPropertyOp48
 70
     1
102
RTVSPropertyOp49
 70
     1
102
RTVSPropertyOp50
 70
     1
102
RTVSPropertyOp51
 70
     0
102
RTVSPropertyOp52
 70
     0
102
RTVSPropertyOp53
 70
     1
102
RTVSPropertyOp54
 70
     1
102
RTVSPropertyOp55
 70
     1
102
RTVSPropertyOp56
 70
     1
102
RTVSPropertyOp57
 70
     1
102
RTVSPropertyOp58
 70
     1
102
RTVSPropertyOp59
 70
     1
102
RTVSPropertyOp60
 70
     1
102
RTVSPropertyOp61
 70
     1
102
RTVSPropertyOp62
 70
     1
  0
XRECORD
  5
FFD
102
{ACAD_REACTORS
330
FFC
102
}
330
FFC
100
AcDbXrecord
280
     1
102
RTVSPost2010Prop28
280
     0
102
RTVSPost2010PropOp28
 70
     1
102
RTVSPost2010Prop29
280
     1
102
RTVSPost2010PropOp29
 70
     1
102
RTVSPost2010Prop30
280
     1
102
RTVSPost2010PropOp30
 70
     1
102
RTVSPost2010Prop31
280
     0
102
RTVSPost2010PropOp31
 70
     1
102
RTVSPost2010Prop32
280
     0
102
RTVSPost2010PropOp32
 70
     1
102
RTVSPost2010Prop33
280
     0
102
RTVSPost2010PropOp33
 70
     1
102
RTVSPost2010Prop34
280
     0
102
RTVSPost2010PropOp34
 70
     1
102
RTVSPost2010Prop35
280
     0
102
RTVSPost2010PropOp35
 70
     1
102
RTVSPost2010Prop36
280
     0
102
RTVSPost2010PropOp36
 70
     1
102
RTVSPost2010Prop37
 90
       50
102
RTVSPost2010PropOp37
 70
     0
102
RTVSPost2010Prop38
140
0.0
102
RTVSPost2010PropOp38
 70
     0
102
RTVSPost2010Prop39
140
1.0
102
RTVSPost2010PropOp39
 70
     0
102
RTVSPost2010Prop40
 90
        0
102
RTVSPost2010PropOp40
 70
     0
102
RTVSPost2010Prop41ColorIndex
 90
       18
102
RTVSPost2010Prop41ColorRGB
 90
        0
102
RTVSPost2010PropOp41
 70
     0
102
RTVSPost2010Prop42
 90
       50
102
RTVSPost2010PropOp42
 70
     0
102
RTVSPost2010Prop43
 90
        3
102
RTVSPost2010PropOp43
 70
     0
102
RTVSPost2010Prop44ColorIndex
 90
        5
102
RTVSPost2010Prop44ColorRGB
 90
      255
102
RTVSPost2010PropOp44
 70
     0
102
RTVSPost2010Prop45
280
     0
102
RTVSPost2010PropOp45
 70
     1
102
RTVSPost2010Prop46
 90
       50
102
RTVSPost2010PropOp46
 70
     0
102
RTVSPost2010Prop47
 90
       50
102
RTVSPost2010PropOp47
 70
     0
102
RTVSPost2010Prop48
 90
       50
102
RTVSPost2010PropOp48
 70
     0
102
RTVSPost2010Prop49
280
     0
102
RTVSPost2010PropOp49
 70
     1
102
RTVSPost2010Prop50
 90
       50
102
RTVSPost2010PropOp50
 70
     0
102
RTVSPost2010Prop51ColorIndex
 90
      256
102
RTVSPost2010Prop51ColorRGB
 90
-16777216
102
RTVSPost2010PropOp51
 70
     0
102
RTVSPost2010Prop52
140
1.0
102
RTVSPost2010PropOp52
 70
     0
102
RTVSPost2010Prop53
 90
        2
102
RTVSPost2010PropOp53
 70
     0
102
RTVSPost2010Prop54
  1
strokes_ogs.tif
102
RTVSPost2010PropOp54
 70
     0
102
RTVSPost2010Prop55
280
     0
102
RTVSPost2010PropOp55
 70
     1
102
RTVSPost2010Prop56
140
1.0
102
RTVSPost2010PropOp56
 70
     0
102
RTVSPost2010Prop57
140
1.0
102
RTVSPost2010PropOp57
 70
     0
102
RTVSPropertyOp0
 70
     0
102
RTVSPropertyOp1
 70
     0
102
RTVSPropertyOp2
 70
     0
102
RTVSPropertyOp3
 70
     0
102
RTVSPropertyOp4
 70
     0
102
RTVSPropertyOp5
 70
     0
102
RTVSPropertyOp6
 70
     0
102
RTVSPropertyOp7
 70
     0
102
RTVSPropertyOp8
 70
     0
102
RTVSPropertyOp9
 70
     0
102
RTVSPropertyOp10
 70
     0
102
RTVSPropertyOp11
 70
     0
102
RTVSPropertyOp12
 70
     0
102
RTVSPropertyOp13
 70
     0
102
RTVSPropertyOp14
 70
     2
102
RTVSPropertyOp15
 70
     0
102
RTVSPropertyOp16
 70
     0
102
RTVSPropertyOp17
 70
     0
102
RTVSPropertyOp18
 70
     0
102
RTVSPropertyOp19
 70
     0
102
RTVSPropertyOp20
 70
     0
102
RTVSPropertyOp21
 70
     0
102
RTVSPropertyOp22
 70
     0
102
RTVSPropertyOp23
 70
     0
102
RTVSPropertyOp24
 70
     0
102
RTVSPropertyOp25
 70
     0
102
RTVSPropertyOp26
 70
     0
102
RTVSPropertyOp27
 70
     0
102
RTVSPropertyOp28
 70
     1
102
RTVSPropertyOp29
 70
     1
102
RTVSPropertyOp30
 70
     1
102
RTVSPropertyOp31
 70
     1
102
RTVSPropertyOp32
 70
     1
102
RTVSPropertyOp33
 70
     1
102
RTVSPropertyOp34
 70
     1
102
RTVSPropertyOp35
 70
     1
102
RTVSPropertyOp36
 70
     1
102
RTVSPropertyOp37
 70
     0
102
RTVSPropertyOp38
 70
     0
102
RTVSPropertyOp39
 70
     0
102
RTVSPropertyOp40
 70
     0
102
RTVSPropertyOp41
 70
     0
102
RTVSPropertyOp42
 70
     0
102
RTVSPropertyOp43
 70
     0
102
RTVSPropertyOp44
 70
     0
102
RTVSPropertyOp45
 70
     1
102
RTVSPropertyOp46
 70
     0
102
RTVSPropertyOp47
 70
     0
102
RTVSPropertyOp48
 70
     0
102
RTVSPropertyOp49
 70
     1
102
RTVSPropertyOp50
 70
     0
102
RTVSPropertyOp51
 70
     0
102
RTVSPropertyOp52
 70
     0
102
RTVSPropertyOp53
 70
     0
102
RTVSPropertyOp54
 70
     0
102
RTVSPropertyOp55
 70
     1
102
RTVSPropertyOp56
 70
     0
102
RTVSPropertyOp57
 70
     0
102
RTVSPropertyOp58
 70
     1
102
RTVSPropertyOp59
 70
     1
102
RTVSPropertyOp60
 70
     1
102
RTVSPropertyOp61
 70
     1
102
RTVSPropertyOp62
 70
     1
  0
XRECORD
  5
FEB
102
{ACAD_REACTORS
330
FEA
102
}
330
FEA
100
AcDbXrecord
280
     1
102
RTVSPost2010Prop28
280
     0
102
RTVSPost2010PropOp28
 70
     1
102
RTVSPost2010Prop29
280
     1
102
RTVSPost2010PropOp29
 70
     1
102
RTVSPost2010Prop30
280
     1
102
RTVSPost2010PropOp30
 70
     1
102
RTVSPost2010Prop31
280
     0
102
RTVSPost2010PropOp31
 70
     1
102
RTVSPost2010Prop32
280
     0
102
RTVSPost2010PropOp32
 70
     1
102
RTVSPost2010Prop33
280
     0
102
RTVSPost2010PropOp33
 70
     1
102
RTVSPost2010Prop34
280
     0
102
RTVSPost2010PropOp34
 70
     1
102
RTVSPost2010Prop35
280
     0
102
RTVSPost2010PropOp35
 70
     1
102
RTVSPost2010Prop36
280
     0
102
RTVSPost2010PropOp36
 70
     1
102
RTVSPost2010Prop37
 90
       50
102
RTVSPost2010PropOp37
 70
     1
102
RTVSPost2010Prop38
140
0.0
102
RTVSPost2010PropOp38
 70
     1
102
RTVSPost2010Prop39
140
1.0
102
RTVSPost2010PropOp39
 70
     1
102
RTVSPost2010Prop40
 90
        0
102
RTVSPost2010PropOp40
 70
     1
102
RTVSPost2010Prop41ColorIndex
 90
       18
102
RTVSPost2010Prop41ColorRGB
 90
        0
102
RTVSPost2010PropOp41
 70
     1
102
RTVSPost2010Prop42
 90
       50
102
RTVSPost2010PropOp42
 70
     1
102
RTVSPost2010Prop43
 90
        3
102
RTVSPost2010PropOp43
 70
     1
102
RTVSPost2010Prop44ColorIndex
 90
        5
102
RTVSPost2010Prop44ColorRGB
 90
      255
102
RTVSPost2010PropOp44
 70
     1
102
RTVSPost2010Prop45
280
     0
102
RTVSPost2010PropOp45
 70
     1
102
RTVSPost2010Prop46
 90
       50
102
RTVSPost2010PropOp46
 70
     1
102
RTVSPost2010Prop47
 90
       50
102
RTVSPost2010PropOp47
 70
     1
102
RTVSPost2010Prop48
 90
       50
102
RTVSPost2010PropOp48
 70
     1
102
RTVSPost2010Prop49
280
     0
102
RTVSPost2010PropOp49
 70
     1
102
RTVSPost2010Prop50
 90
       50
102
RTVSPost2010PropOp50
 70
     1
102
RTVSPost2010Prop51ColorIndex
 90
      256
102
RTVSPost2010Prop51ColorRGB
 90
-16777216
102
RTVSPost2010PropOp51
 70
     0
102
RTVSPost2010Prop52
140
1.0
102
RTVSPost2010PropOp52
 70
     0
102
RTVSPost2010Prop53
 90
        2
102
RTVSPost2010PropOp53
 70
     1
102
RTVSPost2010Prop54
  1
strokes_ogs.tif
102
RTVSPost2010PropOp54
 70
     1
102
RTVSPost2010Prop55
280
     0
102
RTVSPost2010PropOp55
 70
     1
102
RTVSPost2010Prop56
140
1.0
102
RTVSPost2010PropOp56
 70
     1
102
RTVSPost2010Prop57
140
1.0
102
RTVSPost2010PropOp57
 70
     1
102
RTVSPropertyOp0
 70
     1
102
RTVSPropertyOp1
 70
     1
102
RTVSPropertyOp2
 70
     1
102
RTVSPropertyOp3
 70
     1
102
RTVSPropertyOp4
 70
     1
102
RTVSPropertyOp5
 70
     1
102
RTVSPropertyOp6
 70
     1
102
RTVSPropertyOp7
 70
     1
102
RTVSPropertyOp8
 70
     1
102
RTVSPropertyOp9
 70
     1
102
RTVSPropertyOp10
 70
     1
102
RTVSPropertyOp11
 70
     1
102
RTVSPropertyOp12
 70
     1
102
RTVSPropertyOp13
 70
     1
102
RTVSPropertyOp14
 70
     1
102
RTVSPropertyOp15
 70
     1
102
RTVSPropertyOp16
 70
     1
102
RTVSPropertyOp17
 70
     1
102
RTVSPropertyOp18
 70
     1
102
RTVSPropertyOp19
 70
     1
102
RTVSPropertyOp20
 70
     1
102
RTVSPropertyOp21
 70
     1
102
RTVSPropertyOp22
 70
     1
102
RTVSPropertyOp23
 70
     1
102
RTVSPropertyOp24
 70
     1
102
RTVSPropertyOp25
 70
     1
102
RTVSPropertyOp26
 70
     1
102
RTVSPropertyOp27
 70
     1
102
RTVSPropertyOp28
 70
     1
102
RTVSPropertyOp29
 70
     1
102
RTVSPropertyOp30
 70
     1
102
RTVSPropertyOp31
 70
     1
102
RTVSPropertyOp32
 70
     1
102
RTVSPropertyOp33
 70
     1
102
RTVSPropertyOp34
 70
     1
102
RTVSPropertyOp35
 70
     1
102
RTVSPropertyOp36
 70
     1
102
RTVSPropertyOp37
 70
     1
102
RTVSPropertyOp38
 70
     1
102
RTVSPropertyOp39
 70
     1
102
RTVSPropertyOp40
 70
     1
102
RTVSPropertyOp41
 70
     1
102
RTVSPropertyOp42
 70
     1
102
RTVSPropertyOp43
 70
     1
102
RTVSPropertyOp44
 70
     1
102
RTVSPropertyOp45
 70
     1
102
RTVSPropertyOp46
 70
     1
102
RTVSPropertyOp47
 70
     1
102
RTVSPropertyOp48
 70
     1
102
RTVSPropertyOp49
 70
     1
102
RTVSPropertyOp50
 70
     1
102
RTVSPropertyOp51
 70
     0
102
RTVSPropertyOp52
 70
     0
102
RTVSPropertyOp53
 70
     1
102
RTVSPropertyOp54
 70
     1
102
RTVSPropertyOp55
 70
     1
102
RTVSPropertyOp56
 70
     1
102
RTVSPropertyOp57
 70
     1
102
RTVSPropertyOp58
 70
     1
102
RTVSPropertyOp59
 70
     1
102
RTVSPropertyOp60
 70
     1
102
RTVSPropertyOp61
 70
     1
102
RTVSPropertyOp62
 70
     1
  0
XRECORD
  5
FCF
102
{ACAD_REACTORS
330
FCE
102
}
330
FCE
100
AcDbXrecord
280
     1
102
RTVSPost2010Prop28
280
     0
102
RTVSPost2010PropOp28
 70
     1
102
RTVSPost2010Prop29
280
     1
102
RTVSPost2010PropOp29
 70
     1
102
RTVSPost2010Prop30
280
     1
102
RTVSPost2010PropOp30
 70
     1
102
RTVSPost2010Prop31
280
     0
102
RTVSPost2010PropOp31
 70
     1
102
RTVSPost2010Prop32
280
     0
102
RTVSPost2010PropOp32
 70
     1
102
RTVSPost2010Prop33
280
     0
102
RTVSPost2010PropOp33
 70
     1
102
RTVSPost2010Prop34
280
     0
102
RTVSPost2010PropOp34
 70
     1
102
RTVSPost2010Prop35
280
     0
102
RTVSPost2010PropOp35
 70
     1
102
RTVSPost2010Prop36
280
     0
102
RTVSPost2010PropOp36
 70
     1
102
RTVSPost2010Prop37
 90
       50
102
RTVSPost2010PropOp37
 70
     1
102
RTVSPost2010Prop38
140
0.0
102
RTVSPost2010PropOp38
 70
     1
102
RTVSPost2010Prop39
140
1.0
102
RTVSPost2010PropOp39
 70
     1
102
RTVSPost2010Prop40
 90
        0
102
RTVSPost2010PropOp40
 70
     1
102
RTVSPost2010Prop41ColorIndex
 90
       18
102
RTVSPost2010Prop41ColorRGB
 90
        0
102
RTVSPost2010PropOp41
 70
     1
102
RTVSPost2010Prop42
 90
       50
102
RTVSPost2010PropOp42
 70
     1
102
RTVSPost2010Prop43
 90
        3
102
RTVSPost2010PropOp43
 70
     1
102
RTVSPost2010Prop44ColorIndex
 90
        5
102
RTVSPost2010Prop44ColorRGB
 90
      255
102
RTVSPost2010PropOp44
 70
     1
102
RTVSPost2010Prop45
280
     0
102
RTVSPost2010PropOp45
 70
     1
102
RTVSPost2010Prop46
 90
       50
102
RTVSPost2010PropOp46
 70
     1
102
RTVSPost2010Prop47
 90
       50
102
RTVSPost2010PropOp47
 70
     1
102
RTVSPost2010Prop48
 90
       50
102
RTVSPost2010PropOp48
 70
     1
102
RTVSPost2010Prop49
280
     0
102
RTVSPost2010PropOp49
 70
     1
102
RTVSPost2010Prop50
 90
       50
102
RTVSPost2010PropOp50
 70
     1
102
RTVSPost2010Prop51ColorIndex
 90
      256
102
RTVSPost2010Prop51ColorRGB
 90
-16777216
102
RTVSPost2010PropOp51
 70
     0
102
RTVSPost2010Prop52
140
1.0
102
RTVSPost2010PropOp52
 70
     0
102
RTVSPost2010Prop53
 90
        2
102
RTVSPost2010PropOp53
 70
     1
102
RTVSPost2010Prop54
  1
strokes_ogs.tif
102
RTVSPost2010PropOp54
 70
     1
102
RTVSPost2010Prop55
280
     0
102
RTVSPost2010PropOp55
 70
     1
102
RTVSPost2010Prop56
140
1.0
102
RTVSPost2010PropOp56
 70
     1
102
RTVSPost2010Prop57
140
1.0
102
RTVSPost2010PropOp57
 70
     1
102
RTVSPropertyOp0
 70
     1
102
RTVSPropertyOp1
 70
     1
102
RTVSPropertyOp2
 70
     1
102
RTVSPropertyOp3
 70
     1
102
RTVSPropertyOp4
 70
     1
102
RTVSPropertyOp5
 70
     1
102
RTVSPropertyOp6
 70
     1
102
RTVSPropertyOp7
 70
     1
102
RTVSPropertyOp8
 70
     1
102
RTVSPropertyOp9
 70
     1
102
RTVSPropertyOp10
 70
     1
102
RTVSPropertyOp11
 70
     1
102
RTVSPropertyOp12
 70
     1
102
RTVSPropertyOp13
 70
     1
102
RTVSPropertyOp14
 70
     1
102
RTVSPropertyOp15
 70
     1
102
RTVSPropertyOp16
 70
     1
102
RTVSPropertyOp17
 70
     1
102
RTVSPropertyOp18
 70
     1
102
RTVSPropertyOp19
 70
     1
102
RTVSPropertyOp20
 70
     1
102
RTVSPropertyOp21
 70
     1
102
RTVSPropertyOp22
 70
     1
102
RTVSPropertyOp23
 70
     1
102
RTVSPropertyOp24
 70
     1
102
RTVSPropertyOp25
 70
     1
102
RTVSPropertyOp26
 70
     1
102
RTVSPropertyOp27
 70
     1
102
RTVSPropertyOp28
 70
     1
102
RTVSPropertyOp29
 70
     1
102
RTVSPropertyOp30
 70
     1
102
RTVSPropertyOp31
 70
     1
102
RTVSPropertyOp32
 70
     1
102
RTVSPropertyOp33
 70
     1
102
RTVSPropertyOp34
 70
     1
102
RTVSPropertyOp35
 70
     1
102
RTVSPropertyOp36
 70
     1
102
RTVSPropertyOp37
 70
     1
102
RTVSPropertyOp38
 70
     1
102
RTVSPropertyOp39
 70
     1
102
RTVSPropertyOp40
 70
     1
102
RTVSPropertyOp41
 70
     1
102
RTVSPropertyOp42
 70
     1
102
RTVSPropertyOp43
 70
     1
102
RTVSPropertyOp44
 70
     1
102
RTVSPropertyOp45
 70
     1
102
RTVSPropertyOp46
 70
     1
102
RTVSPropertyOp47
 70
     1
102
RTVSPropertyOp48
 70
     1
102
RTVSPropertyOp49
 70
     1
102
RTVSPropertyOp50
 70
     1
102
RTVSPropertyOp51
 70
     0
102
RTVSPropertyOp52
 70
     0
102
RTVSPropertyOp53
 70
     1
102
RTVSPropertyOp54
 70
     1
102
RTVSPropertyOp55
 70
     1
102
RTVSPropertyOp56
 70
     1
102
RTVSPropertyOp57
 70
     1
102
RTVSPropertyOp58
 70
     1
102
RTVSPropertyOp59
 70
     1
102
RTVSPropertyOp60
 70
     1
102
RTVSPropertyOp61
 70
     1
102
RTVSPropertyOp62
 70
     1
  0
XRECORD
  5
FD1
102
{ACAD_REACTORS
330
FD0
102
}
330
FD0
100
AcDbXrecord
280
     1
102
RTVSPost2010Prop28
280
     0
102
RTVSPost2010PropOp28
 70
     1
102
RTVSPost2010Prop29
280
     1
102
RTVSPost2010PropOp29
 70
     1
102
RTVSPost2010Prop30
280
     1
102
RTVSPost2010PropOp30
 70
     1
102
RTVSPost2010Prop31
280
     0
102
RTVSPost2010PropOp31
 70
     1
102
RTVSPost2010Prop32
280
     0
102
RTVSPost2010PropOp32
 70
     1
102
RTVSPost2010Prop33
280
     0
102
RTVSPost2010PropOp33
 70
     1
102
RTVSPost2010Prop34
280
     0
102
RTVSPost2010PropOp34
 70
     1
102
RTVSPost2010Prop35
280
     0
102
RTVSPost2010PropOp35
 70
     1
102
RTVSPost2010Prop36
280
     0
102
RTVSPost2010PropOp36
 70
     1
102
RTVSPost2010Prop37
 90
       50
102
RTVSPost2010PropOp37
 70
     1
102
RTVSPost2010Prop38
140
0.0
102
RTVSPost2010PropOp38
 70
     1
102
RTVSPost2010Prop39
140
1.0
102
RTVSPost2010PropOp39
 70
     1
102
RTVSPost2010Prop40
 90
        0
102
RTVSPost2010PropOp40
 70
     1
102
RTVSPost2010Prop41ColorIndex
 90
       18
102
RTVSPost2010Prop41ColorRGB
 90
        0
102
RTVSPost2010PropOp41
 70
     1
102
RTVSPost2010Prop42
 90
       50
102
RTVSPost2010PropOp42
 70
     1
102
RTVSPost2010Prop43
 90
        3
102
RTVSPost2010PropOp43
 70
     1
102
RTVSPost2010Prop44ColorIndex
 90
        5
102
RTVSPost2010Prop44ColorRGB
 90
      255
102
RTVSPost2010PropOp44
 70
     1
102
RTVSPost2010Prop45
280
     0
102
RTVSPost2010PropOp45
 70
     1
102
RTVSPost2010Prop46
 90
       50
102
RTVSPost2010PropOp46
 70
     1
102
RTVSPost2010Prop47
 90
       50
102
RTVSPost2010PropOp47
 70
     1
102
RTVSPost2010Prop48
 90
       50
102
RTVSPost2010PropOp48
 70
     1
102
RTVSPost2010Prop49
280
     0
102
RTVSPost2010PropOp49
 70
     1
102
RTVSPost2010Prop50
 90
       50
102
RTVSPost2010PropOp50
 70
     1
102
RTVSPost2010Prop51ColorIndex
 90
      256
102
RTVSPost2010Prop51ColorRGB
 90
-16777216
102
RTVSPost2010PropOp51
 70
     0
102
RTVSPost2010Prop52
140
1.0
102
RTVSPost2010PropOp52
 70
     0
102
RTVSPost2010Prop53
 90
        2
102
RTVSPost2010PropOp53
 70
     1
102
RTVSPost2010Prop54
  1
strokes_ogs.tif
102
RTVSPost2010PropOp54
 70
     1
102
RTVSPost2010Prop55
280
     0
102
RTVSPost2010PropOp55
 70
     1
102
RTVSPost2010Prop56
140
1.0
102
RTVSPost2010PropOp56
 70
     1
102
RTVSPost2010Prop57
140
1.0
102
RTVSPost2010PropOp57
 70
     1
102
RTVSPropertyOp0
 70
     1
102
RTVSPropertyOp1
 70
     1
102
RTVSPropertyOp2
 70
     1
102
RTVSPropertyOp3
 70
     1
102
RTVSPropertyOp4
 70
     1
102
RTVSPropertyOp5
 70
     1
102
RTVSPropertyOp6
 70
     1
102
RTVSPropertyOp7
 70
     1
102
RTVSPropertyOp8
 70
     1
102
RTVSPropertyOp9
 70
     1
102
RTVSPropertyOp10
 70
     1
102
RTVSPropertyOp11
 70
     1
102
RTVSPropertyOp12
 70
     1
102
RTVSPropertyOp13
 70
     1
102
RTVSPropertyOp14
 70
     1
102
RTVSPropertyOp15
 70
     1
102
RTVSPropertyOp16
 70
     1
102
RTVSPropertyOp17
 70
     1
102
RTVSPropertyOp18
 70
     1
102
RTVSPropertyOp19
 70
     1
102
RTVSPropertyOp20
 70
     1
102
RTVSPropertyOp21
 70
     1
102
RTVSPropertyOp22
 70
     1
102
RTVSPropertyOp23
 70
     1
102
RTVSPropertyOp24
 70
     1
102
RTVSPropertyOp25
 70
     1
102
RTVSPropertyOp26
 70
     1
102
RTVSPropertyOp27
 70
     1
102
RTVSPropertyOp28
 70
     1
102
RTVSPropertyOp29
 70
     1
102
RTVSPropertyOp30
 70
     1
102
RTVSPropertyOp31
 70
     1
102
RTVSPropertyOp32
 70
     1
102
RTVSPropertyOp33
 70
     1
102
RTVSPropertyOp34
 70
     1
102
RTVSPropertyOp35
 70
     1
102
RTVSPropertyOp36
 70
     1
102
RTVSPropertyOp37
 70
     1
102
RTVSPropertyOp38
 70
     1
102
RTVSPropertyOp39
 70
     1
102
RTVSPropertyOp40
 70
     1
102
RTVSPropertyOp41
 70
     1
102
RTVSPropertyOp42
 70
     1
102
RTVSPropertyOp43
 70
     1
102
RTVSPropertyOp44
 70
     1
102
RTVSPropertyOp45
 70
     1
102
RTVSPropertyOp46
 70
     1
102
RTVSPropertyOp47
 70
     1
102
RTVSPropertyOp48
 70
     1
102
RTVSPropertyOp49
 70
     1
102
RTVSPropertyOp50
 70
     1
102
RTVSPropertyOp51
 70
     0
102
RTVSPropertyOp52
 70
     0
102
RTVSPropertyOp53
 70
     1
102
RTVSPropertyOp54
 70
     1
102
RTVSPropertyOp55
 70
     1
102
RTVSPropertyOp56
 70
     1
102
RTVSPropertyOp57
 70
     1
102
RTVSPropertyOp58
 70
     1
102
RTVSPropertyOp59
 70
     1
102
RTVSPropertyOp60
 70
     1
102
RTVSPropertyOp61
 70
     1
102
RTVSPropertyOp62
 70
     1
  0
XRECORD
  5
FD3
102
{ACAD_REACTORS
330
FD2
102
}
330
FD2
100
AcDbXrecord
280
     1
102
RTVSPost2010Prop28
280
     0
102
RTVSPost2010PropOp28
 70
     1
102
RTVSPost2010Prop29
280
     1
102
RTVSPost2010PropOp29
 70
     1
102
RTVSPost2010Prop30
280
     1
102
RTVSPost2010PropOp30
 70
     1
102
RTVSPost2010Prop31
280
     0
102
RTVSPost2010PropOp31
 70
     1
102
RTVSPost2010Prop32
280
     0
102
RTVSPost2010PropOp32
 70
     1
102
RTVSPost2010Prop33
280
     0
102
RTVSPost2010PropOp33
 70
     1
102
RTVSPost2010Prop34
280
     0
102
RTVSPost2010PropOp34
 70
     1
102
RTVSPost2010Prop35
280
     0
102
RTVSPost2010PropOp35
 70
     1
102
RTVSPost2010Prop36
280
     0
102
RTVSPost2010PropOp36
 70
     1
102
RTVSPost2010Prop37
 90
       50
102
RTVSPost2010PropOp37
 70
     1
102
RTVSPost2010Prop38
140
0.0
102
RTVSPost2010PropOp38
 70
     1
102
RTVSPost2010Prop39
140
1.0
102
RTVSPost2010PropOp39
 70
     1
102
RTVSPost2010Prop40
 90
        0
102
RTVSPost2010PropOp40
 70
     1
102
RTVSPost2010Prop41ColorIndex
 90
       18
102
RTVSPost2010Prop41ColorRGB
 90
        0
102
RTVSPost2010PropOp41
 70
     1
102
RTVSPost2010Prop42
 90
       50
102
RTVSPost2010PropOp42
 70
     1
102
RTVSPost2010Prop43
 90
        3
102
RTVSPost2010PropOp43
 70
     1
102
RTVSPost2010Prop44ColorIndex
 90
        5
102
RTVSPost2010Prop44ColorRGB
 90
      255
102
RTVSPost2010PropOp44
 70
     1
102
RTVSPost2010Prop45
280
     0
102
RTVSPost2010PropOp45
 70
     1
102
RTVSPost2010Prop46
 90
       50
102
RTVSPost2010PropOp46
 70
     1
102
RTVSPost2010Prop47
 90
       50
102
RTVSPost2010PropOp47
 70
     1
102
RTVSPost2010Prop48
 90
       50
102
RTVSPost2010PropOp48
 70
     1
102
RTVSPost2010Prop49
280
     0
102
RTVSPost2010PropOp49
 70
     1
102
RTVSPost2010Prop50
 90
       50
102
RTVSPost2010PropOp50
 70
     1
102
RTVSPost2010Prop51ColorIndex
 90
      256
102
RTVSPost2010Prop51ColorRGB
 90
-16777216
102
RTVSPost2010PropOp51
 70
     0
102
RTVSPost2010Prop52
140
1.0
102
RTVSPost2010PropOp52
 70
     0
102
RTVSPost2010Prop53
 90
        2
102
RTVSPost2010PropOp53
 70
     1
102
RTVSPost2010Prop54
  1
strokes_ogs.tif
102
RTVSPost2010PropOp54
 70
     1
102
RTVSPost2010Prop55
280
     0
102
RTVSPost2010PropOp55
 70
     1
102
RTVSPost2010Prop56
140
1.0
102
RTVSPost2010PropOp56
 70
     1
102
RTVSPost2010Prop57
140
1.0
102
RTVSPost2010PropOp57
 70
     1
102
RTVSPropertyOp0
 70
     1
102
RTVSPropertyOp1
 70
     1
102
RTVSPropertyOp2
 70
     1
102
RTVSPropertyOp3
 70
     1
102
RTVSPropertyOp4
 70
     1
102
RTVSPropertyOp5
 70
     1
102
RTVSPropertyOp6
 70
     1
102
RTVSPropertyOp7
 70
     1
102
RTVSPropertyOp8
 70
     1
102
RTVSPropertyOp9
 70
     1
102
RTVSPropertyOp10
 70
     1
102
RTVSPropertyOp11
 70
     1
102
RTVSPropertyOp12
 70
     1
102
RTVSPropertyOp13
 70
     1
102
RTVSPropertyOp14
 70
     1
102
RTVSPropertyOp15
 70
     1
102
RTVSPropertyOp16
 70
     1
102
RTVSPropertyOp17
 70
     1
102
RTVSPropertyOp18
 70
     1
102
RTVSPropertyOp19
 70
     1
102
RTVSPropertyOp20
 70
     1
102
RTVSPropertyOp21
 70
     1
102
RTVSPropertyOp22
 70
     1
102
RTVSPropertyOp23
 70
     1
102
RTVSPropertyOp24
 70
     1
102
RTVSPropertyOp25
 70
     1
102
RTVSPropertyOp26
 70
     1
102
RTVSPropertyOp27
 70
     1
102
RTVSPropertyOp28
 70
     1
102
RTVSPropertyOp29
 70
     1
102
RTVSPropertyOp30
 70
     1
102
RTVSPropertyOp31
 70
     1
102
RTVSPropertyOp32
 70
     1
102
RTVSPropertyOp33
 70
     1
102
RTVSPropertyOp34
 70
     1
102
RTVSPropertyOp35
 70
     1
102
RTVSPropertyOp36
 70
     1
102
RTVSPropertyOp37
 70
     1
102
RTVSPropertyOp38
 70
     1
102
RTVSPropertyOp39
 70
     1
102
RTVSPropertyOp40
 70
     1
102
RTVSPropertyOp41
 70
     1
102
RTVSPropertyOp42
 70
     1
102
RTVSPropertyOp43
 70
     1
102
RTVSPropertyOp44
 70
     1
102
RTVSPropertyOp45
 70
     1
102
RTVSPropertyOp46
 70
     1
102
RTVSPropertyOp47
 70
     1
102
RTVSPropertyOp48
 70
     1
102
RTVSPropertyOp49
 70
     1
102
RTVSPropertyOp50
 70
     1
102
RTVSPropertyOp51
 70
     0
102
RTVSPropertyOp52
 70
     0
102
RTVSPropertyOp53
 70
     1
102
RTVSPropertyOp54
 70
     1
102
RTVSPropertyOp55
 70
     1
102
RTVSPropertyOp56
 70
     1
102
RTVSPropertyOp57
 70
     1
102
RTVSPropertyOp58
 70
     1
102
RTVSPropertyOp59
 70
     1
102
RTVSPropertyOp60
 70
     1
102
RTVSPropertyOp61
 70
     1
102
RTVSPropertyOp62
 70
     1
  0
XRECORD
  5
FD5
102
{ACAD_REACTORS
330
FD4
102
}
330
FD4
100
AcDbXrecord
280
     1
102
RTVSPost2010Prop28
280
     0
102
RTVSPost2010PropOp28
 70
     1
102
RTVSPost2010Prop29
280
     1
102
RTVSPost2010PropOp29
 70
     1
102
RTVSPost2010Prop30
280
     1
102
RTVSPost2010PropOp30
 70
     1
102
RTVSPost2010Prop31
280
     0
102
RTVSPost2010PropOp31
 70
     1
102
RTVSPost2010Prop32
280
     0
102
RTVSPost2010PropOp32
 70
     1
102
RTVSPost2010Prop33
280
     0
102
RTVSPost2010PropOp33
 70
     1
102
RTVSPost2010Prop34
280
     0
102
RTVSPost2010PropOp34
 70
     1
102
RTVSPost2010Prop35
280
     0
102
RTVSPost2010PropOp35
 70
     1
102
RTVSPost2010Prop36
280
     0
102
RTVSPost2010PropOp36
 70
     1
102
RTVSPost2010Prop37
 90
       50
102
RTVSPost2010PropOp37
 70
     1
102
RTVSPost2010Prop38
140
0.0
102
RTVSPost2010PropOp38
 70
     1
102
RTVSPost2010Prop39
140
1.0
102
RTVSPost2010PropOp39
 70
     1
102
RTVSPost2010Prop40
 90
        0
102
RTVSPost2010PropOp40
 70
     1
102
RTVSPost2010Prop41ColorIndex
 90
       18
102
RTVSPost2010Prop41ColorRGB
 90
        0
102
RTVSPost2010PropOp41
 70
     1
102
RTVSPost2010Prop42
 90
       50
102
RTVSPost2010PropOp42
 70
     1
102
RTVSPost2010Prop43
 90
        3
102
RTVSPost2010PropOp43
 70
     1
102
RTVSPost2010Prop44ColorIndex
 90
        5
102
RTVSPost2010Prop44ColorRGB
 90
      255
102
RTVSPost2010PropOp44
 70
     1
102
RTVSPost2010Prop45
280
     0
102
RTVSPost2010PropOp45
 70
     1
102
RTVSPost2010Prop46
 90
       50
102
RTVSPost2010PropOp46
 70
     1
102
RTVSPost2010Prop47
 90
       50
102
RTVSPost2010PropOp47
 70
     1
102
RTVSPost2010Prop48
 90
       50
102
RTVSPost2010PropOp48
 70
     1
102
RTVSPost2010Prop49
280
     0
102
RTVSPost2010PropOp49
 70
     1
102
RTVSPost2010Prop50
 90
       50
102
RTVSPost2010PropOp50
 70
     1
102
RTVSPost2010Prop51ColorIndex
 90
      256
102
RTVSPost2010Prop51ColorRGB
 90
-16777216
102
RTVSPost2010PropOp51
 70
     0
102
RTVSPost2010Prop52
140
1.0
102
RTVSPost2010PropOp52
 70
     0
102
RTVSPost2010Prop53
 90
        2
102
RTVSPost2010PropOp53
 70
     1
102
RTVSPost2010Prop54
  1
strokes_ogs.tif
102
RTVSPost2010PropOp54
 70
     1
102
RTVSPost2010Prop55
280
     0
102
RTVSPost2010PropOp55
 70
     1
102
RTVSPost2010Prop56
140
1.0
102
RTVSPost2010PropOp56
 70
     1
102
RTVSPost2010Prop57
140
1.0
102
RTVSPost2010PropOp57
 70
     1
102
RTVSPropertyOp0
 70
     1
102
RTVSPropertyOp1
 70
     1
102
RTVSPropertyOp2
 70
     1
102
RTVSPropertyOp3
 70
     1
102
RTVSPropertyOp4
 70
     1
102
RTVSPropertyOp5
 70
     1
102
RTVSPropertyOp6
 70
     1
102
RTVSPropertyOp7
 70
     1
102
RTVSPropertyOp8
 70
     1
102
RTVSPropertyOp9
 70
     1
102
RTVSPropertyOp10
 70
     1
102
RTVSPropertyOp11
 70
     1
102
RTVSPropertyOp12
 70
     1
102
RTVSPropertyOp13
 70
     1
102
RTVSPropertyOp14
 70
     1
102
RTVSPropertyOp15
 70
     1
102
RTVSPropertyOp16
 70
     1
102
RTVSPropertyOp17
 70
     1
102
RTVSPropertyOp18
 70
     1
102
RTVSPropertyOp19
 70
     1
102
RTVSPropertyOp20
 70
     1
102
RTVSPropertyOp21
 70
     1
102
RTVSPropertyOp22
 70
     1
102
RTVSPropertyOp23
 70
     1
102
RTVSPropertyOp24
 70
     1
102
RTVSPropertyOp25
 70
     1
102
RTVSPropertyOp26
 70
     1
102
RTVSPropertyOp27
 70
     1
102
RTVSPropertyOp28
 70
     1
102
RTVSPropertyOp29
 70
     1
102
RTVSPropertyOp30
 70
     1
102
RTVSPropertyOp31
 70
     1
102
RTVSPropertyOp32
 70
     1
102
RTVSPropertyOp33
 70
     1
102
RTVSPropertyOp34
 70
     1
102
RTVSPropertyOp35
 70
     1
102
RTVSPropertyOp36
 70
     1
102
RTVSPropertyOp37
 70
     1
102
RTVSPropertyOp38
 70
     1
102
RTVSPropertyOp39
 70
     1
102
RTVSPropertyOp40
 70
     1
102
RTVSPropertyOp41
 70
     1
102
RTVSPropertyOp42
 70
     1
102
RTVSPropertyOp43
 70
     1
102
RTVSPropertyOp44
 70
     1
102
RTVSPropertyOp45
 70
     1
102
RTVSPropertyOp46
 70
     1
102
RTVSPropertyOp47
 70
     1
102
RTVSPropertyOp48
 70
     1
102
RTVSPropertyOp49
 70
     1
102
RTVSPropertyOp50
 70
     1
102
RTVSPropertyOp51
 70
     0
102
RTVSPropertyOp52
 70
     0
102
RTVSPropertyOp53
 70
     1
102
RTVSPropertyOp54
 70
     1
102
RTVSPropertyOp55
 70
     1
102
RTVSPropertyOp56
 70
     1
102
RTVSPropertyOp57
 70
     1
102
RTVSPropertyOp58
 70
     1
102
RTVSPropertyOp59
 70
     1
102
RTVSPropertyOp60
 70
     1
102
RTVSPropertyOp61
 70
     1
102
RTVSPropertyOp62
 70
     1
  0
XRECORD
  5
FDD
102
{ACAD_REACTORS
330
FDC
102
}
330
FDC
100
AcDbXrecord
280
     1
102
RTVSPost2010Prop28
280
     0
102
RTVSPost2010PropOp28
 70
     1
102
RTVSPost2010Prop29
280
     1
102
RTVSPost2010PropOp29
 70
     1
102
RTVSPost2010Prop30
280
     1
102
RTVSPost2010PropOp30
 70
     1
102
RTVSPost2010Prop31
280
     0
102
RTVSPost2010PropOp31
 70
     1
102
RTVSPost2010Prop32
280
     0
102
RTVSPost2010PropOp32
 70
     1
102
RTVSPost2010Prop33
280
     0
102
RTVSPost2010PropOp33
 70
     1
102
RTVSPost2010Prop34
280
     0
102
RTVSPost2010PropOp34
 70
     1
102
RTVSPost2010Prop35
280
     0
102
RTVSPost2010PropOp35
 70
     1
102
RTVSPost2010Prop36
280
     0
102
RTVSPost2010PropOp36
 70
     1
102
RTVSPost2010Prop37
 90
       50
102
RTVSPost2010PropOp37
 70
     1
102
RTVSPost2010Prop38
140
0.0
102
RTVSPost2010PropOp38
 70
     1
102
RTVSPost2010Prop39
140
1.0
102
RTVSPost2010PropOp39
 70
     1
102
RTVSPost2010Prop40
 90
        0
102
RTVSPost2010PropOp40
 70
     1
102
RTVSPost2010Prop41ColorIndex
 90
       18
102
RTVSPost2010Prop41ColorRGB
 90
        0
102
RTVSPost2010PropOp41
 70
     1
102
RTVSPost2010Prop42
 90
       50
102
RTVSPost2010PropOp42
 70
     1
102
RTVSPost2010Prop43
 90
        3
102
RTVSPost2010PropOp43
 70
     1
102
RTVSPost2010Prop44ColorIndex
 90
        5
102
RTVSPost2010Prop44ColorRGB
 90
      255
102
RTVSPost2010PropOp44
 70
     1
102
RTVSPost2010Prop45
280
     0
102
RTVSPost2010PropOp45
 70
     1
102
RTVSPost2010Prop46
 90
       50
102
RTVSPost2010PropOp46
 70
     1
102
RTVSPost2010Prop47
 90
       50
102
RTVSPost2010PropOp47
 70
     1
102
RTVSPost2010Prop48
 90
       50
102
RTVSPost2010PropOp48
 70
     1
102
RTVSPost2010Prop49
280
     0
102
RTVSPost2010PropOp49
 70
     1
102
RTVSPost2010Prop50
 90
       50
102
RTVSPost2010PropOp50
 70
     1
102
RTVSPost2010Prop51ColorIndex
 90
      256
102
RTVSPost2010Prop51ColorRGB
 90
-16777216
102
RTVSPost2010PropOp51
 70
     0
102
RTVSPost2010Prop52
140
1.0
102
RTVSPost2010PropOp52
 70
     0
102
RTVSPost2010Prop53
 90
        2
102
RTVSPost2010PropOp53
 70
     1
102
RTVSPost2010Prop54
  1
strokes_ogs.tif
102
RTVSPost2010PropOp54
 70
     1
102
RTVSPost2010Prop55
280
     0
102
RTVSPost2010PropOp55
 70
     1
102
RTVSPost2010Prop56
140
1.0
102
RTVSPost2010PropOp56
 70
     1
102
RTVSPost2010Prop57
140
1.0
102
RTVSPost2010PropOp57
 70
     1
102
RTVSPropertyOp0
 70
     1
102
RTVSPropertyOp1
 70
     1
102
RTVSPropertyOp2
 70
     1
102
RTVSPropertyOp3
 70
     1
102
RTVSPropertyOp4
 70
     1
102
RTVSPropertyOp5
 70
     1
102
RTVSPropertyOp6
 70
     1
102
RTVSPropertyOp7
 70
     1
102
RTVSPropertyOp8
 70
     1
102
RTVSPropertyOp9
 70
     1
102
RTVSPropertyOp10
 70
     1
102
RTVSPropertyOp11
 70
     1
102
RTVSPropertyOp12
 70
     1
102
RTVSPropertyOp13
 70
     1
102
RTVSPropertyOp14
 70
     1
102
RTVSPropertyOp15
 70
     1
102
RTVSPropertyOp16
 70
     1
102
RTVSPropertyOp17
 70
     1
102
RTVSPropertyOp18
 70
     1
102
RTVSPropertyOp19
 70
     1
102
RTVSPropertyOp20
 70
     1
102
RTVSPropertyOp21
 70
     1
102
RTVSPropertyOp22
 70
     1
102
RTVSPropertyOp23
 70
     1
102
RTVSPropertyOp24
 70
     1
102
RTVSPropertyOp25
 70
     1
102
RTVSPropertyOp26
 70
     1
102
RTVSPropertyOp27
 70
     1
102
RTVSPropertyOp28
 70
     1
102
RTVSPropertyOp29
 70
     1
102
RTVSPropertyOp30
 70
     1
102
RTVSPropertyOp31
 70
     1
102
RTVSPropertyOp32
 70
     1
102
RTVSPropertyOp33
 70
     1
102
RTVSPropertyOp34
 70
     1
102
RTVSPropertyOp35
 70
     1
102
RTVSPropertyOp36
 70
     1
102
RTVSPropertyOp37
 70
     1
102
RTVSPropertyOp38
 70
     1
102
RTVSPropertyOp39
 70
     1
102
RTVSPropertyOp40
 70
     1
102
RTVSPropertyOp41
 70
     1
102
RTVSPropertyOp42
 70
     1
102
RTVSPropertyOp43
 70
     1
102
RTVSPropertyOp44
 70
     1
102
RTVSPropertyOp45
 70
     1
102
RTVSPropertyOp46
 70
     1
102
RTVSPropertyOp47
 70
     1
102
RTVSPropertyOp48
 70
     1
102
RTVSPropertyOp49
 70
     1
102
RTVSPropertyOp50
 70
     1
102
RTVSPropertyOp51
 70
     0
102
RTVSPropertyOp52
 70
     0
102
RTVSPropertyOp53
 70
     1
102
RTVSPropertyOp54
 70
     1
102
RTVSPropertyOp55
 70
     1
102
RTVSPropertyOp56
 70
     1
102
RTVSPropertyOp57
 70
     1
102
RTVSPropertyOp58
 70
     1
102
RTVSPropertyOp59
 70
     1
102
RTVSPropertyOp60
 70
     1
102
RTVSPropertyOp61
 70
     1
102
RTVSPropertyOp62
 70
     1
  0
XRECORD
  5
FF9
102
{ACAD_REACTORS
330
FF8
102
}
330
FF8
100
AcDbXrecord
280
     1
102
RTVSPost2010Prop28
280
     0
102
RTVSPost2010PropOp28
 70
     1
102
RTVSPost2010Prop29
280
     1
102
RTVSPost2010PropOp29
 70
     1
102
RTVSPost2010Prop30
280
     1
102
RTVSPost2010PropOp30
 70
     1
102
RTVSPost2010Prop31
280
     0
102
RTVSPost2010PropOp31
 70
     1
102
RTVSPost2010Prop32
280
     0
102
RTVSPost2010PropOp32
 70
     1
102
RTVSPost2010Prop33
280
     0
102
RTVSPost2010PropOp33
 70
     1
102
RTVSPost2010Prop34
280
     0
102
RTVSPost2010PropOp34
 70
     1
102
RTVSPost2010Prop35
280
     0
102
RTVSPost2010PropOp35
 70
     1
102
RTVSPost2010Prop36
280
     0
102
RTVSPost2010PropOp36
 70
     1
102
RTVSPost2010Prop37
 90
       50
102
RTVSPost2010PropOp37
 70
     0
102
RTVSPost2010Prop38
140
0.0
102
RTVSPost2010PropOp38
 70
     0
102
RTVSPost2010Prop39
140
1.0
102
RTVSPost2010PropOp39
 70
     0
102
RTVSPost2010Prop40
 90
        0
102
RTVSPost2010PropOp40
 70
     0
102
RTVSPost2010Prop41ColorIndex
 90
       18
102
RTVSPost2010Prop41ColorRGB
 90
        0
102
RTVSPost2010PropOp41
 70
     0
102
RTVSPost2010Prop42
 90
       50
102
RTVSPost2010PropOp42
 70
     0
102
RTVSPost2010Prop43
 90
        3
102
RTVSPost2010PropOp43
 70
     0
102
RTVSPost2010Prop44ColorIndex
 90
        5
102
RTVSPost2010Prop44ColorRGB
 90
      255
102
RTVSPost2010PropOp44
 70
     0
102
RTVSPost2010Prop45
280
     0
102
RTVSPost2010PropOp45
 70
     1
102
RTVSPost2010Prop46
 90
       50
102
RTVSPost2010PropOp46
 70
     0
102
RTVSPost2010Prop47
 90
       50
102
RTVSPost2010PropOp47
 70
     0
102
RTVSPost2010Prop48
 90
       50
102
RTVSPost2010PropOp48
 70
     0
102
RTVSPost2010Prop49
280
     0
102
RTVSPost2010PropOp49
 70
     1
102
RTVSPost2010Prop50
 90
       50
102
RTVSPost2010PropOp50
 70
     0
102
RTVSPost2010Prop51ColorIndex
 90
      256
102
RTVSPost2010Prop51ColorRGB
 90
-16777216
102
RTVSPost2010PropOp51
 70
     0
102
RTVSPost2010Prop52
140
1.0
102
RTVSPost2010PropOp52
 70
     0
102
RTVSPost2010Prop53
 90
        2
102
RTVSPost2010PropOp53
 70
     0
102
RTVSPost2010Prop54
  1
strokes_ogs.tif
102
RTVSPost2010PropOp54
 70
     0
102
RTVSPost2010Prop55
280
     0
102
RTVSPost2010PropOp55
 70
     1
102
RTVSPost2010Prop56
140
1.0
102
RTVSPost2010PropOp56
 70
     0
102
RTVSPost2010Prop57
140
1.0
102
RTVSPost2010PropOp57
 70
     0
102
RTVSPropertyOp0
 70
     0
102
RTVSPropertyOp1
 70
     0
102
RTVSPropertyOp2
 70
     0
102
RTVSPropertyOp3
 70
     0
102
RTVSPropertyOp4
 70
     0
102
RTVSPropertyOp5
 70
     0
102
RTVSPropertyOp6
 70
     0
102
RTVSPropertyOp7
 70
     0
102
RTVSPropertyOp8
 70
     0
102
RTVSPropertyOp9
 70
     0
102
RTVSPropertyOp10
 70
     0
102
RTVSPropertyOp11
 70
     0
102
RTVSPropertyOp12
 70
     0
102
RTVSPropertyOp13
 70
     0
102
RTVSPropertyOp14
 70
     2
102
RTVSPropertyOp15
 70
     0
102
RTVSPropertyOp16
 70
     0
102
RTVSPropertyOp17
 70
     0
102
RTVSPropertyOp18
 70
     0
102
RTVSPropertyOp19
 70
     0
102
RTVSPropertyOp20
 70
     0
102
RTVSPropertyOp21
 70
     0
102
RTVSPropertyOp22
 70
     0
102
RTVSPropertyOp23
 70
     0
102
RTVSPropertyOp24
 70
     0
102
RTVSPropertyOp25
 70
     0
102
RTVSPropertyOp26
 70
     0
102
RTVSPropertyOp27
 70
     0
102
RTVSPropertyOp28
 70
     1
102
RTVSPropertyOp29
 70
     1
102
RTVSPropertyOp30
 70
     1
102
RTVSPropertyOp31
 70
     1
102
RTVSPropertyOp32
 70
     1
102
RTVSPropertyOp33
 70
     1
102
RTVSPropertyOp34
 70
     1
102
RTVSPropertyOp35
 70
     1
102
RTVSPropertyOp36
 70
     1
102
RTVSPropertyOp37
 70
     0
102
RTVSPropertyOp38
 70
     0
102
RTVSPropertyOp39
 70
     0
102
RTVSPropertyOp40
 70
     0
102
RTVSPropertyOp41
 70
     0
102
RTVSPropertyOp42
 70
     0
102
RTVSPropertyOp43
 70
     0
102
RTVSPropertyOp44
 70
     0
102
RTVSPropertyOp45
 70
     1
102
RTVSPropertyOp46
 70
     0
102
RTVSPropertyOp47
 70
     0
102
RTVSPropertyOp48
 70
     0
102
RTVSPropertyOp49
 70
     1
102
RTVSPropertyOp50
 70
     0
102
RTVSPropertyOp51
 70
     0
102
RTVSPropertyOp52
 70
     0
102
RTVSPropertyOp53
 70
     0
102
RTVSPropertyOp54
 70
     0
102
RTVSPropertyOp55
 70
     1
102
RTVSPropertyOp56
 70
     0
102
RTVSPropertyOp57
 70
     0
102
RTVSPropertyOp58
 70
     1
102
RTVSPropertyOp59
 70
     1
102
RTVSPropertyOp60
 70
     1
102
RTVSPropertyOp61
 70
     1
102
RTVSPropertyOp62
 70
     1
  0
XRECORD
  5
FE9
102
{ACAD_REACTORS
330
FE8
102
}
330
FE8
100
AcDbXrecord
280
     1
102
RTVSPost2010Prop28
280
     0
102
RTVSPost2010PropOp28
 70
     1
102
RTVSPost2010Prop29
280
     1
102
RTVSPost2010PropOp29
 70
     1
102
RTVSPost2010Prop30
280
     1
102
RTVSPost2010PropOp30
 70
     1
102
RTVSPost2010Prop31
280
     0
102
RTVSPost2010PropOp31
 70
     1
102
RTVSPost2010Prop32
280
     0
102
RTVSPost2010PropOp32
 70
     1
102
RTVSPost2010Prop33
280
     0
102
RTVSPost2010PropOp33
 70
     1
102
RTVSPost2010Prop34
280
     0
102
RTVSPost2010PropOp34
 70
     1
102
RTVSPost2010Prop35
280
     0
102
RTVSPost2010PropOp35
 70
     1
102
RTVSPost2010Prop36
280
     0
102
RTVSPost2010PropOp36
 70
     1
102
RTVSPost2010Prop37
 90
       50
102
RTVSPost2010PropOp37
 70
     1
102
RTVSPost2010Prop38
140
0.0
102
RTVSPost2010PropOp38
 70
     1
102
RTVSPost2010Prop39
140
1.0
102
RTVSPost2010PropOp39
 70
     1
102
RTVSPost2010Prop40
 90
        0
102
RTVSPost2010PropOp40
 70
     1
102
RTVSPost2010Prop41ColorIndex
 90
       18
102
RTVSPost2010Prop41ColorRGB
 90
        0
102
RTVSPost2010PropOp41
 70
     1
102
RTVSPost2010Prop42
 90
       50
102
RTVSPost2010PropOp42
 70
     1
102
RTVSPost2010Prop43
 90
        3
102
RTVSPost2010PropOp43
 70
     1
102
RTVSPost2010Prop44ColorIndex
 90
        5
102
RTVSPost2010Prop44ColorRGB
 90
      255
102
RTVSPost2010PropOp44
 70
     1
102
RTVSPost2010Prop45
280
     0
102
RTVSPost2010PropOp45
 70
     1
102
RTVSPost2010Prop46
 90
       50
102
RTVSPost2010PropOp46
 70
     1
102
RTVSPost2010Prop47
 90
       50
102
RTVSPost2010PropOp47
 70
     1
102
RTVSPost2010Prop48
 90
       50
102
RTVSPost2010PropOp48
 70
     1
102
RTVSPost2010Prop49
280
     0
102
RTVSPost2010PropOp49
 70
     1
102
RTVSPost2010Prop50
 90
       50
102
RTVSPost2010PropOp50
 70
     1
102
RTVSPost2010Prop51ColorIndex
 90
      256
102
RTVSPost2010Prop51ColorRGB
 90
-16777216
102
RTVSPost2010PropOp51
 70
     0
102
RTVSPost2010Prop52
140
1.0
102
RTVSPost2010PropOp52
 70
     0
102
RTVSPost2010Prop53
 90
        2
102
RTVSPost2010PropOp53
 70
     1
102
RTVSPost2010Prop54
  1
strokes_ogs.tif
102
RTVSPost2010PropOp54
 70
     1
102
RTVSPost2010Prop55
280
     0
102
RTVSPost2010PropOp55
 70
     1
102
RTVSPost2010Prop56
140
1.0
102
RTVSPost2010PropOp56
 70
     1
102
RTVSPost2010Prop57
140
1.0
102
RTVSPost2010PropOp57
 70
     1
102
RTVSPropertyOp0
 70
     1
102
RTVSPropertyOp1
 70
     1
102
RTVSPropertyOp2
 70
     1
102
RTVSPropertyOp3
 70
     1
102
RTVSPropertyOp4
 70
     1
102
RTVSPropertyOp5
 70
     1
102
RTVSPropertyOp6
 70
     1
102
RTVSPropertyOp7
 70
     1
102
RTVSPropertyOp8
 70
     1
102
RTVSPropertyOp9
 70
     1
102
RTVSPropertyOp10
 70
     1
102
RTVSPropertyOp11
 70
     1
102
RTVSPropertyOp12
 70
     1
102
RTVSPropertyOp13
 70
     1
102
RTVSPropertyOp14
 70
     1
102
RTVSPropertyOp15
 70
     1
102
RTVSPropertyOp16
 70
     1
102
RTVSPropertyOp17
 70
     1
102
RTVSPropertyOp18
 70
     1
102
RTVSPropertyOp19
 70
     1
102
RTVSPropertyOp20
 70
     1
102
RTVSPropertyOp21
 70
     1
102
RTVSPropertyOp22
 70
     1
102
RTVSPropertyOp23
 70
     1
102
RTVSPropertyOp24
 70
     1
102
RTVSPropertyOp25
 70
     1
102
RTVSPropertyOp26
 70
     1
102
RTVSPropertyOp27
 70
     1
102
RTVSPropertyOp28
 70
     1
102
RTVSPropertyOp29
 70
     1
102
RTVSPropertyOp30
 70
     1
102
RTVSPropertyOp31
 70
     1
102
RTVSPropertyOp32
 70
     1
102
RTVSPropertyOp33
 70
     1
102
RTVSPropertyOp34
 70
     1
102
RTVSPropertyOp35
 70
     1
102
RTVSPropertyOp36
 70
     1
102
RTVSPropertyOp37
 70
     1
102
RTVSPropertyOp38
 70
     1
102
RTVSPropertyOp39
 70
     1
102
RTVSPropertyOp40
 70
     1
102
RTVSPropertyOp41
 70
     1
102
RTVSPropertyOp42
 70
     1
102
RTVSPropertyOp43
 70
     1
102
RTVSPropertyOp44
 70
     1
102
RTVSPropertyOp45
 70
     1
102
RTVSPropertyOp46
 70
     1
102
RTVSPropertyOp47
 70
     1
102
RTVSPropertyOp48
 70
     1
102
RTVSPropertyOp49
 70
     1
102
RTVSPropertyOp50
 70
     1
102
RTVSPropertyOp51
 70
     0
102
RTVSPropertyOp52
 70
     0
102
RTVSPropertyOp53
 70
     1
102
RTVSPropertyOp54
 70
     1
102
RTVSPropertyOp55
 70
     1
102
RTVSPropertyOp56
 70
     1
102
RTVSPropertyOp57
 70
     1
102
RTVSPropertyOp58
 70
     1
102
RTVSPropertyOp59
 70
     1
102
RTVSPropertyOp60
 70
     1
102
RTVSPropertyOp61
 70
     1
102
RTVSPropertyOp62
 70
     1
  0
XRECORD
  5
FFB
102
{ACAD_REACTORS
330
FFA
102
}
330
FFA
100
AcDbXrecord
280
     1
102
RTVSPost2010Prop28
280
     0
102
RTVSPost2010PropOp28
 70
     1
102
RTVSPost2010Prop29
280
     1
102
RTVSPost2010PropOp29
 70
     1
102
RTVSPost2010Prop30
280
     1
102
RTVSPost2010PropOp30
 70
     1
102
RTVSPost2010Prop31
280
     0
102
RTVSPost2010PropOp31
 70
     1
102
RTVSPost2010Prop32
280
     0
102
RTVSPost2010PropOp32
 70
     1
102
RTVSPost2010Prop33
280
     0
102
RTVSPost2010PropOp33
 70
     1
102
RTVSPost2010Prop34
280
     0
102
RTVSPost2010PropOp34
 70
     1
102
RTVSPost2010Prop35
280
     0
102
RTVSPost2010PropOp35
 70
     1
102
RTVSPost2010Prop36
280
     0
102
RTVSPost2010PropOp36
 70
     1
102
RTVSPost2010Prop37
 90
       50
102
RTVSPost2010PropOp37
 70
     0
102
RTVSPost2010Prop38
140
0.0
102
RTVSPost2010PropOp38
 70
     0
102
RTVSPost2010Prop39
140
1.0
102
RTVSPost2010PropOp39
 70
     0
102
RTVSPost2010Prop40
 90
        0
102
RTVSPost2010PropOp40
 70
     0
102
RTVSPost2010Prop41ColorIndex
 90
       18
102
RTVSPost2010Prop41ColorRGB
 90
        0
102
RTVSPost2010PropOp41
 70
     0
102
RTVSPost2010Prop42
 90
       50
102
RTVSPost2010PropOp42
 70
     0
102
RTVSPost2010Prop43
 90
        3
102
RTVSPost2010PropOp43
 70
     0
102
RTVSPost2010Prop44ColorIndex
 90
        5
102
RTVSPost2010Prop44ColorRGB
 90
      255
102
RTVSPost2010PropOp44
 70
     0
102
RTVSPost2010Prop45
280
     0
102
RTVSPost2010PropOp45
 70
     1
102
RTVSPost2010Prop46
 90
       50
102
RTVSPost2010PropOp46
 70
     0
102
RTVSPost2010Prop47
 90
       50
102
RTVSPost2010PropOp47
 70
     0
102
RTVSPost2010Prop48
 90
       50
102
RTVSPost2010PropOp48
 70
     0
102
RTVSPost2010Prop49
280
     0
102
RTVSPost2010PropOp49
 70
     1
102
RTVSPost2010Prop50
 90
       50
102
RTVSPost2010PropOp50
 70
     0
102
RTVSPost2010Prop51ColorIndex
 90
      256
102
RTVSPost2010Prop51ColorRGB
 90
-16777216
102
RTVSPost2010PropOp51
 70
     0
102
RTVSPost2010Prop52
140
1.0
102
RTVSPost2010PropOp52
 70
     0
102
RTVSPost2010Prop53
 90
        2
102
RTVSPost2010PropOp53
 70
     0
102
RTVSPost2010Prop54
  1
strokes_ogs.tif
102
RTVSPost2010PropOp54
 70
     0
102
RTVSPost2010Prop55
280
     0
102
RTVSPost2010PropOp55
 70
     1
102
RTVSPost2010Prop56
140
1.0
102
RTVSPost2010PropOp56
 70
     0
102
RTVSPost2010Prop57
140
1.0
102
RTVSPost2010PropOp57
 70
     0
102
RTVSPropertyOp0
 70
     0
102
RTVSPropertyOp1
 70
     0
102
RTVSPropertyOp2
 70
     0
102
RTVSPropertyOp3
 70
     0
102
RTVSPropertyOp4
 70
     0
102
RTVSPropertyOp5
 70
     0
102
RTVSPropertyOp6
 70
     0
102
RTVSPropertyOp7
 70
     0
102
RTVSPropertyOp8
 70
     0
102
RTVSPropertyOp9
 70
     0
102
RTVSPropertyOp10
 70
     0
102
RTVSPropertyOp11
 70
     0
102
RTVSPropertyOp12
 70
     0
102
RTVSPropertyOp13
 70
     0
102
RTVSPropertyOp14
 70
     2
102
RTVSPropertyOp15
 70
     0
102
RTVSPropertyOp16
 70
     0
102
RTVSPropertyOp17
 70
     0
102
RTVSPropertyOp18
 70
     0
102
RTVSPropertyOp19
 70
     0
102
RTVSPropertyOp20
 70
     0
102
RTVSPropertyOp21
 70
     0
102
RTVSPropertyOp22
 70
     0
102
RTVSPropertyOp23
 70
     0
102
RTVSPropertyOp24
 70
     0
102
RTVSPropertyOp25
 70
     0
102
RTVSPropertyOp26
 70
     0
102
RTVSPropertyOp27
 70
     0
102
RTVSPropertyOp28
 70
     1
102
RTVSPropertyOp29
 70
     1
102
RTVSPropertyOp30
 70
     1
102
RTVSPropertyOp31
 70
     1
102
RTVSPropertyOp32
 70
     1
102
RTVSPropertyOp33
 70
     1
102
RTVSPropertyOp34
 70
     1
102
RTVSPropertyOp35
 70
     1
102
RTVSPropertyOp36
 70
     1
102
RTVSPropertyOp37
 70
     0
102
RTVSPropertyOp38
 70
     0
102
RTVSPropertyOp39
 70
     0
102
RTVSPropertyOp40
 70
     0
102
RTVSPropertyOp41
 70
     0
102
RTVSPropertyOp42
 70
     0
102
RTVSPropertyOp43
 70
     0
102
RTVSPropertyOp44
 70
     0
102
RTVSPropertyOp45
 70
     1
102
RTVSPropertyOp46
 70
     0
102
RTVSPropertyOp47
 70
     0
102
RTVSPropertyOp48
 70
     0
102
RTVSPropertyOp49
 70
     1
102
RTVSPropertyOp50
 70
     0
102
RTVSPropertyOp51
 70
     0
102
RTVSPropertyOp52
 70
     0
102
RTVSPropertyOp53
 70
     0
102
RTVSPropertyOp54
 70
     0
102
RTVSPropertyOp55
 70
     1
102
RTVSPropertyOp56
 70
     0
102
RTVSPropertyOp57
 70
     0
102
RTVSPropertyOp58
 70
     1
102
RTVSPropertyOp59
 70
     1
102
RTVSPropertyOp60
 70
     1
102
RTVSPropertyOp61
 70
     1
102
RTVSPropertyOp62
 70
     1
  0
XRECORD
  5
FE1
102
{ACAD_REACTORS
330
FE0
102
}
330
FE0
100
AcDbXrecord
280
     1
102
RTVSPost2010Prop28
280
     0
102
RTVSPost2010PropOp28
 70
     1
102
RTVSPost2010Prop29
280
     1
102
RTVSPost2010PropOp29
 70
     1
102
RTVSPost2010Prop30
280
     1
102
RTVSPost2010PropOp30
 70
     1
102
RTVSPost2010Prop31
280
     0
102
RTVSPost2010PropOp31
 70
     1
102
RTVSPost2010Prop32
280
     0
102
RTVSPost2010PropOp32
 70
     1
102
RTVSPost2010Prop33
280
     0
102
RTVSPost2010PropOp33
 70
     1
102
RTVSPost2010Prop34
280
     0
102
RTVSPost2010PropOp34
 70
     1
102
RTVSPost2010Prop35
280
     0
102
RTVSPost2010PropOp35
 70
     1
102
RTVSPost2010Prop36
280
     0
102
RTVSPost2010PropOp36
 70
     1
102
RTVSPost2010Prop37
 90
       50
102
RTVSPost2010PropOp37
 70
     1
102
RTVSPost2010Prop38
140
0.0
102
RTVSPost2010PropOp38
 70
     1
102
RTVSPost2010Prop39
140
1.0
102
RTVSPost2010PropOp39
 70
     1
102
RTVSPost2010Prop40
 90
        0
102
RTVSPost2010PropOp40
 70
     1
102
RTVSPost2010Prop41ColorIndex
 90
       18
102
RTVSPost2010Prop41ColorRGB
 90
        0
102
RTVSPost2010PropOp41
 70
     1
102
RTVSPost2010Prop42
 90
       50
102
RTVSPost2010PropOp42
 70
     1
102
RTVSPost2010Prop43
 90
        3
102
RTVSPost2010PropOp43
 70
     1
102
RTVSPost2010Prop44ColorIndex
 90
        5
102
RTVSPost2010Prop44ColorRGB
 90
      255
102
RTVSPost2010PropOp44
 70
     1
102
RTVSPost2010Prop45
280
     0
102
RTVSPost2010PropOp45
 70
     1
102
RTVSPost2010Prop46
 90
       50
102
RTVSPost2010PropOp46
 70
     1
102
RTVSPost2010Prop47
 90
       50
102
RTVSPost2010PropOp47
 70
     1
102
RTVSPost2010Prop48
 90
       50
102
RTVSPost2010PropOp48
 70
     1
102
RTVSPost2010Prop49
280
     0
102
RTVSPost2010PropOp49
 70
     1
102
RTVSPost2010Prop50
 90
       50
102
RTVSPost2010PropOp50
 70
     1
102
RTVSPost2010Prop51ColorIndex
 90
      256
102
RTVSPost2010Prop51ColorRGB
 90
-16777216
102
RTVSPost2010PropOp51
 70
     0
102
RTVSPost2010Prop52
140
1.0
102
RTVSPost2010PropOp52
 70
     0
102
RTVSPost2010Prop53
 90
        2
102
RTVSPost2010PropOp53
 70
     1
102
RTVSPost2010Prop54
  1
strokes_ogs.tif
102
RTVSPost2010PropOp54
 70
     1
102
RTVSPost2010Prop55
280
     0
102
RTVSPost2010PropOp55
 70
     1
102
RTVSPost2010Prop56
140
1.0
102
RTVSPost2010PropOp56
 70
     1
102
RTVSPost2010Prop57
140
1.0
102
RTVSPost2010PropOp57
 70
     1
102
RTVSPropertyOp0
 70
     1
102
RTVSPropertyOp1
 70
     1
102
RTVSPropertyOp2
 70
     1
102
RTVSPropertyOp3
 70
     1
102
RTVSPropertyOp4
 70
     1
102
RTVSPropertyOp5
 70
     1
102
RTVSPropertyOp6
 70
     1
102
RTVSPropertyOp7
 70
     1
102
RTVSPropertyOp8
 70
     1
102
RTVSPropertyOp9
 70
     1
102
RTVSPropertyOp10
 70
     1
102
RTVSPropertyOp11
 70
     1
102
RTVSPropertyOp12
 70
     1
102
RTVSPropertyOp13
 70
     1
102
RTVSPropertyOp14
 70
     1
102
RTVSPropertyOp15
 70
     1
102
RTVSPropertyOp16
 70
     1
102
RTVSPropertyOp17
 70
     1
102
RTVSPropertyOp18
 70
     1
102
RTVSPropertyOp19
 70
     1
102
RTVSPropertyOp20
 70
     1
102
RTVSPropertyOp21
 70
     1
102
RTVSPropertyOp22
 70
     1
102
RTVSPropertyOp23
 70
     1
102
RTVSPropertyOp24
 70
     1
102
RTVSPropertyOp25
 70
     1
102
RTVSPropertyOp26
 70
     1
102
RTVSPropertyOp27
 70
     1
102
RTVSPropertyOp28
 70
     1
102
RTVSPropertyOp29
 70
     1
102
RTVSPropertyOp30
 70
     1
102
RTVSPropertyOp31
 70
     1
102
RTVSPropertyOp32
 70
     1
102
RTVSPropertyOp33
 70
     1
102
RTVSPropertyOp34
 70
     1
102
RTVSPropertyOp35
 70
     1
102
RTVSPropertyOp36
 70
     1
102
RTVSPropertyOp37
 70
     1
102
RTVSPropertyOp38
 70
     1
102
RTVSPropertyOp39
 70
     1
102
RTVSPropertyOp40
 70
     1
102
RTVSPropertyOp41
 70
     1
102
RTVSPropertyOp42
 70
     1
102
RTVSPropertyOp43
 70
     1
102
RTVSPropertyOp44
 70
     1
102
RTVSPropertyOp45
 70
     1
102
RTVSPropertyOp46
 70
     1
102
RTVSPropertyOp47
 70
     1
102
RTVSPropertyOp48
 70
     1
102
RTVSPropertyOp49
 70
     1
102
RTVSPropertyOp50
 70
     1
102
RTVSPropertyOp51
 70
     0
102
RTVSPropertyOp52
 70
     0
102
RTVSPropertyOp53
 70
     1
102
RTVSPropertyOp54
 70
     1
102
RTVSPropertyOp55
 70
     1
102
RTVSPropertyOp56
 70
     1
102
RTVSPropertyOp57
 70
     1
102
RTVSPropertyOp58
 70
     1
102
RTVSPropertyOp59
 70
     1
102
RTVSPropertyOp60
 70
     1
102
RTVSPropertyOp61
 70
     1
102
RTVSPropertyOp62
 70
     1
  0
XRECORD
  5
FF7
102
{ACAD_REACTORS
330
FF6
102
}
330
FF6
100
AcDbXrecord
280
     1
102
RTVSPost2010Prop28
280
     0
102
RTVSPost2010PropOp28
 70
     1
102
RTVSPost2010Prop29
280
     1
102
RTVSPost2010PropOp29
 70
     1
102
RTVSPost2010Prop30
280
     1
102
RTVSPost2010PropOp30
 70
     1
102
RTVSPost2010Prop31
280
     0
102
RTVSPost2010PropOp31
 70
     1
102
RTVSPost2010Prop32
280
     0
102
RTVSPost2010PropOp32
 70
     1
102
RTVSPost2010Prop33
280
     0
102
RTVSPost2010PropOp33
 70
     1
102
RTVSPost2010Prop34
280
     0
102
RTVSPost2010PropOp34
 70
     1
102
RTVSPost2010Prop35
280
     0
102
RTVSPost2010PropOp35
 70
     1
102
RTVSPost2010Prop36
280
     0
102
RTVSPost2010PropOp36
 70
     1
102
RTVSPost2010Prop37
 90
       50
102
RTVSPost2010PropOp37
 70
     1
102
RTVSPost2010Prop38
140
0.0
102
RTVSPost2010PropOp38
 70
     1
102
RTVSPost2010Prop39
140
1.0
102
RTVSPost2010PropOp39
 70
     1
102
RTVSPost2010Prop40
 90
        0
102
RTVSPost2010PropOp40
 70
     1
102
RTVSPost2010Prop41ColorIndex
 90
       18
102
RTVSPost2010Prop41ColorRGB
 90
        0
102
RTVSPost2010PropOp41
 70
     1
102
RTVSPost2010Prop42
 90
       50
102
RTVSPost2010PropOp42
 70
     1
102
RTVSPost2010Prop43
 90
        3
102
RTVSPost2010PropOp43
 70
     1
102
RTVSPost2010Prop44ColorIndex
 90
        5
102
RTVSPost2010Prop44ColorRGB
 90
      255
102
RTVSPost2010PropOp44
 70
     1
102
RTVSPost2010Prop45
280
     0
102
RTVSPost2010PropOp45
 70
     1
102
RTVSPost2010Prop46
 90
       50
102
RTVSPost2010PropOp46
 70
     1
102
RTVSPost2010Prop47
 90
       50
102
RTVSPost2010PropOp47
 70
     1
102
RTVSPost2010Prop48
 90
       50
102
RTVSPost2010PropOp48
 70
     1
102
RTVSPost2010Prop49
280
     0
102
RTVSPost2010PropOp49
 70
     1
102
RTVSPost2010Prop50
 90
       50
102
RTVSPost2010PropOp50
 70
     1
102
RTVSPost2010Prop51ColorIndex
 90
      256
102
RTVSPost2010Prop51ColorRGB
 90
-16777216
102
RTVSPost2010PropOp51
 70
     0
102
RTVSPost2010Prop52
140
1.0
102
RTVSPost2010PropOp52
 70
     0
102
RTVSPost2010Prop53
 90
        2
102
RTVSPost2010PropOp53
 70
     1
102
RTVSPost2010Prop54
  1
strokes_ogs.tif
102
RTVSPost2010PropOp54
 70
     1
102
RTVSPost2010Prop55
280
     0
102
RTVSPost2010PropOp55
 70
     1
102
RTVSPost2010Prop56
140
1.0
102
RTVSPost2010PropOp56
 70
     1
102
RTVSPost2010Prop57
140
1.0
102
RTVSPost2010PropOp57
 70
     1
102
RTVSPropertyOp0
 70
     1
102
RTVSPropertyOp1
 70
     1
102
RTVSPropertyOp2
 70
     1
102
RTVSPropertyOp3
 70
     1
102
RTVSPropertyOp4
 70
     1
102
RTVSPropertyOp5
 70
     1
102
RTVSPropertyOp6
 70
     1
102
RTVSPropertyOp7
 70
     1
102
RTVSPropertyOp8
 70
     1
102
RTVSPropertyOp9
 70
     1
102
RTVSPropertyOp10
 70
     1
102
RTVSPropertyOp11
 70
     1
102
RTVSPropertyOp12
 70
     1
102
RTVSPropertyOp13
 70
     1
102
RTVSPropertyOp14
 70
     1
102
RTVSPropertyOp15
 70
     1
102
RTVSPropertyOp16
 70
     1
102
RTVSPropertyOp17
 70
     1
102
RTVSPropertyOp18
 70
     1
102
RTVSPropertyOp19
 70
     1
102
RTVSPropertyOp20
 70
     1
102
RTVSPropertyOp21
 70
     1
102
RTVSPropertyOp22
 70
     1
102
RTVSPropertyOp23
 70
     1
102
RTVSPropertyOp24
 70
     1
102
RTVSPropertyOp25
 70
     1
102
RTVSPropertyOp26
 70
     1
102
RTVSPropertyOp27
 70
     1
102
RTVSPropertyOp28
 70
     1
102
RTVSPropertyOp29
 70
     1
102
RTVSPropertyOp30
 70
     1
102
RTVSPropertyOp31
 70
     1
102
RTVSPropertyOp32
 70
     1
102
RTVSPropertyOp33
 70
     1
102
RTVSPropertyOp34
 70
     1
102
RTVSPropertyOp35
 70
     1
102
RTVSPropertyOp36
 70
     1
102
RTVSPropertyOp37
 70
     1
102
RTVSPropertyOp38
 70
     1
102
RTVSPropertyOp39
 70
     1
102
RTVSPropertyOp40
 70
     1
102
RTVSPropertyOp41
 70
     1
102
RTVSPropertyOp42
 70
     1
102
RTVSPropertyOp43
 70
     1
102
RTVSPropertyOp44
 70
     1
102
RTVSPropertyOp45
 70
     1
102
RTVSPropertyOp46
 70
     1
102
RTVSPropertyOp47
 70
     1
102
RTVSPropertyOp48
 70
     1
102
RTVSPropertyOp49
 70
     1
102
RTVSPropertyOp50
 70
     1
102
RTVSPropertyOp51
 70
     0
102
RTVSPropertyOp52
 70
     0
102
RTVSPropertyOp53
 70
     1
102
RTVSPropertyOp54
 70
     1
102
RTVSPropertyOp55
 70
     1
102
RTVSPropertyOp56
 70
     1
102
RTVSPropertyOp57
 70
     1
102
RTVSPropertyOp58
 70
     1
102
RTVSPropertyOp59
 70
     1
102
RTVSPropertyOp60
 70
     1
102
RTVSPropertyOp61
 70
     1
102
RTVSPropertyOp62
 70
     1
  0
XRECORD
  5
FF5
102
{ACAD_REACTORS
330
FF4
102
}
330
FF4
100
AcDbXrecord
280
     1
102
RTVSPost2010Prop28
280
     0
102
RTVSPost2010PropOp28
 70
     1
102
RTVSPost2010Prop29
280
     1
102
RTVSPost2010PropOp29
 70
     1
102
RTVSPost2010Prop30
280
     1
102
RTVSPost2010PropOp30
 70
     1
102
RTVSPost2010Prop31
280
     0
102
RTVSPost2010PropOp31
 70
     1
102
RTVSPost2010Prop32
280
     0
102
RTVSPost2010PropOp32
 70
     1
102
RTVSPost2010Prop33
280
     0
102
RTVSPost2010PropOp33
 70
     1
102
RTVSPost2010Prop34
280
     0
102
RTVSPost2010PropOp34
 70
     1
102
RTVSPost2010Prop35
280
     0
102
RTVSPost2010PropOp35
 70
     1
102
RTVSPost2010Prop36
280
     0
102
RTVSPost2010PropOp36
 70
     1
102
RTVSPost2010Prop37
 90
       50
102
RTVSPost2010PropOp37
 70
     1
102
RTVSPost2010Prop38
140
0.0
102
RTVSPost2010PropOp38
 70
     1
102
RTVSPost2010Prop39
140
1.0
102
RTVSPost2010PropOp39
 70
     1
102
RTVSPost2010Prop40
 90
        0
102
RTVSPost2010PropOp40
 70
     1
102
RTVSPost2010Prop41ColorIndex
 90
       18
102
RTVSPost2010Prop41ColorRGB
 90
        0
102
RTVSPost2010PropOp41
 70
     1
102
RTVSPost2010Prop42
 90
       50
102
RTVSPost2010PropOp42
 70
     1
102
RTVSPost2010Prop43
 90
        3
102
RTVSPost2010PropOp43
 70
     1
102
RTVSPost2010Prop44ColorIndex
 90
        5
102
RTVSPost2010Prop44ColorRGB
 90
      255
102
RTVSPost2010PropOp44
 70
     1
102
RTVSPost2010Prop45
280
     0
102
RTVSPost2010PropOp45
 70
     1
102
RTVSPost2010Prop46
 90
       50
102
RTVSPost2010PropOp46
 70
     1
102
RTVSPost2010Prop47
 90
       50
102
RTVSPost2010PropOp47
 70
     1
102
RTVSPost2010Prop48
 90
       50
102
RTVSPost2010PropOp48
 70
     1
102
RTVSPost2010Prop49
280
     0
102
RTVSPost2010PropOp49
 70
     1
102
RTVSPost2010Prop50
 90
       50
102
RTVSPost2010PropOp50
 70
     1
102
RTVSPost2010Prop51ColorIndex
 90
      256
102
RTVSPost2010Prop51ColorRGB
 90
-16777216
102
RTVSPost2010PropOp51
 70
     0
102
RTVSPost2010Prop52
140
1.0
102
RTVSPost2010PropOp52
 70
     0
102
RTVSPost2010Prop53
 90
        2
102
RTVSPost2010PropOp53
 70
     1
102
RTVSPost2010Prop54
  1
strokes_ogs.tif
102
RTVSPost2010PropOp54
 70
     1
102
RTVSPost2010Prop55
280
     0
102
RTVSPost2010PropOp55
 70
     1
102
RTVSPost2010Prop56
140
1.0
102
RTVSPost2010PropOp56
 70
     1
102
RTVSPost2010Prop57
140
1.0
102
RTVSPost2010PropOp57
 70
     1
102
RTVSPropertyOp0
 70
     1
102
RTVSPropertyOp1
 70
     1
102
RTVSPropertyOp2
 70
     1
102
RTVSPropertyOp3
 70
     1
102
RTVSPropertyOp4
 70
     1
102
RTVSPropertyOp5
 70
     1
102
RTVSPropertyOp6
 70
     1
102
RTVSPropertyOp7
 70
     1
102
RTVSPropertyOp8
 70
     1
102
RTVSPropertyOp9
 70
     1
102
RTVSPropertyOp10
 70
     1
102
RTVSPropertyOp11
 70
     1
102
RTVSPropertyOp12
 70
     1
102
RTVSPropertyOp13
 70
     1
102
RTVSPropertyOp14
 70
     1
102
RTVSPropertyOp15
 70
     1
102
RTVSPropertyOp16
 70
     1
102
RTVSPropertyOp17
 70
     1
102
RTVSPropertyOp18
 70
     1
102
RTVSPropertyOp19
 70
     1
102
RTVSPropertyOp20
 70
     1
102
RTVSPropertyOp21
 70
     1
102
RTVSPropertyOp22
 70
     1
102
RTVSPropertyOp23
 70
     1
102
RTVSPropertyOp24
 70
     1
102
RTVSPropertyOp25
 70
     1
102
RTVSPropertyOp26
 70
     1
102
RTVSPropertyOp27
 70
     1
102
RTVSPropertyOp28
 70
     1
102
RTVSPropertyOp29
 70
     1
102
RTVSPropertyOp30
 70
     1
102
RTVSPropertyOp31
 70
     1
102
RTVSPropertyOp32
 70
     1
102
RTVSPropertyOp33
 70
     1
102
RTVSPropertyOp34
 70
     1
102
RTVSPropertyOp35
 70
     1
102
RTVSPropertyOp36
 70
     1
102
RTVSPropertyOp37
 70
     1
102
RTVSPropertyOp38
 70
     1
102
RTVSPropertyOp39
 70
     1
102
RTVSPropertyOp40
 70
     1
102
RTVSPropertyOp41
 70
     1
102
RTVSPropertyOp42
 70
     1
102
RTVSPropertyOp43
 70
     1
102
RTVSPropertyOp44
 70
     1
102
RTVSPropertyOp45
 70
     1
102
RTVSPropertyOp46
 70
     1
102
RTVSPropertyOp47
 70
     1
102
RTVSPropertyOp48
 70
     1
102
RTVSPropertyOp49
 70
     1
102
RTVSPropertyOp50
 70
     1
102
RTVSPropertyOp51
 70
     0
102
RTVSPropertyOp52
 70
     0
102
RTVSPropertyOp53
 70
     1
102
RTVSPropertyOp54
 70
     1
102
RTVSPropertyOp55
 70
     1
102
RTVSPropertyOp56
 70
     1
102
RTVSPropertyOp57
 70
     1
102
RTVSPropertyOp58
 70
     1
102
RTVSPropertyOp59
 70
     1
102
RTVSPropertyOp60
 70
     1
102
RTVSPropertyOp61
 70
     1
102
RTVSPropertyOp62
 70
     1
  0
XRECORD
  5
FEF
102
{ACAD_REACTORS
330
FEE
102
}
330
FEE
100
AcDbXrecord
280
     1
102
RTVSPost2010Prop28
280
     0
102
RTVSPost2010PropOp28
 70
     1
102
RTVSPost2010Prop29
280
     1
102
RTVSPost2010PropOp29
 70
     1
102
RTVSPost2010Prop30
280
     1
102
RTVSPost2010PropOp30
 70
     1
102
RTVSPost2010Prop31
280
     0
102
RTVSPost2010PropOp31
 70
     1
102
RTVSPost2010Prop32
280
     0
102
RTVSPost2010PropOp32
 70
     1
102
RTVSPost2010Prop33
280
     0
102
RTVSPost2010PropOp33
 70
     1
102
RTVSPost2010Prop34
280
     0
102
RTVSPost2010PropOp34
 70
     1
102
RTVSPost2010Prop35
280
     0
102
RTVSPost2010PropOp35
 70
     1
102
RTVSPost2010Prop36
280
     0
102
RTVSPost2010PropOp36
 70
     1
102
RTVSPost2010Prop37
 90
       50
102
RTVSPost2010PropOp37
 70
     1
102
RTVSPost2010Prop38
140
0.0
102
RTVSPost2010PropOp38
 70
     1
102
RTVSPost2010Prop39
140
1.0
102
RTVSPost2010PropOp39
 70
     1
102
RTVSPost2010Prop40
 90
        0
102
RTVSPost2010PropOp40
 70
     1
102
RTVSPost2010Prop41ColorIndex
 90
       18
102
RTVSPost2010Prop41ColorRGB
 90
        0
102
RTVSPost2010PropOp41
 70
     1
102
RTVSPost2010Prop42
 90
       50
102
RTVSPost2010PropOp42
 70
     1
102
RTVSPost2010Prop43
 90
        3
102
RTVSPost2010PropOp43
 70
     1
102
RTVSPost2010Prop44ColorIndex
 90
        5
102
RTVSPost2010Prop44ColorRGB
 90
      255
102
RTVSPost2010PropOp44
 70
     1
102
RTVSPost2010Prop45
280
     0
102
RTVSPost2010PropOp45
 70
     1
102
RTVSPost2010Prop46
 90
       50
102
RTVSPost2010PropOp46
 70
     1
102
RTVSPost2010Prop47
 90
       50
102
RTVSPost2010PropOp47
 70
     1
102
RTVSPost2010Prop48
 90
       50
102
RTVSPost2010PropOp48
 70
     1
102
RTVSPost2010Prop49
280
     0
102
RTVSPost2010PropOp49
 70
     1
102
RTVSPost2010Prop50
 90
       50
102
RTVSPost2010PropOp50
 70
     1
102
RTVSPost2010Prop51ColorIndex
 90
      256
102
RTVSPost2010Prop51ColorRGB
 90
-16777216
102
RTVSPost2010PropOp51
 70
     0
102
RTVSPost2010Prop52
140
1.0
102
RTVSPost2010PropOp52
 70
     0
102
RTVSPost2010Prop53
 90
        2
102
RTVSPost2010PropOp53
 70
     1
102
RTVSPost2010Prop54
  1
strokes_ogs.tif
102
RTVSPost2010PropOp54
 70
     1
102
RTVSPost2010Prop55
280
     0
102
RTVSPost2010PropOp55
 70
     1
102
RTVSPost2010Prop56
140
1.0
102
RTVSPost2010PropOp56
 70
     1
102
RTVSPost2010Prop57
140
1.0
102
RTVSPost2010PropOp57
 70
     1
102
RTVSPropertyOp0
 70
     1
102
RTVSPropertyOp1
 70
     1
102
RTVSPropertyOp2
 70
     1
102
RTVSPropertyOp3
 70
     1
102
RTVSPropertyOp4
 70
     1
102
RTVSPropertyOp5
 70
     1
102
RTVSPropertyOp6
 70
     1
102
RTVSPropertyOp7
 70
     1
102
RTVSPropertyOp8
 70
     1
102
RTVSPropertyOp9
 70
     1
102
RTVSPropertyOp10
 70
     1
102
RTVSPropertyOp11
 70
     1
102
RTVSPropertyOp12
 70
     1
102
RTVSPropertyOp13
 70
     1
102
RTVSPropertyOp14
 70
     1
102
RTVSPropertyOp15
 70
     1
102
RTVSPropertyOp16
 70
     1
102
RTVSPropertyOp17
 70
     1
102
RTVSPropertyOp18
 70
     1
102
RTVSPropertyOp19
 70
     1
102
RTVSPropertyOp20
 70
     1
102
RTVSPropertyOp21
 70
     1
102
RTVSPropertyOp22
 70
     1
102
RTVSPropertyOp23
 70
     1
102
RTVSPropertyOp24
 70
     1
102
RTVSPropertyOp25
 70
     1
102
RTVSPropertyOp26
 70
     1
102
RTVSPropertyOp27
 70
     1
102
RTVSPropertyOp28
 70
     1
102
RTVSPropertyOp29
 70
     1
102
RTVSPropertyOp30
 70
     1
102
RTVSPropertyOp31
 70
     1
102
RTVSPropertyOp32
 70
     1
102
RTVSPropertyOp33
 70
     1
102
RTVSPropertyOp34
 70
     1
102
RTVSPropertyOp35
 70
     1
102
RTVSPropertyOp36
 70
     1
102
RTVSPropertyOp37
 70
     1
102
RTVSPropertyOp38
 70
     1
102
RTVSPropertyOp39
 70
     1
102
RTVSPropertyOp40
 70
     1
102
RTVSPropertyOp41
 70
     1
102
RTVSPropertyOp42
 70
     1
102
RTVSPropertyOp43
 70
     1
102
RTVSPropertyOp44
 70
     1
102
RTVSPropertyOp45
 70
     1
102
RTVSPropertyOp46
 70
     1
102
RTVSPropertyOp47
 70
     1
102
RTVSPropertyOp48
 70
     1
102
RTVSPropertyOp49
 70
     1
102
RTVSPropertyOp50
 70
     1
102
RTVSPropertyOp51
 70
     0
102
RTVSPropertyOp52
 70
     0
102
RTVSPropertyOp53
 70
     1
102
RTVSPropertyOp54
 70
     1
102
RTVSPropertyOp55
 70
     1
102
RTVSPropertyOp56
 70
     1
102
RTVSPropertyOp57
 70
     1
102
RTVSPropertyOp58
 70
     1
102
RTVSPropertyOp59
 70
     1
102
RTVSPropertyOp60
 70
     1
102
RTVSPropertyOp61
 70
     1
102
RTVSPropertyOp62
 70
     1
  0
XRECORD
  5
FF1
102
{ACAD_REACTORS
330
FF0
102
}
330
FF0
100
AcDbXrecord
280
     1
102
RTVSPost2010Prop28
280
     0
102
RTVSPost2010PropOp28
 70
     1
102
RTVSPost2010Prop29
280
     1
102
RTVSPost2010PropOp29
 70
     1
102
RTVSPost2010Prop30
280
     1
102
RTVSPost2010PropOp30
 70
     1
102
RTVSPost2010Prop31
280
     0
102
RTVSPost2010PropOp31
 70
     1
102
RTVSPost2010Prop32
280
     0
102
RTVSPost2010PropOp32
 70
     1
102
RTVSPost2010Prop33
280
     0
102
RTVSPost2010PropOp33
 70
     1
102
RTVSPost2010Prop34
280
     0
102
RTVSPost2010PropOp34
 70
     1
102
RTVSPost2010Prop35
280
     0
102
RTVSPost2010PropOp35
 70
     1
102
RTVSPost2010Prop36
280
     0
102
RTVSPost2010PropOp36
 70
     1
102
RTVSPost2010Prop37
 90
       50
102
RTVSPost2010PropOp37
 70
     1
102
RTVSPost2010Prop38
140
0.0
102
RTVSPost2010PropOp38
 70
     1
102
RTVSPost2010Prop39
140
1.0
102
RTVSPost2010PropOp39
 70
     1
102
RTVSPost2010Prop40
 90
        0
102
RTVSPost2010PropOp40
 70
     1
102
RTVSPost2010Prop41ColorIndex
 90
       18
102
RTVSPost2010Prop41ColorRGB
 90
        0
102
RTVSPost2010PropOp41
 70
     1
102
RTVSPost2010Prop42
 90
       50
102
RTVSPost2010PropOp42
 70
     1
102
RTVSPost2010Prop43
 90
        3
102
RTVSPost2010PropOp43
 70
     1
102
RTVSPost2010Prop44ColorIndex
 90
        5
102
RTVSPost2010Prop44ColorRGB
 90
      255
102
RTVSPost2010PropOp44
 70
     1
102
RTVSPost2010Prop45
280
     0
102
RTVSPost2010PropOp45
 70
     1
102
RTVSPost2010Prop46
 90
       50
102
RTVSPost2010PropOp46
 70
     1
102
RTVSPost2010Prop47
 90
       50
102
RTVSPost2010PropOp47
 70
     1
102
RTVSPost2010Prop48
 90
       50
102
RTVSPost2010PropOp48
 70
     1
102
RTVSPost2010Prop49
280
     0
102
RTVSPost2010PropOp49
 70
     1
102
RTVSPost2010Prop50
 90
       50
102
RTVSPost2010PropOp50
 70
     1
102
RTVSPost2010Prop51ColorIndex
 90
      256
102
RTVSPost2010Prop51ColorRGB
 90
-16777216
102
RTVSPost2010PropOp51
 70
     0
102
RTVSPost2010Prop52
140
1.0
102
RTVSPost2010PropOp52
 70
     0
102
RTVSPost2010Prop53
 90
        2
102
RTVSPost2010PropOp53
 70
     1
102
RTVSPost2010Prop54
  1
strokes_ogs.tif
102
RTVSPost2010PropOp54
 70
     1
102
RTVSPost2010Prop55
280
     0
102
RTVSPost2010PropOp55
 70
     1
102
RTVSPost2010Prop56
140
1.0
102
RTVSPost2010PropOp56
 70
     1
102
RTVSPost2010Prop57
140
1.0
102
RTVSPost2010PropOp57
 70
     1
102
RTVSPropertyOp0
 70
     1
102
RTVSPropertyOp1
 70
     1
102
RTVSPropertyOp2
 70
     1
102
RTVSPropertyOp3
 70
     1
102
RTVSPropertyOp4
 70
     1
102
RTVSPropertyOp5
 70
     1
102
RTVSPropertyOp6
 70
     1
102
RTVSPropertyOp7
 70
     1
102
RTVSPropertyOp8
 70
     1
102
RTVSPropertyOp9
 70
     1
102
RTVSPropertyOp10
 70
     1
102
RTVSPropertyOp11
 70
     1
102
RTVSPropertyOp12
 70
     1
102
RTVSPropertyOp13
 70
     1
102
RTVSPropertyOp14
 70
     1
102
RTVSPropertyOp15
 70
     1
102
RTVSPropertyOp16
 70
     1
102
RTVSPropertyOp17
 70
     1
102
RTVSPropertyOp18
 70
     1
102
RTVSPropertyOp19
 70
     1
102
RTVSPropertyOp20
 70
     1
102
RTVSPropertyOp21
 70
     1
102
RTVSPropertyOp22
 70
     1
102
RTVSPropertyOp23
 70
     1
102
RTVSPropertyOp24
 70
     1
102
RTVSPropertyOp25
 70
     1
102
RTVSPropertyOp26
 70
     1
102
RTVSPropertyOp27
 70
     1
102
RTVSPropertyOp28
 70
     1
102
RTVSPropertyOp29
 70
     1
102
RTVSPropertyOp30
 70
     1
102
RTVSPropertyOp31
 70
     1
102
RTVSPropertyOp32
 70
     1
102
RTVSPropertyOp33
 70
     1
102
RTVSPropertyOp34
 70
     1
102
RTVSPropertyOp35
 70
     1
102
RTVSPropertyOp36
 70
     1
102
RTVSPropertyOp37
 70
     1
102
RTVSPropertyOp38
 70
     1
102
RTVSPropertyOp39
 70
     1
102
RTVSPropertyOp40
 70
     1
102
RTVSPropertyOp41
 70
     1
102
RTVSPropertyOp42
 70
     1
102
RTVSPropertyOp43
 70
     1
102
RTVSPropertyOp44
 70
     1
102
RTVSPropertyOp45
 70
     1
102
RTVSPropertyOp46
 70
     1
102
RTVSPropertyOp47
 70
     1
102
RTVSPropertyOp48
 70
     1
102
RTVSPropertyOp49
 70
     1
102
RTVSPropertyOp50
 70
     1
102
RTVSPropertyOp51
 70
     0
102
RTVSPropertyOp52
 70
     0
102
RTVSPropertyOp53
 70
     1
102
RTVSPropertyOp54
 70
     1
102
RTVSPropertyOp55
 70
     1
102
RTVSPropertyOp56
 70
     1
102
RTVSPropertyOp57
 70
     1
102
RTVSPropertyOp58
 70
     1
102
RTVSPropertyOp59
 70
     1
102
RTVSPropertyOp60
 70
     1
102
RTVSPropertyOp61
 70
     1
102
RTVSPropertyOp62
 70
     1
  0
XRECORD
  5
FE7
102
{ACAD_REACTORS
330
FE6
102
}
330
FE6
100
AcDbXrecord
280
     1
102
RTVSPost2010Prop28
280
     0
102
RTVSPost2010PropOp28
 70
     1
102
RTVSPost2010Prop29
280
     1
102
RTVSPost2010PropOp29
 70
     1
102
RTVSPost2010Prop30
280
     1
102
RTVSPost2010PropOp30
 70
     1
102
RTVSPost2010Prop31
280
     0
102
RTVSPost2010PropOp31
 70
     1
102
RTVSPost2010Prop32
280
     0
102
RTVSPost2010PropOp32
 70
     1
102
RTVSPost2010Prop33
280
     0
102
RTVSPost2010PropOp33
 70
     1
102
RTVSPost2010Prop34
280
     0
102
RTVSPost2010PropOp34
 70
     1
102
RTVSPost2010Prop35
280
     0
102
RTVSPost2010PropOp35
 70
     1
102
RTVSPost2010Prop36
280
     0
102
RTVSPost2010PropOp36
 70
     1
102
RTVSPost2010Prop37
 90
       50
102
RTVSPost2010PropOp37
 70
     1
102
RTVSPost2010Prop38
140
0.0
102
RTVSPost2010PropOp38
 70
     1
102
RTVSPost2010Prop39
140
1.0
102
RTVSPost2010PropOp39
 70
     1
102
RTVSPost2010Prop40
 90
        0
102
RTVSPost2010PropOp40
 70
     1
102
RTVSPost2010Prop41ColorIndex
 90
       18
102
RTVSPost2010Prop41ColorRGB
 90
        0
102
RTVSPost2010PropOp41
 70
     1
102
RTVSPost2010Prop42
 90
       50
102
RTVSPost2010PropOp42
 70
     1
102
RTVSPost2010Prop43
 90
        3
102
RTVSPost2010PropOp43
 70
     1
102
RTVSPost2010Prop44ColorIndex
 90
        5
102
RTVSPost2010Prop44ColorRGB
 90
      255
102
RTVSPost2010PropOp44
 70
     1
102
RTVSPost2010Prop45
280
     0
102
RTVSPost2010PropOp45
 70
     1
102
RTVSPost2010Prop46
 90
       50
102
RTVSPost2010PropOp46
 70
     1
102
RTVSPost2010Prop47
 90
       50
102
RTVSPost2010PropOp47
 70
     1
102
RTVSPost2010Prop48
 90
       50
102
RTVSPost2010PropOp48
 70
     1
102
RTVSPost2010Prop49
280
     0
102
RTVSPost2010PropOp49
 70
     1
102
RTVSPost2010Prop50
 90
       50
102
RTVSPost2010PropOp50
 70
     1
102
RTVSPost2010Prop51ColorIndex
 90
      256
102
RTVSPost2010Prop51ColorRGB
 90
-16777216
102
RTVSPost2010PropOp51
 70
     0
102
RTVSPost2010Prop52
140
1.0
102
RTVSPost2010PropOp52
 70
     0
102
RTVSPost2010Prop53
 90
        2
102
RTVSPost2010PropOp53
 70
     1
102
RTVSPost2010Prop54
  1
strokes_ogs.tif
102
RTVSPost2010PropOp54
 70
     1
102
RTVSPost2010Prop55
280
     0
102
RTVSPost2010PropOp55
 70
     1
102
RTVSPost2010Prop56
140
1.0
102
RTVSPost2010PropOp56
 70
     1
102
RTVSPost2010Prop57
140
1.0
102
RTVSPost2010PropOp57
 70
     1
102
RTVSPropertyOp0
 70
     1
102
RTVSPropertyOp1
 70
     1
102
RTVSPropertyOp2
 70
     1
102
RTVSPropertyOp3
 70
     1
102
RTVSPropertyOp4
 70
     1
102
RTVSPropertyOp5
 70
     1
102
RTVSPropertyOp6
 70
     1
102
RTVSPropertyOp7
 70
     1
102
RTVSPropertyOp8
 70
     1
102
RTVSPropertyOp9
 70
     1
102
RTVSPropertyOp10
 70
     1
102
RTVSPropertyOp11
 70
     1
102
RTVSPropertyOp12
 70
     1
102
RTVSPropertyOp13
 70
     1
102
RTVSPropertyOp14
 70
     1
102
RTVSPropertyOp15
 70
     1
102
RTVSPropertyOp16
 70
     1
102
RTVSPropertyOp17
 70
     1
102
RTVSPropertyOp18
 70
     1
102
RTVSPropertyOp19
 70
     1
102
RTVSPropertyOp20
 70
     1
102
RTVSPropertyOp21
 70
     1
102
RTVSPropertyOp22
 70
     1
102
RTVSPropertyOp23
 70
     1
102
RTVSPropertyOp24
 70
     1
102
RTVSPropertyOp25
 70
     1
102
RTVSPropertyOp26
 70
     1
102
RTVSPropertyOp27
 70
     1
102
RTVSPropertyOp28
 70
     1
102
RTVSPropertyOp29
 70
     1
102
RTVSPropertyOp30
 70
     1
102
RTVSPropertyOp31
 70
     1
102
RTVSPropertyOp32
 70
     1
102
RTVSPropertyOp33
 70
     1
102
RTVSPropertyOp34
 70
     1
102
RTVSPropertyOp35
 70
     1
102
RTVSPropertyOp36
 70
     1
102
RTVSPropertyOp37
 70
     1
102
RTVSPropertyOp38
 70
     1
102
RTVSPropertyOp39
 70
     1
102
RTVSPropertyOp40
 70
     1
102
RTVSPropertyOp41
 70
     1
102
RTVSPropertyOp42
 70
     1
102
RTVSPropertyOp43
 70
     1
102
RTVSPropertyOp44
 70
     1
102
RTVSPropertyOp45
 70
     1
102
RTVSPropertyOp46
 70
     1
102
RTVSPropertyOp47
 70
     1
102
RTVSPropertyOp48
 70
     1
102
RTVSPropertyOp49
 70
     1
102
RTVSPropertyOp50
 70
     1
102
RTVSPropertyOp51
 70
     0
102
RTVSPropertyOp52
 70
     0
102
RTVSPropertyOp53
 70
     1
102
RTVSPropertyOp54
 70
     1
102
RTVSPropertyOp55
 70
     1
102
RTVSPropertyOp56
 70
     1
102
RTVSPropertyOp57
 70
     1
102
RTVSPropertyOp58
 70
     1
102
RTVSPropertyOp59
 70
     1
102
RTVSPropertyOp60
 70
     1
102
RTVSPropertyOp61
 70
     1
102
RTVSPropertyOp62
 70
     1
  0
XRECORD
  5
FDB
102
{ACAD_REACTORS
330
FDA
102
}
330
FDA
100
AcDbXrecord
280
     1
102
RTVSPost2010Prop28
280
     0
102
RTVSPost2010PropOp28
 70
     1
102
RTVSPost2010Prop29
280
     1
102
RTVSPost2010PropOp29
 70
     1
102
RTVSPost2010Prop30
280
     1
102
RTVSPost2010PropOp30
 70
     1
102
RTVSPost2010Prop31
280
     0
102
RTVSPost2010PropOp31
 70
     1
102
RTVSPost2010Prop32
280
     0
102
RTVSPost2010PropOp32
 70
     1
102
RTVSPost2010Prop33
280
     0
102
RTVSPost2010PropOp33
 70
     1
102
RTVSPost2010Prop34
280
     0
102
RTVSPost2010PropOp34
 70
     1
102
RTVSPost2010Prop35
280
     0
102
RTVSPost2010PropOp35
 70
     1
102
RTVSPost2010Prop36
280
     0
102
RTVSPost2010PropOp36
 70
     1
102
RTVSPost2010Prop37
 90
       50
102
RTVSPost2010PropOp37
 70
     1
102
RTVSPost2010Prop38
140
0.0
102
RTVSPost2010PropOp38
 70
     1
102
RTVSPost2010Prop39
140
1.0
102
RTVSPost2010PropOp39
 70
     1
102
RTVSPost2010Prop40
 90
        0
102
RTVSPost2010PropOp40
 70
     1
102
RTVSPost2010Prop41ColorIndex
 90
       18
102
RTVSPost2010Prop41ColorRGB
 90
        0
102
RTVSPost2010PropOp41
 70
     1
102
RTVSPost2010Prop42
 90
       50
102
RTVSPost2010PropOp42
 70
     1
102
RTVSPost2010Prop43
 90
        3
102
RTVSPost2010PropOp43
 70
     1
102
RTVSPost2010Prop44ColorIndex
 90
        5
102
RTVSPost2010Prop44ColorRGB
 90
      255
102
RTVSPost2010PropOp44
 70
     1
102
RTVSPost2010Prop45
280
     0
102
RTVSPost2010PropOp45
 70
     1
102
RTVSPost2010Prop46
 90
       50
102
RTVSPost2010PropOp46
 70
     1
102
RTVSPost2010Prop47
 90
       50
102
RTVSPost2010PropOp47
 70
     1
102
RTVSPost2010Prop48
 90
       50
102
RTVSPost2010PropOp48
 70
     1
102
RTVSPost2010Prop49
280
     0
102
RTVSPost2010PropOp49
 70
     1
102
RTVSPost2010Prop50
 90
       50
102
RTVSPost2010PropOp50
 70
     1
102
RTVSPost2010Prop51ColorIndex
 90
      256
102
RTVSPost2010Prop51ColorRGB
 90
-16777216
102
RTVSPost2010PropOp51
 70
     0
102
RTVSPost2010Prop52
140
1.0
102
RTVSPost2010PropOp52
 70
     0
102
RTVSPost2010Prop53
 90
        2
102
RTVSPost2010PropOp53
 70
     1
102
RTVSPost2010Prop54
  1
strokes_ogs.tif
102
RTVSPost2010PropOp54
 70
     1
102
RTVSPost2010Prop55
280
     0
102
RTVSPost2010PropOp55
 70
     1
102
RTVSPost2010Prop56
140
1.0
102
RTVSPost2010PropOp56
 70
     1
102
RTVSPost2010Prop57
140
1.0
102
RTVSPost2010PropOp57
 70
     1
102
RTVSPropertyOp0
 70
     1
102
RTVSPropertyOp1
 70
     1
102
RTVSPropertyOp2
 70
     1
102
RTVSPropertyOp3
 70
     1
102
RTVSPropertyOp4
 70
     1
102
RTVSPropertyOp5
 70
     1
102
RTVSPropertyOp6
 70
     1
102
RTVSPropertyOp7
 70
     1
102
RTVSPropertyOp8
 70
     1
102
RTVSPropertyOp9
 70
     1
102
RTVSPropertyOp10
 70
     1
102
RTVSPropertyOp11
 70
     1
102
RTVSPropertyOp12
 70
     1
102
RTVSPropertyOp13
 70
     1
102
RTVSPropertyOp14
 70
     1
102
RTVSPropertyOp15
 70
     1
102
RTVSPropertyOp16
 70
     1
102
RTVSPropertyOp17
 70
     1
102
RTVSPropertyOp18
 70
     1
102
RTVSPropertyOp19
 70
     1
102
RTVSPropertyOp20
 70
     1
102
RTVSPropertyOp21
 70
     1
102
RTVSPropertyOp22
 70
     1
102
RTVSPropertyOp23
 70
     1
102
RTVSPropertyOp24
 70
     1
102
RTVSPropertyOp25
 70
     1
102
RTVSPropertyOp26
 70
     1
102
RTVSPropertyOp27
 70
     1
102
RTVSPropertyOp28
 70
     1
102
RTVSPropertyOp29
 70
     1
102
RTVSPropertyOp30
 70
     1
102
RTVSPropertyOp31
 70
     1
102
RTVSPropertyOp32
 70
     1
102
RTVSPropertyOp33
 70
     1
102
RTVSPropertyOp34
 70
     1
102
RTVSPropertyOp35
 70
     1
102
RTVSPropertyOp36
 70
     1
102
RTVSPropertyOp37
 70
     1
102
RTVSPropertyOp38
 70
     1
102
RTVSPropertyOp39
 70
     1
102
RTVSPropertyOp40
 70
     1
102
RTVSPropertyOp41
 70
     1
102
RTVSPropertyOp42
 70
     1
102
RTVSPropertyOp43
 70
     1
102
RTVSPropertyOp44
 70
     1
102
RTVSPropertyOp45
 70
     1
102
RTVSPropertyOp46
 70
     1
102
RTVSPropertyOp47
 70
     1
102
RTVSPropertyOp48
 70
     1
102
RTVSPropertyOp49
 70
     1
102
RTVSPropertyOp50
 70
     1
102
RTVSPropertyOp51
 70
     0
102
RTVSPropertyOp52
 70
     0
102
RTVSPropertyOp53
 70
     1
102
RTVSPropertyOp54
 70
     1
102
RTVSPropertyOp55
 70
     1
102
RTVSPropertyOp56
 70
     1
102
RTVSPropertyOp57
 70
     1
102
RTVSPropertyOp58
 70
     1
102
RTVSPropertyOp59
 70
     1
102
RTVSPropertyOp60
 70
     1
102
RTVSPropertyOp61
 70
     1
102
RTVSPropertyOp62
 70
     1
  0
XRECORD
  5
FF3
102
{ACAD_REACTORS
330
FF2
102
}
330
FF2
100
AcDbXrecord
280
     1
102
RTVSPost2010Prop28
280
     0
102
RTVSPost2010PropOp28
 70
     1
102
RTVSPost2010Prop29
280
     1
102
RTVSPost2010PropOp29
 70
     1
102
RTVSPost2010Prop30
280
     1
102
RTVSPost2010PropOp30
 70
     1
102
RTVSPost2010Prop31
280
     0
102
RTVSPost2010PropOp31
 70
     1
102
RTVSPost2010Prop32
280
     0
102
RTVSPost2010PropOp32
 70
     1
102
RTVSPost2010Prop33
280
     0
102
RTVSPost2010PropOp33
 70
     1
102
RTVSPost2010Prop34
280
     0
102
RTVSPost2010PropOp34
 70
     1
102
RTVSPost2010Prop35
280
     0
102
RTVSPost2010PropOp35
 70
     1
102
RTVSPost2010Prop36
280
     0
102
RTVSPost2010PropOp36
 70
     1
102
RTVSPost2010Prop37
 90
       50
102
RTVSPost2010PropOp37
 70
     1
102
RTVSPost2010Prop38
140
0.0
102
RTVSPost2010PropOp38
 70
     1
102
RTVSPost2010Prop39
140
1.0
102
RTVSPost2010PropOp39
 70
     1
102
RTVSPost2010Prop40
 90
        0
102
RTVSPost2010PropOp40
 70
     1
102
RTVSPost2010Prop41ColorIndex
 90
       18
102
RTVSPost2010Prop41ColorRGB
 90
        0
102
RTVSPost2010PropOp41
 70
     1
102
RTVSPost2010Prop42
 90
       50
102
RTVSPost2010PropOp42
 70
     1
102
RTVSPost2010Prop43
 90
        3
102
RTVSPost2010PropOp43
 70
     1
102
RTVSPost2010Prop44ColorIndex
 90
        5
102
RTVSPost2010Prop44ColorRGB
 90
      255
102
RTVSPost2010PropOp44
 70
     1
102
RTVSPost2010Prop45
280
     0
102
RTVSPost2010PropOp45
 70
     1
102
RTVSPost2010Prop46
 90
       50
102
RTVSPost2010PropOp46
 70
     1
102
RTVSPost2010Prop47
 90
       50
102
RTVSPost2010PropOp47
 70
     1
102
RTVSPost2010Prop48
 90
       50
102
RTVSPost2010PropOp48
 70
     1
102
RTVSPost2010Prop49
280
     0
102
RTVSPost2010PropOp49
 70
     1
102
RTVSPost2010Prop50
 90
       50
102
RTVSPost2010PropOp50
 70
     1
102
RTVSPost2010Prop51ColorIndex
 90
      256
102
RTVSPost2010Prop51ColorRGB
 90
-16777216
102
RTVSPost2010PropOp51
 70
     0
102
RTVSPost2010Prop52
140
1.0
102
RTVSPost2010PropOp52
 70
     0
102
RTVSPost2010Prop53
 90
        2
102
RTVSPost2010PropOp53
 70
     1
102
RTVSPost2010Prop54
  1
strokes_ogs.tif
102
RTVSPost2010PropOp54
 70
     1
102
RTVSPost2010Prop55
280
     0
102
RTVSPost2010PropOp55
 70
     1
102
RTVSPost2010Prop56
140
1.0
102
RTVSPost2010PropOp56
 70
     1
102
RTVSPost2010Prop57
140
1.0
102
RTVSPost2010PropOp57
 70
     1
102
RTVSPropertyOp0
 70
     1
102
RTVSPropertyOp1
 70
     1
102
RTVSPropertyOp2
 70
     1
102
RTVSPropertyOp3
 70
     1
102
RTVSPropertyOp4
 70
     1
102
RTVSPropertyOp5
 70
     1
102
RTVSPropertyOp6
 70
     1
102
RTVSPropertyOp7
 70
     1
102
RTVSPropertyOp8
 70
     1
102
RTVSPropertyOp9
 70
     1
102
RTVSPropertyOp10
 70
     1
102
RTVSPropertyOp11
 70
     1
102
RTVSPropertyOp12
 70
     1
102
RTVSPropertyOp13
 70
     1
102
RTVSPropertyOp14
 70
     1
102
RTVSPropertyOp15
 70
     1
102
RTVSPropertyOp16
 70
     1
102
RTVSPropertyOp17
 70
     1
102
RTVSPropertyOp18
 70
     1
102
RTVSPropertyOp19
 70
     1
102
RTVSPropertyOp20
 70
     1
102
RTVSPropertyOp21
 70
     1
102
RTVSPropertyOp22
 70
     1
102
RTVSPropertyOp23
 70
     1
102
RTVSPropertyOp24
 70
     1
102
RTVSPropertyOp25
 70
     1
102
RTVSPropertyOp26
 70
     1
102
RTVSPropertyOp27
 70
     1
102
RTVSPropertyOp28
 70
     1
102
RTVSPropertyOp29
 70
     1
102
RTVSPropertyOp30
 70
     1
102
RTVSPropertyOp31
 70
     1
102
RTVSPropertyOp32
 70
     1
102
RTVSPropertyOp33
 70
     1
102
RTVSPropertyOp34
 70
     1
102
RTVSPropertyOp35
 70
     1
102
RTVSPropertyOp36
 70
     1
102
RTVSPropertyOp37
 70
     1
102
RTVSPropertyOp38
 70
     1
102
RTVSPropertyOp39
 70
     1
102
RTVSPropertyOp40
 70
     1
102
RTVSPropertyOp41
 70
     1
102
RTVSPropertyOp42
 70
     1
102
RTVSPropertyOp43
 70
     1
102
RTVSPropertyOp44
 70
     1
102
RTVSPropertyOp45
 70
     1
102
RTVSPropertyOp46
 70
     1
102
RTVSPropertyOp47
 70
     1
102
RTVSPropertyOp48
 70
     1
102
RTVSPropertyOp49
 70
     1
102
RTVSPropertyOp50
 70
     1
102
RTVSPropertyOp51
 70
     0
102
RTVSPropertyOp52
 70
     0
102
RTVSPropertyOp53
 70
     1
102
RTVSPropertyOp54
 70
     1
102
RTVSPropertyOp55
 70
     1
102
RTVSPropertyOp56
 70
     1
102
RTVSPropertyOp57
 70
     1
102
RTVSPropertyOp58
 70
     1
102
RTVSPropertyOp59
 70
     1
102
RTVSPropertyOp60
 70
     1
102
RTVSPropertyOp61
 70
     1
102
RTVSPropertyOp62
 70
     1
  0
ENDSEC
  0
EOF
