  0
SECTION
  2
HEADER
  9
$ACADVER
  1
AC1018
  9
$ACADMAINTVER
 70
     0
  9
$DWGCODEPAGE
  3
ANSI_932
  9
$INSBASE
 10
0.0
 20
0.0
 30
0.0
  9
$EXTMIN
 10
-105.0
 20
-148.5
 30
0.0
  9
$EXTMAX
 10
105.0
 20
148.5
 30
0.0
  9
$LIMMIN
 10
-105.0
 20
-148.5
  9
$LIMMAX
 10
105.0
 20
148.5
  9
$ORTHOMODE
 70
     0
  9
$REGENMODE
 70
     1
  9
$FILLMODE
 70
     1
  9
$QTEXTMODE
 70
     0
  9
$MIRRTEXT
 70
     1
  9
$LTSCALE
 40
1.0
  9
$ATTMODE
 70
     1
  9
$TEXTSIZE
 40
2.5
  9
$TRACEWID
 40
1.0
  9
$TEXTSTYLE
  7
Standard
  9
$CLAYER
  8
0
  9
$CELTYPE
  6
ByLayer
  9
$CECOLOR
 62
   256
  9
$CELTSCALE
 40
1.0
  9
$DISPSILH
 70
     0
  9
$DIMSCALE
 40
1.0
  9
$DIMASZ
 40
2.5
  9
$DIMEXO
 40
0.625
  9
$DIMDLI
 40
3.75
  9
$DIMRND
 40
0.0
  9
$DIMDLE
 40
0.0
  9
$DIMEXE
 40
1.25
  9
$DIMTP
 40
0.0
  9
$DIMTM
 40
0.0
  9
$DIMTXT
 40
2.5
  9
$DIMCEN
 40
2.5
  9
$DIMTSZ
 40
0.0
  9
$DIMTOL
 70
     0
  9
$DIMLIM
 70
     0
  9
$DIMTIH
 70
     0
  9
$DIMTOH
 70
     0
  9
$DIMSE1
 70
     0
  9
$DIMSE2
 70
     0
  9
$DIMTAD
 70
     1
  9
$DIMZIN
 70
     8
  9
$DIMBLK
  1

  9
$DIMASO
 70
     1
  9
$DIMSHO
 70
     1
  9
$DIMPOST
  1

  9
$DIMAPOST
  1

  9
$DIMALT
 70
     0
  9
$DIMALTD
 70
     3
  9
$DIMALTF
 40
0.03937007874016
  9
$DIMLFAC
 40
1.0
  9
$DIMTOFL
 70
     1
  9
$DIMTVP
 40
0.0
  9
$DIMTIX
 70
     0
  9
$DIMSOXD
 70
     0
  9
$DIMSAH
 70
     0
  9
$DIMBLK1
  1

  9
$DIMBLK2
  1

  9
$DIMSTYLE
  2
ISO-25
  9
$DIMCLRD
 70
     0
  9
$DIMCLRE
 70
     0
  9
$DIMCLRT
 70
     0
  9
$DIMTFAC
 40
1.0
  9
$DIMGAP
 40
0.625
  9
$DIMJUST
 70
     0
  9
$DIMSD1
 70
     0
  9
$DIMSD2
 70
     0
  9
$DIMTOLJ
 70
     0
  9
$DIMTZIN
 70
     8
  9
$DIMALTZ
 70
     0
  9
$DIMALTTZ
 70
     0
  9
$DIMUPT
 70
     0
  9
$DIMDEC
 70
     2
  9
$DIMTDEC
 70
     2
  9
$DIMALTU
 70
     2
  9
$DIMALTTD
 70
     3
  9
$DIMTXSTY
  7
Standard
  9
$DIMAUNIT
 70
     0
  9
$DIMADEC
 70
     0
  9
$DIMALTRND
 40
0.0
  9
$DIMAZIN
 70
     0
  9
$DIMDSEP
 70
    44
  9
$DIMATFIT
 70
     3
  9
$DIMFRAC
 70
     0
  9
$DIMLDRBLK
  1

  9
$DIMLUNIT
 70
     2
  9
$DIMLWD
 70
    -2
  9
$DIMLWE
 70
    -2
  9
$DIMTMOVE
 70
     0
  9
$LUNITS
 70
     2
  9
$LUPREC
 70
     4
  9
$SKETCHINC
 40
1.0
  9
$FILLETRAD
 40
10.0
  9
$AUNITS
 70
     0
  9
$AUPREC
 70
     0
  9
$MENU
  1
.
  9
$ELEVATION
 40
0.0
  9
$PELEVATION
 40
0.0
  9
$THICKNESS
 40
0.0
  9
$LIMCHECK
 70
     0
  9
$CHAMFERA
 40
10.0
  9
$CHAMFERB
 40
10.0
  9
$CHAMFERC
 40
20.0
  9
$CHAMFERD
 40
0.0
  9
$SKPOLY
 70
     0
  9
$TDCREATE
 40
2457284.494252269
  9
$TDUCREATE
 40
2457284.119252269
  9
$TDUPDATE
 40
2457284.494252847
  9
$TDUUPDATE
 40
2457284.119252847
  9
$TDINDWG
 40
0.0000000116
  9
$TDUSRTIMER
 40
0.0000000116
  9
$USRTIMER
 70
     1
  9
$ANGBASE
 50
0.0
  9
$ANGDIR
 70
     0
  9
$PDMODE
 70
     0
  9
$PDSIZE
 40
0.0
  9
$PLINEWID
 40
0.0
  9
$SPLFRAME
 70
     0
  9
$SPLINETYPE
 70
     6
  9
$SPLINESEGS
 70
     8
  9
$HANDSEED
  5
381
  9
$SURFTAB1
 70
     6
  9
$SURFTAB2
 70
     6
  9
$SURFTYPE
 70
     6
  9
$SURFU
 70
     6
  9
$SURFV
 70
     6
  9
$UCSBASE
  2

  9
$UCSNAME
  2

  9
$UCSORG
 10
0.0
 20
0.0
 30
0.0
  9
$UCSXDIR
 10
1.0
 20
0.0
 30
0.0
  9
$UCSYDIR
 10
0.0
 20
1.0
 30
0.0
  9
$UCSORTHOREF
  2

  9
$UCSORTHOVIEW
 70
     0
  9
$UCSORGTOP
 10
0.0
 20
0.0
 30
0.0
  9
$UCSORGBOTTOM
 10
0.0
 20
0.0
 30
0.0
  9
$UCSORGLEFT
 10
0.0
 20
0.0
 30
0.0
  9
$UCSORGRIGHT
 10
0.0
 20
0.0
 30
0.0
  9
$UCSORGFRONT
 10
0.0
 20
0.0
 30
0.0
  9
$UCSORGBACK
 10
0.0
 20
0.0
 30
0.0
  9
$PUCSBASE
  2

  9
$PUCSNAME
  2

  9
$PUCSORG
 10
0.0
 20
0.0
 30
0.0
  9
$PUCSXDIR
 10
1.0
 20
0.0
 30
0.0
  9
$PUCSYDIR
 10
0.0
 20
1.0
 30
0.0
  9
$PUCSORTHOREF
  2

  9
$PUCSORTHOVIEW
 70
     0
  9
$PUCSORGTOP
 10
0.0
 20
0.0
 30
0.0
  9
$PUCSORGBOTTOM
 10
0.0
 20
0.0
 30
0.0
  9
$PUCSORGLEFT
 10
0.0
 20
0.0
 30
0.0
  9
$PUCSORGRIGHT
 10
0.0
 20
0.0
 30
0.0
  9
$PUCSORGFRONT
 10
0.0
 20
0.0
 30
0.0
  9
$PUCSORGBACK
 10
0.0
 20
0.0
 30
0.0
  9
$USERI1
 70
     0
  9
$USERI2
 70
     0
  9
$USERI3
 70
     0
  9
$USERI4
 70
     0
  9
$USERI5
 70
     0
  9
$USERR1
 40
0.0
  9
$USERR2
 40
0.0
  9
$USERR3
 40
0.0
  9
$USERR4
 40
0.0
  9
$USERR5
 40
0.0
  9
$WORLDVIEW
 70
     1
  9
$SHADEDGE
 70
     3
  9
$SHADEDIF
 70
    70
  9
$TILEMODE
 70
     1
  9
$MAXACTVP
 70
    64
  9
$PINSBASE
 10
0.0
 20
0.0
 30
0.0
  9
$PLIMCHECK
 70
     0
  9
$PEXTMIN
 10
1.000000000000000E+20
 20
1.000000000000000E+20
 30
1.000000000000000E+20
  9
$PEXTMAX
 10
-1.000000000000000E+20
 20
-1.000000000000000E+20
 30
-1.000000000000000E+20
  9
$PLIMMIN
 10
-105.0
 20
-148.5
  9
$PLIMMAX
 10
105.0
 20
148.5
  9
$UNITMODE
 70
     0
  9
$VISRETAIN
 70
     1
  9
$PLINEGEN
 70
     0
  9
$PSLTSCALE
 70
     1
  9
$TREEDEPTH
 70
  3020
  9
$CMLSTYLE
  2
Standard
  9
$CMLJUST
 70
     0
  9
$CMLSCALE
 40
20.0
  9
$PROXYGRAPHICS
 70
     1
  9
$MEASUREMENT
 70
     1
  9
$CELWEIGHT
370
    -1
  9
$ENDCAPS
280
     0
  9
$JOINSTYLE
280
     0
  9
$LWDISPLAY
290
     0
  9
$INSUNITS
 70
     4
  9
$HYPERLINKBASE
  1

  9
$STYLESHEET
  1

  9
$XEDIT
290
     1
  9
$CEPSNTYPE
380
     0
  9
$PSTYLEMODE
290
     1
  9
$FINGERPRINTGUID
  2
{34A5CA19-C702-42AF-8D87-905482E68EE9}
  9
$VERSIONGUID
  2
{FAEB1C32-E019-11D5-929B-00C0DF256EC4}
  9
$EXTNAMES
290
     1
  9
$PSVPSCALE
 40
0.0
  9
$OLESTARTUP
290
     0
  9
$SORTENTS
280
   127
  9
$INDEXCTL
280
     0
  9
$HIDETEXT
280
     1
  9
$XCLIPFRAME
290
     0
  9
$HALOGAP
280
     0
  9
$OBSCOLOR
 70
   257
  9
$OBSLTYPE
280
     0
  9
$INTERSECTIONDISPLAY
280
     0
  9
$INTERSECTIONCOLOR
 70
   257
  9
$DIMASSOC
280
     2
  9
$PROJECTNAME
  1

  0
ENDSEC
  0
SECTION
  2
CLASSES
  0
CLASS
  1
ACDBDICTIONARYWDFLT
  2
AcDbDictionaryWithDefault
  3
ObjectDBX Classes
 90
        0
 91
        4
280
     0
281
     0
  0
CLASS
  1
VISUALSTYLE
  2
AcDbVisualStyle
  3
ObjectDBX Classes
 90
     4095
 91
        4
280
     0
281
     0
  0
CLASS
  1
MATERIAL
  2
AcDbMaterial
  3
ObjectDBX Classes
 90
     1153
 91
        4
280
     0
281
     0
  0
CLASS
  1
SUN
  2
AcDbSun
  3
SCENEOE
 90
     1024
 91
        4
280
     0
281
     0
  0
ENDSEC
  0
SECTION
  2
TABLES
  0
TABLE
  2
VPORT
  5
8
330
0
100
AcDbSymbolTable
 70
     1
  0
VPORT
  5
29
330
8
100
AcDbSymbolTableRecord
100
AcDbViewportTableRecord
  2
*Active
 70
     0
 10
0.0
 20
0.0
 11
1.0
 21
1.0
 12
344.1869158878504
 22
148.5
 13
0.0
 23
0.0
 14
10.0
 24
10.0
 15
10.0
 25
10.0
 16
0.0
 26
0.0
 36
1.0
 17
0.0
 27
0.0
 37
0.0
 40
297.0
 41
1.972972972850329
 42
50.0
 43
0.0
 44
0.0
 50
0.0
 51
0.0
 71
     0
 72
   100
 73
     1
 74
     3
 75
     0
 76
     0
 77
     0
 78
     0
281
     0
 65
     1
110
0.0
120
0.0
130
0.0
111
1.0
121
0.0
131
0.0
112
0.0
122
1.0
132
0.0
 79
     0
146
0.0
  0
ENDTAB
  0
TABLE
  2
LTYPE
  5
5
330
0
100
AcDbSymbolTable
 70
     5
  0
LTYPE
  5
14
330
5
100
AcDbSymbolTableRecord
100
AcDbLinetypeTableRecord
  2
ByBlock
 70
     0
  3

 72
    65
 73
     0
 40
0.0
  0
LTYPE
  5
15
330
5
100
AcDbSymbolTableRecord
100
AcDbLinetypeTableRecord
  2
ByLayer
 70
     0
  3

 72
    65
 73
     0
 40
0.0
  0
LTYPE
  5
16
330
5
100
AcDbSymbolTableRecord
100
AcDbLinetypeTableRecord
  2
Continuous
 70
     0
  3
Solid line
 72
    65
 73
     0
 40
0.0
  0
LTYPE
  5
40
330
5
100
AcDbSymbolTableRecord
100
AcDbLinetypeTableRecord
  2
CONTINOUS
 70
     0
  3
______________________________
 72
    65
 73
     0
 40
0.0
  0
LTYPE
  5
41
330
5
100
AcDbSymbolTableRecord
100
AcDbLinetypeTableRecord
  2
DASHED
 70
     0
  3
__ __ __ __ __ __ __ __ __ __ __ __ __ __ __ __
 72
    65
 73
     2
 40
4.5
 49
3.0
 74
     0
 49
-1.5
 74
     0
  0
LTYPE
  5
42
330
5
100
AcDbSymbolTableRecord
100
AcDbLinetypeTableRecord
  2
PHANTOM
 70
     0
  3
______  __  __  ______  __  __  _____
 72
    65
 73
     6
 40
15.0
 49
7.5
 74
     0
 49
-1.5
 74
     0
 49
1.5
 74
     0
 49
-1.5
 74
     0
 49
1.5
 74
     0
 49
-1.5
 74
     0
  0
LTYPE
  5
43
330
5
100
AcDbSymbolTableRecord
100
AcDbLinetypeTableRecord
  2
CENTER
 70
     0
  3
____ _ ____ _ ____ _ ____ _ ____ _ ____
 72
    65
 73
     4
 40
12.0
 49
7.5
 74
     0
 49
-1.5
 74
     0
 49
1.5
 74
     0
 49
-1.5
 74
     0
  0
ENDTAB
  0
TABLE
  2
LAYER
  5
2
330
0
100
AcDbSymbolTable
 70
     3
  0
LAYER
  5
10
330
2
100
AcDbSymbolTableRecord
100
AcDbLayerTableRecord
  2
0
 70
     0
 62
     7
  6
Continuous
370
    -3
390
F
  0
LAYER
  5
16C
330
2
100
AcDbSymbolTableRecord
100
AcDbLayerTableRecord
  2
Defpoints
 70
     0
 62
     7
  6
Continuous
290
     0
370
    -3
390
F
  0
LAYER
  5
341
330
2
100
AcDbSymbolTableRecord
100
AcDbLayerTableRecord
  2
VIEW0001
 70
     0
 62
     7
  6
Continuous
370
    -3
390
F
  0
ENDTAB
  0
TABLE
  2
STYLE
  5
3
330
0
100
AcDbSymbolTable
 70
     1
  0
STYLE
  5
11
330
3
100
AcDbSymbolTableRecord
100
AcDbTextStyleTableRecord
  2
Standard
 70
     0
 40
0.0
 41
1.0
 50
0.0
 71
     0
 42
2.5
  3
ROMANS
  4
BIGFONT
  0
ENDTAB
  0
TABLE
  2
VIEW
  5
6
330
0
100
AcDbSymbolTable
 70
     0
  0
ENDTAB
  0
TABLE
  2
UCS
  5
7
330
0
100
AcDbSymbolTable
 70
     0
  0
ENDTAB
  0
TABLE
  2
APPID
  5
9
330
0
100
AcDbSymbolTable
 70
     1
  0
APPID
  5
12
330
9
100
AcDbSymbolTableRecord
100
AcDbRegAppTableRecord
  2
ACAD
 70
     0
  0
ENDTAB
  0
TABLE
  2
DIMSTYLE
  5
A
330
0
100
AcDbSymbolTable
 70
     1
100
AcDbDimStyleTable
  0
DIMSTYLE
105
27
102
{ACAD_REACTORS
330
165
330
17F
330
18C
330
198
330
1AD
330
1BA
330
1CF
330
1E4
330
1F0
330
205
330
21A
330
22F
330
23C
330
24A
330
257
330
264
330
271
330
27F
330
294
330
2A0
330
2B7
330
2C4
330
2D9
330
2F0
330
2FD
330
30A
330
31A
330
328
330
335
102
}
330
A
100
AcDbSymbolTableRecord
100
AcDbDimStyleTableRecord
  2
ISO-25
 70
     0
 41
2.5
 42
0.625
 43
3.75
 44
1.25
 73
     0
 74
     0
 77
     1
 78
     8
140
2.5
141
2.5
143
0.03937007874016
147
0.625
171
     3
172
     1
178
     0
271
     2
272
     2
274
     3
278
    44
283
     0
284
     8
340
11
  0
ENDTAB
  0
TABLE
  2
BLOCK_RECORD
  5
1
330
0
100
AcDbSymbolTable
 70
    32
  0
BLOCK_RECORD
  5
1F
330
1
100
AcDbSymbolTableRecord
100
AcDbBlockTableRecord
  2
*Model_Space
340
22
  0
BLOCK_RECORD
  5
1B
330
1
100
AcDbSymbolTableRecord
100
AcDbBlockTableRecord
  2
*Paper_Space
340
1E
  0
BLOCK_RECORD
  5
23
330
1
100
AcDbSymbolTableRecord
100
AcDbBlockTableRecord
  2
*Paper_Space0
340
26
  0
BLOCK_RECORD
  5
166
330
1
100
AcDbSymbolTableRecord
100
AcDbBlockTableRecord
  2
_OPEN30
340
0
102
{BLKREFS
331
0
331
0
331
187
331
186
331
193
331
192
331
0
331
0
331
1B5
331
1B4
331
0
331
0
331
0
331
0
331
1EA
331
1E9
331
0
331
0
331
0
331
0
331
0
331
0
331
236
331
235
331
244
331
243
331
251
331
250
331
25E
331
25D
331
26B
331
26A
331
279
331
278
331
0
331
0
331
29A
331
299
331
0
331
0
331
2BE
331
2BD
331
0
331
0
331
0
331
0
331
2F8
331
2F7
331
305
331
304
331
0
331
322
331
321
331
330
331
32F
331
33C
331
33B
102
}
  0
BLOCK_RECORD
  5
16D
330
1
100
AcDbSymbolTableRecord
100
AcDbBlockTableRecord
  2
*D2
340
0
  0
BLOCK_RECORD
  5
180
330
1
100
AcDbSymbolTableRecord
100
AcDbBlockTableRecord
  2
*D3
340
0
  0
BLOCK_RECORD
  5
18D
330
1
100
AcDbSymbolTableRecord
100
AcDbBlockTableRecord
  2
*D4
340
0
  0
BLOCK_RECORD
  5
199
330
1
100
AcDbSymbolTableRecord
100
AcDbBlockTableRecord
  2
*D5
340
0
  0
BLOCK_RECORD
  5
1AE
330
1
100
AcDbSymbolTableRecord
100
AcDbBlockTableRecord
  2
*D6
340
0
  0
BLOCK_RECORD
  5
1BB
330
1
100
AcDbSymbolTableRecord
100
AcDbBlockTableRecord
  2
*D7
340
0
  0
BLOCK_RECORD
  5
1D0
330
1
100
AcDbSymbolTableRecord
100
AcDbBlockTableRecord
  2
*D8
340
0
  0
BLOCK_RECORD
  5
1E5
330
1
100
AcDbSymbolTableRecord
100
AcDbBlockTableRecord
  2
*D9
340
0
  0
BLOCK_RECORD
  5
1F1
330
1
100
AcDbSymbolTableRecord
100
AcDbBlockTableRecord
  2
*D10
340
0
  0
BLOCK_RECORD
  5
206
330
1
100
AcDbSymbolTableRecord
100
AcDbBlockTableRecord
  2
*D11
340
0
  0
BLOCK_RECORD
  5
21B
330
1
100
AcDbSymbolTableRecord
100
AcDbBlockTableRecord
  2
*D12
340
0
  0
BLOCK_RECORD
  5
230
330
1
100
AcDbSymbolTableRecord
100
AcDbBlockTableRecord
  2
*D13
340
0
  0
BLOCK_RECORD
  5
23D
330
1
100
AcDbSymbolTableRecord
100
AcDbBlockTableRecord
  2
*D14
340
0
  0
BLOCK_RECORD
  5
24B
330
1
100
AcDbSymbolTableRecord
100
AcDbBlockTableRecord
  2
*D15
340
0
  0
BLOCK_RECORD
  5
258
330
1
100
AcDbSymbolTableRecord
100
AcDbBlockTableRecord
  2
*D16
340
0
  0
BLOCK_RECORD
  5
265
330
1
100
AcDbSymbolTableRecord
100
AcDbBlockTableRecord
  2
*D17
340
0
  0
BLOCK_RECORD
  5
272
330
1
100
AcDbSymbolTableRecord
100
AcDbBlockTableRecord
  2
*D18
340
0
  0
BLOCK_RECORD
  5
280
330
1
100
AcDbSymbolTableRecord
100
AcDbBlockTableRecord
  2
*D19
340
0
  0
BLOCK_RECORD
  5
295
330
1
100
AcDbSymbolTableRecord
100
AcDbBlockTableRecord
  2
*D20
340
0
  0
BLOCK_RECORD
  5
2A1
330
1
100
AcDbSymbolTableRecord
100
AcDbBlockTableRecord
  2
*D21
340
0
  0
BLOCK_RECORD
  5
2B8
330
1
100
AcDbSymbolTableRecord
100
AcDbBlockTableRecord
  2
*D22
340
0
  0
BLOCK_RECORD
  5
2C5
330
1
100
AcDbSymbolTableRecord
100
AcDbBlockTableRecord
  2
*D23
340
0
  0
BLOCK_RECORD
  5
2DA
330
1
100
AcDbSymbolTableRecord
100
AcDbBlockTableRecord
  2
*D24
340
0
  0
BLOCK_RECORD
  5
2F1
330
1
100
AcDbSymbolTableRecord
100
AcDbBlockTableRecord
  2
*D25
340
0
  0
BLOCK_RECORD
  5
2FE
330
1
100
AcDbSymbolTableRecord
100
AcDbBlockTableRecord
  2
*D26
340
0
  0
BLOCK_RECORD
  5
30B
330
1
100
AcDbSymbolTableRecord
100
AcDbBlockTableRecord
  2
_NONE
340
0
  0
BLOCK_RECORD
  5
30E
330
1
100
AcDbSymbolTableRecord
100
AcDbBlockTableRecord
  2
*D28
340
0
  0
BLOCK_RECORD
  5
31B
330
1
100
AcDbSymbolTableRecord
100
AcDbBlockTableRecord
  2
*D29
340
0
  0
BLOCK_RECORD
  5
329
330
1
100
AcDbSymbolTableRecord
100
AcDbBlockTableRecord
  2
*D30
340
0
  0
BLOCK_RECORD
  5
336
330
1
100
AcDbSymbolTableRecord
100
AcDbBlockTableRecord
  2
*D31
340
0
  0
ENDTAB
  0
ENDSEC
  0
SECTION
  2
BLOCKS
  0
BLOCK
  5
20
330
1F
100
AcDbEntity
  8
0
100
AcDbBlockBegin
  2
*Model_Space
 70
     0
 10
0.0
 20
0.0
 30
0.0
  3
*Model_Space
  1

  0
ENDBLK
  5
21
330
1F
100
AcDbEntity
  8
0
100
AcDbBlockEnd
  0
BLOCK
  5
1C
330
1B
100
AcDbEntity
 67
     1
  8
0
100
AcDbBlockBegin
  2
*Paper_Space
 70
     0
 10
0.0
 20
0.0
 30
0.0
  3
*Paper_Space
  1

  0
ENDBLK
  5
1D
330
1B
100
AcDbEntity
 67
     1
  8
0
100
AcDbBlockEnd
  0
BLOCK
  5
24
330
23
100
AcDbEntity
  8
0
100
AcDbBlockBegin
  2
*Paper_Space0
 70
     0
 10
0.0
 20
0.0
 30
0.0
  3
*Paper_Space0
  1

  0
ENDBLK
  5
25
330
23
100
AcDbEntity
  8
0
100
AcDbBlockEnd
  0
BLOCK
  5
167
330
166
100
AcDbEntity
  8
0
100
AcDbBlockBegin
  2
_OPEN30
 70
     0
 10
0.0
 20
0.0
 30
0.0
  3
_OPEN30
  1

  0
LINE
  5
169
330
166
100
AcDbEntity
  8
0
  6
ByBlock
 62
     0
370
    -2
100
AcDbLine
 10
-1.0
 20
0.267949
 30
0.0
 11
0.0
 21
0.0
 31
0.0
  0
LINE
  5
16A
330
166
100
AcDbEntity
  8
0
  6
ByBlock
 62
     0
370
    -2
100
AcDbLine
 10
0.0
 20
0.0
 30
0.0
 11
-1.0
 21
-0.267949
 31
0.0
  0
LINE
  5
16B
330
166
100
AcDbEntity
  8
0
  6
ByBlock
 62
     0
370
    -2
100
AcDbLine
 10
0.0
 20
0.0
 30
0.0
 11
-1.0
 21
0.0
 31
0.0
  0
ENDBLK
  5
168
330
166
100
AcDbEntity
  8
0
100
AcDbBlockEnd
  0
BLOCK
  5
16E
330
16D
100
AcDbEntity
  8
0
100
AcDbBlockBegin
  2
*D2
 70
     1
 10
0.0
 20
0.0
 30
0.0
  3
*D2
  1

  0
POINT
  5
174
330
16D
100
AcDbEntity
  8
Defpoints
 62
     0
100
AcDbPoint
 10
20.35976203373909
 20
93.00582885742188
 30
0.0
  0
POINT
  5
175
330
16D
100
AcDbEntity
  8
Defpoints
 62
     0
100
AcDbPoint
 10
-7.011018753051758
 20
93.00582885742188
 30
0.0
  0
POINT
  5
176
330
16D
100
AcDbEntity
  8
Defpoints
 62
     0
100
AcDbPoint
 10
27.40504550891414
 20
53.05004192508152
 30
0.0
  0
POINT
  5
177
330
16D
100
AcDbEntity
  8
Defpoints
 62
     0
100
AcDbPoint
 10
1.621147003879813
 20
80.68124782607589
 30
0.0
  0
ARC
  5
179
330
16D
100
AcDbEntity
  8
0
  6
Continuous
 62
     7
100
AcDbCircle
 10
20.35976219177246
 20
93.00582885742188
 30
0.0
 40
22.42975044250488
100
AcDbArc
 50
180.0000050089563
 51
279.999998684791
  0
LINE
  5
17A
330
16D
100
AcDbEntity
  8
0
  6
Continuous
 62
     7
100
AcDbLine
 10
-2.069988250732337
 20
93.00582689655073
 30
0.0
 11
-1.045602061189596
 21
90.0140660545858
 31
0.0
  0
LINE
  5
17B
330
16D
100
AcDbEntity
  8
0
  6
Continuous
 62
     7
100
AcDbLine
 10
-2.069988250732337
 20
93.00582689655073
 30
0.0
 11
-2.678724208105613
 21
89.90269291055505
 31
0.0
  0
LINE
  5
17C
330
16D
100
AcDbEntity
  8
0
  6
Continuous
 62
     7
100
AcDbLine
 10
24.25464697459065
 20
70.91683663410804
 30
0.0
 11
21.30436252961129
 21
69.77849499182597
 31
0.0
  0
LINE
  5
17D
330
16D
100
AcDbEntity
  8
0
  6
Continuous
 62
     7
100
AcDbLine
 10
24.25464697459065
 20
70.91683663410804
 30
0.0
 11
21.13045487567915
 21
71.40614607601529
 31
0.0
  0
MTEXT
  5
17E
330
16D
100
AcDbEntity
  8
0
 62
     1
100
AcDbMText
 10
9.818234872035648
 20
71.88123547792893
 30
0.0
 40
3.200000047683716
 41
0.0
 71
     7
 72
     1
  1
\W0.6875;100°
 11
-0.8007313709487334
 21
0.599023598515586
 31
0.0
 73
     1
 44
1.0
  0
ENDBLK
  5
16F
330
16D
100
AcDbEntity
  8
0
100
AcDbBlockEnd
  0
BLOCK
  5
181
330
180
100
AcDbEntity
  8
0
100
AcDbBlockBegin
  2
*D3
 70
     1
 10
0.0
 20
0.0
 30
0.0
  3
*D3
  1

  0
LINE
  5
183
330
180
100
AcDbEntity
  8
0
 62
     0
370
    -2
100
AcDbLine
 10
-61.93022827148437
 20
124.6308135986328
 30
0.0
 11
-72.85068402099608
 21
124.6308135986328
 31
0.0
  0
LINE
  5
184
330
180
100
AcDbEntity
  8
0
 62
     0
370
    -2
100
AcDbLine
 10
-42.15335372924805
 20
93.00581359863281
 30
0.0
 11
-72.85068402099607
 21
93.00581359863281
 31
0.0
  0
LINE
  5
185
330
180
100
AcDbEntity
  8
0
 62
     0
370
    -2
100
AcDbLine
 10
-71.35068402099608
 20
121.6308135986328
 30
0.0
 11
-71.35068402099607
 21
96.00581359863281
 31
0.0
  0
INSERT
  5
186
330
180
100
AcDbEntity
  8
0
 62
     0
370
    -2
100
AcDbBlockReference
  2
_OPEN30
 10
-71.35068402099608
 20
124.6308135986328
 30
0.0
 41
3.0
 42
3.0
 43
3.0
 50
90.00000000000001
  0
INSERT
  5
187
330
180
100
AcDbEntity
  8
0
 62
     0
370
    -2
100
AcDbBlockReference
  2
_OPEN30
 10
-71.35068402099607
 20
93.00581359863281
 30
0.0
 41
3.0
 42
3.0
 43
3.0
 50
270.0
  0
MTEXT
  5
188
330
180
100
AcDbEntity
  8
0
 62
     1
100
AcDbMText
 10
-73.77148405706882
 20
108.8193135986328
 30
0.0
 40
3.200000047683716
 41
0.0
 71
     5
 72
     1
  1
126.5
 11
-4.493550898087588E-16
 21
1.0
 31
0.0
 73
     1
 44
1.0
  0
POINT
  5
189
330
180
100
AcDbEntity
  8
Defpoints
 62
     0
100
AcDbPoint
 10
-59.39022827148438
 20
124.6308135986328
 30
0.0
  0
POINT
  5
18A
330
180
100
AcDbEntity
  8
Defpoints
 62
     0
100
AcDbPoint
 10
-39.61335372924805
 20
93.00581359863281
 30
0.0
  0
POINT
  5
18B
330
180
100
AcDbEntity
  8
Defpoints
 62
     0
100
AcDbPoint
 10
-71.3526840209961
 20
93.0058135986328
 30
0.0
  0
ENDBLK
  5
182
330
180
100
AcDbEntity
  8
0
100
AcDbBlockEnd
  0
BLOCK
  5
18E
330
18D
100
AcDbEntity
  8
0
100
AcDbBlockBegin
  2
*D4
 70
     1
 10
0.0
 20
0.0
 30
0.0
  3
*D4
  1

  0
LINE
  5
190
330
18D
100
AcDbEntity
  8
0
 62
     0
370
    -2
100
AcDbLine
 10
-40.68023208618164
 20
73.63081359863281
 30
0.0
 11
-72.85068402099607
 21
73.63081359863281
 31
0.0
  0
LINE
  5
191
330
18D
100
AcDbEntity
  8
0
 62
     0
370
    -2
100
AcDbLine
 10
-71.35068402099608
 20
90.00581359863281
 30
0.0
 11
-71.35068402099607
 21
76.63081359863281
 31
0.0
  0
INSERT
  5
192
330
18D
100
AcDbEntity
  8
0
 62
     0
370
    -2
100
AcDbBlockReference
  2
_OPEN30
 10
-71.35068402099608
 20
93.00581359863281
 30
0.0
 41
3.0
 42
3.0
 43
3.0
 50
90.00000000000006
  0
INSERT
  5
193
330
18D
100
AcDbEntity
  8
0
 62
     0
370
    -2
100
AcDbBlockReference
  2
_OPEN30
 10
-71.35068402099607
 20
73.63081359863281
 30
0.0
 41
3.0
 42
3.0
 43
3.0
 50
270.0000000000001
  0
MTEXT
  5
194
330
18D
100
AcDbEntity
  8
0
 62
     1
100
AcDbMText
 10
-73.77148405706882
 20
83.31931359863282
 30
0.0
 40
3.200000047683716
 41
0.0
 71
     5
 72
     1
  1
77.5
 11
-7.334634691717158E-16
 21
1.0
 31
0.0
 73
     1
 44
1.0
  0
POINT
  5
195
330
18D
100
AcDbEntity
  8
Defpoints
 62
     0
100
AcDbPoint
 10
-62.11028289794922
 20
93.00581359863281
 30
0.0
  0
POINT
  5
196
330
18D
100
AcDbEntity
  8
Defpoints
 62
     0
100
AcDbPoint
 10
-38.14023208618164
 20
73.63081359863281
 30
0.0
  0
POINT
  5
197
330
18D
100
AcDbEntity
  8
Defpoints
 62
     0
100
AcDbPoint
 10
-71.3526840209961
 20
73.6308135986328
 30
0.0
  0
ENDBLK
  5
18F
330
18D
100
AcDbEntity
  8
0
100
AcDbBlockEnd
  0
BLOCK
  5
19A
330
199
100
AcDbEntity
  8
0
100
AcDbBlockBegin
  2
*D5
 70
     1
 10
0.0
 20
0.0
 30
0.0
  3
*D5
  1

  0
POINT
  5
1A2
330
199
100
AcDbEntity
  8
Defpoints
 62
     0
100
AcDbPoint
 10
-5.390229117825363
 20
77.75581302037634
 30
0.0
  0
POINT
  5
1A3
330
199
100
AcDbEntity
  8
Defpoints
 62
     0
100
AcDbPoint
 10
-5.390229485921289
 20
108.2558196016441
 30
0.0
  0
POINT
  5
1A4
330
199
100
AcDbEntity
  8
Defpoints
 62
     0
100
AcDbPoint
 10
-12.99784660339355
 20
112.6480793923083
 30
0.0
  0
LINE
  5
1A5
330
199
100
AcDbEntity
  8
0
  6
Continuous
 62
     7
100
AcDbLine
 10
-7.589933633567632
 20
79.02581303747202
 30
0.0
 11
-14.49784676256515
 21
83.01409861361996
 31
0.0
  0
LINE
  5
1A6
330
199
100
AcDbEntity
  8
0
  6
Continuous
 62
     7
100
AcDbLine
 10
-7.589934001663558
 20
109.5258196187398
 30
0.0
 11
-14.49784382703636
 21
113.5141032875391
 31
0.0
  0
LINE
  5
1A7
330
199
100
AcDbEntity
  8
0
  6
Continuous
 62
     7
100
AcDbLine
 10
-12.99784660339355
 20
82.1480712890625
 30
0.0
 11
-12.99784660339355
 21
112.648078918457
 31
0.0
  0
LINE
  5
1A8
330
199
100
AcDbEntity
  8
0
  6
Continuous
 62
     7
100
AcDbLine
 10
-12.99784660339355
 20
82.1480712890625
 30
0.0
 11
-13.81630428769355
 21
85.20259695106813
 31
0.0
  0
LINE
  5
1A9
330
199
100
AcDbEntity
  8
0
  6
Continuous
 62
     7
100
AcDbLine
 10
-12.99784660339355
 20
82.1480712890625
 30
0.0
 11
-12.17938891909355
 21
85.20259695106813
 31
0.0
  0
LINE
  5
1AA
330
199
100
AcDbEntity
  8
0
  6
Continuous
 62
     7
100
AcDbLine
 10
-12.99784660339355
 20
112.648078918457
 30
0.0
 11
-12.17938891909355
 21
109.5935532564514
 31
0.0
  0
LINE
  5
1AB
330
199
100
AcDbEntity
  8
0
  6
Continuous
 62
     7
100
AcDbLine
 10
-12.99784660339355
 20
112.648078918457
 30
0.0
 11
-13.81630428769355
 21
109.5935532564514
 31
0.0
  0
MTEXT
  5
1AC
330
199
100
AcDbEntity
  8
0
 62
     1
100
AcDbMText
 10
-13.79784661531449
 20
94.29807889461517
 30
0.0
 40
3.200000047683716
 41
0.0
 71
     7
 72
     1
  1
\W0.6875;122
 11
6.123233995736766E-17
 21
1.0
 31
0.0
 73
     1
 44
1.0
  0
ENDBLK
  5
19B
330
199
100
AcDbEntity
  8
0
100
AcDbBlockEnd
  0
BLOCK
  5
1AF
330
1AE
100
AcDbEntity
  8
0
100
AcDbBlockBegin
  2
*D6
 70
     1
 10
0.0
 20
0.0
 30
0.0
  3
*D6
  1

  0
LINE
  5
1B1
330
1AE
100
AcDbEntity
  8
0
 62
     0
370
    -2
100
AcDbLine
 10
-61.93022827148437
 20
-32.61568450927734
 30
0.0
 11
-72.8506840209961
 21
-32.61568450927734
 31
0.0
  0
LINE
  5
1B2
330
1AE
100
AcDbEntity
  8
0
 62
     0
370
    -2
100
AcDbLine
 10
-61.93022827148437
 20
-99.86568450927734
 30
0.0
 11
-72.85068402099607
 21
-99.86568450927734
 31
0.0
  0
LINE
  5
1B3
330
1AE
100
AcDbEntity
  8
0
 62
     0
370
    -2
100
AcDbLine
 10
-71.3506840209961
 20
-35.61568450927734
 30
0.0
 11
-71.35068402099607
 21
-96.86568450927734
 31
0.0
  0
INSERT
  5
1B4
330
1AE
100
AcDbEntity
  8
0
 62
     0
370
    -2
100
AcDbBlockReference
  2
_OPEN30
 10
-71.3506840209961
 20
-32.61568450927734
 30
0.0
 41
3.0
 42
3.0
 43
3.0
 50
90.00000000000001
  0
INSERT
  5
1B5
330
1AE
100
AcDbEntity
  8
0
 62
     0
370
    -2
100
AcDbBlockReference
  2
_OPEN30
 10
-71.35068402099607
 20
-99.86568450927734
 30
0.0
 41
3.0
 42
3.0
 43
3.0
 50
270.0
  0
MTEXT
  5
1B6
330
1AE
100
AcDbEntity
  8
0
 62
     1
100
AcDbMText
 10
-73.76508405697345
 20
-66.23968450927734
 30
0.0
 40
3.200000047683716
 41
0.0
 71
     5
 72
     1
  1
269
 11
-4.226276495227362E-16
 21
1.0
 31
0.0
 73
     1
 44
1.0
  0
POINT
  5
1B7
330
1AE
100
AcDbEntity
  8
Defpoints
 62
     0
100
AcDbPoint
 10
-59.39022827148438
 20
-32.61568450927734
 30
0.0
  0
POINT
  5
1B8
330
1AE
100
AcDbEntity
  8
Defpoints
 62
     0
100
AcDbPoint
 10
-59.39022827148438
 20
-99.86568450927734
 30
0.0
  0
POINT
  5
1B9
330
1AE
100
AcDbEntity
  8
Defpoints
 62
     0
100
AcDbPoint
 10
-71.3526840209961
 20
-99.86568450927734
 30
0.0
  0
ENDBLK
  5
1B0
330
1AE
100
AcDbEntity
  8
0
100
AcDbBlockEnd
  0
BLOCK
  5
1BC
330
1BB
100
AcDbEntity
  8
0
100
AcDbBlockBegin
  2
*D7
 70
     1
 10
0.0
 20
0.0
 30
0.0
  3
*D7
  1

  0
POINT
  5
1C4
330
1BB
100
AcDbEntity
  8
Defpoints
 62
     0
100
AcDbPoint
 10
75.94875349951751
 20
-114.7061305721138
 30
0.0
  0
POINT
  5
1C5
330
1BB
100
AcDbEntity
  8
Defpoints
 62
     0
100
AcDbPoint
 10
75.94875313186654
 20
-100.131134525214
 30
0.0
  0
POINT
  5
1C6
330
1BB
100
AcDbEntity
  8
Defpoints
 62
     0
100
AcDbPoint
 10
89.56405639648438
 20
-102.5318794871732
 30
0.0
  0
LINE
  5
1C7
330
1BB
100
AcDbEntity
  8
0
  6
Continuous
 62
     7
100
AcDbLine
 10
78.45016518998915
 20
-115.1471969557476
 30
0.0
 11
91.06404829501123
 21
-117.3713649429302
 31
0.0
  0
LINE
  5
1C8
330
1BB
100
AcDbEntity
  8
0
  6
Continuous
 62
     7
100
AcDbLine
 10
78.4501648223382
 20
-100.5722009088478
 30
0.0
 11
91.06404792736026
 21
-102.7963688960304
 31
0.0
  0
LINE
  5
1C9
330
1BB
100
AcDbEntity
  8
0
  6
Continuous
 62
     7
100
AcDbLine
 10
89.56405639648438
 20
-117.1068725585938
 30
0.0
 11
89.56405639648438
 21
-102.5318832397461
 31
0.0
  0
LINE
  5
1CA
330
1BB
100
AcDbEntity
  8
0
  6
Continuous
 62
     7
100
AcDbLine
 10
89.56405639648438
 20
-117.1068725585938
 30
0.0
 11
88.74559871218437
 21
-114.0523468965881
 31
0.0
  0
LINE
  5
1CB
330
1BB
100
AcDbEntity
  8
0
  6
Continuous
 62
     7
100
AcDbLine
 10
89.56405639648438
 20
-117.1068725585938
 30
0.0
 11
90.38251408078438
 21
-114.0523468965881
 31
0.0
  0
LINE
  5
1CC
330
1BB
100
AcDbEntity
  8
0
  6
Continuous
 62
     7
100
AcDbLine
 10
89.56405639648438
 20
-102.5318832397461
 30
0.0
 11
90.38251408078438
 21
-105.5864089017517
 31
0.0
  0
LINE
  5
1CD
330
1BB
100
AcDbEntity
  8
0
  6
Continuous
 62
     7
100
AcDbLine
 10
89.56405639648438
 20
-102.5318832397461
 30
0.0
 11
88.74559871218437
 21
-105.5864089017517
 31
0.0
  0
MTEXT
  5
1CE
330
1BB
100
AcDbEntity
  8
0
 62
     1
100
AcDbMText
 10
88.76405638456345
 20
-112.919381737709
 30
0.0
 40
3.200000047683716
 41
0.0
 71
     7
 72
     1
  1
\W0.6875;\U+220558
 11
6.123233995736766E-17
 21
1.0
 31
0.0
 73
     1
 44
1.0
  0
ENDBLK
  5
1BD
330
1BB
100
AcDbEntity
  8
0
100
AcDbBlockEnd
  0
BLOCK
  5
1D1
330
1D0
100
AcDbEntity
  8
0
100
AcDbBlockBegin
  2
*D8
 70
     1
 10
0.0
 20
0.0
 30
0.0
  3
*D8
  1

  0
MTEXT
  5
1D8
330
1D0
100
AcDbEntity
  8
0
 62
     1
 60
     1
100
AcDbMText
 10
56.95742725544701
 20
-76.2971000646281
 30
0.0
 40
3.200000047683716
 41
0.0
 71
     5
 72
     1
  1
80
 11
0.9848077560595521
 21
0.1736481603845835
 31
0.0
 73
     1
 44
1.0
  0
POINT
  5
1D9
330
1D0
100
AcDbEntity
  8
Defpoints
 62
     0
100
AcDbPoint
 10
73.49866970774485
 20
-85.9859959999002
 30
0.0
  0
POINT
  5
1DA
330
1D0
100
AcDbEntity
  8
Defpoints
 62
     0
100
AcDbPoint
 10
53.80251597005552
 20
-89.45895896364321
 30
0.0
  0
POINT
  5
1DB
330
1D0
100
AcDbEntity
  8
Defpoints
 62
     0
100
AcDbPoint
 10
46.38024109667116
 20
-80.61343590281695
 30
0.0
  0
MTEXT
  5
1DC
330
1D0
100
AcDbEntity
  8
0
 62
     1
100
AcDbMText
 10
59.48321743035496
 20
-79.11536980510479
 30
0.0
 40
3.200000047683716
 41
0.0
 71
     7
 72
     1
  1
\W0.6875;80
 11
-0.984807753012208
 21
-0.1736481776669303
 31
0.0
 73
     1
 44
1.0
  0
LINE
  5
1DD
330
1D0
100
AcDbEntity
  8
0
  6
Continuous
 62
     7
100
AcDbLine
 10
71.86598913437818
 20
-84.04024315193848
 30
0.0
 11
64.96305400361503
 21
-75.81364579475846
 31
0.0
  0
LINE
  5
1DE
330
1D0
100
AcDbEntity
  8
0
  6
Continuous
 62
     7
100
AcDbLine
 10
52.16983539668887
 20
-87.5132061156815
 30
0.0
 11
45.26690026592571
 21
-79.28660875850147
 31
0.0
  0
LINE
  5
1DF
330
1D0
100
AcDbEntity
  8
0
  6
Continuous
 62
     7
100
AcDbLine
 10
66.07639410369868
 20
-77.14047261116883
 30
0.0
 11
46.38023906061486
 21
-80.61343626182858
 31
0.0
  0
LINE
  5
1E0
330
1D0
100
AcDbEntity
  8
0
  6
Continuous
 62
     7
100
AcDbLine
 10
66.07639410369868
 20
-77.14047261116883
 30
0.0
 11
63.21039724196048
 21
-78.47690891318528
 31
0.0
  0
LINE
  5
1E1
330
1D0
100
AcDbEntity
  8
0
  6
Continuous
 62
     7
100
AcDbLine
 10
66.07639410369868
 20
-77.14047261116883
 30
0.0
 11
62.92614986324277
 21
-76.86486196856767
 31
0.0
  0
LINE
  5
1E2
330
1D0
100
AcDbEntity
  8
0
  6
Continuous
 62
     7
100
AcDbLine
 10
46.38023906061486
 20
-80.61343626182858
 30
0.0
 11
49.24623592235306
 21
-79.27699995981213
 31
0.0
  0
LINE
  5
1E3
330
1D0
100
AcDbEntity
  8
0
  6
Continuous
 62
     7
100
AcDbLine
 10
46.38023906061486
 20
-80.61343626182858
 30
0.0
 11
49.53048330107077
 21
-80.88904690442975
 31
0.0
  0
ENDBLK
  5
1D2
330
1D0
100
AcDbEntity
  8
0
100
AcDbBlockEnd
  0
BLOCK
  5
1E6
330
1E5
100
AcDbEntity
  8
0
100
AcDbBlockBegin
  2
*D9
 70
     1
 10
0.0
 20
0.0
 30
0.0
  3
*D9
  1

  0
LINE
  5
1E8
330
1E5
100
AcDbEntity
  8
0
 62
     0
370
    -2
100
AcDbLine
 10
43.0906505110131
 20
11.6024131718791
 30
0.0
 11
37.9204098122036
 21
10.69076021358091
 31
0.0
  0
INSERT
  5
1E9
330
1E5
100
AcDbEntity
  8
0
 62
     0
370
    -2
100
AcDbBlockReference
  2
_OPEN30
 10
46.04507376747567
 20
12.12335771947806
 30
0.0
 41
3.0
 42
3.0
 43
3.0
 50
10.00000028310556
  0
INSERT
  5
1EA
330
1E5
100
AcDbEntity
  8
0
 62
     0
370
    -2
100
AcDbBlockReference
  2
_OPEN30
 10
34.96598655574103
 20
10.16981566598195
 30
0.0
 41
3.0
 42
3.0
 43
3.0
 50
190.0000002831055
  0
MTEXT
  5
1EB
330
1E5
100
AcDbEntity
  8
0
 62
     1
 60
     1
100
AcDbMText
 10
40.08821409772385
 20
13.52464865946331
 30
0.0
 40
3.200000047683716
 41
0.0
 71
     5
 72
     1
  1
45
 11
0.9848077521541908
 21
0.1736481825329877
 31
0.0
 73
     1
 44
1.0
  0
POINT
  5
1EC
330
1E5
100
AcDbEntity
  8
Defpoints
 62
     0
100
AcDbPoint
 10
47.78149533174024
 20
2.275621955410429
 30
0.0
  0
POINT
  5
1ED
330
1E5
100
AcDbEntity
  8
Defpoints
 62
     0
100
AcDbPoint
 10
36.70240812000559
 20
0.322079901914316
 30
0.0
  0
POINT
  5
1EE
330
1E5
100
AcDbEntity
  8
Defpoints
 62
     0
100
AcDbPoint
 10
34.96592629467571
 20
10.17015742345622
 30
0.0
  0
MTEXT
  5
1EF
330
1E5
100
AcDbEntity
  8
0
 62
     1
100
AcDbMText
 10
42.61400432610692
 20
10.70637892841571
 30
0.0
 40
3.200000047683716
 41
0.0
 71
     7
 72
     1
  1
\W0.6875;45
 11
-0.984807753012208
 21
-0.1736481776669303
 31
0.0
 73
     1
 44
1.0
  0
ENDBLK
  5
1E7
330
1E5
100
AcDbEntity
  8
0
100
AcDbBlockEnd
  0
BLOCK
  5
1F2
330
1F1
100
AcDbEntity
  8
0
100
AcDbBlockBegin
  2
*D10
 70
     1
 10
0.0
 20
0.0
 30
0.0
  3
*D10
  1

  0
MTEXT
  5
1F9
330
1F1
100
AcDbEntity
  8
0
 62
     1
 60
     1
100
AcDbMText
 10
45.11719051627019
 20
-9.84255927591387
 30
0.0
 40
3.200000047683716
 41
0.0
 71
     5
 72
     1
  1
80
 11
0.9848077505560197
 21
0.1736481915966673
 31
0.0
 73
     1
 44
1.0
  0
POINT
  5
1FA
330
1F1
100
AcDbEntity
  8
Defpoints
 62
     0
100
AcDbPoint
 10
58.30445140101821
 20
0.184681674447472
 30
0.0
  0
POINT
  5
1FB
330
1F1
100
AcDbEntity
  8
Defpoints
 62
     0
100
AcDbPoint
 10
38.60829726505028
 20
-3.288282003172871
 30
0.0
  0
POINT
  5
1FC
330
1F1
100
AcDbEntity
  8
Defpoints
 62
     0
100
AcDbPoint
 10
34.65898950366567
 20
-14.13891637759319
 30
0.0
  0
MTEXT
  5
1FD
330
1F1
100
AcDbEntity
  8
0
 62
     1
100
AcDbMText
 10
47.6429807665366
 20
-12.66182900310284
 30
0.0
 40
3.200000047683716
 41
0.0
 71
     7
 72
     1
  1
\W0.6875;80
 11
-0.984807753012208
 21
-0.1736481776669303
 31
0.0
 73
     1
 44
1.0
  0
LINE
  5
1FE
330
1F1
100
AcDbEntity
  8
0
  6
Continuous
 62
     7
100
AcDbLine
 10
57.43572020950211
 20
-2.202137572350871
 30
0.0
 11
53.76274659635603
 21
-12.29354927536559
 31
0.0
  0
LINE
  5
1FF
330
1F1
100
AcDbEntity
  8
0
  6
Continuous
 62
     7
100
AcDbLine
 10
37.73956607353418
 20
-5.675101249971215
 30
0.0
 11
34.06659205266831
 21
-15.76651407318682
 31
0.0
  0
LINE
  5
200
330
1F1
100
AcDbEntity
  8
0
  6
Continuous
 62
     7
100
AcDbLine
 10
54.35514244513725
 20
-10.6659530975044
 30
0.0
 11
34.65898740205343
 21
-14.13891674816415
 31
0.0
  0
LINE
  5
201
330
1F1
100
AcDbEntity
  8
0
  6
Continuous
 62
     7
100
AcDbLine
 10
54.35514244513725
 20
-10.6659530975044
 30
0.0
 11
51.48914558339905
 21
-12.00238939952085
 31
0.0
  0
LINE
  5
202
330
1F1
100
AcDbEntity
  8
0
  6
Continuous
 62
     7
100
AcDbLine
 10
54.35514244513725
 20
-10.6659530975044
 30
0.0
 11
51.20489820468134
 21
-10.39034245490324
 31
0.0
  0
LINE
  5
203
330
1F1
100
AcDbEntity
  8
0
  6
Continuous
 62
     7
100
AcDbLine
 10
34.65898740205343
 20
-14.13891674816415
 30
0.0
 11
37.52498426379163
 21
-12.8024804461477
 31
0.0
  0
LINE
  5
204
330
1F1
100
AcDbEntity
  8
0
  6
Continuous
 62
     7
100
AcDbLine
 10
34.65898740205343
 20
-14.13891674816415
 30
0.0
 11
37.80923164250934
 21
-14.41452739076531
 31
0.0
  0
ENDBLK
  5
1F3
330
1F1
100
AcDbEntity
  8
0
100
AcDbBlockEnd
  0
BLOCK
  5
207
330
206
100
AcDbEntity
  8
0
100
AcDbBlockBegin
  2
*D11
 70
     1
 10
0.0
 20
0.0
 30
0.0
  3
*D11
  1

  0
MTEXT
  5
20E
330
206
100
AcDbEntity
  8
0
 62
     1
 60
     1
100
AcDbMText
 10
28.7826016292022
 20
19.51701029435603
 30
0.0
 40
3.200000047683716
 41
0.0
 71
     5
 72
     1
  1
80
 11
0.9848077591334532
 21
0.1736481429516202
 31
0.0
 73
     1
 44
1.0
  0
POINT
  5
20F
330
206
100
AcDbEntity
  8
Defpoints
 62
     0
100
AcDbPoint
 10
41.71204255923243
 20
29.49879220179542
 30
0.0
  0
POINT
  5
210
330
206
100
AcDbEntity
  8
Defpoints
 62
     0
100
AcDbPoint
 10
22.01587905311473
 20
26.02582787511475
 30
0.0
  0
POINT
  5
211
330
206
100
AcDbEntity
  8
Defpoints
 62
     0
100
AcDbPoint
 10
18.06656981090357
 20
15.17519109980673
 30
0.0
  0
MTEXT
  5
212
330
206
100
AcDbEntity
  8
0
 62
     1
100
AcDbMText
 10
31.30839176202
 20
16.69774054645771
 30
0.0
 40
3.200000047683716
 41
0.0
 71
     7
 72
     1
  1
\W0.6875;80
 11
-0.984807753012208
 21
-0.1736481776669303
 31
0.0
 73
     1
 44
1.0
  0
LINE
  5
213
330
206
100
AcDbEntity
  8
0
  6
Continuous
 62
     7
100
AcDbLine
 10
40.84331136771633
 20
27.11197295499708
 30
0.0
 11
37.17033759148234
 21
17.020560803902
 31
0.0
  0
LINE
  5
214
330
206
100
AcDbEntity
  8
0
  6
Continuous
 62
     7
100
AcDbLine
 10
21.14714786159863
 20
23.6390086283164
 30
0.0
 11
17.47417408536464
 21
13.54759647722133
 31
0.0
  0
LINE
  5
215
330
206
100
AcDbEntity
  8
0
  6
Continuous
 62
     7
100
AcDbLine
 10
37.76273604579531
 20
18.64815672388423
 30
0.0
 11
18.06656973248118
 21
15.17519108597874
 31
0.0
  0
LINE
  5
216
330
206
100
AcDbEntity
  8
0
  6
Continuous
 62
     7
100
AcDbLine
 10
37.76273604579531
 20
18.64815672388423
 30
0.0
 11
34.89673918405711
 21
17.31172042186778
 31
0.0
  0
LINE
  5
217
330
206
100
AcDbEntity
  8
0
  6
Continuous
 62
     7
100
AcDbLine
 10
37.76273604579531
 20
18.64815672388423
 30
0.0
 11
34.6124918053394
 21
18.92376736648539
 31
0.0
  0
LINE
  5
218
330
206
100
AcDbEntity
  8
0
  6
Continuous
 62
     7
100
AcDbLine
 10
18.06656973248118
 20
15.17519108597874
 30
0.0
 11
20.93256659421937
 21
16.51162738799519
 31
0.0
  0
LINE
  5
219
330
206
100
AcDbEntity
  8
0
  6
Continuous
 62
     7
100
AcDbLine
 10
18.06656973248118
 20
15.17519108597874
 30
0.0
 11
21.21681397293708
 21
14.89958044337758
 31
0.0
  0
ENDBLK
  5
208
330
206
100
AcDbEntity
  8
0
100
AcDbBlockEnd
  0
BLOCK
  5
21C
330
21B
100
AcDbEntity
  8
0
100
AcDbBlockBegin
  2
*D12
 70
     1
 10
0.0
 20
0.0
 30
0.0
  3
*D12
  1

  0
MTEXT
  5
223
330
21B
100
AcDbEntity
  8
0
 62
     1
 60
     1
100
AcDbMText
 10
17.7742299138878
 20
71.04887058205907
 30
0.0
 40
3.200000047683716
 41
0.0
 71
     5
 72
     1
  1
90
 11
0.9848077326840365
 21
0.1736482929536808
 31
0.0
 73
     1
 44
1.0
  0
POINT
  5
224
330
21B
100
AcDbEntity
  8
Defpoints
 62
     0
100
AcDbPoint
 10
34.26064465261896
 20
78.95625137788797
 30
0.0
  0
POINT
  5
225
330
21B
100
AcDbEntity
  8
Defpoints
 62
     0
100
AcDbPoint
 10
12.10246057480193
 20
75.04916300686189
 30
0.0
  0
POINT
  5
226
330
21B
100
AcDbEntity
  8
Defpoints
 62
     0
100
AcDbPoint
 10
9.203887380214391
 20
67.08539570535497
 30
0.0
  0
MTEXT
  5
227
330
21B
100
AcDbEntity
  8
0
 62
     1
100
AcDbMText
 10
20.30002040887059
 20
68.22960089802021
 30
0.0
 40
3.200000047683716
 41
0.0
 71
     7
 72
     1
  1
\W0.6875;90
 11
-0.984807753012208
 21
-0.1736481776669303
 31
0.0
 73
     1
 44
1.0
  0
LINE
  5
228
330
21B
100
AcDbEntity
  8
0
  6
Continuous
 62
     7
100
AcDbLine
 10
33.39191346110286
 20
76.56943213108961
 30
0.0
 11
30.76967078287386
 21
69.36487984230834
 31
0.0
  0
LINE
  5
229
330
21B
100
AcDbEntity
  8
0
  6
Continuous
 62
     7
100
AcDbLine
 10
11.23372938328583
 20
72.66234376006355
 30
0.0
 11
8.611486705056828
 21
65.45779147128228
 31
0.0
  0
LINE
  5
22A
330
21B
100
AcDbEntity
  8
0
  6
Continuous
 62
     7
100
AcDbLine
 10
31.36206673270615
 20
70.9924806814667
 30
0.0
 11
9.20388291737826
 21
67.08539491843636
 31
0.0
  0
LINE
  5
22B
330
21B
100
AcDbEntity
  8
0
  6
Continuous
 62
     7
100
AcDbLine
 10
31.36206673270615
 20
70.9924806814667
 30
0.0
 11
28.49606987096796
 21
69.65604437945025
 31
0.0
  0
LINE
  5
22C
330
21B
100
AcDbEntity
  8
0
  6
Continuous
 62
     7
100
AcDbLine
 10
31.36206673270615
 20
70.9924806814667
 30
0.0
 11
28.21182249225025
 21
71.26809132406787
 31
0.0
  0
LINE
  5
22D
330
21B
100
AcDbEntity
  8
0
  6
Continuous
 62
     7
100
AcDbLine
 10
9.20388291737826
 20
67.08539491843636
 30
0.0
 11
12.06987977911646
 21
68.42183122045282
 31
0.0
  0
LINE
  5
22E
330
21B
100
AcDbEntity
  8
0
  6
Continuous
 62
     7
100
AcDbLine
 10
9.20388291737826
 20
67.08539491843636
 30
0.0
 11
12.35412715783416
 21
66.8097842758352
 31
0.0
  0
ENDBLK
  5
21D
330
21B
100
AcDbEntity
  8
0
100
AcDbBlockEnd
  0
BLOCK
  5
231
330
230
100
AcDbEntity
  8
0
100
AcDbBlockBegin
  2
*D13
 70
     1
 10
0.0
 20
0.0
 30
0.0
  3
*D13
  1

  0
LINE
  5
233
330
230
100
AcDbEntity
  8
0
 62
     0
370
    -2
100
AcDbLine
 10
78.45149358428603
 20
-99.69764043562124
 30
0.0
 11
87.28015807472504
 21
-98.16841981775487
 31
0.0
  0
LINE
  5
234
330
230
100
AcDbEntity
  8
0
 62
     0
370
    -2
100
AcDbLine
 10
85.29015688201181
 20
-95.46843921541715
 30
0.0
 11
83.86408183217533
 21
-87.23526605119513
 31
0.0
  0
INSERT
  5
235
330
230
100
AcDbEntity
  8
0
 62
     0
370
    -2
100
AcDbBlockReference
  2
_OPEN30
 10
85.8021655952473
 20
-98.42442417437262
 30
0.0
 41
3.0
 42
3.0
 43
3.0
 50
279.8267516049436
  0
INSERT
  5
236
330
230
100
AcDbEntity
  8
0
 62
     0
370
    -2
100
AcDbBlockReference
  2
_OPEN30
 10
83.35207311893984
 20
-84.27928109223966
 30
0.0
 41
3.0
 42
3.0
 43
3.0
 50
99.82675160494365
  0
MTEXT
  5
237
330
230
100
AcDbEntity
  8
0
 62
     1
 60
     1
100
AcDbMText
 10
86.95592680365907
 20
-90.93881068662361
 30
0.0
 40
3.200000047683716
 41
0.0
 71
     5
 72
     1
  1
57
 11
0.1706695710784968
 21
-0.9853283196518214
 31
0.0
 73
     1
 44
1.0
  0
POINT
  5
238
330
230
100
AcDbEntity
  8
Defpoints
 62
     0
100
AcDbPoint
 10
75.9487596523704
 20
-100.1311411461606
 30
0.0
  0
POINT
  5
239
330
230
100
AcDbEntity
  8
Defpoints
 62
     0
100
AcDbPoint
 10
73.49866717606294
 20
-85.98599806402764
 30
0.0
  0
POINT
  5
23A
330
230
100
AcDbEntity
  8
Defpoints
 62
     0
100
AcDbPoint
 10
83.35190526783018
 20
-84.27931016587563
 30
0.0
  0
MTEXT
  5
23B
330
230
100
AcDbEntity
  8
0
 62
     1
100
AcDbMText
 10
84.12904274104048
 20
-93.45885870350465
 30
0.0
 40
3.200000047683716
 41
0.0
 71
     7
 72
     1
  1
\W0.6875;57
 11
-0.1702094991660321
 21
0.9854078984834902
 31
0.0
 73
     1
 44
1.0
  0
ENDBLK
  5
232
330
230
100
AcDbEntity
  8
0
100
AcDbBlockEnd
  0
BLOCK
  5
23E
330
23D
100
AcDbEntity
  8
0
100
AcDbBlockBegin
  2
*D14
 70
     1
 10
0.0
 20
0.0
 30
0.0
  3
*D14
  1

  0
LINE
  5
240
330
23D
100
AcDbEntity
  8
0
 62
     0
370
    -2
100
AcDbLine
 10
60.8058621814952
 20
0.625748997573296
 30
0.0
 11
69.62982412579213
 21
2.181651610053438
 31
0.0
  0
LINE
  5
241
330
23D
100
AcDbEntity
  8
0
 62
     0
370
    -2
100
AcDbLine
 10
76.00007749071638
 20
-85.54492555917496
 30
0.0
 11
84.8240394350133
 21
-83.9890229466948
 31
0.0
  0
LINE
  5
242
330
23D
100
AcDbEntity
  8
0
 62
     0
370
    -2
100
AcDbLine
 10
68.6735570451598
 20
-1.033243920208616
 30
0.0
 11
82.82588325918306
 21
-81.2950719640317
 31
0.0
  0
INSERT
  5
243
330
23D
100
AcDbEntity
  8
0
 62
     0
370
    -2
100
AcDbBlockReference
  2
_OPEN30
 10
68.15261249756084
 20
1.921179336253957
 30
0.0
 41
3.0
 42
3.0
 43
3.0
 50
100.0000002831056
  0
INSERT
  5
244
330
23D
100
AcDbEntity
  8
0
 62
     0
370
    -2
100
AcDbBlockReference
  2
_OPEN30
 10
83.34682780678202
 20
-84.24949522049428
 30
0.0
 41
3.0
 42
3.0
 43
3.0
 50
280.0000002831055
  0
MTEXT
  5
245
330
23D
100
AcDbEntity
  8
0
 62
     1
 60
     1
100
AcDbMText
 10
78.12726973795452
 20
-40.74393602155198
 30
0.0
 40
3.200000047683716
 41
0.0
 71
     5
 72
     1
  1
350
 11
0.1736481825329878
 21
-0.9848077521541908
 31
0.0
 73
     1
 44
1.0
  0
POINT
  5
246
330
23D
100
AcDbEntity
  8
Defpoints
 62
     0
100
AcDbPoint
 10
58.30445049102355
 20
0.184682613939509
 30
0.0
  0
POINT
  5
247
330
23D
100
AcDbEntity
  8
Defpoints
 62
     0
100
AcDbPoint
 10
73.49866580024474
 20
-85.98599194280874
 30
0.0
  0
POINT
  5
248
330
23D
100
AcDbEntity
  8
Defpoints
 62
     0
100
AcDbPoint
 10
83.3466531599441
 20
-84.2495260154448
 30
0.0
  0
MTEXT
  5
249
330
23D
100
AcDbEntity
  8
0
 62
     1
100
AcDbMText
 10
75.50001300648064
 20
-44.35601480172812
 30
0.0
 40
3.200000047683716
 41
0.0
 71
     7
 72
     1
  1
\W0.6875;350
 11
-0.1736481776669301
 21
0.9848077530122081
 31
0.0
 73
     1
 44
1.0
  0
ENDBLK
  5
23F
330
23D
100
AcDbEntity
  8
0
100
AcDbBlockEnd
  0
BLOCK
  5
24C
330
24B
100
AcDbEntity
  8
0
100
AcDbBlockBegin
  2
*D15
 70
     1
 10
0.0
 20
0.0
 30
0.0
  3
*D15
  1

  0
LINE
  5
24E
330
24B
100
AcDbEntity
  8
0
 62
     0
370
    -2
100
AcDbLine
 10
44.21344451192294
 20
29.93985683171618
 30
0.0
 11
64.11648480446858
 21
33.44929993482069
 31
0.0
  0
LINE
  5
24F
330
24B
100
AcDbEntity
  8
0
 62
     0
370
    -2
100
AcDbLine
 10
67.63165908647596
 20
4.875601029844784
 30
0.0
 11
63.16021772383627
 21
30.23440440455864
 31
0.0
  0
INSERT
  5
250
330
24B
100
AcDbEntity
  8
0
 62
     0
370
    -2
100
AcDbBlockReference
  2
_OPEN30
 10
68.15260363407492
 20
1.921177773382212
 30
0.0
 41
3.0
 42
3.0
 43
3.0
 50
280.0000002831055
  0
INSERT
  5
251
330
24B
100
AcDbEntity
  8
0
 62
     0
370
    -2
100
AcDbBlockReference
  2
_OPEN30
 10
62.6392731762373
 20
33.18882766102121
 30
0.0
 41
3.0
 42
3.0
 43
3.0
 50
100.0000002831056
  0
MTEXT
  5
252
330
24B
100
AcDbEntity
  8
0
 62
     1
 60
     1
100
AcDbMText
 10
67.77348708414593
 20
17.97522978044997
 30
0.0
 40
3.200000047683716
 41
0.0
 71
     5
 72
     1
  1
127
 11
0.1736481825329878
 21
-0.9848077521541909
 31
0.0
 73
     1
 44
1.0
  0
POINT
  5
253
330
24B
100
AcDbEntity
  8
Defpoints
 62
     0
100
AcDbPoint
 10
58.30445049102355
 20
0.184682613939509
 30
0.0
  0
POINT
  5
254
330
24B
100
AcDbEntity
  8
Defpoints
 62
     0
100
AcDbPoint
 10
41.7120328214513
 20
29.4987904480824
 30
0.0
  0
POINT
  5
255
330
24B
100
AcDbEntity
  8
Defpoints
 62
     0
100
AcDbPoint
 10
62.63910739288531
 20
33.18879842894246
 30
0.0
  0
MTEXT
  5
256
330
24B
100
AcDbEntity
  8
0
 62
     1
100
AcDbMText
 10
65.14623035267205
 20
14.36315100027384
 30
0.0
 40
3.200000047683716
 41
0.0
 71
     7
 72
     1
  1
\W0.6875;127
 11
-0.1736481776669301
 21
0.9848077530122081
 31
0.0
 73
     1
 44
1.0
  0
ENDBLK
  5
24D
330
24B
100
AcDbEntity
  8
0
100
AcDbBlockEnd
  0
BLOCK
  5
259
330
258
100
AcDbEntity
  8
0
100
AcDbBlockBegin
  2
*D16
 70
     1
 10
0.0
 20
0.0
 30
0.0
  3
*D16
  1

  0
LINE
  5
25B
330
258
100
AcDbEntity
  8
0
 62
     0
370
    -2
100
AcDbLine
 10
36.7620437506358
 20
79.39731218107882
 30
0.0
 11
55.43407830660617
 21
82.68969575314654
 31
0.0
  0
LINE
  5
25C
330
258
100
AcDbEntity
  8
0
 62
     0
370
    -2
100
AcDbLine
 10
62.1183325822558
 20
36.14325161461323
 30
0.0
 11
54.47781122597384
 21
79.47480022288448
 31
0.0
  0
INSERT
  5
25D
330
258
100
AcDbEntity
  8
0
 62
     0
370
    -2
100
AcDbBlockReference
  2
_OPEN30
 10
62.63927712985477
 20
33.18882835815066
 30
0.0
 41
3.0
 42
3.0
 43
3.0
 50
280.0000002831056
  0
INSERT
  5
25E
330
258
100
AcDbEntity
  8
0
 62
     0
370
    -2
100
AcDbBlockReference
  2
_OPEN30
 10
53.95686667837488
 20
82.42922347934706
 30
0.0
 41
3.0
 42
3.0
 43
3.0
 50
100.0000002831056
  0
MTEXT
  5
25F
330
258
100
AcDbEntity
  8
0
 62
     1
 60
     1
100
AcDbMText
 10
60.67562102579632
 20
58.22925047136794
 30
0.0
 40
3.200000047683716
 41
0.0
 71
     5
 72
     1
  1
200
 11
0.1736481825329881
 21
-0.9848077521541908
 31
0.0
 73
     1
 44
1.0
  0
POINT
  5
260
330
258
100
AcDbEntity
  8
Defpoints
 62
     0
100
AcDbPoint
 10
41.7120328214513
 20
29.4987904480824
 30
0.0
  0
POINT
  5
261
330
258
100
AcDbEntity
  8
Defpoints
 62
     0
100
AcDbPoint
 10
34.26063206016416
 20
78.95624579744504
 30
0.0
  0
POINT
  5
262
330
258
100
AcDbEntity
  8
Defpoints
 62
     0
100
AcDbPoint
 10
53.95669694140543
 20
82.42919355013886
 30
0.0
  0
MTEXT
  5
263
330
258
100
AcDbEntity
  8
0
 62
     1
100
AcDbMText
 10
58.04836429432244
 20
54.61717169119181
 30
0.0
 40
3.200000047683716
 41
0.0
 71
     7
 72
     1
  1
\W0.6875;200
 11
-0.1736481776669301
 21
0.9848077530122081
 31
0.0
 73
     1
 44
1.0
  0
ENDBLK
  5
25A
330
258
100
AcDbEntity
  8
0
100
AcDbBlockEnd
  0
BLOCK
  5
266
330
265
100
AcDbEntity
  8
0
100
AcDbBlockBegin
  2
*D17
 70
     1
 10
0.0
 20
0.0
 30
0.0
  3
*D17
  1

  0
LINE
  5
268
330
265
100
AcDbEntity
  8
0
 62
     0
370
    -2
100
AcDbLine
 10
22.8611722479096
 20
93.4469036135752
 30
0.0
 11
52.61229651462256
 21
98.69282967978157
 31
0.0
  0
LINE
  5
269
330
265
100
AcDbEntity
  8
0
 62
     0
370
    -2
100
AcDbLine
 10
53.43592462978386
 20
85.3836471764522
 30
0.0
 11
51.65602943399024
 21
95.47793414951951
 31
0.0
  0
INSERT
  5
26A
330
265
100
AcDbEntity
  8
0
 62
     0
370
    -2
100
AcDbBlockReference
  2
_OPEN30
 10
53.95686917738283
 20
82.42922391998962
 30
0.0
 41
3.0
 42
3.0
 43
3.0
 50
280.0000002831056
  0
INSERT
  5
26B
330
265
100
AcDbEntity
  8
0
 62
     0
370
    -2
100
AcDbBlockReference
  2
_OPEN30
 10
51.13508488639128
 20
98.43235740598209
 30
0.0
 41
3.0
 42
3.0
 43
3.0
 50
100.0000002831056
  0
MTEXT
  5
26C
330
265
100
AcDbEntity
  8
0
 62
     1
 60
     1
100
AcDbMText
 10
54.92352675699749
 20
90.85101179338943
 30
0.0
 40
3.200000047683716
 41
0.0
 71
     5
 72
     1
  1
65
 11
0.173648182532988
 21
-0.9848077521541908
 31
0.0
 73
     1
 44
1.0
  0
POINT
  5
26D
330
265
100
AcDbEntity
  8
Defpoints
 62
     0
100
AcDbPoint
 10
34.26063206016416
 20
78.95624579744504
 30
0.0
  0
POINT
  5
26E
330
265
100
AcDbEntity
  8
Defpoints
 62
     0
100
AcDbPoint
 10
20.35976055743796
 20
93.0058372299414
 30
0.0
  0
POINT
  5
26F
330
265
100
AcDbEntity
  8
Defpoints
 62
     0
100
AcDbPoint
 10
51.13491265041388
 20
98.43232703613135
 30
0.0
  0
MTEXT
  5
270
330
265
100
AcDbEntity
  8
0
 62
     1
100
AcDbMText
 10
52.1052570259499
 20
88.32222156500637
 30
0.0
 40
3.200000047683716
 41
0.0
 71
     7
 72
     1
  1
\W0.6875;65
 11
-0.1736481776669301
 21
0.9848077530122081
 31
0.0
 73
     1
 44
1.0
  0
ENDBLK
  5
267
330
265
100
AcDbEntity
  8
0
100
AcDbBlockEnd
  0
BLOCK
  5
273
330
272
100
AcDbEntity
  8
0
100
AcDbBlockBegin
  2
*D18
 70
     1
 10
0.0
 20
0.0
 30
0.0
  3
*D18
  1

  0
LINE
  5
275
330
272
100
AcDbEntity
  8
0
 62
     0
370
    -2
100
AcDbLine
 10
-59.39022827148438
 20
127.1708135986328
 30
0.0
 11
-59.39022827148438
 21
133.6308135986328
 31
0.0
  0
LINE
  5
276
330
272
100
AcDbEntity
  8
0
 62
     0
370
    -2
100
AcDbLine
 10
-38.14023208618164
 20
115.4208135986328
 30
0.0
 11
-38.14023208618164
 21
133.6308135986328
 31
0.0
  0
LINE
  5
277
330
272
100
AcDbEntity
  8
0
 62
     0
370
    -2
100
AcDbLine
 10
-56.39022827148438
 20
132.1308135986328
 30
0.0
 11
-41.14023208618164
 21
132.1308135986328
 31
0.0
  0
INSERT
  5
278
330
272
100
AcDbEntity
  8
0
 62
     0
370
    -2
100
AcDbBlockReference
  2
_OPEN30
 10
-59.39022827148438
 20
132.1308135986328
 30
0.0
 41
3.0
 42
3.0
 43
3.0
 50
180.0
  0
INSERT
  5
279
330
272
100
AcDbEntity
  8
0
 62
     0
370
    -2
100
AcDbBlockReference
  2
_OPEN30
 10
-38.14023208618164
 20
132.1308135986328
 30
0.0
 41
3.0
 42
3.0
 43
3.0
  0
MTEXT
  5
27A
330
272
100
AcDbEntity
  8
0
 62
     1
 60
     1
100
AcDbMText
 10
-48.76423208618164
 20
134.5452136346102
 30
0.0
 40
3.200000047683716
 41
0.0
 71
     5
 72
     1
  1
85
 73
     1
 44
1.0
  0
POINT
  5
27B
330
272
100
AcDbEntity
  8
Defpoints
 62
     0
100
AcDbPoint
 10
-59.39022827148438
 20
124.6308135986328
 30
0.0
  0
POINT
  5
27C
330
272
100
AcDbEntity
  8
Defpoints
 62
     0
100
AcDbPoint
 10
-38.14023208618164
 20
112.8808135986328
 30
0.0
  0
POINT
  5
27D
330
272
100
AcDbEntity
  8
Defpoints
 62
     0
100
AcDbPoint
 10
-38.14023208618164
 20
132.1308135986328
 30
0.0
  0
MTEXT
  5
27E
330
272
100
AcDbEntity
  8
0
 62
     1
100
AcDbMText
 10
-46.76523208618164
 20
131.3308135867119
 30
0.0
 40
3.200000047683716
 41
0.0
 71
     7
 72
     1
  1
\W0.6875;85
 11
-1.0
 21
-1.224646799147353E-16
 31
0.0
 73
     1
 44
1.0
  0
ENDBLK
  5
274
330
272
100
AcDbEntity
  8
0
100
AcDbBlockEnd
  0
BLOCK
  5
281
330
280
100
AcDbEntity
  8
0
100
AcDbBlockBegin
  2
*D19
 70
     1
 10
0.0
 20
0.0
 30
0.0
  3
*D19
  1

  0
MTEXT
  5
289
330
280
100
AcDbEntity
  8
0
 62
     1
 60
     1
100
AcDbMText
 10
-36.26423208618164
 20
134.5452136346102
 30
0.0
 40
3.200000047683716
 41
0.0
 71
     5
 72
     1
  1
15
 73
     1
 44
1.0
  0
POINT
  5
28A
330
280
100
AcDbEntity
  8
Defpoints
 62
     0
100
AcDbPoint
 10
-38.14023208618164
 20
112.8808135986328
 30
0.0
  0
POINT
  5
28B
330
280
100
AcDbEntity
  8
Defpoints
 62
     0
100
AcDbPoint
 10
-34.39023208618164
 20
112.8808135986328
 30
0.0
  0
POINT
  5
28C
330
280
100
AcDbEntity
  8
Defpoints
 62
     0
100
AcDbPoint
 10
-34.39023208618164
 20
132.1308135986328
 30
0.0
  0
MTEXT
  5
28D
330
280
100
AcDbEntity
  8
0
 62
     1
100
AcDbMText
 10
-34.26523208618164
 20
131.3308135867119
 30
0.0
 40
3.200000047683716
 41
0.0
 71
     7
 72
     1
  1
\W0.6875;15
 11
-1.0
 21
-1.224646799147353E-16
 31
0.0
 73
     1
 44
1.0
  0
LINE
  5
28E
330
280
100
AcDbEntity
  8
0
  6
Continuous
 62
     7
100
AcDbLine
 10
-34.39023208618164
 20
115.4208135986328
 30
0.0
 11
-34.39023208618164
 21
133.6308135986328
 31
0.0
  0
LINE
  5
28F
330
280
100
AcDbEntity
  8
0
  6
Continuous
 62
     7
100
AcDbLine
 10
-44.49023208618164
 20
132.1308135986328
 30
0.0
 11
-28.04023208618164
 21
132.1308135986328
 31
0.0
  0
LINE
  5
290
330
280
100
AcDbEntity
  8
0
  6
Continuous
 62
     7
100
AcDbLine
 10
-38.14023208618164
 20
132.1308135986328
 30
0.0
 11
-41.19475774818726
 21
131.3123559143328
 31
0.0
  0
LINE
  5
291
330
280
100
AcDbEntity
  8
0
  6
Continuous
 62
     7
100
AcDbLine
 10
-38.14023208618164
 20
132.1308135986328
 30
0.0
 11
-41.19475774818726
 21
132.9492712829328
 31
0.0
  0
LINE
  5
292
330
280
100
AcDbEntity
  8
0
  6
Continuous
 62
     7
100
AcDbLine
 10
-34.39023208618164
 20
132.1308135986328
 30
0.0
 11
-31.33570642417602
 21
132.9492712829328
 31
0.0
  0
LINE
  5
293
330
280
100
AcDbEntity
  8
0
  6
Continuous
 62
     7
100
AcDbLine
 10
-34.39023208618164
 20
132.1308135986328
 30
0.0
 11
-31.33570642417602
 21
131.3123559143328
 31
0.0
  0
ENDBLK
  5
282
330
280
100
AcDbEntity
  8
0
100
AcDbBlockEnd
  0
BLOCK
  5
296
330
295
100
AcDbEntity
  8
0
100
AcDbBlockBegin
  2
*D20
 70
     1
 10
0.0
 20
0.0
 30
0.0
  3
*D20
  1

  0
LINE
  5
298
330
295
100
AcDbEntity
  8
0
 62
     0
370
    -2
100
AcDbLine
 10
-31.39023208618164
 20
132.1308135986328
 30
0.0
 11
-8.390230178833008
 21
132.1308135986328
 31
0.0
  0
INSERT
  5
299
330
295
100
AcDbEntity
  8
0
 62
     0
370
    -2
100
AcDbBlockReference
  2
_OPEN30
 10
-34.39023208618164
 20
132.1308135986328
 30
0.0
 41
3.0
 42
3.0
 43
3.0
 50
180.0
  0
INSERT
  5
29A
330
295
100
AcDbEntity
  8
0
 62
     0
370
    -2
100
AcDbBlockReference
  2
_OPEN30
 10
-5.390230178833008
 20
132.1308135986328
 30
0.0
 41
3.0
 42
3.0
 43
3.0
  0
MTEXT
  5
29B
330
295
100
AcDbEntity
  8
0
 62
     1
 60
     1
100
AcDbMText
 10
-19.88923208618164
 20
134.5452136346102
 30
0.0
 40
3.200000047683716
 41
0.0
 71
     5
 72
     1
  1
116
 73
     1
 44
1.0
  0
POINT
  5
29C
330
295
100
AcDbEntity
  8
Defpoints
 62
     0
100
AcDbPoint
 10
-34.39023208618164
 20
112.8808135986328
 30
0.0
  0
POINT
  5
29D
330
295
100
AcDbEntity
  8
Defpoints
 62
     0
100
AcDbPoint
 10
-5.390230178833008
 20
108.2558212280273
 30
0.0
  0
POINT
  5
29E
330
295
100
AcDbEntity
  8
Defpoints
 62
     0
100
AcDbPoint
 10
-5.390230178833005
 20
132.1308135986328
 30
0.0
  0
MTEXT
  5
29F
330
295
100
AcDbEntity
  8
0
 62
     1
100
AcDbMText
 10
-16.79023206233978
 20
131.3308135867119
 30
0.0
 40
3.200000047683716
 41
0.0
 71
     7
 72
     1
  1
\W0.6875;116
 11
-1.0
 21
-1.224646799147353E-16
 31
0.0
 73
     1
 44
1.0
  0
ENDBLK
  5
297
330
295
100
AcDbEntity
  8
0
100
AcDbBlockEnd
  0
BLOCK
  5
2A2
330
2A1
100
AcDbEntity
  8
0
100
AcDbBlockBegin
  2
*D21
 70
     1
 10
0.0
 20
0.0
 30
0.0
  3
*D21
  1

  0
MTEXT
  5
2AB
330
2A1
100
AcDbEntity
  8
0
 62
     1
 60
     1
100
AcDbMText
 10
-3.513230178833008
 20
134.5452136346102
 30
0.0
 40
3.200000047683716
 41
0.0
 71
     5
 72
     1
  1
15
 73
     1
 44
1.0
  0
POINT
  5
2AC
330
2A1
100
AcDbEntity
  8
Defpoints
 62
     0
100
AcDbPoint
 10
-1.640230178833008
 20
108.2558288574219
 30
0.0
  0
POINT
  5
2AD
330
2A1
100
AcDbEntity
  8
Defpoints
 62
     0
100
AcDbPoint
 10
-5.390230178833008
 20
108.2558212280273
 30
0.0
  0
POINT
  5
2AE
330
2A1
100
AcDbEntity
  8
Defpoints
 62
     0
100
AcDbPoint
 10
-5.390230178833008
 20
132.1308135986328
 30
0.0
  0
MTEXT
  5
2AF
330
2A1
100
AcDbEntity
  8
0
 62
     1
100
AcDbMText
 10
-1.515230178833008
 20
131.3308135867119
 30
0.0
 40
3.200000047683716
 41
0.0
 71
     7
 72
     1
  1
\W0.6875;15
 11
-1.0
 21
-1.224646799147353E-16
 31
0.0
 73
     1
 44
1.0
  0
LINE
  5
2B0
330
2A1
100
AcDbEntity
  8
0
  6
Continuous
 62
     7
100
AcDbLine
 10
-1.640230178833008
 20
110.7958288574219
 30
0.0
 11
-1.640230178833008
 21
133.6308135986328
 31
0.0
  0
LINE
  5
2B1
330
2A1
100
AcDbEntity
  8
0
  6
Continuous
 62
     7
100
AcDbLine
 10
-5.390230178833008
 20
110.7958212280274
 30
0.0
 11
-5.390230178833008
 21
133.6308135986328
 31
0.0
  0
LINE
  5
2B2
330
2A1
100
AcDbEntity
  8
0
  6
Continuous
 62
     7
100
AcDbLine
 10
4.709769821166992
 20
132.1308135986328
 30
0.0
 11
-11.74023017883301
 21
132.1308135986328
 31
0.0
  0
LINE
  5
2B3
330
2A1
100
AcDbEntity
  8
0
  6
Continuous
 62
     7
100
AcDbLine
 10
-1.640230178833008
 20
132.1308135986328
 30
0.0
 11
1.414295483172616
 21
132.9492712829328
 31
0.0
  0
LINE
  5
2B4
330
2A1
100
AcDbEntity
  8
0
  6
Continuous
 62
     7
100
AcDbLine
 10
-1.640230178833008
 20
132.1308135986328
 30
0.0
 11
1.414295483172616
 21
131.3123559143328
 31
0.0
  0
LINE
  5
2B5
330
2A1
100
AcDbEntity
  8
0
  6
Continuous
 62
     7
100
AcDbLine
 10
-5.390230178833008
 20
132.1308135986328
 30
0.0
 11
-8.444755840838631
 21
131.3123559143328
 31
0.0
  0
LINE
  5
2B6
330
2A1
100
AcDbEntity
  8
0
  6
Continuous
 62
     7
100
AcDbLine
 10
-5.390230178833008
 20
132.1308135986328
 30
0.0
 11
-8.444755840838631
 21
132.9492712829328
 31
0.0
  0
ENDBLK
  5
2A3
330
2A1
100
AcDbEntity
  8
0
100
AcDbBlockEnd
  0
BLOCK
  5
2B9
330
2B8
100
AcDbEntity
  8
0
100
AcDbBlockBegin
  2
*D22
 70
     1
 10
0.0
 20
0.0
 30
0.0
  3
*D22
  1

  0
LINE
  5
2BB
330
2B8
100
AcDbEntity
  8
0
 62
     0
370
    -2
100
AcDbLine
 10
20.35976219177246
 20
95.54582885742188
 30
0.0
 11
20.35976219177247
 21
133.6308135986328
 31
0.0
  0
LINE
  5
2BC
330
2B8
100
AcDbEntity
  8
0
 62
     0
370
    -2
100
AcDbLine
 10
1.359769821166996
 20
132.1308135986328
 30
0.0
 11
17.35976219177247
 21
132.1308135986328
 31
0.0
  0
INSERT
  5
2BD
330
2B8
100
AcDbEntity
  8
0
 62
     0
370
    -2
100
AcDbBlockReference
  2
_OPEN30
 10
-1.640230178833004
 20
132.1308135986328
 30
0.0
 41
3.0
 42
3.0
 43
3.0
 50
180.0
  0
INSERT
  5
2BE
330
2B8
100
AcDbEntity
  8
0
 62
     0
370
    -2
100
AcDbBlockReference
  2
_OPEN30
 10
20.35976219177247
 20
132.1308135986328
 30
0.0
 41
3.0
 42
3.0
 43
3.0
  0
MTEXT
  5
2BF
330
2B8
100
AcDbEntity
  8
0
 62
     1
 60
     1
100
AcDbMText
 10
9.360766006469726
 20
134.5452136346102
 30
0.0
 40
3.200000047683716
 41
0.0
 71
     5
 72
     1
  1
88
 73
     1
 44
1.0
  0
POINT
  5
2C0
330
2B8
100
AcDbEntity
  8
Defpoints
 62
     0
100
AcDbPoint
 10
-1.640230178833008
 20
108.2558288574219
 30
0.0
  0
POINT
  5
2C1
330
2B8
100
AcDbEntity
  8
Defpoints
 62
     0
100
AcDbPoint
 10
20.35976219177246
 20
93.00582885742188
 30
0.0
  0
POINT
  5
2C2
330
2B8
100
AcDbEntity
  8
Defpoints
 62
     0
100
AcDbPoint
 10
20.35976219177247
 20
132.1308135986328
 30
0.0
  0
MTEXT
  5
2C3
330
2B8
100
AcDbEntity
  8
0
 62
     1
100
AcDbMText
 10
11.35976600646973
 20
131.3308135867119
 30
0.0
 40
3.200000047683716
 41
0.0
 71
     7
 72
     1
  1
\W0.6875;88
 11
-1.0
 21
-1.224646799147353E-16
 31
0.0
 73
     1
 44
1.0
  0
ENDBLK
  5
2BA
330
2B8
100
AcDbEntity
  8
0
100
AcDbBlockEnd
  0
BLOCK
  5
2C6
330
2C5
100
AcDbEntity
  8
0
100
AcDbBlockBegin
  2
*D23
 70
     1
 10
0.0
 20
0.0
 30
0.0
  3
*D23
  1

  0
POINT
  5
2CE
330
2C5
100
AcDbEntity
  8
Defpoints
 62
     0
100
AcDbPoint
 10
-34.39023169475377
 20
74.13081593856329
 30
0.0
  0
POINT
  5
2CF
330
2C5
100
AcDbEntity
  8
Defpoints
 62
     0
100
AcDbPoint
 10
-34.39023279714263
 20
111.8808155534933
 30
0.0
  0
POINT
  5
2D0
330
2C5
100
AcDbEntity
  8
Defpoints
 62
     0
100
AcDbPoint
 10
-18.48937606811523
 20
117.6682541021907
 30
0.0
  0
LINE
  5
2D1
330
2C5
100
AcDbEntity
  8
0
  6
Continuous
 62
     7
100
AcDbLine
 10
-32.00341244795542
 20
74.99954713007939
 30
0.0
 11
-16.98937560433335
 21
80.46420983301445
 31
0.0
  0
LINE
  5
2D2
330
2C5
100
AcDbEntity
  8
0
  6
Continuous
 62
     7
100
AcDbLine
 10
-32.00341355034429
 20
112.7495467450094
 30
0.0
 11
-16.98937670672222
 21
118.2142094479445
 31
0.0
  0
LINE
  5
2D3
330
2C5
100
AcDbEntity
  8
0
  6
Continuous
 62
     7
100
AcDbLine
 10
-18.48937606811523
 20
79.91825103759766
 30
0.0
 11
-18.48937606811523
 21
117.6682586669922
 31
0.0
  0
LINE
  5
2D4
330
2C5
100
AcDbEntity
  8
0
  6
Continuous
 62
     7
100
AcDbLine
 10
-18.48937606811523
 20
79.91825103759766
 30
0.0
 11
-19.30783375241523
 21
82.97277669960329
 31
0.0
  0
LINE
  5
2D5
330
2C5
100
AcDbEntity
  8
0
  6
Continuous
 62
     7
100
AcDbLine
 10
-18.48937606811523
 20
79.91825103759766
 30
0.0
 11
-17.67091838381523
 21
82.97277669960329
 31
0.0
  0
LINE
  5
2D6
330
2C5
100
AcDbEntity
  8
0
  6
Continuous
 62
     7
100
AcDbLine
 10
-18.48937606811523
 20
117.6682586669922
 30
0.0
 11
-17.67091838381523
 21
114.6137330049866
 31
0.0
  0
LINE
  5
2D7
330
2C5
100
AcDbEntity
  8
0
  6
Continuous
 62
     7
100
AcDbLine
 10
-18.48937606811523
 20
117.6682586669922
 30
0.0
 11
-19.30783375241523
 21
114.6137330049866
 31
0.0
  0
MTEXT
  5
2D8
330
2C5
100
AcDbEntity
  8
0
 62
     1
100
AcDbMText
 10
-19.28937608003617
 20
103.4411224126816
 30
0.0
 40
3.200000047683716
 41
0.0
 71
     7
 72
     1
  1
\W0.6875;151
 11
6.123233995736766E-17
 21
1.0
 31
0.0
 73
     1
 44
1.0
  0
ENDBLK
  5
2C7
330
2C5
100
AcDbEntity
  8
0
100
AcDbBlockEnd
  0
BLOCK
  5
2DB
330
2DA
100
AcDbEntity
  8
0
100
AcDbBlockBegin
  2
*D24
 70
     1
 10
0.0
 20
0.0
 30
0.0
  3
*D24
  1

  0
POINT
  5
2E4
330
2DA
100
AcDbEntity
  8
Defpoints
 62
     0
100
AcDbPoint
 10
-34.39023171799903
 20
-86.86568558876473
 30
0.0
  0
POINT
  5
2E5
330
2DA
100
AcDbEntity
  8
Defpoints
 62
     0
100
AcDbPoint
 10
-34.39022573738265
 20
-45.61568434872218
 30
0.0
  0
POINT
  5
2E6
330
2DA
100
AcDbEntity
  8
Defpoints
 62
     0
100
AcDbPoint
 10
-31.25350189208984
 20
-44.47401023592258
 30
0.0
  0
LINE
  5
2E7
330
2DA
100
AcDbEntity
  8
0
  6
Continuous
 62
     7
100
AcDbLine
 10
-32.00341247120069
 20
-85.99695439724863
 30
0.0
 11
-29.75350335301678
 21
-85.17805441910212
 31
0.0
  0
LINE
  5
2E8
330
2DA
100
AcDbEntity
  8
0
  6
Continuous
 62
     7
100
AcDbLine
 10
-32.0034064905843
 20
-44.74695315720609
 30
0.0
 11
-29.75350095704326
 21
-43.92805448376292
 31
0.0
  0
LINE
  5
2E9
330
2DA
100
AcDbEntity
  8
0
  6
Continuous
 62
     7
100
AcDbLine
 10
-31.25350189208984
 20
-85.72400665283203
 30
0.0
 11
-31.25350189208984
 21
-44.47400665283203
 31
0.0
  0
LINE
  5
2EA
330
2DA
100
AcDbEntity
  8
0
  6
Continuous
 62
     7
100
AcDbLine
 10
-31.25350189208984
 20
-85.72400665283203
 30
0.0
 11
-32.07195957638984
 21
-82.6694809908264
 31
0.0
  0
LINE
  5
2EB
330
2DA
100
AcDbEntity
  8
0
  6
Continuous
 62
     7
100
AcDbLine
 10
-31.25350189208984
 20
-85.72400665283203
 30
0.0
 11
-30.43504420778984
 21
-82.6694809908264
 31
0.0
  0
LINE
  5
2EC
330
2DA
100
AcDbEntity
  8
0
  6
Continuous
 62
     7
100
AcDbLine
 10
-31.25350189208984
 20
-44.47400665283203
 30
0.0
 11
-30.43504420778984
 21
-47.52853231483765
 31
0.0
  0
LINE
  5
2ED
330
2DA
100
AcDbEntity
  8
0
  6
Continuous
 62
     7
100
AcDbLine
 10
-31.25350189208984
 20
-44.47400665283203
 30
0.0
 11
-32.07195957638984
 21
-47.52853231483765
 31
0.0
  0
LINE
  5
2EE
330
2DA
100
AcDbEntity
  8
0
  6
Continuous
 62
     7
100
AcDbLine
 10
-31.25350189208984
 20
-44.47400665283203
 30
0.0
 11
-31.25350189208984
 21
-33.83091735839844
 31
0.0
  0
MTEXT
  5
2EF
330
2DA
100
AcDbEntity
  8
0
 62
     1
100
AcDbMText
 10
-32.05350190401077
 20
-40.03091585636139
 30
0.0
 40
3.200000047683716
 41
0.0
 71
     7
 72
     1
  1
\W0.6875;165
 11
6.123233995736766E-17
 21
1.0
 31
0.0
 73
     1
 44
1.0
  0
ENDBLK
  5
2DC
330
2DA
100
AcDbEntity
  8
0
100
AcDbBlockEnd
  0
BLOCK
  5
2F2
330
2F1
100
AcDbEntity
  8
0
100
AcDbBlockBegin
  2
*D25
 70
     1
 10
0.0
 20
0.0
 30
0.0
  3
*D25
  1

  0
LINE
  5
2F4
330
2F1
100
AcDbEntity
  8
0
 62
     0
370
    -2
100
AcDbLine
 10
-2.850230178833008
 20
-82.86568450927734
 30
0.0
 11
19.32901763916015
 21
-82.86568450927734
 31
0.0
  0
LINE
  5
2F5
330
2F1
100
AcDbEntity
  8
0
 62
     0
370
    -2
100
AcDbLine
 10
-2.850230178833008
 20
-49.61568450927734
 30
0.0
 11
19.32901763916016
 21
-49.61568450927734
 31
0.0
  0
LINE
  5
2F6
330
2F1
100
AcDbEntity
  8
0
 62
     0
370
    -2
100
AcDbLine
 10
17.82901763916015
 20
-79.86568450927734
 30
0.0
 11
17.82901763916016
 21
-52.61568450927734
 31
0.0
  0
INSERT
  5
2F7
330
2F1
100
AcDbEntity
  8
0
 62
     0
370
    -2
100
AcDbBlockReference
  2
_OPEN30
 10
17.82901763916015
 20
-82.86568450927734
 30
0.0
 41
3.0
 42
3.0
 43
3.0
 50
270.0
  0
INSERT
  5
2F8
330
2F1
100
AcDbEntity
  8
0
 62
     0
370
    -2
100
AcDbBlockReference
  2
_OPEN30
 10
17.82901763916016
 20
-49.61568450927734
 30
0.0
 41
3.0
 42
3.0
 43
3.0
 50
89.99999999999999
  0
MTEXT
  5
2F9
330
2F1
100
AcDbEntity
  8
0
 62
     1
100
AcDbMText
 10
15.41461760318279
 20
-61.19850103759766
 30
0.0
 40
3.200000047683716
 41
0.0
 71
     5
 72
     1
  1
133
 11
2.136970633864963E-16
 21
1.0
 31
0.0
 73
     1
 44
1.0
  0
POINT
  5
2FA
330
2F1
100
AcDbEntity
  8
Defpoints
 62
     0
100
AcDbPoint
 10
-5.390230178833008
 20
-82.86568450927734
 30
0.0
  0
POINT
  5
2FB
330
2F1
100
AcDbEntity
  8
Defpoints
 62
     0
100
AcDbPoint
 10
-5.390230178833008
 20
-49.61568450927734
 30
0.0
  0
POINT
  5
2FC
330
2F1
100
AcDbEntity
  8
Defpoints
 62
     0
100
AcDbPoint
 10
17.82901763916016
 20
-49.61568450927734
 30
0.0
  0
ENDBLK
  5
2F3
330
2F1
100
AcDbEntity
  8
0
100
AcDbBlockEnd
  0
BLOCK
  5
2FF
330
2FE
100
AcDbEntity
  8
0
100
AcDbBlockBegin
  2
*D26
 70
     1
 10
0.0
 20
0.0
 30
0.0
  3
*D26
  1

  0
LINE
  5
301
330
2FE
100
AcDbEntity
  8
0
 62
     0
370
    -2
100
AcDbLine
 10
35.05064300537109
 20
-78.74068450927734
 30
0.0
 11
43.26064300537109
 21
-78.74068450927734
 31
0.0
  0
LINE
  5
302
330
2FE
100
AcDbEntity
  8
0
 62
     0
370
    -2
100
AcDbLine
 10
35.05064300537109
 20
-53.74068450927734
 30
0.0
 11
43.26064300537109
 21
-53.74068450927734
 31
0.0
  0
LINE
  5
303
330
2FE
100
AcDbEntity
  8
0
 62
     0
370
    -2
100
AcDbLine
 10
41.76064300537109
 20
-75.74068450927734
 30
0.0
 11
41.76064300537109
 21
-56.74068450927734
 31
0.0
  0
INSERT
  5
304
330
2FE
100
AcDbEntity
  8
0
 62
     0
370
    -2
100
AcDbBlockReference
  2
_OPEN30
 10
41.76064300537109
 20
-78.74068450927734
 30
0.0
 41
3.0
 42
3.0
 43
3.0
 50
270.0
  0
INSERT
  5
305
330
2FE
100
AcDbEntity
  8
0
 62
     0
370
    -2
100
AcDbBlockReference
  2
_OPEN30
 10
41.76064300537109
 20
-53.74068450927734
 30
0.0
 41
3.0
 42
3.0
 43
3.0
 50
89.99999999999999
  0
MTEXT
  5
306
330
2FE
100
AcDbEntity
  8
0
 62
     1
100
AcDbMText
 10
39.34624296939373
 20
-66.23968450927734
 30
0.0
 40
3.200000047683716
 41
0.0
 71
     5
 72
     1
  1
100
 11
2.842170943040401E-16
 21
1.0
 31
0.0
 73
     1
 44
1.0
  0
POINT
  5
307
330
2FE
100
AcDbEntity
  8
Defpoints
 62
     0
100
AcDbPoint
 10
32.51064300537109
 20
-78.74068450927734
 30
0.0
  0
POINT
  5
308
330
2FE
100
AcDbEntity
  8
Defpoints
 62
     0
100
AcDbPoint
 10
32.51064300537109
 20
-53.74068450927734
 30
0.0
  0
POINT
  5
309
330
2FE
100
AcDbEntity
  8
Defpoints
 62
     0
100
AcDbPoint
 10
41.76064300537109
 20
-53.74068450927734
 30
0.0
  0
ENDBLK
  5
300
330
2FE
100
AcDbEntity
  8
0
100
AcDbBlockEnd
  0
BLOCK
  5
30C
330
30B
100
AcDbEntity
  8
0
100
AcDbBlockBegin
  2
_NONE
 70
     0
 10
0.0
 20
0.0
 30
0.0
  3
_NONE
  1

  0
ENDBLK
  5
30D
330
30B
100
AcDbEntity
  8
0
100
AcDbBlockEnd
  0
BLOCK
  5
30F
330
30E
100
AcDbEntity
  8
0
100
AcDbBlockBegin
  2
*D28
 70
     1
 10
0.0
 20
0.0
 30
0.0
  3
*D28
  1

  0
POINT
  5
314
330
30E
100
AcDbEntity
  8
Defpoints
 62
     0
100
AcDbPoint
 10
-21.40758633484518
 20
86.3173694104583
 30
0.0
  0
POINT
  5
315
330
30E
100
AcDbEntity
  8
Defpoints
 62
     0
100
AcDbPoint
 10
-35.39023713732483
 20
93.00582786782462
 30
0.0
  0
LINE
  5
316
330
30E
100
AcDbEntity
  8
0
  6
Continuous
 62
     7
100
AcDbLine
 10
-35.39023713732483
 20
93.00582786782462
 30
0.0
 11
-21.40758633484518
 21
86.3173694104583
 31
0.0
  0
LINE
  5
317
330
30E
100
AcDbEntity
  8
0
  6
Continuous
 62
     7
100
AcDbLine
 10
-21.40758633484518
 20
86.3173694104583
 30
0.0
 11
-24.5162692973994
 21
86.89710231375577
 31
0.0
  0
LINE
  5
318
330
30E
100
AcDbEntity
  8
0
  6
Continuous
 62
     7
100
AcDbLine
 10
-21.40758633484518
 20
86.3173694104583
 30
0.0
 11
-23.80991830119904
 21
88.37377431326198
 31
0.0
  0
MTEXT
  5
319
330
30E
100
AcDbEntity
  8
0
 62
     1
100
AcDbMText
 10
-25.94889445859891
 20
87.60066634210376
 30
0.0
 40
3.200000047683716
 41
0.0
 71
     7
 72
     1
  1
\W0.6875;R62
 11
-0.9018325264051137
 21
0.4320857488019826
 31
0.0
 73
     1
 44
1.0
  0
ENDBLK
  5
310
330
30E
100
AcDbEntity
  8
0
100
AcDbBlockEnd
  0
BLOCK
  5
31C
330
31B
100
AcDbEntity
  8
0
100
AcDbBlockBegin
  2
*D29
 70
     1
 10
0.0
 20
0.0
 30
0.0
  3
*D29
  1

  0
LINE
  5
31E
330
31B
100
AcDbEntity
  8
0
 62
     0
370
    -2
100
AcDbLine
 10
-34.39023208618164
 20
70.59082885742187
 30
0.0
 11
-34.39023208618164
 21
59.80843408203125
 31
0.0
  0
LINE
  5
31F
330
31B
100
AcDbEntity
  8
0
 62
     0
370
    -2
100
AcDbLine
 10
-19.89023208618164
 20
90.46582885742187
 30
0.0
 11
-19.89023208618164
 21
59.80843408203125
 31
0.0
  0
LINE
  5
320
330
31B
100
AcDbEntity
  8
0
 62
     0
370
    -2
100
AcDbLine
 10
-31.39023208618164
 20
61.30843789672851
 30
0.0
 11
-22.89023208618164
 21
61.30843789672851
 31
0.0
  0
INSERT
  5
321
330
31B
100
AcDbEntity
  8
0
 62
     0
370
    -2
100
AcDbBlockReference
  2
_OPEN30
 10
-34.39023208618164
 20
61.30843789672851
 30
0.0
 41
3.0
 42
3.0
 43
3.0
 50
180.0
  0
INSERT
  5
322
330
31B
100
AcDbEntity
  8
0
 62
     0
370
    -2
100
AcDbBlockReference
  2
_OPEN30
 10
-19.89023208618164
 20
61.30843789672851
 30
0.0
 41
3.0
 42
3.0
 43
3.0
  0
MTEXT
  5
323
330
31B
100
AcDbEntity
  8
0
 62
     1
 60
     1
100
AcDbMText
 10
-27.13923208618164
 20
63.72283793270588
 30
0.0
 40
3.200000047683716
 41
0.0
 71
     5
 72
     1
  1
58
 73
     1
 44
1.0
  0
POINT
  5
324
330
31B
100
AcDbEntity
  8
Defpoints
 62
     0
100
AcDbPoint
 10
-34.39023208618164
 20
73.13082885742188
 30
0.0
  0
POINT
  5
325
330
31B
100
AcDbEntity
  8
Defpoints
 62
     0
100
AcDbPoint
 10
-19.89023208618164
 20
93.00582885742188
 30
0.0
  0
POINT
  5
326
330
31B
100
AcDbEntity
  8
Defpoints
 62
     0
100
AcDbPoint
 10
-19.89023208618164
 20
61.30744171142578
 30
0.0
  0
MTEXT
  5
327
330
31B
100
AcDbEntity
  8
0
 62
     1
100
AcDbMText
 10
-25.14023208618164
 20
60.50743788480759
 30
0.0
 40
3.200000047683716
 41
0.0
 71
     7
 72
     1
  1
\W0.6875;58
 11
-1.0
 21
-1.224646799147353E-16
 31
0.0
 73
     1
 44
1.0
  0
ENDBLK
  5
31D
330
31B
100
AcDbEntity
  8
0
100
AcDbBlockEnd
  0
BLOCK
  5
32A
330
329
100
AcDbEntity
  8
0
100
AcDbBlockBegin
  2
*D30
 70
     1
 10
0.0
 20
0.0
 30
0.0
  3
*D30
  1

  0
LINE
  5
32C
330
329
100
AcDbEntity
  8
0
 62
     0
370
    -2
100
AcDbLine
 10
-36.18023208618164
 20
75.88082885742188
 30
0.0
 11
-63.46126501464844
 21
75.88082885742189
 31
0.0
  0
LINE
  5
32D
330
329
100
AcDbEntity
  8
0
 62
     0
370
    -2
100
AcDbLine
 10
-36.18023208618164
 20
110.1308364868164
 30
0.0
 11
-63.46126501464843
 21
110.1308364868164
 31
0.0
  0
LINE
  5
32E
330
329
100
AcDbEntity
  8
0
 62
     0
370
    -2
100
AcDbLine
 10
-61.96126501464844
 20
78.88082885742189
 30
0.0
 11
-61.96126501464843
 21
107.1308364868164
 31
0.0
  0
INSERT
  5
32F
330
329
100
AcDbEntity
  8
0
 62
     0
370
    -2
100
AcDbBlockReference
  2
_OPEN30
 10
-61.96126501464844
 20
75.88082885742189
 30
0.0
 41
3.0
 42
3.0
 43
3.0
 50
270.0
  0
INSERT
  5
330
330
329
100
AcDbEntity
  8
0
 62
     0
370
    -2
100
AcDbBlockReference
  2
_OPEN30
 10
-61.96126501464843
 20
110.1308364868164
 30
0.0
 41
3.0
 42
3.0
 43
3.0
 50
89.99999999999999
  0
MTEXT
  5
331
330
329
100
AcDbEntity
  8
0
 62
     1
100
AcDbMText
 10
-64.3756650506258
 20
87.84729821777344
 30
0.0
 40
3.200000047683716
 41
0.0
 71
     5
 72
     1
  1
137
 11
2.074576868561886E-16
 21
1.0
 31
0.0
 73
     1
 44
1.0
  0
POINT
  5
332
330
329
100
AcDbEntity
  8
Defpoints
 62
     0
100
AcDbPoint
 10
-33.64023208618164
 20
75.88082885742188
 30
0.0
  0
POINT
  5
333
330
329
100
AcDbEntity
  8
Defpoints
 62
     0
100
AcDbPoint
 10
-33.64023208618164
 20
110.1308364868164
 30
0.0
  0
POINT
  5
334
330
329
100
AcDbEntity
  8
Defpoints
 62
     0
100
AcDbPoint
 10
-61.96226501464844
 20
110.1308364868164
 30
0.0
  0
ENDBLK
  5
32B
330
329
100
AcDbEntity
  8
0
100
AcDbBlockEnd
  0
BLOCK
  5
337
330
336
100
AcDbEntity
  8
0
100
AcDbBlockBegin
  2
*D31
 70
     1
 10
0.0
 20
0.0
 30
0.0
  3
*D31
  1

  0
LINE
  5
339
330
336
100
AcDbEntity
  8
0
 62
     0
370
    -2
100
AcDbLine
 10
24.01048950195312
 20
93.00582885742188
 30
0.0
 11
79.36267341451212
 21
93.0058288574218
 31
0.0
  0
LINE
  5
33A
330
336
100
AcDbEntity
  8
0
 62
     0
370
    -2
100
AcDbLine
 10
77.07667341451207
 20
-104.4186325073242
 30
0.0
 11
77.07667341451211
 21
90.0058288574218
 31
0.0
  0
INSERT
  5
33B
330
336
100
AcDbEntity
  8
0
 62
     0
370
    -2
100
AcDbBlockReference
  2
_OPEN30
 10
77.07667341451207
 20
-107.4186325073242
 30
0.0
 41
3.0
 42
3.0
 43
3.0
 50
270.0
  0
INSERT
  5
33C
330
336
100
AcDbEntity
  8
0
 62
     0
370
    -2
100
AcDbBlockReference
  2
_OPEN30
 10
77.07667341451211
 20
93.0058288574218
 30
0.0
 41
3.0
 42
3.0
 43
3.0
 50
89.99999999999999
  0
MTEXT
  5
33D
330
336
100
AcDbEntity
  8
0
 62
     1
100
AcDbMText
 10
73.8430733663277
 20
-7.205401824951171
 30
0.0
 40
3.200000047683716
 41
0.0
 71
     5
 72
     1
  1
(802)
 11
2.127113819107158E-16
 21
1.0
 31
0.0
 73
     1
 44
1.0
  0
POINT
  5
33E
330
336
100
AcDbEntity
  8
Defpoints
 62
     0
100
AcDbPoint
 10
66.19621276855469
 20
-107.4186325073242
 30
0.0
  0
POINT
  5
33F
330
336
100
AcDbEntity
  8
Defpoints
 62
     0
100
AcDbPoint
 10
21.47048950195312
 20
93.00582885742188
 30
0.0
  0
POINT
  5
340
330
336
100
AcDbEntity
  8
Defpoints
 62
     0
100
AcDbPoint
 10
77.0766734145121
 20
93.00582885742186
 30
0.0
  0
ENDBLK
  5
338
330
336
100
AcDbEntity
  8
0
100
AcDbBlockEnd
  0
ENDSEC
  0
SECTION
  2
ENTITIES
  0
LINE
  5
44
330
1F
100
AcDbEntity
  8
0
  6
Continuous
 62
     7
100
AcDbLine
 10
73.49866580024474
 20
-85.98599194280874
 30
0.0
 11
53.80251075716092
 21
-89.4589555934685
 31
0.0
  0
LINE
  5
45
330
1F
100
AcDbEntity
  8
0
  6
CENTER
 62
     7
100
AcDbLine
 10
67.27041866345576
 20
-108.2515514261254
 30
0.0
 11
45.88604456995573
 21
13.02525709010205
 31
0.0
  0
LINE
  5
46
330
1F
100
AcDbEntity
  8
0
  6
Continuous
 62
     7
100
AcDbLine
 10
56.11272897562179
 20
-102.5608537966122
 30
0.0
 11
53.80251075716092
 21
-89.4589555934685
 31
0.0
  0
LINE
  5
47
330
1F
100
AcDbEntity
  8
0
  6
Continuous
 62
     7
100
AcDbLine
 10
75.94875299812853
 20
-99.88112652316246
 30
0.0
 11
73.49866580024474
 21
-85.98599194280874
 31
0.0
  0
LINE
  5
48
330
1F
100
AcDbEntity
  8
0
  6
CENTER
 62
     7
100
AcDbLine
 10
83.97135925292969
 20
-107.4186325073242
 30
0.0
 11
66.19621276855469
 21
-107.4186325073242
 31
0.0
  0
LINE
  5
49
330
1F
100
AcDbEntity
  8
0
  6
Continuous
 62
     7
100
AcDbLine
 10
75.94876098632812
 20
-114.9561309814453
 30
0.0
 11
71.13870239257812
 21
-114.9561309814453
 31
0.0
  0
LINE
  5
4A
330
1F
100
AcDbEntity
  8
0
  6
Continuous
 62
     7
100
AcDbLine
 10
75.94876098632812
 20
-114.9561309814453
 30
0.0
 11
75.94876098632812
 21
-99.88113403320312
 31
0.0
  0
LINE
  5
4B
330
1F
100
AcDbEntity
  8
0
  6
Continuous
 62
     7
100
AcDbLine
 10
83.44876098632812
 20
-114.2621459960938
 30
0.0
 11
83.44876098632812
 21
-100.5751266479492
 31
0.0
  0
LINE
  5
4C
330
1F
100
AcDbEntity
  8
0
  6
Continuous
 62
     7
100
AcDbLine
 10
75.94876057643609
 20
-114.7061237181127
 30
0.0
 11
83.19883750635896
 21
-114.5248718326886
 31
0.0
  0
LINE
  5
4D
330
1F
100
AcDbEntity
  8
0
  6
Continuous
 62
     7
100
AcDbLine
 10
75.94876284482618
 20
-100.1311308757207
 30
0.0
 11
83.19883214740008
 21
-100.3123825839697
 31
0.0
  0
LINE
  5
4E
330
1F
100
AcDbEntity
  8
0
  6
Continuous
 62
     7
100
AcDbLine
 10
83.19883194320772
 20
-114.5248799112597
 30
0.0
 11
83.4487529095676
 21
-114.2621424823155
 31
0.0
  0
LINE
  5
4F
330
1F
100
AcDbEntity
  8
0
  6
Continuous
 62
     7
100
AcDbLine
 10
83.1988444124751
 20
-100.3123917215769
 30
0.0
 11
83.44876012055128
 21
-100.5751236225817
 31
0.0
  0
LINE
  5
50
330
1F
100
AcDbEntity
  8
0
  6
Continuous
 62
     7
100
AcDbLine
 10
56.3665857842557
 20
-102.5608546781636
 30
0.0
 11
54.04871269519947
 21
-89.41554354783526
 31
0.0
  0
LINE
  5
51
330
1F
100
AcDbEntity
  8
0
  6
Continuous
 62
     7
100
AcDbLine
 10
59.29339547108286
 20
-109.5608756987591
 30
0.0
 11
59.48758095586189
 21
-109.4034209512882
 31
0.0
  0
LINE
  5
52
330
1F
100
AcDbEntity
  8
0
  6
Continuous
 62
     7
100
AcDbLine
 10
58.30445049102355
 20
0.184682613939509
 30
0.0
 11
38.60829544793974
 21
-3.288281036720247
 31
0.0
  0
LINE
  5
53
330
1F
100
AcDbEntity
  8
0
  6
Continuous
 62
     7
100
AcDbLine
 10
41.7120328214513
 20
29.4987904480824
 30
0.0
 11
22.01587777836748
 21
26.02582679742264
 31
0.0
  0
LINE
  5
54
330
1F
100
AcDbEntity
  8
0
  6
Continuous
 62
     7
100
AcDbLine
 10
23.80408562309682
 20
15.88439645093542
 30
0.0
 11
22.01587777836748
 21
26.02582679742264
 31
0.0
  0
LINE
  5
55
330
1F
100
AcDbEntity
  8
0
  6
Continuous
 62
     7
100
AcDbLine
 10
25.51372757637967
 20
16.26638346647138
 30
0.0
 11
23.73929134463731
 21
26.32971111685537
 31
0.0
  0
LINE
  5
56
330
1F
100
AcDbEntity
  8
0
  6
Continuous
 62
     7
100
AcDbLine
 10
43.01439419044871
 20
22.11273230692596
 30
0.0
 11
41.7120328214513
 21
29.4987904480824
 31
0.0
  0
LINE
  5
57
330
1F
100
AcDbEntity
  8
0
  6
Continuous
 62
     7
100
AcDbLine
 10
53.80251075716092
 20
-89.4589555934685
 30
0.0
 11
38.60829544793974
 21
-3.288281036720247
 31
0.0
  0
LINE
  5
58
330
1F
100
AcDbEntity
  8
0
  6
Continuous
 62
     7
100
AcDbLine
 10
73.49866580024474
 20
-85.98599194280874
 30
0.0
 11
56.08996382025583
 21
12.74366024677414
 31
0.0
  0
LINE
  5
59
330
1F
100
AcDbEntity
  8
0
  6
Continuous
 62
     7
100
AcDbLine
 10
73.5996445115765
 20
-96.63651871910093
 30
0.0
 11
54.60694668819146
 21
11.07642003992349
 31
0.0
  0
LINE
  5
5A
330
1F
100
AcDbEntity
  8
0
  6
Continuous
 62
     7
100
AcDbLine
 10
57.35031660103235
 20
-99.50171373089523
 30
0.0
 11
40.17302843539219
 21
-2.084474461516231
 31
0.0
  0
LINE
  5
5B
330
1F
100
AcDbEntity
  8
0
  6
Continuous
 62
     7
100
AcDbLine
 10
34.26063206016416
 20
78.95624579744504
 30
0.0
 11
12.10245763669486
 21
75.04916169045282
 31
0.0
  0
LINE
  5
5C
330
1F
100
AcDbEntity
  8
0
  6
Continuous
 62
     7
100
AcDbLine
 10
41.71204209361301
 20
29.49879180884
 30
0.0
 11
34.2606429071836
 21
78.95623829282442
 31
0.0
  0
LINE
  5
5D
330
1F
100
AcDbEntity
  8
0
  6
Continuous
 62
     7
100
AcDbLine
 10
22.01587705974397
 20
26.02582916101361
 30
0.0
 11
12.10245771786397
 21
75.04916087038579
 31
0.0
  0
LINE
  5
5E
330
1F
100
AcDbEntity
  8
0
  6
Continuous
 62
     7
100
AcDbLine
 10
39.98808987395421
 20
29.19481367360816
 30
0.0
 11
32.53017292009073
 21
78.69552077563235
 31
0.0
  0
LINE
  5
5F
330
1F
100
AcDbEntity
  8
0
  6
Continuous
 62
     7
100
AcDbLine
 10
23.73982963998496
 20
26.32980580030977
 30
0.0
 11
13.81773823709698
 21
75.39602213997314
 31
0.0
  0
LINE
  5
60
330
1F
100
AcDbEntity
  8
0
  6
Continuous
 62
     7
100
AcDbLine
 10
12.10245763669486
 20
75.04916169045282
 30
0.0
 11
11.78201823540687
 21
76.86646378875787
 31
0.0
  0
LINE
  5
61
330
1F
100
AcDbEntity
  8
0
  6
Continuous
 62
     7
100
AcDbLine
 10
34.26063206016416
 20
78.95624579744504
 30
0.0
 11
33.317792592033
 21
84.30335397737721
 31
0.0
  0
LINE
  5
62
330
1F
100
AcDbEntity
  8
0
  6
Continuous
 62
     7
100
AcDbLine
 10
1.359769821166992
 20
78.75582885742188
 30
0.0
 11
1.359769821166992
 21
107.2558288574219
 31
0.0
  0
LINE
  5
63
330
1F
100
AcDbEntity
  8
0
  6
Continuous
 62
     7
100
AcDbLine
 10
-1.640230178833008
 20
77.75582885742188
 30
0.0
 11
-1.640230178833008
 21
108.2558288574219
 31
0.0
  0
LINE
  5
64
330
1F
100
AcDbEntity
  8
0
  6
Continuous
 62
     7
100
AcDbLine
 10
-5.390230178833008
 20
77.75581359863281
 30
0.0
 11
-5.390230178833008
 21
108.2558212280273
 31
0.0
  0
LINE
  5
65
330
1F
100
AcDbEntity
  8
0
  6
Continuous
 62
     7
100
AcDbLine
 10
1.359770774841309
 20
78.75582885742188
 30
0.0
 11
-1.640229225158691
 21
78.75582885742188
 31
0.0
  0
LINE
  5
66
330
1F
100
AcDbEntity
  8
0
  6
Continuous
 62
     7
100
AcDbLine
 10
1.359770774841309
 20
107.2558288574219
 30
0.0
 11
-1.640229225158691
 21
107.2558288574219
 31
0.0
  0
LINE
  5
67
330
1F
100
AcDbEntity
  8
0
  6
Continuous
 62
     7
100
AcDbLine
 10
1.359770774841309
 20
80.50582885742188
 30
0.0
 11
-1.640229225158691
 21
80.50582885742188
 31
0.0
  0
LINE
  5
68
330
1F
100
AcDbEntity
  8
0
  6
Continuous
 62
     7
100
AcDbLine
 10
1.359770774841309
 20
105.5058288574219
 30
0.0
 11
-1.640229225158691
 21
105.5058288574219
 31
0.0
  0
LINE
  5
69
330
1F
100
AcDbEntity
  8
0
  6
Continuous
 62
     7
100
AcDbLine
 10
13.82587120296469
 20
75.35304600988555
 30
0.0
 11
13.50543180167671
 21
77.1703481081906
 31
0.0
  0
LINE
  5
6A
330
1F
100
AcDbEntity
  8
0
  6
Continuous
 62
     7
100
AcDbLine
 10
32.53721849389431
 20
78.65236147801231
 30
0.0
 11
31.59437902576316
 21
83.99946965794447
 31
0.0
  0
LINE
  5
6B
330
1F
100
AcDbEntity
  8
0
  6
CENTER
 62
     7
100
AcDbLine
 10
35.23180752017529
 20
8.662270106671262
 30
0.0
 11
20.19188201170711
 21
93.95792374673923
 31
0.0
  0
LINE
  5
6C
330
1F
100
AcDbEntity
  8
0
  6
CENTER
 62
     7
100
AcDbLine
 10
21.47048950195312
 20
93.00582885742188
 30
0.0
 11
-39.23602294921875
 21
93.00582885742188
 31
0.0
  0
LINE
  5
6D
330
1F
100
AcDbEntity
  8
0
  6
Continuous
 62
     7
100
AcDbLine
 10
41.29098062417887
 20
21.80884798749323
 30
0.0
 11
39.98861925518146
 21
29.19490612864967
 31
0.0
  0
LINE
  5
6E
330
1F
100
AcDbEntity
  8
0
  6
Continuous
 62
     7
100
AcDbLine
 10
41.29098062417887
 20
21.80884798749323
 30
0.0
 11
39.98861925518146
 21
29.19490612864967
 31
0.0
  0
LINE
  5
6F
330
1F
100
AcDbEntity
  8
0
  6
Continuous
 62
     7
100
AcDbLine
 10
73.59964557727818
 20
-96.63652210873147
 30
0.0
 11
75.94876005266902
 21
-107.4186593011498
 31
0.0
  0
LINE
  5
70
330
1F
100
AcDbEntity
  8
0
  6
Continuous
 62
     7
100
AcDbLine
 10
-34.39023208618164
 20
111.8808135986328
 30
0.0
 11
-22.65213012695312
 21
111.8808135986328
 31
0.0
  0
LINE
  5
71
330
1F
100
AcDbEntity
  8
0
  6
Continuous
 62
     7
100
AcDbLine
 10
-34.39023208618164
 20
112.8808135986328
 30
0.0
 11
-34.39023208618164
 21
73.63081359863281
 31
0.0
  0
LINE
  5
72
330
1F
100
AcDbEntity
  8
0
  6
Continuous
 62
     7
100
AcDbLine
 10
-38.14023208618164
 20
112.8808135986328
 30
0.0
 11
-38.14023208618164
 21
73.63081359863281
 31
0.0
  0
LINE
  5
73
330
1F
100
AcDbEntity
  8
0
  6
Continuous
 62
     7
100
AcDbLine
 10
-5.390231746144288
 20
108.2558203283198
 30
0.0
 11
-6.890225221874253
 21
110.6308099424155
 31
0.0
  0
LINE
  5
74
330
1F
100
AcDbEntity
  8
0
  6
Continuous
 62
     7
100
AcDbLine
 10
-38.14023208618164
 20
73.63081359863281
 30
0.0
 11
-34.39023208618164
 21
73.63081359863281
 31
0.0
  0
LINE
  5
75
330
1F
100
AcDbEntity
  8
0
  6
Continuous
 62
     7
100
AcDbLine
 10
-5.390230112159763
 20
77.75581679524888
 30
0.0
 11
-6.890229698954641
 21
75.38081750530063
 31
0.0
  0
LINE
  5
76
330
1F
100
AcDbEntity
  8
0
  6
Continuous
 62
     7
100
AcDbLine
 10
-34.39023208618164
 20
74.13081359863281
 30
0.0
 11
-22.65213012695312
 21
74.13081359863281
 31
0.0
  0
LINE
  5
77
330
1F
100
AcDbEntity
  8
0
  6
Continuous
 62
     7
100
AcDbLine
 10
-59.39022827148438
 20
124.6308135986328
 30
0.0
 11
-58.14022827148438
 21
124.6308135986328
 31
0.0
  0
LINE
  5
78
330
1F
100
AcDbEntity
  8
0
  6
Continuous
 62
     7
100
AcDbLine
 10
-59.39022827148438
 20
124.6308135986328
 30
0.0
 11
-59.39022827148438
 21
102.1997375488281
 31
0.0
  0
LINE
  5
79
330
1F
100
AcDbEntity
  8
0
  6
Continuous
 62
     7
100
AcDbLine
 10
-58.14022827148438
 20
124.6308135986328
 30
0.0
 11
-58.14022827148438
 21
101.8647994995117
 31
0.0
  0
LINE
  5
7A
330
1F
100
AcDbEntity
  8
0
  6
Continuous
 62
     7
100
AcDbLine
 10
-52.39022827148438
 20
120.3808135986328
 30
0.0
 11
-52.39022827148438
 21
100.324089050293
 31
0.0
  0
LINE
  5
7B
330
1F
100
AcDbEntity
  8
0
  6
Continuous
 62
     7
100
AcDbLine
 10
-49.39023208618164
 20
119.1308135986328
 30
0.0
 11
-49.39023208618164
 21
99.5202407836914
 31
0.0
  0
LINE
  5
7C
330
1F
100
AcDbEntity
  8
0
  6
Continuous
 62
     7
100
AcDbLine
 10
-45.64023208618164
 20
119.1308135986328
 30
0.0
 11
-45.64023208618164
 21
98.51543426513672
 31
0.0
  0
LINE
  5
7D
330
1F
100
AcDbEntity
  8
0
  6
Continuous
 62
     7
100
AcDbLine
 10
-58.14022827148438
 20
124.1308135986328
 30
0.0
 11
-56.82728576660156
 21
124.1308135986328
 31
0.0
  0
LINE
  5
7E
330
1F
100
AcDbEntity
  8
0
  6
Continuous
 62
     7
100
AcDbLine
 10
-52.39022827148438
 20
120.3808135986328
 30
0.0
 11
-50.8692512512207
 21
120.3808135986328
 31
0.0
  0
LINE
  5
7F
330
1F
100
AcDbEntity
  8
0
  6
Continuous
 62
     7
100
AcDbLine
 10
-49.39023208618164
 20
119.1308135986328
 30
0.0
 11
-45.64023208618164
 21
119.1308135986328
 31
0.0
  0
LINE
  5
80
330
1F
100
AcDbEntity
  8
0
  6
Continuous
 62
     7
100
AcDbLine
 10
-38.14023208618164
 20
96.50581359863281
 30
0.0
 11
-34.39023208618164
 21
96.50581359863281
 31
0.0
  0
LINE
  5
81
330
1F
100
AcDbEntity
  8
0
  6
Continuous
 62
     7
100
AcDbLine
 10
-38.14023208618164
 20
112.8808135986328
 30
0.0
 11
-34.39023208618164
 21
112.8808135986328
 31
0.0
  0
LINE
  5
82
330
1F
100
AcDbEntity
  8
0
  6
Continuous
 62
     7
100
AcDbLine
 10
-43.4222923283913
 20
116.4163358923374
 30
0.0
 11
-40.35816472553628
 21
115.595305368765
 31
0.0
  0
LINE
  5
83
330
1F
100
AcDbEntity
  8
0
  6
Continuous
 62
     7
100
AcDbLine
 10
-59.39023030553726
 20
102.1997331506735
 30
0.0
 11
-38.14023061056947
 21
96.50581284552183
 31
0.0
  0
LINE
  5
84
330
1F
100
AcDbEntity
  8
0
  6
CENTER
 62
     7
100
AcDbLine
 10
-60.75112915039062
 20
-66.24068450927734
 30
0.0
 11
34.8463134765625
 21
-66.24068450927734
 31
0.0
  0
LINE
  5
85
330
1F
100
AcDbEntity
  8
0
  6
Continuous
 62
     7
100
AcDbLine
 10
-5.390229635467545
 20
-49.61568182929054
 30
0.0
 11
-6.890230089552706
 21
-46.86568088788628
 31
0.0
  0
LINE
  5
86
330
1F
100
AcDbEntity
  8
0
  6
Continuous
 62
     7
100
AcDbLine
 10
-34.39023208618164
 20
-45.61568450927734
 30
0.0
 11
-22.65213012695312
 21
-45.61568450927734
 31
0.0
  0
LINE
  5
87
330
1F
100
AcDbEntity
  8
0
  6
Continuous
 62
     7
100
AcDbLine
 10
-21.1652946472168
 20
-51.86568450927734
 30
0.0
 11
-5.390230178833008
 21
-51.86568450927734
 31
0.0
  0
LINE
  5
88
330
1F
100
AcDbEntity
  8
0
  6
Continuous
 62
     7
100
AcDbLine
 10
-21.1652946472168
 20
-53.11568450927734
 30
0.0
 11
-19.86516952514648
 21
-53.11568450927734
 31
0.0
  0
LINE
  5
89
330
1F
100
AcDbEntity
  8
0
  6
Continuous
 62
     7
100
AcDbLine
 10
-38.14023208618164
 20
-44.36568450927734
 30
0.0
 11
-34.39023208618164
 21
-44.36568450927734
 31
0.0
  0
LINE
  5
8A
330
1F
100
AcDbEntity
  8
0
  6
Continuous
 62
     7
100
AcDbLine
 10
-59.39022827148438
 20
-32.61568450927734
 30
0.0
 11
-58.14022827148438
 21
-32.61568450927734
 31
0.0
  0
LINE
  5
8B
330
1F
100
AcDbEntity
  8
0
  6
Continuous
 62
     7
100
AcDbLine
 10
-58.14022827148438
 20
-33.11568450927734
 30
0.0
 11
-56.82728576660156
 21
-33.11568450927734
 31
0.0
  0
LINE
  5
8C
330
1F
100
AcDbEntity
  8
0
  6
Continuous
 62
     7
100
AcDbLine
 10
-52.39022827148438
 20
-36.86568069458008
 30
0.0
 11
-50.8692512512207
 21
-36.86568069458008
 31
0.0
  0
LINE
  5
8D
330
1F
100
AcDbEntity
  8
0
  6
Continuous
 62
     7
100
AcDbLine
 10
-49.39023208618164
 20
-38.11568069458008
 30
0.0
 11
-45.64023208618164
 21
-38.11568069458008
 31
0.0
  0
LINE
  5
8E
330
1F
100
AcDbEntity
  8
0
  6
Continuous
 62
     7
100
AcDbLine
 10
-43.42229146740222
 20
-40.83016733410879
 30
0.0
 11
-40.35817123397641
 21
-41.65119588304854
 31
0.0
  0
LINE
  5
8F
330
1F
100
AcDbEntity
  8
0
  6
Continuous
 62
     7
100
AcDbLine
 10
-38.14023208618164
 20
-44.36568450927734
 30
0.0
 11
-38.14023208618164
 21
-88.11568450927734
 31
0.0
  0
LINE
  5
90
330
1F
100
AcDbEntity
  8
0
  6
Continuous
 62
     7
100
AcDbLine
 10
-5.390230178833008
 20
-49.61568450927734
 30
0.0
 11
-5.390230178833008
 21
-82.86568450927734
 31
0.0
  0
LINE
  5
91
330
1F
100
AcDbEntity
  8
0
  6
Continuous
 62
     7
100
AcDbLine
 10
-6.890230178833008
 20
-46.86568450927734
 30
0.0
 11
-6.890230178833008
 21
-85.61568450927734
 31
0.0
  0
LINE
  5
92
330
1F
100
AcDbEntity
  8
0
  6
Continuous
 62
     7
100
AcDbLine
 10
-5.390228190848692
 20
-82.86568060696692
 30
0.0
 11
-6.890224991582134
 21
-85.61567485055943
 31
0.0
  0
LINE
  5
93
330
1F
100
AcDbEntity
  8
0
  6
Continuous
 62
     7
100
AcDbLine
 10
-34.39023208618164
 20
-44.36568450927734
 30
0.0
 11
-34.39023208618164
 21
-88.11568450927734
 31
0.0
  0
LINE
  5
94
330
1F
100
AcDbEntity
  8
0
  6
Continuous
 62
     7
100
AcDbLine
 10
-34.39023208618164
 20
-86.86568450927734
 30
0.0
 11
-22.65213012695312
 21
-86.86568450927734
 31
0.0
  0
LINE
  5
95
330
1F
100
AcDbEntity
  8
0
  6
Continuous
 62
     7
100
AcDbLine
 10
-21.1652946472168
 20
-80.61568450927734
 30
0.0
 11
-5.390230178833008
 21
-80.61568450927734
 31
0.0
  0
LINE
  5
96
330
1F
100
AcDbEntity
  8
0
  6
Continuous
 62
     7
100
AcDbLine
 10
-21.1652946472168
 20
-79.36568450927734
 30
0.0
 11
-19.86516952514648
 21
-79.36568450927734
 31
0.0
  0
LINE
  5
97
330
1F
100
AcDbEntity
  8
0
  6
Continuous
 62
     7
100
AcDbLine
 10
-38.14023208618164
 20
-88.11568450927734
 30
0.0
 11
-34.39023208618164
 21
-88.11568450927734
 31
0.0
  0
LINE
  5
98
330
1F
100
AcDbEntity
  8
0
  6
Continuous
 62
     7
100
AcDbLine
 10
-59.39022827148438
 20
-32.61568450927734
 30
0.0
 11
-59.39022827148438
 21
-99.86568450927734
 31
0.0
  0
LINE
  5
99
330
1F
100
AcDbEntity
  8
0
  6
Continuous
 62
     7
100
AcDbLine
 10
-59.39022827148438
 20
-99.86568450927734
 30
0.0
 11
-58.14022827148438
 21
-99.86568450927734
 31
0.0
  0
LINE
  5
9A
330
1F
100
AcDbEntity
  8
0
  6
Continuous
 62
     7
100
AcDbLine
 10
-58.14022827148438
 20
-32.61568450927734
 30
0.0
 11
-58.14022827148438
 21
-99.86568450927734
 31
0.0
  0
LINE
  5
9B
330
1F
100
AcDbEntity
  8
0
  6
Continuous
 62
     7
100
AcDbLine
 10
-58.14022827148438
 20
-99.36568450927734
 30
0.0
 11
-56.82728576660156
 21
-99.36568450927734
 31
0.0
  0
LINE
  5
9C
330
1F
100
AcDbEntity
  8
0
  6
Continuous
 62
     7
100
AcDbLine
 10
-52.39022827148438
 20
-36.86568069458008
 30
0.0
 11
-52.39022827148438
 21
-95.61568450927734
 31
0.0
  0
LINE
  5
9D
330
1F
100
AcDbEntity
  8
0
  6
Continuous
 62
     7
100
AcDbLine
 10
-49.39023208618164
 20
-38.11568069458008
 30
0.0
 11
-49.39023208618164
 21
-94.36568450927734
 31
0.0
  0
LINE
  5
9E
330
1F
100
AcDbEntity
  8
0
  6
Continuous
 62
     7
100
AcDbLine
 10
-45.64023208618164
 20
-38.11568069458008
 30
0.0
 11
-45.64023208618164
 21
-94.36568450927734
 31
0.0
  0
LINE
  5
9F
330
1F
100
AcDbEntity
  8
0
  6
Continuous
 62
     7
100
AcDbLine
 10
-52.39022827148438
 20
-95.61568450927734
 30
0.0
 11
-50.8692512512207
 21
-95.61568450927734
 31
0.0
  0
LINE
  5
A0
330
1F
100
AcDbEntity
  8
0
  6
Continuous
 62
     7
100
AcDbLine
 10
-49.39023208618164
 20
-94.36568450927734
 30
0.0
 11
-45.64023208618164
 21
-94.36568450927734
 31
0.0
  0
LINE
  5
A1
330
1F
100
AcDbEntity
  8
0
  6
Continuous
 62
     7
100
AcDbLine
 10
-43.42229124089347
 20
-91.65119639563437
 30
0.0
 11
-40.35816732275305
 21
-90.83016685937832
 31
0.0
  0
LINE
  5
A2
330
1F
100
AcDbEntity
  8
0
  6
Continuous
 62
     7
100
AcDbLine
 10
-1.640230178833008
 20
-82.86568450927734
 30
0.0
 11
-1.640230178833008
 21
-49.61568450927734
 31
0.0
  0
LINE
  5
A3
330
1F
100
AcDbEntity
  8
0
  6
Continuous
 62
     7
100
AcDbLine
 10
1.359769821166992
 20
-81.86568450927734
 30
0.0
 11
1.359769821166992
 21
-50.61568450927734
 31
0.0
  0
LINE
  5
A4
330
1F
100
AcDbEntity
  8
0
  6
Continuous
 62
     7
100
AcDbLine
 10
7.609764575958252
 20
-79.43550872802734
 30
0.0
 11
7.609764575958252
 21
-53.04586029052734
 31
0.0
  0
LINE
  5
A5
330
1F
100
AcDbEntity
  8
0
  6
Continuous
 62
     7
100
AcDbLine
 10
34.26064300537109
 20
-76.99068450927734
 30
0.0
 11
34.26064300537109
 21
-55.49068450927734
 31
0.0
  0
LINE
  5
A6
330
1F
100
AcDbEntity
  8
0
  6
Continuous
 62
     7
100
AcDbLine
 10
-1.640230178833008
 20
-50.61568450927734
 30
0.0
 11
1.359769821166992
 21
-50.61568450927734
 31
0.0
  0
LINE
  5
A7
330
1F
100
AcDbEntity
  8
0
  6
Continuous
 62
     7
100
AcDbLine
 10
-1.640230178833008
 20
-81.86568450927734
 30
0.0
 11
1.359769821166992
 21
-81.86568450927734
 31
0.0
  0
LINE
  5
A8
330
1F
100
AcDbEntity
  8
0
  6
Continuous
 62
     7
100
AcDbLine
 10
13.46284294128418
 20
-53.74068450927734
 30
0.0
 11
32.51064300537109
 21
-53.74068450927734
 31
0.0
  0
LINE
  5
A9
330
1F
100
AcDbEntity
  8
0
  6
Continuous
 62
     7
100
AcDbLine
 10
13.46284294128418
 20
-78.74068450927734
 30
0.0
 11
32.51064300537109
 21
-78.74068450927734
 31
0.0
  0
LINE
  5
AA
330
1F
100
AcDbEntity
  8
0
  6
Continuous
 62
     7
100
AcDbLine
 10
13.46284294128418
 20
-76.99068450927734
 30
0.0
 11
34.26064300537109
 21
-76.99068450927734
 31
0.0
  0
LINE
  5
AB
330
1F
100
AcDbEntity
  8
0
  6
Continuous
 62
     7
100
AcDbLine
 10
13.46284294128418
 20
-55.49068450927734
 30
0.0
 11
34.26064300537109
 21
-55.49068450927734
 31
0.0
  0
LINE
  5
AC
330
1F
100
AcDbEntity
  8
0
  6
Continuous
 62
     7
100
AcDbLine
 10
-1.640230178833008
 20
-80.11568450927734
 30
0.0
 11
1.359769821166992
 21
-80.11568450927734
 31
0.0
  0
LINE
  5
AD
330
1F
100
AcDbEntity
  8
0
  6
Continuous
 62
     7
100
AcDbLine
 10
-1.640230178833008
 20
-52.36568450927734
 30
0.0
 11
1.359769821166992
 21
-52.36568450927734
 31
0.0
  0
LINE
  5
AE
330
1F
100
AcDbEntity
  8
0
  6
Continuous
 62
     7
100
AcDbLine
 10
-31.89023208618164
 20
77.90615844726562
 30
0.0
 11
-31.89023208618164
 21
76.75582885742188
 31
0.0
  0
LINE
  5
AF
330
1F
100
AcDbEntity
  8
0
  6
Continuous
 62
     7
100
AcDbLine
 10
-33.64023208618164
 20
75.88082885742188
 30
0.0
 11
-32.76523208618164
 21
75.88082885742188
 31
0.0
  0
LINE
  5
B0
330
1F
100
AcDbEntity
  8
0
  6
Continuous
 62
     7
100
AcDbLine
 10
-31.89023208618164
 20
108.1055068969727
 30
0.0
 11
-31.89023208618164
 21
109.2558364868164
 31
0.0
  0
LINE
  5
B1
330
1F
100
AcDbEntity
  8
0
  6
Continuous
 62
     7
100
AcDbLine
 10
-33.64023208618164
 20
110.1308364868164
 30
0.0
 11
-32.76523208618164
 21
110.1308364868164
 31
0.0
  0
ARC
  5
B2
330
1F
100
AcDbEntity
  8
0
  6
Continuous
 62
     7
100
AcDbCircle
 10
71.13870239257812
 20
-99.95613861083984
 30
0.0
 40
15.0
100
AcDbArc
 50
189.9999929925893
 51
269.9999974955218
  0
ARC
  5
B3
330
1F
100
AcDbEntity
  8
0
  6
Continuous
 62
     7
100
AcDbCircle
 10
71.13870239257812
 20
-99.95613861083984
 30
0.0
 40
15.25
100
AcDbArc
 50
189.9999929925893
 51
219.0367663997143
  0
ARC
  5
B4
330
1F
100
AcDbEntity
  8
0
  6
Continuous
 62
     7
100
AcDbCircle
 10
58.46367263793945
 20
-104.3761825561523
 30
0.0
 40
5.0
100
AcDbArc
 50
15.78704823811547
 51
102.865982032707
  0
ARC
  5
B5
330
1F
100
AcDbEntity
  8
0
  6
Continuous
 62
     7
100
AcDbCircle
 10
63.31682968139648
 20
-105.2654800415039
 30
0.0
 40
2.25
100
AcDbArc
 50
309.9999997469881
 51
91.06340831673579
  0
ARC
  5
B6
330
1F
100
AcDbEntity
  8
0
  6
Continuous
 62
     7
100
AcDbCircle
 10
63.67023849487305
 20
-106.8717880249023
 30
0.0
 40
1.125
100
AcDbArc
 50
355.2492124039262
 51
160.257042684711
  0
ARC
  5
B7
330
1F
100
AcDbEntity
  8
0
  6
Continuous
 62
     7
100
AcDbCircle
 10
63.56156921386719
 20
-105.9922332763672
 30
0.0
 40
3.5
100
AcDbArc
 50
308.4249034828698
 51
348.6668907988932
  0
ARC
  5
B8
330
1F
100
AcDbEntity
  8
0
  6
Continuous
 62
     7
100
AcDbCircle
 10
64.4937973022461
 20
-107.167366027832
 30
0.0
 40
2.0
100
AcDbArc
 50
160.257042684711
 51
308.4248964253096
  0
ARC
  5
B9
330
1F
100
AcDbEntity
  8
0
  6
Continuous
 62
     7
100
AcDbCircle
 10
69.98287963867188
 20
-104.8599853515625
 30
0.0
 40
3.5
100
AcDbArc
 50
211.3331053178836
 51
251.5750909263597
  0
ARC
  5
BA
330
1F
100
AcDbEntity
  8
0
  6
Continuous
 62
     7
100
AcDbCircle
 10
69.50878143310547
 20
-106.283088684082
 30
0.0
 40
2.0
100
AcDbArc
 50
251.5750909263597
 51
39.74294808205284
  0
ARC
  5
BB
330
1F
100
AcDbEntity
  8
0
  6
Continuous
 62
     7
100
AcDbCircle
 10
74.22059631347656
 20
-101.5978088378906
 30
0.0
 40
5.0
100
AcDbArc
 50
97.13401214915142
 51
184.2129476512902
  0
ARC
  5
BC
330
1F
100
AcDbEntity
  8
0
  6
Continuous
 62
     7
100
AcDbCircle
 10
69.96427917480469
 20
-104.0933532714844
 30
0.0
 40
2.25
100
AcDbArc
 50
108.9365790349335
 51
250.0000046801541
  0
ARC
  5
BD
330
1F
100
AcDbEntity
  8
0
  6
Continuous
 62
     7
100
AcDbCircle
 10
70.18159484863281
 20
-105.7236633300781
 30
0.0
 40
1.125
100
AcDbArc
 50
39.74295491224201
 51
204.750780070385
  0
ARC
  5
BE
330
1F
100
AcDbEntity
  8
0
  6
Continuous
 62
     7
100
AcDbCircle
 10
54.09348297119141
 20
24.06627464294434
 30
0.0
 40
11.25
100
AcDbArc
 50
189.9999929925893
 51
278.7543397471864
  0
ARC
  5
BF
330
1F
100
AcDbEntity
  8
0
  6
Continuous
 62
     7
100
AcDbCircle
 10
55.8437614440918
 20
12.7002477645874
 30
0.0
 40
0.25
100
AcDbArc
 50
9.99999287890375
 51
98.75433792595355
  0
ARC
  5
C0
330
1F
100
AcDbEntity
  8
0
  6
Continuous
 62
     7
100
AcDbCircle
 10
54.09348297119141
 20
24.06627464294434
 30
0.0
 40
31.375
100
AcDbArc
 50
195.116173511144
 51
240.6157791955075
  0
ARC
  5
C1
330
1F
100
AcDbEntity
  8
0
  6
Continuous
 62
     7
100
AcDbCircle
 10
54.09348297119141
 20
24.06627464294434
 30
0.0
 40
13.0
100
AcDbArc
 50
189.9999929925893
 51
272.2636246393016
  0
ARC
  5
C2
330
1F
100
AcDbEntity
  8
0
  6
Continuous
 62
     7
100
AcDbCircle
 10
54.09348297119141
 20
24.06627464294434
 30
0.0
 40
29.625
100
AcDbArc
 50
195.2652082388337
 51
242.4901743490557
  0
ARC
  5
C3
330
1F
100
AcDbEntity
  8
0
  6
Continuous
 62
     7
100
AcDbCircle
 10
48.88372421264648
 20
22.70343971252441
 30
0.0
 40
25.0
100
AcDbArc
 50
228.4990236079048
 51
251.9455945378871
  0
ARC
  5
C4
330
1F
100
AcDbEntity
  8
0
  6
Continuous
 62
     7
100
AcDbCircle
 10
41.91052627563477
 20
1.311275482177734
 30
0.0
 40
2.5
100
AcDbArc
 50
251.9455945378871
 51
71.33484403126084
  0
ARC
  5
C5
330
1F
100
AcDbEntity
  8
0
  6
Continuous
 62
     7
100
AcDbCircle
 10
42.21360397338867
 20
2.241060256958008
 30
0.0
 40
1.5
100
AcDbArc
 50
257.3061319041881
 51
71.94559954684338
  0
ARC
  5
C6
330
1F
100
AcDbEntity
  8
0
  6
Continuous
 62
     7
100
AcDbCircle
 10
41.85881423950195
 20
2.051200866699219
 30
0.0
 40
4.5
100
AcDbArc
 50
251.2141222589137
 51
33.66268636215081
  0
ARC
  5
C7
330
1F
100
AcDbEntity
  8
0
  6
Continuous
 62
     7
100
AcDbCircle
 10
42.6222038269043
 20
2.271806716918945
 30
0.0
 40
3.75
100
AcDbArc
 50
37.32498598378746
 51
122.2252926312727
  0
ARC
  5
C8
330
1F
100
AcDbEntity
  8
0
  6
Continuous
 62
     7
100
AcDbCircle
 10
42.1408805847168
 20
3.458056449890137
 30
0.0
 40
2.5
100
AcDbArc
 50
127.3975490029133
 51
228.7603293427055
  0
ARC
  5
C9
330
1F
100
AcDbEntity
  8
0
  6
Continuous
 62
     7
100
AcDbCircle
 10
42.76222229003906
 20
3.913182258605957
 30
0.0
 40
3.256126642227173
100
AcDbArc
 50
225.8169176038675
 51
254.352771767453
  0
ARC
  5
CA
330
1F
100
AcDbEntity
  8
0
  6
Continuous
 62
     7
100
AcDbCircle
 10
29.57992744445801
 20
78.14759826660156
 30
0.0
 40
10.0
100
AcDbArc
 50
190.0942086220005
 51
235.5731051728004
  0
ARC
  5
CB
330
1F
100
AcDbEntity
  8
0
  6
Continuous
 62
     7
100
AcDbCircle
 10
14.09148216247559
 20
62.18390274047852
 30
0.0
 40
12.5
100
AcDbArc
 50
359.1181046506665
 51
38.11318298381776
  0
ARC
  5
CC
330
1F
100
AcDbEntity
  8
0
  6
Continuous
 62
     7
100
AcDbCircle
 10
27.70663642883301
 20
78.88465118408203
 30
0.0
 40
6.25
100
AcDbArc
 50
199.8351785294625
 51
244.175591828648
  0
ARC
  5
CD
330
1F
100
AcDbEntity
  8
0
  6
Continuous
 62
     7
100
AcDbCircle
 10
25.11486434936523
 20
75.6302261352539
 30
0.0
 40
2.375
100
AcDbArc
 50
266.8425649667651
 51
20.61137135834097
  0
ARC
  5
CE
330
1F
100
AcDbEntity
  8
0
  6
Continuous
 62
     7
100
AcDbCircle
 10
24.96365737915039
 20
73.89466094970703
 30
0.0
 40
3.5
100
AcDbArc
 50
295.0645241266642
 51
47.28605873725318
  0
ARC
  5
CF
330
1F
100
AcDbEntity
  8
0
  6
Continuous
 62
     7
100
AcDbCircle
 10
19.61371803283691
 20
65.25826263427734
 30
0.0
 40
8.75
100
AcDbArc
 50
333.7128336489322
 51
38.65901072115016
  0
ARC
  5
D0
330
1F
100
AcDbEntity
  8
0
  6
Continuous
 62
     7
100
AcDbCircle
 10
33.37721633911133
 20
59.37435150146484
 30
0.0
 40
6.25
100
AcDbArc
 50
161.2520373222418
 51
251.5270437332722
  0
ARC
  5
D1
330
1F
100
AcDbEntity
  8
0
  6
Continuous
 62
     7
100
AcDbCircle
 10
29.91390228271484
 20
58.22142791748047
 30
0.0
 40
5.0
100
AcDbArc
 50
167.4802545999446
 51
287.2530858474542
  0
ARC
  5
D2
330
1F
100
AcDbEntity
  8
0
  6
Continuous
 62
     7
100
AcDbCircle
 10
24.12892723083496
 20
62.68658447265625
 30
0.0
 40
3.5
100
AcDbArc
 50
157.3525593816764
 51
284.9660379850105
  0
ARC
  5
D3
330
1F
100
AcDbEntity
  8
0
  6
Continuous
 62
     7
100
AcDbCircle
 10
23.05737495422363
 20
62.77307891845703
 30
0.0
 40
2.5
100
AcDbArc
 50
43.14423885474662
 51
149.7030890207207
  0
ARC
  5
D4
330
1F
100
AcDbEntity
  8
0
  6
Continuous
 62
     7
100
AcDbCircle
 10
24.02687835693359
 20
63.57042694091797
 30
0.0
 40
1.25
100
AcDbArc
 50
316.8698996368353
 51
46.8698953111243
  0
ARC
  5
D5
330
1F
100
AcDbEntity
  8
0
  6
Continuous
 62
     7
100
AcDbCircle
 10
24.24147796630859
 20
62.84852600097656
 30
0.0
 40
2.5
100
AcDbArc
 50
254.2533378735159
 51
339.9521158330905
  0
ARC
  5
D6
330
1F
100
AcDbEntity
  8
0
  6
Continuous
 62
     7
100
AcDbCircle
 10
24.16701316833496
 20
62.34897232055664
 30
0.0
 40
2.0
100
AcDbArc
 50
108.6531739957021
 51
252.4221810051374
  0
ARC
  5
D7
330
1F
100
AcDbEntity
  8
0
  6
Continuous
 62
     7
100
AcDbCircle
 10
24.23323440551758
 20
63.47988510131836
 30
0.0
 40
1.040207266807556
100
AcDbArc
 50
132.7352325562515
 51
312.7352102444511
  0
ARC
  5
D8
330
1F
100
AcDbEntity
  8
0
  6
Continuous
 62
     7
100
AcDbCircle
 10
-3.515239715576172
 20
81.02144622802734
 30
0.0
 40
3.765625
100
AcDbArc
 50
240.137160519608
 51
299.8628413016249
  0
ARC
  5
D9
330
1F
100
AcDbEntity
  8
0
  6
Continuous
 62
     7
100
AcDbCircle
 10
-3.515230178833008
 20
104.9902038574219
 30
0.0
 40
3.765625
100
AcDbArc
 50
60.13715869837514
 51
119.862839480392
  0
ARC
  5
DA
330
1F
100
AcDbEntity
  8
0
  6
Continuous
 62
     7
100
AcDbCircle
 10
4.320670127868652
 20
76.4546127319336
 30
0.0
 40
3.75
100
AcDbArc
 50
28.70640740225524
 51
142.14574425129
  0
ARC
  5
DB
330
1F
100
AcDbEntity
  8
0
  6
Continuous
 62
     7
100
AcDbCircle
 10
9.319998741149902
 20
76.43234252929688
 30
0.0
 40
2.5
100
AcDbArc
 50
9.99999287890375
 51
133.1644416436951
  0
ARC
  5
DC
330
1F
100
AcDbEntity
  8
0
  6
Continuous
 62
     7
100
AcDbCircle
 10
7.974142551422119
 20
114.7558212280273
 30
0.0
 40
10.0
100
AcDbArc
 50
228.5903842182429
 51
269.0817605238836
  0
ARC
  5
DD
330
1F
100
AcDbEntity
  8
0
  6
Continuous
 62
     7
100
AcDbCircle
 10
23.89433670043945
 20
91.36651611328125
 30
0.0
 40
6.0
100
AcDbArc
 50
36.8863375749109
 51
95.1114906830731
  0
ARC
  5
DE
330
1F
100
AcDbEntity
  8
0
  6
Continuous
 62
     7
100
AcDbCircle
 10
17.33829307556152
 20
95.66805267333984
 30
0.0
 40
6.25
100
AcDbArc
 50
15.54144829594016
 51
58.03944367972414
  0
ARC
  5
DF
330
1F
100
AcDbEntity
  8
0
  6
Continuous
 62
     7
100
AcDbCircle
 10
7.413253307342529
 20
79.76031494140625
 30
0.0
 40
25.0
100
AcDbArc
 50
58.03944367972414
 51
89.08175870265082
  0
ARC
  5
E0
330
1F
100
AcDbEntity
  8
0
  6
Continuous
 62
     7
100
AcDbCircle
 10
4.320670127868652
 20
76.4546127319336
 30
0.0
 40
5.5
100
AcDbArc
 50
47.20447212761738
 51
122.5711187693288
  0
ARC
  5
E1
330
1F
100
AcDbEntity
  8
0
  6
Continuous
 62
     7
100
AcDbCircle
 10
9.319998741149902
 20
76.43234252929688
 30
0.0
 40
4.25
100
AcDbArc
 50
9.99999287890375
 51
107.2841445388431
  0
ARC
  5
E2
330
1F
100
AcDbEntity
  8
0
  6
Continuous
 62
     7
100
AcDbCircle
 10
7.974142551422119
 20
114.7558212280273
 30
0.0
 40
11.75
100
AcDbArc
 50
235.7416196000029
 51
269.0817605238836
  0
ARC
  5
E3
330
1F
100
AcDbEntity
  8
0
  6
Continuous
 62
     7
100
AcDbCircle
 10
7.413253307342529
 20
79.76031494140625
 30
0.0
 40
23.25
100
AcDbArc
 50
58.03944367972414
 51
89.08175870265082
  0
ARC
  5
E4
330
1F
100
AcDbEntity
  8
0
  6
Continuous
 62
     7
100
AcDbCircle
 10
17.33829307556152
 20
95.66805267333984
 30
0.0
 40
4.5
100
AcDbArc
 50
352.2755392845993
 51
58.03944367972414
  0
ARC
  5
E5
330
1F
100
AcDbEntity
  8
0
  6
Continuous
 62
     7
100
AcDbCircle
 10
23.89433670043945
 20
91.36651611328125
 30
0.0
 40
4.25
100
AcDbArc
 50
36.8863375749109
 51
119.5631990815036
  0
ARC
  5
E6
330
1F
100
AcDbEntity
  8
0
  6
Continuous
 62
     7
100
AcDbCircle
 10
8.697599411010742
 20
79.96215057373047
 30
0.0
 40
25.0
100
AcDbArc
 50
9.99999287890375
 51
36.8863375749109
  0
ARC
  5
E7
330
1F
100
AcDbEntity
  8
0
  6
Continuous
 62
     7
100
AcDbCircle
 10
8.697599411010742
 20
79.96215057373047
 30
0.0
 40
23.25
100
AcDbArc
 50
9.99999287890375
 51
36.8863375749109
  0
ARC
  5
E8
330
1F
100
AcDbEntity
  8
0
  6
Continuous
 62
     7
100
AcDbCircle
 10
29.72522735595703
 20
76.83051300048828
 30
0.0
 40
10.0
100
AcDbArc
 50
141.8639306461353
 51
182.4964937921094
  0
ARC
  5
E9
330
1F
100
AcDbEntity
  8
0
  6
Continuous
 62
     7
100
AcDbCircle
 10
21.9104175567627
 20
88.00557708740234
 30
0.0
 40
5.0
100
AcDbArc
 50
146.6294629130799
 51
269.419543886821
  0
ARC
  5
EA
330
1F
100
AcDbEntity
  8
0
  6
Continuous
 62
     7
100
AcDbCircle
 10
7.179842948913574
 20
89.09357452392578
 30
0.0
 40
2.5
100
AcDbArc
 50
279.9024194145846
 51
346.4023552399538
  0
ARC
  5
EB
330
1F
100
AcDbEntity
  8
0
  6
Continuous
 62
     7
100
AcDbCircle
 10
13.33014583587646
 20
88.03544616699219
 30
0.0
 40
3.75
100
AcDbArc
 50
97.2058793995983
 51
172.7941144534579
  0
ARC
  5
EC
330
1F
100
AcDbEntity
  8
0
  6
Continuous
 62
     7
100
AcDbCircle
 10
9.081202507019043
 20
90.08007049560547
 30
0.0
 40
3.75
100
AcDbArc
 50
246.8970807034396
 51
335.177950207035
  0
ARC
  5
ED
330
1F
100
AcDbEntity
  8
0
  6
Continuous
 62
     7
100
AcDbCircle
 10
13.71334648132324
 20
95.79154968261719
 30
0.0
 40
4.125
100
AcDbArc
 50
164.6884147767019
 51
258.0576061647748
  0
ARC
  5
EE
330
1F
100
AcDbEntity
  8
0
  6
Continuous
 62
     7
100
AcDbCircle
 10
13.41153621673584
 20
96.14337921142578
 30
0.0
 40
3.75
100
AcDbArc
 50
27.60132206813491
 51
168.6588857035003
  0
ARC
  5
EF
330
1F
100
AcDbEntity
  8
0
  6
Continuous
 62
     7
100
AcDbCircle
 10
31.81267166137695
 20
76.22073364257812
 30
0.0
 40
10.0
100
AcDbArc
 50
126.5333661483666
 51
176.8860944455909
  0
ARC
  5
F0
330
1F
100
AcDbEntity
  8
0
  6
Continuous
 62
     7
100
AcDbCircle
 10
16.47966575622559
 20
86.43440246582031
 30
0.0
 40
4.5
100
AcDbArc
 50
73.80472239740749
 51
152.5924502849328
  0
ARC
  5
F1
330
1F
100
AcDbEntity
  8
0
  6
Continuous
 62
     7
100
AcDbCircle
 10
24.13188362121582
 20
88.85871124267578
 30
0.0
 40
1.772116422653198
100
AcDbArc
 50
89.999995674289
 51
303.4917513161328
  0
ARC
  5
F2
330
1F
100
AcDbEntity
  8
0
  6
Continuous
 62
     7
100
AcDbCircle
 10
23.47745323181152
 20
86.81991577148438
 30
0.0
 40
3.5
100
AcDbArc
 50
312.8953579172915
 51
354.6562973424557
  0
ARC
  5
F3
330
1F
100
AcDbEntity
  8
0
  6
Continuous
 62
     7
100
AcDbCircle
 10
23.53070640563965
 20
87.1828384399414
 30
0.0
 40
3.5
100
AcDbArc
 50
348.6487771372143
 51
80.10950609570618
  0
ARC
  5
F4
330
1F
100
AcDbEntity
  8
0
  6
Continuous
 62
     7
100
AcDbCircle
 10
22.4964542388916
 20
88.23703002929688
 30
0.0
 40
2.75
100
AcDbArc
 50
219.0154152283689
 51
341.8595417814649
  0
ARC
  5
F5
330
1F
100
AcDbEntity
  8
0
  6
Continuous
 62
     7
100
AcDbCircle
 10
23.35855674743652
 20
89.33829498291016
 30
0.0
 40
4.125
100
AcDbArc
 50
103.9802112825787
 51
223.366269407958
  0
ARC
  5
F6
330
1F
100
AcDbEntity
  8
0
  6
Continuous
 62
     7
100
AcDbCircle
 10
24.67671775817871
 20
88.62893676757812
 30
0.0
 40
5.25
100
AcDbArc
 50
45.45000143551621
 51
116.1612184597036
  0
ARC
  5
F7
330
1F
100
AcDbEntity
  8
0
  6
Continuous
 62
     7
100
AcDbCircle
 10
17.39483451843262
 20
96.72145080566406
 30
0.0
 40
3.625
100
AcDbArc
 50
311.6216779012459
 51
70.41817800313177
  0
ARC
  5
F8
330
1F
100
AcDbEntity
  8
0
  6
Continuous
 62
     7
100
AcDbCircle
 10
15.4661283493042
 20
100.1308212280273
 30
0.0
 40
7.5
100
AcDbArc
 50
269.9999974955218
 51
305.3237243921172
  0
ARC
  5
F9
330
1F
100
AcDbEntity
  8
0
  6
Continuous
 62
     7
100
AcDbCircle
 10
15.17393493652344
 20
96.11861419677734
 30
0.0
 40
3.5
100
AcDbArc
 50
185.1982470626653
 51
274.7888002169687
  0
ARC
  5
FA
330
1F
100
AcDbEntity
  8
0
  6
Continuous
 62
     7
100
AcDbCircle
 10
13.43605613708496
 20
95.89070129394531
 30
0.0
 40
1.75
100
AcDbArc
 50
67.35774782096748
 51
182.9218369924827
  0
ARC
  5
FB
330
1F
100
AcDbEntity
  8
0
  6
Continuous
 62
     7
100
AcDbCircle
 10
14.72096538543701
 20
96.13600158691406
 30
0.0
 40
1.5
100
AcDbArc
 50
114.0460523077232
 51
204.8418538127779
  0
ARC
  5
FC
330
1F
100
AcDbEntity
  8
0
  6
Continuous
 62
     7
100
AcDbCircle
 10
15.03490352630615
 20
96.8270492553711
 30
0.0
 40
2.0
100
AcDbArc
 50
278.0763751701709
 51
31.79559951101447
  0
ARC
  5
FD
330
1F
100
AcDbEntity
  8
0
  6
Continuous
 62
     7
100
AcDbCircle
 10
14.66819667816162
 20
96.15706634521484
 30
0.0
 40
1.461537599563599
100
AcDbArc
 50
206.4608171942118
 51
296.3056378007472
  0
ARC
  5
FE
330
1F
100
AcDbEntity
  8
0
  6
Continuous
 62
     7
100
AcDbCircle
 10
-22.65213012695312
 20
11.88080787658691
 30
0.0
 40
100.0
100
AcDbArc
 50
80.9312734755071
 51
90.00000250447816
  0
ARC
  5
FF
330
1F
100
AcDbEntity
  8
0
  6
Continuous
 62
     7
100
AcDbCircle
 10
-22.65213012695312
 20
174.1308135986328
 30
0.0
 40
100.0
100
AcDbArc
 50
270.000004325711
 51
279.0687196943038
  0
ARC
  5
100
330
1F
100
AcDbEntity
  8
0
  6
Continuous
 62
     7
100
AcDbCircle
 10
-56.82728576660156
 20
119.6308135986328
 30
0.0
 40
4.5
100
AcDbArc
 50
9.594074736529894
 51
90.00000250447816
  0
ARC
  5
101
330
1F
100
AcDbEntity
  8
0
  6
Continuous
 62
     7
100
AcDbCircle
 10
-50.8692512512207
 20
118.8808135986328
 30
0.0
 40
1.5
100
AcDbArc
 50
9.594074736529894
 51
90.00000250447816
  0
ARC
  5
102
330
1F
100
AcDbEntity
  8
0
  6
Continuous
 62
     7
100
AcDbCircle
 10
-42.64583969116211
 20
119.3141098022461
 30
0.0
 40
3.0
100
AcDbArc
 50
183.5028028653713
 51
255.0000004932034
  0
ARC
  5
103
330
1F
100
AcDbEntity
  8
0
  6
Continuous
 62
     7
100
AcDbCircle
 10
-41.13462448120117
 20
112.6975250244141
 30
0.0
 40
3.0
100
AcDbArc
 50
3.502802965129213
 51
74.99999184178138
  0
ARC
  5
104
330
1F
100
AcDbEntity
  8
0
  6
Continuous
 62
     7
100
AcDbCircle
 10
-56.82728576660156
 20
-94.86568450927734
 30
0.0
 40
4.5
100
AcDbArc
 50
269.9999974955218
 51
350.4059252634701
  0
ARC
  5
105
330
1F
100
AcDbEntity
  8
0
  6
Continuous
 62
     7
100
AcDbCircle
 10
-42.64583969116211
 20
-94.5489730834961
 30
0.0
 40
3.0
100
AcDbArc
 50
104.9999995067966
 51
176.4971971346287
  0
ARC
  5
106
330
1F
100
AcDbEntity
  8
0
  6
Continuous
 62
     7
100
AcDbCircle
 10
-22.65213012695312
 20
-145.6156768798828
 30
0.0
 40
100.0
100
AcDbArc
 50
80.9312734755071
 51
89.999995674289
  0
ARC
  5
107
330
1F
100
AcDbEntity
  8
0
  6
Continuous
 62
     7
100
AcDbCircle
 10
-4.890230178833008
 20
-66.24068450927734
 30
0.0
 40
25.0
100
AcDbArc
 50
164.7093288159405
 51
195.2906675415938
  0
ARC
  5
108
330
1F
100
AcDbEntity
  8
0
  6
Continuous
 62
     7
100
AcDbCircle
 10
-24.1822395324707
 20
-60.96636199951172
 30
0.0
 40
5.0
100
AcDbArc
 50
113.0539946515356
 51
164.7093288159405
  0
ARC
  5
109
330
1F
100
AcDbEntity
  8
0
  6
Continuous
 62
     7
100
AcDbCircle
 10
-21.1652946472168
 20
-56.86568450927734
 30
0.0
 40
5.0
100
AcDbArc
 50
89.999995674289
 51
174.2608292758264
  0
ARC
  5
10A
330
1F
100
AcDbEntity
  8
0
  6
Continuous
 62
     7
100
AcDbCircle
 10
-19.86516952514648
 20
-56.86568450927734
 30
0.0
 40
5.0
100
AcDbArc
 50
5.739170610488057
 51
89.999995674289
  0
ARC
  5
10B
330
1F
100
AcDbEntity
  8
0
  6
Continuous
 62
     7
100
AcDbCircle
 10
-16.84822273254395
 20
-60.96636199951172
 30
0.0
 40
5.0
100
AcDbArc
 50
15.29067107037397
 51
66.9460035272316
  0
ARC
  5
10C
330
1F
100
AcDbEntity
  8
0
  6
Continuous
 62
     7
100
AcDbCircle
 10
-24.1822395324707
 20
-60.96636199951172
 30
0.0
 40
3.75
100
AcDbArc
 50
100.9082244203387
 51
164.7093288159405
  0
ARC
  5
10D
330
1F
100
AcDbEntity
  8
0
  6
Continuous
 62
     7
100
AcDbCircle
 10
-4.890230178833008
 20
-66.24068450927734
 30
0.0
 40
23.75
100
AcDbArc
 50
164.7093288159405
 51
195.2906675415938
  0
ARC
  5
10E
330
1F
100
AcDbEntity
  8
0
  6
Continuous
 62
     7
100
AcDbCircle
 10
-21.1652946472168
 20
-56.86568450927734
 30
0.0
 40
3.75
100
AcDbArc
 50
89.999995674289
 51
186.4065995070232
  0
ARC
  5
10F
330
1F
100
AcDbEntity
  8
0
  6
Continuous
 62
     7
100
AcDbCircle
 10
-19.86516952514648
 20
-56.86568450927734
 30
0.0
 40
3.75
100
AcDbArc
 50
353.5933969641966
 51
90.00000250447816
  0
ARC
  5
110
330
1F
100
AcDbEntity
  8
0
  6
Continuous
 62
     7
100
AcDbCircle
 10
-16.84822273254395
 20
-60.96636199951172
 30
0.0
 40
3.75
100
AcDbArc
 50
15.29067107037397
 51
79.09176692823927
  0
ARC
  5
111
330
1F
100
AcDbEntity
  8
0
  6
Continuous
 62
     7
100
AcDbCircle
 10
-36.14023208618164
 20
-66.24068450927734
 30
0.0
 40
23.75
100
AcDbArc
 50
8.849884645321984
 51
15.29067107037397
  0
ARC
  5
112
330
1F
100
AcDbEntity
  8
0
  6
Continuous
 62
     7
100
AcDbCircle
 10
-13.66107368469238
 20
-62.74068450927734
 30
0.0
 40
2.25
100
AcDbArc
 50
224.4270014285266
 51
8.8498812302274
  0
ARC
  5
113
330
1F
100
AcDbEntity
  8
0
  6
Continuous
 62
     7
100
AcDbCircle
 10
-13.66107368469238
 20
-62.74068450927734
 30
0.0
 40
1.0
100
AcDbArc
 50
109.452039751216
 51
8.84988612549819
  0
ARC
  5
114
330
1F
100
AcDbEntity
  8
0
  6
Continuous
 62
     7
100
AcDbCircle
 10
-14.10741233825684
 20
-63.17818450927734
 30
0.0
 40
1.625
100
AcDbArc
 50
87.26042728876439
 51
224.426997786061
  0
ARC
  5
115
330
1F
100
AcDbEntity
  8
0
  6
Continuous
 62
     7
100
AcDbCircle
 10
-14.03571891784668
 20
-61.67989349365234
 30
0.0
 40
0.125
100
AcDbArc
 50
289.4520347422596
 51
87.26044094914273
  0
ARC
  5
116
330
1F
100
AcDbEntity
  8
0
  6
Continuous
 62
     7
100
AcDbCircle
 10
-20.01523208618164
 20
-51.30174255371094
 30
0.0
 40
3.450000047683716
100
AcDbArc
 50
218.5243109666666
 51
239.9999966606958
  0
ARC
  5
117
330
1F
100
AcDbEntity
  8
0
  6
Continuous
 62
     7
100
AcDbCircle
 10
-11.39023017883301
 20
-66.24068450927734
 30
0.0
 40
3.450000047683716
100
AcDbArc
 50
110.7135688607282
 51
133.4373213614155
  0
ARC
  5
118
330
1F
100
AcDbEntity
  8
0
  6
Continuous
 62
     7
100
AcDbCircle
 10
-25.19023132324219
 20
-60.26510620117188
 30
0.0
 40
3.450000047683716
100
AcDbArc
 50
207.9747422841234
 51
239.9999966606958
  0
ARC
  5
119
330
1F
100
AcDbEntity
  8
0
  6
Continuous
 62
     7
100
AcDbCircle
 10
-23.46523284912109
 20
-57.27732086181641
 30
0.0
 40
3.450000047683716
100
AcDbArc
 50
196.4752991937065
 51
239.9999966606958
  0
ARC
  5
11A
330
1F
100
AcDbEntity
  8
0
  6
Continuous
 62
     7
100
AcDbCircle
 10
-21.74023056030273
 20
-54.28953552246094
 30
0.0
 40
3.450000047683716
100
AcDbArc
 50
207.8850072588078
 51
239.9999966606958
  0
ARC
  5
11B
330
1F
100
AcDbEntity
  8
0
  6
Continuous
 62
     7
100
AcDbCircle
 10
-23.46523284912109
 20
-63.25289154052734
 30
0.0
 40
3.450000047683716
100
AcDbArc
 50
120.0000033393042
 51
240.0000066786085
  0
ARC
  5
11C
330
1F
100
AcDbEntity
  8
0
  6
Continuous
 62
     7
100
AcDbCircle
 10
-25.19023132324219
 20
-66.24068450927734
 30
0.0
 40
3.450000047683716
100
AcDbArc
 50
120.0000033393042
 51
240.0000066786085
  0
ARC
  5
11D
330
1F
100
AcDbEntity
  8
0
  6
Continuous
 62
     7
100
AcDbCircle
 10
-21.74023056030273
 20
-60.26510620117188
 30
0.0
 40
3.450000047683716
100
AcDbArc
 50
120.0000033393042
 51
240.0000066786085
  0
ARC
  5
11E
330
1F
100
AcDbEntity
  8
0
  6
Continuous
 62
     7
100
AcDbCircle
 10
-20.01523208618164
 20
-57.27732086181641
 30
0.0
 40
3.450000047683716
100
AcDbArc
 50
120.0000033393042
 51
240.0000066786085
  0
ARC
  5
11F
330
1F
100
AcDbEntity
  8
0
  6
Continuous
 62
     7
100
AcDbCircle
 10
-18.29022789001465
 20
-54.28953552246094
 30
0.0
 40
3.450000047683716
100
AcDbArc
 50
160.4412938677613
 51
240.0000066786085
  0
ARC
  5
120
330
1F
100
AcDbEntity
  8
0
  6
Continuous
 62
     7
100
AcDbCircle
 10
-16.56522941589355
 20
-51.30174255371094
 30
0.0
 40
3.450000047683716
100
AcDbArc
 50
211.7207185532818
 51
239.9999966606958
  0
ARC
  5
121
330
1F
100
AcDbEntity
  8
0
  6
Continuous
 62
     7
100
AcDbCircle
 10
-20.01523208618164
 20
-63.25289154052734
 30
0.0
 40
3.450000047683716
100
AcDbArc
 50
120.0000033393042
 51
240.0000066786085
  0
ARC
  5
122
330
1F
100
AcDbEntity
  8
0
  6
Continuous
 62
     7
100
AcDbCircle
 10
-21.74023056030273
 20
-66.24068450927734
 30
0.0
 40
3.450000047683716
100
AcDbArc
 50
120.0000033393042
 51
240.0000066786085
  0
ARC
  5
123
330
1F
100
AcDbEntity
  8
0
  6
Continuous
 62
     7
100
AcDbCircle
 10
-18.29022789001465
 20
-60.26510620117188
 30
0.0
 40
3.450000047683716
100
AcDbArc
 50
120.0000033393042
 51
240.0000066786085
  0
ARC
  5
124
330
1F
100
AcDbEntity
  8
0
  6
Continuous
 62
     7
100
AcDbCircle
 10
-16.56522941589355
 20
-57.27732086181641
 30
0.0
 40
3.450000047683716
100
AcDbArc
 50
120.0000033393042
 51
240.0000066786085
  0
ARC
  5
125
330
1F
100
AcDbEntity
  8
0
  6
Continuous
 62
     7
100
AcDbCircle
 10
-14.84023094177246
 20
-54.28953552246094
 30
0.0
 40
3.450000047683716
100
AcDbArc
 50
166.8672587823143
 51
240.0000066786085
  0
ARC
  5
126
330
1F
100
AcDbEntity
  8
0
  6
Continuous
 62
     7
100
AcDbCircle
 10
-16.56522941589355
 20
-63.25289154052734
 30
0.0
 40
3.450000047683716
100
AcDbArc
 50
120.0000033393042
 51
240.0000066786085
  0
ARC
  5
127
330
1F
100
AcDbEntity
  8
0
  6
Continuous
 62
     7
100
AcDbCircle
 10
-18.29022789001465
 20
-66.24068450927734
 30
0.0
 40
3.450000047683716
100
AcDbArc
 50
120.0000033393042
 51
240.0000066786085
  0
ARC
  5
128
330
1F
100
AcDbEntity
  8
0
  6
Continuous
 62
     7
100
AcDbCircle
 10
-14.84023094177246
 20
-60.26510620117188
 30
0.0
 40
3.450000047683716
100
AcDbArc
 50
120.0000033393042
 51
240.0000066786085
  0
ARC
  5
129
330
1F
100
AcDbEntity
  8
0
  6
Continuous
 62
     7
100
AcDbCircle
 10
-13.1152286529541
 20
-57.27732086181641
 30
0.0
 40
3.450000047683716
100
AcDbArc
 50
155.541794270436
 51
240.0000066786085
  0
ARC
  5
12A
330
1F
100
AcDbEntity
  8
0
  6
Continuous
 62
     7
100
AcDbCircle
 10
-13.1152286529541
 20
-63.25289154052734
 30
0.0
 40
3.450000047683716
100
AcDbArc
 50
120.0000033393042
 51
240.0000066786085
  0
ARC
  5
12B
330
1F
100
AcDbEntity
  8
0
  6
Continuous
 62
     7
100
AcDbCircle
 10
-14.84023094177246
 20
-66.24068450927734
 30
0.0
 40
3.450000047683716
100
AcDbArc
 50
120.0000033393042
 51
240.0000066786085
  0
ARC
  5
12C
330
1F
100
AcDbEntity
  8
0
  6
Continuous
 62
     7
100
AcDbCircle
 10
-11.39023017883301
 20
-60.26510620117188
 30
0.0
 40
3.450000047683716
100
AcDbArc
 50
145.1063443885454
 51
203.0978059893502
  0
ARC
  5
12D
330
1F
100
AcDbEntity
  8
0
  6
Continuous
 62
     7
100
AcDbCircle
 10
-11.39023017883301
 20
-66.24068450927734
 30
0.0
 40
3.450000047683716
100
AcDbArc
 50
155.5965997083362
 51
204.4033966491981
  0
ARC
  5
12E
330
1F
100
AcDbEntity
  8
0
  6
Continuous
 62
     7
100
AcDbCircle
 10
-11.39023017883301
 20
-60.26510620117188
 30
0.0
 40
3.450000047683716
100
AcDbArc
 50
210.6487613441834
 51
239.9999966606958
  0
ARC
  5
12F
330
1F
100
AcDbEntity
  8
0
  6
Continuous
 62
     7
100
AcDbCircle
 10
-50.8692512512207
 20
-94.11568450927734
 30
0.0
 40
1.5
100
AcDbArc
 50
269.9999974955218
 51
350.4059252634701
  0
ARC
  5
130
330
1F
100
AcDbEntity
  8
0
  6
Continuous
 62
     7
100
AcDbCircle
 10
-56.82728576660156
 20
-37.61568069458008
 30
0.0
 40
4.5
100
AcDbArc
 50
9.594074736529894
 51
89.999995674289
  0
ARC
  5
131
330
1F
100
AcDbEntity
  8
0
  6
Continuous
 62
     7
100
AcDbCircle
 10
-50.8692512512207
 20
-38.36568069458008
 30
0.0
 40
1.5
100
AcDbArc
 50
9.594074736529894
 51
89.999995674289
  0
ARC
  5
132
330
1F
100
AcDbEntity
  8
0
  6
Continuous
 62
     7
100
AcDbCircle
 10
-42.64583969116211
 20
-37.93239212036133
 30
0.0
 40
3.0
100
AcDbArc
 50
183.5028028653713
 51
254.9999936630142
  0
ARC
  5
133
330
1F
100
AcDbEntity
  8
0
  6
Continuous
 62
     7
100
AcDbCircle
 10
-41.13462448120117
 20
-44.54897689819336
 30
0.0
 40
3.0
100
AcDbArc
 50
3.502802965129213
 51
74.99999867197056
  0
ARC
  5
134
330
1F
100
AcDbEntity
  8
0
  6
Continuous
 62
     7
100
AcDbCircle
 10
-41.13462448120117
 20
-87.93238830566406
 30
0.0
 40
3.0
100
AcDbArc
 50
285.0000081582186
 51
356.4971970348708
  0
ARC
  5
135
330
1F
100
AcDbEntity
  8
0
  6
Continuous
 62
     7
100
AcDbCircle
 10
-22.65213012695312
 20
13.13431644439697
 30
0.0
 40
100.0
100
AcDbArc
 50
269.9999974955218
 51
279.0687265244929
  0
ARC
  5
136
330
1F
100
AcDbEntity
  8
0
  6
Continuous
 62
     7
100
AcDbCircle
 10
-24.1822395324707
 20
-71.51499938964844
 30
0.0
 40
5.0
100
AcDbArc
 50
195.2906575236812
 51
246.9459985182753
  0
ARC
  5
137
330
1F
100
AcDbEntity
  8
0
  6
Continuous
 62
     7
100
AcDbCircle
 10
-21.1652946472168
 20
-75.61568450927734
 30
0.0
 40
5.0
100
AcDbArc
 50
185.7391707241736
 51
270.000004325711
  0
ARC
  5
138
330
1F
100
AcDbEntity
  8
0
  6
Continuous
 62
     7
100
AcDbCircle
 10
-19.86516952514648
 20
-75.61568450927734
 30
0.0
 40
5.0
100
AcDbArc
 50
269.9999974955218
 51
354.260829389512
  0
ARC
  5
139
330
1F
100
AcDbEntity
  8
0
  6
Continuous
 62
     7
100
AcDbCircle
 10
-16.84822273254395
 20
-71.51499938964844
 30
0.0
 40
5.0
100
AcDbArc
 50
293.0540033029576
 51
344.7093289296261
  0
ARC
  5
13A
330
1F
100
AcDbEntity
  8
0
  6
Continuous
 62
     7
100
AcDbCircle
 10
-36.14023208618164
 20
-66.24068450927734
 30
0.0
 40
25.0
100
AcDbArc
 50
344.7093289296261
 51
15.29066765527938
  0
ARC
  5
13B
330
1F
100
AcDbEntity
  8
0
  6
Continuous
 62
     7
100
AcDbCircle
 10
-24.1822395324707
 20
-71.51499938964844
 30
0.0
 40
3.75
100
AcDbArc
 50
195.2906575236812
 51
259.0917687494721
  0
ARC
  5
13C
330
1F
100
AcDbEntity
  8
0
  6
Continuous
 62
     7
100
AcDbCircle
 10
-21.1652946472168
 20
-75.61568450927734
 30
0.0
 40
3.75
100
AcDbArc
 50
173.5933968505111
 51
270.0000006832453
  0
ARC
  5
13D
330
1F
100
AcDbEntity
  8
0
  6
Continuous
 62
     7
100
AcDbCircle
 10
-19.86516952514648
 20
-75.61568450927734
 30
0.0
 40
3.75
100
AcDbArc
 50
269.9999974955218
 51
6.406599620708778
  0
ARC
  5
13E
330
1F
100
AcDbEntity
  8
0
  6
Continuous
 62
     7
100
AcDbCircle
 10
-16.84822273254395
 20
-71.51499938964844
 30
0.0
 40
3.75
100
AcDbArc
 50
280.9082330717607
 51
344.7093289296261
  0
ARC
  5
13F
330
1F
100
AcDbEntity
  8
0
  6
Continuous
 62
     7
100
AcDbCircle
 10
-36.14023208618164
 20
-66.24068450927734
 30
0.0
 40
23.75
100
AcDbArc
 50
344.7093289296261
 51
351.150115354678
  0
ARC
  5
140
330
1F
100
AcDbEntity
  8
0
  6
Continuous
 62
     7
100
AcDbCircle
 10
-13.66107368469238
 20
-69.74068450927734
 30
0.0
 40
2.25
100
AcDbArc
 50
351.150115354678
 51
135.572984911095
  0
ARC
  5
141
330
1F
100
AcDbEntity
  8
0
  6
Continuous
 62
     7
100
AcDbCircle
 10
-13.66107368469238
 20
-69.74068450927734
 30
0.0
 40
1.0
100
AcDbArc
 50
351.150115354678
 51
250.5479770968859
  0
ARC
  5
142
330
1F
100
AcDbEntity
  8
0
  6
Continuous
 62
     7
100
AcDbCircle
 10
-14.10741233825684
 20
-69.30318450927734
 30
0.0
 40
1.625
100
AcDbArc
 50
135.5729985714734
 51
272.7395622385808
  0
ARC
  5
143
330
1F
100
AcDbEntity
  8
0
  6
Continuous
 62
     7
100
AcDbCircle
 10
-14.03571891784668
 20
-70.80146789550781
 30
0.0
 40
0.125
100
AcDbArc
 50
272.7395727112356
 51
70.54795159736202
  0
ARC
  5
144
330
1F
100
AcDbEntity
  8
0
  6
Continuous
 62
     7
100
AcDbCircle
 10
-20.01523208618164
 20
-81.17961883544922
 30
0.0
 40
3.450000047683716
100
AcDbArc
 50
120.0000033393042
 51
141.4756890333334
  0
ARC
  5
145
330
1F
100
AcDbEntity
  8
0
  6
Continuous
 62
     7
100
AcDbCircle
 10
-11.39023017883301
 20
-66.24068450927734
 30
0.0
 40
3.450000047683716
100
AcDbArc
 50
226.5626786385846
 51
249.2864311392718
  0
ARC
  5
146
330
1F
100
AcDbEntity
  8
0
  6
Continuous
 62
     7
100
AcDbCircle
 10
-25.19023132324219
 20
-72.21625518798828
 30
0.0
 40
3.450000047683716
100
AcDbArc
 50
120.0000033393042
 51
152.0252577158766
  0
ARC
  5
147
330
1F
100
AcDbEntity
  8
0
  6
Continuous
 62
     7
100
AcDbCircle
 10
-23.46523284912109
 20
-75.20404815673828
 30
0.0
 40
3.450000047683716
100
AcDbArc
 50
120.0000033393042
 51
163.5247008062935
  0
ARC
  5
148
330
1F
100
AcDbEntity
  8
0
  6
Continuous
 62
     7
100
AcDbCircle
 10
-21.74023056030273
 20
-78.19183349609375
 30
0.0
 40
3.450000047683716
100
AcDbArc
 50
120.0000033393042
 51
152.1149927411922
  0
ARC
  5
149
330
1F
100
AcDbEntity
  8
0
  6
Continuous
 62
     7
100
AcDbCircle
 10
-23.46523284912109
 20
-69.22846984863281
 30
0.0
 40
3.450000047683716
100
AcDbArc
 50
120.0000033393042
 51
240.0000066786085
  0
ARC
  5
14A
330
1F
100
AcDbEntity
  8
0
  6
Continuous
 62
     7
100
AcDbCircle
 10
-21.74023056030273
 20
-72.21625518798828
 30
0.0
 40
3.450000047683716
100
AcDbArc
 50
120.0000033393042
 51
240.0000066786085
  0
ARC
  5
14B
330
1F
100
AcDbEntity
  8
0
  6
Continuous
 62
     7
100
AcDbCircle
 10
-20.01523208618164
 20
-75.20404815673828
 30
0.0
 40
3.450000047683716
100
AcDbArc
 50
120.0000033393042
 51
240.0000066786085
  0
ARC
  5
14C
330
1F
100
AcDbEntity
  8
0
  6
Continuous
 62
     7
100
AcDbCircle
 10
-18.29022789001465
 20
-78.19183349609375
 30
0.0
 40
3.450000047683716
100
AcDbArc
 50
120.0000033393042
 51
199.5587024897731
  0
ARC
  5
14D
330
1F
100
AcDbEntity
  8
0
  6
Continuous
 62
     7
100
AcDbCircle
 10
-16.56522941589355
 20
-81.17961883544922
 30
0.0
 40
3.450000047683716
100
AcDbArc
 50
120.0000033393042
 51
148.2792814467181
  0
ARC
  5
14E
330
1F
100
AcDbEntity
  8
0
  6
Continuous
 62
     7
100
AcDbCircle
 10
-20.01523208618164
 20
-69.22846984863281
 30
0.0
 40
3.450000047683716
100
AcDbArc
 50
120.0000033393042
 51
240.0000066786085
  0
ARC
  5
14F
330
1F
100
AcDbEntity
  8
0
  6
Continuous
 62
     7
100
AcDbCircle
 10
-18.29022789001465
 20
-72.21625518798828
 30
0.0
 40
3.450000047683716
100
AcDbArc
 50
120.0000033393042
 51
240.0000066786085
  0
ARC
  5
150
330
1F
100
AcDbEntity
  8
0
  6
Continuous
 62
     7
100
AcDbCircle
 10
-16.56522941589355
 20
-75.20404815673828
 30
0.0
 40
3.450000047683716
100
AcDbArc
 50
120.0000033393042
 51
240.0000066786085
  0
ARC
  5
151
330
1F
100
AcDbEntity
  8
0
  6
Continuous
 62
     7
100
AcDbCircle
 10
-14.84023094177246
 20
-78.19183349609375
 30
0.0
 40
3.450000047683716
100
AcDbArc
 50
120.0000033393042
 51
193.13273757522
  0
ARC
  5
152
330
1F
100
AcDbEntity
  8
0
  6
Continuous
 62
     7
100
AcDbCircle
 10
-16.56522941589355
 20
-69.22846984863281
 30
0.0
 40
3.450000047683716
100
AcDbArc
 50
120.0000033393042
 51
240.0000066786085
  0
ARC
  5
153
330
1F
100
AcDbEntity
  8
0
  6
Continuous
 62
     7
100
AcDbCircle
 10
-14.84023094177246
 20
-72.21625518798828
 30
0.0
 40
3.450000047683716
100
AcDbArc
 50
120.0000033393042
 51
240.0000066786085
  0
ARC
  5
154
330
1F
100
AcDbEntity
  8
0
  6
Continuous
 62
     7
100
AcDbCircle
 10
-13.1152286529541
 20
-75.20404815673828
 30
0.0
 40
3.450000047683716
100
AcDbArc
 50
120.0000033393042
 51
204.4582020870983
  0
ARC
  5
155
330
1F
100
AcDbEntity
  8
0
  6
Continuous
 62
     7
100
AcDbCircle
 10
-13.1152286529541
 20
-69.22846984863281
 30
0.0
 40
3.450000047683716
100
AcDbArc
 50
120.0000033393042
 51
240.0000066786085
  0
ARC
  5
156
330
1F
100
AcDbEntity
  8
0
  6
Continuous
 62
     7
100
AcDbCircle
 10
-11.39023017883301
 20
-72.21625518798828
 30
0.0
 40
3.450000047683716
100
AcDbArc
 50
156.9021903681841
 51
214.8936519689889
  0
ARC
  5
157
330
1F
100
AcDbEntity
  8
0
  6
Continuous
 62
     7
100
AcDbCircle
 10
-11.39023017883301
 20
-72.21625518798828
 30
0.0
 40
3.450000047683716
100
AcDbArc
 50
120.0000033393042
 51
149.3512386558166
  0
ARC
  5
158
330
1F
100
AcDbEntity
  8
0
  6
Continuous
 62
     7
100
AcDbCircle
 10
-3.515230178833008
 20
-79.60004425048828
 30
0.0
 40
3.765640735626221
100
AcDbArc
 50
240.1372971233914
 51
299.8627046978415
  0
ARC
  5
159
330
1F
100
AcDbEntity
  8
0
  6
Continuous
 62
     7
100
AcDbCircle
 10
-3.515230178833008
 20
-52.88132476806641
 30
0.0
 40
3.765638828277588
100
AcDbArc
 50
60.13728164178021
 51
119.862716536987
  0
ARC
  5
15A
330
1F
100
AcDbEntity
  8
0
  6
Continuous
 62
     7
100
AcDbCircle
 10
13.46284294128418
 20
-28.74068450927734
 30
0.0
 40
25.0
100
AcDbArc
 50
241.0449746225727
 51
270.000004325711
  0
ARC
  5
15B
330
1F
100
AcDbEntity
  8
0
  6
Continuous
 62
     7
100
AcDbCircle
 10
13.46284294128418
 20
-103.7406845092773
 30
0.0
 40
25.0
100
AcDbArc
 50
89.999995674289
 51
118.9550253774273
  0
ARC
  5
15C
330
1F
100
AcDbEntity
  8
0
  6
Continuous
 62
     7
100
AcDbCircle
 10
32.51064300537109
 20
-55.49068450927734
 30
0.0
 40
1.75
100
AcDbArc
 50
359.9999949910447
 51
89.999995674289
  0
ARC
  5
15D
330
1F
100
AcDbEntity
  8
0
  6
Continuous
 62
     7
100
AcDbCircle
 10
32.51064300537109
 20
-76.99068450927734
 30
0.0
 40
1.75
100
AcDbArc
 50
270.000004325711
 51
0.000005008956131
  0
ARC
  5
15E
330
1F
100
AcDbEntity
  8
0
  6
Continuous
 62
     7
100
AcDbCircle
 10
13.46284294128418
 20
-28.74068450927734
 30
0.0
 40
26.75
100
AcDbArc
 50
243.0989354494006
 51
270.000004325711
  0
ARC
  5
15F
330
1F
100
AcDbEntity
  8
0
  6
Continuous
 62
     7
100
AcDbCircle
 10
13.46284294128418
 20
-103.7406845092773
 30
0.0
 40
26.75
100
AcDbArc
 50
89.999995674289
 51
116.9010645505994
  0
ARC
  5
160
330
1F
100
AcDbEntity
  8
0
  6
Continuous
 62
     7
100
AcDbCircle
 10
-33.64023208618164
 20
109.3808364868164
 30
0.0
 40
0.75
100
AcDbArc
 50
89.999995674289
 51
180.0000050089563
  0
ARC
  5
161
330
1F
100
AcDbEntity
  8
0
  6
Continuous
 62
     7
100
AcDbCircle
 10
-32.76523208618164
 20
109.2558364868164
 30
0.0
 40
0.8750000596046448
100
AcDbArc
 50
359.9999913485778
 51
90.00000250447816
  0
ARC
  5
162
330
1F
100
AcDbEntity
  8
0
  6
Continuous
 62
     7
100
AcDbCircle
 10
-35.39023208618164
 20
93.00582885742188
 30
0.0
 40
15.50000095367432
100
AcDbArc
 50
283.0503033388818
 51
76.94969666111821
  0
ARC
  5
163
330
1F
100
AcDbEntity
  8
0
  6
Continuous
 62
     7
100
AcDbCircle
 10
-32.76523208618164
 20
76.75582885742188
 30
0.0
 40
0.8750000596046448
100
AcDbArc
 50
270.0000111559002
 51
359.9999913485778
  0
ARC
  5
164
330
1F
100
AcDbEntity
  8
0
  6
Continuous
 62
     7
100
AcDbCircle
 10
-33.64023208618164
 20
76.63082885742188
 30
0.0
 40
0.75
100
AcDbArc
 50
180.000008651422
 51
270.000004325711
  0
DIMENSION
  5
165
330
1F
100
AcDbEntity
  8
0
 62
     7
100
AcDbDimension
  2
*D2
 10
1.621147003879813
 20
80.68124782607589
 30
0.0
 11
6.93538196182251
 21
75.0387197265625
 31
0.0
 70
   165
  1
100°
 71
     5
 42
1.745329256935454
  3
ISO-25
100
AcDb3PointAngularDimension
 13
-7.011018753051758
 23
93.00582885742188
 33
0.0
 14
27.40504550891414
 24
53.05004192508152
 34
0.0
 15
20.35976203373909
 25
93.00582885742188
 35
0.0
1001
ACAD
1000
DSTYLE
1002
{
1070
   178
1070
     1
1070
   278
1070
    46
1070
   275
1070
     1
1070
   147
1040
0.800000011920929
1070
    77
1070
     1
1070
    74
1070
     0
1070
    73
1070
     0
1070
    42
1040
2.54
1070
    44
1040
1.500002807075455
1070
    76
1070
     1
1070
    75
1070
     1
1070
   279
1070
     0
1070
   179
1070
     0
1070
   173
1070
     1
1070
    41
1040
3.0
1070
   140
1040
3.200000047683716
1070
   344
1005
166
1070
   343
1005
166
1002
}
  0
DIMENSION
  5
17F
330
1F
100
AcDbEntity
  8
0
 62
     7
100
AcDbDimension
  2
*D3
 10
-71.35068402099607
 20
93.00581359863281
 30
0.0
 11
-71.35068402099608
 21
108.8193135986328
 31
0.0
 70
   160
  1
126.5
 71
     5
 42
31.62500000000001
  3
ISO-25
100
AcDbAlignedDimension
 13
-59.39022827148438
 23
124.6308135986328
 33
0.0
 14
-39.61335372924805
 24
93.00581359863281
 34
0.0
 50
90.00000000000001
100
AcDbRotatedDimension
1001
ACAD
1000
DSTYLE
1002
{
1070
   178
1070
     1
1070
   278
1070
    46
1070
   147
1040
0.800000011920929
1070
    77
1070
     1
1070
    74
1070
     0
1070
    73
1070
     0
1070
    42
1040
2.54
1070
    44
1040
1.5
1070
    76
1070
     0
1070
    75
1070
     0
1070
   279
1070
     0
1070
   271
1070
     1
1070
   173
1070
     1
1070
    41
1040
3.0
1070
   140
1040
3.200000047683716
1070
   344
1005
166
1070
   343
1005
166
1002
}
  0
DIMENSION
  5
18C
330
1F
100
AcDbEntity
  8
0
 62
     7
100
AcDbDimension
  2
*D4
 10
-71.35068402099607
 20
73.63081359863281
 30
0.0
 11
-71.35068402099608
 21
83.31931359863282
 31
0.0
 70
   160
  1
77.5
 71
     5
 42
19.37500000000001
  3
ISO-25
100
AcDbAlignedDimension
 13
-62.11028289794922
 23
93.00581359863281
 33
0.0
 14
-38.14023208618164
 24
73.63081359863281
 34
0.0
 50
90.00000000000001
100
AcDbRotatedDimension
1001
ACAD
1000
DSTYLE
1002
{
1070
   178
1070
     1
1070
   278
1070
    46
1070
   147
1040
0.800000011920929
1070
    77
1070
     1
1070
    74
1070
     0
1070
    73
1070
     0
1070
    42
1040
2.54
1070
    44
1040
1.5
1070
    76
1070
     0
1070
    75
1070
     1
1070
   279
1070
     0
1070
   271
1070
     1
1070
   173
1070
     1
1070
    41
1040
3.0
1070
   140
1040
3.200000047683716
1070
   344
1005
166
1070
   343
1005
166
1002
}
  0
DIMENSION
  5
198
330
1F
100
AcDbEntity
  8
0
 62
     7
100
AcDbDimension
  2
*D5
 10
-12.99684660339355
 20
112.6475020420391
 30
0.0
 11
-12.99684660339356
 21
97.39907891845704
 31
0.0
 70
   160
  1
122
 71
     5
 42
30.50000658126778
 52
-120.0
  3
ISO-25
100
AcDbAlignedDimension
 13
-5.390229117825363
 23
77.75581302037634
 33
0.0
 14
-5.390229485921289
 24
108.2558196016441
 34
0.0
 50
270.0
100
AcDbRotatedDimension
1001
ACAD
1000
DSTYLE
1002
{
1070
   178
1070
     1
1070
   278
1070
    46
1070
   147
1040
0.800000011920929
1070
    77
1070
     1
1070
    74
1070
     0
1070
    73
1070
     0
1070
    42
1040
2.54
1070
    44
1040
1.732047609479523
1070
    76
1070
     0
1070
    75
1070
     0
1070
   279
1070
     0
1070
   271
1070
     0
1070
   173
1070
     1
1070
    41
1040
3.0
1070
   140
1040
3.200000047683716
1070
   344
1005
166
1070
   343
1005
166
1002
}
  0
DIMENSION
  5
1AD
330
1F
100
AcDbEntity
  8
0
 62
     7
100
AcDbDimension
  2
*D6
 10
-71.35068402099607
 20
-99.86568450927734
 30
0.0
 11
-71.35068402099608
 21
-66.23968450927734
 31
0.0
 70
   160
  1
269
 71
     5
 42
67.25
  3
ISO-25
100
AcDbAlignedDimension
 13
-59.39022827148438
 23
-32.61568450927734
 33
0.0
 14
-59.39022827148438
 24
-99.86568450927734
 34
0.0
 50
90.00000000000001
100
AcDbRotatedDimension
1001
ACAD
1000
DSTYLE
1002
{
1070
   178
1070
     1
1070
   278
1070
    46
1070
   147
1040
0.800000011920929
1070
    77
1070
     1
1070
    74
1070
     0
1070
    73
1070
     0
1070
    42
1040
2.54
1070
    44
1040
1.5
1070
    76
1070
     0
1070
    75
1070
     0
1070
   279
1070
     0
1070
   271
1070
     0
1070
   173
1070
     1
1070
    41
1040
3.0
1070
   140
1040
3.200000047683716
1070
   344
1005
166
1070
   343
1005
166
1002
}
  0
DIMENSION
  5
1BA
330
1F
100
AcDbEntity
  8
0
 62
     7
100
AcDbDimension
  2
*D7
 10
89.56405621268402
 20
-102.5318794547642
 30
0.0
 11
89.56405639648438
 21
-109.8183817138672
 31
0.0
 70
   161
  1
\U+220558
 71
     5
 42
14.57499604689985
 52
-100.0
  3
ISO-25
100
AcDbAlignedDimension
 13
75.94875349951751
 23
-114.7061305721138
 33
0.0
 14
75.94875313186654
 24
-100.131134525214
 34
0.0
1001
ACAD
1000
DSTYLE
1002
{
1070
   178
1070
     1
1070
   278
1070
    46
1070
   147
1040
0.800000011920929
1070
    77
1070
     1
1070
    74
1070
     0
1070
    73
1070
     0
1070
    42
1040
2.54
1070
    44
1040
1.523131319381649
1070
    76
1070
     0
1070
    75
1070
     0
1070
   279
1070
     0
1070
   271
1070
     0
1070
   173
1070
     1
1070
    41
1040
3.0
1070
   140
1040
3.200000047683716
1070
   344
1005
166
1070
   343
1005
166
1002
}
  0
DIMENSION
  5
1CF
330
1F
100
AcDbEntity
  8
0
 62
     7
100
AcDbDimension
  2
*D8
 10
46.38049934963772
 20
-80.61374367672862
 30
0.0
 11
57.37668338012695
 21
-78.67481994628906
 31
0.0
 70
   161
  1
80
 71
     5
 42
19.99999859515555
 52
-60.00000000000001
  3
ISO-25
100
AcDbAlignedDimension
 13
73.49866970774485
 23
-85.9859959999002
 33
0.0
 14
53.80251597005552
 24
-89.45895896364321
 34
0.0
1001
ACAD
1000
DSTYLE
1002
{
1070
   178
1070
     1
1070
   278
1070
    46
1070
   147
1040
0.800000011920929
1070
    77
1070
     1
1070
    74
1070
     0
1070
    73
1070
     0
1070
    42
1040
2.54
1070
    44
1040
1.732049981880994
1070
    76
1070
     0
1070
    75
1070
     0
1070
   279
1070
     0
1070
   271
1070
     0
1070
   173
1070
     1
1070
    41
1040
3.0
1070
   140
1040
3.200000047683716
1070
   344
1005
166
1070
   343
1005
166
1002
}
  0
DIMENSION
  5
1E4
330
1F
100
AcDbEntity
  8
0
 62
     7
100
AcDbDimension
  2
*D9
 10
34.96598655574103
 20
10.16981566598195
 30
0.0
 11
40.5074702758789
 21
11.14692878723145
 31
0.0
 70
   161
  1
45
 71
     5
 42
11.25000000000001
  3
ISO-25
100
AcDbAlignedDimension
 13
47.78149533174024
 23
2.275621955410429
 33
0.0
 14
36.70240812000559
 24
0.322079901914316
 34
0.0
1001
ACAD
1000
DSTYLE
1002
{
1070
   178
1070
     1
1070
   278
1070
    46
1070
   147
1040
0.800000011920929
1070
    77
1070
     1
1070
    74
1070
     0
1070
    73
1070
     0
1070
    42
1040
2.54
1070
    44
1040
0.0
1070
    76
1070
     1
1070
    75
1070
     1
1070
   279
1070
     0
1070
   271
1070
     0
1070
   173
1070
     1
1070
    41
1040
3.0
1070
   140
1040
3.200000047683716
1070
   344
1005
166
1070
   343
1005
166
1002
}
  0
DIMENSION
  5
1F0
330
1F
100
AcDbEntity
  8
0
 62
     7
100
AcDbDimension
  2
*D10
 10
34.65924148680035
 20
-14.13822405959012
 30
0.0
 11
45.53644671630859
 21
-12.22027914428711
 31
0.0
 70
   161
  1
80
 71
     5
 42
19.9999991113469
 52
-120.0
  3
ISO-25
100
AcDbAlignedDimension
 13
58.30445140101821
 23
0.184681674447472
 33
0.0
 14
38.60829726505028
 24
-3.288282003172871
 34
0.0
1001
ACAD
1000
DSTYLE
1002
{
1070
   178
1070
     1
1070
   278
1070
    46
1070
   147
1040
0.800000011920929
1070
    77
1070
     1
1070
    74
1070
     0
1070
    73
1070
     0
1070
    42
1040
2.54
1070
    44
1040
1.732053234232004
1070
    76
1070
     0
1070
    75
1070
     0
1070
   279
1070
     0
1070
   271
1070
     0
1070
   173
1070
     1
1070
    41
1040
3.0
1070
   140
1040
3.200000047683716
1070
   344
1005
166
1070
   343
1005
166
1002
}
  0
DIMENSION
  5
205
330
1F
100
AcDbEntity
  8
0
 62
     7
100
AcDbDimension
  2
*D11
 10
18.0668218441464
 20
15.17588355537441
 30
0.0
 11
29.20185771179199
 21
17.13929040527344
 31
0.0
 70
   161
  1
80
 71
     5
 42
20.00000845185119
 52
-120.0
  3
ISO-25
100
AcDbAlignedDimension
 13
41.71204255923243
 23
29.49879220179542
 33
0.0
 14
22.01587905311473
 24
26.02582787511475
 34
0.0
1001
ACAD
1000
DSTYLE
1002
{
1070
   178
1070
     1
1070
   278
1070
    46
1070
   147
1040
0.800000011920929
1070
    77
1070
     1
1070
    74
1070
     0
1070
    73
1070
     0
1070
    42
1040
2.54
1070
    44
1040
1.732050085710463
1070
    76
1070
     0
1070
    75
1070
     0
1070
   279
1070
     0
1070
   271
1070
     0
1070
   173
1070
     1
1070
    41
1040
3.0
1070
   140
1040
3.200000047683716
1070
   344
1005
166
1070
   343
1005
166
1002
}
  0
DIMENSION
  5
21A
330
1F
100
AcDbEntity
  8
0
 62
     7
100
AcDbDimension
  2
*D12
 10
9.204138287557386
 20
67.08608506786531
 30
0.0
 11
18.19348635864258
 21
68.67115075683594
 31
0.0
 70
   161
  1
90
 71
     5
 42
22.50001024811836
 52
-120.0
  3
ISO-25
100
AcDbAlignedDimension
 13
34.26064465261896
 23
78.95625137788797
 33
0.0
 14
12.10246057480193
 24
75.04916300686189
 34
0.0
1001
ACAD
1000
DSTYLE
1002
{
1070
   178
1070
     1
1070
   278
1070
    46
1070
   147
1040
0.800000011920929
1070
    77
1070
     1
1070
    74
1070
     0
1070
    73
1070
     0
1070
    42
1040
2.54
1070
    44
1040
1.73206002303426
1070
    76
1070
     0
1070
    75
1070
     0
1070
   279
1070
     0
1070
   271
1070
     0
1070
   173
1070
     1
1070
    41
1040
3.0
1070
   140
1040
3.200000047683716
1070
   344
1005
166
1070
   343
1005
166
1002
}
  0
DIMENSION
  5
22F
330
1F
100
AcDbEntity
  8
0
 62
     7
100
AcDbDimension
  2
*D13
 10
83.35207311893984
 20
-84.27928109223966
 30
0.0
 11
84.57695007324219
 21
-91.35087530517578
 31
0.0
 70
   161
  1
57
 71
     5
 42
14.35576629638672
  3
ISO-25
100
AcDbAlignedDimension
 13
75.9487596523704
 23
-100.1311411461606
 33
0.0
 14
73.49866717606294
 24
-85.98599806402764
 34
0.0
1001
ACAD
1000
DSTYLE
1002
{
1070
   178
1070
     1
1070
   278
1070
    46
1070
   147
1040
0.800000011920929
1070
    77
1070
     1
1070
    74
1070
     0
1070
    73
1070
     0
1070
    42
1040
2.54
1070
    44
1040
1.500000000000003
1070
    76
1070
     1
1070
    75
1070
     0
1070
   279
1070
     0
1070
   271
1070
     0
1070
   173
1070
     1
1070
    41
1040
3.0
1070
   140
1040
3.200000047683716
1070
   344
1005
166
1070
   343
1005
166
1002
}
  0
DIMENSION
  5
23C
330
1F
100
AcDbEntity
  8
0
 62
     7
100
AcDbDimension
  2
*D14
 10
83.34682780678202
 20
-84.24949522049428
 30
0.0
 11
75.74954986572266
 21
-41.16319219970703
 31
0.0
 70
   161
  1
350
 71
     5
 42
87.49999618530273
  3
ISO-25
100
AcDbAlignedDimension
 13
58.30445049102355
 23
0.184682613939509
 33
0.0
 14
73.49866580024474
 24
-85.98599194280874
 34
0.0
1001
ACAD
1000
DSTYLE
1002
{
1070
   178
1070
     1
1070
   278
1070
    46
1070
   147
1040
0.800000011920929
1070
    77
1070
     1
1070
    74
1070
     0
1070
    73
1070
     0
1070
    42
1040
2.54
1070
    44
1040
1.500000000000004
1070
    76
1070
     0
1070
    75
1070
     0
1070
   279
1070
     0
1070
   271
1070
     0
1070
   173
1070
     1
1070
    41
1040
3.0
1070
   140
1040
3.200000047683716
1070
   344
1005
166
1070
   343
1005
166
1002
}
  0
DIMENSION
  5
24A
330
1F
100
AcDbEntity
  8
0
 62
     7
100
AcDbDimension
  2
*D15
 10
62.6392731762373
 20
33.18882766102121
 30
0.0
 11
65.39576721191406
 21
17.55597360229492
 31
0.0
 70
   160
  1
127
 71
     5
 42
31.75000381469727
  3
ISO-25
100
AcDbAlignedDimension
 13
58.30445049102355
 23
0.184682613939509
 33
0.0
 14
41.7120328214513
 24
29.4987904480824
 34
0.0
 50
280.0000002831056
100
AcDbRotatedDimension
1001
ACAD
1000
DSTYLE
1002
{
1070
   178
1070
     1
1070
   278
1070
    46
1070
   147
1040
0.800000011920929
1070
    77
1070
     1
1070
    74
1070
     0
1070
    73
1070
     0
1070
    42
1040
2.54
1070
    44
1040
1.500000000000001
1070
    76
1070
     0
1070
    75
1070
     1
1070
   279
1070
     0
1070
   271
1070
     0
1070
   173
1070
     1
1070
    41
1040
3.0
1070
   140
1040
3.200000047683716
1070
   344
1005
166
1070
   343
1005
166
1002
}
  0
DIMENSION
  5
257
330
1F
100
AcDbEntity
  8
0
 62
     7
100
AcDbDimension
  2
*D16
 10
53.95686667837488
 20
82.42922347934706
 30
0.0
 11
58.29790115356445
 21
57.80999429321289
 31
0.0
 70
   160
  1
200
 71
     5
 42
50.00000762939452
  3
ISO-25
100
AcDbAlignedDimension
 13
41.7120328214513
 23
29.4987904480824
 33
0.0
 14
34.26063206016416
 24
78.95624579744504
 34
0.0
 50
280.0000002831056
100
AcDbRotatedDimension
1001
ACAD
1000
DSTYLE
1002
{
1070
   178
1070
     1
1070
   278
1070
    46
1070
   147
1040
0.800000011920929
1070
    77
1070
     1
1070
    74
1070
     0
1070
    73
1070
     0
1070
    42
1040
2.54
1070
    44
1040
1.500000000000004
1070
    76
1070
     0
1070
    75
1070
     1
1070
   279
1070
     0
1070
   271
1070
     0
1070
   173
1070
     1
1070
    41
1040
3.0
1070
   140
1040
3.200000047683716
1070
   344
1005
166
1070
   343
1005
166
1002
}
  0
DIMENSION
  5
264
330
1F
100
AcDbEntity
  8
0
 62
     7
100
AcDbDimension
  2
*D17
 10
51.13508488639128
 20
98.43235740598209
 30
0.0
 11
52.54580688476562
 21
90.43175561523438
 31
0.0
 70
   160
  1
65
 71
     5
 42
16.25000762939453
  3
ISO-25
100
AcDbAlignedDimension
 13
34.26063206016416
 23
78.95624579744504
 33
0.0
 14
20.35976055743796
 24
93.0058372299414
 34
0.0
 50
280.0000002831056
100
AcDbRotatedDimension
1001
ACAD
1000
DSTYLE
1002
{
1070
   178
1070
     1
1070
   278
1070
    46
1070
   147
1040
0.800000011920929
1070
    77
1070
     1
1070
    74
1070
     0
1070
    73
1070
     0
1070
    42
1040
2.54
1070
    44
1040
1.500000000000004
1070
    76
1070
     0
1070
    75
1070
     1
1070
   279
1070
     0
1070
   271
1070
     0
1070
   173
1070
     1
1070
    41
1040
3.0
1070
   140
1040
3.200000047683716
1070
   344
1005
166
1070
   343
1005
166
1002
}
  0
DIMENSION
  5
271
330
1F
100
AcDbEntity
  8
0
 62
     7
100
AcDbDimension
  2
*D18
 10
-38.14023208618164
 20
132.1308135986328
 30
0.0
 11
-48.76423208618164
 21
132.1308135986328
 31
0.0
 70
   160
  1
85
 71
     5
 42
21.24999618530273
  3
ISO-25
100
AcDbAlignedDimension
 13
-59.39022827148438
 23
124.6308135986328
 33
0.0
 14
-38.14023208618164
 24
112.8808135986328
 34
0.0
 50
180.0
100
AcDbRotatedDimension
1001
ACAD
1000
DSTYLE
1002
{
1070
   178
1070
     1
1070
   278
1070
    46
1070
   147
1040
0.800000011920929
1070
    77
1070
     1
1070
    74
1070
     0
1070
    73
1070
     0
1070
    42
1040
2.54
1070
    44
1040
1.5
1070
    76
1070
     0
1070
    75
1070
     0
1070
   279
1070
     0
1070
   271
1070
     0
1070
   173
1070
     1
1070
    41
1040
3.0
1070
   140
1040
3.200000047683716
1070
   344
1005
166
1070
   343
1005
166
1002
}
  0
DIMENSION
  5
27F
330
1F
100
AcDbEntity
  8
0
 62
     7
100
AcDbDimension
  2
*D19
 10
-34.39023208618164
 20
132.1308135986328
 30
0.0
 11
-36.26423208618164
 21
132.1308135986328
 31
0.0
 70
   160
  1
15
 71
     5
 42
3.75
  3
ISO-25
100
AcDbAlignedDimension
 13
-38.14023208618164
 23
112.8808135986328
 33
0.0
 14
-34.39023208618164
 24
112.8808135986328
 34
0.0
 50
180.0
100
AcDbRotatedDimension
1001
ACAD
1000
DSTYLE
1002
{
1070
   178
1070
     1
1070
   278
1070
    46
1070
   147
1040
0.800000011920929
1070
    77
1070
     1
1070
    74
1070
     0
1070
    73
1070
     0
1070
    42
1040
2.54
1070
    44
1040
1.5
1070
    76
1070
     0
1070
    75
1070
     1
1070
   279
1070
     0
1070
   271
1070
     0
1070
   173
1070
     1
1070
    41
1040
3.0
1070
   140
1040
3.200000047683716
1070
   344
1005
166
1070
   343
1005
166
1002
}
  0
DIMENSION
  5
294
330
1F
100
AcDbEntity
  8
0
 62
     7
100
AcDbDimension
  2
*D20
 10
-5.390230178833008
 20
132.1308135986328
 30
0.0
 11
-19.88923208618164
 21
132.1308135986328
 31
0.0
 70
   160
  1
116
 71
     5
 42
29.00000190734863
  3
ISO-25
100
AcDbAlignedDimension
 13
-34.39023208618164
 23
112.8808135986328
 33
0.0
 14
-5.390230178833008
 24
108.2558212280273
 34
0.0
 50
180.0
100
AcDbRotatedDimension
1001
ACAD
1000
DSTYLE
1002
{
1070
   178
1070
     1
1070
   278
1070
    46
1070
   147
1040
0.800000011920929
1070
    77
1070
     1
1070
    74
1070
     0
1070
    73
1070
     0
1070
    42
1040
2.54
1070
    44
1040
1.5
1070
    76
1070
     1
1070
    75
1070
     1
1070
   279
1070
     0
1070
   271
1070
     0
1070
   173
1070
     1
1070
    41
1040
3.0
1070
   140
1040
3.200000047683716
1070
   344
1005
166
1070
   343
1005
166
1002
}
  0
DIMENSION
  5
2A0
330
1F
100
AcDbEntity
  8
0
 62
     7
100
AcDbDimension
  2
*D21
 10
-5.390230178833008
 20
132.1308135986328
 30
0.0
 11
-3.513230178833008
 21
132.1308135986328
 31
0.0
 70
   160
  1
15
 71
     5
 42
3.75
  3
ISO-25
100
AcDbAlignedDimension
 13
-1.640230178833008
 23
108.2558288574219
 33
0.0
 14
-5.390230178833008
 24
108.2558212280273
 34
0.0
100
AcDbRotatedDimension
1001
ACAD
1000
DSTYLE
1002
{
1070
   178
1070
     1
1070
   278
1070
    46
1070
   147
1040
0.800000011920929
1070
    77
1070
     1
1070
    74
1070
     0
1070
    73
1070
     0
1070
    42
1040
2.54
1070
    44
1040
1.5
1070
    76
1070
     0
1070
    75
1070
     0
1070
   279
1070
     0
1070
   271
1070
     0
1070
   173
1070
     1
1070
    41
1040
3.0
1070
   140
1040
3.200000047683716
1070
   344
1005
166
1070
   343
1005
166
1002
}
  0
DIMENSION
  5
2B7
330
1F
100
AcDbEntity
  8
0
 62
     7
100
AcDbDimension
  2
*D22
 10
20.35976219177247
 20
132.1308135986328
 30
0.0
 11
9.360766006469726
 21
132.1308135986328
 31
0.0
 70
   160
  1
88
 71
     5
 42
21.99999237060547
  3
ISO-25
100
AcDbAlignedDimension
 13
-1.640230178833008
 23
108.2558288574219
 33
0.0
 14
20.35976219177246
 24
93.00582885742188
 34
0.0
 50
180.0
100
AcDbRotatedDimension
1001
ACAD
1000
DSTYLE
1002
{
1070
   178
1070
     1
1070
   278
1070
    46
1070
   147
1040
0.800000011920929
1070
    77
1070
     1
1070
    74
1070
     0
1070
    73
1070
     0
1070
    42
1040
2.54
1070
    44
1040
1.5
1070
    76
1070
     0
1070
    75
1070
     1
1070
   279
1070
     0
1070
   271
1070
     0
1070
   173
1070
     1
1070
    41
1040
3.0
1070
   140
1040
3.200000047683716
1070
   344
1005
166
1070
   343
1005
166
1002
}
  0
DIMENSION
  5
2C4
330
1F
100
AcDbEntity
  8
0
 62
     7
100
AcDbDimension
  2
*D23
 10
-18.48937606811523
 20
117.6682541021907
 30
0.0
 11
-18.48937606811523
 21
106.5421224365234
 31
0.0
 70
   160
  1
151
 71
     5
 42
37.74999961493002
 52
-70.00000000000001
  3
ISO-25
100
AcDbAlignedDimension
 13
-34.39023169475377
 23
74.13081593856329
 33
0.0
 14
-34.39023279714263
 24
111.8808155534933
 34
0.0
 50
270.0
100
AcDbRotatedDimension
1001
ACAD
1000
DSTYLE
1002
{
1070
   178
1070
     1
1070
   278
1070
    46
1070
   147
1040
0.800000011920929
1070
    77
1070
     1
1070
    74
1070
     0
1070
    73
1070
     0
1070
    42
1040
2.54
1070
    44
1040
1.596265985808919
1070
    76
1070
     0
1070
    75
1070
     0
1070
   279
1070
     0
1070
   271
1070
     0
1070
   173
1070
     1
1070
    41
1040
3.0
1070
   140
1040
3.200000047683716
1070
   344
1005
166
1070
   343
1005
166
1002
}
  0
DIMENSION
  5
2D9
330
1F
100
AcDbEntity
  8
0
 62
     7
100
AcDbDimension
  2
*D24
 10
-31.25250189208984
 20
-44.47364626568833
 30
0.0
 11
-31.25250189208984
 21
-36.73764619511643
 31
0.0
 70
   160
  1
165
 71
     5
 42
41.25000124004255
 52
-70.00000000000001
  3
ISO-25
100
AcDbAlignedDimension
 13
-34.39023171799903
 23
-86.86568558876473
 33
0.0
 14
-34.39022573738265
 24
-45.61568434872218
 34
0.0
 50
270.0
100
AcDbRotatedDimension
1001
ACAD
1000
DSTYLE
1002
{
1070
   178
1070
     1
1070
   278
1070
    46
1070
   147
1040
0.800000011920929
1070
    77
1070
     1
1070
    74
1070
     0
1070
    73
1070
     0
1070
    42
1040
2.54
1070
    44
1040
1.596267660456078
1070
    76
1070
     0
1070
    75
1070
     0
1070
   279
1070
     0
1070
   271
1070
     0
1070
   173
1070
     1
1070
    41
1040
3.0
1070
   140
1040
3.200000047683716
1070
   344
1005
166
1070
   343
1005
166
1002
}
  0
DIMENSION
  5
2F0
330
1F
100
AcDbEntity
  8
0
 62
     7
100
AcDbDimension
  2
*D25
 10
17.82901763916016
 20
-49.61568450927734
 30
0.0
 11
17.82901763916016
 21
-61.19850103759766
 31
0.0
 70
   160
  1
133
 71
     5
 42
33.25
  3
ISO-25
100
AcDbAlignedDimension
 13
-5.390230178833008
 23
-82.86568450927734
 33
0.0
 14
-5.390230178833008
 24
-49.61568450927734
 34
0.0
 50
270.0
100
AcDbRotatedDimension
1001
ACAD
1000
DSTYLE
1002
{
1070
   178
1070
     1
1070
   278
1070
    46
1070
   147
1040
0.800000011920929
1070
    77
1070
     1
1070
    74
1070
     0
1070
    73
1070
     0
1070
    42
1040
2.54
1070
    44
1040
1.5
1070
    76
1070
     0
1070
    75
1070
     0
1070
   279
1070
     0
1070
   271
1070
     0
1070
   173
1070
     1
1070
    41
1040
3.0
1070
   140
1040
3.200000047683716
1070
   344
1005
166
1070
   343
1005
166
1002
}
  0
DIMENSION
  5
2FD
330
1F
100
AcDbEntity
  8
0
 62
     7
100
AcDbDimension
  2
*D26
 10
41.76064300537109
 20
-53.74068450927734
 30
0.0
 11
41.76064300537109
 21
-66.23968450927734
 31
0.0
 70
   160
  1
100
 71
     5
 42
25.0
  3
ISO-25
100
AcDbAlignedDimension
 13
32.51064300537109
 23
-78.74068450927734
 33
0.0
 14
32.51064300537109
 24
-53.74068450927734
 34
0.0
 50
270.0
100
AcDbRotatedDimension
1001
ACAD
1000
DSTYLE
1002
{
1070
   178
1070
     1
1070
   278
1070
    46
1070
   147
1040
0.800000011920929
1070
    77
1070
     1
1070
    74
1070
     0
1070
    73
1070
     0
1070
    42
1040
2.54
1070
    44
1040
1.5
1070
    76
1070
     0
1070
    75
1070
     0
1070
   279
1070
     0
1070
   271
1070
     0
1070
   173
1070
     1
1070
    41
1040
3.0
1070
   140
1040
3.200000047683716
1070
   344
1005
166
1070
   343
1005
166
1002
}
  0
DIMENSION
  5
30A
330
1F
100
AcDbEntity
  8
0
 62
     7
100
AcDbDimension
  2
*D28
 10
-35.39023713732483
 20
93.00582786782462
 30
0.0
 11
-31.28890019692015
 21
91.04399515576877
 31
0.0
 70
   164
  1
R62
 71
     5
 42
15.5
  3
ISO-25
100
AcDbRadialDimension
 15
-21.40758633484518
 25
86.3173694104583
 35
0.0
 40
0.0
1001
ACAD
1000
DSTYLE
1002
{
1070
   178
1070
     1
1070
   278
1070
    46
1070
   147
1040
0.800000011920929
1070
    77
1070
     1
1070
    74
1070
     0
1070
    73
1070
     0
1070
   279
1070
     0
1070
   271
1070
     0
1070
   173
1070
     1
1070
    41
1040
3.0
1070
   140
1040
3.200000047683716
1070
   344
1005
166
1070
   343
1005
30B
1002
}
  0
DIMENSION
  5
31A
330
1F
100
AcDbEntity
  8
0
 62
     7
100
AcDbDimension
  2
*D29
 10
-19.89023208618164
 20
61.30843789672851
 30
0.0
 11
-27.13923208618164
 21
61.30843789672851
 31
0.0
 70
   160
  1
58
 71
     5
 42
14.5
  3
ISO-25
100
AcDbAlignedDimension
 13
-34.39023208618164
 23
73.13082885742188
 33
0.0
 14
-19.89023208618164
 24
93.00582885742188
 34
0.0
 50
180.0
100
AcDbRotatedDimension
1001
ACAD
1000
DSTYLE
1002
{
1070
   178
1070
     1
1070
   278
1070
    46
1070
   147
1040
0.800000011920929
1070
    77
1070
     1
1070
    74
1070
     0
1070
    73
1070
     0
1070
    42
1040
2.54
1070
    44
1040
1.500003814697266
1070
    76
1070
     0
1070
    75
1070
     0
1070
   279
1070
     0
1070
   271
1070
     0
1070
   173
1070
     1
1070
    41
1040
3.0
1070
   140
1040
3.200000047683716
1070
   344
1005
166
1070
   343
1005
166
1002
}
  0
DIMENSION
  5
328
330
1F
100
AcDbEntity
  8
0
 62
     7
100
AcDbDimension
  2
*D30
 10
-61.96126501464843
 20
110.1308364868164
 30
0.0
 11
-61.96126501464844
 21
87.84729821777344
 31
0.0
 70
   160
  1
137
 71
     5
 42
34.25000762939453
  3
ISO-25
100
AcDbAlignedDimension
 13
-33.64023208618164
 23
75.88082885742188
 33
0.0
 14
-33.64023208618164
 24
110.1308364868164
 34
0.0
 50
270.0
100
AcDbRotatedDimension
1001
ACAD
1000
DSTYLE
1002
{
1070
   178
1070
     1
1070
   278
1070
    46
1070
   147
1040
0.800000011920929
1070
    77
1070
     1
1070
    74
1070
     0
1070
    73
1070
     0
1070
    42
1040
2.54
1070
    44
1040
1.5
1070
    76
1070
     0
1070
    75
1070
     0
1070
   279
1070
     0
1070
   271
1070
     0
1070
   173
1070
     1
1070
    41
1040
3.0
1070
   140
1040
3.200000047683716
1070
   344
1005
166
1070
   343
1005
166
1002
}
  0
DIMENSION
  5
335
330
1F
100
AcDbEntity
  8
0
 62
     7
100
AcDbDimension
  2
*D31
 10
77.07667341451211
 20
93.0058288574218
 30
0.0
 11
77.0766734145121
 21
-7.205401824951172
 31
0.0
 70
   160
  1
(802)
 71
     5
 42
200.4244613647461
  3
ISO-25
100
AcDbAlignedDimension
 13
66.19621276855469
 23
-107.4186325073242
 33
0.0
 14
21.47048950195312
 24
93.00582885742188
 34
0.0
 50
270.0
100
AcDbRotatedDimension
1001
ACAD
1000
DSTYLE
1002
{
1070
   178
1070
     1
1070
   278
1070
    46
1070
   147
1040
0.800000011920929
1070
    77
1070
     1
1070
    74
1070
     0
1070
    73
1070
     0
1070
    42
1040
2.54
1070
    44
1040
2.286000000000001
1070
    76
1070
     0
1070
    75
1070
     1
1070
   279
1070
     0
1070
   271
1070
     0
1070
   173
1070
     1
1070
    41
1040
3.0
1070
   140
1040
3.200000047683716
1070
   344
1005
166
1070
   343
1005
166
1002
}
  0
POINT
  5
342
330
1F
100
AcDbEntity
  8
VIEW0001
 62
     7
100
AcDbPoint
 10
105.0
 20
-148.5
 30
0.0
  0
LWPOLYLINE
  5
343
330
1F
100
AcDbEntity
  8
VIEW0001
  6
Continuous
 62
     7
100
AcDbPolyline
 90
        2
 70
     0
 10
25.75
 20
-129.0
 40
0.001000000047497
 41
0.001000000047497
 10
25.75
 20
-120.0
 40
0.001000000047497
 41
0.001000000047497
  0
LWPOLYLINE
  5
344
330
1F
100
AcDbEntity
  8
VIEW0001
  6
Continuous
 62
     7
100
AcDbPolyline
 90
        2
 70
     0
 10
-64.5
 20
-138.0
 40
0.001000000047497
 41
0.001000000047497
 10
-64.5
 20
-120.0
 40
0.001000000047497
 41
0.001000000047497
  0
LINE
  5
345
330
1F
100
AcDbEntity
  8
VIEW0001
  6
Continuous
 62
     7
370
    50
100
AcDbLine
 10
-84.5
 20
138.0
 30
0.0
 11
-84.5
 21
-138.0
 31
0.0
  0
LINE
  5
346
330
1F
100
AcDbEntity
  8
VIEW0001
  6
Continuous
 62
     7
370
    50
100
AcDbLine
 10
96.0
 20
138.0
 30
0.0
 11
96.0
 21
-138.0
 31
0.0
  0
LINE
  5
347
330
1F
100
AcDbEntity
  8
VIEW0001
  6
Continuous
 62
     7
370
    50
100
AcDbLine
 10
-84.5
 20
-138.0
 30
0.0
 11
96.0
 21
-138.0
 31
0.0
  0
LINE
  5
348
330
1F
100
AcDbEntity
  8
VIEW0001
  6
Continuous
 62
     7
370
    50
100
AcDbLine
 10
-84.5
 20
138.0
 30
0.0
 11
96.0
 21
138.0
 31
0.0
  0
LINE
  5
349
330
1F
100
AcDbEntity
  8
VIEW0001
  6
Continuous
 62
     7
370
    20
100
AcDbLine
 10
-84.5
 20
-120.0
 30
0.0
 11
96.0
 21
-120.0
 31
0.0
  0
LWPOLYLINE
  5
34A
330
1F
100
AcDbEntity
  8
VIEW0001
  6
Continuous
 62
     7
100
AcDbPolyline
 90
        2
 70
     0
 10
96.0
 20
-129.0
 40
0.001000000047497
 41
0.001000000047497
 10
-84.5
 20
-129.0
 40
0.001000000047497
 41
0.001000000047497
  0
LINE
  5
34B
330
1F
100
AcDbEntity
  8
VIEW0001
  6
Continuous
 62
     7
370
    20
100
AcDbLine
 10
41.0
 20
128.0
 30
0.0
 11
96.0
 21
128.0
 31
0.0
  0
LINE
  5
34C
330
1F
100
AcDbEntity
  8
VIEW0001
  6
Continuous
 62
     7
370
    20
100
AcDbLine
 10
41.0
 20
138.0
 30
0.0
 11
41.0
 21
128.0
 31
0.0
  0
LWPOLYLINE
  5
34D
330
1F
100
AcDbEntity
  8
VIEW0001
  6
Continuous
 62
     7
100
AcDbPolyline
 90
        2
 70
     0
 10
5.75
 20
-138.0
 40
0.001000000047497
 41
0.001000000047497
 10
5.75
 20
-120.0
 40
0.001000000047497
 41
0.001000000047497
  0
LWPOLYLINE
  5
34E
330
1F
100
AcDbEntity
  8
VIEW0001
  6
Continuous
 62
     7
100
AcDbPolyline
 90
        2
 70
     0
 10
66.0
 20
-129.0
 40
0.001000000047497
 41
0.001000000047497
 10
66.0
 20
-120.0
 40
0.001000000047497
 41
0.001000000047497
  0
LWPOLYLINE
  5
34F
330
1F
100
AcDbEntity
  8
VIEW0001
  6
Continuous
 62
     7
100
AcDbPolyline
 90
        2
 70
     0
 10
81.0
 20
-129.0
 40
0.001000000047497
 41
0.001000000047497
 10
81.0
 20
-120.0
 40
0.001000000047497
 41
0.001000000047497
  0
MTEXT
  5
350
330
1F
100
AcDbEntity
  8
VIEW0001
 62
     1
100
AcDbMText
 10
-77.92875003814697
 20
-135.5
 30
0.0
 40
4.0
 41
0.0
 71
     7
 72
     1
  1
{\W0.833333;規格}
 73
     1
 44
1.0
  0
MTEXT
  5
351
330
1F
100
AcDbEntity
  8
VIEW0001
 62
     1
100
AcDbMText
 10
70.07124996185303
 20
-126.5
 30
0.0
 40
4.0
 41
0.0
 71
     7
 72
     1
  1
{\W0.833333;尺度}
 73
     1
 44
1.0
  0
MTEXT
  5
352
330
1F
100
AcDbEntity
  8
VIEW0001
 62
     1
100
AcDbMText
 10
-77.92875003814697
 20
-126.5
 30
0.0
 40
4.0
 41
0.0
 71
     7
 72
     1
  1
{\W0.833333;品名}
 73
     1
 44
1.0
  0
MTEXT
  5
353
330
1F
100
AcDbEntity
  8
VIEW0001
 62
     1
100
AcDbMText
 10
12.32124996185303
 20
-126.5
 30
0.0
 40
4.0
 41
0.0
 71
     7
 72
     1
  1
{\W0.833333;材質}
 73
     1
 44
1.0
  0
MTEXT
  5
354
330
1F
100
AcDbEntity
  8
VIEW0001
 62
     1
100
AcDbMText
 10
26.46785604953766
 20
-135.75
 30
0.0
 40
4.5
 41
0.0
 71
     7
 72
     1
  1
{\W1.40741;デンカ株式会社}
 73
     1
 44
1.0
  0
MTEXT
  5
355
330
1F
100
AcDbEntity
  8
VIEW0001
 62
     1
100
AcDbMText
 10
36.44624972343445
 20
-126.5
 30
0.0
 40
4.0
 41
0.0
 71
     7
 72
     1
  1
{\W0.833333;硬質ＰＶＣ}
 73
     1
 44
1.0
  0
MTEXT
  5
356
330
1F
100
AcDbEntity
  8
VIEW0001
 62
     1
100
AcDbMText
 10
83.07124984264374
 20
-126.5
 30
0.0
 40
4.0
 41
0.0
 71
     7
 72
     1
  1
{\W0.833333;1/4}
 73
     1
 44
1.0
  0
MTEXT
  5
357
330
1F
100
AcDbEntity
  8
VIEW0001
 62
     1
100
AcDbMText
 10
-40.8037503361702
 20
-135.5
 30
0.0
 40
4.0
 41
0.0
 71
     7
 72
     1
  1
{\W0.833333;120-35}
 73
     1
 44
1.0
  0
MTEXT
  5
358
330
1F
100
AcDbEntity
  8
VIEW0001
 62
     1
100
AcDbMText
 10
-54.80375075340271
 20
-126.5
 30
0.0
 40
4.0
 41
0.0
 71
     7
 72
     1
  1
{\W0.833333;飾りあんこうデラックス１型}
 73
     1
 44
1.0
  0
ENDSEC
  0
SECTION
  2
OBJECTS
  0
DICTIONARY
  5
C
330
0
100
AcDbDictionary
281
     1
  3
ACAD_GROUP
350
D
  3
ACAD_LAYOUT
350
1A
  3
ACAD_MATERIAL
350
3B
  3
ACAD_MLEADERSTYLE
350
380
  3
ACAD_MLINESTYLE
350
17
  3
ACAD_PLOTSETTINGS
350
19
  3
ACAD_PLOTSTYLENAME
350
E
  3
ACAD_TABLESTYLE
350
37F
  3
ACAD_VISUALSTYLE
350
2A
  0
DICTIONARY
  5
D
102
{ACAD_REACTORS
330
C
102
}
330
C
100
AcDbDictionary
281
     1
  0
DICTIONARY
  5
1A
102
{ACAD_REACTORS
330
C
102
}
330
C
100
AcDbDictionary
281
     1
  3
Layout1
350
1E
  3
Layout2
350
26
  3
Model
350
22
  0
DICTIONARY
  5
3B
102
{ACAD_REACTORS
330
C
102
}
330
C
100
AcDbDictionary
281
     1
  3
ByBlock
350
3D
  3
ByLayer
350
3C
  3
Global
350
3E
  0
DICTIONARY
  5
380
102
{ACAD_REACTORS
330
C
102
}
330
C
100
AcDbDictionary
281
     1
  0
DICTIONARY
  5
17
102
{ACAD_REACTORS
330
C
102
}
330
C
100
AcDbDictionary
281
     1
  3
Standard
350
18
  0
DICTIONARY
  5
19
102
{ACAD_REACTORS
330
C
102
}
330
C
100
AcDbDictionary
281
     1
  0
ACDBDICTIONARYWDFLT
  5
E
102
{ACAD_REACTORS
330
C
102
}
330
C
100
AcDbDictionary
281
     1
  3
Normal
350
F
100
AcDbDictionaryWithDefault
340
F
  0
DICTIONARY
  5
37F
102
{ACAD_REACTORS
330
C
102
}
330
C
100
AcDbDictionary
281
     1
  0
DICTIONARY
  5
2A
102
{ACAD_REACTORS
330
C
102
}
330
C
100
AcDbDictionary
281
     1
  3
2dWireframe
350
2F
  3
3D Hidden
350
31
  3
3dWireframe
350
30
  3
Basic
350
32
  3
Brighten
350
36
  3
ColorChange
350
3A
  3
Conceptual
350
34
  3
Dim
350
35
  3
Facepattern
350
39
  3
Flat
350
2B
  3
FlatWithEdges
350
2C
  3
Gouraud
350
2D
  3
GouraudWithEdges
350
2E
  3
Linepattern
350
38
  3
Realistic
350
33
  3
Thicken
350
37
  0
LAYOUT
  5
1E
102
{ACAD_REACTORS
330
1A
102
}
330
1A
100
AcDbPlotSettings
  1

  2
none_device
  4

  6

 40
0.0
 41
0.0
 42
0.0
 43
0.0
 44
0.0
 45
0.0
 46
0.0
 47
0.0
 48
0.0
 49
0.0
140
0.0
141
0.0
142
1.0
143
1.0
 70
   688
 72
     0
 73
     0
 74
     5
  7

 75
    16
 76
     0
 77
     2
 78
   300
147
1.0
148
0.0
149
0.0
100
AcDbLayout
  1
Layout1
 70
     1
 71
     1
 10
-105.0
 20
-148.5
 11
105.0
 21
148.5
 12
0.0
 22
0.0
 32
0.0
 14
1.000000000000000E+20
 24
1.000000000000000E+20
 34
1.000000000000000E+20
 15
-1.000000000000000E+20
 25
-1.000000000000000E+20
 35
-1.000000000000000E+20
146
0.0
 13
0.0
 23
0.0
 33
0.0
 16
1.0
 26
0.0
 36
0.0
 17
0.0
 27
1.0
 37
0.0
 76
     0
330
1B
  0
LAYOUT
  5
26
102
{ACAD_REACTORS
330
1A
102
}
330
1A
100
AcDbPlotSettings
  1

  2
none_device
  4

  6

 40
0.0
 41
0.0
 42
0.0
 43
0.0
 44
0.0
 45
0.0
 46
0.0
 47
0.0
 48
0.0
 49
0.0
140
0.0
141
0.0
142
1.0
143
1.0
 70
   688
 72
     0
 73
     0
 74
     5
  7

 75
    16
 76
     0
 77
     2
 78
   300
147
1.0
148
0.0
149
0.0
100
AcDbLayout
  1
Layout2
 70
     1
 71
     2
 10
0.0
 20
0.0
 11
0.0
 21
0.0
 12
0.0
 22
0.0
 32
0.0
 14
0.0
 24
0.0
 34
0.0
 15
0.0
 25
0.0
 35
0.0
146
0.0
 13
0.0
 23
0.0
 33
0.0
 16
1.0
 26
0.0
 36
0.0
 17
0.0
 27
1.0
 37
0.0
 76
     0
330
23
  0
LAYOUT
  5
22
102
{ACAD_REACTORS
330
1A
102
}
330
1A
100
AcDbPlotSettings
  1

  2
none_device
  4

  6

 40
0.0
 41
0.0
 42
0.0
 43
0.0
 44
0.0
 45
0.0
 46
0.0
 47
0.0
 48
0.0
 49
0.0
140
0.0
141
0.0
142
1.0
143
1.0
 70
  1712
 72
     0
 73
     0
 74
     0
  7

 75
     0
 76
     0
 77
     2
 78
   300
147
1.0
148
0.0
149
0.0
100
AcDbLayout
  1
Model
 70
     1
 71
     0
 10
-105.0
 20
-148.5
 11
105.0
 21
148.5
 12
0.0
 22
0.0
 32
0.0
 14
-105.0
 24
-148.5
 34
0.0
 15
105.0
 25
148.5
 35
0.0
146
0.0
 13
0.0
 23
0.0
 33
0.0
 16
1.0
 26
0.0
 36
0.0
 17
0.0
 27
1.0
 37
0.0
 76
     0
330
1F
331
29
  0
MATERIAL
  5
3D
102
{ACAD_REACTORS
330
3B
102
}
102
{ACAD_XDICTIONARY
360
37B
102
}
330
3B
100
AcDbMaterial
  1
ByBlock
  0
MATERIAL
  5
3C
102
{ACAD_REACTORS
330
3B
102
}
102
{ACAD_XDICTIONARY
360
379
102
}
330
3B
100
AcDbMaterial
  1
ByLayer
  0
MATERIAL
  5
3E
102
{ACAD_REACTORS
330
3B
102
}
102
{ACAD_XDICTIONARY
360
37D
102
}
330
3B
100
AcDbMaterial
  1
Global
  0
MLINESTYLE
  5
18
102
{ACAD_REACTORS
330
17
102
}
330
17
100
AcDbMlineStyle
  2
Standard
 70
     0
  3

 62
   256
 51
90.0
 52
90.0
 71
     2
 49
0.5
 62
   256
  6
BYLAYER
 49
-0.5
 62
   256
  6
BYLAYER
  0
ACDBPLACEHOLDER
  5
F
102
{ACAD_REACTORS
330
E
102
}
330
E
  0
VISUALSTYLE
  5
2F
102
{ACAD_REACTORS
330
2A
102
}
102
{ACAD_XDICTIONARY
360
361
102
}
330
2A
100
AcDbVisualStyle
  2
2dWireframe
 70
     4
 71
     0
 72
     2
 73
     0
 90
        0
 40
-0.6
 41
-30.0
 62
     5
 63
     7
421
 16777215
 74
     1
 91
        4
 64
     7
 65
   257
 75
     1
175
     1
 42
1.0
 92
        0
 66
   257
 43
1.0
 76
     1
 77
     6
 78
     2
 67
     7
 79
     5
170
     0
171
     0
290
     0
174
     0
 93
        1
 44
0.0
173
     0
291
     0
 45
0.0
1001
ACAD
1000
AcDbSavedByObjectVersion
1070
     0
  0
VISUALSTYLE
  5
31
102
{ACAD_REACTORS
330
2A
102
}
102
{ACAD_XDICTIONARY
360
365
102
}
330
2A
100
AcDbVisualStyle
  2
3D Hidden
 70
     6
 71
     1
 72
     2
 73
     2
 90
        0
 40
-0.6
 41
-30.0
 62
     5
 63
     7
421
 16777215
 74
     2
 91
        2
 64
     7
 65
   257
 75
     2
175
     1
 42
40.0
 92
        0
 66
   257
 43
1.0
 76
     1
 77
     6
 78
     2
 67
     7
 79
     3
170
     0
171
     0
290
     0
174
     0
 93
        1
 44
0.0
173
     0
291
     0
 45
0.0
1001
ACAD
1000
AcDbSavedByObjectVersion
1070
     0
  0
VISUALSTYLE
  5
30
102
{ACAD_REACTORS
330
2A
102
}
102
{ACAD_XDICTIONARY
360
363
102
}
330
2A
100
AcDbVisualStyle
  2
3dWireframe
 70
     5
 71
     0
 72
     2
 73
     0
 90
        0
 40
-0.6
 41
-30.0
 62
     5
 63
     7
421
 16777215
 74
     1
 91
        4
 64
     7
 65
   257
 75
     1
175
     1
 42
1.0
 92
        0
 66
   257
 43
1.0
 76
     1
 77
     6
 78
     2
 67
     7
 79
     5
170
     0
171
     0
290
     0
174
     0
 93
        1
 44
0.0
173
     0
291
     0
 45
0.0
1001
ACAD
1000
AcDbSavedByObjectVersion
1070
     0
  0
VISUALSTYLE
  5
32
102
{ACAD_REACTORS
330
2A
102
}
102
{ACAD_XDICTIONARY
360
367
102
}
330
2A
100
AcDbVisualStyle
  2
Basic
 70
     7
 71
     1
 72
     0
 73
     1
 90
        0
 40
-0.6
 41
-30.0
 62
     5
 63
     7
421
 16777215
 74
     0
 91
        4
 64
     7
 65
   257
 75
     1
175
     1
 42
1.0
 92
        8
 66
     7
 43
1.0
 76
     1
 77
     6
 78
     2
 67
     7
 79
     5
170
     0
171
     0
290
     0
174
     0
 93
        1
 44
0.0
173
     0
291
     1
 45
0.0
1001
ACAD
1000
AcDbSavedByObjectVersion
1070
     0
  0
VISUALSTYLE
  5
36
102
{ACAD_REACTORS
330
2A
102
}
102
{ACAD_XDICTIONARY
360
36F
102
}
330
2A
100
AcDbVisualStyle
  2
Brighten
 70
    12
 71
     2
 72
     2
 73
     0
 90
        0
 40
-0.6
 41
-30.0
 62
     5
 63
     7
421
 16777215
 74
     1
 91
        4
 64
     7
 65
   257
 75
     1
175
     1
 42
1.0
 92
        8
 66
     7
 43
1.0
 76
     1
 77
     6
 78
     2
 67
     7
 79
     5
170
     0
171
     0
290
     0
174
     0
 93
        1
 44
50.0
173
     0
291
     1
 45
0.0
1001
ACAD
1000
AcDbSavedByObjectVersion
1070
     0
  0
VISUALSTYLE
  5
3A
102
{ACAD_REACTORS
330
2A
102
}
102
{ACAD_XDICTIONARY
360
377
102
}
330
2A
100
AcDbVisualStyle
  2
ColorChange
 70
    16
 71
     2
 72
     2
 73
     3
 90
        0
 40
-0.6
 41
-30.0
 62
     5
 63
     8
421
  8421504
 74
     1
 91
        4
 64
     7
 65
   257
 75
     1
175
     1
 42
1.0
 92
        8
 66
     8
424
  8421504
 43
1.0
 76
     1
 77
     6
 78
     2
 67
     7
 79
     5
170
     0
171
     0
290
     0
174
     0
 93
        1
 44
0.0
173
     0
291
     1
 45
0.0
1001
ACAD
1000
AcDbSavedByObjectVersion
1070
     0
  0
VISUALSTYLE
  5
34
102
{ACAD_REACTORS
330
2A
102
}
102
{ACAD_XDICTIONARY
360
36B
102
}
330
2A
100
AcDbVisualStyle
  2
Conceptual
 70
     9
 71
     3
 72
     2
 73
     0
 90
        0
 40
-0.6
 41
-30.0
 62
     5
 63
     7
421
 16777215
 74
     2
 91
        2
 64
     7
 65
   257
 75
     1
175
     1
 42
40.0
 92
        8
 66
     7
 43
1.0
 76
     1
 77
     6
 78
     2
 67
     7
 79
     3
170
     0
171
     0
290
     0
174
     0
 93
        1
 44
0.0
173
     0
291
     0
 45
0.0
1001
ACAD
1000
AcDbSavedByObjectVersion
1070
     0
  0
VISUALSTYLE
  5
35
102
{ACAD_REACTORS
330
2A
102
}
102
{ACAD_XDICTIONARY
360
36D
102
}
330
2A
100
AcDbVisualStyle
  2
Dim
 70
    11
 71
     2
 72
     2
 73
     0
 90
        0
 40
-0.6
 41
-30.0
 62
     5
 63
     7
421
 16777215
 74
     1
 91
        4
 64
     7
 65
   257
 75
     1
175
     1
 42
1.0
 92
        8
 66
     7
 43
1.0
 76
     1
 77
     6
 78
     2
 67
     7
 79
     5
170
     0
171
     0
290
     0
174
     0
 93
        1
 44
-50.0
173
     0
291
     1
 45
0.0
1001
ACAD
1000
AcDbSavedByObjectVersion
1070
     0
  0
VISUALSTYLE
  5
39
102
{ACAD_REACTORS
330
2A
102
}
102
{ACAD_XDICTIONARY
360
375
102
}
330
2A
100
AcDbVisualStyle
  2
Facepattern
 70
    15
 71
     2
 72
     2
 73
     0
 90
        0
 40
-0.6
 41
-30.0
 62
     5
 63
     7
421
 16777215
 74
     1
 91
        4
 64
     7
 65
   257
 75
     1
175
     1
 42
1.0
 92
        8
 66
     7
 43
1.0
 76
     1
 77
     6
 78
     2
 67
     7
 79
     5
170
     0
171
     0
290
     0
174
     0
 93
        1
 44
0.0
173
     0
291
     1
 45
0.0
1001
ACAD
1000
AcDbSavedByObjectVersion
1070
     0
  0
VISUALSTYLE
  5
2B
102
{ACAD_REACTORS
330
2A
102
}
102
{ACAD_XDICTIONARY
360
359
102
}
330
2A
100
AcDbVisualStyle
  2
Flat
 70
     0
 71
     2
 72
     1
 73
     1
 90
        2
 40
-0.6
 41
30.0
 62
     5
 63
     7
421
 16777215
 74
     0
 91
        4
 64
     7
 65
   257
 75
     1
175
     1
 42
1.0
 92
        8
 66
     7
 43
1.0
 76
     1
 77
     6
 78
     2
 67
     7
 79
     5
170
     0
171
     0
290
     0
174
     0
 93
       13
 44
0.0
173
     0
291
     1
 45
0.0
1001
ACAD
1000
AcDbSavedByObjectVersion
1070
     0
  0
VISUALSTYLE
  5
2C
102
{ACAD_REACTORS
330
2A
102
}
102
{ACAD_XDICTIONARY
360
35B
102
}
330
2A
100
AcDbVisualStyle
  2
FlatWithEdges
 70
     1
 71
     2
 72
     1
 73
     1
 90
        2
 40
-0.6
 41
30.0
 62
     5
 63
     7
421
 16777215
 74
     1
 91
        4
 64
     7
 65
   257
 75
     1
175
     1
 42
1.0
 92
        0
 66
   257
 43
1.0
 76
     1
 77
     6
 78
     2
 67
     7
 79
     5
170
     0
171
     0
290
     0
174
     0
 93
       13
 44
0.0
173
     0
291
     1
 45
0.0
1001
ACAD
1000
AcDbSavedByObjectVersion
1070
     0
  0
VISUALSTYLE
  5
2D
102
{ACAD_REACTORS
330
2A
102
}
102
{ACAD_XDICTIONARY
360
35D
102
}
330
2A
100
AcDbVisualStyle
  2
Gouraud
 70
     2
 71
     2
 72
     2
 73
     1
 90
        2
 40
-0.6
 41
30.0
 62
     5
 63
     7
421
 16777215
 74
     0
 91
        4
 64
     7
 65
   257
 75
     1
175
     1
 42
1.0
 92
        0
 66
     7
 43
1.0
 76
     1
 77
     6
 78
     2
 67
     7
 79
     5
170
     0
171
     0
290
     0
174
     0
 93
       13
 44
0.0
173
     0
291
     1
 45
0.0
1001
ACAD
1000
AcDbSavedByObjectVersion
1070
     0
  0
VISUALSTYLE
  5
2E
102
{ACAD_REACTORS
330
2A
102
}
102
{ACAD_XDICTIONARY
360
35F
102
}
330
2A
100
AcDbVisualStyle
  2
GouraudWithEdges
 70
     3
 71
     2
 72
     2
 73
     1
 90
        2
 40
-0.6
 41
30.0
 62
     5
 63
     7
421
 16777215
 74
     1
 91
        4
 64
     7
 65
   257
 75
     1
175
     1
 42
1.0
 92
        0
 66
   257
 43
1.0
 76
     1
 77
     6
 78
     2
 67
     7
 79
     5
170
     0
171
     0
290
     0
174
     0
 93
       13
 44
0.0
173
     0
291
     1
 45
0.0
1001
ACAD
1000
AcDbSavedByObjectVersion
1070
     0
  0
VISUALSTYLE
  5
38
102
{ACAD_REACTORS
330
2A
102
}
102
{ACAD_XDICTIONARY
360
373
102
}
330
2A
100
AcDbVisualStyle
  2
Linepattern
 70
    14
 71
     2
 72
     2
 73
     0
 90
        0
 40
-0.6
 41
-30.0
 62
     5
 63
     7
421
 16777215
 74
     1
 91
        4
 64
     7
 65
   257
 75
     7
175
     7
 42
1.0
 92
        8
 66
     7
 43
1.0
 76
     1
 77
     6
 78
     2
 67
     7
 79
     5
170
     0
171
     0
290
     0
174
     0
 93
        1
 44
0.0
173
     0
291
     1
 45
0.0
1001
ACAD
1000
AcDbSavedByObjectVersion
1070
     0
  0
VISUALSTYLE
  5
33
102
{ACAD_REACTORS
330
2A
102
}
102
{ACAD_XDICTIONARY
360
369
102
}
330
2A
100
AcDbVisualStyle
  2
Realistic
 70
     8
 71
     2
 72
     2
 73
     0
 90
        0
 40
-0.6
 41
-30.0
 62
     5
 63
     7
421
 16777215
 74
     1
 91
        0
 64
     7
 65
   257
 75
     1
175
     1
 42
1.0
 92
        8
 66
     8
424
  7895160
 43
1.0
 76
     1
 77
     6
 78
     2
 67
     7
 79
     5
170
     0
171
     0
290
     0
174
     0
 93
       13
 44
0.0
173
     0
291
     0
 45
0.0
1001
ACAD
1000
AcDbSavedByObjectVersion
1070
     0
  0
VISUALSTYLE
  5
37
102
{ACAD_REACTORS
330
2A
102
}
102
{ACAD_XDICTIONARY
360
371
102
}
330
2A
100
AcDbVisualStyle
  2
Thicken
 70
    13
 71
     2
 72
     2
 73
     0
 90
        0
 40
-0.6
 41
-30.0
 62
     5
 63
     7
421
 16777215
 74
     1
 91
        4
 64
     7
 65
   257
 75
     1
175
     1
 42
1.0
 92
       12
 66
     7
 43
1.0
 76
     1
 77
     6
 78
     2
 67
     7
 79
     5
170
     0
171
     0
290
     0
174
     0
 93
        1
 44
0.0
173
     0
291
     1
 45
0.0
1001
ACAD
1000
AcDbSavedByObjectVersion
1070
     0
  0
DICTIONARY
  5
37B
330
3D
100
AcDbDictionary
280
     1
281
     1
  3
ACAD_XREC_ROUNDTRIP
360
37C
  0
DICTIONARY
  5
379
330
3C
100
AcDbDictionary
280
     1
281
     1
  3
ACAD_XREC_ROUNDTRIP
360
37A
  0
DICTIONARY
  5
37D
330
3E
100
AcDbDictionary
280
     1
281
     1
  3
ACAD_XREC_ROUNDTRIP
360
37E
  0
DICTIONARY
  5
361
330
2F
100
AcDbDictionary
280
     1
281
     1
  3
ACAD_XREC_ROUNDTRIP
360
362
  0
DICTIONARY
  5
365
330
31
100
AcDbDictionary
280
     1
281
     1
  3
ACAD_XREC_ROUNDTRIP
360
366
  0
DICTIONARY
  5
363
330
30
100
AcDbDictionary
280
     1
281
     1
  3
ACAD_XREC_ROUNDTRIP
360
364
  0
DICTIONARY
  5
367
330
32
100
AcDbDictionary
280
     1
281
     1
  3
ACAD_XREC_ROUNDTRIP
360
368
  0
DICTIONARY
  5
36F
330
36
100
AcDbDictionary
280
     1
281
     1
  3
ACAD_XREC_ROUNDTRIP
360
370
  0
DICTIONARY
  5
377
330
3A
100
AcDbDictionary
280
     1
281
     1
  3
ACAD_XREC_ROUNDTRIP
360
378
  0
DICTIONARY
  5
36B
330
34
100
AcDbDictionary
280
     1
281
     1
  3
ACAD_XREC_ROUNDTRIP
360
36C
  0
DICTIONARY
  5
36D
330
35
100
AcDbDictionary
280
     1
281
     1
  3
ACAD_XREC_ROUNDTRIP
360
36E
  0
DICTIONARY
  5
375
330
39
100
AcDbDictionary
280
     1
281
     1
  3
ACAD_XREC_ROUNDTRIP
360
376
  0
DICTIONARY
  5
359
330
2B
100
AcDbDictionary
280
     1
281
     1
  3
ACAD_XREC_ROUNDTRIP
360
35A
  0
DICTIONARY
  5
35B
330
2C
100
AcDbDictionary
280
     1
281
     1
  3
ACAD_XREC_ROUNDTRIP
360
35C
  0
DICTIONARY
  5
35D
330
2D
100
AcDbDictionary
280
     1
281
     1
  3
ACAD_XREC_ROUNDTRIP
360
35E
  0
DICTIONARY
  5
35F
330
2E
100
AcDbDictionary
280
     1
281
     1
  3
ACAD_XREC_ROUNDTRIP
360
360
  0
DICTIONARY
  5
373
330
38
100
AcDbDictionary
280
     1
281
     1
  3
ACAD_XREC_ROUNDTRIP
360
374
  0
DICTIONARY
  5
369
330
33
100
AcDbDictionary
280
     1
281
     1
  3
ACAD_XREC_ROUNDTRIP
360
36A
  0
DICTIONARY
  5
371
330
37
100
AcDbDictionary
280
     1
281
     1
  3
ACAD_XREC_ROUNDTRIP
360
372
  0
XRECORD
  5
37C
102
{ACAD_REACTORS
330
37B
102
}
330
37B
100
AcDbXrecord
280
     1
102
MATERIAL
148
0.0
149
0.0
149
0.0
 93
        0
 94
      127
282
     0
 72
     1
 77
     1
171
     1
175
     1
179
     1
273
     0
  0
XRECORD
  5
37A
102
{ACAD_REACTORS
330
379
102
}
330
379
100
AcDbXrecord
280
     1
102
MATERIAL
148
0.0
149
0.0
149
0.0
 93
        0
 94
      127
282
     0
 72
     1
 77
     1
171
     1
175
     1
179
     1
273
     0
  0
XRECORD
  5
37E
102
{ACAD_REACTORS
330
37D
102
}
330
37D
100
AcDbXrecord
280
     1
102
MATERIAL
148
0.0
149
0.0
149
0.0
 93
        0
 94
      127
282
     0
 72
     1
 77
     1
171
     1
175
     1
179
     1
273
     0
  0
XRECORD
  5
362
102
{ACAD_REACTORS
330
361
102
}
330
361
100
AcDbXrecord
280
     1
102
RTVSPropertyOp0
 70
     1
102
RTVSPropertyOp1
 70
     1
102
RTVSPropertyOp2
 70
     1
102
RTVSPropertyOp3
 70
     1
102
RTVSPropertyOp4
 70
     1
102
RTVSPropertyOp5
 70
     1
102
RTVSPropertyOp6
 70
     1
102
RTVSPropertyOp7
 70
     1
102
RTVSPropertyOp8
 70
     1
102
RTVSPropertyOp9
 70
     1
102
RTVSPropertyOp10
 70
     1
102
RTVSPropertyOp11
 70
     1
102
RTVSPropertyOp12
 70
     1
102
RTVSPropertyOp13
 70
     1
102
RTVSPropertyOp14
 70
     1
102
RTVSPropertyOp15
 70
     1
102
RTVSPropertyOp16
 70
     1
102
RTVSPropertyOp17
 70
     1
102
RTVSPropertyOp18
 70
     1
102
RTVSPropertyOp19
 70
     1
102
RTVSPropertyOp20
 70
     1
102
RTVSPropertyOp21
 70
     1
102
RTVSPropertyOp22
 70
     1
102
RTVSPropertyOp23
 70
     1
102
RTVSPropertyOp24
 70
     1
102
RTVSPropertyOp25
 70
     1
102
RTVSPropertyOp26
 70
     1
102
RTVSPropertyOp27
 70
     1
102
RTVSPropertyOp28
 70
     1
102
RTVSPropertyOp29
 70
     1
102
RTVSPropertyOp30
 70
     1
102
RTVSPropertyOp31
 70
     1
102
RTVSPropertyOp32
 70
     1
  0
XRECORD
  5
366
102
{ACAD_REACTORS
330
365
102
}
330
365
100
AcDbXrecord
280
     1
102
RTVSPropertyOp0
 70
     1
102
RTVSPropertyOp1
 70
     1
102
RTVSPropertyOp2
 70
     1
102
RTVSPropertyOp3
 70
     1
102
RTVSPropertyOp4
 70
     1
102
RTVSPropertyOp5
 70
     1
102
RTVSPropertyOp6
 70
     1
102
RTVSPropertyOp7
 70
     1
102
RTVSPropertyOp8
 70
     1
102
RTVSPropertyOp9
 70
     1
102
RTVSPropertyOp10
 70
     1
102
RTVSPropertyOp11
 70
     1
102
RTVSPropertyOp12
 70
     1
102
RTVSPropertyOp13
 70
     1
102
RTVSPropertyOp14
 70
     1
102
RTVSPropertyOp15
 70
     1
102
RTVSPropertyOp16
 70
     1
102
RTVSPropertyOp17
 70
     1
102
RTVSPropertyOp18
 70
     1
102
RTVSPropertyOp19
 70
     1
102
RTVSPropertyOp20
 70
     1
102
RTVSPropertyOp21
 70
     1
102
RTVSPropertyOp22
 70
     1
102
RTVSPropertyOp23
 70
     1
102
RTVSPropertyOp24
 70
     1
102
RTVSPropertyOp25
 70
     1
102
RTVSPropertyOp26
 70
     1
102
RTVSPropertyOp27
 70
     1
102
RTVSPropertyOp28
 70
     1
102
RTVSPropertyOp29
 70
     1
102
RTVSPropertyOp30
 70
     1
102
RTVSPropertyOp31
 70
     1
102
RTVSPropertyOp32
 70
     1
  0
XRECORD
  5
364
102
{ACAD_REACTORS
330
363
102
}
330
363
100
AcDbXrecord
280
     1
102
RTVSPropertyOp0
 70
     1
102
RTVSPropertyOp1
 70
     1
102
RTVSPropertyOp2
 70
     1
102
RTVSPropertyOp3
 70
     1
102
RTVSPropertyOp4
 70
     1
102
RTVSPropertyOp5
 70
     1
102
RTVSPropertyOp6
 70
     1
102
RTVSPropertyOp7
 70
     1
102
RTVSPropertyOp8
 70
     1
102
RTVSPropertyOp9
 70
     1
102
RTVSPropertyOp10
 70
     1
102
RTVSPropertyOp11
 70
     1
102
RTVSPropertyOp12
 70
     1
102
RTVSPropertyOp13
 70
     1
102
RTVSPropertyOp14
 70
     1
102
RTVSPropertyOp15
 70
     1
102
RTVSPropertyOp16
 70
     1
102
RTVSPropertyOp17
 70
     1
102
RTVSPropertyOp18
 70
     1
102
RTVSPropertyOp19
 70
     1
102
RTVSPropertyOp20
 70
     1
102
RTVSPropertyOp21
 70
     1
102
RTVSPropertyOp22
 70
     1
102
RTVSPropertyOp23
 70
     1
102
RTVSPropertyOp24
 70
     1
102
RTVSPropertyOp25
 70
     1
102
RTVSPropertyOp26
 70
     1
102
RTVSPropertyOp27
 70
     1
102
RTVSPropertyOp28
 70
     1
102
RTVSPropertyOp29
 70
     1
102
RTVSPropertyOp30
 70
     1
102
RTVSPropertyOp31
 70
     1
102
RTVSPropertyOp32
 70
     1
  0
XRECORD
  5
368
102
{ACAD_REACTORS
330
367
102
}
330
367
100
AcDbXrecord
280
     1
102
RTVSPropertyOp0
 70
     1
102
RTVSPropertyOp1
 70
     1
102
RTVSPropertyOp2
 70
     1
102
RTVSPropertyOp3
 70
     1
102
RTVSPropertyOp4
 70
     1
102
RTVSPropertyOp5
 70
     1
102
RTVSPropertyOp6
 70
     1
102
RTVSPropertyOp7
 70
     1
102
RTVSPropertyOp8
 70
     1
102
RTVSPropertyOp9
 70
     1
102
RTVSPropertyOp10
 70
     1
102
RTVSPropertyOp11
 70
     1
102
RTVSPropertyOp12
 70
     1
102
RTVSPropertyOp13
 70
     1
102
RTVSPropertyOp14
 70
     1
102
RTVSPropertyOp15
 70
     1
102
RTVSPropertyOp16
 70
     1
102
RTVSPropertyOp17
 70
     1
102
RTVSPropertyOp18
 70
     1
102
RTVSPropertyOp19
 70
     1
102
RTVSPropertyOp20
 70
     1
102
RTVSPropertyOp21
 70
     1
102
RTVSPropertyOp22
 70
     1
102
RTVSPropertyOp23
 70
     1
102
RTVSPropertyOp24
 70
     1
102
RTVSPropertyOp25
 70
     1
102
RTVSPropertyOp26
 70
     1
102
RTVSPropertyOp27
 70
     1
102
RTVSPropertyOp28
 70
     1
102
RTVSPropertyOp29
 70
     1
102
RTVSPropertyOp30
 70
     1
102
RTVSPropertyOp31
 70
     1
102
RTVSPropertyOp32
 70
     1
  0
XRECORD
  5
370
102
{ACAD_REACTORS
330
36F
102
}
330
36F
100
AcDbXrecord
280
     1
102
RTVSPropertyOp0
 70
     1
102
RTVSPropertyOp1
 70
     1
102
RTVSPropertyOp2
 70
     1
102
RTVSPropertyOp3
 70
     1
102
RTVSPropertyOp4
 70
     1
102
RTVSPropertyOp5
 70
     1
102
RTVSPropertyOp6
 70
     1
102
RTVSPropertyOp7
 70
     1
102
RTVSPropertyOp8
 70
     1
102
RTVSPropertyOp9
 70
     1
102
RTVSPropertyOp10
 70
     1
102
RTVSPropertyOp11
 70
     1
102
RTVSPropertyOp12
 70
     1
102
RTVSPropertyOp13
 70
     1
102
RTVSPropertyOp14
 70
     1
102
RTVSPropertyOp15
 70
     1
102
RTVSPropertyOp16
 70
     1
102
RTVSPropertyOp17
 70
     1
102
RTVSPropertyOp18
 70
     1
102
RTVSPropertyOp19
 70
     1
102
RTVSPropertyOp20
 70
     1
102
RTVSPropertyOp21
 70
     1
102
RTVSPropertyOp22
 70
     1
102
RTVSPropertyOp23
 70
     1
102
RTVSPropertyOp24
 70
     1
102
RTVSPropertyOp25
 70
     1
102
RTVSPropertyOp26
 70
     1
102
RTVSPropertyOp27
 70
     1
102
RTVSPropertyOp28
 70
     1
102
RTVSPropertyOp29
 70
     1
102
RTVSPropertyOp30
 70
     1
102
RTVSPropertyOp31
 70
     1
102
RTVSPropertyOp32
 70
     1
  0
XRECORD
  5
378
102
{ACAD_REACTORS
330
377
102
}
330
377
100
AcDbXrecord
280
     1
102
RTVSPropertyOp0
 70
     1
102
RTVSPropertyOp1
 70
     1
102
RTVSPropertyOp2
 70
     1
102
RTVSPropertyOp3
 70
     1
102
RTVSPropertyOp4
 70
     1
102
RTVSPropertyOp5
 70
     1
102
RTVSPropertyOp6
 70
     1
102
RTVSPropertyOp7
 70
     1
102
RTVSPropertyOp8
 70
     1
102
RTVSPropertyOp9
 70
     1
102
RTVSPropertyOp10
 70
     1
102
RTVSPropertyOp11
 70
     1
102
RTVSPropertyOp12
 70
     1
102
RTVSPropertyOp13
 70
     1
102
RTVSPropertyOp14
 70
     1
102
RTVSPropertyOp15
 70
     1
102
RTVSPropertyOp16
 70
     1
102
RTVSPropertyOp17
 70
     1
102
RTVSPropertyOp18
 70
     1
102
RTVSPropertyOp19
 70
     1
102
RTVSPropertyOp20
 70
     1
102
RTVSPropertyOp21
 70
     1
102
RTVSPropertyOp22
 70
     1
102
RTVSPropertyOp23
 70
     1
102
RTVSPropertyOp24
 70
     1
102
RTVSPropertyOp25
 70
     1
102
RTVSPropertyOp26
 70
     1
102
RTVSPropertyOp27
 70
     1
102
RTVSPropertyOp28
 70
     1
102
RTVSPropertyOp29
 70
     1
102
RTVSPropertyOp30
 70
     1
102
RTVSPropertyOp31
 70
     1
102
RTVSPropertyOp32
 70
     1
  0
XRECORD
  5
36C
102
{ACAD_REACTORS
330
36B
102
}
330
36B
100
AcDbXrecord
280
     1
102
RTVSPropertyOp0
 70
     1
102
RTVSPropertyOp1
 70
     1
102
RTVSPropertyOp2
 70
     1
102
RTVSPropertyOp3
 70
     1
102
RTVSPropertyOp4
 70
     1
102
RTVSPropertyOp5
 70
     1
102
RTVSPropertyOp6
 70
     1
102
RTVSPropertyOp7
 70
     1
102
RTVSPropertyOp8
 70
     1
102
RTVSPropertyOp9
 70
     1
102
RTVSPropertyOp10
 70
     1
102
RTVSPropertyOp11
 70
     1
102
RTVSPropertyOp12
 70
     1
102
RTVSPropertyOp13
 70
     1
102
RTVSPropertyOp14
 70
     1
102
RTVSPropertyOp15
 70
     1
102
RTVSPropertyOp16
 70
     1
102
RTVSPropertyOp17
 70
     1
102
RTVSPropertyOp18
 70
     1
102
RTVSPropertyOp19
 70
     1
102
RTVSPropertyOp20
 70
     1
102
RTVSPropertyOp21
 70
     1
102
RTVSPropertyOp22
 70
     1
102
RTVSPropertyOp23
 70
     1
102
RTVSPropertyOp24
 70
     1
102
RTVSPropertyOp25
 70
     1
102
RTVSPropertyOp26
 70
     1
102
RTVSPropertyOp27
 70
     1
102
RTVSPropertyOp28
 70
     1
102
RTVSPropertyOp29
 70
     1
102
RTVSPropertyOp30
 70
     1
102
RTVSPropertyOp31
 70
     1
102
RTVSPropertyOp32
 70
     1
  0
XRECORD
  5
36E
102
{ACAD_REACTORS
330
36D
102
}
330
36D
100
AcDbXrecord
280
     1
102
RTVSPropertyOp0
 70
     1
102
RTVSPropertyOp1
 70
     1
102
RTVSPropertyOp2
 70
     1
102
RTVSPropertyOp3
 70
     1
102
RTVSPropertyOp4
 70
     1
102
RTVSPropertyOp5
 70
     1
102
RTVSPropertyOp6
 70
     1
102
RTVSPropertyOp7
 70
     1
102
RTVSPropertyOp8
 70
     1
102
RTVSPropertyOp9
 70
     1
102
RTVSPropertyOp10
 70
     1
102
RTVSPropertyOp11
 70
     1
102
RTVSPropertyOp12
 70
     1
102
RTVSPropertyOp13
 70
     1
102
RTVSPropertyOp14
 70
     1
102
RTVSPropertyOp15
 70
     1
102
RTVSPropertyOp16
 70
     1
102
RTVSPropertyOp17
 70
     1
102
RTVSPropertyOp18
 70
     1
102
RTVSPropertyOp19
 70
     1
102
RTVSPropertyOp20
 70
     1
102
RTVSPropertyOp21
 70
     1
102
RTVSPropertyOp22
 70
     1
102
RTVSPropertyOp23
 70
     1
102
RTVSPropertyOp24
 70
     1
102
RTVSPropertyOp25
 70
     1
102
RTVSPropertyOp26
 70
     1
102
RTVSPropertyOp27
 70
     1
102
RTVSPropertyOp28
 70
     1
102
RTVSPropertyOp29
 70
     1
102
RTVSPropertyOp30
 70
     1
102
RTVSPropertyOp31
 70
     1
102
RTVSPropertyOp32
 70
     1
  0
XRECORD
  5
376
102
{ACAD_REACTORS
330
375
102
}
330
375
100
AcDbXrecord
280
     1
102
RTVSPropertyOp0
 70
     1
102
RTVSPropertyOp1
 70
     1
102
RTVSPropertyOp2
 70
     1
102
RTVSPropertyOp3
 70
     1
102
RTVSPropertyOp4
 70
     1
102
RTVSPropertyOp5
 70
     1
102
RTVSPropertyOp6
 70
     1
102
RTVSPropertyOp7
 70
     1
102
RTVSPropertyOp8
 70
     1
102
RTVSPropertyOp9
 70
     1
102
RTVSPropertyOp10
 70
     1
102
RTVSPropertyOp11
 70
     1
102
RTVSPropertyOp12
 70
     1
102
RTVSPropertyOp13
 70
     1
102
RTVSPropertyOp14
 70
     1
102
RTVSPropertyOp15
 70
     1
102
RTVSPropertyOp16
 70
     1
102
RTVSPropertyOp17
 70
     1
102
RTVSPropertyOp18
 70
     1
102
RTVSPropertyOp19
 70
     1
102
RTVSPropertyOp20
 70
     1
102
RTVSPropertyOp21
 70
     1
102
RTVSPropertyOp22
 70
     1
102
RTVSPropertyOp23
 70
     1
102
RTVSPropertyOp24
 70
     1
102
RTVSPropertyOp25
 70
     1
102
RTVSPropertyOp26
 70
     1
102
RTVSPropertyOp27
 70
     1
102
RTVSPropertyOp28
 70
     1
102
RTVSPropertyOp29
 70
     1
102
RTVSPropertyOp30
 70
     1
102
RTVSPropertyOp31
 70
     1
102
RTVSPropertyOp32
 70
     1
  0
XRECORD
  5
35A
102
{ACAD_REACTORS
330
359
102
}
330
359
100
AcDbXrecord
280
     1
102
RTVSPropertyOp0
 70
     1
102
RTVSPropertyOp1
 70
     1
102
RTVSPropertyOp2
 70
     1
102
RTVSPropertyOp3
 70
     1
102
RTVSPropertyOp4
 70
     1
102
RTVSPropertyOp5
 70
     1
102
RTVSPropertyOp6
 70
     1
102
RTVSPropertyOp7
 70
     1
102
RTVSPropertyOp8
 70
     1
102
RTVSPropertyOp9
 70
     1
102
RTVSPropertyOp10
 70
     1
102
RTVSPropertyOp11
 70
     1
102
RTVSPropertyOp12
 70
     1
102
RTVSPropertyOp13
 70
     1
102
RTVSPropertyOp14
 70
     1
102
RTVSPropertyOp15
 70
     1
102
RTVSPropertyOp16
 70
     1
102
RTVSPropertyOp17
 70
     1
102
RTVSPropertyOp18
 70
     1
102
RTVSPropertyOp19
 70
     1
102
RTVSPropertyOp20
 70
     1
102
RTVSPropertyOp21
 70
     1
102
RTVSPropertyOp22
 70
     1
102
RTVSPropertyOp23
 70
     1
102
RTVSPropertyOp24
 70
     1
102
RTVSPropertyOp25
 70
     1
102
RTVSPropertyOp26
 70
     1
102
RTVSPropertyOp27
 70
     1
102
RTVSPropertyOp28
 70
     1
102
RTVSPropertyOp29
 70
     1
102
RTVSPropertyOp30
 70
     1
102
RTVSPropertyOp31
 70
     1
102
RTVSPropertyOp32
 70
     1
  0
XRECORD
  5
35C
102
{ACAD_REACTORS
330
35B
102
}
330
35B
100
AcDbXrecord
280
     1
102
RTVSPropertyOp0
 70
     1
102
RTVSPropertyOp1
 70
     1
102
RTVSPropertyOp2
 70
     1
102
RTVSPropertyOp3
 70
     1
102
RTVSPropertyOp4
 70
     1
102
RTVSPropertyOp5
 70
     1
102
RTVSPropertyOp6
 70
     1
102
RTVSPropertyOp7
 70
     1
102
RTVSPropertyOp8
 70
     1
102
RTVSPropertyOp9
 70
     1
102
RTVSPropertyOp10
 70
     1
102
RTVSPropertyOp11
 70
     1
102
RTVSPropertyOp12
 70
     1
102
RTVSPropertyOp13
 70
     1
102
RTVSPropertyOp14
 70
     1
102
RTVSPropertyOp15
 70
     1
102
RTVSPropertyOp16
 70
     1
102
RTVSPropertyOp17
 70
     1
102
RTVSPropertyOp18
 70
     1
102
RTVSPropertyOp19
 70
     1
102
RTVSPropertyOp20
 70
     1
102
RTVSPropertyOp21
 70
     1
102
RTVSPropertyOp22
 70
     1
102
RTVSPropertyOp23
 70
     1
102
RTVSPropertyOp24
 70
     1
102
RTVSPropertyOp25
 70
     1
102
RTVSPropertyOp26
 70
     1
102
RTVSPropertyOp27
 70
     1
102
RTVSPropertyOp28
 70
     1
102
RTVSPropertyOp29
 70
     1
102
RTVSPropertyOp30
 70
     1
102
RTVSPropertyOp31
 70
     1
102
RTVSPropertyOp32
 70
     1
  0
XRECORD
  5
35E
102
{ACAD_REACTORS
330
35D
102
}
330
35D
100
AcDbXrecord
280
     1
102
RTVSPropertyOp0
 70
     1
102
RTVSPropertyOp1
 70
     1
102
RTVSPropertyOp2
 70
     1
102
RTVSPropertyOp3
 70
     1
102
RTVSPropertyOp4
 70
     1
102
RTVSPropertyOp5
 70
     1
102
RTVSPropertyOp6
 70
     1
102
RTVSPropertyOp7
 70
     1
102
RTVSPropertyOp8
 70
     1
102
RTVSPropertyOp9
 70
     1
102
RTVSPropertyOp10
 70
     1
102
RTVSPropertyOp11
 70
     1
102
RTVSPropertyOp12
 70
     1
102
RTVSPropertyOp13
 70
     1
102
RTVSPropertyOp14
 70
     1
102
RTVSPropertyOp15
 70
     1
102
RTVSPropertyOp16
 70
     1
102
RTVSPropertyOp17
 70
     1
102
RTVSPropertyOp18
 70
     1
102
RTVSPropertyOp19
 70
     1
102
RTVSPropertyOp20
 70
     1
102
RTVSPropertyOp21
 70
     1
102
RTVSPropertyOp22
 70
     1
102
RTVSPropertyOp23
 70
     1
102
RTVSPropertyOp24
 70
     1
102
RTVSPropertyOp25
 70
     1
102
RTVSPropertyOp26
 70
     1
102
RTVSPropertyOp27
 70
     1
102
RTVSPropertyOp28
 70
     1
102
RTVSPropertyOp29
 70
     1
102
RTVSPropertyOp30
 70
     1
102
RTVSPropertyOp31
 70
     1
102
RTVSPropertyOp32
 70
     1
  0
XRECORD
  5
360
102
{ACAD_REACTORS
330
35F
102
}
330
35F
100
AcDbXrecord
280
     1
102
RTVSPropertyOp0
 70
     1
102
RTVSPropertyOp1
 70
     1
102
RTVSPropertyOp2
 70
     1
102
RTVSPropertyOp3
 70
     1
102
RTVSPropertyOp4
 70
     1
102
RTVSPropertyOp5
 70
     1
102
RTVSPropertyOp6
 70
     1
102
RTVSPropertyOp7
 70
     1
102
RTVSPropertyOp8
 70
     1
102
RTVSPropertyOp9
 70
     1
102
RTVSPropertyOp10
 70
     1
102
RTVSPropertyOp11
 70
     1
102
RTVSPropertyOp12
 70
     1
102
RTVSPropertyOp13
 70
     1
102
RTVSPropertyOp14
 70
     1
102
RTVSPropertyOp15
 70
     1
102
RTVSPropertyOp16
 70
     1
102
RTVSPropertyOp17
 70
     1
102
RTVSPropertyOp18
 70
     1
102
RTVSPropertyOp19
 70
     1
102
RTVSPropertyOp20
 70
     1
102
RTVSPropertyOp21
 70
     1
102
RTVSPropertyOp22
 70
     1
102
RTVSPropertyOp23
 70
     1
102
RTVSPropertyOp24
 70
     1
102
RTVSPropertyOp25
 70
     1
102
RTVSPropertyOp26
 70
     1
102
RTVSPropertyOp27
 70
     1
102
RTVSPropertyOp28
 70
     1
102
RTVSPropertyOp29
 70
     1
102
RTVSPropertyOp30
 70
     1
102
RTVSPropertyOp31
 70
     1
102
RTVSPropertyOp32
 70
     1
  0
XRECORD
  5
374
102
{ACAD_REACTORS
330
373
102
}
330
373
100
AcDbXrecord
280
     1
102
RTVSPropertyOp0
 70
     1
102
RTVSPropertyOp1
 70
     1
102
RTVSPropertyOp2
 70
     1
102
RTVSPropertyOp3
 70
     1
102
RTVSPropertyOp4
 70
     1
102
RTVSPropertyOp5
 70
     1
102
RTVSPropertyOp6
 70
     1
102
RTVSPropertyOp7
 70
     1
102
RTVSPropertyOp8
 70
     1
102
RTVSPropertyOp9
 70
     1
102
RTVSPropertyOp10
 70
     1
102
RTVSPropertyOp11
 70
     1
102
RTVSPropertyOp12
 70
     1
102
RTVSPropertyOp13
 70
     1
102
RTVSPropertyOp14
 70
     1
102
RTVSPropertyOp15
 70
     1
102
RTVSPropertyOp16
 70
     1
102
RTVSPropertyOp17
 70
     1
102
RTVSPropertyOp18
 70
     1
102
RTVSPropertyOp19
 70
     1
102
RTVSPropertyOp20
 70
     1
102
RTVSPropertyOp21
 70
     1
102
RTVSPropertyOp22
 70
     1
102
RTVSPropertyOp23
 70
     1
102
RTVSPropertyOp24
 70
     1
102
RTVSPropertyOp25
 70
     1
102
RTVSPropertyOp26
 70
     1
102
RTVSPropertyOp27
 70
     1
102
RTVSPropertyOp28
 70
     1
102
RTVSPropertyOp29
 70
     1
102
RTVSPropertyOp30
 70
     1
102
RTVSPropertyOp31
 70
     1
102
RTVSPropertyOp32
 70
     1
  0
XRECORD
  5
36A
102
{ACAD_REACTORS
330
369
102
}
330
369
100
AcDbXrecord
280
     1
102
RTVSPropertyOp0
 70
     1
102
RTVSPropertyOp1
 70
     1
102
RTVSPropertyOp2
 70
     1
102
RTVSPropertyOp3
 70
     1
102
RTVSPropertyOp4
 70
     1
102
RTVSPropertyOp5
 70
     1
102
RTVSPropertyOp6
 70
     1
102
RTVSPropertyOp7
 70
     1
102
RTVSPropertyOp8
 70
     1
102
RTVSPropertyOp9
 70
     1
102
RTVSPropertyOp10
 70
     1
102
RTVSPropertyOp11
 70
     1
102
RTVSPropertyOp12
 70
     1
102
RTVSPropertyOp13
 70
     1
102
RTVSPropertyOp14
 70
     1
102
RTVSPropertyOp15
 70
     1
102
RTVSPropertyOp16
 70
     1
102
RTVSPropertyOp17
 70
     1
102
RTVSPropertyOp18
 70
     1
102
RTVSPropertyOp19
 70
     1
102
RTVSPropertyOp20
 70
     1
102
RTVSPropertyOp21
 70
     1
102
RTVSPropertyOp22
 70
     1
102
RTVSPropertyOp23
 70
     1
102
RTVSPropertyOp24
 70
     1
102
RTVSPropertyOp25
 70
     1
102
RTVSPropertyOp26
 70
     1
102
RTVSPropertyOp27
 70
     1
102
RTVSPropertyOp28
 70
     1
102
RTVSPropertyOp29
 70
     1
102
RTVSPropertyOp30
 70
     1
102
RTVSPropertyOp31
 70
     1
102
RTVSPropertyOp32
 70
     1
  0
XRECORD
  5
372
102
{ACAD_REACTORS
330
371
102
}
330
371
100
AcDbXrecord
280
     1
102
RTVSPropertyOp0
 70
     1
102
RTVSPropertyOp1
 70
     1
102
RTVSPropertyOp2
 70
     1
102
RTVSPropertyOp3
 70
     1
102
RTVSPropertyOp4
 70
     1
102
RTVSPropertyOp5
 70
     1
102
RTVSPropertyOp6
 70
     1
102
RTVSPropertyOp7
 70
     1
102
RTVSPropertyOp8
 70
     1
102
RTVSPropertyOp9
 70
     1
102
RTVSPropertyOp10
 70
     1
102
RTVSPropertyOp11
 70
     1
102
RTVSPropertyOp12
 70
     1
102
RTVSPropertyOp13
 70
     1
102
RTVSPropertyOp14
 70
     1
102
RTVSPropertyOp15
 70
     1
102
RTVSPropertyOp16
 70
     1
102
RTVSPropertyOp17
 70
     1
102
RTVSPropertyOp18
 70
     1
102
RTVSPropertyOp19
 70
     1
102
RTVSPropertyOp20
 70
     1
102
RTVSPropertyOp21
 70
     1
102
RTVSPropertyOp22
 70
     1
102
RTVSPropertyOp23
 70
     1
102
RTVSPropertyOp24
 70
     1
102
RTVSPropertyOp25
 70
     1
102
RTVSPropertyOp26
 70
     1
102
RTVSPropertyOp27
 70
     1
102
RTVSPropertyOp28
 70
     1
102
RTVSPropertyOp29
 70
     1
102
RTVSPropertyOp30
 70
     1
102
RTVSPropertyOp31
 70
     1
102
RTVSPropertyOp32
 70
     1
  0
ENDSEC
  0
EOF
