  0
SECTION
  2
HEADER
  9
$ACADVER
  1
AC1018
  9
$ACADMAINTVER
 70
     0
  9
$DWGCODEPAGE
  3
ANSI_932
  9
$INSBASE
 10
0.0
 20
0.0
 30
0.0
  9
$EXTMIN
 10
-105.0
 20
-148.5
 30
0.0
  9
$EXTMAX
 10
105.0
 20
148.5
 30
0.0
  9
$LIMMIN
 10
-105.0
 20
-148.5
  9
$LIMMAX
 10
105.0
 20
148.5
  9
$ORTHOMODE
 70
     0
  9
$REGENMODE
 70
     1
  9
$FILLMODE
 70
     1
  9
$QTEXTMODE
 70
     0
  9
$MIRRTEXT
 70
     1
  9
$LTSCALE
 40
1.0
  9
$ATTMODE
 70
     1
  9
$TEXTSIZE
 40
2.5
  9
$TRACEWID
 40
1.0
  9
$TEXTSTYLE
  7
Standard
  9
$CLAYER
  8
0
  9
$CELTYPE
  6
ByLayer
  9
$CECOLOR
 62
   256
  9
$CELTSCALE
 40
1.0
  9
$DISPSILH
 70
     0
  9
$DIMSCALE
 40
1.0
  9
$DIMASZ
 40
2.5
  9
$DIMEXO
 40
0.625
  9
$DIMDLI
 40
3.75
  9
$DIMRND
 40
0.0
  9
$DIMDLE
 40
0.0
  9
$DIMEXE
 40
1.25
  9
$DIMTP
 40
0.0
  9
$DIMTM
 40
0.0
  9
$DIMTXT
 40
2.5
  9
$DIMCEN
 40
2.5
  9
$DIMTSZ
 40
0.0
  9
$DIMTOL
 70
     0
  9
$DIMLIM
 70
     0
  9
$DIMTIH
 70
     0
  9
$DIMTOH
 70
     0
  9
$DIMSE1
 70
     0
  9
$DIMSE2
 70
     0
  9
$DIMTAD
 70
     1
  9
$DIMZIN
 70
     8
  9
$DIMBLK
  1

  9
$DIMASO
 70
     1
  9
$DIMSHO
 70
     1
  9
$DIMPOST
  1

  9
$DIMAPOST
  1

  9
$DIMALT
 70
     0
  9
$DIMALTD
 70
     3
  9
$DIMALTF
 40
0.03937007874016
  9
$DIMLFAC
 40
1.0
  9
$DIMTOFL
 70
     1
  9
$DIMTVP
 40
0.0
  9
$DIMTIX
 70
     0
  9
$DIMSOXD
 70
     0
  9
$DIMSAH
 70
     0
  9
$DIMBLK1
  1

  9
$DIMBLK2
  1

  9
$DIMSTYLE
  2
ISO-25
  9
$DIMCLRD
 70
     0
  9
$DIMCLRE
 70
     0
  9
$DIMCLRT
 70
     0
  9
$DIMTFAC
 40
1.0
  9
$DIMGAP
 40
0.625
  9
$DIMJUST
 70
     0
  9
$DIMSD1
 70
     0
  9
$DIMSD2
 70
     0
  9
$DIMTOLJ
 70
     0
  9
$DIMTZIN
 70
     8
  9
$DIMALTZ
 70
     0
  9
$DIMALTTZ
 70
     0
  9
$DIMUPT
 70
     0
  9
$DIMDEC
 70
     2
  9
$DIMTDEC
 70
     2
  9
$DIMALTU
 70
     2
  9
$DIMALTTD
 70
     3
  9
$DIMTXSTY
  7
Standard
  9
$DIMAUNIT
 70
     0
  9
$DIMADEC
 70
     0
  9
$DIMALTRND
 40
0.0
  9
$DIMAZIN
 70
     0
  9
$DIMDSEP
 70
    44
  9
$DIMATFIT
 70
     3
  9
$DIMFRAC
 70
     0
  9
$DIMLDRBLK
  1

  9
$DIMLUNIT
 70
     2
  9
$DIMLWD
 70
    -2
  9
$DIMLWE
 70
    -2
  9
$DIMTMOVE
 70
     0
  9
$LUNITS
 70
     2
  9
$LUPREC
 70
     4
  9
$SKETCHINC
 40
1.0
  9
$FILLETRAD
 40
10.0
  9
$AUNITS
 70
     0
  9
$AUPREC
 70
     0
  9
$MENU
  1
.
  9
$ELEVATION
 40
0.0
  9
$PELEVATION
 40
0.0
  9
$THICKNESS
 40
0.0
  9
$LIMCHECK
 70
     0
  9
$CHAMFERA
 40
10.0
  9
$CHAMFERB
 40
10.0
  9
$CHAMFERC
 40
20.0
  9
$CHAMFERD
 40
0.0
  9
$SKPOLY
 70
     0
  9
$TDCREATE
 40
2457284.494249641
  9
$TDUCREATE
 40
2457284.119249641
  9
$TDUPDATE
 40
2457284.494250197
  9
$TDUUPDATE
 40
2457284.119250197
  9
$TDINDWG
 40
0.0000000116
  9
$TDUSRTIMER
 40
0.0000000116
  9
$USRTIMER
 70
     1
  9
$ANGBASE
 50
0.0
  9
$ANGDIR
 70
     0
  9
$PDMODE
 70
     0
  9
$PDSIZE
 40
0.0
  9
$PLINEWID
 40
0.0
  9
$SPLFRAME
 70
     0
  9
$SPLINETYPE
 70
     6
  9
$SPLINESEGS
 70
     8
  9
$HANDSEED
  5
37A
  9
$SURFTAB1
 70
     6
  9
$SURFTAB2
 70
     6
  9
$SURFTYPE
 70
     6
  9
$SURFU
 70
     6
  9
$SURFV
 70
     6
  9
$UCSBASE
  2

  9
$UCSNAME
  2

  9
$UCSORG
 10
0.0
 20
0.0
 30
0.0
  9
$UCSXDIR
 10
1.0
 20
0.0
 30
0.0
  9
$UCSYDIR
 10
0.0
 20
1.0
 30
0.0
  9
$UCSORTHOREF
  2

  9
$UCSORTHOVIEW
 70
     0
  9
$UCSORGTOP
 10
0.0
 20
0.0
 30
0.0
  9
$UCSORGBOTTOM
 10
0.0
 20
0.0
 30
0.0
  9
$UCSORGLEFT
 10
0.0
 20
0.0
 30
0.0
  9
$UCSORGRIGHT
 10
0.0
 20
0.0
 30
0.0
  9
$UCSORGFRONT
 10
0.0
 20
0.0
 30
0.0
  9
$UCSORGBACK
 10
0.0
 20
0.0
 30
0.0
  9
$PUCSBASE
  2

  9
$PUCSNAME
  2

  9
$PUCSORG
 10
0.0
 20
0.0
 30
0.0
  9
$PUCSXDIR
 10
1.0
 20
0.0
 30
0.0
  9
$PUCSYDIR
 10
0.0
 20
1.0
 30
0.0
  9
$PUCSORTHOREF
  2

  9
$PUCSORTHOVIEW
 70
     0
  9
$PUCSORGTOP
 10
0.0
 20
0.0
 30
0.0
  9
$PUCSORGBOTTOM
 10
0.0
 20
0.0
 30
0.0
  9
$PUCSORGLEFT
 10
0.0
 20
0.0
 30
0.0
  9
$PUCSORGRIGHT
 10
0.0
 20
0.0
 30
0.0
  9
$PUCSORGFRONT
 10
0.0
 20
0.0
 30
0.0
  9
$PUCSORGBACK
 10
0.0
 20
0.0
 30
0.0
  9
$USERI1
 70
     0
  9
$USERI2
 70
     0
  9
$USERI3
 70
     0
  9
$USERI4
 70
     0
  9
$USERI5
 70
     0
  9
$USERR1
 40
0.0
  9
$USERR2
 40
0.0
  9
$USERR3
 40
0.0
  9
$USERR4
 40
0.0
  9
$USERR5
 40
0.0
  9
$WORLDVIEW
 70
     1
  9
$SHADEDGE
 70
     3
  9
$SHADEDIF
 70
    70
  9
$TILEMODE
 70
     1
  9
$MAXACTVP
 70
    64
  9
$PINSBASE
 10
0.0
 20
0.0
 30
0.0
  9
$PLIMCHECK
 70
     0
  9
$PEXTMIN
 10
1.000000000000000E+20
 20
1.000000000000000E+20
 30
1.000000000000000E+20
  9
$PEXTMAX
 10
-1.000000000000000E+20
 20
-1.000000000000000E+20
 30
-1.000000000000000E+20
  9
$PLIMMIN
 10
-105.0
 20
-148.5
  9
$PLIMMAX
 10
105.0
 20
148.5
  9
$UNITMODE
 70
     0
  9
$VISRETAIN
 70
     1
  9
$PLINEGEN
 70
     0
  9
$PSLTSCALE
 70
     1
  9
$TREEDEPTH
 70
  3020
  9
$CMLSTYLE
  2
Standard
  9
$CMLJUST
 70
     0
  9
$CMLSCALE
 40
20.0
  9
$PROXYGRAPHICS
 70
     1
  9
$MEASUREMENT
 70
     1
  9
$CELWEIGHT
370
    -1
  9
$ENDCAPS
280
     0
  9
$JOINSTYLE
280
     0
  9
$LWDISPLAY
290
     0
  9
$INSUNITS
 70
     4
  9
$HYPERLINKBASE
  1

  9
$STYLESHEET
  1

  9
$XEDIT
290
     1
  9
$CEPSNTYPE
380
     0
  9
$PSTYLEMODE
290
     1
  9
$FINGERPRINTGUID
  2
{81CBDF7B-6912-45A6-AC48-792237010614}
  9
$VERSIONGUID
  2
{FAEB1C32-E019-11D5-929B-00C0DF256EC4}
  9
$EXTNAMES
290
     1
  9
$PSVPSCALE
 40
0.0
  9
$OLESTARTUP
290
     0
  9
$SORTENTS
280
   127
  9
$INDEXCTL
280
     0
  9
$HIDETEXT
280
     1
  9
$XCLIPFRAME
290
     0
  9
$HALOGAP
280
     0
  9
$OBSCOLOR
 70
   257
  9
$OBSLTYPE
280
     0
  9
$INTERSECTIONDISPLAY
280
     0
  9
$INTERSECTIONCOLOR
 70
   257
  9
$DIMASSOC
280
     2
  9
$PROJECTNAME
  1

  0
ENDSEC
  0
SECTION
  2
CLASSES
  0
CLASS
  1
ACDBDICTIONARYWDFLT
  2
AcDbDictionaryWithDefault
  3
ObjectDBX Classes
 90
        0
 91
        4
280
     0
281
     0
  0
CLASS
  1
VISUALSTYLE
  2
AcDbVisualStyle
  3
ObjectDBX Classes
 90
     4095
 91
        4
280
     0
281
     0
  0
CLASS
  1
MATERIAL
  2
AcDbMaterial
  3
ObjectDBX Classes
 90
     1153
 91
        4
280
     0
281
     0
  0
CLASS
  1
SUN
  2
AcDbSun
  3
SCENEOE
 90
     1024
 91
        4
280
     0
281
     0
  0
ENDSEC
  0
SECTION
  2
TABLES
  0
TABLE
  2
VPORT
  5
8
330
0
100
AcDbSymbolTable
 70
     1
  0
VPORT
  5
29
330
8
100
AcDbSymbolTableRecord
100
AcDbViewportTableRecord
  2
*Active
 70
     0
 10
0.0
 20
0.0
 11
1.0
 21
1.0
 12
344.1869158878504
 22
148.5
 13
0.0
 23
0.0
 14
10.0
 24
10.0
 15
10.0
 25
10.0
 16
0.0
 26
0.0
 36
1.0
 17
0.0
 27
0.0
 37
0.0
 40
297.0
 41
1.972972972850329
 42
50.0
 43
0.0
 44
0.0
 50
0.0
 51
0.0
 71
     0
 72
   100
 73
     1
 74
     3
 75
     0
 76
     0
 77
     0
 78
     0
281
     0
 65
     1
110
0.0
120
0.0
130
0.0
111
1.0
121
0.0
131
0.0
112
0.0
122
1.0
132
0.0
 79
     0
146
0.0
  0
ENDTAB
  0
TABLE
  2
LTYPE
  5
5
330
0
100
AcDbSymbolTable
 70
     5
  0
LTYPE
  5
14
330
5
100
AcDbSymbolTableRecord
100
AcDbLinetypeTableRecord
  2
ByBlock
 70
     0
  3

 72
    65
 73
     0
 40
0.0
  0
LTYPE
  5
15
330
5
100
AcDbSymbolTableRecord
100
AcDbLinetypeTableRecord
  2
ByLayer
 70
     0
  3

 72
    65
 73
     0
 40
0.0
  0
LTYPE
  5
16
330
5
100
AcDbSymbolTableRecord
100
AcDbLinetypeTableRecord
  2
Continuous
 70
     0
  3
Solid line
 72
    65
 73
     0
 40
0.0
  0
LTYPE
  5
40
330
5
100
AcDbSymbolTableRecord
100
AcDbLinetypeTableRecord
  2
CONTINOUS
 70
     0
  3
______________________________
 72
    65
 73
     0
 40
0.0
  0
LTYPE
  5
41
330
5
100
AcDbSymbolTableRecord
100
AcDbLinetypeTableRecord
  2
DASHED
 70
     0
  3
__ __ __ __ __ __ __ __ __ __ __ __ __ __ __ __
 72
    65
 73
     2
 40
4.5
 49
3.0
 74
     0
 49
-1.5
 74
     0
  0
LTYPE
  5
42
330
5
100
AcDbSymbolTableRecord
100
AcDbLinetypeTableRecord
  2
PHANTOM
 70
     0
  3
______  __  __  ______  __  __  _____
 72
    65
 73
     6
 40
15.0
 49
7.5
 74
     0
 49
-1.5
 74
     0
 49
1.5
 74
     0
 49
-1.5
 74
     0
 49
1.5
 74
     0
 49
-1.5
 74
     0
  0
LTYPE
  5
43
330
5
100
AcDbSymbolTableRecord
100
AcDbLinetypeTableRecord
  2
CENTER
 70
     0
  3
____ _ ____ _ ____ _ ____ _ ____ _ ____
 72
    65
 73
     4
 40
12.0
 49
7.5
 74
     0
 49
-1.5
 74
     0
 49
1.5
 74
     0
 49
-1.5
 74
     0
  0
ENDTAB
  0
TABLE
  2
LAYER
  5
2
330
0
100
AcDbSymbolTable
 70
     3
  0
LAYER
  5
10
330
2
100
AcDbSymbolTableRecord
100
AcDbLayerTableRecord
  2
0
 70
     0
 62
     7
  6
Continuous
370
    -3
390
F
  0
LAYER
  5
16C
330
2
100
AcDbSymbolTableRecord
100
AcDbLayerTableRecord
  2
Defpoints
 70
     0
 62
     7
  6
Continuous
290
     0
370
    -3
390
F
  0
LAYER
  5
33A
330
2
100
AcDbSymbolTableRecord
100
AcDbLayerTableRecord
  2
VIEW0001
 70
     0
 62
     7
  6
Continuous
370
    -3
390
F
  0
ENDTAB
  0
TABLE
  2
STYLE
  5
3
330
0
100
AcDbSymbolTable
 70
     1
  0
STYLE
  5
11
330
3
100
AcDbSymbolTableRecord
100
AcDbTextStyleTableRecord
  2
Standard
 70
     0
 40
0.0
 41
1.0
 50
0.0
 71
     0
 42
2.5
  3
ROMANS
  4
BIGFONT
  0
ENDTAB
  0
TABLE
  2
VIEW
  5
6
330
0
100
AcDbSymbolTable
 70
     0
  0
ENDTAB
  0
TABLE
  2
UCS
  5
7
330
0
100
AcDbSymbolTable
 70
     0
  0
ENDTAB
  0
TABLE
  2
APPID
  5
9
330
0
100
AcDbSymbolTable
 70
     1
  0
APPID
  5
12
330
9
100
AcDbSymbolTableRecord
100
AcDbRegAppTableRecord
  2
ACAD
 70
     0
  0
ENDTAB
  0
TABLE
  2
DIMSTYLE
  5
A
330
0
100
AcDbSymbolTable
 70
     1
100
AcDbDimStyleTable
  0
DIMSTYLE
105
27
102
{ACAD_REACTORS
330
165
330
17F
330
18C
330
198
330
1A8
330
1B5
330
1CA
330
1D7
330
1EC
330
201
330
20C
330
221
330
236
330
24B
330
258
330
266
330
273
330
280
330
28D
330
29A
330
2AE
330
2B9
330
2C6
330
2DC
330
2E8
330
2FD
330
314
330
321
330
32E
102
}
330
A
100
AcDbSymbolTableRecord
100
AcDbDimStyleTableRecord
  2
ISO-25
 70
     0
 41
2.5
 42
0.625
 43
3.75
 44
1.25
 73
     0
 74
     0
 77
     1
 78
     8
140
2.5
141
2.5
143
0.03937007874016
147
0.625
171
     3
172
     1
178
     0
271
     2
272
     2
274
     3
278
    44
283
     0
284
     8
340
11
  0
ENDTAB
  0
TABLE
  2
BLOCK_RECORD
  5
1
330
0
100
AcDbSymbolTable
 70
    32
  0
BLOCK_RECORD
  5
1F
330
1
100
AcDbSymbolTableRecord
100
AcDbBlockTableRecord
  2
*Model_Space
340
22
  0
BLOCK_RECORD
  5
1B
330
1
100
AcDbSymbolTableRecord
100
AcDbBlockTableRecord
  2
*Paper_Space
340
1E
  0
BLOCK_RECORD
  5
23
330
1
100
AcDbSymbolTableRecord
100
AcDbBlockTableRecord
  2
*Paper_Space0
340
26
  0
BLOCK_RECORD
  5
166
330
1
100
AcDbSymbolTableRecord
100
AcDbBlockTableRecord
  2
_OPEN30
340
0
102
{BLKREFS
331
0
331
0
331
187
331
186
331
193
331
192
331
0
331
1B0
331
1AF
331
0
331
0
331
1D2
331
1D1
331
0
331
0
331
0
331
0
331
207
331
206
331
0
331
0
331
0
331
0
331
0
331
0
331
252
331
251
331
260
331
25F
331
26D
331
26C
331
27A
331
279
331
287
331
286
331
295
331
294
331
0
331
0
331
2B4
331
2B3
331
2C1
331
2C0
331
0
331
0
331
2E3
331
2E2
331
0
331
0
331
0
331
0
331
31C
331
31B
331
329
331
328
331
335
331
334
102
}
  0
BLOCK_RECORD
  5
16D
330
1
100
AcDbSymbolTableRecord
100
AcDbBlockTableRecord
  2
*D2
340
0
  0
BLOCK_RECORD
  5
180
330
1
100
AcDbSymbolTableRecord
100
AcDbBlockTableRecord
  2
*D3
340
0
  0
BLOCK_RECORD
  5
18D
330
1
100
AcDbSymbolTableRecord
100
AcDbBlockTableRecord
  2
*D4
340
0
  0
BLOCK_RECORD
  5
199
330
1
100
AcDbSymbolTableRecord
100
AcDbBlockTableRecord
  2
_NONE
340
0
  0
BLOCK_RECORD
  5
19C
330
1
100
AcDbSymbolTableRecord
100
AcDbBlockTableRecord
  2
*D6
340
0
  0
BLOCK_RECORD
  5
1A9
330
1
100
AcDbSymbolTableRecord
100
AcDbBlockTableRecord
  2
*D7
340
0
  0
BLOCK_RECORD
  5
1B6
330
1
100
AcDbSymbolTableRecord
100
AcDbBlockTableRecord
  2
*D8
340
0
  0
BLOCK_RECORD
  5
1CB
330
1
100
AcDbSymbolTableRecord
100
AcDbBlockTableRecord
  2
*D9
340
0
  0
BLOCK_RECORD
  5
1D8
330
1
100
AcDbSymbolTableRecord
100
AcDbBlockTableRecord
  2
*D10
340
0
  0
BLOCK_RECORD
  5
1ED
330
1
100
AcDbSymbolTableRecord
100
AcDbBlockTableRecord
  2
*D11
340
0
  0
BLOCK_RECORD
  5
202
330
1
100
AcDbSymbolTableRecord
100
AcDbBlockTableRecord
  2
*D12
340
0
  0
BLOCK_RECORD
  5
20D
330
1
100
AcDbSymbolTableRecord
100
AcDbBlockTableRecord
  2
*D13
340
0
  0
BLOCK_RECORD
  5
222
330
1
100
AcDbSymbolTableRecord
100
AcDbBlockTableRecord
  2
*D14
340
0
  0
BLOCK_RECORD
  5
237
330
1
100
AcDbSymbolTableRecord
100
AcDbBlockTableRecord
  2
*D15
340
0
  0
BLOCK_RECORD
  5
24C
330
1
100
AcDbSymbolTableRecord
100
AcDbBlockTableRecord
  2
*D16
340
0
  0
BLOCK_RECORD
  5
259
330
1
100
AcDbSymbolTableRecord
100
AcDbBlockTableRecord
  2
*D17
340
0
  0
BLOCK_RECORD
  5
267
330
1
100
AcDbSymbolTableRecord
100
AcDbBlockTableRecord
  2
*D18
340
0
  0
BLOCK_RECORD
  5
274
330
1
100
AcDbSymbolTableRecord
100
AcDbBlockTableRecord
  2
*D19
340
0
  0
BLOCK_RECORD
  5
281
330
1
100
AcDbSymbolTableRecord
100
AcDbBlockTableRecord
  2
*D20
340
0
  0
BLOCK_RECORD
  5
28E
330
1
100
AcDbSymbolTableRecord
100
AcDbBlockTableRecord
  2
*D21
340
0
  0
BLOCK_RECORD
  5
29B
330
1
100
AcDbSymbolTableRecord
100
AcDbBlockTableRecord
  2
*D22
340
0
  0
BLOCK_RECORD
  5
2AF
330
1
100
AcDbSymbolTableRecord
100
AcDbBlockTableRecord
  2
*D23
340
0
  0
BLOCK_RECORD
  5
2BA
330
1
100
AcDbSymbolTableRecord
100
AcDbBlockTableRecord
  2
*D24
340
0
  0
BLOCK_RECORD
  5
2C7
330
1
100
AcDbSymbolTableRecord
100
AcDbBlockTableRecord
  2
*D25
340
0
  0
BLOCK_RECORD
  5
2DD
330
1
100
AcDbSymbolTableRecord
100
AcDbBlockTableRecord
  2
*D26
340
0
  0
BLOCK_RECORD
  5
2E9
330
1
100
AcDbSymbolTableRecord
100
AcDbBlockTableRecord
  2
*D27
340
0
  0
BLOCK_RECORD
  5
2FE
330
1
100
AcDbSymbolTableRecord
100
AcDbBlockTableRecord
  2
*D28
340
0
  0
BLOCK_RECORD
  5
315
330
1
100
AcDbSymbolTableRecord
100
AcDbBlockTableRecord
  2
*D29
340
0
  0
BLOCK_RECORD
  5
322
330
1
100
AcDbSymbolTableRecord
100
AcDbBlockTableRecord
  2
*D30
340
0
  0
BLOCK_RECORD
  5
32F
330
1
100
AcDbSymbolTableRecord
100
AcDbBlockTableRecord
  2
*D31
340
0
  0
ENDTAB
  0
ENDSEC
  0
SECTION
  2
BLOCKS
  0
BLOCK
  5
20
330
1F
100
AcDbEntity
  8
0
100
AcDbBlockBegin
  2
*Model_Space
 70
     0
 10
0.0
 20
0.0
 30
0.0
  3
*Model_Space
  1

  0
ENDBLK
  5
21
330
1F
100
AcDbEntity
  8
0
100
AcDbBlockEnd
  0
BLOCK
  5
1C
330
1B
100
AcDbEntity
 67
     1
  8
0
100
AcDbBlockBegin
  2
*Paper_Space
 70
     0
 10
0.0
 20
0.0
 30
0.0
  3
*Paper_Space
  1

  0
ENDBLK
  5
1D
330
1B
100
AcDbEntity
 67
     1
  8
0
100
AcDbBlockEnd
  0
BLOCK
  5
24
330
23
100
AcDbEntity
  8
0
100
AcDbBlockBegin
  2
*Paper_Space0
 70
     0
 10
0.0
 20
0.0
 30
0.0
  3
*Paper_Space0
  1

  0
ENDBLK
  5
25
330
23
100
AcDbEntity
  8
0
100
AcDbBlockEnd
  0
BLOCK
  5
167
330
166
100
AcDbEntity
  8
0
100
AcDbBlockBegin
  2
_OPEN30
 70
     0
 10
0.0
 20
0.0
 30
0.0
  3
_OPEN30
  1

  0
LINE
  5
169
330
166
100
AcDbEntity
  8
0
  6
ByBlock
 62
     0
370
    -2
100
AcDbLine
 10
-1.0
 20
0.267949
 30
0.0
 11
0.0
 21
0.0
 31
0.0
  0
LINE
  5
16A
330
166
100
AcDbEntity
  8
0
  6
ByBlock
 62
     0
370
    -2
100
AcDbLine
 10
0.0
 20
0.0
 30
0.0
 11
-1.0
 21
-0.267949
 31
0.0
  0
LINE
  5
16B
330
166
100
AcDbEntity
  8
0
  6
ByBlock
 62
     0
370
    -2
100
AcDbLine
 10
0.0
 20
0.0
 30
0.0
 11
-1.0
 21
0.0
 31
0.0
  0
ENDBLK
  5
168
330
166
100
AcDbEntity
  8
0
100
AcDbBlockEnd
  0
BLOCK
  5
16E
330
16D
100
AcDbEntity
  8
0
100
AcDbBlockBegin
  2
*D2
 70
     1
 10
0.0
 20
0.0
 30
0.0
  3
*D2
  1

  0
POINT
  5
174
330
16D
100
AcDbEntity
  8
Defpoints
 62
     0
100
AcDbPoint
 10
22.82220235809445
 20
92.39966583251953
 30
0.0
  0
POINT
  5
175
330
16D
100
AcDbEntity
  8
Defpoints
 62
     0
100
AcDbPoint
 10
-4.548575878143311
 20
92.39966583251953
 30
0.0
  0
POINT
  5
176
330
16D
100
AcDbEntity
  8
Defpoints
 62
     0
100
AcDbPoint
 10
29.86748969498798
 20
52.44387666339224
 30
0.0
  0
POINT
  5
177
330
16D
100
AcDbEntity
  8
Defpoints
 62
     0
100
AcDbPoint
 10
2.21499667038551
 20
78.84609255923581
 30
0.0
  0
ARC
  5
179
330
16D
100
AcDbEntity
  8
0
  6
Continuous
 62
     7
100
AcDbCircle
 10
22.82220458984375
 20
92.39966583251953
 30
0.0
 40
24.66628744473763
100
AcDbArc
 50
180.0
 51
280.0
  0
LINE
  5
17A
330
16D
100
AcDbEntity
  8
0
  6
Continuous
 62
     7
100
AcDbLine
 10
-1.84408285489388
 20
92.39966583251953
 30
0.0
 11
-0.838187252944076
 21
89.40163747394475
 31
0.0
  0
LINE
  5
17B
330
16D
100
AcDbEntity
  8
0
  6
Continuous
 62
     7
100
AcDbLine
 10
-1.84408285489388
 20
92.39966583251953
 30
0.0
 11
-2.471965889158691
 21
89.30034931171643
 31
0.0
  0
LINE
  5
17C
330
16D
100
AcDbEntity
  8
0
  6
Continuous
 62
     7
100
AcDbLine
 10
27.10546045443112
 20
68.10811471891422
 30
0.0
 11
24.16226026039348
 21
66.95157997293494
 31
0.0
  0
LINE
  5
17D
330
16D
100
AcDbEntity
  8
0
  6
Continuous
 62
     7
100
AcDbLine
 10
27.10546045443112
 20
68.10811471891422
 30
0.0
 11
23.97830694495444
 21
68.57812634537497
 31
0.0
  0
MTEXT
  5
17E
330
16D
100
AcDbEntity
  8
0
 62
     1
100
AcDbMText
 10
4.519039430907988
 20
76.52056164874794
 30
0.0
 40
3.200000047683716
 41
0.0
 71
     7
 72
     1
  1
\W0.6875;100°
 11
0.7760464070665457
 21
-0.6306758074312865
 31
0.0
 73
     1
 44
1.0
  0
ENDBLK
  5
16F
330
16D
100
AcDbEntity
  8
0
100
AcDbBlockEnd
  0
BLOCK
  5
181
330
180
100
AcDbEntity
  8
0
100
AcDbBlockBegin
  2
*D3
 70
     1
 10
0.0
 20
0.0
 30
0.0
  3
*D3
  1

  0
LINE
  5
183
330
180
100
AcDbEntity
  8
0
 62
     0
370
    -2
100
AcDbLine
 10
-59.46778396606445
 20
124.0246505737305
 30
0.0
 11
-70.38824353027343
 21
124.0246505737305
 31
0.0
  0
LINE
  5
184
330
180
100
AcDbEntity
  8
0
 62
     0
370
    -2
100
AcDbLine
 10
-39.69090942382812
 20
92.39965057373047
 30
0.0
 11
-70.38824353027341
 21
92.39965057373047
 31
0.0
  0
LINE
  5
185
330
180
100
AcDbEntity
  8
0
 62
     0
370
    -2
100
AcDbLine
 10
-68.88824353027343
 20
121.0246505737305
 30
0.0
 11
-68.88824353027341
 21
95.39965057373047
 31
0.0
  0
INSERT
  5
186
330
180
100
AcDbEntity
  8
0
 62
     0
370
    -2
100
AcDbBlockReference
  2
_OPEN30
 10
-68.88824353027343
 20
124.0246505737305
 30
0.0
 41
3.0
 42
3.0
 43
3.0
 50
90.00000000000001
  0
INSERT
  5
187
330
180
100
AcDbEntity
  8
0
 62
     0
370
    -2
100
AcDbBlockReference
  2
_OPEN30
 10
-68.88824353027341
 20
92.39965057373047
 30
0.0
 41
3.0
 42
3.0
 43
3.0
 50
270.0
  0
MTEXT
  5
188
330
180
100
AcDbEntity
  8
0
 62
     1
100
AcDbMText
 10
-71.30904356634616
 20
108.2131505737305
 30
0.0
 40
3.200000047683716
 41
0.0
 71
     5
 72
     1
  1
126.5
 11
-4.493550898087588E-16
 21
1.0
 31
0.0
 73
     1
 44
1.0
  0
POINT
  5
189
330
180
100
AcDbEntity
  8
Defpoints
 62
     0
100
AcDbPoint
 10
-56.92778396606445
 20
124.0246505737305
 30
0.0
  0
POINT
  5
18A
330
180
100
AcDbEntity
  8
Defpoints
 62
     0
100
AcDbPoint
 10
-37.15090942382812
 20
92.39965057373047
 30
0.0
  0
POINT
  5
18B
330
180
100
AcDbEntity
  8
Defpoints
 62
     0
100
AcDbPoint
 10
-68.89024353027344
 20
92.39965057373045
 30
0.0
  0
ENDBLK
  5
182
330
180
100
AcDbEntity
  8
0
100
AcDbBlockEnd
  0
BLOCK
  5
18E
330
18D
100
AcDbEntity
  8
0
100
AcDbBlockBegin
  2
*D4
 70
     1
 10
0.0
 20
0.0
 30
0.0
  3
*D4
  1

  0
LINE
  5
190
330
18D
100
AcDbEntity
  8
0
 62
     0
370
    -2
100
AcDbLine
 10
-38.21778778076172
 20
73.02465057373047
 30
0.0
 11
-70.38824353027341
 21
73.02465057373047
 31
0.0
  0
LINE
  5
191
330
18D
100
AcDbEntity
  8
0
 62
     0
370
    -2
100
AcDbLine
 10
-68.88824353027343
 20
89.39965057373047
 30
0.0
 11
-68.88824353027341
 21
76.02465057373047
 31
0.0
  0
INSERT
  5
192
330
18D
100
AcDbEntity
  8
0
 62
     0
370
    -2
100
AcDbBlockReference
  2
_OPEN30
 10
-68.88824353027343
 20
92.39965057373047
 30
0.0
 41
3.0
 42
3.0
 43
3.0
 50
90.00000000000006
  0
INSERT
  5
193
330
18D
100
AcDbEntity
  8
0
 62
     0
370
    -2
100
AcDbBlockReference
  2
_OPEN30
 10
-68.88824353027341
 20
73.02465057373047
 30
0.0
 41
3.0
 42
3.0
 43
3.0
 50
270.0000000000001
  0
MTEXT
  5
194
330
18D
100
AcDbEntity
  8
0
 62
     1
100
AcDbMText
 10
-71.30904356634616
 20
82.71315057373047
 30
0.0
 40
3.200000047683716
 41
0.0
 71
     5
 72
     1
  1
77.5
 11
-7.334634691717158E-16
 21
1.0
 31
0.0
 73
     1
 44
1.0
  0
POINT
  5
195
330
18D
100
AcDbEntity
  8
Defpoints
 62
     0
100
AcDbPoint
 10
-59.6478385925293
 20
92.39965057373047
 30
0.0
  0
POINT
  5
196
330
18D
100
AcDbEntity
  8
Defpoints
 62
     0
100
AcDbPoint
 10
-35.67778778076172
 20
73.02465057373047
 30
0.0
  0
POINT
  5
197
330
18D
100
AcDbEntity
  8
Defpoints
 62
     0
100
AcDbPoint
 10
-68.89024353027344
 20
73.02465057373045
 30
0.0
  0
ENDBLK
  5
18F
330
18D
100
AcDbEntity
  8
0
100
AcDbBlockEnd
  0
BLOCK
  5
19A
330
199
100
AcDbEntity
  8
0
100
AcDbBlockBegin
  2
_NONE
 70
     0
 10
0.0
 20
0.0
 30
0.0
  3
_NONE
  1

  0
ENDBLK
  5
19B
330
199
100
AcDbEntity
  8
0
100
AcDbBlockEnd
  0
BLOCK
  5
19D
330
19C
100
AcDbEntity
  8
0
100
AcDbBlockBegin
  2
*D6
 70
     1
 10
0.0
 20
0.0
 30
0.0
  3
*D6
  1

  0
POINT
  5
1A2
330
19C
100
AcDbEntity
  8
Defpoints
 62
     0
100
AcDbPoint
 10
-24.43000116836419
 20
82.05463812956137
 30
0.0
  0
POINT
  5
1A3
330
19C
100
AcDbEntity
  8
Defpoints
 62
     0
100
AcDbPoint
 10
-32.30278497954495
 20
92.39965021570268
 30
0.0
  0
LINE
  5
1A4
330
19C
100
AcDbEntity
  8
0
  6
Continuous
 62
     7
100
AcDbLine
 10
-32.30278497954495
 20
92.39965021570268
 30
0.0
 11
-24.43000116836419
 21
82.05463812956137
 31
0.0
  0
LINE
  5
1A5
330
19C
100
AcDbEntity
  8
0
  6
Continuous
 62
     7
100
AcDbLine
 10
-24.43000116836419
 20
82.05463812956137
 30
0.0
 11
-26.93112230826825
 21
83.98968155139087
 31
0.0
  0
LINE
  5
1A6
330
19C
100
AcDbEntity
  8
0
  6
Continuous
 62
     7
100
AcDbLine
 10
-24.43000116836419
 20
82.05463812956137
 30
0.0
 11
-25.62851390271768
 21
84.98099546017448
 31
0.0
  0
MTEXT
  5
1A7
330
19C
100
AcDbEntity
  8
0
 62
     1
100
AcDbMText
 10
-29.11334238283981
 20
89.52715171307642
 30
0.0
 40
3.200000047683716
 41
0.0
 71
     7
 72
     1
  1
\W0.6875;R52
 11
0.6059884002657112
 21
-0.7954734808548958
 31
0.0
 73
     1
 44
1.0
  0
ENDBLK
  5
19E
330
19C
100
AcDbEntity
  8
0
100
AcDbBlockEnd
  0
BLOCK
  5
1AA
330
1A9
100
AcDbEntity
  8
0
100
AcDbBlockBegin
  2
*D7
 70
     1
 10
0.0
 20
0.0
 30
0.0
  3
*D7
  1

  0
LINE
  5
1AC
330
1A9
100
AcDbEntity
  8
0
 62
     0
370
    -2
100
AcDbLine
 10
-33.71778968811035
 20
107.0871505737305
 30
0.0
 11
-63.71081814575196
 21
107.0871505737305
 31
0.0
  0
LINE
  5
1AD
330
1A9
100
AcDbEntity
  8
0
 62
     0
370
    -2
100
AcDbLine
 10
-33.71778968811035
 20
77.71215057373047
 30
0.0
 11
-63.71081814575195
 21
77.71215057373045
 31
0.0
  0
LINE
  5
1AE
330
1A9
100
AcDbEntity
  8
0
 62
     0
370
    -2
100
AcDbLine
 10
-62.21081814575196
 20
104.0871505737305
 30
0.0
 11
-62.21081814575195
 21
80.71215057373045
 31
0.0
  0
INSERT
  5
1AF
330
1A9
100
AcDbEntity
  8
0
 62
     0
370
    -2
100
AcDbBlockReference
  2
_OPEN30
 10
-62.21081814575196
 20
107.0871505737305
 30
0.0
 41
3.0
 42
3.0
 43
3.0
 50
90.00000000000001
  0
INSERT
  5
1B0
330
1A9
100
AcDbEntity
  8
0
 62
     0
370
    -2
100
AcDbBlockReference
  2
_OPEN30
 10
-62.21081814575195
 20
77.71215057373045
 30
0.0
 41
3.0
 42
3.0
 43
3.0
 50
270.0
  0
MTEXT
  5
1B1
330
1A9
100
AcDbEntity
  8
0
 62
     1
100
AcDbMText
 10
-64.63161818182469
 20
98.3845678100586
 30
0.0
 40
3.200000047683716
 41
0.0
 71
     5
 72
     1
  1
117.5
 11
-4.837737775387916E-16
 21
1.0
 31
0.0
 73
     1
 44
1.0
  0
POINT
  5
1B2
330
1A9
100
AcDbEntity
  8
Defpoints
 62
     0
100
AcDbPoint
 10
-31.17778968811035
 20
107.0871505737305
 30
0.0
  0
POINT
  5
1B3
330
1A9
100
AcDbEntity
  8
Defpoints
 62
     0
100
AcDbPoint
 10
-31.17778968811035
 20
77.71215057373047
 30
0.0
  0
POINT
  5
1B4
330
1A9
100
AcDbEntity
  8
Defpoints
 62
     0
100
AcDbPoint
 10
-62.21281814575195
 20
77.71215057373045
 30
0.0
  0
ENDBLK
  5
1AB
330
1A9
100
AcDbEntity
  8
0
100
AcDbBlockEnd
  0
BLOCK
  5
1B7
330
1B6
100
AcDbEntity
  8
0
100
AcDbBlockBegin
  2
*D8
 70
     1
 10
0.0
 20
0.0
 30
0.0
  3
*D8
  1

  0
POINT
  5
1BF
330
1B6
100
AcDbEntity
  8
Defpoints
 62
     0
100
AcDbPoint
 10
-2.927786732535054
 20
77.14964962293618
 30
0.0
  0
POINT
  5
1C0
330
1B6
100
AcDbEntity
  8
Defpoints
 62
     0
100
AcDbPoint
 10
-2.927787100630987
 20
107.649656204204
 30
0.0
  0
POINT
  5
1C1
330
1B6
100
AcDbEntity
  8
Defpoints
 62
     0
100
AcDbPoint
 10
-10.53540420532226
 20
112.0419159874891
 30
0.0
  0
LINE
  5
1C2
330
1B6
100
AcDbEntity
  8
0
  6
Continuous
 62
     7
100
AcDbLine
 10
-5.127491248277323
 20
78.41964964003186
 30
0.0
 11
-12.03540437727484
 21
82.40793521617981
 31
0.0
  0
LINE
  5
1C3
330
1B6
100
AcDbEntity
  8
0
  6
Continuous
 62
     7
100
AcDbLine
 10
-5.127491616373256
 20
108.9196562212996
 30
0.0
 11
-12.03539813812133
 21
112.9079379827503
 31
0.0
  0
LINE
  5
1C4
330
1B6
100
AcDbEntity
  8
0
  6
Continuous
 62
     7
100
AcDbLine
 10
-10.53540420532227
 20
81.54190826416016
 30
0.0
 11
-10.53540420532227
 21
112.0419158935547
 31
0.0
  0
LINE
  5
1C5
330
1B6
100
AcDbEntity
  8
0
  6
Continuous
 62
     7
100
AcDbLine
 10
-10.53540420532227
 20
81.54190826416016
 30
0.0
 11
-11.35386188962227
 21
84.59643392616579
 31
0.0
  0
LINE
  5
1C6
330
1B6
100
AcDbEntity
  8
0
  6
Continuous
 62
     7
100
AcDbLine
 10
-10.53540420532227
 20
81.54190826416016
 30
0.0
 11
-9.716946521022265
 21
84.59643392616579
 31
0.0
  0
LINE
  5
1C7
330
1B6
100
AcDbEntity
  8
0
  6
Continuous
 62
     7
100
AcDbLine
 10
-10.53540420532227
 20
112.0419158935547
 30
0.0
 11
-9.716946521022265
 21
108.9873902315491
 31
0.0
  0
LINE
  5
1C8
330
1B6
100
AcDbEntity
  8
0
  6
Continuous
 62
     7
100
AcDbLine
 10
-10.53540420532227
 20
112.0419158935547
 30
0.0
 11
-11.35386188962227
 21
108.9873902315491
 31
0.0
  0
MTEXT
  5
1C9
330
1B6
100
AcDbEntity
  8
0
 62
     1
100
AcDbMText
 10
-11.3354042172432
 20
93.69191586971283
 30
0.0
 40
3.200000047683716
 41
0.0
 71
     7
 72
     1
  1
\W0.6875;122
 11
6.123233995736766E-17
 21
1.0
 31
0.0
 73
     1
 44
1.0
  0
ENDBLK
  5
1B8
330
1B6
100
AcDbEntity
  8
0
100
AcDbBlockEnd
  0
BLOCK
  5
1CC
330
1CB
100
AcDbEntity
  8
0
100
AcDbBlockBegin
  2
*D9
 70
     1
 10
0.0
 20
0.0
 30
0.0
  3
*D9
  1

  0
LINE
  5
1CE
330
1CB
100
AcDbEntity
  8
0
 62
     0
370
    -2
100
AcDbLine
 10
-59.46778396606445
 20
-33.22184753417969
 30
0.0
 11
-70.38824353027344
 21
-33.22184753417969
 31
0.0
  0
LINE
  5
1CF
330
1CB
100
AcDbEntity
  8
0
 62
     0
370
    -2
100
AcDbLine
 10
-59.46778396606445
 20
-100.4718475341797
 30
0.0
 11
-70.38824353027341
 21
-100.4718475341797
 31
0.0
  0
LINE
  5
1D0
330
1CB
100
AcDbEntity
  8
0
 62
     0
370
    -2
100
AcDbLine
 10
-68.88824353027344
 20
-36.22184753417969
 30
0.0
 11
-68.88824353027341
 21
-97.47184753417969
 31
0.0
  0
INSERT
  5
1D1
330
1CB
100
AcDbEntity
  8
0
 62
     0
370
    -2
100
AcDbBlockReference
  2
_OPEN30
 10
-68.88824353027344
 20
-33.22184753417969
 30
0.0
 41
3.0
 42
3.0
 43
3.0
 50
90.00000000000001
  0
INSERT
  5
1D2
330
1CB
100
AcDbEntity
  8
0
 62
     0
370
    -2
100
AcDbBlockReference
  2
_OPEN30
 10
-68.88824353027341
 20
-100.4718475341797
 30
0.0
 41
3.0
 42
3.0
 43
3.0
 50
270.0
  0
MTEXT
  5
1D3
330
1CB
100
AcDbEntity
  8
0
 62
     1
100
AcDbMText
 10
-71.3026435662508
 20
-66.84584753417968
 30
0.0
 40
3.200000047683716
 41
0.0
 71
     5
 72
     1
  1
269
 11
-4.226276495227362E-16
 21
1.0
 31
0.0
 73
     1
 44
1.0
  0
POINT
  5
1D4
330
1CB
100
AcDbEntity
  8
Defpoints
 62
     0
100
AcDbPoint
 10
-56.92778396606445
 20
-33.22184753417969
 30
0.0
  0
POINT
  5
1D5
330
1CB
100
AcDbEntity
  8
Defpoints
 62
     0
100
AcDbPoint
 10
-56.92778396606445
 20
-100.4718475341797
 30
0.0
  0
POINT
  5
1D6
330
1CB
100
AcDbEntity
  8
Defpoints
 62
     0
100
AcDbPoint
 10
-68.89024353027344
 20
-100.4718475341797
 30
0.0
  0
ENDBLK
  5
1CD
330
1CB
100
AcDbEntity
  8
0
100
AcDbBlockEnd
  0
BLOCK
  5
1D9
330
1D8
100
AcDbEntity
  8
0
100
AcDbBlockBegin
  2
*D10
 70
     1
 10
0.0
 20
0.0
 30
0.0
  3
*D10
  1

  0
POINT
  5
1E1
330
1D8
100
AcDbEntity
  8
Defpoints
 62
     0
100
AcDbPoint
 10
78.4112003489882
 20
-115.3122963120702
 30
0.0
  0
POINT
  5
1E2
330
1D8
100
AcDbEntity
  8
Defpoints
 62
     0
100
AcDbPoint
 10
78.41119998133723
 20
-100.7373002651704
 30
0.0
  0
POINT
  5
1E3
330
1D8
100
AcDbEntity
  8
Defpoints
 62
     0
100
AcDbPoint
 10
91.4935073852539
 20
-103.0440636901448
 30
0.0
  0
LINE
  5
1E4
330
1D8
100
AcDbEntity
  8
0
  6
Continuous
 62
     7
100
AcDbLine
 10
80.91261203945984
 20
-115.753362695704
 30
0.0
 11
92.9935184392603
 21
-117.8835525069516
 31
0.0
  0
LINE
  5
1E5
330
1D8
100
AcDbEntity
  8
0
  6
Continuous
 62
     7
100
AcDbLine
 10
80.91261167180889
 20
-101.1783666488042
 30
0.0
 11
92.99351807160933
 21
-103.3085564600518
 31
0.0
  0
LINE
  5
1E6
330
1D8
100
AcDbEntity
  8
0
  6
Continuous
 62
     7
100
AcDbLine
 10
91.4935073852539
 20
-117.6190567016602
 30
0.0
 11
91.4935073852539
 21
-103.0440673828125
 31
0.0
  0
LINE
  5
1E7
330
1D8
100
AcDbEntity
  8
0
  6
Continuous
 62
     7
100
AcDbLine
 10
91.4935073852539
 20
-117.6190567016602
 30
0.0
 11
90.6750497009539
 21
-114.5645310396545
 31
0.0
  0
LINE
  5
1E8
330
1D8
100
AcDbEntity
  8
0
  6
Continuous
 62
     7
100
AcDbLine
 10
91.4935073852539
 20
-117.6190567016602
 30
0.0
 11
92.3119650695539
 21
-114.5645310396545
 31
0.0
  0
LINE
  5
1E9
330
1D8
100
AcDbEntity
  8
0
  6
Continuous
 62
     7
100
AcDbLine
 10
91.4935073852539
 20
-103.0440673828125
 30
0.0
 11
92.3119650695539
 21
-106.0985930448181
 31
0.0
  0
LINE
  5
1EA
330
1D8
100
AcDbEntity
  8
0
  6
Continuous
 62
     7
100
AcDbLine
 10
91.4935073852539
 20
-103.0440673828125
 30
0.0
 11
90.6750497009539
 21
-106.0985930448181
 31
0.0
  0
MTEXT
  5
1EB
330
1D8
100
AcDbEntity
  8
0
 62
     1
100
AcDbMText
 10
90.69350737333298
 20
-113.4315658807755
 30
0.0
 40
3.200000047683716
 41
0.0
 71
     7
 72
     1
  1
\W0.6875;\U+220558
 11
6.123233995736766E-17
 21
1.0
 31
0.0
 73
     1
 44
1.0
  0
ENDBLK
  5
1DA
330
1D8
100
AcDbEntity
  8
0
100
AcDbBlockEnd
  0
BLOCK
  5
1EE
330
1ED
100
AcDbEntity
  8
0
100
AcDbBlockBegin
  2
*D11
 70
     1
 10
0.0
 20
0.0
 30
0.0
  3
*D11
  1

  0
POINT
  5
1F6
330
1ED
100
AcDbEntity
  8
Defpoints
 62
     0
100
AcDbPoint
 10
75.96110973390873
 20
-86.59215740177578
 30
0.0
  0
POINT
  5
1F7
330
1ED
100
AcDbEntity
  8
Defpoints
 62
     0
100
AcDbPoint
 10
56.26495572226063
 20
-90.06512059539759
 30
0.0
  0
POINT
  5
1F8
330
1ED
100
AcDbEntity
  8
Defpoints
 62
     0
100
AcDbPoint
 10
48.78205475404537
 20
-81.1473463275989
 30
0.0
  0
LINE
  5
1F9
330
1ED
100
AcDbEntity
  8
0
  6
Continuous
 62
     7
100
AcDbLine
 10
74.3284291956907
 20
-84.64640452432084
 30
0.0
 11
66.9937539785136
 21
-75.90527907145285
 31
0.0
  0
LINE
  5
1FA
330
1ED
100
AcDbEntity
  8
0
  6
Continuous
 62
     7
100
AcDbLine
 10
54.63227518404261
 20
-88.11936771794265
 30
0.0
 11
47.29760016799984
 21
-79.3782425047772
 31
0.0
  0
LINE
  5
1FB
330
1ED
100
AcDbEntity
  8
0
  6
Continuous
 62
     7
100
AcDbLine
 10
68.47820838519206
 20
-77.67438292590181
 30
0.0
 11
48.78205457467831
 21
-81.14734635922616
 31
0.0
  0
LINE
  5
1FC
330
1ED
100
AcDbEntity
  8
0
  6
Continuous
 62
     7
100
AcDbLine
 10
68.47820838519206
 20
-77.67438292590181
 30
0.0
 11
65.61221152345387
 21
-79.01081922791826
 31
0.0
  0
LINE
  5
1FD
330
1ED
100
AcDbEntity
  8
0
  6
Continuous
 62
     7
100
AcDbLine
 10
68.47820838519206
 20
-77.67438292590181
 30
0.0
 11
65.32796414473616
 21
-77.39877228330064
 31
0.0
  0
LINE
  5
1FE
330
1ED
100
AcDbEntity
  8
0
  6
Continuous
 62
     7
100
AcDbLine
 10
48.78205457467831
 20
-81.14734635922616
 30
0.0
 11
51.64805143641651
 21
-79.81091005720971
 31
0.0
  0
LINE
  5
1FF
330
1ED
100
AcDbEntity
  8
0
  6
Continuous
 62
     7
100
AcDbLine
 10
48.78205457467831
 20
-81.14734635922616
 30
0.0
 11
51.93229881513422
 21
-81.42295700182733
 31
0.0
  0
MTEXT
  5
200
330
1ED
100
AcDbEntity
  8
0
 62
     1
100
AcDbMText
 10
57.9284339632813
 20
-78.7222515382653
 30
0.0
 40
3.200000047683716
 41
0.0
 71
     7
 72
     1
  1
\W0.6875;80
 11
0.984807753012208
 21
0.1736481776669303
 31
0.0
 73
     1
 44
1.0
  0
ENDBLK
  5
1EF
330
1ED
100
AcDbEntity
  8
0
100
AcDbBlockEnd
  0
BLOCK
  5
203
330
202
100
AcDbEntity
  8
0
100
AcDbBlockBegin
  2
*D12
 70
     1
 10
0.0
 20
0.0
 30
0.0
  3
*D12
  1

  0
LINE
  5
205
330
202
100
AcDbEntity
  8
0
 62
     0
370
    -2
100
AcDbLine
 10
45.553090779656
 20
10.99624815907855
 30
0.0
 11
40.38285383758995
 21
10.08459586319561
 31
0.0
  0
INSERT
  5
206
330
202
100
AcDbEntity
  8
0
 62
     0
370
    -2
100
AcDbBlockReference
  2
_OPEN30
 10
48.50751403611858
 20
11.51719270667752
 30
0.0
 41
3.0
 42
3.0
 43
3.0
 50
10.00000028310556
  0
INSERT
  5
207
330
202
100
AcDbEntity
  8
0
 62
     0
370
    -2
100
AcDbBlockReference
  2
_OPEN30
 10
37.42843058112737
 20
9.563651315596651
 30
0.0
 41
3.0
 42
3.0
 43
3.0
 50
190.0000002831055
  0
MTEXT
  5
208
330
202
100
AcDbEntity
  8
0
 62
     1
100
AcDbMText
 10
42.55065582308533
 20
12.91848390352156
 30
0.0
 40
3.200000047683716
 41
0.0
 71
     5
 72
     1
  1
45
 11
0.9848077521541909
 21
0.1736481825329878
 31
0.0
 73
     1
 44
1.0
  0
POINT
  5
209
330
202
100
AcDbEntity
  8
Defpoints
 62
     0
100
AcDbPoint
 10
50.24393555406586
 20
1.669457205288218
 30
0.0
  0
POINT
  5
20A
330
202
100
AcDbEntity
  8
Defpoints
 62
     0
100
AcDbPoint
 10
39.16485209907466
 20
-0.284084185792647
 30
0.0
  0
POINT
  5
20B
330
202
100
AcDbEntity
  8
Defpoints
 62
     0
100
AcDbPoint
 10
37.42837027374478
 20
9.563993335749263
 30
0.0
  0
ENDBLK
  5
204
330
202
100
AcDbEntity
  8
0
100
AcDbBlockEnd
  0
BLOCK
  5
20E
330
20D
100
AcDbEntity
  8
0
100
AcDbBlockBegin
  2
*D13
 70
     1
 10
0.0
 20
0.0
 30
0.0
  3
*D13
  1

  0
POINT
  5
216
330
20D
100
AcDbEntity
  8
Defpoints
 62
     0
100
AcDbPoint
 10
60.76689360658896
 20
-0.421483036484588
 30
0.0
  0
POINT
  5
217
330
20D
100
AcDbEntity
  8
Defpoints
 62
     0
100
AcDbPoint
 10
41.07073979679685
 20
-3.894445817944199
 30
0.0
  0
POINT
  5
218
330
20D
100
AcDbEntity
  8
Defpoints
 62
     0
100
AcDbPoint
 10
37.17432636238708
 20
-14.59975284148236
 30
0.0
  0
LINE
  5
219
330
20D
100
AcDbEntity
  8
0
  6
Continuous
 62
     7
100
AcDbLine
 10
59.89816245433533
 20
-2.808302297573302
 30
0.0
 11
56.08061916485985
 21
-13.2969164444502
 31
0.0
  0
LINE
  5
21A
330
20D
100
AcDbEntity
  8
0
  6
Continuous
 62
     7
100
AcDbLine
 10
40.20200864454323
 20
-6.281265079032915
 30
0.0
 11
36.38446510158683
 21
-16.76987992234288
 31
0.0
  0
LINE
  5
21B
330
20D
100
AcDbEntity
  8
0
  6
Continuous
 62
     7
100
AcDbLine
 10
56.87048084140637
 20
-11.1267892902824
 30
0.0
 11
37.17432677813336
 21
-14.59975276817508
 31
0.0
  0
LINE
  5
21C
330
20D
100
AcDbEntity
  8
0
  6
Continuous
 62
     7
100
AcDbLine
 10
56.87048084140637
 20
-11.1267892902824
 30
0.0
 11
54.00448397966817
 21
-12.46322559229885
 31
0.0
  0
LINE
  5
21D
330
20D
100
AcDbEntity
  8
0
  6
Continuous
 62
     7
100
AcDbLine
 10
56.87048084140637
 20
-11.1267892902824
 30
0.0
 11
53.72023660095046
 21
-10.85117864768124
 31
0.0
  0
LINE
  5
21E
330
20D
100
AcDbEntity
  8
0
  6
Continuous
 62
     7
100
AcDbLine
 10
37.17432677813336
 20
-14.59975276817508
 30
0.0
 11
40.04032363987155
 21
-13.26331646615863
 31
0.0
  0
LINE
  5
21F
330
20D
100
AcDbEntity
  8
0
  6
Continuous
 62
     7
100
AcDbLine
 10
37.17432677813336
 20
-14.59975276817508
 30
0.0
 11
40.32457101858926
 21
-14.87536341077624
 31
0.0
  0
MTEXT
  5
220
330
20D
100
AcDbEntity
  8
0
 62
     1
100
AcDbMText
 10
46.22593344047281
 20
-12.19136893637258
 30
0.0
 40
3.200000047683716
 41
0.0
 71
     7
 72
     1
  1
\W0.6875;80
 11
0.984807753012208
 21
0.1736481776669303
 31
0.0
 73
     1
 44
1.0
  0
ENDBLK
  5
20F
330
20D
100
AcDbEntity
  8
0
100
AcDbBlockEnd
  0
BLOCK
  5
223
330
222
100
AcDbEntity
  8
0
100
AcDbBlockBegin
  2
*D14
 70
     1
 10
0.0
 20
0.0
 30
0.0
  3
*D14
  1

  0
POINT
  5
22B
330
222
100
AcDbEntity
  8
Defpoints
 62
     0
100
AcDbPoint
 10
44.17448411245148
 20
28.89262569854193
 30
0.0
  0
POINT
  5
22C
330
222
100
AcDbEntity
  8
Defpoints
 62
     0
100
AcDbPoint
 10
24.47832060633379
 20
25.41966137186128
 30
0.0
  0
POINT
  5
22D
330
222
100
AcDbEntity
  8
Defpoints
 62
     0
100
AcDbPoint
 10
20.38244969357243
 20
14.16634976032494
 30
0.0
  0
LINE
  5
22E
330
222
100
AcDbEntity
  8
0
  6
Continuous
 62
     7
100
AcDbLine
 10
43.30575296019785
 20
26.50580643745321
 30
0.0
 11
39.2887523879416
 21
15.46918790156535
 31
0.0
  0
LINE
  5
22F
330
222
100
AcDbEntity
  8
0
  6
Continuous
 62
     7
100
AcDbLine
 10
23.60958945408016
 20
23.03284211077256
 30
0.0
 11
19.59258856436277
 21
11.99622270266738
 31
0.0
  0
LINE
  5
230
330
222
100
AcDbEntity
  8
0
  6
Continuous
 62
     7
100
AcDbLine
 10
40.07861406448811
 20
17.63931505573315
 30
0.0
 11
20.3824502409093
 21
14.16634985683517
 31
0.0
  0
LINE
  5
231
330
222
100
AcDbEntity
  8
0
  6
Continuous
 62
     7
100
AcDbLine
 10
40.07861406448811
 20
17.63931505573315
 30
0.0
 11
37.21261720274992
 21
16.30287875371669
 31
0.0
  0
LINE
  5
232
330
222
100
AcDbEntity
  8
0
  6
Continuous
 62
     7
100
AcDbLine
 10
40.07861406448811
 20
17.63931505573315
 30
0.0
 11
36.92836982403221
 21
17.91492569833431
 31
0.0
  0
LINE
  5
233
330
222
100
AcDbEntity
  8
0
  6
Continuous
 62
     7
100
AcDbLine
 10
20.3824502409093
 20
14.16634985683517
 30
0.0
 11
23.24844710264749
 21
15.50278615885163
 31
0.0
  0
LINE
  5
234
330
222
100
AcDbEntity
  8
0
  6
Continuous
 62
     7
100
AcDbLine
 10
20.3824502409093
 20
14.16634985683517
 30
0.0
 11
23.5326944813652
 21
13.89073921423401
 31
0.0
  0
MTEXT
  5
235
330
222
100
AcDbEntity
  8
0
 62
     1
100
AcDbMText
 10
29.75574751948308
 20
16.63145642535944
 30
0.0
 40
3.200000047683716
 41
0.0
 71
     7
 72
     1
  1
\W0.6875;80
 11
0.984807753012208
 21
0.1736481776669303
 31
0.0
 73
     1
 44
1.0
  0
ENDBLK
  5
224
330
222
100
AcDbEntity
  8
0
100
AcDbBlockEnd
  0
BLOCK
  5
238
330
237
100
AcDbEntity
  8
0
100
AcDbBlockBegin
  2
*D15
 70
     1
 10
0.0
 20
0.0
 30
0.0
  3
*D15
  1

  0
POINT
  5
240
330
237
100
AcDbEntity
  8
Defpoints
 62
     0
100
AcDbPoint
 10
36.72308795862173
 20
78.35008829618945
 30
0.0
  0
POINT
  5
241
330
237
100
AcDbEntity
  8
Defpoints
 62
     0
100
AcDbPoint
 10
14.56490343272432
 20
74.44300008825145
 30
0.0
  0
POINT
  5
242
330
237
100
AcDbEntity
  8
Defpoints
 62
     0
100
AcDbPoint
 10
8.582822970672348
 20
58.00736365273288
 30
0.0
  0
LINE
  5
243
330
237
100
AcDbEntity
  8
0
  6
Continuous
 62
     7
100
AcDbLine
 10
35.85435680636811
 20
75.96326903510074
 30
0.0
 11
29.9511428985283
 21
59.74432187174941
 31
0.0
  0
LINE
  5
244
330
237
100
AcDbEntity
  8
0
  6
Continuous
 62
     7
100
AcDbLine
 10
13.6961722804707
 20
72.05618082716273
 30
0.0
 11
7.792959274800975
 21
55.83723614250341
 31
0.0
  0
LINE
  5
245
330
237
100
AcDbEntity
  8
0
  6
Continuous
 62
     7
100
AcDbLine
 10
30.74100457507482
 20
61.91444902591723
 30
0.0
 11
8.5828209513475
 21
58.0073632966712
 31
0.0
  0
LINE
  5
246
330
237
100
AcDbEntity
  8
0
  6
Continuous
 62
     7
100
AcDbLine
 10
30.74100457507482
 20
61.91444902591723
 30
0.0
 11
27.87500771333663
 21
60.57801272390077
 31
0.0
  0
LINE
  5
247
330
237
100
AcDbEntity
  8
0
  6
Continuous
 62
     7
100
AcDbLine
 10
30.74100457507482
 20
61.91444902591723
 30
0.0
 11
27.59076033461892
 21
62.19005966851839
 31
0.0
  0
LINE
  5
248
330
237
100
AcDbEntity
  8
0
  6
Continuous
 62
     7
100
AcDbLine
 10
8.5828209513475
 20
58.0073632966712
 30
0.0
 11
11.4488178130857
 21
59.34379959868766
 31
0.0
  0
LINE
  5
249
330
237
100
AcDbEntity
  8
0
  6
Continuous
 62
     7
100
AcDbLine
 10
8.5828209513475
 20
58.0073632966712
 30
0.0
 11
11.73306519180341
 21
57.73175265407004
 31
0.0
  0
MTEXT
  5
24A
330
237
100
AcDbEntity
  8
0
 62
     1
100
AcDbMText
 10
12.49049222270631
 20
59.50873250581561
 30
0.0
 40
3.200000047683716
 41
0.0
 71
     7
 72
     1
  1
\W0.6875;90
 11
0.984807753012208
 21
0.1736481776669303
 31
0.0
 73
     1
 44
1.0
  0
ENDBLK
  5
239
330
237
100
AcDbEntity
  8
0
100
AcDbBlockEnd
  0
BLOCK
  5
24D
330
24C
100
AcDbEntity
  8
0
100
AcDbBlockBegin
  2
*D16
 70
     1
 10
0.0
 20
0.0
 30
0.0
  3
*D16
  1

  0
LINE
  5
24F
330
24C
100
AcDbEntity
  8
0
 62
     0
370
    -2
100
AcDbLine
 10
80.9139358416146
 20
-100.3038022325135
 30
0.0
 11
89.74259841039654
 21
-98.77458194749902
 31
0.0
  0
LINE
  5
250
330
24C
100
AcDbEntity
  8
0
 62
     0
370
    -2
100
AcDbLine
 10
87.75259721768332
 20
-96.0746013451613
 30
0.0
 11
86.32652216784683
 21
-87.84142818093927
 31
0.0
  0
INSERT
  5
251
330
24C
100
AcDbEntity
  8
0
 62
     0
370
    -2
100
AcDbBlockReference
  2
_OPEN30
 10
88.2646059309188
 20
-99.03058630411677
 30
0.0
 41
3.0
 42
3.0
 43
3.0
 50
279.8267516049436
  0
INSERT
  5
252
330
24C
100
AcDbEntity
  8
0
 62
     0
370
    -2
100
AcDbBlockReference
  2
_OPEN30
 10
85.81451345461134
 20
-84.8854432219838
 30
0.0
 41
3.0
 42
3.0
 43
3.0
 50
99.82675160494365
  0
MTEXT
  5
253
330
24C
100
AcDbEntity
  8
0
 62
     1
 60
     1
100
AcDbMText
 10
89.41836729438172
 20
-91.54497371152596
 30
0.0
 40
3.200000047683716
 41
0.0
 71
     5
 72
     1
  1
57
 11
0.1706695710784968
 21
-0.9853283196518214
 31
0.0
 73
     1
 44
1.0
  0
POINT
  5
254
330
24C
100
AcDbEntity
  8
Defpoints
 62
     0
100
AcDbPoint
 10
78.41120190969897
 20
-100.7373029430529
 30
0.0
  0
POINT
  5
255
330
24C
100
AcDbEntity
  8
Defpoints
 62
     0
100
AcDbPoint
 10
75.96110943339151
 20
-86.5921598609199
 30
0.0
  0
POINT
  5
256
330
24C
100
AcDbEntity
  8
Defpoints
 62
     0
100
AcDbPoint
 10
85.81434752515877
 20
-84.8854719627679
 30
0.0
  0
MTEXT
  5
257
330
24C
100
AcDbEntity
  8
0
 62
     1
100
AcDbMText
 10
86.59148323176314
 20
-94.06502172840699
 30
0.0
 40
3.200000047683716
 41
0.0
 71
     7
 72
     1
  1
\W0.6875;57
 11
-0.1702094991660321
 21
0.9854078984834902
 31
0.0
 73
     1
 44
1.0
  0
ENDBLK
  5
24E
330
24C
100
AcDbEntity
  8
0
100
AcDbBlockEnd
  0
BLOCK
  5
25A
330
259
100
AcDbEntity
  8
0
100
AcDbBlockBegin
  2
*D17
 70
     1
 10
0.0
 20
0.0
 30
0.0
  3
*D17
  1

  0
LINE
  5
25C
330
259
100
AcDbEntity
  8
0
 62
     0
370
    -2
100
AcDbLine
 10
63.26830244522178
 20
0.019584012654617
 30
0.0
 11
72.09226494485254
 21
1.575486723055093
 31
0.0
  0
LINE
  5
25D
330
259
100
AcDbEntity
  8
0
 62
     0
370
    -2
100
AcDbLine
 10
78.46251858246201
 20
-86.15109524002293
 30
0.0
 11
87.28648108209278
 21
-84.59519252962244
 31
0.0
  0
LINE
  5
25E
330
259
100
AcDbEntity
  8
0
 62
     0
370
    -2
100
AcDbLine
 10
71.13599786422022
 20
-1.639408807206959
 30
0.0
 11
85.28832490626253
 21
-81.90124154695934
 31
0.0
  0
INSERT
  5
25F
330
259
100
AcDbEntity
  8
0
 62
     0
370
    -2
100
AcDbBlockReference
  2
_OPEN30
 10
70.61505331662126
 20
1.315014449255614
 30
0.0
 41
3.0
 42
3.0
 43
3.0
 50
100.0000002831056
  0
INSERT
  5
260
330
259
100
AcDbEntity
  8
0
 62
     0
370
    -2
100
AcDbBlockReference
  2
_OPEN30
 10
85.80926945386149
 20
-84.85566480342192
 30
0.0
 41
3.0
 42
3.0
 43
3.0
 50
280.0000002831055
  0
MTEXT
  5
261
330
259
100
AcDbEntity
  8
0
 62
     1
 60
     1
100
AcDbMText
 10
80.58971022867718
 20
-41.35009904645432
 30
0.0
 40
3.200000047683716
 41
0.0
 71
     5
 72
     1
  1
350
 11
0.1736481825329877
 21
-0.9848077521541908
 31
0.0
 73
     1
 44
1.0
  0
POINT
  5
262
330
259
100
AcDbEntity
  8
Defpoints
 62
     0
100
AcDbPoint
 10
60.76689075475013
 20
-0.421482370979167
 30
0.0
  0
POINT
  5
263
330
259
100
AcDbEntity
  8
Defpoints
 62
     0
100
AcDbPoint
 10
75.96110689199037
 20
-86.59216162365672
 30
0.0
  0
POINT
  5
264
330
259
100
AcDbEntity
  8
Defpoints
 62
     0
100
AcDbPoint
 10
85.8091017651766
 20
-84.85569437146229
 30
0.0
  0
MTEXT
  5
265
330
259
100
AcDbEntity
  8
0
 62
     1
100
AcDbMText
 10
77.9624534972033
 20
-44.96217782663046
 30
0.0
 40
3.200000047683716
 41
0.0
 71
     7
 72
     1
  1
\W0.6875;350
 11
-0.1736481776669301
 21
0.9848077530122081
 31
0.0
 73
     1
 44
1.0
  0
ENDBLK
  5
25B
330
259
100
AcDbEntity
  8
0
100
AcDbBlockEnd
  0
BLOCK
  5
268
330
267
100
AcDbEntity
  8
0
100
AcDbBlockBegin
  2
*D18
 70
     1
 10
0.0
 20
0.0
 30
0.0
  3
*D18
  1

  0
LINE
  5
26A
330
267
100
AcDbEntity
  8
0
 62
     0
370
    -2
100
AcDbLine
 10
46.67588836678915
 20
29.33369344839861
 30
0.0
 11
66.57893253108949
 21
32.84313723419794
 31
0.0
  0
LINE
  5
26B
330
267
100
AcDbEntity
  8
0
 62
     0
370
    -2
100
AcDbLine
 10
70.09410697870068
 20
4.269437390036188
 30
0.0
 11
65.62266545045716
 21
29.62824170393589
 31
0.0
  0
INSERT
  5
26C
330
267
100
AcDbEntity
  8
0
 62
     0
370
    -2
100
AcDbBlockReference
  2
_OPEN30
 10
70.61505152629964
 20
1.315014133573616
 30
0.0
 41
3.0
 42
3.0
 43
3.0
 50
280.0000002831056
  0
INSERT
  5
26D
330
267
100
AcDbEntity
  8
0
 62
     0
370
    -2
100
AcDbBlockReference
  2
_OPEN30
 10
65.1017209028582
 20
32.58266496039846
 30
0.0
 41
3.0
 42
3.0
 43
3.0
 50
100.0000002831056
  0
MTEXT
  5
26E
330
267
100
AcDbEntity
  8
0
 62
     1
 60
     1
100
AcDbMText
 10
70.23593520426311
 20
17.369064848199
 30
0.0
 40
3.200000047683716
 41
0.0
 71
     5
 72
     1
  1
127
 11
0.1736481825329881
 21
-0.9848077521541906
 31
0.0
 73
     1
 44
1.0
  0
POINT
  5
26F
330
267
100
AcDbEntity
  8
Defpoints
 62
     0
100
AcDbPoint
 10
60.76689075475013
 20
-0.421482370979167
 30
0.0
  0
POINT
  5
270
330
267
100
AcDbEntity
  8
Defpoints
 62
     0
100
AcDbPoint
 10
44.1744766763175
 20
28.89262706476482
 30
0.0
  0
POINT
  5
271
330
267
100
AcDbEntity
  8
Defpoints
 62
     0
100
AcDbPoint
 10
65.10155500449494
 20
32.58263570804013
 30
0.0
  0
MTEXT
  5
272
330
267
100
AcDbEntity
  8
0
 62
     1
100
AcDbMText
 10
67.60867847278924
 20
13.75698606802286
 30
0.0
 40
3.200000047683716
 41
0.0
 71
     7
 72
     1
  1
\W0.6875;127
 11
-0.1736481776669301
 21
0.9848077530122081
 31
0.0
 73
     1
 44
1.0
  0
ENDBLK
  5
269
330
267
100
AcDbEntity
  8
0
100
AcDbBlockEnd
  0
BLOCK
  5
275
330
274
100
AcDbEntity
  8
0
100
AcDbBlockBegin
  2
*D19
 70
     1
 10
0.0
 20
0.0
 30
0.0
  3
*D19
  1

  0
LINE
  5
277
330
274
100
AcDbEntity
  8
0
 62
     0
370
    -2
100
AcDbLine
 10
39.22448351755094
 20
78.79115001371773
 30
0.0
 11
57.89652232852524
 21
82.08353433605745
 31
0.0
  0
LINE
  5
278
330
274
100
AcDbEntity
  8
0
 62
     0
370
    -2
100
AcDbLine
 10
64.58077693538247
 20
35.53708831915242
 30
0.0
 11
56.94025524789291
 21
78.8686388057954
 31
0.0
  0
INSERT
  5
279
330
274
100
AcDbEntity
  8
0
 62
     0
370
    -2
100
AcDbBlockReference
  2
_OPEN30
 10
65.10172148298143
 20
32.58266506268984
 30
0.0
 41
3.0
 42
3.0
 43
3.0
 50
280.0000002831055
  0
INSERT
  5
27A
330
274
100
AcDbEntity
  8
0
 62
     0
370
    -2
100
AcDbBlockReference
  2
_OPEN30
 10
56.41931070029396
 20
81.82306206225797
 30
0.0
 41
3.0
 42
3.0
 43
3.0
 50
100.0000002831055
  0
MTEXT
  5
27B
330
274
100
AcDbEntity
  8
0
 62
     1
 60
     1
100
AcDbMText
 10
63.13806533121624
 20
57.62308744646559
 30
0.0
 40
3.200000047683716
 41
0.0
 71
     5
 72
     1
  1
200
 11
0.173648182532987
 21
-0.9848077521541908
 31
0.0
 73
     1
 44
1.0
  0
POINT
  5
27C
330
274
100
AcDbEntity
  8
Defpoints
 62
     0
100
AcDbPoint
 10
44.1744766763175
 20
28.89262706476482
 30
0.0
  0
POINT
  5
27D
330
274
100
AcDbEntity
  8
Defpoints
 62
     0
100
AcDbPoint
 10
36.72307182707929
 20
78.35008363008394
 30
0.0
  0
POINT
  5
27E
330
274
100
AcDbEntity
  8
Defpoints
 62
     0
100
AcDbPoint
 10
56.41914422180744
 20
81.82303270760826
 30
0.0
  0
MTEXT
  5
27F
330
274
100
AcDbEntity
  8
0
 62
     1
100
AcDbMText
 10
60.51080859974236
 20
54.01100866628946
 30
0.0
 40
3.200000047683716
 41
0.0
 71
     7
 72
     1
  1
\W0.6875;200
 11
-0.1736481776669301
 21
0.9848077530122081
 31
0.0
 73
     1
 44
1.0
  0
ENDBLK
  5
276
330
274
100
AcDbEntity
  8
0
100
AcDbBlockEnd
  0
BLOCK
  5
282
330
281
100
AcDbEntity
  8
0
100
AcDbBlockBegin
  2
*D20
 70
     1
 10
0.0
 20
0.0
 30
0.0
  3
*D20
  1

  0
LINE
  5
284
330
281
100
AcDbEntity
  8
0
 62
     0
370
    -2
100
AcDbLine
 10
25.32361709639868
 20
92.84073459514246
 30
0.0
 11
55.07474186137213
 21
98.0866607492056
 31
0.0
  0
LINE
  5
285
330
281
100
AcDbEntity
  8
0
 62
     0
370
    -2
100
AcDbLine
 10
55.89836865170293
 20
84.7774857593631
 30
0.0
 11
54.11847478073981
 21
94.87176521894355
 31
0.0
  0
INSERT
  5
286
330
281
100
AcDbEntity
  8
0
 62
     0
370
    -2
100
AcDbBlockReference
  2
_OPEN30
 10
56.4193131993019
 20
81.82306250290053
 30
0.0
 41
3.0
 42
3.0
 43
3.0
 50
280.0000002831056
  0
INSERT
  5
287
330
281
100
AcDbEntity
  8
0
 62
     0
370
    -2
100
AcDbBlockReference
  2
_OPEN30
 10
53.59753023314084
 20
97.82618847540613
 30
0.0
 41
3.0
 42
3.0
 43
3.0
 50
100.0000002831056
  0
MTEXT
  5
288
330
281
100
AcDbEntity
  8
0
 62
     1
 60
     1
100
AcDbMText
 10
57.38597106241741
 20
90.24484876848709
 30
0.0
 40
3.200000047683716
 41
0.0
 71
     5
 72
     1
  1
65
 11
0.1736481825329881
 21
-0.9848077521541906
 31
0.0
 73
     1
 44
1.0
  0
POINT
  5
289
330
281
100
AcDbEntity
  8
Defpoints
 62
     0
100
AcDbPoint
 10
36.72307182707929
 20
78.35008363008394
 30
0.0
  0
POINT
  5
28A
330
281
100
AcDbEntity
  8
Defpoints
 62
     0
100
AcDbPoint
 10
22.82220540592704
 20
92.39966821150868
 30
0.0
  0
POINT
  5
28B
330
281
100
AcDbEntity
  8
Defpoints
 62
     0
100
AcDbPoint
 10
53.59736125564639
 20
97.82615868011388
 30
0.0
  0
MTEXT
  5
28C
330
281
100
AcDbEntity
  8
0
 62
     1
100
AcDbMText
 10
54.56770133136982
 20
87.71605854010403
 30
0.0
 40
3.200000047683716
 41
0.0
 71
     7
 72
     1
  1
\W0.6875;65
 11
-0.1736481776669301
 21
0.9848077530122081
 31
0.0
 73
     1
 44
1.0
  0
ENDBLK
  5
283
330
281
100
AcDbEntity
  8
0
100
AcDbBlockEnd
  0
BLOCK
  5
28F
330
28E
100
AcDbEntity
  8
0
100
AcDbBlockBegin
  2
*D21
 70
     1
 10
0.0
 20
0.0
 30
0.0
  3
*D21
  1

  0
LINE
  5
291
330
28E
100
AcDbEntity
  8
0
 62
     0
370
    -2
100
AcDbLine
 10
-56.92778396606445
 20
126.5646505737305
 30
0.0
 11
-56.92778396606445
 21
133.5246429443359
 31
0.0
  0
LINE
  5
292
330
28E
100
AcDbEntity
  8
0
 62
     0
370
    -2
100
AcDbLine
 10
-35.67778778076172
 20
114.8146505737305
 30
0.0
 11
-35.67778778076172
 21
133.5246429443359
 31
0.0
  0
LINE
  5
293
330
28E
100
AcDbEntity
  8
0
 62
     0
370
    -2
100
AcDbLine
 10
-53.92778396606445
 20
131.5246429443359
 30
0.0
 11
-38.67778778076172
 21
131.5246429443359
 31
0.0
  0
INSERT
  5
294
330
28E
100
AcDbEntity
  8
0
 62
     0
370
    -2
100
AcDbBlockReference
  2
_OPEN30
 10
-56.92778396606445
 20
131.5246429443359
 30
0.0
 41
3.0
 42
3.0
 43
3.0
 50
180.0
  0
INSERT
  5
295
330
28E
100
AcDbEntity
  8
0
 62
     0
370
    -2
100
AcDbBlockReference
  2
_OPEN30
 10
-35.67778778076172
 20
131.5246429443359
 30
0.0
 41
3.0
 42
3.0
 43
3.0
  0
MTEXT
  5
296
330
28E
100
AcDbEntity
  8
0
 62
     1
100
AcDbMText
 10
-46.30178778076172
 20
133.9390429803133
 30
0.0
 40
3.200000047683716
 41
0.0
 71
     5
 72
     1
  1
85
 73
     1
 44
1.0
  0
POINT
  5
297
330
28E
100
AcDbEntity
  8
Defpoints
 62
     0
100
AcDbPoint
 10
-56.92778396606445
 20
124.0246505737305
 30
0.0
  0
POINT
  5
298
330
28E
100
AcDbEntity
  8
Defpoints
 62
     0
100
AcDbPoint
 10
-35.67778778076172
 20
112.2746505737305
 30
0.0
  0
POINT
  5
299
330
28E
100
AcDbEntity
  8
Defpoints
 62
     0
100
AcDbPoint
 10
-35.67778778076172
 20
131.5246429443359
 30
0.0
  0
ENDBLK
  5
290
330
28E
100
AcDbEntity
  8
0
100
AcDbBlockEnd
  0
BLOCK
  5
29C
330
29B
100
AcDbEntity
  8
0
100
AcDbBlockBegin
  2
*D22
 70
     1
 10
0.0
 20
0.0
 30
0.0
  3
*D22
  1

  0
MTEXT
  5
2A4
330
29B
100
AcDbEntity
  8
0
 62
     1
100
AcDbMText
 10
-33.80178778076172
 20
133.9390429803133
 30
0.0
 40
3.200000047683716
 41
0.0
 71
     5
 72
     1
  1
15
 73
     1
 44
1.0
  0
POINT
  5
2A5
330
29B
100
AcDbEntity
  8
Defpoints
 62
     0
100
AcDbPoint
 10
-35.67778778076172
 20
112.2746505737305
 30
0.0
  0
POINT
  5
2A6
330
29B
100
AcDbEntity
  8
Defpoints
 62
     0
100
AcDbPoint
 10
-31.92778968811035
 20
112.2746505737305
 30
0.0
  0
POINT
  5
2A7
330
29B
100
AcDbEntity
  8
Defpoints
 62
     0
100
AcDbPoint
 10
-31.92778968811035
 20
131.5246429443359
 30
0.0
  0
LINE
  5
2A8
330
29B
100
AcDbEntity
  8
0
  6
Continuous
 62
     7
100
AcDbLine
 10
-31.92778968811035
 20
114.8146505737305
 30
0.0
 11
-31.92778968811035
 21
133.5246429443359
 31
0.0
  0
LINE
  5
2A9
330
29B
100
AcDbEntity
  8
0
  6
Continuous
 62
     7
100
AcDbLine
 10
-42.02778778076172
 20
131.5246429443359
 30
0.0
 11
-25.57778968811035
 21
131.5246429443359
 31
0.0
  0
LINE
  5
2AA
330
29B
100
AcDbEntity
  8
0
  6
Continuous
 62
     7
100
AcDbLine
 10
-35.67778778076172
 20
131.5246429443359
 30
0.0
 11
-38.73231344276734
 21
130.7061852600359
 31
0.0
  0
LINE
  5
2AB
330
29B
100
AcDbEntity
  8
0
  6
Continuous
 62
     7
100
AcDbLine
 10
-35.67778778076172
 20
131.5246429443359
 30
0.0
 11
-38.73231344276734
 21
132.3431006286359
 31
0.0
  0
LINE
  5
2AC
330
29B
100
AcDbEntity
  8
0
  6
Continuous
 62
     7
100
AcDbLine
 10
-31.92778968811035
 20
131.5246429443359
 30
0.0
 11
-28.87326402610473
 21
132.3431006286359
 31
0.0
  0
LINE
  5
2AD
330
29B
100
AcDbEntity
  8
0
  6
Continuous
 62
     7
100
AcDbLine
 10
-31.92778968811035
 20
131.5246429443359
 30
0.0
 11
-28.87326402610473
 21
130.7061852600359
 31
0.0
  0
ENDBLK
  5
29D
330
29B
100
AcDbEntity
  8
0
100
AcDbBlockEnd
  0
BLOCK
  5
2B0
330
2AF
100
AcDbEntity
  8
0
100
AcDbBlockBegin
  2
*D23
 70
     1
 10
0.0
 20
0.0
 30
0.0
  3
*D23
  1

  0
LINE
  5
2B2
330
2AF
100
AcDbEntity
  8
0
 62
     0
370
    -2
100
AcDbLine
 10
-28.92778968811035
 20
131.5246429443359
 30
0.0
 11
-5.927787542343134
 21
131.5246429443359
 31
0.0
  0
INSERT
  5
2B3
330
2AF
100
AcDbEntity
  8
0
 62
     0
370
    -2
100
AcDbBlockReference
  2
_OPEN30
 10
-31.92778968811035
 20
131.5246429443359
 30
0.0
 41
3.0
 42
3.0
 43
3.0
 50
180.0
  0
INSERT
  5
2B4
330
2AF
100
AcDbEntity
  8
0
 62
     0
370
    -2
100
AcDbBlockReference
  2
_OPEN30
 10
-2.927787542343134
 20
131.5246429443359
 30
0.0
 41
3.0
 42
3.0
 43
3.0
  0
MTEXT
  5
2B5
330
2AF
100
AcDbEntity
  8
0
 62
     1
100
AcDbMText
 10
-17.42678968811035
 20
133.9390429803133
 30
0.0
 40
3.200000047683716
 41
0.0
 71
     5
 72
     1
  1
116
 73
     1
 44
1.0
  0
POINT
  5
2B6
330
2AF
100
AcDbEntity
  8
Defpoints
 62
     0
100
AcDbPoint
 10
-31.92778968811035
 20
112.2746505737305
 30
0.0
  0
POINT
  5
2B7
330
2AF
100
AcDbEntity
  8
Defpoints
 62
     0
100
AcDbPoint
 10
-2.92778754234314
 20
107.649658203125
 30
0.0
  0
POINT
  5
2B8
330
2AF
100
AcDbEntity
  8
Defpoints
 62
     0
100
AcDbPoint
 10
-2.927787542343137
 20
131.5246429443359
 30
0.0
  0
ENDBLK
  5
2B1
330
2AF
100
AcDbEntity
  8
0
100
AcDbBlockEnd
  0
BLOCK
  5
2BB
330
2BA
100
AcDbEntity
  8
0
100
AcDbBlockBegin
  2
*D24
 70
     1
 10
0.0
 20
0.0
 30
0.0
  3
*D24
  1

  0
LINE
  5
2BD
330
2BA
100
AcDbEntity
  8
0
 62
     0
370
    -2
100
AcDbLine
 10
-19.30278968811035
 20
89.85965057373046
 30
0.0
 11
-19.30278968811035
 21
63.2254110656767
 31
0.0
  0
LINE
  5
2BE
330
2BA
100
AcDbEntity
  8
0
 62
     0
370
    -2
100
AcDbLine
 10
-31.92778968811035
 20
70.48465057373046
 30
0.0
 11
-31.92778968811035
 21
63.2254110656767
 31
0.0
  0
LINE
  5
2BF
330
2BA
100
AcDbEntity
  8
0
 62
     0
370
    -2
100
AcDbLine
 10
-22.30278968811035
 20
65.2254110656767
 30
0.0
 11
-28.92778968811035
 21
65.2254110656767
 31
0.0
  0
INSERT
  5
2C0
330
2BA
100
AcDbEntity
  8
0
 62
     0
370
    -2
100
AcDbBlockReference
  2
_OPEN30
 10
-19.30278968811035
 20
65.2254110656767
 30
0.0
 41
3.0
 42
3.0
 43
3.0
  0
INSERT
  5
2C1
330
2BA
100
AcDbEntity
  8
0
 62
     0
370
    -2
100
AcDbBlockReference
  2
_OPEN30
 10
-31.92778968811035
 20
65.2254110656767
 30
0.0
 41
3.0
 42
3.0
 43
3.0
 50
180.0
  0
MTEXT
  5
2C2
330
2BA
100
AcDbEntity
  8
0
 62
     1
100
AcDbMText
 10
-25.61328968811035
 20
67.64621110174943
 30
0.0
 40
3.200000047683716
 41
0.0
 71
     5
 72
     1
  1
50.5
 73
     1
 44
1.0
  0
POINT
  5
2C3
330
2BA
100
AcDbEntity
  8
Defpoints
 62
     0
100
AcDbPoint
 10
-19.30278968811035
 20
92.39965057373047
 30
0.0
  0
POINT
  5
2C4
330
2BA
100
AcDbEntity
  8
Defpoints
 62
     0
100
AcDbPoint
 10
-31.92778968811035
 20
73.02465057373047
 30
0.0
  0
POINT
  5
2C5
330
2BA
100
AcDbEntity
  8
Defpoints
 62
     0
100
AcDbPoint
 10
-31.92778968811035
 20
65.22441106567669
 30
0.0
  0
ENDBLK
  5
2BC
330
2BA
100
AcDbEntity
  8
0
100
AcDbBlockEnd
  0
BLOCK
  5
2C8
330
2C7
100
AcDbEntity
  8
0
100
AcDbBlockBegin
  2
*D25
 70
     1
 10
0.0
 20
0.0
 30
0.0
  3
*D25
  1

  0
MTEXT
  5
2D1
330
2C7
100
AcDbEntity
  8
0
 62
     1
100
AcDbMText
 10
-1.05078754234314
 20
133.9390429803133
 30
0.0
 40
3.200000047683716
 41
0.0
 71
     5
 72
     1
  1
15
 73
     1
 44
1.0
  0
POINT
  5
2D2
330
2C7
100
AcDbEntity
  8
Defpoints
 62
     0
100
AcDbPoint
 10
0.822212517261505
 20
107.6496658325195
 30
0.0
  0
POINT
  5
2D3
330
2C7
100
AcDbEntity
  8
Defpoints
 62
     0
100
AcDbPoint
 10
-2.92778754234314
 20
107.649658203125
 30
0.0
  0
POINT
  5
2D4
330
2C7
100
AcDbEntity
  8
Defpoints
 62
     0
100
AcDbPoint
 10
-2.92778754234314
 20
131.5246429443359
 30
0.0
  0
LINE
  5
2D5
330
2C7
100
AcDbEntity
  8
0
  6
Continuous
 62
     7
100
AcDbLine
 10
0.822212517261505
 20
110.1896658325195
 30
0.0
 11
0.822212517261505
 21
133.5246429443359
 31
0.0
  0
LINE
  5
2D6
330
2C7
100
AcDbEntity
  8
0
  6
Continuous
 62
     7
100
AcDbLine
 10
-2.92778754234314
 20
110.189658203125
 30
0.0
 11
-2.92778754234314
 21
133.5246429443359
 31
0.0
  0
LINE
  5
2D7
330
2C7
100
AcDbEntity
  8
0
  6
Continuous
 62
     7
100
AcDbLine
 10
7.172212517261505
 20
131.5246429443359
 30
0.0
 11
-9.27778754234314
 21
131.5246429443359
 31
0.0
  0
LINE
  5
2D8
330
2C7
100
AcDbEntity
  8
0
  6
Continuous
 62
     7
100
AcDbLine
 10
0.822212517261505
 20
131.5246429443359
 30
0.0
 11
3.876738179267129
 21
132.3431006286359
 31
0.0
  0
LINE
  5
2D9
330
2C7
100
AcDbEntity
  8
0
  6
Continuous
 62
     7
100
AcDbLine
 10
0.822212517261505
 20
131.5246429443359
 30
0.0
 11
3.876738179267129
 21
130.7061852600359
 31
0.0
  0
LINE
  5
2DA
330
2C7
100
AcDbEntity
  8
0
  6
Continuous
 62
     7
100
AcDbLine
 10
-2.92778754234314
 20
131.5246429443359
 30
0.0
 11
-5.982313204348763
 21
130.7061852600359
 31
0.0
  0
LINE
  5
2DB
330
2C7
100
AcDbEntity
  8
0
  6
Continuous
 62
     7
100
AcDbLine
 10
-2.92778754234314
 20
131.5246429443359
 30
0.0
 11
-5.982313204348763
 21
132.3431006286359
 31
0.0
  0
ENDBLK
  5
2C9
330
2C7
100
AcDbEntity
  8
0
100
AcDbBlockEnd
  0
BLOCK
  5
2DE
330
2DD
100
AcDbEntity
  8
0
100
AcDbBlockBegin
  2
*D26
 70
     1
 10
0.0
 20
0.0
 30
0.0
  3
*D26
  1

  0
LINE
  5
2E0
330
2DD
100
AcDbEntity
  8
0
 62
     0
370
    -2
100
AcDbLine
 10
22.82220458984375
 20
94.93966583251954
 30
0.0
 11
22.82220458984376
 21
133.5246429443359
 31
0.0
  0
LINE
  5
2E1
330
2DD
100
AcDbEntity
  8
0
 62
     0
370
    -2
100
AcDbLine
 10
3.822212517261509
 20
131.5246429443359
 30
0.0
 11
19.82220458984376
 21
131.5246429443359
 31
0.0
  0
INSERT
  5
2E2
330
2DD
100
AcDbEntity
  8
0
 62
     0
370
    -2
100
AcDbBlockReference
  2
_OPEN30
 10
0.822212517261509
 20
131.5246429443359
 30
0.0
 41
3.0
 42
3.0
 43
3.0
 50
180.0
  0
INSERT
  5
2E3
330
2DD
100
AcDbEntity
  8
0
 62
     0
370
    -2
100
AcDbBlockReference
  2
_OPEN30
 10
22.82220458984376
 20
131.5246429443359
 30
0.0
 41
3.0
 42
3.0
 43
3.0
  0
MTEXT
  5
2E4
330
2DD
100
AcDbEntity
  8
0
 62
     1
100
AcDbMText
 10
11.82320840454102
 20
133.9390429803133
 30
0.0
 40
3.200000047683716
 41
0.0
 71
     5
 72
     1
  1
88
 73
     1
 44
1.0
  0
POINT
  5
2E5
330
2DD
100
AcDbEntity
  8
Defpoints
 62
     0
100
AcDbPoint
 10
0.822212517261505
 20
107.6496658325195
 30
0.0
  0
POINT
  5
2E6
330
2DD
100
AcDbEntity
  8
Defpoints
 62
     0
100
AcDbPoint
 10
22.82220458984375
 20
92.39966583251953
 30
0.0
  0
POINT
  5
2E7
330
2DD
100
AcDbEntity
  8
Defpoints
 62
     0
100
AcDbPoint
 10
22.82220458984376
 20
131.5246429443359
 30
0.0
  0
ENDBLK
  5
2DF
330
2DD
100
AcDbEntity
  8
0
100
AcDbBlockEnd
  0
BLOCK
  5
2EA
330
2E9
100
AcDbEntity
  8
0
100
AcDbBlockBegin
  2
*D27
 70
     1
 10
0.0
 20
0.0
 30
0.0
  3
*D27
  1

  0
POINT
  5
2F2
330
2E9
100
AcDbEntity
  8
Defpoints
 62
     0
100
AcDbPoint
 10
-31.92778938631055
 20
73.52465290130569
 30
0.0
  0
POINT
  5
2F3
330
2E9
100
AcDbEntity
  8
Defpoints
 62
     0
100
AcDbPoint
 10
-31.92779004061906
 20
111.2746526793236
 30
0.0
  0
POINT
  5
2F4
330
2E9
100
AcDbEntity
  8
Defpoints
 62
     0
100
AcDbPoint
 10
-17.88382530212402
 20
116.3862378152199
 30
0.0
  0
LINE
  5
2F5
330
2E9
100
AcDbEntity
  8
0
  6
Continuous
 62
     7
100
AcDbLine
 10
-29.5409701395122
 20
74.39338409282178
 30
0.0
 11
-16.38382848031092
 21
79.18219219627419
 31
0.0
  0
LINE
  5
2F6
330
2E9
100
AcDbEntity
  8
0
  6
Continuous
 62
     7
100
AcDbLine
 10
-29.54097079382072
 20
112.1433838708397
 30
0.0
 11
-16.38382958269978
 21
116.9321918112042
 31
0.0
  0
LINE
  5
2F7
330
2E9
100
AcDbEntity
  8
0
  6
Continuous
 62
     7
100
AcDbLine
 10
-17.88382530212402
 20
78.63623046875
 30
0.0
 11
-17.88382530212402
 21
116.3862380981445
 31
0.0
  0
LINE
  5
2F8
330
2E9
100
AcDbEntity
  8
0
  6
Continuous
 62
     7
100
AcDbLine
 10
-17.88382530212402
 20
78.63623046875
 30
0.0
 11
-18.70228298642402
 21
81.69075613075563
 31
0.0
  0
LINE
  5
2F9
330
2E9
100
AcDbEntity
  8
0
  6
Continuous
 62
     7
100
AcDbLine
 10
-17.88382530212402
 20
78.63623046875
 30
0.0
 11
-17.06536761782402
 21
81.69075613075563
 31
0.0
  0
LINE
  5
2FA
330
2E9
100
AcDbEntity
  8
0
  6
Continuous
 62
     7
100
AcDbLine
 10
-17.88382530212402
 20
116.3862380981445
 30
0.0
 11
-17.06536761782402
 21
113.3317124361389
 31
0.0
  0
LINE
  5
2FB
330
2E9
100
AcDbEntity
  8
0
  6
Continuous
 62
     7
100
AcDbLine
 10
-17.88382530212402
 20
116.3862380981445
 30
0.0
 11
-18.70228298642402
 21
113.3317124361389
 31
0.0
  0
MTEXT
  5
2FC
330
2E9
100
AcDbEntity
  8
0
 62
     1
100
AcDbMText
 10
-18.68382531404496
 20
101.9749130010605
 30
0.0
 40
3.200000047683716
 41
0.0
 71
     7
 72
     1
  1
\W0.6875;151
 11
6.123233995736766E-17
 21
1.0
 31
0.0
 73
     1
 44
1.0
  0
ENDBLK
  5
2EB
330
2E9
100
AcDbEntity
  8
0
100
AcDbBlockEnd
  0
BLOCK
  5
2FF
330
2FE
100
AcDbEntity
  8
0
100
AcDbBlockBegin
  2
*D28
 70
     1
 10
0.0
 20
0.0
 30
0.0
  3
*D28
  1

  0
POINT
  5
308
330
2FE
100
AcDbEntity
  8
Defpoints
 62
     0
100
AcDbPoint
 10
-31.92779120187724
 20
-87.47184927837402
 30
0.0
  0
POINT
  5
309
330
2FE
100
AcDbEntity
  8
Defpoints
 62
     0
100
AcDbPoint
 10
-31.92778456890919
 20
-46.2218498306529
 30
0.0
  0
POINT
  5
30A
330
2FE
100
AcDbEntity
  8
Defpoints
 62
     0
100
AcDbPoint
 10
-28.79105949401855
 20
-45.08017527031629
 30
0.0
  0
LINE
  5
30B
330
2FE
100
AcDbEntity
  8
0
  6
Continuous
 62
     7
100
AcDbLine
 10
-29.5409719550789
 20
-86.60311808685792
 30
0.0
 11
-27.29106283689499
 21
-85.7842181087114
 31
0.0
  0
LINE
  5
30C
330
2FE
100
AcDbEntity
  8
0
  6
Continuous
 62
     7
100
AcDbLine
 10
-29.54096532211084
 20
-45.3531186391368
 30
0.0
 11
-27.2910597885698
 21
-44.53421996569362
 31
0.0
  0
LINE
  5
30D
330
2FE
100
AcDbEntity
  8
0
  6
Continuous
 62
     7
100
AcDbLine
 10
-28.79105949401855
 20
-86.33016967773438
 30
0.0
 11
-28.79105949401855
 21
-45.08016967773438
 31
0.0
  0
LINE
  5
30E
330
2FE
100
AcDbEntity
  8
0
  6
Continuous
 62
     7
100
AcDbLine
 10
-28.79105949401855
 20
-86.33016967773438
 30
0.0
 11
-29.60951717831855
 21
-83.27564401572874
 31
0.0
  0
LINE
  5
30F
330
2FE
100
AcDbEntity
  8
0
  6
Continuous
 62
     7
100
AcDbLine
 10
-28.79105949401855
 20
-86.33016967773438
 30
0.0
 11
-27.97260180971855
 21
-83.27564401572874
 31
0.0
  0
LINE
  5
310
330
2FE
100
AcDbEntity
  8
0
  6
Continuous
 62
     7
100
AcDbLine
 10
-28.79105949401855
 20
-45.08016967773438
 30
0.0
 11
-27.97260180971855
 21
-48.13469533974
 31
0.0
  0
LINE
  5
311
330
2FE
100
AcDbEntity
  8
0
  6
Continuous
 62
     7
100
AcDbLine
 10
-28.79105949401855
 20
-45.08016967773438
 30
0.0
 11
-29.60951717831855
 21
-48.13469533974
 31
0.0
  0
LINE
  5
312
330
2FE
100
AcDbEntity
  8
0
  6
Continuous
 62
     7
100
AcDbLine
 10
-28.79105949401855
 20
-45.08016967773438
 30
0.0
 11
-28.79105949401855
 21
-34.43708038330078
 31
0.0
  0
MTEXT
  5
313
330
2FE
100
AcDbEntity
  8
0
 62
     1
100
AcDbMText
 10
-29.59105950593949
 20
-40.63707888126373
 30
0.0
 40
3.200000047683716
 41
0.0
 71
     7
 72
     1
  1
\W0.6875;165
 11
6.123233995736766E-17
 21
1.0
 31
0.0
 73
     1
 44
1.0
  0
ENDBLK
  5
300
330
2FE
100
AcDbEntity
  8
0
100
AcDbBlockEnd
  0
BLOCK
  5
316
330
315
100
AcDbEntity
  8
0
100
AcDbBlockBegin
  2
*D29
 70
     1
 10
0.0
 20
0.0
 30
0.0
  3
*D29
  1

  0
LINE
  5
318
330
315
100
AcDbEntity
  8
0
 62
     0
370
    -2
100
AcDbLine
 10
-0.38778754234314
 20
-83.47184753417969
 30
0.0
 11
21.79146003723144
 21
-83.47184753417969
 31
0.0
  0
LINE
  5
319
330
315
100
AcDbEntity
  8
0
 62
     0
370
    -2
100
AcDbLine
 10
-0.38778754234314
 20
-50.22184753417969
 30
0.0
 11
21.79146003723145
 21
-50.22184753417969
 31
0.0
  0
LINE
  5
31A
330
315
100
AcDbEntity
  8
0
 62
     0
370
    -2
100
AcDbLine
 10
20.29146003723144
 20
-80.47184753417969
 30
0.0
 11
20.29146003723145
 21
-53.22184753417969
 31
0.0
  0
INSERT
  5
31B
330
315
100
AcDbEntity
  8
0
 62
     0
370
    -2
100
AcDbBlockReference
  2
_OPEN30
 10
20.29146003723144
 20
-83.47184753417969
 30
0.0
 41
3.0
 42
3.0
 43
3.0
 50
270.0
  0
INSERT
  5
31C
330
315
100
AcDbEntity
  8
0
 62
     0
370
    -2
100
AcDbBlockReference
  2
_OPEN30
 10
20.29146003723145
 20
-50.22184753417969
 30
0.0
 41
3.0
 42
3.0
 43
3.0
 50
89.99999999999999
  0
MTEXT
  5
31D
330
315
100
AcDbEntity
  8
0
 62
     1
100
AcDbMText
 10
17.87706000125408
 20
-61.8046640625
 30
0.0
 40
3.200000047683716
 41
0.0
 71
     5
 72
     1
  1
133
 11
2.136970633864963E-16
 21
1.0
 31
0.0
 73
     1
 44
1.0
  0
POINT
  5
31E
330
315
100
AcDbEntity
  8
Defpoints
 62
     0
100
AcDbPoint
 10
-2.92778754234314
 20
-83.47184753417969
 30
0.0
  0
POINT
  5
31F
330
315
100
AcDbEntity
  8
Defpoints
 62
     0
100
AcDbPoint
 10
-2.92778754234314
 20
-50.22184753417969
 30
0.0
  0
POINT
  5
320
330
315
100
AcDbEntity
  8
Defpoints
 62
     0
100
AcDbPoint
 10
20.29146003723145
 20
-50.22184753417969
 30
0.0
  0
ENDBLK
  5
317
330
315
100
AcDbEntity
  8
0
100
AcDbBlockEnd
  0
BLOCK
  5
323
330
322
100
AcDbEntity
  8
0
100
AcDbBlockBegin
  2
*D30
 70
     1
 10
0.0
 20
0.0
 30
0.0
  3
*D30
  1

  0
LINE
  5
325
330
322
100
AcDbEntity
  8
0
 62
     0
370
    -2
100
AcDbLine
 10
37.51308731079101
 20
-79.34684753417969
 30
0.0
 11
45.72308731079101
 21
-79.34684753417969
 31
0.0
  0
LINE
  5
326
330
322
100
AcDbEntity
  8
0
 62
     0
370
    -2
100
AcDbLine
 10
37.51308731079101
 20
-54.34684753417969
 30
0.0
 11
45.72308731079102
 21
-54.34684753417969
 31
0.0
  0
LINE
  5
327
330
322
100
AcDbEntity
  8
0
 62
     0
370
    -2
100
AcDbLine
 10
44.22308731079101
 20
-76.34684753417969
 30
0.0
 11
44.22308731079102
 21
-57.34684753417969
 31
0.0
  0
INSERT
  5
328
330
322
100
AcDbEntity
  8
0
 62
     0
370
    -2
100
AcDbBlockReference
  2
_OPEN30
 10
44.22308731079101
 20
-79.34684753417969
 30
0.0
 41
3.0
 42
3.0
 43
3.0
 50
270.0
  0
INSERT
  5
329
330
322
100
AcDbEntity
  8
0
 62
     0
370
    -2
100
AcDbBlockReference
  2
_OPEN30
 10
44.22308731079102
 20
-54.34684753417969
 30
0.0
 41
3.0
 42
3.0
 43
3.0
 50
89.99999999999999
  0
MTEXT
  5
32A
330
322
100
AcDbEntity
  8
0
 62
     1
100
AcDbMText
 10
41.80868727481365
 20
-66.84584753417968
 30
0.0
 40
3.200000047683716
 41
0.0
 71
     5
 72
     1
  1
100
 11
2.842170943040401E-16
 21
1.0
 31
0.0
 73
     1
 44
1.0
  0
POINT
  5
32B
330
322
100
AcDbEntity
  8
Defpoints
 62
     0
100
AcDbPoint
 10
34.97308731079102
 20
-79.34684753417969
 30
0.0
  0
POINT
  5
32C
330
322
100
AcDbEntity
  8
Defpoints
 62
     0
100
AcDbPoint
 10
34.97308731079102
 20
-54.34684753417969
 30
0.0
  0
POINT
  5
32D
330
322
100
AcDbEntity
  8
Defpoints
 62
     0
100
AcDbPoint
 10
44.22308731079102
 20
-54.34684753417969
 30
0.0
  0
ENDBLK
  5
324
330
322
100
AcDbEntity
  8
0
100
AcDbBlockEnd
  0
BLOCK
  5
330
330
32F
100
AcDbEntity
  8
0
100
AcDbBlockBegin
  2
*D31
 70
     1
 10
0.0
 20
0.0
 30
0.0
  3
*D31
  1

  0
LINE
  5
332
330
32F
100
AcDbEntity
  8
0
 62
     0
370
    -2
100
AcDbLine
 10
26.47293190002441
 20
92.39966583251953
 30
0.0
 11
82.62656534641309
 21
92.39966583251953
 31
0.0
  0
LINE
  5
333
330
32F
100
AcDbEntity
  8
0
 62
     0
370
    -2
100
AcDbLine
 10
80.34056534641309
 20
89.39966583251953
 30
0.0
 11
80.34056534641316
 21
-105.0247955322266
 31
0.0
  0
INSERT
  5
334
330
32F
100
AcDbEntity
  8
0
 62
     0
370
    -2
100
AcDbBlockReference
  2
_OPEN30
 10
80.34056534641309
 20
92.39966583251953
 30
0.0
 41
3.0
 42
3.0
 43
3.0
 50
90.00000000000001
  0
INSERT
  5
335
330
32F
100
AcDbEntity
  8
0
 62
     0
370
    -2
100
AcDbBlockReference
  2
_OPEN30
 10
80.34056534641316
 20
-108.0247955322266
 30
0.0
 41
3.0
 42
3.0
 43
3.0
 50
270.0
  0
MTEXT
  5
336
330
32F
100
AcDbEntity
  8
0
 62
     1
100
AcDbMText
 10
77.10696529822872
 20
-7.811564849853516
 30
0.0
 40
3.200000047683716
 41
0.0
 71
     5
 72
     1
  1
(802)
 11
-3.545189698511930E-16
 21
1.0
 31
0.0
 73
     1
 44
1.0
  0
POINT
  5
337
330
32F
100
AcDbEntity
  8
Defpoints
 62
     0
100
AcDbPoint
 10
23.93293190002441
 20
92.39966583251953
 30
0.0
  0
POINT
  5
338
330
32F
100
AcDbEntity
  8
Defpoints
 62
     0
100
AcDbPoint
 10
86.43379974365234
 20
-108.0247955322266
 30
0.0
  0
POINT
  5
339
330
32F
100
AcDbEntity
  8
Defpoints
 62
     0
100
AcDbPoint
 10
80.3385653464131
 20
-108.0247955322266
 30
0.0
  0
ENDBLK
  5
331
330
32F
100
AcDbEntity
  8
0
100
AcDbBlockEnd
  0
ENDSEC
  0
SECTION
  2
ENTITIES
  0
LINE
  5
44
330
1F
100
AcDbEntity
  8
0
  6
Continuous
 62
     7
100
AcDbLine
 10
75.96110689199037
 20
-86.59216162365672
 30
0.0
 11
56.26495560565
 21
-90.06512461190124
 31
0.0
  0
LINE
  5
45
330
1F
100
AcDbEntity
  8
0
  6
CENTER
 62
     7
100
AcDbLine
 10
69.73285975520139
 20
-108.8577211069734
 30
0.0
 11
48.34848483368231
 21
12.41909210518337
 31
0.0
  0
LINE
  5
46
330
1F
100
AcDbEntity
  8
0
  6
Continuous
 62
     7
100
AcDbLine
 10
58.57517382411088
 20
-103.1670228150449
 30
0.0
 11
56.26495560565
 21
-90.06512461190124
 31
0.0
  0
LINE
  5
47
330
1F
100
AcDbEntity
  8
0
  6
Continuous
 62
     7
100
AcDbLine
 10
78.41119408987416
 20
-100.4872962040104
 30
0.0
 11
75.96110689199037
 21
-86.59216162365672
 31
0.0
  0
LINE
  5
48
330
1F
100
AcDbEntity
  8
0
  6
CENTER
 62
     7
100
AcDbLine
 10
86.43379974365234
 20
-108.0247955322266
 30
0.0
 11
68.65865325927734
 21
-108.0247955322266
 31
0.0
  0
LINE
  5
49
330
1F
100
AcDbEntity
  8
0
  6
Continuous
 62
     7
100
AcDbLine
 10
78.41120147705078
 20
-115.5622940063477
 30
0.0
 11
73.60114288330078
 21
-115.5622940063477
 31
0.0
  0
LINE
  5
4A
330
1F
100
AcDbEntity
  8
0
  6
Continuous
 62
     7
100
AcDbLine
 10
78.41120147705078
 20
-115.5622940063477
 30
0.0
 11
78.41120147705078
 21
-100.4872970581055
 31
0.0
  0
LINE
  5
4B
330
1F
100
AcDbEntity
  8
0
  6
Continuous
 62
     7
100
AcDbLine
 10
85.91120147705078
 20
-114.8683090209961
 30
0.0
 11
85.91120147705078
 21
-101.1812896728516
 31
0.0
  0
LINE
  5
4C
330
1F
100
AcDbEntity
  8
0
  6
Continuous
 62
     7
100
AcDbLine
 10
78.41120471880271
 20
-115.3122898100198
 30
0.0
 11
85.66127402171412
 21
-115.1310381152709
 31
0.0
  0
LINE
  5
4D
330
1F
100
AcDbEntity
  8
0
  6
Continuous
 62
     7
100
AcDbLine
 10
78.41120451360618
 20
-100.7372956118087
 30
0.0
 11
85.66127381618008
 21
-100.9185473200577
 31
0.0
  0
LINE
  5
4E
330
1F
100
AcDbEntity
  8
0
  6
Continuous
 62
     7
100
AcDbLine
 10
85.66127870386477
 20
-115.131048409484
 30
0.0
 11
85.91119967022466
 21
-114.8683109805398
 31
0.0
  0
LINE
  5
4F
330
1F
100
AcDbEntity
  8
0
  6
Continuous
 62
     7
100
AcDbLine
 10
85.66127758284756
 20
-100.9185466618395
 30
0.0
 11
85.91119329092373
 21
-101.1812785628444
 31
0.0
  0
LINE
  5
50
330
1F
100
AcDbEntity
  8
0
  6
Continuous
 62
     7
100
AcDbLine
 10
58.82903063274478
 20
-103.1670236965963
 30
0.0
 11
56.51115754368854
 21
-90.021712566268
 31
0.0
  0
LINE
  5
51
330
1F
100
AcDbEntity
  8
0
  6
Continuous
 62
     7
100
AcDbLine
 10
61.75583938522051
 20
-110.1670417279983
 30
0.0
 11
61.95002486999954
 21
-110.0095869805273
 31
0.0
  0
LINE
  5
52
330
1F
100
AcDbEntity
  8
0
  6
Continuous
 62
     7
100
AcDbLine
 10
60.76689075475013
 20
-0.421482370979167
 30
0.0
 11
41.07073946840976
 21
-3.894445359223674
 31
0.0
  0
LINE
  5
53
330
1F
100
AcDbEntity
  8
0
  6
Continuous
 62
     7
100
AcDbLine
 10
44.1744766763175
 20
28.89262706476482
 30
0.0
 11
24.47831975486197
 21
25.41966308289744
 31
0.0
  0
LINE
  5
54
330
1F
100
AcDbEntity
  8
0
  6
Continuous
 62
     7
100
AcDbLine
 10
26.26652776519512
 20
15.27823179722436
 30
0.0
 11
24.47831975486197
 21
25.41966308289744
 31
0.0
  0
LINE
  5
55
330
1F
100
AcDbEntity
  8
0
  6
Continuous
 62
     7
100
AcDbLine
 10
27.97616971847797
 20
15.66021881276033
 30
0.0
 11
26.2017333211318
 21
25.72354740233017
 31
0.0
  0
LINE
  5
56
330
1F
100
AcDbEntity
  8
0
  6
Continuous
 62
     7
100
AcDbLine
 10
45.47683821091872
 20
21.50656798442254
 30
0.0
 11
44.1744766763175
 21
28.89262706476482
 31
0.0
  0
LINE
  5
57
330
1F
100
AcDbEntity
  8
0
  6
Continuous
 62
     7
100
AcDbLine
 10
56.26495560565
 20
-90.06512461190124
 30
0.0
 11
41.07073946840976
 21
-3.894445359223674
 31
0.0
  0
LINE
  5
58
330
1F
100
AcDbEntity
  8
0
  6
Continuous
 62
     7
100
AcDbLine
 10
75.96110689199037
 20
-86.59216162365672
 30
0.0
 11
58.55240406328193
 21
12.13749537925369
 31
0.0
  0
LINE
  5
59
330
1F
100
AcDbEntity
  8
0
  6
Continuous
 62
     7
100
AcDbLine
 10
76.06208560332215
 20
-97.24268839994893
 30
0.0
 11
57.06938694674292
 21
10.47025508435437
 31
0.0
  0
LINE
  5
5A
330
1F
100
AcDbEntity
  8
0
  6
Continuous
 62
     7
100
AcDbLine
 10
59.81276144952143
 20
-100.107882749328
 30
0.0
 11
42.63547245586221
 21
-2.690638784019659
 31
0.0
  0
LINE
  5
5B
330
1F
100
AcDbEntity
  8
0
  6
Continuous
 62
     7
100
AcDbLine
 10
36.72307182707929
 20
78.35008363008394
 30
0.0
 11
14.56489928198172
 21
74.44299985429934
 31
0.0
  0
LINE
  5
5C
330
1F
100
AcDbEntity
  8
0
  6
Continuous
 62
     7
100
AcDbLine
 10
44.17448447608554
 20
28.89262620161375
 30
0.0
 11
36.72308472133705
 21
78.35007645772339
 31
0.0
  0
LINE
  5
5D
330
1F
100
AcDbEntity
  8
0
  6
Continuous
 62
     7
100
AcDbLine
 10
24.47832059578296
 20
25.41966466284897
 30
0.0
 11
14.56490201000052
 21
74.44299263320636
 31
0.0
  0
LINE
  5
5E
330
1F
100
AcDbEntity
  8
0
  6
Continuous
 62
     7
100
AcDbLine
 10
42.45053225642674
 20
28.58864806638192
 30
0.0
 11
34.99261473424417
 21
78.08935894053133
 31
0.0
  0
LINE
  5
5F
330
1F
100
AcDbEntity
  8
0
  6
Continuous
 62
     7
100
AcDbLine
 10
26.20227317602394
 20
25.72364130214513
 30
0.0
 11
16.28018252923353
 21
74.7898539027937
 31
0.0
  0
LINE
  5
60
330
1F
100
AcDbEntity
  8
0
  6
Continuous
 62
     7
100
AcDbLine
 10
14.56489928198172
 20
74.44299985429934
 30
0.0
 11
14.24445988069374
 21
76.2603019526044
 31
0.0
  0
LINE
  5
61
330
1F
100
AcDbEntity
  8
0
  6
Continuous
 62
     7
100
AcDbLine
 10
36.72307182707929
 20
78.35008363008394
 30
0.0
 11
35.78023235894814
 21
83.69719181001611
 31
0.0
  0
LINE
  5
62
330
1F
100
AcDbEntity
  8
0
  6
Continuous
 62
     7
100
AcDbLine
 10
3.82221245765686
 20
78.14966583251953
 30
0.0
 11
3.82221245765686
 21
106.6496658325195
 31
0.0
  0
LINE
  5
63
330
1F
100
AcDbEntity
  8
0
  6
Continuous
 62
     7
100
AcDbLine
 10
0.822212517261505
 20
77.14966583251953
 30
0.0
 11
0.822212517261505
 21
107.6496658325195
 31
0.0
  0
LINE
  5
64
330
1F
100
AcDbEntity
  8
0
  6
Continuous
 62
     7
100
AcDbLine
 10
-2.92778754234314
 20
77.14965057373047
 30
0.0
 11
-2.92778754234314
 21
107.649658203125
 31
0.0
  0
LINE
  5
65
330
1F
100
AcDbEntity
  8
0
  6
Continuous
 62
     7
100
AcDbLine
 10
3.822213411331177
 20
78.14966583251953
 30
0.0
 11
0.822213470935822
 21
78.14966583251953
 31
0.0
  0
LINE
  5
66
330
1F
100
AcDbEntity
  8
0
  6
Continuous
 62
     7
100
AcDbLine
 10
3.822213411331177
 20
106.6496658325195
 30
0.0
 11
0.822213470935822
 21
106.6496658325195
 31
0.0
  0
LINE
  5
67
330
1F
100
AcDbEntity
  8
0
  6
Continuous
 62
     7
100
AcDbLine
 10
3.822213411331177
 20
79.89966583251953
 30
0.0
 11
0.822213470935822
 21
79.89966583251953
 31
0.0
  0
LINE
  5
68
330
1F
100
AcDbEntity
  8
0
  6
Continuous
 62
     7
100
AcDbLine
 10
3.822213411331177
 20
104.8996658325195
 30
0.0
 11
0.822213470935822
 21
104.8996658325195
 31
0.0
  0
LINE
  5
69
330
1F
100
AcDbEntity
  8
0
  6
Continuous
 62
     7
100
AcDbLine
 10
16.28831284825156
 20
74.74688417373207
 30
0.0
 11
15.96787344696357
 21
76.56418627203712
 31
0.0
  0
LINE
  5
6A
330
1F
100
AcDbEntity
  8
0
  6
Continuous
 62
     7
100
AcDbLine
 10
34.9996620175529
 20
78.04619997306646
 30
0.0
 11
34.05682254942175
 21
83.39330815299863
 31
0.0
  0
LINE
  5
6B
330
1F
100
AcDbEntity
  8
0
  6
CENTER
 62
     7
100
AcDbLine
 10
37.69425151994484
 20
8.056105901566065
 30
0.0
 11
22.6543268601962
 21
93.3517547283065
 31
0.0
  0
LINE
  5
6C
330
1F
100
AcDbEntity
  8
0
  6
CENTER
 62
     7
100
AcDbLine
 10
23.93293190002441
 20
92.39966583251953
 30
0.0
 11
-36.77357864379883
 21
92.39966583251953
 31
0.0
  0
LINE
  5
6D
330
1F
100
AcDbEntity
  8
0
  6
Continuous
 62
     7
100
AcDbLine
 10
43.75342464464889
 20
21.20268366498981
 30
0.0
 11
42.45106311004767
 21
28.5887427453321
 31
0.0
  0
LINE
  5
6E
330
1F
100
AcDbEntity
  8
0
  6
Continuous
 62
     7
100
AcDbLine
 10
43.75342464464889
 20
21.20268366498981
 30
0.0
 11
42.45106311004767
 21
28.5887427453321
 31
0.0
  0
LINE
  5
6F
330
1F
100
AcDbEntity
  8
0
  6
Continuous
 62
     7
100
AcDbLine
 10
76.06208855121412
 20
-97.24268861977492
 30
0.0
 11
78.41120302660495
 21
-108.0248258121932
 31
0.0
  0
LINE
  5
70
330
1F
100
AcDbEntity
  8
0
  6
Continuous
 62
     7
100
AcDbLine
 10
-31.92778968811035
 20
111.2746505737305
 30
0.0
 11
-20.18968772888184
 21
111.2746505737305
 31
0.0
  0
LINE
  5
71
330
1F
100
AcDbEntity
  8
0
  6
Continuous
 62
     7
100
AcDbLine
 10
-31.92778968811035
 20
112.2746505737305
 30
0.0
 11
-31.92778968811035
 21
73.02465057373047
 31
0.0
  0
LINE
  5
72
330
1F
100
AcDbEntity
  8
0
  6
Continuous
 62
     7
100
AcDbLine
 10
-35.67778778076172
 20
112.2746505737305
 30
0.0
 11
-35.67778778076172
 21
73.02465057373047
 31
0.0
  0
LINE
  5
73
330
1F
100
AcDbEntity
  8
0
  6
Continuous
 62
     7
100
AcDbLine
 10
-2.927788019188384
 20
107.6496495765586
 30
0.0
 11
-4.427781494918349
 21
110.0246391906543
 31
0.0
  0
LINE
  5
74
330
1F
100
AcDbEntity
  8
0
  6
Continuous
 62
     7
100
AcDbLine
 10
-35.67778778076172
 20
73.02465057373047
 30
0.0
 11
-31.92778968811035
 21
73.02465057373047
 31
0.0
  0
LINE
  5
75
330
1F
100
AcDbEntity
  8
0
  6
Continuous
 62
     7
100
AcDbLine
 10
-2.92778809558412
 20
77.14965244180561
 30
0.0
 11
-4.427787682378998
 21
74.77465315185736
 31
0.0
  0
LINE
  5
76
330
1F
100
AcDbEntity
  8
0
  6
Continuous
 62
     7
100
AcDbLine
 10
-31.92778968811035
 20
73.52465057373047
 30
0.0
 11
-20.18968772888184
 21
73.52465057373047
 31
0.0
  0
LINE
  5
77
330
1F
100
AcDbEntity
  8
0
  6
Continuous
 62
     7
100
AcDbLine
 10
-56.92778396606445
 20
124.0246505737305
 30
0.0
 11
-55.67778396606445
 21
124.0246505737305
 31
0.0
  0
LINE
  5
78
330
1F
100
AcDbEntity
  8
0
  6
Continuous
 62
     7
100
AcDbLine
 10
-56.92778396606445
 20
124.0246505737305
 30
0.0
 11
-56.92778396606445
 21
101.5935745239258
 31
0.0
  0
LINE
  5
79
330
1F
100
AcDbEntity
  8
0
  6
Continuous
 62
     7
100
AcDbLine
 10
-55.67778396606445
 20
124.0246505737305
 30
0.0
 11
-55.67778396606445
 21
101.2586364746094
 31
0.0
  0
LINE
  5
7A
330
1F
100
AcDbEntity
  8
0
  6
Continuous
 62
     7
100
AcDbLine
 10
-49.92778396606445
 20
119.7746505737305
 30
0.0
 11
-49.92778396606445
 21
99.71792602539062
 31
0.0
  0
LINE
  5
7B
330
1F
100
AcDbEntity
  8
0
  6
Continuous
 62
     7
100
AcDbLine
 10
-46.92778778076172
 20
118.5246505737305
 30
0.0
 11
-46.92778778076172
 21
98.91407775878906
 31
0.0
  0
LINE
  5
7C
330
1F
100
AcDbEntity
  8
0
  6
Continuous
 62
     7
100
AcDbLine
 10
-43.17778778076172
 20
118.5246505737305
 30
0.0
 11
-43.17778778076172
 21
97.90927124023438
 31
0.0
  0
LINE
  5
7D
330
1F
100
AcDbEntity
  8
0
  6
Continuous
 62
     7
100
AcDbLine
 10
-55.67778396606445
 20
123.5246505737305
 30
0.0
 11
-54.36484146118164
 21
123.5246505737305
 31
0.0
  0
LINE
  5
7E
330
1F
100
AcDbEntity
  8
0
  6
Continuous
 62
     7
100
AcDbLine
 10
-49.92778396606445
 20
119.7746505737305
 30
0.0
 11
-48.40680694580078
 21
119.7746505737305
 31
0.0
  0
LINE
  5
7F
330
1F
100
AcDbEntity
  8
0
  6
Continuous
 62
     7
100
AcDbLine
 10
-46.92778778076172
 20
118.5246505737305
 30
0.0
 11
-43.17778778076172
 21
118.5246505737305
 31
0.0
  0
LINE
  5
80
330
1F
100
AcDbEntity
  8
0
  6
Continuous
 62
     7
100
AcDbLine
 10
-35.67778778076172
 20
95.89965057373047
 30
0.0
 11
-31.92778968811035
 21
95.89965057373047
 31
0.0
  0
LINE
  5
81
330
1F
100
AcDbEntity
  8
0
  6
Continuous
 62
     7
100
AcDbLine
 10
-35.67778778076172
 20
112.2746505737305
 30
0.0
 11
-31.92778968811035
 21
112.2746505737305
 31
0.0
  0
LINE
  5
82
330
1F
100
AcDbEntity
  8
0
  6
Continuous
 62
     7
100
AcDbLine
 10
-40.959849799417
 20
115.8101732184655
 30
0.0
 11
-37.89572219656198
 21
114.9891426948931
 31
0.0
  0
LINE
  5
83
330
1F
100
AcDbEntity
  8
0
  6
Continuous
 62
     7
100
AcDbLine
 10
-56.92778777656297
 20
101.5935704768016
 30
0.0
 11
-35.67778808159517
 21
95.89965017164987
 31
0.0
  0
LINE
  5
84
330
1F
100
AcDbEntity
  8
0
  6
Continuous
 62
     7
100
AcDbLine
 10
-31.17778968811035
 20
107.0871505737305
 30
0.0
 11
-30.17778968811035
 21
107.0871505737305
 31
0.0
  0
LINE
  5
85
330
1F
100
AcDbEntity
  8
0
  6
Continuous
 62
     7
100
AcDbLine
 10
-29.42778968811035
 20
105.0777587890625
 30
0.0
 11
-29.42778968811035
 21
106.3371505737305
 31
0.0
  0
LINE
  5
86
330
1F
100
AcDbEntity
  8
0
  6
Continuous
 62
     7
100
AcDbLine
 10
-29.42778968811035
 20
79.72154235839844
 30
0.0
 11
-29.42778968811035
 21
78.46215057373047
 31
0.0
  0
LINE
  5
87
330
1F
100
AcDbEntity
  8
0
  6
Continuous
 62
     7
100
AcDbLine
 10
-31.17778968811035
 20
77.71215057373047
 30
0.0
 11
-30.17778968811035
 21
77.71215057373047
 31
0.0
  0
LINE
  5
88
330
1F
100
AcDbEntity
  8
0
  6
CENTER
 62
     7
100
AcDbLine
 10
-58.2886848449707
 20
-66.84684753417969
 30
0.0
 11
37.30875396728516
 21
-66.84684753417969
 31
0.0
  0
LINE
  5
89
330
1F
100
AcDbEntity
  8
0
  6
Continuous
 62
     7
100
AcDbLine
 10
-2.927785269223996
 20
-50.22184661433177
 30
0.0
 11
-4.427785723309153
 21
-47.47184567292752
 31
0.0
  0
LINE
  5
8A
330
1F
100
AcDbEntity
  8
0
  6
Continuous
 62
     7
100
AcDbLine
 10
-31.92778968811035
 20
-46.22184753417969
 30
0.0
 11
-20.18968772888184
 21
-46.22184753417969
 31
0.0
  0
LINE
  5
8B
330
1F
100
AcDbEntity
  8
0
  6
Continuous
 62
     7
100
AcDbLine
 10
-18.70285224914551
 20
-52.47184753417969
 30
0.0
 11
-2.92778754234314
 21
-52.47184753417969
 31
0.0
  0
LINE
  5
8C
330
1F
100
AcDbEntity
  8
0
  6
Continuous
 62
     7
100
AcDbLine
 10
-18.70285224914551
 20
-53.72184753417969
 30
0.0
 11
-17.4027271270752
 21
-53.72184753417969
 31
0.0
  0
LINE
  5
8D
330
1F
100
AcDbEntity
  8
0
  6
Continuous
 62
     7
100
AcDbLine
 10
-35.67778778076172
 20
-44.97184753417969
 30
0.0
 11
-31.92778968811035
 21
-44.97184753417969
 31
0.0
  0
LINE
  5
8E
330
1F
100
AcDbEntity
  8
0
  6
Continuous
 62
     7
100
AcDbLine
 10
-56.92778396606445
 20
-33.22184753417969
 30
0.0
 11
-55.67778396606445
 21
-33.22184753417969
 31
0.0
  0
LINE
  5
8F
330
1F
100
AcDbEntity
  8
0
  6
Continuous
 62
     7
100
AcDbLine
 10
-55.67778396606445
 20
-33.72184753417969
 30
0.0
 11
-54.36484146118164
 21
-33.72184753417969
 31
0.0
  0
LINE
  5
90
330
1F
100
AcDbEntity
  8
0
  6
Continuous
 62
     7
100
AcDbLine
 10
-49.92778396606445
 20
-37.47184371948242
 30
0.0
 11
-48.40680694580078
 21
-37.47184371948242
 31
0.0
  0
LINE
  5
91
330
1F
100
AcDbEntity
  8
0
  6
Continuous
 62
     7
100
AcDbLine
 10
-46.92778778076172
 20
-38.72184371948242
 30
0.0
 11
-43.17778778076172
 21
-38.72184371948242
 31
0.0
  0
LINE
  5
92
330
1F
100
AcDbEntity
  8
0
  6
Continuous
 62
     7
100
AcDbLine
 10
-40.95984992574423
 20
-41.43633369269536
 30
0.0
 11
-37.89572969231842
 21
-42.25736224163511
 31
0.0
  0
LINE
  5
93
330
1F
100
AcDbEntity
  8
0
  6
Continuous
 62
     7
100
AcDbLine
 10
-35.67778778076172
 20
-44.97184753417969
 30
0.0
 11
-35.67778778076172
 21
-88.72184753417969
 31
0.0
  0
LINE
  5
94
330
1F
100
AcDbEntity
  8
0
  6
Continuous
 62
     7
100
AcDbLine
 10
-2.92778754234314
 20
-50.22184753417969
 30
0.0
 11
-2.92778754234314
 21
-83.47184753417969
 31
0.0
  0
LINE
  5
95
330
1F
100
AcDbEntity
  8
0
  6
Continuous
 62
     7
100
AcDbLine
 10
-4.427787303924561
 20
-47.47184753417969
 30
0.0
 11
-4.427787303924561
 21
-86.22184753417969
 31
0.0
  0
LINE
  5
96
330
1F
100
AcDbEntity
  8
0
  6
Continuous
 62
     7
100
AcDbLine
 10
-2.927786544434454
 20
-83.47184591890377
 30
0.0
 11
-4.427783345167896
 21
-86.22184016249628
 31
0.0
  0
LINE
  5
97
330
1F
100
AcDbEntity
  8
0
  6
Continuous
 62
     7
100
AcDbLine
 10
-31.92778968811035
 20
-44.97184753417969
 30
0.0
 11
-31.92778968811035
 21
-88.72184753417969
 31
0.0
  0
LINE
  5
98
330
1F
100
AcDbEntity
  8
0
  6
Continuous
 62
     7
100
AcDbLine
 10
-31.92778968811035
 20
-87.47184753417969
 30
0.0
 11
-20.18968772888184
 21
-87.47184753417969
 31
0.0
  0
LINE
  5
99
330
1F
100
AcDbEntity
  8
0
  6
Continuous
 62
     7
100
AcDbLine
 10
-18.70285224914551
 20
-81.22184753417969
 30
0.0
 11
-2.92778754234314
 21
-81.22184753417969
 31
0.0
  0
LINE
  5
9A
330
1F
100
AcDbEntity
  8
0
  6
Continuous
 62
     7
100
AcDbLine
 10
-18.70285224914551
 20
-79.97184753417969
 30
0.0
 11
-17.4027271270752
 21
-79.97184753417969
 31
0.0
  0
LINE
  5
9B
330
1F
100
AcDbEntity
  8
0
  6
Continuous
 62
     7
100
AcDbLine
 10
-35.67778778076172
 20
-88.72184753417969
 30
0.0
 11
-31.92778968811035
 21
-88.72184753417969
 31
0.0
  0
LINE
  5
9C
330
1F
100
AcDbEntity
  8
0
  6
Continuous
 62
     7
100
AcDbLine
 10
-56.92778396606445
 20
-33.22184753417969
 30
0.0
 11
-56.92778396606445
 21
-100.4718475341797
 31
0.0
  0
LINE
  5
9D
330
1F
100
AcDbEntity
  8
0
  6
Continuous
 62
     7
100
AcDbLine
 10
-56.92778396606445
 20
-100.4718475341797
 30
0.0
 11
-55.67778396606445
 21
-100.4718475341797
 31
0.0
  0
LINE
  5
9E
330
1F
100
AcDbEntity
  8
0
  6
Continuous
 62
     7
100
AcDbLine
 10
-55.67778396606445
 20
-33.22184753417969
 30
0.0
 11
-55.67778396606445
 21
-100.4718475341797
 31
0.0
  0
LINE
  5
9F
330
1F
100
AcDbEntity
  8
0
  6
Continuous
 62
     7
100
AcDbLine
 10
-55.67778396606445
 20
-99.97184753417969
 30
0.0
 11
-54.36484146118164
 21
-99.97184753417969
 31
0.0
  0
LINE
  5
A0
330
1F
100
AcDbEntity
  8
0
  6
Continuous
 62
     7
100
AcDbLine
 10
-49.92778396606445
 20
-37.47184371948242
 30
0.0
 11
-49.92778396606445
 21
-96.22184753417969
 31
0.0
  0
LINE
  5
A1
330
1F
100
AcDbEntity
  8
0
  6
Continuous
 62
     7
100
AcDbLine
 10
-46.92778778076172
 20
-38.72184371948242
 30
0.0
 11
-46.92778778076172
 21
-94.97184753417969
 31
0.0
  0
LINE
  5
A2
330
1F
100
AcDbEntity
  8
0
  6
Continuous
 62
     7
100
AcDbLine
 10
-43.17778778076172
 20
-38.72184371948242
 30
0.0
 11
-43.17778778076172
 21
-94.97184753417969
 31
0.0
  0
LINE
  5
A3
330
1F
100
AcDbEntity
  8
0
  6
Continuous
 62
     7
100
AcDbLine
 10
-49.92778396606445
 20
-96.22184753417969
 30
0.0
 11
-48.40680694580078
 21
-96.22184753417969
 31
0.0
  0
LINE
  5
A4
330
1F
100
AcDbEntity
  8
0
  6
Continuous
 62
     7
100
AcDbLine
 10
-46.92778778076172
 20
-94.97184753417969
 30
0.0
 11
-43.17778778076172
 21
-94.97184753417969
 31
0.0
  0
LINE
  5
A5
330
1F
100
AcDbEntity
  8
0
  6
Continuous
 62
     7
100
AcDbLine
 10
-40.9598488151459
 20
-92.2573633886126
 30
0.0
 11
-37.89572121229088
 21
-91.43633286504024
 31
0.0
  0
LINE
  5
A6
330
1F
100
AcDbEntity
  8
0
  6
Continuous
 62
     7
100
AcDbLine
 10
0.822212517261505
 20
-83.47184753417969
 30
0.0
 11
0.822212517261505
 21
-50.22184753417969
 31
0.0
  0
LINE
  5
A7
330
1F
100
AcDbEntity
  8
0
  6
Continuous
 62
     7
100
AcDbLine
 10
3.82221245765686
 20
-82.47184753417969
 30
0.0
 11
3.82221245765686
 21
-51.22184753417969
 31
0.0
  0
LINE
  5
A8
330
1F
100
AcDbEntity
  8
0
  6
Continuous
 62
     7
100
AcDbLine
 10
10.0722074508667
 20
-80.04167175292969
 30
0.0
 11
10.0722074508667
 21
-53.65202331542969
 31
0.0
  0
LINE
  5
A9
330
1F
100
AcDbEntity
  8
0
  6
Continuous
 62
     7
100
AcDbLine
 10
36.72308731079102
 20
-77.59684753417969
 30
0.0
 11
36.72308731079102
 21
-56.09684753417969
 31
0.0
  0
LINE
  5
AA
330
1F
100
AcDbEntity
  8
0
  6
Continuous
 62
     7
100
AcDbLine
 10
0.822212517261505
 20
-51.22184753417969
 30
0.0
 11
3.82221245765686
 21
-51.22184753417969
 31
0.0
  0
LINE
  5
AB
330
1F
100
AcDbEntity
  8
0
  6
Continuous
 62
     7
100
AcDbLine
 10
0.822212517261505
 20
-82.47184753417969
 30
0.0
 11
3.82221245765686
 21
-82.47184753417969
 31
0.0
  0
LINE
  5
AC
330
1F
100
AcDbEntity
  8
0
  6
Continuous
 62
     7
100
AcDbLine
 10
15.92528533935547
 20
-54.34684753417969
 30
0.0
 11
34.97308731079102
 21
-54.34684753417969
 31
0.0
  0
LINE
  5
AD
330
1F
100
AcDbEntity
  8
0
  6
Continuous
 62
     7
100
AcDbLine
 10
15.92528533935547
 20
-79.34684753417969
 30
0.0
 11
34.97308731079102
 21
-79.34684753417969
 31
0.0
  0
LINE
  5
AE
330
1F
100
AcDbEntity
  8
0
  6
Continuous
 62
     7
100
AcDbLine
 10
15.92528533935547
 20
-77.59684753417969
 30
0.0
 11
36.72308731079102
 21
-77.59684753417969
 31
0.0
  0
LINE
  5
AF
330
1F
100
AcDbEntity
  8
0
  6
Continuous
 62
     7
100
AcDbLine
 10
15.92528533935547
 20
-56.09684753417969
 30
0.0
 11
36.72308731079102
 21
-56.09684753417969
 31
0.0
  0
LINE
  5
B0
330
1F
100
AcDbEntity
  8
0
  6
Continuous
 62
     7
100
AcDbLine
 10
0.822212517261505
 20
-80.72184753417969
 30
0.0
 11
3.82221245765686
 21
-80.72184753417969
 31
0.0
  0
LINE
  5
B1
330
1F
100
AcDbEntity
  8
0
  6
Continuous
 62
     7
100
AcDbLine
 10
0.822212517261505
 20
-52.97184753417969
 30
0.0
 11
3.82221245765686
 21
-52.97184753417969
 31
0.0
  0
ARC
  5
B2
330
1F
100
AcDbEntity
  8
0
  6
Continuous
 62
     7
100
AcDbCircle
 10
73.60114288330078
 20
-100.5623016357422
 30
0.0
 40
15.0
100
AcDbArc
 50
189.9999929925893
 51
269.9999974955218
  0
ARC
  5
B3
330
1F
100
AcDbEntity
  8
0
  6
Continuous
 62
     7
100
AcDbCircle
 10
73.60114288330078
 20
-100.5623016357422
 30
0.0
 40
15.25
100
AcDbArc
 50
189.9999929925893
 51
219.0367663997143
  0
ARC
  5
B4
330
1F
100
AcDbEntity
  8
0
  6
Continuous
 62
     7
100
AcDbCircle
 10
60.92611694335938
 20
-104.9823455810547
 30
0.0
 40
5.0
100
AcDbArc
 50
15.78704823811547
 51
102.865982032707
  0
ARC
  5
B5
330
1F
100
AcDbEntity
  8
0
  6
Continuous
 62
     7
100
AcDbCircle
 10
65.7792739868164
 20
-105.8716430664062
 30
0.0
 40
2.25
100
AcDbArc
 50
309.9999997469881
 51
91.06340831673579
  0
ARC
  5
B6
330
1F
100
AcDbEntity
  8
0
  6
Continuous
 62
     7
100
AcDbCircle
 10
66.13268280029297
 20
-107.4779510498047
 30
0.0
 40
1.125
100
AcDbArc
 50
355.2492124039262
 51
160.257042684711
  0
ARC
  5
B7
330
1F
100
AcDbEntity
  8
0
  6
Continuous
 62
     7
100
AcDbCircle
 10
66.02400970458984
 20
-106.5983963012695
 30
0.0
 40
3.5
100
AcDbArc
 50
308.4249034828698
 51
348.6668907988932
  0
ARC
  5
B8
330
1F
100
AcDbEntity
  8
0
  6
Continuous
 62
     7
100
AcDbCircle
 10
66.95623779296875
 20
-107.7735290527344
 30
0.0
 40
2.0
100
AcDbArc
 50
160.257042684711
 51
308.4248964253096
  0
ARC
  5
B9
330
1F
100
AcDbEntity
  8
0
  6
Continuous
 62
     7
100
AcDbCircle
 10
72.44532012939453
 20
-105.4661483764648
 30
0.0
 40
3.5
100
AcDbArc
 50
211.3331053178836
 51
251.5750909263597
  0
ARC
  5
BA
330
1F
100
AcDbEntity
  8
0
  6
Continuous
 62
     7
100
AcDbCircle
 10
71.97122192382812
 20
-106.8892517089844
 30
0.0
 40
2.0
100
AcDbArc
 50
251.5750909263597
 51
39.74294808205284
  0
ARC
  5
BB
330
1F
100
AcDbEntity
  8
0
  6
Continuous
 62
     7
100
AcDbCircle
 10
76.68303680419922
 20
-102.203971862793
 30
0.0
 40
5.0
100
AcDbArc
 50
97.13401214915142
 51
184.2129476512902
  0
ARC
  5
BC
330
1F
100
AcDbEntity
  8
0
  6
Continuous
 62
     7
100
AcDbCircle
 10
72.42671966552734
 20
-104.6995162963867
 30
0.0
 40
2.25
100
AcDbArc
 50
108.9365790349335
 51
250.0000046801541
  0
ARC
  5
BD
330
1F
100
AcDbEntity
  8
0
  6
Continuous
 62
     7
100
AcDbCircle
 10
72.64403533935547
 20
-106.3298263549805
 30
0.0
 40
1.125
100
AcDbArc
 50
39.74295491224201
 51
204.750780070385
  0
ARC
  5
BE
330
1F
100
AcDbEntity
  8
0
  6
Continuous
 62
     7
100
AcDbCircle
 10
56.55592727661133
 20
23.46010971069336
 30
0.0
 40
11.25
100
AcDbArc
 50
189.9999929925893
 51
278.7543397471864
  0
ARC
  5
BF
330
1F
100
AcDbEntity
  8
0
  6
Continuous
 62
     7
100
AcDbCircle
 10
58.30620574951172
 20
12.09408283233643
 30
0.0
 40
0.25
100
AcDbArc
 50
9.99999287890375
 51
98.75433792595355
  0
ARC
  5
C0
330
1F
100
AcDbEntity
  8
0
  6
Continuous
 62
     7
100
AcDbCircle
 10
56.55592727661133
 20
23.46010971069336
 30
0.0
 40
31.375
100
AcDbArc
 50
195.116173511144
 51
240.6157791955075
  0
ARC
  5
C1
330
1F
100
AcDbEntity
  8
0
  6
Continuous
 62
     7
100
AcDbCircle
 10
56.55592727661133
 20
23.46010971069336
 30
0.0
 40
13.0
100
AcDbArc
 50
189.9999929925893
 51
272.2636246393016
  0
ARC
  5
C2
330
1F
100
AcDbEntity
  8
0
  6
Continuous
 62
     7
100
AcDbCircle
 10
56.55592727661133
 20
23.46010971069336
 30
0.0
 40
29.625
100
AcDbArc
 50
195.2652082388337
 51
242.4901743490557
  0
ARC
  5
C3
330
1F
100
AcDbEntity
  8
0
  6
Continuous
 62
     7
100
AcDbCircle
 10
51.34616851806641
 20
22.09727478027344
 30
0.0
 40
25.0
100
AcDbArc
 50
228.4990236079048
 51
251.9455945378871
  0
ARC
  5
C4
330
1F
100
AcDbEntity
  8
0
  6
Continuous
 62
     7
100
AcDbCircle
 10
44.37296676635742
 20
0.705110967159271
 30
0.0
 40
2.5
100
AcDbArc
 50
251.9455945378871
 51
71.33484403126084
  0
ARC
  5
C5
330
1F
100
AcDbEntity
  8
0
  6
Continuous
 62
     7
100
AcDbCircle
 10
44.67604827880859
 20
1.634895801544189
 30
0.0
 40
1.5
100
AcDbArc
 50
257.3061319041881
 51
71.94559954684338
  0
ARC
  5
C6
330
1F
100
AcDbEntity
  8
0
  6
Continuous
 62
     7
100
AcDbCircle
 10
44.32125473022461
 20
1.4450364112854
 30
0.0
 40
4.5
100
AcDbArc
 50
251.2141222589137
 51
33.66268636215081
  0
ARC
  5
C7
330
1F
100
AcDbEntity
  8
0
  6
Continuous
 62
     7
100
AcDbCircle
 10
45.08464813232422
 20
1.665642261505127
 30
0.0
 40
3.75
100
AcDbArc
 50
37.32498598378746
 51
122.2252926312727
  0
ARC
  5
C8
330
1F
100
AcDbEntity
  8
0
  6
Continuous
 62
     7
100
AcDbCircle
 10
44.60332489013672
 20
2.851891994476318
 30
0.0
 40
2.5
100
AcDbArc
 50
127.3975490029133
 51
228.7603293427055
  0
ARC
  5
C9
330
1F
100
AcDbEntity
  8
0
  6
Continuous
 62
     7
100
AcDbCircle
 10
45.22466278076172
 20
3.307017803192139
 30
0.0
 40
3.256126642227173
100
AcDbArc
 50
225.8169176038675
 51
254.352771767453
  0
ARC
  5
CA
330
1F
100
AcDbEntity
  8
0
  6
Continuous
 62
     7
100
AcDbCircle
 10
32.0423698425293
 20
77.54143524169922
 30
0.0
 40
10.0
100
AcDbArc
 50
190.0942086220005
 51
235.5731051728004
  0
ARC
  5
CB
330
1F
100
AcDbEntity
  8
0
  6
Continuous
 62
     7
100
AcDbCircle
 10
16.55392456054688
 20
61.57773971557617
 30
0.0
 40
12.5
100
AcDbArc
 50
359.1181046506665
 51
38.11318298381776
  0
ARC
  5
CC
330
1F
100
AcDbEntity
  8
0
  6
Continuous
 62
     7
100
AcDbCircle
 10
30.16908073425293
 20
78.27848815917969
 30
0.0
 40
6.25
100
AcDbArc
 50
199.8351785294625
 51
244.175591828648
  0
ARC
  5
CD
330
1F
100
AcDbEntity
  8
0
  6
Continuous
 62
     7
100
AcDbCircle
 10
27.57730674743652
 20
75.02405548095703
 30
0.0
 40
2.375
100
AcDbArc
 50
266.8425649667651
 51
20.61137135834097
  0
ARC
  5
CE
330
1F
100
AcDbEntity
  8
0
  6
Continuous
 62
     7
100
AcDbCircle
 10
27.42609977722168
 20
73.28849792480469
 30
0.0
 40
3.5
100
AcDbArc
 50
295.0645241266642
 51
47.28605873725318
  0
ARC
  5
CF
330
1F
100
AcDbEntity
  8
0
  6
Continuous
 62
     7
100
AcDbCircle
 10
22.0761604309082
 20
64.65209197998047
 30
0.0
 40
8.75
100
AcDbArc
 50
333.7128336489322
 51
38.65901072115016
  0
ARC
  5
D0
330
1F
100
AcDbEntity
  8
0
  6
Continuous
 62
     7
100
AcDbCircle
 10
35.83966064453125
 20
58.7681884765625
 30
0.0
 40
6.25
100
AcDbArc
 50
161.2520373222418
 51
251.5270437332722
  0
ARC
  5
D1
330
1F
100
AcDbEntity
  8
0
  6
Continuous
 62
     7
100
AcDbCircle
 10
32.37634658813477
 20
57.61526489257812
 30
0.0
 40
5.0
100
AcDbArc
 50
167.4802545999446
 51
287.2530858474542
  0
ARC
  5
D2
330
1F
100
AcDbEntity
  8
0
  6
Continuous
 62
     7
100
AcDbCircle
 10
26.59137153625488
 20
62.08042144775391
 30
0.0
 40
3.5
100
AcDbArc
 50
157.3525593816764
 51
284.9660379850105
  0
ARC
  5
D3
330
1F
100
AcDbEntity
  8
0
  6
Continuous
 62
     7
100
AcDbCircle
 10
25.51981925964355
 20
62.16691589355469
 30
0.0
 40
2.5
100
AcDbArc
 50
43.14423885474662
 51
149.7030890207207
  0
ARC
  5
D4
330
1F
100
AcDbEntity
  8
0
  6
Continuous
 62
     7
100
AcDbCircle
 10
26.48932075500488
 20
62.96426391601562
 30
0.0
 40
1.25
100
AcDbArc
 50
316.8698996368353
 51
46.8698953111243
  0
ARC
  5
D5
330
1F
100
AcDbEntity
  8
0
  6
Continuous
 62
     7
100
AcDbCircle
 10
26.70392036437988
 20
62.24236297607422
 30
0.0
 40
2.5
100
AcDbArc
 50
254.2533378735159
 51
339.9521158330905
  0
ARC
  5
D6
330
1F
100
AcDbEntity
  8
0
  6
Continuous
 62
     7
100
AcDbCircle
 10
26.62945747375488
 20
61.7428092956543
 30
0.0
 40
2.0
100
AcDbArc
 50
108.6531739957021
 51
252.4221810051374
  0
ARC
  5
D7
330
1F
100
AcDbEntity
  8
0
  6
Continuous
 62
     7
100
AcDbCircle
 10
26.6956787109375
 20
62.87372207641602
 30
0.0
 40
1.040207266807556
100
AcDbArc
 50
132.7352325562515
 51
312.7352102444511
  0
ARC
  5
D8
330
1F
100
AcDbEntity
  8
0
  6
Continuous
 62
     7
100
AcDbCircle
 10
-1.052797079086304
 20
80.415283203125
 30
0.0
 40
3.765625
100
AcDbArc
 50
240.137160519608
 51
299.8628413016249
  0
ARC
  5
D9
330
1F
100
AcDbEntity
  8
0
  6
Continuous
 62
     7
100
AcDbCircle
 10
-1.05278754234314
 20
104.3840408325195
 30
0.0
 40
3.765625
100
AcDbArc
 50
60.13715869837514
 51
119.862839480392
  0
ARC
  5
DA
330
1F
100
AcDbEntity
  8
0
  6
Continuous
 62
     7
100
AcDbCircle
 10
6.7831130027771
 20
75.84844970703125
 30
0.0
 40
3.75
100
AcDbArc
 50
28.70640740225524
 51
142.14574425129
  0
ARC
  5
DB
330
1F
100
AcDbEntity
  8
0
  6
Continuous
 62
     7
100
AcDbCircle
 10
11.78244209289551
 20
75.82617950439453
 30
0.0
 40
2.5
100
AcDbArc
 50
9.99999287890375
 51
133.1644416436951
  0
ARC
  5
DC
330
1F
100
AcDbEntity
  8
0
  6
Continuous
 62
     7
100
AcDbCircle
 10
10.43658542633057
 20
114.149658203125
 30
0.0
 40
10.0
100
AcDbArc
 50
228.5903842182429
 51
269.0817605238836
  0
ARC
  5
DD
330
1F
100
AcDbEntity
  8
0
  6
Continuous
 62
     7
100
AcDbCircle
 10
26.35677909851074
 20
90.7603530883789
 30
0.0
 40
6.0
100
AcDbArc
 50
36.8863375749109
 51
95.1114906830731
  0
ARC
  5
DE
330
1F
100
AcDbEntity
  8
0
  6
Continuous
 62
     7
100
AcDbCircle
 10
19.80073547363281
 20
95.0618896484375
 30
0.0
 40
6.25
100
AcDbArc
 50
15.54144829594016
 51
58.03944367972414
  0
ARC
  5
DF
330
1F
100
AcDbEntity
  8
0
  6
Continuous
 62
     7
100
AcDbCircle
 10
9.875696182250977
 20
79.1541519165039
 30
0.0
 40
25.0
100
AcDbArc
 50
58.03944367972414
 51
89.08175870265082
  0
ARC
  5
E0
330
1F
100
AcDbEntity
  8
0
  6
Continuous
 62
     7
100
AcDbCircle
 10
6.7831130027771
 20
75.84844970703125
 30
0.0
 40
5.5
100
AcDbArc
 50
47.20447212761738
 51
122.5711187693288
  0
ARC
  5
E1
330
1F
100
AcDbEntity
  8
0
  6
Continuous
 62
     7
100
AcDbCircle
 10
11.78244209289551
 20
75.82617950439453
 30
0.0
 40
4.25
100
AcDbArc
 50
9.99999287890375
 51
107.2841445388431
  0
ARC
  5
E2
330
1F
100
AcDbEntity
  8
0
  6
Continuous
 62
     7
100
AcDbCircle
 10
10.43658542633057
 20
114.149658203125
 30
0.0
 40
11.75
100
AcDbArc
 50
235.7416196000029
 51
269.0817605238836
  0
ARC
  5
E3
330
1F
100
AcDbEntity
  8
0
  6
Continuous
 62
     7
100
AcDbCircle
 10
9.875696182250977
 20
79.1541519165039
 30
0.0
 40
23.25
100
AcDbArc
 50
58.03944367972414
 51
89.08175870265082
  0
ARC
  5
E4
330
1F
100
AcDbEntity
  8
0
  6
Continuous
 62
     7
100
AcDbCircle
 10
19.80073547363281
 20
95.0618896484375
 30
0.0
 40
4.5
100
AcDbArc
 50
352.2755392845993
 51
58.03944367972414
  0
ARC
  5
E5
330
1F
100
AcDbEntity
  8
0
  6
Continuous
 62
     7
100
AcDbCircle
 10
26.35677909851074
 20
90.7603530883789
 30
0.0
 40
4.25
100
AcDbArc
 50
36.8863375749109
 51
119.5631990815036
  0
ARC
  5
E6
330
1F
100
AcDbEntity
  8
0
  6
Continuous
 62
     7
100
AcDbCircle
 10
11.16004180908203
 20
79.35598754882812
 30
0.0
 40
25.0
100
AcDbArc
 50
9.99999287890375
 51
36.8863375749109
  0
ARC
  5
E7
330
1F
100
AcDbEntity
  8
0
  6
Continuous
 62
     7
100
AcDbCircle
 10
11.16004180908203
 20
79.35598754882812
 30
0.0
 40
23.25
100
AcDbArc
 50
9.99999287890375
 51
36.8863375749109
  0
ARC
  5
E8
330
1F
100
AcDbEntity
  8
0
  6
Continuous
 62
     7
100
AcDbCircle
 10
32.18767166137695
 20
76.2243423461914
 30
0.0
 40
10.0
100
AcDbArc
 50
141.8639306461353
 51
182.4964937921094
  0
ARC
  5
E9
330
1F
100
AcDbEntity
  8
0
  6
Continuous
 62
     7
100
AcDbCircle
 10
24.37286186218262
 20
87.3994140625
 30
0.0
 40
5.0
100
AcDbArc
 50
146.6294629130799
 51
269.419543886821
  0
ARC
  5
EA
330
1F
100
AcDbEntity
  8
0
  6
Continuous
 62
     7
100
AcDbCircle
 10
9.642285346984863
 20
88.48741149902344
 30
0.0
 40
2.5
100
AcDbArc
 50
279.9024194145846
 51
346.4023552399538
  0
ARC
  5
EB
330
1F
100
AcDbEntity
  8
0
  6
Continuous
 62
     7
100
AcDbCircle
 10
15.79258823394775
 20
87.42928314208984
 30
0.0
 40
3.75
100
AcDbArc
 50
97.2058793995983
 51
172.7941144534579
  0
ARC
  5
EC
330
1F
100
AcDbEntity
  8
0
  6
Continuous
 62
     7
100
AcDbCircle
 10
11.54364585876465
 20
89.47390747070312
 30
0.0
 40
3.75
100
AcDbArc
 50
246.8970807034396
 51
335.177950207035
  0
ARC
  5
ED
330
1F
100
AcDbEntity
  8
0
  6
Continuous
 62
     7
100
AcDbCircle
 10
16.17578887939453
 20
95.18538665771484
 30
0.0
 40
4.125
100
AcDbArc
 50
164.6884147767019
 51
258.0576061647748
  0
ARC
  5
EE
330
1F
100
AcDbEntity
  8
0
  6
Continuous
 62
     7
100
AcDbCircle
 10
15.87397956848145
 20
95.53721618652344
 30
0.0
 40
3.75
100
AcDbArc
 50
27.60132206813491
 51
168.6588857035003
  0
ARC
  5
EF
330
1F
100
AcDbEntity
  8
0
  6
Continuous
 62
     7
100
AcDbCircle
 10
34.27511596679688
 20
75.61456298828125
 30
0.0
 40
10.0
100
AcDbArc
 50
126.5333661483666
 51
176.8860944455909
  0
ARC
  5
F0
330
1F
100
AcDbEntity
  8
0
  6
Continuous
 62
     7
100
AcDbCircle
 10
18.94210815429688
 20
85.82823944091797
 30
0.0
 40
4.5
100
AcDbArc
 50
73.80472239740749
 51
152.5924502849328
  0
ARC
  5
F1
330
1F
100
AcDbEntity
  8
0
  6
Continuous
 62
     7
100
AcDbCircle
 10
26.59432601928711
 20
88.25254821777344
 30
0.0
 40
1.772116422653198
100
AcDbArc
 50
89.999995674289
 51
303.4917513161328
  0
ARC
  5
F2
330
1F
100
AcDbEntity
  8
0
  6
Continuous
 62
     7
100
AcDbCircle
 10
25.93989753723145
 20
86.21375274658203
 30
0.0
 40
3.5
100
AcDbArc
 50
312.8953579172915
 51
354.6562973424557
  0
ARC
  5
F3
330
1F
100
AcDbEntity
  8
0
  6
Continuous
 62
     7
100
AcDbCircle
 10
25.99314880371094
 20
86.57667541503906
 30
0.0
 40
3.5
100
AcDbArc
 50
348.6487771372143
 51
80.10950609570618
  0
ARC
  5
F4
330
1F
100
AcDbEntity
  8
0
  6
Continuous
 62
     7
100
AcDbCircle
 10
24.95889854431152
 20
87.63086700439453
 30
0.0
 40
2.75
100
AcDbArc
 50
219.0154152283689
 51
341.8595417814649
  0
ARC
  5
F5
330
1F
100
AcDbEntity
  8
0
  6
Continuous
 62
     7
100
AcDbCircle
 10
25.82100105285645
 20
88.73213195800781
 30
0.0
 40
4.125
100
AcDbArc
 50
103.9802112825787
 51
223.366269407958
  0
ARC
  5
F6
330
1F
100
AcDbEntity
  8
0
  6
Continuous
 62
     7
100
AcDbCircle
 10
27.13916206359863
 20
88.02277374267578
 30
0.0
 40
5.25
100
AcDbArc
 50
45.45000143551621
 51
116.1612184597036
  0
ARC
  5
F7
330
1F
100
AcDbEntity
  8
0
  6
Continuous
 62
     7
100
AcDbCircle
 10
19.85727691650391
 20
96.11528778076172
 30
0.0
 40
3.625
100
AcDbArc
 50
311.6216779012459
 51
70.41817800313177
  0
ARC
  5
F8
330
1F
100
AcDbEntity
  8
0
  6
Continuous
 62
     7
100
AcDbCircle
 10
17.9285717010498
 20
99.524658203125
 30
0.0
 40
7.5
100
AcDbArc
 50
269.9999974955218
 51
305.3237243921172
  0
ARC
  5
F9
330
1F
100
AcDbEntity
  8
0
  6
Continuous
 62
     7
100
AcDbCircle
 10
17.63637733459473
 20
95.512451171875
 30
0.0
 40
3.5
100
AcDbArc
 50
185.1982470626653
 51
274.7888002169687
  0
ARC
  5
FA
330
1F
100
AcDbEntity
  8
0
  6
Continuous
 62
     7
100
AcDbCircle
 10
15.89849948883057
 20
95.28453826904297
 30
0.0
 40
1.75
100
AcDbArc
 50
67.35774782096748
 51
182.9218369924827
  0
ARC
  5
FB
330
1F
100
AcDbEntity
  8
0
  6
Continuous
 62
     7
100
AcDbCircle
 10
17.18340873718262
 20
95.52983856201172
 30
0.0
 40
1.5
100
AcDbArc
 50
114.0460523077232
 51
204.8418538127779
  0
ARC
  5
FC
330
1F
100
AcDbEntity
  8
0
  6
Continuous
 62
     7
100
AcDbCircle
 10
17.49734687805176
 20
96.22088623046875
 30
0.0
 40
2.0
100
AcDbArc
 50
278.0763751701709
 51
31.79559951101447
  0
ARC
  5
FD
330
1F
100
AcDbEntity
  8
0
  6
Continuous
 62
     7
100
AcDbCircle
 10
17.13064002990723
 20
95.5509033203125
 30
0.0
 40
1.461537599563599
100
AcDbArc
 50
206.4608171942118
 51
296.3056378007472
  0
ARC
  5
FE
330
1F
100
AcDbEntity
  8
0
  6
Continuous
 62
     7
100
AcDbCircle
 10
-32.30278778076172
 20
92.39965057373047
 30
0.0
 40
13.0
100
AcDbArc
 50
282.7768157343253
 51
77.2232047562422
  0
ARC
  5
FF
330
1F
100
AcDbEntity
  8
0
  6
Continuous
 62
     7
100
AcDbCircle
 10
-30.17778968811035
 20
78.46215057373047
 30
0.0
 40
0.75
100
AcDbArc
 50
270.000004325711
 51
0.000005008956131
  0
ARC
  5
100
330
1F
100
AcDbEntity
  8
0
  6
Continuous
 62
     7
100
AcDbCircle
 10
-31.17778968811035
 20
78.46215057373047
 30
0.0
 40
0.75
100
AcDbArc
 50
179.999991348578
 51
270.0000006832453
  0
ARC
  5
101
330
1F
100
AcDbEntity
  8
0
  6
Continuous
 62
     7
100
AcDbCircle
 10
-20.18968772888184
 20
11.27464294433594
 30
0.0
 40
100.0
100
AcDbArc
 50
80.9312734755071
 51
90.00000250447816
  0
ARC
  5
102
330
1F
100
AcDbEntity
  8
0
  6
Continuous
 62
     7
100
AcDbCircle
 10
-20.18968772888184
 20
173.5246429443359
 30
0.0
 40
100.0
100
AcDbArc
 50
270.000004325711
 51
279.0687196943038
  0
ARC
  5
103
330
1F
100
AcDbEntity
  8
0
  6
Continuous
 62
     7
100
AcDbCircle
 10
-54.36484146118164
 20
119.0246505737305
 30
0.0
 40
4.5
100
AcDbArc
 50
9.594074736529894
 51
90.00000250447816
  0
ARC
  5
104
330
1F
100
AcDbEntity
  8
0
  6
Continuous
 62
     7
100
AcDbCircle
 10
-48.40680694580078
 20
118.2746505737305
 30
0.0
 40
1.5
100
AcDbArc
 50
9.594074736529894
 51
90.00000250447816
  0
ARC
  5
105
330
1F
100
AcDbEntity
  8
0
  6
Continuous
 62
     7
100
AcDbCircle
 10
-40.18339538574219
 20
118.7079467773438
 30
0.0
 40
3.0
100
AcDbArc
 50
183.5028028653713
 51
255.0000004932034
  0
ARC
  5
106
330
1F
100
AcDbEntity
  8
0
  6
Continuous
 62
     7
100
AcDbCircle
 10
-38.67218017578125
 20
112.0913619995117
 30
0.0
 40
3.0
100
AcDbArc
 50
3.502802965129213
 51
74.99999184178138
  0
ARC
  5
107
330
1F
100
AcDbEntity
  8
0
  6
Continuous
 62
     7
100
AcDbCircle
 10
-31.17778968811035
 20
106.3371505737305
 30
0.0
 40
0.75
100
AcDbArc
 50
89.999995674289
 51
179.999991348578
  0
ARC
  5
108
330
1F
100
AcDbEntity
  8
0
  6
Continuous
 62
     7
100
AcDbCircle
 10
-30.17778968811035
 20
106.3371505737305
 30
0.0
 40
0.75
100
AcDbArc
 50
0.000005008956131
 51
90.00000250447816
  0
ARC
  5
109
330
1F
100
AcDbEntity
  8
0
  6
Continuous
 62
     7
100
AcDbCircle
 10
-54.36484146118164
 20
-95.47184753417969
 30
0.0
 40
4.5
100
AcDbArc
 50
269.9999974955218
 51
350.4059252634701
  0
ARC
  5
10A
330
1F
100
AcDbEntity
  8
0
  6
Continuous
 62
     7
100
AcDbCircle
 10
-40.18339538574219
 20
-95.15513610839844
 30
0.0
 40
3.0
100
AcDbArc
 50
104.9999995067966
 51
176.4971971346287
  0
ARC
  5
10B
330
1F
100
AcDbEntity
  8
0
  6
Continuous
 62
     7
100
AcDbCircle
 10
-20.18968772888184
 20
-146.2218475341797
 30
0.0
 40
100.0
100
AcDbArc
 50
80.9312734755071
 51
89.999995674289
  0
ARC
  5
10C
330
1F
100
AcDbEntity
  8
0
  6
Continuous
 62
     7
100
AcDbCircle
 10
-2.42778754234314
 20
-66.84684753417969
 30
0.0
 40
25.0
100
AcDbArc
 50
164.7093288159405
 51
195.2906675415938
  0
ARC
  5
10D
330
1F
100
AcDbEntity
  8
0
  6
Continuous
 62
     7
100
AcDbCircle
 10
-21.71979713439941
 20
-61.57252502441406
 30
0.0
 40
5.0
100
AcDbArc
 50
113.0539946515356
 51
164.7093288159405
  0
ARC
  5
10E
330
1F
100
AcDbEntity
  8
0
  6
Continuous
 62
     7
100
AcDbCircle
 10
-18.70285224914551
 20
-57.47184753417969
 30
0.0
 40
5.0
100
AcDbArc
 50
89.999995674289
 51
174.2608292758264
  0
ARC
  5
10F
330
1F
100
AcDbEntity
  8
0
  6
Continuous
 62
     7
100
AcDbCircle
 10
-17.4027271270752
 20
-57.47184753417969
 30
0.0
 40
5.0
100
AcDbArc
 50
5.739170610488057
 51
89.999995674289
  0
ARC
  5
110
330
1F
100
AcDbEntity
  8
0
  6
Continuous
 62
     7
100
AcDbCircle
 10
-14.38578033447266
 20
-61.57252502441406
 30
0.0
 40
5.0
100
AcDbArc
 50
15.29067107037397
 51
66.9460035272316
  0
ARC
  5
111
330
1F
100
AcDbEntity
  8
0
  6
Continuous
 62
     7
100
AcDbCircle
 10
-21.71979713439941
 20
-61.57252502441406
 30
0.0
 40
3.75
100
AcDbArc
 50
100.9082244203387
 51
164.7093288159405
  0
ARC
  5
112
330
1F
100
AcDbEntity
  8
0
  6
Continuous
 62
     7
100
AcDbCircle
 10
-2.42778754234314
 20
-66.84684753417969
 30
0.0
 40
23.75
100
AcDbArc
 50
164.7093288159405
 51
195.2906675415938
  0
ARC
  5
113
330
1F
100
AcDbEntity
  8
0
  6
Continuous
 62
     7
100
AcDbCircle
 10
-18.70285224914551
 20
-57.47184753417969
 30
0.0
 40
3.75
100
AcDbArc
 50
89.999995674289
 51
186.4065995070232
  0
ARC
  5
114
330
1F
100
AcDbEntity
  8
0
  6
Continuous
 62
     7
100
AcDbCircle
 10
-17.4027271270752
 20
-57.47184753417969
 30
0.0
 40
3.75
100
AcDbArc
 50
353.5933969641966
 51
90.00000250447816
  0
ARC
  5
115
330
1F
100
AcDbEntity
  8
0
  6
Continuous
 62
     7
100
AcDbCircle
 10
-14.38578033447266
 20
-61.57252502441406
 30
0.0
 40
3.75
100
AcDbArc
 50
15.29067107037397
 51
79.09176692823927
  0
ARC
  5
116
330
1F
100
AcDbEntity
  8
0
  6
Continuous
 62
     7
100
AcDbCircle
 10
-33.67778778076172
 20
-66.84684753417969
 30
0.0
 40
23.75
100
AcDbArc
 50
8.849884645321984
 51
15.29067107037397
  0
ARC
  5
117
330
1F
100
AcDbEntity
  8
0
  6
Continuous
 62
     7
100
AcDbCircle
 10
-11.19863128662109
 20
-63.34684753417969
 30
0.0
 40
2.25
100
AcDbArc
 50
224.4270014285266
 51
8.8498812302274
  0
ARC
  5
118
330
1F
100
AcDbEntity
  8
0
  6
Continuous
 62
     7
100
AcDbCircle
 10
-11.19863128662109
 20
-63.34684753417969
 30
0.0
 40
1.0
100
AcDbArc
 50
109.452039751216
 51
8.84988612549819
  0
ARC
  5
119
330
1F
100
AcDbEntity
  8
0
  6
Continuous
 62
     7
100
AcDbCircle
 10
-11.64496994018555
 20
-63.78434753417969
 30
0.0
 40
1.625
100
AcDbArc
 50
87.26042728876439
 51
224.426997786061
  0
ARC
  5
11A
330
1F
100
AcDbEntity
  8
0
  6
Continuous
 62
     7
100
AcDbCircle
 10
-11.57327651977539
 20
-62.28605651855469
 30
0.0
 40
0.125
100
AcDbArc
 50
289.4520347422596
 51
87.26044094914273
  0
ARC
  5
11B
330
1F
100
AcDbEntity
  8
0
  6
Continuous
 62
     7
100
AcDbCircle
 10
-17.55278968811035
 20
-51.90790557861328
 30
0.0
 40
3.450000047683716
100
AcDbArc
 50
218.5243109666666
 51
239.9999966606958
  0
ARC
  5
11C
330
1F
100
AcDbEntity
  8
0
  6
Continuous
 62
     7
100
AcDbCircle
 10
-8.927787780761719
 20
-66.84684753417969
 30
0.0
 40
3.450000047683716
100
AcDbArc
 50
110.7135688607282
 51
133.4373213614155
  0
ARC
  5
11D
330
1F
100
AcDbEntity
  8
0
  6
Continuous
 62
     7
100
AcDbCircle
 10
-22.7277889251709
 20
-60.87126922607422
 30
0.0
 40
3.450000047683716
100
AcDbArc
 50
207.9747422841234
 51
239.9999966606958
  0
ARC
  5
11E
330
1F
100
AcDbEntity
  8
0
  6
Continuous
 62
     7
100
AcDbCircle
 10
-21.0027904510498
 20
-57.88348388671875
 30
0.0
 40
3.450000047683716
100
AcDbArc
 50
196.4752991937065
 51
239.9999966606958
  0
ARC
  5
11F
330
1F
100
AcDbEntity
  8
0
  6
Continuous
 62
     7
100
AcDbCircle
 10
-19.27778816223145
 20
-54.89569854736328
 30
0.0
 40
3.450000047683716
100
AcDbArc
 50
207.8850072588078
 51
239.9999966606958
  0
ARC
  5
120
330
1F
100
AcDbEntity
  8
0
  6
Continuous
 62
     7
100
AcDbCircle
 10
-21.0027904510498
 20
-63.85905456542969
 30
0.0
 40
3.450000047683716
100
AcDbArc
 50
120.0000033393042
 51
240.0000066786085
  0
ARC
  5
121
330
1F
100
AcDbEntity
  8
0
  6
Continuous
 62
     7
100
AcDbCircle
 10
-22.7277889251709
 20
-66.84684753417969
 30
0.0
 40
3.450000047683716
100
AcDbArc
 50
120.0000033393042
 51
240.0000066786085
  0
ARC
  5
122
330
1F
100
AcDbEntity
  8
0
  6
Continuous
 62
     7
100
AcDbCircle
 10
-19.27778816223145
 20
-60.87126922607422
 30
0.0
 40
3.450000047683716
100
AcDbArc
 50
120.0000033393042
 51
240.0000066786085
  0
ARC
  5
123
330
1F
100
AcDbEntity
  8
0
  6
Continuous
 62
     7
100
AcDbCircle
 10
-17.55278968811035
 20
-57.88348388671875
 30
0.0
 40
3.450000047683716
100
AcDbArc
 50
120.0000033393042
 51
240.0000066786085
  0
ARC
  5
124
330
1F
100
AcDbEntity
  8
0
  6
Continuous
 62
     7
100
AcDbCircle
 10
-15.82778549194336
 20
-54.89569854736328
 30
0.0
 40
3.450000047683716
100
AcDbArc
 50
160.4412938677613
 51
240.0000066786085
  0
ARC
  5
125
330
1F
100
AcDbEntity
  8
0
  6
Continuous
 62
     7
100
AcDbCircle
 10
-14.10278701782227
 20
-51.90790557861328
 30
0.0
 40
3.450000047683716
100
AcDbArc
 50
211.7207185532818
 51
239.9999966606958
  0
ARC
  5
126
330
1F
100
AcDbEntity
  8
0
  6
Continuous
 62
     7
100
AcDbCircle
 10
-17.55278968811035
 20
-63.85905456542969
 30
0.0
 40
3.450000047683716
100
AcDbArc
 50
120.0000033393042
 51
240.0000066786085
  0
ARC
  5
127
330
1F
100
AcDbEntity
  8
0
  6
Continuous
 62
     7
100
AcDbCircle
 10
-19.27778816223145
 20
-66.84684753417969
 30
0.0
 40
3.450000047683716
100
AcDbArc
 50
120.0000033393042
 51
240.0000066786085
  0
ARC
  5
128
330
1F
100
AcDbEntity
  8
0
  6
Continuous
 62
     7
100
AcDbCircle
 10
-15.82778549194336
 20
-60.87126922607422
 30
0.0
 40
3.450000047683716
100
AcDbArc
 50
120.0000033393042
 51
240.0000066786085
  0
ARC
  5
129
330
1F
100
AcDbEntity
  8
0
  6
Continuous
 62
     7
100
AcDbCircle
 10
-14.10278701782227
 20
-57.88348388671875
 30
0.0
 40
3.450000047683716
100
AcDbArc
 50
120.0000033393042
 51
240.0000066786085
  0
ARC
  5
12A
330
1F
100
AcDbEntity
  8
0
  6
Continuous
 62
     7
100
AcDbCircle
 10
-12.37778854370117
 20
-54.89569854736328
 30
0.0
 40
3.450000047683716
100
AcDbArc
 50
166.8672587823143
 51
240.0000066786085
  0
ARC
  5
12B
330
1F
100
AcDbEntity
  8
0
  6
Continuous
 62
     7
100
AcDbCircle
 10
-14.10278701782227
 20
-63.85905456542969
 30
0.0
 40
3.450000047683716
100
AcDbArc
 50
120.0000033393042
 51
240.0000066786085
  0
ARC
  5
12C
330
1F
100
AcDbEntity
  8
0
  6
Continuous
 62
     7
100
AcDbCircle
 10
-15.82778549194336
 20
-66.84684753417969
 30
0.0
 40
3.450000047683716
100
AcDbArc
 50
120.0000033393042
 51
240.0000066786085
  0
ARC
  5
12D
330
1F
100
AcDbEntity
  8
0
  6
Continuous
 62
     7
100
AcDbCircle
 10
-12.37778854370117
 20
-60.87126922607422
 30
0.0
 40
3.450000047683716
100
AcDbArc
 50
120.0000033393042
 51
240.0000066786085
  0
ARC
  5
12E
330
1F
100
AcDbEntity
  8
0
  6
Continuous
 62
     7
100
AcDbCircle
 10
-10.65278625488281
 20
-57.88348388671875
 30
0.0
 40
3.450000047683716
100
AcDbArc
 50
155.541794270436
 51
240.0000066786085
  0
ARC
  5
12F
330
1F
100
AcDbEntity
  8
0
  6
Continuous
 62
     7
100
AcDbCircle
 10
-10.65278625488281
 20
-63.85905456542969
 30
0.0
 40
3.450000047683716
100
AcDbArc
 50
120.0000033393042
 51
240.0000066786085
  0
ARC
  5
130
330
1F
100
AcDbEntity
  8
0
  6
Continuous
 62
     7
100
AcDbCircle
 10
-12.37778854370117
 20
-66.84684753417969
 30
0.0
 40
3.450000047683716
100
AcDbArc
 50
120.0000033393042
 51
240.0000066786085
  0
ARC
  5
131
330
1F
100
AcDbEntity
  8
0
  6
Continuous
 62
     7
100
AcDbCircle
 10
-8.927787780761719
 20
-60.87126922607422
 30
0.0
 40
3.450000047683716
100
AcDbArc
 50
145.1063443885454
 51
203.0978059893502
  0
ARC
  5
132
330
1F
100
AcDbEntity
  8
0
  6
Continuous
 62
     7
100
AcDbCircle
 10
-8.927787780761719
 20
-66.84684753417969
 30
0.0
 40
3.450000047683716
100
AcDbArc
 50
155.5965997083362
 51
204.4033966491981
  0
ARC
  5
133
330
1F
100
AcDbEntity
  8
0
  6
Continuous
 62
     7
100
AcDbCircle
 10
-8.927787780761719
 20
-60.87126922607422
 30
0.0
 40
3.450000047683716
100
AcDbArc
 50
210.6487613441834
 51
239.9999966606958
  0
ARC
  5
134
330
1F
100
AcDbEntity
  8
0
  6
Continuous
 62
     7
100
AcDbCircle
 10
-48.40680694580078
 20
-94.72184753417969
 30
0.0
 40
1.5
100
AcDbArc
 50
269.9999974955218
 51
350.4059252634701
  0
ARC
  5
135
330
1F
100
AcDbEntity
  8
0
  6
Continuous
 62
     7
100
AcDbCircle
 10
-54.36484146118164
 20
-38.22184371948242
 30
0.0
 40
4.5
100
AcDbArc
 50
9.594074736529894
 51
89.999995674289
  0
ARC
  5
136
330
1F
100
AcDbEntity
  8
0
  6
Continuous
 62
     7
100
AcDbCircle
 10
-48.40680694580078
 20
-38.97184371948242
 30
0.0
 40
1.5
100
AcDbArc
 50
9.594074736529894
 51
89.999995674289
  0
ARC
  5
137
330
1F
100
AcDbEntity
  8
0
  6
Continuous
 62
     7
100
AcDbCircle
 10
-40.18339538574219
 20
-38.53855514526367
 30
0.0
 40
3.0
100
AcDbArc
 50
183.5028028653713
 51
254.9999936630142
  0
ARC
  5
138
330
1F
100
AcDbEntity
  8
0
  6
Continuous
 62
     7
100
AcDbCircle
 10
-38.67218017578125
 20
-45.1551399230957
 30
0.0
 40
3.0
100
AcDbArc
 50
3.502802965129213
 51
74.99999867197056
  0
ARC
  5
139
330
1F
100
AcDbEntity
  8
0
  6
Continuous
 62
     7
100
AcDbCircle
 10
-38.67218017578125
 20
-88.5385513305664
 30
0.0
 40
3.0
100
AcDbArc
 50
285.0000081582186
 51
356.4971970348708
  0
ARC
  5
13A
330
1F
100
AcDbEntity
  8
0
  6
Continuous
 62
     7
100
AcDbCircle
 10
-20.18968772888184
 20
12.52815246582031
 30
0.0
 40
100.0
100
AcDbArc
 50
269.9999974955218
 51
279.0687265244929
  0
ARC
  5
13B
330
1F
100
AcDbEntity
  8
0
  6
Continuous
 62
     7
100
AcDbCircle
 10
-21.71979713439941
 20
-72.12116241455078
 30
0.0
 40
5.0
100
AcDbArc
 50
195.2906575236812
 51
246.9459985182753
  0
ARC
  5
13C
330
1F
100
AcDbEntity
  8
0
  6
Continuous
 62
     7
100
AcDbCircle
 10
-18.70285224914551
 20
-76.22184753417969
 30
0.0
 40
5.0
100
AcDbArc
 50
185.7391707241736
 51
270.000004325711
  0
ARC
  5
13D
330
1F
100
AcDbEntity
  8
0
  6
Continuous
 62
     7
100
AcDbCircle
 10
-17.4027271270752
 20
-76.22184753417969
 30
0.0
 40
5.0
100
AcDbArc
 50
269.9999974955218
 51
354.260829389512
  0
ARC
  5
13E
330
1F
100
AcDbEntity
  8
0
  6
Continuous
 62
     7
100
AcDbCircle
 10
-14.38578033447266
 20
-72.12116241455078
 30
0.0
 40
5.0
100
AcDbArc
 50
293.0540033029576
 51
344.7093289296261
  0
ARC
  5
13F
330
1F
100
AcDbEntity
  8
0
  6
Continuous
 62
     7
100
AcDbCircle
 10
-33.67778778076172
 20
-66.84684753417969
 30
0.0
 40
25.0
100
AcDbArc
 50
344.7093289296261
 51
15.29066765527938
  0
ARC
  5
140
330
1F
100
AcDbEntity
  8
0
  6
Continuous
 62
     7
100
AcDbCircle
 10
-21.71979713439941
 20
-72.12116241455078
 30
0.0
 40
3.75
100
AcDbArc
 50
195.2906575236812
 51
259.0917687494721
  0
ARC
  5
141
330
1F
100
AcDbEntity
  8
0
  6
Continuous
 62
     7
100
AcDbCircle
 10
-18.70285224914551
 20
-76.22184753417969
 30
0.0
 40
3.75
100
AcDbArc
 50
173.5933968505111
 51
270.0000006832453
  0
ARC
  5
142
330
1F
100
AcDbEntity
  8
0
  6
Continuous
 62
     7
100
AcDbCircle
 10
-17.4027271270752
 20
-76.22184753417969
 30
0.0
 40
3.75
100
AcDbArc
 50
269.9999974955218
 51
6.406599620708778
  0
ARC
  5
143
330
1F
100
AcDbEntity
  8
0
  6
Continuous
 62
     7
100
AcDbCircle
 10
-14.38578033447266
 20
-72.12116241455078
 30
0.0
 40
3.75
100
AcDbArc
 50
280.9082330717607
 51
344.7093289296261
  0
ARC
  5
144
330
1F
100
AcDbEntity
  8
0
  6
Continuous
 62
     7
100
AcDbCircle
 10
-33.67778778076172
 20
-66.84684753417969
 30
0.0
 40
23.75
100
AcDbArc
 50
344.7093289296261
 51
351.150115354678
  0
ARC
  5
145
330
1F
100
AcDbEntity
  8
0
  6
Continuous
 62
     7
100
AcDbCircle
 10
-11.19863128662109
 20
-70.34684753417969
 30
0.0
 40
2.25
100
AcDbArc
 50
351.150115354678
 51
135.572984911095
  0
ARC
  5
146
330
1F
100
AcDbEntity
  8
0
  6
Continuous
 62
     7
100
AcDbCircle
 10
-11.19863128662109
 20
-70.34684753417969
 30
0.0
 40
1.0
100
AcDbArc
 50
351.150115354678
 51
250.5479770968859
  0
ARC
  5
147
330
1F
100
AcDbEntity
  8
0
  6
Continuous
 62
     7
100
AcDbCircle
 10
-11.64496994018555
 20
-69.90934753417969
 30
0.0
 40
1.625
100
AcDbArc
 50
135.5729985714734
 51
272.7395622385808
  0
ARC
  5
148
330
1F
100
AcDbEntity
  8
0
  6
Continuous
 62
     7
100
AcDbCircle
 10
-11.57327651977539
 20
-71.40763092041016
 30
0.0
 40
0.125
100
AcDbArc
 50
272.7395727112356
 51
70.54795159736202
  0
ARC
  5
149
330
1F
100
AcDbEntity
  8
0
  6
Continuous
 62
     7
100
AcDbCircle
 10
-17.55278968811035
 20
-81.78578186035156
 30
0.0
 40
3.450000047683716
100
AcDbArc
 50
120.0000033393042
 51
141.4756890333334
  0
ARC
  5
14A
330
1F
100
AcDbEntity
  8
0
  6
Continuous
 62
     7
100
AcDbCircle
 10
-8.927787780761719
 20
-66.84684753417969
 30
0.0
 40
3.450000047683716
100
AcDbArc
 50
226.5626786385846
 51
249.2864311392718
  0
ARC
  5
14B
330
1F
100
AcDbEntity
  8
0
  6
Continuous
 62
     7
100
AcDbCircle
 10
-22.7277889251709
 20
-72.82241821289062
 30
0.0
 40
3.450000047683716
100
AcDbArc
 50
120.0000033393042
 51
152.0252577158766
  0
ARC
  5
14C
330
1F
100
AcDbEntity
  8
0
  6
Continuous
 62
     7
100
AcDbCircle
 10
-21.0027904510498
 20
-75.81021118164062
 30
0.0
 40
3.450000047683716
100
AcDbArc
 50
120.0000033393042
 51
163.5247008062935
  0
ARC
  5
14D
330
1F
100
AcDbEntity
  8
0
  6
Continuous
 62
     7
100
AcDbCircle
 10
-19.27778816223145
 20
-78.7979965209961
 30
0.0
 40
3.450000047683716
100
AcDbArc
 50
120.0000033393042
 51
152.1149927411922
  0
ARC
  5
14E
330
1F
100
AcDbEntity
  8
0
  6
Continuous
 62
     7
100
AcDbCircle
 10
-21.0027904510498
 20
-69.83463287353516
 30
0.0
 40
3.450000047683716
100
AcDbArc
 50
120.0000033393042
 51
240.0000066786085
  0
ARC
  5
14F
330
1F
100
AcDbEntity
  8
0
  6
Continuous
 62
     7
100
AcDbCircle
 10
-19.27778816223145
 20
-72.82241821289062
 30
0.0
 40
3.450000047683716
100
AcDbArc
 50
120.0000033393042
 51
240.0000066786085
  0
ARC
  5
150
330
1F
100
AcDbEntity
  8
0
  6
Continuous
 62
     7
100
AcDbCircle
 10
-17.55278968811035
 20
-75.81021118164062
 30
0.0
 40
3.450000047683716
100
AcDbArc
 50
120.0000033393042
 51
240.0000066786085
  0
ARC
  5
151
330
1F
100
AcDbEntity
  8
0
  6
Continuous
 62
     7
100
AcDbCircle
 10
-15.82778549194336
 20
-78.7979965209961
 30
0.0
 40
3.450000047683716
100
AcDbArc
 50
120.0000033393042
 51
199.5587024897731
  0
ARC
  5
152
330
1F
100
AcDbEntity
  8
0
  6
Continuous
 62
     7
100
AcDbCircle
 10
-14.10278701782227
 20
-81.78578186035156
 30
0.0
 40
3.450000047683716
100
AcDbArc
 50
120.0000033393042
 51
148.2792814467181
  0
ARC
  5
153
330
1F
100
AcDbEntity
  8
0
  6
Continuous
 62
     7
100
AcDbCircle
 10
-17.55278968811035
 20
-69.83463287353516
 30
0.0
 40
3.450000047683716
100
AcDbArc
 50
120.0000033393042
 51
240.0000066786085
  0
ARC
  5
154
330
1F
100
AcDbEntity
  8
0
  6
Continuous
 62
     7
100
AcDbCircle
 10
-15.82778549194336
 20
-72.82241821289062
 30
0.0
 40
3.450000047683716
100
AcDbArc
 50
120.0000033393042
 51
240.0000066786085
  0
ARC
  5
155
330
1F
100
AcDbEntity
  8
0
  6
Continuous
 62
     7
100
AcDbCircle
 10
-14.10278701782227
 20
-75.81021118164062
 30
0.0
 40
3.450000047683716
100
AcDbArc
 50
120.0000033393042
 51
240.0000066786085
  0
ARC
  5
156
330
1F
100
AcDbEntity
  8
0
  6
Continuous
 62
     7
100
AcDbCircle
 10
-12.37778854370117
 20
-78.7979965209961
 30
0.0
 40
3.450000047683716
100
AcDbArc
 50
120.0000033393042
 51
193.13273757522
  0
ARC
  5
157
330
1F
100
AcDbEntity
  8
0
  6
Continuous
 62
     7
100
AcDbCircle
 10
-14.10278701782227
 20
-69.83463287353516
 30
0.0
 40
3.450000047683716
100
AcDbArc
 50
120.0000033393042
 51
240.0000066786085
  0
ARC
  5
158
330
1F
100
AcDbEntity
  8
0
  6
Continuous
 62
     7
100
AcDbCircle
 10
-12.37778854370117
 20
-72.82241821289062
 30
0.0
 40
3.450000047683716
100
AcDbArc
 50
120.0000033393042
 51
240.0000066786085
  0
ARC
  5
159
330
1F
100
AcDbEntity
  8
0
  6
Continuous
 62
     7
100
AcDbCircle
 10
-10.65278625488281
 20
-75.81021118164062
 30
0.0
 40
3.450000047683716
100
AcDbArc
 50
120.0000033393042
 51
204.4582020870983
  0
ARC
  5
15A
330
1F
100
AcDbEntity
  8
0
  6
Continuous
 62
     7
100
AcDbCircle
 10
-10.65278625488281
 20
-69.83463287353516
 30
0.0
 40
3.450000047683716
100
AcDbArc
 50
120.0000033393042
 51
240.0000066786085
  0
ARC
  5
15B
330
1F
100
AcDbEntity
  8
0
  6
Continuous
 62
     7
100
AcDbCircle
 10
-8.927787780761719
 20
-72.82241821289062
 30
0.0
 40
3.450000047683716
100
AcDbArc
 50
156.9021903681841
 51
214.8936519689889
  0
ARC
  5
15C
330
1F
100
AcDbEntity
  8
0
  6
Continuous
 62
     7
100
AcDbCircle
 10
-8.927787780761719
 20
-72.82241821289062
 30
0.0
 40
3.450000047683716
100
AcDbArc
 50
120.0000033393042
 51
149.3512386558166
  0
ARC
  5
15D
330
1F
100
AcDbEntity
  8
0
  6
Continuous
 62
     7
100
AcDbCircle
 10
-1.05278754234314
 20
-80.20620727539062
 30
0.0
 40
3.765640735626221
100
AcDbArc
 50
240.1372971233914
 51
299.8627046978415
  0
ARC
  5
15E
330
1F
100
AcDbEntity
  8
0
  6
Continuous
 62
     7
100
AcDbCircle
 10
-1.05278754234314
 20
-53.48748779296875
 30
0.0
 40
3.765638828277588
100
AcDbArc
 50
60.13728164178021
 51
119.862716536987
  0
ARC
  5
15F
330
1F
100
AcDbEntity
  8
0
  6
Continuous
 62
     7
100
AcDbCircle
 10
15.92528533935547
 20
-29.34684944152832
 30
0.0
 40
25.0
100
AcDbArc
 50
241.0449746225727
 51
270.000004325711
  0
ARC
  5
160
330
1F
100
AcDbEntity
  8
0
  6
Continuous
 62
     7
100
AcDbCircle
 10
15.92528533935547
 20
-104.3468475341797
 30
0.0
 40
25.0
100
AcDbArc
 50
89.999995674289
 51
118.9550253774273
  0
ARC
  5
161
330
1F
100
AcDbEntity
  8
0
  6
Continuous
 62
     7
100
AcDbCircle
 10
34.97308731079102
 20
-56.09684753417969
 30
0.0
 40
1.75
100
AcDbArc
 50
359.9999949910447
 51
89.999995674289
  0
ARC
  5
162
330
1F
100
AcDbEntity
  8
0
  6
Continuous
 62
     7
100
AcDbCircle
 10
34.97308731079102
 20
-77.59684753417969
 30
0.0
 40
1.75
100
AcDbArc
 50
270.000004325711
 51
0.000005008956131
  0
ARC
  5
163
330
1F
100
AcDbEntity
  8
0
  6
Continuous
 62
     7
100
AcDbCircle
 10
15.92528533935547
 20
-29.34684944152832
 30
0.0
 40
26.75
100
AcDbArc
 50
243.0989354494006
 51
270.000004325711
  0
ARC
  5
164
330
1F
100
AcDbEntity
  8
0
  6
Continuous
 62
     7
100
AcDbCircle
 10
15.92528533935547
 20
-104.3468475341797
 30
0.0
 40
26.75
100
AcDbArc
 50
89.999995674289
 51
116.9010645505994
  0
DIMENSION
  5
165
330
1F
100
AcDbEntity
  8
0
 62
     7
100
AcDbDimension
  2
*D2
 10
2.21499667038551
 20
78.84609255923581
 30
0.0
 11
7.274893724128986
 21
73.25188609255915
 31
0.0
 70
   165
  1
100°
 71
     5
 42
1.745329341097482
  3
ISO-25
100
AcDb3PointAngularDimension
 13
-4.548575878143311
 23
92.39966583251953
 33
0.0
 14
29.86748969498798
 24
52.44387666339224
 34
0.0
 15
22.82220235809445
 25
92.39966583251953
 35
0.0
1001
ACAD
1000
DSTYLE
1002
{
1070
   178
1070
     1
1070
   278
1070
    46
1070
   275
1070
     1
1070
   147
1040
0.800000011920929
1070
    77
1070
     1
1070
    74
1070
     0
1070
    73
1070
     0
1070
    42
1040
2.54
1070
    44
1040
1.999999999999986
1070
    76
1070
     1
1070
    75
1070
     1
1070
   279
1070
     0
1070
   179
1070
     0
1070
   173
1070
     1
1070
    41
1040
3.0
1070
   140
1040
3.200000047683716
1070
   344
1005
166
1070
   343
1005
166
1002
}
  0
DIMENSION
  5
17F
330
1F
100
AcDbEntity
  8
0
 62
     7
100
AcDbDimension
  2
*D3
 10
-68.88824353027341
 20
92.39965057373047
 30
0.0
 11
-68.88824353027343
 21
108.2131505737305
 31
0.0
 70
   160
  1
126.5
 71
     5
 42
31.62500000000001
  3
ISO-25
100
AcDbAlignedDimension
 13
-56.92778396606445
 23
124.0246505737305
 33
0.0
 14
-37.15090942382812
 24
92.39965057373047
 34
0.0
 50
90.00000000000001
100
AcDbRotatedDimension
1001
ACAD
1000
DSTYLE
1002
{
1070
   178
1070
     1
1070
   278
1070
    46
1070
   147
1040
0.800000011920929
1070
    77
1070
     1
1070
    74
1070
     0
1070
    73
1070
     0
1070
    42
1040
2.54
1070
    44
1040
1.5
1070
    76
1070
     0
1070
    75
1070
     0
1070
   279
1070
     0
1070
   271
1070
     1
1070
   173
1070
     1
1070
    41
1040
3.0
1070
   140
1040
3.200000047683716
1070
   344
1005
166
1070
   343
1005
166
1002
}
  0
DIMENSION
  5
18C
330
1F
100
AcDbEntity
  8
0
 62
     7
100
AcDbDimension
  2
*D4
 10
-68.88824353027341
 20
73.02465057373047
 30
0.0
 11
-68.88824353027343
 21
82.71315057373047
 31
0.0
 70
   160
  1
77.5
 71
     5
 42
19.37500000000001
  3
ISO-25
100
AcDbAlignedDimension
 13
-59.6478385925293
 23
92.39965057373047
 33
0.0
 14
-35.67778778076172
 24
73.02465057373047
 34
0.0
 50
90.00000000000001
100
AcDbRotatedDimension
1001
ACAD
1000
DSTYLE
1002
{
1070
   178
1070
     1
1070
   278
1070
    46
1070
   147
1040
0.800000011920929
1070
    77
1070
     1
1070
    74
1070
     0
1070
    73
1070
     0
1070
    42
1040
2.54
1070
    44
1040
1.5
1070
    76
1070
     0
1070
    75
1070
     1
1070
   279
1070
     0
1070
   271
1070
     1
1070
   173
1070
     1
1070
    41
1040
3.0
1070
   140
1040
3.200000047683716
1070
   344
1005
166
1070
   343
1005
166
1002
}
  0
DIMENSION
  5
198
330
1F
100
AcDbEntity
  8
0
 62
     7
100
AcDbDimension
  2
*D6
 10
-32.30278497954495
 20
92.39965021570268
 30
0.0
 11
-31.06348773261607
 21
90.77118621805124
 31
0.0
 70
   164
  1
R52
 71
     5
 42
12.99999999999999
  3
ISO-25
100
AcDbRadialDimension
 15
-24.43000116836419
 25
82.05463812956137
 35
0.0
 40
0.0
1001
ACAD
1000
DSTYLE
1002
{
1070
   178
1070
     1
1070
   278
1070
    46
1070
   147
1040
0.800000011920929
1070
    77
1070
     1
1070
    74
1070
     0
1070
    73
1070
     0
1070
   279
1070
     0
1070
   271
1070
     0
1070
   173
1070
     1
1070
    41
1040
3.0
1070
   140
1040
3.200000047683716
1070
   344
1005
166
1070
   343
1005
199
1002
}
  0
DIMENSION
  5
1A8
330
1F
100
AcDbEntity
  8
0
 62
     7
100
AcDbDimension
  2
*D7
 10
-62.21081814575195
 20
77.71215057373045
 30
0.0
 11
-62.21081814575196
 21
98.3845678100586
 31
0.0
 70
   160
  1
117.5
 71
     5
 42
29.375
  3
ISO-25
100
AcDbAlignedDimension
 13
-31.17778968811035
 23
107.0871505737305
 33
0.0
 14
-31.17778968811035
 24
77.71215057373047
 34
0.0
 50
90.00000000000001
100
AcDbRotatedDimension
1001
ACAD
1000
DSTYLE
1002
{
1070
   178
1070
     1
1070
   278
1070
    46
1070
   147
1040
0.800000011920929
1070
    77
1070
     1
1070
    74
1070
     0
1070
    73
1070
     0
1070
    42
1040
2.54
1070
    44
1040
1.5
1070
    76
1070
     0
1070
    75
1070
     0
1070
   279
1070
     0
1070
   271
1070
     1
1070
   173
1070
     1
1070
    41
1040
3.0
1070
   140
1040
3.200000047683716
1070
   344
1005
166
1070
   343
1005
166
1002
}
  0
DIMENSION
  5
1B5
330
1F
100
AcDbEntity
  8
0
 62
     7
100
AcDbDimension
  2
*D8
 10
-10.53440420532226
 20
112.0413386372199
 30
0.0
 11
-10.53440420532227
 21
96.79291589355469
 31
0.0
 70
   160
  1
122
 71
     5
 42
30.50000658126778
 52
-120.0
  3
ISO-25
100
AcDbAlignedDimension
 13
-2.927786732535054
 23
77.14964962293618
 33
0.0
 14
-2.927787100630987
 24
107.649656204204
 34
0.0
 50
270.0
100
AcDbRotatedDimension
1001
ACAD
1000
DSTYLE
1002
{
1070
   178
1070
     1
1070
   278
1070
    46
1070
   147
1040
0.800000011920929
1070
    77
1070
     1
1070
    74
1070
     0
1070
    73
1070
     0
1070
    42
1040
2.54
1070
    44
1040
1.73204380954046
1070
    76
1070
     0
1070
    75
1070
     0
1070
   279
1070
     0
1070
   271
1070
     0
1070
   173
1070
     1
1070
    41
1040
3.0
1070
   140
1040
3.200000047683716
1070
   344
1005
166
1070
   343
1005
166
1002
}
  0
DIMENSION
  5
1CA
330
1F
100
AcDbEntity
  8
0
 62
     7
100
AcDbDimension
  2
*D9
 10
-68.88824353027341
 20
-100.4718475341797
 30
0.0
 11
-68.88824353027343
 21
-66.84584753417968
 31
0.0
 70
   160
  1
269
 71
     5
 42
67.25
  3
ISO-25
100
AcDbAlignedDimension
 13
-56.92778396606445
 23
-33.22184753417969
 33
0.0
 14
-56.92778396606445
 24
-100.4718475341797
 34
0.0
 50
90.00000000000001
100
AcDbRotatedDimension
1001
ACAD
1000
DSTYLE
1002
{
1070
   178
1070
     1
1070
   278
1070
    46
1070
   147
1040
0.800000011920929
1070
    77
1070
     1
1070
    74
1070
     0
1070
    73
1070
     0
1070
    42
1040
2.54
1070
    44
1040
1.5
1070
    76
1070
     0
1070
    75
1070
     0
1070
   279
1070
     0
1070
   271
1070
     0
1070
   173
1070
     1
1070
    41
1040
3.0
1070
   140
1040
3.200000047683716
1070
   344
1005
166
1070
   343
1005
166
1002
}
  0
DIMENSION
  5
1D7
330
1F
100
AcDbEntity
  8
0
 62
     7
100
AcDbDimension
  2
*D10
 10
91.49350720145354
 20
-103.0440636577358
 30
0.0
 11
91.4935073852539
 21
-110.3305658569336
 31
0.0
 70
   161
  1
\U+220558
 71
     5
 42
14.57499604689983
 52
-100.0
  3
ISO-25
100
AcDbAlignedDimension
 13
78.4112003489882
 23
-115.3122963120702
 33
0.0
 14
78.41119998133723
 24
-100.7373002651704
 34
0.0
1001
ACAD
1000
DSTYLE
1002
{
1070
   178
1070
     1
1070
   278
1070
    46
1070
   147
1040
0.800000011920929
1070
    77
1070
     1
1070
    74
1070
     0
1070
    73
1070
     0
1070
    42
1040
2.54
1070
    44
1040
1.523150770365348
1070
    76
1070
     0
1070
    75
1070
     0
1070
   279
1070
     0
1070
   271
1070
     0
1070
   173
1070
     1
1070
    41
1040
3.0
1070
   140
1040
3.200000047683716
1070
   344
1005
166
1070
   343
1005
166
1002
}
  0
DIMENSION
  5
1EC
330
1F
100
AcDbEntity
  8
0
 62
     7
100
AcDbDimension
  2
*D11
 10
48.78231241189762
 20
-81.14765339227534
 30
0.0
 11
60.0389680135093
 21
-79.16280139708103
 31
0.0
 70
   161
  1
80
 71
     5
 42
19.9999989048703
 52
-60.00000000000001
  3
ISO-25
100
AcDbAlignedDimension
 13
75.96110973390873
 23
-86.59215740177578
 33
0.0
 14
56.26495572226063
 24
-90.06512059539759
 34
0.0
1001
ACAD
1000
DSTYLE
1002
{
1070
   178
1070
     1
1070
   278
1070
    46
1070
   147
1040
0.800000011920929
1070
    77
1070
     1
1070
    74
1070
     0
1070
    73
1070
     0
1070
    42
1040
2.54
1070
    44
1040
2.309401076758475
1070
    76
1070
     0
1070
    75
1070
     0
1070
   279
1070
     0
1070
   271
1070
     0
1070
   173
1070
     1
1070
    41
1040
3.0
1070
   140
1040
3.200000047683716
1070
   344
1005
166
1070
   343
1005
166
1002
}
  0
DIMENSION
  5
201
330
1F
100
AcDbEntity
  8
0
 62
     7
100
AcDbDimension
  2
*D12
 10
37.42843058112737
 20
9.563651315596651
 30
0.0
 11
42.96991200124038
 21
10.5407640312897
 31
0.0
 70
   161
  1
45
 71
     5
 42
11.24999618530273
  3
ISO-25
100
AcDbAlignedDimension
 13
50.24393555406586
 23
1.669457205288218
 33
0.0
 14
39.16485209907466
 24
-0.284084185792647
 34
0.0
1001
ACAD
1000
DSTYLE
1002
{
1070
   178
1070
     1
1070
   278
1070
    46
1070
   147
1040
0.800000011920929
1070
    77
1070
     1
1070
    74
1070
     0
1070
    73
1070
     0
1070
    42
1040
2.54
1070
    44
1040
0.0
1070
    76
1070
     1
1070
    75
1070
     1
1070
   279
1070
     0
1070
   271
1070
     0
1070
   173
1070
     1
1070
    41
1040
3.0
1070
   140
1040
3.200000047683716
1070
   344
1005
166
1070
   343
1005
166
1002
}
  0
DIMENSION
  5
20C
330
1F
100
AcDbEntity
  8
0
 62
     7
100
AcDbDimension
  2
*D13
 10
37.17457827896911
 20
-14.59906070642011
 30
0.0
 11
48.33646749070081
 21
-12.63091879518831
 31
0.0
 70
   161
  1
80
 71
     5
 42
19.99999863450975
 52
-120.0
  3
ISO-25
100
AcDbAlignedDimension
 13
60.76689360658896
 23
-0.421483036484588
 33
0.0
 14
41.07073979679685
 24
-3.894445817944199
 34
0.0
1001
ACAD
1000
DSTYLE
1002
{
1070
   178
1070
     1
1070
   278
1070
    46
1070
   147
1040
0.800000011920929
1070
    77
1070
     1
1070
    74
1070
     0
1070
    73
1070
     0
1070
    42
1040
2.54
1070
    44
1040
2.309401076758503
1070
    76
1070
     0
1070
    75
1070
     0
1070
   279
1070
     0
1070
   271
1070
     0
1070
   173
1070
     1
1070
    41
1040
3.0
1070
   140
1040
3.200000047683716
1070
   344
1005
166
1070
   343
1005
166
1002
}
  0
DIMENSION
  5
221
330
1F
100
AcDbEntity
  8
0
 62
     7
100
AcDbDimension
  2
*D14
 10
20.382701651604
 20
14.16704200925139
 30
0.0
 11
31.8662815697111
 21
16.19190656654371
 31
0.0
 70
   161
  1
80
 71
     5
 42
20.00000845185118
 52
-120.0
  3
ISO-25
100
AcDbAlignedDimension
 13
44.17448411245148
 23
28.89262569854193
 33
0.0
 14
24.47832060633379
 24
25.41966137186128
 34
0.0
1001
ACAD
1000
DSTYLE
1002
{
1070
   178
1070
     1
1070
   278
1070
    46
1070
   147
1040
0.800000011920929
1070
    77
1070
     1
1070
    74
1070
     0
1070
    73
1070
     0
1070
    42
1040
2.54
1070
    44
1040
2.309401076758494
1070
    76
1070
     0
1070
    75
1070
     0
1070
   279
1070
     0
1070
   271
1070
     0
1070
   173
1070
     1
1070
    41
1040
3.0
1070
   140
1040
3.200000047683716
1070
   344
1005
166
1070
   343
1005
166
1002
}
  0
DIMENSION
  5
236
330
1F
100
AcDbEntity
  8
0
 62
     7
100
AcDbDimension
  2
*D15
 10
8.58307449847307
 20
58.00805471991467
 30
0.0
 11
14.60102627293432
 21
59.06918264699988
 31
0.0
 70
   161
  1
90
 71
     5
 42
22.50001066107142
 52
-120.0
  3
ISO-25
100
AcDbAlignedDimension
 13
36.72308795862173
 23
78.35008829618945
 33
0.0
 14
14.56490343272432
 24
74.44300008825145
 34
0.0
1001
ACAD
1000
DSTYLE
1002
{
1070
   178
1070
     1
1070
   278
1070
    46
1070
   147
1040
0.800000011920929
1070
    77
1070
     1
1070
    74
1070
     0
1070
    73
1070
     0
1070
    42
1040
2.54
1070
    44
1040
2.309401076758488
1070
    76
1070
     0
1070
    75
1070
     0
1070
   279
1070
     0
1070
   271
1070
     0
1070
   173
1070
     1
1070
    41
1040
3.0
1070
   140
1040
3.200000047683716
1070
   344
1005
166
1070
   343
1005
166
1002
}
  0
DIMENSION
  5
24B
330
1F
100
AcDbEntity
  8
0
 62
     7
100
AcDbDimension
  2
*D16
 10
85.81451345461134
 20
-84.8854432219838
 30
0.0
 11
87.03939056396484
 21
-91.95703833007812
 31
0.0
 70
   161
  1
57
 71
     5
 42
14.35576629638672
  3
ISO-25
100
AcDbAlignedDimension
 13
78.41120190969897
 23
-100.7373029430529
 33
0.0
 14
75.96110943339151
 24
-86.5921598609199
 34
0.0
1001
ACAD
1000
DSTYLE
1002
{
1070
   178
1070
     1
1070
   278
1070
    46
1070
   147
1040
0.800000011920929
1070
    77
1070
     1
1070
    74
1070
     0
1070
    73
1070
     0
1070
    42
1040
2.54
1070
    44
1040
1.500000000000003
1070
    76
1070
     1
1070
    75
1070
     0
1070
   279
1070
     0
1070
   271
1070
     0
1070
   173
1070
     1
1070
    41
1040
3.0
1070
   140
1040
3.200000047683716
1070
   344
1005
166
1070
   343
1005
166
1002
}
  0
DIMENSION
  5
258
330
1F
100
AcDbEntity
  8
0
 62
     7
100
AcDbDimension
  2
*D17
 10
85.80926945386149
 20
-84.85566480342192
 30
0.0
 11
78.21199035644531
 21
-41.76935522460938
 31
0.0
 70
   161
  1
350
 71
     5
 42
87.50000095367432
  3
ISO-25
100
AcDbAlignedDimension
 13
60.76689075475013
 23
-0.421482370979167
 33
0.0
 14
75.96110689199037
 24
-86.59216162365672
 34
0.0
1001
ACAD
1000
DSTYLE
1002
{
1070
   178
1070
     1
1070
   278
1070
    46
1070
   147
1040
0.800000011920929
1070
    77
1070
     1
1070
    74
1070
     0
1070
    73
1070
     0
1070
    42
1040
2.54
1070
    44
1040
1.500000000000004
1070
    76
1070
     0
1070
    75
1070
     0
1070
   279
1070
     0
1070
   271
1070
     0
1070
   173
1070
     1
1070
    41
1040
3.0
1070
   140
1040
3.200000047683716
1070
   344
1005
166
1070
   343
1005
166
1002
}
  0
DIMENSION
  5
266
330
1F
100
AcDbEntity
  8
0
 62
     7
100
AcDbDimension
  2
*D18
 10
65.1017209028582
 20
32.58266496039846
 30
0.0
 11
67.85821533203125
 21
16.94980867004395
 31
0.0
 70
   160
  1
127
 71
     5
 42
31.75000476837158
  3
ISO-25
100
AcDbAlignedDimension
 13
60.76689075475013
 23
-0.421482370979167
 33
0.0
 14
44.1744766763175
 24
28.89262706476482
 34
0.0
 50
280.0000002831056
100
AcDbRotatedDimension
1001
ACAD
1000
DSTYLE
1002
{
1070
   178
1070
     1
1070
   278
1070
    46
1070
   147
1040
0.800000011920929
1070
    77
1070
     1
1070
    74
1070
     0
1070
    73
1070
     0
1070
    42
1040
2.54
1070
    44
1040
1.500000000000002
1070
    76
1070
     0
1070
    75
1070
     1
1070
   279
1070
     0
1070
   271
1070
     0
1070
   173
1070
     1
1070
    41
1040
3.0
1070
   140
1040
3.200000047683716
1070
   344
1005
166
1070
   343
1005
166
1002
}
  0
DIMENSION
  5
273
330
1F
100
AcDbEntity
  8
0
 62
     7
100
AcDbDimension
  2
*D19
 10
56.41931070029396
 20
81.82306206225797
 30
0.0
 11
60.76034545898438
 21
57.20383126831054
 31
0.0
 70
   160
  1
200
 71
     5
 42
50.00000953674316
  3
ISO-25
100
AcDbAlignedDimension
 13
44.1744766763175
 23
28.89262706476482
 33
0.0
 14
36.72307182707929
 24
78.35008363008394
 34
0.0
 50
280.0000002831055
100
AcDbRotatedDimension
1001
ACAD
1000
DSTYLE
1002
{
1070
   178
1070
     1
1070
   278
1070
    46
1070
   147
1040
0.800000011920929
1070
    77
1070
     1
1070
    74
1070
     0
1070
    73
1070
     0
1070
    42
1040
2.54
1070
    44
1040
1.500000000000004
1070
    76
1070
     0
1070
    75
1070
     1
1070
   279
1070
     0
1070
   271
1070
     0
1070
   173
1070
     1
1070
    41
1040
3.0
1070
   140
1040
3.200000047683716
1070
   344
1005
166
1070
   343
1005
166
1002
}
  0
DIMENSION
  5
280
330
1F
100
AcDbEntity
  8
0
 62
     7
100
AcDbDimension
  2
*D20
 10
53.59753023314084
 20
97.82618847540613
 30
0.0
 11
55.00825119018555
 21
89.82559259033204
 31
0.0
 70
   160
  1
65
 71
     5
 42
16.25000000000001
  3
ISO-25
100
AcDbAlignedDimension
 13
36.72307182707929
 23
78.35008363008394
 33
0.0
 14
22.82220540592704
 24
92.39966821150868
 34
0.0
 50
280.0000002831056
100
AcDbRotatedDimension
1001
ACAD
1000
DSTYLE
1002
{
1070
   178
1070
     1
1070
   278
1070
    46
1070
   147
1040
0.800000011920929
1070
    77
1070
     1
1070
    74
1070
     0
1070
    73
1070
     0
1070
    42
1040
2.54
1070
    44
1040
1.500000000000004
1070
    76
1070
     0
1070
    75
1070
     1
1070
   279
1070
     0
1070
   271
1070
     0
1070
   173
1070
     1
1070
    41
1040
3.0
1070
   140
1040
3.200000047683716
1070
   344
1005
166
1070
   343
1005
166
1002
}
  0
DIMENSION
  5
28D
330
1F
100
AcDbEntity
  8
0
 62
     7
100
AcDbDimension
  2
*D21
 10
-35.67778778076172
 20
131.5246429443359
 30
0.0
 11
-46.30178778076172
 21
131.5246429443359
 31
0.0
 70
   160
  1
85
 71
     5
 42
21.24999618530273
  3
ISO-25
100
AcDbAlignedDimension
 13
-56.92778396606445
 23
124.0246505737305
 33
0.0
 14
-35.67778778076172
 24
112.2746505737305
 34
0.0
 50
180.0
100
AcDbRotatedDimension
1001
ACAD
1000
DSTYLE
1002
{
1070
   178
1070
     1
1070
   278
1070
    46
1070
   147
1040
0.800000011920929
1070
    77
1070
     1
1070
    74
1070
     0
1070
    73
1070
     0
1070
    42
1040
2.54
1070
    44
1040
2.0
1070
    76
1070
     0
1070
    75
1070
     0
1070
   279
1070
     0
1070
   271
1070
     0
1070
   173
1070
     1
1070
    41
1040
3.0
1070
   140
1040
3.200000047683716
1070
   344
1005
166
1070
   343
1005
166
1002
}
  0
DIMENSION
  5
29A
330
1F
100
AcDbEntity
  8
0
 62
     7
100
AcDbDimension
  2
*D22
 10
-31.92778968811035
 20
131.5246429443359
 30
0.0
 11
-33.80178778076172
 21
131.5246429443359
 31
0.0
 70
   160
  1
15
 71
     5
 42
3.749998092651367
  3
ISO-25
100
AcDbAlignedDimension
 13
-35.67778778076172
 23
112.2746505737305
 33
0.0
 14
-31.92778968811035
 24
112.2746505737305
 34
0.0
 50
180.0
100
AcDbRotatedDimension
1001
ACAD
1000
DSTYLE
1002
{
1070
   178
1070
     1
1070
   278
1070
    46
1070
   147
1040
0.800000011920929
1070
    77
1070
     1
1070
    74
1070
     0
1070
    73
1070
     0
1070
    42
1040
2.54
1070
    44
1040
2.0
1070
    76
1070
     0
1070
    75
1070
     1
1070
   279
1070
     0
1070
   271
1070
     0
1070
   173
1070
     1
1070
    41
1040
3.0
1070
   140
1040
3.200000047683716
1070
   344
1005
166
1070
   343
1005
166
1002
}
  0
DIMENSION
  5
2AE
330
1F
100
AcDbEntity
  8
0
 62
     7
100
AcDbDimension
  2
*D23
 10
-2.927787542343134
 20
131.5246429443359
 30
0.0
 11
-17.42678968811035
 21
131.5246429443359
 31
0.0
 70
   160
  1
116
 71
     5
 42
29.00000214576721
  3
ISO-25
100
AcDbAlignedDimension
 13
-31.92778968811035
 23
112.2746505737305
 33
0.0
 14
-2.92778754234314
 24
107.649658203125
 34
0.0
 50
180.0
100
AcDbRotatedDimension
1001
ACAD
1000
DSTYLE
1002
{
1070
   178
1070
     1
1070
   278
1070
    46
1070
   147
1040
0.800000011920929
1070
    77
1070
     1
1070
    74
1070
     0
1070
    73
1070
     0
1070
    42
1040
2.54
1070
    44
1040
2.0
1070
    76
1070
     1
1070
    75
1070
     1
1070
   279
1070
     0
1070
   271
1070
     0
1070
   173
1070
     1
1070
    41
1040
3.0
1070
   140
1040
3.200000047683716
1070
   344
1005
166
1070
   343
1005
166
1002
}
  0
DIMENSION
  5
2B9
330
1F
100
AcDbEntity
  8
0
 62
     7
100
AcDbDimension
  2
*D24
 10
-31.92778968811035
 20
65.2254110656767
 30
0.0
 11
-25.61328968811035
 21
65.2254110656767
 31
0.0
 70
   160
  1
50.5
 71
     5
 42
12.625
  3
ISO-25
100
AcDbAlignedDimension
 13
-19.30278968811035
 23
92.39965057373047
 33
0.0
 14
-31.92778968811035
 24
73.02465057373047
 34
0.0
100
AcDbRotatedDimension
1001
ACAD
1000
DSTYLE
1002
{
1070
   178
1070
     1
1070
   278
1070
    46
1070
   147
1040
0.800000011920929
1070
    77
1070
     1
1070
    74
1070
     0
1070
    73
1070
     0
1070
    42
1040
2.54
1070
    44
1040
2.0
1070
    76
1070
     0
1070
    75
1070
     0
1070
   279
1070
     0
1070
   271
1070
     1
1070
   173
1070
     1
1070
    41
1040
3.0
1070
   140
1040
3.200000047683716
1070
   344
1005
166
1070
   343
1005
166
1002
}
  0
DIMENSION
  5
2C6
330
1F
100
AcDbEntity
  8
0
 62
     7
100
AcDbDimension
  2
*D25
 10
-2.92778754234314
 20
131.5246429443359
 30
0.0
 11
-1.05078754234314
 21
131.5246429443359
 31
0.0
 70
   160
  1
15
 71
     5
 42
3.750000059604645
  3
ISO-25
100
AcDbAlignedDimension
 13
0.822212517261505
 23
107.6496658325195
 33
0.0
 14
-2.92778754234314
 24
107.649658203125
 34
0.0
100
AcDbRotatedDimension
1001
ACAD
1000
DSTYLE
1002
{
1070
   178
1070
     1
1070
   278
1070
    46
1070
   147
1040
0.800000011920929
1070
    77
1070
     1
1070
    74
1070
     0
1070
    73
1070
     0
1070
    42
1040
2.54
1070
    44
1040
2.0
1070
    76
1070
     0
1070
    75
1070
     0
1070
   279
1070
     0
1070
   271
1070
     0
1070
   173
1070
     1
1070
    41
1040
3.0
1070
   140
1040
3.200000047683716
1070
   344
1005
166
1070
   343
1005
166
1002
}
  0
DIMENSION
  5
2DC
330
1F
100
AcDbEntity
  8
0
 62
     7
100
AcDbDimension
  2
*D26
 10
22.82220458984376
 20
131.5246429443359
 30
0.0
 11
11.82320840454102
 21
131.5246429443359
 31
0.0
 70
   160
  1
88
 71
     5
 42
21.99999207258225
  3
ISO-25
100
AcDbAlignedDimension
 13
0.822212517261505
 23
107.6496658325195
 33
0.0
 14
22.82220458984375
 24
92.39966583251953
 34
0.0
 50
180.0
100
AcDbRotatedDimension
1001
ACAD
1000
DSTYLE
1002
{
1070
   178
1070
     1
1070
   278
1070
    46
1070
   147
1040
0.800000011920929
1070
    77
1070
     1
1070
    74
1070
     0
1070
    73
1070
     0
1070
    42
1040
2.54
1070
    44
1040
2.0
1070
    76
1070
     0
1070
    75
1070
     1
1070
   279
1070
     0
1070
   271
1070
     0
1070
   173
1070
     1
1070
    41
1040
3.0
1070
   140
1040
3.200000047683716
1070
   344
1005
166
1070
   343
1005
166
1002
}
  0
DIMENSION
  5
2E8
330
1F
100
AcDbEntity
  8
0
 62
     7
100
AcDbDimension
  2
*D27
 10
-17.88382530212402
 20
116.3862378152199
 30
0.0
 11
-17.88382530212402
 21
105.0759130249023
 31
0.0
 70
   160
  1
151
 71
     5
 42
37.74999977801792
 52
-70.00000000000001
  3
ISO-25
100
AcDbAlignedDimension
 13
-31.92778938631055
 23
73.52465290130569
 33
0.0
 14
-31.92779004061906
 24
111.2746526793236
 34
0.0
 50
270.0
100
AcDbRotatedDimension
1001
ACAD
1000
DSTYLE
1002
{
1070
   178
1070
     1
1070
   278
1070
    46
1070
   147
1040
0.800000011920929
1070
    77
1070
     1
1070
    74
1070
     0
1070
    73
1070
     0
1070
    42
1040
2.54
1070
    44
1040
1.596262110106681
1070
    76
1070
     0
1070
    75
1070
     0
1070
   279
1070
     0
1070
   271
1070
     0
1070
   173
1070
     1
1070
    41
1040
3.0
1070
   140
1040
3.200000047683716
1070
   344
1005
166
1070
   343
1005
166
1002
}
  0
DIMENSION
  5
2FD
330
1F
100
AcDbEntity
  8
0
 62
     7
100
AcDbDimension
  2
*D28
 10
-28.79005949401855
 20
-45.07981130008202
 30
0.0
 11
-28.79005949401855
 21
-37.34381122951012
 31
0.0
 70
   160
  1
165
 71
     5
 42
41.24999944772112
 52
-70.00000000000001
  3
ISO-25
100
AcDbAlignedDimension
 13
-31.92779120187724
 23
-87.47184927837402
 33
0.0
 14
-31.92778456890919
 24
-46.2218498306529
 34
0.0
 50
270.0
100
AcDbRotatedDimension
1001
ACAD
1000
DSTYLE
1002
{
1070
   178
1070
     1
1070
   278
1070
    46
1070
   147
1040
0.800000011920929
1070
    77
1070
     1
1070
    74
1070
     0
1070
    73
1070
     0
1070
    42
1040
2.54
1070
    44
1040
1.596266351945395
1070
    76
1070
     0
1070
    75
1070
     0
1070
   279
1070
     0
1070
   271
1070
     0
1070
   173
1070
     1
1070
    41
1040
3.0
1070
   140
1040
3.200000047683716
1070
   344
1005
166
1070
   343
1005
166
1002
}
  0
DIMENSION
  5
314
330
1F
100
AcDbEntity
  8
0
 62
     7
100
AcDbDimension
  2
*D29
 10
20.29146003723145
 20
-50.22184753417969
 30
0.0
 11
20.29146003723145
 21
-61.8046640625
 31
0.0
 70
   160
  1
133
 71
     5
 42
33.25
  3
ISO-25
100
AcDbAlignedDimension
 13
-2.92778754234314
 23
-83.47184753417969
 33
0.0
 14
-2.92778754234314
 24
-50.22184753417969
 34
0.0
 50
270.0
100
AcDbRotatedDimension
1001
ACAD
1000
DSTYLE
1002
{
1070
   178
1070
     1
1070
   278
1070
    46
1070
   147
1040
0.800000011920929
1070
    77
1070
     1
1070
    74
1070
     0
1070
    73
1070
     0
1070
    42
1040
2.54
1070
    44
1040
1.5
1070
    76
1070
     0
1070
    75
1070
     0
1070
   279
1070
     0
1070
   271
1070
     0
1070
   173
1070
     1
1070
    41
1040
3.0
1070
   140
1040
3.200000047683716
1070
   344
1005
166
1070
   343
1005
166
1002
}
  0
DIMENSION
  5
321
330
1F
100
AcDbEntity
  8
0
 62
     7
100
AcDbDimension
  2
*D30
 10
44.22308731079102
 20
-54.34684753417969
 30
0.0
 11
44.22308731079102
 21
-66.84584753417968
 31
0.0
 70
   160
  1
100
 71
     5
 42
25.0
  3
ISO-25
100
AcDbAlignedDimension
 13
34.97308731079102
 23
-79.34684753417969
 33
0.0
 14
34.97308731079102
 24
-54.34684753417969
 34
0.0
 50
270.0
100
AcDbRotatedDimension
1001
ACAD
1000
DSTYLE
1002
{
1070
   178
1070
     1
1070
   278
1070
    46
1070
   147
1040
0.800000011920929
1070
    77
1070
     1
1070
    74
1070
     0
1070
    73
1070
     0
1070
    42
1040
2.54
1070
    44
1040
1.5
1070
    76
1070
     0
1070
    75
1070
     0
1070
   279
1070
     0
1070
   271
1070
     0
1070
   173
1070
     1
1070
    41
1040
3.0
1070
   140
1040
3.200000047683716
1070
   344
1005
166
1070
   343
1005
166
1002
}
  0
DIMENSION
  5
32E
330
1F
100
AcDbEntity
  8
0
 62
     7
100
AcDbDimension
  2
*D31
 10
80.34056534641316
 20
-108.0247955322266
 30
0.0
 11
80.34056534641311
 21
-7.811564849853515
 31
0.0
 70
   160
  1
(802)
 71
     5
 42
200.4244613647461
  3
ISO-25
100
AcDbAlignedDimension
 13
23.93293190002441
 23
92.39966583251953
 33
0.0
 14
86.43379974365234
 24
-108.0247955322266
 34
0.0
 50
90.00000000000001
100
AcDbRotatedDimension
1001
ACAD
1000
DSTYLE
1002
{
1070
   178
1070
     1
1070
   278
1070
    46
1070
   147
1040
0.800000011920929
1070
    77
1070
     1
1070
    74
1070
     0
1070
    73
1070
     0
1070
    42
1040
2.54
1070
    44
1040
2.286000000000001
1070
    76
1070
     1
1070
    75
1070
     0
1070
   279
1070
     0
1070
   271
1070
     0
1070
   173
1070
     1
1070
    41
1040
3.0
1070
   140
1040
3.200000047683716
1070
   344
1005
166
1070
   343
1005
166
1002
}
  0
POINT
  5
33B
330
1F
100
AcDbEntity
  8
VIEW0001
 62
     7
100
AcDbPoint
 10
105.0
 20
-148.5
 30
0.0
  0
LWPOLYLINE
  5
33C
330
1F
100
AcDbEntity
  8
VIEW0001
  6
Continuous
 62
     7
100
AcDbPolyline
 90
        2
 70
     0
 10
25.75
 20
-129.0
 40
0.001000000047497
 41
0.001000000047497
 10
25.75
 20
-120.0
 40
0.001000000047497
 41
0.001000000047497
  0
LWPOLYLINE
  5
33D
330
1F
100
AcDbEntity
  8
VIEW0001
  6
Continuous
 62
     7
100
AcDbPolyline
 90
        2
 70
     0
 10
-64.5
 20
-138.0
 40
0.001000000047497
 41
0.001000000047497
 10
-64.5
 20
-120.0
 40
0.001000000047497
 41
0.001000000047497
  0
LINE
  5
33E
330
1F
100
AcDbEntity
  8
VIEW0001
  6
Continuous
 62
     7
370
    50
100
AcDbLine
 10
-84.5
 20
138.0
 30
0.0
 11
-84.5
 21
-138.0
 31
0.0
  0
LINE
  5
33F
330
1F
100
AcDbEntity
  8
VIEW0001
  6
Continuous
 62
     7
370
    50
100
AcDbLine
 10
96.0
 20
138.0
 30
0.0
 11
96.0
 21
-138.0
 31
0.0
  0
LINE
  5
340
330
1F
100
AcDbEntity
  8
VIEW0001
  6
Continuous
 62
     7
370
    50
100
AcDbLine
 10
-84.5
 20
-138.0
 30
0.0
 11
96.0
 21
-138.0
 31
0.0
  0
LINE
  5
341
330
1F
100
AcDbEntity
  8
VIEW0001
  6
Continuous
 62
     7
370
    50
100
AcDbLine
 10
-84.5
 20
138.0
 30
0.0
 11
96.0
 21
138.0
 31
0.0
  0
LINE
  5
342
330
1F
100
AcDbEntity
  8
VIEW0001
  6
Continuous
 62
     7
370
    20
100
AcDbLine
 10
-84.5
 20
-120.0
 30
0.0
 11
96.0
 21
-120.0
 31
0.0
  0
LWPOLYLINE
  5
343
330
1F
100
AcDbEntity
  8
VIEW0001
  6
Continuous
 62
     7
100
AcDbPolyline
 90
        2
 70
     0
 10
96.0
 20
-129.0
 40
0.001000000047497
 41
0.001000000047497
 10
-84.5
 20
-129.0
 40
0.001000000047497
 41
0.001000000047497
  0
LINE
  5
344
330
1F
100
AcDbEntity
  8
VIEW0001
  6
Continuous
 62
     7
370
    20
100
AcDbLine
 10
41.0
 20
128.0
 30
0.0
 11
96.0
 21
128.0
 31
0.0
  0
LINE
  5
345
330
1F
100
AcDbEntity
  8
VIEW0001
  6
Continuous
 62
     7
370
    20
100
AcDbLine
 10
41.0
 20
138.0
 30
0.0
 11
41.0
 21
128.0
 31
0.0
  0
LWPOLYLINE
  5
346
330
1F
100
AcDbEntity
  8
VIEW0001
  6
Continuous
 62
     7
100
AcDbPolyline
 90
        2
 70
     0
 10
5.75
 20
-138.0
 40
0.001000000047497
 41
0.001000000047497
 10
5.75
 20
-120.0
 40
0.001000000047497
 41
0.001000000047497
  0
LWPOLYLINE
  5
347
330
1F
100
AcDbEntity
  8
VIEW0001
  6
Continuous
 62
     7
100
AcDbPolyline
 90
        2
 70
     0
 10
66.0
 20
-129.0
 40
0.001000000047497
 41
0.001000000047497
 10
66.0
 20
-120.0
 40
0.001000000047497
 41
0.001000000047497
  0
LWPOLYLINE
  5
348
330
1F
100
AcDbEntity
  8
VIEW0001
  6
Continuous
 62
     7
100
AcDbPolyline
 90
        2
 70
     0
 10
81.0
 20
-129.0
 40
0.001000000047497
 41
0.001000000047497
 10
81.0
 20
-120.0
 40
0.001000000047497
 41
0.001000000047497
  0
MTEXT
  5
349
330
1F
100
AcDbEntity
  8
VIEW0001
 62
     1
100
AcDbMText
 10
-77.92875003814697
 20
-135.5
 30
0.0
 40
4.0
 41
0.0
 71
     7
 72
     1
  1
{\W0.833333;規格}
 73
     1
 44
1.0
  0
MTEXT
  5
34A
330
1F
100
AcDbEntity
  8
VIEW0001
 62
     1
100
AcDbMText
 10
70.07124996185303
 20
-126.5
 30
0.0
 40
4.0
 41
0.0
 71
     7
 72
     1
  1
{\W0.833333;尺度}
 73
     1
 44
1.0
  0
MTEXT
  5
34B
330
1F
100
AcDbEntity
  8
VIEW0001
 62
     1
100
AcDbMText
 10
-77.92875003814697
 20
-126.5
 30
0.0
 40
4.0
 41
0.0
 71
     7
 72
     1
  1
{\W0.833333;品名}
 73
     1
 44
1.0
  0
MTEXT
  5
34C
330
1F
100
AcDbEntity
  8
VIEW0001
 62
     1
100
AcDbMText
 10
12.32124996185303
 20
-126.5
 30
0.0
 40
4.0
 41
0.0
 71
     7
 72
     1
  1
{\W0.833333;材質}
 73
     1
 44
1.0
  0
MTEXT
  5
34D
330
1F
100
AcDbEntity
  8
VIEW0001
 62
     1
100
AcDbMText
 10
26.46785604953766
 20
-135.75
 30
0.0
 40
4.5
 41
0.0
 71
     7
 72
     1
  1
{\W1.40741;デンカ株式会社}
 73
     1
 44
1.0
  0
MTEXT
  5
34E
330
1F
100
AcDbEntity
  8
VIEW0001
 62
     1
100
AcDbMText
 10
36.44624972343445
 20
-126.5
 30
0.0
 40
4.0
 41
0.0
 71
     7
 72
     1
  1
{\W0.833333;硬質ＰＶＣ}
 73
     1
 44
1.0
  0
MTEXT
  5
34F
330
1F
100
AcDbEntity
  8
VIEW0001
 62
     1
100
AcDbMText
 10
83.07124984264374
 20
-126.5
 30
0.0
 40
4.0
 41
0.0
 71
     7
 72
     1
  1
{\W0.833333;1/4}
 73
     1
 44
1.0
  0
MTEXT
  5
350
330
1F
100
AcDbEntity
  8
VIEW0001
 62
     1
100
AcDbMText
 10
-40.8037503361702
 20
-135.5
 30
0.0
 40
4.0
 41
0.0
 71
     7
 72
     1
  1
{\W0.833333;105-35}
 73
     1
 44
1.0
  0
MTEXT
  5
351
330
1F
100
AcDbEntity
  8
VIEW0001
 62
     1
100
AcDbMText
 10
-54.80375075340271
 20
-126.5
 30
0.0
 40
4.0
 41
0.0
 71
     7
 72
     1
  1
{\W0.833333;飾りあんこうデラックス１型}
 73
     1
 44
1.0
  0
ENDSEC
  0
SECTION
  2
OBJECTS
  0
DICTIONARY
  5
C
330
0
100
AcDbDictionary
281
     1
  3
ACAD_GROUP
350
D
  3
ACAD_LAYOUT
350
1A
  3
ACAD_MATERIAL
350
3B
  3
ACAD_MLEADERSTYLE
350
379
  3
ACAD_MLINESTYLE
350
17
  3
ACAD_PLOTSETTINGS
350
19
  3
ACAD_PLOTSTYLENAME
350
E
  3
ACAD_TABLESTYLE
350
378
  3
ACAD_VISUALSTYLE
350
2A
  0
DICTIONARY
  5
D
102
{ACAD_REACTORS
330
C
102
}
330
C
100
AcDbDictionary
281
     1
  0
DICTIONARY
  5
1A
102
{ACAD_REACTORS
330
C
102
}
330
C
100
AcDbDictionary
281
     1
  3
Layout1
350
1E
  3
Layout2
350
26
  3
Model
350
22
  0
DICTIONARY
  5
3B
102
{ACAD_REACTORS
330
C
102
}
330
C
100
AcDbDictionary
281
     1
  3
ByBlock
350
3D
  3
ByLayer
350
3C
  3
Global
350
3E
  0
DICTIONARY
  5
379
102
{ACAD_REACTORS
330
C
102
}
330
C
100
AcDbDictionary
281
     1
  0
DICTIONARY
  5
17
102
{ACAD_REACTORS
330
C
102
}
330
C
100
AcDbDictionary
281
     1
  3
Standard
350
18
  0
DICTIONARY
  5
19
102
{ACAD_REACTORS
330
C
102
}
330
C
100
AcDbDictionary
281
     1
  0
ACDBDICTIONARYWDFLT
  5
E
102
{ACAD_REACTORS
330
C
102
}
330
C
100
AcDbDictionary
281
     1
  3
Normal
350
F
100
AcDbDictionaryWithDefault
340
F
  0
DICTIONARY
  5
378
102
{ACAD_REACTORS
330
C
102
}
330
C
100
AcDbDictionary
281
     1
  0
DICTIONARY
  5
2A
102
{ACAD_REACTORS
330
C
102
}
330
C
100
AcDbDictionary
281
     1
  3
2dWireframe
350
2F
  3
3D Hidden
350
31
  3
3dWireframe
350
30
  3
Basic
350
32
  3
Brighten
350
36
  3
ColorChange
350
3A
  3
Conceptual
350
34
  3
Dim
350
35
  3
Facepattern
350
39
  3
Flat
350
2B
  3
FlatWithEdges
350
2C
  3
Gouraud
350
2D
  3
GouraudWithEdges
350
2E
  3
Linepattern
350
38
  3
Realistic
350
33
  3
Thicken
350
37
  0
LAYOUT
  5
1E
102
{ACAD_REACTORS
330
1A
102
}
330
1A
100
AcDbPlotSettings
  1

  2
none_device
  4

  6

 40
0.0
 41
0.0
 42
0.0
 43
0.0
 44
0.0
 45
0.0
 46
0.0
 47
0.0
 48
0.0
 49
0.0
140
0.0
141
0.0
142
1.0
143
1.0
 70
   688
 72
     0
 73
     0
 74
     5
  7

 75
    16
 76
     0
 77
     2
 78
   300
147
1.0
148
0.0
149
0.0
100
AcDbLayout
  1
Layout1
 70
     1
 71
     1
 10
-105.0
 20
-148.5
 11
105.0
 21
148.5
 12
0.0
 22
0.0
 32
0.0
 14
1.000000000000000E+20
 24
1.000000000000000E+20
 34
1.000000000000000E+20
 15
-1.000000000000000E+20
 25
-1.000000000000000E+20
 35
-1.000000000000000E+20
146
0.0
 13
0.0
 23
0.0
 33
0.0
 16
1.0
 26
0.0
 36
0.0
 17
0.0
 27
1.0
 37
0.0
 76
     0
330
1B
  0
LAYOUT
  5
26
102
{ACAD_REACTORS
330
1A
102
}
330
1A
100
AcDbPlotSettings
  1

  2
none_device
  4

  6

 40
0.0
 41
0.0
 42
0.0
 43
0.0
 44
0.0
 45
0.0
 46
0.0
 47
0.0
 48
0.0
 49
0.0
140
0.0
141
0.0
142
1.0
143
1.0
 70
   688
 72
     0
 73
     0
 74
     5
  7

 75
    16
 76
     0
 77
     2
 78
   300
147
1.0
148
0.0
149
0.0
100
AcDbLayout
  1
Layout2
 70
     1
 71
     2
 10
0.0
 20
0.0
 11
0.0
 21
0.0
 12
0.0
 22
0.0
 32
0.0
 14
0.0
 24
0.0
 34
0.0
 15
0.0
 25
0.0
 35
0.0
146
0.0
 13
0.0
 23
0.0
 33
0.0
 16
1.0
 26
0.0
 36
0.0
 17
0.0
 27
1.0
 37
0.0
 76
     0
330
23
  0
LAYOUT
  5
22
102
{ACAD_REACTORS
330
1A
102
}
330
1A
100
AcDbPlotSettings
  1

  2
none_device
  4

  6

 40
0.0
 41
0.0
 42
0.0
 43
0.0
 44
0.0
 45
0.0
 46
0.0
 47
0.0
 48
0.0
 49
0.0
140
0.0
141
0.0
142
1.0
143
1.0
 70
  1712
 72
     0
 73
     0
 74
     0
  7

 75
     0
 76
     0
 77
     2
 78
   300
147
1.0
148
0.0
149
0.0
100
AcDbLayout
  1
Model
 70
     1
 71
     0
 10
-105.0
 20
-148.5
 11
105.0
 21
148.5
 12
0.0
 22
0.0
 32
0.0
 14
-105.0
 24
-148.5
 34
0.0
 15
105.0
 25
148.5
 35
0.0
146
0.0
 13
0.0
 23
0.0
 33
0.0
 16
1.0
 26
0.0
 36
0.0
 17
0.0
 27
1.0
 37
0.0
 76
     0
330
1F
331
29
  0
MATERIAL
  5
3D
102
{ACAD_REACTORS
330
3B
102
}
102
{ACAD_XDICTIONARY
360
374
102
}
330
3B
100
AcDbMaterial
  1
ByBlock
  0
MATERIAL
  5
3C
102
{ACAD_REACTORS
330
3B
102
}
102
{ACAD_XDICTIONARY
360
372
102
}
330
3B
100
AcDbMaterial
  1
ByLayer
  0
MATERIAL
  5
3E
102
{ACAD_REACTORS
330
3B
102
}
102
{ACAD_XDICTIONARY
360
376
102
}
330
3B
100
AcDbMaterial
  1
Global
  0
MLINESTYLE
  5
18
102
{ACAD_REACTORS
330
17
102
}
330
17
100
AcDbMlineStyle
  2
Standard
 70
     0
  3

 62
   256
 51
90.0
 52
90.0
 71
     2
 49
0.5
 62
   256
  6
BYLAYER
 49
-0.5
 62
   256
  6
BYLAYER
  0
ACDBPLACEHOLDER
  5
F
102
{ACAD_REACTORS
330
E
102
}
330
E
  0
VISUALSTYLE
  5
2F
102
{ACAD_REACTORS
330
2A
102
}
102
{ACAD_XDICTIONARY
360
35A
102
}
330
2A
100
AcDbVisualStyle
  2
2dWireframe
 70
     4
 71
     0
 72
     2
 73
     0
 90
        0
 40
-0.6
 41
-30.0
 62
     5
 63
     7
421
 16777215
 74
     1
 91
        4
 64
     7
 65
   257
 75
     1
175
     1
 42
1.0
 92
        0
 66
   257
 43
1.0
 76
     1
 77
     6
 78
     2
 67
     7
 79
     5
170
     0
171
     0
290
     0
174
     0
 93
        1
 44
0.0
173
     0
291
     0
 45
0.0
1001
ACAD
1000
AcDbSavedByObjectVersion
1070
     0
  0
VISUALSTYLE
  5
31
102
{ACAD_REACTORS
330
2A
102
}
102
{ACAD_XDICTIONARY
360
35E
102
}
330
2A
100
AcDbVisualStyle
  2
3D Hidden
 70
     6
 71
     1
 72
     2
 73
     2
 90
        0
 40
-0.6
 41
-30.0
 62
     5
 63
     7
421
 16777215
 74
     2
 91
        2
 64
     7
 65
   257
 75
     2
175
     1
 42
40.0
 92
        0
 66
   257
 43
1.0
 76
     1
 77
     6
 78
     2
 67
     7
 79
     3
170
     0
171
     0
290
     0
174
     0
 93
        1
 44
0.0
173
     0
291
     0
 45
0.0
1001
ACAD
1000
AcDbSavedByObjectVersion
1070
     0
  0
VISUALSTYLE
  5
30
102
{ACAD_REACTORS
330
2A
102
}
102
{ACAD_XDICTIONARY
360
35C
102
}
330
2A
100
AcDbVisualStyle
  2
3dWireframe
 70
     5
 71
     0
 72
     2
 73
     0
 90
        0
 40
-0.6
 41
-30.0
 62
     5
 63
     7
421
 16777215
 74
     1
 91
        4
 64
     7
 65
   257
 75
     1
175
     1
 42
1.0
 92
        0
 66
   257
 43
1.0
 76
     1
 77
     6
 78
     2
 67
     7
 79
     5
170
     0
171
     0
290
     0
174
     0
 93
        1
 44
0.0
173
     0
291
     0
 45
0.0
1001
ACAD
1000
AcDbSavedByObjectVersion
1070
     0
  0
VISUALSTYLE
  5
32
102
{ACAD_REACTORS
330
2A
102
}
102
{ACAD_XDICTIONARY
360
360
102
}
330
2A
100
AcDbVisualStyle
  2
Basic
 70
     7
 71
     1
 72
     0
 73
     1
 90
        0
 40
-0.6
 41
-30.0
 62
     5
 63
     7
421
 16777215
 74
     0
 91
        4
 64
     7
 65
   257
 75
     1
175
     1
 42
1.0
 92
        8
 66
     7
 43
1.0
 76
     1
 77
     6
 78
     2
 67
     7
 79
     5
170
     0
171
     0
290
     0
174
     0
 93
        1
 44
0.0
173
     0
291
     1
 45
0.0
1001
ACAD
1000
AcDbSavedByObjectVersion
1070
     0
  0
VISUALSTYLE
  5
36
102
{ACAD_REACTORS
330
2A
102
}
102
{ACAD_XDICTIONARY
360
368
102
}
330
2A
100
AcDbVisualStyle
  2
Brighten
 70
    12
 71
     2
 72
     2
 73
     0
 90
        0
 40
-0.6
 41
-30.0
 62
     5
 63
     7
421
 16777215
 74
     1
 91
        4
 64
     7
 65
   257
 75
     1
175
     1
 42
1.0
 92
        8
 66
     7
 43
1.0
 76
     1
 77
     6
 78
     2
 67
     7
 79
     5
170
     0
171
     0
290
     0
174
     0
 93
        1
 44
50.0
173
     0
291
     1
 45
0.0
1001
ACAD
1000
AcDbSavedByObjectVersion
1070
     0
  0
VISUALSTYLE
  5
3A
102
{ACAD_REACTORS
330
2A
102
}
102
{ACAD_XDICTIONARY
360
370
102
}
330
2A
100
AcDbVisualStyle
  2
ColorChange
 70
    16
 71
     2
 72
     2
 73
     3
 90
        0
 40
-0.6
 41
-30.0
 62
     5
 63
     8
421
  8421504
 74
     1
 91
        4
 64
     7
 65
   257
 75
     1
175
     1
 42
1.0
 92
        8
 66
     8
424
  8421504
 43
1.0
 76
     1
 77
     6
 78
     2
 67
     7
 79
     5
170
     0
171
     0
290
     0
174
     0
 93
        1
 44
0.0
173
     0
291
     1
 45
0.0
1001
ACAD
1000
AcDbSavedByObjectVersion
1070
     0
  0
VISUALSTYLE
  5
34
102
{ACAD_REACTORS
330
2A
102
}
102
{ACAD_XDICTIONARY
360
364
102
}
330
2A
100
AcDbVisualStyle
  2
Conceptual
 70
     9
 71
     3
 72
     2
 73
     0
 90
        0
 40
-0.6
 41
-30.0
 62
     5
 63
     7
421
 16777215
 74
     2
 91
        2
 64
     7
 65
   257
 75
     1
175
     1
 42
40.0
 92
        8
 66
     7
 43
1.0
 76
     1
 77
     6
 78
     2
 67
     7
 79
     3
170
     0
171
     0
290
     0
174
     0
 93
        1
 44
0.0
173
     0
291
     0
 45
0.0
1001
ACAD
1000
AcDbSavedByObjectVersion
1070
     0
  0
VISUALSTYLE
  5
35
102
{ACAD_REACTORS
330
2A
102
}
102
{ACAD_XDICTIONARY
360
366
102
}
330
2A
100
AcDbVisualStyle
  2
Dim
 70
    11
 71
     2
 72
     2
 73
     0
 90
        0
 40
-0.6
 41
-30.0
 62
     5
 63
     7
421
 16777215
 74
     1
 91
        4
 64
     7
 65
   257
 75
     1
175
     1
 42
1.0
 92
        8
 66
     7
 43
1.0
 76
     1
 77
     6
 78
     2
 67
     7
 79
     5
170
     0
171
     0
290
     0
174
     0
 93
        1
 44
-50.0
173
     0
291
     1
 45
0.0
1001
ACAD
1000
AcDbSavedByObjectVersion
1070
     0
  0
VISUALSTYLE
  5
39
102
{ACAD_REACTORS
330
2A
102
}
102
{ACAD_XDICTIONARY
360
36E
102
}
330
2A
100
AcDbVisualStyle
  2
Facepattern
 70
    15
 71
     2
 72
     2
 73
     0
 90
        0
 40
-0.6
 41
-30.0
 62
     5
 63
     7
421
 16777215
 74
     1
 91
        4
 64
     7
 65
   257
 75
     1
175
     1
 42
1.0
 92
        8
 66
     7
 43
1.0
 76
     1
 77
     6
 78
     2
 67
     7
 79
     5
170
     0
171
     0
290
     0
174
     0
 93
        1
 44
0.0
173
     0
291
     1
 45
0.0
1001
ACAD
1000
AcDbSavedByObjectVersion
1070
     0
  0
VISUALSTYLE
  5
2B
102
{ACAD_REACTORS
330
2A
102
}
102
{ACAD_XDICTIONARY
360
352
102
}
330
2A
100
AcDbVisualStyle
  2
Flat
 70
     0
 71
     2
 72
     1
 73
     1
 90
        2
 40
-0.6
 41
30.0
 62
     5
 63
     7
421
 16777215
 74
     0
 91
        4
 64
     7
 65
   257
 75
     1
175
     1
 42
1.0
 92
        8
 66
     7
 43
1.0
 76
     1
 77
     6
 78
     2
 67
     7
 79
     5
170
     0
171
     0
290
     0
174
     0
 93
       13
 44
0.0
173
     0
291
     1
 45
0.0
1001
ACAD
1000
AcDbSavedByObjectVersion
1070
     0
  0
VISUALSTYLE
  5
2C
102
{ACAD_REACTORS
330
2A
102
}
102
{ACAD_XDICTIONARY
360
354
102
}
330
2A
100
AcDbVisualStyle
  2
FlatWithEdges
 70
     1
 71
     2
 72
     1
 73
     1
 90
        2
 40
-0.6
 41
30.0
 62
     5
 63
     7
421
 16777215
 74
     1
 91
        4
 64
     7
 65
   257
 75
     1
175
     1
 42
1.0
 92
        0
 66
   257
 43
1.0
 76
     1
 77
     6
 78
     2
 67
     7
 79
     5
170
     0
171
     0
290
     0
174
     0
 93
       13
 44
0.0
173
     0
291
     1
 45
0.0
1001
ACAD
1000
AcDbSavedByObjectVersion
1070
     0
  0
VISUALSTYLE
  5
2D
102
{ACAD_REACTORS
330
2A
102
}
102
{ACAD_XDICTIONARY
360
356
102
}
330
2A
100
AcDbVisualStyle
  2
Gouraud
 70
     2
 71
     2
 72
     2
 73
     1
 90
        2
 40
-0.6
 41
30.0
 62
     5
 63
     7
421
 16777215
 74
     0
 91
        4
 64
     7
 65
   257
 75
     1
175
     1
 42
1.0
 92
        0
 66
     7
 43
1.0
 76
     1
 77
     6
 78
     2
 67
     7
 79
     5
170
     0
171
     0
290
     0
174
     0
 93
       13
 44
0.0
173
     0
291
     1
 45
0.0
1001
ACAD
1000
AcDbSavedByObjectVersion
1070
     0
  0
VISUALSTYLE
  5
2E
102
{ACAD_REACTORS
330
2A
102
}
102
{ACAD_XDICTIONARY
360
358
102
}
330
2A
100
AcDbVisualStyle
  2
GouraudWithEdges
 70
     3
 71
     2
 72
     2
 73
     1
 90
        2
 40
-0.6
 41
30.0
 62
     5
 63
     7
421
 16777215
 74
     1
 91
        4
 64
     7
 65
   257
 75
     1
175
     1
 42
1.0
 92
        0
 66
   257
 43
1.0
 76
     1
 77
     6
 78
     2
 67
     7
 79
     5
170
     0
171
     0
290
     0
174
     0
 93
       13
 44
0.0
173
     0
291
     1
 45
0.0
1001
ACAD
1000
AcDbSavedByObjectVersion
1070
     0
  0
VISUALSTYLE
  5
38
102
{ACAD_REACTORS
330
2A
102
}
102
{ACAD_XDICTIONARY
360
36C
102
}
330
2A
100
AcDbVisualStyle
  2
Linepattern
 70
    14
 71
     2
 72
     2
 73
     0
 90
        0
 40
-0.6
 41
-30.0
 62
     5
 63
     7
421
 16777215
 74
     1
 91
        4
 64
     7
 65
   257
 75
     7
175
     7
 42
1.0
 92
        8
 66
     7
 43
1.0
 76
     1
 77
     6
 78
     2
 67
     7
 79
     5
170
     0
171
     0
290
     0
174
     0
 93
        1
 44
0.0
173
     0
291
     1
 45
0.0
1001
ACAD
1000
AcDbSavedByObjectVersion
1070
     0
  0
VISUALSTYLE
  5
33
102
{ACAD_REACTORS
330
2A
102
}
102
{ACAD_XDICTIONARY
360
362
102
}
330
2A
100
AcDbVisualStyle
  2
Realistic
 70
     8
 71
     2
 72
     2
 73
     0
 90
        0
 40
-0.6
 41
-30.0
 62
     5
 63
     7
421
 16777215
 74
     1
 91
        0
 64
     7
 65
   257
 75
     1
175
     1
 42
1.0
 92
        8
 66
     8
424
  7895160
 43
1.0
 76
     1
 77
     6
 78
     2
 67
     7
 79
     5
170
     0
171
     0
290
     0
174
     0
 93
       13
 44
0.0
173
     0
291
     0
 45
0.0
1001
ACAD
1000
AcDbSavedByObjectVersion
1070
     0
  0
VISUALSTYLE
  5
37
102
{ACAD_REACTORS
330
2A
102
}
102
{ACAD_XDICTIONARY
360
36A
102
}
330
2A
100
AcDbVisualStyle
  2
Thicken
 70
    13
 71
     2
 72
     2
 73
     0
 90
        0
 40
-0.6
 41
-30.0
 62
     5
 63
     7
421
 16777215
 74
     1
 91
        4
 64
     7
 65
   257
 75
     1
175
     1
 42
1.0
 92
       12
 66
     7
 43
1.0
 76
     1
 77
     6
 78
     2
 67
     7
 79
     5
170
     0
171
     0
290
     0
174
     0
 93
        1
 44
0.0
173
     0
291
     1
 45
0.0
1001
ACAD
1000
AcDbSavedByObjectVersion
1070
     0
  0
DICTIONARY
  5
374
330
3D
100
AcDbDictionary
280
     1
281
     1
  3
ACAD_XREC_ROUNDTRIP
360
375
  0
DICTIONARY
  5
372
330
3C
100
AcDbDictionary
280
     1
281
     1
  3
ACAD_XREC_ROUNDTRIP
360
373
  0
DICTIONARY
  5
376
330
3E
100
AcDbDictionary
280
     1
281
     1
  3
ACAD_XREC_ROUNDTRIP
360
377
  0
DICTIONARY
  5
35A
330
2F
100
AcDbDictionary
280
     1
281
     1
  3
ACAD_XREC_ROUNDTRIP
360
35B
  0
DICTIONARY
  5
35E
330
31
100
AcDbDictionary
280
     1
281
     1
  3
ACAD_XREC_ROUNDTRIP
360
35F
  0
DICTIONARY
  5
35C
330
30
100
AcDbDictionary
280
     1
281
     1
  3
ACAD_XREC_ROUNDTRIP
360
35D
  0
DICTIONARY
  5
360
330
32
100
AcDbDictionary
280
     1
281
     1
  3
ACAD_XREC_ROUNDTRIP
360
361
  0
DICTIONARY
  5
368
330
36
100
AcDbDictionary
280
     1
281
     1
  3
ACAD_XREC_ROUNDTRIP
360
369
  0
DICTIONARY
  5
370
330
3A
100
AcDbDictionary
280
     1
281
     1
  3
ACAD_XREC_ROUNDTRIP
360
371
  0
DICTIONARY
  5
364
330
34
100
AcDbDictionary
280
     1
281
     1
  3
ACAD_XREC_ROUNDTRIP
360
365
  0
DICTIONARY
  5
366
330
35
100
AcDbDictionary
280
     1
281
     1
  3
ACAD_XREC_ROUNDTRIP
360
367
  0
DICTIONARY
  5
36E
330
39
100
AcDbDictionary
280
     1
281
     1
  3
ACAD_XREC_ROUNDTRIP
360
36F
  0
DICTIONARY
  5
352
330
2B
100
AcDbDictionary
280
     1
281
     1
  3
ACAD_XREC_ROUNDTRIP
360
353
  0
DICTIONARY
  5
354
330
2C
100
AcDbDictionary
280
     1
281
     1
  3
ACAD_XREC_ROUNDTRIP
360
355
  0
DICTIONARY
  5
356
330
2D
100
AcDbDictionary
280
     1
281
     1
  3
ACAD_XREC_ROUNDTRIP
360
357
  0
DICTIONARY
  5
358
330
2E
100
AcDbDictionary
280
     1
281
     1
  3
ACAD_XREC_ROUNDTRIP
360
359
  0
DICTIONARY
  5
36C
330
38
100
AcDbDictionary
280
     1
281
     1
  3
ACAD_XREC_ROUNDTRIP
360
36D
  0
DICTIONARY
  5
362
330
33
100
AcDbDictionary
280
     1
281
     1
  3
ACAD_XREC_ROUNDTRIP
360
363
  0
DICTIONARY
  5
36A
330
37
100
AcDbDictionary
280
     1
281
     1
  3
ACAD_XREC_ROUNDTRIP
360
36B
  0
XRECORD
  5
375
102
{ACAD_REACTORS
330
374
102
}
330
374
100
AcDbXrecord
280
     1
102
MATERIAL
148
0.0
149
0.0
149
0.0
 93
        0
 94
      127
282
     0
 72
     1
 77
     1
171
     1
175
     1
179
     1
273
     0
  0
XRECORD
  5
373
102
{ACAD_REACTORS
330
372
102
}
330
372
100
AcDbXrecord
280
     1
102
MATERIAL
148
0.0
149
0.0
149
0.0
 93
        0
 94
      127
282
     0
 72
     1
 77
     1
171
     1
175
     1
179
     1
273
     0
  0
XRECORD
  5
377
102
{ACAD_REACTORS
330
376
102
}
330
376
100
AcDbXrecord
280
     1
102
MATERIAL
148
0.0
149
0.0
149
0.0
 93
        0
 94
      127
282
     0
 72
     1
 77
     1
171
     1
175
     1
179
     1
273
     0
  0
XRECORD
  5
35B
102
{ACAD_REACTORS
330
35A
102
}
330
35A
100
AcDbXrecord
280
     1
102
RTVSPropertyOp0
 70
     1
102
RTVSPropertyOp1
 70
     1
102
RTVSPropertyOp2
 70
     1
102
RTVSPropertyOp3
 70
     1
102
RTVSPropertyOp4
 70
     1
102
RTVSPropertyOp5
 70
     1
102
RTVSPropertyOp6
 70
     1
102
RTVSPropertyOp7
 70
     1
102
RTVSPropertyOp8
 70
     1
102
RTVSPropertyOp9
 70
     1
102
RTVSPropertyOp10
 70
     1
102
RTVSPropertyOp11
 70
     1
102
RTVSPropertyOp12
 70
     1
102
RTVSPropertyOp13
 70
     1
102
RTVSPropertyOp14
 70
     1
102
RTVSPropertyOp15
 70
     1
102
RTVSPropertyOp16
 70
     1
102
RTVSPropertyOp17
 70
     1
102
RTVSPropertyOp18
 70
     1
102
RTVSPropertyOp19
 70
     1
102
RTVSPropertyOp20
 70
     1
102
RTVSPropertyOp21
 70
     1
102
RTVSPropertyOp22
 70
     1
102
RTVSPropertyOp23
 70
     1
102
RTVSPropertyOp24
 70
     1
102
RTVSPropertyOp25
 70
     1
102
RTVSPropertyOp26
 70
     1
102
RTVSPropertyOp27
 70
     1
102
RTVSPropertyOp28
 70
     1
102
RTVSPropertyOp29
 70
     1
102
RTVSPropertyOp30
 70
     1
102
RTVSPropertyOp31
 70
     1
102
RTVSPropertyOp32
 70
     1
  0
XRECORD
  5
35F
102
{ACAD_REACTORS
330
35E
102
}
330
35E
100
AcDbXrecord
280
     1
102
RTVSPropertyOp0
 70
     1
102
RTVSPropertyOp1
 70
     1
102
RTVSPropertyOp2
 70
     1
102
RTVSPropertyOp3
 70
     1
102
RTVSPropertyOp4
 70
     1
102
RTVSPropertyOp5
 70
     1
102
RTVSPropertyOp6
 70
     1
102
RTVSPropertyOp7
 70
     1
102
RTVSPropertyOp8
 70
     1
102
RTVSPropertyOp9
 70
     1
102
RTVSPropertyOp10
 70
     1
102
RTVSPropertyOp11
 70
     1
102
RTVSPropertyOp12
 70
     1
102
RTVSPropertyOp13
 70
     1
102
RTVSPropertyOp14
 70
     1
102
RTVSPropertyOp15
 70
     1
102
RTVSPropertyOp16
 70
     1
102
RTVSPropertyOp17
 70
     1
102
RTVSPropertyOp18
 70
     1
102
RTVSPropertyOp19
 70
     1
102
RTVSPropertyOp20
 70
     1
102
RTVSPropertyOp21
 70
     1
102
RTVSPropertyOp22
 70
     1
102
RTVSPropertyOp23
 70
     1
102
RTVSPropertyOp24
 70
     1
102
RTVSPropertyOp25
 70
     1
102
RTVSPropertyOp26
 70
     1
102
RTVSPropertyOp27
 70
     1
102
RTVSPropertyOp28
 70
     1
102
RTVSPropertyOp29
 70
     1
102
RTVSPropertyOp30
 70
     1
102
RTVSPropertyOp31
 70
     1
102
RTVSPropertyOp32
 70
     1
  0
XRECORD
  5
35D
102
{ACAD_REACTORS
330
35C
102
}
330
35C
100
AcDbXrecord
280
     1
102
RTVSPropertyOp0
 70
     1
102
RTVSPropertyOp1
 70
     1
102
RTVSPropertyOp2
 70
     1
102
RTVSPropertyOp3
 70
     1
102
RTVSPropertyOp4
 70
     1
102
RTVSPropertyOp5
 70
     1
102
RTVSPropertyOp6
 70
     1
102
RTVSPropertyOp7
 70
     1
102
RTVSPropertyOp8
 70
     1
102
RTVSPropertyOp9
 70
     1
102
RTVSPropertyOp10
 70
     1
102
RTVSPropertyOp11
 70
     1
102
RTVSPropertyOp12
 70
     1
102
RTVSPropertyOp13
 70
     1
102
RTVSPropertyOp14
 70
     1
102
RTVSPropertyOp15
 70
     1
102
RTVSPropertyOp16
 70
     1
102
RTVSPropertyOp17
 70
     1
102
RTVSPropertyOp18
 70
     1
102
RTVSPropertyOp19
 70
     1
102
RTVSPropertyOp20
 70
     1
102
RTVSPropertyOp21
 70
     1
102
RTVSPropertyOp22
 70
     1
102
RTVSPropertyOp23
 70
     1
102
RTVSPropertyOp24
 70
     1
102
RTVSPropertyOp25
 70
     1
102
RTVSPropertyOp26
 70
     1
102
RTVSPropertyOp27
 70
     1
102
RTVSPropertyOp28
 70
     1
102
RTVSPropertyOp29
 70
     1
102
RTVSPropertyOp30
 70
     1
102
RTVSPropertyOp31
 70
     1
102
RTVSPropertyOp32
 70
     1
  0
XRECORD
  5
361
102
{ACAD_REACTORS
330
360
102
}
330
360
100
AcDbXrecord
280
     1
102
RTVSPropertyOp0
 70
     1
102
RTVSPropertyOp1
 70
     1
102
RTVSPropertyOp2
 70
     1
102
RTVSPropertyOp3
 70
     1
102
RTVSPropertyOp4
 70
     1
102
RTVSPropertyOp5
 70
     1
102
RTVSPropertyOp6
 70
     1
102
RTVSPropertyOp7
 70
     1
102
RTVSPropertyOp8
 70
     1
102
RTVSPropertyOp9
 70
     1
102
RTVSPropertyOp10
 70
     1
102
RTVSPropertyOp11
 70
     1
102
RTVSPropertyOp12
 70
     1
102
RTVSPropertyOp13
 70
     1
102
RTVSPropertyOp14
 70
     1
102
RTVSPropertyOp15
 70
     1
102
RTVSPropertyOp16
 70
     1
102
RTVSPropertyOp17
 70
     1
102
RTVSPropertyOp18
 70
     1
102
RTVSPropertyOp19
 70
     1
102
RTVSPropertyOp20
 70
     1
102
RTVSPropertyOp21
 70
     1
102
RTVSPropertyOp22
 70
     1
102
RTVSPropertyOp23
 70
     1
102
RTVSPropertyOp24
 70
     1
102
RTVSPropertyOp25
 70
     1
102
RTVSPropertyOp26
 70
     1
102
RTVSPropertyOp27
 70
     1
102
RTVSPropertyOp28
 70
     1
102
RTVSPropertyOp29
 70
     1
102
RTVSPropertyOp30
 70
     1
102
RTVSPropertyOp31
 70
     1
102
RTVSPropertyOp32
 70
     1
  0
XRECORD
  5
369
102
{ACAD_REACTORS
330
368
102
}
330
368
100
AcDbXrecord
280
     1
102
RTVSPropertyOp0
 70
     1
102
RTVSPropertyOp1
 70
     1
102
RTVSPropertyOp2
 70
     1
102
RTVSPropertyOp3
 70
     1
102
RTVSPropertyOp4
 70
     1
102
RTVSPropertyOp5
 70
     1
102
RTVSPropertyOp6
 70
     1
102
RTVSPropertyOp7
 70
     1
102
RTVSPropertyOp8
 70
     1
102
RTVSPropertyOp9
 70
     1
102
RTVSPropertyOp10
 70
     1
102
RTVSPropertyOp11
 70
     1
102
RTVSPropertyOp12
 70
     1
102
RTVSPropertyOp13
 70
     1
102
RTVSPropertyOp14
 70
     1
102
RTVSPropertyOp15
 70
     1
102
RTVSPropertyOp16
 70
     1
102
RTVSPropertyOp17
 70
     1
102
RTVSPropertyOp18
 70
     1
102
RTVSPropertyOp19
 70
     1
102
RTVSPropertyOp20
 70
     1
102
RTVSPropertyOp21
 70
     1
102
RTVSPropertyOp22
 70
     1
102
RTVSPropertyOp23
 70
     1
102
RTVSPropertyOp24
 70
     1
102
RTVSPropertyOp25
 70
     1
102
RTVSPropertyOp26
 70
     1
102
RTVSPropertyOp27
 70
     1
102
RTVSPropertyOp28
 70
     1
102
RTVSPropertyOp29
 70
     1
102
RTVSPropertyOp30
 70
     1
102
RTVSPropertyOp31
 70
     1
102
RTVSPropertyOp32
 70
     1
  0
XRECORD
  5
371
102
{ACAD_REACTORS
330
370
102
}
330
370
100
AcDbXrecord
280
     1
102
RTVSPropertyOp0
 70
     1
102
RTVSPropertyOp1
 70
     1
102
RTVSPropertyOp2
 70
     1
102
RTVSPropertyOp3
 70
     1
102
RTVSPropertyOp4
 70
     1
102
RTVSPropertyOp5
 70
     1
102
RTVSPropertyOp6
 70
     1
102
RTVSPropertyOp7
 70
     1
102
RTVSPropertyOp8
 70
     1
102
RTVSPropertyOp9
 70
     1
102
RTVSPropertyOp10
 70
     1
102
RTVSPropertyOp11
 70
     1
102
RTVSPropertyOp12
 70
     1
102
RTVSPropertyOp13
 70
     1
102
RTVSPropertyOp14
 70
     1
102
RTVSPropertyOp15
 70
     1
102
RTVSPropertyOp16
 70
     1
102
RTVSPropertyOp17
 70
     1
102
RTVSPropertyOp18
 70
     1
102
RTVSPropertyOp19
 70
     1
102
RTVSPropertyOp20
 70
     1
102
RTVSPropertyOp21
 70
     1
102
RTVSPropertyOp22
 70
     1
102
RTVSPropertyOp23
 70
     1
102
RTVSPropertyOp24
 70
     1
102
RTVSPropertyOp25
 70
     1
102
RTVSPropertyOp26
 70
     1
102
RTVSPropertyOp27
 70
     1
102
RTVSPropertyOp28
 70
     1
102
RTVSPropertyOp29
 70
     1
102
RTVSPropertyOp30
 70
     1
102
RTVSPropertyOp31
 70
     1
102
RTVSPropertyOp32
 70
     1
  0
XRECORD
  5
365
102
{ACAD_REACTORS
330
364
102
}
330
364
100
AcDbXrecord
280
     1
102
RTVSPropertyOp0
 70
     1
102
RTVSPropertyOp1
 70
     1
102
RTVSPropertyOp2
 70
     1
102
RTVSPropertyOp3
 70
     1
102
RTVSPropertyOp4
 70
     1
102
RTVSPropertyOp5
 70
     1
102
RTVSPropertyOp6
 70
     1
102
RTVSPropertyOp7
 70
     1
102
RTVSPropertyOp8
 70
     1
102
RTVSPropertyOp9
 70
     1
102
RTVSPropertyOp10
 70
     1
102
RTVSPropertyOp11
 70
     1
102
RTVSPropertyOp12
 70
     1
102
RTVSPropertyOp13
 70
     1
102
RTVSPropertyOp14
 70
     1
102
RTVSPropertyOp15
 70
     1
102
RTVSPropertyOp16
 70
     1
102
RTVSPropertyOp17
 70
     1
102
RTVSPropertyOp18
 70
     1
102
RTVSPropertyOp19
 70
     1
102
RTVSPropertyOp20
 70
     1
102
RTVSPropertyOp21
 70
     1
102
RTVSPropertyOp22
 70
     1
102
RTVSPropertyOp23
 70
     1
102
RTVSPropertyOp24
 70
     1
102
RTVSPropertyOp25
 70
     1
102
RTVSPropertyOp26
 70
     1
102
RTVSPropertyOp27
 70
     1
102
RTVSPropertyOp28
 70
     1
102
RTVSPropertyOp29
 70
     1
102
RTVSPropertyOp30
 70
     1
102
RTVSPropertyOp31
 70
     1
102
RTVSPropertyOp32
 70
     1
  0
XRECORD
  5
367
102
{ACAD_REACTORS
330
366
102
}
330
366
100
AcDbXrecord
280
     1
102
RTVSPropertyOp0
 70
     1
102
RTVSPropertyOp1
 70
     1
102
RTVSPropertyOp2
 70
     1
102
RTVSPropertyOp3
 70
     1
102
RTVSPropertyOp4
 70
     1
102
RTVSPropertyOp5
 70
     1
102
RTVSPropertyOp6
 70
     1
102
RTVSPropertyOp7
 70
     1
102
RTVSPropertyOp8
 70
     1
102
RTVSPropertyOp9
 70
     1
102
RTVSPropertyOp10
 70
     1
102
RTVSPropertyOp11
 70
     1
102
RTVSPropertyOp12
 70
     1
102
RTVSPropertyOp13
 70
     1
102
RTVSPropertyOp14
 70
     1
102
RTVSPropertyOp15
 70
     1
102
RTVSPropertyOp16
 70
     1
102
RTVSPropertyOp17
 70
     1
102
RTVSPropertyOp18
 70
     1
102
RTVSPropertyOp19
 70
     1
102
RTVSPropertyOp20
 70
     1
102
RTVSPropertyOp21
 70
     1
102
RTVSPropertyOp22
 70
     1
102
RTVSPropertyOp23
 70
     1
102
RTVSPropertyOp24
 70
     1
102
RTVSPropertyOp25
 70
     1
102
RTVSPropertyOp26
 70
     1
102
RTVSPropertyOp27
 70
     1
102
RTVSPropertyOp28
 70
     1
102
RTVSPropertyOp29
 70
     1
102
RTVSPropertyOp30
 70
     1
102
RTVSPropertyOp31
 70
     1
102
RTVSPropertyOp32
 70
     1
  0
XRECORD
  5
36F
102
{ACAD_REACTORS
330
36E
102
}
330
36E
100
AcDbXrecord
280
     1
102
RTVSPropertyOp0
 70
     1
102
RTVSPropertyOp1
 70
     1
102
RTVSPropertyOp2
 70
     1
102
RTVSPropertyOp3
 70
     1
102
RTVSPropertyOp4
 70
     1
102
RTVSPropertyOp5
 70
     1
102
RTVSPropertyOp6
 70
     1
102
RTVSPropertyOp7
 70
     1
102
RTVSPropertyOp8
 70
     1
102
RTVSPropertyOp9
 70
     1
102
RTVSPropertyOp10
 70
     1
102
RTVSPropertyOp11
 70
     1
102
RTVSPropertyOp12
 70
     1
102
RTVSPropertyOp13
 70
     1
102
RTVSPropertyOp14
 70
     1
102
RTVSPropertyOp15
 70
     1
102
RTVSPropertyOp16
 70
     1
102
RTVSPropertyOp17
 70
     1
102
RTVSPropertyOp18
 70
     1
102
RTVSPropertyOp19
 70
     1
102
RTVSPropertyOp20
 70
     1
102
RTVSPropertyOp21
 70
     1
102
RTVSPropertyOp22
 70
     1
102
RTVSPropertyOp23
 70
     1
102
RTVSPropertyOp24
 70
     1
102
RTVSPropertyOp25
 70
     1
102
RTVSPropertyOp26
 70
     1
102
RTVSPropertyOp27
 70
     1
102
RTVSPropertyOp28
 70
     1
102
RTVSPropertyOp29
 70
     1
102
RTVSPropertyOp30
 70
     1
102
RTVSPropertyOp31
 70
     1
102
RTVSPropertyOp32
 70
     1
  0
XRECORD
  5
353
102
{ACAD_REACTORS
330
352
102
}
330
352
100
AcDbXrecord
280
     1
102
RTVSPropertyOp0
 70
     1
102
RTVSPropertyOp1
 70
     1
102
RTVSPropertyOp2
 70
     1
102
RTVSPropertyOp3
 70
     1
102
RTVSPropertyOp4
 70
     1
102
RTVSPropertyOp5
 70
     1
102
RTVSPropertyOp6
 70
     1
102
RTVSPropertyOp7
 70
     1
102
RTVSPropertyOp8
 70
     1
102
RTVSPropertyOp9
 70
     1
102
RTVSPropertyOp10
 70
     1
102
RTVSPropertyOp11
 70
     1
102
RTVSPropertyOp12
 70
     1
102
RTVSPropertyOp13
 70
     1
102
RTVSPropertyOp14
 70
     1
102
RTVSPropertyOp15
 70
     1
102
RTVSPropertyOp16
 70
     1
102
RTVSPropertyOp17
 70
     1
102
RTVSPropertyOp18
 70
     1
102
RTVSPropertyOp19
 70
     1
102
RTVSPropertyOp20
 70
     1
102
RTVSPropertyOp21
 70
     1
102
RTVSPropertyOp22
 70
     1
102
RTVSPropertyOp23
 70
     1
102
RTVSPropertyOp24
 70
     1
102
RTVSPropertyOp25
 70
     1
102
RTVSPropertyOp26
 70
     1
102
RTVSPropertyOp27
 70
     1
102
RTVSPropertyOp28
 70
     1
102
RTVSPropertyOp29
 70
     1
102
RTVSPropertyOp30
 70
     1
102
RTVSPropertyOp31
 70
     1
102
RTVSPropertyOp32
 70
     1
  0
XRECORD
  5
355
102
{ACAD_REACTORS
330
354
102
}
330
354
100
AcDbXrecord
280
     1
102
RTVSPropertyOp0
 70
     1
102
RTVSPropertyOp1
 70
     1
102
RTVSPropertyOp2
 70
     1
102
RTVSPropertyOp3
 70
     1
102
RTVSPropertyOp4
 70
     1
102
RTVSPropertyOp5
 70
     1
102
RTVSPropertyOp6
 70
     1
102
RTVSPropertyOp7
 70
     1
102
RTVSPropertyOp8
 70
     1
102
RTVSPropertyOp9
 70
     1
102
RTVSPropertyOp10
 70
     1
102
RTVSPropertyOp11
 70
     1
102
RTVSPropertyOp12
 70
     1
102
RTVSPropertyOp13
 70
     1
102
RTVSPropertyOp14
 70
     1
102
RTVSPropertyOp15
 70
     1
102
RTVSPropertyOp16
 70
     1
102
RTVSPropertyOp17
 70
     1
102
RTVSPropertyOp18
 70
     1
102
RTVSPropertyOp19
 70
     1
102
RTVSPropertyOp20
 70
     1
102
RTVSPropertyOp21
 70
     1
102
RTVSPropertyOp22
 70
     1
102
RTVSPropertyOp23
 70
     1
102
RTVSPropertyOp24
 70
     1
102
RTVSPropertyOp25
 70
     1
102
RTVSPropertyOp26
 70
     1
102
RTVSPropertyOp27
 70
     1
102
RTVSPropertyOp28
 70
     1
102
RTVSPropertyOp29
 70
     1
102
RTVSPropertyOp30
 70
     1
102
RTVSPropertyOp31
 70
     1
102
RTVSPropertyOp32
 70
     1
  0
XRECORD
  5
357
102
{ACAD_REACTORS
330
356
102
}
330
356
100
AcDbXrecord
280
     1
102
RTVSPropertyOp0
 70
     1
102
RTVSPropertyOp1
 70
     1
102
RTVSPropertyOp2
 70
     1
102
RTVSPropertyOp3
 70
     1
102
RTVSPropertyOp4
 70
     1
102
RTVSPropertyOp5
 70
     1
102
RTVSPropertyOp6
 70
     1
102
RTVSPropertyOp7
 70
     1
102
RTVSPropertyOp8
 70
     1
102
RTVSPropertyOp9
 70
     1
102
RTVSPropertyOp10
 70
     1
102
RTVSPropertyOp11
 70
     1
102
RTVSPropertyOp12
 70
     1
102
RTVSPropertyOp13
 70
     1
102
RTVSPropertyOp14
 70
     1
102
RTVSPropertyOp15
 70
     1
102
RTVSPropertyOp16
 70
     1
102
RTVSPropertyOp17
 70
     1
102
RTVSPropertyOp18
 70
     1
102
RTVSPropertyOp19
 70
     1
102
RTVSPropertyOp20
 70
     1
102
RTVSPropertyOp21
 70
     1
102
RTVSPropertyOp22
 70
     1
102
RTVSPropertyOp23
 70
     1
102
RTVSPropertyOp24
 70
     1
102
RTVSPropertyOp25
 70
     1
102
RTVSPropertyOp26
 70
     1
102
RTVSPropertyOp27
 70
     1
102
RTVSPropertyOp28
 70
     1
102
RTVSPropertyOp29
 70
     1
102
RTVSPropertyOp30
 70
     1
102
RTVSPropertyOp31
 70
     1
102
RTVSPropertyOp32
 70
     1
  0
XRECORD
  5
359
102
{ACAD_REACTORS
330
358
102
}
330
358
100
AcDbXrecord
280
     1
102
RTVSPropertyOp0
 70
     1
102
RTVSPropertyOp1
 70
     1
102
RTVSPropertyOp2
 70
     1
102
RTVSPropertyOp3
 70
     1
102
RTVSPropertyOp4
 70
     1
102
RTVSPropertyOp5
 70
     1
102
RTVSPropertyOp6
 70
     1
102
RTVSPropertyOp7
 70
     1
102
RTVSPropertyOp8
 70
     1
102
RTVSPropertyOp9
 70
     1
102
RTVSPropertyOp10
 70
     1
102
RTVSPropertyOp11
 70
     1
102
RTVSPropertyOp12
 70
     1
102
RTVSPropertyOp13
 70
     1
102
RTVSPropertyOp14
 70
     1
102
RTVSPropertyOp15
 70
     1
102
RTVSPropertyOp16
 70
     1
102
RTVSPropertyOp17
 70
     1
102
RTVSPropertyOp18
 70
     1
102
RTVSPropertyOp19
 70
     1
102
RTVSPropertyOp20
 70
     1
102
RTVSPropertyOp21
 70
     1
102
RTVSPropertyOp22
 70
     1
102
RTVSPropertyOp23
 70
     1
102
RTVSPropertyOp24
 70
     1
102
RTVSPropertyOp25
 70
     1
102
RTVSPropertyOp26
 70
     1
102
RTVSPropertyOp27
 70
     1
102
RTVSPropertyOp28
 70
     1
102
RTVSPropertyOp29
 70
     1
102
RTVSPropertyOp30
 70
     1
102
RTVSPropertyOp31
 70
     1
102
RTVSPropertyOp32
 70
     1
  0
XRECORD
  5
36D
102
{ACAD_REACTORS
330
36C
102
}
330
36C
100
AcDbXrecord
280
     1
102
RTVSPropertyOp0
 70
     1
102
RTVSPropertyOp1
 70
     1
102
RTVSPropertyOp2
 70
     1
102
RTVSPropertyOp3
 70
     1
102
RTVSPropertyOp4
 70
     1
102
RTVSPropertyOp5
 70
     1
102
RTVSPropertyOp6
 70
     1
102
RTVSPropertyOp7
 70
     1
102
RTVSPropertyOp8
 70
     1
102
RTVSPropertyOp9
 70
     1
102
RTVSPropertyOp10
 70
     1
102
RTVSPropertyOp11
 70
     1
102
RTVSPropertyOp12
 70
     1
102
RTVSPropertyOp13
 70
     1
102
RTVSPropertyOp14
 70
     1
102
RTVSPropertyOp15
 70
     1
102
RTVSPropertyOp16
 70
     1
102
RTVSPropertyOp17
 70
     1
102
RTVSPropertyOp18
 70
     1
102
RTVSPropertyOp19
 70
     1
102
RTVSPropertyOp20
 70
     1
102
RTVSPropertyOp21
 70
     1
102
RTVSPropertyOp22
 70
     1
102
RTVSPropertyOp23
 70
     1
102
RTVSPropertyOp24
 70
     1
102
RTVSPropertyOp25
 70
     1
102
RTVSPropertyOp26
 70
     1
102
RTVSPropertyOp27
 70
     1
102
RTVSPropertyOp28
 70
     1
102
RTVSPropertyOp29
 70
     1
102
RTVSPropertyOp30
 70
     1
102
RTVSPropertyOp31
 70
     1
102
RTVSPropertyOp32
 70
     1
  0
XRECORD
  5
363
102
{ACAD_REACTORS
330
362
102
}
330
362
100
AcDbXrecord
280
     1
102
RTVSPropertyOp0
 70
     1
102
RTVSPropertyOp1
 70
     1
102
RTVSPropertyOp2
 70
     1
102
RTVSPropertyOp3
 70
     1
102
RTVSPropertyOp4
 70
     1
102
RTVSPropertyOp5
 70
     1
102
RTVSPropertyOp6
 70
     1
102
RTVSPropertyOp7
 70
     1
102
RTVSPropertyOp8
 70
     1
102
RTVSPropertyOp9
 70
     1
102
RTVSPropertyOp10
 70
     1
102
RTVSPropertyOp11
 70
     1
102
RTVSPropertyOp12
 70
     1
102
RTVSPropertyOp13
 70
     1
102
RTVSPropertyOp14
 70
     1
102
RTVSPropertyOp15
 70
     1
102
RTVSPropertyOp16
 70
     1
102
RTVSPropertyOp17
 70
     1
102
RTVSPropertyOp18
 70
     1
102
RTVSPropertyOp19
 70
     1
102
RTVSPropertyOp20
 70
     1
102
RTVSPropertyOp21
 70
     1
102
RTVSPropertyOp22
 70
     1
102
RTVSPropertyOp23
 70
     1
102
RTVSPropertyOp24
 70
     1
102
RTVSPropertyOp25
 70
     1
102
RTVSPropertyOp26
 70
     1
102
RTVSPropertyOp27
 70
     1
102
RTVSPropertyOp28
 70
     1
102
RTVSPropertyOp29
 70
     1
102
RTVSPropertyOp30
 70
     1
102
RTVSPropertyOp31
 70
     1
102
RTVSPropertyOp32
 70
     1
  0
XRECORD
  5
36B
102
{ACAD_REACTORS
330
36A
102
}
330
36A
100
AcDbXrecord
280
     1
102
RTVSPropertyOp0
 70
     1
102
RTVSPropertyOp1
 70
     1
102
RTVSPropertyOp2
 70
     1
102
RTVSPropertyOp3
 70
     1
102
RTVSPropertyOp4
 70
     1
102
RTVSPropertyOp5
 70
     1
102
RTVSPropertyOp6
 70
     1
102
RTVSPropertyOp7
 70
     1
102
RTVSPropertyOp8
 70
     1
102
RTVSPropertyOp9
 70
     1
102
RTVSPropertyOp10
 70
     1
102
RTVSPropertyOp11
 70
     1
102
RTVSPropertyOp12
 70
     1
102
RTVSPropertyOp13
 70
     1
102
RTVSPropertyOp14
 70
     1
102
RTVSPropertyOp15
 70
     1
102
RTVSPropertyOp16
 70
     1
102
RTVSPropertyOp17
 70
     1
102
RTVSPropertyOp18
 70
     1
102
RTVSPropertyOp19
 70
     1
102
RTVSPropertyOp20
 70
     1
102
RTVSPropertyOp21
 70
     1
102
RTVSPropertyOp22
 70
     1
102
RTVSPropertyOp23
 70
     1
102
RTVSPropertyOp24
 70
     1
102
RTVSPropertyOp25
 70
     1
102
RTVSPropertyOp26
 70
     1
102
RTVSPropertyOp27
 70
     1
102
RTVSPropertyOp28
 70
     1
102
RTVSPropertyOp29
 70
     1
102
RTVSPropertyOp30
 70
     1
102
RTVSPropertyOp31
 70
     1
102
RTVSPropertyOp32
 70
     1
  0
ENDSEC
  0
EOF
