  0
SECTION
  2
HEADER
  9
$ACADVER
  1
AC1018
  9
$ACADMAINTVER
 70
     0
  9
$DWGCODEPAGE
  3
ANSI_932
  9
$INSBASE
 10
0.0
 20
0.0
 30
0.0
  9
$EXTMIN
 10
-105.0
 20
-148.5
 30
0.0
  9
$EXTMAX
 10
105.0
 20
148.5
 30
0.0
  9
$LIMMIN
 10
-105.0
 20
-148.5
  9
$LIMMAX
 10
105.0
 20
148.5
  9
$ORTHOMODE
 70
     0
  9
$REGENMODE
 70
     1
  9
$FILLMODE
 70
     1
  9
$QTEXTMODE
 70
     0
  9
$MIRRTEXT
 70
     1
  9
$LTSCALE
 40
1.0
  9
$ATTMODE
 70
     1
  9
$TEXTSIZE
 40
2.5
  9
$TRACEWID
 40
1.0
  9
$TEXTSTYLE
  7
Standard
  9
$CLAYER
  8
0
  9
$CELTYPE
  6
ByLayer
  9
$CECOLOR
 62
   256
  9
$CELTSCALE
 40
1.0
  9
$DISPSILH
 70
     0
  9
$DIMSCALE
 40
1.0
  9
$DIMASZ
 40
2.5
  9
$DIMEXO
 40
0.625
  9
$DIMDLI
 40
3.75
  9
$DIMRND
 40
0.0
  9
$DIMDLE
 40
0.0
  9
$DIMEXE
 40
1.25
  9
$DIMTP
 40
0.0
  9
$DIMTM
 40
0.0
  9
$DIMTXT
 40
2.5
  9
$DIMCEN
 40
2.5
  9
$DIMTSZ
 40
0.0
  9
$DIMTOL
 70
     0
  9
$DIMLIM
 70
     0
  9
$DIMTIH
 70
     0
  9
$DIMTOH
 70
     0
  9
$DIMSE1
 70
     0
  9
$DIMSE2
 70
     0
  9
$DIMTAD
 70
     1
  9
$DIMZIN
 70
     8
  9
$DIMBLK
  1

  9
$DIMASO
 70
     1
  9
$DIMSHO
 70
     1
  9
$DIMPOST
  1

  9
$DIMAPOST
  1

  9
$DIMALT
 70
     0
  9
$DIMALTD
 70
     3
  9
$DIMALTF
 40
0.03937007874016
  9
$DIMLFAC
 40
1.0
  9
$DIMTOFL
 70
     1
  9
$DIMTVP
 40
0.0
  9
$DIMTIX
 70
     0
  9
$DIMSOXD
 70
     0
  9
$DIMSAH
 70
     0
  9
$DIMBLK1
  1

  9
$DIMBLK2
  1

  9
$DIMSTYLE
  2
ISO-25
  9
$DIMCLRD
 70
     0
  9
$DIMCLRE
 70
     0
  9
$DIMCLRT
 70
     0
  9
$DIMTFAC
 40
1.0
  9
$DIMGAP
 40
0.625
  9
$DIMJUST
 70
     0
  9
$DIMSD1
 70
     0
  9
$DIMSD2
 70
     0
  9
$DIMTOLJ
 70
     0
  9
$DIMTZIN
 70
     8
  9
$DIMALTZ
 70
     0
  9
$DIMALTTZ
 70
     0
  9
$DIMUPT
 70
     0
  9
$DIMDEC
 70
     2
  9
$DIMTDEC
 70
     2
  9
$DIMALTU
 70
     2
  9
$DIMALTTD
 70
     3
  9
$DIMTXSTY
  7
Standard
  9
$DIMAUNIT
 70
     0
  9
$DIMADEC
 70
     0
  9
$DIMALTRND
 40
0.0
  9
$DIMAZIN
 70
     0
  9
$DIMDSEP
 70
    44
  9
$DIMATFIT
 70
     3
  9
$DIMFRAC
 70
     0
  9
$DIMLDRBLK
  1

  9
$DIMLUNIT
 70
     2
  9
$DIMLWD
 70
    -2
  9
$DIMLWE
 70
    -2
  9
$DIMTMOVE
 70
     0
  9
$LUNITS
 70
     2
  9
$LUPREC
 70
     4
  9
$SKETCHINC
 40
1.0
  9
$FILLETRAD
 40
10.0
  9
$AUNITS
 70
     0
  9
$AUPREC
 70
     0
  9
$MENU
  1
.
  9
$ELEVATION
 40
0.0
  9
$PELEVATION
 40
0.0
  9
$THICKNESS
 40
0.0
  9
$LIMCHECK
 70
     0
  9
$CHAMFERA
 40
10.0
  9
$CHAMFERB
 40
10.0
  9
$CHAMFERC
 40
20.0
  9
$CHAMFERD
 40
0.0
  9
$SKPOLY
 70
     0
  9
$TDCREATE
 40
2457284.576963923
  9
$TDUCREATE
 40
2457284.201963923
  9
$TDUPDATE
 40
2457284.576964248
  9
$TDUUPDATE
 40
2457284.201964248
  9
$TDINDWG
 40
0.0000000116
  9
$TDUSRTIMER
 40
0.0000000116
  9
$USRTIMER
 70
     1
  9
$ANGBASE
 50
0.0
  9
$ANGDIR
 70
     0
  9
$PDMODE
 70
     0
  9
$PDSIZE
 40
0.0
  9
$PLINEWID
 40
0.0
  9
$SPLFRAME
 70
     0
  9
$SPLINETYPE
 70
     6
  9
$SPLINESEGS
 70
     8
  9
$HANDSEED
  5
281
  9
$SURFTAB1
 70
     6
  9
$SURFTAB2
 70
     6
  9
$SURFTYPE
 70
     6
  9
$SURFU
 70
     6
  9
$SURFV
 70
     6
  9
$UCSBASE
  2

  9
$UCSNAME
  2

  9
$UCSORG
 10
0.0
 20
0.0
 30
0.0
  9
$UCSXDIR
 10
1.0
 20
0.0
 30
0.0
  9
$UCSYDIR
 10
0.0
 20
1.0
 30
0.0
  9
$UCSORTHOREF
  2

  9
$UCSORTHOVIEW
 70
     0
  9
$UCSORGTOP
 10
0.0
 20
0.0
 30
0.0
  9
$UCSORGBOTTOM
 10
0.0
 20
0.0
 30
0.0
  9
$UCSORGLEFT
 10
0.0
 20
0.0
 30
0.0
  9
$UCSORGRIGHT
 10
0.0
 20
0.0
 30
0.0
  9
$UCSORGFRONT
 10
0.0
 20
0.0
 30
0.0
  9
$UCSORGBACK
 10
0.0
 20
0.0
 30
0.0
  9
$PUCSBASE
  2

  9
$PUCSNAME
  2

  9
$PUCSORG
 10
0.0
 20
0.0
 30
0.0
  9
$PUCSXDIR
 10
1.0
 20
0.0
 30
0.0
  9
$PUCSYDIR
 10
0.0
 20
1.0
 30
0.0
  9
$PUCSORTHOREF
  2

  9
$PUCSORTHOVIEW
 70
     0
  9
$PUCSORGTOP
 10
0.0
 20
0.0
 30
0.0
  9
$PUCSORGBOTTOM
 10
0.0
 20
0.0
 30
0.0
  9
$PUCSORGLEFT
 10
0.0
 20
0.0
 30
0.0
  9
$PUCSORGRIGHT
 10
0.0
 20
0.0
 30
0.0
  9
$PUCSORGFRONT
 10
0.0
 20
0.0
 30
0.0
  9
$PUCSORGBACK
 10
0.0
 20
0.0
 30
0.0
  9
$USERI1
 70
     0
  9
$USERI2
 70
     0
  9
$USERI3
 70
     0
  9
$USERI4
 70
     0
  9
$USERI5
 70
     0
  9
$USERR1
 40
0.0
  9
$USERR2
 40
0.0
  9
$USERR3
 40
0.0
  9
$USERR4
 40
0.0
  9
$USERR5
 40
0.0
  9
$WORLDVIEW
 70
     1
  9
$SHADEDGE
 70
     3
  9
$SHADEDIF
 70
    70
  9
$TILEMODE
 70
     1
  9
$MAXACTVP
 70
    64
  9
$PINSBASE
 10
0.0
 20
0.0
 30
0.0
  9
$PLIMCHECK
 70
     0
  9
$PEXTMIN
 10
1.000000000000000E+20
 20
1.000000000000000E+20
 30
1.000000000000000E+20
  9
$PEXTMAX
 10
-1.000000000000000E+20
 20
-1.000000000000000E+20
 30
-1.000000000000000E+20
  9
$PLIMMIN
 10
-105.0
 20
-148.5
  9
$PLIMMAX
 10
105.0
 20
148.5
  9
$UNITMODE
 70
     0
  9
$VISRETAIN
 70
     1
  9
$PLINEGEN
 70
     0
  9
$PSLTSCALE
 70
     1
  9
$TREEDEPTH
 70
  3020
  9
$CMLSTYLE
  2
Standard
  9
$CMLJUST
 70
     0
  9
$CMLSCALE
 40
20.0
  9
$PROXYGRAPHICS
 70
     1
  9
$MEASUREMENT
 70
     1
  9
$CELWEIGHT
370
    -1
  9
$ENDCAPS
280
     0
  9
$JOINSTYLE
280
     0
  9
$LWDISPLAY
290
     0
  9
$INSUNITS
 70
     4
  9
$HYPERLINKBASE
  1

  9
$STYLESHEET
  1

  9
$XEDIT
290
     1
  9
$CEPSNTYPE
380
     0
  9
$PSTYLEMODE
290
     1
  9
$FINGERPRINTGUID
  2
{AD323B2B-222D-4D03-95D2-8C00FDDE2CCD}
  9
$VERSIONGUID
  2
{FAEB1C32-E019-11D5-929B-00C0DF256EC4}
  9
$EXTNAMES
290
     1
  9
$PSVPSCALE
 40
0.0
  9
$OLESTARTUP
290
     0
  9
$SORTENTS
280
   127
  9
$INDEXCTL
280
     0
  9
$HIDETEXT
280
     1
  9
$XCLIPFRAME
290
     0
  9
$HALOGAP
280
     0
  9
$OBSCOLOR
 70
   257
  9
$OBSLTYPE
280
     0
  9
$INTERSECTIONDISPLAY
280
     0
  9
$INTERSECTIONCOLOR
 70
   257
  9
$DIMASSOC
280
     2
  9
$PROJECTNAME
  1

  0
ENDSEC
  0
SECTION
  2
CLASSES
  0
CLASS
  1
ACDBDICTIONARYWDFLT
  2
AcDbDictionaryWithDefault
  3
ObjectDBX Classes
 90
        0
 91
        4
280
     0
281
     0
  0
CLASS
  1
VISUALSTYLE
  2
AcDbVisualStyle
  3
ObjectDBX Classes
 90
     4095
 91
        4
280
     0
281
     0
  0
CLASS
  1
MATERIAL
  2
AcDbMaterial
  3
ObjectDBX Classes
 90
     1153
 91
        4
280
     0
281
     0
  0
CLASS
  1
SUN
  2
AcDbSun
  3
SCENEOE
 90
     1024
 91
        4
280
     0
281
     0
  0
ENDSEC
  0
SECTION
  2
TABLES
  0
TABLE
  2
VPORT
  5
8
330
0
100
AcDbSymbolTable
 70
     1
  0
VPORT
  5
29
330
8
100
AcDbSymbolTableRecord
100
AcDbViewportTableRecord
  2
*Active
 70
     0
 10
0.0
 20
0.0
 11
1.0
 21
1.0
 12
344.1869158878504
 22
148.5
 13
0.0
 23
0.0
 14
10.0
 24
10.0
 15
10.0
 25
10.0
 16
0.0
 26
0.0
 36
1.0
 17
0.0
 27
0.0
 37
0.0
 40
297.0
 41
1.972972972850329
 42
50.0
 43
0.0
 44
0.0
 50
0.0
 51
0.0
 71
     0
 72
   100
 73
     1
 74
     3
 75
     0
 76
     0
 77
     0
 78
     0
281
     0
 65
     1
110
0.0
120
0.0
130
0.0
111
1.0
121
0.0
131
0.0
112
0.0
122
1.0
132
0.0
 79
     0
146
0.0
  0
ENDTAB
  0
TABLE
  2
LTYPE
  5
5
330
0
100
AcDbSymbolTable
 70
     5
  0
LTYPE
  5
14
330
5
100
AcDbSymbolTableRecord
100
AcDbLinetypeTableRecord
  2
ByBlock
 70
     0
  3

 72
    65
 73
     0
 40
0.0
  0
LTYPE
  5
15
330
5
100
AcDbSymbolTableRecord
100
AcDbLinetypeTableRecord
  2
ByLayer
 70
     0
  3

 72
    65
 73
     0
 40
0.0
  0
LTYPE
  5
16
330
5
100
AcDbSymbolTableRecord
100
AcDbLinetypeTableRecord
  2
Continuous
 70
     0
  3
Solid line
 72
    65
 73
     0
 40
0.0
  0
LTYPE
  5
40
330
5
100
AcDbSymbolTableRecord
100
AcDbLinetypeTableRecord
  2
CONTINOUS
 70
     0
  3
______________________________
 72
    65
 73
     0
 40
0.0
  0
LTYPE
  5
41
330
5
100
AcDbSymbolTableRecord
100
AcDbLinetypeTableRecord
  2
DASHED
 70
     0
  3
__ __ __ __ __ __ __ __ __ __ __ __ __ __ __ __
 72
    65
 73
     2
 40
4.5
 49
3.0
 74
     0
 49
-1.5
 74
     0
  0
LTYPE
  5
42
330
5
100
AcDbSymbolTableRecord
100
AcDbLinetypeTableRecord
  2
PHANTOM
 70
     0
  3
______  __  __  ______  __  __  _____
 72
    65
 73
     6
 40
15.0
 49
7.5
 74
     0
 49
-1.5
 74
     0
 49
1.5
 74
     0
 49
-1.5
 74
     0
 49
1.5
 74
     0
 49
-1.5
 74
     0
  0
LTYPE
  5
43
330
5
100
AcDbSymbolTableRecord
100
AcDbLinetypeTableRecord
  2
CENTER
 70
     0
  3
____ _ ____ _ ____ _ ____ _ ____ _ ____
 72
    65
 73
     4
 40
12.0
 49
7.5
 74
     0
 49
-1.5
 74
     0
 49
1.5
 74
     0
 49
-1.5
 74
     0
  0
ENDTAB
  0
TABLE
  2
LAYER
  5
2
330
0
100
AcDbSymbolTable
 70
     4
  0
LAYER
  5
10
330
2
100
AcDbSymbolTableRecord
100
AcDbLayerTableRecord
  2
0
 70
     0
 62
     7
  6
Continuous
370
    -3
390
F
  0
LAYER
  5
44
330
2
100
AcDbSymbolTableRecord
100
AcDbLayerTableRecord
  2
VIEW0001
 70
     0
 62
     7
  6
Continuous
370
    -3
390
F
  0
LAYER
  5
5C
330
2
100
AcDbSymbolTableRecord
100
AcDbLayerTableRecord
  2
VIEW0002
 70
     0
 62
     7
  6
Continuous
370
    -3
390
F
  0
LAYER
  5
1A7
330
2
100
AcDbSymbolTableRecord
100
AcDbLayerTableRecord
  2
Defpoints
 70
     0
 62
     7
  6
Continuous
290
     0
370
    -3
390
F
  0
ENDTAB
  0
TABLE
  2
STYLE
  5
3
330
0
100
AcDbSymbolTable
 70
     1
  0
STYLE
  5
11
330
3
100
AcDbSymbolTableRecord
100
AcDbTextStyleTableRecord
  2
Standard
 70
     0
 40
0.0
 41
1.0
 50
0.0
 71
     0
 42
2.5
  3
ROMANS
  4
BIGFONT
  0
ENDTAB
  0
TABLE
  2
VIEW
  5
6
330
0
100
AcDbSymbolTable
 70
     0
  0
ENDTAB
  0
TABLE
  2
UCS
  5
7
330
0
100
AcDbSymbolTable
 70
     0
  0
ENDTAB
  0
TABLE
  2
APPID
  5
9
330
0
100
AcDbSymbolTable
 70
     1
  0
APPID
  5
12
330
9
100
AcDbSymbolTableRecord
100
AcDbRegAppTableRecord
  2
ACAD
 70
     0
  0
ENDTAB
  0
TABLE
  2
DIMSTYLE
  5
A
330
0
100
AcDbSymbolTable
 70
     1
100
AcDbDimStyleTable
  0
DIMSTYLE
105
27
102
{ACAD_REACTORS
330
1A0
330
1B4
330
1C1
330
1CF
330
1DC
330
1E9
330
1F5
330
20B
330
218
330
225
330
232
330
23F
330
24C
102
}
330
A
100
AcDbSymbolTableRecord
100
AcDbDimStyleTableRecord
  2
ISO-25
 70
     0
 41
2.5
 42
0.625
 43
3.75
 44
1.25
 73
     0
 74
     0
 77
     1
 78
     8
140
2.5
141
2.5
143
0.03937007874016
147
0.625
171
     3
172
     1
178
     0
271
     2
272
     2
274
     3
278
    44
283
     0
284
     8
340
11
  0
ENDTAB
  0
TABLE
  2
BLOCK_RECORD
  5
1
330
0
100
AcDbSymbolTable
 70
    16
  0
BLOCK_RECORD
  5
1F
330
1
100
AcDbSymbolTableRecord
100
AcDbBlockTableRecord
  2
*Model_Space
340
22
  0
BLOCK_RECORD
  5
1B
330
1
100
AcDbSymbolTableRecord
100
AcDbBlockTableRecord
  2
*Paper_Space
340
1E
  0
BLOCK_RECORD
  5
23
330
1
100
AcDbSymbolTableRecord
100
AcDbBlockTableRecord
  2
*Paper_Space0
340
26
  0
BLOCK_RECORD
  5
1A1
330
1
100
AcDbSymbolTableRecord
100
AcDbBlockTableRecord
  2
_OPEN30
340
0
102
{BLKREFS
331
1AF
331
1AE
331
1BC
331
1BB
331
1CA
331
1C9
331
1D7
331
1D6
331
1E4
331
1E3
331
1F0
331
1EF
331
0
331
213
331
212
331
220
331
21F
331
0
331
23A
331
239
331
247
331
246
331
254
331
253
102
}
  0
BLOCK_RECORD
  5
1A8
330
1
100
AcDbSymbolTableRecord
100
AcDbBlockTableRecord
  2
*D2
340
0
  0
BLOCK_RECORD
  5
1B5
330
1
100
AcDbSymbolTableRecord
100
AcDbBlockTableRecord
  2
*D3
340
0
  0
BLOCK_RECORD
  5
1C2
330
1
100
AcDbSymbolTableRecord
100
AcDbBlockTableRecord
  2
*D4
340
0
  0
BLOCK_RECORD
  5
1D0
330
1
100
AcDbSymbolTableRecord
100
AcDbBlockTableRecord
  2
*D5
340
0
  0
BLOCK_RECORD
  5
1DD
330
1
100
AcDbSymbolTableRecord
100
AcDbBlockTableRecord
  2
*D6
340
0
  0
BLOCK_RECORD
  5
1EA
330
1
100
AcDbSymbolTableRecord
100
AcDbBlockTableRecord
  2
*D7
340
0
  0
BLOCK_RECORD
  5
1F6
330
1
100
AcDbSymbolTableRecord
100
AcDbBlockTableRecord
  2
_NONE
340
0
102
{BLKREFS
331
0
102
}
  0
BLOCK_RECORD
  5
1F9
330
1
100
AcDbSymbolTableRecord
100
AcDbBlockTableRecord
  2
*D9
340
0
  0
BLOCK_RECORD
  5
20C
330
1
100
AcDbSymbolTableRecord
100
AcDbBlockTableRecord
  2
*D10
340
0
  0
BLOCK_RECORD
  5
219
330
1
100
AcDbSymbolTableRecord
100
AcDbBlockTableRecord
  2
*D11
340
0
  0
BLOCK_RECORD
  5
226
330
1
100
AcDbSymbolTableRecord
100
AcDbBlockTableRecord
  2
*D12
340
0
  0
BLOCK_RECORD
  5
233
330
1
100
AcDbSymbolTableRecord
100
AcDbBlockTableRecord
  2
*D13
340
0
  0
BLOCK_RECORD
  5
240
330
1
100
AcDbSymbolTableRecord
100
AcDbBlockTableRecord
  2
*D14
340
0
  0
BLOCK_RECORD
  5
24D
330
1
100
AcDbSymbolTableRecord
100
AcDbBlockTableRecord
  2
*D15
340
0
  0
ENDTAB
  0
ENDSEC
  0
SECTION
  2
BLOCKS
  0
BLOCK
  5
20
330
1F
100
AcDbEntity
  8
0
100
AcDbBlockBegin
  2
*Model_Space
 70
     0
 10
0.0
 20
0.0
 30
0.0
  3
*Model_Space
  1

  0
ENDBLK
  5
21
330
1F
100
AcDbEntity
  8
0
100
AcDbBlockEnd
  0
BLOCK
  5
1C
330
1B
100
AcDbEntity
 67
     1
  8
0
100
AcDbBlockBegin
  2
*Paper_Space
 70
     0
 10
0.0
 20
0.0
 30
0.0
  3
*Paper_Space
  1

  0
ENDBLK
  5
1D
330
1B
100
AcDbEntity
 67
     1
  8
0
100
AcDbBlockEnd
  0
BLOCK
  5
24
330
23
100
AcDbEntity
  8
0
100
AcDbBlockBegin
  2
*Paper_Space0
 70
     0
 10
0.0
 20
0.0
 30
0.0
  3
*Paper_Space0
  1

  0
ENDBLK
  5
25
330
23
100
AcDbEntity
  8
0
100
AcDbBlockEnd
  0
BLOCK
  5
1A2
330
1A1
100
AcDbEntity
  8
0
100
AcDbBlockBegin
  2
_OPEN30
 70
     0
 10
0.0
 20
0.0
 30
0.0
  3
_OPEN30
  1

  0
LINE
  5
1A4
330
1A1
100
AcDbEntity
  8
0
  6
ByBlock
 62
     0
370
    -2
100
AcDbLine
 10
-1.0
 20
0.267949
 30
0.0
 11
0.0
 21
0.0
 31
0.0
  0
LINE
  5
1A5
330
1A1
100
AcDbEntity
  8
0
  6
ByBlock
 62
     0
370
    -2
100
AcDbLine
 10
0.0
 20
0.0
 30
0.0
 11
-1.0
 21
-0.267949
 31
0.0
  0
LINE
  5
1A6
330
1A1
100
AcDbEntity
  8
0
  6
ByBlock
 62
     0
370
    -2
100
AcDbLine
 10
0.0
 20
0.0
 30
0.0
 11
-1.0
 21
0.0
 31
0.0
  0
ENDBLK
  5
1A3
330
1A1
100
AcDbEntity
  8
0
100
AcDbBlockEnd
  0
BLOCK
  5
1A9
330
1A8
100
AcDbEntity
  8
0
100
AcDbBlockBegin
  2
*D2
 70
     1
 10
0.0
 20
0.0
 30
0.0
  3
*D2
  1

  0
LINE
  5
1AB
330
1A8
100
AcDbEntity
  8
0
 62
     0
370
    -2
100
AcDbLine
 10
2.52215552330017
 20
16.78999610900879
 30
0.0
 11
2.522155523300167
 21
8.33099610900879
 31
0.0
  0
LINE
  5
1AC
330
1A8
100
AcDbEntity
  8
0
 62
     0
370
    -2
100
AcDbLine
 10
27.288818359375
 20
16.78999610900879
 30
0.0
 11
27.288818359375
 21
8.330996109008787
 31
0.0
  0
LINE
  5
1AD
330
1A8
100
AcDbEntity
  8
0
 62
     0
370
    -2
100
AcDbLine
 10
5.522155523300167
 20
9.33099610900879
 30
0.0
 11
24.288818359375
 21
9.330996109008787
 31
0.0
  0
INSERT
  5
1AE
330
1A8
100
AcDbEntity
  8
0
 62
     0
370
    -2
100
AcDbBlockReference
  2
_OPEN30
 10
2.522155523300167
 20
9.33099610900879
 30
0.0
 41
3.0
 42
3.0
 43
3.0
 50
180.0
  0
INSERT
  5
1AF
330
1A8
100
AcDbEntity
  8
0
 62
     0
370
    -2
100
AcDbBlockReference
  2
_OPEN30
 10
27.288818359375
 20
9.330996109008787
 30
0.0
 41
3.0
 42
3.0
 43
3.0
 50
360.0
  0
MTEXT
  5
1B0
330
1A8
100
AcDbEntity
  8
0
 62
     1
100
AcDbMText
 10
14.90648706054687
 20
11.74539614498615
 30
0.0
 40
3.200000047683716
 41
0.0
 71
     5
 72
     1
  1
\U+220574
 73
     1
 44
1.0
  0
POINT
  5
1B1
330
1A8
100
AcDbEntity
  8
Defpoints
 62
     0
100
AcDbPoint
 10
2.522155523300171
 20
19.32999610900879
 30
0.0
  0
POINT
  5
1B2
330
1A8
100
AcDbEntity
  8
Defpoints
 62
     0
100
AcDbPoint
 10
27.288818359375
 20
19.32999610900879
 30
0.0
  0
POINT
  5
1B3
330
1A8
100
AcDbEntity
  8
Defpoints
 62
     0
100
AcDbPoint
 10
27.288818359375
 20
9.329996109008789
 30
0.0
  0
ENDBLK
  5
1AA
330
1A8
100
AcDbEntity
  8
0
100
AcDbBlockEnd
  0
BLOCK
  5
1B6
330
1B5
100
AcDbEntity
  8
0
100
AcDbBlockBegin
  2
*D3
 70
     1
 10
0.0
 20
0.0
 30
0.0
  3
*D3
  1

  0
LINE
  5
1B8
330
1B5
100
AcDbEntity
  8
0
 62
     0
370
    -2
100
AcDbLine
 10
-0.144516229629517
 20
20.68999954223633
 30
0.0
 11
-0.14451622962952
 21
-1.669003294944761
 31
0.0
  0
LINE
  5
1B9
330
1B5
100
AcDbEntity
  8
0
 62
     0
370
    -2
100
AcDbLine
 10
29.95549011230469
 20
20.68999954223633
 30
0.0
 11
29.95549011230468
 21
-1.669003294944765
 31
0.0
  0
LINE
  5
1BA
330
1B5
100
AcDbEntity
  8
0
 62
     0
370
    -2
100
AcDbLine
 10
2.85548377037048
 20
-0.669003354549406
 30
0.0
 11
26.95549011230468
 21
-0.669003354549409
 31
0.0
  0
INSERT
  5
1BB
330
1B5
100
AcDbEntity
  8
0
 62
     0
370
    -2
100
AcDbBlockReference
  2
_OPEN30
 10
-0.14451622962952
 20
-0.669003354549406
 30
0.0
 41
3.0
 42
3.0
 43
3.0
 50
180.0
  0
INSERT
  5
1BC
330
1B5
100
AcDbEntity
  8
0
 62
     0
370
    -2
100
AcDbBlockReference
  2
_OPEN30
 10
29.95549011230468
 20
-0.66900335454941
 30
0.0
 41
3.0
 42
3.0
 43
3.0
 50
360.0
  0
MTEXT
  5
1BD
330
1B5
100
AcDbEntity
  8
0
 62
     1
100
AcDbMText
 10
14.90648706054687
 20
1.745396681427956
 30
0.0
 40
3.200000047683716
 41
0.0
 71
     5
 72
     1
  1
\U+220590
 73
     1
 44
1.0
  0
POINT
  5
1BE
330
1B5
100
AcDbEntity
  8
Defpoints
 62
     0
100
AcDbPoint
 10
-0.144516229629517
 20
23.22999954223633
 30
0.0
  0
POINT
  5
1BF
330
1B5
100
AcDbEntity
  8
Defpoints
 62
     0
100
AcDbPoint
 10
29.95549011230469
 20
23.22999954223633
 30
0.0
  0
POINT
  5
1C0
330
1B5
100
AcDbEntity
  8
Defpoints
 62
     0
100
AcDbPoint
 10
29.95549011230468
 20
-0.670003354549408
 30
0.0
  0
ENDBLK
  5
1B7
330
1B5
100
AcDbEntity
  8
0
100
AcDbBlockEnd
  0
BLOCK
  5
1C3
330
1C2
100
AcDbEntity
  8
0
100
AcDbBlockBegin
  2
*D4
 70
     1
 10
0.0
 20
0.0
 30
0.0
  3
*D4
  1

  0
LINE
  5
1C5
330
1C2
100
AcDbEntity
  8
0
 62
     0
370
    -2
100
AcDbLine
 10
-2.351172723770142
 20
23.22999954223633
 30
0.0
 11
-11.14251599121094
 21
23.22999954223632
 31
0.0
  0
LINE
  5
1C6
330
1C2
100
AcDbEntity
  8
0
 62
     0
370
    -2
100
AcDbLine
 10
-10.14251599121094
 20
30.5633316040039
 30
0.0
 11
-10.14251599121094
 21
23.22999954223632
 31
0.0
  0
LINE
  5
1C7
330
1C2
100
AcDbEntity
  8
0
 62
     0
370
    -2
100
AcDbLine
 10
-10.14251599121094
 20
33.56333160400391
 30
0.0
 11
-10.14251599121094
 21
36.56333160400391
 31
0.0
  0
LINE
  5
1C8
330
1C2
100
AcDbEntity
  8
0
 62
     0
370
    -2
100
AcDbLine
 10
-10.14251599121094
 20
20.22999954223632
 30
0.0
 11
-10.14251599121093
 21
17.22999954223632
 31
0.0
  0
INSERT
  5
1C9
330
1C2
100
AcDbEntity
  8
0
 62
     0
370
    -2
100
AcDbBlockReference
  2
_OPEN30
 10
-10.14251599121094
 20
30.5633316040039
 30
0.0
 41
3.0
 42
3.0
 43
3.0
 50
270.0
  0
INSERT
  5
1CA
330
1C2
100
AcDbEntity
  8
0
 62
     0
370
    -2
100
AcDbBlockReference
  2
_OPEN30
 10
-10.14251599121094
 20
23.22999954223632
 30
0.0
 41
3.0
 42
3.0
 43
3.0
 50
90.00000000000001
  0
MTEXT
  5
1CB
330
1C2
100
AcDbEntity
  8
0
 62
     1
100
AcDbMText
 10
-12.5569160271883
 20
26.89766557312012
 30
0.0
 40
3.200000047683716
 41
0.0
 71
     5
 72
     1
  1
22
 11
-4.844610402033504E-16
 21
1.0
 31
0.0
 73
     1
 44
1.0
  0
POINT
  5
1CC
330
1C2
100
AcDbEntity
  8
Defpoints
 62
     0
100
AcDbPoint
 10
-0.327850580215454
 20
30.56333160400391
 30
0.0
  0
POINT
  5
1CD
330
1C2
100
AcDbEntity
  8
Defpoints
 62
     0
100
AcDbPoint
 10
0.188827276229858
 20
23.22999954223633
 30
0.0
  0
POINT
  5
1CE
330
1C2
100
AcDbEntity
  8
Defpoints
 62
     0
100
AcDbPoint
 10
-10.14451599121094
 20
23.22999954223632
 30
0.0
  0
ENDBLK
  5
1C4
330
1C2
100
AcDbEntity
  8
0
100
AcDbBlockEnd
  0
BLOCK
  5
1D1
330
1D0
100
AcDbEntity
  8
0
100
AcDbBlockBegin
  2
*D5
 70
     1
 10
0.0
 20
0.0
 30
0.0
  3
*D5
  1

  0
LINE
  5
1D3
330
1D0
100
AcDbEntity
  8
0
 62
     0
370
    -2
100
AcDbLine
 10
-2.867850580215454
 20
30.56333160400391
 30
0.0
 11
-21.14251599121094
 21
30.5633316040039
 31
0.0
  0
LINE
  5
1D4
330
1D0
100
AcDbEntity
  8
0
 62
     0
370
    -2
100
AcDbLine
 10
0.323845586776733
 20
19.32999610900879
 30
0.0
 11
-21.14251599121093
 21
19.32999610900878
 31
0.0
  0
LINE
  5
1D5
330
1D0
100
AcDbEntity
  8
0
 62
     0
370
    -2
100
AcDbLine
 10
-20.14251599121094
 20
27.5633316040039
 30
0.0
 11
-20.14251599121093
 21
22.32999610900878
 31
0.0
  0
INSERT
  5
1D6
330
1D0
100
AcDbEntity
  8
0
 62
     0
370
    -2
100
AcDbBlockReference
  2
_OPEN30
 10
-20.14251599121094
 20
30.5633316040039
 30
0.0
 41
3.0
 42
3.0
 43
3.0
 50
90.00000000000001
  0
INSERT
  5
1D7
330
1D0
100
AcDbEntity
  8
0
 62
     0
370
    -2
100
AcDbBlockReference
  2
_OPEN30
 10
-20.14251599121093
 20
19.32999610900878
 30
0.0
 41
3.0
 42
3.0
 43
3.0
 50
270.0
  0
MTEXT
  5
1D8
330
1D0
100
AcDbEntity
  8
0
 62
     1
100
AcDbMText
 10
-22.5569160271883
 20
24.94766290283203
 30
0.0
 40
3.200000047683716
 41
0.0
 71
     5
 72
     1
  1
34
 11
-3.162652517930557E-16
 21
1.0
 31
0.0
 73
     1
 44
1.0
  0
POINT
  5
1D9
330
1D0
100
AcDbEntity
  8
Defpoints
 62
     0
100
AcDbPoint
 10
-0.327850580215454
 20
30.56333160400391
 30
0.0
  0
POINT
  5
1DA
330
1D0
100
AcDbEntity
  8
Defpoints
 62
     0
100
AcDbPoint
 10
2.863845586776733
 20
19.32999610900879
 30
0.0
  0
POINT
  5
1DB
330
1D0
100
AcDbEntity
  8
Defpoints
 62
     0
100
AcDbPoint
 10
-20.14451599121094
 20
19.32999610900878
 30
0.0
  0
ENDBLK
  5
1D2
330
1D0
100
AcDbEntity
  8
0
100
AcDbBlockEnd
  0
BLOCK
  5
1DE
330
1DD
100
AcDbEntity
  8
0
100
AcDbBlockBegin
  2
*D6
 70
     1
 10
0.0
 20
0.0
 30
0.0
  3
*D6
  1

  0
LINE
  5
1E0
330
1DD
100
AcDbEntity
  8
0
 62
     0
370
    -2
100
AcDbLine
 10
-32.96784118652344
 20
102.8633270263672
 30
0.0
 11
-41.42584881591797
 21
102.8633270263672
 31
0.0
  0
LINE
  5
1E1
330
1DD
100
AcDbEntity
  8
0
 62
     0
370
    -2
100
AcDbLine
 10
-31.13451293945312
 20
94.86332702636719
 30
0.0
 11
-41.42584881591797
 21
94.86332702636719
 31
0.0
  0
LINE
  5
1E2
330
1DD
100
AcDbEntity
  8
0
 62
     0
370
    -2
100
AcDbLine
 10
-40.42584881591797
 20
99.86332702636719
 30
0.0
 11
-40.42584881591797
 21
97.86332702636719
 31
0.0
  0
INSERT
  5
1E3
330
1DD
100
AcDbEntity
  8
0
 62
     0
370
    -2
100
AcDbBlockReference
  2
_OPEN30
 10
-40.42584881591797
 20
102.8633270263672
 30
0.0
 41
3.0
 42
3.0
 43
3.0
 50
90.0
  0
INSERT
  5
1E4
330
1DD
100
AcDbEntity
  8
0
 62
     0
370
    -2
100
AcDbBlockReference
  2
_OPEN30
 10
-40.42584881591797
 20
94.86332702636719
 30
0.0
 41
3.0
 42
3.0
 43
3.0
 50
270.0
  0
MTEXT
  5
1E5
330
1DD
100
AcDbEntity
  8
0
 62
     1
100
AcDbMText
 10
-42.84024885189534
 20
98.86432702636719
 30
0.0
 40
3.200000047683716
 41
0.0
 71
     5
 72
     1
  1
24
 11
0.0
 21
1.0
 31
0.0
 73
     1
 44
1.0
  0
POINT
  5
1E6
330
1DD
100
AcDbEntity
  8
Defpoints
 62
     0
100
AcDbPoint
 10
-30.42784118652344
 20
102.8633270263672
 30
0.0
  0
POINT
  5
1E7
330
1DD
100
AcDbEntity
  8
Defpoints
 62
     0
100
AcDbPoint
 10
-28.59451293945312
 20
94.86332702636719
 30
0.0
  0
POINT
  5
1E8
330
1DD
100
AcDbEntity
  8
Defpoints
 62
     0
100
AcDbPoint
 10
-40.42784881591797
 20
94.86332702636719
 30
0.0
  0
ENDBLK
  5
1DF
330
1DD
100
AcDbEntity
  8
0
100
AcDbBlockEnd
  0
BLOCK
  5
1EB
330
1EA
100
AcDbEntity
  8
0
100
AcDbBlockBegin
  2
*D7
 70
     1
 10
0.0
 20
0.0
 30
0.0
  3
*D7
  1

  0
LINE
  5
1ED
330
1EA
100
AcDbEntity
  8
0
 62
     0
370
    -2
100
AcDbLine
 10
-23.80118469238281
 20
85.52999877929688
 30
0.0
 11
-41.42584881591797
 21
85.52999877929688
 31
0.0
  0
LINE
  5
1EE
330
1EA
100
AcDbEntity
  8
0
 62
     0
370
    -2
100
AcDbLine
 10
-40.42584881591797
 20
91.86332702636719
 30
0.0
 11
-40.42584881591797
 21
88.52999877929688
 31
0.0
  0
INSERT
  5
1EF
330
1EA
100
AcDbEntity
  8
0
 62
     0
370
    -2
100
AcDbBlockReference
  2
_OPEN30
 10
-40.42584881591797
 20
94.86332702636719
 30
0.0
 41
3.0
 42
3.0
 43
3.0
 50
90.00000000000006
  0
INSERT
  5
1F0
330
1EA
100
AcDbEntity
  8
0
 62
     0
370
    -2
100
AcDbBlockReference
  2
_OPEN30
 10
-40.42584881591797
 20
85.52999877929688
 30
0.0
 41
3.0
 42
3.0
 43
3.0
 50
270.0000000000001
  0
MTEXT
  5
1F1
330
1EA
100
AcDbEntity
  8
0
 62
     1
100
AcDbMText
 10
-42.84024885189534
 20
90.19766290283204
 30
0.0
 40
3.200000047683716
 41
0.0
 71
     5
 72
     1
  1
28
 11
-7.612962031878994E-16
 21
1.0
 31
0.0
 73
     1
 44
1.0
  0
POINT
  5
1F2
330
1EA
100
AcDbEntity
  8
Defpoints
 62
     0
100
AcDbPoint
 10
-28.59451293945312
 20
94.86332702636719
 30
0.0
  0
POINT
  5
1F3
330
1EA
100
AcDbEntity
  8
Defpoints
 62
     0
100
AcDbPoint
 10
-21.26118469238281
 20
85.52999877929688
 30
0.0
  0
POINT
  5
1F4
330
1EA
100
AcDbEntity
  8
Defpoints
 62
     0
100
AcDbPoint
 10
-40.42784881591797
 20
85.52999877929688
 30
0.0
  0
ENDBLK
  5
1EC
330
1EA
100
AcDbEntity
  8
0
100
AcDbBlockEnd
  0
BLOCK
  5
1F7
330
1F6
100
AcDbEntity
  8
0
100
AcDbBlockBegin
  2
_NONE
 70
     0
 10
0.0
 20
0.0
 30
0.0
  3
_NONE
  1

  0
ENDBLK
  5
1F8
330
1F6
100
AcDbEntity
  8
0
100
AcDbBlockEnd
  0
BLOCK
  5
1FA
330
1F9
100
AcDbEntity
  8
0
100
AcDbBlockBegin
  2
*D9
 70
     1
 10
0.0
 20
0.0
 30
0.0
  3
*D9
  1

  0
MTEXT
  5
202
330
1F9
100
AcDbEntity
  8
0
 62
     1
100
AcDbMText
 10
-42.84124885189534
 20
72.35239873194695
 30
0.0
 40
3.200000047683716
 41
0.0
 71
     5
 72
     1
  1
12
 11
0.0
 21
1.0
 31
0.0
 73
     1
 44
1.0
  0
POINT
  5
203
330
1F9
100
AcDbEntity
  8
Defpoints
 62
     0
100
AcDbPoint
 10
-21.26118469238281
 20
85.52999877929688
 30
0.0
  0
POINT
  5
204
330
1F9
100
AcDbEntity
  8
Defpoints
 62
     0
100
AcDbPoint
 10
-20.76118469238281
 20
81.52999877929688
 30
0.0
  0
POINT
  5
205
330
1F9
100
AcDbEntity
  8
Defpoints
 62
     0
100
AcDbPoint
 10
-40.42784881591797
 20
81.52999877929688
 30
0.0
  0
LINE
  5
206
330
1F9
100
AcDbEntity
  8
0
  6
Continuous
 62
     7
100
AcDbLine
 10
-23.30118469238281
 20
81.52999877929688
 30
0.0
 11
-41.42784881591797
 21
81.52999877929688
 31
0.0
  0
LINE
  5
207
330
1F9
100
AcDbEntity
  8
0
  6
Continuous
 62
     7
100
AcDbLine
 10
-40.42784881591797
 20
85.52999877929688
 30
0.0
 11
-40.42784881591797
 21
75.17999877929688
 31
0.0
  0
LINE
  5
208
330
1F9
100
AcDbEntity
  8
0
  6
Continuous
 62
     7
100
AcDbLine
 10
-40.42784881591797
 20
81.52999877929688
 30
0.0
 11
-39.60939113161797
 21
78.47547311729124
 31
0.0
  0
LINE
  5
209
330
1F9
100
AcDbEntity
  8
0
  6
Continuous
 62
     7
100
AcDbLine
 10
-40.42784881591797
 20
81.52999877929688
 30
0.0
 11
-41.24630650021797
 21
78.47547311729124
 31
0.0
  0
LINE
  5
20A
330
1F9
100
AcDbEntity
  8
0
  6
Continuous
 62
     7
100
AcDbLine
 10
-40.42784881591797
 20
81.52999877929688
 30
0.0
 11
-40.42784881591797
 21
72.93701934814453
 31
0.0
  0
ENDBLK
  5
1FB
330
1F9
100
AcDbEntity
  8
0
100
AcDbBlockEnd
  0
BLOCK
  5
20D
330
20C
100
AcDbEntity
  8
0
100
AcDbBlockBegin
  2
*D10
 70
     1
 10
0.0
 20
0.0
 30
0.0
  3
*D10
  1

  0
LINE
  5
20F
330
20C
100
AcDbEntity
  8
0
 62
     0
370
    -2
100
AcDbLine
 10
-30.42784118652343
 20
105.4033270263672
 30
0.0
 11
-30.42784118652343
 21
113.8633270263672
 31
0.0
  0
LINE
  5
210
330
20C
100
AcDbEntity
  8
0
 62
     0
370
    -2
100
AcDbLine
 10
37.0721435546875
 20
88.73666290283204
 30
0.0
 11
37.07214355468751
 21
113.8633270263672
 31
0.0
  0
LINE
  5
211
330
20C
100
AcDbEntity
  8
0
 62
     0
370
    -2
100
AcDbLine
 10
-27.42784118652343
 20
112.8633270263672
 30
0.0
 11
34.07214355468751
 21
112.8633270263672
 31
0.0
  0
INSERT
  5
212
330
20C
100
AcDbEntity
  8
0
 62
     0
370
    -2
100
AcDbBlockReference
  2
_OPEN30
 10
-30.42784118652343
 20
112.8633270263672
 30
0.0
 41
3.0
 42
3.0
 43
3.0
 50
180.0
  0
INSERT
  5
213
330
20C
100
AcDbEntity
  8
0
 62
     0
370
    -2
100
AcDbBlockReference
  2
_OPEN30
 10
37.07214355468751
 20
112.8633270263672
 30
0.0
 41
3.0
 42
3.0
 43
3.0
 50
360.0
  0
MTEXT
  5
214
330
20C
100
AcDbEntity
  8
0
 62
     1
100
AcDbMText
 10
3.323143316268921
 20
115.2841270624399
 30
0.0
 40
3.200000047683716
 41
0.0
 71
     5
 72
     1
  1
202.5
 73
     1
 44
1.0
  0
POINT
  5
215
330
20C
100
AcDbEntity
  8
Defpoints
 62
     0
100
AcDbPoint
 10
-30.42784118652344
 20
102.8633270263672
 30
0.0
  0
POINT
  5
216
330
20C
100
AcDbEntity
  8
Defpoints
 62
     0
100
AcDbPoint
 10
37.0721435546875
 20
86.19666290283203
 30
0.0
  0
POINT
  5
217
330
20C
100
AcDbEntity
  8
Defpoints
 62
     0
100
AcDbPoint
 10
37.07214355468751
 20
112.8633270263672
 30
0.0
  0
ENDBLK
  5
20E
330
20C
100
AcDbEntity
  8
0
100
AcDbBlockEnd
  0
BLOCK
  5
21A
330
219
100
AcDbEntity
  8
0
100
AcDbBlockBegin
  2
*D11
 70
     1
 10
0.0
 20
0.0
 30
0.0
  3
*D11
  1

  0
LINE
  5
21C
330
219
100
AcDbEntity
  8
0
 62
     0
370
    -2
100
AcDbLine
 10
34.40548706054688
 20
83.06999877929688
 30
0.0
 11
34.40548706054688
 21
97.19666290283203
 31
0.0
  0
LINE
  5
21D
330
219
100
AcDbEntity
  8
0
 62
     0
370
    -2
100
AcDbLine
 10
-4.761184692382812
 20
84.06999877929688
 30
0.0
 11
-4.761184692382812
 21
97.19666290283203
 31
0.0
  0
LINE
  5
21E
330
219
100
AcDbEntity
  8
0
 62
     0
370
    -2
100
AcDbLine
 10
31.40548706054688
 20
96.19666290283203
 30
0.0
 11
-1.761184692382812
 21
96.19666290283203
 31
0.0
  0
INSERT
  5
21F
330
219
100
AcDbEntity
  8
0
 62
     0
370
    -2
100
AcDbBlockReference
  2
_OPEN30
 10
34.40548706054688
 20
96.19666290283203
 30
0.0
 41
3.0
 42
3.0
 43
3.0
  0
INSERT
  5
220
330
219
100
AcDbEntity
  8
0
 62
     0
370
    -2
100
AcDbBlockReference
  2
_OPEN30
 10
-4.761184692382812
 20
96.19666290283203
 30
0.0
 41
3.0
 42
3.0
 43
3.0
 50
180.0
  0
MTEXT
  5
221
330
219
100
AcDbEntity
  8
0
 62
     1
100
AcDbMText
 10
14.8241435546875
 20
98.61746293890477
 30
0.0
 40
3.200000047683716
 41
0.0
 71
     5
 72
     1
  1
117.5
 73
     1
 44
1.0
  0
POINT
  5
222
330
219
100
AcDbEntity
  8
Defpoints
 62
     0
100
AcDbPoint
 10
34.40548706054688
 20
80.52999877929688
 30
0.0
  0
POINT
  5
223
330
219
100
AcDbEntity
  8
Defpoints
 62
     0
100
AcDbPoint
 10
-4.761184692382812
 20
81.52999877929688
 30
0.0
  0
POINT
  5
224
330
219
100
AcDbEntity
  8
Defpoints
 62
     0
100
AcDbPoint
 10
-4.761184692382812
 20
96.19666290283203
 30
0.0
  0
ENDBLK
  5
21B
330
219
100
AcDbEntity
  8
0
100
AcDbBlockEnd
  0
BLOCK
  5
227
330
226
100
AcDbEntity
  8
0
100
AcDbBlockBegin
  2
*D12
 70
     1
 10
0.0
 20
0.0
 30
0.0
  3
*D12
  1

  0
POINT
  5
22C
330
226
100
AcDbEntity
  8
Defpoints
 62
     0
100
AcDbPoint
 10
7.134207185776802
 20
66.49487303901896
 30
0.0
  0
POINT
  5
22D
330
226
100
AcDbEntity
  8
Defpoints
 62
     0
100
AcDbPoint
 10
14.82215466403961
 20
82.03000292787377
 30
0.0
  0
LINE
  5
22E
330
226
100
AcDbEntity
  8
0
  6
Continuous
 62
     7
100
AcDbLine
 10
14.82215466403961
 20
82.03000292787377
 30
0.0
 11
7.134207185776802
 21
66.49487303901896
 31
0.0
  0
LINE
  5
22F
330
226
100
AcDbEntity
  8
0
  6
Continuous
 62
     7
100
AcDbLine
 10
7.134207185776802
 20
66.49487303901896
 30
0.0
 11
7.755448345783424
 21
69.59552771536623
 31
0.0
  0
LINE
  5
230
330
226
100
AcDbEntity
  8
0
  6
Continuous
 62
     7
100
AcDbLine
 10
7.134207185776802
 20
66.49487303901896
 30
0.0
 11
9.222545150255531
 21
68.86949817721602
 31
0.0
  0
MTEXT
  5
231
330
226
100
AcDbEntity
  8
0
 62
     1
100
AcDbMText
 10
8.336795635745453
 20
70.72357985733481
 30
0.0
 40
3.200000047683716
 41
0.0
 71
     7
 72
     1
  1
\W1;R52
 11
0.4430711908241796
 21
0.8964864303834406
 31
0.0
 73
     1
 44
1.0
  0
ENDBLK
  5
228
330
226
100
AcDbEntity
  8
0
100
AcDbBlockEnd
  0
BLOCK
  5
234
330
233
100
AcDbEntity
  8
0
100
AcDbBlockBegin
  2
*D13
 70
     1
 10
0.0
 20
0.0
 30
0.0
  3
*D13
  1

  0
LINE
  5
236
330
233
100
AcDbEntity
  8
0
 62
     0
370
    -2
100
AcDbLine
 10
17.3621435546875
 20
64.69666290283203
 30
0.0
 11
48.0721435546875
 21
64.69666290283202
 31
0.0
  0
LINE
  5
237
330
233
100
AcDbEntity
  8
0
 62
     0
370
    -2
100
AcDbLine
 10
39.6121435546875
 20
81.52999877929688
 30
0.0
 11
48.0721435546875
 21
81.52999877929688
 31
0.0
  0
LINE
  5
238
330
233
100
AcDbEntity
  8
0
 62
     0
370
    -2
100
AcDbLine
 10
47.0721435546875
 20
67.69666290283202
 30
0.0
 11
47.0721435546875
 21
78.52999877929688
 31
0.0
  0
INSERT
  5
239
330
233
100
AcDbEntity
  8
0
 62
     0
370
    -2
100
AcDbBlockReference
  2
_OPEN30
 10
47.0721435546875
 20
64.69666290283202
 30
0.0
 41
3.0
 42
3.0
 43
3.0
 50
270.0
  0
INSERT
  5
23A
330
233
100
AcDbEntity
  8
0
 62
     0
370
    -2
100
AcDbBlockReference
  2
_OPEN30
 10
47.0721435546875
 20
81.52999877929688
 30
0.0
 41
3.0
 42
3.0
 43
3.0
 50
90.0
  0
MTEXT
  5
23B
330
233
100
AcDbEntity
  8
0
 62
     1
100
AcDbMText
 10
44.65134351861477
 20
73.11432702636719
 30
0.0
 40
3.200000047683716
 41
0.0
 71
     5
 72
     1
  1
50.5
 11
0.0
 21
1.0
 31
0.0
 73
     1
 44
1.0
  0
POINT
  5
23C
330
233
100
AcDbEntity
  8
Defpoints
 62
     0
100
AcDbPoint
 10
14.8221435546875
 20
64.69666290283203
 30
0.0
  0
POINT
  5
23D
330
233
100
AcDbEntity
  8
Defpoints
 62
     0
100
AcDbPoint
 10
37.0721435546875
 20
81.52999877929688
 30
0.0
  0
POINT
  5
23E
330
233
100
AcDbEntity
  8
Defpoints
 62
     0
100
AcDbPoint
 10
47.0721435546875
 20
81.52999877929686
 30
0.0
  0
ENDBLK
  5
235
330
233
100
AcDbEntity
  8
0
100
AcDbBlockEnd
  0
BLOCK
  5
241
330
240
100
AcDbEntity
  8
0
100
AcDbBlockBegin
  2
*D14
 70
     1
 10
0.0
 20
0.0
 30
0.0
  3
*D14
  1

  0
LINE
  5
243
330
240
100
AcDbEntity
  8
0
 62
     0
370
    -2
100
AcDbLine
 10
-30.26116943359375
 20
-22.42999740600586
 30
0.0
 11
-30.26116943359375
 21
-11.96999835968017
 31
0.0
  0
LINE
  5
244
330
240
100
AcDbEntity
  8
0
 62
     0
370
    -2
100
AcDbLine
 10
43.40548706054688
 20
-22.42999740600586
 30
0.0
 11
43.40548706054688
 21
-11.96999835968018
 31
0.0
  0
LINE
  5
245
330
240
100
AcDbEntity
  8
0
 62
     0
370
    -2
100
AcDbLine
 10
-27.26116943359375
 20
-12.96999835968017
 30
0.0
 11
40.40548706054688
 21
-12.96999835968018
 31
0.0
  0
INSERT
  5
246
330
240
100
AcDbEntity
  8
0
 62
     0
370
    -2
100
AcDbBlockReference
  2
_OPEN30
 10
-30.26116943359375
 20
-12.96999835968017
 30
0.0
 41
3.0
 42
3.0
 43
3.0
 50
180.0
  0
INSERT
  5
247
330
240
100
AcDbEntity
  8
0
 62
     0
370
    -2
100
AcDbBlockReference
  2
_OPEN30
 10
43.40548706054688
 20
-12.96999835968018
 30
0.0
 41
3.0
 42
3.0
 43
3.0
 50
360.0
  0
MTEXT
  5
248
330
240
100
AcDbEntity
  8
0
 62
     1
100
AcDbMText
 10
6.573158813476563
 20
-10.55559832370281
 30
0.0
 40
3.200000047683716
 41
0.0
 71
     5
 72
     1
  1
221
 73
     1
 44
1.0
  0
POINT
  5
249
330
240
100
AcDbEntity
  8
Defpoints
 62
     0
100
AcDbPoint
 10
-30.26116943359375
 20
-24.96999740600586
 30
0.0
  0
POINT
  5
24A
330
240
100
AcDbEntity
  8
Defpoints
 62
     0
100
AcDbPoint
 10
43.40548706054688
 20
-24.96999740600586
 30
0.0
  0
POINT
  5
24B
330
240
100
AcDbEntity
  8
Defpoints
 62
     0
100
AcDbPoint
 10
43.40548706054688
 20
-12.96999835968018
 30
0.0
  0
ENDBLK
  5
242
330
240
100
AcDbEntity
  8
0
100
AcDbBlockEnd
  0
BLOCK
  5
24E
330
24D
100
AcDbEntity
  8
0
100
AcDbBlockBegin
  2
*D15
 70
     1
 10
0.0
 20
0.0
 30
0.0
  3
*D15
  1

  0
LINE
  5
250
330
24D
100
AcDbEntity
  8
0
 62
     0
370
    -2
100
AcDbLine
 10
-8.351172485351562
 20
-106.5033264160156
 30
0.0
 11
-41.26017706298829
 21
-106.5033264160156
 31
0.0
  0
LINE
  5
251
330
24D
100
AcDbEntity
  8
0
 62
     0
370
    -2
100
AcDbLine
 10
-5.634513177871704
 20
-22.96999740600586
 30
0.0
 11
-41.26017706298828
 21
-22.96999740600586
 31
0.0
  0
LINE
  5
252
330
24D
100
AcDbEntity
  8
0
 62
     0
370
    -2
100
AcDbLine
 10
-40.26017706298829
 20
-103.5033264160156
 30
0.0
 11
-40.26017706298828
 21
-25.96999740600586
 31
0.0
  0
INSERT
  5
253
330
24D
100
AcDbEntity
  8
0
 62
     0
370
    -2
100
AcDbBlockReference
  2
_OPEN30
 10
-40.26017706298829
 20
-106.5033264160156
 30
0.0
 41
3.0
 42
3.0
 43
3.0
 50
270.0
  0
INSERT
  5
254
330
24D
100
AcDbEntity
  8
0
 62
     0
370
    -2
100
AcDbBlockReference
  2
_OPEN30
 10
-40.26017706298828
 20
-22.96999740600586
 30
0.0
 41
3.0
 42
3.0
 43
3.0
 50
90.0
  0
MTEXT
  5
255
330
24D
100
AcDbEntity
  8
0
 62
     1
100
AcDbMText
 10
-42.67457709896565
 20
-64.73566381835937
 30
0.0
 40
3.200000047683716
 41
0.0
 71
     5
 72
     1
  1
251
 11
1.701219726739146E-16
 21
1.0
 31
0.0
 73
     1
 44
1.0
  0
POINT
  5
256
330
24D
100
AcDbEntity
  8
Defpoints
 62
     0
100
AcDbPoint
 10
-5.811172485351562
 20
-106.5033264160156
 30
0.0
  0
POINT
  5
257
330
24D
100
AcDbEntity
  8
Defpoints
 62
     0
100
AcDbPoint
 10
-3.094513177871704
 20
-22.96999740600586
 30
0.0
  0
POINT
  5
258
330
24D
100
AcDbEntity
  8
Defpoints
 62
     0
100
AcDbPoint
 10
-40.26117706298828
 20
-22.96999740600585
 30
0.0
  0
ENDBLK
  5
24F
330
24D
100
AcDbEntity
  8
0
100
AcDbBlockEnd
  0
ENDSEC
  0
SECTION
  2
ENTITIES
  0
POINT
  5
45
330
1F
100
AcDbEntity
  8
VIEW0001
 62
     7
100
AcDbPoint
 10
105.0
 20
-148.5
 30
0.0
  0
LWPOLYLINE
  5
46
330
1F
100
AcDbEntity
  8
VIEW0001
  6
Continuous
 62
     7
100
AcDbPolyline
 90
        2
 70
     0
 10
25.75
 20
-129.0
 40
0.001000000047497
 41
0.001000000047497
 10
25.75
 20
-120.0
 40
0.001000000047497
 41
0.001000000047497
  0
LWPOLYLINE
  5
47
330
1F
100
AcDbEntity
  8
VIEW0001
  6
Continuous
 62
     7
100
AcDbPolyline
 90
        2
 70
     0
 10
-64.5
 20
-138.0
 40
0.001000000047497
 41
0.001000000047497
 10
-64.5
 20
-120.0
 40
0.001000000047497
 41
0.001000000047497
  0
LINE
  5
48
330
1F
100
AcDbEntity
  8
VIEW0001
  6
Continuous
 62
     7
370
    50
100
AcDbLine
 10
-84.5
 20
138.0
 30
0.0
 11
-84.5
 21
-138.0
 31
0.0
  0
LINE
  5
49
330
1F
100
AcDbEntity
  8
VIEW0001
  6
Continuous
 62
     7
370
    50
100
AcDbLine
 10
96.0
 20
138.0
 30
0.0
 11
96.0
 21
-138.0
 31
0.0
  0
LINE
  5
4A
330
1F
100
AcDbEntity
  8
VIEW0001
  6
Continuous
 62
     7
370
    50
100
AcDbLine
 10
-84.5
 20
-138.0
 30
0.0
 11
96.0
 21
-138.0
 31
0.0
  0
LINE
  5
4B
330
1F
100
AcDbEntity
  8
VIEW0001
  6
Continuous
 62
     7
370
    50
100
AcDbLine
 10
-84.5
 20
138.0
 30
0.0
 11
96.0
 21
138.0
 31
0.0
  0
LINE
  5
4C
330
1F
100
AcDbEntity
  8
VIEW0001
  6
Continuous
 62
     7
370
    20
100
AcDbLine
 10
-84.5
 20
-120.0
 30
0.0
 11
96.0
 21
-120.0
 31
0.0
  0
LWPOLYLINE
  5
4D
330
1F
100
AcDbEntity
  8
VIEW0001
  6
Continuous
 62
     7
100
AcDbPolyline
 90
        2
 70
     0
 10
96.0
 20
-129.0
 40
0.001000000047497
 41
0.001000000047497
 10
-84.5
 20
-129.0
 40
0.001000000047497
 41
0.001000000047497
  0
LINE
  5
4E
330
1F
100
AcDbEntity
  8
VIEW0001
  6
Continuous
 62
     7
370
    20
100
AcDbLine
 10
41.0
 20
128.0
 30
0.0
 11
96.0
 21
128.0
 31
0.0
  0
LINE
  5
4F
330
1F
100
AcDbEntity
  8
VIEW0001
  6
Continuous
 62
     7
370
    20
100
AcDbLine
 10
41.0
 20
138.0
 30
0.0
 11
41.0
 21
128.0
 31
0.0
  0
LWPOLYLINE
  5
50
330
1F
100
AcDbEntity
  8
VIEW0001
  6
Continuous
 62
     7
100
AcDbPolyline
 90
        2
 70
     0
 10
5.75
 20
-138.0
 40
0.001000000047497
 41
0.001000000047497
 10
5.75
 20
-120.0
 40
0.001000000047497
 41
0.001000000047497
  0
LWPOLYLINE
  5
51
330
1F
100
AcDbEntity
  8
VIEW0001
  6
Continuous
 62
     7
100
AcDbPolyline
 90
        2
 70
     0
 10
66.0
 20
-129.0
 40
0.001000000047497
 41
0.001000000047497
 10
66.0
 20
-120.0
 40
0.001000000047497
 41
0.001000000047497
  0
LWPOLYLINE
  5
52
330
1F
100
AcDbEntity
  8
VIEW0001
  6
Continuous
 62
     7
100
AcDbPolyline
 90
        2
 70
     0
 10
81.0
 20
-129.0
 40
0.001000000047497
 41
0.001000000047497
 10
81.0
 20
-120.0
 40
0.001000000047497
 41
0.001000000047497
  0
MTEXT
  5
53
330
1F
100
AcDbEntity
  8
VIEW0001
 62
     1
100
AcDbMText
 10
-77.92875003814697
 20
-135.5
 30
0.0
 40
4.0
 41
0.0
 71
     7
 72
     1
  1
{\W0.833333;規格}
 73
     1
 44
1.0
  0
MTEXT
  5
54
330
1F
100
AcDbEntity
  8
VIEW0001
 62
     1
100
AcDbMText
 10
12.32124996185303
 20
-126.5
 30
0.0
 40
4.0
 41
0.0
 71
     7
 72
     1
  1
{\W0.833333;材質}
 73
     1
 44
1.0
  0
MTEXT
  5
55
330
1F
100
AcDbEntity
  8
VIEW0001
 62
     1
100
AcDbMText
 10
-77.92875003814697
 20
-126.5
 30
0.0
 40
4.0
 41
0.0
 71
     7
 72
     1
  1
{\W0.833333;品名}
 73
     1
 44
1.0
  0
MTEXT
  5
56
330
1F
100
AcDbEntity
  8
VIEW0001
 62
     1
100
AcDbMText
 10
70.07124996185303
 20
-126.5
 30
0.0
 40
4.0
 41
0.0
 71
     7
 72
     1
  1
{\W0.833333;尺度}
 73
     1
 44
1.0
  0
MTEXT
  5
57
330
1F
100
AcDbEntity
  8
VIEW0001
 62
     1
100
AcDbMText
 10
26.46785604953766
 20
-135.75
 30
0.0
 40
4.5
 41
0.0
 71
     7
 72
     1
  1
{\W1.40741;デンカ株式会社}
 73
     1
 44
1.0
  0
MTEXT
  5
58
330
1F
100
AcDbEntity
  8
VIEW0001
 62
     1
100
AcDbMText
 10
-40.8037503361702
 20
-126.5
 30
0.0
 40
4.0
 41
0.0
 71
     7
 72
     1
  1
{\W0.833333;静海じょうご}
 73
     1
 44
1.0
  0
MTEXT
  5
59
330
1F
100
AcDbEntity
  8
VIEW0001
 62
     1
100
AcDbMText
 10
83.07124984264374
 20
-126.5
 30
0.0
 40
4.0
 41
0.0
 71
     7
 72
     1
  1
{\W0.833333;1/3}
 73
     1
 44
1.0
  0
MTEXT
  5
5A
330
1F
100
AcDbEntity
  8
VIEW0001
 62
     1
100
AcDbMText
 10
-40.8037503361702
 20
-135.5
 30
0.0
 40
4.0
 41
0.0
 71
     7
 72
     1
  1
{\W0.833333;105-75}
 73
     1
 44
1.0
  0
MTEXT
  5
5B
330
1F
100
AcDbEntity
  8
VIEW0001
 62
     1
100
AcDbMText
 10
36.44624972343445
 20
-126.5
 30
0.0
 40
4.0
 41
0.0
 71
     7
 72
     1
  1
{\W0.833333;硬質ＰＶＣ}
 73
     1
 44
1.0
  0
LINE
  5
5D
330
1F
100
AcDbEntity
  8
VIEW0002
  6
Continuous
 62
     7
100
AcDbLine
 10
37.0721435546875
 20
86.19666290283203
 30
0.0
 11
37.0721435546875
 21
81.52999877929688
 31
0.0
  0
LINE
  5
5E
330
1F
100
AcDbEntity
  8
VIEW0002
  6
Continuous
 62
     7
100
AcDbLine
 10
34.40548706054688
 20
80.52999877929688
 30
0.0
 11
34.40548706054688
 21
79.19666290283203
 31
0.0
  0
LINE
  5
5F
330
1F
100
AcDbEntity
  8
VIEW0002
  6
Continuous
 62
     7
100
AcDbLine
 10
29.0721435546875
 20
85.19666290283203
 30
0.0
 11
29.0721435546875
 21
84.19666290283203
 31
0.0
  0
LINE
  5
60
330
1F
100
AcDbEntity
  8
VIEW0002
  6
Continuous
 62
     7
100
AcDbLine
 10
31.538818359375
 20
81.52999877929688
 30
0.0
 11
37.0721435546875
 21
81.52999877929688
 31
0.0
  0
LINE
  5
61
330
1F
100
AcDbEntity
  8
VIEW0002
  6
Continuous
 62
     7
100
AcDbLine
 10
31.72628784179688
 20
78.19666290283203
 30
0.0
 11
33.40548706054688
 21
78.19666290283203
 31
0.0
  0
LINE
  5
62
330
1F
100
AcDbEntity
  8
VIEW0002
  6
Continuous
 62
     7
100
AcDbLine
 10
30.0721435546875
 20
86.19666290283203
 30
0.0
 11
37.0721435546875
 21
86.19666290283203
 31
0.0
  0
LINE
  5
63
330
1F
100
AcDbEntity
  8
VIEW0002
  6
Continuous
 62
     7
100
AcDbLine
 10
29.0721435546875
 20
84.86332702636719
 30
0.0
 11
37.0721435546875
 21
84.86332702636719
 31
0.0
  0
LINE
  5
64
330
1F
100
AcDbEntity
  8
VIEW0002
  6
Continuous
 62
     7
100
AcDbLine
 10
30.95895385742188
 20
81.12998962402344
 30
0.0
 11
31.37216186523438
 21
81.12998962402344
 31
0.0
  0
LINE
  5
65
330
1F
100
AcDbEntity
  8
VIEW0002
  6
Continuous
 62
     7
100
AcDbLine
 10
29.072141675973
 20
84.19665070733689
 30
0.0
 11
30.35753155000305
 21
81.5090172536496
 31
0.0
  0
LINE
  5
66
330
1F
100
AcDbEntity
  8
VIEW0002
  6
Continuous
 62
     7
100
AcDbLine
 10
31.53882042045774
 20
81.52999348118297
 30
0.0
 11
31.37215336070608
 21
81.12999254294472
 31
0.0
  0
LINE
  5
67
330
1F
100
AcDbEntity
  8
VIEW0002
  6
Continuous
 62
     7
100
AcDbLine
 10
36.73883109468746
 20
81.52999302646641
 30
0.0
 11
35.80772434904721
 21
40.49973547457603
 31
0.0
  0
LINE
  5
68
330
1F
100
AcDbEntity
  8
VIEW0002
  6
Continuous
 62
     7
100
AcDbLine
 10
35.97787608387181
 20
77.38285955416424
 30
0.0
 11
35.13415785362579
 21
40.20347442962093
 31
0.0
  0
LINE
  5
69
330
1F
100
AcDbEntity
  8
VIEW0002
  6
Continuous
 62
     7
100
AcDbLine
 10
34.4054773565469
 20
80.52999161027726
 30
0.0
 11
36.73882725897461
 21
81.52999741435035
 31
0.0
  0
LINE
  5
6A
330
1F
100
AcDbEntity
  8
VIEW0002
  6
Continuous
 62
     7
100
AcDbLine
 10
33.91860156083182
 20
74.79355181819662
 30
0.0
 11
33.15375258584171
 21
41.08962841834559
 31
0.0
  0
LINE
  5
6B
330
1F
100
AcDbEntity
  8
VIEW0002
  6
Continuous
 62
     7
100
AcDbLine
 10
30.92999926601797
 20
36.26893587112382
 30
0.0
 11
29.35642443455443
 21
34.86333732930618
 31
0.0
  0
LINE
  5
6C
330
1F
100
AcDbEntity
  8
VIEW0002
  6
Continuous
 62
     7
100
AcDbLine
 10
33.52841375295677
 20
36.93368379922796
 30
0.0
 11
30.97084822359262
 21
34.86333881727874
 31
0.0
  0
LINE
  5
6D
330
1F
100
AcDbEntity
  8
VIEW0002
  6
Continuous
 62
     7
100
AcDbLine
 10
31.57215830389096
 20
31.52999892944462
 30
0.0
 11
31.67215824396993
 21
34.86333050559242
 31
0.0
  0
LINE
  5
6E
330
1F
100
AcDbEntity
  8
VIEW0002
  6
Continuous
 62
     7
100
AcDbLine
 10
31.57216020093718
 20
31.53000435293815
 30
0.0
 11
30.13881624620996
 21
30.69666510867222
 31
0.0
  0
LINE
  5
6F
330
1F
100
AcDbEntity
  8
VIEW0002
  6
Continuous
 62
     7
100
AcDbLine
 10
31.67215949299456
 20
34.86333497550292
 30
0.0
 11
33.9709119954516
 21
36.73988065781334
 31
0.0
  0
LINE
  5
70
330
1F
100
AcDbEntity
  8
VIEW0002
  6
Continuous
 62
     7
100
AcDbLine
 10
-14.69305973078957
 20
66.25355635661465
 30
0.0
 11
-10.22751253901848
 21
40.92818048502376
 31
0.0
  0
LINE
  5
71
330
1F
100
AcDbEntity
  8
VIEW0002
  6
Continuous
 62
     7
100
AcDbLine
 10
-1.861175775527954
 20
34.86333084106445
 30
0.0
 11
31.67214965820312
 21
34.86333084106445
 31
0.0
  0
LINE
  5
72
330
1F
100
AcDbEntity
  8
VIEW0002
  6
Continuous
 62
     7
100
AcDbLine
 10
-20.76118469238281
 20
81.52999877929688
 30
0.0
 11
-1.894516229629517
 21
81.52999877929688
 31
0.0
  0
LINE
  5
73
330
1F
100
AcDbEntity
  8
VIEW0002
  6
Continuous
 62
     7
100
AcDbLine
 10
-1.761184930801392
 20
38.19666290283203
 30
0.0
 11
31.5721435546875
 21
38.19666290283203
 31
0.0
  0
LINE
  5
74
330
1F
100
AcDbEntity
  8
VIEW0002
  6
Continuous
 62
     7
100
AcDbLine
 10
-4.761184692382812
 20
81.52999877929688
 30
0.0
 11
-4.761184692382812
 21
79.19666290283203
 31
0.0
  0
LINE
  5
75
330
1F
100
AcDbEntity
  8
VIEW0002
  6
Continuous
 62
     7
100
AcDbLine
 10
-3.761184930801392
 20
78.19666290283203
 30
0.0
 11
-2.081985712051392
 21
78.19666290283203
 31
0.0
  0
LINE
  5
76
330
1F
100
AcDbEntity
  8
VIEW0002
  6
Continuous
 62
     7
100
AcDbLine
 10
-21.26118469238281
 20
85.52999877929688
 30
0.0
 11
0.527999639511108
 21
85.52999877929688
 31
0.0
  0
LINE
  5
77
330
1F
100
AcDbEntity
  8
VIEW0002
  6
Continuous
 62
     7
100
AcDbLine
 10
-3.536399175203613
 20
100.863320893933
 30
0.0
 11
0.494416422942923
 21
85.82011241179332
 31
0.0
  0
LINE
  5
78
330
1F
100
AcDbEntity
  8
VIEW0002
  6
Continuous
 62
     7
100
AcDbLine
 10
-1.727844476699829
 20
81.12998962402344
 30
0.0
 11
-1.375015497207642
 21
81.12998962402344
 31
0.0
  0
LINE
  5
79
330
1F
100
AcDbEntity
  8
VIEW0002
  6
Continuous
 62
     7
100
AcDbLine
 10
-0.742561934581595
 20
81.58584139890897
 30
0.0
 11
0.477179903751203
 21
85.24506702885976
 31
0.0
  0
LINE
  5
7A
330
1F
100
AcDbEntity
  8
VIEW0002
  6
Continuous
 62
     7
100
AcDbLine
 10
-1.894520473159265
 20
81.52999833045317
 30
0.0
 11
-1.727850479025062
 21
81.12999034969693
 31
0.0
  0
LINE
  5
7B
330
1F
100
AcDbEntity
  8
VIEW0002
  6
Continuous
 62
     7
100
AcDbLine
 10
-13.21501922483404
 20
77.54568267567541
 30
0.0
 11
-6.663168715745207
 21
40.38829307224358
 31
0.0
  0
LINE
  5
7C
330
1F
100
AcDbEntity
  8
VIEW0002
  6
Continuous
 62
     7
100
AcDbLine
 10
-14.59451743661275
 20
81.52999607314729
 30
0.0
 11
-7.357016803227669
 21
40.48409149752938
 31
0.0
  0
LINE
  5
7D
330
1F
100
AcDbEntity
  8
VIEW0002
  6
Continuous
 62
     7
100
AcDbLine
 10
-4.270303253753342
 20
37.23391921864741
 30
0.0
 11
0.670124094346944
 21
34.86333113888416
 31
0.0
  0
LINE
  5
7E
330
1F
100
AcDbEntity
  8
VIEW0002
  6
Continuous
 62
     7
100
AcDbLine
 10
-4.825470636170884
 20
37.26616191164734
 30
0.0
 11
0.670121095841072
 21
34.86333576776439
 31
0.0
  0
LINE
  5
7F
330
1F
100
AcDbEntity
  8
VIEW0002
  6
Continuous
 62
     7
100
AcDbLine
 10
-2.037291694180414
 20
37.45332247663775
 30
0.0
 11
3.299183191974452
 21
34.86333686158045
 31
0.0
  0
LINE
  5
80
330
1F
100
AcDbEntity
  8
VIEW0002
  6
Continuous
 62
     7
100
AcDbLine
 10
-10.01751654888845
 20
74.76849403915939
 30
0.0
 11
-3.864551966724151
 21
39.87329887583277
 31
0.0
  0
LINE
  5
81
330
1F
100
AcDbEntity
  8
VIEW0002
  6
Continuous
 62
     7
100
AcDbLine
 10
-14.59450693771563
 20
81.5299983958665
 30
0.0
 11
-11.26117309639131
 21
80.52999880353096
 31
0.0
  0
LINE
  5
82
330
1F
100
AcDbEntity
  8
VIEW0002
  6
Continuous
 62
     7
100
AcDbLine
 10
31.5721435546875
 20
31.52999877929688
 30
0.0
 11
-1.761184930801392
 21
31.52999877929688
 31
0.0
  0
LINE
  5
83
330
1F
100
AcDbEntity
  8
VIEW0002
  6
Continuous
 62
     7
100
AcDbLine
 10
-1.761179458362517
 20
31.52999943343455
 30
0.0
 11
-1.861179455636209
 21
34.86333291607325
 31
0.0
  0
LINE
  5
84
330
1F
100
AcDbEntity
  8
VIEW0002
  6
Continuous
 62
     7
100
AcDbLine
 10
-1.761171863610956
 20
31.52999571082202
 30
0.0
 11
-0.327841100217599
 21
30.69666413593382
 31
0.0
  0
LINE
  5
85
330
1F
100
AcDbEntity
  8
VIEW0002
  6
Continuous
 62
     7
100
AcDbLine
 10
-0.327850580215454
 20
30.69666481018066
 30
0.0
 11
30.13882446289062
 21
30.69666481018066
 31
0.0
  0
LINE
  5
86
330
1F
100
AcDbEntity
  8
VIEW0002
  6
Continuous
 62
     7
100
AcDbLine
 10
-7.285943957426964
 20
37.20623720044037
 30
0.0
 11
-1.861174014027903
 21
34.86333197053582
 31
0.0
  0
LINE
  5
87
330
1F
100
AcDbEntity
  8
VIEW0002
  6
Continuous
 62
     7
100
AcDbLine
 10
-15.52785147429168
 20
85.52999721458976
 30
0.0
 11
-15.02785159143774
 21
81.52999815175828
 31
0.0
  0
LINE
  5
88
330
1F
100
AcDbEntity
  8
VIEW0002
  6
Continuous
 62
     7
100
AcDbLine
 10
-11.26116943359375
 20
80.52999877929688
 30
0.0
 11
-4.761184692382812
 21
80.52999877929688
 31
0.0
  0
LINE
  5
89
330
1F
100
AcDbEntity
  8
VIEW0002
  6
Continuous
 62
     7
100
AcDbLine
 10
-20.09451714934067
 20
81.52999395310285
 30
0.0
 11
-18.97778308020461
 21
75.19668051245706
 31
0.0
  0
LINE
  5
8A
330
1F
100
AcDbEntity
  8
VIEW0002
  6
Continuous
 62
     7
100
AcDbLine
 10
-30.42784118652344
 20
102.1966552734375
 30
0.0
 11
-28.48323059082031
 21
102.1966552734375
 31
0.0
  0
LINE
  5
8B
330
1F
100
AcDbEntity
  8
VIEW0002
  6
Continuous
 62
     7
100
AcDbLine
 10
-30.42784118652344
 20
102.8633270263672
 30
0.0
 11
-27.38124084472656
 21
102.8633270263672
 31
0.0
  0
LINE
  5
8C
330
1F
100
AcDbEntity
  8
VIEW0002
  6
Continuous
 62
     7
100
AcDbLine
 10
-22.76802062988281
 20
100.8633270263672
 30
0.0
 11
-3.536407709121704
 21
100.8633270263672
 31
0.0
  0
LINE
  5
8D
330
1F
100
AcDbEntity
  8
VIEW0002
  6
Continuous
 62
     7
100
AcDbLine
 10
-22.76800537109375
 20
100.2025146484375
 30
0.0
 11
-3.359329462051392
 21
100.2025146484375
 31
0.0
  0
LINE
  5
8E
330
1F
100
AcDbEntity
  8
VIEW0002
  6
Continuous
 62
     7
100
AcDbLine
 10
-28.59451293945312
 20
94.86332702636719
 30
0.0
 11
-1.928711175918579
 21
94.86332702636719
 31
0.0
  0
LINE
  5
8F
330
1F
100
AcDbEntity
  8
VIEW0002
  6
Continuous
 62
     7
100
AcDbLine
 10
-18.06190043947919
 20
91.04055766211843
 30
0.0
 11
-17.17169656049996
 21
87.71827158451873
 31
0.0
  0
LINE
  5
90
330
1F
100
AcDbEntity
  8
VIEW0002
  6
Continuous
 62
     7
100
AcDbLine
 10
-29.32377624511719
 20
96.51068878173828
 30
0.0
 11
-28.81915283203125
 21
96.51068878173828
 31
0.0
  0
LINE
  5
91
330
1F
100
AcDbEntity
  8
VIEW0002
  6
Continuous
 62
     7
100
AcDbLine
 10
-21.26118135092462
 20
85.53000105897382
 30
0.0
 11
-20.76118052176076
 21
81.52999442566295
 31
0.0
  0
LINE
  5
92
330
1F
100
AcDbEntity
  8
VIEW0002
  6
Continuous
 62
     7
100
AcDbLine
 10
-28.59450650313114
 20
94.86332722673251
 30
0.0
 11
-28.81914636293596
 21
96.51068671064608
 31
0.0
  0
LINE
  5
93
330
1F
100
AcDbEntity
  8
VIEW0002
  6
Continuous
 62
     7
100
AcDbLine
 10
-29.32377493698239
 20
96.51068866445313
 30
0.0
 11
-30.09913453385254
 21
102.196660808743
 31
0.0
  0
LINE
  5
94
330
1F
100
AcDbEntity
  8
VIEW0002
  6
Continuous
 62
     7
100
AcDbLine
 10
-23.06581115722656
 20
100.8633270263672
 30
0.0
 11
-23.06581115722656
 21
100.2656173706055
 31
0.0
  0
LINE
  5
95
330
1F
100
AcDbEntity
  8
VIEW0002
  6
Continuous
 62
     7
100
AcDbLine
 10
-28.49914355948318
 20
102.8633282826414
 30
0.0
 11
-23.34375189311845
 21
100.9656373815448
 31
0.0
  0
LINE
  5
96
330
1F
100
AcDbEntity
  8
VIEW0002
  6
Continuous
 62
     7
100
AcDbLine
 10
-28.48323294301834
 20
102.196660514618
 30
0.0
 11
-23.34374305734335
 21
100.3048230319383
 31
0.0
  0
LINE
  5
97
330
1F
100
AcDbEntity
  8
VIEW0002
  6
Continuous
 62
     7
100
AcDbLine
 10
-23.31558227539062
 20
98.86332702636719
 30
0.0
 11
-3.000503778457642
 21
98.86332702636719
 31
0.0
  0
LINE
  5
98
330
1F
100
AcDbEntity
  8
VIEW0002
  6
Continuous
 62
     7
100
AcDbLine
 10
-22.61651808954096
 20
98.8633205274567
 30
0.0
 11
-22.7991350670866
 21
100.2025121123554
 31
0.0
  0
LINE
  5
99
330
1F
100
AcDbEntity
  8
VIEW0002
  6
Continuous
 62
     7
100
AcDbLine
 10
-21.50245041081984
 20
94.86332830608102
 30
0.0
 11
-22.04790362908365
 21
98.86331981657585
 31
0.0
  0
LINE
  5
9A
330
1F
100
AcDbEntity
  8
VIEW0002
  6
Continuous
 62
     7
100
AcDbLine
 10
-25.15397311084157
 20
91.0405499382537
 30
0.0
 11
-24.39965949969339
 21
88.22541324020295
 31
0.0
  0
LINE
  5
9B
330
1F
100
AcDbEntity
  8
VIEW0002
  6
Continuous
 62
     7
100
AcDbLine
 10
-29.32378090030216
 20
96.51068617360413
 30
0.0
 11
-29.27224799595086
 21
97.60537536873059
 31
0.0
  0
LINE
  5
9C
330
1F
100
AcDbEntity
  8
VIEW0002
  6
Continuous
 62
     7
100
AcDbLine
 10
-28.8191483138202
 20
96.51069173670928
 30
0.0
 11
-28.78091318193577
 21
97.32290261973651
 31
0.0
  0
LINE
  5
9D
330
1F
100
AcDbEntity
  8
VIEW0002
  6
Continuous
 62
     7
100
AcDbLine
 10
-29.11601267028251
 20
97.87232373240886
 30
0.0
 11
-28.47885408637253
 21
98.27075977929964
 31
0.0
  0
LINE
  5
9E
330
1F
100
AcDbEntity
  8
VIEW0002
  6
Continuous
 62
     7
100
AcDbLine
 10
-28.62468680817837
 20
97.58985383938303
 30
0.0
 11
-28.21375322372523
 21
97.84682401456205
 31
0.0
  0
LINE
  5
9F
330
1F
100
AcDbEntity
  8
VIEW0002
  6
Continuous
 62
     7
100
AcDbLine
 10
-28.32225036621094
 20
99.51068115234375
 30
0.0
 11
-28.32225036621094
 21
98.55338287353516
 31
0.0
  0
LINE
  5
A0
330
1F
100
AcDbEntity
  8
VIEW0002
  6
Continuous
 62
     7
100
AcDbLine
 10
-26.02526123245986
 20
98.85736780470013
 30
0.0
 11
-25.52378933314573
 21
98.027994519792
 31
0.0
  0
LINE
  5
A1
330
1F
100
AcDbEntity
  8
VIEW0002
  6
Continuous
 62
     7
100
AcDbLine
 10
-30.42784118652344
 20
102.8633270263672
 30
0.0
 11
-30.42784118652344
 21
102.1966552734375
 31
0.0
  0
LINE
  5
A2
330
1F
100
AcDbEntity
  8
VIEW0002
  6
Continuous
 62
     7
100
AcDbLine
 10
-27.38124062437846
 20
102.8633241457015
 30
0.0
 11
-22.047910387174
 21
100.8633254340653
 31
0.0
  0
LINE
  5
A3
330
1F
100
AcDbEntity
  8
VIEW0002
  6
Continuous
 62
     7
100
AcDbLine
 10
34.73881530761719
 20
-44.70332717895508
 30
0.0
 11
34.02799987792969
 21
-44.70332717895508
 31
0.0
  0
LINE
  5
A4
330
1F
100
AcDbEntity
  8
VIEW0002
  6
Continuous
 62
     7
100
AcDbLine
 10
6.572158813476562
 20
-88.4699935913086
 30
0.0
 11
18.94573974609375
 21
-88.4699935913086
 31
0.0
  0
LINE
  5
A5
330
1F
100
AcDbEntity
  8
VIEW0002
  6
Continuous
 62
     7
100
AcDbLine
 10
7.763687344145799
 20
-50.84676206238009
 30
0.0
 11
10.007590200445
 21
-51.24242268946656
 31
0.0
  0
LINE
  5
A6
330
1F
100
AcDbEntity
  8
VIEW0002
  6
Continuous
 62
     7
100
AcDbLine
 10
17.40857862528715
 20
-61.11576262676191
 30
0.0
 11
19.48015646687394
 21
-86.8033284000623
 31
0.0
  0
LINE
  5
A7
330
1F
100
AcDbEntity
  8
VIEW0002
  6
Continuous
 62
     7
100
AcDbLine
 10
16.74407946146334
 20
-61.16935126788419
 30
0.0
 11
18.94574437332129
 21
-88.4699967463076
 31
0.0
  0
LINE
  5
A8
330
1F
100
AcDbEntity
  8
VIEW0002
  6
Continuous
 62
     7
100
AcDbLine
 10
19.48016271162539
 20
-86.8033266994487
 30
0.0
 11
18.94574062526049
 21
-88.46999232040027
 31
0.0
  0
LINE
  5
A9
330
1F
100
AcDbEntity
  8
VIEW0002
  6
Continuous
 62
     7
100
AcDbLine
 10
7.763681499581965
 20
-53.55456662372865
 30
0.0
 11
10.04715037778397
 21
-53.95720380819746
 31
0.0
  0
LINE
  5
AA
330
1F
100
AcDbEntity
  8
VIEW0002
  6
Continuous
 62
     7
100
AcDbLine
 10
13.07981143961666
 20
-58.46044856191727
 30
0.0
 11
15.80526372497503
 21
-59.0846604813348
 31
0.0
  0
LINE
  5
AB
330
1F
100
AcDbEntity
  8
VIEW0002
  6
Continuous
 62
     7
100
AcDbLine
 10
19.48016357421875
 20
-86.80332946777344
 30
0.0
 11
22.15548706054688
 21
-86.80332946777344
 31
0.0
  0
LINE
  5
AC
330
1F
100
AcDbEntity
  8
VIEW0002
  6
Continuous
 62
     7
100
AcDbLine
 10
11.58134325608729
 20
-56.47867808751158
 30
0.0
 11
11.66502959726152
 21
-58.07550859515641
 31
0.0
  0
LINE
  5
AD
330
1F
100
AcDbEntity
  8
VIEW0002
  6
Continuous
 62
     7
100
AcDbLine
 10
12.24708612066384
 20
-56.44378798224835
 30
0.0
 11
12.30443238889347
 21
-57.53801995993758
 31
0.0
  0
LINE
  5
AE
330
1F
100
AcDbEntity
  8
VIEW0002
  6
Continuous
 62
     7
100
AcDbLine
 10
6.572149522677542
 20
-54.02141587456982
 30
0.0
 11
9.931385364372144
 21
-54.61373980513795
 31
0.0
  0
LINE
  5
AF
330
1F
100
AcDbEntity
  8
VIEW0002
  6
Continuous
 62
     7
100
AcDbLine
 10
12.44039930445913
 20
-58.997933132417
 30
0.0
 11
15.62482346616321
 21
-59.72726364717064
 31
0.0
  0
LINE
  5
B0
330
1F
100
AcDbEntity
  8
VIEW0002
  6
Continuous
 62
     7
100
AcDbLine
 10
20.06662090881518
 20
-60.90140438257667
 30
0.0
 11
22.15548534947858
 21
-86.80332398891323
 31
0.0
  0
LINE
  5
B1
330
1F
100
AcDbEntity
  8
VIEW0002
  6
Continuous
 62
     7
100
AcDbLine
 10
34.07215733318856
 20
-44.30333046320063
 30
0.0
 11
29.42346420786854
 21
-85.10438769028424
 31
0.0
  0
LINE
  5
B2
330
1F
100
AcDbEntity
  8
VIEW0002
  6
Continuous
 62
     7
100
AcDbLine
 10
32.9384687123427
 20
-48.36442867384996
 30
0.0
 11
28.73863971958006
 21
-85.22585584449749
 31
0.0
  0
LINE
  5
B3
330
1F
100
AcDbEntity
  8
VIEW0002
  6
Continuous
 62
     7
100
AcDbLine
 10
29.91648972645809
 20
-51.3316305347999
 30
0.0
 11
25.98606722140185
 21
-85.82850723374902
 31
0.0
  0
LINE
  5
B4
330
1F
100
AcDbEntity
  8
VIEW0002
  6
Continuous
 62
     7
100
AcDbLine
 10
6.572158813476562
 20
-90.9699935913086
 30
0.0
 11
23.33882141113281
 21
-90.9699935913086
 31
0.0
  0
LINE
  5
B5
330
1F
100
AcDbEntity
  8
VIEW0002
  6
Continuous
 62
     7
100
AcDbLine
 10
18.54984567301234
 20
-90.96998651117619
 30
0.0
 11
24.04553039386028
 21
-88.48931435450001
 31
0.0
  0
LINE
  5
B6
330
1F
100
AcDbEntity
  8
VIEW0002
  6
Continuous
 62
     7
100
AcDbLine
 10
20.98371692026303
 20
-90.96999752302128
 30
0.0
 11
26.16724325346754
 21
-88.7065501695764
 31
0.0
  0
LINE
  5
B7
330
1F
100
AcDbEntity
  8
VIEW0002
  6
Continuous
 62
     7
100
AcDbLine
 10
26.94565535958923
 20
-88.89571671341781
 30
0.0
 11
23.33882487096469
 21
-90.96999383152895
 31
0.0
  0
LINE
  5
B8
330
1F
100
AcDbEntity
  8
VIEW0002
  6
Continuous
 62
     7
100
AcDbLine
 10
6.572158813476562
 20
-94.30332946777344
 30
0.0
 11
23.23881530761719
 21
-94.30332946777344
 31
0.0
  0
LINE
  5
B9
330
1F
100
AcDbEntity
  8
VIEW0002
  6
Continuous
 62
     7
100
AcDbLine
 10
23.23881937890214
 20
-94.30332291065795
 30
0.0
 11
23.3388193189811
 21
-90.96999133451015
 31
0.0
  0
LINE
  5
BA
330
1F
100
AcDbEntity
  8
VIEW0002
  6
Continuous
 62
     7
100
AcDbLine
 10
23.238826075306
 20
-94.30333331602742
 30
0.0
 11
21.80549531191264
 21
-95.13666489091563
 31
0.0
  0
LINE
  5
BB
330
1F
100
AcDbEntity
  8
VIEW0002
  6
Continuous
 62
     7
100
AcDbLine
 10
21.80548095703125
 20
-95.13665771484375
 30
0.0
 11
6.572158813476562
 21
-95.13665771484375
 31
0.0
  0
LINE
  5
BC
330
1F
100
AcDbEntity
  8
VIEW0002
  6
Continuous
 62
     7
100
AcDbLine
 10
34.78427124023438
 20
-44.30332946777344
 30
0.0
 11
6.572158813476562
 21
-44.30332946777344
 31
0.0
  0
LINE
  5
BD
330
1F
100
AcDbEntity
  8
VIEW0002
  6
Continuous
 62
     7
100
AcDbLine
 10
6.572158813476562
 20
-30.96999740600586
 30
0.0
 11
41.90548706054688
 21
-30.96999740600586
 31
0.0
  0
LINE
  5
BE
330
1F
100
AcDbEntity
  8
VIEW0002
  6
CENTER
 62
     7
100
AcDbLine
 10
6.572158813476562
 20
-19.96999740600586
 30
0.0
 11
6.572158813476562
 21
-109.5033264160156
 31
0.0
  0
LINE
  5
BF
330
1F
100
AcDbEntity
  8
VIEW0002
  6
Continuous
 62
     7
100
AcDbLine
 10
6.572158813476562
 20
-22.96999740600586
 30
0.0
 11
16.23881530761719
 21
-22.96999740600586
 31
0.0
  0
LINE
  5
C0
330
1F
100
AcDbEntity
  8
VIEW0002
  6
Continuous
 62
     7
100
AcDbLine
 10
6.572158813476562
 20
-23.63666534423828
 30
0.0
 11
16.21430969238281
 21
-23.63666534423828
 31
0.0
  0
LINE
  5
C1
330
1F
100
AcDbEntity
  8
VIEW0002
  6
Continuous
 62
     7
100
AcDbLine
 10
42.65036010742188
 20
-26.96999740600586
 30
0.0
 11
35.00410461425781
 21
-26.96999740600586
 31
0.0
  0
LINE
  5
C2
330
1F
100
AcDbEntity
  8
VIEW0002
  6
Continuous
 62
     7
100
AcDbLine
 10
11.43813103307569
 20
-27.46463685073068
 30
0.0
 11
8.098160476127259
 21
-28.05356379170888
 31
0.0
  0
LINE
  5
C3
330
1F
100
AcDbEntity
  8
VIEW0002
  6
Continuous
 62
     7
100
AcDbLine
 10
43.40548706054688
 20
-24.96999740600586
 30
0.0
 11
43.40548706054688
 21
-25.53083419799805
 31
0.0
  0
LINE
  5
C4
330
1F
100
AcDbEntity
  8
VIEW0002
  6
Continuous
 62
     7
100
AcDbLine
 10
42.81703186035156
 20
-26.96999740600586
 30
0.0
 11
42.40548706054688
 21
-26.96999740600586
 31
0.0
  0
LINE
  5
C5
330
1F
100
AcDbEntity
  8
VIEW0002
  6
Continuous
 62
     7
100
AcDbLine
 10
16.21430728680093
 20
-23.63666449076941
 30
0.0
 11
43.29814630298189
 21
-25.6305667161135
 31
0.0
  0
LINE
  5
C6
330
1F
100
AcDbEntity
  8
VIEW0002
  6
Continuous
 62
     7
100
AcDbLine
 10
35.23881549678583
 20
-40.3033338833864
 30
0.0
 11
34.73881533592256
 21
-44.70332624557159
 31
0.0
  0
LINE
  5
C7
330
1F
100
AcDbEntity
  8
VIEW0002
  6
Continuous
 62
     7
100
AcDbLine
 10
16.23881505407097
 20
-22.96999853899461
 30
0.0
 11
43.40548350088907
 21
-24.96999863643035
 31
0.0
  0
LINE
  5
C8
330
1F
100
AcDbEntity
  8
VIEW0002
  6
Continuous
 62
     7
100
AcDbLine
 10
43.07213336504967
 20
-25.61392815038696
 30
0.0
 11
42.91627244596256
 21
-26.88219801696273
 31
0.0
  0
LINE
  5
C9
330
1F
100
AcDbEntity
  8
VIEW0002
  6
Continuous
 62
     7
100
AcDbLine
 10
38.84127368792672
 20
-34.63230256568165
 30
0.0
 11
38.02906631657087
 21
-37.66350171645772
 31
0.0
  0
LINE
  5
CA
330
1F
100
AcDbEntity
  8
VIEW0002
  6
Continuous
 62
     7
100
AcDbLine
 10
42.40547867748403
 20
-26.96999841888131
 30
0.0
 11
41.90547773003171
 21
-30.96999734863785
 31
0.0
  0
LINE
  5
CB
330
1F
100
AcDbEntity
  8
VIEW0002
  6
Continuous
 62
     7
100
AcDbLine
 10
6.572158813476562
 20
-40.30332946777344
 30
0.0
 11
35.23881530761719
 21
-40.30332946777344
 31
0.0
  0
LINE
  5
CC
330
1F
100
AcDbEntity
  8
VIEW0002
  6
Continuous
 62
     7
100
AcDbLine
 10
-21.59451293945312
 20
-44.70332717895508
 30
0.0
 11
-20.88368225097656
 21
-44.70332717895508
 31
0.0
  0
LINE
  5
CD
330
1F
100
AcDbEntity
  8
VIEW0002
  6
Continuous
 62
     7
100
AcDbLine
 10
6.572158813476562
 20
-88.4699935913086
 30
0.0
 11
-5.801422119140625
 21
-88.4699935913086
 31
0.0
  0
LINE
  5
CE
330
1F
100
AcDbEntity
  8
VIEW0002
  6
Continuous
 62
     7
100
AcDbLine
 10
5.380625623904272
 20
-50.84676196527219
 30
0.0
 11
3.136723002401535
 21
-51.2424225509577
 31
0.0
  0
LINE
  5
CF
330
1F
100
AcDbEntity
  8
VIEW0002
  6
Continuous
 62
     7
100
AcDbLine
 10
-4.264275245447006
 20
-61.11576576025077
 30
0.0
 11
-6.335852780392456
 21
-86.80332773119842
 31
0.0
  0
LINE
  5
D0
330
1F
100
AcDbEntity
  8
VIEW0002
  6
Continuous
 62
     7
100
AcDbLine
 10
-3.599760931624026
 20
-61.16935562314715
 30
0.0
 11
-5.801425536840629
 21
-88.46999729921784
 31
0.0
  0
LINE
  5
D1
330
1F
100
AcDbEntity
  8
VIEW0002
  6
Continuous
 62
     7
100
AcDbLine
 10
-6.335845078429372
 20
-86.8033360131413
 30
0.0
 11
-5.801425321624716
 21
-88.46999436905261
 31
0.0
  0
LINE
  5
D2
330
1F
100
AcDbEntity
  8
VIEW0002
  6
Continuous
 62
     7
100
AcDbLine
 10
5.380632365679821
 20
-53.55457024196323
 30
0.0
 11
3.097163487477817
 21
-53.95720742643203
 31
0.0
  0
LINE
  5
D3
330
1F
100
AcDbEntity
  8
VIEW0002
  6
Continuous
 62
     7
100
AcDbLine
 10
0.064498657182657
 20
-58.460454832851
 30
0.0
 11
-2.66095362817571
 21
-59.08466675226854
 31
0.0
  0
LINE
  5
D4
330
1F
100
AcDbEntity
  8
VIEW0002
  6
Continuous
 62
     7
100
AcDbLine
 10
-6.335845947265625
 20
-86.80332946777344
 30
0.0
 11
-9.01116943359375
 21
-86.80332946777344
 31
0.0
  0
LINE
  5
D5
330
1F
100
AcDbEntity
  8
VIEW0002
  6
Continuous
 62
     7
100
AcDbLine
 10
1.562971147929153
 20
-56.47868255822046
 30
0.0
 11
1.479285006400754
 21
-58.07550925639594
 31
0.0
  0
LINE
  5
D6
330
1F
100
AcDbEntity
  8
VIEW0002
  6
Continuous
 62
     7
100
AcDbLine
 10
0.897213045475181
 20
-56.44379165437392
 30
0.0
 11
0.839866777245554
 21
-57.53802363206314
 31
0.0
  0
LINE
  5
D7
330
1F
100
AcDbEntity
  8
VIEW0002
  6
Continuous
 62
     7
100
AcDbLine
 10
6.57216316860192
 20
-54.02141969980917
 30
0.0
 11
3.212928500889643
 21
-54.61374342337254
 31
0.0
  0
LINE
  5
D8
330
1F
100
AcDbEntity
  8
VIEW0002
  6
Continuous
 62
     7
100
AcDbLine
 10
0.703909940708561
 20
-58.99793568493189
 30
0.0
 11
-2.48051422099552
 21
-59.72726619968552
 31
0.0
  0
LINE
  5
D9
330
1F
100
AcDbEntity
  8
VIEW0002
  6
Continuous
 62
     7
100
AcDbLine
 10
-6.922302378975864
 20
-60.90140873783963
 30
0.0
 11
-9.011166512997917
 21
-86.80332454182346
 31
0.0
  0
LINE
  5
DA
330
1F
100
AcDbEntity
  8
VIEW0002
  6
Continuous
 62
     7
100
AcDbLine
 10
-20.92783398605457
 20
-44.30333075543923
 30
0.0
 11
-16.27914042889857
 21
-85.10439177269869
 31
0.0
  0
LINE
  5
DB
330
1F
100
AcDbEntity
  8
VIEW0002
  6
Continuous
 62
     7
100
AcDbLine
 10
-19.7941600940761
 20
-48.36443448360832
 30
0.0
 11
-15.5943319649854
 21
-85.22585407390413
 31
0.0
  0
LINE
  5
DC
330
1F
100
AcDbEntity
  8
VIEW0002
  6
Continuous
 62
     7
100
AcDbLine
 10
-16.7721663793241
 20
-51.33163082703851
 30
0.0
 11
-12.84174430610383
 21
-85.82850373581178
 31
0.0
  0
LINE
  5
DD
330
1F
100
AcDbEntity
  8
VIEW0002
  6
Continuous
 62
     7
100
AcDbLine
 10
6.572158813476562
 20
-90.9699935913086
 30
0.0
 11
-10.19450378417969
 21
-90.9699935913086
 31
0.0
  0
LINE
  5
DE
330
1F
100
AcDbEntity
  8
VIEW0002
  6
Continuous
 62
     7
100
AcDbLine
 10
-5.405545156119974
 20
-90.96999001801802
 30
0.0
 11
-10.90121770781963
 21
-88.4893233543184
 31
0.0
  0
LINE
  5
DF
330
1F
100
AcDbEntity
  8
VIEW0002
  6
Continuous
 62
     7
100
AcDbLine
 10
-7.839412052831687
 20
-90.96999528133969
 30
0.0
 11
-13.02293751205165
 21
-88.70654830953038
 31
0.0
  0
LINE
  5
E0
330
1F
100
AcDbEntity
  8
VIEW0002
  6
Continuous
 62
     7
100
AcDbLine
 10
-13.80134641263183
 20
-88.89570959030902
 30
0.0
 11
-10.1945159240073
 21
-90.96998670842017
 31
0.0
  0
LINE
  5
E1
330
1F
100
AcDbEntity
  8
VIEW0002
  6
Continuous
 62
     7
100
AcDbLine
 10
6.572158813476562
 20
-94.30332946777344
 30
0.0
 11
-10.09451293945312
 21
-94.30332946777344
 31
0.0
  0
LINE
  5
E2
330
1F
100
AcDbEntity
  8
VIEW0002
  6
Continuous
 62
     7
100
AcDbLine
 10
-10.09451486128314
 20
-94.30332854412893
 30
0.0
 11
-10.19451480136211
 21
-90.96999696798112
 31
0.0
  0
LINE
  5
E3
330
1F
100
AcDbEntity
  8
VIEW0002
  6
Continuous
 62
     7
100
AcDbLine
 10
-10.09450672062992
 20
-94.3033295105811
 30
0.0
 11
-8.661175957236566
 21
-95.1366610854693
 31
0.0
  0
LINE
  5
E4
330
1F
100
AcDbEntity
  8
VIEW0002
  6
Continuous
 62
     7
100
AcDbLine
 10
-8.661178588867188
 20
-95.13665771484375
 30
0.0
 11
6.572158813476562
 21
-95.13665771484375
 31
0.0
  0
LINE
  5
E5
330
1F
100
AcDbEntity
  8
VIEW0002
  6
Continuous
 62
     7
100
AcDbLine
 10
-21.63996887207031
 20
-44.30332946777344
 30
0.0
 11
6.572158813476562
 21
-44.30332946777344
 31
0.0
  0
LINE
  5
E6
330
1F
100
AcDbEntity
  8
VIEW0002
  6
Continuous
 62
     7
100
AcDbLine
 10
6.572158813476562
 20
-30.96999740600586
 30
0.0
 11
-28.76116943359375
 21
-30.96999740600586
 31
0.0
  0
LINE
  5
E7
330
1F
100
AcDbEntity
  8
VIEW0002
  6
Continuous
 62
     7
100
AcDbLine
 10
6.572158813476562
 20
-22.96999740600586
 30
0.0
 11
-3.094513177871704
 21
-22.96999740600586
 31
0.0
  0
LINE
  5
E8
330
1F
100
AcDbEntity
  8
VIEW0002
  6
Continuous
 62
     7
100
AcDbLine
 10
6.572158813476562
 20
-23.63666534423828
 30
0.0
 11
-3.070007562637329
 21
-23.63666534423828
 31
0.0
  0
LINE
  5
E9
330
1F
100
AcDbEntity
  8
VIEW0002
  6
Continuous
 62
     7
100
AcDbLine
 10
-29.50604248046875
 20
-26.96999740600586
 30
0.0
 11
-21.85980224609375
 21
-26.96999740600586
 31
0.0
  0
LINE
  5
EA
330
1F
100
AcDbEntity
  8
VIEW0002
  6
Continuous
 62
     7
100
AcDbLine
 10
1.70618170017792
 20
-27.46463690643763
 30
0.0
 11
5.046151552736956
 21
-28.05356372321297
 31
0.0
  0
LINE
  5
EB
330
1F
100
AcDbEntity
  8
VIEW0002
  6
Continuous
 62
     7
100
AcDbLine
 10
-30.26116943359375
 20
-24.96999740600586
 30
0.0
 11
-30.26116943359375
 21
-25.53083419799805
 31
0.0
  0
LINE
  5
EC
330
1F
100
AcDbEntity
  8
VIEW0002
  6
Continuous
 62
     7
100
AcDbLine
 10
-29.67271423339844
 20
-26.96999740600586
 30
0.0
 11
-29.26116943359375
 21
-26.96999740600586
 31
0.0
  0
LINE
  5
ED
330
1F
100
AcDbEntity
  8
VIEW0002
  6
Continuous
 62
     7
100
AcDbLine
 10
-3.069997112006717
 20
-23.63666386510073
 30
0.0
 11
-30.15383707928806
 21
-25.63056616046448
 31
0.0
  0
LINE
  5
EE
330
1F
100
AcDbEntity
  8
VIEW0002
  6
Continuous
 62
     7
100
AcDbLine
 10
-22.09450598935727
 20
-40.30333037540554
 30
0.0
 11
-21.59450539777685
 21
-44.70332652789386
 31
0.0
  0
LINE
  5
EF
330
1F
100
AcDbEntity
  8
VIEW0002
  6
Continuous
 62
     7
100
AcDbLine
 10
-3.094505019316069
 20
-22.96999601112515
 30
0.0
 11
-30.26117441723456
 21
-24.96999617858055
 31
0.0
  0
LINE
  5
F0
330
1F
100
AcDbEntity
  8
VIEW0002
  6
Continuous
 62
     7
100
AcDbLine
 10
-29.92782942797147
 20
-25.61392783627308
 30
0.0
 11
-29.77196827623564
 21
-26.88219959595565
 31
0.0
  0
LINE
  5
F1
330
1F
100
AcDbEntity
  8
VIEW0002
  6
Continuous
 62
     7
100
AcDbLine
 10
-25.69696453902428
 20
-34.63230749933145
 30
0.0
 11
-24.88475864864289
 21
-37.66350112303561
 31
0.0
  0
LINE
  5
F2
330
1F
100
AcDbEntity
  8
VIEW0002
  6
Continuous
 62
     7
100
AcDbLine
 10
-29.26117537403983
 20
-26.96999870576914
 30
0.0
 11
-28.76117442658751
 21
-30.96999763552567
 31
0.0
  0
LINE
  5
F3
330
1F
100
AcDbEntity
  8
VIEW0002
  6
Continuous
 62
     7
100
AcDbLine
 10
6.572158813476562
 20
-40.30332946777344
 30
0.0
 11
-22.09451293945312
 21
-40.30332946777344
 31
0.0
  0
LINE
  5
F4
330
1F
100
AcDbEntity
  8
VIEW0002
  6
Continuous
 62
     7
100
AcDbLine
 10
-6.827835083007812
 20
-95.13666534423828
 30
0.0
 11
-6.827835083007812
 21
-95.2699966430664
 31
0.0
  0
LINE
  5
F5
330
1F
100
AcDbEntity
  8
VIEW0002
  6
Continuous
 62
     7
100
AcDbLine
 10
18.96353149414062
 20
-106.1700897216797
 30
0.0
 11
-5.819229125976562
 21
-106.1700897216797
 31
0.0
  0
LINE
  5
F6
330
1F
100
AcDbEntity
  8
VIEW0002
  6
Continuous
 62
     7
100
AcDbLine
 10
19.97215270996094
 20
-95.13666534423828
 30
0.0
 11
19.97215270996094
 21
-95.2699966430664
 31
0.0
  0
LINE
  5
F7
330
1F
100
AcDbEntity
  8
VIEW0002
  6
Continuous
 62
     7
100
AcDbLine
 10
21.80548900824873
 20
-95.26999156131168
 30
0.0
 11
21.63070270373112
 21
-102.2614441588692
 31
0.0
  0
LINE
  5
F8
330
1F
100
AcDbEntity
  8
VIEW0002
  6
Continuous
 62
     7
100
AcDbLine
 10
21.28881853188213
 20
-102.6033256160112
 30
0.0
 11
21.63069756820354
 21
-102.2614465508716
 31
0.0
  0
LINE
  5
F9
330
1F
100
AcDbEntity
  8
VIEW0002
  6
Continuous
 62
     7
100
AcDbLine
 10
19.04969514804357
 20
-102.6033329011958
 30
0.0
 11
18.96354166002519
 21
-106.1700873516754
 31
0.0
  0
LINE
  5
FA
330
1F
100
AcDbEntity
  8
VIEW0002
  6
Continuous
 62
     7
100
AcDbLine
 10
18.96354195373262
 20
-106.1700975364772
 30
0.0
 11
18.61380806033541
 21
-106.5033345019322
 31
0.0
  0
LINE
  5
FB
330
1F
100
AcDbEntity
  8
VIEW0002
  6
Continuous
 62
     7
100
AcDbLine
 10
18.61380004882812
 20
-106.5033264160156
 30
0.0
 11
-5.469497680664062
 21
-106.5033264160156
 31
0.0
  0
LINE
  5
FC
330
1F
100
AcDbEntity
  8
VIEW0002
  6
Continuous
 62
     7
100
AcDbLine
 10
21.80548095703125
 20
-95.2699966430664
 30
0.0
 11
-8.661178588867188
 21
-95.2699966430664
 31
0.0
  0
LINE
  5
FD
330
1F
100
AcDbEntity
  8
VIEW0002
  6
Continuous
 62
     7
100
AcDbLine
 10
21.288818359375
 20
-102.6033248901367
 30
0.0
 11
-8.144515991210938
 21
-102.6033248901367
 31
0.0
  0
LINE
  5
FE
330
1F
100
AcDbEntity
  8
VIEW0002
  6
Continuous
 62
     7
100
AcDbLine
 10
-8.661178681509819
 20
-95.270000566465
 30
0.0
 11
-8.486392567667487
 21
-102.2614455370111
 31
0.0
  0
LINE
  5
FF
330
1F
100
AcDbEntity
  8
VIEW0002
  6
Continuous
 62
     7
100
AcDbLine
 10
-8.14451797601619
 20
-102.6033234726038
 30
0.0
 11
-8.486397012337612
 21
-102.2614444074641
 31
0.0
  0
LINE
  5
100
330
1F
100
AcDbEntity
  8
VIEW0002
  6
Continuous
 62
     7
100
AcDbLine
 10
21.63070678710938
 20
-102.2614440917969
 30
0.0
 11
-8.48638916015625
 21
-102.2614440917969
 31
0.0
  0
LINE
  5
101
330
1F
100
AcDbEntity
  8
VIEW0002
  6
Continuous
 62
     7
100
AcDbLine
 10
-5.905374970815678
 20
-102.603320267077
 30
0.0
 11
-5.819221114334995
 21
-106.1700899718962
 31
0.0
  0
LINE
  5
102
330
1F
100
AcDbEntity
  8
VIEW0002
  6
Continuous
 62
     7
100
AcDbLine
 10
-5.819233824674555
 20
-106.1700832088821
 30
0.0
 11
-5.469497169529859
 21
-106.5033228058131
 31
0.0
  0
LINE
  5
103
330
1F
100
AcDbEntity
  8
VIEW0002
  6
Continuous
 62
     7
100
AcDbLine
 10
1.505492925643921
 20
30.69666290283203
 30
0.0
 11
1.505492925643921
 21
30.56333160400391
 31
0.0
  0
LINE
  5
104
330
1F
100
AcDbEntity
  8
VIEW0002
  6
Continuous
 62
     7
100
AcDbLine
 10
27.296875
 20
19.66323280334473
 30
0.0
 11
2.514098882675171
 21
19.66323280334473
 31
0.0
  0
LINE
  5
105
330
1F
100
AcDbEntity
  8
VIEW0002
  6
Continuous
 62
     7
100
AcDbLine
 10
28.30548095703125
 20
30.69666290283203
 30
0.0
 11
28.30548095703125
 21
30.56333160400391
 31
0.0
  0
LINE
  5
106
330
1F
100
AcDbEntity
  8
VIEW0002
  6
Continuous
 62
     7
100
AcDbLine
 10
30.1388248965535
 20
30.56333534023435
 30
0.0
 11
29.96403844902944
 21
23.57187702241822
 31
0.0
  0
LINE
  5
107
330
1F
100
AcDbEntity
  8
VIEW0002
  6
Continuous
 62
     7
100
AcDbLine
 10
29.6221525163626
 20
23.23000118050421
 30
0.0
 11
29.96403155268402
 21
23.57188024564388
 31
0.0
  0
LINE
  5
108
330
1F
100
AcDbEntity
  8
VIEW0002
  6
Continuous
 62
     7
100
AcDbLine
 10
27.38301903623744
 20
23.22999576216762
 30
0.0
 11
27.29686545610348
 21
19.66323749810316
 31
0.0
  0
LINE
  5
109
330
1F
100
AcDbEntity
  8
VIEW0002
  6
Continuous
 62
     7
100
AcDbLine
 10
27.29686439978822
 20
19.66322914927978
 30
0.0
 11
26.94713879163348
 21
19.33000007825285
 31
0.0
  0
LINE
  5
10A
330
1F
100
AcDbEntity
  8
VIEW0002
  6
Continuous
 62
     7
100
AcDbLine
 10
26.9471435546875
 20
19.32999610900879
 30
0.0
 11
2.863845586776733
 21
19.32999610900879
 31
0.0
  0
LINE
  5
10B
330
1F
100
AcDbEntity
  8
VIEW0002
  6
Continuous
 62
     7
100
AcDbLine
 10
30.13882446289062
 20
30.56333160400391
 30
0.0
 11
-0.327850580215454
 21
30.56333160400391
 31
0.0
  0
LINE
  5
10C
330
1F
100
AcDbEntity
  8
VIEW0002
  6
Continuous
 62
     7
100
AcDbLine
 10
29.62216186523438
 20
23.22999954223633
 30
0.0
 11
0.188827276229858
 21
23.22999954223633
 31
0.0
  0
LINE
  5
10D
330
1F
100
AcDbEntity
  8
VIEW0002
  6
Continuous
 62
     7
100
AcDbLine
 10
-0.327839748855636
 20
30.56332861027416
 30
0.0
 11
-0.153053444338028
 21
23.57187601271663
 31
0.0
  0
LINE
  5
10E
330
1F
100
AcDbEntity
  8
VIEW0002
  6
Continuous
 62
     7
100
AcDbLine
 10
0.188820209099378
 20
23.23000363298835
 30
0.0
 11
-0.153058827222042
 21
23.57188269812802
 31
0.0
  0
LINE
  5
10F
330
1F
100
AcDbEntity
  8
VIEW0002
  6
Continuous
 62
     7
100
AcDbLine
 10
29.96403503417969
 20
23.57187843322754
 30
0.0
 11
-0.153061151504517
 21
23.57187843322754
 31
0.0
  0
LINE
  5
110
330
1F
100
AcDbEntity
  8
VIEW0002
  6
Continuous
 62
     7
100
AcDbLine
 10
2.427949680573138
 20
23.23000123135568
 30
0.0
 11
2.514103398880457
 21
19.66323724691384
 31
0.0
  0
LINE
  5
111
330
1F
100
AcDbEntity
  8
VIEW0002
  6
Continuous
 62
     7
100
AcDbLine
 10
2.514110976174829
 20
19.66323370708523
 30
0.0
 11
2.863842107824542
 21
19.32999937310626
 31
0.0
  0
ARC
  5
112
330
1F
100
AcDbEntity
  8
VIEW0002
  6
Continuous
 62
     7
100
AcDbCircle
 10
33.40548706054688
 20
79.19666290283203
 30
0.0
 40
0.9999999403953552
100
AcDbArc
 50
269.9999974955218
 51
0.0
  0
ARC
  5
113
330
1F
100
AcDbEntity
  8
VIEW0002
  6
Continuous
 62
     7
100
AcDbCircle
 10
33.40548706054688
 20
80.52999877929688
 30
0.0
 40
0.9999999403953552
100
AcDbArc
 50
0.0
 51
90.00000250447816
  0
ARC
  5
114
330
1F
100
AcDbEntity
  8
VIEW0002
  6
Continuous
 62
     7
100
AcDbCircle
 10
30.0721435546875
 20
85.19666290283203
 30
0.0
 40
0.9999999403953552
100
AcDbArc
 50
90.00000250447816
 51
180.0000050089563
  0
ARC
  5
115
330
1F
100
AcDbEntity
  8
VIEW0002
  6
Continuous
 62
     7
100
AcDbCircle
 10
49.30776977539062
 20
77.08036041259766
 30
0.0
 40
13.33333206176758
100
AcDbArc
 50
160.5051288157442
 51
178.7000014438495
  0
ARC
  5
116
330
1F
100
AcDbEntity
  8
VIEW0002
  6
Continuous
 62
     7
100
AcDbCircle
 10
43.916015625
 20
74.56668090820312
 30
0.0
 40
9.999999046325684
100
AcDbArc
 50
135.8665601020005
 51
178.7000014438495
  0
ARC
  5
117
330
1F
100
AcDbEntity
  8
VIEW0002
  6
Continuous
 62
     7
100
AcDbCircle
 10
26.48880004882812
 20
41.24087905883789
 30
0.0
 40
6.666666030883789
100
AcDbArc
 50
311.7728777989025
 51
358.7000000634312
  0
ARC
  5
118
330
1F
100
AcDbEntity
  8
VIEW0002
  6
Continuous
 62
     7
100
AcDbCircle
 10
30.80194091796875
 20
40.30178451538086
 30
0.0
 40
4.333333015441895
100
AcDbArc
 50
308.9901118819721
 51
358.7000000634312
  0
ARC
  5
119
330
1F
100
AcDbEntity
  8
VIEW0002
  6
Continuous
 62
     7
100
AcDbCircle
 10
30.80900573730469
 20
40.6131706237793
 30
0.0
 40
4.999999523162842
100
AcDbArc
 50
309.2258695215535
 51
358.7000000634312
  0
ARC
  5
11A
330
1F
100
AcDbEntity
  8
VIEW0002
  6
Continuous
 62
     7
100
AcDbCircle
 10
30.95895385742188
 20
81.79666137695312
 30
0.0
 40
0.6666666269302368
100
AcDbArc
 50
205.5599698842004
 51
269.9999974955218
  0
ARC
  5
11B
330
1F
100
AcDbEntity
  8
VIEW0002
  6
Continuous
 62
     7
100
AcDbCircle
 10
-24.54112243652344
 20
64.51707458496094
 30
0.0
 40
9.999999046325684
100
AcDbArc
 50
10.00000056286657
 51
30.06477834891446
  0
ARC
  5
11C
330
1F
100
AcDbEntity
  8
VIEW0002
  6
Continuous
 62
     7
100
AcDbCircle
 10
-3.761184930801392
 20
79.19666290283203
 30
0.0
 40
0.9999999403953552
100
AcDbArc
 50
179.999991348578
 51
270.0000006832453
  0
ARC
  5
11D
330
1F
100
AcDbEntity
  8
VIEW0002
  6
Continuous
 62
     7
100
AcDbCircle
 10
-3.761184930801392
 20
80.52999877929688
 30
0.0
 40
0.9999999403953552
100
AcDbArc
 50
90.00000250447816
 51
180.0000050089563
  0
ARC
  5
11E
330
1F
100
AcDbEntity
  8
VIEW0002
  6
Continuous
 62
     7
100
AcDbCircle
 10
-0.471512079238892
 20
85.56129455566406
 30
0.0
 40
0.9999999403953552
100
AcDbArc
 50
341.5650513452106
 51
15.00000041741303
  0
ARC
  5
11F
330
1F
100
AcDbEntity
  8
VIEW0002
  6
Continuous
 62
     7
100
AcDbCircle
 10
-26.34579467773438
 20
75.2303695678711
 30
0.0
 40
13.33333206176758
100
AcDbArc
 50
9.99999970909292
 51
28.19487233719819
  0
ARC
  5
120
330
1F
100
AcDbEntity
  8
VIEW0002
  6
Continuous
 62
     7
100
AcDbCircle
 10
-3.089508295059204
 20
41.236572265625
 30
0.0
 40
4.333333015441895
100
AcDbArc
 50
190.0000066529676
 51
246.3837100250431
  0
ARC
  5
121
330
1F
100
AcDbEntity
  8
VIEW0002
  6
Continuous
 62
     7
100
AcDbCircle
 10
-2.395660638809204
 20
41.14076995849609
 30
0.0
 40
4.333333015441895
100
AcDbArc
 50
190.0000066529676
 51
244.366700521625
  0
ARC
  5
122
330
1F
100
AcDbEntity
  8
VIEW0002
  6
Continuous
 62
     7
100
AcDbCircle
 10
-19.8656005859375
 20
73.03202056884766
 30
0.0
 40
9.999999046325684
100
AcDbArc
 50
10.00000056286657
 51
58.18968735089691
  0
ARC
  5
123
330
1F
100
AcDbEntity
  8
VIEW0002
  6
Continuous
 62
     7
100
AcDbCircle
 10
-0.581863641738892
 20
40.45212554931641
 30
0.0
 40
3.333333015441895
100
AcDbArc
 50
190.0000066529676
 51
244.1110055598564
  0
ARC
  5
124
330
1F
100
AcDbEntity
  8
VIEW0002
  6
Continuous
 62
     7
100
AcDbCircle
 10
-5.303482055664062
 20
41.79642105102539
 30
0.0
 40
4.999999523162842
100
AcDbArc
 50
190.0000066529676
 51
246.6409554397533
  0
ARC
  5
125
330
1F
100
AcDbEntity
  8
VIEW0002
  6
Continuous
 62
     7
100
AcDbCircle
 10
-1.375015497207642
 20
81.79666137695312
 30
0.0
 40
0.6666666269302368
100
AcDbArc
 50
269.9999974955218
 51
341.5650513452106
  0
ARC
  5
126
330
1F
100
AcDbEntity
  8
VIEW0002
  6
Continuous
 62
     7
100
AcDbCircle
 10
14.8221435546875
 20
82.02999877929688
 30
0.0
 40
17.33333206176758
100
AcDbArc
 50
192.776806399658
 51
347.2231868838384
  0
ARC
  5
127
330
1F
100
AcDbEntity
  8
VIEW0002
  6
Continuous
 62
     7
100
AcDbCircle
 10
-27.57940673828125
 20
66.8293685913086
 30
0.0
 40
11.99999904632568
100
AcDbArc
 50
12.99061340510864
 51
44.2087477425552
  0
ARC
  5
128
330
1F
100
AcDbEntity
  8
VIEW0002
  6
Continuous
 62
     7
100
AcDbCircle
 10
-23.53547668457031
 20
89.57391357421875
 30
0.0
 40
5.666666507720947
100
AcDbArc
 50
15.00000041741303
 51
68.97528688058824
  0
ARC
  5
129
330
1F
100
AcDbEntity
  8
VIEW0002
  6
Continuous
 62
     7
100
AcDbCircle
 10
-30.62754821777344
 20
89.57391357421875
 30
0.0
 40
5.666666507720947
100
AcDbArc
 50
15.00000041741303
 51
68.97528688058824
  0
ARC
  5
12A
330
1F
100
AcDbEntity
  8
VIEW0002
  6
Continuous
 62
     7
100
AcDbCircle
 10
-20.85792541503906
 20
89.17442321777344
 30
0.0
 40
3.666666507720947
100
AcDbArc
 50
195.0000056537405
 51
263.6859179097627
  0
ARC
  5
12B
330
1F
100
AcDbEntity
  8
VIEW0002
  6
Continuous
 62
     7
100
AcDbCircle
 10
-13.62997436523438
 20
88.66727447509766
 30
0.0
 40
3.666666507720947
100
AcDbArc
 50
195.0000056537405
 51
238.8284006519851
  0
ARC
  5
12C
330
1F
100
AcDbEntity
  8
VIEW0002
  6
Continuous
 62
     7
100
AcDbCircle
 10
-28.44795227050781
 20
97.3072280883789
 30
0.0
 40
0.3333333134651184
100
AcDbArc
 50
122.01908922023
 51
177.3047713813343
  0
ARC
  5
12D
330
1F
100
AcDbEntity
  8
VIEW0002
  6
Continuous
 62
     7
100
AcDbCircle
 10
-28.93928527832031
 20
97.5896987915039
 30
0.0
 40
0.3333333134651184
100
AcDbArc
 50
122.01908922023
 51
177.3047713813343
  0
ARC
  5
12E
330
1F
100
AcDbEntity
  8
VIEW0002
  6
Continuous
 62
     7
100
AcDbCircle
 10
-28.65557861328125
 20
98.55338287353516
 30
0.0
 40
0.8333332538604736
100
AcDbArc
 50
301.6533139208412
 51
17.96717290419726
  0
ARC
  5
12F
330
1F
100
AcDbEntity
  8
VIEW0002
  6
Continuous
 62
     7
100
AcDbCircle
 10
-28.65557861328125
 20
98.55338287353516
 30
0.0
 40
0.3333333134651184
100
AcDbArc
 50
302.0190842112737
 51
0.0
  0
ARC
  5
130
330
1F
100
AcDbEntity
  8
VIEW0002
  6
Continuous
 62
     7
100
AcDbCircle
 10
-25.23855590820312
 20
98.2004623413086
 30
0.0
 40
0.3333333134651184
100
AcDbArc
 50
211.1588125506433
 51
285.1301574128532
  0
ARC
  5
131
330
1F
100
AcDbEntity
  8
VIEW0002
  6
Continuous
 62
     7
100
AcDbCircle
 10
-23.31558227539062
 20
97.1966552734375
 30
0.0
 40
1.666666507720947
100
AcDbArc
 50
90.00000250447816
 51
141.8472786449388
  0
ARC
  5
132
330
1F
100
AcDbEntity
  8
VIEW0002
  6
Continuous
 62
     7
100
AcDbCircle
 10
-25.41256713867188
 20
98.8440170288086
 30
0.0
 40
0.9999999403953552
100
AcDbArc
 50
285.1301574128532
 51
321.8472804661716
  0
ARC
  5
133
330
1F
100
AcDbEntity
  8
VIEW0002
  6
Continuous
 62
     7
100
AcDbCircle
 10
-22.76800537109375
 20
101.8688888549805
 30
0.0
 40
1.666666507720947
100
AcDbArc
 50
249.7914280057459
 51
269.9999974955218
  0
ARC
  5
134
330
1F
100
AcDbEntity
  8
VIEW0002
  6
Continuous
 62
     7
100
AcDbCircle
 10
-22.76802062988281
 20
102.5297012329102
 30
0.0
 40
1.666666507720947
100
AcDbArc
 50
249.7914280057459
 51
269.9999974955218
  0
ARC
  5
135
330
1F
100
AcDbEntity
  8
VIEW0002
  6
Continuous
 62
     7
100
AcDbCircle
 10
22.67414855957031
 20
-85.45116424560547
 30
0.0
 40
3.333333015441895
100
AcDbArc
 50
294.2937236184499
 51
353.5000001037122
  0
ARC
  5
136
330
1F
100
AcDbEntity
  8
VIEW0002
  6
Continuous
 62
     7
100
AcDbCircle
 10
15.08279418945312
 20
-61.30332946777344
 30
0.0
 40
1.666666507720947
100
AcDbArc
 50
4.610649189778115
 51
71.02114027287132
  0
ARC
  5
137
330
1F
100
AcDbEntity
  8
VIEW0002
  6
Continuous
 62
     7
100
AcDbCircle
 10
24.43316650390625
 20
-84.73530578613281
 30
0.0
 40
4.333333015441895
100
AcDbArc
 50
293.5890530017797
 51
353.5000001037122
  0
ARC
  5
138
330
1F
100
AcDbEntity
  8
VIEW0002
  6
Continuous
 62
     7
100
AcDbCircle
 10
39.85220336914062
 20
-52.46366500854492
 30
0.0
 40
9.999999046325684
100
AcDbArc
 50
125.3103114944491
 51
173.5000008438003
  0
ARC
  5
139
330
1F
100
AcDbEntity
  8
VIEW0002
  6
Continuous
 62
     7
100
AcDbCircle
 10
46.18609619140625
 20
-49.87380599975586
 30
0.0
 40
13.33333206176758
100
AcDbArc
 50
155.3051282156951
 51
173.5000008438003
  0
ARC
  5
13A
330
1F
100
AcDbEntity
  8
VIEW0002
  6
Continuous
 62
     7
100
AcDbCircle
 10
10.98887634277344
 20
-87.25009155273438
 30
0.0
 40
5.099999904632568
100
AcDbArc
 50
30.00000083482606
 51
149.9999973439411
  0
ARC
  5
13B
330
1F
100
AcDbEntity
  8
VIEW0002
  6
Continuous
 62
     7
100
AcDbCircle
 10
19.82234191894531
 20
-87.25009155273438
 30
0.0
 40
5.099999904632568
100
AcDbArc
 50
105.5957764175293
 51
149.9999973439411
  0
ARC
  5
13C
330
1F
100
AcDbEntity
  8
VIEW0002
  6
Continuous
 62
     7
100
AcDbCircle
 10
8.0531005859375
 20
-49.20541763305664
 30
0.0
 40
1.666666507720947
100
AcDbArc
 50
207.3063809530809
 51
259.9999994939762
  0
ARC
  5
13D
330
1F
100
AcDbEntity
  8
VIEW0002
  6
Continuous
 62
     7
100
AcDbCircle
 10
13.30307006835938
 20
-57.48569107055664
 30
0.0
 40
0.9999999403953552
100
AcDbArc
 50
183.00000531981
 51
257.0999967950372
  0
ARC
  5
13E
330
1F
100
AcDbEntity
  8
VIEW0002
  6
Continuous
 62
     7
100
AcDbCircle
 10
12.66365051269531
 20
-58.02317428588867
 30
0.0
 40
0.9999999403953552
100
AcDbArc
 50
183.00000531981
 51
257.0999967950372
  0
ARC
  5
13F
330
1F
100
AcDbEntity
  8
VIEW0002
  6
Continuous
 62
     7
100
AcDbCircle
 10
8.0531005859375
 20
-51.91322326660156
 30
0.0
 40
1.666666507720947
100
AcDbArc
 50
207.3063809530809
 51
259.9999994939762
  0
ARC
  5
140
330
1F
100
AcDbEntity
  8
VIEW0002
  6
Continuous
 62
     7
100
AcDbCircle
 10
9.584075927734375
 20
-56.58335876464844
 30
0.0
 40
1.99999988079071
100
AcDbArc
 50
3.000000083482606
 51
79.99999767274336
  0
ARC
  5
141
330
1F
100
AcDbEntity
  8
VIEW0002
  6
Continuous
 62
     7
100
AcDbCircle
 10
9.584075927734375
 20
-56.58335876464844
 30
0.0
 40
2.666666507720947
100
AcDbArc
 50
3.000000083482606
 51
79.99999767274336
  0
ARC
  5
142
330
1F
100
AcDbEntity
  8
VIEW0002
  6
Continuous
 62
     7
100
AcDbCircle
 10
15.08279418945312
 20
-61.30332946777344
 30
0.0
 40
4.999999523162842
100
AcDbArc
 50
4.610649189778115
 51
92.02718898975961
  0
ARC
  5
143
330
1F
100
AcDbEntity
  8
VIEW0002
  6
Continuous
 62
     7
100
AcDbCircle
 10
8.9656982421875
 20
-57.15127182006836
 30
0.0
 40
5.999999523162842
100
AcDbArc
 50
8.094230935365854
 51
79.99999767274336
  0
ARC
  5
144
330
1F
100
AcDbEntity
  8
VIEW0002
  6
Continuous
 62
     7
100
AcDbCircle
 10
15.08279418945312
 20
-61.30332946777344
 30
0.0
 40
2.333333253860474
100
AcDbArc
 50
4.610649189778115
 51
71.9631121518753
  0
ARC
  5
145
330
1F
100
AcDbEntity
  8
VIEW0002
  6
Continuous
 62
     7
100
AcDbCircle
 10
6.5721435546875
 20
-59.20009231567383
 30
0.0
 40
5.099999904632568
100
AcDbArc
 50
30.00000083482606
 51
89.99994103277564
  0
ARC
  5
146
330
1F
100
AcDbEntity
  8
VIEW0002
  6
Continuous
 62
     7
100
AcDbCircle
 10
6.5721435546875
 20
-69.40009307861328
 30
0.0
 40
5.099999904632568
100
AcDbArc
 50
30.00000083482606
 51
89.99994103277564
  0
ARC
  5
147
330
1F
100
AcDbEntity
  8
VIEW0002
  6
Continuous
 62
     7
100
AcDbCircle
 10
6.5721435546875
 20
-64.30009460449219
 30
0.0
 40
5.099999904632568
100
AcDbArc
 50
30.00000083482606
 51
89.99994103277564
  0
ARC
  5
148
330
1F
100
AcDbEntity
  8
VIEW0002
  6
Continuous
 62
     7
100
AcDbCircle
 10
6.5721435546875
 20
-74.50009155273438
 30
0.0
 40
5.099999904632568
100
AcDbArc
 50
30.00000083482606
 51
89.99994103277564
  0
ARC
  5
149
330
1F
100
AcDbEntity
  8
VIEW0002
  6
Continuous
 62
     7
100
AcDbCircle
 10
6.5721435546875
 20
-79.60009002685547
 30
0.0
 40
5.099999904632568
100
AcDbArc
 50
30.00000083482606
 51
89.99994103277564
  0
ARC
  5
14A
330
1F
100
AcDbEntity
  8
VIEW0002
  6
Continuous
 62
     7
100
AcDbCircle
 10
10.98887634277344
 20
-61.75009536743164
 30
0.0
 40
5.099999904632568
100
AcDbArc
 50
83.20610895971487
 51
149.9999973439411
  0
ARC
  5
14B
330
1F
100
AcDbEntity
  8
VIEW0002
  6
Continuous
 62
     7
100
AcDbCircle
 10
10.98887634277344
 20
-66.85009002685547
 30
0.0
 40
5.099999904632568
100
AcDbArc
 50
30.00000083482606
 51
149.9999973439411
  0
ARC
  5
14C
330
1F
100
AcDbEntity
  8
VIEW0002
  6
Continuous
 62
     7
100
AcDbCircle
 10
10.98887634277344
 20
-71.9500961303711
 30
0.0
 40
5.099999904632568
100
AcDbArc
 50
30.00000083482606
 51
149.9999973439411
  0
ARC
  5
14D
330
1F
100
AcDbEntity
  8
VIEW0002
  6
Continuous
 62
     7
100
AcDbCircle
 10
10.98887634277344
 20
-77.05008697509766
 30
0.0
 40
5.099999904632568
100
AcDbArc
 50
30.00000083482606
 51
149.9999973439411
  0
ARC
  5
14E
330
1F
100
AcDbEntity
  8
VIEW0002
  6
Continuous
 62
     7
100
AcDbCircle
 10
10.98887634277344
 20
-82.15009307861328
 30
0.0
 40
5.099999904632568
100
AcDbArc
 50
30.00000083482606
 51
149.9999973439411
  0
ARC
  5
14F
330
1F
100
AcDbEntity
  8
VIEW0002
  6
Continuous
 62
     7
100
AcDbCircle
 10
19.82234191894531
 20
-66.85009002685547
 30
0.0
 40
5.099999904632568
100
AcDbArc
 50
125.4138571622665
 51
149.9999973439411
  0
ARC
  5
150
330
1F
100
AcDbEntity
  8
VIEW0002
  6
Continuous
 62
     7
100
AcDbCircle
 10
19.82234191894531
 20
-71.9500961303711
 30
0.0
 40
5.099999904632568
100
AcDbArc
 50
120.1865631262939
 51
149.9999973439411
  0
ARC
  5
151
330
1F
100
AcDbEntity
  8
VIEW0002
  6
Continuous
 62
     7
100
AcDbCircle
 10
15.40560913085938
 20
-69.40009307861328
 30
0.0
 40
5.099999904632568
100
AcDbArc
 50
71.5737367276712
 51
149.9999973439411
  0
ARC
  5
152
330
1F
100
AcDbEntity
  8
VIEW0002
  6
Continuous
 62
     7
100
AcDbCircle
 10
19.82234191894531
 20
-77.05008697509766
 30
0.0
 40
5.099999904632568
100
AcDbArc
 50
115.1788733325157
 51
149.9999973439411
  0
ARC
  5
153
330
1F
100
AcDbEntity
  8
VIEW0002
  6
Continuous
 62
     7
100
AcDbCircle
 10
19.82234191894531
 20
-82.15009307861328
 30
0.0
 40
5.099999904632568
100
AcDbArc
 50
110.3307572483165
 51
149.9999973439411
  0
ARC
  5
154
330
1F
100
AcDbEntity
  8
VIEW0002
  6
Continuous
 62
     7
100
AcDbCircle
 10
15.40560913085938
 20
-64.30009460449219
 30
0.0
 40
5.099999904632568
100
AcDbArc
 50
105.0203329799557
 51
149.9999973439411
  0
ARC
  5
155
330
1F
100
AcDbEntity
  8
VIEW0002
  6
Continuous
 62
     7
100
AcDbCircle
 10
15.40560913085938
 20
-74.50009155273438
 30
0.0
 40
5.099999904632568
100
AcDbArc
 50
66.46540409647282
 51
149.9999973439411
  0
ARC
  5
156
330
1F
100
AcDbEntity
  8
VIEW0002
  6
Continuous
 62
     7
100
AcDbCircle
 10
15.40560913085938
 20
-79.60009002685547
 30
0.0
 40
5.099999904632568
100
AcDbArc
 50
61.09996265434765
 51
149.9999973439411
  0
ARC
  5
157
330
1F
100
AcDbEntity
  8
VIEW0002
  6
Continuous
 62
     7
100
AcDbCircle
 10
6.5721435546875
 20
-84.70008850097656
 30
0.0
 40
5.099999904632568
100
AcDbArc
 50
30.00000083482606
 51
89.99994103277564
  0
ARC
  5
158
330
1F
100
AcDbEntity
  8
VIEW0002
  6
Continuous
 62
     7
100
AcDbCircle
 10
15.40560913085938
 20
-84.70008850097656
 30
0.0
 40
5.099999904632568
100
AcDbArc
 50
55.37756528091384
 51
149.9999973439411
  0
ARC
  5
159
330
1F
100
AcDbEntity
  8
VIEW0002
  6
Continuous
 62
     7
100
AcDbCircle
 10
15.40560913085938
 20
-89.80009460449219
 30
0.0
 40
5.099999904632568
100
AcDbArc
 50
49.14248707818972
 51
149.9999973439411
  0
ARC
  5
15A
330
1F
100
AcDbEntity
  8
VIEW0002
  6
Continuous
 62
     7
100
AcDbCircle
 10
6.5721435546875
 20
-89.80009460449219
 30
0.0
 40
5.099999904632568
100
AcDbArc
 50
30.00000083482606
 51
89.99994103277564
  0
ARC
  5
15B
330
1F
100
AcDbEntity
  8
VIEW0002
  6
Continuous
 62
     7
100
AcDbCircle
 10
24.45298767089844
 20
-84.56136322021484
 30
0.0
 40
4.999999523162842
100
AcDbArc
 50
299.9030779460254
 51
353.5000001037122
  0
ARC
  5
15C
330
1F
100
AcDbEntity
  8
VIEW0002
  6
Continuous
 62
     7
100
AcDbCircle
 10
27.23287963867188
 20
-25.3226432800293
 30
0.0
 40
2.999999761581421
100
AcDbArc
 50
270.1135903716083
 51
289.7477477823753
  0
ARC
  5
15D
330
1F
100
AcDbEntity
  8
VIEW0002
  6
Continuous
 62
     7
100
AcDbCircle
 10
27.40525817871094
 20
-24.32610321044922
 30
0.0
 40
3.999999761581421
100
AcDbArc
 50
215.3381096811257
 51
267.6154145317303
  0
ARC
  5
15E
330
1F
100
AcDbEntity
  8
VIEW0002
  6
Continuous
 62
     7
100
AcDbCircle
 10
22.23881530761719
 20
-27.98930549621582
 30
0.0
 40
2.333333253860474
100
AcDbArc
 50
35.33811127498743
 51
179.9999776881997
  0
ARC
  5
15F
330
1F
100
AcDbEntity
  8
VIEW0002
  6
Continuous
 62
     7
100
AcDbCircle
 10
14.09880065917969
 20
-25.35918426513672
 30
0.0
 40
1.666666507720947
100
AcDbArc
 50
215.3151875662711
 51
349.7425089893868
  0
ARC
  5
160
330
1F
100
AcDbEntity
  8
VIEW0002
  6
Continuous
 62
     7
100
AcDbCircle
 10
35.00410461425781
 20
-46.96999740600586
 30
0.0
 40
19.99999809265137
100
AcDbArc
 50
90.00000250447816
 51
109.7477459611425
  0
ARC
  5
161
330
1F
100
AcDbEntity
  8
VIEW0002
  6
Continuous
 62
     7
100
AcDbCircle
 10
19.58900451660156
 20
-23.66754341125488
 30
0.0
 40
4.333333015441895
100
AcDbArc
 50
207.3140717460864
 51
274.1882285134386
  0
ARC
  5
162
330
1F
100
AcDbEntity
  8
VIEW0002
  6
Continuous
 62
     7
100
AcDbCircle
 10
8.445449829101562
 20
-30.02318000793457
 30
0.0
 40
1.99999988079071
100
AcDbArc
 50
100.0000005060238
 51
159.4961596111716
  0
ARC
  5
163
330
1F
100
AcDbEntity
  8
VIEW0002
  6
Continuous
 62
     7
100
AcDbCircle
 10
11.14871215820312
 20
-25.82328987121582
 30
0.0
 40
1.666666507720947
100
AcDbArc
 50
280.0000023272567
 51
342.565810662401
  0
ARC
  5
164
330
1F
100
AcDbEntity
  8
VIEW0002
  6
Continuous
 62
     7
100
AcDbCircle
 10
34.48733520507812
 20
-36.71450042724609
 30
0.0
 40
3.666666507720947
100
AcDbArc
 50
281.8265998169931
 51
344.9999944599451
  0
ARC
  5
165
330
1F
100
AcDbEntity
  8
VIEW0002
  6
Continuous
 62
     7
100
AcDbCircle
 10
44.31484985351562
 20
-36.09894561767578
 30
0.0
 40
5.666666507720947
100
AcDbArc
 50
115.1621803501842
 51
164.9999943462596
  0
ARC
  5
166
330
1F
100
AcDbEntity
  8
VIEW0002
  6
Continuous
 62
     7
100
AcDbCircle
 10
42.81703186035156
 20
-26.86999702453613
 30
0.0
 40
0.1000000014901161
100
AcDbArc
 50
270.000004325711
 51
352.9938976003663
  0
ARC
  5
167
330
1F
100
AcDbEntity
  8
VIEW0002
  6
Continuous
 62
     7
100
AcDbCircle
 10
43.30548095703125
 20
-25.53083419799805
 30
0.0
 40
0.1000000014901161
100
AcDbArc
 50
265.7895000609108
 51
0.0
  0
ARC
  5
168
330
1F
100
AcDbEntity
  8
VIEW0002
  6
Continuous
 62
     7
100
AcDbCircle
 10
-31.1705322265625
 20
-36.09894561767578
 30
0.0
 40
5.666666507720947
100
AcDbArc
 50
15.00000554005491
 51
64.83781782858297
  0
ARC
  5
169
330
1F
100
AcDbEntity
  8
VIEW0002
  6
Continuous
 62
     7
100
AcDbCircle
 10
-30.16117858886719
 20
-25.53083419799805
 30
0.0
 40
0.1000000014901161
100
AcDbArc
 50
179.999991348578
 51
274.2105117782347
  0
ARC
  5
16A
330
1F
100
AcDbEntity
  8
VIEW0002
  6
Continuous
 62
     7
100
AcDbCircle
 10
-29.67271423339844
 20
-26.86999702453613
 30
0.0
 40
0.1000000014901161
100
AcDbArc
 50
187.0061025133192
 51
269.9999974955218
  0
ARC
  5
16B
330
1F
100
AcDbEntity
  8
VIEW0002
  6
Continuous
 62
     7
100
AcDbCircle
 10
-9.529830932617188
 20
-85.45116424560547
 30
0.0
 40
3.333333015441895
100
AcDbArc
 50
186.4999991561997
 51
245.7062782027829
  0
ARC
  5
16C
330
1F
100
AcDbEntity
  8
VIEW0002
  6
Continuous
 62
     7
100
AcDbCircle
 10
-1.938492059707642
 20
-61.30332946777344
 30
0.0
 40
1.666666507720947
100
AcDbArc
 50
108.9788579058958
 51
175.3893541116309
  0
ARC
  5
16D
330
1F
100
AcDbEntity
  8
VIEW0002
  6
Continuous
 62
     7
100
AcDbCircle
 10
-11.28884887695312
 20
-84.73530578613281
 30
0.0
 40
4.333333015441895
100
AcDbArc
 50
186.4999991561997
 51
246.4109488194532
  0
ARC
  5
16E
330
1F
100
AcDbEntity
  8
VIEW0002
  6
Continuous
 62
     7
100
AcDbCircle
 10
-26.7078857421875
 20
-52.46366500854492
 30
0.0
 40
9.999999046325684
100
AcDbArc
 50
6.499999042514117
 51
54.68969009941269
  0
ARC
  5
16F
330
1F
100
AcDbEntity
  8
VIEW0002
  6
Continuous
 62
     7
100
AcDbCircle
 10
-33.04177856445312
 20
-49.87380599975586
 30
0.0
 40
13.33333206176758
100
AcDbArc
 50
6.499999042514117
 51
24.69487167061938
  0
ARC
  5
170
330
1F
100
AcDbEntity
  8
VIEW0002
  6
Continuous
 62
     7
100
AcDbCircle
 10
2.155425786972046
 20
-87.25009155273438
 30
0.0
 40
5.099999904632568
100
AcDbArc
 50
30.00000424992064
 51
149.9999973439411
  0
ARC
  5
171
330
1F
100
AcDbEntity
  8
VIEW0002
  6
Continuous
 62
     7
100
AcDbCircle
 10
-6.678024291992188
 20
-87.25009155273438
 30
0.0
 40
5.099999904632568
100
AcDbArc
 50
30.00000424992064
 51
74.40422176123785
  0
ARC
  5
172
330
1F
100
AcDbEntity
  8
VIEW0002
  6
Continuous
 62
     7
100
AcDbCircle
 10
5.091217041015625
 20
-49.20541763305664
 30
0.0
 40
1.666666507720947
100
AcDbArc
 50
280.0000023272567
 51
332.6936191606046
  0
ARC
  5
173
330
1F
100
AcDbEntity
  8
VIEW0002
  6
Continuous
 62
     7
100
AcDbCircle
 10
-0.158767938613892
 20
-57.48569107055664
 30
0.0
 40
0.9999999403953552
100
AcDbArc
 50
282.9000050261957
 51
356.9999945804321
  0
ARC
  5
174
330
1F
100
AcDbEntity
  8
VIEW0002
  6
Continuous
 62
     7
100
AcDbCircle
 10
0.480651617050171
 20
-58.02317428588867
 30
0.0
 40
0.9999999403953552
100
AcDbArc
 50
282.9000050261957
 51
356.9999945804321
  0
ARC
  5
175
330
1F
100
AcDbEntity
  8
VIEW0002
  6
Continuous
 62
     7
100
AcDbCircle
 10
5.091217041015625
 20
-51.91322326660156
 30
0.0
 40
1.666666507720947
100
AcDbArc
 50
280.0000023272567
 51
332.6936191606046
  0
ARC
  5
176
330
1F
100
AcDbEntity
  8
VIEW0002
  6
Continuous
 62
     7
100
AcDbCircle
 10
3.560226202011108
 20
-56.58335876464844
 30
0.0
 40
1.99999988079071
100
AcDbArc
 50
100.0000005060238
 51
176.99999468019
  0
ARC
  5
177
330
1F
100
AcDbEntity
  8
VIEW0002
  6
Continuous
 62
     7
100
AcDbCircle
 10
3.560226202011108
 20
-56.58335876464844
 30
0.0
 40
2.666666507720947
100
AcDbArc
 50
100.0000005060238
 51
176.99999468019
  0
ARC
  5
178
330
1F
100
AcDbEntity
  8
VIEW0002
  6
Continuous
 62
     7
100
AcDbCircle
 10
-1.938492059707642
 20
-61.30332946777344
 30
0.0
 40
4.999999523162842
100
AcDbArc
 50
87.97280918900755
 51
175.3893541116309
  0
ARC
  5
179
330
1F
100
AcDbEntity
  8
VIEW0002
  6
Continuous
 62
     7
100
AcDbCircle
 10
4.178604125976562
 20
-57.15127182006836
 30
0.0
 40
5.999999523162842
100
AcDbArc
 50
100.0000005060238
 51
171.9057663896277
  0
ARC
  5
17A
330
1F
100
AcDbEntity
  8
VIEW0002
  6
Continuous
 62
     7
100
AcDbCircle
 10
-1.938492059707642
 20
-61.30332946777344
 30
0.0
 40
2.333333253860474
100
AcDbArc
 50
108.0368860268919
 51
175.3893541116309
  0
ARC
  5
17B
330
1F
100
AcDbEntity
  8
VIEW0002
  6
Continuous
 62
     7
100
AcDbCircle
 10
6.572158813476562
 20
-59.20009231567383
 30
0.0
 40
5.099999904632568
100
AcDbArc
 50
90.00005714599152
 51
149.9999973439411
  0
ARC
  5
17C
330
1F
100
AcDbEntity
  8
VIEW0002
  6
Continuous
 62
     7
100
AcDbCircle
 10
6.572158813476562
 20
-69.40009307861328
 30
0.0
 40
5.099999904632568
100
AcDbArc
 50
90.00005714599152
 51
149.9999973439411
  0
ARC
  5
17D
330
1F
100
AcDbEntity
  8
VIEW0002
  6
Continuous
 62
     7
100
AcDbCircle
 10
6.572158813476562
 20
-64.30009460449219
 30
0.0
 40
5.099999904632568
100
AcDbArc
 50
90.00005714599152
 51
149.9999973439411
  0
ARC
  5
17E
330
1F
100
AcDbEntity
  8
VIEW0002
  6
Continuous
 62
     7
100
AcDbCircle
 10
6.572158813476562
 20
-74.50009155273438
 30
0.0
 40
5.099999904632568
100
AcDbArc
 50
90.00005714599152
 51
149.9999973439411
  0
ARC
  5
17F
330
1F
100
AcDbEntity
  8
VIEW0002
  6
Continuous
 62
     7
100
AcDbCircle
 10
6.572158813476562
 20
-79.60009002685547
 30
0.0
 40
5.099999904632568
100
AcDbArc
 50
90.00005714599152
 51
149.9999973439411
  0
ARC
  5
180
330
1F
100
AcDbEntity
  8
VIEW0002
  6
Continuous
 62
     7
100
AcDbCircle
 10
2.155425786972046
 20
-61.75009536743164
 30
0.0
 40
5.099999904632568
100
AcDbArc
 50
30.00000424992064
 51
96.7938892190523
  0
ARC
  5
181
330
1F
100
AcDbEntity
  8
VIEW0002
  6
Continuous
 62
     7
100
AcDbCircle
 10
2.155425786972046
 20
-66.85009002685547
 30
0.0
 40
5.099999904632568
100
AcDbArc
 50
30.00000424992064
 51
149.9999973439411
  0
ARC
  5
182
330
1F
100
AcDbEntity
  8
VIEW0002
  6
Continuous
 62
     7
100
AcDbCircle
 10
2.155425786972046
 20
-71.9500961303711
 30
0.0
 40
5.099999904632568
100
AcDbArc
 50
30.00000424992064
 51
149.9999973439411
  0
ARC
  5
183
330
1F
100
AcDbEntity
  8
VIEW0002
  6
Continuous
 62
     7
100
AcDbCircle
 10
2.155425786972046
 20
-77.05008697509766
 30
0.0
 40
5.099999904632568
100
AcDbArc
 50
30.00000424992064
 51
149.9999973439411
  0
ARC
  5
184
330
1F
100
AcDbEntity
  8
VIEW0002
  6
Continuous
 62
     7
100
AcDbCircle
 10
2.155425786972046
 20
-82.15009307861328
 30
0.0
 40
5.099999904632568
100
AcDbArc
 50
30.00000424992064
 51
149.9999973439411
  0
ARC
  5
185
330
1F
100
AcDbEntity
  8
VIEW0002
  6
Continuous
 62
     7
100
AcDbCircle
 10
-6.678024291992188
 20
-66.85009002685547
 30
0.0
 40
5.099999904632568
100
AcDbArc
 50
30.00000424992064
 51
54.5861444315953
  0
ARC
  5
186
330
1F
100
AcDbEntity
  8
VIEW0002
  6
Continuous
 62
     7
100
AcDbCircle
 10
-6.678024291992188
 20
-71.9500961303711
 30
0.0
 40
5.099999904632568
100
AcDbArc
 50
30.00000424992064
 51
59.81343505247322
  0
ARC
  5
187
330
1F
100
AcDbEntity
  8
VIEW0002
  6
Continuous
 62
     7
100
AcDbCircle
 10
-2.261307001113892
 20
-69.40009307861328
 30
0.0
 40
5.099999904632568
100
AcDbArc
 50
30.00000424992064
 51
108.426261451096
  0
ARC
  5
188
330
1F
100
AcDbEntity
  8
VIEW0002
  6
Continuous
 62
     7
100
AcDbCircle
 10
-6.678024291992188
 20
-77.05008697509766
 30
0.0
 40
5.099999904632568
100
AcDbArc
 50
30.00000424992064
 51
64.82112484625146
  0
ARC
  5
189
330
1F
100
AcDbEntity
  8
VIEW0002
  6
Continuous
 62
     7
100
AcDbCircle
 10
-6.678024291992188
 20
-82.15009307861328
 30
0.0
 40
5.099999904632568
100
AcDbArc
 50
30.00000424992064
 51
69.6692409304507
  0
ARC
  5
18A
330
1F
100
AcDbEntity
  8
VIEW0002
  6
Continuous
 62
     7
100
AcDbCircle
 10
-2.261307001113892
 20
-64.30009460449219
 30
0.0
 40
5.099999904632568
100
AcDbArc
 50
30.00000424992064
 51
74.97966519881143
  0
ARC
  5
18B
330
1F
100
AcDbEntity
  8
VIEW0002
  6
Continuous
 62
     7
100
AcDbCircle
 10
-2.261307001113892
 20
-74.50009155273438
 30
0.0
 40
5.099999904632568
100
AcDbArc
 50
30.00000424992064
 51
113.5345940822943
  0
ARC
  5
18C
330
1F
100
AcDbEntity
  8
VIEW0002
  6
Continuous
 62
     7
100
AcDbCircle
 10
-2.261307001113892
 20
-79.60009002685547
 30
0.0
 40
5.099999904632568
100
AcDbArc
 50
30.00000424992064
 51
118.9000423546087
  0
ARC
  5
18D
330
1F
100
AcDbEntity
  8
VIEW0002
  6
Continuous
 62
     7
100
AcDbCircle
 10
6.572158813476562
 20
-84.70008850097656
 30
0.0
 40
5.099999904632568
100
AcDbArc
 50
90.00005714599152
 51
149.9999973439411
  0
ARC
  5
18E
330
1F
100
AcDbEntity
  8
VIEW0002
  6
Continuous
 62
     7
100
AcDbCircle
 10
-2.261307001113892
 20
-84.70008850097656
 30
0.0
 40
5.099999904632568
100
AcDbArc
 50
30.00000424992064
 51
124.6224294827587
  0
ARC
  5
18F
330
1F
100
AcDbEntity
  8
VIEW0002
  6
Continuous
 62
     7
100
AcDbCircle
 10
-2.261307001113892
 20
-89.80009460449219
 30
0.0
 40
5.099999904632568
100
AcDbArc
 50
30.00000424992064
 51
130.8575179307666
  0
ARC
  5
190
330
1F
100
AcDbEntity
  8
VIEW0002
  6
Continuous
 62
     7
100
AcDbCircle
 10
6.572158813476562
 20
-89.80009460449219
 30
0.0
 40
5.099999904632568
100
AcDbArc
 50
90.00005714599152
 51
149.9999973439411
  0
ARC
  5
191
330
1F
100
AcDbEntity
  8
VIEW0002
  6
Continuous
 62
     7
100
AcDbCircle
 10
-11.30867004394531
 20
-84.56136322021484
 30
0.0
 40
4.999999523162842
100
AcDbArc
 50
186.4999991561997
 51
240.0969170450182
  0
ARC
  5
192
330
1F
100
AcDbEntity
  8
VIEW0002
  6
Continuous
 62
     7
100
AcDbCircle
 10
-14.08856201171875
 20
-25.3226432800293
 30
0.0
 40
2.999999761581421
100
AcDbArc
 50
250.2522540388575
 51
269.8864114496245
  0
ARC
  5
193
330
1F
100
AcDbEntity
  8
VIEW0002
  6
Continuous
 62
     7
100
AcDbCircle
 10
-14.26094055175781
 20
-24.32610321044922
 30
0.0
 40
3.999999761581421
100
AcDbArc
 50
272.3845872895025
 51
324.6618887250125
  0
ARC
  5
194
330
1F
100
AcDbEntity
  8
VIEW0002
  6
Continuous
 62
     7
100
AcDbCircle
 10
-9.094512939453125
 20
-27.98930549621582
 30
0.0
 40
2.333333253860474
100
AcDbArc
 50
0.000022311801363
 51
144.6618903188743
  0
ARC
  5
195
330
1F
100
AcDbEntity
  8
VIEW0002
  6
Continuous
 62
     7
100
AcDbCircle
 10
-0.954483270645142
 20
-25.35918426513672
 30
0.0
 40
1.666666507720947
100
AcDbArc
 50
190.2574911242988
 51
324.6848108398672
  0
ARC
  5
196
330
1F
100
AcDbEntity
  8
VIEW0002
  6
Continuous
 62
     7
100
AcDbCircle
 10
-21.85980224609375
 20
-46.96999740600586
 30
0.0
 40
19.99999809265137
100
AcDbArc
 50
70.25225221762464
 51
89.999995674289
  0
ARC
  5
197
330
1F
100
AcDbEntity
  8
VIEW0002
  6
Continuous
 62
     7
100
AcDbCircle
 10
-6.4447021484375
 20
-23.66754341125488
 30
0.0
 40
4.333333015441895
100
AcDbArc
 50
265.8117733077942
 51
332.6859283675992
  0
ARC
  5
198
330
1F
100
AcDbEntity
  8
VIEW0002
  6
Continuous
 62
     7
100
AcDbCircle
 10
4.6988525390625
 20
-30.02318000793457
 30
0.0
 40
1.99999988079071
100
AcDbArc
 50
20.50384027514288
 51
79.99999767274336
  0
ARC
  5
199
330
1F
100
AcDbEntity
  8
VIEW0002
  6
Continuous
 62
     7
100
AcDbCircle
 10
1.995589971542358
 20
-25.82328987121582
 30
0.0
 40
1.666666507720947
100
AcDbArc
 50
197.4341894512846
 51
259.9999994939762
  0
ARC
  5
19A
330
1F
100
AcDbEntity
  8
VIEW0002
  6
Continuous
 62
     7
100
AcDbCircle
 10
-21.343017578125
 20
-36.71450042724609
 30
0.0
 40
3.666666507720947
100
AcDbArc
 50
195.0000056537405
 51
258.1734020042397
  0
SPLINE
  5
19B
330
1F
100
AcDbEntity
  8
VIEW0002
  6
Continuous
 62
     7
100
AcDbSpline
210
0.0
220
0.0
230
1.0
 70
     8
 71
     3
 72
     9
 73
     5
 74
     3
 42
0.0000000001
 43
0.0000000001
 44
0.0000000001
 12
0.4041379978369236
 22
-0.914698025965052
 32
0.0
 13
0.1673732158906179
 23
0.985893608155785
 33
0.0
 40
0.0
 40
0.0
 40
0.0
 40
0.0
 40
0.8451801580590416
 40
1.510077156365673
 40
1.510077156365673
 40
1.510077156365673
 40
1.510077156365673
 10
-28.32225036621094
 20
99.51068115234375
 30
0.0
 10
-28.20839389391444
 20
99.25298627828994
 30
0.0
 10
-27.87785542422914
 20
98.3924783218446
 30
0.0
 10
-27.59520112257174
 20
99.18469543163451
 30
0.0
 10
-27.55810580629088
 20
99.403201331872
 30
0.0
 11
-28.32225036621094
 21
99.51068115234375
 31
0.0
 11
-27.8533935546875
 21
98.8074722290039
 31
0.0
 11
-27.55810580629088
 21
99.403201331872
 31
0.0
  0
SPLINE
  5
19C
330
1F
100
AcDbEntity
  8
VIEW0002
  6
Continuous
 62
     7
100
AcDbSpline
210
0.0
220
0.0
230
1.0
 70
     8
 71
     3
 72
     9
 73
     5
 74
     3
 42
0.0000000001
 43
0.0000000001
 44
0.0000000001
 12
0.7426604741532788
 22
-0.6696681417914599
 32
0.0
 13
0.1088582627296457
 23
-0.9940572813653565
 33
0.0
 40
0.0
 40
0.0
 40
0.0
 40
0.0
 40
0.2223077927475012
 40
0.508655839870355
 40
0.508655839870355
 40
0.508655839870355
 40
0.508655839870355
 10
-27.78451538085938
 20
99.84851837158203
 30
0.0
 10
-27.72948231060277
 20
99.79889422275704
 30
0.0
 10
-27.61891410861558
 20
99.66598733396798
 30
0.0
 10
-27.56854169543246
 20
99.49779044561106
 30
0.0
 10
-27.55815124511719
 20
99.40290832519531
 30
0.0
 11
-27.78451538085938
 21
99.84851837158203
 31
0.0
 11
-27.64433288574219
 21
99.67597961425781
 31
0.0
 11
-27.55815124511719
 21
99.40290832519531
 31
0.0
  0
SPLINE
  5
19D
330
1F
100
AcDbEntity
  8
VIEW0002
  6
Continuous
 62
     7
100
AcDbSpline
210
0.0
220
0.0
230
1.0
 70
     8
 71
     3
 72
    11
 73
     7
 74
     5
 42
0.0000000001
 43
0.0000000001
 44
0.0000000001
 12
0.1957025807366799
 22
-0.9806632958834562
 32
0.0
 13
0.8272434930804897
 23
-0.5618435753445876
 33
0.0
 40
0.0
 40
0.0
 40
0.0
 40
0.0
 40
0.3405334203132525
 40
0.7159548680347851
 40
0.999627244889363
 40
1.315920579865023
 40
1.315920579865023
 40
1.315920579865023
 40
1.315920579865023
 10
-27.55815124511719
 20
99.40290832519531
 30
0.0
 10
-27.53593682205639
 20
99.29159211642103
 30
0.0
 10
-27.45759217997932
 20
99.06040636787483
 30
0.0
 10
-27.2381225315393
 20
98.80278019778808
 30
0.0
 10
-26.99498911774497
 20
98.58742918130795
 30
0.0
 10
-26.83495890030653
 20
98.46672175464086
 30
0.0
 10
-26.74774169921875
 20
98.40748596191406
 30
0.0
 11
-27.55815124511719
 21
99.40290832519531
 31
0.0
 11
-27.44357299804688
 21
99.08222961425781
 31
0.0
 11
-27.21162414550781
 21
98.78703308105469
 31
0.0
 11
-27.00077819824219
 21
98.59725952148438
 31
0.0
 11
-26.74774169921875
 21
98.40748596191406
 31
0.0
  0
SPLINE
  5
19E
330
1F
100
AcDbEntity
  8
VIEW0002
  6
Continuous
 62
     7
100
AcDbSpline
210
0.0
220
0.0
230
1.0
 70
     8
 71
     3
 72
    14
 73
    10
 74
     8
 42
0.0000000001
 43
0.0000000001
 44
0.0000000001
 12
-0.5238488399564516
 22
0.8518112425157816
 32
0.0
 13
0.375831292296178
 23
-0.9266881027244198
 33
0.0
 40
0.0
 40
0.0
 40
0.0
 40
0.0
 40
0.2978571789634097
 40
0.5437583485850135
 40
0.7437964403640438
 40
0.8958404616462675
 40
1.086782056764348
 40
1.23587912963312
 40
1.450916809019401
 40
1.450916809019401
 40
1.450916809019401
 40
1.450916809019401
 10
-26.0252685546875
 20
98.85736083984375
 30
0.0
 10
-26.07727926724506
 20
98.94193353774544
 30
0.0
 10
-26.20024204713721
 20
99.06893633160841
 30
0.0
 10
-26.40766920036996
 20
99.24794084878408
 30
0.0
 10
-26.62293513105833
 20
99.17030059946126
 30
0.0
 10
-26.72772567861195
 20
99.01100224748983
 30
0.0
 10
-26.71570620587005
 20
98.84154201496398
 30
0.0
 10
-26.76411664465941
 20
98.66109903985533
 30
0.0
 10
-26.73250570256204
 20
98.53716555834757
 30
0.0
 10
-26.70556640625
 20
98.47074127197266
 30
0.0
 11
-26.0252685546875
 21
98.85736083984375
 31
0.0
 11
-26.22059631347656
 21
99.08222961425781
 31
0.0
 11
-26.43145751953125
 21
99.208740234375
 31
0.0
 11
-26.62123107910156
 21
99.1454849243164
 31
0.0
 11
-26.70556640625
 21
99.01897430419922
 31
0.0
 11
-26.72665405273438
 21
98.8292007446289
 31
0.0
 11
-26.74774169921875
 21
98.68160247802734
 31
0.0
 11
-26.70556640625
 21
98.47074127197266
 31
0.0
  0
SPLINE
  5
19F
330
1F
100
AcDbEntity
  8
VIEW0002
  6
Continuous
 62
     7
100
AcDbSpline
210
0.0
220
0.0
230
1.0
 70
     8
 71
     3
 72
    10
 73
     6
 74
     4
 42
0.0000000001
 43
0.0000000001
 44
0.0000000001
 12
0.7000105599292593
 22
-0.7141324919001548
 32
0.0
 13
-0.8740621634038016
 23
0.4858140945936685
 33
0.0
 40
0.0
 40
0.0
 40
0.0
 40
0.0
 40
0.0448466849540048
 40
0.0761958559423963
 40
0.1228953075752147
 40
0.1228953075752147
 40
0.1228953075752147
 40
0.1228953075752147
 10
-26.70556640625
 20
98.47074127197266
 30
0.0
 10
-26.69510202190146
 20
98.4600657803461
 30
0.0
 10
-26.68069218646193
 20
98.43539825387866
 30
0.0
 10
-26.70046374571643
 20
98.38965248151442
 30
0.0
 10
-26.7341356246441
 20
98.39992354464306
 30
0.0
 10
-26.74774169921875
 20
98.40748596191406
 30
0.0
 11
-26.70556640625
 21
98.47074127197266
 31
0.0
 11
-26.6873779296875
 21
98.42974853515625
 31
0.0
 11
-26.70140075683594
 21
98.4017105102539
 31
0.0
 11
-26.74774169921875
 21
98.40748596191406
 31
0.0
  0
DIMENSION
  5
1A0
330
1F
100
AcDbEntity
  8
VIEW0002
 62
     7
100
AcDbDimension
  2
*D2
 10
27.288818359375
 20
9.330996109008787
 30
0.0
 11
14.90648706054687
 21
9.330996109008789
 31
0.0
 70
   160
  1
\U+220574
 71
     5
 42
24.76666283607483
  3
ISO-25
100
AcDbAlignedDimension
 13
2.522155523300171
 23
19.32999610900879
 33
0.0
 14
27.288818359375
 24
19.32999610900879
 34
0.0
 50
180.0
100
AcDbRotatedDimension
1001
ACAD
1000
DSTYLE
1002
{
1070
   178
1070
     1
1070
   278
1070
    46
1070
   147
1040
0.800000011920929
1070
    77
1070
     1
1070
    74
1070
     0
1070
    73
1070
     0
1070
    42
1040
2.54
1070
    44
1040
1.0
1070
    76
1070
     0
1070
    75
1070
     0
1070
   279
1070
     0
1070
   271
1070
     0
1070
   173
1070
     1
1070
    41
1040
3.0
1070
   140
1040
3.200000047683716
1070
   344
1005
1A1
1070
   343
1005
1A1
1002
}
  0
DIMENSION
  5
1B4
330
1F
100
AcDbEntity
  8
VIEW0002
 62
     7
100
AcDbDimension
  2
*D3
 10
29.95549011230468
 20
-0.66900335454941
 30
0.0
 11
14.90648706054687
 21
-0.669003354549408
 31
0.0
 70
   160
  1
\U+220590
 71
     5
 42
30.1000063419342
  3
ISO-25
100
AcDbAlignedDimension
 13
-0.144516229629517
 23
23.22999954223633
 33
0.0
 14
29.95549011230469
 24
23.22999954223633
 34
0.0
 50
180.0
100
AcDbRotatedDimension
1001
ACAD
1000
DSTYLE
1002
{
1070
   178
1070
     1
1070
   278
1070
    46
1070
   147
1040
0.800000011920929
1070
    77
1070
     1
1070
    74
1070
     0
1070
    73
1070
     0
1070
    42
1040
2.54
1070
    44
1040
0.999999940395355
1070
    76
1070
     0
1070
    75
1070
     0
1070
   279
1070
     0
1070
   271
1070
     0
1070
   173
1070
     1
1070
    41
1040
3.0
1070
   140
1040
3.200000047683716
1070
   344
1005
1A1
1070
   343
1005
1A1
1002
}
  0
DIMENSION
  5
1C1
330
1F
100
AcDbEntity
  8
VIEW0002
 62
     7
100
AcDbDimension
  2
*D4
 10
-10.14251599121094
 20
23.22999954223632
 30
0.0
 11
-10.14251599121094
 21
26.89766557312012
 31
0.0
 70
   160
  1
22
 71
     5
 42
7.333332061767578
  3
ISO-25
100
AcDbAlignedDimension
 13
-0.327850580215454
 23
30.56333160400391
 33
0.0
 14
0.188827276229858
 24
23.22999954223633
 34
0.0
 50
90.00000000000001
100
AcDbRotatedDimension
1001
ACAD
1000
DSTYLE
1002
{
1070
   178
1070
     1
1070
   278
1070
    46
1070
   147
1040
0.800000011920929
1070
    77
1070
     1
1070
    74
1070
     0
1070
    73
1070
     0
1070
    42
1040
2.54
1070
    44
1040
1.0
1070
    76
1070
     0
1070
    75
1070
     1
1070
   279
1070
     0
1070
   271
1070
     0
1070
   173
1070
     1
1070
    41
1040
3.0
1070
   140
1040
3.200000047683716
1070
   344
1005
1A1
1070
   343
1005
1A1
1002
}
  0
DIMENSION
  5
1CF
330
1F
100
AcDbEntity
  8
VIEW0002
 62
     7
100
AcDbDimension
  2
*D5
 10
-20.14251599121093
 20
19.32999610900878
 30
0.0
 11
-20.14251599121094
 21
24.94766290283203
 31
0.0
 70
   160
  1
34
 71
     5
 42
11.23333549499512
  3
ISO-25
100
AcDbAlignedDimension
 13
-0.327850580215454
 23
30.56333160400391
 33
0.0
 14
2.863845586776733
 24
19.32999610900879
 34
0.0
 50
90.00000000000001
100
AcDbRotatedDimension
1001
ACAD
1000
DSTYLE
1002
{
1070
   178
1070
     1
1070
   278
1070
    46
1070
   147
1040
0.800000011920929
1070
    77
1070
     1
1070
    74
1070
     0
1070
    73
1070
     0
1070
    42
1040
2.54
1070
    44
1040
1.0
1070
    76
1070
     0
1070
    75
1070
     0
1070
   279
1070
     0
1070
   271
1070
     0
1070
   173
1070
     1
1070
    41
1040
3.0
1070
   140
1040
3.200000047683716
1070
   344
1005
1A1
1070
   343
1005
1A1
1002
}
  0
DIMENSION
  5
1DC
330
1F
100
AcDbEntity
  8
VIEW0002
 62
     7
100
AcDbDimension
  2
*D6
 10
-40.42584881591797
 20
94.86332702636719
 30
0.0
 11
-40.42584881591797
 21
98.86432702636719
 31
0.0
 70
   160
  1
24
 71
     5
 42
8.0
  3
ISO-25
100
AcDbAlignedDimension
 13
-30.42784118652344
 23
102.8633270263672
 33
0.0
 14
-28.59451293945312
 24
94.86332702636719
 34
0.0
 50
90.00000000000001
100
AcDbRotatedDimension
1001
ACAD
1000
DSTYLE
1002
{
1070
   178
1070
     1
1070
   278
1070
    46
1070
   147
1040
0.800000011920929
1070
    77
1070
     1
1070
    74
1070
     0
1070
    73
1070
     0
1070
    42
1040
2.54
1070
    44
1040
1.0
1070
    76
1070
     0
1070
    75
1070
     0
1070
   279
1070
     0
1070
   271
1070
     0
1070
   173
1070
     1
1070
    41
1040
3.0
1070
   140
1040
3.200000047683716
1070
   344
1005
1A1
1070
   343
1005
1A1
1002
}
  0
DIMENSION
  5
1E9
330
1F
100
AcDbEntity
  8
VIEW0002
 62
     7
100
AcDbDimension
  2
*D7
 10
-40.42584881591797
 20
85.52999877929688
 30
0.0
 11
-40.42584881591797
 21
90.19766290283204
 31
0.0
 70
   160
  1
28
 71
     5
 42
9.333328247070312
  3
ISO-25
100
AcDbAlignedDimension
 13
-28.59451293945312
 23
94.86332702636719
 33
0.0
 14
-21.26118469238281
 24
85.52999877929688
 34
0.0
 50
90.00000000000001
100
AcDbRotatedDimension
1001
ACAD
1000
DSTYLE
1002
{
1070
   178
1070
     1
1070
   278
1070
    46
1070
   147
1040
0.800000011920929
1070
    77
1070
     1
1070
    74
1070
     0
1070
    73
1070
     0
1070
    42
1040
2.54
1070
    44
1040
1.0
1070
    76
1070
     0
1070
    75
1070
     1
1070
   279
1070
     0
1070
   271
1070
     0
1070
   173
1070
     1
1070
    41
1040
3.0
1070
   140
1040
3.200000047683716
1070
   344
1005
1A1
1070
   343
1005
1A1
1002
}
  0
DIMENSION
  5
1F5
330
1F
100
AcDbEntity
  8
VIEW0002
 62
     7
100
AcDbDimension
  2
*D9
 10
-40.42684881591797
 20
81.52999877929688
 30
0.0
 11
-40.42684881591797
 21
72.35239873194695
 31
0.0
 70
   160
  1
12
 71
     5
 42
4.0
  3
ISO-25
100
AcDbAlignedDimension
 13
-21.26118469238281
 23
85.52999877929688
 33
0.0
 14
-20.76118469238281
 24
81.52999877929688
 34
0.0
 50
90.00000000000001
100
AcDbRotatedDimension
1001
ACAD
1000
DSTYLE
1002
{
1070
   178
1070
     1
1070
   278
1070
    46
1070
   147
1040
0.800000011920929
1070
    77
1070
     1
1070
    74
1070
     0
1070
    73
1070
     0
1070
    42
1040
2.54
1070
    44
1040
1.0
1070
    76
1070
     0
1070
    75
1070
     1
1070
   279
1070
     0
1070
   271
1070
     0
1070
   173
1070
     1
1070
    41
1040
3.0
1070
   140
1040
3.200000047683716
1070
   344
1005
1A1
1070
   343
1005
1F6
1002
}
  0
DIMENSION
  5
20B
330
1F
100
AcDbEntity
  8
VIEW0002
 62
     7
100
AcDbDimension
  2
*D10
 10
37.07214355468751
 20
112.8633270263672
 30
0.0
 11
3.323143316268921
 21
112.8633270263672
 31
0.0
 70
   160
  1
202.5
 71
     5
 42
67.49998474121095
  3
ISO-25
100
AcDbAlignedDimension
 13
-30.42784118652344
 23
102.8633270263672
 33
0.0
 14
37.0721435546875
 24
86.19666290283203
 34
0.0
 50
180.0
100
AcDbRotatedDimension
1001
ACAD
1000
DSTYLE
1002
{
1070
   178
1070
     1
1070
   278
1070
    46
1070
   147
1040
0.800000011920929
1070
    77
1070
     1
1070
    74
1070
     0
1070
    73
1070
     0
1070
    42
1040
2.54
1070
    44
1040
1.0
1070
    76
1070
     0
1070
    75
1070
     0
1070
   279
1070
     0
1070
   271
1070
     1
1070
   173
1070
     1
1070
    41
1040
3.0
1070
   140
1040
3.200000047683716
1070
   344
1005
1A1
1070
   343
1005
1A1
1002
}
  0
DIMENSION
  5
218
330
1F
100
AcDbEntity
  8
VIEW0002
 62
     7
100
AcDbDimension
  2
*D11
 10
-4.761184692382812
 20
96.19666290283203
 30
0.0
 11
14.8241435546875
 21
96.19666290283203
 31
0.0
 70
   160
  1
117.5
 71
     5
 42
39.16667175292969
  3
ISO-25
100
AcDbAlignedDimension
 13
34.40548706054688
 23
80.52999877929688
 33
0.0
 14
-4.761184692382812
 24
81.52999877929688
 34
0.0
100
AcDbRotatedDimension
1001
ACAD
1000
DSTYLE
1002
{
1070
   178
1070
     1
1070
   278
1070
    46
1070
   147
1040
0.800000011920929
1070
    77
1070
     1
1070
    74
1070
     0
1070
    73
1070
     0
1070
    42
1040
2.54
1070
    44
1040
1.0
1070
    76
1070
     0
1070
    75
1070
     0
1070
   279
1070
     0
1070
   271
1070
     1
1070
   173
1070
     1
1070
    41
1040
3.0
1070
   140
1040
3.200000047683716
1070
   344
1005
1A1
1070
   343
1005
1A1
1002
}
  0
DIMENSION
  5
225
330
1F
100
AcDbEntity
  8
VIEW0002
 62
     7
100
AcDbDimension
  2
*D12
 10
14.82215466403961
 20
82.03000292787377
 30
0.0
 11
11.99251406909184
 21
76.31211342543104
 31
0.0
 70
   164
  1
R52
 71
     5
 42
17.33334350585938
  3
ISO-25
100
AcDbRadialDimension
 15
7.134207185776802
 25
66.49487303901896
 35
0.0
 40
0.0
1001
ACAD
1000
DSTYLE
1002
{
1070
   178
1070
     1
1070
   278
1070
    46
1070
   147
1040
0.800000011920929
1070
    77
1070
     1
1070
    74
1070
     0
1070
    73
1070
     0
1070
   279
1070
     0
1070
   271
1070
     0
1070
   173
1070
     1
1070
    41
1040
3.0
1070
   140
1040
3.200000047683716
1070
   344
1005
1A1
1070
   343
1005
1F6
1002
}
  0
DIMENSION
  5
232
330
1F
100
AcDbEntity
  8
VIEW0002
 62
     7
100
AcDbDimension
  2
*D13
 10
47.0721435546875
 20
81.52999877929688
 30
0.0
 11
47.0721435546875
 21
73.11432702636719
 31
0.0
 70
   160
  1
50.5
 71
     5
 42
16.83333587646488
  3
ISO-25
100
AcDbAlignedDimension
 13
14.8221435546875
 23
64.69666290283203
 33
0.0
 14
37.0721435546875
 24
81.52999877929688
 34
0.0
 50
270.0
100
AcDbRotatedDimension
1001
ACAD
1000
DSTYLE
1002
{
1070
   178
1070
     1
1070
   278
1070
    46
1070
   147
1040
0.800000011920929
1070
    77
1070
     1
1070
    74
1070
     0
1070
    73
1070
     0
1070
    42
1040
2.54
1070
    44
1040
1.0
1070
    76
1070
     0
1070
    75
1070
     0
1070
   279
1070
     0
1070
   271
1070
     1
1070
   173
1070
     1
1070
    41
1040
3.0
1070
   140
1040
3.200000047683716
1070
   344
1005
1A1
1070
   343
1005
1A1
1002
}
  0
DIMENSION
  5
23F
330
1F
100
AcDbEntity
  8
VIEW0002
 62
     7
100
AcDbDimension
  2
*D14
 10
43.40548706054688
 20
-12.96999835968018
 30
0.0
 11
6.573158813476563
 21
-12.96999835968018
 31
0.0
 70
   160
  1
221
 71
     5
 42
73.66665649414062
  3
ISO-25
100
AcDbAlignedDimension
 13
-30.26116943359375
 23
-24.96999740600586
 33
0.0
 14
43.40548706054688
 24
-24.96999740600586
 34
0.0
 50
180.0
100
AcDbRotatedDimension
1001
ACAD
1000
DSTYLE
1002
{
1070
   178
1070
     1
1070
   278
1070
    46
1070
   147
1040
0.800000011920929
1070
    77
1070
     1
1070
    74
1070
     0
1070
    73
1070
     0
1070
    42
1040
2.54
1070
    44
1040
1.0
1070
    76
1070
     0
1070
    75
1070
     0
1070
   279
1070
     0
1070
   271
1070
     0
1070
   173
1070
     1
1070
    41
1040
3.0
1070
   140
1040
3.200000047683716
1070
   344
1005
1A1
1070
   343
1005
1A1
1002
}
  0
DIMENSION
  5
24C
330
1F
100
AcDbEntity
  8
VIEW0002
 62
     7
100
AcDbDimension
  2
*D15
 10
-40.26017706298828
 20
-22.96999740600586
 30
0.0
 11
-40.26017706298828
 21
-64.73566381835937
 31
0.0
 70
   160
  1
251
 71
     5
 42
83.53332901000977
  3
ISO-25
100
AcDbAlignedDimension
 13
-5.811172485351562
 23
-106.5033264160156
 33
0.0
 14
-3.094513177871704
 24
-22.96999740600586
 34
0.0
 50
270.0
100
AcDbRotatedDimension
1001
ACAD
1000
DSTYLE
1002
{
1070
   178
1070
     1
1070
   278
1070
    46
1070
   147
1040
0.800000011920929
1070
    77
1070
     1
1070
    74
1070
     0
1070
    73
1070
     0
1070
    42
1040
2.54
1070
    44
1040
1.0
1070
    76
1070
     0
1070
    75
1070
     0
1070
   279
1070
     0
1070
   271
1070
     0
1070
   173
1070
     1
1070
    41
1040
3.0
1070
   140
1040
3.200000047683716
1070
   344
1005
1A1
1070
   343
1005
1A1
1002
}
  0
ENDSEC
  0
SECTION
  2
OBJECTS
  0
DICTIONARY
  5
C
330
0
100
AcDbDictionary
281
     1
  3
ACAD_GROUP
350
D
  3
ACAD_LAYOUT
350
1A
  3
ACAD_MATERIAL
350
3B
  3
ACAD_MLEADERSTYLE
350
280
  3
ACAD_MLINESTYLE
350
17
  3
ACAD_PLOTSETTINGS
350
19
  3
ACAD_PLOTSTYLENAME
350
E
  3
ACAD_TABLESTYLE
350
27F
  3
ACAD_VISUALSTYLE
350
2A
  0
DICTIONARY
  5
D
102
{ACAD_REACTORS
330
C
102
}
330
C
100
AcDbDictionary
281
     1
  0
DICTIONARY
  5
1A
102
{ACAD_REACTORS
330
C
102
}
330
C
100
AcDbDictionary
281
     1
  3
Layout1
350
1E
  3
Layout2
350
26
  3
Model
350
22
  0
DICTIONARY
  5
3B
102
{ACAD_REACTORS
330
C
102
}
330
C
100
AcDbDictionary
281
     1
  3
ByBlock
350
3D
  3
ByLayer
350
3C
  3
Global
350
3E
  0
DICTIONARY
  5
280
102
{ACAD_REACTORS
330
C
102
}
330
C
100
AcDbDictionary
281
     1
  0
DICTIONARY
  5
17
102
{ACAD_REACTORS
330
C
102
}
330
C
100
AcDbDictionary
281
     1
  3
Standard
350
18
  0
DICTIONARY
  5
19
102
{ACAD_REACTORS
330
C
102
}
330
C
100
AcDbDictionary
281
     1
  0
ACDBDICTIONARYWDFLT
  5
E
102
{ACAD_REACTORS
330
C
102
}
330
C
100
AcDbDictionary
281
     1
  3
Normal
350
F
100
AcDbDictionaryWithDefault
340
F
  0
DICTIONARY
  5
27F
102
{ACAD_REACTORS
330
C
102
}
330
C
100
AcDbDictionary
281
     1
  0
DICTIONARY
  5
2A
102
{ACAD_REACTORS
330
C
102
}
330
C
100
AcDbDictionary
281
     1
  3
2dWireframe
350
2F
  3
3D Hidden
350
31
  3
3dWireframe
350
30
  3
Basic
350
32
  3
Brighten
350
36
  3
ColorChange
350
3A
  3
Conceptual
350
34
  3
Dim
350
35
  3
Facepattern
350
39
  3
Flat
350
2B
  3
FlatWithEdges
350
2C
  3
Gouraud
350
2D
  3
GouraudWithEdges
350
2E
  3
Linepattern
350
38
  3
Realistic
350
33
  3
Thicken
350
37
  0
LAYOUT
  5
1E
102
{ACAD_REACTORS
330
1A
102
}
330
1A
100
AcDbPlotSettings
  1

  2
none_device
  4

  6

 40
0.0
 41
0.0
 42
0.0
 43
0.0
 44
0.0
 45
0.0
 46
0.0
 47
0.0
 48
0.0
 49
0.0
140
0.0
141
0.0
142
1.0
143
1.0
 70
   688
 72
     0
 73
     0
 74
     5
  7

 75
    16
 76
     0
 77
     2
 78
   300
147
1.0
148
0.0
149
0.0
100
AcDbLayout
  1
Layout1
 70
     1
 71
     1
 10
-105.0
 20
-148.5
 11
105.0
 21
148.5
 12
0.0
 22
0.0
 32
0.0
 14
1.000000000000000E+20
 24
1.000000000000000E+20
 34
1.000000000000000E+20
 15
-1.000000000000000E+20
 25
-1.000000000000000E+20
 35
-1.000000000000000E+20
146
0.0
 13
0.0
 23
0.0
 33
0.0
 16
1.0
 26
0.0
 36
0.0
 17
0.0
 27
1.0
 37
0.0
 76
     0
330
1B
  0
LAYOUT
  5
26
102
{ACAD_REACTORS
330
1A
102
}
330
1A
100
AcDbPlotSettings
  1

  2
none_device
  4

  6

 40
0.0
 41
0.0
 42
0.0
 43
0.0
 44
0.0
 45
0.0
 46
0.0
 47
0.0
 48
0.0
 49
0.0
140
0.0
141
0.0
142
1.0
143
1.0
 70
   688
 72
     0
 73
     0
 74
     5
  7

 75
    16
 76
     0
 77
     2
 78
   300
147
1.0
148
0.0
149
0.0
100
AcDbLayout
  1
Layout2
 70
     1
 71
     2
 10
0.0
 20
0.0
 11
0.0
 21
0.0
 12
0.0
 22
0.0
 32
0.0
 14
0.0
 24
0.0
 34
0.0
 15
0.0
 25
0.0
 35
0.0
146
0.0
 13
0.0
 23
0.0
 33
0.0
 16
1.0
 26
0.0
 36
0.0
 17
0.0
 27
1.0
 37
0.0
 76
     0
330
23
  0
LAYOUT
  5
22
102
{ACAD_REACTORS
330
1A
102
}
330
1A
100
AcDbPlotSettings
  1

  2
none_device
  4

  6

 40
0.0
 41
0.0
 42
0.0
 43
0.0
 44
0.0
 45
0.0
 46
0.0
 47
0.0
 48
0.0
 49
0.0
140
0.0
141
0.0
142
1.0
143
1.0
 70
  1712
 72
     0
 73
     0
 74
     0
  7

 75
     0
 76
     0
 77
     2
 78
   300
147
1.0
148
0.0
149
0.0
100
AcDbLayout
  1
Model
 70
     1
 71
     0
 10
-105.0
 20
-148.5
 11
105.0
 21
148.5
 12
0.0
 22
0.0
 32
0.0
 14
-105.0
 24
-148.5
 34
0.0
 15
105.0
 25
148.5
 35
0.0
146
0.0
 13
0.0
 23
0.0
 33
0.0
 16
1.0
 26
0.0
 36
0.0
 17
0.0
 27
1.0
 37
0.0
 76
     0
330
1F
331
29
  0
MATERIAL
  5
3D
102
{ACAD_REACTORS
330
3B
102
}
102
{ACAD_XDICTIONARY
360
27B
102
}
330
3B
100
AcDbMaterial
  1
ByBlock
  0
MATERIAL
  5
3C
102
{ACAD_REACTORS
330
3B
102
}
102
{ACAD_XDICTIONARY
360
279
102
}
330
3B
100
AcDbMaterial
  1
ByLayer
  0
MATERIAL
  5
3E
102
{ACAD_REACTORS
330
3B
102
}
102
{ACAD_XDICTIONARY
360
27D
102
}
330
3B
100
AcDbMaterial
  1
Global
  0
MLINESTYLE
  5
18
102
{ACAD_REACTORS
330
17
102
}
330
17
100
AcDbMlineStyle
  2
Standard
 70
     0
  3

 62
   256
 51
90.0
 52
90.0
 71
     2
 49
0.5
 62
   256
  6
BYLAYER
 49
-0.5
 62
   256
  6
BYLAYER
  0
ACDBPLACEHOLDER
  5
F
102
{ACAD_REACTORS
330
E
102
}
330
E
  0
VISUALSTYLE
  5
2F
102
{ACAD_REACTORS
330
2A
102
}
102
{ACAD_XDICTIONARY
360
261
102
}
330
2A
100
AcDbVisualStyle
  2
2dWireframe
 70
     4
 71
     0
 72
     2
 73
     0
 90
        0
 40
-0.6
 41
-30.0
 62
     5
 63
     7
421
 16777215
 74
     1
 91
        4
 64
     7
 65
   257
 75
     1
175
     1
 42
1.0
 92
        0
 66
   257
 43
1.0
 76
     1
 77
     6
 78
     2
 67
     7
 79
     5
170
     0
171
     0
290
     0
174
     0
 93
        1
 44
0.0
173
     0
291
     0
 45
0.0
1001
ACAD
1000
AcDbSavedByObjectVersion
1070
     0
  0
VISUALSTYLE
  5
31
102
{ACAD_REACTORS
330
2A
102
}
102
{ACAD_XDICTIONARY
360
265
102
}
330
2A
100
AcDbVisualStyle
  2
3D Hidden
 70
     6
 71
     1
 72
     2
 73
     2
 90
        0
 40
-0.6
 41
-30.0
 62
     5
 63
     7
421
 16777215
 74
     2
 91
        2
 64
     7
 65
   257
 75
     2
175
     1
 42
40.0
 92
        0
 66
   257
 43
1.0
 76
     1
 77
     6
 78
     2
 67
     7
 79
     3
170
     0
171
     0
290
     0
174
     0
 93
        1
 44
0.0
173
     0
291
     0
 45
0.0
1001
ACAD
1000
AcDbSavedByObjectVersion
1070
     0
  0
VISUALSTYLE
  5
30
102
{ACAD_REACTORS
330
2A
102
}
102
{ACAD_XDICTIONARY
360
263
102
}
330
2A
100
AcDbVisualStyle
  2
3dWireframe
 70
     5
 71
     0
 72
     2
 73
     0
 90
        0
 40
-0.6
 41
-30.0
 62
     5
 63
     7
421
 16777215
 74
     1
 91
        4
 64
     7
 65
   257
 75
     1
175
     1
 42
1.0
 92
        0
 66
   257
 43
1.0
 76
     1
 77
     6
 78
     2
 67
     7
 79
     5
170
     0
171
     0
290
     0
174
     0
 93
        1
 44
0.0
173
     0
291
     0
 45
0.0
1001
ACAD
1000
AcDbSavedByObjectVersion
1070
     0
  0
VISUALSTYLE
  5
32
102
{ACAD_REACTORS
330
2A
102
}
102
{ACAD_XDICTIONARY
360
267
102
}
330
2A
100
AcDbVisualStyle
  2
Basic
 70
     7
 71
     1
 72
     0
 73
     1
 90
        0
 40
-0.6
 41
-30.0
 62
     5
 63
     7
421
 16777215
 74
     0
 91
        4
 64
     7
 65
   257
 75
     1
175
     1
 42
1.0
 92
        8
 66
     7
 43
1.0
 76
     1
 77
     6
 78
     2
 67
     7
 79
     5
170
     0
171
     0
290
     0
174
     0
 93
        1
 44
0.0
173
     0
291
     1
 45
0.0
1001
ACAD
1000
AcDbSavedByObjectVersion
1070
     0
  0
VISUALSTYLE
  5
36
102
{ACAD_REACTORS
330
2A
102
}
102
{ACAD_XDICTIONARY
360
26F
102
}
330
2A
100
AcDbVisualStyle
  2
Brighten
 70
    12
 71
     2
 72
     2
 73
     0
 90
        0
 40
-0.6
 41
-30.0
 62
     5
 63
     7
421
 16777215
 74
     1
 91
        4
 64
     7
 65
   257
 75
     1
175
     1
 42
1.0
 92
        8
 66
     7
 43
1.0
 76
     1
 77
     6
 78
     2
 67
     7
 79
     5
170
     0
171
     0
290
     0
174
     0
 93
        1
 44
50.0
173
     0
291
     1
 45
0.0
1001
ACAD
1000
AcDbSavedByObjectVersion
1070
     0
  0
VISUALSTYLE
  5
3A
102
{ACAD_REACTORS
330
2A
102
}
102
{ACAD_XDICTIONARY
360
277
102
}
330
2A
100
AcDbVisualStyle
  2
ColorChange
 70
    16
 71
     2
 72
     2
 73
     3
 90
        0
 40
-0.6
 41
-30.0
 62
     5
 63
     8
421
  8421504
 74
     1
 91
        4
 64
     7
 65
   257
 75
     1
175
     1
 42
1.0
 92
        8
 66
     8
424
  8421504
 43
1.0
 76
     1
 77
     6
 78
     2
 67
     7
 79
     5
170
     0
171
     0
290
     0
174
     0
 93
        1
 44
0.0
173
     0
291
     1
 45
0.0
1001
ACAD
1000
AcDbSavedByObjectVersion
1070
     0
  0
VISUALSTYLE
  5
34
102
{ACAD_REACTORS
330
2A
102
}
102
{ACAD_XDICTIONARY
360
26B
102
}
330
2A
100
AcDbVisualStyle
  2
Conceptual
 70
     9
 71
     3
 72
     2
 73
     0
 90
        0
 40
-0.6
 41
-30.0
 62
     5
 63
     7
421
 16777215
 74
     2
 91
        2
 64
     7
 65
   257
 75
     1
175
     1
 42
40.0
 92
        8
 66
     7
 43
1.0
 76
     1
 77
     6
 78
     2
 67
     7
 79
     3
170
     0
171
     0
290
     0
174
     0
 93
        1
 44
0.0
173
     0
291
     0
 45
0.0
1001
ACAD
1000
AcDbSavedByObjectVersion
1070
     0
  0
VISUALSTYLE
  5
35
102
{ACAD_REACTORS
330
2A
102
}
102
{ACAD_XDICTIONARY
360
26D
102
}
330
2A
100
AcDbVisualStyle
  2
Dim
 70
    11
 71
     2
 72
     2
 73
     0
 90
        0
 40
-0.6
 41
-30.0
 62
     5
 63
     7
421
 16777215
 74
     1
 91
        4
 64
     7
 65
   257
 75
     1
175
     1
 42
1.0
 92
        8
 66
     7
 43
1.0
 76
     1
 77
     6
 78
     2
 67
     7
 79
     5
170
     0
171
     0
290
     0
174
     0
 93
        1
 44
-50.0
173
     0
291
     1
 45
0.0
1001
ACAD
1000
AcDbSavedByObjectVersion
1070
     0
  0
VISUALSTYLE
  5
39
102
{ACAD_REACTORS
330
2A
102
}
102
{ACAD_XDICTIONARY
360
275
102
}
330
2A
100
AcDbVisualStyle
  2
Facepattern
 70
    15
 71
     2
 72
     2
 73
     0
 90
        0
 40
-0.6
 41
-30.0
 62
     5
 63
     7
421
 16777215
 74
     1
 91
        4
 64
     7
 65
   257
 75
     1
175
     1
 42
1.0
 92
        8
 66
     7
 43
1.0
 76
     1
 77
     6
 78
     2
 67
     7
 79
     5
170
     0
171
     0
290
     0
174
     0
 93
        1
 44
0.0
173
     0
291
     1
 45
0.0
1001
ACAD
1000
AcDbSavedByObjectVersion
1070
     0
  0
VISUALSTYLE
  5
2B
102
{ACAD_REACTORS
330
2A
102
}
102
{ACAD_XDICTIONARY
360
259
102
}
330
2A
100
AcDbVisualStyle
  2
Flat
 70
     0
 71
     2
 72
     1
 73
     1
 90
        2
 40
-0.6
 41
30.0
 62
     5
 63
     7
421
 16777215
 74
     0
 91
        4
 64
     7
 65
   257
 75
     1
175
     1
 42
1.0
 92
        8
 66
     7
 43
1.0
 76
     1
 77
     6
 78
     2
 67
     7
 79
     5
170
     0
171
     0
290
     0
174
     0
 93
       13
 44
0.0
173
     0
291
     1
 45
0.0
1001
ACAD
1000
AcDbSavedByObjectVersion
1070
     0
  0
VISUALSTYLE
  5
2C
102
{ACAD_REACTORS
330
2A
102
}
102
{ACAD_XDICTIONARY
360
25B
102
}
330
2A
100
AcDbVisualStyle
  2
FlatWithEdges
 70
     1
 71
     2
 72
     1
 73
     1
 90
        2
 40
-0.6
 41
30.0
 62
     5
 63
     7
421
 16777215
 74
     1
 91
        4
 64
     7
 65
   257
 75
     1
175
     1
 42
1.0
 92
        0
 66
   257
 43
1.0
 76
     1
 77
     6
 78
     2
 67
     7
 79
     5
170
     0
171
     0
290
     0
174
     0
 93
       13
 44
0.0
173
     0
291
     1
 45
0.0
1001
ACAD
1000
AcDbSavedByObjectVersion
1070
     0
  0
VISUALSTYLE
  5
2D
102
{ACAD_REACTORS
330
2A
102
}
102
{ACAD_XDICTIONARY
360
25D
102
}
330
2A
100
AcDbVisualStyle
  2
Gouraud
 70
     2
 71
     2
 72
     2
 73
     1
 90
        2
 40
-0.6
 41
30.0
 62
     5
 63
     7
421
 16777215
 74
     0
 91
        4
 64
     7
 65
   257
 75
     1
175
     1
 42
1.0
 92
        0
 66
     7
 43
1.0
 76
     1
 77
     6
 78
     2
 67
     7
 79
     5
170
     0
171
     0
290
     0
174
     0
 93
       13
 44
0.0
173
     0
291
     1
 45
0.0
1001
ACAD
1000
AcDbSavedByObjectVersion
1070
     0
  0
VISUALSTYLE
  5
2E
102
{ACAD_REACTORS
330
2A
102
}
102
{ACAD_XDICTIONARY
360
25F
102
}
330
2A
100
AcDbVisualStyle
  2
GouraudWithEdges
 70
     3
 71
     2
 72
     2
 73
     1
 90
        2
 40
-0.6
 41
30.0
 62
     5
 63
     7
421
 16777215
 74
     1
 91
        4
 64
     7
 65
   257
 75
     1
175
     1
 42
1.0
 92
        0
 66
   257
 43
1.0
 76
     1
 77
     6
 78
     2
 67
     7
 79
     5
170
     0
171
     0
290
     0
174
     0
 93
       13
 44
0.0
173
     0
291
     1
 45
0.0
1001
ACAD
1000
AcDbSavedByObjectVersion
1070
     0
  0
VISUALSTYLE
  5
38
102
{ACAD_REACTORS
330
2A
102
}
102
{ACAD_XDICTIONARY
360
273
102
}
330
2A
100
AcDbVisualStyle
  2
Linepattern
 70
    14
 71
     2
 72
     2
 73
     0
 90
        0
 40
-0.6
 41
-30.0
 62
     5
 63
     7
421
 16777215
 74
     1
 91
        4
 64
     7
 65
   257
 75
     7
175
     7
 42
1.0
 92
        8
 66
     7
 43
1.0
 76
     1
 77
     6
 78
     2
 67
     7
 79
     5
170
     0
171
     0
290
     0
174
     0
 93
        1
 44
0.0
173
     0
291
     1
 45
0.0
1001
ACAD
1000
AcDbSavedByObjectVersion
1070
     0
  0
VISUALSTYLE
  5
33
102
{ACAD_REACTORS
330
2A
102
}
102
{ACAD_XDICTIONARY
360
269
102
}
330
2A
100
AcDbVisualStyle
  2
Realistic
 70
     8
 71
     2
 72
     2
 73
     0
 90
        0
 40
-0.6
 41
-30.0
 62
     5
 63
     7
421
 16777215
 74
     1
 91
        0
 64
     7
 65
   257
 75
     1
175
     1
 42
1.0
 92
        8
 66
     8
424
  7895160
 43
1.0
 76
     1
 77
     6
 78
     2
 67
     7
 79
     5
170
     0
171
     0
290
     0
174
     0
 93
       13
 44
0.0
173
     0
291
     0
 45
0.0
1001
ACAD
1000
AcDbSavedByObjectVersion
1070
     0
  0
VISUALSTYLE
  5
37
102
{ACAD_REACTORS
330
2A
102
}
102
{ACAD_XDICTIONARY
360
271
102
}
330
2A
100
AcDbVisualStyle
  2
Thicken
 70
    13
 71
     2
 72
     2
 73
     0
 90
        0
 40
-0.6
 41
-30.0
 62
     5
 63
     7
421
 16777215
 74
     1
 91
        4
 64
     7
 65
   257
 75
     1
175
     1
 42
1.0
 92
       12
 66
     7
 43
1.0
 76
     1
 77
     6
 78
     2
 67
     7
 79
     5
170
     0
171
     0
290
     0
174
     0
 93
        1
 44
0.0
173
     0
291
     1
 45
0.0
1001
ACAD
1000
AcDbSavedByObjectVersion
1070
     0
  0
DICTIONARY
  5
27B
330
3D
100
AcDbDictionary
280
     1
281
     1
  3
ACAD_XREC_ROUNDTRIP
360
27C
  0
DICTIONARY
  5
279
330
3C
100
AcDbDictionary
280
     1
281
     1
  3
ACAD_XREC_ROUNDTRIP
360
27A
  0
DICTIONARY
  5
27D
330
3E
100
AcDbDictionary
280
     1
281
     1
  3
ACAD_XREC_ROUNDTRIP
360
27E
  0
DICTIONARY
  5
261
330
2F
100
AcDbDictionary
280
     1
281
     1
  3
ACAD_XREC_ROUNDTRIP
360
262
  0
DICTIONARY
  5
265
330
31
100
AcDbDictionary
280
     1
281
     1
  3
ACAD_XREC_ROUNDTRIP
360
266
  0
DICTIONARY
  5
263
330
30
100
AcDbDictionary
280
     1
281
     1
  3
ACAD_XREC_ROUNDTRIP
360
264
  0
DICTIONARY
  5
267
330
32
100
AcDbDictionary
280
     1
281
     1
  3
ACAD_XREC_ROUNDTRIP
360
268
  0
DICTIONARY
  5
26F
330
36
100
AcDbDictionary
280
     1
281
     1
  3
ACAD_XREC_ROUNDTRIP
360
270
  0
DICTIONARY
  5
277
330
3A
100
AcDbDictionary
280
     1
281
     1
  3
ACAD_XREC_ROUNDTRIP
360
278
  0
DICTIONARY
  5
26B
330
34
100
AcDbDictionary
280
     1
281
     1
  3
ACAD_XREC_ROUNDTRIP
360
26C
  0
DICTIONARY
  5
26D
330
35
100
AcDbDictionary
280
     1
281
     1
  3
ACAD_XREC_ROUNDTRIP
360
26E
  0
DICTIONARY
  5
275
330
39
100
AcDbDictionary
280
     1
281
     1
  3
ACAD_XREC_ROUNDTRIP
360
276
  0
DICTIONARY
  5
259
330
2B
100
AcDbDictionary
280
     1
281
     1
  3
ACAD_XREC_ROUNDTRIP
360
25A
  0
DICTIONARY
  5
25B
330
2C
100
AcDbDictionary
280
     1
281
     1
  3
ACAD_XREC_ROUNDTRIP
360
25C
  0
DICTIONARY
  5
25D
330
2D
100
AcDbDictionary
280
     1
281
     1
  3
ACAD_XREC_ROUNDTRIP
360
25E
  0
DICTIONARY
  5
25F
330
2E
100
AcDbDictionary
280
     1
281
     1
  3
ACAD_XREC_ROUNDTRIP
360
260
  0
DICTIONARY
  5
273
330
38
100
AcDbDictionary
280
     1
281
     1
  3
ACAD_XREC_ROUNDTRIP
360
274
  0
DICTIONARY
  5
269
330
33
100
AcDbDictionary
280
     1
281
     1
  3
ACAD_XREC_ROUNDTRIP
360
26A
  0
DICTIONARY
  5
271
330
37
100
AcDbDictionary
280
     1
281
     1
  3
ACAD_XREC_ROUNDTRIP
360
272
  0
XRECORD
  5
27C
102
{ACAD_REACTORS
330
27B
102
}
330
27B
100
AcDbXrecord
280
     1
102
MATERIAL
148
0.0
149
0.0
149
0.0
 93
        0
 94
      127
282
     0
 72
     1
 77
     1
171
     1
175
     1
179
     1
273
     0
  0
XRECORD
  5
27A
102
{ACAD_REACTORS
330
279
102
}
330
279
100
AcDbXrecord
280
     1
102
MATERIAL
148
0.0
149
0.0
149
0.0
 93
        0
 94
      127
282
     0
 72
     1
 77
     1
171
     1
175
     1
179
     1
273
     0
  0
XRECORD
  5
27E
102
{ACAD_REACTORS
330
27D
102
}
330
27D
100
AcDbXrecord
280
     1
102
MATERIAL
148
0.0
149
0.0
149
0.0
 93
        0
 94
      127
282
     0
 72
     1
 77
     1
171
     1
175
     1
179
     1
273
     0
  0
XRECORD
  5
262
102
{ACAD_REACTORS
330
261
102
}
330
261
100
AcDbXrecord
280
     1
102
RTVSPropertyOp0
 70
     1
102
RTVSPropertyOp1
 70
     1
102
RTVSPropertyOp2
 70
     1
102
RTVSPropertyOp3
 70
     1
102
RTVSPropertyOp4
 70
     1
102
RTVSPropertyOp5
 70
     1
102
RTVSPropertyOp6
 70
     1
102
RTVSPropertyOp7
 70
     1
102
RTVSPropertyOp8
 70
     1
102
RTVSPropertyOp9
 70
     1
102
RTVSPropertyOp10
 70
     1
102
RTVSPropertyOp11
 70
     1
102
RTVSPropertyOp12
 70
     1
102
RTVSPropertyOp13
 70
     1
102
RTVSPropertyOp14
 70
     1
102
RTVSPropertyOp15
 70
     1
102
RTVSPropertyOp16
 70
     1
102
RTVSPropertyOp17
 70
     1
102
RTVSPropertyOp18
 70
     1
102
RTVSPropertyOp19
 70
     1
102
RTVSPropertyOp20
 70
     1
102
RTVSPropertyOp21
 70
     1
102
RTVSPropertyOp22
 70
     1
102
RTVSPropertyOp23
 70
     1
102
RTVSPropertyOp24
 70
     1
102
RTVSPropertyOp25
 70
     1
102
RTVSPropertyOp26
 70
     1
102
RTVSPropertyOp27
 70
     1
102
RTVSPropertyOp28
 70
     1
102
RTVSPropertyOp29
 70
     1
102
RTVSPropertyOp30
 70
     1
102
RTVSPropertyOp31
 70
     1
102
RTVSPropertyOp32
 70
     1
  0
XRECORD
  5
266
102
{ACAD_REACTORS
330
265
102
}
330
265
100
AcDbXrecord
280
     1
102
RTVSPropertyOp0
 70
     1
102
RTVSPropertyOp1
 70
     1
102
RTVSPropertyOp2
 70
     1
102
RTVSPropertyOp3
 70
     1
102
RTVSPropertyOp4
 70
     1
102
RTVSPropertyOp5
 70
     1
102
RTVSPropertyOp6
 70
     1
102
RTVSPropertyOp7
 70
     1
102
RTVSPropertyOp8
 70
     1
102
RTVSPropertyOp9
 70
     1
102
RTVSPropertyOp10
 70
     1
102
RTVSPropertyOp11
 70
     1
102
RTVSPropertyOp12
 70
     1
102
RTVSPropertyOp13
 70
     1
102
RTVSPropertyOp14
 70
     1
102
RTVSPropertyOp15
 70
     1
102
RTVSPropertyOp16
 70
     1
102
RTVSPropertyOp17
 70
     1
102
RTVSPropertyOp18
 70
     1
102
RTVSPropertyOp19
 70
     1
102
RTVSPropertyOp20
 70
     1
102
RTVSPropertyOp21
 70
     1
102
RTVSPropertyOp22
 70
     1
102
RTVSPropertyOp23
 70
     1
102
RTVSPropertyOp24
 70
     1
102
RTVSPropertyOp25
 70
     1
102
RTVSPropertyOp26
 70
     1
102
RTVSPropertyOp27
 70
     1
102
RTVSPropertyOp28
 70
     1
102
RTVSPropertyOp29
 70
     1
102
RTVSPropertyOp30
 70
     1
102
RTVSPropertyOp31
 70
     1
102
RTVSPropertyOp32
 70
     1
  0
XRECORD
  5
264
102
{ACAD_REACTORS
330
263
102
}
330
263
100
AcDbXrecord
280
     1
102
RTVSPropertyOp0
 70
     1
102
RTVSPropertyOp1
 70
     1
102
RTVSPropertyOp2
 70
     1
102
RTVSPropertyOp3
 70
     1
102
RTVSPropertyOp4
 70
     1
102
RTVSPropertyOp5
 70
     1
102
RTVSPropertyOp6
 70
     1
102
RTVSPropertyOp7
 70
     1
102
RTVSPropertyOp8
 70
     1
102
RTVSPropertyOp9
 70
     1
102
RTVSPropertyOp10
 70
     1
102
RTVSPropertyOp11
 70
     1
102
RTVSPropertyOp12
 70
     1
102
RTVSPropertyOp13
 70
     1
102
RTVSPropertyOp14
 70
     1
102
RTVSPropertyOp15
 70
     1
102
RTVSPropertyOp16
 70
     1
102
RTVSPropertyOp17
 70
     1
102
RTVSPropertyOp18
 70
     1
102
RTVSPropertyOp19
 70
     1
102
RTVSPropertyOp20
 70
     1
102
RTVSPropertyOp21
 70
     1
102
RTVSPropertyOp22
 70
     1
102
RTVSPropertyOp23
 70
     1
102
RTVSPropertyOp24
 70
     1
102
RTVSPropertyOp25
 70
     1
102
RTVSPropertyOp26
 70
     1
102
RTVSPropertyOp27
 70
     1
102
RTVSPropertyOp28
 70
     1
102
RTVSPropertyOp29
 70
     1
102
RTVSPropertyOp30
 70
     1
102
RTVSPropertyOp31
 70
     1
102
RTVSPropertyOp32
 70
     1
  0
XRECORD
  5
268
102
{ACAD_REACTORS
330
267
102
}
330
267
100
AcDbXrecord
280
     1
102
RTVSPropertyOp0
 70
     1
102
RTVSPropertyOp1
 70
     1
102
RTVSPropertyOp2
 70
     1
102
RTVSPropertyOp3
 70
     1
102
RTVSPropertyOp4
 70
     1
102
RTVSPropertyOp5
 70
     1
102
RTVSPropertyOp6
 70
     1
102
RTVSPropertyOp7
 70
     1
102
RTVSPropertyOp8
 70
     1
102
RTVSPropertyOp9
 70
     1
102
RTVSPropertyOp10
 70
     1
102
RTVSPropertyOp11
 70
     1
102
RTVSPropertyOp12
 70
     1
102
RTVSPropertyOp13
 70
     1
102
RTVSPropertyOp14
 70
     1
102
RTVSPropertyOp15
 70
     1
102
RTVSPropertyOp16
 70
     1
102
RTVSPropertyOp17
 70
     1
102
RTVSPropertyOp18
 70
     1
102
RTVSPropertyOp19
 70
     1
102
RTVSPropertyOp20
 70
     1
102
RTVSPropertyOp21
 70
     1
102
RTVSPropertyOp22
 70
     1
102
RTVSPropertyOp23
 70
     1
102
RTVSPropertyOp24
 70
     1
102
RTVSPropertyOp25
 70
     1
102
RTVSPropertyOp26
 70
     1
102
RTVSPropertyOp27
 70
     1
102
RTVSPropertyOp28
 70
     1
102
RTVSPropertyOp29
 70
     1
102
RTVSPropertyOp30
 70
     1
102
RTVSPropertyOp31
 70
     1
102
RTVSPropertyOp32
 70
     1
  0
XRECORD
  5
270
102
{ACAD_REACTORS
330
26F
102
}
330
26F
100
AcDbXrecord
280
     1
102
RTVSPropertyOp0
 70
     1
102
RTVSPropertyOp1
 70
     1
102
RTVSPropertyOp2
 70
     1
102
RTVSPropertyOp3
 70
     1
102
RTVSPropertyOp4
 70
     1
102
RTVSPropertyOp5
 70
     1
102
RTVSPropertyOp6
 70
     1
102
RTVSPropertyOp7
 70
     1
102
RTVSPropertyOp8
 70
     1
102
RTVSPropertyOp9
 70
     1
102
RTVSPropertyOp10
 70
     1
102
RTVSPropertyOp11
 70
     1
102
RTVSPropertyOp12
 70
     1
102
RTVSPropertyOp13
 70
     1
102
RTVSPropertyOp14
 70
     1
102
RTVSPropertyOp15
 70
     1
102
RTVSPropertyOp16
 70
     1
102
RTVSPropertyOp17
 70
     1
102
RTVSPropertyOp18
 70
     1
102
RTVSPropertyOp19
 70
     1
102
RTVSPropertyOp20
 70
     1
102
RTVSPropertyOp21
 70
     1
102
RTVSPropertyOp22
 70
     1
102
RTVSPropertyOp23
 70
     1
102
RTVSPropertyOp24
 70
     1
102
RTVSPropertyOp25
 70
     1
102
RTVSPropertyOp26
 70
     1
102
RTVSPropertyOp27
 70
     1
102
RTVSPropertyOp28
 70
     1
102
RTVSPropertyOp29
 70
     1
102
RTVSPropertyOp30
 70
     1
102
RTVSPropertyOp31
 70
     1
102
RTVSPropertyOp32
 70
     1
  0
XRECORD
  5
278
102
{ACAD_REACTORS
330
277
102
}
330
277
100
AcDbXrecord
280
     1
102
RTVSPropertyOp0
 70
     1
102
RTVSPropertyOp1
 70
     1
102
RTVSPropertyOp2
 70
     1
102
RTVSPropertyOp3
 70
     1
102
RTVSPropertyOp4
 70
     1
102
RTVSPropertyOp5
 70
     1
102
RTVSPropertyOp6
 70
     1
102
RTVSPropertyOp7
 70
     1
102
RTVSPropertyOp8
 70
     1
102
RTVSPropertyOp9
 70
     1
102
RTVSPropertyOp10
 70
     1
102
RTVSPropertyOp11
 70
     1
102
RTVSPropertyOp12
 70
     1
102
RTVSPropertyOp13
 70
     1
102
RTVSPropertyOp14
 70
     1
102
RTVSPropertyOp15
 70
     1
102
RTVSPropertyOp16
 70
     1
102
RTVSPropertyOp17
 70
     1
102
RTVSPropertyOp18
 70
     1
102
RTVSPropertyOp19
 70
     1
102
RTVSPropertyOp20
 70
     1
102
RTVSPropertyOp21
 70
     1
102
RTVSPropertyOp22
 70
     1
102
RTVSPropertyOp23
 70
     1
102
RTVSPropertyOp24
 70
     1
102
RTVSPropertyOp25
 70
     1
102
RTVSPropertyOp26
 70
     1
102
RTVSPropertyOp27
 70
     1
102
RTVSPropertyOp28
 70
     1
102
RTVSPropertyOp29
 70
     1
102
RTVSPropertyOp30
 70
     1
102
RTVSPropertyOp31
 70
     1
102
RTVSPropertyOp32
 70
     1
  0
XRECORD
  5
26C
102
{ACAD_REACTORS
330
26B
102
}
330
26B
100
AcDbXrecord
280
     1
102
RTVSPropertyOp0
 70
     1
102
RTVSPropertyOp1
 70
     1
102
RTVSPropertyOp2
 70
     1
102
RTVSPropertyOp3
 70
     1
102
RTVSPropertyOp4
 70
     1
102
RTVSPropertyOp5
 70
     1
102
RTVSPropertyOp6
 70
     1
102
RTVSPropertyOp7
 70
     1
102
RTVSPropertyOp8
 70
     1
102
RTVSPropertyOp9
 70
     1
102
RTVSPropertyOp10
 70
     1
102
RTVSPropertyOp11
 70
     1
102
RTVSPropertyOp12
 70
     1
102
RTVSPropertyOp13
 70
     1
102
RTVSPropertyOp14
 70
     1
102
RTVSPropertyOp15
 70
     1
102
RTVSPropertyOp16
 70
     1
102
RTVSPropertyOp17
 70
     1
102
RTVSPropertyOp18
 70
     1
102
RTVSPropertyOp19
 70
     1
102
RTVSPropertyOp20
 70
     1
102
RTVSPropertyOp21
 70
     1
102
RTVSPropertyOp22
 70
     1
102
RTVSPropertyOp23
 70
     1
102
RTVSPropertyOp24
 70
     1
102
RTVSPropertyOp25
 70
     1
102
RTVSPropertyOp26
 70
     1
102
RTVSPropertyOp27
 70
     1
102
RTVSPropertyOp28
 70
     1
102
RTVSPropertyOp29
 70
     1
102
RTVSPropertyOp30
 70
     1
102
RTVSPropertyOp31
 70
     1
102
RTVSPropertyOp32
 70
     1
  0
XRECORD
  5
26E
102
{ACAD_REACTORS
330
26D
102
}
330
26D
100
AcDbXrecord
280
     1
102
RTVSPropertyOp0
 70
     1
102
RTVSPropertyOp1
 70
     1
102
RTVSPropertyOp2
 70
     1
102
RTVSPropertyOp3
 70
     1
102
RTVSPropertyOp4
 70
     1
102
RTVSPropertyOp5
 70
     1
102
RTVSPropertyOp6
 70
     1
102
RTVSPropertyOp7
 70
     1
102
RTVSPropertyOp8
 70
     1
102
RTVSPropertyOp9
 70
     1
102
RTVSPropertyOp10
 70
     1
102
RTVSPropertyOp11
 70
     1
102
RTVSPropertyOp12
 70
     1
102
RTVSPropertyOp13
 70
     1
102
RTVSPropertyOp14
 70
     1
102
RTVSPropertyOp15
 70
     1
102
RTVSPropertyOp16
 70
     1
102
RTVSPropertyOp17
 70
     1
102
RTVSPropertyOp18
 70
     1
102
RTVSPropertyOp19
 70
     1
102
RTVSPropertyOp20
 70
     1
102
RTVSPropertyOp21
 70
     1
102
RTVSPropertyOp22
 70
     1
102
RTVSPropertyOp23
 70
     1
102
RTVSPropertyOp24
 70
     1
102
RTVSPropertyOp25
 70
     1
102
RTVSPropertyOp26
 70
     1
102
RTVSPropertyOp27
 70
     1
102
RTVSPropertyOp28
 70
     1
102
RTVSPropertyOp29
 70
     1
102
RTVSPropertyOp30
 70
     1
102
RTVSPropertyOp31
 70
     1
102
RTVSPropertyOp32
 70
     1
  0
XRECORD
  5
276
102
{ACAD_REACTORS
330
275
102
}
330
275
100
AcDbXrecord
280
     1
102
RTVSPropertyOp0
 70
     1
102
RTVSPropertyOp1
 70
     1
102
RTVSPropertyOp2
 70
     1
102
RTVSPropertyOp3
 70
     1
102
RTVSPropertyOp4
 70
     1
102
RTVSPropertyOp5
 70
     1
102
RTVSPropertyOp6
 70
     1
102
RTVSPropertyOp7
 70
     1
102
RTVSPropertyOp8
 70
     1
102
RTVSPropertyOp9
 70
     1
102
RTVSPropertyOp10
 70
     1
102
RTVSPropertyOp11
 70
     1
102
RTVSPropertyOp12
 70
     1
102
RTVSPropertyOp13
 70
     1
102
RTVSPropertyOp14
 70
     1
102
RTVSPropertyOp15
 70
     1
102
RTVSPropertyOp16
 70
     1
102
RTVSPropertyOp17
 70
     1
102
RTVSPropertyOp18
 70
     1
102
RTVSPropertyOp19
 70
     1
102
RTVSPropertyOp20
 70
     1
102
RTVSPropertyOp21
 70
     1
102
RTVSPropertyOp22
 70
     1
102
RTVSPropertyOp23
 70
     1
102
RTVSPropertyOp24
 70
     1
102
RTVSPropertyOp25
 70
     1
102
RTVSPropertyOp26
 70
     1
102
RTVSPropertyOp27
 70
     1
102
RTVSPropertyOp28
 70
     1
102
RTVSPropertyOp29
 70
     1
102
RTVSPropertyOp30
 70
     1
102
RTVSPropertyOp31
 70
     1
102
RTVSPropertyOp32
 70
     1
  0
XRECORD
  5
25A
102
{ACAD_REACTORS
330
259
102
}
330
259
100
AcDbXrecord
280
     1
102
RTVSPropertyOp0
 70
     1
102
RTVSPropertyOp1
 70
     1
102
RTVSPropertyOp2
 70
     1
102
RTVSPropertyOp3
 70
     1
102
RTVSPropertyOp4
 70
     1
102
RTVSPropertyOp5
 70
     1
102
RTVSPropertyOp6
 70
     1
102
RTVSPropertyOp7
 70
     1
102
RTVSPropertyOp8
 70
     1
102
RTVSPropertyOp9
 70
     1
102
RTVSPropertyOp10
 70
     1
102
RTVSPropertyOp11
 70
     1
102
RTVSPropertyOp12
 70
     1
102
RTVSPropertyOp13
 70
     1
102
RTVSPropertyOp14
 70
     1
102
RTVSPropertyOp15
 70
     1
102
RTVSPropertyOp16
 70
     1
102
RTVSPropertyOp17
 70
     1
102
RTVSPropertyOp18
 70
     1
102
RTVSPropertyOp19
 70
     1
102
RTVSPropertyOp20
 70
     1
102
RTVSPropertyOp21
 70
     1
102
RTVSPropertyOp22
 70
     1
102
RTVSPropertyOp23
 70
     1
102
RTVSPropertyOp24
 70
     1
102
RTVSPropertyOp25
 70
     1
102
RTVSPropertyOp26
 70
     1
102
RTVSPropertyOp27
 70
     1
102
RTVSPropertyOp28
 70
     1
102
RTVSPropertyOp29
 70
     1
102
RTVSPropertyOp30
 70
     1
102
RTVSPropertyOp31
 70
     1
102
RTVSPropertyOp32
 70
     1
  0
XRECORD
  5
25C
102
{ACAD_REACTORS
330
25B
102
}
330
25B
100
AcDbXrecord
280
     1
102
RTVSPropertyOp0
 70
     1
102
RTVSPropertyOp1
 70
     1
102
RTVSPropertyOp2
 70
     1
102
RTVSPropertyOp3
 70
     1
102
RTVSPropertyOp4
 70
     1
102
RTVSPropertyOp5
 70
     1
102
RTVSPropertyOp6
 70
     1
102
RTVSPropertyOp7
 70
     1
102
RTVSPropertyOp8
 70
     1
102
RTVSPropertyOp9
 70
     1
102
RTVSPropertyOp10
 70
     1
102
RTVSPropertyOp11
 70
     1
102
RTVSPropertyOp12
 70
     1
102
RTVSPropertyOp13
 70
     1
102
RTVSPropertyOp14
 70
     1
102
RTVSPropertyOp15
 70
     1
102
RTVSPropertyOp16
 70
     1
102
RTVSPropertyOp17
 70
     1
102
RTVSPropertyOp18
 70
     1
102
RTVSPropertyOp19
 70
     1
102
RTVSPropertyOp20
 70
     1
102
RTVSPropertyOp21
 70
     1
102
RTVSPropertyOp22
 70
     1
102
RTVSPropertyOp23
 70
     1
102
RTVSPropertyOp24
 70
     1
102
RTVSPropertyOp25
 70
     1
102
RTVSPropertyOp26
 70
     1
102
RTVSPropertyOp27
 70
     1
102
RTVSPropertyOp28
 70
     1
102
RTVSPropertyOp29
 70
     1
102
RTVSPropertyOp30
 70
     1
102
RTVSPropertyOp31
 70
     1
102
RTVSPropertyOp32
 70
     1
  0
XRECORD
  5
25E
102
{ACAD_REACTORS
330
25D
102
}
330
25D
100
AcDbXrecord
280
     1
102
RTVSPropertyOp0
 70
     1
102
RTVSPropertyOp1
 70
     1
102
RTVSPropertyOp2
 70
     1
102
RTVSPropertyOp3
 70
     1
102
RTVSPropertyOp4
 70
     1
102
RTVSPropertyOp5
 70
     1
102
RTVSPropertyOp6
 70
     1
102
RTVSPropertyOp7
 70
     1
102
RTVSPropertyOp8
 70
     1
102
RTVSPropertyOp9
 70
     1
102
RTVSPropertyOp10
 70
     1
102
RTVSPropertyOp11
 70
     1
102
RTVSPropertyOp12
 70
     1
102
RTVSPropertyOp13
 70
     1
102
RTVSPropertyOp14
 70
     1
102
RTVSPropertyOp15
 70
     1
102
RTVSPropertyOp16
 70
     1
102
RTVSPropertyOp17
 70
     1
102
RTVSPropertyOp18
 70
     1
102
RTVSPropertyOp19
 70
     1
102
RTVSPropertyOp20
 70
     1
102
RTVSPropertyOp21
 70
     1
102
RTVSPropertyOp22
 70
     1
102
RTVSPropertyOp23
 70
     1
102
RTVSPropertyOp24
 70
     1
102
RTVSPropertyOp25
 70
     1
102
RTVSPropertyOp26
 70
     1
102
RTVSPropertyOp27
 70
     1
102
RTVSPropertyOp28
 70
     1
102
RTVSPropertyOp29
 70
     1
102
RTVSPropertyOp30
 70
     1
102
RTVSPropertyOp31
 70
     1
102
RTVSPropertyOp32
 70
     1
  0
XRECORD
  5
260
102
{ACAD_REACTORS
330
25F
102
}
330
25F
100
AcDbXrecord
280
     1
102
RTVSPropertyOp0
 70
     1
102
RTVSPropertyOp1
 70
     1
102
RTVSPropertyOp2
 70
     1
102
RTVSPropertyOp3
 70
     1
102
RTVSPropertyOp4
 70
     1
102
RTVSPropertyOp5
 70
     1
102
RTVSPropertyOp6
 70
     1
102
RTVSPropertyOp7
 70
     1
102
RTVSPropertyOp8
 70
     1
102
RTVSPropertyOp9
 70
     1
102
RTVSPropertyOp10
 70
     1
102
RTVSPropertyOp11
 70
     1
102
RTVSPropertyOp12
 70
     1
102
RTVSPropertyOp13
 70
     1
102
RTVSPropertyOp14
 70
     1
102
RTVSPropertyOp15
 70
     1
102
RTVSPropertyOp16
 70
     1
102
RTVSPropertyOp17
 70
     1
102
RTVSPropertyOp18
 70
     1
102
RTVSPropertyOp19
 70
     1
102
RTVSPropertyOp20
 70
     1
102
RTVSPropertyOp21
 70
     1
102
RTVSPropertyOp22
 70
     1
102
RTVSPropertyOp23
 70
     1
102
RTVSPropertyOp24
 70
     1
102
RTVSPropertyOp25
 70
     1
102
RTVSPropertyOp26
 70
     1
102
RTVSPropertyOp27
 70
     1
102
RTVSPropertyOp28
 70
     1
102
RTVSPropertyOp29
 70
     1
102
RTVSPropertyOp30
 70
     1
102
RTVSPropertyOp31
 70
     1
102
RTVSPropertyOp32
 70
     1
  0
XRECORD
  5
274
102
{ACAD_REACTORS
330
273
102
}
330
273
100
AcDbXrecord
280
     1
102
RTVSPropertyOp0
 70
     1
102
RTVSPropertyOp1
 70
     1
102
RTVSPropertyOp2
 70
     1
102
RTVSPropertyOp3
 70
     1
102
RTVSPropertyOp4
 70
     1
102
RTVSPropertyOp5
 70
     1
102
RTVSPropertyOp6
 70
     1
102
RTVSPropertyOp7
 70
     1
102
RTVSPropertyOp8
 70
     1
102
RTVSPropertyOp9
 70
     1
102
RTVSPropertyOp10
 70
     1
102
RTVSPropertyOp11
 70
     1
102
RTVSPropertyOp12
 70
     1
102
RTVSPropertyOp13
 70
     1
102
RTVSPropertyOp14
 70
     1
102
RTVSPropertyOp15
 70
     1
102
RTVSPropertyOp16
 70
     1
102
RTVSPropertyOp17
 70
     1
102
RTVSPropertyOp18
 70
     1
102
RTVSPropertyOp19
 70
     1
102
RTVSPropertyOp20
 70
     1
102
RTVSPropertyOp21
 70
     1
102
RTVSPropertyOp22
 70
     1
102
RTVSPropertyOp23
 70
     1
102
RTVSPropertyOp24
 70
     1
102
RTVSPropertyOp25
 70
     1
102
RTVSPropertyOp26
 70
     1
102
RTVSPropertyOp27
 70
     1
102
RTVSPropertyOp28
 70
     1
102
RTVSPropertyOp29
 70
     1
102
RTVSPropertyOp30
 70
     1
102
RTVSPropertyOp31
 70
     1
102
RTVSPropertyOp32
 70
     1
  0
XRECORD
  5
26A
102
{ACAD_REACTORS
330
269
102
}
330
269
100
AcDbXrecord
280
     1
102
RTVSPropertyOp0
 70
     1
102
RTVSPropertyOp1
 70
     1
102
RTVSPropertyOp2
 70
     1
102
RTVSPropertyOp3
 70
     1
102
RTVSPropertyOp4
 70
     1
102
RTVSPropertyOp5
 70
     1
102
RTVSPropertyOp6
 70
     1
102
RTVSPropertyOp7
 70
     1
102
RTVSPropertyOp8
 70
     1
102
RTVSPropertyOp9
 70
     1
102
RTVSPropertyOp10
 70
     1
102
RTVSPropertyOp11
 70
     1
102
RTVSPropertyOp12
 70
     1
102
RTVSPropertyOp13
 70
     1
102
RTVSPropertyOp14
 70
     1
102
RTVSPropertyOp15
 70
     1
102
RTVSPropertyOp16
 70
     1
102
RTVSPropertyOp17
 70
     1
102
RTVSPropertyOp18
 70
     1
102
RTVSPropertyOp19
 70
     1
102
RTVSPropertyOp20
 70
     1
102
RTVSPropertyOp21
 70
     1
102
RTVSPropertyOp22
 70
     1
102
RTVSPropertyOp23
 70
     1
102
RTVSPropertyOp24
 70
     1
102
RTVSPropertyOp25
 70
     1
102
RTVSPropertyOp26
 70
     1
102
RTVSPropertyOp27
 70
     1
102
RTVSPropertyOp28
 70
     1
102
RTVSPropertyOp29
 70
     1
102
RTVSPropertyOp30
 70
     1
102
RTVSPropertyOp31
 70
     1
102
RTVSPropertyOp32
 70
     1
  0
XRECORD
  5
272
102
{ACAD_REACTORS
330
271
102
}
330
271
100
AcDbXrecord
280
     1
102
RTVSPropertyOp0
 70
     1
102
RTVSPropertyOp1
 70
     1
102
RTVSPropertyOp2
 70
     1
102
RTVSPropertyOp3
 70
     1
102
RTVSPropertyOp4
 70
     1
102
RTVSPropertyOp5
 70
     1
102
RTVSPropertyOp6
 70
     1
102
RTVSPropertyOp7
 70
     1
102
RTVSPropertyOp8
 70
     1
102
RTVSPropertyOp9
 70
     1
102
RTVSPropertyOp10
 70
     1
102
RTVSPropertyOp11
 70
     1
102
RTVSPropertyOp12
 70
     1
102
RTVSPropertyOp13
 70
     1
102
RTVSPropertyOp14
 70
     1
102
RTVSPropertyOp15
 70
     1
102
RTVSPropertyOp16
 70
     1
102
RTVSPropertyOp17
 70
     1
102
RTVSPropertyOp18
 70
     1
102
RTVSPropertyOp19
 70
     1
102
RTVSPropertyOp20
 70
     1
102
RTVSPropertyOp21
 70
     1
102
RTVSPropertyOp22
 70
     1
102
RTVSPropertyOp23
 70
     1
102
RTVSPropertyOp24
 70
     1
102
RTVSPropertyOp25
 70
     1
102
RTVSPropertyOp26
 70
     1
102
RTVSPropertyOp27
 70
     1
102
RTVSPropertyOp28
 70
     1
102
RTVSPropertyOp29
 70
     1
102
RTVSPropertyOp30
 70
     1
102
RTVSPropertyOp31
 70
     1
102
RTVSPropertyOp32
 70
     1
  0
ENDSEC
  0
EOF
