  0
SECTION
  2
HEADER
  9
$ACADVER
  1
AC1018
  9
$ACADMAINTVER
 70
     0
  9
$DWGCODEPAGE
  3
ANSI_932
  9
$INSBASE
 10
0.0
 20
0.0
 30
0.0
  9
$EXTMIN
 10
-105.0
 20
-148.5
 30
0.0
  9
$EXTMAX
 10
105.0
 20
148.5
 30
0.0
  9
$LIMMIN
 10
-105.0
 20
-148.5
  9
$LIMMAX
 10
105.0
 20
148.5
  9
$ORTHOMODE
 70
     0
  9
$REGENMODE
 70
     1
  9
$FILLMODE
 70
     1
  9
$QTEXTMODE
 70
     0
  9
$MIRRTEXT
 70
     1
  9
$LTSCALE
 40
1.0
  9
$ATTMODE
 70
     1
  9
$TEXTSIZE
 40
2.5
  9
$TRACEWID
 40
1.0
  9
$TEXTSTYLE
  7
Standard
  9
$CLAYER
  8
0
  9
$CELTYPE
  6
ByLayer
  9
$CECOLOR
 62
   256
  9
$CELTSCALE
 40
1.0
  9
$DISPSILH
 70
     0
  9
$DIMSCALE
 40
1.0
  9
$DIMASZ
 40
2.5
  9
$DIMEXO
 40
0.625
  9
$DIMDLI
 40
3.75
  9
$DIMRND
 40
0.0
  9
$DIMDLE
 40
0.0
  9
$DIMEXE
 40
1.25
  9
$DIMTP
 40
0.0
  9
$DIMTM
 40
0.0
  9
$DIMTXT
 40
2.5
  9
$DIMCEN
 40
2.5
  9
$DIMTSZ
 40
0.0
  9
$DIMTOL
 70
     0
  9
$DIMLIM
 70
     0
  9
$DIMTIH
 70
     0
  9
$DIMTOH
 70
     0
  9
$DIMSE1
 70
     0
  9
$DIMSE2
 70
     0
  9
$DIMTAD
 70
     1
  9
$DIMZIN
 70
     8
  9
$DIMBLK
  1

  9
$DIMASO
 70
     1
  9
$DIMSHO
 70
     1
  9
$DIMPOST
  1

  9
$DIMAPOST
  1

  9
$DIMALT
 70
     0
  9
$DIMALTD
 70
     3
  9
$DIMALTF
 40
0.03937007874016
  9
$DIMLFAC
 40
1.0
  9
$DIMTOFL
 70
     1
  9
$DIMTVP
 40
0.0
  9
$DIMTIX
 70
     0
  9
$DIMSOXD
 70
     0
  9
$DIMSAH
 70
     0
  9
$DIMBLK1
  1

  9
$DIMBLK2
  1

  9
$DIMSTYLE
  2
ISO-25
  9
$DIMCLRD
 70
     0
  9
$DIMCLRE
 70
     0
  9
$DIMCLRT
 70
     0
  9
$DIMTFAC
 40
1.0
  9
$DIMGAP
 40
0.625
  9
$DIMJUST
 70
     0
  9
$DIMSD1
 70
     0
  9
$DIMSD2
 70
     0
  9
$DIMTOLJ
 70
     0
  9
$DIMTZIN
 70
     8
  9
$DIMALTZ
 70
     0
  9
$DIMALTTZ
 70
     0
  9
$DIMUPT
 70
     0
  9
$DIMDEC
 70
     2
  9
$DIMTDEC
 70
     2
  9
$DIMALTU
 70
     2
  9
$DIMALTTD
 70
     3
  9
$DIMTXSTY
  7
Standard
  9
$DIMAUNIT
 70
     0
  9
$DIMADEC
 70
     0
  9
$DIMALTRND
 40
0.0
  9
$DIMAZIN
 70
     0
  9
$DIMDSEP
 70
    44
  9
$DIMATFIT
 70
     3
  9
$DIMFRAC
 70
     0
  9
$DIMLDRBLK
  1

  9
$DIMLUNIT
 70
     2
  9
$DIMLWD
 70
    -2
  9
$DIMLWE
 70
    -2
  9
$DIMTMOVE
 70
     0
  9
$LUNITS
 70
     2
  9
$LUPREC
 70
     4
  9
$SKETCHINC
 40
1.0
  9
$FILLETRAD
 40
10.0
  9
$AUNITS
 70
     0
  9
$AUPREC
 70
     0
  9
$MENU
  1
.
  9
$ELEVATION
 40
0.0
  9
$PELEVATION
 40
0.0
  9
$THICKNESS
 40
0.0
  9
$LIMCHECK
 70
     0
  9
$CHAMFERA
 40
10.0
  9
$CHAMFERB
 40
10.0
  9
$CHAMFERC
 40
20.0
  9
$CHAMFERD
 40
0.0
  9
$SKPOLY
 70
     0
  9
$TDCREATE
 40
2457284.576920729
  9
$TDUCREATE
 40
2457284.201920729
  9
$TDUPDATE
 40
2457284.576921053
  9
$TDUUPDATE
 40
2457284.201921053
  9
$TDINDWG
 40
0.0000000116
  9
$TDUSRTIMER
 40
0.0000000116
  9
$USRTIMER
 70
     1
  9
$ANGBASE
 50
0.0
  9
$ANGDIR
 70
     0
  9
$PDMODE
 70
     0
  9
$PDSIZE
 40
0.0
  9
$PLINEWID
 40
0.0
  9
$SPLFRAME
 70
     0
  9
$SPLINETYPE
 70
     6
  9
$SPLINESEGS
 70
     8
  9
$HANDSEED
  5
311
  9
$SURFTAB1
 70
     6
  9
$SURFTAB2
 70
     6
  9
$SURFTYPE
 70
     6
  9
$SURFU
 70
     6
  9
$SURFV
 70
     6
  9
$UCSBASE
  2

  9
$UCSNAME
  2

  9
$UCSORG
 10
0.0
 20
0.0
 30
0.0
  9
$UCSXDIR
 10
1.0
 20
0.0
 30
0.0
  9
$UCSYDIR
 10
0.0
 20
1.0
 30
0.0
  9
$UCSORTHOREF
  2

  9
$UCSORTHOVIEW
 70
     0
  9
$UCSORGTOP
 10
0.0
 20
0.0
 30
0.0
  9
$UCSORGBOTTOM
 10
0.0
 20
0.0
 30
0.0
  9
$UCSORGLEFT
 10
0.0
 20
0.0
 30
0.0
  9
$UCSORGRIGHT
 10
0.0
 20
0.0
 30
0.0
  9
$UCSORGFRONT
 10
0.0
 20
0.0
 30
0.0
  9
$UCSORGBACK
 10
0.0
 20
0.0
 30
0.0
  9
$PUCSBASE
  2

  9
$PUCSNAME
  2

  9
$PUCSORG
 10
0.0
 20
0.0
 30
0.0
  9
$PUCSXDIR
 10
1.0
 20
0.0
 30
0.0
  9
$PUCSYDIR
 10
0.0
 20
1.0
 30
0.0
  9
$PUCSORTHOREF
  2

  9
$PUCSORTHOVIEW
 70
     0
  9
$PUCSORGTOP
 10
0.0
 20
0.0
 30
0.0
  9
$PUCSORGBOTTOM
 10
0.0
 20
0.0
 30
0.0
  9
$PUCSORGLEFT
 10
0.0
 20
0.0
 30
0.0
  9
$PUCSORGRIGHT
 10
0.0
 20
0.0
 30
0.0
  9
$PUCSORGFRONT
 10
0.0
 20
0.0
 30
0.0
  9
$PUCSORGBACK
 10
0.0
 20
0.0
 30
0.0
  9
$USERI1
 70
     0
  9
$USERI2
 70
     0
  9
$USERI3
 70
     0
  9
$USERI4
 70
     0
  9
$USERI5
 70
     0
  9
$USERR1
 40
0.0
  9
$USERR2
 40
0.0
  9
$USERR3
 40
0.0
  9
$USERR4
 40
0.0
  9
$USERR5
 40
0.0
  9
$WORLDVIEW
 70
     1
  9
$SHADEDGE
 70
     3
  9
$SHADEDIF
 70
    70
  9
$TILEMODE
 70
     1
  9
$MAXACTVP
 70
    64
  9
$PINSBASE
 10
0.0
 20
0.0
 30
0.0
  9
$PLIMCHECK
 70
     0
  9
$PEXTMIN
 10
1.000000000000000E+20
 20
1.000000000000000E+20
 30
1.000000000000000E+20
  9
$PEXTMAX
 10
-1.000000000000000E+20
 20
-1.000000000000000E+20
 30
-1.000000000000000E+20
  9
$PLIMMIN
 10
-105.0
 20
-148.5
  9
$PLIMMAX
 10
105.0
 20
148.5
  9
$UNITMODE
 70
     0
  9
$VISRETAIN
 70
     1
  9
$PLINEGEN
 70
     0
  9
$PSLTSCALE
 70
     1
  9
$TREEDEPTH
 70
  3020
  9
$CMLSTYLE
  2
Standard
  9
$CMLJUST
 70
     0
  9
$CMLSCALE
 40
20.0
  9
$PROXYGRAPHICS
 70
     1
  9
$MEASUREMENT
 70
     1
  9
$CELWEIGHT
370
    -1
  9
$ENDCAPS
280
     0
  9
$JOINSTYLE
280
     0
  9
$LWDISPLAY
290
     0
  9
$INSUNITS
 70
     4
  9
$HYPERLINKBASE
  1

  9
$STYLESHEET
  1

  9
$XEDIT
290
     1
  9
$CEPSNTYPE
380
     0
  9
$PSTYLEMODE
290
     1
  9
$FINGERPRINTGUID
  2
{7C84EC2A-8A4C-4542-97A8-2198E563FEEC}
  9
$VERSIONGUID
  2
{FAEB1C32-E019-11D5-929B-00C0DF256EC4}
  9
$EXTNAMES
290
     1
  9
$PSVPSCALE
 40
0.0
  9
$OLESTARTUP
290
     0
  9
$SORTENTS
280
   127
  9
$INDEXCTL
280
     0
  9
$HIDETEXT
280
     1
  9
$XCLIPFRAME
290
     0
  9
$HALOGAP
280
     0
  9
$OBSCOLOR
 70
   257
  9
$OBSLTYPE
280
     0
  9
$INTERSECTIONDISPLAY
280
     0
  9
$INTERSECTIONCOLOR
 70
   257
  9
$DIMASSOC
280
     2
  9
$PROJECTNAME
  1

  0
ENDSEC
  0
SECTION
  2
CLASSES
  0
CLASS
  1
ACDBDICTIONARYWDFLT
  2
AcDbDictionaryWithDefault
  3
ObjectDBX Classes
 90
        0
 91
        4
280
     0
281
     0
  0
CLASS
  1
VISUALSTYLE
  2
AcDbVisualStyle
  3
ObjectDBX Classes
 90
     4095
 91
        4
280
     0
281
     0
  0
CLASS
  1
MATERIAL
  2
AcDbMaterial
  3
ObjectDBX Classes
 90
     1153
 91
        4
280
     0
281
     0
  0
CLASS
  1
SUN
  2
AcDbSun
  3
SCENEOE
 90
     1024
 91
        4
280
     0
281
     0
  0
ENDSEC
  0
SECTION
  2
TABLES
  0
TABLE
  2
VPORT
  5
8
330
0
100
AcDbSymbolTable
 70
     1
  0
VPORT
  5
29
330
8
100
AcDbSymbolTableRecord
100
AcDbViewportTableRecord
  2
*Active
 70
     0
 10
0.0
 20
0.0
 11
1.0
 21
1.0
 12
344.1869158878504
 22
148.5
 13
0.0
 23
0.0
 14
10.0
 24
10.0
 15
10.0
 25
10.0
 16
0.0
 26
0.0
 36
1.0
 17
0.0
 27
0.0
 37
0.0
 40
297.0
 41
1.972972972850329
 42
50.0
 43
0.0
 44
0.0
 50
0.0
 51
0.0
 71
     0
 72
   100
 73
     1
 74
     3
 75
     0
 76
     0
 77
     0
 78
     0
281
     0
 65
     1
110
0.0
120
0.0
130
0.0
111
1.0
121
0.0
131
0.0
112
0.0
122
1.0
132
0.0
 79
     0
146
0.0
  0
ENDTAB
  0
TABLE
  2
LTYPE
  5
5
330
0
100
AcDbSymbolTable
 70
     5
  0
LTYPE
  5
14
330
5
100
AcDbSymbolTableRecord
100
AcDbLinetypeTableRecord
  2
ByBlock
 70
     0
  3

 72
    65
 73
     0
 40
0.0
  0
LTYPE
  5
15
330
5
100
AcDbSymbolTableRecord
100
AcDbLinetypeTableRecord
  2
ByLayer
 70
     0
  3

 72
    65
 73
     0
 40
0.0
  0
LTYPE
  5
16
330
5
100
AcDbSymbolTableRecord
100
AcDbLinetypeTableRecord
  2
Continuous
 70
     0
  3
Solid line
 72
    65
 73
     0
 40
0.0
  0
LTYPE
  5
40
330
5
100
AcDbSymbolTableRecord
100
AcDbLinetypeTableRecord
  2
CONTINOUS
 70
     0
  3
______________________________
 72
    65
 73
     0
 40
0.0
  0
LTYPE
  5
41
330
5
100
AcDbSymbolTableRecord
100
AcDbLinetypeTableRecord
  2
DASHED
 70
     0
  3
__ __ __ __ __ __ __ __ __ __ __ __ __ __ __ __
 72
    65
 73
     2
 40
4.5
 49
3.0
 74
     0
 49
-1.5
 74
     0
  0
LTYPE
  5
42
330
5
100
AcDbSymbolTableRecord
100
AcDbLinetypeTableRecord
  2
PHANTOM
 70
     0
  3
______  __  __  ______  __  __  _____
 72
    65
 73
     6
 40
15.0
 49
7.5
 74
     0
 49
-1.5
 74
     0
 49
1.5
 74
     0
 49
-1.5
 74
     0
 49
1.5
 74
     0
 49
-1.5
 74
     0
  0
LTYPE
  5
43
330
5
100
AcDbSymbolTableRecord
100
AcDbLinetypeTableRecord
  2
CENTER
 70
     0
  3
____ _ ____ _ ____ _ ____ _ ____ _ ____
 72
    65
 73
     4
 40
12.0
 49
7.5
 74
     0
 49
-1.5
 74
     0
 49
1.5
 74
     0
 49
-1.5
 74
     0
  0
ENDTAB
  0
TABLE
  2
LAYER
  5
2
330
0
100
AcDbSymbolTable
 70
     3
  0
LAYER
  5
10
330
2
100
AcDbSymbolTableRecord
100
AcDbLayerTableRecord
  2
0
 70
     0
 62
     7
  6
Continuous
370
    -3
390
F
  0
LAYER
  5
1C8
330
2
100
AcDbSymbolTableRecord
100
AcDbLayerTableRecord
  2
Defpoints
 70
     0
 62
     7
  6
Continuous
290
     0
370
    -3
390
F
  0
LAYER
  5
2D1
330
2
100
AcDbSymbolTableRecord
100
AcDbLayerTableRecord
  2
VIEW0001
 70
     0
 62
     7
  6
Continuous
370
    -3
390
F
  0
ENDTAB
  0
TABLE
  2
STYLE
  5
3
330
0
100
AcDbSymbolTable
 70
     1
  0
STYLE
  5
11
330
3
100
AcDbSymbolTableRecord
100
AcDbTextStyleTableRecord
  2
Standard
 70
     0
 40
0.0
 41
1.0
 50
0.0
 71
     0
 42
2.5
  3
ROMANS
  4
BIGFONT
  0
ENDTAB
  0
TABLE
  2
VIEW
  5
6
330
0
100
AcDbSymbolTable
 70
     0
  0
ENDTAB
  0
TABLE
  2
UCS
  5
7
330
0
100
AcDbSymbolTable
 70
     0
  0
ENDTAB
  0
TABLE
  2
APPID
  5
9
330
0
100
AcDbSymbolTable
 70
     1
  0
APPID
  5
12
330
9
100
AcDbSymbolTableRecord
100
AcDbRegAppTableRecord
  2
ACAD
 70
     0
  0
ENDTAB
  0
TABLE
  2
DIMSTYLE
  5
A
330
0
100
AcDbSymbolTable
 70
     1
100
AcDbDimStyleTable
  0
DIMSTYLE
105
27
102
{ACAD_REACTORS
330
1C1
330
1D5
330
1E1
330
1EC
330
202
330
216
330
223
330
22F
330
23C
330
24C
330
259
330
266
330
273
330
280
330
28C
330
298
330
2A4
330
2B7
330
2C4
102
}
330
A
100
AcDbSymbolTableRecord
100
AcDbDimStyleTableRecord
  2
ISO-25
 70
     0
 41
2.5
 42
0.625
 43
3.75
 44
1.25
 73
     0
 74
     0
 77
     1
 78
     8
140
2.5
141
2.5
143
0.03937007874016
147
0.625
171
     3
172
     1
178
     0
271
     2
272
     2
274
     3
278
    44
283
     0
284
     8
340
11
  0
ENDTAB
  0
TABLE
  2
BLOCK_RECORD
  5
1
330
0
100
AcDbSymbolTable
 70
    23
  0
BLOCK_RECORD
  5
1F
330
1
100
AcDbSymbolTableRecord
100
AcDbBlockTableRecord
  2
*Model_Space
340
22
  0
BLOCK_RECORD
  5
1B
330
1
100
AcDbSymbolTableRecord
100
AcDbBlockTableRecord
  2
*Paper_Space
340
1E
  0
BLOCK_RECORD
  5
23
330
1
100
AcDbSymbolTableRecord
100
AcDbBlockTableRecord
  2
*Paper_Space0
340
26
  0
BLOCK_RECORD
  5
1C2
330
1
100
AcDbSymbolTableRecord
100
AcDbBlockTableRecord
  2
_OPEN30
340
0
102
{BLKREFS
331
1D0
331
1CF
331
1DC
331
1DB
331
1E7
331
1E6
331
0
331
0
331
0
331
0
331
21E
331
21D
331
22A
331
229
331
237
331
236
331
0
331
254
331
253
331
261
331
260
331
26E
331
26D
331
27B
331
27A
331
287
331
286
331
293
331
292
331
29E
331
2BF
331
2BE
331
2CC
331
2CB
102
}
  0
BLOCK_RECORD
  5
1C9
330
1
100
AcDbSymbolTableRecord
100
AcDbBlockTableRecord
  2
*D2
340
0
  0
BLOCK_RECORD
  5
1D6
330
1
100
AcDbSymbolTableRecord
100
AcDbBlockTableRecord
  2
*D3
340
0
  0
BLOCK_RECORD
  5
1E2
330
1
100
AcDbSymbolTableRecord
100
AcDbBlockTableRecord
  2
*D4
340
0
  0
BLOCK_RECORD
  5
1ED
330
1
100
AcDbSymbolTableRecord
100
AcDbBlockTableRecord
  2
*D5
340
0
  0
BLOCK_RECORD
  5
203
330
1
100
AcDbSymbolTableRecord
100
AcDbBlockTableRecord
  2
*D6
340
0
  0
BLOCK_RECORD
  5
217
330
1
100
AcDbSymbolTableRecord
100
AcDbBlockTableRecord
  2
*D7
340
0
  0
BLOCK_RECORD
  5
224
330
1
100
AcDbSymbolTableRecord
100
AcDbBlockTableRecord
  2
*D8
340
0
  0
BLOCK_RECORD
  5
230
330
1
100
AcDbSymbolTableRecord
100
AcDbBlockTableRecord
  2
*D9
340
0
  0
BLOCK_RECORD
  5
23D
330
1
100
AcDbSymbolTableRecord
100
AcDbBlockTableRecord
  2
_NONE
340
0
102
{BLKREFS
331
29F
102
}
  0
BLOCK_RECORD
  5
240
330
1
100
AcDbSymbolTableRecord
100
AcDbBlockTableRecord
  2
*D11
340
0
  0
BLOCK_RECORD
  5
24D
330
1
100
AcDbSymbolTableRecord
100
AcDbBlockTableRecord
  2
*D12
340
0
  0
BLOCK_RECORD
  5
25A
330
1
100
AcDbSymbolTableRecord
100
AcDbBlockTableRecord
  2
*D13
340
0
  0
BLOCK_RECORD
  5
267
330
1
100
AcDbSymbolTableRecord
100
AcDbBlockTableRecord
  2
*D14
340
0
  0
BLOCK_RECORD
  5
274
330
1
100
AcDbSymbolTableRecord
100
AcDbBlockTableRecord
  2
*D15
340
0
  0
BLOCK_RECORD
  5
281
330
1
100
AcDbSymbolTableRecord
100
AcDbBlockTableRecord
  2
*D16
340
0
  0
BLOCK_RECORD
  5
28D
330
1
100
AcDbSymbolTableRecord
100
AcDbBlockTableRecord
  2
*D17
340
0
  0
BLOCK_RECORD
  5
299
330
1
100
AcDbSymbolTableRecord
100
AcDbBlockTableRecord
  2
*D18
340
0
  0
BLOCK_RECORD
  5
2A5
330
1
100
AcDbSymbolTableRecord
100
AcDbBlockTableRecord
  2
_ORIGIN
340
0
102
{BLKREFS
331
2B2
331
2B1
102
}
  0
BLOCK_RECORD
  5
2AA
330
1
100
AcDbSymbolTableRecord
100
AcDbBlockTableRecord
  2
*D20
340
0
  0
BLOCK_RECORD
  5
2B8
330
1
100
AcDbSymbolTableRecord
100
AcDbBlockTableRecord
  2
*D21
340
0
  0
BLOCK_RECORD
  5
2C5
330
1
100
AcDbSymbolTableRecord
100
AcDbBlockTableRecord
  2
*D22
340
0
  0
ENDTAB
  0
ENDSEC
  0
SECTION
  2
BLOCKS
  0
BLOCK
  5
20
330
1F
100
AcDbEntity
  8
0
100
AcDbBlockBegin
  2
*Model_Space
 70
     0
 10
0.0
 20
0.0
 30
0.0
  3
*Model_Space
  1

  0
ENDBLK
  5
21
330
1F
100
AcDbEntity
  8
0
100
AcDbBlockEnd
  0
BLOCK
  5
1C
330
1B
100
AcDbEntity
 67
     1
  8
0
100
AcDbBlockBegin
  2
*Paper_Space
 70
     0
 10
0.0
 20
0.0
 30
0.0
  3
*Paper_Space
  1

  0
ENDBLK
  5
1D
330
1B
100
AcDbEntity
 67
     1
  8
0
100
AcDbBlockEnd
  0
BLOCK
  5
24
330
23
100
AcDbEntity
  8
0
100
AcDbBlockBegin
  2
*Paper_Space0
 70
     0
 10
0.0
 20
0.0
 30
0.0
  3
*Paper_Space0
  1

  0
ENDBLK
  5
25
330
23
100
AcDbEntity
  8
0
100
AcDbBlockEnd
  0
BLOCK
  5
1C3
330
1C2
100
AcDbEntity
  8
0
100
AcDbBlockBegin
  2
_OPEN30
 70
     0
 10
0.0
 20
0.0
 30
0.0
  3
_OPEN30
  1

  0
LINE
  5
1C5
330
1C2
100
AcDbEntity
  8
0
  6
ByBlock
 62
     0
370
    -2
100
AcDbLine
 10
-1.0
 20
0.267949
 30
0.0
 11
0.0
 21
0.0
 31
0.0
  0
LINE
  5
1C6
330
1C2
100
AcDbEntity
  8
0
  6
ByBlock
 62
     0
370
    -2
100
AcDbLine
 10
0.0
 20
0.0
 30
0.0
 11
-1.0
 21
-0.267949
 31
0.0
  0
LINE
  5
1C7
330
1C2
100
AcDbEntity
  8
0
  6
ByBlock
 62
     0
370
    -2
100
AcDbLine
 10
0.0
 20
0.0
 30
0.0
 11
-1.0
 21
0.0
 31
0.0
  0
ENDBLK
  5
1C4
330
1C2
100
AcDbEntity
  8
0
100
AcDbBlockEnd
  0
BLOCK
  5
1CA
330
1C9
100
AcDbEntity
  8
0
100
AcDbBlockBegin
  2
*D2
 70
     1
 10
0.0
 20
0.0
 30
0.0
  3
*D2
  1

  0
LINE
  5
1CC
330
1C9
100
AcDbEntity
  8
0
 62
     0
370
    -2
100
AcDbLine
 10
-21.66819473266602
 20
31.9574146270752
 30
0.0
 11
53.21017456054687
 21
31.95741462707518
 31
0.0
  0
LINE
  5
1CD
330
1C9
100
AcDbEntity
  8
0
 62
     0
370
    -2
100
AcDbLine
 10
2.915135481357574
 20
91.7907485961914
 30
0.0
 11
53.21017456054688
 21
91.7907485961914
 31
0.0
  0
LINE
  5
1CE
330
1C9
100
AcDbEntity
  8
0
 62
     0
370
    -2
100
AcDbLine
 10
51.21017456054687
 20
34.95741462707518
 30
0.0
 11
51.21017456054688
 21
88.7907485961914
 31
0.0
  0
INSERT
  5
1CF
330
1C9
100
AcDbEntity
  8
0
 62
     0
370
    -2
100
AcDbBlockReference
  2
_OPEN30
 10
51.21017456054687
 20
31.95741462707518
 30
0.0
 41
3.0
 42
3.0
 43
3.0
 50
270.0
  0
INSERT
  5
1D0
330
1C9
100
AcDbEntity
  8
0
 62
     0
370
    -2
100
AcDbBlockReference
  2
_OPEN30
 10
51.21017456054688
 20
91.7907485961914
 30
0.0
 41
3.0
 42
3.0
 43
3.0
 50
89.99999999999999
  0
MTEXT
  5
1D1
330
1C9
100
AcDbEntity
  8
0
 62
     1
100
AcDbMText
 10
48.78937452447414
 20
61.87508065795898
 30
0.0
 40
3.200000047683716
 41
0.0
 71
     5
 72
     1
  1
179.5
 11
2.375073186217089E-16
 21
1.0
 31
0.0
 73
     1
 44
1.0
  0
POINT
  5
1D2
330
1C9
100
AcDbEntity
  8
Defpoints
 62
     0
100
AcDbPoint
 10
-24.20819473266602
 20
31.9574146270752
 30
0.0
  0
POINT
  5
1D3
330
1C9
100
AcDbEntity
  8
Defpoints
 62
     0
100
AcDbPoint
 10
0.375135481357574
 20
91.7907485961914
 30
0.0
  0
POINT
  5
1D4
330
1C9
100
AcDbEntity
  8
Defpoints
 62
     0
100
AcDbPoint
 10
51.21017456054688
 20
91.79074859619139
 30
0.0
  0
ENDBLK
  5
1CB
330
1C9
100
AcDbEntity
  8
0
100
AcDbBlockEnd
  0
BLOCK
  5
1D7
330
1D6
100
AcDbEntity
  8
0
100
AcDbBlockBegin
  2
*D3
 70
     1
 10
0.0
 20
0.0
 30
0.0
  3
*D3
  1

  0
LINE
  5
1D9
330
1D6
100
AcDbEntity
  8
0
 62
     0
370
    -2
100
AcDbLine
 10
7.211331405639648
 20
69.62408447265625
 30
0.0
 11
39.87683868408203
 21
69.62408447265625
 31
0.0
  0
LINE
  5
1DA
330
1D6
100
AcDbEntity
  8
0
 62
     0
370
    -2
100
AcDbLine
 10
37.87683868408202
 20
34.9574146270752
 30
0.0
 11
37.87683868408203
 21
66.62408447265625
 31
0.0
  0
INSERT
  5
1DB
330
1D6
100
AcDbEntity
  8
0
 62
     0
370
    -2
100
AcDbBlockReference
  2
_OPEN30
 10
37.87683868408202
 20
31.9574146270752
 30
0.0
 41
3.0
 42
3.0
 43
3.0
 50
270.0
  0
INSERT
  5
1DC
330
1D6
100
AcDbEntity
  8
0
 62
     0
370
    -2
100
AcDbBlockReference
  2
_OPEN30
 10
37.87683868408203
 20
69.62408447265625
 30
0.0
 41
3.0
 42
3.0
 43
3.0
 50
89.99999999999999
  0
MTEXT
  5
1DD
330
1D6
100
AcDbEntity
  8
0
 62
     1
100
AcDbMText
 10
35.46243864810467
 20
50.7917485961914
 30
0.0
 40
3.200000047683716
 41
0.0
 71
     5
 72
     1
  1
113
 11
1.886396484406648E-16
 21
1.0
 31
0.0
 73
     1
 44
1.0
  0
POINT
  5
1DE
330
1D6
100
AcDbEntity
  8
Defpoints
 62
     0
100
AcDbPoint
 10
-24.20819473266602
 20
31.9574146270752
 30
0.0
  0
POINT
  5
1DF
330
1D6
100
AcDbEntity
  8
Defpoints
 62
     0
100
AcDbPoint
 10
4.671331405639648
 20
69.62408447265625
 30
0.0
  0
POINT
  5
1E0
330
1D6
100
AcDbEntity
  8
Defpoints
 62
     0
100
AcDbPoint
 10
37.87683868408203
 20
69.62408447265625
 30
0.0
  0
ENDBLK
  5
1D8
330
1D6
100
AcDbEntity
  8
0
100
AcDbBlockEnd
  0
BLOCK
  5
1E3
330
1E2
100
AcDbEntity
  8
0
100
AcDbBlockBegin
  2
*D4
 70
     1
 10
0.0
 20
0.0
 30
0.0
  3
*D4
  1

  0
LINE
  5
1E5
330
1E2
100
AcDbEntity
  8
0
 62
     0
370
    -2
100
AcDbLine
 10
37.87683868408202
 20
72.62408447265625
 30
0.0
 11
37.87683868408203
 21
88.7907485961914
 31
0.0
  0
INSERT
  5
1E6
330
1E2
100
AcDbEntity
  8
0
 62
     0
370
    -2
100
AcDbBlockReference
  2
_OPEN30
 10
37.87683868408202
 20
69.62408447265625
 30
0.0
 41
3.0
 42
3.0
 43
3.0
 50
270.0
  0
INSERT
  5
1E7
330
1E2
100
AcDbEntity
  8
0
 62
     0
370
    -2
100
AcDbBlockReference
  2
_OPEN30
 10
37.87683868408203
 20
91.7907485961914
 30
0.0
 41
3.0
 42
3.0
 43
3.0
 50
89.99999999999999
  0
MTEXT
  5
1E8
330
1E2
100
AcDbEntity
  8
0
 62
     1
100
AcDbMText
 10
35.4560386480093
 20
80.70841271972657
 30
0.0
 40
3.200000047683716
 41
0.0
 71
     5
 72
     1
  1
66.5
 11
3.205456318552195E-16
 21
1.0
 31
0.0
 73
     1
 44
1.0
  0
POINT
  5
1E9
330
1E2
100
AcDbEntity
  8
Defpoints
 62
     0
100
AcDbPoint
 10
4.671331405639648
 20
69.62408447265625
 30
0.0
  0
POINT
  5
1EA
330
1E2
100
AcDbEntity
  8
Defpoints
 62
     0
100
AcDbPoint
 10
0.375135481357574
 20
91.7907485961914
 30
0.0
  0
POINT
  5
1EB
330
1E2
100
AcDbEntity
  8
Defpoints
 62
     0
100
AcDbPoint
 10
37.87683868408203
 20
91.7907485961914
 30
0.0
  0
ENDBLK
  5
1E4
330
1E2
100
AcDbEntity
  8
0
100
AcDbBlockEnd
  0
BLOCK
  5
1EE
330
1ED
100
AcDbEntity
  8
0
100
AcDbBlockBegin
  2
*D5
 70
     1
 10
0.0
 20
0.0
 30
0.0
  3
*D5
  1

  0
MTEXT
  5
1F7
330
1ED
100
AcDbEntity
  8
0
 62
     1
100
AcDbMText
 10
22.13010658633709
 20
79.17714862430097
 30
0.0
 40
3.200000047683716
 41
0.0
 71
     5
 72
     1
  1
5
 11
0.0
 21
1.0
 31
0.0
 73
     1
 44
1.0
  0
POINT
  5
1F8
330
1ED
100
AcDbEntity
  8
Defpoints
 62
     0
100
AcDbPoint
 10
-8.585143089294434
 20
71.2907485961914
 30
0.0
  0
POINT
  5
1F9
330
1ED
100
AcDbEntity
  8
Defpoints
 62
     0
100
AcDbPoint
 10
4.671331405639648
 20
69.62408447265625
 30
0.0
  0
POINT
  5
1FA
330
1ED
100
AcDbEntity
  8
Defpoints
 62
     0
100
AcDbPoint
 10
24.54350662231445
 20
69.62408447265626
 30
0.0
  0
LINE
  5
1FB
330
1ED
100
AcDbEntity
  8
0
  6
Continuous
 62
     7
100
AcDbLine
 10
-6.045143089294434
 20
71.2907485961914
 30
0.0
 11
26.54350662231445
 21
71.2907485961914
 31
0.0
  0
LINE
  5
1FC
330
1ED
100
AcDbEntity
  8
0
  6
Continuous
 62
     7
100
AcDbLine
 10
24.54350662231445
 20
77.6407485961914
 30
0.0
 11
24.54350662231445
 21
63.27408447265625
 31
0.0
  0
LINE
  5
1FD
330
1ED
100
AcDbEntity
  8
0
  6
Continuous
 62
     7
100
AcDbLine
 10
24.54350662231445
 20
71.2907485961914
 30
0.0
 11
23.72504893801445
 21
74.34527425819704
 31
0.0
  0
LINE
  5
1FE
330
1ED
100
AcDbEntity
  8
0
  6
Continuous
 62
     7
100
AcDbLine
 10
24.54350662231445
 20
71.2907485961914
 30
0.0
 11
25.36196430661445
 21
74.34527425819704
 31
0.0
  0
LINE
  5
1FF
330
1ED
100
AcDbEntity
  8
0
  6
Continuous
 62
     7
100
AcDbLine
 10
24.54350662231445
 20
69.62408447265625
 30
0.0
 11
25.36196430661445
 21
66.56955881065062
 31
0.0
  0
LINE
  5
200
330
1ED
100
AcDbEntity
  8
0
  6
Continuous
 62
     7
100
AcDbLine
 10
24.54350662231445
 20
69.62408447265625
 30
0.0
 11
23.72504893801445
 21
66.56955881065062
 31
0.0
  0
LINE
  5
201
330
1ED
100
AcDbEntity
  8
0
  6
Continuous
 62
     7
100
AcDbLine
 10
24.54350662231445
 20
71.2907485961914
 30
0.0
 11
24.54350662231445
 21
78.72282409667969
 31
0.0
  0
ENDBLK
  5
1EF
330
1ED
100
AcDbEntity
  8
0
100
AcDbBlockEnd
  0
BLOCK
  5
204
330
203
100
AcDbEntity
  8
0
100
AcDbBlockBegin
  2
*D6
 70
     1
 10
0.0
 20
0.0
 30
0.0
  3
*D6
  1

  0
MTEXT
  5
20C
330
203
100
AcDbEntity
  8
0
 62
     1
100
AcDbMText
 10
51.23873730099201
 20
-55.99398945987225
 30
0.0
 40
3.200000047683716
 41
0.0
 71
     5
 72
     1
  1
5
 73
     1
 44
1.0
  0
POINT
  5
20D
330
203
100
AcDbEntity
  8
Defpoints
 62
     0
100
AcDbPoint
 10
59.12513732910156
 20
-42.87131881713867
 30
0.0
  0
POINT
  5
20E
330
203
100
AcDbEntity
  8
Defpoints
 62
     0
100
AcDbPoint
 10
60.79180526733398
 20
-59.75133895874023
 30
0.0
  0
POINT
  5
20F
330
203
100
AcDbEntity
  8
Defpoints
 62
     0
100
AcDbPoint
 10
60.79180526733398
 20
-58.40938949584961
 30
0.0
  0
LINE
  5
210
330
203
100
AcDbEntity
  8
0
  6
Continuous
 62
     7
100
AcDbLine
 10
52.77513732910156
 20
-58.40938949584961
 30
0.0
 11
67.14180526733398
 21
-58.40938949584961
 31
0.0
  0
LINE
  5
211
330
203
100
AcDbEntity
  8
0
  6
Continuous
 62
     7
100
AcDbLine
 10
59.12513732910156
 20
-58.40938949584961
 30
0.0
 11
56.07061166709594
 21
-59.22784718014961
 31
0.0
  0
LINE
  5
212
330
203
100
AcDbEntity
  8
0
  6
Continuous
 62
     7
100
AcDbLine
 10
59.12513732910156
 20
-58.40938949584961
 30
0.0
 11
56.07061166709594
 21
-57.59093181154961
 31
0.0
  0
LINE
  5
213
330
203
100
AcDbEntity
  8
0
  6
Continuous
 62
     7
100
AcDbLine
 10
60.79180526733398
 20
-58.40938949584961
 30
0.0
 11
63.84633092933961
 21
-57.59093181154961
 31
0.0
  0
LINE
  5
214
330
203
100
AcDbEntity
  8
0
  6
Continuous
 62
     7
100
AcDbLine
 10
60.79180526733398
 20
-58.40938949584961
 30
0.0
 11
63.84633092933961
 21
-59.22784718014961
 31
0.0
  0
LINE
  5
215
330
203
100
AcDbEntity
  8
0
  6
Continuous
 62
     7
100
AcDbLine
 10
59.12513732910156
 20
-58.40938949584961
 30
0.0
 11
52.12774276733398
 21
-58.40938949584961
 31
0.0
  0
ENDBLK
  5
205
330
203
100
AcDbEntity
  8
0
100
AcDbBlockEnd
  0
BLOCK
  5
218
330
217
100
AcDbEntity
  8
0
100
AcDbBlockBegin
  2
*D7
 70
     1
 10
0.0
 20
0.0
 30
0.0
  3
*D7
  1

  0
LINE
  5
21A
330
217
100
AcDbEntity
  8
0
 62
     0
370
    -2
100
AcDbLine
 10
21.45848083496094
 20
-8.8359183883667
 30
0.0
 11
21.45848083496094
 21
17.32224273681641
 31
0.0
  0
LINE
  5
21B
330
217
100
AcDbEntity
  8
0
 62
     0
370
    -2
100
AcDbLine
 10
59.12513732910156
 20
-24.1689786529541
 30
0.0
 11
59.12513732910156
 21
17.32224273681641
 31
0.0
  0
LINE
  5
21C
330
217
100
AcDbEntity
  8
0
 62
     0
370
    -2
100
AcDbLine
 10
24.45848083496094
 20
15.32224273681641
 30
0.0
 11
56.12513732910156
 21
15.3222427368164
 31
0.0
  0
INSERT
  5
21D
330
217
100
AcDbEntity
  8
0
 62
     0
370
    -2
100
AcDbBlockReference
  2
_OPEN30
 10
21.45848083496094
 20
15.32224273681641
 30
0.0
 41
3.0
 42
3.0
 43
3.0
 50
180.0
  0
INSERT
  5
21E
330
217
100
AcDbEntity
  8
0
 62
     0
370
    -2
100
AcDbBlockReference
  2
_OPEN30
 10
59.12513732910156
 20
15.3222427368164
 30
0.0
 41
3.0
 42
3.0
 43
3.0
 50
360.0
  0
MTEXT
  5
21F
330
217
100
AcDbEntity
  8
0
 62
     1
100
AcDbMText
 10
40.29280908203125
 20
17.73664277279377
 30
0.0
 40
3.200000047683716
 41
0.0
 71
     5
 72
     1
  1
113
 73
     1
 44
1.0
  0
POINT
  5
220
330
217
100
AcDbEntity
  8
Defpoints
 62
     0
100
AcDbPoint
 10
21.45848083496094
 20
-11.3759183883667
 30
0.0
  0
POINT
  5
221
330
217
100
AcDbEntity
  8
Defpoints
 62
     0
100
AcDbPoint
 10
59.12513732910156
 20
-26.7089786529541
 30
0.0
  0
POINT
  5
222
330
217
100
AcDbEntity
  8
Defpoints
 62
     0
100
AcDbPoint
 10
59.12513732910156
 20
15.32224273681641
 30
0.0
  0
ENDBLK
  5
219
330
217
100
AcDbEntity
  8
0
100
AcDbBlockEnd
  0
BLOCK
  5
225
330
224
100
AcDbEntity
  8
0
100
AcDbBlockBegin
  2
*D8
 70
     1
 10
0.0
 20
0.0
 30
0.0
  3
*D8
  1

  0
LINE
  5
227
330
224
100
AcDbEntity
  8
0
 62
     0
370
    -2
100
AcDbLine
 10
81.29181671142578
 20
-22.83591743469238
 30
0.0
 11
81.29181671142578
 21
17.32224273681641
 31
0.0
  0
LINE
  5
228
330
224
100
AcDbEntity
  8
0
 62
     0
370
    -2
100
AcDbLine
 10
62.12513732910156
 20
15.32224273681641
 30
0.0
 11
78.29181671142578
 21
15.3222427368164
 31
0.0
  0
INSERT
  5
229
330
224
100
AcDbEntity
  8
0
 62
     0
370
    -2
100
AcDbBlockReference
  2
_OPEN30
 10
59.12513732910156
 20
15.32224273681641
 30
0.0
 41
3.0
 42
3.0
 43
3.0
 50
180.0
  0
INSERT
  5
22A
330
224
100
AcDbEntity
  8
0
 62
     0
370
    -2
100
AcDbBlockReference
  2
_OPEN30
 10
81.29181671142578
 20
15.3222427368164
 30
0.0
 41
3.0
 42
3.0
 43
3.0
 50
360.0
  0
MTEXT
  5
22B
330
224
100
AcDbEntity
  8
0
 62
     1
100
AcDbMText
 10
70.20947320556641
 20
17.74304277288914
 30
0.0
 40
3.200000047683716
 41
0.0
 71
     5
 72
     1
  1
66.5
 73
     1
 44
1.0
  0
POINT
  5
22C
330
224
100
AcDbEntity
  8
Defpoints
 62
     0
100
AcDbPoint
 10
59.12513732910156
 20
-26.7089786529541
 30
0.0
  0
POINT
  5
22D
330
224
100
AcDbEntity
  8
Defpoints
 62
     0
100
AcDbPoint
 10
81.29181671142578
 20
-25.37591743469238
 30
0.0
  0
POINT
  5
22E
330
224
100
AcDbEntity
  8
Defpoints
 62
     0
100
AcDbPoint
 10
81.29181671142578
 20
15.32224273681641
 30
0.0
  0
ENDBLK
  5
226
330
224
100
AcDbEntity
  8
0
100
AcDbBlockEnd
  0
BLOCK
  5
231
330
230
100
AcDbEntity
  8
0
100
AcDbBlockBegin
  2
*D9
 70
     1
 10
0.0
 20
0.0
 30
0.0
  3
*D9
  1

  0
LINE
  5
233
330
230
100
AcDbEntity
  8
0
 62
     0
370
    -2
100
AcDbLine
 10
39.45847320556641
 20
-28.50258537292481
 30
0.0
 11
39.45847320556641
 21
3.988909006118776
 31
0.0
  0
LINE
  5
234
330
230
100
AcDbEntity
  8
0
 62
     0
370
    -2
100
AcDbLine
 10
78.62515258789062
 20
-28.50258537292481
 30
0.0
 11
78.62515258789062
 21
3.988909006118771
 31
0.0
  0
LINE
  5
235
330
230
100
AcDbEntity
  8
0
 62
     0
370
    -2
100
AcDbLine
 10
42.45847320556641
 20
1.988909125328065
 30
0.0
 11
75.62515258789062
 21
1.988909125328061
 31
0.0
  0
INSERT
  5
236
330
230
100
AcDbEntity
  8
0
 62
     0
370
    -2
100
AcDbBlockReference
  2
_OPEN30
 10
39.45847320556641
 20
1.988909125328065
 30
0.0
 41
3.0
 42
3.0
 43
3.0
 50
180.0
  0
INSERT
  5
237
330
230
100
AcDbEntity
  8
0
 62
     0
370
    -2
100
AcDbBlockReference
  2
_OPEN30
 10
78.62515258789062
 20
1.98890912532806
 30
0.0
 41
3.0
 42
3.0
 43
3.0
 50
360.0
  0
MTEXT
  5
238
330
230
100
AcDbEntity
  8
0
 62
     1
100
AcDbMText
 10
50.67048699951172
 20
4.409709161400795
 30
0.0
 40
3.200000047683716
 41
0.0
 71
     5
 72
     1
  1
117.5
 73
     1
 44
1.0
  0
POINT
  5
239
330
230
100
AcDbEntity
  8
Defpoints
 62
     0
100
AcDbPoint
 10
39.45847320556641
 20
-31.0425853729248
 30
0.0
  0
POINT
  5
23A
330
230
100
AcDbEntity
  8
Defpoints
 62
     0
100
AcDbPoint
 10
78.62515258789062
 20
-31.0425853729248
 30
0.0
  0
POINT
  5
23B
330
230
100
AcDbEntity
  8
Defpoints
 62
     0
100
AcDbPoint
 10
78.62515258789062
 20
1.988909125328064
 30
0.0
  0
ENDBLK
  5
232
330
230
100
AcDbEntity
  8
0
100
AcDbBlockEnd
  0
BLOCK
  5
23E
330
23D
100
AcDbEntity
  8
0
100
AcDbBlockBegin
  2
_NONE
 70
     0
 10
0.0
 20
0.0
 30
0.0
  3
_NONE
  1

  0
ENDBLK
  5
23F
330
23D
100
AcDbEntity
  8
0
100
AcDbBlockEnd
  0
BLOCK
  5
241
330
240
100
AcDbEntity
  8
0
100
AcDbBlockBegin
  2
*D11
 70
     1
 10
0.0
 20
0.0
 30
0.0
  3
*D11
  1

  0
POINT
  5
246
330
240
100
AcDbEntity
  8
Defpoints
 62
     0
100
AcDbPoint
 10
52.15711867985489
 20
-45.41366317571423
 30
0.0
  0
POINT
  5
247
330
240
100
AcDbEntity
  8
Defpoints
 62
     0
100
AcDbPoint
 10
59.12514231524169
 20
-29.54258711750798
 30
0.0
  0
LINE
  5
248
330
240
100
AcDbEntity
  8
0
  6
Continuous
 62
     7
100
AcDbLine
 10
59.12514231524169
 20
-29.54258711750798
 30
0.0
 11
52.15711867985489
 21
-45.41366317571423
 31
0.0
  0
LINE
  5
249
330
240
100
AcDbEntity
  8
0
  6
Continuous
 62
     7
100
AcDbLine
 10
52.15711867985489
 20
-45.41366317571423
 30
0.0
 11
52.6356304112496
 21
-42.28779905138666
 31
0.0
  0
LINE
  5
24A
330
240
100
AcDbEntity
  8
0
  6
Continuous
 62
     7
100
AcDbLine
 10
52.15711867985489
 20
-45.41366317571423
 30
0.0
 11
54.13445405727284
 21
-42.9458413008513
 31
0.0
  0
MTEXT
  5
24B
330
240
100
AcDbEntity
  8
0
 62
     1
100
AcDbMText
 10
53.66255652253794
 20
-39.99511854624902
 30
0.0
 40
3.200000047683716
 41
0.0
 71
     7
 72
     1
  1
\W0.6875;R52
 11
0.4019477766559602
 21
0.915662593339561
 31
0.0
 73
     1
 44
1.0
  0
ENDBLK
  5
242
330
240
100
AcDbEntity
  8
0
100
AcDbBlockEnd
  0
BLOCK
  5
24E
330
24D
100
AcDbEntity
  8
0
100
AcDbBlockBegin
  2
*D12
 70
     1
 10
0.0
 20
0.0
 30
0.0
  3
*D12
  1

  0
LINE
  5
250
330
24D
100
AcDbEntity
  8
0
 62
     0
370
    -2
100
AcDbLine
 10
28.08513732910156
 20
-30.0425853729248
 30
0.0
 11
16.21277537536621
 21
-30.0425853729248
 31
0.0
  0
LINE
  5
251
330
24D
100
AcDbEntity
  8
0
 62
     0
370
    -2
100
AcDbLine
 10
56.58513732910156
 20
-46.87591934204102
 30
0.0
 11
16.21277537536622
 21
-46.87591934204102
 31
0.0
  0
LINE
  5
252
330
24D
100
AcDbEntity
  8
0
 62
     0
370
    -2
100
AcDbLine
 10
18.21277537536621
 20
-33.0425853729248
 30
0.0
 11
18.21277537536622
 21
-43.87591934204102
 31
0.0
  0
INSERT
  5
253
330
24D
100
AcDbEntity
  8
0
 62
     0
370
    -2
100
AcDbBlockReference
  2
_OPEN30
 10
18.21277537536621
 20
-30.0425853729248
 30
0.0
 41
3.0
 42
3.0
 43
3.0
 50
90.00000000000001
  0
INSERT
  5
254
330
24D
100
AcDbEntity
  8
0
 62
     0
370
    -2
100
AcDbBlockReference
  2
_OPEN30
 10
18.21277537536622
 20
-46.87591934204102
 30
0.0
 41
3.0
 42
3.0
 43
3.0
 50
270.0
  0
MTEXT
  5
255
330
24D
100
AcDbEntity
  8
0
 62
     1
100
AcDbMText
 10
15.79197533929348
 20
-38.4582514038086
 30
0.0
 40
3.200000047683716
 41
0.0
 71
     5
 72
     1
  1
50.5
 11
-4.221045795584634E-16
 21
1.0
 31
0.0
 73
     1
 44
1.0
  0
POINT
  5
256
330
24D
100
AcDbEntity
  8
Defpoints
 62
     0
100
AcDbPoint
 10
30.62513732910156
 20
-30.0425853729248
 30
0.0
  0
POINT
  5
257
330
24D
100
AcDbEntity
  8
Defpoints
 62
     0
100
AcDbPoint
 10
59.12513732910156
 20
-46.87591934204102
 30
0.0
  0
POINT
  5
258
330
24D
100
AcDbEntity
  8
Defpoints
 62
     0
100
AcDbPoint
 10
18.21077537536621
 20
-46.87591934204103
 30
0.0
  0
ENDBLK
  5
24F
330
24D
100
AcDbEntity
  8
0
100
AcDbBlockEnd
  0
BLOCK
  5
25B
330
25A
100
AcDbEntity
  8
0
100
AcDbBlockBegin
  2
*D13
 70
     1
 10
0.0
 20
0.0
 30
0.0
  3
*D13
  1

  0
LINE
  5
25D
330
25A
100
AcDbEntity
  8
0
 62
     0
370
    -2
100
AcDbLine
 10
-38.37486267089844
 20
-77.58258728027344
 30
0.0
 11
-38.37486267089844
 21
-108.4415888061523
 31
0.0
  0
LINE
  5
25E
330
25A
100
AcDbEntity
  8
0
 62
     0
370
    -2
100
AcDbLine
 10
-10.04152870178223
 20
-77.58258728027344
 30
0.0
 11
-10.04152870178223
 21
-108.4415888061523
 31
0.0
  0
LINE
  5
25F
330
25A
100
AcDbEntity
  8
0
 62
     0
370
    -2
100
AcDbLine
 10
-35.37486267089844
 20
-106.9415888061523
 30
0.0
 11
-13.04152870178223
 21
-106.9415888061523
 31
0.0
  0
INSERT
  5
260
330
25A
100
AcDbEntity
  8
0
 62
     0
370
    -2
100
AcDbBlockReference
  2
_OPEN30
 10
-38.37486267089844
 20
-106.9415888061523
 30
0.0
 41
3.0
 42
3.0
 43
3.0
 50
180.0
  0
INSERT
  5
261
330
25A
100
AcDbEntity
  8
0
 62
     0
370
    -2
100
AcDbBlockReference
  2
_OPEN30
 10
-10.04152870178223
 20
-106.9415888061523
 30
0.0
 41
3.0
 42
3.0
 43
3.0
  0
MTEXT
  5
262
330
25A
100
AcDbEntity
  8
0
 62
     1
100
AcDbMText
 10
-24.20719473266601
 20
-104.527188770175
 30
0.0
 40
3.200000047683716
 41
0.0
 71
     5
 72
     1
  1
\U+220585
 73
     1
 44
1.0
  0
POINT
  5
263
330
25A
100
AcDbEntity
  8
Defpoints
 62
     0
100
AcDbPoint
 10
-38.37486267089844
 20
-75.04258728027344
 30
0.0
  0
POINT
  5
264
330
25A
100
AcDbEntity
  8
Defpoints
 62
     0
100
AcDbPoint
 10
-10.04152870178223
 20
-75.04258728027344
 30
0.0
  0
POINT
  5
265
330
25A
100
AcDbEntity
  8
Defpoints
 62
     0
100
AcDbPoint
 10
-10.04152870178223
 20
-106.9425888061523
 30
0.0
  0
ENDBLK
  5
25C
330
25A
100
AcDbEntity
  8
0
100
AcDbBlockEnd
  0
BLOCK
  5
268
330
267
100
AcDbEntity
  8
0
100
AcDbBlockBegin
  2
*D14
 70
     1
 10
0.0
 20
0.0
 30
0.0
  3
*D14
  1

  0
LINE
  5
26A
330
267
100
AcDbEntity
  8
0
 62
     0
370
    -2
100
AcDbLine
 10
-34.02486038208008
 20
-89.48258880615235
 30
0.0
 11
-34.02486038208008
 21
-95.1082529296875
 31
0.0
  0
LINE
  5
26B
330
267
100
AcDbEntity
  8
0
 62
     0
370
    -2
100
AcDbLine
 10
-14.39152812957764
 20
-89.48258880615235
 30
0.0
 11
-14.39152812957764
 21
-95.1082529296875
 31
0.0
  0
LINE
  5
26C
330
267
100
AcDbEntity
  8
0
 62
     0
370
    -2
100
AcDbLine
 10
-31.02486038208008
 20
-93.6082529296875
 30
0.0
 11
-17.39152812957764
 21
-93.6082529296875
 31
0.0
  0
INSERT
  5
26D
330
267
100
AcDbEntity
  8
0
 62
     0
370
    -2
100
AcDbBlockReference
  2
_OPEN30
 10
-34.02486038208008
 20
-93.6082529296875
 30
0.0
 41
3.0
 42
3.0
 43
3.0
 50
180.0
  0
INSERT
  5
26E
330
267
100
AcDbEntity
  8
0
 62
     0
370
    -2
100
AcDbBlockReference
  2
_OPEN30
 10
-14.39152812957764
 20
-93.6082529296875
 30
0.0
 41
3.0
 42
3.0
 43
3.0
  0
MTEXT
  5
26F
330
267
100
AcDbEntity
  8
0
 62
     1
100
AcDbMText
 10
-24.20719473266601
 20
-91.19385289371013
 30
0.0
 40
3.200000047683716
 41
0.0
 71
     5
 72
     1
  1
\U+220559
 73
     1
 44
1.0
  0
POINT
  5
270
330
267
100
AcDbEntity
  8
Defpoints
 62
     0
100
AcDbPoint
 10
-34.02486038208008
 20
-86.94258880615234
 30
0.0
  0
POINT
  5
271
330
267
100
AcDbEntity
  8
Defpoints
 62
     0
100
AcDbPoint
 10
-14.39152812957764
 20
-86.94258880615234
 30
0.0
  0
POINT
  5
272
330
267
100
AcDbEntity
  8
Defpoints
 62
     0
100
AcDbPoint
 10
-14.39152812957764
 20
-93.6092529296875
 30
0.0
  0
ENDBLK
  5
269
330
267
100
AcDbEntity
  8
0
100
AcDbBlockEnd
  0
BLOCK
  5
275
330
274
100
AcDbEntity
  8
0
100
AcDbBlockBegin
  2
*D15
 70
     1
 10
0.0
 20
0.0
 30
0.0
  3
*D15
  1

  0
LINE
  5
277
330
274
100
AcDbEntity
  8
0
 62
     0
370
    -2
100
AcDbLine
 10
-36.6915283203125
 20
-85.58258728027344
 30
0.0
 11
-36.69152832031251
 21
-101.7749170532227
 31
0.0
  0
LINE
  5
278
330
274
100
AcDbEntity
  8
0
 62
     0
370
    -2
100
AcDbLine
 10
-11.72486019134522
 20
-85.58258728027344
 30
0.0
 11
-11.72486019134522
 21
-101.7749170532227
 31
0.0
  0
LINE
  5
279
330
274
100
AcDbEntity
  8
0
 62
     0
370
    -2
100
AcDbLine
 10
-33.69152832031251
 20
-100.2749170532227
 30
0.0
 11
-14.72486019134522
 21
-100.2749170532227
 31
0.0
  0
INSERT
  5
27A
330
274
100
AcDbEntity
  8
0
 62
     0
370
    -2
100
AcDbBlockReference
  2
_OPEN30
 10
-36.69152832031251
 20
-100.2749170532227
 30
0.0
 41
3.0
 42
3.0
 43
3.0
 50
180.0
  0
INSERT
  5
27B
330
274
100
AcDbEntity
  8
0
 62
     0
370
    -2
100
AcDbBlockReference
  2
_OPEN30
 10
-11.72486019134522
 20
-100.2749170532227
 30
0.0
 41
3.0
 42
3.0
 43
3.0
  0
MTEXT
  5
27C
330
274
100
AcDbEntity
  8
0
 62
     1
100
AcDbMText
 10
-24.20719473266601
 20
-97.86051701724529
 30
0.0
 40
3.200000047683716
 41
0.0
 71
     5
 72
     1
  1
\U+220575
 73
     1
 44
1.0
  0
POINT
  5
27D
330
274
100
AcDbEntity
  8
Defpoints
 62
     0
100
AcDbPoint
 10
-36.6915283203125
 20
-83.04258728027344
 30
0.0
  0
POINT
  5
27E
330
274
100
AcDbEntity
  8
Defpoints
 62
     0
100
AcDbPoint
 10
-11.72486019134521
 20
-83.04258728027344
 30
0.0
  0
POINT
  5
27F
330
274
100
AcDbEntity
  8
Defpoints
 62
     0
100
AcDbPoint
 10
-11.72486019134522
 20
-100.2759170532227
 30
0.0
  0
ENDBLK
  5
276
330
274
100
AcDbEntity
  8
0
100
AcDbBlockEnd
  0
BLOCK
  5
282
330
281
100
AcDbEntity
  8
0
100
AcDbBlockBegin
  2
*D16
 70
     1
 10
0.0
 20
0.0
 30
0.0
  3
*D16
  1

  0
LINE
  5
284
330
281
100
AcDbEntity
  8
0
 62
     0
370
    -2
100
AcDbLine
 10
-52.41485885620117
 20
-30.0425853729248
 30
0.0
 11
-63.3728664855957
 21
-30.04258537292481
 31
0.0
  0
LINE
  5
285
330
281
100
AcDbEntity
  8
0
 62
     0
370
    -2
100
AcDbLine
 10
-61.87286648559571
 20
-14.37591838836671
 30
0.0
 11
-61.8728664855957
 21
-27.04258537292481
 31
0.0
  0
INSERT
  5
286
330
281
100
AcDbEntity
  8
0
 62
     0
370
    -2
100
AcDbBlockReference
  2
_OPEN30
 10
-61.87286648559571
 20
-11.37591838836671
 30
0.0
 41
3.0
 42
3.0
 43
3.0
 50
90.00000000000001
  0
INSERT
  5
287
330
281
100
AcDbEntity
  8
0
 62
     0
370
    -2
100
AcDbBlockReference
  2
_OPEN30
 10
-61.8728664855957
 20
-30.04258537292481
 30
0.0
 41
3.0
 42
3.0
 43
3.0
 50
270.0
  0
MTEXT
  5
288
330
281
100
AcDbEntity
  8
0
 62
     1
100
AcDbMText
 10
-64.28726652157307
 20
-20.70825140380859
 30
0.0
 40
3.200000047683716
 41
0.0
 71
     5
 72
     1
  1
56
 11
-3.806478876748018E-16
 21
1.0
 31
0.0
 73
     1
 44
1.0
  0
POINT
  5
289
330
281
100
AcDbEntity
  8
Defpoints
 62
     0
100
AcDbPoint
 10
-32.54152679443359
 20
-11.3759183883667
 30
0.0
  0
POINT
  5
28A
330
281
100
AcDbEntity
  8
Defpoints
 62
     0
100
AcDbPoint
 10
-49.87485885620117
 20
-30.0425853729248
 30
0.0
  0
POINT
  5
28B
330
281
100
AcDbEntity
  8
Defpoints
 62
     0
100
AcDbPoint
 10
-61.8748664855957
 20
-30.04258537292481
 30
0.0
  0
ENDBLK
  5
283
330
281
100
AcDbEntity
  8
0
100
AcDbBlockEnd
  0
BLOCK
  5
28E
330
28D
100
AcDbEntity
  8
0
100
AcDbBlockBegin
  2
*D17
 70
     1
 10
0.0
 20
0.0
 30
0.0
  3
*D17
  1

  0
LINE
  5
290
330
28D
100
AcDbEntity
  8
0
 62
     0
370
    -2
100
AcDbLine
 10
-39.41487411499023
 20
-75.7092514038086
 30
0.0
 11
-63.3728664855957
 21
-75.70925140380862
 31
0.0
  0
LINE
  5
291
330
28D
100
AcDbEntity
  8
0
 62
     0
370
    -2
100
AcDbLine
 10
-61.87286648559571
 20
-33.04258537292482
 30
0.0
 11
-61.8728664855957
 21
-72.70925140380862
 31
0.0
  0
INSERT
  5
292
330
28D
100
AcDbEntity
  8
0
 62
     0
370
    -2
100
AcDbBlockReference
  2
_OPEN30
 10
-61.87286648559571
 20
-30.04258537292482
 30
0.0
 41
3.0
 42
3.0
 43
3.0
 50
90.00000000000001
  0
INSERT
  5
293
330
28D
100
AcDbEntity
  8
0
 62
     0
370
    -2
100
AcDbBlockReference
  2
_OPEN30
 10
-61.8728664855957
 20
-75.70925140380862
 30
0.0
 41
3.0
 42
3.0
 43
3.0
 50
270.0
  0
MTEXT
  5
294
330
28D
100
AcDbEntity
  8
0
 62
     1
100
AcDbMText
 10
-64.28726652157307
 20
-52.87491934204102
 30
0.0
 40
3.200000047683716
 41
0.0
 71
     5
 72
     1
  1
137
 11
-3.111866039353822E-16
 21
1.0
 31
0.0
 73
     1
 44
1.0
  0
POINT
  5
295
330
28D
100
AcDbEntity
  8
Defpoints
 62
     0
100
AcDbPoint
 10
-49.87485885620117
 20
-30.0425853729248
 30
0.0
  0
POINT
  5
296
330
28D
100
AcDbEntity
  8
Defpoints
 62
     0
100
AcDbPoint
 10
-36.87487411499023
 20
-75.7092514038086
 30
0.0
  0
POINT
  5
297
330
28D
100
AcDbEntity
  8
Defpoints
 62
     0
100
AcDbPoint
 10
-61.8748664855957
 20
-75.70925140380861
 30
0.0
  0
ENDBLK
  5
28F
330
28D
100
AcDbEntity
  8
0
100
AcDbBlockEnd
  0
BLOCK
  5
29A
330
299
100
AcDbEntity
  8
0
100
AcDbBlockBegin
  2
*D18
 70
     1
 10
0.0
 20
0.0
 30
0.0
  3
*D18
  1

  0
LINE
  5
29C
330
299
100
AcDbEntity
  8
0
 62
     0
370
    -2
100
AcDbLine
 10
-39.2315283203125
 20
-83.04258728027344
 30
0.0
 11
-63.37286648559571
 21
-83.04258728027345
 31
0.0
  0
LINE
  5
29D
330
299
100
AcDbEntity
  8
0
 62
     0
370
    -2
100
AcDbLine
 10
-61.87286648559571
 20
-78.70925140380861
 30
0.0
 11
-61.87286648559571
 21
-83.04258728027345
 31
0.0
  0
INSERT
  5
29E
330
299
100
AcDbEntity
  8
0
 62
     0
370
    -2
100
AcDbBlockReference
  2
_OPEN30
 10
-61.87286648559571
 20
-75.70925140380861
 30
0.0
 41
3.0
 42
3.0
 43
3.0
 50
90.0
  0
INSERT
  5
29F
330
299
100
AcDbEntity
  8
0
 62
     0
370
    -2
100
AcDbBlockReference
  2
_NONE
 10
-61.87286648559571
 20
-83.04258728027345
 30
0.0
 41
3.0
 42
3.0
 43
3.0
 50
270.0
  0
MTEXT
  5
2A0
330
299
100
AcDbEntity
  8
0
 62
     1
100
AcDbMText
 10
-64.28726652157307
 20
-79.37491552734375
 30
0.0
 40
3.200000047683716
 41
0.0
 71
     5
 72
     1
  1
22
 11
0.0
 21
1.0
 31
0.0
 73
     1
 44
1.0
  0
POINT
  5
2A1
330
299
100
AcDbEntity
  8
Defpoints
 62
     0
100
AcDbPoint
 10
-36.87487411499023
 20
-75.7092514038086
 30
0.0
  0
POINT
  5
2A2
330
299
100
AcDbEntity
  8
Defpoints
 62
     0
100
AcDbPoint
 10
-36.6915283203125
 20
-83.04258728027344
 30
0.0
  0
POINT
  5
2A3
330
299
100
AcDbEntity
  8
Defpoints
 62
     0
100
AcDbPoint
 10
-61.8748664855957
 20
-83.04258728027345
 30
0.0
  0
ENDBLK
  5
29B
330
299
100
AcDbEntity
  8
0
100
AcDbBlockEnd
  0
BLOCK
  5
2A6
330
2A5
100
AcDbEntity
  8
0
100
AcDbBlockBegin
  2
_ORIGIN
 70
     0
 10
0.0
 20
0.0
 30
0.0
  3
_ORIGIN
  1

  0
CIRCLE
  5
2A8
330
2A5
100
AcDbEntity
  8
0
  6
ByBlock
 62
     0
370
    -2
100
AcDbCircle
 10
0.0
 20
0.0
 30
0.0
 40
0.5
  0
LINE
  5
2A9
330
2A5
100
AcDbEntity
  8
0
  6
ByBlock
 62
     0
370
    -2
100
AcDbLine
 10
0.0
 20
0.0
 30
0.0
 11
-1.0
 21
0.0
 31
0.0
  0
ENDBLK
  5
2A7
330
2A5
100
AcDbEntity
  8
0
100
AcDbBlockEnd
  0
BLOCK
  5
2AB
330
2AA
100
AcDbEntity
  8
0
100
AcDbBlockBegin
  2
*D20
 70
     1
 10
0.0
 20
0.0
 30
0.0
  3
*D20
  1

  0
LINE
  5
2AD
330
2AA
100
AcDbEntity
  8
0
 62
     0
370
    -2
100
AcDbLine
 10
-61.87386648559571
 20
-86.94258880615236
 30
0.0
 11
-61.87386648559571
 21
-98.37778890085221
 31
0.0
  0
LINE
  5
2AE
330
2AA
100
AcDbEntity
  8
0
 62
     0
370
    -2
100
AcDbLine
 10
-61.87386648559571
 20
-83.04258728027345
 30
0.0
 11
-61.87386648559571
 21
-86.94258880615236
 31
0.0
  0
LINE
  5
2AF
330
2AA
100
AcDbEntity
  8
0
 62
     0
370
    -2
100
AcDbLine
 10
-61.87386648559571
 20
-80.50258728027345
 30
0.0
 11
-61.87386648559571
 21
-77.96258728027344
 31
0.0
  0
LINE
  5
2B0
330
2AA
100
AcDbEntity
  8
0
 62
     0
370
    -2
100
AcDbLine
 10
-61.87386648559571
 20
-89.48258880615236
 30
0.0
 11
-61.87386648559571
 21
-92.02258880615237
 31
0.0
  0
INSERT
  5
2B1
330
2AA
100
AcDbEntity
  8
0
 62
     0
370
    -2
100
AcDbBlockReference
  2
_ORIGIN
 10
-61.87386648559571
 20
-83.04258728027345
 30
0.0
 41
2.54
 42
2.54
 43
2.54
 50
270.0
  0
INSERT
  5
2B2
330
2AA
100
AcDbEntity
  8
0
 62
     0
370
    -2
100
AcDbBlockReference
  2
_ORIGIN
 10
-61.87386648559571
 20
-86.94258880615236
 30
0.0
 41
2.54
 42
2.54
 43
2.54
 50
90.0
  0
MTEXT
  5
2B3
330
2AA
100
AcDbEntity
  8
0
 62
     1
100
AcDbMText
 10
-64.28826652157306
 20
-95.20018885350228
 30
0.0
 40
3.200000047683716
 41
0.0
 71
     5
 72
     1
  1
12
 11
0.0
 21
1.0
 31
0.0
 73
     1
 44
1.0
  0
POINT
  5
2B4
330
2AA
100
AcDbEntity
  8
Defpoints
 62
     0
100
AcDbPoint
 10
-36.6915283203125
 20
-83.04258728027344
 30
0.0
  0
POINT
  5
2B5
330
2AA
100
AcDbEntity
  8
Defpoints
 62
     0
100
AcDbPoint
 10
-34.02486038208008
 20
-86.94258880615234
 30
0.0
  0
POINT
  5
2B6
330
2AA
100
AcDbEntity
  8
Defpoints
 62
     0
100
AcDbPoint
 10
-61.8748664855957
 20
-86.94258880615236
 30
0.0
  0
ENDBLK
  5
2AC
330
2AA
100
AcDbEntity
  8
0
100
AcDbBlockEnd
  0
BLOCK
  5
2B9
330
2B8
100
AcDbEntity
  8
0
100
AcDbBlockBegin
  2
*D21
 70
     1
 10
0.0
 20
0.0
 30
0.0
  3
*D21
  1

  0
LINE
  5
2BB
330
2B8
100
AcDbEntity
  8
0
 62
     0
370
    -2
100
AcDbLine
 10
-36.56486038208008
 20
-86.94258880615234
 30
0.0
 11
-70.04053442382813
 21
-86.94258880615234
 31
0.0
  0
LINE
  5
2BC
330
2B8
100
AcDbEntity
  8
0
 62
     0
370
    -2
100
AcDbLine
 10
-35.08152679443359
 20
-11.3759183883667
 30
0.0
 11
-70.04053442382812
 21
-11.3759183883667
 31
0.0
  0
LINE
  5
2BD
330
2B8
100
AcDbEntity
  8
0
 62
     0
370
    -2
100
AcDbLine
 10
-68.54053442382813
 20
-83.94258880615234
 30
0.0
 11
-68.54053442382812
 21
-14.3759183883667
 31
0.0
  0
INSERT
  5
2BE
330
2B8
100
AcDbEntity
  8
0
 62
     0
370
    -2
100
AcDbBlockReference
  2
_OPEN30
 10
-68.54053442382813
 20
-86.94258880615234
 30
0.0
 41
3.0
 42
3.0
 43
3.0
 50
270.0
  0
INSERT
  5
2BF
330
2B8
100
AcDbEntity
  8
0
 62
     0
370
    -2
100
AcDbBlockReference
  2
_OPEN30
 10
-68.54053442382812
 20
-11.3759183883667
 30
0.0
 41
3.0
 42
3.0
 43
3.0
 50
89.99999999999999
  0
MTEXT
  5
2C0
330
2B8
100
AcDbEntity
  8
0
 62
     1
100
AcDbMText
 10
-70.95493445980549
 20
-49.15825216674805
 30
0.0
 40
3.200000047683716
 41
0.0
 71
     5
 72
     1
  1
227
 11
1.880571770151366E-16
 21
1.0
 31
0.0
 73
     1
 44
1.0
  0
POINT
  5
2C1
330
2B8
100
AcDbEntity
  8
Defpoints
 62
     0
100
AcDbPoint
 10
-34.02486038208008
 20
-86.94258880615234
 30
0.0
  0
POINT
  5
2C2
330
2B8
100
AcDbEntity
  8
Defpoints
 62
     0
100
AcDbPoint
 10
-32.54152679443359
 20
-11.3759183883667
 30
0.0
  0
POINT
  5
2C3
330
2B8
100
AcDbEntity
  8
Defpoints
 62
     0
100
AcDbPoint
 10
-68.54153442382812
 20
-11.37591838836669
 30
0.0
  0
ENDBLK
  5
2BA
330
2B8
100
AcDbEntity
  8
0
100
AcDbBlockEnd
  0
BLOCK
  5
2C6
330
2C5
100
AcDbEntity
  8
0
100
AcDbBlockBegin
  2
*D22
 70
     1
 10
0.0
 20
0.0
 30
0.0
  3
*D22
  1

  0
LINE
  5
2C8
330
2C5
100
AcDbEntity
  8
0
 62
     0
370
    -2
100
AcDbLine
 10
-58.54153442382812
 20
-10.50258441925049
 30
0.0
 11
-58.54153442382812
 21
3.488909244537358
 31
0.0
  0
LINE
  5
2C9
330
2C5
100
AcDbEntity
  8
0
 62
     0
370
    -2
100
AcDbLine
 10
10.12513828277588
 20
-10.50258537292481
 30
0.0
 11
10.12513828277588
 21
3.488909244537349
 31
0.0
  0
LINE
  5
2CA
330
2C5
100
AcDbEntity
  8
0
 62
     0
370
    -2
100
AcDbLine
 10
-55.54153442382812
 20
1.988909125328068
 30
0.0
 11
7.125138282775875
 21
1.98890912532806
 31
0.0
  0
INSERT
  5
2CB
330
2C5
100
AcDbEntity
  8
0
 62
     0
370
    -2
100
AcDbBlockReference
  2
_OPEN30
 10
-58.54153442382812
 20
1.988909125328068
 30
0.0
 41
3.0
 42
3.0
 43
3.0
 50
180.0
  0
INSERT
  5
2CC
330
2C5
100
AcDbEntity
  8
0
 62
     0
370
    -2
100
AcDbBlockReference
  2
_OPEN30
 10
10.12513828277588
 20
1.98890912532806
 30
0.0
 41
3.0
 42
3.0
 43
3.0
 50
360.0
  0
MTEXT
  5
2CD
330
2C5
100
AcDbEntity
  8
0
 62
     1
100
AcDbMText
 10
-24.20719854736328
 20
4.403309161305428
 30
0.0
 40
3.200000047683716
 41
0.0
 71
     5
 72
     1
  1
206
 73
     1
 44
1.0
  0
POINT
  5
2CE
330
2C5
100
AcDbEntity
  8
Defpoints
 62
     0
100
AcDbPoint
 10
-58.54153442382812
 20
-13.04258441925049
 30
0.0
  0
POINT
  5
2CF
330
2C5
100
AcDbEntity
  8
Defpoints
 62
     0
100
AcDbPoint
 10
10.12513828277588
 20
-13.0425853729248
 30
0.0
  0
POINT
  5
2D0
330
2C5
100
AcDbEntity
  8
Defpoints
 62
     0
100
AcDbPoint
 10
10.12513828277588
 20
1.988909125328064
 30
0.0
  0
ENDBLK
  5
2C7
330
2C5
100
AcDbEntity
  8
0
100
AcDbBlockEnd
  0
ENDSEC
  0
SECTION
  2
ENTITIES
  0
LINE
  5
44
330
1F
100
AcDbEntity
  8
0
  6
Continuous
 62
     7
100
AcDbLine
 10
78.62515258789062
 20
-31.0425853729248
 30
0.0
 11
78.62515258789062
 21
-32.20924758911133
 31
0.0
  0
LINE
  5
45
330
1F
100
AcDbEntity
  8
0
  6
Continuous
 62
     7
100
AcDbLine
 10
74.84182739257812
 20
-30.44258308410645
 30
0.0
 11
75.67516326904297
 21
-30.44258308410645
 31
0.0
  0
LINE
  5
46
330
1F
100
AcDbEntity
  8
0
  6
Continuous
 62
     7
100
AcDbLine
 10
75.84182739257812
 20
-30.0425853729248
 30
0.0
 11
81.29181671142578
 21
-30.0425853729248
 31
0.0
  0
LINE
  5
47
330
1F
100
AcDbEntity
  8
0
  6
Continuous
 62
     7
100
AcDbLine
 10
73.37514681572117
 20
-27.38658380924331
 30
0.0
 11
74.84181779444488
 21
-30.4425837857982
 31
0.0
  0
LINE
  5
48
330
1F
100
AcDbEntity
  8
0
  6
Continuous
 62
     7
100
AcDbLine
 10
75.84182773167085
 20
-30.04258953535478
 30
0.0
 11
75.67516067191919
 21
-30.44259047359301
 31
0.0
  0
LINE
  5
49
330
1F
100
AcDbEntity
  8
0
  6
Continuous
 62
     7
100
AcDbLine
 10
76.02928924560547
 20
-33.37591934204102
 30
0.0
 11
77.45848846435547
 21
-33.37591934204102
 31
0.0
  0
LINE
  5
4A
330
1F
100
AcDbEntity
  8
0
  6
Continuous
 62
     7
100
AcDbLine
 10
43.29827499389648
 20
-30.44258308410645
 30
0.0
 11
42.46494293212891
 21
-30.44258308410645
 31
0.0
  0
LINE
  5
4B
330
1F
100
AcDbEntity
  8
0
  6
Continuous
 62
     7
100
AcDbLine
 10
42.29826779568464
 20
-30.04258664617966
 30
0.0
 11
42.4649348554363
 21
-30.4425875844179
 31
0.0
  0
LINE
  5
4C
330
1F
100
AcDbEntity
  8
0
  6
Continuous
 62
     7
100
AcDbLine
 10
42.29827499389648
 20
-30.0425853729248
 30
0.0
 11
30.62513732910156
 21
-30.0425853729248
 31
0.0
  0
LINE
  5
4D
330
1F
100
AcDbEntity
  8
0
  6
Continuous
 62
     7
100
AcDbLine
 10
39.45847320556641
 20
-31.0425853729248
 30
0.0
 11
39.45847320556641
 21
-32.20924758911133
 31
0.0
  0
LINE
  5
4E
330
1F
100
AcDbEntity
  8
0
  6
Continuous
 62
     7
100
AcDbLine
 10
42.22100448608398
 20
-33.37591934204102
 30
0.0
 11
40.62513732910156
 21
-33.37591934204102
 31
0.0
  0
LINE
  5
4F
330
1F
100
AcDbEntity
  8
0
  6
Continuous
 62
     7
100
AcDbLine
 10
43.2982696486238
 20
-30.44258557505392
 30
0.0
 11
44.70847957907278
 21
-26.04258574207556
 31
0.0
  0
LINE
  5
50
330
1F
100
AcDbEntity
  8
0
  6
CENTER
 62
     7
100
AcDbLine
 10
-24.20819473266602
 20
-9.849102973937988
 30
0.0
 11
-24.20819473266602
 21
-87.95602416992188
 31
0.0
  0
LINE
  5
51
330
1F
100
AcDbEntity
  8
0
  6
CENTER
 62
     7
100
AcDbLine
 10
-24.20819473266602
 20
94.30939483642578
 30
0.0
 11
-24.20819473266602
 21
28.61479187011719
 31
0.0
  0
LINE
  5
52
330
1F
100
AcDbEntity
  8
0
  6
Continuous
 62
     7
100
AcDbLine
 10
46.62513732910156
 20
-71.7092514038086
 30
0.0
 11
46.62513732910156
 21
-75.04258728027344
 31
0.0
  0
LINE
  5
53
330
1F
100
AcDbEntity
  8
0
  6
Continuous
 62
     7
100
AcDbLine
 10
48.1251287557658
 20
-75.70925277754765
 30
0.0
 11
46.62513281484499
 21
-75.04258790404513
 31
0.0
  0
LINE
  5
54
330
1F
100
AcDbEntity
  8
0
  6
Continuous
 62
     7
100
AcDbLine
 10
-32.54152679443359
 20
-11.3759183883667
 30
0.0
 11
-15.87486171722412
 21
-11.3759183883667
 31
0.0
  0
LINE
  5
55
330
1F
100
AcDbEntity
  8
0
  6
Continuous
 62
     7
100
AcDbLine
 10
-32.52017974853516
 20
-12.0425853729248
 30
0.0
 11
-15.89620876312256
 21
-12.0425853729248
 31
0.0
  0
LINE
  5
56
330
1F
100
AcDbEntity
  8
0
  6
Continuous
 62
     7
100
AcDbLine
 10
-58.54153442382812
 20
-13.0425853729248
 30
0.0
 11
-58.54153442382812
 21
-13.71061992645264
 31
0.0
  0
LINE
  5
57
330
1F
100
AcDbEntity
  8
0
  6
Continuous
 62
     7
100
AcDbLine
 10
-58.54153140009618
 20
-13.04258451004728
 30
0.0
 11
-32.54152783286734
 21
-11.3759176047576
 31
0.0
  0
LINE
  5
58
330
1F
100
AcDbEntity
  8
0
  6
Continuous
 62
     7
100
AcDbLine
 10
-58.54152858128328
 20
-13.71061962328767
 30
0.0
 11
-32.52018362359942
 21
-12.04258468014014
 31
0.0
  0
LINE
  5
59
330
1F
100
AcDbEntity
  8
0
  6
Continuous
 62
     7
100
AcDbLine
 10
-57.04153442382812
 20
-18.0425853729248
 30
0.0
 11
8.625138282775879
 21
-18.0425853729248
 31
0.0
  0
LINE
  5
5A
330
1F
100
AcDbEntity
  8
0
  6
Continuous
 62
     7
100
AcDbLine
 10
-58.04153442382812
 20
-14.70925140380859
 30
0.0
 11
-50.54422378540039
 21
-14.70925140380859
 31
0.0
  0
LINE
  5
5B
330
1F
100
AcDbEntity
  8
0
  6
Continuous
 62
     7
100
AcDbLine
 10
-58.04152712251636
 20
-14.70925238811429
 30
0.0
 11
-58.20819377575343
 21
-13.68925331795996
 31
0.0
  0
LINE
  5
5C
330
1F
100
AcDbEntity
  8
0
  6
Continuous
 62
     7
100
AcDbLine
 10
-57.04152579749366
 20
-18.04258422524176
 30
0.0
 11
-57.5415257490984
 21
-14.70925108060693
 31
0.0
  0
LINE
  5
5D
330
1F
100
AcDbEntity
  8
0
  6
Continuous
 62
     7
100
AcDbLine
 10
-50.37486267089844
 20
-26.0425853729248
 30
0.0
 11
1.958471298217773
 21
-26.0425853729248
 31
0.0
  0
LINE
  5
5E
330
1F
100
AcDbEntity
  8
0
  6
Continuous
 62
     7
100
AcDbLine
 10
-49.87486267089844
 20
-30.0425853729248
 30
0.0
 11
1.458471298217773
 21
-30.0425853729248
 31
0.0
  0
LINE
  5
5F
330
1F
100
AcDbEntity
  8
0
  6
Continuous
 62
     7
100
AcDbLine
 10
-50.37485737018666
 20
-26.04258447923327
 30
0.0
 11
-49.87485748733273
 21
-30.04258354206475
 31
0.0
  0
LINE
  5
60
330
1F
100
AcDbEntity
  8
0
  6
Continuous
 62
     7
100
AcDbLine
 10
-53.86206647592725
 20
-21.46833737193197
 30
0.0
 11
-53.23212349613272
 21
-23.8193165586918
 31
0.0
  0
LINE
  5
61
330
1F
100
AcDbEntity
  8
0
  6
Continuous
 62
     7
100
AcDbLine
 10
-49.20818991235021
 20
-30.04258331521398
 30
0.0
 11
-45.14305682222917
 21
-65.72179968300162
 31
0.0
  0
LINE
  5
62
330
1F
100
AcDbEntity
  8
0
  6
Continuous
 62
     7
100
AcDbLine
 10
-38.37486087620244
 20
-71.7092480550876
 30
0.0
 11
-42.46632384404393
 21
-69.59996435255356
 31
0.0
  0
LINE
  5
63
330
1F
100
AcDbEntity
  8
0
  6
Continuous
 62
     7
100
AcDbLine
 10
-32.54152679443359
 20
-11.3759183883667
 30
0.0
 11
-32.54152679443359
 21
-12.0425853729248
 31
0.0
  0
LINE
  5
64
330
1F
100
AcDbEntity
  8
0
  6
Continuous
 62
     7
100
AcDbLine
 10
-28.64479361960265
 20
-14.85380274133517
 30
0.0
 11
-25.61178711631221
 21
-15.66649439134175
 31
0.0
  0
LINE
  5
65
330
1F
100
AcDbEntity
  8
0
  6
Continuous
 62
     7
100
AcDbLine
 10
-28.40278636736122
 20
-35.78220575846718
 30
0.0
 11
-25.0190875515757
 21
-35.18556834541381
 31
0.0
  0
LINE
  5
66
330
1F
100
AcDbEntity
  8
0
  6
Continuous
 62
     7
100
AcDbLine
 10
-32.41541290283203
 20
-40.04258346557617
 30
0.0
 11
-31.7079963684082
 21
-40.04258346557617
 31
0.0
  0
LINE
  5
67
330
1F
100
AcDbEntity
  8
0
  6
Continuous
 62
     7
100
AcDbLine
 10
-38.37486267089844
 20
-68.37591552734375
 30
0.0
 11
-36.03407287597656
 21
-68.37591552734375
 31
0.0
  0
LINE
  5
68
330
1F
100
AcDbEntity
  8
0
  6
Continuous
 62
     7
100
AcDbLine
 10
-38.37486691529194
 20
50.21897040323115
 30
0.0
 11
-36.40267980466858
 21
45.64431000358832
 31
0.0
  0
LINE
  5
69
330
1F
100
AcDbEntity
  8
0
  6
Continuous
 62
     7
100
AcDbLine
 10
-36.03407705457085
 20
-68.37592040475873
 30
0.0
 11
-34.0767774580286
 21
-43.90967681950644
 31
0.0
  0
LINE
  5
6A
330
1F
100
AcDbEntity
  8
0
  6
Continuous
 62
     7
100
AcDbLine
 10
-35.44527903895261
 20
-69.37591857112957
 30
0.0
 11
-33.41223267172525
 21
-43.96284040539094
 31
0.0
  0
LINE
  5
6B
330
1F
100
AcDbEntity
  8
0
  6
Continuous
 62
     7
100
AcDbLine
 10
-32.41541290283203
 20
-42.37591934204102
 30
0.0
 11
-30.37486267089844
 21
-42.37591934204102
 31
0.0
  0
LINE
  5
6C
330
1F
100
AcDbEntity
  8
0
  6
Continuous
 62
     7
100
AcDbLine
 10
-32.41541290283203
 20
-43.04258346557617
 30
0.0
 11
-29.70819473266602
 21
-43.04258346557617
 31
0.0
  0
LINE
  5
6D
330
1F
100
AcDbEntity
  8
0
  6
Continuous
 62
     7
100
AcDbLine
 10
-31.70819473266602
 20
-39.72143936157227
 30
0.0
 11
-31.70819473266602
 21
-40.1056022644043
 31
0.0
  0
LINE
  5
6E
330
1F
100
AcDbEntity
  8
0
  6
Continuous
 62
     7
100
AcDbLine
 10
-29.37486267089844
 20
-39.72143936157227
 30
0.0
 11
-29.37486267089844
 21
-41.37591934204102
 31
0.0
  0
LINE
  5
6F
330
1F
100
AcDbEntity
  8
0
  6
Continuous
 62
     7
100
AcDbLine
 10
-28.70819473266602
 20
-39.72143936157227
 30
0.0
 11
-28.70819473266602
 21
-42.04258346557617
 31
0.0
  0
LINE
  5
70
330
1F
100
AcDbEntity
  8
0
  6
Continuous
 62
     7
100
AcDbLine
 10
-27.99760716438171
 20
-38.08009113961753
 30
0.0
 11
-25.01908627712769
 21
-37.55489752941611
 31
0.0
  0
LINE
  5
71
330
1F
100
AcDbEntity
  8
0
  6
Continuous
 62
     7
100
AcDbLine
 10
-27.88184215096988
 20
-38.73662713655803
 30
0.0
 11
-25.00697732869327
 21
-38.2297108878543
 31
0.0
  0
LINE
  5
72
330
1F
100
AcDbEntity
  8
0
  6
Continuous
 62
     7
100
AcDbLine
 10
-35.44527496291452
 20
-69.37591535745662
 30
0.0
 11
-36.03407113616193
 21
-68.37591603709282
 31
0.0
  0
LINE
  5
73
330
1F
100
AcDbEntity
  8
0
  6
Continuous
 62
     7
100
AcDbLine
 10
-45.7890372247879
 20
-36.49570043099686
 30
0.0
 11
-42.58268554491163
 21
-64.63748885498146
 31
0.0
  0
LINE
  5
74
330
1F
100
AcDbEntity
  8
0
  6
Continuous
 62
     7
100
AcDbLine
 10
-48.07450844002005
 20
-34.10368617971112
 30
0.0
 11
-44.48067811162291
 21
-65.64633116410477
 31
0.0
  0
LINE
  5
75
330
1F
100
AcDbEntity
  8
0
  6
Continuous
 62
     7
100
AcDbLine
 10
-40.78765514658772
 20
-67.93582490612816
 30
0.0
 11
-37.08159975284106
 21
-70.97869128048607
 31
0.0
  0
LINE
  5
76
330
1F
100
AcDbEntity
  8
0
  6
Continuous
 62
     7
100
AcDbLine
 10
-38.03945549029993
 20
-71.13211922955527
 30
0.0
 11
-42.16084204131703
 21
-69.00740893589482
 31
0.0
  0
LINE
  5
77
330
1F
100
AcDbEntity
  8
0
  6
Continuous
 62
     7
100
AcDbLine
 10
8.625138108110923
 20
-18.04258451063312
 30
0.0
 11
9.125137918247185
 21
-14.7092523091215
 31
0.0
  0
LINE
  5
78
330
1F
100
AcDbEntity
  8
0
  6
Continuous
 62
     7
100
AcDbLine
 10
74.95846557617188
 20
-71.7092514038086
 30
0.0
 11
74.95846557617188
 21
-75.04258728027344
 31
0.0
  0
LINE
  5
79
330
1F
100
AcDbEntity
  8
0
  6
Continuous
 62
     7
100
AcDbLine
 10
74.95846557617188
 20
-75.04258728027344
 30
0.0
 11
46.62513732910156
 21
-75.04258728027344
 31
0.0
  0
LINE
  5
7A
330
1F
100
AcDbEntity
  8
0
  6
Continuous
 62
     7
100
AcDbLine
 10
73.45848128081326
 20
-75.7092508797601
 30
0.0
 11
74.95847373581967
 21
-75.04258755555291
 31
0.0
  0
LINE
  5
7B
330
1F
100
AcDbEntity
  8
0
  6
Continuous
 62
     7
100
AcDbLine
 10
74.95846557617188
 20
-71.7092514038086
 30
0.0
 11
46.62513732910156
 21
-71.7092514038086
 31
0.0
  0
LINE
  5
7C
330
1F
100
AcDbEntity
  8
0
  6
Continuous
 62
     7
100
AcDbLine
 10
10.12513944498027
 20
-13.04258519927612
 30
0.0
 11
-15.87486221880669
 21
-11.37591841600194
 31
0.0
  0
LINE
  5
7D
330
1F
100
AcDbEntity
  8
0
  6
Continuous
 62
     7
100
AcDbLine
 10
10.12513852960926
 20
-13.71062043453202
 30
0.0
 11
-15.8962064280746
 21
-12.04258549138448
 31
0.0
  0
LINE
  5
7E
330
1F
100
AcDbEntity
  8
0
  6
Continuous
 62
     7
100
AcDbLine
 10
9.625138282775879
 20
-14.70925140380859
 30
0.0
 11
2.127831220626831
 21
-14.70925140380859
 31
0.0
  0
LINE
  5
7F
330
1F
100
AcDbEntity
  8
0
  6
Continuous
 62
     7
100
AcDbLine
 10
1.958471193478725
 20
-26.04258666757497
 30
0.0
 11
1.458471310624791
 21
-30.04258573040645
 31
0.0
  0
LINE
  5
80
330
1F
100
AcDbEntity
  8
0
  6
Continuous
 62
     7
100
AcDbLine
 10
5.445673431802162
 20
-21.46833719026575
 30
0.0
 11
4.815731069080331
 21
-23.81931407407894
 31
0.0
  0
LINE
  5
81
330
1F
100
AcDbEntity
  8
0
  6
Continuous
 62
     7
100
AcDbLine
 10
0.791805553700149
 20
-30.04258729477167
 30
0.0
 11
-3.273327320502909
 21
-65.72180176747139
 31
0.0
  0
LINE
  5
82
330
1F
100
AcDbEntity
  8
0
  6
Continuous
 62
     7
100
AcDbLine
 10
-10.04152352089172
 20
-71.70925397683546
 30
0.0
 11
-5.950062672201625
 21
-69.59997136679365
 31
0.0
  0
LINE
  5
83
330
1F
100
AcDbEntity
  8
0
  6
Continuous
 62
     7
100
AcDbLine
 10
-15.87486171722412
 20
-11.3759183883667
 30
0.0
 11
-15.87486171722412
 21
-12.0425853729248
 31
0.0
  0
LINE
  5
84
330
1F
100
AcDbEntity
  8
0
  6
Continuous
 62
     7
100
AcDbLine
 10
-19.77159653757193
 20
-14.85380264310349
 30
0.0
 11
-22.80460304086238
 21
-15.66649429311007
 31
0.0
  0
LINE
  5
85
330
1F
100
AcDbEntity
  8
0
  6
Continuous
 62
     7
100
AcDbLine
 10
-20.01360362416505
 20
-35.78220297942505
 30
0.0
 11
-23.39730337913644
 21
-35.18556540076787
 31
0.0
  0
LINE
  5
86
330
1F
100
AcDbEntity
  8
0
  6
Continuous
 62
     7
100
AcDbLine
 10
-16.0009765625
 20
-40.04258346557617
 30
0.0
 11
-16.70839309692383
 21
-40.04258346557617
 31
0.0
  0
LINE
  5
87
330
1F
100
AcDbEntity
  8
0
  6
Continuous
 62
     7
100
AcDbLine
 10
-10.04152870178223
 20
-68.37591552734375
 30
0.0
 11
-12.3823184967041
 21
-68.37591552734375
 31
0.0
  0
LINE
  5
88
330
1F
100
AcDbEntity
  8
0
  6
Continuous
 62
     7
100
AcDbLine
 10
-10.04153010730817
 20
-68.37592137058647
 30
0.0
 11
-12.01371561741148
 21
-43.72360387625179
 31
0.0
  0
LINE
  5
89
330
1F
100
AcDbEntity
  8
0
  6
Continuous
 62
     7
100
AcDbLine
 10
-12.38231897038245
 20
-68.37591970789593
 30
0.0
 11
-14.3396185669247
 21
-43.90967612264367
 31
0.0
  0
LINE
  5
8A
330
1F
100
AcDbEntity
  8
0
  6
Continuous
 62
     7
100
AcDbLine
 10
-12.97111508472643
 20
-69.37591772216484
 30
0.0
 11
-15.0041614519538
 21
-43.96283955642622
 31
0.0
  0
LINE
  5
8B
330
1F
100
AcDbEntity
  8
0
  6
Continuous
 62
     7
100
AcDbLine
 10
-16.0009765625
 20
-42.37591934204102
 30
0.0
 11
-18.04152870178223
 21
-42.37591934204102
 31
0.0
  0
LINE
  5
8C
330
1F
100
AcDbEntity
  8
0
  6
Continuous
 62
     7
100
AcDbLine
 10
-16.0009765625
 20
-43.04258346557617
 30
0.0
 11
-18.70819473266602
 21
-43.04258346557617
 31
0.0
  0
LINE
  5
8D
330
1F
100
AcDbEntity
  8
0
  6
Continuous
 62
     7
100
AcDbLine
 10
-16.70819473266602
 20
-39.72143936157227
 30
0.0
 11
-16.70819473266602
 21
-40.1056022644043
 31
0.0
  0
LINE
  5
8E
330
1F
100
AcDbEntity
  8
0
  6
Continuous
 62
     7
100
AcDbLine
 10
-19.04152870178223
 20
-39.72143936157227
 30
0.0
 11
-19.04152870178223
 21
-41.37591934204102
 31
0.0
  0
LINE
  5
8F
330
1F
100
AcDbEntity
  8
0
  6
Continuous
 62
     7
100
AcDbLine
 10
-19.70819473266602
 20
-39.72143936157227
 30
0.0
 11
-19.70819473266602
 21
-42.04258346557617
 31
0.0
  0
LINE
  5
90
330
1F
100
AcDbEntity
  8
0
  6
Continuous
 62
     7
100
AcDbLine
 10
-20.41878249593694
 20
-38.08008648220368
 30
0.0
 11
-23.39730432237682
 21
-37.55489270639845
 31
0.0
  0
LINE
  5
91
330
1F
100
AcDbEntity
  8
0
  6
Continuous
 62
     7
100
AcDbLine
 10
-20.53454817176402
 20
-38.73662623588763
 30
0.0
 11
-23.40941393322648
 21
-38.22970982158009
 31
0.0
  0
LINE
  5
92
330
1F
100
AcDbEntity
  8
0
  6
Continuous
 62
     7
100
AcDbLine
 10
-12.97111415863037
 20
-69.37591552734375
 30
0.0
 11
-35.44527435302734
 21
-69.37591552734375
 31
0.0
  0
LINE
  5
93
330
1F
100
AcDbEntity
  8
0
  6
Continuous
 62
     7
100
AcDbLine
 10
-12.97111422896183
 20
-69.3759243509452
 30
0.0
 11
-12.38231224921784
 21
-68.37591516894693
 31
0.0
  0
LINE
  5
94
330
1F
100
AcDbEntity
  8
0
  6
Continuous
 62
     7
100
AcDbLine
 10
-2.627353216390913
 20
-36.49569987816061
 30
0.0
 11
-5.833705112185181
 21
-64.63749019723313
 31
0.0
  0
LINE
  5
95
330
1F
100
AcDbEntity
  8
0
  6
Continuous
 62
     7
100
AcDbLine
 10
-0.341878092539922
 20
-34.10368607220573
 30
0.0
 11
-3.935708636855062
 21
-65.6463329516873
 31
0.0
  0
LINE
  5
96
330
1F
100
AcDbEntity
  8
0
  6
Continuous
 62
     7
100
AcDbLine
 10
-7.628738331039656
 20
-67.9358195497653
 30
0.0
 11
-11.33479003946088
 21
-70.97868289827721
 31
0.0
  0
LINE
  5
97
330
1F
100
AcDbEntity
  8
0
  6
Continuous
 62
     7
100
AcDbLine
 10
-10.37693287989077
 20
-71.13212290777773
 30
0.0
 11
-6.255546222916088
 21
-69.00741255949268
 31
0.0
  0
LINE
  5
98
330
1F
100
AcDbEntity
  8
0
  6
Continuous
 62
     7
100
AcDbLine
 10
10.12513828277588
 20
-13.0425853729248
 30
0.0
 11
10.12513828277588
 21
-13.71061992645264
 31
0.0
  0
LINE
  5
99
330
1F
100
AcDbEntity
  8
0
  6
Continuous
 62
     7
100
AcDbLine
 10
9.625138501992433
 20
-14.7092515579432
 30
0.0
 11
9.791805232124387
 21
-13.68925201719259
 31
0.0
  0
LINE
  5
9A
330
1F
100
AcDbEntity
  8
0
  6
CENTER
 62
     7
100
AcDbLine
 10
59.12513732910156
 20
-26.7089786529541
 30
0.0
 11
59.12513732910156
 21
-60.92773818969727
 31
0.0
  0
LINE
  5
9B
330
1F
100
AcDbEntity
  8
0
  6
CENTER
 62
     7
100
AcDbLine
 10
60.79180526733398
 20
-57.01030731201172
 30
0.0
 11
60.79180526733398
 21
-87.95602416992188
 31
0.0
  0
LINE
  5
9C
330
1F
100
AcDbEntity
  8
0
  6
Continuous
 62
     7
100
AcDbLine
 10
-11.54153023606961
 20
-75.70925139417461
 30
0.0
 11
-10.04153080923439
 21
-75.04258497137678
 31
0.0
  0
LINE
  5
9D
330
1F
100
AcDbEntity
  8
0
  6
Continuous
 62
     7
100
AcDbLine
 10
-38.37486267089844
 20
-71.7092514038086
 30
0.0
 11
-38.37486267089844
 21
-75.04258728027344
 31
0.0
  0
LINE
  5
9E
330
1F
100
AcDbEntity
  8
0
  6
Continuous
 62
     7
100
AcDbLine
 10
-36.87487532934119
 20
-75.70925139165456
 30
0.0
 11
-38.37486538778143
 21
-75.0425891325879
 31
0.0
  0
LINE
  5
9F
330
1F
100
AcDbEntity
  8
0
  6
Continuous
 62
     7
100
AcDbLine
 10
-10.04152870178223
 20
-71.7092514038086
 30
0.0
 11
-10.04152870178223
 21
-75.04258728027344
 31
0.0
  0
LINE
  5
A0
330
1F
100
AcDbEntity
  8
0
  6
Continuous
 62
     7
100
AcDbLine
 10
-10.04152870178223
 20
-75.04258728027344
 30
0.0
 11
-38.37486267089844
 21
-75.04258728027344
 31
0.0
  0
LINE
  5
A1
330
1F
100
AcDbEntity
  8
0
  6
Continuous
 62
     7
100
AcDbLine
 10
-10.04152870178223
 20
-71.7092514038086
 30
0.0
 11
-38.37486267089844
 21
-71.7092514038086
 31
0.0
  0
LINE
  5
A2
330
1F
100
AcDbEntity
  8
0
  6
Continuous
 62
     7
100
AcDbLine
 10
44.70847702026367
 20
-26.0425853729248
 30
0.0
 11
29.95847129821777
 21
-26.0425853729248
 31
0.0
  0
LINE
  5
A3
330
1F
100
AcDbEntity
  8
0
  6
Continuous
 62
     7
100
AcDbLine
 10
41.94523885941891
 20
-13.04258606514751
 30
0.0
 11
44.70847371296001
 21
-26.04258464839476
 31
0.0
  0
LINE
  5
A4
330
1F
100
AcDbEntity
  8
0
  6
Continuous
 62
     7
100
AcDbLine
 10
27.70475387573242
 20
-13.0425853729248
 30
0.0
 11
41.94524383544922
 21
-13.0425853729248
 31
0.0
  0
LINE
  5
A5
330
1F
100
AcDbEntity
  8
0
  6
Continuous
 62
     7
100
AcDbLine
 10
27.80475425720215
 20
-13.70925140380859
 30
0.0
 11
42.08694458007812
 21
-13.70925140380859
 31
0.0
  0
LINE
  5
A6
330
1F
100
AcDbEntity
  8
0
  6
Continuous
 62
     7
100
AcDbLine
 10
81.29181671142578
 20
-25.37591743469238
 30
0.0
 11
81.29181671142578
 21
-30.0425853729248
 31
0.0
  0
LINE
  5
A7
330
1F
100
AcDbEntity
  8
0
  6
Continuous
 62
     7
100
AcDbLine
 10
73.37515258789062
 20
-26.70925140380859
 30
0.0
 11
81.29181671142578
 21
-26.70925140380859
 31
0.0
  0
LINE
  5
A8
330
1F
100
AcDbEntity
  8
0
  6
Continuous
 62
     7
100
AcDbLine
 10
74.37515258789062
 20
-25.37591743469238
 30
0.0
 11
81.29181671142578
 21
-25.37591743469238
 31
0.0
  0
LINE
  5
A9
330
1F
100
AcDbEntity
  8
0
  6
Continuous
 62
     7
100
AcDbLine
 10
21.45848083496094
 20
-11.3759183883667
 30
0.0
 11
21.45848083496094
 21
-12.0425853729248
 31
0.0
  0
LINE
  5
AA
330
1F
100
AcDbEntity
  8
0
  6
Continuous
 62
     7
100
AcDbLine
 10
80.95848235827174
 20
-30.04258479318539
 30
0.0
 11
80.02251826882056
 21
-65.78561189329861
 31
0.0
  0
LINE
  5
AB
330
1F
100
AcDbEntity
  8
0
  6
Continuous
 62
     7
100
AcDbLine
 10
75.1073989868164
 20
-68.37591552734375
 30
0.0
 11
48.67223358154297
 21
-68.37591552734375
 31
0.0
  0
LINE
  5
AC
330
1F
100
AcDbEntity
  8
0
  6
Continuous
 62
     7
100
AcDbLine
 10
74.95846968978758
 20
-71.70925122987673
 30
0.0
 11
77.12043261987648
 21
-70.26685255880265
 31
0.0
  0
LINE
  5
AD
330
1F
100
AcDbEntity
  8
0
  6
Continuous
 62
     7
100
AcDbLine
 10
78.11475533255802
 20
-36.76914433348841
 30
0.0
 11
77.38318031782141
 21
-64.70686744937132
 31
0.0
  0
LINE
  5
AE
330
1F
100
AcDbEntity
  8
0
  6
Continuous
 62
     7
100
AcDbLine
 10
80.18305568271973
 20
-34.18704058377108
 30
0.0
 11
79.34375988718014
 21
-66.2384544180064
 31
0.0
  0
LINE
  5
AF
330
1F
100
AcDbEntity
  8
0
  6
Continuous
 62
     7
100
AcDbLine
 10
73.79971667887874
 20
-71.0737913126142
 30
0.0
 11
76.40578144569945
 21
-67.54793885805336
 31
0.0
  0
LINE
  5
B0
330
1F
100
AcDbEntity
  8
0
  6
Continuous
 62
     7
100
AcDbLine
 10
73.37515258789062
 20
-26.37591743469238
 30
0.0
 11
73.37515258789062
 21
-27.38658332824707
 31
0.0
  0
LINE
  5
B1
330
1F
100
AcDbEntity
  8
0
  6
Continuous
 62
     7
100
AcDbLine
 10
23.45848083496094
 20
-18.0425853729248
 30
0.0
 11
43.00802612304688
 21
-18.0425853729248
 31
0.0
  0
LINE
  5
B2
330
1F
100
AcDbEntity
  8
0
  6
Continuous
 62
     7
100
AcDbLine
 10
28.79181509734364
 20
-18.04258633449754
 30
0.0
 11
28.29181486280196
 21
-14.70925130361631
 31
0.0
  0
LINE
  5
B3
330
1F
100
AcDbEntity
  8
0
  6
Continuous
 62
     7
100
AcDbLine
 10
36.29180345648308
 20
-30.0425846451506
 30
0.0
 11
42.43853206151128
 21
-64.90241382573957
 31
0.0
  0
LINE
  5
B4
330
1F
100
AcDbEntity
  8
0
  6
Continuous
 62
     7
100
AcDbLine
 10
31.29180624629229
 20
-30.04258471803217
 30
0.0
 11
32.19865271955759
 21
-35.18556648644604
 31
0.0
  0
LINE
  5
B5
330
1F
100
AcDbEntity
  8
0
  6
Continuous
 62
     7
100
AcDbLine
 10
35.95847100525196
 20
-30.04258621274515
 30
0.0
 11
35.29180423306714
 21
-26.04258545878257
 31
0.0
  0
LINE
  5
B6
330
1F
100
AcDbEntity
  8
0
  6
Continuous
 62
     7
100
AcDbLine
 10
31.87902436577758
 20
-21.4350631240355
 30
0.0
 11
32.51850124211826
 21
-23.82162329680147
 31
0.0
  0
LINE
  5
B7
330
1F
100
AcDbEntity
  8
0
  6
Continuous
 62
     7
100
AcDbLine
 10
22.70848098791046
 20
-17.0425946556171
 30
0.0
 11
21.97515679840168
 21
-12.15376652912065
 31
0.0
  0
LINE
  5
B8
330
1F
100
AcDbEntity
  8
0
  6
CENTER
 62
     7
100
AcDbLine
 10
-49.68290710449219
 20
69.62408447265625
 30
0.0
 11
4.671331405639648
 21
69.62408447265625
 31
0.0
  0
LINE
  5
B9
330
1F
100
AcDbEntity
  8
0
  6
CENTER
 62
     7
100
AcDbLine
 10
-39.32888793945312
 20
71.2907485961914
 30
0.0
 11
-8.585143089294434
 21
71.2907485961914
 31
0.0
  0
LINE
  5
BA
330
1F
100
AcDbEntity
  8
0
  6
Continuous
 62
     7
100
AcDbLine
 10
-58.54153442382812
 20
52.44418716430664
 30
0.0
 11
-58.54153442382812
 21
39.99825286865234
 31
0.0
  0
LINE
  5
BB
330
1F
100
AcDbEntity
  8
0
  6
Continuous
 62
     7
100
AcDbLine
 10
-24.20819637134439
 20
31.95741503243802
 30
0.0
 11
-57.19255505002785
 21
38.36214476601658
 31
0.0
  0
LINE
  5
BC
330
1F
100
AcDbEntity
  8
0
  6
Continuous
 62
     7
100
AcDbLine
 10
-24.20819544742771
 20
32.97609234621415
 30
0.0
 11
-57.00194049798384
 21
39.34380972543454
 31
0.0
  0
LINE
  5
BD
330
1F
100
AcDbEntity
  8
0
  6
Continuous
 62
     7
100
AcDbLine
 10
-57.54153442382812
 20
52.44418716430664
 30
0.0
 11
-57.54153442382812
 21
39.99825286865234
 31
0.0
  0
LINE
  5
BE
330
1F
100
AcDbEntity
  8
0
  6
Continuous
 62
     7
100
AcDbLine
 10
-58.54153442382812
 20
52.44418716430664
 30
0.0
 11
-57.54153442382812
 21
52.44418716430664
 31
0.0
  0
LINE
  5
BF
330
1F
100
AcDbEntity
  8
0
  6
Continuous
 62
     7
100
AcDbLine
 10
43.58161070478173
 20
-70.52603403200429
 30
0.0
 11
46.62513674543771
 21
-71.7092542903577
 31
0.0
  0
LINE
  5
C0
330
1F
100
AcDbEntity
  8
0
  6
Continuous
 62
     7
100
AcDbLine
 10
48.76714048094288
 20
-71.04648775345888
 30
0.0
 11
45.31341584623202
 21
-68.68918345176442
 31
0.0
  0
LINE
  5
C1
330
1F
100
AcDbEntity
  8
0
  6
Continuous
 62
     7
100
AcDbLine
 10
40.09853901478692
 20
-36.27492600455768
 30
0.0
 11
45.03023775216348
 21
-64.24397858554183
 31
0.0
  0
LINE
  5
C2
330
1F
100
AcDbEntity
  8
0
  6
Continuous
 62
     7
100
AcDbLine
 10
37.67129791151835
 20
-34.02689870503774
 30
0.0
 11
43.20810237846707
 21
-65.42767630993553
 31
0.0
  0
LINE
  5
C3
330
1F
100
AcDbEntity
  8
0
  6
Continuous
 62
     7
100
AcDbLine
 10
46.604458293365
 20
-67.08770679629487
 30
0.0
 11
50.57051715306552
 21
-70.66683284355794
 31
0.0
  0
LINE
  5
C4
330
1F
100
AcDbEntity
  8
0
  6
Continuous
 62
     7
100
AcDbLine
 10
22.7084846496582
 20
-17.04259490966797
 30
0.0
 11
23.3084831237793
 21
-17.04259490966797
 31
0.0
  0
LINE
  5
C5
330
1F
100
AcDbEntity
  8
0
  6
Continuous
 62
     7
100
AcDbLine
 10
-50.45819091796875
 20
83.87408447265625
 30
0.0
 11
-49.12485504150391
 21
83.87408447265625
 31
0.0
  0
LINE
  5
C6
330
1F
100
AcDbEntity
  8
0
  6
Continuous
 62
     7
100
AcDbLine
 10
-50.45819091796875
 20
90.12408447265625
 30
0.0
 11
-50.45819091796875
 21
83.87408447265625
 31
0.0
  0
LINE
  5
C7
330
1F
100
AcDbEntity
  8
0
  6
Continuous
 62
     7
100
AcDbLine
 10
-49.12485504150391
 20
89.12408447265625
 30
0.0
 11
-49.12485504150391
 21
83.87408447265625
 31
0.0
  0
LINE
  5
C8
330
1F
100
AcDbEntity
  8
0
  6
Continuous
 62
     7
100
AcDbLine
 10
-47.45819091796875
 20
90.7907485961914
 30
0.0
 11
-0.958197832107544
 21
90.7907485961914
 31
0.0
  0
LINE
  5
C9
330
1F
100
AcDbEntity
  8
0
  6
Continuous
 62
     7
100
AcDbLine
 10
-50.37485504150391
 20
55.20742034912109
 30
0.0
 11
-49.37485504150391
 21
55.20742034912109
 31
0.0
  0
LINE
  5
CA
330
1F
100
AcDbEntity
  8
0
  6
Continuous
 62
     7
100
AcDbLine
 10
-49.37485504150391
 20
55.20742034912109
 30
0.0
 11
-49.37485504150391
 21
46.8353157043457
 31
0.0
  0
LINE
  5
CB
330
1F
100
AcDbEntity
  8
0
  6
Continuous
 62
     7
100
AcDbLine
 10
-48.16173553466797
 20
88.5407485961914
 30
0.0
 11
-48.16173553466797
 21
86.52821350097656
 31
0.0
  0
LINE
  5
CC
330
1F
100
AcDbEntity
  8
0
  6
Continuous
 62
     7
100
AcDbLine
 10
-48.85221862792969
 20
89.20741271972656
 30
0.0
 11
-48.82840347290039
 21
89.20741271972656
 31
0.0
  0
LINE
  5
CD
330
1F
100
AcDbEntity
  8
0
  6
Continuous
 62
     7
100
AcDbLine
 10
-48.16173553466797
 20
52.71994781494141
 30
0.0
 11
-48.16173553466797
 21
50.70741653442383
 31
0.0
  0
LINE
  5
CE
330
1F
100
AcDbEntity
  8
0
  6
Continuous
 62
     7
100
AcDbLine
 10
-48.87485504150391
 20
52.71994781494141
 30
0.0
 11
-48.87485504150391
 21
50.0423698425293
 31
0.0
  0
LINE
  5
CF
330
1F
100
AcDbEntity
  8
0
  6
Continuous
 62
     7
100
AcDbLine
 10
-48.87485884715929
 20
52.71994828973016
 30
0.0
 11
-49.37485868080198
 21
55.20742175007393
 31
0.0
  0
LINE
  5
D0
330
1F
100
AcDbEntity
  8
0
  6
Continuous
 62
     7
100
AcDbLine
 10
-48.87485504150391
 20
85.24223327636719
 30
0.0
 11
-48.87485504150391
 21
89.20579528808594
 31
0.0
  0
LINE
  5
D1
330
1F
100
AcDbEntity
  8
0
  6
Continuous
 62
     7
100
AcDbLine
 10
-49.12485570892959
 20
83.8740790252704
 30
0.0
 11
-48.87485493608304
 21
85.24224130435846
 31
0.0
  0
LINE
  5
D2
330
1F
100
AcDbEntity
  8
0
  6
Continuous
 62
     7
100
AcDbLine
 10
-24.20819574556173
 20
41.12408037833132
 30
0.0
 11
-48.56547482214473
 21
45.85364905209426
 31
0.0
  0
LINE
  5
D3
330
1F
100
AcDbEntity
  8
0
  6
Continuous
 62
     7
100
AcDbLine
 10
-43.15779113769531
 20
82.4149169921875
 30
0.0
 11
-43.15779113769531
 21
57.21005630493164
 31
0.0
  0
LINE
  5
D4
330
1F
100
AcDbEntity
  8
0
  6
Continuous
 62
     7
100
AcDbLine
 10
-41.66010284423828
 20
87.56776428222656
 30
0.0
 11
-6.756283283233643
 21
87.56776428222656
 31
0.0
  0
LINE
  5
D5
330
1F
100
AcDbEntity
  8
0
  6
Continuous
 62
     7
100
AcDbLine
 10
-38.44822201398938
 20
50.38913683544335
 30
0.0
 11
-41.5485118670169
 21
50.99113485510561
 31
0.0
  0
LINE
  5
D6
330
1F
100
AcDbEntity
  8
0
  6
Continuous
 62
     7
100
AcDbLine
 10
-56.04153442382812
 20
53.09099578857422
 30
0.0
 11
-56.04153442382812
 21
41.50983810424805
 31
0.0
  0
LINE
  5
D7
330
1F
100
AcDbEntity
  8
0
  6
Continuous
 62
     7
100
AcDbLine
 10
-24.20819312536404
 20
34.50410813509414
 30
0.0
 11
-55.23214841095998
 21
40.52817702200205
 31
0.0
  0
LINE
  5
D8
330
1F
100
AcDbEntity
  8
0
  6
Continuous
 62
     7
100
AcDbLine
 10
0.375135481357574
 20
91.7907485961914
 30
0.0
 11
-48.79152297973633
 21
91.7907485961914
 31
0.0
  0
LINE
  5
D9
330
1F
100
AcDbEntity
  8
0
  6
Continuous
 62
     7
100
AcDbLine
 10
10.12513828277588
 20
52.44418716430664
 30
0.0
 11
10.12513828277588
 21
39.99825286865234
 31
0.0
  0
LINE
  5
DA
330
1F
100
AcDbEntity
  8
0
  6
Continuous
 62
     7
100
AcDbLine
 10
-24.20819400841581
 20
31.9574188375735
 30
0.0
 11
8.776161861701679
 21
38.36214802579946
 31
0.0
  0
LINE
  5
DB
330
1F
100
AcDbEntity
  8
0
  6
Continuous
 62
     7
100
AcDbLine
 10
-24.20819493233249
 20
32.97609615134963
 30
0.0
 11
8.585547309657663
 21
39.34381298521741
 31
0.0
  0
LINE
  5
DC
330
1F
100
AcDbEntity
  8
0
  6
Continuous
 62
     7
100
AcDbLine
 10
9.125138282775879
 20
52.44418716430664
 30
0.0
 11
9.125138282775879
 21
39.99825286865234
 31
0.0
  0
LINE
  5
DD
330
1F
100
AcDbEntity
  8
0
  6
Continuous
 62
     7
100
AcDbLine
 10
10.12513828277588
 20
52.44418716430664
 30
0.0
 11
9.125138282775879
 21
52.44418716430664
 31
0.0
  0
LINE
  5
DE
330
1F
100
AcDbEntity
  8
0
  6
Continuous
 62
     7
100
AcDbLine
 10
2.041802167892456
 20
83.87408447265625
 30
0.0
 11
0.708468794822693
 21
83.87408447265625
 31
0.0
  0
LINE
  5
DF
330
1F
100
AcDbEntity
  8
0
  6
Continuous
 62
     7
100
AcDbLine
 10
2.041802167892456
 20
90.12408447265625
 30
0.0
 11
2.041802167892456
 21
83.87408447265625
 31
0.0
  0
LINE
  5
E0
330
1F
100
AcDbEntity
  8
0
  6
Continuous
 62
     7
100
AcDbLine
 10
0.708468794822693
 20
89.12408447265625
 30
0.0
 11
0.708468794822693
 21
83.87408447265625
 31
0.0
  0
LINE
  5
E1
330
1F
100
AcDbEntity
  8
0
  6
Continuous
 62
     7
100
AcDbLine
 10
1.958468794822693
 20
55.20742034912109
 30
0.0
 11
0.958468794822693
 21
55.20742034912109
 31
0.0
  0
LINE
  5
E2
330
1F
100
AcDbEntity
  8
0
  6
Continuous
 62
     7
100
AcDbLine
 10
0.958468794822693
 20
55.20742034912109
 30
0.0
 11
0.958468794822693
 21
46.8353157043457
 31
0.0
  0
LINE
  5
E3
330
1F
100
AcDbEntity
  8
0
  6
Continuous
 62
     7
100
AcDbLine
 10
-0.254650682210922
 20
88.5407485961914
 30
0.0
 11
-0.254650682210922
 21
86.52821350097656
 31
0.0
  0
LINE
  5
E4
330
1F
100
AcDbEntity
  8
0
  6
Continuous
 62
     7
100
AcDbLine
 10
0.435827314853668
 20
89.20741271972656
 30
0.0
 11
0.412015974521637
 21
89.20741271972656
 31
0.0
  0
LINE
  5
E5
330
1F
100
AcDbEntity
  8
0
  6
Continuous
 62
     7
100
AcDbLine
 10
-0.254650682210922
 20
52.71994781494141
 30
0.0
 11
-0.254650682210922
 21
50.70741653442383
 31
0.0
  0
LINE
  5
E6
330
1F
100
AcDbEntity
  8
0
  6
Continuous
 62
     7
100
AcDbLine
 10
0.458468824625015
 20
52.71994781494141
 30
0.0
 11
0.458468824625015
 21
50.0423698425293
 31
0.0
  0
LINE
  5
E7
330
1F
100
AcDbEntity
  8
0
  6
Continuous
 62
     7
100
AcDbLine
 10
0.458468350739768
 20
52.71994982719703
 30
0.0
 11
0.958467432637526
 21
55.20741954764847
 31
0.0
  0
LINE
  5
E8
330
1F
100
AcDbEntity
  8
0
  6
Continuous
 62
     7
100
AcDbLine
 10
0.458468824625015
 20
85.24223327636719
 30
0.0
 11
0.458468824625015
 21
89.20579528808594
 31
0.0
  0
LINE
  5
E9
330
1F
100
AcDbEntity
  8
0
  6
Continuous
 62
     7
100
AcDbLine
 10
0.708468054363806
 20
83.87407985779244
 30
0.0
 11
0.458468652909938
 21
85.24223463175271
 31
0.0
  0
LINE
  5
EA
330
1F
100
AcDbEntity
  8
0
  6
Continuous
 62
     7
100
AcDbLine
 10
-24.2081926073046
 20
41.12407874811905
 30
0.0
 11
0.149084596901089
 21
45.85364705831358
 31
0.0
  0
LINE
  5
EB
330
1F
100
AcDbEntity
  8
0
  6
Continuous
 62
     7
100
AcDbLine
 10
-5.258597850799561
 20
82.4149169921875
 30
0.0
 11
-5.258597850799561
 21
57.21005630493164
 31
0.0
  0
LINE
  5
EC
330
1F
100
AcDbEntity
  8
0
  6
Continuous
 62
     7
100
AcDbLine
 10
-9.968163661962496
 20
50.38913572502028
 30
0.0
 11
-6.867881400839886
 21
50.99113227052627
 31
0.0
  0
LINE
  5
ED
330
1F
100
AcDbEntity
  8
0
  6
Continuous
 62
     7
100
AcDbLine
 10
7.625137805938721
 20
53.09099578857422
 30
0.0
 11
7.625137805938721
 21
41.50983810424805
 31
0.0
  0
LINE
  5
EE
330
1F
100
AcDbEntity
  8
0
  6
Continuous
 62
     7
100
AcDbLine
 10
-24.20819725439616
 20
34.50411194022962
 30
0.0
 11
6.815751477879165
 21
40.52817955464811
 31
0.0
  0
LINE
  5
EF
330
1F
100
AcDbEntity
  8
0
  6
Continuous
 62
     7
100
AcDbLine
 10
23.4584823535805
 20
-18.04258422818906
 30
0.0
 11
23.30848389595861
 21
-17.04259447052919
 31
0.0
  0
LINE
  5
F0
330
1F
100
AcDbEntity
  8
0
  6
Continuous
 62
     7
100
AcDbLine
 10
26.54569196531234
 20
-21.43506388066144
 30
0.0
 11
27.18516933531118
 21
-23.82162589578471
 31
0.0
  0
LINE
  5
F1
330
1F
100
AcDbEntity
  8
0
  6
Continuous
 62
     7
100
AcDbLine
 10
30.62513792525502
 20
-30.04258399165135
 30
0.0
 11
29.95847146663637
 21
-26.04258511908587
 31
0.0
  0
LINE
  5
F2
330
1F
100
AcDbEntity
  8
0
  6
Continuous
 62
     7
100
AcDbLine
 10
27.80475360462814
 20
-13.70925079236513
 30
0.0
 11
27.70475350113241
 21
-13.0425834089396
 31
0.0
  0
LINE
  5
F3
330
1F
100
AcDbEntity
  8
0
  6
Continuous
 62
     7
100
AcDbLine
 10
21.45848254516761
 20
-12.01590352913937
 30
0.0
 11
27.80475027311715
 21
-13.70925198896099
 31
0.0
  0
LINE
  5
F4
330
1F
100
AcDbEntity
  8
0
  6
Continuous
 62
     7
100
AcDbLine
 10
21.45848134501105
 20
-11.37591859007323
 30
0.0
 11
27.7047528964325
 21
-13.0425854822758
 31
0.0
  0
LINE
  5
F5
330
1F
100
AcDbEntity
  8
0
  6
Continuous
 62
     7
100
AcDbLine
 10
28.12328147888184
 20
-14.70925140380859
 30
0.0
 11
42.29950714111328
 21
-14.70925140380859
 31
0.0
  0
LINE
  5
F6
330
1F
100
AcDbEntity
  8
0
  6
Continuous
 62
     7
100
AcDbLine
 10
28.12328459427379
 20
-14.70925347180627
 30
0.0
 11
27.97699289362033
 21
-13.73397542826226
 31
0.0
  0
LINE
  5
F7
330
1F
100
AcDbEntity
  8
0
  6
Continuous
 62
     7
100
AcDbLine
 10
23.80426025390625
 20
-15.3024730682373
 30
0.0
 11
24.40425872802734
 21
-15.3024730682373
 31
0.0
  0
LINE
  5
F8
330
1F
100
AcDbEntity
  8
0
  6
Continuous
 62
     7
100
AcDbLine
 10
36.58836414773285
 20
-44.72413918638428
 30
0.0
 11
40.4693060369987
 21
-66.73405373002126
 31
0.0
  0
LINE
  5
F9
330
1F
100
AcDbEntity
  8
0
  6
Continuous
 62
     7
100
AcDbLine
 10
-27.70819473266602
 20
44.15937423706055
 30
0.0
 11
-20.70819473266602
 21
44.15937423706055
 31
0.0
  0
LINE
  5
FA
330
1F
100
AcDbEntity
  8
0
  6
Continuous
 62
     7
100
AcDbLine
 10
-38.37486530923734
 20
-68.37591446235223
 30
0.0
 11
-36.40268040754182
 21
-43.72360457311456
 31
0.0
  0
LINE
  5
FB
330
1F
100
AcDbEntity
  8
0
  6
Continuous
 62
     7
100
AcDbLine
 10
-38.37486267089844
 20
52.8856315612793
 30
0.0
 11
-10.04152870178223
 21
52.8856315612793
 31
0.0
  0
LINE
  5
FC
330
1F
100
AcDbEntity
  8
0
  6
Continuous
 62
     7
100
AcDbLine
 10
-38.37486435061918
 20
52.8856333012875
 30
0.0
 11
-36.40267875019143
 21
48.31097640467541
 31
0.0
  0
LINE
  5
FD
330
1F
100
AcDbEntity
  8
0
  6
Continuous
 62
     7
100
AcDbLine
 10
-27.70819473266602
 20
46.82604217529297
 30
0.0
 11
-20.70819473266602
 21
46.82604217529297
 31
0.0
  0
LINE
  5
FE
330
1F
100
AcDbEntity
  8
0
  6
Continuous
 62
     7
100
AcDbLine
 10
-38.37486267089844
 20
52.8856315612793
 30
0.0
 11
-38.37486267089844
 21
50.21896743774414
 31
0.0
  0
LINE
  5
FF
330
1F
100
AcDbEntity
  8
0
  6
Continuous
 62
     7
100
AcDbLine
 10
-10.04152632766592
 20
52.88563699933742
 30
0.0
 11
-12.01371192809366
 21
48.31098010272533
 31
0.0
  0
LINE
  5
100
330
1F
100
AcDbEntity
  8
0
  6
Continuous
 62
     7
100
AcDbLine
 10
-10.04152527318877
 20
50.21897059825032
 30
0.0
 11
-12.01371087361652
 21
45.64431370163823
 31
0.0
  0
LINE
  5
101
330
1F
100
AcDbEntity
  8
0
  6
Continuous
 62
     7
100
AcDbLine
 10
-10.04152870178223
 20
52.8856315612793
 30
0.0
 11
-10.04152870178223
 21
50.21896743774414
 31
0.0
  0
LINE
  5
102
330
1F
100
AcDbEntity
  8
0
  6
Continuous
 62
     7
100
AcDbLine
 10
-14.23109122412354
 20
-83.04258214977851
 30
0.0
 11
-14.24486068423113
 21
-83.60924837804892
 31
0.0
  0
LINE
  5
103
330
1F
100
AcDbEntity
  8
0
  6
Continuous
 62
     7
100
AcDbLine
 10
-11.54152750464744
 20
-75.7092524388288
 30
0.0
 11
-11.71652755614854
 21
-82.70925491623606
 31
0.0
  0
LINE
  5
104
330
1F
100
AcDbEntity
  8
0
  6
Continuous
 62
     7
100
AcDbLine
 10
-14.35152730916216
 20
-85.27591447062909
 30
0.0
 11
-14.38752738118797
 21
-86.77591740742477
 31
0.0
  0
LINE
  5
105
330
1F
100
AcDbEntity
  8
0
  6
Continuous
 62
     7
100
AcDbLine
 10
-14.24486123782461
 20
-83.60924829970934
 30
0.0
 11
-14.35152826051103
 21
-85.2759205354062
 31
0.0
  0
LINE
  5
106
330
1F
100
AcDbEntity
  8
0
  6
Continuous
 62
     7
100
AcDbLine
 10
-14.5541928861548
 20
-86.94258261797532
 30
0.0
 11
-14.38752603970417
 21
-86.77591577152468
 31
0.0
  0
LINE
  5
107
330
1F
100
AcDbEntity
  8
0
  6
Continuous
 62
     7
100
AcDbLine
 10
-12.0498635625146
 20
-83.0425870427051
 30
0.0
 11
-11.71652986961333
 21
-82.70925334980384
 31
0.0
  0
LINE
  5
108
330
1F
100
AcDbEntity
  8
0
  6
Continuous
 62
     7
100
AcDbLine
 10
-14.55419445037842
 20
-86.94258880615234
 30
0.0
 11
-33.8621940612793
 21
-86.94258880615234
 31
0.0
  0
LINE
  5
109
330
1F
100
AcDbEntity
  8
0
  6
Continuous
 62
     7
100
AcDbLine
 10
-11.54153060913086
 20
-75.7092514038086
 30
0.0
 11
-36.87487411499023
 21
-75.7092514038086
 31
0.0
  0
LINE
  5
10A
330
1F
100
AcDbEntity
  8
0
  6
Continuous
 62
     7
100
AcDbLine
 10
-33.86219692516053
 20
-86.94258801277192
 30
0.0
 11
-34.02886377161117
 21
-86.77592116632128
 31
0.0
  0
LINE
  5
10B
330
1F
100
AcDbEntity
  8
0
  6
Continuous
 62
     7
100
AcDbLine
 10
-36.36653164359736
 20
-83.04258704270511
 30
0.0
 11
-36.69986533649862
 21
-82.70925334980384
 31
0.0
  0
LINE
  5
10C
330
1F
100
AcDbEntity
  8
0
  6
Continuous
 62
     7
100
AcDbLine
 10
-36.87486348193473
 20
-75.70925446413342
 30
0.0
 11
-36.6998636211089
 21
-82.70924931452925
 31
0.0
  0
LINE
  5
10D
330
1F
100
AcDbEntity
  8
0
  6
Continuous
 62
     7
100
AcDbLine
 10
-12.04986095428467
 20
-83.04258728027344
 30
0.0
 11
-36.36652755737305
 21
-83.04258728027344
 31
0.0
  0
LINE
  5
10E
330
1F
100
AcDbEntity
  8
0
  6
Continuous
 62
     7
100
AcDbLine
 10
-34.06486288535223
 20
-85.27592176623382
 30
0.0
 11
-34.02886299637917
 21
-86.77591707583129
 31
0.0
  0
LINE
  5
10F
330
1F
100
AcDbEntity
  8
0
  6
Continuous
 62
     7
100
AcDbLine
 10
-34.17152788355604
 20
-83.60925492743829
 30
0.0
 11
-34.06486134815393
 21
-85.27591954931778
 31
0.0
  0
LINE
  5
110
330
1F
100
AcDbEntity
  8
0
  6
Continuous
 62
     7
100
AcDbLine
 10
-36.69986343383789
 20
-82.7092514038086
 30
0.0
 11
-11.71652698516846
 21
-82.7092514038086
 31
0.0
  0
LINE
  5
111
330
1F
100
AcDbEntity
  8
0
  6
Continuous
 62
     7
100
AcDbLine
 10
-34.185296579245
 20
-83.04258341506701
 30
0.0
 11
-34.17152711913741
 21
-83.60924964333742
 31
0.0
  0
LINE
  5
112
330
1F
100
AcDbEntity
  8
0
  6
Continuous
 62
     7
100
AcDbLine
 10
70.76891089752357
 20
-83.04258162030297
 30
0.0
 11
70.75514143741597
 21
-83.60924784857337
 31
0.0
  0
LINE
  5
113
330
1F
100
AcDbEntity
  8
0
  6
Continuous
 62
     7
100
AcDbLine
 10
73.45847225761912
 20
-75.70925231220848
 30
0.0
 11
73.28347220611802
 21
-82.70925478961576
 31
0.0
  0
LINE
  5
114
330
1F
100
AcDbEntity
  8
0
  6
Continuous
 62
     7
100
AcDbLine
 10
70.64846876551178
 20
-85.27592137671444
 30
0.0
 11
70.61246887653873
 21
-86.7759166863119
 31
0.0
  0
LINE
  5
115
330
1F
100
AcDbEntity
  8
0
  6
Continuous
 62
     7
100
AcDbLine
 10
70.75514049914213
 20
-83.60925497964442
 30
0.0
 11
70.64847396374003
 21
-85.27591960152392
 31
0.0
  0
LINE
  5
116
330
1F
100
AcDbEntity
  8
0
  6
Continuous
 62
     7
100
AcDbLine
 10
70.44580506907629
 20
-86.94258464102403
 30
0.0
 11
70.61247124117733
 21
-86.77591846892298
 31
0.0
  0
LINE
  5
117
330
1F
100
AcDbEntity
  8
0
  6
Continuous
 62
     7
100
AcDbLine
 10
72.95013911316353
 20
-83.04258434530679
 30
0.0
 11
73.28347246889
 21
-82.70925098958033
 31
0.0
  0
LINE
  5
118
330
1F
100
AcDbEntity
  8
0
  6
Continuous
 62
     7
100
AcDbLine
 10
70.44580841064453
 20
-86.94258880615234
 30
0.0
 11
51.1378059387207
 21
-86.94258880615234
 31
0.0
  0
LINE
  5
119
330
1F
100
AcDbEntity
  8
0
  6
Continuous
 62
     7
100
AcDbLine
 10
73.45848083496094
 20
-75.7092514038086
 30
0.0
 11
48.12512588500977
 21
-75.7092514038086
 31
0.0
  0
LINE
  5
11A
330
1F
100
AcDbEntity
  8
0
  6
Continuous
 62
     7
100
AcDbLine
 10
51.13780575051759
 20
-86.94258531537362
 30
0.0
 11
50.97113890406695
 21
-86.77591846892298
 31
0.0
  0
LINE
  5
11B
330
1F
100
AcDbEntity
  8
0
  6
Continuous
 62
     7
100
AcDbLine
 10
48.63347103208077
 20
-83.0425843453068
 30
0.0
 11
48.30013733917951
 21
-82.70925065240553
 31
0.0
  0
LINE
  5
11C
330
1F
100
AcDbEntity
  8
0
  6
Continuous
 62
     7
100
AcDbLine
 10
48.12513628033183
 20
-75.70925459075374
 30
0.0
 11
48.30013614115767
 21
-82.70924944114955
 31
0.0
  0
LINE
  5
11D
330
1F
100
AcDbEntity
  8
0
  6
Continuous
 62
     7
100
AcDbLine
 10
72.95014190673828
 20
-83.04258728027344
 30
0.0
 11
48.63347244262695
 21
-83.04258728027344
 31
0.0
  0
LINE
  5
11E
330
1F
100
AcDbEntity
  8
0
  6
Continuous
 62
     7
100
AcDbLine
 10
50.93513890972038
 20
-85.2759147228589
 30
0.0
 11
50.97113898174619
 21
-86.77591765965458
 31
0.0
  0
LINE
  5
11F
330
1F
100
AcDbEntity
  8
0
  6
Continuous
 62
     7
100
AcDbLine
 10
50.82847290168354
 20
-83.60924830841375
 30
0.0
 11
50.93513992436996
 21
-85.27592054411062
 31
0.0
  0
LINE
  5
120
330
1F
100
AcDbEntity
  8
0
  6
Continuous
 62
     7
100
AcDbLine
 10
48.30013656616211
 20
-82.7092514038086
 30
0.0
 11
73.2834701538086
 21
-82.7092514038086
 31
0.0
  0
LINE
  5
121
330
1F
100
AcDbEntity
  8
0
  6
Continuous
 62
     7
100
AcDbLine
 10
50.81470077543763
 20
-83.04258406037533
 30
0.0
 11
50.82847023554522
 21
-83.60925028864574
 31
0.0
  0
ARC
  5
122
330
1F
100
AcDbEntity
  8
0
  6
Continuous
 62
     7
100
AcDbCircle
 10
77.62515258789062
 20
-31.0425853729248
 30
0.0
 40
1.0
100
AcDbArc
 50
0.0
 51
90.00000250447816
  0
ARC
  5
123
330
1F
100
AcDbEntity
  8
0
  6
Continuous
 62
     7
100
AcDbCircle
 10
77.45848846435547
 20
-32.20924758911133
 30
0.0
 40
1.166666746139526
100
AcDbArc
 50
269.9999974955218
 51
0.0
  0
ARC
  5
124
330
1F
100
AcDbEntity
  8
0
  6
Continuous
 62
     7
100
AcDbCircle
 10
40.45847320556641
 20
-31.0425853729248
 30
0.0
 40
1.0
100
AcDbArc
 50
90.00000250447816
 51
180.0000050089563
  0
ARC
  5
125
330
1F
100
AcDbEntity
  8
0
  6
Continuous
 62
     7
100
AcDbCircle
 10
40.62513732910156
 20
-32.20924758911133
 30
0.0
 40
1.166666746139526
100
AcDbArc
 50
180.000008651422
 51
269.9999974955218
  0
ARC
  5
126
330
1F
100
AcDbEntity
  8
0
  6
Continuous
 62
     7
100
AcDbCircle
 10
59.12513732910156
 20
-29.5425853729248
 30
0.0
 40
17.33333396911621
100
AcDbArc
 50
192.776806399658
 51
347.2231868838384
  0
ARC
  5
127
330
1F
100
AcDbEntity
  8
0
  6
Continuous
 62
     7
100
AcDbCircle
 10
-58.69168853759766
 20
-22.76243019104004
 30
0.0
 40
5.0
100
AcDbArc
 50
15.00000041741303
 51
70.72921798774499
  0
ARC
  5
128
330
1F
100
AcDbEntity
  8
0
  6
Continuous
 62
     7
100
AcDbCircle
 10
-50.33434295654297
 20
-23.04286003112793
 30
0.0
 40
3.0
100
AcDbArc
 50
195.0000056537405
 51
269.2261438927486
  0
ARC
  5
129
330
1F
100
AcDbEntity
  8
0
  6
Continuous
 62
     7
100
AcDbCircle
 10
-40.17520141601562
 20
-65.1557846069336
 30
0.0
 40
5.0
100
AcDbArc
 50
186.4999991561997
 51
242.7274004793086
  0
ARC
  5
12A
330
1F
100
AcDbEntity
  8
0
  6
Continuous
 62
     7
100
AcDbCircle
 10
-31.06244850158691
 20
-12.45960235595703
 30
0.0
 40
1.5
100
AcDbArc
 50
189.5804964341454
 51
322.3470112567956
  0
ARC
  5
12B
330
1F
100
AcDbEntity
  8
0
  6
Continuous
 62
     7
100
AcDbCircle
 10
-26.12942886352539
 20
-17.59834480285645
 30
0.0
 40
2.0
100
AcDbArc
 50
16.13371448943947
 51
74.99999867197056
  0
ARC
  5
12C
330
1F
100
AcDbEntity
  8
0
  6
Continuous
 62
     7
100
AcDbCircle
 10
-28.21342849731445
 20
-13.24392509460449
 30
0.0
 40
1.666666626930237
100
AcDbArc
 50
184.5423439966689
 51
255.0000004932034
  0
ARC
  5
12D
330
1F
100
AcDbEntity
  8
0
  6
Continuous
 62
     7
100
AcDbCircle
 10
-35.87486267089844
 20
-12.70925140380859
 30
0.0
 40
3.333333253860474
100
AcDbArc
 50
269.9999974955218
 51
0.0
  0
ARC
  5
12E
330
1F
100
AcDbEntity
  8
0
  6
Continuous
 62
     7
100
AcDbCircle
 10
-38.20819473266602
 20
-15.70925140380859
 30
0.0
 40
2.333333253860474
100
AcDbArc
 50
351.8698977648869
 51
149.9999973439411
  0
ARC
  5
12F
330
1F
100
AcDbEntity
  8
0
  6
Continuous
 62
     7
100
AcDbCircle
 10
-42.82699584960938
 20
-13.0425853729248
 30
0.0
 40
3.0
100
AcDbArc
 50
250.3951415962941
 51
329.999999165174
  0
ARC
  5
130
330
1F
100
AcDbEntity
  8
0
  6
Continuous
 62
     7
100
AcDbCircle
 10
-50.54422378540039
 20
-34.70925140380859
 30
0.0
 40
20.0
100
AcDbArc
 50
70.39513977506131
 51
90.00000250447816
  0
ARC
  5
131
330
1F
100
AcDbEntity
  8
0
  6
Continuous
 62
     7
100
AcDbCircle
 10
-25.19273376464844
 20
-36.57008743286133
 30
0.0
 40
1.0
100
AcDbArc
 50
280.0000023272567
 51
349.9120914874208
  0
ARC
  5
132
330
1F
100
AcDbEntity
  8
0
  6
Continuous
 62
     7
100
AcDbCircle
 10
-32.41541290283203
 20
-44.04258346557617
 30
0.0
 40
1.0
100
AcDbArc
 50
90.00000250447816
 51
175.4260732086089
  0
ARC
  5
133
330
1F
100
AcDbEntity
  8
0
  6
Continuous
 62
     7
100
AcDbCircle
 10
-32.41541290283203
 20
-44.04258346557617
 30
0.0
 40
1.666666626930237
100
AcDbArc
 50
90.00000250447816
 51
175.4260732086089
  0
ARC
  5
134
330
1F
100
AcDbEntity
  8
0
  6
Continuous
 62
     7
100
AcDbCircle
 10
-27.70819473266602
 20
-39.72143936157227
 30
0.0
 40
1.666666626930237
100
AcDbArc
 50
100.0000005060238
 51
180.0000050089563
  0
ARC
  5
135
330
1F
100
AcDbEntity
  8
0
  6
Continuous
 62
     7
100
AcDbCircle
 10
-27.70819473266602
 20
-39.72143936157227
 30
0.0
 40
1.0
100
AcDbArc
 50
100.0000005060238
 51
180.0000050089563
  0
ARC
  5
136
330
1F
100
AcDbEntity
  8
0
  6
Continuous
 62
     7
100
AcDbCircle
 10
-30.37486267089844
 20
-41.37591934204102
 30
0.0
 40
1.0
100
AcDbArc
 50
269.9999974955218
 51
0.0
  0
ARC
  5
137
330
1F
100
AcDbEntity
  8
0
  6
Continuous
 62
     7
100
AcDbCircle
 10
-29.70819473266602
 20
-42.04258346557617
 30
0.0
 40
1.0
100
AcDbArc
 50
269.9999974955218
 51
0.0
  0
ARC
  5
138
330
1F
100
AcDbEntity
  8
0
  6
Continuous
 62
     7
100
AcDbCircle
 10
-25.19273376464844
 20
-34.20075607299805
 30
0.0
 40
1.0
100
AcDbArc
 50
280.0000023272567
 51
349.9120914874208
  0
ARC
  5
139
330
1F
100
AcDbEntity
  8
0
  6
Continuous
 62
     7
100
AcDbCircle
 10
-36.15934753417969
 20
-68.05982971191406
 30
0.0
 40
4.599999904632568
100
AcDbArc
 50
30.00000083482606
 51
75.19878449757461
  0
ARC
  5
13A
330
1F
100
AcDbEntity
  8
0
  6
Continuous
 62
     7
100
AcDbCircle
 10
-32.17562866210938
 20
-47.35982513427734
 30
0.0
 40
4.599999904632568
100
AcDbArc
 50
30.00000083482606
 51
69.806288676147
  0
ARC
  5
13B
330
1F
100
AcDbEntity
  8
0
  6
Continuous
 62
     7
100
AcDbCircle
 10
-28.19191360473633
 20
-45.0598258972168
 30
0.0
 40
4.599999904632568
100
AcDbArc
 50
30.00000083482606
 51
96.44419719392597
  0
ARC
  5
13C
330
1F
100
AcDbEntity
  8
0
  6
Continuous
 62
     7
100
AcDbCircle
 10
-36.15934753417969
 20
-49.65982818603516
 30
0.0
 40
4.599999904632568
100
AcDbArc
 50
30.00000083482606
 51
55.65509294236439
  0
ARC
  5
13D
330
1F
100
AcDbEntity
  8
0
  6
Continuous
 62
     7
100
AcDbCircle
 10
-36.15934753417969
 20
-54.25983047485352
 30
0.0
 40
4.599999904632568
100
AcDbArc
 50
30.00000083482606
 51
60.79403165123361
  0
ARC
  5
13E
330
1F
100
AcDbEntity
  8
0
  6
Continuous
 62
     7
100
AcDbCircle
 10
-36.15934753417969
 20
-58.85982513427734
 30
0.0
 40
4.599999904632568
100
AcDbArc
 50
30.00000083482606
 51
65.72919849640466
  0
ARC
  5
13F
330
1F
100
AcDbEntity
  8
0
  6
Continuous
 62
     7
100
AcDbCircle
 10
-36.15934753417969
 20
-63.4598274230957
 30
0.0
 40
4.599999904632568
100
AcDbArc
 50
30.00000083482606
 51
70.51623902904564
  0
ARC
  5
140
330
1F
100
AcDbEntity
  8
0
  6
Continuous
 62
     7
100
AcDbCircle
 10
-32.17562866210938
 20
-70.35982513427734
 30
0.0
 40
4.599999904632568
100
AcDbArc
 50
30.00000083482606
 51
131.9437229144737
  0
ARC
  5
141
330
1F
100
AcDbEntity
  8
0
  6
Continuous
 62
     7
100
AcDbCircle
 10
-32.17562866210938
 20
-65.75982666015625
 30
0.0
 40
4.599999904632568
100
AcDbArc
 50
30.00000083482606
 51
125.6548535569412
  0
ARC
  5
142
330
1F
100
AcDbEntity
  8
0
  6
Continuous
 62
     7
100
AcDbCircle
 10
-32.17562866210938
 20
-61.15982818603516
 30
0.0
 40
4.599999904632568
100
AcDbArc
 50
30.00000083482606
 51
119.9045036343291
  0
ARC
  5
143
330
1F
100
AcDbEntity
  8
0
  6
Continuous
 62
     7
100
AcDbCircle
 10
-32.17562866210938
 20
-56.5598258972168
 30
0.0
 40
4.599999904632568
100
AcDbArc
 50
30.00000083482606
 51
114.5270820403997
  0
ARC
  5
144
330
1F
100
AcDbEntity
  8
0
  6
Continuous
 62
     7
100
AcDbCircle
 10
-32.17562866210938
 20
-51.9598274230957
 30
0.0
 40
4.599999904632568
100
AcDbArc
 50
30.00000083482606
 51
109.4178546544201
  0
ARC
  5
145
330
1F
100
AcDbEntity
  8
0
  6
Continuous
 62
     7
100
AcDbCircle
 10
-28.19191360473633
 20
-68.05982971191406
 30
0.0
 40
4.599999904632568
100
AcDbArc
 50
30.00000083482606
 51
149.9999973439411
  0
ARC
  5
146
330
1F
100
AcDbEntity
  8
0
  6
Continuous
 62
     7
100
AcDbCircle
 10
-28.19191360473633
 20
-63.4598274230957
 30
0.0
 40
4.599999904632568
100
AcDbArc
 50
30.00000083482606
 51
149.9999973439411
  0
ARC
  5
147
330
1F
100
AcDbEntity
  8
0
  6
Continuous
 62
     7
100
AcDbCircle
 10
-28.19191360473633
 20
-58.85982513427734
 30
0.0
 40
4.599999904632568
100
AcDbArc
 50
30.00000083482606
 51
149.9999973439411
  0
ARC
  5
148
330
1F
100
AcDbEntity
  8
0
  6
Continuous
 62
     7
100
AcDbCircle
 10
-28.19191360473633
 20
-54.25983047485352
 30
0.0
 40
4.599999904632568
100
AcDbArc
 50
30.00000083482606
 51
149.9999973439411
  0
ARC
  5
149
330
1F
100
AcDbEntity
  8
0
  6
Continuous
 62
     7
100
AcDbCircle
 10
-28.19191360473633
 20
-49.65982818603516
 30
0.0
 40
4.599999904632568
100
AcDbArc
 50
30.00000083482606
 51
149.9999973439411
  0
ARC
  5
14A
330
1F
100
AcDbEntity
  8
0
  6
Continuous
 62
     7
100
AcDbCircle
 10
-55.72475051879883
 20
-37.62773513793945
 30
0.0
 40
10.0
100
AcDbArc
 50
6.499999896287763
 51
49.33342843153201
  0
ARC
  5
14B
330
1F
100
AcDbEntity
  8
0
  6
Continuous
 62
     7
100
AcDbCircle
 10
-61.3221321105957
 20
-35.61305999755859
 30
0.0
 40
13.33333301544189
100
AcDbArc
 50
6.499999896287763
 51
24.69487167061938
  0
ARC
  5
14C
330
1F
100
AcDbEntity
  8
0
  6
Continuous
 62
     7
100
AcDbCircle
 10
-40.17520141601562
 20
-65.1557846069336
 30
0.0
 40
4.333333492279053
100
AcDbArc
 50
186.4999991561997
 51
242.7274004793086
  0
ARC
  5
14D
330
1F
100
AcDbEntity
  8
0
  6
Continuous
 62
     7
100
AcDbCircle
 10
-37.61482620239258
 20
-64.07147216796875
 30
0.0
 40
5.0
100
AcDbArc
 50
186.4999991561997
 51
230.6122021748367
  0
ARC
  5
14E
330
1F
100
AcDbEntity
  8
0
  6
Continuous
 62
     7
100
AcDbCircle
 10
10.27530193328857
 20
-22.76243019104004
 30
0.0
 40
5.0
100
AcDbArc
 50
109.2707801910222
 51
164.9999943462596
  0
ARC
  5
14F
330
1F
100
AcDbEntity
  8
0
  6
Continuous
 62
     7
100
AcDbCircle
 10
1.917954206466675
 20
-23.04286003112793
 30
0.0
 40
3.0
100
AcDbArc
 50
270.7738579284843
 51
344.999999582587
  0
ARC
  5
150
330
1F
100
AcDbEntity
  8
0
  6
Continuous
 62
     7
100
AcDbCircle
 10
-8.24118709564209
 20
-65.1557846069336
 30
0.0
 40
5.0
100
AcDbArc
 50
297.2725945117351
 51
353.5000001037122
  0
ARC
  5
151
330
1F
100
AcDbEntity
  8
0
  6
Continuous
 62
     7
100
AcDbCircle
 10
-17.35394287109375
 20
-12.45960235595703
 30
0.0
 40
1.5
100
AcDbArc
 50
217.652983734248
 51
350.4194994106719
  0
ARC
  5
152
330
1F
100
AcDbEntity
  8
0
  6
Continuous
 62
     7
100
AcDbCircle
 10
-22.28696060180664
 20
-17.59834480285645
 30
0.0
 40
2.0
100
AcDbArc
 50
104.9999995067966
 51
163.8662922270642
  0
ARC
  5
153
330
1F
100
AcDbEntity
  8
0
  6
Continuous
 62
     7
100
AcDbCircle
 10
-20.20296096801758
 20
-13.24392509460449
 30
0.0
 40
1.666666626930237
100
AcDbArc
 50
285.0000013280294
 51
355.4576552632429
  0
ARC
  5
154
330
1F
100
AcDbEntity
  8
0
  6
Continuous
 62
     7
100
AcDbCircle
 10
-12.54152870178223
 20
-12.70925140380859
 30
0.0
 40
3.333333253860474
100
AcDbArc
 50
180.000008651422
 51
269.9999974955218
  0
ARC
  5
155
330
1F
100
AcDbEntity
  8
0
  6
Continuous
 62
     7
100
AcDbCircle
 10
-10.20819568634033
 20
-15.70925140380859
 30
0.0
 40
2.333333253860474
100
AcDbArc
 50
30.00000083482606
 51
188.1301021214276
  0
ARC
  5
156
330
1F
100
AcDbEntity
  8
0
  6
Continuous
 62
     7
100
AcDbCircle
 10
-5.589393138885498
 20
-13.0425853729248
 30
0.0
 40
3.0
100
AcDbArc
 50
210.0000026560589
 51
289.6048602249387
  0
ARC
  5
157
330
1F
100
AcDbEntity
  8
0
  6
Continuous
 62
     7
100
AcDbCircle
 10
2.127831220626831
 20
-34.70925140380859
 30
0.0
 40
20.0
100
AcDbArc
 50
90.00000250447816
 51
109.6048584037058
  0
ARC
  5
158
330
1F
100
AcDbEntity
  8
0
  6
Continuous
 62
     7
100
AcDbCircle
 10
-23.22365760803223
 20
-36.57008743286133
 30
0.0
 40
1.0
100
AcDbArc
 50
190.0879111875857
 51
259.9999994939762
  0
ARC
  5
159
330
1F
100
AcDbEntity
  8
0
  6
Continuous
 62
     7
100
AcDbCircle
 10
-16.0009765625
 20
-44.04258346557617
 30
0.0
 40
1.0
100
AcDbArc
 50
4.573921128176841
 51
90.00000250447816
  0
ARC
  5
15A
330
1F
100
AcDbEntity
  8
0
  6
Continuous
 62
     7
100
AcDbCircle
 10
-16.0009765625
 20
-44.04258346557617
 30
0.0
 40
1.666666626930237
100
AcDbArc
 50
4.573921128176841
 51
90.00000250447816
  0
ARC
  5
15B
330
1F
100
AcDbEntity
  8
0
  6
Continuous
 62
     7
100
AcDbCircle
 10
-16.0009765625
 20
-44.04258346557617
 30
0.0
 40
4.0
100
AcDbArc
 50
4.573921128176841
 51
90.00000250447816
  0
ARC
  5
15C
330
1F
100
AcDbEntity
  8
0
  6
Continuous
 62
     7
100
AcDbCircle
 10
-20.70819473266602
 20
-39.72143936157227
 30
0.0
 40
4.0
100
AcDbArc
 50
0.0
 51
79.99999767274336
  0
ARC
  5
15D
330
1F
100
AcDbEntity
  8
0
  6
Continuous
 62
     7
100
AcDbCircle
 10
-20.70819473266602
 20
-39.72143936157227
 30
0.0
 40
1.666666626930237
100
AcDbArc
 50
0.0
 51
79.99999767274336
  0
ARC
  5
15E
330
1F
100
AcDbEntity
  8
0
  6
Continuous
 62
     7
100
AcDbCircle
 10
-20.70819473266602
 20
-39.72143936157227
 30
0.0
 40
1.0
100
AcDbArc
 50
0.0
 51
79.99999767274336
  0
ARC
  5
15F
330
1F
100
AcDbEntity
  8
0
  6
Continuous
 62
     7
100
AcDbCircle
 10
-18.04152870178223
 20
-41.37591934204102
 30
0.0
 40
1.0
100
AcDbArc
 50
180.000008651422
 51
269.9999974955218
  0
ARC
  5
160
330
1F
100
AcDbEntity
  8
0
  6
Continuous
 62
     7
100
AcDbCircle
 10
-18.70819473266602
 20
-42.04258346557617
 30
0.0
 40
1.0
100
AcDbArc
 50
180.000008651422
 51
269.9999974955218
  0
ARC
  5
161
330
1F
100
AcDbEntity
  8
0
  6
Continuous
 62
     7
100
AcDbCircle
 10
-23.22365760803223
 20
-34.20075607299805
 30
0.0
 40
1.0
100
AcDbArc
 50
190.0879111875857
 51
259.9999994939762
  0
ARC
  5
162
330
1F
100
AcDbEntity
  8
0
  6
Continuous
 62
     7
100
AcDbCircle
 10
-12.25704383850098
 20
-68.05982971191406
 30
0.0
 40
4.599999904632568
100
AcDbArc
 50
104.8012136811926
 51
149.9999973439411
  0
ARC
  5
163
330
1F
100
AcDbEntity
  8
0
  6
Continuous
 62
     7
100
AcDbCircle
 10
-16.24076271057129
 20
-47.35982513427734
 30
0.0
 40
4.599999904632568
100
AcDbArc
 50
110.1937095026202
 51
149.9999973439411
  0
ARC
  5
164
330
1F
100
AcDbEntity
  8
0
  6
Continuous
 62
     7
100
AcDbCircle
 10
-24.20819473266602
 20
-42.75983047485352
 30
0.0
 40
4.599999904632568
100
AcDbArc
 50
30.00000083482606
 51
149.9999973439411
  0
ARC
  5
165
330
1F
100
AcDbEntity
  8
0
  6
Continuous
 62
     7
100
AcDbCircle
 10
-24.20819473266602
 20
-47.35982513427734
 30
0.0
 40
4.599999904632568
100
AcDbArc
 50
30.00000083482606
 51
149.9999973439411
  0
ARC
  5
166
330
1F
100
AcDbEntity
  8
0
  6
Continuous
 62
     7
100
AcDbCircle
 10
-24.20819473266602
 20
-51.9598274230957
 30
0.0
 40
4.599999904632568
100
AcDbArc
 50
30.00000083482606
 51
149.9999973439411
  0
ARC
  5
167
330
1F
100
AcDbEntity
  8
0
  6
Continuous
 62
     7
100
AcDbCircle
 10
-24.20819473266602
 20
-56.5598258972168
 30
0.0
 40
4.599999904632568
100
AcDbArc
 50
30.00000083482606
 51
149.9999973439411
  0
ARC
  5
168
330
1F
100
AcDbEntity
  8
0
  6
Continuous
 62
     7
100
AcDbCircle
 10
-24.20819473266602
 20
-61.15982818603516
 30
0.0
 40
4.599999904632568
100
AcDbArc
 50
30.00000083482606
 51
149.9999973439411
  0
ARC
  5
169
330
1F
100
AcDbEntity
  8
0
  6
Continuous
 62
     7
100
AcDbCircle
 10
-24.20819473266602
 20
-65.75982666015625
 30
0.0
 40
4.599999904632568
100
AcDbArc
 50
30.00000083482606
 51
149.9999973439411
  0
ARC
  5
16A
330
1F
100
AcDbEntity
  8
0
  6
Continuous
 62
     7
100
AcDbCircle
 10
-20.2244758605957
 20
-45.0598258972168
 30
0.0
 40
4.599999904632568
100
AcDbArc
 50
83.55580098484118
 51
149.9999973439411
  0
ARC
  5
16B
330
1F
100
AcDbEntity
  8
0
  6
Continuous
 62
     7
100
AcDbCircle
 10
-12.25704383850098
 20
-49.65982818603516
 30
0.0
 40
4.599999904632568
100
AcDbArc
 50
124.3449052364028
 51
149.9999973439411
  0
ARC
  5
16C
330
1F
100
AcDbEntity
  8
0
  6
Continuous
 62
     7
100
AcDbCircle
 10
-12.25704383850098
 20
-54.25983047485352
 30
0.0
 40
4.599999904632568
100
AcDbArc
 50
119.2059665275336
 51
149.9999973439411
  0
ARC
  5
16D
330
1F
100
AcDbEntity
  8
0
  6
Continuous
 62
     7
100
AcDbCircle
 10
-12.25704383850098
 20
-58.85982513427734
 30
0.0
 40
4.599999904632568
100
AcDbArc
 50
114.2708065125517
 51
149.9999973439411
  0
ARC
  5
16E
330
1F
100
AcDbEntity
  8
0
  6
Continuous
 62
     7
100
AcDbCircle
 10
-12.25704383850098
 20
-63.4598274230957
 30
0.0
 40
4.599999904632568
100
AcDbArc
 50
109.4837659799107
 51
149.9999973439411
  0
ARC
  5
16F
330
1F
100
AcDbEntity
  8
0
  6
Continuous
 62
     7
100
AcDbCircle
 10
-24.20819473266602
 20
-70.35982513427734
 30
0.0
 40
4.599999904632568
100
AcDbArc
 50
30.00000083482606
 51
149.9999973439411
  0
ARC
  5
170
330
1F
100
AcDbEntity
  8
0
  6
Continuous
 62
     7
100
AcDbCircle
 10
-16.24076271057129
 20
-70.35982513427734
 30
0.0
 40
4.599999904632568
100
AcDbArc
 50
48.05627184919884
 51
149.9999973439411
  0
ARC
  5
171
330
1F
100
AcDbEntity
  8
0
  6
Continuous
 62
     7
100
AcDbCircle
 10
-16.24076271057129
 20
-65.75982666015625
 30
0.0
 40
4.599999904632568
100
AcDbArc
 50
54.34514803692057
 51
149.9999973439411
  0
ARC
  5
172
330
1F
100
AcDbEntity
  8
0
  6
Continuous
 62
     7
100
AcDbCircle
 10
-16.24076271057129
 20
-61.15982818603516
 30
0.0
 40
4.599999904632568
100
AcDbArc
 50
60.09548771424889
 51
149.9999973439411
  0
ARC
  5
173
330
1F
100
AcDbEntity
  8
0
  6
Continuous
 62
     7
100
AcDbCircle
 10
-16.24076271057129
 20
-56.5598258972168
 30
0.0
 40
4.599999904632568
100
AcDbArc
 50
65.47291613836744
 51
149.9999973439411
  0
ARC
  5
174
330
1F
100
AcDbEntity
  8
0
  6
Continuous
 62
     7
100
AcDbCircle
 10
-16.24076271057129
 20
-51.9598274230957
 30
0.0
 40
4.599999904632568
100
AcDbArc
 50
70.58214352434709
 51
149.9999973439411
  0
ARC
  5
175
330
1F
100
AcDbEntity
  8
0
  6
Continuous
 62
     7
100
AcDbCircle
 10
-20.2244758605957
 20
-68.05982971191406
 30
0.0
 40
4.599999904632568
100
AcDbArc
 50
30.00000083482606
 51
149.9999973439411
  0
ARC
  5
176
330
1F
100
AcDbEntity
  8
0
  6
Continuous
 62
     7
100
AcDbCircle
 10
-20.2244758605957
 20
-63.4598274230957
 30
0.0
 40
4.599999904632568
100
AcDbArc
 50
30.00000083482606
 51
149.9999973439411
  0
ARC
  5
177
330
1F
100
AcDbEntity
  8
0
  6
Continuous
 62
     7
100
AcDbCircle
 10
-20.2244758605957
 20
-58.85982513427734
 30
0.0
 40
4.599999904632568
100
AcDbArc
 50
30.00000083482606
 51
149.9999973439411
  0
ARC
  5
178
330
1F
100
AcDbEntity
  8
0
  6
Continuous
 62
     7
100
AcDbCircle
 10
-20.2244758605957
 20
-54.25983047485352
 30
0.0
 40
4.599999904632568
100
AcDbArc
 50
30.00000083482606
 51
149.9999973439411
  0
ARC
  5
179
330
1F
100
AcDbEntity
  8
0
  6
Continuous
 62
     7
100
AcDbCircle
 10
-20.2244758605957
 20
-49.65982818603516
 30
0.0
 40
4.599999904632568
100
AcDbArc
 50
30.00000083482606
 51
149.9999973439411
  0
ARC
  5
17A
330
1F
100
AcDbEntity
  8
0
  6
Continuous
 62
     7
100
AcDbCircle
 10
7.308365345001221
 20
-37.62773513793945
 30
0.0
 40
10.0
100
AcDbArc
 50
130.6665731623297
 51
173.5000008438003
  0
ARC
  5
17B
330
1F
100
AcDbEntity
  8
0
  6
Continuous
 62
     7
100
AcDbCircle
 10
12.9057445526123
 20
-35.61305999755859
 30
0.0
 40
13.33333301544189
100
AcDbArc
 50
155.3051282156951
 51
173.5000008438003
  0
ARC
  5
17C
330
1F
100
AcDbEntity
  8
0
  6
Continuous
 62
     7
100
AcDbCircle
 10
-8.24118709564209
 20
-65.1557846069336
 30
0.0
 40
4.333333492279053
100
AcDbArc
 50
297.2725945117351
 51
353.5000001037122
  0
ARC
  5
17D
330
1F
100
AcDbEntity
  8
0
  6
Continuous
 62
     7
100
AcDbCircle
 10
-10.80156421661377
 20
-64.07147216796875
 30
0.0
 40
5.0
100
AcDbArc
 50
309.3877962313015
 51
353.5000001037122
  0
ARC
  5
17E
330
1F
100
AcDbEntity
  8
0
  6
Continuous
 62
     7
100
AcDbCircle
 10
75.02423095703125
 20
-65.65472412109375
 30
0.0
 40
5.0
100
AcDbArc
 50
303.7100614648504
 51
358.4999999582587
  0
ARC
  5
17F
330
1F
100
AcDbEntity
  8
0
  6
Continuous
 62
     7
100
AcDbCircle
 10
72.38489532470703
 20
-64.57598876953125
 30
0.0
 40
5.0
100
AcDbArc
 50
323.5307650022289
 51
358.4999999582587
  0
ARC
  5
180
330
1F
100
AcDbEntity
  8
0
  6
Continuous
 62
     7
100
AcDbCircle
 10
74.3454818725586
 20
-66.1075668334961
 30
0.0
 40
5.0
100
AcDbArc
 50
303.7100614648504
 51
358.4999999582587
  0
ARC
  5
181
330
1F
100
AcDbEntity
  8
0
  6
Continuous
 62
     7
100
AcDbCircle
 10
88.111328125
 20
-37.03091049194336
 30
0.0
 40
10.0
100
AcDbArc
 50
135.6665721631026
 51
178.4999998445732
  0
ARC
  5
182
330
1F
100
AcDbEntity
  8
0
  6
Continuous
 62
     7
100
AcDbCircle
 10
93.5118179321289
 20
-34.53606414794922
 30
0.0
 40
13.33333301544189
100
AcDbArc
 50
160.3051272164679
 51
178.4999998445732
  0
ARC
  5
183
330
1F
100
AcDbEntity
  8
0
  6
Continuous
 62
     7
100
AcDbCircle
 10
74.37515258789062
 20
-26.37591743469238
 30
0.0
 40
1.0
100
AcDbArc
 50
90.00000250447816
 51
180.0000050089563
  0
ARC
  5
184
330
1F
100
AcDbEntity
  8
0
  6
Continuous
 62
     7
100
AcDbCircle
 10
27.04939270019531
 20
-22.72915840148926
 30
0.0
 40
5.0
100
AcDbArc
 50
15.00000041741303
 51
69.60539232208943
  0
ARC
  5
185
330
1F
100
AcDbEntity
  8
0
  6
Continuous
 62
     7
100
AcDbCircle
 10
35.41628265380859
 20
-23.04516792297363
 30
0.0
 40
3.0
100
AcDbArc
 50
195.0000056537405
 51
267.6220193246577
  0
CIRCLE
  5
186
330
1F
100
AcDbEntity
  8
0
  6
Continuous
 62
     7
100
AcDbCircle
 10
-24.20819473266602
 20
71.2907485961914
 30
0.0
 40
10.31666564941406
  0
CIRCLE
  5
187
330
1F
100
AcDbEntity
  8
0
  6
Continuous
 62
     7
100
AcDbCircle
 10
-24.20819473266602
 20
71.2907485961914
 30
0.0
 40
13.5
  0
ARC
  5
188
330
1F
100
AcDbEntity
  8
0
  6
Continuous
 62
     7
100
AcDbCircle
 10
-56.8748664855957
 20
39.99825286865234
 30
0.0
 40
1.666666626930237
100
AcDbArc
 50
179.999991348578
 51
259.0113464597187
  0
ARC
  5
189
330
1F
100
AcDbEntity
  8
0
  6
Continuous
 62
     7
100
AcDbCircle
 10
-56.8748664855957
 20
39.99825286865234
 30
0.0
 40
0.6666666865348816
100
AcDbArc
 50
179.999991348578
 51
259.0113464597187
  0
ARC
  5
18A
330
1F
100
AcDbEntity
  8
0
  6
Continuous
 62
     7
100
AcDbCircle
 10
47.36257171630859
 20
-64.03417205810547
 30
0.0
 40
5.0
100
AcDbArc
 50
190.0000066529676
 51
235.6849153695135
  0
ARC
  5
18B
330
1F
100
AcDbEntity
  8
0
  6
Continuous
 62
     7
100
AcDbCircle
 10
24.54052734375
 20
-36.34221267700195
 30
0.0
 40
13.33333301544189
100
AcDbArc
 50
9.99999970909292
 51
28.19487233719819
  0
ARC
  5
18C
330
1F
100
AcDbEntity
  8
0
  6
Continuous
 62
     7
100
AcDbCircle
 10
30.25046348571777
 20
-38.01140975952148
 30
0.0
 40
10.0
100
AcDbArc
 50
9.99999970909292
 51
52.83342909811082
  0
ARC
  5
18D
330
1F
100
AcDbEntity
  8
0
  6
Continuous
 62
     7
100
AcDbCircle
 10
48.13214111328125
 20
-64.55943298339844
 30
0.0
 40
5.0
100
AcDbArc
 50
190.0000066529676
 51
235.6849153695135
  0
ARC
  5
18E
330
1F
100
AcDbEntity
  8
0
  6
Continuous
 62
     7
100
AcDbCircle
 10
49.95427703857422
 20
-63.37574005126953
 30
0.0
 40
5.0
100
AcDbArc
 50
190.0000066529676
 51
227.9356696051622
  0
ARC
  5
18F
330
1F
100
AcDbEntity
  8
0
  6
Continuous
 62
     7
100
AcDbCircle
 10
-48.79152297973633
 20
90.12408447265625
 30
0.0
 40
1.666666626930237
100
AcDbArc
 50
90.00000250447816
 51
180.0000050089563
  0
ARC
  5
190
330
1F
100
AcDbEntity
  8
0
  6
Continuous
 62
     7
100
AcDbCircle
 10
-47.45819091796875
 20
89.12408447265625
 30
0.0
 40
1.666666626930237
100
AcDbArc
 50
90.00000250447816
 51
180.0000050089563
  0
ARC
  5
191
330
1F
100
AcDbEntity
  8
0
  6
Continuous
 62
     7
100
AcDbCircle
 10
-140.9479827880859
 20
69.62408447265625
 30
0.0
 40
93.65771484375
100
AcDbArc
 50
349.4455007746497
 51
10.39821083676206
  0
ARC
  5
192
330
1F
100
AcDbEntity
  8
0
  6
Continuous
 62
     7
100
AcDbCircle
 10
-140.2813262939453
 20
69.62408447265625
 30
0.0
 40
93.65771484375
100
AcDbArc
 50
349.6017891632379
 51
10.39821083676206
  0
ARC
  5
193
330
1F
100
AcDbEntity
  8
0
  6
Continuous
 62
     7
100
AcDbCircle
 10
-48.82840347290039
 20
50.70741653442383
 30
0.0
 40
0.6666666865348816
100
AcDbArc
 50
269.9999974955218
 51
0.0
  0
ARC
  5
194
330
1F
100
AcDbEntity
  8
0
  6
Continuous
 62
     7
100
AcDbCircle
 10
-48.82840347290039
 20
88.5407485961914
 30
0.0
 40
0.6666666865348816
100
AcDbArc
 50
0.0
 51
90.00000250447816
  0
ARC
  5
195
330
1F
100
AcDbEntity
  8
0
  6
Continuous
 62
     7
100
AcDbCircle
 10
-48.37485504150391
 20
46.8353157043457
 30
0.0
 40
1.0
100
AcDbArc
 50
179.999991348578
 51
259.0113464597187
  0
ARC
  5
196
330
1F
100
AcDbEntity
  8
0
  6
Continuous
 62
     7
100
AcDbCircle
 10
-41.66010284423828
 20
92.56776428222656
 30
0.0
 40
5.0
100
AcDbArc
 50
247.4310648927512
 51
269.9999974955218
  0
ARC
  5
197
330
1F
100
AcDbEntity
  8
0
  6
Continuous
 62
     7
100
AcDbCircle
 10
-48.15779113769531
 20
82.4149169921875
 30
0.0
 40
5.0
100
AcDbArc
 50
0.0
 51
51.95295282729906
  0
ARC
  5
198
330
1F
100
AcDbEntity
  8
0
  6
Continuous
 62
     7
100
AcDbCircle
 10
-48.15779113769531
 20
57.21005630493164
 30
0.0
 40
5.0
100
AcDbArc
 50
302.6542849738957
 51
0.0
  0
ARC
  5
199
330
1F
100
AcDbEntity
  8
0
  6
Continuous
 62
     7
100
AcDbCircle
 10
-42.50157928466797
 20
46.08280563354492
 30
0.0
 40
5.0
100
AcDbArc
 50
79.01134828095152
 51
109.8805726499318
  0
ARC
  5
19A
330
1F
100
AcDbEntity
  8
0
  6
Continuous
 62
     7
100
AcDbCircle
 10
-55.04153442382812
 20
41.50983810424805
 30
0.0
 40
1.0
100
AcDbArc
 50
179.999991348578
 51
259.0113464597187
  0
ARC
  5
19B
330
1F
100
AcDbEntity
  8
0
  6
Continuous
 62
     7
100
AcDbCircle
 10
-5.914809703826904
 20
46.08280563354492
 30
0.0
 40
5.0
100
AcDbArc
 50
70.11942552883541
 51
100.9886498978156
  0
ARC
  5
19C
330
1F
100
AcDbEntity
  8
0
  6
Continuous
 62
     7
100
AcDbCircle
 10
-0.258597642183304
 20
82.4149169921875
 30
0.0
 40
5.0
100
AcDbArc
 50
128.0470453514681
 51
180.0000050089563
  0
ARC
  5
19D
330
1F
100
AcDbEntity
  8
0
  6
Continuous
 62
     7
100
AcDbCircle
 10
-0.258597642183304
 20
57.21005630493164
 30
0.0
 40
5.0
100
AcDbArc
 50
179.999991348578
 51
237.3457132048715
  0
ARC
  5
19E
330
1F
100
AcDbEntity
  8
0
  6
Continuous
 62
     7
100
AcDbCircle
 10
6.625137805938721
 20
41.50983810424805
 30
0.0
 40
1.0
100
AcDbArc
 50
280.9886517190484
 51
0.0
  0
ARC
  5
19F
330
1F
100
AcDbEntity
  8
0
  6
Continuous
 62
     7
100
AcDbCircle
 10
8.458471298217773
 20
39.99825286865234
 30
0.0
 40
1.666666626930237
100
AcDbArc
 50
280.9886517190484
 51
0.0
  0
ARC
  5
1A0
330
1F
100
AcDbEntity
  8
0
  6
Continuous
 62
     7
100
AcDbCircle
 10
8.458471298217773
 20
39.99825286865234
 30
0.0
 40
0.6666666865348816
100
AcDbArc
 50
280.9886517190484
 51
0.0
  0
ARC
  5
1A1
330
1F
100
AcDbEntity
  8
0
  6
Continuous
 62
     7
100
AcDbCircle
 10
0.375135481357574
 20
90.12408447265625
 30
0.0
 40
1.666666626930237
100
AcDbArc
 50
0.0
 51
90.00000250447816
  0
ARC
  5
1A2
330
1F
100
AcDbEntity
  8
0
  6
Continuous
 62
     7
100
AcDbCircle
 10
-0.958197832107544
 20
89.12408447265625
 30
0.0
 40
1.666666626930237
100
AcDbArc
 50
0.0
 51
90.00000250447816
  0
ARC
  5
1A3
330
1F
100
AcDbEntity
  8
0
  6
Continuous
 62
     7
100
AcDbCircle
 10
92.5315933227539
 20
69.62408447265625
 30
0.0
 40
93.65771484375
100
AcDbArc
 50
169.6017933184206
 51
190.5545050880803
  0
ARC
  5
1A4
330
1F
100
AcDbEntity
  8
0
  6
Continuous
 62
     7
100
AcDbCircle
 10
91.86492919921875
 20
69.62408447265625
 30
0.0
 40
93.65771484375
100
AcDbArc
 50
169.6017933184206
 51
190.3982166994921
  0
ARC
  5
1A5
330
1F
100
AcDbEntity
  8
0
  6
Continuous
 62
     7
100
AcDbCircle
 10
0.412015974521637
 20
50.70741653442383
 30
0.0
 40
0.6666666865348816
100
AcDbArc
 50
179.999991348578
 51
270.0000006832453
  0
ARC
  5
1A6
330
1F
100
AcDbEntity
  8
0
  6
Continuous
 62
     7
100
AcDbCircle
 10
0.412015974521637
 20
88.5407485961914
 30
0.0
 40
0.6666666865348816
100
AcDbArc
 50
90.00000250447816
 51
180.0000050089563
  0
ARC
  5
1A7
330
1F
100
AcDbEntity
  8
0
  6
Continuous
 62
     7
100
AcDbCircle
 10
-0.041531186550856
 20
46.8353157043457
 30
0.0
 40
1.0
100
AcDbArc
 50
280.9886517190484
 51
0.0
  0
ARC
  5
1A8
330
1F
100
AcDbEntity
  8
0
  6
Continuous
 62
     7
100
AcDbCircle
 10
-6.756283283233643
 20
92.56776428222656
 30
0.0
 40
5.0
100
AcDbArc
 50
269.9999974955218
 51
292.5689369284816
  0
ARC
  5
1A9
330
1F
100
AcDbEntity
  8
0
  6
Continuous
 62
     7
100
AcDbCircle
 10
21.71606254577637
 20
-22.72915840148926
 30
0.0
 40
5.0
100
AcDbArc
 50
15.00000041741303
 51
69.60539232208943
  0
ARC
  5
1AA
330
1F
100
AcDbEntity
  8
0
  6
Continuous
 62
     7
100
AcDbCircle
 10
30.08294677734375
 20
-23.04516792297363
 30
0.0
 40
3.0
100
AcDbArc
 50
195.0000056537405
 51
267.6220193246577
  0
ARC
  5
1AB
330
1F
100
AcDbEntity
  8
0
  6
Continuous
 62
     7
100
AcDbCircle
 10
24.52995872497559
 20
-41.60359954833984
 30
0.0
 40
10.0
100
AcDbArc
 50
9.99999970909292
 51
39.92643428391606
  0
ARC
  5
1AC
330
1F
100
AcDbEntity
  8
0
  6
Continuous
 62
     7
100
AcDbCircle
 10
26.74028587341309
 20
-46.46062088012695
 30
0.0
 40
10.0
100
AcDbArc
 50
9.99999970909292
 51
39.92643428391606
  0
ARC
  5
1AD
330
1F
100
AcDbEntity
  8
0
  6
Continuous
 62
     7
100
AcDbCircle
 10
45.39334106445312
 20
-65.86581420898438
 30
0.0
 40
5.0
100
AcDbArc
 50
190.0000066529676
 51
248.7555956671676
  0
ARC
  5
1AE
330
1F
100
AcDbEntity
  8
0
  6
Continuous
 62
     7
100
AcDbCircle
 10
-32.41541290283203
 20
-44.04258346557617
 30
0.0
 40
4.0
100
AcDbArc
 50
90.00000250447816
 51
175.4260732086089
  0
ARC
  5
1AF
330
1F
100
AcDbEntity
  8
0
  6
Continuous
 62
     7
100
AcDbCircle
 10
-27.70819473266602
 20
-39.72143936157227
 30
0.0
 40
4.0
100
AcDbArc
 50
100.0000005060238
 51
180.0000050089563
  0
CIRCLE
  5
1B0
330
1F
100
AcDbEntity
  8
0
  6
Continuous
 62
     7
100
AcDbCircle
 10
-24.20819473266602
 20
71.2907485961914
 30
0.0
 40
9.350000381469727
  0
SPLINE
  5
1B1
330
1F
100
AcDbEntity
  8
0
  6
Continuous
 62
     7
100
AcDbSpline
210
0.0
220
0.0
230
1.0
 70
     8
 71
     3
 72
    11
 73
     7
 74
     5
 42
0.0000000001
 43
0.0000000001
 44
0.0000000001
 12
0.9386387253685818
 22
0.3449019327844426
 32
0.0
 13
0.9056805374966266
 23
0.4239608047919307
 33
0.0
 40
0.0
 40
0.0
 40
0.0
 40
0.0
 40
2.503674809476784
 40
5.022283097532814
 40
6.788778844723074
 40
8.801918966516915
 40
8.801918966516915
 40
8.801918966516915
 40
8.801918966516915
 10
-57.54153442382812
 20
52.44418716430664
 30
0.0
 10
-56.75818571319322
 20
52.73202792459073
 30
0.0
 10
-55.17445072074413
 20
53.32359473273884
 30
0.0
 10
-52.72025902032318
 20
52.84085692933299
 30
0.0
 10
-51.12700535301978
 20
54.40963532923104
 30
0.0
 10
-49.98260898402467
 20
54.92292284705621
 30
0.0
 10
-49.37485504150391
 20
55.20742034912109
 30
0.0
 11
-57.54153442382812
 21
52.44418716430664
 31
0.0
 11
-55.12154006958008
 21
53.0860710144043
 31
0.0
 11
-52.60903930664062
 21
53.2613639831543
 31
0.0
 11
-51.14827346801758
 21
54.25467681884766
 31
0.0
 11
-49.37485504150391
 21
55.20742034912109
 31
0.0
  0
SPLINE
  5
1B2
330
1F
100
AcDbEntity
  8
0
  6
Continuous
 62
     7
100
AcDbSpline
210
0.0
220
0.0
230
1.0
 70
     8
 71
     3
 72
    11
 73
     7
 74
     5
 42
0.0000000001
 43
0.0000000001
 44
0.0000000001
 12
0.9386387253685818
 22
0.3449019327844426
 32
0.0
 13
0.9056805374966266
 23
0.4239608047919307
 33
0.0
 40
0.0
 40
0.0
 40
0.0
 40
0.0
 40
2.503674809476784
 40
5.022283097532814
 40
6.788778844723074
 40
8.801918966516915
 40
8.801918966516915
 40
8.801918966516915
 40
8.801918966516915
 10
-58.54153442382812
 20
52.44418716430664
 30
0.0
 10
-57.75818571319322
 20
52.73202792459073
 30
0.0
 10
-56.17445072074414
 20
53.32359473273884
 30
0.0
 10
-53.72025902032319
 20
52.84085692933299
 30
0.0
 10
-52.1270053530198
 20
54.40963532923104
 30
0.0
 10
-50.98260898402467
 20
54.92292284705621
 30
0.0
 10
-50.37485504150391
 20
55.20742034912109
 30
0.0
 11
-58.54153442382812
 21
52.44418716430664
 31
0.0
 11
-56.12154006958008
 21
53.0860710144043
 31
0.0
 11
-53.60903930664062
 21
53.2613639831543
 31
0.0
 11
-52.14827346801758
 21
54.25467681884766
 31
0.0
 11
-50.37485504150391
 21
55.20742034912109
 31
0.0
  0
SPLINE
  5
1B3
330
1F
100
AcDbEntity
  8
0
  6
Continuous
 62
     7
100
AcDbSpline
210
0.0
220
0.0
230
1.0
 70
     8
 71
     3
 72
    11
 73
     7
 74
     5
 42
0.0000000001
 43
0.0000000001
 44
0.0000000001
 12
-0.9386387253685818
 22
0.3449019327844426
 32
0.0
 13
-0.9056805374966266
 23
0.4239608047919307
 33
0.0
 40
0.0
 40
0.0
 40
0.0
 40
0.0
 40
2.503671583178297
 40
5.022283676681116
 40
6.788773903531457
 40
8.801910769891226
 40
8.801910769891226
 40
8.801910769891226
 40
8.801910769891226
 10
9.125138282775879
 20
52.44418716430664
 30
0.0
 10
8.341790581583874
 20
52.73202755367187
 30
0.0
 10
6.758056065043079
 20
53.32359612434347
 30
0.0
 10
4.30386422310923
 20
52.84085447289387
 30
0.0
 10
2.710615191430546
 20
54.40963608974472
 30
0.0
 10
1.566221754549023
 20
54.92292330711503
 30
0.0
 10
0.9584687948226929
 20
55.20742034912109
 30
0.0
 11
9.125138282775879
 21
52.44418716430664
 31
0.0
 11
6.705147266387939
 21
53.0860710144043
 31
0.0
 11
4.192642688751221
 21
53.2613639831543
 31
0.0
 11
2.731883525848389
 21
54.25467681884766
 31
0.0
 11
0.9584687948226929
 21
55.20742034912109
 31
0.0
  0
SPLINE
  5
1B4
330
1F
100
AcDbEntity
  8
0
  6
Continuous
 62
     7
100
AcDbSpline
210
0.0
220
0.0
230
1.0
 70
     8
 71
     3
 72
    11
 73
     7
 74
     5
 42
0.0000000001
 43
0.0000000001
 44
0.0000000001
 12
-0.9386387253685818
 22
0.3449019327844426
 32
0.0
 13
-0.9056805374966266
 23
0.4239608047919307
 33
0.0
 40
0.0
 40
0.0
 40
0.0
 40
0.0
 40
2.503671583178297
 40
5.022283676681116
 40
6.788773903531457
 40
8.801910769891226
 40
8.801910769891226
 40
8.801910769891226
 40
8.801910769891226
 10
10.12513828277588
 20
52.44418716430664
 30
0.0
 10
9.341790581583874
 20
52.73202755367187
 30
0.0
 10
7.758056065043079
 20
53.32359612434347
 30
0.0
 10
5.30386422310923
 20
52.84085447289387
 30
0.0
 10
3.710615191430546
 20
54.40963608974472
 30
0.0
 10
2.566221754549023
 20
54.92292330711503
 30
0.0
 10
1.958468794822693
 20
55.20742034912109
 30
0.0
 11
10.12513828277588
 21
52.44418716430664
 31
0.0
 11
7.705147266387939
 21
53.0860710144043
 31
0.0
 11
5.192642688751221
 21
53.2613639831543
 31
0.0
 11
3.731883525848389
 21
54.25467681884766
 31
0.0
 11
1.958468794822693
 21
55.20742034912109
 31
0.0
  0
SPLINE
  5
1B5
330
1F
100
AcDbEntity
  8
0
  6
Continuous
 62
     7
100
AcDbSpline
210
0.0
220
0.0
230
1.0
 70
     8
 71
     3
 72
     9
 73
     5
 74
     3
 42
0.0000000001
 43
0.0000000001
 44
0.0000000001
 12
0.002742833291391865
 22
0.999996238425693
 32
0.0
 13
0.7190955055102539
 23
0.6949112561722917
 33
0.0
 40
0.0
 40
0.0
 40
0.0
 40
0.0
 40
1.293322395657934
 40
2.936989564015836
 40
2.936989564015836
 40
2.936989564015836
 40
2.936989564015836
 10
23.3084831237793
 20
-17.04259490966797
 30
0.0
 10
23.30966557968707
 20
-16.61148906609142
 30
0.0
 10
23.53116978193012
 20
-15.69715045581847
 30
0.0
 10
23.27333410526883
 20
-14.5104556928287
 30
0.0
 10
23.66731866304247
 20
-14.12972142059778
 30
0.0
 11
23.3084831237793
 21
-17.04259490966797
 31
0.0
 11
23.41179656982422
 21
-15.75340557098389
 31
0.0
 11
23.66731866304247
 21
-14.12972142059778
 31
0.0
  0
SPLINE
  5
1B6
330
1F
100
AcDbEntity
  8
0
  6
Continuous
 62
     7
100
AcDbSpline
210
0.0
220
0.0
230
1.0
 70
     8
 71
     3
 72
    20
 73
    16
 74
    14
 42
0.0000000001
 43
0.0000000001
 44
0.0000000001
 12
0.002742833291391865
 22
0.999996238425693
 32
0.0
 13
0.9975067501540189
 23
-0.07057112296944038
 33
0.0
 40
0.0
 40
0.0
 40
0.0
 40
0.0
 40
1.293322243296115
 40
3.120430466789816
 40
3.365263910888356
 40
4.31105757755382
 40
4.734028898229817
 40
5.416454603793302
 40
5.888864804587527
 40
6.20151893147851
 40
7.173757136445762
 40
7.799800414430996
 40
8.70116158266362
 40
9.503464290051582
 40
10.69621297966703
 40
10.69621297966703
 40
10.69621297966703
 40
10.69621297966703
 10
22.7084846496582
 20
-17.04259490966797
 30
0.0
 10
22.70966710542667
 20
-16.61148911687851
 30
0.0
 10
22.92876917108409
 20
-15.69774033946345
 30
0.0
 10
22.66600644709042
 20
-14.08046786253281
 30
0.0
 10
23.84487188438169
 20
-13.88889128886685
 30
0.0
 10
23.50006435803236
 20
-14.69436459685615
 30
0.0
 10
23.82562630159477
 20
-15.55433727662584
 30
0.0
 10
24.0674133008332
 20
-14.77626726299661
 30
0.0
 10
24.46832767429035
 20
-14.22802686974251
 30
0.0
 10
24.76321881154748
 20
-14.92235811697917
 30
0.0
 10
24.61466799790919
 20
-15.63777932785189
 30
0.0
 10
25.64198214567982
 20
-15.87275395279358
 30
0.0
 10
26.193737950109
 20
-15.24314487550605
 30
0.0
 10
27.03845688745245
 20
-14.77105110313204
 30
0.0
 10
27.72668985583891
 20
-14.68119353232643
 30
0.0
 10
28.12328147888184
 20
-14.70925140380859
 30
0.0
 11
22.7084846496582
 21
-17.04259490966797
 31
0.0
 11
22.81179618835449
 21
-15.75340557098389
 31
0.0
 11
23.29767608642578
 21
-13.99208641052246
 31
0.0
 11
23.54061889648438
 21
-13.96171855926514
 31
0.0
 11
23.63172149658203
 21
-14.90311431884766
 31
0.0
 11
23.78355979919434
 21
-15.29789257049561
 31
0.0
 11
24.14797019958496
 21
-14.72090911865234
 31
0.0
 11
24.48201370239258
 21
-14.38686370849609
 31
0.0
 11
24.63385391235352
 21
-14.66017150878906
 31
0.0
 11
24.87679290771484
 21
-15.6015682220459
 31
0.0
 11
25.48414421081543
 21
-15.75340557098389
 31
0.0
 11
26.24333572387695
 21
-15.26752471923828
 31
0.0
 11
26.94179153442383
 21
-14.87274742126465
 31
0.0
 11
28.12328147888184
 21
-14.70925140380859
 31
0.0
  0
SPLINE
  5
1B7
330
1F
100
AcDbEntity
  8
0
  6
Continuous
 62
     7
100
AcDbSpline
210
0.0
220
0.0
230
1.0
 70
     8
 71
     3
 72
     8
 73
     4
 74
     2
 42
0.0000000001
 43
0.0000000001
 44
0.0000000001
 12
0.9999549157401685
 22
-0.009495603565473762
 32
0.0
 13
0.4278184287470863
 23
0.9038646978527118
 33
0.0
 40
0.0
 40
0.0
 40
0.0
 40
0.0
 40
0.5156200846446064
 40
0.5156200846446064
 40
0.5156200846446064
 40
0.5156200846446064
 10
24.40380419022286
 20
-15.30247059731508
 30
0.0
 10
24.57566980298777
 20
-15.3041026386198
 30
0.0
 10
24.60284759723311
 20
-15.02013662921244
 30
0.0
 10
24.67637818871414
 20
-14.86478636520774
 30
0.0
 11
24.40380419022286
 21
-15.30247059731508
 31
0.0
 11
24.67637818871414
 21
-14.86478636520774
 31
0.0
  0
SPLINE
  5
1B8
330
1F
100
AcDbEntity
  8
0
  6
Continuous
 62
     7
100
AcDbSpline
210
0.0
220
0.0
230
1.0
 70
     8
 71
     3
 72
    11
 73
     7
 74
     5
 42
0.0000000001
 43
0.0000000001
 44
0.0000000001
 12
0.9303152186244692
 22
-0.3667609493876166
 32
0.0
 13
0.9877759720524846
 23
0.1558801752493539
 33
0.0
 40
0.0
 40
0.0
 40
0.0
 40
0.0
 40
0.4370447593081369
 40
1.338405927540761
 40
2.140706974460321
 40
2.680071842823521
 40
2.680071842823521
 40
2.680071842823521
 40
2.680071842823521
 10
25.64968206324418
 20
-15.70596684737095
 30
0.0
 10
25.78521186017899
 20
-15.75939716432053
 30
0.0
 10
26.2673317112875
 20
-15.8184948291965
 30
0.0
 10
26.7994851733493
 20
-15.24420657383603
 30
0.0
 10
27.44750254744603
 20
-14.87714033563631
 30
0.0
 10
27.88635801077204
 20
-14.76562513557086
 30
0.0
 10
28.06394856315151
 20
-14.73759970550292
 30
0.0
 11
25.64968206324418
 21
-15.70596684737095
 31
0.0
 11
26.08414459228516
 21
-15.75340557098389
 31
0.0
 11
26.84333610534668
 21
-15.26752471923828
 31
0.0
 11
27.54179000854492
 21
-14.87274742126465
 31
0.0
 11
28.06394856315151
 21
-14.73759970550292
 31
0.0
  0
ELLIPSE
  5
1B9
330
1F
100
AcDbEntity
  8
0
  6
Continuous
 62
     7
100
AcDbEllipse
 10
-32.41541385650635
 20
45.7035026550293
 30
0.0
 11
3.999999931542902
 21
0.0
 31
0.0
210
0.0
220
0.0
230
1.0
 40
0.185567013785305
 41
3.221698284780276
 42
4.894957135393522
  0
ELLIPSE
  5
1BA
330
1F
100
AcDbEntity
  8
0
  6
Continuous
 62
     7
100
AcDbEllipse
 10
-27.70819473266602
 20
44.90164566040039
 30
0.0
 11
3.999999931542902
 21
0.0
 31
0.0
210
0.0
220
0.0
230
1.0
 40
0.185567013785305
 41
3.044579585872569
 42
4.712389792294866
  0
ELLIPSE
  5
1BB
330
1F
100
AcDbEntity
  8
0
  6
Continuous
 62
     7
100
AcDbEllipse
 10
-32.41541385650635
 20
48.37017059326172
 30
0.0
 11
3.999999931542902
 21
0.0
 31
0.0
210
0.0
220
0.0
230
1.0
 40
0.185567013785305
 41
3.221698284780276
 42
4.89495713539352
  0
ELLIPSE
  5
1BC
330
1F
100
AcDbEntity
  8
0
  6
Continuous
 62
     7
100
AcDbEllipse
 10
-27.70819473266602
 20
47.56830978393555
 30
0.0
 11
3.999999931542902
 21
0.0
 31
0.0
210
0.0
220
0.0
230
1.0
 40
0.185567013785305
 41
3.044579585872587
 42
4.71238898038469
  0
ELLIPSE
  5
1BD
330
1F
100
AcDbEntity
  8
0
  6
Continuous
 62
     7
100
AcDbEllipse
 10
-20.70819473266602
 20
47.56830978393555
 30
0.0
 11
-3.999999931542902
 21
0.0
 31
0.0
210
0.0
220
0.0
230
1.0
 40
0.185567013785305
 41
1.570796326794896
 42
3.238605721307008
  0
ELLIPSE
  5
1BE
330
1F
100
AcDbEntity
  8
0
  6
Continuous
 62
     7
100
AcDbEllipse
 10
-20.70819473266602
 20
44.90164566040039
 30
0.0
 11
-3.999999931542902
 21
0.0
 31
0.0
210
0.0
220
0.0
230
1.0
 40
0.185567013785305
 41
1.570797138705073
 42
3.238605721306999
  0
ELLIPSE
  5
1BF
330
1F
100
AcDbEntity
  8
0
  6
Continuous
 62
     7
100
AcDbEllipse
 10
-16.00097608566284
 20
45.7035026550293
 30
0.0
 11
-3.999999931542902
 21
0.0
 31
0.0
210
0.0
220
0.0
230
1.0
 40
0.185567013785305
 41
1.388228274855256
 42
3.061487723424565
  0
ELLIPSE
  5
1C0
330
1F
100
AcDbEntity
  8
0
  6
Continuous
 62
     7
100
AcDbEllipse
 10
-16.00097608566284
 20
48.37017059326172
 30
0.0
 11
-3.999999931542902
 21
0.0
 31
0.0
210
0.0
220
0.0
230
1.0
 40
0.185567013785305
 41
1.388228274855257
 42
3.061487723424558
  0
DIMENSION
  5
1C1
330
1F
100
AcDbEntity
  8
0
 62
     7
100
AcDbDimension
  2
*D2
 10
51.21017456054688
 20
91.7907485961914
 30
0.0
 11
51.21017456054688
 21
61.87508065795898
 31
0.0
 70
   160
  1
179.5
 71
     5
 42
59.83333396911622
  3
ISO-25
100
AcDbAlignedDimension
 13
-24.20819473266602
 23
31.9574146270752
 33
0.0
 14
0.375135481357574
 24
91.7907485961914
 34
0.0
 50
270.0
100
AcDbRotatedDimension
1001
ACAD
1000
DSTYLE
1002
{
1070
   178
1070
     1
1070
   278
1070
    46
1070
   147
1040
0.800000011920929
1070
    77
1070
     1
1070
    74
1070
     0
1070
    73
1070
     0
1070
    42
1040
2.54
1070
    44
1040
2.0
1070
    76
1070
     0
1070
    75
1070
     0
1070
   279
1070
     0
1070
   271
1070
     1
1070
   173
1070
     1
1070
    41
1040
3.0
1070
   140
1040
3.200000047683716
1070
   344
1005
1C2
1070
   343
1005
1C2
1002
}
  0
DIMENSION
  5
1D5
330
1F
100
AcDbEntity
  8
0
 62
     7
100
AcDbDimension
  2
*D3
 10
37.87683868408203
 20
69.62408447265625
 30
0.0
 11
37.87683868408203
 21
50.7917485961914
 31
0.0
 70
   160
  1
113
 71
     5
 42
37.66666984558105
  3
ISO-25
100
AcDbAlignedDimension
 13
-24.20819473266602
 23
31.9574146270752
 33
0.0
 14
4.671331405639648
 24
69.62408447265625
 34
0.0
 50
270.0
100
AcDbRotatedDimension
1001
ACAD
1000
DSTYLE
1002
{
1070
   178
1070
     1
1070
   278
1070
    46
1070
   147
1040
0.800000011920929
1070
    77
1070
     1
1070
    74
1070
     0
1070
    73
1070
     0
1070
    42
1040
2.54
1070
    44
1040
2.0
1070
    76
1070
     0
1070
    75
1070
     1
1070
   279
1070
     0
1070
   271
1070
     0
1070
   173
1070
     1
1070
    41
1040
3.0
1070
   140
1040
3.200000047683716
1070
   344
1005
1C2
1070
   343
1005
1C2
1002
}
  0
DIMENSION
  5
1E1
330
1F
100
AcDbEntity
  8
0
 62
     7
100
AcDbDimension
  2
*D4
 10
37.87683868408203
 20
91.7907485961914
 30
0.0
 11
37.87683868408203
 21
80.70841271972657
 31
0.0
 70
   160
  1
66.5
 71
     5
 42
22.16666412353516
  3
ISO-25
100
AcDbAlignedDimension
 13
4.671331405639648
 23
69.62408447265625
 33
0.0
 14
0.375135481357574
 24
91.7907485961914
 34
0.0
 50
270.0
100
AcDbRotatedDimension
1001
ACAD
1000
DSTYLE
1002
{
1070
   178
1070
     1
1070
   278
1070
    46
1070
   147
1040
0.800000011920929
1070
    77
1070
     1
1070
    74
1070
     0
1070
    73
1070
     0
1070
    42
1040
2.54
1070
    44
1040
2.0
1070
    76
1070
     1
1070
    75
1070
     1
1070
   279
1070
     0
1070
   271
1070
     1
1070
   173
1070
     1
1070
    41
1040
3.0
1070
   140
1040
3.200000047683716
1070
   344
1005
1C2
1070
   343
1005
1C2
1002
}
  0
DIMENSION
  5
1EC
330
1F
100
AcDbEntity
  8
0
 62
     7
100
AcDbDimension
  2
*D5
 10
24.54450662231445
 20
69.62408447265626
 30
0.0
 11
24.54450662231445
 21
79.17714862430097
 31
0.0
 70
   160
  1
5
 71
     5
 42
1.666664123535166
  3
ISO-25
100
AcDbAlignedDimension
 13
-8.585143089294434
 23
71.2907485961914
 33
0.0
 14
4.671331405639648
 24
69.62408447265625
 34
0.0
 50
90.00000000000001
100
AcDbRotatedDimension
1001
ACAD
1000
DSTYLE
1002
{
1070
   178
1070
     1
1070
   278
1070
    46
1070
   147
1040
0.800000011920929
1070
    77
1070
     1
1070
    74
1070
     0
1070
    73
1070
     0
1070
    42
1040
2.54
1070
    44
1040
2.0
1070
    76
1070
     1
1070
    75
1070
     0
1070
   279
1070
     0
1070
   271
1070
     0
1070
   173
1070
     1
1070
    41
1040
3.0
1070
   140
1040
3.200000047683716
1070
   344
1005
1C2
1070
   343
1005
1C2
1002
}
  0
DIMENSION
  5
202
330
1F
100
AcDbEntity
  8
0
 62
     7
100
AcDbDimension
  2
*D6
 10
60.79180526733398
 20
-58.40838949584961
 30
0.0
 11
51.23873730099201
 21
-58.40838949584961
 31
0.0
 70
   160
  1
5
 71
     5
 42
1.666667938232422
  3
ISO-25
100
AcDbAlignedDimension
 13
59.12513732910156
 23
-42.87131881713867
 33
0.0
 14
60.79180526733398
 24
-59.75133895874023
 34
0.0
 50
180.0
100
AcDbRotatedDimension
1001
ACAD
1000
DSTYLE
1002
{
1070
   178
1070
     1
1070
   278
1070
    46
1070
   147
1040
0.800000011920929
1070
    77
1070
     1
1070
    74
1070
     0
1070
    73
1070
     0
1070
    42
1040
2.54
1070
    44
1040
2.0
1070
    76
1070
     1
1070
    75
1070
     1
1070
   279
1070
     0
1070
   271
1070
     0
1070
   173
1070
     1
1070
    41
1040
3.0
1070
   140
1040
3.200000047683716
1070
   344
1005
1C2
1070
   343
1005
1C2
1002
}
  0
DIMENSION
  5
216
330
1F
100
AcDbEntity
  8
0
 62
     7
100
AcDbDimension
  2
*D7
 10
59.12513732910156
 20
15.3222427368164
 30
0.0
 11
40.29280908203125
 21
15.32224273681641
 31
0.0
 70
   160
  1
113
 71
     5
 42
37.66665649414062
  3
ISO-25
100
AcDbAlignedDimension
 13
21.45848083496094
 23
-11.3759183883667
 33
0.0
 14
59.12513732910156
 24
-26.7089786529541
 34
0.0
 50
180.0
100
AcDbRotatedDimension
1001
ACAD
1000
DSTYLE
1002
{
1070
   178
1070
     1
1070
   278
1070
    46
1070
   147
1040
0.800000011920929
1070
    77
1070
     1
1070
    74
1070
     0
1070
    73
1070
     0
1070
    42
1040
2.54
1070
    44
1040
2.0
1070
    76
1070
     0
1070
    75
1070
     0
1070
   279
1070
     0
1070
   271
1070
     0
1070
   173
1070
     1
1070
    41
1040
3.0
1070
   140
1040
3.200000047683716
1070
   344
1005
1C2
1070
   343
1005
1C2
1002
}
  0
DIMENSION
  5
223
330
1F
100
AcDbEntity
  8
0
 62
     7
100
AcDbDimension
  2
*D8
 10
81.29181671142578
 20
15.3222427368164
 30
0.0
 11
70.20947320556641
 21
15.32224273681641
 31
0.0
 70
   160
  1
66.5
 71
     5
 42
22.16667938232422
  3
ISO-25
100
AcDbAlignedDimension
 13
59.12513732910156
 23
-26.7089786529541
 33
0.0
 14
81.29181671142578
 24
-25.37591743469238
 34
0.0
 50
180.0
100
AcDbRotatedDimension
1001
ACAD
1000
DSTYLE
1002
{
1070
   178
1070
     1
1070
   278
1070
    46
1070
   147
1040
0.800000011920929
1070
    77
1070
     1
1070
    74
1070
     0
1070
    73
1070
     0
1070
    42
1040
2.54
1070
    44
1040
2.0
1070
    76
1070
     0
1070
    75
1070
     1
1070
   279
1070
     0
1070
   271
1070
     1
1070
   173
1070
     1
1070
    41
1040
3.0
1070
   140
1040
3.200000047683716
1070
   344
1005
1C2
1070
   343
1005
1C2
1002
}
  0
DIMENSION
  5
22F
330
1F
100
AcDbEntity
  8
0
 62
     7
100
AcDbDimension
  2
*D9
 10
78.62515258789062
 20
1.98890912532806
 30
0.0
 11
50.67048699951172
 21
1.988909125328064
 31
0.0
 70
   160
  1
117.5
 71
     5
 42
39.16667938232422
  3
ISO-25
100
AcDbAlignedDimension
 13
39.45847320556641
 23
-31.0425853729248
 33
0.0
 14
78.62515258789062
 24
-31.0425853729248
 34
0.0
 50
180.0
100
AcDbRotatedDimension
1001
ACAD
1000
DSTYLE
1002
{
1070
   178
1070
     1
1070
   278
1070
    46
1070
   147
1040
0.800000011920929
1070
    77
1070
     1
1070
    74
1070
     0
1070
    73
1070
     0
1070
    42
1040
2.54
1070
    44
1040
1.99999988079071
1070
    76
1070
     0
1070
    75
1070
     0
1070
   279
1070
     0
1070
   271
1070
     1
1070
   173
1070
     1
1070
    41
1040
3.0
1070
   140
1040
3.200000047683716
1070
   344
1005
1C2
1070
   343
1005
1C2
1002
}
  0
DIMENSION
  5
23C
330
1F
100
AcDbEntity
  8
0
 62
     7
100
AcDbDimension
  2
*D11
 10
59.12514231524169
 20
-29.54258711750798
 30
0.0
 11
55.64149854935475
 21
-37.47728683455603
 31
0.0
 70
   164
  1
R52
 71
     5
 42
17.33333230018616
  3
ISO-25
100
AcDbRadialDimension
 15
52.15711867985489
 25
-45.41366317571423
 35
0.0
 40
0.0
1001
ACAD
1000
DSTYLE
1002
{
1070
   178
1070
     1
1070
   278
1070
    46
1070
   147
1040
0.800000011920929
1070
    77
1070
     1
1070
    74
1070
     0
1070
    73
1070
     0
1070
   279
1070
     0
1070
   271
1070
     0
1070
   173
1070
     1
1070
    41
1040
3.0
1070
   140
1040
3.200000047683716
1070
   344
1005
1C2
1070
   343
1005
23D
1002
}
  0
DIMENSION
  5
24C
330
1F
100
AcDbEntity
  8
0
 62
     7
100
AcDbDimension
  2
*D12
 10
18.21277537536622
 20
-46.87591934204102
 30
0.0
 11
18.21277537536621
 21
-38.4582514038086
 31
0.0
 70
   160
  1
50.5
 71
     5
 42
16.83333396911622
  3
ISO-25
100
AcDbAlignedDimension
 13
30.62513732910156
 23
-30.0425853729248
 33
0.0
 14
59.12513732910156
 24
-46.87591934204102
 34
0.0
 50
90.00000000000001
100
AcDbRotatedDimension
1001
ACAD
1000
DSTYLE
1002
{
1070
   178
1070
     1
1070
   278
1070
    46
1070
   147
1040
0.800000011920929
1070
    77
1070
     1
1070
    74
1070
     0
1070
    73
1070
     0
1070
    42
1040
2.54
1070
    44
1040
2.0
1070
    76
1070
     0
1070
    75
1070
     0
1070
   279
1070
     0
1070
   271
1070
     1
1070
   173
1070
     1
1070
    41
1040
3.0
1070
   140
1040
3.200000047683716
1070
   344
1005
1C2
1070
   343
1005
1C2
1002
}
  0
DIMENSION
  5
259
330
1F
100
AcDbEntity
  8
0
 62
     7
100
AcDbDimension
  2
*D13
 10
-10.04152870178223
 20
-106.9415888061523
 30
0.0
 11
-24.20719473266601
 21
-106.9415888061523
 31
0.0
 70
   160
  1
\U+220585
 71
     5
 42
28.33333396911621
  3
ISO-25
100
AcDbAlignedDimension
 13
-38.37486267089844
 23
-75.04258728027344
 33
0.0
 14
-10.04152870178223
 24
-75.04258728027344
 34
0.0
 50
180.0
100
AcDbRotatedDimension
1001
ACAD
1000
DSTYLE
1002
{
1070
   178
1070
     1
1070
   278
1070
    46
1070
   147
1040
0.800000011920929
1070
    77
1070
     1
1070
    74
1070
     0
1070
    73
1070
     0
1070
    42
1040
2.54
1070
    44
1040
1.5
1070
    76
1070
     0
1070
    75
1070
     0
1070
   279
1070
     0
1070
   271
1070
     0
1070
   173
1070
     1
1070
    41
1040
3.0
1070
   140
1040
3.200000047683716
1070
   344
1005
1C2
1070
   343
1005
1C2
1002
}
  0
DIMENSION
  5
266
330
1F
100
AcDbEntity
  8
0
 62
     7
100
AcDbDimension
  2
*D14
 10
-14.39152812957764
 20
-93.6082529296875
 30
0.0
 11
-24.20719473266601
 21
-93.6082529296875
 31
0.0
 70
   160
  1
\U+220559
 71
     5
 42
19.63333225250244
  3
ISO-25
100
AcDbAlignedDimension
 13
-34.02486038208008
 23
-86.94258880615234
 33
0.0
 14
-14.39152812957764
 24
-86.94258880615234
 34
0.0
 50
180.0
100
AcDbRotatedDimension
1001
ACAD
1000
DSTYLE
1002
{
1070
   178
1070
     1
1070
   278
1070
    46
1070
   147
1040
0.800000011920929
1070
    77
1070
     1
1070
    74
1070
     0
1070
    73
1070
     0
1070
    42
1040
2.54
1070
    44
1040
1.5
1070
    76
1070
     0
1070
    75
1070
     0
1070
   279
1070
     0
1070
   271
1070
     0
1070
   173
1070
     1
1070
    41
1040
3.0
1070
   140
1040
3.200000047683716
1070
   344
1005
1C2
1070
   343
1005
1C2
1002
}
  0
DIMENSION
  5
273
330
1F
100
AcDbEntity
  8
0
 62
     7
100
AcDbDimension
  2
*D15
 10
-11.72486019134522
 20
-100.2749170532227
 30
0.0
 11
-24.20719473266601
 21
-100.2749170532227
 31
0.0
 70
   160
  1
\U+220575
 71
     5
 42
24.96666812896729
  3
ISO-25
100
AcDbAlignedDimension
 13
-36.6915283203125
 23
-83.04258728027344
 33
0.0
 14
-11.72486019134521
 24
-83.04258728027344
 34
0.0
 50
180.0
100
AcDbRotatedDimension
1001
ACAD
1000
DSTYLE
1002
{
1070
   178
1070
     1
1070
   278
1070
    46
1070
   147
1040
0.800000011920929
1070
    77
1070
     1
1070
    74
1070
     0
1070
    73
1070
     0
1070
    42
1040
2.54
1070
    44
1040
1.5
1070
    76
1070
     0
1070
    75
1070
     0
1070
   279
1070
     0
1070
   271
1070
     0
1070
   173
1070
     1
1070
    41
1040
3.0
1070
   140
1040
3.200000047683716
1070
   344
1005
1C2
1070
   343
1005
1C2
1002
}
  0
DIMENSION
  5
280
330
1F
100
AcDbEntity
  8
0
 62
     7
100
AcDbDimension
  2
*D16
 10
-61.8728664855957
 20
-30.04258537292481
 30
0.0
 11
-61.87286648559571
 21
-20.70825140380859
 31
0.0
 70
   160
  1
56
 71
     5
 42
18.66666698455809
  3
ISO-25
100
AcDbAlignedDimension
 13
-32.54152679443359
 23
-11.3759183883667
 33
0.0
 14
-49.87485885620117
 24
-30.0425853729248
 34
0.0
 50
90.00000000000001
100
AcDbRotatedDimension
1001
ACAD
1000
DSTYLE
1002
{
1070
   178
1070
     1
1070
   278
1070
    46
1070
   147
1040
0.800000011920929
1070
    77
1070
     1
1070
    74
1070
     0
1070
    73
1070
     0
1070
    42
1040
2.54
1070
    44
1040
1.5
1070
    76
1070
     0
1070
    75
1070
     1
1070
   279
1070
     0
1070
   271
1070
     0
1070
   173
1070
     1
1070
    41
1040
3.0
1070
   140
1040
3.200000047683716
1070
   344
1005
1C2
1070
   343
1005
1C2
1002
}
  0
DIMENSION
  5
28C
330
1F
100
AcDbEntity
  8
0
 62
     7
100
AcDbDimension
  2
*D17
 10
-61.8728664855957
 20
-75.70925140380862
 30
0.0
 11
-61.87286648559571
 21
-52.87491934204102
 31
0.0
 70
   160
  1
137
 71
     5
 42
45.6666660308838
  3
ISO-25
100
AcDbAlignedDimension
 13
-49.87485885620117
 23
-30.0425853729248
 33
0.0
 14
-36.87487411499023
 24
-75.7092514038086
 34
0.0
 50
90.00000000000001
100
AcDbRotatedDimension
1001
ACAD
1000
DSTYLE
1002
{
1070
   178
1070
     1
1070
   278
1070
    46
1070
   147
1040
0.800000011920929
1070
    77
1070
     1
1070
    74
1070
     0
1070
    73
1070
     0
1070
    42
1040
2.54
1070
    44
1040
1.5
1070
    76
1070
     0
1070
    75
1070
     1
1070
   279
1070
     0
1070
   271
1070
     0
1070
   173
1070
     1
1070
    41
1040
3.0
1070
   140
1040
3.200000047683716
1070
   344
1005
1C2
1070
   343
1005
1C2
1002
}
  0
DIMENSION
  5
298
330
1F
100
AcDbEntity
  8
0
 62
     7
100
AcDbDimension
  2
*D18
 10
-61.87286648559571
 20
-83.04258728027345
 30
0.0
 11
-61.87286648559571
 21
-79.37491552734375
 31
0.0
 70
   160
  1
22
 71
     5
 42
7.333335876464844
  3
ISO-25
100
AcDbAlignedDimension
 13
-36.87487411499023
 23
-75.7092514038086
 33
0.0
 14
-36.6915283203125
 24
-83.04258728027344
 34
0.0
 50
90.00000000000001
100
AcDbRotatedDimension
1001
ACAD
1000
DSTYLE
1002
{
1070
   178
1070
     1
1070
   278
1070
    46
1070
   147
1040
0.800000011920929
1070
    77
1070
     1
1070
    74
1070
     0
1070
    73
1070
     0
1070
    42
1040
2.54
1070
    44
1040
1.5
1070
    76
1070
     0
1070
    75
1070
     1
1070
   279
1070
     0
1070
   271
1070
     0
1070
   173
1070
     1
1070
    41
1040
3.0
1070
   140
1040
3.200000047683716
1070
   344
1005
23D
1070
   343
1005
1C2
1002
}
  0
DIMENSION
  5
2A4
330
1F
100
AcDbEntity
  8
0
 62
     7
100
AcDbDimension
  2
*D20
 10
-61.87386648559571
 20
-86.94258880615236
 30
0.0
 11
-61.87386648559571
 21
-95.20018885350228
 31
0.0
 70
   160
  1
12
 71
     5
 42
3.900001525878908
  3
ISO-25
100
AcDbAlignedDimension
 13
-36.6915283203125
 23
-83.04258728027344
 33
0.0
 14
-34.02486038208008
 24
-86.94258880615234
 34
0.0
 50
90.00000000000001
100
AcDbRotatedDimension
1001
ACAD
1000
DSTYLE
1002
{
1070
   178
1070
     1
1070
   278
1070
    46
1070
   147
1040
0.800000011920929
1070
    77
1070
     1
1070
    74
1070
     0
1070
    73
1070
     0
1070
    42
1040
2.54
1070
    44
1040
1.0
1070
    76
1070
     1
1070
    75
1070
     1
1070
   279
1070
     0
1070
   271
1070
     0
1070
   173
1070
     1
1070
    41
1040
2.54
1070
   140
1040
3.200000047683716
1070
   344
1005
2A5
1070
   343
1005
2A5
1002
}
  0
DIMENSION
  5
2B7
330
1F
100
AcDbEntity
  8
0
 62
     7
100
AcDbDimension
  2
*D21
 10
-68.54053442382812
 20
-11.3759183883667
 30
0.0
 11
-68.54053442382812
 21
-49.15825216674805
 31
0.0
 70
   160
  1
227
 71
     5
 42
75.56667041778564
  3
ISO-25
100
AcDbAlignedDimension
 13
-34.02486038208008
 23
-86.94258880615234
 33
0.0
 14
-32.54152679443359
 24
-11.3759183883667
 34
0.0
 50
270.0
100
AcDbRotatedDimension
1001
ACAD
1000
DSTYLE
1002
{
1070
   178
1070
     1
1070
   278
1070
    46
1070
   147
1040
0.800000011920929
1070
    77
1070
     1
1070
    74
1070
     0
1070
    73
1070
     0
1070
    42
1040
2.54
1070
    44
1040
1.5
1070
    76
1070
     0
1070
    75
1070
     0
1070
   279
1070
     0
1070
   271
1070
     0
1070
   173
1070
     1
1070
    41
1040
3.0
1070
   140
1040
3.200000047683716
1070
   344
1005
1C2
1070
   343
1005
1C2
1002
}
  0
DIMENSION
  5
2C4
330
1F
100
AcDbEntity
  8
0
 62
     7
100
AcDbDimension
  2
*D22
 10
10.12513828277588
 20
1.98890912532806
 30
0.0
 11
-24.20719854736328
 21
1.988909125328064
 31
0.0
 70
   160
  1
206
 71
     5
 42
68.66667270660402
  3
ISO-25
100
AcDbAlignedDimension
 13
-58.54153442382812
 23
-13.04258441925049
 33
0.0
 14
10.12513828277588
 24
-13.0425853729248
 34
0.0
 50
180.0
100
AcDbRotatedDimension
1001
ACAD
1000
DSTYLE
1002
{
1070
   178
1070
     1
1070
   278
1070
    46
1070
   147
1040
0.800000011920929
1070
    77
1070
     1
1070
    74
1070
     0
1070
    73
1070
     0
1070
    42
1040
2.54
1070
    44
1040
1.50000011920929
1070
    76
1070
     0
1070
    75
1070
     0
1070
   279
1070
     0
1070
   271
1070
     0
1070
   173
1070
     1
1070
    41
1040
3.0
1070
   140
1040
3.200000047683716
1070
   344
1005
1C2
1070
   343
1005
1C2
1002
}
  0
POINT
  5
2D2
330
1F
100
AcDbEntity
  8
VIEW0001
 62
     7
100
AcDbPoint
 10
105.0
 20
-148.5
 30
0.0
  0
LWPOLYLINE
  5
2D3
330
1F
100
AcDbEntity
  8
VIEW0001
  6
Continuous
 62
     7
100
AcDbPolyline
 90
        2
 70
     0
 10
25.75
 20
-129.0
 40
0.001000000047497
 41
0.001000000047497
 10
25.75
 20
-120.0
 40
0.001000000047497
 41
0.001000000047497
  0
LWPOLYLINE
  5
2D4
330
1F
100
AcDbEntity
  8
VIEW0001
  6
Continuous
 62
     7
100
AcDbPolyline
 90
        2
 70
     0
 10
-64.5
 20
-138.0
 40
0.001000000047497
 41
0.001000000047497
 10
-64.5
 20
-120.0
 40
0.001000000047497
 41
0.001000000047497
  0
LINE
  5
2D5
330
1F
100
AcDbEntity
  8
VIEW0001
  6
Continuous
 62
     7
370
    50
100
AcDbLine
 10
-84.5
 20
138.0
 30
0.0
 11
-84.5
 21
-138.0
 31
0.0
  0
LINE
  5
2D6
330
1F
100
AcDbEntity
  8
VIEW0001
  6
Continuous
 62
     7
370
    50
100
AcDbLine
 10
96.0
 20
138.0
 30
0.0
 11
96.0
 21
-138.0
 31
0.0
  0
LINE
  5
2D7
330
1F
100
AcDbEntity
  8
VIEW0001
  6
Continuous
 62
     7
370
    50
100
AcDbLine
 10
-84.5
 20
-138.0
 30
0.0
 11
96.0
 21
-138.0
 31
0.0
  0
LINE
  5
2D8
330
1F
100
AcDbEntity
  8
VIEW0001
  6
Continuous
 62
     7
370
    50
100
AcDbLine
 10
-84.5
 20
138.0
 30
0.0
 11
96.0
 21
138.0
 31
0.0
  0
LINE
  5
2D9
330
1F
100
AcDbEntity
  8
VIEW0001
  6
Continuous
 62
     7
370
    20
100
AcDbLine
 10
-84.5
 20
-120.0
 30
0.0
 11
96.0
 21
-120.0
 31
0.0
  0
LWPOLYLINE
  5
2DA
330
1F
100
AcDbEntity
  8
VIEW0001
  6
Continuous
 62
     7
100
AcDbPolyline
 90
        2
 70
     0
 10
96.0
 20
-129.0
 40
0.001000000047497
 41
0.001000000047497
 10
-84.5
 20
-129.0
 40
0.001000000047497
 41
0.001000000047497
  0
LINE
  5
2DB
330
1F
100
AcDbEntity
  8
VIEW0001
  6
Continuous
 62
     7
370
    20
100
AcDbLine
 10
41.0
 20
128.0
 30
0.0
 11
96.0
 21
128.0
 31
0.0
  0
LINE
  5
2DC
330
1F
100
AcDbEntity
  8
VIEW0001
  6
Continuous
 62
     7
370
    20
100
AcDbLine
 10
41.0
 20
138.0
 30
0.0
 11
41.0
 21
128.0
 31
0.0
  0
LWPOLYLINE
  5
2DD
330
1F
100
AcDbEntity
  8
VIEW0001
  6
Continuous
 62
     7
100
AcDbPolyline
 90
        2
 70
     0
 10
5.75
 20
-138.0
 40
0.001000000047497
 41
0.001000000047497
 10
5.75
 20
-120.0
 40
0.001000000047497
 41
0.001000000047497
  0
LWPOLYLINE
  5
2DE
330
1F
100
AcDbEntity
  8
VIEW0001
  6
Continuous
 62
     7
100
AcDbPolyline
 90
        2
 70
     0
 10
66.0
 20
-129.0
 40
0.001000000047497
 41
0.001000000047497
 10
66.0
 20
-120.0
 40
0.001000000047497
 41
0.001000000047497
  0
LWPOLYLINE
  5
2DF
330
1F
100
AcDbEntity
  8
VIEW0001
  6
Continuous
 62
     7
100
AcDbPolyline
 90
        2
 70
     0
 10
81.0
 20
-129.0
 40
0.001000000047497
 41
0.001000000047497
 10
81.0
 20
-120.0
 40
0.001000000047497
 41
0.001000000047497
  0
MTEXT
  5
2E0
330
1F
100
AcDbEntity
  8
VIEW0001
 62
     1
100
AcDbMText
 10
-77.92875003814697
 20
-135.5
 30
0.0
 40
4.0
 41
0.0
 71
     7
 72
     1
  1
{\W0.833333;規格}
 73
     1
 44
1.0
  0
MTEXT
  5
2E1
330
1F
100
AcDbEntity
  8
VIEW0001
 62
     1
100
AcDbMText
 10
12.32124996185303
 20
-126.5
 30
0.0
 40
4.0
 41
0.0
 71
     7
 72
     1
  1
{\W0.833333;材質}
 73
     1
 44
1.0
  0
MTEXT
  5
2E2
330
1F
100
AcDbEntity
  8
VIEW0001
 62
     1
100
AcDbMText
 10
-77.92875003814697
 20
-126.5
 30
0.0
 40
4.0
 41
0.0
 71
     7
 72
     1
  1
{\W0.833333;品名}
 73
     1
 44
1.0
  0
MTEXT
  5
2E3
330
1F
100
AcDbEntity
  8
VIEW0001
 62
     1
100
AcDbMText
 10
70.07124996185303
 20
-126.5
 30
0.0
 40
4.0
 41
0.0
 71
     7
 72
     1
  1
{\W0.833333;尺度}
 73
     1
 44
1.0
  0
MTEXT
  5
2E4
330
1F
100
AcDbEntity
  8
VIEW0001
 62
     1
100
AcDbMText
 10
26.46785604953766
 20
-135.75
 30
0.0
 40
4.5
 41
0.0
 71
     7
 72
     1
  1
{\W1.40741;デンカ株式会社}
 73
     1
 44
1.0
  0
MTEXT
  5
2E5
330
1F
100
AcDbEntity
  8
VIEW0001
 62
     1
100
AcDbMText
 10
36.44624972343445
 20
-126.5
 30
0.0
 40
4.0
 41
0.0
 71
     7
 72
     1
  1
{\W0.833333;硬質ＰＶＣ}
 73
     1
 44
1.0
  0
MTEXT
  5
2E6
330
1F
100
AcDbEntity
  8
VIEW0001
 62
     1
100
AcDbMText
 10
83.07124984264374
 20
-126.5
 30
0.0
 40
4.0
 41
0.0
 71
     7
 72
     1
  1
{\W0.833333;1/3}
 73
     1
 44
1.0
  0
MTEXT
  5
2E7
330
1F
100
AcDbEntity
  8
VIEW0001
 62
     1
100
AcDbMText
 10
-48.80375057458878
 20
-135.5
 30
0.0
 40
4.0
 41
0.0
 71
     7
 72
     1
  1
{\W0.833333;１０５-６０(75)}
 73
     1
 44
1.0
  0
MTEXT
  5
2E8
330
1F
100
AcDbEntity
  8
VIEW0001
 62
     1
100
AcDbMText
 10
-40.8037503361702
 20
-126.5
 30
0.0
 40
4.0
 41
0.0
 71
     7
 72
     1
  1
{\W0.833333;静海じょうご}
 73
     1
 44
1.0
  0
ENDSEC
  0
SECTION
  2
OBJECTS
  0
DICTIONARY
  5
C
330
0
100
AcDbDictionary
281
     1
  3
ACAD_GROUP
350
D
  3
ACAD_LAYOUT
350
1A
  3
ACAD_MATERIAL
350
3B
  3
ACAD_MLEADERSTYLE
350
310
  3
ACAD_MLINESTYLE
350
17
  3
ACAD_PLOTSETTINGS
350
19
  3
ACAD_PLOTSTYLENAME
350
E
  3
ACAD_TABLESTYLE
350
30F
  3
ACAD_VISUALSTYLE
350
2A
  0
DICTIONARY
  5
D
102
{ACAD_REACTORS
330
C
102
}
330
C
100
AcDbDictionary
281
     1
  0
DICTIONARY
  5
1A
102
{ACAD_REACTORS
330
C
102
}
330
C
100
AcDbDictionary
281
     1
  3
Layout1
350
1E
  3
Layout2
350
26
  3
Model
350
22
  0
DICTIONARY
  5
3B
102
{ACAD_REACTORS
330
C
102
}
330
C
100
AcDbDictionary
281
     1
  3
ByBlock
350
3D
  3
ByLayer
350
3C
  3
Global
350
3E
  0
DICTIONARY
  5
310
102
{ACAD_REACTORS
330
C
102
}
330
C
100
AcDbDictionary
281
     1
  0
DICTIONARY
  5
17
102
{ACAD_REACTORS
330
C
102
}
330
C
100
AcDbDictionary
281
     1
  3
Standard
350
18
  0
DICTIONARY
  5
19
102
{ACAD_REACTORS
330
C
102
}
330
C
100
AcDbDictionary
281
     1
  0
ACDBDICTIONARYWDFLT
  5
E
102
{ACAD_REACTORS
330
C
102
}
330
C
100
AcDbDictionary
281
     1
  3
Normal
350
F
100
AcDbDictionaryWithDefault
340
F
  0
DICTIONARY
  5
30F
102
{ACAD_REACTORS
330
C
102
}
330
C
100
AcDbDictionary
281
     1
  0
DICTIONARY
  5
2A
102
{ACAD_REACTORS
330
C
102
}
330
C
100
AcDbDictionary
281
     1
  3
2dWireframe
350
2F
  3
3D Hidden
350
31
  3
3dWireframe
350
30
  3
Basic
350
32
  3
Brighten
350
36
  3
ColorChange
350
3A
  3
Conceptual
350
34
  3
Dim
350
35
  3
Facepattern
350
39
  3
Flat
350
2B
  3
FlatWithEdges
350
2C
  3
Gouraud
350
2D
  3
GouraudWithEdges
350
2E
  3
Linepattern
350
38
  3
Realistic
350
33
  3
Thicken
350
37
  0
LAYOUT
  5
1E
102
{ACAD_REACTORS
330
1A
102
}
330
1A
100
AcDbPlotSettings
  1

  2
none_device
  4

  6

 40
0.0
 41
0.0
 42
0.0
 43
0.0
 44
0.0
 45
0.0
 46
0.0
 47
0.0
 48
0.0
 49
0.0
140
0.0
141
0.0
142
1.0
143
1.0
 70
   688
 72
     0
 73
     0
 74
     5
  7

 75
    16
 76
     0
 77
     2
 78
   300
147
1.0
148
0.0
149
0.0
100
AcDbLayout
  1
Layout1
 70
     1
 71
     1
 10
-105.0
 20
-148.5
 11
105.0
 21
148.5
 12
0.0
 22
0.0
 32
0.0
 14
1.000000000000000E+20
 24
1.000000000000000E+20
 34
1.000000000000000E+20
 15
-1.000000000000000E+20
 25
-1.000000000000000E+20
 35
-1.000000000000000E+20
146
0.0
 13
0.0
 23
0.0
 33
0.0
 16
1.0
 26
0.0
 36
0.0
 17
0.0
 27
1.0
 37
0.0
 76
     0
330
1B
  0
LAYOUT
  5
26
102
{ACAD_REACTORS
330
1A
102
}
330
1A
100
AcDbPlotSettings
  1

  2
none_device
  4

  6

 40
0.0
 41
0.0
 42
0.0
 43
0.0
 44
0.0
 45
0.0
 46
0.0
 47
0.0
 48
0.0
 49
0.0
140
0.0
141
0.0
142
1.0
143
1.0
 70
   688
 72
     0
 73
     0
 74
     5
  7

 75
    16
 76
     0
 77
     2
 78
   300
147
1.0
148
0.0
149
0.0
100
AcDbLayout
  1
Layout2
 70
     1
 71
     2
 10
0.0
 20
0.0
 11
0.0
 21
0.0
 12
0.0
 22
0.0
 32
0.0
 14
0.0
 24
0.0
 34
0.0
 15
0.0
 25
0.0
 35
0.0
146
0.0
 13
0.0
 23
0.0
 33
0.0
 16
1.0
 26
0.0
 36
0.0
 17
0.0
 27
1.0
 37
0.0
 76
     0
330
23
  0
LAYOUT
  5
22
102
{ACAD_REACTORS
330
1A
102
}
330
1A
100
AcDbPlotSettings
  1

  2
none_device
  4

  6

 40
0.0
 41
0.0
 42
0.0
 43
0.0
 44
0.0
 45
0.0
 46
0.0
 47
0.0
 48
0.0
 49
0.0
140
0.0
141
0.0
142
1.0
143
1.0
 70
  1712
 72
     0
 73
     0
 74
     0
  7

 75
     0
 76
     0
 77
     2
 78
   300
147
1.0
148
0.0
149
0.0
100
AcDbLayout
  1
Model
 70
     1
 71
     0
 10
-105.0
 20
-148.5
 11
105.0
 21
148.5
 12
0.0
 22
0.0
 32
0.0
 14
-105.0
 24
-148.5
 34
0.0
 15
105.0
 25
148.5
 35
0.0
146
0.0
 13
0.0
 23
0.0
 33
0.0
 16
1.0
 26
0.0
 36
0.0
 17
0.0
 27
1.0
 37
0.0
 76
     0
330
1F
331
29
  0
MATERIAL
  5
3D
102
{ACAD_REACTORS
330
3B
102
}
102
{ACAD_XDICTIONARY
360
30B
102
}
330
3B
100
AcDbMaterial
  1
ByBlock
  0
MATERIAL
  5
3C
102
{ACAD_REACTORS
330
3B
102
}
102
{ACAD_XDICTIONARY
360
309
102
}
330
3B
100
AcDbMaterial
  1
ByLayer
  0
MATERIAL
  5
3E
102
{ACAD_REACTORS
330
3B
102
}
102
{ACAD_XDICTIONARY
360
30D
102
}
330
3B
100
AcDbMaterial
  1
Global
  0
MLINESTYLE
  5
18
102
{ACAD_REACTORS
330
17
102
}
330
17
100
AcDbMlineStyle
  2
Standard
 70
     0
  3

 62
   256
 51
90.0
 52
90.0
 71
     2
 49
0.5
 62
   256
  6
BYLAYER
 49
-0.5
 62
   256
  6
BYLAYER
  0
ACDBPLACEHOLDER
  5
F
102
{ACAD_REACTORS
330
E
102
}
330
E
  0
VISUALSTYLE
  5
2F
102
{ACAD_REACTORS
330
2A
102
}
102
{ACAD_XDICTIONARY
360
2F1
102
}
330
2A
100
AcDbVisualStyle
  2
2dWireframe
 70
     4
 71
     0
 72
     2
 73
     0
 90
        0
 40
-0.6
 41
-30.0
 62
     5
 63
     7
421
 16777215
 74
     1
 91
        4
 64
     7
 65
   257
 75
     1
175
     1
 42
1.0
 92
        0
 66
   257
 43
1.0
 76
     1
 77
     6
 78
     2
 67
     7
 79
     5
170
     0
171
     0
290
     0
174
     0
 93
        1
 44
0.0
173
     0
291
     0
 45
0.0
1001
ACAD
1000
AcDbSavedByObjectVersion
1070
     0
  0
VISUALSTYLE
  5
31
102
{ACAD_REACTORS
330
2A
102
}
102
{ACAD_XDICTIONARY
360
2F5
102
}
330
2A
100
AcDbVisualStyle
  2
3D Hidden
 70
     6
 71
     1
 72
     2
 73
     2
 90
        0
 40
-0.6
 41
-30.0
 62
     5
 63
     7
421
 16777215
 74
     2
 91
        2
 64
     7
 65
   257
 75
     2
175
     1
 42
40.0
 92
        0
 66
   257
 43
1.0
 76
     1
 77
     6
 78
     2
 67
     7
 79
     3
170
     0
171
     0
290
     0
174
     0
 93
        1
 44
0.0
173
     0
291
     0
 45
0.0
1001
ACAD
1000
AcDbSavedByObjectVersion
1070
     0
  0
VISUALSTYLE
  5
30
102
{ACAD_REACTORS
330
2A
102
}
102
{ACAD_XDICTIONARY
360
2F3
102
}
330
2A
100
AcDbVisualStyle
  2
3dWireframe
 70
     5
 71
     0
 72
     2
 73
     0
 90
        0
 40
-0.6
 41
-30.0
 62
     5
 63
     7
421
 16777215
 74
     1
 91
        4
 64
     7
 65
   257
 75
     1
175
     1
 42
1.0
 92
        0
 66
   257
 43
1.0
 76
     1
 77
     6
 78
     2
 67
     7
 79
     5
170
     0
171
     0
290
     0
174
     0
 93
        1
 44
0.0
173
     0
291
     0
 45
0.0
1001
ACAD
1000
AcDbSavedByObjectVersion
1070
     0
  0
VISUALSTYLE
  5
32
102
{ACAD_REACTORS
330
2A
102
}
102
{ACAD_XDICTIONARY
360
2F7
102
}
330
2A
100
AcDbVisualStyle
  2
Basic
 70
     7
 71
     1
 72
     0
 73
     1
 90
        0
 40
-0.6
 41
-30.0
 62
     5
 63
     7
421
 16777215
 74
     0
 91
        4
 64
     7
 65
   257
 75
     1
175
     1
 42
1.0
 92
        8
 66
     7
 43
1.0
 76
     1
 77
     6
 78
     2
 67
     7
 79
     5
170
     0
171
     0
290
     0
174
     0
 93
        1
 44
0.0
173
     0
291
     1
 45
0.0
1001
ACAD
1000
AcDbSavedByObjectVersion
1070
     0
  0
VISUALSTYLE
  5
36
102
{ACAD_REACTORS
330
2A
102
}
102
{ACAD_XDICTIONARY
360
2FF
102
}
330
2A
100
AcDbVisualStyle
  2
Brighten
 70
    12
 71
     2
 72
     2
 73
     0
 90
        0
 40
-0.6
 41
-30.0
 62
     5
 63
     7
421
 16777215
 74
     1
 91
        4
 64
     7
 65
   257
 75
     1
175
     1
 42
1.0
 92
        8
 66
     7
 43
1.0
 76
     1
 77
     6
 78
     2
 67
     7
 79
     5
170
     0
171
     0
290
     0
174
     0
 93
        1
 44
50.0
173
     0
291
     1
 45
0.0
1001
ACAD
1000
AcDbSavedByObjectVersion
1070
     0
  0
VISUALSTYLE
  5
3A
102
{ACAD_REACTORS
330
2A
102
}
102
{ACAD_XDICTIONARY
360
307
102
}
330
2A
100
AcDbVisualStyle
  2
ColorChange
 70
    16
 71
     2
 72
     2
 73
     3
 90
        0
 40
-0.6
 41
-30.0
 62
     5
 63
     8
421
  8421504
 74
     1
 91
        4
 64
     7
 65
   257
 75
     1
175
     1
 42
1.0
 92
        8
 66
     8
424
  8421504
 43
1.0
 76
     1
 77
     6
 78
     2
 67
     7
 79
     5
170
     0
171
     0
290
     0
174
     0
 93
        1
 44
0.0
173
     0
291
     1
 45
0.0
1001
ACAD
1000
AcDbSavedByObjectVersion
1070
     0
  0
VISUALSTYLE
  5
34
102
{ACAD_REACTORS
330
2A
102
}
102
{ACAD_XDICTIONARY
360
2FB
102
}
330
2A
100
AcDbVisualStyle
  2
Conceptual
 70
     9
 71
     3
 72
     2
 73
     0
 90
        0
 40
-0.6
 41
-30.0
 62
     5
 63
     7
421
 16777215
 74
     2
 91
        2
 64
     7
 65
   257
 75
     1
175
     1
 42
40.0
 92
        8
 66
     7
 43
1.0
 76
     1
 77
     6
 78
     2
 67
     7
 79
     3
170
     0
171
     0
290
     0
174
     0
 93
        1
 44
0.0
173
     0
291
     0
 45
0.0
1001
ACAD
1000
AcDbSavedByObjectVersion
1070
     0
  0
VISUALSTYLE
  5
35
102
{ACAD_REACTORS
330
2A
102
}
102
{ACAD_XDICTIONARY
360
2FD
102
}
330
2A
100
AcDbVisualStyle
  2
Dim
 70
    11
 71
     2
 72
     2
 73
     0
 90
        0
 40
-0.6
 41
-30.0
 62
     5
 63
     7
421
 16777215
 74
     1
 91
        4
 64
     7
 65
   257
 75
     1
175
     1
 42
1.0
 92
        8
 66
     7
 43
1.0
 76
     1
 77
     6
 78
     2
 67
     7
 79
     5
170
     0
171
     0
290
     0
174
     0
 93
        1
 44
-50.0
173
     0
291
     1
 45
0.0
1001
ACAD
1000
AcDbSavedByObjectVersion
1070
     0
  0
VISUALSTYLE
  5
39
102
{ACAD_REACTORS
330
2A
102
}
102
{ACAD_XDICTIONARY
360
305
102
}
330
2A
100
AcDbVisualStyle
  2
Facepattern
 70
    15
 71
     2
 72
     2
 73
     0
 90
        0
 40
-0.6
 41
-30.0
 62
     5
 63
     7
421
 16777215
 74
     1
 91
        4
 64
     7
 65
   257
 75
     1
175
     1
 42
1.0
 92
        8
 66
     7
 43
1.0
 76
     1
 77
     6
 78
     2
 67
     7
 79
     5
170
     0
171
     0
290
     0
174
     0
 93
        1
 44
0.0
173
     0
291
     1
 45
0.0
1001
ACAD
1000
AcDbSavedByObjectVersion
1070
     0
  0
VISUALSTYLE
  5
2B
102
{ACAD_REACTORS
330
2A
102
}
102
{ACAD_XDICTIONARY
360
2E9
102
}
330
2A
100
AcDbVisualStyle
  2
Flat
 70
     0
 71
     2
 72
     1
 73
     1
 90
        2
 40
-0.6
 41
30.0
 62
     5
 63
     7
421
 16777215
 74
     0
 91
        4
 64
     7
 65
   257
 75
     1
175
     1
 42
1.0
 92
        8
 66
     7
 43
1.0
 76
     1
 77
     6
 78
     2
 67
     7
 79
     5
170
     0
171
     0
290
     0
174
     0
 93
       13
 44
0.0
173
     0
291
     1
 45
0.0
1001
ACAD
1000
AcDbSavedByObjectVersion
1070
     0
  0
VISUALSTYLE
  5
2C
102
{ACAD_REACTORS
330
2A
102
}
102
{ACAD_XDICTIONARY
360
2EB
102
}
330
2A
100
AcDbVisualStyle
  2
FlatWithEdges
 70
     1
 71
     2
 72
     1
 73
     1
 90
        2
 40
-0.6
 41
30.0
 62
     5
 63
     7
421
 16777215
 74
     1
 91
        4
 64
     7
 65
   257
 75
     1
175
     1
 42
1.0
 92
        0
 66
   257
 43
1.0
 76
     1
 77
     6
 78
     2
 67
     7
 79
     5
170
     0
171
     0
290
     0
174
     0
 93
       13
 44
0.0
173
     0
291
     1
 45
0.0
1001
ACAD
1000
AcDbSavedByObjectVersion
1070
     0
  0
VISUALSTYLE
  5
2D
102
{ACAD_REACTORS
330
2A
102
}
102
{ACAD_XDICTIONARY
360
2ED
102
}
330
2A
100
AcDbVisualStyle
  2
Gouraud
 70
     2
 71
     2
 72
     2
 73
     1
 90
        2
 40
-0.6
 41
30.0
 62
     5
 63
     7
421
 16777215
 74
     0
 91
        4
 64
     7
 65
   257
 75
     1
175
     1
 42
1.0
 92
        0
 66
     7
 43
1.0
 76
     1
 77
     6
 78
     2
 67
     7
 79
     5
170
     0
171
     0
290
     0
174
     0
 93
       13
 44
0.0
173
     0
291
     1
 45
0.0
1001
ACAD
1000
AcDbSavedByObjectVersion
1070
     0
  0
VISUALSTYLE
  5
2E
102
{ACAD_REACTORS
330
2A
102
}
102
{ACAD_XDICTIONARY
360
2EF
102
}
330
2A
100
AcDbVisualStyle
  2
GouraudWithEdges
 70
     3
 71
     2
 72
     2
 73
     1
 90
        2
 40
-0.6
 41
30.0
 62
     5
 63
     7
421
 16777215
 74
     1
 91
        4
 64
     7
 65
   257
 75
     1
175
     1
 42
1.0
 92
        0
 66
   257
 43
1.0
 76
     1
 77
     6
 78
     2
 67
     7
 79
     5
170
     0
171
     0
290
     0
174
     0
 93
       13
 44
0.0
173
     0
291
     1
 45
0.0
1001
ACAD
1000
AcDbSavedByObjectVersion
1070
     0
  0
VISUALSTYLE
  5
38
102
{ACAD_REACTORS
330
2A
102
}
102
{ACAD_XDICTIONARY
360
303
102
}
330
2A
100
AcDbVisualStyle
  2
Linepattern
 70
    14
 71
     2
 72
     2
 73
     0
 90
        0
 40
-0.6
 41
-30.0
 62
     5
 63
     7
421
 16777215
 74
     1
 91
        4
 64
     7
 65
   257
 75
     7
175
     7
 42
1.0
 92
        8
 66
     7
 43
1.0
 76
     1
 77
     6
 78
     2
 67
     7
 79
     5
170
     0
171
     0
290
     0
174
     0
 93
        1
 44
0.0
173
     0
291
     1
 45
0.0
1001
ACAD
1000
AcDbSavedByObjectVersion
1070
     0
  0
VISUALSTYLE
  5
33
102
{ACAD_REACTORS
330
2A
102
}
102
{ACAD_XDICTIONARY
360
2F9
102
}
330
2A
100
AcDbVisualStyle
  2
Realistic
 70
     8
 71
     2
 72
     2
 73
     0
 90
        0
 40
-0.6
 41
-30.0
 62
     5
 63
     7
421
 16777215
 74
     1
 91
        0
 64
     7
 65
   257
 75
     1
175
     1
 42
1.0
 92
        8
 66
     8
424
  7895160
 43
1.0
 76
     1
 77
     6
 78
     2
 67
     7
 79
     5
170
     0
171
     0
290
     0
174
     0
 93
       13
 44
0.0
173
     0
291
     0
 45
0.0
1001
ACAD
1000
AcDbSavedByObjectVersion
1070
     0
  0
VISUALSTYLE
  5
37
102
{ACAD_REACTORS
330
2A
102
}
102
{ACAD_XDICTIONARY
360
301
102
}
330
2A
100
AcDbVisualStyle
  2
Thicken
 70
    13
 71
     2
 72
     2
 73
     0
 90
        0
 40
-0.6
 41
-30.0
 62
     5
 63
     7
421
 16777215
 74
     1
 91
        4
 64
     7
 65
   257
 75
     1
175
     1
 42
1.0
 92
       12
 66
     7
 43
1.0
 76
     1
 77
     6
 78
     2
 67
     7
 79
     5
170
     0
171
     0
290
     0
174
     0
 93
        1
 44
0.0
173
     0
291
     1
 45
0.0
1001
ACAD
1000
AcDbSavedByObjectVersion
1070
     0
  0
DICTIONARY
  5
30B
330
3D
100
AcDbDictionary
280
     1
281
     1
  3
ACAD_XREC_ROUNDTRIP
360
30C
  0
DICTIONARY
  5
309
330
3C
100
AcDbDictionary
280
     1
281
     1
  3
ACAD_XREC_ROUNDTRIP
360
30A
  0
DICTIONARY
  5
30D
330
3E
100
AcDbDictionary
280
     1
281
     1
  3
ACAD_XREC_ROUNDTRIP
360
30E
  0
DICTIONARY
  5
2F1
330
2F
100
AcDbDictionary
280
     1
281
     1
  3
ACAD_XREC_ROUNDTRIP
360
2F2
  0
DICTIONARY
  5
2F5
330
31
100
AcDbDictionary
280
     1
281
     1
  3
ACAD_XREC_ROUNDTRIP
360
2F6
  0
DICTIONARY
  5
2F3
330
30
100
AcDbDictionary
280
     1
281
     1
  3
ACAD_XREC_ROUNDTRIP
360
2F4
  0
DICTIONARY
  5
2F7
330
32
100
AcDbDictionary
280
     1
281
     1
  3
ACAD_XREC_ROUNDTRIP
360
2F8
  0
DICTIONARY
  5
2FF
330
36
100
AcDbDictionary
280
     1
281
     1
  3
ACAD_XREC_ROUNDTRIP
360
300
  0
DICTIONARY
  5
307
330
3A
100
AcDbDictionary
280
     1
281
     1
  3
ACAD_XREC_ROUNDTRIP
360
308
  0
DICTIONARY
  5
2FB
330
34
100
AcDbDictionary
280
     1
281
     1
  3
ACAD_XREC_ROUNDTRIP
360
2FC
  0
DICTIONARY
  5
2FD
330
35
100
AcDbDictionary
280
     1
281
     1
  3
ACAD_XREC_ROUNDTRIP
360
2FE
  0
DICTIONARY
  5
305
330
39
100
AcDbDictionary
280
     1
281
     1
  3
ACAD_XREC_ROUNDTRIP
360
306
  0
DICTIONARY
  5
2E9
330
2B
100
AcDbDictionary
280
     1
281
     1
  3
ACAD_XREC_ROUNDTRIP
360
2EA
  0
DICTIONARY
  5
2EB
330
2C
100
AcDbDictionary
280
     1
281
     1
  3
ACAD_XREC_ROUNDTRIP
360
2EC
  0
DICTIONARY
  5
2ED
330
2D
100
AcDbDictionary
280
     1
281
     1
  3
ACAD_XREC_ROUNDTRIP
360
2EE
  0
DICTIONARY
  5
2EF
330
2E
100
AcDbDictionary
280
     1
281
     1
  3
ACAD_XREC_ROUNDTRIP
360
2F0
  0
DICTIONARY
  5
303
330
38
100
AcDbDictionary
280
     1
281
     1
  3
ACAD_XREC_ROUNDTRIP
360
304
  0
DICTIONARY
  5
2F9
330
33
100
AcDbDictionary
280
     1
281
     1
  3
ACAD_XREC_ROUNDTRIP
360
2FA
  0
DICTIONARY
  5
301
330
37
100
AcDbDictionary
280
     1
281
     1
  3
ACAD_XREC_ROUNDTRIP
360
302
  0
XRECORD
  5
30C
102
{ACAD_REACTORS
330
30B
102
}
330
30B
100
AcDbXrecord
280
     1
102
MATERIAL
148
0.0
149
0.0
149
0.0
 93
        0
 94
      127
282
     0
 72
     1
 77
     1
171
     1
175
     1
179
     1
273
     0
  0
XRECORD
  5
30A
102
{ACAD_REACTORS
330
309
102
}
330
309
100
AcDbXrecord
280
     1
102
MATERIAL
148
0.0
149
0.0
149
0.0
 93
        0
 94
      127
282
     0
 72
     1
 77
     1
171
     1
175
     1
179
     1
273
     0
  0
XRECORD
  5
30E
102
{ACAD_REACTORS
330
30D
102
}
330
30D
100
AcDbXrecord
280
     1
102
MATERIAL
148
0.0
149
0.0
149
0.0
 93
        0
 94
      127
282
     0
 72
     1
 77
     1
171
     1
175
     1
179
     1
273
     0
  0
XRECORD
  5
2F2
102
{ACAD_REACTORS
330
2F1
102
}
330
2F1
100
AcDbXrecord
280
     1
102
RTVSPropertyOp0
 70
     1
102
RTVSPropertyOp1
 70
     1
102
RTVSPropertyOp2
 70
     1
102
RTVSPropertyOp3
 70
     1
102
RTVSPropertyOp4
 70
     1
102
RTVSPropertyOp5
 70
     1
102
RTVSPropertyOp6
 70
     1
102
RTVSPropertyOp7
 70
     1
102
RTVSPropertyOp8
 70
     1
102
RTVSPropertyOp9
 70
     1
102
RTVSPropertyOp10
 70
     1
102
RTVSPropertyOp11
 70
     1
102
RTVSPropertyOp12
 70
     1
102
RTVSPropertyOp13
 70
     1
102
RTVSPropertyOp14
 70
     1
102
RTVSPropertyOp15
 70
     1
102
RTVSPropertyOp16
 70
     1
102
RTVSPropertyOp17
 70
     1
102
RTVSPropertyOp18
 70
     1
102
RTVSPropertyOp19
 70
     1
102
RTVSPropertyOp20
 70
     1
102
RTVSPropertyOp21
 70
     1
102
RTVSPropertyOp22
 70
     1
102
RTVSPropertyOp23
 70
     1
102
RTVSPropertyOp24
 70
     1
102
RTVSPropertyOp25
 70
     1
102
RTVSPropertyOp26
 70
     1
102
RTVSPropertyOp27
 70
     1
102
RTVSPropertyOp28
 70
     1
102
RTVSPropertyOp29
 70
     1
102
RTVSPropertyOp30
 70
     1
102
RTVSPropertyOp31
 70
     1
102
RTVSPropertyOp32
 70
     1
  0
XRECORD
  5
2F6
102
{ACAD_REACTORS
330
2F5
102
}
330
2F5
100
AcDbXrecord
280
     1
102
RTVSPropertyOp0
 70
     1
102
RTVSPropertyOp1
 70
     1
102
RTVSPropertyOp2
 70
     1
102
RTVSPropertyOp3
 70
     1
102
RTVSPropertyOp4
 70
     1
102
RTVSPropertyOp5
 70
     1
102
RTVSPropertyOp6
 70
     1
102
RTVSPropertyOp7
 70
     1
102
RTVSPropertyOp8
 70
     1
102
RTVSPropertyOp9
 70
     1
102
RTVSPropertyOp10
 70
     1
102
RTVSPropertyOp11
 70
     1
102
RTVSPropertyOp12
 70
     1
102
RTVSPropertyOp13
 70
     1
102
RTVSPropertyOp14
 70
     1
102
RTVSPropertyOp15
 70
     1
102
RTVSPropertyOp16
 70
     1
102
RTVSPropertyOp17
 70
     1
102
RTVSPropertyOp18
 70
     1
102
RTVSPropertyOp19
 70
     1
102
RTVSPropertyOp20
 70
     1
102
RTVSPropertyOp21
 70
     1
102
RTVSPropertyOp22
 70
     1
102
RTVSPropertyOp23
 70
     1
102
RTVSPropertyOp24
 70
     1
102
RTVSPropertyOp25
 70
     1
102
RTVSPropertyOp26
 70
     1
102
RTVSPropertyOp27
 70
     1
102
RTVSPropertyOp28
 70
     1
102
RTVSPropertyOp29
 70
     1
102
RTVSPropertyOp30
 70
     1
102
RTVSPropertyOp31
 70
     1
102
RTVSPropertyOp32
 70
     1
  0
XRECORD
  5
2F4
102
{ACAD_REACTORS
330
2F3
102
}
330
2F3
100
AcDbXrecord
280
     1
102
RTVSPropertyOp0
 70
     1
102
RTVSPropertyOp1
 70
     1
102
RTVSPropertyOp2
 70
     1
102
RTVSPropertyOp3
 70
     1
102
RTVSPropertyOp4
 70
     1
102
RTVSPropertyOp5
 70
     1
102
RTVSPropertyOp6
 70
     1
102
RTVSPropertyOp7
 70
     1
102
RTVSPropertyOp8
 70
     1
102
RTVSPropertyOp9
 70
     1
102
RTVSPropertyOp10
 70
     1
102
RTVSPropertyOp11
 70
     1
102
RTVSPropertyOp12
 70
     1
102
RTVSPropertyOp13
 70
     1
102
RTVSPropertyOp14
 70
     1
102
RTVSPropertyOp15
 70
     1
102
RTVSPropertyOp16
 70
     1
102
RTVSPropertyOp17
 70
     1
102
RTVSPropertyOp18
 70
     1
102
RTVSPropertyOp19
 70
     1
102
RTVSPropertyOp20
 70
     1
102
RTVSPropertyOp21
 70
     1
102
RTVSPropertyOp22
 70
     1
102
RTVSPropertyOp23
 70
     1
102
RTVSPropertyOp24
 70
     1
102
RTVSPropertyOp25
 70
     1
102
RTVSPropertyOp26
 70
     1
102
RTVSPropertyOp27
 70
     1
102
RTVSPropertyOp28
 70
     1
102
RTVSPropertyOp29
 70
     1
102
RTVSPropertyOp30
 70
     1
102
RTVSPropertyOp31
 70
     1
102
RTVSPropertyOp32
 70
     1
  0
XRECORD
  5
2F8
102
{ACAD_REACTORS
330
2F7
102
}
330
2F7
100
AcDbXrecord
280
     1
102
RTVSPropertyOp0
 70
     1
102
RTVSPropertyOp1
 70
     1
102
RTVSPropertyOp2
 70
     1
102
RTVSPropertyOp3
 70
     1
102
RTVSPropertyOp4
 70
     1
102
RTVSPropertyOp5
 70
     1
102
RTVSPropertyOp6
 70
     1
102
RTVSPropertyOp7
 70
     1
102
RTVSPropertyOp8
 70
     1
102
RTVSPropertyOp9
 70
     1
102
RTVSPropertyOp10
 70
     1
102
RTVSPropertyOp11
 70
     1
102
RTVSPropertyOp12
 70
     1
102
RTVSPropertyOp13
 70
     1
102
RTVSPropertyOp14
 70
     1
102
RTVSPropertyOp15
 70
     1
102
RTVSPropertyOp16
 70
     1
102
RTVSPropertyOp17
 70
     1
102
RTVSPropertyOp18
 70
     1
102
RTVSPropertyOp19
 70
     1
102
RTVSPropertyOp20
 70
     1
102
RTVSPropertyOp21
 70
     1
102
RTVSPropertyOp22
 70
     1
102
RTVSPropertyOp23
 70
     1
102
RTVSPropertyOp24
 70
     1
102
RTVSPropertyOp25
 70
     1
102
RTVSPropertyOp26
 70
     1
102
RTVSPropertyOp27
 70
     1
102
RTVSPropertyOp28
 70
     1
102
RTVSPropertyOp29
 70
     1
102
RTVSPropertyOp30
 70
     1
102
RTVSPropertyOp31
 70
     1
102
RTVSPropertyOp32
 70
     1
  0
XRECORD
  5
300
102
{ACAD_REACTORS
330
2FF
102
}
330
2FF
100
AcDbXrecord
280
     1
102
RTVSPropertyOp0
 70
     1
102
RTVSPropertyOp1
 70
     1
102
RTVSPropertyOp2
 70
     1
102
RTVSPropertyOp3
 70
     1
102
RTVSPropertyOp4
 70
     1
102
RTVSPropertyOp5
 70
     1
102
RTVSPropertyOp6
 70
     1
102
RTVSPropertyOp7
 70
     1
102
RTVSPropertyOp8
 70
     1
102
RTVSPropertyOp9
 70
     1
102
RTVSPropertyOp10
 70
     1
102
RTVSPropertyOp11
 70
     1
102
RTVSPropertyOp12
 70
     1
102
RTVSPropertyOp13
 70
     1
102
RTVSPropertyOp14
 70
     1
102
RTVSPropertyOp15
 70
     1
102
RTVSPropertyOp16
 70
     1
102
RTVSPropertyOp17
 70
     1
102
RTVSPropertyOp18
 70
     1
102
RTVSPropertyOp19
 70
     1
102
RTVSPropertyOp20
 70
     1
102
RTVSPropertyOp21
 70
     1
102
RTVSPropertyOp22
 70
     1
102
RTVSPropertyOp23
 70
     1
102
RTVSPropertyOp24
 70
     1
102
RTVSPropertyOp25
 70
     1
102
RTVSPropertyOp26
 70
     1
102
RTVSPropertyOp27
 70
     1
102
RTVSPropertyOp28
 70
     1
102
RTVSPropertyOp29
 70
     1
102
RTVSPropertyOp30
 70
     1
102
RTVSPropertyOp31
 70
     1
102
RTVSPropertyOp32
 70
     1
  0
XRECORD
  5
308
102
{ACAD_REACTORS
330
307
102
}
330
307
100
AcDbXrecord
280
     1
102
RTVSPropertyOp0
 70
     1
102
RTVSPropertyOp1
 70
     1
102
RTVSPropertyOp2
 70
     1
102
RTVSPropertyOp3
 70
     1
102
RTVSPropertyOp4
 70
     1
102
RTVSPropertyOp5
 70
     1
102
RTVSPropertyOp6
 70
     1
102
RTVSPropertyOp7
 70
     1
102
RTVSPropertyOp8
 70
     1
102
RTVSPropertyOp9
 70
     1
102
RTVSPropertyOp10
 70
     1
102
RTVSPropertyOp11
 70
     1
102
RTVSPropertyOp12
 70
     1
102
RTVSPropertyOp13
 70
     1
102
RTVSPropertyOp14
 70
     1
102
RTVSPropertyOp15
 70
     1
102
RTVSPropertyOp16
 70
     1
102
RTVSPropertyOp17
 70
     1
102
RTVSPropertyOp18
 70
     1
102
RTVSPropertyOp19
 70
     1
102
RTVSPropertyOp20
 70
     1
102
RTVSPropertyOp21
 70
     1
102
RTVSPropertyOp22
 70
     1
102
RTVSPropertyOp23
 70
     1
102
RTVSPropertyOp24
 70
     1
102
RTVSPropertyOp25
 70
     1
102
RTVSPropertyOp26
 70
     1
102
RTVSPropertyOp27
 70
     1
102
RTVSPropertyOp28
 70
     1
102
RTVSPropertyOp29
 70
     1
102
RTVSPropertyOp30
 70
     1
102
RTVSPropertyOp31
 70
     1
102
RTVSPropertyOp32
 70
     1
  0
XRECORD
  5
2FC
102
{ACAD_REACTORS
330
2FB
102
}
330
2FB
100
AcDbXrecord
280
     1
102
RTVSPropertyOp0
 70
     1
102
RTVSPropertyOp1
 70
     1
102
RTVSPropertyOp2
 70
     1
102
RTVSPropertyOp3
 70
     1
102
RTVSPropertyOp4
 70
     1
102
RTVSPropertyOp5
 70
     1
102
RTVSPropertyOp6
 70
     1
102
RTVSPropertyOp7
 70
     1
102
RTVSPropertyOp8
 70
     1
102
RTVSPropertyOp9
 70
     1
102
RTVSPropertyOp10
 70
     1
102
RTVSPropertyOp11
 70
     1
102
RTVSPropertyOp12
 70
     1
102
RTVSPropertyOp13
 70
     1
102
RTVSPropertyOp14
 70
     1
102
RTVSPropertyOp15
 70
     1
102
RTVSPropertyOp16
 70
     1
102
RTVSPropertyOp17
 70
     1
102
RTVSPropertyOp18
 70
     1
102
RTVSPropertyOp19
 70
     1
102
RTVSPropertyOp20
 70
     1
102
RTVSPropertyOp21
 70
     1
102
RTVSPropertyOp22
 70
     1
102
RTVSPropertyOp23
 70
     1
102
RTVSPropertyOp24
 70
     1
102
RTVSPropertyOp25
 70
     1
102
RTVSPropertyOp26
 70
     1
102
RTVSPropertyOp27
 70
     1
102
RTVSPropertyOp28
 70
     1
102
RTVSPropertyOp29
 70
     1
102
RTVSPropertyOp30
 70
     1
102
RTVSPropertyOp31
 70
     1
102
RTVSPropertyOp32
 70
     1
  0
XRECORD
  5
2FE
102
{ACAD_REACTORS
330
2FD
102
}
330
2FD
100
AcDbXrecord
280
     1
102
RTVSPropertyOp0
 70
     1
102
RTVSPropertyOp1
 70
     1
102
RTVSPropertyOp2
 70
     1
102
RTVSPropertyOp3
 70
     1
102
RTVSPropertyOp4
 70
     1
102
RTVSPropertyOp5
 70
     1
102
RTVSPropertyOp6
 70
     1
102
RTVSPropertyOp7
 70
     1
102
RTVSPropertyOp8
 70
     1
102
RTVSPropertyOp9
 70
     1
102
RTVSPropertyOp10
 70
     1
102
RTVSPropertyOp11
 70
     1
102
RTVSPropertyOp12
 70
     1
102
RTVSPropertyOp13
 70
     1
102
RTVSPropertyOp14
 70
     1
102
RTVSPropertyOp15
 70
     1
102
RTVSPropertyOp16
 70
     1
102
RTVSPropertyOp17
 70
     1
102
RTVSPropertyOp18
 70
     1
102
RTVSPropertyOp19
 70
     1
102
RTVSPropertyOp20
 70
     1
102
RTVSPropertyOp21
 70
     1
102
RTVSPropertyOp22
 70
     1
102
RTVSPropertyOp23
 70
     1
102
RTVSPropertyOp24
 70
     1
102
RTVSPropertyOp25
 70
     1
102
RTVSPropertyOp26
 70
     1
102
RTVSPropertyOp27
 70
     1
102
RTVSPropertyOp28
 70
     1
102
RTVSPropertyOp29
 70
     1
102
RTVSPropertyOp30
 70
     1
102
RTVSPropertyOp31
 70
     1
102
RTVSPropertyOp32
 70
     1
  0
XRECORD
  5
306
102
{ACAD_REACTORS
330
305
102
}
330
305
100
AcDbXrecord
280
     1
102
RTVSPropertyOp0
 70
     1
102
RTVSPropertyOp1
 70
     1
102
RTVSPropertyOp2
 70
     1
102
RTVSPropertyOp3
 70
     1
102
RTVSPropertyOp4
 70
     1
102
RTVSPropertyOp5
 70
     1
102
RTVSPropertyOp6
 70
     1
102
RTVSPropertyOp7
 70
     1
102
RTVSPropertyOp8
 70
     1
102
RTVSPropertyOp9
 70
     1
102
RTVSPropertyOp10
 70
     1
102
RTVSPropertyOp11
 70
     1
102
RTVSPropertyOp12
 70
     1
102
RTVSPropertyOp13
 70
     1
102
RTVSPropertyOp14
 70
     1
102
RTVSPropertyOp15
 70
     1
102
RTVSPropertyOp16
 70
     1
102
RTVSPropertyOp17
 70
     1
102
RTVSPropertyOp18
 70
     1
102
RTVSPropertyOp19
 70
     1
102
RTVSPropertyOp20
 70
     1
102
RTVSPropertyOp21
 70
     1
102
RTVSPropertyOp22
 70
     1
102
RTVSPropertyOp23
 70
     1
102
RTVSPropertyOp24
 70
     1
102
RTVSPropertyOp25
 70
     1
102
RTVSPropertyOp26
 70
     1
102
RTVSPropertyOp27
 70
     1
102
RTVSPropertyOp28
 70
     1
102
RTVSPropertyOp29
 70
     1
102
RTVSPropertyOp30
 70
     1
102
RTVSPropertyOp31
 70
     1
102
RTVSPropertyOp32
 70
     1
  0
XRECORD
  5
2EA
102
{ACAD_REACTORS
330
2E9
102
}
330
2E9
100
AcDbXrecord
280
     1
102
RTVSPropertyOp0
 70
     1
102
RTVSPropertyOp1
 70
     1
102
RTVSPropertyOp2
 70
     1
102
RTVSPropertyOp3
 70
     1
102
RTVSPropertyOp4
 70
     1
102
RTVSPropertyOp5
 70
     1
102
RTVSPropertyOp6
 70
     1
102
RTVSPropertyOp7
 70
     1
102
RTVSPropertyOp8
 70
     1
102
RTVSPropertyOp9
 70
     1
102
RTVSPropertyOp10
 70
     1
102
RTVSPropertyOp11
 70
     1
102
RTVSPropertyOp12
 70
     1
102
RTVSPropertyOp13
 70
     1
102
RTVSPropertyOp14
 70
     1
102
RTVSPropertyOp15
 70
     1
102
RTVSPropertyOp16
 70
     1
102
RTVSPropertyOp17
 70
     1
102
RTVSPropertyOp18
 70
     1
102
RTVSPropertyOp19
 70
     1
102
RTVSPropertyOp20
 70
     1
102
RTVSPropertyOp21
 70
     1
102
RTVSPropertyOp22
 70
     1
102
RTVSPropertyOp23
 70
     1
102
RTVSPropertyOp24
 70
     1
102
RTVSPropertyOp25
 70
     1
102
RTVSPropertyOp26
 70
     1
102
RTVSPropertyOp27
 70
     1
102
RTVSPropertyOp28
 70
     1
102
RTVSPropertyOp29
 70
     1
102
RTVSPropertyOp30
 70
     1
102
RTVSPropertyOp31
 70
     1
102
RTVSPropertyOp32
 70
     1
  0
XRECORD
  5
2EC
102
{ACAD_REACTORS
330
2EB
102
}
330
2EB
100
AcDbXrecord
280
     1
102
RTVSPropertyOp0
 70
     1
102
RTVSPropertyOp1
 70
     1
102
RTVSPropertyOp2
 70
     1
102
RTVSPropertyOp3
 70
     1
102
RTVSPropertyOp4
 70
     1
102
RTVSPropertyOp5
 70
     1
102
RTVSPropertyOp6
 70
     1
102
RTVSPropertyOp7
 70
     1
102
RTVSPropertyOp8
 70
     1
102
RTVSPropertyOp9
 70
     1
102
RTVSPropertyOp10
 70
     1
102
RTVSPropertyOp11
 70
     1
102
RTVSPropertyOp12
 70
     1
102
RTVSPropertyOp13
 70
     1
102
RTVSPropertyOp14
 70
     1
102
RTVSPropertyOp15
 70
     1
102
RTVSPropertyOp16
 70
     1
102
RTVSPropertyOp17
 70
     1
102
RTVSPropertyOp18
 70
     1
102
RTVSPropertyOp19
 70
     1
102
RTVSPropertyOp20
 70
     1
102
RTVSPropertyOp21
 70
     1
102
RTVSPropertyOp22
 70
     1
102
RTVSPropertyOp23
 70
     1
102
RTVSPropertyOp24
 70
     1
102
RTVSPropertyOp25
 70
     1
102
RTVSPropertyOp26
 70
     1
102
RTVSPropertyOp27
 70
     1
102
RTVSPropertyOp28
 70
     1
102
RTVSPropertyOp29
 70
     1
102
RTVSPropertyOp30
 70
     1
102
RTVSPropertyOp31
 70
     1
102
RTVSPropertyOp32
 70
     1
  0
XRECORD
  5
2EE
102
{ACAD_REACTORS
330
2ED
102
}
330
2ED
100
AcDbXrecord
280
     1
102
RTVSPropertyOp0
 70
     1
102
RTVSPropertyOp1
 70
     1
102
RTVSPropertyOp2
 70
     1
102
RTVSPropertyOp3
 70
     1
102
RTVSPropertyOp4
 70
     1
102
RTVSPropertyOp5
 70
     1
102
RTVSPropertyOp6
 70
     1
102
RTVSPropertyOp7
 70
     1
102
RTVSPropertyOp8
 70
     1
102
RTVSPropertyOp9
 70
     1
102
RTVSPropertyOp10
 70
     1
102
RTVSPropertyOp11
 70
     1
102
RTVSPropertyOp12
 70
     1
102
RTVSPropertyOp13
 70
     1
102
RTVSPropertyOp14
 70
     1
102
RTVSPropertyOp15
 70
     1
102
RTVSPropertyOp16
 70
     1
102
RTVSPropertyOp17
 70
     1
102
RTVSPropertyOp18
 70
     1
102
RTVSPropertyOp19
 70
     1
102
RTVSPropertyOp20
 70
     1
102
RTVSPropertyOp21
 70
     1
102
RTVSPropertyOp22
 70
     1
102
RTVSPropertyOp23
 70
     1
102
RTVSPropertyOp24
 70
     1
102
RTVSPropertyOp25
 70
     1
102
RTVSPropertyOp26
 70
     1
102
RTVSPropertyOp27
 70
     1
102
RTVSPropertyOp28
 70
     1
102
RTVSPropertyOp29
 70
     1
102
RTVSPropertyOp30
 70
     1
102
RTVSPropertyOp31
 70
     1
102
RTVSPropertyOp32
 70
     1
  0
XRECORD
  5
2F0
102
{ACAD_REACTORS
330
2EF
102
}
330
2EF
100
AcDbXrecord
280
     1
102
RTVSPropertyOp0
 70
     1
102
RTVSPropertyOp1
 70
     1
102
RTVSPropertyOp2
 70
     1
102
RTVSPropertyOp3
 70
     1
102
RTVSPropertyOp4
 70
     1
102
RTVSPropertyOp5
 70
     1
102
RTVSPropertyOp6
 70
     1
102
RTVSPropertyOp7
 70
     1
102
RTVSPropertyOp8
 70
     1
102
RTVSPropertyOp9
 70
     1
102
RTVSPropertyOp10
 70
     1
102
RTVSPropertyOp11
 70
     1
102
RTVSPropertyOp12
 70
     1
102
RTVSPropertyOp13
 70
     1
102
RTVSPropertyOp14
 70
     1
102
RTVSPropertyOp15
 70
     1
102
RTVSPropertyOp16
 70
     1
102
RTVSPropertyOp17
 70
     1
102
RTVSPropertyOp18
 70
     1
102
RTVSPropertyOp19
 70
     1
102
RTVSPropertyOp20
 70
     1
102
RTVSPropertyOp21
 70
     1
102
RTVSPropertyOp22
 70
     1
102
RTVSPropertyOp23
 70
     1
102
RTVSPropertyOp24
 70
     1
102
RTVSPropertyOp25
 70
     1
102
RTVSPropertyOp26
 70
     1
102
RTVSPropertyOp27
 70
     1
102
RTVSPropertyOp28
 70
     1
102
RTVSPropertyOp29
 70
     1
102
RTVSPropertyOp30
 70
     1
102
RTVSPropertyOp31
 70
     1
102
RTVSPropertyOp32
 70
     1
  0
XRECORD
  5
304
102
{ACAD_REACTORS
330
303
102
}
330
303
100
AcDbXrecord
280
     1
102
RTVSPropertyOp0
 70
     1
102
RTVSPropertyOp1
 70
     1
102
RTVSPropertyOp2
 70
     1
102
RTVSPropertyOp3
 70
     1
102
RTVSPropertyOp4
 70
     1
102
RTVSPropertyOp5
 70
     1
102
RTVSPropertyOp6
 70
     1
102
RTVSPropertyOp7
 70
     1
102
RTVSPropertyOp8
 70
     1
102
RTVSPropertyOp9
 70
     1
102
RTVSPropertyOp10
 70
     1
102
RTVSPropertyOp11
 70
     1
102
RTVSPropertyOp12
 70
     1
102
RTVSPropertyOp13
 70
     1
102
RTVSPropertyOp14
 70
     1
102
RTVSPropertyOp15
 70
     1
102
RTVSPropertyOp16
 70
     1
102
RTVSPropertyOp17
 70
     1
102
RTVSPropertyOp18
 70
     1
102
RTVSPropertyOp19
 70
     1
102
RTVSPropertyOp20
 70
     1
102
RTVSPropertyOp21
 70
     1
102
RTVSPropertyOp22
 70
     1
102
RTVSPropertyOp23
 70
     1
102
RTVSPropertyOp24
 70
     1
102
RTVSPropertyOp25
 70
     1
102
RTVSPropertyOp26
 70
     1
102
RTVSPropertyOp27
 70
     1
102
RTVSPropertyOp28
 70
     1
102
RTVSPropertyOp29
 70
     1
102
RTVSPropertyOp30
 70
     1
102
RTVSPropertyOp31
 70
     1
102
RTVSPropertyOp32
 70
     1
  0
XRECORD
  5
2FA
102
{ACAD_REACTORS
330
2F9
102
}
330
2F9
100
AcDbXrecord
280
     1
102
RTVSPropertyOp0
 70
     1
102
RTVSPropertyOp1
 70
     1
102
RTVSPropertyOp2
 70
     1
102
RTVSPropertyOp3
 70
     1
102
RTVSPropertyOp4
 70
     1
102
RTVSPropertyOp5
 70
     1
102
RTVSPropertyOp6
 70
     1
102
RTVSPropertyOp7
 70
     1
102
RTVSPropertyOp8
 70
     1
102
RTVSPropertyOp9
 70
     1
102
RTVSPropertyOp10
 70
     1
102
RTVSPropertyOp11
 70
     1
102
RTVSPropertyOp12
 70
     1
102
RTVSPropertyOp13
 70
     1
102
RTVSPropertyOp14
 70
     1
102
RTVSPropertyOp15
 70
     1
102
RTVSPropertyOp16
 70
     1
102
RTVSPropertyOp17
 70
     1
102
RTVSPropertyOp18
 70
     1
102
RTVSPropertyOp19
 70
     1
102
RTVSPropertyOp20
 70
     1
102
RTVSPropertyOp21
 70
     1
102
RTVSPropertyOp22
 70
     1
102
RTVSPropertyOp23
 70
     1
102
RTVSPropertyOp24
 70
     1
102
RTVSPropertyOp25
 70
     1
102
RTVSPropertyOp26
 70
     1
102
RTVSPropertyOp27
 70
     1
102
RTVSPropertyOp28
 70
     1
102
RTVSPropertyOp29
 70
     1
102
RTVSPropertyOp30
 70
     1
102
RTVSPropertyOp31
 70
     1
102
RTVSPropertyOp32
 70
     1
  0
XRECORD
  5
302
102
{ACAD_REACTORS
330
301
102
}
330
301
100
AcDbXrecord
280
     1
102
RTVSPropertyOp0
 70
     1
102
RTVSPropertyOp1
 70
     1
102
RTVSPropertyOp2
 70
     1
102
RTVSPropertyOp3
 70
     1
102
RTVSPropertyOp4
 70
     1
102
RTVSPropertyOp5
 70
     1
102
RTVSPropertyOp6
 70
     1
102
RTVSPropertyOp7
 70
     1
102
RTVSPropertyOp8
 70
     1
102
RTVSPropertyOp9
 70
     1
102
RTVSPropertyOp10
 70
     1
102
RTVSPropertyOp11
 70
     1
102
RTVSPropertyOp12
 70
     1
102
RTVSPropertyOp13
 70
     1
102
RTVSPropertyOp14
 70
     1
102
RTVSPropertyOp15
 70
     1
102
RTVSPropertyOp16
 70
     1
102
RTVSPropertyOp17
 70
     1
102
RTVSPropertyOp18
 70
     1
102
RTVSPropertyOp19
 70
     1
102
RTVSPropertyOp20
 70
     1
102
RTVSPropertyOp21
 70
     1
102
RTVSPropertyOp22
 70
     1
102
RTVSPropertyOp23
 70
     1
102
RTVSPropertyOp24
 70
     1
102
RTVSPropertyOp25
 70
     1
102
RTVSPropertyOp26
 70
     1
102
RTVSPropertyOp27
 70
     1
102
RTVSPropertyOp28
 70
     1
102
RTVSPropertyOp29
 70
     1
102
RTVSPropertyOp30
 70
     1
102
RTVSPropertyOp31
 70
     1
102
RTVSPropertyOp32
 70
     1
  0
ENDSEC
  0
EOF
