  0
SECTION
  2
HEADER
  9
$ACADVER
  1
AC1018
  9
$ACADMAINTVER
 70
     0
  9
$DWGCODEPAGE
  3
ANSI_932
  9
$INSBASE
 10
0.0
 20
0.0
 30
0.0
  9
$EXTMIN
 10
-105.0
 20
-148.5
 30
0.0
  9
$EXTMAX
 10
105.0
 20
148.5
 30
0.0
  9
$LIMMIN
 10
-105.0
 20
-148.5
  9
$LIMMAX
 10
105.0
 20
148.5
  9
$ORTHOMODE
 70
     0
  9
$REGENMODE
 70
     1
  9
$FILLMODE
 70
     1
  9
$QTEXTMODE
 70
     0
  9
$MIRRTEXT
 70
     1
  9
$LTSCALE
 40
1.0
  9
$ATTMODE
 70
     1
  9
$TEXTSIZE
 40
2.5
  9
$TRACEWID
 40
1.0
  9
$TEXTSTYLE
  7
Standard
  9
$CLAYER
  8
0
  9
$CELTYPE
  6
ByLayer
  9
$CECOLOR
 62
   256
  9
$CELTSCALE
 40
1.0
  9
$DISPSILH
 70
     0
  9
$DIMSCALE
 40
1.0
  9
$DIMASZ
 40
2.5
  9
$DIMEXO
 40
0.625
  9
$DIMDLI
 40
3.75
  9
$DIMRND
 40
0.0
  9
$DIMDLE
 40
0.0
  9
$DIMEXE
 40
1.25
  9
$DIMTP
 40
0.0
  9
$DIMTM
 40
0.0
  9
$DIMTXT
 40
2.5
  9
$DIMCEN
 40
2.5
  9
$DIMTSZ
 40
0.0
  9
$DIMTOL
 70
     0
  9
$DIMLIM
 70
     0
  9
$DIMTIH
 70
     0
  9
$DIMTOH
 70
     0
  9
$DIMSE1
 70
     0
  9
$DIMSE2
 70
     0
  9
$DIMTAD
 70
     1
  9
$DIMZIN
 70
     8
  9
$DIMBLK
  1

  9
$DIMASO
 70
     1
  9
$DIMSHO
 70
     1
  9
$DIMPOST
  1

  9
$DIMAPOST
  1

  9
$DIMALT
 70
     0
  9
$DIMALTD
 70
     3
  9
$DIMALTF
 40
0.03937007874016
  9
$DIMLFAC
 40
1.0
  9
$DIMTOFL
 70
     1
  9
$DIMTVP
 40
0.0
  9
$DIMTIX
 70
     0
  9
$DIMSOXD
 70
     0
  9
$DIMSAH
 70
     0
  9
$DIMBLK1
  1

  9
$DIMBLK2
  1

  9
$DIMSTYLE
  2
ISO-25
  9
$DIMCLRD
 70
     0
  9
$DIMCLRE
 70
     0
  9
$DIMCLRT
 70
     0
  9
$DIMTFAC
 40
1.0
  9
$DIMGAP
 40
0.625
  9
$DIMJUST
 70
     0
  9
$DIMSD1
 70
     0
  9
$DIMSD2
 70
     0
  9
$DIMTOLJ
 70
     0
  9
$DIMTZIN
 70
     8
  9
$DIMALTZ
 70
     0
  9
$DIMALTTZ
 70
     0
  9
$DIMUPT
 70
     0
  9
$DIMDEC
 70
     2
  9
$DIMTDEC
 70
     2
  9
$DIMALTU
 70
     2
  9
$DIMALTTD
 70
     3
  9
$DIMTXSTY
  7
Standard
  9
$DIMAUNIT
 70
     0
  9
$DIMADEC
 70
     0
  9
$DIMALTRND
 40
0.0
  9
$DIMAZIN
 70
     0
  9
$DIMDSEP
 70
    44
  9
$DIMATFIT
 70
     3
  9
$DIMFRAC
 70
     0
  9
$DIMLDRBLK
  1

  9
$DIMLUNIT
 70
     2
  9
$DIMLWD
 70
    -2
  9
$DIMLWE
 70
    -2
  9
$DIMTMOVE
 70
     0
  9
$LUNITS
 70
     2
  9
$LUPREC
 70
     4
  9
$SKETCHINC
 40
1.0
  9
$FILLETRAD
 40
10.0
  9
$AUNITS
 70
     0
  9
$AUPREC
 70
     0
  9
$MENU
  1
.
  9
$ELEVATION
 40
0.0
  9
$PELEVATION
 40
0.0
  9
$THICKNESS
 40
0.0
  9
$LIMCHECK
 70
     0
  9
$CHAMFERA
 40
10.0
  9
$CHAMFERB
 40
10.0
  9
$CHAMFERC
 40
20.0
  9
$CHAMFERD
 40
0.0
  9
$SKPOLY
 70
     0
  9
$TDCREATE
 40
2457284.576909282
  9
$TDUCREATE
 40
2457284.201909282
  9
$TDUPDATE
 40
2457284.576909618
  9
$TDUUPDATE
 40
2457284.201909618
  9
$TDINDWG
 40
0.0000000116
  9
$TDUSRTIMER
 40
0.0000000116
  9
$USRTIMER
 70
     1
  9
$ANGBASE
 50
0.0
  9
$ANGDIR
 70
     0
  9
$PDMODE
 70
     0
  9
$PDSIZE
 40
0.0
  9
$PLINEWID
 40
0.0
  9
$SPLFRAME
 70
     0
  9
$SPLINETYPE
 70
     6
  9
$SPLINESEGS
 70
     8
  9
$HANDSEED
  5
3AA
  9
$SURFTAB1
 70
     6
  9
$SURFTAB2
 70
     6
  9
$SURFTYPE
 70
     6
  9
$SURFU
 70
     6
  9
$SURFV
 70
     6
  9
$UCSBASE
  2

  9
$UCSNAME
  2

  9
$UCSORG
 10
0.0
 20
0.0
 30
0.0
  9
$UCSXDIR
 10
1.0
 20
0.0
 30
0.0
  9
$UCSYDIR
 10
0.0
 20
1.0
 30
0.0
  9
$UCSORTHOREF
  2

  9
$UCSORTHOVIEW
 70
     0
  9
$UCSORGTOP
 10
0.0
 20
0.0
 30
0.0
  9
$UCSORGBOTTOM
 10
0.0
 20
0.0
 30
0.0
  9
$UCSORGLEFT
 10
0.0
 20
0.0
 30
0.0
  9
$UCSORGRIGHT
 10
0.0
 20
0.0
 30
0.0
  9
$UCSORGFRONT
 10
0.0
 20
0.0
 30
0.0
  9
$UCSORGBACK
 10
0.0
 20
0.0
 30
0.0
  9
$PUCSBASE
  2

  9
$PUCSNAME
  2

  9
$PUCSORG
 10
0.0
 20
0.0
 30
0.0
  9
$PUCSXDIR
 10
1.0
 20
0.0
 30
0.0
  9
$PUCSYDIR
 10
0.0
 20
1.0
 30
0.0
  9
$PUCSORTHOREF
  2

  9
$PUCSORTHOVIEW
 70
     0
  9
$PUCSORGTOP
 10
0.0
 20
0.0
 30
0.0
  9
$PUCSORGBOTTOM
 10
0.0
 20
0.0
 30
0.0
  9
$PUCSORGLEFT
 10
0.0
 20
0.0
 30
0.0
  9
$PUCSORGRIGHT
 10
0.0
 20
0.0
 30
0.0
  9
$PUCSORGFRONT
 10
0.0
 20
0.0
 30
0.0
  9
$PUCSORGBACK
 10
0.0
 20
0.0
 30
0.0
  9
$USERI1
 70
     0
  9
$USERI2
 70
     0
  9
$USERI3
 70
     0
  9
$USERI4
 70
     0
  9
$USERI5
 70
     0
  9
$USERR1
 40
0.0
  9
$USERR2
 40
0.0
  9
$USERR3
 40
0.0
  9
$USERR4
 40
0.0
  9
$USERR5
 40
0.0
  9
$WORLDVIEW
 70
     1
  9
$SHADEDGE
 70
     3
  9
$SHADEDIF
 70
    70
  9
$TILEMODE
 70
     1
  9
$MAXACTVP
 70
    64
  9
$PINSBASE
 10
0.0
 20
0.0
 30
0.0
  9
$PLIMCHECK
 70
     0
  9
$PEXTMIN
 10
1.000000000000000E+20
 20
1.000000000000000E+20
 30
1.000000000000000E+20
  9
$PEXTMAX
 10
-1.000000000000000E+20
 20
-1.000000000000000E+20
 30
-1.000000000000000E+20
  9
$PLIMMIN
 10
-105.0
 20
-148.5
  9
$PLIMMAX
 10
105.0
 20
148.5
  9
$UNITMODE
 70
     0
  9
$VISRETAIN
 70
     1
  9
$PLINEGEN
 70
     0
  9
$PSLTSCALE
 70
     1
  9
$TREEDEPTH
 70
  3020
  9
$CMLSTYLE
  2
Standard
  9
$CMLJUST
 70
     0
  9
$CMLSCALE
 40
20.0
  9
$PROXYGRAPHICS
 70
     1
  9
$MEASUREMENT
 70
     1
  9
$CELWEIGHT
370
    -1
  9
$ENDCAPS
280
     0
  9
$JOINSTYLE
280
     0
  9
$LWDISPLAY
290
     0
  9
$INSUNITS
 70
     4
  9
$HYPERLINKBASE
  1

  9
$STYLESHEET
  1

  9
$XEDIT
290
     1
  9
$CEPSNTYPE
380
     0
  9
$PSTYLEMODE
290
     1
  9
$FINGERPRINTGUID
  2
{65E83FF4-234E-424C-B2FC-7CE318D8D36C}
  9
$VERSIONGUID
  2
{FAEB1C32-E019-11D5-929B-00C0DF256EC4}
  9
$EXTNAMES
290
     1
  9
$PSVPSCALE
 40
0.0
  9
$OLESTARTUP
290
     0
  9
$SORTENTS
280
   127
  9
$INDEXCTL
280
     0
  9
$HIDETEXT
280
     1
  9
$XCLIPFRAME
290
     0
  9
$HALOGAP
280
     0
  9
$OBSCOLOR
 70
   257
  9
$OBSLTYPE
280
     0
  9
$INTERSECTIONDISPLAY
280
     0
  9
$INTERSECTIONCOLOR
 70
   257
  9
$DIMASSOC
280
     2
  9
$PROJECTNAME
  1

  0
ENDSEC
  0
SECTION
  2
CLASSES
  0
CLASS
  1
ACDBDICTIONARYWDFLT
  2
AcDbDictionaryWithDefault
  3
ObjectDBX Classes
 90
        0
 91
        4
280
     0
281
     0
  0
CLASS
  1
VISUALSTYLE
  2
AcDbVisualStyle
  3
ObjectDBX Classes
 90
     4095
 91
        4
280
     0
281
     0
  0
CLASS
  1
MATERIAL
  2
AcDbMaterial
  3
ObjectDBX Classes
 90
     1153
 91
        4
280
     0
281
     0
  0
CLASS
  1
SUN
  2
AcDbSun
  3
SCENEOE
 90
     1024
 91
        4
280
     0
281
     0
  0
ENDSEC
  0
SECTION
  2
TABLES
  0
TABLE
  2
VPORT
  5
8
330
0
100
AcDbSymbolTable
 70
     1
  0
VPORT
  5
29
330
8
100
AcDbSymbolTableRecord
100
AcDbViewportTableRecord
  2
*Active
 70
     0
 10
0.0
 20
0.0
 11
1.0
 21
1.0
 12
344.1869158878504
 22
148.5
 13
0.0
 23
0.0
 14
10.0
 24
10.0
 15
10.0
 25
10.0
 16
0.0
 26
0.0
 36
1.0
 17
0.0
 27
0.0
 37
0.0
 40
297.0
 41
1.972972972850329
 42
50.0
 43
0.0
 44
0.0
 50
0.0
 51
0.0
 71
     0
 72
   100
 73
     1
 74
     3
 75
     0
 76
     0
 77
     0
 78
     0
281
     0
 65
     1
110
0.0
120
0.0
130
0.0
111
1.0
121
0.0
131
0.0
112
0.0
122
1.0
132
0.0
 79
     0
146
0.0
  0
ENDTAB
  0
TABLE
  2
LTYPE
  5
5
330
0
100
AcDbSymbolTable
 70
     5
  0
LTYPE
  5
14
330
5
100
AcDbSymbolTableRecord
100
AcDbLinetypeTableRecord
  2
ByBlock
 70
     0
  3

 72
    65
 73
     0
 40
0.0
  0
LTYPE
  5
15
330
5
100
AcDbSymbolTableRecord
100
AcDbLinetypeTableRecord
  2
ByLayer
 70
     0
  3

 72
    65
 73
     0
 40
0.0
  0
LTYPE
  5
16
330
5
100
AcDbSymbolTableRecord
100
AcDbLinetypeTableRecord
  2
Continuous
 70
     0
  3
Solid line
 72
    65
 73
     0
 40
0.0
  0
LTYPE
  5
40
330
5
100
AcDbSymbolTableRecord
100
AcDbLinetypeTableRecord
  2
CONTINOUS
 70
     0
  3
______________________________
 72
    65
 73
     0
 40
0.0
  0
LTYPE
  5
41
330
5
100
AcDbSymbolTableRecord
100
AcDbLinetypeTableRecord
  2
DASHED
 70
     0
  3
__ __ __ __ __ __ __ __ __ __ __ __ __ __ __ __
 72
    65
 73
     2
 40
4.5
 49
3.0
 74
     0
 49
-1.5
 74
     0
  0
LTYPE
  5
42
330
5
100
AcDbSymbolTableRecord
100
AcDbLinetypeTableRecord
  2
PHANTOM
 70
     0
  3
______  __  __  ______  __  __  _____
 72
    65
 73
     6
 40
15.0
 49
7.5
 74
     0
 49
-1.5
 74
     0
 49
1.5
 74
     0
 49
-1.5
 74
     0
 49
1.5
 74
     0
 49
-1.5
 74
     0
  0
LTYPE
  5
43
330
5
100
AcDbSymbolTableRecord
100
AcDbLinetypeTableRecord
  2
CENTER
 70
     0
  3
____ _ ____ _ ____ _ ____ _ ____ _ ____
 72
    65
 73
     4
 40
12.0
 49
7.5
 74
     0
 49
-1.5
 74
     0
 49
1.5
 74
     0
 49
-1.5
 74
     0
  0
ENDTAB
  0
TABLE
  2
LAYER
  5
2
330
0
100
AcDbSymbolTable
 70
     3
  0
LAYER
  5
10
330
2
100
AcDbSymbolTableRecord
100
AcDbLayerTableRecord
  2
0
 70
     0
 62
     7
  6
Continuous
370
    -3
390
F
  0
LAYER
  5
2AD
330
2
100
AcDbSymbolTableRecord
100
AcDbLayerTableRecord
  2
Defpoints
 70
     0
 62
     7
  6
Continuous
290
     0
370
    -3
390
F
  0
LAYER
  5
36A
330
2
100
AcDbSymbolTableRecord
100
AcDbLayerTableRecord
  2
VIEW0001
 70
     0
 62
     7
  6
Continuous
370
    -3
390
F
  0
ENDTAB
  0
TABLE
  2
STYLE
  5
3
330
0
100
AcDbSymbolTable
 70
     1
  0
STYLE
  5
11
330
3
100
AcDbSymbolTableRecord
100
AcDbTextStyleTableRecord
  2
Standard
 70
     0
 40
0.0
 41
1.0
 50
0.0
 71
     0
 42
2.5
  3
ROMANS
  4
BIGFONT
  0
ENDTAB
  0
TABLE
  2
VIEW
  5
6
330
0
100
AcDbSymbolTable
 70
     0
  0
ENDTAB
  0
TABLE
  2
UCS
  5
7
330
0
100
AcDbSymbolTable
 70
     0
  0
ENDTAB
  0
TABLE
  2
APPID
  5
9
330
0
100
AcDbSymbolTable
 70
     1
  0
APPID
  5
12
330
9
100
AcDbSymbolTableRecord
100
AcDbRegAppTableRecord
  2
ACAD
 70
     0
  0
ENDTAB
  0
TABLE
  2
DIMSTYLE
  5
A
330
0
100
AcDbSymbolTable
 70
     1
100
AcDbDimStyleTable
  0
DIMSTYLE
105
27
102
{ACAD_REACTORS
330
2A6
330
2BA
330
2C7
330
2D4
330
2E1
330
2EE
330
2FA
330
305
330
312
330
322
330
32F
330
33C
330
349
330
356
102
}
330
A
100
AcDbSymbolTableRecord
100
AcDbDimStyleTableRecord
  2
ISO-25
 70
     0
 41
2.5
 42
0.625
 43
3.75
 44
1.25
 73
     0
 74
     0
 77
     1
 78
     8
140
2.5
141
2.5
143
0.03937007874016
147
0.625
171
     3
172
     1
178
     0
271
     2
272
     2
274
     3
278
    44
283
     0
284
     8
340
11
  0
ENDTAB
  0
TABLE
  2
BLOCK_RECORD
  5
1
330
0
100
AcDbSymbolTable
 70
    19
  0
BLOCK_RECORD
  5
1F
330
1
100
AcDbSymbolTableRecord
100
AcDbBlockTableRecord
  2
*Model_Space
340
22
  0
BLOCK_RECORD
  5
1B
330
1
100
AcDbSymbolTableRecord
100
AcDbBlockTableRecord
  2
*Paper_Space
340
1E
  0
BLOCK_RECORD
  5
23
330
1
100
AcDbSymbolTableRecord
100
AcDbBlockTableRecord
  2
*Paper_Space0
340
26
  0
BLOCK_RECORD
  5
44
330
1
100
AcDbSymbolTableRecord
100
AcDbBlockTableRecord
  2
DTL0001
340
0
  0
BLOCK_RECORD
  5
47
330
1
100
AcDbSymbolTableRecord
100
AcDbBlockTableRecord
  2
DTL0002
340
0
  0
BLOCK_RECORD
  5
2A7
330
1
100
AcDbSymbolTableRecord
100
AcDbBlockTableRecord
  2
_OPEN30
340
0
102
{BLKREFS
331
2B5
331
2B4
331
2C2
331
2C1
331
2CF
331
2CE
331
2DC
331
2DB
331
2E9
331
2E8
331
2F5
331
2F4
331
300
331
2FF
331
30D
331
30C
331
0
331
32A
331
329
331
337
331
336
331
344
331
343
331
351
331
350
331
0
331
0
102
}
  0
BLOCK_RECORD
  5
2AE
330
1
100
AcDbSymbolTableRecord
100
AcDbBlockTableRecord
  2
*D4
340
0
  0
BLOCK_RECORD
  5
2BB
330
1
100
AcDbSymbolTableRecord
100
AcDbBlockTableRecord
  2
*D5
340
0
  0
BLOCK_RECORD
  5
2C8
330
1
100
AcDbSymbolTableRecord
100
AcDbBlockTableRecord
  2
*D6
340
0
  0
BLOCK_RECORD
  5
2D5
330
1
100
AcDbSymbolTableRecord
100
AcDbBlockTableRecord
  2
*D7
340
0
  0
BLOCK_RECORD
  5
2E2
330
1
100
AcDbSymbolTableRecord
100
AcDbBlockTableRecord
  2
*D8
340
0
  0
BLOCK_RECORD
  5
2EF
330
1
100
AcDbSymbolTableRecord
100
AcDbBlockTableRecord
  2
*D9
340
0
  0
BLOCK_RECORD
  5
2FB
330
1
100
AcDbSymbolTableRecord
100
AcDbBlockTableRecord
  2
*D10
340
0
  0
BLOCK_RECORD
  5
306
330
1
100
AcDbSymbolTableRecord
100
AcDbBlockTableRecord
  2
*D11
340
0
  0
BLOCK_RECORD
  5
313
330
1
100
AcDbSymbolTableRecord
100
AcDbBlockTableRecord
  2
_NONE
340
0
  0
BLOCK_RECORD
  5
316
330
1
100
AcDbSymbolTableRecord
100
AcDbBlockTableRecord
  2
*D13
340
0
  0
BLOCK_RECORD
  5
323
330
1
100
AcDbSymbolTableRecord
100
AcDbBlockTableRecord
  2
*D14
340
0
  0
BLOCK_RECORD
  5
330
330
1
100
AcDbSymbolTableRecord
100
AcDbBlockTableRecord
  2
*D15
340
0
  0
BLOCK_RECORD
  5
33D
330
1
100
AcDbSymbolTableRecord
100
AcDbBlockTableRecord
  2
*D16
340
0
  0
BLOCK_RECORD
  5
34A
330
1
100
AcDbSymbolTableRecord
100
AcDbBlockTableRecord
  2
*D17
340
0
  0
BLOCK_RECORD
  5
357
330
1
100
AcDbSymbolTableRecord
100
AcDbBlockTableRecord
  2
*D18
340
0
  0
ENDTAB
  0
ENDSEC
  0
SECTION
  2
BLOCKS
  0
BLOCK
  5
20
330
1F
100
AcDbEntity
  8
0
100
AcDbBlockBegin
  2
*Model_Space
 70
     0
 10
0.0
 20
0.0
 30
0.0
  3
*Model_Space
  1

  0
ENDBLK
  5
21
330
1F
100
AcDbEntity
  8
0
100
AcDbBlockEnd
  0
BLOCK
  5
1C
330
1B
100
AcDbEntity
 67
     1
  8
0
100
AcDbBlockBegin
  2
*Paper_Space
 70
     0
 10
0.0
 20
0.0
 30
0.0
  3
*Paper_Space
  1

  0
ENDBLK
  5
1D
330
1B
100
AcDbEntity
 67
     1
  8
0
100
AcDbBlockEnd
  0
BLOCK
  5
24
330
23
100
AcDbEntity
  8
0
100
AcDbBlockBegin
  2
*Paper_Space0
 70
     0
 10
0.0
 20
0.0
 30
0.0
  3
*Paper_Space0
  1

  0
ENDBLK
  5
25
330
23
100
AcDbEntity
  8
0
100
AcDbBlockEnd
  0
BLOCK
  5
45
330
44
100
AcDbEntity
  8
0
100
AcDbBlockBegin
  2
DTL0001
 70
     0
 10
0.0
 20
0.0
 30
0.0
  3
DTL0001
  1

  0
POINT
  5
4A
330
44
100
AcDbEntity
  8
0
 62
     0
100
AcDbPoint
 10
0.0
 20
0.0
 30
0.0
  0
LINE
  5
4B
330
44
100
AcDbEntity
  8
0
  6
Continuous
 62
     0
100
AcDbLine
 10
43.99999618530273
 20
0.0
 30
0.0
 11
43.99999618530273
 21
-6.000003814697266
 31
0.0
  0
LINE
  5
4C
330
44
100
AcDbEntity
  8
0
  6
Continuous
 62
     0
100
AcDbLine
 10
36.20493505739575
 20
-14.96925592921882
 30
0.0
 11
36.0611288912734
 21
-21.30623507922253
 31
0.0
  0
LINE
  5
4D
330
44
100
AcDbEntity
  8
0
  6
Continuous
 62
     0
100
AcDbLine
 10
36.0
 20
-21.98036766052246
 30
0.0
 11
36.0
 21
-23.99988555908203
 31
0.0
  0
LINE
  5
4E
330
44
100
AcDbEntity
  8
0
  6
Continuous
 62
     0
100
AcDbLine
 10
-43.99999618530273
 20
0.0
 30
0.0
 11
-43.99999618530273
 21
-6.000003814697266
 31
0.0
  0
LINE
  5
4F
330
44
100
AcDbEntity
  8
0
  6
Continuous
 62
     0
100
AcDbLine
 10
43.99999618530273
 20
0.0
 30
0.0
 11
-43.99999618530273
 21
0.0
 31
0.0
  0
LINE
  5
50
330
44
100
AcDbEntity
  8
0
  6
Continuous
 62
     0
100
AcDbLine
 10
43.99999618530273
 20
-6.000003814697266
 30
0.0
 11
-43.99999618530273
 21
-6.000003814697266
 31
0.0
  0
LINE
  5
51
330
44
100
AcDbEntity
  8
0
  6
Continuous
 62
     0
100
AcDbLine
 10
-36.20493505739575
 20
-14.96925592921882
 30
0.0
 11
-36.06112893454605
 21
-21.30623317236483
 31
0.0
  0
LINE
  5
52
330
44
100
AcDbEntity
  8
0
  6
Continuous
 62
     0
100
AcDbLine
 10
-36.0
 20
-21.98036766052246
 30
0.0
 11
-36.0
 21
-24.00000381469727
 31
0.0
  0
LINE
  5
53
330
44
100
AcDbEntity
  8
0
  6
Continuous
 62
     0
100
AcDbLine
 10
36.0
 20
-24.00000381469727
 30
0.0
 11
-36.0
 21
-24.00000381469727
 31
0.0
  0
LINE
  5
54
330
44
100
AcDbEntity
  8
0
  6
Continuous
 62
     0
100
AcDbLine
 10
18.50000190734863
 20
-18.00000381469727
 30
0.0
 11
18.50000190734863
 21
-24.00000381469727
 31
0.0
  0
LINE
  5
55
330
44
100
AcDbEntity
  8
0
  6
Continuous
 62
     0
100
AcDbLine
 10
20.63619804382324
 20
-18.00000381469727
 30
0.0
 11
20.63619804382324
 21
-24.00000381469727
 31
0.0
  0
LINE
  5
56
330
44
100
AcDbEntity
  8
0
  6
Continuous
 62
     0
100
AcDbLine
 10
-18.49999809265137
 20
-18.00000381469727
 30
0.0
 11
-18.49999809265137
 21
-24.00000381469727
 31
0.0
  0
LINE
  5
57
330
44
100
AcDbEntity
  8
0
  6
Continuous
 62
     0
100
AcDbLine
 10
-20.63619422912598
 20
-18.00002098083496
 30
0.0
 11
-20.63619422912598
 21
-24.00000381469727
 31
0.0
  0
LINE
  5
58
330
44
100
AcDbEntity
  8
0
  6
Continuous
 62
     0
100
AcDbLine
 10
30.4310417175293
 20
-14.16534900665283
 30
0.0
 11
30.4310417175293
 21
-24.00000381469727
 31
0.0
  0
LINE
  5
59
330
44
100
AcDbEntity
  8
0
  6
Continuous
 62
     0
100
AcDbLine
 10
-30.43103981018066
 20
-14.16534900665283
 30
0.0
 11
-30.43103981018066
 21
-24.00000381469727
 31
0.0
  0
LINE
  5
5A
330
44
100
AcDbEntity
  8
0
  6
CENTER
 62
     0
100
AcDbLine
 10
0.0
 20
2.22619104385376
 30
0.0
 11
0.0
 21
-26.54154396057129
 31
0.0
  0
ARC
  5
5B
330
44
100
AcDbEntity
  8
0
  6
Continuous
 62
     0
100
AcDbCircle
 10
47.97169876098633
 20
-17.32368087768555
 30
0.0
 40
12.0
100
AcDbArc
 50
109.3279557045644
 51
168.6850453280215
  0
ARC
  5
5C
330
44
100
AcDbEntity
  8
0
  6
Continuous
 62
     0
100
AcDbCircle
 10
31.06241607666016
 20
-21.19279861450195
 30
0.0
 40
5.0
100
AcDbArc
 50
325.8445359798003
 51
358.7000000634312
  0
ARC
  5
5D
330
44
100
AcDbEntity
  8
0
  6
Continuous
 62
     0
100
AcDbCircle
 10
-47.97169876098633
 20
-17.32368087768555
 30
0.0
 40
12.0
100
AcDbArc
 50
11.31495455829295
 51
70.6720424742028
  0
ARC
  5
5E
330
44
100
AcDbEntity
  8
0
  6
Continuous
 62
     0
100
AcDbCircle
 10
-31.06241607666016
 20
-21.19279861450195
 30
0.0
 40
5.0
100
AcDbArc
 50
181.2999985561505
 51
214.1555170678513
  0
ARC
  5
5F
330
44
100
AcDbEntity
  8
0
  6
Continuous
 62
     0
100
AcDbCircle
 10
-6.499999046325684
 20
-18.00000381469727
 30
0.0
 40
12.0
100
AcDbArc
 50
90.00000250447816
 51
180.0000050089563
  0
ARC
  5
60
330
44
100
AcDbEntity
  8
0
  6
Continuous
 62
     0
100
AcDbCircle
 10
6.500001907348633
 20
-18.00000381469727
 30
0.0
 40
12.0
100
AcDbArc
 50
0.0
 51
90.00000250447816
  0
ARC
  5
61
330
44
100
AcDbEntity
  8
0
  6
Continuous
 62
     0
100
AcDbCircle
 10
35.42054748535156
 20
-20.53437995910645
 30
0.0
 40
15.0
100
AcDbArc
 50
126.9312793090332
 51
170.2727364609693
  0
ARC
  5
62
330
44
100
AcDbEntity
  8
0
  6
Continuous
 62
     0
100
AcDbCircle
 10
12.22457408905029
 20
-21.27795791625977
 30
0.0
 40
20.0
100
AcDbArc
 50
28.30557775081305
 51
38.91268736201901
  0
ARC
  5
63
330
44
100
AcDbEntity
  8
0
  6
Continuous
 62
     0
100
AcDbCircle
 10
27.0085506439209
 20
-9.343385696411133
 30
0.0
 40
1.0
100
AcDbArc
 50
38.91268736201901
 51
126.9312793090332
  0
ARC
  5
64
330
44
100
AcDbEntity
  8
0
  6
Continuous
 62
     0
100
AcDbCircle
 10
25.4310417175293
 20
-14.16534900665283
 30
0.0
 40
5.0
100
AcDbArc
 50
0.0
 51
28.30557775081305
  0
ARC
  5
65
330
44
100
AcDbEntity
  8
0
  6
Continuous
 62
     0
100
AcDbCircle
 10
-12.22457408905029
 20
-21.27795791625977
 30
0.0
 40
20.0
100
AcDbArc
 50
141.0873108167482
 51
151.6944170128595
  0
ARC
  5
66
330
44
100
AcDbEntity
  8
0
  6
Continuous
 62
     0
100
AcDbCircle
 10
-25.4310417175293
 20
-14.16534900665283
 30
0.0
 40
5.0
100
AcDbArc
 50
151.6944170128595
 51
180.0000050089563
  0
ARC
  5
67
330
44
100
AcDbEntity
  8
0
  6
Continuous
 62
     0
100
AcDbCircle
 10
-35.42054748535156
 20
-20.53437995910645
 30
0.0
 40
15.0
100
AcDbArc
 50
9.727194269679796
 51
53.068718869734
  0
ARC
  5
68
330
44
100
AcDbEntity
  8
0
  6
Continuous
 62
     0
100
AcDbCircle
 10
-27.0085506439209
 20
-9.343385696411133
 30
0.0
 40
1.0
100
AcDbArc
 50
53.068718869734
 51
141.0873108167482
  0
ENDBLK
  5
46
330
44
100
AcDbEntity
  8
0
100
AcDbBlockEnd
  0
BLOCK
  5
48
330
47
100
AcDbEntity
  8
0
100
AcDbBlockBegin
  2
DTL0002
 70
     0
 10
0.0
 20
0.0
 30
0.0
  3
DTL0002
  1

  0
POINT
  5
69
330
47
100
AcDbEntity
  8
0
 62
     0
100
AcDbPoint
 10
0.0
 20
0.0
 30
0.0
  0
LINE
  5
6A
330
47
100
AcDbEntity
  8
0
  6
Continuous
 62
     0
100
AcDbLine
 10
0.0
 20
-33.70000076293945
 30
0.0
 11
28.96200180053711
 21
-33.70000076293945
 31
0.0
  0
LINE
  5
6B
330
47
100
AcDbEntity
  8
0
  6
Continuous
 62
     0
100
AcDbLine
 10
0.0
 20
0.0
 30
0.0
 11
38.0
 21
0.0
 31
0.0
  0
LINE
  5
6C
330
47
100
AcDbEntity
  8
0
  6
DASHED
 62
     0
100
AcDbLine
 10
33.35000228881836
 20
-2.75
 30
0.0
 11
35.45000076293945
 21
-2.75
 31
0.0
  0
LINE
  5
6D
330
47
100
AcDbEntity
  8
0
  6
Continuous
 62
     0
100
AcDbLine
 10
31.12599563598633
 20
-13.0
 30
0.0
 11
31.5
 21
-13.0
 31
0.0
  0
LINE
  5
6E
330
47
100
AcDbEntity
  8
0
  6
DASHED
 62
     0
100
AcDbLine
 10
33.35000228881836
 20
-1.0
 30
0.0
 11
33.35000228881836
 21
-2.75
 31
0.0
  0
LINE
  5
6F
330
47
100
AcDbEntity
  8
0
  6
DASHED
 62
     0
100
AcDbLine
 10
31.7999993978141
 20
-6.499999685781392
 30
0.0
 11
31.49999939455365
 21
-12.99999967562398
 31
0.0
  0
LINE
  5
70
330
47
100
AcDbEntity
  8
0
  6
Continuous
 62
     0
100
AcDbLine
 10
38.00000189959515
 20
-0.000000515419133
 30
0.0
 11
37.47500194768431
 21
-20.99999984394128
 31
0.0
  0
LINE
  5
71
330
47
100
AcDbEntity
  8
0
  6
DASHED
 62
     0
100
AcDbLine
 10
29.96666511252049
 20
-7.499999453319374
 30
0.0
 11
29.84999840352367
 21
-11.00000056667463
 31
0.0
  0
LINE
  5
72
330
47
100
AcDbEntity
  8
0
  6
DASHED
 62
     0
100
AcDbLine
 10
28.50000092667466
 20
-10.99999975548542
 30
0.0
 11
28.0500009044295
 21
-33.69999998483377
 31
0.0
  0
LINE
  5
73
330
47
100
AcDbEntity
  8
0
  6
Continuous
 62
     0
100
AcDbLine
 10
29.57000040195006
 20
-28.69999942967535
 30
0.0
 11
29.46200036892538
 21
-33.20000061286418
 31
0.0
  0
LINE
  5
74
330
47
100
AcDbEntity
  8
0
  6
Continuous
 62
     0
100
AcDbLine
 10
29.88999841844113
 20
-23.70000067045202
 30
0.0
 11
29.56999832495049
 21
-28.70000214990787
 31
0.0
  0
LINE
  5
75
330
47
100
AcDbEntity
  8
0
  6
DASHED
 62
     0
100
AcDbLine
 10
30.12629132883866
 20
-13.97570732951103
 30
0.0
 11
29.93130854296943
 21
-21.9999986948104
 31
0.0
  0
LINE
  5
76
330
47
100
AcDbEntity
  8
0
  6
DASHED
 62
     0
100
AcDbLine
 10
29.96666621843418
 20
-7.499999323733936
 30
0.0
 11
30.9666666227884
 21
-6.499998919379722
 31
0.0
  0
LINE
  5
77
330
47
100
AcDbEntity
  8
0
  6
DASHED
 62
     0
100
AcDbLine
 10
31.12599563598633
 20
-13.0
 30
0.0
 11
34.7918701171875
 21
-13.0
 31
0.0
  0
LINE
  5
78
330
47
100
AcDbEntity
  8
0
  6
Continuous
 62
     0
100
AcDbLine
 10
28.96200167523636
 20
-33.70000135357473
 30
0.0
 11
29.4620008658891
 21
-33.20000216292198
 31
0.0
  0
LINE
  5
79
330
47
100
AcDbEntity
  8
0
  6
Continuous
 62
     0
100
AcDbLine
 10
36.47500279597372
 20
-22.00000147794737
 30
0.0
 11
37.47500320032793
 21
-21.00000107359316
 31
0.0
  0
LINE
  5
7A
330
47
100
AcDbEntity
  8
0
  6
DASHED
 62
     0
100
AcDbLine
 10
36.0000009923596
 20
-21.99999853170477
 30
0.0
 11
35.45000198810546
 21
-2.750000059069543
 31
0.0
  0
LINE
  5
7B
330
47
100
AcDbEntity
  8
0
  6
DASHED
 62
     0
100
AcDbLine
 10
32.5
 20
-20.0
 30
0.0
 11
32.5
 21
-22.0
 31
0.0
  0
LINE
  5
7C
330
47
100
AcDbEntity
  8
0
  6
DASHED
 62
     0
100
AcDbLine
 10
32.49999852479361
 20
-19.99999893807325
 30
0.0
 11
34.97476963670024
 21
-19.09925588446324
 31
0.0
  0
LINE
  5
7D
330
47
100
AcDbEntity
  8
0
  6
DASHED
 62
     0
100
AcDbLine
 10
35.14249999073944
 20
-13.00000055728978
 30
0.0
 11
34.97477066986505
 21
-19.09925721825472
 31
0.0
  0
LINE
  5
7E
330
47
100
AcDbEntity
  8
0
  6
Continuous
 62
     0
100
AcDbLine
 10
0.0
 20
-33.70000076293945
 30
0.0
 11
-28.96200180053711
 21
-33.70000076293945
 31
0.0
  0
LINE
  5
7F
330
47
100
AcDbEntity
  8
0
  6
Continuous
 62
     0
100
AcDbLine
 10
0.0
 20
0.0
 30
0.0
 11
-38.0
 21
0.0
 31
0.0
  0
LINE
  5
80
330
47
100
AcDbEntity
  8
0
  6
DASHED
 62
     0
100
AcDbLine
 10
-33.35000228881836
 20
-2.75
 30
0.0
 11
-35.45000076293945
 21
-2.75
 31
0.0
  0
LINE
  5
81
330
47
100
AcDbEntity
  8
0
  6
Continuous
 62
     0
100
AcDbLine
 10
-31.12599563598633
 20
-13.0
 30
0.0
 11
-31.5
 21
-13.0
 31
0.0
  0
LINE
  5
82
330
47
100
AcDbEntity
  8
0
  6
DASHED
 62
     0
100
AcDbLine
 10
34.57109069824219
 20
-6.5
 30
0.0
 11
-34.57109069824219
 21
-6.5
 31
0.0
  0
LINE
  5
83
330
47
100
AcDbEntity
  8
0
  6
DASHED
 62
     0
100
AcDbLine
 10
29.96666717529297
 20
-7.5
 30
0.0
 11
-29.96666717529297
 21
-7.5
 31
0.0
  0
LINE
  5
84
330
47
100
AcDbEntity
  8
0
  6
DASHED
 62
     0
100
AcDbLine
 10
-31.12599563598633
 20
-13.0
 30
0.0
 11
-34.7918701171875
 21
-13.0
 31
0.0
  0
LINE
  5
85
330
47
100
AcDbEntity
  8
0
  6
Continuous
 62
     0
100
AcDbLine
 10
-28.96200150664896
 20
-33.70000152216213
 30
0.0
 11
-29.4620006973017
 21
-33.20000233150938
 31
0.0
  0
LINE
  5
86
330
47
100
AcDbEntity
  8
0
  6
Continuous
 62
     0
100
AcDbLine
 10
-36.47500279597372
 20
-22.00000147794737
 30
0.0
 11
-37.47500252597836
 21
-21.00000174794273
 31
0.0
  0
LINE
  5
87
330
47
100
AcDbEntity
  8
0
  6
DASHED
 62
     0
100
AcDbLine
 10
-33.35000228881836
 20
-1.0
 30
0.0
 11
-33.35000228881836
 21
-2.75
 31
0.0
  0
LINE
  5
88
330
47
100
AcDbEntity
  8
0
  6
DASHED
 62
     0
100
AcDbLine
 10
-31.7999993978141
 20
-6.499999685781392
 30
0.0
 11
-31.49999943852258
 21
-12.99999872296379
 31
0.0
  0
LINE
  5
89
330
47
100
AcDbEntity
  8
0
  6
Continuous
 62
     0
100
AcDbLine
 10
-38.00000189661585
 20
-0.000000634591187
 30
0.0
 11
-37.47500199535313
 21
-20.99999793718841
 31
0.0
  0
LINE
  5
8A
330
47
100
AcDbEntity
  8
0
  6
Continuous
 62
     0
100
AcDbLine
 10
36.47500228881836
 20
-22.0
 30
0.0
 11
-36.47499847412109
 21
-22.0
 31
0.0
  0
LINE
  5
8B
330
47
100
AcDbEntity
  8
0
  6
DASHED
 62
     0
100
AcDbLine
 10
-29.96666514429199
 20
-7.499998500174435
 30
0.0
 11
-29.84999833998068
 21
-11.00000247296451
 31
0.0
  0
LINE
  5
8C
330
47
100
AcDbEntity
  8
0
  6
DASHED
 62
     0
100
AcDbLine
 10
-29.85000228881836
 20
-11.0
 30
0.0
 11
29.85000228881836
 21
-11.0
 31
0.0
  0
LINE
  5
8D
330
47
100
AcDbEntity
  8
0
  6
DASHED
 62
     0
100
AcDbLine
 10
-29.96666621843418
 20
-7.499999323733936
 30
0.0
 11
-30.9666666227884
 21
-6.499998919379722
 31
0.0
  0
LINE
  5
8E
330
47
100
AcDbEntity
  8
0
  6
DASHED
 62
     0
100
AcDbLine
 10
-28.50000090777293
 20
-11.0000007089724
 30
0.0
 11
-28.0500009044295
 21
-33.69999998483377
 31
0.0
  0
LINE
  5
8F
330
47
100
AcDbEntity
  8
0
  6
DASHED
 62
     0
100
AcDbLine
 10
-36.00000104683296
 20
-22.00000043827537
 30
0.0
 11
-35.4500020017238
 21
-2.750000535712194
 31
0.0
  0
LINE
  5
90
330
47
100
AcDbEntity
  8
0
  6
DASHED
 62
     0
100
AcDbLine
 10
-32.5
 20
-20.0
 30
0.0
 11
-32.5
 21
-22.0
 31
0.0
  0
LINE
  5
91
330
47
100
AcDbEntity
  8
0
  6
Continuous
 62
     0
100
AcDbLine
 10
-29.57000035618687
 20
-28.70000133647491
 30
0.0
 11
-29.46200036892538
 21
-33.20000061286418
 31
0.0
  0
LINE
  5
92
330
47
100
AcDbEntity
  8
0
  6
Continuous
 62
     0
100
AcDbLine
 10
-29.88999841844113
 20
-23.70000067045202
 30
0.0
 11
-29.56999832495049
 21
-28.70000214990787
 31
0.0
  0
LINE
  5
93
330
47
100
AcDbEntity
  8
0
  6
DASHED
 62
     0
100
AcDbLine
 10
-30.12629323562445
 20
-13.97570737584414
 30
0.0
 11
-29.93131040342211
 21
-22.00000064792931
 31
0.0
  0
LINE
  5
94
330
47
100
AcDbEntity
  8
0
  6
DASHED
 62
     0
100
AcDbLine
 10
-32.49999852479361
 20
-19.99999893807325
 30
0.0
 11
-34.97476963670024
 21
-19.09925588446324
 31
0.0
  0
LINE
  5
95
330
47
100
AcDbEntity
  8
0
  6
DASHED
 62
     0
100
AcDbLine
 10
-35.14249999073944
 20
-13.00000055728978
 30
0.0
 11
-34.97477066986505
 21
-19.09925721825472
 31
0.0
  0
LINE
  5
96
330
47
100
AcDbEntity
  8
0
  6
Continuous
 62
     0
100
AcDbLine
 10
-37.47500228881836
 20
-21.0
 30
0.0
 11
37.47500228881836
 21
-21.0
 31
0.0
  0
LINE
  5
97
330
47
100
AcDbEntity
  8
0
  6
Continuous
 62
     0
100
AcDbLine
 10
-29.93131040342211
 20
-22.00000064792931
 30
0.0
 11
-29.89000202309933
 21
-23.69999933274053
 31
0.0
  0
LINE
  5
98
330
47
100
AcDbEntity
  8
0
  6
Continuous
 62
     0
100
AcDbLine
 10
29.93130854296943
 20
-21.9999986948104
 30
0.0
 11
29.89000016264666
 21
-23.69999737962162
 31
0.0
  0
LINE
  5
99
330
47
100
AcDbEntity
  8
0
  6
Continuous
 62
     0
100
AcDbLine
 10
-29.46200180053711
 20
-33.20000076293945
 30
0.0
 11
29.46200180053711
 21
-33.20000076293945
 31
0.0
  0
ARC
  5
9A
330
47
100
AcDbEntity
  8
0
  6
DASHED
 62
     0
100
AcDbCircle
 10
-31.12599563598633
 20
-14.0
 30
0.0
 40
1.0
100
AcDbArc
 50
1.391960216171747
 51
89.999995674289
  0
ARC
  5
9B
330
47
100
AcDbEntity
  8
0
  6
DASHED
 62
     0
100
AcDbCircle
 10
34.57109069824219
 20
-5.5
 30
0.0
 40
1.0
100
AcDbArc
 50
269.9999974955218
 51
1.487867491341244
  0
ARC
  5
9C
330
47
100
AcDbEntity
  8
0
  6
DASHED
 62
     0
100
AcDbCircle
 10
34.35000228881836
 20
-1.0
 30
0.0
 40
1.0
100
AcDbArc
 50
90.00000250447816
 51
180.0000050089563
  0
ARC
  5
9D
330
47
100
AcDbEntity
  8
0
  6
DASHED
 62
     0
100
AcDbCircle
 10
31.12599563598633
 20
-14.0
 30
0.0
 40
1.0
100
AcDbArc
 50
90.00000250447816
 51
178.6080397768644
  0
ARC
  5
9E
330
47
100
AcDbEntity
  8
0
  6
DASHED
 62
     0
100
AcDbCircle
 10
34.7918701171875
 20
-14.0
 30
0.0
 40
1.0
100
AcDbArc
 50
1.487867491341244
 51
90.00000250447816
  0
ARC
  5
9F
330
47
100
AcDbEntity
  8
0
  6
DASHED
 62
     0
100
AcDbCircle
 10
-34.7918701171875
 20
-14.0
 30
0.0
 40
1.0
100
AcDbArc
 50
89.999995674289
 51
178.5121302605391
  0
ARC
  5
A0
330
47
100
AcDbEntity
  8
0
  6
DASHED
 62
     0
100
AcDbCircle
 10
-34.35000228881836
 20
-1.0
 30
0.0
 40
1.0
100
AcDbArc
 50
359.9999949910439
 51
89.999995674289
  0
ARC
  5
A1
330
47
100
AcDbEntity
  8
0
  6
DASHED
 62
     0
100
AcDbCircle
 10
-34.57109069824219
 20
-5.5
 30
0.0
 40
1.0
100
AcDbArc
 50
178.5121302605391
 51
270.0000006832453
  0
ENDBLK
  5
49
330
47
100
AcDbEntity
  8
0
100
AcDbBlockEnd
  0
BLOCK
  5
2A8
330
2A7
100
AcDbEntity
  8
0
100
AcDbBlockBegin
  2
_OPEN30
 70
     0
 10
0.0
 20
0.0
 30
0.0
  3
_OPEN30
  1

  0
LINE
  5
2AA
330
2A7
100
AcDbEntity
  8
0
  6
ByBlock
 62
     0
370
    -2
100
AcDbLine
 10
-1.0
 20
0.267949
 30
0.0
 11
0.0
 21
0.0
 31
0.0
  0
LINE
  5
2AB
330
2A7
100
AcDbEntity
  8
0
  6
ByBlock
 62
     0
370
    -2
100
AcDbLine
 10
0.0
 20
0.0
 30
0.0
 11
-1.0
 21
-0.267949
 31
0.0
  0
LINE
  5
2AC
330
2A7
100
AcDbEntity
  8
0
  6
ByBlock
 62
     0
370
    -2
100
AcDbLine
 10
0.0
 20
0.0
 30
0.0
 11
-1.0
 21
0.0
 31
0.0
  0
ENDBLK
  5
2A9
330
2A7
100
AcDbEntity
  8
0
100
AcDbBlockEnd
  0
BLOCK
  5
2AF
330
2AE
100
AcDbEntity
  8
0
100
AcDbBlockBegin
  2
*D4
 70
     1
 10
0.0
 20
0.0
 30
0.0
  3
*D4
  1

  0
LINE
  5
2B1
330
2AE
100
AcDbEntity
  8
0
 62
     0
370
    -2
100
AcDbLine
 10
-33.7724494934082
 20
-0.321799001693726
 30
0.0
 11
-33.7724494934082
 21
6.029244422912599
 31
0.0
  0
LINE
  5
2B2
330
2AE
100
AcDbEntity
  8
0
 62
     0
370
    -2
100
AcDbLine
 10
-17.10578346252441
 20
-0.321799001693726
 30
0.0
 11
-17.10578346252441
 21
6.029244422912597
 31
0.0
  0
LINE
  5
2B3
330
2AE
100
AcDbEntity
  8
0
 62
     0
370
    -2
100
AcDbLine
 10
-30.7724494934082
 20
4.529244422912599
 30
0.0
 11
-20.10578346252441
 21
4.529244422912597
 31
0.0
  0
INSERT
  5
2B4
330
2AE
100
AcDbEntity
  8
0
 62
     0
370
    -2
100
AcDbBlockReference
  2
_OPEN30
 10
-33.7724494934082
 20
4.529244422912599
 30
0.0
 41
3.0
 42
3.0
 43
3.0
 50
180.0
  0
INSERT
  5
2B5
330
2AE
100
AcDbEntity
  8
0
 62
     0
370
    -2
100
AcDbBlockReference
  2
_OPEN30
 10
-17.10578346252441
 20
4.529244422912597
 30
0.0
 41
3.0
 42
3.0
 43
3.0
 50
360.0
  0
MTEXT
  5
2B6
330
2AE
100
AcDbEntity
  8
0
 62
     1
100
AcDbMText
 10
-25.43811552429199
 20
6.943644458889962
 30
0.0
 40
3.200000047683716
 41
0.0
 71
     5
 72
     1
  1
50
 73
     1
 44
1.0
  0
POINT
  5
2B7
330
2AE
100
AcDbEntity
  8
Defpoints
 62
     0
100
AcDbPoint
 10
-33.7724494934082
 20
-2.861799001693726
 30
0.0
  0
POINT
  5
2B8
330
2AE
100
AcDbEntity
  8
Defpoints
 62
     0
100
AcDbPoint
 10
-17.10578346252441
 20
-2.861799001693726
 30
0.0
  0
POINT
  5
2B9
330
2AE
100
AcDbEntity
  8
Defpoints
 62
     0
100
AcDbPoint
 10
-17.10578346252441
 20
4.529244422912598
 30
0.0
  0
ENDBLK
  5
2B0
330
2AE
100
AcDbEntity
  8
0
100
AcDbBlockEnd
  0
BLOCK
  5
2BC
330
2BB
100
AcDbEntity
  8
0
100
AcDbBlockBegin
  2
*D5
 70
     1
 10
0.0
 20
0.0
 30
0.0
  3
*D5
  1

  0
LINE
  5
2BE
330
2BB
100
AcDbEntity
  8
0
 62
     0
370
    -2
100
AcDbLine
 10
-64.70578002929688
 20
-2.988465747833252
 30
0.0
 11
-64.70578002929688
 21
15.06211185455323
 31
0.0
  0
LINE
  5
2BF
330
2BB
100
AcDbEntity
  8
0
 62
     0
370
    -2
100
AcDbLine
 10
13.82755088806152
 20
-2.988465747833252
 30
0.0
 11
13.82755088806152
 21
15.06211185455322
 31
0.0
  0
LINE
  5
2C0
330
2BB
100
AcDbEntity
  8
0
 62
     0
370
    -2
100
AcDbLine
 10
-61.70578002929688
 20
13.56211185455323
 30
0.0
 11
10.82755088806152
 21
13.56211185455322
 31
0.0
  0
INSERT
  5
2C1
330
2BB
100
AcDbEntity
  8
0
 62
     0
370
    -2
100
AcDbBlockReference
  2
_OPEN30
 10
-64.70578002929688
 20
13.56211185455323
 30
0.0
 41
3.0
 42
3.0
 43
3.0
 50
180.0
  0
INSERT
  5
2C2
330
2BB
100
AcDbEntity
  8
0
 62
     0
370
    -2
100
AcDbBlockReference
  2
_OPEN30
 10
13.82755088806152
 20
13.56211185455322
 30
0.0
 41
3.0
 42
3.0
 43
3.0
 50
360.0
  0
MTEXT
  5
2C3
330
2BB
100
AcDbEntity
  8
0
 62
     1
100
AcDbMText
 10
-25.43811552429199
 20
15.97651189053059
 30
0.0
 40
3.200000047683716
 41
0.0
 71
     5
 72
     1
  1
236
 73
     1
 44
1.0
  0
POINT
  5
2C4
330
2BB
100
AcDbEntity
  8
Defpoints
 62
     0
100
AcDbPoint
 10
-64.70578002929688
 20
-5.528465747833252
 30
0.0
  0
POINT
  5
2C5
330
2BB
100
AcDbEntity
  8
Defpoints
 62
     0
100
AcDbPoint
 10
13.82755088806152
 20
-5.528465747833252
 30
0.0
  0
POINT
  5
2C6
330
2BB
100
AcDbEntity
  8
Defpoints
 62
     0
100
AcDbPoint
 10
13.82755088806153
 20
13.56211185455322
 30
0.0
  0
ENDBLK
  5
2BD
330
2BB
100
AcDbEntity
  8
0
100
AcDbBlockEnd
  0
BLOCK
  5
2C9
330
2C8
100
AcDbEntity
  8
0
100
AcDbBlockBegin
  2
*D6
 70
     1
 10
0.0
 20
0.0
 30
0.0
  3
*D6
  1

  0
LINE
  5
2CB
330
2C8
100
AcDbEntity
  8
0
 62
     0
370
    -2
100
AcDbLine
 10
-35.25578308105469
 20
-89.30180267333985
 30
0.0
 11
-35.25578308105469
 21
-98.26080267333984
 31
0.0
  0
LINE
  5
2CC
330
2C8
100
AcDbEntity
  8
0
 62
     0
370
    -2
100
AcDbLine
 10
-15.62244892120362
 20
-89.30180267333985
 30
0.0
 11
-15.62244892120362
 21
-98.26080267333984
 31
0.0
  0
LINE
  5
2CD
330
2C8
100
AcDbEntity
  8
0
 62
     0
370
    -2
100
AcDbLine
 10
-32.25578308105469
 20
-96.76080267333984
 30
0.0
 11
-18.62244892120362
 21
-96.76080267333984
 31
0.0
  0
INSERT
  5
2CE
330
2C8
100
AcDbEntity
  8
0
 62
     0
370
    -2
100
AcDbBlockReference
  2
_OPEN30
 10
-35.25578308105469
 20
-96.76080267333984
 30
0.0
 41
3.0
 42
3.0
 43
3.0
 50
180.0
  0
INSERT
  5
2CF
330
2C8
100
AcDbEntity
  8
0
 62
     0
370
    -2
100
AcDbBlockReference
  2
_OPEN30
 10
-15.62244892120362
 20
-96.76080267333984
 30
0.0
 41
3.0
 42
3.0
 43
3.0
  0
MTEXT
  5
2D0
330
2C8
100
AcDbEntity
  8
0
 62
     1
100
AcDbMText
 10
-25.43811552429199
 20
-94.34640263736247
 30
0.0
 40
3.200000047683716
 41
0.0
 71
     5
 72
     1
  1
\U+220559
 73
     1
 44
1.0
  0
POINT
  5
2D1
330
2C8
100
AcDbEntity
  8
Defpoints
 62
     0
100
AcDbPoint
 10
-35.25578308105469
 20
-86.76180267333984
 30
0.0
  0
POINT
  5
2D2
330
2C8
100
AcDbEntity
  8
Defpoints
 62
     0
100
AcDbPoint
 10
-15.62244892120361
 20
-86.76180267333984
 30
0.0
  0
POINT
  5
2D3
330
2C8
100
AcDbEntity
  8
Defpoints
 62
     0
100
AcDbPoint
 10
-15.62244892120362
 20
-96.76180267333984
 30
0.0
  0
ENDBLK
  5
2CA
330
2C8
100
AcDbEntity
  8
0
100
AcDbBlockEnd
  0
BLOCK
  5
2D6
330
2D5
100
AcDbEntity
  8
0
100
AcDbBlockBegin
  2
*D7
 70
     1
 10
0.0
 20
0.0
 30
0.0
  3
*D7
  1

  0
LINE
  5
2D8
330
2D5
100
AcDbEntity
  8
0
 62
     0
370
    -2
100
AcDbLine
 10
46.55680465698242
 20
-27.32179924011231
 30
0.0
 11
46.55680465698243
 21
6.0292444229126
 31
0.0
  0
LINE
  5
2D9
330
2D5
100
AcDbEntity
  8
0
 62
     0
370
    -2
100
AcDbLine
 10
85.72347259521484
 20
-27.32179924011231
 30
0.0
 11
85.72347259521484
 21
6.029244422912596
 31
0.0
  0
LINE
  5
2DA
330
2D5
100
AcDbEntity
  8
0
 62
     0
370
    -2
100
AcDbLine
 10
49.55680465698243
 20
4.5292444229126
 30
0.0
 11
82.72347259521484
 21
4.529244422912596
 31
0.0
  0
INSERT
  5
2DB
330
2D5
100
AcDbEntity
  8
0
 62
     0
370
    -2
100
AcDbBlockReference
  2
_OPEN30
 10
46.55680465698243
 20
4.5292444229126
 30
0.0
 41
3.0
 42
3.0
 43
3.0
 50
180.0
  0
INSERT
  5
2DC
330
2D5
100
AcDbEntity
  8
0
 62
     0
370
    -2
100
AcDbBlockReference
  2
_OPEN30
 10
85.72347259521484
 20
4.529244422912596
 30
0.0
 41
3.0
 42
3.0
 43
3.0
 50
360.0
  0
MTEXT
  5
2DD
330
2D5
100
AcDbEntity
  8
0
 62
     1
100
AcDbMText
 10
66.14113671875
 20
6.950044458985329
 30
0.0
 40
3.200000047683716
 41
0.0
 71
     5
 72
     1
  1
117.5
 73
     1
 44
1.0
  0
POINT
  5
2DE
330
2D5
100
AcDbEntity
  8
Defpoints
 62
     0
100
AcDbPoint
 10
46.55680465698242
 20
-29.8617992401123
 30
0.0
  0
POINT
  5
2DF
330
2D5
100
AcDbEntity
  8
Defpoints
 62
     0
100
AcDbPoint
 10
85.72347259521484
 20
-29.8617992401123
 30
0.0
  0
POINT
  5
2E0
330
2D5
100
AcDbEntity
  8
Defpoints
 62
     0
100
AcDbPoint
 10
85.72347259521484
 20
4.529244422912598
 30
0.0
  0
ENDBLK
  5
2D7
330
2D5
100
AcDbEntity
  8
0
100
AcDbBlockEnd
  0
BLOCK
  5
2E3
330
2E2
100
AcDbEntity
  8
0
100
AcDbBlockBegin
  2
*D8
 70
     1
 10
0.0
 20
0.0
 30
0.0
  3
*D8
  1

  0
LINE
  5
2E5
330
2E2
100
AcDbEntity
  8
0
 62
     0
370
    -2
100
AcDbLine
 10
25.05680465698242
 20
-0.321799001693726
 30
0.0
 11
25.05680465698242
 21
15.06211185455323
 31
0.0
  0
LINE
  5
2E6
330
2E2
100
AcDbEntity
  8
0
 62
     0
370
    -2
100
AcDbLine
 10
88.72347259521484
 20
-22.65513320922852
 30
0.0
 11
88.72347259521484
 21
15.06211185455322
 31
0.0
  0
LINE
  5
2E7
330
2E2
100
AcDbEntity
  8
0
 62
     0
370
    -2
100
AcDbLine
 10
28.05680465698242
 20
13.56211185455323
 30
0.0
 11
85.72347259521484
 21
13.56211185455322
 31
0.0
  0
INSERT
  5
2E8
330
2E2
100
AcDbEntity
  8
0
 62
     0
370
    -2
100
AcDbBlockReference
  2
_OPEN30
 10
25.05680465698242
 20
13.56211185455323
 30
0.0
 41
3.0
 42
3.0
 43
3.0
 50
180.0
  0
INSERT
  5
2E9
330
2E2
100
AcDbEntity
  8
0
 62
     0
370
    -2
100
AcDbBlockReference
  2
_OPEN30
 10
88.72347259521484
 20
13.56211185455322
 30
0.0
 41
3.0
 42
3.0
 43
3.0
 50
360.0
  0
MTEXT
  5
2EA
330
2E2
100
AcDbEntity
  8
0
 62
     1
100
AcDbMText
 10
56.89113671875
 20
15.97651189053059
 30
0.0
 40
3.200000047683716
 41
0.0
 71
     5
 72
     1
  1
191
 73
     1
 44
1.0
  0
POINT
  5
2EB
330
2E2
100
AcDbEntity
  8
Defpoints
 62
     0
100
AcDbPoint
 10
25.05680465698242
 20
-2.861799001693726
 30
0.0
  0
POINT
  5
2EC
330
2E2
100
AcDbEntity
  8
Defpoints
 62
     0
100
AcDbPoint
 10
88.72347259521484
 20
-25.19513320922852
 30
0.0
  0
POINT
  5
2ED
330
2E2
100
AcDbEntity
  8
Defpoints
 62
     0
100
AcDbPoint
 10
88.72347259521484
 20
13.56211185455322
 30
0.0
  0
ENDBLK
  5
2E4
330
2E2
100
AcDbEntity
  8
0
100
AcDbBlockEnd
  0
BLOCK
  5
2F0
330
2EF
100
AcDbEntity
  8
0
100
AcDbBlockBegin
  2
*D9
 70
     1
 10
0.0
 20
0.0
 30
0.0
  3
*D9
  1

  0
LINE
  5
2F2
330
2EF
100
AcDbEntity
  8
0
 62
     0
370
    -2
100
AcDbLine
 10
-40.64578155517578
 20
-75.52847290039062
 30
0.0
 11
-70.91236767578123
 21
-75.52847290039062
 31
0.0
  0
LINE
  5
2F3
330
2EF
100
AcDbEntity
  8
0
 62
     0
370
    -2
100
AcDbLine
 10
-69.41236767578125
 20
-8.528465747833252
 30
0.0
 11
-69.41236767578123
 21
-72.52847290039062
 31
0.0
  0
INSERT
  5
2F4
330
2EF
100
AcDbEntity
  8
0
 62
     0
370
    -2
100
AcDbBlockReference
  2
_OPEN30
 10
-69.41236767578125
 20
-5.528465747833252
 30
0.0
 41
3.0
 42
3.0
 43
3.0
 50
90.00000000000001
  0
INSERT
  5
2F5
330
2EF
100
AcDbEntity
  8
0
 62
     0
370
    -2
100
AcDbBlockReference
  2
_OPEN30
 10
-69.41236767578123
 20
-75.52847290039062
 30
0.0
 41
3.0
 42
3.0
 43
3.0
 50
270.0
  0
MTEXT
  5
2F6
330
2EF
100
AcDbEntity
  8
0
 62
     1
100
AcDbMText
 10
-71.8267677117586
 20
-40.52746908569336
 30
0.0
 40
3.200000047683716
 41
0.0
 71
     5
 72
     1
  1
210
 11
-4.060243789470191E-16
 21
1.0
 31
0.0
 73
     1
 44
1.0
  0
POINT
  5
2F7
330
2EF
100
AcDbEntity
  8
Defpoints
 62
     0
100
AcDbPoint
 10
-64.70578002929688
 20
-5.528465747833252
 30
0.0
  0
POINT
  5
2F8
330
2EF
100
AcDbEntity
  8
Defpoints
 62
     0
100
AcDbPoint
 10
-38.10578155517578
 20
-75.52847290039062
 30
0.0
  0
POINT
  5
2F9
330
2EF
100
AcDbEntity
  8
Defpoints
 62
     0
100
AcDbPoint
 10
-69.41436767578125
 20
-75.52847290039064
 30
0.0
  0
ENDBLK
  5
2F1
330
2EF
100
AcDbEntity
  8
0
100
AcDbBlockEnd
  0
BLOCK
  5
2FC
330
2FB
100
AcDbEntity
  8
0
100
AcDbBlockBegin
  2
*D10
 70
     1
 10
0.0
 20
0.0
 30
0.0
  3
*D10
  1

  0
LINE
  5
2FE
330
2FB
100
AcDbEntity
  8
0
 62
     0
370
    -2
100
AcDbLine
 10
-69.41236767578124
 20
-78.52847290039064
 30
0.0
 11
-69.41236767578124
 21
-83.76180267333986
 31
0.0
  0
INSERT
  5
2FF
330
2FB
100
AcDbEntity
  8
0
 62
     0
370
    -2
100
AcDbBlockReference
  2
_OPEN30
 10
-69.41236767578124
 20
-75.52847290039064
 30
0.0
 41
3.0
 42
3.0
 43
3.0
 50
90.0
  0
INSERT
  5
300
330
2FB
100
AcDbEntity
  8
0
 62
     0
370
    -2
100
AcDbBlockReference
  2
_OPEN30
 10
-69.41236767578124
 20
-86.76180267333986
 30
0.0
 41
3.0
 42
3.0
 43
3.0
 50
270.0
  0
MTEXT
  5
301
330
2FB
100
AcDbEntity
  8
0
 62
     1
100
AcDbMText
 10
-71.8267677117586
 20
-81.14413397216796
 30
0.0
 40
3.200000047683716
 41
0.0
 71
     5
 72
     1
  1
34
 11
0.0
 21
1.0
 31
0.0
 73
     1
 44
1.0
  0
POINT
  5
302
330
2FB
100
AcDbEntity
  8
Defpoints
 62
     0
100
AcDbPoint
 10
-38.10578155517578
 20
-75.52847290039062
 30
0.0
  0
POINT
  5
303
330
2FB
100
AcDbEntity
  8
Defpoints
 62
     0
100
AcDbPoint
 10
-35.25578308105469
 20
-86.76180267333984
 30
0.0
  0
POINT
  5
304
330
2FB
100
AcDbEntity
  8
Defpoints
 62
     0
100
AcDbPoint
 10
-69.41436767578125
 20
-86.76180267333986
 30
0.0
  0
ENDBLK
  5
2FD
330
2FB
100
AcDbEntity
  8
0
100
AcDbBlockEnd
  0
BLOCK
  5
307
330
306
100
AcDbEntity
  8
0
100
AcDbBlockBegin
  2
*D11
 70
     1
 10
0.0
 20
0.0
 30
0.0
  3
*D11
  1

  0
LINE
  5
309
330
306
100
AcDbEntity
  8
0
 62
     0
370
    -2
100
AcDbLine
 10
-37.79578308105469
 20
-86.76180267333984
 30
0.0
 11
-78.95199530029298
 21
-86.76180267333983
 31
0.0
  0
LINE
  5
30A
330
306
100
AcDbEntity
  8
0
 62
     0
370
    -2
100
AcDbLine
 10
-67.24578002929688
 20
-5.52846574783325
 30
0.0
 11
-78.95199530029296
 21
-5.528465747833244
 31
0.0
  0
LINE
  5
30B
330
306
100
AcDbEntity
  8
0
 62
     0
370
    -2
100
AcDbLine
 10
-77.45199530029298
 20
-83.76180267333983
 30
0.0
 11
-77.45199530029296
 21
-8.528465747833245
 31
0.0
  0
INSERT
  5
30C
330
306
100
AcDbEntity
  8
0
 62
     0
370
    -2
100
AcDbBlockReference
  2
_OPEN30
 10
-77.45199530029298
 20
-86.76180267333983
 30
0.0
 41
3.0
 42
3.0
 43
3.0
 50
270.0
  0
INSERT
  5
30D
330
306
100
AcDbEntity
  8
0
 62
     0
370
    -2
100
AcDbBlockReference
  2
_OPEN30
 10
-77.45199530029296
 20
-5.528465747833245
 30
0.0
 41
3.0
 42
3.0
 43
3.0
 50
89.99999999999999
  0
MTEXT
  5
30E
330
306
100
AcDbEntity
  8
0
 62
     1
100
AcDbMText
 10
-79.86639533627033
 20
-46.14413397216797
 30
0.0
 40
3.200000047683716
 41
0.0
 71
     5
 72
     1
  1
244
 11
1.749387043921855E-16
 21
1.0
 31
0.0
 73
     1
 44
1.0
  0
POINT
  5
30F
330
306
100
AcDbEntity
  8
Defpoints
 62
     0
100
AcDbPoint
 10
-35.25578308105469
 20
-86.76180267333984
 30
0.0
  0
POINT
  5
310
330
306
100
AcDbEntity
  8
Defpoints
 62
     0
100
AcDbPoint
 10
-64.70578002929688
 20
-5.528465747833252
 30
0.0
  0
POINT
  5
311
330
306
100
AcDbEntity
  8
Defpoints
 62
     0
100
AcDbPoint
 10
-77.45299530029297
 20
-5.528465747833249
 30
0.0
  0
ENDBLK
  5
308
330
306
100
AcDbEntity
  8
0
100
AcDbBlockEnd
  0
BLOCK
  5
314
330
313
100
AcDbEntity
  8
0
100
AcDbBlockBegin
  2
_NONE
 70
     0
 10
0.0
 20
0.0
 30
0.0
  3
_NONE
  1

  0
ENDBLK
  5
315
330
313
100
AcDbEntity
  8
0
100
AcDbBlockEnd
  0
BLOCK
  5
317
330
316
100
AcDbEntity
  8
0
100
AcDbBlockBegin
  2
*D13
 70
     1
 10
0.0
 20
0.0
 30
0.0
  3
*D13
  1

  0
POINT
  5
31C
330
316
100
AcDbEntity
  8
Defpoints
 62
     0
100
AcDbPoint
 10
58.90128946366751
 20
-45.11119624747892
 30
0.0
  0
POINT
  5
31D
330
316
100
AcDbEntity
  8
Defpoints
 62
     0
100
AcDbPoint
 10
66.14013645644307
 20
-29.36179829376114
 30
0.0
  0
LINE
  5
31E
330
316
100
AcDbEntity
  8
0
  6
Continuous
 62
     7
100
AcDbLine
 10
66.14013645644307
 20
-29.36179829376114
 30
0.0
 11
58.90128946366751
 21
-45.11119624747892
 31
0.0
  0
LINE
  5
31F
330
316
100
AcDbEntity
  8
0
  6
Continuous
 62
     7
100
AcDbLine
 10
58.90128946366751
 20
-45.11119624747892
 30
0.0
 11
59.43327185790161
 21
-41.99398680102435
 31
0.0
  0
LINE
  5
320
330
316
100
AcDbEntity
  8
0
  6
Continuous
 62
     7
100
AcDbLine
 10
58.90128946366751
 20
-45.11119624747892
 30
0.0
 11
60.92060445452703
 21
-42.67760487493285
 31
0.0
  0
MTEXT
  5
321
330
316
100
AcDbEntity
  8
0
 62
     1
100
AcDbMText
 10
60.49851931455463
 20
-39.71858149434809
 30
0.0
 40
3.200000047683716
 41
0.0
 71
     7
 72
     1
  1
\W0.6875;R52
 11
0.4178670738010768
 21
0.9085081775267217
 31
0.0
 73
     1
 44
1.0
  0
ENDBLK
  5
318
330
316
100
AcDbEntity
  8
0
100
AcDbBlockEnd
  0
BLOCK
  5
324
330
323
100
AcDbEntity
  8
0
100
AcDbBlockBegin
  2
*D14
 70
     1
 10
0.0
 20
0.0
 30
0.0
  3
*D14
  1

  0
LINE
  5
326
330
323
100
AcDbEntity
  8
0
 62
     0
370
    -2
100
AcDbLine
 10
35.01680465698242
 20
-29.86179924011231
 30
0.0
 11
26.05880465698242
 21
-29.86179924011231
 31
0.0
  0
LINE
  5
327
330
323
100
AcDbEntity
  8
0
 62
     0
370
    -2
100
AcDbLine
 10
63.60013671875
 20
-46.69513320922852
 30
0.0
 11
26.05880465698243
 21
-46.69513320922854
 31
0.0
  0
LINE
  5
328
330
323
100
AcDbEntity
  8
0
 62
     0
370
    -2
100
AcDbLine
 10
27.55880465698242
 20
-32.86179924011231
 30
0.0
 11
27.55880465698243
 21
-43.69513320922854
 31
0.0
  0
INSERT
  5
329
330
323
100
AcDbEntity
  8
0
 62
     0
370
    -2
100
AcDbBlockReference
  2
_OPEN30
 10
27.55880465698242
 20
-29.86179924011231
 30
0.0
 41
3.0
 42
3.0
 43
3.0
 50
90.00000000000001
  0
INSERT
  5
32A
330
323
100
AcDbEntity
  8
0
 62
     0
370
    -2
100
AcDbBlockReference
  2
_OPEN30
 10
27.55880465698243
 20
-46.69513320922854
 30
0.0
 41
3.0
 42
3.0
 43
3.0
 50
270.0
  0
MTEXT
  5
32B
330
323
100
AcDbEntity
  8
0
 62
     1
100
AcDbMText
 10
25.13800462090969
 20
-38.2774652709961
 30
0.0
 40
3.200000047683716
 41
0.0
 71
     5
 72
     1
  1
50.5
 11
-4.221045795584633E-16
 21
1.0
 31
0.0
 73
     1
 44
1.0
  0
POINT
  5
32C
330
323
100
AcDbEntity
  8
Defpoints
 62
     0
100
AcDbPoint
 10
37.55680465698242
 20
-29.8617992401123
 30
0.0
  0
POINT
  5
32D
330
323
100
AcDbEntity
  8
Defpoints
 62
     0
100
AcDbPoint
 10
66.14013671875
 20
-46.69513320922852
 30
0.0
  0
POINT
  5
32E
330
323
100
AcDbEntity
  8
Defpoints
 62
     0
100
AcDbPoint
 10
27.55680465698242
 20
-46.69513320922854
 30
0.0
  0
ENDBLK
  5
325
330
323
100
AcDbEntity
  8
0
100
AcDbBlockEnd
  0
BLOCK
  5
331
330
330
100
AcDbEntity
  8
0
100
AcDbBlockBegin
  2
*D15
 70
     1
 10
0.0
 20
0.0
 30
0.0
  3
*D15
  1

  0
LINE
  5
333
330
330
100
AcDbEntity
  8
0
 62
     0
370
    -2
100
AcDbLine
 10
-37.92245101928711
 20
-85.40180114746094
 30
0.0
 11
-37.92245101928712
 21
-104.927466796875
 31
0.0
  0
LINE
  5
334
330
330
100
AcDbEntity
  8
0
 62
     0
370
    -2
100
AcDbLine
 10
-12.95578193664551
 20
-85.40180114746094
 30
0.0
 11
-12.95578193664551
 21
-104.927466796875
 31
0.0
  0
LINE
  5
335
330
330
100
AcDbEntity
  8
0
 62
     0
370
    -2
100
AcDbLine
 10
-34.92245101928712
 20
-103.427466796875
 30
0.0
 11
-15.95578193664551
 21
-103.427466796875
 31
0.0
  0
INSERT
  5
336
330
330
100
AcDbEntity
  8
0
 62
     0
370
    -2
100
AcDbBlockReference
  2
_OPEN30
 10
-37.92245101928712
 20
-103.427466796875
 30
0.0
 41
3.0
 42
3.0
 43
3.0
 50
180.0
  0
INSERT
  5
337
330
330
100
AcDbEntity
  8
0
 62
     0
370
    -2
100
AcDbBlockReference
  2
_OPEN30
 10
-12.95578193664551
 20
-103.427466796875
 30
0.0
 41
3.0
 42
3.0
 43
3.0
  0
MTEXT
  5
338
330
330
100
AcDbEntity
  8
0
 62
     1
100
AcDbMText
 10
-25.43811552429199
 20
-101.0130667608976
 30
0.0
 40
3.200000047683716
 41
0.0
 71
     5
 72
     1
  1
\U+220575
 73
     1
 44
1.0
  0
POINT
  5
339
330
330
100
AcDbEntity
  8
Defpoints
 62
     0
100
AcDbPoint
 10
-37.92245101928711
 20
-82.86180114746094
 30
0.0
  0
POINT
  5
33A
330
330
100
AcDbEntity
  8
Defpoints
 62
     0
100
AcDbPoint
 10
-12.95578193664551
 20
-82.86180114746094
 30
0.0
  0
POINT
  5
33B
330
330
100
AcDbEntity
  8
Defpoints
 62
     0
100
AcDbPoint
 10
-12.95578193664551
 20
-103.428466796875
 30
0.0
  0
ENDBLK
  5
332
330
330
100
AcDbEntity
  8
0
100
AcDbBlockEnd
  0
BLOCK
  5
33E
330
33D
100
AcDbEntity
  8
0
100
AcDbBlockBegin
  2
*D16
 70
     1
 10
0.0
 20
0.0
 30
0.0
  3
*D16
  1

  0
LINE
  5
340
330
33D
100
AcDbEntity
  8
0
 62
     0
370
    -2
100
AcDbLine
 10
-55.9124479675293
 20
96.70748901367188
 30
0.0
 11
-70.91236767578125
 21
96.70748901367186
 31
0.0
  0
LINE
  5
341
330
33D
100
AcDbEntity
  8
0
 62
     0
370
    -2
100
AcDbLine
 10
-36.31245712280273
 20
33.04082489013672
 30
0.0
 11
-70.91236767578123
 21
33.04082489013669
 31
0.0
  0
LINE
  5
342
330
33D
100
AcDbEntity
  8
0
 62
     0
370
    -2
100
AcDbLine
 10
-69.41236767578125
 20
93.70748901367186
 30
0.0
 11
-69.41236767578123
 21
36.04082489013669
 31
0.0
  0
INSERT
  5
343
330
33D
100
AcDbEntity
  8
0
 62
     0
370
    -2
100
AcDbBlockReference
  2
_OPEN30
 10
-69.41236767578125
 20
96.70748901367186
 30
0.0
 41
3.0
 42
3.0
 43
3.0
 50
90.00000000000001
  0
INSERT
  5
344
330
33D
100
AcDbEntity
  8
0
 62
     0
370
    -2
100
AcDbBlockReference
  2
_OPEN30
 10
-69.41236767578123
 20
33.04082489013669
 30
0.0
 41
3.0
 42
3.0
 43
3.0
 50
270.0
  0
MTEXT
  5
345
330
33D
100
AcDbEntity
  8
0
 62
     1
100
AcDbMText
 10
-71.8267677117586
 20
64.87516076660157
 30
0.0
 40
3.200000047683716
 41
0.0
 71
     5
 72
     1
  1
191
 11
-4.464143020789679E-16
 21
1.0
 31
0.0
 73
     1
 44
1.0
  0
POINT
  5
346
330
33D
100
AcDbEntity
  8
Defpoints
 62
     0
100
AcDbPoint
 10
-53.3724479675293
 20
96.70748901367188
 30
0.0
  0
POINT
  5
347
330
33D
100
AcDbEntity
  8
Defpoints
 62
     0
100
AcDbPoint
 10
-33.77245712280273
 20
33.04082489013672
 30
0.0
  0
POINT
  5
348
330
33D
100
AcDbEntity
  8
Defpoints
 62
     0
100
AcDbPoint
 10
-69.41436767578125
 20
33.0408248901367
 30
0.0
  0
ENDBLK
  5
33F
330
33D
100
AcDbEntity
  8
0
100
AcDbBlockEnd
  0
BLOCK
  5
34B
330
34A
100
AcDbEntity
  8
0
100
AcDbBlockBegin
  2
*D17
 70
     1
 10
0.0
 20
0.0
 30
0.0
  3
*D17
  1

  0
LINE
  5
34D
330
34A
100
AcDbEntity
  8
0
 62
     0
370
    -2
100
AcDbLine
 10
-53.3724479675293
 20
99.24748901367188
 30
0.0
 11
-53.3724479675293
 21
108.2074890136719
 31
0.0
  0
LINE
  5
34E
330
34A
100
AcDbEntity
  8
0
 62
     0
370
    -2
100
AcDbLine
 10
2.494217395782471
 20
99.24748901367188
 30
0.0
 11
2.494217395782471
 21
108.2074890136719
 31
0.0
  0
LINE
  5
34F
330
34A
100
AcDbEntity
  8
0
 62
     0
370
    -2
100
AcDbLine
 10
-50.3724479675293
 20
106.7074890136719
 30
0.0
 11
-0.505782604217529
 21
106.7074890136719
 31
0.0
  0
INSERT
  5
350
330
34A
100
AcDbEntity
  8
0
 62
     0
370
    -2
100
AcDbBlockReference
  2
_OPEN30
 10
-53.3724479675293
 20
106.7074890136719
 30
0.0
 41
3.0
 42
3.0
 43
3.0
 50
180.0
  0
INSERT
  5
351
330
34A
100
AcDbEntity
  8
0
 62
     0
370
    -2
100
AcDbBlockReference
  2
_OPEN30
 10
2.494217395782471
 20
106.7074890136719
 30
0.0
 41
3.0
 42
3.0
 43
3.0
  0
MTEXT
  5
352
330
34A
100
AcDbEntity
  8
0
 62
     1
100
AcDbMText
 10
-25.43811552429199
 20
109.1218890496492
 30
0.0
 40
3.200000047683716
 41
0.0
 71
     5
 72
     1
  1
168
 73
     1
 44
1.0
  0
POINT
  5
353
330
34A
100
AcDbEntity
  8
Defpoints
 62
     0
100
AcDbPoint
 10
-53.3724479675293
 20
96.70748901367188
 30
0.0
  0
POINT
  5
354
330
34A
100
AcDbEntity
  8
Defpoints
 62
     0
100
AcDbPoint
 10
2.494217395782471
 20
96.70748901367188
 30
0.0
  0
POINT
  5
355
330
34A
100
AcDbEntity
  8
Defpoints
 62
     0
100
AcDbPoint
 10
2.494217395782472
 20
106.7074890136719
 30
0.0
  0
ENDBLK
  5
34C
330
34A
100
AcDbEntity
  8
0
100
AcDbBlockEnd
  0
BLOCK
  5
358
330
357
100
AcDbEntity
  8
0
100
AcDbBlockBegin
  2
*D18
 70
     1
 10
0.0
 20
0.0
 30
0.0
  3
*D18
  1

  0
MTEXT
  5
360
330
357
100
AcDbEntity
  8
0
 62
     1
100
AcDbMText
 10
75.69320849978924
 20
-61.70187193667888
 30
0.0
 40
3.200000047683716
 41
0.0
 71
     5
 72
     1
  1
5
 73
     1
 44
1.0
  0
POINT
  5
361
330
357
100
AcDbEntity
  8
Defpoints
 62
     0
100
AcDbPoint
 10
66.14013671875
 20
-65.0221176147461
 30
0.0
  0
POINT
  5
362
330
357
100
AcDbEntity
  8
Defpoints
 62
     0
100
AcDbPoint
 10
67.80680847167969
 20
-65.85250854492188
 30
0.0
  0
POINT
  5
363
330
357
100
AcDbEntity
  8
Defpoints
 62
     0
100
AcDbPoint
 10
67.80680847167969
 20
-64.11627197265625
 30
0.0
  0
LINE
  5
364
330
357
100
AcDbEntity
  8
0
  6
Continuous
 62
     7
100
AcDbLine
 10
59.79013671875
 20
-64.11627197265625
 30
0.0
 11
74.15680847167968
 21
-64.11627197265625
 31
0.0
  0
LINE
  5
365
330
357
100
AcDbEntity
  8
0
  6
Continuous
 62
     7
100
AcDbLine
 10
66.14013671875
 20
-64.11627197265625
 30
0.0
 11
63.08561105674438
 21
-64.93472965695625
 31
0.0
  0
LINE
  5
366
330
357
100
AcDbEntity
  8
0
  6
Continuous
 62
     7
100
AcDbLine
 10
66.14013671875
 20
-64.11627197265625
 30
0.0
 11
63.08561105674438
 21
-63.29781428835625
 31
0.0
  0
LINE
  5
367
330
357
100
AcDbEntity
  8
0
  6
Continuous
 62
     7
100
AcDbLine
 10
67.80680847167969
 20
-64.11627197265625
 30
0.0
 11
70.86133413368532
 21
-63.29781428835625
 31
0.0
  0
LINE
  5
368
330
357
100
AcDbEntity
  8
0
  6
Continuous
 62
     7
100
AcDbLine
 10
67.80680847167969
 20
-64.11627197265625
 30
0.0
 11
70.86133413368532
 21
-64.93472965695625
 31
0.0
  0
LINE
  5
369
330
357
100
AcDbEntity
  8
0
  6
Continuous
 62
     7
100
AcDbLine
 10
67.80680847167969
 20
-64.11627197265625
 30
0.0
 11
71.27190399169922
 21
-64.11627197265625
 31
0.0
  0
ENDBLK
  5
359
330
357
100
AcDbEntity
  8
0
100
AcDbBlockEnd
  0
ENDSEC
  0
SECTION
  2
ENTITIES
  0
LINE
  5
A2
330
1F
100
AcDbEntity
  8
0
  6
CENTER
 62
     7
100
AcDbLine
 10
-25.43911552429199
 20
97.96021270751953
 30
0.0
 11
-25.43911552429199
 21
30.20658683776855
 31
0.0
  0
LINE
  5
A3
330
1F
100
AcDbEntity
  8
0
  6
Continuous
 62
     7
100
AcDbLine
 10
-33.77245330810547
 20
-2.861799001693726
 30
0.0
 11
-17.10578346252441
 21
-2.861799001693726
 31
0.0
  0
LINE
  5
A4
330
1F
100
AcDbEntity
  8
0
  6
Continuous
 62
     7
100
AcDbLine
 10
-64.70578002929688
 20
-5.528465747833252
 30
0.0
 11
-64.70578002929688
 21
-6.861799240112305
 31
0.0
  0
LINE
  5
A5
330
1F
100
AcDbEntity
  8
0
  6
Continuous
 62
     7
100
AcDbLine
 10
-33.77245330810547
 20
-4.195132255554199
 30
0.0
 11
-17.10578346252441
 21
-4.195132255554199
 31
0.0
  0
LINE
  5
A6
330
1F
100
AcDbEntity
  8
0
  6
Continuous
 62
     7
100
AcDbLine
 10
-64.17244720458984
 20
-8.52846622467041
 30
0.0
 11
-56.28461837768555
 21
-8.52846622467041
 31
0.0
  0
LINE
  5
A7
330
1F
100
AcDbEntity
  8
0
  6
Continuous
 62
     7
100
AcDbLine
 10
-64.36969847715747
 20
-6.884753582975054
 30
0.0
 11
-64.1724529570345
 21
-8.52846621366308
 31
0.0
  0
LINE
  5
A8
330
1F
100
AcDbEntity
  8
0
  6
Continuous
 62
     7
100
AcDbLine
 10
-60.65874099731445
 20
-15.1951322555542
 30
0.0
 11
9.780506134033203
 21
-15.1951322555542
 31
0.0
  0
LINE
  5
A9
330
1F
100
AcDbEntity
  8
0
  6
Continuous
 62
     7
100
AcDbLine
 10
-63.50578376895821
 20
-8.528465805096266
 30
0.0
 11
-62.97679407458224
 21
-13.12837613097797
 31
0.0
  0
LINE
  5
AA
330
1F
100
AcDbEntity
  8
0
  6
Continuous
 62
     7
100
AcDbLine
 10
-54.57245254516602
 20
-23.19513320922852
 30
0.0
 11
3.694217205047607
 21
-23.19513320922852
 31
0.0
  0
LINE
  5
AB
330
1F
100
AcDbEntity
  8
0
  6
Continuous
 62
     7
100
AcDbLine
 10
-57.74829317563688
 20
-17.9168781006076
 30
0.0
 11
-57.06327824735983
 21
-20.47338859545335
 31
0.0
  0
LINE
  5
AC
330
1F
100
AcDbEntity
  8
0
  6
Continuous
 62
     7
100
AcDbLine
 10
-54.27245330810547
 20
-25.8617992401123
 30
0.0
 11
3.394217491149902
 21
-25.8617992401123
 31
0.0
  0
LINE
  5
AD
330
1F
100
AcDbEntity
  8
0
  6
Continuous
 62
     7
100
AcDbLine
 10
-54.57245475442441
 20
-23.19513424735967
 30
0.0
 11
-54.27245473774707
 21
-25.86180115112958
 31
0.0
  0
LINE
  5
AE
330
1F
100
AcDbEntity
  8
0
  6
Continuous
 62
     7
100
AcDbLine
 10
-52.77245330810547
 20
-29.8617992401123
 30
0.0
 11
1.894217610359192
 21
-29.8617992401123
 31
0.0
  0
LINE
  5
AF
330
1F
100
AcDbEntity
  8
0
  6
Continuous
 62
     7
100
AcDbLine
 10
-53.27245505077889
 20
-25.86179953839624
 30
0.0
 11
-52.77245493134748
 21
-29.86180049384756
 31
0.0
  0
LINE
  5
B0
330
1F
100
AcDbEntity
  8
0
  6
Continuous
 62
     7
100
AcDbLine
 10
-52.10578308609638
 20
-29.86179958482964
 30
0.0
 11
-48.20174320263225
 21
-65.22415102390627
 31
0.0
  0
LINE
  5
B1
330
1F
100
AcDbEntity
  8
0
  6
Continuous
 62
     7
100
AcDbLine
 10
-64.70578002929688
 20
-5.528465747833252
 30
0.0
 11
-50.74187088012695
 21
-5.528465747833252
 31
0.0
  0
LINE
  5
B2
330
1F
100
AcDbEntity
  8
0
  6
Continuous
 62
     7
100
AcDbLine
 10
-64.70578002929688
 20
-6.861799240112305
 30
0.0
 11
-50.74187088012695
 21
-6.861799240112305
 31
0.0
  0
LINE
  5
B3
330
1F
100
AcDbEntity
  8
0
  6
Continuous
 62
     7
100
AcDbLine
 10
-42.10578536987305
 20
-46.36180114746094
 30
0.0
 11
-42.10578536987305
 21
-48.02846527099609
 31
0.0
  0
LINE
  5
B4
330
1F
100
AcDbEntity
  8
0
  6
Continuous
 62
     7
100
AcDbLine
 10
-42.10578536987305
 20
-49.69513320922852
 30
0.0
 11
-42.10578536987305
 21
-48.02846527099609
 31
0.0
  0
LINE
  5
B5
330
1F
100
AcDbEntity
  8
0
  6
Continuous
 62
     7
100
AcDbLine
 10
-39.77245330810547
 20
-46.67503356933594
 30
0.0
 11
-39.77245330810547
 21
-49.38190078735352
 31
0.0
  0
LINE
  5
B6
330
1F
100
AcDbEntity
  8
0
  6
Continuous
 62
     7
100
AcDbLine
 10
13.82755088806152
 20
-5.528465747833252
 30
0.0
 11
13.82755088806152
 21
-6.861799240112305
 31
0.0
  0
LINE
  5
B7
330
1F
100
AcDbEntity
  8
0
  6
Continuous
 62
     7
100
AcDbLine
 10
13.49146315908914
 20
-6.884753224963993
 30
0.0
 11
13.29421768157582
 21
-8.528465500571592
 31
0.0
  0
LINE
  5
B8
330
1F
100
AcDbEntity
  8
0
  6
Continuous
 62
     7
100
AcDbLine
 10
12.62755091522951
 20
-8.528465777149696
 30
0.0
 11
12.09856124809215
 21
-13.1283758661739
 31
0.0
  0
LINE
  5
B9
330
1F
100
AcDbEntity
  8
0
  6
Continuous
 62
     7
100
AcDbLine
 10
6.870058395861594
 20
-17.91687838639099
 30
0.0
 11
6.185043776120896
 21
-20.47338772976342
 31
0.0
  0
LINE
  5
BA
330
1F
100
AcDbEntity
  8
0
  6
Continuous
 62
     7
100
AcDbLine
 10
3.694217761648765
 20
-23.19513308524088
 30
0.0
 11
3.394217744971424
 21
-25.86179998901079
 31
0.0
  0
LINE
  5
BB
330
1F
100
AcDbEntity
  8
0
  6
Continuous
 62
     7
100
AcDbLine
 10
2.394217342106004
 20
-25.86179977497372
 30
0.0
 11
1.894217222674588
 21
-29.86180073042505
 31
0.0
  0
LINE
  5
BC
330
1F
100
AcDbEntity
  8
0
  6
Continuous
 62
     7
100
AcDbLine
 10
1.22755090027787
 20
-29.86179983578799
 30
0.0
 11
-2.676488983186261
 21
-65.22415127486462
 31
0.0
  0
LINE
  5
BD
330
1F
100
AcDbEntity
  8
0
  6
Continuous
 62
     7
100
AcDbLine
 10
13.82755088806152
 20
-5.528465747833252
 30
0.0
 11
-0.136363416910172
 21
-5.528465747833252
 31
0.0
  0
LINE
  5
BE
330
1F
100
AcDbEntity
  8
0
  6
Continuous
 62
     7
100
AcDbLine
 10
13.82755088806152
 20
-6.861799240112305
 30
0.0
 11
-0.136363416910172
 21
-6.861799240112305
 31
0.0
  0
LINE
  5
BF
330
1F
100
AcDbEntity
  8
0
  6
Continuous
 62
     7
100
AcDbLine
 10
-5.776703681223683
 20
-69.31278738794416
 30
0.0
 11
-11.27244816586256
 21
-71.5284666693838
 31
0.0
  0
LINE
  5
C0
330
1F
100
AcDbEntity
  8
0
  6
Continuous
 62
     7
100
AcDbLine
 10
-25.43911640599291
 20
-29.86179881557411
 30
0.0
 11
-17.10578329121568
 21
-2.861799355272497
 31
0.0
  0
LINE
  5
C1
330
1F
100
AcDbEntity
  8
0
  6
Continuous
 62
     7
100
AcDbLine
 10
-8.772449493408203
 20
-46.36180114746094
 30
0.0
 11
-8.772449493408203
 21
-48.02846527099609
 31
0.0
  0
LINE
  5
C2
330
1F
100
AcDbEntity
  8
0
  6
Continuous
 62
     7
100
AcDbLine
 10
-8.772449493408203
 20
-49.69513320922852
 30
0.0
 11
-8.772449493408203
 21
-48.02846527099609
 31
0.0
  0
LINE
  5
C3
330
1F
100
AcDbEntity
  8
0
  6
Continuous
 62
     7
100
AcDbLine
 10
-11.10578346252441
 20
-46.67503356933594
 30
0.0
 11
-11.10578346252441
 21
-49.38190078735352
 31
0.0
  0
LINE
  5
C4
330
1F
100
AcDbEntity
  8
0
  6
Continuous
 62
     7
100
AcDbLine
 10
-39.60578536987305
 20
-71.5284652709961
 30
0.0
 11
-39.60578536987305
 21
-74.86180114746094
 31
0.0
  0
LINE
  5
C5
330
1F
100
AcDbEntity
  8
0
  6
Continuous
 62
     7
100
AcDbLine
 10
-39.60578536987305
 20
-74.86180114746094
 30
0.0
 11
-11.2724494934082
 21
-74.86180114746094
 31
0.0
  0
LINE
  5
C6
330
1F
100
AcDbEntity
  8
0
  6
Continuous
 62
     7
100
AcDbLine
 10
-39.60578388837859
 20
-74.86180069508617
 30
0.0
 11
-38.10578184710757
 21
-75.52846827985549
 31
0.0
  0
LINE
  5
C7
330
1F
100
AcDbEntity
  8
0
  6
Continuous
 62
     7
100
AcDbLine
 10
-11.2724494934082
 20
-71.5284652709961
 30
0.0
 11
-11.2724494934082
 21
-74.86180114746094
 31
0.0
  0
LINE
  5
C8
330
1F
100
AcDbEntity
  8
0
  6
Continuous
 62
     7
100
AcDbLine
 10
-11.27244863420308
 20
-74.86179964736453
 30
0.0
 11
-12.7724480610383
 21
-75.52846607016235
 31
0.0
  0
LINE
  5
C9
330
1F
100
AcDbEntity
  8
0
  6
Continuous
 62
     7
100
AcDbLine
 10
-39.60578536987305
 20
-71.5284652709961
 30
0.0
 11
-11.2724494934082
 21
-71.5284652709961
 31
0.0
  0
LINE
  5
CA
330
1F
100
AcDbEntity
  8
0
  6
Continuous
 62
     7
100
AcDbLine
 10
5.406381607055664
 20
-8.52846622467041
 30
0.0
 11
13.29421806335449
 21
-8.52846622467041
 31
0.0
  0
LINE
  5
CB
330
1F
100
AcDbEntity
  8
0
  6
Continuous
 62
     7
100
AcDbLine
 10
-36.36694288479501
 20
-8.104455483559168
 30
0.0
 11
-36.208345998004
 21
-9.003903098276545
 31
0.0
  0
LINE
  5
CC
330
1F
100
AcDbEntity
  8
0
  6
Continuous
 62
     7
100
AcDbLine
 10
-27.71809340494786
 20
-10.58448167319172
 30
0.0
 11
-27.12073300005084
 21
-10.74454391261576
 31
0.0
  0
LINE
  5
CD
330
1F
100
AcDbEntity
  8
0
  6
Continuous
 62
     7
100
AcDbLine
 10
-14.51129164977624
 20
-8.104454695065359
 30
0.0
 11
-14.66988859866867
 21
-9.003902661977433
 31
0.0
  0
LINE
  5
CE
330
1F
100
AcDbEntity
  8
0
  6
Continuous
 62
     7
100
AcDbLine
 10
-23.16014002169788
 20
-10.58448275264189
 30
0.0
 11
-23.75750226895221
 21
-10.74454548572409
 31
0.0
  0
LINE
  5
CF
330
1F
100
AcDbEntity
  8
0
  6
Continuous
 62
     7
100
AcDbLine
 10
-45.10153245603278
 20
-69.31279106586732
 30
0.0
 11
-39.60578620240097
 21
-71.52847106049896
 31
0.0
  0
LINE
  5
D0
330
1F
100
AcDbEntity
  8
0
  6
Continuous
 62
     7
100
AcDbLine
 10
-25.43911460970942
 20
-29.86179846738655
 30
0.0
 11
-33.77244772448665
 21
-2.861799007084938
 31
0.0
  0
LINE
  5
D1
330
1F
100
AcDbEntity
  8
0
  6
CENTER
 62
     7
100
AcDbLine
 10
-25.43911552429199
 20
-1.383540391921997
 30
0.0
 11
-25.43911552429199
 21
-88.14946746826172
 31
0.0
  0
LINE
  5
D2
330
1F
100
AcDbEntity
  8
0
  6
CENTER
 62
     7
100
AcDbLine
 10
-42.36374282836914
 20
75.79082489013672
 30
0.0
 11
-8.736024856567383
 21
75.79082489013672
 31
0.0
  0
LINE
  5
D3
330
1F
100
AcDbEntity
  8
0
  6
Continuous
 62
     7
100
AcDbLine
 10
-17.10578346252441
 20
33.3741569519043
 30
0.0
 11
-17.10578346252441
 21
33.04082489013672
 31
0.0
  0
LINE
  5
D4
330
1F
100
AcDbEntity
  8
0
  6
Continuous
 62
     7
100
AcDbLine
 10
13.82755088806152
 20
55.18542861938477
 30
0.0
 11
13.82755088806152
 21
38.8236198425293
 31
0.0
  0
LINE
  5
D5
330
1F
100
AcDbEntity
  8
0
  6
CENTER
 62
     7
100
AcDbLine
 10
67.80680847167969
 20
-63.27615737915039
 30
0.0
 11
67.80680847167969
 21
-88.08540344238281
 31
0.0
  0
LINE
  5
D6
330
1F
100
AcDbEntity
  8
0
  6
Continuous
 62
     7
100
AcDbLine
 10
53.64013671875
 20
-71.5284652709961
 30
0.0
 11
81.97347259521484
 21
-71.5284652709961
 31
0.0
  0
LINE
  5
D7
330
1F
100
AcDbEntity
  8
0
  6
Continuous
 62
     7
100
AcDbLine
 10
53.64013671875
 20
-71.5284652709961
 30
0.0
 11
53.64013671875
 21
-74.86180114746094
 31
0.0
  0
LINE
  5
D8
330
1F
100
AcDbEntity
  8
0
  6
Continuous
 62
     7
100
AcDbLine
 10
47.8844642418922
 20
-69.20799063183169
 30
0.0
 11
53.64013747155472
 21
-71.5284634924869
 31
0.0
  0
LINE
  5
D9
330
1F
100
AcDbEntity
  8
0
  6
Continuous
 62
     7
100
AcDbLine
 10
53.64013671875
 20
-74.86180114746094
 30
0.0
 11
81.97347259521484
 21
-74.86180114746094
 31
0.0
  0
LINE
  5
DA
330
1F
100
AcDbEntity
  8
0
  6
Continuous
 62
     7
100
AcDbLine
 10
53.64013663423462
 20
-74.86180222771395
 30
0.0
 11
55.14013954698424
 21
-75.52847019980709
 31
0.0
  0
LINE
  5
DB
330
1F
100
AcDbEntity
  8
0
  6
Continuous
 62
     7
100
AcDbLine
 10
81.97347259521484
 20
-71.5284652709961
 30
0.0
 11
81.97347259521484
 21
-74.86180114746094
 31
0.0
  0
LINE
  5
DC
330
1F
100
AcDbEntity
  8
0
  6
Continuous
 62
     7
100
AcDbLine
 10
81.97347716569726
 20
-74.861804118256
 30
0.0
 11
80.47347425294763
 21
-75.52847209034914
 31
0.0
  0
LINE
  5
DD
330
1F
100
AcDbEntity
  8
0
  6
Continuous
 62
     7
100
AcDbLine
 10
25.05680465698242
 20
-2.861799001693726
 30
0.0
 11
26.05680465698242
 21
-2.861799001693726
 31
0.0
  0
LINE
  5
DE
330
1F
100
AcDbEntity
  8
0
  6
CENTER
 62
     7
100
AcDbLine
 10
66.14013671875
 20
-40.12975311279297
 30
0.0
 11
66.14013671875
 21
-65.46044921875
 31
0.0
  0
LINE
  5
DF
330
1F
100
AcDbEntity
  8
0
  6
Continuous
 62
     7
100
AcDbLine
 10
88.72347259521484
 20
-25.19513320922852
 30
0.0
 11
88.72347259521484
 21
-26.52846527099609
 31
0.0
  0
LINE
  5
E0
330
1F
100
AcDbEntity
  8
0
  6
Continuous
 62
     7
100
AcDbLine
 10
25.05680465698242
 20
-4.195132255554199
 30
0.0
 11
25.39013671875
 21
-4.195132255554199
 31
0.0
  0
LINE
  5
E1
330
1F
100
AcDbEntity
  8
0
  6
Continuous
 62
     7
100
AcDbLine
 10
32.85549545288086
 20
-5.528465747833252
 30
0.0
 11
47.20140838623047
 21
-5.528465747833252
 31
0.0
  0
LINE
  5
E2
330
1F
100
AcDbEntity
  8
0
  6
Continuous
 62
     7
100
AcDbLine
 10
32.9598388671875
 20
-6.861799240112305
 30
0.0
 11
47.48481750488281
 21
-6.861799240112305
 31
0.0
  0
LINE
  5
E3
330
1F
100
AcDbEntity
  8
0
  6
Continuous
 62
     7
100
AcDbLine
 10
29.48134231567383
 20
-15.1951322555542
 30
0.0
 11
49.25612258911133
 21
-15.1951322555542
 31
0.0
  0
LINE
  5
E4
330
1F
100
AcDbEntity
  8
0
  6
Continuous
 62
     7
100
AcDbLine
 10
35.48359680175781
 20
-23.19513320922852
 30
0.0
 11
50.95657348632812
 21
-23.19513320922852
 31
0.0
  0
LINE
  5
E5
330
1F
100
AcDbEntity
  8
0
  6
Continuous
 62
     7
100
AcDbLine
 10
35.89013671875
 20
-25.8617992401123
 30
0.0
 11
51.52339172363281
 21
-25.8617992401123
 31
0.0
  0
LINE
  5
E6
330
1F
100
AcDbEntity
  8
0
  6
Continuous
 62
     7
100
AcDbLine
 10
82.94013977050781
 20
-29.8617992401123
 30
0.0
 11
88.28423309326172
 21
-29.8617992401123
 31
0.0
  0
LINE
  5
E7
330
1F
100
AcDbEntity
  8
0
  6
Continuous
 62
     7
100
AcDbLine
 10
26.8017692565918
 20
-8.52846622467041
 30
0.0
 11
27.14176559448242
 21
-8.52846622467041
 31
0.0
  0
LINE
  5
E8
330
1F
100
AcDbEntity
  8
0
  6
Continuous
 62
     7
100
AcDbLine
 10
25.39013851932797
 20
-4.19513244410436
 30
0.0
 11
26.04226510946395
 21
-12.52846232040186
 31
0.0
  0
LINE
  5
E9
330
1F
100
AcDbEntity
  8
0
  6
Continuous
 62
     7
100
AcDbLine
 10
26.04226493835449
 20
-12.52846240997314
 30
0.0
 11
27.11478996276855
 21
-12.52846240997314
 31
0.0
  0
LINE
  5
EA
330
1F
100
AcDbEntity
  8
0
  6
Continuous
 62
     7
100
AcDbLine
 10
26.80176939213903
 20
-8.528466752863142
 30
0.0
 11
27.15512076305895
 21
-13.04383781832402
 31
0.0
  0
LINE
  5
EB
330
1F
100
AcDbEntity
  8
0
  6
Continuous
 62
     7
100
AcDbLine
 10
35.49013764580984
 20
-23.19513299755769
 30
0.0
 11
35.89013761180921
 21
-25.86179874108344
 31
0.0
  0
LINE
  5
EC
330
1F
100
AcDbEntity
  8
0
  6
Continuous
 62
     7
100
AcDbLine
 10
36.55680474697628
 20
-25.86180010220236
 30
0.0
 11
37.55680443368327
 21
-29.86179860327415
 31
0.0
  0
LINE
  5
ED
330
1F
100
AcDbEntity
  8
0
  6
Continuous
 62
     7
100
AcDbLine
 10
38.55680666635531
 20
-29.86179922825555
 30
0.0
 11
39.55599316264963
 21
-35.52846727536565
 31
0.0
  0
LINE
  5
EE
330
1F
100
AcDbEntity
  8
0
  6
Continuous
 62
     7
100
AcDbLine
 10
43.96416790745506
 20
-60.52846784093455
 30
0.0
 11
44.83001352658652
 21
-65.43892221742895
 31
0.0
  0
LINE
  5
EF
330
1F
100
AcDbEntity
  8
0
  6
Continuous
 62
     7
100
AcDbLine
 10
42.55680355067622
 20
-29.86179855108465
 30
0.0
 11
48.86323649728618
 21
-65.62735603443036
 31
0.0
  0
LINE
  5
F0
330
1F
100
AcDbEntity
  8
0
  6
Continuous
 62
     7
100
AcDbLine
 10
43.93629866812673
 20
-33.84611636771524
 30
0.0
 11
49.52377193974056
 21
-65.5342510350292
 31
0.0
  0
LINE
  5
F1
330
1F
100
AcDbEntity
  8
0
  6
Continuous
 62
     7
100
AcDbLine
 10
47.13379568813183
 20
-36.62329438089082
 30
0.0
 11
52.16591260247564
 21
-65.16184672681355
 31
0.0
  0
LINE
  5
F2
330
1F
100
AcDbEntity
  8
0
  6
Continuous
 62
     7
100
AcDbLine
 10
51.91768833450567
 20
-69.39642216983285
 30
0.0
 11
57.2059794803684
 21
-71.52846399944471
 31
0.0
  0
LINE
  5
F3
330
1F
100
AcDbEntity
  8
0
  6
Continuous
 62
     7
100
AcDbLine
 10
52.57821883617544
 20
-69.30332095825382
 30
0.0
 11
58.09744139496874
 21
-71.52846572387263
 31
0.0
  0
LINE
  5
F4
330
1F
100
AcDbEntity
  8
0
  6
Continuous
 62
     7
100
AcDbLine
 10
55.22035784756598
 20
-68.93091474150197
 30
0.0
 11
61.6632848301664
 21
-71.52846269284458
 31
0.0
  0
LINE
  5
F5
330
1F
100
AcDbEntity
  8
0
  6
Continuous
 62
     7
100
AcDbLine
 10
47.20140827310971
 20
-5.528466372390737
 30
0.0
 11
51.80680181066519
 21
-27.19514062803478
 31
0.0
  0
LINE
  5
F6
330
1F
100
AcDbEntity
  8
0
  6
Continuous
 62
     7
100
AcDbLine
 10
81.47347259521484
 20
-25.19513320922852
 30
0.0
 11
88.72347259521484
 21
-25.19513320922852
 31
0.0
  0
LINE
  5
F7
330
1F
100
AcDbEntity
  8
0
  6
Continuous
 62
     7
100
AcDbLine
 10
80.47347259521484
 20
-26.19513320922852
 30
0.0
 11
80.47347259521484
 21
-27.19513320922852
 31
0.0
  0
LINE
  5
F8
330
1F
100
AcDbEntity
  8
0
  6
Continuous
 62
     7
100
AcDbLine
 10
81.94013977050781
 20
-30.26179885864258
 30
0.0
 11
82.77346801757812
 21
-30.26179885864258
 31
0.0
  0
LINE
  5
F9
330
1F
100
AcDbEntity
  8
0
  6
Continuous
 62
     7
100
AcDbLine
 10
80.47347077083042
 20
-27.19513132784329
 30
0.0
 11
81.94013864003516
 21
-30.26180060100639
 31
0.0
  0
LINE
  5
FA
330
1F
100
AcDbEntity
  8
0
  6
Continuous
 62
     7
100
AcDbLine
 10
82.77346943771931
 20
-30.26179931151623
 30
0.0
 11
82.9401360389737
 21
-29.86179947367144
 31
0.0
  0
LINE
  5
FB
330
1F
100
AcDbEntity
  8
0
  6
Continuous
 62
     7
100
AcDbLine
 10
80.47347259521484
 20
-26.52846527099609
 30
0.0
 11
88.72347259521484
 21
-26.52846527099609
 31
0.0
  0
LINE
  5
FC
330
1F
100
AcDbEntity
  8
0
  6
Continuous
 62
     7
100
AcDbLine
 10
88.35987826802766
 20
-26.52846494605215
 30
0.0
 11
87.46294133950715
 21
-66.05299138441646
 31
0.0
  0
LINE
  5
FD
330
1F
100
AcDbEntity
  8
0
  6
Continuous
 62
     7
100
AcDbLine
 10
87.52328691324941
 20
-34.00893458439169
 30
0.0
 11
86.79644880908305
 21
-66.03786655391272
 31
0.0
  0
LINE
  5
FE
330
1F
100
AcDbEntity
  8
0
  6
Continuous
 62
     7
100
AcDbLine
 10
84.78265499993226
 20
-37.23781783917777
 30
0.0
 11
84.1638115885239
 21
-64.50784318618122
 31
0.0
  0
LINE
  5
FF
330
1F
100
AcDbEntity
  8
0
  6
Continuous
 62
     7
100
AcDbLine
 10
84.33381991975361
 20
-70.57685903086232
 30
0.0
 11
81.97347388243054
 21
-71.52846255365029
 31
0.0
  0
LINE
  5
100
330
1F
100
AcDbEntity
  8
0
  6
Continuous
 62
     7
100
AcDbLine
 10
81.03469092479685
 20
-69.03171674664178
 30
0.0
 11
74.84178632681736
 21
-71.52846499394991
 31
0.0
  0
LINE
  5
101
330
1F
100
AcDbEntity
  8
0
  6
Continuous
 62
     7
100
AcDbLine
 10
78.40763035479415
 20
-71.52846473254156
 30
0.0
 11
84.33382004776942
 21
-70.57686150031296
 31
0.0
  0
LINE
  5
102
330
1F
100
AcDbEntity
  8
0
  6
Continuous
 62
     7
100
AcDbLine
 10
83.97732035352605
 20
-70.000139002765
 30
0.0
 11
77.51617046596961
 21
-71.5284677470591
 31
0.0
  0
LINE
  5
103
330
1F
100
AcDbEntity
  8
0
  6
Continuous
 62
     7
100
AcDbLine
 10
50.34014129638672
 20
-30.26179885864258
 30
0.0
 11
49.50680541992188
 21
-30.26179885864258
 31
0.0
  0
LINE
  5
104
330
1F
100
AcDbEntity
  8
0
  6
Continuous
 62
     7
100
AcDbLine
 10
49.50680643898615
 20
-30.26179921853173
 30
0.0
 11
49.34013937923449
 21
-29.86179828029348
 31
0.0
  0
LINE
  5
105
330
1F
100
AcDbEntity
  8
0
  6
Continuous
 62
     7
100
AcDbLine
 10
51.80680110854506
 20
-27.19513928273279
 30
0.0
 11
50.34013838269052
 21
-30.26179780161787
 31
0.0
  0
LINE
  5
106
330
1F
100
AcDbEntity
  8
0
  6
Continuous
 62
     7
100
AcDbLine
 10
25.05680465698242
 20
-2.861799001693726
 30
0.0
 11
25.05680465698242
 21
-4.195132255554199
 31
0.0
  0
LINE
  5
107
330
1F
100
AcDbEntity
  8
0
  6
Continuous
 62
     7
100
AcDbLine
 10
33.85549715726383
 20
-6.861799703026035
 30
0.0
 11
34.01200756270527
 21
-8.861799177583057
 31
0.0
  0
LINE
  5
108
330
1F
100
AcDbEntity
  8
0
  6
Continuous
 62
     7
100
AcDbLine
 10
32.85549781410933
 20
-5.528465780545369
 30
0.0
 11
32.95983813400532
 21
-6.861799397428427
 31
0.0
  0
LINE
  5
109
330
1F
100
AcDbEntity
  8
0
  6
Continuous
 62
     7
100
AcDbLine
 10
25.78141403198242
 20
-9.19512939453125
 30
0.0
 11
26.85393905639648
 21
-9.19512939453125
 31
0.0
  0
LINE
  5
10A
330
1F
100
AcDbEntity
  8
0
  6
Continuous
 62
     7
100
AcDbLine
 10
32.06736373901367
 20
-8.861799240112305
 30
0.0
 11
47.90993118286133
 21
-8.861799240112305
 31
0.0
  0
LINE
  5
10B
330
1F
100
AcDbEntity
  8
0
  6
Continuous
 62
     7
100
AcDbLine
 10
29.68688774108887
 20
-9.861799240112305
 30
0.0
 11
30.25509071350098
 21
-9.861799240112305
 31
0.0
  0
LINE
  5
10C
330
1F
100
AcDbEntity
  8
0
  6
Continuous
 62
     7
100
AcDbLine
 10
37.8738842384433
 20
-17.45880437347699
 30
0.0
 11
38.13433343546917
 21
-19.19513190016173
 31
0.0
  0
LINE
  5
10D
330
1F
100
AcDbEntity
  8
0
  6
Continuous
 62
     7
100
AcDbLine
 10
39.14013722847064
 20
-23.19513314064718
 30
0.0
 11
39.54013719447
 21
-25.86179888417293
 31
0.0
  0
LINE
  5
10E
330
1F
100
AcDbEntity
  8
0
  6
Continuous
 62
     7
100
AcDbLine
 10
40.27751499323831
 20
-25.86180004841484
 30
0.0
 11
41.2775146799453
 21
-29.86179854948663
 31
0.0
  0
LINE
  5
10F
330
1F
100
AcDbEntity
  8
0
  6
Continuous
 62
     7
100
AcDbLine
 10
37.55680465698242
 20
-29.8617992401123
 30
0.0
 11
49.34014129638672
 21
-29.8617992401123
 31
0.0
  0
LINE
  5
110
330
1F
100
AcDbEntity
  8
0
  6
Continuous
 62
     7
100
AcDbLine
 10
34.68071372193022
 20
-8.861799681162456
 30
0.0
 11
35.05607998251861
 21
-13.65849241111696
 31
0.0
  0
LINE
  5
111
330
1F
100
AcDbEntity
  8
0
  6
Continuous
 62
     7
100
AcDbLine
 10
30.9796886341871
 20
-17.45880482624846
 30
0.0
 11
31.41847162802283
 21
-20.38402402115523
 31
0.0
  0
LINE
  5
112
330
1F
100
AcDbEntity
  8
0
  6
Continuous
 62
     7
100
AcDbLine
 10
7.293877124786377
 20
57.24014282226562
 30
0.0
 11
10.83083915710449
 21
57.24014282226562
 31
0.0
  0
LINE
  5
113
330
1F
100
AcDbEntity
  8
0
  6
Continuous
 62
     7
100
AcDbLine
 10
12.49421787261963
 20
55.46883773803711
 30
0.0
 11
13.16088390350342
 21
55.46883773803711
 31
0.0
  0
LINE
  5
114
330
1F
100
AcDbEntity
  8
0
  6
Continuous
 62
     7
100
AcDbLine
 10
13.49421787261963
 20
55.18542861938477
 30
0.0
 11
13.82755088806152
 21
55.18542861938477
 31
0.0
  0
LINE
  5
115
330
1F
100
AcDbEntity
  8
0
  6
Continuous
 62
     7
100
AcDbLine
 10
1.227551579475403
 20
54.77975082397461
 30
0.0
 11
1.227551579475403
 21
52.03670883178711
 31
0.0
  0
LINE
  5
116
330
1F
100
AcDbEntity
  8
0
  6
Continuous
 62
     7
100
AcDbLine
 10
12.39210227972106
 20
37.17307163414338
 30
0.0
 11
-17.10578388754199
 21
33.04082450028158
 31
0.0
  0
LINE
  5
117
330
1F
100
AcDbEntity
  8
0
  6
Continuous
 62
     7
100
AcDbLine
 10
13.49421787261963
 20
55.18542861938477
 30
0.0
 11
13.49421787261963
 21
39.1135139465332
 31
0.0
  0
LINE
  5
118
330
1F
100
AcDbEntity
  8
0
  6
Continuous
 62
     7
100
AcDbLine
 10
13.16088390350342
 20
55.46883773803711
 30
0.0
 11
13.16088390350342
 21
39.90829086303711
 31
0.0
  0
LINE
  5
119
330
1F
100
AcDbEntity
  8
0
  6
Continuous
 62
     7
100
AcDbLine
 10
12.05876965087081
 20
37.4629631787383
 30
0.0
 11
-17.12901787999412
 21
33.37415658818203
 31
0.0
  0
LINE
  5
11A
330
1F
100
AcDbEntity
  8
0
  6
Continuous
 62
     7
100
AcDbLine
 10
13.16088496634919
 20
55.46883655848913
 30
0.0
 11
13.49421798475264
 21
55.18542804836392
 31
0.0
  0
LINE
  5
11B
330
1F
100
AcDbEntity
  8
0
  6
Continuous
 62
     7
100
AcDbLine
 10
12.49421787261963
 20
55.6781120300293
 30
0.0
 11
12.49421787261963
 21
40.48807525634766
 31
0.0
  0
LINE
  5
11C
330
1F
100
AcDbEntity
  8
0
  6
Continuous
 62
     7
100
AcDbLine
 10
11.66088390350342
 20
56.75510787963867
 30
0.0
 11
11.66088390350342
 21
41.54939270019531
 31
0.0
  0
LINE
  5
11D
330
1F
100
AcDbEntity
  8
0
  6
Continuous
 62
     7
100
AcDbLine
 10
9.160883903503418
 20
57.24014282226562
 30
0.0
 11
9.160883903503418
 21
43.72359085083008
 31
0.0
  0
LINE
  5
11E
330
1F
100
AcDbEntity
  8
0
  6
Continuous
 62
     7
100
AcDbLine
 10
3.494217395782471
 20
59.08897018432617
 30
0.0
 11
3.494217395782471
 21
48.65176773071289
 31
0.0
  0
LINE
  5
11F
330
1F
100
AcDbEntity
  8
0
  6
Continuous
 62
     7
100
AcDbLine
 10
11.72543694623913
 20
38.25774076547303
 30
0.0
 11
-6.772450060764545
 21
35.66644184548392
 31
0.0
  0
LINE
  5
120
330
1F
100
AcDbEntity
  8
0
  6
Continuous
 62
     7
100
AcDbLine
 10
11.05876979963403
 20
38.83752359005338
 30
0.0
 11
-6.772449811707711
 21
36.33961558015669
 31
0.0
  0
LINE
  5
121
330
1F
100
AcDbEntity
  8
0
  6
Continuous
 62
     7
100
AcDbLine
 10
10.22543696792566
 20
39.89884490290041
 30
0.0
 11
-20.43911602020867
 21
35.60316383348876
 31
0.0
  0
LINE
  5
122
330
1F
100
AcDbEntity
  8
0
  6
Continuous
 62
     7
100
AcDbLine
 10
7.725436206239811
 20
42.0730402703616
 30
0.0
 11
-20.77244969392609
 21
38.08087938587177
 31
0.0
  0
LINE
  5
123
330
1F
100
AcDbEntity
  8
0
  6
Continuous
 62
     7
100
AcDbLine
 10
2.058769840400945
 20
47.0012180045878
 30
0.0
 11
-23.43911620292583
 21
43.42931573590914
 31
0.0
  0
LINE
  5
124
330
1F
100
AcDbEntity
  8
0
  6
Continuous
 62
     7
100
AcDbLine
 10
-25.43911552429199
 20
43.42931365966797
 30
0.0
 11
-23.43911552429199
 21
43.42931365966797
 31
0.0
  0
LINE
  5
125
330
1F
100
AcDbEntity
  8
0
  6
Continuous
 62
     7
100
AcDbLine
 10
3.160883903503418
 20
59.79082107543945
 30
0.0
 11
3.160883903503418
 21
48.65176773071289
 31
0.0
  0
LINE
  5
126
330
1F
100
AcDbEntity
  8
0
  6
Continuous
 62
     7
100
AcDbLine
 10
2.012526156447196
 20
47.33132675196752
 30
0.0
 11
-23.72482954656852
 21
43.72587808578479
 31
0.0
  0
LINE
  5
127
330
1F
100
AcDbEntity
  8
0
  6
Continuous
 62
     7
100
AcDbLine
 10
1.39421820640564
 20
59.79082107543945
 30
0.0
 11
3.160883903503418
 21
59.79082107543945
 31
0.0
  0
LINE
  5
128
330
1F
100
AcDbEntity
  8
0
  6
Continuous
 62
     7
100
AcDbLine
 10
3.382250430556972
 20
59.45877133258851
 30
0.0
 11
3.160883702387981
 21
59.79082143673534
 31
0.0
  0
LINE
  5
129
330
1F
100
AcDbEntity
  8
0
  6
Continuous
 62
     7
100
AcDbLine
 10
3.463044265828546
 20
59.29354900675882
 30
0.0
 11
4.66088394078392
 21
59.1887516147846
 31
0.0
  0
LINE
  5
12A
330
1F
100
AcDbEntity
  8
0
  6
Continuous
 62
     7
100
AcDbLine
 10
2.494217395782471
 20
59.79082107543945
 30
0.0
 11
2.494217395782471
 21
49.52144622802734
 31
0.0
  0
LINE
  5
12B
330
1F
100
AcDbEntity
  8
0
  6
Continuous
 62
     7
100
AcDbLine
 10
2.494217034894749
 20
59.79082170426623
 30
0.0
 11
2.160884133667407
 21
58.45749009935686
 31
0.0
  0
LINE
  5
12C
330
1F
100
AcDbEntity
  8
0
  6
Continuous
 62
     7
100
AcDbLine
 10
1.394218090764527
 20
59.79082216686621
 30
0.0
 11
1.060885189537187
 21
58.45749056195685
 31
0.0
  0
LINE
  5
12D
330
1F
100
AcDbEntity
  8
0
  6
Continuous
 62
     7
100
AcDbLine
 10
1.060884833335876
 20
58.45748901367188
 30
0.0
 11
2.160883903503418
 21
58.45748901367188
 31
0.0
  0
LINE
  5
12E
330
1F
100
AcDbEntity
  8
0
  6
Continuous
 62
     7
100
AcDbLine
 10
1.060884833335876
 20
57.45748901367188
 30
0.0
 11
2.160883903503418
 21
57.45748901367188
 31
0.0
  0
LINE
  5
12F
330
1F
100
AcDbEntity
  8
0
  6
Continuous
 62
     7
100
AcDbLine
 10
1.060884833335876
 20
58.45748901367188
 30
0.0
 11
1.060884833335876
 21
55.17415618896484
 31
0.0
  0
LINE
  5
130
330
1F
100
AcDbEntity
  8
0
  6
Continuous
 62
     7
100
AcDbLine
 10
2.160883903503418
 20
58.45748901367188
 30
0.0
 11
2.160883903503418
 21
50.82110214233398
 31
0.0
  0
LINE
  5
131
330
1F
100
AcDbEntity
  8
0
  6
Continuous
 62
     7
100
AcDbLine
 10
1.058769535726605
 20
47.87089615157227
 30
0.0
 11
-24.2962586519775
 21
44.31900629873586
 31
0.0
  0
LINE
  5
132
330
1F
100
AcDbEntity
  8
0
  6
Continuous
 62
     7
100
AcDbLine
 10
0.725436397073011
 20
49.17055202637126
 30
0.0
 11
-25.43911633357648
 21
45.50525894682875
 31
0.0
  0
LINE
  5
133
330
1F
100
AcDbEntity
  8
0
  6
Continuous
 62
     7
100
AcDbLine
 10
-0.207895957386565
 20
50.38615628385182
 30
0.0
 11
-25.43911494800333
 21
46.8516103924406
 31
0.0
  0
LINE
  5
134
330
1F
100
AcDbEntity
  8
0
  6
Continuous
 62
     7
100
AcDbLine
 10
-25.43911552429199
 20
44.31900405883789
 30
0.0
 11
-24.2962589263916
 21
44.31900405883789
 31
0.0
  0
LINE
  5
135
330
1F
100
AcDbEntity
  8
0
  6
Continuous
 62
     7
100
AcDbLine
 10
-25.43911552429199
 20
43.72587966918945
 30
0.0
 11
-23.72483062744141
 21
43.72587966918945
 31
0.0
  0
LINE
  5
136
330
1F
100
AcDbEntity
  8
0
  6
Continuous
 62
     7
100
AcDbLine
 10
5.195523756328114
 20
58.77516520004355
 30
0.0
 11
6.615786413832545
 21
57.38432090363662
 31
0.0
  0
LINE
  5
137
330
1F
100
AcDbEntity
  8
0
  6
Continuous
 62
     7
100
AcDbLine
 10
1.227551579475403
 20
93.46856689453125
 30
0.0
 11
1.227551579475403
 21
94.37415313720703
 31
0.0
  0
LINE
  5
138
330
1F
100
AcDbEntity
  8
0
  6
Continuous
 62
     7
100
AcDbLine
 10
1.39421820640564
 20
88.4574966430664
 30
0.0
 11
2.494217395782471
 21
88.4574966430664
 31
0.0
  0
LINE
  5
139
330
1F
100
AcDbEntity
  8
0
  6
Continuous
 62
     7
100
AcDbLine
 10
2.494217395782471
 20
88.4574966430664
 30
0.0
 11
2.494217395782471
 21
95.04082489013672
 31
0.0
  0
LINE
  5
13A
330
1F
100
AcDbEntity
  8
0
  6
Continuous
 62
     7
100
AcDbLine
 10
2.494217034894749
 20
88.45749723851685
 30
0.0
 11
2.160884133667409
 21
89.79082884342621
 31
0.0
  0
LINE
  5
13B
330
1F
100
AcDbEntity
  8
0
  6
Continuous
 62
     7
100
AcDbLine
 10
1.394219015964513
 20
88.45749307511691
 30
0.0
 11
1.060886114737173
 21
89.79082468002628
 31
0.0
  0
LINE
  5
13C
330
1F
100
AcDbEntity
  8
0
  6
Continuous
 62
     7
100
AcDbLine
 10
1.060884833335876
 20
89.79082489013672
 30
0.0
 11
2.160883903503418
 21
89.79082489013672
 31
0.0
  0
LINE
  5
13D
330
1F
100
AcDbEntity
  8
0
  6
Continuous
 62
     7
100
AcDbLine
 10
1.060884833335876
 20
90.79082489013672
 30
0.0
 11
2.160883903503418
 21
90.79082489013672
 31
0.0
  0
LINE
  5
13E
330
1F
100
AcDbEntity
  8
0
  6
Continuous
 62
     7
100
AcDbLine
 10
1.060884833335876
 20
89.79082489013672
 30
0.0
 11
1.060884833335876
 21
93.07415771484375
 31
0.0
  0
LINE
  5
13F
330
1F
100
AcDbEntity
  8
0
  6
Continuous
 62
     7
100
AcDbLine
 10
2.160883903503418
 20
89.79082489013672
 30
0.0
 11
2.160883903503418
 21
95.04082489013672
 31
0.0
  0
LINE
  5
140
330
1F
100
AcDbEntity
  8
0
  6
Continuous
 62
     7
100
AcDbLine
 10
-5.963941129190006
 20
56.18569610234344
 30
0.0
 11
-25.43911656843483
 21
53.45749254789389
 31
0.0
  0
LINE
  5
141
330
1F
100
AcDbEntity
  8
0
  6
Continuous
 62
     7
100
AcDbLine
 10
-3.105782032012939
 20
91.70233917236328
 30
0.0
 11
-3.105782032012939
 21
60.314453125
 31
0.0
  0
LINE
  5
142
330
1F
100
AcDbEntity
  8
0
  6
Continuous
 62
     7
100
AcDbLine
 10
-12.63666066938885
 20
67.6591047681156
 30
0.0
 11
-3.10578293867836
 21
60.31445267885174
 31
0.0
  0
LINE
  5
143
330
1F
100
AcDbEntity
  8
0
  6
Continuous
 62
     7
100
AcDbLine
 10
-15.20781078532648
 20
64.59492593777064
 30
0.0
 11
-5.963941747526178
 21
56.18569519698201
 31
0.0
  0
LINE
  5
144
330
1F
100
AcDbEntity
  8
0
  6
Continuous
 62
     7
100
AcDbLine
 10
-3.772448539733887
 20
60.314453125
 30
0.0
 11
-3.105782032012939
 21
60.314453125
 31
0.0
  0
LINE
  5
145
330
1F
100
AcDbEntity
  8
0
  6
Continuous
 62
     7
100
AcDbLine
 10
-5.963940620422363
 20
56.69057846069336
 30
0.0
 11
-5.963940620422363
 21
56.18569564819336
 31
0.0
  0
LINE
  5
146
330
1F
100
AcDbEntity
  8
0
  6
Continuous
 62
     7
100
AcDbLine
 10
-5.963937894405511
 20
56.6905772914855
 30
0.0
 11
-15.20780713680694
 21
64.59492642636673
 31
0.0
  0
LINE
  5
147
330
1F
100
AcDbEntity
  8
0
  6
Continuous
 62
     7
100
AcDbLine
 10
-3.772448399579101
 20
60.3144520860234
 30
0.0
 11
-12.63666029005856
 21
67.65910477198756
 31
0.0
  0
LINE
  5
148
330
1F
100
AcDbEntity
  8
0
  6
Continuous
 62
     7
100
AcDbLine
 10
-5.963939416422356
 20
56.69057814987778
 30
0.0
 11
-1.777990226752241
 21
51.04414141887592
 31
0.0
  0
LINE
  5
149
330
1F
100
AcDbEntity
  8
0
  6
Continuous
 62
     7
100
AcDbLine
 10
-3.772449501045838
 20
60.31445331834262
 30
0.0
 11
0.963431110996421
 21
52.93706388752297
 31
0.0
  0
LINE
  5
14A
330
1F
100
AcDbEntity
  8
0
  6
Continuous
 62
     7
100
AcDbLine
 10
-5.96393903642501
 20
56.18569438882047
 30
0.0
 11
-2.019532744695596
 21
50.86507544232747
 31
0.0
  0
LINE
  5
14B
330
1F
100
AcDbEntity
  8
0
  6
Continuous
 62
     7
100
AcDbLine
 10
-3.105783102887557
 20
60.31445110420447
 30
0.0
 11
0.992966616553982
 21
53.42988128508519
 31
0.0
  0
LINE
  5
14C
330
1F
100
AcDbEntity
  8
0
  6
Continuous
 62
     7
100
AcDbLine
 10
-15.08441368837821
 20
86.87269901030022
 30
0.0
 11
-6.067222786114208
 21
94.87415673682278
 31
0.0
  0
LINE
  5
14D
330
1F
100
AcDbEntity
  8
0
  6
Continuous
 62
     7
100
AcDbLine
 10
-12.72752234767492
 20
84.06386903129415
 30
0.0
 11
-3.105781088861356
 21
91.70233276595812
 31
0.0
  0
LINE
  5
14E
330
1F
100
AcDbEntity
  8
0
  6
Continuous
 62
     7
100
AcDbLine
 10
-6.067223072052002
 20
94.87415313720703
 30
0.0
 11
-6.067223072052002
 21
94.54082489013672
 31
0.0
  0
LINE
  5
14F
330
1F
100
AcDbEntity
  8
0
  6
Continuous
 62
     7
100
AcDbLine
 10
-3.605782032012939
 20
91.70233917236328
 30
0.0
 11
-3.105782032012939
 21
91.70233917236328
 31
0.0
  0
LINE
  5
150
330
1F
100
AcDbEntity
  8
0
  6
Continuous
 62
     7
100
AcDbLine
 10
-12.72752549256211
 20
84.06387128024512
 30
0.0
 11
-3.605784040975628
 21
91.70233531272878
 31
0.0
  0
LINE
  5
151
330
1F
100
AcDbEntity
  8
0
  6
Continuous
 62
     7
100
AcDbLine
 10
-3.105783351057887
 20
91.70233721561969
 30
0.0
 11
0.09949958185631
 21
92.79692308924494
 31
0.0
  0
LINE
  5
152
330
1F
100
AcDbEntity
  8
0
  6
Continuous
 62
     7
100
AcDbLine
 10
-6.067222309323826
 20
94.8741542504855
 30
0.0
 11
-0.787881458101833
 21
96.00392095467632
 31
0.0
  0
LINE
  5
153
330
1F
100
AcDbEntity
  8
0
  6
Continuous
 62
     7
100
AcDbLine
 10
-3.605781611549116
 20
91.70233562148654
 30
0.0
 11
0.099501329632272
 21
92.96766865138987
 31
0.0
  0
LINE
  5
154
330
1F
100
AcDbEntity
  8
0
  6
Continuous
 62
     7
100
AcDbLine
 10
-15.08440969204248
 20
86.8726986825486
 30
0.0
 11
-6.067219876496004
 21
94.54082186308565
 31
0.0
  0
LINE
  5
155
330
1F
100
AcDbEntity
  8
0
  6
Continuous
 62
     7
100
AcDbLine
 10
-6.067223257070616
 20
94.54082351443736
 30
0.0
 11
-0.719673099019772
 21
95.68518685217445
 31
0.0
  0
LINE
  5
156
330
1F
100
AcDbEntity
  8
0
  6
Continuous
 62
     7
100
AcDbLine
 10
-6.772449970245361
 20
36.33961486816406
 30
0.0
 11
-6.772449970245361
 21
35.66643905639648
 31
0.0
  0
LINE
  5
157
330
1F
100
AcDbEntity
  8
0
  6
Continuous
 62
     7
100
AcDbLine
 10
-18.80331420898438
 20
35.07660293579102
 30
0.0
 11
-18.80331420898438
 21
34.76533126831055
 31
0.0
  0
LINE
  5
158
330
1F
100
AcDbEntity
  8
0
  6
Continuous
 62
     7
100
AcDbLine
 10
-21.43911743164062
 20
34.65712356567383
 30
0.0
 11
-21.43911743164062
 21
34.32379150390625
 31
0.0
  0
LINE
  5
159
330
1F
100
AcDbEntity
  8
0
  6
Continuous
 62
     7
100
AcDbLine
 10
-23.16014099121094
 20
35.12892913818359
 30
0.0
 11
-23.16014099121094
 21
34.83942413330078
 31
0.0
  0
LINE
  5
15A
330
1F
100
AcDbEntity
  8
0
  6
Continuous
 62
     7
100
AcDbLine
 10
-14.66988756053483
 20
35.28590819542646
 30
0.0
 11
-14.3294714353236
 21
35.56894341838177
 31
0.0
  0
LINE
  5
15B
330
1F
100
AcDbEntity
  8
0
  6
Continuous
 62
     7
100
AcDbLine
 10
-33.7724494934082
 20
33.3741569519043
 30
0.0
 11
-33.7724494934082
 21
33.04082489013672
 31
0.0
  0
LINE
  5
15C
330
1F
100
AcDbEntity
  8
0
  6
Continuous
 62
     7
100
AcDbLine
 10
-64.70578002929688
 20
55.18542861938477
 30
0.0
 11
-64.70578002929688
 21
38.8236198425293
 31
0.0
  0
LINE
  5
15D
330
1F
100
AcDbEntity
  8
0
  6
Continuous
 62
     7
100
AcDbLine
 10
-17.10578346252441
 20
33.04082489013672
 30
0.0
 11
-33.7724494934082
 21
33.04082489013672
 31
0.0
  0
LINE
  5
15E
330
1F
100
AcDbEntity
  8
0
  6
Continuous
 62
     7
100
AcDbLine
 10
0.8275505900383
 20
96.70748901367188
 30
0.0
 11
-51.70578384399414
 21
96.70748901367188
 31
0.0
  0
LINE
  5
15F
330
1F
100
AcDbEntity
  8
0
  6
Continuous
 62
     7
100
AcDbLine
 10
-58.1721076965332
 20
57.24014282226562
 30
0.0
 11
-61.70907211303711
 21
57.24014282226562
 31
0.0
  0
LINE
  5
160
330
1F
100
AcDbEntity
  8
0
  6
Continuous
 62
     7
100
AcDbLine
 10
-63.3724479675293
 20
55.46883773803711
 30
0.0
 11
-64.03911590576172
 21
55.46883773803711
 31
0.0
  0
LINE
  5
161
330
1F
100
AcDbEntity
  8
0
  6
Continuous
 62
     7
100
AcDbLine
 10
-64.37245178222656
 20
55.18542861938477
 30
0.0
 11
-64.70578002929688
 21
55.18542861938477
 31
0.0
  0
LINE
  5
162
330
1F
100
AcDbEntity
  8
0
  6
Continuous
 62
     7
100
AcDbLine
 10
-52.10578155517578
 20
54.77975082397461
 30
0.0
 11
-52.10578155517578
 21
52.03670883178711
 31
0.0
  0
LINE
  5
163
330
1F
100
AcDbEntity
  8
0
  6
Continuous
 62
     7
100
AcDbLine
 10
-63.2703338765528
 20
37.17307086477236
 30
0.0
 11
-33.77244770928976
 21
33.04082373091056
 31
0.0
  0
LINE
  5
164
330
1F
100
AcDbEntity
  8
0
  6
Continuous
 62
     7
100
AcDbLine
 10
-64.37245178222656
 20
55.18542861938477
 30
0.0
 11
-64.37245178222656
 21
39.1135139465332
 31
0.0
  0
LINE
  5
165
330
1F
100
AcDbEntity
  8
0
  6
Continuous
 62
     7
100
AcDbLine
 10
-64.03911590576172
 20
55.46883773803711
 30
0.0
 11
-64.03911590576172
 21
39.90829086303711
 31
0.0
  0
LINE
  5
166
330
1F
100
AcDbEntity
  8
0
  6
Continuous
 62
     7
100
AcDbLine
 10
-62.93699909418847
 20
37.46296403366239
 30
0.0
 11
-33.74921439668045
 21
33.37415784002036
 31
0.0
  0
LINE
  5
167
330
1F
100
AcDbEntity
  8
0
  6
Continuous
 62
     7
100
AcDbLine
 10
-17.1290168762207
 20
33.3741569519043
 30
0.0
 11
-33.74921417236328
 21
33.3741569519043
 31
0.0
  0
LINE
  5
168
330
1F
100
AcDbEntity
  8
0
  6
Continuous
 62
     7
100
AcDbLine
 10
-64.03911594461235
 20
55.46883651415218
 30
0.0
 11
-64.3724496895766
 21
55.18542738628583
 31
0.0
  0
LINE
  5
169
330
1F
100
AcDbEntity
  8
0
  6
Continuous
 62
     7
100
AcDbLine
 10
-63.3724479675293
 20
55.6781120300293
 30
0.0
 11
-63.3724479675293
 21
40.48807525634766
 31
0.0
  0
LINE
  5
16A
330
1F
100
AcDbEntity
  8
0
  6
Continuous
 62
     7
100
AcDbLine
 10
-62.53911590576172
 20
56.75510787963867
 30
0.0
 11
-62.53911590576172
 21
41.54939270019531
 31
0.0
  0
LINE
  5
16B
330
1F
100
AcDbEntity
  8
0
  6
Continuous
 62
     7
100
AcDbLine
 10
-60.03911590576172
 20
57.24014282226562
 30
0.0
 11
-60.03911590576172
 21
43.72359085083008
 31
0.0
  0
LINE
  5
16C
330
1F
100
AcDbEntity
  8
0
  6
Continuous
 62
     7
100
AcDbLine
 10
-54.3724479675293
 20
59.08897018432617
 30
0.0
 11
-54.3724479675293
 21
48.65176773071289
 31
0.0
  0
LINE
  5
16D
330
1F
100
AcDbEntity
  8
0
  6
Continuous
 62
     7
100
AcDbLine
 10
-62.60366665416628
 20
38.25773973149251
 30
0.0
 11
-44.10578248051952
 21
35.66644120841764
 31
0.0
  0
LINE
  5
16E
330
1F
100
AcDbEntity
  8
0
  6
Continuous
 62
     7
100
AcDbLine
 10
-61.93700490966551
 20
38.83752523880595
 30
0.0
 11
-44.10578317330608
 21
36.33961693122357
 31
0.0
  0
LINE
  5
16F
330
1F
100
AcDbEntity
  8
0
  6
Continuous
 62
     7
100
AcDbLine
 10
-61.10366856475741
 20
39.89884413352938
 30
0.0
 11
-30.43911557662308
 21
35.60316306411774
 31
0.0
  0
LINE
  5
170
330
1F
100
AcDbEntity
  8
0
  6
Continuous
 62
     7
100
AcDbLine
 10
-58.60366969197618
 20
42.07303976560006
 30
0.0
 11
-30.10578095845336
 21
38.08087848419601
 31
0.0
  0
LINE
  5
171
330
1F
100
AcDbEntity
  8
0
  6
Continuous
 62
     7
100
AcDbLine
 10
-52.937002381685
 20
47.00121736752152
 30
0.0
 11
-27.43911728281053
 21
43.4293152311476
 31
0.0
  0
LINE
  5
172
330
1F
100
AcDbEntity
  8
0
  6
Continuous
 62
     7
100
AcDbLine
 10
-20.43911552429199
 20
35.60316467285156
 30
0.0
 11
-30.43911552429199
 21
35.60316467285156
 31
0.0
  0
LINE
  5
173
330
1F
100
AcDbEntity
  8
0
  6
Continuous
 62
     7
100
AcDbLine
 10
-20.7724494934082
 20
38.08087921142578
 30
0.0
 11
-30.10578346252441
 21
38.08087921142578
 31
0.0
  0
LINE
  5
174
330
1F
100
AcDbEntity
  8
0
  6
Continuous
 62
     7
100
AcDbLine
 10
-25.43911552429199
 20
43.42931365966797
 30
0.0
 11
-27.43911552429199
 21
43.42931365966797
 31
0.0
  0
LINE
  5
175
330
1F
100
AcDbEntity
  8
0
  6
Continuous
 62
     7
100
AcDbLine
 10
-54.03911590576172
 20
59.79082107543945
 30
0.0
 11
-54.03911590576172
 21
48.65176773071289
 31
0.0
  0
LINE
  5
176
330
1F
100
AcDbEntity
  8
0
  6
Continuous
 62
     7
100
AcDbLine
 10
-52.89075869773125
 20
47.33132611490124
 30
0.0
 11
-27.15340205026323
 21
43.72587731641377
 31
0.0
  0
LINE
  5
177
330
1F
100
AcDbEntity
  8
0
  6
Continuous
 62
     7
100
AcDbLine
 10
-52.2724494934082
 20
59.79082107543945
 30
0.0
 11
-54.03911590576172
 21
59.79082107543945
 31
0.0
  0
LINE
  5
178
330
1F
100
AcDbEntity
  8
0
  6
Continuous
 62
     7
100
AcDbLine
 10
-54.26048305657307
 20
59.45876996249912
 30
0.0
 11
-54.03911527039745
 21
59.79082165365597
 31
0.0
  0
LINE
  5
179
330
1F
100
AcDbEntity
  8
0
  6
Continuous
 62
     7
100
AcDbLine
 10
-54.34127501230392
 20
59.29354901581727
 30
0.0
 11
-55.53911492477063
 21
59.1887516030635
 31
0.0
  0
LINE
  5
17A
330
1F
100
AcDbEntity
  8
0
  6
Continuous
 62
     7
100
AcDbLine
 10
-53.3724479675293
 20
59.79082107543945
 30
0.0
 11
-53.3724479675293
 21
49.52144622802734
 31
0.0
  0
LINE
  5
17B
330
1F
100
AcDbEntity
  8
0
  6
Continuous
 62
     7
100
AcDbLine
 10
-53.3724501165665
 20
59.79082424856619
 30
0.0
 11
-53.03911721533915
 21
58.45749264365681
 31
0.0
  0
LINE
  5
17C
330
1F
100
AcDbEntity
  8
0
  6
Continuous
 62
     7
100
AcDbLine
 10
-52.27244839683632
 20
59.79082147296623
 30
0.0
 11
-51.93911549560897
 21
58.45748986805687
 31
0.0
  0
LINE
  5
17D
330
1F
100
AcDbEntity
  8
0
  6
Continuous
 62
     7
100
AcDbLine
 10
-51.93911743164062
 20
58.45748901367188
 30
0.0
 11
-53.03911590576172
 21
58.45748901367188
 31
0.0
  0
LINE
  5
17E
330
1F
100
AcDbEntity
  8
0
  6
Continuous
 62
     7
100
AcDbLine
 10
-51.93911743164062
 20
57.45748901367188
 30
0.0
 11
-53.03911590576172
 21
57.45748901367188
 31
0.0
  0
LINE
  5
17F
330
1F
100
AcDbEntity
  8
0
  6
Continuous
 62
     7
100
AcDbLine
 10
-51.93911743164062
 20
58.45748901367188
 30
0.0
 11
-51.93911743164062
 21
55.17415618896484
 31
0.0
  0
LINE
  5
180
330
1F
100
AcDbEntity
  8
0
  6
Continuous
 62
     7
100
AcDbLine
 10
-53.03911590576172
 20
58.45748901367188
 30
0.0
 11
-53.03911590576172
 21
50.82110214233398
 31
0.0
  0
LINE
  5
181
330
1F
100
AcDbEntity
  8
0
  6
Continuous
 62
     7
100
AcDbLine
 10
-51.93700207701066
 20
47.87089551450599
 30
0.0
 11
-26.58197105594964
 21
44.31900526475533
 31
0.0
  0
LINE
  5
182
330
1F
100
AcDbEntity
  8
0
  6
Continuous
 62
     7
100
AcDbLine
 10
-51.60366846613091
 20
49.17055132315261
 30
0.0
 11
-25.43911526325528
 21
45.50525817745772
 31
0.0
  0
LINE
  5
183
330
1F
100
AcDbEntity
  8
0
  6
Continuous
 62
     7
100
AcDbLine
 10
-50.6703351102262
 20
50.38615929229002
 30
0.0
 11
-25.43911611960944
 21
46.8516134008788
 31
0.0
  0
LINE
  5
184
330
1F
100
AcDbEntity
  8
0
  6
Continuous
 62
     7
100
AcDbLine
 10
-25.43911552429199
 20
44.31900405883789
 30
0.0
 11
-26.58197402954102
 21
44.31900405883789
 31
0.0
  0
LINE
  5
185
330
1F
100
AcDbEntity
  8
0
  6
Continuous
 62
     7
100
AcDbLine
 10
-25.43911552429199
 20
43.72587966918945
 30
0.0
 11
-27.15340232849121
 21
43.72587966918945
 31
0.0
  0
LINE
  5
186
330
1F
100
AcDbEntity
  8
0
  6
Continuous
 62
     7
100
AcDbLine
 10
-56.07375482496079
 20
58.77516191643549
 30
0.0
 11
-57.49401633265442
 21
57.38431874602296
 31
0.0
  0
LINE
  5
187
330
1F
100
AcDbEntity
  8
0
  6
Continuous
 62
     7
100
AcDbLine
 10
-52.10578155517578
 20
93.46856689453125
 30
0.0
 11
-52.10578155517578
 21
94.37415313720703
 31
0.0
  0
LINE
  5
188
330
1F
100
AcDbEntity
  8
0
  6
Continuous
 62
     7
100
AcDbLine
 10
-52.2724494934082
 20
88.4574966430664
 30
0.0
 11
-53.3724479675293
 21
88.4574966430664
 31
0.0
  0
LINE
  5
189
330
1F
100
AcDbEntity
  8
0
  6
Continuous
 62
     7
100
AcDbLine
 10
-53.3724479675293
 20
88.4574966430664
 30
0.0
 11
-53.3724479675293
 21
95.04082489013672
 31
0.0
  0
LINE
  5
18A
330
1F
100
AcDbEntity
  8
0
  6
Continuous
 62
     7
100
AcDbLine
 10
-53.37244641576656
 20
88.45748983691696
 30
0.0
 11
-53.03911166413924
 21
89.79082884342621
 31
0.0
  0
LINE
  5
18B
330
1F
100
AcDbEntity
  8
0
  6
Continuous
 62
     7
100
AcDbLine
 10
-52.27244839683631
 20
88.45749353771691
 30
0.0
 11
-51.93911549560897
 21
89.79082514262626
 31
0.0
  0
LINE
  5
18C
330
1F
100
AcDbEntity
  8
0
  6
Continuous
 62
     7
100
AcDbLine
 10
-51.93911743164062
 20
89.79082489013672
 30
0.0
 11
-53.03911590576172
 21
89.79082489013672
 31
0.0
  0
LINE
  5
18D
330
1F
100
AcDbEntity
  8
0
  6
Continuous
 62
     7
100
AcDbLine
 10
-51.93911743164062
 20
90.79082489013672
 30
0.0
 11
-53.03911590576172
 21
90.79082489013672
 31
0.0
  0
LINE
  5
18E
330
1F
100
AcDbEntity
  8
0
  6
Continuous
 62
     7
100
AcDbLine
 10
-51.93911743164062
 20
89.79082489013672
 30
0.0
 11
-51.93911743164062
 21
93.07415771484375
 31
0.0
  0
LINE
  5
18F
330
1F
100
AcDbEntity
  8
0
  6
Continuous
 62
     7
100
AcDbLine
 10
-53.03911590576172
 20
89.79082489013672
 30
0.0
 11
-53.03911590576172
 21
95.04082489013672
 31
0.0
  0
LINE
  5
190
330
1F
100
AcDbEntity
  8
0
  6
Continuous
 62
     7
100
AcDbLine
 10
-0.439115166664124
 20
96.04082489013672
 30
0.0
 11
-50.43911743164062
 21
96.04082489013672
 31
0.0
  0
LINE
  5
191
330
1F
100
AcDbEntity
  8
0
  6
Continuous
 62
     7
100
AcDbLine
 10
-44.91429011347213
 20
56.18569528335813
 30
0.0
 11
-25.43911691730153
 21
53.45749204313235
 31
0.0
  0
LINE
  5
192
330
1F
100
AcDbEntity
  8
0
  6
Continuous
 62
     7
100
AcDbLine
 10
-47.7724494934082
 20
91.70233917236328
 30
0.0
 11
-47.7724494934082
 21
60.314453125
 31
0.0
  0
LINE
  5
193
330
1F
100
AcDbEntity
  8
0
  6
Continuous
 62
     7
100
AcDbLine
 10
-6.067223072052002
 20
94.87415313720703
 30
0.0
 11
-44.81100845336914
 21
94.87415313720703
 31
0.0
  0
LINE
  5
194
330
1F
100
AcDbEntity
  8
0
  6
Continuous
 62
     7
100
AcDbLine
 10
-38.24157428810948
 20
67.65910712355061
 30
0.0
 11
-47.77245135784588
 21
60.31445554364434
 31
0.0
  0
LINE
  5
195
330
1F
100
AcDbEntity
  8
0
  6
Continuous
 62
     7
100
AcDbLine
 10
-35.67042478440595
 20
64.59492835170143
 30
0.0
 11
-44.91429311676147
 21
56.18569825266225
 31
0.0
  0
LINE
  5
196
330
1F
100
AcDbEntity
  8
0
  6
Continuous
 62
     7
100
AcDbLine
 10
-47.10578155517578
 20
60.314453125
 30
0.0
 11
-47.7724494934082
 21
60.314453125
 31
0.0
  0
LINE
  5
197
330
1F
100
AcDbEntity
  8
0
  6
Continuous
 62
     7
100
AcDbLine
 10
-44.91429138183594
 20
56.69057846069336
 30
0.0
 11
-44.91429138183594
 21
56.18569564819336
 31
0.0
  0
LINE
  5
198
330
1F
100
AcDbEntity
  8
0
  6
Continuous
 62
     7
100
AcDbLine
 10
-44.91429445659404
 20
56.69057907390852
 30
0.0
 11
-35.67042593901049
 21
64.59492758900451
 31
0.0
  0
LINE
  5
199
330
1F
100
AcDbEntity
  8
0
  6
Continuous
 62
     7
100
AcDbLine
 10
-47.10578196314032
 20
60.31445331223578
 30
0.0
 11
-38.24157135777156
 21
67.65910493339102
 31
0.0
  0
LINE
  5
19A
330
1F
100
AcDbEntity
  8
0
  6
Continuous
 62
     7
100
AcDbLine
 10
-44.91429427189473
 20
56.69057818805133
 30
0.0
 11
-49.1002440295162
 21
51.04414069093853
 31
0.0
  0
LINE
  5
19B
330
1F
100
AcDbEntity
  8
0
  6
Continuous
 62
     7
100
AcDbLine
 10
-47.10578454761398
 20
60.31445185700315
 30
0.0
 11
-51.84166309890134
 21
52.93706563635553
 31
0.0
  0
LINE
  5
19C
330
1F
100
AcDbEntity
  8
0
  6
Continuous
 62
     7
100
AcDbLine
 10
-44.91429158744836
 20
56.18569215518858
 30
0.0
 11
-48.85869844712913
 21
50.86507244258465
 31
0.0
  0
LINE
  5
19D
330
1F
100
AcDbEntity
  8
0
  6
Continuous
 62
     7
100
AcDbLine
 10
-47.77244692261861
 20
60.31445234782262
 30
0.0
 11
-51.87119664206016
 21
53.42988252870334
 31
0.0
  0
LINE
  5
19E
330
1F
100
AcDbEntity
  8
0
  6
Continuous
 62
     7
100
AcDbLine
 10
-35.79381846652736
 20
86.87270137189421
 30
0.0
 11
-44.81100651548017
 21
94.87415656651422
 31
0.0
  0
LINE
  5
19F
330
1F
100
AcDbEntity
  8
0
  6
Continuous
 62
     7
100
AcDbLine
 10
-38.1507084780535
 20
84.06387025369526
 30
0.0
 11
-47.77245272455031
 21
91.70233636020745
 31
0.0
  0
LINE
  5
1A0
330
1F
100
AcDbEntity
  8
0
  6
Continuous
 62
     7
100
AcDbLine
 10
-44.81100845336914
 20
94.87415313720703
 30
0.0
 11
-44.81100845336914
 21
94.54082489013672
 31
0.0
  0
LINE
  5
1A1
330
1F
100
AcDbEntity
  8
0
  6
Continuous
 62
     7
100
AcDbLine
 10
-47.2724494934082
 20
91.70233917236328
 30
0.0
 11
-47.7724494934082
 21
91.70233917236328
 31
0.0
  0
LINE
  5
1A2
330
1F
100
AcDbEntity
  8
0
  6
Continuous
 62
     7
100
AcDbLine
 10
-38.15070888325262
 20
84.06387360566728
 30
0.0
 11
-47.27245033483911
 21
91.70233763815094
 31
0.0
  0
LINE
  5
1A3
330
1F
100
AcDbEntity
  8
0
  6
Continuous
 62
     7
100
AcDbLine
 10
-47.77244622481687
 20
91.70233452976561
 30
0.0
 11
-50.97773276773518
 21
92.79692163618671
 31
0.0
  0
LINE
  5
1A4
330
1F
100
AcDbEntity
  8
0
  6
Continuous
 62
     7
100
AcDbLine
 10
-44.81100734951858
 20
94.87415530503253
 30
0.0
 11
-50.09034913330061
 21
96.00392220878904
 31
0.0
  0
LINE
  5
1A5
330
1F
100
AcDbEntity
  8
0
  6
Continuous
 62
     7
100
AcDbLine
 10
-47.2724497693277
 20
91.70233355203038
 30
0.0
 11
-50.97773632051319
 21
92.96766781472957
 31
0.0
  0
LINE
  5
1A6
330
1F
100
AcDbEntity
  8
0
  6
Continuous
 62
     7
100
AcDbLine
 10
-35.79381589791444
 20
86.87269898472435
 30
0.0
 11
-44.81100571346091
 21
94.5408221652614
 31
0.0
  0
LINE
  5
1A7
330
1F
100
AcDbEntity
  8
0
  6
Continuous
 62
     7
100
AcDbLine
 10
-44.81100826689187
 20
94.54082496811577
 30
0.0
 11
-50.15855749238267
 21
95.68518810628717
 31
0.0
  0
LINE
  5
1A8
330
1F
100
AcDbEntity
  8
0
  6
Continuous
 62
     7
100
AcDbLine
 10
-44.10578155517578
 20
36.33961486816406
 30
0.0
 11
-44.10578155517578
 21
35.66643905639648
 31
0.0
  0
LINE
  5
1A9
330
1F
100
AcDbEntity
  8
0
  6
Continuous
 62
     7
100
AcDbLine
 10
-32.07491683959961
 20
35.07660293579102
 30
0.0
 11
-32.07491683959961
 21
34.76533126831055
 31
0.0
  0
LINE
  5
1AA
330
1F
100
AcDbEntity
  8
0
  6
Continuous
 62
     7
100
AcDbLine
 10
-29.43911361694336
 20
34.65712356567383
 30
0.0
 11
-29.43911361694336
 21
34.32379150390625
 31
0.0
  0
LINE
  5
1AB
330
1F
100
AcDbEntity
  8
0
  6
Continuous
 62
     7
100
AcDbLine
 10
-27.71809196472168
 20
35.12892913818359
 30
0.0
 11
-27.71809196472168
 21
34.83942413330078
 31
0.0
  0
LINE
  5
1AC
330
1F
100
AcDbEntity
  8
0
  6
Continuous
 62
     7
100
AcDbLine
 10
-36.20834372996519
 20
35.28590731089253
 30
0.0
 11
-36.54876058849208
 21
35.56894314355505
 31
0.0
  0
LINE
  5
1AD
330
1F
100
AcDbEntity
  8
0
  6
Continuous
 62
     7
100
AcDbLine
 10
-12.7724487874157
 20
-75.52846917345795
 30
0.0
 11
-12.94744864824153
 21
-82.52846402385376
 31
0.0
  0
LINE
  5
1AE
330
1F
100
AcDbEntity
  8
0
  6
Continuous
 62
     7
100
AcDbLine
 10
-15.58244931321345
 20
-85.09512946130042
 30
0.0
 11
-15.61844938523926
 21
-86.5951323980961
 31
0.0
  0
LINE
  5
1AF
330
1F
100
AcDbEntity
  8
0
  6
Continuous
 62
     7
100
AcDbLine
 10
-15.47578269857876
 20
-83.42846204396312
 30
0.0
 11
-15.58244972126518
 21
-85.09513427965999
 31
0.0
  0
LINE
  5
1B0
330
1F
100
AcDbEntity
  8
0
  6
Continuous
 62
     7
100
AcDbLine
 10
-15.78511553632541
 20
-86.7618002861962
 30
0.0
 11
-15.61844868987478
 21
-86.59513343974557
 31
0.0
  0
LINE
  5
1B1
330
1F
100
AcDbEntity
  8
0
  6
Continuous
 62
     7
100
AcDbLine
 10
-13.2807808178886
 20
-82.86179931612938
 30
0.0
 11
-12.94744712498733
 21
-82.52846562322812
 31
0.0
  0
LINE
  5
1B2
330
1F
100
AcDbEntity
  8
0
  6
Continuous
 62
     7
100
AcDbLine
 10
-15.78511524200439
 20
-86.76180267333984
 30
0.0
 11
-35.09311676025391
 21
-86.76180267333984
 31
0.0
  0
LINE
  5
1B3
330
1F
100
AcDbEntity
  8
0
  6
Continuous
 62
     7
100
AcDbLine
 10
-12.7724494934082
 20
-75.5284652709961
 30
0.0
 11
-38.10578155517578
 21
-75.5284652709961
 31
0.0
  0
LINE
  5
1B4
330
1F
100
AcDbEntity
  8
0
  6
Continuous
 62
     7
100
AcDbLine
 10
-35.09311687793284
 20
-86.76179758879789
 30
0.0
 11
-35.25978102698517
 21
-86.59513343974555
 31
0.0
  0
LINE
  5
1B5
330
1F
100
AcDbEntity
  8
0
  6
Continuous
 62
     7
100
AcDbLine
 10
-37.59744889897136
 20
-82.86179931612938
 30
0.0
 11
-37.93078259187263
 21
-82.52846562322812
 31
0.0
  0
LINE
  5
1B6
330
1F
100
AcDbEntity
  8
0
  6
Continuous
 62
     7
100
AcDbLine
 10
-38.10578304808681
 20
-75.52847455574724
 30
0.0
 11
-37.93078337793626
 21
-82.52846177913159
 31
0.0
  0
LINE
  5
1B7
330
1F
100
AcDbEntity
  8
0
  6
Continuous
 62
     7
100
AcDbLine
 10
-13.28078174591064
 20
-82.86180114746094
 30
0.0
 11
-37.59745025634766
 21
-82.86180114746094
 31
0.0
  0
LINE
  5
1B8
330
1F
100
AcDbEntity
  8
0
  6
Continuous
 62
     7
100
AcDbLine
 10
-35.29578180838709
 20
-85.09512952885174
 30
0.0
 11
-35.25978173636128
 21
-86.59513246564742
 31
0.0
  0
LINE
  5
1B9
330
1F
100
AcDbEntity
  8
0
  6
Continuous
 62
     7
100
AcDbLine
 10
-35.40244986957756
 20
-83.42846312824729
 30
0.0
 11
-35.29578284689114
 21
-85.09513536394415
 31
0.0
  0
LINE
  5
1BA
330
1F
100
AcDbEntity
  8
0
  6
Continuous
 62
     7
100
AcDbLine
 10
-35.41622099146734
 20
-82.86179923025615
 30
0.0
 11
-35.40245153135975
 21
-83.42846545852656
 31
0.0
  0
LINE
  5
1BB
330
1F
100
AcDbEntity
  8
0
  6
Continuous
 62
     7
100
AcDbLine
 10
-15.46201302899075
 20
-82.86180187857333
 30
0.0
 11
-15.47578248909834
 21
-83.42846810684374
 31
0.0
  0
LINE
  5
1BC
330
1F
100
AcDbEntity
  8
0
  6
Continuous
 62
     7
100
AcDbLine
 10
80.47347477793964
 20
-75.52846753298621
 30
0.0
 11
80.29847491711381
 21
-82.52846238338202
 31
0.0
  0
LINE
  5
1BD
330
1F
100
AcDbEntity
  8
0
  6
Continuous
 62
     7
100
AcDbLine
 10
77.66347009846085
 20
-85.09512847408426
 30
0.0
 11
77.62747002643503
 21
-86.59513141087994
 31
0.0
  0
LINE
  5
1BE
330
1F
100
AcDbEntity
  8
0
  6
Continuous
 62
     7
100
AcDbLine
 10
77.77013825763441
 20
-83.42846531094607
 30
0.0
 11
77.6634717222323
 21
-85.09512993282556
 31
0.0
  0
LINE
  5
1BF
330
1F
100
AcDbEntity
  8
0
  6
Continuous
 62
     7
100
AcDbLine
 10
77.46080610847947
 20
-86.76179826314747
 30
0.0
 11
77.62747228058053
 21
-86.59513209104641
 31
0.0
  0
LINE
  5
1C0
330
1F
100
AcDbEntity
  8
0
  6
Continuous
 62
     7
100
AcDbLine
 10
79.96513981539194
 20
-82.86179830460502
 30
0.0
 11
80.29847317111842
 21
-82.52846494887854
 31
0.0
  0
LINE
  5
1C1
330
1F
100
AcDbEntity
  8
0
  6
Continuous
 62
     7
100
AcDbLine
 10
77.46080780029297
 20
-86.76180267333984
 30
0.0
 11
58.15280532836914
 21
-86.76180267333984
 31
0.0
  0
LINE
  5
1C2
330
1F
100
AcDbEntity
  8
0
  6
Continuous
 62
     7
100
AcDbLine
 10
80.47347259521484
 20
-75.5284652709961
 30
0.0
 11
55.14014053344727
 21
-75.5284652709961
 31
0.0
  0
LINE
  5
1C3
330
1F
100
AcDbEntity
  8
0
  6
Continuous
 62
     7
100
AcDbLine
 10
58.15280678992077
 20
-86.76179893749703
 30
0.0
 11
57.98613994347015
 21
-86.59513209104641
 31
0.0
  0
LINE
  5
1C4
330
1F
100
AcDbEntity
  8
0
  6
Continuous
 62
     7
100
AcDbLine
 10
55.64847207148395
 20
-82.86179796743022
 30
0.0
 11
55.31513837858269
 21
-82.52846427452896
 31
0.0
  0
LINE
  5
1C5
330
1F
100
AcDbEntity
  8
0
  6
Continuous
 62
     7
100
AcDbLine
 10
55.14013937321682
 20
-75.52846859304191
 30
0.0
 11
55.31513923404265
 21
-82.52846344343772
 31
0.0
  0
LINE
  5
1C6
330
1F
100
AcDbEntity
  8
0
  6
Continuous
 62
     7
100
AcDbLine
 10
79.96514129638672
 20
-82.86180114746094
 30
0.0
 11
55.64847183227539
 21
-82.86180114746094
 31
0.0
  0
LINE
  5
1C7
330
1F
100
AcDbEntity
  8
0
  6
Continuous
 62
     7
100
AcDbLine
 10
57.95013951008676
 20
-85.09513047030468
 30
0.0
 11
57.98613958211257
 21
-86.59513340710036
 31
0.0
  0
LINE
  5
1C8
330
1F
100
AcDbEntity
  8
0
  6
Continuous
 62
     7
100
AcDbLine
 10
57.84347157391992
 20
-83.42846747508172
 30
0.0
 11
57.95013810932203
 21
-85.09513209696121
 31
0.0
  0
LINE
  5
1C9
330
1F
100
AcDbEntity
  8
0
  6
Continuous
 62
     7
100
AcDbLine
 10
57.82970180772434
 20
-82.86180046916478
 30
0.0
 11
57.84347126783193
 21
-83.4284666974352
 31
0.0
  0
LINE
  5
1CA
330
1F
100
AcDbEntity
  8
0
  6
Continuous
 62
     7
100
AcDbLine
 10
77.78390977020094
 20
-82.8618006396647
 30
0.0
 11
77.77014031009334
 21
-83.4284668679351
 31
0.0
  0
LINE
  5
1CB
330
1F
100
AcDbEntity
  8
0
  6
Continuous
 62
     7
100
AcDbLine
 10
49.23600387573242
 20
-33.19513320922852
 30
0.0
 11
47.64013671875
 21
-33.19513320922852
 31
0.0
  0
LINE
  5
1CC
330
1F
100
AcDbEntity
  8
0
  6
Continuous
 62
     7
100
AcDbLine
 10
46.47346878051758
 20
-30.8617992401123
 30
0.0
 11
46.47346878051758
 21
-32.02846527099609
 31
0.0
  0
LINE
  5
1CD
330
1F
100
AcDbEntity
  8
0
  6
Continuous
 62
     7
100
AcDbLine
 10
83.0442886352539
 20
-33.19513320922852
 30
0.0
 11
84.4734878540039
 21
-33.19513320922852
 31
0.0
  0
LINE
  5
1CE
330
1F
100
AcDbEntity
  8
0
  6
Continuous
 62
     7
100
AcDbLine
 10
85.64015197753906
 20
-30.8617992401123
 30
0.0
 11
85.64015197753906
 21
-32.02846527099609
 31
0.0
  0
ARC
  5
1CF
330
1F
100
AcDbEntity
  8
0
  6
Continuous
 62
     7
100
AcDbCircle
 10
-57.72382736206055
 20
94.22750091552734
 30
0.0
 40
100.0
100
AcDbArc
 50
274.0036221605515
 51
283.8578434346416
  0
ARC
  5
1D0
330
1F
100
AcDbEntity
  8
0
  6
Continuous
 62
     7
100
AcDbCircle
 10
-57.72382736206055
 20
92.8941650390625
 30
0.0
 40
100.0
100
AcDbArc
 50
274.0036221605515
 51
283.8578434346416
  0
ARC
  5
1D1
330
1F
100
AcDbEntity
  8
0
  6
Continuous
 62
     7
100
AcDbCircle
 10
-60.65874099731445
 20
-12.8617992401123
 30
0.0
 40
2.333333492279053
100
AcDbArc
 50
186.5602004435441
 51
269.9999974955218
  0
ARC
  5
1D2
330
1F
100
AcDbEntity
  8
0
  6
Continuous
 62
     7
100
AcDbCircle
 10
-61.61199569702148
 20
-18.9521541595459
 30
0.0
 40
4.0
100
AcDbArc
 50
15.00000041741303
 51
69.92686200556524
  0
ARC
  5
1D3
330
1F
100
AcDbEntity
  8
0
  6
Continuous
 62
     7
100
AcDbCircle
 10
-53.1995735168457
 20
-19.43811225891113
 30
0.0
 40
4.0
100
AcDbArc
 50
195.0000056537405
 51
249.9268638267981
  0
ARC
  5
1D4
330
1F
100
AcDbEntity
  8
0
  6
Continuous
 62
     7
100
AcDbCircle
 10
-43.23194122314453
 20
-64.67547607421875
 30
0.0
 40
5.0
100
AcDbArc
 50
186.2999975569234
 51
248.0425444083858
  0
ARC
  5
1D5
330
1F
100
AcDbEntity
  8
0
  6
Continuous
 62
     7
100
AcDbCircle
 10
-34.02445983886719
 20
-48.39567565917969
 30
0.0
 40
8.333333969116211
100
AcDbArc
 50
109.2541350200149
 51
165.8733979561858
  0
ARC
  5
1D6
330
1F
100
AcDbEntity
  8
0
  6
Continuous
 62
     7
100
AcDbCircle
 10
-29.22556114196777
 20
-44.06243515014648
 30
0.0
 40
8.333333969116211
100
AcDbArc
 50
105.4041896113104
 51
154.9078161116754
  0
ARC
  5
1D7
330
1F
100
AcDbEntity
  8
0
  6
Continuous
 62
     7
100
AcDbCircle
 10
-25.6822452545166
 20
-68.86091613769531
 30
0.0
 40
33.33333587646484
100
AcDbArc
 50
89.58209054992177
 51
99.94519506812362
  0
ARC
  5
1D8
330
1F
100
AcDbEntity
  8
0
  6
Continuous
 62
     7
100
AcDbCircle
 10
-25.6822452545166
 20
-27.19602012634277
 30
0.0
 40
33.33333587646484
100
AcDbArc
 50
260.0548049318764
 51
270.4179094500782
  0
ARC
  5
1D9
330
1F
100
AcDbEntity
  8
0
  6
Continuous
 62
     7
100
AcDbCircle
 10
-29.22556114196777
 20
-51.99449920654297
 30
0.0
 40
8.333333969116211
100
AcDbArc
 50
205.0921838883246
 51
254.5958103886896
  0
ARC
  5
1DA
330
1F
100
AcDbEntity
  8
0
  6
Continuous
 62
     7
100
AcDbCircle
 10
-34.02445983886719
 20
-47.66125869750977
 30
0.0
 40
8.333333969116211
100
AcDbArc
 50
194.1266020438142
 51
250.7458649799852
  0
ARC
  5
1DB
330
1F
100
AcDbEntity
  8
0
  6
Continuous
 62
     7
100
AcDbCircle
 10
-34.02445983886719
 20
-48.39567565917969
 30
0.0
 40
6.0
100
AcDbArc
 50
99.47791450624636
 51
163.3351084153123
  0
ARC
  5
1DC
330
1F
100
AcDbEntity
  8
0
  6
Continuous
 62
     7
100
AcDbCircle
 10
-29.22556114196777
 20
-44.06243515014648
 30
0.0
 40
6.0
100
AcDbArc
 50
106.3988632299502
 51
164.6840297952548
  0
ARC
  5
1DD
330
1F
100
AcDbEntity
  8
0
  6
Continuous
 62
     7
100
AcDbCircle
 10
-25.6822452545166
 20
-68.86091613769531
 30
0.0
 40
31.0
100
AcDbArc
 50
89.58209054992177
 51
99.72639678825142
  0
ARC
  5
1DE
330
1F
100
AcDbEntity
  8
0
  6
Continuous
 62
     7
100
AcDbCircle
 10
-34.02445983886719
 20
-47.66125869750977
 30
0.0
 40
6.0
100
AcDbArc
 50
196.6648915846877
 51
260.5220854937537
  0
ARC
  5
1DF
330
1F
100
AcDbEntity
  8
0
  6
Continuous
 62
     7
100
AcDbCircle
 10
-29.22556114196777
 20
-51.99449920654297
 30
0.0
 40
6.0
100
AcDbArc
 50
195.3159702047452
 51
258.2499820852138
  0
ARC
  5
1E0
330
1F
100
AcDbEntity
  8
0
  6
Continuous
 62
     7
100
AcDbCircle
 10
-29.43911552429199
 20
-55.86180114746094
 30
0.0
 40
2.666666746139526
100
AcDbArc
 50
352.8749835800296
 51
172.5342394159172
  0
ARC
  5
1E1
330
1F
100
AcDbEntity
  8
0
  6
Continuous
 62
     7
100
AcDbCircle
 10
-30.4279842376709
 20
-56.48064422607422
 30
0.0
 40
3.666666746139526
100
AcDbArc
 50
260.794924230339
 51
4.465913212397314
  0
ARC
  5
1E2
330
1F
100
AcDbEntity
  8
0
  6
Continuous
 62
     7
100
AcDbCircle
 10
-30.43911552429199
 20
-56.50061416625977
 30
0.0
 40
1.333333373069763
100
AcDbArc
 50
254.9271155445702
 51
144.7947511586094
  0
ARC
  5
1E3
330
1F
100
AcDbEntity
  8
0
  6
Continuous
 62
     7
100
AcDbCircle
 10
-31.77913093566895
 20
-55.55515289306641
 30
0.0
 40
0.3066460192203522
100
AcDbArc
 50
172.5342394159172
 51
324.7947561675658
  0
ARC
  5
1E4
330
1F
100
AcDbEntity
  8
0
  6
Continuous
 62
     7
100
AcDbCircle
 10
-19.09910202026367
 20
-55.55515289306641
 30
0.0
 40
0.3066460192203522
100
AcDbArc
 50
215.2052488413906
 51
7.465755347755362
  0
ARC
  5
1E5
330
1F
100
AcDbEntity
  8
0
  6
Continuous
 62
     7
100
AcDbCircle
 10
6.845593452453613
 20
94.22750091552734
 30
0.0
 40
100.0
100
AcDbArc
 50
256.1421583865913
 51
265.9963728304921
  0
ARC
  5
1E6
330
1F
100
AcDbEntity
  8
0
  6
Continuous
 62
     7
100
AcDbCircle
 10
6.845593452453613
 20
92.8941650390625
 30
0.0
 40
100.0
100
AcDbArc
 50
256.1421583865913
 51
265.9963728304921
  0
ARC
  5
1E7
330
1F
100
AcDbEntity
  8
0
  6
Continuous
 62
     7
100
AcDbCircle
 10
9.780506134033203
 20
-12.8617992401123
 30
0.0
 40
2.333333492279053
100
AcDbArc
 50
269.9999974955218
 51
353.4398035121228
  0
ARC
  5
1E8
330
1F
100
AcDbEntity
  8
0
  6
Continuous
 62
     7
100
AcDbCircle
 10
10.73376178741455
 20
-18.9521541595459
 30
0.0
 40
4.0
100
AcDbArc
 50
110.0731361732019
 51
164.9999943462596
  0
ARC
  5
1E9
330
1F
100
AcDbEntity
  8
0
  6
Continuous
 62
     7
100
AcDbCircle
 10
2.321340084075928
 20
-19.43811225891113
 30
0.0
 40
4.0
100
AcDbArc
 50
290.0731379944348
 51
344.999999582587
  0
ARC
  5
1EA
330
1F
100
AcDbEntity
  8
0
  6
Continuous
 62
     7
100
AcDbCircle
 10
-7.646294116973877
 20
-64.67547607421875
 30
0.0
 40
5.0
100
AcDbArc
 50
291.9574505826579
 51
353.6999999954413
  0
ARC
  5
1EB
330
1F
100
AcDbEntity
  8
0
  6
Continuous
 62
     7
100
AcDbCircle
 10
-16.85377311706543
 20
-48.39567565917969
 30
0.0
 40
8.333333969116211
100
AcDbArc
 50
14.12659680748682
 51
70.7458631587523
  0
ARC
  5
1EC
330
1F
100
AcDbEntity
  8
0
  6
Continuous
 62
     7
100
AcDbCircle
 10
-21.65267181396484
 20
-44.06243515014648
 30
0.0
 40
8.333333969116211
100
AcDbArc
 50
25.0921906048282
 51
74.59580856745671
  0
ARC
  5
1ED
330
1F
100
AcDbEntity
  8
0
  6
Continuous
 62
     7
100
AcDbCircle
 10
-25.19598579406738
 20
-68.86091613769531
 30
0.0
 40
33.33333587646484
100
AcDbArc
 50
80.05480311064355
 51
90.41791445903456
  0
ARC
  5
1EE
330
1F
100
AcDbEntity
  8
0
  6
Continuous
 62
     7
100
AcDbCircle
 10
-25.19598579406738
 20
-27.19602012634277
 30
0.0
 40
33.33333587646484
100
AcDbArc
 50
269.5820855409655
 51
279.9451968893565
  0
ARC
  5
1EF
330
1F
100
AcDbEntity
  8
0
  6
Continuous
 62
     7
100
AcDbCircle
 10
-21.65267181396484
 20
-51.99449920654297
 30
0.0
 40
8.333333969116211
100
AcDbArc
 50
285.4041914325433
 51
334.9078093951718
  0
ARC
  5
1F0
330
1F
100
AcDbEntity
  8
0
  6
Continuous
 62
     7
100
AcDbCircle
 10
-16.85377311706543
 20
-47.66125869750977
 30
0.0
 40
8.333333969116211
100
AcDbArc
 50
289.2541368412477
 51
345.8734031925132
  0
ARC
  5
1F1
330
1F
100
AcDbEntity
  8
0
  6
Continuous
 62
     7
100
AcDbCircle
 10
-16.85377311706543
 20
-48.39567565917969
 30
0.0
 40
6.0
100
AcDbArc
 50
16.66489830119136
 51
80.5220836725208
  0
ARC
  5
1F2
330
1F
100
AcDbEntity
  8
0
  6
Continuous
 62
     7
100
AcDbCircle
 10
-21.65267181396484
 20
-44.06243515014648
 30
0.0
 40
6.0
100
AcDbArc
 50
15.31597009105969
 51
73.6011417790061
  0
ARC
  5
1F3
330
1F
100
AcDbEntity
  8
0
  6
Continuous
 62
     7
100
AcDbCircle
 10
-25.19598579406738
 20
-68.86091613769531
 30
0.0
 40
31.0
100
AcDbArc
 50
80.27360139051574
 51
90.41791445903456
  0
ARC
  5
1F4
330
1F
100
AcDbEntity
  8
0
  6
Continuous
 62
     7
100
AcDbCircle
 10
-16.85377311706543
 20
-47.66125869750977
 30
0.0
 40
6.0
100
AcDbArc
 50
279.4779163274792
 51
343.3351016988086
  0
ARC
  5
1F5
330
1F
100
AcDbEntity
  8
0
  6
Continuous
 62
     7
100
AcDbCircle
 10
-21.65267181396484
 20
-51.99449920654297
 30
0.0
 40
6.0
100
AcDbArc
 50
281.750019736019
 51
344.6840299089403
  0
ARC
  5
1F6
330
1F
100
AcDbEntity
  8
0
  6
Continuous
 62
     7
100
AcDbCircle
 10
-21.43911552429199
 20
-55.86180114746094
 30
0.0
 40
2.666666746139526
100
AcDbArc
 50
7.465755347755362
 51
187.1250124643035
  0
ARC
  5
1F7
330
1F
100
AcDbEntity
  8
0
  6
Continuous
 62
     7
100
AcDbCircle
 10
-20.45024871826172
 20
-56.48064422607422
 30
0.0
 40
3.666666746139526
100
AcDbArc
 50
175.5340858201435
 51
279.2050739484282
  0
ARC
  5
1F8
330
1F
100
AcDbEntity
  8
0
  6
Continuous
 62
     7
100
AcDbCircle
 10
-20.43911552429199
 20
-56.50061416625977
 30
0.0
 40
1.333333373069763
100
AcDbArc
 50
35.20525385034692
 51
285.0728894643862
  0
ARC
  5
1F9
330
1F
100
AcDbEntity
  8
0
  6
Continuous
 62
     7
100
AcDbCircle
 10
-17.7724494934082
 20
-57.23057556152344
 30
0.0
 40
4.166666984558105
100
AcDbArc
 50
62.57117857137921
 51
121.1510541389915
  0
ARC
  5
1FA
330
1F
100
AcDbEntity
  8
0
  6
Continuous
 62
     7
100
AcDbCircle
 10
-33.10578536987305
 20
-57.23057556152344
 30
0.0
 40
4.166666984558105
100
AcDbArc
 50
58.84894403977572
 51
117.428819607388
  0
ARC
  5
1FB
330
1F
100
AcDbEntity
  8
0
  6
Continuous
 62
     7
100
AcDbCircle
 10
-25.43911552429199
 20
-57.23057556152344
 30
0.0
 40
4.166666984558105
100
AcDbArc
 50
55.92607728259006
 51
124.0739243112717
  0
ARC
  5
1FC
330
1F
100
AcDbEntity
  8
0
  6
Continuous
 62
     7
100
AcDbCircle
 10
-29.27245140075684
 20
-59.76424789428711
 30
0.0
 40
4.166666984558105
100
AcDbArc
 50
23.07391751641362
 51
54.03877307151048
  0
ARC
  5
1FD
330
1F
100
AcDbEntity
  8
0
  6
Continuous
 62
     7
100
AcDbCircle
 10
-21.60578346252441
 20
-59.76424789428711
 30
0.0
 40
4.166666984558105
100
AcDbArc
 50
40.47570785168473
 51
87.49590489058976
  0
ARC
  5
1FE
330
1F
100
AcDbEntity
  8
0
  6
Continuous
 62
     7
100
AcDbCircle
 10
-29.27245140075684
 20
-54.69690322875977
 30
0.0
 40
4.166666984558105
100
AcDbArc
 50
23.07391751641362
 51
156.9260823699008
  0
ARC
  5
1FF
330
1F
100
AcDbEntity
  8
0
  6
Continuous
 62
     7
100
AcDbCircle
 10
-36.93911743164062
 20
-54.69690322875977
 30
0.0
 40
4.166666984558105
100
AcDbArc
 50
23.07391751641362
 51
119.1696026003924
  0
ARC
  5
200
330
1F
100
AcDbEntity
  8
0
  6
Continuous
 62
     7
100
AcDbCircle
 10
-33.10578536987305
 20
-52.16322708129883
 30
0.0
 40
4.166666984558105
100
AcDbArc
 50
23.07391751641362
 51
156.9260823699008
  0
ARC
  5
201
330
1F
100
AcDbEntity
  8
0
  6
Continuous
 62
     7
100
AcDbCircle
 10
-25.43911552429199
 20
-62.29792404174805
 30
0.0
 40
4.166666984558105
100
AcDbArc
 50
60.58474099468608
 51
119.4152571840811
  0
ARC
  5
202
330
1F
100
AcDbEntity
  8
0
  6
Continuous
 62
     7
100
AcDbCircle
 10
-21.60578346252441
 20
-54.69690322875977
 30
0.0
 40
4.166666984558105
100
AcDbArc
 50
23.07391751641362
 51
156.9260823699008
  0
ARC
  5
203
330
1F
100
AcDbEntity
  8
0
  6
Continuous
 62
     7
100
AcDbCircle
 10
-17.7724494934082
 20
-52.16322708129883
 30
0.0
 40
4.166666984558105
100
AcDbArc
 50
23.07391751641362
 51
156.9260823699008
  0
ARC
  5
204
330
1F
100
AcDbEntity
  8
0
  6
Continuous
 62
     7
100
AcDbCircle
 10
-13.93911552429199
 20
-54.69690322875977
 30
0.0
 40
4.166666984558105
100
AcDbArc
 50
60.83038874818558
 51
156.9260823699008
  0
ARC
  5
205
330
1F
100
AcDbEntity
  8
0
  6
Continuous
 62
     7
100
AcDbCircle
 10
-36.93911743164062
 20
-49.62955474853516
 30
0.0
 40
4.166666984558105
100
AcDbArc
 50
23.07391751641362
 51
132.0231443541426
  0
ARC
  5
206
330
1F
100
AcDbEntity
  8
0
  6
Continuous
 62
     7
100
AcDbCircle
 10
-29.27245140075684
 20
-49.62955474853516
 30
0.0
 40
4.166666984558105
100
AcDbArc
 50
23.07391751641362
 51
156.9260823699008
  0
ARC
  5
207
330
1F
100
AcDbEntity
  8
0
  6
Continuous
 62
     7
100
AcDbCircle
 10
-21.60578346252441
 20
-49.62955474853516
 30
0.0
 40
4.166666984558105
100
AcDbArc
 50
23.07391751641362
 51
156.9260823699008
  0
ARC
  5
208
330
1F
100
AcDbEntity
  8
0
  6
Continuous
 62
     7
100
AcDbCircle
 10
-10.10578346252441
 20
-47.09588241577148
 30
0.0
 40
4.166666984558105
100
AcDbArc
 50
130.8478873640369
 51
156.9260823699008
  0
ARC
  5
209
330
1F
100
AcDbEntity
  8
0
  6
Continuous
 62
     7
100
AcDbCircle
 10
-17.7724494934082
 20
-47.09588241577148
 30
0.0
 40
4.166666984558105
100
AcDbArc
 50
23.07391751641362
 51
156.9260823699008
  0
ARC
  5
20A
330
1F
100
AcDbEntity
  8
0
  6
Continuous
 62
     7
100
AcDbCircle
 10
-25.43911552429199
 20
-47.09588241577148
 30
0.0
 40
4.166666984558105
100
AcDbArc
 50
23.07391751641362
 51
156.9260823699008
  0
ARC
  5
20B
330
1F
100
AcDbEntity
  8
0
  6
Continuous
 62
     7
100
AcDbCircle
 10
-33.10578536987305
 20
-47.09588241577148
 30
0.0
 40
4.166666984558105
100
AcDbArc
 50
23.07391751641362
 51
156.9260823699008
  0
ARC
  5
20C
330
1F
100
AcDbEntity
  8
0
  6
Continuous
 62
     7
100
AcDbCircle
 10
-36.93911743164062
 20
-44.56220626831055
 30
0.0
 40
4.166666984558105
100
AcDbArc
 50
23.07391751641362
 51
54.04874856279329
  0
ARC
  5
20D
330
1F
100
AcDbEntity
  8
0
  6
Continuous
 62
     7
100
AcDbCircle
 10
-29.27245140075684
 20
-44.56220626831055
 30
0.0
 40
4.166666984558105
100
AcDbArc
 50
23.07391751641362
 51
156.9260823699008
  0
ARC
  5
20E
330
1F
100
AcDbEntity
  8
0
  6
Continuous
 62
     7
100
AcDbCircle
 10
-33.10578536987305
 20
-42.02853393554688
 30
0.0
 40
4.166666984558105
100
AcDbArc
 50
23.07391751641362
 51
62.059747666707
  0
ARC
  5
20F
330
1F
100
AcDbEntity
  8
0
  6
Continuous
 62
     7
100
AcDbCircle
 10
-25.43911552429199
 20
-42.02853393554688
 30
0.0
 40
4.166666984558105
100
AcDbArc
 50
23.07391751641362
 51
156.9260823699008
  0
ARC
  5
210
330
1F
100
AcDbEntity
  8
0
  6
Continuous
 62
     7
100
AcDbCircle
 10
-21.60578346252441
 20
-44.56220626831055
 30
0.0
 40
4.166666984558105
100
AcDbArc
 50
23.07391751641362
 51
156.9260823699008
  0
ARC
  5
211
330
1F
100
AcDbEntity
  8
0
  6
Continuous
 62
     7
100
AcDbCircle
 10
-17.7724494934082
 20
-42.02853393554688
 30
0.0
 40
4.166666984558105
100
AcDbArc
 50
118.5316765922916
 51
156.9260823699008
  0
ARC
  5
212
330
1F
100
AcDbEntity
  8
0
  6
Continuous
 62
     7
100
AcDbCircle
 10
-13.93911552429199
 20
-44.56220626831055
 30
0.0
 40
4.166666984558105
100
AcDbArc
 50
125.9512564461631
 51
156.9260823699008
  0
ARC
  5
213
330
1F
100
AcDbEntity
  8
0
  6
Continuous
 62
     7
100
AcDbCircle
 10
-25.43911552429199
 20
-52.16322708129883
 30
0.0
 40
4.166666984558105
100
AcDbArc
 50
23.07391751641362
 51
156.9260823699008
  0
ARC
  5
214
330
1F
100
AcDbEntity
  8
0
  6
Continuous
 62
     7
100
AcDbCircle
 10
-13.93911552429199
 20
-49.62955474853516
 30
0.0
 40
4.166666984558105
100
AcDbArc
 50
47.97685040952993
 51
156.9260823699008
  0
ARC
  5
215
330
1F
100
AcDbEntity
  8
0
  6
Continuous
 62
     7
100
AcDbCircle
 10
-29.27245140075684
 20
-59.76424789428711
 30
0.0
 40
4.166666984558105
100
AcDbArc
 50
92.50409328817742
 51
139.5242903270824
  0
ARC
  5
216
330
1F
100
AcDbEntity
  8
0
  6
Continuous
 62
     7
100
AcDbCircle
 10
-21.60578346252441
 20
-59.76424789428711
 30
0.0
 40
4.166666984558105
100
AcDbArc
 50
125.9612285223513
 51
156.9260823699008
  0
ARC
  5
217
330
1F
100
AcDbEntity
  8
0
  6
Continuous
 62
     7
100
AcDbCircle
 10
-40.77245330810547
 20
-52.16322708129883
 30
0.0
 40
4.166666984558105
100
AcDbArc
 50
23.07391751641362
 51
76.1134629406552
  0
ARC
  5
218
330
1F
100
AcDbEntity
  8
0
  6
Continuous
 62
     7
100
AcDbCircle
 10
-10.10578346252441
 20
-52.16322708129883
 30
0.0
 40
4.166666984558105
100
AcDbArc
 50
103.8865420683011
 51
156.9260823699008
  0
ARC
  5
219
330
1F
100
AcDbEntity
  8
0
  6
Continuous
 62
     7
100
AcDbCircle
 10
-40.77245330810547
 20
-47.09588241577148
 30
0.0
 40
4.166666984558105
100
AcDbArc
 50
23.07391751641362
 51
49.15211422982485
  0
ARC
  5
21A
330
1F
100
AcDbEntity
  8
0
  6
Continuous
 62
     7
100
AcDbCircle
 10
-48.11965179443359
 20
-4.195132255554199
 30
0.0
 40
5.666666984558105
100
AcDbArc
 50
251.4510000495189
 51
315.0991286982799
  0
ARC
  5
21B
330
1F
100
AcDbEntity
  8
0
  6
Continuous
 62
     7
100
AcDbCircle
 10
-56.28461837768555
 20
-28.52846717834473
 30
0.0
 40
20.0
100
AcDbArc
 50
71.45099822828608
 51
90.00000250447816
  0
ARC
  5
21C
330
1F
100
AcDbEntity
  8
0
  6
Continuous
 62
     7
100
AcDbCircle
 10
-42.10578536987305
 20
-5.528465747833252
 30
0.0
 40
3.333333492279053
100
AcDbArc
 50
233.1300967708486
 51
325.0346736197227
  0
ARC
  5
21D
330
1F
100
AcDbEntity
  8
0
  6
Continuous
 62
     7
100
AcDbCircle
 10
-38.0082893371582
 20
-8.393868446350098
 30
0.0
 40
1.666666746139526
100
AcDbArc
 50
9.99999970909292
 51
145.0346683833953
  0
ARC
  5
21E
330
1F
100
AcDbEntity
  8
0
  6
Continuous
 62
     7
100
AcDbCircle
 10
-34.83877563476562
 20
-4.195132255554199
 30
0.0
 40
5.0
100
AcDbArc
 50
254.1026707306146
 51
303.5573111142522
  0
ARC
  5
21F
330
1F
100
AcDbEntity
  8
0
  6
Continuous
 62
     7
100
AcDbCircle
 10
-30.71211814880371
 20
-7.735078811645508
 30
0.0
 40
1.5
100
AcDbArc
 50
204.6966203127324
 51
328.0671785734654
  0
ARC
  5
220
330
1F
100
AcDbEntity
  8
0
  6
Continuous
 62
     7
100
AcDbCircle
 10
-27.11418342590332
 20
-8.330655097961426
 30
0.0
 40
2.333333492279053
100
AcDbArc
 50
184.8631443216061
 51
255.0000004932034
  0
ARC
  5
221
330
1F
100
AcDbEntity
  8
0
  6
Continuous
 62
     7
100
AcDbCircle
 10
-27.72464179992676
 20
-12.99837207794189
 30
0.0
 40
2.333333492279053
100
AcDbArc
 50
11.61815433951263
 51
74.99999867197056
  0
ARC
  5
222
330
1F
100
AcDbEntity
  8
0
  6
Continuous
 62
     7
100
AcDbCircle
 10
-23.15358924865723
 20
-12.99837207794189
 30
0.0
 40
2.333333492279053
100
AcDbArc
 50
104.9999995067966
 51
168.3818395703863
  0
ARC
  5
223
330
1F
100
AcDbEntity
  8
0
  6
Continuous
 62
     7
100
AcDbCircle
 10
-2.758584499359131
 20
-4.195132255554199
 30
0.0
 40
5.666666984558105
100
AcDbArc
 50
224.9008662927638
 51
288.5490017717139
  0
ARC
  5
224
330
1F
100
AcDbEntity
  8
0
  6
Continuous
 62
     7
100
AcDbCircle
 10
5.406381607055664
 20
-28.52846717834473
 30
0.0
 40
20.0
100
AcDbArc
 50
90.00000250447816
 51
108.5489999504811
  0
ARC
  5
225
330
1F
100
AcDbEntity
  8
0
  6
Continuous
 62
     7
100
AcDbCircle
 10
-8.772449493408203
 20
-5.528465747833252
 30
0.0
 40
3.333333492279053
100
AcDbArc
 50
214.9653316166047
 51
306.8698982201951
  0
ARC
  5
226
330
1F
100
AcDbEntity
  8
0
  6
Continuous
 62
     7
100
AcDbCircle
 10
-12.86994361877441
 20
-8.393868446350098
 30
0.0
 40
1.666666746139526
100
AcDbArc
 50
34.9653263802773
 51
169.9999933470324
  0
ARC
  5
227
330
1F
100
AcDbEntity
  8
0
  6
Continuous
 62
     7
100
AcDbCircle
 10
-16.03945922851562
 20
-4.195132255554199
 30
0.0
 40
5.0
100
AcDbArc
 50
236.4426838767914
 51
285.8973310906183
  0
ARC
  5
228
330
1F
100
AcDbEntity
  8
0
  6
Continuous
 62
     7
100
AcDbCircle
 10
-20.16611289978027
 20
-7.735078811645508
 30
0.0
 40
1.5
100
AcDbArc
 50
211.9328232477674
 51
335.3033798009531
  0
ARC
  5
229
330
1F
100
AcDbEntity
  8
0
  6
Continuous
 62
     7
100
AcDbCircle
 10
-23.76405143737793
 20
-8.330655097961426
 30
0.0
 40
2.333333492279053
100
AcDbArc
 50
285.0000013280294
 51
355.1368600609476
  0
CIRCLE
  5
22A
330
1F
100
AcDbEntity
  8
0
  6
Continuous
 62
     7
100
AcDbCircle
 10
-25.43911552429199
 20
75.79082489013672
 30
0.0
 40
9.283202171325684
  0
CIRCLE
  5
22B
330
1F
100
AcDbEntity
  8
0
  6
Continuous
 62
     7
100
AcDbCircle
 10
-25.43911552429199
 20
75.79082489013672
 30
0.0
 40
10.31666660308838
  0
CIRCLE
  5
22C
330
1F
100
AcDbEntity
  8
0
  6
Continuous
 62
     7
100
AcDbCircle
 10
-25.43911552429199
 20
75.79082489013672
 30
0.0
 40
13.50000095367432
  0
ARC
  5
22D
330
1F
100
AcDbEntity
  8
0
  6
Continuous
 62
     7
100
AcDbCircle
 10
29.48134231567383
 20
-12.8617992401123
 30
0.0
 40
2.333333492279053
100
AcDbArc
 50
184.4745748597241
 51
269.9999974955218
  0
ARC
  5
22E
330
1F
100
AcDbEntity
  8
0
  6
Continuous
 62
     7
100
AcDbCircle
 10
49.75405120849609
 20
-64.5706787109375
 30
0.0
 40
5.0
100
AcDbArc
 50
190.0000066529676
 51
248.0425444083858
  0
ARC
  5
22F
330
1F
100
AcDbEntity
  8
0
  6
Continuous
 62
     7
100
AcDbCircle
 10
24.38821029663086
 20
-42.43616104125977
 30
0.0
 40
16.66666793823242
100
AcDbArc
 50
6.572583462823843
 51
24.48541708953177
  0
ARC
  5
230
330
1F
100
AcDbEntity
  8
0
  6
Continuous
 62
     7
100
AcDbCircle
 10
27.59295272827148
 20
-50.61603546142578
 30
0.0
 40
16.73455429077148
100
AcDbArc
 50
342.9293748017315
 51
37.07062632400159
  0
ARC
  5
231
330
1F
100
AcDbEntity
  8
0
  6
Continuous
 62
     7
100
AcDbCircle
 10
27.34604835510254
 20
-59.25726318359375
 30
0.0
 40
16.66666793823242
100
AcDbArc
 50
355.6256638295601
 51
12.92806338646331
  0
ARC
  5
232
330
1F
100
AcDbEntity
  8
0
  6
Continuous
 62
     7
100
AcDbCircle
 10
30.80552864074707
 20
-36.16142654418945
 30
0.0
 40
13.33333396911621
100
AcDbArc
 50
9.99999970909292
 51
28.19487233719819
  0
ARC
  5
233
330
1F
100
AcDbEntity
  8
0
  6
Continuous
 62
     7
100
AcDbCircle
 10
37.28571701049805
 20
-38.35977935791016
 30
0.0
 40
10.0
100
AcDbArc
 50
9.99999970909292
 51
58.18968735089691
  0
ARC
  5
234
330
1F
100
AcDbEntity
  8
0
  6
Continuous
 62
     7
100
AcDbCircle
 10
57.08995056152344
 20
-64.29360961914062
 30
0.0
 40
5.0
100
AcDbArc
 50
190.0000066529676
 51
248.0425444083858
  0
ARC
  5
235
330
1F
100
AcDbEntity
  8
0
  6
Continuous
 62
     7
100
AcDbCircle
 10
54.44781112670898
 20
-64.66600799560547
 30
0.0
 40
5.0
100
AcDbArc
 50
190.0000066529676
 51
248.0425444083858
  0
ARC
  5
236
330
1F
100
AcDbEntity
  8
0
  6
Continuous
 62
     7
100
AcDbCircle
 10
53.78727722167969
 20
-64.75910949707031
 30
0.0
 40
5.0
100
AcDbArc
 50
190.0000066529676
 51
248.0425444083858
  0
ARC
  5
237
330
1F
100
AcDbEntity
  8
0
  6
Continuous
 62
     7
100
AcDbCircle
 10
81.47347259521484
 20
-26.19513320922852
 30
0.0
 40
1.0
100
AcDbArc
 50
90.00000250447816
 51
180.0000050089563
  0
ARC
  5
238
330
1F
100
AcDbEntity
  8
0
  6
Continuous
 62
     7
100
AcDbCircle
 10
100.8531875610352
 20
-34.31143188476562
 30
0.0
 40
13.33333396911621
100
AcDbArc
 50
160.5051288157442
 51
178.7000014438495
  0
ARC
  5
239
330
1F
100
AcDbEntity
  8
0
  6
Continuous
 62
     7
100
AcDbCircle
 10
94.78008270263672
 20
-37.46469116210938
 30
0.0
 40
10.0
100
AcDbArc
 50
130.5103120944982
 51
178.7000014438495
  0
ARC
  5
23A
330
1F
100
AcDbEntity
  8
0
  6
Continuous
 62
     7
100
AcDbCircle
 10
79.16510009765625
 20
-64.3944091796875
 30
0.0
 40
5.0
100
AcDbArc
 50
291.957457412847
 51
358.6999999567094
  0
ARC
  5
23B
330
1F
100
AcDbEntity
  8
0
  6
Continuous
 62
     7
100
AcDbCircle
 10
82.46422576904297
 20
-65.9395523071289
 30
0.0
 40
5.0
100
AcDbArc
 50
291.957457412847
 51
358.6999999567094
  0
ARC
  5
23C
330
1F
100
AcDbEntity
  8
0
  6
Continuous
 62
     7
100
AcDbCircle
 10
82.46422576904297
 20
-65.9395523071289
 30
0.0
 40
4.333333492279053
100
AcDbArc
 50
290.4368455677379
 51
358.6999999567094
  0
ARC
  5
23D
330
1F
100
AcDbEntity
  8
0
  6
Continuous
 62
     7
100
AcDbCircle
 10
32.85549545288086
 20
4.471534729003906
 30
0.0
 40
10.0
100
AcDbArc
 50
227.1665766442404
 51
269.9999974955218
  0
ARC
  5
23E
330
1F
100
AcDbEntity
  8
0
  6
Continuous
 62
     7
100
AcDbCircle
 10
33.05887222290039
 20
7.803317070007324
 30
0.0
 40
13.33333396911621
100
AcDbArc
 50
233.1189908832582
 51
269.1260269798945
  0
ARC
  5
23F
330
1F
100
AcDbEntity
  8
0
  6
Continuous
 62
     7
100
AcDbCircle
 10
33.39981079101562
 20
6.464273452758789
 30
0.0
 40
13.33333396911621
100
AcDbArc
 50
233.0781326916431
 51
268.1090118124796
  0
ARC
  5
240
330
1F
100
AcDbEntity
  8
0
  6
Continuous
 62
     7
100
AcDbCircle
 10
28.46299171447754
 20
-8.393868446350098
 30
0.0
 40
1.666666746139526
100
AcDbArc
 50
134.3821004481683
 51
184.6321710021673
  0
ARC
  5
241
330
1F
100
AcDbEntity
  8
0
  6
Continuous
 62
     7
100
AcDbCircle
 10
28.73631286621094
 20
-8.043492317199707
 30
0.0
 40
1.666666746139526
100
AcDbArc
 50
149.7041272094745
 51
196.9169082622172
  0
ARC
  5
242
330
1F
100
AcDbEntity
  8
0
  6
Continuous
 62
     7
100
AcDbCircle
 10
27.74751472473145
 20
-8.1951322555542
 30
0.0
 40
0.6666666865348816
100
AcDbArc
 50
191.1401154896045
 51
269.9999974955218
  0
ARC
  5
243
330
1F
100
AcDbEntity
  8
0
  6
Continuous
 62
     7
100
AcDbCircle
 10
27.80808448791504
 20
-8.534014701843262
 30
0.0
 40
0.3333333432674408
100
AcDbArc
 50
259.5306425545912
 51
330.4418782535279
  0
ARC
  5
244
330
1F
100
AcDbEntity
  8
0
  6
Continuous
 62
     7
100
AcDbCircle
 10
29.68688774108887
 20
-8.1951322555542
 30
0.0
 40
1.666666746139526
100
AcDbArc
 50
197.5772136125047
 51
315.5729969776116
  0
ARC
  5
245
330
1F
100
AcDbEntity
  8
0
  6
Continuous
 62
     7
100
AcDbCircle
 10
32.35677719116211
 20
-10.50314521789551
 30
0.0
 40
1.666666746139526
100
AcDbArc
 50
100.0000005060238
 51
142.0113807699375
  0
ARC
  5
246
330
1F
100
AcDbEntity
  8
0
  6
Continuous
 62
     7
100
AcDbCircle
 10
29.68688774108887
 20
-8.1951322555542
 30
0.0
 40
1.666666746139526
100
AcDbArc
 50
197.5772136125047
 51
315.5729969776116
  0
ARC
  5
247
330
1F
100
AcDbEntity
  8
0
  6
Continuous
 62
     7
100
AcDbCircle
 10
32.06736373901367
 20
-10.52846622467041
 30
0.0
 40
1.666666746139526
100
AcDbArc
 50
90.00000250447816
 51
135.5729985714734
  0
ARC
  5
248
330
1F
100
AcDbEntity
  8
0
  6
Continuous
 62
     7
100
AcDbCircle
 10
30.25509071350098
 20
-8.861799240112305
 30
0.0
 40
1.0
100
AcDbArc
 50
269.9999974955218
 51
322.0113860062649
  0
ARC
  5
249
330
1F
100
AcDbEntity
  8
0
  6
Continuous
 62
     7
100
AcDbCircle
 10
35.24013137817383
 20
-19.20295333862305
 30
0.0
 40
4.0
100
AcDbArc
 50
197.1735630929353
 51
273.5834357530015
  0
ARC
  5
24A
330
1F
100
AcDbEntity
  8
0
  6
Continuous
 62
     7
100
AcDbCircle
 10
36.71766662597656
 20
-13.52846527099609
 30
0.0
 40
1.666666746139526
100
AcDbArc
 50
184.4745748597241
 51
269.9999974955218
  0
ARC
  5
24B
330
1F
100
AcDbEntity
  8
0
  6
Continuous
 62
     7
100
AcDbCircle
 10
33.91813659667969
 20
-18.05216598510742
 30
0.0
 40
4.0
100
AcDbArc
 50
8.530767962015233
 51
45.58245929409026
  0
ARC
  5
24C
330
1F
100
AcDbEntity
  8
0
  6
Continuous
 62
     7
100
AcDbCircle
 10
27.0239429473877
 20
-18.05216598510742
 30
0.0
 40
4.0
100
AcDbArc
 50
8.530767962015233
 51
45.58245929409026
  0
ARC
  5
24D
330
1F
100
AcDbEntity
  8
0
  6
Continuous
 62
     7
100
AcDbCircle
 10
44.7855224609375
 20
-19.64913749694824
 30
0.0
 40
6.666666984558105
100
AcDbArc
 50
176.0950902378117
 51
212.1338730537102
  0
ARC
  5
24E
330
1F
100
AcDbEntity
  8
0
  6
Continuous
 62
     7
100
AcDbCircle
 10
12.16088390350342
 20
38.8236198425293
 30
0.0
 40
1.666666746139526
100
AcDbArc
 50
277.974455087376
 51
0.0
  0
ARC
  5
24F
330
1F
100
AcDbEntity
  8
0
  6
Continuous
 62
     7
100
AcDbCircle
 10
11.82755088806152
 20
39.1135139465332
 30
0.0
 40
1.666666746139526
100
AcDbArc
 50
277.974455087376
 51
0.0
  0
ARC
  5
250
330
1F
100
AcDbEntity
  8
0
  6
Continuous
 62
     7
100
AcDbCircle
 10
11.49421787261963
 20
39.90829086303711
 30
0.0
 40
1.666666746139526
100
AcDbArc
 50
277.974455087376
 51
0.0
  0
ARC
  5
251
330
1F
100
AcDbEntity
  8
0
  6
Continuous
 62
     7
100
AcDbCircle
 10
10.82755088806152
 20
40.48807525634766
 30
0.0
 40
1.666666746139526
100
AcDbArc
 50
277.974455087376
 51
0.0
  0
ARC
  5
252
330
1F
100
AcDbEntity
  8
0
  6
Continuous
 62
     7
100
AcDbCircle
 10
9.994217872619629
 20
41.54939270019531
 30
0.0
 40
1.666666746139526
100
AcDbArc
 50
277.974455087376
 51
0.0
  0
ARC
  5
253
330
1F
100
AcDbEntity
  8
0
  6
Continuous
 62
     7
100
AcDbCircle
 10
7.494217395782471
 20
43.72359085083008
 30
0.0
 40
1.666666746139526
100
AcDbArc
 50
277.974455087376
 51
0.0
  0
ARC
  5
254
330
1F
100
AcDbEntity
  8
0
  6
Continuous
 62
     7
100
AcDbCircle
 10
1.827550649642944
 20
48.65176773071289
 30
0.0
 40
1.666666746139526
100
AcDbArc
 50
277.974455087376
 51
0.0
  0
ARC
  5
255
330
1F
100
AcDbEntity
  8
0
  6
Continuous
 62
     7
100
AcDbCircle
 10
1.827550649642944
 20
48.65176773071289
 30
0.0
 40
1.333333373069763
100
AcDbArc
 50
277.974455087376
 51
0.0
  0
ARC
  5
256
330
1F
100
AcDbEntity
  8
0
  6
Continuous
 62
     7
100
AcDbCircle
 10
10.83083915710449
 20
55.5734748840332
 30
0.0
 40
1.666666746139526
100
AcDbArc
 50
356.4004467649473
 51
90.00000250447816
  0
ARC
  5
257
330
1F
100
AcDbEntity
  8
0
  6
Continuous
 62
     7
100
AcDbCircle
 10
2.827550649642944
 20
59.08897018432617
 30
0.0
 40
0.6666666865348816
100
AcDbArc
 50
0.0
 51
33.69006859053339
  0
ARC
  5
258
330
1F
100
AcDbEntity
  8
0
  6
Continuous
 62
     7
100
AcDbCircle
 10
3.515560150146484
 20
57.15585327148438
 30
0.0
 40
2.333333492279053
100
AcDbArc
 50
43.94679974260146
 51
60.60333276960685
  0
ARC
  5
259
330
1F
100
AcDbEntity
  8
0
  6
Continuous
 62
     7
100
AcDbCircle
 10
7.293877124786377
 20
58.90680694580078
 30
0.0
 40
1.666666746139526
100
AcDbArc
 50
245.9925724120332
 51
269.9999974955218
  0
ARC
  5
25A
330
1F
100
AcDbEntity
  8
0
  6
Continuous
 62
     7
100
AcDbCircle
 10
1.610884428024292
 20
55.17415618896484
 30
0.0
 40
0.5499995350837708
100
AcDbArc
 50
179.9999949910437
 51
0.0
  0
ARC
  5
25B
330
1F
100
AcDbEntity
  8
0
  6
Continuous
 62
     7
100
AcDbCircle
 10
0.8275505900383
 20
49.52144622802734
 30
0.0
 40
1.666666746139526
100
AcDbArc
 50
277.974455087376
 51
0.0
  0
ARC
  5
25C
330
1F
100
AcDbEntity
  8
0
  6
Continuous
 62
     7
100
AcDbCircle
 10
0.494217246770859
 20
50.82110214233398
 30
0.0
 40
1.666666746139526
100
AcDbArc
 50
277.974455087376
 51
0.0
  0
ARC
  5
25D
330
1F
100
AcDbEntity
  8
0
  6
Continuous
 62
     7
100
AcDbCircle
 10
-0.439115166664124
 20
52.03670883178711
 30
0.0
 40
1.666666746139526
100
AcDbArc
 50
216.55115127772
 51
32.69824316077749
  0
ARC
  5
25E
330
1F
100
AcDbEntity
  8
0
  6
Continuous
 62
     7
100
AcDbCircle
 10
1.610884428024292
 20
93.07415771484375
 30
0.0
 40
0.5499995350837708
100
AcDbArc
 50
0.0
 51
180.0000050089563
  0
ARC
  5
25F
330
1F
100
AcDbEntity
  8
0
  6
Continuous
 62
     7
100
AcDbCircle
 10
0.8275505900383
 20
95.04082489013672
 30
0.0
 40
1.666666746139526
100
AcDbArc
 50
0.0
 51
90.00000250447816
  0
ARC
  5
260
330
1F
100
AcDbEntity
  8
0
  6
Continuous
 62
     7
100
AcDbCircle
 10
-0.439115166664124
 20
94.37415313720703
 30
0.0
 40
1.666666746139526
100
AcDbArc
 50
288.8547415295312
 51
102.0789803157814
  0
ARC
  5
261
330
1F
100
AcDbEntity
  8
0
  6
Continuous
 62
     7
100
AcDbCircle
 10
0.494217246770859
 20
95.04082489013672
 30
0.0
 40
1.666666746139526
100
AcDbArc
 50
0.0
 51
90.00000250447816
  0
CIRCLE
  5
262
330
1F
100
AcDbEntity
  8
0
  6
Continuous
 62
     7
100
AcDbCircle
 10
-25.43911552429199
 20
75.79082489013672
 30
0.0
 40
15.16666793823242
  0
ARC
  5
263
330
1F
100
AcDbEntity
  8
0
  6
Continuous
 62
     7
100
AcDbCircle
 10
-6.647666931152344
 20
59.57862854003906
 30
0.0
 40
2.967880964279175
100
AcDbArc
 50
283.319160075181
 51
14.35499662578475
  0
ARC
  5
264
330
1F
100
AcDbEntity
  8
0
  6
Continuous
 62
     7
100
AcDbCircle
 10
-0.778192460536957
 20
51.98920822143555
 30
0.0
 40
1.666666746139526
100
AcDbArc
 50
216.55115127772
 51
277.974455087376
  0
ARC
  5
265
330
1F
100
AcDbEntity
  8
0
  6
Continuous
 62
     7
100
AcDbCircle
 10
-0.439115166664124
 20
52.57728958129883
 30
0.0
 40
1.666666746139526
100
AcDbArc
 50
0.0
 51
30.76758090884667
  0
ARC
  5
266
330
1F
100
AcDbEntity
  8
0
  6
Continuous
 62
     7
100
AcDbCircle
 10
-0.439115166664124
 20
94.54490661621094
 30
0.0
 40
1.666666746139526
100
AcDbArc
 50
288.8547415295312
 51
357.0637876935064
  0
ARC
  5
267
330
1F
100
AcDbEntity
  8
0
  6
Continuous
 62
     7
100
AcDbCircle
 10
-0.439115166664124
 20
94.04082489013672
 30
0.0
 40
1.666666746139526
100
AcDbArc
 50
11.30993266170569
 51
102.0789803157814
  0
ARC
  5
268
330
1F
100
AcDbEntity
  8
0
  6
Continuous
 62
     7
100
AcDbCircle
 10
-5.882134437561035
 20
92.21484375
 30
0.0
 40
2.333333492279053
100
AcDbArc
 50
347.3117735835998
 51
94.54968713327204
  0
ARC
  5
269
330
1F
100
AcDbEntity
  8
0
  6
Continuous
 62
     7
100
AcDbCircle
 10
59.99838638305664
 20
74.12416076660156
 30
0.0
 40
60.77083587646484
100
AcDbArc
 50
165.4801839656681
 51
194.5198260522446
  0
ARC
  5
26A
330
1F
100
AcDbEntity
  8
0
  6
Continuous
 62
     7
100
AcDbCircle
 10
-23.66327857971191
 20
38.42406845092773
 30
0.0
 40
3.333333492279053
100
AcDbArc
 50
237.8084621636055
 51
279.2172011766706
  0
ARC
  5
26B
330
1F
100
AcDbEntity
  8
0
  6
Continuous
 62
     7
100
AcDbCircle
 10
-23.66327857971191
 20
38.42406845092773
 30
0.0
 40
3.619782686233521
100
AcDbArc
 50
240.6204783656564
 51
278.8416090742116
  0
ARC
  5
26C
330
1F
100
AcDbEntity
  8
0
  6
Continuous
 62
     7
100
AcDbCircle
 10
-23.14875793457031
 20
31.79561424255371
 30
0.0
 40
3.333333492279053
100
AcDbArc
 50
59.14336617413828
 51
90.19566693363151
  0
ARC
  5
26D
330
1F
100
AcDbEntity
  8
0
  6
Continuous
 62
     7
100
AcDbCircle
 10
-23.14875793457031
 20
31.79561424255371
 30
0.0
 40
3.051974534988403
100
AcDbArc
 50
55.93211858491094
 51
89.21427120273825
  0
ARC
  5
26E
330
1F
100
AcDbEntity
  8
0
  6
Continuous
 62
     7
100
AcDbCircle
 10
-19.09463119506836
 20
28.41630554199219
 30
0.0
 40
6.666666984558105
100
AcDbArc
 50
87.49552239999623
 51
110.5896828895625
  0
ARC
  5
26F
330
1F
100
AcDbEntity
  8
0
  6
Continuous
 62
     7
100
AcDbCircle
 10
-19.09463119506836
 20
28.41630554199219
 30
0.0
 40
6.355707168579102
100
AcDbArc
 50
87.37290001382699
 51
111.6465043994602
  0
ARC
  5
270
330
1F
100
AcDbEntity
  8
0
  6
Continuous
 62
     7
100
AcDbCircle
 10
-15.12881088256836
 20
22.25959205627441
 30
0.0
 40
13.33333396911621
100
AcDbArc
 50
86.56303082356024
 51
105.9970432010784
  0
ARC
  5
271
330
1F
100
AcDbEntity
  8
0
  6
Continuous
 62
     7
100
AcDbCircle
 10
-15.12881088256836
 20
22.25959205627441
 30
0.0
 40
13.03439807891846
100
AcDbArc
 50
87.98227583119719
 51
106.3741242847764
  0
ARC
  5
272
330
1F
100
AcDbEntity
  8
0
  6
Continuous
 62
     7
100
AcDbCircle
 10
-13.4795970916748
 20
35.4141845703125
 30
0.0
 40
1.197182774543762
100
AcDbArc
 50
186.1510584518821
 51
304.3704929462665
  0
ARC
  5
273
330
1F
100
AcDbEntity
  8
0
  6
Continuous
 62
     7
100
AcDbCircle
 10
-13.4795970916748
 20
35.4141845703125
 30
0.0
 40
0.863849401473999
100
AcDbArc
 50
169.6798623806339
 51
323.4939056590018
  0
ARC
  5
274
330
1F
100
AcDbEntity
  8
0
  6
Continuous
 62
     7
100
AcDbCircle
 10
-6.608904361724854
 20
19.00057601928711
 30
0.0
 40
16.66666793823242
100
AcDbArc
 50
90.56223635619693
 51
110.5033356380752
  0
ARC
  5
275
330
1F
100
AcDbEntity
  8
0
  6
Continuous
 62
     7
100
AcDbCircle
 10
-6.608904361724854
 20
19.00057601928711
 30
0.0
 40
17.33981323242188
100
AcDbArc
 50
90.56223635619693
 51
107.9746766639314
  0
ARC
  5
276
330
1F
100
AcDbEntity
  8
0
  6
Continuous
 62
     7
100
AcDbCircle
 10
-11.44558429718018
 20
33.90876007080078
 30
0.0
 40
1.666666746139526
100
AcDbArc
 50
107.9746766639314
 51
143.4939143104238
  0
ARC
  5
277
330
1F
100
AcDbEntity
  8
0
  6
Continuous
 62
     7
100
AcDbCircle
 10
-11.86283397674561
 20
33.05035400390625
 30
0.0
 40
1.666666746139526
100
AcDbArc
 50
110.5033356380752
 51
124.3704911250337
  0
ARC
  5
278
330
1F
100
AcDbEntity
  8
0
  6
Continuous
 62
     7
100
AcDbCircle
 10
-39.01539993286133
 20
33.05035400390625
 30
0.0
 40
1.666666746139526
100
AcDbArc
 50
55.62950705373352
 51
69.49666254069199
  0
ARC
  5
279
330
1F
100
AcDbEntity
  8
0
  6
Continuous
 62
     7
100
AcDbCircle
 10
-39.43264770507812
 20
33.90876007080078
 30
0.0
 40
1.666666746139526
100
AcDbArc
 50
36.50608045324878
 51
72.02532151483577
  0
ARC
  5
27A
330
1F
100
AcDbEntity
  8
0
  6
Continuous
 62
     7
100
AcDbCircle
 10
-44.26932907104492
 20
19.00057601928711
 30
0.0
 40
17.33981323242188
100
AcDbArc
 50
72.02532151483577
 51
89.43776182257022
  0
ARC
  5
27B
330
1F
100
AcDbEntity
  8
0
  6
Continuous
 62
     7
100
AcDbCircle
 10
-44.26932907104492
 20
19.00057601928711
 30
0.0
 40
16.66666793823242
100
AcDbArc
 50
69.49666254069199
 51
89.43776182257022
  0
ARC
  5
27C
330
1F
100
AcDbEntity
  8
0
  6
Continuous
 62
     7
100
AcDbCircle
 10
-37.39863586425781
 20
35.4141845703125
 30
0.0
 40
0.863849401473999
100
AcDbArc
 50
216.5060856895762
 51
10.32013921322788
  0
ARC
  5
27D
330
1F
100
AcDbEntity
  8
0
  6
Continuous
 62
     7
100
AcDbCircle
 10
-63.03911590576172
 20
38.8236198425293
 30
0.0
 40
1.666666746139526
100
AcDbArc
 50
180.0000050089563
 51
262.025536261202
  0
ARC
  5
27E
330
1F
100
AcDbEntity
  8
0
  6
Continuous
 62
     7
100
AcDbCircle
 10
-62.70578384399414
 20
39.1135139465332
 30
0.0
 40
1.666666746139526
100
AcDbArc
 50
179.9999949910437
 51
262.0255467338569
  0
ARC
  5
27F
330
1F
100
AcDbEntity
  8
0
  6
Continuous
 62
     7
100
AcDbCircle
 10
-62.3724479675293
 20
39.90829086303711
 30
0.0
 40
1.666666746139526
100
AcDbArc
 50
179.9999949910437
 51
262.0255467338569
  0
ARC
  5
280
330
1F
100
AcDbEntity
  8
0
  6
Continuous
 62
     7
100
AcDbCircle
 10
-61.70578384399414
 20
40.48807525634766
 30
0.0
 40
1.666666746139526
100
AcDbArc
 50
179.9999949910437
 51
262.0255467338569
  0
ARC
  5
281
330
1F
100
AcDbEntity
  8
0
  6
Continuous
 62
     7
100
AcDbCircle
 10
-60.8724479675293
 20
41.54939270019531
 30
0.0
 40
1.666666746139526
100
AcDbArc
 50
179.9999949910437
 51
262.0255467338569
  0
ARC
  5
282
330
1F
100
AcDbEntity
  8
0
  6
Continuous
 62
     7
100
AcDbCircle
 10
-58.3724479675293
 20
43.72359085083008
 30
0.0
 40
1.666666746139526
100
AcDbArc
 50
179.9999949910437
 51
262.0255467338569
  0
ARC
  5
283
330
1F
100
AcDbEntity
  8
0
  6
Continuous
 62
     7
100
AcDbCircle
 10
-52.70578384399414
 20
48.65176773071289
 30
0.0
 40
1.666666746139526
100
AcDbArc
 50
179.9999949910437
 51
262.0255467338569
  0
ARC
  5
284
330
1F
100
AcDbEntity
  8
0
  6
Continuous
 62
     7
100
AcDbCircle
 10
-52.70578384399414
 20
48.65176773071289
 30
0.0
 40
1.333333373069763
100
AcDbArc
 50
179.9999949910437
 51
262.0255467338569
  0
ARC
  5
285
330
1F
100
AcDbEntity
  8
0
  6
Continuous
 62
     7
100
AcDbCircle
 10
-61.70907211303711
 20
55.5734748840332
 30
0.0
 40
1.666666746139526
100
AcDbArc
 50
90.00000250447816
 51
183.599555682688
  0
ARC
  5
286
330
1F
100
AcDbEntity
  8
0
  6
Continuous
 62
     7
100
AcDbCircle
 10
-53.70578384399414
 20
59.08897018432617
 30
0.0
 40
0.6666666865348816
100
AcDbArc
 50
146.3099330033284
 51
180.0000050089563
  0
ARC
  5
287
330
1F
100
AcDbEntity
  8
0
  6
Continuous
 62
     7
100
AcDbCircle
 10
-54.39379119873047
 20
57.15585327148438
 30
0.0
 40
2.333333492279053
100
AcDbArc
 50
119.3966654091603
 51
136.0532018512603
  0
ARC
  5
288
330
1F
100
AcDbEntity
  8
0
  6
Continuous
 62
     7
100
AcDbCircle
 10
-58.1721076965332
 20
58.90680694580078
 30
0.0
 40
1.666666746139526
100
AcDbArc
 50
269.9999974955218
 51
294.0074294091996
  0
ARC
  5
289
330
1F
100
AcDbEntity
  8
0
  6
Continuous
 62
     7
100
AcDbCircle
 10
-52.48911666870117
 20
55.17415618896484
 30
0.0
 40
0.5499995350837708
100
AcDbArc
 50
179.9999949910437
 51
0.0
  0
ARC
  5
28A
330
1F
100
AcDbEntity
  8
0
  6
Continuous
 62
     7
100
AcDbCircle
 10
-51.70578384399414
 20
49.52144622802734
 30
0.0
 40
1.666666746139526
100
AcDbArc
 50
179.9999949910437
 51
262.0255467338569
  0
ARC
  5
28B
330
1F
100
AcDbEntity
  8
0
  6
Continuous
 62
     7
100
AcDbCircle
 10
-51.3724479675293
 20
50.82110214233398
 30
0.0
 40
1.666666746139526
100
AcDbArc
 50
179.9999949910437
 51
262.0255467338569
  0
ARC
  5
28C
330
1F
100
AcDbEntity
  8
0
  6
Continuous
 62
     7
100
AcDbCircle
 10
-50.43911743164062
 20
52.03670883178711
 30
0.0
 40
1.666666746139526
100
AcDbArc
 50
147.3017584330842
 51
323.4488537312364
  0
ARC
  5
28D
330
1F
100
AcDbEntity
  8
0
  6
Continuous
 62
     7
100
AcDbCircle
 10
-52.48911666870117
 20
93.07415771484375
 30
0.0
 40
0.5499995350837708
100
AcDbArc
 50
0.0
 51
180.0000050089563
  0
ARC
  5
28E
330
1F
100
AcDbEntity
  8
0
  6
Continuous
 62
     7
100
AcDbCircle
 10
-51.70578384399414
 20
95.04082489013672
 30
0.0
 40
1.666666746139526
100
AcDbArc
 50
90.00000250447816
 51
180.0000050089563
  0
ARC
  5
28F
330
1F
100
AcDbEntity
  8
0
  6
Continuous
 62
     7
100
AcDbCircle
 10
-50.43911743164062
 20
94.37415313720703
 30
0.0
 40
1.666666746139526
100
AcDbArc
 50
77.92102469317489
 51
251.1452634794251
  0
ARC
  5
290
330
1F
100
AcDbEntity
  8
0
  6
Continuous
 62
     7
100
AcDbCircle
 10
-51.3724479675293
 20
95.04082489013672
 30
0.0
 40
1.666666746139526
100
AcDbArc
 50
90.00000250447816
 51
180.0000050089563
  0
ARC
  5
291
330
1F
100
AcDbEntity
  8
0
  6
Continuous
 62
     7
100
AcDbCircle
 10
-37.39863586425781
 20
35.4141845703125
 30
0.0
 40
1.197182774543762
100
AcDbArc
 50
235.6295088749664
 51
353.8489365391616
  0
ARC
  5
292
330
1F
100
AcDbEntity
  8
0
  6
Continuous
 62
     7
100
AcDbCircle
 10
-44.23056411743164
 20
59.57862854003906
 30
0.0
 40
2.967880964279175
100
AcDbArc
 50
165.6449964303405
 51
256.680831273397
  0
ARC
  5
293
330
1F
100
AcDbEntity
  8
0
  6
Continuous
 62
     7
100
AcDbCircle
 10
-50.10004043579102
 20
51.98920822143555
 30
0.0
 40
1.666666746139526
100
AcDbArc
 50
262.0255467338569
 51
323.4488505435129
  0
ARC
  5
294
330
1F
100
AcDbEntity
  8
0
  6
Continuous
 62
     7
100
AcDbCircle
 10
-50.43911743164062
 20
52.57728958129883
 30
0.0
 40
1.666666746139526
100
AcDbArc
 50
149.2324206850151
 51
180.0000050089563
  0
ARC
  5
295
330
1F
100
AcDbEntity
  8
0
  6
Continuous
 62
     7
100
AcDbCircle
 10
-50.43911743164062
 20
94.54490661621094
 30
0.0
 40
1.666666746139526
100
AcDbArc
 50
182.9362113529621
 51
251.1452534615125
  0
ARC
  5
296
330
1F
100
AcDbEntity
  8
0
  6
Continuous
 62
     7
100
AcDbCircle
 10
-50.43911743164062
 20
94.04082489013672
 30
0.0
 40
1.666666746139526
100
AcDbArc
 50
77.92102469317489
 51
168.6900723472506
  0
ARC
  5
297
330
1F
100
AcDbEntity
  8
0
  6
Continuous
 62
     7
100
AcDbCircle
 10
-44.99609756469727
 20
92.21484375
 30
0.0
 40
2.333333492279053
100
AcDbArc
 50
85.45031104549511
 51
192.6882288640356
  0
ARC
  5
298
330
1F
100
AcDbEntity
  8
0
  6
Continuous
 62
     7
100
AcDbCircle
 10
-110.8766174316406
 20
74.12416076660156
 30
0.0
 40
60.77083587646484
100
AcDbArc
 50
345.4801789567118
 51
14.51982104328821
  0
ARC
  5
299
330
1F
100
AcDbEntity
  8
0
  6
Continuous
 62
     7
100
AcDbCircle
 10
-27.2149543762207
 20
38.42406845092773
 30
0.0
 40
3.333333492279053
100
AcDbArc
 50
260.7828006445622
 51
302.1915396576273
  0
ARC
  5
29A
330
1F
100
AcDbEntity
  8
0
  6
Continuous
 62
     7
100
AcDbCircle
 10
-27.2149543762207
 20
38.42406845092773
 30
0.0
 40
3.619782686233521
100
AcDbArc
 50
261.1583927470212
 51
299.3795234555764
  0
ARC
  5
29B
330
1F
100
AcDbEntity
  8
0
  6
Continuous
 62
     7
100
AcDbCircle
 10
-27.7294750213623
 20
31.79561424255371
 30
0.0
 40
3.333333492279053
100
AcDbArc
 50
89.80433124513564
 51
120.8566320046289
  0
ARC
  5
29C
330
1F
100
AcDbEntity
  8
0
  6
Continuous
 62
     7
100
AcDbCircle
 10
-27.7294750213623
 20
31.79561424255371
 30
0.0
 40
3.051974534988403
100
AcDbArc
 50
90.78572697602893
 51
124.0678864240454
  0
ARC
  5
29D
330
1F
100
AcDbEntity
  8
0
  6
Continuous
 62
     7
100
AcDbCircle
 10
-31.78360176086426
 20
28.41630554199219
 30
0.0
 40
6.666666984558105
100
AcDbArc
 50
69.41031528920469
 51
92.50448260896012
  0
ARC
  5
29E
330
1F
100
AcDbEntity
  8
0
  6
Continuous
 62
     7
100
AcDbCircle
 10
-31.78360176086426
 20
28.41630554199219
 30
0.0
 40
6.355707168579102
100
AcDbArc
 50
68.35349377930696
 51
92.62709816494018
  0
ARC
  5
29F
330
1F
100
AcDbEntity
  8
0
  6
Continuous
 62
     7
100
AcDbCircle
 10
-35.74942016601562
 20
22.25959205627441
 30
0.0
 40
13.33333396911621
100
AcDbArc
 50
74.00295497768877
 51
93.43696735520693
  0
ARC
  5
2A0
330
1F
100
AcDbEntity
  8
0
  6
Continuous
 62
     7
100
AcDbCircle
 10
-35.74942016601562
 20
22.25959205627441
 30
0.0
 40
13.03439807891846
100
AcDbArc
 50
73.62587389399071
 51
92.01772234756999
  0
ARC
  5
2A1
330
1F
100
AcDbEntity
  8
0
  6
Continuous
 62
     7
100
AcDbCircle
 10
66.14013671875
 20
-29.3617992401123
 30
0.0
 40
17.33333396911621
100
AcDbArc
 50
192.776806399658
 51
347.2231868838384
  0
ARC
  5
2A2
330
1F
100
AcDbEntity
  8
0
  6
Continuous
 62
     7
100
AcDbCircle
 10
47.64013671875
 20
-32.02846527099609
 30
0.0
 40
1.166666746139526
100
AcDbArc
 50
180.000008651422
 51
269.9999974955218
  0
ARC
  5
2A3
330
1F
100
AcDbEntity
  8
0
  6
Continuous
 62
     7
100
AcDbCircle
 10
47.47346878051758
 20
-30.8617992401123
 30
0.0
 40
1.0
100
AcDbArc
 50
90.00000250447816
 51
180.0000050089563
  0
ARC
  5
2A4
330
1F
100
AcDbEntity
  8
0
  6
Continuous
 62
     7
100
AcDbCircle
 10
84.4734878540039
 20
-32.02846527099609
 30
0.0
 40
1.166666746139526
100
AcDbArc
 50
269.9999974955218
 51
0.0
  0
ARC
  5
2A5
330
1F
100
AcDbEntity
  8
0
  6
Continuous
 62
     7
100
AcDbCircle
 10
84.64015197753906
 20
-30.8617992401123
 30
0.0
 40
1.0
100
AcDbArc
 50
0.0
 51
90.00000250447816
  0
DIMENSION
  5
2A6
330
1F
100
AcDbEntity
  8
0
 62
     7
100
AcDbDimension
  2
*D4
 10
-17.10578346252441
 20
4.529244422912597
 30
0.0
 11
-25.43811552429199
 21
4.529244422912598
 31
0.0
 70
   160
  1
50
 71
     5
 42
16.66666603088379
  3
ISO-25
100
AcDbAlignedDimension
 13
-33.7724494934082
 23
-2.861799001693726
 33
0.0
 14
-17.10578346252441
 24
-2.861799001693726
 34
0.0
 50
180.0
100
AcDbRotatedDimension
1001
ACAD
1000
DSTYLE
1002
{
1070
   178
1070
     1
1070
   278
1070
    46
1070
   147
1040
0.800000011920929
1070
    77
1070
     1
1070
    74
1070
     0
1070
    73
1070
     0
1070
    42
1040
2.54
1070
    44
1040
1.5
1070
    76
1070
     0
1070
    75
1070
     0
1070
   279
1070
     0
1070
   271
1070
     0
1070
   173
1070
     1
1070
    41
1040
3.0
1070
   140
1040
3.200000047683716
1070
   344
1005
2A7
1070
   343
1005
2A7
1002
}
  0
DIMENSION
  5
2BA
330
1F
100
AcDbEntity
  8
0
 62
     7
100
AcDbDimension
  2
*D5
 10
13.82755088806152
 20
13.56211185455322
 30
0.0
 11
-25.43811552429199
 21
13.56211185455322
 31
0.0
 70
   160
  1
236
 71
     5
 42
78.5333309173584
  3
ISO-25
100
AcDbAlignedDimension
 13
-64.70578002929688
 23
-5.528465747833252
 33
0.0
 14
13.82755088806152
 24
-5.528465747833252
 34
0.0
 50
180.0
100
AcDbRotatedDimension
1001
ACAD
1000
DSTYLE
1002
{
1070
   178
1070
     1
1070
   278
1070
    46
1070
   147
1040
0.800000011920929
1070
    77
1070
     1
1070
    74
1070
     0
1070
    73
1070
     0
1070
    42
1040
2.54
1070
    44
1040
1.5
1070
    76
1070
     0
1070
    75
1070
     0
1070
   279
1070
     0
1070
   271
1070
     0
1070
   173
1070
     1
1070
    41
1040
3.0
1070
   140
1040
3.200000047683716
1070
   344
1005
2A7
1070
   343
1005
2A7
1002
}
  0
DIMENSION
  5
2C7
330
1F
100
AcDbEntity
  8
0
 62
     7
100
AcDbDimension
  2
*D6
 10
-15.62244892120362
 20
-96.76080267333984
 30
0.0
 11
-25.43811552429199
 21
-96.76080267333984
 31
0.0
 70
   160
  1
\U+220559
 71
     5
 42
19.63333415985107
  3
ISO-25
100
AcDbAlignedDimension
 13
-35.25578308105469
 23
-86.76180267333984
 33
0.0
 14
-15.62244892120361
 24
-86.76180267333984
 34
0.0
 50
180.0
100
AcDbRotatedDimension
1001
ACAD
1000
DSTYLE
1002
{
1070
   178
1070
     1
1070
   278
1070
    46
1070
   147
1040
0.800000011920929
1070
    77
1070
     1
1070
    74
1070
     0
1070
    73
1070
     0
1070
    42
1040
2.54
1070
    44
1040
1.5
1070
    76
1070
     0
1070
    75
1070
     0
1070
   279
1070
     0
1070
   271
1070
     0
1070
   173
1070
     1
1070
    41
1040
3.0
1070
   140
1040
3.200000047683716
1070
   344
1005
2A7
1070
   343
1005
2A7
1002
}
  0
DIMENSION
  5
2D4
330
1F
100
AcDbEntity
  8
0
 62
     7
100
AcDbDimension
  2
*D7
 10
85.72347259521484
 20
4.529244422912596
 30
0.0
 11
66.14113671875
 21
4.529244422912598
 31
0.0
 70
   160
  1
117.5
 71
     5
 42
39.16666793823242
  3
ISO-25
100
AcDbAlignedDimension
 13
46.55680465698242
 23
-29.8617992401123
 33
0.0
 14
85.72347259521484
 24
-29.8617992401123
 34
0.0
 50
180.0
100
AcDbRotatedDimension
1001
ACAD
1000
DSTYLE
1002
{
1070
   178
1070
     1
1070
   278
1070
    46
1070
   147
1040
0.800000011920929
1070
    77
1070
     1
1070
    74
1070
     0
1070
    73
1070
     0
1070
    42
1040
2.54
1070
    44
1040
1.5
1070
    76
1070
     0
1070
    75
1070
     0
1070
   279
1070
     0
1070
   271
1070
     1
1070
   173
1070
     1
1070
    41
1040
3.0
1070
   140
1040
3.200000047683716
1070
   344
1005
2A7
1070
   343
1005
2A7
1002
}
  0
DIMENSION
  5
2E1
330
1F
100
AcDbEntity
  8
0
 62
     7
100
AcDbDimension
  2
*D8
 10
88.72347259521484
 20
13.56211185455322
 30
0.0
 11
56.89113671875
 21
13.56211185455322
 31
0.0
 70
   160
  1
191
 71
     5
 42
63.66666793823242
  3
ISO-25
100
AcDbAlignedDimension
 13
25.05680465698242
 23
-2.861799001693726
 33
0.0
 14
88.72347259521484
 24
-25.19513320922852
 34
0.0
 50
180.0
100
AcDbRotatedDimension
1001
ACAD
1000
DSTYLE
1002
{
1070
   178
1070
     1
1070
   278
1070
    46
1070
   147
1040
0.800000011920929
1070
    77
1070
     1
1070
    74
1070
     0
1070
    73
1070
     0
1070
    42
1040
2.54
1070
    44
1040
1.5
1070
    76
1070
     0
1070
    75
1070
     0
1070
   279
1070
     0
1070
   271
1070
     0
1070
   173
1070
     1
1070
    41
1040
3.0
1070
   140
1040
3.200000047683716
1070
   344
1005
2A7
1070
   343
1005
2A7
1002
}
  0
DIMENSION
  5
2EE
330
1F
100
AcDbEntity
  8
0
 62
     7
100
AcDbDimension
  2
*D9
 10
-69.41236767578123
 20
-75.52847290039062
 30
0.0
 11
-69.41236767578124
 21
-40.52746908569336
 31
0.0
 70
   160
  1
210
 71
     5
 42
70.00000715255739
  3
ISO-25
100
AcDbAlignedDimension
 13
-64.70578002929688
 23
-5.528465747833252
 33
0.0
 14
-38.10578155517578
 24
-75.52847290039062
 34
0.0
 50
90.00000000000001
100
AcDbRotatedDimension
1001
ACAD
1000
DSTYLE
1002
{
1070
   178
1070
     1
1070
   278
1070
    46
1070
   147
1040
0.800000011920929
1070
    77
1070
     1
1070
    74
1070
     0
1070
    73
1070
     0
1070
    42
1040
2.54
1070
    44
1040
1.5
1070
    76
1070
     0
1070
    75
1070
     1
1070
   279
1070
     0
1070
   271
1070
     0
1070
   173
1070
     1
1070
    41
1040
3.0
1070
   140
1040
3.200000047683716
1070
   344
1005
2A7
1070
   343
1005
2A7
1002
}
  0
DIMENSION
  5
2FA
330
1F
100
AcDbEntity
  8
0
 62
     7
100
AcDbDimension
  2
*D10
 10
-69.41236767578124
 20
-86.76180267333986
 30
0.0
 11
-69.41236767578124
 21
-81.14413397216796
 31
0.0
 70
   160
  1
34
 71
     5
 42
11.23332977294922
  3
ISO-25
100
AcDbAlignedDimension
 13
-38.10578155517578
 23
-75.52847290039062
 33
0.0
 14
-35.25578308105469
 24
-86.76180267333984
 34
0.0
 50
90.00000000000001
100
AcDbRotatedDimension
1001
ACAD
1000
DSTYLE
1002
{
1070
   178
1070
     1
1070
   278
1070
    46
1070
   147
1040
0.800000011920929
1070
    77
1070
     1
1070
    74
1070
     0
1070
    73
1070
     0
1070
    42
1040
2.54
1070
    44
1040
1.5
1070
    76
1070
     1
1070
    75
1070
     1
1070
   279
1070
     0
1070
   271
1070
     0
1070
   173
1070
     1
1070
    41
1040
3.0
1070
   140
1040
3.200000047683716
1070
   344
1005
2A7
1070
   343
1005
2A7
1002
}
  0
DIMENSION
  5
305
330
1F
100
AcDbEntity
  8
0
 62
     7
100
AcDbDimension
  2
*D11
 10
-77.45199530029296
 20
-5.528465747833245
 30
0.0
 11
-77.45199530029296
 21
-46.14413397216797
 31
0.0
 70
   160
  1
244
 71
     5
 42
81.23333692550659
  3
ISO-25
100
AcDbAlignedDimension
 13
-35.25578308105469
 23
-86.76180267333984
 33
0.0
 14
-64.70578002929688
 24
-5.528465747833252
 34
0.0
 50
270.0
100
AcDbRotatedDimension
1001
ACAD
1000
DSTYLE
1002
{
1070
   178
1070
     1
1070
   278
1070
    46
1070
   147
1040
0.800000011920929
1070
    77
1070
     1
1070
    74
1070
     0
1070
    73
1070
     0
1070
    42
1040
2.54
1070
    44
1040
1.5
1070
    76
1070
     0
1070
    75
1070
     0
1070
   279
1070
     0
1070
   271
1070
     0
1070
   173
1070
     1
1070
    41
1040
3.0
1070
   140
1040
3.200000047683716
1070
   344
1005
2A7
1070
   343
1005
2A7
1002
}
  0
DIMENSION
  5
312
330
1F
100
AcDbEntity
  8
0
 62
     7
100
AcDbDimension
  2
*D13
 10
66.14013645644307
 20
-29.36179829376114
 30
0.0
 11
62.52109161576453
 21
-37.23567343783862
 31
0.0
 70
   164
  1
R52
 71
     5
 42
17.33333325386047
  3
ISO-25
100
AcDbRadialDimension
 15
58.90128946366751
 25
-45.11119624747892
 35
0.0
 40
0.0
1001
ACAD
1000
DSTYLE
1002
{
1070
   178
1070
     1
1070
   278
1070
    46
1070
   147
1040
0.800000011920929
1070
    77
1070
     1
1070
    74
1070
     0
1070
    73
1070
     0
1070
   279
1070
     0
1070
   271
1070
     0
1070
   173
1070
     1
1070
    41
1040
3.0
1070
   140
1040
3.200000047683716
1070
   344
1005
2A7
1070
   343
1005
313
1002
}
  0
DIMENSION
  5
322
330
1F
100
AcDbEntity
  8
0
 62
     7
100
AcDbDimension
  2
*D14
 10
27.55880465698243
 20
-46.69513320922854
 30
0.0
 11
27.55880465698242
 21
-38.2774652709961
 31
0.0
 70
   160
  1
50.5
 71
     5
 42
16.83333396911623
  3
ISO-25
100
AcDbAlignedDimension
 13
37.55680465698242
 23
-29.8617992401123
 33
0.0
 14
66.14013671875
 24
-46.69513320922852
 34
0.0
 50
90.00000000000001
100
AcDbRotatedDimension
1001
ACAD
1000
DSTYLE
1002
{
1070
   178
1070
     1
1070
   278
1070
    46
1070
   147
1040
0.800000011920929
1070
    77
1070
     1
1070
    74
1070
     0
1070
    73
1070
     0
1070
    42
1040
2.54
1070
    44
1040
1.5
1070
    76
1070
     0
1070
    75
1070
     0
1070
   279
1070
     0
1070
   271
1070
     1
1070
   173
1070
     1
1070
    41
1040
3.0
1070
   140
1040
3.200000047683716
1070
   344
1005
2A7
1070
   343
1005
2A7
1002
}
  0
DIMENSION
  5
32F
330
1F
100
AcDbEntity
  8
0
 62
     7
100
AcDbDimension
  2
*D15
 10
-12.95578193664551
 20
-103.427466796875
 30
0.0
 11
-25.43811552429199
 21
-103.427466796875
 31
0.0
 70
   160
  1
\U+220575
 71
     5
 42
24.9666690826416
  3
ISO-25
100
AcDbAlignedDimension
 13
-37.92245101928711
 23
-82.86180114746094
 33
0.0
 14
-12.95578193664551
 24
-82.86180114746094
 34
0.0
 50
180.0
100
AcDbRotatedDimension
1001
ACAD
1000
DSTYLE
1002
{
1070
   178
1070
     1
1070
   278
1070
    46
1070
   147
1040
0.800000011920929
1070
    77
1070
     1
1070
    74
1070
     0
1070
    73
1070
     0
1070
    42
1040
2.54
1070
    44
1040
1.5
1070
    76
1070
     0
1070
    75
1070
     0
1070
   279
1070
     0
1070
   271
1070
     0
1070
   173
1070
     1
1070
    41
1040
3.0
1070
   140
1040
3.200000047683716
1070
   344
1005
2A7
1070
   343
1005
2A7
1002
}
  0
DIMENSION
  5
33C
330
1F
100
AcDbEntity
  8
0
 62
     7
100
AcDbDimension
  2
*D16
 10
-69.41236767578123
 20
33.04082489013669
 30
0.0
 11
-69.41236767578124
 21
64.87516076660157
 31
0.0
 70
   160
  1
191
 71
     5
 42
63.66666412353517
  3
ISO-25
100
AcDbAlignedDimension
 13
-53.3724479675293
 23
96.70748901367188
 33
0.0
 14
-33.77245712280273
 24
33.04082489013672
 34
0.0
 50
90.00000000000001
100
AcDbRotatedDimension
1001
ACAD
1000
DSTYLE
1002
{
1070
   178
1070
     1
1070
   278
1070
    46
1070
   147
1040
0.800000011920929
1070
    77
1070
     1
1070
    74
1070
     0
1070
    73
1070
     0
1070
    42
1040
2.54
1070
    44
1040
1.5
1070
    76
1070
     0
1070
    75
1070
     0
1070
   279
1070
     0
1070
   271
1070
     0
1070
   173
1070
     1
1070
    41
1040
3.0
1070
   140
1040
3.200000047683716
1070
   344
1005
2A7
1070
   343
1005
2A7
1002
}
  0
DIMENSION
  5
349
330
1F
100
AcDbEntity
  8
0
 62
     7
100
AcDbDimension
  2
*D17
 10
2.494217395782471
 20
106.7074890136719
 30
0.0
 11
-25.43811552429199
 21
106.7074890136719
 31
0.0
 70
   160
  1
168
 71
     5
 42
55.86666536331177
  3
ISO-25
100
AcDbAlignedDimension
 13
-53.3724479675293
 23
96.70748901367188
 33
0.0
 14
2.494217395782471
 24
96.70748901367188
 34
0.0
 50
180.0
100
AcDbRotatedDimension
1001
ACAD
1000
DSTYLE
1002
{
1070
   178
1070
     1
1070
   278
1070
    46
1070
   147
1040
0.800000011920929
1070
    77
1070
     1
1070
    74
1070
     0
1070
    73
1070
     0
1070
    42
1040
2.54
1070
    44
1040
1.5
1070
    76
1070
     0
1070
    75
1070
     0
1070
   279
1070
     0
1070
   271
1070
     0
1070
   173
1070
     1
1070
    41
1040
3.0
1070
   140
1040
3.200000047683716
1070
   344
1005
2A7
1070
   343
1005
2A7
1002
}
  0
DIMENSION
  5
356
330
1F
100
AcDbEntity
  8
0
 62
     7
100
AcDbDimension
  2
*D18
 10
67.80680847167969
 20
-64.11627197265625
 30
0.0
 11
75.69320849978924
 21
-64.11627197265625
 31
0.0
 70
   160
  1
5
 71
     5
 42
1.666671752929688
  3
ISO-25
100
AcDbAlignedDimension
 13
66.14013671875
 23
-65.0221176147461
 33
0.0
 14
67.80680847167969
 24
-65.85250854492188
 34
0.0
 50
180.0
100
AcDbRotatedDimension
1001
ACAD
1000
DSTYLE
1002
{
1070
   178
1070
     1
1070
   278
1070
    46
1070
   147
1040
0.800000011920929
1070
    77
1070
     1
1070
    74
1070
     0
1070
    73
1070
     0
1070
    42
1040
2.54
1070
    44
1040
1.5
1070
    76
1070
     1
1070
    75
1070
     1
1070
   279
1070
     0
1070
   271
1070
     0
1070
   173
1070
     1
1070
    41
1040
3.0
1070
   140
1040
3.200000047683716
1070
   344
1005
2A7
1070
   343
1005
2A7
1002
}
  0
POINT
  5
36B
330
1F
100
AcDbEntity
  8
VIEW0001
 62
     7
100
AcDbPoint
 10
105.0
 20
-148.5
 30
0.0
  0
LWPOLYLINE
  5
36C
330
1F
100
AcDbEntity
  8
VIEW0001
  6
Continuous
 62
     7
100
AcDbPolyline
 90
        2
 70
     0
 10
25.75
 20
-129.0
 40
0.001000000047497
 41
0.001000000047497
 10
25.75
 20
-120.0
 40
0.001000000047497
 41
0.001000000047497
  0
LWPOLYLINE
  5
36D
330
1F
100
AcDbEntity
  8
VIEW0001
  6
Continuous
 62
     7
100
AcDbPolyline
 90
        2
 70
     0
 10
-64.5
 20
-138.0
 40
0.001000000047497
 41
0.001000000047497
 10
-64.5
 20
-120.0
 40
0.001000000047497
 41
0.001000000047497
  0
LINE
  5
36E
330
1F
100
AcDbEntity
  8
VIEW0001
  6
Continuous
 62
     7
370
    50
100
AcDbLine
 10
-84.5
 20
138.0
 30
0.0
 11
-84.5
 21
-138.0
 31
0.0
  0
LINE
  5
36F
330
1F
100
AcDbEntity
  8
VIEW0001
  6
Continuous
 62
     7
370
    50
100
AcDbLine
 10
96.0
 20
138.0
 30
0.0
 11
96.0
 21
-138.0
 31
0.0
  0
LINE
  5
370
330
1F
100
AcDbEntity
  8
VIEW0001
  6
Continuous
 62
     7
370
    50
100
AcDbLine
 10
-84.5
 20
-138.0
 30
0.0
 11
96.0
 21
-138.0
 31
0.0
  0
LINE
  5
371
330
1F
100
AcDbEntity
  8
VIEW0001
  6
Continuous
 62
     7
370
    50
100
AcDbLine
 10
-84.5
 20
138.0
 30
0.0
 11
96.0
 21
138.0
 31
0.0
  0
LINE
  5
372
330
1F
100
AcDbEntity
  8
VIEW0001
  6
Continuous
 62
     7
370
    20
100
AcDbLine
 10
-84.5
 20
-120.0
 30
0.0
 11
96.0
 21
-120.0
 31
0.0
  0
LWPOLYLINE
  5
373
330
1F
100
AcDbEntity
  8
VIEW0001
  6
Continuous
 62
     7
100
AcDbPolyline
 90
        2
 70
     0
 10
96.0
 20
-129.0
 40
0.001000000047497
 41
0.001000000047497
 10
-84.5
 20
-129.0
 40
0.001000000047497
 41
0.001000000047497
  0
LINE
  5
374
330
1F
100
AcDbEntity
  8
VIEW0001
  6
Continuous
 62
     7
370
    20
100
AcDbLine
 10
41.0
 20
128.0
 30
0.0
 11
96.0
 21
128.0
 31
0.0
  0
LINE
  5
375
330
1F
100
AcDbEntity
  8
VIEW0001
  6
Continuous
 62
     7
370
    20
100
AcDbLine
 10
41.0
 20
138.0
 30
0.0
 11
41.0
 21
128.0
 31
0.0
  0
LWPOLYLINE
  5
376
330
1F
100
AcDbEntity
  8
VIEW0001
  6
Continuous
 62
     7
100
AcDbPolyline
 90
        2
 70
     0
 10
5.75
 20
-138.0
 40
0.001000000047497
 41
0.001000000047497
 10
5.75
 20
-120.0
 40
0.001000000047497
 41
0.001000000047497
  0
LWPOLYLINE
  5
377
330
1F
100
AcDbEntity
  8
VIEW0001
  6
Continuous
 62
     7
100
AcDbPolyline
 90
        2
 70
     0
 10
66.0
 20
-129.0
 40
0.001000000047497
 41
0.001000000047497
 10
66.0
 20
-120.0
 40
0.001000000047497
 41
0.001000000047497
  0
LWPOLYLINE
  5
378
330
1F
100
AcDbEntity
  8
VIEW0001
  6
Continuous
 62
     7
100
AcDbPolyline
 90
        2
 70
     0
 10
81.0
 20
-129.0
 40
0.001000000047497
 41
0.001000000047497
 10
81.0
 20
-120.0
 40
0.001000000047497
 41
0.001000000047497
  0
MTEXT
  5
379
330
1F
100
AcDbEntity
  8
VIEW0001
 62
     1
100
AcDbMText
 10
-77.92875003814697
 20
-135.5
 30
0.0
 40
4.0
 41
0.0
 71
     7
 72
     1
  1
{\W0.833333;規格}
 73
     1
 44
1.0
  0
MTEXT
  5
37A
330
1F
100
AcDbEntity
  8
VIEW0001
 62
     1
100
AcDbMText
 10
12.32124996185303
 20
-126.5
 30
0.0
 40
4.0
 41
0.0
 71
     7
 72
     1
  1
{\W0.833333;材質}
 73
     1
 44
1.0
  0
MTEXT
  5
37B
330
1F
100
AcDbEntity
  8
VIEW0001
 62
     1
100
AcDbMText
 10
-77.92875003814697
 20
-126.5
 30
0.0
 40
4.0
 41
0.0
 71
     7
 72
     1
  1
{\W0.833333;品名}
 73
     1
 44
1.0
  0
MTEXT
  5
37C
330
1F
100
AcDbEntity
  8
VIEW0001
 62
     1
100
AcDbMText
 10
70.07124996185303
 20
-126.5
 30
0.0
 40
4.0
 41
0.0
 71
     7
 72
     1
  1
{\W0.833333;尺度}
 73
     1
 44
1.0
  0
MTEXT
  5
37D
330
1F
100
AcDbEntity
  8
VIEW0001
 62
     1
100
AcDbMText
 10
26.46785604953766
 20
-135.75
 30
0.0
 40
4.5
 41
0.0
 71
     7
 72
     1
  1
{\W1.40741;デンカ株式会社}
 73
     1
 44
1.0
  0
MTEXT
  5
37E
330
1F
100
AcDbEntity
  8
VIEW0001
 62
     1
100
AcDbMText
 10
36.44624972343445
 20
-126.5
 30
0.0
 40
4.0
 41
0.0
 71
     7
 72
     1
  1
{\W0.833333;硬質ＰＶＣ}
 73
     1
 44
1.0
  0
MTEXT
  5
37F
330
1F
100
AcDbEntity
  8
VIEW0001
 62
     1
100
AcDbMText
 10
83.07124984264374
 20
-126.5
 30
0.0
 40
4.0
 41
0.0
 71
     7
 72
     1
  1
{\W0.833333;1/3}
 73
     1
 44
1.0
  0
MTEXT
  5
380
330
1F
100
AcDbEntity
  8
VIEW0001
 62
     1
100
AcDbMText
 10
-48.80375057458878
 20
-135.5
 30
0.0
 40
4.0
 41
0.0
 71
     7
 72
     1
  1
{\W0.833333;105-60(75)}
 73
     1
 44
1.0
  0
MTEXT
  5
381
330
1F
100
AcDbEntity
  8
VIEW0001
 62
     1
100
AcDbMText
 10
-50.80375063419342
 20
-126.5
 30
0.0
 40
4.0
 41
0.0
 71
     7
 72
     1
  1
{\W0.833333;飾りじょうごデラックス}
 73
     1
 44
1.0
  0
ENDSEC
  0
SECTION
  2
OBJECTS
  0
DICTIONARY
  5
C
330
0
100
AcDbDictionary
281
     1
  3
ACAD_GROUP
350
D
  3
ACAD_LAYOUT
350
1A
  3
ACAD_MATERIAL
350
3B
  3
ACAD_MLEADERSTYLE
350
3A9
  3
ACAD_MLINESTYLE
350
17
  3
ACAD_PLOTSETTINGS
350
19
  3
ACAD_PLOTSTYLENAME
350
E
  3
ACAD_TABLESTYLE
350
3A8
  3
ACAD_VISUALSTYLE
350
2A
  0
DICTIONARY
  5
D
102
{ACAD_REACTORS
330
C
102
}
330
C
100
AcDbDictionary
281
     1
  0
DICTIONARY
  5
1A
102
{ACAD_REACTORS
330
C
102
}
330
C
100
AcDbDictionary
281
     1
  3
Layout1
350
1E
  3
Layout2
350
26
  3
Model
350
22
  0
DICTIONARY
  5
3B
102
{ACAD_REACTORS
330
C
102
}
330
C
100
AcDbDictionary
281
     1
  3
ByBlock
350
3D
  3
ByLayer
350
3C
  3
Global
350
3E
  0
DICTIONARY
  5
3A9
102
{ACAD_REACTORS
330
C
102
}
330
C
100
AcDbDictionary
281
     1
  0
DICTIONARY
  5
17
102
{ACAD_REACTORS
330
C
102
}
330
C
100
AcDbDictionary
281
     1
  3
Standard
350
18
  0
DICTIONARY
  5
19
102
{ACAD_REACTORS
330
C
102
}
330
C
100
AcDbDictionary
281
     1
  0
ACDBDICTIONARYWDFLT
  5
E
102
{ACAD_REACTORS
330
C
102
}
330
C
100
AcDbDictionary
281
     1
  3
Normal
350
F
100
AcDbDictionaryWithDefault
340
F
  0
DICTIONARY
  5
3A8
102
{ACAD_REACTORS
330
C
102
}
330
C
100
AcDbDictionary
281
     1
  0
DICTIONARY
  5
2A
102
{ACAD_REACTORS
330
C
102
}
330
C
100
AcDbDictionary
281
     1
  3
2dWireframe
350
2F
  3
3D Hidden
350
31
  3
3dWireframe
350
30
  3
Basic
350
32
  3
Brighten
350
36
  3
ColorChange
350
3A
  3
Conceptual
350
34
  3
Dim
350
35
  3
Facepattern
350
39
  3
Flat
350
2B
  3
FlatWithEdges
350
2C
  3
Gouraud
350
2D
  3
GouraudWithEdges
350
2E
  3
Linepattern
350
38
  3
Realistic
350
33
  3
Thicken
350
37
  0
LAYOUT
  5
1E
102
{ACAD_REACTORS
330
1A
102
}
330
1A
100
AcDbPlotSettings
  1

  2
none_device
  4

  6

 40
0.0
 41
0.0
 42
0.0
 43
0.0
 44
0.0
 45
0.0
 46
0.0
 47
0.0
 48
0.0
 49
0.0
140
0.0
141
0.0
142
1.0
143
1.0
 70
   688
 72
     0
 73
     0
 74
     5
  7

 75
    16
 76
     0
 77
     2
 78
   300
147
1.0
148
0.0
149
0.0
100
AcDbLayout
  1
Layout1
 70
     1
 71
     1
 10
-105.0
 20
-148.5
 11
105.0
 21
148.5
 12
0.0
 22
0.0
 32
0.0
 14
1.000000000000000E+20
 24
1.000000000000000E+20
 34
1.000000000000000E+20
 15
-1.000000000000000E+20
 25
-1.000000000000000E+20
 35
-1.000000000000000E+20
146
0.0
 13
0.0
 23
0.0
 33
0.0
 16
1.0
 26
0.0
 36
0.0
 17
0.0
 27
1.0
 37
0.0
 76
     0
330
1B
  0
LAYOUT
  5
26
102
{ACAD_REACTORS
330
1A
102
}
330
1A
100
AcDbPlotSettings
  1

  2
none_device
  4

  6

 40
0.0
 41
0.0
 42
0.0
 43
0.0
 44
0.0
 45
0.0
 46
0.0
 47
0.0
 48
0.0
 49
0.0
140
0.0
141
0.0
142
1.0
143
1.0
 70
   688
 72
     0
 73
     0
 74
     5
  7

 75
    16
 76
     0
 77
     2
 78
   300
147
1.0
148
0.0
149
0.0
100
AcDbLayout
  1
Layout2
 70
     1
 71
     2
 10
0.0
 20
0.0
 11
0.0
 21
0.0
 12
0.0
 22
0.0
 32
0.0
 14
0.0
 24
0.0
 34
0.0
 15
0.0
 25
0.0
 35
0.0
146
0.0
 13
0.0
 23
0.0
 33
0.0
 16
1.0
 26
0.0
 36
0.0
 17
0.0
 27
1.0
 37
0.0
 76
     0
330
23
  0
LAYOUT
  5
22
102
{ACAD_REACTORS
330
1A
102
}
330
1A
100
AcDbPlotSettings
  1

  2
none_device
  4

  6

 40
0.0
 41
0.0
 42
0.0
 43
0.0
 44
0.0
 45
0.0
 46
0.0
 47
0.0
 48
0.0
 49
0.0
140
0.0
141
0.0
142
1.0
143
1.0
 70
  1712
 72
     0
 73
     0
 74
     0
  7

 75
     0
 76
     0
 77
     2
 78
   300
147
1.0
148
0.0
149
0.0
100
AcDbLayout
  1
Model
 70
     1
 71
     0
 10
-105.0
 20
-148.5
 11
105.0
 21
148.5
 12
0.0
 22
0.0
 32
0.0
 14
-105.0
 24
-148.5
 34
0.0
 15
105.0
 25
148.5
 35
0.0
146
0.0
 13
0.0
 23
0.0
 33
0.0
 16
1.0
 26
0.0
 36
0.0
 17
0.0
 27
1.0
 37
0.0
 76
     0
330
1F
331
29
  0
MATERIAL
  5
3D
102
{ACAD_REACTORS
330
3B
102
}
102
{ACAD_XDICTIONARY
360
3A4
102
}
330
3B
100
AcDbMaterial
  1
ByBlock
  0
MATERIAL
  5
3C
102
{ACAD_REACTORS
330
3B
102
}
102
{ACAD_XDICTIONARY
360
3A2
102
}
330
3B
100
AcDbMaterial
  1
ByLayer
  0
MATERIAL
  5
3E
102
{ACAD_REACTORS
330
3B
102
}
102
{ACAD_XDICTIONARY
360
3A6
102
}
330
3B
100
AcDbMaterial
  1
Global
  0
MLINESTYLE
  5
18
102
{ACAD_REACTORS
330
17
102
}
330
17
100
AcDbMlineStyle
  2
Standard
 70
     0
  3

 62
   256
 51
90.0
 52
90.0
 71
     2
 49
0.5
 62
   256
  6
BYLAYER
 49
-0.5
 62
   256
  6
BYLAYER
  0
ACDBPLACEHOLDER
  5
F
102
{ACAD_REACTORS
330
E
102
}
330
E
  0
VISUALSTYLE
  5
2F
102
{ACAD_REACTORS
330
2A
102
}
102
{ACAD_XDICTIONARY
360
38A
102
}
330
2A
100
AcDbVisualStyle
  2
2dWireframe
 70
     4
 71
     0
 72
     2
 73
     0
 90
        0
 40
-0.6
 41
-30.0
 62
     5
 63
     7
421
 16777215
 74
     1
 91
        4
 64
     7
 65
   257
 75
     1
175
     1
 42
1.0
 92
        0
 66
   257
 43
1.0
 76
     1
 77
     6
 78
     2
 67
     7
 79
     5
170
     0
171
     0
290
     0
174
     0
 93
        1
 44
0.0
173
     0
291
     0
 45
0.0
1001
ACAD
1000
AcDbSavedByObjectVersion
1070
     0
  0
VISUALSTYLE
  5
31
102
{ACAD_REACTORS
330
2A
102
}
102
{ACAD_XDICTIONARY
360
38E
102
}
330
2A
100
AcDbVisualStyle
  2
3D Hidden
 70
     6
 71
     1
 72
     2
 73
     2
 90
        0
 40
-0.6
 41
-30.0
 62
     5
 63
     7
421
 16777215
 74
     2
 91
        2
 64
     7
 65
   257
 75
     2
175
     1
 42
40.0
 92
        0
 66
   257
 43
1.0
 76
     1
 77
     6
 78
     2
 67
     7
 79
     3
170
     0
171
     0
290
     0
174
     0
 93
        1
 44
0.0
173
     0
291
     0
 45
0.0
1001
ACAD
1000
AcDbSavedByObjectVersion
1070
     0
  0
VISUALSTYLE
  5
30
102
{ACAD_REACTORS
330
2A
102
}
102
{ACAD_XDICTIONARY
360
38C
102
}
330
2A
100
AcDbVisualStyle
  2
3dWireframe
 70
     5
 71
     0
 72
     2
 73
     0
 90
        0
 40
-0.6
 41
-30.0
 62
     5
 63
     7
421
 16777215
 74
     1
 91
        4
 64
     7
 65
   257
 75
     1
175
     1
 42
1.0
 92
        0
 66
   257
 43
1.0
 76
     1
 77
     6
 78
     2
 67
     7
 79
     5
170
     0
171
     0
290
     0
174
     0
 93
        1
 44
0.0
173
     0
291
     0
 45
0.0
1001
ACAD
1000
AcDbSavedByObjectVersion
1070
     0
  0
VISUALSTYLE
  5
32
102
{ACAD_REACTORS
330
2A
102
}
102
{ACAD_XDICTIONARY
360
390
102
}
330
2A
100
AcDbVisualStyle
  2
Basic
 70
     7
 71
     1
 72
     0
 73
     1
 90
        0
 40
-0.6
 41
-30.0
 62
     5
 63
     7
421
 16777215
 74
     0
 91
        4
 64
     7
 65
   257
 75
     1
175
     1
 42
1.0
 92
        8
 66
     7
 43
1.0
 76
     1
 77
     6
 78
     2
 67
     7
 79
     5
170
     0
171
     0
290
     0
174
     0
 93
        1
 44
0.0
173
     0
291
     1
 45
0.0
1001
ACAD
1000
AcDbSavedByObjectVersion
1070
     0
  0
VISUALSTYLE
  5
36
102
{ACAD_REACTORS
330
2A
102
}
102
{ACAD_XDICTIONARY
360
398
102
}
330
2A
100
AcDbVisualStyle
  2
Brighten
 70
    12
 71
     2
 72
     2
 73
     0
 90
        0
 40
-0.6
 41
-30.0
 62
     5
 63
     7
421
 16777215
 74
     1
 91
        4
 64
     7
 65
   257
 75
     1
175
     1
 42
1.0
 92
        8
 66
     7
 43
1.0
 76
     1
 77
     6
 78
     2
 67
     7
 79
     5
170
     0
171
     0
290
     0
174
     0
 93
        1
 44
50.0
173
     0
291
     1
 45
0.0
1001
ACAD
1000
AcDbSavedByObjectVersion
1070
     0
  0
VISUALSTYLE
  5
3A
102
{ACAD_REACTORS
330
2A
102
}
102
{ACAD_XDICTIONARY
360
3A0
102
}
330
2A
100
AcDbVisualStyle
  2
ColorChange
 70
    16
 71
     2
 72
     2
 73
     3
 90
        0
 40
-0.6
 41
-30.0
 62
     5
 63
     8
421
  8421504
 74
     1
 91
        4
 64
     7
 65
   257
 75
     1
175
     1
 42
1.0
 92
        8
 66
     8
424
  8421504
 43
1.0
 76
     1
 77
     6
 78
     2
 67
     7
 79
     5
170
     0
171
     0
290
     0
174
     0
 93
        1
 44
0.0
173
     0
291
     1
 45
0.0
1001
ACAD
1000
AcDbSavedByObjectVersion
1070
     0
  0
VISUALSTYLE
  5
34
102
{ACAD_REACTORS
330
2A
102
}
102
{ACAD_XDICTIONARY
360
394
102
}
330
2A
100
AcDbVisualStyle
  2
Conceptual
 70
     9
 71
     3
 72
     2
 73
     0
 90
        0
 40
-0.6
 41
-30.0
 62
     5
 63
     7
421
 16777215
 74
     2
 91
        2
 64
     7
 65
   257
 75
     1
175
     1
 42
40.0
 92
        8
 66
     7
 43
1.0
 76
     1
 77
     6
 78
     2
 67
     7
 79
     3
170
     0
171
     0
290
     0
174
     0
 93
        1
 44
0.0
173
     0
291
     0
 45
0.0
1001
ACAD
1000
AcDbSavedByObjectVersion
1070
     0
  0
VISUALSTYLE
  5
35
102
{ACAD_REACTORS
330
2A
102
}
102
{ACAD_XDICTIONARY
360
396
102
}
330
2A
100
AcDbVisualStyle
  2
Dim
 70
    11
 71
     2
 72
     2
 73
     0
 90
        0
 40
-0.6
 41
-30.0
 62
     5
 63
     7
421
 16777215
 74
     1
 91
        4
 64
     7
 65
   257
 75
     1
175
     1
 42
1.0
 92
        8
 66
     7
 43
1.0
 76
     1
 77
     6
 78
     2
 67
     7
 79
     5
170
     0
171
     0
290
     0
174
     0
 93
        1
 44
-50.0
173
     0
291
     1
 45
0.0
1001
ACAD
1000
AcDbSavedByObjectVersion
1070
     0
  0
VISUALSTYLE
  5
39
102
{ACAD_REACTORS
330
2A
102
}
102
{ACAD_XDICTIONARY
360
39E
102
}
330
2A
100
AcDbVisualStyle
  2
Facepattern
 70
    15
 71
     2
 72
     2
 73
     0
 90
        0
 40
-0.6
 41
-30.0
 62
     5
 63
     7
421
 16777215
 74
     1
 91
        4
 64
     7
 65
   257
 75
     1
175
     1
 42
1.0
 92
        8
 66
     7
 43
1.0
 76
     1
 77
     6
 78
     2
 67
     7
 79
     5
170
     0
171
     0
290
     0
174
     0
 93
        1
 44
0.0
173
     0
291
     1
 45
0.0
1001
ACAD
1000
AcDbSavedByObjectVersion
1070
     0
  0
VISUALSTYLE
  5
2B
102
{ACAD_REACTORS
330
2A
102
}
102
{ACAD_XDICTIONARY
360
382
102
}
330
2A
100
AcDbVisualStyle
  2
Flat
 70
     0
 71
     2
 72
     1
 73
     1
 90
        2
 40
-0.6
 41
30.0
 62
     5
 63
     7
421
 16777215
 74
     0
 91
        4
 64
     7
 65
   257
 75
     1
175
     1
 42
1.0
 92
        8
 66
     7
 43
1.0
 76
     1
 77
     6
 78
     2
 67
     7
 79
     5
170
     0
171
     0
290
     0
174
     0
 93
       13
 44
0.0
173
     0
291
     1
 45
0.0
1001
ACAD
1000
AcDbSavedByObjectVersion
1070
     0
  0
VISUALSTYLE
  5
2C
102
{ACAD_REACTORS
330
2A
102
}
102
{ACAD_XDICTIONARY
360
384
102
}
330
2A
100
AcDbVisualStyle
  2
FlatWithEdges
 70
     1
 71
     2
 72
     1
 73
     1
 90
        2
 40
-0.6
 41
30.0
 62
     5
 63
     7
421
 16777215
 74
     1
 91
        4
 64
     7
 65
   257
 75
     1
175
     1
 42
1.0
 92
        0
 66
   257
 43
1.0
 76
     1
 77
     6
 78
     2
 67
     7
 79
     5
170
     0
171
     0
290
     0
174
     0
 93
       13
 44
0.0
173
     0
291
     1
 45
0.0
1001
ACAD
1000
AcDbSavedByObjectVersion
1070
     0
  0
VISUALSTYLE
  5
2D
102
{ACAD_REACTORS
330
2A
102
}
102
{ACAD_XDICTIONARY
360
386
102
}
330
2A
100
AcDbVisualStyle
  2
Gouraud
 70
     2
 71
     2
 72
     2
 73
     1
 90
        2
 40
-0.6
 41
30.0
 62
     5
 63
     7
421
 16777215
 74
     0
 91
        4
 64
     7
 65
   257
 75
     1
175
     1
 42
1.0
 92
        0
 66
     7
 43
1.0
 76
     1
 77
     6
 78
     2
 67
     7
 79
     5
170
     0
171
     0
290
     0
174
     0
 93
       13
 44
0.0
173
     0
291
     1
 45
0.0
1001
ACAD
1000
AcDbSavedByObjectVersion
1070
     0
  0
VISUALSTYLE
  5
2E
102
{ACAD_REACTORS
330
2A
102
}
102
{ACAD_XDICTIONARY
360
388
102
}
330
2A
100
AcDbVisualStyle
  2
GouraudWithEdges
 70
     3
 71
     2
 72
     2
 73
     1
 90
        2
 40
-0.6
 41
30.0
 62
     5
 63
     7
421
 16777215
 74
     1
 91
        4
 64
     7
 65
   257
 75
     1
175
     1
 42
1.0
 92
        0
 66
   257
 43
1.0
 76
     1
 77
     6
 78
     2
 67
     7
 79
     5
170
     0
171
     0
290
     0
174
     0
 93
       13
 44
0.0
173
     0
291
     1
 45
0.0
1001
ACAD
1000
AcDbSavedByObjectVersion
1070
     0
  0
VISUALSTYLE
  5
38
102
{ACAD_REACTORS
330
2A
102
}
102
{ACAD_XDICTIONARY
360
39C
102
}
330
2A
100
AcDbVisualStyle
  2
Linepattern
 70
    14
 71
     2
 72
     2
 73
     0
 90
        0
 40
-0.6
 41
-30.0
 62
     5
 63
     7
421
 16777215
 74
     1
 91
        4
 64
     7
 65
   257
 75
     7
175
     7
 42
1.0
 92
        8
 66
     7
 43
1.0
 76
     1
 77
     6
 78
     2
 67
     7
 79
     5
170
     0
171
     0
290
     0
174
     0
 93
        1
 44
0.0
173
     0
291
     1
 45
0.0
1001
ACAD
1000
AcDbSavedByObjectVersion
1070
     0
  0
VISUALSTYLE
  5
33
102
{ACAD_REACTORS
330
2A
102
}
102
{ACAD_XDICTIONARY
360
392
102
}
330
2A
100
AcDbVisualStyle
  2
Realistic
 70
     8
 71
     2
 72
     2
 73
     0
 90
        0
 40
-0.6
 41
-30.0
 62
     5
 63
     7
421
 16777215
 74
     1
 91
        0
 64
     7
 65
   257
 75
     1
175
     1
 42
1.0
 92
        8
 66
     8
424
  7895160
 43
1.0
 76
     1
 77
     6
 78
     2
 67
     7
 79
     5
170
     0
171
     0
290
     0
174
     0
 93
       13
 44
0.0
173
     0
291
     0
 45
0.0
1001
ACAD
1000
AcDbSavedByObjectVersion
1070
     0
  0
VISUALSTYLE
  5
37
102
{ACAD_REACTORS
330
2A
102
}
102
{ACAD_XDICTIONARY
360
39A
102
}
330
2A
100
AcDbVisualStyle
  2
Thicken
 70
    13
 71
     2
 72
     2
 73
     0
 90
        0
 40
-0.6
 41
-30.0
 62
     5
 63
     7
421
 16777215
 74
     1
 91
        4
 64
     7
 65
   257
 75
     1
175
     1
 42
1.0
 92
       12
 66
     7
 43
1.0
 76
     1
 77
     6
 78
     2
 67
     7
 79
     5
170
     0
171
     0
290
     0
174
     0
 93
        1
 44
0.0
173
     0
291
     1
 45
0.0
1001
ACAD
1000
AcDbSavedByObjectVersion
1070
     0
  0
DICTIONARY
  5
3A4
330
3D
100
AcDbDictionary
280
     1
281
     1
  3
ACAD_XREC_ROUNDTRIP
360
3A5
  0
DICTIONARY
  5
3A2
330
3C
100
AcDbDictionary
280
     1
281
     1
  3
ACAD_XREC_ROUNDTRIP
360
3A3
  0
DICTIONARY
  5
3A6
330
3E
100
AcDbDictionary
280
     1
281
     1
  3
ACAD_XREC_ROUNDTRIP
360
3A7
  0
DICTIONARY
  5
38A
330
2F
100
AcDbDictionary
280
     1
281
     1
  3
ACAD_XREC_ROUNDTRIP
360
38B
  0
DICTIONARY
  5
38E
330
31
100
AcDbDictionary
280
     1
281
     1
  3
ACAD_XREC_ROUNDTRIP
360
38F
  0
DICTIONARY
  5
38C
330
30
100
AcDbDictionary
280
     1
281
     1
  3
ACAD_XREC_ROUNDTRIP
360
38D
  0
DICTIONARY
  5
390
330
32
100
AcDbDictionary
280
     1
281
     1
  3
ACAD_XREC_ROUNDTRIP
360
391
  0
DICTIONARY
  5
398
330
36
100
AcDbDictionary
280
     1
281
     1
  3
ACAD_XREC_ROUNDTRIP
360
399
  0
DICTIONARY
  5
3A0
330
3A
100
AcDbDictionary
280
     1
281
     1
  3
ACAD_XREC_ROUNDTRIP
360
3A1
  0
DICTIONARY
  5
394
330
34
100
AcDbDictionary
280
     1
281
     1
  3
ACAD_XREC_ROUNDTRIP
360
395
  0
DICTIONARY
  5
396
330
35
100
AcDbDictionary
280
     1
281
     1
  3
ACAD_XREC_ROUNDTRIP
360
397
  0
DICTIONARY
  5
39E
330
39
100
AcDbDictionary
280
     1
281
     1
  3
ACAD_XREC_ROUNDTRIP
360
39F
  0
DICTIONARY
  5
382
330
2B
100
AcDbDictionary
280
     1
281
     1
  3
ACAD_XREC_ROUNDTRIP
360
383
  0
DICTIONARY
  5
384
330
2C
100
AcDbDictionary
280
     1
281
     1
  3
ACAD_XREC_ROUNDTRIP
360
385
  0
DICTIONARY
  5
386
330
2D
100
AcDbDictionary
280
     1
281
     1
  3
ACAD_XREC_ROUNDTRIP
360
387
  0
DICTIONARY
  5
388
330
2E
100
AcDbDictionary
280
     1
281
     1
  3
ACAD_XREC_ROUNDTRIP
360
389
  0
DICTIONARY
  5
39C
330
38
100
AcDbDictionary
280
     1
281
     1
  3
ACAD_XREC_ROUNDTRIP
360
39D
  0
DICTIONARY
  5
392
330
33
100
AcDbDictionary
280
     1
281
     1
  3
ACAD_XREC_ROUNDTRIP
360
393
  0
DICTIONARY
  5
39A
330
37
100
AcDbDictionary
280
     1
281
     1
  3
ACAD_XREC_ROUNDTRIP
360
39B
  0
XRECORD
  5
3A5
102
{ACAD_REACTORS
330
3A4
102
}
330
3A4
100
AcDbXrecord
280
     1
102
MATERIAL
148
0.0
149
0.0
149
0.0
 93
        0
 94
      127
282
     0
 72
     1
 77
     1
171
     1
175
     1
179
     1
273
     0
  0
XRECORD
  5
3A3
102
{ACAD_REACTORS
330
3A2
102
}
330
3A2
100
AcDbXrecord
280
     1
102
MATERIAL
148
0.0
149
0.0
149
0.0
 93
        0
 94
      127
282
     0
 72
     1
 77
     1
171
     1
175
     1
179
     1
273
     0
  0
XRECORD
  5
3A7
102
{ACAD_REACTORS
330
3A6
102
}
330
3A6
100
AcDbXrecord
280
     1
102
MATERIAL
148
0.0
149
0.0
149
0.0
 93
        0
 94
      127
282
     0
 72
     1
 77
     1
171
     1
175
     1
179
     1
273
     0
  0
XRECORD
  5
38B
102
{ACAD_REACTORS
330
38A
102
}
330
38A
100
AcDbXrecord
280
     1
102
RTVSPropertyOp0
 70
     1
102
RTVSPropertyOp1
 70
     1
102
RTVSPropertyOp2
 70
     1
102
RTVSPropertyOp3
 70
     1
102
RTVSPropertyOp4
 70
     1
102
RTVSPropertyOp5
 70
     1
102
RTVSPropertyOp6
 70
     1
102
RTVSPropertyOp7
 70
     1
102
RTVSPropertyOp8
 70
     1
102
RTVSPropertyOp9
 70
     1
102
RTVSPropertyOp10
 70
     1
102
RTVSPropertyOp11
 70
     1
102
RTVSPropertyOp12
 70
     1
102
RTVSPropertyOp13
 70
     1
102
RTVSPropertyOp14
 70
     1
102
RTVSPropertyOp15
 70
     1
102
RTVSPropertyOp16
 70
     1
102
RTVSPropertyOp17
 70
     1
102
RTVSPropertyOp18
 70
     1
102
RTVSPropertyOp19
 70
     1
102
RTVSPropertyOp20
 70
     1
102
RTVSPropertyOp21
 70
     1
102
RTVSPropertyOp22
 70
     1
102
RTVSPropertyOp23
 70
     1
102
RTVSPropertyOp24
 70
     1
102
RTVSPropertyOp25
 70
     1
102
RTVSPropertyOp26
 70
     1
102
RTVSPropertyOp27
 70
     1
102
RTVSPropertyOp28
 70
     1
102
RTVSPropertyOp29
 70
     1
102
RTVSPropertyOp30
 70
     1
102
RTVSPropertyOp31
 70
     1
102
RTVSPropertyOp32
 70
     1
  0
XRECORD
  5
38F
102
{ACAD_REACTORS
330
38E
102
}
330
38E
100
AcDbXrecord
280
     1
102
RTVSPropertyOp0
 70
     1
102
RTVSPropertyOp1
 70
     1
102
RTVSPropertyOp2
 70
     1
102
RTVSPropertyOp3
 70
     1
102
RTVSPropertyOp4
 70
     1
102
RTVSPropertyOp5
 70
     1
102
RTVSPropertyOp6
 70
     1
102
RTVSPropertyOp7
 70
     1
102
RTVSPropertyOp8
 70
     1
102
RTVSPropertyOp9
 70
     1
102
RTVSPropertyOp10
 70
     1
102
RTVSPropertyOp11
 70
     1
102
RTVSPropertyOp12
 70
     1
102
RTVSPropertyOp13
 70
     1
102
RTVSPropertyOp14
 70
     1
102
RTVSPropertyOp15
 70
     1
102
RTVSPropertyOp16
 70
     1
102
RTVSPropertyOp17
 70
     1
102
RTVSPropertyOp18
 70
     1
102
RTVSPropertyOp19
 70
     1
102
RTVSPropertyOp20
 70
     1
102
RTVSPropertyOp21
 70
     1
102
RTVSPropertyOp22
 70
     1
102
RTVSPropertyOp23
 70
     1
102
RTVSPropertyOp24
 70
     1
102
RTVSPropertyOp25
 70
     1
102
RTVSPropertyOp26
 70
     1
102
RTVSPropertyOp27
 70
     1
102
RTVSPropertyOp28
 70
     1
102
RTVSPropertyOp29
 70
     1
102
RTVSPropertyOp30
 70
     1
102
RTVSPropertyOp31
 70
     1
102
RTVSPropertyOp32
 70
     1
  0
XRECORD
  5
38D
102
{ACAD_REACTORS
330
38C
102
}
330
38C
100
AcDbXrecord
280
     1
102
RTVSPropertyOp0
 70
     1
102
RTVSPropertyOp1
 70
     1
102
RTVSPropertyOp2
 70
     1
102
RTVSPropertyOp3
 70
     1
102
RTVSPropertyOp4
 70
     1
102
RTVSPropertyOp5
 70
     1
102
RTVSPropertyOp6
 70
     1
102
RTVSPropertyOp7
 70
     1
102
RTVSPropertyOp8
 70
     1
102
RTVSPropertyOp9
 70
     1
102
RTVSPropertyOp10
 70
     1
102
RTVSPropertyOp11
 70
     1
102
RTVSPropertyOp12
 70
     1
102
RTVSPropertyOp13
 70
     1
102
RTVSPropertyOp14
 70
     1
102
RTVSPropertyOp15
 70
     1
102
RTVSPropertyOp16
 70
     1
102
RTVSPropertyOp17
 70
     1
102
RTVSPropertyOp18
 70
     1
102
RTVSPropertyOp19
 70
     1
102
RTVSPropertyOp20
 70
     1
102
RTVSPropertyOp21
 70
     1
102
RTVSPropertyOp22
 70
     1
102
RTVSPropertyOp23
 70
     1
102
RTVSPropertyOp24
 70
     1
102
RTVSPropertyOp25
 70
     1
102
RTVSPropertyOp26
 70
     1
102
RTVSPropertyOp27
 70
     1
102
RTVSPropertyOp28
 70
     1
102
RTVSPropertyOp29
 70
     1
102
RTVSPropertyOp30
 70
     1
102
RTVSPropertyOp31
 70
     1
102
RTVSPropertyOp32
 70
     1
  0
XRECORD
  5
391
102
{ACAD_REACTORS
330
390
102
}
330
390
100
AcDbXrecord
280
     1
102
RTVSPropertyOp0
 70
     1
102
RTVSPropertyOp1
 70
     1
102
RTVSPropertyOp2
 70
     1
102
RTVSPropertyOp3
 70
     1
102
RTVSPropertyOp4
 70
     1
102
RTVSPropertyOp5
 70
     1
102
RTVSPropertyOp6
 70
     1
102
RTVSPropertyOp7
 70
     1
102
RTVSPropertyOp8
 70
     1
102
RTVSPropertyOp9
 70
     1
102
RTVSPropertyOp10
 70
     1
102
RTVSPropertyOp11
 70
     1
102
RTVSPropertyOp12
 70
     1
102
RTVSPropertyOp13
 70
     1
102
RTVSPropertyOp14
 70
     1
102
RTVSPropertyOp15
 70
     1
102
RTVSPropertyOp16
 70
     1
102
RTVSPropertyOp17
 70
     1
102
RTVSPropertyOp18
 70
     1
102
RTVSPropertyOp19
 70
     1
102
RTVSPropertyOp20
 70
     1
102
RTVSPropertyOp21
 70
     1
102
RTVSPropertyOp22
 70
     1
102
RTVSPropertyOp23
 70
     1
102
RTVSPropertyOp24
 70
     1
102
RTVSPropertyOp25
 70
     1
102
RTVSPropertyOp26
 70
     1
102
RTVSPropertyOp27
 70
     1
102
RTVSPropertyOp28
 70
     1
102
RTVSPropertyOp29
 70
     1
102
RTVSPropertyOp30
 70
     1
102
RTVSPropertyOp31
 70
     1
102
RTVSPropertyOp32
 70
     1
  0
XRECORD
  5
399
102
{ACAD_REACTORS
330
398
102
}
330
398
100
AcDbXrecord
280
     1
102
RTVSPropertyOp0
 70
     1
102
RTVSPropertyOp1
 70
     1
102
RTVSPropertyOp2
 70
     1
102
RTVSPropertyOp3
 70
     1
102
RTVSPropertyOp4
 70
     1
102
RTVSPropertyOp5
 70
     1
102
RTVSPropertyOp6
 70
     1
102
RTVSPropertyOp7
 70
     1
102
RTVSPropertyOp8
 70
     1
102
RTVSPropertyOp9
 70
     1
102
RTVSPropertyOp10
 70
     1
102
RTVSPropertyOp11
 70
     1
102
RTVSPropertyOp12
 70
     1
102
RTVSPropertyOp13
 70
     1
102
RTVSPropertyOp14
 70
     1
102
RTVSPropertyOp15
 70
     1
102
RTVSPropertyOp16
 70
     1
102
RTVSPropertyOp17
 70
     1
102
RTVSPropertyOp18
 70
     1
102
RTVSPropertyOp19
 70
     1
102
RTVSPropertyOp20
 70
     1
102
RTVSPropertyOp21
 70
     1
102
RTVSPropertyOp22
 70
     1
102
RTVSPropertyOp23
 70
     1
102
RTVSPropertyOp24
 70
     1
102
RTVSPropertyOp25
 70
     1
102
RTVSPropertyOp26
 70
     1
102
RTVSPropertyOp27
 70
     1
102
RTVSPropertyOp28
 70
     1
102
RTVSPropertyOp29
 70
     1
102
RTVSPropertyOp30
 70
     1
102
RTVSPropertyOp31
 70
     1
102
RTVSPropertyOp32
 70
     1
  0
XRECORD
  5
3A1
102
{ACAD_REACTORS
330
3A0
102
}
330
3A0
100
AcDbXrecord
280
     1
102
RTVSPropertyOp0
 70
     1
102
RTVSPropertyOp1
 70
     1
102
RTVSPropertyOp2
 70
     1
102
RTVSPropertyOp3
 70
     1
102
RTVSPropertyOp4
 70
     1
102
RTVSPropertyOp5
 70
     1
102
RTVSPropertyOp6
 70
     1
102
RTVSPropertyOp7
 70
     1
102
RTVSPropertyOp8
 70
     1
102
RTVSPropertyOp9
 70
     1
102
RTVSPropertyOp10
 70
     1
102
RTVSPropertyOp11
 70
     1
102
RTVSPropertyOp12
 70
     1
102
RTVSPropertyOp13
 70
     1
102
RTVSPropertyOp14
 70
     1
102
RTVSPropertyOp15
 70
     1
102
RTVSPropertyOp16
 70
     1
102
RTVSPropertyOp17
 70
     1
102
RTVSPropertyOp18
 70
     1
102
RTVSPropertyOp19
 70
     1
102
RTVSPropertyOp20
 70
     1
102
RTVSPropertyOp21
 70
     1
102
RTVSPropertyOp22
 70
     1
102
RTVSPropertyOp23
 70
     1
102
RTVSPropertyOp24
 70
     1
102
RTVSPropertyOp25
 70
     1
102
RTVSPropertyOp26
 70
     1
102
RTVSPropertyOp27
 70
     1
102
RTVSPropertyOp28
 70
     1
102
RTVSPropertyOp29
 70
     1
102
RTVSPropertyOp30
 70
     1
102
RTVSPropertyOp31
 70
     1
102
RTVSPropertyOp32
 70
     1
  0
XRECORD
  5
395
102
{ACAD_REACTORS
330
394
102
}
330
394
100
AcDbXrecord
280
     1
102
RTVSPropertyOp0
 70
     1
102
RTVSPropertyOp1
 70
     1
102
RTVSPropertyOp2
 70
     1
102
RTVSPropertyOp3
 70
     1
102
RTVSPropertyOp4
 70
     1
102
RTVSPropertyOp5
 70
     1
102
RTVSPropertyOp6
 70
     1
102
RTVSPropertyOp7
 70
     1
102
RTVSPropertyOp8
 70
     1
102
RTVSPropertyOp9
 70
     1
102
RTVSPropertyOp10
 70
     1
102
RTVSPropertyOp11
 70
     1
102
RTVSPropertyOp12
 70
     1
102
RTVSPropertyOp13
 70
     1
102
RTVSPropertyOp14
 70
     1
102
RTVSPropertyOp15
 70
     1
102
RTVSPropertyOp16
 70
     1
102
RTVSPropertyOp17
 70
     1
102
RTVSPropertyOp18
 70
     1
102
RTVSPropertyOp19
 70
     1
102
RTVSPropertyOp20
 70
     1
102
RTVSPropertyOp21
 70
     1
102
RTVSPropertyOp22
 70
     1
102
RTVSPropertyOp23
 70
     1
102
RTVSPropertyOp24
 70
     1
102
RTVSPropertyOp25
 70
     1
102
RTVSPropertyOp26
 70
     1
102
RTVSPropertyOp27
 70
     1
102
RTVSPropertyOp28
 70
     1
102
RTVSPropertyOp29
 70
     1
102
RTVSPropertyOp30
 70
     1
102
RTVSPropertyOp31
 70
     1
102
RTVSPropertyOp32
 70
     1
  0
XRECORD
  5
397
102
{ACAD_REACTORS
330
396
102
}
330
396
100
AcDbXrecord
280
     1
102
RTVSPropertyOp0
 70
     1
102
RTVSPropertyOp1
 70
     1
102
RTVSPropertyOp2
 70
     1
102
RTVSPropertyOp3
 70
     1
102
RTVSPropertyOp4
 70
     1
102
RTVSPropertyOp5
 70
     1
102
RTVSPropertyOp6
 70
     1
102
RTVSPropertyOp7
 70
     1
102
RTVSPropertyOp8
 70
     1
102
RTVSPropertyOp9
 70
     1
102
RTVSPropertyOp10
 70
     1
102
RTVSPropertyOp11
 70
     1
102
RTVSPropertyOp12
 70
     1
102
RTVSPropertyOp13
 70
     1
102
RTVSPropertyOp14
 70
     1
102
RTVSPropertyOp15
 70
     1
102
RTVSPropertyOp16
 70
     1
102
RTVSPropertyOp17
 70
     1
102
RTVSPropertyOp18
 70
     1
102
RTVSPropertyOp19
 70
     1
102
RTVSPropertyOp20
 70
     1
102
RTVSPropertyOp21
 70
     1
102
RTVSPropertyOp22
 70
     1
102
RTVSPropertyOp23
 70
     1
102
RTVSPropertyOp24
 70
     1
102
RTVSPropertyOp25
 70
     1
102
RTVSPropertyOp26
 70
     1
102
RTVSPropertyOp27
 70
     1
102
RTVSPropertyOp28
 70
     1
102
RTVSPropertyOp29
 70
     1
102
RTVSPropertyOp30
 70
     1
102
RTVSPropertyOp31
 70
     1
102
RTVSPropertyOp32
 70
     1
  0
XRECORD
  5
39F
102
{ACAD_REACTORS
330
39E
102
}
330
39E
100
AcDbXrecord
280
     1
102
RTVSPropertyOp0
 70
     1
102
RTVSPropertyOp1
 70
     1
102
RTVSPropertyOp2
 70
     1
102
RTVSPropertyOp3
 70
     1
102
RTVSPropertyOp4
 70
     1
102
RTVSPropertyOp5
 70
     1
102
RTVSPropertyOp6
 70
     1
102
RTVSPropertyOp7
 70
     1
102
RTVSPropertyOp8
 70
     1
102
RTVSPropertyOp9
 70
     1
102
RTVSPropertyOp10
 70
     1
102
RTVSPropertyOp11
 70
     1
102
RTVSPropertyOp12
 70
     1
102
RTVSPropertyOp13
 70
     1
102
RTVSPropertyOp14
 70
     1
102
RTVSPropertyOp15
 70
     1
102
RTVSPropertyOp16
 70
     1
102
RTVSPropertyOp17
 70
     1
102
RTVSPropertyOp18
 70
     1
102
RTVSPropertyOp19
 70
     1
102
RTVSPropertyOp20
 70
     1
102
RTVSPropertyOp21
 70
     1
102
RTVSPropertyOp22
 70
     1
102
RTVSPropertyOp23
 70
     1
102
RTVSPropertyOp24
 70
     1
102
RTVSPropertyOp25
 70
     1
102
RTVSPropertyOp26
 70
     1
102
RTVSPropertyOp27
 70
     1
102
RTVSPropertyOp28
 70
     1
102
RTVSPropertyOp29
 70
     1
102
RTVSPropertyOp30
 70
     1
102
RTVSPropertyOp31
 70
     1
102
RTVSPropertyOp32
 70
     1
  0
XRECORD
  5
383
102
{ACAD_REACTORS
330
382
102
}
330
382
100
AcDbXrecord
280
     1
102
RTVSPropertyOp0
 70
     1
102
RTVSPropertyOp1
 70
     1
102
RTVSPropertyOp2
 70
     1
102
RTVSPropertyOp3
 70
     1
102
RTVSPropertyOp4
 70
     1
102
RTVSPropertyOp5
 70
     1
102
RTVSPropertyOp6
 70
     1
102
RTVSPropertyOp7
 70
     1
102
RTVSPropertyOp8
 70
     1
102
RTVSPropertyOp9
 70
     1
102
RTVSPropertyOp10
 70
     1
102
RTVSPropertyOp11
 70
     1
102
RTVSPropertyOp12
 70
     1
102
RTVSPropertyOp13
 70
     1
102
RTVSPropertyOp14
 70
     1
102
RTVSPropertyOp15
 70
     1
102
RTVSPropertyOp16
 70
     1
102
RTVSPropertyOp17
 70
     1
102
RTVSPropertyOp18
 70
     1
102
RTVSPropertyOp19
 70
     1
102
RTVSPropertyOp20
 70
     1
102
RTVSPropertyOp21
 70
     1
102
RTVSPropertyOp22
 70
     1
102
RTVSPropertyOp23
 70
     1
102
RTVSPropertyOp24
 70
     1
102
RTVSPropertyOp25
 70
     1
102
RTVSPropertyOp26
 70
     1
102
RTVSPropertyOp27
 70
     1
102
RTVSPropertyOp28
 70
     1
102
RTVSPropertyOp29
 70
     1
102
RTVSPropertyOp30
 70
     1
102
RTVSPropertyOp31
 70
     1
102
RTVSPropertyOp32
 70
     1
  0
XRECORD
  5
385
102
{ACAD_REACTORS
330
384
102
}
330
384
100
AcDbXrecord
280
     1
102
RTVSPropertyOp0
 70
     1
102
RTVSPropertyOp1
 70
     1
102
RTVSPropertyOp2
 70
     1
102
RTVSPropertyOp3
 70
     1
102
RTVSPropertyOp4
 70
     1
102
RTVSPropertyOp5
 70
     1
102
RTVSPropertyOp6
 70
     1
102
RTVSPropertyOp7
 70
     1
102
RTVSPropertyOp8
 70
     1
102
RTVSPropertyOp9
 70
     1
102
RTVSPropertyOp10
 70
     1
102
RTVSPropertyOp11
 70
     1
102
RTVSPropertyOp12
 70
     1
102
RTVSPropertyOp13
 70
     1
102
RTVSPropertyOp14
 70
     1
102
RTVSPropertyOp15
 70
     1
102
RTVSPropertyOp16
 70
     1
102
RTVSPropertyOp17
 70
     1
102
RTVSPropertyOp18
 70
     1
102
RTVSPropertyOp19
 70
     1
102
RTVSPropertyOp20
 70
     1
102
RTVSPropertyOp21
 70
     1
102
RTVSPropertyOp22
 70
     1
102
RTVSPropertyOp23
 70
     1
102
RTVSPropertyOp24
 70
     1
102
RTVSPropertyOp25
 70
     1
102
RTVSPropertyOp26
 70
     1
102
RTVSPropertyOp27
 70
     1
102
RTVSPropertyOp28
 70
     1
102
RTVSPropertyOp29
 70
     1
102
RTVSPropertyOp30
 70
     1
102
RTVSPropertyOp31
 70
     1
102
RTVSPropertyOp32
 70
     1
  0
XRECORD
  5
387
102
{ACAD_REACTORS
330
386
102
}
330
386
100
AcDbXrecord
280
     1
102
RTVSPropertyOp0
 70
     1
102
RTVSPropertyOp1
 70
     1
102
RTVSPropertyOp2
 70
     1
102
RTVSPropertyOp3
 70
     1
102
RTVSPropertyOp4
 70
     1
102
RTVSPropertyOp5
 70
     1
102
RTVSPropertyOp6
 70
     1
102
RTVSPropertyOp7
 70
     1
102
RTVSPropertyOp8
 70
     1
102
RTVSPropertyOp9
 70
     1
102
RTVSPropertyOp10
 70
     1
102
RTVSPropertyOp11
 70
     1
102
RTVSPropertyOp12
 70
     1
102
RTVSPropertyOp13
 70
     1
102
RTVSPropertyOp14
 70
     1
102
RTVSPropertyOp15
 70
     1
102
RTVSPropertyOp16
 70
     1
102
RTVSPropertyOp17
 70
     1
102
RTVSPropertyOp18
 70
     1
102
RTVSPropertyOp19
 70
     1
102
RTVSPropertyOp20
 70
     1
102
RTVSPropertyOp21
 70
     1
102
RTVSPropertyOp22
 70
     1
102
RTVSPropertyOp23
 70
     1
102
RTVSPropertyOp24
 70
     1
102
RTVSPropertyOp25
 70
     1
102
RTVSPropertyOp26
 70
     1
102
RTVSPropertyOp27
 70
     1
102
RTVSPropertyOp28
 70
     1
102
RTVSPropertyOp29
 70
     1
102
RTVSPropertyOp30
 70
     1
102
RTVSPropertyOp31
 70
     1
102
RTVSPropertyOp32
 70
     1
  0
XRECORD
  5
389
102
{ACAD_REACTORS
330
388
102
}
330
388
100
AcDbXrecord
280
     1
102
RTVSPropertyOp0
 70
     1
102
RTVSPropertyOp1
 70
     1
102
RTVSPropertyOp2
 70
     1
102
RTVSPropertyOp3
 70
     1
102
RTVSPropertyOp4
 70
     1
102
RTVSPropertyOp5
 70
     1
102
RTVSPropertyOp6
 70
     1
102
RTVSPropertyOp7
 70
     1
102
RTVSPropertyOp8
 70
     1
102
RTVSPropertyOp9
 70
     1
102
RTVSPropertyOp10
 70
     1
102
RTVSPropertyOp11
 70
     1
102
RTVSPropertyOp12
 70
     1
102
RTVSPropertyOp13
 70
     1
102
RTVSPropertyOp14
 70
     1
102
RTVSPropertyOp15
 70
     1
102
RTVSPropertyOp16
 70
     1
102
RTVSPropertyOp17
 70
     1
102
RTVSPropertyOp18
 70
     1
102
RTVSPropertyOp19
 70
     1
102
RTVSPropertyOp20
 70
     1
102
RTVSPropertyOp21
 70
     1
102
RTVSPropertyOp22
 70
     1
102
RTVSPropertyOp23
 70
     1
102
RTVSPropertyOp24
 70
     1
102
RTVSPropertyOp25
 70
     1
102
RTVSPropertyOp26
 70
     1
102
RTVSPropertyOp27
 70
     1
102
RTVSPropertyOp28
 70
     1
102
RTVSPropertyOp29
 70
     1
102
RTVSPropertyOp30
 70
     1
102
RTVSPropertyOp31
 70
     1
102
RTVSPropertyOp32
 70
     1
  0
XRECORD
  5
39D
102
{ACAD_REACTORS
330
39C
102
}
330
39C
100
AcDbXrecord
280
     1
102
RTVSPropertyOp0
 70
     1
102
RTVSPropertyOp1
 70
     1
102
RTVSPropertyOp2
 70
     1
102
RTVSPropertyOp3
 70
     1
102
RTVSPropertyOp4
 70
     1
102
RTVSPropertyOp5
 70
     1
102
RTVSPropertyOp6
 70
     1
102
RTVSPropertyOp7
 70
     1
102
RTVSPropertyOp8
 70
     1
102
RTVSPropertyOp9
 70
     1
102
RTVSPropertyOp10
 70
     1
102
RTVSPropertyOp11
 70
     1
102
RTVSPropertyOp12
 70
     1
102
RTVSPropertyOp13
 70
     1
102
RTVSPropertyOp14
 70
     1
102
RTVSPropertyOp15
 70
     1
102
RTVSPropertyOp16
 70
     1
102
RTVSPropertyOp17
 70
     1
102
RTVSPropertyOp18
 70
     1
102
RTVSPropertyOp19
 70
     1
102
RTVSPropertyOp20
 70
     1
102
RTVSPropertyOp21
 70
     1
102
RTVSPropertyOp22
 70
     1
102
RTVSPropertyOp23
 70
     1
102
RTVSPropertyOp24
 70
     1
102
RTVSPropertyOp25
 70
     1
102
RTVSPropertyOp26
 70
     1
102
RTVSPropertyOp27
 70
     1
102
RTVSPropertyOp28
 70
     1
102
RTVSPropertyOp29
 70
     1
102
RTVSPropertyOp30
 70
     1
102
RTVSPropertyOp31
 70
     1
102
RTVSPropertyOp32
 70
     1
  0
XRECORD
  5
393
102
{ACAD_REACTORS
330
392
102
}
330
392
100
AcDbXrecord
280
     1
102
RTVSPropertyOp0
 70
     1
102
RTVSPropertyOp1
 70
     1
102
RTVSPropertyOp2
 70
     1
102
RTVSPropertyOp3
 70
     1
102
RTVSPropertyOp4
 70
     1
102
RTVSPropertyOp5
 70
     1
102
RTVSPropertyOp6
 70
     1
102
RTVSPropertyOp7
 70
     1
102
RTVSPropertyOp8
 70
     1
102
RTVSPropertyOp9
 70
     1
102
RTVSPropertyOp10
 70
     1
102
RTVSPropertyOp11
 70
     1
102
RTVSPropertyOp12
 70
     1
102
RTVSPropertyOp13
 70
     1
102
RTVSPropertyOp14
 70
     1
102
RTVSPropertyOp15
 70
     1
102
RTVSPropertyOp16
 70
     1
102
RTVSPropertyOp17
 70
     1
102
RTVSPropertyOp18
 70
     1
102
RTVSPropertyOp19
 70
     1
102
RTVSPropertyOp20
 70
     1
102
RTVSPropertyOp21
 70
     1
102
RTVSPropertyOp22
 70
     1
102
RTVSPropertyOp23
 70
     1
102
RTVSPropertyOp24
 70
     1
102
RTVSPropertyOp25
 70
     1
102
RTVSPropertyOp26
 70
     1
102
RTVSPropertyOp27
 70
     1
102
RTVSPropertyOp28
 70
     1
102
RTVSPropertyOp29
 70
     1
102
RTVSPropertyOp30
 70
     1
102
RTVSPropertyOp31
 70
     1
102
RTVSPropertyOp32
 70
     1
  0
XRECORD
  5
39B
102
{ACAD_REACTORS
330
39A
102
}
330
39A
100
AcDbXrecord
280
     1
102
RTVSPropertyOp0
 70
     1
102
RTVSPropertyOp1
 70
     1
102
RTVSPropertyOp2
 70
     1
102
RTVSPropertyOp3
 70
     1
102
RTVSPropertyOp4
 70
     1
102
RTVSPropertyOp5
 70
     1
102
RTVSPropertyOp6
 70
     1
102
RTVSPropertyOp7
 70
     1
102
RTVSPropertyOp8
 70
     1
102
RTVSPropertyOp9
 70
     1
102
RTVSPropertyOp10
 70
     1
102
RTVSPropertyOp11
 70
     1
102
RTVSPropertyOp12
 70
     1
102
RTVSPropertyOp13
 70
     1
102
RTVSPropertyOp14
 70
     1
102
RTVSPropertyOp15
 70
     1
102
RTVSPropertyOp16
 70
     1
102
RTVSPropertyOp17
 70
     1
102
RTVSPropertyOp18
 70
     1
102
RTVSPropertyOp19
 70
     1
102
RTVSPropertyOp20
 70
     1
102
RTVSPropertyOp21
 70
     1
102
RTVSPropertyOp22
 70
     1
102
RTVSPropertyOp23
 70
     1
102
RTVSPropertyOp24
 70
     1
102
RTVSPropertyOp25
 70
     1
102
RTVSPropertyOp26
 70
     1
102
RTVSPropertyOp27
 70
     1
102
RTVSPropertyOp28
 70
     1
102
RTVSPropertyOp29
 70
     1
102
RTVSPropertyOp30
 70
     1
102
RTVSPropertyOp31
 70
     1
102
RTVSPropertyOp32
 70
     1
  0
ENDSEC
  0
EOF
