  0
SECTION
  2
HEADER
  9
$ACADVER
  1
AC1018
  9
$ACADMAINTVER
 70
     0
  9
$DWGCODEPAGE
  3
ANSI_932
  9
$INSBASE
 10
0.0
 20
0.0
 30
0.0
  9
$EXTMIN
 10
-105.0
 20
-148.5
 30
0.0
  9
$EXTMAX
 10
105.0
 20
148.5
 30
0.0
  9
$LIMMIN
 10
-105.0
 20
-148.5
  9
$LIMMAX
 10
105.0
 20
148.5
  9
$ORTHOMODE
 70
     0
  9
$REGENMODE
 70
     1
  9
$FILLMODE
 70
     1
  9
$QTEXTMODE
 70
     0
  9
$MIRRTEXT
 70
     1
  9
$LTSCALE
 40
1.0
  9
$ATTMODE
 70
     1
  9
$TEXTSIZE
 40
2.5
  9
$TRACEWID
 40
1.0
  9
$TEXTSTYLE
  7
Standard
  9
$CLAYER
  8
0
  9
$CELTYPE
  6
ByLayer
  9
$CECOLOR
 62
   256
  9
$CELTSCALE
 40
1.0
  9
$DISPSILH
 70
     0
  9
$DIMSCALE
 40
1.0
  9
$DIMASZ
 40
2.5
  9
$DIMEXO
 40
0.625
  9
$DIMDLI
 40
3.75
  9
$DIMRND
 40
0.0
  9
$DIMDLE
 40
0.0
  9
$DIMEXE
 40
1.25
  9
$DIMTP
 40
0.0
  9
$DIMTM
 40
0.0
  9
$DIMTXT
 40
2.5
  9
$DIMCEN
 40
2.5
  9
$DIMTSZ
 40
0.0
  9
$DIMTOL
 70
     0
  9
$DIMLIM
 70
     0
  9
$DIMTIH
 70
     0
  9
$DIMTOH
 70
     0
  9
$DIMSE1
 70
     0
  9
$DIMSE2
 70
     0
  9
$DIMTAD
 70
     1
  9
$DIMZIN
 70
     8
  9
$DIMBLK
  1

  9
$DIMASO
 70
     1
  9
$DIMSHO
 70
     1
  9
$DIMPOST
  1

  9
$DIMAPOST
  1

  9
$DIMALT
 70
     0
  9
$DIMALTD
 70
     3
  9
$DIMALTF
 40
0.03937007874016
  9
$DIMLFAC
 40
1.0
  9
$DIMTOFL
 70
     1
  9
$DIMTVP
 40
0.0
  9
$DIMTIX
 70
     0
  9
$DIMSOXD
 70
     0
  9
$DIMSAH
 70
     0
  9
$DIMBLK1
  1

  9
$DIMBLK2
  1

  9
$DIMSTYLE
  2
ISO-25
  9
$DIMCLRD
 70
     0
  9
$DIMCLRE
 70
     0
  9
$DIMCLRT
 70
     0
  9
$DIMTFAC
 40
1.0
  9
$DIMGAP
 40
0.625
  9
$DIMJUST
 70
     0
  9
$DIMSD1
 70
     0
  9
$DIMSD2
 70
     0
  9
$DIMTOLJ
 70
     0
  9
$DIMTZIN
 70
     8
  9
$DIMALTZ
 70
     0
  9
$DIMALTTZ
 70
     0
  9
$DIMUPT
 70
     0
  9
$DIMDEC
 70
     2
  9
$DIMTDEC
 70
     2
  9
$DIMALTU
 70
     2
  9
$DIMALTTD
 70
     3
  9
$DIMTXSTY
  7
Standard
  9
$DIMAUNIT
 70
     0
  9
$DIMADEC
 70
     0
  9
$DIMALTRND
 40
0.0
  9
$DIMAZIN
 70
     0
  9
$DIMDSEP
 70
    44
  9
$DIMATFIT
 70
     3
  9
$DIMFRAC
 70
     0
  9
$DIMLDRBLK
  1

  9
$DIMLUNIT
 70
     2
  9
$DIMLWD
 70
    -2
  9
$DIMLWE
 70
    -2
  9
$DIMTMOVE
 70
     0
  9
$LUNITS
 70
     2
  9
$LUPREC
 70
     4
  9
$SKETCHINC
 40
1.0
  9
$FILLETRAD
 40
10.0
  9
$AUNITS
 70
     0
  9
$AUPREC
 70
     0
  9
$MENU
  1
.
  9
$ELEVATION
 40
0.0
  9
$PELEVATION
 40
0.0
  9
$THICKNESS
 40
0.0
  9
$LIMCHECK
 70
     0
  9
$CHAMFERA
 40
10.0
  9
$CHAMFERB
 40
10.0
  9
$CHAMFERC
 40
20.0
  9
$CHAMFERD
 40
0.0
  9
$SKPOLY
 70
     0
  9
$TDCREATE
 40
2457290.49097728
  9
$TDUCREATE
 40
2457290.11597728
  9
$TDUPDATE
 40
2457290.490977732
  9
$TDUUPDATE
 40
2457290.115977732
  9
$TDINDWG
 40
0.0000000116
  9
$TDUSRTIMER
 40
0.0000000116
  9
$USRTIMER
 70
     1
  9
$ANGBASE
 50
0.0
  9
$ANGDIR
 70
     0
  9
$PDMODE
 70
     0
  9
$PDSIZE
 40
0.0
  9
$PLINEWID
 40
0.0
  9
$SPLFRAME
 70
     0
  9
$SPLINETYPE
 70
     6
  9
$SPLINESEGS
 70
     8
  9
$HANDSEED
  5
2CB
  9
$SURFTAB1
 70
     6
  9
$SURFTAB2
 70
     6
  9
$SURFTYPE
 70
     6
  9
$SURFU
 70
     6
  9
$SURFV
 70
     6
  9
$UCSBASE
  2

  9
$UCSNAME
  2

  9
$UCSORG
 10
0.0
 20
0.0
 30
0.0
  9
$UCSXDIR
 10
1.0
 20
0.0
 30
0.0
  9
$UCSYDIR
 10
0.0
 20
1.0
 30
0.0
  9
$UCSORTHOREF
  2

  9
$UCSORTHOVIEW
 70
     0
  9
$UCSORGTOP
 10
0.0
 20
0.0
 30
0.0
  9
$UCSORGBOTTOM
 10
0.0
 20
0.0
 30
0.0
  9
$UCSORGLEFT
 10
0.0
 20
0.0
 30
0.0
  9
$UCSORGRIGHT
 10
0.0
 20
0.0
 30
0.0
  9
$UCSORGFRONT
 10
0.0
 20
0.0
 30
0.0
  9
$UCSORGBACK
 10
0.0
 20
0.0
 30
0.0
  9
$PUCSBASE
  2

  9
$PUCSNAME
  2

  9
$PUCSORG
 10
0.0
 20
0.0
 30
0.0
  9
$PUCSXDIR
 10
1.0
 20
0.0
 30
0.0
  9
$PUCSYDIR
 10
0.0
 20
1.0
 30
0.0
  9
$PUCSORTHOREF
  2

  9
$PUCSORTHOVIEW
 70
     0
  9
$PUCSORGTOP
 10
0.0
 20
0.0
 30
0.0
  9
$PUCSORGBOTTOM
 10
0.0
 20
0.0
 30
0.0
  9
$PUCSORGLEFT
 10
0.0
 20
0.0
 30
0.0
  9
$PUCSORGRIGHT
 10
0.0
 20
0.0
 30
0.0
  9
$PUCSORGFRONT
 10
0.0
 20
0.0
 30
0.0
  9
$PUCSORGBACK
 10
0.0
 20
0.0
 30
0.0
  9
$USERI1
 70
     0
  9
$USERI2
 70
     0
  9
$USERI3
 70
     0
  9
$USERI4
 70
     0
  9
$USERI5
 70
     0
  9
$USERR1
 40
0.0
  9
$USERR2
 40
0.0
  9
$USERR3
 40
0.0
  9
$USERR4
 40
0.0
  9
$USERR5
 40
0.0
  9
$WORLDVIEW
 70
     1
  9
$SHADEDGE
 70
     3
  9
$SHADEDIF
 70
    70
  9
$TILEMODE
 70
     1
  9
$MAXACTVP
 70
    64
  9
$PINSBASE
 10
0.0
 20
0.0
 30
0.0
  9
$PLIMCHECK
 70
     0
  9
$PEXTMIN
 10
1.000000000000000E+20
 20
1.000000000000000E+20
 30
1.000000000000000E+20
  9
$PEXTMAX
 10
-1.000000000000000E+20
 20
-1.000000000000000E+20
 30
-1.000000000000000E+20
  9
$PLIMMIN
 10
-105.0
 20
-148.5
  9
$PLIMMAX
 10
105.0
 20
148.5
  9
$UNITMODE
 70
     0
  9
$VISRETAIN
 70
     1
  9
$PLINEGEN
 70
     0
  9
$PSLTSCALE
 70
     1
  9
$TREEDEPTH
 70
  3020
  9
$CMLSTYLE
  2
Standard
  9
$CMLJUST
 70
     0
  9
$CMLSCALE
 40
20.0
  9
$PROXYGRAPHICS
 70
     1
  9
$MEASUREMENT
 70
     1
  9
$CELWEIGHT
370
    -1
  9
$ENDCAPS
280
     0
  9
$JOINSTYLE
280
     0
  9
$LWDISPLAY
290
     0
  9
$INSUNITS
 70
     4
  9
$HYPERLINKBASE
  1

  9
$STYLESHEET
  1

  9
$XEDIT
290
     1
  9
$CEPSNTYPE
380
     0
  9
$PSTYLEMODE
290
     1
  9
$FINGERPRINTGUID
  2
{658F3632-F721-434F-86ED-4F85796CA2E8}
  9
$VERSIONGUID
  2
{FAEB1C32-E019-11D5-929B-00C0DF256EC4}
  9
$EXTNAMES
290
     1
  9
$PSVPSCALE
 40
0.0
  9
$OLESTARTUP
290
     0
  9
$SORTENTS
280
   127
  9
$INDEXCTL
280
     0
  9
$HIDETEXT
280
     1
  9
$XCLIPFRAME
290
     0
  9
$HALOGAP
280
     0
  9
$OBSCOLOR
 70
   257
  9
$OBSLTYPE
280
     0
  9
$INTERSECTIONDISPLAY
280
     0
  9
$INTERSECTIONCOLOR
 70
   257
  9
$DIMASSOC
280
     2
  9
$PROJECTNAME
  1

  0
ENDSEC
  0
SECTION
  2
CLASSES
  0
CLASS
  1
ACDBDICTIONARYWDFLT
  2
AcDbDictionaryWithDefault
  3
ObjectDBX Classes
 90
        0
 91
        4
280
     0
281
     0
  0
CLASS
  1
VISUALSTYLE
  2
AcDbVisualStyle
  3
ObjectDBX Classes
 90
     4095
 91
        4
280
     0
281
     0
  0
CLASS
  1
MATERIAL
  2
AcDbMaterial
  3
ObjectDBX Classes
 90
     1153
 91
        4
280
     0
281
     0
  0
CLASS
  1
SUN
  2
AcDbSun
  3
SCENEOE
 90
     1024
 91
        4
280
     0
281
     0
  0
ENDSEC
  0
SECTION
  2
TABLES
  0
TABLE
  2
VPORT
  5
8
330
0
100
AcDbSymbolTable
 70
     1
  0
VPORT
  5
29
330
8
100
AcDbSymbolTableRecord
100
AcDbViewportTableRecord
  2
*Active
 70
     0
 10
0.0
 20
0.0
 11
1.0
 21
1.0
 12
344.1869158878504
 22
148.5
 13
0.0
 23
0.0
 14
10.0
 24
10.0
 15
10.0
 25
10.0
 16
0.0
 26
0.0
 36
1.0
 17
0.0
 27
0.0
 37
0.0
 40
297.0
 41
1.972972972850329
 42
50.0
 43
0.0
 44
0.0
 50
0.0
 51
0.0
 71
     0
 72
   100
 73
     1
 74
     3
 75
     0
 76
     0
 77
     0
 78
     0
281
     0
 65
     1
110
0.0
120
0.0
130
0.0
111
1.0
121
0.0
131
0.0
112
0.0
122
1.0
132
0.0
 79
     0
146
0.0
  0
ENDTAB
  0
TABLE
  2
LTYPE
  5
5
330
0
100
AcDbSymbolTable
 70
     5
  0
LTYPE
  5
14
330
5
100
AcDbSymbolTableRecord
100
AcDbLinetypeTableRecord
  2
ByBlock
 70
     0
  3

 72
    65
 73
     0
 40
0.0
  0
LTYPE
  5
15
330
5
100
AcDbSymbolTableRecord
100
AcDbLinetypeTableRecord
  2
ByLayer
 70
     0
  3

 72
    65
 73
     0
 40
0.0
  0
LTYPE
  5
16
330
5
100
AcDbSymbolTableRecord
100
AcDbLinetypeTableRecord
  2
Continuous
 70
     0
  3
Solid line
 72
    65
 73
     0
 40
0.0
  0
LTYPE
  5
40
330
5
100
AcDbSymbolTableRecord
100
AcDbLinetypeTableRecord
  2
CONTINOUS
 70
     0
  3
______________________________
 72
    65
 73
     0
 40
0.0
  0
LTYPE
  5
41
330
5
100
AcDbSymbolTableRecord
100
AcDbLinetypeTableRecord
  2
DASHED
 70
     0
  3
__ __ __ __ __ __ __ __ __ __ __ __ __ __ __ __
 72
    65
 73
     2
 40
4.5
 49
3.0
 74
     0
 49
-1.5
 74
     0
  0
LTYPE
  5
42
330
5
100
AcDbSymbolTableRecord
100
AcDbLinetypeTableRecord
  2
PHANTOM
 70
     0
  3
______  __  __  ______  __  __  _____
 72
    65
 73
     6
 40
15.0
 49
7.5
 74
     0
 49
-1.5
 74
     0
 49
1.5
 74
     0
 49
-1.5
 74
     0
 49
1.5
 74
     0
 49
-1.5
 74
     0
  0
LTYPE
  5
43
330
5
100
AcDbSymbolTableRecord
100
AcDbLinetypeTableRecord
  2
CENTER
 70
     0
  3
____ _ ____ _ ____ _ ____ _ ____ _ ____
 72
    65
 73
     4
 40
12.0
 49
7.5
 74
     0
 49
-1.5
 74
     0
 49
1.5
 74
     0
 49
-1.5
 74
     0
  0
ENDTAB
  0
TABLE
  2
LAYER
  5
2
330
0
100
AcDbSymbolTable
 70
     4
  0
LAYER
  5
10
330
2
100
AcDbSymbolTableRecord
100
AcDbLayerTableRecord
  2
0
 70
     0
 62
     7
  6
Continuous
370
    -3
390
F
  0
LAYER
  5
44
330
2
100
AcDbSymbolTableRecord
100
AcDbLayerTableRecord
  2
VIEW0001
 70
     0
 62
     7
  6
Continuous
370
    -3
390
F
  0
LAYER
  5
5B
330
2
100
AcDbSymbolTableRecord
100
AcDbLayerTableRecord
  2
VIEW0002
 70
     0
 62
     7
  6
Continuous
370
    -3
390
F
  0
LAYER
  5
15B
330
2
100
AcDbSymbolTableRecord
100
AcDbLayerTableRecord
  2
Defpoints
 70
     0
 62
     7
  6
Continuous
290
     0
370
    -3
390
F
  0
ENDTAB
  0
TABLE
  2
STYLE
  5
3
330
0
100
AcDbSymbolTable
 70
     1
  0
STYLE
  5
11
330
3
100
AcDbSymbolTableRecord
100
AcDbTextStyleTableRecord
  2
Standard
 70
     0
 40
0.0
 41
1.0
 50
0.0
 71
     0
 42
2.5
  3
ROMANS
  4
BIGFONT
  0
ENDTAB
  0
TABLE
  2
VIEW
  5
6
330
0
100
AcDbSymbolTable
 70
     0
  0
ENDTAB
  0
TABLE
  2
UCS
  5
7
330
0
100
AcDbSymbolTable
 70
     0
  0
ENDTAB
  0
TABLE
  2
APPID
  5
9
330
0
100
AcDbSymbolTable
 70
     1
  0
APPID
  5
12
330
9
100
AcDbSymbolTableRecord
100
AcDbRegAppTableRecord
  2
ACAD
 70
     0
  0
ENDTAB
  0
TABLE
  2
DIMSTYLE
  5
A
330
0
100
AcDbSymbolTable
 70
     1
100
AcDbDimStyleTable
  0
DIMSTYLE
105
27
102
{ACAD_REACTORS
330
154
330
171
330
17E
330
194
330
1A1
330
1AE
330
1BB
330
1CE
330
1D9
330
1E6
330
1F3
330
200
330
20D
330
222
330
22E
330
241
330
254
330
267
330
273
330
284
102
}
330
A
100
AcDbSymbolTableRecord
100
AcDbDimStyleTableRecord
  2
ISO-25
 70
     0
 41
2.5
 42
0.625
 43
3.75
 44
1.25
 73
     0
 74
     0
 77
     1
 78
     8
140
2.5
141
2.5
143
0.03937007874016
147
0.625
171
     3
172
     1
178
     0
271
     2
272
     2
274
     3
278
    44
283
     0
284
     8
340
11
  0
ENDTAB
  0
TABLE
  2
BLOCK_RECORD
  5
1
330
0
100
AcDbSymbolTable
 70
    26
  0
BLOCK_RECORD
  5
1F
330
1
100
AcDbSymbolTableRecord
100
AcDbBlockTableRecord
  2
*Model_Space
340
22
  0
BLOCK_RECORD
  5
1B
330
1
100
AcDbSymbolTableRecord
100
AcDbBlockTableRecord
  2
*Paper_Space
340
1E
  0
BLOCK_RECORD
  5
23
330
1
100
AcDbSymbolTableRecord
100
AcDbBlockTableRecord
  2
*Paper_Space0
340
26
  0
BLOCK_RECORD
  5
155
330
1
100
AcDbSymbolTableRecord
100
AcDbBlockTableRecord
  2
_OPEN30
340
0
102
{BLKREFS
331
0
331
0
331
179
331
178
331
0
331
0
331
19C
331
19B
331
1A9
331
1A8
331
1B6
331
1B5
331
0
331
1D4
331
1D3
331
1E1
331
1E0
331
1EE
331
1ED
331
1FB
331
1FA
331
208
331
207
331
0
331
229
331
228
331
0
331
0
331
0
331
28C
331
28B
102
}
  0
BLOCK_RECORD
  5
15C
330
1
100
AcDbSymbolTableRecord
100
AcDbBlockTableRecord
  2
*D2
340
0
  0
BLOCK_RECORD
  5
172
330
1
100
AcDbSymbolTableRecord
100
AcDbBlockTableRecord
  2
*D3
340
0
  0
BLOCK_RECORD
  5
17F
330
1
100
AcDbSymbolTableRecord
100
AcDbBlockTableRecord
  2
*D4
340
0
  0
BLOCK_RECORD
  5
195
330
1
100
AcDbSymbolTableRecord
100
AcDbBlockTableRecord
  2
*D5
340
0
  0
BLOCK_RECORD
  5
1A2
330
1
100
AcDbSymbolTableRecord
100
AcDbBlockTableRecord
  2
*D6
340
0
  0
BLOCK_RECORD
  5
1AF
330
1
100
AcDbSymbolTableRecord
100
AcDbBlockTableRecord
  2
*D7
340
0
  0
BLOCK_RECORD
  5
1BC
330
1
100
AcDbSymbolTableRecord
100
AcDbBlockTableRecord
  2
_NONE
340
0
102
{BLKREFS
331
0
331
0
331
0
331
0
331
26D
331
0
102
}
  0
BLOCK_RECORD
  5
1BF
330
1
100
AcDbSymbolTableRecord
100
AcDbBlockTableRecord
  2
*D9
340
0
  0
BLOCK_RECORD
  5
1CF
330
1
100
AcDbSymbolTableRecord
100
AcDbBlockTableRecord
  2
*D10
340
0
  0
BLOCK_RECORD
  5
1DA
330
1
100
AcDbSymbolTableRecord
100
AcDbBlockTableRecord
  2
*D11
340
0
  0
BLOCK_RECORD
  5
1E7
330
1
100
AcDbSymbolTableRecord
100
AcDbBlockTableRecord
  2
*D12
340
0
  0
BLOCK_RECORD
  5
1F4
330
1
100
AcDbSymbolTableRecord
100
AcDbBlockTableRecord
  2
*D13
340
0
  0
BLOCK_RECORD
  5
201
330
1
100
AcDbSymbolTableRecord
100
AcDbBlockTableRecord
  2
*D14
340
0
  0
BLOCK_RECORD
  5
20E
330
1
100
AcDbSymbolTableRecord
100
AcDbBlockTableRecord
  2
*D15
340
0
  0
BLOCK_RECORD
  5
223
330
1
100
AcDbSymbolTableRecord
100
AcDbBlockTableRecord
  2
*D16
340
0
  0
BLOCK_RECORD
  5
22F
330
1
100
AcDbSymbolTableRecord
100
AcDbBlockTableRecord
  2
*D17
340
0
  0
BLOCK_RECORD
  5
242
330
1
100
AcDbSymbolTableRecord
100
AcDbBlockTableRecord
  2
*D18
340
0
  0
BLOCK_RECORD
  5
255
330
1
100
AcDbSymbolTableRecord
100
AcDbBlockTableRecord
  2
_ORIGIN
340
0
102
{BLKREFS
331
262
331
261
331
26E
102
}
  0
BLOCK_RECORD
  5
25A
330
1
100
AcDbSymbolTableRecord
100
AcDbBlockTableRecord
  2
*D20
340
0
  0
BLOCK_RECORD
  5
268
330
1
100
AcDbSymbolTableRecord
100
AcDbBlockTableRecord
  2
*D21
340
0
  0
BLOCK_RECORD
  5
274
330
1
100
AcDbSymbolTableRecord
100
AcDbBlockTableRecord
  2
*D22
340
0
  0
BLOCK_RECORD
  5
285
330
1
100
AcDbSymbolTableRecord
100
AcDbBlockTableRecord
  2
*D23
340
0
  0
BLOCK_RECORD
  5
291
330
1
100
AcDbSymbolTableRecord
100
AcDbBlockTableRecord
  2
SYM0001
340
0
102
{BLKREFS
331
297
102
}
  0
BLOCK_RECORD
  5
29A
330
1
100
AcDbSymbolTableRecord
100
AcDbBlockTableRecord
  2
SYM0002
340
0
102
{BLKREFS
331
2A0
102
}
  0
ENDTAB
  0
ENDSEC
  0
SECTION
  2
BLOCKS
  0
BLOCK
  5
20
330
1F
100
AcDbEntity
  8
0
100
AcDbBlockBegin
  2
*Model_Space
 70
     0
 10
0.0
 20
0.0
 30
0.0
  3
*Model_Space
  1

  0
ENDBLK
  5
21
330
1F
100
AcDbEntity
  8
0
100
AcDbBlockEnd
  0
BLOCK
  5
1C
330
1B
100
AcDbEntity
 67
     1
  8
0
100
AcDbBlockBegin
  2
*Paper_Space
 70
     0
 10
0.0
 20
0.0
 30
0.0
  3
*Paper_Space
  1

  0
ENDBLK
  5
1D
330
1B
100
AcDbEntity
 67
     1
  8
0
100
AcDbBlockEnd
  0
BLOCK
  5
24
330
23
100
AcDbEntity
  8
0
100
AcDbBlockBegin
  2
*Paper_Space0
 70
     0
 10
0.0
 20
0.0
 30
0.0
  3
*Paper_Space0
  1

  0
ENDBLK
  5
25
330
23
100
AcDbEntity
  8
0
100
AcDbBlockEnd
  0
BLOCK
  5
156
330
155
100
AcDbEntity
  8
0
100
AcDbBlockBegin
  2
_OPEN30
 70
     0
 10
0.0
 20
0.0
 30
0.0
  3
_OPEN30
  1

  0
LINE
  5
158
330
155
100
AcDbEntity
  8
0
  6
ByBlock
 62
     0
370
    -2
100
AcDbLine
 10
-1.0
 20
0.267949
 30
0.0
 11
0.0
 21
0.0
 31
0.0
  0
LINE
  5
159
330
155
100
AcDbEntity
  8
0
  6
ByBlock
 62
     0
370
    -2
100
AcDbLine
 10
0.0
 20
0.0
 30
0.0
 11
-1.0
 21
-0.267949
 31
0.0
  0
LINE
  5
15A
330
155
100
AcDbEntity
  8
0
  6
ByBlock
 62
     0
370
    -2
100
AcDbLine
 10
0.0
 20
0.0
 30
0.0
 11
-1.0
 21
0.0
 31
0.0
  0
ENDBLK
  5
157
330
155
100
AcDbEntity
  8
0
100
AcDbBlockEnd
  0
BLOCK
  5
15D
330
15C
100
AcDbEntity
  8
0
100
AcDbBlockBegin
  2
*D2
 70
     1
 10
0.0
 20
0.0
 30
0.0
  3
*D2
  1

  0
MTEXT
  5
166
330
15C
100
AcDbEntity
  8
0
 62
     1
100
AcDbMText
 10
-51.66891791868689
 20
-73.09046630700318
 30
0.0
 40
3.200000047683716
 41
0.0
 71
     5
 72
     1
  1
15
 73
     1
 44
1.0
  0
POINT
  5
167
330
15C
100
AcDbEntity
  8
Defpoints
 62
     0
100
AcDbPoint
 10
-55.41991791868689
 20
-54.98006014116542
 30
0.0
  0
POINT
  5
168
330
15C
100
AcDbEntity
  8
Defpoints
 62
     0
100
AcDbPoint
 10
-47.91991791868689
 20
-54.88540060738036
 30
0.0
  0
POINT
  5
169
330
15C
100
AcDbEntity
  8
Defpoints
 62
     0
100
AcDbPoint
 10
-47.91991791868689
 20
-75.50586634298055
 30
0.0
  0
LINE
  5
16A
330
15C
100
AcDbEntity
  8
0
  6
Continuous
 62
     7
100
AcDbLine
 10
-55.41991791868689
 20
-57.52006014116542
 30
0.0
 11
-55.41991791868689
 21
-77.79186634298055
 31
0.0
  0
LINE
  5
16B
330
15C
100
AcDbEntity
  8
0
  6
Continuous
 62
     7
100
AcDbLine
 10
-47.91991791868689
 20
-57.42540060738036
 30
0.0
 11
-47.91991791868689
 21
-77.79186634298055
 31
0.0
  0
LINE
  5
16C
330
15C
100
AcDbEntity
  8
0
  6
Continuous
 62
     7
100
AcDbLine
 10
-61.76991791868689
 20
-75.50586634298055
 30
0.0
 11
-41.56991791868689
 21
-75.50586634298055
 31
0.0
  0
LINE
  5
16D
330
15C
100
AcDbEntity
  8
0
  6
Continuous
 62
     7
100
AcDbLine
 10
-55.41991791868689
 20
-75.50586634298055
 30
0.0
 11
-58.47444358069252
 21
-76.32432402728055
 31
0.0
  0
LINE
  5
16E
330
15C
100
AcDbEntity
  8
0
  6
Continuous
 62
     7
100
AcDbLine
 10
-55.41991791868689
 20
-75.50586634298055
 30
0.0
 11
-58.47444358069252
 21
-74.68740865868055
 31
0.0
  0
LINE
  5
16F
330
15C
100
AcDbEntity
  8
0
  6
Continuous
 62
     7
100
AcDbLine
 10
-47.91991791868689
 20
-75.50586634298055
 30
0.0
 11
-44.86539225668127
 21
-74.68740865868055
 31
0.0
  0
LINE
  5
170
330
15C
100
AcDbEntity
  8
0
  6
Continuous
 62
     7
100
AcDbLine
 10
-47.91991791868689
 20
-75.50586634298055
 30
0.0
 11
-44.86539225668127
 21
-76.32432402728055
 31
0.0
  0
ENDBLK
  5
15E
330
15C
100
AcDbEntity
  8
0
100
AcDbBlockEnd
  0
BLOCK
  5
173
330
172
100
AcDbEntity
  8
0
100
AcDbBlockBegin
  2
*D3
 70
     1
 10
0.0
 20
0.0
 30
0.0
  3
*D3
  1

  0
LINE
  5
175
330
172
100
AcDbEntity
  8
0
 62
     0
370
    -2
100
AcDbLine
 10
-56.66991791868689
 20
-33.19831539695044
 30
0.0
 11
-56.66991791868688
 21
-22.79486863179893
 31
0.0
  0
LINE
  5
176
330
172
100
AcDbEntity
  8
0
 62
     0
370
    -2
100
AcDbLine
 10
-46.66991791868689
 20
-33.3170347660043
 30
0.0
 11
-46.66991791868688
 21
-22.79486863179893
 31
0.0
  0
LINE
  5
177
330
172
100
AcDbEntity
  8
0
 62
     0
370
    -2
100
AcDbLine
 10
-53.66991791868688
 20
-25.08086863179893
 30
0.0
 11
-49.66991791868688
 21
-25.08086863179893
 31
0.0
  0
INSERT
  5
178
330
172
100
AcDbEntity
  8
0
 62
     0
370
    -2
100
AcDbBlockReference
  2
_OPEN30
 10
-56.66991791868688
 20
-25.08086863179893
 30
0.0
 41
3.0
 42
3.0
 43
3.0
 50
180.0
  0
INSERT
  5
179
330
172
100
AcDbEntity
  8
0
 62
     0
370
    -2
100
AcDbBlockReference
  2
_OPEN30
 10
-46.66991791868688
 20
-25.08086863179893
 30
0.0
 41
3.0
 42
3.0
 43
3.0
  0
MTEXT
  5
17A
330
172
100
AcDbEntity
  8
0
 62
     1
100
AcDbMText
 10
-51.66891791868681
 20
-22.66646859582157
 30
0.0
 40
3.200000047683716
 41
0.0
 71
     5
 72
     1
  1
20
 73
     1
 44
1.0
  0
POINT
  5
17B
330
172
100
AcDbEntity
  8
Defpoints
 62
     0
100
AcDbPoint
 10
-56.66991791868689
 20
-35.73831539695044
 30
0.0
  0
POINT
  5
17C
330
172
100
AcDbEntity
  8
Defpoints
 62
     0
100
AcDbPoint
 10
-46.66991791868689
 20
-35.8570347660043
 30
0.0
  0
POINT
  5
17D
330
172
100
AcDbEntity
  8
Defpoints
 62
     0
100
AcDbPoint
 10
-46.66991791868688
 20
-25.08086863179893
 30
0.0
  0
ENDBLK
  5
174
330
172
100
AcDbEntity
  8
0
100
AcDbBlockEnd
  0
BLOCK
  5
180
330
17F
100
AcDbEntity
  8
0
100
AcDbBlockBegin
  2
*D4
 70
     1
 10
0.0
 20
0.0
 30
0.0
  3
*D4
  1

  0
MTEXT
  5
189
330
17F
100
AcDbEntity
  8
0
 62
     1
100
AcDbMText
 10
-6.614964520366605
 20
-24.87926856919022
 30
0.0
 40
3.200000047683716
 41
0.0
 71
     5
 72
     1
  1
7.5
 11
-4.736951571734001E-16
 21
1.0
 31
0.0
 73
     1
 44
1.0
  0
POINT
  5
18A
330
17F
100
AcDbEntity
  8
Defpoints
 62
     0
100
AcDbPoint
 10
5.803835515706126
 20
-35.08086863179894
 30
0.0
  0
POINT
  5
18B
330
17F
100
AcDbEntity
  8
Defpoints
 62
     0
100
AcDbPoint
 10
7.50641476434653
 20
-38.83086863179894
 30
0.0
  0
POINT
  5
18C
330
17F
100
AcDbEntity
  8
Defpoints
 62
     0
100
AcDbPoint
 10
-4.196164484293874
 20
-38.83086863179894
 30
0.0
  0
LINE
  5
18D
330
17F
100
AcDbEntity
  8
0
  6
Continuous
 62
     7
100
AcDbLine
 10
4.96641476434653
 20
-38.83086863179894
 30
0.0
 11
-6.482164484293875
 21
-38.83086863179894
 31
0.0
  0
LINE
  5
18E
330
17F
100
AcDbEntity
  8
0
  6
Continuous
 62
     7
100
AcDbLine
 10
-4.196164484293874
 20
-28.73086863179893
 30
0.0
 11
-4.196164484293874
 21
-45.18086863179894
 31
0.0
  0
LINE
  5
18F
330
17F
100
AcDbEntity
  8
0
  6
Continuous
 62
     7
100
AcDbLine
 10
-4.196164484293874
 20
-35.08086863179894
 30
0.0
 11
-5.014622168593874
 21
-32.02634296979331
 31
0.0
  0
LINE
  5
190
330
17F
100
AcDbEntity
  8
0
  6
Continuous
 62
     7
100
AcDbLine
 10
-4.196164484293874
 20
-35.08086863179894
 30
0.0
 11
-3.377706799993874
 21
-32.02634296979331
 31
0.0
  0
LINE
  5
191
330
17F
100
AcDbEntity
  8
0
  6
Continuous
 62
     7
100
AcDbLine
 10
-4.196164484293874
 20
-38.83086863179894
 30
0.0
 11
-3.377706799993874
 21
-41.88539429380456
 31
0.0
  0
LINE
  5
192
330
17F
100
AcDbEntity
  8
0
  6
Continuous
 62
     7
100
AcDbLine
 10
-4.196164484293874
 20
-38.83086863179894
 30
0.0
 11
-5.014622168593874
 21
-41.88539429380456
 31
0.0
  0
LINE
  5
193
330
17F
100
AcDbEntity
  8
0
  6
Continuous
 62
     7
100
AcDbLine
 10
-4.196164484293874
 20
-35.08086863179894
 30
0.0
 11
-4.196164484293874
 21
-22.233573942833
 31
0.0
  0
ENDBLK
  5
181
330
17F
100
AcDbEntity
  8
0
100
AcDbBlockEnd
  0
BLOCK
  5
196
330
195
100
AcDbEntity
  8
0
100
AcDbBlockBegin
  2
*D5
 70
     1
 10
0.0
 20
0.0
 30
0.0
  3
*D5
  1

  0
LINE
  5
198
330
195
100
AcDbEntity
  8
0
 62
     0
370
    -2
100
AcDbLine
 10
3.263835515706126
 20
-35.08086863179894
 30
0.0
 11
-16.48016448429388
 21
-35.08086863179894
 31
0.0
  0
LINE
  5
199
330
195
100
AcDbEntity
  8
0
 62
     0
370
    -2
100
AcDbLine
 10
22.86511392258803
 20
-53.75586634298058
 30
0.0
 11
-16.48016448429387
 21
-53.7558663429806
 31
0.0
  0
LINE
  5
19A
330
195
100
AcDbEntity
  8
0
 62
     0
370
    -2
100
AcDbLine
 10
-14.19416448429388
 20
-38.08086863179894
 30
0.0
 11
-14.19416448429387
 21
-50.7558663429806
 31
0.0
  0
INSERT
  5
19B
330
195
100
AcDbEntity
  8
0
 62
     0
370
    -2
100
AcDbBlockReference
  2
_OPEN30
 10
-14.19416448429388
 20
-35.08086863179894
 30
0.0
 41
3.0
 42
3.0
 43
3.0
 50
90.00000000000001
  0
INSERT
  5
19C
330
195
100
AcDbEntity
  8
0
 62
     0
370
    -2
100
AcDbBlockReference
  2
_OPEN30
 10
-14.19416448429387
 20
-53.7558663429806
 30
0.0
 41
3.0
 42
3.0
 43
3.0
 50
270.0
  0
MTEXT
  5
19D
330
195
100
AcDbEntity
  8
0
 62
     1
100
AcDbMText
 10
-16.60856452027124
 20
-44.41736748738976
 30
0.0
 40
3.200000047683716
 41
0.0
 71
     5
 72
     1
  1
37
 11
-3.804780845218861E-16
 21
1.0
 31
0.0
 73
     1
 44
1.0
  0
POINT
  5
19E
330
195
100
AcDbEntity
  8
Defpoints
 62
     0
100
AcDbPoint
 10
5.803835515706126
 20
-35.08086863179894
 30
0.0
  0
POINT
  5
19F
330
195
100
AcDbEntity
  8
Defpoints
 62
     0
100
AcDbPoint
 10
25.40511392258803
 20
-53.75586634298058
 30
0.0
  0
POINT
  5
1A0
330
195
100
AcDbEntity
  8
Defpoints
 62
     0
100
AcDbPoint
 10
-14.19616448429387
 20
-53.7558663429806
 30
0.0
  0
ENDBLK
  5
197
330
195
100
AcDbEntity
  8
0
100
AcDbBlockEnd
  0
BLOCK
  5
1A3
330
1A2
100
AcDbEntity
  8
0
100
AcDbBlockBegin
  2
*D6
 70
     1
 10
0.0
 20
0.0
 30
0.0
  3
*D6
  1

  0
LINE
  5
1A5
330
1A2
100
AcDbEntity
  8
0
 62
     0
370
    -2
100
AcDbLine
 10
70.02008208131275
 20
-36.00586634298055
 30
0.0
 11
79.76708208131275
 21
-36.00586634298055
 31
0.0
  0
LINE
  5
1A6
330
1A2
100
AcDbEntity
  8
0
 62
     0
370
    -2
100
AcDbLine
 10
70.02008208131275
 20
-65.50586634298058
 30
0.0
 11
79.76708208131276
 21
-65.50586634298058
 31
0.0
  0
LINE
  5
1A7
330
1A2
100
AcDbEntity
  8
0
 62
     0
370
    -2
100
AcDbLine
 10
77.48108208131275
 20
-39.00586634298055
 30
0.0
 11
77.48108208131276
 21
-62.50586634298058
 31
0.0
  0
INSERT
  5
1A8
330
1A2
100
AcDbEntity
  8
0
 62
     0
370
    -2
100
AcDbBlockReference
  2
_OPEN30
 10
77.48108208131275
 20
-36.00586634298055
 30
0.0
 41
3.0
 42
3.0
 43
3.0
 50
90.00000000000001
  0
INSERT
  5
1A9
330
1A2
100
AcDbEntity
  8
0
 62
     0
370
    -2
100
AcDbBlockReference
  2
_OPEN30
 10
77.48108208131276
 20
-65.50586634298058
 30
0.0
 41
3.0
 42
3.0
 43
3.0
 50
270.0
  0
MTEXT
  5
1AA
330
1A2
100
AcDbEntity
  8
0
 62
     1
100
AcDbMText
 10
75.06668204533538
 20
-50.75486634298057
 30
0.0
 40
3.200000047683716
 41
0.0
 71
     5
 72
     1
  1
59
 11
-4.817238886509149E-16
 21
1.0
 31
0.0
 73
     1
 44
1.0
  0
POINT
  5
1AB
330
1A2
100
AcDbEntity
  8
Defpoints
 62
     0
100
AcDbPoint
 10
67.48008208131274
 20
-36.00586634298055
 30
0.0
  0
POINT
  5
1AC
330
1A2
100
AcDbEntity
  8
Defpoints
 62
     0
100
AcDbPoint
 10
67.48008208131274
 20
-65.50586634298058
 30
0.0
  0
POINT
  5
1AD
330
1A2
100
AcDbEntity
  8
Defpoints
 62
     0
100
AcDbPoint
 10
77.48008208131274
 20
-65.50586634298058
 30
0.0
  0
ENDBLK
  5
1A4
330
1A2
100
AcDbEntity
  8
0
100
AcDbBlockEnd
  0
BLOCK
  5
1B0
330
1AF
100
AcDbEntity
  8
0
100
AcDbBlockBegin
  2
*D7
 70
     1
 10
0.0
 20
0.0
 30
0.0
  3
*D7
  1

  0
LINE
  5
1B2
330
1AF
100
AcDbEntity
  8
0
 62
     0
370
    -2
100
AcDbLine
 10
5.803835515706127
 20
-32.54086863179894
 30
0.0
 11
5.803835515706131
 21
-22.79486863179893
 31
0.0
  0
LINE
  5
1B3
330
1AF
100
AcDbEntity
  8
0
 62
     0
370
    -2
100
AcDbLine
 10
62.98008208131274
 20
-43.31586729665489
 30
0.0
 11
62.98008208131276
 21
-22.79486863179894
 31
0.0
  0
LINE
  5
1B4
330
1AF
100
AcDbEntity
  8
0
 62
     0
370
    -2
100
AcDbLine
 10
8.80383551570613
 20
-25.08086863179893
 30
0.0
 11
59.98008208131276
 21
-25.08086863179894
 31
0.0
  0
INSERT
  5
1B5
330
1AF
100
AcDbEntity
  8
0
 62
     0
370
    -2
100
AcDbBlockReference
  2
_OPEN30
 10
5.80383551570613
 20
-25.08086863179893
 30
0.0
 41
3.0
 42
3.0
 43
3.0
 50
180.0
  0
INSERT
  5
1B6
330
1AF
100
AcDbEntity
  8
0
 62
     0
370
    -2
100
AcDbBlockReference
  2
_OPEN30
 10
62.98008208131276
 20
-25.08086863179894
 30
0.0
 41
3.0
 42
3.0
 43
3.0
 50
360.0
  0
MTEXT
  5
1B7
330
1AF
100
AcDbEntity
  8
0
 62
     1
100
AcDbMText
 10
34.39295879850943
 20
-22.68086859603615
 30
0.0
 40
3.200000047683716
 41
0.0
 71
     5
 72
     1
  1
114
 73
     1
 44
1.0
  0
POINT
  5
1B8
330
1AF
100
AcDbEntity
  8
Defpoints
 62
     0
100
AcDbPoint
 10
5.803835515706126
 20
-35.08086863179894
 30
0.0
  0
POINT
  5
1B9
330
1AF
100
AcDbEntity
  8
Defpoints
 62
     0
100
AcDbPoint
 10
62.98008208131274
 20
-45.85586729665489
 30
0.0
  0
POINT
  5
1BA
330
1AF
100
AcDbEntity
  8
Defpoints
 62
     0
100
AcDbPoint
 10
62.98008208131275
 20
-25.08086863179894
 30
0.0
  0
ENDBLK
  5
1B1
330
1AF
100
AcDbEntity
  8
0
100
AcDbBlockEnd
  0
BLOCK
  5
1BD
330
1BC
100
AcDbEntity
  8
0
100
AcDbBlockBegin
  2
_NONE
 70
     0
 10
0.0
 20
0.0
 30
0.0
  3
_NONE
  1

  0
ENDBLK
  5
1BE
330
1BC
100
AcDbEntity
  8
0
100
AcDbBlockEnd
  0
BLOCK
  5
1C0
330
1BF
100
AcDbEntity
  8
0
100
AcDbBlockBegin
  2
*D9
 70
     1
 10
0.0
 20
0.0
 30
0.0
  3
*D9
  1

  0
MTEXT
  5
1C6
330
1BF
100
AcDbEntity
  8
0
 62
     1
100
AcDbMText
 10
63.23208208131274
 20
-73.10006630714626
 30
0.0
 40
3.200000047683716
 41
0.0
 71
     5
 72
     1
  1
17
 73
     1
 44
1.0
  0
POINT
  5
1C7
330
1BF
100
AcDbEntity
  8
Defpoints
 62
     0
100
AcDbPoint
 10
67.48008208131274
 20
-65.50586634298055
 30
0.0
  0
POINT
  5
1C8
330
1BF
100
AcDbEntity
  8
Defpoints
 62
     0
100
AcDbPoint
 10
58.98008208131274
 20
-51.34165365447471
 30
0.0
  0
POINT
  5
1C9
330
1BF
100
AcDbEntity
  8
Defpoints
 62
     0
100
AcDbPoint
 10
58.98008208131274
 20
-75.50586634298058
 30
0.0
  0
LINE
  5
1CA
330
1BF
100
AcDbEntity
  8
0
  6
Continuous
 62
     7
100
AcDbLine
 10
58.98008208131274
 20
-53.88165365447471
 30
0.0
 11
58.98008208131274
 21
-77.79186634298058
 31
0.0
  0
LINE
  5
1CB
330
1BF
100
AcDbEntity
  8
0
  6
Continuous
 62
     7
100
AcDbLine
 10
73.83008208131274
 20
-75.50586634298058
 30
0.0
 11
58.98008208131274
 21
-75.50586634298058
 31
0.0
  0
LINE
  5
1CC
330
1BF
100
AcDbEntity
  8
0
  6
Continuous
 62
     7
100
AcDbLine
 10
67.48008208131274
 20
-75.50586634298058
 30
0.0
 11
70.53460774331838
 21
-74.68740865868058
 31
0.0
  0
LINE
  5
1CD
330
1BF
100
AcDbEntity
  8
0
  6
Continuous
 62
     7
100
AcDbLine
 10
67.48008208131274
 20
-75.50586634298058
 30
0.0
 11
70.53460774331838
 21
-76.32432402728058
 31
0.0
  0
ENDBLK
  5
1C1
330
1BF
100
AcDbEntity
  8
0
100
AcDbBlockEnd
  0
BLOCK
  5
1D0
330
1CF
100
AcDbEntity
  8
0
100
AcDbBlockBegin
  2
*D10
 70
     1
 10
0.0
 20
0.0
 30
0.0
  3
*D10
  1

  0
LINE
  5
1D2
330
1CF
100
AcDbEntity
  8
0
 62
     0
370
    -2
100
AcDbLine
 10
55.98008208131274
 20
-75.50486634298058
 30
0.0
 11
8.803835515706126
 21
-75.50486634298058
 31
0.0
  0
INSERT
  5
1D3
330
1CF
100
AcDbEntity
  8
0
 62
     0
370
    -2
100
AcDbBlockReference
  2
_OPEN30
 10
58.98008208131274
 20
-75.50486634298058
 30
0.0
 41
3.0
 42
3.0
 43
3.0
  0
INSERT
  5
1D4
330
1CF
100
AcDbEntity
  8
0
 62
     0
370
    -2
100
AcDbBlockReference
  2
_OPEN30
 10
5.803835515706126
 20
-75.50486634298058
 30
0.0
 41
3.0
 42
3.0
 43
3.0
 50
180.0
  0
MTEXT
  5
1D5
330
1CF
100
AcDbEntity
  8
0
 62
     1
100
AcDbMText
 10
32.39395879850943
 20
-73.09046630700321
 30
0.0
 40
3.200000047683716
 41
0.0
 71
     5
 72
     1
  1
106
 73
     1
 44
1.0
  0
POINT
  5
1D6
330
1CF
100
AcDbEntity
  8
Defpoints
 62
     0
100
AcDbPoint
 10
58.98008208131274
 20
-51.34165365447471
 30
0.0
  0
POINT
  5
1D7
330
1CF
100
AcDbEntity
  8
Defpoints
 62
     0
100
AcDbPoint
 10
5.803835515706126
 20
-35.08086863179894
 30
0.0
  0
POINT
  5
1D8
330
1CF
100
AcDbEntity
  8
Defpoints
 62
     0
100
AcDbPoint
 10
5.803835515706126
 20
-75.50586634298058
 30
0.0
  0
ENDBLK
  5
1D1
330
1CF
100
AcDbEntity
  8
0
100
AcDbBlockEnd
  0
BLOCK
  5
1DB
330
1DA
100
AcDbEntity
  8
0
100
AcDbBlockBegin
  2
*D11
 70
     1
 10
0.0
 20
0.0
 30
0.0
  3
*D11
  1

  0
LINE
  5
1DD
330
1DA
100
AcDbEntity
  8
0
 62
     0
370
    -2
100
AcDbLine
 10
5.803835515706126
 20
-37.62086863179893
 30
0.0
 11
5.803835515706119
 21
-87.79086634298056
 31
0.0
  0
LINE
  5
1DE
330
1DA
100
AcDbEntity
  8
0
 62
     0
370
    -2
100
AcDbLine
 10
67.48008208131274
 20
-68.04586634298056
 30
0.0
 11
67.48008208131274
 21
-87.79086634298058
 31
0.0
  0
LINE
  5
1DF
330
1DA
100
AcDbEntity
  8
0
 62
     0
370
    -2
100
AcDbLine
 10
8.803835515706119
 20
-85.50486634298056
 30
0.0
 11
64.48008208131274
 21
-85.50486634298058
 31
0.0
  0
INSERT
  5
1E0
330
1DA
100
AcDbEntity
  8
0
 62
     0
370
    -2
100
AcDbBlockReference
  2
_OPEN30
 10
5.803835515706119
 20
-85.50486634298056
 30
0.0
 41
3.0
 42
3.0
 43
3.0
 50
180.0
  0
INSERT
  5
1E1
330
1DA
100
AcDbEntity
  8
0
 62
     0
370
    -2
100
AcDbBlockReference
  2
_OPEN30
 10
67.48008208131274
 20
-85.50486634298058
 30
0.0
 41
3.0
 42
3.0
 43
3.0
 50
360.0
  0
MTEXT
  5
1E2
330
1DA
100
AcDbEntity
  8
0
 62
     1
100
AcDbMText
 10
36.64295879850943
 20
-83.09046630700321
 30
0.0
 40
3.200000047683716
 41
0.0
 71
     5
 72
     1
  1
123
 73
     1
 44
1.0
  0
POINT
  5
1E3
330
1DA
100
AcDbEntity
  8
Defpoints
 62
     0
100
AcDbPoint
 10
5.803835515706126
 20
-35.08086863179894
 30
0.0
  0
POINT
  5
1E4
330
1DA
100
AcDbEntity
  8
Defpoints
 62
     0
100
AcDbPoint
 10
67.48008208131274
 20
-65.50586634298055
 30
0.0
  0
POINT
  5
1E5
330
1DA
100
AcDbEntity
  8
Defpoints
 62
     0
100
AcDbPoint
 10
67.48008208131274
 20
-85.50586634298058
 30
0.0
  0
ENDBLK
  5
1DC
330
1DA
100
AcDbEntity
  8
0
100
AcDbBlockEnd
  0
BLOCK
  5
1E8
330
1E7
100
AcDbEntity
  8
0
100
AcDbBlockBegin
  2
*D12
 70
     1
 10
0.0
 20
0.0
 30
0.0
  3
*D12
  1

  0
LINE
  5
1EA
330
1E7
100
AcDbEntity
  8
0
 62
     0
370
    -2
100
AcDbLine
 10
3.540888654190304
 20
18.99413365701979
 30
0.0
 11
-6.480164484293876
 21
18.99413365701979
 31
0.0
  0
LINE
  5
1EB
330
1E7
100
AcDbEntity
  8
0
 62
     0
370
    -2
100
AcDbLine
 10
3.540888654190304
 20
8.994133657019793
 30
0.0
 11
-6.480164484293873
 21
8.994133657019786
 31
0.0
  0
LINE
  5
1EC
330
1E7
100
AcDbEntity
  8
0
 62
     0
370
    -2
100
AcDbLine
 10
-4.194164484293874
 20
15.99413365701979
 30
0.0
 11
-4.194164484293872
 21
11.99413365701979
 31
0.0
  0
INSERT
  5
1ED
330
1E7
100
AcDbEntity
  8
0
 62
     0
370
    -2
100
AcDbBlockReference
  2
_OPEN30
 10
-4.194164484293875
 20
18.99413365701979
 30
0.0
 41
3.0
 42
3.0
 43
3.0
 50
90.00000000000001
  0
INSERT
  5
1EE
330
1E7
100
AcDbEntity
  8
0
 62
     0
370
    -2
100
AcDbBlockReference
  2
_OPEN30
 10
-4.194164484293871
 20
8.994133657019788
 30
0.0
 41
3.0
 42
3.0
 43
3.0
 50
270.0
  0
MTEXT
  5
1EF
330
1E7
100
AcDbEntity
  8
0
 62
     1
100
AcDbMText
 10
-6.608564520271237
 20
13.99513365701979
 30
0.0
 40
3.200000047683716
 41
0.0
 71
     5
 72
     1
  1
20
 11
-3.552713678800502E-16
 21
1.0
 31
0.0
 73
     1
 44
1.0
  0
POINT
  5
1F0
330
1E7
100
AcDbEntity
  8
Defpoints
 62
     0
100
AcDbPoint
 10
6.080888654190304
 20
18.99413365701979
 30
0.0
  0
POINT
  5
1F1
330
1E7
100
AcDbEntity
  8
Defpoints
 62
     0
100
AcDbPoint
 10
6.080888654190304
 20
8.994133657019795
 30
0.0
  0
POINT
  5
1F2
330
1E7
100
AcDbEntity
  8
Defpoints
 62
     0
100
AcDbPoint
 10
-4.196164484293874
 20
8.994133657019791
 30
0.0
  0
ENDBLK
  5
1E9
330
1E7
100
AcDbEntity
  8
0
100
AcDbBlockEnd
  0
BLOCK
  5
1F5
330
1F4
100
AcDbEntity
  8
0
100
AcDbBlockBegin
  2
*D13
 70
     1
 10
0.0
 20
0.0
 30
0.0
  3
*D13
  1

  0
LINE
  5
1F7
330
1F4
100
AcDbEntity
  8
0
 62
     0
370
    -2
100
AcDbLine
 10
70.02008208131275
 20
32.99413365701945
 30
0.0
 11
79.76708208131275
 21
32.99413365701946
 31
0.0
  0
LINE
  5
1F8
330
1F4
100
AcDbEntity
  8
0
 62
     0
370
    -2
100
AcDbLine
 10
70.02008208131275
 20
-5.005866342980551
 30
0.0
 11
79.76708208131276
 21
-5.005866342980543
 31
0.0
  0
LINE
  5
1F9
330
1F4
100
AcDbEntity
  8
0
 62
     0
370
    -2
100
AcDbLine
 10
77.48108208131275
 20
29.99413365701946
 30
0.0
 11
77.48108208131276
 21
-2.005866342980545
 31
0.0
  0
INSERT
  5
1FA
330
1F4
100
AcDbEntity
  8
0
 62
     0
370
    -2
100
AcDbBlockReference
  2
_OPEN30
 10
77.48108208131275
 20
32.99413365701946
 30
0.0
 41
3.0
 42
3.0
 43
3.0
 50
90.00000000000001
  0
INSERT
  5
1FB
330
1F4
100
AcDbEntity
  8
0
 62
     0
370
    -2
100
AcDbBlockReference
  2
_OPEN30
 10
77.48108208131276
 20
-5.005866342980545
 30
0.0
 41
3.0
 42
3.0
 43
3.0
 50
270.0
  0
MTEXT
  5
1FC
330
1F4
100
AcDbEntity
  8
0
 62
     1
100
AcDbMText
 10
75.06668204533538
 20
13.99513365701944
 30
0.0
 40
3.200000047683716
 41
0.0
 71
     5
 72
     1
  1
76
 11
-3.739698609263684E-16
 21
1.0
 31
0.0
 73
     1
 44
1.0
  0
POINT
  5
1FD
330
1F4
100
AcDbEntity
  8
Defpoints
 62
     0
100
AcDbPoint
 10
67.48008208131274
 20
32.99413365701945
 30
0.0
  0
POINT
  5
1FE
330
1F4
100
AcDbEntity
  8
Defpoints
 62
     0
100
AcDbPoint
 10
67.48008208131274
 20
-5.005866342980553
 30
0.0
  0
POINT
  5
1FF
330
1F4
100
AcDbEntity
  8
Defpoints
 62
     0
100
AcDbPoint
 10
77.48008208131274
 20
-5.00586634298055
 30
0.0
  0
ENDBLK
  5
1F6
330
1F4
100
AcDbEntity
  8
0
100
AcDbBlockEnd
  0
BLOCK
  5
202
330
201
100
AcDbEntity
  8
0
100
AcDbBlockBegin
  2
*D14
 70
     1
 10
0.0
 20
0.0
 30
0.0
  3
*D14
  1

  0
LINE
  5
204
330
201
100
AcDbEntity
  8
0
 62
     0
370
    -2
100
AcDbLine
 10
15.46393878219296
 20
80.48232749110741
 30
0.0
 11
15.46393878219296
 21
95.60333837216612
 31
0.0
  0
LINE
  5
205
330
201
100
AcDbEntity
  8
0
 62
     0
370
    -2
100
AcDbLine
 10
45.46393878219295
 20
80.48232749110741
 30
0.0
 11
45.46393878219296
 21
95.60333837216612
 31
0.0
  0
LINE
  5
206
330
201
100
AcDbEntity
  8
0
 62
     0
370
    -2
100
AcDbLine
 10
18.46393878219296
 20
93.31733837216612
 30
0.0
 11
42.46393878219296
 21
93.31733837216612
 31
0.0
  0
INSERT
  5
207
330
201
100
AcDbEntity
  8
0
 62
     0
370
    -2
100
AcDbBlockReference
  2
_OPEN30
 10
15.46393878219296
 20
93.31733837216612
 30
0.0
 41
3.0
 42
3.0
 43
3.0
 50
180.0
  0
INSERT
  5
208
330
201
100
AcDbEntity
  8
0
 62
     0
370
    -2
100
AcDbBlockReference
  2
_OPEN30
 10
45.46393878219296
 20
93.31733837216612
 30
0.0
 41
3.0
 42
3.0
 43
3.0
  0
MTEXT
  5
209
330
201
100
AcDbEntity
  8
0
 62
     1
100
AcDbMText
 10
30.46496866668242
 20
95.73173840814349
 30
0.0
 40
3.200000047683716
 41
0.0
 71
     5
 72
     1
  1
60
 73
     1
 44
1.0
  0
POINT
  5
20A
330
201
100
AcDbEntity
  8
Defpoints
 62
     0
100
AcDbPoint
 10
15.46393878219295
 20
77.9423274911074
 30
0.0
  0
POINT
  5
20B
330
201
100
AcDbEntity
  8
Defpoints
 62
     0
100
AcDbPoint
 10
45.46393878219295
 20
77.9423274911074
 30
0.0
  0
POINT
  5
20C
330
201
100
AcDbEntity
  8
Defpoints
 62
     0
100
AcDbPoint
 10
45.46393878219296
 20
93.31733837216612
 30
0.0
  0
ENDBLK
  5
203
330
201
100
AcDbEntity
  8
0
100
AcDbBlockEnd
  0
BLOCK
  5
20F
330
20E
100
AcDbEntity
  8
0
100
AcDbBlockBegin
  2
*D15
 70
     1
 10
0.0
 20
0.0
 30
0.0
  3
*D15
  1

  0
MTEXT
  5
218
330
20E
100
AcDbEntity
  8
0
 62
     1
100
AcDbMText
 10
3.580738754131091
 20
105.7221384080004
 30
0.0
 40
3.200000047683716
 41
0.0
 71
     5
 72
     1
  1
7
 73
     1
 44
1.0
  0
POINT
  5
219
330
20E
100
AcDbEntity
  8
Defpoints
 62
     0
100
AcDbPoint
 10
11.46393878219295
 20
78.79105892136731
 30
0.0
  0
POINT
  5
21A
330
20E
100
AcDbEntity
  8
Defpoints
 62
     0
100
AcDbPoint
 10
14.96393878219295
 20
82.39232372409386
 30
0.0
  0
POINT
  5
21B
330
20E
100
AcDbEntity
  8
Defpoints
 62
     0
100
AcDbPoint
 10
14.96393878219296
 20
103.3173383721661
 30
0.0
  0
LINE
  5
21C
330
20E
100
AcDbEntity
  8
0
  6
Continuous
 62
     7
100
AcDbLine
 10
11.46393878219295
 20
81.33105892136732
 30
0.0
 11
11.46393878219295
 21
105.6033383721661
 31
0.0
  0
LINE
  5
21D
330
20E
100
AcDbEntity
  8
0
  6
Continuous
 62
     7
100
AcDbLine
 10
14.96393878219295
 20
84.93232372409386
 30
0.0
 11
14.96393878219295
 21
105.6033383721661
 31
0.0
  0
LINE
  5
21E
330
20E
100
AcDbEntity
  8
0
  6
Continuous
 62
     7
100
AcDbLine
 10
5.113938782192955
 20
103.3173383721661
 30
0.0
 11
14.96393878219295
 21
103.3173383721661
 31
0.0
  0
LINE
  5
21F
330
20E
100
AcDbEntity
  8
0
  6
Continuous
 62
     7
100
AcDbLine
 10
11.46393878219295
 20
103.3173383721661
 30
0.0
 11
8.409413120187331
 21
102.4988806878661
 31
0.0
  0
LINE
  5
220
330
20E
100
AcDbEntity
  8
0
  6
Continuous
 62
     7
100
AcDbLine
 10
11.46393878219295
 20
103.3173383721661
 30
0.0
 11
8.409413120187331
 21
104.1357960564661
 31
0.0
  0
LINE
  5
221
330
20E
100
AcDbEntity
  8
0
  6
Continuous
 62
     7
100
AcDbLine
 10
11.46393878219295
 20
103.3173383721661
 30
0.0
 11
5.489505632745519
 21
103.3173383721661
 31
0.0
  0
ENDBLK
  5
210
330
20E
100
AcDbEntity
  8
0
100
AcDbBlockEnd
  0
BLOCK
  5
224
330
223
100
AcDbEntity
  8
0
100
AcDbBlockBegin
  2
*D16
 70
     1
 10
0.0
 20
0.0
 30
0.0
  3
*D16
  1

  0
LINE
  5
226
330
223
100
AcDbEntity
  8
0
 62
     0
370
    -2
100
AcDbLine
 10
45.96393878219295
 20
84.93232372409386
 30
0.0
 11
45.96393878219295
 21
105.6033383721661
 31
0.0
  0
LINE
  5
227
330
223
100
AcDbEntity
  8
0
 62
     0
370
    -2
100
AcDbLine
 10
17.96393878219296
 20
103.3173383721661
 30
0.0
 11
42.96393878219295
 21
103.3173383721661
 31
0.0
  0
INSERT
  5
228
330
223
100
AcDbEntity
  8
0
 62
     0
370
    -2
100
AcDbBlockReference
  2
_OPEN30
 10
14.96393878219296
 20
103.3173383721661
 30
0.0
 41
3.0
 42
3.0
 43
3.0
 50
180.0
  0
INSERT
  5
229
330
223
100
AcDbEntity
  8
0
 62
     0
370
    -2
100
AcDbBlockReference
  2
_OPEN30
 10
45.96393878219295
 20
103.3173383721661
 30
0.0
 41
3.0
 42
3.0
 43
3.0
  0
MTEXT
  5
22A
330
223
100
AcDbEntity
  8
0
 62
     1
100
AcDbMText
 10
30.46496866668242
 20
105.7317384081435
 30
0.0
 40
3.200000047683716
 41
0.0
 71
     5
 72
     1
  1
62
 73
     1
 44
1.0
  0
POINT
  5
22B
330
223
100
AcDbEntity
  8
Defpoints
 62
     0
100
AcDbPoint
 10
14.96393878219295
 20
82.39232372409386
 30
0.0
  0
POINT
  5
22C
330
223
100
AcDbEntity
  8
Defpoints
 62
     0
100
AcDbPoint
 10
45.96393878219295
 20
82.39232372409386
 30
0.0
  0
POINT
  5
22D
330
223
100
AcDbEntity
  8
Defpoints
 62
     0
100
AcDbPoint
 10
45.96393878219296
 20
103.3173383721661
 30
0.0
  0
ENDBLK
  5
225
330
223
100
AcDbEntity
  8
0
100
AcDbBlockEnd
  0
BLOCK
  5
230
330
22F
100
AcDbEntity
  8
0
100
AcDbBlockBegin
  2
*D17
 70
     1
 10
0.0
 20
0.0
 30
0.0
  3
*D17
  1

  0
MTEXT
  5
238
330
22F
100
AcDbEntity
  8
0
 62
     1
100
AcDbMText
 10
57.34713881025483
 20
105.7221384080004
 30
0.0
 40
3.200000047683716
 41
0.0
 71
     5
 72
     1
  1
7
 73
     1
 44
1.0
  0
POINT
  5
239
330
22F
100
AcDbEntity
  8
Defpoints
 62
     0
100
AcDbPoint
 10
45.96393878219295
 20
82.39232372409386
 30
0.0
  0
POINT
  5
23A
330
22F
100
AcDbEntity
  8
Defpoints
 62
     0
100
AcDbPoint
 10
49.46393878219295
 20
78.791089720911
 30
0.0
  0
POINT
  5
23B
330
22F
100
AcDbEntity
  8
Defpoints
 62
     0
100
AcDbPoint
 10
49.46393878219296
 20
103.3173383721661
 30
0.0
  0
LINE
  5
23C
330
22F
100
AcDbEntity
  8
0
  6
Continuous
 62
     7
100
AcDbLine
 10
49.46393878219295
 20
81.33108972091101
 30
0.0
 11
49.46393878219295
 21
105.6033383721661
 31
0.0
  0
LINE
  5
23D
330
22F
100
AcDbEntity
  8
0
  6
Continuous
 62
     7
100
AcDbLine
 10
45.96393878219295
 20
103.3173383721661
 30
0.0
 11
55.81393878219296
 21
103.3173383721661
 31
0.0
  0
LINE
  5
23E
330
22F
100
AcDbEntity
  8
0
  6
Continuous
 62
     7
100
AcDbLine
 10
49.46393878219295
 20
103.3173383721661
 30
0.0
 11
52.51846444419858
 21
104.1357960564661
 31
0.0
  0
LINE
  5
23F
330
22F
100
AcDbEntity
  8
0
  6
Continuous
 62
     7
100
AcDbLine
 10
49.46393878219295
 20
103.3173383721661
 30
0.0
 11
52.51846444419858
 21
102.4988806878661
 31
0.0
  0
LINE
  5
240
330
22F
100
AcDbEntity
  8
0
  6
Continuous
 62
     7
100
AcDbLine
 10
49.46393878219295
 20
103.3173383721661
 30
0.0
 11
55.39917388277202
 21
103.3173383721661
 31
0.0
  0
ENDBLK
  5
231
330
22F
100
AcDbEntity
  8
0
100
AcDbBlockEnd
  0
BLOCK
  5
243
330
242
100
AcDbEntity
  8
0
100
AcDbBlockBegin
  2
*D18
 70
     1
 10
0.0
 20
0.0
 30
0.0
  3
*D18
  1

  0
MTEXT
  5
24B
330
242
100
AcDbEntity
  8
0
 62
     1
100
AcDbMText
 10
-0.948461253784412
 20
91.13173839920277
 30
0.0
 40
3.200000047683716
 41
0.0
 71
     5
 72
     1
  1
9
 11
-3.947446751841869E-16
 21
1.0
 31
0.0
 73
     1
 44
1.0
  0
POINT
  5
24C
330
242
100
AcDbEntity
  8
Defpoints
 62
     0
100
AcDbPoint
 10
30.46396866668242
 20
83.31733837216612
 30
0.0
  0
POINT
  5
24D
330
242
100
AcDbEntity
  8
Defpoints
 62
     0
100
AcDbPoint
 10
11.38893873450924
 20
78.81732367641015
 30
0.0
  0
POINT
  5
24E
330
242
100
AcDbEntity
  8
Defpoints
 62
     0
100
AcDbPoint
 10
1.463938782192955
 20
78.81732367641015
 30
0.0
  0
LINE
  5
24F
330
242
100
AcDbEntity
  8
0
  6
Continuous
 62
     7
100
AcDbLine
 10
8.84893873450924
 20
78.81732367641015
 30
0.0
 11
-0.822061217807047
 21
78.81732367641015
 31
0.0
  0
LINE
  5
250
330
242
100
AcDbEntity
  8
0
  6
Continuous
 62
     7
100
AcDbLine
 10
1.463938782192955
 20
89.66733837216611
 30
0.0
 11
1.463938782192955
 21
78.81732367641014
 31
0.0
  0
LINE
  5
251
330
242
100
AcDbEntity
  8
0
  6
Continuous
 62
     7
100
AcDbLine
 10
1.463938782192955
 20
83.31733837216612
 30
0.0
 11
0.645481097892955
 21
86.37186403417175
 31
0.0
  0
LINE
  5
252
330
242
100
AcDbEntity
  8
0
  6
Continuous
 62
     7
100
AcDbLine
 10
1.463938782192955
 20
83.31733837216612
 30
0.0
 11
2.282396466492955
 21
86.37186403417175
 31
0.0
  0
LINE
  5
253
330
242
100
AcDbEntity
  8
0
  6
Continuous
 62
     7
100
AcDbLine
 10
1.463938782192955
 20
83.31733837216612
 30
0.0
 11
1.463938782192955
 21
89.78285065957732
 31
0.0
  0
ENDBLK
  5
244
330
242
100
AcDbEntity
  8
0
100
AcDbBlockEnd
  0
BLOCK
  5
256
330
255
100
AcDbEntity
  8
0
100
AcDbBlockBegin
  2
_ORIGIN
 70
     0
 10
0.0
 20
0.0
 30
0.0
  3
_ORIGIN
  1

  0
CIRCLE
  5
258
330
255
100
AcDbEntity
  8
0
  6
ByBlock
 62
     0
370
    -2
100
AcDbCircle
 10
0.0
 20
0.0
 30
0.0
 40
0.5
  0
LINE
  5
259
330
255
100
AcDbEntity
  8
0
  6
ByBlock
 62
     0
370
    -2
100
AcDbLine
 10
0.0
 20
0.0
 30
0.0
 11
-1.0
 21
0.0
 31
0.0
  0
ENDBLK
  5
257
330
255
100
AcDbEntity
  8
0
100
AcDbBlockEnd
  0
BLOCK
  5
25B
330
25A
100
AcDbEntity
  8
0
100
AcDbBlockBegin
  2
*D20
 70
     1
 10
0.0
 20
0.0
 30
0.0
  3
*D20
  1

  0
LINE
  5
25D
330
25A
100
AcDbEntity
  8
0
 62
     0
370
    -2
100
AcDbLine
 10
8.798938782192955
 20
73.81732749110742
 30
0.0
 11
-0.820061217807046
 21
73.81732749110742
 31
0.0
  0
LINE
  5
25E
330
25A
100
AcDbEntity
  8
0
 62
     0
370
    -2
100
AcDbLine
 10
1.465938782192953
 20
78.81732367641015
 30
0.0
 11
1.465938782192955
 21
73.81732749110742
 31
0.0
  0
LINE
  5
25F
330
25A
100
AcDbEntity
  8
0
 62
     0
370
    -2
100
AcDbLine
 10
1.465938782192952
 20
81.35732367641016
 30
0.0
 11
1.465938782192951
 21
83.89732367641017
 31
0.0
  0
LINE
  5
260
330
25A
100
AcDbEntity
  8
0
 62
     0
370
    -2
100
AcDbLine
 10
1.465938782192957
 20
71.27732749110741
 30
0.0
 11
1.465938782192958
 21
68.73732749110741
 31
0.0
  0
INSERT
  5
261
330
25A
100
AcDbEntity
  8
0
 62
     0
370
    -2
100
AcDbBlockReference
  2
_ORIGIN
 10
1.465938782192953
 20
78.81732367641015
 30
0.0
 41
2.54
 42
2.54
 43
2.54
 50
270.0
  0
INSERT
  5
262
330
25A
100
AcDbEntity
  8
0
 62
     0
370
    -2
100
AcDbBlockReference
  2
_ORIGIN
 10
1.465938782192955
 20
73.81732749110742
 30
0.0
 41
2.54
 42
2.54
 43
2.54
 50
90.00000000000001
  0
MTEXT
  5
263
330
25A
100
AcDbEntity
  8
0
 62
     1
100
AcDbMText
 10
-0.948461253784411
 20
76.31832558375879
 30
0.0
 40
3.200000047683716
 41
0.0
 71
     5
 72
     1
  1
10
 11
-3.996805937971500E-16
 21
1.0
 31
0.0
 73
     1
 44
1.0
  0
POINT
  5
264
330
25A
100
AcDbEntity
  8
Defpoints
 62
     0
100
AcDbPoint
 10
11.38893873450924
 20
78.81732367641015
 30
0.0
  0
POINT
  5
265
330
25A
100
AcDbEntity
  8
Defpoints
 62
     0
100
AcDbPoint
 10
11.33893878219295
 20
73.81732749110742
 30
0.0
  0
POINT
  5
266
330
25A
100
AcDbEntity
  8
Defpoints
 62
     0
100
AcDbPoint
 10
1.463938782192955
 20
73.81732749110742
 30
0.0
  0
ENDBLK
  5
25C
330
25A
100
AcDbEntity
  8
0
100
AcDbBlockEnd
  0
BLOCK
  5
269
330
268
100
AcDbEntity
  8
0
100
AcDbBlockBegin
  2
*D21
 70
     1
 10
0.0
 20
0.0
 30
0.0
  3
*D21
  1

  0
LINE
  5
26B
330
268
100
AcDbEntity
  8
0
 62
     0
370
    -2
100
AcDbLine
 10
24.34893873450924
 20
57.81732749110741
 30
0.0
 11
-0.820061217807044
 21
57.81732749110741
 31
0.0
  0
LINE
  5
26C
330
268
100
AcDbEntity
  8
0
 62
     0
370
    -2
100
AcDbLine
 10
1.465938782192951
 20
73.81732749110742
 30
0.0
 11
1.465938782192957
 21
60.35732749110741
 31
0.0
  0
INSERT
  5
26D
330
268
100
AcDbEntity
  8
0
 62
     0
370
    -2
100
AcDbBlockReference
  2
_NONE
 10
1.465938782192951
 20
73.81732749110742
 30
0.0
 41
2.54
 42
2.54
 43
2.54
 50
90.00000000000001
  0
INSERT
  5
26E
330
268
100
AcDbEntity
  8
0
 62
     0
370
    -2
100
AcDbBlockReference
  2
_ORIGIN
 10
1.465938782192957
 20
57.81732749110741
 30
0.0
 41
2.54
 42
2.54
 43
2.54
 50
270.0
  0
MTEXT
  5
26F
330
268
100
AcDbEntity
  8
0
 62
     1
100
AcDbMText
 10
-0.948461253784411
 20
65.81832749110742
 30
0.0
 40
3.200000047683716
 41
0.0
 71
     5
 72
     1
  1
32
 11
-3.885780586188044E-16
 21
1.0
 31
0.0
 73
     1
 44
1.0
  0
POINT
  5
270
330
268
100
AcDbEntity
  8
Defpoints
 62
     0
100
AcDbPoint
 10
11.33893878219295
 20
73.81732749110742
 30
0.0
  0
POINT
  5
271
330
268
100
AcDbEntity
  8
Defpoints
 62
     0
100
AcDbPoint
 10
26.88893873450924
 20
57.81732749110741
 30
0.0
  0
POINT
  5
272
330
268
100
AcDbEntity
  8
Defpoints
 62
     0
100
AcDbPoint
 10
1.463938782192955
 20
57.81732749110741
 30
0.0
  0
ENDBLK
  5
26A
330
268
100
AcDbEntity
  8
0
100
AcDbBlockEnd
  0
BLOCK
  5
275
330
274
100
AcDbEntity
  8
0
100
AcDbBlockBegin
  2
*D22
 70
     1
 10
0.0
 20
0.0
 30
0.0
  3
*D22
  1

  0
MTEXT
  5
27C
330
274
100
AcDbEntity
  8
0
 62
     1
100
AcDbMText
 10
-0.949461253784411
 20
45.92772746295017
 30
0.0
 40
3.200000047683716
 41
0.0
 71
     5
 72
     1
  1
8
 11
-3.885780586188041E-16
 21
1.0
 31
0.0
 73
     1
 44
1.0
  0
POINT
  5
27D
330
274
100
AcDbEntity
  8
Defpoints
 62
     0
100
AcDbPoint
 10
26.88893873450924
 20
57.81732749110741
 30
0.0
  0
POINT
  5
27E
330
274
100
AcDbEntity
  8
Defpoints
 62
     0
100
AcDbPoint
 10
30.46393878219295
 20
53.81732749110741
 30
0.0
  0
POINT
  5
27F
330
274
100
AcDbEntity
  8
Defpoints
 62
     0
100
AcDbPoint
 10
1.463938782192955
 20
53.8173274911074
 30
0.0
  0
LINE
  5
280
330
274
100
AcDbEntity
  8
0
  6
Continuous
 62
     7
100
AcDbLine
 10
1.463938782192955
 20
57.81732749110741
 30
0.0
 11
1.463938782192955
 21
47.4673274911074
 31
0.0
  0
LINE
  5
281
330
274
100
AcDbEntity
  8
0
  6
Continuous
 62
     7
100
AcDbLine
 10
1.463938782192955
 20
53.81732749110741
 30
0.0
 11
2.282396466492955
 21
50.76280182910178
 31
0.0
  0
LINE
  5
282
330
274
100
AcDbEntity
  8
0
  6
Continuous
 62
     7
100
AcDbLine
 10
1.463938782192955
 20
53.81732749110741
 30
0.0
 11
0.645481097892955
 21
50.76280182910178
 31
0.0
  0
LINE
  5
283
330
274
100
AcDbEntity
  8
0
  6
Continuous
 62
     7
100
AcDbLine
 10
1.463938782192955
 20
53.81732749110741
 30
0.0
 11
1.463938782192955
 21
46.09132155356571
 31
0.0
  0
ENDBLK
  5
276
330
274
100
AcDbEntity
  8
0
100
AcDbBlockEnd
  0
BLOCK
  5
286
330
285
100
AcDbEntity
  8
0
100
AcDbBlockBegin
  2
*D23
 70
     1
 10
0.0
 20
0.0
 30
0.0
  3
*D23
  1

  0
LINE
  5
288
330
285
100
AcDbEntity
  8
0
 62
     0
370
    -2
100
AcDbLine
 10
27.92393878219296
 20
53.81732749110741
 30
0.0
 11
-10.82106121780705
 21
53.81732749110742
 31
0.0
  0
LINE
  5
289
330
285
100
AcDbEntity
  8
0
 62
     0
370
    -2
100
AcDbLine
 10
27.92396866668242
 20
83.31733837216612
 30
0.0
 11
-10.82106121780705
 21
83.31733837216612
 31
0.0
  0
LINE
  5
28A
330
285
100
AcDbEntity
  8
0
 62
     0
370
    -2
100
AcDbLine
 10
-8.53506121780705
 20
56.81732749110742
 30
0.0
 11
-8.535061217807044
 21
80.31733837216612
 31
0.0
  0
INSERT
  5
28B
330
285
100
AcDbEntity
  8
0
 62
     0
370
    -2
100
AcDbBlockReference
  2
_OPEN30
 10
-8.53506121780705
 20
53.81732749110742
 30
0.0
 41
3.0
 42
3.0
 43
3.0
 50
270.0
  0
INSERT
  5
28C
330
285
100
AcDbEntity
  8
0
 62
     0
370
    -2
100
AcDbBlockReference
  2
_OPEN30
 10
-8.535061217807044
 20
83.31733837216612
 30
0.0
 41
3.0
 42
3.0
 43
3.0
 50
89.99999999999999
  0
MTEXT
  5
28D
330
285
100
AcDbEntity
  8
0
 62
     1
100
AcDbMText
 10
-10.94946125378441
 20
68.56833293163677
 30
0.0
 40
3.200000047683716
 41
0.0
 71
     5
 72
     1
  1
59
 11
1.806463916127715E-16
 21
1.0
 31
0.0
 73
     1
 44
1.0
  0
POINT
  5
28E
330
285
100
AcDbEntity
  8
Defpoints
 62
     0
100
AcDbPoint
 10
30.46393878219295
 20
53.81732749110741
 30
0.0
  0
POINT
  5
28F
330
285
100
AcDbEntity
  8
Defpoints
 62
     0
100
AcDbPoint
 10
30.46396866668242
 20
83.31733837216612
 30
0.0
  0
POINT
  5
290
330
285
100
AcDbEntity
  8
Defpoints
 62
     0
100
AcDbPoint
 10
-8.536061217807045
 20
83.31733837216612
 30
0.0
  0
ENDBLK
  5
287
330
285
100
AcDbEntity
  8
0
100
AcDbBlockEnd
  0
BLOCK
  5
298
330
291
100
AcDbEntity
  8
0
100
AcDbBlockBegin
  2
SYM0001
 70
     0
 10
0.0
 20
0.0
 30
0.0
  3
SYM0001
  1

  0
LINE
  5
292
330
291
100
AcDbEntity
  8
0
  6
Continuous
 62
     7
100
AcDbLine
 10
0.0
 20
0.0
 30
0.0
 11
10.83452581654065
 21
-7.513123051386742
 31
0.0
  0
LINE
  5
293
330
291
100
AcDbEntity
  8
0
  6
Continuous
 62
     7
100
AcDbLine
 10
0.0
 20
0.0
 30
0.0
 11
2.97646327130029
 21
-1.06801984786847
 31
0.0
  0
LINE
  5
294
330
291
100
AcDbEntity
  8
0
  6
Continuous
 62
     7
100
AcDbLine
 10
0.0
 20
0.0
 30
0.0
 11
2.04368288258253
 21
-2.413163955532184
 31
0.0
  0
LINE
  5
295
330
291
100
AcDbEntity
  8
0
  6
Continuous
 62
     7
100
AcDbLine
 10
10.83452581654065
 20
-7.513123051386756
 30
0.0
 11
32.84592019046978
 21
-7.513123051386756
 31
0.0
  0
MTEXT
  5
296
330
291
100
AcDbEntity
  8
0
 62
     1
100
AcDbMText
 10
12.73192028726772
 20
-6.713123039465827
 30
0.0
 40
3.200000047683716
 41
0.0
 71
     7
 72
     1
  1
{\W1;3-\U+22054.3}
 73
     1
 44
1.0
  0
ENDBLK
  5
299
330
291
100
AcDbEntity
  8
0
100
AcDbBlockEnd
  0
BLOCK
  5
2A1
330
29A
100
AcDbEntity
  8
0
100
AcDbBlockBegin
  2
SYM0002
 70
     0
 10
0.0
 20
0.0
 30
0.0
  3
SYM0002
  1

  0
LINE
  5
29B
330
29A
100
AcDbEntity
  8
0
  6
Continuous
 62
     7
100
AcDbLine
 10
0.0
 20
0.0
 30
0.0
 11
11.09511063250828
 21
-9.670191057382155
 31
0.0
  0
LINE
  5
29C
330
29A
100
AcDbEntity
  8
0
  6
Continuous
 62
     7
100
AcDbLine
 10
0.0
 20
0.0
 30
0.0
 11
2.840431317534801
 21
-1.389946017371955
 31
0.0
  0
LINE
  5
29D
330
29A
100
AcDbEntity
  8
0
  6
Continuous
 62
     7
100
AcDbLine
 10
0.0
 20
0.0
 30
0.0
 11
1.764912670155631
 21
-2.62394421959857
 31
0.0
  0
LINE
  5
29E
330
29A
100
AcDbEntity
  8
0
  6
Continuous
 62
     7
100
AcDbLine
 10
11.09511063250827
 20
-9.670191057382155
 30
0.0
 11
33.19590450607362
 21
-9.670191057382155
 31
0.0
  0
MTEXT
  5
29F
330
29A
100
AcDbEntity
  8
0
 62
     1
100
AcDbMText
 10
13.08190460287156
 20
-8.870191045461226
 30
0.0
 40
3.200000047683716
 41
0.0
 71
     7
 72
     1
  1
{\W1;2-\U+22056.5}
 73
     1
 44
1.0
  0
ENDBLK
  5
2A2
330
29A
100
AcDbEntity
  8
0
100
AcDbBlockEnd
  0
ENDSEC
  0
SECTION
  2
ENTITIES
  0
LWPOLYLINE
  5
45
330
1F
100
AcDbEntity
  8
VIEW0001
  6
Continuous
 62
     7
100
AcDbPolyline
 90
        2
 70
     0
 10
81.0
 20
-129.0
 40
0.001000000047497
 41
0.001000000047497
 10
81.0
 20
-120.0
 40
0.001000000047497
 41
0.001000000047497
  0
LWPOLYLINE
  5
46
330
1F
100
AcDbEntity
  8
VIEW0001
  6
Continuous
 62
     7
100
AcDbPolyline
 90
        2
 70
     0
 10
66.0
 20
-129.0
 40
0.001000000047497
 41
0.001000000047497
 10
66.0
 20
-120.0
 40
0.001000000047497
 41
0.001000000047497
  0
LWPOLYLINE
  5
47
330
1F
100
AcDbEntity
  8
VIEW0001
  6
Continuous
 62
     7
100
AcDbPolyline
 90
        2
 70
     0
 10
5.75
 20
-138.0
 40
0.001000000047497
 41
0.001000000047497
 10
5.75
 20
-120.0
 40
0.001000000047497
 41
0.001000000047497
  0
LINE
  5
48
330
1F
100
AcDbEntity
  8
VIEW0001
  6
Continuous
 62
     7
370
    20
100
AcDbLine
 10
41.0
 20
138.0
 30
0.0
 11
41.0
 21
128.0
 31
0.0
  0
LINE
  5
49
330
1F
100
AcDbEntity
  8
VIEW0001
  6
Continuous
 62
     7
370
    20
100
AcDbLine
 10
41.0
 20
128.0
 30
0.0
 11
96.0
 21
128.0
 31
0.0
  0
LWPOLYLINE
  5
4A
330
1F
100
AcDbEntity
  8
VIEW0001
  6
Continuous
 62
     7
100
AcDbPolyline
 90
        2
 70
     0
 10
96.0
 20
-129.0
 40
0.001000000047497
 41
0.001000000047497
 10
-84.5
 20
-129.0
 40
0.001000000047497
 41
0.001000000047497
  0
LINE
  5
4B
330
1F
100
AcDbEntity
  8
VIEW0001
  6
Continuous
 62
     7
370
    20
100
AcDbLine
 10
-84.5
 20
-120.0
 30
0.0
 11
96.0
 21
-120.0
 31
0.0
  0
LINE
  5
4C
330
1F
100
AcDbEntity
  8
VIEW0001
  6
Continuous
 62
     7
370
    50
100
AcDbLine
 10
-84.5
 20
138.0
 30
0.0
 11
96.0
 21
138.0
 31
0.0
  0
LINE
  5
4D
330
1F
100
AcDbEntity
  8
VIEW0001
  6
Continuous
 62
     7
370
    50
100
AcDbLine
 10
-84.5
 20
-138.0
 30
0.0
 11
96.0
 21
-138.0
 31
0.0
  0
LINE
  5
4E
330
1F
100
AcDbEntity
  8
VIEW0001
  6
Continuous
 62
     7
370
    50
100
AcDbLine
 10
96.0
 20
138.0
 30
0.0
 11
96.0
 21
-138.0
 31
0.0
  0
LINE
  5
4F
330
1F
100
AcDbEntity
  8
VIEW0001
  6
Continuous
 62
     7
370
    50
100
AcDbLine
 10
-84.5
 20
138.0
 30
0.0
 11
-84.5
 21
-138.0
 31
0.0
  0
LWPOLYLINE
  5
50
330
1F
100
AcDbEntity
  8
VIEW0001
  6
Continuous
 62
     7
100
AcDbPolyline
 90
        2
 70
     0
 10
-64.5
 20
-138.0
 40
0.001000000047497
 41
0.001000000047497
 10
-64.5
 20
-120.0
 40
0.001000000047497
 41
0.001000000047497
  0
LWPOLYLINE
  5
51
330
1F
100
AcDbEntity
  8
VIEW0001
  6
Continuous
 62
     7
100
AcDbPolyline
 90
        2
 70
     0
 10
25.75
 20
-129.0
 40
0.001000000047497
 41
0.001000000047497
 10
25.75
 20
-120.0
 40
0.001000000047497
 41
0.001000000047497
  0
MTEXT
  5
52
330
1F
100
AcDbEntity
  8
VIEW0001
 62
     1
100
AcDbMText
 10
-77.92875003814697
 20
-135.5
 30
0.0
 40
4.0
 41
0.0
 71
     7
 72
     1
  1
{\W0.833333;規格}
 73
     1
 44
1.0
  0
MTEXT
  5
53
330
1F
100
AcDbEntity
  8
VIEW0001
 62
     1
100
AcDbMText
 10
12.32124996185303
 20
-126.5
 30
0.0
 40
4.0
 41
0.0
 71
     7
 72
     1
  1
{\W0.833333;材質}
 73
     1
 44
1.0
  0
MTEXT
  5
54
330
1F
100
AcDbEntity
  8
VIEW0001
 62
     1
100
AcDbMText
 10
-77.92875003814697
 20
-126.5
 30
0.0
 40
4.0
 41
0.0
 71
     7
 72
     1
  1
{\W0.833333;品名}
 73
     1
 44
1.0
  0
MTEXT
  5
55
330
1F
100
AcDbEntity
  8
VIEW0001
 62
     1
100
AcDbMText
 10
70.07124996185303
 20
-126.5
 30
0.0
 40
4.0
 41
0.0
 71
     7
 72
     1
  1
{\W0.833333;尺度}
 73
     1
 44
1.0
  0
MTEXT
  5
56
330
1F
100
AcDbEntity
  8
VIEW0001
 62
     1
100
AcDbMText
 10
-48.80375057458878
 20
-135.5
 30
0.0
 40
4.0
 41
0.0
 71
     7
 72
     1
  1
{\W0.833333;DL55-5(17)}
 73
     1
 44
1.0
  0
MTEXT
  5
57
330
1F
100
AcDbEntity
  8
VIEW0001
 62
     1
100
AcDbMText
 10
83.07124984264374
 20
-126.5
 30
0.0
 40
4.0
 41
0.0
 71
     7
 72
     1
  1
{\W0.833333;1/2}
 73
     1
 44
1.0
  0
MTEXT
  5
58
330
1F
100
AcDbEntity
  8
VIEW0001
 62
     1
100
AcDbMText
 10
26.46785604953766
 20
-135.75
 30
0.0
 40
4.5
 41
0.0
 71
     7
 72
     1
  1
{\W1.40741;デンカ株式会社}
 73
     1
 44
1.0
  0
MTEXT
  5
59
330
1F
100
AcDbEntity
  8
VIEW0001
 62
     1
100
AcDbMText
 10
-54.80375075340271
 20
-126.5
 30
0.0
 40
4.0
 41
0.0
 71
     7
 72
     1
  1
{\W0.833333;ポリカ内吊り面打ち固定0寸}
 73
     1
 44
1.0
  0
MTEXT
  5
5A
330
1F
100
AcDbEntity
  8
VIEW0001
 62
     1
100
AcDbMText
 10
42.44624990224838
 20
-126.5
 30
0.0
 40
4.0
 41
0.0
 71
     7
 72
     1
  1
{\W0.833333;ＰＣ}
 73
     1
 44
1.0
  0
LINE
  5
5C
330
1F
100
AcDbEntity
  8
VIEW0002
  6
Continuous
 62
     7
100
AcDbLine
 10
34.99547845870365
 20
56.70423821476543
 30
0.0
 11
39.88656769638822
 21
67.19321307185001
 31
0.0
  0
LINE
  5
5D
330
1F
100
AcDbEntity
  8
VIEW0002
  6
Continuous
 62
     7
100
AcDbLine
 10
21.0413169884395
 20
67.19321412179409
 30
0.0
 11
25.93240783828477
 21
56.7042358074197
 31
0.0
  0
LINE
  5
5E
330
1F
100
AcDbEntity
  8
VIEW0002
  6
Continuous
 62
     7
100
AcDbLine
 10
-32.66991791868689
 20
-40.53210411317693
 30
0.0
 11
-32.66991791868689
 21
-46.56692077112308
 31
0.0
  0
LINE
  5
5F
330
1F
100
AcDbEntity
  8
VIEW0002
  6
Continuous
 62
     7
100
AcDbLine
 10
-70.66991791868689
 20
-40.53213491272063
 30
0.0
 11
-70.66991791868689
 21
-46.56692050775939
 31
0.0
  0
LINE
  5
60
330
1F
100
AcDbEntity
  8
VIEW0002
  6
Continuous
 62
     7
100
AcDbLine
 10
23.30708646135694
 20
68.24975976472467
 30
0.0
 11
26.35447709844311
 21
61.71460936799147
 31
0.0
  0
LINE
  5
61
330
1F
100
AcDbEntity
  8
VIEW0002
  6
Continuous
 62
     7
100
AcDbLine
 10
18.46393878219295
 20
79.31732367641014
 30
0.0
 11
18.46393878219295
 21
76.31732367641014
 31
0.0
  0
LINE
  5
62
330
1F
100
AcDbEntity
  8
VIEW0002
  6
Continuous
 62
     7
100
AcDbLine
 10
42.46393878219295
 20
79.31732367641014
 30
0.0
 11
42.46393878219295
 21
76.31732367641014
 31
0.0
  0
LINE
  5
63
330
1F
100
AcDbEntity
  8
VIEW0002
  6
Continuous
 62
     7
100
AcDbLine
 10
34.57340046594379
 20
61.7145930482124
 30
0.0
 11
37.62079822347087
 21
68.24975871478061
 31
0.0
  0
LINE
  5
64
330
1F
100
AcDbEntity
  8
VIEW0002
  6
Continuous
 62
     7
100
AcDbLine
 10
15.32434080190413
 20
82.78862222967142
 30
0.0
 11
30.46396116949983
 21
83.31730939799368
 31
0.0
  0
LINE
  5
65
330
1F
100
AcDbEntity
  8
VIEW0002
  6
Continuous
 62
     7
100
AcDbLine
 10
38.22668504194395
 20
72.81732749110742
 30
0.0
 11
33.21393878219295
 21
72.81732749110742
 31
0.0
  0
LINE
  5
66
330
1F
100
AcDbEntity
  8
VIEW0002
  6
Continuous
 62
     7
100
AcDbLine
 10
45.60353676248181
 20
68.75870975466076
 30
0.0
 11
42.06509344235543
 21
68.63514459689824
 31
0.0
  0
LINE
  5
67
330
1F
100
AcDbEntity
  8
VIEW0002
  6
Continuous
 62
     7
100
AcDbLine
 10
45.60353676248182
 20
82.78865302921513
 30
0.0
 11
30.46396866668244
 21
83.31733837216613
 31
0.0
  0
LINE
  5
68
330
1F
100
AcDbEntity
  8
VIEW0002
  6
Continuous
 62
     7
100
AcDbLine
 10
15.32434080190403
 20
68.75871001802449
 30
0.0
 11
18.86278958029704
 21
68.6351446696551
 31
0.0
  0
LINE
  5
69
330
1F
100
AcDbEntity
  8
VIEW0002
  6
Continuous
 62
     7
100
AcDbLine
 10
29.21393878219295
 20
71.3173274911074
 30
0.0
 11
29.21393878219295
 21
62.34853675374946
 31
0.0
  0
LINE
  5
6A
330
1F
100
AcDbEntity
  8
VIEW0002
  6
Continuous
 62
     7
100
AcDbLine
 10
22.70119252244196
 20
72.81732749110742
 30
0.0
 11
27.71393878219295
 21
72.81732749110742
 31
0.0
  0
LINE
  5
6B
330
1F
100
AcDbEntity
  8
VIEW0002
  6
Continuous
 62
     7
100
AcDbLine
 10
19.96393878219295
 20
80.81732367641015
 30
0.0
 11
40.96393878219295
 21
80.81732367641015
 31
0.0
  0
LINE
  5
6C
330
1F
100
AcDbEntity
  8
VIEW0002
  6
Continuous
 62
     7
100
AcDbLine
 10
19.96393878219295
 20
74.81732367641015
 30
0.0
 11
40.96393878219295
 21
74.81732367641015
 31
0.0
  0
LINE
  5
6D
330
1F
100
AcDbEntity
  8
VIEW0002
  6
Continuous
 62
     7
100
AcDbLine
 10
31.71393878219295
 20
71.3173274911074
 30
0.0
 11
31.71393878219295
 21
62.34852043397082
 31
0.0
  0
LINE
  5
6E
330
1F
100
AcDbEntity
  8
VIEW0002
  6
Continuous
 62
     7
100
AcDbLine
 10
7.50641476434653
 20
-38.83086863179894
 30
0.0
 11
11.12420114424789
 21
-38.83086863179894
 31
0.0
  0
LINE
  5
6F
330
1F
100
AcDbEntity
  8
VIEW0002
  6
Continuous
 62
     7
100
AcDbLine
 10
5.921730088430783
 20
-35.49786353278323
 30
0.0
 11
6.259245494820108
 21
-35.12953010064257
 31
0.0
  0
LINE
  5
70
330
1F
100
AcDbEntity
  8
VIEW0002
  6
Continuous
 62
     7
100
AcDbLine
 10
45.5130944621746
 20
-51.55681773991783
 30
0.0
 11
50.02943978430054
 21
-45.98665850929584
 31
0.0
  0
LINE
  5
71
330
1F
100
AcDbEntity
  8
VIEW0002
  6
Continuous
 62
     7
100
AcDbLine
 10
10.33008208131288
 20
-39.83086863179894
 30
0.0
 11
10.33008208131288
 21
-40.70416176292407
 31
0.0
  0
LINE
  5
72
330
1F
100
AcDbEntity
  8
VIEW0002
  6
Continuous
 62
     7
100
AcDbLine
 10
11.83008208131288
 20
-39.76258692666762
 30
0.0
 11
11.83008208131288
 21
-40.70416176292407
 31
0.0
  0
LINE
  5
73
330
1F
100
AcDbEntity
  8
VIEW0002
  6
Continuous
 62
     7
100
AcDbLine
 10
11.2231130570967
 20
-42.61927287072128
 30
0.0
 11
23.79814489837188
 21
-53.17097745077784
 31
0.0
  0
LINE
  5
74
330
1F
100
AcDbEntity
  8
VIEW0002
  6
Continuous
 62
     7
100
AcDbLine
 10
12.66689140749575
 20
-39.3923619683132
 30
0.0
 11
23.57543303477677
 21
-48.54571522444671
 31
0.0
  0
LINE
  5
75
330
1F
100
AcDbEntity
  8
VIEW0002
  6
Continuous
 62
     7
100
AcDbLine
 10
12.18729447162652
 20
-41.47020620604277
 30
0.0
 11
24.7623263129017
 21
-52.02191078609933
 31
0.0
  0
LINE
  5
76
330
1F
100
AcDbEntity
  8
VIEW0002
  6
Continuous
 62
     7
100
AcDbLine
 10
63.10140230516176
 20
-55.25586634298058
 30
0.0
 11
63.23008208131274
 21
-55.25586634298058
 31
0.0
  0
LINE
  5
77
330
1F
100
AcDbEntity
  8
VIEW0002
  6
Continuous
 62
     7
100
AcDbLine
 10
60.52401607858523
 20
-51.17848081868587
 30
0.0
 11
62.10495642608739
 21
-52.75942073541599
 31
0.0
  0
LINE
  5
78
330
1F
100
AcDbEntity
  8
VIEW0002
  6
Continuous
 62
     7
100
AcDbLine
 10
7.076172082045217
 20
-37.00265756742272
 30
0.0
 11
6.920016865558933
 21
-35.21779527042467
 31
0.0
  0
LINE
  5
79
330
1F
100
AcDbEntity
  8
VIEW0002
  6
Continuous
 62
     7
100
AcDbLine
 10
13.69535158299432
 20
-38.1666908593228
 30
0.0
 11
24.60389321027536
 21
-47.32004411545633
 31
0.0
  0
LINE
  5
7A
330
1F
100
AcDbEntity
  8
VIEW0002
  6
Continuous
 62
     7
100
AcDbLine
 10
57.38008208131289
 20
-49.60586634298058
 30
0.0
 11
57.38008208131289
 21
-50.52334837958351
 31
0.0
  0
LINE
  5
7B
330
1F
100
AcDbEntity
  8
VIEW0002
  6
Continuous
 62
     7
100
AcDbLine
 10
6.012122717175693
 20
-37.46160224554168
 30
0.0
 11
5.857000748083495
 21
-35.6885500203342
 31
0.0
  0
LINE
  5
7C
330
1F
100
AcDbEntity
  8
VIEW0002
  6
Continuous
 62
     7
100
AcDbLine
 10
59.27297539646194
 20
-52.04876053199686
 30
0.0
 11
62.04074227788553
 21
-54.81652665926383
 31
0.0
  0
LINE
  5
7D
330
1F
100
AcDbEntity
  8
VIEW0002
  6
Continuous
 62
     7
100
AcDbLine
 10
62.98008208131274
 20
-45.85586729665489
 30
0.0
 11
62.98008208131274
 21
-51.2558672966549
 31
0.0
  0
LINE
  5
7E
330
1F
100
AcDbEntity
  8
VIEW0002
  6
Continuous
 62
     7
100
AcDbLine
 10
61.30850945516251
 20
-51.7558672966549
 30
0.0
 11
62.48008208131274
 21
-51.7558672966549
 31
0.0
  0
LINE
  5
7F
330
1F
100
AcDbEntity
  8
VIEW0002
  6
Continuous
 62
     7
100
AcDbLine
 10
58.33008208131277
 20
-44.85586729665489
 30
0.0
 11
61.98008208131274
 21
-44.85586729665489
 31
0.0
  0
LINE
  5
80
330
1F
100
AcDbEntity
  8
VIEW0002
  6
Continuous
 62
     7
100
AcDbLine
 10
56.63008208131289
 20
-49.10586634298058
 30
0.0
 11
56.88008208131289
 21
-49.10586634298058
 31
0.0
  0
LINE
  5
81
330
1F
100
AcDbEntity
  8
VIEW0002
  6
Continuous
 62
     7
100
AcDbLine
 10
62.45850976851268
 20
-52.9058672966549
 30
0.0
 11
62.73008208131274
 21
-52.9058672966549
 31
0.0
  0
LINE
  5
82
330
1F
100
AcDbEntity
  8
VIEW0002
  6
Continuous
 62
     7
100
AcDbLine
 10
5.803835515706069
 20
-35.08086863179894
 30
0.0
 11
6.230514940316496
 21
-35.08086863179894
 31
0.0
  0
LINE
  5
83
330
1F
100
AcDbEntity
  8
VIEW0002
  6
Continuous
 62
     7
100
AcDbLine
 10
46.33959535822126
 20
-52.66955279659651
 30
0.0
 11
56.00800316773994
 21
-50.23526280380965
 31
0.0
  0
LINE
  5
84
330
1F
100
AcDbEntity
  8
VIEW0002
  6
Continuous
 62
     7
100
AcDbLine
 10
51.02244246519415
 20
-38.8359800953933
 30
0.0
 11
62.69518258461023
 21
-38.42835902834609
 31
0.0
  0
LINE
  5
85
330
1F
100
AcDbEntity
  8
VIEW0002
  6
Continuous
 62
     7
100
AcDbLine
 10
57.73008208131269
 20
-36.25031172942276
 30
0.0
 11
64.73008215716678
 21
-36.00586634033164
 31
0.0
  0
LINE
  5
86
330
1F
100
AcDbEntity
  8
VIEW0002
  6
Continuous
 62
     7
100
AcDbLine
 10
55.53078266215819
 20
-48.72645682042936
 30
0.0
 11
55.06272758016799
 21
-50.47326216715757
 31
0.0
  0
LINE
  5
87
330
1F
100
AcDbEntity
  8
VIEW0002
  6
Continuous
 62
     7
100
AcDbLine
 10
56.63008208131289
 20
-48.85586634298055
 30
0.0
 11
56.63008208131289
 21
-50.72013055780134
 31
0.0
  0
LINE
  5
88
330
1F
100
AcDbEntity
  8
VIEW0002
  6
Continuous
 62
     7
100
AcDbLine
 10
56.01374557530234
 20
-48.35586634298058
 30
0.0
 11
56.13008208131284
 21
-48.35586634298058
 31
0.0
  0
LINE
  5
89
330
1F
100
AcDbEntity
  8
VIEW0002
  6
Continuous
 62
     7
100
AcDbLine
 10
53.13646277917844
 20
-44.50586634298058
 30
0.0
 11
62.73008208131274
 21
-44.50586634298058
 31
0.0
  0
LINE
  5
8A
330
1F
100
AcDbEntity
  8
VIEW0002
  6
Continuous
 62
     7
100
AcDbLine
 10
42.84927952987665
 20
-48.35586634298058
 30
0.0
 11
45.70075630730885
 21
-48.35586634298058
 31
0.0
  0
LINE
  5
8B
330
1F
100
AcDbEntity
  8
VIEW0002
  6
Continuous
 62
     7
100
AcDbLine
 10
45.39838792792069
 20
-44.50586634298058
 30
0.0
 11
48.24986470535283
 21
-44.50586634298058
 31
0.0
  0
LINE
  5
8C
330
1F
100
AcDbEntity
  8
VIEW0002
  6
Continuous
 62
     7
100
AcDbLine
 10
27.17504364902122
 20
-49.85586634298058
 30
0.0
 11
43.91202686751502
 21
-49.85586634298058
 31
0.0
  0
LINE
  5
8D
330
1F
100
AcDbEntity
  8
VIEW0002
  6
Continuous
 62
     7
100
AcDbLine
 10
42.26485413143367
 20
-47.78275731013945
 30
0.0
 11
48.50013120833642
 21
-40.09258224862605
 31
0.0
  0
LINE
  5
8E
330
1F
100
AcDbEntity
  8
VIEW0002
  6
Continuous
 62
     7
100
AcDbLine
 10
25.40511392258803
 20
-52.25586634298058
 30
0.0
 11
42.53859414514666
 21
-52.25586634298058
 31
0.0
  0
LINE
  5
8F
330
1F
100
AcDbEntity
  8
VIEW0002
  6
Continuous
 62
     7
100
AcDbLine
 10
41.02204493348242
 20
-46.77507417666557
 30
0.0
 11
47.25732201038524
 21
-39.08489911515209
 31
0.0
  0
LINE
  5
90
330
1F
100
AcDbEntity
  8
VIEW0002
  6
Continuous
 62
     7
100
AcDbLine
 10
57.90468592877177
 20
8.994133657019436
 30
0.0
 11
57.73008208131303
 21
13.99413365701937
 31
0.0
  0
LINE
  5
91
330
1F
100
AcDbEntity
  8
VIEW0002
  6
Continuous
 62
     7
100
AcDbLine
 10
43.31534989386617
 20
-51.88566830140189
 30
0.0
 11
44.30040482581481
 21
-50.67076721866523
 31
0.0
  0
LINE
  5
92
330
1F
100
AcDbEntity
  8
VIEW0002
  6
Continuous
 62
     7
100
AcDbLine
 10
27.17504364902128
 20
-48.25586634298058
 30
0.0
 11
37.91502193860426
 21
-48.25586634298058
 31
0.0
  0
LINE
  5
93
330
1F
100
AcDbEntity
  8
VIEW0002
  6
Continuous
 62
     7
100
AcDbLine
 10
25.40511392258803
 20
-53.75586634298058
 30
0.0
 11
46.20756994865219
 21
-53.75586634298058
 31
0.0
  0
LINE
  5
94
330
1F
100
AcDbEntity
  8
VIEW0002
  6
Continuous
 62
     7
100
AcDbLine
 10
47.18711736771452
 20
-43.00586634298055
 30
0.0
 11
62.73008208131274
 21
-43.00586634298055
 31
0.0
  0
LINE
  5
95
330
1F
100
AcDbEntity
  8
VIEW0002
  6
Continuous
 62
     7
100
AcDbLine
 10
46.84203528193912
 20
-53.67401723588547
 30
0.0
 11
57.00697514797028
 21
-51.00697855816446
 31
0.0
  0
LINE
  5
96
330
1F
100
AcDbEntity
  8
VIEW0002
  6
Continuous
 62
     7
100
AcDbLine
 10
63.73008208131321
 20
-64.50586634298024
 30
0.0
 11
64.73008215451834
 21
-65.50586634298026
 31
0.0
  0
LINE
  5
97
330
1F
100
AcDbEntity
  8
VIEW0002
  6
Continuous
 62
     7
100
AcDbLine
 10
63.7300820813129
 20
-37.00586634298082
 30
0.0
 11
64.73008215451803
 21
-36.00586634298081
 31
0.0
  0
LINE
  5
98
330
1F
100
AcDbEntity
  8
VIEW0002
  6
Continuous
 62
     7
100
AcDbLine
 10
57.28789018005229
 20
-37.01621056910211
 30
0.0
 11
57.73008208131309
 21
-36.25031172942295
 31
0.0
  0
LINE
  5
99
330
1F
100
AcDbEntity
  8
VIEW0002
  6
Continuous
 62
     7
100
AcDbLine
 10
64.73008215451786
 20
-65.50586634298058
 30
0.0
 11
67.48008208131274
 21
-65.50586634298058
 31
0.0
  0
LINE
  5
9A
330
1F
100
AcDbEntity
  8
VIEW0002
  6
Continuous
 62
     7
100
AcDbLine
 10
64.73008208131274
 20
-36.00586641618567
 30
0.0
 11
64.73008208131274
 21
-65.50586626977541
 31
0.0
  0
LINE
  5
9B
330
1F
100
AcDbEntity
  8
VIEW0002
  6
Continuous
 62
     7
100
AcDbLine
 10
67.48008208131274
 20
-36.00586634298055
 30
0.0
 11
67.48008208131274
 21
-65.50586634298055
 31
0.0
  0
LINE
  5
9C
330
1F
100
AcDbEntity
  8
VIEW0002
  6
Continuous
 62
     7
100
AcDbLine
 10
63.73008208131274
 20
-37.00586634298055
 30
0.0
 11
63.73008208131274
 21
-64.50586634298055
 31
0.0
  0
LINE
  5
9D
330
1F
100
AcDbEntity
  8
VIEW0002
  6
Continuous
 62
     7
100
AcDbLine
 10
64.73008215451786
 20
-36.00586634298055
 30
0.0
 11
67.48008208131274
 21
-36.00586634298055
 31
0.0
  0
LINE
  5
9E
330
1F
100
AcDbEntity
  8
VIEW0002
  6
Continuous
 62
     7
100
AcDbLine
 10
5.840733787107474
 20
-35.50261780502659
 30
0.0
 11
5.803835515706348
 21
-35.08086863179896
 31
0.0
  0
LINE
  5
9F
330
1F
100
AcDbEntity
  8
VIEW0002
  6
Continuous
 62
     7
100
AcDbLine
 10
7.325220756573643
 20
-37.23086863179891
 30
0.0
 11
11.12420114424795
 21
-37.23086863179891
 31
0.0
  0
LINE
  5
A0
330
1F
100
AcDbEntity
  8
VIEW0002
  6
Continuous
 62
     7
100
AcDbLine
 10
6.36983709532872
 20
-35.08086863179894
 30
0.0
 11
6.770587660841855
 21
-35.08086863179894
 31
0.0
  0
LINE
  5
A1
330
1F
100
AcDbEntity
  8
VIEW0002
  6
Continuous
 62
     7
100
AcDbLine
 10
50.96660327047008
 20
-37.23695477216265
 30
0.0
 11
57.2878901800519
 21
-37.01621056910194
 31
0.0
  0
LINE
  5
A2
330
1F
100
AcDbEntity
  8
VIEW0002
  6
Continuous
 62
     7
100
AcDbLine
 10
58.98008208131274
 20
-51.0058672966549
 30
0.0
 11
58.98008208131274
 21
-51.34165365447471
 31
0.0
  0
LINE
  5
A3
330
1F
100
AcDbEntity
  8
VIEW0002
  6
Continuous
 62
     7
100
AcDbLine
 10
5.803835515706308
 20
13.99413365701979
 30
0.0
 11
5.930940055444161
 21
18.84806019926596
 31
0.0
  0
LINE
  5
A4
330
1F
100
AcDbEntity
  8
VIEW0002
  6
Continuous
 62
     7
100
AcDbLine
 10
6.260257644458963
 20
13.99413365701982
 30
0.0
 11
6.387362184196816
 21
18.84806019926598
 31
0.0
  0
LINE
  5
A5
330
1F
100
AcDbEntity
  8
VIEW0002
  6
Continuous
 62
     7
100
AcDbLine
 10
6.899208986419071
 20
9.140207114773531
 30
0.0
 11
7.026313526156926
 21
13.99413365701978
 31
0.0
  0
LINE
  5
A6
330
1F
100
AcDbEntity
  8
VIEW0002
  6
Continuous
 62
     7
100
AcDbLine
 10
25.71916271195638
 20
13.99413365701946
 30
0.0
 11
25.41334960075911
 21
8.994133657019459
 31
0.0
  0
LINE
  5
A7
330
1F
100
AcDbEntity
  8
VIEW0002
  6
Continuous
 62
     7
100
AcDbLine
 10
25.54455887266413
 20
18.99413365701947
 30
0.0
 11
25.71916271195651
 21
13.99413365701952
 31
0.0
  0
LINE
  5
A8
330
1F
100
AcDbEntity
  8
VIEW0002
  6
Continuous
 62
     7
100
AcDbLine
 10
57.59370328080475
 20
8.994133657019422
 30
0.0
 11
57.28789018005232
 21
13.99413365701947
 31
0.0
  0
LINE
  5
A9
330
1F
100
AcDbEntity
  8
VIEW0002
  6
Continuous
 62
     7
100
AcDbLine
 10
57.73008208131278
 20
13.99413365701936
 30
0.0
 11
57.90468592877152
 21
18.99413365701944
 31
0.0
  0
LINE
  5
AA
330
1F
100
AcDbEntity
  8
VIEW0002
  6
Continuous
 62
     7
100
AcDbLine
 10
57.28789018005192
 20
13.99413365701948
 30
0.0
 11
57.46249402751065
 21
18.99413365701944
 31
0.0
  0
LINE
  5
AB
330
1F
100
AcDbEntity
  8
VIEW0002
  6
Continuous
 62
     7
100
AcDbLine
 10
63.79534177572929
 20
6.515959192166138
 30
0.0
 11
63.88716468793873
 21
-4.005904419916013
 31
0.0
  0
LINE
  5
AC
330
1F
100
AcDbEntity
  8
VIEW0002
  6
Continuous
 62
     7
100
AcDbLine
 10
6.73735492599436
 20
9.140207114773546
 30
0.0
 11
6.864459465732215
 21
13.99413365701979
 31
0.0
  0
LINE
  5
AD
330
1F
100
AcDbEntity
  8
VIEW0002
  6
Continuous
 62
     7
100
AcDbLine
 10
6.080888654190332
 20
8.994133657019791
 30
0.0
 11
62.29548125123459
 21
8.994133657019436
 31
0.0
  0
LINE
  5
AE
330
1F
100
AcDbEntity
  8
VIEW0002
  6
Continuous
 62
     7
100
AcDbLine
 10
6.080888654190342
 20
18.99413365701979
 30
0.0
 11
62.2954812512346
 21
18.99413365701944
 31
0.0
  0
LINE
  5
AF
330
1F
100
AcDbEntity
  8
VIEW0002
  6
Continuous
 62
     7
100
AcDbLine
 10
64.79537986423401
 20
6.515958032614948
 30
0.0
 11
64.89592930178021
 21
-5.005866342980518
 31
0.0
  0
LINE
  5
B0
330
1F
100
AcDbEntity
  8
VIEW0002
  6
Continuous
 62
     7
100
AcDbLine
 10
64.89586977504018
 20
32.98540704836112
 30
0.0
 11
64.7953964464993
 21
21.47230390099034
 31
0.0
  0
LINE
  5
B1
330
1F
100
AcDbEntity
  8
VIEW0002
  6
Continuous
 62
     7
100
AcDbLine
 10
7.026313526156935
 20
13.99413365701979
 30
0.0
 11
6.899208986419083
 21
18.84806019926596
 31
0.0
  0
LINE
  5
B2
330
1F
100
AcDbEntity
  8
VIEW0002
  6
Continuous
 62
     7
100
AcDbLine
 10
67.48008208131274
 20
32.99413365701945
 30
0.0
 11
67.48008208131274
 21
-5.005866342980553
 31
0.0
  0
LINE
  5
B3
330
1F
100
AcDbEntity
  8
VIEW0002
  6
Continuous
 62
     7
100
AcDbLine
 10
63.88718131715842
 20
31.99417173395491
 30
0.0
 11
63.79535835799466
 21
21.47230274143921
 31
0.0
  0
LINE
  5
B4
330
1F
100
AcDbEntity
  8
VIEW0002
  6
Continuous
 62
     7
100
AcDbLine
 10
6.387362184196871
 20
9.140207114773503
 30
0.0
 11
6.260257644459016
 21
13.99413365701976
 31
0.0
  0
LINE
  5
B5
330
1F
100
AcDbEntity
  8
VIEW0002
  6
Continuous
 62
     7
100
AcDbLine
 10
5.93094005544423
 20
9.140207114773535
 30
0.0
 11
5.803835515706376
 21
13.9941336570198
 31
0.0
  0
LINE
  5
B6
330
1F
100
AcDbEntity
  8
VIEW0002
  6
Continuous
 62
     7
100
AcDbLine
 10
6.864459465732199
 20
13.99413365701976
 30
0.0
 11
6.737354925994347
 21
18.84806019926593
 31
0.0
  0
LINE
  5
B7
330
1F
100
AcDbEntity
  8
VIEW0002
  6
Continuous
 62
     7
100
AcDbLine
 10
-46.66991791868689
 20
-35.8570347660043
 30
0.0
 11
-46.66991791868689
 21
-49.48540060738038
 31
0.0
  0
LINE
  5
B8
330
1F
100
AcDbEntity
  8
VIEW0002
  6
Continuous
 62
     7
100
AcDbLine
 10
12.58008208131282
 20
13.99413365701941
 30
0.0
 11
12.27426897011554
 21
8.994133657019404
 31
0.0
  0
LINE
  5
B9
330
1F
100
AcDbEntity
  8
VIEW0002
  6
Continuous
 62
     7
100
AcDbLine
 10
12.4054782420204
 20
18.99413365701949
 30
0.0
 11
12.58008208131278
 21
13.99413365701954
 31
0.0
  0
LINE
  5
BA
330
1F
100
AcDbEntity
  8
VIEW0002
  6
Continuous
 62
     7
100
AcDbLine
 10
39.99600647576249
 20
18.99413365701946
 30
0.0
 11
39.82140263647011
 21
13.99413365701945
 31
0.0
  0
LINE
  5
BB
330
1F
100
AcDbEntity
  8
VIEW0002
  6
Continuous
 62
     7
100
AcDbLine
 10
48.67642914547807
 20
18.99413365701945
 30
0.0
 11
48.50182530618569
 21
13.99413365701946
 31
0.0
  0
LINE
  5
BC
330
1F
100
AcDbEntity
  8
VIEW0002
  6
Continuous
 62
     7
100
AcDbLine
 10
48.5018253061857
 20
13.99413365701945
 30
0.0
 11
48.80763841738298
 21
8.994133657019447
 31
0.0
  0
LINE
  5
BD
330
1F
100
AcDbEntity
  8
VIEW0002
  6
Continuous
 62
     7
100
AcDbLine
 10
39.82140263647007
 20
13.99413365701945
 30
0.0
 11
40.12721574766734
 21
8.994133657019452
 31
0.0
  0
LINE
  5
BE
330
1F
100
AcDbEntity
  8
VIEW0002
  6
Continuous
 62
     7
100
AcDbLine
 10
-47.91991791868689
 20
-39.07186183968743
 30
0.0
 11
-47.91991791868689
 21
-54.88540060738036
 31
0.0
  0
LINE
  5
BF
330
1F
100
AcDbEntity
  8
VIEW0002
  6
Continuous
 62
     7
100
AcDbLine
 10
-56.66991791868689
 20
-35.73831539695044
 30
0.0
 11
-56.66991791868689
 21
-49.43006014116544
 31
0.0
  0
LINE
  5
C0
330
1F
100
AcDbEntity
  8
VIEW0002
  6
Continuous
 62
     7
100
AcDbLine
 10
-55.41991791868689
 20
-39.18276013360834
 30
0.0
 11
-55.41991791868689
 21
-54.98006014116542
 31
0.0
  0
LINE
  5
C1
330
1F
100
AcDbEntity
  8
VIEW0002
  6
Continuous
 62
     7
100
AcDbLine
 10
-51.66991791868663
 20
-53.75586634298037
 30
0.0
 11
-48.06076063775667
 21
-53.53512082714349
 31
0.0
  0
LINE
  5
C2
330
1F
100
AcDbEntity
  8
VIEW0002
  6
Continuous
 62
     7
100
AcDbLine
 10
-55.27515284319227
 20
-53.62996876521824
 30
0.0
 11
-51.6699179186866
 21
-53.7558663429805
 31
0.0
  0
LINE
  5
C3
330
1F
100
AcDbEntity
  8
VIEW0002
  6
Continuous
 62
     7
100
AcDbLine
 10
-56.52515284319227
 20
-49.57996876521816
 30
0.0
 11
-55.41991791868687
 21
-49.61856441925104
 31
0.0
  0
LINE
  5
C4
330
1F
100
AcDbEntity
  8
VIEW0002
  6
Continuous
 62
     7
100
AcDbLine
 10
-51.66991791868909
 20
-35.08086863179885
 30
0.0
 11
-47.13939364892161
 21
-35.35796736679319
 31
0.0
  0
LINE
  5
C5
330
1F
100
AcDbEntity
  8
VIEW0002
  6
Continuous
 62
     7
100
AcDbLine
 10
-56.18736766704033
 20
-35.23862145315175
 30
0.0
 11
-51.6699179186891
 21
-35.08086863179902
 31
0.0
  0
LINE
  5
C6
330
1F
100
AcDbEntity
  8
VIEW0002
  6
Continuous
 62
     7
100
AcDbLine
 10
-56.52515284319227
 20
-38.66132009217188
 30
0.0
 11
-51.66991791868692
 21
-38.83086863179881
 31
0.0
  0
LINE
  5
C7
330
1F
100
AcDbEntity
  8
VIEW0002
  6
Continuous
 62
     7
100
AcDbLine
 10
-51.66991791868696
 20
-38.83086863179886
 30
0.0
 11
-46.81076063775669
 21
-38.53366984077387
 31
0.0
  0
LINE
  5
C8
330
1F
100
AcDbEntity
  8
VIEW0002
  6
Continuous
 62
     7
100
AcDbLine
 10
-56.18736766703817
 20
-36.03671842073869
 30
0.0
 11
-51.66991791868693
 21
-35.87896559938596
 31
0.0
  0
LINE
  5
C9
330
1F
100
AcDbEntity
  8
VIEW0002
  6
Continuous
 62
     7
100
AcDbLine
 10
-51.66991791868696
 20
-35.87896559938591
 30
0.0
 11
-47.13939364891951
 21
-36.15606433438025
 31
0.0
  0
LINE
  5
CA
330
1F
100
AcDbEntity
  8
VIEW0002
  6
Continuous
 62
     7
100
AcDbLine
 10
-47.91991791868687
 20
-49.70295979260416
 30
0.0
 11
-46.81076063775664
 21
-49.63512082714348
 31
0.0
  0
LINE
  5
CB
330
1F
100
AcDbEntity
  8
VIEW0002
  6
Continuous
 62
     7
100
AcDbLine
 10
-47.13837824217674
 20
-62.6189556193223
 30
0.0
 11
-42.24728900449218
 21
-52.12998076223775
 31
0.0
  0
LINE
  5
CC
330
1F
100
AcDbEntity
  8
VIEW0002
  6
Continuous
 62
     7
100
AcDbLine
 10
-61.0925397124411
 20
-52.12997971229419
 30
0.0
 11
-56.20144886259583
 21
-62.61895802666858
 31
0.0
  0
LINE
  5
CD
330
1F
100
AcDbEntity
  8
VIEW0002
  6
Continuous
 62
     7
100
AcDbLine
 10
-66.80951589897572
 20
-36.5345716044165
 30
0.0
 11
-56.66991791868687
 21
-36.18048905716856
 31
0.0
  0
LINE
  5
CE
330
1F
100
AcDbEntity
  8
VIEW0002
  6
Continuous
 62
     7
100
AcDbLine
 10
-36.53031993839803
 20
-50.5644840794272
 30
0.0
 11
-40.0687632585243
 21
-50.6880492371897
 31
0.0
  0
LINE
  5
CF
330
1F
100
AcDbEntity
  8
VIEW0002
  6
Continuous
 62
     7
100
AcDbLine
 10
-36.53031993839799
 20
-36.53454080487281
 30
0.0
 11
-46.66991791868684
 21
-36.18045825762487
 31
0.0
  0
LINE
  5
D0
330
1F
100
AcDbEntity
  8
VIEW0002
  6
Continuous
 62
     7
100
AcDbLine
 10
64.90475003717559
 20
32.99413365701945
 30
0.0
 11
67.48008208131274
 21
32.99413365701945
 31
0.0
  0
LINE
  5
D1
330
1F
100
AcDbEntity
  8
VIEW0002
  6
Continuous
 62
     7
100
AcDbLine
 10
-66.80951589897573
 20
-50.5644838160635
 30
0.0
 11
-63.27106712058279
 21
-50.68804916443287
 31
0.0
  0
LINE
  5
D2
330
1F
100
AcDbEntity
  8
VIEW0002
  6
Continuous
 62
     7
100
AcDbLine
 10
60.48008208131274
 20
-51.0058672966549
 30
0.0
 11
60.48008208131274
 21
-51.0724147870576
 31
0.0
  0
LINE
  5
D3
330
1F
100
AcDbEntity
  8
VIEW0002
  6
Continuous
 62
     7
100
AcDbLine
 10
-51.66991791868706
 20
-55.2558663429804
 30
0.0
 11
-48.06076063775672
 21
-55.0351208271435
 31
0.0
  0
LINE
  5
D4
330
1F
100
AcDbEntity
  8
VIEW0002
  6
Continuous
 62
     7
100
AcDbLine
 10
-55.27515284319226
 20
-55.12996876521839
 30
0.0
 11
-51.66991791868699
 21
-55.25586634298063
 31
0.0
  0
LINE
  5
D5
330
1F
100
AcDbEntity
  8
VIEW0002
  6
Continuous
 62
     7
100
AcDbLine
 10
46.47751190587186
 20
-47.98566848659487
 30
0.0
 11
48.6382425797126
 21
-45.32076732219128
 31
0.0
  0
LINE
  5
D6
330
1F
100
AcDbEntity
  8
VIEW0002
  6
Continuous
 62
     7
100
AcDbLine
 10
11.46393878219295
 20
78.79105892136731
 30
0.0
 11
11.46393878219295
 21
72.7562733263286
 31
0.0
  0
LINE
  5
D7
330
1F
100
AcDbEntity
  8
VIEW0002
  6
Continuous
 62
     7
100
AcDbLine
 10
49.46393878219295
 20
78.791089720911
 30
0.0
 11
49.46393878219295
 21
72.75627306296485
 31
0.0
  0
LINE
  5
D8
330
1F
100
AcDbEntity
  8
VIEW0002
  6
Continuous
 62
     7
100
AcDbLine
 10
64.90473340795582
 20
-5.005866342980553
 30
0.0
 11
67.48008208131274
 21
-5.005866342980553
 31
0.0
  0
LINE
  5
D9
330
1F
100
AcDbEntity
  8
VIEW0002
  6
Continuous
 62
     7
100
AcDbLine
 10
63.88718131715822
 20
31.99417173395479
 30
0.0
 11
64.90475003717569
 21
32.99413365701933
 31
0.0
  0
LINE
  5
DA
330
1F
100
AcDbEntity
  8
VIEW0002
  6
Continuous
 62
     7
100
AcDbLine
 10
63.88716468793857
 20
-4.005904419915826
 30
0.0
 11
64.90473340795603
 21
-5.005866342980379
 31
0.0
  0
LINE
  5
DB
330
1F
100
AcDbEntity
  8
VIEW0002
  6
CENTER
 62
     7
100
AcDbLine
 10
14.96393878219295
 20
82.39232372409386
 30
0.0
 11
14.96393878219295
 21
75.24232362872642
 31
0.0
  0
LINE
  5
DC
330
1F
100
AcDbEntity
  8
VIEW0002
  6
CENTER
 62
     7
100
AcDbLine
 10
11.38893873450924
 20
78.81732367641015
 30
0.0
 11
18.53893882987667
 21
78.81732367641015
 31
0.0
  0
LINE
  5
DD
330
1F
100
AcDbEntity
  8
VIEW0002
  6
CENTER
 62
     7
100
AcDbLine
 10
15.46393878219295
 20
77.9423274911074
 30
0.0
 11
15.46393878219295
 21
69.6923274911074
 31
0.0
  0
LINE
  5
DE
330
1F
100
AcDbEntity
  8
VIEW0002
  6
CENTER
 62
     7
100
AcDbLine
 10
11.33893878219295
 20
73.81732749110742
 30
0.0
 11
19.58893878219295
 21
73.81732749110742
 31
0.0
  0
LINE
  5
DF
330
1F
100
AcDbEntity
  8
VIEW0002
  6
CENTER
 62
     7
100
AcDbLine
 10
30.46393878219295
 20
85.81733837216612
 30
0.0
 11
30.46393878219295
 21
51.31732749110741
 31
0.0
  0
LINE
  5
E0
330
1F
100
AcDbEntity
  8
VIEW0002
  6
CENTER
 62
     7
100
AcDbLine
 10
26.88893873450924
 20
57.81732749110741
 30
0.0
 11
34.03893882987667
 21
57.81732749110741
 31
0.0
  0
LINE
  5
E1
330
1F
100
AcDbEntity
  8
VIEW0002
  6
CENTER
 62
     7
100
AcDbLine
 10
45.46393878219295
 20
77.9423274911074
 30
0.0
 11
45.46393878219295
 21
69.6923274911074
 31
0.0
  0
LINE
  5
E2
330
1F
100
AcDbEntity
  8
VIEW0002
  6
CENTER
 62
     7
100
AcDbLine
 10
41.33893878219295
 20
73.81732749110742
 30
0.0
 11
49.58893878219295
 21
73.81732749110742
 31
0.0
  0
LINE
  5
E3
330
1F
100
AcDbEntity
  8
VIEW0002
  6
CENTER
 62
     7
100
AcDbLine
 10
45.96393878219295
 20
82.39232372409386
 30
0.0
 11
45.96393878219295
 21
75.24232362872642
 31
0.0
  0
LINE
  5
E4
330
1F
100
AcDbEntity
  8
VIEW0002
  6
CENTER
 62
     7
100
AcDbLine
 10
42.38893873450924
 20
78.81732367641015
 30
0.0
 11
49.53893882987667
 21
78.81732367641015
 31
0.0
  0
ARC
  5
E5
330
1F
100
AcDbEntity
  8
VIEW0002
  6
Continuous
 62
     7
100
AcDbCircle
 10
18.77553851363827
 20
66.13666724330469
 30
0.0
 40
2.5
100
AcDbArc
 50
25.00000012650595
 51
88.00000017209338
  0
ARC
  5
E6
330
1F
100
AcDbEntity
  8
VIEW0002
  6
Continuous
 62
     7
100
AcDbCircle
 10
42.15233905074764
 20
66.13666724330469
 30
0.0
 40
2.5
100
AcDbArc
 50
91.99999800667379
 51
154.9999963447139
  0
ARC
  5
E7
330
1F
100
AcDbEntity
  8
VIEW0002
  6
Continuous
 62
     7
100
AcDbCircle
 10
40.96393878219295
 20
79.31732367641015
 30
0.0
 40
1.5
100
AcDbArc
 50
0.0
 51
90.00000000000001
  0
ARC
  5
E8
330
1F
100
AcDbEntity
  8
VIEW0002
  6
Continuous
 62
     7
100
AcDbCircle
 10
27.71393878219295
 20
71.31732749110742
 30
0.0
 40
1.5
100
AcDbArc
 50
0.0
 51
90.00000000000001
  0
ARC
  5
E9
330
1F
100
AcDbEntity
  8
VIEW0002
  6
Continuous
 62
     7
100
AcDbCircle
 10
15.46393878219295
 20
78.79105892136732
 30
0.0
 40
4.0
100
AcDbArc
 50
91.99999990653448
 51
180.0
  0
ARC
  5
EA
330
1F
100
AcDbEntity
  8
VIEW0002
  6
Continuous
 62
     7
100
AcDbCircle
 10
19.96393878219295
 20
79.31732367641015
 30
0.0
 40
1.5
100
AcDbArc
 50
90.00000000000001
 51
180.0
  0
ARC
  5
EB
330
1F
100
AcDbEntity
  8
VIEW0002
  6
Continuous
 62
     7
100
AcDbCircle
 10
33.21393878219295
 20
71.31732749110742
 30
0.0
 40
1.5
100
AcDbArc
 50
90.00000000000001
 51
180.0
  0
ARC
  5
EC
330
1F
100
AcDbEntity
  8
VIEW0002
  6
Continuous
 62
     7
100
AcDbCircle
 10
22.70119252244196
 20
71.31732749110742
 30
0.0
 40
1.5
100
AcDbArc
 50
90.00000000000001
 51
232.8469096853696
  0
ARC
  5
ED
330
1F
100
AcDbEntity
  8
VIEW0002
  6
Continuous
 62
     7
100
AcDbCircle
 10
42.15233905074764
 20
66.13666724330469
 30
0.0
 40
5.0
100
AcDbArc
 50
127.1530903146307
 51
154.9999963447139
  0
ARC
  5
EE
330
1F
100
AcDbEntity
  8
VIEW0002
  6
Continuous
 62
     7
100
AcDbCircle
 10
40.96393878219295
 20
76.31732367641015
 30
0.0
 40
1.5
100
AcDbArc
 50
270.0
 51
0.0
  0
ARC
  5
EF
330
1F
100
AcDbEntity
  8
VIEW0002
  6
Continuous
 62
     7
100
AcDbCircle
 10
30.46393878219295
 20
58.81732749110741
 30
0.0
 40
5.0
100
AcDbArc
 50
205.0000036552861
 51
334.9999998734941
  0
CIRCLE
  5
F0
330
1F
100
AcDbEntity
  8
VIEW0002
  6
Continuous
 62
     7
100
AcDbCircle
 10
45.96393878219295
 20
78.81732367641015
 30
0.0
 40
1.075000047683716
  0
CIRCLE
  5
F1
330
1F
100
AcDbEntity
  8
VIEW0002
  6
Continuous
 62
     7
100
AcDbCircle
 10
45.46393878219295
 20
73.81732749110742
 30
0.0
 40
1.625
  0
CIRCLE
  5
F2
330
1F
100
AcDbEntity
  8
VIEW0002
  6
Continuous
 62
     7
100
AcDbCircle
 10
30.46393878219295
 20
57.81732749110741
 30
0.0
 40
1.075000047683716
  0
ARC
  5
F3
330
1F
100
AcDbEntity
  8
VIEW0002
  6
Continuous
 62
     7
100
AcDbCircle
 10
38.22668504194395
 20
71.31732749110742
 30
0.0
 40
1.5
100
AcDbArc
 50
307.1530903146304
 51
90.0
  0
ARC
  5
F4
330
1F
100
AcDbEntity
  8
VIEW0002
  6
Continuous
 62
     7
100
AcDbCircle
 10
33.21393878219295
 20
62.34852043397083
 30
0.0
 40
1.5
100
AcDbArc
 50
180.0
 51
335.0000002888146
  0
ARC
  5
F5
330
1F
100
AcDbEntity
  8
VIEW0002
  6
Continuous
 62
     7
100
AcDbCircle
 10
18.77553851363827
 20
66.13666724330469
 30
0.0
 40
5.0
100
AcDbArc
 50
25.00000012650595
 51
52.84691040982047
  0
CIRCLE
  5
F6
330
1F
100
AcDbEntity
  8
VIEW0002
  6
Continuous
 62
     7
100
AcDbCircle
 10
14.96393878219295
 20
78.81732367641015
 30
0.0
 40
1.075000047683716
  0
CIRCLE
  5
F7
330
1F
100
AcDbEntity
  8
VIEW0002
  6
Continuous
 62
     7
100
AcDbCircle
 10
15.46393878219295
 20
73.81732749110742
 30
0.0
 40
1.625
  0
ARC
  5
F8
330
1F
100
AcDbEntity
  8
VIEW0002
  6
Continuous
 62
     7
100
AcDbCircle
 10
19.96393878219295
 20
76.31732367641015
 30
0.0
 40
1.5
100
AcDbArc
 50
180.0
 51
270.0
  0
ARC
  5
F9
330
1F
100
AcDbEntity
  8
VIEW0002
  6
Continuous
 62
     7
100
AcDbCircle
 10
53.13646277917844
 20
-48.50586634298058
 30
0.0
 40
4.0
100
AcDbArc
 50
90.00000000000001
 51
140.9644871012532
  0
ARC
  5
FA
330
1F
100
AcDbEntity
  8
VIEW0002
  6
Continuous
 62
     7
100
AcDbCircle
 10
27.71393878219295
 20
62.34853675374946
 30
0.0
 40
1.5
100
AcDbArc
 50
204.9999997111854
 51
0.0
  0
ARC
  5
FB
330
1F
100
AcDbEntity
  8
VIEW0002
  6
Continuous
 62
     7
100
AcDbCircle
 10
12.33008208131288
 20
-39.76258692666762
 30
0.0
 40
0.5
100
AcDbArc
 50
50.6041769984197
 51
180.0
  0
ARC
  5
FC
330
1F
100
AcDbEntity
  8
VIEW0002
  6
Continuous
 62
     7
100
AcDbCircle
 10
11.12420114424789
 20
-41.23086863179891
 30
0.0
 40
2.4
100
AcDbArc
 50
49.99999999999993
 51
90.00000000000001
  0
ARC
  5
FD
330
1F
100
AcDbEntity
  8
VIEW0002
  6
Continuous
 62
     7
100
AcDbCircle
 10
7.325220756573643
 20
-36.98086863179891
 30
0.0
 40
0.25
100
AcDbArc
 50
184.9999999854765
 51
270.0
  0
ARC
  5
FE
330
1F
100
AcDbEntity
  8
VIEW0002
  6
Continuous
 62
     7
100
AcDbCircle
 10
42.53859414514666
 20
-51.25586634298058
 30
0.0
 40
1.0
100
AcDbArc
 50
270.0
 51
320.9644871012528
  0
ARC
  5
FF
330
1F
100
AcDbEntity
  8
VIEW0002
  6
Continuous
 62
     7
100
AcDbCircle
 10
25.40511392258803
 20
-51.25586634298058
 30
0.0
 40
2.5
100
AcDbArc
 50
230.0000000000002
 51
270.0
  0
ARC
  5
100
330
1F
100
AcDbEntity
  8
VIEW0002
  6
Continuous
 62
     7
100
AcDbCircle
 10
6.770587660841855
 20
-35.23086863179897
 30
0.0
 40
0.15
100
AcDbArc
 50
4.999999985475116
 51
90.00000000000001
  0
ARC
  5
101
330
1F
100
AcDbEntity
  8
VIEW0002
  6
Continuous
 62
     7
100
AcDbCircle
 10
9.33008208131288
 20
-39.83086863179894
 30
0.0
 40
1.0
100
AcDbArc
 50
0.0
 51
90.00000000000001
  0
ARC
  5
102
330
1F
100
AcDbEntity
  8
VIEW0002
  6
Continuous
 62
     7
100
AcDbCircle
 10
11.12420114424795
 20
-41.23086863179891
 30
0.0
 40
4.0
100
AcDbArc
 50
50.00000000000014
 51
90.00000000000001
  0
ARC
  5
103
330
1F
100
AcDbEntity
  8
VIEW0002
  6
Continuous
 62
     7
100
AcDbCircle
 10
12.83008208131288
 20
-40.70416176292407
 30
0.0
 40
1.0
100
AcDbArc
 50
180.0
 51
230.0000000000001
  0
ARC
  5
104
330
1F
100
AcDbEntity
  8
VIEW0002
  6
Continuous
 62
     7
100
AcDbCircle
 10
12.83008208131288
 20
-40.70416176292407
 30
0.0
 40
2.5
100
AcDbArc
 50
180.0
 51
229.9999999999996
  0
ARC
  5
105
330
1F
100
AcDbEntity
  8
VIEW0002
  6
Continuous
 62
     7
100
AcDbCircle
 10
6.106049422611832
 20
-35.66676108471047
 30
0.0
 40
0.25
100
AcDbArc
 50
137.4999999927305
 51
184.9999999854709
  0
ARC
  5
106
330
1F
100
AcDbEntity
  8
VIEW0002
  6
Continuous
 62
     7
100
AcDbCircle
 10
7.50641476434653
 20
-37.33086863179894
 30
0.0
 40
1.5
100
AcDbArc
 50
184.9999999854768
 51
270.0
  0
ARC
  5
107
330
1F
100
AcDbEntity
  8
VIEW0002
  6
Continuous
 62
     7
100
AcDbCircle
 10
25.40511392258803
 20
-51.25586634298058
 30
0.0
 40
1.0
100
AcDbArc
 50
229.9999999999997
 51
270.0
  0
ARC
  5
108
330
1F
100
AcDbEntity
  8
VIEW0002
  6
Continuous
 62
     7
100
AcDbCircle
 10
37.91502193860426
 20
-44.25586634298058
 30
0.0
 40
4.0
100
AcDbArc
 50
270.0
 51
320.9644871012531
  0
ARC
  5
109
330
1F
100
AcDbEntity
  8
VIEW0002
  6
Continuous
 62
     7
100
AcDbCircle
 10
51.1411007539826
 20
-42.23390890725816
 30
0.0
 40
3.4
100
AcDbArc
 50
92.0
 51
140.9644871012531
  0
ARC
  5
10A
330
1F
100
AcDbEntity
  8
VIEW0002
  6
Continuous
 62
     7
100
AcDbCircle
 10
51.1411007539826
 20
-42.23390890725807
 30
0.0
 40
5.0
100
AcDbArc
 50
92.0
 51
140.9644871012531
  0
ARC
  5
10B
330
1F
100
AcDbEntity
  8
VIEW0002
  6
Continuous
 62
     7
100
AcDbCircle
 10
63.10140230516176
 20
-53.75586634298058
 30
0.0
 40
1.5
100
AcDbArc
 50
225.0000078059317
 51
270.0
  0
ARC
  5
10C
330
1F
100
AcDbEntity
  8
VIEW0002
  6
Continuous
 62
     7
100
AcDbCircle
 10
59.73008208131274
 20
-51.0058672966549
 30
0.0
 40
0.75
100
AcDbArc
 50
0.0
 51
180.0
  0
ARC
  5
10D
330
1F
100
AcDbEntity
  8
VIEW0002
  6
Continuous
 62
     7
100
AcDbCircle
 10
62.45850976851268
 20
-52.40586729665492
 30
0.0
 40
0.5
100
AcDbArc
 50
225.0000078059317
 51
270.0
  0
ARC
  5
10E
330
1F
100
AcDbEntity
  8
VIEW0002
  6
Continuous
 62
     7
100
AcDbCircle
 10
61.30850945516251
 20
-51.2558672966549
 30
0.0
 40
0.5
100
AcDbArc
 50
225.0000078059323
 51
270.0
  0
ARC
  5
10F
330
1F
100
AcDbEntity
  8
VIEW0002
  6
Continuous
 62
     7
100
AcDbCircle
 10
56.88008208131289
 20
-49.60586634298058
 30
0.0
 40
0.5
100
AcDbArc
 50
0.0
 51
90.00000000000001
  0
ARC
  5
110
330
1F
100
AcDbEntity
  8
VIEW0002
  6
Continuous
 62
     7
100
AcDbCircle
 10
56.88008208131289
 20
-50.52334837958354
 30
0.0
 40
0.5
100
AcDbArc
 50
284.7016697563061
 51
0.0
  0
ARC
  5
111
330
1F
100
AcDbEntity
  8
VIEW0002
  6
Continuous
 62
     7
100
AcDbCircle
 10
60.63008208131272
 20
-51.0724147870576
 30
0.0
 40
0.15
100
AcDbArc
 50
180.0
 51
225.0000078059317
  0
ARC
  5
112
330
1F
100
AcDbEntity
  8
VIEW0002
  6
Continuous
 62
     7
100
AcDbCircle
 10
62.73008208131274
 20
-51.9058672966549
 30
0.0
 40
1.0
100
AcDbArc
 50
270.0
 51
0.0
  0
ARC
  5
113
330
1F
100
AcDbEntity
  8
VIEW0002
  6
Continuous
 62
     7
100
AcDbCircle
 10
6.587406327247734
 20
18.84413365701982
 30
0.0
 40
0.15
100
AcDbArc
 50
1.499999999998377
 51
90.00000000000001
  0
ARC
  5
114
330
1F
100
AcDbEntity
  8
VIEW0002
  6
Continuous
 62
     7
100
AcDbCircle
 10
6.080888654190304
 20
18.84413365701982
 30
0.0
 40
0.15
100
AcDbArc
 50
90.00000000000001
 51
178.5000000000016
  0
ARC
  5
115
330
1F
100
AcDbEntity
  8
VIEW0002
  6
Continuous
 62
     7
100
AcDbCircle
 10
56.13008208131289
 20
-50.72013055780134
 30
0.0
 40
0.5
100
AcDbArc
 50
0.0
 51
104.1320694037294
  0
ARC
  5
116
330
1F
100
AcDbEntity
  8
VIEW0002
  6
Continuous
 62
     7
100
AcDbCircle
 10
46.20756994865219
 20
-51.25586634298058
 30
0.0
 40
2.5
100
AcDbArc
 50
270.0
 51
284.7016697563077
  0
ARC
  5
117
330
1F
100
AcDbEntity
  8
VIEW0002
  6
Continuous
 62
     7
100
AcDbCircle
 10
46.15647698786178
 20
-51.94225116560928
 30
0.0
 40
0.75
100
AcDbArc
 50
141.1108952031076
 51
284.1320694037287
  0
ARC
  5
118
330
1F
100
AcDbEntity
  8
VIEW0002
  6
Continuous
 62
     7
100
AcDbCircle
 10
56.13008208131289
 20
-50.72013055780134
 30
0.0
 40
0.5
100
AcDbArc
 50
284.701676586497
 51
0.0
  0
ARC
  5
119
330
1F
100
AcDbEntity
  8
VIEW0002
  6
Continuous
 62
     7
100
AcDbCircle
 10
62.73008208131274
 20
-42.00586634298055
 30
0.0
 40
1.0
100
AcDbArc
 50
270.0
 51
0.0
  0
ARC
  5
11A
330
1F
100
AcDbEntity
  8
VIEW0002
  6
Continuous
 62
     7
100
AcDbCircle
 10
27.17504364902122
 20
-44.25586634298061
 30
0.0
 40
5.6
100
AcDbArc
 50
229.9999999999999
 51
270.0
  0
ARC
  5
11B
330
1F
100
AcDbEntity
  8
VIEW0002
  6
Continuous
 62
     7
100
AcDbCircle
 10
56.01374557530239
 20
-48.85586634298058
 30
0.0
 40
0.5
100
AcDbArc
 50
90.00000000000001
 51
165.0
  0
ARC
  5
11C
330
1F
100
AcDbEntity
  8
VIEW0002
  6
Continuous
 62
     7
100
AcDbCircle
 10
43.91202686751502
 20
-50.35586634298058
 30
0.0
 40
0.5
100
AcDbArc
 50
320.9644871012549
 51
90.0
  0
ARC
  5
11D
330
1F
100
AcDbEntity
  8
VIEW0002
  6
Continuous
 62
     7
100
AcDbCircle
 10
42.84927952987665
 20
-47.85586634298058
 30
0.0
 40
0.5
100
AcDbArc
 50
140.9644871012549
 51
270.0
  0
ARC
  5
11E
330
1F
100
AcDbEntity
  8
VIEW0002
  6
Continuous
 62
     7
100
AcDbCircle
 10
45.39838792792069
 20
-45.50586634298058
 30
0.0
 40
1.0
100
AcDbArc
 50
90.00000000000001
 51
140.9644871012528
  0
ARC
  5
11F
330
1F
100
AcDbEntity
  8
VIEW0002
  6
Continuous
 62
     7
100
AcDbCircle
 10
47.18711736771452
 20
-42.50586634298055
 30
0.0
 40
0.5
100
AcDbArc
 50
140.9644871012549
 51
270.0
  0
ARC
  5
120
330
1F
100
AcDbEntity
  8
VIEW0002
  6
Continuous
 62
     7
100
AcDbCircle
 10
45.70075630730885
 20
-47.35586634298058
 30
0.0
 40
1.0
100
AcDbArc
 50
270.0
 51
320.9644871012524
  0
ARC
  5
121
330
1F
100
AcDbEntity
  8
VIEW0002
  6
Continuous
 62
     7
100
AcDbCircle
 10
48.24986470535283
 20
-45.00586634298058
 30
0.0
 40
0.5
100
AcDbArc
 50
320.9644871012517
 51
90.0
  0
ARC
  5
122
330
1F
100
AcDbEntity
  8
VIEW0002
  6
Continuous
 62
     7
100
AcDbCircle
 10
27.17504364902128
 20
-44.25586634298061
 30
0.0
 40
4.0
100
AcDbArc
 50
229.9999999999999
 51
270.0
  0
ARC
  5
123
330
1F
100
AcDbEntity
  8
VIEW0002
  6
Continuous
 62
     7
100
AcDbCircle
 10
37.91502193860437
 20
-44.25586634298058
 30
0.0
 40
5.6
100
AcDbArc
 50
270.0
 51
320.964487101253
  0
ARC
  5
124
330
1F
100
AcDbEntity
  8
VIEW0002
  6
Continuous
 62
     7
100
AcDbCircle
 10
58.33008208131277
 20
-44.5058672966549
 30
0.0
 40
0.35
100
AcDbArc
 50
180.0
 51
270.0
  0
ARC
  5
125
330
1F
100
AcDbEntity
  8
VIEW0002
  6
Continuous
 62
     7
100
AcDbCircle
 10
62.73008208131274
 20
-39.42774985536512
 30
0.0
 40
1.0
100
AcDbArc
 50
0.0
 51
92.0000000000004
  0
ARC
  5
126
330
1F
100
AcDbEntity
  8
VIEW0002
  6
Continuous
 62
     7
100
AcDbCircle
 10
56.13008208131289
 20
-48.85586634298058
 30
0.0
 40
0.5
100
AcDbArc
 50
0.0
 51
90.00000000000001
  0
ARC
  5
127
330
1F
100
AcDbEntity
  8
VIEW0002
  6
Continuous
 62
     7
100
AcDbCircle
 10
61.98008208131274
 20
-45.85586729665489
 30
0.0
 40
1.0
100
AcDbArc
 50
0.0
 51
90.00000000000001
  0
ARC
  5
128
330
1F
100
AcDbEntity
  8
VIEW0002
  6
Continuous
 62
     7
100
AcDbCircle
 10
63.23008208131274
 20
-55.75586634298058
 30
0.0
 40
0.5
100
AcDbArc
 50
0.0
 51
90.00000000000001
  0
ARC
  5
129
330
1F
100
AcDbEntity
  8
VIEW0002
  6
Continuous
 62
     7
100
AcDbCircle
 10
59.98008208131274
 20
-51.34165365447471
 30
0.0
 40
1.0
100
AcDbArc
 50
180.0
 51
225.0000078059315
  0
ARC
  5
12A
330
1F
100
AcDbEntity
  8
VIEW0002
  6
Continuous
 62
     7
100
AcDbCircle
 10
6.36983709532872
 20
-35.23086863179891
 30
0.0
 40
0.15
100
AcDbArc
 50
90.00000000000001
 51
137.4999999927285
  0
ARC
  5
12B
330
1F
100
AcDbEntity
  8
VIEW0002
  6
Continuous
 62
     7
100
AcDbCircle
 10
62.29548125123462
 20
6.494133657019447
 30
0.0
 40
2.5
100
AcDbArc
 50
0.499999996126817
 51
90.00000250447816
  0
ARC
  5
12C
330
1F
100
AcDbEntity
  8
VIEW0002
  6
Continuous
 62
     7
100
AcDbCircle
 10
61.29545073365649
 20
21.49413365701945
 30
0.0
 40
2.5
100
AcDbArc
 50
269.9999974955218
 51
359.5000000038732
  0
ARC
  5
12D
330
1F
100
AcDbEntity
  8
VIEW0002
  6
Continuous
 62
     7
100
AcDbCircle
 10
61.29545073365649
 20
6.494133657019447
 30
0.0
 40
2.5
100
AcDbArc
 50
0.499999996126817
 51
90.00000250447816
  0
ARC
  5
12E
330
1F
100
AcDbEntity
  8
VIEW0002
  6
Continuous
 62
     7
100
AcDbCircle
 10
6.537310782942953
 20
18.84413365701982
 30
0.0
 40
0.15
100
AcDbArc
 50
90.00000000000001
 51
178.5000000000016
  0
ARC
  5
12F
330
1F
100
AcDbEntity
  8
VIEW0002
  6
Continuous
 62
     7
100
AcDbCircle
 10
6.749260387672464
 20
18.84413365701982
 30
0.0
 40
0.15
100
AcDbArc
 50
1.499999999998377
 51
90.00000000000001
  0
ARC
  5
130
330
1F
100
AcDbEntity
  8
VIEW0002
  6
Continuous
 62
     7
100
AcDbCircle
 10
62.29548125123462
 20
21.49413365701945
 30
0.0
 40
2.5
100
AcDbArc
 50
269.9999974955218
 51
359.5000000038732
  0
ARC
  5
131
330
1F
100
AcDbEntity
  8
VIEW0002
  6
Continuous
 62
     7
100
AcDbCircle
 10
6.080888654190304
 20
9.144133657019779
 30
0.0
 40
0.15
100
AcDbArc
 50
181.4999999999984
 51
270.0
  0
ARC
  5
132
330
1F
100
AcDbEntity
  8
VIEW0002
  6
Continuous
 62
     7
100
AcDbCircle
 10
6.537310782942953
 20
9.144133657019779
 30
0.0
 40
0.15
100
AcDbArc
 50
181.4999999999984
 51
270.0
  0
ARC
  5
133
330
1F
100
AcDbEntity
  8
VIEW0002
  6
Continuous
 62
     7
100
AcDbCircle
 10
6.587406327247734
 20
9.144133657019779
 30
0.0
 40
0.15
100
AcDbArc
 50
270.0
 51
358.5000000000016
  0
ARC
  5
134
330
1F
100
AcDbEntity
  8
VIEW0002
  6
Continuous
 62
     7
100
AcDbCircle
 10
6.749260387672464
 20
9.144133657019779
 30
0.0
 40
0.15
100
AcDbArc
 50
270.0
 51
358.5000000000016
  0
ARC
  5
135
330
1F
100
AcDbEntity
  8
VIEW0002
  6
Continuous
 62
     7
100
AcDbCircle
 10
62.48008208131274
 20
-51.2558672966549
 30
0.0
 40
0.5
100
AcDbArc
 50
270.0
 51
0.0
  0
ARC
  5
136
330
1F
100
AcDbEntity
  8
VIEW0002
  6
Continuous
 62
     7
100
AcDbCircle
 10
-48.06991791868687
 20
-53.38540060738042
 30
0.0
 40
0.15
100
AcDbArc
 50
273.4999999999999
 51
0.0
  0
ARC
  5
137
330
1F
100
AcDbEntity
  8
VIEW0002
  6
Continuous
 62
     7
100
AcDbCircle
 10
-55.26991791868691
 20
-53.48006014116545
 30
0.0
 40
0.15
100
AcDbArc
 50
180.0
 51
268.0000000000007
  0
ARC
  5
138
330
1F
100
AcDbEntity
  8
VIEW0002
  6
Continuous
 62
     7
100
AcDbCircle
 10
-46.81991791868687
 20
-49.48540060738038
 30
0.0
 40
0.15
100
AcDbArc
 50
273.4999999999999
 51
0.0
  0
ARC
  5
139
330
1F
100
AcDbEntity
  8
VIEW0002
  6
Continuous
 62
     7
100
AcDbCircle
 10
-56.51991791868691
 20
-49.43006014116544
 30
0.0
 40
0.15
100
AcDbArc
 50
180.0
 51
268.0000000000007
  0
ARC
  5
13A
330
1F
100
AcDbEntity
  8
VIEW0002
  6
Continuous
 62
     7
100
AcDbCircle
 10
-56.16991791868905
 20
-35.73831686666126
 30
0.0
 40
0.5
100
AcDbArc
 50
92.00000000000047
 51
180.0
  0
ARC
  5
13B
330
1F
100
AcDbEntity
  8
VIEW0002
  6
Continuous
 62
     7
100
AcDbCircle
 10
-56.51991791868691
 20
-38.51141146811911
 30
0.0
 40
0.15
100
AcDbArc
 50
180.0
 51
268.0000000000003
  0
ARC
  5
13C
330
1F
100
AcDbEntity
  8
VIEW0002
  6
Continuous
 62
     7
100
AcDbCircle
 10
-47.16991791868905
 20
-35.8570347660043
 30
0.0
 40
0.5
100
AcDbArc
 50
0.0
 51
86.50000000000006
  0
ARC
  5
13D
330
1F
100
AcDbEntity
  8
VIEW0002
  6
Continuous
 62
     7
100
AcDbCircle
 10
-46.81991791868687
 20
-38.38394962101064
 30
0.0
 40
0.15
100
AcDbArc
 50
273.5000000000006
 51
0.0
  0
ARC
  5
13E
330
1F
100
AcDbEntity
  8
VIEW0002
  6
Continuous
 62
     7
100
AcDbCircle
 10
-47.41991791868689
 20
-39.07186183968743
 30
0.0
 40
0.5
100
AcDbArc
 50
93.49999999999994
 51
180.0
  0
ARC
  5
13F
330
1F
100
AcDbEntity
  8
VIEW0002
  6
Continuous
 62
     7
100
AcDbCircle
 10
-56.16991791868689
 20
-36.53641383424839
 30
0.0
 40
0.5
100
AcDbArc
 50
92.00000000000047
 51
180.0
  0
ARC
  5
140
330
1F
100
AcDbEntity
  8
VIEW0002
  6
Continuous
 62
     7
100
AcDbCircle
 10
-47.16991791868689
 20
-36.65513173359143
 30
0.0
 40
0.5
100
AcDbArc
 50
0.0
 51
86.50000000000006
  0
ARC
  5
141
330
1F
100
AcDbEntity
  8
VIEW0002
  6
Continuous
 62
     7
100
AcDbCircle
 10
-48.0699179186869
 20
-54.88540060738036
 30
0.0
 40
0.15
100
AcDbArc
 50
273.5000000000013
 51
0.0
  0
ARC
  5
142
330
1F
100
AcDbEntity
  8
VIEW0002
  6
Continuous
 62
     7
100
AcDbCircle
 10
-55.91991791868689
 20
-39.18276013360834
 30
0.0
 40
0.5
100
AcDbArc
 50
0.0
 51
87.99999999999953
  0
ARC
  5
143
330
1F
100
AcDbEntity
  8
VIEW0002
  6
Continuous
 62
     7
100
AcDbCircle
 10
-63.35831818724158
 20
-53.18652659078329
 30
0.0
 40
2.5
100
AcDbArc
 50
25.00000012650595
 51
88.00000017209338
  0
ARC
  5
144
330
1F
100
AcDbEntity
  8
VIEW0002
  6
Continuous
 62
     7
100
AcDbCircle
 10
-55.26991791868689
 20
-54.98006014116542
 30
0.0
 40
0.15
100
AcDbArc
 50
180.0
 51
268.0000000000007
  0
ARC
  5
145
330
1F
100
AcDbEntity
  8
VIEW0002
  6
Continuous
 62
     7
100
AcDbCircle
 10
-39.9815176501322
 20
-53.18652659078329
 30
0.0
 40
2.5
100
AcDbArc
 50
91.99999800667379
 51
154.9999963447139
  0
ARC
  5
146
330
1F
100
AcDbEntity
  8
VIEW0002
  6
Continuous
 62
     7
100
AcDbCircle
 10
-36.66991791868689
 20
-46.56692077112308
 30
0.0
 40
4.0
100
AcDbArc
 50
271.9999999065344
 51
0.0
  0
ARC
  5
147
330
1F
100
AcDbEntity
  8
VIEW0002
  6
Continuous
 62
     7
100
AcDbCircle
 10
-51.66991791868689
 20
-60.50586634298055
 30
0.0
 40
5.0
100
AcDbArc
 50
205.0000036552861
 51
334.9999998734941
  0
CIRCLE
  5
148
330
1F
100
AcDbEntity
  8
VIEW0002
  6
Continuous
 62
     7
100
AcDbCircle
 10
-36.16991791868689
 20
-40.50587015767782
 30
0.0
 40
1.075000047683716
  0
CIRCLE
  5
149
330
1F
100
AcDbEntity
  8
VIEW0002
  6
Continuous
 62
     7
100
AcDbCircle
 10
-36.66991791868689
 20
-45.50586634298055
 30
0.0
 40
1.625
  0
CIRCLE
  5
14A
330
1F
100
AcDbEntity
  8
VIEW0002
  6
Continuous
 62
     7
100
AcDbCircle
 10
-51.66991791868689
 20
-61.50586634298055
 30
0.0
 40
1.075000047683716
  0
ARC
  5
14B
330
1F
100
AcDbEntity
  8
VIEW0002
  6
Continuous
 62
     7
100
AcDbCircle
 10
-66.66991791868689
 20
-40.53213491272062
 30
0.0
 40
4.0
100
AcDbArc
 50
91.99999990653438
 51
180.0
  0
ARC
  5
14C
330
1F
100
AcDbEntity
  8
VIEW0002
  6
Continuous
 62
     7
100
AcDbCircle
 10
-66.66991791868689
 20
-46.56692050775939
 30
0.0
 40
4.0
100
AcDbArc
 50
180.0
 51
268.0000000934656
  0
ARC
  5
14D
330
1F
100
AcDbEntity
  8
VIEW0002
  6
Continuous
 62
     7
100
AcDbCircle
 10
-36.66991791868689
 20
-40.53210411317694
 30
0.0
 40
4.0
100
AcDbArc
 50
0.0
 51
88.00000009346559
  0
CIRCLE
  5
14E
330
1F
100
AcDbEntity
  8
VIEW0002
  6
Continuous
 62
     7
100
AcDbCircle
 10
-67.16991791868689
 20
-40.50587015767782
 30
0.0
 40
1.075000047683716
  0
CIRCLE
  5
14F
330
1F
100
AcDbEntity
  8
VIEW0002
  6
Continuous
 62
     7
100
AcDbCircle
 10
-66.66991791868689
 20
-45.50586634298055
 30
0.0
 40
1.625
  0
ARC
  5
150
330
1F
100
AcDbEntity
  8
VIEW0002
  6
Continuous
 62
     7
100
AcDbCircle
 10
62.73008208131274
 20
-45.50586634298058
 30
0.0
 40
1.0
100
AcDbArc
 50
0.0
 51
90.00000000000001
  0
ARC
  5
151
330
1F
100
AcDbEntity
  8
VIEW0002
  6
Continuous
 62
     7
100
AcDbCircle
 10
45.46393878219295
 20
72.75627306296485
 30
0.0
 40
4.0
100
AcDbArc
 50
271.9999999065343
 51
0.0
  0
ARC
  5
152
330
1F
100
AcDbEntity
  8
VIEW0002
  6
Continuous
 62
     7
100
AcDbCircle
 10
45.46393878219295
 20
78.791089720911
 30
0.0
 40
4.0
100
AcDbArc
 50
0.0
 51
88.00000009346573
  0
ARC
  5
153
330
1F
100
AcDbEntity
  8
VIEW0002
  6
Continuous
 62
     7
100
AcDbCircle
 10
15.46393878219295
 20
72.7562733263286
 30
0.0
 40
4.0
100
AcDbArc
 50
180.0
 51
268.0000000934655
  0
DIMENSION
  5
154
330
1F
100
AcDbEntity
  8
VIEW0002
 62
     7
100
AcDbDimension
  2
*D2
 10
-47.91991791868689
 20
-75.50486634298055
 30
0.0
 11
-51.66891791868689
 21
-75.50486634298055
 31
0.0
 70
   160
  1
15
 71
     5
 42
7.5
  3
ISO-25
100
AcDbAlignedDimension
 13
-55.41991791868689
 23
-54.98006014116542
 33
0.0
 14
-47.91991791868689
 24
-54.88540060738036
 34
0.0
 50
180.0
100
AcDbRotatedDimension
1001
ACAD
1000
DSTYLE
1002
{
1070
   178
1070
     1
1070
   278
1070
    46
1070
   147
1040
0.800000011920929
1070
    77
1070
     1
1070
    74
1070
     0
1070
    73
1070
     0
1070
    42
1040
2.54
1070
    44
1040
2.286000000000001
1070
    76
1070
     0
1070
    75
1070
     0
1070
   279
1070
     0
1070
   271
1070
     0
1070
   173
1070
     1
1070
    41
1040
3.0
1070
   140
1040
3.200000047683716
1070
   344
1005
155
1070
   343
1005
155
1002
}
  0
DIMENSION
  5
171
330
1F
100
AcDbEntity
  8
VIEW0002
 62
     7
100
AcDbDimension
  2
*D3
 10
-46.66991791868688
 20
-25.08086863179893
 30
0.0
 11
-51.66891791868681
 21
-25.08086863179893
 31
0.0
 70
   160
  1
20
 71
     5
 42
10.0
  3
ISO-25
100
AcDbAlignedDimension
 13
-56.66991791868689
 23
-35.73831539695044
 33
0.0
 14
-46.66991791868689
 24
-35.8570347660043
 34
0.0
 50
180.0
100
AcDbRotatedDimension
1001
ACAD
1000
DSTYLE
1002
{
1070
   178
1070
     1
1070
   278
1070
    46
1070
   147
1040
0.800000011920929
1070
    77
1070
     1
1070
    74
1070
     0
1070
    73
1070
     0
1070
    42
1040
2.54
1070
    44
1040
2.286000000000001
1070
    76
1070
     0
1070
    75
1070
     0
1070
   279
1070
     0
1070
   271
1070
     0
1070
   173
1070
     1
1070
    41
1040
3.0
1070
   140
1040
3.200000047683716
1070
   344
1005
155
1070
   343
1005
155
1002
}
  0
DIMENSION
  5
17E
330
1F
100
AcDbEntity
  8
VIEW0002
 62
     7
100
AcDbDimension
  2
*D4
 10
-4.194164484293867
 20
-38.83086863179894
 30
0.0
 11
-4.194164484293874
 21
-24.87926856919022
 31
0.0
 70
   160
  1
7.5
 71
     5
 42
3.75
  3
ISO-25
100
AcDbAlignedDimension
 13
5.803835515706126
 23
-35.08086863179894
 33
0.0
 14
7.50641476434653
 24
-38.83086863179894
 34
0.0
 50
90.00000000000001
100
AcDbRotatedDimension
1001
ACAD
1000
DSTYLE
1002
{
1070
   178
1070
     1
1070
   278
1070
    46
1070
   147
1040
0.800000011920929
1070
    77
1070
     1
1070
    74
1070
     0
1070
    73
1070
     0
1070
    42
1040
2.54
1070
    44
1040
2.286000000000001
1070
    76
1070
     0
1070
    75
1070
     1
1070
   279
1070
     0
1070
   271
1070
     1
1070
   173
1070
     1
1070
    41
1040
3.0
1070
   140
1040
3.200000047683716
1070
   344
1005
155
1070
   343
1005
155
1002
}
  0
DIMENSION
  5
194
330
1F
100
AcDbEntity
  8
VIEW0002
 62
     7
100
AcDbDimension
  2
*D5
 10
-14.19416448429387
 20
-53.7558663429806
 30
0.0
 11
-14.19416448429388
 21
-44.41736748738976
 31
0.0
 70
   160
  1
37
 71
     5
 42
18.67499771118165
  3
ISO-25
100
AcDbAlignedDimension
 13
5.803835515706126
 23
-35.08086863179894
 33
0.0
 14
25.40511392258803
 24
-53.75586634298058
 34
0.0
 50
90.00000000000001
100
AcDbRotatedDimension
1001
ACAD
1000
DSTYLE
1002
{
1070
   178
1070
     1
1070
   278
1070
    46
1070
   147
1040
0.800000011920929
1070
    77
1070
     1
1070
    74
1070
     0
1070
    73
1070
     0
1070
    42
1040
2.54
1070
    44
1040
2.286000000000001
1070
    76
1070
     0
1070
    75
1070
     0
1070
   279
1070
     0
1070
   271
1070
     0
1070
   173
1070
     1
1070
    41
1040
3.0
1070
   140
1040
3.200000047683716
1070
   344
1005
155
1070
   343
1005
155
1002
}
  0
DIMENSION
  5
1A1
330
1F
100
AcDbEntity
  8
VIEW0002
 62
     7
100
AcDbDimension
  2
*D6
 10
77.48108208131276
 20
-65.50586634298058
 30
0.0
 11
77.48108208131275
 21
-50.75486634298057
 31
0.0
 70
   160
  1
59
 71
     5
 42
29.50000000000003
  3
ISO-25
100
AcDbAlignedDimension
 13
67.48008208131274
 23
-36.00586634298055
 33
0.0
 14
67.48008208131274
 24
-65.50586634298058
 34
0.0
 50
90.00000000000001
100
AcDbRotatedDimension
1001
ACAD
1000
DSTYLE
1002
{
1070
   178
1070
     1
1070
   278
1070
    46
1070
   147
1040
0.800000011920929
1070
    77
1070
     1
1070
    74
1070
     0
1070
    73
1070
     0
1070
    42
1040
2.54
1070
    44
1040
2.286000000000001
1070
    76
1070
     0
1070
    75
1070
     0
1070
   279
1070
     0
1070
   271
1070
     0
1070
   173
1070
     1
1070
    41
1040
3.0
1070
   140
1040
3.200000047683716
1070
   344
1005
155
1070
   343
1005
155
1002
}
  0
DIMENSION
  5
1AE
330
1F
100
AcDbEntity
  8
VIEW0002
 62
     7
100
AcDbDimension
  2
*D7
 10
62.98008208131276
 20
-25.08086863179894
 30
0.0
 11
34.39295879850943
 21
-25.08086863179894
 31
0.0
 70
   160
  1
114
 71
     5
 42
57.17624656560662
  3
ISO-25
100
AcDbAlignedDimension
 13
5.803835515706126
 23
-35.08086863179894
 33
0.0
 14
62.98008208131274
 24
-45.85586729665489
 34
0.0
 50
180.0
100
AcDbRotatedDimension
1001
ACAD
1000
DSTYLE
1002
{
1070
   178
1070
     1
1070
   278
1070
    46
1070
   147
1040
0.800000011920929
1070
    77
1070
     1
1070
    74
1070
     0
1070
    73
1070
     0
1070
    42
1040
2.54
1070
    44
1040
2.286000000000001
1070
    76
1070
     0
1070
    75
1070
     0
1070
   279
1070
     0
1070
   271
1070
     0
1070
   173
1070
     1
1070
    41
1040
3.0
1070
   140
1040
3.200000047683716
1070
   344
1005
155
1070
   343
1005
155
1002
}
  0
DIMENSION
  5
1BB
330
1F
100
AcDbEntity
  8
VIEW0002
 62
     7
100
AcDbDimension
  2
*D9
 10
58.98008208131274
 20
-75.50486634298058
 30
0.0
 11
63.23208208131274
 21
-75.50486634298058
 31
0.0
 70
   160
  1
17
 71
     5
 42
8.5
  3
ISO-25
100
AcDbAlignedDimension
 13
67.48008208131274
 23
-65.50586634298055
 33
0.0
 14
58.98008208131274
 24
-51.34165365447471
 34
0.0
100
AcDbRotatedDimension
1001
ACAD
1000
DSTYLE
1002
{
1070
   178
1070
     1
1070
   278
1070
    46
1070
   147
1040
0.800000011920929
1070
    77
1070
     1
1070
    74
1070
     0
1070
    73
1070
     0
1070
    42
1040
2.54
1070
    44
1040
2.286000000000001
1070
    76
1070
     0
1070
    75
1070
     1
1070
   279
1070
     0
1070
   271
1070
     0
1070
   173
1070
     1
1070
    41
1040
3.0
1070
   140
1040
3.200000047683716
1070
   344
1005
1BC
1070
   343
1005
155
1002
}
  0
DIMENSION
  5
1CE
330
1F
100
AcDbEntity
  8
VIEW0002
 62
     7
100
AcDbDimension
  2
*D10
 10
5.803835515706126
 20
-75.50486634298058
 30
0.0
 11
32.39395879850943
 21
-75.50486634298058
 31
0.0
 70
   160
  1
106
 71
     5
 42
53.17624656560662
  3
ISO-25
100
AcDbAlignedDimension
 13
58.98008208131274
 23
-51.34165365447471
 33
0.0
 14
5.803835515706126
 24
-35.08086863179894
 34
0.0
100
AcDbRotatedDimension
1001
ACAD
1000
DSTYLE
1002
{
1070
   178
1070
     1
1070
   278
1070
    46
1070
   147
1040
0.800000011920929
1070
    77
1070
     1
1070
    74
1070
     0
1070
    73
1070
     0
1070
    42
1040
2.54
1070
    44
1040
2.286000000000001
1070
    76
1070
     1
1070
    75
1070
     1
1070
   279
1070
     0
1070
   271
1070
     0
1070
   173
1070
     1
1070
    41
1040
3.0
1070
   140
1040
3.200000047683716
1070
   344
1005
155
1070
   343
1005
155
1002
}
  0
DIMENSION
  5
1D9
330
1F
100
AcDbEntity
  8
VIEW0002
 62
     7
100
AcDbDimension
  2
*D11
 10
67.48008208131274
 20
-85.50486634298058
 30
0.0
 11
36.64295879850943
 21
-85.50486634298058
 31
0.0
 70
   160
  1
123
 71
     5
 42
61.67624656560662
  3
ISO-25
100
AcDbAlignedDimension
 13
5.803835515706126
 23
-35.08086863179894
 33
0.0
 14
67.48008208131274
 24
-65.50586634298055
 34
0.0
 50
180.0
100
AcDbRotatedDimension
1001
ACAD
1000
DSTYLE
1002
{
1070
   178
1070
     1
1070
   278
1070
    46
1070
   147
1040
0.800000011920929
1070
    77
1070
     1
1070
    74
1070
     0
1070
    73
1070
     0
1070
    42
1040
2.54
1070
    44
1040
2.286000000000001
1070
    76
1070
     0
1070
    75
1070
     0
1070
   279
1070
     0
1070
   271
1070
     0
1070
   173
1070
     1
1070
    41
1040
3.0
1070
   140
1040
3.200000047683716
1070
   344
1005
155
1070
   343
1005
155
1002
}
  0
DIMENSION
  5
1E6
330
1F
100
AcDbEntity
  8
VIEW0002
 62
     7
100
AcDbDimension
  2
*D12
 10
-4.194164484293871
 20
8.994133657019788
 30
0.0
 11
-4.194164484293873
 21
13.99513365701979
 31
0.0
 70
   160
  1
20
 71
     5
 42
10.0
  3
ISO-25
100
AcDbAlignedDimension
 13
6.080888654190304
 23
18.99413365701979
 33
0.0
 14
6.080888654190304
 24
8.994133657019795
 34
0.0
 50
90.00000000000001
100
AcDbRotatedDimension
1001
ACAD
1000
DSTYLE
1002
{
1070
   178
1070
     1
1070
   278
1070
    46
1070
   147
1040
0.800000011920929
1070
    77
1070
     1
1070
    74
1070
     0
1070
    73
1070
     0
1070
    42
1040
2.54
1070
    44
1040
2.286000000000001
1070
    76
1070
     0
1070
    75
1070
     0
1070
   279
1070
     0
1070
   271
1070
     0
1070
   173
1070
     1
1070
    41
1040
3.0
1070
   140
1040
3.200000047683716
1070
   344
1005
155
1070
   343
1005
155
1002
}
  0
DIMENSION
  5
1F3
330
1F
100
AcDbEntity
  8
VIEW0002
 62
     7
100
AcDbDimension
  2
*D13
 10
77.48108208131276
 20
-5.005866342980545
 30
0.0
 11
77.48108208131275
 21
13.99513365701945
 31
0.0
 70
   160
  1
76
 71
     5
 42
38.00000000000001
  3
ISO-25
100
AcDbAlignedDimension
 13
67.48008208131274
 23
32.99413365701945
 33
0.0
 14
67.48008208131274
 24
-5.005866342980553
 34
0.0
 50
90.00000000000001
100
AcDbRotatedDimension
1001
ACAD
1000
DSTYLE
1002
{
1070
   178
1070
     1
1070
   278
1070
    46
1070
   147
1040
0.800000011920929
1070
    77
1070
     1
1070
    74
1070
     0
1070
    73
1070
     0
1070
    42
1040
2.54
1070
    44
1040
2.286000000000001
1070
    76
1070
     0
1070
    75
1070
     0
1070
   279
1070
     0
1070
   271
1070
     0
1070
   173
1070
     1
1070
    41
1040
3.0
1070
   140
1040
3.200000047683716
1070
   344
1005
155
1070
   343
1005
155
1002
}
  0
DIMENSION
  5
200
330
1F
100
AcDbEntity
  8
VIEW0002
 62
     7
100
AcDbDimension
  2
*D14
 10
45.46393878219296
 20
93.31733837216612
 30
0.0
 11
30.46496866668242
 21
93.31733837216612
 31
0.0
 70
   160
  1
60
 71
     5
 42
30.0
  3
ISO-25
100
AcDbAlignedDimension
 13
15.46393878219295
 23
77.9423274911074
 33
0.0
 14
45.46393878219295
 24
77.9423274911074
 34
0.0
 50
180.0
100
AcDbRotatedDimension
1001
ACAD
1000
DSTYLE
1002
{
1070
   178
1070
     1
1070
   278
1070
    46
1070
   147
1040
0.800000011920929
1070
    77
1070
     1
1070
    74
1070
     0
1070
    73
1070
     0
1070
    42
1040
2.54
1070
    44
1040
2.286000000000001
1070
    76
1070
     0
1070
    75
1070
     0
1070
   279
1070
     0
1070
   271
1070
     0
1070
   173
1070
     1
1070
    41
1040
3.0
1070
   140
1040
3.200000047683716
1070
   344
1005
155
1070
   343
1005
155
1002
}
  0
DIMENSION
  5
20D
330
1F
100
AcDbEntity
  8
VIEW0002
 62
     7
100
AcDbDimension
  2
*D15
 10
14.96393878219296
 20
103.3173383721661
 30
0.0
 11
3.580738754131091
 21
103.3173383721661
 31
0.0
 70
   160
  1
7
 71
     5
 42
3.5
  3
ISO-25
100
AcDbAlignedDimension
 13
11.46393878219295
 23
78.79105892136731
 33
0.0
 14
14.96393878219295
 24
82.39232372409386
 34
0.0
 50
180.0
100
AcDbRotatedDimension
1001
ACAD
1000
DSTYLE
1002
{
1070
   178
1070
     1
1070
   278
1070
    46
1070
   147
1040
0.800000011920929
1070
    77
1070
     1
1070
    74
1070
     0
1070
    73
1070
     0
1070
    42
1040
2.54
1070
    44
1040
2.286000000000001
1070
    76
1070
     0
1070
    75
1070
     0
1070
   279
1070
     0
1070
   271
1070
     0
1070
   173
1070
     1
1070
    41
1040
3.0
1070
   140
1040
3.200000047683716
1070
   344
1005
1BC
1070
   343
1005
155
1002
}
  0
DIMENSION
  5
222
330
1F
100
AcDbEntity
  8
VIEW0002
 62
     7
100
AcDbDimension
  2
*D16
 10
45.96393878219295
 20
103.3173383721661
 30
0.0
 11
30.46496866668242
 21
103.3173383721661
 31
0.0
 70
   160
  1
62
 71
     5
 42
31.0
  3
ISO-25
100
AcDbAlignedDimension
 13
14.96393878219295
 23
82.39232372409386
 33
0.0
 14
45.96393878219295
 24
82.39232372409386
 34
0.0
 50
180.0
100
AcDbRotatedDimension
1001
ACAD
1000
DSTYLE
1002
{
1070
   178
1070
     1
1070
   278
1070
    46
1070
   147
1040
0.800000011920929
1070
    77
1070
     1
1070
    74
1070
     0
1070
    73
1070
     0
1070
    42
1040
2.54
1070
    44
1040
2.286000000000001
1070
    76
1070
     0
1070
    75
1070
     1
1070
   279
1070
     0
1070
   271
1070
     0
1070
   173
1070
     1
1070
    41
1040
3.0
1070
   140
1040
3.200000047683716
1070
   344
1005
155
1070
   343
1005
155
1002
}
  0
DIMENSION
  5
22E
330
1F
100
AcDbEntity
  8
VIEW0002
 62
     7
100
AcDbDimension
  2
*D17
 10
49.46393878219296
 20
103.3173383721661
 30
0.0
 11
57.34713881025483
 21
103.3173383721661
 31
0.0
 70
   160
  1
7
 71
     5
 42
3.500000000000001
  3
ISO-25
100
AcDbAlignedDimension
 13
45.96393878219295
 23
82.39232372409386
 33
0.0
 14
49.46393878219295
 24
78.791089720911
 34
0.0
 50
180.0
100
AcDbRotatedDimension
1001
ACAD
1000
DSTYLE
1002
{
1070
   178
1070
     1
1070
   278
1070
    46
1070
   147
1040
0.800000011920929
1070
    77
1070
     1
1070
    74
1070
     0
1070
    73
1070
     0
1070
    42
1040
2.54
1070
    44
1040
2.286000000000001
1070
    76
1070
     0
1070
    75
1070
     1
1070
   279
1070
     0
1070
   271
1070
     0
1070
   173
1070
     1
1070
    41
1040
3.0
1070
   140
1040
3.200000047683716
1070
   344
1005
155
1070
   343
1005
1BC
1002
}
  0
DIMENSION
  5
241
330
1F
100
AcDbEntity
  8
VIEW0002
 62
     7
100
AcDbDimension
  2
*D18
 10
1.465938782192958
 20
78.81732367641015
 30
0.0
 11
1.465938782192953
 21
91.13173839920277
 31
0.0
 70
   160
  1
9
 71
     5
 42
4.500014695755965
  3
ISO-25
100
AcDbAlignedDimension
 13
30.46396866668242
 23
83.31733837216612
 33
0.0
 14
11.38893873450924
 24
78.81732367641015
 34
0.0
 50
90.00000000000001
100
AcDbRotatedDimension
1001
ACAD
1000
DSTYLE
1002
{
1070
   178
1070
     1
1070
   278
1070
    46
1070
   147
1040
0.800000011920929
1070
    77
1070
     1
1070
    74
1070
     0
1070
    73
1070
     0
1070
    42
1040
2.54
1070
    44
1040
2.286000000000001
1070
    76
1070
     0
1070
    75
1070
     1
1070
   279
1070
     0
1070
   271
1070
     0
1070
   173
1070
     1
1070
    41
1040
3.0
1070
   140
1040
3.200000047683716
1070
   344
1005
1BC
1070
   343
1005
155
1002
}
  0
DIMENSION
  5
254
330
1F
100
AcDbEntity
  8
VIEW0002
 62
     7
100
AcDbDimension
  2
*D20
 10
1.465938782192955
 20
73.81732749110742
 30
0.0
 11
1.465938782192954
 21
76.31832558375879
 31
0.0
 70
   160
  1
10
 71
     5
 42
4.999996185302734
  3
ISO-25
100
AcDbAlignedDimension
 13
11.38893873450924
 23
78.81732367641015
 33
0.0
 14
11.33893878219295
 24
73.81732749110742
 34
0.0
 50
90.00000000000001
100
AcDbRotatedDimension
1001
ACAD
1000
DSTYLE
1002
{
1070
   178
1070
     1
1070
   278
1070
    46
1070
   147
1040
0.800000011920929
1070
    77
1070
     1
1070
    74
1070
     0
1070
    73
1070
     0
1070
    42
1040
2.54
1070
    44
1040
2.286000000000001
1070
    76
1070
     0
1070
    75
1070
     1
1070
   279
1070
     0
1070
   271
1070
     0
1070
   173
1070
     1
1070
    41
1040
2.54
1070
   140
1040
3.200000047683716
1070
   344
1005
255
1070
   343
1005
255
1002
}
  0
DIMENSION
  5
267
330
1F
100
AcDbEntity
  8
VIEW0002
 62
     7
100
AcDbDimension
  2
*D21
 10
1.465938782192957
 20
57.81732749110741
 30
0.0
 11
1.465938782192954
 21
65.81832749110742
 31
0.0
 70
   160
  1
32
 71
     5
 42
16.00000000000001
  3
ISO-25
100
AcDbAlignedDimension
 13
11.33893878219295
 23
73.81732749110742
 33
0.0
 14
26.88893873450924
 24
57.81732749110741
 34
0.0
 50
90.00000000000001
100
AcDbRotatedDimension
1001
ACAD
1000
DSTYLE
1002
{
1070
   178
1070
     1
1070
   278
1070
    46
1070
   147
1040
0.800000011920929
1070
    77
1070
     1
1070
    74
1070
     0
1070
    73
1070
     0
1070
    42
1040
2.54
1070
    44
1040
2.286000000000001
1070
    76
1070
     0
1070
    75
1070
     1
1070
   279
1070
     0
1070
   271
1070
     0
1070
   173
1070
     1
1070
    41
1040
2.54
1070
   140
1040
3.200000047683716
1070
   344
1005
255
1070
   343
1005
1BC
1002
}
  0
DIMENSION
  5
273
330
1F
100
AcDbEntity
  8
VIEW0002
 62
     7
100
AcDbDimension
  2
*D22
 10
1.464938782192952
 20
53.81732749110741
 30
0.0
 11
1.464938782192955
 21
45.92772746295017
 31
0.0
 70
   160
  1
8
 71
     5
 42
4.000000000000002
  3
ISO-25
100
AcDbAlignedDimension
 13
26.88893873450924
 23
57.81732749110741
 33
0.0
 14
30.46393878219295
 24
53.81732749110741
 34
0.0
 50
90.00000000000001
100
AcDbRotatedDimension
1001
ACAD
1000
DSTYLE
1002
{
1070
   178
1070
     1
1070
   278
1070
    46
1070
   147
1040
0.800000011920929
1070
    77
1070
     1
1070
    74
1070
     0
1070
    73
1070
     0
1070
    42
1040
2.54
1070
    44
1040
2.286000000000001
1070
    76
1070
     1
1070
    75
1070
     1
1070
   279
1070
     0
1070
   271
1070
     0
1070
   173
1070
     1
1070
    41
1040
3.0
1070
   140
1040
3.200000047683716
1070
   344
1005
155
1070
   343
1005
1BC
1002
}
  0
DIMENSION
  5
284
330
1F
100
AcDbEntity
  8
VIEW0002
 62
     7
100
AcDbDimension
  2
*D23
 10
-8.535061217807044
 20
83.31733837216612
 30
0.0
 11
-8.535061217807046
 21
68.56833293163677
 31
0.0
 70
   160
  1
59
 71
     5
 42
29.50001088105871
  3
ISO-25
100
AcDbAlignedDimension
 13
30.46393878219295
 23
53.81732749110741
 33
0.0
 14
30.46396866668242
 24
83.31733837216612
 34
0.0
 50
270.0
100
AcDbRotatedDimension
1001
ACAD
1000
DSTYLE
1002
{
1070
   178
1070
     1
1070
   278
1070
    46
1070
   147
1040
0.800000011920929
1070
    77
1070
     1
1070
    74
1070
     0
1070
    73
1070
     0
1070
    42
1040
2.54
1070
    44
1040
2.286000000000001
1070
    76
1070
     0
1070
    75
1070
     0
1070
   279
1070
     0
1070
   271
1070
     0
1070
   173
1070
     1
1070
    41
1040
3.0
1070
   140
1040
3.200000047683716
1070
   344
1005
155
1070
   343
1005
155
1002
}
  0
INSERT
  5
297
330
1F
100
AcDbEntity
  8
VIEW0002
 62
     7
100
AcDbBlockReference
  2
SYM0001
 10
47.03893882987665
 20
78.81732367641017
 30
0.0
  0
INSERT
  5
2A0
330
1F
100
AcDbEntity
  8
VIEW0002
 62
     7
100
AcDbBlockReference
  2
SYM0002
 10
46.68895451427284
 20
72.74963771586516
 30
0.0
  0
ENDSEC
  0
SECTION
  2
OBJECTS
  0
DICTIONARY
  5
C
330
0
100
AcDbDictionary
281
     1
  3
ACAD_GROUP
350
D
  3
ACAD_LAYOUT
350
1A
  3
ACAD_MATERIAL
350
3B
  3
ACAD_MLEADERSTYLE
350
2CA
  3
ACAD_MLINESTYLE
350
17
  3
ACAD_PLOTSETTINGS
350
19
  3
ACAD_PLOTSTYLENAME
350
E
  3
ACAD_TABLESTYLE
350
2C9
  3
ACAD_VISUALSTYLE
350
2A
  0
DICTIONARY
  5
D
102
{ACAD_REACTORS
330
C
102
}
330
C
100
AcDbDictionary
281
     1
  0
DICTIONARY
  5
1A
102
{ACAD_REACTORS
330
C
102
}
330
C
100
AcDbDictionary
281
     1
  3
Layout1
350
1E
  3
Layout2
350
26
  3
Model
350
22
  0
DICTIONARY
  5
3B
102
{ACAD_REACTORS
330
C
102
}
330
C
100
AcDbDictionary
281
     1
  3
ByBlock
350
3D
  3
ByLayer
350
3C
  3
Global
350
3E
  0
DICTIONARY
  5
2CA
102
{ACAD_REACTORS
330
C
102
}
330
C
100
AcDbDictionary
281
     1
  0
DICTIONARY
  5
17
102
{ACAD_REACTORS
330
C
102
}
330
C
100
AcDbDictionary
281
     1
  3
Standard
350
18
  0
DICTIONARY
  5
19
102
{ACAD_REACTORS
330
C
102
}
330
C
100
AcDbDictionary
281
     1
  0
ACDBDICTIONARYWDFLT
  5
E
102
{ACAD_REACTORS
330
C
102
}
330
C
100
AcDbDictionary
281
     1
  3
Normal
350
F
100
AcDbDictionaryWithDefault
340
F
  0
DICTIONARY
  5
2C9
102
{ACAD_REACTORS
330
C
102
}
330
C
100
AcDbDictionary
281
     1
  0
DICTIONARY
  5
2A
102
{ACAD_REACTORS
330
C
102
}
330
C
100
AcDbDictionary
281
     1
  3
2dWireframe
350
2F
  3
3D Hidden
350
31
  3
3dWireframe
350
30
  3
Basic
350
32
  3
Brighten
350
36
  3
ColorChange
350
3A
  3
Conceptual
350
34
  3
Dim
350
35
  3
Facepattern
350
39
  3
Flat
350
2B
  3
FlatWithEdges
350
2C
  3
Gouraud
350
2D
  3
GouraudWithEdges
350
2E
  3
Linepattern
350
38
  3
Realistic
350
33
  3
Thicken
350
37
  0
LAYOUT
  5
1E
102
{ACAD_REACTORS
330
1A
102
}
330
1A
100
AcDbPlotSettings
  1

  2
none_device
  4

  6

 40
0.0
 41
0.0
 42
0.0
 43
0.0
 44
0.0
 45
0.0
 46
0.0
 47
0.0
 48
0.0
 49
0.0
140
0.0
141
0.0
142
1.0
143
1.0
 70
   688
 72
     0
 73
     0
 74
     5
  7

 75
    16
 76
     0
 77
     2
 78
   300
147
1.0
148
0.0
149
0.0
100
AcDbLayout
  1
Layout1
 70
     1
 71
     1
 10
-105.0
 20
-148.5
 11
105.0
 21
148.5
 12
0.0
 22
0.0
 32
0.0
 14
1.000000000000000E+20
 24
1.000000000000000E+20
 34
1.000000000000000E+20
 15
-1.000000000000000E+20
 25
-1.000000000000000E+20
 35
-1.000000000000000E+20
146
0.0
 13
0.0
 23
0.0
 33
0.0
 16
1.0
 26
0.0
 36
0.0
 17
0.0
 27
1.0
 37
0.0
 76
     0
330
1B
  0
LAYOUT
  5
26
102
{ACAD_REACTORS
330
1A
102
}
330
1A
100
AcDbPlotSettings
  1

  2
none_device
  4

  6

 40
0.0
 41
0.0
 42
0.0
 43
0.0
 44
0.0
 45
0.0
 46
0.0
 47
0.0
 48
0.0
 49
0.0
140
0.0
141
0.0
142
1.0
143
1.0
 70
   688
 72
     0
 73
     0
 74
     5
  7

 75
    16
 76
     0
 77
     2
 78
   300
147
1.0
148
0.0
149
0.0
100
AcDbLayout
  1
Layout2
 70
     1
 71
     2
 10
0.0
 20
0.0
 11
0.0
 21
0.0
 12
0.0
 22
0.0
 32
0.0
 14
0.0
 24
0.0
 34
0.0
 15
0.0
 25
0.0
 35
0.0
146
0.0
 13
0.0
 23
0.0
 33
0.0
 16
1.0
 26
0.0
 36
0.0
 17
0.0
 27
1.0
 37
0.0
 76
     0
330
23
  0
LAYOUT
  5
22
102
{ACAD_REACTORS
330
1A
102
}
330
1A
100
AcDbPlotSettings
  1

  2
none_device
  4

  6

 40
0.0
 41
0.0
 42
0.0
 43
0.0
 44
0.0
 45
0.0
 46
0.0
 47
0.0
 48
0.0
 49
0.0
140
0.0
141
0.0
142
1.0
143
1.0
 70
  1712
 72
     0
 73
     0
 74
     0
  7

 75
     0
 76
     0
 77
     2
 78
   300
147
1.0
148
0.0
149
0.0
100
AcDbLayout
  1
Model
 70
     1
 71
     0
 10
-105.0
 20
-148.5
 11
105.0
 21
148.5
 12
0.0
 22
0.0
 32
0.0
 14
-105.0
 24
-148.5
 34
0.0
 15
105.0
 25
148.5
 35
0.0
146
0.0
 13
0.0
 23
0.0
 33
0.0
 16
1.0
 26
0.0
 36
0.0
 17
0.0
 27
1.0
 37
0.0
 76
     0
330
1F
331
29
  0
MATERIAL
  5
3D
102
{ACAD_REACTORS
330
3B
102
}
102
{ACAD_XDICTIONARY
360
2C5
102
}
330
3B
100
AcDbMaterial
  1
ByBlock
  0
MATERIAL
  5
3C
102
{ACAD_REACTORS
330
3B
102
}
102
{ACAD_XDICTIONARY
360
2C3
102
}
330
3B
100
AcDbMaterial
  1
ByLayer
  0
MATERIAL
  5
3E
102
{ACAD_REACTORS
330
3B
102
}
102
{ACAD_XDICTIONARY
360
2C7
102
}
330
3B
100
AcDbMaterial
  1
Global
  0
MLINESTYLE
  5
18
102
{ACAD_REACTORS
330
17
102
}
330
17
100
AcDbMlineStyle
  2
Standard
 70
     0
  3

 62
   256
 51
90.0
 52
90.0
 71
     2
 49
0.5
 62
   256
  6
BYLAYER
 49
-0.5
 62
   256
  6
BYLAYER
  0
ACDBPLACEHOLDER
  5
F
102
{ACAD_REACTORS
330
E
102
}
330
E
  0
VISUALSTYLE
  5
2F
102
{ACAD_REACTORS
330
2A
102
}
102
{ACAD_XDICTIONARY
360
2AB
102
}
330
2A
100
AcDbVisualStyle
  2
2dWireframe
 70
     4
 71
     0
 72
     2
 73
     0
 90
        0
 40
-0.6
 41
-30.0
 62
     5
 63
     7
421
 16777215
 74
     1
 91
        4
 64
     7
 65
   257
 75
     1
175
     1
 42
1.0
 92
        0
 66
   257
 43
1.0
 76
     1
 77
     6
 78
     2
 67
     7
 79
     5
170
     0
171
     0
290
     0
174
     0
 93
        1
 44
0.0
173
     0
291
     0
 45
0.0
1001
ACAD
1000
AcDbSavedByObjectVersion
1070
     0
  0
VISUALSTYLE
  5
31
102
{ACAD_REACTORS
330
2A
102
}
102
{ACAD_XDICTIONARY
360
2AF
102
}
330
2A
100
AcDbVisualStyle
  2
3D Hidden
 70
     6
 71
     1
 72
     2
 73
     2
 90
        0
 40
-0.6
 41
-30.0
 62
     5
 63
     7
421
 16777215
 74
     2
 91
        2
 64
     7
 65
   257
 75
     2
175
     1
 42
40.0
 92
        0
 66
   257
 43
1.0
 76
     1
 77
     6
 78
     2
 67
     7
 79
     3
170
     0
171
     0
290
     0
174
     0
 93
        1
 44
0.0
173
     0
291
     0
 45
0.0
1001
ACAD
1000
AcDbSavedByObjectVersion
1070
     0
  0
VISUALSTYLE
  5
30
102
{ACAD_REACTORS
330
2A
102
}
102
{ACAD_XDICTIONARY
360
2AD
102
}
330
2A
100
AcDbVisualStyle
  2
3dWireframe
 70
     5
 71
     0
 72
     2
 73
     0
 90
        0
 40
-0.6
 41
-30.0
 62
     5
 63
     7
421
 16777215
 74
     1
 91
        4
 64
     7
 65
   257
 75
     1
175
     1
 42
1.0
 92
        0
 66
   257
 43
1.0
 76
     1
 77
     6
 78
     2
 67
     7
 79
     5
170
     0
171
     0
290
     0
174
     0
 93
        1
 44
0.0
173
     0
291
     0
 45
0.0
1001
ACAD
1000
AcDbSavedByObjectVersion
1070
     0
  0
VISUALSTYLE
  5
32
102
{ACAD_REACTORS
330
2A
102
}
102
{ACAD_XDICTIONARY
360
2B1
102
}
330
2A
100
AcDbVisualStyle
  2
Basic
 70
     7
 71
     1
 72
     0
 73
     1
 90
        0
 40
-0.6
 41
-30.0
 62
     5
 63
     7
421
 16777215
 74
     0
 91
        4
 64
     7
 65
   257
 75
     1
175
     1
 42
1.0
 92
        8
 66
     7
 43
1.0
 76
     1
 77
     6
 78
     2
 67
     7
 79
     5
170
     0
171
     0
290
     0
174
     0
 93
        1
 44
0.0
173
     0
291
     1
 45
0.0
1001
ACAD
1000
AcDbSavedByObjectVersion
1070
     0
  0
VISUALSTYLE
  5
36
102
{ACAD_REACTORS
330
2A
102
}
102
{ACAD_XDICTIONARY
360
2B9
102
}
330
2A
100
AcDbVisualStyle
  2
Brighten
 70
    12
 71
     2
 72
     2
 73
     0
 90
        0
 40
-0.6
 41
-30.0
 62
     5
 63
     7
421
 16777215
 74
     1
 91
        4
 64
     7
 65
   257
 75
     1
175
     1
 42
1.0
 92
        8
 66
     7
 43
1.0
 76
     1
 77
     6
 78
     2
 67
     7
 79
     5
170
     0
171
     0
290
     0
174
     0
 93
        1
 44
50.0
173
     0
291
     1
 45
0.0
1001
ACAD
1000
AcDbSavedByObjectVersion
1070
     0
  0
VISUALSTYLE
  5
3A
102
{ACAD_REACTORS
330
2A
102
}
102
{ACAD_XDICTIONARY
360
2C1
102
}
330
2A
100
AcDbVisualStyle
  2
ColorChange
 70
    16
 71
     2
 72
     2
 73
     3
 90
        0
 40
-0.6
 41
-30.0
 62
     5
 63
     8
421
  8421504
 74
     1
 91
        4
 64
     7
 65
   257
 75
     1
175
     1
 42
1.0
 92
        8
 66
     8
424
  8421504
 43
1.0
 76
     1
 77
     6
 78
     2
 67
     7
 79
     5
170
     0
171
     0
290
     0
174
     0
 93
        1
 44
0.0
173
     0
291
     1
 45
0.0
1001
ACAD
1000
AcDbSavedByObjectVersion
1070
     0
  0
VISUALSTYLE
  5
34
102
{ACAD_REACTORS
330
2A
102
}
102
{ACAD_XDICTIONARY
360
2B5
102
}
330
2A
100
AcDbVisualStyle
  2
Conceptual
 70
     9
 71
     3
 72
     2
 73
     0
 90
        0
 40
-0.6
 41
-30.0
 62
     5
 63
     7
421
 16777215
 74
     2
 91
        2
 64
     7
 65
   257
 75
     1
175
     1
 42
40.0
 92
        8
 66
     7
 43
1.0
 76
     1
 77
     6
 78
     2
 67
     7
 79
     3
170
     0
171
     0
290
     0
174
     0
 93
        1
 44
0.0
173
     0
291
     0
 45
0.0
1001
ACAD
1000
AcDbSavedByObjectVersion
1070
     0
  0
VISUALSTYLE
  5
35
102
{ACAD_REACTORS
330
2A
102
}
102
{ACAD_XDICTIONARY
360
2B7
102
}
330
2A
100
AcDbVisualStyle
  2
Dim
 70
    11
 71
     2
 72
     2
 73
     0
 90
        0
 40
-0.6
 41
-30.0
 62
     5
 63
     7
421
 16777215
 74
     1
 91
        4
 64
     7
 65
   257
 75
     1
175
     1
 42
1.0
 92
        8
 66
     7
 43
1.0
 76
     1
 77
     6
 78
     2
 67
     7
 79
     5
170
     0
171
     0
290
     0
174
     0
 93
        1
 44
-50.0
173
     0
291
     1
 45
0.0
1001
ACAD
1000
AcDbSavedByObjectVersion
1070
     0
  0
VISUALSTYLE
  5
39
102
{ACAD_REACTORS
330
2A
102
}
102
{ACAD_XDICTIONARY
360
2BF
102
}
330
2A
100
AcDbVisualStyle
  2
Facepattern
 70
    15
 71
     2
 72
     2
 73
     0
 90
        0
 40
-0.6
 41
-30.0
 62
     5
 63
     7
421
 16777215
 74
     1
 91
        4
 64
     7
 65
   257
 75
     1
175
     1
 42
1.0
 92
        8
 66
     7
 43
1.0
 76
     1
 77
     6
 78
     2
 67
     7
 79
     5
170
     0
171
     0
290
     0
174
     0
 93
        1
 44
0.0
173
     0
291
     1
 45
0.0
1001
ACAD
1000
AcDbSavedByObjectVersion
1070
     0
  0
VISUALSTYLE
  5
2B
102
{ACAD_REACTORS
330
2A
102
}
102
{ACAD_XDICTIONARY
360
2A3
102
}
330
2A
100
AcDbVisualStyle
  2
Flat
 70
     0
 71
     2
 72
     1
 73
     1
 90
        2
 40
-0.6
 41
30.0
 62
     5
 63
     7
421
 16777215
 74
     0
 91
        4
 64
     7
 65
   257
 75
     1
175
     1
 42
1.0
 92
        8
 66
     7
 43
1.0
 76
     1
 77
     6
 78
     2
 67
     7
 79
     5
170
     0
171
     0
290
     0
174
     0
 93
       13
 44
0.0
173
     0
291
     1
 45
0.0
1001
ACAD
1000
AcDbSavedByObjectVersion
1070
     0
  0
VISUALSTYLE
  5
2C
102
{ACAD_REACTORS
330
2A
102
}
102
{ACAD_XDICTIONARY
360
2A5
102
}
330
2A
100
AcDbVisualStyle
  2
FlatWithEdges
 70
     1
 71
     2
 72
     1
 73
     1
 90
        2
 40
-0.6
 41
30.0
 62
     5
 63
     7
421
 16777215
 74
     1
 91
        4
 64
     7
 65
   257
 75
     1
175
     1
 42
1.0
 92
        0
 66
   257
 43
1.0
 76
     1
 77
     6
 78
     2
 67
     7
 79
     5
170
     0
171
     0
290
     0
174
     0
 93
       13
 44
0.0
173
     0
291
     1
 45
0.0
1001
ACAD
1000
AcDbSavedByObjectVersion
1070
     0
  0
VISUALSTYLE
  5
2D
102
{ACAD_REACTORS
330
2A
102
}
102
{ACAD_XDICTIONARY
360
2A7
102
}
330
2A
100
AcDbVisualStyle
  2
Gouraud
 70
     2
 71
     2
 72
     2
 73
     1
 90
        2
 40
-0.6
 41
30.0
 62
     5
 63
     7
421
 16777215
 74
     0
 91
        4
 64
     7
 65
   257
 75
     1
175
     1
 42
1.0
 92
        0
 66
     7
 43
1.0
 76
     1
 77
     6
 78
     2
 67
     7
 79
     5
170
     0
171
     0
290
     0
174
     0
 93
       13
 44
0.0
173
     0
291
     1
 45
0.0
1001
ACAD
1000
AcDbSavedByObjectVersion
1070
     0
  0
VISUALSTYLE
  5
2E
102
{ACAD_REACTORS
330
2A
102
}
102
{ACAD_XDICTIONARY
360
2A9
102
}
330
2A
100
AcDbVisualStyle
  2
GouraudWithEdges
 70
     3
 71
     2
 72
     2
 73
     1
 90
        2
 40
-0.6
 41
30.0
 62
     5
 63
     7
421
 16777215
 74
     1
 91
        4
 64
     7
 65
   257
 75
     1
175
     1
 42
1.0
 92
        0
 66
   257
 43
1.0
 76
     1
 77
     6
 78
     2
 67
     7
 79
     5
170
     0
171
     0
290
     0
174
     0
 93
       13
 44
0.0
173
     0
291
     1
 45
0.0
1001
ACAD
1000
AcDbSavedByObjectVersion
1070
     0
  0
VISUALSTYLE
  5
38
102
{ACAD_REACTORS
330
2A
102
}
102
{ACAD_XDICTIONARY
360
2BD
102
}
330
2A
100
AcDbVisualStyle
  2
Linepattern
 70
    14
 71
     2
 72
     2
 73
     0
 90
        0
 40
-0.6
 41
-30.0
 62
     5
 63
     7
421
 16777215
 74
     1
 91
        4
 64
     7
 65
   257
 75
     7
175
     7
 42
1.0
 92
        8
 66
     7
 43
1.0
 76
     1
 77
     6
 78
     2
 67
     7
 79
     5
170
     0
171
     0
290
     0
174
     0
 93
        1
 44
0.0
173
     0
291
     1
 45
0.0
1001
ACAD
1000
AcDbSavedByObjectVersion
1070
     0
  0
VISUALSTYLE
  5
33
102
{ACAD_REACTORS
330
2A
102
}
102
{ACAD_XDICTIONARY
360
2B3
102
}
330
2A
100
AcDbVisualStyle
  2
Realistic
 70
     8
 71
     2
 72
     2
 73
     0
 90
        0
 40
-0.6
 41
-30.0
 62
     5
 63
     7
421
 16777215
 74
     1
 91
        0
 64
     7
 65
   257
 75
     1
175
     1
 42
1.0
 92
        8
 66
     8
424
  7895160
 43
1.0
 76
     1
 77
     6
 78
     2
 67
     7
 79
     5
170
     0
171
     0
290
     0
174
     0
 93
       13
 44
0.0
173
     0
291
     0
 45
0.0
1001
ACAD
1000
AcDbSavedByObjectVersion
1070
     0
  0
VISUALSTYLE
  5
37
102
{ACAD_REACTORS
330
2A
102
}
102
{ACAD_XDICTIONARY
360
2BB
102
}
330
2A
100
AcDbVisualStyle
  2
Thicken
 70
    13
 71
     2
 72
     2
 73
     0
 90
        0
 40
-0.6
 41
-30.0
 62
     5
 63
     7
421
 16777215
 74
     1
 91
        4
 64
     7
 65
   257
 75
     1
175
     1
 42
1.0
 92
       12
 66
     7
 43
1.0
 76
     1
 77
     6
 78
     2
 67
     7
 79
     5
170
     0
171
     0
290
     0
174
     0
 93
        1
 44
0.0
173
     0
291
     1
 45
0.0
1001
ACAD
1000
AcDbSavedByObjectVersion
1070
     0
  0
DICTIONARY
  5
2C5
330
3D
100
AcDbDictionary
280
     1
281
     1
  3
ACAD_XREC_ROUNDTRIP
360
2C6
  0
DICTIONARY
  5
2C3
330
3C
100
AcDbDictionary
280
     1
281
     1
  3
ACAD_XREC_ROUNDTRIP
360
2C4
  0
DICTIONARY
  5
2C7
330
3E
100
AcDbDictionary
280
     1
281
     1
  3
ACAD_XREC_ROUNDTRIP
360
2C8
  0
DICTIONARY
  5
2AB
330
2F
100
AcDbDictionary
280
     1
281
     1
  3
ACAD_XREC_ROUNDTRIP
360
2AC
  0
DICTIONARY
  5
2AF
330
31
100
AcDbDictionary
280
     1
281
     1
  3
ACAD_XREC_ROUNDTRIP
360
2B0
  0
DICTIONARY
  5
2AD
330
30
100
AcDbDictionary
280
     1
281
     1
  3
ACAD_XREC_ROUNDTRIP
360
2AE
  0
DICTIONARY
  5
2B1
330
32
100
AcDbDictionary
280
     1
281
     1
  3
ACAD_XREC_ROUNDTRIP
360
2B2
  0
DICTIONARY
  5
2B9
330
36
100
AcDbDictionary
280
     1
281
     1
  3
ACAD_XREC_ROUNDTRIP
360
2BA
  0
DICTIONARY
  5
2C1
330
3A
100
AcDbDictionary
280
     1
281
     1
  3
ACAD_XREC_ROUNDTRIP
360
2C2
  0
DICTIONARY
  5
2B5
330
34
100
AcDbDictionary
280
     1
281
     1
  3
ACAD_XREC_ROUNDTRIP
360
2B6
  0
DICTIONARY
  5
2B7
330
35
100
AcDbDictionary
280
     1
281
     1
  3
ACAD_XREC_ROUNDTRIP
360
2B8
  0
DICTIONARY
  5
2BF
330
39
100
AcDbDictionary
280
     1
281
     1
  3
ACAD_XREC_ROUNDTRIP
360
2C0
  0
DICTIONARY
  5
2A3
330
2B
100
AcDbDictionary
280
     1
281
     1
  3
ACAD_XREC_ROUNDTRIP
360
2A4
  0
DICTIONARY
  5
2A5
330
2C
100
AcDbDictionary
280
     1
281
     1
  3
ACAD_XREC_ROUNDTRIP
360
2A6
  0
DICTIONARY
  5
2A7
330
2D
100
AcDbDictionary
280
     1
281
     1
  3
ACAD_XREC_ROUNDTRIP
360
2A8
  0
DICTIONARY
  5
2A9
330
2E
100
AcDbDictionary
280
     1
281
     1
  3
ACAD_XREC_ROUNDTRIP
360
2AA
  0
DICTIONARY
  5
2BD
330
38
100
AcDbDictionary
280
     1
281
     1
  3
ACAD_XREC_ROUNDTRIP
360
2BE
  0
DICTIONARY
  5
2B3
330
33
100
AcDbDictionary
280
     1
281
     1
  3
ACAD_XREC_ROUNDTRIP
360
2B4
  0
DICTIONARY
  5
2BB
330
37
100
AcDbDictionary
280
     1
281
     1
  3
ACAD_XREC_ROUNDTRIP
360
2BC
  0
XRECORD
  5
2C6
102
{ACAD_REACTORS
330
2C5
102
}
330
2C5
100
AcDbXrecord
280
     1
102
MATERIAL
148
0.0
149
0.0
149
0.0
 93
        0
 94
      127
282
     0
 72
     1
 77
     1
171
     1
175
     1
179
     1
273
     0
  0
XRECORD
  5
2C4
102
{ACAD_REACTORS
330
2C3
102
}
330
2C3
100
AcDbXrecord
280
     1
102
MATERIAL
148
0.0
149
0.0
149
0.0
 93
        0
 94
      127
282
     0
 72
     1
 77
     1
171
     1
175
     1
179
     1
273
     0
  0
XRECORD
  5
2C8
102
{ACAD_REACTORS
330
2C7
102
}
330
2C7
100
AcDbXrecord
280
     1
102
MATERIAL
148
0.0
149
0.0
149
0.0
 93
        0
 94
      127
282
     0
 72
     1
 77
     1
171
     1
175
     1
179
     1
273
     0
  0
XRECORD
  5
2AC
102
{ACAD_REACTORS
330
2AB
102
}
330
2AB
100
AcDbXrecord
280
     1
102
RTVSPropertyOp0
 70
     1
102
RTVSPropertyOp1
 70
     1
102
RTVSPropertyOp2
 70
     1
102
RTVSPropertyOp3
 70
     1
102
RTVSPropertyOp4
 70
     1
102
RTVSPropertyOp5
 70
     1
102
RTVSPropertyOp6
 70
     1
102
RTVSPropertyOp7
 70
     1
102
RTVSPropertyOp8
 70
     1
102
RTVSPropertyOp9
 70
     1
102
RTVSPropertyOp10
 70
     1
102
RTVSPropertyOp11
 70
     1
102
RTVSPropertyOp12
 70
     1
102
RTVSPropertyOp13
 70
     1
102
RTVSPropertyOp14
 70
     1
102
RTVSPropertyOp15
 70
     1
102
RTVSPropertyOp16
 70
     1
102
RTVSPropertyOp17
 70
     1
102
RTVSPropertyOp18
 70
     1
102
RTVSPropertyOp19
 70
     1
102
RTVSPropertyOp20
 70
     1
102
RTVSPropertyOp21
 70
     1
102
RTVSPropertyOp22
 70
     1
102
RTVSPropertyOp23
 70
     1
102
RTVSPropertyOp24
 70
     1
102
RTVSPropertyOp25
 70
     1
102
RTVSPropertyOp26
 70
     1
102
RTVSPropertyOp27
 70
     1
102
RTVSPropertyOp28
 70
     1
102
RTVSPropertyOp29
 70
     1
102
RTVSPropertyOp30
 70
     1
102
RTVSPropertyOp31
 70
     1
102
RTVSPropertyOp32
 70
     1
  0
XRECORD
  5
2B0
102
{ACAD_REACTORS
330
2AF
102
}
330
2AF
100
AcDbXrecord
280
     1
102
RTVSPropertyOp0
 70
     1
102
RTVSPropertyOp1
 70
     1
102
RTVSPropertyOp2
 70
     1
102
RTVSPropertyOp3
 70
     1
102
RTVSPropertyOp4
 70
     1
102
RTVSPropertyOp5
 70
     1
102
RTVSPropertyOp6
 70
     1
102
RTVSPropertyOp7
 70
     1
102
RTVSPropertyOp8
 70
     1
102
RTVSPropertyOp9
 70
     1
102
RTVSPropertyOp10
 70
     1
102
RTVSPropertyOp11
 70
     1
102
RTVSPropertyOp12
 70
     1
102
RTVSPropertyOp13
 70
     1
102
RTVSPropertyOp14
 70
     1
102
RTVSPropertyOp15
 70
     1
102
RTVSPropertyOp16
 70
     1
102
RTVSPropertyOp17
 70
     1
102
RTVSPropertyOp18
 70
     1
102
RTVSPropertyOp19
 70
     1
102
RTVSPropertyOp20
 70
     1
102
RTVSPropertyOp21
 70
     1
102
RTVSPropertyOp22
 70
     1
102
RTVSPropertyOp23
 70
     1
102
RTVSPropertyOp24
 70
     1
102
RTVSPropertyOp25
 70
     1
102
RTVSPropertyOp26
 70
     1
102
RTVSPropertyOp27
 70
     1
102
RTVSPropertyOp28
 70
     1
102
RTVSPropertyOp29
 70
     1
102
RTVSPropertyOp30
 70
     1
102
RTVSPropertyOp31
 70
     1
102
RTVSPropertyOp32
 70
     1
  0
XRECORD
  5
2AE
102
{ACAD_REACTORS
330
2AD
102
}
330
2AD
100
AcDbXrecord
280
     1
102
RTVSPropertyOp0
 70
     1
102
RTVSPropertyOp1
 70
     1
102
RTVSPropertyOp2
 70
     1
102
RTVSPropertyOp3
 70
     1
102
RTVSPropertyOp4
 70
     1
102
RTVSPropertyOp5
 70
     1
102
RTVSPropertyOp6
 70
     1
102
RTVSPropertyOp7
 70
     1
102
RTVSPropertyOp8
 70
     1
102
RTVSPropertyOp9
 70
     1
102
RTVSPropertyOp10
 70
     1
102
RTVSPropertyOp11
 70
     1
102
RTVSPropertyOp12
 70
     1
102
RTVSPropertyOp13
 70
     1
102
RTVSPropertyOp14
 70
     1
102
RTVSPropertyOp15
 70
     1
102
RTVSPropertyOp16
 70
     1
102
RTVSPropertyOp17
 70
     1
102
RTVSPropertyOp18
 70
     1
102
RTVSPropertyOp19
 70
     1
102
RTVSPropertyOp20
 70
     1
102
RTVSPropertyOp21
 70
     1
102
RTVSPropertyOp22
 70
     1
102
RTVSPropertyOp23
 70
     1
102
RTVSPropertyOp24
 70
     1
102
RTVSPropertyOp25
 70
     1
102
RTVSPropertyOp26
 70
     1
102
RTVSPropertyOp27
 70
     1
102
RTVSPropertyOp28
 70
     1
102
RTVSPropertyOp29
 70
     1
102
RTVSPropertyOp30
 70
     1
102
RTVSPropertyOp31
 70
     1
102
RTVSPropertyOp32
 70
     1
  0
XRECORD
  5
2B2
102
{ACAD_REACTORS
330
2B1
102
}
330
2B1
100
AcDbXrecord
280
     1
102
RTVSPropertyOp0
 70
     1
102
RTVSPropertyOp1
 70
     1
102
RTVSPropertyOp2
 70
     1
102
RTVSPropertyOp3
 70
     1
102
RTVSPropertyOp4
 70
     1
102
RTVSPropertyOp5
 70
     1
102
RTVSPropertyOp6
 70
     1
102
RTVSPropertyOp7
 70
     1
102
RTVSPropertyOp8
 70
     1
102
RTVSPropertyOp9
 70
     1
102
RTVSPropertyOp10
 70
     1
102
RTVSPropertyOp11
 70
     1
102
RTVSPropertyOp12
 70
     1
102
RTVSPropertyOp13
 70
     1
102
RTVSPropertyOp14
 70
     1
102
RTVSPropertyOp15
 70
     1
102
RTVSPropertyOp16
 70
     1
102
RTVSPropertyOp17
 70
     1
102
RTVSPropertyOp18
 70
     1
102
RTVSPropertyOp19
 70
     1
102
RTVSPropertyOp20
 70
     1
102
RTVSPropertyOp21
 70
     1
102
RTVSPropertyOp22
 70
     1
102
RTVSPropertyOp23
 70
     1
102
RTVSPropertyOp24
 70
     1
102
RTVSPropertyOp25
 70
     1
102
RTVSPropertyOp26
 70
     1
102
RTVSPropertyOp27
 70
     1
102
RTVSPropertyOp28
 70
     1
102
RTVSPropertyOp29
 70
     1
102
RTVSPropertyOp30
 70
     1
102
RTVSPropertyOp31
 70
     1
102
RTVSPropertyOp32
 70
     1
  0
XRECORD
  5
2BA
102
{ACAD_REACTORS
330
2B9
102
}
330
2B9
100
AcDbXrecord
280
     1
102
RTVSPropertyOp0
 70
     1
102
RTVSPropertyOp1
 70
     1
102
RTVSPropertyOp2
 70
     1
102
RTVSPropertyOp3
 70
     1
102
RTVSPropertyOp4
 70
     1
102
RTVSPropertyOp5
 70
     1
102
RTVSPropertyOp6
 70
     1
102
RTVSPropertyOp7
 70
     1
102
RTVSPropertyOp8
 70
     1
102
RTVSPropertyOp9
 70
     1
102
RTVSPropertyOp10
 70
     1
102
RTVSPropertyOp11
 70
     1
102
RTVSPropertyOp12
 70
     1
102
RTVSPropertyOp13
 70
     1
102
RTVSPropertyOp14
 70
     1
102
RTVSPropertyOp15
 70
     1
102
RTVSPropertyOp16
 70
     1
102
RTVSPropertyOp17
 70
     1
102
RTVSPropertyOp18
 70
     1
102
RTVSPropertyOp19
 70
     1
102
RTVSPropertyOp20
 70
     1
102
RTVSPropertyOp21
 70
     1
102
RTVSPropertyOp22
 70
     1
102
RTVSPropertyOp23
 70
     1
102
RTVSPropertyOp24
 70
     1
102
RTVSPropertyOp25
 70
     1
102
RTVSPropertyOp26
 70
     1
102
RTVSPropertyOp27
 70
     1
102
RTVSPropertyOp28
 70
     1
102
RTVSPropertyOp29
 70
     1
102
RTVSPropertyOp30
 70
     1
102
RTVSPropertyOp31
 70
     1
102
RTVSPropertyOp32
 70
     1
  0
XRECORD
  5
2C2
102
{ACAD_REACTORS
330
2C1
102
}
330
2C1
100
AcDbXrecord
280
     1
102
RTVSPropertyOp0
 70
     1
102
RTVSPropertyOp1
 70
     1
102
RTVSPropertyOp2
 70
     1
102
RTVSPropertyOp3
 70
     1
102
RTVSPropertyOp4
 70
     1
102
RTVSPropertyOp5
 70
     1
102
RTVSPropertyOp6
 70
     1
102
RTVSPropertyOp7
 70
     1
102
RTVSPropertyOp8
 70
     1
102
RTVSPropertyOp9
 70
     1
102
RTVSPropertyOp10
 70
     1
102
RTVSPropertyOp11
 70
     1
102
RTVSPropertyOp12
 70
     1
102
RTVSPropertyOp13
 70
     1
102
RTVSPropertyOp14
 70
     1
102
RTVSPropertyOp15
 70
     1
102
RTVSPropertyOp16
 70
     1
102
RTVSPropertyOp17
 70
     1
102
RTVSPropertyOp18
 70
     1
102
RTVSPropertyOp19
 70
     1
102
RTVSPropertyOp20
 70
     1
102
RTVSPropertyOp21
 70
     1
102
RTVSPropertyOp22
 70
     1
102
RTVSPropertyOp23
 70
     1
102
RTVSPropertyOp24
 70
     1
102
RTVSPropertyOp25
 70
     1
102
RTVSPropertyOp26
 70
     1
102
RTVSPropertyOp27
 70
     1
102
RTVSPropertyOp28
 70
     1
102
RTVSPropertyOp29
 70
     1
102
RTVSPropertyOp30
 70
     1
102
RTVSPropertyOp31
 70
     1
102
RTVSPropertyOp32
 70
     1
  0
XRECORD
  5
2B6
102
{ACAD_REACTORS
330
2B5
102
}
330
2B5
100
AcDbXrecord
280
     1
102
RTVSPropertyOp0
 70
     1
102
RTVSPropertyOp1
 70
     1
102
RTVSPropertyOp2
 70
     1
102
RTVSPropertyOp3
 70
     1
102
RTVSPropertyOp4
 70
     1
102
RTVSPropertyOp5
 70
     1
102
RTVSPropertyOp6
 70
     1
102
RTVSPropertyOp7
 70
     1
102
RTVSPropertyOp8
 70
     1
102
RTVSPropertyOp9
 70
     1
102
RTVSPropertyOp10
 70
     1
102
RTVSPropertyOp11
 70
     1
102
RTVSPropertyOp12
 70
     1
102
RTVSPropertyOp13
 70
     1
102
RTVSPropertyOp14
 70
     1
102
RTVSPropertyOp15
 70
     1
102
RTVSPropertyOp16
 70
     1
102
RTVSPropertyOp17
 70
     1
102
RTVSPropertyOp18
 70
     1
102
RTVSPropertyOp19
 70
     1
102
RTVSPropertyOp20
 70
     1
102
RTVSPropertyOp21
 70
     1
102
RTVSPropertyOp22
 70
     1
102
RTVSPropertyOp23
 70
     1
102
RTVSPropertyOp24
 70
     1
102
RTVSPropertyOp25
 70
     1
102
RTVSPropertyOp26
 70
     1
102
RTVSPropertyOp27
 70
     1
102
RTVSPropertyOp28
 70
     1
102
RTVSPropertyOp29
 70
     1
102
RTVSPropertyOp30
 70
     1
102
RTVSPropertyOp31
 70
     1
102
RTVSPropertyOp32
 70
     1
  0
XRECORD
  5
2B8
102
{ACAD_REACTORS
330
2B7
102
}
330
2B7
100
AcDbXrecord
280
     1
102
RTVSPropertyOp0
 70
     1
102
RTVSPropertyOp1
 70
     1
102
RTVSPropertyOp2
 70
     1
102
RTVSPropertyOp3
 70
     1
102
RTVSPropertyOp4
 70
     1
102
RTVSPropertyOp5
 70
     1
102
RTVSPropertyOp6
 70
     1
102
RTVSPropertyOp7
 70
     1
102
RTVSPropertyOp8
 70
     1
102
RTVSPropertyOp9
 70
     1
102
RTVSPropertyOp10
 70
     1
102
RTVSPropertyOp11
 70
     1
102
RTVSPropertyOp12
 70
     1
102
RTVSPropertyOp13
 70
     1
102
RTVSPropertyOp14
 70
     1
102
RTVSPropertyOp15
 70
     1
102
RTVSPropertyOp16
 70
     1
102
RTVSPropertyOp17
 70
     1
102
RTVSPropertyOp18
 70
     1
102
RTVSPropertyOp19
 70
     1
102
RTVSPropertyOp20
 70
     1
102
RTVSPropertyOp21
 70
     1
102
RTVSPropertyOp22
 70
     1
102
RTVSPropertyOp23
 70
     1
102
RTVSPropertyOp24
 70
     1
102
RTVSPropertyOp25
 70
     1
102
RTVSPropertyOp26
 70
     1
102
RTVSPropertyOp27
 70
     1
102
RTVSPropertyOp28
 70
     1
102
RTVSPropertyOp29
 70
     1
102
RTVSPropertyOp30
 70
     1
102
RTVSPropertyOp31
 70
     1
102
RTVSPropertyOp32
 70
     1
  0
XRECORD
  5
2C0
102
{ACAD_REACTORS
330
2BF
102
}
330
2BF
100
AcDbXrecord
280
     1
102
RTVSPropertyOp0
 70
     1
102
RTVSPropertyOp1
 70
     1
102
RTVSPropertyOp2
 70
     1
102
RTVSPropertyOp3
 70
     1
102
RTVSPropertyOp4
 70
     1
102
RTVSPropertyOp5
 70
     1
102
RTVSPropertyOp6
 70
     1
102
RTVSPropertyOp7
 70
     1
102
RTVSPropertyOp8
 70
     1
102
RTVSPropertyOp9
 70
     1
102
RTVSPropertyOp10
 70
     1
102
RTVSPropertyOp11
 70
     1
102
RTVSPropertyOp12
 70
     1
102
RTVSPropertyOp13
 70
     1
102
RTVSPropertyOp14
 70
     1
102
RTVSPropertyOp15
 70
     1
102
RTVSPropertyOp16
 70
     1
102
RTVSPropertyOp17
 70
     1
102
RTVSPropertyOp18
 70
     1
102
RTVSPropertyOp19
 70
     1
102
RTVSPropertyOp20
 70
     1
102
RTVSPropertyOp21
 70
     1
102
RTVSPropertyOp22
 70
     1
102
RTVSPropertyOp23
 70
     1
102
RTVSPropertyOp24
 70
     1
102
RTVSPropertyOp25
 70
     1
102
RTVSPropertyOp26
 70
     1
102
RTVSPropertyOp27
 70
     1
102
RTVSPropertyOp28
 70
     1
102
RTVSPropertyOp29
 70
     1
102
RTVSPropertyOp30
 70
     1
102
RTVSPropertyOp31
 70
     1
102
RTVSPropertyOp32
 70
     1
  0
XRECORD
  5
2A4
102
{ACAD_REACTORS
330
2A3
102
}
330
2A3
100
AcDbXrecord
280
     1
102
RTVSPropertyOp0
 70
     1
102
RTVSPropertyOp1
 70
     1
102
RTVSPropertyOp2
 70
     1
102
RTVSPropertyOp3
 70
     1
102
RTVSPropertyOp4
 70
     1
102
RTVSPropertyOp5
 70
     1
102
RTVSPropertyOp6
 70
     1
102
RTVSPropertyOp7
 70
     1
102
RTVSPropertyOp8
 70
     1
102
RTVSPropertyOp9
 70
     1
102
RTVSPropertyOp10
 70
     1
102
RTVSPropertyOp11
 70
     1
102
RTVSPropertyOp12
 70
     1
102
RTVSPropertyOp13
 70
     1
102
RTVSPropertyOp14
 70
     1
102
RTVSPropertyOp15
 70
     1
102
RTVSPropertyOp16
 70
     1
102
RTVSPropertyOp17
 70
     1
102
RTVSPropertyOp18
 70
     1
102
RTVSPropertyOp19
 70
     1
102
RTVSPropertyOp20
 70
     1
102
RTVSPropertyOp21
 70
     1
102
RTVSPropertyOp22
 70
     1
102
RTVSPropertyOp23
 70
     1
102
RTVSPropertyOp24
 70
     1
102
RTVSPropertyOp25
 70
     1
102
RTVSPropertyOp26
 70
     1
102
RTVSPropertyOp27
 70
     1
102
RTVSPropertyOp28
 70
     1
102
RTVSPropertyOp29
 70
     1
102
RTVSPropertyOp30
 70
     1
102
RTVSPropertyOp31
 70
     1
102
RTVSPropertyOp32
 70
     1
  0
XRECORD
  5
2A6
102
{ACAD_REACTORS
330
2A5
102
}
330
2A5
100
AcDbXrecord
280
     1
102
RTVSPropertyOp0
 70
     1
102
RTVSPropertyOp1
 70
     1
102
RTVSPropertyOp2
 70
     1
102
RTVSPropertyOp3
 70
     1
102
RTVSPropertyOp4
 70
     1
102
RTVSPropertyOp5
 70
     1
102
RTVSPropertyOp6
 70
     1
102
RTVSPropertyOp7
 70
     1
102
RTVSPropertyOp8
 70
     1
102
RTVSPropertyOp9
 70
     1
102
RTVSPropertyOp10
 70
     1
102
RTVSPropertyOp11
 70
     1
102
RTVSPropertyOp12
 70
     1
102
RTVSPropertyOp13
 70
     1
102
RTVSPropertyOp14
 70
     1
102
RTVSPropertyOp15
 70
     1
102
RTVSPropertyOp16
 70
     1
102
RTVSPropertyOp17
 70
     1
102
RTVSPropertyOp18
 70
     1
102
RTVSPropertyOp19
 70
     1
102
RTVSPropertyOp20
 70
     1
102
RTVSPropertyOp21
 70
     1
102
RTVSPropertyOp22
 70
     1
102
RTVSPropertyOp23
 70
     1
102
RTVSPropertyOp24
 70
     1
102
RTVSPropertyOp25
 70
     1
102
RTVSPropertyOp26
 70
     1
102
RTVSPropertyOp27
 70
     1
102
RTVSPropertyOp28
 70
     1
102
RTVSPropertyOp29
 70
     1
102
RTVSPropertyOp30
 70
     1
102
RTVSPropertyOp31
 70
     1
102
RTVSPropertyOp32
 70
     1
  0
XRECORD
  5
2A8
102
{ACAD_REACTORS
330
2A7
102
}
330
2A7
100
AcDbXrecord
280
     1
102
RTVSPropertyOp0
 70
     1
102
RTVSPropertyOp1
 70
     1
102
RTVSPropertyOp2
 70
     1
102
RTVSPropertyOp3
 70
     1
102
RTVSPropertyOp4
 70
     1
102
RTVSPropertyOp5
 70
     1
102
RTVSPropertyOp6
 70
     1
102
RTVSPropertyOp7
 70
     1
102
RTVSPropertyOp8
 70
     1
102
RTVSPropertyOp9
 70
     1
102
RTVSPropertyOp10
 70
     1
102
RTVSPropertyOp11
 70
     1
102
RTVSPropertyOp12
 70
     1
102
RTVSPropertyOp13
 70
     1
102
RTVSPropertyOp14
 70
     1
102
RTVSPropertyOp15
 70
     1
102
RTVSPropertyOp16
 70
     1
102
RTVSPropertyOp17
 70
     1
102
RTVSPropertyOp18
 70
     1
102
RTVSPropertyOp19
 70
     1
102
RTVSPropertyOp20
 70
     1
102
RTVSPropertyOp21
 70
     1
102
RTVSPropertyOp22
 70
     1
102
RTVSPropertyOp23
 70
     1
102
RTVSPropertyOp24
 70
     1
102
RTVSPropertyOp25
 70
     1
102
RTVSPropertyOp26
 70
     1
102
RTVSPropertyOp27
 70
     1
102
RTVSPropertyOp28
 70
     1
102
RTVSPropertyOp29
 70
     1
102
RTVSPropertyOp30
 70
     1
102
RTVSPropertyOp31
 70
     1
102
RTVSPropertyOp32
 70
     1
  0
XRECORD
  5
2AA
102
{ACAD_REACTORS
330
2A9
102
}
330
2A9
100
AcDbXrecord
280
     1
102
RTVSPropertyOp0
 70
     1
102
RTVSPropertyOp1
 70
     1
102
RTVSPropertyOp2
 70
     1
102
RTVSPropertyOp3
 70
     1
102
RTVSPropertyOp4
 70
     1
102
RTVSPropertyOp5
 70
     1
102
RTVSPropertyOp6
 70
     1
102
RTVSPropertyOp7
 70
     1
102
RTVSPropertyOp8
 70
     1
102
RTVSPropertyOp9
 70
     1
102
RTVSPropertyOp10
 70
     1
102
RTVSPropertyOp11
 70
     1
102
RTVSPropertyOp12
 70
     1
102
RTVSPropertyOp13
 70
     1
102
RTVSPropertyOp14
 70
     1
102
RTVSPropertyOp15
 70
     1
102
RTVSPropertyOp16
 70
     1
102
RTVSPropertyOp17
 70
     1
102
RTVSPropertyOp18
 70
     1
102
RTVSPropertyOp19
 70
     1
102
RTVSPropertyOp20
 70
     1
102
RTVSPropertyOp21
 70
     1
102
RTVSPropertyOp22
 70
     1
102
RTVSPropertyOp23
 70
     1
102
RTVSPropertyOp24
 70
     1
102
RTVSPropertyOp25
 70
     1
102
RTVSPropertyOp26
 70
     1
102
RTVSPropertyOp27
 70
     1
102
RTVSPropertyOp28
 70
     1
102
RTVSPropertyOp29
 70
     1
102
RTVSPropertyOp30
 70
     1
102
RTVSPropertyOp31
 70
     1
102
RTVSPropertyOp32
 70
     1
  0
XRECORD
  5
2BE
102
{ACAD_REACTORS
330
2BD
102
}
330
2BD
100
AcDbXrecord
280
     1
102
RTVSPropertyOp0
 70
     1
102
RTVSPropertyOp1
 70
     1
102
RTVSPropertyOp2
 70
     1
102
RTVSPropertyOp3
 70
     1
102
RTVSPropertyOp4
 70
     1
102
RTVSPropertyOp5
 70
     1
102
RTVSPropertyOp6
 70
     1
102
RTVSPropertyOp7
 70
     1
102
RTVSPropertyOp8
 70
     1
102
RTVSPropertyOp9
 70
     1
102
RTVSPropertyOp10
 70
     1
102
RTVSPropertyOp11
 70
     1
102
RTVSPropertyOp12
 70
     1
102
RTVSPropertyOp13
 70
     1
102
RTVSPropertyOp14
 70
     1
102
RTVSPropertyOp15
 70
     1
102
RTVSPropertyOp16
 70
     1
102
RTVSPropertyOp17
 70
     1
102
RTVSPropertyOp18
 70
     1
102
RTVSPropertyOp19
 70
     1
102
RTVSPropertyOp20
 70
     1
102
RTVSPropertyOp21
 70
     1
102
RTVSPropertyOp22
 70
     1
102
RTVSPropertyOp23
 70
     1
102
RTVSPropertyOp24
 70
     1
102
RTVSPropertyOp25
 70
     1
102
RTVSPropertyOp26
 70
     1
102
RTVSPropertyOp27
 70
     1
102
RTVSPropertyOp28
 70
     1
102
RTVSPropertyOp29
 70
     1
102
RTVSPropertyOp30
 70
     1
102
RTVSPropertyOp31
 70
     1
102
RTVSPropertyOp32
 70
     1
  0
XRECORD
  5
2B4
102
{ACAD_REACTORS
330
2B3
102
}
330
2B3
100
AcDbXrecord
280
     1
102
RTVSPropertyOp0
 70
     1
102
RTVSPropertyOp1
 70
     1
102
RTVSPropertyOp2
 70
     1
102
RTVSPropertyOp3
 70
     1
102
RTVSPropertyOp4
 70
     1
102
RTVSPropertyOp5
 70
     1
102
RTVSPropertyOp6
 70
     1
102
RTVSPropertyOp7
 70
     1
102
RTVSPropertyOp8
 70
     1
102
RTVSPropertyOp9
 70
     1
102
RTVSPropertyOp10
 70
     1
102
RTVSPropertyOp11
 70
     1
102
RTVSPropertyOp12
 70
     1
102
RTVSPropertyOp13
 70
     1
102
RTVSPropertyOp14
 70
     1
102
RTVSPropertyOp15
 70
     1
102
RTVSPropertyOp16
 70
     1
102
RTVSPropertyOp17
 70
     1
102
RTVSPropertyOp18
 70
     1
102
RTVSPropertyOp19
 70
     1
102
RTVSPropertyOp20
 70
     1
102
RTVSPropertyOp21
 70
     1
102
RTVSPropertyOp22
 70
     1
102
RTVSPropertyOp23
 70
     1
102
RTVSPropertyOp24
 70
     1
102
RTVSPropertyOp25
 70
     1
102
RTVSPropertyOp26
 70
     1
102
RTVSPropertyOp27
 70
     1
102
RTVSPropertyOp28
 70
     1
102
RTVSPropertyOp29
 70
     1
102
RTVSPropertyOp30
 70
     1
102
RTVSPropertyOp31
 70
     1
102
RTVSPropertyOp32
 70
     1
  0
XRECORD
  5
2BC
102
{ACAD_REACTORS
330
2BB
102
}
330
2BB
100
AcDbXrecord
280
     1
102
RTVSPropertyOp0
 70
     1
102
RTVSPropertyOp1
 70
     1
102
RTVSPropertyOp2
 70
     1
102
RTVSPropertyOp3
 70
     1
102
RTVSPropertyOp4
 70
     1
102
RTVSPropertyOp5
 70
     1
102
RTVSPropertyOp6
 70
     1
102
RTVSPropertyOp7
 70
     1
102
RTVSPropertyOp8
 70
     1
102
RTVSPropertyOp9
 70
     1
102
RTVSPropertyOp10
 70
     1
102
RTVSPropertyOp11
 70
     1
102
RTVSPropertyOp12
 70
     1
102
RTVSPropertyOp13
 70
     1
102
RTVSPropertyOp14
 70
     1
102
RTVSPropertyOp15
 70
     1
102
RTVSPropertyOp16
 70
     1
102
RTVSPropertyOp17
 70
     1
102
RTVSPropertyOp18
 70
     1
102
RTVSPropertyOp19
 70
     1
102
RTVSPropertyOp20
 70
     1
102
RTVSPropertyOp21
 70
     1
102
RTVSPropertyOp22
 70
     1
102
RTVSPropertyOp23
 70
     1
102
RTVSPropertyOp24
 70
     1
102
RTVSPropertyOp25
 70
     1
102
RTVSPropertyOp26
 70
     1
102
RTVSPropertyOp27
 70
     1
102
RTVSPropertyOp28
 70
     1
102
RTVSPropertyOp29
 70
     1
102
RTVSPropertyOp30
 70
     1
102
RTVSPropertyOp31
 70
     1
102
RTVSPropertyOp32
 70
     1
  0
ENDSEC
  0
EOF
