  0
SECTION
  2
HEADER
  9
$ACADVER
  1
AC1018
  9
$ACADMAINTVER
 70
     0
  9
$DWGCODEPAGE
  3
ANSI_932
  9
$INSBASE
 10
0.0
 20
0.0
 30
0.0
  9
$EXTMIN
 10
-105.0
 20
-148.5
 30
0.0
  9
$EXTMAX
 10
105.0
 20
148.5
 30
0.0
  9
$LIMMIN
 10
-105.0
 20
-148.5
  9
$LIMMAX
 10
105.0
 20
148.5
  9
$ORTHOMODE
 70
     0
  9
$REGENMODE
 70
     1
  9
$FILLMODE
 70
     1
  9
$QTEXTMODE
 70
     0
  9
$MIRRTEXT
 70
     1
  9
$LTSCALE
 40
1.0
  9
$ATTMODE
 70
     1
  9
$TEXTSIZE
 40
2.5
  9
$TRACEWID
 40
1.0
  9
$TEXTSTYLE
  7
Standard
  9
$CLAYER
  8
0
  9
$CELTYPE
  6
ByLayer
  9
$CECOLOR
 62
   256
  9
$CELTSCALE
 40
1.0
  9
$DISPSILH
 70
     0
  9
$DIMSCALE
 40
1.0
  9
$DIMASZ
 40
2.5
  9
$DIMEXO
 40
0.625
  9
$DIMDLI
 40
3.75
  9
$DIMRND
 40
0.0
  9
$DIMDLE
 40
0.0
  9
$DIMEXE
 40
1.25
  9
$DIMTP
 40
0.0
  9
$DIMTM
 40
0.0
  9
$DIMTXT
 40
2.5
  9
$DIMCEN
 40
2.5
  9
$DIMTSZ
 40
0.0
  9
$DIMTOL
 70
     0
  9
$DIMLIM
 70
     0
  9
$DIMTIH
 70
     0
  9
$DIMTOH
 70
     0
  9
$DIMSE1
 70
     0
  9
$DIMSE2
 70
     0
  9
$DIMTAD
 70
     1
  9
$DIMZIN
 70
     8
  9
$DIMBLK
  1

  9
$DIMASO
 70
     1
  9
$DIMSHO
 70
     1
  9
$DIMPOST
  1

  9
$DIMAPOST
  1

  9
$DIMALT
 70
     0
  9
$DIMALTD
 70
     3
  9
$DIMALTF
 40
0.03937007874016
  9
$DIMLFAC
 40
1.0
  9
$DIMTOFL
 70
     1
  9
$DIMTVP
 40
0.0
  9
$DIMTIX
 70
     0
  9
$DIMSOXD
 70
     0
  9
$DIMSAH
 70
     0
  9
$DIMBLK1
  1

  9
$DIMBLK2
  1

  9
$DIMSTYLE
  2
ISO-25
  9
$DIMCLRD
 70
     0
  9
$DIMCLRE
 70
     0
  9
$DIMCLRT
 70
     0
  9
$DIMTFAC
 40
1.0
  9
$DIMGAP
 40
0.625
  9
$DIMJUST
 70
     0
  9
$DIMSD1
 70
     0
  9
$DIMSD2
 70
     0
  9
$DIMTOLJ
 70
     0
  9
$DIMTZIN
 70
     8
  9
$DIMALTZ
 70
     0
  9
$DIMALTTZ
 70
     0
  9
$DIMUPT
 70
     0
  9
$DIMDEC
 70
     2
  9
$DIMTDEC
 70
     2
  9
$DIMALTU
 70
     2
  9
$DIMALTTD
 70
     3
  9
$DIMTXSTY
  7
Standard
  9
$DIMAUNIT
 70
     0
  9
$DIMADEC
 70
     0
  9
$DIMALTRND
 40
0.0
  9
$DIMAZIN
 70
     0
  9
$DIMDSEP
 70
    44
  9
$DIMATFIT
 70
     3
  9
$DIMFRAC
 70
     0
  9
$DIMLDRBLK
  1

  9
$DIMLUNIT
 70
     2
  9
$DIMLWD
 70
    -2
  9
$DIMLWE
 70
    -2
  9
$DIMTMOVE
 70
     0
  9
$LUNITS
 70
     2
  9
$LUPREC
 70
     4
  9
$SKETCHINC
 40
1.0
  9
$FILLETRAD
 40
10.0
  9
$AUNITS
 70
     0
  9
$AUPREC
 70
     0
  9
$MENU
  1
.
  9
$ELEVATION
 40
0.0
  9
$PELEVATION
 40
0.0
  9
$THICKNESS
 40
0.0
  9
$LIMCHECK
 70
     0
  9
$CHAMFERA
 40
10.0
  9
$CHAMFERB
 40
10.0
  9
$CHAMFERC
 40
20.0
  9
$CHAMFERD
 40
0.0
  9
$SKPOLY
 70
     0
  9
$TDCREATE
 40
2457290.491054919
  9
$TDUCREATE
 40
2457290.116054919
  9
$TDUPDATE
 40
2457290.491055324
  9
$TDUUPDATE
 40
2457290.116055324
  9
$TDINDWG
 40
0.0000000116
  9
$TDUSRTIMER
 40
0.0000000116
  9
$USRTIMER
 70
     1
  9
$ANGBASE
 50
0.0
  9
$ANGDIR
 70
     0
  9
$PDMODE
 70
     0
  9
$PDSIZE
 40
0.0
  9
$PLINEWID
 40
0.0
  9
$SPLFRAME
 70
     0
  9
$SPLINETYPE
 70
     6
  9
$SPLINESEGS
 70
     8
  9
$HANDSEED
  5
25F
  9
$SURFTAB1
 70
     6
  9
$SURFTAB2
 70
     6
  9
$SURFTYPE
 70
     6
  9
$SURFU
 70
     6
  9
$SURFV
 70
     6
  9
$UCSBASE
  2

  9
$UCSNAME
  2

  9
$UCSORG
 10
0.0
 20
0.0
 30
0.0
  9
$UCSXDIR
 10
1.0
 20
0.0
 30
0.0
  9
$UCSYDIR
 10
0.0
 20
1.0
 30
0.0
  9
$UCSORTHOREF
  2

  9
$UCSORTHOVIEW
 70
     0
  9
$UCSORGTOP
 10
0.0
 20
0.0
 30
0.0
  9
$UCSORGBOTTOM
 10
0.0
 20
0.0
 30
0.0
  9
$UCSORGLEFT
 10
0.0
 20
0.0
 30
0.0
  9
$UCSORGRIGHT
 10
0.0
 20
0.0
 30
0.0
  9
$UCSORGFRONT
 10
0.0
 20
0.0
 30
0.0
  9
$UCSORGBACK
 10
0.0
 20
0.0
 30
0.0
  9
$PUCSBASE
  2

  9
$PUCSNAME
  2

  9
$PUCSORG
 10
0.0
 20
0.0
 30
0.0
  9
$PUCSXDIR
 10
1.0
 20
0.0
 30
0.0
  9
$PUCSYDIR
 10
0.0
 20
1.0
 30
0.0
  9
$PUCSORTHOREF
  2

  9
$PUCSORTHOVIEW
 70
     0
  9
$PUCSORGTOP
 10
0.0
 20
0.0
 30
0.0
  9
$PUCSORGBOTTOM
 10
0.0
 20
0.0
 30
0.0
  9
$PUCSORGLEFT
 10
0.0
 20
0.0
 30
0.0
  9
$PUCSORGRIGHT
 10
0.0
 20
0.0
 30
0.0
  9
$PUCSORGFRONT
 10
0.0
 20
0.0
 30
0.0
  9
$PUCSORGBACK
 10
0.0
 20
0.0
 30
0.0
  9
$USERI1
 70
     0
  9
$USERI2
 70
     0
  9
$USERI3
 70
     0
  9
$USERI4
 70
     0
  9
$USERI5
 70
     0
  9
$USERR1
 40
0.0
  9
$USERR2
 40
0.0
  9
$USERR3
 40
0.0
  9
$USERR4
 40
0.0
  9
$USERR5
 40
0.0
  9
$WORLDVIEW
 70
     1
  9
$SHADEDGE
 70
     3
  9
$SHADEDIF
 70
    70
  9
$TILEMODE
 70
     1
  9
$MAXACTVP
 70
    64
  9
$PINSBASE
 10
0.0
 20
0.0
 30
0.0
  9
$PLIMCHECK
 70
     0
  9
$PEXTMIN
 10
1.000000000000000E+20
 20
1.000000000000000E+20
 30
1.000000000000000E+20
  9
$PEXTMAX
 10
-1.000000000000000E+20
 20
-1.000000000000000E+20
 30
-1.000000000000000E+20
  9
$PLIMMIN
 10
-105.0
 20
-148.5
  9
$PLIMMAX
 10
105.0
 20
148.5
  9
$UNITMODE
 70
     0
  9
$VISRETAIN
 70
     1
  9
$PLINEGEN
 70
     0
  9
$PSLTSCALE
 70
     1
  9
$TREEDEPTH
 70
  3020
  9
$CMLSTYLE
  2
Standard
  9
$CMLJUST
 70
     0
  9
$CMLSCALE
 40
20.0
  9
$PROXYGRAPHICS
 70
     1
  9
$MEASUREMENT
 70
     1
  9
$CELWEIGHT
370
    -1
  9
$ENDCAPS
280
     0
  9
$JOINSTYLE
280
     0
  9
$LWDISPLAY
290
     0
  9
$INSUNITS
 70
     4
  9
$HYPERLINKBASE
  1

  9
$STYLESHEET
  1

  9
$XEDIT
290
     1
  9
$CEPSNTYPE
380
     0
  9
$PSTYLEMODE
290
     1
  9
$FINGERPRINTGUID
  2
{04095C65-6925-40D6-B849-F31376A88200}
  9
$VERSIONGUID
  2
{FAEB1C32-E019-11D5-929B-00C0DF256EC4}
  9
$EXTNAMES
290
     1
  9
$PSVPSCALE
 40
0.0
  9
$OLESTARTUP
290
     0
  9
$SORTENTS
280
   127
  9
$INDEXCTL
280
     0
  9
$HIDETEXT
280
     1
  9
$XCLIPFRAME
290
     0
  9
$HALOGAP
280
     0
  9
$OBSCOLOR
 70
   257
  9
$OBSLTYPE
280
     0
  9
$INTERSECTIONDISPLAY
280
     0
  9
$INTERSECTIONCOLOR
 70
   257
  9
$DIMASSOC
280
     2
  9
$PROJECTNAME
  1

  0
ENDSEC
  0
SECTION
  2
CLASSES
  0
CLASS
  1
ACDBDICTIONARYWDFLT
  2
AcDbDictionaryWithDefault
  3
ObjectDBX Classes
 90
        0
 91
        4
280
     0
281
     0
  0
CLASS
  1
VISUALSTYLE
  2
AcDbVisualStyle
  3
ObjectDBX Classes
 90
     4095
 91
        4
280
     0
281
     0
  0
CLASS
  1
MATERIAL
  2
AcDbMaterial
  3
ObjectDBX Classes
 90
     1153
 91
        4
280
     0
281
     0
  0
CLASS
  1
SUN
  2
AcDbSun
  3
SCENEOE
 90
     1024
 91
        4
280
     0
281
     0
  0
ENDSEC
  0
SECTION
  2
TABLES
  0
TABLE
  2
VPORT
  5
8
330
0
100
AcDbSymbolTable
 70
     1
  0
VPORT
  5
29
330
8
100
AcDbSymbolTableRecord
100
AcDbViewportTableRecord
  2
*Active
 70
     0
 10
0.0
 20
0.0
 11
1.0
 21
1.0
 12
344.1869158878504
 22
148.5
 13
0.0
 23
0.0
 14
10.0
 24
10.0
 15
10.0
 25
10.0
 16
0.0
 26
0.0
 36
1.0
 17
0.0
 27
0.0
 37
0.0
 40
297.0
 41
1.972972972850329
 42
50.0
 43
0.0
 44
0.0
 50
0.0
 51
0.0
 71
     0
 72
   100
 73
     1
 74
     3
 75
     0
 76
     0
 77
     0
 78
     0
281
     0
 65
     1
110
0.0
120
0.0
130
0.0
111
1.0
121
0.0
131
0.0
112
0.0
122
1.0
132
0.0
 79
     0
146
0.0
  0
ENDTAB
  0
TABLE
  2
LTYPE
  5
5
330
0
100
AcDbSymbolTable
 70
     5
  0
LTYPE
  5
14
330
5
100
AcDbSymbolTableRecord
100
AcDbLinetypeTableRecord
  2
ByBlock
 70
     0
  3

 72
    65
 73
     0
 40
0.0
  0
LTYPE
  5
15
330
5
100
AcDbSymbolTableRecord
100
AcDbLinetypeTableRecord
  2
ByLayer
 70
     0
  3

 72
    65
 73
     0
 40
0.0
  0
LTYPE
  5
16
330
5
100
AcDbSymbolTableRecord
100
AcDbLinetypeTableRecord
  2
Continuous
 70
     0
  3
Solid line
 72
    65
 73
     0
 40
0.0
  0
LTYPE
  5
40
330
5
100
AcDbSymbolTableRecord
100
AcDbLinetypeTableRecord
  2
CONTINOUS
 70
     0
  3
______________________________
 72
    65
 73
     0
 40
0.0
  0
LTYPE
  5
41
330
5
100
AcDbSymbolTableRecord
100
AcDbLinetypeTableRecord
  2
DASHED
 70
     0
  3
__ __ __ __ __ __ __ __ __ __ __ __ __ __ __ __
 72
    65
 73
     2
 40
4.5
 49
3.0
 74
     0
 49
-1.5
 74
     0
  0
LTYPE
  5
42
330
5
100
AcDbSymbolTableRecord
100
AcDbLinetypeTableRecord
  2
PHANTOM
 70
     0
  3
______  __  __  ______  __  __  _____
 72
    65
 73
     6
 40
15.0
 49
7.5
 74
     0
 49
-1.5
 74
     0
 49
1.5
 74
     0
 49
-1.5
 74
     0
 49
1.5
 74
     0
 49
-1.5
 74
     0
  0
LTYPE
  5
43
330
5
100
AcDbSymbolTableRecord
100
AcDbLinetypeTableRecord
  2
CENTER
 70
     0
  3
____ _ ____ _ ____ _ ____ _ ____ _ ____
 72
    65
 73
     4
 40
12.0
 49
7.5
 74
     0
 49
-1.5
 74
     0
 49
1.5
 74
     0
 49
-1.5
 74
     0
  0
ENDTAB
  0
TABLE
  2
LAYER
  5
2
330
0
100
AcDbSymbolTable
 70
     4
  0
LAYER
  5
10
330
2
100
AcDbSymbolTableRecord
100
AcDbLayerTableRecord
  2
0
 70
     0
 62
     7
  6
Continuous
370
    -3
390
F
  0
LAYER
  5
44
330
2
100
AcDbSymbolTableRecord
100
AcDbLayerTableRecord
  2
VIEW0001
 70
     0
 62
     7
  6
Continuous
370
    -3
390
F
  0
LAYER
  5
5C
330
2
100
AcDbSymbolTableRecord
100
AcDbLayerTableRecord
  2
VIEW0002
 70
     0
 62
     7
  6
Continuous
370
    -3
390
F
  0
LAYER
  5
141
330
2
100
AcDbSymbolTableRecord
100
AcDbLayerTableRecord
  2
Defpoints
 70
     0
 62
     7
  6
Continuous
290
     0
370
    -3
390
F
  0
ENDTAB
  0
TABLE
  2
STYLE
  5
3
330
0
100
AcDbSymbolTable
 70
     1
  0
STYLE
  5
11
330
3
100
AcDbSymbolTableRecord
100
AcDbTextStyleTableRecord
  2
Standard
 70
     0
 40
0.0
 41
1.0
 50
0.0
 71
     0
 42
2.5
  3
ROMANS
  4
BIGFONT
  0
ENDTAB
  0
TABLE
  2
VIEW
  5
6
330
0
100
AcDbSymbolTable
 70
     0
  0
ENDTAB
  0
TABLE
  2
UCS
  5
7
330
0
100
AcDbSymbolTable
 70
     0
  0
ENDTAB
  0
TABLE
  2
APPID
  5
9
330
0
100
AcDbSymbolTable
 70
     1
  0
APPID
  5
12
330
9
100
AcDbSymbolTableRecord
100
AcDbRegAppTableRecord
  2
ACAD
 70
     0
  0
ENDTAB
  0
TABLE
  2
DIMSTYLE
  5
A
330
0
100
AcDbSymbolTable
 70
     1
100
AcDbDimStyleTable
  0
DIMSTYLE
105
27
102
{ACAD_REACTORS
330
13A
330
14E
330
15B
330
168
330
175
330
183
330
191
330
1A6
330
1C5
330
1D2
330
1E0
330
1ED
330
203
330
217
330
225
102
}
330
A
100
AcDbSymbolTableRecord
100
AcDbDimStyleTableRecord
  2
ISO-25
 70
     0
 41
2.5
 42
0.625
 43
3.75
 44
1.25
 73
     0
 74
     0
 77
     1
 78
     8
140
2.5
141
2.5
143
0.03937007874016
147
0.625
171
     3
172
     1
178
     0
271
     2
272
     2
274
     3
278
    44
283
     0
284
     8
340
11
  0
ENDTAB
  0
TABLE
  2
BLOCK_RECORD
  5
1
330
0
100
AcDbSymbolTable
 70
    20
  0
BLOCK_RECORD
  5
1F
330
1
100
AcDbSymbolTableRecord
100
AcDbBlockTableRecord
  2
*Model_Space
340
22
  0
BLOCK_RECORD
  5
1B
330
1
100
AcDbSymbolTableRecord
100
AcDbBlockTableRecord
  2
*Paper_Space
340
1E
  0
BLOCK_RECORD
  5
23
330
1
100
AcDbSymbolTableRecord
100
AcDbBlockTableRecord
  2
*Paper_Space0
340
26
  0
BLOCK_RECORD
  5
13B
330
1
100
AcDbSymbolTableRecord
100
AcDbBlockTableRecord
  2
_OPEN30
340
0
102
{BLKREFS
331
149
331
148
331
156
331
155
331
163
331
162
331
170
331
16F
331
17D
331
17C
331
18B
331
18A
331
0
331
1AD
331
1AC
331
1CD
331
1CC
331
1DA
331
1D9
331
1E8
331
1E7
331
0
331
0
331
0
331
0
331
21E
331
21D
331
0
102
}
  0
BLOCK_RECORD
  5
142
330
1
100
AcDbSymbolTableRecord
100
AcDbBlockTableRecord
  2
*D2
340
0
  0
BLOCK_RECORD
  5
14F
330
1
100
AcDbSymbolTableRecord
100
AcDbBlockTableRecord
  2
*D3
340
0
  0
BLOCK_RECORD
  5
15C
330
1
100
AcDbSymbolTableRecord
100
AcDbBlockTableRecord
  2
*D4
340
0
  0
BLOCK_RECORD
  5
169
330
1
100
AcDbSymbolTableRecord
100
AcDbBlockTableRecord
  2
*D5
340
0
  0
BLOCK_RECORD
  5
176
330
1
100
AcDbSymbolTableRecord
100
AcDbBlockTableRecord
  2
*D6
340
0
  0
BLOCK_RECORD
  5
184
330
1
100
AcDbSymbolTableRecord
100
AcDbBlockTableRecord
  2
*D7
340
0
  0
BLOCK_RECORD
  5
192
330
1
100
AcDbSymbolTableRecord
100
AcDbBlockTableRecord
  2
_NONE
340
0
102
{BLKREFS
331
0
331
0
102
}
  0
BLOCK_RECORD
  5
195
330
1
100
AcDbSymbolTableRecord
100
AcDbBlockTableRecord
  2
*D9
340
0
  0
BLOCK_RECORD
  5
1A7
330
1
100
AcDbSymbolTableRecord
100
AcDbBlockTableRecord
  2
*D10
340
0
  0
BLOCK_RECORD
  5
1B3
330
1
100
AcDbSymbolTableRecord
100
AcDbBlockTableRecord
  2
DIM0001
340
0
102
{BLKREFS
331
1B9
102
}
  0
BLOCK_RECORD
  5
1BC
330
1
100
AcDbSymbolTableRecord
100
AcDbBlockTableRecord
  2
DIM0002
340
0
102
{BLKREFS
331
1C2
102
}
  0
BLOCK_RECORD
  5
1C6
330
1
100
AcDbSymbolTableRecord
100
AcDbBlockTableRecord
  2
*D13
340
0
  0
BLOCK_RECORD
  5
1D3
330
1
100
AcDbSymbolTableRecord
100
AcDbBlockTableRecord
  2
*D14
340
0
  0
BLOCK_RECORD
  5
1E1
330
1
100
AcDbSymbolTableRecord
100
AcDbBlockTableRecord
  2
*D15
340
0
  0
BLOCK_RECORD
  5
1EE
330
1
100
AcDbSymbolTableRecord
100
AcDbBlockTableRecord
  2
*D16
340
0
  0
BLOCK_RECORD
  5
204
330
1
100
AcDbSymbolTableRecord
100
AcDbBlockTableRecord
  2
*D17
340
0
  0
BLOCK_RECORD
  5
218
330
1
100
AcDbSymbolTableRecord
100
AcDbBlockTableRecord
  2
*D18
340
0
  0
BLOCK_RECORD
  5
226
330
1
100
AcDbSymbolTableRecord
100
AcDbBlockTableRecord
  2
*D19
340
0
  0
ENDTAB
  0
ENDSEC
  0
SECTION
  2
BLOCKS
  0
BLOCK
  5
20
330
1F
100
AcDbEntity
  8
0
100
AcDbBlockBegin
  2
*Model_Space
 70
     0
 10
0.0
 20
0.0
 30
0.0
  3
*Model_Space
  1

  0
ENDBLK
  5
21
330
1F
100
AcDbEntity
  8
0
100
AcDbBlockEnd
  0
BLOCK
  5
1C
330
1B
100
AcDbEntity
 67
     1
  8
0
100
AcDbBlockBegin
  2
*Paper_Space
 70
     0
 10
0.0
 20
0.0
 30
0.0
  3
*Paper_Space
  1

  0
ENDBLK
  5
1D
330
1B
100
AcDbEntity
 67
     1
  8
0
100
AcDbBlockEnd
  0
BLOCK
  5
24
330
23
100
AcDbEntity
  8
0
100
AcDbBlockBegin
  2
*Paper_Space0
 70
     0
 10
0.0
 20
0.0
 30
0.0
  3
*Paper_Space0
  1

  0
ENDBLK
  5
25
330
23
100
AcDbEntity
  8
0
100
AcDbBlockEnd
  0
BLOCK
  5
13C
330
13B
100
AcDbEntity
  8
0
100
AcDbBlockBegin
  2
_OPEN30
 70
     0
 10
0.0
 20
0.0
 30
0.0
  3
_OPEN30
  1

  0
LINE
  5
13E
330
13B
100
AcDbEntity
  8
0
  6
ByBlock
 62
     0
370
    -2
100
AcDbLine
 10
-1.0
 20
0.267949
 30
0.0
 11
0.0
 21
0.0
 31
0.0
  0
LINE
  5
13F
330
13B
100
AcDbEntity
  8
0
  6
ByBlock
 62
     0
370
    -2
100
AcDbLine
 10
0.0
 20
0.0
 30
0.0
 11
-1.0
 21
-0.267949
 31
0.0
  0
LINE
  5
140
330
13B
100
AcDbEntity
  8
0
  6
ByBlock
 62
     0
370
    -2
100
AcDbLine
 10
0.0
 20
0.0
 30
0.0
 11
-1.0
 21
0.0
 31
0.0
  0
ENDBLK
  5
13D
330
13B
100
AcDbEntity
  8
0
100
AcDbBlockEnd
  0
BLOCK
  5
143
330
142
100
AcDbEntity
  8
0
100
AcDbBlockBegin
  2
*D2
 70
     1
 10
0.0
 20
0.0
 30
0.0
  3
*D2
  1

  0
LINE
  5
145
330
142
100
AcDbEntity
  8
0
 62
     0
370
    -2
100
AcDbLine
 10
26.81704716073146
 20
-19.40933756959573
 30
0.0
 11
18.85481851982718
 21
-6.157963717014753
 31
0.0
  0
LINE
  5
146
330
142
100
AcDbEntity
  8
0
 62
     0
370
    -2
100
AcDbLine
 10
48.24623073946083
 20
-6.533385148366422
 30
0.0
 11
40.28400209855656
 21
6.717988704214546
 31
0.0
  0
LINE
  5
147
330
142
100
AcDbEntity
  8
0
 62
     0
370
    -2
100
AcDbLine
 10
21.94135849894618
 20
-5.470016802420277
 30
0.0
 11
38.22753826401805
 21
4.315707185067563
 31
0.0
  0
INSERT
  5
148
330
142
100
AcDbEntity
  8
0
 62
     0
370
    -2
100
AcDbBlockReference
  2
_OPEN30
 10
19.36985659211742
 20
-7.015131019291006
 30
0.0
 41
3.0
 42
3.0
 43
3.0
 50
210.9999998248835
  0
INSERT
  5
149
330
142
100
AcDbEntity
  8
0
 62
     0
370
    -2
100
AcDbBlockReference
  2
_OPEN30
 10
40.79904017084681
 20
5.860821401938292
 30
0.0
 41
3.0
 42
3.0
 43
3.0
 50
30.99999982488352
  0
MTEXT
  5
14A
330
142
100
AcDbEntity
  8
0
 62
     1
100
AcDbMText
 10
28.84167479899054
 20
1.492831203442688
 30
0.0
 40
3.200000047683716
 41
0.0
 71
     5
 72
     1
  1
50
 11
0.8571673022762537
 21
0.5150380722902431
 31
0.0
 73
     1
 44
1.0
  0
POINT
  5
14B
330
142
100
AcDbEntity
  8
Defpoints
 62
     0
100
AcDbPoint
 10
28.12524386434868
 20
-21.58654251737742
 30
0.0
  0
POINT
  5
14C
330
142
100
AcDbEntity
  8
Defpoints
 62
     0
100
AcDbPoint
 10
49.55442744307805
 20
-8.710590096148106
 30
0.0
  0
POINT
  5
14D
330
142
100
AcDbEntity
  8
Defpoints
 62
     0
100
AcDbPoint
 10
40.79877628471527
 20
5.861260582215731
 30
0.0
  0
ENDBLK
  5
144
330
142
100
AcDbEntity
  8
0
100
AcDbBlockEnd
  0
BLOCK
  5
150
330
14F
100
AcDbEntity
  8
0
100
AcDbBlockBegin
  2
*D3
 70
     1
 10
0.0
 20
0.0
 30
0.0
  3
*D3
  1

  0
LINE
  5
152
330
14F
100
AcDbEntity
  8
0
 62
     0
370
    -2
100
AcDbLine
 10
35.26992231998417
 20
-32.50648164888891
 30
0.0
 11
43.74727515878071
 21
-46.61516614081949
 31
0.0
  0
LINE
  5
153
330
14F
100
AcDbEntity
  8
0
 62
     0
370
    -2
100
AcDbLine
 10
55.84193828989039
 20
-20.14556748414181
 30
0.0
 11
64.31929112868693
 21
-34.25425197607239
 31
0.0
  0
LINE
  5
154
330
14F
100
AcDbEntity
  8
0
 62
     0
370
    -2
100
AcDbLine
 10
45.80373899331921
 20
-44.21288462167248
 30
0.0
 11
61.2327511495679
 21
-34.94219889066684
 31
0.0
  0
INSERT
  5
155
330
14F
100
AcDbEntity
  8
0
 62
     0
370
    -2
100
AcDbBlockReference
  2
_OPEN30
 10
43.23223708649045
 20
-45.75799883854321
 30
0.0
 41
3.0
 42
3.0
 43
3.0
 50
210.9999998248835
  0
INSERT
  5
156
330
14F
100
AcDbEntity
  8
0
 62
     0
370
    -2
100
AcDbBlockReference
  2
_OPEN30
 10
63.80425305639667
 20
-33.39708467379611
 30
0.0
 41
3.0
 42
3.0
 43
3.0
 50
30.99999982488354
  0
MTEXT
  5
157
330
14F
100
AcDbEntity
  8
0
 62
     1
100
AcDbMText
 10
52.27591323282842
 20
-37.50729031755341
 30
0.0
 40
3.200000047683716
 41
0.0
 71
     5
 72
     1
  1
48
 11
0.8571673022762536
 21
0.5150380722902435
 31
0.0
 73
     1
 44
1.0
  0
POINT
  5
158
330
14F
100
AcDbEntity
  8
Defpoints
 62
     0
100
AcDbPoint
 10
33.96172561636695
 20
-30.32927670110723
 30
0.0
  0
POINT
  5
159
330
14F
100
AcDbEntity
  8
Defpoints
 62
     0
100
AcDbPoint
 10
54.53374158627317
 20
-17.96836253636012
 30
0.0
  0
POINT
  5
15A
330
14F
100
AcDbEntity
  8
Defpoints
 62
     0
100
AcDbPoint
 10
63.80442688749754
 20
-33.39737397733268
 30
0.0
  0
ENDBLK
  5
151
330
14F
100
AcDbEntity
  8
0
100
AcDbBlockEnd
  0
BLOCK
  5
15D
330
15C
100
AcDbEntity
  8
0
100
AcDbBlockBegin
  2
*D4
 70
     1
 10
0.0
 20
0.0
 30
0.0
  3
*D4
  1

  0
LINE
  5
15F
330
15C
100
AcDbEntity
  8
0
 62
     0
370
    -2
100
AcDbLine
 10
23.47298834983194
 20
-19.66870071025743
 30
0.0
 11
11.13293625500708
 21
0.868594944477471
 31
0.0
  0
LINE
  5
160
330
15C
100
AcDbEntity
  8
0
 62
     0
370
    -2
100
AcDbLine
 10
50.04517553785424
 20
-3.702519978081314
 30
0.0
 11
37.70512344302938
 21
16.8347756766536
 31
0.0
  0
LINE
  5
161
330
15C
100
AcDbEntity
  8
0
 62
     0
370
    -2
100
AcDbLine
 10
14.21947623412608
 20
1.556541859071954
 30
0.0
 11
35.64865960849086
 21
14.43249415750662
 31
0.0
  0
INSERT
  5
162
330
15C
100
AcDbEntity
  8
0
 62
     0
370
    -2
100
AcDbBlockReference
  2
_OPEN30
 10
11.64797432729732
 20
0.011427642201223
 30
0.0
 41
3.0
 42
3.0
 43
3.0
 50
210.9999998248836
  0
INSERT
  5
163
330
15C
100
AcDbEntity
  8
0
 62
     0
370
    -2
100
AcDbBlockReference
  2
_OPEN30
 10
38.22016151531962
 20
15.97760837437735
 30
0.0
 41
3.0
 42
3.0
 43
3.0
 50
30.99999982488354
  0
MTEXT
  5
164
330
15C
100
AcDbEntity
  8
0
 62
     1
100
AcDbMText
 10
23.6912937107337
 20
10.06450364301788
 30
0.0
 40
3.200000047683716
 41
0.0
 71
     5
 72
     1
  1
62
 11
0.8571673022762534
 21
0.5150380722902435
 31
0.0
 73
     1
 44
1.0
  0
POINT
  5
165
330
15C
100
AcDbEntity
  8
Defpoints
 62
     0
100
AcDbPoint
 10
24.78118505344916
 20
-21.84590565803912
 30
0.0
  0
POINT
  5
166
330
15C
100
AcDbEntity
  8
Defpoints
 62
     0
100
AcDbPoint
 10
51.35337224147146
 20
-5.879724925862998
 30
0.0
  0
POINT
  5
167
330
15C
100
AcDbEntity
  8
Defpoints
 62
     0
100
AcDbPoint
 10
38.21989648628443
 20
15.97804945676588
 30
0.0
  0
ENDBLK
  5
15E
330
15C
100
AcDbEntity
  8
0
100
AcDbBlockEnd
  0
BLOCK
  5
16A
330
169
100
AcDbEntity
  8
0
100
AcDbBlockBegin
  2
*D5
 70
     1
 10
0.0
 20
0.0
 30
0.0
  3
*D5
  1

  0
LINE
  5
16C
330
169
100
AcDbEntity
  8
0
 62
     0
370
    -2
100
AcDbLine
 10
-63.53807739257812
 20
54.32368850708008
 30
0.0
 11
-72.59608349609374
 21
54.32368850708007
 31
0.0
  0
LINE
  5
16D
330
169
100
AcDbEntity
  8
0
 62
     0
370
    -2
100
AcDbLine
 10
-63.53807739257812
 20
41.32368850708008
 30
0.0
 11
-72.59608349609374
 21
41.32368850708007
 31
0.0
  0
LINE
  5
16E
330
169
100
AcDbEntity
  8
0
 62
     0
370
    -2
100
AcDbLine
 10
-71.59608349609374
 20
51.32368850708007
 30
0.0
 11
-71.59608349609374
 21
44.32368850708007
 31
0.0
  0
INSERT
  5
16F
330
169
100
AcDbEntity
  8
0
 62
     0
370
    -2
100
AcDbBlockReference
  2
_OPEN30
 10
-71.59608349609374
 20
54.32368850708007
 30
0.0
 41
3.0
 42
3.0
 43
3.0
 50
90.0
  0
INSERT
  5
170
330
169
100
AcDbEntity
  8
0
 62
     0
370
    -2
100
AcDbBlockReference
  2
_OPEN30
 10
-71.59608349609374
 20
41.32368850708007
 30
0.0
 41
3.0
 42
3.0
 43
3.0
 50
270.0
  0
MTEXT
  5
171
330
169
100
AcDbEntity
  8
0
 62
     1
100
AcDbMText
 10
-74.0104835320711
 20
47.82468850708008
 30
0.0
 40
3.200000047683716
 41
0.0
 71
     5
 72
     1
  1
26
 11
0.0
 21
1.0
 31
0.0
 73
     1
 44
1.0
  0
POINT
  5
172
330
169
100
AcDbEntity
  8
Defpoints
 62
     0
100
AcDbPoint
 10
-60.99807739257812
 20
54.32368850708008
 30
0.0
  0
POINT
  5
173
330
169
100
AcDbEntity
  8
Defpoints
 62
     0
100
AcDbPoint
 10
-60.99807739257812
 20
41.32368850708008
 30
0.0
  0
POINT
  5
174
330
169
100
AcDbEntity
  8
Defpoints
 62
     0
100
AcDbPoint
 10
-71.59808349609375
 20
41.32368850708007
 30
0.0
  0
ENDBLK
  5
16B
330
169
100
AcDbEntity
  8
0
100
AcDbBlockEnd
  0
BLOCK
  5
177
330
176
100
AcDbEntity
  8
0
100
AcDbBlockBegin
  2
*D6
 70
     1
 10
0.0
 20
0.0
 30
0.0
  3
*D6
  1

  0
LINE
  5
179
330
176
100
AcDbEntity
  8
0
 62
     0
370
    -2
100
AcDbLine
 10
53.53057718925313
 20
-4.571528222245779
 30
0.0
 11
69.35388152498966
 21
4.93607215016448
 31
0.0
  0
LINE
  5
17A
330
176
100
AcDbEntity
  8
0
 62
     0
370
    -2
100
AcDbLine
 10
63.83133667034368
 20
-21.71487099793708
 30
0.0
 11
79.65464100608021
 21
-12.20727062552682
 31
0.0
  0
LINE
  5
17B
330
176
100
AcDbEntity
  8
0
 62
     0
370
    -2
100
AcDbLine
 10
70.04182843958415
 20
1.849532171045485
 30
0.0
 11
77.25235948693324
 21
-10.1508067909883
 31
0.0
  0
INSERT
  5
17C
330
176
100
AcDbEntity
  8
0
 62
     0
370
    -2
100
AcDbBlockReference
  2
_OPEN30
 10
68.49671422271342
 20
4.421034077874245
 30
0.0
 41
3.0
 42
3.0
 43
3.0
 50
120.9999998248836
  0
INSERT
  5
17D
330
176
100
AcDbEntity
  8
0
 62
     0
370
    -2
100
AcDbBlockReference
  2
_OPEN30
 10
78.79747370380397
 20
-12.72230869781706
 30
0.0
 41
3.0
 42
3.0
 43
3.0
 50
300.9999998248836
  0
MTEXT
  5
17E
330
176
100
AcDbEntity
  8
0
 62
     1
 60
     1
100
AcDbMText
 10
75.71663949201691
 20
-2.907130640054989
 30
0.0
 40
3.200000047683716
 41
0.0
 71
     5
 72
     1
  1
40
 11
0.5150380722902438
 21
-0.8571673022762533
 31
0.0
 73
     1
 44
1.0
  0
POINT
  5
17F
330
176
100
AcDbEntity
  8
Defpoints
 62
     0
100
AcDbPoint
 10
51.35337224147145
 20
-5.879724925862998
 30
0.0
  0
POINT
  5
180
330
176
100
AcDbEntity
  8
Defpoints
 62
     0
100
AcDbPoint
 10
61.654131722562
 20
-23.0230677015543
 30
0.0
  0
POINT
  5
181
330
176
100
AcDbEntity
  8
Defpoints
 62
     0
100
AcDbPoint
 10
78.79747613317019
 20
-12.72230723810659
 30
0.0
  0
MTEXT
  5
182
330
176
100
AcDbEntity
  8
0
 62
     1
100
AcDbMText
 10
74.37411033097857
 20
-6.913878978374605
 30
0.0
 40
3.200000047683716
 41
0.0
 71
     7
 72
     1
  1
\W1;40
 11
-0.5150380749100543
 21
0.8571673007021123
 31
0.0
 73
     1
 44
1.0
  0
ENDBLK
  5
178
330
176
100
AcDbEntity
  8
0
100
AcDbBlockEnd
  0
BLOCK
  5
185
330
184
100
AcDbEntity
  8
0
100
AcDbBlockBegin
  2
*D7
 70
     1
 10
0.0
 20
0.0
 30
0.0
  3
*D7
  1

  0
LINE
  5
187
330
184
100
AcDbEntity
  8
0
 62
     0
370
    -2
100
AcDbLine
 10
53.78994045270949
 20
-7.915587237509898
 30
0.0
 11
62.32732883843432
 21
-2.785806802698463
 31
0.0
  0
LINE
  5
188
330
184
100
AcDbEntity
  8
0
 62
     0
370
    -2
100
AcDbLine
 10
61.00047150005857
 20
-19.91592619954373
 30
0.0
 11
69.53785988578342
 21
-14.78614576473228
 31
0.0
  0
LINE
  5
189
330
184
100
AcDbEntity
  8
0
 62
     0
370
    -2
100
AcDbLine
 10
63.0152757530288
 20
-5.872346781817466
 30
0.0
 11
67.13557836663644
 21
-12.72968193019376
 31
0.0
  0
INSERT
  5
18A
330
184
100
AcDbEntity
  8
0
 62
     0
370
    -2
100
AcDbBlockReference
  2
_OPEN30
 10
61.47016153615807
 20
-3.300844874988706
 30
0.0
 41
3.0
 42
3.0
 43
3.0
 50
120.9999998248835
  0
INSERT
  5
18B
330
184
100
AcDbEntity
  8
0
 62
     0
370
    -2
100
AcDbBlockReference
  2
_OPEN30
 10
68.68069258350717
 20
-15.30118383702252
 30
0.0
 41
3.0
 42
3.0
 43
3.0
 50
300.9999998248836
  0
MTEXT
  5
18C
330
184
100
AcDbEntity
  8
0
 62
     1
 60
     1
100
AcDbMText
 10
67.0573835105716
 20
-7.911734979654599
 30
0.0
 40
3.200000047683716
 41
0.0
 71
     5
 72
     1
  1
28
 11
0.5150380722902435
 21
-0.8571673022762534
 31
0.0
 73
     1
 44
1.0
  0
POINT
  5
18D
330
184
100
AcDbEntity
  8
Defpoints
 62
     0
100
AcDbPoint
 10
51.61273550492781
 20
-9.223783941127117
 30
0.0
  0
POINT
  5
18E
330
184
100
AcDbEntity
  8
Defpoints
 62
     0
100
AcDbPoint
 10
58.82326655227689
 20
-21.22412290316095
 30
0.0
  0
POINT
  5
18F
330
184
100
AcDbEntity
  8
Defpoints
 62
     0
100
AcDbPoint
 10
68.68068889353692
 20
-15.30118605418031
 30
0.0
  0
MTEXT
  5
190
330
184
100
AcDbEntity
  8
0
 62
     1
100
AcDbMText
 10
65.71485434953325
 20
-11.91848331797421
 30
0.0
 40
3.200000047683716
 41
0.0
 71
     7
 72
     1
  1
\W1;28
 11
-0.5150380749100543
 21
0.8571673007021123
 31
0.0
 73
     1
 44
1.0
  0
ENDBLK
  5
186
330
184
100
AcDbEntity
  8
0
100
AcDbBlockEnd
  0
BLOCK
  5
193
330
192
100
AcDbEntity
  8
0
100
AcDbBlockBegin
  2
_NONE
 70
     0
 10
0.0
 20
0.0
 30
0.0
  3
_NONE
  1

  0
ENDBLK
  5
194
330
192
100
AcDbEntity
  8
0
100
AcDbBlockEnd
  0
BLOCK
  5
196
330
195
100
AcDbEntity
  8
0
100
AcDbBlockBegin
  2
*D9
 70
     1
 10
0.0
 20
0.0
 30
0.0
  3
*D9
  1

  0
MTEXT
  5
19D
330
195
100
AcDbEntity
  8
0
 62
     1
 60
     1
100
AcDbMText
 10
57.96987601499888
 20
7.212411633772856
 30
0.0
 40
3.200000047683716
 41
0.0
 71
     5
 72
     1
  1
6
 11
0.5150380722902451
 21
-0.8571673022762524
 31
0.0
 73
     1
 44
1.0
  0
POINT
  5
19E
330
195
100
AcDbEntity
  8
Defpoints
 62
     0
100
AcDbPoint
 10
51.35337224147145
 20
-5.879724925862998
 30
0.0
  0
POINT
  5
19F
330
195
100
AcDbEntity
  8
Defpoints
 62
     0
100
AcDbPoint
 10
51.61273550492781
 20
-9.223783941127117
 30
0.0
  0
POINT
  5
1A0
330
195
100
AcDbEntity
  8
Defpoints
 62
     0
100
AcDbPoint
 10
61.47015784618782
 20
-3.300847092146479
 30
0.0
  0
MTEXT
  5
1A1
330
195
100
AcDbEntity
  8
0
 62
     1
100
AcDbMText
 10
57.4505315765774
 20
1.835653832438165
 30
0.0
 40
3.200000047683716
 41
0.0
 71
     7
 72
     1
  1
\W1;6
 11
-0.5150380749100543
 21
0.8571673007021123
 31
0.0
 73
     1
 44
1.0
  0
LINE
  5
1A2
330
195
100
AcDbEntity
  8
0
  6
Continuous
 62
     7
100
AcDbLine
 10
56.65455187027406
 20
4.713667184136458
 30
0.0
 11
61.47015784618784
 21
-3.300847092146512
 31
0.0
  0
LINE
  5
1A3
330
195
100
AcDbEntity
  8
0
  6
Continuous
 62
     7
100
AcDbLine
 10
59.9250436293171
 20
-0.729345185317747
 30
0.0
 11
57.65029145531795
 21
1.467357468144192
 31
0.0
  0
LINE
  5
1A4
330
195
100
AcDbEntity
  8
0
  6
Continuous
 62
     7
100
AcDbLine
 10
59.9250436293171
 20
-0.729345185317747
 30
0.0
 11
59.05340178587534
 21
2.310431204090209
 31
0.0
  0
LINE
  5
1A5
330
195
100
AcDbEntity
  8
0
  6
Continuous
 62
     7
100
AcDbLine
 10
59.9250436293171
 20
-0.729345185317747
 30
0.0
 11
56.95888690526623
 21
4.207168626132031
 31
0.0
  0
ENDBLK
  5
197
330
195
100
AcDbEntity
  8
0
100
AcDbBlockEnd
  0
BLOCK
  5
1A8
330
1A7
100
AcDbEntity
  8
0
100
AcDbBlockBegin
  2
*D10
 70
     1
 10
0.0
 20
0.0
 30
0.0
  3
*D10
  1

  0
LINE
  5
1AA
330
1A7
100
AcDbEntity
  8
0
 62
     0
370
    -2
100
AcDbLine
 10
49.61212588935849
 20
-18.59230078000534
 30
0.0
 11
49.2490854225844
 21
-18.8104374980931
 31
0.0
  0
LINE
  5
1AB
330
1A7
100
AcDbEntity
  8
0
 62
     0
370
    -2
100
AcDbLine
 10
46.50098818354326
 20
-12.29523157970284
 30
0.0
 11
48.56113850798992
 21
-15.72389751897409
 31
0.0
  0
INSERT
  5
1AC
330
1A7
100
AcDbEntity
  8
0
 62
     0
370
    -2
100
AcDbBlockReference
  2
_OPEN30
 10
44.95587396667253
 20
-9.723729672874079
 30
0.0
 41
3.0
 42
3.0
 43
3.0
 50
120.9999998248835
  0
INSERT
  5
1AD
330
1A7
100
AcDbEntity
  8
0
 62
     0
370
    -2
100
AcDbBlockReference
  2
_OPEN30
 10
50.10625272486065
 20
-18.29539942580286
 30
0.0
 41
3.0
 42
3.0
 43
3.0
 50
300.9999998248836
  0
MTEXT
  5
1AE
330
1A7
100
AcDbEntity
  8
0
 62
     1
 60
     1
100
AcDbMText
 10
49.14771997699475
 20
-13.03778241587886
 30
0.0
 40
2.5
 41
0.0
 71
     5
 72
     1
  1
20
 11
0.5150380722902435
 21
-0.8571673022762535
 31
0.0
 73
     1
 44
1.0
  0
POINT
  5
1AF
330
1A7
100
AcDbEntity
  8
Defpoints
 62
     0
100
AcDbPoint
 10
41.92453109897423
 20
-11.54514421223426
 30
0.0
  0
POINT
  5
1B0
330
1A7
100
AcDbEntity
  8
Defpoints
 62
     0
100
AcDbPoint
 10
51.78933083714017
 20
-17.28410407638811
 30
0.0
  0
POINT
  5
1B1
330
1A7
100
AcDbEntity
  8
Defpoints
 62
     0
100
AcDbPoint
 10
50.10507543338431
 20
-18.2961068138832
 30
0.0
  0
MTEXT
  5
1B2
330
1A7
100
AcDbEntity
  8
0
 62
     1
100
AcDbMText
 10
48.09786911735856
 20
-16.16905456146363
 30
0.0
 40
2.5
 41
0.0
 71
     7
 72
     1
  1
\W1;20
 11
-0.5150380749100543
 21
0.8571673007021123
 31
0.0
 73
     1
 44
1.0
  0
ENDBLK
  5
1A9
330
1A7
100
AcDbEntity
  8
0
100
AcDbBlockEnd
  0
BLOCK
  5
1BA
330
1B3
100
AcDbEntity
  8
0
100
AcDbBlockBegin
  2
DIM0001
 70
     0
 10
0.0
 20
0.0
 30
0.0
  3
DIM0001
  1

  0
LINE
  5
1B4
330
1B3
100
AcDbEntity
  8
0
  6
Continuous
 62
     7
100
AcDbLine
 10
0.0
 20
0.0
 30
0.0
 11
-2.749098569378106
 21
19.65620291273792
 31
0.0
  0
LINE
  5
1B5
330
1B3
100
AcDbEntity
  8
0
  6
Continuous
 62
     7
100
AcDbLine
 10
0.0
 20
0.0
 30
0.0
 11
-1.233653800721321
 21
2.911717414311779
 31
0.0
  0
LINE
  5
1B6
330
1B3
100
AcDbEntity
  8
0
  6
Continuous
 62
     7
100
AcDbLine
 10
0.0
 20
0.0
 30
0.0
 11
0.387483176074731
 21
3.138448149818577
 31
0.0
  0
LINE
  5
1B7
330
1B3
100
AcDbEntity
  8
0
  6
Continuous
 62
     7
100
AcDbLine
 10
-2.749093978463968
 20
19.65619776331811
 30
0.0
 11
7.121634951299377
 21
25.58713001724865
 31
0.0
  0
MTEXT
  5
1B8
330
1B3
100
AcDbEntity
  8
0
 62
     1
100
AcDbMText
 10
-3.482821635175554
 20
20.16073608501472
 30
0.0
 40
3.200000047683716
 41
0.0
 71
     7
 72
     1
  1
\W1;4-\U+22054
 11
0.8580649057236446
 21
0.51354125205817
 31
0.0
 73
     1
 44
1.0
  0
ENDBLK
  5
1BB
330
1B3
100
AcDbEntity
  8
0
100
AcDbBlockEnd
  0
BLOCK
  5
1C3
330
1BC
100
AcDbEntity
  8
0
100
AcDbBlockBegin
  2
DIM0002
 70
     0
 10
0.0
 20
0.0
 30
0.0
  3
DIM0002
  1

  0
LINE
  5
1BD
330
1BC
100
AcDbEntity
  8
0
  6
Continuous
 62
     7
100
AcDbLine
 10
0.0
 20
0.0
 30
0.0
 11
-1.460630461847167
 21
20.43908908211943
 31
0.0
  0
LINE
  5
1BE
330
1BC
100
AcDbEntity
  8
0
  6
Continuous
 62
     7
100
AcDbLine
 10
0.0
 20
0.0
 30
0.0
 11
-1.034104857931787
 21
2.988415490463549
 31
0.0
  0
LINE
  5
1BF
330
1BC
100
AcDbEntity
  8
0
  6
Continuous
 62
     7
100
AcDbLine
 10
0.0
 20
0.0
 30
0.0
 11
0.5986466679066
 21
3.105096160804838
 31
0.0
  0
LINE
  5
1C0
330
1BC
100
AcDbEntity
  8
0
  6
Continuous
 62
     7
100
AcDbLine
 10
-1.460631355916817
 20
20.43908252718553
 30
0.0
 11
8.23920298199561
 21
26.26733095157895
 31
0.0
  0
MTEXT
  5
1C1
330
1BC
100
AcDbEntity
  8
0
 62
     1
100
AcDbMText
 10
-2.365253508271948
 20
20.84093854502616
 30
0.0
 40
3.200000047683716
 41
0.0
 71
     7
 72
     1
  1
\W1;2-\U+22056
 11
0.8580649057236446
 21
0.51354125205817
 31
0.0
 73
     1
 44
1.0
  0
ENDBLK
  5
1C4
330
1BC
100
AcDbEntity
  8
0
100
AcDbBlockEnd
  0
BLOCK
  5
1C7
330
1C6
100
AcDbEntity
  8
0
100
AcDbBlockBegin
  2
*D13
 70
     1
 10
0.0
 20
0.0
 30
0.0
  3
*D13
  1

  0
LINE
  5
1C9
330
1C6
100
AcDbEntity
  8
0
 62
     0
370
    -2
100
AcDbLine
 10
15.32539848327637
 20
52.32368850708008
 30
0.0
 11
24.28639848327637
 21
52.32368850708008
 31
0.0
  0
LINE
  5
1CA
330
1C6
100
AcDbEntity
  8
0
 62
     0
370
    -2
100
AcDbLine
 10
15.32539848327637
 20
43.32368850708008
 30
0.0
 11
24.28639848327637
 21
43.32368850708008
 31
0.0
  0
LINE
  5
1CB
330
1C6
100
AcDbEntity
  8
0
 62
     0
370
    -2
100
AcDbLine
 10
23.28639848327637
 20
49.32368850708008
 30
0.0
 11
23.28639848327637
 21
46.32368850708008
 31
0.0
  0
INSERT
  5
1CC
330
1C6
100
AcDbEntity
  8
0
 62
     0
370
    -2
100
AcDbBlockReference
  2
_OPEN30
 10
23.28639848327637
 20
52.32368850708008
 30
0.0
 41
3.0
 42
3.0
 43
3.0
 50
90.00000000000001
  0
INSERT
  5
1CD
330
1C6
100
AcDbEntity
  8
0
 62
     0
370
    -2
100
AcDbBlockReference
  2
_OPEN30
 10
23.28639848327637
 20
43.32368850708008
 30
0.0
 41
3.0
 42
3.0
 43
3.0
 50
270.0
  0
MTEXT
  5
1CE
330
1C6
100
AcDbEntity
  8
0
 62
     1
100
AcDbMText
 10
20.871998447299
 20
47.82468850708008
 30
0.0
 40
3.200000047683716
 41
0.0
 71
     5
 72
     1
  1
18
 11
-3.947459643111667E-16
 21
1.0
 31
0.0
 73
     1
 44
1.0
  0
POINT
  5
1CF
330
1C6
100
AcDbEntity
  8
Defpoints
 62
     0
100
AcDbPoint
 10
12.78539848327637
 20
52.32368850708008
 30
0.0
  0
POINT
  5
1D0
330
1C6
100
AcDbEntity
  8
Defpoints
 62
     0
100
AcDbPoint
 10
12.78539848327637
 20
43.32368850708008
 30
0.0
  0
POINT
  5
1D1
330
1C6
100
AcDbEntity
  8
Defpoints
 62
     0
100
AcDbPoint
 10
23.28539848327637
 20
43.32368850708008
 30
0.0
  0
ENDBLK
  5
1C8
330
1C6
100
AcDbEntity
  8
0
100
AcDbBlockEnd
  0
BLOCK
  5
1D4
330
1D3
100
AcDbEntity
  8
0
100
AcDbBlockBegin
  2
*D14
 70
     1
 10
0.0
 20
0.0
 30
0.0
  3
*D14
  1

  0
LINE
  5
1D6
330
1D3
100
AcDbEntity
  8
0
 62
     0
370
    -2
100
AcDbLine
 10
2.329130746269637
 20
-28.91996824048799
 30
0.0
 11
9.581208296970377
 21
-24.5624804643053
 31
0.0
  0
LINE
  5
1D7
330
1D3
100
AcDbEntity
  8
0
 62
     0
370
    -2
100
AcDbLine
 10
15.46260355438515
 20
-50.77773771836621
 30
0.0
 11
22.71468110508591
 21
-46.42024994218352
 31
0.0
  0
LINE
  5
1D8
330
1D3
100
AcDbEntity
  8
0
 62
     0
370
    -2
100
AcDbLine
 10
10.26915521156487
 20
-27.6490204434243
 30
0.0
 11
20.31239958593894
 21
-44.36378610764501
 31
0.0
  0
INSERT
  5
1D9
330
1D3
100
AcDbEntity
  8
0
 62
     0
370
    -2
100
AcDbBlockReference
  2
_OPEN30
 10
8.724040994694136
 20
-25.07751853659554
 30
0.0
 41
3.0
 42
3.0
 43
3.0
 50
120.9999998248835
  0
INSERT
  5
1DA
330
1D3
100
AcDbEntity
  8
0
 62
     0
370
    -2
100
AcDbBlockReference
  2
_OPEN30
 10
21.85751380280967
 20
-46.93528801447376
 30
0.0
 41
3.0
 42
3.0
 43
3.0
 50
300.9999998248836
  0
MTEXT
  5
1DB
330
1D3
100
AcDbEntity
  8
0
 62
     1
 60
     1
100
AcDbMText
 10
17.35988042066681
 20
-34.76216015055304
 30
0.0
 40
3.200000047683716
 41
0.0
 71
     5
 72
     1
  1
51
 11
0.5150380722902435
 21
-0.8571673022762534
 31
0.0
 73
     1
 44
1.0
  0
POINT
  5
1DC
330
1D3
100
AcDbEntity
  8
Defpoints
 62
     0
100
AcDbPoint
 10
0.151925798487953
 20
-30.2281649441052
 30
0.0
  0
POINT
  5
1DD
330
1D3
100
AcDbEntity
  8
Defpoints
 62
     0
100
AcDbPoint
 10
13.28539860660347
 20
-52.08593442198343
 30
0.0
  0
POINT
  5
1DE
330
1D3
100
AcDbEntity
  8
Defpoints
 62
     0
100
AcDbPoint
 10
21.85707162936601
 20
-46.93555369908099
 30
0.0
  0
MTEXT
  5
1DF
330
1D3
100
AcDbEntity
  8
0
 62
     1
100
AcDbMText
 10
16.01735125962848
 20
-38.76990848887265
 30
0.0
 40
3.200000047683716
 41
0.0
 71
     7
 72
     1
  1
\W1;51
 11
-0.5150380749100543
 21
0.8571673007021123
 31
0.0
 73
     1
 44
1.0
  0
ENDBLK
  5
1D5
330
1D3
100
AcDbEntity
  8
0
100
AcDbBlockEnd
  0
BLOCK
  5
1E2
330
1E1
100
AcDbEntity
  8
0
100
AcDbBlockBegin
  2
*D15
 70
     1
 10
0.0
 20
0.0
 30
0.0
  3
*D15
  1

  0
LINE
  5
1E4
330
1E1
100
AcDbEntity
  8
0
 62
     0
370
    -2
100
AcDbLine
 10
-61.59808349609375
 20
-24.53816314697266
 30
0.0
 11
-61.59808349609375
 21
-19.96624374389648
 31
0.0
  0
LINE
  5
1E5
330
1E1
100
AcDbEntity
  8
0
 62
     0
370
    -2
100
AcDbLine
 10
-4.848075866699219
 20
-29.65922256469727
 30
0.0
 11
-4.848075866699219
 21
-19.96624374389649
 31
0.0
  0
LINE
  5
1E6
330
1E1
100
AcDbEntity
  8
0
 62
     0
370
    -2
100
AcDbLine
 10
-58.59808349609375
 20
-20.96624374389648
 30
0.0
 11
-7.848075866699219
 21
-20.96624374389649
 31
0.0
  0
INSERT
  5
1E7
330
1E1
100
AcDbEntity
  8
0
 62
     0
370
    -2
100
AcDbBlockReference
  2
_OPEN30
 10
-61.59808349609375
 20
-20.96624374389648
 30
0.0
 41
3.0
 42
3.0
 43
3.0
 50
180.0
  0
INSERT
  5
1E8
330
1E1
100
AcDbEntity
  8
0
 62
     0
370
    -2
100
AcDbBlockReference
  2
_OPEN30
 10
-4.848075866699219
 20
-20.96624374389649
 30
0.0
 41
3.0
 42
3.0
 43
3.0
 50
360.0
  0
MTEXT
  5
1E9
330
1E1
100
AcDbEntity
  8
0
 62
     1
100
AcDbMText
 10
-33.22207968139649
 20
-18.54544370782375
 30
0.0
 40
3.200000047683716
 41
0.0
 71
     5
 72
     1
  1
113.5
 73
     1
 44
1.0
  0
POINT
  5
1EA
330
1E1
100
AcDbEntity
  8
Defpoints
 62
     0
100
AcDbPoint
 10
-61.59808349609375
 20
-27.07816314697266
 30
0.0
  0
POINT
  5
1EB
330
1E1
100
AcDbEntity
  8
Defpoints
 62
     0
100
AcDbPoint
 10
-4.848075866699219
 20
-32.19922256469727
 30
0.0
  0
POINT
  5
1EC
330
1E1
100
AcDbEntity
  8
Defpoints
 62
     0
100
AcDbPoint
 10
-4.848075866699218
 20
-20.96624374389648
 30
0.0
  0
ENDBLK
  5
1E3
330
1E1
100
AcDbEntity
  8
0
100
AcDbBlockEnd
  0
BLOCK
  5
1EF
330
1EE
100
AcDbEntity
  8
0
100
AcDbBlockBegin
  2
*D16
 70
     1
 10
0.0
 20
0.0
 30
0.0
  3
*D16
  1

  0
MTEXT
  5
1F8
330
1EE
100
AcDbEntity
  8
0
 62
     1
100
AcDbMText
 10
-74.01148353207111
 20
-28.6271623840332
 30
0.0
 40
3.200000047683716
 41
0.0
 71
     5
 72
     1
  1
6
 11
0.0
 21
1.0
 31
0.0
 73
     1
 44
1.0
  0
POINT
  5
1F9
330
1EE
100
AcDbEntity
  8
Defpoints
 62
     0
100
AcDbPoint
 10
-61.59808349609375
 20
-30.17816162109375
 30
0.0
  0
POINT
  5
1FA
330
1EE
100
AcDbEntity
  8
Defpoints
 62
     0
100
AcDbPoint
 10
-61.59808349609375
 20
-27.07816314697266
 30
0.0
  0
POINT
  5
1FB
330
1EE
100
AcDbEntity
  8
Defpoints
 62
     0
100
AcDbPoint
 10
-71.59808349609375
 20
-27.07816314697265
 30
0.0
  0
LINE
  5
1FC
330
1EE
100
AcDbEntity
  8
0
  6
Continuous
 62
     7
100
AcDbLine
 10
-64.13808349609376
 20
-30.17816162109375
 30
0.0
 11
-72.59808349609375
 21
-30.17816162109375
 31
0.0
  0
LINE
  5
1FD
330
1EE
100
AcDbEntity
  8
0
  6
Continuous
 62
     7
100
AcDbLine
 10
-64.13808349609376
 20
-27.07816314697266
 30
0.0
 11
-72.59808349609375
 21
-27.07816314697266
 31
0.0
  0
LINE
  5
1FE
330
1EE
100
AcDbEntity
  8
0
  6
Continuous
 62
     7
100
AcDbLine
 10
-71.59808349609375
 20
-36.52816162109375
 30
0.0
 11
-71.59808349609375
 21
-20.72816314697265
 31
0.0
  0
LINE
  5
1FF
330
1EE
100
AcDbEntity
  8
0
  6
Continuous
 62
     7
100
AcDbLine
 10
-71.59808349609375
 20
-30.17816162109375
 30
0.0
 11
-70.77962581179375
 21
-33.23268728309937
 31
0.0
  0
LINE
  5
200
330
1EE
100
AcDbEntity
  8
0
  6
Continuous
 62
     7
100
AcDbLine
 10
-71.59808349609375
 20
-30.17816162109375
 30
0.0
 11
-72.41654118039375
 21
-33.23268728309937
 31
0.0
  0
LINE
  5
201
330
1EE
100
AcDbEntity
  8
0
  6
Continuous
 62
     7
100
AcDbLine
 10
-71.59808349609375
 20
-27.07816314697266
 30
0.0
 11
-72.41654118039375
 21
-24.02363748496703
 31
0.0
  0
LINE
  5
202
330
1EE
100
AcDbEntity
  8
0
  6
Continuous
 62
     7
100
AcDbLine
 10
-71.59808349609375
 20
-27.07816314697266
 30
0.0
 11
-70.77962581179375
 21
-24.02363748496703
 31
0.0
  0
ENDBLK
  5
1F0
330
1EE
100
AcDbEntity
  8
0
100
AcDbBlockEnd
  0
BLOCK
  5
205
330
204
100
AcDbEntity
  8
0
100
AcDbBlockBegin
  2
*D17
 70
     1
 10
0.0
 20
0.0
 30
0.0
  3
*D17
  1

  0
MTEXT
  5
20D
330
204
100
AcDbEntity
  8
0
 62
     1
100
AcDbMText
 10
-37.45607664716244
 20
-33.8449646447897
 30
0.0
 40
3.200000047683716
 41
0.0
 71
     5
 72
     1
  1
7
 11
0.0
 21
1.0
 31
0.0
 73
     1
 44
1.0
  0
POINT
  5
20E
330
204
100
AcDbEntity
  8
Defpoints
 62
     0
100
AcDbPoint
 10
-40.09384155273438
 20
-41.72816467285156
 30
0.0
  0
POINT
  5
20F
330
204
100
AcDbEntity
  8
Defpoints
 62
     0
100
AcDbPoint
 10
-40.09384155273438
 20
-45.22816467285156
 30
0.0
  0
POINT
  5
210
330
204
100
AcDbEntity
  8
Defpoints
 62
     0
100
AcDbPoint
 10
-35.05227661132812
 20
-45.22816467285156
 30
0.0
  0
LINE
  5
211
330
204
100
AcDbEntity
  8
0
  6
Continuous
 62
     7
100
AcDbLine
 10
-35.05227661132812
 20
-35.37816467285156
 30
0.0
 11
-35.05227661132812
 21
-51.57816467285156
 31
0.0
  0
LINE
  5
212
330
204
100
AcDbEntity
  8
0
  6
Continuous
 62
     7
100
AcDbLine
 10
-35.05227661132812
 20
-41.72816467285156
 30
0.0
 11
-35.87073429562813
 21
-38.67363901084594
 31
0.0
  0
LINE
  5
213
330
204
100
AcDbEntity
  8
0
  6
Continuous
 62
     7
100
AcDbLine
 10
-35.05227661132812
 20
-41.72816467285156
 30
0.0
 11
-34.23381892702812
 21
-38.67363901084594
 31
0.0
  0
LINE
  5
214
330
204
100
AcDbEntity
  8
0
  6
Continuous
 62
     7
100
AcDbLine
 10
-35.05227661132812
 20
-45.22816467285156
 30
0.0
 11
-34.23381892702812
 21
-48.28269033485719
 31
0.0
  0
LINE
  5
215
330
204
100
AcDbEntity
  8
0
  6
Continuous
 62
     7
100
AcDbLine
 10
-35.05227661132812
 20
-45.22816467285156
 30
0.0
 11
-35.87073429562813
 21
-48.28269033485719
 31
0.0
  0
LINE
  5
216
330
204
100
AcDbEntity
  8
0
  6
Continuous
 62
     7
100
AcDbLine
 10
-35.05227661132812
 20
-41.72816467285156
 30
0.0
 11
-35.05227661132812
 21
-35.18902587890625
 31
0.0
  0
ENDBLK
  5
206
330
204
100
AcDbEntity
  8
0
100
AcDbBlockEnd
  0
BLOCK
  5
219
330
218
100
AcDbEntity
  8
0
100
AcDbBlockBegin
  2
*D18
 70
     1
 10
0.0
 20
0.0
 30
0.0
  3
*D18
  1

  0
LINE
  5
21B
330
218
100
AcDbEntity
  8
0
 62
     0
370
    -2
100
AcDbLine
 10
14.59359531022071
 20
-54.26313936976513
 30
0.0
 11
19.98067317265906
 21
-63.22874258811555
 31
0.0
  0
ARC
  5
21C
330
218
100
AcDbEntity
  8
0
 62
     0
370
    -2
100
AcDbCircle
 10
0.151924133317693
 20
-30.22816217279651
 30
0.0
 40
37.49957807915439
100
AcDbArc
 50
274.5849371656213
 51
296.4150626592782
  0
INSERT
  5
21D
330
218
100
AcDbEntity
  8
0
 62
     0
370
    -2
100
AcDbBlockReference
  2
_OPEN30
 10
0.151924133328224
 20
-67.72774025195089
 30
0.0
 41
3.0
 42
3.0
 43
3.0
 50
182.2924685828187
  0
INSERT
  5
21E
330
218
100
AcDbEntity
  8
0
 62
     0
370
    -2
100
AcDbBlockReference
  2
_OPEN30
 10
19.46563453890284
 20
-62.371574351403
 30
0.0
 41
3.0
 42
3.0
 43
3.0
 50
28.7075312420809
  0
MTEXT
  5
21F
330
218
100
AcDbEntity
  8
0
 62
     1
 60
     1
100
AcDbMText
 10
9.53000817508055
 20
-64.03675957090019
 30
0.0
 40
3.200000047683716
 41
0.0
 71
     5
 72
     1
  1
31°
 11
0.9636148163904905
 21
0.267294754218487
 31
0.0
 73
     1
 44
1.0
  0
POINT
  5
220
330
218
100
AcDbEntity
  8
Defpoints
 62
     0
100
AcDbPoint
 10
0.151924133317693
 20
-30.22816217279651
 30
0.0
  0
POINT
  5
221
330
218
100
AcDbEntity
  8
Defpoints
 62
     0
100
AcDbPoint
 10
0.151924133328504
 20
-68.72817230224605
 30
0.0
  0
POINT
  5
222
330
218
100
AcDbEntity
  8
Defpoints
 62
     0
100
AcDbPoint
 10
13.28539860660349
 20
-52.08593442198345
 30
0.0
  0
POINT
  5
223
330
218
100
AcDbEntity
  8
Defpoints
 62
     0
100
AcDbPoint
 10
6.878395386517855
 20
-67.11952892159653
 30
0.0
  0
MTEXT
  5
224
330
218
100
AcDbEntity
  8
0
 62
     1
100
AcDbMText
 10
5.774663983766283
 20
-66.75398508842969
 30
0.0
 40
3.200000047683716
 41
0.0
 71
     7
 72
     1
  1
\W1;31°
 11
0.963630453208623
 21
0.2672383760782568
 31
0.0
 73
     1
 44
1.0
  0
ENDBLK
  5
21A
330
218
100
AcDbEntity
  8
0
100
AcDbBlockEnd
  0
BLOCK
  5
227
330
226
100
AcDbEntity
  8
0
100
AcDbBlockBegin
  2
*D19
 70
     1
 10
0.0
 20
0.0
 30
0.0
  3
*D19
  1

  0
MTEXT
  5
22E
330
226
100
AcDbEntity
  8
0
 62
     1
100
AcDbMText
 10
-4.097075471818447
 20
-65.32236463701724
 30
0.0
 40
3.200000047683716
 41
0.0
 71
     5
 72
     1
  1
17
 73
     1
 44
1.0
  0
POINT
  5
22F
330
226
100
AcDbEntity
  8
Defpoints
 62
     0
100
AcDbPoint
 10
-8.348075866699219
 20
-42.32815972327075
 30
0.0
  0
POINT
  5
230
330
226
100
AcDbEntity
  8
Defpoints
 62
     0
100
AcDbPoint
 10
0.151924923062325
 20
-30.22816467285156
 30
0.0
  0
POINT
  5
231
330
226
100
AcDbEntity
  8
Defpoints
 62
     0
100
AcDbPoint
 10
0.15192492306232
 20
-67.72816467285156
 30
0.0
  0
LINE
  5
232
330
226
100
AcDbEntity
  8
0
  6
Continuous
 62
     7
100
AcDbLine
 10
-8.348075866699219
 20
-44.86815972327075
 30
0.0
 11
-8.348075866699219
 21
-70.01416467285156
 31
0.0
  0
LINE
  5
233
330
226
100
AcDbEntity
  8
0
  6
Continuous
 62
     7
100
AcDbLine
 10
0.151924923062325
 20
-32.76816467285156
 30
0.0
 11
0.151924923062325
 21
-70.01416467285156
 31
0.0
  0
LINE
  5
234
330
226
100
AcDbEntity
  8
0
  6
Continuous
 62
     7
100
AcDbLine
 10
-14.69807586669922
 20
-67.72816467285156
 30
0.0
 11
0.151924923062325
 21
-67.72816467285156
 31
0.0
  0
LINE
  5
235
330
226
100
AcDbEntity
  8
0
  6
Continuous
 62
     7
100
AcDbLine
 10
-8.348075866699219
 20
-67.72816467285156
 30
0.0
 11
-11.40260152870484
 21
-68.54662235715156
 31
0.0
  0
LINE
  5
236
330
226
100
AcDbEntity
  8
0
  6
Continuous
 62
     7
100
AcDbLine
 10
-8.348075866699219
 20
-67.72816467285156
 30
0.0
 11
-11.40260152870484
 21
-66.90970698855156
 31
0.0
  0
ENDBLK
  5
228
330
226
100
AcDbEntity
  8
0
100
AcDbBlockEnd
  0
ENDSEC
  0
SECTION
  2
ENTITIES
  0
POINT
  5
45
330
1F
100
AcDbEntity
  8
VIEW0001
 62
     7
100
AcDbPoint
 10
105.0
 20
-148.5
 30
0.0
  0
LWPOLYLINE
  5
46
330
1F
100
AcDbEntity
  8
VIEW0001
  6
Continuous
 62
     7
100
AcDbPolyline
 90
        2
 70
     0
 10
25.75
 20
-129.0
 40
0.001000000047497
 41
0.001000000047497
 10
25.75
 20
-120.0
 40
0.001000000047497
 41
0.001000000047497
  0
LWPOLYLINE
  5
47
330
1F
100
AcDbEntity
  8
VIEW0001
  6
Continuous
 62
     7
100
AcDbPolyline
 90
        2
 70
     0
 10
-64.5
 20
-138.0
 40
0.001000000047497
 41
0.001000000047497
 10
-64.5
 20
-120.0
 40
0.001000000047497
 41
0.001000000047497
  0
LINE
  5
48
330
1F
100
AcDbEntity
  8
VIEW0001
  6
Continuous
 62
     7
370
    50
100
AcDbLine
 10
-84.5
 20
138.0
 30
0.0
 11
-84.5
 21
-138.0
 31
0.0
  0
LINE
  5
49
330
1F
100
AcDbEntity
  8
VIEW0001
  6
Continuous
 62
     7
370
    50
100
AcDbLine
 10
96.0
 20
138.0
 30
0.0
 11
96.0
 21
-138.0
 31
0.0
  0
LINE
  5
4A
330
1F
100
AcDbEntity
  8
VIEW0001
  6
Continuous
 62
     7
370
    50
100
AcDbLine
 10
-84.5
 20
-138.0
 30
0.0
 11
96.0
 21
-138.0
 31
0.0
  0
LINE
  5
4B
330
1F
100
AcDbEntity
  8
VIEW0001
  6
Continuous
 62
     7
370
    50
100
AcDbLine
 10
-84.5
 20
138.0
 30
0.0
 11
96.0
 21
138.0
 31
0.0
  0
LINE
  5
4C
330
1F
100
AcDbEntity
  8
VIEW0001
  6
Continuous
 62
     7
370
    20
100
AcDbLine
 10
-84.5
 20
-120.0
 30
0.0
 11
96.0
 21
-120.0
 31
0.0
  0
LWPOLYLINE
  5
4D
330
1F
100
AcDbEntity
  8
VIEW0001
  6
Continuous
 62
     7
100
AcDbPolyline
 90
        2
 70
     0
 10
96.0
 20
-129.0
 40
0.001000000047497
 41
0.001000000047497
 10
-84.5
 20
-129.0
 40
0.001000000047497
 41
0.001000000047497
  0
LINE
  5
4E
330
1F
100
AcDbEntity
  8
VIEW0001
  6
Continuous
 62
     7
370
    20
100
AcDbLine
 10
41.0
 20
128.0
 30
0.0
 11
96.0
 21
128.0
 31
0.0
  0
LINE
  5
4F
330
1F
100
AcDbEntity
  8
VIEW0001
  6
Continuous
 62
     7
370
    20
100
AcDbLine
 10
41.0
 20
138.0
 30
0.0
 11
41.0
 21
128.0
 31
0.0
  0
LWPOLYLINE
  5
50
330
1F
100
AcDbEntity
  8
VIEW0001
  6
Continuous
 62
     7
100
AcDbPolyline
 90
        2
 70
     0
 10
5.75
 20
-138.0
 40
0.001000000047497
 41
0.001000000047497
 10
5.75
 20
-120.0
 40
0.001000000047497
 41
0.001000000047497
  0
LWPOLYLINE
  5
51
330
1F
100
AcDbEntity
  8
VIEW0001
  6
Continuous
 62
     7
100
AcDbPolyline
 90
        2
 70
     0
 10
66.0
 20
-129.0
 40
0.001000000047497
 41
0.001000000047497
 10
66.0
 20
-120.0
 40
0.001000000047497
 41
0.001000000047497
  0
LWPOLYLINE
  5
52
330
1F
100
AcDbEntity
  8
VIEW0001
  6
Continuous
 62
     7
100
AcDbPolyline
 90
        2
 70
     0
 10
81.0
 20
-129.0
 40
0.001000000047497
 41
0.001000000047497
 10
81.0
 20
-120.0
 40
0.001000000047497
 41
0.001000000047497
  0
MTEXT
  5
53
330
1F
100
AcDbEntity
  8
VIEW0001
 62
     1
100
AcDbMText
 10
-77.92875003814697
 20
-135.5
 30
0.0
 40
4.0
 41
0.0
 71
     7
 72
     1
  1
{\W0.833333;規格}
 73
     1
 44
1.0
  0
MTEXT
  5
54
330
1F
100
AcDbEntity
  8
VIEW0001
 62
     1
100
AcDbMText
 10
12.32124996185303
 20
-126.5
 30
0.0
 40
4.0
 41
0.0
 71
     7
 72
     1
  1
{\W0.833333;材質}
 73
     1
 44
1.0
  0
MTEXT
  5
55
330
1F
100
AcDbEntity
  8
VIEW0001
 62
     1
100
AcDbMText
 10
-77.92875003814697
 20
-126.5
 30
0.0
 40
4.0
 41
0.0
 71
     7
 72
     1
  1
{\W0.833333;品名}
 73
     1
 44
1.0
  0
MTEXT
  5
56
330
1F
100
AcDbEntity
  8
VIEW0001
 62
     1
100
AcDbMText
 10
70.07124996185303
 20
-126.5
 30
0.0
 40
4.0
 41
0.0
 71
     7
 72
     1
  1
{\W0.833333;尺度}
 73
     1
 44
1.0
  0
MTEXT
  5
57
330
1F
100
AcDbEntity
  8
VIEW0001
 62
     1
100
AcDbMText
 10
-52.80375277996063
 20
-126.5
 30
0.0
 40
4.0
 41
0.0
 71
     7
 72
     1
  1
{\W0.833333;ステン打ち吊り面打ち6寸}
 73
     1
 44
1.0
  0
MTEXT
  5
58
330
1F
100
AcDbEntity
  8
VIEW0001
 62
     1
100
AcDbMText
 10
-48.80375057458878
 20
-135.5
 30
0.0
 40
4.0
 41
0.0
 71
     7
 72
     1
  1
{\W0.833333;DL55-5(17）}
 73
     1
 44
1.0
  0
MTEXT
  5
59
330
1F
100
AcDbEntity
  8
VIEW0001
 62
     1
100
AcDbMText
 10
26.46785604953766
 20
-135.75
 30
0.0
 40
4.5
 41
0.0
 71
     7
 72
     1
  1
{\W1.40741;デンカ株式会社}
 73
     1
 44
1.0
  0
MTEXT
  5
5A
330
1F
100
AcDbEntity
  8
VIEW0001
 62
     1
100
AcDbMText
 10
83.07124984264374
 20
-126.5
 30
0.0
 40
4.0
 41
0.0
 71
     7
 72
     1
  1
{\W0.833333;1/2}
 73
     1
 44
1.0
  0
MTEXT
  5
5B
330
1F
100
AcDbEntity
  8
VIEW0001
 62
     1
100
AcDbMText
 10
34.4462496638298
 20
-126.5
 30
0.0
 40
4.0
 41
0.0
 71
     7
 72
     1
  1
{\W0.833333;SUS304}
 73
     1
 44
1.0
  0
LINE
  5
5D
330
1F
100
AcDbEntity
  8
VIEW0002
  6
Continuous
 62
     7
100
AcDbLine
 10
35.0819445345397
 20
-38.98924843373043
 30
0.0
 11
48.36803771982163
 21
-31.00615831323166
 31
0.0
  0
LINE
  5
5E
330
1F
100
AcDbEntity
  8
VIEW0002
  6
Continuous
 62
     7
100
AcDbLine
 10
24.78118505344916
 20
-21.84590565803913
 30
0.0
 11
34.21002537848796
 21
-16.18048686284645
 31
0.0
  0
LINE
  5
5F
330
1F
100
AcDbEntity
  8
VIEW0002
  6
Continuous
 62
     7
100
AcDbLine
 10
32.23447935373922
 20
-10.95102208836928
 30
0.0
 11
35.23456491170611
 21
-9.148388835353432
 31
0.0
  0
LINE
  5
60
330
1F
100
AcDbEntity
  8
VIEW0002
  6
Continuous
 62
     7
100
AcDbLine
 10
35.23456491170609
 20
-9.148388835353432
 30
0.0
 11
36.59501955849925
 21
-11.41256560635478
 31
0.0
  0
LINE
  5
61
330
1F
100
AcDbEntity
  8
VIEW0002
  6
Continuous
 62
     7
100
AcDbLine
 10
31.89234815903887
 20
-12.32322419310202
 30
0.0
 11
44.51078485957849
 21
-33.32382963853777
 31
0.0
  0
LINE
  5
62
330
1F
100
AcDbEntity
  8
VIEW0002
  6
Continuous
 62
     7
100
AcDbLine
 10
24.78118505344916
 20
-21.84590565803912
 30
0.0
 11
35.08194453453972
 21
-38.98924843373045
 31
0.0
  0
LINE
  5
63
330
1F
100
AcDbEntity
  8
VIEW0002
  6
Continuous
 62
     7
100
AcDbLine
 10
39.69976702569521
 20
-19.0067381950197
 30
0.0
 11
40.77122615354052
 21
-18.3629406046569
 31
0.0
  0
LINE
  5
64
330
1F
100
AcDbEntity
  8
VIEW0002
  6
Continuous
 62
     7
100
AcDbLine
 10
39.35763779570921
 20
-20.37894356958622
 30
0.0
 11
40.00143538607202
 21
-21.45040269743154
 31
0.0
  0
LINE
  5
65
330
1F
100
AcDbEntity
  8
VIEW0002
  6
Continuous
 62
     7
100
AcDbLine
 10
38.9290541445711
 20
-20.63646260573135
 30
0.0
 11
39.57285173493391
 21
-21.70792173357667
 31
0.0
  0
LINE
  5
66
330
1F
100
AcDbEntity
  8
VIEW0002
  6
Continuous
 62
     7
100
AcDbLine
 10
39.44224798955011
 20
-18.57815454388158
 30
0.0
 11
40.51370711739543
 21
-17.93435695351878
 31
0.0
  0
LINE
  5
67
330
1F
100
AcDbEntity
  8
VIEW0002
  6
Continuous
 62
     7
100
AcDbLine
 10
40.2166493252967
 20
-22.77938086142198
 30
0.0
 11
39.57285173493391
 21
-21.70792173357667
 31
0.0
  0
LINE
  5
68
330
1F
100
AcDbEntity
  8
VIEW0002
  6
Continuous
 62
     7
100
AcDbLine
 10
40.64523297643481
 20
-22.52186182527686
 30
0.0
 11
40.00143538607202
 21
-21.45040269743154
 31
0.0
  0
LINE
  5
69
330
1F
100
AcDbEntity
  8
VIEW0002
  6
Continuous
 62
     7
100
AcDbLine
 10
42.01743835100132
 20
-22.86399105526288
 30
0.0
 11
43.08889747884663
 21
-22.22019346490007
 31
0.0
  0
LINE
  5
6A
330
1F
100
AcDbEntity
  8
VIEW0002
  6
Continuous
 62
     7
100
AcDbLine
 10
42.27495738714642
 20
-23.29257470640097
 30
0.0
 11
43.34641651499174
 21
-22.64877711603817
 31
0.0
  0
LINE
  5
6B
330
1F
100
AcDbEntity
  8
VIEW0002
  6
CENTER
 62
     7
100
AcDbLine
 10
30.18355218165418
 20
-22.09973620886313
 30
0.0
 11
27.61205001936965
 21
-23.64485057922717
 31
0.0
  0
LINE
  5
6C
330
1F
100
AcDbEntity
  8
VIEW0002
  6
CENTER
 62
     7
100
AcDbLine
 10
28.12524386434868
 20
-21.58654251737742
 30
0.0
 11
29.6703580812194
 21
-24.15804442420618
 31
0.0
  0
LINE
  5
6D
330
1F
100
AcDbEntity
  8
VIEW0002
  6
CENTER
 62
     7
100
AcDbLine
 10
34.6459840412138
 20
-27.58486597307957
 30
0.0
 11
31.21731456068704
 21
-29.64501842532719
 31
0.0
  0
LINE
  5
6E
330
1F
100
AcDbEntity
  8
VIEW0002
  6
CENTER
 62
     7
100
AcDbLine
 10
31.90157332720597
 20
-26.90060749200222
 30
0.0
 11
33.96172561636695
 21
-30.32927670110723
 31
0.0
  0
LINE
  5
6F
330
1F
100
AcDbEntity
  8
VIEW0002
  6
CENTER
 62
     7
100
AcDbLine
 10
37.39408322900327
 20
-34.10007517089695
 30
0.0
 11
34.82258106671874
 21
-35.64518954126099
 31
0.0
  0
LINE
  5
70
330
1F
100
AcDbEntity
  8
VIEW0002
  6
CENTER
 62
     7
100
AcDbLine
 10
35.33577491169777
 20
-33.58688147941121
 30
0.0
 11
36.8808891285685
 21
-36.15838338623998
 31
0.0
  0
LINE
  5
71
330
1F
100
AcDbEntity
  8
VIEW0002
  6
DASHED
 62
     7
100
AcDbLine
 10
32.40664723247112
 20
-12.0142021356136
 30
0.0
 11
45.02508393301075
 21
-33.01480758104935
 31
0.0
  0
LINE
  5
72
330
1F
100
AcDbEntity
  8
VIEW0002
  6
DASHED
 62
     7
100
AcDbLine
 10
32.54349748179897
 20
-11.465314622134
 30
0.0
 11
35.54358303976585
 21
-9.66268136911815
 31
0.0
  0
LINE
  5
73
330
1F
100
AcDbEntity
  8
VIEW0002
  6
Continuous
 62
     7
100
AcDbLine
 10
61.654131722562
 20
-23.0230677015543
 30
0.0
 11
48.36803771982163
 21
-31.00615831323166
 31
0.0
  0
LINE
  5
74
330
1F
100
AcDbEntity
  8
VIEW0002
  6
Continuous
 62
     7
100
AcDbLine
 10
51.35337224147145
 20
-5.879724925862998
 30
0.0
 11
41.92453109897423
 21
-11.54514421223426
 31
0.0
  0
LINE
  5
75
330
1F
100
AcDbEntity
  8
VIEW0002
  6
Continuous
 62
     7
100
AcDbLine
 10
38.23465046967299
 20
-7.34575558233758
 30
0.0
 11
35.23456491170611
 21
-9.148388835353432
 31
0.0
  0
LINE
  5
76
330
1F
100
AcDbEntity
  8
VIEW0002
  6
Continuous
 62
     7
100
AcDbLine
 10
39.60685584423948
 20
-7.687884812323595
 30
0.0
 11
52.22529058006478
 21
-28.68848698792558
 31
0.0
  0
LINE
  5
77
330
1F
100
AcDbEntity
  8
VIEW0002
  6
Continuous
 62
     7
100
AcDbLine
 10
51.35337224147146
 20
-5.879724925862998
 30
0.0
 11
61.65413172256201
 21
-23.02306770155432
 31
0.0
  0
LINE
  5
78
330
1F
100
AcDbEntity
  8
VIEW0002
  6
Continuous
 62
     7
100
AcDbLine
 10
41.84268528138584
 20
-17.71914301429409
 30
0.0
 11
40.77122615354052
 21
-18.3629406046569
 31
0.0
  0
LINE
  5
79
330
1F
100
AcDbEntity
  8
VIEW0002
  6
Continuous
 62
     7
100
AcDbLine
 10
43.21489065595236
 20
-18.06127224428013
 30
0.0
 11
43.85868824631516
 21
-19.13273137212544
 31
0.0
  0
LINE
  5
7A
330
1F
100
AcDbEntity
  8
VIEW0002
  6
Continuous
 62
     7
100
AcDbLine
 10
43.64347430709049
 20
-17.80375320813501
 30
0.0
 11
44.28727189745329
 21
-18.87521233598032
 31
0.0
  0
LINE
  5
7B
330
1F
100
AcDbEntity
  8
VIEW0002
  6
Continuous
 62
     7
100
AcDbLine
 10
41.58516624524074
 20
-17.29055936315598
 30
0.0
 11
40.51370711739543
 21
-17.93435695351878
 31
0.0
  0
LINE
  5
7C
330
1F
100
AcDbEntity
  8
VIEW0002
  6
Continuous
 62
     7
100
AcDbLine
 10
44.93106948781609
 20
-19.94667146382564
 30
0.0
 11
44.28727189745329
 21
-18.87521233598032
 31
0.0
  0
LINE
  5
7D
330
1F
100
AcDbEntity
  8
VIEW0002
  6
Continuous
 62
     7
100
AcDbLine
 10
44.50248583667796
 20
-20.20419049997077
 30
0.0
 11
43.85868824631516
 21
-19.13273137212544
 31
0.0
  0
LINE
  5
7E
330
1F
100
AcDbEntity
  8
VIEW0002
  6
Continuous
 62
     7
100
AcDbLine
 10
44.16035660669195
 20
-21.57639587453727
 30
0.0
 11
43.08889747884663
 21
-22.22019346490007
 31
0.0
  0
LINE
  5
7F
330
1F
100
AcDbEntity
  8
VIEW0002
  6
Continuous
 62
     7
100
AcDbLine
 10
44.41787564283705
 20
-22.00497952567536
 30
0.0
 11
43.34641651499174
 21
-22.64877711603817
 31
0.0
  0
LINE
  5
80
330
1F
100
AcDbEntity
  8
VIEW0002
  6
CENTER
 62
     7
100
AcDbLine
 10
49.04123359809904
 20
-10.76889815799786
 30
0.0
 11
51.61273550492781
 21
-9.223783941127117
 31
0.0
  0
LINE
  5
81
330
1F
100
AcDbEntity
  8
VIEW0002
  6
CENTER
 62
     7
100
AcDbLine
 10
49.55442744307805
 20
-8.710590096148106
 30
0.0
 11
51.09954165994878
 21
-11.28209200297687
 31
0.0
  0
LINE
  5
82
330
1F
100
AcDbEntity
  8
VIEW0002
  6
CENTER
 62
     7
100
AcDbLine
 10
51.78933083714017
 20
-17.28410407638811
 30
0.0
 11
55.21800004624518
 21
-15.22395178722714
 31
0.0
  0
LINE
  5
83
330
1F
100
AcDbEntity
  8
VIEW0002
  6
CENTER
 62
     7
100
AcDbLine
 10
52.4735892971122
 20
-14.53969332725511
 30
0.0
 11
54.53374158627317
 21
-17.96836253636012
 31
0.0
  0
LINE
  5
84
330
1F
100
AcDbEntity
  8
VIEW0002
  6
CENTER
 62
     7
100
AcDbLine
 10
56.25176464544813
 20
-22.76923712003168
 30
0.0
 11
58.82326655227689
 21
-21.22412290316095
 31
0.0
  0
LINE
  5
85
330
1F
100
AcDbEntity
  8
VIEW0002
  6
CENTER
 62
     7
100
AcDbLine
 10
56.76495849042713
 20
-20.7109290581819
 30
0.0
 11
58.31007270729786
 21
-23.28243096501066
 31
0.0
  0
LINE
  5
86
330
1F
100
AcDbEntity
  8
VIEW0002
  6
DASHED
 62
     7
100
AcDbLine
 10
39.09255677080724
 20
-7.996906869812012
 30
0.0
 11
51.71099150663253
 21
-28.997509045414
 31
0.0
  0
LINE
  5
87
330
1F
100
AcDbEntity
  8
VIEW0002
  6
DASHED
 62
     7
100
AcDbLine
 10
38.54366859773274
 20
-7.860048116102298
 30
0.0
 11
35.54358303976585
 21
-9.66268136911815
 31
0.0
  0
LINE
  5
88
330
1F
100
AcDbEntity
  8
VIEW0002
  6
CENTER
 62
     7
100
AcDbLine
 10
39.8582371592215
 20
-16.8434717432805
 30
0.0
 11
43.88175401569883
 21
-23.53972834076591
 31
0.0
  0
LINE
  5
89
330
1F
100
AcDbEntity
  8
VIEW0002
  6
CENTER
 62
     7
100
AcDbLine
 10
39.09038776302967
 20
-21.99781533238656
 30
0.0
 11
44.75177794232467
 21
-18.59610894824911
 31
0.0
  0
LINE
  5
8A
330
1F
100
AcDbEntity
  8
VIEW0002
  6
Continuous
 62
     7
100
AcDbLine
 10
-61.59808349609375
 20
41.32368850708008
 30
0.0
 11
-60.99807739257812
 21
41.32368850708008
 31
0.0
  0
LINE
  5
8B
330
1F
100
AcDbEntity
  8
VIEW0002
  6
DASHED
 62
     7
100
AcDbLine
 10
-55.59808349609375
 20
43.92369079589844
 30
0.0
 11
-55.59808349609375
 21
43.32369232177734
 31
0.0
  0
LINE
  5
8C
330
1F
100
AcDbEntity
  8
VIEW0002
  6
Continuous
 62
     7
100
AcDbLine
 10
-61.59808349609375
 20
47.82369232177734
 30
0.0
 11
-61.59808349609375
 21
41.32369232177734
 31
0.0
  0
LINE
  5
8D
330
1F
100
AcDbEntity
  8
VIEW0002
  6
Continuous
 62
     7
100
AcDbLine
 10
-60.99807739257812
 20
47.82369232177734
 30
0.0
 11
-60.99807739257812
 21
41.32369232177734
 31
0.0
  0
LINE
  5
8E
330
1F
100
AcDbEntity
  8
VIEW0002
  6
Continuous
 62
     7
100
AcDbLine
 10
-55.59808029638108
 20
43.32367820407309
 30
0.0
 11
-60.99807730013213
 21
41.32367987949125
 31
0.0
  0
LINE
  5
8F
330
1F
100
AcDbEntity
  8
VIEW0002
  6
DASHED
 62
     7
100
AcDbLine
 10
-55.59808349609375
 20
43.9236946105957
 30
0.0
 11
11.94511032104492
 21
43.9236946105957
 31
0.0
  0
LINE
  5
90
330
1F
100
AcDbEntity
  8
VIEW0002
  6
Continuous
 62
     7
100
AcDbLine
 10
-55.59808349609375
 20
52.32368850708008
 30
0.0
 11
12.28539848327637
 21
52.32368850708008
 31
0.0
  0
LINE
  5
91
330
1F
100
AcDbEntity
  8
VIEW0002
  6
Continuous
 62
     7
100
AcDbLine
 10
-61.59808349609375
 20
54.32368850708008
 30
0.0
 11
-60.99807739257812
 21
54.32368850708008
 31
0.0
  0
LINE
  5
92
330
1F
100
AcDbEntity
  8
VIEW0002
  6
DASHED
 62
     7
100
AcDbLine
 10
-55.59808349609375
 20
51.72369384765625
 30
0.0
 11
-55.59808349609375
 21
52.32369232177734
 31
0.0
  0
LINE
  5
93
330
1F
100
AcDbEntity
  8
VIEW0002
  6
Continuous
 62
     7
100
AcDbLine
 10
-61.59808349609375
 20
47.82369232177734
 30
0.0
 11
-61.59808349609375
 21
54.32369232177734
 31
0.0
  0
LINE
  5
94
330
1F
100
AcDbEntity
  8
VIEW0002
  6
Continuous
 62
     7
100
AcDbLine
 10
-60.99807739257812
 20
47.82369232177734
 30
0.0
 11
-60.99807739257812
 21
54.32369232177734
 31
0.0
  0
LINE
  5
95
330
1F
100
AcDbEntity
  8
VIEW0002
  6
Continuous
 62
     7
100
AcDbLine
 10
-55.5980783883373
 20
52.32370802502559
 30
0.0
 11
-60.99807539208834
 21
54.32370634960743
 31
0.0
  0
LINE
  5
96
330
1F
100
AcDbEntity
  8
VIEW0002
  6
Continuous
 62
     7
100
AcDbLine
 10
0.070243127644062
 20
52.9236946105957
 30
0.0
 11
2.315375566482544
 21
52.9236946105957
 31
0.0
  0
LINE
  5
97
330
1F
100
AcDbEntity
  8
VIEW0002
  6
DASHED
 62
     7
100
AcDbLine
 10
-55.59808349609375
 20
51.72369766235352
 30
0.0
 11
11.94511032104492
 21
51.72369766235352
 31
0.0
  0
LINE
  5
98
330
1F
100
AcDbEntity
  8
VIEW0002
  6
Continuous
 62
     7
100
AcDbLine
 10
-17.44808387756348
 20
51.72369384765625
 30
0.0
 11
-17.44808387756348
 21
43.92369079589844
 31
0.0
  0
LINE
  5
99
330
1F
100
AcDbEntity
  8
VIEW0002
  6
Continuous
 62
     7
100
AcDbLine
 10
-42.19808959960938
 20
51.72369384765625
 30
0.0
 11
-42.19808959960938
 21
43.92369079589844
 31
0.0
  0
LINE
  5
9A
330
1F
100
AcDbEntity
  8
VIEW0002
  6
Continuous
 62
     7
100
AcDbLine
 10
-46.59808349609375
 20
52.32369232177734
 30
0.0
 11
-46.59808349609375
 21
43.92369079589844
 31
0.0
  0
LINE
  5
9B
330
1F
100
AcDbEntity
  8
VIEW0002
  6
Continuous
 62
     7
100
AcDbLine
 10
-19.84808540344238
 20
51.72369384765625
 30
0.0
 11
-19.84808540344238
 21
43.92369079589844
 31
0.0
  0
LINE
  5
9C
330
1F
100
AcDbEntity
  8
VIEW0002
  6
CENTER
 62
     7
100
AcDbLine
 10
-23.97844886779785
 20
47.82368850708008
 30
0.0
 11
-27.97844886779785
 21
47.82368850708008
 31
0.0
  0
LINE
  5
9D
330
1F
100
AcDbEntity
  8
VIEW0002
  6
CENTER
 62
     7
100
AcDbLine
 10
-25.97844886779785
 20
49.82369232177734
 30
0.0
 11
-25.97844886779785
 21
45.82369232177734
 31
0.0
  0
LINE
  5
9E
330
1F
100
AcDbEntity
  8
VIEW0002
  6
CENTER
 62
     7
100
AcDbLine
 10
-6.549981594085693
 20
47.82368850708008
 30
0.0
 11
-10.54998207092285
 21
47.82368850708008
 31
0.0
  0
LINE
  5
9F
330
1F
100
AcDbEntity
  8
VIEW0002
  6
CENTER
 62
     7
100
AcDbLine
 10
-8.549982070922852
 20
49.82369232177734
 30
0.0
 11
-8.549982070922852
 21
45.82369232177734
 31
0.0
  0
LINE
  5
A0
330
1F
100
AcDbEntity
  8
VIEW0002
  6
Continuous
 62
     7
100
AcDbLine
 10
2.71537709236145
 20
63.32369232177734
 30
0.0
 11
13.28539848327637
 21
63.32369232177734
 31
0.0
  0
LINE
  5
A1
330
1F
100
AcDbEntity
  8
VIEW0002
  6
Continuous
 62
     7
100
AcDbLine
 10
13.28539848327637
 20
63.32369232177734
 30
0.0
 11
13.28539848327637
 21
53.32368850708008
 31
0.0
  0
LINE
  5
A2
330
1F
100
AcDbEntity
  8
VIEW0002
  6
Continuous
 62
     7
100
AcDbLine
 10
3.271697282791138
 20
63.32369232177734
 30
0.0
 11
3.271697282791138
 21
53.32368850708008
 31
0.0
  0
LINE
  5
A3
330
1F
100
AcDbEntity
  8
VIEW0002
  6
Continuous
 62
     7
100
AcDbLine
 10
2.71537709236145
 20
63.32369232177734
 30
0.0
 11
2.71537709236145
 21
53.32369613647461
 31
0.0
  0
LINE
  5
A4
330
1F
100
AcDbEntity
  8
VIEW0002
  6
Continuous
 62
     7
100
AcDbLine
 10
-2.848077535629272
 20
47.82368850708008
 30
0.0
 11
1.651922464370728
 21
47.82368850708008
 31
0.0
  0
LINE
  5
A5
330
1F
100
AcDbEntity
  8
VIEW0002
  6
Continuous
 62
     7
100
AcDbLine
 10
13.28539848327637
 20
51.82368850708008
 30
0.0
 11
13.28539848327637
 21
47.82368850708008
 31
0.0
  0
LINE
  5
A6
330
1F
100
AcDbEntity
  8
VIEW0002
  6
Continuous
 62
     7
100
AcDbLine
 10
-55.59808349609375
 20
43.32368850708008
 30
0.0
 11
12.28539848327637
 21
43.32368850708008
 31
0.0
  0
LINE
  5
A7
330
1F
100
AcDbEntity
  8
VIEW0002
  6
Continuous
 62
     7
100
AcDbLine
 10
0.070243127644062
 20
42.72368240356445
 30
0.0
 11
2.315375566482544
 21
42.72368240356445
 31
0.0
  0
LINE
  5
A8
330
1F
100
AcDbEntity
  8
VIEW0002
  6
Continuous
 62
     7
100
AcDbLine
 10
2.71537709236145
 20
32.32368469238281
 30
0.0
 11
2.71537709236145
 21
42.32368087768555
 31
0.0
  0
LINE
  5
A9
330
1F
100
AcDbEntity
  8
VIEW0002
  6
Continuous
 62
     7
100
AcDbLine
 10
3.271697282791138
 20
32.32368469238281
 30
0.0
 11
3.271697282791138
 21
42.32368850708008
 31
0.0
  0
LINE
  5
AA
330
1F
100
AcDbEntity
  8
VIEW0002
  6
Continuous
 62
     7
100
AcDbLine
 10
13.28539848327637
 20
32.32368469238281
 30
0.0
 11
13.28539848327637
 21
42.32368850708008
 31
0.0
  0
LINE
  5
AB
330
1F
100
AcDbEntity
  8
VIEW0002
  6
Continuous
 62
     7
100
AcDbLine
 10
13.28539848327637
 20
43.82368850708008
 30
0.0
 11
13.28539848327637
 21
47.82368850708008
 31
0.0
  0
LINE
  5
AC
330
1F
100
AcDbEntity
  8
VIEW0002
  6
Continuous
 62
     7
100
AcDbLine
 10
2.71537709236145
 20
32.32368469238281
 30
0.0
 11
13.28539848327637
 21
32.32368469238281
 31
0.0
  0
LINE
  5
AD
330
1F
100
AcDbEntity
  8
VIEW0002
  6
Continuous
 62
     7
100
AcDbLine
 10
0.151922523975372
 20
51.72369766235352
 30
0.0
 11
0.151922523975372
 21
49.82368850708008
 31
0.0
  0
LINE
  5
AE
330
1F
100
AcDbEntity
  8
VIEW0002
  6
Continuous
 62
     7
100
AcDbLine
 10
0.390131908582742
 20
49.50607529151596
 30
0.0
 11
1.415243314036605
 21
48.13926011818936
 31
0.0
  0
LINE
  5
AF
330
1F
100
AcDbEntity
  8
VIEW0002
  6
Continuous
 62
     7
100
AcDbLine
 10
-0.178368754385673
 20
49.60349383963671
 30
0.0
 11
-2.396158109360819
 21
48.12496765594436
 31
0.0
  0
LINE
  5
B0
330
1F
100
AcDbEntity
  8
VIEW0002
  6
CENTER
 62
     7
100
AcDbLine
 10
5.7797532081604
 20
60.32368850708008
 30
0.0
 11
3.279753446578979
 21
60.32368850708008
 31
0.0
  0
LINE
  5
B1
330
1F
100
AcDbEntity
  8
VIEW0002
  6
CENTER
 62
     7
100
AcDbLine
 10
4.5297532081604
 20
61.57368850708008
 30
0.0
 11
4.5297532081604
 21
59.07368850708008
 31
0.0
  0
LINE
  5
B2
330
1F
100
AcDbEntity
  8
VIEW0002
  6
CENTER
 62
     7
100
AcDbLine
 10
9.385017395019531
 20
59.82368850708008
 30
0.0
 11
6.885017395019531
 21
59.82368850708008
 31
0.0
  0
LINE
  5
B3
330
1F
100
AcDbEntity
  8
VIEW0002
  6
CENTER
 62
     7
100
AcDbLine
 10
8.135017395019531
 20
61.07368850708008
 30
0.0
 11
8.135017395019531
 21
58.57368850708008
 31
0.0
  0
LINE
  5
B4
330
1F
100
AcDbEntity
  8
VIEW0002
  6
CENTER
 62
     7
100
AcDbLine
 10
12.99028396606445
 20
60.32368850708008
 30
0.0
 11
10.49028396606445
 21
60.32368850708008
 31
0.0
  0
LINE
  5
B5
330
1F
100
AcDbEntity
  8
VIEW0002
  6
CENTER
 62
     7
100
AcDbLine
 10
11.74028396606445
 20
61.57368850708008
 30
0.0
 11
11.74028396606445
 21
59.07368850708008
 31
0.0
  0
LINE
  5
B6
330
1F
100
AcDbEntity
  8
VIEW0002
  6
Continuous
 62
     7
100
AcDbLine
 10
0.390129663244508
 20
46.1413022948488
 30
0.0
 11
1.415241068698371
 21
47.50811746817539
 31
0.0
  0
LINE
  5
B7
330
1F
100
AcDbEntity
  8
VIEW0002
  6
Continuous
 62
     7
100
AcDbLine
 10
-0.178368814681793
 20
46.04388782003288
 30
0.0
 11
-2.396158169656939
 21
47.52241400372522
 31
0.0
  0
LINE
  5
B8
330
1F
100
AcDbEntity
  8
VIEW0002
  6
Continuous
 62
     7
100
AcDbLine
 10
0.151922523975372
 20
43.92367935180664
 30
0.0
 11
0.151922523975372
 21
45.82368850708008
 31
0.0
  0
LINE
  5
B9
330
1F
100
AcDbEntity
  8
VIEW0002
  6
CENTER
 62
     7
100
AcDbLine
 10
5.7797532081604
 20
35.32368850708008
 30
0.0
 11
3.279753446578979
 21
35.32368850708008
 31
0.0
  0
LINE
  5
BA
330
1F
100
AcDbEntity
  8
VIEW0002
  6
CENTER
 62
     7
100
AcDbLine
 10
4.5297532081604
 20
34.07368850708008
 30
0.0
 11
4.5297532081604
 21
36.57368850708008
 31
0.0
  0
LINE
  5
BB
330
1F
100
AcDbEntity
  8
VIEW0002
  6
CENTER
 62
     7
100
AcDbLine
 10
9.385017395019531
 20
35.82368850708008
 30
0.0
 11
6.885017395019531
 21
35.82368850708008
 31
0.0
  0
LINE
  5
BC
330
1F
100
AcDbEntity
  8
VIEW0002
  6
CENTER
 62
     7
100
AcDbLine
 10
8.135017395019531
 20
34.57368850708008
 30
0.0
 11
8.135017395019531
 21
37.07368850708008
 31
0.0
  0
LINE
  5
BD
330
1F
100
AcDbEntity
  8
VIEW0002
  6
CENTER
 62
     7
100
AcDbLine
 10
12.99028396606445
 20
35.32368850708008
 30
0.0
 11
10.49028396606445
 21
35.32368850708008
 31
0.0
  0
LINE
  5
BE
330
1F
100
AcDbEntity
  8
VIEW0002
  6
CENTER
 62
     7
100
AcDbLine
 10
11.74028396606445
 20
34.07368850708008
 30
0.0
 11
11.74028396606445
 21
36.57368850708008
 31
0.0
  0
LINE
  5
BF
330
1F
100
AcDbEntity
  8
VIEW0002
  6
Continuous
 62
     7
100
AcDbLine
 10
-5.683230811951887
 20
-48.31348605254296
 30
0.0
 11
-8.348067279479972
 21
-42.32816425140686
 31
0.0
  0
LINE
  5
C0
330
1F
100
AcDbEntity
  8
VIEW0002
  6
Continuous
 62
     7
100
AcDbLine
 10
-5.135108017835449
 20
-48.06943775491347
 30
0.0
 11
-7.799944485363536
 21
-42.08411595377738
 31
0.0
  0
LINE
  5
C1
330
1F
100
AcDbEntity
  8
VIEW0002
  6
Continuous
 62
     7
100
AcDbLine
 10
-8.34807735243271
 20
-42.32816038476181
 30
0.0
 11
-7.799944485363504
 21
-42.08411595377741
 31
0.0
  0
LINE
  5
C2
330
1F
100
AcDbEntity
  8
VIEW0002
  6
Continuous
 62
     7
100
AcDbLine
 10
0.151923833773626
 20
-30.22816167427145
 30
0.0
 11
0.748957293747589
 21
-31.22179221886184
 31
0.0
  0
LINE
  5
C3
330
1F
100
AcDbEntity
  8
VIEW0002
  6
Continuous
 62
     7
100
AcDbLine
 10
-40.09384155273438
 20
-41.72816467285156
 30
0.0
 11
-22.15291595458984
 21
-41.72816467285156
 31
0.0
  0
LINE
  5
C4
330
1F
100
AcDbEntity
  8
VIEW0002
  6
Continuous
 62
     7
100
AcDbLine
 10
-61.59808349609375
 20
-27.07816314697266
 30
0.0
 11
-61.59808349609375
 21
-29.17816162109375
 31
0.0
  0
LINE
  5
C5
330
1F
100
AcDbEntity
  8
VIEW0002
  6
Continuous
 62
     7
100
AcDbLine
 10
-61.59808349609375
 20
-27.07816314697266
 30
0.0
 11
-60.99807739257812
 21
-27.07816314697266
 31
0.0
  0
LINE
  5
C6
330
1F
100
AcDbEntity
  8
VIEW0002
  6
Continuous
 62
     7
100
AcDbLine
 10
-60.99807739257812
 20
-27.07816314697266
 30
0.0
 11
-60.99807739257812
 21
-29.17816162109375
 31
0.0
  0
LINE
  5
C7
330
1F
100
AcDbEntity
  8
VIEW0002
  6
Continuous
 62
     7
100
AcDbLine
 10
-60.59808349609375
 20
-29.57816314697266
 30
0.0
 11
-50.10514831542969
 21
-29.57816314697266
 31
0.0
  0
LINE
  5
C8
330
1F
100
AcDbEntity
  8
VIEW0002
  6
Continuous
 62
     7
100
AcDbLine
 10
-60.59808349609375
 20
-30.17816162109375
 30
0.0
 11
-55.59808349609375
 21
-30.17816162109375
 31
0.0
  0
LINE
  5
C9
330
1F
100
AcDbEntity
  8
VIEW0002
  6
Continuous
 62
     7
100
AcDbLine
 10
-45.40394015826404
 20
-32.87566386025613
 30
0.0
 11
-42.91458884746503
 21
-39.7496663965931
 31
0.0
  0
LINE
  5
CA
330
1F
100
AcDbEntity
  8
VIEW0002
  6
Continuous
 62
     7
100
AcDbLine
 10
-18.30052875797806
 20
-35.92487783845242
 30
0.0
 11
-19.25420747402237
 21
-39.50115962143715
 31
0.0
  0
LINE
  5
CB
330
1F
100
AcDbEntity
  8
VIEW0002
  6
Continuous
 62
     7
100
AcDbLine
 10
-48.69480754172704
 20
-34.06742670422882
 30
0.0
 11
-46.20545623092803
 21
-40.9414292405658
 31
0.0
  0
LINE
  5
CC
330
1F
100
AcDbEntity
  8
VIEW0002
  6
Continuous
 62
     7
100
AcDbLine
 10
-40.09384155273438
 20
-45.22816467285156
 30
0.0
 11
-22.15291595458984
 21
-45.22816467285156
 31
0.0
  0
LINE
  5
CD
330
1F
100
AcDbEntity
  8
VIEW0002
  6
Continuous
 62
     7
100
AcDbLine
 10
-14.91871468255096
 20
-36.82669830480901
 30
0.0
 11
-15.87239339859527
 21
-40.40298008779374
 31
0.0
  0
LINE
  5
CE
330
1F
100
AcDbEntity
  8
VIEW0002
  6
Continuous
 62
     7
100
AcDbLine
 10
-2.637648808054966
 20
-34.15954304441024
 30
0.0
 11
-13.68031464504002
 21
-35.72810367237768
 31
0.0
  0
LINE
  5
CF
330
1F
100
AcDbEntity
  8
VIEW0002
  6
Continuous
 62
     7
100
AcDbLine
 10
-1.140946787136764
 20
-34.87207773866319
 30
0.0
 11
-0.015448397168274
 21
-36.74522162947422
 31
0.0
  0
LINE
  5
D0
330
1F
100
AcDbEntity
  8
VIEW0002
  6
Continuous
 62
     7
100
AcDbLine
 10
-53.09808349609375
 20
-33.07816314697266
 30
0.0
 11
-50.10514831542969
 21
-33.07816314697266
 31
0.0
  0
LINE
  5
D1
330
1F
100
AcDbEntity
  8
VIEW0002
  6
Continuous
 62
     7
100
AcDbLine
 10
-55.59808180556963
 20
-30.17816022465986
 30
0.0
 11
-53.09807475080067
 21
-33.07816978662395
 31
0.0
  0
LINE
  5
D2
330
1F
100
AcDbEntity
  8
VIEW0002
  6
Continuous
 62
     7
100
AcDbLine
 10
0.151923622225205
 20
-30.2281636596343
 30
0.0
 11
-1.027762915096336
 21
-30.39573278497977
 31
0.0
  0
LINE
  5
D3
330
1F
100
AcDbEntity
  8
VIEW0002
  6
Continuous
 62
     7
100
AcDbLine
 10
1.859138770830128
 20
-33.06944448564735
 30
0.0
 11
13.28539860660349
 21
-52.08593442198345
 31
0.0
  0
LINE
  5
D4
330
1F
100
AcDbEntity
  8
VIEW0002
  6
DASHED
 62
     7
100
AcDbLine
 10
-3.045485896319574
 20
-31.28837019885001
 30
0.0
 11
-14.08814795651902
 21
-32.85693029034217
 31
0.0
  0
LINE
  5
D5
330
1F
100
AcDbEntity
  8
VIEW0002
  6
DASHED
 62
     7
100
AcDbLine
 10
-5.304329385486414
 20
-32.21524998194405
 30
0.0
 11
-11.84642264723463
 21
-33.14452467578655
 31
0.0
  0
LINE
  5
D6
330
1F
100
AcDbEntity
  8
VIEW0002
  6
DASHED
 62
     7
100
AcDbLine
 10
-11.84643829085233
 20
-33.14452304490204
 30
0.0
 11
-11.9308183410812
 21
-32.55048754421963
 31
0.0
  0
LINE
  5
D7
330
1F
100
AcDbEntity
  8
VIEW0002
  6
DASHED
 62
     7
100
AcDbLine
 10
-4.848075866699219
 20
-32.61127471923828
 30
0.0
 11
-4.848075866699219
 21
-34.48857879638672
 31
0.0
  0
LINE
  5
D8
330
1F
100
AcDbEntity
  8
VIEW0002
  6
DASHED
 62
     7
100
AcDbLine
 10
-4.248077392578125
 20
-32.61127471923828
 30
0.0
 11
-4.248077392578125
 21
-34.38829803466797
 31
0.0
  0
LINE
  5
D9
330
1F
100
AcDbEntity
  8
VIEW0002
  6
DASHED
 62
     7
100
AcDbLine
 10
-9.371277059603635
 20
-32.79293375842017
 30
0.0
 11
-9.54003662358609
 21
-31.60486653384093
 31
0.0
  0
LINE
  5
DA
330
1F
100
AcDbEntity
  8
VIEW0002
  6
DASHED
 62
     7
100
AcDbLine
 10
-7.391152615330868
 20
-32.5116737625948
 30
0.0
 11
-7.559912715788598
 21
-31.32360276122995
 31
0.0
  0
LINE
  5
DB
330
1F
100
AcDbEntity
  8
VIEW0002
  6
DASHED
 62
     7
100
AcDbLine
 10
-9.795991015085045
 20
-33.35828148859987
 30
0.0
 11
-9.866307365958916
 21
-32.86325442255492
 31
0.0
  0
LINE
  5
DC
330
1F
100
AcDbEntity
  8
VIEW0002
  6
DASHED
 62
     7
100
AcDbLine
 10
-6.825806902298124
 20
-32.93638029862381
 30
0.0
 11
-6.896123253171995
 21
-32.44135323257886
 31
0.0
  0
LINE
  5
DD
330
1F
100
AcDbEntity
  8
VIEW0002
  6
DASHED
 62
     7
100
AcDbLine
 10
-6.825805829347572
 20
-32.93638785219501
 30
0.0
 11
-9.795989942134486
 21
-33.35828904217107
 31
0.0
  0
LINE
  5
DE
330
1F
100
AcDbEntity
  8
VIEW0002
  6
DASHED
 62
     7
100
AcDbLine
 10
-17.72079137862989
 20
-36.0794829483045
 30
0.0
 11
-18.67446812885732
 21
-39.6557573595035
 31
0.0
  0
LINE
  5
DF
330
1F
100
AcDbEntity
  8
VIEW0002
  6
DASHED
 62
     7
100
AcDbLine
 10
-40.09384155273438
 20
-42.32817077636719
 30
0.0
 11
-22.15291595458984
 21
-42.32817077636719
 31
0.0
  0
LINE
  5
E0
330
1F
100
AcDbEntity
  8
VIEW0002
  6
Continuous
 62
     7
100
AcDbLine
 10
-10.34807586669922
 20
-41.32816314697266
 30
0.0
 11
-10.34807586669922
 21
-42.32817077636719
 31
0.0
  0
LINE
  5
E1
330
1F
100
AcDbEntity
  8
VIEW0002
  6
DASHED
 62
     7
100
AcDbLine
 10
-22.42214252649395
 20
-45.56340852495637
 30
0.0
 11
-20.12554832784016
 21
-44.94803802978565
 31
0.0
  0
LINE
  5
E2
330
1F
100
AcDbEntity
  8
VIEW0002
  6
DASHED
 62
     7
100
AcDbLine
 10
-23.20864059026342
 20
-42.62815747752953
 30
0.0
 11
-22.42214450112635
 21
-45.56340115552709
 31
0.0
  0
LINE
  5
E3
330
1F
100
AcDbEntity
  8
VIEW0002
  6
DASHED
 62
     7
100
AcDbLine
 10
-29.47844696044922
 20
-42.62815856933594
 30
0.0
 11
-23.20864868164062
 21
-42.62815856933594
 31
0.0
  0
LINE
  5
E4
330
1F
100
AcDbEntity
  8
VIEW0002
  6
DASHED
 62
     7
100
AcDbLine
 10
-22.21001569384144
 20
-45.19598330620874
 30
0.0
 11
-19.08814121959661
 21
-44.35947965127354
 31
0.0
  0
LINE
  5
E5
330
1F
100
AcDbEntity
  8
VIEW0002
  6
DASHED
 62
     7
100
AcDbLine
 10
-22.97843113219551
 20
-42.32815858733197
 30
0.0
 11
-22.2100009549829
 21
-45.19597935694389
 31
0.0
  0
LINE
  5
E6
330
1F
100
AcDbEntity
  8
VIEW0002
  6
Continuous
 62
     7
100
AcDbLine
 10
-10.64807891845703
 20
-41.32816314697266
 30
0.0
 11
-10.64807891845703
 21
-42.09796142578125
 31
0.0
  0
LINE
  5
E7
330
1F
100
AcDbEntity
  8
VIEW0002
  6
Continuous
 62
     7
100
AcDbLine
 10
-10.64807891845703
 20
-41.32816314697266
 30
0.0
 11
-10.34807586669922
 21
-41.32816314697266
 31
0.0
  0
LINE
  5
E8
330
1F
100
AcDbEntity
  8
VIEW0002
  6
DASHED
 62
     7
100
AcDbLine
 10
-45.96809517503316
 20
-33.07995884641209
 30
0.0
 11
-43.47874386423415
 21
-39.95396138274906
 31
0.0
  0
LINE
  5
E9
330
1F
100
AcDbEntity
  8
VIEW0002
  6
DASHED
 62
     7
100
AcDbLine
 10
-29.47844696044922
 20
-42.32816314697266
 30
0.0
 11
-29.47844696044922
 21
-42.62815856933594
 31
0.0
  0
LINE
  5
EA
330
1F
100
AcDbEntity
  8
VIEW0002
  6
DASHED
 62
     7
100
AcDbLine
 10
-26.97844696044922
 20
-41.72816467285156
 30
0.0
 11
-26.97844696044922
 21
-42.62815856933594
 31
0.0
  0
LINE
  5
EB
330
1F
100
AcDbEntity
  8
VIEW0002
  6
DASHED
 62
     7
100
AcDbLine
 10
-24.97844696044922
 20
-41.72816467285156
 30
0.0
 11
-24.97844696044922
 21
-42.62815856933594
 31
0.0
  0
LINE
  5
EC
330
1F
100
AcDbEntity
  8
VIEW0002
  6
DASHED
 62
     7
100
AcDbLine
 10
-27.47844696044922
 20
-43.12815856933594
 30
0.0
 11
-24.47844696044922
 21
-43.12815856933594
 31
0.0
  0
LINE
  5
ED
330
1F
100
AcDbEntity
  8
VIEW0002
  6
DASHED
 62
     7
100
AcDbLine
 10
-27.47844696044922
 20
-42.62815856933594
 30
0.0
 11
-27.47844696044922
 21
-43.12815856933594
 31
0.0
  0
LINE
  5
EE
330
1F
100
AcDbEntity
  8
VIEW0002
  6
DASHED
 62
     7
100
AcDbLine
 10
-24.47844696044922
 20
-42.62815856933594
 30
0.0
 11
-24.47844696044922
 21
-43.12815856933594
 31
0.0
  0
LINE
  5
EF
330
1F
100
AcDbEntity
  8
VIEW0002
  6
Continuous
 62
     7
100
AcDbLine
 10
-18.77566267971599
 20
-44.2757512877998
 30
0.0
 11
-10.64808126595101
 21
-42.09797264407569
 31
0.0
  0
LINE
  5
F0
330
1F
100
AcDbEntity
  8
VIEW0002
  6
Continuous
 62
     7
100
AcDbLine
 10
-19.81306978795954
 20
-44.86430966631191
 30
0.0
 11
-10.34806961152736
 21
-42.32817078344954
 31
0.0
  0
LINE
  5
F1
330
1F
100
AcDbEntity
  8
VIEW0002
  6
DASHED
 62
     7
100
AcDbLine
 10
-55.78489685058594
 20
-30.17816162109375
 30
0.0
 11
-50.10514831542969
 21
-30.17816162109375
 31
0.0
  0
LINE
  5
F2
330
1F
100
AcDbEntity
  8
VIEW0002
  6
Continuous
 62
     7
100
AcDbLine
 10
9.771013975204337
 20
-54.1975897324877
 30
0.0
 11
13.28539860660347
 21
-52.08593442198343
 31
0.0
  0
LINE
  5
F3
330
1F
100
AcDbEntity
  8
VIEW0002
  6
Continuous
 62
     7
100
AcDbLine
 10
2.47033808736637
 20
-35.25161043394677
 30
0.0
 11
12.77109953317125
 21
-52.39495647947186
 31
0.0
  0
LINE
  5
F4
330
1F
100
AcDbEntity
  8
VIEW0002
  6
Continuous
 62
     7
100
AcDbLine
 10
-0.529747470600508
 20
-37.05424368696264
 30
0.0
 11
9.771013975204365
 21
-54.19758973248771
 31
0.0
  0
LINE
  5
F5
330
1F
100
AcDbEntity
  8
VIEW0002
  6
DASHED
 62
     7
100
AcDbLine
 10
-0.015448397168274
 20
-36.74522162947422
 30
0.0
 11
10.2853130486366
 21
-53.8885676749993
 31
0.0
  0
LINE
  5
F6
330
1F
100
AcDbEntity
  8
VIEW0002
  6
Continuous
 62
     7
100
AcDbLine
 10
-3.12986701949899
 20
-30.69432714459638
 30
0.0
 11
-14.17252530291282
 21
-32.26288669961326
 31
0.0
  0
LINE
  5
F7
330
1F
100
AcDbEntity
  8
VIEW0002
  6
DASHED
 62
     7
100
AcDbLine
 10
1.344838062480997
 20
-33.37846752549291
 30
0.0
 11
2.470336452449487
 21
-35.25161141630393
 31
0.0
  0
LINE
  5
F8
330
1F
100
AcDbEntity
  8
VIEW0002
  6
Continuous
 62
     7
100
AcDbLine
 10
-4.848075866699219
 20
-34.48857879638672
 30
0.0
 11
-4.848075866699219
 21
-48.00843811035156
 31
0.0
  0
LINE
  5
F9
330
1F
100
AcDbEntity
  8
VIEW0002
  6
Continuous
 62
     7
100
AcDbLine
 10
-4.248077392578125
 20
-34.38829803466797
 30
0.0
 11
-4.248077392578125
 21
-48.00843811035156
 31
0.0
  0
LINE
  5
FA
330
1F
100
AcDbEntity
  8
VIEW0002
  6
Continuous
 62
     7
100
AcDbLine
 10
-0.529747470600519
 20
-37.05424368696261
 30
0.0
 11
2.984637160798613
 21
-34.94258837645835
 31
0.0
  0
ARC
  5
FB
330
1F
100
AcDbEntity
  8
VIEW0002
  6
Continuous
 62
     7
100
AcDbCircle
 10
32.74951553344727
 20
-11.80818557739258
 30
0.0
 40
1.0
100
AcDbArc
 50
120.9999840149291
 51
210.9999660288398
  0
ARC
  5
FC
330
1F
100
AcDbEntity
  8
VIEW0002
  6
Continuous
 62
     7
100
AcDbCircle
 10
41.9300651550293
 20
-20.29157257080078
 30
0.0
 40
2.0
100
AcDbArc
 50
120.9999840149291
 51
301.0000163446421
  0
ARC
  5
FD
330
1F
100
AcDbEntity
  8
VIEW0002
  6
Continuous
 62
     7
100
AcDbCircle
 10
40.21480941772461
 20
-19.86390686035156
 30
0.0
 40
1.0
100
AcDbArc
 50
120.9999840149291
 51
210.9999660288398
  0
ARC
  5
FE
330
1F
100
AcDbEntity
  8
VIEW0002
  6
Continuous
 62
     7
100
AcDbCircle
 10
40.21480941772461
 20
-19.86390686035156
 30
0.0
 40
1.5
100
AcDbArc
 50
120.9999840149291
 51
210.9999660288398
  0
ARC
  5
FF
330
1F
100
AcDbEntity
  8
VIEW0002
  6
Continuous
 62
     7
100
AcDbCircle
 10
41.50240325927734
 20
-22.00682830810547
 30
0.0
 40
1.0
100
AcDbArc
 50
210.9999833316838
 51
300.9999585154052
  0
ARC
  5
100
330
1F
100
AcDbEntity
  8
VIEW0002
  6
Continuous
 62
     7
100
AcDbCircle
 10
41.50240325927734
 20
-22.00682830810547
 30
0.0
 40
1.5
100
AcDbArc
 50
210.9999833316838
 51
300.9999585154052
  0
CIRCLE
  5
101
330
1F
100
AcDbEntity
  8
VIEW0002
  6
Continuous
 62
     7
100
AcDbCircle
 10
28.89779853820801
 20
-22.87229537963867
 30
0.0
 40
1.0
  0
CIRCLE
  5
102
330
1F
100
AcDbEntity
  8
VIEW0002
  6
Continuous
 62
     7
100
AcDbCircle
 10
36.10833740234375
 20
-34.87263488769531
 30
0.0
 40
1.0
  0
CIRCLE
  5
103
330
1F
100
AcDbEntity
  8
VIEW0002
  6
Continuous
 62
     7
100
AcDbCircle
 10
32.9316520690918
 20
-28.61494445800781
 30
0.0
 40
1.5
  0
ARC
  5
104
330
1F
100
AcDbEntity
  8
VIEW0002
  6
DASHED
 62
     7
100
AcDbCircle
 10
32.74951553344727
 20
-11.80818557739258
 30
0.0
 40
0.3999999761581421
100
AcDbArc
 50
120.9999840149291
 51
210.9999660288398
  0
ARC
  5
105
330
1F
100
AcDbEntity
  8
VIEW0002
  6
Continuous
 62
     7
100
AcDbCircle
 10
38.74968719482422
 20
-8.202922821044922
 30
0.0
 40
1.0
100
AcDbArc
 50
31.00000200101845
 51
120.9999840149291
  0
ARC
  5
106
330
1F
100
AcDbEntity
  8
VIEW0002
  6
Continuous
 62
     7
100
AcDbCircle
 10
41.9300651550293
 20
-20.29157257080078
 30
0.0
 40
2.0
100
AcDbArc
 50
300.9999585154052
 51
120.9999840149291
  0
ARC
  5
107
330
1F
100
AcDbEntity
  8
VIEW0002
  6
Continuous
 62
     7
100
AcDbCircle
 10
42.35772705078125
 20
-18.57631301879883
 30
0.0
 40
1.0
100
AcDbArc
 50
31.00000200101845
 51
120.9999840149291
  0
ARC
  5
108
330
1F
100
AcDbEntity
  8
VIEW0002
  6
Continuous
 62
     7
100
AcDbCircle
 10
42.35772705078125
 20
-18.57631301879883
 30
0.0
 40
1.5
100
AcDbArc
 50
31.00000200101845
 51
120.9999840149291
  0
ARC
  5
109
330
1F
100
AcDbEntity
  8
VIEW0002
  6
Continuous
 62
     7
100
AcDbCircle
 10
43.64532089233398
 20
-20.71923065185547
 30
0.0
 40
1.0
100
AcDbArc
 50
301.0000131569187
 51
31.00000200101845
  0
ARC
  5
10A
330
1F
100
AcDbEntity
  8
VIEW0002
  6
Continuous
 62
     7
100
AcDbCircle
 10
43.64532089233398
 20
-20.71923065185547
 30
0.0
 40
1.5
100
AcDbArc
 50
301.0000131569187
 51
31.00000200101845
  0
CIRCLE
  5
10B
330
1F
100
AcDbEntity
  8
VIEW0002
  6
Continuous
 62
     7
100
AcDbCircle
 10
50.32698059082031
 20
-9.996341705322266
 30
0.0
 40
1.0
  0
CIRCLE
  5
10C
330
1F
100
AcDbEntity
  8
VIEW0002
  6
Continuous
 62
     7
100
AcDbCircle
 10
57.53751754760742
 20
-21.99668502807617
 30
0.0
 40
1.0
  0
CIRCLE
  5
10D
330
1F
100
AcDbEntity
  8
VIEW0002
  6
Continuous
 62
     7
100
AcDbCircle
 10
53.50366973876953
 20
-16.25403213500977
 30
0.0
 40
1.5
  0
ARC
  5
10E
330
1F
100
AcDbEntity
  8
VIEW0002
  6
DASHED
 62
     7
100
AcDbCircle
 10
38.74968719482422
 20
-8.202922821044922
 30
0.0
 40
0.3999999761581421
100
AcDbArc
 50
31.00000200101845
 51
120.9999840149291
  0
CIRCLE
  5
10F
330
1F
100
AcDbEntity
  8
VIEW0002
  6
Continuous
 62
     7
100
AcDbCircle
 10
-25.97844886779785
 20
47.82368850708008
 30
0.0
 40
1.5
  0
CIRCLE
  5
110
330
1F
100
AcDbEntity
  8
VIEW0002
  6
Continuous
 62
     7
100
AcDbCircle
 10
-8.549982070922852
 20
47.82368850708008
 30
0.0
 40
1.5
  0
ARC
  5
111
330
1F
100
AcDbEntity
  8
VIEW0002
  6
Continuous
 62
     7
100
AcDbCircle
 10
2.271697282791138
 20
53.32368850708008
 30
0.0
 40
1.0
100
AcDbArc
 50
270.0000179860893
 51
0.0
  0
ARC
  5
112
330
1F
100
AcDbEntity
  8
VIEW0002
  6
Continuous
 62
     7
100
AcDbCircle
 10
2.315375566482544
 20
53.32369613647461
 30
0.0
 40
0.4000000059604645
100
AcDbArc
 50
270.0000179860893
 51
0.0
  0
ARC
  5
113
330
1F
100
AcDbEntity
  8
VIEW0002
  6
Continuous
 62
     7
100
AcDbCircle
 10
0.070243127644062
 20
52.32369613647461
 30
0.0
 40
0.6000000238418579
100
AcDbArc
 50
89.99998201391067
 51
179.9999640278213
  0
ARC
  5
114
330
1F
100
AcDbEntity
  8
VIEW0002
  6
Continuous
 62
     7
100
AcDbCircle
 10
12.28539848327637
 20
53.32368850708008
 30
0.0
 40
1.0
100
AcDbArc
 50
270.0000179860893
 51
0.0
  0
ARC
  5
115
330
1F
100
AcDbEntity
  8
VIEW0002
  6
Continuous
 62
     7
100
AcDbCircle
 10
12.78539848327637
 20
51.82368850708008
 30
0.0
 40
0.5
100
AcDbArc
 50
0.0
 51
89.99998201391067
  0
ARC
  5
116
330
1F
100
AcDbEntity
  8
VIEW0002
  6
Continuous
 62
     7
100
AcDbCircle
 10
2.271697282791138
 20
42.32368850708008
 30
0.0
 40
1.0
100
AcDbArc
 50
359.9999453584866
 51
89.9999273723973
  0
ARC
  5
117
330
1F
100
AcDbEntity
  8
VIEW0002
  6
Continuous
 62
     7
100
AcDbCircle
 10
0.070243127644062
 20
43.32368087768555
 30
0.0
 40
0.6000000238418579
100
AcDbArc
 50
179.9999776881997
 51
269.9999733624886
  0
ARC
  5
118
330
1F
100
AcDbEntity
  8
VIEW0002
  6
Continuous
 62
     7
100
AcDbCircle
 10
12.78539848327637
 20
43.82368850708008
 30
0.0
 40
0.5
100
AcDbArc
 50
269.999963344576
 51
359.9999453584866
  0
ARC
  5
119
330
1F
100
AcDbEntity
  8
VIEW0002
  6
Continuous
 62
     7
100
AcDbCircle
 10
12.28539848327637
 20
42.32368850708008
 30
0.0
 40
1.0
100
AcDbArc
 50
359.9999453584866
 51
89.9999273723973
  0
ARC
  5
11A
330
1F
100
AcDbEntity
  8
VIEW0002
  6
Continuous
 62
     7
100
AcDbCircle
 10
2.315375566482544
 20
42.32368087768555
 30
0.0
 40
0.4000000059604645
100
AcDbArc
 50
0.0
 51
89.99998201391067
  0
CIRCLE
  5
11B
330
1F
100
AcDbEntity
  8
VIEW0002
  6
Continuous
 62
     7
100
AcDbCircle
 10
8.135017395019531
 20
59.82368850708008
 30
0.0
 40
0.25
  0
CIRCLE
  5
11C
330
1F
100
AcDbEntity
  8
VIEW0002
  6
Continuous
 62
     7
100
AcDbCircle
 10
4.5297532081604
 20
60.32368850708008
 30
0.0
 40
0.25
  0
CIRCLE
  5
11D
330
1F
100
AcDbEntity
  8
VIEW0002
  6
Continuous
 62
     7
100
AcDbCircle
 10
11.74028396606445
 20
60.32368850708008
 30
0.0
 40
0.25
  0
CIRCLE
  5
11E
330
1F
100
AcDbEntity
  8
VIEW0002
  6
Continuous
 62
     7
100
AcDbCircle
 10
8.135017395019531
 20
35.82368850708008
 30
0.0
 40
0.25
  0
CIRCLE
  5
11F
330
1F
100
AcDbEntity
  8
VIEW0002
  6
Continuous
 62
     7
100
AcDbCircle
 10
4.5297532081604
 20
35.32368850708008
 30
0.0
 40
0.25
  0
CIRCLE
  5
120
330
1F
100
AcDbEntity
  8
VIEW0002
  6
Continuous
 62
     7
100
AcDbCircle
 10
11.74028396606445
 20
35.32368850708008
 30
0.0
 40
0.25
  0
ARC
  5
121
330
1F
100
AcDbEntity
  8
VIEW0002
  6
Continuous
 62
     7
100
AcDbCircle
 10
-4.998077392578125
 20
-48.00843811035156
 30
0.0
 40
0.75
100
AcDbArc
 50
203.9999683381478
 51
0.0
  0
ARC
  5
122
330
1F
100
AcDbEntity
  8
VIEW0002
  6
Continuous
 62
     7
100
AcDbCircle
 10
-4.998077392578125
 20
-48.00843811035156
 30
0.0
 40
0.1500000059604645
100
AcDbArc
 50
203.9999683381478
 51
0.0
  0
ARC
  5
123
330
1F
100
AcDbEntity
  8
VIEW0002
  6
Continuous
 62
     7
100
AcDbCircle
 10
-60.59808349609375
 20
-29.17816162109375
 30
0.0
 40
1.0
100
AcDbArc
 50
179.9999776881997
 51
270.000028004002
  0
ARC
  5
124
330
1F
100
AcDbEntity
  8
VIEW0002
  6
Continuous
 62
     7
100
AcDbCircle
 10
-60.59808349609375
 20
-29.17816162109375
 30
0.0
 40
0.4000000059604645
100
AcDbArc
 50
179.9999776881997
 51
270.000028004002
  0
ARC
  5
125
330
1F
100
AcDbEntity
  8
VIEW0002
  6
Continuous
 62
     7
100
AcDbCircle
 10
-40.09384155273438
 20
-38.72816467285156
 30
0.0
 40
3.0
100
AcDbArc
 50
199.9073189874762
 51
270.0000179860893
  0
ARC
  5
126
330
1F
100
AcDbEntity
  8
VIEW0002
  6
Continuous
 62
     7
100
AcDbCircle
 10
-22.15291595458984
 20
-38.72816467285156
 30
0.0
 40
3.0
100
AcDbArc
 50
270.0000179860893
 51
345.0685217478878
  0
ARC
  5
127
330
1F
100
AcDbEntity
  8
VIEW0002
  6
Continuous
 62
     7
100
AcDbCircle
 10
-50.10514831542969
 20
-34.57816314697266
 30
0.0
 40
5.0
100
AcDbArc
 50
19.90736327002025
 51
89.99998201391067
  0
ARC
  5
128
330
1F
100
AcDbEntity
  8
VIEW0002
  6
Continuous
 62
     7
100
AcDbCircle
 10
-22.15291595458984
 20
-38.72816467285156
 30
0.0
 40
6.5
100
AcDbArc
 50
270.0000179860893
 51
345.0685217478878
  0
ARC
  5
129
330
1F
100
AcDbEntity
  8
VIEW0002
  6
Continuous
 62
     7
100
AcDbCircle
 10
-40.09384155273438
 20
-38.72816467285156
 30
0.0
 40
6.5
100
AcDbArc
 50
199.9073189874762
 51
270.0000179860893
  0
ARC
  5
12A
330
1F
100
AcDbEntity
  8
VIEW0002
  6
Continuous
 62
     7
100
AcDbCircle
 10
-50.10514831542969
 20
-34.57816314697266
 30
0.0
 40
1.5
100
AcDbArc
 50
19.90736327002025
 51
89.99998201391067
  0
ARC
  5
12B
330
1F
100
AcDbEntity
  8
VIEW0002
  6
Continuous
 62
     7
100
AcDbCircle
 10
-8.391768455505371
 20
-32.57804870605469
 30
0.0
 40
1.875000238418579
100
AcDbArc
 50
44.95434143763755
 51
151.2146645255578
  0
ARC
  5
12C
330
1F
100
AcDbEntity
  8
VIEW0002
  6
DASHED
 62
     7
100
AcDbCircle
 10
-22.15291595458984
 20
-38.72816467285156
 30
0.0
 40
3.599999904632568
100
AcDbArc
 50
270.0000179860893
 51
345.0685217478878
  0
ARC
  5
12D
330
1F
100
AcDbEntity
  8
VIEW0002
  6
DASHED
 62
     7
100
AcDbCircle
 10
-40.09384155273438
 20
-38.72816467285156
 30
0.0
 40
3.599999904632568
100
AcDbArc
 50
199.9073189874762
 51
270.0000179860893
  0
ARC
  5
12E
330
1F
100
AcDbEntity
  8
VIEW0002
  6
DASHED
 62
     7
100
AcDbCircle
 10
-50.10514831542969
 20
-34.57816314697266
 30
0.0
 40
4.400000095367432
100
AcDbArc
 50
19.90736327002025
 51
89.99998201391067
  0
ARC
  5
12F
330
1F
100
AcDbEntity
  8
VIEW0002
  6
Continuous
 62
     7
100
AcDbCircle
 10
-25.97844696044922
 20
-42.85316467285156
 30
0.0
 40
1.875
100
AcDbArc
 50
36.86989730957868
 51
143.1301111144722
  0
ARC
  5
130
330
1F
100
AcDbEntity
  8
VIEW0002
  6
Continuous
 62
     7
100
AcDbCircle
 10
-13.46935558319092
 20
-37.21319580078125
 30
0.0
 40
5.0
100
AcDbArc
 50
98.08452176461792
 51
165.0685284643915
  0
ARC
  5
131
330
1F
100
AcDbEntity
  8
VIEW0002
  6
DASHED
 62
     7
100
AcDbCircle
 10
-13.46935844421387
 20
-37.21320343017578
 30
0.0
 40
4.400000095367432
100
AcDbArc
 50
98.08452176461792
 51
165.0685284643915
  0
ARC
  5
132
330
1F
100
AcDbEntity
  8
VIEW0002
  6
Continuous
 62
     7
100
AcDbCircle
 10
-13.46936321258545
 20
-37.21319580078125
 30
0.0
 40
1.5
100
AcDbArc
 50
98.08452176461792
 51
165.0685284643915
  0
ARC
  5
133
330
1F
100
AcDbEntity
  8
VIEW0002
  6
DASHED
 62
     7
100
AcDbCircle
 10
-5.24807596206665
 20
-32.61127471923828
 30
0.0
 40
0.4000000059604645
100
AcDbArc
 50
0.0
 51
98.08452176461792
  0
ARC
  5
134
330
1F
100
AcDbEntity
  8
VIEW0002
  6
DASHED
 62
     7
100
AcDbCircle
 10
-5.248077392578125
 20
-32.61127471923828
 30
0.0
 40
1.0
100
AcDbArc
 50
0.0
 51
98.08452176461792
  0
ARC
  5
135
330
1F
100
AcDbEntity
  8
VIEW0002
  6
Continuous
 62
     7
100
AcDbCircle
 10
-2.426698207855225
 20
-35.64463806152344
 30
0.0
 40
5.0
100
AcDbArc
 50
30.99999858592387
 51
98.08452176461792
  0
ARC
  5
136
330
1F
100
AcDbEntity
  8
VIEW0002
  6
DASHED
 62
     7
100
AcDbCircle
 10
-2.426698207855225
 20
-35.64463806152344
 30
0.0
 40
4.400000095367432
100
AcDbArc
 50
30.99999858592387
 51
98.08452176461792
  0
ARC
  5
137
330
1F
100
AcDbEntity
  8
VIEW0002
  6
Continuous
 62
     7
100
AcDbCircle
 10
-2.426698207855225
 20
-35.64463806152344
 30
0.0
 40
1.5
100
AcDbArc
 50
30.99999858592387
 51
98.08452176461792
  0
LWPOLYLINE
  5
138
330
1F
100
AcDbEntity
  8
VIEW0002
  6
Continuous
 62
     7
100
AcDbPolyline
 90
        2
 70
     0
 43
0.0
 10
36.59501647949219
 20
-11.41256332397461
 10
33.79372406005859
 20
-10.01412963867188
  0
LWPOLYLINE
  5
139
330
1F
100
AcDbEntity
  8
VIEW0002
  6
Continuous
 62
     7
100
AcDbPolyline
 90
        2
 70
     0
 43
0.0
 10
36.59501647949219
 20
-11.41256332397461
 10
36.67539978027344
 20
-8.282642364501953
  0
DIMENSION
  5
13A
330
1F
100
AcDbEntity
  8
VIEW0002
 62
     7
100
AcDbDimension
  2
*D2
 10
40.79904017084681
 20
5.860821401938292
 30
0.0
 11
30.08518273925781
 21
-0.576713562011719
 31
0.0
 70
   160
  1
50
 71
     5
 42
25.00000119209288
  3
ISO-25
100
AcDbAlignedDimension
 13
28.12524386434868
 23
-21.58654251737742
 33
0.0
 14
49.55442744307805
 24
-8.710590096148106
 34
0.0
 50
210.9999998248835
100
AcDbRotatedDimension
1001
ACAD
1000
DSTYLE
1002
{
1070
   178
1070
     1
1070
   278
1070
    46
1070
   147
1040
0.800000011920929
1070
    77
1070
     1
1070
    74
1070
     0
1070
    73
1070
     0
1070
    42
1040
2.54
1070
    44
1040
1.0
1070
    76
1070
     0
1070
    75
1070
     0
1070
   279
1070
     0
1070
   271
1070
     0
1070
   173
1070
     1
1070
    41
1040
3.0
1070
   140
1040
3.200000047683716
1070
   344
1005
13B
1070
   343
1005
13B
1002
}
  0
DIMENSION
  5
14E
330
1F
100
AcDbEntity
  8
VIEW0002
 62
     7
100
AcDbDimension
  2
*D3
 10
63.80425305639667
 20
-33.39708467379611
 30
0.0
 11
53.5194211730957
 21
-39.57683508300781
 31
0.0
 70
   160
  1
48
 71
     5
 42
24.00000083446503
  3
ISO-25
100
AcDbAlignedDimension
 13
33.96172561636695
 23
-30.32927670110723
 33
0.0
 14
54.53374158627317
 24
-17.96836253636012
 34
0.0
 50
210.9999998248836
100
AcDbRotatedDimension
1001
ACAD
1000
DSTYLE
1002
{
1070
   178
1070
     1
1070
   278
1070
    46
1070
   147
1040
0.800000011920929
1070
    77
1070
     1
1070
    74
1070
     0
1070
    73
1070
     0
1070
    42
1040
2.54
1070
    44
1040
1.000000000000032
1070
    76
1070
     0
1070
    75
1070
     0
1070
   279
1070
     0
1070
   271
1070
     0
1070
   173
1070
     1
1070
    41
1040
3.0
1070
   140
1040
3.200000047683716
1070
   344
1005
13B
1070
   343
1005
13B
1002
}
  0
DIMENSION
  5
15B
330
1F
100
AcDbEntity
  8
VIEW0002
 62
     7
100
AcDbDimension
  2
*D4
 10
38.22016151531962
 20
15.97760837437735
 30
0.0
 11
24.93480165100098
 21
7.994958877563477
 31
0.0
 70
   160
  1
62
 71
     5
 42
31.00000095367432
  3
ISO-25
100
AcDbAlignedDimension
 13
24.78118505344916
 23
-21.84590565803912
 33
0.0
 14
51.35337224147146
 24
-5.879724925862998
 34
0.0
 50
210.9999998248836
100
AcDbRotatedDimension
1001
ACAD
1000
DSTYLE
1002
{
1070
   178
1070
     1
1070
   278
1070
    46
1070
   147
1040
0.800000011920929
1070
    77
1070
     1
1070
    74
1070
     0
1070
    73
1070
     0
1070
    42
1040
2.54
1070
    44
1040
0.999999999999994
1070
    76
1070
     0
1070
    75
1070
     0
1070
   279
1070
     0
1070
   271
1070
     0
1070
   173
1070
     1
1070
    41
1040
3.0
1070
   140
1040
3.200000047683716
1070
   344
1005
13B
1070
   343
1005
13B
1002
}
  0
DIMENSION
  5
168
330
1F
100
AcDbEntity
  8
VIEW0002
 62
     7
100
AcDbDimension
  2
*D5
 10
-71.59608349609374
 20
41.32368850708007
 30
0.0
 11
-71.59608349609374
 21
47.82468850708008
 31
0.0
 70
   160
  1
26
 71
     5
 42
13.0
  3
ISO-25
100
AcDbAlignedDimension
 13
-60.99807739257812
 23
54.32368850708008
 33
0.0
 14
-60.99807739257812
 24
41.32368850708008
 34
0.0
 50
90.00000000000001
100
AcDbRotatedDimension
1001
ACAD
1000
DSTYLE
1002
{
1070
   178
1070
     1
1070
   278
1070
    46
1070
   147
1040
0.800000011920929
1070
    77
1070
     1
1070
    74
1070
     0
1070
    73
1070
     0
1070
    42
1040
2.54
1070
    44
1040
1.0
1070
    76
1070
     0
1070
    75
1070
     0
1070
   279
1070
     0
1070
   271
1070
     0
1070
   173
1070
     1
1070
    41
1040
3.0
1070
   140
1040
3.200000047683716
1070
   344
1005
13B
1070
   343
1005
13B
1002
}
  0
DIMENSION
  5
175
330
1F
100
AcDbEntity
  8
VIEW0002
 62
     7
100
AcDbDimension
  2
*D6
 10
78.79747370380397
 20
-12.72230869781706
 30
0.0
 11
73.6470947265625
 21
-4.150638580322266
 31
0.0
 70
   160
  1
40
 71
     5
 42
19.99999618530274
  3
ISO-25
100
AcDbAlignedDimension
 13
51.35337224147145
 23
-5.879724925862998
 33
0.0
 14
61.654131722562
 24
-23.0230677015543
 34
0.0
 50
120.9999998248835
100
AcDbRotatedDimension
1001
ACAD
1000
DSTYLE
1002
{
1070
   178
1070
     1
1070
   278
1070
    46
1070
   147
1040
0.800000011920929
1070
    77
1070
     1
1070
    74
1070
     0
1070
    73
1070
     0
1070
    42
1040
2.54
1070
    44
1040
0.999999999999984
1070
    76
1070
     0
1070
    75
1070
     0
1070
   279
1070
     0
1070
   271
1070
     0
1070
   173
1070
     1
1070
    41
1040
3.0
1070
   140
1040
3.200000047683716
1070
   344
1005
13B
1070
   343
1005
13B
1002
}
  0
DIMENSION
  5
183
330
1F
100
AcDbEntity
  8
VIEW0002
 62
     7
100
AcDbDimension
  2
*D7
 10
68.68069258350717
 20
-15.30118383702252
 30
0.0
 11
64.98783874511719
 21
-9.155242919921875
 31
0.0
 70
   160
  1
28
 71
     5
 42
13.99999618530277
  3
ISO-25
100
AcDbAlignedDimension
 13
51.61273550492781
 23
-9.223783941127117
 33
0.0
 14
58.82326655227689
 24
-21.22412290316095
 34
0.0
 50
120.9999998248835
100
AcDbRotatedDimension
1001
ACAD
1000
DSTYLE
1002
{
1070
   178
1070
     1
1070
   278
1070
    46
1070
   147
1040
0.800000011920929
1070
    77
1070
     1
1070
    74
1070
     0
1070
    73
1070
     0
1070
    42
1040
2.54
1070
    44
1040
0.999999999999998
1070
    76
1070
     0
1070
    75
1070
     0
1070
   279
1070
     0
1070
   271
1070
     0
1070
   173
1070
     1
1070
    41
1040
3.0
1070
   140
1040
3.200000047683716
1070
   344
1005
13B
1070
   343
1005
13B
1002
}
  0
DIMENSION
  5
191
330
1F
100
AcDbEntity
  8
VIEW0002
 62
     7
100
AcDbDimension
  2
*D9
 10
61.47015899244502
 20
-3.300846403405675
 30
0.0
 11
55.90033124954448
 21
5.968903693505576
 31
0.0
 70
   160
  1
6
 71
     5
 42
3.0
  3
ISO-25
100
AcDbAlignedDimension
 13
51.35337224147145
 23
-5.879724925862998
 33
0.0
 14
51.61273550492781
 24
-9.223783941127117
 34
0.0
 50
120.9999998248836
100
AcDbRotatedDimension
1001
ACAD
1000
DSTYLE
1002
{
1070
   178
1070
     1
1070
   278
1070
    46
1070
   147
1040
0.800000011920929
1070
    77
1070
     1
1070
    74
1070
     0
1070
    73
1070
     0
1070
    42
1040
2.54
1070
    44
1040
1.000000000000016
1070
    76
1070
     1
1070
    75
1070
     1
1070
   279
1070
     0
1070
   271
1070
     0
1070
   173
1070
     1
1070
    41
1040
3.0
1070
   140
1040
3.200000047683716
1070
   344
1005
192
1070
   343
1005
13B
1002
}
  0
DIMENSION
  5
1A6
330
1F
100
AcDbEntity
  8
VIEW0002
 62
     7
100
AcDbDimension
  2
*D10
 10
50.10625272486065
 20
-18.29539942580286
 30
0.0
 11
47.53088815307617
 21
-14.00927297973633
 31
0.0
 70
   160
  1
20
 71
     5
 42
9.999996185302745
  3
ISO-25
100
AcDbAlignedDimension
 13
41.92453109897423
 23
-11.54514421223426
 33
0.0
 14
51.78933083714017
 24
-17.28410407638811
 34
0.0
 50
120.9999998248835
100
AcDbRotatedDimension
1001
ACAD
1000
DSTYLE
1002
{
1070
   178
1070
     1
1070
   278
1070
    46
1070
   147
1040
0.625
1070
    77
1070
     1
1070
    74
1070
     0
1070
    73
1070
     0
1070
    42
1040
2.54
1070
    44
1040
0.99999999999999
1070
    76
1070
     0
1070
    75
1070
     1
1070
   279
1070
     0
1070
   271
1070
     0
1070
   173
1070
     1
1070
    41
1040
3.0
1070
   140
1040
2.5
1070
   344
1005
13B
1070
   343
1005
13B
1002
}
  0
INSERT
  5
1B9
330
1F
100
AcDbEntity
  8
VIEW0002
 62
     7
100
AcDbBlockReference
  2
DIM0001
 10
50.18846646719128
 20
-9.005963754546409
 30
0.0
  0
INSERT
  5
1C2
330
1F
100
AcDbEntity
  8
VIEW0002
 62
     7
100
AcDbBlockReference
  2
DIM0002
 10
53.3967459660201
 20
-14.75782911738987
 30
0.0
  0
DIMENSION
  5
1C5
330
1F
100
AcDbEntity
  8
VIEW0002
 62
     7
100
AcDbDimension
  2
*D13
 10
23.28639848327637
 20
43.32368850708008
 30
0.0
 11
23.28639848327637
 21
47.82468850708008
 31
0.0
 70
   160
  1
18
 71
     5
 42
9.0
  3
ISO-25
100
AcDbAlignedDimension
 13
12.78539848327637
 23
52.32368850708008
 33
0.0
 14
12.78539848327637
 24
43.32368850708008
 34
0.0
 50
90.00000000000001
100
AcDbRotatedDimension
1001
ACAD
1000
DSTYLE
1002
{
1070
   178
1070
     1
1070
   278
1070
    46
1070
   147
1040
0.800000011920929
1070
    77
1070
     1
1070
    74
1070
     0
1070
    73
1070
     0
1070
    42
1040
2.54
1070
    44
1040
1.0
1070
    76
1070
     0
1070
    75
1070
     0
1070
   279
1070
     0
1070
   271
1070
     0
1070
   173
1070
     1
1070
    41
1040
3.0
1070
   140
1040
3.200000047683716
1070
   344
1005
13B
1070
   343
1005
13B
1002
}
  0
DIMENSION
  5
1D2
330
1F
100
AcDbEntity
  8
VIEW0002
 62
     7
100
AcDbDimension
  2
*D14
 10
21.85751380280967
 20
-46.93528801447376
 30
0.0
 11
15.2903356552124
 21
-36.00566809082031
 31
0.0
 70
   160
  1
51
 71
     5
 42
25.50000381469726
  3
ISO-25
100
AcDbAlignedDimension
 13
0.151925798487953
 23
-30.2281649441052
 33
0.0
 14
13.28539860660347
 24
-52.08593442198343
 34
0.0
 50
120.9999998248835
100
AcDbRotatedDimension
1001
ACAD
1000
DSTYLE
1002
{
1070
   178
1070
     1
1070
   278
1070
    46
1070
   147
1040
0.800000011920929
1070
    77
1070
     1
1070
    74
1070
     0
1070
    73
1070
     0
1070
    42
1040
2.54
1070
    44
1040
0.999999999999987
1070
    76
1070
     0
1070
    75
1070
     0
1070
   279
1070
     0
1070
   271
1070
     0
1070
   173
1070
     1
1070
    41
1040
3.0
1070
   140
1040
3.200000047683716
1070
   344
1005
13B
1070
   343
1005
13B
1002
}
  0
DIMENSION
  5
1E0
330
1F
100
AcDbEntity
  8
VIEW0002
 62
     7
100
AcDbDimension
  2
*D15
 10
-4.848075866699219
 20
-20.96624374389649
 30
0.0
 11
-33.22207968139649
 21
-20.96624374389648
 31
0.0
 70
   160
  1
113.5
 71
     5
 42
56.75000762939453
  3
ISO-25
100
AcDbAlignedDimension
 13
-61.59808349609375
 23
-27.07816314697266
 33
0.0
 14
-4.848075866699219
 24
-32.19922256469727
 34
0.0
 50
180.0
100
AcDbRotatedDimension
1001
ACAD
1000
DSTYLE
1002
{
1070
   178
1070
     1
1070
   278
1070
    46
1070
   147
1040
0.800000011920929
1070
    77
1070
     1
1070
    74
1070
     0
1070
    73
1070
     0
1070
    42
1040
2.54
1070
    44
1040
1.0
1070
    76
1070
     0
1070
    75
1070
     0
1070
   279
1070
     0
1070
   271
1070
     1
1070
   173
1070
     1
1070
    41
1040
3.0
1070
   140
1040
3.200000047683716
1070
   344
1005
13B
1070
   343
1005
13B
1002
}
  0
DIMENSION
  5
1ED
330
1F
100
AcDbEntity
  8
VIEW0002
 62
     7
100
AcDbDimension
  2
*D16
 10
-71.59708349609375
 20
-27.07816314697265
 30
0.0
 11
-71.59708349609375
 21
-28.6271623840332
 31
0.0
 70
   160
  1
6
 71
     5
 42
3.099998474121094
  3
ISO-25
100
AcDbAlignedDimension
 13
-61.59808349609375
 23
-30.17816162109375
 33
0.0
 14
-61.59808349609375
 24
-27.07816314697266
 34
0.0
 50
270.0
100
AcDbRotatedDimension
1001
ACAD
1000
DSTYLE
1002
{
1070
   178
1070
     1
1070
   278
1070
    46
1070
   147
1040
0.800000011920929
1070
    77
1070
     1
1070
    74
1070
     0
1070
    73
1070
     0
1070
    42
1040
2.54
1070
    44
1040
1.0
1070
    76
1070
     0
1070
    75
1070
     0
1070
   279
1070
     0
1070
   271
1070
     0
1070
   173
1070
     1
1070
    41
1040
3.0
1070
   140
1040
3.200000047683716
1070
   344
1005
13B
1070
   343
1005
13B
1002
}
  0
DIMENSION
  5
203
330
1F
100
AcDbEntity
  8
VIEW0002
 62
     7
100
AcDbDimension
  2
*D17
 10
-35.05127661132813
 20
-45.22816467285156
 30
0.0
 11
-35.05127661132813
 21
-33.8449646447897
 31
0.0
 70
   160
  1
7
 71
     5
 42
3.5
  3
ISO-25
100
AcDbAlignedDimension
 13
-40.09384155273438
 23
-41.72816467285156
 33
0.0
 14
-40.09384155273438
 24
-45.22816467285156
 34
0.0
 50
90.00000000000001
100
AcDbRotatedDimension
1001
ACAD
1000
DSTYLE
1002
{
1070
   178
1070
     1
1070
   278
1070
    46
1070
   147
1040
0.800000011920929
1070
    77
1070
     1
1070
    74
1070
     0
1070
    73
1070
     0
1070
    42
1040
2.54
1070
    44
1040
1.0
1070
    76
1070
     1
1070
    75
1070
     1
1070
   279
1070
     0
1070
   271
1070
     0
1070
   173
1070
     1
1070
    41
1040
3.0
1070
   140
1040
3.200000047683716
1070
   344
1005
13B
1070
   343
1005
13B
1002
}
  0
DIMENSION
  5
217
330
1F
100
AcDbEntity
  8
VIEW0002
 62
     7
100
AcDbDimension
  2
*D18
 10
6.878395386517855
 20
-67.11952892159653
 30
0.0
 11
10.17536463928223
 21
-66.36331121826171
 31
0.0
 70
   165
  1
31°
 71
     5
 42
0.541052065061603
  3
ISO-25
100
AcDb3PointAngularDimension
 13
0.151924133328504
 23
-68.72817230224605
 33
0.0
 14
13.28539860660349
 24
-52.08593442198345
 34
0.0
 15
0.151924133317693
 25
-30.22816217279651
 35
0.0
1001
ACAD
1000
DSTYLE
1002
{
1070
   178
1070
     1
1070
   278
1070
    46
1070
   275
1070
     1
1070
   147
1040
0.800000011920929
1070
    77
1070
     1
1070
    74
1070
     0
1070
    73
1070
     0
1070
    42
1040
2.54
1070
    44
1040
1.000001090144593
1070
    76
1070
     0
1070
    75
1070
     1
1070
   279
1070
     0
1070
   179
1070
     0
1070
   173
1070
     1
1070
    41
1040
3.0
1070
   140
1040
3.200000047683716
1070
   344
1005
13B
1070
   343
1005
13B
1002
}
  0
DIMENSION
  5
225
330
1F
100
AcDbEntity
  8
VIEW0002
 62
     7
100
AcDbDimension
  2
*D19
 10
0.151924923062319
 20
-67.72716467285156
 30
0.0
 11
-4.097075471818447
 21
-67.72716467285156
 31
0.0
 70
   160
  1
17
 71
     5
 42
8.500000789761541
  3
ISO-25
100
AcDbAlignedDimension
 13
-8.348075866699219
 23
-42.32815972327075
 33
0.0
 14
0.151924923062325
 24
-30.22816467285156
 34
0.0
 50
180.0
100
AcDbRotatedDimension
1001
ACAD
1000
DSTYLE
1002
{
1070
   178
1070
     1
1070
   278
1070
    46
1070
   147
1040
0.800000011920929
1070
    77
1070
     1
1070
    74
1070
     0
1070
    73
1070
     0
1070
    42
1040
2.54
1070
    44
1040
2.286000000000001
1070
    76
1070
     0
1070
    75
1070
     0
1070
   279
1070
     0
1070
   271
1070
     0
1070
   173
1070
     1
1070
    41
1040
3.0
1070
   140
1040
3.200000047683716
1070
   344
1005
192
1070
   343
1005
13B
1002
}
  0
ENDSEC
  0
SECTION
  2
OBJECTS
  0
DICTIONARY
  5
C
330
0
100
AcDbDictionary
281
     1
  3
ACAD_GROUP
350
D
  3
ACAD_LAYOUT
350
1A
  3
ACAD_MATERIAL
350
3B
  3
ACAD_MLEADERSTYLE
350
25E
  3
ACAD_MLINESTYLE
350
17
  3
ACAD_PLOTSETTINGS
350
19
  3
ACAD_PLOTSTYLENAME
350
E
  3
ACAD_TABLESTYLE
350
25D
  3
ACAD_VISUALSTYLE
350
2A
  0
DICTIONARY
  5
D
102
{ACAD_REACTORS
330
C
102
}
330
C
100
AcDbDictionary
281
     1
  0
DICTIONARY
  5
1A
102
{ACAD_REACTORS
330
C
102
}
330
C
100
AcDbDictionary
281
     1
  3
Layout1
350
1E
  3
Layout2
350
26
  3
Model
350
22
  0
DICTIONARY
  5
3B
102
{ACAD_REACTORS
330
C
102
}
330
C
100
AcDbDictionary
281
     1
  3
ByBlock
350
3D
  3
ByLayer
350
3C
  3
Global
350
3E
  0
DICTIONARY
  5
25E
102
{ACAD_REACTORS
330
C
102
}
330
C
100
AcDbDictionary
281
     1
  0
DICTIONARY
  5
17
102
{ACAD_REACTORS
330
C
102
}
330
C
100
AcDbDictionary
281
     1
  3
Standard
350
18
  0
DICTIONARY
  5
19
102
{ACAD_REACTORS
330
C
102
}
330
C
100
AcDbDictionary
281
     1
  0
ACDBDICTIONARYWDFLT
  5
E
102
{ACAD_REACTORS
330
C
102
}
330
C
100
AcDbDictionary
281
     1
  3
Normal
350
F
100
AcDbDictionaryWithDefault
340
F
  0
DICTIONARY
  5
25D
102
{ACAD_REACTORS
330
C
102
}
330
C
100
AcDbDictionary
281
     1
  0
DICTIONARY
  5
2A
102
{ACAD_REACTORS
330
C
102
}
330
C
100
AcDbDictionary
281
     1
  3
2dWireframe
350
2F
  3
3D Hidden
350
31
  3
3dWireframe
350
30
  3
Basic
350
32
  3
Brighten
350
36
  3
ColorChange
350
3A
  3
Conceptual
350
34
  3
Dim
350
35
  3
Facepattern
350
39
  3
Flat
350
2B
  3
FlatWithEdges
350
2C
  3
Gouraud
350
2D
  3
GouraudWithEdges
350
2E
  3
Linepattern
350
38
  3
Realistic
350
33
  3
Thicken
350
37
  0
LAYOUT
  5
1E
102
{ACAD_REACTORS
330
1A
102
}
330
1A
100
AcDbPlotSettings
  1

  2
none_device
  4

  6

 40
0.0
 41
0.0
 42
0.0
 43
0.0
 44
0.0
 45
0.0
 46
0.0
 47
0.0
 48
0.0
 49
0.0
140
0.0
141
0.0
142
1.0
143
1.0
 70
   688
 72
     0
 73
     0
 74
     5
  7

 75
    16
 76
     0
 77
     2
 78
   300
147
1.0
148
0.0
149
0.0
100
AcDbLayout
  1
Layout1
 70
     1
 71
     1
 10
-105.0
 20
-148.5
 11
105.0
 21
148.5
 12
0.0
 22
0.0
 32
0.0
 14
1.000000000000000E+20
 24
1.000000000000000E+20
 34
1.000000000000000E+20
 15
-1.000000000000000E+20
 25
-1.000000000000000E+20
 35
-1.000000000000000E+20
146
0.0
 13
0.0
 23
0.0
 33
0.0
 16
1.0
 26
0.0
 36
0.0
 17
0.0
 27
1.0
 37
0.0
 76
     0
330
1B
  0
LAYOUT
  5
26
102
{ACAD_REACTORS
330
1A
102
}
330
1A
100
AcDbPlotSettings
  1

  2
none_device
  4

  6

 40
0.0
 41
0.0
 42
0.0
 43
0.0
 44
0.0
 45
0.0
 46
0.0
 47
0.0
 48
0.0
 49
0.0
140
0.0
141
0.0
142
1.0
143
1.0
 70
   688
 72
     0
 73
     0
 74
     5
  7

 75
    16
 76
     0
 77
     2
 78
   300
147
1.0
148
0.0
149
0.0
100
AcDbLayout
  1
Layout2
 70
     1
 71
     2
 10
0.0
 20
0.0
 11
0.0
 21
0.0
 12
0.0
 22
0.0
 32
0.0
 14
0.0
 24
0.0
 34
0.0
 15
0.0
 25
0.0
 35
0.0
146
0.0
 13
0.0
 23
0.0
 33
0.0
 16
1.0
 26
0.0
 36
0.0
 17
0.0
 27
1.0
 37
0.0
 76
     0
330
23
  0
LAYOUT
  5
22
102
{ACAD_REACTORS
330
1A
102
}
330
1A
100
AcDbPlotSettings
  1

  2
none_device
  4

  6

 40
0.0
 41
0.0
 42
0.0
 43
0.0
 44
0.0
 45
0.0
 46
0.0
 47
0.0
 48
0.0
 49
0.0
140
0.0
141
0.0
142
1.0
143
1.0
 70
  1712
 72
     0
 73
     0
 74
     0
  7

 75
     0
 76
     0
 77
     2
 78
   300
147
1.0
148
0.0
149
0.0
100
AcDbLayout
  1
Model
 70
     1
 71
     0
 10
-105.0
 20
-148.5
 11
105.0
 21
148.5
 12
0.0
 22
0.0
 32
0.0
 14
-105.0
 24
-148.5
 34
0.0
 15
105.0
 25
148.5
 35
0.0
146
0.0
 13
0.0
 23
0.0
 33
0.0
 16
1.0
 26
0.0
 36
0.0
 17
0.0
 27
1.0
 37
0.0
 76
     0
330
1F
331
29
  0
MATERIAL
  5
3D
102
{ACAD_REACTORS
330
3B
102
}
102
{ACAD_XDICTIONARY
360
259
102
}
330
3B
100
AcDbMaterial
  1
ByBlock
  0
MATERIAL
  5
3C
102
{ACAD_REACTORS
330
3B
102
}
102
{ACAD_XDICTIONARY
360
257
102
}
330
3B
100
AcDbMaterial
  1
ByLayer
  0
MATERIAL
  5
3E
102
{ACAD_REACTORS
330
3B
102
}
102
{ACAD_XDICTIONARY
360
25B
102
}
330
3B
100
AcDbMaterial
  1
Global
  0
MLINESTYLE
  5
18
102
{ACAD_REACTORS
330
17
102
}
330
17
100
AcDbMlineStyle
  2
Standard
 70
     0
  3

 62
   256
 51
90.0
 52
90.0
 71
     2
 49
0.5
 62
   256
  6
BYLAYER
 49
-0.5
 62
   256
  6
BYLAYER
  0
ACDBPLACEHOLDER
  5
F
102
{ACAD_REACTORS
330
E
102
}
330
E
  0
VISUALSTYLE
  5
2F
102
{ACAD_REACTORS
330
2A
102
}
102
{ACAD_XDICTIONARY
360
23F
102
}
330
2A
100
AcDbVisualStyle
  2
2dWireframe
 70
     4
 71
     0
 72
     2
 73
     0
 90
        0
 40
-0.6
 41
-30.0
 62
     5
 63
     7
421
 16777215
 74
     1
 91
        4
 64
     7
 65
   257
 75
     1
175
     1
 42
1.0
 92
        0
 66
   257
 43
1.0
 76
     1
 77
     6
 78
     2
 67
     7
 79
     5
170
     0
171
     0
290
     0
174
     0
 93
        1
 44
0.0
173
     0
291
     0
 45
0.0
1001
ACAD
1000
AcDbSavedByObjectVersion
1070
     0
  0
VISUALSTYLE
  5
31
102
{ACAD_REACTORS
330
2A
102
}
102
{ACAD_XDICTIONARY
360
243
102
}
330
2A
100
AcDbVisualStyle
  2
3D Hidden
 70
     6
 71
     1
 72
     2
 73
     2
 90
        0
 40
-0.6
 41
-30.0
 62
     5
 63
     7
421
 16777215
 74
     2
 91
        2
 64
     7
 65
   257
 75
     2
175
     1
 42
40.0
 92
        0
 66
   257
 43
1.0
 76
     1
 77
     6
 78
     2
 67
     7
 79
     3
170
     0
171
     0
290
     0
174
     0
 93
        1
 44
0.0
173
     0
291
     0
 45
0.0
1001
ACAD
1000
AcDbSavedByObjectVersion
1070
     0
  0
VISUALSTYLE
  5
30
102
{ACAD_REACTORS
330
2A
102
}
102
{ACAD_XDICTIONARY
360
241
102
}
330
2A
100
AcDbVisualStyle
  2
3dWireframe
 70
     5
 71
     0
 72
     2
 73
     0
 90
        0
 40
-0.6
 41
-30.0
 62
     5
 63
     7
421
 16777215
 74
     1
 91
        4
 64
     7
 65
   257
 75
     1
175
     1
 42
1.0
 92
        0
 66
   257
 43
1.0
 76
     1
 77
     6
 78
     2
 67
     7
 79
     5
170
     0
171
     0
290
     0
174
     0
 93
        1
 44
0.0
173
     0
291
     0
 45
0.0
1001
ACAD
1000
AcDbSavedByObjectVersion
1070
     0
  0
VISUALSTYLE
  5
32
102
{ACAD_REACTORS
330
2A
102
}
102
{ACAD_XDICTIONARY
360
245
102
}
330
2A
100
AcDbVisualStyle
  2
Basic
 70
     7
 71
     1
 72
     0
 73
     1
 90
        0
 40
-0.6
 41
-30.0
 62
     5
 63
     7
421
 16777215
 74
     0
 91
        4
 64
     7
 65
   257
 75
     1
175
     1
 42
1.0
 92
        8
 66
     7
 43
1.0
 76
     1
 77
     6
 78
     2
 67
     7
 79
     5
170
     0
171
     0
290
     0
174
     0
 93
        1
 44
0.0
173
     0
291
     1
 45
0.0
1001
ACAD
1000
AcDbSavedByObjectVersion
1070
     0
  0
VISUALSTYLE
  5
36
102
{ACAD_REACTORS
330
2A
102
}
102
{ACAD_XDICTIONARY
360
24D
102
}
330
2A
100
AcDbVisualStyle
  2
Brighten
 70
    12
 71
     2
 72
     2
 73
     0
 90
        0
 40
-0.6
 41
-30.0
 62
     5
 63
     7
421
 16777215
 74
     1
 91
        4
 64
     7
 65
   257
 75
     1
175
     1
 42
1.0
 92
        8
 66
     7
 43
1.0
 76
     1
 77
     6
 78
     2
 67
     7
 79
     5
170
     0
171
     0
290
     0
174
     0
 93
        1
 44
50.0
173
     0
291
     1
 45
0.0
1001
ACAD
1000
AcDbSavedByObjectVersion
1070
     0
  0
VISUALSTYLE
  5
3A
102
{ACAD_REACTORS
330
2A
102
}
102
{ACAD_XDICTIONARY
360
255
102
}
330
2A
100
AcDbVisualStyle
  2
ColorChange
 70
    16
 71
     2
 72
     2
 73
     3
 90
        0
 40
-0.6
 41
-30.0
 62
     5
 63
     8
421
  8421504
 74
     1
 91
        4
 64
     7
 65
   257
 75
     1
175
     1
 42
1.0
 92
        8
 66
     8
424
  8421504
 43
1.0
 76
     1
 77
     6
 78
     2
 67
     7
 79
     5
170
     0
171
     0
290
     0
174
     0
 93
        1
 44
0.0
173
     0
291
     1
 45
0.0
1001
ACAD
1000
AcDbSavedByObjectVersion
1070
     0
  0
VISUALSTYLE
  5
34
102
{ACAD_REACTORS
330
2A
102
}
102
{ACAD_XDICTIONARY
360
249
102
}
330
2A
100
AcDbVisualStyle
  2
Conceptual
 70
     9
 71
     3
 72
     2
 73
     0
 90
        0
 40
-0.6
 41
-30.0
 62
     5
 63
     7
421
 16777215
 74
     2
 91
        2
 64
     7
 65
   257
 75
     1
175
     1
 42
40.0
 92
        8
 66
     7
 43
1.0
 76
     1
 77
     6
 78
     2
 67
     7
 79
     3
170
     0
171
     0
290
     0
174
     0
 93
        1
 44
0.0
173
     0
291
     0
 45
0.0
1001
ACAD
1000
AcDbSavedByObjectVersion
1070
     0
  0
VISUALSTYLE
  5
35
102
{ACAD_REACTORS
330
2A
102
}
102
{ACAD_XDICTIONARY
360
24B
102
}
330
2A
100
AcDbVisualStyle
  2
Dim
 70
    11
 71
     2
 72
     2
 73
     0
 90
        0
 40
-0.6
 41
-30.0
 62
     5
 63
     7
421
 16777215
 74
     1
 91
        4
 64
     7
 65
   257
 75
     1
175
     1
 42
1.0
 92
        8
 66
     7
 43
1.0
 76
     1
 77
     6
 78
     2
 67
     7
 79
     5
170
     0
171
     0
290
     0
174
     0
 93
        1
 44
-50.0
173
     0
291
     1
 45
0.0
1001
ACAD
1000
AcDbSavedByObjectVersion
1070
     0
  0
VISUALSTYLE
  5
39
102
{ACAD_REACTORS
330
2A
102
}
102
{ACAD_XDICTIONARY
360
253
102
}
330
2A
100
AcDbVisualStyle
  2
Facepattern
 70
    15
 71
     2
 72
     2
 73
     0
 90
        0
 40
-0.6
 41
-30.0
 62
     5
 63
     7
421
 16777215
 74
     1
 91
        4
 64
     7
 65
   257
 75
     1
175
     1
 42
1.0
 92
        8
 66
     7
 43
1.0
 76
     1
 77
     6
 78
     2
 67
     7
 79
     5
170
     0
171
     0
290
     0
174
     0
 93
        1
 44
0.0
173
     0
291
     1
 45
0.0
1001
ACAD
1000
AcDbSavedByObjectVersion
1070
     0
  0
VISUALSTYLE
  5
2B
102
{ACAD_REACTORS
330
2A
102
}
102
{ACAD_XDICTIONARY
360
237
102
}
330
2A
100
AcDbVisualStyle
  2
Flat
 70
     0
 71
     2
 72
     1
 73
     1
 90
        2
 40
-0.6
 41
30.0
 62
     5
 63
     7
421
 16777215
 74
     0
 91
        4
 64
     7
 65
   257
 75
     1
175
     1
 42
1.0
 92
        8
 66
     7
 43
1.0
 76
     1
 77
     6
 78
     2
 67
     7
 79
     5
170
     0
171
     0
290
     0
174
     0
 93
       13
 44
0.0
173
     0
291
     1
 45
0.0
1001
ACAD
1000
AcDbSavedByObjectVersion
1070
     0
  0
VISUALSTYLE
  5
2C
102
{ACAD_REACTORS
330
2A
102
}
102
{ACAD_XDICTIONARY
360
239
102
}
330
2A
100
AcDbVisualStyle
  2
FlatWithEdges
 70
     1
 71
     2
 72
     1
 73
     1
 90
        2
 40
-0.6
 41
30.0
 62
     5
 63
     7
421
 16777215
 74
     1
 91
        4
 64
     7
 65
   257
 75
     1
175
     1
 42
1.0
 92
        0
 66
   257
 43
1.0
 76
     1
 77
     6
 78
     2
 67
     7
 79
     5
170
     0
171
     0
290
     0
174
     0
 93
       13
 44
0.0
173
     0
291
     1
 45
0.0
1001
ACAD
1000
AcDbSavedByObjectVersion
1070
     0
  0
VISUALSTYLE
  5
2D
102
{ACAD_REACTORS
330
2A
102
}
102
{ACAD_XDICTIONARY
360
23B
102
}
330
2A
100
AcDbVisualStyle
  2
Gouraud
 70
     2
 71
     2
 72
     2
 73
     1
 90
        2
 40
-0.6
 41
30.0
 62
     5
 63
     7
421
 16777215
 74
     0
 91
        4
 64
     7
 65
   257
 75
     1
175
     1
 42
1.0
 92
        0
 66
     7
 43
1.0
 76
     1
 77
     6
 78
     2
 67
     7
 79
     5
170
     0
171
     0
290
     0
174
     0
 93
       13
 44
0.0
173
     0
291
     1
 45
0.0
1001
ACAD
1000
AcDbSavedByObjectVersion
1070
     0
  0
VISUALSTYLE
  5
2E
102
{ACAD_REACTORS
330
2A
102
}
102
{ACAD_XDICTIONARY
360
23D
102
}
330
2A
100
AcDbVisualStyle
  2
GouraudWithEdges
 70
     3
 71
     2
 72
     2
 73
     1
 90
        2
 40
-0.6
 41
30.0
 62
     5
 63
     7
421
 16777215
 74
     1
 91
        4
 64
     7
 65
   257
 75
     1
175
     1
 42
1.0
 92
        0
 66
   257
 43
1.0
 76
     1
 77
     6
 78
     2
 67
     7
 79
     5
170
     0
171
     0
290
     0
174
     0
 93
       13
 44
0.0
173
     0
291
     1
 45
0.0
1001
ACAD
1000
AcDbSavedByObjectVersion
1070
     0
  0
VISUALSTYLE
  5
38
102
{ACAD_REACTORS
330
2A
102
}
102
{ACAD_XDICTIONARY
360
251
102
}
330
2A
100
AcDbVisualStyle
  2
Linepattern
 70
    14
 71
     2
 72
     2
 73
     0
 90
        0
 40
-0.6
 41
-30.0
 62
     5
 63
     7
421
 16777215
 74
     1
 91
        4
 64
     7
 65
   257
 75
     7
175
     7
 42
1.0
 92
        8
 66
     7
 43
1.0
 76
     1
 77
     6
 78
     2
 67
     7
 79
     5
170
     0
171
     0
290
     0
174
     0
 93
        1
 44
0.0
173
     0
291
     1
 45
0.0
1001
ACAD
1000
AcDbSavedByObjectVersion
1070
     0
  0
VISUALSTYLE
  5
33
102
{ACAD_REACTORS
330
2A
102
}
102
{ACAD_XDICTIONARY
360
247
102
}
330
2A
100
AcDbVisualStyle
  2
Realistic
 70
     8
 71
     2
 72
     2
 73
     0
 90
        0
 40
-0.6
 41
-30.0
 62
     5
 63
     7
421
 16777215
 74
     1
 91
        0
 64
     7
 65
   257
 75
     1
175
     1
 42
1.0
 92
        8
 66
     8
424
  7895160
 43
1.0
 76
     1
 77
     6
 78
     2
 67
     7
 79
     5
170
     0
171
     0
290
     0
174
     0
 93
       13
 44
0.0
173
     0
291
     0
 45
0.0
1001
ACAD
1000
AcDbSavedByObjectVersion
1070
     0
  0
VISUALSTYLE
  5
37
102
{ACAD_REACTORS
330
2A
102
}
102
{ACAD_XDICTIONARY
360
24F
102
}
330
2A
100
AcDbVisualStyle
  2
Thicken
 70
    13
 71
     2
 72
     2
 73
     0
 90
        0
 40
-0.6
 41
-30.0
 62
     5
 63
     7
421
 16777215
 74
     1
 91
        4
 64
     7
 65
   257
 75
     1
175
     1
 42
1.0
 92
       12
 66
     7
 43
1.0
 76
     1
 77
     6
 78
     2
 67
     7
 79
     5
170
     0
171
     0
290
     0
174
     0
 93
        1
 44
0.0
173
     0
291
     1
 45
0.0
1001
ACAD
1000
AcDbSavedByObjectVersion
1070
     0
  0
DICTIONARY
  5
259
330
3D
100
AcDbDictionary
280
     1
281
     1
  3
ACAD_XREC_ROUNDTRIP
360
25A
  0
DICTIONARY
  5
257
330
3C
100
AcDbDictionary
280
     1
281
     1
  3
ACAD_XREC_ROUNDTRIP
360
258
  0
DICTIONARY
  5
25B
330
3E
100
AcDbDictionary
280
     1
281
     1
  3
ACAD_XREC_ROUNDTRIP
360
25C
  0
DICTIONARY
  5
23F
330
2F
100
AcDbDictionary
280
     1
281
     1
  3
ACAD_XREC_ROUNDTRIP
360
240
  0
DICTIONARY
  5
243
330
31
100
AcDbDictionary
280
     1
281
     1
  3
ACAD_XREC_ROUNDTRIP
360
244
  0
DICTIONARY
  5
241
330
30
100
AcDbDictionary
280
     1
281
     1
  3
ACAD_XREC_ROUNDTRIP
360
242
  0
DICTIONARY
  5
245
330
32
100
AcDbDictionary
280
     1
281
     1
  3
ACAD_XREC_ROUNDTRIP
360
246
  0
DICTIONARY
  5
24D
330
36
100
AcDbDictionary
280
     1
281
     1
  3
ACAD_XREC_ROUNDTRIP
360
24E
  0
DICTIONARY
  5
255
330
3A
100
AcDbDictionary
280
     1
281
     1
  3
ACAD_XREC_ROUNDTRIP
360
256
  0
DICTIONARY
  5
249
330
34
100
AcDbDictionary
280
     1
281
     1
  3
ACAD_XREC_ROUNDTRIP
360
24A
  0
DICTIONARY
  5
24B
330
35
100
AcDbDictionary
280
     1
281
     1
  3
ACAD_XREC_ROUNDTRIP
360
24C
  0
DICTIONARY
  5
253
330
39
100
AcDbDictionary
280
     1
281
     1
  3
ACAD_XREC_ROUNDTRIP
360
254
  0
DICTIONARY
  5
237
330
2B
100
AcDbDictionary
280
     1
281
     1
  3
ACAD_XREC_ROUNDTRIP
360
238
  0
DICTIONARY
  5
239
330
2C
100
AcDbDictionary
280
     1
281
     1
  3
ACAD_XREC_ROUNDTRIP
360
23A
  0
DICTIONARY
  5
23B
330
2D
100
AcDbDictionary
280
     1
281
     1
  3
ACAD_XREC_ROUNDTRIP
360
23C
  0
DICTIONARY
  5
23D
330
2E
100
AcDbDictionary
280
     1
281
     1
  3
ACAD_XREC_ROUNDTRIP
360
23E
  0
DICTIONARY
  5
251
330
38
100
AcDbDictionary
280
     1
281
     1
  3
ACAD_XREC_ROUNDTRIP
360
252
  0
DICTIONARY
  5
247
330
33
100
AcDbDictionary
280
     1
281
     1
  3
ACAD_XREC_ROUNDTRIP
360
248
  0
DICTIONARY
  5
24F
330
37
100
AcDbDictionary
280
     1
281
     1
  3
ACAD_XREC_ROUNDTRIP
360
250
  0
XRECORD
  5
25A
102
{ACAD_REACTORS
330
259
102
}
330
259
100
AcDbXrecord
280
     1
102
MATERIAL
148
0.0
149
0.0
149
0.0
 93
        0
 94
      127
282
     0
 72
     1
 77
     1
171
     1
175
     1
179
     1
273
     0
  0
XRECORD
  5
258
102
{ACAD_REACTORS
330
257
102
}
330
257
100
AcDbXrecord
280
     1
102
MATERIAL
148
0.0
149
0.0
149
0.0
 93
        0
 94
      127
282
     0
 72
     1
 77
     1
171
     1
175
     1
179
     1
273
     0
  0
XRECORD
  5
25C
102
{ACAD_REACTORS
330
25B
102
}
330
25B
100
AcDbXrecord
280
     1
102
MATERIAL
148
0.0
149
0.0
149
0.0
 93
        0
 94
      127
282
     0
 72
     1
 77
     1
171
     1
175
     1
179
     1
273
     0
  0
XRECORD
  5
240
102
{ACAD_REACTORS
330
23F
102
}
330
23F
100
AcDbXrecord
280
     1
102
RTVSPropertyOp0
 70
     1
102
RTVSPropertyOp1
 70
     1
102
RTVSPropertyOp2
 70
     1
102
RTVSPropertyOp3
 70
     1
102
RTVSPropertyOp4
 70
     1
102
RTVSPropertyOp5
 70
     1
102
RTVSPropertyOp6
 70
     1
102
RTVSPropertyOp7
 70
     1
102
RTVSPropertyOp8
 70
     1
102
RTVSPropertyOp9
 70
     1
102
RTVSPropertyOp10
 70
     1
102
RTVSPropertyOp11
 70
     1
102
RTVSPropertyOp12
 70
     1
102
RTVSPropertyOp13
 70
     1
102
RTVSPropertyOp14
 70
     1
102
RTVSPropertyOp15
 70
     1
102
RTVSPropertyOp16
 70
     1
102
RTVSPropertyOp17
 70
     1
102
RTVSPropertyOp18
 70
     1
102
RTVSPropertyOp19
 70
     1
102
RTVSPropertyOp20
 70
     1
102
RTVSPropertyOp21
 70
     1
102
RTVSPropertyOp22
 70
     1
102
RTVSPropertyOp23
 70
     1
102
RTVSPropertyOp24
 70
     1
102
RTVSPropertyOp25
 70
     1
102
RTVSPropertyOp26
 70
     1
102
RTVSPropertyOp27
 70
     1
102
RTVSPropertyOp28
 70
     1
102
RTVSPropertyOp29
 70
     1
102
RTVSPropertyOp30
 70
     1
102
RTVSPropertyOp31
 70
     1
102
RTVSPropertyOp32
 70
     1
  0
XRECORD
  5
244
102
{ACAD_REACTORS
330
243
102
}
330
243
100
AcDbXrecord
280
     1
102
RTVSPropertyOp0
 70
     1
102
RTVSPropertyOp1
 70
     1
102
RTVSPropertyOp2
 70
     1
102
RTVSPropertyOp3
 70
     1
102
RTVSPropertyOp4
 70
     1
102
RTVSPropertyOp5
 70
     1
102
RTVSPropertyOp6
 70
     1
102
RTVSPropertyOp7
 70
     1
102
RTVSPropertyOp8
 70
     1
102
RTVSPropertyOp9
 70
     1
102
RTVSPropertyOp10
 70
     1
102
RTVSPropertyOp11
 70
     1
102
RTVSPropertyOp12
 70
     1
102
RTVSPropertyOp13
 70
     1
102
RTVSPropertyOp14
 70
     1
102
RTVSPropertyOp15
 70
     1
102
RTVSPropertyOp16
 70
     1
102
RTVSPropertyOp17
 70
     1
102
RTVSPropertyOp18
 70
     1
102
RTVSPropertyOp19
 70
     1
102
RTVSPropertyOp20
 70
     1
102
RTVSPropertyOp21
 70
     1
102
RTVSPropertyOp22
 70
     1
102
RTVSPropertyOp23
 70
     1
102
RTVSPropertyOp24
 70
     1
102
RTVSPropertyOp25
 70
     1
102
RTVSPropertyOp26
 70
     1
102
RTVSPropertyOp27
 70
     1
102
RTVSPropertyOp28
 70
     1
102
RTVSPropertyOp29
 70
     1
102
RTVSPropertyOp30
 70
     1
102
RTVSPropertyOp31
 70
     1
102
RTVSPropertyOp32
 70
     1
  0
XRECORD
  5
242
102
{ACAD_REACTORS
330
241
102
}
330
241
100
AcDbXrecord
280
     1
102
RTVSPropertyOp0
 70
     1
102
RTVSPropertyOp1
 70
     1
102
RTVSPropertyOp2
 70
     1
102
RTVSPropertyOp3
 70
     1
102
RTVSPropertyOp4
 70
     1
102
RTVSPropertyOp5
 70
     1
102
RTVSPropertyOp6
 70
     1
102
RTVSPropertyOp7
 70
     1
102
RTVSPropertyOp8
 70
     1
102
RTVSPropertyOp9
 70
     1
102
RTVSPropertyOp10
 70
     1
102
RTVSPropertyOp11
 70
     1
102
RTVSPropertyOp12
 70
     1
102
RTVSPropertyOp13
 70
     1
102
RTVSPropertyOp14
 70
     1
102
RTVSPropertyOp15
 70
     1
102
RTVSPropertyOp16
 70
     1
102
RTVSPropertyOp17
 70
     1
102
RTVSPropertyOp18
 70
     1
102
RTVSPropertyOp19
 70
     1
102
RTVSPropertyOp20
 70
     1
102
RTVSPropertyOp21
 70
     1
102
RTVSPropertyOp22
 70
     1
102
RTVSPropertyOp23
 70
     1
102
RTVSPropertyOp24
 70
     1
102
RTVSPropertyOp25
 70
     1
102
RTVSPropertyOp26
 70
     1
102
RTVSPropertyOp27
 70
     1
102
RTVSPropertyOp28
 70
     1
102
RTVSPropertyOp29
 70
     1
102
RTVSPropertyOp30
 70
     1
102
RTVSPropertyOp31
 70
     1
102
RTVSPropertyOp32
 70
     1
  0
XRECORD
  5
246
102
{ACAD_REACTORS
330
245
102
}
330
245
100
AcDbXrecord
280
     1
102
RTVSPropertyOp0
 70
     1
102
RTVSPropertyOp1
 70
     1
102
RTVSPropertyOp2
 70
     1
102
RTVSPropertyOp3
 70
     1
102
RTVSPropertyOp4
 70
     1
102
RTVSPropertyOp5
 70
     1
102
RTVSPropertyOp6
 70
     1
102
RTVSPropertyOp7
 70
     1
102
RTVSPropertyOp8
 70
     1
102
RTVSPropertyOp9
 70
     1
102
RTVSPropertyOp10
 70
     1
102
RTVSPropertyOp11
 70
     1
102
RTVSPropertyOp12
 70
     1
102
RTVSPropertyOp13
 70
     1
102
RTVSPropertyOp14
 70
     1
102
RTVSPropertyOp15
 70
     1
102
RTVSPropertyOp16
 70
     1
102
RTVSPropertyOp17
 70
     1
102
RTVSPropertyOp18
 70
     1
102
RTVSPropertyOp19
 70
     1
102
RTVSPropertyOp20
 70
     1
102
RTVSPropertyOp21
 70
     1
102
RTVSPropertyOp22
 70
     1
102
RTVSPropertyOp23
 70
     1
102
RTVSPropertyOp24
 70
     1
102
RTVSPropertyOp25
 70
     1
102
RTVSPropertyOp26
 70
     1
102
RTVSPropertyOp27
 70
     1
102
RTVSPropertyOp28
 70
     1
102
RTVSPropertyOp29
 70
     1
102
RTVSPropertyOp30
 70
     1
102
RTVSPropertyOp31
 70
     1
102
RTVSPropertyOp32
 70
     1
  0
XRECORD
  5
24E
102
{ACAD_REACTORS
330
24D
102
}
330
24D
100
AcDbXrecord
280
     1
102
RTVSPropertyOp0
 70
     1
102
RTVSPropertyOp1
 70
     1
102
RTVSPropertyOp2
 70
     1
102
RTVSPropertyOp3
 70
     1
102
RTVSPropertyOp4
 70
     1
102
RTVSPropertyOp5
 70
     1
102
RTVSPropertyOp6
 70
     1
102
RTVSPropertyOp7
 70
     1
102
RTVSPropertyOp8
 70
     1
102
RTVSPropertyOp9
 70
     1
102
RTVSPropertyOp10
 70
     1
102
RTVSPropertyOp11
 70
     1
102
RTVSPropertyOp12
 70
     1
102
RTVSPropertyOp13
 70
     1
102
RTVSPropertyOp14
 70
     1
102
RTVSPropertyOp15
 70
     1
102
RTVSPropertyOp16
 70
     1
102
RTVSPropertyOp17
 70
     1
102
RTVSPropertyOp18
 70
     1
102
RTVSPropertyOp19
 70
     1
102
RTVSPropertyOp20
 70
     1
102
RTVSPropertyOp21
 70
     1
102
RTVSPropertyOp22
 70
     1
102
RTVSPropertyOp23
 70
     1
102
RTVSPropertyOp24
 70
     1
102
RTVSPropertyOp25
 70
     1
102
RTVSPropertyOp26
 70
     1
102
RTVSPropertyOp27
 70
     1
102
RTVSPropertyOp28
 70
     1
102
RTVSPropertyOp29
 70
     1
102
RTVSPropertyOp30
 70
     1
102
RTVSPropertyOp31
 70
     1
102
RTVSPropertyOp32
 70
     1
  0
XRECORD
  5
256
102
{ACAD_REACTORS
330
255
102
}
330
255
100
AcDbXrecord
280
     1
102
RTVSPropertyOp0
 70
     1
102
RTVSPropertyOp1
 70
     1
102
RTVSPropertyOp2
 70
     1
102
RTVSPropertyOp3
 70
     1
102
RTVSPropertyOp4
 70
     1
102
RTVSPropertyOp5
 70
     1
102
RTVSPropertyOp6
 70
     1
102
RTVSPropertyOp7
 70
     1
102
RTVSPropertyOp8
 70
     1
102
RTVSPropertyOp9
 70
     1
102
RTVSPropertyOp10
 70
     1
102
RTVSPropertyOp11
 70
     1
102
RTVSPropertyOp12
 70
     1
102
RTVSPropertyOp13
 70
     1
102
RTVSPropertyOp14
 70
     1
102
RTVSPropertyOp15
 70
     1
102
RTVSPropertyOp16
 70
     1
102
RTVSPropertyOp17
 70
     1
102
RTVSPropertyOp18
 70
     1
102
RTVSPropertyOp19
 70
     1
102
RTVSPropertyOp20
 70
     1
102
RTVSPropertyOp21
 70
     1
102
RTVSPropertyOp22
 70
     1
102
RTVSPropertyOp23
 70
     1
102
RTVSPropertyOp24
 70
     1
102
RTVSPropertyOp25
 70
     1
102
RTVSPropertyOp26
 70
     1
102
RTVSPropertyOp27
 70
     1
102
RTVSPropertyOp28
 70
     1
102
RTVSPropertyOp29
 70
     1
102
RTVSPropertyOp30
 70
     1
102
RTVSPropertyOp31
 70
     1
102
RTVSPropertyOp32
 70
     1
  0
XRECORD
  5
24A
102
{ACAD_REACTORS
330
249
102
}
330
249
100
AcDbXrecord
280
     1
102
RTVSPropertyOp0
 70
     1
102
RTVSPropertyOp1
 70
     1
102
RTVSPropertyOp2
 70
     1
102
RTVSPropertyOp3
 70
     1
102
RTVSPropertyOp4
 70
     1
102
RTVSPropertyOp5
 70
     1
102
RTVSPropertyOp6
 70
     1
102
RTVSPropertyOp7
 70
     1
102
RTVSPropertyOp8
 70
     1
102
RTVSPropertyOp9
 70
     1
102
RTVSPropertyOp10
 70
     1
102
RTVSPropertyOp11
 70
     1
102
RTVSPropertyOp12
 70
     1
102
RTVSPropertyOp13
 70
     1
102
RTVSPropertyOp14
 70
     1
102
RTVSPropertyOp15
 70
     1
102
RTVSPropertyOp16
 70
     1
102
RTVSPropertyOp17
 70
     1
102
RTVSPropertyOp18
 70
     1
102
RTVSPropertyOp19
 70
     1
102
RTVSPropertyOp20
 70
     1
102
RTVSPropertyOp21
 70
     1
102
RTVSPropertyOp22
 70
     1
102
RTVSPropertyOp23
 70
     1
102
RTVSPropertyOp24
 70
     1
102
RTVSPropertyOp25
 70
     1
102
RTVSPropertyOp26
 70
     1
102
RTVSPropertyOp27
 70
     1
102
RTVSPropertyOp28
 70
     1
102
RTVSPropertyOp29
 70
     1
102
RTVSPropertyOp30
 70
     1
102
RTVSPropertyOp31
 70
     1
102
RTVSPropertyOp32
 70
     1
  0
XRECORD
  5
24C
102
{ACAD_REACTORS
330
24B
102
}
330
24B
100
AcDbXrecord
280
     1
102
RTVSPropertyOp0
 70
     1
102
RTVSPropertyOp1
 70
     1
102
RTVSPropertyOp2
 70
     1
102
RTVSPropertyOp3
 70
     1
102
RTVSPropertyOp4
 70
     1
102
RTVSPropertyOp5
 70
     1
102
RTVSPropertyOp6
 70
     1
102
RTVSPropertyOp7
 70
     1
102
RTVSPropertyOp8
 70
     1
102
RTVSPropertyOp9
 70
     1
102
RTVSPropertyOp10
 70
     1
102
RTVSPropertyOp11
 70
     1
102
RTVSPropertyOp12
 70
     1
102
RTVSPropertyOp13
 70
     1
102
RTVSPropertyOp14
 70
     1
102
RTVSPropertyOp15
 70
     1
102
RTVSPropertyOp16
 70
     1
102
RTVSPropertyOp17
 70
     1
102
RTVSPropertyOp18
 70
     1
102
RTVSPropertyOp19
 70
     1
102
RTVSPropertyOp20
 70
     1
102
RTVSPropertyOp21
 70
     1
102
RTVSPropertyOp22
 70
     1
102
RTVSPropertyOp23
 70
     1
102
RTVSPropertyOp24
 70
     1
102
RTVSPropertyOp25
 70
     1
102
RTVSPropertyOp26
 70
     1
102
RTVSPropertyOp27
 70
     1
102
RTVSPropertyOp28
 70
     1
102
RTVSPropertyOp29
 70
     1
102
RTVSPropertyOp30
 70
     1
102
RTVSPropertyOp31
 70
     1
102
RTVSPropertyOp32
 70
     1
  0
XRECORD
  5
254
102
{ACAD_REACTORS
330
253
102
}
330
253
100
AcDbXrecord
280
     1
102
RTVSPropertyOp0
 70
     1
102
RTVSPropertyOp1
 70
     1
102
RTVSPropertyOp2
 70
     1
102
RTVSPropertyOp3
 70
     1
102
RTVSPropertyOp4
 70
     1
102
RTVSPropertyOp5
 70
     1
102
RTVSPropertyOp6
 70
     1
102
RTVSPropertyOp7
 70
     1
102
RTVSPropertyOp8
 70
     1
102
RTVSPropertyOp9
 70
     1
102
RTVSPropertyOp10
 70
     1
102
RTVSPropertyOp11
 70
     1
102
RTVSPropertyOp12
 70
     1
102
RTVSPropertyOp13
 70
     1
102
RTVSPropertyOp14
 70
     1
102
RTVSPropertyOp15
 70
     1
102
RTVSPropertyOp16
 70
     1
102
RTVSPropertyOp17
 70
     1
102
RTVSPropertyOp18
 70
     1
102
RTVSPropertyOp19
 70
     1
102
RTVSPropertyOp20
 70
     1
102
RTVSPropertyOp21
 70
     1
102
RTVSPropertyOp22
 70
     1
102
RTVSPropertyOp23
 70
     1
102
RTVSPropertyOp24
 70
     1
102
RTVSPropertyOp25
 70
     1
102
RTVSPropertyOp26
 70
     1
102
RTVSPropertyOp27
 70
     1
102
RTVSPropertyOp28
 70
     1
102
RTVSPropertyOp29
 70
     1
102
RTVSPropertyOp30
 70
     1
102
RTVSPropertyOp31
 70
     1
102
RTVSPropertyOp32
 70
     1
  0
XRECORD
  5
238
102
{ACAD_REACTORS
330
237
102
}
330
237
100
AcDbXrecord
280
     1
102
RTVSPropertyOp0
 70
     1
102
RTVSPropertyOp1
 70
     1
102
RTVSPropertyOp2
 70
     1
102
RTVSPropertyOp3
 70
     1
102
RTVSPropertyOp4
 70
     1
102
RTVSPropertyOp5
 70
     1
102
RTVSPropertyOp6
 70
     1
102
RTVSPropertyOp7
 70
     1
102
RTVSPropertyOp8
 70
     1
102
RTVSPropertyOp9
 70
     1
102
RTVSPropertyOp10
 70
     1
102
RTVSPropertyOp11
 70
     1
102
RTVSPropertyOp12
 70
     1
102
RTVSPropertyOp13
 70
     1
102
RTVSPropertyOp14
 70
     1
102
RTVSPropertyOp15
 70
     1
102
RTVSPropertyOp16
 70
     1
102
RTVSPropertyOp17
 70
     1
102
RTVSPropertyOp18
 70
     1
102
RTVSPropertyOp19
 70
     1
102
RTVSPropertyOp20
 70
     1
102
RTVSPropertyOp21
 70
     1
102
RTVSPropertyOp22
 70
     1
102
RTVSPropertyOp23
 70
     1
102
RTVSPropertyOp24
 70
     1
102
RTVSPropertyOp25
 70
     1
102
RTVSPropertyOp26
 70
     1
102
RTVSPropertyOp27
 70
     1
102
RTVSPropertyOp28
 70
     1
102
RTVSPropertyOp29
 70
     1
102
RTVSPropertyOp30
 70
     1
102
RTVSPropertyOp31
 70
     1
102
RTVSPropertyOp32
 70
     1
  0
XRECORD
  5
23A
102
{ACAD_REACTORS
330
239
102
}
330
239
100
AcDbXrecord
280
     1
102
RTVSPropertyOp0
 70
     1
102
RTVSPropertyOp1
 70
     1
102
RTVSPropertyOp2
 70
     1
102
RTVSPropertyOp3
 70
     1
102
RTVSPropertyOp4
 70
     1
102
RTVSPropertyOp5
 70
     1
102
RTVSPropertyOp6
 70
     1
102
RTVSPropertyOp7
 70
     1
102
RTVSPropertyOp8
 70
     1
102
RTVSPropertyOp9
 70
     1
102
RTVSPropertyOp10
 70
     1
102
RTVSPropertyOp11
 70
     1
102
RTVSPropertyOp12
 70
     1
102
RTVSPropertyOp13
 70
     1
102
RTVSPropertyOp14
 70
     1
102
RTVSPropertyOp15
 70
     1
102
RTVSPropertyOp16
 70
     1
102
RTVSPropertyOp17
 70
     1
102
RTVSPropertyOp18
 70
     1
102
RTVSPropertyOp19
 70
     1
102
RTVSPropertyOp20
 70
     1
102
RTVSPropertyOp21
 70
     1
102
RTVSPropertyOp22
 70
     1
102
RTVSPropertyOp23
 70
     1
102
RTVSPropertyOp24
 70
     1
102
RTVSPropertyOp25
 70
     1
102
RTVSPropertyOp26
 70
     1
102
RTVSPropertyOp27
 70
     1
102
RTVSPropertyOp28
 70
     1
102
RTVSPropertyOp29
 70
     1
102
RTVSPropertyOp30
 70
     1
102
RTVSPropertyOp31
 70
     1
102
RTVSPropertyOp32
 70
     1
  0
XRECORD
  5
23C
102
{ACAD_REACTORS
330
23B
102
}
330
23B
100
AcDbXrecord
280
     1
102
RTVSPropertyOp0
 70
     1
102
RTVSPropertyOp1
 70
     1
102
RTVSPropertyOp2
 70
     1
102
RTVSPropertyOp3
 70
     1
102
RTVSPropertyOp4
 70
     1
102
RTVSPropertyOp5
 70
     1
102
RTVSPropertyOp6
 70
     1
102
RTVSPropertyOp7
 70
     1
102
RTVSPropertyOp8
 70
     1
102
RTVSPropertyOp9
 70
     1
102
RTVSPropertyOp10
 70
     1
102
RTVSPropertyOp11
 70
     1
102
RTVSPropertyOp12
 70
     1
102
RTVSPropertyOp13
 70
     1
102
RTVSPropertyOp14
 70
     1
102
RTVSPropertyOp15
 70
     1
102
RTVSPropertyOp16
 70
     1
102
RTVSPropertyOp17
 70
     1
102
RTVSPropertyOp18
 70
     1
102
RTVSPropertyOp19
 70
     1
102
RTVSPropertyOp20
 70
     1
102
RTVSPropertyOp21
 70
     1
102
RTVSPropertyOp22
 70
     1
102
RTVSPropertyOp23
 70
     1
102
RTVSPropertyOp24
 70
     1
102
RTVSPropertyOp25
 70
     1
102
RTVSPropertyOp26
 70
     1
102
RTVSPropertyOp27
 70
     1
102
RTVSPropertyOp28
 70
     1
102
RTVSPropertyOp29
 70
     1
102
RTVSPropertyOp30
 70
     1
102
RTVSPropertyOp31
 70
     1
102
RTVSPropertyOp32
 70
     1
  0
XRECORD
  5
23E
102
{ACAD_REACTORS
330
23D
102
}
330
23D
100
AcDbXrecord
280
     1
102
RTVSPropertyOp0
 70
     1
102
RTVSPropertyOp1
 70
     1
102
RTVSPropertyOp2
 70
     1
102
RTVSPropertyOp3
 70
     1
102
RTVSPropertyOp4
 70
     1
102
RTVSPropertyOp5
 70
     1
102
RTVSPropertyOp6
 70
     1
102
RTVSPropertyOp7
 70
     1
102
RTVSPropertyOp8
 70
     1
102
RTVSPropertyOp9
 70
     1
102
RTVSPropertyOp10
 70
     1
102
RTVSPropertyOp11
 70
     1
102
RTVSPropertyOp12
 70
     1
102
RTVSPropertyOp13
 70
     1
102
RTVSPropertyOp14
 70
     1
102
RTVSPropertyOp15
 70
     1
102
RTVSPropertyOp16
 70
     1
102
RTVSPropertyOp17
 70
     1
102
RTVSPropertyOp18
 70
     1
102
RTVSPropertyOp19
 70
     1
102
RTVSPropertyOp20
 70
     1
102
RTVSPropertyOp21
 70
     1
102
RTVSPropertyOp22
 70
     1
102
RTVSPropertyOp23
 70
     1
102
RTVSPropertyOp24
 70
     1
102
RTVSPropertyOp25
 70
     1
102
RTVSPropertyOp26
 70
     1
102
RTVSPropertyOp27
 70
     1
102
RTVSPropertyOp28
 70
     1
102
RTVSPropertyOp29
 70
     1
102
RTVSPropertyOp30
 70
     1
102
RTVSPropertyOp31
 70
     1
102
RTVSPropertyOp32
 70
     1
  0
XRECORD
  5
252
102
{ACAD_REACTORS
330
251
102
}
330
251
100
AcDbXrecord
280
     1
102
RTVSPropertyOp0
 70
     1
102
RTVSPropertyOp1
 70
     1
102
RTVSPropertyOp2
 70
     1
102
RTVSPropertyOp3
 70
     1
102
RTVSPropertyOp4
 70
     1
102
RTVSPropertyOp5
 70
     1
102
RTVSPropertyOp6
 70
     1
102
RTVSPropertyOp7
 70
     1
102
RTVSPropertyOp8
 70
     1
102
RTVSPropertyOp9
 70
     1
102
RTVSPropertyOp10
 70
     1
102
RTVSPropertyOp11
 70
     1
102
RTVSPropertyOp12
 70
     1
102
RTVSPropertyOp13
 70
     1
102
RTVSPropertyOp14
 70
     1
102
RTVSPropertyOp15
 70
     1
102
RTVSPropertyOp16
 70
     1
102
RTVSPropertyOp17
 70
     1
102
RTVSPropertyOp18
 70
     1
102
RTVSPropertyOp19
 70
     1
102
RTVSPropertyOp20
 70
     1
102
RTVSPropertyOp21
 70
     1
102
RTVSPropertyOp22
 70
     1
102
RTVSPropertyOp23
 70
     1
102
RTVSPropertyOp24
 70
     1
102
RTVSPropertyOp25
 70
     1
102
RTVSPropertyOp26
 70
     1
102
RTVSPropertyOp27
 70
     1
102
RTVSPropertyOp28
 70
     1
102
RTVSPropertyOp29
 70
     1
102
RTVSPropertyOp30
 70
     1
102
RTVSPropertyOp31
 70
     1
102
RTVSPropertyOp32
 70
     1
  0
XRECORD
  5
248
102
{ACAD_REACTORS
330
247
102
}
330
247
100
AcDbXrecord
280
     1
102
RTVSPropertyOp0
 70
     1
102
RTVSPropertyOp1
 70
     1
102
RTVSPropertyOp2
 70
     1
102
RTVSPropertyOp3
 70
     1
102
RTVSPropertyOp4
 70
     1
102
RTVSPropertyOp5
 70
     1
102
RTVSPropertyOp6
 70
     1
102
RTVSPropertyOp7
 70
     1
102
RTVSPropertyOp8
 70
     1
102
RTVSPropertyOp9
 70
     1
102
RTVSPropertyOp10
 70
     1
102
RTVSPropertyOp11
 70
     1
102
RTVSPropertyOp12
 70
     1
102
RTVSPropertyOp13
 70
     1
102
RTVSPropertyOp14
 70
     1
102
RTVSPropertyOp15
 70
     1
102
RTVSPropertyOp16
 70
     1
102
RTVSPropertyOp17
 70
     1
102
RTVSPropertyOp18
 70
     1
102
RTVSPropertyOp19
 70
     1
102
RTVSPropertyOp20
 70
     1
102
RTVSPropertyOp21
 70
     1
102
RTVSPropertyOp22
 70
     1
102
RTVSPropertyOp23
 70
     1
102
RTVSPropertyOp24
 70
     1
102
RTVSPropertyOp25
 70
     1
102
RTVSPropertyOp26
 70
     1
102
RTVSPropertyOp27
 70
     1
102
RTVSPropertyOp28
 70
     1
102
RTVSPropertyOp29
 70
     1
102
RTVSPropertyOp30
 70
     1
102
RTVSPropertyOp31
 70
     1
102
RTVSPropertyOp32
 70
     1
  0
XRECORD
  5
250
102
{ACAD_REACTORS
330
24F
102
}
330
24F
100
AcDbXrecord
280
     1
102
RTVSPropertyOp0
 70
     1
102
RTVSPropertyOp1
 70
     1
102
RTVSPropertyOp2
 70
     1
102
RTVSPropertyOp3
 70
     1
102
RTVSPropertyOp4
 70
     1
102
RTVSPropertyOp5
 70
     1
102
RTVSPropertyOp6
 70
     1
102
RTVSPropertyOp7
 70
     1
102
RTVSPropertyOp8
 70
     1
102
RTVSPropertyOp9
 70
     1
102
RTVSPropertyOp10
 70
     1
102
RTVSPropertyOp11
 70
     1
102
RTVSPropertyOp12
 70
     1
102
RTVSPropertyOp13
 70
     1
102
RTVSPropertyOp14
 70
     1
102
RTVSPropertyOp15
 70
     1
102
RTVSPropertyOp16
 70
     1
102
RTVSPropertyOp17
 70
     1
102
RTVSPropertyOp18
 70
     1
102
RTVSPropertyOp19
 70
     1
102
RTVSPropertyOp20
 70
     1
102
RTVSPropertyOp21
 70
     1
102
RTVSPropertyOp22
 70
     1
102
RTVSPropertyOp23
 70
     1
102
RTVSPropertyOp24
 70
     1
102
RTVSPropertyOp25
 70
     1
102
RTVSPropertyOp26
 70
     1
102
RTVSPropertyOp27
 70
     1
102
RTVSPropertyOp28
 70
     1
102
RTVSPropertyOp29
 70
     1
102
RTVSPropertyOp30
 70
     1
102
RTVSPropertyOp31
 70
     1
102
RTVSPropertyOp32
 70
     1
  0
ENDSEC
  0
EOF
