  0
SECTION
  2
HEADER
  9
$ACADVER
  1
AC1018
  9
$ACADMAINTVER
 70
     0
  9
$DWGCODEPAGE
  3
ANSI_932
  9
$INSBASE
 10
0.0
 20
0.0
 30
0.0
  9
$EXTMIN
 10
-105.0
 20
-148.5
 30
0.0
  9
$EXTMAX
 10
105.0
 20
148.5
 30
0.0
  9
$LIMMIN
 10
-105.0
 20
-148.5
  9
$LIMMAX
 10
105.0
 20
148.5
  9
$ORTHOMODE
 70
     0
  9
$REGENMODE
 70
     1
  9
$FILLMODE
 70
     1
  9
$QTEXTMODE
 70
     0
  9
$MIRRTEXT
 70
     1
  9
$LTSCALE
 40
1.0
  9
$ATTMODE
 70
     1
  9
$TEXTSIZE
 40
2.5
  9
$TRACEWID
 40
1.0
  9
$TEXTSTYLE
  7
Standard
  9
$CLAYER
  8
0
  9
$CELTYPE
  6
ByLayer
  9
$CECOLOR
 62
   256
  9
$CELTSCALE
 40
1.0
  9
$DISPSILH
 70
     0
  9
$DIMSCALE
 40
1.0
  9
$DIMASZ
 40
2.5
  9
$DIMEXO
 40
0.625
  9
$DIMDLI
 40
3.75
  9
$DIMRND
 40
0.0
  9
$DIMDLE
 40
0.0
  9
$DIMEXE
 40
1.25
  9
$DIMTP
 40
0.0
  9
$DIMTM
 40
0.0
  9
$DIMTXT
 40
2.5
  9
$DIMCEN
 40
2.5
  9
$DIMTSZ
 40
0.0
  9
$DIMTOL
 70
     0
  9
$DIMLIM
 70
     0
  9
$DIMTIH
 70
     0
  9
$DIMTOH
 70
     0
  9
$DIMSE1
 70
     0
  9
$DIMSE2
 70
     0
  9
$DIMTAD
 70
     1
  9
$DIMZIN
 70
     8
  9
$DIMBLK
  1

  9
$DIMASO
 70
     1
  9
$DIMSHO
 70
     1
  9
$DIMPOST
  1

  9
$DIMAPOST
  1

  9
$DIMALT
 70
     0
  9
$DIMALTD
 70
     3
  9
$DIMALTF
 40
0.03937007874016
  9
$DIMLFAC
 40
1.0
  9
$DIMTOFL
 70
     1
  9
$DIMTVP
 40
0.0
  9
$DIMTIX
 70
     0
  9
$DIMSOXD
 70
     0
  9
$DIMSAH
 70
     0
  9
$DIMBLK1
  1

  9
$DIMBLK2
  1

  9
$DIMSTYLE
  2
ISO-25
  9
$DIMCLRD
 70
     0
  9
$DIMCLRE
 70
     0
  9
$DIMCLRT
 70
     0
  9
$DIMTFAC
 40
1.0
  9
$DIMGAP
 40
0.625
  9
$DIMJUST
 70
     0
  9
$DIMSD1
 70
     0
  9
$DIMSD2
 70
     0
  9
$DIMTOLJ
 70
     0
  9
$DIMTZIN
 70
     8
  9
$DIMALTZ
 70
     0
  9
$DIMALTTZ
 70
     0
  9
$DIMUPT
 70
     0
  9
$DIMDEC
 70
     2
  9
$DIMTDEC
 70
     2
  9
$DIMALTU
 70
     2
  9
$DIMALTTD
 70
     3
  9
$DIMTXSTY
  7
Standard
  9
$DIMAUNIT
 70
     0
  9
$DIMADEC
 70
     0
  9
$DIMALTRND
 40
0.0
  9
$DIMAZIN
 70
     0
  9
$DIMDSEP
 70
    44
  9
$DIMATFIT
 70
     3
  9
$DIMFRAC
 70
     0
  9
$DIMLDRBLK
  1

  9
$DIMLUNIT
 70
     2
  9
$DIMLWD
 70
    -2
  9
$DIMLWE
 70
    -2
  9
$DIMTMOVE
 70
     0
  9
$LUNITS
 70
     2
  9
$LUPREC
 70
     4
  9
$SKETCHINC
 40
1.0
  9
$FILLETRAD
 40
10.0
  9
$AUNITS
 70
     0
  9
$AUPREC
 70
     0
  9
$MENU
  1
.
  9
$ELEVATION
 40
0.0
  9
$PELEVATION
 40
0.0
  9
$THICKNESS
 40
0.0
  9
$LIMCHECK
 70
     0
  9
$CHAMFERA
 40
10.0
  9
$CHAMFERB
 40
10.0
  9
$CHAMFERC
 40
20.0
  9
$CHAMFERD
 40
0.0
  9
$SKPOLY
 70
     0
  9
$TDCREATE
 40
2457290.491038148
  9
$TDUCREATE
 40
2457290.116038148
  9
$TDUPDATE
 40
2457290.49103853
  9
$TDUUPDATE
 40
2457290.11603853
  9
$TDINDWG
 40
0.0000000116
  9
$TDUSRTIMER
 40
0.0000000116
  9
$USRTIMER
 70
     1
  9
$ANGBASE
 50
0.0
  9
$ANGDIR
 70
     0
  9
$PDMODE
 70
     0
  9
$PDSIZE
 40
0.0
  9
$PLINEWID
 40
0.0
  9
$SPLFRAME
 70
     0
  9
$SPLINETYPE
 70
     6
  9
$SPLINESEGS
 70
     8
  9
$HANDSEED
  5
260
  9
$SURFTAB1
 70
     6
  9
$SURFTAB2
 70
     6
  9
$SURFTYPE
 70
     6
  9
$SURFU
 70
     6
  9
$SURFV
 70
     6
  9
$UCSBASE
  2

  9
$UCSNAME
  2

  9
$UCSORG
 10
0.0
 20
0.0
 30
0.0
  9
$UCSXDIR
 10
1.0
 20
0.0
 30
0.0
  9
$UCSYDIR
 10
0.0
 20
1.0
 30
0.0
  9
$UCSORTHOREF
  2

  9
$UCSORTHOVIEW
 70
     0
  9
$UCSORGTOP
 10
0.0
 20
0.0
 30
0.0
  9
$UCSORGBOTTOM
 10
0.0
 20
0.0
 30
0.0
  9
$UCSORGLEFT
 10
0.0
 20
0.0
 30
0.0
  9
$UCSORGRIGHT
 10
0.0
 20
0.0
 30
0.0
  9
$UCSORGFRONT
 10
0.0
 20
0.0
 30
0.0
  9
$UCSORGBACK
 10
0.0
 20
0.0
 30
0.0
  9
$PUCSBASE
  2

  9
$PUCSNAME
  2

  9
$PUCSORG
 10
0.0
 20
0.0
 30
0.0
  9
$PUCSXDIR
 10
1.0
 20
0.0
 30
0.0
  9
$PUCSYDIR
 10
0.0
 20
1.0
 30
0.0
  9
$PUCSORTHOREF
  2

  9
$PUCSORTHOVIEW
 70
     0
  9
$PUCSORGTOP
 10
0.0
 20
0.0
 30
0.0
  9
$PUCSORGBOTTOM
 10
0.0
 20
0.0
 30
0.0
  9
$PUCSORGLEFT
 10
0.0
 20
0.0
 30
0.0
  9
$PUCSORGRIGHT
 10
0.0
 20
0.0
 30
0.0
  9
$PUCSORGFRONT
 10
0.0
 20
0.0
 30
0.0
  9
$PUCSORGBACK
 10
0.0
 20
0.0
 30
0.0
  9
$USERI1
 70
     0
  9
$USERI2
 70
     0
  9
$USERI3
 70
     0
  9
$USERI4
 70
     0
  9
$USERI5
 70
     0
  9
$USERR1
 40
0.0
  9
$USERR2
 40
0.0
  9
$USERR3
 40
0.0
  9
$USERR4
 40
0.0
  9
$USERR5
 40
0.0
  9
$WORLDVIEW
 70
     1
  9
$SHADEDGE
 70
     3
  9
$SHADEDIF
 70
    70
  9
$TILEMODE
 70
     1
  9
$MAXACTVP
 70
    64
  9
$PINSBASE
 10
0.0
 20
0.0
 30
0.0
  9
$PLIMCHECK
 70
     0
  9
$PEXTMIN
 10
1.000000000000000E+20
 20
1.000000000000000E+20
 30
1.000000000000000E+20
  9
$PEXTMAX
 10
-1.000000000000000E+20
 20
-1.000000000000000E+20
 30
-1.000000000000000E+20
  9
$PLIMMIN
 10
-105.0
 20
-148.5
  9
$PLIMMAX
 10
105.0
 20
148.5
  9
$UNITMODE
 70
     0
  9
$VISRETAIN
 70
     1
  9
$PLINEGEN
 70
     0
  9
$PSLTSCALE
 70
     1
  9
$TREEDEPTH
 70
  3020
  9
$CMLSTYLE
  2
Standard
  9
$CMLJUST
 70
     0
  9
$CMLSCALE
 40
20.0
  9
$PROXYGRAPHICS
 70
     1
  9
$MEASUREMENT
 70
     1
  9
$CELWEIGHT
370
    -1
  9
$ENDCAPS
280
     0
  9
$JOINSTYLE
280
     0
  9
$LWDISPLAY
290
     0
  9
$INSUNITS
 70
     4
  9
$HYPERLINKBASE
  1

  9
$STYLESHEET
  1

  9
$XEDIT
290
     1
  9
$CEPSNTYPE
380
     0
  9
$PSTYLEMODE
290
     1
  9
$FINGERPRINTGUID
  2
{B5A4EE61-59B7-4649-B9E4-1905EFE7085B}
  9
$VERSIONGUID
  2
{FAEB1C32-E019-11D5-929B-00C0DF256EC4}
  9
$EXTNAMES
290
     1
  9
$PSVPSCALE
 40
0.0
  9
$OLESTARTUP
290
     0
  9
$SORTENTS
280
   127
  9
$INDEXCTL
280
     0
  9
$HIDETEXT
280
     1
  9
$XCLIPFRAME
290
     0
  9
$HALOGAP
280
     0
  9
$OBSCOLOR
 70
   257
  9
$OBSLTYPE
280
     0
  9
$INTERSECTIONDISPLAY
280
     0
  9
$INTERSECTIONCOLOR
 70
   257
  9
$DIMASSOC
280
     2
  9
$PROJECTNAME
  1

  0
ENDSEC
  0
SECTION
  2
CLASSES
  0
CLASS
  1
ACDBDICTIONARYWDFLT
  2
AcDbDictionaryWithDefault
  3
ObjectDBX Classes
 90
        0
 91
        4
280
     0
281
     0
  0
CLASS
  1
VISUALSTYLE
  2
AcDbVisualStyle
  3
ObjectDBX Classes
 90
     4095
 91
        4
280
     0
281
     0
  0
CLASS
  1
MATERIAL
  2
AcDbMaterial
  3
ObjectDBX Classes
 90
     1153
 91
        4
280
     0
281
     0
  0
CLASS
  1
SUN
  2
AcDbSun
  3
SCENEOE
 90
     1024
 91
        4
280
     0
281
     0
  0
ENDSEC
  0
SECTION
  2
TABLES
  0
TABLE
  2
VPORT
  5
8
330
0
100
AcDbSymbolTable
 70
     1
  0
VPORT
  5
29
330
8
100
AcDbSymbolTableRecord
100
AcDbViewportTableRecord
  2
*Active
 70
     0
 10
0.0
 20
0.0
 11
1.0
 21
1.0
 12
344.1869158878504
 22
148.5
 13
0.0
 23
0.0
 14
10.0
 24
10.0
 15
10.0
 25
10.0
 16
0.0
 26
0.0
 36
1.0
 17
0.0
 27
0.0
 37
0.0
 40
297.0
 41
1.972972972850329
 42
50.0
 43
0.0
 44
0.0
 50
0.0
 51
0.0
 71
     0
 72
   100
 73
     1
 74
     3
 75
     0
 76
     0
 77
     0
 78
     0
281
     0
 65
     1
110
0.0
120
0.0
130
0.0
111
1.0
121
0.0
131
0.0
112
0.0
122
1.0
132
0.0
 79
     0
146
0.0
  0
ENDTAB
  0
TABLE
  2
LTYPE
  5
5
330
0
100
AcDbSymbolTable
 70
     5
  0
LTYPE
  5
14
330
5
100
AcDbSymbolTableRecord
100
AcDbLinetypeTableRecord
  2
ByBlock
 70
     0
  3

 72
    65
 73
     0
 40
0.0
  0
LTYPE
  5
15
330
5
100
AcDbSymbolTableRecord
100
AcDbLinetypeTableRecord
  2
ByLayer
 70
     0
  3

 72
    65
 73
     0
 40
0.0
  0
LTYPE
  5
16
330
5
100
AcDbSymbolTableRecord
100
AcDbLinetypeTableRecord
  2
Continuous
 70
     0
  3
Solid line
 72
    65
 73
     0
 40
0.0
  0
LTYPE
  5
40
330
5
100
AcDbSymbolTableRecord
100
AcDbLinetypeTableRecord
  2
CONTINOUS
 70
     0
  3
______________________________
 72
    65
 73
     0
 40
0.0
  0
LTYPE
  5
41
330
5
100
AcDbSymbolTableRecord
100
AcDbLinetypeTableRecord
  2
DASHED
 70
     0
  3
__ __ __ __ __ __ __ __ __ __ __ __ __ __ __ __
 72
    65
 73
     2
 40
4.5
 49
3.0
 74
     0
 49
-1.5
 74
     0
  0
LTYPE
  5
42
330
5
100
AcDbSymbolTableRecord
100
AcDbLinetypeTableRecord
  2
PHANTOM
 70
     0
  3
______  __  __  ______  __  __  _____
 72
    65
 73
     6
 40
15.0
 49
7.5
 74
     0
 49
-1.5
 74
     0
 49
1.5
 74
     0
 49
-1.5
 74
     0
 49
1.5
 74
     0
 49
-1.5
 74
     0
  0
LTYPE
  5
43
330
5
100
AcDbSymbolTableRecord
100
AcDbLinetypeTableRecord
  2
CENTER
 70
     0
  3
____ _ ____ _ ____ _ ____ _ ____ _ ____
 72
    65
 73
     4
 40
12.0
 49
7.5
 74
     0
 49
-1.5
 74
     0
 49
1.5
 74
     0
 49
-1.5
 74
     0
  0
ENDTAB
  0
TABLE
  2
LAYER
  5
2
330
0
100
AcDbSymbolTable
 70
     4
  0
LAYER
  5
10
330
2
100
AcDbSymbolTableRecord
100
AcDbLayerTableRecord
  2
0
 70
     0
 62
     7
  6
Continuous
370
    -3
390
F
  0
LAYER
  5
44
330
2
100
AcDbSymbolTableRecord
100
AcDbLayerTableRecord
  2
VIEW0001
 70
     0
 62
     7
  6
Continuous
370
    -3
390
F
  0
LAYER
  5
5C
330
2
100
AcDbSymbolTableRecord
100
AcDbLayerTableRecord
  2
VIEW0002
 70
     0
 62
     7
  6
Continuous
370
    -3
390
F
  0
LAYER
  5
141
330
2
100
AcDbSymbolTableRecord
100
AcDbLayerTableRecord
  2
Defpoints
 70
     0
 62
     7
  6
Continuous
290
     0
370
    -3
390
F
  0
ENDTAB
  0
TABLE
  2
STYLE
  5
3
330
0
100
AcDbSymbolTable
 70
     1
  0
STYLE
  5
11
330
3
100
AcDbSymbolTableRecord
100
AcDbTextStyleTableRecord
  2
Standard
 70
     0
 40
0.0
 41
1.0
 50
0.0
 71
     0
 42
2.5
  3
ROMANS
  4
BIGFONT
  0
ENDTAB
  0
TABLE
  2
VIEW
  5
6
330
0
100
AcDbSymbolTable
 70
     0
  0
ENDTAB
  0
TABLE
  2
UCS
  5
7
330
0
100
AcDbSymbolTable
 70
     0
  0
ENDTAB
  0
TABLE
  2
APPID
  5
9
330
0
100
AcDbSymbolTable
 70
     1
  0
APPID
  5
12
330
9
100
AcDbSymbolTableRecord
100
AcDbRegAppTableRecord
  2
ACAD
 70
     0
  0
ENDTAB
  0
TABLE
  2
DIMSTYLE
  5
A
330
0
100
AcDbSymbolTable
 70
     1
100
AcDbDimStyleTable
  0
DIMSTYLE
105
27
102
{ACAD_REACTORS
330
13A
330
14E
330
15B
330
168
330
175
330
183
330
191
330
1A6
330
1C5
330
1D2
330
1E0
330
1ED
330
203
330
217
330
225
102
}
330
A
100
AcDbSymbolTableRecord
100
AcDbDimStyleTableRecord
  2
ISO-25
 70
     0
 41
2.5
 42
0.625
 43
3.75
 44
1.25
 73
     0
 74
     0
 77
     1
 78
     8
140
2.5
141
2.5
143
0.03937007874016
147
0.625
171
     3
172
     1
178
     0
271
     2
272
     2
274
     3
278
    44
283
     0
284
     8
340
11
  0
ENDTAB
  0
TABLE
  2
BLOCK_RECORD
  5
1
330
0
100
AcDbSymbolTable
 70
    21
  0
BLOCK_RECORD
  5
1F
330
1
100
AcDbSymbolTableRecord
100
AcDbBlockTableRecord
  2
*Model_Space
340
22
  0
BLOCK_RECORD
  5
1B
330
1
100
AcDbSymbolTableRecord
100
AcDbBlockTableRecord
  2
*Paper_Space
340
1E
  0
BLOCK_RECORD
  5
23
330
1
100
AcDbSymbolTableRecord
100
AcDbBlockTableRecord
  2
*Paper_Space0
340
26
  0
BLOCK_RECORD
  5
13B
330
1
100
AcDbSymbolTableRecord
100
AcDbBlockTableRecord
  2
_OPEN30
340
0
102
{BLKREFS
331
149
331
148
331
156
331
155
331
163
331
162
331
170
331
16F
331
17D
331
17C
331
18B
331
18A
331
0
331
1AD
331
1AC
331
1CD
331
1CC
331
1DA
331
1D9
331
1E8
331
1E7
331
0
331
0
331
0
331
0
331
21E
331
21D
331
232
102
}
  0
BLOCK_RECORD
  5
142
330
1
100
AcDbSymbolTableRecord
100
AcDbBlockTableRecord
  2
*D2
340
0
  0
BLOCK_RECORD
  5
14F
330
1
100
AcDbSymbolTableRecord
100
AcDbBlockTableRecord
  2
*D3
340
0
  0
BLOCK_RECORD
  5
15C
330
1
100
AcDbSymbolTableRecord
100
AcDbBlockTableRecord
  2
*D4
340
0
  0
BLOCK_RECORD
  5
169
330
1
100
AcDbSymbolTableRecord
100
AcDbBlockTableRecord
  2
*D5
340
0
  0
BLOCK_RECORD
  5
176
330
1
100
AcDbSymbolTableRecord
100
AcDbBlockTableRecord
  2
*D6
340
0
  0
BLOCK_RECORD
  5
184
330
1
100
AcDbSymbolTableRecord
100
AcDbBlockTableRecord
  2
*D7
340
0
  0
BLOCK_RECORD
  5
192
330
1
100
AcDbSymbolTableRecord
100
AcDbBlockTableRecord
  2
_NONE
340
0
102
{BLKREFS
331
0
102
}
  0
BLOCK_RECORD
  5
195
330
1
100
AcDbSymbolTableRecord
100
AcDbBlockTableRecord
  2
*D9
340
0
  0
BLOCK_RECORD
  5
1A7
330
1
100
AcDbSymbolTableRecord
100
AcDbBlockTableRecord
  2
*D10
340
0
  0
BLOCK_RECORD
  5
1B3
330
1
100
AcDbSymbolTableRecord
100
AcDbBlockTableRecord
  2
DIM0001
340
0
102
{BLKREFS
331
1B9
102
}
  0
BLOCK_RECORD
  5
1BC
330
1
100
AcDbSymbolTableRecord
100
AcDbBlockTableRecord
  2
DIM0002
340
0
102
{BLKREFS
331
1C2
102
}
  0
BLOCK_RECORD
  5
1C6
330
1
100
AcDbSymbolTableRecord
100
AcDbBlockTableRecord
  2
*D13
340
0
  0
BLOCK_RECORD
  5
1D3
330
1
100
AcDbSymbolTableRecord
100
AcDbBlockTableRecord
  2
*D14
340
0
  0
BLOCK_RECORD
  5
1E1
330
1
100
AcDbSymbolTableRecord
100
AcDbBlockTableRecord
  2
*D15
340
0
  0
BLOCK_RECORD
  5
1EE
330
1
100
AcDbSymbolTableRecord
100
AcDbBlockTableRecord
  2
*D16
340
0
  0
BLOCK_RECORD
  5
204
330
1
100
AcDbSymbolTableRecord
100
AcDbBlockTableRecord
  2
*D17
340
0
  0
BLOCK_RECORD
  5
218
330
1
100
AcDbSymbolTableRecord
100
AcDbBlockTableRecord
  2
*D18
340
0
  0
BLOCK_RECORD
  5
226
330
1
100
AcDbSymbolTableRecord
100
AcDbBlockTableRecord
  2
_OPEN
340
0
102
{BLKREFS
331
233
102
}
  0
BLOCK_RECORD
  5
22C
330
1
100
AcDbSymbolTableRecord
100
AcDbBlockTableRecord
  2
*D20
340
0
  0
ENDTAB
  0
ENDSEC
  0
SECTION
  2
BLOCKS
  0
BLOCK
  5
20
330
1F
100
AcDbEntity
  8
0
100
AcDbBlockBegin
  2
*Model_Space
 70
     0
 10
0.0
 20
0.0
 30
0.0
  3
*Model_Space
  1

  0
ENDBLK
  5
21
330
1F
100
AcDbEntity
  8
0
100
AcDbBlockEnd
  0
BLOCK
  5
1C
330
1B
100
AcDbEntity
 67
     1
  8
0
100
AcDbBlockBegin
  2
*Paper_Space
 70
     0
 10
0.0
 20
0.0
 30
0.0
  3
*Paper_Space
  1

  0
ENDBLK
  5
1D
330
1B
100
AcDbEntity
 67
     1
  8
0
100
AcDbBlockEnd
  0
BLOCK
  5
24
330
23
100
AcDbEntity
  8
0
100
AcDbBlockBegin
  2
*Paper_Space0
 70
     0
 10
0.0
 20
0.0
 30
0.0
  3
*Paper_Space0
  1

  0
ENDBLK
  5
25
330
23
100
AcDbEntity
  8
0
100
AcDbBlockEnd
  0
BLOCK
  5
13C
330
13B
100
AcDbEntity
  8
0
100
AcDbBlockBegin
  2
_OPEN30
 70
     0
 10
0.0
 20
0.0
 30
0.0
  3
_OPEN30
  1

  0
LINE
  5
13E
330
13B
100
AcDbEntity
  8
0
  6
ByBlock
 62
     0
370
    -2
100
AcDbLine
 10
-1.0
 20
0.267949
 30
0.0
 11
0.0
 21
0.0
 31
0.0
  0
LINE
  5
13F
330
13B
100
AcDbEntity
  8
0
  6
ByBlock
 62
     0
370
    -2
100
AcDbLine
 10
0.0
 20
0.0
 30
0.0
 11
-1.0
 21
-0.267949
 31
0.0
  0
LINE
  5
140
330
13B
100
AcDbEntity
  8
0
  6
ByBlock
 62
     0
370
    -2
100
AcDbLine
 10
0.0
 20
0.0
 30
0.0
 11
-1.0
 21
0.0
 31
0.0
  0
ENDBLK
  5
13D
330
13B
100
AcDbEntity
  8
0
100
AcDbBlockEnd
  0
BLOCK
  5
143
330
142
100
AcDbEntity
  8
0
100
AcDbBlockBegin
  2
*D2
 70
     1
 10
0.0
 20
0.0
 30
0.0
  3
*D2
  1

  0
LINE
  5
145
330
142
100
AcDbEntity
  8
0
 62
     0
370
    -2
100
AcDbLine
 10
34.71364784017077
 20
-13.70075562946074
 30
0.0
 11
28.92237068552362
 21
0.633159035856838
 31
0.0
  0
LINE
  5
146
330
142
100
AcDbEntity
  8
0
 62
     0
370
    -2
100
AcDbLine
 10
57.89324392456146
 20
-4.335591374486691
 30
0.0
 11
52.1019667699143
 21
9.998323290830895
 31
0.0
  0
LINE
  5
147
330
142
100
AcDbEntity
  8
0
 62
     0
370
    -2
100
AcDbLine
 10
32.0785288460484
 20
0.829794906828621
 30
0.0
 11
49.69502176407755
 21
7.947319697738586
 31
0.0
  0
INSERT
  5
148
330
142
100
AcDbEntity
  8
0
 62
     0
370
    -2
100
AcDbBlockReference
  2
_OPEN30
 10
29.29697726286764
 20
-0.294024825203424
 30
0.0
 41
3.0
 42
3.0
 43
3.0
 50
201.9999990068293
  0
INSERT
  5
149
330
142
100
AcDbEntity
  8
0
 62
     0
370
    -2
100
AcDbBlockReference
  2
_OPEN30
 10
52.47657334725832
 20
9.071139429770632
 30
0.0
 41
3.0
 42
3.0
 43
3.0
 50
21.99999900682929
  0
MTEXT
  5
14A
330
142
100
AcDbEntity
  8
0
 62
     1
100
AcDbMText
 10
39.98318469284341
 20
6.627497319034713
 30
0.0
 40
3.200000047683716
 41
0.0
 71
     5
 72
     1
  1
50
 11
0.927183861060255
 21
0.3746065773440153
 31
0.0
 73
     1
 44
1.0
  0
POINT
  5
14B
330
142
100
AcDbEntity
  8
Defpoints
 62
     0
100
AcDbPoint
 10
35.66514854662457
 20
-16.05580263655379
 30
0.0
  0
POINT
  5
14C
330
142
100
AcDbEntity
  8
Defpoints
 62
     0
100
AcDbPoint
 10
58.84474463101526
 20
-6.690638381579738
 30
0.0
  0
POINT
  5
14D
330
142
100
AcDbEntity
  8
Defpoints
 62
     0
100
AcDbPoint
 10
52.47643281616701
 20
9.071487256444593
 30
0.0
  0
ENDBLK
  5
144
330
142
100
AcDbEntity
  8
0
100
AcDbBlockEnd
  0
BLOCK
  5
150
330
14F
100
AcDbEntity
  8
0
100
AcDbBlockBegin
  2
*D3
 70
     1
 10
0.0
 20
0.0
 30
0.0
  3
*D3
  1

  0
LINE
  5
152
330
14F
100
AcDbEntity
  8
0
 62
     0
370
    -2
100
AcDbLine
 10
41.01360980360494
 20
-27.95897707473384
 30
0.0
 11
47.17942608884346
 21
-43.21990866453255
 31
0.0
  0
LINE
  5
153
330
14F
100
AcDbEntity
  8
0
 62
     0
370
    -2
100
AcDbLine
 10
63.26602246905107
 20
-18.96841921847746
 30
0.0
 11
69.4318387542896
 21
-34.22935080827618
 31
0.0
  0
LINE
  5
154
330
14F
100
AcDbEntity
  8
0
 62
     0
370
    -2
100
AcDbLine
 10
49.58637109468021
 20
-41.16890507144026
 30
0.0
 11
66.27568059376482
 21
-34.42598667924798
 31
0.0
  0
INSERT
  5
155
330
14F
100
AcDbEntity
  8
0
 62
     0
370
    -2
100
AcDbBlockReference
  2
_OPEN30
 10
46.80481951149945
 20
-42.29272480347231
 30
0.0
 41
3.0
 42
3.0
 43
3.0
 50
201.9999990068293
  0
INSERT
  5
156
330
14F
100
AcDbEntity
  8
0
 62
     0
370
    -2
100
AcDbBlockReference
  2
_OPEN30
 10
69.05723217694559
 20
-33.30216694721594
 30
0.0
 41
3.0
 42
3.0
 43
3.0
 50
21.99999900682928
  0
MTEXT
  5
157
330
14F
100
AcDbEntity
  8
0
 62
     1
100
AcDbMText
 10
57.02778231857583
 20
-35.55836562652193
 30
0.0
 40
3.200000047683716
 41
0.0
 71
     5
 72
     1
  1
48
 11
0.9271838610602552
 21
0.3746065773440151
 31
0.0
 73
     1
 44
1.0
  0
POINT
  5
158
330
14F
100
AcDbEntity
  8
Defpoints
 62
     0
100
AcDbPoint
 10
40.06210909715114
 20
-25.6039300676408
 30
0.0
  0
POINT
  5
159
330
14F
100
AcDbEntity
  8
Defpoints
 62
     0
100
AcDbPoint
 10
62.31452176259727
 20
-16.61337221138441
 30
0.0
  0
POINT
  5
15A
330
14F
100
AcDbEntity
  8
Defpoints
 62
     0
100
AcDbPoint
 10
69.05744015478955
 20
-33.30268171046904
 30
0.0
  0
ENDBLK
  5
151
330
14F
100
AcDbEntity
  8
0
100
AcDbBlockEnd
  0
BLOCK
  5
15D
330
15C
100
AcDbEntity
  8
0
100
AcDbBlockBegin
  2
*D4
 70
     1
 10
0.0
 20
0.0
 30
0.0
  3
*D4
  1

  0
LINE
  5
15F
330
15C
100
AcDbEntity
  8
0
 62
     0
370
    -2
100
AcDbLine
 10
31.37018639097398
 20
-13.43379956990241
 30
0.0
 11
22.39475296565097
 21
8.78117881350696
 31
0.0
  0
LINE
  5
160
330
15C
100
AcDbEntity
  8
0
 62
     0
370
    -2
100
AcDbLine
 10
60.11288564172621
 20
-1.820995850864269
 30
0.0
 11
51.13745221640319
 21
20.39398253254511
 31
0.0
  0
LINE
  5
161
330
15C
100
AcDbEntity
  8
0
 62
     0
370
    -2
100
AcDbLine
 10
25.55091112617575
 20
8.977814684478746
 30
0.0
 11
48.73050721056644
 21
18.34297893945281
 31
0.0
  0
INSERT
  5
162
330
15C
100
AcDbEntity
  8
0
 62
     0
370
    -2
100
AcDbBlockReference
  2
_OPEN30
 10
22.76935954299498
 20
7.853994952446701
 30
0.0
 41
3.0
 42
3.0
 43
3.0
 50
201.9999990068293
  0
INSERT
  5
163
330
15C
100
AcDbEntity
  8
0
 62
     0
370
    -2
100
AcDbBlockReference
  2
_OPEN30
 10
51.51205879374721
 20
19.46679867148485
 30
0.0
 41
3.0
 42
3.0
 43
3.0
 50
21.99999900682928
  0
MTEXT
  5
164
330
15C
100
AcDbEntity
  8
0
 62
     1
100
AcDbMText
 10
36.23711764572427
 20
15.89933646088042
 30
0.0
 40
3.200000047683716
 41
0.0
 71
     5
 72
     1
  1
62
 11
0.927183861060255
 21
0.3746065773440151
 31
0.0
 73
     1
 44
1.0
  0
POINT
  5
165
330
15C
100
AcDbEntity
  8
Defpoints
 62
     0
100
AcDbPoint
 10
32.32168709742778
 20
-15.78884657699546
 30
0.0
  0
POINT
  5
166
330
15C
100
AcDbEntity
  8
Defpoints
 62
     0
100
AcDbPoint
 10
61.06438634818001
 20
-4.176042857957317
 30
0.0
  0
POINT
  5
167
330
15C
100
AcDbEntity
  8
Defpoints
 62
     0
100
AcDbPoint
 10
51.51191862590762
 20
19.46714559907919
 30
0.0
  0
ENDBLK
  5
15E
330
15C
100
AcDbEntity
  8
0
100
AcDbBlockEnd
  0
BLOCK
  5
16A
330
169
100
AcDbEntity
  8
0
100
AcDbBlockBegin
  2
*D5
 70
     1
 10
0.0
 20
0.0
 30
0.0
  3
*D5
  1

  0
LINE
  5
16C
330
169
100
AcDbEntity
  8
0
 62
     0
370
    -2
100
AcDbLine
 10
-63.53807739257812
 20
59.32368850708008
 30
0.0
 11
-72.59608349609374
 21
59.32368850708007
 31
0.0
  0
LINE
  5
16D
330
169
100
AcDbEntity
  8
0
 62
     0
370
    -2
100
AcDbLine
 10
-63.53807739257812
 20
46.32368850708008
 30
0.0
 11
-72.59608349609374
 21
46.32368850708007
 31
0.0
  0
LINE
  5
16E
330
169
100
AcDbEntity
  8
0
 62
     0
370
    -2
100
AcDbLine
 10
-71.59608349609374
 20
56.32368850708007
 30
0.0
 11
-71.59608349609374
 21
49.32368850708007
 31
0.0
  0
INSERT
  5
16F
330
169
100
AcDbEntity
  8
0
 62
     0
370
    -2
100
AcDbBlockReference
  2
_OPEN30
 10
-71.59608349609374
 20
59.32368850708007
 30
0.0
 41
3.0
 42
3.0
 43
3.0
 50
90.0
  0
INSERT
  5
170
330
169
100
AcDbEntity
  8
0
 62
     0
370
    -2
100
AcDbBlockReference
  2
_OPEN30
 10
-71.59608349609374
 20
46.32368850708007
 30
0.0
 41
3.0
 42
3.0
 43
3.0
 50
270.0
  0
MTEXT
  5
171
330
169
100
AcDbEntity
  8
0
 62
     1
100
AcDbMText
 10
-74.0104835320711
 20
52.82468850708008
 30
0.0
 40
3.200000047683716
 41
0.0
 71
     5
 72
     1
  1
26
 11
0.0
 21
1.0
 31
0.0
 73
     1
 44
1.0
  0
POINT
  5
172
330
169
100
AcDbEntity
  8
Defpoints
 62
     0
100
AcDbPoint
 10
-60.99807739257812
 20
59.32368850708008
 30
0.0
  0
POINT
  5
173
330
169
100
AcDbEntity
  8
Defpoints
 62
     0
100
AcDbPoint
 10
-60.99807739257812
 20
46.32368850708008
 30
0.0
  0
POINT
  5
174
330
169
100
AcDbEntity
  8
Defpoints
 62
     0
100
AcDbPoint
 10
-71.59808349609375
 20
46.32368850708007
 30
0.0
  0
ENDBLK
  5
16B
330
169
100
AcDbEntity
  8
0
100
AcDbBlockEnd
  0
BLOCK
  5
177
330
176
100
AcDbEntity
  8
0
100
AcDbBlockBegin
  2
*D6
 70
     1
 10
0.0
 20
0.0
 30
0.0
  3
*D6
  1

  0
LINE
  5
179
330
176
100
AcDbEntity
  8
0
 62
     0
370
    -2
100
AcDbLine
 10
63.41943335527301
 20
-3.224542151503564
 30
0.0
 11
80.53559333309028
 21
3.690835020000131
 31
0.0
  0
LINE
  5
17A
330
176
100
AcDbEntity
  8
0
 62
     0
370
    -2
100
AcDbLine
 10
70.91156490215333
 20
-21.76821937270865
 30
0.0
 11
88.02772487997058
 21
-14.85284220120496
 31
0.0
  0
LINE
  5
17B
330
176
100
AcDbEntity
  8
0
 62
     0
370
    -2
100
AcDbLine
 10
80.73222920406211
 20
0.534676859475369
 30
0.0
 11
85.97672128687832
 21
-12.44589719536819
 31
0.0
  0
INSERT
  5
17C
330
176
100
AcDbEntity
  8
0
 62
     0
370
    -2
100
AcDbBlockReference
  2
_OPEN30
 10
79.60840947203006
 20
3.316228442656134
 30
0.0
 41
3.0
 42
3.0
 43
3.0
 50
111.9999990068293
  0
INSERT
  5
17D
330
176
100
AcDbEntity
  8
0
 62
     0
370
    -2
100
AcDbBlockReference
  2
_OPEN30
 10
87.10054101891036
 20
-15.22744877854896
 30
0.0
 41
3.0
 42
3.0
 43
3.0
 50
291.9999990068293
  0
MTEXT
  5
17E
330
176
100
AcDbEntity
  8
0
 62
     1
 60
     1
100
AcDbMText
 10
85.59271872406401
 20
-5.050295563204736
 30
0.0
 40
3.200000047683716
 41
0.0
 71
     5
 72
     1
  1
40
 11
0.3746065773440152
 21
-0.927183861060255
 31
0.0
 73
     1
 44
1.0
  0
POINT
  5
17F
330
176
100
AcDbEntity
  8
Defpoints
 62
     0
100
AcDbPoint
 10
61.06438634817997
 20
-4.176042857957363
 30
0.0
  0
POINT
  5
180
330
176
100
AcDbEntity
  8
Defpoints
 62
     0
100
AcDbPoint
 10
68.55651789506028
 20
-22.71972007916245
 30
0.0
  0
POINT
  5
181
330
176
100
AcDbEntity
  8
Defpoints
 62
     0
100
AcDbPoint
 10
87.10019511626543
 20
-15.22758853228213
 30
0.0
  0
MTEXT
  5
182
330
176
100
AcDbEntity
  8
0
 62
     1
100
AcDbMText
 10
83.6399247790281
 20
-8.798696317591975
 30
0.0
 40
3.200000047683716
 41
0.0
 71
     7
 72
     1
  1
\W1;40
 11
-0.3746065934159121
 21
0.9271838545667874
 31
0.0
 73
     1
 44
1.0
  0
ENDBLK
  5
178
330
176
100
AcDbEntity
  8
0
100
AcDbBlockEnd
  0
BLOCK
  5
185
330
184
100
AcDbEntity
  8
0
100
AcDbBlockBegin
  2
*D7
 70
     1
 10
0.0
 20
0.0
 30
0.0
  3
*D7
  1

  0
LINE
  5
187
330
184
100
AcDbEntity
  8
0
 62
     0
370
    -2
100
AcDbLine
 10
63.15247729571468
 20
-6.568003600700346
 30
0.0
 11
72.38757954764758
 21
-2.83678027886367
 31
0.0
  0
LINE
  5
188
330
184
100
AcDbEntity
  8
0
 62
     0
370
    -2
100
AcDbLine
 10
68.39696937853091
 20
-19.54857765554389
 30
0.0
 11
77.63207163046378
 21
-15.81735433370723
 31
0.0
  0
LINE
  5
189
330
184
100
AcDbEntity
  8
0
 62
     0
370
    -2
100
AcDbLine
 10
72.58421541861938
 20
-5.992938439388444
 30
0.0
 11
75.5810680373715
 21
-13.41040932787048
 31
0.0
  0
INSERT
  5
18A
330
184
100
AcDbEntity
  8
0
 62
     0
370
    -2
100
AcDbBlockReference
  2
_OPEN30
 10
71.46039568658733
 20
-3.21138685620768
 30
0.0
 41
3.0
 42
3.0
 43
3.0
 50
111.9999990068293
  0
INSERT
  5
18B
330
184
100
AcDbEntity
  8
0
 62
     0
370
    -2
100
AcDbBlockReference
  2
_OPEN30
 10
76.70488776940354
 20
-16.19196091105124
 30
0.0
 41
3.0
 42
3.0
 43
3.0
 50
291.9999990068293
  0
MTEXT
  5
18C
330
184
100
AcDbEntity
  8
0
 62
     1
 60
     1
100
AcDbMText
 10
76.25717795257964
 20
-8.638678284152004
 30
0.0
 40
3.200000047683716
 41
0.0
 71
     5
 72
     1
  1
28
 11
0.3746065773440153
 21
-0.927183861060255
 31
0.0
 73
     1
 44
1.0
  0
POINT
  5
18D
330
184
100
AcDbEntity
  8
Defpoints
 62
     0
100
AcDbPoint
 10
60.79743028862163
 20
-7.519504307154147
 30
0.0
  0
POINT
  5
18E
330
184
100
AcDbEntity
  8
Defpoints
 62
     0
100
AcDbPoint
 10
66.04192237143786
 20
-20.50007836199769
 30
0.0
  0
POINT
  5
18F
330
184
100
AcDbEntity
  8
Defpoints
 62
     0
100
AcDbPoint
 10
76.7045367736308
 20
-16.1921027225415
 30
0.0
  0
MTEXT
  5
190
330
184
100
AcDbEntity
  8
0
 62
     1
100
AcDbMText
 10
74.30438400754373
 20
-12.38707903853924
 30
0.0
 40
3.200000047683716
 41
0.0
 71
     7
 72
     1
  1
\W1;28
 11
-0.3746065934159121
 21
0.9271838545667874
 31
0.0
 73
     1
 44
1.0
  0
ENDBLK
  5
186
330
184
100
AcDbEntity
  8
0
100
AcDbBlockEnd
  0
BLOCK
  5
193
330
192
100
AcDbEntity
  8
0
100
AcDbBlockBegin
  2
_NONE
 70
     0
 10
0.0
 20
0.0
 30
0.0
  3
_NONE
  1

  0
ENDBLK
  5
194
330
192
100
AcDbEntity
  8
0
100
AcDbBlockEnd
  0
BLOCK
  5
196
330
195
100
AcDbEntity
  8
0
100
AcDbBlockBegin
  2
*D9
 70
     1
 10
0.0
 20
0.0
 30
0.0
  3
*D9
  1

  0
MTEXT
  5
19D
330
195
100
AcDbEntity
  8
0
 62
     1
 60
     1
100
AcDbMText
 10
69.64749170125967
 20
7.719858494040134
 30
0.0
 40
3.200000047683716
 41
0.0
 71
     5
 72
     1
  1
6
 11
0.3746065773440159
 21
-0.9271838610602547
 31
0.0
 73
     1
 44
1.0
  0
POINT
  5
19E
330
195
100
AcDbEntity
  8
Defpoints
 62
     0
100
AcDbPoint
 10
61.06438634817997
 20
-4.176042857957363
 30
0.0
  0
POINT
  5
19F
330
195
100
AcDbEntity
  8
Defpoints
 62
     0
100
AcDbPoint
 10
60.79743028862163
 20
-7.519504307154147
 30
0.0
  0
POINT
  5
1A0
330
195
100
AcDbEntity
  8
Defpoints
 62
     0
100
AcDbPoint
 10
71.4600446908146
 20
-3.21152866769796
 30
0.0
  0
MTEXT
  5
1A1
330
195
100
AcDbEntity
  8
0
 62
     1
100
AcDbMText
 10
68.29343050236962
 20
2.490542042963248
 30
0.0
 40
3.200000047683716
 41
0.0
 71
     7
 72
     1
  1
\W1;6
 11
-0.3746065934159121
 21
0.9271838545667874
 31
0.0
 73
     1
 44
1.0
  0
LINE
  5
1A2
330
195
100
AcDbEntity
  8
0
  6
Continuous
 62
     7
100
AcDbLine
 10
67.95747319264805
 20
5.457640433215456
 30
0.0
 11
71.4600446908146
 21
-3.21152866769793
 31
0.0
  0
LINE
  5
1A3
330
195
100
AcDbEntity
  8
0
  6
Continuous
 62
     7
100
AcDbLine
 10
70.33622495878255
 20
-0.429977084517162
 30
0.0
 11
68.43311879928545
 21
2.095530180672313
 31
0.0
  0
LINE
  5
1A4
330
195
100
AcDbEntity
  8
0
  6
Continuous
 62
     7
100
AcDbLine
 10
70.33622495878255
 20
-0.429977084517162
 30
0.0
 11
69.95084031097288
 21
2.708729444305376
 31
0.0
  0
LINE
  5
1A5
330
195
100
AcDbEntity
  8
0
  6
Continuous
 62
     7
100
AcDbLine
 10
70.33622495878255
 20
-0.429977084517162
 30
0.0
 11
68.178827519557
 21
4.909769221393798
 31
0.0
  0
ENDBLK
  5
197
330
195
100
AcDbEntity
  8
0
100
AcDbBlockEnd
  0
BLOCK
  5
1A8
330
1A7
100
AcDbEntity
  8
0
100
AcDbBlockBegin
  2
*D10
 70
     1
 10
0.0
 20
0.0
 30
0.0
  3
*D10
  1

  0
LINE
  5
1AA
330
1A7
100
AcDbEntity
  8
0
 62
     0
370
    -2
100
AcDbLine
 10
57.35589387869569
 20
-16.45971835040577
 30
0.0
 11
56.96313529045502
 21
-16.61840311255754
 31
0.0
  0
LINE
  5
1AB
330
1A7
100
AcDbEntity
  8
0
 62
     0
370
    -2
100
AcDbLine
 10
55.26807311010717
 20
-9.753509507791751
 30
0.0
 11
56.76649941948322
 21
-13.46224495203276
 31
0.0
  0
INSERT
  5
1AC
330
1A7
100
AcDbEntity
  8
0
 62
     0
370
    -2
100
AcDbBlockReference
  2
_OPEN30
 10
54.14425337807512
 20
-6.971957924610987
 30
0.0
 41
3.0
 42
3.0
 43
3.0
 50
111.9999990068293
  0
INSERT
  5
1AD
330
1A7
100
AcDbEntity
  8
0
 62
     0
370
    -2
100
AcDbBlockReference
  2
_OPEN30
 10
57.89031915151526
 20
-16.24379653521352
 30
0.0
 41
3.0
 42
3.0
 43
3.0
 50
291.9999990068293
  0
MTEXT
  5
1AE
330
1A7
100
AcDbEntity
  8
0
 62
     1
 60
     1
100
AcDbMText
 10
57.76597950689951
 20
-10.90076244870946
 30
0.0
 40
2.5
 41
0.0
 71
     5
 72
     1
  1
20
 11
0.3746065773440147
 21
-0.9271838610602552
 31
0.0
 73
     1
 44
1.0
  0
POINT
  5
1AF
330
1A7
100
AcDbEntity
  8
Defpoints
 62
     0
100
AcDbPoint
 10
50.86536387651716
 20
-8.296715208741531
 30
0.0
  0
POINT
  5
1B0
330
1A7
100
AcDbEntity
  8
Defpoints
 62
     0
100
AcDbPoint
 10
59.71094088578874
 20
-15.50821764395196
 30
0.0
  0
POINT
  5
1B1
330
1A7
100
AcDbEntity
  8
Defpoints
 62
     0
100
AcDbPoint
 10
57.88910934354604
 20
-16.24428532933691
 30
0.0
  0
MTEXT
  5
1B2
330
1A7
100
AcDbEntity
  8
0
 62
     1
100
AcDbMText
 10
56.23935928320009
 20
-13.82941930168874
 30
0.0
 40
2.5
 41
0.0
 71
     7
 72
     1
  1
\W1;20
 11
-0.3746065934159121
 21
0.9271838545667874
 31
0.0
 73
     1
 44
1.0
  0
ENDBLK
  5
1A9
330
1A7
100
AcDbEntity
  8
0
100
AcDbBlockEnd
  0
BLOCK
  5
1BA
330
1B3
100
AcDbEntity
  8
0
100
AcDbBlockBegin
  2
DIM0001
 70
     0
 10
0.0
 20
0.0
 30
0.0
  3
DIM0001
  1

  0
LINE
  5
1B4
330
1B3
100
AcDbEntity
  8
0
  6
Continuous
 62
     7
100
AcDbLine
 10
0.0
 20
0.0
 30
0.0
 11
0.359654941103827
 21
19.8442619250765
 31
0.0
  0
LINE
  5
1B5
330
1B3
100
AcDbEntity
  8
0
  6
Continuous
 62
     7
100
AcDbLine
 10
0.0
 20
0.0
 30
0.0
 11
-0.762972541800799
 21
3.068855307977005
 31
0.0
  0
LINE
  5
1B6
330
1B3
100
AcDbEntity
  8
0
  6
Continuous
 62
     7
100
AcDbLine
 10
0.0
 20
0.0
 30
0.0
 11
0.873674050223478
 21
3.039192928197668
 31
0.0
  0
LINE
  5
1B7
330
1B3
100
AcDbEntity
  8
0
  6
Continuous
 62
     7
100
AcDbLine
 10
0.359655215160949
 20
19.84425632414716
 30
0.0
 11
11.03666136818798
 21
24.1580466080858
 31
0.0
  0
MTEXT
  5
1B8
330
1B3
100
AcDbEntity
  8
0
 62
     1
100
AcDbMText
 10
-0.286114346422103
 20
20.45736380577492
 30
0.0
 40
3.200000047683716
 41
0.0
 71
     7
 72
     1
  1
\W1;4-\U+22054
 11
0.92783625389892
 21
0.3729877825758088
 31
0.0
 73
     1
 44
1.0
  0
ENDBLK
  5
1BB
330
1B3
100
AcDbEntity
  8
0
100
AcDbBlockEnd
  0
BLOCK
  5
1C3
330
1BC
100
AcDbEntity
  8
0
100
AcDbBlockBegin
  2
DIM0002
 70
     0
 10
0.0
 20
0.0
 30
0.0
  3
DIM0002
  1

  0
LINE
  5
1BD
330
1BC
100
AcDbEntity
  8
0
  6
Continuous
 62
     7
100
AcDbLine
 10
0.0
 20
0.0
 30
0.0
 11
1.754729979960935
 21
20.41594103592939
 31
0.0
  0
LINE
  5
1BE
330
1BC
100
AcDbEntity
  8
0
  6
Continuous
 62
     7
100
AcDbLine
 10
0.0
 20
0.0
 30
0.0
 11
-0.553882154842306
 21
3.113392773067325
 31
0.0
  0
LINE
  5
1BF
330
1BC
100
AcDbEntity
  8
0
  6
Continuous
 62
     7
100
AcDbLine
 10
0.0
 20
0.0
 30
0.0
 11
1.077020369565624
 21
2.973218310918547
 31
0.0
  0
LINE
  5
1C0
330
1BC
100
AcDbEntity
  8
0
  6
Continuous
 62
     7
100
AcDbLine
 10
1.754728310240864
 20
20.41593584046241
 30
0.0
 11
12.24688057641772
 21
24.65504030989336
 31
0.0
  0
MTEXT
  5
1C1
330
1BC
100
AcDbEntity
  8
0
 62
     1
100
AcDbMText
 10
0.924104971828889
 20
20.95435895806564
 30
0.0
 40
3.200000047683716
 41
0.0
 71
     7
 72
     1
  1
\W1;2-\U+22056
 11
0.92783625389892
 21
0.3729877825758088
 31
0.0
 73
     1
 44
1.0
  0
ENDBLK
  5
1C4
330
1BC
100
AcDbEntity
  8
0
100
AcDbBlockEnd
  0
BLOCK
  5
1C7
330
1C6
100
AcDbEntity
  8
0
100
AcDbBlockBegin
  2
*D13
 70
     1
 10
0.0
 20
0.0
 30
0.0
  3
*D13
  1

  0
LINE
  5
1C9
330
1C6
100
AcDbEntity
  8
0
 62
     0
370
    -2
100
AcDbLine
 10
18.24439434051514
 20
57.32368850708008
 30
0.0
 11
27.20539338684082
 21
57.32368850708008
 31
0.0
  0
LINE
  5
1CA
330
1C6
100
AcDbEntity
  8
0
 62
     0
370
    -2
100
AcDbLine
 10
18.24439434051514
 20
48.32368850708008
 30
0.0
 11
27.20539338684083
 21
48.32368850708008
 31
0.0
  0
LINE
  5
1CB
330
1C6
100
AcDbEntity
  8
0
 62
     0
370
    -2
100
AcDbLine
 10
26.20539338684082
 20
54.32368850708008
 30
0.0
 11
26.20539338684083
 21
51.32368850708008
 31
0.0
  0
INSERT
  5
1CC
330
1C6
100
AcDbEntity
  8
0
 62
     0
370
    -2
100
AcDbBlockReference
  2
_OPEN30
 10
26.20539338684082
 20
57.32368850708008
 30
0.0
 41
3.0
 42
3.0
 43
3.0
 50
90.00000000000001
  0
INSERT
  5
1CD
330
1C6
100
AcDbEntity
  8
0
 62
     0
370
    -2
100
AcDbBlockReference
  2
_OPEN30
 10
26.20539338684083
 20
48.32368850708008
 30
0.0
 41
3.0
 42
3.0
 43
3.0
 50
270.0
  0
MTEXT
  5
1CE
330
1C6
100
AcDbEntity
  8
0
 62
     1
100
AcDbMText
 10
23.79099335086346
 20
52.82468850708008
 30
0.0
 40
3.200000047683716
 41
0.0
 71
     5
 72
     1
  1
18
 11
-3.947459643111667E-16
 21
1.0
 31
0.0
 73
     1
 44
1.0
  0
POINT
  5
1CF
330
1C6
100
AcDbEntity
  8
Defpoints
 62
     0
100
AcDbPoint
 10
15.70439434051514
 20
57.32368850708008
 30
0.0
  0
POINT
  5
1D0
330
1C6
100
AcDbEntity
  8
Defpoints
 62
     0
100
AcDbPoint
 10
15.70439434051514
 20
48.32368850708008
 30
0.0
  0
POINT
  5
1D1
330
1C6
100
AcDbEntity
  8
Defpoints
 62
     0
100
AcDbPoint
 10
26.20439338684082
 20
48.32368850708008
 30
0.0
  0
ENDBLK
  5
1C8
330
1C6
100
AcDbEntity
  8
0
100
AcDbBlockEnd
  0
BLOCK
  5
1D4
330
1D3
100
AcDbEntity
  8
0
100
AcDbBlockBegin
  2
*D14
 70
     1
 10
0.0
 20
0.0
 30
0.0
  3
*D14
  1

  0
LINE
  5
1D6
330
1D3
100
AcDbEntity
  8
0
 62
     0
370
    -2
100
AcDbLine
 10
9.006970754623087
 20
-19.27666191410312
 30
0.0
 11
16.85129524766493
 21
-16.1073492531235
 31
0.0
  0
LINE
  5
1D7
330
1D3
100
AcDbEntity
  8
0
 62
     0
370
    -2
100
AcDbLine
 10
18.55944133491685
 20
-42.91985744499112
 30
0.0
 11
26.4037658279587
 21
-39.7505447840115
 31
0.0
  0
LINE
  5
1D8
330
1D3
100
AcDbEntity
  8
0
 62
     0
370
    -2
100
AcDbLine
 10
17.04793111863672
 20
-19.26350741364828
 30
0.0
 11
24.35276223486639
 21
-37.34359977817476
 31
0.0
  0
INSERT
  5
1D9
330
1D3
100
AcDbEntity
  8
0
 62
     0
370
    -2
100
AcDbBlockReference
  2
_OPEN30
 10
15.92411138660467
 20
-16.48195583046752
 30
0.0
 41
3.0
 42
3.0
 43
3.0
 50
111.9999990068293
  0
INSERT
  5
1DA
330
1D3
100
AcDbEntity
  8
0
 62
     0
370
    -2
100
AcDbBlockReference
  2
_OPEN30
 10
25.47658196689844
 20
-40.12515136135552
 30
0.0
 41
3.0
 42
3.0
 43
3.0
 50
291.9999990068293
  0
MTEXT
  5
1DB
330
1D3
100
AcDbEntity
  8
0
 62
     1
 60
     1
100
AcDbMText
 10
23.31319678192534
 20
-28.32542297409341
 30
0.0
 40
3.200000047683716
 41
0.0
 71
     5
 72
     1
  1
51
 11
0.3746065773440151
 21
-0.9271838610602552
 31
0.0
 73
     1
 44
1.0
  0
POINT
  5
1DC
330
1D3
100
AcDbEntity
  8
Defpoints
 62
     0
100
AcDbPoint
 10
6.651923747530039
 20
-20.22816262055692
 30
0.0
  0
POINT
  5
1DD
330
1D3
100
AcDbEntity
  8
Defpoints
 62
     0
100
AcDbPoint
 10
16.20439432782381
 20
-43.87135815144492
 30
0.0
  0
POINT
  5
1DE
330
1D3
100
AcDbEntity
  8
Defpoints
 62
     0
100
AcDbPoint
 10
25.47623205419491
 20
-40.12529273525745
 30
0.0
  0
MTEXT
  5
1DF
330
1D3
100
AcDbEntity
  8
0
 62
     1
100
AcDbMText
 10
21.36040283688944
 20
-32.07382372848065
 30
0.0
 40
3.200000047683716
 41
0.0
 71
     7
 72
     1
  1
\W1;51
 11
-0.3746065934159121
 21
0.9271838545667874
 31
0.0
 73
     1
 44
1.0
  0
ENDBLK
  5
1D5
330
1D3
100
AcDbEntity
  8
0
100
AcDbBlockEnd
  0
BLOCK
  5
1E2
330
1E1
100
AcDbEntity
  8
0
100
AcDbBlockBegin
  2
*D15
 70
     1
 10
0.0
 20
0.0
 30
0.0
  3
*D15
  1

  0
LINE
  5
1E4
330
1E1
100
AcDbEntity
  8
0
 62
     0
370
    -2
100
AcDbLine
 10
-61.59808349609375
 20
-14.53816314697266
 30
0.0
 11
-61.59808349609375
 21
-9.96624374389648
 31
0.0
  0
LINE
  5
1E5
330
1E1
100
AcDbEntity
  8
0
 62
     0
370
    -2
100
AcDbLine
 10
-4.848075866699219
 20
-19.65922256469727
 30
0.0
 11
-4.848075866699219
 21
-9.966243743896488
 31
0.0
  0
LINE
  5
1E6
330
1E1
100
AcDbEntity
  8
0
 62
     0
370
    -2
100
AcDbLine
 10
-58.59808349609375
 20
-10.96624374389648
 30
0.0
 11
-7.848075866699219
 21
-10.96624374389649
 31
0.0
  0
INSERT
  5
1E7
330
1E1
100
AcDbEntity
  8
0
 62
     0
370
    -2
100
AcDbBlockReference
  2
_OPEN30
 10
-61.59808349609375
 20
-10.96624374389648
 30
0.0
 41
3.0
 42
3.0
 43
3.0
 50
180.0
  0
INSERT
  5
1E8
330
1E1
100
AcDbEntity
  8
0
 62
     0
370
    -2
100
AcDbBlockReference
  2
_OPEN30
 10
-4.848075866699219
 20
-10.96624374389649
 30
0.0
 41
3.0
 42
3.0
 43
3.0
 50
360.0
  0
MTEXT
  5
1E9
330
1E1
100
AcDbEntity
  8
0
 62
     1
100
AcDbMText
 10
-33.22207968139649
 20
-8.545443707823754
 30
0.0
 40
3.200000047683716
 41
0.0
 71
     5
 72
     1
  1
113.5
 73
     1
 44
1.0
  0
POINT
  5
1EA
330
1E1
100
AcDbEntity
  8
Defpoints
 62
     0
100
AcDbPoint
 10
-61.59808349609375
 20
-17.07816314697266
 30
0.0
  0
POINT
  5
1EB
330
1E1
100
AcDbEntity
  8
Defpoints
 62
     0
100
AcDbPoint
 10
-4.848075866699219
 20
-22.19922256469727
 30
0.0
  0
POINT
  5
1EC
330
1E1
100
AcDbEntity
  8
Defpoints
 62
     0
100
AcDbPoint
 10
-4.848075866699218
 20
-10.96624374389648
 30
0.0
  0
ENDBLK
  5
1E3
330
1E1
100
AcDbEntity
  8
0
100
AcDbBlockEnd
  0
BLOCK
  5
1EF
330
1EE
100
AcDbEntity
  8
0
100
AcDbBlockBegin
  2
*D16
 70
     1
 10
0.0
 20
0.0
 30
0.0
  3
*D16
  1

  0
MTEXT
  5
1F8
330
1EE
100
AcDbEntity
  8
0
 62
     1
100
AcDbMText
 10
-74.01148353207111
 20
-18.6271623840332
 30
0.0
 40
3.200000047683716
 41
0.0
 71
     5
 72
     1
  1
6
 11
0.0
 21
1.0
 31
0.0
 73
     1
 44
1.0
  0
POINT
  5
1F9
330
1EE
100
AcDbEntity
  8
Defpoints
 62
     0
100
AcDbPoint
 10
-61.59808349609375
 20
-20.17816162109375
 30
0.0
  0
POINT
  5
1FA
330
1EE
100
AcDbEntity
  8
Defpoints
 62
     0
100
AcDbPoint
 10
-61.59808349609375
 20
-17.07816314697266
 30
0.0
  0
POINT
  5
1FB
330
1EE
100
AcDbEntity
  8
Defpoints
 62
     0
100
AcDbPoint
 10
-71.59808349609375
 20
-17.07816314697265
 30
0.0
  0
LINE
  5
1FC
330
1EE
100
AcDbEntity
  8
0
  6
Continuous
 62
     7
100
AcDbLine
 10
-64.13808349609376
 20
-20.17816162109375
 30
0.0
 11
-72.59808349609375
 21
-20.17816162109375
 31
0.0
  0
LINE
  5
1FD
330
1EE
100
AcDbEntity
  8
0
  6
Continuous
 62
     7
100
AcDbLine
 10
-64.13808349609376
 20
-17.07816314697266
 30
0.0
 11
-72.59808349609375
 21
-17.07816314697266
 31
0.0
  0
LINE
  5
1FE
330
1EE
100
AcDbEntity
  8
0
  6
Continuous
 62
     7
100
AcDbLine
 10
-71.59808349609375
 20
-26.52816162109375
 30
0.0
 11
-71.59808349609375
 21
-10.72816314697266
 31
0.0
  0
LINE
  5
1FF
330
1EE
100
AcDbEntity
  8
0
  6
Continuous
 62
     7
100
AcDbLine
 10
-71.59808349609375
 20
-20.17816162109375
 30
0.0
 11
-70.77962581179375
 21
-23.23268728309937
 31
0.0
  0
LINE
  5
200
330
1EE
100
AcDbEntity
  8
0
  6
Continuous
 62
     7
100
AcDbLine
 10
-71.59808349609375
 20
-20.17816162109375
 30
0.0
 11
-72.41654118039375
 21
-23.23268728309937
 31
0.0
  0
LINE
  5
201
330
1EE
100
AcDbEntity
  8
0
  6
Continuous
 62
     7
100
AcDbLine
 10
-71.59808349609375
 20
-17.07816314697266
 30
0.0
 11
-72.41654118039375
 21
-14.02363748496703
 31
0.0
  0
LINE
  5
202
330
1EE
100
AcDbEntity
  8
0
  6
Continuous
 62
     7
100
AcDbLine
 10
-71.59808349609375
 20
-17.07816314697266
 30
0.0
 11
-70.77962581179375
 21
-14.02363748496703
 31
0.0
  0
ENDBLK
  5
1F0
330
1EE
100
AcDbEntity
  8
0
100
AcDbBlockEnd
  0
BLOCK
  5
205
330
204
100
AcDbEntity
  8
0
100
AcDbBlockBegin
  2
*D17
 70
     1
 10
0.0
 20
0.0
 30
0.0
  3
*D17
  1

  0
MTEXT
  5
20D
330
204
100
AcDbEntity
  8
0
 62
     1
100
AcDbMText
 10
-37.45607664716244
 20
-23.8449646447897
 30
0.0
 40
3.200000047683716
 41
0.0
 71
     5
 72
     1
  1
7
 11
0.0
 21
1.0
 31
0.0
 73
     1
 44
1.0
  0
POINT
  5
20E
330
204
100
AcDbEntity
  8
Defpoints
 62
     0
100
AcDbPoint
 10
-40.09384155273438
 20
-31.72816467285156
 30
0.0
  0
POINT
  5
20F
330
204
100
AcDbEntity
  8
Defpoints
 62
     0
100
AcDbPoint
 10
-40.09384155273438
 20
-35.22816467285156
 30
0.0
  0
POINT
  5
210
330
204
100
AcDbEntity
  8
Defpoints
 62
     0
100
AcDbPoint
 10
-35.05227661132812
 20
-35.22816467285156
 30
0.0
  0
LINE
  5
211
330
204
100
AcDbEntity
  8
0
  6
Continuous
 62
     7
100
AcDbLine
 10
-35.05227661132812
 20
-25.37816467285156
 30
0.0
 11
-35.05227661132812
 21
-41.57816467285156
 31
0.0
  0
LINE
  5
212
330
204
100
AcDbEntity
  8
0
  6
Continuous
 62
     7
100
AcDbLine
 10
-35.05227661132812
 20
-31.72816467285156
 30
0.0
 11
-35.87073429562813
 21
-28.67363901084594
 31
0.0
  0
LINE
  5
213
330
204
100
AcDbEntity
  8
0
  6
Continuous
 62
     7
100
AcDbLine
 10
-35.05227661132812
 20
-31.72816467285156
 30
0.0
 11
-34.23381892702812
 21
-28.67363901084594
 31
0.0
  0
LINE
  5
214
330
204
100
AcDbEntity
  8
0
  6
Continuous
 62
     7
100
AcDbLine
 10
-35.05227661132812
 20
-35.22816467285156
 30
0.0
 11
-34.23381892702812
 21
-38.28269033485719
 31
0.0
  0
LINE
  5
215
330
204
100
AcDbEntity
  8
0
  6
Continuous
 62
     7
100
AcDbLine
 10
-35.05227661132812
 20
-35.22816467285156
 30
0.0
 11
-35.87073429562813
 21
-38.28269033485719
 31
0.0
  0
LINE
  5
216
330
204
100
AcDbEntity
  8
0
  6
Continuous
 62
     7
100
AcDbLine
 10
-35.05227661132812
 20
-31.72816467285156
 30
0.0
 11
-35.05227661132812
 21
-25.18902206420898
 31
0.0
  0
ENDBLK
  5
206
330
204
100
AcDbEntity
  8
0
100
AcDbBlockEnd
  0
BLOCK
  5
219
330
218
100
AcDbEntity
  8
0
100
AcDbBlockBegin
  2
*D18
 70
     1
 10
0.0
 20
0.0
 30
0.0
  3
*D18
  1

  0
LINE
  5
21B
330
218
100
AcDbEntity
  8
0
 62
     0
370
    -2
100
AcDbLine
 10
17.15589503427758
 20
-46.22640515853794
 30
0.0
 11
21.07405394168459
 21
-55.92418924384265
 31
0.0
  0
ARC
  5
21C
330
218
100
AcDbEntity
  8
0
 62
     0
370
    -2
100
AcDbCircle
 10
6.651924133322727
 20
-20.22816357542741
 30
0.0
 40
37.49940182193822
100
AcDbArc
 50
274.5849587275662
 51
287.4150402792858
  0
INSERT
  5
21D
330
218
100
AcDbEntity
  8
0
 62
     0
370
    -2
100
AcDbBlockReference
  2
_OPEN30
 10
6.651924133337628
 20
-57.72756539736563
 30
0.0
 41
3.0
 42
3.0
 43
3.0
 50
182.2924793637945
  0
INSERT
  5
21E
330
218
100
AcDbEntity
  8
0
 62
     0
370
    -2
100
AcDbBlockReference
  2
_OPEN30
 10
20.69944670228693
 20
-54.99700374414205
 30
0.0
 41
3.0
 42
3.0
 43
3.0
 50
19.70751964305756
  0
MTEXT
  5
21F
330
218
100
AcDbEntity
  8
0
 62
     1
 60
     1
100
AcDbMText
 10
13.34843699467841
 20
-54.66817033818189
 30
0.0
 40
3.200000047683716
 41
0.0
 71
     5
 72
     1
  1
22°
 11
0.9816162180312482
 21
0.1908653989020252
 31
0.0
 73
     1
 44
1.0
  0
POINT
  5
220
330
218
100
AcDbEntity
  8
Defpoints
 62
     0
100
AcDbPoint
 10
6.651924133322727
 20
-20.22816357542741
 30
0.0
  0
POINT
  5
221
330
218
100
AcDbEntity
  8
Defpoints
 62
     0
100
AcDbPoint
 10
6.651924133338026
 20
-58.72817230224604
 30
0.0
  0
POINT
  5
222
330
218
100
AcDbEntity
  8
Defpoints
 62
     0
100
AcDbPoint
 10
16.20439432782378
 20
-43.87135815144489
 30
0.0
  0
POINT
  5
223
330
218
100
AcDbEntity
  8
Defpoints
 62
     0
100
AcDbPoint
 10
11.43840936077088
 20
-57.4208335007044
 30
0.0
  0
MTEXT
  5
224
330
218
100
AcDbEntity
  8
0
 62
     1
100
AcDbMText
 10
9.391548031785032
 20
-57.08253913017656
 30
0.0
 40
3.200000047683716
 41
0.0
 71
     7
 72
     1
  1
\W1;22°
 11
0.981627183447664
 21
0.1908089953765448
 31
0.0
 73
     1
 44
1.0
  0
ENDBLK
  5
21A
330
218
100
AcDbEntity
  8
0
100
AcDbBlockEnd
  0
BLOCK
  5
227
330
226
100
AcDbEntity
  8
0
100
AcDbBlockBegin
  2
_OPEN
 70
     0
 10
0.0
 20
0.0
 30
0.0
  3
_OPEN
  1

  0
LINE
  5
229
330
226
100
AcDbEntity
  8
0
  6
ByBlock
 62
     0
370
    -2
100
AcDbLine
 10
-1.0
 20
0.166667
 30
0.0
 11
0.0
 21
0.0
 31
0.0
  0
LINE
  5
22A
330
226
100
AcDbEntity
  8
0
  6
ByBlock
 62
     0
370
    -2
100
AcDbLine
 10
-1.0
 20
-0.166667
 30
0.0
 11
0.0
 21
0.0
 31
0.0
  0
LINE
  5
22B
330
226
100
AcDbEntity
  8
0
  6
ByBlock
 62
     0
370
    -2
100
AcDbLine
 10
0.0
 20
0.0
 30
0.0
 11
-1.0
 21
0.0
 31
0.0
  0
ENDBLK
  5
228
330
226
100
AcDbEntity
  8
0
100
AcDbBlockEnd
  0
BLOCK
  5
22D
330
22C
100
AcDbEntity
  8
0
100
AcDbBlockBegin
  2
*D20
 70
     1
 10
0.0
 20
0.0
 30
0.0
  3
*D20
  1

  0
LINE
  5
22F
330
22C
100
AcDbEntity
  8
0
 62
     0
370
    -2
100
AcDbLine
 10
-8.348069059731705
 20
-34.86815810651552
 30
0.0
 11
-8.348069059731706
 21
-60.01316467285157
 31
0.0
  0
LINE
  5
230
330
22C
100
AcDbEntity
  8
0
 62
     0
370
    -2
100
AcDbLine
 10
6.651923626661301
 20
-22.7681608581543
 30
0.0
 11
6.651923626661299
 21
-60.01316467285157
 31
0.0
  0
LINE
  5
231
330
22C
100
AcDbEntity
  8
0
 62
     0
370
    -2
100
AcDbLine
 10
-5.348069059731706
 20
-57.72716467285156
 30
0.0
 11
3.651923626661299
 21
-57.72716467285156
 31
0.0
  0
INSERT
  5
232
330
22C
100
AcDbEntity
  8
0
 62
     0
370
    -2
100
AcDbBlockReference
  2
_OPEN30
 10
-8.348069059731706
 20
-57.72716467285156
 30
0.0
 41
3.0
 42
3.0
 43
3.0
 50
180.0
  0
INSERT
  5
233
330
22C
100
AcDbEntity
  8
0
 62
     0
370
    -2
100
AcDbBlockReference
  2
_OPEN
 10
6.651923626661299
 20
-57.72716467285156
 30
0.0
 41
3.0
 42
3.0
 43
3.0
  0
MTEXT
  5
234
330
22C
100
AcDbEntity
  8
0
 62
     1
100
AcDbMText
 10
-0.847072716535202
 20
-55.3127646368742
 30
0.0
 40
3.200000047683716
 41
0.0
 71
     5
 72
     1
  1
30
 73
     1
 44
1.0
  0
POINT
  5
235
330
22C
100
AcDbEntity
  8
Defpoints
 62
     0
100
AcDbPoint
 10
-8.348069059731705
 20
-32.32815810651552
 30
0.0
  0
POINT
  5
236
330
22C
100
AcDbEntity
  8
Defpoints
 62
     0
100
AcDbPoint
 10
6.651923626661301
 20
-20.2281608581543
 30
0.0
  0
POINT
  5
237
330
22C
100
AcDbEntity
  8
Defpoints
 62
     0
100
AcDbPoint
 10
6.651923626661296
 20
-57.72816467285156
 30
0.0
  0
ENDBLK
  5
22E
330
22C
100
AcDbEntity
  8
0
100
AcDbBlockEnd
  0
ENDSEC
  0
SECTION
  2
ENTITIES
  0
POINT
  5
45
330
1F
100
AcDbEntity
  8
VIEW0001
 62
     7
100
AcDbPoint
 10
105.0
 20
-148.5
 30
0.0
  0
LWPOLYLINE
  5
46
330
1F
100
AcDbEntity
  8
VIEW0001
  6
Continuous
 62
     7
100
AcDbPolyline
 90
        2
 70
     0
 10
25.75
 20
-129.0
 40
0.001000000047497
 41
0.001000000047497
 10
25.75
 20
-120.0
 40
0.001000000047497
 41
0.001000000047497
  0
LWPOLYLINE
  5
47
330
1F
100
AcDbEntity
  8
VIEW0001
  6
Continuous
 62
     7
100
AcDbPolyline
 90
        2
 70
     0
 10
-64.5
 20
-138.0
 40
0.001000000047497
 41
0.001000000047497
 10
-64.5
 20
-120.0
 40
0.001000000047497
 41
0.001000000047497
  0
LINE
  5
48
330
1F
100
AcDbEntity
  8
VIEW0001
  6
Continuous
 62
     7
370
    50
100
AcDbLine
 10
-84.5
 20
138.0
 30
0.0
 11
-84.5
 21
-138.0
 31
0.0
  0
LINE
  5
49
330
1F
100
AcDbEntity
  8
VIEW0001
  6
Continuous
 62
     7
370
    50
100
AcDbLine
 10
96.0
 20
138.0
 30
0.0
 11
96.0
 21
-138.0
 31
0.0
  0
LINE
  5
4A
330
1F
100
AcDbEntity
  8
VIEW0001
  6
Continuous
 62
     7
370
    50
100
AcDbLine
 10
-84.5
 20
-138.0
 30
0.0
 11
96.0
 21
-138.0
 31
0.0
  0
LINE
  5
4B
330
1F
100
AcDbEntity
  8
VIEW0001
  6
Continuous
 62
     7
370
    50
100
AcDbLine
 10
-84.5
 20
138.0
 30
0.0
 11
96.0
 21
138.0
 31
0.0
  0
LINE
  5
4C
330
1F
100
AcDbEntity
  8
VIEW0001
  6
Continuous
 62
     7
370
    20
100
AcDbLine
 10
-84.5
 20
-120.0
 30
0.0
 11
96.0
 21
-120.0
 31
0.0
  0
LWPOLYLINE
  5
4D
330
1F
100
AcDbEntity
  8
VIEW0001
  6
Continuous
 62
     7
100
AcDbPolyline
 90
        2
 70
     0
 10
96.0
 20
-129.0
 40
0.001000000047497
 41
0.001000000047497
 10
-84.5
 20
-129.0
 40
0.001000000047497
 41
0.001000000047497
  0
LINE
  5
4E
330
1F
100
AcDbEntity
  8
VIEW0001
  6
Continuous
 62
     7
370
    20
100
AcDbLine
 10
41.0
 20
128.0
 30
0.0
 11
96.0
 21
128.0
 31
0.0
  0
LINE
  5
4F
330
1F
100
AcDbEntity
  8
VIEW0001
  6
Continuous
 62
     7
370
    20
100
AcDbLine
 10
41.0
 20
138.0
 30
0.0
 11
41.0
 21
128.0
 31
0.0
  0
LWPOLYLINE
  5
50
330
1F
100
AcDbEntity
  8
VIEW0001
  6
Continuous
 62
     7
100
AcDbPolyline
 90
        2
 70
     0
 10
5.75
 20
-138.0
 40
0.001000000047497
 41
0.001000000047497
 10
5.75
 20
-120.0
 40
0.001000000047497
 41
0.001000000047497
  0
LWPOLYLINE
  5
51
330
1F
100
AcDbEntity
  8
VIEW0001
  6
Continuous
 62
     7
100
AcDbPolyline
 90
        2
 70
     0
 10
66.0
 20
-129.0
 40
0.001000000047497
 41
0.001000000047497
 10
66.0
 20
-120.0
 40
0.001000000047497
 41
0.001000000047497
  0
LWPOLYLINE
  5
52
330
1F
100
AcDbEntity
  8
VIEW0001
  6
Continuous
 62
     7
100
AcDbPolyline
 90
        2
 70
     0
 10
81.0
 20
-129.0
 40
0.001000000047497
 41
0.001000000047497
 10
81.0
 20
-120.0
 40
0.001000000047497
 41
0.001000000047497
  0
MTEXT
  5
53
330
1F
100
AcDbEntity
  8
VIEW0001
 62
     1
100
AcDbMText
 10
-77.92875003814697
 20
-135.5
 30
0.0
 40
4.0
 41
0.0
 71
     7
 72
     1
  1
{\W0.833333;規格}
 73
     1
 44
1.0
  0
MTEXT
  5
54
330
1F
100
AcDbEntity
  8
VIEW0001
 62
     1
100
AcDbMText
 10
12.32124996185303
 20
-126.5
 30
0.0
 40
4.0
 41
0.0
 71
     7
 72
     1
  1
{\W0.833333;材質}
 73
     1
 44
1.0
  0
MTEXT
  5
55
330
1F
100
AcDbEntity
  8
VIEW0001
 62
     1
100
AcDbMText
 10
-77.92875003814697
 20
-126.5
 30
0.0
 40
4.0
 41
0.0
 71
     7
 72
     1
  1
{\W0.833333;品名}
 73
     1
 44
1.0
  0
MTEXT
  5
56
330
1F
100
AcDbEntity
  8
VIEW0001
 62
     1
100
AcDbMText
 10
70.07124996185303
 20
-126.5
 30
0.0
 40
4.0
 41
0.0
 71
     7
 72
     1
  1
{\W0.833333;尺度}
 73
     1
 44
1.0
  0
MTEXT
  5
57
330
1F
100
AcDbEntity
  8
VIEW0001
 62
     1
100
AcDbMText
 10
-52.80375277996063
 20
-126.5
 30
0.0
 40
4.0
 41
0.0
 71
     7
 72
     1
  1
{\W0.833333;ステン打ち吊り面打ち4寸}
 73
     1
 44
1.0
  0
MTEXT
  5
58
330
1F
100
AcDbEntity
  8
VIEW0001
 62
     1
100
AcDbMText
 10
-50.80375063419342
 20
-135.5
 30
0.0
 40
4.0
 41
0.0
 71
     7
 72
     1
  1
{\W0.833333;DL55-10(30）}
 73
     1
 44
1.0
  0
MTEXT
  5
59
330
1F
100
AcDbEntity
  8
VIEW0001
 62
     1
100
AcDbMText
 10
26.46785604953766
 20
-135.75
 30
0.0
 40
4.5
 41
0.0
 71
     7
 72
     1
  1
{\W1.40741;デンカ株式会社}
 73
     1
 44
1.0
  0
MTEXT
  5
5A
330
1F
100
AcDbEntity
  8
VIEW0001
 62
     1
100
AcDbMText
 10
83.07124984264374
 20
-126.5
 30
0.0
 40
4.0
 41
0.0
 71
     7
 72
     1
  1
{\W0.833333;1/2}
 73
     1
 44
1.0
  0
MTEXT
  5
5B
330
1F
100
AcDbEntity
  8
VIEW0001
 62
     1
100
AcDbMText
 10
34.4462496638298
 20
-126.5
 30
0.0
 40
4.0
 41
0.0
 71
     7
 72
     1
  1
{\W0.833333;SUS304}
 73
     1
 44
1.0
  0
LINE
  5
5D
330
1F
100
AcDbEntity
  8
VIEW0002
  6
Continuous
 62
     7
100
AcDbLine
 10
39.81381864430809
 20
-34.33252379820059
 30
0.0
 11
54.18516804862632
 21
-28.52612202799469
 31
0.0
  0
LINE
  5
5E
330
1F
100
AcDbEntity
  8
VIEW0002
  6
Continuous
 62
     7
100
AcDbLine
 10
32.32168709742778
 20
-15.7888465769955
 30
0.0
 11
42.5207100112063
 21
-11.668174047585
 31
0.0
  0
LINE
  5
5F
330
1F
100
AcDbEntity
  8
VIEW0002
  6
Continuous
 62
     7
100
AcDbLine
 10
41.38755681264303
 20
-6.194056591662221
 30
0.0
 11
44.63270032635393
 21
-4.882933570958167
 31
0.0
  0
LINE
  5
60
330
1F
100
AcDbEntity
  8
VIEW0002
  6
Continuous
 62
     7
100
AcDbLine
 10
44.63270032635394
 20
-4.882933570958137
 30
0.0
 11
45.62221020200397
 21
-7.332056577733066
 31
0.0
  0
LINE
  5
61
330
1F
100
AcDbEntity
  8
VIEW0002
  6
Continuous
 62
     7
100
AcDbLine
 10
40.83498041315823
 20
-7.495846672813785
 30
0.0
 11
50.01284155808661
 21
-30.21185126879003
 31
0.0
  0
LINE
  5
62
330
1F
100
AcDbEntity
  8
VIEW0002
  6
Continuous
 62
     7
100
AcDbLine
 10
32.32168709742778
 20
-15.78884657699546
 30
0.0
 11
39.81381864430809
 21
-34.33252379820056
 31
0.0
  0
LINE
  5
63
330
1F
100
AcDbEntity
  8
VIEW0002
  6
Continuous
 62
     7
100
AcDbLine
 10
47.50074120647677
 20
-15.31841829903594
 30
0.0
 11
48.6597210328021
 21
-14.85016007735592
 31
0.0
  0
LINE
  5
64
330
1F
100
AcDbEntity
  8
VIEW0002
  6
Continuous
 62
     7
100
AcDbLine
 10
46.94816392276054
 20
-16.62020873744019
 30
0.0
 11
47.41642214444056
 21
-17.7791885637655
 31
0.0
  0
LINE
  5
65
330
1F
100
AcDbEntity
  8
VIEW0002
  6
Continuous
 62
     7
100
AcDbLine
 10
46.48457199223041
 20
-16.80751202611218
 30
0.0
 11
46.95283021391043
 21
-17.9664918524375
 31
0.0
  0
LINE
  5
66
330
1F
100
AcDbEntity
  8
VIEW0002
  6
Continuous
 62
     7
100
AcDbLine
 10
47.31343791780476
 20
-14.85482636850582
 30
0.0
 11
48.47241774413008
 21
-14.3865681468258
 31
0.0
  0
LINE
  5
67
330
1F
100
AcDbEntity
  8
VIEW0002
  6
Continuous
 62
     7
100
AcDbLine
 10
47.42108843559045
 20
-19.12547167876282
 30
0.0
 11
46.95283021391043
 21
-17.9664918524375
 31
0.0
  0
LINE
  5
68
330
1F
100
AcDbEntity
  8
VIEW0002
  6
Continuous
 62
     7
100
AcDbLine
 10
47.88468036612058
 20
-18.93816839009083
 30
0.0
 11
47.41642214444056
 21
-17.7791885637655
 31
0.0
  0
LINE
  5
69
330
1F
100
AcDbEntity
  8
VIEW0002
  6
Continuous
 62
     7
100
AcDbLine
 10
49.18647080452484
 20
-19.4907456738071
 30
0.0
 11
50.34545063085016
 21
-19.02248745212708
 31
0.0
  0
LINE
  5
6A
330
1F
100
AcDbEntity
  8
VIEW0002
  6
Continuous
 62
     7
100
AcDbLine
 10
49.37377409319687
 20
-19.95433760433723
 30
0.0
 11
50.53275391952219
 21
-19.48607938265721
 31
0.0
  0
LINE
  5
6B
330
1F
100
AcDbEntity
  8
VIEW0002
  6
CENTER
 62
     7
100
AcDbLine
 10
37.61783376211525
 20
-16.88466874075453
 30
0.0
 11
34.8362826210502
 21
-18.00848829416024
 31
0.0
  0
LINE
  5
6C
330
1F
100
AcDbEntity
  8
VIEW0002
  6
CENTER
 62
     7
100
AcDbLine
 10
35.66514854662457
 20
-16.05580263655379
 30
0.0
 11
36.78896827865662
 21
-18.83735421973455
 31
0.0
  0
LINE
  5
6D
330
1F
100
AcDbEntity
  8
VIEW0002
  6
CENTER
 62
     7
100
AcDbLine
 10
41.16726366458362
 20
-23.00034919083227
 30
0.0
 11
37.45852866245832
 21
-24.498775321582
 31
0.0
  0
LINE
  5
6E
330
1F
100
AcDbEntity
  8
VIEW0002
  6
CENTER
 62
     7
100
AcDbLine
 10
38.56368278777508
 20
-21.89519462339977
 30
0.0
 11
40.06210909715114
 21
-25.6039300676408
 31
0.0
  0
LINE
  5
6F
330
1F
100
AcDbEntity
  8
VIEW0002
  6
CENTER
 62
     7
100
AcDbLine
 10
42.86232584493148
 20
-29.86524279559807
 30
0.0
 11
40.08077470386642
 21
-30.98906234900378
 31
0.0
  0
LINE
  5
70
330
1F
100
AcDbEntity
  8
VIEW0002
  6
CENTER
 62
     7
100
AcDbLine
 10
40.90964062944079
 20
-29.03637669139735
 30
0.0
 11
42.03346036147283
 21
-31.81792827457812
 31
0.0
  0
LINE
  5
71
330
1F
100
AcDbEntity
  8
VIEW0002
  6
DASHED
 62
     7
100
AcDbLine
 10
41.39128843079266
 20
-7.271083655264327
 30
0.0
 11
50.56914957572104
 21
-29.9870882512406
 31
0.0
  0
LINE
  5
72
330
1F
100
AcDbEntity
  8
VIEW0002
  6
DASHED
 62
     7
100
AcDbLine
 10
41.6123173294238
 20
-6.750358419676616
 30
0.0
 11
44.85746084313469
 21
-5.439235398972562
 31
0.0
  0
LINE
  5
73
330
1F
100
AcDbEntity
  8
VIEW0002
  6
Continuous
 62
     7
100
AcDbLine
 10
68.55651789506028
 20
-22.71972007916245
 30
0.0
 11
54.18516804862632
 21
-28.52612202799469
 31
0.0
  0
LINE
  5
74
330
1F
100
AcDbEntity
  8
VIEW0002
  6
Continuous
 62
     7
100
AcDbLine
 10
61.06438634817997
 20
-4.176042857957363
 30
0.0
 11
50.86536387651716
 21
-8.296715208741531
 31
0.0
  0
LINE
  5
75
330
1F
100
AcDbEntity
  8
VIEW0002
  6
Continuous
 62
     7
100
AcDbLine
 10
47.87784384006481
 20
-3.571810550254114
 30
0.0
 11
44.63270032635393
 21
-4.882933570958167
 31
0.0
  0
LINE
  5
76
330
1F
100
AcDbEntity
  8
VIEW0002
  6
Continuous
 62
     7
100
AcDbLine
 10
49.17963427846911
 20
-4.124387833970331
 30
0.0
 11
58.35749542339748
 21
-26.84039242994658
 31
0.0
  0
LINE
  5
77
330
1F
100
AcDbEntity
  8
VIEW0002
  6
Continuous
 62
     7
100
AcDbLine
 10
61.06438634818001
 20
-4.176042857957317
 30
0.0
 11
68.55651789506032
 21
-22.71972007916243
 31
0.0
  0
LINE
  5
78
330
1F
100
AcDbEntity
  8
VIEW0002
  6
Continuous
 62
     7
100
AcDbLine
 10
49.8187008591274
 20
-14.3819018556759
 30
0.0
 11
48.6597210328021
 21
-14.85016007735592
 31
0.0
  0
LINE
  5
79
330
1F
100
AcDbEntity
  8
VIEW0002
  6
Continuous
 62
     7
100
AcDbLine
 10
51.12049129753171
 20
-14.93447913939211
 30
0.0
 11
51.58874951921173
 21
-16.09345896571743
 31
0.0
  0
LINE
  5
7A
330
1F
100
AcDbEntity
  8
VIEW0002
  6
Continuous
 62
     7
100
AcDbLine
 10
51.58408322806184
 20
-14.7471758507201
 30
0.0
 11
52.05234144974185
 21
-15.90615567704542
 31
0.0
  0
LINE
  5
7B
330
1F
100
AcDbEntity
  8
VIEW0002
  6
Continuous
 62
     7
100
AcDbLine
 10
49.63139757045541
 20
-13.91830992514578
 30
0.0
 11
48.47241774413008
 21
-14.3865681468258
 31
0.0
  0
LINE
  5
7C
330
1F
100
AcDbEntity
  8
VIEW0002
  6
Continuous
 62
     7
100
AcDbLine
 10
52.52059967142187
 20
-17.06513550337073
 30
0.0
 11
52.05234144974185
 21
-15.90615567704542
 31
0.0
  0
LINE
  5
7D
330
1F
100
AcDbEntity
  8
VIEW0002
  6
Continuous
 62
     7
100
AcDbLine
 10
52.05700774089175
 20
-17.25243879204276
 30
0.0
 11
51.58874951921173
 21
-16.09345896571743
 31
0.0
  0
LINE
  5
7E
330
1F
100
AcDbEntity
  8
VIEW0002
  6
Continuous
 62
     7
100
AcDbLine
 10
51.50443045717548
 20
-18.55422923044706
 30
0.0
 11
50.34545063085016
 21
-19.02248745212708
 31
0.0
  0
LINE
  5
7F
330
1F
100
AcDbEntity
  8
VIEW0002
  6
Continuous
 62
     7
100
AcDbLine
 10
51.6917337458475
 20
-19.01782116097719
 30
0.0
 11
50.53275391952219
 21
-19.48607938265721
 31
0.0
  0
LINE
  5
80
330
1F
100
AcDbEntity
  8
VIEW0002
  6
CENTER
 62
     7
100
AcDbLine
 10
58.01587870544086
 20
-8.64332403918619
 30
0.0
 11
60.79743028862163
 21
-7.519504307154147
 31
0.0
  0
LINE
  5
81
330
1F
100
AcDbEntity
  8
VIEW0002
  6
CENTER
 62
     7
100
AcDbLine
 10
58.84474463101526
 20
-6.690638381579738
 30
0.0
 11
59.96856436304731
 21
-9.472189964760513
 31
0.0
  0
LINE
  5
82
330
1F
100
AcDbEntity
  8
VIEW0002
  6
CENTER
 62
     7
100
AcDbLine
 10
59.71094088578874
 20
-15.50821764395196
 30
0.0
 11
63.41967633002975
 21
-14.0097913345759
 31
0.0
  0
LINE
  5
83
330
1F
100
AcDbEntity
  8
VIEW0002
  6
CENTER
 62
     7
100
AcDbLine
 10
60.81609545322121
 20
-12.90463676714339
 30
0.0
 11
62.31452176259727
 21
-16.61337221138441
 31
0.0
  0
LINE
  5
84
330
1F
100
AcDbEntity
  8
VIEW0002
  6
CENTER
 62
     7
100
AcDbLine
 10
63.26037078825708
 20
-21.62389809402974
 30
0.0
 11
66.04192237143786
 21
-20.50007836199769
 31
0.0
  0
LINE
  5
85
330
1F
100
AcDbEntity
  8
VIEW0002
  6
CENTER
 62
     7
100
AcDbLine
 10
64.08923671383148
 20
-19.67121243642332
 30
0.0
 11
65.21305644586353
 21
-22.45276401960408
 31
0.0
  0
LINE
  5
86
330
1F
100
AcDbEntity
  8
VIEW0002
  6
DASHED
 62
     7
100
AcDbLine
 10
48.62332537660326
 20
-4.349151208772465
 30
0.0
 11
57.80118652153163
 21
-27.06515580474872
 31
0.0
  0
LINE
  5
87
330
1F
100
AcDbEntity
  8
VIEW0002
  6
DASHED
 62
     7
100
AcDbLine
 10
48.10260435684558
 20
-4.128112378268508
 30
0.0
 11
44.85746084313469
 21
-5.439235398972562
 31
0.0
  0
LINE
  5
88
330
1F
100
AcDbEntity
  8
VIEW0002
  6
CENTER
 62
     7
100
AcDbLine
 10
47.99566834095221
 20
-13.20657190775622
 30
0.0
 11
50.92212503527684
 21
-20.44980676045812
 31
0.0
  0
LINE
  5
89
330
1F
100
AcDbEntity
  8
VIEW0002
  6
CENTER
 62
     7
100
AcDbLine
 10
46.43095682104452
 20
-18.17734237919805
 30
0.0
 11
52.5547900464463
 21
-15.70315327697398
 31
0.0
  0
LINE
  5
8A
330
1F
100
AcDbEntity
  8
VIEW0002
  6
Continuous
 62
     7
100
AcDbLine
 10
-61.59808349609375
 20
46.32368850708008
 30
0.0
 11
-60.99807739257812
 21
46.32368850708008
 31
0.0
  0
LINE
  5
8B
330
1F
100
AcDbEntity
  8
VIEW0002
  6
DASHED
 62
     7
100
AcDbLine
 10
-55.59808349609375
 20
48.92369079589844
 30
0.0
 11
-55.59808349609375
 21
48.32369232177734
 31
0.0
  0
LINE
  5
8C
330
1F
100
AcDbEntity
  8
VIEW0002
  6
Continuous
 62
     7
100
AcDbLine
 10
-61.59808349609375
 20
52.82369232177734
 30
0.0
 11
-61.59808349609375
 21
46.32369232177734
 31
0.0
  0
LINE
  5
8D
330
1F
100
AcDbEntity
  8
VIEW0002
  6
Continuous
 62
     7
100
AcDbLine
 10
-60.99807739257812
 20
52.82369232177734
 30
0.0
 11
-60.99807739257812
 21
46.32369232177734
 31
0.0
  0
LINE
  5
8E
330
1F
100
AcDbEntity
  8
VIEW0002
  6
Continuous
 62
     7
100
AcDbLine
 10
-55.59808029638108
 20
48.32367820407308
 30
0.0
 11
-60.99807730013214
 21
46.32367987949124
 31
0.0
  0
LINE
  5
8F
330
1F
100
AcDbEntity
  8
VIEW0002
  6
DASHED
 62
     7
100
AcDbLine
 10
-55.59808349609375
 20
48.9236946105957
 30
0.0
 11
16.20439434051514
 21
48.9236946105957
 31
0.0
  0
LINE
  5
90
330
1F
100
AcDbEntity
  8
VIEW0002
  6
Continuous
 62
     7
100
AcDbLine
 10
-55.59808349609375
 20
57.32368850708008
 30
0.0
 11
15.70439434051514
 21
57.32368850708008
 31
0.0
  0
LINE
  5
91
330
1F
100
AcDbEntity
  8
VIEW0002
  6
Continuous
 62
     7
100
AcDbLine
 10
-61.59808349609375
 20
59.32368850708008
 30
0.0
 11
-60.99807739257812
 21
59.32368850708008
 31
0.0
  0
LINE
  5
92
330
1F
100
AcDbEntity
  8
VIEW0002
  6
DASHED
 62
     7
100
AcDbLine
 10
-55.59808349609375
 20
56.72369384765625
 30
0.0
 11
-55.59808349609375
 21
57.32369232177734
 31
0.0
  0
LINE
  5
93
330
1F
100
AcDbEntity
  8
VIEW0002
  6
Continuous
 62
     7
100
AcDbLine
 10
-61.59808349609375
 20
52.82369232177734
 30
0.0
 11
-61.59808349609375
 21
59.32369232177734
 31
0.0
  0
LINE
  5
94
330
1F
100
AcDbEntity
  8
VIEW0002
  6
Continuous
 62
     7
100
AcDbLine
 10
-60.99807739257812
 20
52.82369232177734
 30
0.0
 11
-60.99807739257812
 21
59.32369232177734
 31
0.0
  0
LINE
  5
95
330
1F
100
AcDbEntity
  8
VIEW0002
  6
Continuous
 62
     7
100
AcDbLine
 10
-55.5980783883373
 20
57.32370802502559
 30
0.0
 11
-60.99807539208834
 21
59.32370634960743
 31
0.0
  0
LINE
  5
96
330
1F
100
AcDbEntity
  8
VIEW0002
  6
Continuous
 62
     7
100
AcDbLine
 10
5.510806381702423
 20
57.9236946105957
 30
0.0
 11
7.755938768386841
 21
57.9236946105957
 31
0.0
  0
LINE
  5
97
330
1F
100
AcDbEntity
  8
VIEW0002
  6
DASHED
 62
     7
100
AcDbLine
 10
-55.59808349609375
 20
56.72369766235352
 30
0.0
 11
16.20439434051514
 21
56.72369766235352
 31
0.0
  0
LINE
  5
98
330
1F
100
AcDbEntity
  8
VIEW0002
  6
Continuous
 62
     7
100
AcDbLine
 10
-17.44808387756348
 20
56.72369384765625
 30
0.0
 11
-17.44808387756348
 21
48.92369079589844
 31
0.0
  0
LINE
  5
99
330
1F
100
AcDbEntity
  8
VIEW0002
  6
Continuous
 62
     7
100
AcDbLine
 10
-42.19808959960938
 20
56.72369384765625
 30
0.0
 11
-42.19808959960938
 21
48.92369079589844
 31
0.0
  0
LINE
  5
9A
330
1F
100
AcDbEntity
  8
VIEW0002
  6
Continuous
 62
     7
100
AcDbLine
 10
-46.59808349609375
 20
57.32369232177734
 30
0.0
 11
-46.59808349609375
 21
48.92369079589844
 31
0.0
  0
LINE
  5
9B
330
1F
100
AcDbEntity
  8
VIEW0002
  6
Continuous
 62
     7
100
AcDbLine
 10
-19.84808540344238
 20
56.72369384765625
 30
0.0
 11
-19.84808540344238
 21
48.92369079589844
 31
0.0
  0
LINE
  5
9C
330
1F
100
AcDbEntity
  8
VIEW0002
  6
CENTER
 62
     7
100
AcDbLine
 10
-23.97844886779785
 20
52.82368850708008
 30
0.0
 11
-27.97844886779785
 21
52.82368850708008
 31
0.0
  0
LINE
  5
9D
330
1F
100
AcDbEntity
  8
VIEW0002
  6
CENTER
 62
     7
100
AcDbLine
 10
-25.97844886779785
 20
54.82369232177734
 30
0.0
 11
-25.97844886779785
 21
50.82369232177734
 31
0.0
  0
LINE
  5
9E
330
1F
100
AcDbEntity
  8
VIEW0002
  6
CENTER
 62
     7
100
AcDbLine
 10
-6.508625148192605
 20
52.82368850708008
 30
0.0
 11
-10.50862562502976
 21
52.82368850708008
 31
0.0
  0
LINE
  5
9F
330
1F
100
AcDbEntity
  8
VIEW0002
  6
CENTER
 62
     7
100
AcDbLine
 10
-8.508625625029763
 20
54.82369232177734
 30
0.0
 11
-8.508625625029763
 21
50.82369232177734
 31
0.0
  0
LINE
  5
A0
330
1F
100
AcDbEntity
  8
VIEW0002
  6
Continuous
 62
     7
100
AcDbLine
 10
8.155940294265747
 20
68.32369232177734
 30
0.0
 11
16.20439434051514
 21
68.32369232177734
 31
0.0
  0
LINE
  5
A1
330
1F
100
AcDbEntity
  8
VIEW0002
  6
Continuous
 62
     7
100
AcDbLine
 10
16.20439434051514
 20
68.32369232177734
 30
0.0
 11
16.20439434051514
 21
58.32368850708008
 31
0.0
  0
LINE
  5
A2
330
1F
100
AcDbEntity
  8
VIEW0002
  6
Continuous
 62
     7
100
AcDbLine
 10
8.712260484695435
 20
68.32369232177734
 30
0.0
 11
8.712260484695435
 21
58.32368850708008
 31
0.0
  0
LINE
  5
A3
330
1F
100
AcDbEntity
  8
VIEW0002
  6
Continuous
 62
     7
100
AcDbLine
 10
8.155940294265747
 20
68.32369232177734
 30
0.0
 11
8.155940294265747
 21
58.32369613647461
 31
0.0
  0
LINE
  5
A4
330
1F
100
AcDbEntity
  8
VIEW0002
  6
Continuous
 62
     7
100
AcDbLine
 10
3.651922464370728
 20
52.82368850708008
 30
0.0
 11
8.151922464370728
 21
52.82368850708008
 31
0.0
  0
LINE
  5
A5
330
1F
100
AcDbEntity
  8
VIEW0002
  6
Continuous
 62
     7
100
AcDbLine
 10
16.20439434051514
 20
56.82368850708008
 30
0.0
 11
16.20439434051514
 21
52.82368850708008
 31
0.0
  0
LINE
  5
A6
330
1F
100
AcDbEntity
  8
VIEW0002
  6
Continuous
 62
     7
100
AcDbLine
 10
-55.59808349609375
 20
48.32368850708008
 30
0.0
 11
15.70439434051514
 21
48.32368850708008
 31
0.0
  0
LINE
  5
A7
330
1F
100
AcDbEntity
  8
VIEW0002
  6
Continuous
 62
     7
100
AcDbLine
 10
5.510806381702423
 20
47.72368240356445
 30
0.0
 11
7.755938768386841
 21
47.72368240356445
 31
0.0
  0
LINE
  5
A8
330
1F
100
AcDbEntity
  8
VIEW0002
  6
Continuous
 62
     7
100
AcDbLine
 10
8.155940294265747
 20
37.32368469238281
 30
0.0
 11
8.155940294265747
 21
47.32368087768555
 31
0.0
  0
LINE
  5
A9
330
1F
100
AcDbEntity
  8
VIEW0002
  6
Continuous
 62
     7
100
AcDbLine
 10
8.712260484695435
 20
37.32368469238281
 30
0.0
 11
8.712260484695435
 21
47.32368850708008
 31
0.0
  0
LINE
  5
AA
330
1F
100
AcDbEntity
  8
VIEW0002
  6
Continuous
 62
     7
100
AcDbLine
 10
16.20439434051514
 20
37.32368469238281
 30
0.0
 11
16.20439434051514
 21
47.32368850708008
 31
0.0
  0
LINE
  5
AB
330
1F
100
AcDbEntity
  8
VIEW0002
  6
Continuous
 62
     7
100
AcDbLine
 10
16.20439434051514
 20
48.82368850708008
 30
0.0
 11
16.20439434051514
 21
52.82368850708008
 31
0.0
  0
LINE
  5
AC
330
1F
100
AcDbEntity
  8
VIEW0002
  6
Continuous
 62
     7
100
AcDbLine
 10
8.155940294265747
 20
37.32368469238281
 30
0.0
 11
16.20439434051514
 21
37.32368469238281
 31
0.0
  0
LINE
  5
AD
330
1F
100
AcDbEntity
  8
VIEW0002
  6
Continuous
 62
     7
100
AcDbLine
 10
6.651922523975372
 20
56.72369766235352
 30
0.0
 11
6.651922523975372
 21
54.82368850708008
 31
0.0
  0
LINE
  5
AE
330
1F
100
AcDbEntity
  8
VIEW0002
  6
Continuous
 62
     7
100
AcDbLine
 10
6.890131908582738
 20
54.50607529151596
 30
0.0
 11
7.915243314036601
 21
53.13926011818936
 31
0.0
  0
LINE
  5
AF
330
1F
100
AcDbEntity
  8
VIEW0002
  6
Continuous
 62
     7
100
AcDbLine
 10
6.32163124561432
 20
54.60349383963671
 30
0.0
 11
4.103841890639178
 21
53.12496765594437
 31
0.0
  0
LINE
  5
B0
330
1F
100
AcDbEntity
  8
VIEW0002
  6
CENTER
 62
     7
100
AcDbLine
 10
10.95439481735229
 20
65.32368850708008
 30
0.0
 11
8.454394578933716
 21
65.32368850708008
 31
0.0
  0
LINE
  5
B1
330
1F
100
AcDbEntity
  8
VIEW0002
  6
CENTER
 62
     7
100
AcDbLine
 10
9.704394817352295
 20
66.57368850708008
 30
0.0
 11
9.704394817352295
 21
64.07368850708008
 31
0.0
  0
LINE
  5
B2
330
1F
100
AcDbEntity
  8
VIEW0002
  6
CENTER
 62
     7
100
AcDbLine
 10
13.45439434051514
 20
64.82368850708008
 30
0.0
 11
10.95439481735229
 21
64.82368850708008
 31
0.0
  0
LINE
  5
B3
330
1F
100
AcDbEntity
  8
VIEW0002
  6
CENTER
 62
     7
100
AcDbLine
 10
12.20439481735229
 20
66.07368850708008
 30
0.0
 11
12.20439481735229
 21
63.57368850708008
 31
0.0
  0
LINE
  5
B4
330
1F
100
AcDbEntity
  8
VIEW0002
  6
CENTER
 62
     7
100
AcDbLine
 10
16.20439434051514
 20
65.32368850708008
 30
0.0
 11
13.70439434051514
 21
65.32368850708008
 31
0.0
  0
LINE
  5
B5
330
1F
100
AcDbEntity
  8
VIEW0002
  6
CENTER
 62
     7
100
AcDbLine
 10
14.95439434051514
 20
66.57368850708008
 30
0.0
 11
14.95439434051514
 21
64.07368850708008
 31
0.0
  0
LINE
  5
B6
330
1F
100
AcDbEntity
  8
VIEW0002
  6
Continuous
 62
     7
100
AcDbLine
 10
6.890129663244512
 20
51.14130229484878
 30
0.0
 11
7.915241068698375
 21
52.50811746817538
 31
0.0
  0
LINE
  5
B7
330
1F
100
AcDbEntity
  8
VIEW0002
  6
Continuous
 62
     7
100
AcDbLine
 10
6.321631185318211
 20
51.04388782003288
 30
0.0
 11
4.103841830343068
 21
52.52241400372522
 31
0.0
  0
LINE
  5
B8
330
1F
100
AcDbEntity
  8
VIEW0002
  6
Continuous
 62
     7
100
AcDbLine
 10
6.651922523975372
 20
48.92367935180664
 30
0.0
 11
6.651922523975372
 21
50.82368850708008
 31
0.0
  0
LINE
  5
B9
330
1F
100
AcDbEntity
  8
VIEW0002
  6
CENTER
 62
     7
100
AcDbLine
 10
9.704394817352295
 20
39.07368850708008
 30
0.0
 11
9.704394817352295
 21
41.57368850708008
 31
0.0
  0
LINE
  5
BA
330
1F
100
AcDbEntity
  8
VIEW0002
  6
CENTER
 62
     7
100
AcDbLine
 10
10.95439481735229
 20
40.32368850708008
 30
0.0
 11
8.454394578933716
 21
40.32368850708008
 31
0.0
  0
LINE
  5
BB
330
1F
100
AcDbEntity
  8
VIEW0002
  6
CENTER
 62
     7
100
AcDbLine
 10
12.20439481735229
 20
39.57368850708008
 30
0.0
 11
12.20439481735229
 21
42.07368850708008
 31
0.0
  0
LINE
  5
BC
330
1F
100
AcDbEntity
  8
VIEW0002
  6
CENTER
 62
     7
100
AcDbLine
 10
13.45439434051514
 20
40.82368850708008
 30
0.0
 11
10.95439481735229
 21
40.82368850708008
 31
0.0
  0
LINE
  5
BD
330
1F
100
AcDbEntity
  8
VIEW0002
  6
CENTER
 62
     7
100
AcDbLine
 10
16.20439434051514
 20
40.32368850708008
 30
0.0
 11
13.70439434051514
 21
40.32368850708008
 31
0.0
  0
LINE
  5
BE
330
1F
100
AcDbEntity
  8
VIEW0002
  6
CENTER
 62
     7
100
AcDbLine
 10
14.95439434051514
 20
39.07368850708008
 30
0.0
 11
14.95439434051514
 21
41.57368850708008
 31
0.0
  0
LINE
  5
BF
330
1F
100
AcDbEntity
  8
VIEW0002
  6
Continuous
 62
     7
100
AcDbLine
 10
-5.68322948904979
 20
-38.31348687745053
 30
0.0
 11
-8.348065956577875
 21
-32.32816507631443
 31
0.0
  0
LINE
  5
C0
330
1F
100
AcDbEntity
  8
VIEW0002
  6
Continuous
 62
     7
100
AcDbLine
 10
-5.135106694933359
 20
-38.06943857982105
 30
0.0
 11
-7.799943162461442
 21
-32.08411677868497
 31
0.0
  0
LINE
  5
C1
330
1F
100
AcDbEntity
  8
VIEW0002
  6
Continuous
 62
     7
100
AcDbLine
 10
-8.34807602953062
 20
-32.32816120966937
 30
0.0
 11
-7.799943162461414
 21
-32.08411677868498
 31
0.0
  0
LINE
  5
C2
330
1F
100
AcDbEntity
  8
VIEW0002
  6
Continuous
 62
     7
100
AcDbLine
 10
-40.09384155273438
 20
-31.72816467285156
 30
0.0
 11
-22.15291595458984
 21
-31.72816467285156
 31
0.0
  0
LINE
  5
C3
330
1F
100
AcDbEntity
  8
VIEW0002
  6
Continuous
 62
     7
100
AcDbLine
 10
-61.59808349609375
 20
-17.07816314697266
 30
0.0
 11
-61.59808349609375
 21
-19.17816162109375
 31
0.0
  0
LINE
  5
C4
330
1F
100
AcDbEntity
  8
VIEW0002
  6
Continuous
 62
     7
100
AcDbLine
 10
-61.59808349609375
 20
-17.07816314697266
 30
0.0
 11
-60.99807739257812
 21
-17.07816314697266
 31
0.0
  0
LINE
  5
C5
330
1F
100
AcDbEntity
  8
VIEW0002
  6
Continuous
 62
     7
100
AcDbLine
 10
-60.99807739257812
 20
-17.07816314697266
 30
0.0
 11
-60.99807739257812
 21
-19.17816162109375
 31
0.0
  0
LINE
  5
C6
330
1F
100
AcDbEntity
  8
VIEW0002
  6
Continuous
 62
     7
100
AcDbLine
 10
-60.59808349609375
 20
-19.57816314697266
 30
0.0
 11
-50.10514831542969
 21
-19.57816314697266
 31
0.0
  0
LINE
  5
C7
330
1F
100
AcDbEntity
  8
VIEW0002
  6
Continuous
 62
     7
100
AcDbLine
 10
-60.59808349609375
 20
-20.17816162109375
 30
0.0
 11
-55.59808349609375
 21
-20.17816162109375
 31
0.0
  0
LINE
  5
C8
330
1F
100
AcDbEntity
  8
VIEW0002
  6
Continuous
 62
     7
100
AcDbLine
 10
-45.4039446609565
 20
-22.87566641468746
 30
0.0
 11
-42.9145933501575
 21
-29.74966895102443
 31
0.0
  0
LINE
  5
C9
330
1F
100
AcDbEntity
  8
VIEW0002
  6
Continuous
 62
     7
100
AcDbLine
 10
-18.33592580322534
 20
-26.05761610808673
 30
0.0
 11
-19.25420667156955
 21
-29.50115645964699
 31
0.0
  0
LINE
  5
CA
330
1F
100
AcDbEntity
  8
VIEW0002
  6
Continuous
 62
     7
100
AcDbLine
 10
-48.69480845767152
 20
-24.0674279597552
 30
0.0
 11
-46.2054571468725
 21
-30.94143049609218
 31
0.0
  0
LINE
  5
CB
330
1F
100
AcDbEntity
  8
VIEW0002
  6
Continuous
 62
     7
100
AcDbLine
 10
-40.09384155273438
 20
-35.22816467285156
 30
0.0
 11
-22.15291595458984
 21
-35.22816467285156
 31
0.0
  0
LINE
  5
CC
330
1F
100
AcDbEntity
  8
VIEW0002
  6
Continuous
 62
     7
100
AcDbLine
 10
-14.95411234977124
 20
-26.95943936948816
 30
0.0
 11
-15.8723924809583
 21
-30.40297695671948
 31
0.0
  0
LINE
  5
CD
330
1F
100
AcDbEntity
  8
VIEW0002
  6
Continuous
 62
     7
100
AcDbLine
 10
3.270676267607593
 20
-24.09769546967742
 30
0.0
 11
-13.65953142794411
 21
-25.85394076384367
 31
0.0
  0
LINE
  5
CE
330
1F
100
AcDbEntity
  8
VIEW0002
  6
Continuous
 62
     7
100
AcDbLine
 10
4.816223186176344
 20
-25.02777953738024
 30
0.0
 11
5.448142005318783
 21
-26.59183357712302
 31
0.0
  0
LINE
  5
CF
330
1F
100
AcDbEntity
  8
VIEW0002
  6
Continuous
 62
     7
100
AcDbLine
 10
-53.09808349609375
 20
-23.07816314697266
 30
0.0
 11
-50.10514831542969
 21
-23.07816314697266
 31
0.0
  0
LINE
  5
D0
330
1F
100
AcDbEntity
  8
VIEW0002
  6
Continuous
 62
     7
100
AcDbLine
 10
-55.59807840100176
 20
-20.17815709348509
 30
0.0
 11
-53.09807103488701
 21
-23.07816701661046
 31
0.0
  0
LINE
  5
D1
330
1F
100
AcDbEntity
  8
VIEW0002
  6
Continuous
 62
     7
100
AcDbLine
 10
6.651923747530018
 20
-20.2281626205569
 30
0.0
 11
7.169149878396771
 21
-21.50834228119829
 31
0.0
  0
LINE
  5
D2
330
1F
100
AcDbEntity
  8
VIEW0002
  6
DASHED
 62
     7
100
AcDbLine
 10
2.971454073389471
 20
-21.21317979488282
 30
0.0
 11
-13.95875092003637
 21
-22.96942480874561
 31
0.0
  0
LINE
  5
D3
330
1F
100
AcDbEntity
  8
VIEW0002
  6
DASHED
 62
     7
100
AcDbLine
 10
-5.289348167226784
 20
-22.67332740974417
 30
0.0
 11
-11.86611936683471
 21
-23.35556496275153
 31
0.0
  0
LINE
  5
D4
330
1F
100
AcDbEntity
  8
VIEW0002
  6
DASHED
 62
     7
100
AcDbLine
 10
-11.8661349377852
 20
-23.35556274282808
 30
0.0
 11
-11.92804323113521
 21
-22.75876668707525
 31
0.0
  0
LINE
  5
D5
330
1F
100
AcDbEntity
  8
VIEW0002
  6
DASHED
 62
     7
100
AcDbLine
 10
-4.848075866699219
 20
-23.07119245873586
 30
0.0
 11
-4.848075866699219
 21
-24.93988952227163
 31
0.0
  0
LINE
  5
D6
330
1F
100
AcDbEntity
  8
VIEW0002
  6
DASHED
 62
     7
100
AcDbLine
 10
-4.248077392578125
 20
-23.07119415108885
 30
0.0
 11
-4.248077392578125
 21
-24.87764902790611
 31
0.0
  0
LINE
  5
D7
330
1F
100
AcDbEntity
  8
VIEW0002
  6
DASHED
 62
     7
100
AcDbLine
 10
-9.379471186516872
 20
-23.09760628298735
 30
0.0
 11
-9.503287379613571
 21
-21.90401796581849
 31
0.0
  0
LINE
  5
D8
330
1F
100
AcDbEntity
  8
VIEW0002
  6
DASHED
 62
     7
100
AcDbLine
 10
-7.390146102935938
 20
-22.89125246742394
 30
0.0
 11
-7.513962689635966
 21
-21.69766035591828
 31
0.0
  0
LINE
  5
D9
330
1F
100
AcDbEntity
  8
VIEW0002
  6
DASHED
 62
     7
100
AcDbLine
 10
-9.82521212209703
 20
-23.64652796988643
 30
0.0
 11
-9.876802104153155
 21
-23.1492004529836
 31
0.0
  0
LINE
  5
DA
330
1F
100
AcDbEntity
  8
VIEW0002
  6
DASHED
 62
     7
100
AcDbLine
 10
-6.841225203243535
 20
-23.33698581433051
 30
0.0
 11
-6.892815185299661
 21
-22.83965829742769
 31
0.0
  0
LINE
  5
DB
330
1F
100
AcDbEntity
  8
VIEW0002
  6
DASHED
 62
     7
100
AcDbLine
 10
-6.841224416036868
 20
-23.3369934030041
 30
0.0
 11
-9.825211334890373
 21
-23.64653555856
 31
0.0
  0
LINE
  5
DC
330
1F
100
AcDbEntity
  8
VIEW0002
  6
DASHED
 62
     7
100
AcDbLine
 10
-17.75618829072929
 20
-26.21222071863612
 30
0.0
 11
-18.6744673264045
 21
-29.65575419771336
 31
0.0
  0
LINE
  5
DD
330
1F
100
AcDbEntity
  8
VIEW0002
  6
DASHED
 62
     7
100
AcDbLine
 10
-40.09384155273438
 20
-32.32817077636719
 30
0.0
 11
-22.15291595458984
 21
-32.32817077636719
 31
0.0
  0
LINE
  5
DE
330
1F
100
AcDbEntity
  8
VIEW0002
  6
Continuous
 62
     7
100
AcDbLine
 10
-10.34807586669922
 20
-31.32816314697266
 30
0.0
 11
-10.34807586669922
 21
-32.32817077636719
 31
0.0
  0
LINE
  5
DF
330
1F
100
AcDbEntity
  8
VIEW0002
  6
DASHED
 62
     7
100
AcDbLine
 10
-22.42214319877677
 20
-35.56340992181675
 30
0.0
 11
-20.12554900012298
 21
-34.94803942664603
 31
0.0
  0
LINE
  5
E0
330
1F
100
AcDbEntity
  8
VIEW0002
  6
DASHED
 62
     7
100
AcDbLine
 10
-23.20864126254624
 20
-32.62815887438993
 30
0.0
 11
-22.42214616072538
 21
-35.56339886767286
 31
0.0
  0
LINE
  5
E1
330
1F
100
AcDbEntity
  8
VIEW0002
  6
DASHED
 62
     7
100
AcDbLine
 10
-29.47844696044922
 20
-32.62815856933594
 30
0.0
 11
-23.20864868164062
 21
-32.62815856933594
 31
0.0
  0
LINE
  5
E2
330
1F
100
AcDbEntity
  8
VIEW0002
  6
DASHED
 62
     7
100
AcDbLine
 10
-22.21001636612426
 20
-35.19598470306914
 30
0.0
 11
-19.08814189187942
 21
-34.35948104813394
 31
0.0
  0
LINE
  5
E3
330
1F
100
AcDbEntity
  8
VIEW0002
  6
DASHED
 62
     7
100
AcDbLine
 10
-22.97843180447831
 20
-32.3281599841924
 30
0.0
 11
-22.21000261458191
 21
-35.19597706908968
 31
0.0
  0
LINE
  5
E4
330
1F
100
AcDbEntity
  8
VIEW0002
  6
Continuous
 62
     7
100
AcDbLine
 10
-10.64807891845703
 20
-31.32816314697266
 30
0.0
 11
-10.64807891845703
 21
-32.09796142578125
 31
0.0
  0
LINE
  5
E5
330
1F
100
AcDbEntity
  8
VIEW0002
  6
Continuous
 62
     7
100
AcDbLine
 10
-10.64807891845703
 20
-31.32816314697266
 30
0.0
 11
-10.34807586669922
 21
-31.32816314697266
 31
0.0
  0
LINE
  5
E6
330
1F
100
AcDbEntity
  8
VIEW0002
  6
DASHED
 62
     7
100
AcDbLine
 10
-45.96809967772563
 20
-23.07996140084342
 30
0.0
 11
-43.47874836692662
 21
-29.95396393718039
 31
0.0
  0
LINE
  5
E7
330
1F
100
AcDbEntity
  8
VIEW0002
  6
DASHED
 62
     7
100
AcDbLine
 10
-29.47844696044922
 20
-32.32816314697266
 30
0.0
 11
-29.47844696044922
 21
-32.62815856933594
 31
0.0
  0
LINE
  5
E8
330
1F
100
AcDbEntity
  8
VIEW0002
  6
DASHED
 62
     7
100
AcDbLine
 10
-26.97844696044922
 20
-31.72816467285156
 30
0.0
 11
-26.97844696044922
 21
-32.62815856933594
 31
0.0
  0
LINE
  5
E9
330
1F
100
AcDbEntity
  8
VIEW0002
  6
DASHED
 62
     7
100
AcDbLine
 10
-24.97844696044922
 20
-31.72816467285156
 30
0.0
 11
-24.97844696044922
 21
-32.62815856933594
 31
0.0
  0
LINE
  5
EA
330
1F
100
AcDbEntity
  8
VIEW0002
  6
DASHED
 62
     7
100
AcDbLine
 10
-27.47844696044922
 20
-33.12815856933594
 30
0.0
 11
-24.47844696044922
 21
-33.12815856933594
 31
0.0
  0
LINE
  5
EB
330
1F
100
AcDbEntity
  8
VIEW0002
  6
DASHED
 62
     7
100
AcDbLine
 10
-27.47844696044922
 20
-32.62815856933594
 30
0.0
 11
-27.47844696044922
 21
-33.12815856933594
 31
0.0
  0
LINE
  5
EC
330
1F
100
AcDbEntity
  8
VIEW0002
  6
DASHED
 62
     7
100
AcDbLine
 10
-24.47844696044922
 20
-32.62815856933594
 30
0.0
 11
-24.47844696044922
 21
-33.12815856933594
 31
0.0
  0
LINE
  5
ED
330
1F
100
AcDbEntity
  8
VIEW0002
  6
Continuous
 62
     7
100
AcDbLine
 10
-18.7756633519988
 20
-34.2757526846602
 30
0.0
 11
-10.64808009587651
 21
-32.097973547278
 31
0.0
  0
LINE
  5
EE
330
1F
100
AcDbEntity
  8
VIEW0002
  6
Continuous
 62
     7
100
AcDbLine
 10
-19.81307046024236
 20
-34.86431106317229
 30
0.0
 11
-10.34806844145286
 21
-32.32817168665181
 31
0.0
  0
LINE
  5
EF
330
1F
100
AcDbEntity
  8
VIEW0002
  6
DASHED
 62
     7
100
AcDbLine
 10
-55.78489685058594
 20
-20.17816162109375
 30
0.0
 11
-50.10514831542969
 21
-20.17816162109375
 31
0.0
  0
LINE
  5
F0
330
1F
100
AcDbEntity
  8
VIEW0002
  6
Continuous
 62
     7
100
AcDbLine
 10
12.40294191224706
 20
-45.40724454695111
 30
0.0
 11
16.20439432782381
 21
-43.87135815144492
 31
0.0
  0
LINE
  5
F1
330
1F
100
AcDbEntity
  8
VIEW0002
  6
Continuous
 62
     7
100
AcDbLine
 10
4.910807507345382
 20
-26.86356025189454
 30
0.0
 11
8.71225992292213
 21
-25.32767385638835
 31
0.0
  0
LINE
  5
F2
330
1F
100
AcDbEntity
  8
VIEW0002
  6
Continuous
 62
     7
100
AcDbLine
 10
8.15595102105624
 20
-25.55243723119043
 30
0.0
 11
15.64808542595792
 21
-44.09612152624701
 31
0.0
  0
LINE
  5
F3
330
1F
100
AcDbEntity
  8
VIEW0002
  6
Continuous
 62
     7
100
AcDbLine
 10
4.910807507345353
 20
-26.8635602518945
 30
0.0
 11
12.40294191224703
 21
-45.40724454695108
 31
0.0
  0
LINE
  5
F4
330
1F
100
AcDbEntity
  8
VIEW0002
  6
DASHED
 62
     7
100
AcDbLine
 10
5.467116409211202
 20
-26.63879687709235
 30
0.0
 11
12.95925081411288
 21
-45.18248117214894
 31
0.0
  0
LINE
  5
F5
330
1F
100
AcDbEntity
  8
VIEW0002
  6
Continuous
 62
     7
100
AcDbLine
 10
6.651923761604625
 20
-20.22816265539278
 30
0.0
 11
4.943174314369513
 21
-20.40541879008298
 31
0.0
  0
LINE
  5
F6
330
1F
100
AcDbEntity
  8
VIEW0002
  6
DASHED
 62
     7
100
AcDbLine
 10
7.505058367857799
 20
-23.94142639347777
 30
0.0
 11
8.15594925259338
 21
-25.55243794569579
 31
0.0
  0
LINE
  5
F7
330
1F
100
AcDbEntity
  8
VIEW0002
  6
Continuous
 62
     7
100
AcDbLine
 10
-4.848075866699219
 20
-24.93988952227163
 30
0.0
 11
-4.848075866699219
 21
-38.00843811035156
 31
0.0
  0
LINE
  5
F8
330
1F
100
AcDbEntity
  8
VIEW0002
  6
Continuous
 62
     7
100
AcDbLine
 10
-4.248077392578125
 20
-24.87764902790611
 30
0.0
 11
-4.248077392578125
 21
-38.00843811035156
 31
0.0
  0
LINE
  5
F9
330
1F
100
AcDbEntity
  8
VIEW0002
  6
Continuous
 62
     7
100
AcDbLine
 10
8.061366699887238
 20
-23.71665651667618
 30
0.0
 11
16.20439432782378
 21
-43.87135815144489
 31
0.0
  0
LINE
  5
FA
330
1F
100
AcDbEntity
  8
VIEW0002
  6
Continuous
 62
     7
100
AcDbLine
 10
2.909543637991411
 20
-20.61637629100009
 30
0.0
 11
-14.02065606380157
 21
-22.37262075593841
 31
0.0
  0
ARC
  5
FB
330
1F
100
AcDbEntity
  8
VIEW0002
  6
Continuous
 62
     7
100
AcDbCircle
 10
41.76216506958008
 20
-7.121238708496094
 30
0.0
 40
1.0
100
AcDbArc
 50
111.9999803493867
 51
201.9999623632974
  0
ARC
  5
FC
330
1F
100
AcDbEntity
  8
VIEW0002
  6
Continuous
 62
     7
100
AcDbCircle
 10
49.50258255004883
 20
-16.93632507324219
 30
0.0
 40
2.0
100
AcDbArc
 50
111.9999803493867
 51
292.0000126790997
  0
ARC
  5
FD
330
1F
100
AcDbEntity
  8
VIEW0002
  6
Continuous
 62
     7
100
AcDbCircle
 10
47.87534713745117
 20
-16.24560165405273
 30
0.0
 40
1.0
100
AcDbArc
 50
111.9999803493867
 51
201.9999623632974
  0
ARC
  5
FE
330
1F
100
AcDbEntity
  8
VIEW0002
  6
Continuous
 62
     7
100
AcDbCircle
 10
47.87534713745117
 20
-16.24560165405273
 30
0.0
 40
1.5
100
AcDbArc
 50
111.9999803493867
 51
201.9999623632974
  0
ARC
  5
FF
330
1F
100
AcDbEntity
  8
VIEW0002
  6
Continuous
 62
     7
100
AcDbCircle
 10
48.81186294555664
 20
-18.56356048583984
 30
0.0
 40
1.0
100
AcDbArc
 50
201.9999796661414
 51
291.999961680052
  0
ARC
  5
100
330
1F
100
AcDbEntity
  8
VIEW0002
  6
Continuous
 62
     7
100
AcDbCircle
 10
48.81186294555664
 20
-18.56356048583984
 30
0.0
 40
1.5
100
AcDbArc
 50
201.9999796661414
 51
291.999961680052
  0
CIRCLE
  5
101
330
1F
100
AcDbEntity
  8
VIEW0002
  6
Continuous
 62
     7
100
AcDbCircle
 10
36.22705841064453
 20
-17.44657897949219
 30
0.0
 40
1.0
  0
CIRCLE
  5
102
330
1F
100
AcDbEntity
  8
VIEW0002
  6
Continuous
 62
     7
100
AcDbCircle
 10
41.47155380249023
 20
-30.42714691162109
 30
0.0
 40
1.0
  0
CIRCLE
  5
103
330
1F
100
AcDbEntity
  8
VIEW0002
  6
Continuous
 62
     7
100
AcDbCircle
 10
39.31289291381836
 20
-23.74956130981445
 30
0.0
 40
1.5
  0
ARC
  5
104
330
1F
100
AcDbEntity
  8
VIEW0002
  6
DASHED
 62
     7
100
AcDbCircle
 10
41.76216506958008
 20
-7.121238708496094
 30
0.0
 40
0.3999999761581421
100
AcDbArc
 50
111.9999803493867
 51
201.9999623632974
  0
ARC
  5
105
330
1F
100
AcDbEntity
  8
VIEW0002
  6
Continuous
 62
     7
100
AcDbCircle
 10
48.2524528503418
 20
-4.498992919921875
 30
0.0
 40
1.0
100
AcDbArc
 50
22.00000004302334
 51
111.9999803493867
  0
ARC
  5
106
330
1F
100
AcDbEntity
  8
VIEW0002
  6
Continuous
 62
     7
100
AcDbCircle
 10
49.50258255004883
 20
-16.93632507324219
 30
0.0
 40
2.0
100
AcDbArc
 50
291.999961680052
 51
111.9999803493867
  0
ARC
  5
107
330
1F
100
AcDbEntity
  8
VIEW0002
  6
Continuous
 62
     7
100
AcDbCircle
 10
50.19330978393555
 20
-15.30908584594727
 30
0.0
 40
1.0
100
AcDbArc
 50
22.00000004302334
 51
111.9999803493867
  0
ARC
  5
108
330
1F
100
AcDbEntity
  8
VIEW0002
  6
Continuous
 62
     7
100
AcDbCircle
 10
50.19330978393555
 20
-15.30908584594727
 30
0.0
 40
1.5
100
AcDbArc
 50
22.00000004302334
 51
111.9999803493867
  0
ARC
  5
109
330
1F
100
AcDbEntity
  8
VIEW0002
  6
Continuous
 62
     7
100
AcDbCircle
 10
51.12982559204102
 20
-17.62704467773438
 30
0.0
 40
1.0
100
AcDbArc
 50
292.0000163215654
 51
22.00000004302334
  0
ARC
  5
10A
330
1F
100
AcDbEntity
  8
VIEW0002
  6
Continuous
 62
     7
100
AcDbCircle
 10
51.12982559204102
 20
-17.62704467773438
 30
0.0
 40
1.5
100
AcDbArc
 50
292.0000163215654
 51
22.00000004302334
  0
CIRCLE
  5
10B
330
1F
100
AcDbEntity
  8
VIEW0002
  6
Continuous
 62
     7
100
AcDbCircle
 10
59.40665054321289
 20
-8.081409454345703
 30
0.0
 40
1.0
  0
CIRCLE
  5
10C
330
1F
100
AcDbEntity
  8
VIEW0002
  6
Continuous
 62
     7
100
AcDbCircle
 10
64.6511459350586
 20
-21.06198883056641
 30
0.0
 40
1.0
  0
CIRCLE
  5
10D
330
1F
100
AcDbEntity
  8
VIEW0002
  6
Continuous
 62
     7
100
AcDbCircle
 10
61.5653076171875
 20
-14.75900268554688
 30
0.0
 40
1.5
  0
ARC
  5
10E
330
1F
100
AcDbEntity
  8
VIEW0002
  6
DASHED
 62
     7
100
AcDbCircle
 10
48.2524528503418
 20
-4.498992919921875
 30
0.0
 40
0.3999999761581421
100
AcDbArc
 50
22.00000004302334
 51
111.9999803493867
  0
CIRCLE
  5
10F
330
1F
100
AcDbEntity
  8
VIEW0002
  6
Continuous
 62
     7
100
AcDbCircle
 10
-25.97844886779785
 20
52.82368850708008
 30
0.0
 40
1.5
  0
CIRCLE
  5
110
330
1F
100
AcDbEntity
  8
VIEW0002
  6
Continuous
 62
     7
100
AcDbCircle
 10
-8.508625625029763
 20
52.82368850708008
 30
0.0
 40
1.5
  0
ARC
  5
111
330
1F
100
AcDbEntity
  8
VIEW0002
  6
Continuous
 62
     7
100
AcDbCircle
 10
7.712260484695435
 20
58.32368850708008
 30
0.0
 40
1.0
100
AcDbArc
 50
270.0000179860893
 51
0.0
  0
ARC
  5
112
330
1F
100
AcDbEntity
  8
VIEW0002
  6
Continuous
 62
     7
100
AcDbCircle
 10
7.755938768386841
 20
58.32369613647461
 30
0.0
 40
0.4000000059604645
100
AcDbArc
 50
270.0000179860893
 51
0.0
  0
ARC
  5
113
330
1F
100
AcDbEntity
  8
VIEW0002
  6
Continuous
 62
     7
100
AcDbCircle
 10
5.510806381702423
 20
57.32369613647461
 30
0.0
 40
0.6000000238418579
100
AcDbArc
 50
89.99998201391067
 51
179.9999640278213
  0
ARC
  5
114
330
1F
100
AcDbEntity
  8
VIEW0002
  6
Continuous
 62
     7
100
AcDbCircle
 10
15.20439434051514
 20
58.32368850708008
 30
0.0
 40
1.0
100
AcDbArc
 50
270.0000179860893
 51
0.0
  0
ARC
  5
115
330
1F
100
AcDbEntity
  8
VIEW0002
  6
Continuous
 62
     7
100
AcDbCircle
 10
15.70439434051514
 20
56.82368850708008
 30
0.0
 40
0.5
100
AcDbArc
 50
0.0
 51
89.99998201391067
  0
ARC
  5
116
330
1F
100
AcDbEntity
  8
VIEW0002
  6
Continuous
 62
     7
100
AcDbCircle
 10
7.712260484695435
 20
47.32368850708008
 30
0.0
 40
1.0
100
AcDbArc
 50
359.9999453584866
 51
89.9999273723973
  0
ARC
  5
117
330
1F
100
AcDbEntity
  8
VIEW0002
  6
Continuous
 62
     7
100
AcDbCircle
 10
5.510806381702423
 20
48.32368087768555
 30
0.0
 40
0.6000000238418579
100
AcDbArc
 50
179.9999776881997
 51
269.9999733624886
  0
ARC
  5
118
330
1F
100
AcDbEntity
  8
VIEW0002
  6
Continuous
 62
     7
100
AcDbCircle
 10
15.70439434051514
 20
48.82368850708008
 30
0.0
 40
0.5
100
AcDbArc
 50
269.999963344576
 51
359.9999453584866
  0
ARC
  5
119
330
1F
100
AcDbEntity
  8
VIEW0002
  6
Continuous
 62
     7
100
AcDbCircle
 10
15.20439434051514
 20
47.32368850708008
 30
0.0
 40
1.0
100
AcDbArc
 50
359.9999453584866
 51
89.9999273723973
  0
ARC
  5
11A
330
1F
100
AcDbEntity
  8
VIEW0002
  6
Continuous
 62
     7
100
AcDbCircle
 10
7.755938768386841
 20
47.32368087768555
 30
0.0
 40
0.4000000059604645
100
AcDbArc
 50
0.0
 51
89.99998201391067
  0
CIRCLE
  5
11B
330
1F
100
AcDbEntity
  8
VIEW0002
  6
Continuous
 62
     7
100
AcDbCircle
 10
12.20439481735229
 20
64.82368850708008
 30
0.0
 40
0.25
  0
CIRCLE
  5
11C
330
1F
100
AcDbEntity
  8
VIEW0002
  6
Continuous
 62
     7
100
AcDbCircle
 10
9.704394817352295
 20
65.32368850708008
 30
0.0
 40
0.25
  0
CIRCLE
  5
11D
330
1F
100
AcDbEntity
  8
VIEW0002
  6
Continuous
 62
     7
100
AcDbCircle
 10
14.95439434051514
 20
65.32368850708008
 30
0.0
 40
0.25
  0
CIRCLE
  5
11E
330
1F
100
AcDbEntity
  8
VIEW0002
  6
Continuous
 62
     7
100
AcDbCircle
 10
9.704394817352295
 20
40.32368850708008
 30
0.0
 40
0.25
  0
CIRCLE
  5
11F
330
1F
100
AcDbEntity
  8
VIEW0002
  6
Continuous
 62
     7
100
AcDbCircle
 10
12.20439481735229
 20
40.82368850708008
 30
0.0
 40
0.25
  0
CIRCLE
  5
120
330
1F
100
AcDbEntity
  8
VIEW0002
  6
Continuous
 62
     7
100
AcDbCircle
 10
14.95439434051514
 20
40.32368850708008
 30
0.0
 40
0.25
  0
ARC
  5
121
330
1F
100
AcDbEntity
  8
VIEW0002
  6
Continuous
 62
     7
100
AcDbCircle
 10
-4.998077392578125
 20
-38.00843811035156
 30
0.0
 40
0.75
100
AcDbArc
 50
203.9999683381478
 51
0.0
  0
ARC
  5
122
330
1F
100
AcDbEntity
  8
VIEW0002
  6
Continuous
 62
     7
100
AcDbCircle
 10
-4.998077392578125
 20
-38.00843811035156
 30
0.0
 40
0.1500000059604645
100
AcDbArc
 50
203.9999683381478
 51
0.0
  0
ARC
  5
123
330
1F
100
AcDbEntity
  8
VIEW0002
  6
Continuous
 62
     7
100
AcDbCircle
 10
-60.59808349609375
 20
-19.17816162109375
 30
0.0
 40
1.0
100
AcDbArc
 50
179.9999776881997
 51
270.000028004002
  0
ARC
  5
124
330
1F
100
AcDbEntity
  8
VIEW0002
  6
Continuous
 62
     7
100
AcDbCircle
 10
-60.59808349609375
 20
-19.17816162109375
 30
0.0
 40
0.4000000059604645
100
AcDbArc
 50
179.9999776881997
 51
270.000028004002
  0
ARC
  5
125
330
1F
100
AcDbEntity
  8
VIEW0002
  6
Continuous
 62
     7
100
AcDbCircle
 10
-40.09384155273438
 20
-28.72816467285156
 30
0.0
 40
3.0
100
AcDbArc
 50
199.9073189874762
 51
270.0000179860893
  0
ARC
  5
126
330
1F
100
AcDbEntity
  8
VIEW0002
  6
Continuous
 62
     7
100
AcDbCircle
 10
-22.15291595458984
 20
-28.72816467285156
 30
0.0
 40
3.0
100
AcDbArc
 50
270.0000179860893
 51
345.0685217478878
  0
ARC
  5
127
330
1F
100
AcDbEntity
  8
VIEW0002
  6
Continuous
 62
     7
100
AcDbCircle
 10
-50.10514831542969
 20
-24.57816314697266
 30
0.0
 40
5.0
100
AcDbArc
 50
19.90736327002025
 51
89.99998201391067
  0
ARC
  5
128
330
1F
100
AcDbEntity
  8
VIEW0002
  6
Continuous
 62
     7
100
AcDbCircle
 10
-22.15291595458984
 20
-28.72816467285156
 30
0.0
 40
6.5
100
AcDbArc
 50
270.0000179860893
 51
345.0685217478878
  0
ARC
  5
129
330
1F
100
AcDbEntity
  8
VIEW0002
  6
Continuous
 62
     7
100
AcDbCircle
 10
-40.09384155273438
 20
-28.72816467285156
 30
0.0
 40
6.5
100
AcDbArc
 50
199.9073189874762
 51
270.0000179860893
  0
ARC
  5
12A
330
1F
100
AcDbEntity
  8
VIEW0002
  6
Continuous
 62
     7
100
AcDbCircle
 10
-50.10514831542969
 20
-24.57816314697266
 30
0.0
 40
1.5
100
AcDbArc
 50
19.90736327002025
 51
89.99998201391067
  0
ARC
  5
12B
330
1F
100
AcDbEntity
  8
VIEW0002
  6
Continuous
 62
     7
100
AcDbCircle
 10
-8.392552650063092
 20
-22.91983028960256
 30
0.0
 40
1.875000238418579
100
AcDbArc
 50
42.79218168973269
 51
149.052504777653
  0
ARC
  5
12C
330
1F
100
AcDbEntity
  8
VIEW0002
  6
DASHED
 62
     7
100
AcDbCircle
 10
-22.15291595458984
 20
-28.72816467285156
 30
0.0
 40
3.599999904632568
100
AcDbArc
 50
270.0000179860893
 51
345.0685217478878
  0
ARC
  5
12D
330
1F
100
AcDbEntity
  8
VIEW0002
  6
DASHED
 62
     7
100
AcDbCircle
 10
-40.09384155273438
 20
-28.72816467285156
 30
0.0
 40
3.599999904632568
100
AcDbArc
 50
199.9073189874762
 51
270.0000179860893
  0
ARC
  5
12E
330
1F
100
AcDbEntity
  8
VIEW0002
  6
DASHED
 62
     7
100
AcDbCircle
 10
-50.10514831542969
 20
-24.57816314697266
 30
0.0
 40
4.400000095367432
100
AcDbArc
 50
19.90736327002025
 51
89.99998201391067
  0
ARC
  5
12F
330
1F
100
AcDbEntity
  8
VIEW0002
  6
Continuous
 62
     7
100
AcDbCircle
 10
-25.97844696044922
 20
-32.85316467285156
 30
0.0
 40
1.875
100
AcDbArc
 50
36.86989730957868
 51
143.1301111144722
  0
ARC
  5
130
330
1F
100
AcDbEntity
  8
VIEW0002
  6
Continuous
 62
     7
100
AcDbCircle
 10
-13.50476030096574
 20
-27.34593469756251
 30
0.0
 40
1.5
100
AcDbArc
 50
95.92236195872806
 51
165.0685293653655
  0
ARC
  5
131
330
1F
100
AcDbEntity
  8
VIEW0002
  6
Continuous
 62
     7
100
AcDbCircle
 10
3.425447394585958
 20
-25.58968940339626
 30
0.0
 40
1.5
100
AcDbArc
 50
21.99999900682929
 51
95.92236195872803
  0
ARC
  5
132
330
1F
100
AcDbEntity
  8
VIEW0002
  6
DASHED
 62
     7
100
AcDbCircle
 10
3.425449379192676
 20
-25.58969533379144
 30
0.0
 40
4.4
100
AcDbArc
 50
21.99999900682928
 51
95.92236195872803
  0
ARC
  5
133
330
1F
100
AcDbEntity
  8
VIEW0002
  6
DASHED
 62
     7
100
AcDbCircle
 10
-13.50475561423317
 20
-27.34594034765423
 30
0.0
 40
4.4
100
AcDbArc
 50
95.92236195872803
 51
165.0685293653655
  0
ARC
  5
134
330
1F
100
AcDbEntity
  8
VIEW0002
  6
Continuous
 62
     7
100
AcDbCircle
 10
-13.50475230720701
 20
-27.34593386833458
 30
0.0
 40
5.0
100
AcDbArc
 50
95.92236195872803
 51
165.0685293653655
  0
ARC
  5
135
330
1F
100
AcDbEntity
  8
VIEW0002
  6
Continuous
 62
     7
100
AcDbCircle
 10
3.425447394585961
 20
-25.58968940339625
 30
0.0
 40
5.0
100
AcDbArc
 50
21.99999900682928
 51
95.92236195872803
  0
ARC
  5
136
330
1F
100
AcDbEntity
  8
VIEW0002
  6
DASHED
 62
     7
100
AcDbCircle
 10
-5.248075866699219
 20
-23.07119245873586
 30
0.0
 40
0.4
100
AcDbArc
 50
0.0
 51
95.92236195872803
  0
ARC
  5
137
330
1F
100
AcDbEntity
  8
VIEW0002
  6
DASHED
 62
     7
100
AcDbCircle
 10
-5.248077392578125
 20
-23.07119415108885
 30
0.0
 40
1.0
100
AcDbArc
 50
0.0
 51
95.92236195872803
  0
LWPOLYLINE
  5
138
330
1F
100
AcDbEntity
  8
VIEW0002
  6
Continuous
 62
     7
100
AcDbPolyline
 90
        2
 70
     0
 43
0.0
 10
45.62221145629883
 20
-7.332054138183594
 10
43.07416915893555
 20
-5.512619018554688
  0
LWPOLYLINE
  5
139
330
1F
100
AcDbEntity
  8
VIEW0002
  6
Continuous
 62
     7
100
AcDbPolyline
 90
        2
 70
     0
 43
0.0
 10
45.62221145629883
 20
-7.332054138183594
 10
46.19123458862305
 20
-4.253242492675781
  0
DIMENSION
  5
13A
330
1F
100
AcDbEntity
  8
VIEW0002
 62
     7
100
AcDbDimension
  2
*D2
 10
52.47657334725832
 20
9.071139429770632
 30
0.0
 11
40.88763482666015
 21
4.388904571533203
 31
0.0
 70
   160
  1
50
 71
     5
 42
24.99999952316286
  3
ISO-25
100
AcDbAlignedDimension
 13
35.66514854662457
 23
-16.05580263655379
 33
0.0
 14
58.84474463101526
 24
-6.690638381579738
 34
0.0
 50
201.9999990068293
100
AcDbRotatedDimension
1001
ACAD
1000
DSTYLE
1002
{
1070
   178
1070
     1
1070
   278
1070
    46
1070
   147
1040
0.800000011920929
1070
    77
1070
     1
1070
    74
1070
     0
1070
    73
1070
     0
1070
    42
1040
2.54
1070
    44
1040
1.000000000000008
1070
    76
1070
     0
1070
    75
1070
     0
1070
   279
1070
     0
1070
   271
1070
     0
1070
   173
1070
     1
1070
    41
1040
3.0
1070
   140
1040
3.200000047683716
1070
   344
1005
13B
1070
   343
1005
13B
1002
}
  0
DIMENSION
  5
14E
330
1F
100
AcDbEntity
  8
VIEW0002
 62
     7
100
AcDbDimension
  2
*D3
 10
69.05723217694559
 20
-33.30216694721594
 30
0.0
 11
57.93223245239258
 21
-37.79695837402344
 31
0.0
 70
   160
  1
48
 71
     5
 42
24.00000000000002
  3
ISO-25
100
AcDbAlignedDimension
 13
40.06210909715114
 23
-25.6039300676408
 33
0.0
 14
62.31452176259727
 24
-16.61337221138441
 34
0.0
 50
201.9999990068293
100
AcDbRotatedDimension
1001
ACAD
1000
DSTYLE
1002
{
1070
   178
1070
     1
1070
   278
1070
    46
1070
   147
1040
0.800000011920929
1070
    77
1070
     1
1070
    74
1070
     0
1070
    73
1070
     0
1070
    42
1040
2.54
1070
    44
1040
0.999999999999986
1070
    76
1070
     0
1070
    75
1070
     0
1070
   279
1070
     0
1070
   271
1070
     0
1070
   173
1070
     1
1070
    41
1040
3.0
1070
   140
1040
3.200000047683716
1070
   344
1005
13B
1070
   343
1005
13B
1002
}
  0
DIMENSION
  5
15B
330
1F
100
AcDbEntity
  8
VIEW0002
 62
     7
100
AcDbDimension
  2
*D4
 10
51.51205879374721
 20
19.46679867148485
 30
0.0
 11
37.14156777954101
 21
13.66074371337891
 31
0.0
 70
   160
  1
62
 71
     5
 42
30.99999952316287
  3
ISO-25
100
AcDbAlignedDimension
 13
32.32168709742778
 23
-15.78884657699546
 33
0.0
 14
61.06438634818001
 24
-4.176042857957317
 34
0.0
 50
201.9999990068293
100
AcDbRotatedDimension
1001
ACAD
1000
DSTYLE
1002
{
1070
   178
1070
     1
1070
   278
1070
    46
1070
   147
1040
0.800000011920929
1070
    77
1070
     1
1070
    74
1070
     0
1070
    73
1070
     0
1070
    42
1040
2.54
1070
    44
1040
1.000000000000004
1070
    76
1070
     0
1070
    75
1070
     0
1070
   279
1070
     0
1070
   271
1070
     0
1070
   173
1070
     1
1070
    41
1040
3.0
1070
   140
1040
3.200000047683716
1070
   344
1005
13B
1070
   343
1005
13B
1002
}
  0
DIMENSION
  5
168
330
1F
100
AcDbEntity
  8
VIEW0002
 62
     7
100
AcDbDimension
  2
*D5
 10
-71.59608349609374
 20
46.32368850708007
 30
0.0
 11
-71.59608349609374
 21
52.82468850708008
 31
0.0
 70
   160
  1
26
 71
     5
 42
13.0
  3
ISO-25
100
AcDbAlignedDimension
 13
-60.99807739257812
 23
59.32368850708008
 33
0.0
 14
-60.99807739257812
 24
46.32368850708008
 34
0.0
 50
90.00000000000001
100
AcDbRotatedDimension
1001
ACAD
1000
DSTYLE
1002
{
1070
   178
1070
     1
1070
   278
1070
    46
1070
   147
1040
0.800000011920929
1070
    77
1070
     1
1070
    74
1070
     0
1070
    73
1070
     0
1070
    42
1040
2.54
1070
    44
1040
1.0
1070
    76
1070
     0
1070
    75
1070
     0
1070
   279
1070
     0
1070
   271
1070
     0
1070
   173
1070
     1
1070
    41
1040
3.0
1070
   140
1040
3.200000047683716
1070
   344
1005
13B
1070
   343
1005
13B
1002
}
  0
DIMENSION
  5
175
330
1F
100
AcDbEntity
  8
VIEW0002
 62
     7
100
AcDbDimension
  2
*D6
 10
87.10054101891036
 20
-15.22744877854896
 30
0.0
 11
83.3541259765625
 21
-5.954745697021484
 31
0.0
 70
   160
  1
40
 71
     5
 42
19.99999999999999
  3
ISO-25
100
AcDbAlignedDimension
 13
61.06438634817997
 23
-4.176042857957363
 33
0.0
 14
68.55651789506028
 24
-22.71972007916245
 34
0.0
 50
111.9999990068293
100
AcDbRotatedDimension
1001
ACAD
1000
DSTYLE
1002
{
1070
   178
1070
     1
1070
   278
1070
    46
1070
   147
1040
0.800000011920929
1070
    77
1070
     1
1070
    74
1070
     0
1070
    73
1070
     0
1070
    42
1040
2.54
1070
    44
1040
0.999999999999953
1070
    76
1070
     0
1070
    75
1070
     0
1070
   279
1070
     0
1070
   271
1070
     0
1070
   173
1070
     1
1070
    41
1040
3.0
1070
   140
1040
3.200000047683716
1070
   344
1005
13B
1070
   343
1005
13B
1002
}
  0
DIMENSION
  5
183
330
1F
100
AcDbEntity
  8
VIEW0002
 62
     7
100
AcDbDimension
  2
*D7
 10
76.70488776940354
 20
-16.19196091105124
 30
0.0
 11
74.01858520507812
 21
-9.54312841796875
 31
0.0
 70
   160
  1
28
 71
     5
 42
13.99999999999999
  3
ISO-25
100
AcDbAlignedDimension
 13
60.79743028862163
 23
-7.519504307154147
 33
0.0
 14
66.04192237143786
 24
-20.50007836199769
 34
0.0
 50
111.9999990068293
100
AcDbRotatedDimension
1001
ACAD
1000
DSTYLE
1002
{
1070
   178
1070
     1
1070
   278
1070
    46
1070
   147
1040
0.800000011920929
1070
    77
1070
     1
1070
    74
1070
     0
1070
    73
1070
     0
1070
    42
1040
2.54
1070
    44
1040
0.999999999999983
1070
    76
1070
     0
1070
    75
1070
     0
1070
   279
1070
     0
1070
   271
1070
     0
1070
   173
1070
     1
1070
    41
1040
3.0
1070
   140
1040
3.200000047683716
1070
   344
1005
13B
1070
   343
1005
13B
1002
}
  0
DIMENSION
  5
191
330
1F
100
AcDbEntity
  8
VIEW0002
 62
     7
100
AcDbDimension
  2
*D9
 10
71.46004433391539
 20
-3.211528811894592
 30
0.0
 11
67.40889895375815
 21
6.815408360223385
 31
0.0
 70
   160
  1
6
 71
     5
 42
2.999999999999996
  3
ISO-25
100
AcDbAlignedDimension
 13
61.06438634817997
 23
-4.176042857957363
 33
0.0
 14
60.79743028862163
 24
-7.519504307154147
 34
0.0
 50
111.9999990068293
100
AcDbRotatedDimension
1001
ACAD
1000
DSTYLE
1002
{
1070
   178
1070
     1
1070
   278
1070
    46
1070
   147
1040
0.800000011920929
1070
    77
1070
     1
1070
    74
1070
     0
1070
    73
1070
     0
1070
    42
1040
2.54
1070
    44
1040
0.999999999999954
1070
    76
1070
     1
1070
    75
1070
     1
1070
   279
1070
     0
1070
   271
1070
     0
1070
   173
1070
     1
1070
    41
1040
3.0
1070
   140
1040
3.200000047683716
1070
   344
1005
192
1070
   343
1005
13B
1002
}
  0
DIMENSION
  5
1A6
330
1F
100
AcDbEntity
  8
VIEW0002
 62
     7
100
AcDbDimension
  2
*D10
 10
57.89031915151526
 20
-16.24379653521352
 30
0.0
 11
56.01707894897461
 21
-11.60736410522461
 31
0.0
 70
   160
  1
20
 71
     5
 42
9.999999999999963
  3
ISO-25
100
AcDbAlignedDimension
 13
50.86536387651716
 23
-8.296715208741531
 33
0.0
 14
59.71094088578874
 24
-15.50821764395196
 34
0.0
 50
111.9999990068293
100
AcDbRotatedDimension
1001
ACAD
1000
DSTYLE
1002
{
1070
   178
1070
     1
1070
   278
1070
    46
1070
   147
1040
0.625
1070
    77
1070
     1
1070
    74
1070
     0
1070
    73
1070
     0
1070
    42
1040
2.54
1070
    44
1040
0.999999999999991
1070
    76
1070
     0
1070
    75
1070
     1
1070
   279
1070
     0
1070
   271
1070
     0
1070
   173
1070
     1
1070
    41
1040
3.0
1070
   140
1040
2.5
1070
   344
1005
13B
1070
   343
1005
13B
1002
}
  0
INSERT
  5
1B9
330
1F
100
AcDbEntity
  8
VIEW0002
 62
     7
100
AcDbBlockReference
  2
DIM0001
 10
59.42477650552762
 20
-7.081566281580996
 30
0.0
  0
INSERT
  5
1C2
330
1F
100
AcDbEntity
  8
VIEW0002
 62
     7
100
AcDbBlockReference
  2
DIM0002
 10
61.6937632724817
 20
-13.26449550064418
 30
0.0
  0
DIMENSION
  5
1C5
330
1F
100
AcDbEntity
  8
VIEW0002
 62
     7
100
AcDbDimension
  2
*D13
 10
26.20539338684083
 20
48.32368850708008
 30
0.0
 11
26.20539338684082
 21
52.82468850708008
 31
0.0
 70
   160
  1
18
 71
     5
 42
9.0
  3
ISO-25
100
AcDbAlignedDimension
 13
15.70439434051514
 23
57.32368850708008
 33
0.0
 14
15.70439434051514
 24
48.32368850708008
 34
0.0
 50
90.00000000000001
100
AcDbRotatedDimension
1001
ACAD
1000
DSTYLE
1002
{
1070
   178
1070
     1
1070
   278
1070
    46
1070
   147
1040
0.800000011920929
1070
    77
1070
     1
1070
    74
1070
     0
1070
    73
1070
     0
1070
    42
1040
2.54
1070
    44
1040
1.0
1070
    76
1070
     0
1070
    75
1070
     0
1070
   279
1070
     0
1070
   271
1070
     0
1070
   173
1070
     1
1070
    41
1040
3.0
1070
   140
1040
3.200000047683716
1070
   344
1005
13B
1070
   343
1005
13B
1002
}
  0
DIMENSION
  5
1D2
330
1F
100
AcDbEntity
  8
VIEW0002
 62
     7
100
AcDbDimension
  2
*D14
 10
25.47658196689844
 20
-40.12515136135552
 30
0.0
 11
21.07460403442383
 21
-29.22987310791016
 31
0.0
 70
   160
  1
51
 71
     5
 42
25.50000762939456
  3
ISO-25
100
AcDbAlignedDimension
 13
6.651923747530039
 23
-20.22816262055692
 33
0.0
 14
16.20439432782381
 24
-43.87135815144492
 34
0.0
 50
111.9999990068293
100
AcDbRotatedDimension
1001
ACAD
1000
DSTYLE
1002
{
1070
   178
1070
     1
1070
   278
1070
    46
1070
   147
1040
0.800000011920929
1070
    77
1070
     1
1070
    74
1070
     0
1070
    73
1070
     0
1070
    42
1040
2.54
1070
    44
1040
1.000000000000007
1070
    76
1070
     0
1070
    75
1070
     0
1070
   279
1070
     0
1070
   271
1070
     0
1070
   173
1070
     1
1070
    41
1040
3.0
1070
   140
1040
3.200000047683716
1070
   344
1005
13B
1070
   343
1005
13B
1002
}
  0
DIMENSION
  5
1E0
330
1F
100
AcDbEntity
  8
VIEW0002
 62
     7
100
AcDbDimension
  2
*D15
 10
-4.848075866699219
 20
-10.96624374389649
 30
0.0
 11
-33.22207968139649
 21
-10.96624374389648
 31
0.0
 70
   160
  1
113.5
 71
     5
 42
56.75000762939453
  3
ISO-25
100
AcDbAlignedDimension
 13
-61.59808349609375
 23
-17.07816314697266
 33
0.0
 14
-4.848075866699219
 24
-22.19922256469727
 34
0.0
 50
180.0
100
AcDbRotatedDimension
1001
ACAD
1000
DSTYLE
1002
{
1070
   178
1070
     1
1070
   278
1070
    46
1070
   147
1040
0.800000011920929
1070
    77
1070
     1
1070
    74
1070
     0
1070
    73
1070
     0
1070
    42
1040
2.54
1070
    44
1040
1.0
1070
    76
1070
     0
1070
    75
1070
     0
1070
   279
1070
     0
1070
   271
1070
     1
1070
   173
1070
     1
1070
    41
1040
3.0
1070
   140
1040
3.200000047683716
1070
   344
1005
13B
1070
   343
1005
13B
1002
}
  0
DIMENSION
  5
1ED
330
1F
100
AcDbEntity
  8
VIEW0002
 62
     7
100
AcDbDimension
  2
*D16
 10
-71.59708349609375
 20
-17.07816314697265
 30
0.0
 11
-71.59708349609375
 21
-18.6271623840332
 31
0.0
 70
   160
  1
6
 71
     5
 42
3.099998474121094
  3
ISO-25
100
AcDbAlignedDimension
 13
-61.59808349609375
 23
-20.17816162109375
 33
0.0
 14
-61.59808349609375
 24
-17.07816314697266
 34
0.0
 50
270.0
100
AcDbRotatedDimension
1001
ACAD
1000
DSTYLE
1002
{
1070
   178
1070
     1
1070
   278
1070
    46
1070
   147
1040
0.800000011920929
1070
    77
1070
     1
1070
    74
1070
     0
1070
    73
1070
     0
1070
    42
1040
2.54
1070
    44
1040
1.0
1070
    76
1070
     0
1070
    75
1070
     0
1070
   279
1070
     0
1070
   271
1070
     0
1070
   173
1070
     1
1070
    41
1040
3.0
1070
   140
1040
3.200000047683716
1070
   344
1005
13B
1070
   343
1005
13B
1002
}
  0
DIMENSION
  5
203
330
1F
100
AcDbEntity
  8
VIEW0002
 62
     7
100
AcDbDimension
  2
*D17
 10
-35.05127661132813
 20
-35.22816467285156
 30
0.0
 11
-35.05127661132813
 21
-23.8449646447897
 31
0.0
 70
   160
  1
7
 71
     5
 42
3.5
  3
ISO-25
100
AcDbAlignedDimension
 13
-40.09384155273438
 23
-31.72816467285156
 33
0.0
 14
-40.09384155273438
 24
-35.22816467285156
 34
0.0
 50
90.00000000000001
100
AcDbRotatedDimension
1001
ACAD
1000
DSTYLE
1002
{
1070
   178
1070
     1
1070
   278
1070
    46
1070
   147
1040
0.800000011920929
1070
    77
1070
     1
1070
    74
1070
     0
1070
    73
1070
     0
1070
    42
1040
2.54
1070
    44
1040
1.0
1070
    76
1070
     1
1070
    75
1070
     1
1070
   279
1070
     0
1070
   271
1070
     0
1070
   173
1070
     1
1070
    41
1040
3.0
1070
   140
1040
3.200000047683716
1070
   344
1005
13B
1070
   343
1005
13B
1002
}
  0
DIMENSION
  5
217
330
1F
100
AcDbEntity
  8
VIEW0002
 62
     7
100
AcDbDimension
  2
*D18
 10
11.43840936077088
 20
-57.4208335007044
 30
0.0
 11
13.8092624206543
 21
-57.0381845703125
 31
0.0
 70
   165
  1
22°
 71
     5
 42
0.383972418104256
  3
ISO-25
100
AcDb3PointAngularDimension
 13
6.651924133338026
 23
-58.72817230224604
 33
0.0
 14
16.20439432782378
 24
-43.87135815144489
 34
0.0
 15
6.651924133322727
 25
-20.22816357542741
 35
0.0
1001
ACAD
1000
DSTYLE
1002
{
1070
   178
1070
     1
1070
   278
1070
    46
1070
   275
1070
     1
1070
   147
1040
0.800000011920929
1070
    77
1070
     1
1070
    74
1070
     0
1070
    73
1070
     0
1070
    42
1040
2.54
1070
    44
1040
1.000001767330527
1070
    76
1070
     0
1070
    75
1070
     1
1070
   279
1070
     0
1070
   179
1070
     0
1070
   173
1070
     1
1070
    41
1040
3.0
1070
   140
1040
3.200000047683716
1070
   344
1005
13B
1070
   343
1005
13B
1002
}
  0
DIMENSION
  5
225
330
1F
100
AcDbEntity
  8
VIEW0002
 62
     7
100
AcDbDimension
  2
*D20
 10
6.651923626661299
 20
-57.72716467285156
 30
0.0
 11
-0.847072716535202
 21
-57.72716467285156
 31
0.0
 70
   160
  1
30
 71
     5
 42
14.99999268639301
  3
ISO-25
100
AcDbAlignedDimension
 13
-8.348069059731705
 23
-32.32815810651552
 33
0.0
 14
6.651923626661301
 24
-20.2281608581543
 34
0.0
 50
180.0
100
AcDbRotatedDimension
1001
ACAD
1000
DSTYLE
1002
{
1070
   178
1070
     1
1070
   278
1070
    46
1070
   147
1040
0.800000011920929
1070
    77
1070
     1
1070
    74
1070
     0
1070
    73
1070
     0
1070
    42
1040
2.54
1070
    44
1040
2.286000000000001
1070
    76
1070
     0
1070
    75
1070
     0
1070
   279
1070
     0
1070
   271
1070
     0
1070
   173
1070
     1
1070
    41
1040
3.0
1070
   140
1040
3.200000047683716
1070
   344
1005
226
1070
   343
1005
13B
1002
}
  0
ENDSEC
  0
SECTION
  2
OBJECTS
  0
DICTIONARY
  5
C
330
0
100
AcDbDictionary
281
     1
  3
ACAD_GROUP
350
D
  3
ACAD_LAYOUT
350
1A
  3
ACAD_MATERIAL
350
3B
  3
ACAD_MLEADERSTYLE
350
25F
  3
ACAD_MLINESTYLE
350
17
  3
ACAD_PLOTSETTINGS
350
19
  3
ACAD_PLOTSTYLENAME
350
E
  3
ACAD_TABLESTYLE
350
25E
  3
ACAD_VISUALSTYLE
350
2A
  0
DICTIONARY
  5
D
102
{ACAD_REACTORS
330
C
102
}
330
C
100
AcDbDictionary
281
     1
  0
DICTIONARY
  5
1A
102
{ACAD_REACTORS
330
C
102
}
330
C
100
AcDbDictionary
281
     1
  3
Layout1
350
1E
  3
Layout2
350
26
  3
Model
350
22
  0
DICTIONARY
  5
3B
102
{ACAD_REACTORS
330
C
102
}
330
C
100
AcDbDictionary
281
     1
  3
ByBlock
350
3D
  3
ByLayer
350
3C
  3
Global
350
3E
  0
DICTIONARY
  5
25F
102
{ACAD_REACTORS
330
C
102
}
330
C
100
AcDbDictionary
281
     1
  0
DICTIONARY
  5
17
102
{ACAD_REACTORS
330
C
102
}
330
C
100
AcDbDictionary
281
     1
  3
Standard
350
18
  0
DICTIONARY
  5
19
102
{ACAD_REACTORS
330
C
102
}
330
C
100
AcDbDictionary
281
     1
  0
ACDBDICTIONARYWDFLT
  5
E
102
{ACAD_REACTORS
330
C
102
}
330
C
100
AcDbDictionary
281
     1
  3
Normal
350
F
100
AcDbDictionaryWithDefault
340
F
  0
DICTIONARY
  5
25E
102
{ACAD_REACTORS
330
C
102
}
330
C
100
AcDbDictionary
281
     1
  0
DICTIONARY
  5
2A
102
{ACAD_REACTORS
330
C
102
}
330
C
100
AcDbDictionary
281
     1
  3
2dWireframe
350
2F
  3
3D Hidden
350
31
  3
3dWireframe
350
30
  3
Basic
350
32
  3
Brighten
350
36
  3
ColorChange
350
3A
  3
Conceptual
350
34
  3
Dim
350
35
  3
Facepattern
350
39
  3
Flat
350
2B
  3
FlatWithEdges
350
2C
  3
Gouraud
350
2D
  3
GouraudWithEdges
350
2E
  3
Linepattern
350
38
  3
Realistic
350
33
  3
Thicken
350
37
  0
LAYOUT
  5
1E
102
{ACAD_REACTORS
330
1A
102
}
330
1A
100
AcDbPlotSettings
  1

  2
none_device
  4

  6

 40
0.0
 41
0.0
 42
0.0
 43
0.0
 44
0.0
 45
0.0
 46
0.0
 47
0.0
 48
0.0
 49
0.0
140
0.0
141
0.0
142
1.0
143
1.0
 70
   688
 72
     0
 73
     0
 74
     5
  7

 75
    16
 76
     0
 77
     2
 78
   300
147
1.0
148
0.0
149
0.0
100
AcDbLayout
  1
Layout1
 70
     1
 71
     1
 10
-105.0
 20
-148.5
 11
105.0
 21
148.5
 12
0.0
 22
0.0
 32
0.0
 14
1.000000000000000E+20
 24
1.000000000000000E+20
 34
1.000000000000000E+20
 15
-1.000000000000000E+20
 25
-1.000000000000000E+20
 35
-1.000000000000000E+20
146
0.0
 13
0.0
 23
0.0
 33
0.0
 16
1.0
 26
0.0
 36
0.0
 17
0.0
 27
1.0
 37
0.0
 76
     0
330
1B
  0
LAYOUT
  5
26
102
{ACAD_REACTORS
330
1A
102
}
330
1A
100
AcDbPlotSettings
  1

  2
none_device
  4

  6

 40
0.0
 41
0.0
 42
0.0
 43
0.0
 44
0.0
 45
0.0
 46
0.0
 47
0.0
 48
0.0
 49
0.0
140
0.0
141
0.0
142
1.0
143
1.0
 70
   688
 72
     0
 73
     0
 74
     5
  7

 75
    16
 76
     0
 77
     2
 78
   300
147
1.0
148
0.0
149
0.0
100
AcDbLayout
  1
Layout2
 70
     1
 71
     2
 10
0.0
 20
0.0
 11
0.0
 21
0.0
 12
0.0
 22
0.0
 32
0.0
 14
0.0
 24
0.0
 34
0.0
 15
0.0
 25
0.0
 35
0.0
146
0.0
 13
0.0
 23
0.0
 33
0.0
 16
1.0
 26
0.0
 36
0.0
 17
0.0
 27
1.0
 37
0.0
 76
     0
330
23
  0
LAYOUT
  5
22
102
{ACAD_REACTORS
330
1A
102
}
330
1A
100
AcDbPlotSettings
  1

  2
none_device
  4

  6

 40
0.0
 41
0.0
 42
0.0
 43
0.0
 44
0.0
 45
0.0
 46
0.0
 47
0.0
 48
0.0
 49
0.0
140
0.0
141
0.0
142
1.0
143
1.0
 70
  1712
 72
     0
 73
     0
 74
     0
  7

 75
     0
 76
     0
 77
     2
 78
   300
147
1.0
148
0.0
149
0.0
100
AcDbLayout
  1
Model
 70
     1
 71
     0
 10
-105.0
 20
-148.5
 11
105.0
 21
148.5
 12
0.0
 22
0.0
 32
0.0
 14
-105.0
 24
-148.5
 34
0.0
 15
105.0
 25
148.5
 35
0.0
146
0.0
 13
0.0
 23
0.0
 33
0.0
 16
1.0
 26
0.0
 36
0.0
 17
0.0
 27
1.0
 37
0.0
 76
     0
330
1F
331
29
  0
MATERIAL
  5
3D
102
{ACAD_REACTORS
330
3B
102
}
102
{ACAD_XDICTIONARY
360
25A
102
}
330
3B
100
AcDbMaterial
  1
ByBlock
  0
MATERIAL
  5
3C
102
{ACAD_REACTORS
330
3B
102
}
102
{ACAD_XDICTIONARY
360
258
102
}
330
3B
100
AcDbMaterial
  1
ByLayer
  0
MATERIAL
  5
3E
102
{ACAD_REACTORS
330
3B
102
}
102
{ACAD_XDICTIONARY
360
25C
102
}
330
3B
100
AcDbMaterial
  1
Global
  0
MLINESTYLE
  5
18
102
{ACAD_REACTORS
330
17
102
}
330
17
100
AcDbMlineStyle
  2
Standard
 70
     0
  3

 62
   256
 51
90.0
 52
90.0
 71
     2
 49
0.5
 62
   256
  6
BYLAYER
 49
-0.5
 62
   256
  6
BYLAYER
  0
ACDBPLACEHOLDER
  5
F
102
{ACAD_REACTORS
330
E
102
}
330
E
  0
VISUALSTYLE
  5
2F
102
{ACAD_REACTORS
330
2A
102
}
102
{ACAD_XDICTIONARY
360
240
102
}
330
2A
100
AcDbVisualStyle
  2
2dWireframe
 70
     4
 71
     0
 72
     2
 73
     0
 90
        0
 40
-0.6
 41
-30.0
 62
     5
 63
     7
421
 16777215
 74
     1
 91
        4
 64
     7
 65
   257
 75
     1
175
     1
 42
1.0
 92
        0
 66
   257
 43
1.0
 76
     1
 77
     6
 78
     2
 67
     7
 79
     5
170
     0
171
     0
290
     0
174
     0
 93
        1
 44
0.0
173
     0
291
     0
 45
0.0
1001
ACAD
1000
AcDbSavedByObjectVersion
1070
     0
  0
VISUALSTYLE
  5
31
102
{ACAD_REACTORS
330
2A
102
}
102
{ACAD_XDICTIONARY
360
244
102
}
330
2A
100
AcDbVisualStyle
  2
3D Hidden
 70
     6
 71
     1
 72
     2
 73
     2
 90
        0
 40
-0.6
 41
-30.0
 62
     5
 63
     7
421
 16777215
 74
     2
 91
        2
 64
     7
 65
   257
 75
     2
175
     1
 42
40.0
 92
        0
 66
   257
 43
1.0
 76
     1
 77
     6
 78
     2
 67
     7
 79
     3
170
     0
171
     0
290
     0
174
     0
 93
        1
 44
0.0
173
     0
291
     0
 45
0.0
1001
ACAD
1000
AcDbSavedByObjectVersion
1070
     0
  0
VISUALSTYLE
  5
30
102
{ACAD_REACTORS
330
2A
102
}
102
{ACAD_XDICTIONARY
360
242
102
}
330
2A
100
AcDbVisualStyle
  2
3dWireframe
 70
     5
 71
     0
 72
     2
 73
     0
 90
        0
 40
-0.6
 41
-30.0
 62
     5
 63
     7
421
 16777215
 74
     1
 91
        4
 64
     7
 65
   257
 75
     1
175
     1
 42
1.0
 92
        0
 66
   257
 43
1.0
 76
     1
 77
     6
 78
     2
 67
     7
 79
     5
170
     0
171
     0
290
     0
174
     0
 93
        1
 44
0.0
173
     0
291
     0
 45
0.0
1001
ACAD
1000
AcDbSavedByObjectVersion
1070
     0
  0
VISUALSTYLE
  5
32
102
{ACAD_REACTORS
330
2A
102
}
102
{ACAD_XDICTIONARY
360
246
102
}
330
2A
100
AcDbVisualStyle
  2
Basic
 70
     7
 71
     1
 72
     0
 73
     1
 90
        0
 40
-0.6
 41
-30.0
 62
     5
 63
     7
421
 16777215
 74
     0
 91
        4
 64
     7
 65
   257
 75
     1
175
     1
 42
1.0
 92
        8
 66
     7
 43
1.0
 76
     1
 77
     6
 78
     2
 67
     7
 79
     5
170
     0
171
     0
290
     0
174
     0
 93
        1
 44
0.0
173
     0
291
     1
 45
0.0
1001
ACAD
1000
AcDbSavedByObjectVersion
1070
     0
  0
VISUALSTYLE
  5
36
102
{ACAD_REACTORS
330
2A
102
}
102
{ACAD_XDICTIONARY
360
24E
102
}
330
2A
100
AcDbVisualStyle
  2
Brighten
 70
    12
 71
     2
 72
     2
 73
     0
 90
        0
 40
-0.6
 41
-30.0
 62
     5
 63
     7
421
 16777215
 74
     1
 91
        4
 64
     7
 65
   257
 75
     1
175
     1
 42
1.0
 92
        8
 66
     7
 43
1.0
 76
     1
 77
     6
 78
     2
 67
     7
 79
     5
170
     0
171
     0
290
     0
174
     0
 93
        1
 44
50.0
173
     0
291
     1
 45
0.0
1001
ACAD
1000
AcDbSavedByObjectVersion
1070
     0
  0
VISUALSTYLE
  5
3A
102
{ACAD_REACTORS
330
2A
102
}
102
{ACAD_XDICTIONARY
360
256
102
}
330
2A
100
AcDbVisualStyle
  2
ColorChange
 70
    16
 71
     2
 72
     2
 73
     3
 90
        0
 40
-0.6
 41
-30.0
 62
     5
 63
     8
421
  8421504
 74
     1
 91
        4
 64
     7
 65
   257
 75
     1
175
     1
 42
1.0
 92
        8
 66
     8
424
  8421504
 43
1.0
 76
     1
 77
     6
 78
     2
 67
     7
 79
     5
170
     0
171
     0
290
     0
174
     0
 93
        1
 44
0.0
173
     0
291
     1
 45
0.0
1001
ACAD
1000
AcDbSavedByObjectVersion
1070
     0
  0
VISUALSTYLE
  5
34
102
{ACAD_REACTORS
330
2A
102
}
102
{ACAD_XDICTIONARY
360
24A
102
}
330
2A
100
AcDbVisualStyle
  2
Conceptual
 70
     9
 71
     3
 72
     2
 73
     0
 90
        0
 40
-0.6
 41
-30.0
 62
     5
 63
     7
421
 16777215
 74
     2
 91
        2
 64
     7
 65
   257
 75
     1
175
     1
 42
40.0
 92
        8
 66
     7
 43
1.0
 76
     1
 77
     6
 78
     2
 67
     7
 79
     3
170
     0
171
     0
290
     0
174
     0
 93
        1
 44
0.0
173
     0
291
     0
 45
0.0
1001
ACAD
1000
AcDbSavedByObjectVersion
1070
     0
  0
VISUALSTYLE
  5
35
102
{ACAD_REACTORS
330
2A
102
}
102
{ACAD_XDICTIONARY
360
24C
102
}
330
2A
100
AcDbVisualStyle
  2
Dim
 70
    11
 71
     2
 72
     2
 73
     0
 90
        0
 40
-0.6
 41
-30.0
 62
     5
 63
     7
421
 16777215
 74
     1
 91
        4
 64
     7
 65
   257
 75
     1
175
     1
 42
1.0
 92
        8
 66
     7
 43
1.0
 76
     1
 77
     6
 78
     2
 67
     7
 79
     5
170
     0
171
     0
290
     0
174
     0
 93
        1
 44
-50.0
173
     0
291
     1
 45
0.0
1001
ACAD
1000
AcDbSavedByObjectVersion
1070
     0
  0
VISUALSTYLE
  5
39
102
{ACAD_REACTORS
330
2A
102
}
102
{ACAD_XDICTIONARY
360
254
102
}
330
2A
100
AcDbVisualStyle
  2
Facepattern
 70
    15
 71
     2
 72
     2
 73
     0
 90
        0
 40
-0.6
 41
-30.0
 62
     5
 63
     7
421
 16777215
 74
     1
 91
        4
 64
     7
 65
   257
 75
     1
175
     1
 42
1.0
 92
        8
 66
     7
 43
1.0
 76
     1
 77
     6
 78
     2
 67
     7
 79
     5
170
     0
171
     0
290
     0
174
     0
 93
        1
 44
0.0
173
     0
291
     1
 45
0.0
1001
ACAD
1000
AcDbSavedByObjectVersion
1070
     0
  0
VISUALSTYLE
  5
2B
102
{ACAD_REACTORS
330
2A
102
}
102
{ACAD_XDICTIONARY
360
238
102
}
330
2A
100
AcDbVisualStyle
  2
Flat
 70
     0
 71
     2
 72
     1
 73
     1
 90
        2
 40
-0.6
 41
30.0
 62
     5
 63
     7
421
 16777215
 74
     0
 91
        4
 64
     7
 65
   257
 75
     1
175
     1
 42
1.0
 92
        8
 66
     7
 43
1.0
 76
     1
 77
     6
 78
     2
 67
     7
 79
     5
170
     0
171
     0
290
     0
174
     0
 93
       13
 44
0.0
173
     0
291
     1
 45
0.0
1001
ACAD
1000
AcDbSavedByObjectVersion
1070
     0
  0
VISUALSTYLE
  5
2C
102
{ACAD_REACTORS
330
2A
102
}
102
{ACAD_XDICTIONARY
360
23A
102
}
330
2A
100
AcDbVisualStyle
  2
FlatWithEdges
 70
     1
 71
     2
 72
     1
 73
     1
 90
        2
 40
-0.6
 41
30.0
 62
     5
 63
     7
421
 16777215
 74
     1
 91
        4
 64
     7
 65
   257
 75
     1
175
     1
 42
1.0
 92
        0
 66
   257
 43
1.0
 76
     1
 77
     6
 78
     2
 67
     7
 79
     5
170
     0
171
     0
290
     0
174
     0
 93
       13
 44
0.0
173
     0
291
     1
 45
0.0
1001
ACAD
1000
AcDbSavedByObjectVersion
1070
     0
  0
VISUALSTYLE
  5
2D
102
{ACAD_REACTORS
330
2A
102
}
102
{ACAD_XDICTIONARY
360
23C
102
}
330
2A
100
AcDbVisualStyle
  2
Gouraud
 70
     2
 71
     2
 72
     2
 73
     1
 90
        2
 40
-0.6
 41
30.0
 62
     5
 63
     7
421
 16777215
 74
     0
 91
        4
 64
     7
 65
   257
 75
     1
175
     1
 42
1.0
 92
        0
 66
     7
 43
1.0
 76
     1
 77
     6
 78
     2
 67
     7
 79
     5
170
     0
171
     0
290
     0
174
     0
 93
       13
 44
0.0
173
     0
291
     1
 45
0.0
1001
ACAD
1000
AcDbSavedByObjectVersion
1070
     0
  0
VISUALSTYLE
  5
2E
102
{ACAD_REACTORS
330
2A
102
}
102
{ACAD_XDICTIONARY
360
23E
102
}
330
2A
100
AcDbVisualStyle
  2
GouraudWithEdges
 70
     3
 71
     2
 72
     2
 73
     1
 90
        2
 40
-0.6
 41
30.0
 62
     5
 63
     7
421
 16777215
 74
     1
 91
        4
 64
     7
 65
   257
 75
     1
175
     1
 42
1.0
 92
        0
 66
   257
 43
1.0
 76
     1
 77
     6
 78
     2
 67
     7
 79
     5
170
     0
171
     0
290
     0
174
     0
 93
       13
 44
0.0
173
     0
291
     1
 45
0.0
1001
ACAD
1000
AcDbSavedByObjectVersion
1070
     0
  0
VISUALSTYLE
  5
38
102
{ACAD_REACTORS
330
2A
102
}
102
{ACAD_XDICTIONARY
360
252
102
}
330
2A
100
AcDbVisualStyle
  2
Linepattern
 70
    14
 71
     2
 72
     2
 73
     0
 90
        0
 40
-0.6
 41
-30.0
 62
     5
 63
     7
421
 16777215
 74
     1
 91
        4
 64
     7
 65
   257
 75
     7
175
     7
 42
1.0
 92
        8
 66
     7
 43
1.0
 76
     1
 77
     6
 78
     2
 67
     7
 79
     5
170
     0
171
     0
290
     0
174
     0
 93
        1
 44
0.0
173
     0
291
     1
 45
0.0
1001
ACAD
1000
AcDbSavedByObjectVersion
1070
     0
  0
VISUALSTYLE
  5
33
102
{ACAD_REACTORS
330
2A
102
}
102
{ACAD_XDICTIONARY
360
248
102
}
330
2A
100
AcDbVisualStyle
  2
Realistic
 70
     8
 71
     2
 72
     2
 73
     0
 90
        0
 40
-0.6
 41
-30.0
 62
     5
 63
     7
421
 16777215
 74
     1
 91
        0
 64
     7
 65
   257
 75
     1
175
     1
 42
1.0
 92
        8
 66
     8
424
  7895160
 43
1.0
 76
     1
 77
     6
 78
     2
 67
     7
 79
     5
170
     0
171
     0
290
     0
174
     0
 93
       13
 44
0.0
173
     0
291
     0
 45
0.0
1001
ACAD
1000
AcDbSavedByObjectVersion
1070
     0
  0
VISUALSTYLE
  5
37
102
{ACAD_REACTORS
330
2A
102
}
102
{ACAD_XDICTIONARY
360
250
102
}
330
2A
100
AcDbVisualStyle
  2
Thicken
 70
    13
 71
     2
 72
     2
 73
     0
 90
        0
 40
-0.6
 41
-30.0
 62
     5
 63
     7
421
 16777215
 74
     1
 91
        4
 64
     7
 65
   257
 75
     1
175
     1
 42
1.0
 92
       12
 66
     7
 43
1.0
 76
     1
 77
     6
 78
     2
 67
     7
 79
     5
170
     0
171
     0
290
     0
174
     0
 93
        1
 44
0.0
173
     0
291
     1
 45
0.0
1001
ACAD
1000
AcDbSavedByObjectVersion
1070
     0
  0
DICTIONARY
  5
25A
330
3D
100
AcDbDictionary
280
     1
281
     1
  3
ACAD_XREC_ROUNDTRIP
360
25B
  0
DICTIONARY
  5
258
330
3C
100
AcDbDictionary
280
     1
281
     1
  3
ACAD_XREC_ROUNDTRIP
360
259
  0
DICTIONARY
  5
25C
330
3E
100
AcDbDictionary
280
     1
281
     1
  3
ACAD_XREC_ROUNDTRIP
360
25D
  0
DICTIONARY
  5
240
330
2F
100
AcDbDictionary
280
     1
281
     1
  3
ACAD_XREC_ROUNDTRIP
360
241
  0
DICTIONARY
  5
244
330
31
100
AcDbDictionary
280
     1
281
     1
  3
ACAD_XREC_ROUNDTRIP
360
245
  0
DICTIONARY
  5
242
330
30
100
AcDbDictionary
280
     1
281
     1
  3
ACAD_XREC_ROUNDTRIP
360
243
  0
DICTIONARY
  5
246
330
32
100
AcDbDictionary
280
     1
281
     1
  3
ACAD_XREC_ROUNDTRIP
360
247
  0
DICTIONARY
  5
24E
330
36
100
AcDbDictionary
280
     1
281
     1
  3
ACAD_XREC_ROUNDTRIP
360
24F
  0
DICTIONARY
  5
256
330
3A
100
AcDbDictionary
280
     1
281
     1
  3
ACAD_XREC_ROUNDTRIP
360
257
  0
DICTIONARY
  5
24A
330
34
100
AcDbDictionary
280
     1
281
     1
  3
ACAD_XREC_ROUNDTRIP
360
24B
  0
DICTIONARY
  5
24C
330
35
100
AcDbDictionary
280
     1
281
     1
  3
ACAD_XREC_ROUNDTRIP
360
24D
  0
DICTIONARY
  5
254
330
39
100
AcDbDictionary
280
     1
281
     1
  3
ACAD_XREC_ROUNDTRIP
360
255
  0
DICTIONARY
  5
238
330
2B
100
AcDbDictionary
280
     1
281
     1
  3
ACAD_XREC_ROUNDTRIP
360
239
  0
DICTIONARY
  5
23A
330
2C
100
AcDbDictionary
280
     1
281
     1
  3
ACAD_XREC_ROUNDTRIP
360
23B
  0
DICTIONARY
  5
23C
330
2D
100
AcDbDictionary
280
     1
281
     1
  3
ACAD_XREC_ROUNDTRIP
360
23D
  0
DICTIONARY
  5
23E
330
2E
100
AcDbDictionary
280
     1
281
     1
  3
ACAD_XREC_ROUNDTRIP
360
23F
  0
DICTIONARY
  5
252
330
38
100
AcDbDictionary
280
     1
281
     1
  3
ACAD_XREC_ROUNDTRIP
360
253
  0
DICTIONARY
  5
248
330
33
100
AcDbDictionary
280
     1
281
     1
  3
ACAD_XREC_ROUNDTRIP
360
249
  0
DICTIONARY
  5
250
330
37
100
AcDbDictionary
280
     1
281
     1
  3
ACAD_XREC_ROUNDTRIP
360
251
  0
XRECORD
  5
25B
102
{ACAD_REACTORS
330
25A
102
}
330
25A
100
AcDbXrecord
280
     1
102
MATERIAL
148
0.0
149
0.0
149
0.0
 93
        0
 94
      127
282
     0
 72
     1
 77
     1
171
     1
175
     1
179
     1
273
     0
  0
XRECORD
  5
259
102
{ACAD_REACTORS
330
258
102
}
330
258
100
AcDbXrecord
280
     1
102
MATERIAL
148
0.0
149
0.0
149
0.0
 93
        0
 94
      127
282
     0
 72
     1
 77
     1
171
     1
175
     1
179
     1
273
     0
  0
XRECORD
  5
25D
102
{ACAD_REACTORS
330
25C
102
}
330
25C
100
AcDbXrecord
280
     1
102
MATERIAL
148
0.0
149
0.0
149
0.0
 93
        0
 94
      127
282
     0
 72
     1
 77
     1
171
     1
175
     1
179
     1
273
     0
  0
XRECORD
  5
241
102
{ACAD_REACTORS
330
240
102
}
330
240
100
AcDbXrecord
280
     1
102
RTVSPropertyOp0
 70
     1
102
RTVSPropertyOp1
 70
     1
102
RTVSPropertyOp2
 70
     1
102
RTVSPropertyOp3
 70
     1
102
RTVSPropertyOp4
 70
     1
102
RTVSPropertyOp5
 70
     1
102
RTVSPropertyOp6
 70
     1
102
RTVSPropertyOp7
 70
     1
102
RTVSPropertyOp8
 70
     1
102
RTVSPropertyOp9
 70
     1
102
RTVSPropertyOp10
 70
     1
102
RTVSPropertyOp11
 70
     1
102
RTVSPropertyOp12
 70
     1
102
RTVSPropertyOp13
 70
     1
102
RTVSPropertyOp14
 70
     1
102
RTVSPropertyOp15
 70
     1
102
RTVSPropertyOp16
 70
     1
102
RTVSPropertyOp17
 70
     1
102
RTVSPropertyOp18
 70
     1
102
RTVSPropertyOp19
 70
     1
102
RTVSPropertyOp20
 70
     1
102
RTVSPropertyOp21
 70
     1
102
RTVSPropertyOp22
 70
     1
102
RTVSPropertyOp23
 70
     1
102
RTVSPropertyOp24
 70
     1
102
RTVSPropertyOp25
 70
     1
102
RTVSPropertyOp26
 70
     1
102
RTVSPropertyOp27
 70
     1
102
RTVSPropertyOp28
 70
     1
102
RTVSPropertyOp29
 70
     1
102
RTVSPropertyOp30
 70
     1
102
RTVSPropertyOp31
 70
     1
102
RTVSPropertyOp32
 70
     1
  0
XRECORD
  5
245
102
{ACAD_REACTORS
330
244
102
}
330
244
100
AcDbXrecord
280
     1
102
RTVSPropertyOp0
 70
     1
102
RTVSPropertyOp1
 70
     1
102
RTVSPropertyOp2
 70
     1
102
RTVSPropertyOp3
 70
     1
102
RTVSPropertyOp4
 70
     1
102
RTVSPropertyOp5
 70
     1
102
RTVSPropertyOp6
 70
     1
102
RTVSPropertyOp7
 70
     1
102
RTVSPropertyOp8
 70
     1
102
RTVSPropertyOp9
 70
     1
102
RTVSPropertyOp10
 70
     1
102
RTVSPropertyOp11
 70
     1
102
RTVSPropertyOp12
 70
     1
102
RTVSPropertyOp13
 70
     1
102
RTVSPropertyOp14
 70
     1
102
RTVSPropertyOp15
 70
     1
102
RTVSPropertyOp16
 70
     1
102
RTVSPropertyOp17
 70
     1
102
RTVSPropertyOp18
 70
     1
102
RTVSPropertyOp19
 70
     1
102
RTVSPropertyOp20
 70
     1
102
RTVSPropertyOp21
 70
     1
102
RTVSPropertyOp22
 70
     1
102
RTVSPropertyOp23
 70
     1
102
RTVSPropertyOp24
 70
     1
102
RTVSPropertyOp25
 70
     1
102
RTVSPropertyOp26
 70
     1
102
RTVSPropertyOp27
 70
     1
102
RTVSPropertyOp28
 70
     1
102
RTVSPropertyOp29
 70
     1
102
RTVSPropertyOp30
 70
     1
102
RTVSPropertyOp31
 70
     1
102
RTVSPropertyOp32
 70
     1
  0
XRECORD
  5
243
102
{ACAD_REACTORS
330
242
102
}
330
242
100
AcDbXrecord
280
     1
102
RTVSPropertyOp0
 70
     1
102
RTVSPropertyOp1
 70
     1
102
RTVSPropertyOp2
 70
     1
102
RTVSPropertyOp3
 70
     1
102
RTVSPropertyOp4
 70
     1
102
RTVSPropertyOp5
 70
     1
102
RTVSPropertyOp6
 70
     1
102
RTVSPropertyOp7
 70
     1
102
RTVSPropertyOp8
 70
     1
102
RTVSPropertyOp9
 70
     1
102
RTVSPropertyOp10
 70
     1
102
RTVSPropertyOp11
 70
     1
102
RTVSPropertyOp12
 70
     1
102
RTVSPropertyOp13
 70
     1
102
RTVSPropertyOp14
 70
     1
102
RTVSPropertyOp15
 70
     1
102
RTVSPropertyOp16
 70
     1
102
RTVSPropertyOp17
 70
     1
102
RTVSPropertyOp18
 70
     1
102
RTVSPropertyOp19
 70
     1
102
RTVSPropertyOp20
 70
     1
102
RTVSPropertyOp21
 70
     1
102
RTVSPropertyOp22
 70
     1
102
RTVSPropertyOp23
 70
     1
102
RTVSPropertyOp24
 70
     1
102
RTVSPropertyOp25
 70
     1
102
RTVSPropertyOp26
 70
     1
102
RTVSPropertyOp27
 70
     1
102
RTVSPropertyOp28
 70
     1
102
RTVSPropertyOp29
 70
     1
102
RTVSPropertyOp30
 70
     1
102
RTVSPropertyOp31
 70
     1
102
RTVSPropertyOp32
 70
     1
  0
XRECORD
  5
247
102
{ACAD_REACTORS
330
246
102
}
330
246
100
AcDbXrecord
280
     1
102
RTVSPropertyOp0
 70
     1
102
RTVSPropertyOp1
 70
     1
102
RTVSPropertyOp2
 70
     1
102
RTVSPropertyOp3
 70
     1
102
RTVSPropertyOp4
 70
     1
102
RTVSPropertyOp5
 70
     1
102
RTVSPropertyOp6
 70
     1
102
RTVSPropertyOp7
 70
     1
102
RTVSPropertyOp8
 70
     1
102
RTVSPropertyOp9
 70
     1
102
RTVSPropertyOp10
 70
     1
102
RTVSPropertyOp11
 70
     1
102
RTVSPropertyOp12
 70
     1
102
RTVSPropertyOp13
 70
     1
102
RTVSPropertyOp14
 70
     1
102
RTVSPropertyOp15
 70
     1
102
RTVSPropertyOp16
 70
     1
102
RTVSPropertyOp17
 70
     1
102
RTVSPropertyOp18
 70
     1
102
RTVSPropertyOp19
 70
     1
102
RTVSPropertyOp20
 70
     1
102
RTVSPropertyOp21
 70
     1
102
RTVSPropertyOp22
 70
     1
102
RTVSPropertyOp23
 70
     1
102
RTVSPropertyOp24
 70
     1
102
RTVSPropertyOp25
 70
     1
102
RTVSPropertyOp26
 70
     1
102
RTVSPropertyOp27
 70
     1
102
RTVSPropertyOp28
 70
     1
102
RTVSPropertyOp29
 70
     1
102
RTVSPropertyOp30
 70
     1
102
RTVSPropertyOp31
 70
     1
102
RTVSPropertyOp32
 70
     1
  0
XRECORD
  5
24F
102
{ACAD_REACTORS
330
24E
102
}
330
24E
100
AcDbXrecord
280
     1
102
RTVSPropertyOp0
 70
     1
102
RTVSPropertyOp1
 70
     1
102
RTVSPropertyOp2
 70
     1
102
RTVSPropertyOp3
 70
     1
102
RTVSPropertyOp4
 70
     1
102
RTVSPropertyOp5
 70
     1
102
RTVSPropertyOp6
 70
     1
102
RTVSPropertyOp7
 70
     1
102
RTVSPropertyOp8
 70
     1
102
RTVSPropertyOp9
 70
     1
102
RTVSPropertyOp10
 70
     1
102
RTVSPropertyOp11
 70
     1
102
RTVSPropertyOp12
 70
     1
102
RTVSPropertyOp13
 70
     1
102
RTVSPropertyOp14
 70
     1
102
RTVSPropertyOp15
 70
     1
102
RTVSPropertyOp16
 70
     1
102
RTVSPropertyOp17
 70
     1
102
RTVSPropertyOp18
 70
     1
102
RTVSPropertyOp19
 70
     1
102
RTVSPropertyOp20
 70
     1
102
RTVSPropertyOp21
 70
     1
102
RTVSPropertyOp22
 70
     1
102
RTVSPropertyOp23
 70
     1
102
RTVSPropertyOp24
 70
     1
102
RTVSPropertyOp25
 70
     1
102
RTVSPropertyOp26
 70
     1
102
RTVSPropertyOp27
 70
     1
102
RTVSPropertyOp28
 70
     1
102
RTVSPropertyOp29
 70
     1
102
RTVSPropertyOp30
 70
     1
102
RTVSPropertyOp31
 70
     1
102
RTVSPropertyOp32
 70
     1
  0
XRECORD
  5
257
102
{ACAD_REACTORS
330
256
102
}
330
256
100
AcDbXrecord
280
     1
102
RTVSPropertyOp0
 70
     1
102
RTVSPropertyOp1
 70
     1
102
RTVSPropertyOp2
 70
     1
102
RTVSPropertyOp3
 70
     1
102
RTVSPropertyOp4
 70
     1
102
RTVSPropertyOp5
 70
     1
102
RTVSPropertyOp6
 70
     1
102
RTVSPropertyOp7
 70
     1
102
RTVSPropertyOp8
 70
     1
102
RTVSPropertyOp9
 70
     1
102
RTVSPropertyOp10
 70
     1
102
RTVSPropertyOp11
 70
     1
102
RTVSPropertyOp12
 70
     1
102
RTVSPropertyOp13
 70
     1
102
RTVSPropertyOp14
 70
     1
102
RTVSPropertyOp15
 70
     1
102
RTVSPropertyOp16
 70
     1
102
RTVSPropertyOp17
 70
     1
102
RTVSPropertyOp18
 70
     1
102
RTVSPropertyOp19
 70
     1
102
RTVSPropertyOp20
 70
     1
102
RTVSPropertyOp21
 70
     1
102
RTVSPropertyOp22
 70
     1
102
RTVSPropertyOp23
 70
     1
102
RTVSPropertyOp24
 70
     1
102
RTVSPropertyOp25
 70
     1
102
RTVSPropertyOp26
 70
     1
102
RTVSPropertyOp27
 70
     1
102
RTVSPropertyOp28
 70
     1
102
RTVSPropertyOp29
 70
     1
102
RTVSPropertyOp30
 70
     1
102
RTVSPropertyOp31
 70
     1
102
RTVSPropertyOp32
 70
     1
  0
XRECORD
  5
24B
102
{ACAD_REACTORS
330
24A
102
}
330
24A
100
AcDbXrecord
280
     1
102
RTVSPropertyOp0
 70
     1
102
RTVSPropertyOp1
 70
     1
102
RTVSPropertyOp2
 70
     1
102
RTVSPropertyOp3
 70
     1
102
RTVSPropertyOp4
 70
     1
102
RTVSPropertyOp5
 70
     1
102
RTVSPropertyOp6
 70
     1
102
RTVSPropertyOp7
 70
     1
102
RTVSPropertyOp8
 70
     1
102
RTVSPropertyOp9
 70
     1
102
RTVSPropertyOp10
 70
     1
102
RTVSPropertyOp11
 70
     1
102
RTVSPropertyOp12
 70
     1
102
RTVSPropertyOp13
 70
     1
102
RTVSPropertyOp14
 70
     1
102
RTVSPropertyOp15
 70
     1
102
RTVSPropertyOp16
 70
     1
102
RTVSPropertyOp17
 70
     1
102
RTVSPropertyOp18
 70
     1
102
RTVSPropertyOp19
 70
     1
102
RTVSPropertyOp20
 70
     1
102
RTVSPropertyOp21
 70
     1
102
RTVSPropertyOp22
 70
     1
102
RTVSPropertyOp23
 70
     1
102
RTVSPropertyOp24
 70
     1
102
RTVSPropertyOp25
 70
     1
102
RTVSPropertyOp26
 70
     1
102
RTVSPropertyOp27
 70
     1
102
RTVSPropertyOp28
 70
     1
102
RTVSPropertyOp29
 70
     1
102
RTVSPropertyOp30
 70
     1
102
RTVSPropertyOp31
 70
     1
102
RTVSPropertyOp32
 70
     1
  0
XRECORD
  5
24D
102
{ACAD_REACTORS
330
24C
102
}
330
24C
100
AcDbXrecord
280
     1
102
RTVSPropertyOp0
 70
     1
102
RTVSPropertyOp1
 70
     1
102
RTVSPropertyOp2
 70
     1
102
RTVSPropertyOp3
 70
     1
102
RTVSPropertyOp4
 70
     1
102
RTVSPropertyOp5
 70
     1
102
RTVSPropertyOp6
 70
     1
102
RTVSPropertyOp7
 70
     1
102
RTVSPropertyOp8
 70
     1
102
RTVSPropertyOp9
 70
     1
102
RTVSPropertyOp10
 70
     1
102
RTVSPropertyOp11
 70
     1
102
RTVSPropertyOp12
 70
     1
102
RTVSPropertyOp13
 70
     1
102
RTVSPropertyOp14
 70
     1
102
RTVSPropertyOp15
 70
     1
102
RTVSPropertyOp16
 70
     1
102
RTVSPropertyOp17
 70
     1
102
RTVSPropertyOp18
 70
     1
102
RTVSPropertyOp19
 70
     1
102
RTVSPropertyOp20
 70
     1
102
RTVSPropertyOp21
 70
     1
102
RTVSPropertyOp22
 70
     1
102
RTVSPropertyOp23
 70
     1
102
RTVSPropertyOp24
 70
     1
102
RTVSPropertyOp25
 70
     1
102
RTVSPropertyOp26
 70
     1
102
RTVSPropertyOp27
 70
     1
102
RTVSPropertyOp28
 70
     1
102
RTVSPropertyOp29
 70
     1
102
RTVSPropertyOp30
 70
     1
102
RTVSPropertyOp31
 70
     1
102
RTVSPropertyOp32
 70
     1
  0
XRECORD
  5
255
102
{ACAD_REACTORS
330
254
102
}
330
254
100
AcDbXrecord
280
     1
102
RTVSPropertyOp0
 70
     1
102
RTVSPropertyOp1
 70
     1
102
RTVSPropertyOp2
 70
     1
102
RTVSPropertyOp3
 70
     1
102
RTVSPropertyOp4
 70
     1
102
RTVSPropertyOp5
 70
     1
102
RTVSPropertyOp6
 70
     1
102
RTVSPropertyOp7
 70
     1
102
RTVSPropertyOp8
 70
     1
102
RTVSPropertyOp9
 70
     1
102
RTVSPropertyOp10
 70
     1
102
RTVSPropertyOp11
 70
     1
102
RTVSPropertyOp12
 70
     1
102
RTVSPropertyOp13
 70
     1
102
RTVSPropertyOp14
 70
     1
102
RTVSPropertyOp15
 70
     1
102
RTVSPropertyOp16
 70
     1
102
RTVSPropertyOp17
 70
     1
102
RTVSPropertyOp18
 70
     1
102
RTVSPropertyOp19
 70
     1
102
RTVSPropertyOp20
 70
     1
102
RTVSPropertyOp21
 70
     1
102
RTVSPropertyOp22
 70
     1
102
RTVSPropertyOp23
 70
     1
102
RTVSPropertyOp24
 70
     1
102
RTVSPropertyOp25
 70
     1
102
RTVSPropertyOp26
 70
     1
102
RTVSPropertyOp27
 70
     1
102
RTVSPropertyOp28
 70
     1
102
RTVSPropertyOp29
 70
     1
102
RTVSPropertyOp30
 70
     1
102
RTVSPropertyOp31
 70
     1
102
RTVSPropertyOp32
 70
     1
  0
XRECORD
  5
239
102
{ACAD_REACTORS
330
238
102
}
330
238
100
AcDbXrecord
280
     1
102
RTVSPropertyOp0
 70
     1
102
RTVSPropertyOp1
 70
     1
102
RTVSPropertyOp2
 70
     1
102
RTVSPropertyOp3
 70
     1
102
RTVSPropertyOp4
 70
     1
102
RTVSPropertyOp5
 70
     1
102
RTVSPropertyOp6
 70
     1
102
RTVSPropertyOp7
 70
     1
102
RTVSPropertyOp8
 70
     1
102
RTVSPropertyOp9
 70
     1
102
RTVSPropertyOp10
 70
     1
102
RTVSPropertyOp11
 70
     1
102
RTVSPropertyOp12
 70
     1
102
RTVSPropertyOp13
 70
     1
102
RTVSPropertyOp14
 70
     1
102
RTVSPropertyOp15
 70
     1
102
RTVSPropertyOp16
 70
     1
102
RTVSPropertyOp17
 70
     1
102
RTVSPropertyOp18
 70
     1
102
RTVSPropertyOp19
 70
     1
102
RTVSPropertyOp20
 70
     1
102
RTVSPropertyOp21
 70
     1
102
RTVSPropertyOp22
 70
     1
102
RTVSPropertyOp23
 70
     1
102
RTVSPropertyOp24
 70
     1
102
RTVSPropertyOp25
 70
     1
102
RTVSPropertyOp26
 70
     1
102
RTVSPropertyOp27
 70
     1
102
RTVSPropertyOp28
 70
     1
102
RTVSPropertyOp29
 70
     1
102
RTVSPropertyOp30
 70
     1
102
RTVSPropertyOp31
 70
     1
102
RTVSPropertyOp32
 70
     1
  0
XRECORD
  5
23B
102
{ACAD_REACTORS
330
23A
102
}
330
23A
100
AcDbXrecord
280
     1
102
RTVSPropertyOp0
 70
     1
102
RTVSPropertyOp1
 70
     1
102
RTVSPropertyOp2
 70
     1
102
RTVSPropertyOp3
 70
     1
102
RTVSPropertyOp4
 70
     1
102
RTVSPropertyOp5
 70
     1
102
RTVSPropertyOp6
 70
     1
102
RTVSPropertyOp7
 70
     1
102
RTVSPropertyOp8
 70
     1
102
RTVSPropertyOp9
 70
     1
102
RTVSPropertyOp10
 70
     1
102
RTVSPropertyOp11
 70
     1
102
RTVSPropertyOp12
 70
     1
102
RTVSPropertyOp13
 70
     1
102
RTVSPropertyOp14
 70
     1
102
RTVSPropertyOp15
 70
     1
102
RTVSPropertyOp16
 70
     1
102
RTVSPropertyOp17
 70
     1
102
RTVSPropertyOp18
 70
     1
102
RTVSPropertyOp19
 70
     1
102
RTVSPropertyOp20
 70
     1
102
RTVSPropertyOp21
 70
     1
102
RTVSPropertyOp22
 70
     1
102
RTVSPropertyOp23
 70
     1
102
RTVSPropertyOp24
 70
     1
102
RTVSPropertyOp25
 70
     1
102
RTVSPropertyOp26
 70
     1
102
RTVSPropertyOp27
 70
     1
102
RTVSPropertyOp28
 70
     1
102
RTVSPropertyOp29
 70
     1
102
RTVSPropertyOp30
 70
     1
102
RTVSPropertyOp31
 70
     1
102
RTVSPropertyOp32
 70
     1
  0
XRECORD
  5
23D
102
{ACAD_REACTORS
330
23C
102
}
330
23C
100
AcDbXrecord
280
     1
102
RTVSPropertyOp0
 70
     1
102
RTVSPropertyOp1
 70
     1
102
RTVSPropertyOp2
 70
     1
102
RTVSPropertyOp3
 70
     1
102
RTVSPropertyOp4
 70
     1
102
RTVSPropertyOp5
 70
     1
102
RTVSPropertyOp6
 70
     1
102
RTVSPropertyOp7
 70
     1
102
RTVSPropertyOp8
 70
     1
102
RTVSPropertyOp9
 70
     1
102
RTVSPropertyOp10
 70
     1
102
RTVSPropertyOp11
 70
     1
102
RTVSPropertyOp12
 70
     1
102
RTVSPropertyOp13
 70
     1
102
RTVSPropertyOp14
 70
     1
102
RTVSPropertyOp15
 70
     1
102
RTVSPropertyOp16
 70
     1
102
RTVSPropertyOp17
 70
     1
102
RTVSPropertyOp18
 70
     1
102
RTVSPropertyOp19
 70
     1
102
RTVSPropertyOp20
 70
     1
102
RTVSPropertyOp21
 70
     1
102
RTVSPropertyOp22
 70
     1
102
RTVSPropertyOp23
 70
     1
102
RTVSPropertyOp24
 70
     1
102
RTVSPropertyOp25
 70
     1
102
RTVSPropertyOp26
 70
     1
102
RTVSPropertyOp27
 70
     1
102
RTVSPropertyOp28
 70
     1
102
RTVSPropertyOp29
 70
     1
102
RTVSPropertyOp30
 70
     1
102
RTVSPropertyOp31
 70
     1
102
RTVSPropertyOp32
 70
     1
  0
XRECORD
  5
23F
102
{ACAD_REACTORS
330
23E
102
}
330
23E
100
AcDbXrecord
280
     1
102
RTVSPropertyOp0
 70
     1
102
RTVSPropertyOp1
 70
     1
102
RTVSPropertyOp2
 70
     1
102
RTVSPropertyOp3
 70
     1
102
RTVSPropertyOp4
 70
     1
102
RTVSPropertyOp5
 70
     1
102
RTVSPropertyOp6
 70
     1
102
RTVSPropertyOp7
 70
     1
102
RTVSPropertyOp8
 70
     1
102
RTVSPropertyOp9
 70
     1
102
RTVSPropertyOp10
 70
     1
102
RTVSPropertyOp11
 70
     1
102
RTVSPropertyOp12
 70
     1
102
RTVSPropertyOp13
 70
     1
102
RTVSPropertyOp14
 70
     1
102
RTVSPropertyOp15
 70
     1
102
RTVSPropertyOp16
 70
     1
102
RTVSPropertyOp17
 70
     1
102
RTVSPropertyOp18
 70
     1
102
RTVSPropertyOp19
 70
     1
102
RTVSPropertyOp20
 70
     1
102
RTVSPropertyOp21
 70
     1
102
RTVSPropertyOp22
 70
     1
102
RTVSPropertyOp23
 70
     1
102
RTVSPropertyOp24
 70
     1
102
RTVSPropertyOp25
 70
     1
102
RTVSPropertyOp26
 70
     1
102
RTVSPropertyOp27
 70
     1
102
RTVSPropertyOp28
 70
     1
102
RTVSPropertyOp29
 70
     1
102
RTVSPropertyOp30
 70
     1
102
RTVSPropertyOp31
 70
     1
102
RTVSPropertyOp32
 70
     1
  0
XRECORD
  5
253
102
{ACAD_REACTORS
330
252
102
}
330
252
100
AcDbXrecord
280
     1
102
RTVSPropertyOp0
 70
     1
102
RTVSPropertyOp1
 70
     1
102
RTVSPropertyOp2
 70
     1
102
RTVSPropertyOp3
 70
     1
102
RTVSPropertyOp4
 70
     1
102
RTVSPropertyOp5
 70
     1
102
RTVSPropertyOp6
 70
     1
102
RTVSPropertyOp7
 70
     1
102
RTVSPropertyOp8
 70
     1
102
RTVSPropertyOp9
 70
     1
102
RTVSPropertyOp10
 70
     1
102
RTVSPropertyOp11
 70
     1
102
RTVSPropertyOp12
 70
     1
102
RTVSPropertyOp13
 70
     1
102
RTVSPropertyOp14
 70
     1
102
RTVSPropertyOp15
 70
     1
102
RTVSPropertyOp16
 70
     1
102
RTVSPropertyOp17
 70
     1
102
RTVSPropertyOp18
 70
     1
102
RTVSPropertyOp19
 70
     1
102
RTVSPropertyOp20
 70
     1
102
RTVSPropertyOp21
 70
     1
102
RTVSPropertyOp22
 70
     1
102
RTVSPropertyOp23
 70
     1
102
RTVSPropertyOp24
 70
     1
102
RTVSPropertyOp25
 70
     1
102
RTVSPropertyOp26
 70
     1
102
RTVSPropertyOp27
 70
     1
102
RTVSPropertyOp28
 70
     1
102
RTVSPropertyOp29
 70
     1
102
RTVSPropertyOp30
 70
     1
102
RTVSPropertyOp31
 70
     1
102
RTVSPropertyOp32
 70
     1
  0
XRECORD
  5
249
102
{ACAD_REACTORS
330
248
102
}
330
248
100
AcDbXrecord
280
     1
102
RTVSPropertyOp0
 70
     1
102
RTVSPropertyOp1
 70
     1
102
RTVSPropertyOp2
 70
     1
102
RTVSPropertyOp3
 70
     1
102
RTVSPropertyOp4
 70
     1
102
RTVSPropertyOp5
 70
     1
102
RTVSPropertyOp6
 70
     1
102
RTVSPropertyOp7
 70
     1
102
RTVSPropertyOp8
 70
     1
102
RTVSPropertyOp9
 70
     1
102
RTVSPropertyOp10
 70
     1
102
RTVSPropertyOp11
 70
     1
102
RTVSPropertyOp12
 70
     1
102
RTVSPropertyOp13
 70
     1
102
RTVSPropertyOp14
 70
     1
102
RTVSPropertyOp15
 70
     1
102
RTVSPropertyOp16
 70
     1
102
RTVSPropertyOp17
 70
     1
102
RTVSPropertyOp18
 70
     1
102
RTVSPropertyOp19
 70
     1
102
RTVSPropertyOp20
 70
     1
102
RTVSPropertyOp21
 70
     1
102
RTVSPropertyOp22
 70
     1
102
RTVSPropertyOp23
 70
     1
102
RTVSPropertyOp24
 70
     1
102
RTVSPropertyOp25
 70
     1
102
RTVSPropertyOp26
 70
     1
102
RTVSPropertyOp27
 70
     1
102
RTVSPropertyOp28
 70
     1
102
RTVSPropertyOp29
 70
     1
102
RTVSPropertyOp30
 70
     1
102
RTVSPropertyOp31
 70
     1
102
RTVSPropertyOp32
 70
     1
  0
XRECORD
  5
251
102
{ACAD_REACTORS
330
250
102
}
330
250
100
AcDbXrecord
280
     1
102
RTVSPropertyOp0
 70
     1
102
RTVSPropertyOp1
 70
     1
102
RTVSPropertyOp2
 70
     1
102
RTVSPropertyOp3
 70
     1
102
RTVSPropertyOp4
 70
     1
102
RTVSPropertyOp5
 70
     1
102
RTVSPropertyOp6
 70
     1
102
RTVSPropertyOp7
 70
     1
102
RTVSPropertyOp8
 70
     1
102
RTVSPropertyOp9
 70
     1
102
RTVSPropertyOp10
 70
     1
102
RTVSPropertyOp11
 70
     1
102
RTVSPropertyOp12
 70
     1
102
RTVSPropertyOp13
 70
     1
102
RTVSPropertyOp14
 70
     1
102
RTVSPropertyOp15
 70
     1
102
RTVSPropertyOp16
 70
     1
102
RTVSPropertyOp17
 70
     1
102
RTVSPropertyOp18
 70
     1
102
RTVSPropertyOp19
 70
     1
102
RTVSPropertyOp20
 70
     1
102
RTVSPropertyOp21
 70
     1
102
RTVSPropertyOp22
 70
     1
102
RTVSPropertyOp23
 70
     1
102
RTVSPropertyOp24
 70
     1
102
RTVSPropertyOp25
 70
     1
102
RTVSPropertyOp26
 70
     1
102
RTVSPropertyOp27
 70
     1
102
RTVSPropertyOp28
 70
     1
102
RTVSPropertyOp29
 70
     1
102
RTVSPropertyOp30
 70
     1
102
RTVSPropertyOp31
 70
     1
102
RTVSPropertyOp32
 70
     1
  0
ENDSEC
  0
EOF
