  0
SECTION
  2
HEADER
  9
$ACADVER
  1
AC1018
  9
$ACADMAINTVER
 70
     0
  9
$DWGCODEPAGE
  3
ANSI_932
  9
$INSBASE
 10
0.0
 20
0.0
 30
0.0
  9
$EXTMIN
 10
-105.0
 20
-148.5
 30
0.0
  9
$EXTMAX
 10
105.0
 20
148.5
 30
0.0
  9
$LIMMIN
 10
-105.0
 20
-148.5
  9
$LIMMAX
 10
105.0
 20
148.5
  9
$ORTHOMODE
 70
     0
  9
$REGENMODE
 70
     1
  9
$FILLMODE
 70
     1
  9
$QTEXTMODE
 70
     0
  9
$MIRRTEXT
 70
     1
  9
$LTSCALE
 40
1.0
  9
$ATTMODE
 70
     1
  9
$TEXTSIZE
 40
2.5
  9
$TRACEWID
 40
1.0
  9
$TEXTSTYLE
  7
Standard
  9
$CLAYER
  8
0
  9
$CELTYPE
  6
ByLayer
  9
$CECOLOR
 62
   256
  9
$CELTSCALE
 40
1.0
  9
$DISPSILH
 70
     0
  9
$DIMSCALE
 40
1.0
  9
$DIMASZ
 40
2.5
  9
$DIMEXO
 40
0.625
  9
$DIMDLI
 40
3.75
  9
$DIMRND
 40
0.0
  9
$DIMDLE
 40
0.0
  9
$DIMEXE
 40
1.25
  9
$DIMTP
 40
0.0
  9
$DIMTM
 40
0.0
  9
$DIMTXT
 40
2.5
  9
$DIMCEN
 40
2.5
  9
$DIMTSZ
 40
0.0
  9
$DIMTOL
 70
     0
  9
$DIMLIM
 70
     0
  9
$DIMTIH
 70
     0
  9
$DIMTOH
 70
     0
  9
$DIMSE1
 70
     0
  9
$DIMSE2
 70
     0
  9
$DIMTAD
 70
     1
  9
$DIMZIN
 70
     8
  9
$DIMBLK
  1

  9
$DIMASO
 70
     1
  9
$DIMSHO
 70
     1
  9
$DIMPOST
  1

  9
$DIMAPOST
  1

  9
$DIMALT
 70
     0
  9
$DIMALTD
 70
     3
  9
$DIMALTF
 40
0.03937007874016
  9
$DIMLFAC
 40
1.0
  9
$DIMTOFL
 70
     1
  9
$DIMTVP
 40
0.0
  9
$DIMTIX
 70
     0
  9
$DIMSOXD
 70
     0
  9
$DIMSAH
 70
     0
  9
$DIMBLK1
  1

  9
$DIMBLK2
  1

  9
$DIMSTYLE
  2
ISO-25
  9
$DIMCLRD
 70
     0
  9
$DIMCLRE
 70
     0
  9
$DIMCLRT
 70
     0
  9
$DIMTFAC
 40
1.0
  9
$DIMGAP
 40
0.625
  9
$DIMJUST
 70
     0
  9
$DIMSD1
 70
     0
  9
$DIMSD2
 70
     0
  9
$DIMTOLJ
 70
     0
  9
$DIMTZIN
 70
     8
  9
$DIMALTZ
 70
     0
  9
$DIMALTTZ
 70
     0
  9
$DIMUPT
 70
     0
  9
$DIMDEC
 70
     2
  9
$DIMTDEC
 70
     2
  9
$DIMALTU
 70
     2
  9
$DIMALTTD
 70
     3
  9
$DIMTXSTY
  7
Standard
  9
$DIMAUNIT
 70
     0
  9
$DIMADEC
 70
     0
  9
$DIMALTRND
 40
0.0
  9
$DIMAZIN
 70
     0
  9
$DIMDSEP
 70
    44
  9
$DIMATFIT
 70
     3
  9
$DIMFRAC
 70
     0
  9
$DIMLDRBLK
  1

  9
$DIMLUNIT
 70
     2
  9
$DIMLWD
 70
    -2
  9
$DIMLWE
 70
    -2
  9
$DIMTMOVE
 70
     0
  9
$LUNITS
 70
     2
  9
$LUPREC
 70
     4
  9
$SKETCHINC
 40
1.0
  9
$FILLETRAD
 40
10.0
  9
$AUNITS
 70
     0
  9
$AUPREC
 70
     0
  9
$MENU
  1
.
  9
$ELEVATION
 40
0.0
  9
$PELEVATION
 40
0.0
  9
$THICKNESS
 40
0.0
  9
$LIMCHECK
 70
     0
  9
$CHAMFERA
 40
10.0
  9
$CHAMFERB
 40
10.0
  9
$CHAMFERC
 40
20.0
  9
$CHAMFERD
 40
0.0
  9
$SKPOLY
 70
     0
  9
$TDCREATE
 40
2457284.828360104
  9
$TDUCREATE
 40
2457284.453360104
  9
$TDUPDATE
 40
2457284.828360416
  9
$TDUUPDATE
 40
2457284.453360416
  9
$TDINDWG
 40
0.0000000116
  9
$TDUSRTIMER
 40
0.0000000116
  9
$USRTIMER
 70
     1
  9
$ANGBASE
 50
0.0
  9
$ANGDIR
 70
     0
  9
$PDMODE
 70
     0
  9
$PDSIZE
 40
0.0
  9
$PLINEWID
 40
0.0
  9
$SPLFRAME
 70
     0
  9
$SPLINETYPE
 70
     6
  9
$SPLINESEGS
 70
     8
  9
$HANDSEED
  5
2BE
  9
$SURFTAB1
 70
     6
  9
$SURFTAB2
 70
     6
  9
$SURFTYPE
 70
     6
  9
$SURFU
 70
     6
  9
$SURFV
 70
     6
  9
$UCSBASE
  2

  9
$UCSNAME
  2

  9
$UCSORG
 10
0.0
 20
0.0
 30
0.0
  9
$UCSXDIR
 10
1.0
 20
0.0
 30
0.0
  9
$UCSYDIR
 10
0.0
 20
1.0
 30
0.0
  9
$UCSORTHOREF
  2

  9
$UCSORTHOVIEW
 70
     0
  9
$UCSORGTOP
 10
0.0
 20
0.0
 30
0.0
  9
$UCSORGBOTTOM
 10
0.0
 20
0.0
 30
0.0
  9
$UCSORGLEFT
 10
0.0
 20
0.0
 30
0.0
  9
$UCSORGRIGHT
 10
0.0
 20
0.0
 30
0.0
  9
$UCSORGFRONT
 10
0.0
 20
0.0
 30
0.0
  9
$UCSORGBACK
 10
0.0
 20
0.0
 30
0.0
  9
$PUCSBASE
  2

  9
$PUCSNAME
  2

  9
$PUCSORG
 10
0.0
 20
0.0
 30
0.0
  9
$PUCSXDIR
 10
1.0
 20
0.0
 30
0.0
  9
$PUCSYDIR
 10
0.0
 20
1.0
 30
0.0
  9
$PUCSORTHOREF
  2

  9
$PUCSORTHOVIEW
 70
     0
  9
$PUCSORGTOP
 10
0.0
 20
0.0
 30
0.0
  9
$PUCSORGBOTTOM
 10
0.0
 20
0.0
 30
0.0
  9
$PUCSORGLEFT
 10
0.0
 20
0.0
 30
0.0
  9
$PUCSORGRIGHT
 10
0.0
 20
0.0
 30
0.0
  9
$PUCSORGFRONT
 10
0.0
 20
0.0
 30
0.0
  9
$PUCSORGBACK
 10
0.0
 20
0.0
 30
0.0
  9
$USERI1
 70
     0
  9
$USERI2
 70
     0
  9
$USERI3
 70
     0
  9
$USERI4
 70
     0
  9
$USERI5
 70
     0
  9
$USERR1
 40
0.0
  9
$USERR2
 40
0.0
  9
$USERR3
 40
0.0
  9
$USERR4
 40
0.0
  9
$USERR5
 40
0.0
  9
$WORLDVIEW
 70
     1
  9
$SHADEDGE
 70
     3
  9
$SHADEDIF
 70
    70
  9
$TILEMODE
 70
     1
  9
$MAXACTVP
 70
    64
  9
$PINSBASE
 10
0.0
 20
0.0
 30
0.0
  9
$PLIMCHECK
 70
     0
  9
$PEXTMIN
 10
1.000000000000000E+20
 20
1.000000000000000E+20
 30
1.000000000000000E+20
  9
$PEXTMAX
 10
-1.000000000000000E+20
 20
-1.000000000000000E+20
 30
-1.000000000000000E+20
  9
$PLIMMIN
 10
-105.0
 20
-148.5
  9
$PLIMMAX
 10
105.0
 20
148.5
  9
$UNITMODE
 70
     0
  9
$VISRETAIN
 70
     1
  9
$PLINEGEN
 70
     0
  9
$PSLTSCALE
 70
     1
  9
$TREEDEPTH
 70
  3020
  9
$CMLSTYLE
  2
Standard
  9
$CMLJUST
 70
     0
  9
$CMLSCALE
 40
20.0
  9
$PROXYGRAPHICS
 70
     1
  9
$MEASUREMENT
 70
     1
  9
$CELWEIGHT
370
    -1
  9
$ENDCAPS
280
     0
  9
$JOINSTYLE
280
     0
  9
$LWDISPLAY
290
     0
  9
$INSUNITS
 70
     4
  9
$HYPERLINKBASE
  1

  9
$STYLESHEET
  1

  9
$XEDIT
290
     1
  9
$CEPSNTYPE
380
     0
  9
$PSTYLEMODE
290
     1
  9
$FINGERPRINTGUID
  2
{BCD03BD3-40FD-430E-965D-803EC1CBEBA4}
  9
$VERSIONGUID
  2
{FAEB1C32-E019-11D5-929B-00C0DF256EC4}
  9
$EXTNAMES
290
     1
  9
$PSVPSCALE
 40
0.0
  9
$OLESTARTUP
290
     0
  9
$SORTENTS
280
   127
  9
$INDEXCTL
280
     0
  9
$HIDETEXT
280
     1
  9
$XCLIPFRAME
290
     0
  9
$HALOGAP
280
     0
  9
$OBSCOLOR
 70
   257
  9
$OBSLTYPE
280
     0
  9
$INTERSECTIONDISPLAY
280
     0
  9
$INTERSECTIONCOLOR
 70
   257
  9
$DIMASSOC
280
     2
  9
$PROJECTNAME
  1

  0
ENDSEC
  0
SECTION
  2
CLASSES
  0
CLASS
  1
ACDBDICTIONARYWDFLT
  2
AcDbDictionaryWithDefault
  3
ObjectDBX Classes
 90
        0
 91
        4
280
     0
281
     0
  0
CLASS
  1
VISUALSTYLE
  2
AcDbVisualStyle
  3
ObjectDBX Classes
 90
     4095
 91
        4
280
     0
281
     0
  0
CLASS
  1
MATERIAL
  2
AcDbMaterial
  3
ObjectDBX Classes
 90
     1153
 91
        4
280
     0
281
     0
  0
CLASS
  1
SUN
  2
AcDbSun
  3
SCENEOE
 90
     1024
 91
        4
280
     0
281
     0
  0
ENDSEC
  0
SECTION
  2
TABLES
  0
TABLE
  2
VPORT
  5
8
330
0
100
AcDbSymbolTable
 70
     1
  0
VPORT
  5
29
330
8
100
AcDbSymbolTableRecord
100
AcDbViewportTableRecord
  2
*Active
 70
     0
 10
0.0
 20
0.0
 11
1.0
 21
1.0
 12
344.1869158878504
 22
148.5
 13
0.0
 23
0.0
 14
10.0
 24
10.0
 15
10.0
 25
10.0
 16
0.0
 26
0.0
 36
1.0
 17
0.0
 27
0.0
 37
0.0
 40
297.0
 41
1.972972972850329
 42
50.0
 43
0.0
 44
0.0
 50
0.0
 51
0.0
 71
     0
 72
   100
 73
     1
 74
     3
 75
     0
 76
     0
 77
     0
 78
     0
281
     0
 65
     1
110
0.0
120
0.0
130
0.0
111
1.0
121
0.0
131
0.0
112
0.0
122
1.0
132
0.0
 79
     0
146
0.0
  0
ENDTAB
  0
TABLE
  2
LTYPE
  5
5
330
0
100
AcDbSymbolTable
 70
     5
  0
LTYPE
  5
14
330
5
100
AcDbSymbolTableRecord
100
AcDbLinetypeTableRecord
  2
ByBlock
 70
     0
  3

 72
    65
 73
     0
 40
0.0
  0
LTYPE
  5
15
330
5
100
AcDbSymbolTableRecord
100
AcDbLinetypeTableRecord
  2
ByLayer
 70
     0
  3

 72
    65
 73
     0
 40
0.0
  0
LTYPE
  5
16
330
5
100
AcDbSymbolTableRecord
100
AcDbLinetypeTableRecord
  2
Continuous
 70
     0
  3
Solid line
 72
    65
 73
     0
 40
0.0
  0
LTYPE
  5
40
330
5
100
AcDbSymbolTableRecord
100
AcDbLinetypeTableRecord
  2
CONTINOUS
 70
     0
  3
______________________________
 72
    65
 73
     0
 40
0.0
  0
LTYPE
  5
41
330
5
100
AcDbSymbolTableRecord
100
AcDbLinetypeTableRecord
  2
DASHED
 70
     0
  3
__ __ __ __ __ __ __ __ __ __ __ __ __ __ __ __
 72
    65
 73
     2
 40
4.5
 49
3.0
 74
     0
 49
-1.5
 74
     0
  0
LTYPE
  5
42
330
5
100
AcDbSymbolTableRecord
100
AcDbLinetypeTableRecord
  2
PHANTOM
 70
     0
  3
______  __  __  ______  __  __  _____
 72
    65
 73
     6
 40
15.0
 49
7.5
 74
     0
 49
-1.5
 74
     0
 49
1.5
 74
     0
 49
-1.5
 74
     0
 49
1.5
 74
     0
 49
-1.5
 74
     0
  0
LTYPE
  5
43
330
5
100
AcDbSymbolTableRecord
100
AcDbLinetypeTableRecord
  2
CENTER
 70
     0
  3
____ _ ____ _ ____ _ ____ _ ____ _ ____
 72
    65
 73
     4
 40
12.0
 49
7.5
 74
     0
 49
-1.5
 74
     0
 49
1.5
 74
     0
 49
-1.5
 74
     0
  0
ENDTAB
  0
TABLE
  2
LAYER
  5
2
330
0
100
AcDbSymbolTable
 70
     4
  0
LAYER
  5
10
330
2
100
AcDbSymbolTableRecord
100
AcDbLayerTableRecord
  2
0
 70
     0
 62
     7
  6
Continuous
370
    -3
390
F
  0
LAYER
  5
44
330
2
100
AcDbSymbolTableRecord
100
AcDbLayerTableRecord
  2
VIEW0001
 70
     0
 62
     7
  6
Continuous
370
    -3
390
F
  0
LAYER
  5
5C
330
2
100
AcDbSymbolTableRecord
100
AcDbLayerTableRecord
  2
VIEW0002
 70
     0
 62
     7
  6
Continuous
370
    -3
390
F
  0
LAYER
  5
217
330
2
100
AcDbSymbolTableRecord
100
AcDbLayerTableRecord
  2
Defpoints
 70
     0
 62
     7
  6
Continuous
290
     0
370
    -3
390
F
  0
ENDTAB
  0
TABLE
  2
STYLE
  5
3
330
0
100
AcDbSymbolTable
 70
     1
  0
STYLE
  5
11
330
3
100
AcDbSymbolTableRecord
100
AcDbTextStyleTableRecord
  2
Standard
 70
     0
 40
0.0
 41
1.0
 50
0.0
 71
     0
 42
2.5
  3
ROMANS
  4
BIGFONT
  0
ENDTAB
  0
TABLE
  2
VIEW
  5
6
330
0
100
AcDbSymbolTable
 70
     0
  0
ENDTAB
  0
TABLE
  2
UCS
  5
7
330
0
100
AcDbSymbolTable
 70
     0
  0
ENDTAB
  0
TABLE
  2
APPID
  5
9
330
0
100
AcDbSymbolTable
 70
     1
  0
APPID
  5
12
330
9
100
AcDbSymbolTableRecord
100
AcDbRegAppTableRecord
  2
ACAD
 70
     0
  0
ENDTAB
  0
TABLE
  2
DIMSTYLE
  5
A
330
0
100
AcDbSymbolTable
 70
     1
100
AcDbDimStyleTable
  0
DIMSTYLE
105
27
102
{ACAD_REACTORS
330
210
330
224
330
232
330
246
330
251
330
267
330
27D
330
288
102
}
330
A
100
AcDbSymbolTableRecord
100
AcDbDimStyleTableRecord
  2
ISO-25
 70
     0
 41
2.5
 42
0.625
 43
3.75
 44
1.25
 73
     0
 74
     0
 77
     1
 78
     8
140
2.5
141
2.5
143
0.03937007874016
147
0.625
171
     3
172
     1
178
     0
271
     2
272
     2
274
     3
278
    44
283
     0
284
     8
340
11
  0
ENDTAB
  0
TABLE
  2
BLOCK_RECORD
  5
1
330
0
100
AcDbSymbolTable
 70
    11
  0
BLOCK_RECORD
  5
1F
330
1
100
AcDbSymbolTableRecord
100
AcDbBlockTableRecord
  2
*Model_Space
340
22
  0
BLOCK_RECORD
  5
1B
330
1
100
AcDbSymbolTableRecord
100
AcDbBlockTableRecord
  2
*Paper_Space
340
1E
  0
BLOCK_RECORD
  5
23
330
1
100
AcDbSymbolTableRecord
100
AcDbBlockTableRecord
  2
*Paper_Space0
340
26
  0
BLOCK_RECORD
  5
211
330
1
100
AcDbSymbolTableRecord
100
AcDbBlockTableRecord
  2
_OPEN30
340
0
102
{BLKREFS
331
21F
331
21E
331
22C
331
22B
331
240
331
24C
331
24B
331
0
331
0
331
0
331
0
331
283
331
282
331
290
331
28F
102
}
  0
BLOCK_RECORD
  5
218
330
1
100
AcDbSymbolTableRecord
100
AcDbBlockTableRecord
  2
*D2
340
0
  0
BLOCK_RECORD
  5
225
330
1
100
AcDbSymbolTableRecord
100
AcDbBlockTableRecord
  2
*D3
340
0
  0
BLOCK_RECORD
  5
233
330
1
100
AcDbSymbolTableRecord
100
AcDbBlockTableRecord
  2
_OPEN
340
0
102
{BLKREFS
331
23F
102
}
  0
BLOCK_RECORD
  5
239
330
1
100
AcDbSymbolTableRecord
100
AcDbBlockTableRecord
  2
*D5
340
0
  0
BLOCK_RECORD
  5
247
330
1
100
AcDbSymbolTableRecord
100
AcDbBlockTableRecord
  2
*D6
340
0
  0
BLOCK_RECORD
  5
252
330
1
100
AcDbSymbolTableRecord
100
AcDbBlockTableRecord
  2
*D7
340
0
  0
BLOCK_RECORD
  5
268
330
1
100
AcDbSymbolTableRecord
100
AcDbBlockTableRecord
  2
*D8
340
0
  0
BLOCK_RECORD
  5
27E
330
1
100
AcDbSymbolTableRecord
100
AcDbBlockTableRecord
  2
*D9
340
0
  0
BLOCK_RECORD
  5
289
330
1
100
AcDbSymbolTableRecord
100
AcDbBlockTableRecord
  2
*D10
340
0
  0
ENDTAB
  0
ENDSEC
  0
SECTION
  2
BLOCKS
  0
BLOCK
  5
20
330
1F
100
AcDbEntity
  8
0
100
AcDbBlockBegin
  2
*Model_Space
 70
     0
 10
0.0
 20
0.0
 30
0.0
  3
*Model_Space
  1

  0
ENDBLK
  5
21
330
1F
100
AcDbEntity
  8
0
100
AcDbBlockEnd
  0
BLOCK
  5
1C
330
1B
100
AcDbEntity
 67
     1
  8
0
100
AcDbBlockBegin
  2
*Paper_Space
 70
     0
 10
0.0
 20
0.0
 30
0.0
  3
*Paper_Space
  1

  0
ENDBLK
  5
1D
330
1B
100
AcDbEntity
 67
     1
  8
0
100
AcDbBlockEnd
  0
BLOCK
  5
24
330
23
100
AcDbEntity
  8
0
100
AcDbBlockBegin
  2
*Paper_Space0
 70
     0
 10
0.0
 20
0.0
 30
0.0
  3
*Paper_Space0
  1

  0
ENDBLK
  5
25
330
23
100
AcDbEntity
  8
0
100
AcDbBlockEnd
  0
BLOCK
  5
212
330
211
100
AcDbEntity
  8
0
100
AcDbBlockBegin
  2
_OPEN30
 70
     0
 10
0.0
 20
0.0
 30
0.0
  3
_OPEN30
  1

  0
LINE
  5
214
330
211
100
AcDbEntity
  8
0
  6
ByBlock
 62
     0
370
    -2
100
AcDbLine
 10
-1.0
 20
0.267949
 30
0.0
 11
0.0
 21
0.0
 31
0.0
  0
LINE
  5
215
330
211
100
AcDbEntity
  8
0
  6
ByBlock
 62
     0
370
    -2
100
AcDbLine
 10
0.0
 20
0.0
 30
0.0
 11
-1.0
 21
-0.267949
 31
0.0
  0
LINE
  5
216
330
211
100
AcDbEntity
  8
0
  6
ByBlock
 62
     0
370
    -2
100
AcDbLine
 10
0.0
 20
0.0
 30
0.0
 11
-1.0
 21
0.0
 31
0.0
  0
ENDBLK
  5
213
330
211
100
AcDbEntity
  8
0
100
AcDbBlockEnd
  0
BLOCK
  5
219
330
218
100
AcDbEntity
  8
0
100
AcDbBlockBegin
  2
*D2
 70
     1
 10
0.0
 20
0.0
 30
0.0
  3
*D2
  1

  0
LINE
  5
21B
330
218
100
AcDbEntity
  8
0
 62
     0
370
    -2
100
AcDbLine
 10
69.21047119140626
 20
47.82229614257812
 30
0.0
 11
79.17047119140624
 21
47.82229614257812
 31
0.0
  0
LINE
  5
21C
330
218
100
AcDbEntity
  8
0
 62
     0
370
    -2
100
AcDbLine
 10
69.21047119140626
 20
90.82230377197266
 30
0.0
 11
79.17047119140625
 21
90.82230377197266
 31
0.0
  0
LINE
  5
21D
330
218
100
AcDbEntity
  8
0
 62
     0
370
    -2
100
AcDbLine
 10
78.67047119140624
 20
50.82229614257812
 30
0.0
 11
78.67047119140625
 21
87.82230377197266
 31
0.0
  0
INSERT
  5
21E
330
218
100
AcDbEntity
  8
0
 62
     0
370
    -2
100
AcDbBlockReference
  2
_OPEN30
 10
78.67047119140624
 20
47.82229614257812
 30
0.0
 41
3.0
 42
3.0
 43
3.0
 50
270.0
  0
INSERT
  5
21F
330
218
100
AcDbEntity
  8
0
 62
     0
370
    -2
100
AcDbBlockReference
  2
_OPEN30
 10
78.67047119140625
 20
90.82230377197266
 30
0.0
 41
3.0
 42
3.0
 43
3.0
 50
89.99999999999999
  0
MTEXT
  5
220
330
218
100
AcDbEntity
  8
0
 62
     1
100
AcDbMText
 10
76.25607115542888
 20
69.32329614257813
 30
0.0
 40
3.200000047683716
 41
0.0
 71
     5
 72
     1
  1
86
 11
3.304849347395826E-16
 21
1.0
 31
0.0
 73
     1
 44
1.0
  0
POINT
  5
221
330
218
100
AcDbEntity
  8
Defpoints
 62
     0
100
AcDbPoint
 10
66.67047119140625
 20
47.82229614257812
 30
0.0
  0
POINT
  5
222
330
218
100
AcDbEntity
  8
Defpoints
 62
     0
100
AcDbPoint
 10
66.67047119140625
 20
90.82230377197266
 30
0.0
  0
POINT
  5
223
330
218
100
AcDbEntity
  8
Defpoints
 62
     0
100
AcDbPoint
 10
78.67047119140625
 20
90.82230377197266
 30
0.0
  0
ENDBLK
  5
21A
330
218
100
AcDbEntity
  8
0
100
AcDbBlockEnd
  0
BLOCK
  5
226
330
225
100
AcDbEntity
  8
0
100
AcDbBlockBegin
  2
*D3
 70
     1
 10
0.0
 20
0.0
 30
0.0
  3
*D3
  1

  0
LINE
  5
228
330
225
100
AcDbEntity
  8
0
 62
     0
370
    -2
100
AcDbLine
 10
29.17047119140625
 20
99.66534332275391
 30
0.0
 11
29.17047119140625
 21
109.7568588256836
 31
0.0
  0
LINE
  5
229
330
225
100
AcDbEntity
  8
0
 62
     0
370
    -2
100
AcDbLine
 10
66.67047119140625
 20
93.36230377197266
 30
0.0
 11
66.67047119140625
 21
109.7568588256836
 31
0.0
  0
LINE
  5
22A
330
225
100
AcDbEntity
  8
0
 62
     0
370
    -2
100
AcDbLine
 10
32.17047119140625
 20
109.2568588256836
 30
0.0
 11
63.67047119140625
 21
109.2568588256836
 31
0.0
  0
INSERT
  5
22B
330
225
100
AcDbEntity
  8
0
 62
     0
370
    -2
100
AcDbBlockReference
  2
_OPEN30
 10
29.17047119140625
 20
109.2568588256836
 30
0.0
 41
3.0
 42
3.0
 43
3.0
 50
180.0
  0
INSERT
  5
22C
330
225
100
AcDbEntity
  8
0
 62
     0
370
    -2
100
AcDbBlockReference
  2
_OPEN30
 10
66.67047119140625
 20
109.2568588256836
 30
0.0
 41
3.0
 42
3.0
 43
3.0
  0
MTEXT
  5
22D
330
225
100
AcDbEntity
  8
0
 62
     1
 60
     1
100
AcDbMText
 10
47.92147119140625
 20
111.671258861661
 30
0.0
 40
3.200000047683716
 41
0.0
 71
     5
 72
     1
  1
75
 73
     1
 44
1.0
  0
POINT
  5
22E
330
225
100
AcDbEntity
  8
Defpoints
 62
     0
100
AcDbPoint
 10
29.17047119140625
 20
97.1253433227539
 30
0.0
  0
POINT
  5
22F
330
225
100
AcDbEntity
  8
Defpoints
 62
     0
100
AcDbPoint
 10
66.67047119140625
 20
90.82230377197266
 30
0.0
  0
POINT
  5
230
330
225
100
AcDbEntity
  8
Defpoints
 62
     0
100
AcDbPoint
 10
66.67047119140625
 20
109.2568588256836
 30
0.0
  0
MTEXT
  5
231
330
225
100
AcDbEntity
  8
0
 62
     1
100
AcDbMText
 10
50.6633288860321
 20
108.4568588137627
 30
0.0
 40
3.200000047683716
 41
0.0
 71
     7
 72
     1
  1
\W1;75
 11
-1.0
 21
1.224646799147353E-16
 31
0.0
 73
     1
 44
1.0
  0
ENDBLK
  5
227
330
225
100
AcDbEntity
  8
0
100
AcDbBlockEnd
  0
BLOCK
  5
234
330
233
100
AcDbEntity
  8
0
100
AcDbBlockBegin
  2
_OPEN
 70
     0
 10
0.0
 20
0.0
 30
0.0
  3
_OPEN
  1

  0
LINE
  5
236
330
233
100
AcDbEntity
  8
0
  6
ByBlock
 62
     0
370
    -2
100
AcDbLine
 10
-1.0
 20
0.166667
 30
0.0
 11
0.0
 21
0.0
 31
0.0
  0
LINE
  5
237
330
233
100
AcDbEntity
  8
0
  6
ByBlock
 62
     0
370
    -2
100
AcDbLine
 10
-1.0
 20
-0.166667
 30
0.0
 11
0.0
 21
0.0
 31
0.0
  0
LINE
  5
238
330
233
100
AcDbEntity
  8
0
  6
ByBlock
 62
     0
370
    -2
100
AcDbLine
 10
0.0
 20
0.0
 30
0.0
 11
-1.0
 21
0.0
 31
0.0
  0
ENDBLK
  5
235
330
233
100
AcDbEntity
  8
0
100
AcDbBlockEnd
  0
BLOCK
  5
23A
330
239
100
AcDbEntity
  8
0
100
AcDbBlockBegin
  2
*D5
 70
     1
 10
0.0
 20
0.0
 30
0.0
  3
*D5
  1

  0
LINE
  5
23C
330
239
100
AcDbEntity
  8
0
 62
     0
370
    -2
100
AcDbLine
 10
11.67045593261719
 20
24.08539482116699
 30
0.0
 11
11.67045593261719
 21
13.70957048034668
 31
0.0
  0
LINE
  5
23D
330
239
100
AcDbEntity
  8
0
 62
     0
370
    -2
100
AcDbLine
 10
66.67047119140625
 20
38.28229614257813
 30
0.0
 11
66.67047119140625
 21
13.70957048034668
 31
0.0
  0
LINE
  5
23E
330
239
100
AcDbEntity
  8
0
 62
     0
370
    -2
100
AcDbLine
 10
14.78445593261719
 20
14.20957048034668
 30
0.0
 11
63.55647119140625
 21
14.20957048034668
 31
0.0
  0
INSERT
  5
23F
330
239
100
AcDbEntity
  8
0
 62
     0
370
    -2
100
AcDbBlockReference
  2
_OPEN
 10
11.67045593261719
 20
14.20957048034668
 30
0.0
 41
3.114
 42
3.114
 43
3.114
 50
180.0
  0
INSERT
  5
240
330
239
100
AcDbEntity
  8
0
 62
     0
370
    -2
100
AcDbBlockReference
  2
_OPEN30
 10
66.67047119140625
 20
14.20957048034668
 30
0.0
 41
3.114
 42
3.114
 43
3.114
 50
360.0
  0
MTEXT
  5
241
330
239
100
AcDbEntity
  8
0
 62
     1
 60
     1
100
AcDbMText
 10
39.17145593261719
 20
16.62397051632404
 30
0.0
 40
3.200000047683716
 41
0.0
 71
     5
 72
     1
  1
110
 73
     1
 44
1.0
  0
POINT
  5
242
330
239
100
AcDbEntity
  8
Defpoints
 62
     0
100
AcDbPoint
 10
11.67045593261719
 20
26.62539482116699
 30
0.0
  0
POINT
  5
243
330
239
100
AcDbEntity
  8
Defpoints
 62
     0
100
AcDbPoint
 10
66.67047119140625
 20
40.82229614257812
 30
0.0
  0
POINT
  5
244
330
239
100
AcDbEntity
  8
Defpoints
 62
     0
100
AcDbPoint
 10
66.67047119140625
 20
14.20857048034668
 30
0.0
  0
MTEXT
  5
245
330
239
100
AcDbEntity
  8
0
 62
     1
100
AcDbMText
 10
43.5133136510849
 20
13.40857046842575
 30
0.0
 40
3.200000047683716
 41
0.0
 71
     7
 72
     1
  1
\W1;110
 11
-1.0
 21
1.224646799147353E-16
 31
0.0
 73
     1
 44
1.0
  0
ENDBLK
  5
23B
330
239
100
AcDbEntity
  8
0
100
AcDbBlockEnd
  0
BLOCK
  5
248
330
247
100
AcDbEntity
  8
0
100
AcDbBlockBegin
  2
*D6
 70
     1
 10
0.0
 20
0.0
 30
0.0
  3
*D6
  1

  0
LINE
  5
24A
330
247
100
AcDbEntity
  8
0
 62
     0
370
    -2
100
AcDbLine
 10
-39.36980383300781
 20
-18.09493827819824
 30
0.0
 11
-39.36980383300781
 21
-7.594937801361075
 31
0.0
  0
INSERT
  5
24B
330
247
100
AcDbEntity
  8
0
 62
     0
370
    -2
100
AcDbBlockReference
  2
_OPEN30
 10
-39.36980383300781
 20
-21.09493827819824
 30
0.0
 41
3.0
 42
3.0
 43
3.0
 50
270.0
  0
INSERT
  5
24C
330
247
100
AcDbEntity
  8
0
 62
     0
370
    -2
100
AcDbBlockReference
  2
_OPEN30
 10
-39.36980383300781
 20
-4.594937801361075
 30
0.0
 41
3.0
 42
3.0
 43
3.0
 50
90.0
  0
MTEXT
  5
24D
330
247
100
AcDbEntity
  8
0
 62
     1
100
AcDbMText
 10
-41.78420386898518
 20
-12.84393827819824
 30
0.0
 40
3.200000047683716
 41
0.0
 71
     5
 72
     1
  1
33
 11
0.0
 21
1.0
 31
0.0
 73
     1
 44
1.0
  0
POINT
  5
24E
330
247
100
AcDbEntity
  8
Defpoints
 62
     0
100
AcDbPoint
 10
-10.96784973144531
 20
-21.09493827819824
 30
0.0
  0
POINT
  5
24F
330
247
100
AcDbEntity
  8
Defpoints
 62
     0
100
AcDbPoint
 10
-9.488540649414062
 20
-4.594937801361084
 30
0.0
  0
POINT
  5
250
330
247
100
AcDbEntity
  8
Defpoints
 62
     0
100
AcDbPoint
 10
-39.37080383300781
 20
-4.594937801361079
 30
0.0
  0
ENDBLK
  5
249
330
247
100
AcDbEntity
  8
0
100
AcDbBlockEnd
  0
BLOCK
  5
253
330
252
100
AcDbEntity
  8
0
100
AcDbBlockBegin
  2
*D7
 70
     1
 10
0.0
 20
0.0
 30
0.0
  3
*D7
  1

  0
MTEXT
  5
25C
330
252
100
AcDbEntity
  8
0
 62
     1
100
AcDbMText
 10
-51.78420386898518
 20
-4.399738230586053
 30
0.0
 40
3.200000047683716
 41
0.0
 71
     5
 72
     1
  1
15
 11
0.0
 21
1.0
 31
0.0
 73
     1
 44
1.0
  0
POINT
  5
25D
330
252
100
AcDbEntity
  8
Defpoints
 62
     0
100
AcDbPoint
 10
-51.87080383300781
 20
-21.09493827819824
 30
0.0
  0
POINT
  5
25E
330
252
100
AcDbEntity
  8
Defpoints
 62
     0
100
AcDbPoint
 10
-53.37080383300781
 20
-13.59493827819824
 30
0.0
  0
POINT
  5
25F
330
252
100
AcDbEntity
  8
Defpoints
 62
     0
100
AcDbPoint
 10
-49.37080383300781
 20
-13.59493827819824
 30
0.0
  0
LINE
  5
260
330
252
100
AcDbEntity
  8
0
  6
Continuous
 62
     7
100
AcDbLine
 10
-50.83080383300781
 20
-13.59493827819824
 30
0.0
 11
-48.37080383300781
 21
-13.59493827819824
 31
0.0
  0
LINE
  5
261
330
252
100
AcDbEntity
  8
0
  6
Continuous
 62
     7
100
AcDbLine
 10
-49.37080383300781
 20
-27.44493827819824
 30
0.0
 11
-49.37080383300781
 21
-7.244938278198243
 31
0.0
  0
LINE
  5
262
330
252
100
AcDbEntity
  8
0
  6
Continuous
 62
     7
100
AcDbLine
 10
-49.37080383300781
 20
-21.09493827819824
 30
0.0
 11
-48.55234614870781
 21
-24.14946394020387
 31
0.0
  0
LINE
  5
263
330
252
100
AcDbEntity
  8
0
  6
Continuous
 62
     7
100
AcDbLine
 10
-49.37080383300781
 20
-21.09493827819824
 30
0.0
 11
-50.18926151730781
 21
-24.14946394020387
 31
0.0
  0
LINE
  5
264
330
252
100
AcDbEntity
  8
0
  6
Continuous
 62
     7
100
AcDbLine
 10
-49.37080383300781
 20
-13.59493827819824
 30
0.0
 11
-50.18926151730781
 21
-10.54041261619262
 31
0.0
  0
LINE
  5
265
330
252
100
AcDbEntity
  8
0
  6
Continuous
 62
     7
100
AcDbLine
 10
-49.37080383300781
 20
-13.59493827819824
 30
0.0
 11
-48.55234614870781
 21
-10.54041261619262
 31
0.0
  0
LINE
  5
266
330
252
100
AcDbEntity
  8
0
  6
Continuous
 62
     7
100
AcDbLine
 10
-49.37080383300781
 20
-13.59493827819824
 30
0.0
 11
-49.37080383300781
 21
-5.774678707122803
 31
0.0
  0
ENDBLK
  5
254
330
252
100
AcDbEntity
  8
0
100
AcDbBlockEnd
  0
BLOCK
  5
269
330
268
100
AcDbEntity
  8
0
100
AcDbBlockBegin
  2
*D8
 70
     1
 10
0.0
 20
0.0
 30
0.0
  3
*D8
  1

  0
MTEXT
  5
272
330
268
100
AcDbEntity
  8
0
 62
     1
100
AcDbMText
 10
-51.78520386898518
 20
-107.4901219226122
 30
0.0
 40
3.200000047683716
 41
0.0
 71
     5
 72
     1
  1
15
 11
0.0
 21
1.0
 31
0.0
 73
     1
 44
1.0
  0
POINT
  5
273
330
268
100
AcDbEntity
  8
Defpoints
 62
     0
100
AcDbPoint
 10
-55.870849609375
 20
-98.294921875
 30
0.0
  0
POINT
  5
274
330
268
100
AcDbEntity
  8
Defpoints
 62
     0
100
AcDbPoint
 10
-69.45892333984375
 20
-90.794921875
 30
0.0
  0
POINT
  5
275
330
268
100
AcDbEntity
  8
Defpoints
 62
     0
100
AcDbPoint
 10
-49.37080383300781
 20
-90.794921875
 30
0.0
  0
LINE
  5
276
330
268
100
AcDbEntity
  8
0
  6
Continuous
 62
     7
100
AcDbLine
 10
-53.330849609375
 20
-98.294921875
 30
0.0
 11
-48.37080383300781
 21
-98.294921875
 31
0.0
  0
LINE
  5
277
330
268
100
AcDbEntity
  8
0
  6
Continuous
 62
     7
100
AcDbLine
 10
-49.37080383300781
 20
-104.644921875
 30
0.0
 11
-49.37080383300781
 21
-84.444921875
 31
0.0
  0
LINE
  5
278
330
268
100
AcDbEntity
  8
0
  6
Continuous
 62
     7
100
AcDbLine
 10
-49.37080383300781
 20
-98.294921875
 30
0.0
 11
-48.55234614870781
 21
-101.3494475370056
 31
0.0
  0
LINE
  5
279
330
268
100
AcDbEntity
  8
0
  6
Continuous
 62
     7
100
AcDbLine
 10
-49.37080383300781
 20
-98.294921875
 30
0.0
 11
-50.18926151730781
 21
-101.3494475370056
 31
0.0
  0
LINE
  5
27A
330
268
100
AcDbEntity
  8
0
  6
Continuous
 62
     7
100
AcDbLine
 10
-49.37080383300781
 20
-90.794921875
 30
0.0
 11
-50.18926151730781
 21
-87.74039621299437
 31
0.0
  0
LINE
  5
27B
330
268
100
AcDbEntity
  8
0
  6
Continuous
 62
     7
100
AcDbLine
 10
-49.37080383300781
 20
-90.794921875
 30
0.0
 11
-48.55234614870781
 21
-87.74039621299437
 31
0.0
  0
LINE
  5
27C
330
268
100
AcDbEntity
  8
0
  6
Continuous
 62
     7
100
AcDbLine
 10
-49.37080383300781
 20
-98.294921875
 30
0.0
 11
-49.37080383300781
 21
-106.7644195556641
 31
0.0
  0
ENDBLK
  5
26A
330
268
100
AcDbEntity
  8
0
100
AcDbBlockEnd
  0
BLOCK
  5
27F
330
27E
100
AcDbEntity
  8
0
100
AcDbBlockBegin
  2
*D9
 70
     1
 10
0.0
 20
0.0
 30
0.0
  3
*D9
  1

  0
LINE
  5
281
330
27E
100
AcDbEntity
  8
0
 62
     0
370
    -2
100
AcDbLine
 10
-39.36880383300782
 20
-93.794921875
 30
0.0
 11
-39.36880383300781
 21
-104.294921875
 31
0.0
  0
INSERT
  5
282
330
27E
100
AcDbEntity
  8
0
 62
     0
370
    -2
100
AcDbBlockReference
  2
_OPEN30
 10
-39.36880383300782
 20
-90.794921875
 30
0.0
 41
3.0
 42
3.0
 43
3.0
 50
90.00000000000001
  0
INSERT
  5
283
330
27E
100
AcDbEntity
  8
0
 62
     0
370
    -2
100
AcDbBlockReference
  2
_OPEN30
 10
-39.36880383300781
 20
-107.294921875
 30
0.0
 41
3.0
 42
3.0
 43
3.0
 50
270.0
  0
MTEXT
  5
284
330
27E
100
AcDbEntity
  8
0
 62
     1
100
AcDbMText
 10
-41.78320386898518
 20
-99.043921875
 30
0.0
 40
3.200000047683716
 41
0.0
 71
     5
 72
     1
  1
33
 11
-4.306319610667270E-16
 21
1.0
 31
0.0
 73
     1
 44
1.0
  0
POINT
  5
285
330
27E
100
AcDbEntity
  8
Defpoints
 62
     0
100
AcDbPoint
 10
-20.24420166015625
 20
-90.794921875
 30
0.0
  0
POINT
  5
286
330
27E
100
AcDbEntity
  8
Defpoints
 62
     0
100
AcDbPoint
 10
-4.827621459960938
 20
-107.294921875
 30
0.0
  0
POINT
  5
287
330
27E
100
AcDbEntity
  8
Defpoints
 62
     0
100
AcDbPoint
 10
-39.37080383300781
 20
-107.294921875
 30
0.0
  0
ENDBLK
  5
280
330
27E
100
AcDbEntity
  8
0
100
AcDbBlockEnd
  0
BLOCK
  5
28A
330
289
100
AcDbEntity
  8
0
100
AcDbBlockBegin
  2
*D10
 70
     1
 10
0.0
 20
0.0
 30
0.0
  3
*D10
  1

  0
LINE
  5
28C
330
289
100
AcDbEntity
  8
0
 62
     0
370
    -2
100
AcDbLine
 10
69.96047119140626
 20
-107.2949213981628
 30
0.0
 11
79.67047119140624
 21
-107.2949213981628
 31
0.0
  0
LINE
  5
28D
330
289
100
AcDbEntity
  8
0
 62
     0
370
    -2
100
AcDbLine
 10
70.71046356201173
 20
-3.794923305511475
 30
0.0
 11
79.67047119140625
 21
-3.794923305511475
 31
0.0
  0
LINE
  5
28E
330
289
100
AcDbEntity
  8
0
 62
     0
370
    -2
100
AcDbLine
 10
78.67047119140624
 20
-104.2949213981628
 30
0.0
 11
78.67047119140625
 21
-6.794923305511475
 31
0.0
  0
INSERT
  5
28F
330
289
100
AcDbEntity
  8
0
 62
     0
370
    -2
100
AcDbBlockReference
  2
_OPEN30
 10
78.67047119140624
 20
-107.2949213981628
 30
0.0
 41
3.0
 42
3.0
 43
3.0
 50
270.0
  0
INSERT
  5
290
330
289
100
AcDbEntity
  8
0
 62
     0
370
    -2
100
AcDbBlockReference
  2
_OPEN30
 10
78.67047119140625
 20
-3.794923305511475
 30
0.0
 41
3.0
 42
3.0
 43
3.0
 50
90.0
  0
MTEXT
  5
291
330
289
100
AcDbEntity
  8
0
 62
     1
 60
     1
100
AcDbMText
 10
76.25607115542888
 20
-55.54392139816284
 30
0.0
 40
3.200000047683716
 41
0.0
 71
     5
 72
     1
  1
207
 11
1.373029466385178E-16
 21
1.0
 31
0.0
 73
     1
 44
1.0
  0
POINT
  5
292
330
289
100
AcDbEntity
  8
Defpoints
 62
     0
100
AcDbPoint
 10
67.42047119140625
 20
-107.2949213981628
 30
0.0
  0
POINT
  5
293
330
289
100
AcDbEntity
  8
Defpoints
 62
     0
100
AcDbPoint
 10
68.17046356201172
 20
-3.794923305511475
 30
0.0
  0
POINT
  5
294
330
289
100
AcDbEntity
  8
Defpoints
 62
     0
100
AcDbPoint
 10
78.67047119140625
 20
-3.794923305511477
 30
0.0
  0
MTEXT
  5
295
330
289
100
AcDbEntity
  8
0
 62
     1
100
AcDbMText
 10
77.87047117948532
 20
-59.88777911663055
 30
0.0
 40
3.200000047683716
 41
0.0
 71
     7
 72
     1
  1
\W1;207
 11
-1.608122649676637E-16
 21
1.0
 31
0.0
 73
     1
 44
1.0
  0
ENDBLK
  5
28B
330
289
100
AcDbEntity
  8
0
100
AcDbBlockEnd
  0
ENDSEC
  0
SECTION
  2
ENTITIES
  0
POINT
  5
45
330
1F
100
AcDbEntity
  8
VIEW0001
 62
     7
100
AcDbPoint
 10
105.0
 20
-148.5
 30
0.0
  0
LWPOLYLINE
  5
46
330
1F
100
AcDbEntity
  8
VIEW0001
  6
Continuous
 62
     7
100
AcDbPolyline
 90
        2
 70
     0
 10
25.75
 20
-129.0
 40
0.001000000047497
 41
0.001000000047497
 10
25.75
 20
-120.0
 40
0.001000000047497
 41
0.001000000047497
  0
LWPOLYLINE
  5
47
330
1F
100
AcDbEntity
  8
VIEW0001
  6
Continuous
 62
     7
100
AcDbPolyline
 90
        2
 70
     0
 10
-64.5
 20
-138.0
 40
0.001000000047497
 41
0.001000000047497
 10
-64.5
 20
-120.0
 40
0.001000000047497
 41
0.001000000047497
  0
LINE
  5
48
330
1F
100
AcDbEntity
  8
VIEW0001
  6
Continuous
 62
     7
370
    50
100
AcDbLine
 10
-84.5
 20
138.0
 30
0.0
 11
-84.5
 21
-138.0
 31
0.0
  0
LINE
  5
49
330
1F
100
AcDbEntity
  8
VIEW0001
  6
Continuous
 62
     7
370
    50
100
AcDbLine
 10
96.0
 20
138.0
 30
0.0
 11
96.0
 21
-138.0
 31
0.0
  0
LINE
  5
4A
330
1F
100
AcDbEntity
  8
VIEW0001
  6
Continuous
 62
     7
370
    50
100
AcDbLine
 10
-84.5
 20
-138.0
 30
0.0
 11
96.0
 21
-138.0
 31
0.0
  0
LINE
  5
4B
330
1F
100
AcDbEntity
  8
VIEW0001
  6
Continuous
 62
     7
370
    50
100
AcDbLine
 10
-84.5
 20
138.0
 30
0.0
 11
96.0
 21
138.0
 31
0.0
  0
LINE
  5
4C
330
1F
100
AcDbEntity
  8
VIEW0001
  6
Continuous
 62
     7
370
    20
100
AcDbLine
 10
-84.5
 20
-120.0
 30
0.0
 11
96.0
 21
-120.0
 31
0.0
  0
LWPOLYLINE
  5
4D
330
1F
100
AcDbEntity
  8
VIEW0001
  6
Continuous
 62
     7
100
AcDbPolyline
 90
        2
 70
     0
 10
96.0
 20
-129.0
 40
0.001000000047497
 41
0.001000000047497
 10
-84.5
 20
-129.0
 40
0.001000000047497
 41
0.001000000047497
  0
LINE
  5
4E
330
1F
100
AcDbEntity
  8
VIEW0001
  6
Continuous
 62
     7
370
    20
100
AcDbLine
 10
41.0
 20
128.0
 30
0.0
 11
96.0
 21
128.0
 31
0.0
  0
LINE
  5
4F
330
1F
100
AcDbEntity
  8
VIEW0001
  6
Continuous
 62
     7
370
    20
100
AcDbLine
 10
41.0
 20
138.0
 30
0.0
 11
41.0
 21
128.0
 31
0.0
  0
LWPOLYLINE
  5
50
330
1F
100
AcDbEntity
  8
VIEW0001
  6
Continuous
 62
     7
100
AcDbPolyline
 90
        2
 70
     0
 10
5.75
 20
-138.0
 40
0.001000000047497
 41
0.001000000047497
 10
5.75
 20
-120.0
 40
0.001000000047497
 41
0.001000000047497
  0
LWPOLYLINE
  5
51
330
1F
100
AcDbEntity
  8
VIEW0001
  6
Continuous
 62
     7
100
AcDbPolyline
 90
        2
 70
     0
 10
66.0
 20
-129.0
 40
0.001000000047497
 41
0.001000000047497
 10
66.0
 20
-120.0
 40
0.001000000047497
 41
0.001000000047497
  0
LWPOLYLINE
  5
52
330
1F
100
AcDbEntity
  8
VIEW0001
  6
Continuous
 62
     7
100
AcDbPolyline
 90
        2
 70
     0
 10
81.0
 20
-129.0
 40
0.001000000047497
 41
0.001000000047497
 10
81.0
 20
-120.0
 40
0.001000000047497
 41
0.001000000047497
  0
MTEXT
  5
53
330
1F
100
AcDbEntity
  8
VIEW0001
 62
     1
100
AcDbMText
 10
-77.92875003814697
 20
-126.5
 30
0.0
 40
4.0
 41
0.0
 71
     7
 72
     1
  1
{\W0.833333;品名}
 73
     1
 44
1.0
  0
MTEXT
  5
54
330
1F
100
AcDbEntity
  8
VIEW0001
 62
     1
100
AcDbMText
 10
-77.92875003814697
 20
-135.5
 30
0.0
 40
4.0
 41
0.0
 71
     7
 72
     1
  1
{\W0.833333;規格}
 73
     1
 44
1.0
  0
MTEXT
  5
55
330
1F
100
AcDbEntity
  8
VIEW0001
 62
     1
100
AcDbMText
 10
12.32124996185303
 20
-126.5
 30
0.0
 40
4.0
 41
0.0
 71
     7
 72
     1
  1
{\W0.833333;材質}
 73
     1
 44
1.0
  0
MTEXT
  5
56
330
1F
100
AcDbEntity
  8
VIEW0001
 62
     1
100
AcDbMText
 10
70.07124996185303
 20
-126.5
 30
0.0
 40
4.0
 41
0.0
 71
     7
 72
     1
  1
{\W0.833333;尺度}
 73
     1
 44
1.0
  0
MTEXT
  5
57
330
1F
100
AcDbEntity
  8
VIEW0001
 62
     1
100
AcDbMText
 10
-40.80375134944916
 20
-126.5
 30
0.0
 40
4.0
 41
0.0
 71
     7
 72
     1
  1
{\W0.833333;伸縮ソケット}
 73
     1
 44
1.0
  0
MTEXT
  5
58
330
1F
100
AcDbEntity
  8
VIEW0001
 62
     1
100
AcDbMText
 10
-36.80375021696091
 20
-135.5
 30
0.0
 40
4.0
 41
0.0
 71
     7
 72
     1
  1
{\W0.833333;ＤＬ75}
 73
     1
 44
1.0
  0
MTEXT
  5
59
330
1F
100
AcDbEntity
  8
VIEW0001
 62
     1
100
AcDbMText
 10
83.07124984264374
 20
-126.5
 30
0.0
 40
4.0
 41
0.0
 71
     7
 72
     1
  1
{\W0.833333;1/2}
 73
     1
 44
1.0
  0
MTEXT
  5
5A
330
1F
100
AcDbEntity
  8
VIEW0001
 62
     1
100
AcDbMText
 10
26.46785604953766
 20
-135.75
 30
0.0
 40
4.5
 41
0.0
 71
     7
 72
     1
  1
{\W1.40741;デンカ株式会社}
 73
     1
 44
1.0
  0
MTEXT
  5
5B
330
1F
100
AcDbEntity
  8
VIEW0001
 62
     1
100
AcDbMText
 10
28.44624948501587
 20
-126.5
 30
0.0
 40
4.0
 41
0.0
 71
     7
 72
     1
  1
{\W0.833333;硬質ＰＶＣ/ＡＳＡ}
 73
     1
 44
1.0
  0
LINE
  5
5D
330
1F
100
AcDbEntity
  8
VIEW0002
  6
Continuous
 62
     7
100
AcDbLine
 10
-3.99853515625
 20
-3.794923305511475
 30
0.0
 11
-78.05972290039062
 21
-3.794923305511475
 31
0.0
  0
LINE
  5
5E
330
1F
100
AcDbEntity
  8
VIEW0002
  6
Continuous
 62
     7
100
AcDbLine
 10
-4.827621459960938
 20
-107.294921875
 30
0.0
 11
-77.24417114257812
 21
-107.294921875
 31
0.0
  0
LINE
  5
5F
330
1F
100
AcDbEntity
  8
VIEW0002
  6
Continuous
 62
     7
100
AcDbLine
 10
-3.498291015625
 20
-89.56854248046875
 30
0.0
 11
-3.498291015625
 21
-8.240056991577148
 31
0.0
  0
LINE
  5
60
330
1F
100
AcDbEntity
  8
VIEW0002
  6
Continuous
 62
     7
100
AcDbLine
 10
-75.3724365234375
 20
-94.794921875
 30
0.0
 11
-75.3724365234375
 21
-3.794923305511475
 31
0.0
  0
LINE
  5
61
330
1F
100
AcDbEntity
  8
VIEW0002
  6
Continuous
 62
     7
100
AcDbLine
 10
-73.39208984375
 20
-107.294921875
 30
0.0
 11
-73.39208984375
 21
-94.794921875
 31
0.0
  0
LINE
  5
62
330
1F
100
AcDbEntity
  8
VIEW0002
  6
Continuous
 62
     7
100
AcDbLine
 10
-71.423828125
 20
-107.294921875
 30
0.0
 11
-71.423828125
 21
-94.794921875
 31
0.0
  0
LINE
  5
63
330
1F
100
AcDbEntity
  8
VIEW0002
  6
Continuous
 62
     7
100
AcDbLine
 10
-5.273834228515625
 20
-94.794921875
 30
0.0
 11
-11.37384033203125
 21
-94.794921875
 31
0.0
  0
LINE
  5
64
330
1F
100
AcDbEntity
  8
VIEW0002
  6
Continuous
 62
     7
100
AcDbLine
 10
-71.423828125
 20
-94.794921875
 30
0.0
 11
-77.7703857421875
 21
-94.794921875
 31
0.0
  0
LINE
  5
65
330
1F
100
AcDbEntity
  8
VIEW0002
  6
Continuous
 62
     7
100
AcDbLine
 10
-73.8956298828125
 20
-4.594937801361084
 30
0.0
 11
-73.8956298828125
 21
-3.794923305511475
 31
0.0
  0
LINE
  5
66
330
1F
100
AcDbEntity
  8
VIEW0002
  6
Continuous
 62
     7
100
AcDbLine
 10
-6.988418579101562
 20
-90.794921875
 30
0.0
 11
-13.81690979003906
 21
-90.794921875
 31
0.0
  0
LINE
  5
67
330
1F
100
AcDbEntity
  8
VIEW0002
  6
Continuous
 62
     7
100
AcDbLine
 10
-10.014404296875
 20
-4.594937801361084
 30
0.0
 11
-10.014404296875
 21
-3.794923305511475
 31
0.0
  0
LINE
  5
68
330
1F
100
AcDbEntity
  8
VIEW0002
  6
Continuous
 62
     7
100
AcDbLine
 10
-16.22576904296875
 20
-3.794923305511475
 30
0.0
 11
-16.22576904296875
 21
-4.594937801361084
 31
0.0
  0
LINE
  5
69
330
1F
100
AcDbEntity
  8
VIEW0002
  6
Continuous
 62
     7
100
AcDbLine
 10
-16.22576904296875
 20
-81.794921875
 30
0.0
 11
-16.22576904296875
 21
-89.794921875
 31
0.0
  0
LINE
  5
6A
330
1F
100
AcDbEntity
  8
VIEW0002
  6
Continuous
 62
     7
100
AcDbLine
 10
-11.08616638183594
 20
-3.794923305511475
 30
0.0
 11
-11.08616638183594
 21
-4.594937801361084
 31
0.0
  0
LINE
  5
6B
330
1F
100
AcDbEntity
  8
VIEW0002
  6
Continuous
 62
     7
100
AcDbLine
 10
-11.08616638183594
 20
-74.544921875
 30
0.0
 11
-11.08616638183594
 21
-89.794921875
 31
0.0
  0
LINE
  5
6C
330
1F
100
AcDbEntity
  8
VIEW0002
  6
Continuous
 62
     7
100
AcDbLine
 10
-25.83073425292969
 20
-3.794923305511475
 30
0.0
 11
-25.83073425292969
 21
-4.594937801361084
 31
0.0
  0
LINE
  5
6D
330
1F
100
AcDbEntity
  8
VIEW0002
  6
Continuous
 62
     7
100
AcDbLine
 10
-25.83073425292969
 20
-81.794921875
 30
0.0
 11
-25.83073425292969
 21
-89.794921875
 31
0.0
  0
LINE
  5
6E
330
1F
100
AcDbEntity
  8
VIEW0002
  6
Continuous
 62
     7
100
AcDbLine
 10
-14.79066467285156
 20
-98.294921875
 30
0.0
 11
-15.4007568359375
 21
-98.294921875
 31
0.0
  0
LINE
  5
6F
330
1F
100
AcDbEntity
  8
VIEW0002
  6
Continuous
 62
     7
100
AcDbLine
 10
-56.69064331054688
 20
-98.294921875
 30
0.0
 11
-69.58969116210938
 21
-98.294921875
 31
0.0
  0
LINE
  5
70
330
1F
100
AcDbEntity
  8
VIEW0002
  6
Continuous
 62
     7
100
AcDbLine
 10
-10.16136169433594
 20
-89.794921875
 30
0.0
 11
-73.74859619140625
 21
-89.794921875
 31
0.0
  0
LINE
  5
71
330
1F
100
AcDbEntity
  8
VIEW0002
  6
Continuous
 62
     7
100
AcDbLine
 10
-43.370849609375
 20
-95.794921875
 30
0.0
 11
-55.370849609375
 21
-95.794921875
 31
0.0
  0
LINE
  5
72
330
1F
100
AcDbEntity
  8
VIEW0002
  6
Continuous
 62
     7
100
AcDbLine
 10
-43.03162660410057
 20
-97.4910085645702
 30
0.0
 11
-43.37084383264504
 21
-95.7949223960737
 31
0.0
  0
LINE
  5
73
330
1F
100
AcDbEntity
  8
VIEW0002
  6
Continuous
 62
     7
100
AcDbLine
 10
-55.71006165605766
 20
-97.49105639112865
 30
0.0
 11
-55.37083245753442
 21
-95.79491037273735
 31
0.0
  0
LINE
  5
74
330
1F
100
AcDbEntity
  8
VIEW0002
  6
Continuous
 62
     7
100
AcDbLine
 10
-71.7861328125
 20
-94.794921875
 30
0.0
 11
-71.7861328125
 21
-90.9449462890625
 31
0.0
  0
LINE
  5
75
330
1F
100
AcDbEntity
  8
VIEW0002
  6
Continuous
 62
     7
100
AcDbLine
 10
-72.94219970703125
 20
-94.794921875
 30
0.0
 11
-72.94219970703125
 21
-90.794921875
 31
0.0
  0
LINE
  5
76
330
1F
100
AcDbEntity
  8
VIEW0002
  6
Continuous
 62
     7
100
AcDbLine
 10
-71.42385602324404
 20
-97.23520253530346
 30
0.0
 11
-71.2048314366545
 21
-98.10594378227137
 31
0.0
  0
LINE
  5
77
330
1F
100
AcDbEntity
  8
VIEW0002
  6
Continuous
 62
     7
100
AcDbLine
 10
-71.93612670898438
 20
-90.794921875
 30
0.0
 11
-75.3724365234375
 21
-90.794921875
 31
0.0
  0
LINE
  5
78
330
1F
100
AcDbEntity
  8
VIEW0002
  6
Continuous
 62
     7
100
AcDbLine
 10
-13.9669189453125
 20
-95.4853515625
 30
0.0
 11
-13.9669189453125
 21
-90.9449462890625
 31
0.0
  0
LINE
  5
79
330
1F
100
AcDbEntity
  8
VIEW0002
  6
Continuous
 62
     7
100
AcDbLine
 10
-10.96783447265625
 20
-94.794921875
 30
0.0
 11
-10.96783447265625
 21
-90.794921875
 31
0.0
  0
LINE
  5
7A
330
1F
100
AcDbEntity
  8
VIEW0002
  6
Continuous
 62
     7
100
AcDbLine
 10
-14.04243187884011
 20
-96.09515251823234
 30
0.0
 11
-14.54820680046626
 21
-98.10588150897884
 31
0.0
  0
LINE
  5
7B
330
1F
100
AcDbEntity
  8
VIEW0002
  6
Continuous
 62
     7
100
AcDbLine
 10
-17.81976318359375
 20
-90.794921875
 30
0.0
 11
-17.81976318359375
 21
-89.9449234008789
 31
0.0
  0
LINE
  5
7C
330
1F
100
AcDbEntity
  8
VIEW0002
  6
Continuous
 62
     7
100
AcDbLine
 10
-15.51817321777344
 20
-90.794921875
 30
0.0
 11
-19.15473937988281
 21
-90.794921875
 31
0.0
  0
LINE
  5
7D
330
1F
100
AcDbEntity
  8
VIEW0002
  6
Continuous
 62
     7
100
AcDbLine
 10
-18.2003173828125
 20
-95.4853515625
 30
0.0
 11
-18.2003173828125
 21
-90.9449462890625
 31
0.0
  0
LINE
  5
7E
330
1F
100
AcDbEntity
  8
VIEW0002
  6
Continuous
 62
     7
100
AcDbLine
 10
-18.27581463560238
 20
-96.0951573053045
 30
0.0
 11
-18.78154339768913
 21
-98.10589790636983
 31
0.0
  0
LINE
  5
7F
330
1F
100
AcDbEntity
  8
VIEW0002
  6
Continuous
 62
     7
100
AcDbLine
 10
-19.15473937988281
 20
-90.794921875
 30
0.0
 11
-19.80842590332031
 21
-90.794921875
 31
0.0
  0
LINE
  5
80
330
1F
100
AcDbEntity
  8
VIEW0002
  6
Continuous
 62
     7
100
AcDbLine
 10
-19.02400207519531
 20
-98.294921875
 30
0.0
 11
-19.67768859863281
 21
-98.294921875
 31
0.0
  0
LINE
  5
81
330
1F
100
AcDbEntity
  8
VIEW0002
  6
Continuous
 62
     7
100
AcDbLine
 10
-9.488540649414062
 20
-3.794923305511475
 30
0.0
 11
-9.488540649414062
 21
-49.294921875
 31
0.0
  0
LINE
  5
82
330
1F
100
AcDbEntity
  8
VIEW0002
  6
Continuous
 62
     7
100
AcDbLine
 10
-12.05706787109375
 20
-107.294921875
 30
0.0
 11
-12.05706787109375
 21
-90.794921875
 31
0.0
  0
LINE
  5
83
330
1F
100
AcDbEntity
  8
VIEW0002
  6
Continuous
 62
     7
100
AcDbLine
 10
-17.1966552734375
 20
-107.294921875
 30
0.0
 11
-17.1966552734375
 21
-90.794921875
 31
0.0
  0
LINE
  5
84
330
1F
100
AcDbEntity
  8
VIEW0002
  6
Continuous
 62
     7
100
AcDbLine
 10
-27.120849609375
 20
-107.294921875
 30
0.0
 11
-27.120849609375
 21
-98.294921875
 31
0.0
  0
LINE
  5
85
330
1F
100
AcDbEntity
  8
VIEW0002
  6
Continuous
 62
     7
100
AcDbLine
 10
-73.74859619140625
 20
-90.794921875
 30
0.0
 11
-73.74859619140625
 21
-89.794921875
 31
0.0
  0
LINE
  5
86
330
1F
100
AcDbEntity
  8
VIEW0002
  6
Continuous
 62
     7
100
AcDbLine
 10
-10.16136169433594
 20
-90.794921875
 30
0.0
 11
-10.16136169433594
 21
-89.794921875
 31
0.0
  0
LINE
  5
87
330
1F
100
AcDbEntity
  8
VIEW0002
  6
Continuous
 62
     7
100
AcDbLine
 10
-3.8485107421875
 20
-93.294921875
 30
0.0
 11
-4.248748779296875
 21
-93.294921875
 31
0.0
  0
LINE
  5
88
330
1F
100
AcDbEntity
  8
VIEW0002
  6
Continuous
 62
     7
100
AcDbLine
 10
-77.7703857421875
 20
-93.294921875
 30
0.0
 11
-78.05972290039062
 21
-93.294921875
 31
0.0
  0
LINE
  5
89
330
1F
100
AcDbEntity
  8
VIEW0002
  6
Continuous
 62
     7
100
AcDbLine
 10
-4.248748779296875
 20
-102.5178833007812
 30
0.0
 11
-4.248748779296875
 21
-93.294921875
 31
0.0
  0
LINE
  5
8A
330
1F
100
AcDbEntity
  8
VIEW0002
  6
Continuous
 62
     7
100
AcDbLine
 10
-6.988433837890625
 20
-94.794921875
 30
0.0
 11
-6.988433837890625
 21
-49.294921875
 31
0.0
  0
LINE
  5
8B
330
1F
100
AcDbEntity
  8
VIEW0002
  6
Continuous
 62
     7
100
AcDbLine
 10
-6.988418579101562
 20
-49.294921875
 30
0.0
 11
-9.488540649414062
 21
-49.294921875
 31
0.0
  0
LINE
  5
8C
330
1F
100
AcDbEntity
  8
VIEW0002
  6
Continuous
 62
     7
100
AcDbLine
 10
-5.273834228515625
 20
-107.294921875
 30
0.0
 11
-5.273834228515625
 21
-94.794921875
 31
0.0
  0
LINE
  5
8D
330
1F
100
AcDbEntity
  8
VIEW0002
  6
Continuous
 62
     7
100
AcDbLine
 10
-32.83499145507812
 20
-98.294921875
 30
0.0
 11
-32.83499145507812
 21
-89.9449234008789
 31
0.0
  0
LINE
  5
8E
330
1F
100
AcDbEntity
  8
VIEW0002
  6
Continuous
 62
     7
100
AcDbLine
 10
-27.83499145507812
 20
-98.294921875
 30
0.0
 11
-27.83499145507812
 21
-89.9449234008789
 31
0.0
  0
LINE
  5
8F
330
1F
100
AcDbEntity
  8
VIEW0002
  6
Continuous
 62
     7
100
AcDbLine
 10
-6.488525390625
 20
-29.84492301940918
 30
0.0
 11
-6.488525390625
 21
-33.34492111206055
 31
0.0
  0
LINE
  5
90
330
1F
100
AcDbEntity
  8
VIEW0002
  6
Continuous
 62
     7
100
AcDbLine
 10
-8.488525390625
 20
-29.84492301940918
 30
0.0
 11
-8.488525390625
 21
-33.34492111206055
 31
0.0
  0
LINE
  5
91
330
1F
100
AcDbEntity
  8
VIEW0002
  6
Continuous
 62
     7
100
AcDbLine
 10
29.42047119140625
 20
93.12532043457031
 30
0.0
 11
29.42047119140625
 21
97.12530517578125
 31
0.0
  0
LINE
  5
92
330
1F
100
AcDbEntity
  8
VIEW0002
  6
Continuous
 62
     7
100
AcDbLine
 10
29.42047119140625
 20
93.12532043457031
 30
0.0
 11
29.67047119140625
 21
93.12532043457031
 31
0.0
  0
LINE
  5
93
330
1F
100
AcDbEntity
  8
VIEW0002
  6
Continuous
 62
     7
100
AcDbLine
 10
21.57046508789062
 20
25.13300895690918
 30
0.0
 11
21.57046508789062
 21
29.57043266296387
 31
0.0
  0
LINE
  5
94
330
1F
100
AcDbEntity
  8
VIEW0002
  6
Continuous
 62
     7
100
AcDbLine
 10
21.25509394018681
 20
30.77582834497061
 30
0.0
 11
32.64607596343028
 21
31.77241351770152
 31
0.0
  0
LINE
  5
95
330
1F
100
AcDbEntity
  8
VIEW0002
  6
Continuous
 62
     7
100
AcDbLine
 10
21.79866692621107
 20
29.81956511690485
 30
0.0
 11
33.25638012944687
 21
30.82198853118539
 31
0.0
  0
LINE
  5
96
330
1F
100
AcDbEntity
  8
VIEW0002
  6
Continuous
 62
     7
100
AcDbLine
 10
20.32919647139075
 20
25.60743120228186
 30
0.0
 11
11.67045763215883
 21
25.30506139332987
 31
0.0
  0
LINE
  5
97
330
1F
100
AcDbEntity
  8
VIEW0002
  6
Continuous
 62
     7
100
AcDbLine
 10
21.08792844018716
 20
24.63331716098918
 30
0.0
 11
8.92918677705415
 21
24.20872456591973
 31
0.0
  0
LINE
  5
98
330
1F
100
AcDbEntity
  8
VIEW0002
  6
Continuous
 62
     7
100
AcDbLine
 10
11.67047250282213
 20
25.30505743315144
 30
0.0
 11
9.670471983175279
 21
25.33996757021198
 31
0.0
  0
LINE
  5
99
330
1F
100
AcDbEntity
  8
VIEW0002
  6
Continuous
 62
     7
100
AcDbLine
 10
34.54637317368975
 20
36.95777169093955
 30
0.0
 11
54.45921569571793
 21
38.69992557757419
 31
0.0
  0
LINE
  5
9A
330
1F
100
AcDbEntity
  8
VIEW0002
  6
Continuous
 62
     7
100
AcDbLine
 10
32.86578893686828
 20
31.95670550642343
 30
0.0
 11
34.10701127604513
 21
36.58901083429291
 31
0.0
  0
LINE
  5
9B
330
1F
100
AcDbEntity
  8
VIEW0002
  6
Continuous
 62
     7
100
AcDbLine
 10
33.69579687198004
 20
31.19063393163232
 30
0.0
 11
34.93701921115688
 21
35.82293925950179
 31
0.0
  0
LINE
  5
9C
330
1F
100
AcDbEntity
  8
VIEW0002
  6
Continuous
 62
     7
100
AcDbLine
 10
35.15669254043071
 20
36.00734803431899
 30
0.0
 11
54.54637173175358
 21
37.70373090514187
 31
0.0
  0
LINE
  5
9D
330
1F
100
AcDbEntity
  8
VIEW0002
  6
Continuous
 62
     7
100
AcDbLine
 10
68.67047119140625
 20
49.72100830078125
 30
0.0
 11
68.67047119140625
 21
87.20709228515625
 31
0.0
  0
LINE
  5
9E
330
1F
100
AcDbEntity
  8
VIEW0002
  6
Continuous
 62
     7
100
AcDbLine
 10
65.01907856655144
 20
45.73632446682981
 30
0.0
 11
63.67807822826022
 21
45.61900213978742
 31
0.0
  0
LINE
  5
9F
330
1F
100
AcDbEntity
  8
VIEW0002
  6
Continuous
 62
     7
100
AcDbLine
 10
36.79867823642059
 20
95.49347563217687
 30
0.0
 11
63.19339989609129
 21
93.18424560009883
 31
0.0
  0
LINE
  5
A0
330
1F
100
AcDbEntity
  8
VIEW0002
  6
Continuous
 62
     7
100
AcDbLine
 10
36.07920996800764
 20
99.08829993259043
 30
0.0
 11
26.42484258605355
 21
99.25681753307401
 31
0.0
  0
LINE
  5
A1
330
1F
100
AcDbEntity
  8
VIEW0002
  6
Continuous
 62
     7
100
AcDbLine
 10
29.17047824532058
 20
98.20878676774556
 30
0.0
 11
27.17047772567373
 21
98.17387663068503
 31
0.0
  0
LINE
  5
A2
330
1F
100
AcDbEntity
  8
VIEW0002
  6
Continuous
 62
     7
100
AcDbLine
 10
64.9319228240563
 20
46.73251916494365
 30
0.0
 11
63.03378552172595
 21
46.56645366965889
 31
0.0
  0
LINE
  5
A3
330
1F
100
AcDbEntity
  8
VIEW0002
  6
Continuous
 62
     7
100
AcDbLine
 10
36.57046508789062
 20
95.74249267578125
 30
0.0
 11
36.57046508789062
 21
98.58837890625
 31
0.0
  0
LINE
  5
A4
330
1F
100
AcDbEntity
  8
VIEW0002
  6
Continuous
 62
     7
100
AcDbLine
 10
20.57046508789062
 20
25.85723686218262
 30
0.0
 11
20.57046508789062
 21
30.02868461608887
 31
0.0
  0
LINE
  5
A5
330
1F
100
AcDbEntity
  8
VIEW0002
  6
Continuous
 62
     7
100
AcDbLine
 10
9.670455932617188
 20
25.33996391296387
 30
0.0
 11
9.670455932617188
 21
26.69000053405762
 31
0.0
  0
LINE
  5
A6
330
1F
100
AcDbEntity
  8
VIEW0002
  6
Continuous
 62
     7
100
AcDbLine
 10
10.42045593261719
 20
26.70300674438477
 30
0.0
 11
10.42045593261719
 21
28.69000053405762
 31
0.0
  0
LINE
  5
A7
330
1F
100
AcDbEntity
  8
VIEW0002
  6
Continuous
 62
     7
100
AcDbLine
 10
8.670455932617188
 20
24.45857048034668
 30
0.0
 11
8.670455932617188
 21
30.19000053405762
 31
0.0
  0
LINE
  5
A8
330
1F
100
AcDbEntity
  8
VIEW0002
  6
Continuous
 62
     7
100
AcDbLine
 10
10.42046849079978
 20
26.70300546644897
 30
0.0
 11
9.67047592416475
 21
26.68991429820255
 31
0.0
  0
LINE
  5
A9
330
1F
100
AcDbEntity
  8
VIEW0002
  6
Continuous
 62
     7
100
AcDbLine
 10
27.17047119140625
 20
97.07391357421875
 30
0.0
 11
27.17047119140625
 21
98.17388916015625
 31
0.0
  0
LINE
  5
AA
330
1F
100
AcDbEntity
  8
VIEW0002
  6
Continuous
 62
     7
100
AcDbLine
 10
27.92047119140625
 20
96.82391357421875
 30
0.0
 11
27.92047119140625
 21
97.0607681274414
 31
0.0
  0
LINE
  5
AB
330
1F
100
AcDbEntity
  8
VIEW0002
  6
Continuous
 62
     7
100
AcDbLine
 10
26.17047119140625
 20
96.07391357421875
 30
0.0
 11
26.17047119140625
 21
99.0068588256836
 31
0.0
  0
LINE
  5
AC
330
1F
100
AcDbEntity
  8
VIEW0002
  6
Continuous
 62
     7
100
AcDbLine
 10
27.92048114266979
 20
97.06076387370359
 30
0.0
 11
27.17047331956968
 21
97.07385530825259
 31
0.0
  0
LINE
  5
AD
330
1F
100
AcDbEntity
  8
VIEW0002
  6
Continuous
 62
     7
100
AcDbLine
 10
8.670455932617188
 20
30.19000053405762
 30
0.0
 11
10.67045593261719
 21
30.19000053405762
 31
0.0
  0
LINE
  5
AE
330
1F
100
AcDbEntity
  8
VIEW0002
  6
Continuous
 62
     7
100
AcDbLine
 10
26.17047119140625
 20
96.07391357421875
 30
0.0
 11
27.17047119140625
 21
96.07391357421875
 31
0.0
  0
LINE
  5
AF
330
1F
100
AcDbEntity
  8
VIEW0002
  6
Continuous
 62
     7
100
AcDbLine
 10
67.67047119140625
 20
49.72100830078125
 30
0.0
 11
67.67047119140625
 21
87.20709228515625
 31
0.0
  0
LINE
  5
B0
330
1F
100
AcDbEntity
  8
VIEW0002
  6
Continuous
 62
     7
100
AcDbLine
 10
36.25510585156289
 20
94.53721206238754
 30
0.0
 11
63.10624448632549
 21
92.188050872875
 31
0.0
  0
LINE
  5
B1
330
1F
100
AcDbEntity
  8
VIEW0002
  6
Continuous
 62
     7
100
AcDbLine
 10
35.57046508789062
 20
95.28436279296875
 30
0.0
 11
35.57046508789062
 21
97.85137939453125
 31
0.0
  0
LINE
  5
B2
330
1F
100
AcDbEntity
  8
VIEW0002
  6
Continuous
 62
     7
100
AcDbLine
 10
35.32483978643755
 20
98.10131518435804
 30
0.0
 11
29.17047331386546
 21
98.20874004498569
 31
0.0
  0
LINE
  5
B3
330
1F
100
AcDbEntity
  8
VIEW0002
  6
Continuous
 62
     7
100
AcDbLine
 10
-78.55978393554688
 20
-88.85049438476562
 30
0.0
 11
-78.55978393554688
 21
-8.239351272583008
 31
0.0
  0
LINE
  5
B4
330
1F
100
AcDbEntity
  8
VIEW0002
  6
Continuous
 62
     7
100
AcDbLine
 10
-77.7703857421875
 20
-102.8504943847656
 30
0.0
 11
-77.7703857421875
 21
-93.294921875
 31
0.0
  0
LINE
  5
B5
330
1F
100
AcDbEntity
  8
VIEW0002
  6
Continuous
 62
     7
100
AcDbLine
 10
10.42045593261719
 20
27.69000053405762
 30
0.0
 11
10.67045593261719
 21
27.69000053405762
 31
0.0
  0
LINE
  5
B6
330
1F
100
AcDbEntity
  8
VIEW0002
  6
Continuous
 62
     7
100
AcDbLine
 10
-20.07174682617188
 20
-98.294921875
 30
0.0
 11
-42.05104064941406
 21
-98.294921875
 31
0.0
  0
LINE
  5
B7
330
1F
100
AcDbEntity
  8
VIEW0002
  6
Continuous
 62
     7
100
AcDbLine
 10
-70.02542114257812
 20
-98.294921875
 30
0.0
 11
-70.96237182617188
 21
-98.294921875
 31
0.0
  0
LINE
  5
B8
330
1F
100
AcDbEntity
  8
VIEW0002
  6
Continuous
 62
     7
100
AcDbLine
 10
-19.69059901564445
 20
-97.55448379976552
 30
0.0
 11
-19.82930424087384
 21
-98.10590996751164
 31
0.0
  0
LINE
  5
B9
330
1F
100
AcDbEntity
  8
VIEW0002
  6
Continuous
 62
     7
100
AcDbLine
 10
-10.16136169433594
 20
-89.9449234008789
 30
0.0
 11
-73.74859619140625
 21
-89.9449234008789
 31
0.0
  0
LINE
  5
BA
330
1F
100
AcDbEntity
  8
VIEW0002
  6
Continuous
 62
     7
100
AcDbLine
 10
-70.83159712496202
 20
-89.94492319412603
 30
0.0
 11
-70.70086331125556
 21
-98.29492063657578
 31
0.0
  0
LINE
  5
BB
330
1F
100
AcDbEntity
  8
VIEW0002
  6
Continuous
 62
     7
100
AcDbLine
 10
-15.5314754271675
 20
-90.79492755794593
 30
0.0
 11
-15.40074011649181
 21
-98.2949249757847
 31
0.0
  0
LINE
  5
BC
330
1F
100
AcDbEntity
  8
VIEW0002
  6
Continuous
 62
     7
100
AcDbLine
 10
-14.92144085993391
 20
-89.94492716216382
 30
0.0
 11
-15.05217188437834
 21
-98.29490938762478
 31
0.0
  0
LINE
  5
BD
330
1F
100
AcDbEntity
  8
VIEW0002
  6
Continuous
 62
     7
100
AcDbLine
 10
-19.15474011701996
 20
-90.79492513356266
 30
0.0
 11
-19.2854748969226
 21
-98.29492256065352
 31
0.0
  0
LINE
  5
BE
330
1F
100
AcDbEntity
  8
VIEW0002
  6
Continuous
 62
     7
100
AcDbLine
 10
-19.67768567273785
 20
-98.29492744880856
 30
0.0
 11
-19.80842555812097
 21
-90.79492248016103
 31
0.0
  0
LINE
  5
BF
330
1F
100
AcDbEntity
  8
VIEW0002
  6
Continuous
 62
     7
100
AcDbLine
 10
-20.24420079913141
 20
-90.7949262140114
 30
0.0
 11
-20.37493321849076
 21
-98.29492368224925
 31
0.0
  0
LINE
  5
C0
330
1F
100
AcDbEntity
  8
VIEW0002
  6
Continuous
 62
     7
100
AcDbLine
 10
-19.80842590332031
 20
-90.794921875
 30
0.0
 11
-20.24420166015625
 21
-90.794921875
 31
0.0
  0
LINE
  5
C1
330
1F
100
AcDbEntity
  8
VIEW0002
  6
Continuous
 62
     7
100
AcDbLine
 10
-69.89469431645179
 20
-90.79492669603134
 30
0.0
 11
-70.02542736435818
 21
-98.29492415331296
 31
0.0
  0
LINE
  5
C2
330
1F
100
AcDbEntity
  8
VIEW0002
  6
Continuous
 62
     7
100
AcDbLine
 10
-70.00983077179825
 20
-97.39956089695035
 30
0.0
 11
-69.83215833209437
 21
-98.10591357381732
 31
0.0
  0
LINE
  5
C3
330
1F
100
AcDbEntity
  8
VIEW0002
  6
Continuous
 62
     7
100
AcDbLine
 10
-69.45889753797258
 20
-90.79492098821738
 30
0.0
 11
-69.32816450403391
 21
-98.29491844574247
 31
0.0
  0
LINE
  5
C4
330
1F
100
AcDbEntity
  8
VIEW0002
  6
Continuous
 62
     7
100
AcDbLine
 10
-69.45892333984375
 20
-90.794921875
 30
0.0
 11
-69.89468383789062
 21
-90.794921875
 31
0.0
  0
LINE
  5
C5
330
1F
100
AcDbEntity
  8
VIEW0002
  6
Continuous
 62
     7
100
AcDbLine
 10
11.92045593261719
 20
29.87539482116699
 30
0.0
 11
11.92045593261719
 21
32.12530517578125
 31
0.0
  0
LINE
  5
C6
330
1F
100
AcDbEntity
  8
VIEW0002
  6
Continuous
 62
     7
100
AcDbLine
 10
11.92045593261719
 20
32.12530517578125
 30
0.0
 11
12.17045593261719
 21
32.12530517578125
 31
0.0
  0
LINE
  5
C7
330
1F
100
AcDbEntity
  8
VIEW0002
  6
Continuous
 62
     7
100
AcDbLine
 10
-11.37384033203125
 20
-107.294921875
 30
0.0
 11
-11.37384033203125
 21
-94.794921875
 31
0.0
  0
LINE
  5
C8
330
1F
100
AcDbEntity
  8
VIEW0002
  6
Continuous
 62
     7
100
AcDbLine
 10
-9.405593872070312
 20
-107.294921875
 30
0.0
 11
-9.405593872070312
 21
-94.794921875
 31
0.0
  0
LINE
  5
C9
330
1F
100
AcDbEntity
  8
VIEW0002
  6
Continuous
 62
     7
100
AcDbLine
 10
-14.25936889648438
 20
-78.544921875
 30
0.0
 11
-15.51882934570312
 21
-78.544921875
 31
0.0
  0
LINE
  5
CA
330
1F
100
AcDbEntity
  8
VIEW0002
  6
Continuous
 62
     7
100
AcDbLine
 10
-71.5350341796875
 20
-74.544921875
 30
0.0
 11
-75.3724365234375
 21
-74.544921875
 31
0.0
  0
LINE
  5
CB
330
1F
100
AcDbEntity
  8
VIEW0002
  6
Continuous
 62
     7
100
AcDbLine
 10
-71.42388916015625
 20
-4.594937801361084
 30
0.0
 11
-71.42388916015625
 21
-17.09493827819824
 31
0.0
  0
LINE
  5
CC
330
1F
100
AcDbEntity
  8
VIEW0002
  6
Continuous
 62
     7
100
AcDbLine
 10
-73.39212036132812
 20
-4.594937801361084
 30
0.0
 11
-73.39212036132812
 21
-17.09493827819824
 31
0.0
  0
LINE
  5
CD
330
1F
100
AcDbEntity
  8
VIEW0002
  6
Continuous
 62
     7
100
AcDbLine
 10
-9.488540649414062
 20
-17.09493827819824
 30
0.0
 11
-12.42391967773438
 21
-17.09493827819824
 31
0.0
  0
LINE
  5
CE
330
1F
100
AcDbEntity
  8
VIEW0002
  6
Continuous
 62
     7
100
AcDbLine
 10
-71.42388916015625
 20
-17.09493827819824
 30
0.0
 11
-74.92385864257812
 21
-17.09493827819824
 31
0.0
  0
LINE
  5
CF
330
1F
100
AcDbEntity
  8
VIEW0002
  6
Continuous
 62
     7
100
AcDbLine
 10
-10.96784973144531
 20
-17.09493827819824
 30
0.0
 11
-10.96784973144531
 21
-21.09493827819824
 31
0.0
  0
LINE
  5
D0
330
1F
100
AcDbEntity
  8
VIEW0002
  6
Continuous
 62
     7
100
AcDbLine
 10
-17.32571411132812
 20
-21.09493827819824
 30
0.0
 11
-17.32571411132812
 21
-81.794921875
 31
0.0
  0
LINE
  5
D1
330
1F
100
AcDbEntity
  8
VIEW0002
  6
Continuous
 62
     7
100
AcDbLine
 10
-70.03125
 20
-21.09493827819824
 30
0.0
 11
-70.03125
 21
-78.544921875
 31
0.0
  0
LINE
  5
D2
330
1F
100
AcDbEntity
  8
VIEW0002
  6
Continuous
 62
     7
100
AcDbLine
 10
-72.94229125976562
 20
-17.09493827819824
 30
0.0
 11
-72.94229125976562
 21
-21.09493827819824
 31
0.0
  0
LINE
  5
D3
330
1F
100
AcDbEntity
  8
VIEW0002
  6
Continuous
 62
     7
100
AcDbLine
 10
-10.96784973144531
 20
-21.09493827819824
 30
0.0
 11
-72.94229125976562
 21
-21.09493827819824
 31
0.0
  0
LINE
  5
D4
330
1F
100
AcDbEntity
  8
VIEW0002
  6
Continuous
 62
     7
100
AcDbLine
 10
-17.54443359375
 20
-35.66991806030273
 30
0.0
 11
-17.54443359375
 21
-36.41991806030273
 31
0.0
  0
LINE
  5
D5
330
1F
100
AcDbEntity
  8
VIEW0002
  6
Continuous
 62
     7
100
AcDbLine
 10
-23.11416625976562
 20
-35.66991806030273
 30
0.0
 11
-23.11416625976562
 21
-36.41991806030273
 31
0.0
  0
LINE
  5
D6
330
1F
100
AcDbEntity
  8
VIEW0002
  6
Continuous
 62
     7
100
AcDbLine
 10
-72.923828125
 20
-39.16991806030273
 30
0.0
 11
-72.923828125
 21
-39.91991806030273
 31
0.0
  0
LINE
  5
D7
330
1F
100
AcDbEntity
  8
VIEW0002
  6
Continuous
 62
     7
100
AcDbLine
 10
-72.923828125
 20
-39.91991806030273
 30
0.0
 11
-75.3724365234375
 21
-39.91991806030273
 31
0.0
  0
LINE
  5
D8
330
1F
100
AcDbEntity
  8
VIEW0002
  6
Continuous
 62
     7
100
AcDbLine
 10
-72.923828125
 20
-39.16991806030273
 30
0.0
 11
-75.3724365234375
 21
-39.16991806030273
 31
0.0
  0
LINE
  5
D9
330
1F
100
AcDbEntity
  8
VIEW0002
  6
Continuous
 62
     7
100
AcDbLine
 10
-72.923828125
 20
-69.169921875
 30
0.0
 11
-72.923828125
 21
-69.919921875
 31
0.0
  0
LINE
  5
DA
330
1F
100
AcDbEntity
  8
VIEW0002
  6
Continuous
 62
     7
100
AcDbLine
 10
-72.923828125
 20
-69.919921875
 30
0.0
 11
-75.3724365234375
 21
-69.919921875
 31
0.0
  0
LINE
  5
DB
330
1F
100
AcDbEntity
  8
VIEW0002
  6
Continuous
 62
     7
100
AcDbLine
 10
-72.923828125
 20
-69.169921875
 30
0.0
 11
-75.3724365234375
 21
-69.169921875
 31
0.0
  0
LINE
  5
DC
330
1F
100
AcDbEntity
  8
VIEW0002
  6
Continuous
 62
     7
100
AcDbLine
 10
-17.76010131835938
 20
-21.09493827819824
 30
0.0
 11
-17.76010131835938
 21
-35.66991806030273
 31
0.0
  0
LINE
  5
DD
330
1F
100
AcDbEntity
  8
VIEW0002
  6
Continuous
 62
     7
100
AcDbLine
 10
-17.54443359375
 20
-35.66991806030273
 30
0.0
 11
-23.11416625976562
 21
-35.66991806030273
 31
0.0
  0
LINE
  5
DE
330
1F
100
AcDbEntity
  8
VIEW0002
  6
Continuous
 62
     7
100
AcDbLine
 10
-17.54443359375
 20
-36.41991806030273
 30
0.0
 11
-23.11416625976562
 21
-36.41991806030273
 31
0.0
  0
LINE
  5
DF
330
1F
100
AcDbEntity
  8
VIEW0002
  6
Continuous
 62
     7
100
AcDbLine
 10
-17.76010131835938
 20
-62.41991806030273
 30
0.0
 11
-17.76010131835938
 21
-81.794921875
 31
0.0
  0
LINE
  5
E0
330
1F
100
AcDbEntity
  8
VIEW0002
  6
Continuous
 62
     7
100
AcDbLine
 10
-17.76010131835938
 20
-36.41991806030273
 30
0.0
 11
-17.76010131835938
 21
-61.66991806030273
 31
0.0
  0
LINE
  5
E1
330
1F
100
AcDbEntity
  8
VIEW0002
  6
Continuous
 62
     7
100
AcDbLine
 10
-17.54443359375
 20
-62.41991806030273
 30
0.0
 11
-23.11416625976562
 21
-62.41991806030273
 31
0.0
  0
LINE
  5
E2
330
1F
100
AcDbEntity
  8
VIEW0002
  6
Continuous
 62
     7
100
AcDbLine
 10
-9.488540649414062
 20
-39.41991806030273
 30
0.0
 11
-10.92391967773438
 21
-39.41991806030273
 31
0.0
  0
LINE
  5
E3
330
1F
100
AcDbEntity
  8
VIEW0002
  6
Continuous
 62
     7
100
AcDbLine
 10
-10.92391967773438
 20
-38.66991806030273
 30
0.0
 11
-10.92391967773438
 21
-39.41991806030273
 31
0.0
  0
LINE
  5
E4
330
1F
100
AcDbEntity
  8
VIEW0002
  6
Continuous
 62
     7
100
AcDbLine
 10
-17.54443359375
 20
-61.66991806030273
 30
0.0
 11
-17.54443359375
 21
-62.41991806030273
 31
0.0
  0
LINE
  5
E5
330
1F
100
AcDbEntity
  8
VIEW0002
  6
Continuous
 62
     7
100
AcDbLine
 10
-23.11416625976562
 20
-61.66991806030273
 30
0.0
 11
-23.11416625976562
 21
-62.41991806030273
 31
0.0
  0
LINE
  5
E6
330
1F
100
AcDbEntity
  8
VIEW0002
  6
Continuous
 62
     7
100
AcDbLine
 10
-9.488540649414062
 20
-38.66991806030273
 30
0.0
 11
-10.92391967773438
 21
-38.66991806030273
 31
0.0
  0
LINE
  5
E7
330
1F
100
AcDbEntity
  8
VIEW0002
  6
Continuous
 62
     7
100
AcDbLine
 10
-17.54443359375
 20
-61.66991806030273
 30
0.0
 11
-23.11416625976562
 21
-61.66991806030273
 31
0.0
  0
LINE
  5
E8
330
1F
100
AcDbEntity
  8
VIEW0002
  6
Continuous
 62
     7
100
AcDbLine
 10
-19.21891784667969
 20
-13.59493827819824
 30
0.0
 11
-19.67776489257812
 21
-13.59493827819824
 31
0.0
  0
LINE
  5
E9
330
1F
100
AcDbEntity
  8
VIEW0002
  6
Continuous
 62
     7
100
AcDbLine
 10
-54.19059753417969
 20
-13.59493827819824
 30
0.0
 11
-69.32943725585938
 21
-13.59493827819824
 31
0.0
  0
LINE
  5
EA
330
1F
100
AcDbEntity
  8
VIEW0002
  6
Continuous
 62
     7
100
AcDbLine
 10
-51.87079187661281
 20
-21.09493818764102
 30
0.0
 11
-53.21001591988875
 21
-14.39881786950533
 31
0.0
  0
LINE
  5
EB
330
1F
100
AcDbEntity
  8
VIEW0002
  6
Continuous
 62
     7
100
AcDbLine
 10
-45.53157134357219
 20
-14.39882754175559
 30
0.0
 11
-46.87079351653894
 21
-21.09493850834522
 31
0.0
  0
LINE
  5
EC
330
1F
100
AcDbEntity
  8
VIEW0002
  6
Continuous
 62
     7
100
AcDbLine
 10
-27.83500671386719
 20
-13.59493827819824
 30
0.0
 11
-27.83500671386719
 21
-21.09493827819824
 31
0.0
  0
LINE
  5
ED
330
1F
100
AcDbEntity
  8
VIEW0002
  6
Continuous
 62
     7
100
AcDbLine
 10
-32.83500671386719
 20
-13.59493827819824
 30
0.0
 11
-32.83500671386719
 21
-21.09493827819824
 31
0.0
  0
LINE
  5
EE
330
1F
100
AcDbEntity
  8
VIEW0002
  6
Continuous
 62
     7
100
AcDbLine
 10
-71.7861328125
 20
-17.09493827819824
 30
0.0
 11
-71.7861328125
 21
-21.09493827819824
 31
0.0
  0
LINE
  5
EF
330
1F
100
AcDbEntity
  8
VIEW0002
  6
Continuous
 62
     7
100
AcDbLine
 10
-71.25238588701117
 20
-13.97296443390981
 30
0.0
 11
-71.42387414319667
 21
-14.65471471328318
 31
0.0
  0
LINE
  5
F0
330
1F
100
AcDbEntity
  8
VIEW0002
  6
Continuous
 62
     7
100
AcDbLine
 10
-70.70089845195466
 20
-13.59493659636103
 30
0.0
 11
-70.83163401404916
 21
-21.09493400981721
 31
0.0
  0
LINE
  5
F1
330
1F
100
AcDbEntity
  8
VIEW0002
  6
Continuous
 62
     7
100
AcDbLine
 10
-70.02546363905927
 20
-13.59493462084206
 30
0.0
 11
-69.8947282558914
 21
-21.09493299123638
 31
0.0
  0
LINE
  5
F2
330
1F
100
AcDbEntity
  8
VIEW0002
  6
Continuous
 62
     7
100
AcDbLine
 10
-69.3282123812688
 20
-13.59493874478763
 30
0.0
 11
-69.45894359940492
 21
-21.09493623396389
 31
0.0
  0
LINE
  5
F3
330
1F
100
AcDbEntity
  8
VIEW0002
  6
Continuous
 62
     7
100
AcDbLine
 10
-69.81434891342614
 20
-13.97295425155651
 30
0.0
 11
-70.00562995145563
 21
-14.73339988082846
 31
0.0
  0
LINE
  5
F4
330
1F
100
AcDbEntity
  8
VIEW0002
  6
Continuous
 62
     7
100
AcDbLine
 10
-70.02545166015625
 20
-13.59493827819824
 30
0.0
 11
-70.76748657226562
 21
-13.59493827819824
 31
0.0
  0
LINE
  5
F5
330
1F
100
AcDbEntity
  8
VIEW0002
  6
Continuous
 62
     7
100
AcDbLine
 10
-18.20027160644531
 20
-16.40453910827637
 30
0.0
 11
-18.20027160644531
 21
-21.09493827819824
 31
0.0
  0
LINE
  5
F6
330
1F
100
AcDbEntity
  8
VIEW0002
  6
Continuous
 62
     7
100
AcDbLine
 10
-19.28553065728636
 20
-13.59493530132965
 30
0.0
 11
-19.15479328874769
 21
-21.09493936003113
 31
0.0
  0
LINE
  5
F7
330
1F
100
AcDbEntity
  8
VIEW0002
  6
Continuous
 62
     7
100
AcDbLine
 10
-18.73403882015179
 20
-13.97296854853782
 30
0.0
 11
-18.27580592227063
 21
-15.79469226967651
 31
0.0
  0
LINE
  5
F8
330
1F
100
AcDbEntity
  8
VIEW0002
  6
Continuous
 62
     7
100
AcDbLine
 10
-13.96699523925781
 20
-16.40450859069824
 30
0.0
 11
-13.96699523925781
 21
-21.09493827819824
 31
0.0
  0
LINE
  5
F9
330
1F
100
AcDbEntity
  8
VIEW0002
  6
Continuous
 62
     7
100
AcDbLine
 10
-14.985595703125
 20
-13.59493827819824
 30
0.0
 11
-15.40083312988281
 21
-13.59493827819824
 31
0.0
  0
LINE
  5
FA
330
1F
100
AcDbEntity
  8
VIEW0002
  6
Continuous
 62
     7
100
AcDbLine
 10
-15.05220633343497
 20
-13.59493660068153
 30
0.0
 11
-14.92146896489631
 21
-21.09494065938301
 31
0.0
  0
LINE
  5
FB
330
1F
100
AcDbEntity
  8
VIEW0002
  6
Continuous
 62
     7
100
AcDbLine
 10
-14.50069039202036
 20
-13.97297405021823
 30
0.0
 11
-14.04249745381771
 21
-15.79471568928175
 31
0.0
  0
LINE
  5
FC
330
1F
100
AcDbEntity
  8
VIEW0002
  6
Continuous
 62
     7
100
AcDbLine
 10
-15.40083093105855
 20
-13.59493645926759
 30
0.0
 11
-15.53156831621879
 21
-21.09494147149852
 31
0.0
  0
LINE
  5
FD
330
1F
100
AcDbEntity
  8
VIEW0002
  6
Continuous
 62
     7
100
AcDbLine
 10
-71.0350341796875
 20
-75.044921875
 30
0.0
 11
-71.0350341796875
 21
-75.54796600341797
 31
0.0
  0
LINE
  5
FE
330
1F
100
AcDbEntity
  8
VIEW0002
  6
Continuous
 62
     7
100
AcDbLine
 10
-70.93721045107426
 20
-76.53214942568479
 30
0.0
 11
-70.53311878759737
 21
-78.54491934781328
 31
0.0
  0
LINE
  5
FF
330
1F
100
AcDbEntity
  8
VIEW0002
  6
Continuous
 62
     7
100
AcDbLine
 10
-14.25936889648438
 20
-78.544921875
 30
0.0
 11
-14.25936889648438
 21
-75.044921875
 31
0.0
  0
LINE
  5
100
330
1F
100
AcDbEntity
  8
VIEW0002
  6
Continuous
 62
     7
100
AcDbLine
 10
-12.05708312988281
 20
-17.09493827819824
 30
0.0
 11
-12.05708312988281
 21
-21.09493827819824
 31
0.0
  0
LINE
  5
101
330
1F
100
AcDbEntity
  8
VIEW0002
  6
Continuous
 62
     7
100
AcDbLine
 10
-17.19667053222656
 20
-4.594937801361084
 30
0.0
 11
-17.19667053222656
 21
-21.09493827819824
 31
0.0
  0
LINE
  5
102
330
1F
100
AcDbEntity
  8
VIEW0002
  6
Continuous
 62
     7
100
AcDbLine
 10
-27.12080383300781
 20
-4.594937801361084
 30
0.0
 11
-27.12080383300781
 21
-13.59493827819824
 31
0.0
  0
LINE
  5
103
330
1F
100
AcDbEntity
  8
VIEW0002
  6
Continuous
 62
     7
100
AcDbLine
 10
-26.18904113769531
 20
-21.09493827819824
 30
0.0
 11
-26.18904113769531
 21
-81.794921875
 31
0.0
  0
LINE
  5
104
330
1F
100
AcDbEntity
  8
VIEW0002
  6
Continuous
 62
     7
100
AcDbLine
 10
-27.02249145507812
 20
-81.794921875
 30
0.0
 11
-27.02249145507812
 21
-78.544921875
 31
0.0
  0
LINE
  5
105
330
1F
100
AcDbEntity
  8
VIEW0002
  6
Continuous
 62
     7
100
AcDbLine
 10
-15.51882934570312
 20
-79.294921875
 30
0.0
 11
-15.51882934570312
 21
-78.544921875
 31
0.0
  0
LINE
  5
106
330
1F
100
AcDbEntity
  8
VIEW0002
  6
Continuous
 62
     7
100
AcDbLine
 10
-15.51881825498347
 20
-79.29492280582555
 30
0.0
 11
-16.32189388084415
 21
-81.79492702277835
 31
0.0
  0
LINE
  5
107
330
1F
100
AcDbEntity
  8
VIEW0002
  6
Continuous
 62
     7
100
AcDbLine
 10
-6.988433837890625
 20
-61.66991806030273
 30
0.0
 11
-10.92391967773438
 21
-61.66991806030273
 31
0.0
  0
LINE
  5
108
330
1F
100
AcDbEntity
  8
VIEW0002
  6
Continuous
 62
     7
100
AcDbLine
 10
-10.92391967773438
 20
-61.66991806030273
 30
0.0
 11
-10.92391967773438
 21
-62.41991806030273
 31
0.0
  0
LINE
  5
109
330
1F
100
AcDbEntity
  8
VIEW0002
  6
Continuous
 62
     7
100
AcDbLine
 10
-6.988433837890625
 20
-62.41991806030273
 30
0.0
 11
-10.92391967773438
 21
-62.41991806030273
 31
0.0
  0
LINE
  5
10A
330
1F
100
AcDbEntity
  8
VIEW0002
  6
Continuous
 62
     7
100
AcDbLine
 10
-19.78182781439795
 20
-13.97297271772143
 30
0.0
 11
-19.69067259243812
 21
-14.33537202184654
 31
0.0
  0
LINE
  5
10B
330
1F
100
AcDbEntity
  8
VIEW0002
  6
Continuous
 62
     7
100
AcDbLine
 10
-20.24429561479522
 20
-13.59544312360289
 30
0.0
 11
-20.37502081725365
 21
-21.09493519346901
 31
0.0
  0
LINE
  5
10C
330
1F
100
AcDbEntity
  8
VIEW0002
  6
Continuous
 62
     7
100
AcDbLine
 10
-19.67777930080866
 20
-13.59494063423003
 30
0.0
 11
-19.80851327924482
 21
-21.09493616765307
 31
0.0
  0
LINE
  5
10D
330
1F
100
AcDbEntity
  8
VIEW0002
  6
Continuous
 62
     7
100
AcDbLine
 10
-20.2667236328125
 20
-13.59493827819824
 30
0.0
 11
-44.55099487304688
 21
-13.59493827819824
 31
0.0
  0
LINE
  5
10E
330
1F
100
AcDbEntity
  8
VIEW0002
  6
Continuous
 62
     7
100
AcDbLine
 10
-12.42391967773438
 20
-4.594937801361084
 30
0.0
 11
-12.42391967773438
 21
-17.09493827819824
 31
0.0
  0
LINE
  5
10F
330
1F
100
AcDbEntity
  8
VIEW0002
  6
Continuous
 62
     7
100
AcDbLine
 10
-10.45567321777344
 20
-4.594937801361084
 30
0.0
 11
-10.45567321777344
 21
-17.09493827819824
 31
0.0
  0
LINE
  5
110
330
1F
100
AcDbEntity
  8
VIEW0002
  6
Continuous
 62
     7
100
AcDbLine
 10
-9.488540649414062
 20
-4.594937801361084
 30
0.0
 11
-75.3724365234375
 21
-4.594937801361084
 31
0.0
  0
LINE
  5
111
330
1F
100
AcDbEntity
  8
VIEW0002
  6
Continuous
 62
     7
100
AcDbLine
 10
-16.3218994140625
 20
-81.794921875
 30
0.0
 11
-27.02249145507812
 21
-81.794921875
 31
0.0
  0
LINE
  5
112
330
1F
100
AcDbEntity
  8
VIEW0002
  6
Continuous
 62
     7
100
AcDbLine
 10
-27.02249145507812
 20
-78.544921875
 30
0.0
 11
-70.53314208984375
 21
-78.544921875
 31
0.0
  0
LINE
  5
113
330
1F
100
AcDbEntity
  8
VIEW0002
  6
Continuous
 62
     7
100
AcDbLine
 10
-6.988433837890625
 20
-74.544921875
 30
0.0
 11
-13.75936889648438
 21
-74.544921875
 31
0.0
  0
LINE
  5
114
330
1F
100
AcDbEntity
  8
VIEW0002
  6
Continuous
 62
     7
100
AcDbLine
 10
-6.988433837890625
 20
-65.544921875
 30
0.0
 11
-9.173919677734375
 21
-65.544921875
 31
0.0
  0
LINE
  5
115
330
1F
100
AcDbEntity
  8
VIEW0002
  6
Continuous
 62
     7
100
AcDbLine
 10
-6.988433837890625
 20
-67.544921875
 30
0.0
 11
-9.173919677734375
 21
-67.544921875
 31
0.0
  0
LINE
  5
116
330
1F
100
AcDbEntity
  8
VIEW0002
  6
Continuous
 62
     7
100
AcDbLine
 10
-6.988433837890625
 20
-68.544921875
 30
0.0
 11
-9.173919677734375
 21
-68.544921875
 31
0.0
  0
LINE
  5
117
330
1F
100
AcDbEntity
  8
VIEW0002
  6
Continuous
 62
     7
100
AcDbLine
 10
-9.173919677734375
 20
-65.544921875
 30
0.0
 11
-9.173919677734375
 21
-68.544921875
 31
0.0
  0
LINE
  5
118
330
1F
100
AcDbEntity
  8
VIEW0002
  6
Continuous
 62
     7
100
AcDbLine
 10
29.17047119140625
 20
93.12535858154297
 30
0.0
 11
29.17047119140625
 21
97.1253433227539
 31
0.0
  0
LINE
  5
119
330
1F
100
AcDbEntity
  8
VIEW0002
  6
Continuous
 62
     7
100
AcDbLine
 10
34.87690060831795
 20
93.60382102219857
 30
0.0
 11
63.01908243716168
 21
91.14170862392078
 31
0.0
  0
LINE
  5
11A
330
1F
100
AcDbEntity
  8
VIEW0002
  6
Continuous
 62
     7
100
AcDbLine
 10
62.16134643554688
 20
47.82229614257812
 30
0.0
 11
64.67047119140625
 21
47.82229614257812
 31
0.0
  0
LINE
  5
11B
330
1F
100
AcDbEntity
  8
VIEW0002
  6
Continuous
 62
     7
100
AcDbLine
 10
33.59638362519742
 20
37.92866435459921
 30
0.0
 11
54.36770225684914
 21
39.74592542341084
 31
0.0
  0
LINE
  5
11C
330
1F
100
AcDbEntity
  8
VIEW0002
  6
Continuous
 62
     7
100
AcDbLine
 10
19.87688445294174
 20
31.709260320726
 30
0.0
 11
31.69607088173969
 21
32.74330865164669
 31
0.0
  0
LINE
  5
11D
330
1F
100
AcDbEntity
  8
VIEW0002
  6
Continuous
 62
     7
100
AcDbLine
 10
66.67047119140625
 20
40.82229614257812
 30
0.0
 11
66.67047119140625
 21
48.77102661132812
 31
0.0
  0
LINE
  5
11E
330
1F
100
AcDbEntity
  8
VIEW0002
  6
Continuous
 62
     7
100
AcDbLine
 10
11.67045593261719
 20
26.62539482116699
 30
0.0
 11
19.17047119140625
 21
26.62539482116699
 31
0.0
  0
LINE
  5
11F
330
1F
100
AcDbEntity
  8
VIEW0002
  6
Continuous
 62
     7
100
AcDbLine
 10
19.42047119140625
 20
26.87539482116699
 30
0.0
 11
19.42047119140625
 21
37.56900024414062
 31
0.0
  0
LINE
  5
120
330
1F
100
AcDbEntity
  8
VIEW0002
  6
Continuous
 62
     7
100
AcDbLine
 10
31.91580020822293
 20
32.92769828788838
 30
0.0
 11
33.15702254739976
 21
37.56000361575786
 31
0.0
  0
LINE
  5
121
330
1F
100
AcDbEntity
  8
VIEW0002
  6
Continuous
 62
     7
100
AcDbLine
 10
20.42047119140625
 20
26.16377067565918
 30
0.0
 11
20.42047119140625
 21
30.52395439147949
 31
0.0
  0
LINE
  5
122
330
1F
100
AcDbEntity
  8
VIEW0002
  6
Continuous
 62
     7
100
AcDbLine
 10
20.64866591396029
 20
30.77296281484353
 30
0.0
 11
32.30639024848065
 21
31.79288499502613
 31
0.0
  0
LINE
  5
123
330
1F
100
AcDbEntity
  8
VIEW0002
  6
Continuous
 62
     7
100
AcDbLine
 10
19.9379277211216
 20
25.66408116841552
 30
0.0
 11
11.67046039435789
 21
25.37537486112006
 31
0.0
  0
LINE
  5
124
330
1F
100
AcDbEntity
  8
VIEW0002
  6
Continuous
 62
     7
100
AcDbLine
 10
11.67047897472689
 20
25.37537290019167
 30
0.0
 11
10.41172906722694
 21
25.39734446038082
 31
0.0
  0
LINE
  5
125
330
1F
100
AcDbEntity
  8
VIEW0002
  6
Continuous
 62
     7
100
AcDbLine
 10
32.74580814333466
 20
32.16162671309727
 30
0.0
 11
33.9870304825115
 21
36.79393204096675
 31
0.0
  0
LINE
  5
126
330
1F
100
AcDbEntity
  8
VIEW0002
  6
Continuous
 62
     7
100
AcDbLine
 10
34.20668779121401
 20
36.97823936808307
 30
0.0
 11
54.45485829288479
 21
38.74973075097851
 31
0.0
  0
LINE
  5
127
330
1F
100
AcDbEntity
  8
VIEW0002
  6
Continuous
 62
     7
100
AcDbLine
 10
64.93194291215805
 20
46.78271114844711
 30
0.0
 11
62.79688711366067
 21
46.59591797062863
 31
0.0
  0
LINE
  5
128
330
1F
100
AcDbEntity
  8
VIEW0002
  6
Continuous
 62
     7
100
AcDbLine
 10
35.64866627999636
 20
94.54012034315664
 30
0.0
 11
63.10623784692746
 21
92.1379033511446
 31
0.0
  0
LINE
  5
129
330
1F
100
AcDbEntity
  8
VIEW0002
  6
Continuous
 62
     7
100
AcDbLine
 10
34.42047119140625
 20
91.19083404541016
 30
0.0
 11
34.42047119140625
 21
96.8753433227539
 31
0.0
  0
LINE
  5
12A
330
1F
100
AcDbEntity
  8
VIEW0002
  6
Continuous
 62
     7
100
AcDbLine
 10
29.17047119140625
 20
97.1253433227539
 30
0.0
 11
34.17047119140625
 21
97.1253433227539
 31
0.0
  0
LINE
  5
12B
330
1F
100
AcDbEntity
  8
VIEW0002
  6
Continuous
 62
     7
100
AcDbLine
 10
28.17047119140625
 20
94.0936050415039
 30
0.0
 11
28.17047119140625
 21
97.6165542602539
 31
0.0
  0
LINE
  5
12C
330
1F
100
AcDbEntity
  8
VIEW0002
  6
Continuous
 62
     7
100
AcDbLine
 10
29.17047119140625
 20
93.12535858154297
 30
0.0
 11
29.42047119140625
 21
93.12535858154297
 31
0.0
  0
LINE
  5
12D
330
1F
100
AcDbEntity
  8
VIEW0002
  6
Continuous
 62
     7
100
AcDbLine
 10
34.92920328787106
 20
98.02482669056457
 30
0.0
 11
29.18792086367688
 21
98.12504114269244
 31
0.0
  0
LINE
  5
12E
330
1F
100
AcDbEntity
  8
VIEW0002
  6
Continuous
 62
     7
100
AcDbLine
 10
29.15301597164926
 20
98.12505708621958
 30
0.0
 11
27.91174997312557
 21
98.1033907087805
 31
0.0
  0
LINE
  5
12F
330
1F
100
AcDbEntity
  8
VIEW0002
  6
Continuous
 62
     7
100
AcDbLine
 10
22.16935722042759
 20
34.67033100375981
 30
0.0
 11
28.14652525502154
 21
35.19326721997388
 31
0.0
  0
LINE
  5
130
330
1F
100
AcDbEntity
  8
VIEW0002
  6
Continuous
 62
     7
100
AcDbLine
 10
34.41440378476111
 20
38.90369447215219
 30
0.0
 11
40.88966915557122
 21
39.47020870638411
 31
0.0
  0
LINE
  5
131
330
1F
100
AcDbEntity
  8
VIEW0002
  6
Continuous
 62
     7
100
AcDbLine
 10
65.77047729492188
 20
53.32943725585938
 30
0.0
 11
65.77047729492188
 21
67.07229614257812
 31
0.0
  0
LINE
  5
132
330
1F
100
AcDbEntity
  8
VIEW0002
  6
Continuous
 62
     7
100
AcDbLine
 10
37.33060073638434
 20
92.48574983734675
 30
0.0
 11
47.04349932681666
 21
91.63598459213011
 31
0.0
  0
LINE
  5
133
330
1F
100
AcDbEntity
  8
VIEW0002
  6
Continuous
 62
     7
100
AcDbLine
 10
21.58410384817575
 20
35.62294765817429
 30
0.0
 11
28.55746655520203
 21
36.23303991042405
 31
0.0
  0
LINE
  5
134
330
1F
100
AcDbEntity
  8
VIEW0002
  6
Continuous
 62
     7
100
AcDbLine
 10
23.62007121105825
 20
35.29916239402948
 30
0.0
 11
26.60865522835522
 21
35.56063050213652
 31
0.0
  0
LINE
  5
135
330
1F
100
AcDbEntity
  8
VIEW0002
  6
Continuous
 62
     7
100
AcDbLine
 10
21.58410384817576
 20
35.62294765817428
 30
0.0
 11
21.6276818661936
 21
35.12485032195811
 31
0.0
  0
LINE
  5
136
330
1F
100
AcDbEntity
  8
VIEW0002
  6
Continuous
 62
     7
100
AcDbLine
 10
28.55746655520203
 20
36.23303991042404
 30
0.0
 11
28.60104457321987
 21
35.73494257420788
 31
0.0
  0
LINE
  5
137
330
1F
100
AcDbEntity
  8
VIEW0002
  6
Continuous
 62
     7
100
AcDbLine
 10
33.82915041250926
 20
39.85631112656666
 30
0.0
 11
33.8727284305271
 21
39.3582137903505
 31
0.0
  0
LINE
  5
138
330
1F
100
AcDbEntity
  8
VIEW0002
  6
Continuous
 62
     7
100
AcDbLine
 10
35.86511777539178
 20
39.53252586242188
 30
0.0
 11
39.35179912890492
 21
39.83757198854675
 31
0.0
  0
LINE
  5
139
330
1F
100
AcDbEntity
  8
VIEW0002
  6
Continuous
 62
     7
100
AcDbLine
 10
33.82915041250929
 20
39.85631112656667
 30
0.0
 11
41.30061045575173
 21
40.50998139683426
 31
0.0
  0
LINE
  5
13A
330
1F
100
AcDbEntity
  8
VIEW0002
  6
Continuous
 62
     7
100
AcDbLine
 10
60.77047729492188
 20
47.71548461914062
 30
0.0
 11
60.77047729492188
 21
48.01876831054688
 31
0.0
  0
LINE
  5
13B
330
1F
100
AcDbEntity
  8
VIEW0002
  6
Continuous
 62
     7
100
AcDbLine
 10
60.84369497427708
 20
48.19551604853353
 30
0.0
 11
65.62402424986149
 21
52.97584532411794
 31
0.0
  0
LINE
  5
13C
330
1F
100
AcDbEntity
  8
VIEW0002
  6
Continuous
 62
     7
100
AcDbLine
 10
60.34368364533199
 20
48.40261150077494
 30
0.0
 11
65.12403450010284
 21
53.18296235554578
 31
0.0
  0
LINE
  5
13D
330
1F
100
AcDbEntity
  8
VIEW0002
  6
Continuous
 62
     7
100
AcDbLine
 10
60.27047729492188
 20
47.71548461914062
 30
0.0
 11
60.27047729492188
 21
48.22586059570312
 31
0.0
  0
LINE
  5
13E
330
1F
100
AcDbEntity
  8
VIEW0002
  6
Continuous
 62
     7
100
AcDbLine
 10
59.77047729492188
 20
47.71548461914062
 30
0.0
 11
59.77047729492188
 21
48.32943725585938
 31
0.0
  0
LINE
  5
13F
330
1F
100
AcDbEntity
  8
VIEW0002
  6
Continuous
 62
     7
100
AcDbLine
 10
65.27047729492188
 20
53.53652954101562
 30
0.0
 11
65.27047729492188
 21
65.57229614257812
 31
0.0
  0
LINE
  5
140
330
1F
100
AcDbEntity
  8
VIEW0002
  6
Continuous
 62
     7
100
AcDbLine
 10
64.77047729492188
 20
53.64010620117188
 30
0.0
 11
64.77047729492188
 21
67.57229614257812
 31
0.0
  0
LINE
  5
141
330
1F
100
AcDbEntity
  8
VIEW0002
  6
Continuous
 62
     7
100
AcDbLine
 10
64.77047729492188
 20
67.57229614257812
 30
0.0
 11
65.27047729492188
 21
67.57229614257812
 31
0.0
  0
LINE
  5
142
330
1F
100
AcDbEntity
  8
VIEW0002
  6
Continuous
 62
     7
100
AcDbLine
 10
64.77047729492188
 20
72.57230377197266
 30
0.0
 11
65.27047729492188
 21
72.57230377197266
 31
0.0
  0
LINE
  5
143
330
1F
100
AcDbEntity
  8
VIEW0002
  6
Continuous
 62
     7
100
AcDbLine
 10
64.77047729492188
 20
72.57230377197266
 30
0.0
 11
64.77047729492188
 21
87.15702056884766
 31
0.0
  0
LINE
  5
144
330
1F
100
AcDbEntity
  8
VIEW0002
  6
Continuous
 62
     7
100
AcDbLine
 10
65.27047729492188
 20
74.57230377197266
 30
0.0
 11
65.27047729492188
 21
87.15702056884766
 31
0.0
  0
LINE
  5
145
330
1F
100
AcDbEntity
  8
VIEW0002
  6
Continuous
 62
     7
100
AcDbLine
 10
65.77047729492188
 20
73.07230377197266
 30
0.0
 11
65.77047729492188
 21
87.15702056884766
 31
0.0
  0
LINE
  5
146
330
1F
100
AcDbEntity
  8
VIEW0002
  6
Continuous
 62
     7
100
AcDbLine
 10
38.78131512233715
 20
91.85691935908612
 30
0.0
 11
45.50562953109798
 21
91.26862034316693
 31
0.0
  0
LINE
  5
147
330
1F
100
AcDbEntity
  8
VIEW0002
  6
Continuous
 62
     7
100
AcDbLine
 10
36.74534796300659
 20
91.53313281500581
 30
0.0
 11
47.45447168211314
 21
90.59620950025135
 31
0.0
  0
LINE
  5
148
330
1F
100
AcDbEntity
  8
VIEW0002
  6
Continuous
 62
     7
100
AcDbLine
 10
36.78892566788949
 20
92.03123017861775
 30
0.0
 11
36.74534796300659
 21
91.53313281500583
 31
0.0
  0
LINE
  5
149
330
1F
100
AcDbEntity
  8
VIEW0002
  6
Continuous
 62
     7
100
AcDbLine
 10
52.47902302311517
 20
90.65852981503424
 30
0.0
 11
52.43544531823226
 21
90.16043245142232
 31
0.0
  0
LINE
  5
14A
330
1F
100
AcDbEntity
  8
VIEW0002
  6
Continuous
 62
     7
100
AcDbLine
 10
47.49804938699604
 20
91.09430686386328
 30
0.0
 11
47.45447168211313
 21
90.59620950025136
 31
0.0
  0
LINE
  5
14B
330
1F
100
AcDbEntity
  8
VIEW0002
  6
Continuous
 62
     7
100
AcDbLine
 10
52.43544531823228
 20
90.16043245142231
 30
0.0
 11
62.85349035033308
 21
89.24897512393599
 31
0.0
  0
LINE
  5
14C
330
1F
100
AcDbEntity
  8
VIEW0002
  6
Continuous
 62
     7
100
AcDbLine
 10
54.47139727683763
 20
90.48422032538863
 30
0.0
 11
62.89706805521598
 21
89.74707248754792
 31
0.0
  0
LINE
  5
14D
330
1F
100
AcDbEntity
  8
VIEW0002
  6
Continuous
 62
     7
100
AcDbLine
 10
53.02068289088481
 20
91.11305080364926
 30
0.0
 11
62.94064576009892
 21
90.24516985115983
 31
0.0
  0
LINE
  5
14E
330
1F
100
AcDbEntity
  8
VIEW0002
  6
Continuous
 62
     7
100
AcDbLine
 10
28.17047032876952
 20
97.14277056777064
 30
0.0
 11
27.66609159338121
 21
97.15157453087458
 31
0.0
  0
LINE
  5
14F
330
1F
100
AcDbEntity
  8
VIEW0002
  6
Continuous
 62
     7
100
AcDbLine
 10
10.67047197481633
 20
26.60793932415773
 30
0.0
 11
10.16610849589309
 21
26.59913562735637
 31
0.0
  0
LINE
  5
150
330
1F
100
AcDbEntity
  8
VIEW0002
  6
Continuous
 62
     7
100
AcDbLine
 10
63.77047729492188
 20
57.46926879882812
 30
0.0
 11
63.77047729492188
 21
80.83426666259766
 31
0.0
  0
LINE
  5
151
330
1F
100
AcDbEntity
  8
VIEW0002
  6
Continuous
 62
     7
100
AcDbLine
 10
34.8768803690298
 20
90.69278211013331
 30
0.0
 11
56.46771684125321
 21
88.80383595482968
 31
0.0
  0
LINE
  5
152
330
1F
100
AcDbEntity
  8
VIEW0002
  6
Continuous
 62
     7
100
AcDbLine
 10
56.46771587938311
 20
49.49974124918148
 30
0.0
 11
27.51621788501831
 21
46.96681338997583
 31
0.0
  0
LINE
  5
153
330
1F
100
AcDbEntity
  8
VIEW0002
  6
Continuous
 62
     7
100
AcDbLine
 10
59.91691207515601
 20
48.68294671178551
 30
0.0
 11
64.69724135074043
 21
53.46327598736992
 31
0.0
  0
LINE
  5
154
330
1F
100
AcDbEntity
  8
VIEW0002
  6
Continuous
 62
     7
100
AcDbLine
 10
35.42047119140625
 20
94.78922271728516
 30
0.0
 11
35.42047119140625
 21
97.52494049072266
 31
0.0
  0
LINE
  5
155
330
1F
100
AcDbEntity
  8
VIEW0002
  6
Continuous
 62
     7
100
AcDbLine
 10
9.920455932617188
 20
25.89724540710449
 30
0.0
 11
9.920455932617188
 21
26.34914970397949
 31
0.0
  0
LINE
  5
156
330
1F
100
AcDbEntity
  8
VIEW0002
  6
Continuous
 62
     7
100
AcDbLine
 10
27.42047119140625
 20
97.4015884399414
 30
0.0
 11
27.42047119140625
 21
97.60343170166016
 31
0.0
  0
LINE
  5
157
330
1F
100
AcDbEntity
  8
VIEW0002
  6
Continuous
 62
     7
100
AcDbLine
 10
24.21138358885092
 20
38.4463429337406
 30
0.0
 11
19.87689692248189
 21
38.06712448933615
 31
0.0
  0
LINE
  5
158
330
1F
100
AcDbEntity
  8
VIEW0002
  6
Continuous
 62
     7
100
AcDbLine
 10
24.43109835521916
 20
38.63072714457439
 30
0.0
 11
26.41778414319191
 21
46.04513938181997
 31
0.0
  0
LINE
  5
159
330
1F
100
AcDbEntity
  8
VIEW0002
  6
Continuous
 62
     7
100
AcDbLine
 10
67.67047119140625
 20
49.77133178710938
 30
0.0
 11
67.67047119140625
 21
87.15702056884766
 31
0.0
  0
LINE
  5
15A
330
1F
100
AcDbEntity
  8
VIEW0002
  6
Continuous
 62
     7
100
AcDbLine
 10
56.75096302821105
 20
39.95443443015355
 30
0.0
 11
66.67047693045032
 21
40.82228238702838
 31
0.0
  0
LINE
  5
15B
330
1F
100
AcDbEntity
  8
VIEW0002
  6
Continuous
 62
     7
100
AcDbLine
 10
65.77328491210938
 20
47.82229614257812
 30
0.0
 11
66.67047119140625
 21
47.82229614257812
 31
0.0
  0
LINE
  5
15C
330
1F
100
AcDbEntity
  8
VIEW0002
  6
Continuous
 62
     7
100
AcDbLine
 10
66.67047119140625
 20
49.82229614257812
 30
0.0
 11
66.67047119140625
 21
87.15702056884766
 31
0.0
  0
LINE
  5
15D
330
1F
100
AcDbEntity
  8
VIEW0002
  6
Continuous
 62
     7
100
AcDbLine
 10
66.67047119140625
 20
88.66532135009766
 30
0.0
 11
66.67047119140625
 21
90.82230377197266
 31
0.0
  0
LINE
  5
15E
330
1F
100
AcDbEntity
  8
VIEW0002
  6
Continuous
 62
     7
100
AcDbLine
 10
64.4778656339118
 20
91.01408212299907
 30
0.0
 11
66.67044863934728
 21
90.82225670467267
 31
0.0
  0
LINE
  5
15F
330
1F
100
AcDbEntity
  8
VIEW0002
  6
Continuous
 62
     7
100
AcDbLine
 10
34.4204451339716
 20
93.6253464568881
 30
0.0
 11
30.92047372728798
 21
97.12531786357171
 31
0.0
  0
LINE
  5
160
330
1F
100
AcDbEntity
  8
VIEW0002
  6
Continuous
 62
     7
100
AcDbLine
 10
14.42045592867539
 20
26.62537129007313
 30
0.0
 11
19.4204397430079
 21
31.62535510440564
 31
0.0
  0
LINE
  5
161
330
1F
100
AcDbEntity
  8
VIEW0002
  6
Continuous
 62
     7
100
AcDbLine
 10
21.92046862674496
 20
38.24592022638053
 30
0.0
 11
25.82034162285965
 21
43.81551602400227
 31
0.0
  0
LINE
  5
162
330
1F
100
AcDbEntity
  8
VIEW0002
  6
Continuous
 62
     7
100
AcDbLine
 10
41.30061045575171
 20
40.50998139683426
 30
0.0
 11
41.34418847376955
 21
40.01188406061809
 31
0.0
  0
LINE
  5
163
330
1F
100
AcDbEntity
  8
VIEW0002
  6
Continuous
 62
     7
100
AcDbLine
 10
46.28158381791334
 20
40.94576157701265
 30
0.0
 11
46.32516183593118
 21
40.44766424079649
 31
0.0
  0
LINE
  5
164
330
1F
100
AcDbEntity
  8
VIEW0002
  6
Continuous
 62
     7
100
AcDbLine
 10
46.86683719016517
 20
39.99314492259818
 30
0.0
 11
54.28929009803282
 21
40.64252760955006
 31
0.0
  0
LINE
  5
165
330
1F
100
AcDbEntity
  8
VIEW0002
  6
Continuous
 62
     7
100
AcDbLine
 10
48.31755118079585
 20
40.62197631286787
 30
0.0
 11
54.24571208001501
 21
41.14062494576622
 31
0.0
  0
LINE
  5
166
330
1F
100
AcDbEntity
  8
VIEW0002
  6
Continuous
 62
     7
100
AcDbLine
 10
46.28158381791336
 20
40.94576157701266
 30
0.0
 11
54.20213406199717
 21
41.63872228198237
 31
0.0
  0
LINE
  5
167
330
1F
100
AcDbEntity
  8
VIEW0002
  6
Continuous
 62
     7
100
AcDbLine
 10
12.17047181410297
 20
28.1253728965985
 30
0.0
 11
13.17046582896713
 21
26.62538182057569
 31
0.0
  0
LINE
  5
168
330
1F
100
AcDbEntity
  8
VIEW0002
  6
Continuous
 62
     7
100
AcDbLine
 10
12.17045593261719
 20
28.12539482116699
 30
0.0
 11
12.17045593261719
 21
29.87539482116699
 31
0.0
  0
LINE
  5
169
330
1F
100
AcDbEntity
  8
VIEW0002
  6
Continuous
 62
     7
100
AcDbLine
 10
11.67045593261719
 20
29.87539482116699
 30
0.0
 11
12.17045593261719
 21
29.87539482116699
 31
0.0
  0
LINE
  5
16A
330
1F
100
AcDbEntity
  8
VIEW0002
  6
Continuous
 62
     7
100
AcDbLine
 10
11.67045593261719
 20
26.62539482116699
 30
0.0
 11
11.67045593261719
 21
32.12539672851562
 31
0.0
  0
LINE
  5
16B
330
1F
100
AcDbEntity
  8
VIEW0002
  6
Continuous
 62
     7
100
AcDbLine
 10
10.67045593261719
 20
25.88416862487793
 30
0.0
 11
10.67045593261719
 21
31.15714836120605
 31
0.0
  0
LINE
  5
16C
330
1F
100
AcDbEntity
  8
VIEW0002
  6
Continuous
 62
     7
100
AcDbLine
 10
11.67045593261719
 20
32.12539672851562
 30
0.0
 11
11.92045593261719
 21
32.12539672851562
 31
0.0
  0
LINE
  5
16D
330
1F
100
AcDbEntity
  8
VIEW0002
  6
DASHED
 62
     7
100
AcDbLine
 10
-20.24420166015625
 20
-90.794921875
 30
0.0
 11
-69.45892333984375
 21
-90.794921875
 31
0.0
  0
LINE
  5
16E
330
1F
100
AcDbEntity
  8
VIEW0002
  6
DASHED
 62
     7
100
AcDbLine
 10
-69.89468383789062
 20
-90.794921875
 30
0.0
 11
-71.7861328125
 21
-90.794921875
 31
0.0
  0
LINE
  5
16F
330
1F
100
AcDbEntity
  8
VIEW0002
  6
DASHED
 62
     7
100
AcDbLine
 10
-13.81690979003906
 20
-90.794921875
 30
0.0
 11
-15.53147888183594
 21
-90.794921875
 31
0.0
  0
LINE
  5
170
330
1F
100
AcDbEntity
  8
VIEW0002
  6
Continuous
 62
     7
100
AcDbLine
 10
-73.8956298828125
 20
-74.544921875
 30
0.0
 11
-73.8956298828125
 21
-90.794921875
 31
0.0
  0
LINE
  5
171
330
1F
100
AcDbEntity
  8
VIEW0002
  6
Continuous
 62
     7
100
AcDbLine
 10
68.67047119140625
 20
-8.239015102386475
 30
0.0
 11
68.67047119140625
 21
-89.56964063644409
 31
0.0
  0
LINE
  5
172
330
1F
100
AcDbEntity
  8
VIEW0002
  6
Continuous
 62
     7
100
AcDbLine
 10
8.670466423034668
 20
-3.794923305511475
 30
0.0
 11
68.17046356201172
 21
-3.794923305511475
 31
0.0
  0
LINE
  5
173
330
1F
100
AcDbEntity
  8
VIEW0002
  6
Continuous
 62
     7
100
AcDbLine
 10
8.670466423034668
 20
-107.2949213981628
 30
0.0
 11
67.42047119140625
 21
-107.2949213981628
 31
0.0
  0
LINE
  5
174
330
1F
100
AcDbEntity
  8
VIEW0002
  6
Continuous
 62
     7
100
AcDbLine
 10
67.92047119140625
 20
-93.29492139816284
 30
0.0
 11
67.92047119140625
 21
-102.8508296012878
 31
0.0
  0
LINE
  5
175
330
1F
100
AcDbEntity
  8
VIEW0002
  6
Continuous
 62
     7
100
AcDbLine
 10
67.92047119140625
 20
-93.29492139816284
 30
0.0
 11
68.32046508789062
 21
-93.29492139816284
 31
0.0
  0
LINE
  5
176
330
1F
100
AcDbEntity
  8
VIEW0002
  6
Continuous
 62
     7
100
AcDbLine
 10
8.670466423034668
 20
-3.794923305511475
 30
0.0
 11
8.670466423034668
 21
-107.2949213981628
 31
0.0
  0
LINE
  5
177
330
1F
100
AcDbEntity
  8
VIEW0002
  6
Continuous
 62
     7
100
AcDbLine
 10
63.49597930908203
 20
-89.89302015304565
 30
0.0
 11
63.49597930908203
 21
-7.865433216094971
 31
0.0
  0
LINE
  5
178
330
1F
100
AcDbEntity
  8
VIEW0002
  6
Continuous
 62
     7
100
AcDbLine
 10
8.670466423034668
 20
-93.29492139816284
 30
0.0
 11
67.92047119140625
 21
-93.29492139816284
 31
0.0
  0
LINE
  5
179
330
1F
100
AcDbEntity
  8
VIEW0002
  6
Continuous
 62
     7
100
AcDbLine
 10
20.82047653198242
 20
-102.8508219718933
 30
0.0
 11
20.82047653198242
 21
-93.29492139816284
 31
0.0
  0
LINE
  5
17A
330
1F
100
AcDbEntity
  8
VIEW0002
  6
Continuous
 62
     7
100
AcDbLine
 10
33.01665115356445
 20
-103.3528361320496
 30
0.0
 11
33.01665115356445
 21
-93.29492139816284
 31
0.0
  0
LINE
  5
17B
330
1F
100
AcDbEntity
  8
VIEW0002
  6
Continuous
 62
     7
100
AcDbLine
 10
34.393798828125
 20
-103.3528361320496
 30
0.0
 11
34.393798828125
 21
-93.29492139816284
 31
0.0
  0
LINE
  5
17C
330
1F
100
AcDbEntity
  8
VIEW0002
  6
Continuous
 62
     7
100
AcDbLine
 10
62.86220550537109
 20
-103.1071085929871
 30
0.0
 11
62.86220550537109
 21
-102.7915797233582
 31
0.0
  0
LINE
  5
17D
330
1F
100
AcDbEntity
  8
VIEW0002
  6
Continuous
 62
     7
100
AcDbLine
 10
21.57047653198242
 20
-89.56967115402222
 30
0.0
 11
21.57047653198242
 21
-8.239019870758057
 31
0.0
  0
LINE
  5
17E
330
1F
100
AcDbEntity
  8
VIEW0002
  6
Continuous
 62
     7
100
AcDbLine
 10
33.60519790649414
 20
-89.99168348312378
 30
0.0
 11
33.60519790649414
 21
-7.737008571624756
 31
0.0
  0
LINE
  5
17F
330
1F
100
AcDbEntity
  8
VIEW0002
  6
Continuous
 62
     7
100
AcDbLine
 10
34.98234558105469
 20
-89.99168348312378
 30
0.0
 11
34.98234558105469
 21
-7.737008571624756
 31
0.0
  0
LINE
  5
180
330
1F
100
AcDbEntity
  8
VIEW0002
  6
Continuous
 62
     7
100
AcDbLine
 10
62.86220550537109
 20
-103.1071085929871
 30
0.0
 11
62.86220550537109
 21
-93.29492139816284
 31
0.0
  0
ARC
  5
181
330
1F
100
AcDbEntity
  8
VIEW0002
  6
Continuous
 62
     7
100
AcDbCircle
 10
-56.69064331054688
 20
-97.294921875
 30
0.0
 40
1.0
100
AcDbArc
 50
269.9999974955218
 51
348.6900698996153
  0
ARC
  5
182
330
1F
100
AcDbEntity
  8
VIEW0002
  6
Continuous
 62
     7
100
AcDbCircle
 10
-42.05104064941406
 20
-97.294921875
 30
0.0
 40
1.0
100
AcDbArc
 50
191.3099276527494
 51
269.9999974955218
  0
ARC
  5
183
330
1F
100
AcDbEntity
  8
VIEW0002
  6
Continuous
 62
     7
100
AcDbCircle
 10
-72.62432861328125
 20
-90.8948974609375
 30
0.0
 40
0.1000000014901161
100
AcDbArc
 50
89.99998884409983
 51
180.0000050089563
  0
ARC
  5
184
330
1F
100
AcDbEntity
  8
VIEW0002
  6
Continuous
 62
     7
100
AcDbCircle
 10
-71.93612670898438
 20
-90.9449462890625
 30
0.0
 40
0.1500000059604645
100
AcDbArc
 50
0.000002504478676
 51
90.00000250447816
  0
ARC
  5
185
330
1F
100
AcDbEntity
  8
VIEW0002
  6
Continuous
 62
     7
100
AcDbCircle
 10
-70.96237182617188
 20
-98.044921875
 30
0.0
 40
0.25
100
AcDbArc
 50
194.1191571376189
 51
269.9999974955218
  0
ARC
  5
186
330
1F
100
AcDbEntity
  8
VIEW0002
  6
Continuous
 62
     7
100
AcDbCircle
 10
-11.33564758300781
 20
-90.9449462890625
 30
0.0
 40
0.1500000059604645
100
AcDbArc
 50
0.000002504478676
 51
90.00000250447816
  0
ARC
  5
187
330
1F
100
AcDbEntity
  8
VIEW0002
  6
Continuous
 62
     7
100
AcDbCircle
 10
-16.4669189453125
 20
-95.4853515625
 30
0.0
 40
2.5
100
AcDbArc
 50
345.8808472449348
 51
0.000002504478676
  0
ARC
  5
188
330
1F
100
AcDbEntity
  8
VIEW0002
  6
Continuous
 62
     7
100
AcDbCircle
 10
-14.79066467285156
 20
-98.044921875
 30
0.0
 40
0.25
100
AcDbArc
 50
269.9999974955218
 51
345.8808472449348
  0
ARC
  5
189
330
1F
100
AcDbEntity
  8
VIEW0002
  6
Continuous
 62
     7
100
AcDbCircle
 10
-13.81690979003906
 20
-90.9449462890625
 30
0.0
 40
0.1500000059604645
100
AcDbArc
 50
89.99998884409983
 51
180.0000050089563
  0
ARC
  5
18A
330
1F
100
AcDbEntity
  8
VIEW0002
  6
Continuous
 62
     7
100
AcDbCircle
 10
-18.05030822753906
 20
-90.9449462890625
 30
0.0
 40
0.1500000059604645
100
AcDbArc
 50
89.99998884409983
 51
180.0000050089563
  0
ARC
  5
18B
330
1F
100
AcDbEntity
  8
VIEW0002
  6
Continuous
 62
     7
100
AcDbCircle
 10
-20.7003173828125
 20
-95.4853515625
 30
0.0
 40
2.5
100
AcDbArc
 50
345.8821586412555
 51
0.000002504478676
  0
ARC
  5
18C
330
1F
100
AcDbEntity
  8
VIEW0002
  6
Continuous
 62
     7
100
AcDbCircle
 10
-19.02400207519531
 20
-98.044921875
 30
0.0
 40
0.25
100
AcDbArc
 50
269.9999974955218
 51
345.8821586412555
  0
ARC
  5
18D
330
1F
100
AcDbEntity
  8
VIEW0002
  6
Continuous
 62
     7
100
AcDbCircle
 10
-23.498291015625
 20
-89.56854248046875
 30
0.0
 40
20.0
100
AcDbArc
 50
349.2619889595771
 51
0.000002504478676
  0
ARC
  5
18E
330
1F
100
AcDbEntity
  8
VIEW0002
  6
Continuous
 62
     7
100
AcDbCircle
 10
-24.24874877929688
 20
-102.5178833007812
 30
0.0
 40
20.0
100
AcDbArc
 50
346.1812526250104
 51
0.000002504478676
  0
ARC
  5
18F
330
1F
100
AcDbEntity
  8
VIEW0002
  6
Continuous
 62
     7
100
AcDbCircle
 10
-23.498291015625
 20
-8.240056991577148
 30
0.0
 40
20.0
100
AcDbArc
 50
0.000002504478676
 51
12.84161197459116
  0
ARC
  5
190
330
1F
100
AcDbEntity
  8
VIEW0002
  6
Continuous
 62
     7
100
AcDbCircle
 10
-7.488525390625
 20
-29.84492301940918
 30
0.0
 40
1.0
100
AcDbArc
 50
0.000002504478676
 51
180.0000050089563
  0
ARC
  5
191
330
1F
100
AcDbEntity
  8
VIEW0002
  6
Continuous
 62
     7
100
AcDbCircle
 10
-7.488525390625
 20
-33.34492111206055
 30
0.0
 40
1.0
100
AcDbArc
 50
179.999991348578
 51
0.0
  0
ARC
  5
192
330
1F
100
AcDbEntity
  8
VIEW0002
  6
Continuous
 62
     7
100
AcDbCircle
 10
28.67047119140625
 20
93.12532043457031
 30
0.0
 40
1.0
100
AcDbArc
 50
262.8105540355447
 51
0.000000683245128
  0
ARC
  5
193
330
1F
100
AcDbEntity
  8
VIEW0002
  6
Continuous
 62
     7
100
AcDbCircle
 10
21.82046508789062
 20
29.57043266296387
 30
0.0
 40
0.25
100
AcDbArc
 50
95.00001516562932
 51
180.0000050089563
  0
ARC
  5
194
330
1F
100
AcDbEntity
  8
VIEW0002
  6
Continuous
 62
     7
100
AcDbCircle
 10
20.32046508789062
 20
25.85723686218262
 30
0.0
 40
0.25
100
AcDbArc
 50
271.9999998279066
 51
359.9999974955223
  0
ARC
  5
195
330
1F
100
AcDbEntity
  8
VIEW0002
  6
Continuous
 62
     7
100
AcDbCircle
 10
32.62429809570312
 20
32.02142333984375
 30
0.0
 40
0.25
100
AcDbArc
 50
275.0000238170513
 51
345.0000012901343
  0
ARC
  5
196
330
1F
100
AcDbEntity
  8
VIEW0002
  6
Continuous
 62
     7
100
AcDbCircle
 10
35.17849731445312
 20
35.75823974609375
 30
0.0
 40
0.25
100
AcDbArc
 50
95.00001516562932
 51
164.9999943462596
  0
ARC
  5
197
330
1F
100
AcDbEntity
  8
VIEW0002
  6
Continuous
 62
     7
100
AcDbCircle
 10
34.5899658203125
 20
36.4595947265625
 30
0.0
 40
0.5
100
AcDbArc
 50
95.00001516562932
 51
164.9999943462596
  0
ARC
  5
198
330
1F
100
AcDbEntity
  8
VIEW0002
  6
Continuous
 62
     7
100
AcDbCircle
 10
33.21282958984375
 20
31.32000541687012
 30
0.0
 40
0.5
100
AcDbArc
 50
275.0000238170513
 51
345.0000012901343
  0
ARC
  5
199
330
1F
100
AcDbEntity
  8
VIEW0002
  6
Continuous
 62
     7
100
AcDbCircle
 10
53.67047119140625
 20
47.71539306640625
 30
0.0
 40
9.050000190734863
100
AcDbArc
 50
274.9999964962947
 51
350.0683081590228
  0
ARC
  5
19A
330
1F
100
AcDbEntity
  8
VIEW0002
  6
Continuous
 62
     7
100
AcDbCircle
 10
53.67047119140625
 20
47.71539306640625
 30
0.0
 40
10.05000019073486
100
AcDbArc
 50
274.9999964962947
 51
346.8370481155272
  0
ARC
  5
19B
330
1F
100
AcDbEntity
  8
VIEW0002
  6
Continuous
 62
     7
100
AcDbCircle
 10
64.67047119140625
 20
49.72100830078125
 30
0.0
 40
3.0
100
AcDbArc
 50
274.9999964962947
 51
359.9999974955223
  0
ARC
  5
19C
330
1F
100
AcDbEntity
  8
VIEW0002
  6
Continuous
 62
     7
100
AcDbCircle
 10
64.67047119140625
 20
49.72100830078125
 30
0.0
 40
4.0
100
AcDbArc
 50
274.9999964962947
 51
359.9999974955223
  0
ARC
  5
19D
330
1F
100
AcDbEntity
  8
VIEW0002
  6
Continuous
 62
     7
100
AcDbCircle
 10
63.69985961914062
 20
45.36993408203125
 30
0.0
 40
0.25
100
AcDbArc
 50
95.00000150525099
 51
166.8370420254262
  0
ARC
  5
19E
330
1F
100
AcDbEntity
  8
VIEW0002
  6
Continuous
 62
     7
100
AcDbCircle
 10
63.07736206054688
 20
46.06829833984375
 30
0.0
 40
0.5
100
AcDbArc
 50
95.00000150525099
 51
170.0683088991108
  0
ARC
  5
19F
330
1F
100
AcDbEntity
  8
VIEW0002
  6
Continuous
 62
     7
100
AcDbCircle
 10
62.67047119140625
 20
87.20709228515625
 30
0.0
 40
5.0
100
AcDbArc
 50
359.9999974955223
 51
85.00001716408369
  0
ARC
  5
1A0
330
1F
100
AcDbEntity
  8
VIEW0002
  6
Continuous
 62
     7
100
AcDbCircle
 10
62.67047119140625
 20
87.20709228515625
 30
0.0
 40
6.0
100
AcDbArc
 50
359.9999974955223
 51
85.00001716408369
  0
ARC
  5
1A1
330
1F
100
AcDbEntity
  8
VIEW0002
  6
Continuous
 62
     7
100
AcDbCircle
 10
36.82046508789062
 20
95.74249267578125
 30
0.0
 40
0.25
100
AcDbArc
 50
180.000008651422
 51
265.0000189853166
  0
ARC
  5
1A2
330
1F
100
AcDbEntity
  8
VIEW0002
  6
Continuous
 62
     7
100
AcDbCircle
 10
35.32046508789062
 20
97.85137939453125
 30
0.0
 40
0.25
100
AcDbArc
 50
359.9999974955223
 51
89.00000133828577
  0
ARC
  5
1A3
330
1F
100
AcDbEntity
  8
VIEW0002
  6
Continuous
 62
     7
100
AcDbCircle
 10
8.920455932617188
 20
28.69000053405762
 30
0.0
 40
1.5
100
AcDbArc
 50
359.9999974955223
 51
90.00000250447816
  0
ARC
  5
1A4
330
1F
100
AcDbEntity
  8
VIEW0002
  6
Continuous
 62
     7
100
AcDbCircle
 10
27.17047119140625
 20
96.82391357421875
 30
0.0
 40
0.75
100
AcDbArc
 50
269.9999906653327
 51
0.000000683245128
  0
ARC
  5
1A5
330
1F
100
AcDbEntity
  8
VIEW0002
  6
Continuous
 62
     7
100
AcDbCircle
 10
-58.55978393554688
 20
-8.239351272583008
 30
0.0
 40
20.0
100
AcDbArc
 50
167.1604651430046
 51
179.999991348578
  0
ARC
  5
1A6
330
1F
100
AcDbEntity
  8
VIEW0002
  6
Continuous
 62
     7
100
AcDbCircle
 10
-58.55978393554688
 20
-88.85049438476562
 30
0.0
 40
20.0
100
AcDbArc
 50
179.999991348578
 51
192.8395312145297
  0
ARC
  5
1A7
330
1F
100
AcDbEntity
  8
VIEW0002
  6
Continuous
 62
     7
100
AcDbCircle
 10
-57.7703857421875
 20
-102.8504943847656
 30
0.0
 40
20.0
100
AcDbArc
 50
179.999991348578
 51
192.8395448749081
  0
ARC
  5
1A8
330
1F
100
AcDbEntity
  8
VIEW0002
  6
Continuous
 62
     7
100
AcDbCircle
 10
8.920455932617188
 20
24.45857048034668
 30
0.0
 40
0.25
100
AcDbArc
 50
180.000008651422
 51
271.9999929977174
  0
ARC
  5
1A9
330
1F
100
AcDbEntity
  8
VIEW0002
  6
Continuous
 62
     7
100
AcDbCircle
 10
26.42047119140625
 20
99.0068588256836
 30
0.0
 40
0.25
100
AcDbArc
 50
89.00000133828577
 51
180.0000050089563
  0
ARC
  5
1AA
330
1F
100
AcDbEntity
  8
VIEW0002
  6
Continuous
 62
     7
100
AcDbCircle
 10
36.32046508789062
 20
95.28436279296875
 30
0.0
 40
0.75
100
AcDbArc
 50
180.000008651422
 51
265.0000189853166
  0
ARC
  5
1AB
330
1F
100
AcDbEntity
  8
VIEW0002
  6
Continuous
 62
     7
100
AcDbCircle
 10
21.32046508789062
 20
30.02868461608887
 30
0.0
 40
0.75
100
AcDbArc
 50
95.00001516562932
 51
180.0000050089563
  0
ARC
  5
1AC
330
1F
100
AcDbEntity
  8
VIEW0002
  6
Continuous
 62
     7
100
AcDbCircle
 10
-20.07174682617188
 20
-98.044921875
 30
0.0
 40
0.25
100
AcDbArc
 50
269.9999974955218
 51
345.8807926034215
  0
ARC
  5
1AD
330
1F
100
AcDbEntity
  8
VIEW0002
  6
Continuous
 62
     7
100
AcDbCircle
 10
21.07046508789062
 20
25.13300895690918
 30
0.0
 40
0.5
100
AcDbArc
 50
271.9999998279066
 51
359.9999974955223
  0
ARC
  5
1AE
330
1F
100
AcDbEntity
  8
VIEW0002
  6
Continuous
 62
     7
100
AcDbCircle
 10
36.07046508789062
 20
98.58837890625
 30
0.0
 40
0.5
100
AcDbArc
 50
359.9999974955223
 51
89.00000133828577
  0
ARC
  5
1AF
330
1F
100
AcDbEntity
  8
VIEW0002
  6
Continuous
 62
     7
100
AcDbCircle
 10
-69.58969116210938
 20
-98.044921875
 30
0.0
 40
0.25
100
AcDbArc
 50
194.1189932130788
 51
269.9999974955218
  0
ARC
  5
1B0
330
1F
100
AcDbEntity
  8
VIEW0002
  6
Continuous
 62
     7
100
AcDbCircle
 10
11.17045593261719
 20
32.12530517578125
 30
0.0
 40
1.0
100
AcDbArc
 50
359.9999974955223
 51
97.15996686799748
  0
ARC
  5
1B1
330
1F
100
AcDbEntity
  8
VIEW0002
  6
Continuous
 62
     7
100
AcDbCircle
 10
-74.92385864257812
 20
-18.59493827819824
 30
0.0
 40
1.5
100
AcDbArc
 50
89.99998884409983
 51
107.4006675660835
  0
ARC
  5
1B2
330
1F
100
AcDbEntity
  8
VIEW0002
  6
Continuous
 62
     7
100
AcDbCircle
 10
-44.55099487304688
 20
-14.59493827819824
 30
0.0
 40
1.0
100
AcDbArc
 50
89.99998884409983
 51
168.6900586868723
  0
ARC
  5
1B3
330
1F
100
AcDbEntity
  8
VIEW0002
  6
Continuous
 62
     7
100
AcDbCircle
 10
-54.19059753417969
 20
-14.59493827819824
 30
0.0
 40
1.0
100
AcDbArc
 50
11.30993522302663
 51
90.00000250447816
  0
ARC
  5
1B4
330
1F
100
AcDbEntity
  8
VIEW0002
  6
Continuous
 62
     7
100
AcDbCircle
 10
-70.76748657226562
 20
-14.09493827819824
 30
0.0
 40
0.5
100
AcDbArc
 50
89.99998884409983
 51
165.8806925982193
  0
ARC
  5
1B5
330
1F
100
AcDbEntity
  8
VIEW0002
  6
Continuous
 62
     7
100
AcDbCircle
 10
-69.32943725585938
 20
-14.09493827819824
 30
0.0
 40
0.5
100
AcDbArc
 50
89.99998884409983
 51
165.8808565227594
  0
ARC
  5
1B6
330
1F
100
AcDbEntity
  8
VIEW0002
  6
Continuous
 62
     7
100
AcDbCircle
 10
-19.21891784667969
 20
-14.09493827819824
 30
0.0
 40
0.5
100
AcDbArc
 50
14.11915787770703
 51
90.00000250447816
  0
ARC
  5
1B7
330
1F
100
AcDbEntity
  8
VIEW0002
  6
Continuous
 62
     7
100
AcDbCircle
 10
-20.70027160644531
 20
-16.40453910827637
 30
0.0
 40
2.5
100
AcDbArc
 50
0.000002504478676
 51
14.11915787770703
  0
ARC
  5
1B8
330
1F
100
AcDbEntity
  8
VIEW0002
  6
Continuous
 62
     7
100
AcDbCircle
 10
-16.46699523925781
 20
-16.40450859069824
 30
0.0
 40
2.5
100
AcDbArc
 50
0.000002504478676
 51
14.11783965119722
  0
ARC
  5
1B9
330
1F
100
AcDbEntity
  8
VIEW0002
  6
Continuous
 62
     7
100
AcDbCircle
 10
-14.985595703125
 20
-14.09493827819824
 30
0.0
 40
0.5
100
AcDbArc
 50
14.11783965119722
 51
90.00000250447816
  0
ARC
  5
1BA
330
1F
100
AcDbEntity
  8
VIEW0002
  6
Continuous
 62
     7
100
AcDbCircle
 10
-66.0350341796875
 20
-75.54796600341797
 30
0.0
 40
5.0
100
AcDbArc
 50
179.999991348578
 51
191.3520116359493
  0
ARC
  5
1BB
330
1F
100
AcDbEntity
  8
VIEW0002
  6
Continuous
 62
     7
100
AcDbCircle
 10
-13.75936889648438
 20
-75.044921875
 30
0.0
 40
0.5
100
AcDbArc
 50
89.99998884409983
 51
180.0000050089563
  0
ARC
  5
1BC
330
1F
100
AcDbEntity
  8
VIEW0002
  6
Continuous
 62
     7
100
AcDbCircle
 10
-71.5350341796875
 20
-75.044921875
 30
0.0
 40
0.5
100
AcDbArc
 50
0.000002504478676
 51
90.00000250447816
  0
ARC
  5
1BD
330
1F
100
AcDbEntity
  8
VIEW0002
  6
Continuous
 62
     7
100
AcDbCircle
 10
-20.2667236328125
 20
-14.09493827819824
 30
0.0
 40
0.5
100
AcDbArc
 50
14.11885734938355
 51
90.00000250447816
  0
ARC
  5
1BE
330
1F
100
AcDbEntity
  8
VIEW0002
  6
Continuous
 62
     7
100
AcDbCircle
 10
62.67047119140625
 20
87.15702056884766
 30
0.0
 40
4.0
100
AcDbArc
 50
0.000017986090666
 51
85.00002399427287
  0
ARC
  5
1BF
330
1F
100
AcDbEntity
  8
VIEW0002
  6
Continuous
 62
     7
100
AcDbCircle
 10
64.67047119140625
 20
49.82229614257812
 30
0.0
 40
2.0
100
AcDbArc
 50
269.9999770049544
 51
0.000028004002928
  0
ARC
  5
1C0
330
1F
100
AcDbEntity
  8
VIEW0002
  6
Continuous
 62
     7
100
AcDbCircle
 10
53.67047119140625
 20
47.71548461914062
 30
0.0
 40
8.0
100
AcDbArc
 50
274.9999964962947
 51
357.3486955877985
  0
ARC
  5
1C1
330
1F
100
AcDbEntity
  8
VIEW0002
  6
Continuous
 62
     7
100
AcDbCircle
 10
19.17047119140625
 20
26.87539482116699
 30
0.0
 40
0.25
100
AcDbArc
 50
269.9999906653327
 51
0.000000683245128
  0
ARC
  5
1C2
330
1F
100
AcDbEntity
  8
VIEW0002
  6
Continuous
 62
     7
100
AcDbCircle
 10
20.67047119140625
 20
30.52395439147949
 30
0.0
 40
0.25
100
AcDbArc
 50
95.00001516562932
 51
180.0000050089563
  0
ARC
  5
1C3
330
1F
100
AcDbEntity
  8
VIEW0002
  6
Continuous
 62
     7
100
AcDbCircle
 10
19.92047119140625
 20
31.21121025085449
 30
0.0
 40
0.5
100
AcDbArc
 50
95.00001516562932
 51
180.0000050089563
  0
ARC
  5
1C4
330
1F
100
AcDbEntity
  8
VIEW0002
  6
Continuous
 62
     7
100
AcDbCircle
 10
31.67428588867188
 20
32.99234008789062
 30
0.0
 40
0.25
100
AcDbArc
 50
275.0000238170513
 51
345.0000012901343
  0
ARC
  5
1C5
330
1F
100
AcDbEntity
  8
VIEW0002
  6
Continuous
 62
     7
100
AcDbCircle
 10
32.2628173828125
 20
32.29104614257812
 30
0.0
 40
0.5
100
AcDbArc
 50
275.0000238170513
 51
345.0000012901343
  0
ARC
  5
1C6
330
1F
100
AcDbEntity
  8
VIEW0002
  6
Continuous
 62
     7
100
AcDbCircle
 10
34.22848510742188
 20
36.72921752929688
 30
0.0
 40
0.25
100
AcDbArc
 50
95.00001516562932
 51
164.9999943462596
  0
ARC
  5
1C7
330
1F
100
AcDbEntity
  8
VIEW0002
  6
Continuous
 62
     7
100
AcDbCircle
 10
33.63995361328125
 20
37.43057250976562
 30
0.0
 40
0.5
100
AcDbArc
 50
95.00001516562932
 51
164.9999943462596
  0
ARC
  5
1C8
330
1F
100
AcDbEntity
  8
VIEW0002
  6
Continuous
 62
     7
100
AcDbCircle
 10
53.67047119140625
 20
47.71548461914062
 30
0.0
 40
9.0
100
AcDbArc
 50
274.9999964962947
 51
351.4913302612707
  0
ARC
  5
1C9
330
1F
100
AcDbEntity
  8
VIEW0002
  6
Continuous
 62
     7
100
AcDbCircle
 10
64.67047119140625
 20
49.77133178710938
 30
0.0
 40
3.0
100
AcDbArc
 50
274.9999964962947
 51
359.9999974955223
  0
ARC
  5
1CA
330
1F
100
AcDbEntity
  8
VIEW0002
  6
Continuous
 62
     7
100
AcDbCircle
 10
62.16134643554688
 20
47.32229614257812
 30
0.0
 40
0.5
100
AcDbArc
 50
90.00000250447816
 51
177.3486894976975
  0
ARC
  5
1CB
330
1F
100
AcDbEntity
  8
VIEW0002
  6
Continuous
 62
     7
100
AcDbCircle
 10
62.81863403320312
 20
46.34689331054688
 30
0.0
 40
0.25
100
AcDbArc
 50
95.00000150525099
 51
171.4913241711697
  0
ARC
  5
1CC
330
1F
100
AcDbEntity
  8
VIEW0002
  6
Continuous
 62
     7
100
AcDbCircle
 10
62.67047119140625
 20
87.15702056884766
 30
0.0
 40
5.0
100
AcDbArc
 50
359.9999974955223
 51
85.00001716408369
  0
ARC
  5
1CD
330
1F
100
AcDbEntity
  8
VIEW0002
  6
Continuous
 62
     7
100
AcDbCircle
 10
28.42047119140625
 20
93.12535858154297
 30
0.0
 40
1.0
100
AcDbArc
 50
104.4775105258582
 51
0.0
  0
ARC
  5
1CE
330
1F
100
AcDbEntity
  8
VIEW0002
  6
Continuous
 62
     7
100
AcDbCircle
 10
34.17047119140625
 20
96.8753433227539
 30
0.0
 40
0.25
100
AcDbArc
 50
359.9999974955223
 51
90.00000250447816
  0
ARC
  5
1CF
330
1F
100
AcDbEntity
  8
VIEW0002
  6
Continuous
 62
     7
100
AcDbCircle
 10
34.92047119140625
 20
97.52494049072266
 30
0.0
 40
0.5
100
AcDbArc
 50
359.9999974955223
 51
89.00000133828577
  0
ARC
  5
1D0
330
1F
100
AcDbEntity
  8
VIEW0002
  6
Continuous
 62
     7
100
AcDbCircle
 10
35.67047119140625
 20
94.78922271728516
 30
0.0
 40
0.25
100
AcDbArc
 50
180.000008651422
 51
265.0000189853166
  0
ARC
  5
1D1
330
1F
100
AcDbEntity
  8
VIEW0002
  6
Continuous
 62
     7
100
AcDbCircle
 10
34.92047119140625
 20
94.10196685791016
 30
0.0
 40
0.5
100
AcDbArc
 50
180.000008651422
 51
265.0000189853166
  0
ARC
  5
1D2
330
1F
100
AcDbEntity
  8
VIEW0002
  6
Continuous
 62
     7
100
AcDbCircle
 10
53.67047119140625
 20
47.71548461914062
 30
0.0
 40
7.099999904632568
100
AcDbArc
 50
274.9999964962947
 51
359.9999974955223
  0
ARC
  5
1D3
330
1F
100
AcDbEntity
  8
VIEW0002
  6
Continuous
 62
     7
100
AcDbCircle
 10
62.67047119140625
 20
87.15702056884766
 30
0.0
 40
3.099999904632568
100
AcDbArc
 50
0.000017986090666
 51
85.00002399427287
  0
ARC
  5
1D4
330
1F
100
AcDbEntity
  8
VIEW0002
  6
Continuous
 62
     7
100
AcDbCircle
 10
22.12579345703125
 20
35.16848754882812
 30
0.0
 40
0.5
100
AcDbArc
 50
185.0000213125732
 51
275.0000169868621
  0
ARC
  5
1D5
330
1F
100
AcDbEntity
  8
VIEW0002
  6
Continuous
 62
     7
100
AcDbCircle
 10
23.57650756835938
 20
35.79727172851562
 30
0.0
 40
0.5
100
AcDbArc
 50
185.0000213125732
 51
275.0000169868621
  0
ARC
  5
1D6
330
1F
100
AcDbEntity
  8
VIEW0002
  6
Continuous
 62
     7
100
AcDbCircle
 10
26.56509399414062
 20
36.05874633789062
 30
0.0
 40
0.5
100
AcDbArc
 50
275.0000238170513
 51
5.000016930019386
  0
ARC
  5
1D7
330
1F
100
AcDbEntity
  8
VIEW0002
  6
Continuous
 62
     7
100
AcDbCircle
 10
28.10296630859375
 20
35.69137573242188
 30
0.0
 40
0.5
100
AcDbArc
 50
275.0000238170513
 51
5.000016930019386
  0
ARC
  5
1D8
330
1F
100
AcDbEntity
  8
VIEW0002
  6
Continuous
 62
     7
100
AcDbCircle
 10
35.82156372070312
 20
40.03060913085938
 30
0.0
 40
0.5
100
AcDbArc
 50
185.0000213125732
 51
275.0000169868621
  0
ARC
  5
1D9
330
1F
100
AcDbEntity
  8
VIEW0002
  6
Continuous
 62
     7
100
AcDbCircle
 10
34.37081909179688
 20
39.40176391601562
 30
0.0
 40
0.5
100
AcDbArc
 50
185.0000213125732
 51
275.0000169868621
  0
ARC
  5
1DA
330
1F
100
AcDbEntity
  8
VIEW0002
  6
Continuous
 62
     7
100
AcDbCircle
 10
53.67047119140625
 20
47.71548461914062
 30
0.0
 40
6.599999904632568
100
AcDbArc
 50
274.9999964962947
 51
359.9999974955223
  0
ARC
  5
1DB
330
1F
100
AcDbEntity
  8
VIEW0002
  6
Continuous
 62
     7
100
AcDbCircle
 10
53.67047119140625
 20
47.71548461914062
 30
0.0
 40
6.099999904632568
100
AcDbArc
 50
274.9999964962947
 51
359.9999974955223
  0
ARC
  5
1DC
330
1F
100
AcDbEntity
  8
VIEW0002
  6
Continuous
 62
     7
100
AcDbCircle
 10
61.02047729492188
 20
48.01876831054688
 30
0.0
 40
0.25
100
AcDbArc
 50
135.0000003416227
 51
180.0000050089563
  0
ARC
  5
1DD
330
1F
100
AcDbEntity
  8
VIEW0002
  6
Continuous
 62
     7
100
AcDbCircle
 10
60.52047729492188
 20
48.22586059570312
 30
0.0
 40
0.25
100
AcDbArc
 50
135.0000003416227
 51
180.0000050089563
  0
ARC
  5
1DE
330
1F
100
AcDbEntity
  8
VIEW0002
  6
Continuous
 62
     7
100
AcDbCircle
 10
60.27047729492188
 20
48.32943725585938
 30
0.0
 40
0.5
100
AcDbArc
 50
135.0000003416227
 51
180.0000050089563
  0
ARC
  5
1DF
330
1F
100
AcDbEntity
  8
VIEW0002
  6
Continuous
 62
     7
100
AcDbCircle
 10
64.52047729492188
 20
53.64010620117188
 30
0.0
 40
0.25
100
AcDbArc
 50
314.9999987477609
 51
359.9999974955223
  0
ARC
  5
1E0
330
1F
100
AcDbEntity
  8
VIEW0002
  6
Continuous
 62
     7
100
AcDbCircle
 10
64.77047729492188
 20
53.53652954101562
 30
0.0
 40
0.5
100
AcDbArc
 50
314.9999987477609
 51
359.9999974955223
  0
ARC
  5
1E1
330
1F
100
AcDbEntity
  8
VIEW0002
  6
Continuous
 62
     7
100
AcDbCircle
 10
65.27047729492188
 20
53.32943725585938
 30
0.0
 40
0.5
100
AcDbArc
 50
314.9999987477609
 51
359.9999974955223
  0
ARC
  5
1E2
330
1F
100
AcDbEntity
  8
VIEW0002
  6
Continuous
 62
     7
100
AcDbCircle
 10
65.27047729492188
 20
67.07229614257812
 30
0.0
 40
0.5
100
AcDbArc
 50
359.9999974955223
 51
90.00000250447816
  0
ARC
  5
1E3
330
1F
100
AcDbEntity
  8
VIEW0002
  6
Continuous
 62
     7
100
AcDbCircle
 10
64.77047729492188
 20
65.57229614257812
 30
0.0
 40
0.5
100
AcDbArc
 50
359.9999974955223
 51
90.00000250447816
  0
ARC
  5
1E4
330
1F
100
AcDbEntity
  8
VIEW0002
  6
Continuous
 62
     7
100
AcDbCircle
 10
65.27047729492188
 20
73.07230377197266
 30
0.0
 40
0.5
100
AcDbArc
 50
269.9999906653327
 51
0.000000683245128
  0
ARC
  5
1E5
330
1F
100
AcDbEntity
  8
VIEW0002
  6
Continuous
 62
     7
100
AcDbCircle
 10
64.77047729492188
 20
74.57230377197266
 30
0.0
 40
0.5
100
AcDbArc
 50
269.9999906653327
 51
0.000000683245128
  0
ARC
  5
1E6
330
1F
100
AcDbEntity
  8
VIEW0002
  6
Continuous
 62
     7
100
AcDbCircle
 10
62.67047119140625
 20
87.15702056884766
 30
0.0
 40
2.599999904632568
100
AcDbArc
 50
0.000017986090666
 51
85.00002399427287
  0
ARC
  5
1E7
330
1F
100
AcDbEntity
  8
VIEW0002
  6
Continuous
 62
     7
100
AcDbCircle
 10
62.67047119140625
 20
87.15702056884766
 30
0.0
 40
2.099999904632568
100
AcDbArc
 50
0.000017986090666
 51
85.00002399427287
  0
ARC
  5
1E8
330
1F
100
AcDbEntity
  8
VIEW0002
  6
Continuous
 62
     7
100
AcDbCircle
 10
52.97709655761719
 20
90.6149673461914
 30
0.0
 40
0.5
100
AcDbArc
 50
85.00001716408369
 51
175.0000196685619
  0
ARC
  5
1E9
330
1F
100
AcDbEntity
  8
VIEW0002
  6
Continuous
 62
     7
100
AcDbCircle
 10
54.42779541015625
 20
89.98612213134766
 30
0.0
 40
0.5
100
AcDbArc
 50
85.00001716408369
 51
175.0000196685619
  0
ARC
  5
1EA
330
1F
100
AcDbEntity
  8
VIEW0002
  6
Continuous
 62
     7
100
AcDbCircle
 10
45.46205139160156
 20
90.7704849243164
 30
0.0
 40
0.5
100
AcDbArc
 50
355.0000189284738
 51
85.00001716408369
  0
ARC
  5
1EB
330
1F
100
AcDbEntity
  8
VIEW0002
  6
Continuous
 62
     7
100
AcDbCircle
 10
38.73776245117188
 20
91.35880279541016
 30
0.0
 40
0.5
100
AcDbArc
 50
85.00001716408369
 51
175.0000196685619
  0
ARC
  5
1EC
330
1F
100
AcDbEntity
  8
VIEW0002
  6
Continuous
 62
     7
100
AcDbCircle
 10
37.28701782226562
 20
91.9876480102539
 30
0.0
 40
0.5
100
AcDbArc
 50
85.00001716408369
 51
175.0000196685619
  0
ARC
  5
1ED
330
1F
100
AcDbEntity
  8
VIEW0002
  6
Continuous
 62
     7
100
AcDbCircle
 10
46.99992370605469
 20
91.1379165649414
 30
0.0
 40
0.5
100
AcDbArc
 50
355.0000189284738
 51
85.00001716408369
  0
ARC
  5
1EE
330
1F
100
AcDbEntity
  8
VIEW0002
  6
Continuous
 62
     7
100
AcDbCircle
 10
55.77047729492188
 20
80.83426666259766
 30
0.0
 40
8.0
100
AcDbArc
 50
359.9999974955223
 51
85.00001716408369
  0
ARC
  5
1EF
330
1F
100
AcDbEntity
  8
VIEW0002
  6
Continuous
 62
     7
100
AcDbCircle
 10
55.77047729492188
 20
57.46926879882812
 30
0.0
 40
8.0
100
AcDbArc
 50
274.9999964962947
 51
359.9999974955223
  0
ARC
  5
1F0
330
1F
100
AcDbEntity
  8
VIEW0002
  6
Continuous
 62
     7
100
AcDbCircle
 10
34.92047119140625
 20
91.19083404541016
 30
0.0
 40
0.5
100
AcDbArc
 50
180.000008651422
 51
265.0000189853166
  0
ARC
  5
1F1
330
1F
100
AcDbEntity
  8
VIEW0002
  6
Continuous
 62
     7
100
AcDbCircle
 10
10.42045593261719
 20
25.89724540710449
 30
0.0
 40
0.5
100
AcDbArc
 50
180.000008651422
 51
268.9999963293295
  0
ARC
  5
1F2
330
1F
100
AcDbEntity
  8
VIEW0002
  6
Continuous
 62
     7
100
AcDbCircle
 10
10.17045593261719
 20
26.34914970397949
 30
0.0
 40
0.25
100
AcDbArc
 50
90.99999684048139
 51
180.0000050089563
  0
ARC
  5
1F3
330
1F
100
AcDbEntity
  8
VIEW0002
  6
Continuous
 62
     7
100
AcDbCircle
 10
27.92047119140625
 20
97.60343170166016
 30
0.0
 40
0.5
100
AcDbArc
 50
90.99999684048139
 51
180.0000050089563
  0
ARC
  5
1F4
330
1F
100
AcDbEntity
  8
VIEW0002
  6
Continuous
 62
     7
100
AcDbCircle
 10
27.67047119140625
 20
97.4015884399414
 30
0.0
 40
0.25
100
AcDbArc
 50
180.000008651422
 51
268.9999963293295
  0
ARC
  5
1F5
330
1F
100
AcDbEntity
  8
VIEW0002
  6
Continuous
 62
     7
100
AcDbCircle
 10
19.92047119140625
 20
37.56900024414062
 30
0.0
 40
0.5
100
AcDbArc
 50
95.00000150525099
 51
180.0000050089563
  0
ARC
  5
1F6
330
1F
100
AcDbEntity
  8
VIEW0002
  6
Continuous
 62
     7
100
AcDbCircle
 10
24.18960571289062
 20
38.69540405273438
 30
0.0
 40
0.25
100
AcDbArc
 50
274.9999964962947
 51
345.0000012901343
  0
ARC
  5
1F7
330
1F
100
AcDbEntity
  8
VIEW0002
  6
Continuous
 62
     7
100
AcDbCircle
 10
27.62515258789062
 20
45.72158813476562
 30
0.0
 40
1.25
100
AcDbArc
 50
95.00000150525099
 51
164.9999943462596
  0
ARC
  5
1F8
330
1F
100
AcDbEntity
  8
VIEW0002
  6
Continuous
 62
     7
100
AcDbCircle
 10
39.3082275390625
 20
40.33567810058594
 30
0.0
 40
0.5
100
AcDbArc
 50
275.0000238170513
 51
5.000016930019386
  0
ARC
  5
1F9
330
1F
100
AcDbEntity
  8
VIEW0002
  6
Continuous
 62
     7
100
AcDbCircle
 10
40.84609985351562
 20
39.96830749511719
 30
0.0
 40
0.5
100
AcDbArc
 50
275.0000238170513
 51
5.000016930019386
  0
ARC
  5
1FA
330
1F
100
AcDbEntity
  8
VIEW0002
  6
Continuous
 62
     7
100
AcDbCircle
 10
48.27398681640625
 20
41.12007141113281
 30
0.0
 40
0.5
100
AcDbArc
 50
185.0000213125732
 51
275.0000169868621
  0
ARC
  5
1FB
330
1F
100
AcDbEntity
  8
VIEW0002
  6
Continuous
 62
     7
100
AcDbCircle
 10
46.82327270507812
 20
40.49124145507812
 30
0.0
 40
0.5
100
AcDbArc
 50
185.0000213125732
 51
275.0000169868621
  0
ARC
  5
1FC
330
1F
100
AcDbEntity
  8
VIEW0002
  6
Continuous
 62
     7
100
AcDbCircle
 10
19.92047119140625
 20
26.16377067565918
 30
0.0
 40
0.5
100
AcDbArc
 50
271.9999998279066
 51
359.9999974955223
  0
ARC
  5
1FD
330
1F
100
AcDbEntity
  8
VIEW0002
  6
Continuous
 62
     7
100
AcDbCircle
 10
11.17045593261719
 20
25.88418388366699
 30
0.0
 40
0.5
100
AcDbArc
 50
180.000008651422
 51
268.9999963293295
  0
ARC
  5
1FE
330
1F
100
AcDbEntity
  8
VIEW0002
  6
Continuous
 62
     7
100
AcDbCircle
 10
28.67047119140625
 20
97.6165542602539
 30
0.0
 40
0.5
100
AcDbArc
 50
90.99999684048139
 51
180.0000050089563
  0
ARC
  5
1FF
330
1F
100
AcDbEntity
  8
VIEW0002
  6
Continuous
 62
     7
100
AcDbCircle
 10
10.92045593261719
 20
32.12539672851562
 30
0.0
 40
1.0
100
AcDbArc
 50
359.9999974955223
 51
255.5224858316762
  0
CIRCLE
  5
200
330
1F
100
AcDbEntity
  8
VIEW0002
  6
Continuous
 62
     7
100
AcDbCircle
 10
-7.488525390625
 20
-22.84492301940918
 30
0.0
 40
1.0
  0
ARC
  5
201
330
1F
100
AcDbEntity
  8
VIEW0002
  6
Continuous
 62
     7
100
AcDbCircle
 10
13.60519599914551
 20
-89.99168348312378
 30
0.0
 40
20.0
100
AcDbArc
 50
350.4933542461672
 51
359.9999999999972
  0
ARC
  5
202
330
1F
100
AcDbEntity
  8
VIEW0002
  6
Continuous
 62
     7
100
AcDbCircle
 10
14.98234367370605
 20
-89.99168348312378
 30
0.0
 40
20.0
100
AcDbArc
 50
350.4933542461672
 51
359.9999999999972
  0
ARC
  5
203
330
1F
100
AcDbEntity
  8
VIEW0002
  6
Continuous
 62
     7
100
AcDbCircle
 10
43.4959831237793
 20
-89.89302015304565
 30
0.0
 40
20.0
100
AcDbArc
 50
350.2066553482086
 51
359.9999999999972
  0
ARC
  5
204
330
1F
100
AcDbEntity
  8
VIEW0002
  6
Continuous
 62
     7
100
AcDbCircle
 10
48.67046737670898
 20
-8.239015102386475
 30
0.0
 40
20.0
100
AcDbArc
 50
0.000002504475216
 51
12.83856571022134
  0
ARC
  5
205
330
1F
100
AcDbEntity
  8
VIEW0002
  6
Continuous
 62
     7
100
AcDbCircle
 10
47.92046737670898
 20
-102.8508296012878
 30
0.0
 40
20.0
100
AcDbArc
 50
347.1614462426097
 51
0.000002504475216
  0
ARC
  5
206
330
1F
100
AcDbEntity
  8
VIEW0002
  6
Continuous
 62
     7
100
AcDbCircle
 10
48.67046737670898
 20
-89.56964063644409
 30
0.0
 40
20.0
100
AcDbArc
 50
349.2652469598112
 51
0.000002504475216
  0
ARC
  5
207
330
1F
100
AcDbEntity
  8
VIEW0002
  6
Continuous
 62
     7
100
AcDbCircle
 10
42.86220550537109
 20
-103.1071085929871
 30
0.0
 40
20.0
100
AcDbArc
 50
347.9133570089007
 51
359.9999999999972
  0
ARC
  5
208
330
1F
100
AcDbEntity
  8
VIEW0002
  6
Continuous
 62
     7
100
AcDbCircle
 10
0.820475578308105
 20
-102.8508219718933
 30
0.0
 40
20.0
100
AcDbArc
 50
347.1614317284577
 51
359.9999999999972
  0
ARC
  5
209
330
1F
100
AcDbEntity
  8
VIEW0002
  6
Continuous
 62
     7
100
AcDbCircle
 10
13.01664924621582
 20
-103.3528361320496
 30
0.0
 40
20.0
100
AcDbArc
 50
348.6323240652774
 51
359.9999999999972
  0
ARC
  5
20A
330
1F
100
AcDbEntity
  8
VIEW0002
  6
Continuous
 62
     7
100
AcDbCircle
 10
14.39379692077637
 20
-103.3528361320496
 30
0.0
 40
20.0
100
AcDbArc
 50
348.6323240652774
 51
359.9999999999972
  0
ARC
  5
20B
330
1F
100
AcDbEntity
  8
VIEW0002
  6
Continuous
 62
     7
100
AcDbCircle
 10
1.570475578308105
 20
-8.239019870758057
 30
0.0
 40
20.0
100
AcDbArc
 50
359.9999999999972
 51
12.83856827154228
  0
ARC
  5
20C
330
1F
100
AcDbEntity
  8
VIEW0002
  6
Continuous
 62
     7
100
AcDbCircle
 10
13.60519599914551
 20
-7.737008571624756
 30
0.0
 40
20.0
100
AcDbArc
 50
359.9999999999972
 51
11.36767593472263
  0
ARC
  5
20D
330
1F
100
AcDbEntity
  8
VIEW0002
  6
Continuous
 62
     7
100
AcDbCircle
 10
14.98234367370605
 20
-7.737008571624756
 30
0.0
 40
20.0
100
AcDbArc
 50
359.9999999999972
 51
11.36767593472263
  0
ARC
  5
20E
330
1F
100
AcDbEntity
  8
VIEW0002
  6
Continuous
 62
     7
100
AcDbCircle
 10
43.4959831237793
 20
-7.865433216094971
 30
0.0
 40
20.0
100
AcDbArc
 50
359.9999999999972
 51
11.74319802774264
  0
ARC
  5
20F
330
1F
100
AcDbEntity
  8
VIEW0002
  6
Continuous
 62
     7
100
AcDbCircle
 10
1.570475578308105
 20
-89.56967115402222
 30
0.0
 40
20.0
100
AcDbArc
 50
349.2652469598112
 51
359.9999999999972
  0
DIMENSION
  5
210
330
1F
100
AcDbEntity
  8
VIEW0002
 62
     7
100
AcDbDimension
  2
*D2
 10
78.67047119140625
 20
90.82230377197266
 30
0.0
 11
78.67047119140625
 21
69.32329614257813
 31
0.0
 70
   160
  1
86
 71
     5
 42
43.00000762939453
  3
ISO-25
100
AcDbAlignedDimension
 13
66.67047119140625
 23
47.82229614257812
 33
0.0
 14
66.67047119140625
 24
90.82230377197266
 34
0.0
 50
270.0
100
AcDbRotatedDimension
1001
ACAD
1000
DSTYLE
1002
{
1070
   178
1070
     1
1070
   278
1070
    46
1070
   147
1040
0.800000011920929
1070
    77
1070
     1
1070
    74
1070
     0
1070
    73
1070
     0
1070
    42
1040
2.54
1070
    44
1040
0.5
1070
    76
1070
     0
1070
    75
1070
     0
1070
   279
1070
     0
1070
   271
1070
     0
1070
   173
1070
     1
1070
    41
1040
3.0
1070
   140
1040
3.200000047683716
1070
   344
1005
211
1070
   343
1005
211
1002
}
  0
DIMENSION
  5
224
330
1F
100
AcDbEntity
  8
VIEW0002
 62
     7
100
AcDbDimension
  2
*D3
 10
66.67047119140625
 20
109.2568588256836
 30
0.0
 11
47.92147119140625
 21
109.2568588256836
 31
0.0
 70
   160
  1
75
 71
     5
 42
37.5
  3
ISO-25
100
AcDbAlignedDimension
 13
29.17047119140625
 23
97.1253433227539
 33
0.0
 14
66.67047119140625
 24
90.82230377197266
 34
0.0
 50
180.0
100
AcDbRotatedDimension
1001
ACAD
1000
DSTYLE
1002
{
1070
   178
1070
     1
1070
   278
1070
    46
1070
   147
1040
0.800000011920929
1070
    77
1070
     1
1070
    74
1070
     0
1070
    73
1070
     0
1070
    42
1040
2.54
1070
    44
1040
0.5
1070
    76
1070
     0
1070
    75
1070
     0
1070
   279
1070
     0
1070
   271
1070
     0
1070
   173
1070
     1
1070
    41
1040
3.0
1070
   140
1040
3.200000047683716
1070
   344
1005
211
1070
   343
1005
211
1002
}
  0
DIMENSION
  5
232
330
1F
100
AcDbEntity
  8
VIEW0002
 62
     7
100
AcDbDimension
  2
*D5
 10
66.67047119140625
 20
14.20957048034668
 30
0.0
 11
39.17145593261719
 21
14.20957048034668
 31
0.0
 70
   160
  1
110
 71
     5
 42
55.00001525878906
  3
ISO-25
100
AcDbAlignedDimension
 13
11.67045593261719
 23
26.62539482116699
 33
0.0
 14
66.67047119140625
 24
40.82229614257812
 34
0.0
 50
180.0
100
AcDbRotatedDimension
1001
ACAD
1000
DSTYLE
1002
{
1070
   178
1070
     1
1070
   278
1070
    46
1070
   147
1040
0.800000011920929
1070
    77
1070
     1
1070
    74
1070
     0
1070
    73
1070
     0
1070
    42
1040
2.54
1070
    44
1040
0.5
1070
    76
1070
     0
1070
    75
1070
     0
1070
   279
1070
     0
1070
   271
1070
     0
1070
   173
1070
     1
1070
    41
1040
3.114
1070
   140
1040
3.200000047683716
1070
   344
1005
211
1070
   343
1005
233
1002
}
  0
DIMENSION
  5
246
330
1F
100
AcDbEntity
  8
VIEW0002
 62
     7
100
AcDbDimension
  2
*D6
 10
-39.36980383300781
 20
-4.594937801361075
 30
0.0
 11
-39.36980383300781
 21
-12.84393827819824
 31
0.0
 70
   160
  1
33
 71
     5
 42
16.50000047683716
  3
ISO-25
100
AcDbAlignedDimension
 13
-10.96784973144531
 23
-21.09493827819824
 33
0.0
 14
-9.488540649414062
 24
-4.594937801361084
 34
0.0
 50
270.0
100
AcDbRotatedDimension
1001
ACAD
1000
DSTYLE
1002
{
1070
   178
1070
     1
1070
   278
1070
    46
1070
   147
1040
0.800000011920929
1070
    77
1070
     1
1070
    74
1070
     0
1070
    73
1070
     0
1070
    42
1040
2.54
1070
    44
1040
0.5
1070
    76
1070
     1
1070
    75
1070
     1
1070
   279
1070
     0
1070
   271
1070
     0
1070
   173
1070
     1
1070
    41
1040
3.0
1070
   140
1040
3.200000047683716
1070
   344
1005
211
1070
   343
1005
211
1002
}
  0
DIMENSION
  5
251
330
1F
100
AcDbEntity
  8
VIEW0002
 62
     7
100
AcDbDimension
  2
*D7
 10
-49.36980383300781
 20
-13.59493827819824
 30
0.0
 11
-49.36980383300781
 21
-4.399738230586053
 31
0.0
 70
   160
  1
15
 71
     5
 42
7.499999999999999
  3
ISO-25
100
AcDbAlignedDimension
 13
-51.87080383300781
 23
-21.09493827819824
 33
0.0
 14
-53.37080383300781
 24
-13.59493827819824
 34
0.0
 50
270.0
100
AcDbRotatedDimension
1001
ACAD
1000
DSTYLE
1002
{
1070
   178
1070
     1
1070
   278
1070
    46
1070
   147
1040
0.800000011920929
1070
    77
1070
     1
1070
    74
1070
     0
1070
    73
1070
     0
1070
    42
1040
2.54
1070
    44
1040
1.0
1070
    76
1070
     0
1070
    75
1070
     1
1070
   279
1070
     0
1070
   271
1070
     0
1070
   173
1070
     1
1070
    41
1040
3.0
1070
   140
1040
3.200000047683716
1070
   344
1005
211
1070
   343
1005
211
1002
}
  0
DIMENSION
  5
267
330
1F
100
AcDbEntity
  8
VIEW0002
 62
     7
100
AcDbDimension
  2
*D8
 10
-49.37080383300781
 20
-90.794921875
 30
0.0
 11
-49.37080383300781
 21
-107.4901219226122
 31
0.0
 70
   160
  1
15
 71
     5
 42
7.5
  3
ISO-25
100
AcDbAlignedDimension
 13
-55.870849609375
 23
-98.294921875
 33
0.0
 14
-69.45892333984375
 24
-90.794921875
 34
0.0
 50
270.0
100
AcDbRotatedDimension
1001
ACAD
1000
DSTYLE
1002
{
1070
   178
1070
     1
1070
   278
1070
    46
1070
   147
1040
0.800000011920929
1070
    77
1070
     1
1070
    74
1070
     0
1070
    73
1070
     0
1070
    42
1040
2.54
1070
    44
1040
1.0
1070
    76
1070
     1
1070
    75
1070
     0
1070
   279
1070
     0
1070
   271
1070
     0
1070
   173
1070
     1
1070
    41
1040
3.0
1070
   140
1040
3.200000047683716
1070
   344
1005
211
1070
   343
1005
211
1002
}
  0
DIMENSION
  5
27D
330
1F
100
AcDbEntity
  8
VIEW0002
 62
     7
100
AcDbDimension
  2
*D9
 10
-39.36880383300781
 20
-107.294921875
 30
0.0
 11
-39.36880383300782
 21
-99.043921875
 31
0.0
 70
   160
  1
33
 71
     5
 42
16.50000000000001
  3
ISO-25
100
AcDbAlignedDimension
 13
-20.24420166015625
 23
-90.794921875
 33
0.0
 14
-4.827621459960938
 24
-107.294921875
 34
0.0
 50
90.00000000000001
100
AcDbRotatedDimension
1001
ACAD
1000
DSTYLE
1002
{
1070
   178
1070
     1
1070
   278
1070
    46
1070
   147
1040
0.800000011920929
1070
    77
1070
     1
1070
    74
1070
     0
1070
    73
1070
     0
1070
    42
1040
2.54
1070
    44
1040
0.5
1070
    76
1070
     1
1070
    75
1070
     1
1070
   279
1070
     0
1070
   271
1070
     0
1070
   173
1070
     1
1070
    41
1040
3.0
1070
   140
1040
3.200000047683716
1070
   344
1005
211
1070
   343
1005
211
1002
}
  0
DIMENSION
  5
288
330
1F
100
AcDbEntity
  8
VIEW0002
 62
     7
100
AcDbDimension
  2
*D10
 10
78.67047119140625
 20
-3.794923305511475
 30
0.0
 11
78.67047119140625
 21
-55.54392139816284
 31
0.0
 70
   160
  1
207
 71
     5
 42
103.4999980926514
  3
ISO-25
100
AcDbAlignedDimension
 13
67.42047119140625
 23
-107.2949213981628
 33
0.0
 14
68.17046356201172
 24
-3.794923305511475
 34
0.0
 50
270.0
100
AcDbRotatedDimension
1001
ACAD
1000
DSTYLE
1002
{
1070
   178
1070
     1
1070
   278
1070
    46
1070
   147
1040
0.800000011920929
1070
    77
1070
     1
1070
    74
1070
     0
1070
    73
1070
     0
1070
    42
1040
2.54
1070
    44
1040
1.0
1070
    76
1070
     0
1070
    75
1070
     0
1070
   279
1070
     0
1070
   271
1070
     0
1070
   173
1070
     1
1070
    41
1040
3.0
1070
   140
1040
3.200000047683716
1070
   344
1005
211
1070
   343
1005
211
1002
}
  0
ENDSEC
  0
SECTION
  2
OBJECTS
  0
DICTIONARY
  5
C
330
0
100
AcDbDictionary
281
     1
  3
ACAD_GROUP
350
D
  3
ACAD_LAYOUT
350
1A
  3
ACAD_MATERIAL
350
3B
  3
ACAD_MLEADERSTYLE
350
2BD
  3
ACAD_MLINESTYLE
350
17
  3
ACAD_PLOTSETTINGS
350
19
  3
ACAD_PLOTSTYLENAME
350
E
  3
ACAD_TABLESTYLE
350
2BC
  3
ACAD_VISUALSTYLE
350
2A
  0
DICTIONARY
  5
D
102
{ACAD_REACTORS
330
C
102
}
330
C
100
AcDbDictionary
281
     1
  0
DICTIONARY
  5
1A
102
{ACAD_REACTORS
330
C
102
}
330
C
100
AcDbDictionary
281
     1
  3
Layout1
350
1E
  3
Layout2
350
26
  3
Model
350
22
  0
DICTIONARY
  5
3B
102
{ACAD_REACTORS
330
C
102
}
330
C
100
AcDbDictionary
281
     1
  3
ByBlock
350
3D
  3
ByLayer
350
3C
  3
Global
350
3E
  0
DICTIONARY
  5
2BD
102
{ACAD_REACTORS
330
C
102
}
330
C
100
AcDbDictionary
281
     1
  0
DICTIONARY
  5
17
102
{ACAD_REACTORS
330
C
102
}
330
C
100
AcDbDictionary
281
     1
  3
Standard
350
18
  0
DICTIONARY
  5
19
102
{ACAD_REACTORS
330
C
102
}
330
C
100
AcDbDictionary
281
     1
  0
ACDBDICTIONARYWDFLT
  5
E
102
{ACAD_REACTORS
330
C
102
}
330
C
100
AcDbDictionary
281
     1
  3
Normal
350
F
100
AcDbDictionaryWithDefault
340
F
  0
DICTIONARY
  5
2BC
102
{ACAD_REACTORS
330
C
102
}
330
C
100
AcDbDictionary
281
     1
  0
DICTIONARY
  5
2A
102
{ACAD_REACTORS
330
C
102
}
330
C
100
AcDbDictionary
281
     1
  3
2dWireframe
350
2F
  3
3D Hidden
350
31
  3
3dWireframe
350
30
  3
Basic
350
32
  3
Brighten
350
36
  3
ColorChange
350
3A
  3
Conceptual
350
34
  3
Dim
350
35
  3
Facepattern
350
39
  3
Flat
350
2B
  3
FlatWithEdges
350
2C
  3
Gouraud
350
2D
  3
GouraudWithEdges
350
2E
  3
Linepattern
350
38
  3
Realistic
350
33
  3
Thicken
350
37
  0
LAYOUT
  5
1E
102
{ACAD_REACTORS
330
1A
102
}
330
1A
100
AcDbPlotSettings
  1

  2
none_device
  4

  6

 40
0.0
 41
0.0
 42
0.0
 43
0.0
 44
0.0
 45
0.0
 46
0.0
 47
0.0
 48
0.0
 49
0.0
140
0.0
141
0.0
142
1.0
143
1.0
 70
   688
 72
     0
 73
     0
 74
     5
  7

 75
    16
 76
     0
 77
     2
 78
   300
147
1.0
148
0.0
149
0.0
100
AcDbLayout
  1
Layout1
 70
     1
 71
     1
 10
-105.0
 20
-148.5
 11
105.0
 21
148.5
 12
0.0
 22
0.0
 32
0.0
 14
1.000000000000000E+20
 24
1.000000000000000E+20
 34
1.000000000000000E+20
 15
-1.000000000000000E+20
 25
-1.000000000000000E+20
 35
-1.000000000000000E+20
146
0.0
 13
0.0
 23
0.0
 33
0.0
 16
1.0
 26
0.0
 36
0.0
 17
0.0
 27
1.0
 37
0.0
 76
     0
330
1B
  0
LAYOUT
  5
26
102
{ACAD_REACTORS
330
1A
102
}
330
1A
100
AcDbPlotSettings
  1

  2
none_device
  4

  6

 40
0.0
 41
0.0
 42
0.0
 43
0.0
 44
0.0
 45
0.0
 46
0.0
 47
0.0
 48
0.0
 49
0.0
140
0.0
141
0.0
142
1.0
143
1.0
 70
   688
 72
     0
 73
     0
 74
     5
  7

 75
    16
 76
     0
 77
     2
 78
   300
147
1.0
148
0.0
149
0.0
100
AcDbLayout
  1
Layout2
 70
     1
 71
     2
 10
0.0
 20
0.0
 11
0.0
 21
0.0
 12
0.0
 22
0.0
 32
0.0
 14
0.0
 24
0.0
 34
0.0
 15
0.0
 25
0.0
 35
0.0
146
0.0
 13
0.0
 23
0.0
 33
0.0
 16
1.0
 26
0.0
 36
0.0
 17
0.0
 27
1.0
 37
0.0
 76
     0
330
23
  0
LAYOUT
  5
22
102
{ACAD_REACTORS
330
1A
102
}
330
1A
100
AcDbPlotSettings
  1

  2
none_device
  4

  6

 40
0.0
 41
0.0
 42
0.0
 43
0.0
 44
0.0
 45
0.0
 46
0.0
 47
0.0
 48
0.0
 49
0.0
140
0.0
141
0.0
142
1.0
143
1.0
 70
  1712
 72
     0
 73
     0
 74
     0
  7

 75
     0
 76
     0
 77
     2
 78
   300
147
1.0
148
0.0
149
0.0
100
AcDbLayout
  1
Model
 70
     1
 71
     0
 10
-105.0
 20
-148.5
 11
105.0
 21
148.5
 12
0.0
 22
0.0
 32
0.0
 14
-105.0
 24
-148.5
 34
0.0
 15
105.0
 25
148.5
 35
0.0
146
0.0
 13
0.0
 23
0.0
 33
0.0
 16
1.0
 26
0.0
 36
0.0
 17
0.0
 27
1.0
 37
0.0
 76
     0
330
1F
331
29
  0
MATERIAL
  5
3D
102
{ACAD_REACTORS
330
3B
102
}
102
{ACAD_XDICTIONARY
360
2B8
102
}
330
3B
100
AcDbMaterial
  1
ByBlock
  0
MATERIAL
  5
3C
102
{ACAD_REACTORS
330
3B
102
}
102
{ACAD_XDICTIONARY
360
2B6
102
}
330
3B
100
AcDbMaterial
  1
ByLayer
  0
MATERIAL
  5
3E
102
{ACAD_REACTORS
330
3B
102
}
102
{ACAD_XDICTIONARY
360
2BA
102
}
330
3B
100
AcDbMaterial
  1
Global
  0
MLINESTYLE
  5
18
102
{ACAD_REACTORS
330
17
102
}
330
17
100
AcDbMlineStyle
  2
Standard
 70
     0
  3

 62
   256
 51
90.0
 52
90.0
 71
     2
 49
0.5
 62
   256
  6
BYLAYER
 49
-0.5
 62
   256
  6
BYLAYER
  0
ACDBPLACEHOLDER
  5
F
102
{ACAD_REACTORS
330
E
102
}
330
E
  0
VISUALSTYLE
  5
2F
102
{ACAD_REACTORS
330
2A
102
}
102
{ACAD_XDICTIONARY
360
29E
102
}
330
2A
100
AcDbVisualStyle
  2
2dWireframe
 70
     4
 71
     0
 72
     2
 73
     0
 90
        0
 40
-0.6
 41
-30.0
 62
     5
 63
     7
421
 16777215
 74
     1
 91
        4
 64
     7
 65
   257
 75
     1
175
     1
 42
1.0
 92
        0
 66
   257
 43
1.0
 76
     1
 77
     6
 78
     2
 67
     7
 79
     5
170
     0
171
     0
290
     0
174
     0
 93
        1
 44
0.0
173
     0
291
     0
 45
0.0
1001
ACAD
1000
AcDbSavedByObjectVersion
1070
     0
  0
VISUALSTYLE
  5
31
102
{ACAD_REACTORS
330
2A
102
}
102
{ACAD_XDICTIONARY
360
2A2
102
}
330
2A
100
AcDbVisualStyle
  2
3D Hidden
 70
     6
 71
     1
 72
     2
 73
     2
 90
        0
 40
-0.6
 41
-30.0
 62
     5
 63
     7
421
 16777215
 74
     2
 91
        2
 64
     7
 65
   257
 75
     2
175
     1
 42
40.0
 92
        0
 66
   257
 43
1.0
 76
     1
 77
     6
 78
     2
 67
     7
 79
     3
170
     0
171
     0
290
     0
174
     0
 93
        1
 44
0.0
173
     0
291
     0
 45
0.0
1001
ACAD
1000
AcDbSavedByObjectVersion
1070
     0
  0
VISUALSTYLE
  5
30
102
{ACAD_REACTORS
330
2A
102
}
102
{ACAD_XDICTIONARY
360
2A0
102
}
330
2A
100
AcDbVisualStyle
  2
3dWireframe
 70
     5
 71
     0
 72
     2
 73
     0
 90
        0
 40
-0.6
 41
-30.0
 62
     5
 63
     7
421
 16777215
 74
     1
 91
        4
 64
     7
 65
   257
 75
     1
175
     1
 42
1.0
 92
        0
 66
   257
 43
1.0
 76
     1
 77
     6
 78
     2
 67
     7
 79
     5
170
     0
171
     0
290
     0
174
     0
 93
        1
 44
0.0
173
     0
291
     0
 45
0.0
1001
ACAD
1000
AcDbSavedByObjectVersion
1070
     0
  0
VISUALSTYLE
  5
32
102
{ACAD_REACTORS
330
2A
102
}
102
{ACAD_XDICTIONARY
360
2A4
102
}
330
2A
100
AcDbVisualStyle
  2
Basic
 70
     7
 71
     1
 72
     0
 73
     1
 90
        0
 40
-0.6
 41
-30.0
 62
     5
 63
     7
421
 16777215
 74
     0
 91
        4
 64
     7
 65
   257
 75
     1
175
     1
 42
1.0
 92
        8
 66
     7
 43
1.0
 76
     1
 77
     6
 78
     2
 67
     7
 79
     5
170
     0
171
     0
290
     0
174
     0
 93
        1
 44
0.0
173
     0
291
     1
 45
0.0
1001
ACAD
1000
AcDbSavedByObjectVersion
1070
     0
  0
VISUALSTYLE
  5
36
102
{ACAD_REACTORS
330
2A
102
}
102
{ACAD_XDICTIONARY
360
2AC
102
}
330
2A
100
AcDbVisualStyle
  2
Brighten
 70
    12
 71
     2
 72
     2
 73
     0
 90
        0
 40
-0.6
 41
-30.0
 62
     5
 63
     7
421
 16777215
 74
     1
 91
        4
 64
     7
 65
   257
 75
     1
175
     1
 42
1.0
 92
        8
 66
     7
 43
1.0
 76
     1
 77
     6
 78
     2
 67
     7
 79
     5
170
     0
171
     0
290
     0
174
     0
 93
        1
 44
50.0
173
     0
291
     1
 45
0.0
1001
ACAD
1000
AcDbSavedByObjectVersion
1070
     0
  0
VISUALSTYLE
  5
3A
102
{ACAD_REACTORS
330
2A
102
}
102
{ACAD_XDICTIONARY
360
2B4
102
}
330
2A
100
AcDbVisualStyle
  2
ColorChange
 70
    16
 71
     2
 72
     2
 73
     3
 90
        0
 40
-0.6
 41
-30.0
 62
     5
 63
     8
421
  8421504
 74
     1
 91
        4
 64
     7
 65
   257
 75
     1
175
     1
 42
1.0
 92
        8
 66
     8
424
  8421504
 43
1.0
 76
     1
 77
     6
 78
     2
 67
     7
 79
     5
170
     0
171
     0
290
     0
174
     0
 93
        1
 44
0.0
173
     0
291
     1
 45
0.0
1001
ACAD
1000
AcDbSavedByObjectVersion
1070
     0
  0
VISUALSTYLE
  5
34
102
{ACAD_REACTORS
330
2A
102
}
102
{ACAD_XDICTIONARY
360
2A8
102
}
330
2A
100
AcDbVisualStyle
  2
Conceptual
 70
     9
 71
     3
 72
     2
 73
     0
 90
        0
 40
-0.6
 41
-30.0
 62
     5
 63
     7
421
 16777215
 74
     2
 91
        2
 64
     7
 65
   257
 75
     1
175
     1
 42
40.0
 92
        8
 66
     7
 43
1.0
 76
     1
 77
     6
 78
     2
 67
     7
 79
     3
170
     0
171
     0
290
     0
174
     0
 93
        1
 44
0.0
173
     0
291
     0
 45
0.0
1001
ACAD
1000
AcDbSavedByObjectVersion
1070
     0
  0
VISUALSTYLE
  5
35
102
{ACAD_REACTORS
330
2A
102
}
102
{ACAD_XDICTIONARY
360
2AA
102
}
330
2A
100
AcDbVisualStyle
  2
Dim
 70
    11
 71
     2
 72
     2
 73
     0
 90
        0
 40
-0.6
 41
-30.0
 62
     5
 63
     7
421
 16777215
 74
     1
 91
        4
 64
     7
 65
   257
 75
     1
175
     1
 42
1.0
 92
        8
 66
     7
 43
1.0
 76
     1
 77
     6
 78
     2
 67
     7
 79
     5
170
     0
171
     0
290
     0
174
     0
 93
        1
 44
-50.0
173
     0
291
     1
 45
0.0
1001
ACAD
1000
AcDbSavedByObjectVersion
1070
     0
  0
VISUALSTYLE
  5
39
102
{ACAD_REACTORS
330
2A
102
}
102
{ACAD_XDICTIONARY
360
2B2
102
}
330
2A
100
AcDbVisualStyle
  2
Facepattern
 70
    15
 71
     2
 72
     2
 73
     0
 90
        0
 40
-0.6
 41
-30.0
 62
     5
 63
     7
421
 16777215
 74
     1
 91
        4
 64
     7
 65
   257
 75
     1
175
     1
 42
1.0
 92
        8
 66
     7
 43
1.0
 76
     1
 77
     6
 78
     2
 67
     7
 79
     5
170
     0
171
     0
290
     0
174
     0
 93
        1
 44
0.0
173
     0
291
     1
 45
0.0
1001
ACAD
1000
AcDbSavedByObjectVersion
1070
     0
  0
VISUALSTYLE
  5
2B
102
{ACAD_REACTORS
330
2A
102
}
102
{ACAD_XDICTIONARY
360
296
102
}
330
2A
100
AcDbVisualStyle
  2
Flat
 70
     0
 71
     2
 72
     1
 73
     1
 90
        2
 40
-0.6
 41
30.0
 62
     5
 63
     7
421
 16777215
 74
     0
 91
        4
 64
     7
 65
   257
 75
     1
175
     1
 42
1.0
 92
        8
 66
     7
 43
1.0
 76
     1
 77
     6
 78
     2
 67
     7
 79
     5
170
     0
171
     0
290
     0
174
     0
 93
       13
 44
0.0
173
     0
291
     1
 45
0.0
1001
ACAD
1000
AcDbSavedByObjectVersion
1070
     0
  0
VISUALSTYLE
  5
2C
102
{ACAD_REACTORS
330
2A
102
}
102
{ACAD_XDICTIONARY
360
298
102
}
330
2A
100
AcDbVisualStyle
  2
FlatWithEdges
 70
     1
 71
     2
 72
     1
 73
     1
 90
        2
 40
-0.6
 41
30.0
 62
     5
 63
     7
421
 16777215
 74
     1
 91
        4
 64
     7
 65
   257
 75
     1
175
     1
 42
1.0
 92
        0
 66
   257
 43
1.0
 76
     1
 77
     6
 78
     2
 67
     7
 79
     5
170
     0
171
     0
290
     0
174
     0
 93
       13
 44
0.0
173
     0
291
     1
 45
0.0
1001
ACAD
1000
AcDbSavedByObjectVersion
1070
     0
  0
VISUALSTYLE
  5
2D
102
{ACAD_REACTORS
330
2A
102
}
102
{ACAD_XDICTIONARY
360
29A
102
}
330
2A
100
AcDbVisualStyle
  2
Gouraud
 70
     2
 71
     2
 72
     2
 73
     1
 90
        2
 40
-0.6
 41
30.0
 62
     5
 63
     7
421
 16777215
 74
     0
 91
        4
 64
     7
 65
   257
 75
     1
175
     1
 42
1.0
 92
        0
 66
     7
 43
1.0
 76
     1
 77
     6
 78
     2
 67
     7
 79
     5
170
     0
171
     0
290
     0
174
     0
 93
       13
 44
0.0
173
     0
291
     1
 45
0.0
1001
ACAD
1000
AcDbSavedByObjectVersion
1070
     0
  0
VISUALSTYLE
  5
2E
102
{ACAD_REACTORS
330
2A
102
}
102
{ACAD_XDICTIONARY
360
29C
102
}
330
2A
100
AcDbVisualStyle
  2
GouraudWithEdges
 70
     3
 71
     2
 72
     2
 73
     1
 90
        2
 40
-0.6
 41
30.0
 62
     5
 63
     7
421
 16777215
 74
     1
 91
        4
 64
     7
 65
   257
 75
     1
175
     1
 42
1.0
 92
        0
 66
   257
 43
1.0
 76
     1
 77
     6
 78
     2
 67
     7
 79
     5
170
     0
171
     0
290
     0
174
     0
 93
       13
 44
0.0
173
     0
291
     1
 45
0.0
1001
ACAD
1000
AcDbSavedByObjectVersion
1070
     0
  0
VISUALSTYLE
  5
38
102
{ACAD_REACTORS
330
2A
102
}
102
{ACAD_XDICTIONARY
360
2B0
102
}
330
2A
100
AcDbVisualStyle
  2
Linepattern
 70
    14
 71
     2
 72
     2
 73
     0
 90
        0
 40
-0.6
 41
-30.0
 62
     5
 63
     7
421
 16777215
 74
     1
 91
        4
 64
     7
 65
   257
 75
     7
175
     7
 42
1.0
 92
        8
 66
     7
 43
1.0
 76
     1
 77
     6
 78
     2
 67
     7
 79
     5
170
     0
171
     0
290
     0
174
     0
 93
        1
 44
0.0
173
     0
291
     1
 45
0.0
1001
ACAD
1000
AcDbSavedByObjectVersion
1070
     0
  0
VISUALSTYLE
  5
33
102
{ACAD_REACTORS
330
2A
102
}
102
{ACAD_XDICTIONARY
360
2A6
102
}
330
2A
100
AcDbVisualStyle
  2
Realistic
 70
     8
 71
     2
 72
     2
 73
     0
 90
        0
 40
-0.6
 41
-30.0
 62
     5
 63
     7
421
 16777215
 74
     1
 91
        0
 64
     7
 65
   257
 75
     1
175
     1
 42
1.0
 92
        8
 66
     8
424
  7895160
 43
1.0
 76
     1
 77
     6
 78
     2
 67
     7
 79
     5
170
     0
171
     0
290
     0
174
     0
 93
       13
 44
0.0
173
     0
291
     0
 45
0.0
1001
ACAD
1000
AcDbSavedByObjectVersion
1070
     0
  0
VISUALSTYLE
  5
37
102
{ACAD_REACTORS
330
2A
102
}
102
{ACAD_XDICTIONARY
360
2AE
102
}
330
2A
100
AcDbVisualStyle
  2
Thicken
 70
    13
 71
     2
 72
     2
 73
     0
 90
        0
 40
-0.6
 41
-30.0
 62
     5
 63
     7
421
 16777215
 74
     1
 91
        4
 64
     7
 65
   257
 75
     1
175
     1
 42
1.0
 92
       12
 66
     7
 43
1.0
 76
     1
 77
     6
 78
     2
 67
     7
 79
     5
170
     0
171
     0
290
     0
174
     0
 93
        1
 44
0.0
173
     0
291
     1
 45
0.0
1001
ACAD
1000
AcDbSavedByObjectVersion
1070
     0
  0
DICTIONARY
  5
2B8
330
3D
100
AcDbDictionary
280
     1
281
     1
  3
ACAD_XREC_ROUNDTRIP
360
2B9
  0
DICTIONARY
  5
2B6
330
3C
100
AcDbDictionary
280
     1
281
     1
  3
ACAD_XREC_ROUNDTRIP
360
2B7
  0
DICTIONARY
  5
2BA
330
3E
100
AcDbDictionary
280
     1
281
     1
  3
ACAD_XREC_ROUNDTRIP
360
2BB
  0
DICTIONARY
  5
29E
330
2F
100
AcDbDictionary
280
     1
281
     1
  3
ACAD_XREC_ROUNDTRIP
360
29F
  0
DICTIONARY
  5
2A2
330
31
100
AcDbDictionary
280
     1
281
     1
  3
ACAD_XREC_ROUNDTRIP
360
2A3
  0
DICTIONARY
  5
2A0
330
30
100
AcDbDictionary
280
     1
281
     1
  3
ACAD_XREC_ROUNDTRIP
360
2A1
  0
DICTIONARY
  5
2A4
330
32
100
AcDbDictionary
280
     1
281
     1
  3
ACAD_XREC_ROUNDTRIP
360
2A5
  0
DICTIONARY
  5
2AC
330
36
100
AcDbDictionary
280
     1
281
     1
  3
ACAD_XREC_ROUNDTRIP
360
2AD
  0
DICTIONARY
  5
2B4
330
3A
100
AcDbDictionary
280
     1
281
     1
  3
ACAD_XREC_ROUNDTRIP
360
2B5
  0
DICTIONARY
  5
2A8
330
34
100
AcDbDictionary
280
     1
281
     1
  3
ACAD_XREC_ROUNDTRIP
360
2A9
  0
DICTIONARY
  5
2AA
330
35
100
AcDbDictionary
280
     1
281
     1
  3
ACAD_XREC_ROUNDTRIP
360
2AB
  0
DICTIONARY
  5
2B2
330
39
100
AcDbDictionary
280
     1
281
     1
  3
ACAD_XREC_ROUNDTRIP
360
2B3
  0
DICTIONARY
  5
296
330
2B
100
AcDbDictionary
280
     1
281
     1
  3
ACAD_XREC_ROUNDTRIP
360
297
  0
DICTIONARY
  5
298
330
2C
100
AcDbDictionary
280
     1
281
     1
  3
ACAD_XREC_ROUNDTRIP
360
299
  0
DICTIONARY
  5
29A
330
2D
100
AcDbDictionary
280
     1
281
     1
  3
ACAD_XREC_ROUNDTRIP
360
29B
  0
DICTIONARY
  5
29C
330
2E
100
AcDbDictionary
280
     1
281
     1
  3
ACAD_XREC_ROUNDTRIP
360
29D
  0
DICTIONARY
  5
2B0
330
38
100
AcDbDictionary
280
     1
281
     1
  3
ACAD_XREC_ROUNDTRIP
360
2B1
  0
DICTIONARY
  5
2A6
330
33
100
AcDbDictionary
280
     1
281
     1
  3
ACAD_XREC_ROUNDTRIP
360
2A7
  0
DICTIONARY
  5
2AE
330
37
100
AcDbDictionary
280
     1
281
     1
  3
ACAD_XREC_ROUNDTRIP
360
2AF
  0
XRECORD
  5
2B9
102
{ACAD_REACTORS
330
2B8
102
}
330
2B8
100
AcDbXrecord
280
     1
102
MATERIAL
148
0.0
149
0.0
149
0.0
 93
        0
 94
      127
282
     0
 72
     1
 77
     1
171
     1
175
     1
179
     1
273
     0
  0
XRECORD
  5
2B7
102
{ACAD_REACTORS
330
2B6
102
}
330
2B6
100
AcDbXrecord
280
     1
102
MATERIAL
148
0.0
149
0.0
149
0.0
 93
        0
 94
      127
282
     0
 72
     1
 77
     1
171
     1
175
     1
179
     1
273
     0
  0
XRECORD
  5
2BB
102
{ACAD_REACTORS
330
2BA
102
}
330
2BA
100
AcDbXrecord
280
     1
102
MATERIAL
148
0.0
149
0.0
149
0.0
 93
        0
 94
      127
282
     0
 72
     1
 77
     1
171
     1
175
     1
179
     1
273
     0
  0
XRECORD
  5
29F
102
{ACAD_REACTORS
330
29E
102
}
330
29E
100
AcDbXrecord
280
     1
102
RTVSPropertyOp0
 70
     1
102
RTVSPropertyOp1
 70
     1
102
RTVSPropertyOp2
 70
     1
102
RTVSPropertyOp3
 70
     1
102
RTVSPropertyOp4
 70
     1
102
RTVSPropertyOp5
 70
     1
102
RTVSPropertyOp6
 70
     1
102
RTVSPropertyOp7
 70
     1
102
RTVSPropertyOp8
 70
     1
102
RTVSPropertyOp9
 70
     1
102
RTVSPropertyOp10
 70
     1
102
RTVSPropertyOp11
 70
     1
102
RTVSPropertyOp12
 70
     1
102
RTVSPropertyOp13
 70
     1
102
RTVSPropertyOp14
 70
     1
102
RTVSPropertyOp15
 70
     1
102
RTVSPropertyOp16
 70
     1
102
RTVSPropertyOp17
 70
     1
102
RTVSPropertyOp18
 70
     1
102
RTVSPropertyOp19
 70
     1
102
RTVSPropertyOp20
 70
     1
102
RTVSPropertyOp21
 70
     1
102
RTVSPropertyOp22
 70
     1
102
RTVSPropertyOp23
 70
     1
102
RTVSPropertyOp24
 70
     1
102
RTVSPropertyOp25
 70
     1
102
RTVSPropertyOp26
 70
     1
102
RTVSPropertyOp27
 70
     1
102
RTVSPropertyOp28
 70
     1
102
RTVSPropertyOp29
 70
     1
102
RTVSPropertyOp30
 70
     1
102
RTVSPropertyOp31
 70
     1
102
RTVSPropertyOp32
 70
     1
  0
XRECORD
  5
2A3
102
{ACAD_REACTORS
330
2A2
102
}
330
2A2
100
AcDbXrecord
280
     1
102
RTVSPropertyOp0
 70
     1
102
RTVSPropertyOp1
 70
     1
102
RTVSPropertyOp2
 70
     1
102
RTVSPropertyOp3
 70
     1
102
RTVSPropertyOp4
 70
     1
102
RTVSPropertyOp5
 70
     1
102
RTVSPropertyOp6
 70
     1
102
RTVSPropertyOp7
 70
     1
102
RTVSPropertyOp8
 70
     1
102
RTVSPropertyOp9
 70
     1
102
RTVSPropertyOp10
 70
     1
102
RTVSPropertyOp11
 70
     1
102
RTVSPropertyOp12
 70
     1
102
RTVSPropertyOp13
 70
     1
102
RTVSPropertyOp14
 70
     1
102
RTVSPropertyOp15
 70
     1
102
RTVSPropertyOp16
 70
     1
102
RTVSPropertyOp17
 70
     1
102
RTVSPropertyOp18
 70
     1
102
RTVSPropertyOp19
 70
     1
102
RTVSPropertyOp20
 70
     1
102
RTVSPropertyOp21
 70
     1
102
RTVSPropertyOp22
 70
     1
102
RTVSPropertyOp23
 70
     1
102
RTVSPropertyOp24
 70
     1
102
RTVSPropertyOp25
 70
     1
102
RTVSPropertyOp26
 70
     1
102
RTVSPropertyOp27
 70
     1
102
RTVSPropertyOp28
 70
     1
102
RTVSPropertyOp29
 70
     1
102
RTVSPropertyOp30
 70
     1
102
RTVSPropertyOp31
 70
     1
102
RTVSPropertyOp32
 70
     1
  0
XRECORD
  5
2A1
102
{ACAD_REACTORS
330
2A0
102
}
330
2A0
100
AcDbXrecord
280
     1
102
RTVSPropertyOp0
 70
     1
102
RTVSPropertyOp1
 70
     1
102
RTVSPropertyOp2
 70
     1
102
RTVSPropertyOp3
 70
     1
102
RTVSPropertyOp4
 70
     1
102
RTVSPropertyOp5
 70
     1
102
RTVSPropertyOp6
 70
     1
102
RTVSPropertyOp7
 70
     1
102
RTVSPropertyOp8
 70
     1
102
RTVSPropertyOp9
 70
     1
102
RTVSPropertyOp10
 70
     1
102
RTVSPropertyOp11
 70
     1
102
RTVSPropertyOp12
 70
     1
102
RTVSPropertyOp13
 70
     1
102
RTVSPropertyOp14
 70
     1
102
RTVSPropertyOp15
 70
     1
102
RTVSPropertyOp16
 70
     1
102
RTVSPropertyOp17
 70
     1
102
RTVSPropertyOp18
 70
     1
102
RTVSPropertyOp19
 70
     1
102
RTVSPropertyOp20
 70
     1
102
RTVSPropertyOp21
 70
     1
102
RTVSPropertyOp22
 70
     1
102
RTVSPropertyOp23
 70
     1
102
RTVSPropertyOp24
 70
     1
102
RTVSPropertyOp25
 70
     1
102
RTVSPropertyOp26
 70
     1
102
RTVSPropertyOp27
 70
     1
102
RTVSPropertyOp28
 70
     1
102
RTVSPropertyOp29
 70
     1
102
RTVSPropertyOp30
 70
     1
102
RTVSPropertyOp31
 70
     1
102
RTVSPropertyOp32
 70
     1
  0
XRECORD
  5
2A5
102
{ACAD_REACTORS
330
2A4
102
}
330
2A4
100
AcDbXrecord
280
     1
102
RTVSPropertyOp0
 70
     1
102
RTVSPropertyOp1
 70
     1
102
RTVSPropertyOp2
 70
     1
102
RTVSPropertyOp3
 70
     1
102
RTVSPropertyOp4
 70
     1
102
RTVSPropertyOp5
 70
     1
102
RTVSPropertyOp6
 70
     1
102
RTVSPropertyOp7
 70
     1
102
RTVSPropertyOp8
 70
     1
102
RTVSPropertyOp9
 70
     1
102
RTVSPropertyOp10
 70
     1
102
RTVSPropertyOp11
 70
     1
102
RTVSPropertyOp12
 70
     1
102
RTVSPropertyOp13
 70
     1
102
RTVSPropertyOp14
 70
     1
102
RTVSPropertyOp15
 70
     1
102
RTVSPropertyOp16
 70
     1
102
RTVSPropertyOp17
 70
     1
102
RTVSPropertyOp18
 70
     1
102
RTVSPropertyOp19
 70
     1
102
RTVSPropertyOp20
 70
     1
102
RTVSPropertyOp21
 70
     1
102
RTVSPropertyOp22
 70
     1
102
RTVSPropertyOp23
 70
     1
102
RTVSPropertyOp24
 70
     1
102
RTVSPropertyOp25
 70
     1
102
RTVSPropertyOp26
 70
     1
102
RTVSPropertyOp27
 70
     1
102
RTVSPropertyOp28
 70
     1
102
RTVSPropertyOp29
 70
     1
102
RTVSPropertyOp30
 70
     1
102
RTVSPropertyOp31
 70
     1
102
RTVSPropertyOp32
 70
     1
  0
XRECORD
  5
2AD
102
{ACAD_REACTORS
330
2AC
102
}
330
2AC
100
AcDbXrecord
280
     1
102
RTVSPropertyOp0
 70
     1
102
RTVSPropertyOp1
 70
     1
102
RTVSPropertyOp2
 70
     1
102
RTVSPropertyOp3
 70
     1
102
RTVSPropertyOp4
 70
     1
102
RTVSPropertyOp5
 70
     1
102
RTVSPropertyOp6
 70
     1
102
RTVSPropertyOp7
 70
     1
102
RTVSPropertyOp8
 70
     1
102
RTVSPropertyOp9
 70
     1
102
RTVSPropertyOp10
 70
     1
102
RTVSPropertyOp11
 70
     1
102
RTVSPropertyOp12
 70
     1
102
RTVSPropertyOp13
 70
     1
102
RTVSPropertyOp14
 70
     1
102
RTVSPropertyOp15
 70
     1
102
RTVSPropertyOp16
 70
     1
102
RTVSPropertyOp17
 70
     1
102
RTVSPropertyOp18
 70
     1
102
RTVSPropertyOp19
 70
     1
102
RTVSPropertyOp20
 70
     1
102
RTVSPropertyOp21
 70
     1
102
RTVSPropertyOp22
 70
     1
102
RTVSPropertyOp23
 70
     1
102
RTVSPropertyOp24
 70
     1
102
RTVSPropertyOp25
 70
     1
102
RTVSPropertyOp26
 70
     1
102
RTVSPropertyOp27
 70
     1
102
RTVSPropertyOp28
 70
     1
102
RTVSPropertyOp29
 70
     1
102
RTVSPropertyOp30
 70
     1
102
RTVSPropertyOp31
 70
     1
102
RTVSPropertyOp32
 70
     1
  0
XRECORD
  5
2B5
102
{ACAD_REACTORS
330
2B4
102
}
330
2B4
100
AcDbXrecord
280
     1
102
RTVSPropertyOp0
 70
     1
102
RTVSPropertyOp1
 70
     1
102
RTVSPropertyOp2
 70
     1
102
RTVSPropertyOp3
 70
     1
102
RTVSPropertyOp4
 70
     1
102
RTVSPropertyOp5
 70
     1
102
RTVSPropertyOp6
 70
     1
102
RTVSPropertyOp7
 70
     1
102
RTVSPropertyOp8
 70
     1
102
RTVSPropertyOp9
 70
     1
102
RTVSPropertyOp10
 70
     1
102
RTVSPropertyOp11
 70
     1
102
RTVSPropertyOp12
 70
     1
102
RTVSPropertyOp13
 70
     1
102
RTVSPropertyOp14
 70
     1
102
RTVSPropertyOp15
 70
     1
102
RTVSPropertyOp16
 70
     1
102
RTVSPropertyOp17
 70
     1
102
RTVSPropertyOp18
 70
     1
102
RTVSPropertyOp19
 70
     1
102
RTVSPropertyOp20
 70
     1
102
RTVSPropertyOp21
 70
     1
102
RTVSPropertyOp22
 70
     1
102
RTVSPropertyOp23
 70
     1
102
RTVSPropertyOp24
 70
     1
102
RTVSPropertyOp25
 70
     1
102
RTVSPropertyOp26
 70
     1
102
RTVSPropertyOp27
 70
     1
102
RTVSPropertyOp28
 70
     1
102
RTVSPropertyOp29
 70
     1
102
RTVSPropertyOp30
 70
     1
102
RTVSPropertyOp31
 70
     1
102
RTVSPropertyOp32
 70
     1
  0
XRECORD
  5
2A9
102
{ACAD_REACTORS
330
2A8
102
}
330
2A8
100
AcDbXrecord
280
     1
102
RTVSPropertyOp0
 70
     1
102
RTVSPropertyOp1
 70
     1
102
RTVSPropertyOp2
 70
     1
102
RTVSPropertyOp3
 70
     1
102
RTVSPropertyOp4
 70
     1
102
RTVSPropertyOp5
 70
     1
102
RTVSPropertyOp6
 70
     1
102
RTVSPropertyOp7
 70
     1
102
RTVSPropertyOp8
 70
     1
102
RTVSPropertyOp9
 70
     1
102
RTVSPropertyOp10
 70
     1
102
RTVSPropertyOp11
 70
     1
102
RTVSPropertyOp12
 70
     1
102
RTVSPropertyOp13
 70
     1
102
RTVSPropertyOp14
 70
     1
102
RTVSPropertyOp15
 70
     1
102
RTVSPropertyOp16
 70
     1
102
RTVSPropertyOp17
 70
     1
102
RTVSPropertyOp18
 70
     1
102
RTVSPropertyOp19
 70
     1
102
RTVSPropertyOp20
 70
     1
102
RTVSPropertyOp21
 70
     1
102
RTVSPropertyOp22
 70
     1
102
RTVSPropertyOp23
 70
     1
102
RTVSPropertyOp24
 70
     1
102
RTVSPropertyOp25
 70
     1
102
RTVSPropertyOp26
 70
     1
102
RTVSPropertyOp27
 70
     1
102
RTVSPropertyOp28
 70
     1
102
RTVSPropertyOp29
 70
     1
102
RTVSPropertyOp30
 70
     1
102
RTVSPropertyOp31
 70
     1
102
RTVSPropertyOp32
 70
     1
  0
XRECORD
  5
2AB
102
{ACAD_REACTORS
330
2AA
102
}
330
2AA
100
AcDbXrecord
280
     1
102
RTVSPropertyOp0
 70
     1
102
RTVSPropertyOp1
 70
     1
102
RTVSPropertyOp2
 70
     1
102
RTVSPropertyOp3
 70
     1
102
RTVSPropertyOp4
 70
     1
102
RTVSPropertyOp5
 70
     1
102
RTVSPropertyOp6
 70
     1
102
RTVSPropertyOp7
 70
     1
102
RTVSPropertyOp8
 70
     1
102
RTVSPropertyOp9
 70
     1
102
RTVSPropertyOp10
 70
     1
102
RTVSPropertyOp11
 70
     1
102
RTVSPropertyOp12
 70
     1
102
RTVSPropertyOp13
 70
     1
102
RTVSPropertyOp14
 70
     1
102
RTVSPropertyOp15
 70
     1
102
RTVSPropertyOp16
 70
     1
102
RTVSPropertyOp17
 70
     1
102
RTVSPropertyOp18
 70
     1
102
RTVSPropertyOp19
 70
     1
102
RTVSPropertyOp20
 70
     1
102
RTVSPropertyOp21
 70
     1
102
RTVSPropertyOp22
 70
     1
102
RTVSPropertyOp23
 70
     1
102
RTVSPropertyOp24
 70
     1
102
RTVSPropertyOp25
 70
     1
102
RTVSPropertyOp26
 70
     1
102
RTVSPropertyOp27
 70
     1
102
RTVSPropertyOp28
 70
     1
102
RTVSPropertyOp29
 70
     1
102
RTVSPropertyOp30
 70
     1
102
RTVSPropertyOp31
 70
     1
102
RTVSPropertyOp32
 70
     1
  0
XRECORD
  5
2B3
102
{ACAD_REACTORS
330
2B2
102
}
330
2B2
100
AcDbXrecord
280
     1
102
RTVSPropertyOp0
 70
     1
102
RTVSPropertyOp1
 70
     1
102
RTVSPropertyOp2
 70
     1
102
RTVSPropertyOp3
 70
     1
102
RTVSPropertyOp4
 70
     1
102
RTVSPropertyOp5
 70
     1
102
RTVSPropertyOp6
 70
     1
102
RTVSPropertyOp7
 70
     1
102
RTVSPropertyOp8
 70
     1
102
RTVSPropertyOp9
 70
     1
102
RTVSPropertyOp10
 70
     1
102
RTVSPropertyOp11
 70
     1
102
RTVSPropertyOp12
 70
     1
102
RTVSPropertyOp13
 70
     1
102
RTVSPropertyOp14
 70
     1
102
RTVSPropertyOp15
 70
     1
102
RTVSPropertyOp16
 70
     1
102
RTVSPropertyOp17
 70
     1
102
RTVSPropertyOp18
 70
     1
102
RTVSPropertyOp19
 70
     1
102
RTVSPropertyOp20
 70
     1
102
RTVSPropertyOp21
 70
     1
102
RTVSPropertyOp22
 70
     1
102
RTVSPropertyOp23
 70
     1
102
RTVSPropertyOp24
 70
     1
102
RTVSPropertyOp25
 70
     1
102
RTVSPropertyOp26
 70
     1
102
RTVSPropertyOp27
 70
     1
102
RTVSPropertyOp28
 70
     1
102
RTVSPropertyOp29
 70
     1
102
RTVSPropertyOp30
 70
     1
102
RTVSPropertyOp31
 70
     1
102
RTVSPropertyOp32
 70
     1
  0
XRECORD
  5
297
102
{ACAD_REACTORS
330
296
102
}
330
296
100
AcDbXrecord
280
     1
102
RTVSPropertyOp0
 70
     1
102
RTVSPropertyOp1
 70
     1
102
RTVSPropertyOp2
 70
     1
102
RTVSPropertyOp3
 70
     1
102
RTVSPropertyOp4
 70
     1
102
RTVSPropertyOp5
 70
     1
102
RTVSPropertyOp6
 70
     1
102
RTVSPropertyOp7
 70
     1
102
RTVSPropertyOp8
 70
     1
102
RTVSPropertyOp9
 70
     1
102
RTVSPropertyOp10
 70
     1
102
RTVSPropertyOp11
 70
     1
102
RTVSPropertyOp12
 70
     1
102
RTVSPropertyOp13
 70
     1
102
RTVSPropertyOp14
 70
     1
102
RTVSPropertyOp15
 70
     1
102
RTVSPropertyOp16
 70
     1
102
RTVSPropertyOp17
 70
     1
102
RTVSPropertyOp18
 70
     1
102
RTVSPropertyOp19
 70
     1
102
RTVSPropertyOp20
 70
     1
102
RTVSPropertyOp21
 70
     1
102
RTVSPropertyOp22
 70
     1
102
RTVSPropertyOp23
 70
     1
102
RTVSPropertyOp24
 70
     1
102
RTVSPropertyOp25
 70
     1
102
RTVSPropertyOp26
 70
     1
102
RTVSPropertyOp27
 70
     1
102
RTVSPropertyOp28
 70
     1
102
RTVSPropertyOp29
 70
     1
102
RTVSPropertyOp30
 70
     1
102
RTVSPropertyOp31
 70
     1
102
RTVSPropertyOp32
 70
     1
  0
XRECORD
  5
299
102
{ACAD_REACTORS
330
298
102
}
330
298
100
AcDbXrecord
280
     1
102
RTVSPropertyOp0
 70
     1
102
RTVSPropertyOp1
 70
     1
102
RTVSPropertyOp2
 70
     1
102
RTVSPropertyOp3
 70
     1
102
RTVSPropertyOp4
 70
     1
102
RTVSPropertyOp5
 70
     1
102
RTVSPropertyOp6
 70
     1
102
RTVSPropertyOp7
 70
     1
102
RTVSPropertyOp8
 70
     1
102
RTVSPropertyOp9
 70
     1
102
RTVSPropertyOp10
 70
     1
102
RTVSPropertyOp11
 70
     1
102
RTVSPropertyOp12
 70
     1
102
RTVSPropertyOp13
 70
     1
102
RTVSPropertyOp14
 70
     1
102
RTVSPropertyOp15
 70
     1
102
RTVSPropertyOp16
 70
     1
102
RTVSPropertyOp17
 70
     1
102
RTVSPropertyOp18
 70
     1
102
RTVSPropertyOp19
 70
     1
102
RTVSPropertyOp20
 70
     1
102
RTVSPropertyOp21
 70
     1
102
RTVSPropertyOp22
 70
     1
102
RTVSPropertyOp23
 70
     1
102
RTVSPropertyOp24
 70
     1
102
RTVSPropertyOp25
 70
     1
102
RTVSPropertyOp26
 70
     1
102
RTVSPropertyOp27
 70
     1
102
RTVSPropertyOp28
 70
     1
102
RTVSPropertyOp29
 70
     1
102
RTVSPropertyOp30
 70
     1
102
RTVSPropertyOp31
 70
     1
102
RTVSPropertyOp32
 70
     1
  0
XRECORD
  5
29B
102
{ACAD_REACTORS
330
29A
102
}
330
29A
100
AcDbXrecord
280
     1
102
RTVSPropertyOp0
 70
     1
102
RTVSPropertyOp1
 70
     1
102
RTVSPropertyOp2
 70
     1
102
RTVSPropertyOp3
 70
     1
102
RTVSPropertyOp4
 70
     1
102
RTVSPropertyOp5
 70
     1
102
RTVSPropertyOp6
 70
     1
102
RTVSPropertyOp7
 70
     1
102
RTVSPropertyOp8
 70
     1
102
RTVSPropertyOp9
 70
     1
102
RTVSPropertyOp10
 70
     1
102
RTVSPropertyOp11
 70
     1
102
RTVSPropertyOp12
 70
     1
102
RTVSPropertyOp13
 70
     1
102
RTVSPropertyOp14
 70
     1
102
RTVSPropertyOp15
 70
     1
102
RTVSPropertyOp16
 70
     1
102
RTVSPropertyOp17
 70
     1
102
RTVSPropertyOp18
 70
     1
102
RTVSPropertyOp19
 70
     1
102
RTVSPropertyOp20
 70
     1
102
RTVSPropertyOp21
 70
     1
102
RTVSPropertyOp22
 70
     1
102
RTVSPropertyOp23
 70
     1
102
RTVSPropertyOp24
 70
     1
102
RTVSPropertyOp25
 70
     1
102
RTVSPropertyOp26
 70
     1
102
RTVSPropertyOp27
 70
     1
102
RTVSPropertyOp28
 70
     1
102
RTVSPropertyOp29
 70
     1
102
RTVSPropertyOp30
 70
     1
102
RTVSPropertyOp31
 70
     1
102
RTVSPropertyOp32
 70
     1
  0
XRECORD
  5
29D
102
{ACAD_REACTORS
330
29C
102
}
330
29C
100
AcDbXrecord
280
     1
102
RTVSPropertyOp0
 70
     1
102
RTVSPropertyOp1
 70
     1
102
RTVSPropertyOp2
 70
     1
102
RTVSPropertyOp3
 70
     1
102
RTVSPropertyOp4
 70
     1
102
RTVSPropertyOp5
 70
     1
102
RTVSPropertyOp6
 70
     1
102
RTVSPropertyOp7
 70
     1
102
RTVSPropertyOp8
 70
     1
102
RTVSPropertyOp9
 70
     1
102
RTVSPropertyOp10
 70
     1
102
RTVSPropertyOp11
 70
     1
102
RTVSPropertyOp12
 70
     1
102
RTVSPropertyOp13
 70
     1
102
RTVSPropertyOp14
 70
     1
102
RTVSPropertyOp15
 70
     1
102
RTVSPropertyOp16
 70
     1
102
RTVSPropertyOp17
 70
     1
102
RTVSPropertyOp18
 70
     1
102
RTVSPropertyOp19
 70
     1
102
RTVSPropertyOp20
 70
     1
102
RTVSPropertyOp21
 70
     1
102
RTVSPropertyOp22
 70
     1
102
RTVSPropertyOp23
 70
     1
102
RTVSPropertyOp24
 70
     1
102
RTVSPropertyOp25
 70
     1
102
RTVSPropertyOp26
 70
     1
102
RTVSPropertyOp27
 70
     1
102
RTVSPropertyOp28
 70
     1
102
RTVSPropertyOp29
 70
     1
102
RTVSPropertyOp30
 70
     1
102
RTVSPropertyOp31
 70
     1
102
RTVSPropertyOp32
 70
     1
  0
XRECORD
  5
2B1
102
{ACAD_REACTORS
330
2B0
102
}
330
2B0
100
AcDbXrecord
280
     1
102
RTVSPropertyOp0
 70
     1
102
RTVSPropertyOp1
 70
     1
102
RTVSPropertyOp2
 70
     1
102
RTVSPropertyOp3
 70
     1
102
RTVSPropertyOp4
 70
     1
102
RTVSPropertyOp5
 70
     1
102
RTVSPropertyOp6
 70
     1
102
RTVSPropertyOp7
 70
     1
102
RTVSPropertyOp8
 70
     1
102
RTVSPropertyOp9
 70
     1
102
RTVSPropertyOp10
 70
     1
102
RTVSPropertyOp11
 70
     1
102
RTVSPropertyOp12
 70
     1
102
RTVSPropertyOp13
 70
     1
102
RTVSPropertyOp14
 70
     1
102
RTVSPropertyOp15
 70
     1
102
RTVSPropertyOp16
 70
     1
102
RTVSPropertyOp17
 70
     1
102
RTVSPropertyOp18
 70
     1
102
RTVSPropertyOp19
 70
     1
102
RTVSPropertyOp20
 70
     1
102
RTVSPropertyOp21
 70
     1
102
RTVSPropertyOp22
 70
     1
102
RTVSPropertyOp23
 70
     1
102
RTVSPropertyOp24
 70
     1
102
RTVSPropertyOp25
 70
     1
102
RTVSPropertyOp26
 70
     1
102
RTVSPropertyOp27
 70
     1
102
RTVSPropertyOp28
 70
     1
102
RTVSPropertyOp29
 70
     1
102
RTVSPropertyOp30
 70
     1
102
RTVSPropertyOp31
 70
     1
102
RTVSPropertyOp32
 70
     1
  0
XRECORD
  5
2A7
102
{ACAD_REACTORS
330
2A6
102
}
330
2A6
100
AcDbXrecord
280
     1
102
RTVSPropertyOp0
 70
     1
102
RTVSPropertyOp1
 70
     1
102
RTVSPropertyOp2
 70
     1
102
RTVSPropertyOp3
 70
     1
102
RTVSPropertyOp4
 70
     1
102
RTVSPropertyOp5
 70
     1
102
RTVSPropertyOp6
 70
     1
102
RTVSPropertyOp7
 70
     1
102
RTVSPropertyOp8
 70
     1
102
RTVSPropertyOp9
 70
     1
102
RTVSPropertyOp10
 70
     1
102
RTVSPropertyOp11
 70
     1
102
RTVSPropertyOp12
 70
     1
102
RTVSPropertyOp13
 70
     1
102
RTVSPropertyOp14
 70
     1
102
RTVSPropertyOp15
 70
     1
102
RTVSPropertyOp16
 70
     1
102
RTVSPropertyOp17
 70
     1
102
RTVSPropertyOp18
 70
     1
102
RTVSPropertyOp19
 70
     1
102
RTVSPropertyOp20
 70
     1
102
RTVSPropertyOp21
 70
     1
102
RTVSPropertyOp22
 70
     1
102
RTVSPropertyOp23
 70
     1
102
RTVSPropertyOp24
 70
     1
102
RTVSPropertyOp25
 70
     1
102
RTVSPropertyOp26
 70
     1
102
RTVSPropertyOp27
 70
     1
102
RTVSPropertyOp28
 70
     1
102
RTVSPropertyOp29
 70
     1
102
RTVSPropertyOp30
 70
     1
102
RTVSPropertyOp31
 70
     1
102
RTVSPropertyOp32
 70
     1
  0
XRECORD
  5
2AF
102
{ACAD_REACTORS
330
2AE
102
}
330
2AE
100
AcDbXrecord
280
     1
102
RTVSPropertyOp0
 70
     1
102
RTVSPropertyOp1
 70
     1
102
RTVSPropertyOp2
 70
     1
102
RTVSPropertyOp3
 70
     1
102
RTVSPropertyOp4
 70
     1
102
RTVSPropertyOp5
 70
     1
102
RTVSPropertyOp6
 70
     1
102
RTVSPropertyOp7
 70
     1
102
RTVSPropertyOp8
 70
     1
102
RTVSPropertyOp9
 70
     1
102
RTVSPropertyOp10
 70
     1
102
RTVSPropertyOp11
 70
     1
102
RTVSPropertyOp12
 70
     1
102
RTVSPropertyOp13
 70
     1
102
RTVSPropertyOp14
 70
     1
102
RTVSPropertyOp15
 70
     1
102
RTVSPropertyOp16
 70
     1
102
RTVSPropertyOp17
 70
     1
102
RTVSPropertyOp18
 70
     1
102
RTVSPropertyOp19
 70
     1
102
RTVSPropertyOp20
 70
     1
102
RTVSPropertyOp21
 70
     1
102
RTVSPropertyOp22
 70
     1
102
RTVSPropertyOp23
 70
     1
102
RTVSPropertyOp24
 70
     1
102
RTVSPropertyOp25
 70
     1
102
RTVSPropertyOp26
 70
     1
102
RTVSPropertyOp27
 70
     1
102
RTVSPropertyOp28
 70
     1
102
RTVSPropertyOp29
 70
     1
102
RTVSPropertyOp30
 70
     1
102
RTVSPropertyOp31
 70
     1
102
RTVSPropertyOp32
 70
     1
  0
ENDSEC
  0
EOF
