  0
SECTION
  2
HEADER
  9
$ACADVER
  1
AC1018
  9
$ACADMAINTVER
 70
     0
  9
$DWGCODEPAGE
  3
ANSI_932
  9
$INSBASE
 10
0.0
 20
0.0
 30
0.0
  9
$EXTMIN
 10
-105.0
 20
-148.5
 30
0.0
  9
$EXTMAX
 10
105.0
 20
148.5
 30
0.0
  9
$LIMMIN
 10
-105.0
 20
-148.5
  9
$LIMMAX
 10
105.0
 20
148.5
  9
$ORTHOMODE
 70
     0
  9
$REGENMODE
 70
     1
  9
$FILLMODE
 70
     1
  9
$QTEXTMODE
 70
     0
  9
$MIRRTEXT
 70
     1
  9
$LTSCALE
 40
1.0
  9
$ATTMODE
 70
     1
  9
$TEXTSIZE
 40
2.5
  9
$TRACEWID
 40
1.0
  9
$TEXTSTYLE
  7
Standard
  9
$CLAYER
  8
0
  9
$CELTYPE
  6
ByLayer
  9
$CECOLOR
 62
   256
  9
$CELTSCALE
 40
1.0
  9
$DISPSILH
 70
     0
  9
$DIMSCALE
 40
1.0
  9
$DIMASZ
 40
2.5
  9
$DIMEXO
 40
0.625
  9
$DIMDLI
 40
3.75
  9
$DIMRND
 40
0.0
  9
$DIMDLE
 40
0.0
  9
$DIMEXE
 40
1.25
  9
$DIMTP
 40
0.0
  9
$DIMTM
 40
0.0
  9
$DIMTXT
 40
2.5
  9
$DIMCEN
 40
2.5
  9
$DIMTSZ
 40
0.0
  9
$DIMTOL
 70
     0
  9
$DIMLIM
 70
     0
  9
$DIMTIH
 70
     0
  9
$DIMTOH
 70
     0
  9
$DIMSE1
 70
     0
  9
$DIMSE2
 70
     0
  9
$DIMTAD
 70
     1
  9
$DIMZIN
 70
     8
  9
$DIMBLK
  1

  9
$DIMASO
 70
     1
  9
$DIMSHO
 70
     1
  9
$DIMPOST
  1

  9
$DIMAPOST
  1

  9
$DIMALT
 70
     0
  9
$DIMALTD
 70
     3
  9
$DIMALTF
 40
0.03937007874016
  9
$DIMLFAC
 40
1.0
  9
$DIMTOFL
 70
     1
  9
$DIMTVP
 40
0.0
  9
$DIMTIX
 70
     0
  9
$DIMSOXD
 70
     0
  9
$DIMSAH
 70
     0
  9
$DIMBLK1
  1

  9
$DIMBLK2
  1

  9
$DIMSTYLE
  2
ISO-25
  9
$DIMCLRD
 70
     0
  9
$DIMCLRE
 70
     0
  9
$DIMCLRT
 70
     0
  9
$DIMTFAC
 40
1.0
  9
$DIMGAP
 40
0.625
  9
$DIMJUST
 70
     0
  9
$DIMSD1
 70
     0
  9
$DIMSD2
 70
     0
  9
$DIMTOLJ
 70
     0
  9
$DIMTZIN
 70
     8
  9
$DIMALTZ
 70
     0
  9
$DIMALTTZ
 70
     0
  9
$DIMUPT
 70
     0
  9
$DIMDEC
 70
     2
  9
$DIMTDEC
 70
     2
  9
$DIMALTU
 70
     2
  9
$DIMALTTD
 70
     3
  9
$DIMTXSTY
  7
Standard
  9
$DIMAUNIT
 70
     0
  9
$DIMADEC
 70
     0
  9
$DIMALTRND
 40
0.0
  9
$DIMAZIN
 70
     0
  9
$DIMDSEP
 70
    44
  9
$DIMATFIT
 70
     3
  9
$DIMFRAC
 70
     0
  9
$DIMLDRBLK
  1

  9
$DIMLUNIT
 70
     2
  9
$DIMLWD
 70
    -2
  9
$DIMLWE
 70
    -2
  9
$DIMTMOVE
 70
     0
  9
$LUNITS
 70
     2
  9
$LUPREC
 70
     4
  9
$SKETCHINC
 40
1.0
  9
$FILLETRAD
 40
10.0
  9
$AUNITS
 70
     0
  9
$AUPREC
 70
     0
  9
$MENU
  1
.
  9
$ELEVATION
 40
0.0
  9
$PELEVATION
 40
0.0
  9
$THICKNESS
 40
0.0
  9
$LIMCHECK
 70
     0
  9
$CHAMFERA
 40
10.0
  9
$CHAMFERB
 40
10.0
  9
$CHAMFERC
 40
20.0
  9
$CHAMFERD
 40
0.0
  9
$SKPOLY
 70
     0
  9
$TDCREATE
 40
2457290.490943275
  9
$TDUCREATE
 40
2457290.115943275
  9
$TDUPDATE
 40
2457290.490943495
  9
$TDUUPDATE
 40
2457290.115943495
  9
$TDINDWG
 40
0.0000000116
  9
$TDUSRTIMER
 40
0.0000000116
  9
$USRTIMER
 70
     1
  9
$ANGBASE
 50
0.0
  9
$ANGDIR
 70
     0
  9
$PDMODE
 70
     0
  9
$PDSIZE
 40
0.0
  9
$PLINEWID
 40
0.0
  9
$SPLFRAME
 70
     0
  9
$SPLINETYPE
 70
     6
  9
$SPLINESEGS
 70
     8
  9
$HANDSEED
  5
185
  9
$SURFTAB1
 70
     6
  9
$SURFTAB2
 70
     6
  9
$SURFTYPE
 70
     6
  9
$SURFU
 70
     6
  9
$SURFV
 70
     6
  9
$UCSBASE
  2

  9
$UCSNAME
  2

  9
$UCSORG
 10
0.0
 20
0.0
 30
0.0
  9
$UCSXDIR
 10
1.0
 20
0.0
 30
0.0
  9
$UCSYDIR
 10
0.0
 20
1.0
 30
0.0
  9
$UCSORTHOREF
  2

  9
$UCSORTHOVIEW
 70
     0
  9
$UCSORGTOP
 10
0.0
 20
0.0
 30
0.0
  9
$UCSORGBOTTOM
 10
0.0
 20
0.0
 30
0.0
  9
$UCSORGLEFT
 10
0.0
 20
0.0
 30
0.0
  9
$UCSORGRIGHT
 10
0.0
 20
0.0
 30
0.0
  9
$UCSORGFRONT
 10
0.0
 20
0.0
 30
0.0
  9
$UCSORGBACK
 10
0.0
 20
0.0
 30
0.0
  9
$PUCSBASE
  2

  9
$PUCSNAME
  2

  9
$PUCSORG
 10
0.0
 20
0.0
 30
0.0
  9
$PUCSXDIR
 10
1.0
 20
0.0
 30
0.0
  9
$PUCSYDIR
 10
0.0
 20
1.0
 30
0.0
  9
$PUCSORTHOREF
  2

  9
$PUCSORTHOVIEW
 70
     0
  9
$PUCSORGTOP
 10
0.0
 20
0.0
 30
0.0
  9
$PUCSORGBOTTOM
 10
0.0
 20
0.0
 30
0.0
  9
$PUCSORGLEFT
 10
0.0
 20
0.0
 30
0.0
  9
$PUCSORGRIGHT
 10
0.0
 20
0.0
 30
0.0
  9
$PUCSORGFRONT
 10
0.0
 20
0.0
 30
0.0
  9
$PUCSORGBACK
 10
0.0
 20
0.0
 30
0.0
  9
$USERI1
 70
     0
  9
$USERI2
 70
     0
  9
$USERI3
 70
     0
  9
$USERI4
 70
     0
  9
$USERI5
 70
     0
  9
$USERR1
 40
0.0
  9
$USERR2
 40
0.0
  9
$USERR3
 40
0.0
  9
$USERR4
 40
0.0
  9
$USERR5
 40
0.0
  9
$WORLDVIEW
 70
     1
  9
$SHADEDGE
 70
     3
  9
$SHADEDIF
 70
    70
  9
$TILEMODE
 70
     1
  9
$MAXACTVP
 70
    64
  9
$PINSBASE
 10
0.0
 20
0.0
 30
0.0
  9
$PLIMCHECK
 70
     0
  9
$PEXTMIN
 10
1.000000000000000E+20
 20
1.000000000000000E+20
 30
1.000000000000000E+20
  9
$PEXTMAX
 10
-1.000000000000000E+20
 20
-1.000000000000000E+20
 30
-1.000000000000000E+20
  9
$PLIMMIN
 10
-105.0
 20
-148.5
  9
$PLIMMAX
 10
105.0
 20
148.5
  9
$UNITMODE
 70
     0
  9
$VISRETAIN
 70
     1
  9
$PLINEGEN
 70
     0
  9
$PSLTSCALE
 70
     1
  9
$TREEDEPTH
 70
  3020
  9
$CMLSTYLE
  2
Standard
  9
$CMLJUST
 70
     0
  9
$CMLSCALE
 40
20.0
  9
$PROXYGRAPHICS
 70
     1
  9
$MEASUREMENT
 70
     1
  9
$CELWEIGHT
370
    -1
  9
$ENDCAPS
280
     0
  9
$JOINSTYLE
280
     0
  9
$LWDISPLAY
290
     0
  9
$INSUNITS
 70
     4
  9
$HYPERLINKBASE
  1

  9
$STYLESHEET
  1

  9
$XEDIT
290
     1
  9
$CEPSNTYPE
380
     0
  9
$PSTYLEMODE
290
     1
  9
$FINGERPRINTGUID
  2
{1E97AB1B-A2E0-473A-B8E8-9A4479C36208}
  9
$VERSIONGUID
  2
{FAEB1C32-E019-11D5-929B-00C0DF256EC4}
  9
$EXTNAMES
290
     1
  9
$PSVPSCALE
 40
0.0
  9
$OLESTARTUP
290
     0
  9
$SORTENTS
280
   127
  9
$INDEXCTL
280
     0
  9
$HIDETEXT
280
     1
  9
$XCLIPFRAME
290
     0
  9
$HALOGAP
280
     0
  9
$OBSCOLOR
 70
   257
  9
$OBSLTYPE
280
     0
  9
$INTERSECTIONDISPLAY
280
     0
  9
$INTERSECTIONCOLOR
 70
   257
  9
$DIMASSOC
280
     2
  9
$PROJECTNAME
  1

  0
ENDSEC
  0
SECTION
  2
CLASSES
  0
CLASS
  1
ACDBDICTIONARYWDFLT
  2
AcDbDictionaryWithDefault
  3
ObjectDBX Classes
 90
        0
 91
        4
280
     0
281
     0
  0
CLASS
  1
VISUALSTYLE
  2
AcDbVisualStyle
  3
ObjectDBX Classes
 90
     4095
 91
        4
280
     0
281
     0
  0
CLASS
  1
MATERIAL
  2
AcDbMaterial
  3
ObjectDBX Classes
 90
     1153
 91
        4
280
     0
281
     0
  0
CLASS
  1
SUN
  2
AcDbSun
  3
SCENEOE
 90
     1024
 91
        4
280
     0
281
     0
  0
ENDSEC
  0
SECTION
  2
TABLES
  0
TABLE
  2
VPORT
  5
8
330
0
100
AcDbSymbolTable
 70
     1
  0
VPORT
  5
29
330
8
100
AcDbSymbolTableRecord
100
AcDbViewportTableRecord
  2
*Active
 70
     0
 10
0.0
 20
0.0
 11
1.0
 21
1.0
 12
344.1869158878504
 22
148.5
 13
0.0
 23
0.0
 14
10.0
 24
10.0
 15
10.0
 25
10.0
 16
0.0
 26
0.0
 36
1.0
 17
0.0
 27
0.0
 37
0.0
 40
297.0
 41
1.972972972850329
 42
50.0
 43
0.0
 44
0.0
 50
0.0
 51
0.0
 71
     0
 72
   100
 73
     1
 74
     3
 75
     0
 76
     0
 77
     0
 78
     0
281
     0
 65
     1
110
0.0
120
0.0
130
0.0
111
1.0
121
0.0
131
0.0
112
0.0
122
1.0
132
0.0
 79
     0
146
0.0
  0
ENDTAB
  0
TABLE
  2
LTYPE
  5
5
330
0
100
AcDbSymbolTable
 70
     5
  0
LTYPE
  5
14
330
5
100
AcDbSymbolTableRecord
100
AcDbLinetypeTableRecord
  2
ByBlock
 70
     0
  3

 72
    65
 73
     0
 40
0.0
  0
LTYPE
  5
15
330
5
100
AcDbSymbolTableRecord
100
AcDbLinetypeTableRecord
  2
ByLayer
 70
     0
  3

 72
    65
 73
     0
 40
0.0
  0
LTYPE
  5
16
330
5
100
AcDbSymbolTableRecord
100
AcDbLinetypeTableRecord
  2
Continuous
 70
     0
  3
Solid line
 72
    65
 73
     0
 40
0.0
  0
LTYPE
  5
40
330
5
100
AcDbSymbolTableRecord
100
AcDbLinetypeTableRecord
  2
CONTINOUS
 70
     0
  3
______________________________
 72
    65
 73
     0
 40
0.0
  0
LTYPE
  5
41
330
5
100
AcDbSymbolTableRecord
100
AcDbLinetypeTableRecord
  2
DASHED
 70
     0
  3
__ __ __ __ __ __ __ __ __ __ __ __ __ __ __ __
 72
    65
 73
     2
 40
4.5
 49
3.0
 74
     0
 49
-1.5
 74
     0
  0
LTYPE
  5
42
330
5
100
AcDbSymbolTableRecord
100
AcDbLinetypeTableRecord
  2
PHANTOM
 70
     0
  3
______  __  __  ______  __  __  _____
 72
    65
 73
     6
 40
15.0
 49
7.5
 74
     0
 49
-1.5
 74
     0
 49
1.5
 74
     0
 49
-1.5
 74
     0
 49
1.5
 74
     0
 49
-1.5
 74
     0
  0
LTYPE
  5
43
330
5
100
AcDbSymbolTableRecord
100
AcDbLinetypeTableRecord
  2
CENTER
 70
     0
  3
____ _ ____ _ ____ _ ____ _ ____ _ ____
 72
    65
 73
     4
 40
12.0
 49
7.5
 74
     0
 49
-1.5
 74
     0
 49
1.5
 74
     0
 49
-1.5
 74
     0
  0
ENDTAB
  0
TABLE
  2
LAYER
  5
2
330
0
100
AcDbSymbolTable
 70
     6
  0
LAYER
  5
10
330
2
100
AcDbSymbolTableRecord
100
AcDbLayerTableRecord
  2
0
 70
     0
 62
     7
  6
Continuous
370
    -3
390
F
  0
LAYER
  5
44
330
2
100
AcDbSymbolTableRecord
100
AcDbLayerTableRecord
  2
VIEW0001
 70
     0
 62
     7
  6
Continuous
370
    -3
390
F
  0
LAYER
  5
5C
330
2
100
AcDbSymbolTableRecord
100
AcDbLayerTableRecord
  2
VIEW0002
 70
     0
 62
     7
  6
Continuous
370
    -3
390
F
  0
LAYER
  5
88
330
2
100
AcDbSymbolTableRecord
100
AcDbLayerTableRecord
  2
Defpoints
 70
     0
 62
     7
  6
Continuous
290
     0
370
    -3
390
F
  0
LAYER
  5
95
330
2
100
AcDbSymbolTableRecord
100
AcDbLayerTableRecord
  2
VIEW0003
 70
     0
 62
     7
  6
Continuous
370
    -3
390
F
  0
LAYER
  5
128
330
2
100
AcDbSymbolTableRecord
100
AcDbLayerTableRecord
  2
VIEW0004
 70
     0
 62
     7
  6
Continuous
370
    -3
390
F
  0
ENDTAB
  0
TABLE
  2
STYLE
  5
3
330
0
100
AcDbSymbolTable
 70
     1
  0
STYLE
  5
11
330
3
100
AcDbSymbolTableRecord
100
AcDbTextStyleTableRecord
  2
Standard
 70
     0
 40
0.0
 41
1.0
 50
0.0
 71
     0
 42
2.5
  3
ROMANS
  4
BIGFONT
  0
ENDTAB
  0
TABLE
  2
VIEW
  5
6
330
0
100
AcDbSymbolTable
 70
     0
  0
ENDTAB
  0
TABLE
  2
UCS
  5
7
330
0
100
AcDbSymbolTable
 70
     0
  0
ENDTAB
  0
TABLE
  2
APPID
  5
9
330
0
100
AcDbSymbolTable
 70
     1
  0
APPID
  5
12
330
9
100
AcDbSymbolTableRecord
100
AcDbRegAppTableRecord
  2
ACAD
 70
     0
  0
ENDTAB
  0
TABLE
  2
DIMSTYLE
  5
A
330
0
100
AcDbSymbolTable
 70
     1
100
AcDbDimStyleTable
  0
DIMSTYLE
105
27
102
{ACAD_REACTORS
330
81
330
CC
330
D9
330
E6
330
F3
330
107
330
11B
330
144
330
150
102
}
330
A
100
AcDbSymbolTableRecord
100
AcDbDimStyleTableRecord
  2
ISO-25
 70
     0
 41
2.5
 42
0.625
 43
3.75
 44
1.25
 73
     0
 74
     0
 77
     1
 78
     8
140
2.5
141
2.5
143
0.03937007874016
147
0.625
171
     3
172
     1
178
     0
271
     2
272
     2
274
     3
278
    44
283
     0
284
     8
340
11
  0
ENDTAB
  0
TABLE
  2
BLOCK_RECORD
  5
1
330
0
100
AcDbSymbolTable
 70
    11
  0
BLOCK_RECORD
  5
1F
330
1
100
AcDbSymbolTableRecord
100
AcDbBlockTableRecord
  2
*Model_Space
340
22
  0
BLOCK_RECORD
  5
1B
330
1
100
AcDbSymbolTableRecord
100
AcDbBlockTableRecord
  2
*Paper_Space
340
1E
  0
BLOCK_RECORD
  5
23
330
1
100
AcDbSymbolTableRecord
100
AcDbBlockTableRecord
  2
*Paper_Space0
340
26
  0
BLOCK_RECORD
  5
82
330
1
100
AcDbSymbolTableRecord
100
AcDbBlockTableRecord
  2
_OPEN30
340
0
102
{BLKREFS
331
90
331
8F
331
D4
331
D3
331
E1
331
E0
331
EE
331
ED
331
0
331
0
331
0
331
0
331
123
331
122
331
14B
331
14A
331
158
331
157
102
}
  0
BLOCK_RECORD
  5
89
330
1
100
AcDbSymbolTableRecord
100
AcDbBlockTableRecord
  2
*D2
340
0
  0
BLOCK_RECORD
  5
CD
330
1
100
AcDbSymbolTableRecord
100
AcDbBlockTableRecord
  2
*D3
340
0
  0
BLOCK_RECORD
  5
DA
330
1
100
AcDbSymbolTableRecord
100
AcDbBlockTableRecord
  2
*D4
340
0
  0
BLOCK_RECORD
  5
E7
330
1
100
AcDbSymbolTableRecord
100
AcDbBlockTableRecord
  2
*D5
340
0
  0
BLOCK_RECORD
  5
F4
330
1
100
AcDbSymbolTableRecord
100
AcDbBlockTableRecord
  2
*D6
340
0
  0
BLOCK_RECORD
  5
108
330
1
100
AcDbSymbolTableRecord
100
AcDbBlockTableRecord
  2
*D7
340
0
  0
BLOCK_RECORD
  5
11C
330
1
100
AcDbSymbolTableRecord
100
AcDbBlockTableRecord
  2
*D8
340
0
  0
BLOCK_RECORD
  5
145
330
1
100
AcDbSymbolTableRecord
100
AcDbBlockTableRecord
  2
*D9
340
0
  0
BLOCK_RECORD
  5
151
330
1
100
AcDbSymbolTableRecord
100
AcDbBlockTableRecord
  2
*D10
340
0
  0
ENDTAB
  0
ENDSEC
  0
SECTION
  2
BLOCKS
  0
BLOCK
  5
20
330
1F
100
AcDbEntity
  8
0
100
AcDbBlockBegin
  2
*Model_Space
 70
     0
 10
0.0
 20
0.0
 30
0.0
  3
*Model_Space
  1

  0
ENDBLK
  5
21
330
1F
100
AcDbEntity
  8
0
100
AcDbBlockEnd
  0
BLOCK
  5
1C
330
1B
100
AcDbEntity
 67
     1
  8
0
100
AcDbBlockBegin
  2
*Paper_Space
 70
     0
 10
0.0
 20
0.0
 30
0.0
  3
*Paper_Space
  1

  0
ENDBLK
  5
1D
330
1B
100
AcDbEntity
 67
     1
  8
0
100
AcDbBlockEnd
  0
BLOCK
  5
24
330
23
100
AcDbEntity
  8
0
100
AcDbBlockBegin
  2
*Paper_Space0
 70
     0
 10
0.0
 20
0.0
 30
0.0
  3
*Paper_Space0
  1

  0
ENDBLK
  5
25
330
23
100
AcDbEntity
  8
0
100
AcDbBlockEnd
  0
BLOCK
  5
83
330
82
100
AcDbEntity
  8
0
100
AcDbBlockBegin
  2
_OPEN30
 70
     0
 10
0.0
 20
0.0
 30
0.0
  3
_OPEN30
  1

  0
LINE
  5
85
330
82
100
AcDbEntity
  8
0
  6
ByBlock
 62
     0
370
    -2
100
AcDbLine
 10
-1.0
 20
0.267949
 30
0.0
 11
0.0
 21
0.0
 31
0.0
  0
LINE
  5
86
330
82
100
AcDbEntity
  8
0
  6
ByBlock
 62
     0
370
    -2
100
AcDbLine
 10
0.0
 20
0.0
 30
0.0
 11
-1.0
 21
-0.267949
 31
0.0
  0
LINE
  5
87
330
82
100
AcDbEntity
  8
0
  6
ByBlock
 62
     0
370
    -2
100
AcDbLine
 10
0.0
 20
0.0
 30
0.0
 11
-1.0
 21
0.0
 31
0.0
  0
ENDBLK
  5
84
330
82
100
AcDbEntity
  8
0
100
AcDbBlockEnd
  0
BLOCK
  5
8A
330
89
100
AcDbEntity
  8
0
100
AcDbBlockBegin
  2
*D2
 70
     1
 10
0.0
 20
0.0
 30
0.0
  3
*D2
  1

  0
LINE
  5
8C
330
89
100
AcDbEntity
  8
0
 62
     0
370
    -2
100
AcDbLine
 10
-48.76193908691406
 20
84.04081726074219
 30
0.0
 11
-57.71993908691407
 21
84.04081726074219
 31
0.0
  0
LINE
  5
8D
330
89
100
AcDbEntity
  8
0
 62
     0
370
    -2
100
AcDbLine
 10
-48.76193908691406
 20
49.04081630706787
 30
0.0
 11
-57.71993908691406
 21
49.04081630706787
 31
0.0
  0
LINE
  5
8E
330
89
100
AcDbEntity
  8
0
 62
     0
370
    -2
100
AcDbLine
 10
-56.71993908691407
 20
81.04081726074219
 30
0.0
 11
-56.71993908691406
 21
52.04081630706787
 31
0.0
  0
INSERT
  5
8F
330
89
100
AcDbEntity
  8
0
 62
     0
370
    -2
100
AcDbBlockReference
  2
_OPEN30
 10
-56.71993908691407
 20
84.04081726074219
 30
0.0
 41
3.0
 42
3.0
 43
3.0
 50
90.00000000000001
  0
INSERT
  5
90
330
89
100
AcDbEntity
  8
0
 62
     0
370
    -2
100
AcDbBlockReference
  2
_OPEN30
 10
-56.71993908691406
 20
49.04081630706787
 30
0.0
 41
3.0
 42
3.0
 43
3.0
 50
270.0
  0
MTEXT
  5
91
330
89
100
AcDbEntity
  8
0
 62
     1
100
AcDbMText
 10
-59.13433912289143
 20
66.54181726074219
 30
0.0
 40
3.200000047683716
 41
0.0
 71
     5
 72
     1
  1
70
 11
-4.060244093710557E-16
 21
1.0
 31
0.0
 73
     1
 44
1.0
  0
POINT
  5
92
330
89
100
AcDbEntity
  8
Defpoints
 62
     0
100
AcDbPoint
 10
-46.22193908691406
 20
84.04081726074219
 30
0.0
  0
POINT
  5
93
330
89
100
AcDbEntity
  8
Defpoints
 62
     0
100
AcDbPoint
 10
-46.22193908691406
 20
49.04081630706787
 30
0.0
  0
POINT
  5
94
330
89
100
AcDbEntity
  8
Defpoints
 62
     0
100
AcDbPoint
 10
-56.72193908691406
 20
49.04081630706786
 30
0.0
  0
ENDBLK
  5
8B
330
89
100
AcDbEntity
  8
0
100
AcDbBlockEnd
  0
BLOCK
  5
CE
330
CD
100
AcDbEntity
  8
0
100
AcDbBlockBegin
  2
*D3
 70
     1
 10
0.0
 20
0.0
 30
0.0
  3
*D3
  1

  0
LINE
  5
D0
330
CD
100
AcDbEntity
  8
0
 62
     0
370
    -2
100
AcDbLine
 10
-48.26193908691406
 20
-11.30612182617188
 30
0.0
 11
-57.71993908691407
 21
-11.30612182617188
 31
0.0
  0
LINE
  5
D1
330
CD
100
AcDbEntity
  8
0
 62
     0
370
    -2
100
AcDbLine
 10
-36.32199768066406
 20
-48.80612182617188
 30
0.0
 11
-57.71993908691406
 21
-48.80612182617189
 31
0.0
  0
LINE
  5
D2
330
CD
100
AcDbEntity
  8
0
 62
     0
370
    -2
100
AcDbLine
 10
-56.71993908691407
 20
-14.30612182617188
 30
0.0
 11
-56.71993908691406
 21
-45.80612182617189
 31
0.0
  0
INSERT
  5
D3
330
CD
100
AcDbEntity
  8
0
 62
     0
370
    -2
100
AcDbBlockReference
  2
_OPEN30
 10
-56.71993908691407
 20
-11.30612182617188
 30
0.0
 41
3.0
 42
3.0
 43
3.0
 50
90.00000000000001
  0
INSERT
  5
D4
330
CD
100
AcDbEntity
  8
0
 62
     0
370
    -2
100
AcDbBlockReference
  2
_OPEN30
 10
-56.71993908691406
 20
-48.80612182617189
 30
0.0
 41
3.0
 42
3.0
 43
3.0
 50
270.0
  0
MTEXT
  5
D5
330
CD
100
AcDbEntity
  8
0
 62
     1
100
AcDbMText
 10
-59.13433912289143
 20
-30.05512182617187
 30
0.0
 40
3.200000047683716
 41
0.0
 71
     5
 72
     1
  1
75
 11
-3.789561257387201E-16
 21
1.0
 31
0.0
 73
     1
 44
1.0
  0
POINT
  5
D6
330
CD
100
AcDbEntity
  8
Defpoints
 62
     0
100
AcDbPoint
 10
-45.72193908691406
 20
-11.30612182617188
 30
0.0
  0
POINT
  5
D7
330
CD
100
AcDbEntity
  8
Defpoints
 62
     0
100
AcDbPoint
 10
-33.78199768066406
 20
-48.80612182617188
 30
0.0
  0
POINT
  5
D8
330
CD
100
AcDbEntity
  8
Defpoints
 62
     0
100
AcDbPoint
 10
-56.72193908691406
 20
-48.80612182617188
 30
0.0
  0
ENDBLK
  5
CF
330
CD
100
AcDbEntity
  8
0
100
AcDbBlockEnd
  0
BLOCK
  5
DB
330
DA
100
AcDbEntity
  8
0
100
AcDbBlockBegin
  2
*D4
 70
     1
 10
0.0
 20
0.0
 30
0.0
  3
*D4
  1

  0
LINE
  5
DD
330
DA
100
AcDbEntity
  8
0
 62
     0
370
    -2
100
AcDbLine
 10
-33.78199768066406
 20
-51.34612182617187
 30
0.0
 11
-33.78199768066406
 21
-60.80512182617187
 31
0.0
  0
LINE
  5
DE
330
DA
100
AcDbEntity
  8
0
 62
     0
370
    -2
100
AcDbLine
 10
9.218000411987305
 20
-51.34612182617187
 30
0.0
 11
9.218000411987306
 21
-60.80512182617188
 31
0.0
  0
LINE
  5
DF
330
DA
100
AcDbEntity
  8
0
 62
     0
370
    -2
100
AcDbLine
 10
-30.78199768066406
 20
-59.80512182617187
 30
0.0
 11
6.218000411987306
 21
-59.80512182617188
 31
0.0
  0
INSERT
  5
E0
330
DA
100
AcDbEntity
  8
0
 62
     0
370
    -2
100
AcDbBlockReference
  2
_OPEN30
 10
-33.78199768066406
 20
-59.80512182617187
 30
0.0
 41
3.0
 42
3.0
 43
3.0
 50
180.0
  0
INSERT
  5
E1
330
DA
100
AcDbEntity
  8
0
 62
     0
370
    -2
100
AcDbBlockReference
  2
_OPEN30
 10
9.218000411987306
 20
-59.80512182617188
 30
0.0
 41
3.0
 42
3.0
 43
3.0
 50
360.0
  0
MTEXT
  5
E2
330
DA
100
AcDbEntity
  8
0
 62
     1
100
AcDbMText
 10
-12.2809995880127
 20
-57.39072179019451
 30
0.0
 40
3.200000047683716
 41
0.0
 71
     5
 72
     1
  1
86
 73
     1
 44
1.0
  0
POINT
  5
E3
330
DA
100
AcDbEntity
  8
Defpoints
 62
     0
100
AcDbPoint
 10
-33.78199768066406
 20
-48.80612182617188
 30
0.0
  0
POINT
  5
E4
330
DA
100
AcDbEntity
  8
Defpoints
 62
     0
100
AcDbPoint
 10
9.218000411987305
 20
-48.80612182617188
 30
0.0
  0
POINT
  5
E5
330
DA
100
AcDbEntity
  8
Defpoints
 62
     0
100
AcDbPoint
 10
9.218000411987303
 20
-59.80612182617188
 30
0.0
  0
ENDBLK
  5
DC
330
DA
100
AcDbEntity
  8
0
100
AcDbBlockEnd
  0
BLOCK
  5
E8
330
E7
100
AcDbEntity
  8
0
100
AcDbBlockBegin
  2
*D5
 70
     1
 10
0.0
 20
0.0
 30
0.0
  3
*D5
  1

  0
LINE
  5
EA
330
E7
100
AcDbEntity
  8
0
 62
     0
370
    -2
100
AcDbLine
 10
17.06402973175049
 20
-23.80612182617188
 30
0.0
 11
26.52502877807617
 21
-23.80612182617188
 31
0.0
  0
LINE
  5
EB
330
E7
100
AcDbEntity
  8
0
 62
     0
370
    -2
100
AcDbLine
 10
11.7580004119873
 20
-48.80612182617188
 30
0.0
 11
26.52502877807618
 21
-48.80612182617188
 31
0.0
  0
LINE
  5
EC
330
E7
100
AcDbEntity
  8
0
 62
     0
370
    -2
100
AcDbLine
 10
25.52502877807617
 20
-26.80612182617188
 30
0.0
 11
25.52502877807618
 21
-45.80612182617188
 31
0.0
  0
INSERT
  5
ED
330
E7
100
AcDbEntity
  8
0
 62
     0
370
    -2
100
AcDbBlockReference
  2
_OPEN30
 10
25.52502877807617
 20
-23.80612182617188
 30
0.0
 41
3.0
 42
3.0
 43
3.0
 50
90.00000000000001
  0
INSERT
  5
EE
330
E7
100
AcDbEntity
  8
0
 62
     0
370
    -2
100
AcDbBlockReference
  2
_OPEN30
 10
25.52502877807618
 20
-48.80612182617188
 30
0.0
 41
3.0
 42
3.0
 43
3.0
 50
270.0
  0
MTEXT
  5
EF
330
E7
100
AcDbEntity
  8
0
 62
     1
100
AcDbMText
 10
23.11062874209881
 20
-36.30512182617188
 30
0.0
 40
3.200000047683716
 41
0.0
 71
     5
 72
     1
  1
50
 11
-4.263256414560602E-16
 21
1.0
 31
0.0
 73
     1
 44
1.0
  0
POINT
  5
F0
330
E7
100
AcDbEntity
  8
Defpoints
 62
     0
100
AcDbPoint
 10
14.52402973175049
 20
-23.80612182617188
 30
0.0
  0
POINT
  5
F1
330
E7
100
AcDbEntity
  8
Defpoints
 62
     0
100
AcDbPoint
 10
9.218000411987305
 20
-48.80612182617188
 30
0.0
  0
POINT
  5
F2
330
E7
100
AcDbEntity
  8
Defpoints
 62
     0
100
AcDbPoint
 10
25.52402877807617
 20
-48.80612182617187
 30
0.0
  0
ENDBLK
  5
E9
330
E7
100
AcDbEntity
  8
0
100
AcDbBlockEnd
  0
BLOCK
  5
F5
330
F4
100
AcDbEntity
  8
0
100
AcDbBlockBegin
  2
*D6
 70
     1
 10
0.0
 20
0.0
 30
0.0
  3
*D6
  1

  0
MTEXT
  5
FD
330
F4
100
AcDbEntity
  8
0
 62
     1
100
AcDbMText
 10
-42.97093908691406
 20
2.093878209590912
 30
0.0
 40
3.200000047683716
 41
0.0
 71
     5
 72
     1
  1
11
 73
     1
 44
1.0
  0
POINT
  5
FE
330
F4
100
AcDbEntity
  8
Defpoints
 62
     0
100
AcDbPoint
 10
-45.72193908691406
 20
-11.30612182617188
 30
0.0
  0
POINT
  5
FF
330
F4
100
AcDbEntity
  8
Defpoints
 62
     0
100
AcDbPoint
 10
-40.22193908691406
 20
-11.30612182617188
 30
0.0
  0
POINT
  5
100
330
F4
100
AcDbEntity
  8
Defpoints
 62
     0
100
AcDbPoint
 10
-40.22193908691406
 20
-0.306121826171875
 30
0.0
  0
LINE
  5
101
330
F4
100
AcDbEntity
  8
0
  6
Continuous
 62
     7
100
AcDbLine
 10
-40.22193908691406
 20
-8.766121826171876
 30
0.0
 11
-40.22193908691406
 21
0.693878173828125
 31
0.0
  0
LINE
  5
102
330
F4
100
AcDbEntity
  8
0
  6
Continuous
 62
     7
100
AcDbLine
 10
-52.07193908691406
 20
-0.306121826171875
 30
0.0
 11
-33.87193908691406
 21
-0.306121826171875
 31
0.0
  0
LINE
  5
103
330
F4
100
AcDbEntity
  8
0
  6
Continuous
 62
     7
100
AcDbLine
 10
-45.72193908691406
 20
-0.306121826171875
 30
0.0
 11
-48.77646474891969
 21
-1.124579510471875
 31
0.0
  0
LINE
  5
104
330
F4
100
AcDbEntity
  8
0
  6
Continuous
 62
     7
100
AcDbLine
 10
-45.72193908691406
 20
-0.306121826171875
 30
0.0
 11
-48.77646474891969
 21
0.512335858128125
 31
0.0
  0
LINE
  5
105
330
F4
100
AcDbEntity
  8
0
  6
Continuous
 62
     7
100
AcDbLine
 10
-40.22193908691406
 20
-0.306121826171875
 30
0.0
 11
-37.16741342490844
 21
0.512335858128125
 31
0.0
  0
LINE
  5
106
330
F4
100
AcDbEntity
  8
0
  6
Continuous
 62
     7
100
AcDbLine
 10
-40.22193908691406
 20
-0.306121826171875
 30
0.0
 11
-37.16741342490844
 21
-1.124579510471875
 31
0.0
  0
ENDBLK
  5
F6
330
F4
100
AcDbEntity
  8
0
100
AcDbBlockEnd
  0
BLOCK
  5
109
330
108
100
AcDbEntity
  8
0
100
AcDbBlockBegin
  2
*D7
 70
     1
 10
0.0
 20
0.0
 30
0.0
  3
*D7
  1

  0
MTEXT
  5
111
330
108
100
AcDbEntity
  8
0
 62
     1
100
AcDbMText
 10
12.52502973175049
 20
-10.39172179019451
 30
0.0
 40
3.200000047683716
 41
0.0
 71
     5
 72
     1
  1
8
 73
     1
 44
1.0
  0
POINT
  5
112
330
108
100
AcDbEntity
  8
Defpoints
 62
     0
100
AcDbPoint
 10
10.52402973175049
 20
-23.80612182617188
 30
0.0
  0
POINT
  5
113
330
108
100
AcDbEntity
  8
Defpoints
 62
     0
100
AcDbPoint
 10
14.52402973175049
 20
-23.80612182617188
 30
0.0
  0
POINT
  5
114
330
108
100
AcDbEntity
  8
Defpoints
 62
     0
100
AcDbPoint
 10
14.52402973175049
 20
-12.80612182617188
 30
0.0
  0
LINE
  5
115
330
108
100
AcDbEntity
  8
0
  6
Continuous
 62
     7
100
AcDbLine
 10
10.52402973175049
 20
-21.26612182617188
 30
0.0
 11
10.52402973175049
 21
-11.80612182617188
 31
0.0
  0
LINE
  5
116
330
108
100
AcDbEntity
  8
0
  6
Continuous
 62
     7
100
AcDbLine
 10
4.174029731750489
 20
-12.80612182617188
 30
0.0
 11
20.87402973175049
 21
-12.80612182617188
 31
0.0
  0
LINE
  5
117
330
108
100
AcDbEntity
  8
0
  6
Continuous
 62
     7
100
AcDbLine
 10
10.52402973175049
 20
-12.80612182617188
 30
0.0
 11
7.469504069744865
 21
-13.62457951047188
 31
0.0
  0
LINE
  5
118
330
108
100
AcDbEntity
  8
0
  6
Continuous
 62
     7
100
AcDbLine
 10
10.52402973175049
 20
-12.80612182617188
 30
0.0
 11
7.469504069744865
 21
-11.98766414187187
 31
0.0
  0
LINE
  5
119
330
108
100
AcDbEntity
  8
0
  6
Continuous
 62
     7
100
AcDbLine
 10
14.52402973175049
 20
-12.80612182617188
 30
0.0
 11
17.57855539375611
 21
-11.98766414187187
 31
0.0
  0
LINE
  5
11A
330
108
100
AcDbEntity
  8
0
  6
Continuous
 62
     7
100
AcDbLine
 10
14.52402973175049
 20
-12.80612182617188
 30
0.0
 11
17.57855539375611
 21
-13.62457951047188
 31
0.0
  0
ENDBLK
  5
10A
330
108
100
AcDbEntity
  8
0
100
AcDbBlockEnd
  0
BLOCK
  5
11D
330
11C
100
AcDbEntity
  8
0
100
AcDbBlockBegin
  2
*D8
 70
     1
 10
0.0
 20
0.0
 30
0.0
  3
*D8
  1

  0
LINE
  5
11F
330
11C
100
AcDbEntity
  8
0
 62
     0
370
    -2
100
AcDbLine
 10
-45.72193908691406
 20
-8.766121826171876
 30
0.0
 11
-45.72193908691406
 21
10.69387817382813
 31
0.0
  0
LINE
  5
120
330
11C
100
AcDbEntity
  8
0
 62
     0
370
    -2
100
AcDbLine
 10
14.52402973175049
 20
-21.26612182617188
 30
0.0
 11
14.5240297317505
 21
10.69387817382812
 31
0.0
  0
LINE
  5
121
330
11C
100
AcDbEntity
  8
0
 62
     0
370
    -2
100
AcDbLine
 10
-42.72193908691406
 20
9.693878173828129
 30
0.0
 11
11.5240297317505
 21
9.693878173828121
 31
0.0
  0
INSERT
  5
122
330
11C
100
AcDbEntity
  8
0
 62
     0
370
    -2
100
AcDbBlockReference
  2
_OPEN30
 10
-45.72193908691406
 20
9.693878173828129
 30
0.0
 41
3.0
 42
3.0
 43
3.0
 50
180.0
  0
INSERT
  5
123
330
11C
100
AcDbEntity
  8
0
 62
     0
370
    -2
100
AcDbBlockReference
  2
_OPEN30
 10
14.5240297317505
 20
9.693878173828121
 30
0.0
 41
3.0
 42
3.0
 43
3.0
 50
360.0
  0
MTEXT
  5
124
330
11C
100
AcDbEntity
  8
0
 62
     1
100
AcDbMText
 10
-15.59795515441895
 20
12.92747822201252
 30
0.0
 40
3.200000047683716
 41
0.0
 71
     5
 72
     1
  1
(120.5)
 73
     1
 44
1.0
  0
POINT
  5
125
330
11C
100
AcDbEntity
  8
Defpoints
 62
     0
100
AcDbPoint
 10
-45.72193908691406
 20
-11.30612182617188
 30
0.0
  0
POINT
  5
126
330
11C
100
AcDbEntity
  8
Defpoints
 62
     0
100
AcDbPoint
 10
14.52402973175049
 20
-23.80612182617188
 30
0.0
  0
POINT
  5
127
330
11C
100
AcDbEntity
  8
Defpoints
 62
     0
100
AcDbPoint
 10
14.52402973175049
 20
9.693878173828125
 30
0.0
  0
ENDBLK
  5
11E
330
11C
100
AcDbEntity
  8
0
100
AcDbBlockEnd
  0
BLOCK
  5
146
330
145
100
AcDbEntity
  8
0
100
AcDbBlockBegin
  2
*D9
 70
     1
 10
0.0
 20
0.0
 30
0.0
  3
*D9
  1

  0
LINE
  5
148
330
145
100
AcDbEntity
  8
0
 62
     0
370
    -2
100
AcDbLine
 10
53.87138748168945
 20
-7.266137084960937
 30
0.0
 11
53.87138748168945
 21
1.193864822387695
 31
0.0
  0
LINE
  5
149
330
145
100
AcDbEntity
  8
0
 62
     0
370
    -2
100
AcDbLine
 10
45.87138748168945
 20
0.193864822387696
 30
0.0
 11
50.87138748168945
 21
0.193864822387695
 31
0.0
  0
INSERT
  5
14A
330
145
100
AcDbEntity
  8
0
 62
     0
370
    -2
100
AcDbBlockReference
  2
_OPEN30
 10
42.87138748168945
 20
0.193864822387696
 30
0.0
 41
3.0
 42
3.0
 43
3.0
 50
180.0
  0
INSERT
  5
14B
330
145
100
AcDbEntity
  8
0
 62
     0
370
    -2
100
AcDbBlockReference
  2
_OPEN30
 10
53.87138748168945
 20
0.193864822387695
 30
0.0
 41
3.0
 42
3.0
 43
3.0
 50
360.0
  0
MTEXT
  5
14C
330
145
100
AcDbEntity
  8
0
 62
     1
100
AcDbMText
 10
48.37238748168945
 20
2.608264858365059
 30
0.0
 40
3.200000047683716
 41
0.0
 71
     5
 72
     1
  1
22
 73
     1
 44
1.0
  0
POINT
  5
14D
330
145
100
AcDbEntity
  8
Defpoints
 62
     0
100
AcDbPoint
 10
42.87138748168945
 20
-9.806133270263672
 30
0.0
  0
POINT
  5
14E
330
145
100
AcDbEntity
  8
Defpoints
 62
     0
100
AcDbPoint
 10
53.87138748168945
 20
-9.806137084960938
 30
0.0
  0
POINT
  5
14F
330
145
100
AcDbEntity
  8
Defpoints
 62
     0
100
AcDbPoint
 10
53.87138748168945
 20
0.193864822387695
 30
0.0
  0
ENDBLK
  5
147
330
145
100
AcDbEntity
  8
0
100
AcDbBlockEnd
  0
BLOCK
  5
152
330
151
100
AcDbEntity
  8
0
100
AcDbBlockBegin
  2
*D10
 70
     1
 10
0.0
 20
0.0
 30
0.0
  3
*D10
  1

  0
LINE
  5
154
330
151
100
AcDbEntity
  8
0
 62
     0
370
    -2
100
AcDbLine
 10
42.87138748168945
 20
-7.266133270263672
 30
0.0
 11
42.87138748168945
 21
11.1938648223877
 31
0.0
  0
LINE
  5
155
330
151
100
AcDbEntity
  8
0
 62
     0
370
    -2
100
AcDbLine
 10
77.87139129638672
 20
-7.266133270263672
 30
0.0
 11
77.87139129638672
 21
11.19386482238769
 31
0.0
  0
LINE
  5
156
330
151
100
AcDbEntity
  8
0
 62
     0
370
    -2
100
AcDbLine
 10
45.87138748168945
 20
10.1938648223877
 30
0.0
 11
74.87139129638672
 21
10.19386482238769
 31
0.0
  0
INSERT
  5
157
330
151
100
AcDbEntity
  8
0
 62
     0
370
    -2
100
AcDbBlockReference
  2
_OPEN30
 10
42.87138748168945
 20
10.1938648223877
 30
0.0
 41
3.0
 42
3.0
 43
3.0
 50
180.0
  0
INSERT
  5
158
330
151
100
AcDbEntity
  8
0
 62
     0
370
    -2
100
AcDbBlockReference
  2
_OPEN30
 10
77.87139129638672
 20
10.19386482238769
 30
0.0
 41
3.0
 42
3.0
 43
3.0
 50
360.0
  0
MTEXT
  5
159
330
151
100
AcDbEntity
  8
0
 62
     1
100
AcDbMText
 10
60.37239129638672
 20
12.60826485836506
 30
0.0
 40
3.200000047683716
 41
0.0
 71
     5
 72
     1
  1
70
 73
     1
 44
1.0
  0
POINT
  5
15A
330
151
100
AcDbEntity
  8
Defpoints
 62
     0
100
AcDbPoint
 10
42.87138748168945
 20
-9.806133270263672
 30
0.0
  0
POINT
  5
15B
330
151
100
AcDbEntity
  8
Defpoints
 62
     0
100
AcDbPoint
 10
77.87139129638672
 20
-9.806133270263672
 30
0.0
  0
POINT
  5
15C
330
151
100
AcDbEntity
  8
Defpoints
 62
     0
100
AcDbPoint
 10
77.87139129638672
 20
10.1938648223877
 30
0.0
  0
ENDBLK
  5
153
330
151
100
AcDbEntity
  8
0
100
AcDbBlockEnd
  0
ENDSEC
  0
SECTION
  2
ENTITIES
  0
POINT
  5
45
330
1F
100
AcDbEntity
  8
VIEW0001
 62
     7
100
AcDbPoint
 10
105.0
 20
-148.5
 30
0.0
  0
LWPOLYLINE
  5
46
330
1F
100
AcDbEntity
  8
VIEW0001
  6
Continuous
 62
     7
100
AcDbPolyline
 90
        2
 70
     0
 10
25.75
 20
-129.0
 40
0.001000000047497
 41
0.001000000047497
 10
25.75
 20
-120.0
 40
0.001000000047497
 41
0.001000000047497
  0
LWPOLYLINE
  5
47
330
1F
100
AcDbEntity
  8
VIEW0001
  6
Continuous
 62
     7
100
AcDbPolyline
 90
        2
 70
     0
 10
-64.5
 20
-138.0
 40
0.001000000047497
 41
0.001000000047497
 10
-64.5
 20
-120.0
 40
0.001000000047497
 41
0.001000000047497
  0
LINE
  5
48
330
1F
100
AcDbEntity
  8
VIEW0001
  6
Continuous
 62
     7
370
    50
100
AcDbLine
 10
-84.5
 20
138.0
 30
0.0
 11
-84.5
 21
-138.0
 31
0.0
  0
LINE
  5
49
330
1F
100
AcDbEntity
  8
VIEW0001
  6
Continuous
 62
     7
370
    50
100
AcDbLine
 10
96.0
 20
138.0
 30
0.0
 11
96.0
 21
-138.0
 31
0.0
  0
LINE
  5
4A
330
1F
100
AcDbEntity
  8
VIEW0001
  6
Continuous
 62
     7
370
    50
100
AcDbLine
 10
-84.5
 20
-138.0
 30
0.0
 11
96.0
 21
-138.0
 31
0.0
  0
LINE
  5
4B
330
1F
100
AcDbEntity
  8
VIEW0001
  6
Continuous
 62
     7
370
    50
100
AcDbLine
 10
-84.5
 20
138.0
 30
0.0
 11
96.0
 21
138.0
 31
0.0
  0
LINE
  5
4C
330
1F
100
AcDbEntity
  8
VIEW0001
  6
Continuous
 62
     7
370
    20
100
AcDbLine
 10
-84.5
 20
-120.0
 30
0.0
 11
96.0
 21
-120.0
 31
0.0
  0
LWPOLYLINE
  5
4D
330
1F
100
AcDbEntity
  8
VIEW0001
  6
Continuous
 62
     7
100
AcDbPolyline
 90
        2
 70
     0
 10
96.0
 20
-129.0
 40
0.001000000047497
 41
0.001000000047497
 10
-84.5
 20
-129.0
 40
0.001000000047497
 41
0.001000000047497
  0
LINE
  5
4E
330
1F
100
AcDbEntity
  8
VIEW0001
  6
Continuous
 62
     7
370
    20
100
AcDbLine
 10
41.0
 20
128.0
 30
0.0
 11
96.0
 21
128.0
 31
0.0
  0
LINE
  5
4F
330
1F
100
AcDbEntity
  8
VIEW0001
  6
Continuous
 62
     7
370
    20
100
AcDbLine
 10
41.0
 20
138.0
 30
0.0
 11
41.0
 21
128.0
 31
0.0
  0
LWPOLYLINE
  5
50
330
1F
100
AcDbEntity
  8
VIEW0001
  6
Continuous
 62
     7
100
AcDbPolyline
 90
        2
 70
     0
 10
5.75
 20
-138.0
 40
0.001000000047497
 41
0.001000000047497
 10
5.75
 20
-120.0
 40
0.001000000047497
 41
0.001000000047497
  0
LWPOLYLINE
  5
51
330
1F
100
AcDbEntity
  8
VIEW0001
  6
Continuous
 62
     7
100
AcDbPolyline
 90
        2
 70
     0
 10
66.0
 20
-129.0
 40
0.001000000047497
 41
0.001000000047497
 10
66.0
 20
-120.0
 40
0.001000000047497
 41
0.001000000047497
  0
LWPOLYLINE
  5
52
330
1F
100
AcDbEntity
  8
VIEW0001
  6
Continuous
 62
     7
100
AcDbPolyline
 90
        2
 70
     0
 10
81.0
 20
-129.0
 40
0.001000000047497
 41
0.001000000047497
 10
81.0
 20
-120.0
 40
0.001000000047497
 41
0.001000000047497
  0
MTEXT
  5
53
330
1F
100
AcDbEntity
  8
VIEW0001
 62
     1
100
AcDbMText
 10
-77.92875003814697
 20
-135.5
 30
0.0
 40
4.0
 41
0.0
 71
     7
 72
     1
  1
{\W0.833333;規格}
 73
     1
 44
1.0
  0
MTEXT
  5
54
330
1F
100
AcDbEntity
  8
VIEW0001
 62
     1
100
AcDbMText
 10
12.32124996185303
 20
-126.5
 30
0.0
 40
4.0
 41
0.0
 71
     7
 72
     1
  1
{\W0.833333;材質}
 73
     1
 44
1.0
  0
MTEXT
  5
55
330
1F
100
AcDbEntity
  8
VIEW0001
 62
     1
100
AcDbMText
 10
-77.92875003814697
 20
-126.5
 30
0.0
 40
4.0
 41
0.0
 71
     7
 72
     1
  1
{\W0.833333;品名}
 73
     1
 44
1.0
  0
MTEXT
  5
56
330
1F
100
AcDbEntity
  8
VIEW0001
 62
     1
100
AcDbMText
 10
70.07124996185303
 20
-126.5
 30
0.0
 40
4.0
 41
0.0
 71
     7
 72
     1
  1
{\W0.833333;尺度}
 73
     1
 44
1.0
  0
MTEXT
  5
57
330
1F
100
AcDbEntity
  8
VIEW0001
 62
     1
100
AcDbMText
 10
26.46785604953766
 20
-135.75
 30
0.0
 40
4.5
 41
0.0
 71
     7
 72
     1
  1
{\W1.40741;デンカ株式会社}
 73
     1
 44
1.0
  0
MTEXT
  5
58
330
1F
100
AcDbEntity
  8
VIEW0001
 62
     1
100
AcDbMText
 10
36.44624972343445
 20
-126.5
 30
0.0
 40
4.0
 41
0.0
 71
     7
 72
     1
  1
{\W0.833333;硬質PVC}
 73
     1
 44
1.0
  0
MTEXT
  5
59
330
1F
100
AcDbEntity
  8
VIEW0001
 62
     1
100
AcDbMText
 10
-44.80375045537949
 20
-126.5
 30
0.0
 40
4.0
 41
0.0
 71
     7
 72
     1
  1
{\W0.833333;スナップソケット}
 73
     1
 44
1.0
  0
MTEXT
  5
5A
330
1F
100
AcDbEntity
  8
VIEW0001
 62
     1
100
AcDbMText
 10
83.07124984264374
 20
-126.5
 30
0.0
 40
4.0
 41
0.0
 71
     7
 72
     1
  1
{\W0.833333;1/2}
 73
     1
 44
1.0
  0
MTEXT
  5
5B
330
1F
100
AcDbEntity
  8
VIEW0001
 62
     1
100
AcDbMText
 10
-36.80375021696091
 20
-135.5
 30
0.0
 40
4.0
 41
0.0
 71
     7
 72
     1
  1
{\W0.833333;DL55}
 73
     1
 44
1.0
  0
LINE
  5
5D
330
1F
100
AcDbEntity
  8
VIEW0002
  6
Continuous
 62
     7
100
AcDbLine
 10
-46.22193908691406
 20
49.04081630706787
 30
0.0
 11
15.02403163909912
 21
49.04081630706787
 31
0.0
  0
LINE
  5
5E
330
1F
100
AcDbEntity
  8
VIEW0002
  6
CENTER
 62
     7
100
AcDbLine
 10
-49.22193908691406
 20
66.54081726074219
 30
0.0
 11
18.0240306854248
 21
66.54081726074219
 31
0.0
  0
LINE
  5
5F
330
1F
100
AcDbEntity
  8
VIEW0002
  6
Continuous
 62
     7
100
AcDbLine
 10
-46.72193729436913
 20
51.04081574625864
 30
0.0
 11
-46.22193747992813
 21
49.04081648849463
 31
0.0
  0
LINE
  5
60
330
1F
100
AcDbEntity
  8
VIEW0002
  6
Continuous
 62
     7
100
AcDbLine
 10
-46.72193908691406
 20
51.04081630706787
 30
0.0
 11
-46.72193908691406
 21
82.04081726074219
 31
0.0
  0
LINE
  5
61
330
1F
100
AcDbEntity
  8
VIEW0002
  6
Continuous
 62
     7
100
AcDbLine
 10
-46.72194006996908
 20
82.0408171944007
 30
0.0
 11
-46.22194025552807
 21
84.04081645216472
 31
0.0
  0
LINE
  5
62
330
1F
100
AcDbEntity
  8
VIEW0002
  6
DASHED
 62
     7
100
AcDbLine
 10
-45.72193908691406
 20
49.04081630706787
 30
0.0
 11
-45.72193908691406
 21
61.54081726074219
 31
0.0
  0
LINE
  5
63
330
1F
100
AcDbEntity
  8
VIEW0002
  6
Continuous
 62
     7
100
AcDbLine
 10
-41.08797073364258
 20
84.04081726074219
 30
0.0
 11
-41.08797073364258
 21
73.04081726074219
 31
0.0
  0
LINE
  5
64
330
1F
100
AcDbEntity
  8
VIEW0002
  6
Continuous
 62
     7
100
AcDbLine
 10
-39.22194290161133
 20
84.04081726074219
 30
0.0
 11
-39.22194290161133
 21
73.04081726074219
 31
0.0
  0
LINE
  5
65
330
1F
100
AcDbEntity
  8
VIEW0002
  6
Continuous
 62
     7
100
AcDbLine
 10
-44.22193908691406
 20
60.04081630706787
 30
0.0
 11
-39.22194290161133
 21
60.04081630706787
 31
0.0
  0
LINE
  5
66
330
1F
100
AcDbEntity
  8
VIEW0002
  6
Continuous
 62
     7
100
AcDbLine
 10
-45.72193908691406
 20
61.54081726074219
 30
0.0
 11
-45.72193908691406
 21
71.54081726074219
 31
0.0
  0
LINE
  5
67
330
1F
100
AcDbEntity
  8
VIEW0002
  6
Continuous
 62
     7
100
AcDbLine
 10
-44.22193908691406
 20
73.04081726074219
 30
0.0
 11
-39.22194290161133
 21
73.04081726074219
 31
0.0
  0
LINE
  5
68
330
1F
100
AcDbEntity
  8
VIEW0002
  6
DASHED
 62
     7
100
AcDbLine
 10
-45.72193908691406
 20
71.54081726074219
 30
0.0
 11
-45.72193908691406
 21
84.04081726074219
 31
0.0
  0
LINE
  5
69
330
1F
100
AcDbEntity
  8
VIEW0002
  6
Continuous
 62
     7
100
AcDbLine
 10
-39.22194290161133
 20
60.04081630706787
 30
0.0
 11
-39.22194290161133
 21
49.04081630706787
 31
0.0
  0
LINE
  5
6A
330
1F
100
AcDbEntity
  8
VIEW0002
  6
Continuous
 62
     7
100
AcDbLine
 10
-41.08797073364258
 20
60.04081630706787
 30
0.0
 11
-41.08797073364258
 21
49.04081630706787
 31
0.0
  0
LINE
  5
6B
330
1F
100
AcDbEntity
  8
VIEW0002
  6
Continuous
 62
     7
100
AcDbLine
 10
-35.58849334716797
 20
84.04081726074219
 30
0.0
 11
-35.58849334716797
 21
49.04081630706787
 31
0.0
  0
LINE
  5
6C
330
1F
100
AcDbEntity
  8
VIEW0002
  6
Continuous
 62
     7
100
AcDbLine
 10
-28.28200340270996
 20
84.04081726074219
 30
0.0
 11
-28.28200340270996
 21
49.04081630706787
 31
0.0
  0
LINE
  5
6D
330
1F
100
AcDbEntity
  8
VIEW0002
  6
Continuous
 62
     7
100
AcDbLine
 10
15.52403140589813
 20
51.04081667145863
 30
0.0
 11
15.02403136015713
 21
49.04081648849463
 31
0.0
  0
LINE
  5
6E
330
1F
100
AcDbEntity
  8
VIEW0002
  6
Continuous
 62
     7
100
AcDbLine
 10
15.52403163909912
 20
51.04081630706787
 30
0.0
 11
15.52403163909912
 21
82.04081726074219
 31
0.0
  0
LINE
  5
6F
330
1F
100
AcDbEntity
  8
VIEW0002
  6
Continuous
 62
     7
100
AcDbLine
 10
15.02403163909912
 20
84.04081726074219
 30
0.0
 11
-46.22193908691406
 21
84.04081726074219
 31
0.0
  0
LINE
  5
70
330
1F
100
AcDbEntity
  8
VIEW0002
  6
Continuous
 62
     7
100
AcDbLine
 10
15.52403233109812
 20
82.04081580660073
 30
0.0
 11
15.02403205405712
 21
84.04081691476473
 31
0.0
  0
LINE
  5
71
330
1F
100
AcDbEntity
  8
VIEW0002
  6
DASHED
 62
     7
100
AcDbLine
 10
14.52403163909912
 20
49.04081630706787
 30
0.0
 11
14.52403163909912
 21
61.54081726074219
 31
0.0
  0
LINE
  5
72
330
1F
100
AcDbEntity
  8
VIEW0002
  6
Continuous
 62
     7
100
AcDbLine
 10
9.89006233215332
 20
84.04081726074219
 30
0.0
 11
9.89006233215332
 21
73.04081726074219
 31
0.0
  0
LINE
  5
73
330
1F
100
AcDbEntity
  8
VIEW0002
  6
Continuous
 62
     7
100
AcDbLine
 10
8.02403736114502
 20
84.04081726074219
 30
0.0
 11
8.02403736114502
 21
73.04081726074219
 31
0.0
  0
LINE
  5
74
330
1F
100
AcDbEntity
  8
VIEW0002
  6
Continuous
 62
     7
100
AcDbLine
 10
13.02403163909912
 20
60.04081630706787
 30
0.0
 11
8.02403736114502
 21
60.04081630706787
 31
0.0
  0
LINE
  5
75
330
1F
100
AcDbEntity
  8
VIEW0002
  6
Continuous
 62
     7
100
AcDbLine
 10
14.52403163909912
 20
61.54081726074219
 30
0.0
 11
14.52403163909912
 21
71.54081726074219
 31
0.0
  0
LINE
  5
76
330
1F
100
AcDbEntity
  8
VIEW0002
  6
Continuous
 62
     7
100
AcDbLine
 10
13.02403163909912
 20
73.04081726074219
 30
0.0
 11
8.02403736114502
 21
73.04081726074219
 31
0.0
  0
LINE
  5
77
330
1F
100
AcDbEntity
  8
VIEW0002
  6
DASHED
 62
     7
100
AcDbLine
 10
14.52403163909912
 20
71.54081726074219
 30
0.0
 11
14.52403163909912
 21
84.04081726074219
 31
0.0
  0
LINE
  5
78
330
1F
100
AcDbEntity
  8
VIEW0002
  6
Continuous
 62
     7
100
AcDbLine
 10
8.02403736114502
 20
60.04081630706787
 30
0.0
 11
8.02403736114502
 21
49.04081630706787
 31
0.0
  0
LINE
  5
79
330
1F
100
AcDbEntity
  8
VIEW0002
  6
Continuous
 62
     7
100
AcDbLine
 10
9.89006233215332
 20
60.04081630706787
 30
0.0
 11
9.89006233215332
 21
49.04081630706787
 31
0.0
  0
LINE
  5
7A
330
1F
100
AcDbEntity
  8
VIEW0002
  6
Continuous
 62
     7
100
AcDbLine
 10
-40.42194366455078
 20
72.04081726074219
 30
0.0
 11
-40.42194366455078
 21
61.04081726074219
 31
0.0
  0
LINE
  5
7B
330
1F
100
AcDbEntity
  8
VIEW0002
  6
Continuous
 62
     7
100
AcDbLine
 10
-39.70016098022461
 20
72.04081726074219
 30
0.0
 11
-39.70016098022461
 21
61.04081726074219
 31
0.0
  0
LINE
  5
7C
330
1F
100
AcDbEntity
  8
VIEW0002
  6
Continuous
 62
     7
100
AcDbLine
 10
10.92403125762939
 20
72.04081726074219
 30
0.0
 11
10.92403125762939
 21
61.04081726074219
 31
0.0
  0
ARC
  5
7D
330
1F
100
AcDbEntity
  8
VIEW0002
  6
Continuous
 62
     7
100
AcDbCircle
 10
-44.22193908691406
 20
61.54081726074219
 30
0.0
 40
1.5
100
AcDbArc
 50
179.9999949910437
 51
269.9999974955218
  0
ARC
  5
7E
330
1F
100
AcDbEntity
  8
VIEW0002
  6
Continuous
 62
     7
100
AcDbCircle
 10
-44.22193908691406
 20
71.54081726074219
 30
0.0
 40
1.5
100
AcDbArc
 50
90.00000250447816
 51
180.0000050089563
  0
ARC
  5
7F
330
1F
100
AcDbEntity
  8
VIEW0002
  6
Continuous
 62
     7
100
AcDbCircle
 10
13.02403163909912
 20
71.54081726074219
 30
0.0
 40
1.5
100
AcDbArc
 50
0.0
 51
90.00000250447816
  0
ARC
  5
80
330
1F
100
AcDbEntity
  8
VIEW0002
  6
Continuous
 62
     7
100
AcDbCircle
 10
13.02403163909912
 20
61.54081726074219
 30
0.0
 40
1.5
100
AcDbArc
 50
269.9999974955218
 51
0.0
  0
DIMENSION
  5
81
330
1F
100
AcDbEntity
  8
VIEW0002
 62
     7
100
AcDbDimension
  2
*D2
 10
-56.71993908691406
 20
49.04081630706787
 30
0.0
 11
-56.71993908691407
 21
66.54181726074219
 31
0.0
 70
   160
  1
70
 71
     5
 42
35.00000095367432
  3
ISO-25
100
AcDbAlignedDimension
 13
-46.22193908691406
 23
84.04081726074219
 33
0.0
 14
-46.22193908691406
 24
49.04081630706787
 34
0.0
 50
90.00000000000001
100
AcDbRotatedDimension
1001
ACAD
1000
DSTYLE
1002
{
1070
   178
1070
     1
1070
   278
1070
    46
1070
   147
1040
0.800000011920929
1070
    77
1070
     1
1070
    74
1070
     0
1070
    73
1070
     0
1070
    42
1040
2.54
1070
    44
1040
1.0
1070
    76
1070
     0
1070
    75
1070
     0
1070
   279
1070
     0
1070
   271
1070
     0
1070
   173
1070
     1
1070
    41
1040
3.0
1070
   140
1040
3.200000047683716
1070
   344
1005
82
1070
   343
1005
82
1002
}
  0
LINE
  5
96
330
1F
100
AcDbEntity
  8
VIEW0003
  6
Continuous
 62
     7
100
AcDbLine
 10
-27.2819995880127
 20
-49.80612182617188
 30
0.0
 11
5.552675724029541
 21
-49.80612182617188
 31
0.0
  0
LINE
  5
97
330
1F
100
AcDbEntity
  8
VIEW0003
  6
Continuous
 62
     7
100
AcDbLine
 10
-33.78199768066406
 20
-48.80612182617188
 30
0.0
 11
-28.22625923156738
 21
-48.80612182617188
 31
0.0
  0
LINE
  5
98
330
1F
100
AcDbEntity
  8
VIEW0003
  6
Continuous
 62
     7
100
AcDbLine
 10
-28.2819995880127
 20
-45.30443572998047
 30
0.0
 11
-28.2819995880127
 21
-47.80612182617188
 31
0.0
  0
LINE
  5
99
330
1F
100
AcDbEntity
  8
VIEW0003
  6
Continuous
 62
     7
100
AcDbLine
 10
9.217999557253162
 20
-48.80612540578242
 30
0.0
 11
9.372300835952963
 21
-47.04245371471175
 31
0.0
  0
LINE
  5
9A
330
1F
100
AcDbEntity
  8
VIEW0003
  6
Continuous
 62
     7
100
AcDbLine
 10
10.5336487240636
 20
-45.24189985206444
 30
0.0
 11
11.78046218291588
 21
-30.99075676399047
 31
0.0
  0
LINE
  5
9B
330
1F
100
AcDbEntity
  8
VIEW0003
  6
Continuous
 62
     7
100
AcDbLine
 10
11.38219547271729
 20
-29.30612182617188
 30
0.0
 11
14.27402973175049
 21
-29.30612182617188
 31
0.0
  0
LINE
  5
9C
330
1F
100
AcDbEntity
  8
VIEW0003
  6
Continuous
 62
     7
100
AcDbLine
 10
10.52402973175049
 20
-23.80612182617188
 30
0.0
 11
14.52402973175049
 21
-23.80612182617188
 31
0.0
  0
LINE
  5
9D
330
1F
100
AcDbEntity
  8
VIEW0003
  6
Continuous
 62
     7
100
AcDbLine
 10
11.39005470275879
 20
-22.80612182617188
 30
0.0
 11
14.52402973175049
 21
-22.80612182617188
 31
0.0
  0
LINE
  5
9E
330
1F
100
AcDbEntity
  8
VIEW0003
  6
Continuous
 62
     7
100
AcDbLine
 10
12.52760887145996
 20
-30.30612182617188
 30
0.0
 11
14.52402973175049
 21
-30.30612182617188
 31
0.0
  0
LINE
  5
9F
330
1F
100
AcDbEntity
  8
VIEW0003
  6
Continuous
 62
     7
100
AcDbLine
 10
14.52402973175049
 20
-23.80612182617188
 30
0.0
 11
14.52402973175049
 21
-29.05612182617188
 31
0.0
  0
LINE
  5
A0
330
1F
100
AcDbEntity
  8
VIEW0003
  6
Continuous
 62
     7
100
AcDbLine
 10
15.52402973175049
 20
-23.80612182617188
 30
0.0
 11
15.52402973175049
 21
-29.30612182617188
 31
0.0
  0
LINE
  5
A1
330
1F
100
AcDbEntity
  8
VIEW0003
  6
Continuous
 62
     7
100
AcDbLine
 10
10.52402973175049
 20
-23.80612182617188
 30
0.0
 11
10.52402973175049
 21
-24.30612182617188
 31
0.0
  0
LINE
  5
A2
330
1F
100
AcDbEntity
  8
VIEW0003
  6
Continuous
 62
     7
100
AcDbLine
 10
-29.2819995880127
 20
-46.21773529052734
 30
0.0
 11
-29.2819995880127
 21
-47.80612182617188
 31
0.0
  0
LINE
  5
A3
330
1F
100
AcDbEntity
  8
VIEW0003
  6
Continuous
 62
     7
100
AcDbLine
 10
-33.78199926038881
 20
-48.80611935734039
 30
0.0
 11
-34.39062923743764
 21
-41.84944686633406
 31
0.0
  0
LINE
  5
A4
330
1F
100
AcDbEntity
  8
VIEW0003
  6
Continuous
 62
     7
100
AcDbLine
 10
-35.60732918756399
 20
-39.41621603793443
 30
0.0
 11
-36.49314370994919
 21
-29.2913096869668
 31
0.0
  0
LINE
  5
A5
330
1F
100
AcDbEntity
  8
VIEW0003
  6
Continuous
 62
     7
100
AcDbLine
 10
-45.47193908691406
 20
-18.80612182617188
 30
0.0
 11
-40.88010406494141
 21
-18.80612182617188
 31
0.0
  0
LINE
  5
A6
330
1F
100
AcDbEntity
  8
VIEW0003
  6
Continuous
 62
     7
100
AcDbLine
 10
-45.72193908691406
 20
-11.30612182617188
 30
0.0
 11
-40.22193908691406
 21
-11.30612182617188
 31
0.0
  0
LINE
  5
A7
330
1F
100
AcDbEntity
  8
VIEW0003
  6
Continuous
 62
     7
100
AcDbLine
 10
-45.72193908691406
 20
-10.30612182617188
 30
0.0
 11
-41.08796310424805
 21
-10.30612182617188
 31
0.0
  0
LINE
  5
A8
330
1F
100
AcDbEntity
  8
VIEW0003
  6
Continuous
 62
     7
100
AcDbLine
 10
-39.71541360689938
 20
-26.88173596042441
 30
0.0
 11
-40.38200655464698
 21
-19.26254368077342
 31
0.0
  0
LINE
  5
A9
330
1F
100
AcDbEntity
  8
VIEW0003
  6
Continuous
 62
     7
100
AcDbLine
 10
-40.65058126524233
 20
-27.66643396141979
 30
0.0
 11
-41.27837164817493
 21
-20.49075702838046
 31
0.0
  0
LINE
  5
AA
330
1F
100
AcDbEntity
  8
VIEW0003
  6
Continuous
 62
     7
100
AcDbLine
 10
-39.5310696380462
 20
-27.10142861999656
 30
0.0
 11
-35.92666522897454
 21
-28.0672258786973
 31
0.0
  0
LINE
  5
AB
330
1F
100
AcDbEntity
  8
VIEW0003
  6
Continuous
 62
     7
100
AcDbLine
 10
-45.72193908691406
 20
-19.80612182617188
 30
0.0
 11
-42.02551651000977
 21
-19.80612182617188
 31
0.0
  0
LINE
  5
AC
330
1F
100
AcDbEntity
  8
VIEW0003
  6
Continuous
 62
     7
100
AcDbLine
 10
-40.46623831708438
 20
-27.88612710655254
 30
0.0
 11
-36.86183206565541
 21
-28.85192485891143
 31
0.0
  0
LINE
  5
AD
330
1F
100
AcDbEntity
  8
VIEW0003
  6
Continuous
 62
     7
100
AcDbLine
 10
-45.72193908691406
 20
-11.30612182617188
 30
0.0
 11
-45.72193908691406
 21
-18.55612182617188
 31
0.0
  0
LINE
  5
AE
330
1F
100
AcDbEntity
  8
VIEW0003
  6
Continuous
 62
     7
100
AcDbLine
 10
-46.72193908691406
 20
-11.30612182617188
 30
0.0
 11
-46.72193908691406
 21
-18.80612182617188
 31
0.0
  0
LINE
  5
AF
330
1F
100
AcDbEntity
  8
VIEW0003
  6
Continuous
 62
     7
100
AcDbLine
 10
-40.22193908691406
 20
-11.30612182617188
 30
0.0
 11
-40.22193908691406
 21
-11.80612182617188
 31
0.0
  0
LINE
  5
B0
330
1F
100
AcDbEntity
  8
VIEW0003
  6
Continuous
 62
     7
100
AcDbLine
 10
-34.61113448945015
 20
-39.32906029543928
 30
0.0
 11
-35.55797605160623
 21
-28.50661168597142
 31
0.0
  0
LINE
  5
B1
330
1F
100
AcDbEntity
  8
VIEW0003
  6
Continuous
 62
     7
100
AcDbLine
 10
-27.2819995880127
 20
-48.80612182617188
 30
0.0
 11
5.552675724029541
 21
-48.80612182617188
 31
0.0
  0
LINE
  5
B2
330
1F
100
AcDbEntity
  8
VIEW0003
  6
Continuous
 62
     7
100
AcDbLine
 10
7.340281963348389
 20
-48.80612182617188
 30
0.0
 11
9.218000411987305
 21
-48.80612182617188
 31
0.0
  0
LINE
  5
B3
330
1F
100
AcDbEntity
  8
VIEW0003
  6
Continuous
 62
     7
100
AcDbLine
 10
9.537454025949769
 20
-45.15474410956929
 30
0.0
 11
10.88409708938793
 21
-29.76254341638343
 31
0.0
  0
ARC
  5
B4
330
1F
100
AcDbEntity
  8
VIEW0003
  6
Continuous
 62
     7
100
AcDbCircle
 10
11.38219547271729
 20
-29.80612182617188
 30
0.0
 40
0.5
100
AcDbArc
 50
90.00000250447816
 51
175.0000060081835
  0
ARC
  5
B5
330
1F
100
AcDbEntity
  8
VIEW0003
  6
Continuous
 62
     7
100
AcDbCircle
 10
12.52760887145996
 20
-31.05612182617188
 30
0.0
 40
0.75
100
AcDbArc
 50
90.00000250447816
 51
175.0000060081835
  0
ARC
  5
B6
330
1F
100
AcDbEntity
  8
VIEW0003
  6
Continuous
 62
     7
100
AcDbCircle
 10
14.52402973175049
 20
-29.30612182617188
 30
0.0
 40
1.0
100
AcDbArc
 50
269.9999974955218
 51
0.0
  0
ARC
  5
B7
330
1F
100
AcDbEntity
  8
VIEW0003
  6
Continuous
 62
     7
100
AcDbCircle
 10
14.52402973175049
 20
-23.80612182617188
 30
0.0
 40
1.0
100
AcDbArc
 50
0.0
 51
90.00000250447816
  0
ARC
  5
B8
330
1F
100
AcDbEntity
  8
VIEW0003
  6
Continuous
 62
     7
100
AcDbCircle
 10
14.27402973175049
 20
-29.05612182617188
 30
0.0
 40
0.25
100
AcDbArc
 50
269.9999974955218
 51
0.0
  0
ARC
  5
B9
330
1F
100
AcDbEntity
  8
VIEW0003
  6
Continuous
 62
     7
100
AcDbCircle
 10
10.52402973175049
 20
-23.30612182617188
 30
0.0
 40
1.0
100
AcDbArc
 50
30.00000083482606
 51
270.0000006832453
  0
ARC
  5
BA
330
1F
100
AcDbEntity
  8
VIEW0003
  6
Continuous
 62
     7
100
AcDbCircle
 10
5.552675724029541
 20
-44.80612182617188
 30
0.0
 40
4.0
100
AcDbArc
 50
269.9999974955218
 51
355.0000001454536
  0
ARC
  5
BB
330
1F
100
AcDbEntity
  8
VIEW0003
  6
Continuous
 62
     7
100
AcDbCircle
 10
5.552675724029541
 20
-44.80612182617188
 30
0.0
 40
5.0
100
AcDbArc
 50
269.9999974955218
 51
355.0000001454536
  0
ARC
  5
BC
330
1F
100
AcDbEntity
  8
VIEW0003
  6
Continuous
 62
     7
100
AcDbCircle
 10
-28.63396644592285
 20
-38.80612182617188
 30
0.0
 40
6.0
100
AcDbArc
 50
184.9999939918165
 51
268.6950215526992
  0
ARC
  5
BD
330
1F
100
AcDbEntity
  8
VIEW0003
  6
Continuous
 62
     7
100
AcDbCircle
 10
-28.63396644592285
 20
-38.80612182617188
 30
0.0
 40
7.0
100
AcDbArc
 50
184.9999939918165
 51
261.195064032675
  0
ARC
  5
BE
330
1F
100
AcDbEntity
  8
VIEW0003
  6
Continuous
 62
     7
100
AcDbCircle
 10
-28.7819995880127
 20
-45.30443572998047
 30
0.0
 40
0.5
100
AcDbArc
 50
0.0
 51
88.69501973146636
  0
ARC
  5
BF
330
1F
100
AcDbEntity
  8
VIEW0003
  6
Continuous
 62
     7
100
AcDbCircle
 10
-29.7819995880127
 20
-46.21773529052734
 30
0.0
 40
0.5
100
AcDbArc
 50
0.0
 51
81.19506221144216
  0
ARC
  5
C0
330
1F
100
AcDbEntity
  8
VIEW0003
  6
Continuous
 62
     7
100
AcDbCircle
 10
-27.2819995880127
 20
-47.80612182617188
 30
0.0
 40
1.0
100
AcDbArc
 50
179.9999949910437
 51
269.9999974955218
  0
ARC
  5
C1
330
1F
100
AcDbEntity
  8
VIEW0003
  6
Continuous
 62
     7
100
AcDbCircle
 10
-27.2819995880127
 20
-47.80612182617188
 30
0.0
 40
2.0
100
AcDbArc
 50
179.9999949910437
 51
269.9999974955218
  0
ARC
  5
C2
330
1F
100
AcDbEntity
  8
VIEW0003
  6
Continuous
 62
     7
100
AcDbCircle
 10
-36.05607223510742
 20
-28.55018997192383
 30
0.0
 40
0.5
100
AcDbArc
 50
4.99999985454646
 51
74.99999867197056
  0
ARC
  5
C3
330
1F
100
AcDbEntity
  8
VIEW0003
  6
Continuous
 62
     7
100
AcDbCircle
 10
-39.46636581420898
 20
-26.85994720458984
 30
0.0
 40
0.25
100
AcDbArc
 50
184.9999939918165
 51
255.0000004932034
  0
ARC
  5
C4
330
1F
100
AcDbEntity
  8
VIEW0003
  6
Continuous
 62
     7
100
AcDbCircle
 10
-42.02551651000977
 20
-20.55612182617188
 30
0.0
 40
0.75
100
AcDbArc
 50
4.99999985454646
 51
90.00000250447816
  0
ARC
  5
C5
330
1F
100
AcDbEntity
  8
VIEW0003
  6
Continuous
 62
     7
100
AcDbCircle
 10
-40.88010406494141
 20
-19.30612182617188
 30
0.0
 40
0.5
100
AcDbArc
 50
4.99999985454646
 51
90.00000250447816
  0
ARC
  5
C6
330
1F
100
AcDbEntity
  8
VIEW0003
  6
Continuous
 62
     7
100
AcDbCircle
 10
-36.99124145507812
 20
-29.33488845825195
 30
0.0
 40
0.5
100
AcDbArc
 50
4.99999985454646
 51
74.99999867197056
  0
ARC
  5
C7
330
1F
100
AcDbEntity
  8
VIEW0003
  6
Continuous
 62
     7
100
AcDbCircle
 10
-40.40153121948242
 20
-27.64464569091797
 30
0.0
 40
0.25
100
AcDbArc
 50
184.9999939918165
 51
255.0000004932034
  0
ARC
  5
C8
330
1F
100
AcDbEntity
  8
VIEW0003
  6
Continuous
 62
     7
100
AcDbCircle
 10
-45.47193908691406
 20
-18.55612182617188
 30
0.0
 40
0.25
100
AcDbArc
 50
179.9999949910437
 51
269.9999974955218
  0
ARC
  5
C9
330
1F
100
AcDbEntity
  8
VIEW0003
  6
Continuous
 62
     7
100
AcDbCircle
 10
-45.72193908691406
 20
-18.80612182617188
 30
0.0
 40
1.0
100
AcDbArc
 50
179.9999949910437
 51
269.9999974955218
  0
ARC
  5
CA
330
1F
100
AcDbEntity
  8
VIEW0003
  6
Continuous
 62
     7
100
AcDbCircle
 10
-45.72193908691406
 20
-11.30612182617188
 30
0.0
 40
1.0
100
AcDbArc
 50
90.00000250447816
 51
180.0000050089563
  0
ARC
  5
CB
330
1F
100
AcDbEntity
  8
VIEW0003
  6
Continuous
 62
     7
100
AcDbCircle
 10
-40.22193908691406
 20
-10.80612182617188
 30
0.0
 40
1.0
100
AcDbArc
 50
269.9999974955218
 51
149.9999973439411
  0
DIMENSION
  5
CC
330
1F
100
AcDbEntity
  8
VIEW0003
 62
     7
100
AcDbDimension
  2
*D3
 10
-56.71993908691406
 20
-48.80612182617189
 30
0.0
 11
-56.71993908691407
 21
-30.05512182617187
 31
0.0
 70
   160
  1
75
 71
     5
 42
37.50000000000001
  3
ISO-25
100
AcDbAlignedDimension
 13
-45.72193908691406
 23
-11.30612182617188
 33
0.0
 14
-33.78199768066406
 24
-48.80612182617188
 34
0.0
 50
90.00000000000001
100
AcDbRotatedDimension
1001
ACAD
1000
DSTYLE
1002
{
1070
   178
1070
     1
1070
   278
1070
    46
1070
   147
1040
0.800000011920929
1070
    77
1070
     1
1070
    74
1070
     0
1070
    73
1070
     0
1070
    42
1040
2.54
1070
    44
1040
1.0
1070
    76
1070
     0
1070
    75
1070
     0
1070
   279
1070
     0
1070
   271
1070
     0
1070
   173
1070
     1
1070
    41
1040
3.0
1070
   140
1040
3.200000047683716
1070
   344
1005
82
1070
   343
1005
82
1002
}
  0
DIMENSION
  5
D9
330
1F
100
AcDbEntity
  8
VIEW0003
 62
     7
100
AcDbDimension
  2
*D4
 10
9.218000411987306
 20
-59.80512182617188
 30
0.0
 11
-12.2809995880127
 21
-59.80512182617188
 31
0.0
 70
   160
  1
86
 71
     5
 42
42.99999809265137
  3
ISO-25
100
AcDbAlignedDimension
 13
-33.78199768066406
 23
-48.80612182617188
 33
0.0
 14
9.218000411987305
 24
-48.80612182617188
 34
0.0
 50
180.0
100
AcDbRotatedDimension
1001
ACAD
1000
DSTYLE
1002
{
1070
   178
1070
     1
1070
   278
1070
    46
1070
   147
1040
0.800000011920929
1070
    77
1070
     1
1070
    74
1070
     0
1070
    73
1070
     0
1070
    42
1040
2.54
1070
    44
1040
1.0
1070
    76
1070
     0
1070
    75
1070
     0
1070
   279
1070
     0
1070
   271
1070
     0
1070
   173
1070
     1
1070
    41
1040
3.0
1070
   140
1040
3.200000047683716
1070
   344
1005
82
1070
   343
1005
82
1002
}
  0
DIMENSION
  5
E6
330
1F
100
AcDbEntity
  8
VIEW0003
 62
     7
100
AcDbDimension
  2
*D5
 10
25.52502877807618
 20
-48.80612182617188
 30
0.0
 11
25.52502877807617
 21
-36.30512182617188
 31
0.0
 70
   160
  1
50
 71
     5
 42
25.0
  3
ISO-25
100
AcDbAlignedDimension
 13
14.52402973175049
 23
-23.80612182617188
 33
0.0
 14
9.218000411987305
 24
-48.80612182617188
 34
0.0
 50
90.00000000000001
100
AcDbRotatedDimension
1001
ACAD
1000
DSTYLE
1002
{
1070
   178
1070
     1
1070
   278
1070
    46
1070
   147
1040
0.800000011920929
1070
    77
1070
     1
1070
    74
1070
     0
1070
    73
1070
     0
1070
    42
1040
2.54
1070
    44
1040
1.0
1070
    76
1070
     0
1070
    75
1070
     0
1070
   279
1070
     0
1070
   271
1070
     0
1070
   173
1070
     1
1070
    41
1040
3.0
1070
   140
1040
3.200000047683716
1070
   344
1005
82
1070
   343
1005
82
1002
}
  0
DIMENSION
  5
F3
330
1F
100
AcDbEntity
  8
VIEW0003
 62
     7
100
AcDbDimension
  2
*D6
 10
-40.22193908691406
 20
-0.306121826171875
 30
0.0
 11
-42.97093908691406
 21
-0.306121826171875
 31
0.0
 70
   160
  1
11
 71
     5
 42
5.5
  3
ISO-25
100
AcDbAlignedDimension
 13
-45.72193908691406
 23
-11.30612182617188
 33
0.0
 14
-40.22193908691406
 24
-11.30612182617188
 34
0.0
 50
180.0
100
AcDbRotatedDimension
1001
ACAD
1000
DSTYLE
1002
{
1070
   178
1070
     1
1070
   278
1070
    46
1070
   147
1040
0.800000011920929
1070
    77
1070
     1
1070
    74
1070
     0
1070
    73
1070
     0
1070
    42
1040
2.54
1070
    44
1040
1.0
1070
    76
1070
     0
1070
    75
1070
     1
1070
   279
1070
     0
1070
   271
1070
     0
1070
   173
1070
     1
1070
    41
1040
3.0
1070
   140
1040
3.200000047683716
1070
   344
1005
82
1070
   343
1005
82
1002
}
  0
DIMENSION
  5
107
330
1F
100
AcDbEntity
  8
VIEW0003
 62
     7
100
AcDbDimension
  2
*D7
 10
14.52402973175049
 20
-12.80612182617188
 30
0.0
 11
12.52502973175049
 21
-12.80612182617188
 31
0.0
 70
   160
  1
8
 71
     5
 42
4.0
  3
ISO-25
100
AcDbAlignedDimension
 13
10.52402973175049
 23
-23.80612182617188
 33
0.0
 14
14.52402973175049
 24
-23.80612182617188
 34
0.0
 50
180.0
100
AcDbRotatedDimension
1001
ACAD
1000
DSTYLE
1002
{
1070
   178
1070
     1
1070
   278
1070
    46
1070
   147
1040
0.800000011920929
1070
    77
1070
     1
1070
    74
1070
     0
1070
    73
1070
     0
1070
    42
1040
2.54
1070
    44
1040
1.0
1070
    76
1070
     1
1070
    75
1070
     0
1070
   279
1070
     0
1070
   271
1070
     0
1070
   173
1070
     1
1070
    41
1040
3.0
1070
   140
1040
3.200000047683716
1070
   344
1005
82
1070
   343
1005
82
1002
}
  0
DIMENSION
  5
11B
330
1F
100
AcDbEntity
  8
VIEW0003
 62
     7
100
AcDbDimension
  2
*D8
 10
14.5240297317505
 20
9.693878173828121
 30
0.0
 11
-15.59795515441895
 21
9.693878173828125
 31
0.0
 70
   160
  1
(120.5)
 71
     5
 42
60.24596881866455
  3
ISO-25
100
AcDbAlignedDimension
 13
-45.72193908691406
 23
-11.30612182617188
 33
0.0
 14
14.52402973175049
 24
-23.80612182617188
 34
0.0
 50
180.0
100
AcDbRotatedDimension
1001
ACAD
1000
DSTYLE
1002
{
1070
   178
1070
     1
1070
   278
1070
    46
1070
   147
1040
0.800000011920929
1070
    77
1070
     1
1070
    74
1070
     0
1070
    73
1070
     0
1070
    42
1040
2.54
1070
    44
1040
1.0
1070
    76
1070
     0
1070
    75
1070
     0
1070
   279
1070
     0
1070
   271
1070
     1
1070
   173
1070
     1
1070
    41
1040
3.0
1070
   140
1040
3.200000047683716
1070
   344
1005
82
1070
   343
1005
82
1002
}
  0
LINE
  5
129
330
1F
100
AcDbEntity
  8
VIEW0004
  6
Continuous
 62
     7
100
AcDbLine
 10
75.87138982051135
 20
-49.80612322928124
 30
0.0
 11
44.87138982051133
 21
-49.80612265599017
 31
0.0
  0
LINE
  5
12A
330
1F
100
AcDbEntity
  8
VIEW0004
  6
Continuous
 62
     7
100
AcDbLine
 10
42.87138894831906
 20
-49.30612103333967
 30
0.0
 11
42.87138821783514
 21
-9.806136292128746
 31
0.0
  0
LINE
  5
12B
330
1F
100
AcDbEntity
  8
VIEW0004
  6
Continuous
 62
     7
100
AcDbLine
 10
75.87139031982923
 20
-22.80613085867579
 30
0.0
 11
44.87139031982922
 21
-22.80613028538472
 31
0.0
  0
LINE
  5
12C
330
1F
100
AcDbEntity
  8
VIEW0004
  6
Continuous
 62
     7
100
AcDbLine
 10
75.87139018112973
 20
-30.3061308586758
 30
0.0
 11
44.87139018112976
 21
-30.30613028538473
 31
0.0
  0
LINE
  5
12D
330
1F
100
AcDbEntity
  8
VIEW0004
  6
Continuous
 62
     7
100
AcDbLine
 10
53.87138845824759
 20
-22.80613227400551
 30
0.0
 11
53.87138844900095
 21
-22.30613227400551
 31
0.0
  0
LINE
  5
12E
330
1F
100
AcDbEntity
  8
VIEW0004
  6
Continuous
 62
     7
100
AcDbLine
 10
53.87139032907584
 20
-22.30613045182406
 30
0.0
 11
42.87139032907584
 21
-22.3061302483982
 31
0.0
  0
LINE
  5
12F
330
1F
100
AcDbEntity
  8
VIEW0004
  6
Continuous
 62
     7
100
AcDbLine
 10
42.87138957072192
 20
-29.80612798152869
 30
0.0
 11
44.87138697808597
 21
-30.3061273333697
 31
0.0
  0
LINE
  5
130
330
1F
100
AcDbEntity
  8
VIEW0004
  6
Continuous
 62
     7
100
AcDbLine
 10
44.87138895756569
 20
-49.80612099635313
 30
0.0
 11
44.87138845824759
 21
-22.80613244044493
 31
0.0
  0
LINE
  5
131
330
1F
100
AcDbEntity
  8
VIEW0004
  6
Continuous
 62
     7
100
AcDbLine
 10
42.87138842425286
 20
-49.30611997668742
 30
0.0
 11
44.87138952518872
 21
-49.80612028264093
 31
0.0
  0
LINE
  5
132
330
1F
100
AcDbEntity
  8
VIEW0004
  6
Continuous
 62
     7
100
AcDbLine
 10
42.87138880011519
 20
-23.30613008835519
 30
0.0
 11
44.87138806510733
 21
-22.80613030282667
 31
0.0
  0
LINE
  5
133
330
1F
100
AcDbEntity
  8
VIEW0004
  6
Continuous
 62
     7
100
AcDbLine
 10
66.87139055099486
 20
-10.30613450693372
 30
0.0
 11
53.87138673629763
 21
-10.30613426652126
 31
0.0
  0
LINE
  5
134
330
1F
100
AcDbEntity
  8
VIEW0004
  6
Continuous
 62
     7
100
AcDbLine
 10
53.87138674554426
 20
-9.806134266521264
 30
0.0
 11
42.87138674554426
 21
-9.806134063095401
 31
0.0
  0
LINE
  5
135
330
1F
100
AcDbEntity
  8
VIEW0004
  6
Continuous
 62
     7
100
AcDbLine
 10
53.87138670855774
 20
-11.80613426652126
 30
0.0
 11
42.87138670855774
 21
-11.8061340630954
 31
0.0
  0
LINE
  5
136
330
1F
100
AcDbEntity
  8
VIEW0004
  6
Continuous
 62
     7
100
AcDbLine
 10
53.87138748168945
 20
-11.80613327026367
 30
0.0
 11
53.87138748168945
 21
-9.806137084960938
 31
0.0
  0
LINE
  5
137
330
1F
100
AcDbEntity
  8
VIEW0004
  6
DASHED
 62
     7
100
AcDbLine
 10
53.87138671780437
 20
-11.30613426652126
 30
0.0
 11
42.87138671780437
 21
-11.3061340630954
 31
0.0
  0
LINE
  5
138
330
1F
100
AcDbEntity
  8
VIEW0004
  6
Continuous
 62
     7
100
AcDbLine
 10
77.8713927630163
 20
-49.30612038607512
 30
0.0
 11
77.87139203253238
 21
-9.806135644864193
 31
0.0
  0
LINE
  5
139
330
1F
100
AcDbEntity
  8
VIEW0004
  6
Continuous
 62
     7
100
AcDbLine
 10
66.8713922729448
 20
-22.8061320335929
 30
0.0
 11
66.87139226369816
 21
-22.3061320335929
 31
0.0
  0
LINE
  5
13A
330
1F
100
AcDbEntity
  8
VIEW0004
  6
Continuous
 62
     7
100
AcDbLine
 10
66.87139419832054
 20
-22.30612956025204
 30
0.0
 11
77.87139419832052
 21
-22.30612894997422
 31
0.0
  0
LINE
  5
13B
330
1F
100
AcDbEntity
  8
VIEW0004
  6
Continuous
 62
     7
100
AcDbLine
 10
77.87139490370916
 20
-29.80613015554365
 30
0.0
 11
75.87139751802945
 21
-30.30612959412205
 31
0.0
  0
LINE
  5
13C
330
1F
100
AcDbEntity
  8
VIEW0004
  6
Continuous
 62
     7
100
AcDbLine
 10
75.87139277226294
 20
-49.80612042306166
 30
0.0
 11
75.87139227294485
 21
-22.80613186715347
 31
0.0
  0
LINE
  5
13D
330
1F
100
AcDbEntity
  8
VIEW0004
  6
Continuous
 62
     7
100
AcDbLine
 10
77.87139689586849
 20
-49.30612040521451
 30
0.0
 11
75.87139581661702
 21
-49.80612079790558
 31
0.0
  0
LINE
  5
13E
330
1F
100
AcDbEntity
  8
VIEW0004
  6
Continuous
 62
     7
100
AcDbLine
 10
77.87139369661243
 20
-23.30613210521059
 30
0.0
 11
75.87139256676406
 21
-22.80613191490714
 31
0.0
  0
LINE
  5
13F
330
1F
100
AcDbEntity
  8
VIEW0004
  6
Continuous
 62
     7
100
AcDbLine
 10
66.87139350482323
 20
-9.806133374949306
 30
0.0
 11
77.8713935048232
 21
-9.806132764671483
 31
0.0
  0
LINE
  5
140
330
1F
100
AcDbEntity
  8
VIEW0004
  6
Continuous
 62
     7
100
AcDbLine
 10
66.87139361578284
 20
-11.80613337494932
 30
0.0
 11
77.87139361578281
 21
-11.8061327646715
 31
0.0
  0
LINE
  5
141
330
1F
100
AcDbEntity
  8
VIEW0004
  6
Continuous
 62
     7
100
AcDbLine
 10
66.87139284265115
 20
-11.8061346116194
 30
0.0
 11
66.87139276867806
 21
-9.806134611619402
 31
0.0
  0
LINE
  5
142
330
1F
100
AcDbEntity
  8
VIEW0004
  6
DASHED
 62
     7
100
AcDbLine
 10
66.87139358804293
 20
-11.30613337494932
 30
0.0
 11
77.8713935880429
 21
-11.30613276467149
 31
0.0
  0
LINE
  5
143
330
1F
100
AcDbEntity
  8
VIEW0004
  6
Continuous
 62
     7
100
AcDbLine
 10
77.87139802319673
 20
-18.80613471035971
 30
0.0
 11
42.87138657910492
 21
-18.80613406309539
 31
0.0
  0
DIMENSION
  5
144
330
1F
100
AcDbEntity
  8
VIEW0004
 62
     7
100
AcDbDimension
  2
*D9
 10
53.87138748168945
 20
0.193864822387695
 30
0.0
 11
48.37238748168945
 21
0.193864822387695
 31
0.0
 70
   160
  1
22
 71
     5
 42
11.0
  3
ISO-25
100
AcDbAlignedDimension
 13
42.87138748168945
 23
-9.806133270263672
 33
0.0
 14
53.87138748168945
 24
-9.806137084960938
 34
0.0
 50
180.0
100
AcDbRotatedDimension
1001
ACAD
1000
DSTYLE
1002
{
1070
   178
1070
     1
1070
   278
1070
    46
1070
   147
1040
0.800000011920929
1070
    77
1070
     1
1070
    74
1070
     0
1070
    73
1070
     0
1070
    42
1040
2.54
1070
    44
1040
1.0
1070
    76
1070
     0
1070
    75
1070
     1
1070
   279
1070
     0
1070
   271
1070
     0
1070
   173
1070
     1
1070
    41
1040
3.0
1070
   140
1040
3.200000047683716
1070
   344
1005
82
1070
   343
1005
82
1002
}
  0
DIMENSION
  5
150
330
1F
100
AcDbEntity
  8
VIEW0004
 62
     7
100
AcDbDimension
  2
*D10
 10
77.87139129638672
 20
10.19386482238769
 30
0.0
 11
60.37239129638672
 21
10.1938648223877
 31
0.0
 70
   160
  1
70
 71
     5
 42
35.00000381469727
  3
ISO-25
100
AcDbAlignedDimension
 13
42.87138748168945
 23
-9.806133270263672
 33
0.0
 14
77.87139129638672
 24
-9.806133270263672
 34
0.0
 50
180.0
100
AcDbRotatedDimension
1001
ACAD
1000
DSTYLE
1002
{
1070
   178
1070
     1
1070
   278
1070
    46
1070
   147
1040
0.800000011920929
1070
    77
1070
     1
1070
    74
1070
     0
1070
    73
1070
     0
1070
    42
1040
2.54
1070
    44
1040
1.0
1070
    76
1070
     0
1070
    75
1070
     0
1070
   279
1070
     0
1070
   271
1070
     0
1070
   173
1070
     1
1070
    41
1040
3.0
1070
   140
1040
3.200000047683716
1070
   344
1005
82
1070
   343
1005
82
1002
}
  0
ENDSEC
  0
SECTION
  2
OBJECTS
  0
DICTIONARY
  5
C
330
0
100
AcDbDictionary
281
     1
  3
ACAD_GROUP
350
D
  3
ACAD_LAYOUT
350
1A
  3
ACAD_MATERIAL
350
3B
  3
ACAD_MLEADERSTYLE
350
184
  3
ACAD_MLINESTYLE
350
17
  3
ACAD_PLOTSETTINGS
350
19
  3
ACAD_PLOTSTYLENAME
350
E
  3
ACAD_TABLESTYLE
350
183
  3
ACAD_VISUALSTYLE
350
2A
  0
DICTIONARY
  5
D
102
{ACAD_REACTORS
330
C
102
}
330
C
100
AcDbDictionary
281
     1
  0
DICTIONARY
  5
1A
102
{ACAD_REACTORS
330
C
102
}
330
C
100
AcDbDictionary
281
     1
  3
Layout1
350
1E
  3
Layout2
350
26
  3
Model
350
22
  0
DICTIONARY
  5
3B
102
{ACAD_REACTORS
330
C
102
}
330
C
100
AcDbDictionary
281
     1
  3
ByBlock
350
3D
  3
ByLayer
350
3C
  3
Global
350
3E
  0
DICTIONARY
  5
184
102
{ACAD_REACTORS
330
C
102
}
330
C
100
AcDbDictionary
281
     1
  0
DICTIONARY
  5
17
102
{ACAD_REACTORS
330
C
102
}
330
C
100
AcDbDictionary
281
     1
  3
Standard
350
18
  0
DICTIONARY
  5
19
102
{ACAD_REACTORS
330
C
102
}
330
C
100
AcDbDictionary
281
     1
  0
ACDBDICTIONARYWDFLT
  5
E
102
{ACAD_REACTORS
330
C
102
}
330
C
100
AcDbDictionary
281
     1
  3
Normal
350
F
100
AcDbDictionaryWithDefault
340
F
  0
DICTIONARY
  5
183
102
{ACAD_REACTORS
330
C
102
}
330
C
100
AcDbDictionary
281
     1
  0
DICTIONARY
  5
2A
102
{ACAD_REACTORS
330
C
102
}
330
C
100
AcDbDictionary
281
     1
  3
2dWireframe
350
2F
  3
3D Hidden
350
31
  3
3dWireframe
350
30
  3
Basic
350
32
  3
Brighten
350
36
  3
ColorChange
350
3A
  3
Conceptual
350
34
  3
Dim
350
35
  3
Facepattern
350
39
  3
Flat
350
2B
  3
FlatWithEdges
350
2C
  3
Gouraud
350
2D
  3
GouraudWithEdges
350
2E
  3
Linepattern
350
38
  3
Realistic
350
33
  3
Thicken
350
37
  0
LAYOUT
  5
1E
102
{ACAD_REACTORS
330
1A
102
}
330
1A
100
AcDbPlotSettings
  1

  2
none_device
  4

  6

 40
0.0
 41
0.0
 42
0.0
 43
0.0
 44
0.0
 45
0.0
 46
0.0
 47
0.0
 48
0.0
 49
0.0
140
0.0
141
0.0
142
1.0
143
1.0
 70
   688
 72
     0
 73
     0
 74
     5
  7

 75
    16
 76
     0
 77
     2
 78
   300
147
1.0
148
0.0
149
0.0
100
AcDbLayout
  1
Layout1
 70
     1
 71
     1
 10
-105.0
 20
-148.5
 11
105.0
 21
148.5
 12
0.0
 22
0.0
 32
0.0
 14
1.000000000000000E+20
 24
1.000000000000000E+20
 34
1.000000000000000E+20
 15
-1.000000000000000E+20
 25
-1.000000000000000E+20
 35
-1.000000000000000E+20
146
0.0
 13
0.0
 23
0.0
 33
0.0
 16
1.0
 26
0.0
 36
0.0
 17
0.0
 27
1.0
 37
0.0
 76
     0
330
1B
  0
LAYOUT
  5
26
102
{ACAD_REACTORS
330
1A
102
}
330
1A
100
AcDbPlotSettings
  1

  2
none_device
  4

  6

 40
0.0
 41
0.0
 42
0.0
 43
0.0
 44
0.0
 45
0.0
 46
0.0
 47
0.0
 48
0.0
 49
0.0
140
0.0
141
0.0
142
1.0
143
1.0
 70
   688
 72
     0
 73
     0
 74
     5
  7

 75
    16
 76
     0
 77
     2
 78
   300
147
1.0
148
0.0
149
0.0
100
AcDbLayout
  1
Layout2
 70
     1
 71
     2
 10
0.0
 20
0.0
 11
0.0
 21
0.0
 12
0.0
 22
0.0
 32
0.0
 14
0.0
 24
0.0
 34
0.0
 15
0.0
 25
0.0
 35
0.0
146
0.0
 13
0.0
 23
0.0
 33
0.0
 16
1.0
 26
0.0
 36
0.0
 17
0.0
 27
1.0
 37
0.0
 76
     0
330
23
  0
LAYOUT
  5
22
102
{ACAD_REACTORS
330
1A
102
}
330
1A
100
AcDbPlotSettings
  1

  2
none_device
  4

  6

 40
0.0
 41
0.0
 42
0.0
 43
0.0
 44
0.0
 45
0.0
 46
0.0
 47
0.0
 48
0.0
 49
0.0
140
0.0
141
0.0
142
1.0
143
1.0
 70
  1712
 72
     0
 73
     0
 74
     0
  7

 75
     0
 76
     0
 77
     2
 78
   300
147
1.0
148
0.0
149
0.0
100
AcDbLayout
  1
Model
 70
     1
 71
     0
 10
-105.0
 20
-148.5
 11
105.0
 21
148.5
 12
0.0
 22
0.0
 32
0.0
 14
-105.0
 24
-148.5
 34
0.0
 15
105.0
 25
148.5
 35
0.0
146
0.0
 13
0.0
 23
0.0
 33
0.0
 16
1.0
 26
0.0
 36
0.0
 17
0.0
 27
1.0
 37
0.0
 76
     0
330
1F
331
29
  0
MATERIAL
  5
3D
102
{ACAD_REACTORS
330
3B
102
}
102
{ACAD_XDICTIONARY
360
17F
102
}
330
3B
100
AcDbMaterial
  1
ByBlock
  0
MATERIAL
  5
3C
102
{ACAD_REACTORS
330
3B
102
}
102
{ACAD_XDICTIONARY
360
17D
102
}
330
3B
100
AcDbMaterial
  1
ByLayer
  0
MATERIAL
  5
3E
102
{ACAD_REACTORS
330
3B
102
}
102
{ACAD_XDICTIONARY
360
181
102
}
330
3B
100
AcDbMaterial
  1
Global
  0
MLINESTYLE
  5
18
102
{ACAD_REACTORS
330
17
102
}
330
17
100
AcDbMlineStyle
  2
Standard
 70
     0
  3

 62
   256
 51
90.0
 52
90.0
 71
     2
 49
0.5
 62
   256
  6
BYLAYER
 49
-0.5
 62
   256
  6
BYLAYER
  0
ACDBPLACEHOLDER
  5
F
102
{ACAD_REACTORS
330
E
102
}
330
E
  0
VISUALSTYLE
  5
2F
102
{ACAD_REACTORS
330
2A
102
}
102
{ACAD_XDICTIONARY
360
165
102
}
330
2A
100
AcDbVisualStyle
  2
2dWireframe
 70
     4
 71
     0
 72
     2
 73
     0
 90
        0
 40
-0.6
 41
-30.0
 62
     5
 63
     7
421
 16777215
 74
     1
 91
        4
 64
     7
 65
   257
 75
     1
175
     1
 42
1.0
 92
        0
 66
   257
 43
1.0
 76
     1
 77
     6
 78
     2
 67
     7
 79
     5
170
     0
171
     0
290
     0
174
     0
 93
        1
 44
0.0
173
     0
291
     0
 45
0.0
1001
ACAD
1000
AcDbSavedByObjectVersion
1070
     0
  0
VISUALSTYLE
  5
31
102
{ACAD_REACTORS
330
2A
102
}
102
{ACAD_XDICTIONARY
360
169
102
}
330
2A
100
AcDbVisualStyle
  2
3D Hidden
 70
     6
 71
     1
 72
     2
 73
     2
 90
        0
 40
-0.6
 41
-30.0
 62
     5
 63
     7
421
 16777215
 74
     2
 91
        2
 64
     7
 65
   257
 75
     2
175
     1
 42
40.0
 92
        0
 66
   257
 43
1.0
 76
     1
 77
     6
 78
     2
 67
     7
 79
     3
170
     0
171
     0
290
     0
174
     0
 93
        1
 44
0.0
173
     0
291
     0
 45
0.0
1001
ACAD
1000
AcDbSavedByObjectVersion
1070
     0
  0
VISUALSTYLE
  5
30
102
{ACAD_REACTORS
330
2A
102
}
102
{ACAD_XDICTIONARY
360
167
102
}
330
2A
100
AcDbVisualStyle
  2
3dWireframe
 70
     5
 71
     0
 72
     2
 73
     0
 90
        0
 40
-0.6
 41
-30.0
 62
     5
 63
     7
421
 16777215
 74
     1
 91
        4
 64
     7
 65
   257
 75
     1
175
     1
 42
1.0
 92
        0
 66
   257
 43
1.0
 76
     1
 77
     6
 78
     2
 67
     7
 79
     5
170
     0
171
     0
290
     0
174
     0
 93
        1
 44
0.0
173
     0
291
     0
 45
0.0
1001
ACAD
1000
AcDbSavedByObjectVersion
1070
     0
  0
VISUALSTYLE
  5
32
102
{ACAD_REACTORS
330
2A
102
}
102
{ACAD_XDICTIONARY
360
16B
102
}
330
2A
100
AcDbVisualStyle
  2
Basic
 70
     7
 71
     1
 72
     0
 73
     1
 90
        0
 40
-0.6
 41
-30.0
 62
     5
 63
     7
421
 16777215
 74
     0
 91
        4
 64
     7
 65
   257
 75
     1
175
     1
 42
1.0
 92
        8
 66
     7
 43
1.0
 76
     1
 77
     6
 78
     2
 67
     7
 79
     5
170
     0
171
     0
290
     0
174
     0
 93
        1
 44
0.0
173
     0
291
     1
 45
0.0
1001
ACAD
1000
AcDbSavedByObjectVersion
1070
     0
  0
VISUALSTYLE
  5
36
102
{ACAD_REACTORS
330
2A
102
}
102
{ACAD_XDICTIONARY
360
173
102
}
330
2A
100
AcDbVisualStyle
  2
Brighten
 70
    12
 71
     2
 72
     2
 73
     0
 90
        0
 40
-0.6
 41
-30.0
 62
     5
 63
     7
421
 16777215
 74
     1
 91
        4
 64
     7
 65
   257
 75
     1
175
     1
 42
1.0
 92
        8
 66
     7
 43
1.0
 76
     1
 77
     6
 78
     2
 67
     7
 79
     5
170
     0
171
     0
290
     0
174
     0
 93
        1
 44
50.0
173
     0
291
     1
 45
0.0
1001
ACAD
1000
AcDbSavedByObjectVersion
1070
     0
  0
VISUALSTYLE
  5
3A
102
{ACAD_REACTORS
330
2A
102
}
102
{ACAD_XDICTIONARY
360
17B
102
}
330
2A
100
AcDbVisualStyle
  2
ColorChange
 70
    16
 71
     2
 72
     2
 73
     3
 90
        0
 40
-0.6
 41
-30.0
 62
     5
 63
     8
421
  8421504
 74
     1
 91
        4
 64
     7
 65
   257
 75
     1
175
     1
 42
1.0
 92
        8
 66
     8
424
  8421504
 43
1.0
 76
     1
 77
     6
 78
     2
 67
     7
 79
     5
170
     0
171
     0
290
     0
174
     0
 93
        1
 44
0.0
173
     0
291
     1
 45
0.0
1001
ACAD
1000
AcDbSavedByObjectVersion
1070
     0
  0
VISUALSTYLE
  5
34
102
{ACAD_REACTORS
330
2A
102
}
102
{ACAD_XDICTIONARY
360
16F
102
}
330
2A
100
AcDbVisualStyle
  2
Conceptual
 70
     9
 71
     3
 72
     2
 73
     0
 90
        0
 40
-0.6
 41
-30.0
 62
     5
 63
     7
421
 16777215
 74
     2
 91
        2
 64
     7
 65
   257
 75
     1
175
     1
 42
40.0
 92
        8
 66
     7
 43
1.0
 76
     1
 77
     6
 78
     2
 67
     7
 79
     3
170
     0
171
     0
290
     0
174
     0
 93
        1
 44
0.0
173
     0
291
     0
 45
0.0
1001
ACAD
1000
AcDbSavedByObjectVersion
1070
     0
  0
VISUALSTYLE
  5
35
102
{ACAD_REACTORS
330
2A
102
}
102
{ACAD_XDICTIONARY
360
171
102
}
330
2A
100
AcDbVisualStyle
  2
Dim
 70
    11
 71
     2
 72
     2
 73
     0
 90
        0
 40
-0.6
 41
-30.0
 62
     5
 63
     7
421
 16777215
 74
     1
 91
        4
 64
     7
 65
   257
 75
     1
175
     1
 42
1.0
 92
        8
 66
     7
 43
1.0
 76
     1
 77
     6
 78
     2
 67
     7
 79
     5
170
     0
171
     0
290
     0
174
     0
 93
        1
 44
-50.0
173
     0
291
     1
 45
0.0
1001
ACAD
1000
AcDbSavedByObjectVersion
1070
     0
  0
VISUALSTYLE
  5
39
102
{ACAD_REACTORS
330
2A
102
}
102
{ACAD_XDICTIONARY
360
179
102
}
330
2A
100
AcDbVisualStyle
  2
Facepattern
 70
    15
 71
     2
 72
     2
 73
     0
 90
        0
 40
-0.6
 41
-30.0
 62
     5
 63
     7
421
 16777215
 74
     1
 91
        4
 64
     7
 65
   257
 75
     1
175
     1
 42
1.0
 92
        8
 66
     7
 43
1.0
 76
     1
 77
     6
 78
     2
 67
     7
 79
     5
170
     0
171
     0
290
     0
174
     0
 93
        1
 44
0.0
173
     0
291
     1
 45
0.0
1001
ACAD
1000
AcDbSavedByObjectVersion
1070
     0
  0
VISUALSTYLE
  5
2B
102
{ACAD_REACTORS
330
2A
102
}
102
{ACAD_XDICTIONARY
360
15D
102
}
330
2A
100
AcDbVisualStyle
  2
Flat
 70
     0
 71
     2
 72
     1
 73
     1
 90
        2
 40
-0.6
 41
30.0
 62
     5
 63
     7
421
 16777215
 74
     0
 91
        4
 64
     7
 65
   257
 75
     1
175
     1
 42
1.0
 92
        8
 66
     7
 43
1.0
 76
     1
 77
     6
 78
     2
 67
     7
 79
     5
170
     0
171
     0
290
     0
174
     0
 93
       13
 44
0.0
173
     0
291
     1
 45
0.0
1001
ACAD
1000
AcDbSavedByObjectVersion
1070
     0
  0
VISUALSTYLE
  5
2C
102
{ACAD_REACTORS
330
2A
102
}
102
{ACAD_XDICTIONARY
360
15F
102
}
330
2A
100
AcDbVisualStyle
  2
FlatWithEdges
 70
     1
 71
     2
 72
     1
 73
     1
 90
        2
 40
-0.6
 41
30.0
 62
     5
 63
     7
421
 16777215
 74
     1
 91
        4
 64
     7
 65
   257
 75
     1
175
     1
 42
1.0
 92
        0
 66
   257
 43
1.0
 76
     1
 77
     6
 78
     2
 67
     7
 79
     5
170
     0
171
     0
290
     0
174
     0
 93
       13
 44
0.0
173
     0
291
     1
 45
0.0
1001
ACAD
1000
AcDbSavedByObjectVersion
1070
     0
  0
VISUALSTYLE
  5
2D
102
{ACAD_REACTORS
330
2A
102
}
102
{ACAD_XDICTIONARY
360
161
102
}
330
2A
100
AcDbVisualStyle
  2
Gouraud
 70
     2
 71
     2
 72
     2
 73
     1
 90
        2
 40
-0.6
 41
30.0
 62
     5
 63
     7
421
 16777215
 74
     0
 91
        4
 64
     7
 65
   257
 75
     1
175
     1
 42
1.0
 92
        0
 66
     7
 43
1.0
 76
     1
 77
     6
 78
     2
 67
     7
 79
     5
170
     0
171
     0
290
     0
174
     0
 93
       13
 44
0.0
173
     0
291
     1
 45
0.0
1001
ACAD
1000
AcDbSavedByObjectVersion
1070
     0
  0
VISUALSTYLE
  5
2E
102
{ACAD_REACTORS
330
2A
102
}
102
{ACAD_XDICTIONARY
360
163
102
}
330
2A
100
AcDbVisualStyle
  2
GouraudWithEdges
 70
     3
 71
     2
 72
     2
 73
     1
 90
        2
 40
-0.6
 41
30.0
 62
     5
 63
     7
421
 16777215
 74
     1
 91
        4
 64
     7
 65
   257
 75
     1
175
     1
 42
1.0
 92
        0
 66
   257
 43
1.0
 76
     1
 77
     6
 78
     2
 67
     7
 79
     5
170
     0
171
     0
290
     0
174
     0
 93
       13
 44
0.0
173
     0
291
     1
 45
0.0
1001
ACAD
1000
AcDbSavedByObjectVersion
1070
     0
  0
VISUALSTYLE
  5
38
102
{ACAD_REACTORS
330
2A
102
}
102
{ACAD_XDICTIONARY
360
177
102
}
330
2A
100
AcDbVisualStyle
  2
Linepattern
 70
    14
 71
     2
 72
     2
 73
     0
 90
        0
 40
-0.6
 41
-30.0
 62
     5
 63
     7
421
 16777215
 74
     1
 91
        4
 64
     7
 65
   257
 75
     7
175
     7
 42
1.0
 92
        8
 66
     7
 43
1.0
 76
     1
 77
     6
 78
     2
 67
     7
 79
     5
170
     0
171
     0
290
     0
174
     0
 93
        1
 44
0.0
173
     0
291
     1
 45
0.0
1001
ACAD
1000
AcDbSavedByObjectVersion
1070
     0
  0
VISUALSTYLE
  5
33
102
{ACAD_REACTORS
330
2A
102
}
102
{ACAD_XDICTIONARY
360
16D
102
}
330
2A
100
AcDbVisualStyle
  2
Realistic
 70
     8
 71
     2
 72
     2
 73
     0
 90
        0
 40
-0.6
 41
-30.0
 62
     5
 63
     7
421
 16777215
 74
     1
 91
        0
 64
     7
 65
   257
 75
     1
175
     1
 42
1.0
 92
        8
 66
     8
424
  7895160
 43
1.0
 76
     1
 77
     6
 78
     2
 67
     7
 79
     5
170
     0
171
     0
290
     0
174
     0
 93
       13
 44
0.0
173
     0
291
     0
 45
0.0
1001
ACAD
1000
AcDbSavedByObjectVersion
1070
     0
  0
VISUALSTYLE
  5
37
102
{ACAD_REACTORS
330
2A
102
}
102
{ACAD_XDICTIONARY
360
175
102
}
330
2A
100
AcDbVisualStyle
  2
Thicken
 70
    13
 71
     2
 72
     2
 73
     0
 90
        0
 40
-0.6
 41
-30.0
 62
     5
 63
     7
421
 16777215
 74
     1
 91
        4
 64
     7
 65
   257
 75
     1
175
     1
 42
1.0
 92
       12
 66
     7
 43
1.0
 76
     1
 77
     6
 78
     2
 67
     7
 79
     5
170
     0
171
     0
290
     0
174
     0
 93
        1
 44
0.0
173
     0
291
     1
 45
0.0
1001
ACAD
1000
AcDbSavedByObjectVersion
1070
     0
  0
DICTIONARY
  5
17F
330
3D
100
AcDbDictionary
280
     1
281
     1
  3
ACAD_XREC_ROUNDTRIP
360
180
  0
DICTIONARY
  5
17D
330
3C
100
AcDbDictionary
280
     1
281
     1
  3
ACAD_XREC_ROUNDTRIP
360
17E
  0
DICTIONARY
  5
181
330
3E
100
AcDbDictionary
280
     1
281
     1
  3
ACAD_XREC_ROUNDTRIP
360
182
  0
DICTIONARY
  5
165
330
2F
100
AcDbDictionary
280
     1
281
     1
  3
ACAD_XREC_ROUNDTRIP
360
166
  0
DICTIONARY
  5
169
330
31
100
AcDbDictionary
280
     1
281
     1
  3
ACAD_XREC_ROUNDTRIP
360
16A
  0
DICTIONARY
  5
167
330
30
100
AcDbDictionary
280
     1
281
     1
  3
ACAD_XREC_ROUNDTRIP
360
168
  0
DICTIONARY
  5
16B
330
32
100
AcDbDictionary
280
     1
281
     1
  3
ACAD_XREC_ROUNDTRIP
360
16C
  0
DICTIONARY
  5
173
330
36
100
AcDbDictionary
280
     1
281
     1
  3
ACAD_XREC_ROUNDTRIP
360
174
  0
DICTIONARY
  5
17B
330
3A
100
AcDbDictionary
280
     1
281
     1
  3
ACAD_XREC_ROUNDTRIP
360
17C
  0
DICTIONARY
  5
16F
330
34
100
AcDbDictionary
280
     1
281
     1
  3
ACAD_XREC_ROUNDTRIP
360
170
  0
DICTIONARY
  5
171
330
35
100
AcDbDictionary
280
     1
281
     1
  3
ACAD_XREC_ROUNDTRIP
360
172
  0
DICTIONARY
  5
179
330
39
100
AcDbDictionary
280
     1
281
     1
  3
ACAD_XREC_ROUNDTRIP
360
17A
  0
DICTIONARY
  5
15D
330
2B
100
AcDbDictionary
280
     1
281
     1
  3
ACAD_XREC_ROUNDTRIP
360
15E
  0
DICTIONARY
  5
15F
330
2C
100
AcDbDictionary
280
     1
281
     1
  3
ACAD_XREC_ROUNDTRIP
360
160
  0
DICTIONARY
  5
161
330
2D
100
AcDbDictionary
280
     1
281
     1
  3
ACAD_XREC_ROUNDTRIP
360
162
  0
DICTIONARY
  5
163
330
2E
100
AcDbDictionary
280
     1
281
     1
  3
ACAD_XREC_ROUNDTRIP
360
164
  0
DICTIONARY
  5
177
330
38
100
AcDbDictionary
280
     1
281
     1
  3
ACAD_XREC_ROUNDTRIP
360
178
  0
DICTIONARY
  5
16D
330
33
100
AcDbDictionary
280
     1
281
     1
  3
ACAD_XREC_ROUNDTRIP
360
16E
  0
DICTIONARY
  5
175
330
37
100
AcDbDictionary
280
     1
281
     1
  3
ACAD_XREC_ROUNDTRIP
360
176
  0
XRECORD
  5
180
102
{ACAD_REACTORS
330
17F
102
}
330
17F
100
AcDbXrecord
280
     1
102
MATERIAL
148
0.0
149
0.0
149
0.0
 93
        0
 94
      127
282
     0
 72
     1
 77
     1
171
     1
175
     1
179
     1
273
     0
  0
XRECORD
  5
17E
102
{ACAD_REACTORS
330
17D
102
}
330
17D
100
AcDbXrecord
280
     1
102
MATERIAL
148
0.0
149
0.0
149
0.0
 93
        0
 94
      127
282
     0
 72
     1
 77
     1
171
     1
175
     1
179
     1
273
     0
  0
XRECORD
  5
182
102
{ACAD_REACTORS
330
181
102
}
330
181
100
AcDbXrecord
280
     1
102
MATERIAL
148
0.0
149
0.0
149
0.0
 93
        0
 94
      127
282
     0
 72
     1
 77
     1
171
     1
175
     1
179
     1
273
     0
  0
XRECORD
  5
166
102
{ACAD_REACTORS
330
165
102
}
330
165
100
AcDbXrecord
280
     1
102
RTVSPropertyOp0
 70
     1
102
RTVSPropertyOp1
 70
     1
102
RTVSPropertyOp2
 70
     1
102
RTVSPropertyOp3
 70
     1
102
RTVSPropertyOp4
 70
     1
102
RTVSPropertyOp5
 70
     1
102
RTVSPropertyOp6
 70
     1
102
RTVSPropertyOp7
 70
     1
102
RTVSPropertyOp8
 70
     1
102
RTVSPropertyOp9
 70
     1
102
RTVSPropertyOp10
 70
     1
102
RTVSPropertyOp11
 70
     1
102
RTVSPropertyOp12
 70
     1
102
RTVSPropertyOp13
 70
     1
102
RTVSPropertyOp14
 70
     1
102
RTVSPropertyOp15
 70
     1
102
RTVSPropertyOp16
 70
     1
102
RTVSPropertyOp17
 70
     1
102
RTVSPropertyOp18
 70
     1
102
RTVSPropertyOp19
 70
     1
102
RTVSPropertyOp20
 70
     1
102
RTVSPropertyOp21
 70
     1
102
RTVSPropertyOp22
 70
     1
102
RTVSPropertyOp23
 70
     1
102
RTVSPropertyOp24
 70
     1
102
RTVSPropertyOp25
 70
     1
102
RTVSPropertyOp26
 70
     1
102
RTVSPropertyOp27
 70
     1
102
RTVSPropertyOp28
 70
     1
102
RTVSPropertyOp29
 70
     1
102
RTVSPropertyOp30
 70
     1
102
RTVSPropertyOp31
 70
     1
102
RTVSPropertyOp32
 70
     1
  0
XRECORD
  5
16A
102
{ACAD_REACTORS
330
169
102
}
330
169
100
AcDbXrecord
280
     1
102
RTVSPropertyOp0
 70
     1
102
RTVSPropertyOp1
 70
     1
102
RTVSPropertyOp2
 70
     1
102
RTVSPropertyOp3
 70
     1
102
RTVSPropertyOp4
 70
     1
102
RTVSPropertyOp5
 70
     1
102
RTVSPropertyOp6
 70
     1
102
RTVSPropertyOp7
 70
     1
102
RTVSPropertyOp8
 70
     1
102
RTVSPropertyOp9
 70
     1
102
RTVSPropertyOp10
 70
     1
102
RTVSPropertyOp11
 70
     1
102
RTVSPropertyOp12
 70
     1
102
RTVSPropertyOp13
 70
     1
102
RTVSPropertyOp14
 70
     1
102
RTVSPropertyOp15
 70
     1
102
RTVSPropertyOp16
 70
     1
102
RTVSPropertyOp17
 70
     1
102
RTVSPropertyOp18
 70
     1
102
RTVSPropertyOp19
 70
     1
102
RTVSPropertyOp20
 70
     1
102
RTVSPropertyOp21
 70
     1
102
RTVSPropertyOp22
 70
     1
102
RTVSPropertyOp23
 70
     1
102
RTVSPropertyOp24
 70
     1
102
RTVSPropertyOp25
 70
     1
102
RTVSPropertyOp26
 70
     1
102
RTVSPropertyOp27
 70
     1
102
RTVSPropertyOp28
 70
     1
102
RTVSPropertyOp29
 70
     1
102
RTVSPropertyOp30
 70
     1
102
RTVSPropertyOp31
 70
     1
102
RTVSPropertyOp32
 70
     1
  0
XRECORD
  5
168
102
{ACAD_REACTORS
330
167
102
}
330
167
100
AcDbXrecord
280
     1
102
RTVSPropertyOp0
 70
     1
102
RTVSPropertyOp1
 70
     1
102
RTVSPropertyOp2
 70
     1
102
RTVSPropertyOp3
 70
     1
102
RTVSPropertyOp4
 70
     1
102
RTVSPropertyOp5
 70
     1
102
RTVSPropertyOp6
 70
     1
102
RTVSPropertyOp7
 70
     1
102
RTVSPropertyOp8
 70
     1
102
RTVSPropertyOp9
 70
     1
102
RTVSPropertyOp10
 70
     1
102
RTVSPropertyOp11
 70
     1
102
RTVSPropertyOp12
 70
     1
102
RTVSPropertyOp13
 70
     1
102
RTVSPropertyOp14
 70
     1
102
RTVSPropertyOp15
 70
     1
102
RTVSPropertyOp16
 70
     1
102
RTVSPropertyOp17
 70
     1
102
RTVSPropertyOp18
 70
     1
102
RTVSPropertyOp19
 70
     1
102
RTVSPropertyOp20
 70
     1
102
RTVSPropertyOp21
 70
     1
102
RTVSPropertyOp22
 70
     1
102
RTVSPropertyOp23
 70
     1
102
RTVSPropertyOp24
 70
     1
102
RTVSPropertyOp25
 70
     1
102
RTVSPropertyOp26
 70
     1
102
RTVSPropertyOp27
 70
     1
102
RTVSPropertyOp28
 70
     1
102
RTVSPropertyOp29
 70
     1
102
RTVSPropertyOp30
 70
     1
102
RTVSPropertyOp31
 70
     1
102
RTVSPropertyOp32
 70
     1
  0
XRECORD
  5
16C
102
{ACAD_REACTORS
330
16B
102
}
330
16B
100
AcDbXrecord
280
     1
102
RTVSPropertyOp0
 70
     1
102
RTVSPropertyOp1
 70
     1
102
RTVSPropertyOp2
 70
     1
102
RTVSPropertyOp3
 70
     1
102
RTVSPropertyOp4
 70
     1
102
RTVSPropertyOp5
 70
     1
102
RTVSPropertyOp6
 70
     1
102
RTVSPropertyOp7
 70
     1
102
RTVSPropertyOp8
 70
     1
102
RTVSPropertyOp9
 70
     1
102
RTVSPropertyOp10
 70
     1
102
RTVSPropertyOp11
 70
     1
102
RTVSPropertyOp12
 70
     1
102
RTVSPropertyOp13
 70
     1
102
RTVSPropertyOp14
 70
     1
102
RTVSPropertyOp15
 70
     1
102
RTVSPropertyOp16
 70
     1
102
RTVSPropertyOp17
 70
     1
102
RTVSPropertyOp18
 70
     1
102
RTVSPropertyOp19
 70
     1
102
RTVSPropertyOp20
 70
     1
102
RTVSPropertyOp21
 70
     1
102
RTVSPropertyOp22
 70
     1
102
RTVSPropertyOp23
 70
     1
102
RTVSPropertyOp24
 70
     1
102
RTVSPropertyOp25
 70
     1
102
RTVSPropertyOp26
 70
     1
102
RTVSPropertyOp27
 70
     1
102
RTVSPropertyOp28
 70
     1
102
RTVSPropertyOp29
 70
     1
102
RTVSPropertyOp30
 70
     1
102
RTVSPropertyOp31
 70
     1
102
RTVSPropertyOp32
 70
     1
  0
XRECORD
  5
174
102
{ACAD_REACTORS
330
173
102
}
330
173
100
AcDbXrecord
280
     1
102
RTVSPropertyOp0
 70
     1
102
RTVSPropertyOp1
 70
     1
102
RTVSPropertyOp2
 70
     1
102
RTVSPropertyOp3
 70
     1
102
RTVSPropertyOp4
 70
     1
102
RTVSPropertyOp5
 70
     1
102
RTVSPropertyOp6
 70
     1
102
RTVSPropertyOp7
 70
     1
102
RTVSPropertyOp8
 70
     1
102
RTVSPropertyOp9
 70
     1
102
RTVSPropertyOp10
 70
     1
102
RTVSPropertyOp11
 70
     1
102
RTVSPropertyOp12
 70
     1
102
RTVSPropertyOp13
 70
     1
102
RTVSPropertyOp14
 70
     1
102
RTVSPropertyOp15
 70
     1
102
RTVSPropertyOp16
 70
     1
102
RTVSPropertyOp17
 70
     1
102
RTVSPropertyOp18
 70
     1
102
RTVSPropertyOp19
 70
     1
102
RTVSPropertyOp20
 70
     1
102
RTVSPropertyOp21
 70
     1
102
RTVSPropertyOp22
 70
     1
102
RTVSPropertyOp23
 70
     1
102
RTVSPropertyOp24
 70
     1
102
RTVSPropertyOp25
 70
     1
102
RTVSPropertyOp26
 70
     1
102
RTVSPropertyOp27
 70
     1
102
RTVSPropertyOp28
 70
     1
102
RTVSPropertyOp29
 70
     1
102
RTVSPropertyOp30
 70
     1
102
RTVSPropertyOp31
 70
     1
102
RTVSPropertyOp32
 70
     1
  0
XRECORD
  5
17C
102
{ACAD_REACTORS
330
17B
102
}
330
17B
100
AcDbXrecord
280
     1
102
RTVSPropertyOp0
 70
     1
102
RTVSPropertyOp1
 70
     1
102
RTVSPropertyOp2
 70
     1
102
RTVSPropertyOp3
 70
     1
102
RTVSPropertyOp4
 70
     1
102
RTVSPropertyOp5
 70
     1
102
RTVSPropertyOp6
 70
     1
102
RTVSPropertyOp7
 70
     1
102
RTVSPropertyOp8
 70
     1
102
RTVSPropertyOp9
 70
     1
102
RTVSPropertyOp10
 70
     1
102
RTVSPropertyOp11
 70
     1
102
RTVSPropertyOp12
 70
     1
102
RTVSPropertyOp13
 70
     1
102
RTVSPropertyOp14
 70
     1
102
RTVSPropertyOp15
 70
     1
102
RTVSPropertyOp16
 70
     1
102
RTVSPropertyOp17
 70
     1
102
RTVSPropertyOp18
 70
     1
102
RTVSPropertyOp19
 70
     1
102
RTVSPropertyOp20
 70
     1
102
RTVSPropertyOp21
 70
     1
102
RTVSPropertyOp22
 70
     1
102
RTVSPropertyOp23
 70
     1
102
RTVSPropertyOp24
 70
     1
102
RTVSPropertyOp25
 70
     1
102
RTVSPropertyOp26
 70
     1
102
RTVSPropertyOp27
 70
     1
102
RTVSPropertyOp28
 70
     1
102
RTVSPropertyOp29
 70
     1
102
RTVSPropertyOp30
 70
     1
102
RTVSPropertyOp31
 70
     1
102
RTVSPropertyOp32
 70
     1
  0
XRECORD
  5
170
102
{ACAD_REACTORS
330
16F
102
}
330
16F
100
AcDbXrecord
280
     1
102
RTVSPropertyOp0
 70
     1
102
RTVSPropertyOp1
 70
     1
102
RTVSPropertyOp2
 70
     1
102
RTVSPropertyOp3
 70
     1
102
RTVSPropertyOp4
 70
     1
102
RTVSPropertyOp5
 70
     1
102
RTVSPropertyOp6
 70
     1
102
RTVSPropertyOp7
 70
     1
102
RTVSPropertyOp8
 70
     1
102
RTVSPropertyOp9
 70
     1
102
RTVSPropertyOp10
 70
     1
102
RTVSPropertyOp11
 70
     1
102
RTVSPropertyOp12
 70
     1
102
RTVSPropertyOp13
 70
     1
102
RTVSPropertyOp14
 70
     1
102
RTVSPropertyOp15
 70
     1
102
RTVSPropertyOp16
 70
     1
102
RTVSPropertyOp17
 70
     1
102
RTVSPropertyOp18
 70
     1
102
RTVSPropertyOp19
 70
     1
102
RTVSPropertyOp20
 70
     1
102
RTVSPropertyOp21
 70
     1
102
RTVSPropertyOp22
 70
     1
102
RTVSPropertyOp23
 70
     1
102
RTVSPropertyOp24
 70
     1
102
RTVSPropertyOp25
 70
     1
102
RTVSPropertyOp26
 70
     1
102
RTVSPropertyOp27
 70
     1
102
RTVSPropertyOp28
 70
     1
102
RTVSPropertyOp29
 70
     1
102
RTVSPropertyOp30
 70
     1
102
RTVSPropertyOp31
 70
     1
102
RTVSPropertyOp32
 70
     1
  0
XRECORD
  5
172
102
{ACAD_REACTORS
330
171
102
}
330
171
100
AcDbXrecord
280
     1
102
RTVSPropertyOp0
 70
     1
102
RTVSPropertyOp1
 70
     1
102
RTVSPropertyOp2
 70
     1
102
RTVSPropertyOp3
 70
     1
102
RTVSPropertyOp4
 70
     1
102
RTVSPropertyOp5
 70
     1
102
RTVSPropertyOp6
 70
     1
102
RTVSPropertyOp7
 70
     1
102
RTVSPropertyOp8
 70
     1
102
RTVSPropertyOp9
 70
     1
102
RTVSPropertyOp10
 70
     1
102
RTVSPropertyOp11
 70
     1
102
RTVSPropertyOp12
 70
     1
102
RTVSPropertyOp13
 70
     1
102
RTVSPropertyOp14
 70
     1
102
RTVSPropertyOp15
 70
     1
102
RTVSPropertyOp16
 70
     1
102
RTVSPropertyOp17
 70
     1
102
RTVSPropertyOp18
 70
     1
102
RTVSPropertyOp19
 70
     1
102
RTVSPropertyOp20
 70
     1
102
RTVSPropertyOp21
 70
     1
102
RTVSPropertyOp22
 70
     1
102
RTVSPropertyOp23
 70
     1
102
RTVSPropertyOp24
 70
     1
102
RTVSPropertyOp25
 70
     1
102
RTVSPropertyOp26
 70
     1
102
RTVSPropertyOp27
 70
     1
102
RTVSPropertyOp28
 70
     1
102
RTVSPropertyOp29
 70
     1
102
RTVSPropertyOp30
 70
     1
102
RTVSPropertyOp31
 70
     1
102
RTVSPropertyOp32
 70
     1
  0
XRECORD
  5
17A
102
{ACAD_REACTORS
330
179
102
}
330
179
100
AcDbXrecord
280
     1
102
RTVSPropertyOp0
 70
     1
102
RTVSPropertyOp1
 70
     1
102
RTVSPropertyOp2
 70
     1
102
RTVSPropertyOp3
 70
     1
102
RTVSPropertyOp4
 70
     1
102
RTVSPropertyOp5
 70
     1
102
RTVSPropertyOp6
 70
     1
102
RTVSPropertyOp7
 70
     1
102
RTVSPropertyOp8
 70
     1
102
RTVSPropertyOp9
 70
     1
102
RTVSPropertyOp10
 70
     1
102
RTVSPropertyOp11
 70
     1
102
RTVSPropertyOp12
 70
     1
102
RTVSPropertyOp13
 70
     1
102
RTVSPropertyOp14
 70
     1
102
RTVSPropertyOp15
 70
     1
102
RTVSPropertyOp16
 70
     1
102
RTVSPropertyOp17
 70
     1
102
RTVSPropertyOp18
 70
     1
102
RTVSPropertyOp19
 70
     1
102
RTVSPropertyOp20
 70
     1
102
RTVSPropertyOp21
 70
     1
102
RTVSPropertyOp22
 70
     1
102
RTVSPropertyOp23
 70
     1
102
RTVSPropertyOp24
 70
     1
102
RTVSPropertyOp25
 70
     1
102
RTVSPropertyOp26
 70
     1
102
RTVSPropertyOp27
 70
     1
102
RTVSPropertyOp28
 70
     1
102
RTVSPropertyOp29
 70
     1
102
RTVSPropertyOp30
 70
     1
102
RTVSPropertyOp31
 70
     1
102
RTVSPropertyOp32
 70
     1
  0
XRECORD
  5
15E
102
{ACAD_REACTORS
330
15D
102
}
330
15D
100
AcDbXrecord
280
     1
102
RTVSPropertyOp0
 70
     1
102
RTVSPropertyOp1
 70
     1
102
RTVSPropertyOp2
 70
     1
102
RTVSPropertyOp3
 70
     1
102
RTVSPropertyOp4
 70
     1
102
RTVSPropertyOp5
 70
     1
102
RTVSPropertyOp6
 70
     1
102
RTVSPropertyOp7
 70
     1
102
RTVSPropertyOp8
 70
     1
102
RTVSPropertyOp9
 70
     1
102
RTVSPropertyOp10
 70
     1
102
RTVSPropertyOp11
 70
     1
102
RTVSPropertyOp12
 70
     1
102
RTVSPropertyOp13
 70
     1
102
RTVSPropertyOp14
 70
     1
102
RTVSPropertyOp15
 70
     1
102
RTVSPropertyOp16
 70
     1
102
RTVSPropertyOp17
 70
     1
102
RTVSPropertyOp18
 70
     1
102
RTVSPropertyOp19
 70
     1
102
RTVSPropertyOp20
 70
     1
102
RTVSPropertyOp21
 70
     1
102
RTVSPropertyOp22
 70
     1
102
RTVSPropertyOp23
 70
     1
102
RTVSPropertyOp24
 70
     1
102
RTVSPropertyOp25
 70
     1
102
RTVSPropertyOp26
 70
     1
102
RTVSPropertyOp27
 70
     1
102
RTVSPropertyOp28
 70
     1
102
RTVSPropertyOp29
 70
     1
102
RTVSPropertyOp30
 70
     1
102
RTVSPropertyOp31
 70
     1
102
RTVSPropertyOp32
 70
     1
  0
XRECORD
  5
160
102
{ACAD_REACTORS
330
15F
102
}
330
15F
100
AcDbXrecord
280
     1
102
RTVSPropertyOp0
 70
     1
102
RTVSPropertyOp1
 70
     1
102
RTVSPropertyOp2
 70
     1
102
RTVSPropertyOp3
 70
     1
102
RTVSPropertyOp4
 70
     1
102
RTVSPropertyOp5
 70
     1
102
RTVSPropertyOp6
 70
     1
102
RTVSPropertyOp7
 70
     1
102
RTVSPropertyOp8
 70
     1
102
RTVSPropertyOp9
 70
     1
102
RTVSPropertyOp10
 70
     1
102
RTVSPropertyOp11
 70
     1
102
RTVSPropertyOp12
 70
     1
102
RTVSPropertyOp13
 70
     1
102
RTVSPropertyOp14
 70
     1
102
RTVSPropertyOp15
 70
     1
102
RTVSPropertyOp16
 70
     1
102
RTVSPropertyOp17
 70
     1
102
RTVSPropertyOp18
 70
     1
102
RTVSPropertyOp19
 70
     1
102
RTVSPropertyOp20
 70
     1
102
RTVSPropertyOp21
 70
     1
102
RTVSPropertyOp22
 70
     1
102
RTVSPropertyOp23
 70
     1
102
RTVSPropertyOp24
 70
     1
102
RTVSPropertyOp25
 70
     1
102
RTVSPropertyOp26
 70
     1
102
RTVSPropertyOp27
 70
     1
102
RTVSPropertyOp28
 70
     1
102
RTVSPropertyOp29
 70
     1
102
RTVSPropertyOp30
 70
     1
102
RTVSPropertyOp31
 70
     1
102
RTVSPropertyOp32
 70
     1
  0
XRECORD
  5
162
102
{ACAD_REACTORS
330
161
102
}
330
161
100
AcDbXrecord
280
     1
102
RTVSPropertyOp0
 70
     1
102
RTVSPropertyOp1
 70
     1
102
RTVSPropertyOp2
 70
     1
102
RTVSPropertyOp3
 70
     1
102
RTVSPropertyOp4
 70
     1
102
RTVSPropertyOp5
 70
     1
102
RTVSPropertyOp6
 70
     1
102
RTVSPropertyOp7
 70
     1
102
RTVSPropertyOp8
 70
     1
102
RTVSPropertyOp9
 70
     1
102
RTVSPropertyOp10
 70
     1
102
RTVSPropertyOp11
 70
     1
102
RTVSPropertyOp12
 70
     1
102
RTVSPropertyOp13
 70
     1
102
RTVSPropertyOp14
 70
     1
102
RTVSPropertyOp15
 70
     1
102
RTVSPropertyOp16
 70
     1
102
RTVSPropertyOp17
 70
     1
102
RTVSPropertyOp18
 70
     1
102
RTVSPropertyOp19
 70
     1
102
RTVSPropertyOp20
 70
     1
102
RTVSPropertyOp21
 70
     1
102
RTVSPropertyOp22
 70
     1
102
RTVSPropertyOp23
 70
     1
102
RTVSPropertyOp24
 70
     1
102
RTVSPropertyOp25
 70
     1
102
RTVSPropertyOp26
 70
     1
102
RTVSPropertyOp27
 70
     1
102
RTVSPropertyOp28
 70
     1
102
RTVSPropertyOp29
 70
     1
102
RTVSPropertyOp30
 70
     1
102
RTVSPropertyOp31
 70
     1
102
RTVSPropertyOp32
 70
     1
  0
XRECORD
  5
164
102
{ACAD_REACTORS
330
163
102
}
330
163
100
AcDbXrecord
280
     1
102
RTVSPropertyOp0
 70
     1
102
RTVSPropertyOp1
 70
     1
102
RTVSPropertyOp2
 70
     1
102
RTVSPropertyOp3
 70
     1
102
RTVSPropertyOp4
 70
     1
102
RTVSPropertyOp5
 70
     1
102
RTVSPropertyOp6
 70
     1
102
RTVSPropertyOp7
 70
     1
102
RTVSPropertyOp8
 70
     1
102
RTVSPropertyOp9
 70
     1
102
RTVSPropertyOp10
 70
     1
102
RTVSPropertyOp11
 70
     1
102
RTVSPropertyOp12
 70
     1
102
RTVSPropertyOp13
 70
     1
102
RTVSPropertyOp14
 70
     1
102
RTVSPropertyOp15
 70
     1
102
RTVSPropertyOp16
 70
     1
102
RTVSPropertyOp17
 70
     1
102
RTVSPropertyOp18
 70
     1
102
RTVSPropertyOp19
 70
     1
102
RTVSPropertyOp20
 70
     1
102
RTVSPropertyOp21
 70
     1
102
RTVSPropertyOp22
 70
     1
102
RTVSPropertyOp23
 70
     1
102
RTVSPropertyOp24
 70
     1
102
RTVSPropertyOp25
 70
     1
102
RTVSPropertyOp26
 70
     1
102
RTVSPropertyOp27
 70
     1
102
RTVSPropertyOp28
 70
     1
102
RTVSPropertyOp29
 70
     1
102
RTVSPropertyOp30
 70
     1
102
RTVSPropertyOp31
 70
     1
102
RTVSPropertyOp32
 70
     1
  0
XRECORD
  5
178
102
{ACAD_REACTORS
330
177
102
}
330
177
100
AcDbXrecord
280
     1
102
RTVSPropertyOp0
 70
     1
102
RTVSPropertyOp1
 70
     1
102
RTVSPropertyOp2
 70
     1
102
RTVSPropertyOp3
 70
     1
102
RTVSPropertyOp4
 70
     1
102
RTVSPropertyOp5
 70
     1
102
RTVSPropertyOp6
 70
     1
102
RTVSPropertyOp7
 70
     1
102
RTVSPropertyOp8
 70
     1
102
RTVSPropertyOp9
 70
     1
102
RTVSPropertyOp10
 70
     1
102
RTVSPropertyOp11
 70
     1
102
RTVSPropertyOp12
 70
     1
102
RTVSPropertyOp13
 70
     1
102
RTVSPropertyOp14
 70
     1
102
RTVSPropertyOp15
 70
     1
102
RTVSPropertyOp16
 70
     1
102
RTVSPropertyOp17
 70
     1
102
RTVSPropertyOp18
 70
     1
102
RTVSPropertyOp19
 70
     1
102
RTVSPropertyOp20
 70
     1
102
RTVSPropertyOp21
 70
     1
102
RTVSPropertyOp22
 70
     1
102
RTVSPropertyOp23
 70
     1
102
RTVSPropertyOp24
 70
     1
102
RTVSPropertyOp25
 70
     1
102
RTVSPropertyOp26
 70
     1
102
RTVSPropertyOp27
 70
     1
102
RTVSPropertyOp28
 70
     1
102
RTVSPropertyOp29
 70
     1
102
RTVSPropertyOp30
 70
     1
102
RTVSPropertyOp31
 70
     1
102
RTVSPropertyOp32
 70
     1
  0
XRECORD
  5
16E
102
{ACAD_REACTORS
330
16D
102
}
330
16D
100
AcDbXrecord
280
     1
102
RTVSPropertyOp0
 70
     1
102
RTVSPropertyOp1
 70
     1
102
RTVSPropertyOp2
 70
     1
102
RTVSPropertyOp3
 70
     1
102
RTVSPropertyOp4
 70
     1
102
RTVSPropertyOp5
 70
     1
102
RTVSPropertyOp6
 70
     1
102
RTVSPropertyOp7
 70
     1
102
RTVSPropertyOp8
 70
     1
102
RTVSPropertyOp9
 70
     1
102
RTVSPropertyOp10
 70
     1
102
RTVSPropertyOp11
 70
     1
102
RTVSPropertyOp12
 70
     1
102
RTVSPropertyOp13
 70
     1
102
RTVSPropertyOp14
 70
     1
102
RTVSPropertyOp15
 70
     1
102
RTVSPropertyOp16
 70
     1
102
RTVSPropertyOp17
 70
     1
102
RTVSPropertyOp18
 70
     1
102
RTVSPropertyOp19
 70
     1
102
RTVSPropertyOp20
 70
     1
102
RTVSPropertyOp21
 70
     1
102
RTVSPropertyOp22
 70
     1
102
RTVSPropertyOp23
 70
     1
102
RTVSPropertyOp24
 70
     1
102
RTVSPropertyOp25
 70
     1
102
RTVSPropertyOp26
 70
     1
102
RTVSPropertyOp27
 70
     1
102
RTVSPropertyOp28
 70
     1
102
RTVSPropertyOp29
 70
     1
102
RTVSPropertyOp30
 70
     1
102
RTVSPropertyOp31
 70
     1
102
RTVSPropertyOp32
 70
     1
  0
XRECORD
  5
176
102
{ACAD_REACTORS
330
175
102
}
330
175
100
AcDbXrecord
280
     1
102
RTVSPropertyOp0
 70
     1
102
RTVSPropertyOp1
 70
     1
102
RTVSPropertyOp2
 70
     1
102
RTVSPropertyOp3
 70
     1
102
RTVSPropertyOp4
 70
     1
102
RTVSPropertyOp5
 70
     1
102
RTVSPropertyOp6
 70
     1
102
RTVSPropertyOp7
 70
     1
102
RTVSPropertyOp8
 70
     1
102
RTVSPropertyOp9
 70
     1
102
RTVSPropertyOp10
 70
     1
102
RTVSPropertyOp11
 70
     1
102
RTVSPropertyOp12
 70
     1
102
RTVSPropertyOp13
 70
     1
102
RTVSPropertyOp14
 70
     1
102
RTVSPropertyOp15
 70
     1
102
RTVSPropertyOp16
 70
     1
102
RTVSPropertyOp17
 70
     1
102
RTVSPropertyOp18
 70
     1
102
RTVSPropertyOp19
 70
     1
102
RTVSPropertyOp20
 70
     1
102
RTVSPropertyOp21
 70
     1
102
RTVSPropertyOp22
 70
     1
102
RTVSPropertyOp23
 70
     1
102
RTVSPropertyOp24
 70
     1
102
RTVSPropertyOp25
 70
     1
102
RTVSPropertyOp26
 70
     1
102
RTVSPropertyOp27
 70
     1
102
RTVSPropertyOp28
 70
     1
102
RTVSPropertyOp29
 70
     1
102
RTVSPropertyOp30
 70
     1
102
RTVSPropertyOp31
 70
     1
102
RTVSPropertyOp32
 70
     1
  0
ENDSEC
  0
EOF
