  0
SECTION
  2
HEADER
  9
$ACADVER
  1
AC1018
  9
$ACADMAINTVER
 70
     0
  9
$DWGCODEPAGE
  3
ANSI_932
  9
$INSBASE
 10
0.0
 20
0.0
 30
0.0
  9
$EXTMIN
 10
-105.0
 20
-148.5
 30
0.0
  9
$EXTMAX
 10
105.0
 20
148.5
 30
0.0
  9
$LIMMIN
 10
-105.0
 20
-148.5
  9
$LIMMAX
 10
105.0
 20
148.5
  9
$ORTHOMODE
 70
     0
  9
$REGENMODE
 70
     1
  9
$FILLMODE
 70
     1
  9
$QTEXTMODE
 70
     0
  9
$MIRRTEXT
 70
     1
  9
$LTSCALE
 40
1.0
  9
$ATTMODE
 70
     1
  9
$TEXTSIZE
 40
2.5
  9
$TRACEWID
 40
1.0
  9
$TEXTSTYLE
  7
Standard
  9
$CLAYER
  8
0
  9
$CELTYPE
  6
ByLayer
  9
$CECOLOR
 62
   256
  9
$CELTSCALE
 40
1.0
  9
$DISPSILH
 70
     0
  9
$DIMSCALE
 40
1.0
  9
$DIMASZ
 40
2.5
  9
$DIMEXO
 40
0.625
  9
$DIMDLI
 40
3.75
  9
$DIMRND
 40
0.0
  9
$DIMDLE
 40
0.0
  9
$DIMEXE
 40
1.25
  9
$DIMTP
 40
0.0
  9
$DIMTM
 40
0.0
  9
$DIMTXT
 40
2.5
  9
$DIMCEN
 40
2.5
  9
$DIMTSZ
 40
0.0
  9
$DIMTOL
 70
     0
  9
$DIMLIM
 70
     0
  9
$DIMTIH
 70
     0
  9
$DIMTOH
 70
     0
  9
$DIMSE1
 70
     0
  9
$DIMSE2
 70
     0
  9
$DIMTAD
 70
     1
  9
$DIMZIN
 70
     8
  9
$DIMBLK
  1

  9
$DIMASO
 70
     1
  9
$DIMSHO
 70
     1
  9
$DIMPOST
  1

  9
$DIMAPOST
  1

  9
$DIMALT
 70
     0
  9
$DIMALTD
 70
     3
  9
$DIMALTF
 40
0.03937007874016
  9
$DIMLFAC
 40
1.0
  9
$DIMTOFL
 70
     1
  9
$DIMTVP
 40
0.0
  9
$DIMTIX
 70
     0
  9
$DIMSOXD
 70
     0
  9
$DIMSAH
 70
     0
  9
$DIMBLK1
  1

  9
$DIMBLK2
  1

  9
$DIMSTYLE
  2
ISO-25
  9
$DIMCLRD
 70
     0
  9
$DIMCLRE
 70
     0
  9
$DIMCLRT
 70
     0
  9
$DIMTFAC
 40
1.0
  9
$DIMGAP
 40
0.625
  9
$DIMJUST
 70
     0
  9
$DIMSD1
 70
     0
  9
$DIMSD2
 70
     0
  9
$DIMTOLJ
 70
     0
  9
$DIMTZIN
 70
     8
  9
$DIMALTZ
 70
     0
  9
$DIMALTTZ
 70
     0
  9
$DIMUPT
 70
     0
  9
$DIMDEC
 70
     2
  9
$DIMTDEC
 70
     2
  9
$DIMALTU
 70
     2
  9
$DIMALTTD
 70
     3
  9
$DIMTXSTY
  7
Standard
  9
$DIMAUNIT
 70
     0
  9
$DIMADEC
 70
     0
  9
$DIMALTRND
 40
0.0
  9
$DIMAZIN
 70
     0
  9
$DIMDSEP
 70
    44
  9
$DIMATFIT
 70
     3
  9
$DIMFRAC
 70
     0
  9
$DIMLDRBLK
  1

  9
$DIMLUNIT
 70
     2
  9
$DIMLWD
 70
    -2
  9
$DIMLWE
 70
    -2
  9
$DIMTMOVE
 70
     0
  9
$LUNITS
 70
     2
  9
$LUPREC
 70
     4
  9
$SKETCHINC
 40
1.0
  9
$FILLETRAD
 40
10.0
  9
$AUNITS
 70
     0
  9
$AUPREC
 70
     0
  9
$MENU
  1
.
  9
$ELEVATION
 40
0.0
  9
$PELEVATION
 40
0.0
  9
$THICKNESS
 40
0.0
  9
$LIMCHECK
 70
     0
  9
$CHAMFERA
 40
10.0
  9
$CHAMFERB
 40
10.0
  9
$CHAMFERC
 40
20.0
  9
$CHAMFERD
 40
0.0
  9
$SKPOLY
 70
     0
  9
$TDCREATE
 40
2457290.490936655
  9
$TDUCREATE
 40
2457290.115936655
  9
$TDUPDATE
 40
2457290.490937141
  9
$TDUUPDATE
 40
2457290.115937141
  9
$TDINDWG
 40
0.0000000116
  9
$TDUSRTIMER
 40
0.0000000116
  9
$USRTIMER
 70
     1
  9
$ANGBASE
 50
0.0
  9
$ANGDIR
 70
     0
  9
$PDMODE
 70
     0
  9
$PDSIZE
 40
0.0
  9
$PLINEWID
 40
0.0
  9
$SPLFRAME
 70
     0
  9
$SPLINETYPE
 70
     6
  9
$SPLINESEGS
 70
     8
  9
$HANDSEED
  5
414
  9
$SURFTAB1
 70
     6
  9
$SURFTAB2
 70
     6
  9
$SURFTYPE
 70
     6
  9
$SURFU
 70
     6
  9
$SURFV
 70
     6
  9
$UCSBASE
  2

  9
$UCSNAME
  2

  9
$UCSORG
 10
0.0
 20
0.0
 30
0.0
  9
$UCSXDIR
 10
1.0
 20
0.0
 30
0.0
  9
$UCSYDIR
 10
0.0
 20
1.0
 30
0.0
  9
$UCSORTHOREF
  2

  9
$UCSORTHOVIEW
 70
     0
  9
$UCSORGTOP
 10
0.0
 20
0.0
 30
0.0
  9
$UCSORGBOTTOM
 10
0.0
 20
0.0
 30
0.0
  9
$UCSORGLEFT
 10
0.0
 20
0.0
 30
0.0
  9
$UCSORGRIGHT
 10
0.0
 20
0.0
 30
0.0
  9
$UCSORGFRONT
 10
0.0
 20
0.0
 30
0.0
  9
$UCSORGBACK
 10
0.0
 20
0.0
 30
0.0
  9
$PUCSBASE
  2

  9
$PUCSNAME
  2

  9
$PUCSORG
 10
0.0
 20
0.0
 30
0.0
  9
$PUCSXDIR
 10
1.0
 20
0.0
 30
0.0
  9
$PUCSYDIR
 10
0.0
 20
1.0
 30
0.0
  9
$PUCSORTHOREF
  2

  9
$PUCSORTHOVIEW
 70
     0
  9
$PUCSORGTOP
 10
0.0
 20
0.0
 30
0.0
  9
$PUCSORGBOTTOM
 10
0.0
 20
0.0
 30
0.0
  9
$PUCSORGLEFT
 10
0.0
 20
0.0
 30
0.0
  9
$PUCSORGRIGHT
 10
0.0
 20
0.0
 30
0.0
  9
$PUCSORGFRONT
 10
0.0
 20
0.0
 30
0.0
  9
$PUCSORGBACK
 10
0.0
 20
0.0
 30
0.0
  9
$USERI1
 70
     0
  9
$USERI2
 70
     0
  9
$USERI3
 70
     0
  9
$USERI4
 70
     0
  9
$USERI5
 70
     0
  9
$USERR1
 40
0.0
  9
$USERR2
 40
0.0
  9
$USERR3
 40
0.0
  9
$USERR4
 40
0.0
  9
$USERR5
 40
0.0
  9
$WORLDVIEW
 70
     1
  9
$SHADEDGE
 70
     3
  9
$SHADEDIF
 70
    70
  9
$TILEMODE
 70
     1
  9
$MAXACTVP
 70
    64
  9
$PINSBASE
 10
0.0
 20
0.0
 30
0.0
  9
$PLIMCHECK
 70
     0
  9
$PEXTMIN
 10
1.000000000000000E+20
 20
1.000000000000000E+20
 30
1.000000000000000E+20
  9
$PEXTMAX
 10
-1.000000000000000E+20
 20
-1.000000000000000E+20
 30
-1.000000000000000E+20
  9
$PLIMMIN
 10
-105.0
 20
-148.5
  9
$PLIMMAX
 10
105.0
 20
148.5
  9
$UNITMODE
 70
     0
  9
$VISRETAIN
 70
     1
  9
$PLINEGEN
 70
     0
  9
$PSLTSCALE
 70
     1
  9
$TREEDEPTH
 70
  3020
  9
$CMLSTYLE
  2
Standard
  9
$CMLJUST
 70
     0
  9
$CMLSCALE
 40
20.0
  9
$PROXYGRAPHICS
 70
     1
  9
$MEASUREMENT
 70
     1
  9
$CELWEIGHT
370
    -1
  9
$ENDCAPS
280
     0
  9
$JOINSTYLE
280
     0
  9
$LWDISPLAY
290
     0
  9
$INSUNITS
 70
     4
  9
$HYPERLINKBASE
  1

  9
$STYLESHEET
  1

  9
$XEDIT
290
     1
  9
$CEPSNTYPE
380
     0
  9
$PSTYLEMODE
290
     1
  9
$FINGERPRINTGUID
  2
{B9FA0680-1C1A-4D60-9384-F40CCC70EBD8}
  9
$VERSIONGUID
  2
{FAEB1C32-E019-11D5-929B-00C0DF256EC4}
  9
$EXTNAMES
290
     1
  9
$PSVPSCALE
 40
0.0
  9
$OLESTARTUP
290
     0
  9
$SORTENTS
280
   127
  9
$INDEXCTL
280
     0
  9
$HIDETEXT
280
     1
  9
$XCLIPFRAME
290
     0
  9
$HALOGAP
280
     0
  9
$OBSCOLOR
 70
   257
  9
$OBSLTYPE
280
     0
  9
$INTERSECTIONDISPLAY
280
     0
  9
$INTERSECTIONCOLOR
 70
   257
  9
$DIMASSOC
280
     2
  9
$PROJECTNAME
  1

  0
ENDSEC
  0
SECTION
  2
CLASSES
  0
CLASS
  1
ACDBDICTIONARYWDFLT
  2
AcDbDictionaryWithDefault
  3
ObjectDBX Classes
 90
        0
 91
        4
280
     0
281
     0
  0
CLASS
  1
VISUALSTYLE
  2
AcDbVisualStyle
  3
ObjectDBX Classes
 90
     4095
 91
        4
280
     0
281
     0
  0
CLASS
  1
MATERIAL
  2
AcDbMaterial
  3
ObjectDBX Classes
 90
     1153
 91
        4
280
     0
281
     0
  0
CLASS
  1
SUN
  2
AcDbSun
  3
SCENEOE
 90
     1024
 91
        4
280
     0
281
     0
  0
ENDSEC
  0
SECTION
  2
TABLES
  0
TABLE
  2
VPORT
  5
8
330
0
100
AcDbSymbolTable
 70
     1
  0
VPORT
  5
29
330
8
100
AcDbSymbolTableRecord
100
AcDbViewportTableRecord
  2
*Active
 70
     0
 10
0.0
 20
0.0
 11
1.0
 21
1.0
 12
344.1869158878504
 22
148.5
 13
0.0
 23
0.0
 14
10.0
 24
10.0
 15
10.0
 25
10.0
 16
0.0
 26
0.0
 36
1.0
 17
0.0
 27
0.0
 37
0.0
 40
297.0
 41
1.972972972850329
 42
50.0
 43
0.0
 44
0.0
 50
0.0
 51
0.0
 71
     0
 72
   100
 73
     1
 74
     3
 75
     0
 76
     0
 77
     0
 78
     0
281
     0
 65
     1
110
0.0
120
0.0
130
0.0
111
1.0
121
0.0
131
0.0
112
0.0
122
1.0
132
0.0
 79
     0
146
0.0
  0
ENDTAB
  0
TABLE
  2
LTYPE
  5
5
330
0
100
AcDbSymbolTable
 70
     5
  0
LTYPE
  5
14
330
5
100
AcDbSymbolTableRecord
100
AcDbLinetypeTableRecord
  2
ByBlock
 70
     0
  3

 72
    65
 73
     0
 40
0.0
  0
LTYPE
  5
15
330
5
100
AcDbSymbolTableRecord
100
AcDbLinetypeTableRecord
  2
ByLayer
 70
     0
  3

 72
    65
 73
     0
 40
0.0
  0
LTYPE
  5
16
330
5
100
AcDbSymbolTableRecord
100
AcDbLinetypeTableRecord
  2
Continuous
 70
     0
  3
Solid line
 72
    65
 73
     0
 40
0.0
  0
LTYPE
  5
40
330
5
100
AcDbSymbolTableRecord
100
AcDbLinetypeTableRecord
  2
CONTINOUS
 70
     0
  3
______________________________
 72
    65
 73
     0
 40
0.0
  0
LTYPE
  5
41
330
5
100
AcDbSymbolTableRecord
100
AcDbLinetypeTableRecord
  2
DASHED
 70
     0
  3
__ __ __ __ __ __ __ __ __ __ __ __ __ __ __ __
 72
    65
 73
     2
 40
4.5
 49
3.0
 74
     0
 49
-1.5
 74
     0
  0
LTYPE
  5
42
330
5
100
AcDbSymbolTableRecord
100
AcDbLinetypeTableRecord
  2
PHANTOM
 70
     0
  3
______  __  __  ______  __  __  _____
 72
    65
 73
     6
 40
15.0
 49
7.5
 74
     0
 49
-1.5
 74
     0
 49
1.5
 74
     0
 49
-1.5
 74
     0
 49
1.5
 74
     0
 49
-1.5
 74
     0
  0
LTYPE
  5
43
330
5
100
AcDbSymbolTableRecord
100
AcDbLinetypeTableRecord
  2
CENTER
 70
     0
  3
____ _ ____ _ ____ _ ____ _ ____ _ ____
 72
    65
 73
     4
 40
12.0
 49
7.5
 74
     0
 49
-1.5
 74
     0
 49
1.5
 74
     0
 49
-1.5
 74
     0
  0
ENDTAB
  0
TABLE
  2
LAYER
  5
2
330
0
100
AcDbSymbolTable
 70
     3
  0
LAYER
  5
10
330
2
100
AcDbSymbolTableRecord
100
AcDbLayerTableRecord
  2
0
 70
     0
 62
     7
  6
Continuous
370
    -3
390
F
  0
LAYER
  5
12E
330
2
100
AcDbSymbolTableRecord
100
AcDbLayerTableRecord
  2
Defpoints
 70
     0
 62
     7
  6
Continuous
290
     0
370
    -3
390
F
  0
LAYER
  5
3D4
330
2
100
AcDbSymbolTableRecord
100
AcDbLayerTableRecord
  2
VIEW0001
 70
     0
 62
     7
  6
Continuous
370
    -3
390
F
  0
ENDTAB
  0
TABLE
  2
STYLE
  5
3
330
0
100
AcDbSymbolTable
 70
     1
  0
STYLE
  5
11
330
3
100
AcDbSymbolTableRecord
100
AcDbTextStyleTableRecord
  2
Standard
 70
     0
 40
0.0
 41
1.0
 50
0.0
 71
     0
 42
2.5
  3
ROMANS
  4
BIGFONT
  0
ENDTAB
  0
TABLE
  2
VIEW
  5
6
330
0
100
AcDbSymbolTable
 70
     0
  0
ENDTAB
  0
TABLE
  2
UCS
  5
7
330
0
100
AcDbSymbolTable
 70
     0
  0
ENDTAB
  0
TABLE
  2
APPID
  5
9
330
0
100
AcDbSymbolTable
 70
     1
  0
APPID
  5
12
330
9
100
AcDbSymbolTableRecord
100
AcDbRegAppTableRecord
  2
ACAD
 70
     0
  0
ENDTAB
  0
TABLE
  2
DIMSTYLE
  5
A
330
0
100
AcDbSymbolTable
 70
     1
100
AcDbDimStyleTable
  0
DIMSTYLE
105
27
102
{ACAD_REACTORS
330
127
330
13B
330
149
330
157
330
164
330
23A
330
247
330
254
330
262
330
26F
330
378
330
385
330
393
330
3A0
330
3AD
330
3BA
330
3C7
102
}
330
A
100
AcDbSymbolTableRecord
100
AcDbDimStyleTableRecord
  2
ISO-25
 70
     0
 41
2.5
 42
0.625
 43
3.75
 44
1.25
 73
     0
 74
     0
 77
     1
 78
     8
140
2.5
141
2.5
143
0.03937007874016
147
0.625
171
     3
172
     1
178
     0
271
     2
272
     2
274
     3
278
    44
283
     0
284
     8
340
11
  0
ENDTAB
  0
TABLE
  2
BLOCK_RECORD
  5
1
330
0
100
AcDbSymbolTable
 70
    22
  0
BLOCK_RECORD
  5
1F
330
1
100
AcDbSymbolTableRecord
100
AcDbBlockTableRecord
  2
*Model_Space
340
22
  0
BLOCK_RECORD
  5
1B
330
1
100
AcDbSymbolTableRecord
100
AcDbBlockTableRecord
  2
*Paper_Space
340
1E
  0
BLOCK_RECORD
  5
23
330
1
100
AcDbSymbolTableRecord
100
AcDbBlockTableRecord
  2
*Paper_Space0
340
26
  0
BLOCK_RECORD
  5
44
330
1
100
AcDbSymbolTableRecord
100
AcDbBlockTableRecord
  2
DTL0001
340
0
  0
BLOCK_RECORD
  5
47
330
1
100
AcDbSymbolTableRecord
100
AcDbBlockTableRecord
  2
DTL0002
340
0
  0
BLOCK_RECORD
  5
4A
330
1
100
AcDbSymbolTableRecord
100
AcDbBlockTableRecord
  2
DTL0003
340
0
  0
BLOCK_RECORD
  5
128
330
1
100
AcDbSymbolTableRecord
100
AcDbBlockTableRecord
  2
_OPEN30
340
0
102
{BLKREFS
331
136
331
135
331
143
331
142
331
151
331
150
331
15F
331
15E
331
16C
331
16B
331
242
331
241
331
24F
331
24E
331
25C
331
25B
331
26A
331
269
331
277
331
276
331
380
331
37F
331
38D
331
38C
331
39B
331
39A
331
3A8
331
3A7
331
3B5
331
3B4
331
3C2
331
3C1
331
3CF
331
3CE
102
}
  0
BLOCK_RECORD
  5
12F
330
1
100
AcDbSymbolTableRecord
100
AcDbBlockTableRecord
  2
*D5
340
0
  0
BLOCK_RECORD
  5
13C
330
1
100
AcDbSymbolTableRecord
100
AcDbBlockTableRecord
  2
*D6
340
0
  0
BLOCK_RECORD
  5
14A
330
1
100
AcDbSymbolTableRecord
100
AcDbBlockTableRecord
  2
*D7
340
0
  0
BLOCK_RECORD
  5
158
330
1
100
AcDbSymbolTableRecord
100
AcDbBlockTableRecord
  2
*D8
340
0
  0
BLOCK_RECORD
  5
165
330
1
100
AcDbSymbolTableRecord
100
AcDbBlockTableRecord
  2
*D9
340
0
  0
BLOCK_RECORD
  5
23B
330
1
100
AcDbSymbolTableRecord
100
AcDbBlockTableRecord
  2
*D10
340
0
  0
BLOCK_RECORD
  5
248
330
1
100
AcDbSymbolTableRecord
100
AcDbBlockTableRecord
  2
*D11
340
0
  0
BLOCK_RECORD
  5
255
330
1
100
AcDbSymbolTableRecord
100
AcDbBlockTableRecord
  2
*D12
340
0
  0
BLOCK_RECORD
  5
263
330
1
100
AcDbSymbolTableRecord
100
AcDbBlockTableRecord
  2
*D13
340
0
  0
BLOCK_RECORD
  5
270
330
1
100
AcDbSymbolTableRecord
100
AcDbBlockTableRecord
  2
*D14
340
0
  0
BLOCK_RECORD
  5
379
330
1
100
AcDbSymbolTableRecord
100
AcDbBlockTableRecord
  2
*D15
340
0
  0
BLOCK_RECORD
  5
386
330
1
100
AcDbSymbolTableRecord
100
AcDbBlockTableRecord
  2
*D16
340
0
  0
BLOCK_RECORD
  5
394
330
1
100
AcDbSymbolTableRecord
100
AcDbBlockTableRecord
  2
*D17
340
0
  0
BLOCK_RECORD
  5
3A1
330
1
100
AcDbSymbolTableRecord
100
AcDbBlockTableRecord
  2
*D18
340
0
  0
BLOCK_RECORD
  5
3AE
330
1
100
AcDbSymbolTableRecord
100
AcDbBlockTableRecord
  2
*D19
340
0
  0
BLOCK_RECORD
  5
3BB
330
1
100
AcDbSymbolTableRecord
100
AcDbBlockTableRecord
  2
*D20
340
0
  0
BLOCK_RECORD
  5
3C8
330
1
100
AcDbSymbolTableRecord
100
AcDbBlockTableRecord
  2
*D21
340
0
  0
ENDTAB
  0
ENDSEC
  0
SECTION
  2
BLOCKS
  0
BLOCK
  5
20
330
1F
100
AcDbEntity
  8
0
100
AcDbBlockBegin
  2
*Model_Space
 70
     0
 10
0.0
 20
0.0
 30
0.0
  3
*Model_Space
  1

  0
ENDBLK
  5
21
330
1F
100
AcDbEntity
  8
0
100
AcDbBlockEnd
  0
BLOCK
  5
1C
330
1B
100
AcDbEntity
 67
     1
  8
0
100
AcDbBlockBegin
  2
*Paper_Space
 70
     0
 10
0.0
 20
0.0
 30
0.0
  3
*Paper_Space
  1

  0
ENDBLK
  5
1D
330
1B
100
AcDbEntity
 67
     1
  8
0
100
AcDbBlockEnd
  0
BLOCK
  5
24
330
23
100
AcDbEntity
  8
0
100
AcDbBlockBegin
  2
*Paper_Space0
 70
     0
 10
0.0
 20
0.0
 30
0.0
  3
*Paper_Space0
  1

  0
ENDBLK
  5
25
330
23
100
AcDbEntity
  8
0
100
AcDbBlockEnd
  0
BLOCK
  5
45
330
44
100
AcDbEntity
  8
0
100
AcDbBlockBegin
  2
DTL0001
 70
     0
 10
0.0
 20
0.0
 30
0.0
  3
DTL0001
  1

  0
POINT
  5
4D
330
44
100
AcDbEntity
  8
0
 62
     0
100
AcDbPoint
 10
100.0000076293945
 20
137.5
 30
0.0
  0
POINT
  5
4E
330
44
100
AcDbEntity
  8
0
 62
     0
100
AcDbPoint
 10
105.0000076293945
 20
148.4999847412109
 30
0.0
  0
POINT
  5
4F
330
44
100
AcDbEntity
  8
0
 62
     0
100
AcDbPoint
 10
-105.0000076293945
 20
-148.4999847412109
 30
0.0
  0
POINT
  5
50
330
44
100
AcDbEntity
  8
0
 62
     0
100
AcDbPoint
 10
0.0
 20
0.0
 30
0.0
  0
POINT
  5
51
330
44
100
AcDbEntity
  8
0
 62
     0
100
AcDbPoint
 10
5.0
 20
-128.5
 30
0.0
  0
POINT
  5
52
330
44
100
AcDbEntity
  8
0
 62
     0
100
AcDbPoint
 10
-85.0
 20
-119.5
 30
0.0
  0
MTEXT
  5
53
330
44
100
AcDbEntity
  8
0
 62
     1
100
AcDbMText
 10
-82.50000762939453
 20
-123.4168127775192
 30
0.0
 40
7.0
 41
0.0
 71
     7
 72
     1
  1
{\W1;A4}
 11
6.123233995736766E-17
 21
1.0
 31
0.0
 73
     1
 44
1.0
  0
ENDBLK
  5
46
330
44
100
AcDbEntity
  8
0
100
AcDbBlockEnd
  0
BLOCK
  5
48
330
47
100
AcDbEntity
  8
0
100
AcDbBlockBegin
  2
DTL0002
 70
     0
 10
0.0
 20
0.0
 30
0.0
  3
DTL0002
  1

  0
POINT
  5
54
330
47
100
AcDbEntity
  8
0
 62
     0
100
AcDbPoint
 10
29.09910583496094
 20
113.7599792480469
 30
0.0
  0
POINT
  5
55
330
47
100
AcDbEntity
  8
0
 62
     0
100
AcDbPoint
 10
-14.90087890625
 20
113.7599792480469
 30
0.0
  0
POINT
  5
56
330
47
100
AcDbEntity
  8
0
 62
     0
100
AcDbPoint
 10
49.09910583496094
 20
-79.6063003540039
 30
0.0
  0
POINT
  5
57
330
47
100
AcDbEntity
  8
0
 62
     0
100
AcDbPoint
 10
63.57212829589844
 20
-3.106307983398438
 30
0.0
  0
POINT
  5
58
330
47
100
AcDbEntity
  8
0
 62
     0
100
AcDbPoint
 10
61.77212524414062
 20
-4.906295776367188
 30
0.0
  0
POINT
  5
59
330
47
100
AcDbEntity
  8
0
 62
     0
100
AcDbPoint
 10
49.09910583496094
 20
-79.6063003540039
 30
0.0
  0
POINT
  5
5A
330
47
100
AcDbEntity
  8
0
 62
     0
100
AcDbPoint
 10
-50.90089416503906
 20
-79.6063003540039
 30
0.0
  0
POINT
  5
5B
330
47
100
AcDbEntity
  8
0
 62
     0
100
AcDbPoint
 10
-81.23683166503906
 20
31.89369201660156
 30
0.0
  0
POINT
  5
5C
330
47
100
AcDbEntity
  8
0
 62
     0
100
AcDbPoint
 10
-79.43684387207031
 20
30.09368896484375
 30
0.0
  0
POINT
  5
5D
330
47
100
AcDbEntity
  8
0
 62
     0
100
AcDbPoint
 10
0.0
 20
0.0
 30
0.0
  0
LINE
  5
5E
330
47
100
AcDbEntity
  8
0
  6
Continuous
 62
     0
100
AcDbLine
 10
-80.44117736816406
 20
78.75997924804688
 30
0.0
 11
62.77647399902344
 21
78.75997924804688
 31
0.0
  0
LINE
  5
5F
330
47
100
AcDbEntity
  8
0
  6
Continuous
 62
     0
100
AcDbLine
 10
-73.73683166503906
 20
100.7599487304688
 30
0.0
 11
-69.43684387207031
 21
100.7599487304688
 31
0.0
  0
LINE
  5
60
330
47
100
AcDbEntity
  8
0
  6
Continuous
 62
     0
100
AcDbLine
 10
-81.23683166503906
 20
113.7599487304688
 30
0.0
 11
-81.23683166503906
 21
82.75994873046875
 31
0.0
  0
LINE
  5
61
330
47
100
AcDbEntity
  8
0
  6
Continuous
 62
     0
100
AcDbLine
 10
-69.43681335449219
 20
100.7599487304688
 30
0.0
 11
-69.43681335449219
 21
78.75997924804688
 31
0.0
  0
LINE
  5
62
330
47
100
AcDbEntity
  8
0
  6
Continuous
 62
     0
100
AcDbLine
 10
-72.93611145019531
 20
100.7599487304688
 30
0.0
 11
-72.93611145019531
 21
78.75997924804688
 31
0.0
  0
LINE
  5
63
330
47
100
AcDbEntity
  8
0
  6
Continuous
 62
     0
100
AcDbLine
 10
-81.23683166503906
 20
82.75996398925781
 30
0.0
 11
-72.93611145019531
 21
82.75996398925781
 31
0.0
  0
LINE
  5
64
330
47
100
AcDbEntity
  8
0
  6
Continuous
 62
     0
100
AcDbLine
 10
-81.23688699753443
 20
82.75999545361839
 30
0.0
 11
-80.4412379395025
 21
78.75999077566422
 31
0.0
  0
LINE
  5
65
330
47
100
AcDbEntity
  8
0
  6
Continuous
 62
     0
100
AcDbLine
 10
-77.73683166503906
 20
113.7599487304688
 30
0.0
 11
-77.73683166503906
 21
104.7599487304688
 31
0.0
  0
LINE
  5
66
330
47
100
AcDbEntity
  8
0
  6
Continuous
 62
     0
100
AcDbLine
 10
-68.78688049316406
 20
113.7599487304688
 30
0.0
 11
-68.78688049316406
 21
78.75997924804688
 31
0.0
  0
LINE
  5
67
330
47
100
AcDbEntity
  8
0
  6
Continuous
 62
     0
100
AcDbLine
 10
-66.97584533691406
 20
112.7599487304688
 30
0.0
 11
-66.97584533691406
 21
78.75997924804688
 31
0.0
  0
LINE
  5
68
330
47
100
AcDbEntity
  8
0
  6
Continuous
 62
     0
100
AcDbLine
 10
-68.78688049316406
 20
112.7599487304688
 30
0.0
 11
-63.17073059082031
 21
112.7599487304688
 31
0.0
  0
LINE
  5
69
330
47
100
AcDbEntity
  8
0
  6
Continuous
 62
     0
100
AcDbLine
 10
-62.38282775878906
 20
104.7599792480469
 30
0.0
 11
-59.97169494628906
 21
104.7599792480469
 31
0.0
  0
LINE
  5
6A
330
47
100
AcDbEntity
  8
0
  6
Continuous
 62
     0
100
AcDbLine
 10
-59.97166442871094
 20
112.7599487304688
 30
0.0
 11
-59.97166442871094
 21
104.7599487304688
 31
0.0
  0
LINE
  5
6B
330
47
100
AcDbEntity
  8
0
  6
Continuous
 62
     0
100
AcDbLine
 10
-61.45899963378906
 20
113.7599487304688
 30
0.0
 11
-61.45899963378906
 21
104.7599487304688
 31
0.0
  0
LINE
  5
6C
330
47
100
AcDbEntity
  8
0
  6
Continuous
 62
     0
100
AcDbLine
 10
-63.17065848194606
 20
112.7599607340251
 30
0.0
 11
-62.38272371420282
 21
104.7599734321872
 31
0.0
  0
LINE
  5
6D
330
47
100
AcDbEntity
  8
0
  6
Continuous
 62
     0
100
AcDbLine
 10
-53.05207824707031
 20
113.7599487304688
 30
0.0
 11
-53.05207824707031
 21
104.7599487304688
 31
0.0
  0
LINE
  5
6E
330
47
100
AcDbEntity
  8
0
  6
Continuous
 62
     0
100
AcDbLine
 10
-53.97590637207031
 20
104.7599792480469
 30
0.0
 11
-6.133529663085938
 21
104.7599792480469
 31
0.0
  0
LINE
  5
6F
330
47
100
AcDbEntity
  8
0
  6
Continuous
 62
     0
100
AcDbLine
 10
-54.76374862432449
 20
112.7599666026752
 30
0.0
 11
-53.97581385658125
 21
104.7599793008372
 31
0.0
  0
LINE
  5
70
330
47
100
AcDbEntity
  8
0
  6
Continuous
 62
     0
100
AcDbLine
 10
-56.69667053222656
 20
112.7599487304688
 30
0.0
 11
-56.69667053222656
 21
78.75997924804688
 31
0.0
  0
LINE
  5
71
330
47
100
AcDbEntity
  8
0
  6
Continuous
 62
     0
100
AcDbLine
 10
-59.97169494628906
 20
112.7599487304688
 30
0.0
 11
-54.76383972167969
 21
112.7599487304688
 31
0.0
  0
LINE
  5
72
330
47
100
AcDbEntity
  8
0
  6
DASHED
 62
     0
100
AcDbLine
 10
-54.56196594238281
 20
112.7599487304688
 30
0.0
 11
-17.72932434082031
 21
112.7599487304688
 31
0.0
  0
LINE
  5
73
330
47
100
AcDbEntity
  8
0
  6
Continuous
 62
     0
100
AcDbLine
 10
-36.90089416503906
 20
104.7599487304688
 30
0.0
 11
-36.90089416503906
 21
78.75997924804688
 31
0.0
  0
LINE
  5
74
330
47
100
AcDbEntity
  8
0
  6
Continuous
 62
     0
100
AcDbLine
 10
-2.90087890625
 20
113.7599487304688
 30
0.0
 11
-2.90087890625
 21
112.7599487304688
 31
0.0
  0
LINE
  5
75
330
47
100
AcDbEntity
  8
0
  6
Continuous
 62
     0
100
AcDbLine
 10
17.09910583496094
 20
113.7599487304688
 30
0.0
 11
17.09910583496094
 21
112.7599487304688
 31
0.0
  0
LINE
  5
76
330
47
100
AcDbEntity
  8
0
  6
Continuous
 62
     0
100
AcDbLine
 10
-24.455322265625
 20
113.7599487304688
 30
0.0
 11
-24.455322265625
 21
104.7599487304688
 31
0.0
  0
LINE
  5
77
330
47
100
AcDbEntity
  8
0
  6
Continuous
 62
     0
100
AcDbLine
 10
-34.45530700683594
 20
113.7599487304688
 30
0.0
 11
-34.45530700683594
 21
104.7599487304688
 31
0.0
  0
LINE
  5
78
330
47
100
AcDbEntity
  8
0
  6
Continuous
 62
     0
100
AcDbLine
 10
-2.900948297028084
 20
112.7599324268722
 30
0.0
 11
-4.172021890518014
 21
106.3698021987947
 31
0.0
  0
LINE
  5
79
330
47
100
AcDbEntity
  8
0
  6
Continuous
 62
     0
100
AcDbLine
 10
17.099070830576
 20
112.7599819499992
 30
0.0
 11
18.37014602652353
 21
106.3698209252206
 31
0.0
  0
LINE
  5
7A
330
47
100
AcDbEntity
  8
0
  6
Continuous
 62
     0
100
AcDbLine
 10
20.33174133300781
 20
104.7599792480469
 30
0.0
 11
48.97154235839844
 21
104.7599792480469
 31
0.0
  0
LINE
  5
7B
330
47
100
AcDbEntity
  8
0
  6
Continuous
 62
     0
100
AcDbLine
 10
-2.900894165039062
 20
112.7599487304688
 30
0.0
 11
17.09910583496094
 21
112.7599487304688
 31
0.0
  0
LINE
  5
7C
330
47
100
AcDbEntity
  8
0
  6
DASHED
 62
     0
100
AcDbLine
 10
17.09910583496094
 20
112.7599487304688
 30
0.0
 11
26.27067565917969
 21
112.7599487304688
 31
0.0
  0
LINE
  5
7D
330
47
100
AcDbEntity
  8
0
  6
Continuous
 62
     0
100
AcDbLine
 10
63.57212829589844
 20
113.7599487304688
 30
0.0
 11
63.57212829589844
 21
82.75994873046875
 31
0.0
  0
LINE
  5
7E
330
47
100
AcDbEntity
  8
0
  6
Continuous
 62
     0
100
AcDbLine
 10
52.172119140625
 20
100.7599487304688
 30
0.0
 11
52.172119140625
 21
78.75997924804688
 31
0.0
  0
LINE
  5
7F
330
47
100
AcDbEntity
  8
0
  6
Continuous
 62
     0
100
AcDbLine
 10
56.00517272949219
 20
100.7599487304688
 30
0.0
 11
56.00517272949219
 21
78.75997924804688
 31
0.0
  0
LINE
  5
80
330
47
100
AcDbEntity
  8
0
  6
Continuous
 62
     0
100
AcDbLine
 10
56.00517272949219
 20
82.75996398925781
 30
0.0
 11
63.57211303710938
 21
82.75996398925781
 31
0.0
  0
LINE
  5
81
330
47
100
AcDbEntity
  8
0
  6
Continuous
 62
     0
100
AcDbLine
 10
63.57216663150787
 20
82.75998208826582
 30
0.0
 11
62.77651862574574
 21
78.75997720100267
 31
0.0
  0
LINE
  5
82
330
47
100
AcDbEntity
  8
0
  6
Continuous
 62
     0
100
AcDbLine
 10
52.17210388183594
 20
100.7599487304688
 30
0.0
 11
56.07211303710938
 21
100.7599487304688
 31
0.0
  0
LINE
  5
83
330
47
100
AcDbEntity
  8
0
  6
Continuous
 62
     0
100
AcDbLine
 10
60.07212829589844
 20
113.7599487304688
 30
0.0
 11
60.07212829589844
 21
104.7599487304688
 31
0.0
  0
LINE
  5
84
330
47
100
AcDbEntity
  8
0
  6
Continuous
 62
     0
100
AcDbLine
 10
54.672119140625
 20
113.7599487304688
 30
0.0
 11
54.672119140625
 21
100.7599487304688
 31
0.0
  0
LINE
  5
85
330
47
100
AcDbEntity
  8
0
  6
Continuous
 62
     0
100
AcDbLine
 10
51.15876770019531
 20
113.7599487304688
 30
0.0
 11
51.15876770019531
 21
104.7599487304688
 31
0.0
  0
LINE
  5
86
330
47
100
AcDbEntity
  8
0
  6
Continuous
 62
     0
100
AcDbLine
 10
52.87051498912348
 20
112.7599521971822
 30
0.0
 11
52.08256998460561
 21
104.7599659035913
 31
0.0
  0
LINE
  5
87
330
47
100
AcDbEntity
  8
0
  6
Continuous
 62
     0
100
AcDbLine
 10
52.87051391601562
 20
112.7599487304688
 30
0.0
 11
54.67210388183594
 21
112.7599487304688
 31
0.0
  0
LINE
  5
88
330
47
100
AcDbEntity
  8
0
  6
Continuous
 62
     0
100
AcDbLine
 10
49.84642028808594
 20
113.7599487304688
 30
0.0
 11
49.84642028808594
 21
104.7599487304688
 31
0.0
  0
LINE
  5
89
330
47
100
AcDbEntity
  8
0
  6
Continuous
 62
     0
100
AcDbLine
 10
48.97154235839844
 20
113.7599487304688
 30
0.0
 11
48.97154235839844
 21
104.7599487304688
 31
0.0
  0
LINE
  5
8A
330
47
100
AcDbEntity
  8
0
  6
Continuous
 62
     0
100
AcDbLine
 10
49.84642028808594
 20
104.7599792480469
 30
0.0
 11
52.08256530761719
 21
104.7599792480469
 31
0.0
  0
LINE
  5
8B
330
47
100
AcDbEntity
  8
0
  6
Continuous
 62
     0
100
AcDbLine
 10
-17.72932434082031
 20
112.7599487304688
 30
0.0
 11
-12.07246398925781
 21
112.7599487304688
 31
0.0
  0
LINE
  5
8C
330
47
100
AcDbEntity
  8
0
  6
DASHED
 62
     0
100
AcDbLine
 10
-12.07246398925781
 20
112.7599487304688
 30
0.0
 11
-2.900894165039062
 21
112.7599487304688
 31
0.0
  0
LINE
  5
8D
330
47
100
AcDbEntity
  8
0
  6
Continuous
 62
     0
100
AcDbLine
 10
26.27067565917969
 20
112.7599487304688
 30
0.0
 11
31.92753601074219
 21
112.7599487304688
 31
0.0
  0
LINE
  5
8E
330
47
100
AcDbEntity
  8
0
  6
DASHED
 62
     0
100
AcDbLine
 10
31.92753601074219
 20
112.7599487304688
 30
0.0
 11
52.87051391601562
 21
112.7599487304688
 31
0.0
  0
LINE
  5
8F
330
47
100
AcDbEntity
  8
0
  6
Continuous
 62
     0
100
AcDbLine
 10
-80.44117736816406
 20
148.7599792480469
 30
0.0
 11
62.77647399902344
 21
148.7599792480469
 31
0.0
  0
LINE
  5
90
330
47
100
AcDbEntity
  8
0
  6
Continuous
 62
     0
100
AcDbLine
 10
-73.73683166503906
 20
126.7599792480469
 30
0.0
 11
-69.43684387207031
 21
126.7599792480469
 31
0.0
  0
LINE
  5
91
330
47
100
AcDbEntity
  8
0
  6
Continuous
 62
     0
100
AcDbLine
 10
-81.23683166503906
 20
113.7599487304688
 30
0.0
 11
-81.23683166503906
 21
144.7599792480469
 31
0.0
  0
LINE
  5
92
330
47
100
AcDbEntity
  8
0
  6
Continuous
 62
     0
100
AcDbLine
 10
-69.43681335449219
 20
126.7599792480469
 30
0.0
 11
-69.43681335449219
 21
148.7599792480469
 31
0.0
  0
LINE
  5
93
330
47
100
AcDbEntity
  8
0
  6
Continuous
 62
     0
100
AcDbLine
 10
-72.93611145019531
 20
126.7599792480469
 30
0.0
 11
-72.93611145019531
 21
148.7599792480469
 31
0.0
  0
LINE
  5
94
330
47
100
AcDbEntity
  8
0
  6
Continuous
 62
     0
100
AcDbLine
 10
-81.23683166503906
 20
144.7599792480469
 30
0.0
 11
-72.93611145019531
 21
144.7599792480469
 31
0.0
  0
LINE
  5
95
330
47
100
AcDbEntity
  8
0
  6
Continuous
 62
     0
100
AcDbLine
 10
-81.23690586419082
 20
144.7599730650714
 30
0.0
 11
-80.44125234090302
 21
148.7600001914205
 31
0.0
  0
LINE
  5
96
330
47
100
AcDbEntity
  8
0
  6
Continuous
 62
     0
100
AcDbLine
 10
-77.73683166503906
 20
113.7599487304688
 30
0.0
 11
-77.73683166503906
 21
122.7599487304688
 31
0.0
  0
LINE
  5
97
330
47
100
AcDbEntity
  8
0
  6
Continuous
 62
     0
100
AcDbLine
 10
-68.78688049316406
 20
113.7599487304688
 30
0.0
 11
-68.78688049316406
 21
148.7599792480469
 31
0.0
  0
LINE
  5
98
330
47
100
AcDbEntity
  8
0
  6
Continuous
 62
     0
100
AcDbLine
 10
-66.97584533691406
 20
114.7599792480469
 30
0.0
 11
-66.97584533691406
 21
148.7599792480469
 31
0.0
  0
LINE
  5
99
330
47
100
AcDbEntity
  8
0
  6
Continuous
 62
     0
100
AcDbLine
 10
-68.78688049316406
 20
114.7599792480469
 30
0.0
 11
-63.17073059082031
 21
114.7599792480469
 31
0.0
  0
LINE
  5
9A
330
47
100
AcDbEntity
  8
0
  6
Continuous
 62
     0
100
AcDbLine
 10
-62.38282775878906
 20
122.7599792480469
 30
0.0
 11
-59.97169494628906
 21
122.7599792480469
 31
0.0
  0
LINE
  5
9B
330
47
100
AcDbEntity
  8
0
  6
Continuous
 62
     0
100
AcDbLine
 10
-59.97166442871094
 20
114.7599792480469
 30
0.0
 11
-59.97166442871094
 21
122.7599487304688
 31
0.0
  0
LINE
  5
9C
330
47
100
AcDbEntity
  8
0
  6
Continuous
 62
     0
100
AcDbLine
 10
-61.45899963378906
 20
113.7599487304688
 30
0.0
 11
-61.45899963378906
 21
122.7599487304688
 31
0.0
  0
LINE
  5
9D
330
47
100
AcDbEntity
  8
0
  6
Continuous
 62
     0
100
AcDbLine
 10
-63.17067211724365
 20
114.7599867484291
 30
0.0
 11
-62.38273734950041
 21
122.759974050267
 31
0.0
  0
LINE
  5
9E
330
47
100
AcDbEntity
  8
0
  6
Continuous
 62
     0
100
AcDbLine
 10
-53.05207824707031
 20
113.7599487304688
 30
0.0
 11
-53.05207824707031
 21
122.7599487304688
 31
0.0
  0
LINE
  5
9F
330
47
100
AcDbEntity
  8
0
  6
Continuous
 62
     0
100
AcDbLine
 10
-53.97590637207031
 20
122.7599792480469
 30
0.0
 11
-6.133529663085938
 21
122.7599792480469
 31
0.0
  0
LINE
  5
A0
330
47
100
AcDbEntity
  8
0
  6
Continuous
 62
     0
100
AcDbLine
 10
-54.76372958829986
 20
114.7599623292944
 30
0.0
 11
-53.97579482055662
 21
122.7599496311323
 31
0.0
  0
LINE
  5
A1
330
47
100
AcDbEntity
  8
0
  6
Continuous
 62
     0
100
AcDbLine
 10
-56.69667053222656
 20
114.7599792480469
 30
0.0
 11
-56.69667053222656
 21
148.7599792480469
 31
0.0
  0
LINE
  5
A2
330
47
100
AcDbEntity
  8
0
  6
Continuous
 62
     0
100
AcDbLine
 10
-59.97169494628906
 20
114.7599792480469
 30
0.0
 11
-54.76383972167969
 21
114.7599792480469
 31
0.0
  0
LINE
  5
A3
330
47
100
AcDbEntity
  8
0
  6
DASHED
 62
     0
100
AcDbLine
 10
-54.56196594238281
 20
114.7599792480469
 30
0.0
 11
-17.72932434082031
 21
114.7599792480469
 31
0.0
  0
LINE
  5
A4
330
47
100
AcDbEntity
  8
0
  6
Continuous
 62
     0
100
AcDbLine
 10
-36.90089416503906
 20
122.7599487304688
 30
0.0
 11
-36.90089416503906
 21
148.7599792480469
 31
0.0
  0
LINE
  5
A5
330
47
100
AcDbEntity
  8
0
  6
Continuous
 62
     0
100
AcDbLine
 10
-2.90087890625
 20
113.7599487304688
 30
0.0
 11
-2.90087890625
 21
114.7599792480469
 31
0.0
  0
LINE
  5
A6
330
47
100
AcDbEntity
  8
0
  6
Continuous
 62
     0
100
AcDbLine
 10
17.09910583496094
 20
113.7599487304688
 30
0.0
 11
17.09910583496094
 21
114.7599792480469
 31
0.0
  0
LINE
  5
A7
330
47
100
AcDbEntity
  8
0
  6
Continuous
 62
     0
100
AcDbLine
 10
-24.455322265625
 20
113.7599487304688
 30
0.0
 11
-24.455322265625
 21
122.7599487304688
 31
0.0
  0
LINE
  5
A8
330
47
100
AcDbEntity
  8
0
  6
Continuous
 62
     0
100
AcDbLine
 10
-34.45530700683594
 20
113.7599487304688
 30
0.0
 11
-34.45530700683594
 21
122.7599487304688
 31
0.0
  0
LINE
  5
A9
330
47
100
AcDbEntity
  8
0
  6
Continuous
 62
     0
100
AcDbLine
 10
-2.900951564385682
 20
114.7600537028523
 30
0.0
 11
-4.172025157875609
 21
121.1501839309298
 31
0.0
  0
LINE
  5
AA
330
47
100
AcDbEntity
  8
0
  6
Continuous
 62
     0
100
AcDbLine
 10
17.09907678049512
 20
114.7599728299694
 30
0.0
 11
18.37015793009589
 21
121.1501637859456
 31
0.0
  0
LINE
  5
AB
330
47
100
AcDbEntity
  8
0
  6
Continuous
 62
     0
100
AcDbLine
 10
20.33174133300781
 20
122.7599792480469
 30
0.0
 11
48.97154235839844
 21
122.7599792480469
 31
0.0
  0
LINE
  5
AC
330
47
100
AcDbEntity
  8
0
  6
Continuous
 62
     0
100
AcDbLine
 10
-2.900894165039062
 20
114.7599792480469
 30
0.0
 11
17.09910583496094
 21
114.7599792480469
 31
0.0
  0
LINE
  5
AD
330
47
100
AcDbEntity
  8
0
  6
DASHED
 62
     0
100
AcDbLine
 10
17.09910583496094
 20
114.7599792480469
 30
0.0
 11
26.27067565917969
 21
114.7599792480469
 31
0.0
  0
LINE
  5
AE
330
47
100
AcDbEntity
  8
0
  6
Continuous
 62
     0
100
AcDbLine
 10
63.57212829589844
 20
113.7599487304688
 30
0.0
 11
63.57212829589844
 21
144.7599792480469
 31
0.0
  0
LINE
  5
AF
330
47
100
AcDbEntity
  8
0
  6
Continuous
 62
     0
100
AcDbLine
 10
52.172119140625
 20
126.7599792480469
 30
0.0
 11
52.172119140625
 21
148.7599792480469
 31
0.0
  0
LINE
  5
B0
330
47
100
AcDbEntity
  8
0
  6
Continuous
 62
     0
100
AcDbLine
 10
56.00517272949219
 20
126.7599792480469
 30
0.0
 11
56.00517272949219
 21
148.7599792480469
 31
0.0
  0
LINE
  5
B1
330
47
100
AcDbEntity
  8
0
  6
Continuous
 62
     0
100
AcDbLine
 10
56.00517272949219
 20
144.7599792480469
 30
0.0
 11
63.57211303710938
 21
144.7599792480469
 31
0.0
  0
LINE
  5
B2
330
47
100
AcDbEntity
  8
0
  6
Continuous
 62
     0
100
AcDbLine
 10
63.57212120187654
 20
144.7600239665512
 30
0.0
 11
62.77647914978103
 21
148.7599989226194
 31
0.0
  0
LINE
  5
B3
330
47
100
AcDbEntity
  8
0
  6
Continuous
 62
     0
100
AcDbLine
 10
52.17210388183594
 20
126.7599792480469
 30
0.0
 11
56.07211303710938
 21
126.7599792480469
 31
0.0
  0
LINE
  5
B4
330
47
100
AcDbEntity
  8
0
  6
Continuous
 62
     0
100
AcDbLine
 10
60.07212829589844
 20
113.7599487304688
 30
0.0
 11
60.07212829589844
 21
122.7599487304688
 31
0.0
  0
LINE
  5
B5
330
47
100
AcDbEntity
  8
0
  6
Continuous
 62
     0
100
AcDbLine
 10
54.672119140625
 20
113.7599487304688
 30
0.0
 11
54.672119140625
 21
126.7599792480469
 31
0.0
  0
LINE
  5
B6
330
47
100
AcDbEntity
  8
0
  6
Continuous
 62
     0
100
AcDbLine
 10
51.15876770019531
 20
113.7599487304688
 30
0.0
 11
51.15876770019531
 21
122.7599487304688
 31
0.0
  0
LINE
  5
B7
330
47
100
AcDbEntity
  8
0
  6
Continuous
 62
     0
100
AcDbLine
 10
52.87055327596742
 20
114.7599803900219
 30
0.0
 11
52.08260827144955
 21
122.7599666836128
 31
0.0
  0
LINE
  5
B8
330
47
100
AcDbEntity
  8
0
  6
Continuous
 62
     0
100
AcDbLine
 10
52.87051391601562
 20
114.7599792480469
 30
0.0
 11
54.67210388183594
 21
114.7599792480469
 31
0.0
  0
LINE
  5
B9
330
47
100
AcDbEntity
  8
0
  6
Continuous
 62
     0
100
AcDbLine
 10
49.84642028808594
 20
113.7599487304688
 30
0.0
 11
49.84642028808594
 21
122.7599487304688
 31
0.0
  0
LINE
  5
BA
330
47
100
AcDbEntity
  8
0
  6
Continuous
 62
     0
100
AcDbLine
 10
48.97154235839844
 20
113.7599487304688
 30
0.0
 11
48.97154235839844
 21
122.7599487304688
 31
0.0
  0
LINE
  5
BB
330
47
100
AcDbEntity
  8
0
  6
Continuous
 62
     0
100
AcDbLine
 10
49.84642028808594
 20
122.7599792480469
 30
0.0
 11
52.08256530761719
 21
122.7599792480469
 31
0.0
  0
LINE
  5
BC
330
47
100
AcDbEntity
  8
0
  6
Continuous
 62
     0
100
AcDbLine
 10
-17.72932434082031
 20
114.7599792480469
 30
0.0
 11
-12.07246398925781
 21
114.7599792480469
 31
0.0
  0
LINE
  5
BD
330
47
100
AcDbEntity
  8
0
  6
DASHED
 62
     0
100
AcDbLine
 10
-12.07246398925781
 20
114.7599792480469
 30
0.0
 11
-2.900894165039062
 21
114.7599792480469
 31
0.0
  0
LINE
  5
BE
330
47
100
AcDbEntity
  8
0
  6
Continuous
 62
     0
100
AcDbLine
 10
26.27067565917969
 20
114.7599792480469
 30
0.0
 11
31.92753601074219
 21
114.7599792480469
 31
0.0
  0
LINE
  5
BF
330
47
100
AcDbEntity
  8
0
  6
DASHED
 62
     0
100
AcDbLine
 10
31.92753601074219
 20
114.7599792480469
 30
0.0
 11
52.87051391601562
 21
114.7599792480469
 31
0.0
  0
LINE
  5
C0
330
47
100
AcDbEntity
  8
0
  6
Continuous
 62
     0
100
AcDbLine
 10
-32.90092468261719
 20
-79.6063003540039
 30
0.0
 11
41.76846313476562
 21
-79.6063003540039
 31
0.0
  0
LINE
  5
C1
330
47
100
AcDbEntity
  8
0
  6
Continuous
 62
     0
100
AcDbLine
 10
53.67213439941406
 20
-4.906295776367188
 30
0.0
 11
60.77210998535156
 21
-4.906295776367188
 31
0.0
  0
LINE
  5
C2
330
47
100
AcDbEntity
  8
0
  6
Continuous
 62
     0
100
AcDbLine
 10
51.15875244140625
 20
-15.90629577636719
 30
0.0
 11
60.77210998535156
 21
-15.90629577636719
 31
0.0
  0
LINE
  5
C3
330
47
100
AcDbEntity
  8
0
  6
Continuous
 62
     0
100
AcDbLine
 10
54.67211349524512
 20
-15.90630118679705
 30
0.0
 11
49.73801296515497
 21
-72.30354542987826
 31
0.0
  0
LINE
  5
C4
330
47
100
AcDbEntity
  8
0
  6
Continuous
 62
     0
100
AcDbLine
 10
54.67210388183594
 20
-15.90629577636719
 30
0.0
 11
60.77210998535156
 21
-15.90629577636719
 31
0.0
  0
LINE
  5
C5
330
47
100
AcDbEntity
  8
0
  6
Continuous
 62
     0
100
AcDbLine
 10
61.77212524414062
 20
-5.906295776367188
 30
0.0
 11
61.77212524414062
 21
-14.90631103515625
 31
0.0
  0
LINE
  5
C6
330
47
100
AcDbEntity
  8
0
  6
Continuous
 62
     0
100
AcDbLine
 10
53.67213439941406
 20
-4.906295776367188
 30
0.0
 11
53.67213439941406
 21
-5.842788696289062
 31
0.0
  0
LINE
  5
C7
330
47
100
AcDbEntity
  8
0
  6
Continuous
 62
     0
100
AcDbLine
 10
56.00517272949219
 20
-3.106307983398438
 30
0.0
 11
61.07209777832031
 21
-3.106307983398438
 31
0.0
  0
LINE
  5
C8
330
47
100
AcDbEntity
  8
0
  6
Continuous
 62
     0
100
AcDbLine
 10
63.57212829589844
 20
-5.606292724609375
 30
0.0
 11
63.57212829589844
 21
-15.206298828125
 31
0.0
  0
LINE
  5
C9
330
47
100
AcDbEntity
  8
0
  6
Continuous
 62
     0
100
AcDbLine
 10
56.32150268554688
 20
-17.706298828125
 30
0.0
 11
61.07209777832031
 21
-17.706298828125
 31
0.0
  0
LINE
  5
CA
330
47
100
AcDbEntity
  8
0
  6
Continuous
 62
     0
100
AcDbLine
 10
56.3215136807314
 20
-17.70629598133623
 30
0.0
 11
51.5311665143029
 21
-72.46042543343391
 31
0.0
  0
LINE
  5
CB
330
47
100
AcDbEntity
  8
0
  6
Continuous
 62
     0
100
AcDbLine
 10
52.87049825192516
 20
-16.99345359422691
 30
0.0
 11
51.73314981093946
 21
-29.99345580832571
 31
0.0
  0
LINE
  5
CC
330
47
100
AcDbEntity
  8
0
  6
Continuous
 62
     0
100
AcDbLine
 10
51.15877866402211
 20
-15.90630079796945
 30
0.0
 11
49.84645379555515
 21
-30.90630042948245
 31
0.0
  0
LINE
  5
CD
330
47
100
AcDbEntity
  8
0
  6
Continuous
 62
     0
100
AcDbLine
 10
49.84642028808594
 20
-30.90629577636719
 30
0.0
 11
50.56196594238281
 21
-30.90629577636719
 31
0.0
  0
LINE
  5
CE
330
47
100
AcDbEntity
  8
0
  6
Continuous
 62
     0
100
AcDbLine
 10
48.97154235839844
 20
-40.90630340576172
 30
0.0
 11
49.68708801269531
 21
-40.90630340576172
 31
0.0
  0
LINE
  5
CF
330
47
100
AcDbEntity
  8
0
  6
Continuous
 62
     0
100
AcDbLine
 10
48.97156966331984
 20
-40.90631031764125
 30
0.0
 11
46.38713301965525
 21
-70.44667005183128
 31
0.0
  0
LINE
  5
D0
330
47
100
AcDbEntity
  8
0
  6
Continuous
 62
     0
100
AcDbLine
 10
51.55817271851519
 20
-31.99346082610251
 30
0.0
 11
50.85826634364715
 21
-39.99345809612191
 31
0.0
  0
LINE
  5
D1
330
47
100
AcDbEntity
  8
0
  6
Continuous
 62
     0
100
AcDbLine
 10
50.68328925122289
 20
-41.99346311389871
 30
0.0
 11
48.18024096662756
 21
-70.60354606572889
 31
0.0
  0
LINE
  5
D2
330
47
100
AcDbEntity
  8
0
  6
Continuous
 62
     0
100
AcDbLine
 10
-25.20091247558594
 20
-77.90630340576172
 30
0.0
 11
-3.900894165039062
 21
-77.90630340576172
 31
0.0
  0
LINE
  5
D3
330
47
100
AcDbEntity
  8
0
  6
Continuous
 62
     0
100
AcDbLine
 10
-24.45533752441406
 20
-76.10629272460938
 30
0.0
 11
-2.900894165039062
 21
-76.10629272460938
 31
0.0
  0
LINE
  5
D4
330
47
100
AcDbEntity
  8
0
  6
Continuous
 62
     0
100
AcDbLine
 10
49.40402738661081
 20
-76.1210327574982
 30
0.0
 11
49.09910713182971
 21
-79.60630063533726
 31
0.0
  0
LINE
  5
D5
330
47
100
AcDbEntity
  8
0
  6
Continuous
 62
     0
100
AcDbLine
 10
45.85292053222656
 20
-79.6063003540039
 30
0.0
 11
49.09909057617188
 21
-79.6063003540039
 31
0.0
  0
LINE
  5
D6
330
47
100
AcDbEntity
  8
0
  6
Continuous
 62
     0
100
AcDbLine
 10
17.09910583496094
 20
-76.10629272460938
 30
0.0
 11
17.09910583496094
 21
-76.90629577636719
 31
0.0
  0
LINE
  5
D7
330
47
100
AcDbEntity
  8
0
  6
Continuous
 62
     0
100
AcDbLine
 10
-2.90087890625
 20
-76.10629272460938
 30
0.0
 11
-2.90087890625
 21
-76.90629577636719
 31
0.0
  0
LINE
  5
D8
330
47
100
AcDbEntity
  8
0
  6
Continuous
 62
     0
100
AcDbLine
 10
17.09910583496094
 20
-76.10629272460938
 30
0.0
 11
40.210693359375
 21
-76.10629272460938
 31
0.0
  0
LINE
  5
D9
330
47
100
AcDbEntity
  8
0
  6
Continuous
 62
     0
100
AcDbLine
 10
-1.900894165039062
 20
-77.90630340576172
 30
0.0
 11
16.09909057617188
 21
-77.90630340576172
 31
0.0
  0
LINE
  5
DA
330
47
100
AcDbEntity
  8
0
  6
Continuous
 62
     0
100
AcDbLine
 10
18.09910583496094
 20
-77.90630340576172
 30
0.0
 11
40.210693359375
 21
-77.90630340576172
 31
0.0
  0
LINE
  5
DB
330
47
100
AcDbEntity
  8
0
  6
Continuous
 62
     0
100
AcDbLine
 10
-36.90089416503906
 20
-69.60487365722656
 30
0.0
 11
-36.90089416503906
 21
-75.6063003540039
 31
0.0
  0
LINE
  5
DC
330
47
100
AcDbEntity
  8
0
  6
Continuous
 62
     0
100
AcDbLine
 10
-38.70091247558594
 20
-71.33546447753906
 30
0.0
 11
-38.70091247558594
 21
-75.6063003540039
 31
0.0
  0
LINE
  5
DD
330
47
100
AcDbEntity
  8
0
  6
Continuous
 62
     0
100
AcDbLine
 10
-36.90089416503906
 20
-69.60487365722656
 30
0.0
 11
-36.90089416503906
 21
-75.6063003540039
 31
0.0
  0
LINE
  5
DE
330
47
100
AcDbEntity
  8
0
  6
Continuous
 62
     0
100
AcDbLine
 10
-56.69664018721871
 20
-13.3605972559193
 30
0.0
 11
-53.0535827798311
 21
-55.00079276824114
 31
0.0
  0
LINE
  5
DF
330
47
100
AcDbEntity
  8
0
  6
Continuous
 62
     0
100
AcDbLine
 10
-37.11451721191406
 20
-66.1063003540039
 30
0.0
 11
-34.45533752441406
 21
-66.1063003540039
 31
0.0
  0
LINE
  5
E0
330
47
100
AcDbEntity
  8
0
  6
Continuous
 62
     0
100
AcDbLine
 10
-37.11451721191406
 20
-67.90629577636719
 30
0.0
 11
-35.20094299316406
 21
-67.90629577636719
 31
0.0
  0
LINE
  5
E1
330
47
100
AcDbEntity
  8
0
  6
Continuous
 62
     0
100
AcDbLine
 10
-35.2009123478342
 20
-67.90627995764135
 30
0.0
 11
-25.20089987492066
 21
-77.90628905880332
 31
0.0
  0
LINE
  5
E2
330
47
100
AcDbEntity
  8
0
  6
Continuous
 62
     0
100
AcDbLine
 10
-34.45532478588851
 20
-66.10628975883037
 30
0.0
 11
-24.45533389216503
 21
-76.10627728080955
 31
0.0
  0
LINE
  5
E3
330
47
100
AcDbEntity
  8
0
  6
Continuous
 62
     0
100
AcDbLine
 10
-50.90092468261719
 20
-79.6063003540039
 30
0.0
 11
-36.19270324707031
 21
-79.6063003540039
 31
0.0
  0
LINE
  5
E4
330
47
100
AcDbEntity
  8
0
  6
Continuous
 62
     0
100
AcDbLine
 10
-52.5041045078431
 20
-61.2813368598481
 30
0.0
 11
-50.90087217733494
 21
-79.6063041136326
 31
0.0
  0
LINE
  5
E5
330
47
100
AcDbEntity
  8
0
  6
Continuous
 62
     0
100
AcDbLine
 10
-58.37997086497764
 20
-14.77306054719313
 30
0.0
 11
-54.84676283162182
 21
-55.15767622640172
 31
0.0
  0
LINE
  5
E6
330
47
100
AcDbEntity
  8
0
  6
Continuous
 62
     0
100
AcDbLine
 10
-55.18107416161551
 20
-11.17850066596046
 30
0.0
 11
-54.93879511667924
 21
-13.94775343129629
 31
0.0
  0
LINE
  5
E7
330
47
100
AcDbEntity
  8
0
  6
Continuous
 62
     0
100
AcDbLine
 10
-53.05208465659567
 20
-14.86058033573859
 30
0.0
 11
-49.56694835838665
 21
-54.6957354310786
 31
0.0
  0
LINE
  5
E8
330
47
100
AcDbEntity
  8
0
  6
Continuous
 62
     0
100
AcDbLine
 10
-69.13681919114781
 20
14.09372075896772
 30
0.0
 11
-66.97584129284452
 21
-10.60628588948124
 31
0.0
  0
LINE
  5
E9
330
47
100
AcDbEntity
  8
0
  6
Continuous
 62
     0
100
AcDbLine
 10
-66.9758378108635
 20
-10.60630732584675
 30
0.0
 11
-56.69669256646632
 21
-13.36059569890121
 31
0.0
  0
LINE
  5
EA
330
47
100
AcDbEntity
  8
0
  6
Continuous
 62
     0
100
AcDbLine
 10
-68.65917104119734
 20
-12.01875591590029
 30
0.0
 11
-58.37999631908309
 21
-14.77305218748439
 31
0.0
  0
LINE
  5
EB
330
47
100
AcDbEntity
  8
0
  6
Continuous
 62
     0
100
AcDbLine
 10
-70.78620864983966
 20
12.29370279137471
 30
0.0
 11
-68.6591377689736
 21
-12.01874618849004
 31
0.0
  0
LINE
  5
EC
330
47
100
AcDbEntity
  8
0
  6
Continuous
 62
     0
100
AcDbLine
 10
-59.70393963615151
 20
-9.9666198779196
 30
0.0
 11
-55.181085071791
 21
-11.17851497653439
 31
0.0
  0
LINE
  5
ED
330
47
100
AcDbEntity
  8
0
  6
Continuous
 62
     0
100
AcDbLine
 10
-63.17074320554416
 20
9.006558159001136
 30
0.0
 11
-61.85840757725033
 21
-5.993455848224339
 31
0.0
  0
LINE
  5
EE
330
47
100
AcDbEntity
  8
0
  6
Continuous
 62
     0
100
AcDbLine
 10
-61.45894763252358
 20
10.0937110804673
 30
0.0
 11
-59.70358921278044
 21
-9.970059433848789
 31
0.0
  0
LINE
  5
EF
330
47
100
AcDbEntity
  8
0
  6
Continuous
 62
     0
100
AcDbLine
 10
-53.94261169433594
 20
-14.860595703125
 30
0.0
 11
-53.05207824707031
 21
-14.860595703125
 31
0.0
  0
LINE
  5
F0
330
47
100
AcDbEntity
  8
0
  6
Continuous
 62
     0
100
AcDbLine
 10
-54.76381809682318
 20
-15.94774313834685
 30
0.0
 11
-51.3600700775654
 21
-54.85262910285517
 31
0.0
  0
LINE
  5
F1
330
47
100
AcDbEntity
  8
0
  6
Continuous
 62
     0
100
AcDbLine
 10
-68.78688049316406
 20
10.09370422363281
 30
0.0
 11
-61.45899963378906
 21
10.09370422363281
 31
0.0
  0
LINE
  5
F2
330
47
100
AcDbEntity
  8
0
  6
Continuous
 62
     0
100
AcDbLine
 10
-60.86222839355469
 20
-6.906295776367188
 30
0.0
 11
-59.97169494628906
 21
-6.906295776367188
 31
0.0
  0
LINE
  5
F3
330
47
100
AcDbEntity
  8
0
  6
Continuous
 62
     0
100
AcDbLine
 10
-78.43684387207031
 20
30.09368896484375
 30
0.0
 11
-71.18684387207031
 21
30.09368896484375
 31
0.0
  0
LINE
  5
F4
330
47
100
AcDbEntity
  8
0
  6
Continuous
 62
     0
100
AcDbLine
 10
-78.43684387207031
 20
14.09370422363281
 30
0.0
 11
-69.13685607910156
 21
14.09370422363281
 31
0.0
  0
LINE
  5
F5
330
47
100
AcDbEntity
  8
0
  6
Continuous
 62
     0
100
AcDbLine
 10
-79.43684387207031
 20
29.09370422363281
 30
0.0
 11
-79.43684387207031
 21
15.09368896484375
 31
0.0
  0
LINE
  5
F6
330
47
100
AcDbEntity
  8
0
  6
Continuous
 62
     0
100
AcDbLine
 10
-78.73683166503906
 20
12.293701171875
 30
0.0
 11
-70.78623962402344
 21
12.293701171875
 31
0.0
  0
LINE
  5
F7
330
47
100
AcDbEntity
  8
0
  6
Continuous
 62
     0
100
AcDbLine
 10
-81.23683166503906
 20
29.39369201660156
 30
0.0
 11
-81.23683166503906
 21
14.793701171875
 31
0.0
  0
LINE
  5
F8
330
47
100
AcDbEntity
  8
0
  6
Continuous
 62
     0
100
AcDbLine
 10
-78.73683166503906
 20
31.89369201660156
 30
0.0
 11
-72.93611145019531
 21
31.89369201660156
 31
0.0
  0
LINE
  5
F9
330
47
100
AcDbEntity
  8
0
  6
Continuous
 62
     0
100
AcDbLine
 10
-32.90092468261719
 20
-81.40630340576172
 30
0.0
 11
41.76846313476562
 21
-81.40630340576172
 31
0.0
  0
ARC
  5
FA
330
47
100
AcDbEntity
  8
0
  6
Continuous
 62
     0
100
AcDbCircle
 10
-73.73683166503906
 20
104.7599792480469
 30
0.0
 40
4.0
100
AcDbArc
 50
179.9999813306653
 51
270.0000179860893
  0
ARC
  5
FB
330
47
100
AcDbEntity
  8
0
  6
Continuous
 62
     0
100
AcDbCircle
 10
-6.133514404296875
 20
106.7599487304688
 30
0.0
 40
2.0
100
AcDbArc
 50
270.0000179860893
 51
348.750120922798
  0
ARC
  5
FC
330
47
100
AcDbEntity
  8
0
  6
Continuous
 62
     0
100
AcDbCircle
 10
20.33174133300781
 20
106.7599487304688
 30
0.0
 40
2.0
100
AcDbArc
 50
191.2498629691883
 51
270.0000179860893
  0
ARC
  5
FD
330
47
100
AcDbEntity
  8
0
  6
Continuous
 62
     0
100
AcDbCircle
 10
56.07212829589844
 20
104.7599792480469
 30
0.0
 40
4.0
100
AcDbArc
 50
270.0000179860893
 51
0.0
  0
ARC
  5
FE
330
47
100
AcDbEntity
  8
0
  6
Continuous
 62
     0
100
AcDbCircle
 10
-6.133514404296875
 20
120.7599792480469
 30
0.0
 40
2.0
100
AcDbArc
 50
11.24981333663124
 51
89.99991371201897
  0
ARC
  5
FF
330
47
100
AcDbEntity
  8
0
  6
Continuous
 62
     0
100
AcDbCircle
 10
20.33174133300781
 20
120.7599792480469
 30
0.0
 40
2.0
100
AcDbArc
 50
89.9999273723973
 51
168.7500823892984
  0
ARC
  5
100
330
47
100
AcDbEntity
  8
0
  6
Continuous
 62
     0
100
AcDbCircle
 10
56.07212829589844
 20
122.7599792480469
 30
0.0
 40
4.0
100
AcDbArc
 50
359.9999453584866
 51
89.9999273723973
  0
ARC
  5
101
330
47
100
AcDbEntity
  8
0
  6
Continuous
 62
     0
100
AcDbCircle
 10
-73.73683166503906
 20
122.7599792480469
 30
0.0
 40
4.0
100
AcDbArc
 50
89.9999273723973
 51
179.9999640278213
  0
CIRCLE
  5
102
330
47
100
AcDbEntity
  8
0
  6
Continuous
 62
     0
100
AcDbCircle
 10
-14.90087890625
 20
113.7599792480469
 30
0.0
 40
3.0
  0
CIRCLE
  5
103
330
47
100
AcDbEntity
  8
0
  6
Continuous
 62
     0
100
AcDbCircle
 10
29.09910583496094
 20
113.7599792480469
 30
0.0
 40
3.0
  0
ARC
  5
104
330
47
100
AcDbEntity
  8
0
  6
Continuous
 62
     0
100
AcDbCircle
 10
54.17213439941406
 20
-3.906295776367188
 30
0.0
 40
2.000003814697266
100
AcDbArc
 50
0.0
 51
3.59440882194719
  0
ARC
  5
105
330
47
100
AcDbEntity
  8
0
  6
Continuous
 62
     0
100
AcDbCircle
 10
61.07211303710938
 20
-15.206298828125
 30
0.0
 40
2.5
100
AcDbArc
 50
270.0000179860893
 51
0.0
  0
ARC
  5
106
330
47
100
AcDbEntity
  8
0
  6
Continuous
 62
     0
100
AcDbCircle
 10
61.07211303710938
 20
-5.606292724609375
 30
0.0
 40
2.5
100
AcDbArc
 50
0.0
 51
89.99998201391067
  0
ARC
  5
107
330
47
100
AcDbEntity
  8
0
  6
Continuous
 62
     0
100
AcDbCircle
 10
54.17213439941406
 20
-3.906295776367188
 30
0.0
 40
2.000003814697266
100
AcDbArc
 50
23.57767811864791
 51
255.5227317184863
  0
ARC
  5
108
330
47
100
AcDbEntity
  8
0
  6
Continuous
 62
     0
100
AcDbCircle
 10
60.77212524414062
 20
-5.906295776367188
 30
0.0
 40
1.0
100
AcDbArc
 50
0.0
 51
89.99998201391067
  0
ARC
  5
109
330
47
100
AcDbEntity
  8
0
  6
Continuous
 62
     0
100
AcDbCircle
 10
60.77212524414062
 20
-14.90631103515625
 30
0.0
 40
1.0
100
AcDbArc
 50
270.0000179860893
 51
0.0
  0
ARC
  5
10A
330
47
100
AcDbEntity
  8
0
  6
Continuous
 62
     0
100
AcDbCircle
 10
50.73695373535156
 20
-29.90630340576172
 30
0.0
 40
1.0
100
AcDbArc
 50
270.0000179860893
 51
354.9999271478068
  0
ARC
  5
10B
330
47
100
AcDbEntity
  8
0
  6
Continuous
 62
     0
100
AcDbCircle
 10
50.56198120117188
 20
-31.90630340576172
 30
0.0
 40
1.0
100
AcDbArc
 50
354.9999271478068
 51
89.99998201391067
  0
ARC
  5
10C
330
47
100
AcDbEntity
  8
0
  6
Continuous
 62
     0
100
AcDbCircle
 10
49.86207580566406
 20
-39.90629577636719
 30
0.0
 40
1.0
100
AcDbArc
 50
270.0000179860893
 51
354.9999271478068
  0
ARC
  5
10D
330
47
100
AcDbEntity
  8
0
  6
Continuous
 62
     0
100
AcDbCircle
 10
49.68710327148438
 20
-41.90630340576172
 30
0.0
 40
1.0
100
AcDbArc
 50
354.9999271478068
 51
89.99998201391067
  0
ARC
  5
10E
330
47
100
AcDbEntity
  8
0
  6
Continuous
 62
     0
100
AcDbCircle
 10
51.87431335449219
 20
-16.90629577636719
 30
0.0
 40
1.0
100
AcDbArc
 50
354.9998127421382
 51
89.99998201391067
  0
ARC
  5
10F
330
47
100
AcDbEntity
  8
0
  6
Continuous
 62
     0
100
AcDbCircle
 10
41.76847839355469
 20
-71.60630798339844
 30
0.0
 40
8.0
100
AcDbArc
 50
270.0000179860893
 51
355.0000189284738
  0
ARC
  5
110
330
47
100
AcDbEntity
  8
0
  6
Continuous
 62
     0
100
AcDbCircle
 10
40.21070861816406
 20
-69.90629577636719
 30
0.0
 40
8.0
100
AcDbArc
 50
270.0000179860893
 51
355.0000189284738
  0
ARC
  5
111
330
47
100
AcDbEntity
  8
0
  6
Continuous
 62
     0
100
AcDbCircle
 10
40.21070861816406
 20
-69.90629577636719
 30
0.0
 40
6.199999809265137
100
AcDbArc
 50
270.0000179860893
 51
355.0000189284738
  0
ARC
  5
112
330
47
100
AcDbEntity
  8
0
  6
Continuous
 62
     0
100
AcDbCircle
 10
41.76847839355469
 20
-71.60630798339844
 30
0.0
 40
9.80000114440918
100
AcDbArc
 50
270.0000179860893
 51
355.0000189284738
  0
ARC
  5
113
330
47
100
AcDbEntity
  8
0
  6
Continuous
 62
     0
100
AcDbCircle
 10
18.09912109375
 20
-76.90629577636719
 30
0.0
 40
1.0
100
AcDbArc
 50
179.9999813306653
 51
270.0000179860893
  0
ARC
  5
114
330
47
100
AcDbEntity
  8
0
  6
Continuous
 62
     0
100
AcDbCircle
 10
16.09910583496094
 20
-76.90629577636719
 30
0.0
 40
1.0
100
AcDbArc
 50
270.0000179860893
 51
0.0
  0
ARC
  5
115
330
47
100
AcDbEntity
  8
0
  6
Continuous
 62
     0
100
AcDbCircle
 10
-3.900894165039062
 20
-76.90629577636719
 30
0.0
 40
1.0
100
AcDbArc
 50
270.0000179860893
 51
0.0
  0
ARC
  5
116
330
47
100
AcDbEntity
  8
0
  6
Continuous
 62
     0
100
AcDbCircle
 10
-1.90087890625
 20
-76.90629577636719
 30
0.0
 40
1.0
100
AcDbArc
 50
179.9999813306653
 51
270.0000179860893
  0
ARC
  5
117
330
47
100
AcDbEntity
  8
0
  6
Continuous
 62
     0
100
AcDbCircle
 10
-32.90089416503906
 20
-75.6063003540039
 30
0.0
 40
4.0
100
AcDbArc
 50
179.9999813306653
 51
270.0000179860893
  0
ARC
  5
118
330
47
100
AcDbEntity
  8
0
  6
Continuous
 62
     0
100
AcDbCircle
 10
-32.90089416503906
 20
-75.6063003540039
 30
0.0
 40
5.800000190734863
100
AcDbArc
 50
179.9999813306653
 51
270.0000179860893
  0
ARC
  5
119
330
47
100
AcDbEntity
  8
0
  6
Continuous
 62
     0
100
AcDbCircle
 10
-37.11448669433594
 20
-53.60629272460938
 30
0.0
 40
16.0
100
AcDbArc
 50
184.9999939918165
 51
270.0000179860893
  0
ARC
  5
11A
330
47
100
AcDbEntity
  8
0
  6
Continuous
 62
     0
100
AcDbCircle
 10
-37.11448669433594
 20
-53.60629272460938
 30
0.0
 40
17.79999923706055
100
AcDbArc
 50
184.9999939918165
 51
264.8867812790669
  0
ARC
  5
11B
330
47
100
AcDbEntity
  8
0
  6
Continuous
 62
     0
100
AcDbCircle
 10
-37.11448669433594
 20
-53.60629272460938
 30
0.0
 40
14.30000114440918
100
AcDbArc
 50
184.9999939918165
 51
270.0000179860893
  0
ARC
  5
11C
330
47
100
AcDbEntity
  8
0
  6
Continuous
 62
     0
100
AcDbCircle
 10
-37.11448669433594
 20
-53.60629272460938
 30
0.0
 40
12.50000095367432
100
AcDbArc
 50
184.9999939918165
 51
270.0000179860893
  0
ARC
  5
11D
330
47
100
AcDbEntity
  8
0
  6
Continuous
 62
     0
100
AcDbCircle
 10
-53.76762390136719
 20
-15.860595703125
 30
0.0
 40
1.0
100
AcDbArc
 50
89.99998201391067
 51
185.0000313304858
  0
ARC
  5
11E
330
47
100
AcDbEntity
  8
0
  6
Continuous
 62
     0
100
AcDbCircle
 10
-53.94261169433594
 20
-13.860595703125
 30
0.0
 40
1.0
100
AcDbArc
 50
185.0000486333298
 51
270.0000179860893
  0
ARC
  5
11F
330
47
100
AcDbEntity
  8
0
  6
Continuous
 62
     0
100
AcDbCircle
 10
-60.86219787597656
 20
-5.90631103515625
 30
0.0
 40
1.0
100
AcDbArc
 50
185.0000486333298
 51
270.0000179860893
  0
ARC
  5
120
330
47
100
AcDbEntity
  8
0
  6
Continuous
 62
     0
100
AcDbCircle
 10
-62.17454528808594
 20
9.093704223632812
 30
0.0
 40
1.0
100
AcDbArc
 50
89.99998201391067
 51
185.0000313304858
  0
ARC
  5
121
330
47
100
AcDbEntity
  8
0
  6
Continuous
 62
     0
100
AcDbCircle
 10
-78.73683166503906
 20
29.39369201660156
 30
0.0
 40
2.5
100
AcDbArc
 50
89.99998201391067
 51
179.9999640278213
  0
ARC
  5
122
330
47
100
AcDbEntity
  8
0
  6
Continuous
 62
     0
100
AcDbCircle
 10
-78.73683166503906
 20
14.793701171875
 30
0.0
 40
2.5
100
AcDbArc
 50
179.9999813306653
 51
270.0000179860893
  0
ARC
  5
123
330
47
100
AcDbEntity
  8
0
  6
Continuous
 62
     0
100
AcDbCircle
 10
-78.43681335449219
 20
15.09368896484375
 30
0.0
 40
1.0
100
AcDbArc
 50
179.9999813306653
 51
270.0000179860893
  0
ARC
  5
124
330
47
100
AcDbEntity
  8
0
  6
Continuous
 62
     0
100
AcDbCircle
 10
-78.43681335449219
 20
29.09370422363281
 30
0.0
 40
1.0
100
AcDbArc
 50
89.99998201391067
 51
179.9999640278213
  0
ARC
  5
125
330
47
100
AcDbEntity
  8
0
  6
Continuous
 62
     0
100
AcDbCircle
 10
-71.18684387207031
 20
31.84370422363281
 30
0.0
 40
1.749996185302734
100
AcDbArc
 50
0.0
 51
178.3631638347411
  0
ARC
  5
126
330
47
100
AcDbEntity
  8
0
  6
Continuous
 62
     0
100
AcDbCircle
 10
-71.18684387207031
 20
31.84370422363281
 30
0.0
 40
1.749996185302734
100
AcDbArc
 50
270.0000179860893
 51
0.0
  0
DIMENSION
  5
127
330
47
100
AcDbEntity
  8
0
 62
     0
100
AcDbDimension
  2
*D5
 10
-111.6560657958984
 20
78.75997924804688
 30
0.0
 11
-111.6560657958984
 21
113.7609792480469
 31
0.0
 70
   160
 71
     5
 42
70.00001525878908
  3
ISO-25
100
AcDbAlignedDimension
 13
-80.44117736816406
 23
148.7599792480469
 33
0.0
 14
-80.44117736816406
 24
78.75997924804688
 34
0.0
 50
90.00000000000001
100
AcDbRotatedDimension
1001
ACAD
1000
DSTYLE
1002
{
1070
   178
1070
     1
1070
   147
1040
0.800000011920929
1070
    77
1070
     1
1070
    74
1070
     0
1070
    73
1070
     0
1070
    42
1040
2.54
1070
    44
1040
4.500030517578125
1070
    76
1070
     0
1070
    75
1070
     0
1070
   279
1070
     0
1070
   271
1070
     0
1070
   144
1040
1.000000217982701
1070
   278
1070
    46
1070
   173
1070
     1
1070
    41
1040
3.0
1070
   140
1040
3.200000047683716
1070
   344
1005
128
1070
   343
1005
128
1002
}
  0
DIMENSION
  5
13B
330
47
100
AcDbEntity
  8
0
 62
     0
100
AcDbDimension
  2
*D6
 10
49.09910583496093
 20
-111.2837137451172
 30
0.0
 11
4.125832153320313
 21
-111.2837137451172
 31
0.0
 70
   160
 71
     5
 42
100.0000076293945
  3
ISO-25
100
AcDbAlignedDimension
 13
-50.90089416503906
 23
-79.6063003540039
 33
0.0
 14
49.09910583496094
 24
-79.6063003540039
 34
0.0
 50
180.0
100
AcDbRotatedDimension
1001
ACAD
1000
DSTYLE
1002
{
1070
   178
1070
     1
1070
   147
1040
0.800000011920929
1070
    77
1070
     1
1070
    74
1070
     0
1070
    73
1070
     0
1070
    42
1040
2.54
1070
    44
1040
4.5
1070
    76
1070
     0
1070
    75
1070
     0
1070
   279
1070
     0
1070
   271
1070
     0
1070
   144
1040
1.000000076293945
1070
   278
1070
    46
1070
   173
1070
     1
1070
    41
1040
3.0
1070
   140
1040
3.200000047683716
1070
   344
1005
128
1070
   343
1005
128
1002
}
  0
DIMENSION
  5
149
330
47
100
AcDbEntity
  8
0
 62
     0
100
AcDbDimension
  2
*D7
 10
63.57212829589843
 20
51.08810424804687
 30
0.0
 11
-10.174048828125
 21
51.08810424804688
 31
0.0
 70
   160
 71
     5
 42
144.8089599609375
  3
ISO-25
100
AcDbAlignedDimension
 13
-81.23683166503906
 23
31.89369201660156
 33
0.0
 14
63.57212829589844
 24
-3.106292724609375
 34
0.0
 50
180.0
100
AcDbRotatedDimension
1001
ACAD
1000
DSTYLE
1002
{
1070
   178
1070
     1
1070
   147
1040
0.800000011920929
1070
    77
1070
     1
1070
    74
1070
     0
1070
    73
1070
     0
1070
    42
1040
2.54
1070
    44
1040
4.5
1070
    76
1070
     0
1070
    75
1070
     0
1070
   279
1070
     0
1070
   271
1070
     0
1070
   144
1040
1.0
1070
   278
1070
    46
1070
   173
1070
     1
1070
    41
1040
3.0
1070
   140
1040
3.200000047683716
1070
   344
1005
128
1070
   343
1005
128
1002
}
  0
DIMENSION
  5
157
330
47
100
AcDbEntity
  8
0
 62
     0
100
AcDbDimension
  2
*D8
 10
-112.1173389892578
 20
-79.60630035400392
 30
0.0
 11
-112.1173389892578
 21
-31.0198740234375
 31
0.0
 70
   160
 71
     5
 42
109.6999969482422
  3
ISO-25
100
AcDbAlignedDimension
 13
-79.43684387207031
 23
30.09368896484375
 33
0.0
 14
-50.90092468261719
 24
-79.6063003540039
 34
0.0
 50
90.00000000000001
100
AcDbRotatedDimension
1001
ACAD
1000
DSTYLE
1002
{
1070
   178
1070
     1
1070
   147
1040
0.800000011920929
1070
    77
1070
     1
1070
    74
1070
     0
1070
    73
1070
     0
1070
    42
1040
2.54
1070
    44
1040
4.500030517578125
1070
    76
1070
     0
1070
    75
1070
     0
1070
   279
1070
     0
1070
   271
1070
     1
1070
   144
1040
1.000000069547815
1070
   278
1070
    46
1070
   173
1070
     1
1070
    41
1040
3.0
1070
   140
1040
3.200000047683716
1070
   344
1005
128
1070
   343
1005
128
1002
}
  0
DIMENSION
  5
164
330
47
100
AcDbEntity
  8
0
 62
     0
100
AcDbDimension
  2
*D9
 10
97.3056569824219
 20
-79.60630035400388
 30
0.0
 11
97.30565698242188
 21
-40.70690100097656
 31
0.0
 70
   160
 71
     5
 42
74.7000045776367
  3
ISO-25
100
AcDbAlignedDimension
 13
61.77210998535156
 23
-4.906295776367188
 33
0.0
 14
49.09909057617188
 24
-79.6063003540039
 34
0.0
 50
90.00000000000001
100
AcDbRotatedDimension
1001
ACAD
1000
DSTYLE
1002
{
1070
   178
1070
     1
1070
   147
1040
0.800000011920929
1070
    77
1070
     1
1070
    74
1070
     0
1070
    73
1070
     0
1070
    42
1040
2.54
1070
    44
1040
4.5
1070
    76
1070
     0
1070
    75
1070
     0
1070
   279
1070
     0
1070
   271
1070
     1
1070
   144
1040
1.0
1070
   278
1070
    46
1070
   173
1070
     1
1070
    41
1040
3.0
1070
   140
1040
3.200000047683716
1070
   344
1005
128
1070
   343
1005
128
1002
}
  0
ENDBLK
  5
49
330
47
100
AcDbEntity
  8
0
100
AcDbBlockEnd
  0
BLOCK
  5
4B
330
4A
100
AcDbEntity
  8
0
100
AcDbBlockBegin
  2
DTL0003
 70
     0
 10
0.0
 20
0.0
 30
0.0
  3
DTL0003
  1

  0
POINT
  5
171
330
4A
100
AcDbEntity
  8
0
 62
     0
100
AcDbPoint
 10
0.0
 20
0.0
 30
0.0
  0
LINE
  5
172
330
4A
100
AcDbEntity
  8
0
  6
Continuous
 62
     0
100
AcDbLine
 10
-66.28489685058594
 20
57.87498474121094
 30
0.0
 11
56.06706237792969
 21
57.87498474121094
 31
0.0
  0
LINE
  5
173
330
4A
100
AcDbEntity
  8
0
  6
Continuous
 62
     0
100
AcDbLine
 10
-67.08485412597656
 20
92.875
 30
0.0
 11
-67.08485412597656
 21
62.875
 31
0.0
  0
LINE
  5
174
330
4A
100
AcDbEntity
  8
0
  6
DASHED
 62
     0
100
AcDbLine
 10
-65.28483581542969
 20
92.875
 30
0.0
 11
-65.28483581542969
 21
57.875
 31
0.0
  0
LINE
  5
175
330
4A
100
AcDbEntity
  8
0
  6
Continuous
 62
     0
100
AcDbLine
 10
-52.53483581542969
 20
77.875
 30
0.0
 11
-52.53483581542969
 21
57.875
 31
0.0
  0
LINE
  5
176
330
4A
100
AcDbEntity
  8
0
  6
Continuous
 62
     0
100
AcDbLine
 10
-61.78486633300781
 20
77.875
 30
0.0
 11
-61.78486633300781
 21
57.875
 31
0.0
  0
LINE
  5
177
330
4A
100
AcDbEntity
  8
0
  6
Continuous
 62
     0
100
AcDbLine
 10
-62.28489685058594
 20
77.87495422363281
 30
0.0
 11
-52.53486633300781
 21
77.87495422363281
 31
0.0
  0
LINE
  5
178
330
4A
100
AcDbEntity
  8
0
  6
Continuous
 62
     0
100
AcDbLine
 10
-64.28480529785156
 20
92.875
 30
0.0
 11
-64.28480529785156
 21
79.875
 31
0.0
  0
LINE
  5
179
330
4A
100
AcDbEntity
  8
0
  6
Continuous
 62
     0
100
AcDbLine
 10
-67.08479158268106
 20
62.87501931771911
 30
0.0
 11
-66.2848029450119
 21
57.87501438833945
 31
0.0
  0
LINE
  5
17A
330
4A
100
AcDbEntity
  8
0
  6
Continuous
 62
     0
100
AcDbLine
 10
45.56709289550781
 20
77.875
 30
0.0
 11
45.56709289550781
 21
57.875
 31
0.0
  0
LINE
  5
17B
330
4A
100
AcDbEntity
  8
0
  6
Continuous
 62
     0
100
AcDbLine
 10
52.03680419921875
 20
77.875
 30
0.0
 11
52.03680419921875
 21
57.875
 31
0.0
  0
LINE
  5
17C
330
4A
100
AcDbEntity
  8
0
  6
Continuous
 62
     0
100
AcDbLine
 10
56.86712646484375
 20
92.875
 30
0.0
 11
56.86712646484375
 21
62.875
 31
0.0
  0
LINE
  5
17D
330
4A
100
AcDbEntity
  8
0
  6
Continuous
 62
     0
100
AcDbLine
 10
54.06712341308594
 20
92.875
 30
0.0
 11
54.06712341308594
 21
79.875
 31
0.0
  0
LINE
  5
17E
330
4A
100
AcDbEntity
  8
0
  6
Continuous
 62
     0
100
AcDbLine
 10
45.56706237792969
 20
77.87495422363281
 30
0.0
 11
52.03675842285156
 21
77.87495422363281
 31
0.0
  0
LINE
  5
17F
330
4A
100
AcDbEntity
  8
0
  6
Continuous
 62
     0
100
AcDbLine
 10
47.76710510253906
 20
91.875
 30
0.0
 11
47.76710510253906
 21
77.875
 31
0.0
  0
LINE
  5
180
330
4A
100
AcDbEntity
  8
0
  6
Continuous
 62
     0
100
AcDbLine
 10
44.55488586425781
 20
92.875
 30
0.0
 11
44.55488586425781
 21
88.875
 31
0.0
  0
LINE
  5
181
330
4A
100
AcDbEntity
  8
0
  6
Continuous
 62
     0
100
AcDbLine
 10
-54.52241516113281
 20
91.87496948242188
 30
0.0
 11
-50.00520324707031
 21
91.87496948242188
 31
0.0
  0
LINE
  5
182
330
4A
100
AcDbEntity
  8
0
  6
Continuous
 62
     0
100
AcDbLine
 10
-18.57496643066406
 20
88.87496948242188
 30
0.0
 11
-2.574996948242188
 21
88.87496948242188
 31
0.0
  0
LINE
  5
183
330
4A
100
AcDbEntity
  8
0
  6
Continuous
 62
     0
100
AcDbLine
 10
45.15481160532455
 20
88.87502180633714
 30
0.0
 11
46.16092461243724
 21
91.8750046688557
 31
0.0
  0
LINE
  5
184
330
4A
100
AcDbEntity
  8
0
  6
Continuous
 62
     0
100
AcDbLine
 10
46.16096496582031
 20
91.87496948242188
 30
0.0
 11
47.76707458496094
 21
91.87496948242188
 31
0.0
  0
LINE
  5
185
330
4A
100
AcDbEntity
  8
0
  6
Continuous
 62
     0
100
AcDbLine
 10
-1.574951171875
 20
92.875
 30
0.0
 11
-1.574951171875
 21
89.875
 31
0.0
  0
LINE
  5
186
330
4A
100
AcDbEntity
  8
0
  6
Continuous
 62
     0
100
AcDbLine
 10
-19.574951171875
 20
92.875
 30
0.0
 11
-19.574951171875
 21
89.875
 31
0.0
  0
LINE
  5
187
330
4A
100
AcDbEntity
  8
0
  6
Continuous
 62
     0
100
AcDbLine
 10
18.42501831054688
 20
92.875
 30
0.0
 11
18.42501831054688
 21
89.875
 31
0.0
  0
LINE
  5
188
330
4A
100
AcDbEntity
  8
0
  6
Continuous
 62
     0
100
AcDbLine
 10
19.42503356933594
 20
88.87496948242188
 30
0.0
 11
45.15483093261719
 21
88.87496948242188
 31
0.0
  0
LINE
  5
189
330
4A
100
AcDbEntity
  8
0
  6
Continuous
 62
     0
100
AcDbLine
 10
-1.574966430664062
 20
91.87496948242188
 30
0.0
 11
18.42500305175781
 21
91.87496948242188
 31
0.0
  0
LINE
  5
18A
330
4A
100
AcDbEntity
  8
0
  6
DASHED
 62
     0
100
AcDbLine
 10
18.42500305175781
 20
91.87496948242188
 30
0.0
 11
45.78019714355469
 21
91.87496948242188
 31
0.0
  0
LINE
  5
18B
330
4A
100
AcDbEntity
  8
0
  6
DASHED
 62
     0
100
AcDbLine
 10
-19.57496643066406
 20
91.87496948242188
 30
0.0
 11
-1.574966430664062
 21
91.87496948242188
 31
0.0
  0
LINE
  5
18C
330
4A
100
AcDbEntity
  8
0
  6
Continuous
 62
     0
100
AcDbLine
 10
-30.57496643066406
 20
92.875
 30
0.0
 11
-30.57496643066406
 21
90.87501525878906
 31
0.0
  0
LINE
  5
18D
330
4A
100
AcDbEntity
  8
0
  6
Continuous
 62
     0
100
AcDbLine
 10
-41.75703430175781
 20
92.875
 30
0.0
 11
-41.75703430175781
 21
88.875
 31
0.0
  0
LINE
  5
18E
330
4A
100
AcDbEntity
  8
0
  6
Continuous
 62
     0
100
AcDbLine
 10
-42.35704040527344
 20
88.87496948242188
 30
0.0
 11
-32.57499694824219
 21
88.87496948242188
 31
0.0
  0
LINE
  5
18F
330
4A
100
AcDbEntity
  8
0
  6
Continuous
 62
     0
100
AcDbLine
 10
-42.35721051155522
 20
88.87493092848149
 30
0.0
 11
-43.27199886752825
 21
91.87490918057932
 31
0.0
  0
LINE
  5
190
330
4A
100
AcDbEntity
  8
0
  6
DASHED
 62
     0
100
AcDbLine
 10
-43.27183532714844
 20
91.87496948242188
 30
0.0
 11
-30.57496643066406
 21
91.87496948242188
 31
0.0
  0
LINE
  5
191
330
4A
100
AcDbEntity
  8
0
  6
Continuous
 62
     0
100
AcDbLine
 10
-30.57496643066406
 20
91.87496948242188
 30
0.0
 11
-19.50871276855469
 21
91.87496948242188
 31
0.0
  0
LINE
  5
192
330
4A
100
AcDbEntity
  8
0
  6
Continuous
 62
     0
100
AcDbLine
 10
-30.57496643066406
 20
87.44686889648438
 30
0.0
 11
-30.57496643066406
 21
57.875
 31
0.0
  0
LINE
  5
193
330
4A
100
AcDbEntity
  8
0
  6
Continuous
 62
     0
100
AcDbLine
 10
-45.10047912597656
 20
91.875
 30
0.0
 11
-45.10047912597656
 21
57.875
 31
0.0
  0
LINE
  5
194
330
4A
100
AcDbEntity
  8
0
  6
Continuous
 62
     0
100
AcDbLine
 10
-53.32374572753906
 20
91.875
 30
0.0
 11
-53.32374572753906
 21
77.875
 31
0.0
  0
LINE
  5
195
330
4A
100
AcDbEntity
  8
0
  6
Continuous
 62
     0
100
AcDbLine
 10
-48.39909362792969
 20
92.875
 30
0.0
 11
-48.39909362792969
 21
88.875
 31
0.0
  0
LINE
  5
196
330
4A
100
AcDbEntity
  8
0
  6
Continuous
 62
     0
100
AcDbLine
 10
-47.68598937988281
 20
92.875
 30
0.0
 11
-47.68598937988281
 21
88.875
 31
0.0
  0
LINE
  5
197
330
4A
100
AcDbEntity
  8
0
  6
Continuous
 62
     0
100
AcDbLine
 10
-54.52235412597656
 20
92.875
 30
0.0
 11
-54.52235412597656
 21
91.875
 31
0.0
  0
LINE
  5
198
330
4A
100
AcDbEntity
  8
0
  6
Continuous
 62
     0
100
AcDbLine
 10
-48.99909973144531
 20
88.87496948242188
 30
0.0
 11
-47.68598937988281
 21
88.87496948242188
 31
0.0
  0
LINE
  5
199
330
4A
100
AcDbEntity
  8
0
  6
Continuous
 62
     0
100
AcDbLine
 10
-47.68598937988281
 20
91.87496948242188
 30
0.0
 11
-43.27183532714844
 21
91.87496948242188
 31
0.0
  0
LINE
  5
19A
330
4A
100
AcDbEntity
  8
0
  6
Continuous
 62
     0
100
AcDbLine
 10
-50.005194341772
 20
91.87503461780256
 30
0.0
 11
-48.99906677925797
 21
88.87500835463787
 31
0.0
  0
LINE
  5
19B
330
4A
100
AcDbEntity
  8
0
  6
Continuous
 62
     0
100
AcDbLine
 10
-54.78483581542969
 20
92.875
 30
0.0
 11
-54.78483581542969
 21
77.875
 31
0.0
  0
LINE
  5
19C
330
4A
100
AcDbEntity
  8
0
  6
Continuous
 62
     0
100
AcDbLine
 10
52.03675842285156
 20
62.87496948242188
 30
0.0
 11
56.86708068847656
 21
62.87496948242188
 31
0.0
  0
LINE
  5
19D
330
4A
100
AcDbEntity
  8
0
  6
Continuous
 62
     0
100
AcDbLine
 10
56.86714566603802
 20
62.87498291611635
 30
0.0
 11
56.06714223194721
 21
57.87498035415067
 31
0.0
  0
LINE
  5
19E
330
4A
100
AcDbEntity
  8
0
  6
DASHED
 62
     0
100
AcDbLine
 10
55.06710815429688
 20
92.875
 30
0.0
 11
55.06710815429688
 21
57.875
 31
0.0
  0
LINE
  5
19F
330
4A
100
AcDbEntity
  8
0
  6
Continuous
 62
     0
100
AcDbLine
 10
-67.08488464355469
 20
62.87492370605469
 30
0.0
 11
-61.78489685058594
 21
62.87492370605469
 31
0.0
  0
LINE
  5
1A0
330
4A
100
AcDbEntity
  8
0
  6
Continuous
 62
     0
100
AcDbLine
 10
-66.28489685058594
 20
127.8749694824219
 30
0.0
 11
56.06706237792969
 21
127.8749694824219
 31
0.0
  0
LINE
  5
1A1
330
4A
100
AcDbEntity
  8
0
  6
Continuous
 62
     0
100
AcDbLine
 10
-67.08485412597656
 20
92.875
 30
0.0
 11
-67.08485412597656
 21
122.875
 31
0.0
  0
LINE
  5
1A2
330
4A
100
AcDbEntity
  8
0
  6
DASHED
 62
     0
100
AcDbLine
 10
-65.28483581542969
 20
92.875
 30
0.0
 11
-65.28483581542969
 21
127.8750305175781
 31
0.0
  0
LINE
  5
1A3
330
4A
100
AcDbEntity
  8
0
  6
Continuous
 62
     0
100
AcDbLine
 10
-52.53483581542969
 20
107.875
 30
0.0
 11
-52.53483581542969
 21
127.8750305175781
 31
0.0
  0
LINE
  5
1A4
330
4A
100
AcDbEntity
  8
0
  6
Continuous
 62
     0
100
AcDbLine
 10
-61.78486633300781
 20
107.875
 30
0.0
 11
-61.78486633300781
 21
127.8750305175781
 31
0.0
  0
LINE
  5
1A5
330
4A
100
AcDbEntity
  8
0
  6
Continuous
 62
     0
100
AcDbLine
 10
-62.28489685058594
 20
107.8749389648438
 30
0.0
 11
-52.53486633300781
 21
107.8749389648438
 31
0.0
  0
LINE
  5
1A6
330
4A
100
AcDbEntity
  8
0
  6
Continuous
 62
     0
100
AcDbLine
 10
-64.28480529785156
 20
92.875
 30
0.0
 11
-64.28480529785156
 21
105.8750305175781
 31
0.0
  0
LINE
  5
1A7
330
4A
100
AcDbEntity
  8
0
  6
Continuous
 62
     0
100
AcDbLine
 10
-67.08466957026118
 20
122.8749773701198
 30
0.0
 11
-66.28467852188399
 21
127.8749973666535
 31
0.0
  0
LINE
  5
1A8
330
4A
100
AcDbEntity
  8
0
  6
Continuous
 62
     0
100
AcDbLine
 10
45.56709289550781
 20
107.875
 30
0.0
 11
45.56709289550781
 21
127.8750305175781
 31
0.0
  0
LINE
  5
1A9
330
4A
100
AcDbEntity
  8
0
  6
Continuous
 62
     0
100
AcDbLine
 10
52.03680419921875
 20
107.875
 30
0.0
 11
52.03680419921875
 21
127.8750305175781
 31
0.0
  0
LINE
  5
1AA
330
4A
100
AcDbEntity
  8
0
  6
Continuous
 62
     0
100
AcDbLine
 10
56.86712646484375
 20
92.875
 30
0.0
 11
56.86712646484375
 21
122.875
 31
0.0
  0
LINE
  5
1AB
330
4A
100
AcDbEntity
  8
0
  6
Continuous
 62
     0
100
AcDbLine
 10
54.06712341308594
 20
92.875
 30
0.0
 11
54.06712341308594
 21
105.8750305175781
 31
0.0
  0
LINE
  5
1AC
330
4A
100
AcDbEntity
  8
0
  6
Continuous
 62
     0
100
AcDbLine
 10
45.56706237792969
 20
107.8749389648438
 30
0.0
 11
52.03675842285156
 21
107.8749389648438
 31
0.0
  0
LINE
  5
1AD
330
4A
100
AcDbEntity
  8
0
  6
Continuous
 62
     0
100
AcDbLine
 10
47.76710510253906
 20
93.87501525878906
 30
0.0
 11
47.76710510253906
 21
107.875
 31
0.0
  0
LINE
  5
1AE
330
4A
100
AcDbEntity
  8
0
  6
Continuous
 62
     0
100
AcDbLine
 10
44.55488586425781
 20
92.875
 30
0.0
 11
44.55488586425781
 21
96.87501525878906
 31
0.0
  0
LINE
  5
1AF
330
4A
100
AcDbEntity
  8
0
  6
Continuous
 62
     0
100
AcDbLine
 10
-54.52241516113281
 20
93.87498474121094
 30
0.0
 11
-50.00520324707031
 21
93.87498474121094
 31
0.0
  0
LINE
  5
1B0
330
4A
100
AcDbEntity
  8
0
  6
Continuous
 62
     0
100
AcDbLine
 10
-18.57496643066406
 20
96.87498474121094
 30
0.0
 11
-2.574996948242188
 21
96.87498474121094
 31
0.0
  0
LINE
  5
1B1
330
4A
100
AcDbEntity
  8
0
  6
Continuous
 62
     0
100
AcDbLine
 10
45.15479062592155
 20
96.87502972882054
 30
0.0
 11
46.16090848483469
 21
93.87503239941994
 31
0.0
  0
LINE
  5
1B2
330
4A
100
AcDbEntity
  8
0
  6
Continuous
 62
     0
100
AcDbLine
 10
46.16096496582031
 20
93.87498474121094
 30
0.0
 11
47.76707458496094
 21
93.87498474121094
 31
0.0
  0
LINE
  5
1B3
330
4A
100
AcDbEntity
  8
0
  6
Continuous
 62
     0
100
AcDbLine
 10
-1.574951171875
 20
92.875
 30
0.0
 11
-1.574951171875
 21
95.875
 31
0.0
  0
LINE
  5
1B4
330
4A
100
AcDbEntity
  8
0
  6
Continuous
 62
     0
100
AcDbLine
 10
-19.574951171875
 20
92.875
 30
0.0
 11
-19.574951171875
 21
95.875
 31
0.0
  0
LINE
  5
1B5
330
4A
100
AcDbEntity
  8
0
  6
Continuous
 62
     0
100
AcDbLine
 10
18.42501831054688
 20
92.875
 30
0.0
 11
18.42501831054688
 21
95.875
 31
0.0
  0
LINE
  5
1B6
330
4A
100
AcDbEntity
  8
0
  6
Continuous
 62
     0
100
AcDbLine
 10
19.42503356933594
 20
96.87498474121094
 30
0.0
 11
45.15483093261719
 21
96.87498474121094
 31
0.0
  0
LINE
  5
1B7
330
4A
100
AcDbEntity
  8
0
  6
Continuous
 62
     0
100
AcDbLine
 10
-1.574966430664062
 20
93.87498474121094
 30
0.0
 11
18.42500305175781
 21
93.87498474121094
 31
0.0
  0
LINE
  5
1B8
330
4A
100
AcDbEntity
  8
0
  6
DASHED
 62
     0
100
AcDbLine
 10
18.42500305175781
 20
93.87498474121094
 30
0.0
 11
45.78019714355469
 21
93.87498474121094
 31
0.0
  0
LINE
  5
1B9
330
4A
100
AcDbEntity
  8
0
  6
DASHED
 62
     0
100
AcDbLine
 10
-19.57496643066406
 20
93.87498474121094
 30
0.0
 11
-1.574966430664062
 21
93.87498474121094
 31
0.0
  0
LINE
  5
1BA
330
4A
100
AcDbEntity
  8
0
  6
Continuous
 62
     0
100
AcDbLine
 10
-30.57496643066406
 20
92.875
 30
0.0
 11
-30.57496643066406
 21
94.875
 31
0.0
  0
LINE
  5
1BB
330
4A
100
AcDbEntity
  8
0
  6
Continuous
 62
     0
100
AcDbLine
 10
-41.75703430175781
 20
92.875
 30
0.0
 11
-41.75703430175781
 21
96.87501525878906
 31
0.0
  0
LINE
  5
1BC
330
4A
100
AcDbEntity
  8
0
  6
Continuous
 62
     0
100
AcDbLine
 10
-42.35704040527344
 20
96.87498474121094
 30
0.0
 11
-32.57499694824219
 21
96.87498474121094
 31
0.0
  0
LINE
  5
1BD
330
4A
100
AcDbEntity
  8
0
  6
Continuous
 62
     0
100
AcDbLine
 10
-42.35730725948504
 20
96.87512483578935
 30
0.0
 11
-43.27210451660191
 21
93.87511739307294
 31
0.0
  0
LINE
  5
1BE
330
4A
100
AcDbEntity
  8
0
  6
DASHED
 62
     0
100
AcDbLine
 10
-43.27183532714844
 20
93.87498474121094
 30
0.0
 11
-30.57496643066406
 21
93.87498474121094
 31
0.0
  0
LINE
  5
1BF
330
4A
100
AcDbEntity
  8
0
  6
Continuous
 62
     0
100
AcDbLine
 10
-30.57496643066406
 20
93.87498474121094
 30
0.0
 11
-19.50871276855469
 21
93.87498474121094
 31
0.0
  0
LINE
  5
1C0
330
4A
100
AcDbEntity
  8
0
  6
Continuous
 62
     0
100
AcDbLine
 10
-30.57496643066406
 20
98.30314636230469
 30
0.0
 11
-30.57496643066406
 21
127.8750305175781
 31
0.0
  0
LINE
  5
1C1
330
4A
100
AcDbEntity
  8
0
  6
Continuous
 62
     0
100
AcDbLine
 10
-45.10047912597656
 20
93.87501525878906
 30
0.0
 11
-45.10047912597656
 21
127.8750305175781
 31
0.0
  0
LINE
  5
1C2
330
4A
100
AcDbEntity
  8
0
  6
Continuous
 62
     0
100
AcDbLine
 10
-53.32374572753906
 20
93.87501525878906
 30
0.0
 11
-53.32374572753906
 21
107.875
 31
0.0
  0
LINE
  5
1C3
330
4A
100
AcDbEntity
  8
0
  6
Continuous
 62
     0
100
AcDbLine
 10
-48.39909362792969
 20
92.875
 30
0.0
 11
-48.39909362792969
 21
96.87501525878906
 31
0.0
  0
LINE
  5
1C4
330
4A
100
AcDbEntity
  8
0
  6
Continuous
 62
     0
100
AcDbLine
 10
-47.68598937988281
 20
92.875
 30
0.0
 11
-47.68598937988281
 21
96.87501525878906
 31
0.0
  0
LINE
  5
1C5
330
4A
100
AcDbEntity
  8
0
  6
Continuous
 62
     0
100
AcDbLine
 10
-54.52235412597656
 20
92.875
 30
0.0
 11
-54.52235412597656
 21
93.87501525878906
 31
0.0
  0
LINE
  5
1C6
330
4A
100
AcDbEntity
  8
0
  6
Continuous
 62
     0
100
AcDbLine
 10
-48.99909973144531
 20
96.87498474121094
 30
0.0
 11
-47.68598937988281
 21
96.87498474121094
 31
0.0
  0
LINE
  5
1C7
330
4A
100
AcDbEntity
  8
0
  6
Continuous
 62
     0
100
AcDbLine
 10
-47.68598937988281
 20
93.87498474121094
 30
0.0
 11
-43.27183532714844
 21
93.87498474121094
 31
0.0
  0
LINE
  5
1C8
330
4A
100
AcDbEntity
  8
0
  6
Continuous
 62
     0
100
AcDbLine
 10
-50.00512638926202
 20
93.87497702278039
 30
0.0
 11
-48.99900367854843
 21
96.87498881906303
 31
0.0
  0
LINE
  5
1C9
330
4A
100
AcDbEntity
  8
0
  6
Continuous
 62
     0
100
AcDbLine
 10
-54.78483581542969
 20
92.875
 30
0.0
 11
-54.78483581542969
 21
107.875
 31
0.0
  0
LINE
  5
1CA
330
4A
100
AcDbEntity
  8
0
  6
Continuous
 62
     0
100
AcDbLine
 10
52.03675842285156
 20
122.8749389648438
 30
0.0
 11
56.86708068847656
 21
122.8749389648438
 31
0.0
  0
LINE
  5
1CB
330
4A
100
AcDbEntity
  8
0
  6
Continuous
 62
     0
100
AcDbLine
 10
56.86713104532888
 20
122.8749875540976
 30
0.0
 11
56.06712761123808
 21
127.8749901160633
 31
0.0
  0
LINE
  5
1CC
330
4A
100
AcDbEntity
  8
0
  6
DASHED
 62
     0
100
AcDbLine
 10
55.06710815429688
 20
92.875
 30
0.0
 11
55.06710815429688
 21
127.8750305175781
 31
0.0
  0
LINE
  5
1CD
330
4A
100
AcDbEntity
  8
0
  6
Continuous
 62
     0
100
AcDbLine
 10
-67.08488464355469
 20
122.875
 30
0.0
 11
-61.78489685058594
 21
122.875
 31
0.0
  0
LINE
  5
1CE
330
4A
100
AcDbEntity
  8
0
  6
Continuous
 62
     0
100
AcDbLine
 10
-65.28492736816406
 20
-8.375045776367188
 30
0.0
 11
-54.78489685058594
 21
-8.375045776367188
 31
0.0
  0
LINE
  5
1CF
330
4A
100
AcDbEntity
  8
0
  6
Continuous
 62
     0
100
AcDbLine
 10
-41.57499694824219
 20
-83.07501983642578
 30
0.0
 11
-30.0146484375
 21
-83.07501983642578
 31
0.0
  0
LINE
  5
1D0
330
4A
100
AcDbEntity
  8
0
  6
Continuous
 62
     0
100
AcDbLine
 10
47.76703310953681
 20
-44.87490169312679
 30
0.0
 11
45.06388419089748
 21
-75.77215416299849
 31
0.0
  0
LINE
  5
1D1
330
4A
100
AcDbEntity
  8
0
  6
Continuous
 62
     0
100
AcDbLine
 10
44.55482482910156
 20
-44.87500762939453
 30
0.0
 11
55.06704711914062
 21
-44.87500762939453
 31
0.0
  0
LINE
  5
1D2
330
4A
100
AcDbEntity
  8
0
  6
Continuous
 62
     0
100
AcDbLine
 10
47.06703186035156
 20
-33.37502288818359
 30
0.0
 11
55.06704711914062
 21
-33.37502288818359
 31
0.0
  0
LINE
  5
1D3
330
4A
100
AcDbEntity
  8
0
  6
Continuous
 62
     0
100
AcDbLine
 10
55.06706237792969
 20
-33.37506866455078
 30
0.0
 11
55.06706237792969
 21
-44.87505340576172
 31
0.0
  0
LINE
  5
1D4
330
4A
100
AcDbEntity
  8
0
  6
Continuous
 62
     0
100
AcDbLine
 10
47.06706237792969
 20
-33.37506866455078
 30
0.0
 11
47.06706237792969
 21
-34.31156158447266
 31
0.0
  0
LINE
  5
1D5
330
4A
100
AcDbEntity
  8
0
  6
Continuous
 62
     0
100
AcDbLine
 10
47.56704711914062
 20
-30.37502288818359
 30
0.0
 11
50.56704711914062
 21
-30.37502288818359
 31
0.0
  0
LINE
  5
1D6
330
4A
100
AcDbEntity
  8
0
  6
Continuous
 62
     0
100
AcDbLine
 10
56.86708068847656
 20
-33.37506866455078
 30
0.0
 11
56.86708068847656
 21
-44.87505340576172
 31
0.0
  0
LINE
  5
1D7
330
4A
100
AcDbEntity
  8
0
  6
Continuous
 62
     0
100
AcDbLine
 10
51.22334289550781
 20
-46.67502593994141
 30
0.0
 11
55.06704711914062
 21
-46.67502593994141
 31
0.0
  0
LINE
  5
1D8
330
4A
100
AcDbEntity
  8
0
  6
Continuous
 62
     0
100
AcDbLine
 10
48.69923121251301
 20
-54.87516772739271
 30
0.0
 11
46.85724200245203
 21
-75.92928179325098
 31
0.0
  0
LINE
  5
1D9
330
4A
100
AcDbEntity
  8
0
  6
Continuous
 62
     0
100
AcDbLine
 10
51.22341967128231
 20
-46.67519785699523
 30
0.0
 11
50.50601532119465
 21
-54.87519866893735
 31
0.0
  0
LINE
  5
1DA
330
4A
100
AcDbEntity
  8
0
  6
Continuous
 62
     0
100
AcDbLine
 10
48.69905090332031
 20
-54.87503814697266
 30
0.0
 11
50.50593566894531
 21
-54.87503814697266
 31
0.0
  0
LINE
  5
1DB
330
4A
100
AcDbEntity
  8
0
  6
Continuous
 62
     0
100
AcDbLine
 10
-30.57496643066406
 20
-75.57506561279297
 30
0.0
 11
-30.57496643066406
 21
-81.0750503540039
 31
0.0
  0
LINE
  5
1DC
330
4A
100
AcDbEntity
  8
0
  6
Continuous
 62
     0
100
AcDbLine
 10
-45.10006774778661
 20
-42.77851167944024
 30
0.0
 11
-43.232839177694
 21
-64.12095952755259
 31
0.0
  0
LINE
  5
1DD
330
4A
100
AcDbEntity
  8
0
  6
Continuous
 62
     0
100
AcDbLine
 10
-31.27894592285156
 20
-75.0750503540039
 30
0.0
 11
-31.07501220703125
 21
-75.0750503540039
 31
0.0
  0
LINE
  5
1DE
330
4A
100
AcDbEntity
  8
0
  6
Continuous
 62
     0
100
AcDbLine
 10
-28.57498168945312
 20
-84.87503814697266
 30
0.0
 11
37.09432983398438
 21
-84.87503814697266
 31
0.0
  0
LINE
  5
1DF
330
4A
100
AcDbEntity
  8
0
  6
Continuous
 62
     0
100
AcDbLine
 10
-32.37498474121094
 20
-76.83148956298828
 30
0.0
 11
-32.37498474121094
 21
-81.0750503540039
 31
0.0
  0
LINE
  5
1E0
330
4A
100
AcDbEntity
  8
0
  6
Continuous
 62
     0
100
AcDbLine
 10
-54.74474090348931
 20
-24.33148369105357
 30
0.0
 11
-53.32360385887237
 21
-40.57509936058729
 31
0.0
  0
LINE
  5
1E1
330
4A
100
AcDbEntity
  8
0
  6
Continuous
 62
     0
100
AcDbLine
 10
-53.32375306185503
 20
-40.57490391703499
 30
0.0
 11
-45.10044276188071
 21
-42.77833303577263
 31
0.0
  0
LINE
  5
1E2
330
4A
100
AcDbEntity
  8
0
  6
Continuous
 62
     0
100
AcDbLine
 10
-64.98490905761719
 20
-23.87501525878906
 30
0.0
 11
-55.24305725097656
 21
-23.87501525878906
 31
0.0
  0
LINE
  5
1E3
330
4A
100
AcDbEntity
  8
0
  6
Continuous
 62
     0
100
AcDbLine
 10
-65.28489685058594
 20
-8.375091552734375
 30
0.0
 11
-65.28489685058594
 21
-23.5750732421875
 31
0.0
  0
LINE
  5
1E4
330
4A
100
AcDbEntity
  8
0
  6
Continuous
 62
     0
100
AcDbLine
 10
-54.78489685058594
 20
-8.375091552734375
 30
0.0
 11
-54.78489685058594
 21
-9.37506103515625
 31
0.0
  0
LINE
  5
1E5
330
4A
100
AcDbEntity
  8
0
  6
Continuous
 62
     0
100
AcDbLine
 10
-60.08491516113281
 20
-4.875030517578125
 30
0.0
 11
-54.78489685058594
 21
-4.875030517578125
 31
0.0
  0
LINE
  5
1E6
330
4A
100
AcDbEntity
  8
0
  6
Continuous
 62
     0
100
AcDbLine
 10
-67.08485412597656
 20
-8.375091552734375
 30
0.0
 11
-67.08485412597656
 21
-23.87506103515625
 31
0.0
  0
LINE
  5
1E7
330
4A
100
AcDbEntity
  8
0
  6
Continuous
 62
     0
100
AcDbLine
 10
-65.28492736816406
 20
-6.575027465820312
 30
0.0
 11
-61.78489685058594
 21
-6.575027465820312
 31
0.0
  0
LINE
  5
1E8
330
4A
100
AcDbEntity
  8
0
  6
Continuous
 62
     0
100
AcDbLine
 10
-65.28492736816406
 20
-25.67502593994141
 30
0.0
 11
-56.43431091308594
 21
-25.67502593994141
 31
0.0
  0
LINE
  5
1E9
330
4A
100
AcDbEntity
  8
0
  6
Continuous
 62
     0
100
AcDbLine
 10
-56.43406541722322
 20
-25.67513097577888
 30
0.0
 11
-55.03741706962107
 21
-41.63884050672971
 31
0.0
  0
LINE
  5
1EA
330
4A
100
AcDbEntity
  8
0
  6
Continuous
 62
     0
100
AcDbLine
 10
-46.78357741306813
 20
-44.190898727693
 30
0.0
 11
-45.02620087679845
 21
-64.27773634124334
 31
0.0
  0
LINE
  5
1EB
330
4A
100
AcDbEntity
  8
0
  6
Continuous
 62
     0
100
AcDbLine
 10
-54.66890903602932
 20
-42.07793127671386
 30
0.0
 11
-46.78376710636871
 21
-44.19074846339446
 31
0.0
  0
LINE
  5
1EC
330
4A
100
AcDbEntity
  8
0
  6
Continuous
 62
     0
100
AcDbLine
 10
-54.52244567871094
 20
-26.87500762939453
 30
0.0
 11
-48.39912414550781
 21
-26.87500762939453
 31
0.0
  0
LINE
  5
1ED
330
4A
100
AcDbEntity
  8
0
  6
Continuous
 62
     0
100
AcDbLine
 10
-48.21400451660156
 20
-34.87502288818359
 30
0.0
 11
-47.69920349121094
 21
-34.87502288818359
 31
0.0
  0
LINE
  5
1EE
330
4A
100
AcDbEntity
  8
0
  6
Continuous
 62
     0
100
AcDbLine
 10
-49.90977196996361
 20
-27.96226386805465
 30
0.0
 11
-49.38484091039545
 21
-33.96223298920635
 31
0.0
  0
LINE
  5
1EF
330
4A
100
AcDbEntity
  8
0
  6
Continuous
 62
     0
100
AcDbLine
 10
-48.39886992646225
 20
-26.87499569033159
 30
0.0
 11
-47.69895918724688
 21
-34.8749849199826
 31
0.0
  0
LINE
  5
1F0
330
4A
100
AcDbEntity
  8
0
  6
Continuous
 62
     0
100
AcDbLine
 10
-48.84660065149173
 20
-40.11818790063658
 30
0.0
 11
-43.60428344641932
 21
-41.52286241223223
 31
0.0
  0
LINE
  5
1F1
330
4A
100
AcDbEntity
  8
0
  6
Continuous
 62
     0
100
AcDbLine
 10
-43.60380632503428
 20
-41.52302563634066
 30
0.0
 11
-43.44259106453029
 21
-43.36571824759152
 31
0.0
  0
LINE
  5
1F2
330
4A
100
AcDbEntity
  8
0
  6
Continuous
 62
     0
100
AcDbLine
 10
-41.75664454879754
 20
-44.2785104609586
 30
0.0
 11
-40.04505365719088
 21
-63.84201753583554
 31
0.0
  0
LINE
  5
1F3
330
4A
100
AcDbEntity
  8
0
  6
Continuous
 62
     0
100
AcDbLine
 10
-42.27183532714844
 20
-44.27845001220703
 30
0.0
 11
-41.75700378417969
 21
-44.27845001220703
 31
0.0
  0
LINE
  5
1F4
330
4A
100
AcDbEntity
  8
0
  6
Continuous
 62
     0
100
AcDbLine
 10
-30.57496643066406
 20
-71.84685516357422
 30
0.0
 11
-30.57496643066406
 21
-72.47037506103516
 31
0.0
  0
LINE
  5
1F5
330
4A
100
AcDbEntity
  8
0
  6
Continuous
 62
     0
100
AcDbLine
 10
-31.98284912109375
 20
-71.84680938720703
 30
0.0
 11
-30.57499694824219
 21
-71.84680938720703
 31
0.0
  0
LINE
  5
1F6
330
4A
100
AcDbEntity
  8
0
  6
Continuous
 62
     0
100
AcDbLine
 10
-30.57482977116515
 20
-71.846732910053
 30
0.0
 11
-22.54663669386986
 21
-79.8749219269928
 31
0.0
  0
LINE
  5
1F7
330
4A
100
AcDbEntity
  8
0
  6
Continuous
 62
     0
100
AcDbLine
 10
-18.57499694824219
 20
-81.47504425048828
 30
0.0
 11
-2.57501220703125
 21
-81.47504425048828
 31
0.0
  0
LINE
  5
1F8
330
4A
100
AcDbEntity
  8
0
  6
Continuous
 62
     0
100
AcDbLine
 10
-22.54678344726562
 20
-79.8750228881836
 30
0.0
 11
-1.574981689453125
 21
-79.8750228881836
 31
0.0
  0
LINE
  5
1F9
330
4A
100
AcDbEntity
  8
0
  6
Continuous
 62
     0
100
AcDbLine
 10
-19.574951171875
 20
-79.87506866455078
 30
0.0
 11
-19.574951171875
 21
-80.47505950927734
 31
0.0
  0
LINE
  5
1FA
330
4A
100
AcDbEntity
  8
0
  6
Continuous
 62
     0
100
AcDbLine
 10
-1.574951171875
 20
-79.87506866455078
 30
0.0
 11
-1.574951171875
 21
-80.47505950927734
 31
0.0
  0
LINE
  5
1FB
330
4A
100
AcDbEntity
  8
0
  6
Continuous
 62
     0
100
AcDbLine
 10
18.42501831054688
 20
-79.87506866455078
 30
0.0
 11
18.42501831054688
 21
-80.47505950927734
 31
0.0
  0
LINE
  5
1FC
330
4A
100
AcDbEntity
  8
0
  6
Continuous
 62
     0
100
AcDbLine
 10
7.639572143554688
 20
-81.47504425048828
 30
0.0
 11
17.42500305175781
 21
-81.47504425048828
 31
0.0
  0
LINE
  5
1FD
330
4A
100
AcDbEntity
  8
0
  6
Continuous
 62
     0
100
AcDbLine
 10
18.42498779296875
 20
-79.8750228881836
 30
0.0
 11
37.09432983398438
 21
-79.8750228881836
 31
0.0
  0
LINE
  5
1FE
330
4A
100
AcDbEntity
  8
0
  6
Continuous
 62
     0
100
AcDbLine
 10
46.06575537661499
 20
-45.96206343617657
 30
0.0
 11
43.46992027993065
 21
-75.63270858612336
 31
0.0
  0
LINE
  5
1FF
330
4A
100
AcDbEntity
  8
0
  6
Continuous
 62
     0
100
AcDbLine
 10
44.55476524896851
 20
-44.87509490326072
 30
0.0
 11
41.87601308924265
 21
-75.49349006919381
 31
0.0
  0
LINE
  5
200
330
4A
100
AcDbEntity
  8
0
  6
Continuous
 62
     0
100
AcDbLine
 10
52.0367431640625
 20
-31.57500457763672
 30
0.0
 11
55.06704711914062
 21
-31.57500457763672
 31
0.0
  0
LINE
  5
201
330
4A
100
AcDbEntity
  8
0
  6
Continuous
 62
     0
100
AcDbLine
 10
19.42501831054688
 20
-81.47504425048828
 30
0.0
 11
37.09432983398438
 21
-81.47504425048828
 31
0.0
  0
LINE
  5
202
330
4A
100
AcDbEntity
  8
0
  6
Continuous
 62
     0
100
AcDbLine
 10
19.42501831054688
 20
-81.47504425048828
 30
0.0
 11
37.09432983398438
 21
-81.47504425048828
 31
0.0
  0
LINE
  5
203
330
4A
100
AcDbEntity
  8
0
  6
Continuous
 62
     0
100
AcDbLine
 10
-0.574996948242188
 20
-81.47504425048828
 30
0.0
 11
17.42500305175781
 21
-81.47504425048828
 31
0.0
  0
LINE
  5
204
330
4A
100
AcDbEntity
  8
0
  6
Continuous
 62
     0
100
AcDbLine
 10
-43.2676113848831
 20
-45.36573835609082
 30
0.0
 11
-41.63893283255019
 21
-63.98155627000595
 31
0.0
  0
LINE
  5
205
330
4A
100
AcDbEntity
  8
0
  6
Continuous
 62
     0
100
AcDbLine
 10
-49.20986123074825
 20
-35.96225309770566
 30
0.0
 11
-48.84059976715971
 21
-40.18291662823703
 31
0.0
  0
LINE
  5
206
330
4A
100
AcDbEntity
  8
0
  6
Continuous
 62
     0
100
AcDbLine
 10
-28.57498168945312
 20
-83.07501983642578
 30
0.0
 11
37.09432983398438
 21
-83.07501983642578
 31
0.0
  0
LINE
  5
207
330
4A
100
AcDbEntity
  8
0
  6
Continuous
 62
     0
100
AcDbLine
 10
-42.99271988316241
 20
-66.86552631650855
 30
0.0
 11
-41.57456579430762
 21
-83.07504676127625
 31
0.0
  0
LINE
  5
208
330
4A
100
AcDbEntity
  8
0
  6
Continuous
 62
     0
100
AcDbLine
 10
44.76430076868765
 20
-79.19642153057832
 30
0.0
 11
44.4249763627432
 21
-83.07493216954532
 31
0.0
  0
LINE
  5
209
330
4A
100
AcDbEntity
  8
0
  6
Continuous
 62
     0
100
AcDbLine
 10
40.25715637207031
 20
-83.07501983642578
 30
0.0
 11
44.42500305175781
 21
-83.07501983642578
 31
0.0
  0
LINE
  5
20A
330
4A
100
AcDbEntity
  8
0
  6
Continuous
 62
     0
100
AcDbLine
 10
-52.53489685058594
 20
-6.62506103515625
 30
0.0
 11
-52.53489685058594
 21
-7.625091552734375
 31
0.0
  0
ARC
  5
20B
330
4A
100
AcDbEntity
  8
0
  6
Continuous
 62
     0
100
AcDbCircle
 10
-62.28483581542969
 20
79.87496948242188
 30
0.0
 40
2.0
100
AcDbArc
 50
179.9999813306653
 51
270.0000179860893
  0
ARC
  5
20C
330
4A
100
AcDbEntity
  8
0
  6
Continuous
 62
     0
100
AcDbCircle
 10
52.06710815429688
 20
79.87496948242188
 30
0.0
 40
2.0
100
AcDbArc
 50
270.0000179860893
 51
0.0
  0
ARC
  5
20D
330
4A
100
AcDbEntity
  8
0
  6
Continuous
 62
     0
100
AcDbCircle
 10
19.425048828125
 20
89.87496948242188
 30
0.0
 40
1.0
100
AcDbArc
 50
179.9999813306653
 51
270.0000179860893
  0
ARC
  5
20E
330
4A
100
AcDbEntity
  8
0
  6
Continuous
 62
     0
100
AcDbCircle
 10
-2.574981689453125
 20
89.87496948242188
 30
0.0
 40
1.0
100
AcDbArc
 50
270.0000179860893
 51
0.0
  0
ARC
  5
20F
330
4A
100
AcDbEntity
  8
0
  6
Continuous
 62
     0
100
AcDbCircle
 10
-18.57496643066406
 20
89.87496948242188
 30
0.0
 40
1.0
100
AcDbArc
 50
179.9999813306653
 51
270.0000179860893
  0
ARC
  5
210
330
4A
100
AcDbEntity
  8
0
  6
Continuous
 62
     0
100
AcDbCircle
 10
-32.57498168945312
 20
90.87498474121094
 30
0.0
 40
2.0
100
AcDbArc
 50
270.0000179860893
 51
0.0
  0
ARC
  5
211
330
4A
100
AcDbEntity
  8
0
  6
Continuous
 62
     0
100
AcDbCircle
 10
-32.57498168945312
 20
94.87496948242188
 30
0.0
 40
2.0
100
AcDbArc
 50
359.9999453584866
 51
89.9999273723973
  0
ARC
  5
212
330
4A
100
AcDbEntity
  8
0
  6
Continuous
 62
     0
100
AcDbCircle
 10
-62.28483581542969
 20
105.8749694824219
 30
0.0
 40
2.0
100
AcDbArc
 50
89.9999273723973
 51
179.9999640278213
  0
ARC
  5
213
330
4A
100
AcDbEntity
  8
0
  6
Continuous
 62
     0
100
AcDbCircle
 10
52.06710815429688
 20
105.8749694824219
 30
0.0
 40
2.0
100
AcDbArc
 50
359.9999453584866
 51
89.9999273723973
  0
ARC
  5
214
330
4A
100
AcDbEntity
  8
0
  6
Continuous
 62
     0
100
AcDbCircle
 10
19.425048828125
 20
95.87496948242188
 30
0.0
 40
1.0
100
AcDbArc
 50
89.9999273723973
 51
179.9999640278213
  0
ARC
  5
215
330
4A
100
AcDbEntity
  8
0
  6
Continuous
 62
     0
100
AcDbCircle
 10
-2.574981689453125
 20
95.87496948242188
 30
0.0
 40
1.0
100
AcDbArc
 50
359.9999453584866
 51
89.9999273723973
  0
ARC
  5
216
330
4A
100
AcDbEntity
  8
0
  6
Continuous
 62
     0
100
AcDbCircle
 10
-18.57496643066406
 20
95.87496948242188
 30
0.0
 40
1.0
100
AcDbArc
 50
89.9999273723973
 51
179.9999640278213
  0
ARC
  5
217
330
4A
100
AcDbEntity
  8
0
  6
Continuous
 62
     0
100
AcDbCircle
 10
-48.91392517089844
 20
-27.87503814697266
 30
0.0
 40
1.0
100
AcDbArc
 50
89.99998201391067
 51
185.0001542738909
  0
ARC
  5
218
330
4A
100
AcDbEntity
  8
0
  6
Continuous
 62
     0
100
AcDbCircle
 10
55.06706237792969
 20
-44.87500762939453
 30
0.0
 40
1.800000071525574
100
AcDbArc
 50
270.0000179860893
 51
0.0
  0
ARC
  5
219
330
4A
100
AcDbEntity
  8
0
  6
Continuous
 62
     0
100
AcDbCircle
 10
47.56706237792969
 20
-32.37503814697266
 30
0.0
 40
2.0
100
AcDbArc
 50
89.99998201391067
 51
255.5224585109195
  0
ARC
  5
21A
330
4A
100
AcDbEntity
  8
0
  6
Continuous
 62
     0
100
AcDbCircle
 10
-31.27891540527344
 20
-63.07505035400391
 30
0.0
 40
12.0
100
AcDbArc
 50
184.9999939918165
 51
270.0000179860893
  0
ARC
  5
21B
330
4A
100
AcDbEntity
  8
0
  6
Continuous
 62
     0
100
AcDbCircle
 10
-28.574951171875
 20
-81.0750503540039
 30
0.0
 40
2.0
100
AcDbArc
 50
179.9999813306653
 51
270.0000179860893
  0
ARC
  5
21C
330
4A
100
AcDbEntity
  8
0
  6
Continuous
 62
     0
100
AcDbCircle
 10
37.0943603515625
 20
-75.0750503540039
 30
0.0
 40
8.0
100
AcDbArc
 50
270.0000179860893
 51
355.0000236242288
  0
ARC
  5
21D
330
4A
100
AcDbEntity
  8
0
  6
Continuous
 62
     0
100
AcDbCircle
 10
37.0943603515625
 20
-75.0750503540039
 30
0.0
 40
9.80000114440918
100
AcDbArc
 50
270.0000179860893
 51
355.0000236242288
  0
ARC
  5
21E
330
4A
100
AcDbEntity
  8
0
  6
Continuous
 62
     0
100
AcDbCircle
 10
-28.574951171875
 20
-81.0750503540039
 30
0.0
 40
3.799999952316284
100
AcDbArc
 50
179.9999813306653
 51
270.0000179860893
  0
ARC
  5
21F
330
4A
100
AcDbEntity
  8
0
  6
Continuous
 62
     0
100
AcDbCircle
 10
-31.27891540527344
 20
-63.07505035400391
 30
0.0
 40
13.80000114440918
100
AcDbArc
 50
184.9999939918165
 51
265.444445734231
  0
ARC
  5
220
330
4A
100
AcDbEntity
  8
0
  6
Continuous
 62
     0
100
AcDbCircle
 10
-54.78489685058594
 20
-7.125030517578125
 30
0.0
 40
2.25
100
AcDbArc
 50
0.0
 51
89.99998201391067
  0
ARC
  5
221
330
4A
100
AcDbEntity
  8
0
  6
Continuous
 62
     0
100
AcDbCircle
 10
-54.78489685058594
 20
-7.125030517578125
 30
0.0
 40
2.25
100
AcDbArc
 50
270.0000179860893
 51
0.0
  0
ARC
  5
222
330
4A
100
AcDbEntity
  8
0
  6
Continuous
 62
     0
100
AcDbCircle
 10
-65.28489685058594
 20
-8.375045776367188
 30
0.0
 40
1.800000071525574
100
AcDbArc
 50
89.99998201391067
 51
179.9999640278213
  0
ARC
  5
223
330
4A
100
AcDbEntity
  8
0
  6
Continuous
 62
     0
100
AcDbCircle
 10
-65.28489685058594
 20
-23.87501525878906
 30
0.0
 40
1.800000071525574
100
AcDbArc
 50
179.9999813306653
 51
270.0000179860893
  0
ARC
  5
224
330
4A
100
AcDbEntity
  8
0
  6
Continuous
 62
     0
100
AcDbCircle
 10
-60.08488464355469
 20
-6.575027465820312
 30
0.0
 40
1.700000166893005
100
AcDbArc
 50
89.99998201391067
 51
179.9999640278213
  0
ARC
  5
225
330
4A
100
AcDbEntity
  8
0
  6
Continuous
 62
     0
100
AcDbCircle
 10
-55.24305725097656
 20
-24.37503051757812
 30
0.0
 40
0.5
100
AcDbArc
 50
5.000034859265956
 51
89.99998201391067
  0
ARC
  5
226
330
4A
100
AcDbEntity
  8
0
  6
Continuous
 62
     0
100
AcDbCircle
 10
-64.98487854003906
 20
-23.57504272460938
 30
0.0
 40
0.300000011920929
100
AcDbArc
 50
179.9999813306653
 51
270.0000179860893
  0
ARC
  5
227
330
4A
100
AcDbEntity
  8
0
  6
Continuous
 62
     0
100
AcDbCircle
 10
-54.53953552246094
 20
-41.59513092041016
 30
0.0
 40
0.5
100
AcDbArc
 50
185.0000213125732
 51
254.9999731724467
  0
ARC
  5
228
330
4A
100
AcDbEntity
  8
0
  6
Continuous
 62
     0
100
AcDbCircle
 10
-31.27891540527344
 20
-63.07505035400391
 30
0.0
 40
10.39999961853027
100
AcDbArc
 50
184.9999939918165
 51
268.1950858564001
  0
ARC
  5
229
330
4A
100
AcDbEntity
  8
0
  6
Continuous
 62
     0
100
AcDbCircle
 10
-31.27891540527344
 20
-63.07505035400391
 30
0.0
 40
8.799999237060547
100
AcDbArc
 50
184.9999939918165
 51
265.4118452413225
  0
ARC
  5
22A
330
4A
100
AcDbEntity
  8
0
  6
Continuous
 62
     0
100
AcDbCircle
 10
37.0943603515625
 20
-75.0750503540039
 30
0.0
 40
6.40000057220459
100
AcDbArc
 50
270.0000179860893
 51
355.0000236242288
  0
ARC
  5
22B
330
4A
100
AcDbEntity
  8
0
  6
Continuous
 62
     0
100
AcDbCircle
 10
37.0943603515625
 20
-75.0750503540039
 30
0.0
 40
4.800000190734863
100
AcDbArc
 50
270.0000179860893
 51
355.0000236242288
  0
ARC
  5
22C
330
4A
100
AcDbEntity
  8
0
  6
Continuous
 62
     0
100
AcDbCircle
 10
55.06706237792969
 20
-33.37502288818359
 30
0.0
 40
1.800000071525574
100
AcDbArc
 50
0.0
 51
89.99998201391067
  0
ARC
  5
22D
330
4A
100
AcDbEntity
  8
0
  6
Continuous
 62
     0
100
AcDbCircle
 10
50.56706237792969
 20
-31.87502288818359
 30
0.0
 40
1.5
100
AcDbArc
 50
11.53705608840248
 51
89.99998201391067
  0
ARC
  5
22E
330
4A
100
AcDbEntity
  8
0
  6
Continuous
 62
     0
100
AcDbCircle
 10
45.06964111328125
 20
-45.87503814697266
 30
0.0
 40
1.0
100
AcDbArc
 50
355.0001064402725
 51
89.99998201391067
  0
ARC
  5
22F
330
4A
100
AcDbEntity
  8
0
  6
Continuous
 62
     0
100
AcDbCircle
 10
17.42503356933594
 20
-80.47501373291016
 30
0.0
 40
1.0
100
AcDbArc
 50
270.0000179860893
 51
0.0
  0
ARC
  5
230
330
4A
100
AcDbEntity
  8
0
  6
Continuous
 62
     0
100
AcDbCircle
 10
19.425048828125
 20
-80.47501373291016
 30
0.0
 40
1.0
100
AcDbArc
 50
179.9999813306653
 51
270.0000179860893
  0
ARC
  5
231
330
4A
100
AcDbEntity
  8
0
  6
Continuous
 62
     0
100
AcDbCircle
 10
-2.574981689453125
 20
-80.47501373291016
 30
0.0
 40
1.0
100
AcDbArc
 50
270.0000179860893
 51
0.0
  0
ARC
  5
232
330
4A
100
AcDbEntity
  8
0
  6
Continuous
 62
     0
100
AcDbCircle
 10
-0.574966430664062
 20
-80.47501373291016
 30
0.0
 40
1.0
100
AcDbArc
 50
179.9999813306653
 51
270.0000179860893
  0
ARC
  5
233
330
4A
100
AcDbEntity
  8
0
  6
Continuous
 62
     0
100
AcDbCircle
 10
-18.57496643066406
 20
-80.47501373291016
 30
0.0
 40
1.0
100
AcDbArc
 50
179.9999813306653
 51
270.0000179860893
  0
ARC
  5
234
330
4A
100
AcDbEntity
  8
0
  6
Continuous
 62
     0
100
AcDbCircle
 10
-31.07498168945312
 20
-75.57501983642578
 30
0.0
 40
0.5
100
AcDbArc
 50
0.0
 51
89.99998201391067
  0
ARC
  5
235
330
4A
100
AcDbEntity
  8
0
  6
Continuous
 62
     0
100
AcDbCircle
 10
-31.574951171875
 20
-72.47037506103516
 30
0.0
 40
1.0
100
AcDbArc
 50
268.195201969616
 51
0.0
  0
ARC
  5
236
330
4A
100
AcDbEntity
  8
0
  6
Continuous
 62
     0
100
AcDbCircle
 10
-42.27183532714844
 20
-45.27848052978516
 30
0.0
 40
1.0
100
AcDbArc
 50
89.99998201391067
 51
185.0000723116208
  0
ARC
  5
237
330
4A
100
AcDbEntity
  8
0
  6
Continuous
 62
     0
100
AcDbCircle
 10
-42.44679260253906
 20
-43.27846527099609
 30
0.0
 40
1.0
100
AcDbArc
 50
184.9999530106815
 51
270.0000179860893
  0
ARC
  5
238
330
4A
100
AcDbEntity
  8
0
  6
Continuous
 62
     0
100
AcDbCircle
 10
-48.38896179199219
 20
-33.87503814697266
 30
0.0
 40
1.0
100
AcDbArc
 50
185.0001715767349
 51
270.0000179860893
  0
ARC
  5
239
330
4A
100
AcDbEntity
  8
0
  6
Continuous
 62
     0
100
AcDbCircle
 10
-48.21400451660156
 20
-35.87500762939453
 30
0.0
 40
1.0
100
AcDbArc
 50
89.99998201391067
 51
185.0000723116208
  0
DIMENSION
  5
23A
330
4A
100
AcDbEntity
  8
0
 62
     0
100
AcDbDimension
  2
*D10
 10
-93.12811169433591
 20
57.87498474121094
 30
0.0
 11
-93.12811169433593
 21
91.24141748046875
 31
0.0
 70
   160
 71
     5
 42
70.00000000000001
  3
ISO-25
100
AcDbAlignedDimension
 13
-66.28489685058594
 23
127.8749694824219
 33
0.0
 14
-66.28489685058594
 24
57.87498474121094
 34
0.0
 50
90.00000000000001
100
AcDbRotatedDimension
1001
ACAD
1000
DSTYLE
1002
{
1070
   178
1070
     1
1070
   147
1040
0.800000011920929
1070
    77
1070
     1
1070
    74
1070
     0
1070
    73
1070
     0
1070
    42
1040
2.54
1070
    44
1040
4.500030517578125
1070
    76
1070
     0
1070
    75
1070
     0
1070
   279
1070
     0
1070
   271
1070
     0
1070
   144
1040
1.000000217982749
1070
   278
1070
    46
1070
   173
1070
     1
1070
    41
1040
3.0
1070
   140
1040
3.200000047683716
1070
   344
1005
128
1070
   343
1005
128
1002
}
  0
DIMENSION
  5
247
330
4A
100
AcDbEntity
  8
0
 62
     0
100
AcDbDimension
  2
*D11
 10
-92.24633679199216
 20
-83.07501983642578
 30
0.0
 11
-92.24633679199218
 21
-45.61906378173828
 31
0.0
 70
   160
 71
     5
 42
74.6999969482422
  3
ISO-25
100
AcDbAlignedDimension
 13
-65.28492736816406
 23
-8.375045776367188
 33
0.0
 14
-41.57499694824219
 24
-83.07501983642578
 34
0.0
 50
90.00000000000001
100
AcDbRotatedDimension
1001
ACAD
1000
DSTYLE
1002
{
1070
   178
1070
     1
1070
   147
1040
0.800000011920929
1070
    77
1070
     1
1070
    74
1070
     0
1070
    73
1070
     0
1070
    42
1040
2.54
1070
    44
1040
4.5
1070
    76
1070
     0
1070
    75
1070
     0
1070
   279
1070
     0
1070
   271
1070
     1
1070
   144
1040
1.000000306401493
1070
   278
1070
    46
1070
   173
1070
     1
1070
    41
1040
3.0
1070
   140
1040
3.200000047683716
1070
   344
1005
128
1070
   343
1005
128
1002
}
  0
DIMENSION
  5
254
330
4A
100
AcDbEntity
  8
0
 62
     0
100
AcDbDimension
  2
*D12
 10
44.42501831054687
 20
-109.9901575317383
 30
0.0
 11
1.663948608398437
 21
-109.9901575317383
 31
0.0
 70
   160
 71
     5
 42
86.0
  3
ISO-25
100
AcDbAlignedDimension
 13
-41.57496643066406
 23
-83.07506561279297
 33
0.0
 14
44.42501831054688
 24
-83.07506561279297
 34
0.0
 50
180.0
100
AcDbRotatedDimension
1001
ACAD
1000
DSTYLE
1002
{
1070
   178
1070
     1
1070
   147
1040
0.800000011920929
1070
    77
1070
     1
1070
    74
1070
     0
1070
    73
1070
     0
1070
    42
1040
2.54
1070
    44
1040
4.500045776367188
1070
    76
1070
     0
1070
    75
1070
     0
1070
   279
1070
     0
1070
   271
1070
     0
1070
   144
1040
1.000000177427811
1070
   278
1070
    46
1070
   173
1070
     1
1070
    41
1040
3.0
1070
   140
1040
3.200000047683716
1070
   344
1005
128
1070
   343
1005
128
1002
}
  0
DIMENSION
  5
262
330
4A
100
AcDbEntity
  8
0
 62
     0
100
AcDbDimension
  2
*D13
 10
86.7874227294922
 20
-83.07501983642578
 30
0.0
 11
86.78742272949219
 21
-57.30540411376953
 31
0.0
 70
   160
 71
     5
 42
49.70000457763672
  3
ISO-25
100
AcDbAlignedDimension
 13
55.06704711914062
 23
-33.37502288818359
 33
0.0
 14
44.42500305175781
 24
-83.07501983642578
 34
0.0
 50
90.00000000000001
100
AcDbRotatedDimension
1001
ACAD
1000
DSTYLE
1002
{
1070
   178
1070
     1
1070
   147
1040
0.800000011920929
1070
    77
1070
     1
1070
    74
1070
     0
1070
    73
1070
     0
1070
    42
1040
2.54
1070
    44
1040
4.499984741210938
1070
    76
1070
     0
1070
    75
1070
     0
1070
   279
1070
     0
1070
   271
1070
     1
1070
   144
1040
1.000000153508954
1070
   278
1070
    46
1070
   173
1070
     1
1070
    41
1040
3.0
1070
   140
1040
3.200000047683716
1070
   344
1005
128
1070
   343
1005
128
1002
}
  0
DIMENSION
  5
26F
330
4A
100
AcDbEntity
  8
0
 62
     0
100
AcDbDimension
  2
*D14
 10
56.86708068847656
 20
14.45339965820312
 30
0.0
 11
-3.799064086914063
 21
14.45339965820312
 31
0.0
 70
   160
 71
     5
 42
123.9519424438477
  3
ISO-25
100
AcDbAlignedDimension
 13
-67.08485412597656
 23
-8.375091552734375
 33
0.0
 14
56.86708068847656
 24
-33.37506866455078
 34
0.0
 50
180.0
100
AcDbRotatedDimension
1001
ACAD
1000
DSTYLE
1002
{
1070
   178
1070
     1
1070
   147
1040
0.800000011920929
1070
    77
1070
     1
1070
    74
1070
     0
1070
    73
1070
     0
1070
    42
1040
2.54
1070
    44
1040
4.499969482421875
1070
    76
1070
     0
1070
    75
1070
     0
1070
   279
1070
     0
1070
   271
1070
     0
1070
   144
1040
1.000000061551234
1070
   278
1070
    46
1070
   173
1070
     1
1070
    41
1040
3.0
1070
   140
1040
3.200000047683716
1070
   344
1005
128
1070
   343
1005
128
1002
}
  0
ENDBLK
  5
4C
330
4A
100
AcDbEntity
  8
0
100
AcDbBlockEnd
  0
BLOCK
  5
129
330
128
100
AcDbEntity
  8
0
100
AcDbBlockBegin
  2
_OPEN30
 70
     0
 10
0.0
 20
0.0
 30
0.0
  3
_OPEN30
  1

  0
LINE
  5
12B
330
128
100
AcDbEntity
  8
0
  6
ByBlock
 62
     0
370
    -2
100
AcDbLine
 10
-1.0
 20
0.267949
 30
0.0
 11
0.0
 21
0.0
 31
0.0
  0
LINE
  5
12C
330
128
100
AcDbEntity
  8
0
  6
ByBlock
 62
     0
370
    -2
100
AcDbLine
 10
0.0
 20
0.0
 30
0.0
 11
-1.0
 21
-0.267949
 31
0.0
  0
LINE
  5
12D
330
128
100
AcDbEntity
  8
0
  6
ByBlock
 62
     0
370
    -2
100
AcDbLine
 10
0.0
 20
0.0
 30
0.0
 11
-1.0
 21
0.0
 31
0.0
  0
ENDBLK
  5
12A
330
128
100
AcDbEntity
  8
0
100
AcDbBlockEnd
  0
BLOCK
  5
130
330
12F
100
AcDbEntity
  8
0
100
AcDbBlockBegin
  2
*D5
 70
     1
 10
0.0
 20
0.0
 30
0.0
  3
*D5
  1

  0
LINE
  5
132
330
12F
100
AcDbEntity
  8
0
 62
     0
370
    -2
100
AcDbLine
 10
-82.98117736816407
 20
148.7599792480469
 30
0.0
 11
-116.1560963134766
 21
148.7599792480469
 31
0.0
  0
LINE
  5
133
330
12F
100
AcDbEntity
  8
0
 62
     0
370
    -2
100
AcDbLine
 10
-82.98117736816407
 20
78.75997924804688
 30
0.0
 11
-116.1560963134765
 21
78.75997924804688
 31
0.0
  0
LINE
  5
134
330
12F
100
AcDbEntity
  8
0
 62
     0
370
    -2
100
AcDbLine
 10
-111.6560657958984
 20
145.7599792480469
 30
0.0
 11
-111.6560657958984
 21
81.75997924804688
 31
0.0
  0
INSERT
  5
135
330
12F
100
AcDbEntity
  8
0
 62
     0
370
    -2
100
AcDbBlockReference
  2
_OPEN30
 10
-111.6560657958984
 20
148.7599792480469
 30
0.0
 41
3.0
 42
3.0
 43
3.0
 50
90.00000000000001
  0
INSERT
  5
136
330
12F
100
AcDbEntity
  8
0
 62
     0
370
    -2
100
AcDbBlockReference
  2
_OPEN30
 10
-111.6560657958984
 20
78.75997924804688
 30
0.0
 41
3.0
 42
3.0
 43
3.0
 50
270.0
  0
MTEXT
  5
137
330
12F
100
AcDbEntity
  8
0
 62
     1
100
AcDbMText
 10
-114.0704658318758
 20
113.7609792480469
 30
0.0
 40
3.200000047683716
 41
0.0
 71
     5
 72
     1
  1
70
 11
-4.060244204343429E-16
 21
1.0
 31
0.0
 73
     1
 44
1.0
  0
POINT
  5
138
330
12F
100
AcDbEntity
  8
Defpoints
 62
     0
100
AcDbPoint
 10
-80.44117736816406
 20
148.7599792480469
 30
0.0
  0
POINT
  5
139
330
12F
100
AcDbEntity
  8
Defpoints
 62
     0
100
AcDbPoint
 10
-80.44117736816406
 20
78.75997924804688
 30
0.0
  0
POINT
  5
13A
330
12F
100
AcDbEntity
  8
Defpoints
 62
     0
100
AcDbPoint
 10
-111.6580657958984
 20
78.75997924804686
 30
0.0
  0
ENDBLK
  5
131
330
12F
100
AcDbEntity
  8
0
100
AcDbBlockEnd
  0
BLOCK
  5
13D
330
13C
100
AcDbEntity
  8
0
100
AcDbBlockBegin
  2
*D6
 70
     1
 10
0.0
 20
0.0
 30
0.0
  3
*D6
  1

  0
LINE
  5
13F
330
13C
100
AcDbEntity
  8
0
 62
     0
370
    -2
100
AcDbLine
 10
-50.90089416503906
 20
-82.14630035400391
 30
0.0
 11
-50.90089416503907
 21
-115.7837137451172
 31
0.0
  0
LINE
  5
140
330
13C
100
AcDbEntity
  8
0
 62
     0
370
    -2
100
AcDbLine
 10
49.09910583496094
 20
-82.14630035400391
 30
0.0
 11
49.09910583496093
 21
-115.7837137451172
 31
0.0
  0
LINE
  5
141
330
13C
100
AcDbEntity
  8
0
 62
     0
370
    -2
100
AcDbLine
 10
-47.90089416503907
 20
-111.2837137451172
 30
0.0
 11
46.09910583496093
 21
-111.2837137451172
 31
0.0
  0
INSERT
  5
142
330
13C
100
AcDbEntity
  8
0
 62
     0
370
    -2
100
AcDbBlockReference
  2
_OPEN30
 10
-50.90089416503907
 20
-111.2837137451172
 30
0.0
 41
3.0
 42
3.0
 43
3.0
 50
180.0
  0
INSERT
  5
143
330
13C
100
AcDbEntity
  8
0
 62
     0
370
    -2
100
AcDbBlockReference
  2
_OPEN30
 10
49.09910583496093
 20
-111.2837137451172
 30
0.0
 41
3.0
 42
3.0
 43
3.0
 50
360.0
  0
MTEXT
  5
144
330
13C
100
AcDbEntity
  8
0
 62
     1
 60
     1
100
AcDbMText
 10
4.125832153320313
 20
-108.8693137091398
 30
0.0
 40
3.200000047683716
 41
0.0
 71
     5
 72
     1
  1
100
 73
     1
 44
1.0
  0
POINT
  5
145
330
13C
100
AcDbEntity
  8
Defpoints
 62
     0
100
AcDbPoint
 10
-50.90089416503906
 20
-79.6063003540039
 30
0.0
  0
POINT
  5
146
330
13C
100
AcDbEntity
  8
Defpoints
 62
     0
100
AcDbPoint
 10
49.09910583496094
 20
-79.6063003540039
 30
0.0
  0
POINT
  5
147
330
13C
100
AcDbEntity
  8
Defpoints
 62
     0
100
AcDbPoint
 10
49.09910583496093
 20
-111.2847137451172
 30
0.0
  0
MTEXT
  5
148
330
13C
100
AcDbEntity
  8
0
 62
     1
100
AcDbMText
 10
-0.216765023559925
 20
-110.4771349904777
 30
0.0
 40
3.200000047683716
 41
0.0
 71
     7
 72
     1
  1
\W1;100
 11
0.9999984769132877
 21
-0.001745328365898445
 31
0.0
 73
     1
 44
1.0
  0
ENDBLK
  5
13E
330
13C
100
AcDbEntity
  8
0
100
AcDbBlockEnd
  0
BLOCK
  5
14B
330
14A
100
AcDbEntity
  8
0
100
AcDbBlockBegin
  2
*D7
 70
     1
 10
0.0
 20
0.0
 30
0.0
  3
*D7
  1

  0
LINE
  5
14D
330
14A
100
AcDbEntity
  8
0
 62
     0
370
    -2
100
AcDbLine
 10
-81.23683166503906
 20
34.43369201660156
 30
0.0
 11
-81.23683166503906
 21
55.58810424804688
 31
0.0
  0
LINE
  5
14E
330
14A
100
AcDbEntity
  8
0
 62
     0
370
    -2
100
AcDbLine
 10
63.57212829589844
 20
-0.566292724609375
 30
0.0
 11
63.57212829589843
 21
55.58810424804687
 31
0.0
  0
LINE
  5
14F
330
14A
100
AcDbEntity
  8
0
 62
     0
370
    -2
100
AcDbLine
 10
-78.23683166503906
 20
51.08810424804688
 30
0.0
 11
60.57212829589843
 21
51.08810424804687
 31
0.0
  0
INSERT
  5
150
330
14A
100
AcDbEntity
  8
0
 62
     0
370
    -2
100
AcDbBlockReference
  2
_OPEN30
 10
-81.23683166503906
 20
51.08810424804688
 30
0.0
 41
3.0
 42
3.0
 43
3.0
 50
180.0
  0
INSERT
  5
151
330
14A
100
AcDbEntity
  8
0
 62
     0
370
    -2
100
AcDbBlockReference
  2
_OPEN30
 10
63.57212829589843
 20
51.08810424804687
 30
0.0
 41
3.0
 42
3.0
 43
3.0
 50
360.0
  0
MTEXT
  5
152
330
14A
100
AcDbEntity
  8
0
 62
     1
 60
     1
100
AcDbMText
 10
-10.174048828125
 20
53.50250428402424
 30
0.0
 40
3.200000047683716
 41
0.0
 71
     5
 72
     1
  1
145
 73
     1
 44
1.0
  0
POINT
  5
153
330
14A
100
AcDbEntity
  8
Defpoints
 62
     0
100
AcDbPoint
 10
-81.23683166503906
 20
31.89369201660156
 30
0.0
  0
POINT
  5
154
330
14A
100
AcDbEntity
  8
Defpoints
 62
     0
100
AcDbPoint
 10
63.57212829589844
 20
-3.106292724609375
 30
0.0
  0
POINT
  5
155
330
14A
100
AcDbEntity
  8
Defpoints
 62
     0
100
AcDbPoint
 10
63.57212829589844
 20
51.08810424804688
 30
0.0
  0
MTEXT
  5
156
330
14A
100
AcDbEntity
  8
0
 62
     1
100
AcDbMText
 10
-14.51664600500524
 20
51.89568300268638
 30
0.0
 40
3.200000047683716
 41
0.0
 71
     7
 72
     1
  1
\W1;145
 11
0.9999984769132877
 21
-0.001745328365898445
 31
0.0
 73
     1
 44
1.0
  0
ENDBLK
  5
14C
330
14A
100
AcDbEntity
  8
0
100
AcDbBlockEnd
  0
BLOCK
  5
159
330
158
100
AcDbEntity
  8
0
100
AcDbBlockBegin
  2
*D8
 70
     1
 10
0.0
 20
0.0
 30
0.0
  3
*D8
  1

  0
LINE
  5
15B
330
158
100
AcDbEntity
  8
0
 62
     0
370
    -2
100
AcDbLine
 10
-81.97684387207032
 20
30.09368896484375
 30
0.0
 11
-116.617369506836
 21
30.09368896484373
 31
0.0
  0
LINE
  5
15C
330
158
100
AcDbEntity
  8
0
 62
     0
370
    -2
100
AcDbLine
 10
-53.44092468261719
 20
-79.6063003540039
 30
0.0
 11
-116.6173695068359
 21
-79.60630035400392
 31
0.0
  0
LINE
  5
15D
330
158
100
AcDbEntity
  8
0
 62
     0
370
    -2
100
AcDbLine
 10
-112.1173389892578
 20
27.09368896484373
 30
0.0
 11
-112.1173389892578
 21
-76.60630035400392
 31
0.0
  0
INSERT
  5
15E
330
158
100
AcDbEntity
  8
0
 62
     0
370
    -2
100
AcDbBlockReference
  2
_OPEN30
 10
-112.1173389892578
 20
30.09368896484373
 30
0.0
 41
3.0
 42
3.0
 43
3.0
 50
90.00000000000001
  0
INSERT
  5
15F
330
158
100
AcDbEntity
  8
0
 62
     0
370
    -2
100
AcDbBlockReference
  2
_OPEN30
 10
-112.1173389892578
 20
-79.60630035400392
 30
0.0
 41
3.0
 42
3.0
 43
3.0
 50
270.0
  0
MTEXT
  5
160
330
158
100
AcDbEntity
  8
0
 62
     1
100
AcDbMText
 10
-114.5381390253305
 20
-31.0198740234375
 30
0.0
 40
3.200000047683716
 41
0.0
 71
     5
 72
     1
  1
109.7
 11
-3.886286991486631E-16
 21
1.0
 31
0.0
 73
     1
 44
1.0
  0
POINT
  5
161
330
158
100
AcDbEntity
  8
Defpoints
 62
     0
100
AcDbPoint
 10
-79.43684387207031
 20
30.09368896484375
 30
0.0
  0
POINT
  5
162
330
158
100
AcDbEntity
  8
Defpoints
 62
     0
100
AcDbPoint
 10
-50.90092468261719
 20
-79.6063003540039
 30
0.0
  0
POINT
  5
163
330
158
100
AcDbEntity
  8
Defpoints
 62
     0
100
AcDbPoint
 10
-112.1193389892578
 20
-79.60630035400393
 30
0.0
  0
ENDBLK
  5
15A
330
158
100
AcDbEntity
  8
0
100
AcDbBlockEnd
  0
BLOCK
  5
166
330
165
100
AcDbEntity
  8
0
100
AcDbBlockBegin
  2
*D9
 70
     1
 10
0.0
 20
0.0
 30
0.0
  3
*D9
  1

  0
LINE
  5
168
330
165
100
AcDbEntity
  8
0
 62
     0
370
    -2
100
AcDbLine
 10
64.31210998535157
 20
-4.906295776367187
 30
0.0
 11
101.8056569824219
 21
-4.90629577636718
 31
0.0
  0
LINE
  5
169
330
165
100
AcDbEntity
  8
0
 62
     0
370
    -2
100
AcDbLine
 10
51.63909057617187
 20
-79.6063003540039
 30
0.0
 11
101.8056569824219
 21
-79.60630035400388
 31
0.0
  0
LINE
  5
16A
330
165
100
AcDbEntity
  8
0
 62
     0
370
    -2
100
AcDbLine
 10
97.30565698242187
 20
-7.90629577636718
 30
0.0
 11
97.3056569824219
 21
-76.60630035400388
 31
0.0
  0
INSERT
  5
16B
330
165
100
AcDbEntity
  8
0
 62
     0
370
    -2
100
AcDbBlockReference
  2
_OPEN30
 10
97.30565698242187
 20
-4.90629577636718
 30
0.0
 41
3.0
 42
3.0
 43
3.0
 50
90.00000000000001
  0
INSERT
  5
16C
330
165
100
AcDbEntity
  8
0
 62
     0
370
    -2
100
AcDbBlockReference
  2
_OPEN30
 10
97.3056569824219
 20
-79.60630035400388
 30
0.0
 41
3.0
 42
3.0
 43
3.0
 50
270.0
  0
MTEXT
  5
16D
330
165
100
AcDbEntity
  8
0
 62
     1
100
AcDbMText
 10
94.88485694634915
 20
-40.70690100097656
 30
0.0
 40
3.200000047683716
 41
0.0
 71
     5
 72
     1
  1
74.7
 11
-3.804780145744830E-16
 21
1.0
 31
0.0
 73
     1
 44
1.0
  0
POINT
  5
16E
330
165
100
AcDbEntity
  8
Defpoints
 62
     0
100
AcDbPoint
 10
61.77210998535156
 20
-4.906295776367188
 30
0.0
  0
POINT
  5
16F
330
165
100
AcDbEntity
  8
Defpoints
 62
     0
100
AcDbPoint
 10
49.09909057617188
 20
-79.6063003540039
 30
0.0
  0
POINT
  5
170
330
165
100
AcDbEntity
  8
Defpoints
 62
     0
100
AcDbPoint
 10
97.30465698242188
 20
-79.60630035400388
 30
0.0
  0
ENDBLK
  5
167
330
165
100
AcDbEntity
  8
0
100
AcDbBlockEnd
  0
BLOCK
  5
23C
330
23B
100
AcDbEntity
  8
0
100
AcDbBlockBegin
  2
*D10
 70
     1
 10
0.0
 20
0.0
 30
0.0
  3
*D10
  1

  0
LINE
  5
23E
330
23B
100
AcDbEntity
  8
0
 62
     0
370
    -2
100
AcDbLine
 10
-68.82489685058594
 20
127.8749694824219
 30
0.0
 11
-97.62814221191407
 21
127.8749694824219
 31
0.0
  0
LINE
  5
23F
330
23B
100
AcDbEntity
  8
0
 62
     0
370
    -2
100
AcDbLine
 10
-68.82489685058594
 20
57.87498474121094
 30
0.0
 11
-97.62814221191404
 21
57.87498474121094
 31
0.0
  0
LINE
  5
240
330
23B
100
AcDbEntity
  8
0
 62
     0
370
    -2
100
AcDbLine
 10
-93.12811169433594
 20
124.8749694824219
 30
0.0
 11
-93.12811169433591
 21
60.87498474121094
 31
0.0
  0
INSERT
  5
241
330
23B
100
AcDbEntity
  8
0
 62
     0
370
    -2
100
AcDbBlockReference
  2
_OPEN30
 10
-93.12811169433594
 20
127.8749694824219
 30
0.0
 41
3.0
 42
3.0
 43
3.0
 50
90.00000000000001
  0
INSERT
  5
242
330
23B
100
AcDbEntity
  8
0
 62
     0
370
    -2
100
AcDbBlockReference
  2
_OPEN30
 10
-93.12811169433591
 20
57.87498474121094
 30
0.0
 41
3.0
 42
3.0
 43
3.0
 50
270.0
  0
MTEXT
  5
243
330
23B
100
AcDbEntity
  8
0
 62
     1
100
AcDbMText
 10
-95.5425117303133
 20
91.24141748046875
 30
0.0
 40
3.200000047683716
 41
0.0
 71
     5
 72
     1
  1
70
 11
-4.060245089406621E-16
 21
1.0
 31
0.0
 73
     1
 44
1.0
  0
POINT
  5
244
330
23B
100
AcDbEntity
  8
Defpoints
 62
     0
100
AcDbPoint
 10
-66.28489685058594
 20
127.8749694824219
 30
0.0
  0
POINT
  5
245
330
23B
100
AcDbEntity
  8
Defpoints
 62
     0
100
AcDbPoint
 10
-66.28489685058594
 20
57.87498474121094
 30
0.0
  0
POINT
  5
246
330
23B
100
AcDbEntity
  8
Defpoints
 62
     0
100
AcDbPoint
 10
-93.13011169433594
 20
57.87498474121093
 30
0.0
  0
ENDBLK
  5
23D
330
23B
100
AcDbEntity
  8
0
100
AcDbBlockEnd
  0
BLOCK
  5
249
330
248
100
AcDbEntity
  8
0
100
AcDbBlockBegin
  2
*D11
 70
     1
 10
0.0
 20
0.0
 30
0.0
  3
*D11
  1

  0
LINE
  5
24B
330
248
100
AcDbEntity
  8
0
 62
     0
370
    -2
100
AcDbLine
 10
-67.82492736816407
 20
-8.375045776367188
 30
0.0
 11
-96.74633679199219
 21
-8.375045776367188
 31
0.0
  0
LINE
  5
24C
330
248
100
AcDbEntity
  8
0
 62
     0
370
    -2
100
AcDbLine
 10
-44.11499694824219
 20
-83.07501983642578
 30
0.0
 11
-96.74633679199216
 21
-83.07501983642578
 31
0.0
  0
LINE
  5
24D
330
248
100
AcDbEntity
  8
0
 62
     0
370
    -2
100
AcDbLine
 10
-92.24633679199219
 20
-11.37504577636719
 30
0.0
 11
-92.24633679199216
 21
-80.07501983642578
 31
0.0
  0
INSERT
  5
24E
330
248
100
AcDbEntity
  8
0
 62
     0
370
    -2
100
AcDbBlockReference
  2
_OPEN30
 10
-92.24633679199219
 20
-8.375045776367188
 30
0.0
 41
3.0
 42
3.0
 43
3.0
 50
90.00000000000001
  0
INSERT
  5
24F
330
248
100
AcDbEntity
  8
0
 62
     0
370
    -2
100
AcDbBlockReference
  2
_OPEN30
 10
-92.24633679199216
 20
-83.07501983642578
 30
0.0
 41
3.0
 42
3.0
 43
3.0
 50
270.0
  0
MTEXT
  5
250
330
248
100
AcDbEntity
  8
0
 62
     1
100
AcDbMText
 10
-94.66713682806491
 20
-45.61906378173828
 30
0.0
 40
3.200000047683716
 41
0.0
 71
     5
 72
     1
  1
74.7
 11
-3.804781700131919E-16
 21
1.0
 31
0.0
 73
     1
 44
1.0
  0
POINT
  5
251
330
248
100
AcDbEntity
  8
Defpoints
 62
     0
100
AcDbPoint
 10
-65.28492736816406
 20
-8.375045776367188
 30
0.0
  0
POINT
  5
252
330
248
100
AcDbEntity
  8
Defpoints
 62
     0
100
AcDbPoint
 10
-41.57499694824219
 20
-83.07501983642578
 30
0.0
  0
POINT
  5
253
330
248
100
AcDbEntity
  8
Defpoints
 62
     0
100
AcDbPoint
 10
-92.24833679199219
 20
-83.0750198364258
 30
0.0
  0
ENDBLK
  5
24A
330
248
100
AcDbEntity
  8
0
100
AcDbBlockEnd
  0
BLOCK
  5
256
330
255
100
AcDbEntity
  8
0
100
AcDbBlockBegin
  2
*D12
 70
     1
 10
0.0
 20
0.0
 30
0.0
  3
*D12
  1

  0
LINE
  5
258
330
255
100
AcDbEntity
  8
0
 62
     0
370
    -2
100
AcDbLine
 10
-41.57496643066406
 20
-85.61506561279298
 30
0.0
 11
-41.57496643066407
 21
-114.4902033081054
 31
0.0
  0
LINE
  5
259
330
255
100
AcDbEntity
  8
0
 62
     0
370
    -2
100
AcDbLine
 10
44.42501831054688
 20
-85.61506561279298
 30
0.0
 11
44.42501831054687
 21
-114.4902033081055
 31
0.0
  0
LINE
  5
25A
330
255
100
AcDbEntity
  8
0
 62
     0
370
    -2
100
AcDbLine
 10
-38.57496643066407
 20
-109.9901575317383
 30
0.0
 11
41.42501831054687
 21
-109.9901575317383
 31
0.0
  0
INSERT
  5
25B
330
255
100
AcDbEntity
  8
0
 62
     0
370
    -2
100
AcDbBlockReference
  2
_OPEN30
 10
-41.57496643066407
 20
-109.9901575317383
 30
0.0
 41
3.0
 42
3.0
 43
3.0
 50
180.0
  0
INSERT
  5
25C
330
255
100
AcDbEntity
  8
0
 62
     0
370
    -2
100
AcDbBlockReference
  2
_OPEN30
 10
44.42501831054687
 20
-109.9901575317383
 30
0.0
 41
3.0
 42
3.0
 43
3.0
 50
360.0
  0
MTEXT
  5
25D
330
255
100
AcDbEntity
  8
0
 62
     1
 60
     1
100
AcDbMText
 10
1.663948608398438
 20
-107.5757574957609
 30
0.0
 40
3.200000047683716
 41
0.0
 71
     5
 72
     1
  1
86
 73
     1
 44
1.0
  0
POINT
  5
25E
330
255
100
AcDbEntity
  8
Defpoints
 62
     0
100
AcDbPoint
 10
-41.57496643066406
 20
-83.07506561279297
 30
0.0
  0
POINT
  5
25F
330
255
100
AcDbEntity
  8
Defpoints
 62
     0
100
AcDbPoint
 10
44.42501831054688
 20
-83.07506561279297
 30
0.0
  0
POINT
  5
260
330
255
100
AcDbEntity
  8
Defpoints
 62
     0
100
AcDbPoint
 10
44.42501831054687
 20
-109.9911575317383
 30
0.0
  0
MTEXT
  5
261
330
255
100
AcDbEntity
  8
0
 62
     1
100
AcDbMText
 10
-1.078650981578718
 20
-109.1863713025258
 30
0.0
 40
3.200000047683716
 41
0.0
 71
     7
 72
     1
  1
\W1;86
 11
0.9999984769132877
 21
-0.001745328365898445
 31
0.0
 73
     1
 44
1.0
  0
ENDBLK
  5
257
330
255
100
AcDbEntity
  8
0
100
AcDbBlockEnd
  0
BLOCK
  5
264
330
263
100
AcDbEntity
  8
0
100
AcDbBlockBegin
  2
*D13
 70
     1
 10
0.0
 20
0.0
 30
0.0
  3
*D13
  1

  0
LINE
  5
266
330
263
100
AcDbEntity
  8
0
 62
     0
370
    -2
100
AcDbLine
 10
57.60704711914062
 20
-33.37502288818359
 30
0.0
 11
91.28740747070313
 21
-33.37502288818359
 31
0.0
  0
LINE
  5
267
330
263
100
AcDbEntity
  8
0
 62
     0
370
    -2
100
AcDbLine
 10
46.96500305175781
 20
-83.07501983642578
 30
0.0
 11
91.28740747070314
 21
-83.07501983642578
 31
0.0
  0
LINE
  5
268
330
263
100
AcDbEntity
  8
0
 62
     0
370
    -2
100
AcDbLine
 10
86.78742272949219
 20
-36.37502288818359
 30
0.0
 11
86.7874227294922
 21
-80.07501983642578
 31
0.0
  0
INSERT
  5
269
330
263
100
AcDbEntity
  8
0
 62
     0
370
    -2
100
AcDbBlockReference
  2
_OPEN30
 10
86.78742272949219
 20
-33.37502288818359
 30
0.0
 41
3.0
 42
3.0
 43
3.0
 50
90.00000000000001
  0
INSERT
  5
26A
330
263
100
AcDbEntity
  8
0
 62
     0
370
    -2
100
AcDbBlockReference
  2
_OPEN30
 10
86.7874227294922
 20
-83.07501983642578
 30
0.0
 41
3.0
 42
3.0
 43
3.0
 50
270.0
  0
MTEXT
  5
26B
330
263
100
AcDbEntity
  8
0
 62
     1
100
AcDbMText
 10
84.36662269341946
 20
-57.30540411376953
 30
0.0
 40
3.200000047683716
 41
0.0
 71
     5
 72
     1
  1
49.7
 11
-2.859327080040117E-16
 21
1.0
 31
0.0
 73
     1
 44
1.0
  0
POINT
  5
26C
330
263
100
AcDbEntity
  8
Defpoints
 62
     0
100
AcDbPoint
 10
55.06704711914062
 20
-33.37502288818359
 30
0.0
  0
POINT
  5
26D
330
263
100
AcDbEntity
  8
Defpoints
 62
     0
100
AcDbPoint
 10
44.42500305175781
 20
-83.07501983642578
 30
0.0
  0
POINT
  5
26E
330
263
100
AcDbEntity
  8
Defpoints
 62
     0
100
AcDbPoint
 10
86.78642272949219
 20
-83.07501983642577
 30
0.0
  0
ENDBLK
  5
265
330
263
100
AcDbEntity
  8
0
100
AcDbBlockEnd
  0
BLOCK
  5
271
330
270
100
AcDbEntity
  8
0
100
AcDbBlockBegin
  2
*D14
 70
     1
 10
0.0
 20
0.0
 30
0.0
  3
*D14
  1

  0
LINE
  5
273
330
270
100
AcDbEntity
  8
0
 62
     0
370
    -2
100
AcDbLine
 10
-67.08485412597656
 20
-5.835091552734375
 30
0.0
 11
-67.08485412597656
 21
18.95336914062501
 31
0.0
  0
LINE
  5
274
330
270
100
AcDbEntity
  8
0
 62
     0
370
    -2
100
AcDbLine
 10
56.86708068847656
 20
-30.83506866455078
 30
0.0
 11
56.86708068847656
 21
18.95336914062499
 31
0.0
  0
LINE
  5
275
330
270
100
AcDbEntity
  8
0
 62
     0
370
    -2
100
AcDbLine
 10
-64.08485412597656
 20
14.45339965820313
 30
0.0
 11
53.86708068847656
 21
14.45339965820312
 31
0.0
  0
INSERT
  5
276
330
270
100
AcDbEntity
  8
0
 62
     0
370
    -2
100
AcDbBlockReference
  2
_OPEN30
 10
-67.08485412597656
 20
14.45339965820313
 30
0.0
 41
3.0
 42
3.0
 43
3.0
 50
180.0
  0
INSERT
  5
277
330
270
100
AcDbEntity
  8
0
 62
     0
370
    -2
100
AcDbBlockReference
  2
_OPEN30
 10
56.86708068847656
 20
14.45339965820312
 30
0.0
 41
3.0
 42
3.0
 43
3.0
 50
360.0
  0
MTEXT
  5
278
330
270
100
AcDbEntity
  8
0
 62
     1
 60
     1
100
AcDbMText
 10
-3.799064086914062
 20
16.86779969418049
 30
0.0
 40
3.200000047683716
 41
0.0
 71
     5
 72
     1
  1
124
 73
     1
 44
1.0
  0
POINT
  5
279
330
270
100
AcDbEntity
  8
Defpoints
 62
     0
100
AcDbPoint
 10
-67.08485412597656
 20
-8.375091552734375
 30
0.0
  0
POINT
  5
27A
330
270
100
AcDbEntity
  8
Defpoints
 62
     0
100
AcDbPoint
 10
56.86708068847656
 20
-33.37506866455078
 30
0.0
  0
POINT
  5
27B
330
270
100
AcDbEntity
  8
Defpoints
 62
     0
100
AcDbPoint
 10
56.86708068847657
 20
14.45339965820312
 30
0.0
  0
MTEXT
  5
27C
330
270
100
AcDbEntity
  8
0
 62
     1
100
AcDbMText
 10
-8.141661263794301
 20
15.26097841284263
 30
0.0
 40
3.200000047683716
 41
0.0
 71
     7
 72
     1
  1
\W1;124
 11
0.9999984769132877
 21
-0.001745328365898445
 31
0.0
 73
     1
 44
1.0
  0
ENDBLK
  5
272
330
270
100
AcDbEntity
  8
0
100
AcDbBlockEnd
  0
BLOCK
  5
37A
330
379
100
AcDbEntity
  8
0
100
AcDbBlockBegin
  2
*D15
 70
     1
 10
0.0
 20
0.0
 30
0.0
  3
*D15
  1

  0
LINE
  5
37C
330
379
100
AcDbEntity
  8
0
 62
     0
370
    -2
100
AcDbLine
 10
-50.68244842529297
 20
63.93748474121094
 30
0.0
 11
-63.81307110595704
 21
63.93748474121093
 31
0.0
  0
LINE
  5
37D
330
379
100
AcDbEntity
  8
0
 62
     0
370
    -2
100
AcDbLine
 10
-50.68244842529297
 20
28.93749237060547
 30
0.0
 11
-63.81307110595703
 21
28.93749237060545
 31
0.0
  0
LINE
  5
37E
330
379
100
AcDbEntity
  8
0
 62
     0
370
    -2
100
AcDbLine
 10
-61.56305584716798
 20
60.93748474121093
 30
0.0
 11
-61.56305584716797
 21
31.93749237060546
 31
0.0
  0
INSERT
  5
37F
330
379
100
AcDbEntity
  8
0
 62
     0
370
    -2
100
AcDbBlockReference
  2
_OPEN30
 10
-61.56305584716798
 20
63.93748474121093
 30
0.0
 41
3.0
 42
3.0
 43
3.0
 50
90.00000000000001
  0
INSERT
  5
380
330
379
100
AcDbEntity
  8
0
 62
     0
370
    -2
100
AcDbBlockReference
  2
_OPEN30
 10
-61.56305584716797
 20
28.93749237060546
 30
0.0
 41
3.0
 42
3.0
 43
3.0
 50
270.0
  0
MTEXT
  5
381
330
379
100
AcDbEntity
  8
0
 62
     1
100
AcDbMText
 10
-63.97745588314534
 20
45.62120874023437
 30
0.0
 40
3.200000047683716
 41
0.0
 71
     5
 72
     1
  1
70
 11
-4.060245089406621E-16
 21
1.0
 31
0.0
 73
     1
 44
1.0
  0
POINT
  5
382
330
379
100
AcDbEntity
  8
Defpoints
 62
     0
100
AcDbPoint
 10
-48.14244842529297
 20
63.93748474121094
 30
0.0
  0
POINT
  5
383
330
379
100
AcDbEntity
  8
Defpoints
 62
     0
100
AcDbPoint
 10
-48.14244842529297
 20
28.93749237060547
 30
0.0
  0
POINT
  5
384
330
379
100
AcDbEntity
  8
Defpoints
 62
     0
100
AcDbPoint
 10
-61.56505584716797
 20
28.93749237060546
 30
0.0
  0
ENDBLK
  5
37B
330
379
100
AcDbEntity
  8
0
100
AcDbBlockEnd
  0
BLOCK
  5
387
330
386
100
AcDbEntity
  8
0
100
AcDbBlockBegin
  2
*D16
 70
     1
 10
0.0
 20
0.0
 30
0.0
  3
*D16
  1

  0
LINE
  5
389
330
386
100
AcDbEntity
  8
0
 62
     0
370
    -2
100
AcDbLine
 10
-35.78748321533203
 20
-69.07753662109376
 30
0.0
 11
-35.78748321533203
 21
-82.24460546875
 31
0.0
  0
LINE
  5
38A
330
386
100
AcDbEntity
  8
0
 62
     0
370
    -2
100
AcDbLine
 10
7.212509155273438
 20
-69.07753662109376
 30
0.0
 11
7.212509155273439
 21
-82.24460546875
 31
0.0
  0
LINE
  5
38B
330
386
100
AcDbEntity
  8
0
 62
     0
370
    -2
100
AcDbLine
 10
-32.78748321533203
 20
-79.99457495117187
 30
0.0
 11
4.212509155273439
 21
-79.99457495117187
 31
0.0
  0
INSERT
  5
38C
330
386
100
AcDbEntity
  8
0
 62
     0
370
    -2
100
AcDbBlockReference
  2
_OPEN30
 10
-35.78748321533203
 20
-79.99457495117187
 30
0.0
 41
3.0
 42
3.0
 43
3.0
 50
180.0
  0
INSERT
  5
38D
330
386
100
AcDbEntity
  8
0
 62
     0
370
    -2
100
AcDbBlockReference
  2
_OPEN30
 10
7.212509155273439
 20
-79.99457495117187
 30
0.0
 41
3.0
 42
3.0
 43
3.0
  0
MTEXT
  5
38E
330
386
100
AcDbEntity
  8
0
 62
     1
 60
     1
100
AcDbMText
 10
-14.16752569580078
 20
-77.5801749151945
 30
0.0
 40
3.200000047683716
 41
0.0
 71
     5
 72
     1
  1
86
 73
     1
 44
1.0
  0
POINT
  5
38F
330
386
100
AcDbEntity
  8
Defpoints
 62
     0
100
AcDbPoint
 10
-35.78748321533203
 20
-66.53753662109375
 30
0.0
  0
POINT
  5
390
330
386
100
AcDbEntity
  8
Defpoints
 62
     0
100
AcDbPoint
 10
7.212509155273438
 20
-66.53753662109375
 30
0.0
  0
POINT
  5
391
330
386
100
AcDbEntity
  8
Defpoints
 62
     0
100
AcDbPoint
 10
7.212509155273436
 20
-79.99557495117188
 30
0.0
  0
MTEXT
  5
392
330
386
100
AcDbEntity
  8
0
 62
     1
100
AcDbMText
 10
-16.91012528577794
 20
-79.19078872195941
 30
0.0
 40
3.200000047683716
 41
0.0
 71
     7
 72
     1
  1
\W1;86
 11
0.9999984769132877
 21
-0.001745328365898445
 31
0.0
 73
     1
 44
1.0
  0
ENDBLK
  5
388
330
386
100
AcDbEntity
  8
0
100
AcDbBlockEnd
  0
BLOCK
  5
395
330
394
100
AcDbEntity
  8
0
100
AcDbBlockBegin
  2
*D17
 70
     1
 10
0.0
 20
0.0
 30
0.0
  3
*D17
  1

  0
LINE
  5
397
330
394
100
AcDbEntity
  8
0
 62
     0
370
    -2
100
AcDbLine
 10
45.60500335693359
 20
-24.89751907348633
 30
0.0
 11
45.60500335693359
 21
-16.27374578857422
 31
0.0
  0
LINE
  5
398
330
394
100
AcDbEntity
  8
0
 62
     0
370
    -2
100
AcDbLine
 10
55.60500335693359
 20
-24.89751907348633
 30
0.0
 11
55.60500335693359
 21
-16.27374578857422
 31
0.0
  0
LINE
  5
399
330
394
100
AcDbEntity
  8
0
 62
     0
370
    -2
100
AcDbLine
 10
48.60500335693359
 20
-18.55974578857422
 30
0.0
 11
52.60500335693359
 21
-18.55974578857422
 31
0.0
  0
INSERT
  5
39A
330
394
100
AcDbEntity
  8
0
 62
     0
370
    -2
100
AcDbBlockReference
  2
_OPEN30
 10
45.60500335693359
 20
-18.55974578857422
 30
0.0
 41
3.0
 42
3.0
 43
3.0
 50
180.0
  0
INSERT
  5
39B
330
394
100
AcDbEntity
  8
0
 62
     0
370
    -2
100
AcDbBlockReference
  2
_OPEN30
 10
55.60500335693359
 20
-18.55974578857422
 30
0.0
 41
3.0
 42
3.0
 43
3.0
  0
MTEXT
  5
39C
330
394
100
AcDbEntity
  8
0
 62
     1
100
AcDbMText
 10
50.81103189086914
 20
-16.14534575259686
 30
0.0
 40
3.200000047683716
 41
0.0
 71
     5
 72
     1
  1
20
 73
     1
 44
1.0
  0
POINT
  5
39D
330
394
100
AcDbEntity
  8
Defpoints
 62
     0
100
AcDbPoint
 10
45.60500335693359
 20
-27.43751907348633
 30
0.0
  0
POINT
  5
39E
330
394
100
AcDbEntity
  8
Defpoints
 62
     0
100
AcDbPoint
 10
55.60500335693359
 20
-27.43751907348633
 30
0.0
  0
POINT
  5
39F
330
394
100
AcDbEntity
  8
Defpoints
 62
     0
100
AcDbPoint
 10
55.60500335693359
 20
-18.55974578857422
 30
0.0
  0
ENDBLK
  5
396
330
394
100
AcDbEntity
  8
0
100
AcDbBlockEnd
  0
BLOCK
  5
3A2
330
3A1
100
AcDbEntity
  8
0
100
AcDbBlockBegin
  2
*D18
 70
     1
 10
0.0
 20
0.0
 30
0.0
  3
*D18
  1

  0
LINE
  5
3A4
330
3A1
100
AcDbEntity
  8
0
 62
     0
370
    -2
100
AcDbLine
 10
-50.18246368408203
 20
-29.1875228881836
 30
0.0
 11
-62.85291250610353
 21
-29.18752288818361
 31
0.0
  0
LINE
  5
3A5
330
3A1
100
AcDbEntity
  8
0
 62
     0
370
    -2
100
AcDbLine
 10
-38.32749847412109
 20
-66.53750610351562
 30
0.0
 11
-62.85291250610351
 21
-66.53750610351565
 31
0.0
  0
LINE
  5
3A6
330
3A1
100
AcDbEntity
  8
0
 62
     0
370
    -2
100
AcDbLine
 10
-60.56691250610353
 20
-32.18752288818361
 30
0.0
 11
-60.56691250610351
 21
-63.53750610351565
 31
0.0
  0
INSERT
  5
3A7
330
3A1
100
AcDbEntity
  8
0
 62
     0
370
    -2
100
AcDbBlockReference
  2
_OPEN30
 10
-60.56691250610353
 20
-29.1875228881836
 30
0.0
 41
3.0
 42
3.0
 43
3.0
 50
90.00000000000001
  0
INSERT
  5
3A8
330
3A1
100
AcDbEntity
  8
0
 62
     0
370
    -2
100
AcDbBlockReference
  2
_OPEN30
 10
-60.56691250610351
 20
-66.53750610351565
 30
0.0
 41
3.0
 42
3.0
 43
3.0
 50
270.0
  0
MTEXT
  5
3A9
330
3A1
100
AcDbEntity
  8
0
 62
     1
100
AcDbMText
 10
-62.98131254208089
 20
-47.86151449584961
 30
0.0
 40
3.200000047683716
 41
0.0
 71
     5
 72
     1
  1
75
 11
-3.804782088728891E-16
 21
1.0
 31
0.0
 73
     1
 44
1.0
  0
POINT
  5
3AA
330
3A1
100
AcDbEntity
  8
Defpoints
 62
     0
100
AcDbPoint
 10
-47.64246368408203
 20
-29.18752288818359
 30
0.0
  0
POINT
  5
3AB
330
3A1
100
AcDbEntity
  8
Defpoints
 62
     0
100
AcDbPoint
 10
-35.78749847412109
 20
-66.53750610351562
 30
0.0
  0
POINT
  5
3AC
330
3A1
100
AcDbEntity
  8
Defpoints
 62
     0
100
AcDbPoint
 10
-60.56891250610352
 20
-66.53750610351564
 30
0.0
  0
ENDBLK
  5
3A3
330
3A1
100
AcDbEntity
  8
0
100
AcDbBlockEnd
  0
BLOCK
  5
3AF
330
3AE
100
AcDbEntity
  8
0
100
AcDbBlockBegin
  2
*D19
 70
     1
 10
0.0
 20
0.0
 30
0.0
  3
*D19
  1

  0
LINE
  5
3B1
330
3AE
100
AcDbEntity
  8
0
 62
     0
370
    -2
100
AcDbLine
 10
15.07352355957031
 20
-41.6875114440918
 30
0.0
 11
27.87086611938476
 21
-41.68751144409179
 31
0.0
  0
LINE
  5
3B2
330
3AE
100
AcDbEntity
  8
0
 62
     0
370
    -2
100
AcDbLine
 10
9.752501525878905
 20
-66.53750610351562
 30
0.0
 11
27.87086611938478
 21
-66.53750610351561
 31
0.0
  0
LINE
  5
3B3
330
3AE
100
AcDbEntity
  8
0
 62
     0
370
    -2
100
AcDbLine
 10
25.58486611938476
 20
-44.68751144409179
 30
0.0
 11
25.58486611938477
 21
-63.53750610351561
 31
0.0
  0
INSERT
  5
3B4
330
3AE
100
AcDbEntity
  8
0
 62
     0
370
    -2
100
AcDbBlockReference
  2
_OPEN30
 10
25.58486611938476
 20
-41.68751144409179
 30
0.0
 41
3.0
 42
3.0
 43
3.0
 50
90.00000000000001
  0
INSERT
  5
3B5
330
3AE
100
AcDbEntity
  8
0
 62
     0
370
    -2
100
AcDbBlockReference
  2
_OPEN30
 10
25.58486611938477
 20
-66.53750610351561
 30
0.0
 41
3.0
 42
3.0
 43
3.0
 50
270.0
  0
MTEXT
  5
3B6
330
3AE
100
AcDbEntity
  8
0
 62
     1
100
AcDbMText
 10
23.1704660834074
 20
-54.11150877380371
 30
0.0
 40
3.200000047683716
 41
0.0
 71
     5
 72
     1
  1
50
 11
-4.288991278458740E-16
 21
1.0
 31
0.0
 73
     1
 44
1.0
  0
POINT
  5
3B7
330
3AE
100
AcDbEntity
  8
Defpoints
 62
     0
100
AcDbPoint
 10
12.53352355957031
 20
-41.6875114440918
 30
0.0
  0
POINT
  5
3B8
330
3AE
100
AcDbEntity
  8
Defpoints
 62
     0
100
AcDbPoint
 10
7.212501525878906
 20
-66.53750610351562
 30
0.0
  0
POINT
  5
3B9
330
3AE
100
AcDbEntity
  8
Defpoints
 62
     0
100
AcDbPoint
 10
25.58386611938477
 20
-66.53750610351561
 30
0.0
  0
ENDBLK
  5
3B0
330
3AE
100
AcDbEntity
  8
0
100
AcDbBlockEnd
  0
BLOCK
  5
3BC
330
3BB
100
AcDbEntity
  8
0
100
AcDbBlockBegin
  2
*D20
 70
     1
 10
0.0
 20
0.0
 30
0.0
  3
*D20
  1

  0
LINE
  5
3BE
330
3BB
100
AcDbEntity
  8
0
 62
     0
370
    -2
100
AcDbLine
 10
-47.64244842529297
 20
-25.74751373291016
 30
0.0
 11
-47.64244842529297
 21
-16.27374578857421
 31
0.0
  0
LINE
  5
3BF
330
3BB
100
AcDbEntity
  8
0
 62
     0
370
    -2
100
AcDbLine
 10
12.53353118896484
 20
-39.14753433227539
 30
0.0
 11
12.53353118896484
 21
-16.27374578857422
 31
0.0
  0
LINE
  5
3C0
330
3BB
100
AcDbEntity
  8
0
 62
     0
370
    -2
100
AcDbLine
 10
-44.64244842529297
 20
-18.55974578857422
 30
0.0
 11
9.533531188964844
 21
-18.55974578857422
 31
0.0
  0
INSERT
  5
3C1
330
3BB
100
AcDbEntity
  8
0
 62
     0
370
    -2
100
AcDbBlockReference
  2
_OPEN30
 10
-47.64244842529297
 20
-18.55974578857422
 30
0.0
 41
3.0
 42
3.0
 43
3.0
 50
180.0
  0
INSERT
  5
3C2
330
3BB
100
AcDbEntity
  8
0
 62
     0
370
    -2
100
AcDbBlockReference
  2
_OPEN30
 10
12.53353118896484
 20
-18.55974578857422
 30
0.0
 41
3.0
 42
3.0
 43
3.0
 50
360.0
  0
MTEXT
  5
3C3
330
3BB
100
AcDbEntity
  8
0
 62
     1
100
AcDbMText
 10
-17.55345861816406
 20
-16.14534575259686
 30
0.0
 40
3.200000047683716
 41
0.0
 71
     5
 72
     1
  1
120
 73
     1
 44
1.0
  0
POINT
  5
3C4
330
3BB
100
AcDbEntity
  8
Defpoints
 62
     0
100
AcDbPoint
 10
-47.64244842529297
 20
-28.28751373291016
 30
0.0
  0
POINT
  5
3C5
330
3BB
100
AcDbEntity
  8
Defpoints
 62
     0
100
AcDbPoint
 10
12.53353118896484
 20
-41.68753433227539
 30
0.0
  0
POINT
  5
3C6
330
3BB
100
AcDbEntity
  8
Defpoints
 62
     0
100
AcDbPoint
 10
12.53353118896485
 20
-18.55974578857422
 30
0.0
  0
ENDBLK
  5
3BD
330
3BB
100
AcDbEntity
  8
0
100
AcDbBlockEnd
  0
BLOCK
  5
3C9
330
3C8
100
AcDbEntity
  8
0
100
AcDbBlockBegin
  2
*D21
 70
     1
 10
0.0
 20
0.0
 30
0.0
  3
*D21
  1

  0
LINE
  5
3CB
330
3C8
100
AcDbEntity
  8
0
 62
     0
370
    -2
100
AcDbLine
 10
80.6050033569336
 20
-24.89751907348633
 30
0.0
 11
80.6050033569336
 21
-16.27374578857422
 31
0.0
  0
LINE
  5
3CC
330
3C8
100
AcDbEntity
  8
0
 62
     0
370
    -2
100
AcDbLine
 10
70.6050033569336
 20
-24.89751907348633
 30
0.0
 11
70.6050033569336
 21
-16.27374578857422
 31
0.0
  0
LINE
  5
3CD
330
3C8
100
AcDbEntity
  8
0
 62
     0
370
    -2
100
AcDbLine
 10
77.6050033569336
 20
-18.55974578857422
 30
0.0
 11
73.6050033569336
 21
-18.55974578857422
 31
0.0
  0
INSERT
  5
3CE
330
3C8
100
AcDbEntity
  8
0
 62
     0
370
    -2
100
AcDbBlockReference
  2
_OPEN30
 10
80.6050033569336
 20
-18.55974578857422
 30
0.0
 41
3.0
 42
3.0
 43
3.0
  0
INSERT
  5
3CF
330
3C8
100
AcDbEntity
  8
0
 62
     0
370
    -2
100
AcDbBlockReference
  2
_OPEN30
 10
70.6050033569336
 20
-18.55974578857422
 30
0.0
 41
3.0
 42
3.0
 43
3.0
 50
180.0
  0
MTEXT
  5
3D0
330
3C8
100
AcDbEntity
  8
0
 62
     1
100
AcDbMText
 10
75.40197482299806
 20
-16.14534575259686
 30
0.0
 40
3.200000047683716
 41
0.0
 71
     5
 72
     1
  1
20
 73
     1
 44
1.0
  0
POINT
  5
3D1
330
3C8
100
AcDbEntity
  8
Defpoints
 62
     0
100
AcDbPoint
 10
80.6050033569336
 20
-27.43751907348633
 30
0.0
  0
POINT
  5
3D2
330
3C8
100
AcDbEntity
  8
Defpoints
 62
     0
100
AcDbPoint
 10
70.6050033569336
 20
-27.43751907348633
 30
0.0
  0
POINT
  5
3D3
330
3C8
100
AcDbEntity
  8
Defpoints
 62
     0
100
AcDbPoint
 10
70.6050033569336
 20
-18.55974578857422
 30
0.0
  0
ENDBLK
  5
3CA
330
3C8
100
AcDbEntity
  8
0
100
AcDbBlockEnd
  0
ENDSEC
  0
SECTION
  2
ENTITIES
  0
LINE
  5
27D
330
1F
100
AcDbEntity
  8
0
  6
Continuous
 62
     7
100
AcDbLine
 10
-48.14244842529297
 20
28.93749237060547
 30
0.0
 11
13.03353118896484
 21
28.93749237060547
 31
0.0
  0
LINE
  5
27E
330
1F
100
AcDbEntity
  8
0
  6
Continuous
 62
     7
100
AcDbLine
 10
-48.54242706298828
 20
46.4375
 30
0.0
 11
-48.54242706298828
 21
31.4375
 31
0.0
  0
LINE
  5
27F
330
1F
100
AcDbEntity
  8
0
  6
Continuous
 62
     7
100
AcDbLine
 10
-41.26741790771484
 20
38.9375
 30
0.0
 11
-41.26741790771484
 21
28.9375
 31
0.0
  0
LINE
  5
280
330
1F
100
AcDbEntity
  8
0
  6
Continuous
 62
     7
100
AcDbLine
 10
-45.89243316650391
 20
38.9375
 30
0.0
 11
-45.89243316650391
 21
28.9375
 31
0.0
  0
LINE
  5
281
330
1F
100
AcDbEntity
  8
0
  6
Continuous
 62
     7
100
AcDbLine
 10
-46.14244842529297
 20
38.93747711181641
 30
0.0
 11
-41.26743316650391
 21
38.93747711181641
 31
0.0
  0
LINE
  5
282
330
1F
100
AcDbEntity
  8
0
  6
Continuous
 62
     7
100
AcDbLine
 10
-47.14240264892578
 20
46.4375
 30
0.0
 11
-47.14240264892578
 21
39.9375
 31
0.0
  0
LINE
  5
283
330
1F
100
AcDbEntity
  8
0
  6
Continuous
 62
     7
100
AcDbLine
 10
-48.54239773575627
 20
31.43751039691911
 30
0.0
 11
-48.14240341692169
 21
28.93750793222928
 31
0.0
  0
LINE
  5
284
330
1F
100
AcDbEntity
  8
0
  6
Continuous
 62
     7
100
AcDbLine
 10
7.783546447753906
 20
38.9375
 30
0.0
 11
7.783546447753906
 21
28.9375
 31
0.0
  0
LINE
  5
285
330
1F
100
AcDbEntity
  8
0
  6
Continuous
 62
     7
100
AcDbLine
 10
11.01840209960938
 20
38.9375
 30
0.0
 11
11.01840209960938
 21
28.9375
 31
0.0
  0
LINE
  5
286
330
1F
100
AcDbEntity
  8
0
  6
Continuous
 62
     7
100
AcDbLine
 10
13.43356323242188
 20
46.4375
 30
0.0
 11
13.43356323242188
 21
31.4375
 31
0.0
  0
LINE
  5
287
330
1F
100
AcDbEntity
  8
0
  6
Continuous
 62
     7
100
AcDbLine
 10
12.03356170654297
 20
46.4375
 30
0.0
 11
12.03356170654297
 21
39.9375
 31
0.0
  0
LINE
  5
288
330
1F
100
AcDbEntity
  8
0
  6
Continuous
 62
     7
100
AcDbLine
 10
7.783531188964844
 20
38.93747711181641
 30
0.0
 11
11.01837921142578
 21
38.93747711181641
 31
0.0
  0
LINE
  5
289
330
1F
100
AcDbEntity
  8
0
  6
Continuous
 62
     7
100
AcDbLine
 10
8.883552551269531
 20
45.9375
 30
0.0
 11
8.883552551269531
 21
38.9375
 31
0.0
  0
LINE
  5
28A
330
1F
100
AcDbEntity
  8
0
  6
Continuous
 62
     7
100
AcDbLine
 10
7.277442932128906
 20
46.4375
 30
0.0
 11
7.277442932128906
 21
44.4375
 31
0.0
  0
LINE
  5
28B
330
1F
100
AcDbEntity
  8
0
  6
Continuous
 62
     7
100
AcDbLine
 10
-42.26120758056641
 20
45.93748474121094
 30
0.0
 11
-40.00260162353516
 21
45.93748474121094
 31
0.0
  0
LINE
  5
28C
330
1F
100
AcDbEntity
  8
0
  6
Continuous
 62
     7
100
AcDbLine
 10
-24.28748321533203
 20
44.43748474121094
 30
0.0
 11
-16.28749847412109
 21
44.43748474121094
 31
0.0
  0
LINE
  5
28D
330
1F
100
AcDbEntity
  8
0
  6
Continuous
 62
     7
100
AcDbLine
 10
7.577406319065337
 20
44.4375125609474
 30
0.0
 11
8.08046282262168
 21
45.93750399220668
 31
0.0
  0
LINE
  5
28E
330
1F
100
AcDbEntity
  8
0
  6
Continuous
 62
     7
100
AcDbLine
 10
8.080482482910156
 20
45.93748474121094
 30
0.0
 11
8.883537292480469
 21
45.93748474121094
 31
0.0
  0
LINE
  5
28F
330
1F
100
AcDbEntity
  8
0
  6
Continuous
 62
     7
100
AcDbLine
 10
-15.7874755859375
 20
46.4375
 30
0.0
 11
-15.7874755859375
 21
44.9375
 31
0.0
  0
LINE
  5
290
330
1F
100
AcDbEntity
  8
0
  6
Continuous
 62
     7
100
AcDbLine
 10
-24.7874755859375
 20
46.4375
 30
0.0
 11
-24.7874755859375
 21
44.9375
 31
0.0
  0
LINE
  5
291
330
1F
100
AcDbEntity
  8
0
  6
Continuous
 62
     7
100
AcDbLine
 10
-5.787490844726562
 20
46.4375
 30
0.0
 11
-5.787490844726562
 21
44.9375
 31
0.0
  0
LINE
  5
292
330
1F
100
AcDbEntity
  8
0
  6
Continuous
 62
     7
100
AcDbLine
 10
-5.287483215332031
 20
44.43748474121094
 30
0.0
 11
7.577415466308594
 21
44.43748474121094
 31
0.0
  0
LINE
  5
293
330
1F
100
AcDbEntity
  8
0
  6
Continuous
 62
     7
100
AcDbLine
 10
-15.78748321533203
 20
45.93748474121094
 30
0.0
 11
-5.787498474121094
 21
45.93748474121094
 31
0.0
  0
LINE
  5
294
330
1F
100
AcDbEntity
  8
0
  6
Continuous
 62
     7
100
AcDbLine
 10
-30.28748321533203
 20
46.4375
 30
0.0
 11
-30.28748321533203
 21
45.43750762939453
 31
0.0
  0
LINE
  5
295
330
1F
100
AcDbEntity
  8
0
  6
Continuous
 62
     7
100
AcDbLine
 10
-35.87851715087891
 20
46.4375
 30
0.0
 11
-35.87851715087891
 21
44.4375
 31
0.0
  0
LINE
  5
296
330
1F
100
AcDbEntity
  8
0
  6
Continuous
 62
     7
100
AcDbLine
 10
-36.17852020263672
 20
44.43748474121094
 30
0.0
 11
-31.28749847412109
 21
44.43748474121094
 31
0.0
  0
LINE
  5
297
330
1F
100
AcDbEntity
  8
0
  6
Continuous
 62
     7
100
AcDbLine
 10
-36.17860677830039
 20
44.43746638680341
 30
0.0
 11
-36.6360009562869
 21
45.93745551285232
 31
0.0
  0
LINE
  5
298
330
1F
100
AcDbEntity
  8
0
  6
Continuous
 62
     7
100
AcDbLine
 10
-30.28748321533203
 20
45.93748474121094
 30
0.0
 11
-24.75435638427734
 21
45.93748474121094
 31
0.0
  0
LINE
  5
299
330
1F
100
AcDbEntity
  8
0
  6
Continuous
 62
     7
100
AcDbLine
 10
-30.28748321533203
 20
43.72343444824219
 30
0.0
 11
-30.28748321533203
 21
28.9375
 31
0.0
  0
LINE
  5
29A
330
1F
100
AcDbEntity
  8
0
  6
Continuous
 62
     7
100
AcDbLine
 10
-37.55023956298828
 20
45.9375
 30
0.0
 11
-37.55023956298828
 21
28.9375
 31
0.0
  0
LINE
  5
29B
330
1F
100
AcDbEntity
  8
0
  6
Continuous
 62
     7
100
AcDbLine
 10
-41.66187286376953
 20
45.9375
 30
0.0
 11
-41.66187286376953
 21
38.9375
 31
0.0
  0
LINE
  5
29C
330
1F
100
AcDbEntity
  8
0
  6
Continuous
 62
     7
100
AcDbLine
 10
-39.19954681396484
 20
46.4375
 30
0.0
 11
-39.19954681396484
 21
44.4375
 31
0.0
  0
LINE
  5
29D
330
1F
100
AcDbEntity
  8
0
  6
Continuous
 62
     7
100
AcDbLine
 10
-38.84299468994141
 20
46.4375
 30
0.0
 11
-38.84299468994141
 21
44.4375
 31
0.0
  0
LINE
  5
29E
330
1F
100
AcDbEntity
  8
0
  6
Continuous
 62
     7
100
AcDbLine
 10
-42.26117706298828
 20
46.4375
 30
0.0
 11
-42.26117706298828
 21
45.9375
 31
0.0
  0
LINE
  5
29F
330
1F
100
AcDbEntity
  8
0
  6
Continuous
 62
     7
100
AcDbLine
 10
-39.49954986572266
 20
44.43748474121094
 30
0.0
 11
-38.84299468994141
 21
44.43748474121094
 31
0.0
  0
LINE
  5
2A0
330
1F
100
AcDbEntity
  8
0
  6
Continuous
 62
     7
100
AcDbLine
 10
-38.84299468994141
 20
45.93748474121094
 30
0.0
 11
-36.63591766357422
 21
45.93748474121094
 31
0.0
  0
LINE
  5
2A1
330
1F
100
AcDbEntity
  8
0
  6
Continuous
 62
     7
100
AcDbLine
 10
-40.00259620239288
 20
45.93751580274121
 30
0.0
 11
-39.49953242113586
 21
44.43750267115887
 31
0.0
  0
LINE
  5
2A2
330
1F
100
AcDbEntity
  8
0
  6
Continuous
 62
     7
100
AcDbLine
 10
-42.39241790771484
 20
46.4375
 30
0.0
 11
-42.39241790771484
 21
38.9375
 31
0.0
  0
LINE
  5
2A3
330
1F
100
AcDbEntity
  8
0
  6
Continuous
 62
     7
100
AcDbLine
 10
11.01837921142578
 20
31.43748474121094
 30
0.0
 11
13.43354034423828
 21
31.43748474121094
 31
0.0
  0
LINE
  5
2A4
330
1F
100
AcDbEntity
  8
0
  6
Continuous
 62
     7
100
AcDbLine
 10
13.43356990927716
 20
31.43749277054988
 30
0.0
 11
13.03356819223176
 21
28.93749148956704
 31
0.0
  0
LINE
  5
2A5
330
1F
100
AcDbEntity
  8
0
  6
Continuous
 62
     7
100
AcDbLine
 10
-48.54244232177734
 20
31.43746185302734
 30
0.0
 11
-45.89244842529297
 21
31.43746185302734
 31
0.0
  0
LINE
  5
2A6
330
1F
100
AcDbEntity
  8
0
  6
Continuous
 62
     7
100
AcDbLine
 10
-48.14244842529297
 20
63.93748474121094
 30
0.0
 11
13.03353118896484
 21
63.93748474121094
 31
0.0
  0
LINE
  5
2A7
330
1F
100
AcDbEntity
  8
0
  6
Continuous
 62
     7
100
AcDbLine
 10
-48.54242706298828
 20
46.4375
 30
0.0
 11
-48.54242706298828
 21
61.4375
 31
0.0
  0
LINE
  5
2A8
330
1F
100
AcDbEntity
  8
0
  6
Continuous
 62
     7
100
AcDbLine
 10
-41.26741790771484
 20
53.9375
 30
0.0
 11
-41.26741790771484
 21
63.93751525878906
 31
0.0
  0
LINE
  5
2A9
330
1F
100
AcDbEntity
  8
0
  6
Continuous
 62
     7
100
AcDbLine
 10
-45.89243316650391
 20
53.9375
 30
0.0
 11
-45.89243316650391
 21
63.93751525878906
 31
0.0
  0
LINE
  5
2AA
330
1F
100
AcDbEntity
  8
0
  6
Continuous
 62
     7
100
AcDbLine
 10
-46.14244842529297
 20
53.93746948242188
 30
0.0
 11
-41.26743316650391
 21
53.93746948242188
 31
0.0
  0
LINE
  5
2AB
330
1F
100
AcDbEntity
  8
0
  6
Continuous
 62
     7
100
AcDbLine
 10
-47.14240264892578
 20
46.4375
 30
0.0
 11
-47.14240264892578
 21
52.93751525878906
 31
0.0
  0
LINE
  5
2AC
330
1F
100
AcDbEntity
  8
0
  6
Continuous
 62
     7
100
AcDbLine
 10
-48.54233484615207
 20
61.43748764566185
 30
0.0
 11
-48.14233932196348
 21
63.93749764392868
 31
0.0
  0
LINE
  5
2AD
330
1F
100
AcDbEntity
  8
0
  6
Continuous
 62
     7
100
AcDbLine
 10
7.783546447753906
 20
53.9375
 30
0.0
 11
7.783546447753906
 21
63.93751525878906
 31
0.0
  0
LINE
  5
2AE
330
1F
100
AcDbEntity
  8
0
  6
Continuous
 62
     7
100
AcDbLine
 10
11.01840209960938
 20
53.9375
 30
0.0
 11
11.01840209960938
 21
63.93751525878906
 31
0.0
  0
LINE
  5
2AF
330
1F
100
AcDbEntity
  8
0
  6
Continuous
 62
     7
100
AcDbLine
 10
13.43356323242188
 20
46.4375
 30
0.0
 11
13.43356323242188
 21
61.4375
 31
0.0
  0
LINE
  5
2B0
330
1F
100
AcDbEntity
  8
0
  6
Continuous
 62
     7
100
AcDbLine
 10
12.03356170654297
 20
46.4375
 30
0.0
 11
12.03356170654297
 21
52.93751525878906
 31
0.0
  0
LINE
  5
2B1
330
1F
100
AcDbEntity
  8
0
  6
Continuous
 62
     7
100
AcDbLine
 10
7.783531188964844
 20
53.93746948242188
 30
0.0
 11
11.01837921142578
 21
53.93746948242188
 31
0.0
  0
LINE
  5
2B2
330
1F
100
AcDbEntity
  8
0
  6
Continuous
 62
     7
100
AcDbLine
 10
8.883552551269531
 20
46.93750762939453
 30
0.0
 11
8.883552551269531
 21
53.9375
 31
0.0
  0
LINE
  5
2B3
330
1F
100
AcDbEntity
  8
0
  6
Continuous
 62
     7
100
AcDbLine
 10
7.277442932128906
 20
46.4375
 30
0.0
 11
7.277442932128906
 21
48.43750762939453
 31
0.0
  0
LINE
  5
2B4
330
1F
100
AcDbEntity
  8
0
  6
Continuous
 62
     7
100
AcDbLine
 10
-42.26120758056641
 20
46.93749237060547
 30
0.0
 11
-40.00260162353516
 21
46.93749237060547
 31
0.0
  0
LINE
  5
2B5
330
1F
100
AcDbEntity
  8
0
  6
Continuous
 62
     7
100
AcDbLine
 10
-24.28748321533203
 20
48.43749237060547
 30
0.0
 11
-16.28749847412109
 21
48.43749237060547
 31
0.0
  0
LINE
  5
2B6
330
1F
100
AcDbEntity
  8
0
  6
Continuous
 62
     7
100
AcDbLine
 10
7.5773962814539
 20
48.43751335825021
 30
0.0
 11
8.080455210910468
 21
46.93751469354991
 31
0.0
  0
LINE
  5
2B7
330
1F
100
AcDbEntity
  8
0
  6
Continuous
 62
     7
100
AcDbLine
 10
8.080482482910156
 20
46.93749237060547
 30
0.0
 11
8.883537292480469
 21
46.93749237060547
 31
0.0
  0
LINE
  5
2B8
330
1F
100
AcDbEntity
  8
0
  6
Continuous
 62
     7
100
AcDbLine
 10
-15.7874755859375
 20
46.4375
 30
0.0
 11
-15.7874755859375
 21
47.9375
 31
0.0
  0
LINE
  5
2B9
330
1F
100
AcDbEntity
  8
0
  6
Continuous
 62
     7
100
AcDbLine
 10
-24.7874755859375
 20
46.4375
 30
0.0
 11
-24.7874755859375
 21
47.9375
 31
0.0
  0
LINE
  5
2BA
330
1F
100
AcDbEntity
  8
0
  6
Continuous
 62
     7
100
AcDbLine
 10
-5.787490844726562
 20
46.4375
 30
0.0
 11
-5.787490844726562
 21
47.9375
 31
0.0
  0
LINE
  5
2BB
330
1F
100
AcDbEntity
  8
0
  6
Continuous
 62
     7
100
AcDbLine
 10
-5.287483215332031
 20
48.43749237060547
 30
0.0
 11
7.577415466308594
 21
48.43749237060547
 31
0.0
  0
LINE
  5
2BC
330
1F
100
AcDbEntity
  8
0
  6
Continuous
 62
     7
100
AcDbLine
 10
-15.78748321533203
 20
46.93749237060547
 30
0.0
 11
-5.787498474121094
 21
46.93749237060547
 31
0.0
  0
LINE
  5
2BD
330
1F
100
AcDbEntity
  8
0
  6
Continuous
 62
     7
100
AcDbLine
 10
-30.28748321533203
 20
46.4375
 30
0.0
 11
-30.28748321533203
 21
47.4375
 31
0.0
  0
LINE
  5
2BE
330
1F
100
AcDbEntity
  8
0
  6
Continuous
 62
     7
100
AcDbLine
 10
-35.87851715087891
 20
46.4375
 30
0.0
 11
-35.87851715087891
 21
48.43750762939453
 31
0.0
  0
LINE
  5
2BF
330
1F
100
AcDbEntity
  8
0
  6
Continuous
 62
     7
100
AcDbLine
 10
-36.17852020263672
 20
48.43749237060547
 30
0.0
 11
-31.28749847412109
 21
48.43749237060547
 31
0.0
  0
LINE
  5
2C0
330
1F
100
AcDbEntity
  8
0
  6
Continuous
 62
     7
100
AcDbLine
 10
-36.17865560836871
 20
48.43756163441238
 30
0.0
 11
-36.63605423692714
 21
46.93755791305418
 31
0.0
  0
LINE
  5
2C1
330
1F
100
AcDbEntity
  8
0
  6
Continuous
 62
     7
100
AcDbLine
 10
-30.28748321533203
 20
46.93749237060547
 30
0.0
 11
-24.75435638427734
 21
46.93749237060547
 31
0.0
  0
LINE
  5
2C2
330
1F
100
AcDbEntity
  8
0
  6
Continuous
 62
     7
100
AcDbLine
 10
-30.28748321533203
 20
49.15157318115234
 30
0.0
 11
-30.28748321533203
 21
63.93751525878906
 31
0.0
  0
LINE
  5
2C3
330
1F
100
AcDbEntity
  8
0
  6
Continuous
 62
     7
100
AcDbLine
 10
-37.55023956298828
 20
46.93750762939453
 30
0.0
 11
-37.55023956298828
 21
63.93751525878906
 31
0.0
  0
LINE
  5
2C4
330
1F
100
AcDbEntity
  8
0
  6
Continuous
 62
     7
100
AcDbLine
 10
-41.66187286376953
 20
46.93750762939453
 30
0.0
 11
-41.66187286376953
 21
53.9375
 31
0.0
  0
LINE
  5
2C5
330
1F
100
AcDbEntity
  8
0
  6
Continuous
 62
     7
100
AcDbLine
 10
-39.19954681396484
 20
46.4375
 30
0.0
 11
-39.19954681396484
 21
48.43750762939453
 31
0.0
  0
LINE
  5
2C6
330
1F
100
AcDbEntity
  8
0
  6
Continuous
 62
     7
100
AcDbLine
 10
-38.84299468994141
 20
46.4375
 30
0.0
 11
-38.84299468994141
 21
48.43750762939453
 31
0.0
  0
LINE
  5
2C7
330
1F
100
AcDbEntity
  8
0
  6
Continuous
 62
     7
100
AcDbLine
 10
-42.26117706298828
 20
46.4375
 30
0.0
 11
-42.26117706298828
 21
46.93750762939453
 31
0.0
  0
LINE
  5
2C8
330
1F
100
AcDbEntity
  8
0
  6
Continuous
 62
     7
100
AcDbLine
 10
-39.49954986572266
 20
48.43749237060547
 30
0.0
 11
-38.84299468994141
 21
48.43749237060547
 31
0.0
  0
LINE
  5
2C9
330
1F
100
AcDbEntity
  8
0
  6
Continuous
 62
     7
100
AcDbLine
 10
-38.84299468994141
 20
46.93749237060547
 30
0.0
 11
-36.63591766357422
 21
46.93749237060547
 31
0.0
  0
LINE
  5
2CA
330
1F
100
AcDbEntity
  8
0
  6
Continuous
 62
     7
100
AcDbLine
 10
-40.00256283261294
 20
46.93748820918999
 30
0.0
 11
-39.49950087078109
 21
48.43749591569157
 31
0.0
  0
LINE
  5
2CB
330
1F
100
AcDbEntity
  8
0
  6
Continuous
 62
     7
100
AcDbLine
 10
-42.39241790771484
 20
46.4375
 30
0.0
 11
-42.39241790771484
 21
53.9375
 31
0.0
  0
LINE
  5
2CC
330
1F
100
AcDbEntity
  8
0
  6
Continuous
 62
     7
100
AcDbLine
 10
11.01837921142578
 20
61.43746948242188
 30
0.0
 11
13.43354034423828
 21
61.43746948242188
 31
0.0
  0
LINE
  5
2CD
330
1F
100
AcDbEntity
  8
0
  6
Continuous
 62
     7
100
AcDbLine
 10
13.43356636570932
 20
61.43749306724524
 30
0.0
 11
13.03356464866391
 21
63.93749434822809
 31
0.0
  0
LINE
  5
2CE
330
1F
100
AcDbEntity
  8
0
  6
Continuous
 62
     7
100
AcDbLine
 10
-48.54244232177734
 20
61.4375
 30
0.0
 11
-45.89244842529297
 21
61.4375
 31
0.0
  0
LINE
  5
2CF
330
1F
100
AcDbEntity
  8
0
  6
Continuous
 62
     7
100
AcDbLine
 10
-47.64246368408203
 20
-29.18752288818359
 30
0.0
 11
-42.39244842529297
 21
-29.18752288818359
 31
0.0
  0
LINE
  5
2D0
330
1F
100
AcDbEntity
  8
0
  6
Continuous
 62
     7
100
AcDbLine
 10
-35.78749847412109
 20
-66.53750610351562
 30
0.0
 11
-30.00732421875
 21
-66.53750610351562
 31
0.0
  0
LINE
  5
2D1
330
1F
100
AcDbEntity
  8
0
  6
Continuous
 62
     7
100
AcDbLine
 10
8.883517251854766
 20
-47.43744791919367
 30
0.0
 11
7.531942792535099
 21
-62.88607415412953
 31
0.0
  0
LINE
  5
2D2
330
1F
100
AcDbEntity
  8
0
  6
Continuous
 62
     7
100
AcDbLine
 10
7.277412414550781
 20
-47.43750381469727
 30
0.0
 11
12.53352355957031
 21
-47.43750381469727
 31
0.0
  0
LINE
  5
2D3
330
1F
100
AcDbEntity
  8
0
  6
Continuous
 62
     7
100
AcDbLine
 10
8.533515930175781
 20
-41.6875114440918
 30
0.0
 11
12.53352355957031
 21
-41.6875114440918
 31
0.0
  0
LINE
  5
2D4
330
1F
100
AcDbEntity
  8
0
  6
Continuous
 62
     7
100
AcDbLine
 10
12.53353118896484
 20
-41.68753433227539
 30
0.0
 11
12.53353118896484
 21
-47.43752670288086
 31
0.0
  0
LINE
  5
2D5
330
1F
100
AcDbEntity
  8
0
  6
Continuous
 62
     7
100
AcDbLine
 10
8.533531188964844
 20
-41.68753433227539
 30
0.0
 11
8.533531188964844
 21
-42.15578079223633
 31
0.0
  0
LINE
  5
2D6
330
1F
100
AcDbEntity
  8
0
  6
Continuous
 62
     7
100
AcDbLine
 10
8.783523559570312
 20
-40.1875114440918
 30
0.0
 11
10.28352355957031
 21
-40.1875114440918
 31
0.0
  0
LINE
  5
2D7
330
1F
100
AcDbEntity
  8
0
  6
Continuous
 62
     7
100
AcDbLine
 10
13.43354034423828
 20
-41.68753433227539
 30
0.0
 11
13.43354034423828
 21
-47.43752670288086
 31
0.0
  0
LINE
  5
2D8
330
1F
100
AcDbEntity
  8
0
  6
Continuous
 62
     7
100
AcDbLine
 10
10.61167144775391
 20
-48.3375129699707
 30
0.0
 11
12.53352355957031
 21
-48.3375129699707
 31
0.0
  0
LINE
  5
2D9
330
1F
100
AcDbEntity
  8
0
  6
Continuous
 62
     7
100
AcDbLine
 10
9.34961535329754
 20
-52.43758085320876
 30
0.0
 11
8.428620748267047
 21
-62.96463788613789
 31
0.0
  0
LINE
  5
2DA
330
1F
100
AcDbEntity
  8
0
  6
Continuous
 62
     7
100
AcDbLine
 10
10.61170958268219
 20
-48.33759591801002
 30
0.0
 11
10.25300740763835
 21
-52.43759632398108
 31
0.0
  0
LINE
  5
2DB
330
1F
100
AcDbEntity
  8
0
  6
Continuous
 62
     7
100
AcDbLine
 10
9.349525451660156
 20
-52.43751907348633
 30
0.0
 11
10.25296783447266
 21
-52.43751907348633
 31
0.0
  0
LINE
  5
2DC
330
1F
100
AcDbEntity
  8
0
  6
Continuous
 62
     7
100
AcDbLine
 10
-30.28748321533203
 20
-62.78753280639648
 30
0.0
 11
-30.28748321533203
 21
-65.53752136230469
 31
0.0
  0
LINE
  5
2DD
330
1F
100
AcDbEntity
  8
0
  6
Continuous
 62
     7
100
AcDbLine
 10
-37.55002761371401
 20
-46.38925557311322
 30
0.0
 11
-36.6164136611416
 21
-57.0604756969883
 31
0.0
  0
LINE
  5
2DE
330
1F
100
AcDbEntity
  8
0
  6
Continuous
 62
     7
100
AcDbLine
 10
-30.63947296142578
 20
-62.53752517700195
 30
0.0
 11
-30.53750610351562
 21
-62.53752517700195
 31
0.0
  0
LINE
  5
2DF
330
1F
100
AcDbEntity
  8
0
  6
Continuous
 62
     7
100
AcDbLine
 10
-29.28749084472656
 20
-67.43751525878906
 30
0.0
 11
3.547164916992188
 21
-67.43751525878906
 31
0.0
  0
LINE
  5
2E0
330
1F
100
AcDbEntity
  8
0
  6
Continuous
 62
     7
100
AcDbLine
 10
-31.18749237060547
 20
-63.41574478149414
 30
0.0
 11
-31.18749237060547
 21
-65.53752136230469
 31
0.0
  0
LINE
  5
2E1
330
1F
100
AcDbEntity
  8
0
  6
Continuous
 62
     7
100
AcDbLine
 10
-42.37236989183701
 20
-37.16574207763072
 30
0.0
 11
-41.66180136952854
 21
-45.28754991239758
 31
0.0
  0
LINE
  5
2E2
330
1F
100
AcDbEntity
  8
0
  6
Continuous
 62
     7
100
AcDbLine
 10
-41.66187619541843
 20
-45.28744479972433
 30
0.0
 11
-37.55022104543126
 21
-46.38915935909315
 31
0.0
  0
LINE
  5
2E3
330
1F
100
AcDbEntity
  8
0
  6
Continuous
 62
     7
100
AcDbLine
 10
-47.49245452880859
 20
-36.93750762939453
 30
0.0
 11
-42.62152862548828
 21
-36.93750762939453
 31
0.0
  0
LINE
  5
2E4
330
1F
100
AcDbEntity
  8
0
  6
Continuous
 62
     7
100
AcDbLine
 10
-47.64244842529297
 20
-29.18754577636719
 30
0.0
 11
-47.64244842529297
 21
-36.78753662109375
 31
0.0
  0
LINE
  5
2E5
330
1F
100
AcDbEntity
  8
0
  6
Continuous
 62
     7
100
AcDbLine
 10
-42.39244842529297
 20
-29.18754577636719
 30
0.0
 11
-42.39244842529297
 21
-29.68753051757812
 31
0.0
  0
LINE
  5
2E6
330
1F
100
AcDbEntity
  8
0
  6
Continuous
 62
     7
100
AcDbLine
 10
-45.04245758056641
 20
-27.43751525878906
 30
0.0
 11
-42.39244842529297
 21
-27.43751525878906
 31
0.0
  0
LINE
  5
2E7
330
1F
100
AcDbEntity
  8
0
  6
Continuous
 62
     7
100
AcDbLine
 10
-48.54242706298828
 20
-29.18754577636719
 30
0.0
 11
-48.54242706298828
 21
-36.93753051757812
 31
0.0
  0
LINE
  5
2E8
330
1F
100
AcDbEntity
  8
0
  6
Continuous
 62
     7
100
AcDbLine
 10
-47.64246368408203
 20
-28.28751373291016
 30
0.0
 11
-45.89244842529297
 21
-28.28751373291016
 31
0.0
  0
LINE
  5
2E9
330
1F
100
AcDbEntity
  8
0
  6
Continuous
 62
     7
100
AcDbLine
 10
-47.64246368408203
 20
-37.8375129699707
 30
0.0
 11
-43.21715545654297
 21
-37.8375129699707
 31
0.0
  0
LINE
  5
2EA
330
1F
100
AcDbEntity
  8
0
  6
Continuous
 62
     7
100
AcDbLine
 10
-43.21702454834178
 20
-37.83756505504559
 30
0.0
 11
-42.51870037454071
 21
-45.819419820521
 31
0.0
  0
LINE
  5
2EB
330
1F
100
AcDbEntity
  8
0
  6
Continuous
 62
     7
100
AcDbLine
 10
-38.39178244635477
 20
-47.09544909723959
 30
0.0
 11
-37.51309417821993
 21
-57.13886790401477
 31
0.0
  0
LINE
  5
2EC
330
1F
100
AcDbEntity
  8
0
  6
Continuous
 62
     7
100
AcDbLine
 10
-42.33445418250557
 20
-46.03895847956376
 30
0.0
 11
-38.39188321767526
 21
-47.09536707290406
 31
0.0
  0
LINE
  5
2ED
330
1F
100
AcDbEntity
  8
0
  6
Continuous
 62
     7
100
AcDbLine
 10
-42.26122283935547
 20
-38.43750381469727
 30
0.0
 11
-39.19956207275391
 21
-38.43750381469727
 31
0.0
  0
LINE
  5
2EE
330
1F
100
AcDbEntity
  8
0
  6
Continuous
 62
     7
100
AcDbLine
 10
-39.10700225830078
 20
-42.4375114440918
 30
0.0
 11
-38.84960174560547
 21
-42.4375114440918
 31
0.0
  0
LINE
  5
2EF
330
1F
100
AcDbEntity
  8
0
  6
Continuous
 62
     7
100
AcDbLine
 10
-39.95487592462142
 20
-38.98113133494653
 30
0.0
 11
-39.69241039483734
 21
-41.98111589552238
 31
0.0
  0
LINE
  5
2F0
330
1F
100
AcDbEntity
  8
0
  6
Continuous
 62
     7
100
AcDbLine
 10
-39.19942490287075
 20
-38.437497246085
 30
0.0
 11
-38.84946953326306
 21
-42.43749186091051
 31
0.0
  0
LINE
  5
2F1
330
1F
100
AcDbEntity
  8
0
  6
Continuous
 62
     7
100
AcDbLine
 10
-39.42329864153756
 20
-45.05908912754055
 30
0.0
 11
-36.80214003900136
 21
-45.76142638333837
 31
0.0
  0
LINE
  5
2F2
330
1F
100
AcDbEntity
  8
0
  6
Continuous
 62
     7
100
AcDbLine
 10
-36.80189690233785
 20
-45.76151255156343
 30
0.0
 11
-36.72128927208586
 21
-46.68285885718885
 31
0.0
  0
LINE
  5
2F3
330
1F
100
AcDbEntity
  8
0
  6
Continuous
 62
     7
100
AcDbLine
 10
-35.87831601421949
 20
-47.1392549638724
 30
0.0
 11
-35.02252090089004
 21
-56.92100470112977
 31
0.0
  0
LINE
  5
2F4
330
1F
100
AcDbEntity
  8
0
  6
Continuous
 62
     7
100
AcDbLine
 10
-36.13591766357422
 20
-47.13922500610352
 30
0.0
 11
-35.87850189208984
 21
-47.13922500610352
 31
0.0
  0
LINE
  5
2F5
330
1F
100
AcDbEntity
  8
0
  6
Continuous
 62
     7
100
AcDbLine
 10
-30.28748321533203
 20
-60.92342758178711
 30
0.0
 11
-30.28748321533203
 21
-61.23518753051758
 31
0.0
  0
LINE
  5
2F6
330
1F
100
AcDbEntity
  8
0
  6
Continuous
 62
     7
100
AcDbLine
 10
-30.99142456054688
 20
-60.92340469360352
 30
0.0
 11
-30.28749847412109
 21
-60.92340469360352
 31
0.0
  0
LINE
  5
2F7
330
1F
100
AcDbEntity
  8
0
  6
Continuous
 62
     7
100
AcDbLine
 10
-30.28741125712072
 20
-60.92336754445622
 30
0.0
 11
-26.27331471847308
 21
-64.93746205292612
 31
0.0
  0
LINE
  5
2F8
330
1F
100
AcDbEntity
  8
0
  6
Continuous
 62
     7
100
AcDbLine
 10
-24.28749847412109
 20
-65.73751831054688
 30
0.0
 11
-16.28750610351562
 21
-65.73751831054688
 31
0.0
  0
LINE
  5
2F9
330
1F
100
AcDbEntity
  8
0
  6
Continuous
 62
     7
100
AcDbLine
 10
-26.27339172363281
 20
-64.93751525878906
 30
0.0
 11
-15.78749084472656
 21
-64.93751525878906
 31
0.0
  0
LINE
  5
2FA
330
1F
100
AcDbEntity
  8
0
  6
Continuous
 62
     7
100
AcDbLine
 10
-24.7874755859375
 20
-64.93753051757812
 30
0.0
 11
-24.7874755859375
 21
-65.23753356933594
 31
0.0
  0
LINE
  5
2FB
330
1F
100
AcDbEntity
  8
0
  6
Continuous
 62
     7
100
AcDbLine
 10
-15.7874755859375
 20
-64.93753051757812
 30
0.0
 11
-15.7874755859375
 21
-65.23753356933594
 31
0.0
  0
LINE
  5
2FC
330
1F
100
AcDbEntity
  8
0
  6
Continuous
 62
     7
100
AcDbLine
 10
-5.787490844726562
 20
-64.93753051757812
 30
0.0
 11
-5.787490844726562
 21
-65.23753356933594
 31
0.0
  0
LINE
  5
2FD
330
1F
100
AcDbEntity
  8
0
  6
Continuous
 62
     7
100
AcDbLine
 10
-11.18021392822266
 20
-65.73751831054688
 30
0.0
 11
-6.287498474121094
 21
-65.73751831054688
 31
0.0
  0
LINE
  5
2FE
330
1F
100
AcDbEntity
  8
0
  6
Continuous
 62
     7
100
AcDbLine
 10
-5.787506103515625
 20
-64.93751525878906
 30
0.0
 11
3.547164916992188
 21
-64.93751525878906
 31
0.0
  0
LINE
  5
2FF
330
1F
100
AcDbEntity
  8
0
  6
Continuous
 62
     7
100
AcDbLine
 10
8.032878385393854
 20
-47.98102879071857
 30
0.0
 11
6.73496083705168
 21
-62.81635136569196
 31
0.0
  0
LINE
  5
300
330
1F
100
AcDbEntity
  8
0
  6
Continuous
 62
     7
100
AcDbLine
 10
7.277383321570614
 20
-47.43754452426064
 30
0.0
 11
5.938007241707687
 21
-62.74674210722719
 31
0.0
  0
LINE
  5
301
330
1F
100
AcDbEntity
  8
0
  6
Continuous
 62
     7
100
AcDbLine
 10
11.01837158203125
 20
-40.78750228881836
 30
0.0
 11
12.53352355957031
 21
-40.78750228881836
 31
0.0
  0
LINE
  5
302
330
1F
100
AcDbEntity
  8
0
  6
Continuous
 62
     7
100
AcDbLine
 10
-5.287490844726562
 20
-65.73751831054688
 30
0.0
 11
3.547164916992188
 21
-65.73751831054688
 31
0.0
  0
LINE
  5
303
330
1F
100
AcDbEntity
  8
0
  6
Continuous
 62
     7
100
AcDbLine
 10
-5.287490844726562
 20
-65.73751831054688
 30
0.0
 11
3.547164916992188
 21
-65.73751831054688
 31
0.0
  0
LINE
  5
304
330
1F
100
AcDbEntity
  8
0
  6
Continuous
 62
     7
100
AcDbLine
 10
-15.28749847412109
 20
-65.73751831054688
 30
0.0
 11
-6.287498474121094
 21
-65.73751831054688
 31
0.0
  0
LINE
  5
305
330
1F
100
AcDbEntity
  8
0
  6
Continuous
 62
     7
100
AcDbLine
 10
-36.63379943226226
 20
-47.68286891143851
 30
0.0
 11
-35.8194604885697
 21
-56.99077406821498
 31
0.0
  0
LINE
  5
306
330
1F
100
AcDbEntity
  8
0
  6
Continuous
 62
     7
100
AcDbLine
 10
-39.60492055501374
 20
-42.98112594977204
 30
0.0
 11
-39.42028982321947
 21
-45.09145771503772
 31
0.0
  0
LINE
  5
307
330
1F
100
AcDbEntity
  8
0
  6
Continuous
 62
     7
100
AcDbLine
 10
-29.28749084472656
 20
-66.53750610351562
 30
0.0
 11
3.547164916992188
 21
-66.53750610351562
 31
0.0
  0
LINE
  5
308
330
1F
100
AcDbEntity
  8
0
  6
Continuous
 62
     7
100
AcDbLine
 10
-36.49635401387581
 20
-58.43275909146628
 30
0.0
 11
-35.78727663697452
 21
-66.53752311403123
 31
0.0
  0
LINE
  5
309
330
1F
100
AcDbEntity
  8
0
  6
Continuous
 62
     7
100
AcDbLine
 10
7.382151081430183
 20
-64.59820783791945
 30
0.0
 11
7.21248887845796
 21
-66.53746315740295
 31
0.0
  0
LINE
  5
30A
330
1F
100
AcDbEntity
  8
0
  6
Continuous
 62
     7
100
AcDbLine
 10
5.128578186035156
 20
-66.53750610351562
 30
0.0
 11
7.212501525878906
 21
-66.53750610351562
 31
0.0
  0
LINE
  5
30B
330
1F
100
AcDbEntity
  8
0
  6
Continuous
 62
     7
100
AcDbLine
 10
-41.26744842529297
 20
-28.31253051757812
 30
0.0
 11
-41.26744842529297
 21
-28.81254577636719
 31
0.0
  0
LINE
  5
30C
330
1F
100
AcDbEntity
  8
0
  6
Continuous
 62
     7
100
AcDbLine
 10
63.10500335693359
 20
-67.43751525878906
 30
0.0
 11
78.6050033569336
 21
-67.43751525878906
 31
0.0
  0
LINE
  5
30D
330
1F
100
AcDbEntity
  8
0
  6
Continuous
 62
     7
100
AcDbLine
 10
80.6050033569336
 20
-27.43751907348633
 30
0.0
 11
80.6050033569336
 21
-67.03752136230469
 31
0.0
  0
LINE
  5
30E
330
1F
100
AcDbEntity
  8
0
  6
CENTER
 62
     7
100
AcDbLine
 10
63.10500335693359
 20
-24.93751907348633
 30
0.0
 11
63.10500335693359
 21
-69.93751525878906
 31
0.0
  0
LINE
  5
30F
330
1F
100
AcDbEntity
  8
0
  6
Continuous
 62
     7
100
AcDbLine
 10
63.10500335693359
 20
-29.18751907348633
 30
0.0
 11
80.6050033569336
 21
-29.18751907348633
 31
0.0
  0
LINE
  5
310
330
1F
100
AcDbEntity
  8
0
  6
Continuous
 62
     7
100
AcDbLine
 10
63.10500335693359
 20
-28.28751945495605
 30
0.0
 11
70.6050033569336
 21
-28.28751945495605
 31
0.0
  0
LINE
  5
311
330
1F
100
AcDbEntity
  8
0
  6
Continuous
 62
     7
100
AcDbLine
 10
70.6050033569336
 20
-27.43751907348633
 30
0.0
 11
80.6050033569336
 21
-27.43751907348633
 31
0.0
  0
LINE
  5
312
330
1F
100
AcDbEntity
  8
0
  6
Continuous
 62
     7
100
AcDbLine
 10
63.10500335693359
 20
-36.93750762939453
 30
0.0
 11
80.6050033569336
 21
-36.93750762939453
 31
0.0
  0
LINE
  5
313
330
1F
100
AcDbEntity
  8
0
  6
Continuous
 62
     7
100
AcDbLine
 10
63.10500335693359
 20
-45.76149749755859
 30
0.0
 11
80.6050033569336
 21
-45.76149749755859
 31
0.0
  0
LINE
  5
314
330
1F
100
AcDbEntity
  8
0
  6
Continuous
 62
     7
100
AcDbLine
 10
63.10500335693359
 20
-47.13922500610352
 30
0.0
 11
80.6050033569336
 21
-47.13922500610352
 31
0.0
  0
LINE
  5
315
330
1F
100
AcDbEntity
  8
0
  6
Continuous
 62
     7
100
AcDbLine
 10
80.60500696407081
 20
-67.03752606454437
 30
0.0
 11
78.6050031864619
 21
-67.43752762850887
 31
0.0
  0
LINE
  5
316
330
1F
100
AcDbEntity
  8
0
  6
Continuous
 62
     7
100
AcDbLine
 10
63.5050048828125
 20
-66.53752136230469
 30
0.0
 11
80.6050033569336
 21
-66.53752136230469
 31
0.0
  0
LINE
  5
317
330
1F
100
AcDbEntity
  8
0
  6
Continuous
 62
     7
100
AcDbLine
 10
63.10500335693359
 20
-64.93751525878906
 30
0.0
 11
65.0050048828125
 21
-64.93751525878906
 31
0.0
  0
LINE
  5
318
330
1F
100
AcDbEntity
  8
0
  6
Continuous
 62
     7
100
AcDbLine
 10
65.0050048828125
 20
-47.68281936645508
 30
0.0
 11
65.0050048828125
 21
-60.92340469360352
 31
0.0
  0
LINE
  5
319
330
1F
100
AcDbEntity
  8
0
  6
Continuous
 62
     7
100
AcDbLine
 10
63.5050048828125
 20
-65.73751831054688
 30
0.0
 11
63.5050048828125
 21
-66.53752136230469
 31
0.0
  0
LINE
  5
31A
330
1F
100
AcDbEntity
  8
0
  6
Continuous
 62
     7
100
AcDbLine
 10
63.10500335693359
 20
-47.63924026489258
 30
0.0
 11
64.5050048828125
 21
-47.63924026489258
 31
0.0
  0
LINE
  5
31B
330
1F
100
AcDbEntity
  8
0
  6
Continuous
 62
     7
100
AcDbLine
 10
63.10500335693359
 20
-60.92340469360352
 30
0.0
 11
65.0050048828125
 21
-60.92340469360352
 31
0.0
  0
LINE
  5
31C
330
1F
100
AcDbEntity
  8
0
  6
Continuous
 62
     7
100
AcDbLine
 10
63.10500335693359
 20
-38.43750381469727
 30
0.0
 11
64.5050048828125
 21
-38.43750381469727
 31
0.0
  0
LINE
  5
31D
330
1F
100
AcDbEntity
  8
0
  6
Continuous
 62
     7
100
AcDbLine
 10
63.10500335693359
 20
-42.51296234130859
 30
0.0
 11
64.5050048828125
 21
-42.51296234130859
 31
0.0
  0
LINE
  5
31E
330
1F
100
AcDbEntity
  8
0
  6
Continuous
 62
     7
100
AcDbLine
 10
63.10500335693359
 20
-47.13924026489258
 30
0.0
 11
80.6050033569336
 21
-47.13924026489258
 31
0.0
  0
LINE
  5
31F
330
1F
100
AcDbEntity
  8
0
  6
Continuous
 62
     7
100
AcDbLine
 10
65.0050048828125
 20
-38.93750381469727
 30
0.0
 11
65.0050048828125
 21
-42.01296234130859
 31
0.0
  0
LINE
  5
320
330
1F
100
AcDbEntity
  8
0
  6
Continuous
 62
     7
100
AcDbLine
 10
64.84107428344852
 20
-65.24763633848461
 30
0.0
 11
63.50500956657548
 21
-65.73752541713162
 31
0.0
  0
LINE
  5
321
330
1F
100
AcDbEntity
  8
0
  6
Continuous
 62
     7
100
AcDbLine
 10
64.8426495815362
 20
-61.23417245717876
 30
0.0
 11
63.5050038404438
 21
-61.7349354316857
 31
0.0
  0
LINE
  5
322
330
1F
100
AcDbEntity
  8
0
  6
Continuous
 62
     7
100
AcDbLine
 10
63.5050048828125
 20
-61.71548080444336
 30
0.0
 11
63.5050048828125
 21
-64.93751525878906
 31
0.0
  0
LINE
  5
323
330
1F
100
AcDbEntity
  8
0
  6
Continuous
 62
     7
100
AcDbLine
 10
65.0050048828125
 20
-48.13924026489258
 30
0.0
 11
65.0050048828125
 21
-61.00004959106445
 31
0.0
  0
LINE
  5
324
330
1F
100
AcDbEntity
  8
0
  6
Continuous
 62
     7
100
AcDbLine
 10
63.5050048828125
 20
-42.48331069946289
 30
0.0
 11
63.5050048828125
 21
-47.51145935058594
 31
0.0
  0
LINE
  5
325
330
1F
100
AcDbEntity
  8
0
  6
Continuous
 62
     7
100
AcDbLine
 10
70.6050033569336
 20
-27.43751907348633
 30
0.0
 11
70.6050033569336
 21
-29.18751907348633
 31
0.0
  0
LINE
  5
326
330
1F
100
AcDbEntity
  8
0
  6
Continuous
 62
     7
100
AcDbLine
 10
63.10500335693359
 20
-67.43751525878906
 30
0.0
 11
47.60500335693359
 21
-67.43751525878906
 31
0.0
  0
LINE
  5
327
330
1F
100
AcDbEntity
  8
0
  6
Continuous
 62
     7
100
AcDbLine
 10
45.60500335693359
 20
-27.43751907348633
 30
0.0
 11
45.60500335693359
 21
-67.03752136230469
 31
0.0
  0
LINE
  5
328
330
1F
100
AcDbEntity
  8
0
  6
Continuous
 62
     7
100
AcDbLine
 10
63.10500335693359
 20
-29.18751907348633
 30
0.0
 11
45.60500335693359
 21
-29.18751907348633
 31
0.0
  0
LINE
  5
329
330
1F
100
AcDbEntity
  8
0
  6
Continuous
 62
     7
100
AcDbLine
 10
63.10500335693359
 20
-28.28751945495605
 30
0.0
 11
55.60500335693359
 21
-28.28751945495605
 31
0.0
  0
LINE
  5
32A
330
1F
100
AcDbEntity
  8
0
  6
Continuous
 62
     7
100
AcDbLine
 10
55.60500335693359
 20
-27.43751907348633
 30
0.0
 11
45.60500335693359
 21
-27.43751907348633
 31
0.0
  0
LINE
  5
32B
330
1F
100
AcDbEntity
  8
0
  6
Continuous
 62
     7
100
AcDbLine
 10
63.10500335693359
 20
-36.93750762939453
 30
0.0
 11
45.60500335693359
 21
-36.93750762939453
 31
0.0
  0
LINE
  5
32C
330
1F
100
AcDbEntity
  8
0
  6
Continuous
 62
     7
100
AcDbLine
 10
63.10500335693359
 20
-45.76149749755859
 30
0.0
 11
45.60500335693359
 21
-45.76149749755859
 31
0.0
  0
LINE
  5
32D
330
1F
100
AcDbEntity
  8
0
  6
Continuous
 62
     7
100
AcDbLine
 10
63.10500335693359
 20
-47.13922500610352
 30
0.0
 11
45.60500335693359
 21
-47.13922500610352
 31
0.0
  0
LINE
  5
32E
330
1F
100
AcDbEntity
  8
0
  6
Continuous
 62
     7
100
AcDbLine
 10
45.60499450168672
 20
-67.03752649100325
 30
0.0
 11
47.6049945386775
 21
-67.43752730684261
 31
0.0
  0
LINE
  5
32F
330
1F
100
AcDbEntity
  8
0
  6
Continuous
 62
     7
100
AcDbLine
 10
62.70500183105469
 20
-66.53752136230469
 30
0.0
 11
45.60500335693359
 21
-66.53752136230469
 31
0.0
  0
LINE
  5
330
330
1F
100
AcDbEntity
  8
0
  6
Continuous
 62
     7
100
AcDbLine
 10
63.10500335693359
 20
-64.93751525878906
 30
0.0
 11
61.20500183105469
 21
-64.93751525878906
 31
0.0
  0
LINE
  5
331
330
1F
100
AcDbEntity
  8
0
  6
Continuous
 62
     7
100
AcDbLine
 10
61.20500183105469
 20
-47.68281936645508
 30
0.0
 11
61.20500183105469
 21
-60.92340469360352
 31
0.0
  0
LINE
  5
332
330
1F
100
AcDbEntity
  8
0
  6
Continuous
 62
     7
100
AcDbLine
 10
62.70500183105469
 20
-65.73751831054688
 30
0.0
 11
62.70500183105469
 21
-66.53752136230469
 31
0.0
  0
LINE
  5
333
330
1F
100
AcDbEntity
  8
0
  6
Continuous
 62
     7
100
AcDbLine
 10
63.10500335693359
 20
-47.63924026489258
 30
0.0
 11
61.70500183105469
 21
-47.63924026489258
 31
0.0
  0
LINE
  5
334
330
1F
100
AcDbEntity
  8
0
  6
Continuous
 62
     7
100
AcDbLine
 10
63.10500335693359
 20
-60.92340469360352
 30
0.0
 11
61.20500183105469
 21
-60.92340469360352
 31
0.0
  0
LINE
  5
335
330
1F
100
AcDbEntity
  8
0
  6
Continuous
 62
     7
100
AcDbLine
 10
63.10500335693359
 20
-38.43750381469727
 30
0.0
 11
61.70500183105469
 21
-38.43750381469727
 31
0.0
  0
LINE
  5
336
330
1F
100
AcDbEntity
  8
0
  6
Continuous
 62
     7
100
AcDbLine
 10
63.10500335693359
 20
-42.51296234130859
 30
0.0
 11
61.70500183105469
 21
-42.51296234130859
 31
0.0
  0
LINE
  5
337
330
1F
100
AcDbEntity
  8
0
  6
Continuous
 62
     7
100
AcDbLine
 10
63.10500335693359
 20
-47.13924026489258
 30
0.0
 11
45.60500335693359
 21
-47.13924026489258
 31
0.0
  0
LINE
  5
338
330
1F
100
AcDbEntity
  8
0
  6
Continuous
 62
     7
100
AcDbLine
 10
61.20500183105469
 20
-38.93750381469727
 30
0.0
 11
61.20500183105469
 21
-42.01296234130859
 31
0.0
  0
LINE
  5
339
330
1F
100
AcDbEntity
  8
0
  6
Continuous
 62
     7
100
AcDbLine
 10
61.36893495180043
 20
-65.24763132832962
 30
0.0
 11
62.70499608714341
 21
-65.73751909375248
 31
0.0
  0
LINE
  5
33A
330
1F
100
AcDbEntity
  8
0
  6
Continuous
 62
     7
100
AcDbLine
 10
61.36735569925236
 20
-61.23418136913239
 30
0.0
 11
62.70500144034473
 21
-61.73494434363933
 31
0.0
  0
LINE
  5
33B
330
1F
100
AcDbEntity
  8
0
  6
Continuous
 62
     7
100
AcDbLine
 10
62.70500183105469
 20
-61.71548080444336
 30
0.0
 11
62.70500183105469
 21
-64.93751525878906
 31
0.0
  0
LINE
  5
33C
330
1F
100
AcDbEntity
  8
0
  6
Continuous
 62
     7
100
AcDbLine
 10
61.20500183105469
 20
-48.13924026489258
 30
0.0
 11
61.20500183105469
 21
-61.00004959106445
 31
0.0
  0
LINE
  5
33D
330
1F
100
AcDbEntity
  8
0
  6
Continuous
 62
     7
100
AcDbLine
 10
62.70500183105469
 20
-42.48331069946289
 30
0.0
 11
62.70500183105469
 21
-47.51145935058594
 31
0.0
  0
LINE
  5
33E
330
1F
100
AcDbEntity
  8
0
  6
Continuous
 62
     7
100
AcDbLine
 10
55.60500335693359
 20
-27.43751907348633
 30
0.0
 11
55.60500335693359
 21
-29.18751907348633
 31
0.0
  0
ARC
  5
33F
330
1F
100
AcDbEntity
  8
0
  6
Continuous
 62
     7
100
AcDbCircle
 10
-46.14241790771484
 20
39.93748474121094
 30
0.0
 40
1.0
100
AcDbArc
 50
179.9999813306653
 51
270.0000179860893
  0
ARC
  5
340
330
1F
100
AcDbEntity
  8
0
  6
Continuous
 62
     7
100
AcDbCircle
 10
11.03355407714844
 20
39.93748474121094
 30
0.0
 40
1.0
100
AcDbArc
 50
270.0000179860893
 51
0.0
  0
ARC
  5
341
330
1F
100
AcDbEntity
  8
0
  6
Continuous
 62
     7
100
AcDbCircle
 10
-5.2874755859375
 20
44.93748474121094
 30
0.0
 40
0.5
100
AcDbArc
 50
179.9999813306653
 51
270.0000179860893
  0
ARC
  5
342
330
1F
100
AcDbEntity
  8
0
  6
Continuous
 62
     7
100
AcDbCircle
 10
-16.28749084472656
 20
44.93748474121094
 30
0.0
 40
0.5
100
AcDbArc
 50
270.0000179860893
 51
0.0
  0
ARC
  5
343
330
1F
100
AcDbEntity
  8
0
  6
Continuous
 62
     7
100
AcDbCircle
 10
-24.28748321533203
 20
44.93748474121094
 30
0.0
 40
0.5
100
AcDbArc
 50
179.9999813306653
 51
270.0000179860893
  0
ARC
  5
344
330
1F
100
AcDbEntity
  8
0
  6
Continuous
 62
     7
100
AcDbCircle
 10
-31.28749084472656
 20
45.43749237060547
 30
0.0
 40
1.0
100
AcDbArc
 50
270.0000179860893
 51
0.0
  0
ARC
  5
345
330
1F
100
AcDbEntity
  8
0
  6
Continuous
 62
     7
100
AcDbCircle
 10
-31.28749084472656
 20
47.43748474121094
 30
0.0
 40
1.0
100
AcDbArc
 50
359.9999453584866
 51
89.9999273723973
  0
ARC
  5
346
330
1F
100
AcDbEntity
  8
0
  6
Continuous
 62
     7
100
AcDbCircle
 10
-46.14241790771484
 20
52.93748474121094
 30
0.0
 40
1.0
100
AcDbArc
 50
89.9999273723973
 51
179.9999640278213
  0
ARC
  5
347
330
1F
100
AcDbEntity
  8
0
  6
Continuous
 62
     7
100
AcDbCircle
 10
11.03355407714844
 20
52.93748474121094
 30
0.0
 40
1.0
100
AcDbArc
 50
359.9999453584866
 51
89.9999273723973
  0
ARC
  5
348
330
1F
100
AcDbEntity
  8
0
  6
Continuous
 62
     7
100
AcDbCircle
 10
-5.2874755859375
 20
47.93748474121094
 30
0.0
 40
0.5
100
AcDbArc
 50
89.9999273723973
 51
179.9999640278213
  0
ARC
  5
349
330
1F
100
AcDbEntity
  8
0
  6
Continuous
 62
     7
100
AcDbCircle
 10
-16.28749084472656
 20
47.93748474121094
 30
0.0
 40
0.5
100
AcDbArc
 50
359.9999453584866
 51
89.9999273723973
  0
ARC
  5
34A
330
1F
100
AcDbEntity
  8
0
  6
Continuous
 62
     7
100
AcDbCircle
 10
-24.28748321533203
 20
47.93748474121094
 30
0.0
 40
0.5
100
AcDbArc
 50
89.9999273723973
 51
179.9999640278213
  0
ARC
  5
34B
330
1F
100
AcDbEntity
  8
0
  6
Continuous
 62
     7
100
AcDbCircle
 10
-39.45696258544922
 20
-38.93751907348633
 30
0.0
 40
0.5
100
AcDbArc
 50
89.99998201391067
 51
185.0001542738909
  0
ARC
  5
34C
330
1F
100
AcDbEntity
  8
0
  6
Continuous
 62
     7
100
AcDbCircle
 10
12.53353118896484
 20
-47.43750381469727
 30
0.0
 40
0.9000000357627869
100
AcDbArc
 50
270.0000179860893
 51
0.0
  0
ARC
  5
34D
330
1F
100
AcDbEntity
  8
0
  6
Continuous
 62
     7
100
AcDbCircle
 10
8.783531188964844
 20
-41.18751907348633
 30
0.0
 40
1.0
100
AcDbArc
 50
89.99998201391067
 51
255.5224585109195
  0
ARC
  5
34E
330
1F
100
AcDbEntity
  8
0
  6
Continuous
 62
     7
100
AcDbCircle
 10
-30.63945770263672
 20
-56.53752517700195
 30
0.0
 40
6.0
100
AcDbArc
 50
184.9999939918165
 51
270.0000179860893
  0
ARC
  5
34F
330
1F
100
AcDbEntity
  8
0
  6
Continuous
 62
     7
100
AcDbCircle
 10
-29.2874755859375
 20
-65.53752136230469
 30
0.0
 40
1.0
100
AcDbArc
 50
179.9999813306653
 51
270.0000179860893
  0
ARC
  5
350
330
1F
100
AcDbEntity
  8
0
  6
Continuous
 62
     7
100
AcDbCircle
 10
3.54718017578125
 20
-62.53752517700195
 30
0.0
 40
4.0
100
AcDbArc
 50
270.0000179860893
 51
355.0000236242288
  0
ARC
  5
351
330
1F
100
AcDbEntity
  8
0
  6
Continuous
 62
     7
100
AcDbCircle
 10
3.54718017578125
 20
-62.53752517700195
 30
0.0
 40
4.90000057220459
100
AcDbArc
 50
270.0000179860893
 51
355.0000236242288
  0
ARC
  5
352
330
1F
100
AcDbEntity
  8
0
  6
Continuous
 62
     7
100
AcDbCircle
 10
-29.2874755859375
 20
-65.53752136230469
 30
0.0
 40
1.899999976158142
100
AcDbArc
 50
179.9999813306653
 51
270.0000179860893
  0
ARC
  5
353
330
1F
100
AcDbEntity
  8
0
  6
Continuous
 62
     7
100
AcDbCircle
 10
-30.63945770263672
 20
-56.53752517700195
 30
0.0
 40
6.90000057220459
100
AcDbArc
 50
184.9999939918165
 51
265.444445734231
  0
ARC
  5
354
330
1F
100
AcDbEntity
  8
0
  6
Continuous
 62
     7
100
AcDbCircle
 10
-42.39244842529297
 20
-28.56251525878906
 30
0.0
 40
1.125
100
AcDbArc
 50
0.0
 51
89.99998201391067
  0
ARC
  5
355
330
1F
100
AcDbEntity
  8
0
  6
Continuous
 62
     7
100
AcDbCircle
 10
-42.39244842529297
 20
-28.56251525878906
 30
0.0
 40
1.125
100
AcDbArc
 50
270.0000179860893
 51
0.0
  0
ARC
  5
356
330
1F
100
AcDbEntity
  8
0
  6
Continuous
 62
     7
100
AcDbCircle
 10
-47.64244842529297
 20
-29.18752288818359
 30
0.0
 40
0.9000000357627869
100
AcDbArc
 50
89.99998201391067
 51
179.9999640278213
  0
ARC
  5
357
330
1F
100
AcDbEntity
  8
0
  6
Continuous
 62
     7
100
AcDbCircle
 10
-47.64244842529297
 20
-36.93750762939453
 30
0.0
 40
0.9000000357627869
100
AcDbArc
 50
179.9999813306653
 51
270.0000179860893
  0
ARC
  5
358
330
1F
100
AcDbEntity
  8
0
  6
Continuous
 62
     7
100
AcDbCircle
 10
-45.04244232177734
 20
-28.28751373291016
 30
0.0
 40
0.8500000834465027
100
AcDbArc
 50
89.99998201391067
 51
179.9999640278213
  0
ARC
  5
359
330
1F
100
AcDbEntity
  8
0
  6
Continuous
 62
     7
100
AcDbCircle
 10
-42.62152862548828
 20
-37.18751525878906
 30
0.0
 40
0.25
100
AcDbArc
 50
5.000034859265956
 51
89.99998201391067
  0
ARC
  5
35A
330
1F
100
AcDbEntity
  8
0
  6
Continuous
 62
     7
100
AcDbCircle
 10
-47.49243927001953
 20
-36.78752136230469
 30
0.0
 40
0.1500000059604645
100
AcDbArc
 50
179.9999813306653
 51
270.0000179860893
  0
ARC
  5
35B
330
1F
100
AcDbEntity
  8
0
  6
Continuous
 62
     7
100
AcDbCircle
 10
-42.26976776123047
 20
-45.79756546020508
 30
0.0
 40
0.25
100
AcDbArc
 50
185.0000213125732
 51
254.9999731724467
  0
ARC
  5
35C
330
1F
100
AcDbEntity
  8
0
  6
Continuous
 62
     7
100
AcDbCircle
 10
-30.63945770263672
 20
-56.53752517700195
 30
0.0
 40
5.199999809265137
100
AcDbArc
 50
184.9999939918165
 51
268.1950858564001
  0
ARC
  5
35D
330
1F
100
AcDbEntity
  8
0
  6
Continuous
 62
     7
100
AcDbCircle
 10
-30.63945770263672
 20
-56.53752517700195
 30
0.0
 40
4.399999618530273
100
AcDbArc
 50
184.9999939918165
 51
265.4118452413225
  0
ARC
  5
35E
330
1F
100
AcDbEntity
  8
0
  6
Continuous
 62
     7
100
AcDbCircle
 10
3.54718017578125
 20
-62.53752517700195
 30
0.0
 40
3.200000286102295
100
AcDbArc
 50
270.0000179860893
 51
355.0000236242288
  0
ARC
  5
35F
330
1F
100
AcDbEntity
  8
0
  6
Continuous
 62
     7
100
AcDbCircle
 10
3.54718017578125
 20
-62.53752517700195
 30
0.0
 40
2.400000095367432
100
AcDbArc
 50
270.0000179860893
 51
355.0000236242288
  0
ARC
  5
360
330
1F
100
AcDbEntity
  8
0
  6
Continuous
 62
     7
100
AcDbCircle
 10
12.53353118896484
 20
-41.6875114440918
 30
0.0
 40
0.9000000357627869
100
AcDbArc
 50
0.0
 51
89.99998201391067
  0
ARC
  5
361
330
1F
100
AcDbEntity
  8
0
  6
Continuous
 62
     7
100
AcDbCircle
 10
10.28353118896484
 20
-40.9375114440918
 30
0.0
 40
0.75
100
AcDbArc
 50
11.53705608840248
 51
89.99998201391067
  0
ARC
  5
362
330
1F
100
AcDbEntity
  8
0
  6
Continuous
 62
     7
100
AcDbCircle
 10
7.534820556640625
 20
-47.93751907348633
 30
0.0
 40
0.5
100
AcDbArc
 50
355.0001064402725
 51
89.99998201391067
  0
ARC
  5
363
330
1F
100
AcDbEntity
  8
0
  6
Continuous
 62
     7
100
AcDbCircle
 10
-6.287483215332031
 20
-65.23750305175781
 30
0.0
 40
0.5
100
AcDbArc
 50
270.0000179860893
 51
0.0
  0
ARC
  5
364
330
1F
100
AcDbEntity
  8
0
  6
Continuous
 62
     7
100
AcDbCircle
 10
-5.2874755859375
 20
-65.23750305175781
 30
0.0
 40
0.5
100
AcDbArc
 50
179.9999813306653
 51
270.0000179860893
  0
ARC
  5
365
330
1F
100
AcDbEntity
  8
0
  6
Continuous
 62
     7
100
AcDbCircle
 10
-16.28749084472656
 20
-65.23750305175781
 30
0.0
 40
0.5
100
AcDbArc
 50
270.0000179860893
 51
0.0
  0
ARC
  5
366
330
1F
100
AcDbEntity
  8
0
  6
Continuous
 62
     7
100
AcDbCircle
 10
-15.28748321533203
 20
-65.23750305175781
 30
0.0
 40
0.5
100
AcDbArc
 50
179.9999813306653
 51
270.0000179860893
  0
ARC
  5
367
330
1F
100
AcDbEntity
  8
0
  6
Continuous
 62
     7
100
AcDbCircle
 10
-24.28748321533203
 20
-65.23750305175781
 30
0.0
 40
0.5
100
AcDbArc
 50
179.9999813306653
 51
270.0000179860893
  0
ARC
  5
368
330
1F
100
AcDbEntity
  8
0
  6
Continuous
 62
     7
100
AcDbCircle
 10
-30.53749084472656
 20
-62.78750991821289
 30
0.0
 40
0.25
100
AcDbArc
 50
0.0
 51
89.99998201391067
  0
ARC
  5
369
330
1F
100
AcDbEntity
  8
0
  6
Continuous
 62
     7
100
AcDbCircle
 10
-30.7874755859375
 20
-61.23518753051758
 30
0.0
 40
0.5
100
AcDbArc
 50
268.195201969616
 51
0.0
  0
ARC
  5
36A
330
1F
100
AcDbEntity
  8
0
  6
Continuous
 62
     7
100
AcDbCircle
 10
-36.13591766357422
 20
-47.63924026489258
 30
0.0
 40
0.5
100
AcDbArc
 50
89.99998201391067
 51
185.0000723116208
  0
ARC
  5
36B
330
1F
100
AcDbEntity
  8
0
  6
Continuous
 62
     7
100
AcDbCircle
 10
-36.22339630126953
 20
-46.63923263549805
 30
0.0
 40
0.5
100
AcDbArc
 50
184.9999530106815
 51
270.0000179860893
  0
ARC
  5
36C
330
1F
100
AcDbEntity
  8
0
  6
Continuous
 62
     7
100
AcDbCircle
 10
-39.19448089599609
 20
-41.93751907348633
 30
0.0
 40
0.5
100
AcDbArc
 50
185.0001715767349
 51
270.0000179860893
  0
ARC
  5
36D
330
1F
100
AcDbEntity
  8
0
  6
Continuous
 62
     7
100
AcDbCircle
 10
-39.10700225830078
 20
-42.93750381469727
 30
0.0
 40
0.5
100
AcDbArc
 50
89.99998201391067
 51
185.0000723116208
  0
ARC
  5
36E
330
1F
100
AcDbEntity
  8
0
  6
Continuous
 62
     7
100
AcDbCircle
 10
64.7550048828125
 20
-65.01290893554688
 30
0.0
 40
0.25
100
AcDbArc
 50
290.1371232065794
 51
0.0
  0
ARC
  5
36F
330
1F
100
AcDbEntity
  8
0
  6
Continuous
 62
     7
100
AcDbCircle
 10
64.7550048828125
 20
-61.00004959106445
 30
0.0
 40
0.25
100
AcDbArc
 50
290.523302102252
 51
0.0
  0
ARC
  5
370
330
1F
100
AcDbEntity
  8
0
  6
Continuous
 62
     7
100
AcDbCircle
 10
64.5050048828125
 20
-48.13924026489258
 30
0.0
 40
0.5
100
AcDbArc
 50
0.0
 51
89.99998201391067
  0
ARC
  5
371
330
1F
100
AcDbEntity
  8
0
  6
Continuous
 62
     7
100
AcDbCircle
 10
64.5050048828125
 20
-42.01296234130859
 30
0.0
 40
0.5
100
AcDbArc
 50
270.0000179860893
 51
0.0
  0
ARC
  5
372
330
1F
100
AcDbEntity
  8
0
  6
Continuous
 62
     7
100
AcDbCircle
 10
64.5050048828125
 20
-38.93750381469727
 30
0.0
 40
0.5
100
AcDbArc
 50
0.0
 51
89.99998201391067
  0
ARC
  5
373
330
1F
100
AcDbEntity
  8
0
  6
Continuous
 62
     7
100
AcDbCircle
 10
61.70500183105469
 20
-42.01296234130859
 30
0.0
 40
0.5
100
AcDbArc
 50
179.9999640278213
 51
269.999946041732
  0
ARC
  5
374
330
1F
100
AcDbEntity
  8
0
  6
Continuous
 62
     7
100
AcDbCircle
 10
61.70500183105469
 20
-38.93750381469727
 30
0.0
 40
0.5
100
AcDbArc
 50
89.99998201391067
 51
179.9999640278213
  0
ARC
  5
375
330
1F
100
AcDbEntity
  8
0
  6
Continuous
 62
     7
100
AcDbCircle
 10
61.45500183105469
 20
-65.01290893554688
 30
0.0
 40
0.25
100
AcDbArc
 50
179.9999640278213
 51
249.8628544816202
  0
ARC
  5
376
330
1F
100
AcDbEntity
  8
0
  6
Continuous
 62
     7
100
AcDbCircle
 10
61.45500183105469
 20
-61.00004959106445
 30
0.0
 40
0.25
100
AcDbArc
 50
179.9999640278213
 51
249.476648265191
  0
ARC
  5
377
330
1F
100
AcDbEntity
  8
0
  6
Continuous
 62
     7
100
AcDbCircle
 10
61.70500183105469
 20
-48.13924026489258
 30
0.0
 40
0.5
100
AcDbArc
 50
89.99998201391067
 51
179.9999640278213
  0
DIMENSION
  5
378
330
1F
100
AcDbEntity
  8
0
 62
     7
100
AcDbDimension
  2
*D15
 10
-61.56305584716797
 20
28.93749237060546
 30
0.0
 11
-61.56305584716797
 21
45.62120874023437
 31
0.0
 70
   160
  1
70
 71
     5
 42
34.99999237060547
  3
ISO-25
100
AcDbAlignedDimension
 13
-48.14244842529297
 23
63.93748474121094
 33
0.0
 14
-48.14244842529297
 24
28.93749237060547
 34
0.0
 50
90.00000000000001
100
AcDbRotatedDimension
1001
ACAD
1000
DSTYLE
1002
{
1070
   178
1070
     1
1070
   278
1070
    46
1070
   147
1040
0.800000011920929
1070
    77
1070
     1
1070
    74
1070
     0
1070
    73
1070
     0
1070
    42
1040
2.54
1070
    44
1040
2.250015258789062
1070
    76
1070
     0
1070
    75
1070
     0
1070
   279
1070
     0
1070
   271
1070
     0
1070
   173
1070
     1
1070
    41
1040
3.0
1070
   140
1040
3.200000047683716
1070
   344
1005
128
1070
   343
1005
128
1002
}
  0
DIMENSION
  5
385
330
1F
100
AcDbEntity
  8
0
 62
     7
100
AcDbDimension
  2
*D16
 10
7.212509155273439
 20
-79.99457495117187
 30
0.0
 11
-14.16752569580078
 21
-79.99457495117187
 31
0.0
 70
   160
  1
86
 71
     5
 42
42.99999237060547
  3
ISO-25
100
AcDbAlignedDimension
 13
-35.78748321533203
 23
-66.53753662109375
 33
0.0
 14
7.212509155273438
 24
-66.53753662109375
 34
0.0
 50
180.0
100
AcDbRotatedDimension
1001
ACAD
1000
DSTYLE
1002
{
1070
   178
1070
     1
1070
   278
1070
    46
1070
   147
1040
0.800000011920929
1070
    77
1070
     1
1070
    74
1070
     0
1070
    73
1070
     0
1070
    42
1040
2.54
1070
    44
1040
2.250030517578125
1070
    76
1070
     0
1070
    75
1070
     0
1070
   279
1070
     0
1070
   271
1070
     0
1070
   173
1070
     1
1070
    41
1040
3.0
1070
   140
1040
3.200000047683716
1070
   344
1005
128
1070
   343
1005
128
1002
}
  0
DIMENSION
  5
393
330
1F
100
AcDbEntity
  8
0
 62
     7
100
AcDbDimension
  2
*D17
 10
55.60500335693359
 20
-18.55974578857422
 30
0.0
 11
50.81103189086914
 21
-18.55974578857422
 31
0.0
 70
   160
  1
20
 71
     5
 42
10.0
  3
ISO-25
100
AcDbAlignedDimension
 13
45.60500335693359
 23
-27.43751907348633
 33
0.0
 14
55.60500335693359
 24
-27.43751907348633
 34
0.0
 50
180.0
100
AcDbRotatedDimension
1001
ACAD
1000
DSTYLE
1002
{
1070
   178
1070
     1
1070
   278
1070
    46
1070
   147
1040
0.800000011920929
1070
    77
1070
     1
1070
    74
1070
     0
1070
    73
1070
     0
1070
    42
1040
2.54
1070
    44
1040
2.286000000000001
1070
    76
1070
     0
1070
    75
1070
     0
1070
   279
1070
     0
1070
   271
1070
     0
1070
   173
1070
     1
1070
    41
1040
3.0
1070
   140
1040
3.200000047683716
1070
   344
1005
128
1070
   343
1005
128
1002
}
  0
DIMENSION
  5
3A0
330
1F
100
AcDbEntity
  8
0
 62
     7
100
AcDbDimension
  2
*D18
 10
-60.56691250610351
 20
-66.53750610351565
 30
0.0
 11
-60.56691250610352
 21
-47.86151449584961
 31
0.0
 70
   160
  1
75
 71
     5
 42
37.34998321533204
  3
ISO-25
100
AcDbAlignedDimension
 13
-47.64246368408203
 23
-29.18752288818359
 33
0.0
 14
-35.78749847412109
 24
-66.53750610351562
 34
0.0
 50
90.00000000000001
100
AcDbRotatedDimension
1001
ACAD
1000
DSTYLE
1002
{
1070
   178
1070
     1
1070
   278
1070
    46
1070
   147
1040
0.800000011920929
1070
    77
1070
     1
1070
    74
1070
     0
1070
    73
1070
     0
1070
    42
1040
2.54
1070
    44
1040
2.286000000000001
1070
    76
1070
     0
1070
    75
1070
     0
1070
   279
1070
     0
1070
   271
1070
     0
1070
   173
1070
     1
1070
    41
1040
3.0
1070
   140
1040
3.200000047683716
1070
   344
1005
128
1070
   343
1005
128
1002
}
  0
DIMENSION
  5
3AD
330
1F
100
AcDbEntity
  8
0
 62
     7
100
AcDbDimension
  2
*D19
 10
25.58486611938477
 20
-66.53750610351561
 30
0.0
 11
25.58486611938477
 21
-54.11150877380371
 31
0.0
 70
   160
  1
50
 71
     5
 42
24.84999465942382
  3
ISO-25
100
AcDbAlignedDimension
 13
12.53352355957031
 23
-41.6875114440918
 33
0.0
 14
7.212501525878906
 24
-66.53750610351562
 34
0.0
 50
90.00000000000001
100
AcDbRotatedDimension
1001
ACAD
1000
DSTYLE
1002
{
1070
   178
1070
     1
1070
   278
1070
    46
1070
   147
1040
0.800000011920929
1070
    77
1070
     1
1070
    74
1070
     0
1070
    73
1070
     0
1070
    42
1040
2.54
1070
    44
1040
2.286000000000001
1070
    76
1070
     0
1070
    75
1070
     0
1070
   279
1070
     0
1070
   271
1070
     0
1070
   173
1070
     1
1070
    41
1040
3.0
1070
   140
1040
3.200000047683716
1070
   344
1005
128
1070
   343
1005
128
1002
}
  0
DIMENSION
  5
3BA
330
1F
100
AcDbEntity
  8
0
 62
     7
100
AcDbDimension
  2
*D20
 10
12.53353118896484
 20
-18.55974578857422
 30
0.0
 11
-17.55345861816406
 21
-18.55974578857422
 31
0.0
 70
   160
  1
120
 71
     5
 42
60.17597961425781
  3
ISO-25
100
AcDbAlignedDimension
 13
-47.64244842529297
 23
-28.28751373291016
 33
0.0
 14
12.53353118896484
 24
-41.68753433227539
 34
0.0
 50
180.0
100
AcDbRotatedDimension
1001
ACAD
1000
DSTYLE
1002
{
1070
   178
1070
     1
1070
   278
1070
    46
1070
   147
1040
0.800000011920929
1070
    77
1070
     1
1070
    74
1070
     0
1070
    73
1070
     0
1070
    42
1040
2.54
1070
    44
1040
2.286000000000001
1070
    76
1070
     0
1070
    75
1070
     0
1070
   279
1070
     0
1070
   271
1070
     0
1070
   173
1070
     1
1070
    41
1040
3.0
1070
   140
1040
3.200000047683716
1070
   344
1005
128
1070
   343
1005
128
1002
}
  0
DIMENSION
  5
3C7
330
1F
100
AcDbEntity
  8
0
 62
     7
100
AcDbDimension
  2
*D21
 10
70.6050033569336
 20
-18.55974578857422
 30
0.0
 11
75.40197482299806
 21
-18.55974578857422
 31
0.0
 70
   160
  1
20
 71
     5
 42
10.0
  3
ISO-25
100
AcDbAlignedDimension
 13
80.6050033569336
 23
-27.43751907348633
 33
0.0
 14
70.6050033569336
 24
-27.43751907348633
 34
0.0
100
AcDbRotatedDimension
1001
ACAD
1000
DSTYLE
1002
{
1070
   178
1070
     1
1070
   278
1070
    46
1070
   147
1040
0.800000011920929
1070
    77
1070
     1
1070
    74
1070
     0
1070
    73
1070
     0
1070
    42
1040
2.54
1070
    44
1040
2.286000000000001
1070
    76
1070
     0
1070
    75
1070
     0
1070
   279
1070
     0
1070
   271
1070
     0
1070
   173
1070
     1
1070
    41
1040
3.0
1070
   140
1040
3.200000047683716
1070
   344
1005
128
1070
   343
1005
128
1002
}
  0
POINT
  5
3D5
330
1F
100
AcDbEntity
  8
VIEW0001
 62
     7
100
AcDbPoint
 10
105.0
 20
-148.5
 30
0.0
  0
LWPOLYLINE
  5
3D6
330
1F
100
AcDbEntity
  8
VIEW0001
  6
Continuous
 62
     7
100
AcDbPolyline
 90
        2
 70
     0
 10
25.75
 20
-129.0
 40
0.001000000047497
 41
0.001000000047497
 10
25.75
 20
-120.0
 40
0.001000000047497
 41
0.001000000047497
  0
LWPOLYLINE
  5
3D7
330
1F
100
AcDbEntity
  8
VIEW0001
  6
Continuous
 62
     7
100
AcDbPolyline
 90
        2
 70
     0
 10
-64.5
 20
-138.0
 40
0.001000000047497
 41
0.001000000047497
 10
-64.5
 20
-120.0
 40
0.001000000047497
 41
0.001000000047497
  0
LINE
  5
3D8
330
1F
100
AcDbEntity
  8
VIEW0001
  6
Continuous
 62
     7
370
    50
100
AcDbLine
 10
-84.5
 20
138.0
 30
0.0
 11
-84.5
 21
-138.0
 31
0.0
  0
LINE
  5
3D9
330
1F
100
AcDbEntity
  8
VIEW0001
  6
Continuous
 62
     7
370
    50
100
AcDbLine
 10
96.0
 20
138.0
 30
0.0
 11
96.0
 21
-138.0
 31
0.0
  0
LINE
  5
3DA
330
1F
100
AcDbEntity
  8
VIEW0001
  6
Continuous
 62
     7
370
    50
100
AcDbLine
 10
-84.5
 20
-138.0
 30
0.0
 11
96.0
 21
-138.0
 31
0.0
  0
LINE
  5
3DB
330
1F
100
AcDbEntity
  8
VIEW0001
  6
Continuous
 62
     7
370
    50
100
AcDbLine
 10
-84.5
 20
138.0
 30
0.0
 11
96.0
 21
138.0
 31
0.0
  0
LINE
  5
3DC
330
1F
100
AcDbEntity
  8
VIEW0001
  6
Continuous
 62
     7
370
    20
100
AcDbLine
 10
-84.5
 20
-120.0
 30
0.0
 11
96.0
 21
-120.0
 31
0.0
  0
LWPOLYLINE
  5
3DD
330
1F
100
AcDbEntity
  8
VIEW0001
  6
Continuous
 62
     7
100
AcDbPolyline
 90
        2
 70
     0
 10
96.0
 20
-129.0
 40
0.001000000047497
 41
0.001000000047497
 10
-84.5
 20
-129.0
 40
0.001000000047497
 41
0.001000000047497
  0
LINE
  5
3DE
330
1F
100
AcDbEntity
  8
VIEW0001
  6
Continuous
 62
     7
370
    20
100
AcDbLine
 10
41.0
 20
128.0
 30
0.0
 11
96.0
 21
128.0
 31
0.0
  0
LINE
  5
3DF
330
1F
100
AcDbEntity
  8
VIEW0001
  6
Continuous
 62
     7
370
    20
100
AcDbLine
 10
41.0
 20
138.0
 30
0.0
 11
41.0
 21
128.0
 31
0.0
  0
LWPOLYLINE
  5
3E0
330
1F
100
AcDbEntity
  8
VIEW0001
  6
Continuous
 62
     7
100
AcDbPolyline
 90
        2
 70
     0
 10
5.75
 20
-138.0
 40
0.001000000047497
 41
0.001000000047497
 10
5.75
 20
-120.0
 40
0.001000000047497
 41
0.001000000047497
  0
LWPOLYLINE
  5
3E1
330
1F
100
AcDbEntity
  8
VIEW0001
  6
Continuous
 62
     7
100
AcDbPolyline
 90
        2
 70
     0
 10
66.0
 20
-129.0
 40
0.001000000047497
 41
0.001000000047497
 10
66.0
 20
-120.0
 40
0.001000000047497
 41
0.001000000047497
  0
LWPOLYLINE
  5
3E2
330
1F
100
AcDbEntity
  8
VIEW0001
  6
Continuous
 62
     7
100
AcDbPolyline
 90
        2
 70
     0
 10
81.0
 20
-129.0
 40
0.001000000047497
 41
0.001000000047497
 10
81.0
 20
-120.0
 40
0.001000000047497
 41
0.001000000047497
  0
MTEXT
  5
3E3
330
1F
100
AcDbEntity
  8
VIEW0001
 62
     1
100
AcDbMText
 10
-77.92875003814697
 20
-135.5
 30
0.0
 40
4.0
 41
0.0
 71
     7
 72
     1
  1
{\W0.833333;規格}
 73
     1
 44
1.0
  0
MTEXT
  5
3E4
330
1F
100
AcDbEntity
  8
VIEW0001
 62
     1
100
AcDbMText
 10
12.32124996185303
 20
-126.5
 30
0.0
 40
4.0
 41
0.0
 71
     7
 72
     1
  1
{\W0.833333;材質}
 73
     1
 44
1.0
  0
MTEXT
  5
3E5
330
1F
100
AcDbEntity
  8
VIEW0001
 62
     1
100
AcDbMText
 10
-77.92875003814697
 20
-126.5
 30
0.0
 40
4.0
 41
0.0
 71
     7
 72
     1
  1
{\W0.833333;品名}
 73
     1
 44
1.0
  0
MTEXT
  5
3E6
330
1F
100
AcDbEntity
  8
VIEW0001
 62
     1
100
AcDbMText
 10
70.07124996185303
 20
-126.5
 30
0.0
 40
4.0
 41
0.0
 71
     7
 72
     1
  1
{\W0.833333;尺度}
 73
     1
 44
1.0
  0
MTEXT
  5
3E7
330
1F
100
AcDbEntity
  8
VIEW0001
 62
     1
100
AcDbMText
 10
26.46785604953766
 20
-135.75
 30
0.0
 40
4.5
 41
0.0
 71
     7
 72
     1
  1
{\W1.40741;デンカ株式会社}
 73
     1
 44
1.0
  0
MTEXT
  5
3E8
330
1F
100
AcDbEntity
  8
VIEW0001
 62
     1
100
AcDbMText
 10
36.44624972343445
 20
-126.5
 30
0.0
 40
4.0
 41
0.0
 71
     7
 72
     1
  1
{\W0.833333;硬質PVC}
 73
     1
 44
1.0
  0
MTEXT
  5
3E9
330
1F
100
AcDbEntity
  8
VIEW0001
 62
     1
100
AcDbMText
 10
-36.80375021696091
 20
-126.5
 30
0.0
 40
4.0
 41
0.0
 71
     7
 72
     1
  1
{\W0.833333;ソケット}
 73
     1
 44
1.0
  0
MTEXT
  5
3EA
330
1F
100
AcDbEntity
  8
VIEW0001
 62
     1
100
AcDbMText
 10
83.07124984264374
 20
-126.5
 30
0.0
 40
4.0
 41
0.0
 71
     7
 72
     1
  1
{\W0.833333;1/2}
 73
     1
 44
1.0
  0
MTEXT
  5
3EB
330
1F
100
AcDbEntity
  8
VIEW0001
 62
     1
100
AcDbMText
 10
-36.80375021696091
 20
-135.5
 30
0.0
 40
4.0
 41
0.0
 71
     7
 72
     1
  1
{\W0.833333;DL55}
 73
     1
 44
1.0
  0
ENDSEC
  0
SECTION
  2
OBJECTS
  0
DICTIONARY
  5
C
330
0
100
AcDbDictionary
281
     1
  3
ACAD_GROUP
350
D
  3
ACAD_LAYOUT
350
1A
  3
ACAD_MATERIAL
350
3B
  3
ACAD_MLEADERSTYLE
350
413
  3
ACAD_MLINESTYLE
350
17
  3
ACAD_PLOTSETTINGS
350
19
  3
ACAD_PLOTSTYLENAME
350
E
  3
ACAD_TABLESTYLE
350
412
  3
ACAD_VISUALSTYLE
350
2A
  0
DICTIONARY
  5
D
102
{ACAD_REACTORS
330
C
102
}
330
C
100
AcDbDictionary
281
     1
  0
DICTIONARY
  5
1A
102
{ACAD_REACTORS
330
C
102
}
330
C
100
AcDbDictionary
281
     1
  3
Layout1
350
1E
  3
Layout2
350
26
  3
Model
350
22
  0
DICTIONARY
  5
3B
102
{ACAD_REACTORS
330
C
102
}
330
C
100
AcDbDictionary
281
     1
  3
ByBlock
350
3D
  3
ByLayer
350
3C
  3
Global
350
3E
  0
DICTIONARY
  5
413
102
{ACAD_REACTORS
330
C
102
}
330
C
100
AcDbDictionary
281
     1
  0
DICTIONARY
  5
17
102
{ACAD_REACTORS
330
C
102
}
330
C
100
AcDbDictionary
281
     1
  3
Standard
350
18
  0
DICTIONARY
  5
19
102
{ACAD_REACTORS
330
C
102
}
330
C
100
AcDbDictionary
281
     1
  0
ACDBDICTIONARYWDFLT
  5
E
102
{ACAD_REACTORS
330
C
102
}
330
C
100
AcDbDictionary
281
     1
  3
Normal
350
F
100
AcDbDictionaryWithDefault
340
F
  0
DICTIONARY
  5
412
102
{ACAD_REACTORS
330
C
102
}
330
C
100
AcDbDictionary
281
     1
  0
DICTIONARY
  5
2A
102
{ACAD_REACTORS
330
C
102
}
330
C
100
AcDbDictionary
281
     1
  3
2dWireframe
350
2F
  3
3D Hidden
350
31
  3
3dWireframe
350
30
  3
Basic
350
32
  3
Brighten
350
36
  3
ColorChange
350
3A
  3
Conceptual
350
34
  3
Dim
350
35
  3
Facepattern
350
39
  3
Flat
350
2B
  3
FlatWithEdges
350
2C
  3
Gouraud
350
2D
  3
GouraudWithEdges
350
2E
  3
Linepattern
350
38
  3
Realistic
350
33
  3
Thicken
350
37
  0
LAYOUT
  5
1E
102
{ACAD_REACTORS
330
1A
102
}
330
1A
100
AcDbPlotSettings
  1

  2
none_device
  4

  6

 40
0.0
 41
0.0
 42
0.0
 43
0.0
 44
0.0
 45
0.0
 46
0.0
 47
0.0
 48
0.0
 49
0.0
140
0.0
141
0.0
142
1.0
143
1.0
 70
   688
 72
     0
 73
     0
 74
     5
  7

 75
    16
 76
     0
 77
     2
 78
   300
147
1.0
148
0.0
149
0.0
100
AcDbLayout
  1
Layout1
 70
     1
 71
     1
 10
-105.0
 20
-148.5
 11
105.0
 21
148.5
 12
0.0
 22
0.0
 32
0.0
 14
1.000000000000000E+20
 24
1.000000000000000E+20
 34
1.000000000000000E+20
 15
-1.000000000000000E+20
 25
-1.000000000000000E+20
 35
-1.000000000000000E+20
146
0.0
 13
0.0
 23
0.0
 33
0.0
 16
1.0
 26
0.0
 36
0.0
 17
0.0
 27
1.0
 37
0.0
 76
     0
330
1B
  0
LAYOUT
  5
26
102
{ACAD_REACTORS
330
1A
102
}
330
1A
100
AcDbPlotSettings
  1

  2
none_device
  4

  6

 40
0.0
 41
0.0
 42
0.0
 43
0.0
 44
0.0
 45
0.0
 46
0.0
 47
0.0
 48
0.0
 49
0.0
140
0.0
141
0.0
142
1.0
143
1.0
 70
   688
 72
     0
 73
     0
 74
     5
  7

 75
    16
 76
     0
 77
     2
 78
   300
147
1.0
148
0.0
149
0.0
100
AcDbLayout
  1
Layout2
 70
     1
 71
     2
 10
0.0
 20
0.0
 11
0.0
 21
0.0
 12
0.0
 22
0.0
 32
0.0
 14
0.0
 24
0.0
 34
0.0
 15
0.0
 25
0.0
 35
0.0
146
0.0
 13
0.0
 23
0.0
 33
0.0
 16
1.0
 26
0.0
 36
0.0
 17
0.0
 27
1.0
 37
0.0
 76
     0
330
23
  0
LAYOUT
  5
22
102
{ACAD_REACTORS
330
1A
102
}
330
1A
100
AcDbPlotSettings
  1

  2
none_device
  4

  6

 40
0.0
 41
0.0
 42
0.0
 43
0.0
 44
0.0
 45
0.0
 46
0.0
 47
0.0
 48
0.0
 49
0.0
140
0.0
141
0.0
142
1.0
143
1.0
 70
  1712
 72
     0
 73
     0
 74
     0
  7

 75
     0
 76
     0
 77
     2
 78
   300
147
1.0
148
0.0
149
0.0
100
AcDbLayout
  1
Model
 70
     1
 71
     0
 10
-105.0
 20
-148.5
 11
105.0
 21
148.5
 12
0.0
 22
0.0
 32
0.0
 14
-105.0
 24
-148.5
 34
0.0
 15
105.0
 25
148.5
 35
0.0
146
0.0
 13
0.0
 23
0.0
 33
0.0
 16
1.0
 26
0.0
 36
0.0
 17
0.0
 27
1.0
 37
0.0
 76
     0
330
1F
331
29
  0
MATERIAL
  5
3D
102
{ACAD_REACTORS
330
3B
102
}
102
{ACAD_XDICTIONARY
360
40E
102
}
330
3B
100
AcDbMaterial
  1
ByBlock
  0
MATERIAL
  5
3C
102
{ACAD_REACTORS
330
3B
102
}
102
{ACAD_XDICTIONARY
360
40C
102
}
330
3B
100
AcDbMaterial
  1
ByLayer
  0
MATERIAL
  5
3E
102
{ACAD_REACTORS
330
3B
102
}
102
{ACAD_XDICTIONARY
360
410
102
}
330
3B
100
AcDbMaterial
  1
Global
  0
MLINESTYLE
  5
18
102
{ACAD_REACTORS
330
17
102
}
330
17
100
AcDbMlineStyle
  2
Standard
 70
     0
  3

 62
   256
 51
90.0
 52
90.0
 71
     2
 49
0.5
 62
   256
  6
BYLAYER
 49
-0.5
 62
   256
  6
BYLAYER
  0
ACDBPLACEHOLDER
  5
F
102
{ACAD_REACTORS
330
E
102
}
330
E
  0
VISUALSTYLE
  5
2F
102
{ACAD_REACTORS
330
2A
102
}
102
{ACAD_XDICTIONARY
360
3F4
102
}
330
2A
100
AcDbVisualStyle
  2
2dWireframe
 70
     4
 71
     0
 72
     2
 73
     0
 90
        0
 40
-0.6
 41
-30.0
 62
     5
 63
     7
421
 16777215
 74
     1
 91
        4
 64
     7
 65
   257
 75
     1
175
     1
 42
1.0
 92
        0
 66
   257
 43
1.0
 76
     1
 77
     6
 78
     2
 67
     7
 79
     5
170
     0
171
     0
290
     0
174
     0
 93
        1
 44
0.0
173
     0
291
     0
 45
0.0
1001
ACAD
1000
AcDbSavedByObjectVersion
1070
     0
  0
VISUALSTYLE
  5
31
102
{ACAD_REACTORS
330
2A
102
}
102
{ACAD_XDICTIONARY
360
3F8
102
}
330
2A
100
AcDbVisualStyle
  2
3D Hidden
 70
     6
 71
     1
 72
     2
 73
     2
 90
        0
 40
-0.6
 41
-30.0
 62
     5
 63
     7
421
 16777215
 74
     2
 91
        2
 64
     7
 65
   257
 75
     2
175
     1
 42
40.0
 92
        0
 66
   257
 43
1.0
 76
     1
 77
     6
 78
     2
 67
     7
 79
     3
170
     0
171
     0
290
     0
174
     0
 93
        1
 44
0.0
173
     0
291
     0
 45
0.0
1001
ACAD
1000
AcDbSavedByObjectVersion
1070
     0
  0
VISUALSTYLE
  5
30
102
{ACAD_REACTORS
330
2A
102
}
102
{ACAD_XDICTIONARY
360
3F6
102
}
330
2A
100
AcDbVisualStyle
  2
3dWireframe
 70
     5
 71
     0
 72
     2
 73
     0
 90
        0
 40
-0.6
 41
-30.0
 62
     5
 63
     7
421
 16777215
 74
     1
 91
        4
 64
     7
 65
   257
 75
     1
175
     1
 42
1.0
 92
        0
 66
   257
 43
1.0
 76
     1
 77
     6
 78
     2
 67
     7
 79
     5
170
     0
171
     0
290
     0
174
     0
 93
        1
 44
0.0
173
     0
291
     0
 45
0.0
1001
ACAD
1000
AcDbSavedByObjectVersion
1070
     0
  0
VISUALSTYLE
  5
32
102
{ACAD_REACTORS
330
2A
102
}
102
{ACAD_XDICTIONARY
360
3FA
102
}
330
2A
100
AcDbVisualStyle
  2
Basic
 70
     7
 71
     1
 72
     0
 73
     1
 90
        0
 40
-0.6
 41
-30.0
 62
     5
 63
     7
421
 16777215
 74
     0
 91
        4
 64
     7
 65
   257
 75
     1
175
     1
 42
1.0
 92
        8
 66
     7
 43
1.0
 76
     1
 77
     6
 78
     2
 67
     7
 79
     5
170
     0
171
     0
290
     0
174
     0
 93
        1
 44
0.0
173
     0
291
     1
 45
0.0
1001
ACAD
1000
AcDbSavedByObjectVersion
1070
     0
  0
VISUALSTYLE
  5
36
102
{ACAD_REACTORS
330
2A
102
}
102
{ACAD_XDICTIONARY
360
402
102
}
330
2A
100
AcDbVisualStyle
  2
Brighten
 70
    12
 71
     2
 72
     2
 73
     0
 90
        0
 40
-0.6
 41
-30.0
 62
     5
 63
     7
421
 16777215
 74
     1
 91
        4
 64
     7
 65
   257
 75
     1
175
     1
 42
1.0
 92
        8
 66
     7
 43
1.0
 76
     1
 77
     6
 78
     2
 67
     7
 79
     5
170
     0
171
     0
290
     0
174
     0
 93
        1
 44
50.0
173
     0
291
     1
 45
0.0
1001
ACAD
1000
AcDbSavedByObjectVersion
1070
     0
  0
VISUALSTYLE
  5
3A
102
{ACAD_REACTORS
330
2A
102
}
102
{ACAD_XDICTIONARY
360
40A
102
}
330
2A
100
AcDbVisualStyle
  2
ColorChange
 70
    16
 71
     2
 72
     2
 73
     3
 90
        0
 40
-0.6
 41
-30.0
 62
     5
 63
     8
421
  8421504
 74
     1
 91
        4
 64
     7
 65
   257
 75
     1
175
     1
 42
1.0
 92
        8
 66
     8
424
  8421504
 43
1.0
 76
     1
 77
     6
 78
     2
 67
     7
 79
     5
170
     0
171
     0
290
     0
174
     0
 93
        1
 44
0.0
173
     0
291
     1
 45
0.0
1001
ACAD
1000
AcDbSavedByObjectVersion
1070
     0
  0
VISUALSTYLE
  5
34
102
{ACAD_REACTORS
330
2A
102
}
102
{ACAD_XDICTIONARY
360
3FE
102
}
330
2A
100
AcDbVisualStyle
  2
Conceptual
 70
     9
 71
     3
 72
     2
 73
     0
 90
        0
 40
-0.6
 41
-30.0
 62
     5
 63
     7
421
 16777215
 74
     2
 91
        2
 64
     7
 65
   257
 75
     1
175
     1
 42
40.0
 92
        8
 66
     7
 43
1.0
 76
     1
 77
     6
 78
     2
 67
     7
 79
     3
170
     0
171
     0
290
     0
174
     0
 93
        1
 44
0.0
173
     0
291
     0
 45
0.0
1001
ACAD
1000
AcDbSavedByObjectVersion
1070
     0
  0
VISUALSTYLE
  5
35
102
{ACAD_REACTORS
330
2A
102
}
102
{ACAD_XDICTIONARY
360
400
102
}
330
2A
100
AcDbVisualStyle
  2
Dim
 70
    11
 71
     2
 72
     2
 73
     0
 90
        0
 40
-0.6
 41
-30.0
 62
     5
 63
     7
421
 16777215
 74
     1
 91
        4
 64
     7
 65
   257
 75
     1
175
     1
 42
1.0
 92
        8
 66
     7
 43
1.0
 76
     1
 77
     6
 78
     2
 67
     7
 79
     5
170
     0
171
     0
290
     0
174
     0
 93
        1
 44
-50.0
173
     0
291
     1
 45
0.0
1001
ACAD
1000
AcDbSavedByObjectVersion
1070
     0
  0
VISUALSTYLE
  5
39
102
{ACAD_REACTORS
330
2A
102
}
102
{ACAD_XDICTIONARY
360
408
102
}
330
2A
100
AcDbVisualStyle
  2
Facepattern
 70
    15
 71
     2
 72
     2
 73
     0
 90
        0
 40
-0.6
 41
-30.0
 62
     5
 63
     7
421
 16777215
 74
     1
 91
        4
 64
     7
 65
   257
 75
     1
175
     1
 42
1.0
 92
        8
 66
     7
 43
1.0
 76
     1
 77
     6
 78
     2
 67
     7
 79
     5
170
     0
171
     0
290
     0
174
     0
 93
        1
 44
0.0
173
     0
291
     1
 45
0.0
1001
ACAD
1000
AcDbSavedByObjectVersion
1070
     0
  0
VISUALSTYLE
  5
2B
102
{ACAD_REACTORS
330
2A
102
}
102
{ACAD_XDICTIONARY
360
3EC
102
}
330
2A
100
AcDbVisualStyle
  2
Flat
 70
     0
 71
     2
 72
     1
 73
     1
 90
        2
 40
-0.6
 41
30.0
 62
     5
 63
     7
421
 16777215
 74
     0
 91
        4
 64
     7
 65
   257
 75
     1
175
     1
 42
1.0
 92
        8
 66
     7
 43
1.0
 76
     1
 77
     6
 78
     2
 67
     7
 79
     5
170
     0
171
     0
290
     0
174
     0
 93
       13
 44
0.0
173
     0
291
     1
 45
0.0
1001
ACAD
1000
AcDbSavedByObjectVersion
1070
     0
  0
VISUALSTYLE
  5
2C
102
{ACAD_REACTORS
330
2A
102
}
102
{ACAD_XDICTIONARY
360
3EE
102
}
330
2A
100
AcDbVisualStyle
  2
FlatWithEdges
 70
     1
 71
     2
 72
     1
 73
     1
 90
        2
 40
-0.6
 41
30.0
 62
     5
 63
     7
421
 16777215
 74
     1
 91
        4
 64
     7
 65
   257
 75
     1
175
     1
 42
1.0
 92
        0
 66
   257
 43
1.0
 76
     1
 77
     6
 78
     2
 67
     7
 79
     5
170
     0
171
     0
290
     0
174
     0
 93
       13
 44
0.0
173
     0
291
     1
 45
0.0
1001
ACAD
1000
AcDbSavedByObjectVersion
1070
     0
  0
VISUALSTYLE
  5
2D
102
{ACAD_REACTORS
330
2A
102
}
102
{ACAD_XDICTIONARY
360
3F0
102
}
330
2A
100
AcDbVisualStyle
  2
Gouraud
 70
     2
 71
     2
 72
     2
 73
     1
 90
        2
 40
-0.6
 41
30.0
 62
     5
 63
     7
421
 16777215
 74
     0
 91
        4
 64
     7
 65
   257
 75
     1
175
     1
 42
1.0
 92
        0
 66
     7
 43
1.0
 76
     1
 77
     6
 78
     2
 67
     7
 79
     5
170
     0
171
     0
290
     0
174
     0
 93
       13
 44
0.0
173
     0
291
     1
 45
0.0
1001
ACAD
1000
AcDbSavedByObjectVersion
1070
     0
  0
VISUALSTYLE
  5
2E
102
{ACAD_REACTORS
330
2A
102
}
102
{ACAD_XDICTIONARY
360
3F2
102
}
330
2A
100
AcDbVisualStyle
  2
GouraudWithEdges
 70
     3
 71
     2
 72
     2
 73
     1
 90
        2
 40
-0.6
 41
30.0
 62
     5
 63
     7
421
 16777215
 74
     1
 91
        4
 64
     7
 65
   257
 75
     1
175
     1
 42
1.0
 92
        0
 66
   257
 43
1.0
 76
     1
 77
     6
 78
     2
 67
     7
 79
     5
170
     0
171
     0
290
     0
174
     0
 93
       13
 44
0.0
173
     0
291
     1
 45
0.0
1001
ACAD
1000
AcDbSavedByObjectVersion
1070
     0
  0
VISUALSTYLE
  5
38
102
{ACAD_REACTORS
330
2A
102
}
102
{ACAD_XDICTIONARY
360
406
102
}
330
2A
100
AcDbVisualStyle
  2
Linepattern
 70
    14
 71
     2
 72
     2
 73
     0
 90
        0
 40
-0.6
 41
-30.0
 62
     5
 63
     7
421
 16777215
 74
     1
 91
        4
 64
     7
 65
   257
 75
     7
175
     7
 42
1.0
 92
        8
 66
     7
 43
1.0
 76
     1
 77
     6
 78
     2
 67
     7
 79
     5
170
     0
171
     0
290
     0
174
     0
 93
        1
 44
0.0
173
     0
291
     1
 45
0.0
1001
ACAD
1000
AcDbSavedByObjectVersion
1070
     0
  0
VISUALSTYLE
  5
33
102
{ACAD_REACTORS
330
2A
102
}
102
{ACAD_XDICTIONARY
360
3FC
102
}
330
2A
100
AcDbVisualStyle
  2
Realistic
 70
     8
 71
     2
 72
     2
 73
     0
 90
        0
 40
-0.6
 41
-30.0
 62
     5
 63
     7
421
 16777215
 74
     1
 91
        0
 64
     7
 65
   257
 75
     1
175
     1
 42
1.0
 92
        8
 66
     8
424
  7895160
 43
1.0
 76
     1
 77
     6
 78
     2
 67
     7
 79
     5
170
     0
171
     0
290
     0
174
     0
 93
       13
 44
0.0
173
     0
291
     0
 45
0.0
1001
ACAD
1000
AcDbSavedByObjectVersion
1070
     0
  0
VISUALSTYLE
  5
37
102
{ACAD_REACTORS
330
2A
102
}
102
{ACAD_XDICTIONARY
360
404
102
}
330
2A
100
AcDbVisualStyle
  2
Thicken
 70
    13
 71
     2
 72
     2
 73
     0
 90
        0
 40
-0.6
 41
-30.0
 62
     5
 63
     7
421
 16777215
 74
     1
 91
        4
 64
     7
 65
   257
 75
     1
175
     1
 42
1.0
 92
       12
 66
     7
 43
1.0
 76
     1
 77
     6
 78
     2
 67
     7
 79
     5
170
     0
171
     0
290
     0
174
     0
 93
        1
 44
0.0
173
     0
291
     1
 45
0.0
1001
ACAD
1000
AcDbSavedByObjectVersion
1070
     0
  0
DICTIONARY
  5
40E
330
3D
100
AcDbDictionary
280
     1
281
     1
  3
ACAD_XREC_ROUNDTRIP
360
40F
  0
DICTIONARY
  5
40C
330
3C
100
AcDbDictionary
280
     1
281
     1
  3
ACAD_XREC_ROUNDTRIP
360
40D
  0
DICTIONARY
  5
410
330
3E
100
AcDbDictionary
280
     1
281
     1
  3
ACAD_XREC_ROUNDTRIP
360
411
  0
DICTIONARY
  5
3F4
330
2F
100
AcDbDictionary
280
     1
281
     1
  3
ACAD_XREC_ROUNDTRIP
360
3F5
  0
DICTIONARY
  5
3F8
330
31
100
AcDbDictionary
280
     1
281
     1
  3
ACAD_XREC_ROUNDTRIP
360
3F9
  0
DICTIONARY
  5
3F6
330
30
100
AcDbDictionary
280
     1
281
     1
  3
ACAD_XREC_ROUNDTRIP
360
3F7
  0
DICTIONARY
  5
3FA
330
32
100
AcDbDictionary
280
     1
281
     1
  3
ACAD_XREC_ROUNDTRIP
360
3FB
  0
DICTIONARY
  5
402
330
36
100
AcDbDictionary
280
     1
281
     1
  3
ACAD_XREC_ROUNDTRIP
360
403
  0
DICTIONARY
  5
40A
330
3A
100
AcDbDictionary
280
     1
281
     1
  3
ACAD_XREC_ROUNDTRIP
360
40B
  0
DICTIONARY
  5
3FE
330
34
100
AcDbDictionary
280
     1
281
     1
  3
ACAD_XREC_ROUNDTRIP
360
3FF
  0
DICTIONARY
  5
400
330
35
100
AcDbDictionary
280
     1
281
     1
  3
ACAD_XREC_ROUNDTRIP
360
401
  0
DICTIONARY
  5
408
330
39
100
AcDbDictionary
280
     1
281
     1
  3
ACAD_XREC_ROUNDTRIP
360
409
  0
DICTIONARY
  5
3EC
330
2B
100
AcDbDictionary
280
     1
281
     1
  3
ACAD_XREC_ROUNDTRIP
360
3ED
  0
DICTIONARY
  5
3EE
330
2C
100
AcDbDictionary
280
     1
281
     1
  3
ACAD_XREC_ROUNDTRIP
360
3EF
  0
DICTIONARY
  5
3F0
330
2D
100
AcDbDictionary
280
     1
281
     1
  3
ACAD_XREC_ROUNDTRIP
360
3F1
  0
DICTIONARY
  5
3F2
330
2E
100
AcDbDictionary
280
     1
281
     1
  3
ACAD_XREC_ROUNDTRIP
360
3F3
  0
DICTIONARY
  5
406
330
38
100
AcDbDictionary
280
     1
281
     1
  3
ACAD_XREC_ROUNDTRIP
360
407
  0
DICTIONARY
  5
3FC
330
33
100
AcDbDictionary
280
     1
281
     1
  3
ACAD_XREC_ROUNDTRIP
360
3FD
  0
DICTIONARY
  5
404
330
37
100
AcDbDictionary
280
     1
281
     1
  3
ACAD_XREC_ROUNDTRIP
360
405
  0
XRECORD
  5
40F
102
{ACAD_REACTORS
330
40E
102
}
330
40E
100
AcDbXrecord
280
     1
102
MATERIAL
148
0.0
149
0.0
149
0.0
 93
        0
 94
      127
282
     0
 72
     1
 77
     1
171
     1
175
     1
179
     1
273
     0
  0
XRECORD
  5
40D
102
{ACAD_REACTORS
330
40C
102
}
330
40C
100
AcDbXrecord
280
     1
102
MATERIAL
148
0.0
149
0.0
149
0.0
 93
        0
 94
      127
282
     0
 72
     1
 77
     1
171
     1
175
     1
179
     1
273
     0
  0
XRECORD
  5
411
102
{ACAD_REACTORS
330
410
102
}
330
410
100
AcDbXrecord
280
     1
102
MATERIAL
148
0.0
149
0.0
149
0.0
 93
        0
 94
      127
282
     0
 72
     1
 77
     1
171
     1
175
     1
179
     1
273
     0
  0
XRECORD
  5
3F5
102
{ACAD_REACTORS
330
3F4
102
}
330
3F4
100
AcDbXrecord
280
     1
102
RTVSPropertyOp0
 70
     1
102
RTVSPropertyOp1
 70
     1
102
RTVSPropertyOp2
 70
     1
102
RTVSPropertyOp3
 70
     1
102
RTVSPropertyOp4
 70
     1
102
RTVSPropertyOp5
 70
     1
102
RTVSPropertyOp6
 70
     1
102
RTVSPropertyOp7
 70
     1
102
RTVSPropertyOp8
 70
     1
102
RTVSPropertyOp9
 70
     1
102
RTVSPropertyOp10
 70
     1
102
RTVSPropertyOp11
 70
     1
102
RTVSPropertyOp12
 70
     1
102
RTVSPropertyOp13
 70
     1
102
RTVSPropertyOp14
 70
     1
102
RTVSPropertyOp15
 70
     1
102
RTVSPropertyOp16
 70
     1
102
RTVSPropertyOp17
 70
     1
102
RTVSPropertyOp18
 70
     1
102
RTVSPropertyOp19
 70
     1
102
RTVSPropertyOp20
 70
     1
102
RTVSPropertyOp21
 70
     1
102
RTVSPropertyOp22
 70
     1
102
RTVSPropertyOp23
 70
     1
102
RTVSPropertyOp24
 70
     1
102
RTVSPropertyOp25
 70
     1
102
RTVSPropertyOp26
 70
     1
102
RTVSPropertyOp27
 70
     1
102
RTVSPropertyOp28
 70
     1
102
RTVSPropertyOp29
 70
     1
102
RTVSPropertyOp30
 70
     1
102
RTVSPropertyOp31
 70
     1
102
RTVSPropertyOp32
 70
     1
  0
XRECORD
  5
3F9
102
{ACAD_REACTORS
330
3F8
102
}
330
3F8
100
AcDbXrecord
280
     1
102
RTVSPropertyOp0
 70
     1
102
RTVSPropertyOp1
 70
     1
102
RTVSPropertyOp2
 70
     1
102
RTVSPropertyOp3
 70
     1
102
RTVSPropertyOp4
 70
     1
102
RTVSPropertyOp5
 70
     1
102
RTVSPropertyOp6
 70
     1
102
RTVSPropertyOp7
 70
     1
102
RTVSPropertyOp8
 70
     1
102
RTVSPropertyOp9
 70
     1
102
RTVSPropertyOp10
 70
     1
102
RTVSPropertyOp11
 70
     1
102
RTVSPropertyOp12
 70
     1
102
RTVSPropertyOp13
 70
     1
102
RTVSPropertyOp14
 70
     1
102
RTVSPropertyOp15
 70
     1
102
RTVSPropertyOp16
 70
     1
102
RTVSPropertyOp17
 70
     1
102
RTVSPropertyOp18
 70
     1
102
RTVSPropertyOp19
 70
     1
102
RTVSPropertyOp20
 70
     1
102
RTVSPropertyOp21
 70
     1
102
RTVSPropertyOp22
 70
     1
102
RTVSPropertyOp23
 70
     1
102
RTVSPropertyOp24
 70
     1
102
RTVSPropertyOp25
 70
     1
102
RTVSPropertyOp26
 70
     1
102
RTVSPropertyOp27
 70
     1
102
RTVSPropertyOp28
 70
     1
102
RTVSPropertyOp29
 70
     1
102
RTVSPropertyOp30
 70
     1
102
RTVSPropertyOp31
 70
     1
102
RTVSPropertyOp32
 70
     1
  0
XRECORD
  5
3F7
102
{ACAD_REACTORS
330
3F6
102
}
330
3F6
100
AcDbXrecord
280
     1
102
RTVSPropertyOp0
 70
     1
102
RTVSPropertyOp1
 70
     1
102
RTVSPropertyOp2
 70
     1
102
RTVSPropertyOp3
 70
     1
102
RTVSPropertyOp4
 70
     1
102
RTVSPropertyOp5
 70
     1
102
RTVSPropertyOp6
 70
     1
102
RTVSPropertyOp7
 70
     1
102
RTVSPropertyOp8
 70
     1
102
RTVSPropertyOp9
 70
     1
102
RTVSPropertyOp10
 70
     1
102
RTVSPropertyOp11
 70
     1
102
RTVSPropertyOp12
 70
     1
102
RTVSPropertyOp13
 70
     1
102
RTVSPropertyOp14
 70
     1
102
RTVSPropertyOp15
 70
     1
102
RTVSPropertyOp16
 70
     1
102
RTVSPropertyOp17
 70
     1
102
RTVSPropertyOp18
 70
     1
102
RTVSPropertyOp19
 70
     1
102
RTVSPropertyOp20
 70
     1
102
RTVSPropertyOp21
 70
     1
102
RTVSPropertyOp22
 70
     1
102
RTVSPropertyOp23
 70
     1
102
RTVSPropertyOp24
 70
     1
102
RTVSPropertyOp25
 70
     1
102
RTVSPropertyOp26
 70
     1
102
RTVSPropertyOp27
 70
     1
102
RTVSPropertyOp28
 70
     1
102
RTVSPropertyOp29
 70
     1
102
RTVSPropertyOp30
 70
     1
102
RTVSPropertyOp31
 70
     1
102
RTVSPropertyOp32
 70
     1
  0
XRECORD
  5
3FB
102
{ACAD_REACTORS
330
3FA
102
}
330
3FA
100
AcDbXrecord
280
     1
102
RTVSPropertyOp0
 70
     1
102
RTVSPropertyOp1
 70
     1
102
RTVSPropertyOp2
 70
     1
102
RTVSPropertyOp3
 70
     1
102
RTVSPropertyOp4
 70
     1
102
RTVSPropertyOp5
 70
     1
102
RTVSPropertyOp6
 70
     1
102
RTVSPropertyOp7
 70
     1
102
RTVSPropertyOp8
 70
     1
102
RTVSPropertyOp9
 70
     1
102
RTVSPropertyOp10
 70
     1
102
RTVSPropertyOp11
 70
     1
102
RTVSPropertyOp12
 70
     1
102
RTVSPropertyOp13
 70
     1
102
RTVSPropertyOp14
 70
     1
102
RTVSPropertyOp15
 70
     1
102
RTVSPropertyOp16
 70
     1
102
RTVSPropertyOp17
 70
     1
102
RTVSPropertyOp18
 70
     1
102
RTVSPropertyOp19
 70
     1
102
RTVSPropertyOp20
 70
     1
102
RTVSPropertyOp21
 70
     1
102
RTVSPropertyOp22
 70
     1
102
RTVSPropertyOp23
 70
     1
102
RTVSPropertyOp24
 70
     1
102
RTVSPropertyOp25
 70
     1
102
RTVSPropertyOp26
 70
     1
102
RTVSPropertyOp27
 70
     1
102
RTVSPropertyOp28
 70
     1
102
RTVSPropertyOp29
 70
     1
102
RTVSPropertyOp30
 70
     1
102
RTVSPropertyOp31
 70
     1
102
RTVSPropertyOp32
 70
     1
  0
XRECORD
  5
403
102
{ACAD_REACTORS
330
402
102
}
330
402
100
AcDbXrecord
280
     1
102
RTVSPropertyOp0
 70
     1
102
RTVSPropertyOp1
 70
     1
102
RTVSPropertyOp2
 70
     1
102
RTVSPropertyOp3
 70
     1
102
RTVSPropertyOp4
 70
     1
102
RTVSPropertyOp5
 70
     1
102
RTVSPropertyOp6
 70
     1
102
RTVSPropertyOp7
 70
     1
102
RTVSPropertyOp8
 70
     1
102
RTVSPropertyOp9
 70
     1
102
RTVSPropertyOp10
 70
     1
102
RTVSPropertyOp11
 70
     1
102
RTVSPropertyOp12
 70
     1
102
RTVSPropertyOp13
 70
     1
102
RTVSPropertyOp14
 70
     1
102
RTVSPropertyOp15
 70
     1
102
RTVSPropertyOp16
 70
     1
102
RTVSPropertyOp17
 70
     1
102
RTVSPropertyOp18
 70
     1
102
RTVSPropertyOp19
 70
     1
102
RTVSPropertyOp20
 70
     1
102
RTVSPropertyOp21
 70
     1
102
RTVSPropertyOp22
 70
     1
102
RTVSPropertyOp23
 70
     1
102
RTVSPropertyOp24
 70
     1
102
RTVSPropertyOp25
 70
     1
102
RTVSPropertyOp26
 70
     1
102
RTVSPropertyOp27
 70
     1
102
RTVSPropertyOp28
 70
     1
102
RTVSPropertyOp29
 70
     1
102
RTVSPropertyOp30
 70
     1
102
RTVSPropertyOp31
 70
     1
102
RTVSPropertyOp32
 70
     1
  0
XRECORD
  5
40B
102
{ACAD_REACTORS
330
40A
102
}
330
40A
100
AcDbXrecord
280
     1
102
RTVSPropertyOp0
 70
     1
102
RTVSPropertyOp1
 70
     1
102
RTVSPropertyOp2
 70
     1
102
RTVSPropertyOp3
 70
     1
102
RTVSPropertyOp4
 70
     1
102
RTVSPropertyOp5
 70
     1
102
RTVSPropertyOp6
 70
     1
102
RTVSPropertyOp7
 70
     1
102
RTVSPropertyOp8
 70
     1
102
RTVSPropertyOp9
 70
     1
102
RTVSPropertyOp10
 70
     1
102
RTVSPropertyOp11
 70
     1
102
RTVSPropertyOp12
 70
     1
102
RTVSPropertyOp13
 70
     1
102
RTVSPropertyOp14
 70
     1
102
RTVSPropertyOp15
 70
     1
102
RTVSPropertyOp16
 70
     1
102
RTVSPropertyOp17
 70
     1
102
RTVSPropertyOp18
 70
     1
102
RTVSPropertyOp19
 70
     1
102
RTVSPropertyOp20
 70
     1
102
RTVSPropertyOp21
 70
     1
102
RTVSPropertyOp22
 70
     1
102
RTVSPropertyOp23
 70
     1
102
RTVSPropertyOp24
 70
     1
102
RTVSPropertyOp25
 70
     1
102
RTVSPropertyOp26
 70
     1
102
RTVSPropertyOp27
 70
     1
102
RTVSPropertyOp28
 70
     1
102
RTVSPropertyOp29
 70
     1
102
RTVSPropertyOp30
 70
     1
102
RTVSPropertyOp31
 70
     1
102
RTVSPropertyOp32
 70
     1
  0
XRECORD
  5
3FF
102
{ACAD_REACTORS
330
3FE
102
}
330
3FE
100
AcDbXrecord
280
     1
102
RTVSPropertyOp0
 70
     1
102
RTVSPropertyOp1
 70
     1
102
RTVSPropertyOp2
 70
     1
102
RTVSPropertyOp3
 70
     1
102
RTVSPropertyOp4
 70
     1
102
RTVSPropertyOp5
 70
     1
102
RTVSPropertyOp6
 70
     1
102
RTVSPropertyOp7
 70
     1
102
RTVSPropertyOp8
 70
     1
102
RTVSPropertyOp9
 70
     1
102
RTVSPropertyOp10
 70
     1
102
RTVSPropertyOp11
 70
     1
102
RTVSPropertyOp12
 70
     1
102
RTVSPropertyOp13
 70
     1
102
RTVSPropertyOp14
 70
     1
102
RTVSPropertyOp15
 70
     1
102
RTVSPropertyOp16
 70
     1
102
RTVSPropertyOp17
 70
     1
102
RTVSPropertyOp18
 70
     1
102
RTVSPropertyOp19
 70
     1
102
RTVSPropertyOp20
 70
     1
102
RTVSPropertyOp21
 70
     1
102
RTVSPropertyOp22
 70
     1
102
RTVSPropertyOp23
 70
     1
102
RTVSPropertyOp24
 70
     1
102
RTVSPropertyOp25
 70
     1
102
RTVSPropertyOp26
 70
     1
102
RTVSPropertyOp27
 70
     1
102
RTVSPropertyOp28
 70
     1
102
RTVSPropertyOp29
 70
     1
102
RTVSPropertyOp30
 70
     1
102
RTVSPropertyOp31
 70
     1
102
RTVSPropertyOp32
 70
     1
  0
XRECORD
  5
401
102
{ACAD_REACTORS
330
400
102
}
330
400
100
AcDbXrecord
280
     1
102
RTVSPropertyOp0
 70
     1
102
RTVSPropertyOp1
 70
     1
102
RTVSPropertyOp2
 70
     1
102
RTVSPropertyOp3
 70
     1
102
RTVSPropertyOp4
 70
     1
102
RTVSPropertyOp5
 70
     1
102
RTVSPropertyOp6
 70
     1
102
RTVSPropertyOp7
 70
     1
102
RTVSPropertyOp8
 70
     1
102
RTVSPropertyOp9
 70
     1
102
RTVSPropertyOp10
 70
     1
102
RTVSPropertyOp11
 70
     1
102
RTVSPropertyOp12
 70
     1
102
RTVSPropertyOp13
 70
     1
102
RTVSPropertyOp14
 70
     1
102
RTVSPropertyOp15
 70
     1
102
RTVSPropertyOp16
 70
     1
102
RTVSPropertyOp17
 70
     1
102
RTVSPropertyOp18
 70
     1
102
RTVSPropertyOp19
 70
     1
102
RTVSPropertyOp20
 70
     1
102
RTVSPropertyOp21
 70
     1
102
RTVSPropertyOp22
 70
     1
102
RTVSPropertyOp23
 70
     1
102
RTVSPropertyOp24
 70
     1
102
RTVSPropertyOp25
 70
     1
102
RTVSPropertyOp26
 70
     1
102
RTVSPropertyOp27
 70
     1
102
RTVSPropertyOp28
 70
     1
102
RTVSPropertyOp29
 70
     1
102
RTVSPropertyOp30
 70
     1
102
RTVSPropertyOp31
 70
     1
102
RTVSPropertyOp32
 70
     1
  0
XRECORD
  5
409
102
{ACAD_REACTORS
330
408
102
}
330
408
100
AcDbXrecord
280
     1
102
RTVSPropertyOp0
 70
     1
102
RTVSPropertyOp1
 70
     1
102
RTVSPropertyOp2
 70
     1
102
RTVSPropertyOp3
 70
     1
102
RTVSPropertyOp4
 70
     1
102
RTVSPropertyOp5
 70
     1
102
RTVSPropertyOp6
 70
     1
102
RTVSPropertyOp7
 70
     1
102
RTVSPropertyOp8
 70
     1
102
RTVSPropertyOp9
 70
     1
102
RTVSPropertyOp10
 70
     1
102
RTVSPropertyOp11
 70
     1
102
RTVSPropertyOp12
 70
     1
102
RTVSPropertyOp13
 70
     1
102
RTVSPropertyOp14
 70
     1
102
RTVSPropertyOp15
 70
     1
102
RTVSPropertyOp16
 70
     1
102
RTVSPropertyOp17
 70
     1
102
RTVSPropertyOp18
 70
     1
102
RTVSPropertyOp19
 70
     1
102
RTVSPropertyOp20
 70
     1
102
RTVSPropertyOp21
 70
     1
102
RTVSPropertyOp22
 70
     1
102
RTVSPropertyOp23
 70
     1
102
RTVSPropertyOp24
 70
     1
102
RTVSPropertyOp25
 70
     1
102
RTVSPropertyOp26
 70
     1
102
RTVSPropertyOp27
 70
     1
102
RTVSPropertyOp28
 70
     1
102
RTVSPropertyOp29
 70
     1
102
RTVSPropertyOp30
 70
     1
102
RTVSPropertyOp31
 70
     1
102
RTVSPropertyOp32
 70
     1
  0
XRECORD
  5
3ED
102
{ACAD_REACTORS
330
3EC
102
}
330
3EC
100
AcDbXrecord
280
     1
102
RTVSPropertyOp0
 70
     1
102
RTVSPropertyOp1
 70
     1
102
RTVSPropertyOp2
 70
     1
102
RTVSPropertyOp3
 70
     1
102
RTVSPropertyOp4
 70
     1
102
RTVSPropertyOp5
 70
     1
102
RTVSPropertyOp6
 70
     1
102
RTVSPropertyOp7
 70
     1
102
RTVSPropertyOp8
 70
     1
102
RTVSPropertyOp9
 70
     1
102
RTVSPropertyOp10
 70
     1
102
RTVSPropertyOp11
 70
     1
102
RTVSPropertyOp12
 70
     1
102
RTVSPropertyOp13
 70
     1
102
RTVSPropertyOp14
 70
     1
102
RTVSPropertyOp15
 70
     1
102
RTVSPropertyOp16
 70
     1
102
RTVSPropertyOp17
 70
     1
102
RTVSPropertyOp18
 70
     1
102
RTVSPropertyOp19
 70
     1
102
RTVSPropertyOp20
 70
     1
102
RTVSPropertyOp21
 70
     1
102
RTVSPropertyOp22
 70
     1
102
RTVSPropertyOp23
 70
     1
102
RTVSPropertyOp24
 70
     1
102
RTVSPropertyOp25
 70
     1
102
RTVSPropertyOp26
 70
     1
102
RTVSPropertyOp27
 70
     1
102
RTVSPropertyOp28
 70
     1
102
RTVSPropertyOp29
 70
     1
102
RTVSPropertyOp30
 70
     1
102
RTVSPropertyOp31
 70
     1
102
RTVSPropertyOp32
 70
     1
  0
XRECORD
  5
3EF
102
{ACAD_REACTORS
330
3EE
102
}
330
3EE
100
AcDbXrecord
280
     1
102
RTVSPropertyOp0
 70
     1
102
RTVSPropertyOp1
 70
     1
102
RTVSPropertyOp2
 70
     1
102
RTVSPropertyOp3
 70
     1
102
RTVSPropertyOp4
 70
     1
102
RTVSPropertyOp5
 70
     1
102
RTVSPropertyOp6
 70
     1
102
RTVSPropertyOp7
 70
     1
102
RTVSPropertyOp8
 70
     1
102
RTVSPropertyOp9
 70
     1
102
RTVSPropertyOp10
 70
     1
102
RTVSPropertyOp11
 70
     1
102
RTVSPropertyOp12
 70
     1
102
RTVSPropertyOp13
 70
     1
102
RTVSPropertyOp14
 70
     1
102
RTVSPropertyOp15
 70
     1
102
RTVSPropertyOp16
 70
     1
102
RTVSPropertyOp17
 70
     1
102
RTVSPropertyOp18
 70
     1
102
RTVSPropertyOp19
 70
     1
102
RTVSPropertyOp20
 70
     1
102
RTVSPropertyOp21
 70
     1
102
RTVSPropertyOp22
 70
     1
102
RTVSPropertyOp23
 70
     1
102
RTVSPropertyOp24
 70
     1
102
RTVSPropertyOp25
 70
     1
102
RTVSPropertyOp26
 70
     1
102
RTVSPropertyOp27
 70
     1
102
RTVSPropertyOp28
 70
     1
102
RTVSPropertyOp29
 70
     1
102
RTVSPropertyOp30
 70
     1
102
RTVSPropertyOp31
 70
     1
102
RTVSPropertyOp32
 70
     1
  0
XRECORD
  5
3F1
102
{ACAD_REACTORS
330
3F0
102
}
330
3F0
100
AcDbXrecord
280
     1
102
RTVSPropertyOp0
 70
     1
102
RTVSPropertyOp1
 70
     1
102
RTVSPropertyOp2
 70
     1
102
RTVSPropertyOp3
 70
     1
102
RTVSPropertyOp4
 70
     1
102
RTVSPropertyOp5
 70
     1
102
RTVSPropertyOp6
 70
     1
102
RTVSPropertyOp7
 70
     1
102
RTVSPropertyOp8
 70
     1
102
RTVSPropertyOp9
 70
     1
102
RTVSPropertyOp10
 70
     1
102
RTVSPropertyOp11
 70
     1
102
RTVSPropertyOp12
 70
     1
102
RTVSPropertyOp13
 70
     1
102
RTVSPropertyOp14
 70
     1
102
RTVSPropertyOp15
 70
     1
102
RTVSPropertyOp16
 70
     1
102
RTVSPropertyOp17
 70
     1
102
RTVSPropertyOp18
 70
     1
102
RTVSPropertyOp19
 70
     1
102
RTVSPropertyOp20
 70
     1
102
RTVSPropertyOp21
 70
     1
102
RTVSPropertyOp22
 70
     1
102
RTVSPropertyOp23
 70
     1
102
RTVSPropertyOp24
 70
     1
102
RTVSPropertyOp25
 70
     1
102
RTVSPropertyOp26
 70
     1
102
RTVSPropertyOp27
 70
     1
102
RTVSPropertyOp28
 70
     1
102
RTVSPropertyOp29
 70
     1
102
RTVSPropertyOp30
 70
     1
102
RTVSPropertyOp31
 70
     1
102
RTVSPropertyOp32
 70
     1
  0
XRECORD
  5
3F3
102
{ACAD_REACTORS
330
3F2
102
}
330
3F2
100
AcDbXrecord
280
     1
102
RTVSPropertyOp0
 70
     1
102
RTVSPropertyOp1
 70
     1
102
RTVSPropertyOp2
 70
     1
102
RTVSPropertyOp3
 70
     1
102
RTVSPropertyOp4
 70
     1
102
RTVSPropertyOp5
 70
     1
102
RTVSPropertyOp6
 70
     1
102
RTVSPropertyOp7
 70
     1
102
RTVSPropertyOp8
 70
     1
102
RTVSPropertyOp9
 70
     1
102
RTVSPropertyOp10
 70
     1
102
RTVSPropertyOp11
 70
     1
102
RTVSPropertyOp12
 70
     1
102
RTVSPropertyOp13
 70
     1
102
RTVSPropertyOp14
 70
     1
102
RTVSPropertyOp15
 70
     1
102
RTVSPropertyOp16
 70
     1
102
RTVSPropertyOp17
 70
     1
102
RTVSPropertyOp18
 70
     1
102
RTVSPropertyOp19
 70
     1
102
RTVSPropertyOp20
 70
     1
102
RTVSPropertyOp21
 70
     1
102
RTVSPropertyOp22
 70
     1
102
RTVSPropertyOp23
 70
     1
102
RTVSPropertyOp24
 70
     1
102
RTVSPropertyOp25
 70
     1
102
RTVSPropertyOp26
 70
     1
102
RTVSPropertyOp27
 70
     1
102
RTVSPropertyOp28
 70
     1
102
RTVSPropertyOp29
 70
     1
102
RTVSPropertyOp30
 70
     1
102
RTVSPropertyOp31
 70
     1
102
RTVSPropertyOp32
 70
     1
  0
XRECORD
  5
407
102
{ACAD_REACTORS
330
406
102
}
330
406
100
AcDbXrecord
280
     1
102
RTVSPropertyOp0
 70
     1
102
RTVSPropertyOp1
 70
     1
102
RTVSPropertyOp2
 70
     1
102
RTVSPropertyOp3
 70
     1
102
RTVSPropertyOp4
 70
     1
102
RTVSPropertyOp5
 70
     1
102
RTVSPropertyOp6
 70
     1
102
RTVSPropertyOp7
 70
     1
102
RTVSPropertyOp8
 70
     1
102
RTVSPropertyOp9
 70
     1
102
RTVSPropertyOp10
 70
     1
102
RTVSPropertyOp11
 70
     1
102
RTVSPropertyOp12
 70
     1
102
RTVSPropertyOp13
 70
     1
102
RTVSPropertyOp14
 70
     1
102
RTVSPropertyOp15
 70
     1
102
RTVSPropertyOp16
 70
     1
102
RTVSPropertyOp17
 70
     1
102
RTVSPropertyOp18
 70
     1
102
RTVSPropertyOp19
 70
     1
102
RTVSPropertyOp20
 70
     1
102
RTVSPropertyOp21
 70
     1
102
RTVSPropertyOp22
 70
     1
102
RTVSPropertyOp23
 70
     1
102
RTVSPropertyOp24
 70
     1
102
RTVSPropertyOp25
 70
     1
102
RTVSPropertyOp26
 70
     1
102
RTVSPropertyOp27
 70
     1
102
RTVSPropertyOp28
 70
     1
102
RTVSPropertyOp29
 70
     1
102
RTVSPropertyOp30
 70
     1
102
RTVSPropertyOp31
 70
     1
102
RTVSPropertyOp32
 70
     1
  0
XRECORD
  5
3FD
102
{ACAD_REACTORS
330
3FC
102
}
330
3FC
100
AcDbXrecord
280
     1
102
RTVSPropertyOp0
 70
     1
102
RTVSPropertyOp1
 70
     1
102
RTVSPropertyOp2
 70
     1
102
RTVSPropertyOp3
 70
     1
102
RTVSPropertyOp4
 70
     1
102
RTVSPropertyOp5
 70
     1
102
RTVSPropertyOp6
 70
     1
102
RTVSPropertyOp7
 70
     1
102
RTVSPropertyOp8
 70
     1
102
RTVSPropertyOp9
 70
     1
102
RTVSPropertyOp10
 70
     1
102
RTVSPropertyOp11
 70
     1
102
RTVSPropertyOp12
 70
     1
102
RTVSPropertyOp13
 70
     1
102
RTVSPropertyOp14
 70
     1
102
RTVSPropertyOp15
 70
     1
102
RTVSPropertyOp16
 70
     1
102
RTVSPropertyOp17
 70
     1
102
RTVSPropertyOp18
 70
     1
102
RTVSPropertyOp19
 70
     1
102
RTVSPropertyOp20
 70
     1
102
RTVSPropertyOp21
 70
     1
102
RTVSPropertyOp22
 70
     1
102
RTVSPropertyOp23
 70
     1
102
RTVSPropertyOp24
 70
     1
102
RTVSPropertyOp25
 70
     1
102
RTVSPropertyOp26
 70
     1
102
RTVSPropertyOp27
 70
     1
102
RTVSPropertyOp28
 70
     1
102
RTVSPropertyOp29
 70
     1
102
RTVSPropertyOp30
 70
     1
102
RTVSPropertyOp31
 70
     1
102
RTVSPropertyOp32
 70
     1
  0
XRECORD
  5
405
102
{ACAD_REACTORS
330
404
102
}
330
404
100
AcDbXrecord
280
     1
102
RTVSPropertyOp0
 70
     1
102
RTVSPropertyOp1
 70
     1
102
RTVSPropertyOp2
 70
     1
102
RTVSPropertyOp3
 70
     1
102
RTVSPropertyOp4
 70
     1
102
RTVSPropertyOp5
 70
     1
102
RTVSPropertyOp6
 70
     1
102
RTVSPropertyOp7
 70
     1
102
RTVSPropertyOp8
 70
     1
102
RTVSPropertyOp9
 70
     1
102
RTVSPropertyOp10
 70
     1
102
RTVSPropertyOp11
 70
     1
102
RTVSPropertyOp12
 70
     1
102
RTVSPropertyOp13
 70
     1
102
RTVSPropertyOp14
 70
     1
102
RTVSPropertyOp15
 70
     1
102
RTVSPropertyOp16
 70
     1
102
RTVSPropertyOp17
 70
     1
102
RTVSPropertyOp18
 70
     1
102
RTVSPropertyOp19
 70
     1
102
RTVSPropertyOp20
 70
     1
102
RTVSPropertyOp21
 70
     1
102
RTVSPropertyOp22
 70
     1
102
RTVSPropertyOp23
 70
     1
102
RTVSPropertyOp24
 70
     1
102
RTVSPropertyOp25
 70
     1
102
RTVSPropertyOp26
 70
     1
102
RTVSPropertyOp27
 70
     1
102
RTVSPropertyOp28
 70
     1
102
RTVSPropertyOp29
 70
     1
102
RTVSPropertyOp30
 70
     1
102
RTVSPropertyOp31
 70
     1
102
RTVSPropertyOp32
 70
     1
  0
ENDSEC
  0
EOF
