  0
SECTION
  2
HEADER
  9
$ACADVER
  1
AC1018
  9
$ACADMAINTVER
 70
     0
  9
$DWGCODEPAGE
  3
ANSI_932
  9
$INSBASE
 10
0.0
 20
0.0
 30
0.0
  9
$EXTMIN
 10
-105.0
 20
-148.5
 30
0.0
  9
$EXTMAX
 10
105.0
 20
148.5
 30
0.0
  9
$LIMMIN
 10
-105.0
 20
-148.5
  9
$LIMMAX
 10
105.0
 20
148.5
  9
$ORTHOMODE
 70
     0
  9
$REGENMODE
 70
     1
  9
$FILLMODE
 70
     1
  9
$QTEXTMODE
 70
     0
  9
$MIRRTEXT
 70
     1
  9
$LTSCALE
 40
1.0
  9
$ATTMODE
 70
     1
  9
$TEXTSIZE
 40
2.5
  9
$TRACEWID
 40
1.0
  9
$TEXTSTYLE
  7
Standard
  9
$CLAYER
  8
0
  9
$CELTYPE
  6
ByLayer
  9
$CECOLOR
 62
   256
  9
$CELTSCALE
 40
1.0
  9
$DISPSILH
 70
     0
  9
$DIMSCALE
 40
1.0
  9
$DIMASZ
 40
2.5
  9
$DIMEXO
 40
0.625
  9
$DIMDLI
 40
3.75
  9
$DIMRND
 40
0.0
  9
$DIMDLE
 40
0.0
  9
$DIMEXE
 40
1.25
  9
$DIMTP
 40
0.0
  9
$DIMTM
 40
0.0
  9
$DIMTXT
 40
2.5
  9
$DIMCEN
 40
2.5
  9
$DIMTSZ
 40
0.0
  9
$DIMTOL
 70
     0
  9
$DIMLIM
 70
     0
  9
$DIMTIH
 70
     0
  9
$DIMTOH
 70
     0
  9
$DIMSE1
 70
     0
  9
$DIMSE2
 70
     0
  9
$DIMTAD
 70
     1
  9
$DIMZIN
 70
     8
  9
$DIMBLK
  1

  9
$DIMASO
 70
     1
  9
$DIMSHO
 70
     1
  9
$DIMPOST
  1

  9
$DIMAPOST
  1

  9
$DIMALT
 70
     0
  9
$DIMALTD
 70
     3
  9
$DIMALTF
 40
0.03937007874016
  9
$DIMLFAC
 40
1.0
  9
$DIMTOFL
 70
     1
  9
$DIMTVP
 40
0.0
  9
$DIMTIX
 70
     0
  9
$DIMSOXD
 70
     0
  9
$DIMSAH
 70
     0
  9
$DIMBLK1
  1

  9
$DIMBLK2
  1

  9
$DIMSTYLE
  2
ISO-25
  9
$DIMCLRD
 70
     0
  9
$DIMCLRE
 70
     0
  9
$DIMCLRT
 70
     0
  9
$DIMTFAC
 40
1.0
  9
$DIMGAP
 40
0.625
  9
$DIMJUST
 70
     0
  9
$DIMSD1
 70
     0
  9
$DIMSD2
 70
     0
  9
$DIMTOLJ
 70
     0
  9
$DIMTZIN
 70
     8
  9
$DIMALTZ
 70
     0
  9
$DIMALTTZ
 70
     0
  9
$DIMUPT
 70
     0
  9
$DIMDEC
 70
     2
  9
$DIMTDEC
 70
     2
  9
$DIMALTU
 70
     2
  9
$DIMALTTD
 70
     3
  9
$DIMTXSTY
  7
Standard
  9
$DIMAUNIT
 70
     0
  9
$DIMADEC
 70
     0
  9
$DIMALTRND
 40
0.0
  9
$DIMAZIN
 70
     0
  9
$DIMDSEP
 70
    44
  9
$DIMATFIT
 70
     3
  9
$DIMFRAC
 70
     0
  9
$DIMLDRBLK
  1

  9
$DIMLUNIT
 70
     2
  9
$DIMLWD
 70
    -2
  9
$DIMLWE
 70
    -2
  9
$DIMTMOVE
 70
     0
  9
$LUNITS
 70
     2
  9
$LUPREC
 70
     4
  9
$SKETCHINC
 40
1.0
  9
$FILLETRAD
 40
10.0
  9
$AUNITS
 70
     0
  9
$AUPREC
 70
     0
  9
$MENU
  1
.
  9
$ELEVATION
 40
0.0
  9
$PELEVATION
 40
0.0
  9
$THICKNESS
 40
0.0
  9
$LIMCHECK
 70
     0
  9
$CHAMFERA
 40
10.0
  9
$CHAMFERB
 40
10.0
  9
$CHAMFERC
 40
20.0
  9
$CHAMFERD
 40
0.0
  9
$SKPOLY
 70
     0
  9
$TDCREATE
 40
2457284.828352754
  9
$TDUCREATE
 40
2457284.453352754
  9
$TDUPDATE
 40
2457284.828353681
  9
$TDUUPDATE
 40
2457284.453353681
  9
$TDINDWG
 40
0.0000000116
  9
$TDUSRTIMER
 40
0.0000000116
  9
$USRTIMER
 70
     1
  9
$ANGBASE
 50
0.0
  9
$ANGDIR
 70
     0
  9
$PDMODE
 70
     0
  9
$PDSIZE
 40
0.0
  9
$PLINEWID
 40
0.0
  9
$SPLFRAME
 70
     0
  9
$SPLINETYPE
 70
     6
  9
$SPLINESEGS
 70
     8
  9
$HANDSEED
  5
839
  9
$SURFTAB1
 70
     6
  9
$SURFTAB2
 70
     6
  9
$SURFTYPE
 70
     6
  9
$SURFU
 70
     6
  9
$SURFV
 70
     6
  9
$UCSBASE
  2

  9
$UCSNAME
  2

  9
$UCSORG
 10
0.0
 20
0.0
 30
0.0
  9
$UCSXDIR
 10
1.0
 20
0.0
 30
0.0
  9
$UCSYDIR
 10
0.0
 20
1.0
 30
0.0
  9
$UCSORTHOREF
  2

  9
$UCSORTHOVIEW
 70
     0
  9
$UCSORGTOP
 10
0.0
 20
0.0
 30
0.0
  9
$UCSORGBOTTOM
 10
0.0
 20
0.0
 30
0.0
  9
$UCSORGLEFT
 10
0.0
 20
0.0
 30
0.0
  9
$UCSORGRIGHT
 10
0.0
 20
0.0
 30
0.0
  9
$UCSORGFRONT
 10
0.0
 20
0.0
 30
0.0
  9
$UCSORGBACK
 10
0.0
 20
0.0
 30
0.0
  9
$PUCSBASE
  2

  9
$PUCSNAME
  2

  9
$PUCSORG
 10
0.0
 20
0.0
 30
0.0
  9
$PUCSXDIR
 10
1.0
 20
0.0
 30
0.0
  9
$PUCSYDIR
 10
0.0
 20
1.0
 30
0.0
  9
$PUCSORTHOREF
  2

  9
$PUCSORTHOVIEW
 70
     0
  9
$PUCSORGTOP
 10
0.0
 20
0.0
 30
0.0
  9
$PUCSORGBOTTOM
 10
0.0
 20
0.0
 30
0.0
  9
$PUCSORGLEFT
 10
0.0
 20
0.0
 30
0.0
  9
$PUCSORGRIGHT
 10
0.0
 20
0.0
 30
0.0
  9
$PUCSORGFRONT
 10
0.0
 20
0.0
 30
0.0
  9
$PUCSORGBACK
 10
0.0
 20
0.0
 30
0.0
  9
$USERI1
 70
     0
  9
$USERI2
 70
     0
  9
$USERI3
 70
     0
  9
$USERI4
 70
     0
  9
$USERI5
 70
     0
  9
$USERR1
 40
0.0
  9
$USERR2
 40
0.0
  9
$USERR3
 40
0.0
  9
$USERR4
 40
0.0
  9
$USERR5
 40
0.0
  9
$WORLDVIEW
 70
     1
  9
$SHADEDGE
 70
     3
  9
$SHADEDIF
 70
    70
  9
$TILEMODE
 70
     1
  9
$MAXACTVP
 70
    64
  9
$PINSBASE
 10
0.0
 20
0.0
 30
0.0
  9
$PLIMCHECK
 70
     0
  9
$PEXTMIN
 10
1.000000000000000E+20
 20
1.000000000000000E+20
 30
1.000000000000000E+20
  9
$PEXTMAX
 10
-1.000000000000000E+20
 20
-1.000000000000000E+20
 30
-1.000000000000000E+20
  9
$PLIMMIN
 10
-105.0
 20
-148.5
  9
$PLIMMAX
 10
105.0
 20
148.5
  9
$UNITMODE
 70
     0
  9
$VISRETAIN
 70
     1
  9
$PLINEGEN
 70
     0
  9
$PSLTSCALE
 70
     1
  9
$TREEDEPTH
 70
  3020
  9
$CMLSTYLE
  2
Standard
  9
$CMLJUST
 70
     0
  9
$CMLSCALE
 40
20.0
  9
$PROXYGRAPHICS
 70
     1
  9
$MEASUREMENT
 70
     1
  9
$CELWEIGHT
370
    -1
  9
$ENDCAPS
280
     0
  9
$JOINSTYLE
280
     0
  9
$LWDISPLAY
290
     0
  9
$INSUNITS
 70
     4
  9
$HYPERLINKBASE
  1

  9
$STYLESHEET
  1

  9
$XEDIT
290
     1
  9
$CEPSNTYPE
380
     0
  9
$PSTYLEMODE
290
     1
  9
$FINGERPRINTGUID
  2
{AFA719A1-EA38-45FD-9E93-96E9E0370D15}
  9
$VERSIONGUID
  2
{FAEB1C32-E019-11D5-929B-00C0DF256EC4}
  9
$EXTNAMES
290
     1
  9
$PSVPSCALE
 40
0.0
  9
$OLESTARTUP
290
     0
  9
$SORTENTS
280
   127
  9
$INDEXCTL
280
     0
  9
$HIDETEXT
280
     1
  9
$XCLIPFRAME
290
     0
  9
$HALOGAP
280
     0
  9
$OBSCOLOR
 70
   257
  9
$OBSLTYPE
280
     0
  9
$INTERSECTIONDISPLAY
280
     0
  9
$INTERSECTIONCOLOR
 70
   257
  9
$DIMASSOC
280
     2
  9
$PROJECTNAME
  1

  0
ENDSEC
  0
SECTION
  2
CLASSES
  0
CLASS
  1
ACDBDICTIONARYWDFLT
  2
AcDbDictionaryWithDefault
  3
ObjectDBX Classes
 90
        0
 91
        4
280
     0
281
     0
  0
CLASS
  1
VISUALSTYLE
  2
AcDbVisualStyle
  3
ObjectDBX Classes
 90
     4095
 91
        4
280
     0
281
     0
  0
CLASS
  1
MATERIAL
  2
AcDbMaterial
  3
ObjectDBX Classes
 90
     1153
 91
        4
280
     0
281
     0
  0
CLASS
  1
SUN
  2
AcDbSun
  3
SCENEOE
 90
     1024
 91
        4
280
     0
281
     0
  0
ENDSEC
  0
SECTION
  2
TABLES
  0
TABLE
  2
VPORT
  5
8
330
0
100
AcDbSymbolTable
 70
     1
  0
VPORT
  5
29
330
8
100
AcDbSymbolTableRecord
100
AcDbViewportTableRecord
  2
*Active
 70
     0
 10
0.0
 20
0.0
 11
1.0
 21
1.0
 12
344.1869158878504
 22
148.5
 13
0.0
 23
0.0
 14
10.0
 24
10.0
 15
10.0
 25
10.0
 16
0.0
 26
0.0
 36
1.0
 17
0.0
 27
0.0
 37
0.0
 40
297.0
 41
1.972972972850329
 42
50.0
 43
0.0
 44
0.0
 50
0.0
 51
0.0
 71
     0
 72
   100
 73
     1
 74
     3
 75
     0
 76
     0
 77
     0
 78
     0
281
     0
 65
     1
110
0.0
120
0.0
130
0.0
111
1.0
121
0.0
131
0.0
112
0.0
122
1.0
132
0.0
 79
     0
146
0.0
  0
ENDTAB
  0
TABLE
  2
LTYPE
  5
5
330
0
100
AcDbSymbolTable
 70
     5
  0
LTYPE
  5
14
330
5
100
AcDbSymbolTableRecord
100
AcDbLinetypeTableRecord
  2
ByBlock
 70
     0
  3

 72
    65
 73
     0
 40
0.0
  0
LTYPE
  5
15
330
5
100
AcDbSymbolTableRecord
100
AcDbLinetypeTableRecord
  2
ByLayer
 70
     0
  3

 72
    65
 73
     0
 40
0.0
  0
LTYPE
  5
16
330
5
100
AcDbSymbolTableRecord
100
AcDbLinetypeTableRecord
  2
Continuous
 70
     0
  3
Solid line
 72
    65
 73
     0
 40
0.0
  0
LTYPE
  5
40
330
5
100
AcDbSymbolTableRecord
100
AcDbLinetypeTableRecord
  2
CONTINOUS
 70
     0
  3
______________________________
 72
    65
 73
     0
 40
0.0
  0
LTYPE
  5
41
330
5
100
AcDbSymbolTableRecord
100
AcDbLinetypeTableRecord
  2
DASHED
 70
     0
  3
__ __ __ __ __ __ __ __ __ __ __ __ __ __ __ __
 72
    65
 73
     2
 40
4.5
 49
3.0
 74
     0
 49
-1.5
 74
     0
  0
LTYPE
  5
42
330
5
100
AcDbSymbolTableRecord
100
AcDbLinetypeTableRecord
  2
PHANTOM
 70
     0
  3
______  __  __  ______  __  __  _____
 72
    65
 73
     6
 40
15.0
 49
7.5
 74
     0
 49
-1.5
 74
     0
 49
1.5
 74
     0
 49
-1.5
 74
     0
 49
1.5
 74
     0
 49
-1.5
 74
     0
  0
LTYPE
  5
43
330
5
100
AcDbSymbolTableRecord
100
AcDbLinetypeTableRecord
  2
CENTER
 70
     0
  3
____ _ ____ _ ____ _ ____ _ ____ _ ____
 72
    65
 73
     4
 40
12.0
 49
7.5
 74
     0
 49
-1.5
 74
     0
 49
1.5
 74
     0
 49
-1.5
 74
     0
  0
ENDTAB
  0
TABLE
  2
LAYER
  5
2
330
0
100
AcDbSymbolTable
 70
     3
  0
LAYER
  5
10
330
2
100
AcDbSymbolTableRecord
100
AcDbLayerTableRecord
  2
0
 70
     0
 62
     7
  6
Continuous
370
    -3
390
F
  0
LAYER
  5
270
330
2
100
AcDbSymbolTableRecord
100
AcDbLayerTableRecord
  2
Defpoints
 70
     0
 62
     7
  6
Continuous
290
     0
370
    -3
390
F
  0
LAYER
  5
7F9
330
2
100
AcDbSymbolTableRecord
100
AcDbLayerTableRecord
  2
VIEW0001
 70
     0
 62
     7
  6
Continuous
370
    -3
390
F
  0
ENDTAB
  0
TABLE
  2
STYLE
  5
3
330
0
100
AcDbSymbolTable
 70
     1
  0
STYLE
  5
11
330
3
100
AcDbSymbolTableRecord
100
AcDbTextStyleTableRecord
  2
Standard
 70
     0
 40
0.0
 41
1.0
 50
0.0
 71
     0
 42
2.5
  3
ROMANS
  4
BIGFONT
  0
ENDTAB
  0
TABLE
  2
VIEW
  5
6
330
0
100
AcDbSymbolTable
 70
     0
  0
ENDTAB
  0
TABLE
  2
UCS
  5
7
330
0
100
AcDbSymbolTable
 70
     0
  0
ENDTAB
  0
TABLE
  2
APPID
  5
9
330
0
100
AcDbSymbolTable
 70
     1
  0
APPID
  5
12
330
9
100
AcDbSymbolTableRecord
100
AcDbRegAppTableRecord
  2
ACAD
 70
     0
  0
ENDTAB
  0
TABLE
  2
DIMSTYLE
  5
A
330
0
100
AcDbSymbolTable
 70
     1
100
AcDbDimStyleTable
  0
DIMSTYLE
105
27
102
{ACAD_REACTORS
330
269
330
285
330
293
330
2A2
330
2B2
330
2C0
330
2CD
330
2DB
330
2F2
330
2FE
330
30C
330
320
330
333
330
341
330
357
330
363
330
398
330
3A6
330
3B4
330
3C3
330
3EE
330
3FA
330
406
330
412
330
41D
330
433
330
43F
330
44D
330
463
330
472
330
47E
330
489
330
496
330
4AA
330
4C7
330
4D4
330
4E1
330
4F0
330
506
330
513
330
51F
330
52C
330
53A
330
569
330
584
330
595
330
5A1
330
5B9
330
5C8
330
5D8
330
5E4
330
5EF
330
5FA
330
643
330
64E
330
66D
330
680
330
76B
330
778
330
784
330
78F
330
79C
330
7A9
330
7B8
330
7C7
330
7D2
330
7DF
330
7EC
102
}
330
A
100
AcDbSymbolTableRecord
100
AcDbDimStyleTableRecord
  2
ISO-25
 70
     0
 41
2.5
 42
0.625
 43
3.75
 44
1.25
 73
     0
 74
     0
 77
     1
 78
     8
140
2.5
141
2.5
143
0.03937007874016
147
0.625
171
     3
172
     1
178
     0
271
     2
272
     2
274
     3
278
    44
283
     0
284
     8
340
11
  0
ENDTAB
  0
TABLE
  2
BLOCK_RECORD
  5
1
330
0
100
AcDbSymbolTable
 70
    99
  0
BLOCK_RECORD
  5
1F
330
1
100
AcDbSymbolTableRecord
100
AcDbBlockTableRecord
  2
*Model_Space
340
22
  0
BLOCK_RECORD
  5
1B
330
1
100
AcDbSymbolTableRecord
100
AcDbBlockTableRecord
  2
*Paper_Space
340
1E
  0
BLOCK_RECORD
  5
23
330
1
100
AcDbSymbolTableRecord
100
AcDbBlockTableRecord
  2
*Paper_Space0
340
26
  0
BLOCK_RECORD
  5
44
330
1
100
AcDbSymbolTableRecord
100
AcDbBlockTableRecord
  2
DTL0001
340
0
  0
BLOCK_RECORD
  5
47
330
1
100
AcDbSymbolTableRecord
100
AcDbBlockTableRecord
  2
DTL0002
340
0
  0
BLOCK_RECORD
  5
26A
330
1
100
AcDbSymbolTableRecord
100
AcDbBlockTableRecord
  2
_OPEN30
340
0
102
{BLKREFS
331
0
331
0
331
28D
331
28C
331
29B
331
29A
331
2AA
331
2A9
331
2BA
331
2B9
331
2C7
331
2C6
331
2D5
331
2D4
331
0
331
0
331
2F9
331
2F8
331
306
331
305
331
0
331
0
331
0
331
0
331
35E
331
35D
331
0
331
3A0
331
39F
331
0
331
0
331
0
331
3F5
331
3F4
331
401
331
400
331
40D
331
40C
331
0
331
0
331
43A
331
439
331
447
331
446
331
0
331
0
331
0
331
479
331
478
331
484
331
483
331
491
331
490
331
0
331
0
331
0
331
0
331
0
331
0
331
0
331
0
331
50D
331
50C
331
519
331
518
331
526
331
525
331
534
331
533
331
548
331
0
331
0
331
0
331
59C
331
59B
331
0
331
0
331
5DF
331
5DE
331
5EA
331
5E9
331
5F5
331
5F4
331
602
331
601
331
649
331
648
331
0
331
0
331
0
331
0
331
0
331
773
331
772
331
77F
331
77E
331
78A
331
789
331
797
331
796
331
7A4
331
7A3
331
7B1
331
7B0
331
7C0
331
7BF
331
7CD
331
7CC
331
7DA
331
7D9
331
7E7
331
7E6
331
7F4
331
7F3
102
}
  0
BLOCK_RECORD
  5
271
330
1
100
AcDbSymbolTableRecord
100
AcDbBlockTableRecord
  2
*D4
340
0
  0
BLOCK_RECORD
  5
286
330
1
100
AcDbSymbolTableRecord
100
AcDbBlockTableRecord
  2
*D5
340
0
  0
BLOCK_RECORD
  5
294
330
1
100
AcDbSymbolTableRecord
100
AcDbBlockTableRecord
  2
*D6
340
0
  0
BLOCK_RECORD
  5
2A3
330
1
100
AcDbSymbolTableRecord
100
AcDbBlockTableRecord
  2
*D7
340
0
  0
BLOCK_RECORD
  5
2B3
330
1
100
AcDbSymbolTableRecord
100
AcDbBlockTableRecord
  2
*D8
340
0
  0
BLOCK_RECORD
  5
2C1
330
1
100
AcDbSymbolTableRecord
100
AcDbBlockTableRecord
  2
*D9
340
0
  0
BLOCK_RECORD
  5
2CE
330
1
100
AcDbSymbolTableRecord
100
AcDbBlockTableRecord
  2
*D10
340
0
  0
BLOCK_RECORD
  5
2DC
330
1
100
AcDbSymbolTableRecord
100
AcDbBlockTableRecord
  2
*D11
340
0
  0
BLOCK_RECORD
  5
2F3
330
1
100
AcDbSymbolTableRecord
100
AcDbBlockTableRecord
  2
*D12
340
0
  0
BLOCK_RECORD
  5
2FF
330
1
100
AcDbSymbolTableRecord
100
AcDbBlockTableRecord
  2
*D13
340
0
  0
BLOCK_RECORD
  5
30D
330
1
100
AcDbSymbolTableRecord
100
AcDbBlockTableRecord
  2
_NONE
340
0
102
{BLKREFS
331
0
331
0
331
0
331
418
331
417
331
0
331
5D1
102
}
  0
BLOCK_RECORD
  5
310
330
1
100
AcDbSymbolTableRecord
100
AcDbBlockTableRecord
  2
*D15
340
0
  0
BLOCK_RECORD
  5
321
330
1
100
AcDbSymbolTableRecord
100
AcDbBlockTableRecord
  2
_ORIGIN
340
0
102
{BLKREFS
331
32E
331
32D
331
5D0
102
}
  0
BLOCK_RECORD
  5
326
330
1
100
AcDbSymbolTableRecord
100
AcDbBlockTableRecord
  2
*D17
340
0
  0
BLOCK_RECORD
  5
334
330
1
100
AcDbSymbolTableRecord
100
AcDbBlockTableRecord
  2
*D18
340
0
  0
BLOCK_RECORD
  5
342
330
1
100
AcDbSymbolTableRecord
100
AcDbBlockTableRecord
  2
*D19
340
0
  0
BLOCK_RECORD
  5
358
330
1
100
AcDbSymbolTableRecord
100
AcDbBlockTableRecord
  2
*D20
340
0
  0
BLOCK_RECORD
  5
364
330
1
100
AcDbSymbolTableRecord
100
AcDbBlockTableRecord
  2
*D21
340
0
  0
BLOCK_RECORD
  5
378
330
1
100
AcDbSymbolTableRecord
100
AcDbBlockTableRecord
  2
SYM0001
340
0
102
{BLKREFS
331
37E
102
}
  0
BLOCK_RECORD
  5
381
330
1
100
AcDbSymbolTableRecord
100
AcDbBlockTableRecord
  2
SYM0002
340
0
102
{BLKREFS
331
385
102
}
  0
BLOCK_RECORD
  5
388
330
1
100
AcDbSymbolTableRecord
100
AcDbBlockTableRecord
  2
SYM0003
340
0
102
{BLKREFS
331
38E
102
}
  0
BLOCK_RECORD
  5
391
330
1
100
AcDbSymbolTableRecord
100
AcDbBlockTableRecord
  2
SYM0004
340
0
102
{BLKREFS
331
395
102
}
  0
BLOCK_RECORD
  5
399
330
1
100
AcDbSymbolTableRecord
100
AcDbBlockTableRecord
  2
*D26
340
0
  0
BLOCK_RECORD
  5
3A7
330
1
100
AcDbSymbolTableRecord
100
AcDbBlockTableRecord
  2
*D27
340
0
  0
BLOCK_RECORD
  5
3B5
330
1
100
AcDbSymbolTableRecord
100
AcDbBlockTableRecord
  2
*D28
340
0
  0
BLOCK_RECORD
  5
3C4
330
1
100
AcDbSymbolTableRecord
100
AcDbBlockTableRecord
  2
*D29
340
0
  0
BLOCK_RECORD
  5
3D2
330
1
100
AcDbSymbolTableRecord
100
AcDbBlockTableRecord
  2
SYM0005
340
0
102
{BLKREFS
331
3D6
102
}
  0
BLOCK_RECORD
  5
3D9
330
1
100
AcDbSymbolTableRecord
100
AcDbBlockTableRecord
  2
SYM0006
340
0
102
{BLKREFS
331
3DD
102
}
  0
BLOCK_RECORD
  5
3E0
330
1
100
AcDbSymbolTableRecord
100
AcDbBlockTableRecord
  2
SYM0007
340
0
102
{BLKREFS
331
3E4
102
}
  0
BLOCK_RECORD
  5
3E7
330
1
100
AcDbSymbolTableRecord
100
AcDbBlockTableRecord
  2
SYM0008
340
0
102
{BLKREFS
331
3EB
102
}
  0
BLOCK_RECORD
  5
3EF
330
1
100
AcDbSymbolTableRecord
100
AcDbBlockTableRecord
  2
*D34
340
0
  0
BLOCK_RECORD
  5
3FB
330
1
100
AcDbSymbolTableRecord
100
AcDbBlockTableRecord
  2
*D35
340
0
  0
BLOCK_RECORD
  5
407
330
1
100
AcDbSymbolTableRecord
100
AcDbBlockTableRecord
  2
*D36
340
0
  0
BLOCK_RECORD
  5
413
330
1
100
AcDbSymbolTableRecord
100
AcDbBlockTableRecord
  2
*D37
340
0
  0
BLOCK_RECORD
  5
41E
330
1
100
AcDbSymbolTableRecord
100
AcDbBlockTableRecord
  2
*D38
340
0
  0
BLOCK_RECORD
  5
434
330
1
100
AcDbSymbolTableRecord
100
AcDbBlockTableRecord
  2
*D39
340
0
  0
BLOCK_RECORD
  5
440
330
1
100
AcDbSymbolTableRecord
100
AcDbBlockTableRecord
  2
*D40
340
0
  0
BLOCK_RECORD
  5
44E
330
1
100
AcDbSymbolTableRecord
100
AcDbBlockTableRecord
  2
*D41
340
0
  0
BLOCK_RECORD
  5
464
330
1
100
AcDbSymbolTableRecord
100
AcDbBlockTableRecord
  2
*D42
340
0
  0
BLOCK_RECORD
  5
473
330
1
100
AcDbSymbolTableRecord
100
AcDbBlockTableRecord
  2
*D43
340
0
  0
BLOCK_RECORD
  5
47F
330
1
100
AcDbSymbolTableRecord
100
AcDbBlockTableRecord
  2
*D44
340
0
  0
BLOCK_RECORD
  5
48A
330
1
100
AcDbSymbolTableRecord
100
AcDbBlockTableRecord
  2
*D45
340
0
  0
BLOCK_RECORD
  5
497
330
1
100
AcDbSymbolTableRecord
100
AcDbBlockTableRecord
  2
*D46
340
0
  0
BLOCK_RECORD
  5
4AB
330
1
100
AcDbSymbolTableRecord
100
AcDbBlockTableRecord
  2
*D47
340
0
  0
BLOCK_RECORD
  5
4BE
330
1
100
AcDbSymbolTableRecord
100
AcDbBlockTableRecord
  2
SYM0009
340
0
102
{BLKREFS
331
4C4
102
}
  0
BLOCK_RECORD
  5
4C8
330
1
100
AcDbSymbolTableRecord
100
AcDbBlockTableRecord
  2
*D49
340
0
  0
BLOCK_RECORD
  5
4D5
330
1
100
AcDbSymbolTableRecord
100
AcDbBlockTableRecord
  2
*D50
340
0
  0
BLOCK_RECORD
  5
4E2
330
1
100
AcDbSymbolTableRecord
100
AcDbBlockTableRecord
  2
*D51
340
0
  0
BLOCK_RECORD
  5
4F1
330
1
100
AcDbSymbolTableRecord
100
AcDbBlockTableRecord
  2
*D52
340
0
  0
BLOCK_RECORD
  5
4FF
330
1
100
AcDbSymbolTableRecord
100
AcDbBlockTableRecord
  2
SYM0010
340
0
102
{BLKREFS
331
503
102
}
  0
BLOCK_RECORD
  5
507
330
1
100
AcDbSymbolTableRecord
100
AcDbBlockTableRecord
  2
*D54
340
0
  0
BLOCK_RECORD
  5
514
330
1
100
AcDbSymbolTableRecord
100
AcDbBlockTableRecord
  2
*D55
340
0
  0
BLOCK_RECORD
  5
520
330
1
100
AcDbSymbolTableRecord
100
AcDbBlockTableRecord
  2
*D56
340
0
  0
BLOCK_RECORD
  5
52D
330
1
100
AcDbSymbolTableRecord
100
AcDbBlockTableRecord
  2
*D57
340
0
  0
BLOCK_RECORD
  5
53B
330
1
100
AcDbSymbolTableRecord
100
AcDbBlockTableRecord
  2
_OPEN
340
0
102
{BLKREFS
331
547
331
0
102
}
  0
BLOCK_RECORD
  5
541
330
1
100
AcDbSymbolTableRecord
100
AcDbBlockTableRecord
  2
*D59
340
0
  0
BLOCK_RECORD
  5
54E
330
1
100
AcDbSymbolTableRecord
100
AcDbBlockTableRecord
  2
SYM0011
340
0
102
{BLKREFS
331
554
102
}
  0
BLOCK_RECORD
  5
557
330
1
100
AcDbSymbolTableRecord
100
AcDbBlockTableRecord
  2
SYM0012
340
0
102
{BLKREFS
331
55D
102
}
  0
BLOCK_RECORD
  5
560
330
1
100
AcDbSymbolTableRecord
100
AcDbBlockTableRecord
  2
SYM0013
340
0
102
{BLKREFS
331
566
102
}
  0
BLOCK_RECORD
  5
56A
330
1
100
AcDbSymbolTableRecord
100
AcDbBlockTableRecord
  2
*D63
340
0
  0
BLOCK_RECORD
  5
57B
330
1
100
AcDbSymbolTableRecord
100
AcDbBlockTableRecord
  2
SYM0014
340
0
102
{BLKREFS
331
581
102
}
  0
BLOCK_RECORD
  5
585
330
1
100
AcDbSymbolTableRecord
100
AcDbBlockTableRecord
  2
*D65
340
0
  0
BLOCK_RECORD
  5
596
330
1
100
AcDbSymbolTableRecord
100
AcDbBlockTableRecord
  2
*D66
340
0
  0
BLOCK_RECORD
  5
5A2
330
1
100
AcDbSymbolTableRecord
100
AcDbBlockTableRecord
  2
*D67
340
0
  0
BLOCK_RECORD
  5
5BA
330
1
100
AcDbSymbolTableRecord
100
AcDbBlockTableRecord
  2
*D68
340
0
  0
BLOCK_RECORD
  5
5C9
330
1
100
AcDbSymbolTableRecord
100
AcDbBlockTableRecord
  2
*D69
340
0
  0
BLOCK_RECORD
  5
5D9
330
1
100
AcDbSymbolTableRecord
100
AcDbBlockTableRecord
  2
*D70
340
0
  0
BLOCK_RECORD
  5
5E5
330
1
100
AcDbSymbolTableRecord
100
AcDbBlockTableRecord
  2
*D71
340
0
  0
BLOCK_RECORD
  5
5F0
330
1
100
AcDbSymbolTableRecord
100
AcDbBlockTableRecord
  2
*D72
340
0
  0
BLOCK_RECORD
  5
5FB
330
1
100
AcDbSymbolTableRecord
100
AcDbBlockTableRecord
  2
*D73
340
0
  0
BLOCK_RECORD
  5
607
330
1
100
AcDbSymbolTableRecord
100
AcDbBlockTableRecord
  2
SYM0015
340
0
102
{BLKREFS
331
60D
102
}
  0
BLOCK_RECORD
  5
610
330
1
100
AcDbSymbolTableRecord
100
AcDbBlockTableRecord
  2
SYM0016
340
0
102
{BLKREFS
331
614
102
}
  0
BLOCK_RECORD
  5
617
330
1
100
AcDbSymbolTableRecord
100
AcDbBlockTableRecord
  2
SYM0017
340
0
102
{BLKREFS
331
61B
102
}
  0
BLOCK_RECORD
  5
61E
330
1
100
AcDbSymbolTableRecord
100
AcDbBlockTableRecord
  2
SYM0018
340
0
102
{BLKREFS
331
622
102
}
  0
BLOCK_RECORD
  5
625
330
1
100
AcDbSymbolTableRecord
100
AcDbBlockTableRecord
  2
SYM0019
340
0
102
{BLKREFS
331
629
102
}
  0
BLOCK_RECORD
  5
62C
330
1
100
AcDbSymbolTableRecord
100
AcDbBlockTableRecord
  2
SYM0020
340
0
102
{BLKREFS
331
630
102
}
  0
BLOCK_RECORD
  5
633
330
1
100
AcDbSymbolTableRecord
100
AcDbBlockTableRecord
  2
SYM0021
340
0
102
{BLKREFS
331
637
102
}
  0
BLOCK_RECORD
  5
63A
330
1
100
AcDbSymbolTableRecord
100
AcDbBlockTableRecord
  2
SYM0022
340
0
102
{BLKREFS
331
640
102
}
  0
BLOCK_RECORD
  5
644
330
1
100
AcDbSymbolTableRecord
100
AcDbBlockTableRecord
  2
*D82
340
0
  0
BLOCK_RECORD
  5
64F
330
1
100
AcDbSymbolTableRecord
100
AcDbBlockTableRecord
  2
*D83
340
0
  0
BLOCK_RECORD
  5
65D
330
1
100
AcDbSymbolTableRecord
100
AcDbBlockTableRecord
  2
SYM0023
340
0
102
{BLKREFS
331
663
102
}
  0
BLOCK_RECORD
  5
666
330
1
100
AcDbSymbolTableRecord
100
AcDbBlockTableRecord
  2
SYM0024
340
0
102
{BLKREFS
331
66A
102
}
  0
BLOCK_RECORD
  5
66E
330
1
100
AcDbSymbolTableRecord
100
AcDbBlockTableRecord
  2
*D86
340
0
  0
BLOCK_RECORD
  5
681
330
1
100
AcDbSymbolTableRecord
100
AcDbBlockTableRecord
  2
*D87
340
0
  0
BLOCK_RECORD
  5
76C
330
1
100
AcDbSymbolTableRecord
100
AcDbBlockTableRecord
  2
*D88
340
0
  0
BLOCK_RECORD
  5
779
330
1
100
AcDbSymbolTableRecord
100
AcDbBlockTableRecord
  2
*D89
340
0
  0
BLOCK_RECORD
  5
785
330
1
100
AcDbSymbolTableRecord
100
AcDbBlockTableRecord
  2
*D90
340
0
  0
BLOCK_RECORD
  5
790
330
1
100
AcDbSymbolTableRecord
100
AcDbBlockTableRecord
  2
*D91
340
0
  0
BLOCK_RECORD
  5
79D
330
1
100
AcDbSymbolTableRecord
100
AcDbBlockTableRecord
  2
*D92
340
0
  0
BLOCK_RECORD
  5
7AA
330
1
100
AcDbSymbolTableRecord
100
AcDbBlockTableRecord
  2
*D93
340
0
  0
BLOCK_RECORD
  5
7B9
330
1
100
AcDbSymbolTableRecord
100
AcDbBlockTableRecord
  2
*D94
340
0
  0
BLOCK_RECORD
  5
7C8
330
1
100
AcDbSymbolTableRecord
100
AcDbBlockTableRecord
  2
*D95
340
0
  0
BLOCK_RECORD
  5
7D3
330
1
100
AcDbSymbolTableRecord
100
AcDbBlockTableRecord
  2
*D96
340
0
  0
BLOCK_RECORD
  5
7E0
330
1
100
AcDbSymbolTableRecord
100
AcDbBlockTableRecord
  2
*D97
340
0
  0
BLOCK_RECORD
  5
7ED
330
1
100
AcDbSymbolTableRecord
100
AcDbBlockTableRecord
  2
*D98
340
0
  0
ENDTAB
  0
ENDSEC
  0
SECTION
  2
BLOCKS
  0
BLOCK
  5
20
330
1F
100
AcDbEntity
  8
0
100
AcDbBlockBegin
  2
*Model_Space
 70
     0
 10
0.0
 20
0.0
 30
0.0
  3
*Model_Space
  1

  0
ENDBLK
  5
21
330
1F
100
AcDbEntity
  8
0
100
AcDbBlockEnd
  0
BLOCK
  5
1C
330
1B
100
AcDbEntity
 67
     1
  8
0
100
AcDbBlockBegin
  2
*Paper_Space
 70
     0
 10
0.0
 20
0.0
 30
0.0
  3
*Paper_Space
  1

  0
ENDBLK
  5
1D
330
1B
100
AcDbEntity
 67
     1
  8
0
100
AcDbBlockEnd
  0
BLOCK
  5
24
330
23
100
AcDbEntity
  8
0
100
AcDbBlockBegin
  2
*Paper_Space0
 70
     0
 10
0.0
 20
0.0
 30
0.0
  3
*Paper_Space0
  1

  0
ENDBLK
  5
25
330
23
100
AcDbEntity
  8
0
100
AcDbBlockEnd
  0
BLOCK
  5
45
330
44
100
AcDbEntity
  8
0
100
AcDbBlockBegin
  2
DTL0001
 70
     0
 10
0.0
 20
0.0
 30
0.0
  3
DTL0001
  1

  0
POINT
  5
4A
330
44
100
AcDbEntity
  8
0
 62
     0
100
AcDbPoint
 10
100.0000076293945
 20
137.5
 30
0.0
  0
POINT
  5
4B
330
44
100
AcDbEntity
  8
0
 62
     0
100
AcDbPoint
 10
105.0000076293945
 20
148.4999847412109
 30
0.0
  0
POINT
  5
4C
330
44
100
AcDbEntity
  8
0
 62
     0
100
AcDbPoint
 10
-105.0000076293945
 20
-148.4999847412109
 30
0.0
  0
POINT
  5
4D
330
44
100
AcDbEntity
  8
0
 62
     0
100
AcDbPoint
 10
0.0
 20
0.0
 30
0.0
  0
POINT
  5
4E
330
44
100
AcDbEntity
  8
0
 62
     0
100
AcDbPoint
 10
5.0
 20
-128.5
 30
0.0
  0
POINT
  5
4F
330
44
100
AcDbEntity
  8
0
 62
     0
100
AcDbPoint
 10
-85.0
 20
-119.5
 30
0.0
  0
MTEXT
  5
50
330
44
100
AcDbEntity
  8
0
 62
     1
100
AcDbMText
 10
-82.50000762939453
 20
-123.4168127775192
 30
0.0
 40
7.0
 41
0.0
 71
     7
 72
     1
  1
{\W1;A4}
 11
6.123233995736766E-17
 21
1.0
 31
0.0
 73
     1
 44
1.0
  0
ENDBLK
  5
46
330
44
100
AcDbEntity
  8
0
100
AcDbBlockEnd
  0
BLOCK
  5
48
330
47
100
AcDbEntity
  8
0
100
AcDbBlockBegin
  2
DTL0002
 70
     0
 10
0.0
 20
0.0
 30
0.0
  3
DTL0002
  1

  0
POINT
  5
51
330
47
100
AcDbEntity
  8
0
 62
     0
100
AcDbPoint
 10
-29.0
 20
79.60001373291016
 30
0.0
  0
POINT
  5
52
330
47
100
AcDbEntity
  8
0
 62
     0
100
AcDbPoint
 10
-13.0
 20
78.60001373291016
 30
0.0
  0
POINT
  5
53
330
47
100
AcDbEntity
  8
0
 62
     0
100
AcDbPoint
 10
0.0
 20
77.60001373291016
 30
0.0
  0
POINT
  5
54
330
47
100
AcDbEntity
  8
0
 62
     0
100
AcDbPoint
 10
-13.0
 20
59.70478820800781
 30
0.0
  0
POINT
  5
55
330
47
100
AcDbEntity
  8
0
 62
     0
100
AcDbPoint
 10
0.0
 20
60.70478820800781
 30
0.0
  0
POINT
  5
56
330
47
100
AcDbEntity
  8
0
 62
     0
100
AcDbPoint
 10
-117.0
 20
68.90000915527344
 30
0.0
  0
POINT
  5
57
330
47
100
AcDbEntity
  8
0
 62
     0
100
AcDbPoint
 10
-119.0
 20
68.90000915527344
 30
0.0
  0
POINT
  5
58
330
47
100
AcDbEntity
  8
0
 62
     0
100
AcDbPoint
 10
-119.4298553466797
 20
44.27372741699219
 30
0.0
  0
POINT
  5
59
330
47
100
AcDbEntity
  8
0
 62
     0
100
AcDbPoint
 10
-116.5701599121094
 20
44.27372741699219
 30
0.0
  0
POINT
  5
5A
330
47
100
AcDbEntity
  8
0
 62
     0
100
AcDbPoint
 10
-13.0
 20
40.88029479980469
 30
0.0
  0
POINT
  5
5B
330
47
100
AcDbEntity
  8
0
 62
     0
100
AcDbPoint
 10
0.0
 20
43.78524780273438
 30
0.0
  0
POINT
  5
5C
330
47
100
AcDbEntity
  8
0
 62
     0
100
AcDbPoint
 10
0.0
 20
41.7470703125
 30
0.0
  0
POINT
  5
5D
330
47
100
AcDbEntity
  8
0
 62
     0
100
AcDbPoint
 10
-13.0
 20
39.39297485351562
 30
0.0
  0
POINT
  5
5E
330
47
100
AcDbEntity
  8
0
 62
     0
100
AcDbPoint
 10
-31.0
 20
1.500015258789062
 30
0.0
  0
POINT
  5
5F
330
47
100
AcDbEntity
  8
0
 62
     0
100
AcDbPoint
 10
-29.0
 20
1.500015258789062
 30
0.0
  0
POINT
  5
60
330
47
100
AcDbEntity
  8
0
 62
     0
100
AcDbPoint
 10
-15.0
 20
1.500015258789062
 30
0.0
  0
POINT
  5
61
330
47
100
AcDbEntity
  8
0
 62
     0
100
AcDbPoint
 10
0.0
 20
1.500015258789062
 30
0.0
  0
POINT
  5
62
330
47
100
AcDbEntity
  8
0
 62
     0
100
AcDbPoint
 10
-57.0
 20
-13.69998550415039
 30
0.0
  0
POINT
  5
63
330
47
100
AcDbEntity
  8
0
 62
     0
100
AcDbPoint
 10
-57.0
 20
-14.69998550415039
 30
0.0
  0
POINT
  5
64
330
47
100
AcDbEntity
  8
0
 62
     0
100
AcDbPoint
 10
-62.05000305175781
 20
-14.69998550415039
 30
0.0
  0
POINT
  5
65
330
47
100
AcDbEntity
  8
0
 62
     0
100
AcDbPoint
 10
-62.05000305175781
 20
-17.69998550415039
 30
0.0
  0
POINT
  5
66
330
47
100
AcDbEntity
  8
0
 62
     0
100
AcDbPoint
 10
-60.0
 20
-17.69998550415039
 30
0.0
  0
POINT
  5
67
330
47
100
AcDbEntity
  8
0
 62
     0
100
AcDbPoint
 10
-59.0
 20
-13.19995498657227
 30
0.0
  0
POINT
  5
68
330
47
100
AcDbEntity
  8
0
 62
     0
100
AcDbPoint
 10
-64.05000305175781
 20
-13.19995498657227
 30
0.0
  0
POINT
  5
69
330
47
100
AcDbEntity
  8
0
 62
     0
100
AcDbPoint
 10
-60.0
 20
-18.69998550415039
 30
0.0
  0
POINT
  5
6A
330
47
100
AcDbEntity
  8
0
 62
     0
100
AcDbPoint
 10
-61.15469360351562
 20
-20.69998550415039
 30
0.0
  0
POINT
  5
6B
330
47
100
AcDbEntity
  8
0
 62
     0
100
AcDbPoint
 10
-65.25
 20
-25.69998168945312
 30
0.0
  0
POINT
  5
6C
330
47
100
AcDbEntity
  8
0
 62
     0
100
AcDbPoint
 10
-65.14999389648438
 20
-20.69998550415039
 30
0.0
  0
POINT
  5
6D
330
47
100
AcDbEntity
  8
0
 62
     0
100
AcDbPoint
 10
-65.25
 20
-25.69998168945312
 30
0.0
  0
POINT
  5
6E
330
47
100
AcDbEntity
  8
0
 62
     0
100
AcDbPoint
 10
-67.11039733886719
 20
-18.69998550415039
 30
0.0
  0
POINT
  5
6F
330
47
100
AcDbEntity
  8
0
 62
     0
100
AcDbPoint
 10
-64.05000305175781
 20
-18.69998550415039
 30
0.0
  0
POINT
  5
70
330
47
100
AcDbEntity
  8
0
 62
     0
100
AcDbPoint
 10
-161.0
 20
79.60001373291016
 30
0.0
  0
POINT
  5
71
330
47
100
AcDbEntity
  8
0
 62
     0
100
AcDbPoint
 10
-177.0
 20
78.60001373291016
 30
0.0
  0
POINT
  5
72
330
47
100
AcDbEntity
  8
0
 62
     0
100
AcDbPoint
 10
-190.0
 20
77.60001373291016
 30
0.0
  0
POINT
  5
73
330
47
100
AcDbEntity
  8
0
 62
     0
100
AcDbPoint
 10
-177.0
 20
59.70478820800781
 30
0.0
  0
POINT
  5
74
330
47
100
AcDbEntity
  8
0
 62
     0
100
AcDbPoint
 10
-190.0
 20
60.70478820800781
 30
0.0
  0
POINT
  5
75
330
47
100
AcDbEntity
  8
0
 62
     0
100
AcDbPoint
 10
-177.0
 20
40.88029479980469
 30
0.0
  0
POINT
  5
76
330
47
100
AcDbEntity
  8
0
 62
     0
100
AcDbPoint
 10
-190.0
 20
43.78524780273438
 30
0.0
  0
POINT
  5
77
330
47
100
AcDbEntity
  8
0
 62
     0
100
AcDbPoint
 10
-190.0
 20
41.7470703125
 30
0.0
  0
POINT
  5
78
330
47
100
AcDbEntity
  8
0
 62
     0
100
AcDbPoint
 10
-177.0
 20
39.39297485351562
 30
0.0
  0
POINT
  5
79
330
47
100
AcDbEntity
  8
0
 62
     0
100
AcDbPoint
 10
-177.0
 20
-3.499984741210938
 30
0.0
  0
POINT
  5
7A
330
47
100
AcDbEntity
  8
0
 62
     0
100
AcDbPoint
 10
-177.0
 20
-3.499984741210938
 30
0.0
  0
POINT
  5
7B
330
47
100
AcDbEntity
  8
0
 62
     0
100
AcDbPoint
 10
-133.0
 20
-13.69998550415039
 30
0.0
  0
POINT
  5
7C
330
47
100
AcDbEntity
  8
0
 62
     0
100
AcDbPoint
 10
-133.0
 20
-14.69998550415039
 30
0.0
  0
POINT
  5
7D
330
47
100
AcDbEntity
  8
0
 62
     0
100
AcDbPoint
 10
-127.9499969482422
 20
-14.69998550415039
 30
0.0
  0
POINT
  5
7E
330
47
100
AcDbEntity
  8
0
 62
     0
100
AcDbPoint
 10
-127.9499969482422
 20
-17.69998550415039
 30
0.0
  0
POINT
  5
7F
330
47
100
AcDbEntity
  8
0
 62
     0
100
AcDbPoint
 10
-130.0
 20
-17.69998550415039
 30
0.0
  0
POINT
  5
80
330
47
100
AcDbEntity
  8
0
 62
     0
100
AcDbPoint
 10
-131.0
 20
-12.59988403320312
 30
0.0
  0
POINT
  5
81
330
47
100
AcDbEntity
  8
0
 62
     0
100
AcDbPoint
 10
-130.0
 20
-18.69998550415039
 30
0.0
  0
POINT
  5
82
330
47
100
AcDbEntity
  8
0
 62
     0
100
AcDbPoint
 10
-128.8453063964844
 20
-20.69998550415039
 30
0.0
  0
POINT
  5
83
330
47
100
AcDbEntity
  8
0
 62
     0
100
AcDbPoint
 10
-124.75
 20
-25.69998168945312
 30
0.0
  0
POINT
  5
84
330
47
100
AcDbEntity
  8
0
 62
     0
100
AcDbPoint
 10
-124.8500061035156
 20
-20.69998550415039
 30
0.0
  0
POINT
  5
85
330
47
100
AcDbEntity
  8
0
 62
     0
100
AcDbPoint
 10
-124.75
 20
-25.69998168945312
 30
0.0
  0
POINT
  5
86
330
47
100
AcDbEntity
  8
0
 62
     0
100
AcDbPoint
 10
-122.8896026611328
 20
-18.69998550415039
 30
0.0
  0
POINT
  5
87
330
47
100
AcDbEntity
  8
0
 62
     0
100
AcDbPoint
 10
-125.9499969482422
 20
-18.69998550415039
 30
0.0
  0
POINT
  5
88
330
47
100
AcDbEntity
  8
0
 62
     0
100
AcDbPoint
 10
-31.72438049316406
 20
40.96237182617188
 30
0.0
  0
POINT
  5
89
330
47
100
AcDbEntity
  8
0
 62
     0
100
AcDbPoint
 10
-29.0
 20
40.96237182617188
 30
0.0
  0
POINT
  5
8A
330
47
100
AcDbEntity
  8
0
 62
     0
100
AcDbPoint
 10
-161.0
 20
40.96237182617188
 30
0.0
  0
POINT
  5
8B
330
47
100
AcDbEntity
  8
0
 62
     0
100
AcDbPoint
 10
-158.275634765625
 20
40.96237182617188
 30
0.0
  0
POINT
  5
8C
330
47
100
AcDbEntity
  8
0
 62
     0
100
AcDbPoint
 10
-15.0
 20
40.96237182617188
 30
0.0
  0
POINT
  5
8D
330
47
100
AcDbEntity
  8
0
 62
     0
100
AcDbPoint
 10
-175.0
 20
40.96237182617188
 30
0.0
  0
POINT
  5
8E
330
47
100
AcDbEntity
  8
0
 62
     0
100
AcDbPoint
 10
-177.7243957519531
 20
40.96237182617188
 30
0.0
  0
POINT
  5
8F
330
47
100
AcDbEntity
  8
0
 62
     0
100
AcDbPoint
 10
-73.0
 20
68.90000915527344
 30
0.0
  0
POINT
  5
90
330
47
100
AcDbEntity
  8
0
 62
     0
100
AcDbPoint
 10
-71.0
 20
68.90000915527344
 30
0.0
  0
POINT
  5
91
330
47
100
AcDbEntity
  8
0
 62
     0
100
AcDbPoint
 10
-73.42985534667969
 20
44.27372741699219
 30
0.0
  0
POINT
  5
92
330
47
100
AcDbEntity
  8
0
 62
     0
100
AcDbPoint
 10
-70.57015991210938
 20
44.27372741699219
 30
0.0
  0
POINT
  5
93
330
47
100
AcDbEntity
  8
0
 62
     0
100
AcDbPoint
 10
-95.0
 20
78.60001373291016
 30
0.0
  0
POINT
  5
94
330
47
100
AcDbEntity
  8
0
 62
     0
100
AcDbPoint
 10
-67.2503890991211
 20
-25.69998168945312
 30
0.0
  0
POINT
  5
95
330
47
100
AcDbEntity
  8
0
 62
     0
100
AcDbPoint
 10
-124.4499969482422
 20
-48.89994812011719
 30
0.0
  0
POINT
  5
96
330
47
100
AcDbEntity
  8
0
 62
     0
100
AcDbPoint
 10
-65.55000305175781
 20
-48.89994812011719
 30
0.0
  0
POINT
  5
97
330
47
100
AcDbEntity
  8
0
 62
     0
100
AcDbPoint
 10
-119.2859649658203
 20
52.51829528808594
 30
0.0
  0
POINT
  5
98
330
47
100
AcDbEntity
  8
0
 62
     0
100
AcDbPoint
 10
-116.7581787109375
 20
55.04607772827148
 30
0.0
  0
POINT
  5
99
330
47
100
AcDbEntity
  8
0
 62
     0
100
AcDbPoint
 10
-73.24879455566406
 20
54.64651870727539
 30
0.0
  0
POINT
  5
9A
330
47
100
AcDbEntity
  8
0
 62
     0
100
AcDbPoint
 10
-70.70681762695312
 20
52.10453414916992
 30
0.0
  0
POINT
  5
9B
330
47
100
AcDbEntity
  8
0
 62
     0
100
AcDbPoint
 10
-116.9033966064453
 20
63.36555099487305
 30
0.0
  0
POINT
  5
9C
330
47
100
AcDbEntity
  8
0
 62
     0
100
AcDbPoint
 10
-73.09661102294922
 20
63.36555099487305
 30
0.0
  0
POINT
  5
9D
330
47
100
AcDbEntity
  8
0
 62
     0
100
AcDbPoint
 10
0.0
 20
0.0
 30
0.0
  0
POINT
  5
9E
330
47
100
AcDbEntity
  8
0
 62
     0
100
AcDbPoint
 10
-29.0
 20
-1.0
 30
0.0
  0
POINT
  5
9F
330
47
100
AcDbEntity
  8
0
 62
     0
100
AcDbPoint
 10
-15.0
 20
-1.0
 30
0.0
  0
POINT
  5
A0
330
47
100
AcDbEntity
  8
0
 62
     0
100
AcDbPoint
 10
-59.0
 20
-11.69998550415039
 30
0.0
  0
POINT
  5
A1
330
47
100
AcDbEntity
  8
0
 62
     0
100
AcDbPoint
 10
-29.0
 20
-3.699985504150391
 30
0.0
  0
POINT
  5
A2
330
47
100
AcDbEntity
  8
0
 62
     0
100
AcDbPoint
 10
-13.0
 20
-3.699985504150391
 30
0.0
  0
POINT
  5
A3
330
47
100
AcDbEntity
  8
0
 62
     0
100
AcDbPoint
 10
-12.99998474121094
 20
-3.699985504150391
 30
0.0
  0
POINT
  5
A4
330
47
100
AcDbEntity
  8
0
 62
     0
100
AcDbPoint
 10
-29.0
 20
-13.69998550415039
 30
0.0
  0
POINT
  5
A5
330
47
100
AcDbEntity
  8
0
 62
     0
100
AcDbPoint
 10
-31.0
 20
-11.69998550415039
 30
0.0
  0
POINT
  5
A6
330
47
100
AcDbEntity
  8
0
 62
     0
100
AcDbPoint
 10
-31.72438049316406
 20
-11.01052856445312
 30
0.0
  0
POINT
  5
A7
330
47
100
AcDbEntity
  8
0
 62
     0
100
AcDbPoint
 10
-95.0
 20
-11.01052856445312
 30
0.0
  0
POINT
  5
A8
330
47
100
AcDbEntity
  8
0
 62
     0
100
AcDbPoint
 10
-131.0
 20
-11.69998550415039
 30
0.0
  0
POINT
  5
A9
330
47
100
AcDbEntity
  8
0
 62
     0
100
AcDbPoint
 10
-95.0
 20
-12.97561645507812
 30
0.0
  0
POINT
  5
AA
330
47
100
AcDbEntity
  8
0
 62
     0
100
AcDbPoint
 10
-175.0
 20
-1.0
 30
0.0
  0
POINT
  5
AB
330
47
100
AcDbEntity
  8
0
 62
     0
100
AcDbPoint
 10
-161.0
 20
-1.0
 30
0.0
  0
POINT
  5
AC
330
47
100
AcDbEntity
  8
0
 62
     0
100
AcDbPoint
 10
-175.0
 20
1.500015258789062
 30
0.0
  0
POINT
  5
AD
330
47
100
AcDbEntity
  8
0
 62
     0
100
AcDbPoint
 10
-161.0
 20
1.500015258789062
 30
0.0
  0
POINT
  5
AE
330
47
100
AcDbEntity
  8
0
 62
     0
100
AcDbPoint
 10
-161.0
 20
-13.69998550415039
 30
0.0
  0
POINT
  5
AF
330
47
100
AcDbEntity
  8
0
 62
     0
100
AcDbPoint
 10
-161.0
 20
-3.699985504150391
 30
0.0
  0
POINT
  5
B0
330
47
100
AcDbEntity
  8
0
 62
     0
100
AcDbPoint
 10
-158.275634765625
 20
-11.01052856445312
 30
0.0
  0
POINT
  5
B1
330
47
100
AcDbEntity
  8
0
 62
     0
100
AcDbPoint
 10
-160.275634765625
 20
-2.974090576171875
 30
0.0
  0
POINT
  5
B2
330
47
100
AcDbEntity
  8
0
 62
     0
100
AcDbPoint
 10
-160.275634765625
 20
-12.97561645507812
 30
0.0
  0
POINT
  5
B3
330
47
100
AcDbEntity
  8
0
 62
     0
100
AcDbPoint
 10
-190.0
 20
8.02349853515625
 30
0.0
  0
POINT
  5
B4
330
47
100
AcDbEntity
  8
0
 62
     0
100
AcDbPoint
 10
-177.0
 20
5.0
 30
0.0
  0
POINT
  5
B5
330
47
100
AcDbEntity
  8
0
 62
     0
100
AcDbPoint
 10
-67.8293685913086
 20
-17.29414749145508
 30
0.0
  0
POINT
  5
B6
330
47
100
AcDbEntity
  8
0
 62
     0
100
AcDbPoint
 10
-56.43157958984375
 20
-27.04557800292969
 30
0.0
  0
POINT
  5
B7
330
47
100
AcDbEntity
  8
0
 62
     0
100
AcDbPoint
 10
-18.43894958496094
 20
-59.55036163330078
 30
0.0
  0
POINT
  5
B8
330
47
100
AcDbEntity
  8
0
 62
     0
100
AcDbPoint
 10
-14.63969421386719
 20
-62.80083465576172
 30
0.0
  0
POINT
  5
B9
330
47
100
AcDbEntity
  8
0
 62
     0
100
AcDbPoint
 10
-215.0
 20
27.64468002319336
 30
0.0
  0
POINT
  5
BA
330
47
100
AcDbEntity
  8
0
 62
     0
100
AcDbPoint
 10
-215.0
 20
17.64468002319336
 30
0.0
  0
POINT
  5
BB
330
47
100
AcDbEntity
  8
0
 62
     0
100
AcDbPoint
 10
-142.0
 20
27.64468002319336
 30
0.0
  0
POINT
  5
BC
330
47
100
AcDbEntity
  8
0
 62
     0
100
AcDbPoint
 10
-142.0
 20
17.64468002319336
 30
0.0
  0
POINT
  5
BD
330
47
100
AcDbEntity
  8
0
 62
     0
100
AcDbPoint
 10
-220.0
 20
17.64468002319336
 30
0.0
  0
POINT
  5
BE
330
47
100
AcDbEntity
  8
0
 62
     0
100
AcDbPoint
 10
-210.0
 20
17.64468002319336
 30
0.0
  0
POINT
  5
BF
330
47
100
AcDbEntity
  8
0
 62
     0
100
AcDbPoint
 10
-147.0
 20
17.64468002319336
 30
0.0
  0
POINT
  5
C0
330
47
100
AcDbEntity
  8
0
 62
     0
100
AcDbPoint
 10
-137.0
 20
17.64468002319336
 30
0.0
  0
POINT
  5
C1
330
47
100
AcDbEntity
  8
0
 62
     0
100
AcDbPoint
 10
-222.0
 20
24.64468002319336
 30
0.0
  0
POINT
  5
C2
330
47
100
AcDbEntity
  8
0
 62
     0
100
AcDbPoint
 10
-135.0
 20
24.64468002319336
 30
0.0
  0
POINT
  5
C3
330
47
100
AcDbEntity
  8
0
 62
     0
100
AcDbPoint
 10
88.99317932128906
 20
70.51627349853516
 30
0.0
  0
POINT
  5
C4
330
47
100
AcDbEntity
  8
0
 62
     0
100
AcDbPoint
 10
201.5525207519531
 20
47.66775512695312
 30
0.0
  0
POINT
  5
C5
330
47
100
AcDbEntity
  8
0
 62
     0
100
AcDbPoint
 10
129.2431640625
 20
130.71630859375
 30
0.0
  0
POINT
  5
C6
330
47
100
AcDbEntity
  8
0
 62
     0
100
AcDbPoint
 10
148.8418273925781
 20
107.1739196777344
 30
0.0
  0
POINT
  5
C7
330
47
100
AcDbEntity
  8
0
 62
     0
100
AcDbPoint
 10
163.4725036621094
 20
90.01773071289062
 30
0.0
  0
POINT
  5
C8
330
47
100
AcDbEntity
  8
0
 62
     0
100
AcDbPoint
 10
99.72367858886719
 20
39.39297485351562
 30
0.0
  0
POINT
  5
C9
330
47
100
AcDbEntity
  8
0
 62
     0
100
AcDbPoint
 10
193.7560729980469
 20
1.5
 30
0.0
  0
POINT
  5
CA
330
47
100
AcDbEntity
  8
0
 62
     0
100
AcDbPoint
 10
106.8561706542969
 20
9.5
 30
0.0
  0
POINT
  5
CB
330
47
100
AcDbEntity
  8
0
 62
     0
100
AcDbPoint
 10
118.5560607910156
 20
9.5
 30
0.0
  0
POINT
  5
CC
330
47
100
AcDbEntity
  8
0
 62
     0
100
AcDbPoint
 10
193.7560729980469
 20
1.5
 30
0.0
  0
POINT
  5
CD
330
47
100
AcDbEntity
  8
0
 62
     0
100
AcDbPoint
 10
103.7415771484375
 20
45.10000610351562
 30
0.0
  0
POINT
  5
CE
330
47
100
AcDbEntity
  8
0
 62
     0
100
AcDbPoint
 10
117.0560607910156
 20
8.02349853515625
 30
0.0
  0
POINT
  5
CF
330
47
100
AcDbEntity
  8
0
 62
     0
100
AcDbPoint
 10
114.0560607910156
 20
5.442626953125
 30
0.0
  0
POINT
  5
D0
330
47
100
AcDbEntity
  8
0
 62
     0
100
AcDbPoint
 10
116.0560607910156
 20
7.1116943359375
 30
0.0
  0
POINT
  5
D1
330
47
100
AcDbEntity
  8
0
 62
     0
100
AcDbPoint
 10
107.5560607910156
 20
1.5
 30
0.0
  0
POINT
  5
D2
330
47
100
AcDbEntity
  8
0
 62
     0
100
AcDbPoint
 10
197.203125
 20
40.9000244140625
 30
0.0
  0
POINT
  5
D3
330
47
100
AcDbEntity
  8
0
 62
     0
100
AcDbPoint
 10
197.203125
 20
40.9000244140625
 30
0.0
  0
POINT
  5
D4
330
47
100
AcDbEntity
  8
0
 62
     0
100
AcDbPoint
 10
204.4831237792969
 20
40.9000244140625
 30
0.0
  0
POINT
  5
D5
330
47
100
AcDbEntity
  8
0
 62
     0
100
AcDbPoint
 10
206.4831237792969
 20
38.9000244140625
 30
0.0
  0
POINT
  5
D6
330
47
100
AcDbEntity
  8
0
 62
     0
100
AcDbPoint
 10
204.4831237792969
 20
51.60000610351562
 30
0.0
  0
POINT
  5
D7
330
47
100
AcDbEntity
  8
0
 62
     0
100
AcDbPoint
 10
196.4831237792969
 20
50.60000610351562
 30
0.0
  0
POINT
  5
D8
330
47
100
AcDbEntity
  8
0
 62
     0
100
AcDbPoint
 10
196.4831237792969
 20
52.60000610351562
 30
0.0
  0
POINT
  5
D9
330
47
100
AcDbEntity
  8
0
 62
     0
100
AcDbPoint
 10
122.5560607910156
 20
-14.70003128051758
 30
0.0
  0
POINT
  5
DA
330
47
100
AcDbEntity
  8
0
 62
     0
100
AcDbPoint
 10
198.5560607910156
 20
-14.70003128051758
 30
0.0
  0
POINT
  5
DB
330
47
100
AcDbEntity
  8
0
 62
     0
100
AcDbPoint
 10
190.3060607910156
 20
-25.70002746582031
 30
0.0
  0
POINT
  5
DC
330
47
100
AcDbEntity
  8
0
 62
     0
100
AcDbPoint
 10
190.3060607910156
 20
-25.70002746582031
 30
0.0
  0
POINT
  5
DD
330
47
100
AcDbEntity
  8
0
 62
     0
100
AcDbPoint
 10
130.7060852050781
 20
-20.70003128051758
 30
0.0
  0
POINT
  5
DE
330
47
100
AcDbEntity
  8
0
 62
     0
100
AcDbPoint
 10
190.4060668945312
 20
-20.70003128051758
 30
0.0
  0
POINT
  5
DF
330
47
100
AcDbEntity
  8
0
 62
     0
100
AcDbPoint
 10
125.5560607910156
 20
-18.70003128051758
 30
0.0
  0
POINT
  5
E0
330
47
100
AcDbEntity
  8
0
 62
     0
100
AcDbPoint
 10
195.5560607910156
 20
-18.70003128051758
 30
0.0
  0
POINT
  5
E1
330
47
100
AcDbEntity
  8
0
 62
     0
100
AcDbPoint
 10
130.8060607910156
 20
-25.70002746582031
 30
0.0
  0
POINT
  5
E2
330
47
100
AcDbEntity
  8
0
 62
     0
100
AcDbPoint
 10
190.3060607910156
 20
-25.70002746582031
 30
0.0
  0
POINT
  5
E3
330
47
100
AcDbEntity
  8
0
 62
     0
100
AcDbPoint
 10
206.4831237792969
 20
38.9000244140625
 30
0.0
  0
POINT
  5
E4
330
47
100
AcDbEntity
  8
0
 62
     0
100
AcDbPoint
 10
95.8114013671875
 20
45.10000610351562
 30
0.0
  0
POINT
  5
E5
330
47
100
AcDbEntity
  8
0
 62
     0
100
AcDbPoint
 10
99.72367858886719
 20
39.39297485351562
 30
0.0
  0
POINT
  5
E6
330
47
100
AcDbEntity
  8
0
 62
     0
100
AcDbPoint
 10
101.5940093994141
 20
40.96237182617188
 30
0.0
  0
POINT
  5
E7
330
47
100
AcDbEntity
  8
0
 62
     0
100
AcDbPoint
 10
102.5291748046875
 20
41.7470703125
 30
0.0
  0
POINT
  5
E8
330
47
100
AcDbEntity
  8
0
 62
     0
100
AcDbPoint
 10
103.9319305419922
 20
42.92413330078125
 30
0.0
  0
POINT
  5
E9
330
47
100
AcDbEntity
  8
0
 62
     0
100
AcDbPoint
 10
95.8114013671875
 20
45.10000610351562
 30
0.0
  0
POINT
  5
EA
330
47
100
AcDbEntity
  8
0
 62
     0
100
AcDbPoint
 10
94.922607421875
 20
43.78524780273438
 30
0.0
  0
POINT
  5
EB
330
47
100
AcDbEntity
  8
0
 62
     0
100
AcDbPoint
 10
94.17292785644531
 20
40.88027954101562
 30
0.0
  0
POINT
  5
EC
330
47
100
AcDbEntity
  8
0
 62
     0
100
AcDbPoint
 10
93.42526245117188
 20
60.89998626708984
 30
0.0
  0
POINT
  5
ED
330
47
100
AcDbEntity
  8
0
 62
     0
100
AcDbPoint
 10
94.34158325195312
 20
61.90000152587891
 30
0.0
  0
POINT
  5
EE
330
47
100
AcDbEntity
  8
0
 62
     0
100
AcDbPoint
 10
94.34158325195312
 20
75.60002899169922
 30
0.0
  0
POINT
  5
EF
330
47
100
AcDbEntity
  8
0
 62
     0
100
AcDbPoint
 10
94.34158325195312
 20
77.60002136230469
 30
0.0
  0
POINT
  5
F0
330
47
100
AcDbEntity
  8
0
 62
     0
100
AcDbPoint
 10
83.34158325195312
 20
61.90000152587891
 30
0.0
  0
POINT
  5
F1
330
47
100
AcDbEntity
  8
0
 62
     0
100
AcDbPoint
 10
82.34158325195312
 20
60.89998626708984
 30
0.0
  0
POINT
  5
F2
330
47
100
AcDbEntity
  8
0
 62
     0
100
AcDbPoint
 10
81.34158325195312
 20
59.89998626708984
 30
0.0
  0
POINT
  5
F3
330
47
100
AcDbEntity
  8
0
 62
     0
100
AcDbPoint
 10
81.34158325195312
 20
78.60002899169922
 30
0.0
  0
POINT
  5
F4
330
47
100
AcDbEntity
  8
0
 62
     0
100
AcDbPoint
 10
82.34158325195312
 20
77.60002899169922
 30
0.0
  0
POINT
  5
F5
330
47
100
AcDbEntity
  8
0
 62
     0
100
AcDbPoint
 10
83.34158325195312
 20
76.60002899169922
 30
0.0
  0
POINT
  5
F6
330
47
100
AcDbEntity
  8
0
 62
     0
100
AcDbPoint
 10
96.74063110351562
 20
68.9000015258789
 30
0.0
  0
POINT
  5
F7
330
47
100
AcDbEntity
  8
0
 62
     0
100
AcDbPoint
 10
81.34158325195312
 20
59.89998626708984
 30
0.0
  0
POINT
  5
F8
330
47
100
AcDbEntity
  8
0
 62
     0
100
AcDbPoint
 10
92.5260009765625
 20
59.70479583740234
 30
0.0
  0
POINT
  5
F9
330
47
100
AcDbEntity
  8
0
 62
     0
100
AcDbPoint
 10
160.5560607910156
 20
1.5
 30
0.0
  0
POINT
  5
FA
330
47
100
AcDbEntity
  8
0
 62
     0
100
AcDbPoint
 10
201.089599609375
 20
12.79159545898438
 30
0.0
  0
POINT
  5
FB
330
47
100
AcDbEntity
  8
0
 62
     0
100
AcDbPoint
 10
95.2779541015625
 20
51.19716644287109
 30
0.0
  0
POINT
  5
FC
330
47
100
AcDbEntity
  8
0
 62
     0
100
AcDbPoint
 10
103.1479034423828
 20
51.88570404052734
 30
0.0
  0
POINT
  5
FD
330
47
100
AcDbEntity
  8
0
 62
     0
100
AcDbPoint
 10
201.5382385253906
 20
38.818603515625
 30
0.0
  0
POINT
  5
FE
330
47
100
AcDbEntity
  8
0
 62
     0
100
AcDbPoint
 10
103.9319305419922
 20
42.92413330078125
 30
0.0
  0
POINT
  5
FF
330
47
100
AcDbEntity
  8
0
 62
     0
100
AcDbPoint
 10
201.5378112792969
 20
38.81369018554688
 30
0.0
  0
POINT
  5
100
330
47
100
AcDbEntity
  8
0
 62
     0
100
AcDbPoint
 10
206.4831237792969
 20
53.60000610351562
 30
0.0
  0
POINT
  5
101
330
47
100
AcDbEntity
  8
0
 62
     0
100
AcDbPoint
 10
98.8951416015625
 20
44.27371215820312
 30
0.0
  0
POINT
  5
102
330
47
100
AcDbEntity
  8
0
 62
     0
100
AcDbPoint
 10
198.8738098144531
 20
8.36395263671875
 30
0.0
  0
POINT
  5
103
330
47
100
AcDbEntity
  8
0
 62
     0
100
AcDbPoint
 10
201.4985961914062
 20
38.36520385742188
 30
0.0
  0
POINT
  5
104
330
47
100
AcDbEntity
  8
0
 62
     0
100
AcDbPoint
 10
160.5560607910156
 20
45.36605834960938
 30
0.0
  0
POINT
  5
105
330
47
100
AcDbEntity
  8
0
 62
     0
100
AcDbPoint
 10
160.5560607910156
 20
-30.5
 30
0.0
  0
POINT
  5
106
330
47
100
AcDbEntity
  8
0
 62
     0
100
AcDbPoint
 10
198.2151794433594
 20
53.60003662109375
 30
0.0
  0
POINT
  5
107
330
47
100
AcDbEntity
  8
0
 62
     0
100
AcDbPoint
 10
204.4831237792969
 20
53.60003662109375
 30
0.0
  0
POINT
  5
108
330
47
100
AcDbEntity
  8
0
 62
     0
100
AcDbPoint
 10
83.34158325195312
 20
78.60002899169922
 30
0.0
  0
POINT
  5
109
330
47
100
AcDbEntity
  8
0
 62
     0
100
AcDbPoint
 10
92.60952758789062
 20
78.60003662109375
 30
0.0
  0
POINT
  5
10A
330
47
100
AcDbEntity
  8
0
 62
     0
100
AcDbPoint
 10
199.7127075195312
 20
40.90005493164062
 30
0.0
  0
POINT
  5
10B
330
47
100
AcDbEntity
  8
0
 62
     0
100
AcDbPoint
 10
200.4126281738281
 20
48.90005493164062
 30
0.0
  0
POINT
  5
10C
330
47
100
AcDbEntity
  8
0
 62
     0
100
AcDbPoint
 10
199.5799865722656
 20
40.90005493164062
 30
0.0
  0
POINT
  5
10D
330
47
100
AcDbEntity
  8
0
 62
     0
100
AcDbPoint
 10
104.5675354003906
 20
6.97491455078125
 30
0.0
  0
POINT
  5
10E
330
47
100
AcDbEntity
  8
0
 62
     0
100
AcDbPoint
 10
104.0845336914062
 20
41.18026733398438
 30
0.0
  0
POINT
  5
10F
330
47
100
AcDbEntity
  8
0
 62
     0
100
AcDbPoint
 10
207.4830322265625
 20
51.25008392333984
 30
0.0
  0
POINT
  5
110
330
47
100
AcDbEntity
  8
0
 62
     0
100
AcDbPoint
 10
207.4830322265625
 20
41.25008392333984
 30
0.0
  0
POINT
  5
111
330
47
100
AcDbEntity
  8
0
 62
     0
100
AcDbPoint
 10
207.4830322265625
 20
46.25008392333984
 30
0.0
  0
POINT
  5
112
330
47
100
AcDbEntity
  8
0
 62
     0
100
AcDbPoint
 10
203.4190063476562
 20
38.84650039672852
 30
0.0
  0
POINT
  5
113
330
47
100
AcDbEntity
  8
0
 62
     0
100
AcDbPoint
 10
87.39703369140625
 20
59.7943229675293
 30
0.0
  0
POINT
  5
114
330
47
100
AcDbEntity
  8
0
 62
     0
100
AcDbPoint
 10
141.8246765136719
 20
-13.37304306030273
 30
0.0
  0
POINT
  5
115
330
47
100
AcDbEntity
  8
0
 62
     0
100
AcDbPoint
 10
160.5560607910156
 20
-1.0
 30
0.0
  0
POINT
  5
116
330
47
100
AcDbEntity
  8
0
 62
     0
100
AcDbPoint
 10
160.5560607910156
 20
-0.5
 30
0.0
  0
POINT
  5
117
330
47
100
AcDbEntity
  8
0
 62
     0
100
AcDbPoint
 10
117.0559997558594
 20
0.259296417236328
 30
0.0
  0
POINT
  5
118
330
47
100
AcDbEntity
  8
0
 62
     0
100
AcDbPoint
 10
120.5559997558594
 20
-1.0
 30
0.0
  0
POINT
  5
119
330
47
100
AcDbEntity
  8
0
 62
     0
100
AcDbPoint
 10
160.5560607910156
 20
-3.700000762939453
 30
0.0
  0
POINT
  5
11A
330
47
100
AcDbEntity
  8
0
 62
     0
100
AcDbPoint
 10
114.0559997558594
 20
-2.888339996337891
 30
0.0
  0
POINT
  5
11B
330
47
100
AcDbEntity
  8
0
 62
     0
100
AcDbPoint
 10
197.8755798339844
 20
-3.048587799072266
 30
0.0
  0
POINT
  5
11C
330
47
100
AcDbEntity
  8
0
 62
     0
100
AcDbPoint
 10
160.5559997558594
 20
-13.70000076293945
 30
0.0
  0
POINT
  5
11D
330
47
100
AcDbEntity
  8
0
 62
     0
100
AcDbPoint
 10
119.0559997558594
 20
-12.97561645507812
 30
0.0
  0
POINT
  5
11E
330
47
100
AcDbEntity
  8
0
 62
     0
100
AcDbPoint
 10
121.0559997558594
 20
-11.01052856445312
 30
0.0
  0
POINT
  5
11F
330
47
100
AcDbEntity
  8
0
 62
     0
100
AcDbPoint
 10
198.6736450195312
 20
-11.03465270996094
 30
0.0
  0
POINT
  5
120
330
47
100
AcDbEntity
  8
0
 62
     0
100
AcDbPoint
 10
200.6336059570312
 20
-13.00044250488281
 30
0.0
  0
POINT
  5
121
330
47
100
AcDbEntity
  8
0
 62
     0
100
AcDbPoint
 10
118.96875
 20
-2.974090576171875
 30
0.0
  0
POINT
  5
122
330
47
100
AcDbEntity
  8
0
 62
     0
100
AcDbPoint
 10
178.5425109863281
 20
-13.38604354858398
 30
0.0
  0
POINT
  5
123
330
47
100
AcDbEntity
  8
0
 62
     0
100
AcDbPoint
 10
129.8455505371094
 20
0.036052703857422
 30
0.0
  0
POINT
  5
124
330
47
100
AcDbEntity
  8
0
 62
     0
100
AcDbPoint
 10
148.2205810546875
 20
-3.484683990478516
 30
0.0
  0
POINT
  5
125
330
47
100
AcDbEntity
  8
0
 62
     0
100
AcDbPoint
 10
171.9505920410156
 20
-0.301109313964844
 30
0.0
  0
POINT
  5
126
330
47
100
AcDbEntity
  8
0
 62
     0
100
AcDbPoint
 10
185.6005859375
 20
-3.262847900390625
 30
0.0
  0
POINT
  5
127
330
47
100
AcDbEntity
  8
0
 62
     0
100
AcDbPoint
 10
174.6683044433594
 20
-1.0
 30
0.0
  0
POINT
  5
128
330
47
100
AcDbEntity
  8
0
 62
     0
100
AcDbPoint
 10
140.4382934570312
 20
-0.148841857910156
 30
0.0
  0
POINT
  5
129
330
47
100
AcDbEntity
  8
0
 62
     0
100
AcDbPoint
 10
174.6683349609375
 20
-1.000003814697266
 30
0.0
  0
POINT
  5
12A
330
47
100
AcDbEntity
  8
0
 62
     0
100
AcDbPoint
 10
140.4382934570312
 20
-1.0
 30
0.0
  0
POINT
  5
12B
330
47
100
AcDbEntity
  8
0
 62
     0
100
AcDbPoint
 10
196.5559692382812
 20
-11.07161712646484
 30
0.0
  0
POINT
  5
12C
330
47
100
AcDbEntity
  8
0
 62
     0
100
AcDbPoint
 10
191.5060119628906
 20
-12.70000076293945
 30
0.0
  0
POINT
  5
12D
330
47
100
AcDbEntity
  8
0
 62
     0
100
AcDbPoint
 10
191.5060119628906
 20
-18.70000076293945
 30
0.0
  0
POINT
  5
12E
330
47
100
AcDbEntity
  8
0
 62
     0
100
AcDbPoint
 10
188.4459228515625
 20
-18.70000076293945
 30
0.0
  0
POINT
  5
12F
330
47
100
AcDbEntity
  8
0
 62
     0
100
AcDbPoint
 10
196.5559692382812
 20
-12.70000076293945
 30
0.0
  0
POINT
  5
130
330
47
100
AcDbEntity
  8
0
 62
     0
100
AcDbPoint
 10
124.5560302734375
 20
-12.70000076293945
 30
0.0
  0
POINT
  5
131
330
47
100
AcDbEntity
  8
0
 62
     0
100
AcDbPoint
 10
175.9032592773438
 20
-43.74831390380859
 30
0.0
  0
POINT
  5
132
330
47
100
AcDbEntity
  8
0
 62
     0
100
AcDbPoint
 10
148.6239624023438
 20
-33.70260620117188
 30
0.0
  0
POINT
  5
133
330
47
100
AcDbEntity
  8
0
 62
     0
100
AcDbPoint
 10
200.5792846679688
 20
47.54544448852539
 30
0.0
  0
POINT
  5
134
330
47
100
AcDbEntity
  8
0
 62
     0
100
AcDbPoint
 10
113.0163879394531
 20
7.862800598144531
 30
0.0
  0
POINT
  5
135
330
47
100
AcDbEntity
  8
0
 62
     0
100
AcDbPoint
 10
100.836669921875
 20
-3.996982574462891
 30
0.0
  0
POINT
  5
136
330
47
100
AcDbEntity
  8
0
 62
     0
100
AcDbPoint
 10
43.560791015625
 20
-59.76830291748047
 30
0.0
  0
POINT
  5
137
330
47
100
AcDbEntity
  8
0
 62
     0
100
AcDbPoint
 10
39.978515625
 20
-63.25647735595703
 30
0.0
  0
LINE
  5
138
330
47
100
AcDbEntity
  8
0
  6
Continuous
 62
     0
100
AcDbLine
 10
-29.0
 20
79.60001373291016
 30
0.0
 11
0.0
 21
79.60001373291016
 31
0.0
  0
LINE
  5
139
330
47
100
AcDbEntity
  8
0
  6
Continuous
 62
     0
100
AcDbLine
 10
-95.0
 20
78.60001373291016
 30
0.0
 11
-13.0
 21
78.60001373291016
 31
0.0
  0
LINE
  5
13A
330
47
100
AcDbEntity
  8
0
  6
Continuous
 62
     0
100
AcDbLine
 10
-95.0
 20
59.70478820800781
 30
0.0
 11
-13.0
 21
59.70478820800781
 31
0.0
  0
LINE
  5
13B
330
47
100
AcDbEntity
  8
0
  6
Continuous
 62
     0
100
AcDbLine
 10
-95.0
 20
40.88029479980469
 30
0.0
 11
-13.0
 21
40.88029479980469
 31
0.0
  0
LINE
  5
13C
330
47
100
AcDbEntity
  8
0
  6
Continuous
 62
     0
100
AcDbLine
 10
-95.0
 20
39.39297485351562
 30
0.0
 11
-13.0
 21
39.39297485351562
 31
0.0
  0
LINE
  5
13D
330
47
100
AcDbEntity
  8
0
  6
Continuous
 62
     0
100
AcDbLine
 10
0.0
 20
79.60001373291016
 30
0.0
 11
0.0
 21
-0.000003814697266
 31
0.0
  0
LINE
  5
13E
330
47
100
AcDbEntity
  8
0
  6
Continuous
 62
     0
100
AcDbLine
 10
-29.0
 20
79.60001373291016
 30
0.0
 11
-29.0
 21
78.60001373291016
 31
0.0
  0
LINE
  5
13F
330
47
100
AcDbEntity
  8
0
  6
Continuous
 62
     0
100
AcDbLine
 10
-13.0
 20
78.60001373291016
 30
0.0
 11
-13.0
 21
23.79472732543945
 31
0.0
  0
LINE
  5
140
330
47
100
AcDbEntity
  8
0
  6
Continuous
 62
     0
100
AcDbLine
 10
-12.99997729651504
 20
78.60006855875969
 30
0.0
 11
0.00002425712147
 21
77.60006839441364
 31
0.0
  0
LINE
  5
141
330
47
100
AcDbEntity
  8
0
  6
Continuous
 62
     0
100
AcDbLine
 10
0.000022320059649
 20
60.7048057752334
 30
0.0
 11
-12.99997923357686
 21
59.70480561088734
 31
0.0
  0
LINE
  5
142
330
47
100
AcDbEntity
  8
0
  6
DASHED
 62
     0
100
AcDbLine
 10
-95.0
 20
42.92411804199219
 30
0.0
 11
0.0
 21
42.92411804199219
 31
0.0
  0
LINE
  5
143
330
47
100
AcDbEntity
  8
0
  6
DASHED
 62
     0
100
AcDbLine
 10
-95.0
 20
45.10001373291016
 30
0.0
 11
0.0
 21
45.10001373291016
 31
0.0
  0
LINE
  5
144
330
47
100
AcDbEntity
  8
0
  6
DASHED
 62
     0
100
AcDbLine
 10
-119.0
 20
68.90000915527344
 30
0.0
 11
-117.0
 21
68.90000915527344
 31
0.0
  0
LINE
  5
145
330
47
100
AcDbEntity
  8
0
  6
CENTER
 62
     0
100
AcDbLine
 10
-95.0
 20
82.99993896484375
 30
0.0
 11
-95.0
 21
-31.10005187988281
 31
0.0
  0
LINE
  5
146
330
47
100
AcDbEntity
  8
0
  6
DASHED
 62
     0
100
AcDbLine
 10
-119.4298744607813
 20
44.27373341644115
 30
0.0
 11
-119.0000189768088
 21
68.90000224544968
 31
0.0
  0
LINE
  5
147
330
47
100
AcDbEntity
  8
0
  6
DASHED
 62
     0
100
AcDbLine
 10
-116.5701511521958
 20
44.27372285282312
 30
0.0
 11
-117.0000032541415
 21
68.900010817257
 31
0.0
  0
LINE
  5
148
330
47
100
AcDbEntity
  8
0
  6
DASHED
 62
     0
100
AcDbLine
 10
-119.4298553466797
 20
44.27372741699219
 30
0.0
 11
-116.5701599121094
 21
44.27372741699219
 31
0.0
  0
LINE
  5
149
330
47
100
AcDbEntity
  8
0
  6
Continuous
 62
     0
100
AcDbLine
 10
-13.00000566605862
 20
40.88029202957555
 30
0.0
 11
-0.000002708508056
 21
43.78524957969784
 31
0.0
  0
LINE
  5
14A
330
47
100
AcDbEntity
  8
0
  6
Continuous
 62
     0
100
AcDbLine
 10
0.000025924262165
 20
41.74706460403235
 30
0.0
 11
-12.99997429398346
 21
39.39296913037565
 31
0.0
  0
LINE
  5
14B
330
47
100
AcDbEntity
  8
0
  6
Continuous
 62
     0
100
AcDbLine
 10
-31.72438049316406
 20
1.500015258789062
 30
0.0
 11
-29.0
 21
1.500015258789062
 31
0.0
  0
LINE
  5
14C
330
47
100
AcDbEntity
  8
0
  6
DASHED
 62
     0
100
AcDbLine
 10
-15.0
 20
40.96237182617188
 30
0.0
 11
-15.0
 21
23.30710601806641
 31
0.0
  0
LINE
  5
14D
330
47
100
AcDbEntity
  8
0
  6
DASHED
 62
     0
100
AcDbLine
 10
-29.0
 20
40.96237182617188
 30
0.0
 11
-29.0
 21
20.30973434448242
 31
0.0
  0
LINE
  5
14E
330
47
100
AcDbEntity
  8
0
  6
Continuous
 62
     0
100
AcDbLine
 10
-31.0
 20
1.500015258789062
 30
0.0
 11
-31.0
 21
-11.19998550415039
 31
0.0
  0
LINE
  5
14F
330
47
100
AcDbEntity
  8
0
  6
Continuous
 62
     0
100
AcDbLine
 10
-15.0
 20
1.500015258789062
 30
0.0
 11
0.0
 21
1.500015258789062
 31
0.0
  0
LINE
  5
150
330
47
100
AcDbEntity
  8
0
  6
Continuous
 62
     0
100
AcDbLine
 10
-29.0
 20
-4.799884796142578
 30
0.0
 11
-29.0
 21
-12.69998550415039
 31
0.0
  0
LINE
  5
151
330
47
100
AcDbEntity
  8
0
  6
Continuous
 62
     0
100
AcDbLine
 10
-57.0
 20
-13.69998550415039
 30
0.0
 11
-30.0
 21
-13.69998550415039
 31
0.0
  0
LINE
  5
152
330
47
100
AcDbEntity
  8
0
  6
Continuous
 62
     0
100
AcDbLine
 10
-58.98439025878906
 20
-11.69998550415039
 30
0.0
 11
-31.5
 21
-11.69998550415039
 31
0.0
  0
LINE
  5
153
330
47
100
AcDbEntity
  8
0
  6
Continuous
 62
     0
100
AcDbLine
 10
-57.0
 20
-13.69998550415039
 30
0.0
 11
-57.0
 21
-14.69998550415039
 31
0.0
  0
LINE
  5
154
330
47
100
AcDbEntity
  8
0
  6
Continuous
 62
     0
100
AcDbLine
 10
-60.0
 20
-17.69998550415039
 30
0.0
 11
-60.0
 21
-18.69998550415039
 31
0.0
  0
LINE
  5
155
330
47
100
AcDbEntity
  8
0
  6
Continuous
 62
     0
100
AcDbLine
 10
-62.05000305175781
 20
-14.69998550415039
 30
0.0
 11
-62.05000305175781
 21
-17.69998550415039
 31
0.0
  0
LINE
  5
156
330
47
100
AcDbEntity
  8
0
  6
Continuous
 62
     0
100
AcDbLine
 10
-62.05000305175781
 20
-14.69998550415039
 30
0.0
 11
-57.0
 21
-14.69998550415039
 31
0.0
  0
LINE
  5
157
330
47
100
AcDbEntity
  8
0
  6
Continuous
 62
     0
100
AcDbLine
 10
-62.05000305175781
 20
-17.69998550415039
 30
0.0
 11
-60.0
 21
-17.69998550415039
 31
0.0
  0
LINE
  5
158
330
47
100
AcDbEntity
  8
0
  6
Continuous
 62
     0
100
AcDbLine
 10
-64.05000305175781
 20
-13.69998550415039
 30
0.0
 11
-64.05000305175781
 21
-17.69998550415039
 31
0.0
  0
LINE
  5
159
330
47
100
AcDbEntity
  8
0
  6
Continuous
 62
     0
100
AcDbLine
 10
-83.55867004394531
 20
-12.69998550415039
 30
0.0
 11
-59.5
 21
-12.69998550415039
 31
0.0
  0
LINE
  5
15A
330
47
100
AcDbEntity
  8
0
  6
Continuous
 62
     0
100
AcDbLine
 10
-65.14999389648438
 20
-20.69998550415039
 30
0.0
 11
-61.7320556640625
 21
-20.69998550415039
 31
0.0
  0
LINE
  5
15B
330
47
100
AcDbEntity
  8
0
  6
Continuous
 62
     0
100
AcDbLine
 10
-60.86598442641981
 20
-20.20001799004151
 30
0.0
 11
-59.9999565053019
 21
-18.70001383562888
 31
0.0
  0
LINE
  5
15C
330
47
100
AcDbEntity
  8
0
  6
Continuous
 62
     0
100
AcDbLine
 10
-95.0
 20
-25.69998168945312
 30
0.0
 11
-65.7401123046875
 21
-25.69998168945312
 31
0.0
  0
LINE
  5
15D
330
47
100
AcDbEntity
  8
0
  6
Continuous
 62
     0
100
AcDbLine
 10
-65.15003041710595
 20
-20.69998064524751
 30
0.0
 11
-65.24023586003021
 21
-25.20997721599164
 31
0.0
  0
LINE
  5
15E
330
47
100
AcDbEntity
  8
0
  6
Continuous
 62
     0
100
AcDbLine
 10
-67.12997562861733
 20
-19.67997392458603
 30
0.0
 11
-67.25038317551795
 21
-25.69998342744378
 31
0.0
  0
LINE
  5
15F
330
47
100
AcDbEntity
  8
0
  6
Continuous
 62
     0
100
AcDbLine
 10
-85.94296264648438
 20
-18.69998550415039
 30
0.0
 11
-65.05000305175781
 21
-18.69998550415039
 31
0.0
  0
LINE
  5
160
330
47
100
AcDbEntity
  8
0
  6
Continuous
 62
     0
100
AcDbLine
 10
-161.0
 20
79.60001373291016
 30
0.0
 11
-190.0
 21
79.60001373291016
 31
0.0
  0
LINE
  5
161
330
47
100
AcDbEntity
  8
0
  6
Continuous
 62
     0
100
AcDbLine
 10
-95.0
 20
78.60001373291016
 30
0.0
 11
-177.0
 21
78.60001373291016
 31
0.0
  0
LINE
  5
162
330
47
100
AcDbEntity
  8
0
  6
Continuous
 62
     0
100
AcDbLine
 10
-95.0
 20
59.70478820800781
 30
0.0
 11
-177.0
 21
59.70478820800781
 31
0.0
  0
LINE
  5
163
330
47
100
AcDbEntity
  8
0
  6
Continuous
 62
     0
100
AcDbLine
 10
-95.0
 20
40.88029479980469
 30
0.0
 11
-177.0
 21
40.88029479980469
 31
0.0
  0
LINE
  5
164
330
47
100
AcDbEntity
  8
0
  6
Continuous
 62
     0
100
AcDbLine
 10
-95.0
 20
39.39297485351562
 30
0.0
 11
-177.0
 21
39.39297485351562
 31
0.0
  0
LINE
  5
165
330
47
100
AcDbEntity
  8
0
  6
Continuous
 62
     0
100
AcDbLine
 10
-190.0
 20
79.60001373291016
 30
0.0
 11
-190.0
 21
-0.000011444091797
 31
0.0
  0
LINE
  5
166
330
47
100
AcDbEntity
  8
0
  6
Continuous
 62
     0
100
AcDbLine
 10
-161.0
 20
79.60001373291016
 30
0.0
 11
-161.0
 21
78.60001373291016
 31
0.0
  0
LINE
  5
167
330
47
100
AcDbEntity
  8
0
  6
Continuous
 62
     0
100
AcDbLine
 10
-177.0
 20
78.60001373291016
 30
0.0
 11
-177.0
 21
-1.897720336914062
 31
0.0
  0
LINE
  5
168
330
47
100
AcDbEntity
  8
0
  6
Continuous
 62
     0
100
AcDbLine
 10
-177.0000074259801
 20
78.60005327862936
 30
0.0
 11
-190.0000241934607
 21
77.60005194398757
 31
0.0
  0
LINE
  5
169
330
47
100
AcDbEntity
  8
0
  6
Continuous
 62
     0
100
AcDbLine
 10
-190.0000207935292
 20
60.70484124296456
 30
0.0
 11
-177.0000344537368
 21
59.70484224891426
 31
0.0
  0
LINE
  5
16A
330
47
100
AcDbEntity
  8
0
  6
DASHED
 62
     0
100
AcDbLine
 10
-95.0
 20
42.92411804199219
 30
0.0
 11
-190.0
 21
42.92411804199219
 31
0.0
  0
LINE
  5
16B
330
47
100
AcDbEntity
  8
0
  6
DASHED
 62
     0
100
AcDbLine
 10
-95.0
 20
45.10001373291016
 30
0.0
 11
-190.0
 21
45.10001373291016
 31
0.0
  0
LINE
  5
16C
330
47
100
AcDbEntity
  8
0
  6
Continuous
 62
     0
100
AcDbLine
 10
-177.0000086899355
 20
40.88030181487564
 30
0.0
 11
-190.0000265390104
 21
43.7852626926315
 31
0.0
  0
LINE
  5
16D
330
47
100
AcDbEntity
  8
0
  6
Continuous
 62
     0
100
AcDbLine
 10
-190.0000356940511
 20
41.74707338615852
 30
0.0
 11
-177.0000354758055
 21
39.39297791250181
 31
0.0
  0
LINE
  5
16E
330
47
100
AcDbEntity
  8
0
  6
DASHED
 62
     0
100
AcDbLine
 10
-161.0
 20
40.96237182617188
 30
0.0
 11
-161.0
 21
-1.0
 31
0.0
  0
LINE
  5
16F
330
47
100
AcDbEntity
  8
0
  6
Continuous
 62
     0
100
AcDbLine
 10
-133.0
 20
-13.69998550415039
 30
0.0
 11
-160.0
 21
-13.69998550415039
 31
0.0
  0
LINE
  5
170
330
47
100
AcDbEntity
  8
0
  6
Continuous
 62
     0
100
AcDbLine
 10
-133.0
 20
-13.69998550415039
 30
0.0
 11
-133.0
 21
-14.69998550415039
 31
0.0
  0
LINE
  5
171
330
47
100
AcDbEntity
  8
0
  6
Continuous
 62
     0
100
AcDbLine
 10
-130.0
 20
-17.69998550415039
 30
0.0
 11
-130.0
 21
-18.69998550415039
 31
0.0
  0
LINE
  5
172
330
47
100
AcDbEntity
  8
0
  6
Continuous
 62
     0
100
AcDbLine
 10
-127.9499969482422
 20
-14.69998550415039
 30
0.0
 11
-127.9499969482422
 21
-17.69998550415039
 31
0.0
  0
LINE
  5
173
330
47
100
AcDbEntity
  8
0
  6
Continuous
 62
     0
100
AcDbLine
 10
-84.05834197998047
 20
-14.69998550415039
 30
0.0
 11
-133.0
 21
-14.69998550415039
 31
0.0
  0
LINE
  5
174
330
47
100
AcDbEntity
  8
0
  6
Continuous
 62
     0
100
AcDbLine
 10
-85.31098937988281
 20
-17.69998550415039
 30
0.0
 11
-130.0
 21
-17.69998550415039
 31
0.0
  0
LINE
  5
175
330
47
100
AcDbEntity
  8
0
  6
DASHED
 62
     0
100
AcDbLine
 10
-125.9499969482422
 20
-13.69998550415039
 30
0.0
 11
-125.9499969482422
 21
-17.69998550415039
 31
0.0
  0
LINE
  5
176
330
47
100
AcDbEntity
  8
0
  6
DASHED
 62
     0
100
AcDbLine
 10
-126.9499969482422
 20
-12.69998550415039
 30
0.0
 11
-130.5
 21
-12.69998550415039
 31
0.0
  0
LINE
  5
177
330
47
100
AcDbEntity
  8
0
  6
Continuous
 62
     0
100
AcDbLine
 10
-131.0
 20
-12.09988403320312
 30
0.0
 11
-131.0
 21
-12.09988403320312
 31
0.0
  0
LINE
  5
178
330
47
100
AcDbEntity
  8
0
  6
Continuous
 62
     0
100
AcDbLine
 10
-86.64239501953125
 20
-20.69998550415039
 30
0.0
 11
-128.2679443359375
 21
-20.69998550415039
 31
0.0
  0
LINE
  5
179
330
47
100
AcDbEntity
  8
0
  6
Continuous
 62
     0
100
AcDbLine
 10
-129.1339634176459
 20
-20.20001237657436
 30
0.0
 11
-129.9999932461127
 21
-18.70000491853709
 31
0.0
  0
LINE
  5
17A
330
47
100
AcDbEntity
  8
0
  6
Continuous
 62
     0
100
AcDbLine
 10
-95.0
 20
-25.69998168945312
 30
0.0
 11
-124.2598876953125
 21
-25.69998168945312
 31
0.0
  0
LINE
  5
17B
330
47
100
AcDbEntity
  8
0
  6
Continuous
 62
     0
100
AcDbLine
 10
-124.849998889106
 20
-20.6999845189617
 30
0.0
 11
-124.7597934461817
 21
-25.20998108970582
 31
0.0
  0
LINE
  5
17C
330
47
100
AcDbEntity
  8
0
  6
DASHED
 62
     0
100
AcDbLine
 10
-122.8700152331166
 20
-19.67999229120456
 30
0.0
 11
-122.7496079913493
 21
-25.69998653832446
 31
0.0
  0
LINE
  5
17D
330
47
100
AcDbEntity
  8
0
  6
Continuous
 62
     0
100
AcDbLine
 10
-85.94296264648438
 20
-18.69998550415039
 30
0.0
 11
-130.0
 21
-18.69998550415039
 31
0.0
  0
LINE
  5
17E
330
47
100
AcDbEntity
  8
0
  6
Continuous
 62
     0
100
AcDbLine
 10
-59.0
 20
-11.6996955871582
 30
0.0
 11
-59.0
 21
-12.19998550415039
 31
0.0
  0
LINE
  5
17F
330
47
100
AcDbEntity
  8
0
  6
DASHED
 62
     0
100
AcDbLine
 10
-131.0
 20
-11.01021194458008
 30
0.0
 11
-131.0
 21
-12.19998550415039
 31
0.0
  0
LINE
  5
180
330
47
100
AcDbEntity
  8
0
  6
DASHED
 62
     0
100
AcDbLine
 10
-161.0
 20
40.96237182617188
 30
0.0
 11
-158.275634765625
 21
40.96237182617188
 31
0.0
  0
LINE
  5
181
330
47
100
AcDbEntity
  8
0
  6
DASHED
 62
     0
100
AcDbLine
 10
-31.72438049316406
 20
40.96237182617188
 30
0.0
 11
-15.0
 21
40.96237182617188
 31
0.0
  0
LINE
  5
182
330
47
100
AcDbEntity
  8
0
  6
DASHED
 62
     0
100
AcDbLine
 10
-31.72438049316406
 20
40.96237182617188
 30
0.0
 11
-31.72438049316406
 21
20.02822875976562
 31
0.0
  0
LINE
  5
183
330
47
100
AcDbEntity
  8
0
  6
Continuous
 62
     0
100
AcDbLine
 10
-31.72438049316406
 20
20.02822875976562
 30
0.0
 11
-31.72438049316406
 21
-10.51052856445312
 31
0.0
  0
LINE
  5
184
330
47
100
AcDbEntity
  8
0
  6
Continuous
 62
     0
100
AcDbLine
 10
-29.0
 20
20.30973434448242
 30
0.0
 11
-29.0
 21
-0.700000762939453
 31
0.0
  0
LINE
  5
185
330
47
100
AcDbEntity
  8
0
  6
DASHED
 62
     0
100
AcDbLine
 10
-158.275634765625
 20
40.96237182617188
 30
0.0
 11
-158.275634765625
 21
-10.51052856445312
 31
0.0
  0
LINE
  5
186
330
47
100
AcDbEntity
  8
0
  6
Continuous
 62
     0
100
AcDbLine
 10
-15.0
 20
23.30710601806641
 30
0.0
 11
-15.0
 21
-0.700000762939453
 31
0.0
  0
LINE
  5
187
330
47
100
AcDbEntity
  8
0
  6
DASHED
 62
     0
100
AcDbLine
 10
-175.0
 20
40.96237182617188
 30
0.0
 11
-175.0
 21
-1.0
 31
0.0
  0
LINE
  5
188
330
47
100
AcDbEntity
  8
0
  6
DASHED
 62
     0
100
AcDbLine
 10
-177.7243957519531
 20
40.96237182617188
 30
0.0
 11
-177.7243957519531
 21
1.500015258789062
 31
0.0
  0
LINE
  5
189
330
47
100
AcDbEntity
  8
0
  6
DASHED
 62
     0
100
AcDbLine
 10
-175.0
 20
40.96237182617188
 30
0.0
 11
-177.7243957519531
 21
40.96237182617188
 31
0.0
  0
LINE
  5
18A
330
47
100
AcDbEntity
  8
0
  6
DASHED
 62
     0
100
AcDbLine
 10
-73.0
 20
68.90000915527344
 30
0.0
 11
-71.0
 21
68.90000915527344
 31
0.0
  0
LINE
  5
18B
330
47
100
AcDbEntity
  8
0
  6
DASHED
 62
     0
100
AcDbLine
 10
-73.42985703308135
 20
44.27372485793045
 30
0.0
 11
-73.00000134938075
 21
68.90000512928776
 31
0.0
  0
LINE
  5
18C
330
47
100
AcDbEntity
  8
0
  6
DASHED
 62
     0
100
AcDbLine
 10
-70.57012629598881
 20
44.27373604767219
 30
0.0
 11
-70.99997813163274
 21
68.90000875564098
 31
0.0
  0
LINE
  5
18D
330
47
100
AcDbEntity
  8
0
  6
DASHED
 62
     0
100
AcDbLine
 10
-73.42985534667969
 20
44.27372741699219
 30
0.0
 11
-70.57015991210938
 21
44.27372741699219
 31
0.0
  0
LINE
  5
18E
330
47
100
AcDbEntity
  8
0
  6
Continuous
 62
     0
100
AcDbLine
 10
-28.69999694824219
 20
-1.0
 30
0.0
 11
-15.30000305175781
 21
-1.0
 31
0.0
  0
LINE
  5
18F
330
47
100
AcDbEntity
  8
0
  6
Continuous
 62
     0
100
AcDbLine
 10
-28.0
 20
-3.699985504150391
 30
0.0
 11
-19.97679138183594
 21
-3.699985504150391
 31
0.0
  0
LINE
  5
190
330
47
100
AcDbEntity
  8
0
  6
Continuous
 62
     0
100
AcDbLine
 10
0.00000532846006
 20
-0.00001872168808
 30
0.0
 11
-6.289636267817593
 21
-1.790140632566662
 31
0.0
  0
LINE
  5
191
330
47
100
AcDbEntity
  8
0
  6
DASHED
 62
     0
100
AcDbLine
 10
-157.775634765625
 20
-11.01052856445312
 30
0.0
 11
-83.19145965576172
 21
-11.01052856445312
 31
0.0
  0
LINE
  5
192
330
47
100
AcDbEntity
  8
0
  6
Continuous
 62
     0
100
AcDbLine
 10
-83.19145965576172
 20
-11.01052856445312
 30
0.0
 11
-32.22438049316406
 21
-11.01052856445312
 31
0.0
  0
LINE
  5
193
330
47
100
AcDbEntity
  8
0
  6
Continuous
 62
     0
100
AcDbLine
 10
-159.275634765625
 20
-12.97561645507812
 30
0.0
 11
-83.52714538574219
 21
-12.97561645507812
 31
0.0
  0
LINE
  5
194
330
47
100
AcDbEntity
  8
0
  6
Continuous
 62
     0
100
AcDbLine
 10
-177.0
 20
5.0
 30
0.0
 11
-72.11524963378906
 21
5.0
 31
0.0
  0
LINE
  5
195
330
47
100
AcDbEntity
  8
0
  6
Continuous
 62
     0
100
AcDbLine
 10
-170.0232086181641
 20
-2.974090576171875
 30
0.0
 11
-79.31315612792969
 21
-2.974090576171875
 31
0.0
  0
LINE
  5
196
330
47
100
AcDbEntity
  8
0
  6
DASHED
 62
     0
100
AcDbLine
 10
-175.0
 20
1.500015258789062
 30
0.0
 11
-190.0
 21
1.500015258789062
 31
0.0
  0
LINE
  5
197
330
47
100
AcDbEntity
  8
0
  6
Continuous
 62
     0
100
AcDbLine
 10
-190.0000343229933
 20
-0.000009584381282
 30
0.0
 11
-183.7103927267156
 21
-1.790131495259864
 31
0.0
  0
LINE
  5
198
330
47
100
AcDbEntity
  8
0
  6
DASHED
 62
     0
100
AcDbLine
 10
-161.0
 20
-1.0
 30
0.0
 11
-175.0
 21
-1.0
 31
0.0
  0
LINE
  5
199
330
47
100
AcDbEntity
  8
0
  6
Continuous
 62
     0
100
AcDbLine
 10
-161.0
 20
-4.699985504150391
 30
0.0
 11
-161.0
 21
-12.69998550415039
 31
0.0
  0
LINE
  5
19A
330
47
100
AcDbEntity
  8
0
  6
Continuous
 62
     0
100
AcDbLine
 10
-170.0232086181641
 20
-3.699985504150391
 30
0.0
 11
-162.0
 21
-3.699985504150391
 31
0.0
  0
LINE
  5
19B
330
47
100
AcDbEntity
  8
0
  6
DASHED
 62
     0
100
AcDbLine
 10
-161.0
 20
1.500015258789062
 30
0.0
 11
-158.275634765625
 21
1.500015258789062
 31
0.0
  0
LINE
  5
19C
330
47
100
AcDbEntity
  8
0
  6
Continuous
 62
     0
100
AcDbLine
 10
-189.9999951197501
 20
0.754698444042873
 30
0.0
 11
-183.5116411902754
 21
-1.091979837524363
 31
0.0
  0
LINE
  5
19D
330
47
100
AcDbEntity
  8
0
  6
Continuous
 62
     0
100
AcDbLine
 10
-160.275634765625
 20
-3.974090576171875
 30
0.0
 11
-160.275634765625
 21
-11.97561645507812
 31
0.0
  0
LINE
  5
19E
330
47
100
AcDbEntity
  8
0
  6
Continuous
 62
     0
100
AcDbLine
 10
-176.9999934410451
 20
4.999994221413758
 30
0.0
 11
-189.9999954346597
 21
8.02349315299221
 31
0.0
  0
LINE
  5
19F
330
47
100
AcDbEntity
  8
0
  6
Continuous
 62
     0
100
AcDbLine
 10
-160.275634765625
 20
-3.699985504150391
 30
0.0
 11
-79.71110534667969
 21
-3.699985504150391
 31
0.0
  0
LINE
  5
1A0
330
47
100
AcDbEntity
  8
0
  6
Continuous
 62
     0
100
AcDbLine
 10
-220.0
 20
17.64468002319336
 30
0.0
 11
-210.0
 21
17.64468002319336
 31
0.0
  0
LINE
  5
1A1
330
47
100
AcDbEntity
  8
0
  6
Continuous
 62
     0
100
AcDbLine
 10
-210.0
 20
17.64468002319336
 30
0.0
 11
-147.0
 21
17.64468002319336
 31
0.0
  0
LINE
  5
1A2
330
47
100
AcDbEntity
  8
0
  6
Continuous
 62
     0
100
AcDbLine
 10
-147.0
 20
17.64468002319336
 30
0.0
 11
-137.0
 21
17.64468002319336
 31
0.0
  0
LINE
  5
1A3
330
47
100
AcDbEntity
  8
0
  6
Continuous
 62
     0
100
AcDbLine
 10
-215.0
 20
17.64468002319336
 30
0.0
 11
-215.0
 21
27.64468002319336
 31
0.0
  0
LINE
  5
1A4
330
47
100
AcDbEntity
  8
0
  6
Continuous
 62
     0
100
AcDbLine
 10
-142.0
 20
17.64468002319336
 30
0.0
 11
-142.0
 21
27.64468002319336
 31
0.0
  0
LINE
  5
1A5
330
47
100
AcDbEntity
  8
0
  6
Continuous
 62
     0
100
AcDbLine
 10
107.5560607910156
 20
1.500030517578125
 30
0.0
 11
119.0788879394531
 21
1.500030517578125
 31
0.0
  0
LINE
  5
1A6
330
47
100
AcDbEntity
  8
0
  6
Continuous
 62
     0
100
AcDbLine
 10
107.5561899665297
 20
1.500095894406533
 30
0.0
 11
106.1563504760177
 21
17.50035231447788
 31
0.0
  0
LINE
  5
1A7
330
47
100
AcDbEntity
  8
0
  6
Continuous
 62
     0
100
AcDbLine
 10
193.7563876391828
 20
1.499999383065312
 30
0.0
 11
194.1478784180337
 21
5.974756414217303
 31
0.0
  0
LINE
  5
1A8
330
47
100
AcDbEntity
  8
0
  6
Continuous
 62
     0
100
AcDbLine
 10
117.5560607910156
 20
9.500030517578125
 30
0.0
 11
117.8521423339844
 21
9.500030517578125
 31
0.0
  0
LINE
  5
1A9
330
47
100
AcDbEntity
  8
0
  6
Continuous
 62
     0
100
AcDbLine
 10
118.5559997558594
 20
8.5
 30
0.0
 11
118.5559997558594
 21
3.5
 31
0.0
  0
LINE
  5
1AA
330
47
100
AcDbEntity
  8
0
  6
Continuous
 62
     0
100
AcDbLine
 10
104.4036382077374
 20
20.3234661728734
 30
0.0
 11
102.5903383605498
 21
41.0496013606051
 31
0.0
  0
LINE
  5
1AB
330
47
100
AcDbEntity
  8
0
  6
Continuous
 62
     0
100
AcDbLine
 10
101.4150088184649
 20
20.06199144390329
 30
0.0
 11
99.7542767349141
 21
39.0442671704821
 31
0.0
  0
LINE
  5
1AC
330
47
100
AcDbEntity
  8
0
  6
DASHED
 62
     0
100
AcDbLine
 10
103.4073826983144
 20
20.23630520694157
 30
0.0
 11
101.5940836823079
 21
40.96243089422021
 31
0.0
  0
LINE
  5
1AD
330
47
100
AcDbEntity
  8
0
  6
Continuous
 62
     0
100
AcDbLine
 10
117.0559997558594
 20
7.56011962890625
 30
0.0
 11
117.0559997558594
 21
3.698738098144531
 31
0.0
  0
LINE
  5
1AE
330
47
100
AcDbEntity
  8
0
  6
Continuous
 62
     0
100
AcDbLine
 10
114.0559997558594
 20
5.05181884765625
 30
0.0
 11
114.0559997558594
 21
0.05975341796875
 31
0.0
  0
LINE
  5
1AF
330
47
100
AcDbEntity
  8
0
  6
DASHED
 62
     0
100
AcDbLine
 10
116.0559997558594
 20
7.1116943359375
 30
0.0
 11
116.0559997558594
 21
3.5
 31
0.0
  0
LINE
  5
1B0
330
47
100
AcDbEntity
  8
0
  6
Continuous
 62
     0
100
AcDbLine
 10
195.8854850761195
 20
8.62494456057161
 30
0.0
 11
198.5220518075173
 21
38.76101967849321
 31
0.0
  0
LINE
  5
1B1
330
47
100
AcDbEntity
  8
0
  6
Continuous
 62
     0
100
AcDbLine
 10
198.8565848986684
 20
8.163631328109762
 30
0.0
 11
201.4988743215482
 21
38.36511706444037
 31
0.0
  0
LINE
  5
1B2
330
47
100
AcDbEntity
  8
0
  6
DASHED
 62
     0
100
AcDbLine
 10
196.8857829113625
 20
8.58486293298403
 30
0.0
 11
199.7129896599433
 21
40.89996193446223
 31
0.0
  0
LINE
  5
1B3
330
47
100
AcDbEntity
  8
0
  6
Continuous
 62
     0
100
AcDbLine
 10
198.1194763183594
 20
40.90008544921875
 30
0.0
 11
203.9831237792969
 21
40.90008544921875
 31
0.0
  0
LINE
  5
1B4
330
47
100
AcDbEntity
  8
0
  6
Continuous
 62
     0
100
AcDbLine
 10
196.4831237792969
 20
51.60002899169922
 30
0.0
 11
203.9831237792969
 21
51.60002899169922
 31
0.0
  0
LINE
  5
1B5
330
47
100
AcDbEntity
  8
0
  6
Continuous
 62
     0
100
AcDbLine
 10
204.4830322265625
 20
51.10000610351562
 30
0.0
 11
204.4830322265625
 21
41.4000244140625
 31
0.0
  0
LINE
  5
1B6
330
47
100
AcDbEntity
  8
0
  6
Continuous
 62
     0
100
AcDbLine
 10
206.4830322265625
 20
51.60000610351562
 30
0.0
 11
206.4830322265625
 21
40.86541748046875
 31
0.0
  0
LINE
  5
1B7
330
47
100
AcDbEntity
  8
0
  6
Continuous
 62
     0
100
AcDbLine
 10
198.2151794433594
 20
53.60002899169922
 30
0.0
 11
204.4831237792969
 21
53.60002899169922
 31
0.0
  0
LINE
  5
1B8
330
47
100
AcDbEntity
  8
0
  6
Continuous
 62
     0
100
AcDbLine
 10
203.1615600585938
 20
48.90008544921875
 30
0.0
 11
204.4831237792969
 21
48.90008544921875
 31
0.0
  0
LINE
  5
1B9
330
47
100
AcDbEntity
  8
0
  6
Continuous
 62
     0
100
AcDbLine
 10
196.4830627441406
 20
51.60000610351562
 30
0.0
 11
196.4830627441406
 21
50.60000610351562
 31
0.0
  0
LINE
  5
1BA
330
47
100
AcDbEntity
  8
0
  6
CENTER
 62
     0
100
AcDbLine
 10
160.5559997558594
 20
45.36605834960938
 30
0.0
 11
160.5559997558594
 21
-30.5
 31
0.0
  0
LINE
  5
1BB
330
47
100
AcDbEntity
  8
0
  6
Continuous
 62
     0
100
AcDbLine
 10
119.0559997558594
 20
-3.0
 30
0.0
 11
119.0559997558594
 21
-11.992919921875
 31
0.0
  0
LINE
  5
1BC
330
47
100
AcDbEntity
  8
0
  6
Continuous
 62
     0
100
AcDbLine
 10
122.5560607910156
 20
-14.70000076293945
 30
0.0
 11
198.5560607910156
 21
-14.70000076293945
 31
0.0
  0
LINE
  5
1BD
330
47
100
AcDbEntity
  8
0
  6
Continuous
 62
     0
100
AcDbLine
 10
122.5559997558594
 20
-13.03670883178711
 30
0.0
 11
122.5559997558594
 21
-14.70003128051758
 31
0.0
  0
LINE
  5
1BE
330
47
100
AcDbEntity
  8
0
  6
Continuous
 62
     0
100
AcDbLine
 10
198.5559692382812
 20
-13.03670883178711
 30
0.0
 11
198.5559692382812
 21
-14.70003128051758
 31
0.0
  0
LINE
  5
1BF
330
47
100
AcDbEntity
  8
0
  6
Continuous
 62
     0
100
AcDbLine
 10
125.5560607910156
 20
-17.70000076293945
 30
0.0
 11
195.5560607910156
 21
-17.70000076293945
 31
0.0
  0
LINE
  5
1C0
330
47
100
AcDbEntity
  8
0
  6
Continuous
 62
     0
100
AcDbLine
 10
131.2961730957031
 20
-25.69999694824219
 30
0.0
 11
189.8159484863281
 21
-25.69999694824219
 31
0.0
  0
LINE
  5
1C1
330
47
100
AcDbEntity
  8
0
  6
Continuous
 62
     0
100
AcDbLine
 10
125.5559997558594
 20
-17.70003128051758
 30
0.0
 11
125.5559997558594
 21
-18.70003128051758
 31
0.0
  0
LINE
  5
1C2
330
47
100
AcDbEntity
  8
0
  6
Continuous
 62
     0
100
AcDbLine
 10
195.5559997558594
 20
-17.70003128051758
 30
0.0
 11
195.5559997558594
 21
-18.70003128051758
 31
0.0
  0
LINE
  5
1C3
330
47
100
AcDbEntity
  8
0
  6
Continuous
 62
     0
100
AcDbLine
 10
127.6060180664062
 20
-14.70003128051758
 30
0.0
 11
127.6060180664062
 21
-17.70003128051758
 31
0.0
  0
LINE
  5
1C4
330
47
100
AcDbEntity
  8
0
  6
Continuous
 62
     0
100
AcDbLine
 10
193.5060119628906
 20
-14.70003128051758
 30
0.0
 11
193.5060119628906
 21
-17.70003128051758
 31
0.0
  0
LINE
  5
1C5
330
47
100
AcDbEntity
  8
0
  6
Continuous
 62
     0
100
AcDbLine
 10
126.7107849121094
 20
-20.70000076293945
 30
0.0
 11
194.4013671875
 21
-20.70000076293945
 31
0.0
  0
LINE
  5
1C6
330
47
100
AcDbEntity
  8
0
  6
Continuous
 62
     0
100
AcDbLine
 10
130.7063242535995
 20
-20.69997686779667
 30
0.0
 11
130.7965227446167
 21
-25.20996976212197
 31
0.0
  0
LINE
  5
1C7
330
47
100
AcDbEntity
  8
0
  6
Continuous
 62
     0
100
AcDbLine
 10
190.4063384495492
 20
-20.70000376697256
 30
0.0
 11
190.3161399585319
 21
-25.20999666129785
 31
0.0
  0
LINE
  5
1C8
330
47
100
AcDbEntity
  8
0
  6
Continuous
 62
     0
100
AcDbLine
 10
125.5560607910156
 20
-18.70000076293945
 30
0.0
 11
195.5560607910156
 21
-18.70000076293945
 31
0.0
  0
LINE
  5
1C9
330
47
100
AcDbEntity
  8
0
  6
Continuous
 62
     0
100
AcDbLine
 10
194.4013809091612
 20
-20.70005707516718
 30
0.0
 11
195.5560822608533
 21
-18.70005594078316
 31
0.0
  0
LINE
  5
1CA
330
47
100
AcDbEntity
  8
0
  6
Continuous
 62
     0
100
AcDbLine
 10
125.5561537913957
 20
-18.69994435121069
 30
0.0
 11
126.7108475136925
 21
-20.69993227109619
 31
0.0
  0
LINE
  5
1CB
330
47
100
AcDbEntity
  8
0
  6
Continuous
 62
     0
100
AcDbLine
 10
198.5220061274255
 20
38.76102583487031
 30
0.0
 11
204.5180104925163
 21
38.86568647477747
 31
0.0
  0
LINE
  5
1CC
330
47
100
AcDbEntity
  8
0
  6
Continuous
 62
     0
100
AcDbLine
 10
105.897921004798
 20
20.45421797839471
 30
0.0
 11
103.9930855197617
 21
42.22661146008168
 31
0.0
  0
LINE
  5
1CD
330
47
100
AcDbEntity
  8
0
  6
Continuous
 62
     0
100
AcDbLine
 10
120.5560607910156
 20
1.500030517578125
 30
0.0
 11
186.4254150390625
 21
1.500030517578125
 31
0.0
  0
LINE
  5
1CE
330
47
100
AcDbEntity
  8
0
  6
Continuous
 62
     0
100
AcDbLine
 10
188.9557189941406
 20
1.500030517578125
 30
0.0
 11
193.7560729980469
 21
1.500030517578125
 31
0.0
  0
LINE
  5
1CF
330
47
100
AcDbEntity
  8
0
  6
Continuous
 62
     0
100
AcDbLine
 10
194.3952916906302
 20
8.802701134655774
 30
0.0
 11
197.1235752545013
 21
39.98710373091298
 31
0.0
  0
LINE
  5
1D0
330
47
100
AcDbEntity
  8
0
  6
Continuous
 62
     0
100
AcDbLine
 10
83.84158325195312
 20
61.90003967285156
 30
0.0
 11
93.42526245117188
 21
61.90003967285156
 31
0.0
  0
LINE
  5
1D1
330
47
100
AcDbEntity
  8
0
  6
Continuous
 62
     0
100
AcDbLine
 10
83.84158325195312
 20
76.60005187988281
 30
0.0
 11
94.34158325195312
 21
76.60005187988281
 31
0.0
  0
LINE
  5
1D2
330
47
100
AcDbEntity
  8
0
  6
Continuous
 62
     0
100
AcDbLine
 10
96.14953120267806
 20
45.00939122652329
 30
0.0
 11
103.2555770699789
 21
43.10533217829003
 31
0.0
  0
LINE
  5
1D3
330
47
100
AcDbEntity
  8
0
  6
Continuous
 62
     0
100
AcDbLine
 10
95.59889808252252
 20
43.60397125995139
 30
0.0
 11
101.8527726268283
 21
41.92825080514883
 31
0.0
  0
LINE
  5
1D4
330
47
100
AcDbEntity
  8
0
  6
DASHED
 62
     0
100
AcDbLine
 10
96.04324842489962
 20
42.4496633783825
 30
0.0
 11
101.5939909837545
 21
40.96234655113895
 31
0.0
  0
LINE
  5
1D5
330
47
100
AcDbEntity
  8
0
  6
Continuous
 62
     0
100
AcDbLine
 10
94.84921370288075
 20
40.6990476884466
 30
0.0
 11
99.38545115079447
 21
39.48356665737418
 31
0.0
  0
LINE
  5
1D6
330
47
100
AcDbEntity
  8
0
  6
DASHED
 62
     0
100
AcDbLine
 10
96.04335196180413
 20
42.4497805381752
 30
0.0
 11
95.78096739884383
 21
45.44885315792091
 31
0.0
  0
LINE
  5
1D7
330
47
100
AcDbEntity
  8
0
  6
Continuous
 62
     0
100
AcDbLine
 10
94.11199878394754
 20
41.57790864507857
 30
0.0
 11
92.56533715168143
 21
59.25635169449744
 31
0.0
  0
LINE
  5
1D8
330
47
100
AcDbEntity
  8
0
  6
Continuous
 62
     0
100
AcDbLine
 10
94.86160078789986
 20
44.48284708163207
 30
0.0
 11
93.50514528916189
 21
59.98722165409472
 31
0.0
  0
LINE
  5
1D9
330
47
100
AcDbEntity
  8
0
  6
Continuous
 62
     0
100
AcDbLine
 10
83.34158325195312
 20
77.60005187988281
 30
0.0
 11
92.34158325195312
 21
77.60005187988281
 31
0.0
  0
LINE
  5
1DA
330
47
100
AcDbEntity
  8
0
  6
Continuous
 62
     0
100
AcDbLine
 10
83.34158325195312
 20
78.60005187988281
 30
0.0
 11
92.60952758789062
 21
78.60005187988281
 31
0.0
  0
LINE
  5
1DB
330
47
100
AcDbEntity
  8
0
  6
Continuous
 62
     0
100
AcDbLine
 10
83.34158325195312
 20
60.90001678466797
 30
0.0
 11
92.5089111328125
 21
60.90001678466797
 31
0.0
  0
LINE
  5
1DC
330
47
100
AcDbEntity
  8
0
  6
Continuous
 62
     0
100
AcDbLine
 10
94.34152221679688
 20
76.60000610351562
 30
0.0
 11
94.34152221679688
 21
75.60000610351562
 31
0.0
  0
LINE
  5
1DD
330
47
100
AcDbEntity
  8
0
  6
Continuous
 62
     0
100
AcDbLine
 10
83.34152221679688
 20
76.10000610351562
 30
0.0
 11
83.34152221679688
 21
62.40000915527344
 31
0.0
  0
LINE
  5
1DE
330
47
100
AcDbEntity
  8
0
  6
Continuous
 62
     0
100
AcDbLine
 10
82.34152221679688
 20
76.60000610351562
 30
0.0
 11
82.34152221679688
 21
61.90000915527344
 31
0.0
  0
LINE
  5
1DF
330
47
100
AcDbEntity
  8
0
  6
Continuous
 62
     0
100
AcDbLine
 10
81.34152221679688
 20
76.60000610351562
 30
0.0
 11
81.34152221679688
 21
61.86541748046875
 31
0.0
  0
LINE
  5
1E0
330
47
100
AcDbEntity
  8
0
  6
Continuous
 62
     0
100
AcDbLine
 10
83.34158325195312
 20
68.90003967285156
 30
0.0
 11
93.99163818359375
 21
68.90003967285156
 31
0.0
  0
LINE
  5
1E1
330
47
100
AcDbEntity
  8
0
  6
Continuous
 62
     0
100
AcDbLine
 10
98.89528793466548
 20
44.27375744464695
 30
0.0
 11
96.98035891985835
 21
66.16152062808312
 31
0.0
  0
LINE
  5
1E2
330
47
100
AcDbEntity
  8
0
  6
Continuous
 62
     0
100
AcDbLine
 10
83.30666487227295
 20
59.86572105505763
 30
0.0
 11
92.07585215056007
 21
59.71265432993069
 31
0.0
  0
LINE
  5
1E3
330
47
100
AcDbEntity
  8
0
  6
Continuous
 62
     0
100
AcDbLine
 10
103.8635968268894
 20
43.70667564136785
 30
0.0
 11
102.985616996274
 21
53.74204220783032
 31
0.0
  0
LINE
  5
1E4
330
47
100
AcDbEntity
  8
0
  6
DASHED
 62
     0
100
AcDbLine
 10
121.0559997558594
 20
-1.5
 30
0.0
 11
121.0559997558594
 21
-10.51918029785156
 31
0.0
  0
LINE
  5
1E5
330
47
100
AcDbEntity
  8
0
  6
DASHED
 62
     0
100
AcDbLine
 10
198.6820717879328
 20
-10.55188537289686
 30
0.0
 11
199.046706047554
 21
10.3378825526235
 31
0.0
  0
LINE
  5
1E6
330
47
100
AcDbEntity
  8
0
  6
Continuous
 62
     0
100
AcDbLine
 10
95.78096739884383
 20
45.44885315792091
 30
0.0
 11
94.42153560712819
 21
60.9872469526919
 31
0.0
  0
LINE
  5
1E7
330
47
100
AcDbEntity
  8
0
  6
Continuous
 62
     0
100
AcDbLine
 10
199.7129896599433
 20
40.89996193446223
 30
0.0
 11
200.1733081677045
 21
46.16142297121969
 31
0.0
  0
LINE
  5
1E8
330
47
100
AcDbEntity
  8
0
  6
Continuous
 62
     0
100
AcDbLine
 10
200.6504620256711
 20
-12.03490131816692
 30
0.0
 11
201.5326871370596
 21
38.50746366452808
 31
0.0
  0
LINE
  5
1E9
330
47
100
AcDbEntity
  8
0
  6
Continuous
 62
     0
100
AcDbLine
 10
206.4830322265625
 20
51.25008392333984
 30
0.0
 11
207.4830322265625
 21
51.25008392333984
 31
0.0
  0
LINE
  5
1EA
330
47
100
AcDbEntity
  8
0
  6
Continuous
 62
     0
100
AcDbLine
 10
206.4830322265625
 20
41.25008392333984
 30
0.0
 11
207.4830322265625
 21
41.25008392333984
 31
0.0
  0
LINE
  5
1EB
330
47
100
AcDbEntity
  8
0
  6
Continuous
 62
     0
100
AcDbLine
 10
207.4830322265625
 20
51.25008392333984
 30
0.0
 11
207.4830322265625
 21
41.25008392333984
 31
0.0
  0
LINE
  5
1EC
330
47
100
AcDbEntity
  8
0
  6
DASHED
 62
     0
100
AcDbLine
 10
120.5559997558594
 20
-1.0
 30
0.0
 11
186.4257202148438
 21
-1.0
 31
0.0
  0
LINE
  5
1ED
330
47
100
AcDbEntity
  8
0
  6
DASHED
 62
     0
100
AcDbLine
 10
160.5560086518634
 20
-11.69999952668267
 30
0.0
 11
198.190839777112
 21
-11.04308114094917
 31
0.0
  0
LINE
  5
1EE
330
47
100
AcDbEntity
  8
0
  6
DASHED
 62
     0
100
AcDbLine
 10
121.5472715850648
 20
-11.01911063398551
 30
0.0
 11
160.5560084162015
 21
-11.70001063173844
 31
0.0
  0
LINE
  5
1EF
330
47
100
AcDbEntity
  8
0
  6
Continuous
 62
     0
100
AcDbLine
 10
160.5560014612362
 20
-13.70000576271982
 30
0.0
 11
199.6680855867927
 21
-13.01730183132907
 31
0.0
  0
LINE
  5
1F0
330
47
100
AcDbEntity
  8
0
  6
Continuous
 62
     0
100
AcDbLine
 10
120.0385671441259
 20
-12.99277076610856
 30
0.0
 11
160.5559852936255
 21
-13.70000489282163
 31
0.0
  0
LINE
  5
1F1
330
47
100
AcDbEntity
  8
0
  6
Continuous
 62
     0
100
AcDbLine
 10
160.5560983791905
 20
-0.500000368222627
 30
0.0
 11
186.5873808880039
 21
-0.045622666158482
 31
0.0
  0
LINE
  5
1F2
330
47
100
AcDbEntity
  8
0
  6
Continuous
 62
     0
100
AcDbLine
 10
120.4949131607763
 20
0.199268103119711
 30
0.0
 11
160.5561019786651
 21
-0.500002511413677
 31
0.0
  0
LINE
  5
1F3
330
47
100
AcDbEntity
  8
0
  6
Continuous
 62
     0
100
AcDbLine
 10
160.5560990227697
 20
-3.700006890841165
 30
0.0
 11
186.6222578107451
 21
-3.245020421092339
 31
0.0
  0
LINE
  5
1F4
330
47
100
AcDbEntity
  8
0
  6
Continuous
 62
     0
100
AcDbLine
 10
117.0036384348285
 20
-2.939790614865075
 30
0.0
 11
160.5560862076113
 21
-3.70000137787937
 31
0.0
  0
LINE
  5
1F5
330
47
100
AcDbEntity
  8
0
  6
DASHED
 62
     0
100
AcDbLine
 10
192.0060119628906
 20
-12.70000076293945
 30
0.0
 11
196.0559692382812
 21
-12.70000076293945
 31
0.0
  0
LINE
  5
1F6
330
47
100
AcDbEntity
  8
0
  6
DASHED
 62
     0
100
AcDbLine
 10
196.5559692382812
 20
-11.56296539306641
 30
0.0
 11
196.5559692382812
 21
-12.20000076293945
 31
0.0
  0
LINE
  5
1F7
330
47
100
AcDbEntity
  8
0
  6
DASHED
 62
     0
100
AcDbLine
 10
191.5060119628906
 20
-13.20000076293945
 30
0.0
 11
191.5060119628906
 21
-18.20000076293945
 31
0.0
  0
LINE
  5
1F8
330
47
100
AcDbEntity
  8
0
  6
DASHED
 62
     0
100
AcDbLine
 10
188.9360046386719
 20
-18.70000076293945
 30
0.0
 11
191.0060119628906
 21
-18.70000076293945
 31
0.0
  0
LINE
  5
1F9
330
47
100
AcDbEntity
  8
0
  6
DASHED
 62
     0
100
AcDbLine
 10
188.4361380443169
 20
-19.1900037519949
 30
0.0
 11
188.3059401475472
 21
-25.69999724152657
 31
0.0
  0
LINE
  5
1FA
330
47
100
AcDbEntity
  8
0
  6
DASHED
 62
     0
100
AcDbLine
 10
124.5560302734375
 20
-11.56296539306641
 30
0.0
 11
124.5560302734375
 21
-12.20000076293945
 31
0.0
  0
LINE
  5
1FB
330
47
100
AcDbEntity
  8
0
  6
DASHED
 62
     0
100
AcDbLine
 10
129.1059875488281
 20
-12.70000076293945
 30
0.0
 11
125.0560302734375
 21
-12.70000076293945
 31
0.0
  0
LINE
  5
1FC
330
47
100
AcDbEntity
  8
0
  6
DASHED
 62
     0
100
AcDbLine
 10
129.6059875488281
 20
-13.20000076293945
 30
0.0
 11
129.6059875488281
 21
-18.20000076293945
 31
0.0
  0
LINE
  5
1FD
330
47
100
AcDbEntity
  8
0
  6
DASHED
 62
     0
100
AcDbLine
 10
132.1759948730469
 20
-18.70000076293945
 30
0.0
 11
130.1059875488281
 21
-18.70000076293945
 31
0.0
  0
LINE
  5
1FE
330
47
100
AcDbEntity
  8
0
  6
DASHED
 62
     0
100
AcDbLine
 10
132.6758842992103
 20
-19.1900087371179
 30
0.0
 11
132.8060821197025
 21
-25.69999841271499
 31
0.0
  0
ARC
  5
1FF
330
47
100
AcDbEntity
  8
0
  6
Continuous
 62
     0
100
AcDbCircle
 10
-59.5
 20
-12.19998550415039
 30
0.0
 40
0.5
100
AcDbArc
 50
270.0000179860893
 51
0.0
  0
ARC
  5
200
330
47
100
AcDbEntity
  8
0
  6
Continuous
 62
     0
100
AcDbCircle
 10
-63.05000305175781
 20
-13.69998550415039
 30
0.0
 40
1.0
100
AcDbArc
 50
89.99998201391067
 51
179.9999640278213
  0
ARC
  5
201
330
47
100
AcDbEntity
  8
0
  6
Continuous
 62
     0
100
AcDbCircle
 10
-61.7320556640625
 20
-19.69998550415039
 30
0.0
 40
1.0
100
AcDbArc
 50
270.0000179860893
 51
329.9999274481877
  0
ARC
  5
202
330
47
100
AcDbEntity
  8
0
  6
Continuous
 62
     0
100
AcDbCircle
 10
-65.7401123046875
 20
-25.19998168945312
 30
0.0
 40
0.5
100
AcDbArc
 50
270.0000179860893
 51
358.8542196517528
  0
ARC
  5
203
330
47
100
AcDbEntity
  8
0
  6
Continuous
 62
     0
100
AcDbCircle
 10
-66.13020324707031
 20
-19.69998550415039
 30
0.0
 40
1.0
100
AcDbArc
 50
89.99998201391067
 51
178.8541997945517
  0
ARC
  5
204
330
47
100
AcDbEntity
  8
0
  6
Continuous
 62
     0
100
AcDbCircle
 10
-65.05000305175781
 20
-17.69998550415039
 30
0.0
 40
1.0
100
AcDbArc
 50
270.0000179860893
 51
0.0
  0
ARC
  5
205
330
47
100
AcDbEntity
  8
0
  6
DASHED
 62
     0
100
AcDbCircle
 10
-130.5
 20
-12.19998550415039
 30
0.0
 40
0.5
100
AcDbArc
 50
179.9999640278213
 51
269.999946041732
  0
ARC
  5
206
330
47
100
AcDbEntity
  8
0
  6
DASHED
 62
     0
100
AcDbCircle
 10
-126.9499969482422
 20
-13.69998550415039
 30
0.0
 40
1.0
100
AcDbArc
 50
0.0
 51
89.99998201391067
  0
ARC
  5
207
330
47
100
AcDbEntity
  8
0
  6
Continuous
 62
     0
100
AcDbCircle
 10
-128.2679443359375
 20
-19.69998550415039
 30
0.0
 40
1.0
100
AcDbArc
 50
210.0000572975723
 51
269.999963344576
  0
ARC
  5
208
330
47
100
AcDbEntity
  8
0
  6
Continuous
 62
     0
100
AcDbCircle
 10
-124.2598876953125
 20
-25.19998168945312
 30
0.0
 40
0.5
100
AcDbArc
 50
181.1457592243133
 51
269.999963344576
  0
ARC
  5
209
330
47
100
AcDbEntity
  8
0
  6
DASHED
 62
     0
100
AcDbCircle
 10
-123.8697967529297
 20
-19.69998550415039
 30
0.0
 40
1.0
100
AcDbArc
 50
1.145764233269639
 51
89.99998201391067
  0
ARC
  5
20A
330
47
100
AcDbEntity
  8
0
  6
DASHED
 62
     0
100
AcDbCircle
 10
-124.9499969482422
 20
-17.69998550415039
 30
0.0
 40
1.0
100
AcDbArc
 50
179.9999640278213
 51
269.999946041732
  0
ARC
  5
20B
330
47
100
AcDbEntity
  8
0
  6
Continuous
 62
     0
100
AcDbCircle
 10
-28.69999694824219
 20
-0.700000762939453
 30
0.0
 40
0.300000011920929
100
AcDbArc
 50
179.9999813306653
 51
270.0000179860893
  0
ARC
  5
20C
330
47
100
AcDbEntity
  8
0
  6
Continuous
 62
     0
100
AcDbCircle
 10
-15.30000305175781
 20
-0.700000762939453
 30
0.0
 40
0.300000011920929
100
AcDbArc
 50
270.0000179860893
 51
0.0
  0
ARC
  5
20D
330
47
100
AcDbEntity
  8
0
  6
Continuous
 62
     0
100
AcDbCircle
 10
-28.0
 20
-4.699985504150391
 30
0.0
 40
1.0
100
AcDbArc
 50
89.99998201391067
 51
179.9999640278213
  0
ARC
  5
20E
330
47
100
AcDbEntity
  8
0
  6
Continuous
 62
     0
100
AcDbCircle
 10
-19.97679138183594
 20
46.30001449584961
 30
0.0
 40
50.0
100
AcDbArc
 50
270.0000179860893
 51
285.887119957809
  0
ARC
  5
20F
330
47
100
AcDbEntity
  8
0
  6
Continuous
 62
     0
100
AcDbCircle
 10
-30.0
 20
-12.69998550415039
 30
0.0
 40
1.0
100
AcDbArc
 50
270.0000179860893
 51
0.0
  0
ARC
  5
210
330
47
100
AcDbEntity
  8
0
  6
Continuous
 62
     0
100
AcDbCircle
 10
-31.5
 20
-11.19998550415039
 30
0.0
 40
0.5
100
AcDbArc
 50
270.0000179860893
 51
0.0
  0
ARC
  5
211
330
47
100
AcDbEntity
  8
0
  6
Continuous
 62
     0
100
AcDbCircle
 10
-32.22438049316406
 20
-10.51052856445312
 30
0.0
 40
0.5
100
AcDbArc
 50
270.0000179860893
 51
0.0
  0
ARC
  5
212
330
47
100
AcDbEntity
  8
0
  6
Continuous
 62
     0
100
AcDbCircle
 10
-95.0
 20
-951.2254028320312
 30
0.0
 40
940.21484375
100
AcDbArc
 50
87.80566762982816
 51
89.28087237733503
  0
ARC
  5
213
330
47
100
AcDbEntity
  8
0
  6
Continuous
 62
     0
100
AcDbCircle
 10
-95.0
 20
-1010.067321777344
 30
0.0
 40
997.0917358398438
100
AcDbArc
 50
89.34166789113732
 51
92.18413990669733
  0
ARC
  5
214
330
47
100
AcDbEntity
  8
0
  6
Continuous
 62
     0
100
AcDbCircle
 10
-170.0232086181641
 20
46.30001449584961
 30
0.0
 40
50.0
100
AcDbArc
 50
254.1128613728563
 51
269.999963344576
  0
ARC
  5
215
330
47
100
AcDbEntity
  8
0
  6
Continuous
 62
     0
100
AcDbCircle
 10
-160.0
 20
-12.69998550415039
 30
0.0
 40
1.0
100
AcDbArc
 50
179.9999813306653
 51
270.0000179860893
  0
ARC
  5
216
330
47
100
AcDbEntity
  8
0
  6
Continuous
 62
     0
100
AcDbCircle
 10
-162.0
 20
-4.699985504150391
 30
0.0
 40
1.0
100
AcDbArc
 50
0.0
 51
89.99998201391067
  0
ARC
  5
217
330
47
100
AcDbEntity
  8
0
  6
DASHED
 62
     0
100
AcDbCircle
 10
-157.775634765625
 20
-10.51052856445312
 30
0.0
 40
0.5
100
AcDbArc
 50
179.9999813306653
 51
270.0000179860893
  0
ARC
  5
218
330
47
100
AcDbEntity
  8
0
  6
Continuous
 62
     0
100
AcDbCircle
 10
-170.0232086181641
 20
46.30001449584961
 30
0.0
 40
49.27410888671875
100
AcDbArc
 50
254.1128682030455
 51
270.0000179860893
  0
ARC
  5
219
330
47
100
AcDbEntity
  8
0
  6
Continuous
 62
     0
100
AcDbCircle
 10
-161.275634765625
 20
-3.974090576171875
 30
0.0
 40
1.0
100
AcDbArc
 50
0.0
 51
89.99998201391067
  0
ARC
  5
21A
330
47
100
AcDbEntity
  8
0
  6
Continuous
 62
     0
100
AcDbCircle
 10
-159.275634765625
 20
-11.97561645507812
 30
0.0
 40
1.0
100
AcDbArc
 50
179.9999813306653
 51
270.0000179860893
  0
CIRCLE
  5
21B
330
47
100
AcDbEntity
  8
0
  6
PHANTOM
 62
     0
100
AcDbCircle
 10
-67.8293685913086
 20
-17.29414749145508
 30
0.0
 40
15.0
  0
CIRCLE
  5
21C
330
47
100
AcDbEntity
  8
0
  6
Continuous
 62
     0
100
AcDbCircle
 10
-14.63969421386719
 20
-62.80083465576172
 30
0.0
 40
5.0
  0
CIRCLE
  5
21D
330
47
100
AcDbEntity
  8
0
  6
Continuous
 62
     0
100
AcDbCircle
 10
-135.0
 20
24.64468002319336
 30
0.0
 40
5.0
  0
CIRCLE
  5
21E
330
47
100
AcDbEntity
  8
0
  6
Continuous
 62
     0
100
AcDbCircle
 10
-222.0
 20
24.64468002319336
 30
0.0
 40
5.0
  0
CIRCLE
  5
21F
330
47
100
AcDbEntity
  8
0
  6
PHANTOM
 62
     0
100
AcDbCircle
 10
88.99317932128906
 20
70.51627349853516
 30
0.0
 40
15.0
  0
CIRCLE
  5
220
330
47
100
AcDbEntity
  8
0
  6
PHANTOM
 62
     0
100
AcDbCircle
 10
99.84184265136719
 20
41.02392578125
 30
0.0
 40
15.0
  0
CIRCLE
  5
221
330
47
100
AcDbEntity
  8
0
  6
PHANTOM
 62
     0
100
AcDbCircle
 10
201.5525207519531
 20
47.66775512695312
 30
0.0
 40
12.0
  0
CIRCLE
  5
222
330
47
100
AcDbEntity
  8
0
  6
Continuous
 62
     0
100
AcDbCircle
 10
129.2431640625
 20
130.71630859375
 30
0.0
 40
5.0
  0
CIRCLE
  5
223
330
47
100
AcDbEntity
  8
0
  6
Continuous
 62
     0
100
AcDbCircle
 10
148.8418273925781
 20
107.1739196777344
 30
0.0
 40
5.0
  0
CIRCLE
  5
224
330
47
100
AcDbEntity
  8
0
  6
Continuous
 62
     0
100
AcDbCircle
 10
163.4725036621094
 20
90.01773071289062
 30
0.0
 40
5.0
  0
ARC
  5
225
330
47
100
AcDbEntity
  8
0
  6
Continuous
 62
     0
100
AcDbCircle
 10
117.8521423339844
 20
21.5
 30
0.0
 40
12.0
100
AcDbArc
 50
184.9999803314381
 51
270.0000179860893
  0
ARC
  5
226
330
47
100
AcDbEntity
  8
0
  6
Continuous
 62
     0
100
AcDbCircle
 10
117.5560607910156
 20
8.5
 30
0.0
 40
1.0
100
AcDbArc
 50
0.0
 51
89.99998201391067
  0
ARC
  5
227
330
47
100
AcDbEntity
  8
0
  6
Continuous
 62
     0
100
AcDbCircle
 10
120.5560607910156
 20
3.5
 30
0.0
 40
2.0
100
AcDbArc
 50
179.9999813306653
 51
270.0000179860893
  0
ARC
  5
228
330
47
100
AcDbEntity
  8
0
  6
Continuous
 62
     0
100
AcDbCircle
 10
186.4254150390625
 20
9.5
 30
0.0
 40
8.0
100
AcDbArc
 50
270.0000179860893
 51
355.0000214897947
  0
ARC
  5
229
330
47
100
AcDbEntity
  8
0
  6
Continuous
 62
     0
100
AcDbCircle
 10
117.8521423339844
 20
21.5
 30
0.0
 40
13.5
100
AcDbArc
 50
184.9999803314381
 51
264.6881320572462
  0
ARC
  5
22A
330
47
100
AcDbEntity
  8
0
  6
Continuous
 62
     0
100
AcDbCircle
 10
117.8521423339844
 20
21.5
 30
0.0
 40
16.5
100
AcDbArc
 50
184.9999803314381
 51
255.3620483305382
  0
ARC
  5
22B
330
47
100
AcDbEntity
  8
0
  6
DASHED
 62
     0
100
AcDbCircle
 10
117.8521423339844
 20
21.5
 30
0.0
 40
14.5
100
AcDbArc
 50
184.9999803314381
 51
262.8846547578502
  0
ARC
  5
22C
330
47
100
AcDbEntity
  8
0
  6
Continuous
 62
     0
100
AcDbCircle
 10
116.5560607910156
 20
7.56011962890625
 30
0.0
 40
0.5
100
AcDbArc
 50
0.0
 51
84.6882668397968
  0
ARC
  5
22D
330
47
100
AcDbEntity
  8
0
  6
Continuous
 62
     0
100
AcDbCircle
 10
113.5560607910156
 20
5.05181884765625
 30
0.0
 40
0.5
100
AcDbArc
 50
0.0
 51
75.36197137722455
  0
ARC
  5
22E
330
47
100
AcDbEntity
  8
0
  6
Continuous
 62
     0
100
AcDbCircle
 10
198.1194763183594
 20
39.9000244140625
 30
0.0
 40
1.0
100
AcDbArc
 50
89.99998201391067
 51
175.0001426119669
  0
ARC
  5
22F
330
47
100
AcDbEntity
  8
0
  6
Continuous
 62
     0
100
AcDbCircle
 10
203.9831237792969
 20
41.4000244140625
 30
0.0
 40
0.5
100
AcDbArc
 50
270.0000179860893
 51
0.0
  0
ARC
  5
230
330
47
100
AcDbEntity
  8
0
  6
Continuous
 62
     0
100
AcDbCircle
 10
203.9831237792969
 20
51.10000610351562
 30
0.0
 40
0.5
100
AcDbArc
 50
0.0
 51
89.99998201391067
  0
ARC
  5
231
330
47
100
AcDbEntity
  8
0
  6
Continuous
 62
     0
100
AcDbCircle
 10
204.4831237792969
 20
51.60000610351562
 30
0.0
 40
2.0
100
AcDbArc
 50
0.0
 51
89.99998201391067
  0
ARC
  5
232
330
47
100
AcDbEntity
  8
0
  6
Continuous
 62
     0
100
AcDbCircle
 10
196.4831237792969
 20
52.60000610351562
 30
0.0
 40
2.0
100
AcDbArc
 50
30.00093657074235
 51
270.0000006832453
  0
ARC
  5
233
330
47
100
AcDbEntity
  8
0
  6
Continuous
 62
     0
100
AcDbCircle
 10
131.2961730957031
 20
-25.20002746582031
 30
0.0
 40
0.5
100
AcDbArc
 50
181.1453357525848
 51
270.0000179860893
  0
ARC
  5
234
330
47
100
AcDbEntity
  8
0
  6
Continuous
 62
     0
100
AcDbCircle
 10
189.8159790039062
 20
-25.20002746582031
 30
0.0
 40
0.5
100
AcDbArc
 50
270.0000179860893
 51
358.8546387478914
  0
ARC
  5
235
330
47
100
AcDbEntity
  8
0
  6
Continuous
 62
     0
100
AcDbCircle
 10
204.4831237792969
 20
40.86541748046875
 30
0.0
 40
2.0
100
AcDbArc
 50
271.0002103975785
 51
0.0
  0
ARC
  5
236
330
47
100
AcDbEntity
  8
0
  6
Continuous
 62
     0
100
AcDbCircle
 10
99.256103515625
 20
39.00064086914062
 30
0.0
 40
0.5
100
AcDbArc
 50
5.000128774367044
 51
74.99987572856548
  0
ARC
  5
237
330
47
100
AcDbEntity
  8
0
  6
Continuous
 62
     0
100
AcDbCircle
 10
101.5940093994141
 20
40.96237182617188
 30
0.0
 40
1.0
100
AcDbArc
 50
4.999910208313604
 51
74.99993037007886
  0
ARC
  5
238
330
47
100
AcDbEntity
  8
0
  6
Continuous
 62
     0
100
AcDbCircle
 10
96.27897644042969
 20
45.49237060546875
 30
0.0
 40
0.5
100
AcDbArc
 50
185.0001305955999
 51
254.9999731724467
  0
ARC
  5
239
330
47
100
AcDbEntity
  8
0
  6
Continuous
 62
     0
100
AcDbCircle
 10
95.85775756835938
 20
44.5699462890625
 30
0.0
 40
1.0
100
AcDbArc
 50
184.9999120295464
 51
254.9999731724467
  0
ARC
  5
23A
330
47
100
AcDbEntity
  8
0
  6
Continuous
 62
     0
100
AcDbCircle
 10
95.10809326171875
 20
41.66500854492188
 30
0.0
 40
1.0
100
AcDbArc
 50
184.9998983691681
 51
254.9999731724467
  0
ARC
  5
23B
330
47
100
AcDbEntity
  8
0
  6
Continuous
 62
     0
100
AcDbCircle
 10
92.5089111328125
 20
59.89998626708984
 30
0.0
 40
1.0
100
AcDbArc
 50
5.000033151718664
 51
89.99998201391067
  0
ARC
  5
23C
330
47
100
AcDbEntity
  8
0
  6
Continuous
 62
     0
100
AcDbCircle
 10
93.42526245117188
 20
60.89998626708984
 30
0.0
 40
1.0
100
AcDbArc
 50
5.000033151718664
 51
89.99998201391067
  0
ARC
  5
23D
330
47
100
AcDbEntity
  8
0
  6
Continuous
 62
     0
100
AcDbCircle
 10
94.34158325195312
 20
77.60002136230469
 30
0.0
 40
2.0
100
AcDbArc
 50
0.0
 51
179.999950367443
  0
ARC
  5
23E
330
47
100
AcDbEntity
  8
0
  6
Continuous
 62
     0
100
AcDbCircle
 10
83.84158325195312
 20
62.40000152587891
 30
0.0
 40
0.5
100
AcDbArc
 50
179.9999813306653
 51
270.0000179860893
  0
ARC
  5
23F
330
47
100
AcDbEntity
  8
0
  6
Continuous
 62
     0
100
AcDbCircle
 10
83.34158325195312
 20
61.90000152587891
 30
0.0
 40
1.0
100
AcDbArc
 50
179.9999813306653
 51
270.0000179860893
  0
ARC
  5
240
330
47
100
AcDbEntity
  8
0
  6
Continuous
 62
     0
100
AcDbCircle
 10
83.34158325195312
 20
76.60002899169922
 30
0.0
 40
2.0
100
AcDbArc
 50
89.99998201391067
 51
179.999950367443
  0
ARC
  5
241
330
47
100
AcDbEntity
  8
0
  6
Continuous
 62
     0
100
AcDbCircle
 10
83.34158325195312
 20
76.60002899169922
 30
0.0
 40
1.0
100
AcDbArc
 50
89.99998201391067
 51
179.999950367443
  0
ARC
  5
242
330
47
100
AcDbEntity
  8
0
  6
Continuous
 62
     0
100
AcDbCircle
 10
83.84158325195312
 20
76.10002899169922
 30
0.0
 40
0.5
100
AcDbArc
 50
89.99998201391067
 51
179.999950367443
  0
ARC
  5
243
330
47
100
AcDbEntity
  8
0
  6
Continuous
 62
     0
100
AcDbCircle
 10
94.34158325195312
 20
77.60002136230469
 30
0.0
 40
2.0
100
AcDbArc
 50
270.0000179860893
 51
0.0
  0
ARC
  5
244
330
47
100
AcDbEntity
  8
0
  6
Continuous
 62
     0
100
AcDbCircle
 10
93.99163818359375
 20
65.9000015258789
 30
0.0
 40
3.0
100
AcDbArc
 50
4.999992170583645
 51
89.99998201391067
  0
ARC
  5
245
330
47
100
AcDbEntity
  8
0
  6
Continuous
 62
     0
100
AcDbCircle
 10
83.34158325195312
 20
61.86540985107422
 30
0.0
 40
2.0
100
AcDbArc
 50
179.9999813306653
 51
268.9999894991403
  0
ARC
  5
246
330
47
100
AcDbEntity
  8
0
  6
Continuous
 62
     0
100
AcDbCircle
 10
92.067138671875
 20
59.21273040771484
 30
0.0
 40
0.5
100
AcDbArc
 50
4.999930698881115
 51
89.00001499866411
  0
ARC
  5
247
330
47
100
AcDbEntity
  8
0
  6
Continuous
 62
     0
100
AcDbCircle
 10
102.9967651367188
 20
42.13943481445312
 30
0.0
 40
1.0
100
AcDbArc
 50
4.999923868691944
 51
74.99999867197056
  0
ARC
  5
248
330
47
100
AcDbEntity
  8
0
  6
Continuous
 62
     0
100
AcDbCircle
 10
203.1615600585938
 20
45.9000244140625
 30
0.0
 40
3.0
100
AcDbArc
 50
89.99998201391067
 51
175.0000333289402
  0
ARC
  5
249
330
47
100
AcDbEntity
  8
0
  6
Continuous
 62
     0
100
AcDbCircle
 10
201.9966735839844
 20
38.32162475585938
 30
0.0
 40
0.5
100
AcDbArc
 50
91.00024955748067
 51
174.9999240459135
  0
ARC
  5
24A
330
47
100
AcDbEntity
  8
0
  6
DASHED
 62
     0
100
AcDbCircle
 10
120.5559997558594
 20
3.5
 30
0.0
 40
4.5
100
AcDbArc
 50
179.9999813306653
 51
270.0000179860893
  0
ARC
  5
24B
330
47
100
AcDbEntity
  8
0
  6
DASHED
 62
     0
100
AcDbCircle
 10
120.5559997558594
 20
-1.5
 30
0.0
 40
0.5
100
AcDbArc
 50
0.0
 51
89.99998201391067
  0
ARC
  5
24C
330
47
100
AcDbEntity
  8
0
  6
DASHED
 62
     0
100
AcDbCircle
 10
186.4257202148438
 20
9.5
 30
0.0
 40
10.5
100
AcDbArc
 50
270.0000179860893
 51
355.00000868319
  0
ARC
  5
24D
330
47
100
AcDbEntity
  8
0
  6
Continuous
 62
     0
100
AcDbCircle
 10
120.5559997558594
 20
3.698738098144531
 30
0.0
 40
3.5
100
AcDbArc
 50
179.9999813306653
 51
268.9997709330868
  0
ARC
  5
24E
330
47
100
AcDbEntity
  8
0
  6
Continuous
 62
     0
100
AcDbCircle
 10
186.4215698242188
 20
9.452930450439453
 30
0.0
 40
9.5
100
AcDbArc
 50
271.0000259824709
 51
354.9999903270566
  0
ARC
  5
24F
330
47
100
AcDbEntity
  8
0
  6
Continuous
 62
     0
100
AcDbCircle
 10
117.0559997558594
 20
0.05975341796875
 30
0.0
 40
3.0
100
AcDbArc
 50
179.9999813306653
 51
268.9997709330868
  0
ARC
  5
250
330
47
100
AcDbEntity
  8
0
  6
Continuous
 62
     0
100
AcDbCircle
 10
186.4040832519531
 20
9.253082275390625
 30
0.0
 40
12.5
100
AcDbArc
 50
271.0000669636059
 51
354.9999945959248
  0
ARC
  5
251
330
47
100
AcDbEntity
  8
0
  6
Continuous
 62
     0
100
AcDbCircle
 10
120.0559997558594
 20
-11.992919921875
 30
0.0
 40
1.0
100
AcDbArc
 50
179.9999813306653
 51
268.9997709330868
  0
ARC
  5
252
330
47
100
AcDbEntity
  8
0
  6
DASHED
 62
     0
100
AcDbCircle
 10
121.5559997558594
 20
-10.51918029785156
 30
0.0
 40
0.5
100
AcDbArc
 50
179.9999813306653
 51
268.9997709330868
  0
ARC
  5
253
330
47
100
AcDbEntity
  8
0
  6
Continuous
 62
     0
100
AcDbCircle
 10
199.650634765625
 20
-12.01744842529297
 30
0.0
 40
1.0
100
AcDbArc
 50
271.0002103975785
 51
358.9999787701269
  0
ARC
  5
254
330
47
100
AcDbEntity
  8
0
  6
DASHED
 62
     0
100
AcDbCircle
 10
198.18212890625
 20
-10.54315567016602
 30
0.0
 40
0.5
100
AcDbArc
 50
271.0002103975785
 51
358.9998212488892
  0
ARC
  5
255
330
47
100
AcDbEntity
  8
0
  6
DASHED
 62
     0
100
AcDbCircle
 10
197.0559692382812
 20
-11.56296539306641
 30
0.0
 40
0.5
100
AcDbArc
 50
91.00022906691318
 51
179.9999640278213
  0
ARC
  5
256
330
47
100
AcDbEntity
  8
0
  6
DASHED
 62
     0
100
AcDbCircle
 10
192.0060119628906
 20
-13.20000076293945
 30
0.0
 40
0.5
100
AcDbArc
 50
89.99998201391067
 51
179.9999640278213
  0
ARC
  5
257
330
47
100
AcDbEntity
  8
0
  6
DASHED
 62
     0
100
AcDbCircle
 10
191.0060119628906
 20
-18.20000076293945
 30
0.0
 40
0.5
100
AcDbArc
 50
270.0000179860893
 51
0.0
  0
ARC
  5
258
330
47
100
AcDbEntity
  8
0
  6
DASHED
 62
     0
100
AcDbCircle
 10
188.9360046386719
 20
-19.20000076293945
 30
0.0
 40
0.5
100
AcDbArc
 50
89.99998201391067
 51
178.854172473795
  0
ARC
  5
259
330
47
100
AcDbEntity
  8
0
  6
DASHED
 62
     0
100
AcDbCircle
 10
124.0560302734375
 20
-11.56296539306641
 30
0.0
 40
0.5
100
AcDbArc
 50
0.0
 51
88.99973496090814
  0
ARC
  5
25A
330
47
100
AcDbEntity
  8
0
  6
DASHED
 62
     0
100
AcDbCircle
 10
129.1059875488281
 20
-13.20000076293945
 30
0.0
 40
0.5
100
AcDbArc
 50
0.0
 51
89.99998201391067
  0
ARC
  5
25B
330
47
100
AcDbEntity
  8
0
  6
DASHED
 62
     0
100
AcDbCircle
 10
130.1059875488281
 20
-18.20000076293945
 30
0.0
 40
0.5
100
AcDbArc
 50
179.9999640278213
 51
269.999946041732
  0
ARC
  5
25C
330
47
100
AcDbEntity
  8
0
  6
DASHED
 62
     0
100
AcDbCircle
 10
132.1759948730469
 20
-19.20000076293945
 30
0.0
 40
0.5
100
AcDbArc
 50
1.145791554026319
 51
89.99998201391067
  0
ARC
  5
25D
330
47
100
AcDbEntity
  8
0
  6
DASHED
 62
     0
100
AcDbCircle
 10
196.0559692382812
 20
-12.20000076293945
 30
0.0
 40
0.5
100
AcDbArc
 50
270.0000179860893
 51
0.0
  0
ARC
  5
25E
330
47
100
AcDbEntity
  8
0
  6
DASHED
 62
     0
100
AcDbCircle
 10
125.0560302734375
 20
-12.20000076293945
 30
0.0
 40
0.5
100
AcDbArc
 50
179.9999813306653
 51
270.0000179860893
  0
CIRCLE
  5
25F
330
47
100
AcDbEntity
  8
0
  6
PHANTOM
 62
     0
100
AcDbCircle
 10
113.0163879394531
 20
7.862800598144531
 30
0.0
 40
17.0
  0
CIRCLE
  5
260
330
47
100
AcDbEntity
  8
0
  6
Continuous
 62
     0
100
AcDbCircle
 10
39.978515625
 20
-63.25647735595703
 30
0.0
 40
5.0
  0
SPLINE
  5
261
330
47
100
AcDbEntity
  8
0
  6
Continuous
 62
     0
100
AcDbSpline
210
0.0
220
0.0
230
1.0
 70
     8
 71
     3
 72
    40
 73
    36
 74
    34
 42
0.0000000001
 43
0.0000000001
 44
0.0000000001
 12
-0.9999274742187986
 22
-0.012043517028425
 32
0.0
 13
-0.4621440674739375
 23
-0.8868048606647602
 33
0.0
 40
0.0
 40
0.0
 40
0.0
 40
0.0
 40
2.415811135393387
 40
5.991974297598137
 40
10.68771295598737
 40
13.84471477704731
 40
16.23908009170238
 40
19.41696658258678
 40
23.08445035145347
 40
26.75194154690502
 40
31.03512320511474
 40
34.60513052933349
 40
37.75512442581787
 40
41.14127305862776
 40
44.33988682356699
 40
47.73254711242044
 40
51.0195697689203
 40
54.12017942852762
 40
61.04699813783727
 40
64.0756649334112
 40
68.02119967189998
 40
73.1865248886545
 40
73.65609711674809
 40
76.77797385286564
 40
79.0102997653496
 40
83.3191478752023
 40
84.83347280893561
 40
88.21962711960929
 40
90.85091480398852
 40
94.05641820642941
 40
96.61118238246186
 40
102.1234347950623
 40
106.2599509816817
 40
108.9899525779871
 40
111.7883144799712
 40
111.7883144799712
 40
111.7883144799712
 40
111.7883144799712
 10
0.0007572392901607
 20
22.78518381064894
 30
0.0
 10
-0.8044547363110253
 20
22.77548552313342
 30
0.0
 10
-2.798953675875805
 20
22.82549738067299
 30
0.0
 10
-6.380458776930151
 20
22.87613486724917
 30
0.0
 10
-10.05961499882636
 20
24.0499587444751
 30
0.0
 10
-13.54053740949177
 20
23.84083994557406
 30
0.0
 10
-16.28848388224822
 20
22.82163326610853
 30
0.0
 10
-19.40424299372171
 20
22.72334937524523
 30
0.0
 10
-22.77658696568958
 20
21.71176021625522
 30
0.0
 10
-26.55615511448845
 20
20.91398600001616
 30
0.0
 10
-30.29744222610219
 20
19.89160745976066
 30
0.0
 10
-33.9924726808038
 20
20.11140972764225
 30
0.0
 10
-37.34038176109972
 20
20.1134388219326
 30
0.0
 10
-40.64703371939879
 20
19.91598429501455
 30
0.0
 10
-43.60160620577319
 20
18.28179846619161
 30
0.0
 10
-46.72249216710438
 20
17.22841562800178
 30
0.0
 10
-49.63665088589975
 20
15.76064329723756
 30
0.0
 10
-53.38901708228504
 20
13.28728883567827
 30
0.0
 10
-58.21530113705018
 20
13.64315598961867
 30
0.0
 10
-61.79240131130207
 20
10.48269069605617
 30
0.0
 10
-65.64017295925876
 20
9.117810549894646
 30
0.0
 10
-68.40402402537744
 20
7.521116859826378
 30
0.0
 10
-71.05270378980693
 20
6.272132120444133
 30
0.0
 10
-72.28757324026982
 20
4.670059420312655
 30
0.0
 10
-74.75434774652967
 20
2.63262962784412
 30
0.0
 10
-76.92323975125433
 20
0.9535325759587459
 30
0.0
 10
-78.56299122055461
 20
-1.655685493449632
 30
0.0
 10
-79.82668634217848
 20
-3.827470896696075
 30
0.0
 10
-81.13970686957931
 20
-6.596153821267572
 30
0.0
 10
-83.0909064181362
 20
-8.78932974368448
 30
0.0
 10
-83.20117955572631
 20
-12.67259587825712
 30
0.0
 10
-84.71794788806173
 20
-16.48340552086595
 30
0.0
 10
-86.47648230717186
 20
-20.21016262797523
 30
0.0
 10
-87.65012798344065
 20
-23.2133271545344
 30
0.0
 10
-88.45707080202257
 20
-24.87217710961609
 30
0.0
 10
-88.88815291923825
 20
-25.69937742180895
 30
0.0
 11
0.0007572392901607
 21
22.78518381064894
 31
0.0
 11
-2.414901733398438
 21
22.81229782104492
 31
0.0
 11
-5.984893798828125
 21
23.02229690551758
 31
0.0
 11
-10.60488891601562
 21
23.86230087280273
 31
0.0
 11
-13.75489807128906
 21
23.65229415893555
 31
0.0
 11
-16.06489562988281
 21
23.02229690551758
 31
0.0
 11
-19.21490478515625
 21
22.60229110717773
 31
0.0
 11
-22.78489685058594
 21
21.76229476928711
 31
0.0
 11
-26.35489654541016
 21
20.92229843139648
 31
0.0
 11
-30.55490112304688
 21
20.08229446411133
 31
0.0
 11
-34.12490844726562
 21
20.08229446411133
 31
0.0
 11
-37.27490234375
 21
20.08229446411133
 31
0.0
 11
-40.63490295410156
 21
19.66229629516602
 31
0.0
 11
-43.57489013671875
 21
18.40229415893555
 31
0.0
 11
-46.72489929199219
 21
17.14229965209961
 31
0.0
 11
-49.66490173339844
 21
15.67229843139648
 31
0.0
 11
-52.3948974609375
 21
14.20229721069336
 31
0.0
 11
-59.11489868164062
 21
12.52229690551758
 31
0.0
 11
-61.63490295410156
 21
10.8422966003418
 31
0.0
 11
-65.20489501953125
 21
9.162296295166016
 31
0.0
 11
-69.82490539550781
 21
6.852298736572266
 31
0.0
 11
-70.24490356445312
 21
6.642299652099609
 31
0.0
 11
-72.55490112304688
 21
4.542293548583984
 31
0.0
 11
-74.23489379882812
 21
3.072292327880859
 31
0.0
 11
-77.38490295410156
 21
0.1322898864746094
 31
0.0
 11
-78.22489929199219
 21
-1.127704620361328
 31
0.0
 11
-79.9049072265625
 21
-4.067707061767578
 31
0.0
 11
-81.16490173339844
 21
-6.377704620361328
 31
0.0
 11
-82.84489440917969
 21
-9.10770034790039
 31
0.0
 11
-83.264892578125
 21
-11.62770462036133
 31
0.0
 11
-84.94490051269531
 21
-16.87770462036133
 31
0.0
 11
-86.62489318847656
 21
-20.6577033996582
 31
0.0
 11
-87.67489624023438
 21
-23.17770385742188
 31
0.0
 11
-88.88815291923825
 21
-25.69937742180895
 31
0.0
  0
MTEXT
  5
262
330
47
100
AcDbEntity
  8
0
 62
     1
100
AcDbMText
 10
-16.78281927108765
 20
-65.80083465576172
 30
0.0
 40
6.0
 41
0.0
 71
     7
 72
     1
  1
{\W1;D}
 73
     1
 44
1.0
  0
MTEXT
  5
263
330
47
100
AcDbEntity
  8
0
 62
     1
100
AcDbMText
 10
-224.1431250572205
 20
21.64468002319336
 30
0.0
 40
6.0
 41
0.0
 71
     7
 72
     1
  1
{\W1;F}
 73
     1
 44
1.0
  0
MTEXT
  5
264
330
47
100
AcDbEntity
  8
0
 62
     1
100
AcDbMText
 10
-137.1431250572205
 20
21.64468002319336
 30
0.0
 40
6.0
 41
0.0
 71
     7
 72
     1
  1
{\W1;F}
 73
     1
 44
1.0
  0
MTEXT
  5
265
330
47
100
AcDbEntity
  8
0
 62
     1
100
AcDbMText
 10
127.1000390052795
 20
127.71630859375
 30
0.0
 40
6.0
 41
0.0
 71
     7
 72
     1
  1
{\W1;A}
 73
     1
 44
1.0
  0
MTEXT
  5
266
330
47
100
AcDbEntity
  8
0
 62
     1
100
AcDbMText
 10
146.6987023353577
 20
104.1739196777344
 30
0.0
 40
6.0
 41
0.0
 71
     7
 72
     1
  1
{\W1;B}
 73
     1
 44
1.0
  0
MTEXT
  5
267
330
47
100
AcDbEntity
  8
0
 62
     1
100
AcDbMText
 10
161.3293786048889
 20
87.01773071289062
 30
0.0
 40
6.0
 41
0.0
 71
     7
 72
     1
  1
{\W1;C}
 73
     1
 44
1.0
  0
MTEXT
  5
268
330
47
100
AcDbEntity
  8
0
 62
     1
100
AcDbMText
 10
37.83539056777954
 20
-66.25647735595703
 30
0.0
 40
6.0
 41
0.0
 71
     7
 72
     1
  1
{\W1;G}
 73
     1
 44
1.0
  0
DIMENSION
  5
269
330
47
100
AcDbEntity
  8
0
 62
     0
100
AcDbDimension
  2
*D4
 10
-54.6469885601889
 20
-38.89173071289063
 30
0.0
 11
-84.49539892578125
 21
-38.89173071289063
 31
0.0
 70
   160
  1
\U+2205<>±0.1
 71
     5
 42
59.70002290916492
 52
-60.00000000000001
  3
ISO-25
100
AcDbAlignedDimension
 13
-124.8499546664437
 23
-20.69999126527119
 33
0.0
 14
-65.15000213551436
 24
-20.69997756784123
 34
0.0
 50
180.0
100
AcDbRotatedDimension
1001
ACAD
1000
DSTYLE
1002
{
1070
   178
1070
     1
1070
   147
1040
0.800000011920929
1070
    77
1070
     1
1070
    74
1070
     0
1070
    73
1070
     0
1070
    42
1040
2.54
1070
    44
1040
1.732069412712656
1070
    76
1070
     0
1070
    75
1070
     0
1070
   279
1070
     0
1070
   271
1070
     1
1070
   144
1040
1.000001178865855
1070
   278
1070
    46
1070
   173
1070
     1
1070
    41
1040
3.0
1070
   140
1040
3.200000047683716
1070
   344
1005
26A
1070
   343
1005
26A
1002
}
  0
DIMENSION
  5
285
330
47
100
AcDbEntity
  8
0
 62
     0
100
AcDbDimension
  2
*D5
 10
-65.25
 20
-47.47647802734375
 30
0.0
 11
-94.999
 21
-47.47647802734375
 31
0.0
 70
   160
  1
\U+2205<>±0.1
 71
     5
 42
59.5
  3
ISO-25
100
AcDbAlignedDimension
 13
-124.75
 23
-25.69998168945312
 33
0.0
 14
-65.25
 24
-25.69998168945312
 34
0.0
 50
180.0
100
AcDbRotatedDimension
1001
ACAD
1000
DSTYLE
1002
{
1070
   178
1070
     1
1070
   147
1040
0.800000011920929
1070
    77
1070
     1
1070
    74
1070
     0
1070
    73
1070
     0
1070
    42
1040
2.54
1070
    44
1040
1.5
1070
    76
1070
     0
1070
    75
1070
     0
1070
   279
1070
     0
1070
   271
1070
     1
1070
   144
1040
1.0
1070
   278
1070
    46
1070
   173
1070
     1
1070
    41
1040
3.0
1070
   140
1040
3.200000047683716
1070
   344
1005
26A
1070
   343
1005
26A
1002
}
  0
DIMENSION
  5
293
330
47
100
AcDbEntity
  8
0
 62
     0
100
AcDbDimension
  2
*D6
 10
-62.05000305175781
 20
-56.06124060058594
 30
0.0
 11
-94.999
 21
-56.06124060058594
 31
0.0
 70
   160
  1
\U+2205<>
 71
     5
 42
65.89999389648438
  3
ISO-25
100
AcDbAlignedDimension
 13
-127.9499969482422
 23
-17.69998550415039
 33
0.0
 14
-62.05000305175781
 24
-17.69998550415039
 34
0.0
 50
180.0
100
AcDbRotatedDimension
1001
ACAD
1000
DSTYLE
1002
{
1070
   178
1070
     1
1070
   283
1070
     1
1070
    71
1070
     1
1070
    72
1070
     0
1070
    48
1040
0.2
1070
    47
1040
0.2
1070
   272
1070
     1
1070
   147
1040
0.800000011920929
1070
    77
1070
     1
1070
    74
1070
     0
1070
    73
1070
     0
1070
    42
1040
2.54
1070
    44
1040
1.5
1070
    76
1070
     0
1070
    75
1070
     0
1070
   279
1070
     0
1070
   271
1070
     1
1070
   144
1040
1.0
1070
   278
1070
    46
1070
   173
1070
     1
1070
    41
1040
3.0
1070
   140
1040
3.200000047683716
1070
   344
1005
26A
1070
   343
1005
26A
1002
}
  0
DIMENSION
  5
2A2
330
47
100
AcDbEntity
  8
0
 62
     0
100
AcDbDimension
  2
*D7
 10
-60.0
 20
-64.30931799316406
 30
0.0
 11
-94.999
 21
-64.30931799316406
 31
0.0
 70
   160
  1
\U+2205<>
 71
     5
 42
70.0
  3
ISO-25
100
AcDbAlignedDimension
 13
-130.0
 23
-17.69998550415039
 33
0.0
 14
-60.0
 24
-18.69998550415039
 34
0.0
 50
180.0
100
AcDbRotatedDimension
1001
ACAD
1000
DSTYLE
1002
{
1070
   178
1070
     1
1070
   283
1070
     1
1070
   272
1070
     1
1070
    71
1070
     1
1070
    72
1070
     0
1070
    48
1040
0.0
1070
    47
1040
0.1
1070
   147
1040
0.800000011920929
1070
    77
1070
     1
1070
    74
1070
     0
1070
    73
1070
     0
1070
    42
1040
2.54
1070
    44
1040
1.5
1070
    76
1070
     0
1070
    75
1070
     0
1070
   279
1070
     0
1070
   271
1070
     0
1070
   144
1040
1.0
1070
   278
1070
    46
1070
   173
1070
     1
1070
    41
1040
3.0
1070
   140
1040
3.200000047683716
1070
   344
1005
26A
1070
   343
1005
26A
1002
}
  0
DIMENSION
  5
2B2
330
47
100
AcDbEntity
  8
0
 62
     0
100
AcDbDimension
  2
*D8
 10
-57.0
 20
-72.05243627929687
 30
0.0
 11
-94.999
 21
-72.05243627929687
 31
0.0
 70
   160
  1
\U+2205<>
 71
     5
 42
76.0
  3
ISO-25
100
AcDbAlignedDimension
 13
-133.0
 23
-14.69998550415039
 33
0.0
 14
-57.0
 24
-14.69998550415039
 34
0.0
 50
180.0
100
AcDbRotatedDimension
1001
ACAD
1000
DSTYLE
1002
{
1070
   178
1070
     1
1070
   147
1040
0.800000011920929
1070
    77
1070
     1
1070
    74
1070
     0
1070
    73
1070
     0
1070
    42
1040
2.54
1070
    44
1040
1.5
1070
    76
1070
     0
1070
    75
1070
     0
1070
   279
1070
     0
1070
   271
1070
     0
1070
   144
1040
1.0
1070
   278
1070
    46
1070
   173
1070
     1
1070
    41
1040
3.0
1070
   140
1040
3.200000047683716
1070
   344
1005
26A
1070
   343
1005
26A
1002
}
  0
DIMENSION
  5
2C0
330
47
100
AcDbEntity
  8
0
 62
     0
100
AcDbDimension
  2
*D9
 10
-177.0
 20
93.67646026611328
 30
0.0
 11
-183.499
 21
93.67646026611328
 31
0.0
 70
   160
 71
     5
 42
13.0
  3
ISO-25
100
AcDbAlignedDimension
 13
-190.0
 23
79.60001373291016
 33
0.0
 14
-177.0
 24
78.60001373291016
 34
0.0
 50
180.0
100
AcDbRotatedDimension
1001
ACAD
1000
DSTYLE
1002
{
1070
   178
1070
     1
1070
   147
1040
0.800000011920929
1070
    77
1070
     1
1070
    74
1070
     0
1070
    73
1070
     0
1070
    42
1040
2.54
1070
    44
1040
1.5
1070
    76
1070
     0
1070
    75
1070
     1
1070
   279
1070
     0
1070
   271
1070
     0
1070
   144
1040
1.0
1070
   278
1070
    46
1070
   173
1070
     1
1070
    41
1040
3.0
1070
   140
1040
3.200000047683716
1070
   344
1005
26A
1070
   343
1005
26A
1002
}
  0
DIMENSION
  5
2CD
330
47
100
AcDbEntity
  8
0
 62
     0
100
AcDbDimension
  2
*D10
 10
-71.0
 20
93.67646026611328
 30
0.0
 11
-94.999
 21
93.67646026611328
 31
0.0
 70
   160
 71
     5
 42
48.0
  3
ISO-25
100
AcDbAlignedDimension
 13
-119.0
 23
68.90000915527344
 33
0.0
 14
-71.0
 24
68.90000915527344
 34
0.0
 50
180.0
100
AcDbRotatedDimension
1001
ACAD
1000
DSTYLE
1002
{
1070
   178
1070
     1
1070
   147
1040
0.800000011920929
1070
    77
1070
     1
1070
    74
1070
     0
1070
    73
1070
     0
1070
    42
1040
2.54
1070
    44
1040
1.5
1070
    76
1070
     0
1070
    75
1070
     0
1070
   279
1070
     0
1070
   271
1070
     0
1070
   144
1040
1.0
1070
   278
1070
    46
1070
   173
1070
     1
1070
    41
1040
3.0
1070
   140
1040
3.200000047683716
1070
   344
1005
26A
1070
   343
1005
26A
1002
}
  0
DIMENSION
  5
2DB
330
47
100
AcDbEntity
  8
0
 62
     0
100
AcDbDimension
  2
*D11
 10
-71.0
 20
86.32646179199219
 30
0.0
 11
-63.10559997177124
 21
86.32646179199219
 31
0.0
 70
   160
 71
     5
 42
2.0
  3
ISO-25
100
AcDbAlignedDimension
 13
-73.0
 23
68.90000915527344
 33
0.0
 14
-71.0
 24
68.90000915527344
 34
0.0
 50
180.0
100
AcDbRotatedDimension
1001
ACAD
1000
DSTYLE
1002
{
1070
   178
1070
     1
1070
   147
1040
0.800000011920929
1070
    77
1070
     1
1070
    74
1070
     0
1070
    73
1070
     0
1070
    42
1040
2.54
1070
    44
1040
1.5
1070
    76
1070
     1
1070
    75
1070
     0
1070
   279
1070
     0
1070
   271
1070
     0
1070
   144
1040
1.0
1070
   278
1070
    46
1070
   173
1070
     1
1070
    41
1040
3.0
1070
   140
1040
3.200000047683716
1070
   344
1005
26A
1070
   343
1005
26A
1002
}
  0
DIMENSION
  5
2F2
330
47
100
AcDbEntity
  8
0
 62
     0
100
AcDbDimension
  2
*D12
 10
-13.0
 20
93.67646026611328
 30
0.0
 11
-6.497999999999999
 21
93.67646026611328
 31
0.0
 70
   160
 71
     5
 42
13.0
  3
ISO-25
100
AcDbAlignedDimension
 13
0.0
 23
79.60001373291016
 33
0.0
 14
-13.0
 24
78.60001373291016
 34
0.0
100
AcDbRotatedDimension
1001
ACAD
1000
DSTYLE
1002
{
1070
   178
1070
     1
1070
   147
1040
0.800000011920929
1070
    77
1070
     1
1070
    74
1070
     0
1070
    73
1070
     0
1070
    42
1040
2.54
1070
    44
1040
1.5
1070
    76
1070
     0
1070
    75
1070
     1
1070
   279
1070
     0
1070
   271
1070
     0
1070
   144
1040
1.0
1070
   278
1070
    46
1070
   173
1070
     1
1070
    41
1040
3.0
1070
   140
1040
3.200000047683716
1070
   344
1005
26A
1070
   343
1005
26A
1002
}
  0
DIMENSION
  5
2FE
330
47
100
AcDbEntity
  8
0
 62
     0
100
AcDbDimension
  2
*D13
 10
0.0
 20
102.4264602661133
 30
0.0
 11
-94.999
 21
102.4264602661133
 31
0.0
 70
   160
 71
     5
 42
190.0
  3
ISO-25
100
AcDbAlignedDimension
 13
-190.0
 23
79.60001373291016
 33
0.0
 14
0.0
 24
79.60001373291016
 34
0.0
 50
180.0
100
AcDbRotatedDimension
1001
ACAD
1000
DSTYLE
1002
{
1070
   178
1070
     1
1070
   147
1040
0.800000011920929
1070
    77
1070
     1
1070
    74
1070
     0
1070
    73
1070
     0
1070
    42
1040
2.54
1070
    44
1040
1.5
1070
    76
1070
     0
1070
    75
1070
     0
1070
   279
1070
     0
1070
   271
1070
     0
1070
   144
1040
1.0
1070
   278
1070
    46
1070
   173
1070
     1
1070
    41
1040
3.0
1070
   140
1040
3.200000047683716
1070
   344
1005
26A
1070
   343
1005
26A
1002
}
  0
DIMENSION
  5
30C
330
47
100
AcDbEntity
  8
0
 62
     0
100
AcDbDimension
  2
*D15
 10
-46.27150671386719
 20
-17.69998550415038
 30
0.0
 11
-46.27150671386719
 21
-15.99196951293945
 31
0.0
 70
   160
 71
     5
 42
2.999999999999999
  3
ISO-25
100
AcDbAlignedDimension
 13
-57.0
 23
-14.69998550415039
 33
0.0
 14
-60.0
 24
-17.69998550415039
 34
0.0
 50
90.00000000000001
100
AcDbRotatedDimension
1001
ACAD
1000
DSTYLE
1002
{
1070
   178
1070
     1
1070
   147
1040
0.800000011920929
1070
    77
1070
     1
1070
    74
1070
     0
1070
    73
1070
     0
1070
    42
1040
2.54
1070
    44
1040
1.5
1070
    76
1070
     0
1070
    75
1070
     1
1070
   279
1070
     0
1070
   271
1070
     0
1070
   144
1040
1.0
1070
   278
1070
    46
1070
   173
1070
     1
1070
    41
1040
3.0
1070
   140
1040
3.200000047683716
1070
   344
1005
30D
1070
   343
1005
26A
1002
}
  0
DIMENSION
  5
320
330
47
100
AcDbEntity
  8
0
 62
     0
100
AcDbDimension
  2
*D17
 10
-46.27150671386719
 20
-20.69998550415039
 30
0.0
 11
-46.27150671386719
 21
-19.19898550415039
 31
0.0
 70
   160
 71
     5
 42
2.999999999999999
  3
ISO-25
100
AcDbAlignedDimension
 13
-60.0
 23
-17.69998550415039
 33
0.0
 14
-61.7320556640625
 24
-20.69998550415039
 34
0.0
 50
90.00000000000001
100
AcDbRotatedDimension
1001
ACAD
1000
DSTYLE
1002
{
1070
   178
1070
     1
1070
   147
1040
0.800000011920929
1070
    77
1070
     1
1070
    74
1070
     0
1070
    73
1070
     0
1070
    42
1040
2.54
1070
    44
1040
1.5
1070
    76
1070
     0
1070
    75
1070
     1
1070
   279
1070
     0
1070
   271
1070
     0
1070
   144
1040
1.0
1070
   278
1070
    46
1070
   173
1070
     1
1070
    41
1040
2.54
1070
   140
1040
3.200000047683716
1070
   344
1005
321
1070
   343
1005
321
1002
}
  0
DIMENSION
  5
333
330
47
100
AcDbEntity
  8
0
 62
     0
100
AcDbDimension
  2
*D18
 10
-46.27150671386719
 20
-25.69998168945311
 30
0.0
 11
-46.27150671386719
 21
-23.19898168945312
 31
0.0
 70
   160
 71
     5
 42
4.999999999999998
  3
ISO-25
100
AcDbAlignedDimension
 13
-61.7320556640625
 23
-20.69998550415039
 33
0.0
 14
-65.7401123046875
 24
-25.69998168945312
 34
0.0
 50
90.00000000000001
100
AcDbRotatedDimension
1001
ACAD
1000
DSTYLE
1002
{
1070
   178
1070
     1
1070
   147
1040
0.800000011920929
1070
    77
1070
     1
1070
    74
1070
     0
1070
    73
1070
     0
1070
    42
1040
2.54
1070
    44
1040
1.5
1070
    76
1070
     1
1070
    75
1070
     1
1070
   279
1070
     0
1070
   271
1070
     0
1070
   144
1040
1.000000762940035
1070
   278
1070
    46
1070
   173
1070
     1
1070
    41
1040
3.0
1070
   140
1040
3.200000047683716
1070
   344
1005
26A
1070
   343
1005
30D
1002
}
  0
DIMENSION
  5
341
330
47
100
AcDbEntity
  8
0
 62
     0
100
AcDbDimension
  2
*D19
 10
-37.53077587890625
 20
-14.69998550415038
 30
0.0
 11
-37.53077587890625
 21
-6.498385486245159
 31
0.0
 70
   160
 71
     5
 42
0.99999999999999
  3
ISO-25
100
AcDbAlignedDimension
 13
-30.0
 23
-13.69998550415039
 33
0.0
 14
-57.0
 24
-14.69998550415039
 34
0.0
 50
90.00000000000001
100
AcDbRotatedDimension
1001
ACAD
1000
DSTYLE
1002
{
1070
   178
1070
     1
1070
   147
1040
0.800000011920929
1070
    77
1070
     1
1070
    74
1070
     0
1070
    73
1070
     0
1070
    42
1040
2.54
1070
    44
1040
1.5
1070
    76
1070
     0
1070
    75
1070
     1
1070
   279
1070
     0
1070
   271
1070
     0
1070
   144
1040
1.0
1070
   278
1070
    46
1070
   173
1070
     1
1070
    41
1040
3.0
1070
   140
1040
3.200000047683716
1070
   344
1005
26A
1070
   343
1005
26A
1002
}
  0
DIMENSION
  5
357
330
47
100
AcDbEntity
  8
0
 62
     0
100
AcDbDimension
  2
*D20
 10
-37.53177587890625
 20
-25.69998168945311
 30
0.0
 11
-37.53177587890625
 21
-20.19898550415039
 31
0.0
 70
   160
 71
     5
 42
11.0
  3
ISO-25
100
AcDbAlignedDimension
 13
-57.0
 23
-14.69998550415039
 33
0.0
 14
-65.7401123046875
 24
-25.69998168945312
 34
0.0
 50
90.00000000000001
100
AcDbRotatedDimension
1001
ACAD
1000
DSTYLE
1002
{
1070
   178
1070
     1
1070
   147
1040
0.800000011920929
1070
    77
1070
     1
1070
    74
1070
     0
1070
    73
1070
     0
1070
    42
1040
2.54
1070
    44
1040
1.5
1070
    76
1070
     0
1070
    75
1070
     1
1070
   279
1070
     0
1070
   271
1070
     0
1070
   144
1040
1.000000346790781
1070
   278
1070
    46
1070
   173
1070
     1
1070
    41
1040
3.0
1070
   140
1040
3.200000047683716
1070
   344
1005
26A
1070
   343
1005
26A
1002
}
  0
DIMENSION
  5
363
330
47
100
AcDbEntity
  8
0
 62
     0
100
AcDbDimension
  2
*D21
 10
11.0371328125
 20
-0.499984741210933
 30
0.0
 11
11.0371328125
 21
9.394415287017825
 31
0.0
 70
   160
 71
     5
 42
2.0
  3
ISO-25
100
AcDbAlignedDimension
 13
0.0
 23
1.500015258789062
 33
0.0
 14
0.0
 24
-0.499984741210938
 34
0.0
 50
90.00000000000001
100
AcDbRotatedDimension
1001
ACAD
1000
DSTYLE
1002
{
1070
   178
1070
     1
1070
   147
1040
0.800000011920929
1070
    77
1070
     1
1070
    74
1070
     0
1070
    73
1070
     0
1070
    42
1040
2.54
1070
    44
1040
1.5
1070
    76
1070
     0
1070
    75
1070
     0
1070
   279
1070
     0
1070
   271
1070
     0
1070
   144
1040
1.0
1070
   278
1070
    46
1070
   173
1070
     1
1070
    41
1040
3.0
1070
   140
1040
3.200000047683716
1070
   344
1005
30D
1070
   343
1005
26A
1002
}
  0
INSERT
  5
37E
330
47
100
AcDbEntity
  8
0
 62
     0
100
AcDbBlockReference
  2
SYM0001
 10
-119.2859672333127
 20
52.51829712674804
 30
0.0
  0
INSERT
  5
385
330
47
100
AcDbEntity
  8
0
 62
     0
100
AcDbBlockReference
  2
SYM0002
 10
-116.9033882938635
 20
63.36555408808923
 30
0.0
  0
INSERT
  5
38E
330
47
100
AcDbEntity
  8
0
 62
     0
100
AcDbBlockReference
  2
SYM0003
 10
-70.70680754184117
 20
52.1045383841997
 30
0.0
  0
INSERT
  5
395
330
47
100
AcDbEntity
  8
0
 62
     0
100
AcDbBlockReference
  2
SYM0004
 10
-73.09660802975321
 20
63.36555209784757
 30
0.0
  0
DIMENSION
  5
398
330
47
100
AcDbEntity
  8
0
 62
     0
100
AcDbDimension
  2
*D26
 10
-0.000000000000003
 20
-11.7410539855957
 30
0.0
 11
-6.499
 21
-11.7410539855957
 31
0.0
 70
   160
 71
     5
 42
12.99998474121094
  3
ISO-25
100
AcDbAlignedDimension
 13
-12.99998474121094
 23
-3.699985504150391
 33
0.0
 14
0.0
 24
-0.000003814697266
 34
0.0
 50
180.0
100
AcDbRotatedDimension
1001
ACAD
1000
DSTYLE
1002
{
1070
   178
1070
     1
1070
   147
1040
0.800000011920929
1070
    77
1070
     1
1070
    74
1070
     0
1070
    73
1070
     0
1070
    42
1040
2.54
1070
    44
1040
1.5
1070
    76
1070
     0
1070
    75
1070
     0
1070
   279
1070
     0
1070
   271
1070
     0
1070
   144
1040
1.0
1070
   278
1070
    46
1070
   173
1070
     1
1070
    41
1040
3.0
1070
   140
1040
3.200000047683716
1070
   344
1005
26A
1070
   343
1005
26A
1002
}
  0
DIMENSION
  5
3A6
330
47
100
AcDbEntity
  8
0
 62
     0
100
AcDbDimension
  2
*D27
 10
-29.24422820539532
 20
-13.35481272303853
 30
0.0
 11
-24.8441549088401
 21
-17.16711117460659
 31
0.0
 70
   164
  1
<>
 71
     5
 42
1.0
  3
ISO-25
100
AcDbRadialDimension
 15
-29.25648706687825
 25
-13.34419143664179
 35
0.0
 40
0.0
1001
ACAD
1000
DSTYLE
1002
{
1070
   178
1070
     1
1070
   147
1040
0.800000011920929
1070
    77
1070
     1
1070
    74
1070
     0
1070
    73
1070
     0
1070
   279
1070
     0
1070
   271
1070
     0
1070
   144
1040
61.65192850422919
1070
   278
1070
    46
1070
   173
1070
     1
1070
    41
1040
3.0
1070
   140
1040
3.200000047683716
1070
   344
1005
26A
1070
   343
1005
30D
1002
}
  0
DIMENSION
  5
3B4
330
47
100
AcDbEntity
  8
0
 62
     0
100
AcDbDimension
  2
*D28
 10
-160.1369356523141
 20
-12.48373017484
 30
0.0
 11
-152.1042689629202
 21
-7.745037853154561
 31
0.0
 70
   164
  1
<>
 71
     5
 42
1.0
  3
ISO-25
100
AcDbRadialDimension
 15
-159.2756391301971
 25
-11.97562752675686
 35
0.0
 40
0.0
1001
ACAD
1000
DSTYLE
1002
{
1070
   178
1070
     1
1070
   147
1040
0.625
1070
    77
1070
     1
1070
    74
1070
     0
1070
    73
1070
     0
1070
   279
1070
     0
1070
   271
1070
     0
1070
   144
1040
1.000000000000018
1070
   278
1070
    46
1070
   173
1070
     1
1070
    41
1040
3.0
1070
   140
1040
2.5
1070
   344
1005
26A
1070
   343
1005
30D
1002
}
  0
DIMENSION
  5
3C3
330
47
100
AcDbEntity
  8
0
 62
     0
100
AcDbDimension
  2
*D29
 10
-161.1798354197569
 20
-4.127859728834324
 30
0.0
 11
-168.8288702292386
 21
-9.463701325605797
 31
0.0
 70
   164
  1
<>
 71
     5
 42
1.0
  3
ISO-25
100
AcDbRadialDimension
 15
-161.99999730792
 25
-4.699991249731951
 35
0.0
 40
0.0
1001
ACAD
1000
DSTYLE
1002
{
1070
   178
1070
     1
1070
   147
1040
0.625
1070
    77
1070
     1
1070
    74
1070
     0
1070
    73
1070
     0
1070
   279
1070
     0
1070
   271
1070
     0
1070
   144
1040
0.999999999999995
1070
   278
1070
    46
1070
   173
1070
     1
1070
    41
1040
3.0
1070
   140
1040
2.5
1070
   344
1005
26A
1070
   343
1005
30D
1002
}
  0
INSERT
  5
3D6
330
47
100
AcDbEntity
  8
0
 62
     0
100
AcDbBlockReference
  2
SYM0005
 10
-56.43157140373941
 20
-27.04557915836539
 30
0.0
  0
INSERT
  5
3DD
330
47
100
AcDbEntity
  8
0
 62
     0
100
AcDbBlockReference
  2
SYM0006
 10
97.38541793172028
 20
82.94901413055995
 30
0.0
  0
INSERT
  5
3E4
330
47
100
AcDbEntity
  8
0
 62
     0
100
AcDbBlockReference
  2
SYM0007
 10
108.7654966440676
 20
53.08085829302104
 30
0.0
  0
INSERT
  5
3EB
330
47
100
AcDbEntity
  8
0
 62
     0
100
AcDbBlockReference
  2
SYM0008
 10
193.356415372899
 20
56.43239839289282
 30
0.0
  0
DIMENSION
  5
3EE
330
47
100
AcDbEntity
  8
0
 62
     0
100
AcDbDimension
  2
*D34
 10
59.6864482421875
 20
61.90003967285156
 30
0.0
 11
59.6864482421875
 21
69.25103814697266
 31
0.0
 70
   160
 71
     5
 42
14.69999980926514
  3
ISO-25
100
AcDbAlignedDimension
 13
83.84158325195312
 23
76.60005187988281
 33
0.0
 14
83.84158325195312
 24
61.90003967285156
 34
0.0
 50
90.00000000000001
100
AcDbRotatedDimension
1001
ACAD
1000
DSTYLE
1002
{
1070
   178
1070
     1
1070
   147
1040
0.800000011920929
1070
    77
1070
     1
1070
    74
1070
     0
1070
    73
1070
     0
1070
    42
1040
2.54
1070
    44
1040
1.5
1070
    76
1070
     0
1070
    75
1070
     1
1070
   279
1070
     0
1070
   271
1070
     1
1070
   144
1040
0.999999156615251
1070
   278
1070
    46
1070
   173
1070
     1
1070
    41
1040
3.0
1070
   140
1040
3.200000047683716
1070
   344
1005
26A
1070
   343
1005
26A
1002
}
  0
DIMENSION
  5
3FA
330
47
100
AcDbEntity
  8
0
 62
     0
100
AcDbDimension
  2
*D35
 10
59.68652453613281
 20
45.10006713867185
 30
0.0
 11
59.68652453613281
 21
53.50102288818359
 31
0.0
 70
   160
 71
     5
 42
16.79999923706055
  3
ISO-25
100
AcDbAlignedDimension
 13
83.84158325195312
 23
61.90003967285156
 33
0.0
 14
95.8114013671875
 24
45.10006713867188
 34
0.0
 50
90.00000000000001
100
AcDbRotatedDimension
1001
ACAD
1000
DSTYLE
1002
{
1070
   178
1070
     1
1070
   147
1040
0.800000011920929
1070
    77
1070
     1
1070
    74
1070
     0
1070
    73
1070
     0
1070
    42
1040
2.54
1070
    44
1040
1.5
1070
    76
1070
     0
1070
    75
1070
     1
1070
   279
1070
     0
1070
   271
1070
     1
1070
   144
1040
1.000001589459793
1070
   278
1070
    46
1070
   173
1070
     1
1070
    41
1040
3.0
1070
   140
1040
3.200000047683716
1070
   344
1005
26A
1070
   343
1005
26A
1002
}
  0
DIMENSION
  5
406
330
47
100
AcDbEntity
  8
0
 62
     0
100
AcDbDimension
  2
*D36
 10
59.68660083007813
 20
9.500030517578114
 30
0.0
 11
59.68660083007812
 21
27.30101068115234
 31
0.0
 70
   160
 71
     5
 42
35.5999984741211
  3
ISO-25
100
AcDbAlignedDimension
 13
95.8114013671875
 23
45.10006713867188
 33
0.0
 14
118.5560607910156
 24
9.500030517578125
 34
0.0
 50
90.00000000000001
100
AcDbRotatedDimension
1001
ACAD
1000
DSTYLE
1002
{
1070
   178
1070
     1
1070
   147
1040
0.800000011920929
1070
    77
1070
     1
1070
    74
1070
     0
1070
    73
1070
     0
1070
    42
1040
2.54
1070
    44
1040
1.5
1070
    76
1070
     0
1070
    75
1070
     1
1070
   279
1070
     0
1070
   271
1070
     1
1070
   144
1040
0.999998928456927
1070
   278
1070
    46
1070
   173
1070
     1
1070
    41
1040
3.0
1070
   140
1040
3.200000047683716
1070
   344
1005
26A
1070
   343
1005
26A
1002
}
  0
DIMENSION
  5
412
330
47
100
AcDbEntity
  8
0
 62
     0
100
AcDbDimension
  2
*D37
 10
59.68667712402343
 20
1.500030517578106
 30
0.0
 11
59.68667712402343
 21
5.501022888183594
 31
0.0
 70
   160
 71
     5
 42
7.999999999999996
  3
ISO-25
100
AcDbAlignedDimension
 13
118.5560607910156
 23
9.500030517578125
 33
0.0
 14
107.5560607910156
 24
1.500030517578125
 34
0.0
 50
90.00000000000001
100
AcDbRotatedDimension
1001
ACAD
1000
DSTYLE
1002
{
1070
   178
1070
     1
1070
   147
1040
0.800000011920929
1070
    77
1070
     1
1070
    74
1070
     0
1070
    73
1070
     0
1070
    42
1040
2.54
1070
    44
1040
1.5
1070
    76
1070
     1
1070
    75
1070
     1
1070
   279
1070
     0
1070
   271
1070
     0
1070
   144
1040
1.0
1070
   278
1070
    46
1070
   173
1070
     1
1070
    41
1040
1.0
1070
   140
1040
3.200000047683716
1070
   344
1005
30D
1070
   343
1005
30D
1002
}
  0
DIMENSION
  5
41D
330
47
100
AcDbEntity
  8
0
 62
     0
100
AcDbDimension
  2
*D38
 10
76.14255138229811
 20
46.82083881391782
 30
0.0
 11
76.48347583007813
 21
49.13191986083984
 31
0.0
 70
   165
 71
     5
 42
0.261798247647606
  3
ISO-25
100
AcDb3PointAngularDimension
 13
93.87929548301544
 23
45.61770302627293
 33
0.0
 14
64.69895935058594
 24
45.10006713867188
 34
0.0
 15
95.81114772577818
 25
45.10006713867188
 35
0.0
1001
ACAD
1000
DSTYLE
1002
{
1070
   178
1070
     1
1070
   275
1070
     1
1070
   147
1040
0.800000011920929
1070
    77
1070
     1
1070
    74
1070
     0
1070
    73
1070
     0
1070
    42
1040
2.54
1070
    44
1040
1.499986648465239
1070
    76
1070
     1
1070
    75
1070
     0
1070
   279
1070
     0
1070
   179
1070
     0
1070
   144
1040
0.032724767430299
1070
   278
1070
    46
1070
   173
1070
     1
1070
    41
1040
3.0
1070
   140
1040
3.200000047683716
1070
   344
1005
26A
1070
   343
1005
26A
1002
}
  0
DIMENSION
  5
433
330
47
100
AcDbEntity
  8
0
 62
     0
100
AcDbDimension
  2
*D39
 10
48.89759936523438
 20
1.500030517578104
 30
0.0
 11
48.89759936523437
 21
36.35538537597656
 31
0.0
 70
   160
 71
     5
 42
75.09999847412111
  3
ISO-25
100
AcDbAlignedDimension
 13
83.84158325195312
 23
76.60005187988281
 33
0.0
 14
107.5560607910156
 24
1.500030517578125
 34
0.0
 50
90.00000000000001
100
AcDbRotatedDimension
1001
ACAD
1000
DSTYLE
1002
{
1070
   178
1070
     1
1070
   147
1040
0.800000011920929
1070
    77
1070
     1
1070
    74
1070
     0
1070
    73
1070
     0
1070
    42
1040
2.54
1070
    44
1040
1.5
1070
    76
1070
     0
1070
    75
1070
     1
1070
   279
1070
     0
1070
   271
1070
     1
1070
   144
1040
0.999999695230665
1070
   278
1070
    46
1070
   173
1070
     1
1070
    41
1040
3.0
1070
   140
1040
3.200000047683716
1070
   344
1005
26A
1070
   343
1005
26A
1002
}
  0
DIMENSION
  5
43F
330
47
100
AcDbEntity
  8
0
 62
     0
100
AcDbDimension
  2
*D40
 10
94.34152221679688
 20
95.47720336914062
 30
0.0
 11
88.5995107421875
 21
95.47720336914062
 31
0.0
 70
   160
 71
     5
 42
11.0
  3
ISO-25
100
AcDbAlignedDimension
 13
83.34152221679688
 23
76.10000610351562
 33
0.0
 14
94.34152221679688
 24
75.60000610351562
 34
0.0
 50
180.0
100
AcDbRotatedDimension
1001
ACAD
1000
DSTYLE
1002
{
1070
   178
1070
     1
1070
   147
1040
0.800000011920929
1070
    77
1070
     1
1070
    74
1070
     0
1070
    73
1070
     0
1070
    42
1040
2.54
1070
    44
1040
1.5
1070
    76
1070
     0
1070
    75
1070
     0
1070
   279
1070
     0
1070
   271
1070
     0
1070
   144
1040
1.0
1070
   278
1070
    46
1070
   173
1070
     1
1070
    41
1040
3.0
1070
   140
1040
3.200000047683716
1070
   344
1005
26A
1070
   343
1005
26A
1002
}
  0
DIMENSION
  5
44D
330
47
100
AcDbEntity
  8
0
 62
     0
100
AcDbDimension
  2
*D41
 10
110.6482778320313
 20
61.90003967285156
 30
0.0
 11
110.6482778320313
 21
65.22310693359375
 31
0.0
 70
   160
 71
     5
 42
7.0
  3
ISO-25
100
AcDbAlignedDimension
 13
93.99163818359375
 23
68.90003967285156
 33
0.0
 14
93.42526245117188
 24
61.90003967285156
 34
0.0
 50
90.00000000000001
100
AcDbRotatedDimension
1001
ACAD
1000
DSTYLE
1002
{
1070
   178
1070
     1
1070
   147
1040
0.800000011920929
1070
    77
1070
     1
1070
    74
1070
     0
1070
    73
1070
     0
1070
    42
1040
2.54
1070
    44
1040
1.50006103515625
1070
    76
1070
     0
1070
    75
1070
     0
1070
   279
1070
     0
1070
   271
1070
     0
1070
   144
1040
1.0
1070
   278
1070
    46
1070
   173
1070
     1
1070
    41
1040
3.0
1070
   140
1040
3.200000047683716
1070
   344
1005
26A
1070
   343
1005
26A
1002
}
  0
DIMENSION
  5
463
330
47
100
AcDbEntity
  8
0
 62
     0
100
AcDbDimension
  2
*D42
 10
96.12898809973197
 20
68.00509281867663
 30
0.0
 11
87.27271952986723
 21
59.28263029658836
 31
0.0
 70
   164
  1
<>
 71
     5
 42
3.0
  3
ISO-25
100
AcDbRadialDimension
 15
93.99158257775869
 25
65.89998055691048
 35
0.0
 40
0.0
1001
ACAD
1000
DSTYLE
1002
{
1070
   178
1070
     1
1070
   147
1040
0.800000011920929
1070
    77
1070
     1
1070
    74
1070
     0
1070
    73
1070
     0
1070
   279
1070
     0
1070
   271
1070
     0
1070
   144
1040
0.999999999999996
1070
   278
1070
    46
1070
   173
1070
     1
1070
    41
1040
3.0
1070
   140
1040
3.200000047683716
1070
   344
1005
26A
1070
   343
1005
30D
1002
}
  0
DIMENSION
  5
472
330
47
100
AcDbEntity
  8
0
 62
     0
100
AcDbDimension
  2
*D43
 10
233.3649221191406
 20
40.90008544921876
 30
0.0
 11
233.3649221191406
 21
46.25107629394531
 31
0.0
 70
   160
 71
     5
 42
10.70000076293945
  3
ISO-25
100
AcDbAlignedDimension
 13
203.9831237792969
 23
51.60002899169922
 33
0.0
 14
203.9831237792969
 24
40.90008544921875
 34
0.0
 50
90.00000000000001
100
AcDbRotatedDimension
1001
ACAD
1000
DSTYLE
1002
{
1070
   178
1070
     1
1070
   147
1040
0.800000011920929
1070
    77
1070
     1
1070
    74
1070
     0
1070
    73
1070
     0
1070
    42
1040
2.54
1070
    44
1040
1.5
1070
    76
1070
     0
1070
    75
1070
     1
1070
   279
1070
     0
1070
   271
1070
     1
1070
   144
1040
1.000005347734664
1070
   278
1070
    46
1070
   173
1070
     1
1070
    41
1040
3.0
1070
   140
1040
3.200000047683716
1070
   344
1005
26A
1070
   343
1005
26A
1002
}
  0
DIMENSION
  5
47E
330
47
100
AcDbEntity
  8
0
 62
     0
100
AcDbDimension
  2
*D44
 10
233.3649221191407
 20
1.500030517578136
 30
0.0
 11
233.3649221191406
 21
21.20101220703125
 31
0.0
 70
   160
 71
     5
 42
39.4000015258789
  3
ISO-25
100
AcDbAlignedDimension
 13
203.9831237792969
 23
40.90008544921875
 33
0.0
 14
194.0360717773438
 24
1.500030517578125
 34
0.0
 50
90.00000000000001
100
AcDbRotatedDimension
1001
ACAD
1000
DSTYLE
1002
{
1070
   178
1070
     1
1070
   147
1040
0.800000011920929
1070
    77
1070
     1
1070
    74
1070
     0
1070
    73
1070
     0
1070
    42
1040
2.54
1070
    44
1040
1.5
1070
    76
1070
     1
1070
    75
1070
     1
1070
   279
1070
     0
1070
   271
1070
     1
1070
   144
1040
0.999998644525704
1070
   278
1070
    46
1070
   173
1070
     1
1070
    41
1040
3.0
1070
   140
1040
3.200000047683716
1070
   344
1005
26A
1070
   343
1005
26A
1002
}
  0
DIMENSION
  5
489
330
47
100
AcDbEntity
  8
0
 62
     0
100
AcDbDimension
  2
*D45
 10
242.8149038085938
 20
1.500030517578143
 30
0.0
 11
242.8149038085938
 21
26.55103356933594
 31
0.0
 70
   160
 71
     5
 42
50.10000228881836
  3
ISO-25
100
AcDbAlignedDimension
 13
203.9831237792969
 23
51.60002899169922
 33
0.0
 14
194.0360717773438
 24
1.500030517578125
 34
0.0
 50
90.00000000000001
100
AcDbRotatedDimension
1001
ACAD
1000
DSTYLE
1002
{
1070
   178
1070
     1
1070
   147
1040
0.800000011920929
1070
    77
1070
     1
1070
    74
1070
     0
1070
    73
1070
     0
1070
    42
1040
2.54
1070
    44
1040
1.5
1070
    76
1070
     0
1070
    75
1070
     0
1070
   279
1070
     0
1070
   271
1070
     1
1070
   144
1040
1.000000076141664
1070
   278
1070
    46
1070
   173
1070
     1
1070
    41
1040
3.0
1070
   140
1040
3.200000047683716
1070
   344
1005
26A
1070
   343
1005
26A
1002
}
  0
DIMENSION
  5
496
330
47
100
AcDbEntity
  8
0
 62
     0
100
AcDbDimension
  2
*D46
 10
196.4830627441406
 20
70.878662109375
 30
0.0
 11
199.9413005371094
 21
70.878662109375
 31
0.0
 70
   160
 71
     5
 42
8.0
  3
ISO-25
100
AcDbAlignedDimension
 13
204.4830322265625
 23
51.10000610351562
 33
0.0
 14
196.4830627441406
 24
51.60000610351562
 34
0.0
100
AcDbRotatedDimension
1001
ACAD
1000
DSTYLE
1002
{
1070
   178
1070
     1
1070
   147
1040
0.800000011920929
1070
    77
1070
     1
1070
    74
1070
     0
1070
    73
1070
     0
1070
    42
1040
2.54
1070
    44
1040
1.5
1070
    76
1070
     0
1070
    75
1070
     0
1070
   279
1070
     0
1070
   271
1070
     0
1070
   144
1040
1.000003814711818
1070
   278
1070
    46
1070
   173
1070
     1
1070
    41
1040
3.0
1070
   140
1040
3.200000047683716
1070
   344
1005
26A
1070
   343
1005
26A
1002
}
  0
DIMENSION
  5
4AA
330
47
100
AcDbEntity
  8
0
 62
     0
100
AcDbDimension
  2
*D47
 10
181.3845073242188
 20
40.90008544921874
 30
0.0
 11
181.3845073242188
 21
45.41800744628906
 31
0.0
 70
   160
 71
     5
 42
7.999999999999998
  3
ISO-25
100
AcDbAlignedDimension
 13
203.4415893554688
 23
48.90008544921875
 33
0.0
 14
198.3994750976562
 24
40.90008544921875
 34
0.0
 50
90.00000000000001
100
AcDbRotatedDimension
1001
ACAD
1000
DSTYLE
1002
{
1070
   178
1070
     1
1070
   147
1040
0.800000011920929
1070
    77
1070
     1
1070
    74
1070
     0
1070
    73
1070
     0
1070
    42
1040
2.54
1070
    44
1040
1.5
1070
    76
1070
     0
1070
    75
1070
     0
1070
   279
1070
     0
1070
   271
1070
     0
1070
   144
1040
1.0
1070
   278
1070
    46
1070
   173
1070
     1
1070
    41
1040
3.0
1070
   140
1040
3.200000047683716
1070
   344
1005
26A
1070
   343
1005
26A
1002
}
  0
INSERT
  5
4C4
330
47
100
AcDbEntity
  8
0
 62
     0
100
AcDbBlockReference
  2
SYM0009
 10
200.5792711111753
 20
47.54544726271182
 30
0.0
  0
DIMENSION
  5
4C7
330
47
100
AcDbEntity
  8
0
 62
     0
100
AcDbDimension
  2
*D49
 10
191.9134262090778
 20
3.67916858293448
 30
0.0
 11
192.3799133437921
 21
3.184406263081804
 31
0.0
 70
   164
  1
<>
 71
     5
 42
8.0
  3
ISO-25
100
AcDbRadialDimension
 15
186.4253422712619
 25
9.499901757671722
 35
0.0
 40
0.0
1001
ACAD
1000
DSTYLE
1002
{
1070
   178
1070
     1
1070
   147
1040
0.625
1070
    77
1070
     1
1070
    74
1070
     0
1070
    73
1070
     0
1070
   279
1070
     0
1070
   271
1070
     0
1070
   144
1040
1.000000000000001
1070
   278
1070
    46
1070
   173
1070
     1
1070
    41
1040
3.0
1070
   140
1040
2.5
1070
   344
1005
26A
1070
   343
1005
30D
1002
}
  0
DIMENSION
  5
4D4
330
47
100
AcDbEntity
  8
0
 62
     0
100
AcDbDimension
  2
*D50
 10
111.0075152285012
 20
11.64352116980603
 30
0.0
 11
112.2224243295956
 21
13.3930627886531
 31
0.0
 70
   164
  1
<>
 71
     5
 42
12.0
  3
ISO-25
100
AcDbRadialDimension
 15
117.8520735445258
 25
21.50009367035297
 35
0.0
 40
0.0
1001
ACAD
1000
DSTYLE
1002
{
1070
   178
1070
     1
1070
   147
1040
0.625
1070
    77
1070
     1
1070
    74
1070
     0
1070
    73
1070
     0
1070
   279
1070
     0
1070
   271
1070
     0
1070
   144
1040
1.000000000000001
1070
   278
1070
    46
1070
   173
1070
     1
1070
    41
1040
3.0
1070
   140
1040
2.5
1070
   344
1005
26A
1070
   343
1005
30D
1002
}
  0
DIMENSION
  5
4E1
330
47
100
AcDbEntity
  8
0
 62
     0
100
AcDbDimension
  2
*D51
 10
119.0012775602387
 20
2.241944131449756
 30
0.0
 11
127.2927946614221
 21
8.95161127843134
 31
0.0
 70
   164
  1
<>
 71
     5
 42
2.0
  3
ISO-25
100
AcDbRadialDimension
 15
120.555997747968
 25
3.500055866498464
 35
0.0
 40
0.0
1001
ACAD
1000
DSTYLE
1002
{
1070
   178
1070
     1
1070
   147
1040
0.625
1070
    77
1070
     1
1070
    74
1070
     0
1070
    73
1070
     0
1070
   279
1070
     0
1070
   271
1070
     0
1070
   144
1040
0.99999999999999
1070
   278
1070
    46
1070
   173
1070
     1
1070
    41
1040
3.0
1070
   140
1040
2.5
1070
   344
1005
26A
1070
   343
1005
30D
1002
}
  0
DIMENSION
  5
4F0
330
47
100
AcDbEntity
  8
0
 62
     0
100
AcDbDimension
  2
*D52
 10
114.0308032297139
 20
5.208758078687893
 30
0.0
 11
103.3282052424403
 21
1.670322295836443
 31
0.0
 70
   164
  1
<>
 71
     5
 42
0.5
  3
ISO-25
100
AcDbRadialDimension
 15
113.5560758141238
 25
5.051806236114537
 35
0.0
 40
0.0
1001
ACAD
1000
DSTYLE
1002
{
1070
   178
1070
     1
1070
   147
1040
0.625
1070
    77
1070
     1
1070
    74
1070
     0
1070
    73
1070
     0
1070
   279
1070
     0
1070
   271
1070
     1
1070
   144
1040
1.000000000000009
1070
   278
1070
    46
1070
   173
1070
     1
1070
    41
1040
3.0
1070
   140
1040
2.5
1070
   344
1005
26A
1070
   343
1005
30D
1002
}
  0
INSERT
  5
503
330
47
100
AcDbEntity
  8
0
 62
     0
100
AcDbBlockReference
  2
SYM0010
 10
116.7315130261264
 20
8.03930013650173
 30
0.0
  0
DIMENSION
  5
506
330
47
100
AcDbEntity
  8
0
 62
     0
100
AcDbDimension
  2
*D54
 10
118.5559997558594
 20
-65.31191198730468
 30
0.0
 11
113.0569997558594
 21
-65.31191198730468
 31
0.0
 70
   160
 71
     5
 42
11.0
  3
ISO-25
100
AcDbAlignedDimension
 13
107.5559997558594
 23
1.5
 33
0.0
 14
118.5559997558594
 24
1.5
 34
0.0
 50
180.0
100
AcDbRotatedDimension
1001
ACAD
1000
DSTYLE
1002
{
1070
   178
1070
     1
1070
   147
1040
0.800000011920929
1070
    77
1070
     1
1070
    74
1070
     0
1070
    73
1070
     0
1070
    42
1040
2.54
1070
    44
1040
1.5
1070
    76
1070
     0
1070
    75
1070
     1
1070
   279
1070
     0
1070
   271
1070
     0
1070
   144
1040
1.0
1070
   278
1070
    46
1070
   173
1070
     1
1070
    41
1040
3.0
1070
   140
1040
3.200000047683716
1070
   344
1005
26A
1070
   343
1005
26A
1002
}
  0
DIMENSION
  5
513
330
47
100
AcDbEntity
  8
0
 62
     0
100
AcDbDimension
  2
*D55
 10
193.7560119628906
 20
-65.31191198730468
 30
0.0
 11
156.157005859375
 21
-65.31191198730468
 31
0.0
 70
   160
 71
     5
 42
75.20000457763672
  3
ISO-25
100
AcDbAlignedDimension
 13
118.5559997558594
 23
1.5
 33
0.0
 14
193.7560119628906
 24
1.5
 34
0.0
 50
180.0
100
AcDbRotatedDimension
1001
ACAD
1000
DSTYLE
1002
{
1070
   178
1070
     1
1070
   147
1040
0.800000011920929
1070
    77
1070
     1
1070
    74
1070
     0
1070
    73
1070
     0
1070
    42
1040
2.54
1070
    44
1040
1.5
1070
    76
1070
     1
1070
    75
1070
     1
1070
   279
1070
     0
1070
   271
1070
     1
1070
   144
1040
0.999999898545302
1070
   278
1070
    46
1070
   173
1070
     1
1070
    41
1040
3.0
1070
   140
1040
3.200000047683716
1070
   344
1005
26A
1070
   343
1005
26A
1002
}
  0
DIMENSION
  5
51F
330
47
100
AcDbEntity
  8
0
 62
     0
100
AcDbDimension
  2
*D56
 10
160.5559997558594
 20
-45.3619150390625
 30
0.0
 11
134.0569997558594
 21
-45.3619150390625
 31
0.0
 70
   160
 71
     5
 42
53.0
  3
ISO-25
100
AcDbAlignedDimension
 13
107.5559997558594
 23
1.5
 33
0.0
 14
160.5559997558594
 24
-30.5
 34
0.0
 50
180.0
100
AcDbRotatedDimension
1001
ACAD
1000
DSTYLE
1002
{
1070
   178
1070
     1
1070
   147
1040
0.800000011920929
1070
    77
1070
     1
1070
    74
1070
     0
1070
    73
1070
     0
1070
    42
1040
2.54
1070
    44
1040
1.5
1070
    76
1070
     0
1070
    75
1070
     1
1070
   279
1070
     0
1070
   271
1070
     0
1070
   144
1040
1.0
1070
   278
1070
    46
1070
   173
1070
     1
1070
    41
1040
3.0
1070
   140
1040
3.200000047683716
1070
   344
1005
26A
1070
   343
1005
26A
1002
}
  0
DIMENSION
  5
52C
330
47
100
AcDbEntity
  8
0
 62
     0
100
AcDbDimension
  2
*D57
 10
193.7560119628906
 20
-75.1119150390625
 30
0.0
 11
150.657005859375
 21
-75.1119150390625
 31
0.0
 70
   160
 71
     5
 42
86.20000457763672
  3
ISO-25
100
AcDbAlignedDimension
 13
107.5559997558594
 23
1.5
 33
0.0
 14
193.7560119628906
 24
1.5
 34
0.0
 50
180.0
100
AcDbRotatedDimension
1001
ACAD
1000
DSTYLE
1002
{
1070
   178
1070
     1
1070
   147
1040
0.800000011920929
1070
    77
1070
     1
1070
    74
1070
     0
1070
    73
1070
     0
1070
    42
1040
2.54
1070
    44
1040
1.5
1070
    76
1070
     0
1070
    75
1070
     0
1070
   279
1070
     0
1070
   271
1070
     1
1070
   144
1040
0.999999911491955
1070
   278
1070
    46
1070
   173
1070
     1
1070
    41
1040
3.0
1070
   140
1040
3.200000047683716
1070
   344
1005
26A
1070
   343
1005
26A
1002
}
  0
DIMENSION
  5
53A
330
47
100
AcDbEntity
  8
0
 62
     0
100
AcDbDimension
  2
*D59
 10
198.5559692382812
 20
-54.4619135131836
 30
0.0
 11
160.5569692382813
 21
-54.4619135131836
 31
0.0
 70
   160
  1
\U+2205<>
 71
     5
 42
75.99999237060548
  3
ISO-25
100
AcDbAlignedDimension
 13
122.5559997558594
 23
-14.5
 33
0.0
 14
198.5559692382812
 24
-14.5
 34
0.0
 50
180.0
100
AcDbRotatedDimension
1001
ACAD
1000
DSTYLE
1002
{
1070
   178
1070
     1
1070
   147
1040
0.800000011920929
1070
    77
1070
     1
1070
    74
1070
     0
1070
    73
1070
     0
1070
    42
1040
2.54
1070
    44
1040
1.5
1070
    76
1070
     0
1070
    75
1070
     0
1070
   279
1070
     0
1070
   271
1070
     0
1070
   144
1040
1.000000301160431
1070
   278
1070
    46
1070
   173
1070
     1
1070
    41
1040
3.114
1070
   140
1040
3.200000047683716
1070
   344
1005
26A
1070
   343
1005
53B
1002
}
  0
INSERT
  5
554
330
47
100
AcDbEntity
  8
0
 62
     0
100
AcDbBlockReference
  2
SYM0011
 10
201.0895947174339
 20
12.79164475311241
 30
0.0
  0
INSERT
  5
55D
330
47
100
AcDbEntity
  8
0
 62
     0
100
AcDbBlockReference
  2
SYM0012
 10
107.5561150920735
 20
1.500042913619367
 30
0.0
  0
INSERT
  5
566
330
47
100
AcDbEntity
  8
0
 62
     0
100
AcDbBlockReference
  2
SYM0013
 10
141.8246788821488
 20
-13.37304257598023
 30
0.0
  0
DIMENSION
  5
569
330
47
100
AcDbEntity
  8
0
 62
     0
100
AcDbDimension
  2
*D63
 10
103.3635233338353
 20
49.42184941421946
 30
0.0
 11
119.2113881835938
 21
50.80852563476562
 31
0.0
 70
   161
 71
     5
 42
7.899999618982708
  3
ISO-25
100
AcDbAlignedDimension
 13
95.27820722524376
 23
51.19715766255357
 33
0.0
 14
103.1479336470759
 24
51.88575278844681
 34
0.0
1001
ACAD
1000
DSTYLE
1002
{
1070
   178
1070
     1
1070
   147
1040
0.800000011920929
1070
    77
1070
     1
1070
    74
1070
     0
1070
    73
1070
     0
1070
    42
1040
2.54
1070
    44
1040
1.499931371689525
1070
    76
1070
     1
1070
    75
1070
     1
1070
   279
1070
     0
1070
   271
1070
     1
1070
   144
1040
1.000025932576993
1070
   278
1070
    46
1070
   173
1070
     1
1070
    41
1040
3.0
1070
   140
1040
3.200000047683716
1070
   344
1005
26A
1070
   343
1005
26A
1002
}
  0
INSERT
  5
581
330
47
100
AcDbEntity
  8
0
 62
     0
100
AcDbBlockReference
  2
SYM0014
 10
207.4830479540768
 20
46.25008927719848
 30
0.0
  0
DIMENSION
  5
584
330
47
100
AcDbEntity
  8
0
 62
     0
100
AcDbDimension
  2
*D65
 10
70.47526660156251
 20
-14.00000000000002
 30
0.0
 11
70.47526660156251
 21
-5.7983999820948
 31
0.0
 70
   160
 71
     5
 42
0.999999999999986
  3
ISO-25
100
AcDbAlignedDimension
 13
160.5559997558594
 23
-13.0
 33
0.0
 14
122.5560607910156
 24
-14.0
 34
0.0
 50
90.00000000000001
100
AcDbRotatedDimension
1001
ACAD
1000
DSTYLE
1002
{
1070
   178
1070
     1
1070
   147
1040
0.800000011920929
1070
    77
1070
     1
1070
    74
1070
     0
1070
    73
1070
     0
1070
    42
1040
2.54
1070
    44
1040
1.5
1070
    76
1070
     1
1070
    75
1070
     1
1070
   279
1070
     0
1070
   271
1070
     0
1070
   144
1040
1.0
1070
   278
1070
    46
1070
   173
1070
     1
1070
    41
1040
3.0
1070
   140
1040
3.200000047683716
1070
   344
1005
30D
1070
   343
1005
26A
1002
}
  0
DIMENSION
  5
595
330
47
100
AcDbEntity
  8
0
 62
     0
100
AcDbDimension
  2
*D66
 10
70.47526660156251
 20
-25.69999694824221
 30
0.0
 11
70.47526660156251
 21
-20.19900076293945
 31
0.0
 70
   160
 71
     5
 42
11.0
  3
ISO-25
100
AcDbAlignedDimension
 13
122.5560607910156
 23
-14.70000076293945
 33
0.0
 14
131.2961730957031
 24
-25.69999694824219
 34
0.0
 50
90.00000000000001
100
AcDbRotatedDimension
1001
ACAD
1000
DSTYLE
1002
{
1070
   178
1070
     1
1070
   147
1040
0.800000011920929
1070
    77
1070
     1
1070
    74
1070
     0
1070
    73
1070
     0
1070
    42
1040
2.54
1070
    44
1040
1.5
1070
    76
1070
     1
1070
    75
1070
     0
1070
   279
1070
     0
1070
   271
1070
     0
1070
   144
1040
1.000000346790781
1070
   278
1070
    46
1070
   173
1070
     1
1070
    41
1040
3.0
1070
   140
1040
3.200000047683716
1070
   344
1005
26A
1070
   343
1005
26A
1002
}
  0
DIMENSION
  5
5A1
330
47
100
AcDbEntity
  8
0
 62
     0
100
AcDbDimension
  2
*D67
 10
154.0852214355469
 20
3.235892358084726
 30
0.0
 11
154.0852214355469
 21
12.89347181609421
 31
0.0
 70
   160
 71
     5
 42
2.000066345347859
 52
-120.0
  3
ISO-25
100
AcDbAlignedDimension
 13
160.5558734752262
 23
1.500039147381713
 33
0.0
 14
160.5559871446573
 24
-0.50000596593317
 34
0.0
 50
90.00000000000001
100
AcDbRotatedDimension
1001
ACAD
1000
DSTYLE
1002
{
1070
   178
1070
     1
1070
   147
1040
0.699999988079071
1070
    77
1070
     1
1070
    74
1070
     0
1070
    73
1070
     0
1070
    42
1040
2.54
1070
    44
1040
1.73206802743785
1070
    76
1070
     0
1070
    75
1070
     0
1070
   279
1070
     0
1070
   271
1070
     0
1070
   144
1040
1.000010615777031
1070
   278
1070
    46
1070
   173
1070
     1
1070
    41
1040
3.0
1070
   140
1040
2.799999952316284
1070
   344
1005
53B
1070
   343
1005
26A
1002
}
  0
DIMENSION
  5
5B9
330
47
100
AcDbEntity
  8
0
 62
     0
100
AcDbDimension
  2
*D68
 10
198.6223621118014
 20
-10.78028914269038
 30
0.0
 11
188.9383309221286
 21
-5.563054250772579
 31
0.0
 70
   164
  1
<>
 71
     5
 42
0.5
  3
ISO-25
100
AcDbRadialDimension
 15
198.1821788759071
 25
-10.54314210214866
 35
0.0
 40
0.0
1001
ACAD
1000
DSTYLE
1002
{
1070
   178
1070
     1
1070
   147
1040
0.625
1070
    77
1070
     1
1070
    74
1070
     0
1070
    73
1070
     0
1070
   279
1070
     0
1070
   271
1070
     1
1070
   144
1040
1.000000000000018
1070
   278
1070
    46
1070
   173
1070
     1
1070
    41
1040
3.0
1070
   140
1040
2.5
1070
   344
1005
26A
1070
   343
1005
30D
1002
}
  0
DIMENSION
  5
5C8
330
47
100
AcDbEntity
  8
0
 62
     0
100
AcDbDimension
  2
*D69
 10
59.68467712402344
 20
-3.700000762939492
 30
0.0
 11
69.61216845703126
 21
17.79759216308594
 31
0.0
 70
   160
 71
     5
 42
5.200000762939474
  3
ISO-25
100
AcDbAlignedDimension
 13
107.5560607910156
 23
1.5
 33
0.0
 14
160.5560607910156
 24
-3.700000762939453
 34
0.0
 50
90.00000000000001
100
AcDbRotatedDimension
1001
ACAD
1000
DSTYLE
1002
{
1070
   178
1070
     1
1070
   147
1040
0.800000011920929
1070
    77
1070
     1
1070
    74
1070
     0
1070
    73
1070
     0
1070
    42
1040
2.54
1070
    44
1040
1.5
1070
    76
1070
     0
1070
    75
1070
     1
1070
   279
1070
     1
1070
   271
1070
     1
1070
   144
1040
1.0
1070
   278
1070
    46
1070
   173
1070
     1
1070
    41
1040
1.0
1070
   140
1040
3.200000047683716
1070
   344
1005
30D
1070
   343
1005
321
1002
}
  0
DIMENSION
  5
5D8
330
47
100
AcDbEntity
  8
0
 62
     0
100
AcDbDimension
  2
*D70
 10
59.68667712402344
 20
-13.70000076293949
 30
0.0
 11
59.68667712402343
 21
-8.699000762939454
 31
0.0
 70
   160
 71
     5
 42
10.0
  3
ISO-25
100
AcDbAlignedDimension
 13
160.5560607910156
 23
-3.700000762939453
 33
0.0
 14
160.5559997558594
 24
-13.70000076293945
 34
0.0
 50
90.00000000000001
100
AcDbRotatedDimension
1001
ACAD
1000
DSTYLE
1002
{
1070
   178
1070
     1
1070
   147
1040
0.800000011920929
1070
    77
1070
     1
1070
    74
1070
     0
1070
    73
1070
     0
1070
    42
1040
2.54
1070
    44
1040
1.5
1070
    76
1070
     0
1070
    75
1070
     1
1070
   279
1070
     0
1070
   271
1070
     0
1070
   144
1040
1.0
1070
   278
1070
    46
1070
   173
1070
     1
1070
    41
1040
3.0
1070
   140
1040
3.200000047683716
1070
   344
1005
26A
1070
   343
1005
26A
1002
}
  0
DIMENSION
  5
5E4
330
47
100
AcDbEntity
  8
0
 62
     0
100
AcDbDimension
  2
*D71
 10
59.68667712402344
 20
-25.69999694824222
 30
0.0
 11
59.68667712402343
 21
-19.69899694824219
 31
0.0
 70
   160
 71
     5
 42
11.99999618530272
  3
ISO-25
100
AcDbAlignedDimension
 13
160.5559997558594
 23
-13.70000076293945
 33
0.0
 14
131.2961730957031
 24
-25.69999694824219
 34
0.0
 50
90.00000000000001
100
AcDbRotatedDimension
1001
ACAD
1000
DSTYLE
1002
{
1070
   178
1070
     1
1070
   147
1040
0.800000011920929
1070
    77
1070
     1
1070
    74
1070
     0
1070
    73
1070
     0
1070
    42
1040
2.54
1070
    44
1040
1.5
1070
    76
1070
     1
1070
    75
1070
     1
1070
   279
1070
     0
1070
   271
1070
     0
1070
   144
1040
1.0
1070
   278
1070
    46
1070
   173
1070
     1
1070
    41
1040
3.0
1070
   140
1040
3.200000047683716
1070
   344
1005
26A
1070
   343
1005
26A
1002
}
  0
DIMENSION
  5
5EF
330
47
100
AcDbEntity
  8
0
 62
     0
100
AcDbDimension
  2
*D72
 10
48.89759936523438
 20
-25.69999694824222
 30
0.0
 11
48.89759936523437
 21
-12.09899847412109
 31
0.0
 70
   160
 71
     5
 42
27.1999969482422
  3
ISO-25
100
AcDbAlignedDimension
 13
107.5560607910156
 23
1.5
 33
0.0
 14
131.2961730957031
 24
-25.69999694824219
 34
0.0
 50
90.00000000000001
100
AcDbRotatedDimension
1001
ACAD
1000
DSTYLE
1002
{
1070
   178
1070
     1
1070
   147
1040
0.800000011920929
1070
    77
1070
     1
1070
    74
1070
     0
1070
    73
1070
     0
1070
    42
1040
2.54
1070
    44
1040
1.5
1070
    76
1070
     1
1070
    75
1070
     1
1070
   279
1070
     0
1070
   271
1070
     1
1070
   144
1040
1.0
1070
   278
1070
    46
1070
   173
1070
     1
1070
    41
1040
3.0
1070
   140
1040
3.200000047683716
1070
   344
1005
26A
1070
   343
1005
26A
1002
}
  0
DIMENSION
  5
5FA
330
47
100
AcDbEntity
  8
0
 62
     0
100
AcDbDimension
  2
*D73
 10
37.6772166748047
 20
-25.69999694824219
 30
0.0
 11
37.67721667480468
 21
25.99810655212402
 31
0.0
 70
   160
 71
     5
 42
102.300048828125
  3
ISO-25
100
AcDbAlignedDimension
 13
83.84158325195312
 23
76.60005187988281
 33
0.0
 14
131.2961730957031
 24
-25.69999694824219
 34
0.0
 50
90.00000000000001
100
AcDbRotatedDimension
1001
ACAD
1000
DSTYLE
1002
{
1070
   178
1070
     1
1070
   147
1040
0.800000011920929
1070
    77
1070
     1
1070
    74
1070
     0
1070
    73
1070
     0
1070
    42
1040
2.54
1070
    44
1040
1.5
1070
    76
1070
     0
1070
    75
1070
     0
1070
   279
1070
     0
1070
   271
1070
     1
1070
   144
1040
1.0
1070
   278
1070
    46
1070
   173
1070
     1
1070
    41
1040
3.0
1070
   140
1040
3.200000047683716
1070
   344
1005
26A
1070
   343
1005
26A
1002
}
  0
INSERT
  5
60D
330
47
100
AcDbEntity
  8
0
 62
     0
100
AcDbBlockReference
  2
SYM0015
 10
174.6683379269928
 20
-0.999998510985478
 30
0.0
  0
INSERT
  5
614
330
47
100
AcDbEntity
  8
0
 62
     0
100
AcDbBlockReference
  2
SYM0016
 10
140.438280727122
 20
-0.999990285424495
 30
0.0
  0
INSERT
  5
61B
330
47
100
AcDbEntity
  8
0
 62
     0
100
AcDbBlockReference
  2
SYM0017
 10
178.5424460364829
 20
-13.38603530896276
 30
0.0
  0
INSERT
  5
622
330
47
100
AcDbEntity
  8
0
 62
     0
100
AcDbBlockReference
  2
SYM0018
 10
171.9505500396612
 20
-0.301114459468046
 30
0.0
  0
INSERT
  5
629
330
47
100
AcDbEntity
  8
0
 62
     0
100
AcDbBlockReference
  2
SYM0019
 10
185.6006272956385
 20
-3.262862101938929
 30
0.0
  0
INSERT
  5
630
330
47
100
AcDbEntity
  8
0
 62
     0
100
AcDbBlockReference
  2
SYM0020
 10
129.8455069853875
 20
0.036043737313847
 30
0.0
  0
INSERT
  5
637
330
47
100
AcDbEntity
  8
0
 62
     0
100
AcDbBlockReference
  2
SYM0021
 10
148.2205453192057
 20
-3.484681715246352
 30
0.0
  0
INSERT
  5
640
330
47
100
AcDbEntity
  8
0
 62
     0
100
AcDbBlockReference
  2
SYM0022
 10
203.4190142278753
 20
38.84649831624041
 30
0.0
  0
DIMENSION
  5
643
330
47
100
AcDbEntity
  8
0
 62
     0
100
AcDbDimension
  2
*D82
 10
198.5559692382812
 20
-45.3629150390625
 30
0.0
 11
179.5569997558594
 21
-45.3629150390625
 31
0.0
 70
   160
 71
     5
 42
37.99996948242188
  3
ISO-25
100
AcDbAlignedDimension
 13
160.5559997558594
 23
-46.8629150390625
 33
0.0
 14
198.5559692382812
 24
-55.96291351318359
 34
0.0
 50
180.0
100
AcDbRotatedDimension
1001
ACAD
1000
DSTYLE
1002
{
1070
   178
1070
     1
1070
   147
1040
0.800000011920929
1070
    77
1070
     1
1070
    74
1070
     0
1070
    73
1070
     0
1070
    42
1040
2.54
1070
    44
1040
1.5
1070
    76
1070
     1
1070
    75
1070
     1
1070
   279
1070
     0
1070
   271
1070
     0
1070
   144
1040
1.0
1070
   278
1070
    46
1070
   173
1070
     1
1070
    41
1040
3.0
1070
   140
1040
3.200000047683716
1070
   344
1005
26A
1070
   343
1005
26A
1002
}
  0
DIMENSION
  5
64E
330
47
100
AcDbEntity
  8
0
 62
     0
100
AcDbDimension
  2
*D83
 10
119.094205332298
 20
-12.26664833156549
 30
0.0
 11
128.0643369988705
 21
-9.714065924109686
 31
0.0
 70
   164
  1
<>
 71
     5
 42
1.0
  3
ISO-25
100
AcDbRadialDimension
 15
120.0560208172542
 25
-11.99294964158229
 35
0.0
 40
0.0
1001
ACAD
1000
DSTYLE
1002
{
1070
   178
1070
     1
1070
   147
1040
0.625
1070
    77
1070
     1
1070
    74
1070
     0
1070
    73
1070
     0
1070
   279
1070
     0
1070
   271
1070
     0
1070
   144
1040
0.999999999999998
1070
   278
1070
    46
1070
   173
1070
     1
1070
    41
1040
3.0
1070
   140
1040
2.5
1070
   344
1005
26A
1070
   343
1005
30D
1002
}
  0
INSERT
  5
663
330
47
100
AcDbEntity
  8
0
 62
     0
100
AcDbBlockReference
  2
SYM0023
 10
87.39703856319383
 20
59.79431234784281
 30
0.0
  0
INSERT
  5
66A
330
47
100
AcDbEntity
  8
0
 62
     0
100
AcDbBlockReference
  2
SYM0024
 10
100.8367130917483
 20
-3.997001804642736
 30
0.0
  0
DIMENSION
  5
66D
330
47
100
AcDbEntity
  8
0
 62
     0
100
AcDbDimension
  2
*D86
 10
180.8622716793
 20
9.453111396686609
 30
0.0
 11
184.3630534667969
 21
13.3858876953125
 31
0.0
 70
   165
 71
     5
 42
1.658061871012095
  3
ISO-25
100
AcDb3PointAngularDimension
 13
197.1233437839483
 23
39.9871983736233
 33
0.0
 14
134.6117858886719
 24
1.500030517578125
 34
0.0
 15
193.7561885218115
 25
1.500030517578125
 35
0.0
1001
ACAD
1000
DSTYLE
1002
{
1070
   178
1070
     1
1070
   275
1070
     1
1070
   147
1040
0.800000011920929
1070
    77
1070
     1
1070
    74
1070
     0
1070
    73
1070
     0
1070
    42
1040
2.54
1070
    44
1040
1.499984741180214
1070
    76
1070
     1
1070
    75
1070
     1
1070
   279
1070
     0
1070
   179
1070
     0
1070
   144
1040
0.0
1070
   278
1070
    46
1070
   173
1070
     1
1070
    41
1040
3.0
1070
   140
1040
3.200000047683716
1070
   344
1005
26A
1070
   343
1005
26A
1002
}
  0
DIMENSION
  5
680
330
47
100
AcDbEntity
  8
0
 62
     0
100
AcDbDimension
  2
*D87
 10
119.1076133882379
 20
24.50136261699523
 30
0.0
 11
125.7689748535156
 21
19.68758447265625
 31
0.0
 70
   165
 71
     5
 42
1.658061685456355
  3
ISO-25
100
AcDb3PointAngularDimension
 13
165.8779602050781
 23
1.500030517578125
 33
0.0
 14
104.3204627965754
 24
38.48159186991091
 34
0.0
 15
107.5558890365483
 25
1.500030517578125
 35
0.0
1001
ACAD
1000
DSTYLE
1002
{
1070
   178
1070
     1
1070
   275
1070
     1
1070
   147
1040
0.800000011920929
1070
    77
1070
     1
1070
    74
1070
     0
1070
    73
1070
     0
1070
    42
1040
2.54
1070
    44
1040
1.499998982255704
1070
    76
1070
     1
1070
    75
1070
     1
1070
   279
1070
     0
1070
   179
1070
     0
1070
   144
1040
0.0
1070
   278
1070
    46
1070
   173
1070
     1
1070
    41
1040
3.0
1070
   140
1040
3.200000047683716
1070
   344
1005
26A
1070
   343
1005
26A
1002
}
  0
ENDBLK
  5
49
330
47
100
AcDbEntity
  8
0
100
AcDbBlockEnd
  0
BLOCK
  5
26B
330
26A
100
AcDbEntity
  8
0
100
AcDbBlockBegin
  2
_OPEN30
 70
     0
 10
0.0
 20
0.0
 30
0.0
  3
_OPEN30
  1

  0
LINE
  5
26D
330
26A
100
AcDbEntity
  8
0
  6
ByBlock
 62
     0
370
    -2
100
AcDbLine
 10
-1.0
 20
0.267949
 30
0.0
 11
0.0
 21
0.0
 31
0.0
  0
LINE
  5
26E
330
26A
100
AcDbEntity
  8
0
  6
ByBlock
 62
     0
370
    -2
100
AcDbLine
 10
0.0
 20
0.0
 30
0.0
 11
-1.0
 21
-0.267949
 31
0.0
  0
LINE
  5
26F
330
26A
100
AcDbEntity
  8
0
  6
ByBlock
 62
     0
370
    -2
100
AcDbLine
 10
0.0
 20
0.0
 30
0.0
 11
-1.0
 21
0.0
 31
0.0
  0
ENDBLK
  5
26C
330
26A
100
AcDbEntity
  8
0
100
AcDbBlockEnd
  0
BLOCK
  5
272
330
271
100
AcDbEntity
  8
0
100
AcDbBlockBegin
  2
*D4
 70
     1
 10
0.0
 20
0.0
 30
0.0
  3
*D4
  1

  0
MTEXT
  5
279
330
271
100
AcDbEntity
  8
0
 62
     1
 60
     1
100
AcDbMText
 10
-84.49539892578125
 20
-36.47093067681789
 30
0.0
 40
3.200000047683716
 41
0.0
 71
     5
 72
     1
  1
\U+220559.7±0.1
 73
     1
 44
1.0
  0
POINT
  5
27A
330
271
100
AcDbEntity
  8
Defpoints
 62
     0
100
AcDbPoint
 10
-124.8499546664437
 20
-20.69999126527119
 30
0.0
  0
POINT
  5
27B
330
271
100
AcDbEntity
  8
Defpoints
 62
     0
100
AcDbPoint
 10
-65.15000213551436
 20
-20.69997756784123
 30
0.0
  0
POINT
  5
27C
330
271
100
AcDbEntity
  8
Defpoints
 62
     0
100
AcDbPoint
 10
-54.64641120991971
 20
-38.89273071289062
 30
0.0
  0
MTEXT
  5
27D
330
271
100
AcDbEntity
  8
0
 62
     1
100
AcDbMText
 10
-98.43798162407998
 20
-38.06839680568882
 30
0.0
 40
3.200000047683716
 41
0.0
 71
     7
 72
     1
  1
\W1;\U+220559.7±0.1
 11
0.9999984769132877
 21
-0.001745328365898445
 31
0.0
 73
     1
 44
1.0
  0
LINE
  5
27E
330
271
100
AcDbEntity
  8
0
  6
Continuous
 62
     0
100
AcDbLine
 10
-123.5799550643278
 20
-22.89969602060207
 30
0.0
 11
-113.4803445810205
 21
-40.39274182164506
 31
0.0
  0
LINE
  5
27F
330
271
100
AcDbEntity
  8
0
  6
Continuous
 62
     0
100
AcDbLine
 10
-63.88000094781886
 20
-22.89968140773697
 30
0.0
 11
-53.78036259646364
 21
-40.39274635781582
 31
0.0
  0
LINE
  5
280
330
271
100
AcDbEntity
  8
0
  6
Continuous
 62
     0
100
AcDbLine
 10
-114.3463745117188
 20
-38.89273071289062
 30
0.0
 11
-54.64640808105469
 21
-38.89273071289062
 31
0.0
  0
LINE
  5
281
330
271
100
AcDbEntity
  8
0
  6
Continuous
 62
     0
100
AcDbLine
 10
-114.3463745117188
 20
-38.89273071289062
 30
0.0
 11
-111.2918488497131
 21
-38.07427302859062
 31
0.0
  0
LINE
  5
282
330
271
100
AcDbEntity
  8
0
  6
Continuous
 62
     0
100
AcDbLine
 10
-114.3463745117188
 20
-38.89273071289062
 30
0.0
 11
-111.2918488497131
 21
-39.71118839719063
 31
0.0
  0
LINE
  5
283
330
271
100
AcDbEntity
  8
0
  6
Continuous
 62
     0
100
AcDbLine
 10
-54.64640808105469
 20
-38.89273071289062
 30
0.0
 11
-57.70093374306031
 21
-39.71118839719063
 31
0.0
  0
LINE
  5
284
330
271
100
AcDbEntity
  8
0
  6
Continuous
 62
     0
100
AcDbLine
 10
-54.64640808105469
 20
-38.89273071289062
 30
0.0
 11
-57.70093374306031
 21
-38.07427302859062
 31
0.0
  0
ENDBLK
  5
273
330
271
100
AcDbEntity
  8
0
100
AcDbBlockEnd
  0
BLOCK
  5
287
330
286
100
AcDbEntity
  8
0
100
AcDbBlockBegin
  2
*D5
 70
     1
 10
0.0
 20
0.0
 30
0.0
  3
*D5
  1

  0
LINE
  5
289
330
286
100
AcDbEntity
  8
0
 62
     0
370
    -2
100
AcDbLine
 10
-124.75
 20
-28.23998168945312
 30
0.0
 11
-124.75
 21
-48.97647802734375
 31
0.0
  0
LINE
  5
28A
330
286
100
AcDbEntity
  8
0
 62
     0
370
    -2
100
AcDbLine
 10
-65.25
 20
-28.23998168945312
 30
0.0
 11
-65.25
 21
-48.97647802734375
 31
0.0
  0
LINE
  5
28B
330
286
100
AcDbEntity
  8
0
 62
     0
370
    -2
100
AcDbLine
 10
-121.75
 20
-47.47647802734375
 30
0.0
 11
-68.25
 21
-47.47647802734375
 31
0.0
  0
INSERT
  5
28C
330
286
100
AcDbEntity
  8
0
 62
     0
370
    -2
100
AcDbBlockReference
  2
_OPEN30
 10
-124.75
 20
-47.47647802734375
 30
0.0
 41
3.0
 42
3.0
 43
3.0
 50
180.0
  0
INSERT
  5
28D
330
286
100
AcDbEntity
  8
0
 62
     0
370
    -2
100
AcDbBlockReference
  2
_OPEN30
 10
-65.25
 20
-47.47647802734375
 30
0.0
 41
3.0
 42
3.0
 43
3.0
 50
360.0
  0
MTEXT
  5
28E
330
286
100
AcDbEntity
  8
0
 62
     1
 60
     1
100
AcDbMText
 10
-94.999
 20
-45.05567799127102
 30
0.0
 40
3.200000047683716
 41
0.0
 71
     5
 72
     1
  1
\U+220559.5±0.1
 73
     1
 44
1.0
  0
POINT
  5
28F
330
286
100
AcDbEntity
  8
Defpoints
 62
     0
100
AcDbPoint
 10
-124.75
 20
-25.69998168945312
 30
0.0
  0
POINT
  5
290
330
286
100
AcDbEntity
  8
Defpoints
 62
     0
100
AcDbPoint
 10
-65.25
 20
-25.69998168945312
 30
0.0
  0
POINT
  5
291
330
286
100
AcDbEntity
  8
Defpoints
 62
     0
100
AcDbPoint
 10
-65.25
 20
-47.47747802734375
 30
0.0
  0
MTEXT
  5
292
330
286
100
AcDbEntity
  8
0
 62
     1
100
AcDbMText
 10
-108.9415826982987
 20
-46.65314412014195
 30
0.0
 40
3.200000047683716
 41
0.0
 71
     7
 72
     1
  1
\W1;\U+220559.5±0.1
 11
0.9999984769132877
 21
-0.001745328365898445
 31
0.0
 73
     1
 44
1.0
  0
ENDBLK
  5
288
330
286
100
AcDbEntity
  8
0
100
AcDbBlockEnd
  0
BLOCK
  5
295
330
294
100
AcDbEntity
  8
0
100
AcDbBlockBegin
  2
*D6
 70
     1
 10
0.0
 20
0.0
 30
0.0
  3
*D6
  1

  0
LINE
  5
297
330
294
100
AcDbEntity
  8
0
 62
     0
370
    -2
100
AcDbLine
 10
-127.9499969482422
 20
-20.23998550415039
 30
0.0
 11
-127.9499969482422
 21
-57.56124060058593
 31
0.0
  0
LINE
  5
298
330
294
100
AcDbEntity
  8
0
 62
     0
370
    -2
100
AcDbLine
 10
-62.05000305175781
 20
-20.23998550415039
 30
0.0
 11
-62.05000305175781
 21
-57.56124060058594
 31
0.0
  0
LINE
  5
299
330
294
100
AcDbEntity
  8
0
 62
     0
370
    -2
100
AcDbLine
 10
-124.9499969482422
 20
-56.06124060058593
 30
0.0
 11
-65.05000305175781
 21
-56.06124060058594
 31
0.0
  0
INSERT
  5
29A
330
294
100
AcDbEntity
  8
0
 62
     0
370
    -2
100
AcDbBlockReference
  2
_OPEN30
 10
-127.9499969482422
 20
-56.06124060058593
 30
0.0
 41
3.0
 42
3.0
 43
3.0
 50
180.0
  0
INSERT
  5
29B
330
294
100
AcDbEntity
  8
0
 62
     0
370
    -2
100
AcDbBlockReference
  2
_OPEN30
 10
-62.05000305175781
 20
-56.06124060058594
 30
0.0
 41
3.0
 42
3.0
 43
3.0
 50
360.0
  0
MTEXT
  5
29C
330
294
100
AcDbEntity
  8
0
 62
     1
 60
     1
100
AcDbMText
 10
-94.999
 20
-53.64044056451321
 30
0.0
 40
3.200000047683716
 41
0.0
 71
     5
 72
     1
  1
\A1;\U+220565.9%%p0.2
 73
     1
 44
1.0
  0
POINT
  5
29D
330
294
100
AcDbEntity
  8
Defpoints
 62
     0
100
AcDbPoint
 10
-127.9499969482422
 20
-17.69998550415039
 30
0.0
  0
POINT
  5
29E
330
294
100
AcDbEntity
  8
Defpoints
 62
     0
100
AcDbPoint
 10
-62.05000305175781
 20
-17.69998550415039
 30
0.0
  0
POINT
  5
29F
330
294
100
AcDbEntity
  8
Defpoints
 62
     0
100
AcDbPoint
 10
-62.05000305175782
 20
-56.06224060058594
 30
0.0
  0
MTEXT
  5
2A0
330
294
100
AcDbEntity
  8
0
 62
     1
100
AcDbMText
 10
-105.8558373547714
 20
-55.24329234046494
 30
0.0
 40
3.200000047683716
 41
0.0
 71
     7
 72
     1
  1
\W1;\U+220565.9
 11
0.9999984769132877
 21
-0.001745328365898445
 31
0.0
 73
     1
 44
1.0
  0
MTEXT
  5
2A1
330
294
100
AcDbEntity
  8
0
 62
     1
100
AcDbMText
 10
-90.08296488358484
 20
-54.4708199937373
 30
0.0
 40
1.600000023841858
 41
0.0
 71
     7
 72
     1
  1
\W1;±0.2
 11
0.9999984769132877
 21
-0.001745328365898445
 31
0.0
 73
     1
 44
1.0
  0
ENDBLK
  5
296
330
294
100
AcDbEntity
  8
0
100
AcDbBlockEnd
  0
BLOCK
  5
2A4
330
2A3
100
AcDbEntity
  8
0
100
AcDbBlockBegin
  2
*D7
 70
     1
 10
0.0
 20
0.0
 30
0.0
  3
*D7
  1

  0
LINE
  5
2A6
330
2A3
100
AcDbEntity
  8
0
 62
     0
370
    -2
100
AcDbLine
 10
-130.0
 20
-20.23998550415039
 30
0.0
 11
-130.0
 21
-65.80931799316404
 31
0.0
  0
LINE
  5
2A7
330
2A3
100
AcDbEntity
  8
0
 62
     0
370
    -2
100
AcDbLine
 10
-60.0
 20
-21.23998550415039
 30
0.0
 11
-60.0
 21
-65.80931799316406
 31
0.0
  0
LINE
  5
2A8
330
2A3
100
AcDbEntity
  8
0
 62
     0
370
    -2
100
AcDbLine
 10
-127.0
 20
-64.30931799316404
 30
0.0
 11
-63.0
 21
-64.30931799316406
 31
0.0
  0
INSERT
  5
2A9
330
2A3
100
AcDbEntity
  8
0
 62
     0
370
    -2
100
AcDbBlockReference
  2
_OPEN30
 10
-130.0
 20
-64.30931799316404
 30
0.0
 41
3.0
 42
3.0
 43
3.0
 50
180.0
  0
INSERT
  5
2AA
330
2A3
100
AcDbEntity
  8
0
 62
     0
370
    -2
100
AcDbBlockReference
  2
_OPEN30
 10
-60.0
 20
-64.30931799316406
 30
0.0
 41
3.0
 42
3.0
 43
3.0
 50
360.0
  0
MTEXT
  5
2AB
330
2A3
100
AcDbEntity
  8
0
 62
     1
 60
     1
100
AcDbMText
 10
-94.999
 20
-59.7263845915397
 30
0.0
 40
3.200000047683716
 41
0.0
 71
     5
 72
     1
  1
\A1;\U+220570\S+0.1^  0;
 73
     1
 44
1.0
  0
POINT
  5
2AC
330
2A3
100
AcDbEntity
  8
Defpoints
 62
     0
100
AcDbPoint
 10
-130.0
 20
-17.69998550415039
 30
0.0
  0
POINT
  5
2AD
330
2A3
100
AcDbEntity
  8
Defpoints
 62
     0
100
AcDbPoint
 10
-60.0
 20
-18.69998550415039
 30
0.0
  0
POINT
  5
2AE
330
2A3
100
AcDbEntity
  8
Defpoints
 62
     0
100
AcDbPoint
 10
-60.00000000000001
 20
-64.31031799316406
 30
0.0
  0
MTEXT
  5
2AF
330
2A3
100
AcDbEntity
  8
0
 62
     1
100
AcDbMText
 10
-102.6558421809133
 20
-63.49695475409487
 30
0.0
 40
3.200000047683716
 41
0.0
 71
     7
 72
     1
  1
\W1;\U+220570
 11
0.9999984769132877
 21
-0.001745328365898445
 31
0.0
 73
     1
 44
1.0
  0
MTEXT
  5
2B0
330
2A3
100
AcDbEntity
  8
0
 62
     1
100
AcDbMText
 10
-93.28086566321667
 20
-61.51331408567945
 30
0.0
 40
1.600000023841858
 41
0.0
 71
     7
 72
     1
  1
\W1;+0.1
 11
0.9999984769132877
 21
-0.001745328365898445
 31
0.0
 73
     1
 44
1.0
  0
MTEXT
  5
2B1
330
2A3
100
AcDbEntity
  8
0
 62
     1
100
AcDbMText
 10
-93.28505445146128
 20
-63.91331052563864
 30
0.0
 40
1.600000023841858
 41
0.0
 71
     7
 72
     1
  1
\W1; 0
 11
0.9999984769132877
 21
-0.001745328365898445
 31
0.0
 73
     1
 44
1.0
  0
ENDBLK
  5
2A5
330
2A3
100
AcDbEntity
  8
0
100
AcDbBlockEnd
  0
BLOCK
  5
2B4
330
2B3
100
AcDbEntity
  8
0
100
AcDbBlockBegin
  2
*D8
 70
     1
 10
0.0
 20
0.0
 30
0.0
  3
*D8
  1

  0
LINE
  5
2B6
330
2B3
100
AcDbEntity
  8
0
 62
     0
370
    -2
100
AcDbLine
 10
-133.0
 20
-17.23998550415039
 30
0.0
 11
-133.0
 21
-73.55243627929686
 31
0.0
  0
LINE
  5
2B7
330
2B3
100
AcDbEntity
  8
0
 62
     0
370
    -2
100
AcDbLine
 10
-57.0
 20
-17.23998550415039
 30
0.0
 11
-57.0
 21
-73.55243627929687
 31
0.0
  0
LINE
  5
2B8
330
2B3
100
AcDbEntity
  8
0
 62
     0
370
    -2
100
AcDbLine
 10
-130.0
 20
-72.05243627929686
 30
0.0
 11
-60.0
 21
-72.05243627929687
 31
0.0
  0
INSERT
  5
2B9
330
2B3
100
AcDbEntity
  8
0
 62
     0
370
    -2
100
AcDbBlockReference
  2
_OPEN30
 10
-133.0
 20
-72.05243627929686
 30
0.0
 41
3.0
 42
3.0
 43
3.0
 50
180.0
  0
INSERT
  5
2BA
330
2B3
100
AcDbEntity
  8
0
 62
     0
370
    -2
100
AcDbBlockReference
  2
_OPEN30
 10
-57.0
 20
-72.05243627929687
 30
0.0
 41
3.0
 42
3.0
 43
3.0
 50
360.0
  0
MTEXT
  5
2BB
330
2B3
100
AcDbEntity
  8
0
 62
     1
 60
     1
100
AcDbMText
 10
-94.999
 20
-69.6380362433195
 30
0.0
 40
3.200000047683716
 41
0.0
 71
     5
 72
     1
  1
\U+220576
 73
     1
 44
1.0
  0
POINT
  5
2BC
330
2B3
100
AcDbEntity
  8
Defpoints
 62
     0
100
AcDbPoint
 10
-133.0
 20
-14.69998550415039
 30
0.0
  0
POINT
  5
2BD
330
2B3
100
AcDbEntity
  8
Defpoints
 62
     0
100
AcDbPoint
 10
-57.0
 20
-14.69998550415039
 30
0.0
  0
POINT
  5
2BE
330
2B3
100
AcDbEntity
  8
Defpoints
 62
     0
100
AcDbPoint
 10
-57.00000000000001
 20
-72.05343627929688
 30
0.0
  0
MTEXT
  5
2BF
330
2B3
100
AcDbEntity
  8
0
 62
     1
100
AcDbMText
 10
-99.34159717688024
 20
-71.24585752465737
 30
0.0
 40
3.200000047683716
 41
0.0
 71
     7
 72
     1
  1
\W1;\U+220576
 11
0.9999984769132877
 21
-0.001745328365898445
 31
0.0
 73
     1
 44
1.0
  0
ENDBLK
  5
2B5
330
2B3
100
AcDbEntity
  8
0
100
AcDbBlockEnd
  0
BLOCK
  5
2C2
330
2C1
100
AcDbEntity
  8
0
100
AcDbBlockBegin
  2
*D9
 70
     1
 10
0.0
 20
0.0
 30
0.0
  3
*D9
  1

  0
LINE
  5
2C4
330
2C1
100
AcDbEntity
  8
0
 62
     0
370
    -2
100
AcDbLine
 10
-177.0
 20
81.14001373291016
 30
0.0
 11
-177.0
 21
95.17646026611328
 31
0.0
  0
LINE
  5
2C5
330
2C1
100
AcDbEntity
  8
0
 62
     0
370
    -2
100
AcDbLine
 10
-187.0
 20
93.67646026611328
 30
0.0
 11
-180.0
 21
93.67646026611328
 31
0.0
  0
INSERT
  5
2C6
330
2C1
100
AcDbEntity
  8
0
 62
     0
370
    -2
100
AcDbBlockReference
  2
_OPEN30
 10
-190.0
 20
93.67646026611328
 30
0.0
 41
3.0
 42
3.0
 43
3.0
 50
180.0
  0
INSERT
  5
2C7
330
2C1
100
AcDbEntity
  8
0
 62
     0
370
    -2
100
AcDbBlockReference
  2
_OPEN30
 10
-177.0
 20
93.67646026611328
 30
0.0
 41
3.0
 42
3.0
 43
3.0
  0
MTEXT
  5
2C8
330
2C1
100
AcDbEntity
  8
0
 62
     1
 60
     1
100
AcDbMText
 10
-183.499
 20
96.09086030209065
 30
0.0
 40
3.200000047683716
 41
0.0
 71
     5
 72
     1
  1
13
 73
     1
 44
1.0
  0
POINT
  5
2C9
330
2C1
100
AcDbEntity
  8
Defpoints
 62
     0
100
AcDbPoint
 10
-190.0
 20
79.60001373291016
 30
0.0
  0
POINT
  5
2CA
330
2C1
100
AcDbEntity
  8
Defpoints
 62
     0
100
AcDbPoint
 10
-177.0
 20
78.60001373291016
 30
0.0
  0
POINT
  5
2CB
330
2C1
100
AcDbEntity
  8
Defpoints
 62
     0
100
AcDbPoint
 10
-177.0
 20
93.67646026611328
 30
0.0
  0
MTEXT
  5
2CC
330
2C1
100
AcDbEntity
  8
0
 62
     1
100
AcDbMText
 10
-186.2415995899771
 20
94.48124649532575
 30
0.0
 40
3.200000047683716
 41
0.0
 71
     7
 72
     1
  1
\W1;13
 11
0.9999984769132877
 21
-0.001745328365898445
 31
0.0
 73
     1
 44
1.0
  0
ENDBLK
  5
2C3
330
2C1
100
AcDbEntity
  8
0
100
AcDbBlockEnd
  0
BLOCK
  5
2CF
330
2CE
100
AcDbEntity
  8
0
100
AcDbBlockBegin
  2
*D10
 70
     1
 10
0.0
 20
0.0
 30
0.0
  3
*D10
  1

  0
LINE
  5
2D1
330
2CE
100
AcDbEntity
  8
0
 62
     0
370
    -2
100
AcDbLine
 10
-119.0
 20
71.44000915527344
 30
0.0
 11
-119.0
 21
95.17646026611328
 31
0.0
  0
LINE
  5
2D2
330
2CE
100
AcDbEntity
  8
0
 62
     0
370
    -2
100
AcDbLine
 10
-71.0
 20
71.44000915527344
 30
0.0
 11
-71.0
 21
95.17646026611328
 31
0.0
  0
LINE
  5
2D3
330
2CE
100
AcDbEntity
  8
0
 62
     0
370
    -2
100
AcDbLine
 10
-116.0
 20
93.67646026611328
 30
0.0
 11
-74.0
 21
93.67646026611328
 31
0.0
  0
INSERT
  5
2D4
330
2CE
100
AcDbEntity
  8
0
 62
     0
370
    -2
100
AcDbBlockReference
  2
_OPEN30
 10
-119.0
 20
93.67646026611328
 30
0.0
 41
3.0
 42
3.0
 43
3.0
 50
180.0
  0
INSERT
  5
2D5
330
2CE
100
AcDbEntity
  8
0
 62
     0
370
    -2
100
AcDbBlockReference
  2
_OPEN30
 10
-71.0
 20
93.67646026611328
 30
0.0
 41
3.0
 42
3.0
 43
3.0
  0
MTEXT
  5
2D6
330
2CE
100
AcDbEntity
  8
0
 62
     1
 60
     1
100
AcDbMText
 10
-94.999
 20
96.09086030209065
 30
0.0
 40
3.200000047683716
 41
0.0
 71
     5
 72
     1
  1
48
 73
     1
 44
1.0
  0
POINT
  5
2D7
330
2CE
100
AcDbEntity
  8
Defpoints
 62
     0
100
AcDbPoint
 10
-119.0
 20
68.90000915527344
 30
0.0
  0
POINT
  5
2D8
330
2CE
100
AcDbEntity
  8
Defpoints
 62
     0
100
AcDbPoint
 10
-71.0
 20
68.90000915527344
 30
0.0
  0
POINT
  5
2D9
330
2CE
100
AcDbEntity
  8
Defpoints
 62
     0
100
AcDbPoint
 10
-71.0
 20
93.67646026611328
 30
0.0
  0
MTEXT
  5
2DA
330
2CE
100
AcDbEntity
  8
0
 62
     1
100
AcDbMText
 10
-97.74159958997716
 20
94.48124649532575
 30
0.0
 40
3.200000047683716
 41
0.0
 71
     7
 72
     1
  1
\W1;48
 11
0.9999984769132877
 21
-0.001745328365898445
 31
0.0
 73
     1
 44
1.0
  0
ENDBLK
  5
2D0
330
2CE
100
AcDbEntity
  8
0
100
AcDbBlockEnd
  0
BLOCK
  5
2DD
330
2DC
100
AcDbEntity
  8
0
100
AcDbBlockBegin
  2
*D11
 70
     1
 10
0.0
 20
0.0
 30
0.0
  3
*D11
  1

  0
MTEXT
  5
2E6
330
2DC
100
AcDbEntity
  8
0
 62
     1
 60
     1
100
AcDbMText
 10
-63.10559997177124
 20
88.74086182796955
 30
0.0
 40
3.200000047683716
 41
0.0
 71
     5
 72
     1
  1
2
 73
     1
 44
1.0
  0
POINT
  5
2E7
330
2DC
100
AcDbEntity
  8
Defpoints
 62
     0
100
AcDbPoint
 10
-73.0
 20
68.90000915527344
 30
0.0
  0
POINT
  5
2E8
330
2DC
100
AcDbEntity
  8
Defpoints
 62
     0
100
AcDbPoint
 10
-71.0
 20
68.90000915527344
 30
0.0
  0
POINT
  5
2E9
330
2DC
100
AcDbEntity
  8
Defpoints
 62
     0
100
AcDbPoint
 10
-71.0
 20
86.32646179199219
 30
0.0
  0
MTEXT
  5
2EA
330
2DC
100
AcDbEntity
  8
0
 62
     1
100
AcDbMText
 10
-67.11775251576938
 20
87.1284554957776
 30
0.0
 40
3.200000047683716
 41
0.0
 71
     7
 72
     1
  1
\W1;2
 11
0.9999984769132877
 21
-0.001745328365898445
 31
0.0
 73
     1
 44
1.0
  0
LINE
  5
2EB
330
2DC
100
AcDbEntity
  8
0
  6
Continuous
 62
     0
100
AcDbLine
 10
-73.0
 20
71.44000915527344
 30
0.0
 11
-73.0
 21
87.82646179199219
 31
0.0
  0
LINE
  5
2EC
330
2DC
100
AcDbEntity
  8
0
  6
Continuous
 62
     0
100
AcDbLine
 10
-79.35
 20
86.32646179199219
 30
0.0
 11
-64.65
 21
86.32646179199219
 31
0.0
  0
LINE
  5
2ED
330
2DC
100
AcDbEntity
  8
0
  6
Continuous
 62
     0
100
AcDbLine
 10
-73.0
 20
86.32646179199219
 30
0.0
 11
-76.05452566200563
 21
85.50800410769219
 31
0.0
  0
LINE
  5
2EE
330
2DC
100
AcDbEntity
  8
0
  6
Continuous
 62
     0
100
AcDbLine
 10
-73.0
 20
86.32646179199219
 30
0.0
 11
-76.05452566200563
 21
87.14491947629219
 31
0.0
  0
LINE
  5
2EF
330
2DC
100
AcDbEntity
  8
0
  6
Continuous
 62
     0
100
AcDbLine
 10
-71.0
 20
86.32646179199219
 30
0.0
 11
-67.94547433799437
 21
87.14491947629219
 31
0.0
  0
LINE
  5
2F0
330
2DC
100
AcDbEntity
  8
0
  6
Continuous
 62
     0
100
AcDbLine
 10
-71.0
 20
86.32646179199219
 30
0.0
 11
-67.94547433799437
 21
85.50800410769219
 31
0.0
  0
LINE
  5
2F1
330
2DC
100
AcDbEntity
  8
0
  6
Continuous
 62
     0
100
AcDbLine
 10
-71.0
 20
86.32646179199219
 30
0.0
 11
-64.83314514160156
 21
86.32646179199219
 31
0.0
  0
ENDBLK
  5
2DE
330
2DC
100
AcDbEntity
  8
0
100
AcDbBlockEnd
  0
BLOCK
  5
2F4
330
2F3
100
AcDbEntity
  8
0
100
AcDbBlockBegin
  2
*D12
 70
     1
 10
0.0
 20
0.0
 30
0.0
  3
*D12
  1

  0
LINE
  5
2F6
330
2F3
100
AcDbEntity
  8
0
 62
     0
370
    -2
100
AcDbLine
 10
-13.0
 20
81.14001373291016
 30
0.0
 11
-13.0
 21
95.17646026611328
 31
0.0
  0
LINE
  5
2F7
330
2F3
100
AcDbEntity
  8
0
 62
     0
370
    -2
100
AcDbLine
 10
-3.0
 20
93.67646026611328
 30
0.0
 11
-10.0
 21
93.67646026611328
 31
0.0
  0
INSERT
  5
2F8
330
2F3
100
AcDbEntity
  8
0
 62
     0
370
    -2
100
AcDbBlockReference
  2
_OPEN30
 10
0.0
 20
93.67646026611328
 30
0.0
 41
3.0
 42
3.0
 43
3.0
  0
INSERT
  5
2F9
330
2F3
100
AcDbEntity
  8
0
 62
     0
370
    -2
100
AcDbBlockReference
  2
_OPEN30
 10
-13.0
 20
93.67646026611328
 30
0.0
 41
3.0
 42
3.0
 43
3.0
 50
180.0
  0
MTEXT
  5
2FA
330
2F3
100
AcDbEntity
  8
0
 62
     1
100
AcDbMText
 10
-6.497999999999999
 20
96.09086030209065
 30
0.0
 40
3.200000047683716
 41
0.0
 71
     5
 72
     1
  1
13
 73
     1
 44
1.0
  0
POINT
  5
2FB
330
2F3
100
AcDbEntity
  8
Defpoints
 62
     0
100
AcDbPoint
 10
0.0
 20
79.60001373291016
 30
0.0
  0
POINT
  5
2FC
330
2F3
100
AcDbEntity
  8
Defpoints
 62
     0
100
AcDbPoint
 10
-13.0
 20
78.60001373291016
 30
0.0
  0
POINT
  5
2FD
330
2F3
100
AcDbEntity
  8
Defpoints
 62
     0
100
AcDbPoint
 10
-13.0
 20
93.67646026611328
 30
0.0
  0
ENDBLK
  5
2F5
330
2F3
100
AcDbEntity
  8
0
100
AcDbBlockEnd
  0
BLOCK
  5
300
330
2FF
100
AcDbEntity
  8
0
100
AcDbBlockBegin
  2
*D13
 70
     1
 10
0.0
 20
0.0
 30
0.0
  3
*D13
  1

  0
LINE
  5
302
330
2FF
100
AcDbEntity
  8
0
 62
     0
370
    -2
100
AcDbLine
 10
-190.0
 20
82.14001373291016
 30
0.0
 11
-190.0
 21
103.9264602661133
 31
0.0
  0
LINE
  5
303
330
2FF
100
AcDbEntity
  8
0
 62
     0
370
    -2
100
AcDbLine
 10
0.0
 20
82.14001373291016
 30
0.0
 11
0.0
 21
103.9264602661133
 31
0.0
  0
LINE
  5
304
330
2FF
100
AcDbEntity
  8
0
 62
     0
370
    -2
100
AcDbLine
 10
-187.0
 20
102.4264602661133
 30
0.0
 11
-3.0
 21
102.4264602661133
 31
0.0
  0
INSERT
  5
305
330
2FF
100
AcDbEntity
  8
0
 62
     0
370
    -2
100
AcDbBlockReference
  2
_OPEN30
 10
-190.0
 20
102.4264602661133
 30
0.0
 41
3.0
 42
3.0
 43
3.0
 50
180.0
  0
INSERT
  5
306
330
2FF
100
AcDbEntity
  8
0
 62
     0
370
    -2
100
AcDbBlockReference
  2
_OPEN30
 10
0.0
 20
102.4264602661133
 30
0.0
 41
3.0
 42
3.0
 43
3.0
 50
360.0
  0
MTEXT
  5
307
330
2FF
100
AcDbEntity
  8
0
 62
     1
 60
     1
100
AcDbMText
 10
-94.999
 20
104.8408603020906
 30
0.0
 40
3.200000047683716
 41
0.0
 71
     5
 72
     1
  1
190
 73
     1
 44
1.0
  0
POINT
  5
308
330
2FF
100
AcDbEntity
  8
Defpoints
 62
     0
100
AcDbPoint
 10
-190.0
 20
79.60001373291016
 30
0.0
  0
POINT
  5
309
330
2FF
100
AcDbEntity
  8
Defpoints
 62
     0
100
AcDbPoint
 10
0.0
 20
79.60001373291016
 30
0.0
  0
POINT
  5
30A
330
2FF
100
AcDbEntity
  8
Defpoints
 62
     0
100
AcDbPoint
 10
0.000000000000003
 20
102.4264602661133
 30
0.0
  0
MTEXT
  5
30B
330
2FF
100
AcDbEntity
  8
0
 62
     1
100
AcDbMText
 10
-99.34159717688024
 20
103.2340390207528
 30
0.0
 40
3.200000047683716
 41
0.0
 71
     7
 72
     1
  1
\W1;190
 11
0.9999984769132877
 21
-0.001745328365898445
 31
0.0
 73
     1
 44
1.0
  0
ENDBLK
  5
301
330
2FF
100
AcDbEntity
  8
0
100
AcDbBlockEnd
  0
BLOCK
  5
30E
330
30D
100
AcDbEntity
  8
0
100
AcDbBlockBegin
  2
_NONE
 70
     0
 10
0.0
 20
0.0
 30
0.0
  3
_NONE
  1

  0
ENDBLK
  5
30F
330
30D
100
AcDbEntity
  8
0
100
AcDbBlockEnd
  0
BLOCK
  5
311
330
310
100
AcDbEntity
  8
0
100
AcDbBlockBegin
  2
*D15
 70
     1
 10
0.0
 20
0.0
 30
0.0
  3
*D15
  1

  0
MTEXT
  5
318
330
310
100
AcDbEntity
  8
0
 62
     1
100
AcDbMText
 10
-48.68590674984456
 20
-15.99196951293945
 30
0.0
 40
3.200000047683716
 41
0.0
 71
     5
 72
     1
  1
3
 11
0.0
 21
1.0
 31
0.0
 73
     1
 44
1.0
  0
POINT
  5
319
330
310
100
AcDbEntity
  8
Defpoints
 62
     0
100
AcDbPoint
 10
-57.0
 20
-14.69998550415039
 30
0.0
  0
POINT
  5
31A
330
310
100
AcDbEntity
  8
Defpoints
 62
     0
100
AcDbPoint
 10
-60.0
 20
-17.69998550415039
 30
0.0
  0
POINT
  5
31B
330
310
100
AcDbEntity
  8
Defpoints
 62
     0
100
AcDbPoint
 10
-46.27250671386719
 20
-17.69998550415039
 30
0.0
  0
LINE
  5
31C
330
310
100
AcDbEntity
  8
0
  6
Continuous
 62
     0
100
AcDbLine
 10
-57.46
 20
-17.69998550415039
 30
0.0
 11
-44.77250671386719
 21
-17.69998550415039
 31
0.0
  0
LINE
  5
31D
330
310
100
AcDbEntity
  8
0
  6
Continuous
 62
     0
100
AcDbLine
 10
-46.27250671386719
 20
-8.349985504150391
 30
0.0
 11
-46.27250671386719
 21
-17.69998550415039
 31
0.0
  0
LINE
  5
31E
330
310
100
AcDbEntity
  8
0
  6
Continuous
 62
     0
100
AcDbLine
 10
-46.27250671386719
 20
-14.69998550415039
 30
0.0
 11
-47.09096439816719
 21
-11.64545984214477
 31
0.0
  0
LINE
  5
31F
330
310
100
AcDbEntity
  8
0
  6
Continuous
 62
     0
100
AcDbLine
 10
-46.27250671386719
 20
-14.69998550415039
 30
0.0
 11
-45.45404902956719
 21
-11.64545984214477
 31
0.0
  0
ENDBLK
  5
312
330
310
100
AcDbEntity
  8
0
100
AcDbBlockEnd
  0
BLOCK
  5
322
330
321
100
AcDbEntity
  8
0
100
AcDbBlockBegin
  2
_ORIGIN
 70
     0
 10
0.0
 20
0.0
 30
0.0
  3
_ORIGIN
  1

  0
CIRCLE
  5
324
330
321
100
AcDbEntity
  8
0
  6
ByBlock
 62
     0
370
    -2
100
AcDbCircle
 10
0.0
 20
0.0
 30
0.0
 40
0.5
  0
LINE
  5
325
330
321
100
AcDbEntity
  8
0
  6
ByBlock
 62
     0
370
    -2
100
AcDbLine
 10
0.0
 20
0.0
 30
0.0
 11
-1.0
 21
0.0
 31
0.0
  0
ENDBLK
  5
323
330
321
100
AcDbEntity
  8
0
100
AcDbBlockEnd
  0
BLOCK
  5
327
330
326
100
AcDbEntity
  8
0
100
AcDbBlockBegin
  2
*D17
 70
     1
 10
0.0
 20
0.0
 30
0.0
  3
*D17
  1

  0
LINE
  5
329
330
326
100
AcDbEntity
  8
0
 62
     0
370
    -2
100
AcDbLine
 10
-59.1920556640625
 20
-20.69998550415039
 30
0.0
 11
-44.77150671386719
 21
-20.69998550415039
 31
0.0
  0
LINE
  5
32A
330
326
100
AcDbEntity
  8
0
 62
     0
370
    -2
100
AcDbLine
 10
-46.27150671386719
 20
-17.69998550415039
 30
0.0
 11
-46.27150671386719
 21
-20.69998550415039
 31
0.0
  0
LINE
  5
32B
330
326
100
AcDbEntity
  8
0
 62
     0
370
    -2
100
AcDbLine
 10
-46.27150671386719
 20
-15.15998550415039
 30
0.0
 11
-46.27150671386719
 21
-12.61998550415039
 31
0.0
  0
LINE
  5
32C
330
326
100
AcDbEntity
  8
0
 62
     0
370
    -2
100
AcDbLine
 10
-46.27150671386719
 20
-23.23998550415039
 30
0.0
 11
-46.27150671386719
 21
-25.77998550415039
 31
0.0
  0
INSERT
  5
32D
330
326
100
AcDbEntity
  8
0
 62
     0
370
    -2
100
AcDbBlockReference
  2
_ORIGIN
 10
-46.27150671386719
 20
-17.69998550415039
 30
0.0
 41
2.54
 42
2.54
 43
2.54
 50
270.0
  0
INSERT
  5
32E
330
326
100
AcDbEntity
  8
0
 62
     0
370
    -2
100
AcDbBlockReference
  2
_ORIGIN
 10
-46.27150671386719
 20
-20.69998550415039
 30
0.0
 41
2.54
 42
2.54
 43
2.54
 50
90.0
  0
MTEXT
  5
32F
330
326
100
AcDbEntity
  8
0
 62
     1
100
AcDbMText
 10
-48.68590674984455
 20
-19.19898550415039
 30
0.0
 40
3.200000047683716
 41
0.0
 71
     5
 72
     1
  1
3
 11
0.0
 21
1.0
 31
0.0
 73
     1
 44
1.0
  0
POINT
  5
330
330
326
100
AcDbEntity
  8
Defpoints
 62
     0
100
AcDbPoint
 10
-60.0
 20
-17.69998550415039
 30
0.0
  0
POINT
  5
331
330
326
100
AcDbEntity
  8
Defpoints
 62
     0
100
AcDbPoint
 10
-61.7320556640625
 20
-20.69998550415039
 30
0.0
  0
POINT
  5
332
330
326
100
AcDbEntity
  8
Defpoints
 62
     0
100
AcDbPoint
 10
-46.27250671386719
 20
-20.69998550415038
 30
0.0
  0
ENDBLK
  5
328
330
326
100
AcDbEntity
  8
0
100
AcDbBlockEnd
  0
BLOCK
  5
335
330
334
100
AcDbEntity
  8
0
100
AcDbBlockBegin
  2
*D18
 70
     1
 10
0.0
 20
0.0
 30
0.0
  3
*D18
  1

  0
MTEXT
  5
33A
330
334
100
AcDbEntity
  8
0
 62
     1
100
AcDbMText
 10
-48.68590674984455
 20
-23.19898168945312
 30
0.0
 40
3.200000047683716
 41
0.0
 71
     5
 72
     1
  1
5
 11
0.0
 21
1.0
 31
0.0
 73
     1
 44
1.0
  0
POINT
  5
33B
330
334
100
AcDbEntity
  8
Defpoints
 62
     0
100
AcDbPoint
 10
-61.7320556640625
 20
-20.69998550415039
 30
0.0
  0
POINT
  5
33C
330
334
100
AcDbEntity
  8
Defpoints
 62
     0
100
AcDbPoint
 10
-65.7401123046875
 20
-25.69998168945312
 30
0.0
  0
POINT
  5
33D
330
334
100
AcDbEntity
  8
Defpoints
 62
     0
100
AcDbPoint
 10
-46.27250671386719
 20
-25.69998168945312
 30
0.0
  0
LINE
  5
33E
330
334
100
AcDbEntity
  8
0
  6
Continuous
 62
     0
100
AcDbLine
 10
-46.27250671386719
 20
-20.69998550415039
 30
0.0
 11
-46.27250671386719
 21
-32.04998168945313
 31
0.0
  0
LINE
  5
33F
330
334
100
AcDbEntity
  8
0
  6
Continuous
 62
     0
100
AcDbLine
 10
-46.27250671386719
 20
-25.69998168945312
 30
0.0
 11
-45.45404902956719
 21
-28.75450735145875
 31
0.0
  0
LINE
  5
340
330
334
100
AcDbEntity
  8
0
  6
Continuous
 62
     0
100
AcDbLine
 10
-46.27250671386719
 20
-25.69998168945312
 30
0.0
 11
-47.09096439816719
 21
-28.75450735145875
 31
0.0
  0
ENDBLK
  5
336
330
334
100
AcDbEntity
  8
0
100
AcDbBlockEnd
  0
BLOCK
  5
343
330
342
100
AcDbEntity
  8
0
100
AcDbBlockBegin
  2
*D19
 70
     1
 10
0.0
 20
0.0
 30
0.0
  3
*D19
  1

  0
MTEXT
  5
34C
330
342
100
AcDbEntity
  8
0
 62
     1
100
AcDbMText
 10
-39.93077591466904
 20
-6.498385486245159
 30
0.0
 40
3.200000047683716
 41
0.0
 71
     5
 72
     1
  1
1
 11
0.0
 21
1.0
 31
0.0
 73
     1
 44
1.0
  0
POINT
  5
34D
330
342
100
AcDbEntity
  8
Defpoints
 62
     0
100
AcDbPoint
 10
-30.0
 20
-13.69998550415039
 30
0.0
  0
POINT
  5
34E
330
342
100
AcDbEntity
  8
Defpoints
 62
     0
100
AcDbPoint
 10
-57.0
 20
-14.69998550415039
 30
0.0
  0
POINT
  5
34F
330
342
100
AcDbEntity
  8
Defpoints
 62
     0
100
AcDbPoint
 10
-37.53277587890625
 20
-14.69998550415038
 30
0.0
  0
LINE
  5
350
330
342
100
AcDbEntity
  8
0
  6
Continuous
 62
     0
100
AcDbLine
 10
-54.46
 20
-14.69998550415039
 30
0.0
 11
-36.03277587890625
 21
-14.69998550415039
 31
0.0
  0
LINE
  5
351
330
342
100
AcDbEntity
  8
0
  6
Continuous
 62
     0
100
AcDbLine
 10
-37.53277587890625
 20
-7.349985504150391
 30
0.0
 11
-37.53277587890625
 21
-21.04998550415039
 31
0.0
  0
LINE
  5
352
330
342
100
AcDbEntity
  8
0
  6
Continuous
 62
     0
100
AcDbLine
 10
-37.53277587890625
 20
-13.69998550415039
 30
0.0
 11
-38.35123356320625
 21
-10.64545984214477
 31
0.0
  0
LINE
  5
353
330
342
100
AcDbEntity
  8
0
  6
Continuous
 62
     0
100
AcDbLine
 10
-37.53277587890625
 20
-13.69998550415039
 30
0.0
 11
-36.71431819460625
 21
-10.64545984214477
 31
0.0
  0
LINE
  5
354
330
342
100
AcDbEntity
  8
0
  6
Continuous
 62
     0
100
AcDbLine
 10
-37.53277587890625
 20
-14.69998550415039
 30
0.0
 11
-36.71431819460625
 21
-17.75451116615601
 31
0.0
  0
LINE
  5
355
330
342
100
AcDbEntity
  8
0
  6
Continuous
 62
     0
100
AcDbLine
 10
-37.53277587890625
 20
-14.69998550415039
 30
0.0
 11
-38.35123356320625
 21
-17.75451116615601
 31
0.0
  0
LINE
  5
356
330
342
100
AcDbEntity
  8
0
  6
Continuous
 62
     0
100
AcDbLine
 10
-37.53277587890625
 20
-13.69998550415039
 30
0.0
 11
-37.53277587890625
 21
-6.844104766845703
 31
0.0
  0
ENDBLK
  5
344
330
342
100
AcDbEntity
  8
0
100
AcDbBlockEnd
  0
BLOCK
  5
359
330
358
100
AcDbEntity
  8
0
100
AcDbBlockBegin
  2
*D20
 70
     1
 10
0.0
 20
0.0
 30
0.0
  3
*D20
  1

  0
LINE
  5
35B
330
358
100
AcDbEntity
  8
0
 62
     0
370
    -2
100
AcDbLine
 10
-63.2001123046875
 20
-25.69998168945312
 30
0.0
 11
-36.03177587890625
 21
-25.69998168945311
 31
0.0
  0
LINE
  5
35C
330
358
100
AcDbEntity
  8
0
 62
     0
370
    -2
100
AcDbLine
 10
-37.53177587890625
 20
-17.69998550415038
 30
0.0
 11
-37.53177587890625
 21
-22.69998168945311
 31
0.0
  0
INSERT
  5
35D
330
358
100
AcDbEntity
  8
0
 62
     0
370
    -2
100
AcDbBlockReference
  2
_OPEN30
 10
-37.53177587890625
 20
-14.69998550415038
 30
0.0
 41
3.0
 42
3.0
 43
3.0
 50
90.00000000000004
  0
INSERT
  5
35E
330
358
100
AcDbEntity
  8
0
 62
     0
370
    -2
100
AcDbBlockReference
  2
_OPEN30
 10
-37.53177587890625
 20
-25.69998168945311
 30
0.0
 41
3.0
 42
3.0
 43
3.0
 50
270.0000000000001
  0
MTEXT
  5
35F
330
358
100
AcDbEntity
  8
0
 62
     1
100
AcDbMText
 10
-39.93177591466904
 20
-20.19898550415039
 30
0.0
 40
3.200000047683716
 41
0.0
 71
     5
 72
     1
  1
11
 11
-6.459481656088823E-16
 21
1.0
 31
0.0
 73
     1
 44
1.0
  0
POINT
  5
360
330
358
100
AcDbEntity
  8
Defpoints
 62
     0
100
AcDbPoint
 10
-57.0
 20
-14.69998550415039
 30
0.0
  0
POINT
  5
361
330
358
100
AcDbEntity
  8
Defpoints
 62
     0
100
AcDbPoint
 10
-65.7401123046875
 20
-25.69998168945312
 30
0.0
  0
POINT
  5
362
330
358
100
AcDbEntity
  8
Defpoints
 62
     0
100
AcDbPoint
 10
-37.53277587890625
 20
-25.69998168945311
 30
0.0
  0
ENDBLK
  5
35A
330
358
100
AcDbEntity
  8
0
100
AcDbBlockEnd
  0
BLOCK
  5
365
330
364
100
AcDbEntity
  8
0
100
AcDbBlockBegin
  2
*D21
 70
     1
 10
0.0
 20
0.0
 30
0.0
  3
*D21
  1

  0
MTEXT
  5
36E
330
364
100
AcDbEntity
  8
0
 62
     1
100
AcDbMText
 10
8.622732776522636
 20
9.394415287017825
 30
0.0
 40
3.200000047683716
 41
0.0
 71
     5
 72
     1
  1
2
 11
0.0
 21
1.0
 31
0.0
 73
     1
 44
1.0
  0
POINT
  5
36F
330
364
100
AcDbEntity
  8
Defpoints
 62
     0
100
AcDbPoint
 10
0.0
 20
1.500015258789062
 30
0.0
  0
POINT
  5
370
330
364
100
AcDbEntity
  8
Defpoints
 62
     0
100
AcDbPoint
 10
0.0
 20
-0.499984741210938
 30
0.0
  0
POINT
  5
371
330
364
100
AcDbEntity
  8
Defpoints
 62
     0
100
AcDbPoint
 10
11.0361328125
 20
-0.499984741210933
 30
0.0
  0
LINE
  5
372
330
364
100
AcDbEntity
  8
0
  6
Continuous
 62
     0
100
AcDbLine
 10
2.54
 20
1.500015258789062
 30
0.0
 11
12.5361328125
 21
1.500015258789062
 31
0.0
  0
LINE
  5
373
330
364
100
AcDbEntity
  8
0
  6
Continuous
 62
     0
100
AcDbLine
 10
2.54
 20
-0.499984741210938
 30
0.0
 11
12.5361328125
 21
-0.499984741210938
 31
0.0
  0
LINE
  5
374
330
364
100
AcDbEntity
  8
0
  6
Continuous
 62
     0
100
AcDbLine
 10
11.0361328125
 20
7.850015258789062
 30
0.0
 11
11.0361328125
 21
-0.499984741210938
 31
0.0
  0
LINE
  5
375
330
364
100
AcDbEntity
  8
0
  6
Continuous
 62
     0
100
AcDbLine
 10
11.0361328125
 20
1.500015258789062
 30
0.0
 11
10.2176751282
 21
4.554540920794686
 31
0.0
  0
LINE
  5
376
330
364
100
AcDbEntity
  8
0
  6
Continuous
 62
     0
100
AcDbLine
 10
11.0361328125
 20
1.500015258789062
 30
0.0
 11
11.8545904968
 21
4.554540920794686
 31
0.0
  0
LINE
  5
377
330
364
100
AcDbEntity
  8
0
  6
Continuous
 62
     0
100
AcDbLine
 10
11.0361328125
 20
1.500015258789062
 30
0.0
 11
11.0361328125
 21
7.166015625
 31
0.0
  0
ENDBLK
  5
366
330
364
100
AcDbEntity
  8
0
100
AcDbBlockEnd
  0
BLOCK
  5
37F
330
378
100
AcDbEntity
  8
0
100
AcDbBlockBegin
  2
SYM0001
 70
     0
 10
0.0
 20
0.0
 30
0.0
  3
SYM0001
  1

  0
LINE
  5
379
330
378
100
AcDbEntity
  8
0
  6
Continuous
 62
     0
100
AcDbLine
 10
0.0
 20
0.0
 30
0.0
 11
-38.61147750005307
 21
61.00257985536099
 31
0.0
  0
LINE
  5
37A
330
378
100
AcDbEntity
  8
0
  6
Continuous
 62
     0
100
AcDbLine
 10
0.0
 20
0.0
 30
0.0
 11
-2.325189943546434
 21
2.143243273002653
 31
0.0
  0
LINE
  5
37B
330
378
100
AcDbEntity
  8
0
  6
Continuous
 62
     0
100
AcDbLine
 10
0.0
 20
0.0
 30
0.0
 11
-0.942051923408343
 21
3.018698092629208
 31
0.0
  0
LINE
  5
37C
330
378
100
AcDbEntity
  8
0
  6
Continuous
 62
     0
100
AcDbLine
 10
-38.61147844539821
 20
61.00258452608399
 30
0.0
 11
-57.84377825008571
 21
61.00258452608399
 31
0.0
  0
MTEXT
  5
37D
330
378
100
AcDbEntity
  8
0
 62
     1
100
AcDbMText
 10
-56.70127689586818
 20
62.00258452608399
 30
0.0
 40
4.0
 41
0.0
 71
     7
 72
     1
  1
{\W0.833333;勾配1゜}
 73
     1
 44
1.0
  0
ENDBLK
  5
380
330
378
100
AcDbEntity
  8
0
100
AcDbBlockEnd
  0
BLOCK
  5
386
330
381
100
AcDbEntity
  8
0
100
AcDbBlockBegin
  2
SYM0002
 70
     0
 10
0.0
 20
0.0
 30
0.0
  3
SYM0002
  1

  0
LINE
  5
382
330
381
100
AcDbEntity
  8
0
  6
Continuous
 62
     0
100
AcDbLine
 10
0.0
 20
0.0
 30
0.0
 11
-40.99405046029827
 21
49.4587317903235
 31
0.0
  0
LINE
  5
383
330
381
100
AcDbEntity
  8
0
  6
Continuous
 62
     0
100
AcDbLine
 10
0.0
 20
0.0
 30
0.0
 11
-2.579378133696139
 21
1.829428447425826
 31
0.0
  0
LINE
  5
384
330
381
100
AcDbEntity
  8
0
  6
Continuous
 62
     0
100
AcDbLine
 10
0.0
 20
0.0
 30
0.0
 11
-1.319092766200043
 21
2.874020576648562
 31
0.0
  0
ENDBLK
  5
387
330
381
100
AcDbEntity
  8
0
100
AcDbBlockEnd
  0
BLOCK
  5
38F
330
388
100
AcDbEntity
  8
0
100
AcDbBlockBegin
  2
SYM0003
 70
     0
 10
0.0
 20
0.0
 30
0.0
  3
SYM0003
  1

  0
LINE
  5
389
330
388
100
AcDbEntity
  8
0
  6
Continuous
 62
     0
100
AcDbLine
 10
0.0
 20
0.0
 30
0.0
 11
27.74867820182664
 21
58.97824262827415
 31
0.0
  0
LINE
  5
38A
330
388
100
AcDbEntity
  8
0
  6
Continuous
 62
     0
100
AcDbLine
 10
0.0
 20
0.0
 30
0.0
 11
0.559802046256536
 21
3.112333797947706
 31
0.0
  0
LINE
  5
38B
330
388
100
AcDbEntity
  8
0
  6
Continuous
 62
     0
100
AcDbLine
 10
0.0
 20
0.0
 30
0.0
 11
2.040969691983022
 21
2.415459111069232
 31
0.0
  0
LINE
  5
38C
330
388
100
AcDbEntity
  8
0
  6
Continuous
 62
     0
100
AcDbLine
 10
27.7486852884232
 20
58.97824817585889
 30
0.0
 11
46.98099272250523
 21
58.97824817585889
 31
0.0
  0
MTEXT
  5
38D
330
388
100
AcDbEntity
  8
0
 62
     1
100
AcDbMText
 10
30.98099093436589
 20
59.97824817585889
 30
0.0
 40
4.0
 41
0.0
 71
     7
 72
     1
  1
{\W0.833333;勾配1゜}
 73
     1
 44
1.0
  0
ENDBLK
  5
390
330
388
100
AcDbEntity
  8
0
100
AcDbBlockEnd
  0
BLOCK
  5
396
330
391
100
AcDbEntity
  8
0
100
AcDbBlockBegin
  2
SYM0004
 70
     0
 10
0.0
 20
0.0
 30
0.0
  3
SYM0004
  1

  0
LINE
  5
392
330
391
100
AcDbEntity
  8
0
  6
Continuous
 62
     0
100
AcDbLine
 10
0.0
 20
0.0
 30
0.0
 11
30.13848123091442
 21
47.71722478219922
 31
0.0
  0
LINE
  5
393
330
391
100
AcDbEntity
  8
0
  6
Continuous
 62
     0
100
AcDbLine
 10
0.0
 20
0.0
 30
0.0
 11
0.939156608172652
 21
3.01960011693042
 31
0.0
  0
LINE
  5
394
330
391
100
AcDbEntity
  8
0
  6
Continuous
 62
     0
100
AcDbLine
 10
0.0
 20
0.0
 30
0.0
 11
2.323133539150831
 21
2.145472106580073
 31
0.0
  0
ENDBLK
  5
397
330
391
100
AcDbEntity
  8
0
100
AcDbBlockEnd
  0
BLOCK
  5
39A
330
399
100
AcDbEntity
  8
0
100
AcDbBlockBegin
  2
*D26
 70
     1
 10
0.0
 20
0.0
 30
0.0
  3
*D26
  1

  0
LINE
  5
39C
330
399
100
AcDbEntity
  8
0
 62
     0
370
    -2
100
AcDbLine
 10
-12.99998474121094
 20
-6.239985504150391
 30
0.0
 11
-12.99998474121094
 21
-13.2410539855957
 31
0.0
  0
LINE
  5
39D
330
399
100
AcDbEntity
  8
0
 62
     0
370
    -2
100
AcDbLine
 10
-0.000000000000001
 20
-2.540003814697266
 30
0.0
 11
-0.000000000000003
 21
-13.2410539855957
 31
0.0
  0
LINE
  5
39E
330
399
100
AcDbEntity
  8
0
 62
     0
370
    -2
100
AcDbLine
 10
-9.999984741210941
 20
-11.7410539855957
 30
0.0
 11
-3.000000000000003
 21
-11.7410539855957
 31
0.0
  0
INSERT
  5
39F
330
399
100
AcDbEntity
  8
0
 62
     0
370
    -2
100
AcDbBlockReference
  2
_OPEN30
 10
-12.99998474121094
 20
-11.7410539855957
 30
0.0
 41
3.0
 42
3.0
 43
3.0
 50
180.0
  0
INSERT
  5
3A0
330
399
100
AcDbEntity
  8
0
 62
     0
370
    -2
100
AcDbBlockReference
  2
_OPEN30
 10
-0.000000000000003
 20
-11.7410539855957
 30
0.0
 41
3.0
 42
3.0
 43
3.0
 50
360.0
  0
MTEXT
  5
3A1
330
399
100
AcDbEntity
  8
0
 62
     1
 60
     1
100
AcDbMText
 10
-6.499
 20
-9.32665394961834
 30
0.0
 40
3.200000047683716
 41
0.0
 71
     5
 72
     1
  1
13
 73
     1
 44
1.0
  0
POINT
  5
3A2
330
399
100
AcDbEntity
  8
Defpoints
 62
     0
100
AcDbPoint
 10
-12.99998474121094
 20
-3.699985504150391
 30
0.0
  0
POINT
  5
3A3
330
399
100
AcDbEntity
  8
Defpoints
 62
     0
100
AcDbPoint
 10
0.0
 20
-0.000003814697266
 30
0.0
  0
POINT
  5
3A4
330
399
100
AcDbEntity
  8
Defpoints
 62
     0
100
AcDbPoint
 10
-0.000000000000001
 20
-11.7420539855957
 30
0.0
  0
MTEXT
  5
3A5
330
399
100
AcDbEntity
  8
0
 62
     1
100
AcDbMText
 10
-9.241599589977156
 20
-10.93726775638324
 30
0.0
 40
3.200000047683716
 41
0.0
 71
     7
 72
     1
  1
\W1;13
 11
0.9999984769132877
 21
-0.001745328365898445
 31
0.0
 73
     1
 44
1.0
  0
ENDBLK
  5
39B
330
399
100
AcDbEntity
  8
0
100
AcDbBlockEnd
  0
BLOCK
  5
3A8
330
3A7
100
AcDbEntity
  8
0
100
AcDbBlockBegin
  2
*D27
 70
     1
 10
0.0
 20
0.0
 30
0.0
  3
*D27
  1

  0
POINT
  5
3AD
330
3A7
100
AcDbEntity
  8
Defpoints
 62
     0
100
AcDbPoint
 10
-29.25648706687825
 20
-13.34419143664179
 30
0.0
  0
POINT
  5
3AE
330
3A7
100
AcDbEntity
  8
Defpoints
 62
     0
100
AcDbPoint
 10
-29.24422820539532
 20
-13.35481272303853
 30
0.0
  0
LINE
  5
3AF
330
3A7
100
AcDbEntity
  8
0
  6
Continuous
 62
     0
100
AcDbLine
 10
-29.25648706687825
 20
-13.34419143664179
 30
0.0
 11
-24.445009637174
 21
-17.51293743670931
 31
0.0
  0
LINE
  5
3B0
330
3A7
100
AcDbEntity
  8
0
  6
Continuous
 62
     0
100
AcDbLine
 10
-29.24422820539532
 20
-13.35481272303853
 30
0.0
 11
-26.39972656785399
 21
-14.73640978255525
 31
0.0
  0
LINE
  5
3B1
330
3A7
100
AcDbEntity
  8
0
  6
Continuous
 62
     0
100
AcDbLine
 10
-29.24422820539532
 20
-13.35481272303853
 30
0.0
 11
-27.47161605578519
 21
-15.97356169304217
 31
0.0
  0
LINE
  5
3B2
330
3A7
100
AcDbEntity
  8
0
  6
Continuous
 62
     0
100
AcDbLine
 10
-29.2442265737714
 20
-13.35480263639656
 30
0.0
 11
-22.77113667709801
 21
-18.96322962765709
 31
0.0
  0
MTEXT
  5
3B3
330
3A7
100
AcDbEntity
  8
0
 62
     1
100
AcDbMText
 10
-26.38955945181973
 20
-14.7637156129389
 30
0.0
 40
3.200000047683716
 41
0.0
 71
     7
 72
     1
  1
\W1;R1
 11
0.7547095802227719
 21
-0.6560590289905074
 31
0.0
 73
     1
 44
1.0
  0
ENDBLK
  5
3A9
330
3A7
100
AcDbEntity
  8
0
100
AcDbBlockEnd
  0
BLOCK
  5
3B6
330
3B5
100
AcDbEntity
  8
0
100
AcDbBlockBegin
  2
*D28
 70
     1
 10
0.0
 20
0.0
 30
0.0
  3
*D28
  1

  0
POINT
  5
3BC
330
3B5
100
AcDbEntity
  8
Defpoints
 62
     0
100
AcDbPoint
 10
-159.2756391301971
 20
-11.97562752675686
 30
0.0
  0
POINT
  5
3BD
330
3B5
100
AcDbEntity
  8
Defpoints
 62
     0
100
AcDbPoint
 10
-160.1369356523141
 20
-12.48373017484
 30
0.0
  0
LINE
  5
3BE
330
3B5
100
AcDbEntity
  8
0
  6
Continuous
 62
     0
100
AcDbLine
 10
-159.2756391301971
 20
-11.97562752675686
 30
0.0
 11
-160.1369356523141
 21
-12.48373017484
 31
0.0
  0
LINE
  5
3BF
330
3B5
100
AcDbEntity
  8
0
  6
Continuous
 62
     0
100
AcDbLine
 10
-160.1369356523141
 20
-12.48373017484
 30
0.0
 11
-157.9219438396482
 21
-10.22678284034949
 31
0.0
  0
LINE
  5
3C0
330
3B5
100
AcDbEntity
  8
0
  6
Continuous
 62
     0
100
AcDbLine
 10
-160.1369356523141
 20
-12.48373017484
 30
0.0
 11
-157.0902228061746
 21
-11.63665235432459
 31
0.0
  0
LINE
  5
3C1
330
3B5
100
AcDbEntity
  8
0
  6
Continuous
 62
     0
100
AcDbLine
 10
-159.2756327634061
 20
-11.97561963186737
 30
0.0
 11
-151.6450579705145
 21
-7.474131605116561
 31
0.0
  0
MTEXT
  5
3C2
330
3B5
100
AcDbEntity
  8
0
 62
     1
100
AcDbMText
 10
-155.6544548381821
 20
-9.112105119754206
 30
0.0
 40
2.5
 41
0.0
 71
     7
 72
     1
  1
\W1;R1
 11
0.8616291604415258
 21
0.5075383629607041
 31
0.0
 73
     1
 44
1.0
  0
ENDBLK
  5
3B7
330
3B5
100
AcDbEntity
  8
0
100
AcDbBlockEnd
  0
BLOCK
  5
3C5
330
3C4
100
AcDbEntity
  8
0
100
AcDbBlockBegin
  2
*D29
 70
     1
 10
0.0
 20
0.0
 30
0.0
  3
*D29
  1

  0
POINT
  5
3CB
330
3C4
100
AcDbEntity
  8
Defpoints
 62
     0
100
AcDbPoint
 10
-161.99999730792
 20
-4.699991249731951
 30
0.0
  0
POINT
  5
3CC
330
3C4
100
AcDbEntity
  8
Defpoints
 62
     0
100
AcDbPoint
 10
-161.1798354197569
 20
-4.127859728834324
 30
0.0
  0
LINE
  5
3CD
330
3C4
100
AcDbEntity
  8
0
  6
Continuous
 62
     0
100
AcDbLine
 10
-161.99999730792
 20
-4.699991249731951
 30
0.0
 11
-161.1798354197569
 21
-4.127859728834324
 31
0.0
  0
LINE
  5
3CE
330
3C4
100
AcDbEntity
  8
0
  6
Continuous
 62
     0
100
AcDbLine
 10
-161.1798354197569
 20
-4.127859728834324
 30
0.0
 11
-163.2167755144413
 21
-6.546717941195567
 31
0.0
  0
LINE
  5
3CF
330
3C4
100
AcDbEntity
  8
0
  6
Continuous
 62
     0
100
AcDbLine
 10
-161.1798354197569
 20
-4.127859728834324
 30
0.0
 11
-164.1533063938592
 21
-5.204182341721285
 31
0.0
  0
LINE
  5
3D0
330
3C4
100
AcDbEntity
  8
0
  6
Continuous
 62
     0
100
AcDbLine
 10
-161.9999931332393
 20
-4.699983448939264
 30
0.0
 11
-169.4690524350603
 21
-9.910277996207583
 31
0.0
  0
MTEXT
  5
3D1
330
3C4
100
AcDbEntity
  8
0
 62
     1
100
AcDbMText
 10
-169.8278646757306
 20
-9.394022476007205
 30
0.0
 40
2.5
 41
0.0
 71
     7
 72
     1
  1
\W1;R1
 11
0.8211492091337041
 21
0.5707135676844316
 31
0.0
 73
     1
 44
1.0
  0
ENDBLK
  5
3C6
330
3C4
100
AcDbEntity
  8
0
100
AcDbBlockEnd
  0
BLOCK
  5
3D7
330
3D2
100
AcDbEntity
  8
0
100
AcDbBlockBegin
  2
SYM0005
 70
     0
 10
0.0
 20
0.0
 30
0.0
  3
SYM0005
  1

  0
LINE
  5
3D3
330
3D2
100
AcDbEntity
  8
0
  6
Continuous
 62
     0
100
AcDbLine
 10
0.0
 20
0.0
 30
0.0
 11
37.99262301585473
 21
-32.50478979034717
 31
0.0
  0
LINE
  5
3D4
330
3D2
100
AcDbEntity
  8
0
  6
Continuous
 62
     0
100
AcDbLine
 10
0.0
 20
0.0
 30
0.0
 11
2.853064303642931
 21
-1.363826997870003
 31
0.0
  0
LINE
  5
3D5
330
3D2
100
AcDbEntity
  8
0
  6
Continuous
 62
     0
100
AcDbLine
 10
0.0
 20
0.0
 30
0.0
 11
1.788912666800947
 21
-2.607640978240628
 31
0.0
  0
ENDBLK
  5
3D8
330
3D2
100
AcDbEntity
  8
0
100
AcDbBlockEnd
  0
BLOCK
  5
3DE
330
3D9
100
AcDbEntity
  8
0
100
AcDbBlockBegin
  2
SYM0006
 70
     0
 10
0.0
 20
0.0
 30
0.0
  3
SYM0006
  1

  0
LINE
  5
3DA
330
3D9
100
AcDbEntity
  8
0
  6
Continuous
 62
     0
100
AcDbLine
 10
0.0
 20
0.0
 30
0.0
 11
29.40787128119719
 21
43.56725604985265
 31
0.0
  0
LINE
  5
3DB
330
3D9
100
AcDbEntity
  8
0
  6
Continuous
 62
     0
100
AcDbLine
 10
0.0
 20
0.0
 30
0.0
 11
1.030545374635778
 21
2.989644833698051
 31
0.0
  0
LINE
  5
3DC
330
3D9
100
AcDbEntity
  8
0
  6
Continuous
 62
     0
100
AcDbLine
 10
0.0
 20
0.0
 30
0.0
 11
2.387300890916379
 21
2.073835687095411
 31
0.0
  0
ENDBLK
  5
3DF
330
3D9
100
AcDbEntity
  8
0
100
AcDbBlockEnd
  0
BLOCK
  5
3E5
330
3E0
100
AcDbEntity
  8
0
100
AcDbBlockBegin
  2
SYM0007
 70
     0
 10
0.0
 20
0.0
 30
0.0
  3
SYM0007
  1

  0
LINE
  5
3E1
330
3E0
100
AcDbEntity
  8
0
  6
Continuous
 62
     0
100
AcDbLine
 10
0.0
 20
0.0
 30
0.0
 11
36.92648114061927
 21
49.89302569803518
 31
0.0
  0
LINE
  5
3E2
330
3E0
100
AcDbEntity
  8
0
  6
Continuous
 62
     0
100
AcDbLine
 10
0.0
 20
0.0
 30
0.0
 11
1.159267620513546
 21
2.942124841822569
 31
0.0
  0
LINE
  5
3E3
330
3E0
100
AcDbEntity
  8
0
  6
Continuous
 62
     0
100
AcDbLine
 10
0.0
 20
0.0
 30
0.0
 11
2.475017629947061
 21
1.968321044009805
 31
0.0
  0
ENDBLK
  5
3E6
330
3E0
100
AcDbEntity
  8
0
100
AcDbBlockEnd
  0
BLOCK
  5
3EC
330
3E7
100
AcDbEntity
  8
0
100
AcDbBlockBegin
  2
SYM0008
 70
     0
 10
0.0
 20
0.0
 30
0.0
  3
SYM0008
  1

  0
LINE
  5
3E8
330
3E7
100
AcDbEntity
  8
0
  6
Continuous
 62
     0
100
AcDbLine
 10
0.0
 20
0.0
 30
0.0
 11
-27.15356527426232
 21
29.03548486622834
 31
0.0
  0
LINE
  5
3E9
330
3E7
100
AcDbEntity
  8
0
  6
Continuous
 62
     0
100
AcDbLine
 10
0.0
 20
0.0
 30
0.0
 11
-2.68415121438602
 21
1.671924716950691
 31
0.0
  0
LINE
  5
3EA
330
3E7
100
AcDbEntity
  8
0
  6
Continuous
 62
     0
100
AcDbLine
 10
0.0
 20
0.0
 30
0.0
 11
-1.488580780942925
 21
2.790004885201434
 31
0.0
  0
ENDBLK
  5
3ED
330
3E7
100
AcDbEntity
  8
0
100
AcDbBlockEnd
  0
BLOCK
  5
3F0
330
3EF
100
AcDbEntity
  8
0
100
AcDbBlockBegin
  2
*D34
 70
     1
 10
0.0
 20
0.0
 30
0.0
  3
*D34
  1

  0
LINE
  5
3F2
330
3EF
100
AcDbEntity
  8
0
 62
     0
370
    -2
100
AcDbLine
 10
81.30158325195312
 20
61.90003967285156
 30
0.0
 11
58.1864482421875
 21
61.90003967285156
 31
0.0
  0
LINE
  5
3F3
330
3EF
100
AcDbEntity
  8
0
 62
     0
370
    -2
100
AcDbLine
 10
59.6864482421875
 20
73.60005187988281
 30
0.0
 11
59.6864482421875
 21
64.90003967285156
 31
0.0
  0
INSERT
  5
3F4
330
3EF
100
AcDbEntity
  8
0
 62
     0
370
    -2
100
AcDbBlockReference
  2
_OPEN30
 10
59.6864482421875
 20
76.60005187988281
 30
0.0
 41
3.0
 42
3.0
 43
3.0
 50
90.00000000000001
  0
INSERT
  5
3F5
330
3EF
100
AcDbEntity
  8
0
 62
     0
370
    -2
100
AcDbBlockReference
  2
_OPEN30
 10
59.6864482421875
 20
61.90003967285156
 30
0.0
 41
3.0
 42
3.0
 43
3.0
 50
270.0
  0
MTEXT
  5
3F6
330
3EF
100
AcDbEntity
  8
0
 62
     1
100
AcDbMText
 10
57.26564820611476
 20
69.25103814697266
 30
0.0
 40
3.200000047683716
 41
0.0
 71
     5
 72
     1
  1
14.7
 11
-4.833620038901979E-16
 21
1.0
 31
0.0
 73
     1
 44
1.0
  0
POINT
  5
3F7
330
3EF
100
AcDbEntity
  8
Defpoints
 62
     0
100
AcDbPoint
 10
83.84158325195312
 20
76.60005187988281
 30
0.0
  0
POINT
  5
3F8
330
3EF
100
AcDbEntity
  8
Defpoints
 62
     0
100
AcDbPoint
 10
83.84158325195312
 20
61.90003967285156
 30
0.0
  0
POINT
  5
3F9
330
3EF
100
AcDbEntity
  8
Defpoints
 62
     0
100
AcDbPoint
 10
59.6844482421875
 20
61.90003967285155
 30
0.0
  0
ENDBLK
  5
3F1
330
3EF
100
AcDbEntity
  8
0
100
AcDbBlockEnd
  0
BLOCK
  5
3FC
330
3FB
100
AcDbEntity
  8
0
100
AcDbBlockBegin
  2
*D35
 70
     1
 10
0.0
 20
0.0
 30
0.0
  3
*D35
  1

  0
LINE
  5
3FE
330
3FB
100
AcDbEntity
  8
0
 62
     0
370
    -2
100
AcDbLine
 10
93.2714013671875
 20
45.10006713867188
 30
0.0
 11
58.18652453613281
 21
45.10006713867185
 31
0.0
  0
LINE
  5
3FF
330
3FB
100
AcDbEntity
  8
0
 62
     0
370
    -2
100
AcDbLine
 10
59.68652453613281
 20
58.90003967285155
 30
0.0
 11
59.68652453613281
 21
48.10006713867185
 31
0.0
  0
INSERT
  5
400
330
3FB
100
AcDbEntity
  8
0
 62
     0
370
    -2
100
AcDbBlockReference
  2
_OPEN30
 10
59.68652453613281
 20
61.90003967285155
 30
0.0
 41
3.0
 42
3.0
 43
3.0
 50
90.00000000000001
  0
INSERT
  5
401
330
3FB
100
AcDbEntity
  8
0
 62
     0
370
    -2
100
AcDbBlockReference
  2
_OPEN30
 10
59.68652453613281
 20
45.10006713867185
 30
0.0
 41
3.0
 42
3.0
 43
3.0
 50
270.0
  0
MTEXT
  5
402
330
3FB
100
AcDbEntity
  8
0
 62
     1
100
AcDbMText
 10
57.26572450006007
 20
53.50102288818359
 30
0.0
 40
3.200000047683716
 41
0.0
 71
     5
 72
     1
  1
16.8
 11
-4.229427960757048E-16
 21
1.0
 31
0.0
 73
     1
 44
1.0
  0
POINT
  5
403
330
3FB
100
AcDbEntity
  8
Defpoints
 62
     0
100
AcDbPoint
 10
83.84158325195312
 20
61.90003967285156
 30
0.0
  0
POINT
  5
404
330
3FB
100
AcDbEntity
  8
Defpoints
 62
     0
100
AcDbPoint
 10
95.8114013671875
 20
45.10006713867188
 30
0.0
  0
POINT
  5
405
330
3FB
100
AcDbEntity
  8
Defpoints
 62
     0
100
AcDbPoint
 10
59.68452453613281
 20
45.10006713867186
 30
0.0
  0
ENDBLK
  5
3FD
330
3FB
100
AcDbEntity
  8
0
100
AcDbBlockEnd
  0
BLOCK
  5
408
330
407
100
AcDbEntity
  8
0
100
AcDbBlockBegin
  2
*D36
 70
     1
 10
0.0
 20
0.0
 30
0.0
  3
*D36
  1

  0
LINE
  5
40A
330
407
100
AcDbEntity
  8
0
 62
     0
370
    -2
100
AcDbLine
 10
116.0160607910156
 20
9.500030517578125
 30
0.0
 11
58.18660083007813
 21
9.500030517578114
 31
0.0
  0
LINE
  5
40B
330
407
100
AcDbEntity
  8
0
 62
     0
370
    -2
100
AcDbLine
 10
59.68660083007811
 20
42.10006713867186
 30
0.0
 11
59.68660083007813
 21
12.50003051757811
 31
0.0
  0
INSERT
  5
40C
330
407
100
AcDbEntity
  8
0
 62
     0
370
    -2
100
AcDbBlockReference
  2
_OPEN30
 10
59.68660083007811
 20
45.10006713867186
 30
0.0
 41
3.0
 42
3.0
 43
3.0
 50
90.00000000000001
  0
INSERT
  5
40D
330
407
100
AcDbEntity
  8
0
 62
     0
370
    -2
100
AcDbBlockReference
  2
_OPEN30
 10
59.68660083007813
 20
9.500030517578114
 30
0.0
 41
3.0
 42
3.0
 43
3.0
 50
270.0
  0
MTEXT
  5
40E
330
407
100
AcDbEntity
  8
0
 62
     1
100
AcDbMText
 10
57.26580079400539
 20
27.30101068115234
 30
0.0
 40
3.200000047683716
 41
0.0
 71
     5
 72
     1
  1
35.6
 11
-3.991809015944038E-16
 21
1.0
 31
0.0
 73
     1
 44
1.0
  0
POINT
  5
40F
330
407
100
AcDbEntity
  8
Defpoints
 62
     0
100
AcDbPoint
 10
95.8114013671875
 20
45.10006713867188
 30
0.0
  0
POINT
  5
410
330
407
100
AcDbEntity
  8
Defpoints
 62
     0
100
AcDbPoint
 10
118.5560607910156
 20
9.500030517578125
 30
0.0
  0
POINT
  5
411
330
407
100
AcDbEntity
  8
Defpoints
 62
     0
100
AcDbPoint
 10
59.68460083007812
 20
9.500030517578102
 30
0.0
  0
ENDBLK
  5
409
330
407
100
AcDbEntity
  8
0
100
AcDbBlockEnd
  0
BLOCK
  5
414
330
413
100
AcDbEntity
  8
0
100
AcDbBlockBegin
  2
*D37
 70
     1
 10
0.0
 20
0.0
 30
0.0
  3
*D37
  1

  0
LINE
  5
416
330
413
100
AcDbEntity
  8
0
 62
     0
370
    -2
100
AcDbLine
 10
59.68667712402343
 20
9.500030517578102
 30
0.0
 11
59.68667712402343
 21
1.500030517578106
 31
0.0
  0
INSERT
  5
417
330
413
100
AcDbEntity
  8
0
 62
     0
370
    -2
100
AcDbBlockReference
  2
_NONE
 10
59.68667712402343
 20
9.500030517578102
 30
0.0
 50
90.0
  0
INSERT
  5
418
330
413
100
AcDbEntity
  8
0
 62
     0
370
    -2
100
AcDbBlockReference
  2
_NONE
 10
59.68667712402343
 20
1.500030517578106
 30
0.0
 50
270.0
  0
MTEXT
  5
419
330
413
100
AcDbEntity
  8
0
 62
     1
100
AcDbMText
 10
57.27227708804607
 20
5.501022888183594
 30
0.0
 40
3.200000047683716
 41
0.0
 71
     5
 72
     1
  1
8
 11
0.0
 21
1.0
 31
0.0
 73
     1
 44
1.0
  0
POINT
  5
41A
330
413
100
AcDbEntity
  8
Defpoints
 62
     0
100
AcDbPoint
 10
118.5560607910156
 20
9.500030517578125
 30
0.0
  0
POINT
  5
41B
330
413
100
AcDbEntity
  8
Defpoints
 62
     0
100
AcDbPoint
 10
107.5560607910156
 20
1.500030517578125
 30
0.0
  0
POINT
  5
41C
330
413
100
AcDbEntity
  8
Defpoints
 62
     0
100
AcDbPoint
 10
59.68467712402344
 20
1.500030517578107
 30
0.0
  0
ENDBLK
  5
415
330
413
100
AcDbEntity
  8
0
100
AcDbBlockEnd
  0
BLOCK
  5
41F
330
41E
100
AcDbEntity
  8
0
100
AcDbBlockBegin
  2
*D38
 70
     1
 10
0.0
 20
0.0
 30
0.0
  3
*D38
  1

  0
MTEXT
  5
427
330
41E
100
AcDbEntity
  8
0
 62
     1
 60
     1
100
AcDbMText
 10
74.13405039759841
 20
49.62202220615033
 30
0.0
 40
3.200000047683716
 41
0.0
 71
     5
 72
     1
  1
14%%d
 11
0.2042093075030774
 21
0.9789272489460663
 31
0.0
 73
     1
 44
1.0
  0
POINT
  5
428
330
41E
100
AcDbEntity
  8
Defpoints
 62
     0
100
AcDbPoint
 10
95.81114772577818
 20
45.10006713867188
 30
0.0
  0
POINT
  5
429
330
41E
100
AcDbEntity
  8
Defpoints
 62
     0
100
AcDbPoint
 10
93.87929548301544
 20
45.61770302627293
 30
0.0
  0
POINT
  5
42A
330
41E
100
AcDbEntity
  8
Defpoints
 62
     0
100
AcDbPoint
 10
64.69895935058594
 20
45.10006713867188
 30
0.0
  0
POINT
  5
42B
330
41E
100
AcDbEntity
  8
Defpoints
 62
     0
100
AcDbPoint
 10
76.14255138229811
 20
46.82083881391782
 30
0.0
  0
MTEXT
  5
42C
330
41E
100
AcDbEntity
  8
0
 62
     1
100
AcDbMText
 10
74.81025554313459
 20
45.04429558214838
 30
0.0
 40
3.200000047683716
 41
0.0
 71
     7
 72
     1
  1
\W1;15°
 11
0.2044960518417905
 21
0.978867388761685
 31
0.0
 73
     1
 44
1.0
  0
LINE
  5
42D
330
41E
100
AcDbEntity
  8
0
  6
Continuous
 62
     0
100
AcDbLine
 10
93.69608071159776
 20
45.66679505242541
 30
0.0
 11
75.28939926347579
 21
50.59882798863102
 31
0.0
  0
ARC
  5
42E
330
41E
100
AcDbEntity
  8
0
  6
Continuous
 62
     0
100
AcDbCircle
 10
95.8114013671875
 20
45.10000610351562
 30
0.0
 40
19.74592781066895
100
AcDbArc
 50
146.5745552285819
 51
198.4254304662557
  0
LINE
  5
42F
330
41E
100
AcDbEntity
  8
0
  6
Continuous
 62
     0
100
AcDbLine
 10
76.73829657972232
 20
50.21061652405466
 30
0.0
 11
76.98263945413454
 21
53.3634401094404
 31
0.0
  0
LINE
  5
430
330
41E
100
AcDbEntity
  8
0
  6
Continuous
 62
     0
100
AcDbLine
 10
76.73829657972232
 20
50.21061652405466
 30
0.0
 11
78.52631550873924
 21
52.81887040554661
 31
0.0
  0
LINE
  5
431
330
41E
100
AcDbEntity
  8
0
  6
Continuous
 62
     0
100
AcDbLine
 10
76.06547355652596
 20
45.10002320845593
 30
0.0
 11
77.1175006944037
 21
42.11786980830875
 31
0.0
  0
LINE
  5
432
330
41E
100
AcDbEntity
  8
0
  6
Continuous
 62
     0
100
AcDbLine
 10
76.06547355652596
 20
45.10002320845593
 30
0.0
 11
75.48547908350469
 21
41.99138903697396
 31
0.0
  0
ENDBLK
  5
420
330
41E
100
AcDbEntity
  8
0
100
AcDbBlockEnd
  0
BLOCK
  5
435
330
434
100
AcDbEntity
  8
0
100
AcDbBlockBegin
  2
*D39
 70
     1
 10
0.0
 20
0.0
 30
0.0
  3
*D39
  1

  0
LINE
  5
437
330
434
100
AcDbEntity
  8
0
 62
     0
370
    -2
100
AcDbLine
 10
105.0160607910156
 20
1.500030517578124
 30
0.0
 11
47.39759936523438
 21
1.500030517578103
 31
0.0
  0
LINE
  5
438
330
434
100
AcDbEntity
  8
0
 62
     0
370
    -2
100
AcDbLine
 10
48.89759936523436
 20
73.60005187988281
 30
0.0
 11
48.89759936523438
 21
4.500030517578104
 31
0.0
  0
INSERT
  5
439
330
434
100
AcDbEntity
  8
0
 62
     0
370
    -2
100
AcDbBlockReference
  2
_OPEN30
 10
48.89759936523436
 20
76.60005187988281
 30
0.0
 41
3.0
 42
3.0
 43
3.0
 50
90.00000000000001
  0
INSERT
  5
43A
330
434
100
AcDbEntity
  8
0
 62
     0
370
    -2
100
AcDbBlockReference
  2
_OPEN30
 10
48.89759936523438
 20
1.500030517578104
 30
0.0
 41
3.0
 42
3.0
 43
3.0
 50
270.0
  0
MTEXT
  5
43B
330
434
100
AcDbEntity
  8
0
 62
     1
100
AcDbMText
 10
46.47679932916164
 20
36.35538537597656
 30
0.0
 40
3.200000047683716
 41
0.0
 71
     5
 72
     1
  1
75.1
 11
-3.784514160560525E-16
 21
1.0
 31
0.0
 73
     1
 44
1.0
  0
POINT
  5
43C
330
434
100
AcDbEntity
  8
Defpoints
 62
     0
100
AcDbPoint
 10
83.84158325195312
 20
76.60005187988281
 30
0.0
  0
POINT
  5
43D
330
434
100
AcDbEntity
  8
Defpoints
 62
     0
100
AcDbPoint
 10
107.5560607910156
 20
1.500030517578125
 30
0.0
  0
POINT
  5
43E
330
434
100
AcDbEntity
  8
Defpoints
 62
     0
100
AcDbPoint
 10
48.89559936523438
 20
1.500030517578103
 30
0.0
  0
ENDBLK
  5
436
330
434
100
AcDbEntity
  8
0
100
AcDbBlockEnd
  0
BLOCK
  5
441
330
440
100
AcDbEntity
  8
0
100
AcDbBlockBegin
  2
*D40
 70
     1
 10
0.0
 20
0.0
 30
0.0
  3
*D40
  1

  0
LINE
  5
443
330
440
100
AcDbEntity
  8
0
 62
     0
370
    -2
100
AcDbLine
 10
83.34152221679688
 20
78.64000610351563
 30
0.0
 11
83.34152221679688
 21
96.97720336914062
 31
0.0
  0
LINE
  5
444
330
440
100
AcDbEntity
  8
0
 62
     0
370
    -2
100
AcDbLine
 10
94.34152221679688
 20
78.14000610351563
 30
0.0
 11
94.34152221679688
 21
96.97720336914062
 31
0.0
  0
LINE
  5
445
330
440
100
AcDbEntity
  8
0
 62
     0
370
    -2
100
AcDbLine
 10
86.34152221679688
 20
95.47720336914062
 30
0.0
 11
91.34152221679688
 21
95.47720336914062
 31
0.0
  0
INSERT
  5
446
330
440
100
AcDbEntity
  8
0
 62
     0
370
    -2
100
AcDbBlockReference
  2
_OPEN30
 10
83.34152221679688
 20
95.47720336914062
 30
0.0
 41
3.0
 42
3.0
 43
3.0
 50
180.0
  0
INSERT
  5
447
330
440
100
AcDbEntity
  8
0
 62
     0
370
    -2
100
AcDbBlockReference
  2
_OPEN30
 10
94.34152221679688
 20
95.47720336914062
 30
0.0
 41
3.0
 42
3.0
 43
3.0
  0
MTEXT
  5
448
330
440
100
AcDbEntity
  8
0
 62
     1
 60
     1
100
AcDbMText
 10
88.5995107421875
 20
97.87720340490341
 30
0.0
 40
3.200000047683716
 41
0.0
 71
     5
 72
     1
  1
11
 73
     1
 44
1.0
  0
POINT
  5
449
330
440
100
AcDbEntity
  8
Defpoints
 62
     0
100
AcDbPoint
 10
83.34152221679688
 20
76.10000610351562
 30
0.0
  0
POINT
  5
44A
330
440
100
AcDbEntity
  8
Defpoints
 62
     0
100
AcDbPoint
 10
94.34152221679688
 20
75.60000610351562
 30
0.0
  0
POINT
  5
44B
330
440
100
AcDbEntity
  8
Defpoints
 62
     0
100
AcDbPoint
 10
94.34152221679688
 20
95.47720336914062
 30
0.0
  0
MTEXT
  5
44C
330
440
100
AcDbEntity
  8
0
 62
     1
100
AcDbMText
 10
85.85691115221034
 20
96.28198959835309
 30
0.0
 40
3.200000047683716
 41
0.0
 71
     7
 72
     1
  1
\W1;11
 11
0.9999984769132877
 21
-0.001745328365898445
 31
0.0
 73
     1
 44
1.0
  0
ENDBLK
  5
442
330
440
100
AcDbEntity
  8
0
100
AcDbBlockEnd
  0
BLOCK
  5
44F
330
44E
100
AcDbEntity
  8
0
100
AcDbBlockBegin
  2
*D41
 70
     1
 10
0.0
 20
0.0
 30
0.0
  3
*D41
  1

  0
MTEXT
  5
458
330
44E
100
AcDbEntity
  8
0
 62
     1
100
AcDbMText
 10
108.2434777961969
 20
65.22310693359375
 30
0.0
 40
3.200000047683716
 41
0.0
 71
     5
 72
     1
  1
7
 11
0.0
 21
1.0
 31
0.0
 73
     1
 44
1.0
  0
POINT
  5
459
330
44E
100
AcDbEntity
  8
Defpoints
 62
     0
100
AcDbPoint
 10
93.99163818359375
 20
68.90003967285156
 30
0.0
  0
POINT
  5
45A
330
44E
100
AcDbEntity
  8
Defpoints
 62
     0
100
AcDbPoint
 10
93.42526245117188
 20
61.90003967285156
 30
0.0
  0
POINT
  5
45B
330
44E
100
AcDbEntity
  8
Defpoints
 62
     0
100
AcDbPoint
 10
110.647216796875
 20
61.90003967285157
 30
0.0
  0
LINE
  5
45C
330
44E
100
AcDbEntity
  8
0
  6
Continuous
 62
     0
100
AcDbLine
 10
96.53163818359376
 20
68.90003967285156
 30
0.0
 11
112.1472778320312
 21
68.90003967285156
 31
0.0
  0
LINE
  5
45D
330
44E
100
AcDbEntity
  8
0
  6
Continuous
 62
     0
100
AcDbLine
 10
95.96526245117188
 20
61.90003967285156
 30
0.0
 11
112.1472778320312
 21
61.90003967285156
 31
0.0
  0
LINE
  5
45E
330
44E
100
AcDbEntity
  8
0
  6
Continuous
 62
     0
100
AcDbLine
 10
110.647216796875
 20
75.25000915527343
 30
0.0
 11
110.647216796875
 21
55.55000915527344
 31
0.0
  0
LINE
  5
45F
330
44E
100
AcDbEntity
  8
0
  6
Continuous
 62
     0
100
AcDbLine
 10
110.647216796875
 20
68.90000915527344
 30
0.0
 11
109.828759112575
 21
71.95453481727907
 31
0.0
  0
LINE
  5
460
330
44E
100
AcDbEntity
  8
0
  6
Continuous
 62
     0
100
AcDbLine
 10
110.647216796875
 20
68.90000915527344
 30
0.0
 11
111.465674481175
 21
71.95453481727907
 31
0.0
  0
LINE
  5
461
330
44E
100
AcDbEntity
  8
0
  6
Continuous
 62
     0
100
AcDbLine
 10
110.647216796875
 20
61.90000915527344
 30
0.0
 11
111.465674481175
 21
58.84548349326781
 31
0.0
  0
LINE
  5
462
330
44E
100
AcDbEntity
  8
0
  6
Continuous
 62
     0
100
AcDbLine
 10
110.647216796875
 20
61.90000915527344
 30
0.0
 11
109.828759112575
 21
58.84548349326781
 31
0.0
  0
ENDBLK
  5
450
330
44E
100
AcDbEntity
  8
0
100
AcDbBlockEnd
  0
BLOCK
  5
465
330
464
100
AcDbEntity
  8
0
100
AcDbBlockBegin
  2
*D42
 70
     1
 10
0.0
 20
0.0
 30
0.0
  3
*D42
  1

  0
POINT
  5
46B
330
464
100
AcDbEntity
  8
Defpoints
 62
     0
100
AcDbPoint
 10
93.99158257775869
 20
65.89998055691048
 30
0.0
  0
POINT
  5
46C
330
464
100
AcDbEntity
  8
Defpoints
 62
     0
100
AcDbPoint
 10
96.12898809973197
 20
68.00509281867663
 30
0.0
  0
LINE
  5
46D
330
464
100
AcDbEntity
  8
0
  6
Continuous
 62
     0
100
AcDbLine
 10
93.99158257775869
 20
65.89998055691048
 30
0.0
 11
96.12898809973197
 21
68.00509281867663
 31
0.0
  0
LINE
  5
46E
330
464
100
AcDbEntity
  8
0
  6
Continuous
 62
     0
100
AcDbLine
 10
96.12898809973197
 20
68.00509281867663
 30
0.0
 11
94.52704986305756
 21
65.27859435237941
 31
0.0
  0
LINE
  5
46F
330
464
100
AcDbEntity
  8
0
  6
Continuous
 62
     0
100
AcDbLine
 10
96.12898809973197
 20
68.00509281867663
 30
0.0
 11
93.3784196584198
 21
66.44484500166227
 31
0.0
  0
LINE
  5
470
330
464
100
AcDbEntity
  8
0
  6
Continuous
 62
     0
100
AcDbLine
 10
93.99159581382841
 20
65.90006322976636
 30
0.0
 11
89.90218709715423
 21
61.87243714285878
 31
0.0
  0
MTEXT
  5
471
330
464
100
AcDbEntity
  8
0
 62
     1
100
AcDbMText
 10
89.33934818285334
 20
62.44516352205907
 30
0.0
 40
3.200000047683716
 41
0.0
 71
     7
 72
     1
  1
\W1;R3
 11
0.7132504491541816
 21
0.7009092642998509
 31
0.0
 73
     1
 44
1.0
  0
ENDBLK
  5
466
330
464
100
AcDbEntity
  8
0
100
AcDbBlockEnd
  0
BLOCK
  5
474
330
473
100
AcDbEntity
  8
0
100
AcDbBlockBegin
  2
*D43
 70
     1
 10
0.0
 20
0.0
 30
0.0
  3
*D43
  1

  0
LINE
  5
476
330
473
100
AcDbEntity
  8
0
 62
     0
370
    -2
100
AcDbLine
 10
206.5231237792969
 20
40.90008544921875
 30
0.0
 11
234.8649221191406
 21
40.90008544921876
 31
0.0
  0
LINE
  5
477
330
473
100
AcDbEntity
  8
0
 62
     0
370
    -2
100
AcDbLine
 10
233.3649221191406
 20
48.60002899169923
 30
0.0
 11
233.3649221191406
 21
43.90008544921876
 31
0.0
  0
INSERT
  5
478
330
473
100
AcDbEntity
  8
0
 62
     0
370
    -2
100
AcDbBlockReference
  2
_OPEN30
 10
233.3649221191406
 20
51.60002899169923
 30
0.0
 41
3.0
 42
3.0
 43
3.0
 50
90.0
  0
INSERT
  5
479
330
473
100
AcDbEntity
  8
0
 62
     0
370
    -2
100
AcDbBlockReference
  2
_OPEN30
 10
233.3649221191406
 20
40.90008544921876
 30
0.0
 41
3.0
 42
3.0
 43
3.0
 50
270.0
  0
MTEXT
  5
47A
330
473
100
AcDbEntity
  8
0
 62
     1
100
AcDbMText
 10
230.9441220830679
 20
46.25107629394531
 30
0.0
 40
3.200000047683716
 41
0.0
 71
     5
 72
     1
  1
10.7
 11
0.0
 21
1.0
 31
0.0
 73
     1
 44
1.0
  0
POINT
  5
47B
330
473
100
AcDbEntity
  8
Defpoints
 62
     0
100
AcDbPoint
 10
203.9831237792969
 20
51.60002899169922
 30
0.0
  0
POINT
  5
47C
330
473
100
AcDbEntity
  8
Defpoints
 62
     0
100
AcDbPoint
 10
203.9831237792969
 20
40.90008544921875
 30
0.0
  0
POINT
  5
47D
330
473
100
AcDbEntity
  8
Defpoints
 62
     0
100
AcDbPoint
 10
233.3639221191406
 20
40.90008544921876
 30
0.0
  0
ENDBLK
  5
475
330
473
100
AcDbEntity
  8
0
100
AcDbBlockEnd
  0
BLOCK
  5
480
330
47F
100
AcDbEntity
  8
0
100
AcDbBlockBegin
  2
*D44
 70
     1
 10
0.0
 20
0.0
 30
0.0
  3
*D44
  1

  0
LINE
  5
482
330
47F
100
AcDbEntity
  8
0
 62
     0
370
    -2
100
AcDbLine
 10
233.3649221191406
 20
37.90008544921876
 30
0.0
 11
233.3649221191407
 21
4.500030517578136
 31
0.0
  0
INSERT
  5
483
330
47F
100
AcDbEntity
  8
0
 62
     0
370
    -2
100
AcDbBlockReference
  2
_OPEN30
 10
233.3649221191406
 20
40.90008544921876
 30
0.0
 41
3.0
 42
3.0
 43
3.0
 50
90.00000000000006
  0
INSERT
  5
484
330
47F
100
AcDbEntity
  8
0
 62
     0
370
    -2
100
AcDbBlockReference
  2
_OPEN30
 10
233.3649221191407
 20
1.500030517578136
 30
0.0
 41
3.0
 42
3.0
 43
3.0
 50
270.0000000000001
  0
MTEXT
  5
485
330
47F
100
AcDbEntity
  8
0
 62
     1
100
AcDbMText
 10
230.9441220830679
 20
21.20101220703125
 30
0.0
 40
3.200000047683716
 41
0.0
 71
     5
 72
     1
  1
39.4
 11
-7.213621777867031E-16
 21
1.0
 31
0.0
 73
     1
 44
1.0
  0
POINT
  5
486
330
47F
100
AcDbEntity
  8
Defpoints
 62
     0
100
AcDbPoint
 10
203.9831237792969
 20
40.90008544921875
 30
0.0
  0
POINT
  5
487
330
47F
100
AcDbEntity
  8
Defpoints
 62
     0
100
AcDbPoint
 10
194.0360717773438
 20
1.500030517578125
 30
0.0
  0
POINT
  5
488
330
47F
100
AcDbEntity
  8
Defpoints
 62
     0
100
AcDbPoint
 10
233.3639221191406
 20
1.50003051757814
 30
0.0
  0
ENDBLK
  5
481
330
47F
100
AcDbEntity
  8
0
100
AcDbBlockEnd
  0
BLOCK
  5
48B
330
48A
100
AcDbEntity
  8
0
100
AcDbBlockBegin
  2
*D45
 70
     1
 10
0.0
 20
0.0
 30
0.0
  3
*D45
  1

  0
LINE
  5
48D
330
48A
100
AcDbEntity
  8
0
 62
     0
370
    -2
100
AcDbLine
 10
206.5231237792969
 20
51.60002899169922
 30
0.0
 11
244.3149038085938
 21
51.60002899169923
 31
0.0
  0
LINE
  5
48E
330
48A
100
AcDbEntity
  8
0
 62
     0
370
    -2
100
AcDbLine
 10
196.5760717773437
 20
1.500030517578126
 30
0.0
 11
244.3149038085938
 21
1.500030517578143
 31
0.0
  0
LINE
  5
48F
330
48A
100
AcDbEntity
  8
0
 62
     0
370
    -2
100
AcDbLine
 10
242.8149038085938
 20
48.60002899169923
 30
0.0
 11
242.8149038085938
 21
4.500030517578143
 31
0.0
  0
INSERT
  5
490
330
48A
100
AcDbEntity
  8
0
 62
     0
370
    -2
100
AcDbBlockReference
  2
_OPEN30
 10
242.8149038085938
 20
51.60002899169923
 30
0.0
 41
3.0
 42
3.0
 43
3.0
 50
90.00000000000004
  0
INSERT
  5
491
330
48A
100
AcDbEntity
  8
0
 62
     0
370
    -2
100
AcDbBlockReference
  2
_OPEN30
 10
242.8149038085938
 20
1.500030517578143
 30
0.0
 41
3.0
 42
3.0
 43
3.0
 50
270.0000000000001
  0
MTEXT
  5
492
330
48A
100
AcDbEntity
  8
0
 62
     1
100
AcDbMText
 10
240.394103772521
 20
26.55103356933594
 30
0.0
 40
3.200000047683716
 41
0.0
 71
     5
 72
     1
  1
50.1
 11
-5.672996067072758E-16
 21
1.0
 31
0.0
 73
     1
 44
1.0
  0
POINT
  5
493
330
48A
100
AcDbEntity
  8
Defpoints
 62
     0
100
AcDbPoint
 10
203.9831237792969
 20
51.60002899169922
 30
0.0
  0
POINT
  5
494
330
48A
100
AcDbEntity
  8
Defpoints
 62
     0
100
AcDbPoint
 10
194.0360717773438
 20
1.500030517578125
 30
0.0
  0
POINT
  5
495
330
48A
100
AcDbEntity
  8
Defpoints
 62
     0
100
AcDbPoint
 10
242.8139038085938
 20
1.500030517578144
 30
0.0
  0
ENDBLK
  5
48C
330
48A
100
AcDbEntity
  8
0
100
AcDbBlockEnd
  0
BLOCK
  5
498
330
497
100
AcDbEntity
  8
0
100
AcDbBlockBegin
  2
*D46
 70
     1
 10
0.0
 20
0.0
 30
0.0
  3
*D46
  1

  0
MTEXT
  5
49F
330
497
100
AcDbEntity
  8
0
 62
     1
100
AcDbMText
 10
199.9413005371094
 20
73.29306214535237
 30
0.0
 40
3.200000047683716
 41
0.0
 71
     5
 72
     1
  1
8
 73
     1
 44
1.0
  0
POINT
  5
4A0
330
497
100
AcDbEntity
  8
Defpoints
 62
     0
100
AcDbPoint
 10
204.4830322265625
 20
51.10000610351562
 30
0.0
  0
POINT
  5
4A1
330
497
100
AcDbEntity
  8
Defpoints
 62
     0
100
AcDbPoint
 10
196.4830627441406
 20
51.60000610351562
 30
0.0
  0
POINT
  5
4A2
330
497
100
AcDbEntity
  8
Defpoints
 62
     0
100
AcDbPoint
 10
196.4830627441406
 20
70.878662109375
 30
0.0
  0
LINE
  5
4A3
330
497
100
AcDbEntity
  8
0
  6
Continuous
 62
     0
100
AcDbLine
 10
204.4830322265625
 20
53.64000610351562
 30
0.0
 11
204.4830322265625
 21
72.378662109375
 31
0.0
  0
LINE
  5
4A4
330
497
100
AcDbEntity
  8
0
  6
Continuous
 62
     0
100
AcDbLine
 10
196.4830627441406
 20
54.14000610351562
 30
0.0
 11
196.4830627441406
 21
72.378662109375
 31
0.0
  0
LINE
  5
4A5
330
497
100
AcDbEntity
  8
0
  6
Continuous
 62
     0
100
AcDbLine
 10
210.8330627441406
 20
70.878662109375
 30
0.0
 11
190.1330627441406
 21
70.878662109375
 31
0.0
  0
LINE
  5
4A6
330
497
100
AcDbEntity
  8
0
  6
Continuous
 62
     0
100
AcDbLine
 10
204.4830627441406
 20
70.878662109375
 30
0.0
 11
207.5375884061463
 21
71.697119793675
 31
0.0
  0
LINE
  5
4A7
330
497
100
AcDbEntity
  8
0
  6
Continuous
 62
     0
100
AcDbLine
 10
204.4830627441406
 20
70.878662109375
 30
0.0
 11
207.5375884061463
 21
70.060204425075
 31
0.0
  0
LINE
  5
4A8
330
497
100
AcDbEntity
  8
0
  6
Continuous
 62
     0
100
AcDbLine
 10
196.4830627441406
 20
70.878662109375
 30
0.0
 11
193.428537082135
 21
70.060204425075
 31
0.0
  0
LINE
  5
4A9
330
497
100
AcDbEntity
  8
0
  6
Continuous
 62
     0
100
AcDbLine
 10
196.4830627441406
 20
70.878662109375
 30
0.0
 11
193.428537082135
 21
71.697119793675
 31
0.0
  0
ENDBLK
  5
499
330
497
100
AcDbEntity
  8
0
100
AcDbBlockEnd
  0
BLOCK
  5
4AC
330
4AB
100
AcDbEntity
  8
0
100
AcDbBlockBegin
  2
*D47
 70
     1
 10
0.0
 20
0.0
 30
0.0
  3
*D47
  1

  0
MTEXT
  5
4B3
330
4AB
100
AcDbEntity
  8
0
 62
     1
100
AcDbMText
 10
178.9701072882414
 20
45.41800744628906
 30
0.0
 40
3.200000047683716
 41
0.0
 71
     5
 72
     1
  1
8
 11
0.0
 21
1.0
 31
0.0
 73
     1
 44
1.0
  0
POINT
  5
4B4
330
4AB
100
AcDbEntity
  8
Defpoints
 62
     0
100
AcDbPoint
 10
203.4415893554688
 20
48.90008544921875
 30
0.0
  0
POINT
  5
4B5
330
4AB
100
AcDbEntity
  8
Defpoints
 62
     0
100
AcDbPoint
 10
198.3994750976562
 20
40.90008544921875
 30
0.0
  0
POINT
  5
4B6
330
4AB
100
AcDbEntity
  8
Defpoints
 62
     0
100
AcDbPoint
 10
181.3825073242188
 20
40.90008544921874
 30
0.0
  0
LINE
  5
4B7
330
4AB
100
AcDbEntity
  8
0
  6
Continuous
 62
     0
100
AcDbLine
 10
200.9015893554688
 20
48.90008544921875
 30
0.0
 11
179.8825073242188
 21
48.90008544921875
 31
0.0
  0
LINE
  5
4B8
330
4AB
100
AcDbEntity
  8
0
  6
Continuous
 62
     0
100
AcDbLine
 10
195.8594750976563
 20
40.90008544921875
 30
0.0
 11
179.8825073242188
 21
40.90008544921875
 31
0.0
  0
LINE
  5
4B9
330
4AB
100
AcDbEntity
  8
0
  6
Continuous
 62
     0
100
AcDbLine
 10
181.3825073242188
 20
55.25008544921875
 30
0.0
 11
181.3825073242188
 21
34.55008544921875
 31
0.0
  0
LINE
  5
4BA
330
4AB
100
AcDbEntity
  8
0
  6
Continuous
 62
     0
100
AcDbLine
 10
181.3825073242188
 20
48.90008544921875
 30
0.0
 11
180.5640496399187
 21
51.95461111122437
 31
0.0
  0
LINE
  5
4BB
330
4AB
100
AcDbEntity
  8
0
  6
Continuous
 62
     0
100
AcDbLine
 10
181.3825073242188
 20
48.90008544921875
 30
0.0
 11
182.2009650085188
 21
51.95461111122437
 31
0.0
  0
LINE
  5
4BC
330
4AB
100
AcDbEntity
  8
0
  6
Continuous
 62
     0
100
AcDbLine
 10
181.3825073242188
 20
40.90008544921875
 30
0.0
 11
182.2009650085188
 21
37.84555978721313
 31
0.0
  0
LINE
  5
4BD
330
4AB
100
AcDbEntity
  8
0
  6
Continuous
 62
     0
100
AcDbLine
 10
181.3825073242188
 20
40.90008544921875
 30
0.0
 11
180.5640496399187
 21
37.84555978721313
 31
0.0
  0
ENDBLK
  5
4AD
330
4AB
100
AcDbEntity
  8
0
100
AcDbBlockEnd
  0
BLOCK
  5
4C5
330
4BE
100
AcDbEntity
  8
0
100
AcDbBlockBegin
  2
SYM0009
 70
     0
 10
0.0
 20
0.0
 30
0.0
  3
SYM0009
  1

  0
LINE
  5
4BF
330
4BE
100
AcDbEntity
  8
0
  6
Continuous
 62
     0
100
AcDbLine
 10
0.0
 20
0.0
 30
0.0
 11
-20.0166673669718
 21
9.794660461764202
 31
0.0
  0
LINE
  5
4C0
330
4BE
100
AcDbEntity
  8
0
  6
Continuous
 62
     0
100
AcDbLine
 10
0.0
 20
0.0
 30
0.0
 11
-3.103399318399596
 21
0.607381816815149
 31
0.0
  0
LINE
  5
4C1
330
4BE
100
AcDbEntity
  8
0
  6
Continuous
 62
     0
100
AcDbLine
 10
0.0
 20
0.0
 30
0.0
 11
-2.383931739533779
 21
2.077707742220753
 31
0.0
  0
LINE
  5
4C2
330
4BE
100
AcDbEntity
  8
0
  6
Continuous
 62
     0
100
AcDbLine
 10
-20.01664904086283
 20
9.794663516096776
 30
0.0
 11
-28.24574449984721
 21
9.794663516096776
 31
0.0
  0
MTEXT
  5
4C3
330
4BE
100
AcDbEntity
  8
0
 62
     1
100
AcDbMText
 10
-26.56768063037089
 20
10.5946635280177
 30
0.0
 40
3.200000047683716
 41
0.0
 71
     7
 72
     1
  1
{\W1;R3}
 73
     1
 44
1.0
  0
ENDBLK
  5
4C6
330
4BE
100
AcDbEntity
  8
0
100
AcDbBlockEnd
  0
BLOCK
  5
4C9
330
4C8
100
AcDbEntity
  8
0
100
AcDbBlockBegin
  2
*D49
 70
     1
 10
0.0
 20
0.0
 30
0.0
  3
*D49
  1

  0
POINT
  5
4CE
330
4C8
100
AcDbEntity
  8
Defpoints
 62
     0
100
AcDbPoint
 10
186.4253422712619
 20
9.499901757671722
 30
0.0
  0
POINT
  5
4CF
330
4C8
100
AcDbEntity
  8
Defpoints
 62
     0
100
AcDbPoint
 10
191.9134262090778
 20
3.67916858293448
 30
0.0
  0
LINE
  5
4D0
330
4C8
100
AcDbEntity
  8
0
  6
Continuous
 62
     0
100
AcDbLine
 10
186.4253422712619
 20
9.499901757671722
 30
0.0
 11
191.9134262090778
 21
3.67916858293448
 31
0.0
  0
LINE
  5
4D1
330
4C8
100
AcDbEntity
  8
0
  6
Continuous
 62
     0
100
AcDbLine
 10
191.9134262090778
 20
3.67916858293448
 30
0.0
 11
189.2224865817749
 21
5.340145380801173
 31
0.0
  0
LINE
  5
4D2
330
4C8
100
AcDbEntity
  8
0
  6
Continuous
 62
     0
100
AcDbLine
 10
191.9134262090778
 20
3.67916858293448
 30
0.0
 11
190.4134925305558
 21
6.463086498548386
 31
0.0
  0
MTEXT
  5
4D3
330
4C8
100
AcDbEntity
  8
0
 62
     1
100
AcDbMText
 10
188.1110861655895
 20
8.62409504419361
 30
0.0
 40
2.5
 41
0.0
 71
     7
 72
     1
  1
\W1;R8
 11
0.6858183529273761
 21
-0.7277727576572106
 31
0.0
 73
     1
 44
1.0
  0
ENDBLK
  5
4CA
330
4C8
100
AcDbEntity
  8
0
100
AcDbBlockEnd
  0
BLOCK
  5
4D6
330
4D5
100
AcDbEntity
  8
0
100
AcDbBlockBegin
  2
*D50
 70
     1
 10
0.0
 20
0.0
 30
0.0
  3
*D50
  1

  0
POINT
  5
4DB
330
4D5
100
AcDbEntity
  8
Defpoints
 62
     0
100
AcDbPoint
 10
117.8520735445258
 20
21.50009367035297
 30
0.0
  0
POINT
  5
4DC
330
4D5
100
AcDbEntity
  8
Defpoints
 62
     0
100
AcDbPoint
 10
111.0075152285012
 20
11.64352116980603
 30
0.0
  0
LINE
  5
4DD
330
4D5
100
AcDbEntity
  8
0
  6
Continuous
 62
     0
100
AcDbLine
 10
117.8520735445258
 20
21.50009367035297
 30
0.0
 11
111.0075152285012
 21
11.64352116980603
 31
0.0
  0
LINE
  5
4DE
330
4D5
100
AcDbEntity
  8
0
  6
Continuous
 62
     0
100
AcDbLine
 10
111.0075152285012
 20
11.64352116980603
 30
0.0
 11
112.0774895216227
 21
14.61928241911681
 31
0.0
  0
LINE
  5
4DF
330
4D5
100
AcDbEntity
  8
0
  6
Continuous
 62
     0
100
AcDbLine
 10
111.0075152285012
 20
11.64352116980603
 30
0.0
 11
113.4220207722782
 21
13.68561886088518
 31
0.0
  0
MTEXT
  5
4E0
330
4D5
100
AcDbEntity
  8
0
 62
     1
100
AcDbMText
 10
112.2452231326412
 20
14.52393144622787
 30
0.0
 40
2.5
 41
0.0
 71
     7
 72
     1
  1
\W1;R12
 11
0.5707135676844317
 21
0.821149209133704
 31
0.0
 73
     1
 44
1.0
  0
ENDBLK
  5
4D7
330
4D5
100
AcDbEntity
  8
0
100
AcDbBlockEnd
  0
BLOCK
  5
4E3
330
4E2
100
AcDbEntity
  8
0
100
AcDbBlockBegin
  2
*D51
 70
     1
 10
0.0
 20
0.0
 30
0.0
  3
*D51
  1

  0
POINT
  5
4E9
330
4E2
100
AcDbEntity
  8
Defpoints
 62
     0
100
AcDbPoint
 10
120.555997747968
 20
3.500055866498464
 30
0.0
  0
POINT
  5
4EA
330
4E2
100
AcDbEntity
  8
Defpoints
 62
     0
100
AcDbPoint
 10
119.0012775602387
 20
2.241944131449756
 30
0.0
  0
LINE
  5
4EB
330
4E2
100
AcDbEntity
  8
0
  6
Continuous
 62
     0
100
AcDbLine
 10
120.555997747968
 20
3.500055866498464
 30
0.0
 11
119.0012775602387
 21
2.241944131449756
 31
0.0
  0
LINE
  5
4EC
330
4E2
100
AcDbEntity
  8
0
  6
Continuous
 62
     0
100
AcDbLine
 10
119.0012775602387
 20
2.241944131449756
 30
0.0
 11
120.860888306938
 21
4.799647763929754
 31
0.0
  0
LINE
  5
4ED
330
4E2
100
AcDbEntity
  8
0
  6
Continuous
 62
     0
100
AcDbLine
 10
119.0012775602387
 20
2.241944131449756
 30
0.0
 11
121.8905995241966
 21
3.527175079346446
 31
0.0
  0
LINE
  5
4EE
330
4E2
100
AcDbEntity
  8
0
  6
Continuous
 62
     0
100
AcDbLine
 10
120.5560970157192
 20
3.499944170975724
 30
0.0
 11
125.39583058831
 21
7.416360786131264
 31
0.0
  0
MTEXT
  5
4EF
330
4E2
100
AcDbEntity
  8
0
 62
     1
100
AcDbMText
 10
121.6696917336218
 20
5.20911713560147
 30
0.0
 40
2.5
 41
0.0
 71
     7
 72
     1
  1
\W1;R2
 11
0.7782431485260211
 21
0.6279630576493378
 31
0.0
 73
     1
 44
1.0
  0
ENDBLK
  5
4E4
330
4E2
100
AcDbEntity
  8
0
100
AcDbBlockEnd
  0
BLOCK
  5
4F2
330
4F1
100
AcDbEntity
  8
0
100
AcDbBlockBegin
  2
*D52
 70
     1
 10
0.0
 20
0.0
 30
0.0
  3
*D52
  1

  0
POINT
  5
4F8
330
4F1
100
AcDbEntity
  8
Defpoints
 62
     0
100
AcDbPoint
 10
113.5560758141238
 20
5.051806236114537
 30
0.0
  0
POINT
  5
4F9
330
4F1
100
AcDbEntity
  8
Defpoints
 62
     0
100
AcDbPoint
 10
114.0308032297139
 20
5.208758078687893
 30
0.0
  0
LINE
  5
4FA
330
4F1
100
AcDbEntity
  8
0
  6
Continuous
 62
     0
100
AcDbLine
 10
113.5560758141238
 20
5.051806236114537
 30
0.0
 11
114.0308032297139
 21
5.208758078687893
 31
0.0
  0
LINE
  5
4FB
330
4F1
100
AcDbEntity
  8
0
  6
Continuous
 62
     0
100
AcDbLine
 10
114.0308032297139
 20
5.208758078687893
 30
0.0
 11
111.3875859661973
 21
3.472842614534001
 31
0.0
  0
LINE
  5
4FC
330
4F1
100
AcDbEntity
  8
0
  6
Continuous
 62
     0
100
AcDbLine
 10
114.0308032297139
 20
5.208758078687893
 30
0.0
 11
110.8737521997205
 21
5.0270198194843
 31
0.0
  0
LINE
  5
4FD
330
4F1
100
AcDbEntity
  8
0
  6
Continuous
 62
     0
100
AcDbLine
 10
113.5561437014385
 20
5.05167361356839
 30
0.0
 11
98.91997661383589
 21
0.212722180821068
 31
0.0
  0
MTEXT
  5
4FE
330
4F1
100
AcDbEntity
  8
0
 62
     1
100
AcDbMText
 10
98.72231657247866
 20
0.813859316582752
 30
0.0
 40
2.5
 41
0.0
 71
     7
 72
     1
  1
\W1;R0.5
 11
0.9499720515246525
 21
0.3123349185122326
 31
0.0
 73
     1
 44
1.0
  0
ENDBLK
  5
4F3
330
4F1
100
AcDbEntity
  8
0
100
AcDbBlockEnd
  0
BLOCK
  5
504
330
4FF
100
AcDbEntity
  8
0
100
AcDbBlockBegin
  2
SYM0010
 70
     0
 10
0.0
 20
0.0
 30
0.0
  3
SYM0010
  1

  0
LINE
  5
500
330
4FF
100
AcDbEntity
  8
0
  6
Continuous
 62
     0
100
AcDbLine
 10
0.0
 20
0.0
 30
0.0
 11
-7.82000760820911
 21
-4.427490389072027
 31
0.0
  0
LINE
  5
501
330
4FF
100
AcDbEntity
  8
0
  6
Continuous
 62
     0
100
AcDbLine
 10
0.0
 20
0.0
 30
0.0
 11
-2.254821154985592
 21
-2.217156187522662
 31
0.0
  0
LINE
  5
502
330
4FF
100
AcDbEntity
  8
0
  6
Continuous
 62
     0
100
AcDbLine
 10
0.0
 20
0.0
 30
0.0
 11
-3.061310494923646
 21
-0.792703005236501
 31
0.0
  0
ENDBLK
  5
505
330
4FF
100
AcDbEntity
  8
0
100
AcDbBlockEnd
  0
BLOCK
  5
508
330
507
100
AcDbEntity
  8
0
100
AcDbBlockBegin
  2
*D54
 70
     1
 10
0.0
 20
0.0
 30
0.0
  3
*D54
  1

  0
LINE
  5
50A
330
507
100
AcDbEntity
  8
0
 62
     0
370
    -2
100
AcDbLine
 10
118.5559997558594
 20
-1.04
 30
0.0
 11
118.5559997558594
 21
-66.81191198730468
 31
0.0
  0
LINE
  5
50B
330
507
100
AcDbEntity
  8
0
 62
     0
370
    -2
100
AcDbLine
 10
110.5559997558594
 20
-65.31191198730468
 30
0.0
 11
115.5559997558594
 21
-65.31191198730468
 31
0.0
  0
INSERT
  5
50C
330
507
100
AcDbEntity
  8
0
 62
     0
370
    -2
100
AcDbBlockReference
  2
_OPEN30
 10
107.5559997558594
 20
-65.31191198730468
 30
0.0
 41
3.0
 42
3.0
 43
3.0
 50
180.0
  0
INSERT
  5
50D
330
507
100
AcDbEntity
  8
0
 62
     0
370
    -2
100
AcDbBlockReference
  2
_OPEN30
 10
118.5559997558594
 20
-65.31191198730468
 30
0.0
 41
3.0
 42
3.0
 43
3.0
  0
MTEXT
  5
50E
330
507
100
AcDbEntity
  8
0
 62
     1
 60
     1
100
AcDbMText
 10
113.0569997558594
 20
-62.9119119515419
 30
0.0
 40
3.200000047683716
 41
0.0
 71
     5
 72
     1
  1
11
 73
     1
 44
1.0
  0
POINT
  5
50F
330
507
100
AcDbEntity
  8
Defpoints
 62
     0
100
AcDbPoint
 10
107.5559997558594
 20
1.5
 30
0.0
  0
POINT
  5
510
330
507
100
AcDbEntity
  8
Defpoints
 62
     0
100
AcDbPoint
 10
118.5559997558594
 20
1.5
 30
0.0
  0
POINT
  5
511
330
507
100
AcDbEntity
  8
Defpoints
 62
     0
100
AcDbPoint
 10
118.5559997558594
 20
-65.31291198730469
 30
0.0
  0
MTEXT
  5
512
330
507
100
AcDbEntity
  8
0
 62
     1
100
AcDbMText
 10
110.3144001658822
 20
-64.50812575809222
 30
0.0
 40
3.200000047683716
 41
0.0
 71
     7
 72
     1
  1
\W1;11
 11
0.9999984769132877
 21
-0.001745328365898445
 31
0.0
 73
     1
 44
1.0
  0
ENDBLK
  5
509
330
507
100
AcDbEntity
  8
0
100
AcDbBlockEnd
  0
BLOCK
  5
515
330
514
100
AcDbEntity
  8
0
100
AcDbBlockBegin
  2
*D55
 70
     1
 10
0.0
 20
0.0
 30
0.0
  3
*D55
  1

  0
LINE
  5
517
330
514
100
AcDbEntity
  8
0
 62
     0
370
    -2
100
AcDbLine
 10
121.5559997558594
 20
-65.31191198730467
 30
0.0
 11
190.7560119628906
 21
-65.31191198730468
 31
0.0
  0
INSERT
  5
518
330
514
100
AcDbEntity
  8
0
 62
     0
370
    -2
100
AcDbBlockReference
  2
_OPEN30
 10
118.5559997558594
 20
-65.31191198730467
 30
0.0
 41
3.0
 42
3.0
 43
3.0
 50
180.0
  0
INSERT
  5
519
330
514
100
AcDbEntity
  8
0
 62
     0
370
    -2
100
AcDbBlockReference
  2
_OPEN30
 10
193.7560119628906
 20
-65.31191198730468
 30
0.0
 41
3.0
 42
3.0
 43
3.0
 50
360.0
  0
MTEXT
  5
51A
330
514
100
AcDbEntity
  8
0
 62
     1
 60
     1
100
AcDbMText
 10
156.157005859375
 20
-62.89111195123195
 30
0.0
 40
3.200000047683716
 41
0.0
 71
     5
 72
     1
  1
75.2
 73
     1
 44
1.0
  0
POINT
  5
51B
330
514
100
AcDbEntity
  8
Defpoints
 62
     0
100
AcDbPoint
 10
118.5559997558594
 20
1.5
 30
0.0
  0
POINT
  5
51C
330
514
100
AcDbEntity
  8
Defpoints
 62
     0
100
AcDbPoint
 10
193.7560119628906
 20
1.5
 30
0.0
  0
POINT
  5
51D
330
514
100
AcDbEntity
  8
Defpoints
 62
     0
100
AcDbPoint
 10
193.7560119628906
 20
-65.31291198730469
 30
0.0
  0
MTEXT
  5
51E
330
514
100
AcDbEntity
  8
0
 62
     1
100
AcDbMText
 10
150.2144110955917
 20
-64.50254070723813
 30
0.0
 40
3.200000047683716
 41
0.0
 71
     7
 72
     1
  1
\W1;75.2
 11
0.9999984769132877
 21
-0.001745328365898445
 31
0.0
 73
     1
 44
1.0
  0
ENDBLK
  5
516
330
514
100
AcDbEntity
  8
0
100
AcDbBlockEnd
  0
BLOCK
  5
521
330
520
100
AcDbEntity
  8
0
100
AcDbBlockBegin
  2
*D56
 70
     1
 10
0.0
 20
0.0
 30
0.0
  3
*D56
  1

  0
LINE
  5
523
330
520
100
AcDbEntity
  8
0
 62
     0
370
    -2
100
AcDbLine
 10
160.5559997558594
 20
-33.04
 30
0.0
 11
160.5559997558594
 21
-46.8619150390625
 31
0.0
  0
LINE
  5
524
330
520
100
AcDbEntity
  8
0
 62
     0
370
    -2
100
AcDbLine
 10
110.5559997558594
 20
-45.3619150390625
 30
0.0
 11
157.5559997558594
 21
-45.3619150390625
 31
0.0
  0
INSERT
  5
525
330
520
100
AcDbEntity
  8
0
 62
     0
370
    -2
100
AcDbBlockReference
  2
_OPEN30
 10
107.5559997558594
 20
-45.3619150390625
 30
0.0
 41
3.0
 42
3.0
 43
3.0
 50
180.0
  0
INSERT
  5
526
330
520
100
AcDbEntity
  8
0
 62
     0
370
    -2
100
AcDbBlockReference
  2
_OPEN30
 10
160.5559997558594
 20
-45.3619150390625
 30
0.0
 41
3.0
 42
3.0
 43
3.0
 50
360.0
  0
MTEXT
  5
527
330
520
100
AcDbEntity
  8
0
 62
     1
 60
     1
100
AcDbMText
 10
134.0569997558594
 20
-42.94751500308514
 30
0.0
 40
3.200000047683716
 41
0.0
 71
     5
 72
     1
  1
53
 73
     1
 44
1.0
  0
POINT
  5
528
330
520
100
AcDbEntity
  8
Defpoints
 62
     0
100
AcDbPoint
 10
107.5559997558594
 20
1.5
 30
0.0
  0
POINT
  5
529
330
520
100
AcDbEntity
  8
Defpoints
 62
     0
100
AcDbPoint
 10
160.5559997558594
 20
-30.5
 30
0.0
  0
POINT
  5
52A
330
520
100
AcDbEntity
  8
Defpoints
 62
     0
100
AcDbPoint
 10
160.5559997558594
 20
-45.3629150390625
 30
0.0
  0
MTEXT
  5
52B
330
520
100
AcDbEntity
  8
0
 62
     1
100
AcDbMText
 10
131.3144001658822
 20
-44.55812880985003
 30
0.0
 40
3.200000047683716
 41
0.0
 71
     7
 72
     1
  1
\W1;53
 11
0.9999984769132877
 21
-0.001745328365898445
 31
0.0
 73
     1
 44
1.0
  0
ENDBLK
  5
522
330
520
100
AcDbEntity
  8
0
100
AcDbBlockEnd
  0
BLOCK
  5
52E
330
52D
100
AcDbEntity
  8
0
100
AcDbBlockBegin
  2
*D57
 70
     1
 10
0.0
 20
0.0
 30
0.0
  3
*D57
  1

  0
LINE
  5
530
330
52D
100
AcDbEntity
  8
0
 62
     0
370
    -2
100
AcDbLine
 10
107.5559997558594
 20
-1.04
 30
0.0
 11
107.5559997558594
 21
-76.61191503906248
 31
0.0
  0
LINE
  5
531
330
52D
100
AcDbEntity
  8
0
 62
     0
370
    -2
100
AcDbLine
 10
193.7560119628906
 20
-1.04
 30
0.0
 11
193.7560119628906
 21
-76.6119150390625
 31
0.0
  0
LINE
  5
532
330
52D
100
AcDbEntity
  8
0
 62
     0
370
    -2
100
AcDbLine
 10
110.5559997558594
 20
-75.11191503906248
 30
0.0
 11
190.7560119628906
 21
-75.1119150390625
 31
0.0
  0
INSERT
  5
533
330
52D
100
AcDbEntity
  8
0
 62
     0
370
    -2
100
AcDbBlockReference
  2
_OPEN30
 10
107.5559997558594
 20
-75.11191503906248
 30
0.0
 41
3.0
 42
3.0
 43
3.0
 50
180.0
  0
INSERT
  5
534
330
52D
100
AcDbEntity
  8
0
 62
     0
370
    -2
100
AcDbBlockReference
  2
_OPEN30
 10
193.7560119628906
 20
-75.1119150390625
 30
0.0
 41
3.0
 42
3.0
 43
3.0
 50
360.0
  0
MTEXT
  5
535
330
52D
100
AcDbEntity
  8
0
 62
     1
 60
     1
100
AcDbMText
 10
150.657005859375
 20
-72.69111500298976
 30
0.0
 40
3.200000047683716
 41
0.0
 71
     5
 72
     1
  1
86.2
 73
     1
 44
1.0
  0
POINT
  5
536
330
52D
100
AcDbEntity
  8
Defpoints
 62
     0
100
AcDbPoint
 10
107.5559997558594
 20
1.5
 30
0.0
  0
POINT
  5
537
330
52D
100
AcDbEntity
  8
Defpoints
 62
     0
100
AcDbPoint
 10
193.7560119628906
 20
1.5
 30
0.0
  0
POINT
  5
538
330
52D
100
AcDbEntity
  8
Defpoints
 62
     0
100
AcDbPoint
 10
193.7560119628906
 20
-75.1129150390625
 30
0.0
  0
MTEXT
  5
539
330
52D
100
AcDbEntity
  8
0
 62
     1
100
AcDbMText
 10
144.7144110955917
 20
-74.30254375899594
 30
0.0
 40
3.200000047683716
 41
0.0
 71
     7
 72
     1
  1
\W1;86.2
 11
0.9999984769132877
 21
-0.001745328365898445
 31
0.0
 73
     1
 44
1.0
  0
ENDBLK
  5
52F
330
52D
100
AcDbEntity
  8
0
100
AcDbBlockEnd
  0
BLOCK
  5
53C
330
53B
100
AcDbEntity
  8
0
100
AcDbBlockBegin
  2
_OPEN
 70
     0
 10
0.0
 20
0.0
 30
0.0
  3
_OPEN
  1

  0
LINE
  5
53E
330
53B
100
AcDbEntity
  8
0
  6
ByBlock
 62
     0
370
    -2
100
AcDbLine
 10
-1.0
 20
0.166667
 30
0.0
 11
0.0
 21
0.0
 31
0.0
  0
LINE
  5
53F
330
53B
100
AcDbEntity
  8
0
  6
ByBlock
 62
     0
370
    -2
100
AcDbLine
 10
-1.0
 20
-0.166667
 30
0.0
 11
0.0
 21
0.0
 31
0.0
  0
LINE
  5
540
330
53B
100
AcDbEntity
  8
0
  6
ByBlock
 62
     0
370
    -2
100
AcDbLine
 10
0.0
 20
0.0
 30
0.0
 11
-1.0
 21
0.0
 31
0.0
  0
ENDBLK
  5
53D
330
53B
100
AcDbEntity
  8
0
100
AcDbBlockEnd
  0
BLOCK
  5
542
330
541
100
AcDbEntity
  8
0
100
AcDbBlockBegin
  2
*D59
 70
     1
 10
0.0
 20
0.0
 30
0.0
  3
*D59
  1

  0
LINE
  5
544
330
541
100
AcDbEntity
  8
0
 62
     0
370
    -2
100
AcDbLine
 10
122.5559997558594
 20
-17.04
 30
0.0
 11
122.5559997558594
 21
-55.96191351318359
 31
0.0
  0
LINE
  5
545
330
541
100
AcDbEntity
  8
0
 62
     0
370
    -2
100
AcDbLine
 10
198.5559692382812
 20
-17.04
 30
0.0
 11
198.5559692382812
 21
-55.9619135131836
 31
0.0
  0
LINE
  5
546
330
541
100
AcDbEntity
  8
0
 62
     0
370
    -2
100
AcDbLine
 10
125.6699997558594
 20
-54.46191351318359
 30
0.0
 11
195.4419692382812
 21
-54.4619135131836
 31
0.0
  0
INSERT
  5
547
330
541
100
AcDbEntity
  8
0
 62
     0
370
    -2
100
AcDbBlockReference
  2
_OPEN
 10
122.5559997558594
 20
-54.46191351318359
 30
0.0
 41
3.114
 42
3.114
 43
3.114
 50
180.0
  0
INSERT
  5
548
330
541
100
AcDbEntity
  8
0
 62
     0
370
    -2
100
AcDbBlockReference
  2
_OPEN30
 10
198.5559692382812
 20
-54.4619135131836
 30
0.0
 41
3.114
 42
3.114
 43
3.114
 50
360.0
  0
MTEXT
  5
549
330
541
100
AcDbEntity
  8
0
 62
     1
 60
     1
100
AcDbMText
 10
160.5569692382813
 20
-52.04751347720623
 30
0.0
 40
3.200000047683716
 41
0.0
 71
     5
 72
     1
  1
\U+220576
 73
     1
 44
1.0
  0
POINT
  5
54A
330
541
100
AcDbEntity
  8
Defpoints
 62
     0
100
AcDbPoint
 10
122.5559997558594
 20
-14.5
 30
0.0
  0
POINT
  5
54B
330
541
100
AcDbEntity
  8
Defpoints
 62
     0
100
AcDbPoint
 10
198.5559692382812
 20
-14.5
 30
0.0
  0
POINT
  5
54C
330
541
100
AcDbEntity
  8
Defpoints
 62
     0
100
AcDbPoint
 10
198.5559692382812
 20
-54.46291351318359
 30
0.0
  0
MTEXT
  5
54D
330
541
100
AcDbEntity
  8
0
 62
     1
100
AcDbMText
 10
156.214372061401
 20
-53.65533475854409
 30
0.0
 40
3.200000047683716
 41
0.0
 71
     7
 72
     1
  1
\W1;\U+220576
 11
0.9999984769132877
 21
-0.001745328365898445
 31
0.0
 73
     1
 44
1.0
  0
ENDBLK
  5
543
330
541
100
AcDbEntity
  8
0
100
AcDbBlockEnd
  0
BLOCK
  5
555
330
54E
100
AcDbEntity
  8
0
100
AcDbBlockBegin
  2
SYM0011
 70
     0
 10
0.0
 20
0.0
 30
0.0
  3
SYM0011
  1

  0
LINE
  5
54F
330
54E
100
AcDbEntity
  8
0
  6
Continuous
 62
     0
100
AcDbLine
 10
0.0
 20
0.0
 30
0.0
 11
22.97589639512509
 21
-41.12492031936245
 31
0.0
  0
LINE
  5
550
330
54E
100
AcDbEntity
  8
0
  6
Continuous
 62
     0
100
AcDbLine
 10
0.0
 20
0.0
 30
0.0
 11
2.204291652041945
 21
-2.267399019488815
 31
0.0
  0
LINE
  5
551
330
54E
100
AcDbEntity
  8
0
  6
Continuous
 62
     0
100
AcDbLine
 10
0.0
 20
0.0
 30
0.0
 11
0.775273058450978
 21
-3.06577097736943
 31
0.0
  0
LINE
  5
552
330
54E
100
AcDbEntity
  8
0
  6
Continuous
 62
     0
100
AcDbLine
 10
22.97592652280051
 20
-41.12490433563194
 30
0.0
 11
41.26202881772238
 21
-41.12490433563194
 31
0.0
  0
MTEXT
  5
553
330
54E
100
AcDbEntity
  8
0
 62
     1
100
AcDbMText
 10
24.2935364289971
 20
-40.12490433563194
 30
0.0
 40
4.0
 41
0.0
 71
     7
 72
     1
  1
{\W0.833333;勾配1゜}
 73
     1
 44
1.0
  0
ENDBLK
  5
556
330
54E
100
AcDbEntity
  8
0
100
AcDbBlockEnd
  0
BLOCK
  5
55E
330
557
100
AcDbEntity
  8
0
100
AcDbBlockBegin
  2
SYM0012
 70
     0
 10
0.0
 20
0.0
 30
0.0
  3
SYM0012
  1

  0
LINE
  5
558
330
557
100
AcDbEntity
  8
0
  6
Continuous
 62
     0
100
AcDbLine
 10
0.0
 20
0.0
 30
0.0
 11
-21.91557074527361
 21
-49.95849936354475
 31
0.0
  0
LINE
  5
559
330
557
100
AcDbEntity
  8
0
  6
Continuous
 62
     0
100
AcDbLine
 10
0.0
 20
0.0
 30
0.0
 11
-0.477558634109585
 21
-3.126009877116195
 31
0.0
  0
LINE
  5
55A
330
557
100
AcDbEntity
  8
0
  6
Continuous
 62
     0
100
AcDbLine
 10
0.0
 20
0.0
 30
0.0
 11
-1.976582847351011
 21
-2.468424649123073
 31
0.0
  0
LINE
  5
55B
330
557
100
AcDbEntity
  8
0
  6
Continuous
 62
     0
100
AcDbLine
 10
-21.91556638601878
 20
-49.95850086039671
 30
0.0
 11
-36.20166868094066
 21
-49.95850086039671
 31
0.0
  0
MTEXT
  5
55C
330
557
100
AcDbEntity
  8
0
 62
     1
100
AcDbMText
 10
-34.26551181200603
 20
-48.95850086039671
 30
0.0
 40
4.0
 41
0.0
 71
     7
 72
     1
  1
{\W0.833333;基準点}
 73
     1
 44
1.0
  0
ENDBLK
  5
55F
330
557
100
AcDbEntity
  8
0
100
AcDbBlockEnd
  0
BLOCK
  5
567
330
560
100
AcDbEntity
  8
0
100
AcDbBlockBegin
  2
SYM0013
 70
     0
 10
0.0
 20
0.0
 30
0.0
  3
SYM0013
  1

  0
LINE
  5
561
330
560
100
AcDbEntity
  8
0
  6
Continuous
 62
     0
100
AcDbLine
 10
0.0
 20
0.0
 30
0.0
 11
29.09838982739439
 21
-86.1754437004397
 31
0.0
  0
LINE
  5
562
330
560
100
AcDbEntity
  8
0
  6
Continuous
 62
     0
100
AcDbLine
 10
0.0
 20
0.0
 30
0.0
 11
1.752643170883658
 21
-2.632155374668354
 31
0.0
  0
LINE
  5
563
330
560
100
AcDbEntity
  8
0
  6
Continuous
 62
     0
100
AcDbLine
 10
0.0
 20
0.0
 30
0.0
 11
0.201755822602678
 21
-3.155835006600714
 31
0.0
  0
LINE
  5
564
330
560
100
AcDbEntity
  8
0
  6
Continuous
 62
     0
100
AcDbLine
 10
29.09838630339812
 20
-86.17544985566039
 30
0.0
 11
49.39083625456999
 21
-86.17544985566039
 31
0.0
  0
MTEXT
  5
565
330
560
100
AcDbEntity
  8
0
 62
     1
100
AcDbMText
 10
33.39081920764158
 20
-85.17544985566039
 30
0.0
 40
4.0
 41
0.0
 71
     7
 72
     1
  1
{\W0.833333;勾配1゜}
 73
     1
 44
1.0
  0
ENDBLK
  5
568
330
560
100
AcDbEntity
  8
0
100
AcDbBlockEnd
  0
BLOCK
  5
56B
330
56A
100
AcDbEntity
  8
0
100
AcDbBlockBegin
  2
*D63
 70
     1
 10
0.0
 20
0.0
 30
0.0
  3
*D63
  1

  0
MTEXT
  5
571
330
56A
100
AcDbEntity
  8
0
 62
     1
100
AcDbMText
 10
119.0003762324116
 20
53.22011157997016
 30
0.0
 40
3.200000047683716
 41
0.0
 71
     5
 72
     1
  1
7.9
 11
0.9961937827450026
 21
0.08716620457609965
 31
0.0
 73
     1
 44
1.0
  0
POINT
  5
572
330
56A
100
AcDbEntity
  8
Defpoints
 62
     0
100
AcDbPoint
 10
95.27820722524376
 20
51.19715766255357
 30
0.0
  0
POINT
  5
573
330
56A
100
AcDbEntity
  8
Defpoints
 62
     0
100
AcDbPoint
 10
103.1479336470759
 20
51.88575278844681
 30
0.0
  0
POINT
  5
574
330
56A
100
AcDbEntity
  8
Defpoints
 62
     0
100
AcDbPoint
 10
103.3635879448081
 20
49.42111099673531
 30
0.0
  0
LINE
  5
575
330
56A
100
AcDbEntity
  8
0
  6
Continuous
 62
     0
100
AcDbLine
 10
89.16778689818247
 20
48.1791399758575
 30
0.0
 11
109.6893916789931
 21
49.97454682540474
 31
0.0
  0
LINE
  5
576
330
56A
100
AcDbEntity
  8
0
  6
Continuous
 62
     0
100
AcDbLine
 10
95.49362325585183
 20
48.73257865899083
 30
0.0
 11
92.52205422511955
 21
47.65101613355206
 31
0.0
  0
LINE
  5
577
330
56A
100
AcDbEntity
  8
0
  6
Continuous
 62
     0
100
AcDbLine
 10
95.49362325585183
 20
48.73257865899083
 30
0.0
 11
92.37938772338748
 21
49.28170255136587
 31
0.0
  0
LINE
  5
578
330
56A
100
AcDbEntity
  8
0
  6
Continuous
 62
     0
100
AcDbLine
 10
103.3635553213238
 20
49.42110814227141
 30
0.0
 11
106.3351243520561
 21
50.50267066771018
 31
0.0
  0
LINE
  5
579
330
56A
100
AcDbEntity
  8
0
  6
Continuous
 62
     0
100
AcDbLine
 10
103.3635553213238
 20
49.42110814227141
 30
0.0
 11
106.4777908537881
 21
48.87198424989637
 31
0.0
  0
LINE
  5
57A
330
56A
100
AcDbEntity
  8
0
  6
Continuous
 62
     0
100
AcDbLine
 10
103.3635548858248
 20
49.42110284347286
 30
0.0
 11
123.5369231822228
 21
51.18604341675597
 31
0.0
  0
ENDBLK
  5
56C
330
56A
100
AcDbEntity
  8
0
100
AcDbBlockEnd
  0
BLOCK
  5
582
330
57B
100
AcDbEntity
  8
0
100
AcDbBlockBegin
  2
SYM0014
 70
     0
 10
0.0
 20
0.0
 30
0.0
  3
SYM0014
  1

  0
LINE
  5
57C
330
57B
100
AcDbEntity
  8
0
  6
Continuous
 62
     0
100
AcDbLine
 10
0.0
 20
0.0
 30
0.0
 11
31.73779282527985
 21
46.30137758175928
 31
0.0
  0
LINE
  5
57D
330
57B
100
AcDbEntity
  8
0
  6
Continuous
 62
     0
100
AcDbLine
 10
0.0
 20
0.0
 30
0.0
 11
1.051901578465817
 21
2.982197691311185
 31
0.0
  0
LINE
  5
57E
330
57B
100
AcDbEntity
  8
0
  6
Continuous
 62
     0
100
AcDbLine
 10
0.0
 20
0.0
 30
0.0
 11
2.402072334769144
 21
2.056708170688623
 31
0.0
  0
LINE
  5
57F
330
57B
100
AcDbEntity
  8
0
  6
Continuous
 62
     0
100
AcDbLine
 10
31.73777724123573
 20
46.3013709889148
 30
0.0
 11
-16.55470322751427
 21
46.3013709889148
 31
0.0
  0
MTEXT
  5
580
330
57B
100
AcDbEntity
  8
0
 62
     1
100
AcDbMText
 10
-15.4121874489727
 20
47.3013709889148
 30
0.0
 40
4.0
 41
0.0
 71
     7
 72
     1
  1
{\W0.833333;ﾏ-ｸ及び表示文字彫刻}
 73
     1
 44
1.0
  0
ENDBLK
  5
583
330
57B
100
AcDbEntity
  8
0
100
AcDbBlockEnd
  0
BLOCK
  5
586
330
585
100
AcDbEntity
  8
0
100
AcDbBlockBegin
  2
*D65
 70
     1
 10
0.0
 20
0.0
 30
0.0
  3
*D65
  1

  0
MTEXT
  5
58D
330
585
100
AcDbEntity
  8
0
 62
     1
100
AcDbMText
 10
68.07526656579972
 20
-5.7983999820948
 30
0.0
 40
3.200000047683716
 41
0.0
 71
     5
 72
     1
  1
1
 11
0.0
 21
1.0
 31
0.0
 73
     1
 44
1.0
  0
POINT
  5
58E
330
585
100
AcDbEntity
  8
Defpoints
 62
     0
100
AcDbPoint
 10
160.5559997558594
 20
-13.0
 30
0.0
  0
POINT
  5
58F
330
585
100
AcDbEntity
  8
Defpoints
 62
     0
100
AcDbPoint
 10
122.5560607910156
 20
-14.0
 30
0.0
  0
POINT
  5
590
330
585
100
AcDbEntity
  8
Defpoints
 62
     0
100
AcDbPoint
 10
70.4732666015625
 20
-14.00000000000002
 30
0.0
  0
LINE
  5
591
330
585
100
AcDbEntity
  8
0
  6
Continuous
 62
     0
100
AcDbLine
 10
70.4732666015625
 20
-6.65
 30
0.0
 11
70.4732666015625
 21
-14.0
 31
0.0
  0
LINE
  5
592
330
585
100
AcDbEntity
  8
0
  6
Continuous
 62
     0
100
AcDbLine
 10
70.4732666015625
 20
-13.0
 30
0.0
 11
69.6548089172625
 21
-9.945474337994376
 31
0.0
  0
LINE
  5
593
330
585
100
AcDbEntity
  8
0
  6
Continuous
 62
     0
100
AcDbLine
 10
70.4732666015625
 20
-13.0
 30
0.0
 11
71.2917242858625
 21
-9.945474337994376
 31
0.0
  0
LINE
  5
594
330
585
100
AcDbEntity
  8
0
  6
Continuous
 62
     0
100
AcDbLine
 10
70.4732666015625
 20
-13.0
 30
0.0
 11
70.4732666015625
 21
-6.521053314208984
 31
0.0
  0
ENDBLK
  5
587
330
585
100
AcDbEntity
  8
0
100
AcDbBlockEnd
  0
BLOCK
  5
597
330
596
100
AcDbEntity
  8
0
100
AcDbBlockBegin
  2
*D66
 70
     1
 10
0.0
 20
0.0
 30
0.0
  3
*D66
  1

  0
LINE
  5
599
330
596
100
AcDbEntity
  8
0
 62
     0
370
    -2
100
AcDbLine
 10
120.0160607910156
 20
-14.70000076293945
 30
0.0
 11
68.97526660156251
 21
-14.70000076293947
 31
0.0
  0
LINE
  5
59A
330
596
100
AcDbEntity
  8
0
 62
     0
370
    -2
100
AcDbLine
 10
70.47526660156251
 20
-17.70000076293947
 30
0.0
 11
70.47526660156251
 21
-22.69999694824221
 31
0.0
  0
INSERT
  5
59B
330
596
100
AcDbEntity
  8
0
 62
     0
370
    -2
100
AcDbBlockReference
  2
_OPEN30
 10
70.47526660156251
 20
-14.70000076293947
 30
0.0
 41
3.0
 42
3.0
 43
3.0
 50
90.0
  0
INSERT
  5
59C
330
596
100
AcDbEntity
  8
0
 62
     0
370
    -2
100
AcDbBlockReference
  2
_OPEN30
 10
70.47526660156251
 20
-25.69999694824221
 30
0.0
 41
3.0
 42
3.0
 43
3.0
 50
270.0
  0
MTEXT
  5
59D
330
596
100
AcDbEntity
  8
0
 62
     1
100
AcDbMText
 10
68.07526656579972
 20
-20.19900076293945
 30
0.0
 40
3.200000047683716
 41
0.0
 71
     5
 72
     1
  1
11
 11
0.0
 21
1.0
 31
0.0
 73
     1
 44
1.0
  0
POINT
  5
59E
330
596
100
AcDbEntity
  8
Defpoints
 62
     0
100
AcDbPoint
 10
122.5560607910156
 20
-14.70000076293945
 30
0.0
  0
POINT
  5
59F
330
596
100
AcDbEntity
  8
Defpoints
 62
     0
100
AcDbPoint
 10
131.2961730957031
 20
-25.69999694824219
 30
0.0
  0
POINT
  5
5A0
330
596
100
AcDbEntity
  8
Defpoints
 62
     0
100
AcDbPoint
 10
70.4732666015625
 20
-25.69999694824221
 30
0.0
  0
ENDBLK
  5
598
330
596
100
AcDbEntity
  8
0
100
AcDbBlockEnd
  0
BLOCK
  5
5A3
330
5A2
100
AcDbEntity
  8
0
100
AcDbBlockBegin
  2
*D67
 70
     1
 10
0.0
 20
0.0
 30
0.0
  3
*D67
  1

  0
MTEXT
  5
5AD
330
5A2
100
AcDbEntity
  8
0
 62
     1
100
AcDbMText
 10
151.9726214715242
 20
12.89347181609421
 30
0.0
 40
2.799999952316284
 41
0.0
 71
     5
 72
     1
  1
2
 11
0.0
 21
1.0
 31
0.0
 73
     1
 44
1.0
  0
POINT
  5
5AE
330
5A2
100
AcDbEntity
  8
Defpoints
 62
     0
100
AcDbPoint
 10
160.5558734752262
 20
1.500039147381713
 30
0.0
  0
POINT
  5
5AF
330
5A2
100
AcDbEntity
  8
Defpoints
 62
     0
100
AcDbPoint
 10
160.5559871446573
 20
-0.50000596593317
 30
0.0
  0
POINT
  5
5B0
330
5A2
100
AcDbEntity
  8
Defpoints
 62
     0
100
AcDbPoint
 10
154.0832214355469
 20
3.237047058623097
 30
0.0
  0
LINE
  5
5B1
330
5A2
100
AcDbEntity
  8
0
  6
Continuous
 62
     0
100
AcDbLine
 10
158.3561685509338
 20
2.770038456847615
 30
0.0
 11
152.5832212312372
 21
6.103048729557784
 31
0.0
  0
LINE
  5
5B2
330
5A2
100
AcDbEntity
  8
0
  6
Continuous
 62
     0
100
AcDbLine
 10
158.3562834081669
 20
0.769995400865426
 30
0.0
 11
152.5832070608183
 21
4.103087366905967
 31
0.0
  0
LINE
  5
5B3
330
5A2
100
AcDbEntity
  8
0
  6
Continuous
 62
     0
100
AcDbLine
 10
154.0832214355469
 20
11.58700714111328
 30
0.0
 11
154.0832214355469
 21
-3.112943267822265
 31
0.0
  0
LINE
  5
5B4
330
5A2
100
AcDbEntity
  8
0
  6
Continuous
 62
     0
100
AcDbLine
 10
154.0832214355469
 20
5.237007141113281
 30
0.0
 11
153.2647637512469
 21
8.291532803118905
 31
0.0
  0
LINE
  5
5B5
330
5A2
100
AcDbEntity
  8
0
  6
Continuous
 62
     0
100
AcDbLine
 10
154.0832214355469
 20
5.237007141113281
 30
0.0
 11
154.9016791198469
 21
8.291532803118905
 31
0.0
  0
LINE
  5
5B6
330
5A2
100
AcDbEntity
  8
0
  6
Continuous
 62
     0
100
AcDbLine
 10
154.0832214355469
 20
3.237056732177734
 30
0.0
 11
154.6322214355469
 21
0.123056732177734
 31
0.0
  0
LINE
  5
5B7
330
5A2
100
AcDbEntity
  8
0
  6
Continuous
 62
     0
100
AcDbLine
 10
154.0832214355469
 20
3.237056732177734
 30
0.0
 11
153.5342214355469
 21
0.123056732177734
 31
0.0
  0
LINE
  5
5B8
330
5A2
100
AcDbEntity
  8
0
  6
Continuous
 62
     0
100
AcDbLine
 10
154.0832214355469
 20
5.237007141113281
 30
0.0
 11
154.0832214355469
 21
9.57889175415039
 31
0.0
  0
ENDBLK
  5
5A4
330
5A2
100
AcDbEntity
  8
0
100
AcDbBlockEnd
  0
BLOCK
  5
5BB
330
5BA
100
AcDbEntity
  8
0
100
AcDbBlockBegin
  2
*D68
 70
     1
 10
0.0
 20
0.0
 30
0.0
  3
*D68
  1

  0
POINT
  5
5C1
330
5BA
100
AcDbEntity
  8
Defpoints
 62
     0
100
AcDbPoint
 10
198.1821788759071
 20
-10.54314210214866
 30
0.0
  0
POINT
  5
5C2
330
5BA
100
AcDbEntity
  8
Defpoints
 62
     0
100
AcDbPoint
 10
198.6223621118014
 20
-10.78028914269038
 30
0.0
  0
LINE
  5
5C3
330
5BA
100
AcDbEntity
  8
0
  6
Continuous
 62
     0
100
AcDbLine
 10
198.1821788759071
 20
-10.54314210214866
 30
0.0
 11
198.6223621118014
 21
-10.78028914269038
 31
0.0
  0
LINE
  5
5C4
330
5BA
100
AcDbEntity
  8
0
  6
Continuous
 62
     0
100
AcDbLine
 10
198.6223621118014
 20
-10.78028914269038
 30
0.0
 11
195.5450704964735
 21
-10.052088404519
 31
0.0
  0
LINE
  5
5C5
330
5BA
100
AcDbEntity
  8
0
  6
Continuous
 62
     0
100
AcDbLine
 10
198.6223621118014
 20
-10.78028914269038
 30
0.0
 11
196.321449767035
 21
-8.61100299684834
 31
0.0
  0
LINE
  5
5C6
330
5BA
100
AcDbEntity
  8
0
  6
Continuous
 62
     0
100
AcDbLine
 10
198.1821899039004
 20
-10.54313832409592
 30
0.0
 11
188.6141026698601
 21
-5.388397773255477
 31
0.0
  0
MTEXT
  5
5C7
330
5BA
100
AcDbEntity
  8
0
 62
     1
100
AcDbMText
 10
188.9147138349198
 20
-4.832449273540075
 30
0.0
 40
2.5
 41
0.0
 71
     7
 72
     1
  1
\W1;R0.5
 11
0.8796485728666167
 21
-0.4756242090702749
 31
0.0
 73
     1
 44
1.0
  0
ENDBLK
  5
5BC
330
5BA
100
AcDbEntity
  8
0
100
AcDbBlockEnd
  0
BLOCK
  5
5CA
330
5C9
100
AcDbEntity
  8
0
100
AcDbBlockBegin
  2
*D69
 70
     1
 10
0.0
 20
0.0
 30
0.0
  3
*D69
  1

  0
LINE
  5
5CE
330
5C9
100
AcDbEntity
  8
0
 62
     0
370
    -2
100
AcDbLine
 10
158.0160607910156
 20
-3.700000762939454
 30
0.0
 11
58.18467712402344
 21
-3.700000762939492
 31
0.0
  0
LINE
  5
5CF
330
5C9
100
AcDbEntity
  8
0
 62
     0
370
    -2
100
AcDbLine
 10
59.68467712402344
 20
0.499999999999982
 30
0.0
 11
59.68467712402344
 21
-3.700000762939492
 31
0.0
  0
INSERT
  5
5D0
330
5C9
100
AcDbEntity
  8
0
 62
     0
370
    -2
100
AcDbBlockReference
  2
_ORIGIN
 10
59.68467712402344
 20
1.499999999999982
 30
0.0
 50
90.0
  0
INSERT
  5
5D1
330
5C9
100
AcDbEntity
  8
0
 62
     0
370
    -2
100
AcDbBlockReference
  2
_NONE
 10
59.68467712402344
 20
-3.700000762939492
 30
0.0
 50
270.0
  0
MTEXT
  5
5D2
330
5C9
100
AcDbEntity
  8
0
 62
     1
100
AcDbMText
 10
69.61016845703125
 20
17.79759216308594
 30
0.0
 40
3.200000047683716
 41
0.0
 71
     8
 72
     1
  1
5.2
 11
0.0
 21
1.0
 31
0.0
 73
     1
 44
1.0
  0
POINT
  5
5D3
330
5C9
100
AcDbEntity
  8
Defpoints
 62
     0
100
AcDbPoint
 10
107.5560607910156
 20
1.5
 30
0.0
  0
POINT
  5
5D4
330
5C9
100
AcDbEntity
  8
Defpoints
 62
     0
100
AcDbPoint
 10
160.5560607910156
 20
-3.700000762939453
 30
0.0
  0
POINT
  5
5D5
330
5C9
100
AcDbEntity
  8
Defpoints
 62
     0
100
AcDbPoint
 10
59.68467712402344
 20
-3.700000762939492
 30
0.0
  0
LINE
  5
5D6
330
5C9
100
AcDbEntity
  8
0
  6
Continuous
 62
     0
100
AcDbLine
 10
59.68467796110463
 20
-1.100001844901801
 30
0.0
 11
69.61016110186821
 21
4.630493100769694
 31
0.0
  0
LINE
  5
5D7
330
5C9
100
AcDbEntity
  8
0
  6
Continuous
 62
     0
100
AcDbLine
 10
69.61016845703125
 20
4.630500793457031
 30
0.0
 11
69.61016845703125
 21
22.14059257507324
 31
0.0
  0
ENDBLK
  5
5CB
330
5C9
100
AcDbEntity
  8
0
100
AcDbBlockEnd
  0
BLOCK
  5
5DA
330
5D9
100
AcDbEntity
  8
0
100
AcDbBlockBegin
  2
*D70
 70
     1
 10
0.0
 20
0.0
 30
0.0
  3
*D70
  1

  0
LINE
  5
5DC
330
5D9
100
AcDbEntity
  8
0
 62
     0
370
    -2
100
AcDbLine
 10
158.0159997558594
 20
-13.70000076293945
 30
0.0
 11
58.18667712402344
 21
-13.70000076293949
 31
0.0
  0
LINE
  5
5DD
330
5D9
100
AcDbEntity
  8
0
 62
     0
370
    -2
100
AcDbLine
 10
59.68667712402343
 20
-6.700000762939492
 30
0.0
 11
59.68667712402344
 21
-10.70000076293949
 31
0.0
  0
INSERT
  5
5DE
330
5D9
100
AcDbEntity
  8
0
 62
     0
370
    -2
100
AcDbBlockReference
  2
_OPEN30
 10
59.68667712402343
 20
-3.700000762939492
 30
0.0
 41
3.0
 42
3.0
 43
3.0
 50
90.00000000000004
  0
INSERT
  5
5DF
330
5D9
100
AcDbEntity
  8
0
 62
     0
370
    -2
100
AcDbBlockReference
  2
_OPEN30
 10
59.68667712402344
 20
-13.70000076293949
 30
0.0
 41
3.0
 42
3.0
 43
3.0
 50
270.0000000000001
  0
MTEXT
  5
5E0
330
5D9
100
AcDbEntity
  8
0
 62
     1
100
AcDbMText
 10
57.27227708804607
 20
-8.699000762939455
 30
0.0
 40
3.200000047683716
 41
0.0
 71
     5
 72
     1
  1
10
 11
-7.105427357601002E-16
 21
1.0
 31
0.0
 73
     1
 44
1.0
  0
POINT
  5
5E1
330
5D9
100
AcDbEntity
  8
Defpoints
 62
     0
100
AcDbPoint
 10
160.5560607910156
 20
-3.700000762939453
 30
0.0
  0
POINT
  5
5E2
330
5D9
100
AcDbEntity
  8
Defpoints
 62
     0
100
AcDbPoint
 10
160.5559997558594
 20
-13.70000076293945
 30
0.0
  0
POINT
  5
5E3
330
5D9
100
AcDbEntity
  8
Defpoints
 62
     0
100
AcDbPoint
 10
59.68467712402344
 20
-13.70000076293949
 30
0.0
  0
ENDBLK
  5
5DB
330
5D9
100
AcDbEntity
  8
0
100
AcDbBlockEnd
  0
BLOCK
  5
5E6
330
5E5
100
AcDbEntity
  8
0
100
AcDbBlockBegin
  2
*D71
 70
     1
 10
0.0
 20
0.0
 30
0.0
  3
*D71
  1

  0
LINE
  5
5E8
330
5E5
100
AcDbEntity
  8
0
 62
     0
370
    -2
100
AcDbLine
 10
59.68667712402343
 20
-16.7000007629395
 30
0.0
 11
59.68667712402344
 21
-22.69999694824222
 31
0.0
  0
INSERT
  5
5E9
330
5E5
100
AcDbEntity
  8
0
 62
     0
370
    -2
100
AcDbBlockReference
  2
_OPEN30
 10
59.68667712402343
 20
-13.70000076293949
 30
0.0
 41
3.0
 42
3.0
 43
3.0
 50
90.00000000000004
  0
INSERT
  5
5EA
330
5E5
100
AcDbEntity
  8
0
 62
     0
370
    -2
100
AcDbBlockReference
  2
_OPEN30
 10
59.68667712402344
 20
-25.69999694824222
 30
0.0
 41
3.0
 42
3.0
 43
3.0
 50
270.0000000000001
  0
MTEXT
  5
5EB
330
5E5
100
AcDbEntity
  8
0
 62
     1
100
AcDbMText
 10
57.27227708804607
 20
-19.69899694824219
 30
0.0
 40
3.200000047683716
 41
0.0
 71
     5
 72
     1
  1
12
 11
-5.921191346963544E-16
 21
1.0
 31
0.0
 73
     1
 44
1.0
  0
POINT
  5
5EC
330
5E5
100
AcDbEntity
  8
Defpoints
 62
     0
100
AcDbPoint
 10
160.5559997558594
 20
-13.70000076293945
 30
0.0
  0
POINT
  5
5ED
330
5E5
100
AcDbEntity
  8
Defpoints
 62
     0
100
AcDbPoint
 10
131.2961730957031
 20
-25.69999694824219
 30
0.0
  0
POINT
  5
5EE
330
5E5
100
AcDbEntity
  8
Defpoints
 62
     0
100
AcDbPoint
 10
59.68467712402344
 20
-25.69999694824222
 30
0.0
  0
ENDBLK
  5
5E7
330
5E5
100
AcDbEntity
  8
0
100
AcDbBlockEnd
  0
BLOCK
  5
5F1
330
5F0
100
AcDbEntity
  8
0
100
AcDbBlockBegin
  2
*D72
 70
     1
 10
0.0
 20
0.0
 30
0.0
  3
*D72
  1

  0
LINE
  5
5F3
330
5F0
100
AcDbEntity
  8
0
 62
     0
370
    -2
100
AcDbLine
 10
48.89759936523437
 20
-1.500000000000025
 30
0.0
 11
48.89759936523438
 21
-22.69999694824222
 31
0.0
  0
INSERT
  5
5F4
330
5F0
100
AcDbEntity
  8
0
 62
     0
370
    -2
100
AcDbBlockReference
  2
_OPEN30
 10
48.89759936523437
 20
1.499999999999975
 30
0.0
 41
3.0
 42
3.0
 43
3.0
 50
90.00000000000001
  0
INSERT
  5
5F5
330
5F0
100
AcDbEntity
  8
0
 62
     0
370
    -2
100
AcDbBlockReference
  2
_OPEN30
 10
48.89759936523438
 20
-25.69999694824222
 30
0.0
 41
3.0
 42
3.0
 43
3.0
 50
270.0
  0
MTEXT
  5
5F6
330
5F0
100
AcDbEntity
  8
0
 62
     1
100
AcDbMText
 10
46.47679932916164
 20
-12.09899847412109
 30
0.0
 40
3.200000047683716
 41
0.0
 71
     5
 72
     1
  1
27.2
 11
-2.612289762797268E-16
 21
1.0
 31
0.0
 73
     1
 44
1.0
  0
POINT
  5
5F7
330
5F0
100
AcDbEntity
  8
Defpoints
 62
     0
100
AcDbPoint
 10
107.5560607910156
 20
1.5
 30
0.0
  0
POINT
  5
5F8
330
5F0
100
AcDbEntity
  8
Defpoints
 62
     0
100
AcDbPoint
 10
131.2961730957031
 20
-25.69999694824219
 30
0.0
  0
POINT
  5
5F9
330
5F0
100
AcDbEntity
  8
Defpoints
 62
     0
100
AcDbPoint
 10
48.89559936523438
 20
-25.69999694824222
 30
0.0
  0
ENDBLK
  5
5F2
330
5F0
100
AcDbEntity
  8
0
100
AcDbBlockEnd
  0
BLOCK
  5
5FC
330
5FB
100
AcDbEntity
  8
0
100
AcDbBlockBegin
  2
*D73
 70
     1
 10
0.0
 20
0.0
 30
0.0
  3
*D73
  1

  0
LINE
  5
5FE
330
5FB
100
AcDbEntity
  8
0
 62
     0
370
    -2
100
AcDbLine
 10
81.30158325195312
 20
76.60005187988281
 30
0.0
 11
36.17721667480466
 21
76.60005187988281
 31
0.0
  0
LINE
  5
5FF
330
5FB
100
AcDbEntity
  8
0
 62
     0
370
    -2
100
AcDbLine
 10
128.7561730957031
 20
-25.69999694824219
 30
0.0
 11
36.1772166748047
 21
-25.69999694824219
 31
0.0
  0
LINE
  5
600
330
5FB
100
AcDbEntity
  8
0
 62
     0
370
    -2
100
AcDbLine
 10
37.67721667480466
 20
73.60005187988281
 30
0.0
 11
37.6772166748047
 21
-22.69999694824219
 31
0.0
  0
INSERT
  5
601
330
5FB
100
AcDbEntity
  8
0
 62
     0
370
    -2
100
AcDbBlockReference
  2
_OPEN30
 10
37.67721667480466
 20
76.60005187988281
 30
0.0
 41
3.0
 42
3.0
 43
3.0
 50
90.00000000000001
  0
INSERT
  5
602
330
5FB
100
AcDbEntity
  8
0
 62
     0
370
    -2
100
AcDbBlockReference
  2
_OPEN30
 10
37.6772166748047
 20
-25.69999694824219
 30
0.0
 41
3.0
 42
3.0
 43
3.0
 50
270.0
  0
MTEXT
  5
603
330
5FB
100
AcDbEntity
  8
0
 62
     1
100
AcDbMText
 10
35.25641663873195
 20
25.99810655212402
 30
0.0
 40
3.200000047683716
 41
0.0
 71
     5
 72
     1
  1
102.3
 11
-4.167404085723679E-16
 21
1.0
 31
0.0
 73
     1
 44
1.0
  0
POINT
  5
604
330
5FB
100
AcDbEntity
  8
Defpoints
 62
     0
100
AcDbPoint
 10
83.84158325195312
 20
76.60005187988281
 30
0.0
  0
POINT
  5
605
330
5FB
100
AcDbEntity
  8
Defpoints
 62
     0
100
AcDbPoint
 10
131.2961730957031
 20
-25.69999694824219
 30
0.0
  0
POINT
  5
606
330
5FB
100
AcDbEntity
  8
Defpoints
 62
     0
100
AcDbPoint
 10
37.67521667480469
 20
-25.69999694824222
 30
0.0
  0
ENDBLK
  5
5FD
330
5FB
100
AcDbEntity
  8
0
100
AcDbBlockEnd
  0
BLOCK
  5
60E
330
607
100
AcDbEntity
  8
0
100
AcDbBlockBegin
  2
SYM0015
 70
     0
 10
0.0
 20
0.0
 30
0.0
  3
SYM0015
  1

  0
LINE
  5
608
330
607
100
AcDbEntity
  8
0
  6
Continuous
 62
     0
100
AcDbLine
 10
0.0
 20
0.0
 30
0.0
 11
-24.14999011580446
 21
33.26958565202229
 31
0.0
  0
LINE
  5
609
330
607
100
AcDbEntity
  8
0
  6
Continuous
 62
     0
100
AcDbLine
 10
0.0
 20
0.0
 30
0.0
 11
-2.456698167898566
 21
1.991138898390677
 31
0.0
  0
LINE
  5
60A
330
607
100
AcDbEntity
  8
0
  6
Continuous
 62
     0
100
AcDbLine
 10
0.0
 20
0.0
 30
0.0
 11
-1.131993573806056
 21
2.952725952353588
 31
0.0
  0
LINE
  5
60B
330
607
100
AcDbEntity
  8
0
  6
Continuous
 62
     0
100
AcDbLine
 10
-24.14999686253972
 20
33.26958698144446
 30
0.0
 11
-42.4360991574616
 21
33.26958698144446
 31
0.0
  0
MTEXT
  5
60C
330
607
100
AcDbEntity
  8
0
 62
     1
100
AcDbMText
 10
-41.20007668508001
 20
34.26958698144446
 30
0.0
 40
4.0
 41
0.0
 71
     7
 72
     1
  1
{\W0.833333;勾配無し}
 73
     1
 44
1.0
  0
ENDBLK
  5
60F
330
607
100
AcDbEntity
  8
0
100
AcDbBlockEnd
  0
BLOCK
  5
615
330
610
100
AcDbEntity
  8
0
100
AcDbBlockBegin
  2
SYM0016
 70
     0
 10
0.0
 20
0.0
 30
0.0
  3
SYM0016
  1

  0
LINE
  5
611
330
610
100
AcDbEntity
  8
0
  6
Continuous
 62
     0
100
AcDbLine
 10
0.0
 20
0.0
 30
0.0
 11
10.28997833037943
 21
33.05957723140199
 31
0.0
  0
LINE
  5
612
330
610
100
AcDbEntity
  8
0
  6
Continuous
 62
     0
100
AcDbLine
 10
0.0
 20
0.0
 30
0.0
 11
0.126303767097397
 21
3.159754319445995
 31
0.0
  0
LINE
  5
613
330
610
100
AcDbEntity
  8
0
  6
Continuous
 62
     0
100
AcDbLine
 10
0.0
 20
0.0
 30
0.0
 11
1.68925943046861
 21
2.673275626906721
 31
0.0
  0
ENDBLK
  5
616
330
610
100
AcDbEntity
  8
0
100
AcDbBlockEnd
  0
BLOCK
  5
61C
330
617
100
AcDbEntity
  8
0
100
AcDbBlockBegin
  2
SYM0017
 70
     0
 10
0.0
 20
0.0
 30
0.0
  3
SYM0017
  1

  0
LINE
  5
618
330
617
100
AcDbEntity
  8
0
  6
Continuous
 62
     0
100
AcDbLine
 10
0.0
 20
0.0
 30
0.0
 11
-7.288329632559112
 21
-85.907461807935
 31
0.0
  0
LINE
  5
619
330
617
100
AcDbEntity
  8
0
  6
Continuous
 62
     0
100
AcDbLine
 10
0.0
 20
0.0
 30
0.0
 11
0.557311752588788
 21
-3.112780687948806
 31
0.0
  0
LINE
  5
61A
330
617
100
AcDbEntity
  8
0
  6
Continuous
 62
     0
100
AcDbLine
 10
0.0
 20
0.0
 30
0.0
 11
-1.07374420823308
 21
-2.974403028529679
 31
0.0
  0
ENDBLK
  5
61D
330
617
100
AcDbEntity
  8
0
100
AcDbBlockEnd
  0
BLOCK
  5
623
330
61E
100
AcDbEntity
  8
0
100
AcDbBlockBegin
  2
SYM0018
 70
     0
 10
0.0
 20
0.0
 30
0.0
  3
SYM0018
  1

  0
LINE
  5
61F
330
61E
100
AcDbEntity
  8
0
  6
Continuous
 62
     0
100
AcDbLine
 10
0.0
 20
0.0
 30
0.0
 11
3.952667158454602
 21
-43.44720361818633
 31
0.0
  0
LINE
  5
620
330
61E
100
AcDbEntity
  8
0
  6
Continuous
 62
     0
100
AcDbLine
 10
0.0
 20
0.0
 30
0.0
 11
1.091838127171513
 21
-2.9678088727031
 31
0.0
  0
LINE
  5
621
330
61E
100
AcDbEntity
  8
0
  6
Continuous
 62
     0
100
AcDbLine
 10
0.0
 20
0.0
 30
0.0
 11
-0.53834488122061
 21
-3.116116940954587
 31
0.0
  0
ENDBLK
  5
624
330
61E
100
AcDbEntity
  8
0
100
AcDbBlockEnd
  0
BLOCK
  5
62A
330
625
100
AcDbEntity
  8
0
100
AcDbBlockBegin
  2
SYM0019
 70
     0
 10
0.0
 20
0.0
 30
0.0
  3
SYM0019
  1

  0
LINE
  5
626
330
625
100
AcDbEntity
  8
0
  6
Continuous
 62
     0
100
AcDbLine
 10
0.0
 20
0.0
 30
0.0
 11
-9.69732678367916
 21
-40.48546696164193
 31
0.0
  0
LINE
  5
627
330
625
100
AcDbEntity
  8
0
  6
Continuous
 62
     0
100
AcDbLine
 10
0.0
 20
0.0
 30
0.0
 11
0.084430770572084
 21
-3.161150335846307
 31
0.0
  0
LINE
  5
628
330
625
100
AcDbEntity
  8
0
  6
Continuous
 62
     0
100
AcDbLine
 10
0.0
 20
0.0
 30
0.0
 11
-1.507455975586055
 21
-2.779851881397723
 31
0.0
  0
ENDBLK
  5
62B
330
625
100
AcDbEntity
  8
0
100
AcDbBlockEnd
  0
BLOCK
  5
631
330
62C
100
AcDbEntity
  8
0
100
AcDbBlockBegin
  2
SYM0020
 70
     0
 10
0.0
 20
0.0
 30
0.0
  3
SYM0020
  1

  0
LINE
  5
62D
330
62C
100
AcDbEntity
  8
0
  6
Continuous
 62
     0
100
AcDbLine
 10
0.0
 20
0.0
 30
0.0
 11
18.77841200752351
 21
-33.73865193509816
 31
0.0
  0
LINE
  5
62E
330
62C
100
AcDbEntity
  8
0
  6
Continuous
 62
     0
100
AcDbLine
 10
0.0
 20
0.0
 30
0.0
 11
2.200655062143937
 21
-2.270928730343789
 31
0.0
  0
LINE
  5
62F
330
62C
100
AcDbEntity
  8
0
  6
Continuous
 62
     0
100
AcDbLine
 10
0.0
 20
0.0
 30
0.0
 11
0.77035882378874
 21
-3.067009501689138
 31
0.0
  0
ENDBLK
  5
632
330
62C
100
AcDbEntity
  8
0
100
AcDbBlockEnd
  0
BLOCK
  5
638
330
633
100
AcDbEntity
  8
0
100
AcDbBlockBegin
  2
SYM0021
 70
     0
 10
0.0
 20
0.0
 30
0.0
  3
SYM0021
  1

  0
LINE
  5
634
330
633
100
AcDbEntity
  8
0
  6
Continuous
 62
     0
100
AcDbLine
 10
0.0
 20
0.0
 30
0.0
 11
0.403381312883113
 21
-30.21791167814699
 31
0.0
  0
LINE
  5
635
330
633
100
AcDbEntity
  8
0
  6
Continuous
 62
     0
100
AcDbLine
 10
0.0
 20
0.0
 30
0.0
 11
0.859156244439589
 21
-3.043328859732561
 31
0.0
  0
LINE
  5
636
330
633
100
AcDbEntity
  8
0
  6
Continuous
 62
     0
100
AcDbLine
 10
0.0
 20
0.0
 30
0.0
 11
-0.777613296184541
 21
-3.065178226863431
 31
0.0
  0
ENDBLK
  5
639
330
633
100
AcDbEntity
  8
0
100
AcDbBlockEnd
  0
BLOCK
  5
641
330
63A
100
AcDbEntity
  8
0
100
AcDbBlockBegin
  2
SYM0022
 70
     0
 10
0.0
 20
0.0
 30
0.0
  3
SYM0022
  1

  0
LINE
  5
63B
330
63A
100
AcDbEntity
  8
0
  6
Continuous
 62
     0
100
AcDbLine
 10
0.0
 20
0.0
 30
0.0
 11
3.541839623204396
 21
-18.38881885926489
 31
0.0
  0
LINE
  5
63C
330
63A
100
AcDbEntity
  8
0
  6
Continuous
 62
     0
100
AcDbLine
 10
0.0
 20
0.0
 30
0.0
 11
1.381394629463045
 21
-2.844599950525783
 31
0.0
  0
LINE
  5
63D
330
63A
100
AcDbEntity
  8
0
  6
Continuous
 62
     0
100
AcDbLine
 10
0.0
 20
0.0
 30
0.0
 11
-0.225977133314302
 21
-3.154193135503853
 31
0.0
  0
LINE
  5
63E
330
63A
100
AcDbEntity
  8
0
  6
Continuous
 62
     0
100
AcDbLine
 10
3.541831719390331
 20
-18.38881475300798
 30
0.0
 11
22.37886785220283
 21
-18.38881475300798
 31
0.0
  0
MTEXT
  5
63F
330
63A
100
AcDbEntity
  8
0
 62
     1
100
AcDbMText
 10
6.378850805274425
 20
-17.38881475300798
 30
0.0
 40
4.0
 41
0.0
 71
     7
 72
     1
  1
{\W0.833333;勾配1゜}
 73
     1
 44
1.0
  0
ENDBLK
  5
642
330
63A
100
AcDbEntity
  8
0
100
AcDbBlockEnd
  0
BLOCK
  5
645
330
644
100
AcDbEntity
  8
0
100
AcDbBlockBegin
  2
*D82
 70
     1
 10
0.0
 20
0.0
 30
0.0
  3
*D82
  1

  0
LINE
  5
647
330
644
100
AcDbEntity
  8
0
 62
     0
370
    -2
100
AcDbLine
 10
163.5559997558594
 20
-45.36291503906249
 30
0.0
 11
195.5559692382812
 21
-45.3629150390625
 31
0.0
  0
INSERT
  5
648
330
644
100
AcDbEntity
  8
0
 62
     0
370
    -2
100
AcDbBlockReference
  2
_OPEN30
 10
160.5559997558594
 20
-45.36291503906249
 30
0.0
 41
3.0
 42
3.0
 43
3.0
 50
180.0
  0
INSERT
  5
649
330
644
100
AcDbEntity
  8
0
 62
     0
370
    -2
100
AcDbBlockReference
  2
_OPEN30
 10
198.5559692382812
 20
-45.3629150390625
 30
0.0
 41
3.0
 42
3.0
 43
3.0
 50
360.0
  0
MTEXT
  5
64A
330
644
100
AcDbEntity
  8
0
 62
     1
100
AcDbMText
 10
179.5569997558594
 20
-42.94851500308513
 30
0.0
 40
3.200000047683716
 41
0.0
 71
     5
 72
     1
  1
38
 73
     1
 44
1.0
  0
POINT
  5
64B
330
644
100
AcDbEntity
  8
Defpoints
 62
     0
100
AcDbPoint
 10
160.5559997558594
 20
-46.8629150390625
 30
0.0
  0
POINT
  5
64C
330
644
100
AcDbEntity
  8
Defpoints
 62
     0
100
AcDbPoint
 10
198.5559692382812
 20
-55.96291351318359
 30
0.0
  0
POINT
  5
64D
330
644
100
AcDbEntity
  8
Defpoints
 62
     0
100
AcDbPoint
 10
198.5559692382812
 20
-45.3629150390625
 30
0.0
  0
ENDBLK
  5
646
330
644
100
AcDbEntity
  8
0
100
AcDbBlockEnd
  0
BLOCK
  5
650
330
64F
100
AcDbEntity
  8
0
100
AcDbBlockBegin
  2
*D83
 70
     1
 10
0.0
 20
0.0
 30
0.0
  3
*D83
  1

  0
POINT
  5
656
330
64F
100
AcDbEntity
  8
Defpoints
 62
     0
100
AcDbPoint
 10
120.0560208172542
 20
-11.99294964158229
 30
0.0
  0
POINT
  5
657
330
64F
100
AcDbEntity
  8
Defpoints
 62
     0
100
AcDbPoint
 10
119.094205332298
 20
-12.26664833156549
 30
0.0
  0
LINE
  5
658
330
64F
100
AcDbEntity
  8
0
  6
Continuous
 62
     0
100
AcDbLine
 10
120.0560208172542
 20
-11.99294964158229
 30
0.0
 11
119.094205332298
 21
-12.26664833156549
 31
0.0
  0
LINE
  5
659
330
64F
100
AcDbEntity
  8
0
  6
Continuous
 62
     0
100
AcDbLine
 10
119.094205332298
 20
-12.26664833156549
 30
0.0
 11
121.8080846172114
 21
-10.64342338481338
 31
0.0
  0
LINE
  5
65A
330
64F
100
AcDbEntity
  8
0
  6
Continuous
 62
     0
100
AcDbLine
 10
119.094205332298
 20
-12.26664833156549
 30
0.0
 11
122.2561062092106
 21
-12.2178339338956
 31
0.0
  0
LINE
  5
65B
330
64F
100
AcDbEntity
  8
0
  6
Continuous
 62
     0
100
AcDbLine
 10
120.0560430308173
 20
-11.99294861120627
 30
0.0
 11
127.6831414288294
 21
-9.822533478485816
 31
0.0
  0
MTEXT
  5
65C
330
64F
100
AcDbEntity
  8
0
 62
     1
100
AcDbMText
 10
123.3898004629269
 20
-10.39114418769912
 30
0.0
 40
2.5
 41
0.0
 71
     7
 72
     1
  1
\W1;R1
 11
0.9622179935292854
 21
0.2722802470405744
 31
0.0
 73
     1
 44
1.0
  0
ENDBLK
  5
651
330
64F
100
AcDbEntity
  8
0
100
AcDbBlockEnd
  0
BLOCK
  5
664
330
65D
100
AcDbEntity
  8
0
100
AcDbBlockBegin
  2
SYM0023
 70
     0
 10
0.0
 20
0.0
 30
0.0
  3
SYM0023
  1

  0
LINE
  5
65E
330
65D
100
AcDbEntity
  8
0
  6
Continuous
 62
     0
100
AcDbLine
 10
0.0
 20
0.0
 30
0.0
 11
-7.668622936069539
 21
-32.04971749438807
 31
0.0
  0
LINE
  5
65F
330
65D
100
AcDbEntity
  8
0
  6
Continuous
 62
     0
100
AcDbLine
 10
0.0
 20
0.0
 30
0.0
 11
0.08518839406382
 21
-3.1611300097208
 31
0.0
  0
LINE
  5
660
330
65D
100
AcDbEntity
  8
0
  6
Continuous
 62
     0
100
AcDbLine
 10
0.0
 20
0.0
 30
0.0
 11
-1.506789691332941
 21
-2.780213090202516
 31
0.0
  0
LINE
  5
661
330
65D
100
AcDbEntity
  8
0
  6
Continuous
 62
     0
100
AcDbLine
 10
-7.668629749717269
 20
-32.04971586651957
 30
0.0
 11
-26.16684447139696
 21
-32.04971586651957
 31
0.0
  0
MTEXT
  5
662
330
65D
100
AcDbEntity
  8
0
 62
     1
100
AcDbMText
 10
-25.02434311717943
 20
-31.04971586651957
 30
0.0
 40
4.0
 41
0.0
 71
     7
 72
     1
  1
{\W0.833333;勾配1゜}
 73
     1
 44
1.0
  0
ENDBLK
  5
665
330
65D
100
AcDbEntity
  8
0
100
AcDbBlockEnd
  0
BLOCK
  5
66B
330
666
100
AcDbEntity
  8
0
100
AcDbBlockBegin
  2
SYM0024
 70
     0
 10
0.0
 20
0.0
 30
0.0
  3
SYM0024
  1

  0
LINE
  5
667
330
666
100
AcDbEntity
  8
0
  6
Continuous
 62
     0
100
AcDbLine
 10
0.0
 20
0.0
 30
0.0
 11
-57.27589449587351
 21
-55.77132483797104
 31
0.0
  0
LINE
  5
668
330
666
100
AcDbEntity
  8
0
  6
Continuous
 62
     0
100
AcDbLine
 10
0.0
 20
0.0
 30
0.0
 11
-1.617444367648019
 21
-2.717328415632586
 31
0.0
  0
LINE
  5
669
330
666
100
AcDbEntity
  8
0
  6
Continuous
 62
     0
100
AcDbLine
 10
0.0
 20
0.0
 30
0.0
 11
-2.759412119318327
 21
-1.54455325469851
 31
0.0
  0
ENDBLK
  5
66C
330
666
100
AcDbEntity
  8
0
100
AcDbBlockEnd
  0
BLOCK
  5
66F
330
66E
100
AcDbEntity
  8
0
100
AcDbBlockBegin
  2
*D86
 70
     1
 10
0.0
 20
0.0
 30
0.0
  3
*D86
  1

  0
POINT
  5
675
330
66E
100
AcDbEntity
  8
Defpoints
 62
     0
100
AcDbPoint
 10
193.7561885218115
 20
1.500030517578125
 30
0.0
  0
POINT
  5
676
330
66E
100
AcDbEntity
  8
Defpoints
 62
     0
100
AcDbPoint
 10
197.1233437839483
 20
39.9871983736233
 30
0.0
  0
POINT
  5
677
330
66E
100
AcDbEntity
  8
Defpoints
 62
     0
100
AcDbPoint
 10
134.6117858886719
 20
1.500030517578125
 30
0.0
  0
POINT
  5
678
330
66E
100
AcDbEntity
  8
Defpoints
 62
     0
100
AcDbPoint
 10
180.8622716793
 20
9.453111396686609
 30
0.0
  0
ARC
  5
67A
330
66E
100
AcDbEntity
  8
0
  6
Continuous
 62
     0
100
AcDbCircle
 10
193.7560729980469
 20
1.5
 30
0.0
 40
15.14982604980469
100
AcDbArc
 50
84.99999667351618
 51
179.999950367443
  0
LINE
  5
67B
330
66E
100
AcDbEntity
  8
0
  6
Continuous
 62
     0
100
AcDbLine
 10
195.0764682161384
 20
16.59217631116804
 30
0.0
 11
192.0333076183751
 21
15.73242426722672
 31
0.0
  0
LINE
  5
67C
330
66E
100
AcDbEntity
  8
0
  6
Continuous
 62
     0
100
AcDbLine
 10
195.0764682161384
 20
16.59217631116804
 30
0.0
 11
192.011137808664
 21
17.36918949886388
 31
0.0
  0
LINE
  5
67D
330
66E
100
AcDbEntity
  8
0
  6
Continuous
 62
     0
100
AcDbLine
 10
178.6062469482479
 20
1.500013123560092
 30
0.0
 11
178.0993545638767
 21
4.621400653410733
 31
0.0
  0
LINE
  5
67E
330
66E
100
AcDbEntity
  8
0
  6
Continuous
 62
     0
100
AcDbLine
 10
178.6062469482479
 20
1.500013123560092
 30
0.0
 11
179.7279590311521
 21
4.456660211717098
 31
0.0
  0
MTEXT
  5
67F
330
66E
100
AcDbEntity
  8
0
 62
     1
100
AcDbMText
 10
180.4569464140872
 20
11.3210084323171
 30
0.0
 40
3.200000047683716
 41
0.0
 71
     7
 72
     1
  1
\W1;95°
 11
0.784776370533083
 21
0.61977903179514
 31
0.0
 73
     1
 44
1.0
  0
ENDBLK
  5
670
330
66E
100
AcDbEntity
  8
0
100
AcDbBlockEnd
  0
BLOCK
  5
682
330
681
100
AcDbEntity
  8
0
100
AcDbBlockBegin
  2
*D87
 70
     1
 10
0.0
 20
0.0
 30
0.0
  3
*D87
  1

  0
POINT
  5
688
330
681
100
AcDbEntity
  8
Defpoints
 62
     0
100
AcDbPoint
 10
107.5558890365483
 20
1.500030517578125
 30
0.0
  0
POINT
  5
689
330
681
100
AcDbEntity
  8
Defpoints
 62
     0
100
AcDbPoint
 10
165.8779602050781
 20
1.500030517578125
 30
0.0
  0
POINT
  5
68A
330
681
100
AcDbEntity
  8
Defpoints
 62
     0
100
AcDbPoint
 10
104.3204627965754
 20
38.48159186991091
 30
0.0
  0
POINT
  5
68B
330
681
100
AcDbEntity
  8
Defpoints
 62
     0
100
AcDbPoint
 10
119.1076133882379
 20
24.50136261699523
 30
0.0
  0
ARC
  5
68D
330
681
100
AcDbEntity
  8
0
  6
Continuous
 62
     0
100
AcDbCircle
 10
107.5560607910156
 20
1.5
 30
0.0
 40
25.73761177062988
100
AcDbArc
 50
0.0
 51
95.00002199581849
  0
LINE
  5
68E
330
681
100
AcDbEntity
  8
0
  6
Continuous
 62
     0
100
AcDbLine
 10
133.2936725616455
 20
1.5
 30
0.0
 11
132.2955070702237
 21
4.500610879900157
 31
0.0
  0
LINE
  5
68F
330
681
100
AcDbEntity
  8
0
  6
Continuous
 62
     0
100
AcDbLine
 10
133.2936725616455
 20
1.5
 30
0.0
 11
133.9295413286644
 21
4.597687994613165
 31
0.0
  0
LINE
  5
690
330
681
100
AcDbEntity
  8
0
  6
Continuous
 62
     0
100
AcDbLine
 10
105.3128702775394
 20
27.13967152628747
 30
0.0
 11
108.3433506726093
 21
28.04310308204465
 31
0.0
  0
LINE
  5
691
330
681
100
AcDbEntity
  8
0
  6
Continuous
 62
     0
100
AcDbLine
 10
105.3128702775394
 20
27.13967152628747
 30
0.0
 11
108.3890590632616
 21
26.40682600679643
 31
0.0
  0
MTEXT
  5
692
330
681
100
AcDbEntity
  8
0
 62
     1
100
AcDbMText
 10
123.269046462311
 20
23.32760169135642
 30
0.0
 40
3.200000047683716
 41
0.0
 71
     7
 72
     1
  1
\W1;95°
 11
0.7058715706786811
 21
-0.7083398377245288
 31
0.0
 73
     1
 44
1.0
  0
ENDBLK
  5
683
330
681
100
AcDbEntity
  8
0
100
AcDbBlockEnd
  0
BLOCK
  5
76D
330
76C
100
AcDbEntity
  8
0
100
AcDbBlockBegin
  2
*D88
 70
     1
 10
0.0
 20
0.0
 30
0.0
  3
*D88
  1

  0
LINE
  5
76F
330
76C
100
AcDbEntity
  8
0
 62
     0
370
    -2
100
AcDbLine
 10
-4.551737648718629
 20
-97.91571451178227
 30
0.0
 11
-4.551737648718633
 21
-107.6607145117823
 31
0.0
  0
LINE
  5
770
330
76C
100
AcDbEntity
  8
0
 62
     0
370
    -2
100
AcDbLine
 10
25.14819826436731
 20
-97.91571451178227
 30
0.0
 11
25.14819826436731
 21
-107.6607145117823
 31
0.0
  0
LINE
  5
771
330
76C
100
AcDbEntity
  8
0
 62
     0
370
    -2
100
AcDbLine
 10
-1.551737648718632
 20
-105.3747145117823
 30
0.0
 11
22.14819826436731
 21
-105.3747145117823
 31
0.0
  0
INSERT
  5
772
330
76C
100
AcDbEntity
  8
0
 62
     0
370
    -2
100
AcDbBlockReference
  2
_OPEN30
 10
-4.551737648718632
 20
-105.3747145117823
 30
0.0
 41
3.0
 42
3.0
 43
3.0
 50
180.0
  0
INSERT
  5
773
330
76C
100
AcDbEntity
  8
0
 62
     0
370
    -2
100
AcDbBlockReference
  2
_OPEN30
 10
25.14819826436731
 20
-105.3747145117823
 30
0.0
 41
3.0
 42
3.0
 43
3.0
  0
MTEXT
  5
774
330
76C
100
AcDbEntity
  8
0
 62
     1
100
AcDbMText
 10
10.29923793721887
 20
-102.9603144758049
 30
0.0
 40
3.200000047683716
 41
0.0
 71
     5
 72
     1
  1
\U+220559
 73
     1
 44
1.0
  0
POINT
  5
775
330
76C
100
AcDbEntity
  8
Defpoints
 62
     0
100
AcDbPoint
 10
-4.551737648718628
 20
-95.37571451178226
 30
0.0
  0
POINT
  5
776
330
76C
100
AcDbEntity
  8
Defpoints
 62
     0
100
AcDbPoint
 10
25.14819826436731
 20
-95.37571451178226
 30
0.0
  0
POINT
  5
777
330
76C
100
AcDbEntity
  8
Defpoints
 62
     0
100
AcDbPoint
 10
25.14819826436731
 20
-105.3757145117823
 30
0.0
  0
ENDBLK
  5
76E
330
76C
100
AcDbEntity
  8
0
100
AcDbBlockEnd
  0
BLOCK
  5
77A
330
779
100
AcDbEntity
  8
0
100
AcDbBlockBegin
  2
*D89
 70
     1
 10
0.0
 20
0.0
 30
0.0
  3
*D89
  1

  0
LINE
  5
77C
330
779
100
AcDbEntity
  8
0
 62
     0
370
    -2
100
AcDbLine
 10
-10.01005735086706
 20
58.57428243645992
 30
0.0
 11
-35.00520557474401
 21
58.57428243645992
 31
0.0
  0
LINE
  5
77D
330
779
100
AcDbEntity
  8
0
 62
     0
370
    -2
100
AcDbLine
 10
-32.71920557474403
 20
110.6242854882177
 30
0.0
 11
-32.71920557474401
 21
61.57428243645992
 31
0.0
  0
INSERT
  5
77E
330
779
100
AcDbEntity
  8
0
 62
     0
370
    -2
100
AcDbBlockReference
  2
_OPEN30
 10
-32.71920557474403
 20
113.6242854882177
 30
0.0
 41
3.0
 42
3.0
 43
3.0
 50
90.00000000000001
  0
INSERT
  5
77F
330
779
100
AcDbEntity
  8
0
 62
     0
370
    -2
100
AcDbBlockReference
  2
_OPEN30
 10
-32.71920557474401
 20
58.57428243645992
 30
0.0
 41
3.0
 42
3.0
 43
3.0
 50
270.0
  0
MTEXT
  5
780
330
779
100
AcDbEntity
  8
0
 62
     1
100
AcDbMText
 10
-35.13360561072139
 20
86.10028396233884
 30
0.0
 40
3.200000047683716
 41
0.0
 71
     5
 72
     1
  1
110
 11
-3.872167282672357E-16
 21
1.0
 31
0.0
 73
     1
 44
1.0
  0
POINT
  5
781
330
779
100
AcDbEntity
  8
Defpoints
 62
     0
100
AcDbPoint
 10
-21.47120557474402
 20
113.6242854882177
 30
0.0
  0
POINT
  5
782
330
779
100
AcDbEntity
  8
Defpoints
 62
     0
100
AcDbPoint
 10
-7.470057350867066
 20
58.57428243645992
 30
0.0
  0
POINT
  5
783
330
779
100
AcDbEntity
  8
Defpoints
 62
     0
100
AcDbPoint
 10
-32.72120557474402
 20
58.57428243645991
 30
0.0
  0
ENDBLK
  5
77B
330
779
100
AcDbEntity
  8
0
100
AcDbBlockEnd
  0
BLOCK
  5
786
330
785
100
AcDbEntity
  8
0
100
AcDbBlockBegin
  2
*D90
 70
     1
 10
0.0
 20
0.0
 30
0.0
  3
*D90
  1

  0
LINE
  5
788
330
785
100
AcDbEntity
  8
0
 62
     0
370
    -2
100
AcDbLine
 10
-32.71920557474402
 20
55.57428243645991
 30
0.0
 11
-32.71920557474402
 21
37.62428548821772
 31
0.0
  0
INSERT
  5
789
330
785
100
AcDbEntity
  8
0
 62
     0
370
    -2
100
AcDbBlockReference
  2
_OPEN30
 10
-32.71920557474402
 20
58.57428243645991
 30
0.0
 41
3.0
 42
3.0
 43
3.0
 50
90.00000000000001
  0
INSERT
  5
78A
330
785
100
AcDbEntity
  8
0
 62
     0
370
    -2
100
AcDbBlockReference
  2
_OPEN30
 10
-32.71920557474402
 20
34.62428548821772
 30
0.0
 41
3.0
 42
3.0
 43
3.0
 50
270.0
  0
MTEXT
  5
78B
330
785
100
AcDbEntity
  8
0
 62
     1
100
AcDbMText
 10
-35.13360561072139
 20
46.60028396233883
 30
0.0
 40
3.200000047683716
 41
0.0
 71
     5
 72
     1
  1
48
 11
-2.966775892688581E-16
 21
1.0
 31
0.0
 73
     1
 44
1.0
  0
POINT
  5
78C
330
785
100
AcDbEntity
  8
Defpoints
 62
     0
100
AcDbPoint
 10
1.525746482140747
 20
58.57428243645992
 30
0.0
  0
POINT
  5
78D
330
785
100
AcDbEntity
  8
Defpoints
 62
     0
100
AcDbPoint
 10
9.675557273156372
 20
34.62428548821774
 30
0.0
  0
POINT
  5
78E
330
785
100
AcDbEntity
  8
Defpoints
 62
     0
100
AcDbPoint
 10
-32.72120557474402
 20
34.62428548821772
 30
0.0
  0
ENDBLK
  5
787
330
785
100
AcDbEntity
  8
0
100
AcDbBlockEnd
  0
BLOCK
  5
791
330
790
100
AcDbEntity
  8
0
100
AcDbBlockBegin
  2
*D91
 70
     1
 10
0.0
 20
0.0
 30
0.0
  3
*D91
  1

  0
LINE
  5
793
330
790
100
AcDbEntity
  8
0
 62
     0
370
    -2
100
AcDbLine
 10
-24.01120557474402
 20
113.6242854882177
 30
0.0
 11
-45.00520557474404
 21
113.6242854882177
 31
0.0
  0
LINE
  5
794
330
790
100
AcDbEntity
  8
0
 62
     0
370
    -2
100
AcDbLine
 10
7.135557273156372
 20
34.62428548821774
 30
0.0
 11
-45.00520557474401
 21
34.62428548821774
 31
0.0
  0
LINE
  5
795
330
790
100
AcDbEntity
  8
0
 62
     0
370
    -2
100
AcDbLine
 10
-42.71920557474404
 20
110.6242854882177
 30
0.0
 11
-42.71920557474401
 21
37.62428548821774
 31
0.0
  0
INSERT
  5
796
330
790
100
AcDbEntity
  8
0
 62
     0
370
    -2
100
AcDbBlockReference
  2
_OPEN30
 10
-42.71920557474404
 20
113.6242854882177
 30
0.0
 41
3.0
 42
3.0
 43
3.0
 50
90.00000000000001
  0
INSERT
  5
797
330
790
100
AcDbEntity
  8
0
 62
     0
370
    -2
100
AcDbBlockReference
  2
_OPEN30
 10
-42.71920557474401
 20
34.62428548821774
 30
0.0
 41
3.0
 42
3.0
 43
3.0
 50
270.0
  0
MTEXT
  5
798
330
790
100
AcDbEntity
  8
0
 62
     1
100
AcDbMText
 10
-45.13360561072139
 20
74.12528548821774
 30
0.0
 40
3.200000047683716
 41
0.0
 71
     5
 72
     1
  1
158
 11
-3.597684738025822E-16
 21
1.0
 31
0.0
 73
     1
 44
1.0
  0
POINT
  5
799
330
790
100
AcDbEntity
  8
Defpoints
 62
     0
100
AcDbPoint
 10
-21.47120557474402
 20
113.6242854882177
 30
0.0
  0
POINT
  5
79A
330
790
100
AcDbEntity
  8
Defpoints
 62
     0
100
AcDbPoint
 10
9.675557273156372
 20
34.62428548821774
 30
0.0
  0
POINT
  5
79B
330
790
100
AcDbEntity
  8
Defpoints
 62
     0
100
AcDbPoint
 10
-42.72120557474402
 20
34.62428548821772
 30
0.0
  0
ENDBLK
  5
792
330
790
100
AcDbEntity
  8
0
100
AcDbBlockEnd
  0
BLOCK
  5
79E
330
79D
100
AcDbEntity
  8
0
100
AcDbBlockBegin
  2
*D92
 70
     1
 10
0.0
 20
0.0
 30
0.0
  3
*D92
  1

  0
LINE
  5
7A0
330
79D
100
AcDbEntity
  8
0
 62
     0
370
    -2
100
AcDbLine
 10
51.2688104469845
 20
96.12428548821774
 30
0.0
 11
62.26581044698449
 21
96.12428548821774
 31
0.0
  0
LINE
  5
7A1
330
79D
100
AcDbEntity
  8
0
 62
     0
370
    -2
100
AcDbLine
 10
45.16157167745325
 20
58.57428243645992
 30
0.0
 11
62.2658104469845
 21
58.57428243645992
 31
0.0
  0
LINE
  5
7A2
330
79D
100
AcDbEntity
  8
0
 62
     0
370
    -2
100
AcDbLine
 10
59.97981044698449
 20
93.12428548821774
 30
0.0
 11
59.9798104469845
 21
61.57428243645992
 31
0.0
  0
INSERT
  5
7A3
330
79D
100
AcDbEntity
  8
0
 62
     0
370
    -2
100
AcDbBlockReference
  2
_OPEN30
 10
59.97981044698449
 20
96.12428548821774
 30
0.0
 41
3.0
 42
3.0
 43
3.0
 50
90.00000000000001
  0
INSERT
  5
7A4
330
79D
100
AcDbEntity
  8
0
 62
     0
370
    -2
100
AcDbBlockReference
  2
_OPEN30
 10
59.9798104469845
 20
58.57428243645992
 30
0.0
 41
3.0
 42
3.0
 43
3.0
 50
270.0
  0
MTEXT
  5
7A5
330
79D
100
AcDbEntity
  8
0
 62
     1
100
AcDbMText
 10
57.56541041100713
 20
77.35028396233884
 30
0.0
 40
3.200000047683716
 41
0.0
 71
     5
 72
     1
  1
75
 11
-3.784514929496593E-16
 21
1.0
 31
0.0
 73
     1
 44
1.0
  0
POINT
  5
7A6
330
79D
100
AcDbEntity
  8
Defpoints
 62
     0
100
AcDbPoint
 10
48.7288104469845
 20
96.12428548821774
 30
0.0
  0
POINT
  5
7A7
330
79D
100
AcDbEntity
  8
Defpoints
 62
     0
100
AcDbPoint
 10
42.62157167745325
 20
58.57428243645992
 30
0.0
  0
POINT
  5
7A8
330
79D
100
AcDbEntity
  8
Defpoints
 62
     0
100
AcDbPoint
 10
59.9788104469845
 20
58.57428243645993
 30
0.0
  0
ENDBLK
  5
79F
330
79D
100
AcDbEntity
  8
0
100
AcDbBlockEnd
  0
BLOCK
  5
7AB
330
7AA
100
AcDbEntity
  8
0
100
AcDbBlockBegin
  2
*D93
 70
     1
 10
0.0
 20
0.0
 30
0.0
  3
*D93
  1

  0
LINE
  5
7AD
330
7AA
100
AcDbEntity
  8
0
 62
     0
370
    -2
100
AcDbLine
 10
2.298237937218872
 20
-12.83571451178227
 30
0.0
 11
2.298237937218872
 21
-3.089714511782269
 31
0.0
  0
LINE
  5
7AE
330
7AA
100
AcDbEntity
  8
0
 62
     0
370
    -2
100
AcDbLine
 10
-21.7017563407354
 20
-12.83571451178227
 30
0.0
 11
-21.7017563407354
 21
-3.089714511782269
 31
0.0
  0
LINE
  5
7AF
330
7AA
100
AcDbEntity
  8
0
 62
     0
370
    -2
100
AcDbLine
 10
-0.701762062781128
 20
-5.375714511782263
 30
0.0
 11
-18.7017563407354
 21
-5.375714511782263
 31
0.0
  0
INSERT
  5
7B0
330
7AA
100
AcDbEntity
  8
0
 62
     0
370
    -2
100
AcDbBlockReference
  2
_OPEN30
 10
2.298237937218872
 20
-5.375714511782263
 30
0.0
 41
3.0
 42
3.0
 43
3.0
  0
INSERT
  5
7B1
330
7AA
100
AcDbEntity
  8
0
 62
     0
370
    -2
100
AcDbBlockReference
  2
_OPEN30
 10
-21.7017563407354
 20
-5.375714511782263
 30
0.0
 41
3.0
 42
3.0
 43
3.0
 50
180.0
  0
MTEXT
  5
7B2
330
7AA
100
AcDbEntity
  8
0
 62
     1
 60
     1
100
AcDbMText
 10
-9.699759559386134
 20
0.615752244164213
 30
0.0
 40
3.200000047683716
 41
0.0
 71
     5
 72
     1
  1
　　４８\P（最大伸縮幅）
 73
     1
 44
1.0
  0
POINT
  5
7B3
330
7AA
100
AcDbEntity
  8
Defpoints
 62
     0
100
AcDbPoint
 10
2.298237937218872
 20
-15.37571451178227
 30
0.0
  0
POINT
  5
7B4
330
7AA
100
AcDbEntity
  8
Defpoints
 62
     0
100
AcDbPoint
 10
-21.7017563407354
 20
-15.37571451178227
 30
0.0
  0
POINT
  5
7B5
330
7AA
100
AcDbEntity
  8
Defpoints
 62
     0
100
AcDbPoint
 10
-21.7017563407354
 20
-5.375714511782263
 30
0.0
  0
MTEXT
  5
7B6
330
7AA
100
AcDbEntity
  8
0
 62
     1
100
AcDbMText
 10
-20.44461737322128
 20
-4.575714499861333
 30
0.0
 40
3.200000047683716
 41
0.0
 71
     7
 72
     1
  1
\W0.833333;　　48
 73
     1
 44
1.0
  0
MTEXT
  5
7B7
330
7AA
100
AcDbEntity
  8
0
 62
     1
100
AcDbMText
 10
-20.44461737322128
 20
-10.17571470251713
 30
0.0
 40
3.200000047683716
 41
0.0
 71
     7
 72
     1
  1
\W0.833333;(最大伸縮幅)
 73
     1
 44
1.0
  0
ENDBLK
  5
7AC
330
7AA
100
AcDbEntity
  8
0
100
AcDbBlockEnd
  0
BLOCK
  5
7BA
330
7B9
100
AcDbEntity
  8
0
100
AcDbBlockBegin
  2
*D94
 70
     1
 10
0.0
 20
0.0
 30
0.0
  3
*D94
  1

  0
LINE
  5
7BC
330
7B9
100
AcDbEntity
  8
0
 62
     0
370
    -2
100
AcDbLine
 10
18.29823865247458
 20
-12.83571451178227
 30
0.0
 11
18.29823865247458
 21
-3.089714511782267
 31
0.0
  0
LINE
  5
7BD
330
7B9
100
AcDbEntity
  8
0
 62
     0
370
    -2
100
AcDbLine
 10
42.29823221517314
 20
-12.83571451178227
 30
0.0
 11
42.29823221517314
 21
-3.08971451178227
 31
0.0
  0
LINE
  5
7BE
330
7B9
100
AcDbEntity
  8
0
 62
     0
370
    -2
100
AcDbLine
 10
21.29823865247458
 20
-5.375714511782261
 30
0.0
 11
39.29823221517314
 21
-5.375714511782264
 31
0.0
  0
INSERT
  5
7BF
330
7B9
100
AcDbEntity
  8
0
 62
     0
370
    -2
100
AcDbBlockReference
  2
_OPEN30
 10
18.29823865247458
 20
-5.375714511782261
 30
0.0
 41
3.0
 42
3.0
 43
3.0
 50
180.0
  0
INSERT
  5
7C0
330
7B9
100
AcDbEntity
  8
0
 62
     0
370
    -2
100
AcDbBlockReference
  2
_OPEN30
 10
42.29823221517314
 20
-5.375714511782264
 30
0.0
 41
3.0
 42
3.0
 43
3.0
 50
360.0
  0
MTEXT
  5
7C1
330
7B9
100
AcDbEntity
  8
0
 62
     1
 60
     1
100
AcDbMText
 10
30.29923543382388
 20
0.615752244164213
 30
0.0
 40
3.200000047683716
 41
0.0
 71
     5
 72
     1
  1
　　４８\P（最大伸縮幅）
 73
     1
 44
1.0
  0
POINT
  5
7C2
330
7B9
100
AcDbEntity
  8
Defpoints
 62
     0
100
AcDbPoint
 10
18.29823865247458
 20
-15.37571451178227
 30
0.0
  0
POINT
  5
7C3
330
7B9
100
AcDbEntity
  8
Defpoints
 62
     0
100
AcDbPoint
 10
42.29823221517314
 20
-15.37571451178227
 30
0.0
  0
POINT
  5
7C4
330
7B9
100
AcDbEntity
  8
Defpoints
 62
     0
100
AcDbPoint
 10
42.29823221517314
 20
-5.375714511782263
 30
0.0
  0
MTEXT
  5
7C5
330
7B9
100
AcDbEntity
  8
0
 62
     1
100
AcDbMText
 10
19.55537761998873
 20
-4.575714499861333
 30
0.0
 40
3.200000047683716
 41
0.0
 71
     7
 72
     1
  1
\W0.833333;　　48
 73
     1
 44
1.0
  0
MTEXT
  5
7C6
330
7B9
100
AcDbEntity
  8
0
 62
     1
100
AcDbMText
 10
19.55537761998873
 20
-10.17571470251713
 30
0.0
 40
3.200000047683716
 41
0.0
 71
     7
 72
     1
  1
\W0.833333;(最大伸縮幅)
 73
     1
 44
1.0
  0
ENDBLK
  5
7BB
330
7B9
100
AcDbEntity
  8
0
100
AcDbBlockEnd
  0
BLOCK
  5
7C9
330
7C8
100
AcDbEntity
  8
0
100
AcDbBlockBegin
  2
*D95
 70
     1
 10
0.0
 20
0.0
 30
0.0
  3
*D95
  1

  0
LINE
  5
7CB
330
7C8
100
AcDbEntity
  8
0
 62
     0
370
    -2
100
AcDbLine
 10
5.298237937218875
 20
-5.375714511782262
 30
0.0
 11
15.29823865247459
 21
-5.375714511782264
 31
0.0
  0
INSERT
  5
7CC
330
7C8
100
AcDbEntity
  8
0
 62
     0
370
    -2
100
AcDbBlockReference
  2
_OPEN30
 10
2.298237937218875
 20
-5.375714511782262
 30
0.0
 41
3.0
 42
3.0
 43
3.0
 50
180.0
  0
INSERT
  5
7CD
330
7C8
100
AcDbEntity
  8
0
 62
     0
370
    -2
100
AcDbBlockReference
  2
_OPEN30
 10
18.29823865247459
 20
-5.375714511782264
 30
0.0
 41
3.0
 42
3.0
 43
3.0
 50
360.0
  0
MTEXT
  5
7CE
330
7C8
100
AcDbEntity
  8
0
 62
     1
100
AcDbMText
 10
10.29923793721887
 20
-2.961314475804899
 30
0.0
 40
3.200000047683716
 41
0.0
 71
     5
 72
     1
  1
32
 73
     1
 44
1.0
  0
POINT
  5
7CF
330
7C8
100
AcDbEntity
  8
Defpoints
 62
     0
100
AcDbPoint
 10
2.298237937218872
 20
-15.37571451178227
 30
0.0
  0
POINT
  5
7D0
330
7C8
100
AcDbEntity
  8
Defpoints
 62
     0
100
AcDbPoint
 10
18.29823865247458
 20
-15.37571451178227
 30
0.0
  0
POINT
  5
7D1
330
7C8
100
AcDbEntity
  8
Defpoints
 62
     0
100
AcDbPoint
 10
18.29823865247458
 20
-5.375714511782263
 30
0.0
  0
ENDBLK
  5
7CA
330
7C8
100
AcDbEntity
  8
0
100
AcDbBlockEnd
  0
BLOCK
  5
7D4
330
7D3
100
AcDbEntity
  8
0
100
AcDbBlockBegin
  2
*D96
 70
     1
 10
0.0
 20
0.0
 30
0.0
  3
*D96
  1

  0
LINE
  5
7D6
330
7D3
100
AcDbEntity
  8
0
 62
     0
370
    -2
100
AcDbLine
 10
-37.20176206278113
 20
-12.33571451178227
 30
0.0
 11
-37.20176206278113
 21
6.910285488217736
 31
0.0
  0
LINE
  5
7D7
330
7D3
100
AcDbEntity
  8
0
 62
     0
370
    -2
100
AcDbLine
 10
57.79823793721887
 20
-12.33571451178227
 30
0.0
 11
57.79823793721887
 21
6.910285488217724
 31
0.0
  0
LINE
  5
7D8
330
7D3
100
AcDbEntity
  8
0
 62
     0
370
    -2
100
AcDbLine
 10
-34.20176206278113
 20
4.624285488217743
 30
0.0
 11
54.79823793721887
 21
4.624285488217732
 31
0.0
  0
INSERT
  5
7D9
330
7D3
100
AcDbEntity
  8
0
 62
     0
370
    -2
100
AcDbBlockReference
  2
_OPEN30
 10
-37.20176206278113
 20
4.624285488217743
 30
0.0
 41
3.0
 42
3.0
 43
3.0
 50
180.0
  0
INSERT
  5
7DA
330
7D3
100
AcDbEntity
  8
0
 62
     0
370
    -2
100
AcDbBlockReference
  2
_OPEN30
 10
57.79823793721887
 20
4.624285488217732
 30
0.0
 41
3.0
 42
3.0
 43
3.0
 50
360.0
  0
MTEXT
  5
7DB
330
7D3
100
AcDbEntity
  8
0
 62
     1
100
AcDbMText
 10
10.29923793721887
 20
7.038685524195101
 30
0.0
 40
3.200000047683716
 41
0.0
 71
     5
 72
     1
  1
190
 73
     1
 44
1.0
  0
POINT
  5
7DC
330
7D3
100
AcDbEntity
  8
Defpoints
 62
     0
100
AcDbPoint
 10
-37.20176206278113
 20
-14.87571451178227
 30
0.0
  0
POINT
  5
7DD
330
7D3
100
AcDbEntity
  8
Defpoints
 62
     0
100
AcDbPoint
 10
57.79823793721887
 20
-14.87571451178227
 30
0.0
  0
POINT
  5
7DE
330
7D3
100
AcDbEntity
  8
Defpoints
 62
     0
100
AcDbPoint
 10
57.79823793721887
 20
4.624285488217737
 30
0.0
  0
ENDBLK
  5
7D5
330
7D3
100
AcDbEntity
  8
0
100
AcDbBlockEnd
  0
BLOCK
  5
7E1
330
7E0
100
AcDbEntity
  8
0
100
AcDbBlockBegin
  2
*D97
 70
     1
 10
0.0
 20
0.0
 30
0.0
  3
*D97
  1

  0
LINE
  5
7E3
330
7E0
100
AcDbEntity
  8
0
 62
     0
370
    -2
100
AcDbLine
 10
42.62171733953694
 20
56.03428243645992
 30
0.0
 11
42.62171733953694
 21
22.33928548821773
 31
0.0
  0
LINE
  5
7E4
330
7E0
100
AcDbEntity
  8
0
 62
     0
370
    -2
100
AcDbLine
 10
-7.470010001992094
 20
56.03428243645992
 30
0.0
 11
-7.470010001992094
 21
22.33928548821773
 31
0.0
  0
LINE
  5
7E5
330
7E0
100
AcDbEntity
  8
0
 62
     0
370
    -2
100
AcDbLine
 10
39.62171733953694
 20
24.62528548821774
 30
0.0
 11
-4.470010001992094
 21
24.62528548821774
 31
0.0
  0
INSERT
  5
7E6
330
7E0
100
AcDbEntity
  8
0
 62
     0
370
    -2
100
AcDbBlockReference
  2
_OPEN30
 10
42.62171733953694
 20
24.62528548821774
 30
0.0
 41
3.0
 42
3.0
 43
3.0
  0
INSERT
  5
7E7
330
7E0
100
AcDbEntity
  8
0
 62
     0
370
    -2
100
AcDbBlockReference
  2
_OPEN30
 10
-7.470010001992094
 20
24.62528548821774
 30
0.0
 41
3.0
 42
3.0
 43
3.0
 50
180.0
  0
MTEXT
  5
7E8
330
7E0
100
AcDbEntity
  8
0
 62
     1
100
AcDbMText
 10
17.57785366877244
 20
27.0396855241951
 30
0.0
 40
3.200000047683716
 41
0.0
 71
     5
 72
     1
  1
100
 73
     1
 44
1.0
  0
POINT
  5
7E9
330
7E0
100
AcDbEntity
  8
Defpoints
 62
     0
100
AcDbPoint
 10
42.62171733953694
 20
58.57428243645992
 30
0.0
  0
POINT
  5
7EA
330
7E0
100
AcDbEntity
  8
Defpoints
 62
     0
100
AcDbPoint
 10
-7.470010001992094
 20
58.57428243645992
 30
0.0
  0
POINT
  5
7EB
330
7E0
100
AcDbEntity
  8
Defpoints
 62
     0
100
AcDbPoint
 10
-7.470010001992094
 20
24.62428548821774
 30
0.0
  0
ENDBLK
  5
7E2
330
7E0
100
AcDbEntity
  8
0
100
AcDbBlockEnd
  0
BLOCK
  5
7EE
330
7ED
100
AcDbEntity
  8
0
100
AcDbBlockBegin
  2
*D98
 70
     1
 10
0.0
 20
0.0
 30
0.0
  3
*D98
  1

  0
LINE
  5
7F0
330
7ED
100
AcDbEntity
  8
0
 62
     0
370
    -2
100
AcDbLine
 10
-8.476762561340202
 20
-93.86571718207036
 30
0.0
 11
-8.476762561340207
 21
-117.6607145117823
 31
0.0
  0
LINE
  5
7F1
330
7ED
100
AcDbEntity
  8
0
 62
     0
370
    -2
100
AcDbLine
 10
29.07323609636865
 20
-93.86571718207036
 30
0.0
 11
29.07323609636865
 21
-117.6607145117823
 31
0.0
  0
LINE
  5
7F2
330
7ED
100
AcDbEntity
  8
0
 62
     0
370
    -2
100
AcDbLine
 10
-5.476762561340207
 20
-115.3747145117823
 30
0.0
 11
26.07323609636865
 21
-115.3747145117823
 31
0.0
  0
INSERT
  5
7F3
330
7ED
100
AcDbEntity
  8
0
 62
     0
370
    -2
100
AcDbBlockReference
  2
_OPEN30
 10
-8.476762561340207
 20
-115.3747145117823
 30
0.0
 41
3.0
 42
3.0
 43
3.0
 50
180.0
  0
INSERT
  5
7F4
330
7ED
100
AcDbEntity
  8
0
 62
     0
370
    -2
100
AcDbBlockReference
  2
_OPEN30
 10
29.07323609636865
 20
-115.3747145117823
 30
0.0
 41
3.0
 42
3.0
 43
3.0
  0
MTEXT
  5
7F5
330
7ED
100
AcDbEntity
  8
0
 62
     1
100
AcDbMText
 10
10.29923676751423
 20
-112.9603144758049
 30
0.0
 40
3.200000047683716
 41
0.0
 71
     5
 72
     1
  1
\U+220575
 73
     1
 44
1.0
  0
POINT
  5
7F6
330
7ED
100
AcDbEntity
  8
Defpoints
 62
     0
100
AcDbPoint
 10
-8.476762561340202
 20
-91.32571718207035
 30
0.0
  0
POINT
  5
7F7
330
7ED
100
AcDbEntity
  8
Defpoints
 62
     0
100
AcDbPoint
 10
29.07323609636865
 20
-91.32571718207035
 30
0.0
  0
POINT
  5
7F8
330
7ED
100
AcDbEntity
  8
Defpoints
 62
     0
100
AcDbPoint
 10
29.07323609636865
 20
-115.3757145117823
 30
0.0
  0
ENDBLK
  5
7EF
330
7ED
100
AcDbEntity
  8
0
100
AcDbBlockEnd
  0
ENDSEC
  0
SECTION
  2
ENTITIES
  0
LINE
  5
693
330
1F
100
AcDbEntity
  8
0
  6
CENTER
 62
     7
100
AcDbLine
 10
10.29823793721887
 20
-12.87571451178227
 30
0.0
 11
10.29823793721887
 21
-97.87571451178226
 31
0.0
  0
LINE
  5
694
330
1F
100
AcDbEntity
  8
0
  6
Continuous
 62
     7
100
AcDbLine
 10
-22.70176206278113
 20
-14.87571451178226
 30
0.0
 11
-37.20176206278113
 21
-14.87571451178226
 31
0.0
  0
LINE
  5
695
330
1F
100
AcDbEntity
  8
0
  6
Continuous
 62
     7
100
AcDbLine
 10
10.29823793721887
 20
-15.37571451178226
 30
0.0
 11
-30.70176206278113
 21
-15.37571451178226
 31
0.0
  0
LINE
  5
696
330
1F
100
AcDbEntity
  8
0
  6
Continuous
 62
     7
100
AcDbLine
 10
10.29823793721887
 20
-25.31725809088383
 30
0.0
 11
-30.70176206278113
 21
-25.31725809088383
 31
0.0
  0
LINE
  5
697
330
1F
100
AcDbEntity
  8
0
  6
Continuous
 62
     7
100
AcDbLine
 10
-37.20176206278113
 20
-14.87571451178227
 30
0.0
 11
-37.20176206278113
 21
-72.42570993414554
 31
0.0
  0
LINE
  5
698
330
1F
100
AcDbEntity
  8
0
  6
Continuous
 62
     7
100
AcDbLine
 10
-23.20176206278113
 20
-74.07571908941898
 30
0.0
 11
-27.57821164774207
 21
-74.07571908941898
 31
0.0
  0
LINE
  5
699
330
1F
100
AcDbEntity
  8
0
  6
Continuous
 62
     7
100
AcDbLine
 10
-37.2017674473791
 20
-72.42574629248816
 30
0.0
 11
-33.7292933137965
 21
-73.30722132761316
 31
0.0
  0
LINE
  5
69A
330
1F
100
AcDbEntity
  8
0
  6
Continuous
 62
     7
100
AcDbLine
 10
-22.70176206278113
 20
-74.57571908941898
 30
0.0
 11
-22.70176206278113
 21
-78.57571908941898
 31
0.0
  0
LINE
  5
69B
330
1F
100
AcDbEntity
  8
0
  6
Continuous
 62
     7
100
AcDbLine
 10
-11.70176206278113
 20
-79.07571908941898
 30
0.0
 11
-22.20176206278113
 21
-79.07571908941898
 31
0.0
  0
LINE
  5
69C
330
1F
100
AcDbEntity
  8
0
  6
Continuous
 62
     7
100
AcDbLine
 10
-11.70176206278113
 20
-79.07571908941898
 30
0.0
 11
-11.70176206278113
 21
-79.57571908941898
 31
0.0
  0
LINE
  5
69D
330
1F
100
AcDbEntity
  8
0
  6
Continuous
 62
     7
100
AcDbLine
 10
-22.70176206278113
 20
-14.87571451178227
 30
0.0
 11
-22.70176206278113
 21
-15.37571451178227
 31
0.0
  0
LINE
  5
69E
330
1F
100
AcDbEntity
  8
0
  6
Continuous
 62
     7
100
AcDbLine
 10
-30.70178307086671
 20
-15.3756475237259
 30
0.0
 11
-37.20177624076292
 21
-15.87564702075106
 31
0.0
  0
LINE
  5
69F
330
1F
100
AcDbEntity
  8
0
  6
Continuous
 62
     7
100
AcDbLine
 10
-37.20174505991903
 20
-24.81722607718348
 30
0.0
 11
-30.70175189002282
 21
-25.31722557420863
 31
0.0
  0
LINE
  5
6A0
330
1F
100
AcDbEntity
  8
0
  6
Continuous
 62
     7
100
AcDbLine
 10
10.29823793721887
 20
-38.48556253424321
 30
0.0
 11
-30.70176206278113
 21
-38.48556253424321
 31
0.0
  0
LINE
  5
6A1
330
1F
100
AcDbEntity
  8
0
  6
Continuous
 62
     7
100
AcDbLine
 10
10.29823793721887
 20
-39.5046512793604
 30
0.0
 11
-30.70176206278113
 21
-39.5046512793604
 31
0.0
  0
LINE
  5
6A2
330
1F
100
AcDbEntity
  8
0
  6
Continuous
 62
     7
100
AcDbLine
 10
-30.70172992511302
 20
-38.48555323785661
 30
0.0
 11
-37.20173212958608
 21
-37.29811413436973
 31
0.0
  0
LINE
  5
6A3
330
1F
100
AcDbEntity
  8
0
  6
Continuous
 62
     7
100
AcDbLine
 10
-30.70175324331247
 20
-39.50464152151549
 30
0.0
 11
-37.20175105507147
 21
-38.59263448338231
 31
0.0
  0
LINE
  5
6A4
330
1F
100
AcDbEntity
  8
0
  6
Continuous
 62
     7
100
AcDbLine
 10
-21.756663185828
 20
-78.6655170630518
 30
0.0
 11
10.29823793721887
 21
-78.6655170630518
 31
0.0
  0
LINE
  5
6A5
330
1F
100
AcDbEntity
  8
0
  6
Continuous
 62
     7
100
AcDbLine
 10
-37.09225960933018
 20
-71.9943366819396
 30
0.0
 11
-33.61978177831814
 21
-72.87581265564373
 31
0.0
  0
LINE
  5
6A6
330
1F
100
AcDbEntity
  8
0
  6
Continuous
 62
     7
100
AcDbLine
 10
10.29823793721887
 20
-73.63062021246586
 30
0.0
 11
-27.57821164774207
 21
-73.63062021246586
 31
0.0
  0
LINE
  5
6A7
330
1F
100
AcDbEntity
  8
0
  6
Continuous
 62
     7
100
AcDbLine
 10
-22.256663185828
 20
-74.13062021246586
 30
0.0
 11
-22.256663185828
 21
-78.1655170630518
 31
0.0
  0
LINE
  5
6A8
330
1F
100
AcDbEntity
  8
0
  6
Continuous
 62
     7
100
AcDbLine
 10
44.9788104469845
 20
96.12428548821774
 30
0.0
 11
48.7288104469845
 21
96.12428548821774
 31
0.0
  0
LINE
  5
6A9
330
1F
100
AcDbEntity
  8
0
  6
Continuous
 62
     7
100
AcDbLine
 10
-21.47120557474402
 20
113.6242854882177
 30
0.0
 11
-16.22120557474402
 21
113.6242854882177
 31
0.0
  0
LINE
  5
6AA
330
1F
100
AcDbEntity
  8
0
  6
Continuous
 62
     7
100
AcDbLine
 10
-21.72120557474402
 20
113.3742854882177
 30
0.0
 11
-21.72120557474402
 21
106.0242870140966
 31
0.0
  0
LINE
  5
6AB
330
1F
100
AcDbEntity
  8
0
  6
Continuous
 62
     7
100
AcDbLine
 10
-22.22120557474402
 20
113.6242854882177
 30
0.0
 11
-22.22120557474402
 21
105.7742870140966
 31
0.0
  0
LINE
  5
6AC
330
1F
100
AcDbEntity
  8
0
  6
Continuous
 62
     7
100
AcDbLine
 10
-22.72120557474402
 20
113.6242854882177
 30
0.0
 11
-22.72120557474402
 21
105.7569835472998
 31
0.0
  0
LINE
  5
6AD
330
1F
100
AcDbEntity
  8
0
  6
Continuous
 62
     7
100
AcDbLine
 10
-21.72120557474402
 20
114.1242854882177
 30
0.0
 11
-17.22120557474402
 21
114.1242854882177
 31
0.0
  0
LINE
  5
6AE
330
1F
100
AcDbEntity
  8
0
  6
Continuous
 62
     7
100
AcDbLine
 10
-21.72120557474402
 20
114.6242854882177
 30
0.0
 11
-17.08723340677527
 21
114.6242854882177
 31
0.0
  0
LINE
  5
6AF
330
1F
100
AcDbEntity
  8
0
  6
Continuous
 62
     7
100
AcDbLine
 10
-21.47120557474402
 20
105.7742870140966
 30
0.0
 11
-17.02661023782996
 21
105.7742870140966
 31
0.0
  0
LINE
  5
6B0
330
1F
100
AcDbEntity
  8
0
  6
Continuous
 62
     7
100
AcDbLine
 10
-21.72120557474402
 20
105.2742870140966
 30
0.0
 11
-17.48477063822058
 21
105.2742870140966
 31
0.0
  0
LINE
  5
6B1
330
1F
100
AcDbEntity
  8
0
  6
Continuous
 62
     7
100
AcDbLine
 10
-15.95714436390166
 20
93.0506368294606
 30
0.0
 11
-16.98664184405981
 21
104.8178599846831
 31
0.0
  0
LINE
  5
6B2
330
1F
100
AcDbEntity
  8
0
  6
Continuous
 62
     7
100
AcDbLine
 10
-16.3551455772004
 20
91.86318340254226
 30
0.0
 11
-17.4570907894395
 21
104.4584888473449
 31
0.0
  0
LINE
  5
6B3
330
1F
100
AcDbEntity
  8
0
  6
Continuous
 62
     7
100
AcDbLine
 10
-15.31317775667461
 20
93.3138991020997
 30
0.0
 11
-10.7322520896713
 21
92.08644390008948
 31
0.0
  0
LINE
  5
6B4
330
1F
100
AcDbEntity
  8
0
  6
Continuous
 62
     7
100
AcDbLine
 10
-15.98650091252878
 20
91.42373943709097
 30
0.0
 11
-12.69047945521903
 21
90.54057324366117
 31
0.0
  0
LINE
  5
6B5
330
1F
100
AcDbEntity
  8
0
  6
Continuous
 62
     7
100
AcDbLine
 10
-15.58849576228439
 20
92.61121320173399
 30
0.0
 11
-11.43364101792007
 21
91.49792334717431
 31
0.0
  0
LINE
  5
6B6
330
1F
100
AcDbEntity
  8
0
  6
Continuous
 62
     7
100
AcDbLine
 10
-7.470010812689967
 20
58.57429170278928
 30
0.0
 11
-8.326659878687417
 21
68.3658462423462
 31
0.0
  0
LINE
  5
6B7
330
1F
100
AcDbEntity
  8
0
  6
Continuous
 62
     7
100
AcDbLine
 10
-9.293546140905203
 20
70.81168149561937
 30
0.0
 11
-11.06491922287382
 21
91.05859103004282
 31
0.0
  0
LINE
  5
6B8
330
1F
100
AcDbEntity
  8
0
  6
Continuous
 62
     7
100
AcDbLine
 10
-10.78784029070306
 20
70.68095550174466
 30
0.0
 11
-12.50611619955916
 21
90.32096089412933
 31
0.0
  0
LINE
  5
6B9
330
1F
100
AcDbEntity
  8
0
  6
Continuous
 62
     7
100
AcDbLine
 10
-0.474253517859253
 20
63.08358266839352
 30
0.0
 11
-0.474253517859253
 21
60.57428243645992
 31
0.0
  0
LINE
  5
6BA
330
1F
100
AcDbEntity
  8
0
  6
Continuous
 62
     7
100
AcDbLine
 10
-7.470072609656128
 20
58.57428243645992
 30
0.0
 11
0.098317282921997
 21
58.57428243645992
 31
0.0
  0
LINE
  5
6BB
330
1F
100
AcDbEntity
  8
0
  6
Continuous
 62
     7
100
AcDbLine
 10
-1.224253517859253
 20
62.61913564690914
 30
0.0
 11
-1.224253517859253
 21
60.72180440911617
 31
0.0
  0
LINE
  5
6BC
330
1F
100
AcDbEntity
  8
0
  6
Continuous
 62
     7
100
AcDbLine
 10
-2.724253517859253
 20
61.35164144524898
 30
0.0
 11
-2.724253517859253
 21
58.11529043206539
 31
0.0
  0
LINE
  5
6BD
330
1F
100
AcDbEntity
  8
0
  6
Continuous
 62
     7
100
AcDbLine
 10
42.62171647628205
 20
58.57427256941807
 30
0.0
 11
42.82272998348264
 21
60.87186590569677
 31
0.0
  0
LINE
  5
6BE
330
1F
100
AcDbEntity
  8
0
  6
Continuous
 62
     7
100
AcDbLine
 10
43.68893173457271
 20
62.16726759576587
 30
0.0
 11
46.09830902714663
 21
89.70655731362035
 31
0.0
  0
LINE
  5
6BF
330
1F
100
AcDbEntity
  8
0
  6
Continuous
 62
     7
100
AcDbLine
 10
45.17011626546547
 20
61.88653941257675
 30
0.0
 11
47.58673681477875
 21
89.50861987742661
 31
0.0
  0
LINE
  5
6C0
330
1F
100
AcDbEntity
  8
0
  6
Continuous
 62
     7
100
AcDbLine
 10
45.89687074971887
 20
90.77428701409664
 30
0.0
 11
48.7288104469845
 21
90.77428701409664
 31
0.0
  0
LINE
  5
6C1
330
1F
100
AcDbEntity
  8
0
  6
Continuous
 62
     7
100
AcDbLine
 10
48.9788104469845
 20
95.87428548821774
 30
0.0
 11
48.9788104469845
 21
91.02428701409664
 31
0.0
  0
LINE
  5
6C2
330
1F
100
AcDbEntity
  8
0
  6
Continuous
 62
     7
100
AcDbLine
 10
49.9788104469845
 20
96.12428548821774
 30
0.0
 11
49.9788104469845
 21
90.75698354729977
 31
0.0
  0
LINE
  5
6C3
330
1F
100
AcDbEntity
  8
0
  6
Continuous
 62
     7
100
AcDbLine
 10
45.84483827901575
 20
97.12428548821774
 30
0.0
 11
48.9788104469845
 21
97.12428548821774
 31
0.0
  0
LINE
  5
6C4
330
1F
100
AcDbEntity
  8
0
  6
Continuous
 62
     7
100
AcDbLine
 10
-16.22120557474402
 20
113.6242854882177
 30
0.0
 11
-16.22120557474402
 21
113.1242854882177
 31
0.0
  0
LINE
  5
6C5
330
1F
100
AcDbEntity
  8
0
  6
Continuous
 62
     7
100
AcDbLine
 10
-15.49747340901871
 20
93.5336387870697
 30
0.0
 11
-16.52845837072087
 21
105.3178639530839
 31
0.0
  0
LINE
  5
6C6
330
1F
100
AcDbEntity
  8
0
  6
Continuous
 62
     7
100
AcDbLine
 10
44.9788104469845
 20
96.12428548821774
 30
0.0
 11
44.9788104469845
 21
95.62428548821774
 31
0.0
  0
LINE
  5
6C7
330
1F
100
AcDbEntity
  8
0
  6
Continuous
 62
     7
100
AcDbLine
 10
-8.546360969232941
 20
70.87704399632008
 30
0.0
 11
-10.36350419743276
 21
91.64710927898972
 31
0.0
  0
LINE
  5
6C8
330
1F
100
AcDbEntity
  8
0
  6
Continuous
 62
     7
100
AcDbLine
 10
1.525746482140747
 20
58.57428243645992
 30
0.0
 11
38.95624269796106
 21
58.57428243645992
 31
0.0
  0
LINE
  5
6C9
330
1F
100
AcDbEntity
  8
0
  6
Continuous
 62
     7
100
AcDbLine
 10
42.94117215920875
 20
62.22566524720619
 30
0.0
 11
45.3989216132406
 21
90.31785092401849
 31
0.0
  0
LINE
  5
6CA
330
1F
100
AcDbEntity
  8
0
  6
Continuous
 62
     7
100
AcDbLine
 10
40.5564471657345
 20
58.57428243645992
 30
0.0
 11
42.62157167745325
 21
58.57428243645992
 31
0.0
  0
LINE
  5
6CB
330
1F
100
AcDbEntity
  8
0
  6
Continuous
 62
     7
100
AcDbLine
 10
46.09824339008165
 20
89.70655952331856
 30
0.0
 11
48.99625470052376
 21
89.75714449620065
 31
0.0
  0
LINE
  5
6CC
330
1F
100
AcDbEntity
  8
0
  6
Continuous
 62
     7
100
AcDbLine
 10
-21.73866967371974
 20
104.7571644730902
 30
0.0
 11
-17.70185478419942
 21
104.6867016108575
 31
0.0
  0
LINE
  5
6CD
330
1F
100
AcDbEntity
  8
0
  6
Continuous
 62
     7
100
AcDbLine
 10
-13.94035632036287
 20
92.94611395762293
 30
0.0
 11
-15.24909005984699
 21
107.9050257180603
 31
0.0
  0
LINE
  5
6CE
330
1F
100
AcDbEntity
  8
0
  6
Continuous
 62
     7
100
AcDbLine
 10
-21.72120557474402
 20
109.2742870140966
 30
0.0
 11
-16.74343763040808
 21
109.2742870140966
 31
0.0
  0
LINE
  5
6CF
330
1F
100
AcDbEntity
  8
0
  6
Continuous
 62
     7
100
AcDbLine
 10
48.41792787862512
 20
94.77428701409664
 30
0.0
 11
48.9788104469845
 21
94.77428701409664
 31
0.0
  0
LINE
  5
6D0
330
1F
100
AcDbEntity
  8
0
  6
Continuous
 62
     7
100
AcDbLine
 10
46.69365558346628
 20
90.7742795985727
 30
0.0
 11
46.92381533605638
 21
93.40501581722319
 31
0.0
  0
LINE
  5
6D1
330
1F
100
AcDbEntity
  8
0
  6
Continuous
 62
     7
100
AcDbLine
 10
0.775746482140747
 20
55.8431270409521
 30
0.0
 11
0.775746482140747
 21
51.8258273888525
 31
0.0
  0
LINE
  5
6D2
330
1F
100
AcDbEntity
  8
0
  6
Continuous
 62
     7
100
AcDbLine
 10
24.27576528753375
 20
57.57427844465236
 30
0.0
 11
39.03975167017079
 21
57.8319847717831
 31
0.0
  0
LINE
  5
6D3
330
1F
100
AcDbEntity
  8
0
  6
Continuous
 62
     7
100
AcDbLine
 10
1.477772719280234
 20
57.97222887623668
 30
0.0
 11
24.27576688762834
 21
57.57428842906975
 31
0.0
  0
LINE
  5
6D4
330
1F
100
AcDbEntity
  8
0
  6
Continuous
 62
     7
100
AcDbLine
 10
24.27576278505822
 20
55.92427352670739
 30
0.0
 11
39.05279153827647
 21
56.18220750925126
 31
0.0
  0
LINE
  5
6D5
330
1F
100
AcDbEntity
  8
0
  6
Continuous
 62
     7
100
AcDbLine
 10
-1.004779593413609
 20
56.36556092674002
 30
0.0
 11
24.27574847904002
 21
55.92428769140709
 31
0.0
  0
LINE
  5
6D6
330
1F
100
AcDbEntity
  8
0
  6
Continuous
 62
     7
100
AcDbLine
 10
24.27575766690157
 20
50.92428629873678
 30
0.0
 11
47.29297293544524
 21
51.32605326423668
 31
0.0
  0
LINE
  5
6D7
330
1F
100
AcDbEntity
  8
0
  6
Continuous
 62
     7
100
AcDbLine
 10
1.267046202490088
 20
51.32589221650564
 30
0.0
 11
24.27576457351591
 21
50.92427356489567
 31
0.0
  0
LINE
  5
6D8
330
1F
100
AcDbEntity
  8
0
  6
Continuous
 62
     7
100
AcDbLine
 10
47.78425177949371
 20
51.81724532393012
 30
0.0
 11
48.44633098757874
 21
89.74752927359262
 31
0.0
  0
LINE
  5
6D9
330
1F
100
AcDbEntity
  8
0
  6
Continuous
 62
     7
100
AcDbLine
 10
46.27574648214075
 20
51.30547216424312
 30
0.0
 11
46.27574648214075
 21
50.42428472527828
 31
0.0
  0
LINE
  5
6DA
330
1F
100
AcDbEntity
  8
0
  6
Continuous
 62
     7
100
AcDbLine
 10
24.27574648214075
 20
50.42428472527828
 30
0.0
 11
46.27574648214075
 21
50.42428472527828
 31
0.0
  0
LINE
  5
6DB
330
1F
100
AcDbEntity
  8
0
  6
Continuous
 62
     7
100
AcDbLine
 10
24.27574648214075
 20
50.42428472527828
 30
0.0
 11
2.275746482140747
 21
50.42428472527828
 31
0.0
  0
LINE
  5
6DC
330
1F
100
AcDbEntity
  8
0
  6
Continuous
 62
     7
100
AcDbLine
 10
2.275746482140747
 20
51.30547216424312
 30
0.0
 11
2.275746482140747
 21
50.42428472527828
 31
0.0
  0
LINE
  5
6DD
330
1F
100
AcDbEntity
  8
0
  6
Continuous
 62
     7
100
AcDbLine
 10
-11.70176206278113
 20
-79.57571908941898
 30
0.0
 11
10.29823793721887
 21
-79.57571908941898
 31
0.0
  0
LINE
  5
6DE
330
1F
100
AcDbEntity
  8
0
  6
Continuous
 62
     7
100
AcDbLine
 10
10.29823793721887
 20
-68.44827005377445
 30
0.0
 11
-30.70176206278113
 21
-68.44827005377445
 31
0.0
  0
LINE
  5
6DF
330
1F
100
AcDbEntity
  8
0
  6
Continuous
 62
     7
100
AcDbLine
 10
-37.20176233854168
 20
-67.15172219357781
 30
0.0
 11
-30.70176153120806
 21
-68.44826927135647
 31
0.0
  0
LINE
  5
6E0
330
1F
100
AcDbEntity
  8
0
  6
Continuous
 62
     7
100
AcDbLine
 10
-12.55176033275636
 20
-15.12571547290713
 30
0.0
 11
-12.45176186161545
 21
-15.12571547290713
 31
0.0
  0
LINE
  5
6E1
330
1F
100
AcDbEntity
  8
0
  6
Continuous
 62
     7
100
AcDbLine
 10
-3.30176084684642
 20
-15.27571532538565
 30
0.0
 11
-3.30176084684642
 21
-15.37571451178227
 31
0.0
  0
LINE
  5
6E2
330
1F
100
AcDbEntity
  8
0
  6
Continuous
 62
     7
100
AcDbLine
 10
-12.30175986336981
 20
-15.27571532538565
 30
0.0
 11
-12.30175986336981
 21
-15.37571451178227
 31
0.0
  0
LINE
  5
6E3
330
1F
100
AcDbEntity
  8
0
  6
Continuous
 62
     7
100
AcDbLine
 10
-12.70176233100203
 20
-15.27571532538565
 30
0.0
 11
-12.70176233100203
 21
-15.37571451178227
 31
0.0
  0
LINE
  5
6E4
330
1F
100
AcDbEntity
  8
0
  6
Continuous
 62
     7
100
AcDbLine
 10
-3.701761883967194
 20
-15.27571532538565
 30
0.0
 11
-3.701761883967194
 21
-15.37571451178227
 31
0.0
  0
LINE
  5
6E5
330
1F
100
AcDbEntity
  8
0
  6
Continuous
 62
     7
100
AcDbLine
 10
-3.551760600977261
 20
-15.12571547290713
 30
0.0
 11
-3.451762129836354
 21
-15.12571547290713
 31
0.0
  0
LINE
  5
6E6
330
1F
100
AcDbEntity
  8
0
  6
Continuous
 62
     7
100
AcDbLine
 10
2.794154331603235
 20
61.48030285310057
 30
0.0
 11
2.946452408190548
 21
58.57428243645994
 31
0.0
  0
LINE
  5
6E7
330
1F
100
AcDbEntity
  8
0
  6
Continuous
 62
     7
100
AcDbLine
 10
-6.851991980833567
 20
66.61213896251213
 30
0.0
 11
1.152630853030949
 21
63.69869451445788
 31
0.0
  0
LINE
  5
6E8
330
1F
100
AcDbEntity
  8
0
  6
Continuous
 62
     7
100
AcDbLine
 10
24.27574853561392
 20
34.62428548821774
 30
0.0
 11
38.88011865280142
 21
34.62428548821774
 31
0.0
  0
LINE
  5
6E9
330
1F
100
AcDbEntity
  8
0
  6
Continuous
 62
     7
100
AcDbLine
 10
39.12993030900572
 20
34.87427506653652
 30
0.0
 11
39.19205647866749
 21
38.42428004816237
 31
0.0
  0
LINE
  5
6EA
330
1F
100
AcDbEntity
  8
0
  6
Continuous
 62
     7
100
AcDbLine
 10
38.88020590231609
 20
34.62417536796941
 30
0.0
 11
39.13020078773193
 21
34.87417023231225
 31
0.0
  0
LINE
  5
6EB
330
1F
100
AcDbEntity
  8
0
  6
Continuous
 62
     7
100
AcDbLine
 10
24.27574853561392
 20
34.62428548821774
 30
0.0
 11
9.671378418426421
 21
34.62428548821774
 31
0.0
  0
LINE
  5
6EC
330
1F
100
AcDbEntity
  8
0
  6
Continuous
 62
     7
100
AcDbLine
 10
9.421255508799028
 20
34.87428296176153
 30
0.0
 11
9.359129539381698
 21
38.42427650104761
 31
0.0
  0
LINE
  5
6ED
330
1F
100
AcDbEntity
  8
0
  6
Continuous
 62
     7
100
AcDbLine
 10
9.671417628896616
 20
34.62431427176573
 30
0.0
 11
9.421411953887109
 21
34.87431992570134
 31
0.0
  0
LINE
  5
6EE
330
1F
100
AcDbEntity
  8
0
  6
Continuous
 62
     7
100
AcDbLine
 10
5.307237018955862
 20
45.93094985190326
 30
0.0
 11
5.487770119674089
 21
39.16095853712605
 31
0.0
  0
LINE
  5
6EF
330
1F
100
AcDbEntity
  8
0
  6
Continuous
 62
     7
100
AcDbLine
 10
46.21013731291953
 20
46.66555907620227
 30
0.0
 11
46.27574611169267
 21
50.42428484150503
 31
0.0
  0
LINE
  5
6F0
330
1F
100
AcDbEntity
  8
0
  6
Continuous
 62
     7
100
AcDbLine
 10
2.341355649625812
 20
46.66555917566759
 30
0.0
 11
2.275746850852669
 21
50.42428494097035
 31
0.0
  0
LINE
  5
6F1
330
1F
100
AcDbEntity
  8
0
  6
Continuous
 62
     7
100
AcDbLine
 10
43.24425732291681
 20
45.93094954849497
 30
0.0
 11
43.06372422219858
 21
39.16095823371774
 31
0.0
  0
LINE
  5
6F2
330
1F
100
AcDbEntity
  8
0
  6
Continuous
 62
     7
100
AcDbLine
 10
5.987592503051665
 20
38.67428663262692
 30
0.0
 11
42.56390361450186
 21
38.67428663262692
 31
0.0
  0
LINE
  5
6F3
330
1F
100
AcDbEntity
  8
0
  6
Continuous
 62
     7
100
AcDbLine
 10
45.71021632812491
 20
46.17428472527828
 30
0.0
 11
2.841279789428619
 21
46.17428472527828
 31
0.0
  0
LINE
  5
6F4
330
1F
100
AcDbEntity
  8
0
  6
Continuous
 62
     7
100
AcDbLine
 10
10.29823793721887
 20
-95.37571451178226
 30
0.0
 11
-4.306132179968628
 21
-95.37571451178226
 31
0.0
  0
LINE
  5
6F5
330
1F
100
AcDbEntity
  8
0
  6
Continuous
 62
     7
100
AcDbLine
 10
-4.306224523195304
 20
-95.3757645086796
 30
0.0
 11
-4.556219408611142
 21
-95.12576964433674
 31
0.0
  0
LINE
  5
6F6
330
1F
100
AcDbEntity
  8
0
  6
Continuous
 62
     7
100
AcDbLine
 10
-4.556111820944908
 20
-95.12570570937459
 30
0.0
 11
-4.61823779036224
 21
-91.57571217008851
 31
0.0
  0
LINE
  5
6F7
330
1F
100
AcDbEntity
  8
0
  6
Continuous
 62
     7
100
AcDbLine
 10
-8.670273579439193
 20
-84.06905396279403
 30
0.0
 11
-8.489740478720968
 21
-90.83904527757124
 31
0.0
  0
LINE
  5
6F8
330
1F
100
AcDbEntity
  8
0
  6
Continuous
 62
     7
100
AcDbLine
 10
-11.63615494876925
 20
-83.33444463902967
 30
0.0
 11
-11.70176374754239
 21
-79.57571887372691
 31
0.0
  0
LINE
  5
6F9
330
1F
100
AcDbEntity
  8
0
  6
Continuous
 62
     7
100
AcDbLine
 10
-7.989918095343384
 20
-91.32571718207035
 30
0.0
 11
10.29823793721887
 21
-91.32571718207035
 31
0.0
  0
LINE
  5
6FA
330
1F
100
AcDbEntity
  8
0
  6
Continuous
 62
     7
100
AcDbLine
 10
10.29823793721887
 20
-83.82571908941898
 30
0.0
 11
-11.13623080896643
 21
-83.82571908941898
 31
0.0
  0
LINE
  5
6FB
330
1F
100
AcDbEntity
  8
0
  6
Continuous
 62
     7
100
AcDbLine
 10
10.29823793721887
 20
-83.82571908941898
 30
0.0
 11
31.73270668340417
 21
-83.82571908941898
 31
0.0
  0
LINE
  5
6FC
330
1F
100
AcDbEntity
  8
0
  6
Continuous
 62
     7
100
AcDbLine
 10
28.58639396978113
 20
-91.32571718207035
 30
0.0
 11
10.29823793721887
 21
-91.32571718207035
 31
0.0
  0
LINE
  5
6FD
330
1F
100
AcDbEntity
  8
0
  6
Continuous
 62
     7
100
AcDbLine
 10
32.232630823207
 20
-83.33444463902968
 30
0.0
 11
32.29823962198014
 21
-79.57571887372694
 31
0.0
  0
LINE
  5
6FE
330
1F
100
AcDbEntity
  8
0
  6
Continuous
 62
     7
100
AcDbLine
 10
29.26674945387694
 20
-84.06905396279404
 30
0.0
 11
29.08621635315872
 21
-90.83904527757127
 31
0.0
  0
LINE
  5
6FF
330
1F
100
AcDbEntity
  8
0
  6
Continuous
 62
     7
100
AcDbLine
 10
43.29823793721887
 20
-14.87571451178226
 30
0.0
 11
57.79823793721887
 21
-14.87571451178226
 31
0.0
  0
LINE
  5
700
330
1F
100
AcDbEntity
  8
0
  6
Continuous
 62
     7
100
AcDbLine
 10
10.29823793721887
 20
-15.37571451178226
 30
0.0
 11
51.29823793721887
 21
-15.37571451178226
 31
0.0
  0
LINE
  5
701
330
1F
100
AcDbEntity
  8
0
  6
Continuous
 62
     7
100
AcDbLine
 10
10.29823793721887
 20
-25.31725809088383
 30
0.0
 11
51.29823793721887
 21
-25.31725809088383
 31
0.0
  0
LINE
  5
702
330
1F
100
AcDbEntity
  8
0
  6
Continuous
 62
     7
100
AcDbLine
 10
57.79823793721887
 20
-14.87571451178227
 30
0.0
 11
57.79823793721887
 21
-72.42570993414554
 31
0.0
  0
LINE
  5
703
330
1F
100
AcDbEntity
  8
0
  6
Continuous
 62
     7
100
AcDbLine
 10
43.79823793721887
 20
-74.07571908941898
 30
0.0
 11
48.17468752217981
 21
-74.07571908941898
 31
0.0
  0
LINE
  5
704
330
1F
100
AcDbEntity
  8
0
  6
Continuous
 62
     7
100
AcDbLine
 10
57.79824332181685
 20
-72.42574629248818
 30
0.0
 11
54.32576918823425
 21
-73.30722132761319
 31
0.0
  0
LINE
  5
705
330
1F
100
AcDbEntity
  8
0
  6
Continuous
 62
     7
100
AcDbLine
 10
43.29823793721887
 20
-74.57571908941898
 30
0.0
 11
43.29823793721887
 21
-78.57571908941898
 31
0.0
  0
LINE
  5
706
330
1F
100
AcDbEntity
  8
0
  6
Continuous
 62
     7
100
AcDbLine
 10
32.29823793721887
 20
-79.07571908941898
 30
0.0
 11
42.79823793721887
 21
-79.07571908941898
 31
0.0
  0
LINE
  5
707
330
1F
100
AcDbEntity
  8
0
  6
Continuous
 62
     7
100
AcDbLine
 10
32.29823793721887
 20
-79.07571908941898
 30
0.0
 11
32.29823793721887
 21
-79.57571908941898
 31
0.0
  0
LINE
  5
708
330
1F
100
AcDbEntity
  8
0
  6
Continuous
 62
     7
100
AcDbLine
 10
43.29823793721887
 20
-14.87571451178227
 30
0.0
 11
43.29823793721887
 21
-15.37571451178227
 31
0.0
  0
LINE
  5
709
330
1F
100
AcDbEntity
  8
0
  6
Continuous
 62
     7
100
AcDbLine
 10
51.29825894530445
 20
-15.3756475237259
 30
0.0
 11
57.79825211520066
 21
-15.87564702075105
 31
0.0
  0
LINE
  5
70A
330
1F
100
AcDbEntity
  8
0
  6
Continuous
 62
     7
100
AcDbLine
 10
57.79822093435677
 20
-24.81722607718347
 30
0.0
 11
51.29822776446056
 21
-25.31722557420862
 31
0.0
  0
LINE
  5
70B
330
1F
100
AcDbEntity
  8
0
  6
Continuous
 62
     7
100
AcDbLine
 10
10.29823793721887
 20
-38.48556253424321
 30
0.0
 11
51.29823793721887
 21
-38.48556253424321
 31
0.0
  0
LINE
  5
70C
330
1F
100
AcDbEntity
  8
0
  6
Continuous
 62
     7
100
AcDbLine
 10
10.29823793721887
 20
-39.5046512793604
 30
0.0
 11
51.29823793721887
 21
-39.5046512793604
 31
0.0
  0
LINE
  5
70D
330
1F
100
AcDbEntity
  8
0
  6
Continuous
 62
     7
100
AcDbLine
 10
51.29820579955078
 20
-38.48555323785661
 30
0.0
 11
57.79820800402383
 21
-37.29811413436973
 31
0.0
  0
LINE
  5
70E
330
1F
100
AcDbEntity
  8
0
  6
Continuous
 62
     7
100
AcDbLine
 10
51.29822911775021
 20
-39.50464152151549
 30
0.0
 11
57.79822692950921
 21
-38.59263448338231
 31
0.0
  0
LINE
  5
70F
330
1F
100
AcDbEntity
  8
0
  6
Continuous
 62
     7
100
AcDbLine
 10
42.35313906026575
 20
-78.6655170630518
 30
0.0
 11
10.29823793721887
 21
-78.6655170630518
 31
0.0
  0
LINE
  5
710
330
1F
100
AcDbEntity
  8
0
  6
Continuous
 62
     7
100
AcDbLine
 10
57.68873548376794
 20
-71.99433668193961
 30
0.0
 11
54.2162576527559
 21
-72.87581265564374
 31
0.0
  0
LINE
  5
711
330
1F
100
AcDbEntity
  8
0
  6
Continuous
 62
     7
100
AcDbLine
 10
10.29823793721887
 20
-73.63062021246586
 30
0.0
 11
48.17468752217981
 21
-73.63062021246586
 31
0.0
  0
LINE
  5
712
330
1F
100
AcDbEntity
  8
0
  6
Continuous
 62
     7
100
AcDbLine
 10
42.85313906026575
 20
-74.13062021246586
 30
0.0
 11
42.85313906026575
 21
-78.1655170630518
 31
0.0
  0
LINE
  5
713
330
1F
100
AcDbEntity
  8
0
  6
Continuous
 62
     7
100
AcDbLine
 10
33.1482362071941
 20
-15.12571547290713
 30
0.0
 11
33.0482377360532
 21
-15.12571547290713
 31
0.0
  0
LINE
  5
714
330
1F
100
AcDbEntity
  8
0
  6
Continuous
 62
     7
100
AcDbLine
 10
33.29823820543977
 20
-15.27571532538565
 30
0.0
 11
33.29823820543977
 21
-15.37571451178227
 31
0.0
  0
LINE
  5
715
330
1F
100
AcDbEntity
  8
0
  6
Continuous
 62
     7
100
AcDbLine
 10
32.89823573780755
 20
-15.27571532538565
 30
0.0
 11
32.89823573780755
 21
-15.37571451178227
 31
0.0
  0
LINE
  5
716
330
1F
100
AcDbEntity
  8
0
  6
Continuous
 62
     7
100
AcDbLine
 10
23.89823672128416
 20
-15.27571532538565
 30
0.0
 11
23.89823672128416
 21
-15.37571451178227
 31
0.0
  0
LINE
  5
717
330
1F
100
AcDbEntity
  8
0
  6
Continuous
 62
     7
100
AcDbLine
 10
32.29823793721887
 20
-79.57571908941898
 30
0.0
 11
10.29823793721887
 21
-79.57571908941898
 31
0.0
  0
LINE
  5
718
330
1F
100
AcDbEntity
  8
0
  6
Continuous
 62
     7
100
AcDbLine
 10
25.15258769538266
 20
-95.12570570937459
 30
0.0
 11
25.21471366479999
 21
-91.57571217008852
 31
0.0
  0
LINE
  5
719
330
1F
100
AcDbEntity
  8
0
  6
Continuous
 62
     7
100
AcDbLine
 10
24.90270039763305
 20
-95.37576450867962
 30
0.0
 11
25.15269528304889
 21
-95.12576964433677
 31
0.0
  0
LINE
  5
71A
330
1F
100
AcDbEntity
  8
0
  6
Continuous
 62
     7
100
AcDbLine
 10
10.29823793721887
 20
-95.37571451178226
 30
0.0
 11
24.90260805440637
 21
-95.37571451178226
 31
0.0
  0
LINE
  5
71B
330
1F
100
AcDbEntity
  8
0
  6
Continuous
 62
     7
100
AcDbLine
 10
10.29823793721887
 20
-68.44827005377445
 30
0.0
 11
51.29823793721887
 21
-68.44827005377445
 31
0.0
  0
LINE
  5
71C
330
1F
100
AcDbEntity
  8
0
  6
Continuous
 62
     7
100
AcDbLine
 10
57.79823821297943
 20
-67.15172219357783
 30
0.0
 11
51.29823740564581
 21
-68.44826927135648
 31
0.0
  0
LINE
  5
71D
330
1F
100
AcDbEntity
  8
0
  6
Continuous
 62
     7
100
AcDbLine
 10
24.29823775840494
 20
-15.27571532538565
 30
0.0
 11
24.29823775840494
 21
-15.37571451178227
 31
0.0
  0
LINE
  5
71E
330
1F
100
AcDbEntity
  8
0
  6
Continuous
 62
     7
100
AcDbLine
 10
24.148236475415
 20
-15.12571547290713
 30
0.0
 11
24.0482380042741
 21
-15.12571547290713
 31
0.0
  0
ARC
  5
71F
330
1F
100
AcDbEntity
  8
0
  6
Continuous
 62
     7
100
AcDbCircle
 10
-27.57821164774207
 20
-49.07571146002445
 30
0.0
 40
25.0
100
AcDbArc
 50
255.7565054154848
 51
269.999963344576
  0
ARC
  5
720
330
1F
100
AcDbEntity
  8
0
  6
Continuous
 62
     7
100
AcDbCircle
 10
-23.20176206278113
 20
-74.57571908941898
 30
0.0
 40
0.5
100
AcDbArc
 50
0.0
 51
89.99998201391067
  0
ARC
  5
721
330
1F
100
AcDbEntity
  8
0
  6
Continuous
 62
     7
100
AcDbCircle
 10
-22.20176206278113
 20
-78.57571908941898
 30
0.0
 40
0.5
100
AcDbArc
 50
179.9999640278213
 51
269.999946041732
  0
ARC
  5
722
330
1F
100
AcDbEntity
  8
0
  6
Continuous
 62
     7
100
AcDbCircle
 10
10.29823793721887
 20
-668.8347065161768
 30
0.0
 40
590.1692504882812
100
AcDbArc
 50
90.00000000000001
 51
92.13641054477728
  0
ARC
  5
723
330
1F
100
AcDbEntity
  8
0
  6
Continuous
 62
     7
100
AcDbCircle
 10
-27.57821164774207
 20
-49.07571146002445
 30
0.0
 40
24.55490493774414
100
AcDbArc
 50
255.7565054154848
 51
269.999963344576
  0
ARC
  5
724
330
1F
100
AcDbEntity
  8
0
  6
Continuous
 62
     7
100
AcDbCircle
 10
-22.756663185828
 20
-74.13062021246586
 30
0.0
 40
0.5
100
AcDbArc
 50
0.0
 51
89.99998201391067
  0
ARC
  5
725
330
1F
100
AcDbEntity
  8
0
  6
Continuous
 62
     7
100
AcDbCircle
 10
-21.756663185828
 20
-78.1655170630518
 30
0.0
 40
0.5
100
AcDbArc
 50
179.9999813306653
 51
270.0000179860893
  0
ARC
  5
726
330
1F
100
AcDbEntity
  8
0
  6
Continuous
 62
     7
100
AcDbCircle
 10
-0.576868874304566
 20
71.57428243645992
 30
0.0
 40
8.0
100
AcDbArc
 50
184.9999666710598
 51
267.3203708501533
  0
ARC
  5
727
330
1F
100
AcDbEntity
  8
0
  6
Continuous
 62
     7
100
AcDbCircle
 10
-0.576868874304566
 20
71.57428243645992
 30
0.0
 40
8.75
100
AcDbArc
 50
184.9999666710598
 51
264.2775762164259
  0
ARC
  5
728
330
1F
100
AcDbEntity
  8
0
  6
Continuous
 62
     7
100
AcDbCircle
 10
-0.576868874304566
 20
71.57428243645992
 30
0.0
 40
10.25
100
AcDbArc
 50
184.9999666710598
 51
256.8016746226585
  0
ARC
  5
729
330
1F
100
AcDbEntity
  8
0
  6
Continuous
 62
     7
100
AcDbCircle
 10
1.525746482140747
 20
60.57428243645992
 30
0.0
 40
2.0
100
AcDbArc
 50
179.9999813306653
 51
270.0000179860893
  0
ARC
  5
72A
330
1F
100
AcDbEntity
  8
0
  6
Continuous
 62
     7
100
AcDbCircle
 10
-2.974253517859253
 20
61.35164144524899
 30
0.0
 40
0.25
100
AcDbArc
 50
0.0
 51
76.80113321648126
  0
ARC
  5
72B
330
1F
100
AcDbEntity
  8
0
  6
Continuous
 62
     7
100
AcDbCircle
 10
-1.474253517859253
 20
62.61913564690914
 30
0.0
 40
0.25
100
AcDbArc
 50
0.0
 51
84.27635862152084
  0
ARC
  5
72C
330
1F
100
AcDbEntity
  8
0
  6
Continuous
 62
     7
100
AcDbCircle
 10
-0.974253517859253
 20
63.08358266839352
 30
0.0
 40
0.5
100
AcDbArc
 50
0.0
 51
87.32026657608287
  0
ARC
  5
72D
330
1F
100
AcDbEntity
  8
0
  6
Continuous
 62
     7
100
AcDbCircle
 10
38.95624269796106
 20
62.57428243645992
 30
0.0
 40
4.0
100
AcDbArc
 50
270.0000179860893
 51
355.0000236242288
  0
ARC
  5
72E
330
1F
100
AcDbEntity
  8
0
  6
Continuous
 62
     7
100
AcDbCircle
 10
-16.22120557474402
 20
114.1242854882177
 30
0.0
 40
1.0
100
AcDbArc
 50
0.0
 51
179.9999640278213
  0
ARC
  5
72F
330
1F
100
AcDbEntity
  8
0
  6
Continuous
 62
     7
100
AcDbCircle
 10
-16.22120557474402
 20
114.1242854882177
 30
0.0
 40
1.0
100
AcDbArc
 50
270.0000179860893
 51
0.0
  0
ARC
  5
730
330
1F
100
AcDbEntity
  8
0
  6
Continuous
 62
     7
100
AcDbCircle
 10
-21.47120557474402
 20
113.3742854882177
 30
0.0
 40
0.25
100
AcDbArc
 50
89.99998201391067
 51
179.9999640278213
  0
ARC
  5
731
330
1F
100
AcDbEntity
  8
0
  6
Continuous
 62
     7
100
AcDbCircle
 10
-21.72120557474402
 20
113.6242854882177
 30
0.0
 40
0.5
100
AcDbArc
 50
89.99998201391067
 51
179.9999640278213
  0
ARC
  5
732
330
1F
100
AcDbEntity
  8
0
  6
Continuous
 62
     7
100
AcDbCircle
 10
-21.72120557474402
 20
113.6242854882177
 30
0.0
 40
1.0
100
AcDbArc
 50
89.99998201391067
 51
179.9999640278213
  0
ARC
  5
733
330
1F
100
AcDbEntity
  8
0
  6
Continuous
 62
     7
100
AcDbCircle
 10
-21.47120557474402
 20
106.0242870140966
 30
0.0
 40
0.25
100
AcDbArc
 50
179.9999813306653
 51
270.0000179860893
  0
ARC
  5
734
330
1F
100
AcDbEntity
  8
0
  6
Continuous
 62
     7
100
AcDbCircle
 10
-21.72120557474402
 20
105.7742870140966
 30
0.0
 40
0.5
100
AcDbArc
 50
179.9999813306653
 51
270.0000179860893
  0
ARC
  5
735
330
1F
100
AcDbEntity
  8
0
  6
Continuous
 62
     7
100
AcDbCircle
 10
-17.48477063822058
 20
104.7742870140966
 30
0.0
 40
0.5
100
AcDbArc
 50
4.999969545582019
 51
89.99998201391067
  0
ARC
  5
736
330
1F
100
AcDbEntity
  8
0
  6
Continuous
 62
     7
100
AcDbCircle
 10
-17.02661023782996
 20
105.2742870140966
 30
0.0
 40
0.5
100
AcDbArc
 50
5.000078401721916
 51
89.99998201391067
  0
ARC
  5
737
330
1F
100
AcDbEntity
  8
0
  6
Continuous
 62
     7
100
AcDbCircle
 10
-15.24847303079871
 20
93.5554302025732
 30
0.0
 40
0.25
100
AcDbArc
 50
184.9999939918165
 51
254.9983475874242
  0
ARC
  5
738
330
1F
100
AcDbEntity
  8
0
  6
Continuous
 62
     7
100
AcDbCircle
 10
-15.45907483743933
 20
93.09421804437008
 30
0.0
 40
0.5
100
AcDbArc
 50
184.9999666710598
 51
255.0000141535817
  0
ARC
  5
739
330
1F
100
AcDbEntity
  8
0
  6
Continuous
 62
     7
100
AcDbCircle
 10
-15.85710035013464
 20
91.9067714501318
 30
0.0
 40
0.5
100
AcDbArc
 50
184.9999120295464
 51
254.9999936630142
  0
ARC
  5
73A
330
1F
100
AcDbEntity
  8
0
  6
Continuous
 62
     7
100
AcDbCircle
 10
-12.75518689798621
 20
90.29916646966305
 30
0.0
 40
0.25
100
AcDbArc
 50
5.000121944177875
 51
75.00159693623634
  0
ARC
  5
73B
330
1F
100
AcDbEntity
  8
0
  6
Continuous
 62
     7
100
AcDbCircle
 10
-11.56304822611121
 20
91.01500204095211
 30
0.0
 40
0.5
100
AcDbArc
 50
5.000078401721916
 51
74.99998501159222
  0
ARC
  5
73C
330
1F
100
AcDbEntity
  8
0
  6
Continuous
 62
     7
100
AcDbCircle
 10
-10.86166272806433
 20
91.6035259056982
 30
0.0
 40
0.5
100
AcDbArc
 50
4.999969545582019
 51
74.99991670970051
  0
ARC
  5
73D
330
1F
100
AcDbEntity
  8
0
  6
Continuous
 62
     7
100
AcDbCircle
 10
48.7288104469845
 20
95.87428548821774
 30
0.0
 40
0.25
100
AcDbArc
 50
0.0
 51
89.99998201391067
  0
ARC
  5
73E
330
1F
100
AcDbEntity
  8
0
  6
Continuous
 62
     7
100
AcDbCircle
 10
48.9788104469845
 20
96.12428548821774
 30
0.0
 40
1.0
100
AcDbArc
 50
0.0
 51
89.99998201391067
  0
ARC
  5
73F
330
1F
100
AcDbEntity
  8
0
  6
Continuous
 62
     7
100
AcDbCircle
 10
48.7288104469845
 20
91.02428701409664
 30
0.0
 40
0.25
100
AcDbArc
 50
270.0000179860893
 51
0.0
  0
ARC
  5
740
330
1F
100
AcDbEntity
  8
0
  6
Continuous
 62
     7
100
AcDbCircle
 10
45.89687074971887
 20
90.27428701409664
 30
0.0
 40
0.5
100
AcDbArc
 50
89.99998201391067
 51
175.0000196685619
  0
ARC
  5
741
330
1F
100
AcDbEntity
  8
0
  6
Continuous
 62
     7
100
AcDbCircle
 10
44.9788104469845
 20
96.62428548821774
 30
0.0
 40
1.0
100
AcDbArc
 50
29.99992911783977
 51
270.0000006832453
  0
ARC
  5
742
330
1F
100
AcDbEntity
  8
0
  6
Continuous
 62
     7
100
AcDbCircle
 10
48.9788104469845
 20
90.75698354729977
 30
0.0
 40
1.0
100
AcDbArc
 50
270.9999918315251
 51
0.0
  0
ARC
  5
743
330
1F
100
AcDbEntity
  8
0
  6
Continuous
 62
     7
100
AcDbCircle
 10
47.83560671163293
 20
89.48683431634274
 30
0.0
 40
0.25
100
AcDbArc
 50
91.00022906691318
 51
175.0000196685619
  0
ARC
  5
744
330
1F
100
AcDbEntity
  8
0
  6
Continuous
 62
     7
100
AcDbCircle
 10
-21.72120557474402
 20
105.7569835472998
 30
0.0
 40
1.0
100
AcDbArc
 50
179.9999813306653
 51
268.9999894991403
  0
ARC
  5
745
330
1F
100
AcDbEntity
  8
0
  6
Continuous
 62
     7
100
AcDbCircle
 10
-17.70620618509558
 20
104.4367091942724
 30
0.0
 40
0.25
100
AcDbArc
 50
4.99991234274772
 51
89.00000816847493
  0
ARC
  5
746
330
1F
100
AcDbEntity
  8
0
  6
Continuous
 62
     7
100
AcDbCircle
 10
-16.74343763040808
 20
107.7742870140966
 30
0.0
 40
1.5
100
AcDbArc
 50
4.999994731904583
 51
89.99998201391067
  0
ARC
  5
747
330
1F
100
AcDbEntity
  8
0
  6
Continuous
 62
     7
100
AcDbCircle
 10
48.41792787862512
 20
93.27428701409664
 30
0.0
 40
1.5
100
AcDbArc
 50
89.99998201391067
 51
175.0000196685619
  0
ARC
  5
748
330
1F
100
AcDbEntity
  8
0
  6
Continuous
 62
     7
100
AcDbCircle
 10
1.525746482140747
 20
60.72180440911617
 30
0.0
 40
2.75
100
AcDbArc
 50
179.9999813306653
 51
268.9999894991403
  0
ARC
  5
749
330
1F
100
AcDbEntity
  8
0
  6
Continuous
 62
     7
100
AcDbCircle
 10
-0.974253517859253
 20
58.11529043206539
 30
0.0
 40
1.75
100
AcDbArc
 50
179.9999813306653
 51
268.9999894991403
  0
ARC
  5
74A
330
1F
100
AcDbEntity
  8
0
  6
Continuous
 62
     7
100
AcDbCircle
 10
0.275746482140747
 20
55.84312704095211
 30
0.0
 40
0.5
100
AcDbArc
 50
0.0
 51
89.00000816847493
  0
ARC
  5
74B
330
1F
100
AcDbEntity
  8
0
  6
Continuous
 62
     7
100
AcDbCircle
 10
38.9568377907345
 20
62.58127096185055
 30
0.0
 40
4.75
100
AcDbArc
 50
270.9999781711467
 51
354.999994169038
  0
ARC
  5
74C
330
1F
100
AcDbEntity
  8
0
  6
Continuous
 62
     7
100
AcDbCircle
 10
38.94371523214075
 20
62.43126180657711
 30
0.0
 40
6.25
100
AcDbArc
 50
270.9999986617142
 51
354.9999975841326
  0
ARC
  5
74D
330
1F
100
AcDbEntity
  8
0
  6
Continuous
 62
     7
100
AcDbCircle
 10
47.28426088643762
 20
51.8259723473486
 30
0.0
 40
0.5
100
AcDbArc
 50
271.0002103975785
 51
358.9997830425185
  0
ARC
  5
74E
330
1F
100
AcDbEntity
  8
0
  6
Continuous
 62
     7
100
AcDbCircle
 10
1.275746482140747
 20
51.8258273888525
 30
0.0
 40
0.5
100
AcDbArc
 50
179.9999813306653
 51
268.9999894991403
  0
ARC
  5
74F
330
1F
100
AcDbEntity
  8
0
  6
Continuous
 62
     7
100
AcDbCircle
 10
-12.55176033275636
 20
-15.27571532538565
 30
0.0
 40
0.1500000089406965
100
AcDbArc
 50
90.00000250447816
 51
180.0000050089563
  0
ARC
  5
750
330
1F
100
AcDbEntity
  8
0
  6
Continuous
 62
     7
100
AcDbCircle
 10
-12.45176186161545
 20
-15.27571532538565
 30
0.0
 40
0.1500000089406965
100
AcDbArc
 50
0.0
 51
90.00000250447816
  0
ARC
  5
751
330
1F
100
AcDbEntity
  8
0
  6
Continuous
 62
     7
100
AcDbCircle
 10
-3.551760600977261
 20
-15.27571532538565
 30
0.0
 40
0.1500000089406965
100
AcDbArc
 50
90.00000250447816
 51
180.0000050089563
  0
ARC
  5
752
330
1F
100
AcDbEntity
  8
0
  6
Continuous
 62
     7
100
AcDbCircle
 10
-3.451762129836354
 20
-15.27571532538565
 30
0.0
 40
0.1500000089406965
100
AcDbArc
 50
0.0
 51
90.00000250447816
  0
ARC
  5
753
330
1F
100
AcDbEntity
  8
0
  6
Continuous
 62
     7
100
AcDbCircle
 10
0.297580494716826
 20
61.34946296249319
 30
0.0
 40
2.5
100
AcDbArc
 50
3.000000000000056
 51
70.00000000000006
  0
ARC
  5
754
330
1F
100
AcDbEntity
  8
0
  6
Continuous
 62
     7
100
AcDbCircle
 10
45.71021632812491
 20
46.67428472527828
 30
0.0
 40
0.5
100
AcDbArc
 50
269.9999974955218
 51
359.0000012884068
  0
ARC
  5
755
330
1F
100
AcDbEntity
  8
0
  6
Continuous
 62
     7
100
AcDbCircle
 10
2.841279789428619
 20
46.67428472527828
 30
0.0
 40
0.5
100
AcDbArc
 50
181.0000029874252
 51
269.9999974955218
  0
ARC
  5
756
330
1F
100
AcDbEntity
  8
0
  6
Continuous
 62
     7
100
AcDbCircle
 10
5.987592503051665
 20
39.17428663262692
 30
0.0
 40
0.5
100
AcDbArc
 50
181.527525817782
 51
269.9999974955218
  0
ARC
  5
757
330
1F
100
AcDbEntity
  8
0
  6
Continuous
 62
     7
100
AcDbCircle
 10
42.56390361450186
 20
39.17428663262692
 30
0.0
 40
0.5
100
AcDbArc
 50
269.9999974955218
 51
358.4724716278609
  0
ARC
  5
758
330
1F
100
AcDbEntity
  8
0
  6
Continuous
 62
     7
100
AcDbCircle
 10
5.057327076415923
 20
45.92428472527828
 30
0.0
 40
0.25
100
AcDbArc
 50
1.527526451148395
 51
90.00000250447816
  0
ARC
  5
759
330
1F
100
AcDbEntity
  8
0
  6
Continuous
 62
     7
100
AcDbCircle
 10
43.49417094848624
 20
45.92428472527828
 30
0.0
 40
0.25
100
AcDbArc
 50
89.999995674289
 51
178.472474182218
  0
ARC
  5
75A
330
1F
100
AcDbEntity
  8
0
  6
Continuous
 62
     7
100
AcDbCircle
 10
-11.13623080896643
 20
-83.32571908941898
 30
0.0
 40
0.5
100
AcDbArc
 50
181.0000029874252
 51
269.9999974955218
  0
ARC
  5
75B
330
1F
100
AcDbEntity
  8
0
  6
Continuous
 62
     7
100
AcDbCircle
 10
-7.989918095343384
 20
-90.82571718207035
 30
0.0
 40
0.5
100
AcDbArc
 50
181.527525817782
 51
269.9999974955218
  0
ARC
  5
75C
330
1F
100
AcDbEntity
  8
0
  6
Continuous
 62
     7
100
AcDbCircle
 10
-8.920183521979126
 20
-84.07571908941898
 30
0.0
 40
0.25
100
AcDbArc
 50
1.527526451148395
 51
90.00000250447816
  0
ARC
  5
75D
330
1F
100
AcDbEntity
  8
0
  6
Continuous
 62
     7
100
AcDbCircle
 10
29.51665939641687
 20
-84.07571908941898
 30
0.0
 40
0.25
100
AcDbArc
 50
89.99999749552188
 51
178.4724735488517
  0
ARC
  5
75E
330
1F
100
AcDbEntity
  8
0
  6
Continuous
 62
     7
100
AcDbCircle
 10
28.58639396978113
 20
-90.82571718207035
 30
0.0
 40
0.5
100
AcDbArc
 50
270.0000025044782
 51
358.4724741822181
  0
ARC
  5
75F
330
1F
100
AcDbEntity
  8
0
  6
Continuous
 62
     7
100
AcDbCircle
 10
48.17468752217981
 20
-49.07571146002445
 30
0.0
 40
25.0
100
AcDbArc
 50
270.0000366554241
 51
284.2434945845152
  0
ARC
  5
760
330
1F
100
AcDbEntity
  8
0
  6
Continuous
 62
     7
100
AcDbCircle
 10
43.79823793721887
 20
-74.57571908941898
 30
0.0
 40
0.5
100
AcDbArc
 50
90.0000179860894
 51
180.0
  0
ARC
  5
761
330
1F
100
AcDbEntity
  8
0
  6
Continuous
 62
     7
100
AcDbCircle
 10
42.79823793721887
 20
-78.57571908941898
 30
0.0
 40
0.5
100
AcDbArc
 50
270.0000539582681
 51
0.000035972178736
  0
ARC
  5
762
330
1F
100
AcDbEntity
  8
0
  6
Continuous
 62
     7
100
AcDbCircle
 10
10.29823793721887
 20
-668.8347065161768
 30
0.0
 40
590.1692504882812
100
AcDbArc
 50
87.86358945522277
 51
90.00000000000001
  0
ARC
  5
763
330
1F
100
AcDbEntity
  8
0
  6
Continuous
 62
     7
100
AcDbCircle
 10
48.17468752217981
 20
-49.07571146002445
 30
0.0
 40
24.55490493774414
100
AcDbArc
 50
270.0000366554241
 51
284.2434945845152
  0
ARC
  5
764
330
1F
100
AcDbEntity
  8
0
  6
Continuous
 62
     7
100
AcDbCircle
 10
43.35313906026575
 20
-74.13062021246586
 30
0.0
 40
0.5
100
AcDbArc
 50
90.0000179860894
 51
180.0
  0
ARC
  5
765
330
1F
100
AcDbEntity
  8
0
  6
Continuous
 62
     7
100
AcDbCircle
 10
42.35313906026575
 20
-78.1655170630518
 30
0.0
 40
0.5
100
AcDbArc
 50
269.9999820139107
 51
0.000018669334725
  0
ARC
  5
766
330
1F
100
AcDbEntity
  8
0
  6
Continuous
 62
     7
100
AcDbCircle
 10
33.1482362071941
 20
-15.27571532538565
 30
0.0
 40
0.1500000089406965
100
AcDbArc
 50
359.9999949910437
 51
89.99999749552188
  0
ARC
  5
767
330
1F
100
AcDbEntity
  8
0
  6
Continuous
 62
     7
100
AcDbCircle
 10
33.0482377360532
 20
-15.27571532538565
 30
0.0
 40
0.1500000089406965
100
AcDbArc
 50
89.99999749552188
 51
180.0
  0
ARC
  5
768
330
1F
100
AcDbEntity
  8
0
  6
Continuous
 62
     7
100
AcDbCircle
 10
24.148236475415
 20
-15.27571532538565
 30
0.0
 40
0.1500000089406965
100
AcDbArc
 50
359.9999949910437
 51
89.99999749552188
  0
ARC
  5
769
330
1F
100
AcDbEntity
  8
0
  6
Continuous
 62
     7
100
AcDbCircle
 10
24.0482380042741
 20
-15.27571532538565
 30
0.0
 40
0.1500000089406965
100
AcDbArc
 50
89.99999749552188
 51
180.0
  0
ARC
  5
76A
330
1F
100
AcDbEntity
  8
0
  6
Continuous
 62
     7
100
AcDbCircle
 10
31.73270668340417
 20
-83.32571908941898
 30
0.0
 40
0.5
100
AcDbArc
 50
270.0000025044782
 51
358.9999970125748
  0
DIMENSION
  5
76B
330
1F
100
AcDbEntity
  8
0
 62
     7
100
AcDbDimension
  2
*D88
 10
25.14819826436731
 20
-105.3747145117823
 30
0.0
 11
10.29923793721887
 21
-105.3747145117823
 31
0.0
 70
   160
  1
\U+220559
 71
     5
 42
29.69993591308594
  3
ISO-25
100
AcDbAlignedDimension
 13
-4.551737648718628
 23
-95.37571451178226
 33
0.0
 14
25.14819826436731
 24
-95.37571451178226
 34
0.0
 50
180.0
100
AcDbRotatedDimension
1001
ACAD
1000
DSTYLE
1002
{
1070
   178
1070
     1
1070
   278
1070
    46
1070
   147
1040
0.800000011920929
1070
    77
1070
     1
1070
    74
1070
     0
1070
    73
1070
     0
1070
    42
1040
2.54
1070
    44
1040
2.286000000000001
1070
    76
1070
     0
1070
    75
1070
     0
1070
   279
1070
     0
1070
   271
1070
     0
1070
   173
1070
     1
1070
    41
1040
3.0
1070
   140
1040
3.200000047683716
1070
   344
1005
26A
1070
   343
1005
26A
1002
}
  0
DIMENSION
  5
778
330
1F
100
AcDbEntity
  8
0
 62
     7
100
AcDbDimension
  2
*D89
 10
-32.71920557474401
 20
58.57428243645992
 30
0.0
 11
-32.71920557474402
 21
86.10028396233884
 31
0.0
 70
   160
  1
110
 71
     5
 42
55.05000305175782
  3
ISO-25
100
AcDbAlignedDimension
 13
-21.47120557474402
 23
113.6242854882177
 33
0.0
 14
-7.470057350867066
 24
58.57428243645992
 34
0.0
 50
90.00000000000001
100
AcDbRotatedDimension
1001
ACAD
1000
DSTYLE
1002
{
1070
   178
1070
     1
1070
   278
1070
    46
1070
   147
1040
0.800000011920929
1070
    77
1070
     1
1070
    74
1070
     0
1070
    73
1070
     0
1070
    42
1040
2.54
1070
    44
1040
2.286000000000001
1070
    76
1070
     0
1070
    75
1070
     1
1070
   279
1070
     0
1070
   271
1070
     0
1070
   173
1070
     1
1070
    41
1040
3.0
1070
   140
1040
3.200000047683716
1070
   344
1005
26A
1070
   343
1005
26A
1002
}
  0
DIMENSION
  5
784
330
1F
100
AcDbEntity
  8
0
 62
     7
100
AcDbDimension
  2
*D90
 10
-32.71920557474402
 20
34.62428548821772
 30
0.0
 11
-32.71920557474402
 21
46.60028396233883
 31
0.0
 70
   160
  1
48
 71
     5
 42
23.94999694824219
  3
ISO-25
100
AcDbAlignedDimension
 13
1.525746482140747
 23
58.57428243645992
 33
0.0
 14
9.675557273156372
 24
34.62428548821774
 34
0.0
 50
90.00000000000001
100
AcDbRotatedDimension
1001
ACAD
1000
DSTYLE
1002
{
1070
   178
1070
     1
1070
   278
1070
    46
1070
   147
1040
0.800000011920929
1070
    77
1070
     1
1070
    74
1070
     0
1070
    73
1070
     0
1070
    42
1040
2.54
1070
    44
1040
2.286000000000001
1070
    76
1070
     1
1070
    75
1070
     1
1070
   279
1070
     0
1070
   271
1070
     0
1070
   173
1070
     1
1070
    41
1040
3.0
1070
   140
1040
3.200000047683716
1070
   344
1005
26A
1070
   343
1005
26A
1002
}
  0
DIMENSION
  5
78F
330
1F
100
AcDbEntity
  8
0
 62
     7
100
AcDbDimension
  2
*D91
 10
-42.71920557474401
 20
34.62428548821774
 30
0.0
 11
-42.71920557474402
 21
74.12528548821774
 31
0.0
 70
   160
  1
158
 71
     5
 42
79.00000000000001
  3
ISO-25
100
AcDbAlignedDimension
 13
-21.47120557474402
 23
113.6242854882177
 33
0.0
 14
9.675557273156372
 24
34.62428548821774
 34
0.0
 50
90.00000000000001
100
AcDbRotatedDimension
1001
ACAD
1000
DSTYLE
1002
{
1070
   178
1070
     1
1070
   278
1070
    46
1070
   147
1040
0.800000011920929
1070
    77
1070
     1
1070
    74
1070
     0
1070
    73
1070
     0
1070
    42
1040
2.54
1070
    44
1040
2.286000000000001
1070
    76
1070
     0
1070
    75
1070
     0
1070
   279
1070
     0
1070
   271
1070
     0
1070
   173
1070
     1
1070
    41
1040
3.0
1070
   140
1040
3.200000047683716
1070
   344
1005
26A
1070
   343
1005
26A
1002
}
  0
DIMENSION
  5
79C
330
1F
100
AcDbEntity
  8
0
 62
     7
100
AcDbDimension
  2
*D92
 10
59.9798104469845
 20
58.57428243645992
 30
0.0
 11
59.97981044698449
 21
77.35028396233884
 31
0.0
 70
   160
  1
75
 71
     5
 42
37.55000305175781
  3
ISO-25
100
AcDbAlignedDimension
 13
48.7288104469845
 23
96.12428548821774
 33
0.0
 14
42.62157167745325
 24
58.57428243645992
 34
0.0
 50
90.00000000000001
100
AcDbRotatedDimension
1001
ACAD
1000
DSTYLE
1002
{
1070
   178
1070
     1
1070
   278
1070
    46
1070
   147
1040
0.800000011920929
1070
    77
1070
     1
1070
    74
1070
     0
1070
    73
1070
     0
1070
    42
1040
2.54
1070
    44
1040
2.286000000000001
1070
    76
1070
     0
1070
    75
1070
     0
1070
   279
1070
     0
1070
   271
1070
     0
1070
   173
1070
     1
1070
    41
1040
3.0
1070
   140
1040
3.200000047683716
1070
   344
1005
26A
1070
   343
1005
26A
1002
}
  0
DIMENSION
  5
7A9
330
1F
100
AcDbEntity
  8
0
 62
     7
100
AcDbDimension
  2
*D93
 10
-21.7017563407354
 20
-5.375714511782263
 30
0.0
 11
-9.699759559386134
 21
-5.375714511782263
 31
0.0
 70
   160
  1
　　４８\P（最大伸縮幅）
 71
     5
 42
23.99999427795427
  3
ISO-25
100
AcDbAlignedDimension
 13
2.298237937218872
 23
-15.37571451178227
 33
0.0
 14
-21.7017563407354
 24
-15.37571451178227
 34
0.0
100
AcDbRotatedDimension
1001
ACAD
1000
DSTYLE
1002
{
1070
   178
1070
     1
1070
   278
1070
    46
1070
   147
1040
0.800000011920929
1070
    77
1070
     1
1070
    74
1070
     0
1070
    73
1070
     0
1070
    42
1040
2.54
1070
    44
1040
2.285999999999994
1070
    76
1070
     0
1070
    75
1070
     0
1070
   279
1070
     0
1070
   271
1070
     0
1070
   173
1070
     1
1070
    41
1040
3.0
1070
   140
1040
3.200000047683716
1070
   344
1005
26A
1070
   343
1005
26A
1002
}
  0
DIMENSION
  5
7B8
330
1F
100
AcDbEntity
  8
0
 62
     7
100
AcDbDimension
  2
*D94
 10
42.29823221517314
 20
-5.375714511782264
 30
0.0
 11
30.29923543382388
 21
-5.375714511782263
 31
0.0
 70
   160
  1
　　４８\P（最大伸縮幅）
 71
     5
 42
23.99999356269856
  3
ISO-25
100
AcDbAlignedDimension
 13
18.29823865247458
 23
-15.37571451178227
 33
0.0
 14
42.29823221517314
 24
-15.37571451178227
 34
0.0
 50
180.0
100
AcDbRotatedDimension
1001
ACAD
1000
DSTYLE
1002
{
1070
   178
1070
     1
1070
   278
1070
    46
1070
   147
1040
0.800000011920929
1070
    77
1070
     1
1070
    74
1070
     0
1070
    73
1070
     0
1070
    42
1040
2.54
1070
    44
1040
2.285999999999994
1070
    76
1070
     0
1070
    75
1070
     0
1070
   279
1070
     0
1070
   271
1070
     0
1070
   173
1070
     1
1070
    41
1040
3.0
1070
   140
1040
3.200000047683716
1070
   344
1005
26A
1070
   343
1005
26A
1002
}
  0
DIMENSION
  5
7C7
330
1F
100
AcDbEntity
  8
0
 62
     7
100
AcDbDimension
  2
*D95
 10
18.29823865247459
 20
-5.375714511782264
 30
0.0
 11
10.29923793721887
 21
-5.375714511782263
 31
0.0
 70
   160
  1
32
 71
     5
 42
16.00000071525571
  3
ISO-25
100
AcDbAlignedDimension
 13
2.298237937218872
 23
-15.37571451178227
 33
0.0
 14
18.29823865247458
 24
-15.37571451178227
 34
0.0
 50
180.0
100
AcDbRotatedDimension
1001
ACAD
1000
DSTYLE
1002
{
1070
   178
1070
     1
1070
   278
1070
    46
1070
   147
1040
0.800000011920929
1070
    77
1070
     1
1070
    74
1070
     0
1070
    73
1070
     0
1070
    42
1040
2.54
1070
    44
1040
2.285999999999994
1070
    76
1070
     1
1070
    75
1070
     1
1070
   279
1070
     0
1070
   271
1070
     0
1070
   173
1070
     1
1070
    41
1040
3.0
1070
   140
1040
3.200000047683716
1070
   344
1005
26A
1070
   343
1005
26A
1002
}
  0
DIMENSION
  5
7D2
330
1F
100
AcDbEntity
  8
0
 62
     7
100
AcDbDimension
  2
*D96
 10
57.79823793721887
 20
4.624285488217732
 30
0.0
 11
10.29923793721887
 21
4.624285488217737
 31
0.0
 70
   160
  1
190
 71
     5
 42
95.0
  3
ISO-25
100
AcDbAlignedDimension
 13
-37.20176206278113
 23
-14.87571451178227
 33
0.0
 14
57.79823793721887
 24
-14.87571451178227
 34
0.0
 50
180.0
100
AcDbRotatedDimension
1001
ACAD
1000
DSTYLE
1002
{
1070
   178
1070
     1
1070
   278
1070
    46
1070
   147
1040
0.800000011920929
1070
    77
1070
     1
1070
    74
1070
     0
1070
    73
1070
     0
1070
    42
1040
2.54
1070
    44
1040
2.285999999999992
1070
    76
1070
     0
1070
    75
1070
     0
1070
   279
1070
     0
1070
   271
1070
     0
1070
   173
1070
     1
1070
    41
1040
3.0
1070
   140
1040
3.200000047683716
1070
   344
1005
26A
1070
   343
1005
26A
1002
}
  0
DIMENSION
  5
7DF
330
1F
100
AcDbEntity
  8
0
 62
     7
100
AcDbDimension
  2
*D97
 10
-7.470010001992094
 20
24.62528548821774
 30
0.0
 11
17.57785366877244
 21
24.62528548821774
 31
0.0
 70
   160
  1
100
 71
     5
 42
50.09172734152904
  3
ISO-25
100
AcDbAlignedDimension
 13
42.62171733953694
 23
58.57428243645992
 33
0.0
 14
-7.470010001992094
 24
58.57428243645992
 34
0.0
100
AcDbRotatedDimension
1001
ACAD
1000
DSTYLE
1002
{
1070
   178
1070
     1
1070
   278
1070
    46
1070
   147
1040
0.800000011920929
1070
    77
1070
     1
1070
    74
1070
     0
1070
    73
1070
     0
1070
    42
1040
2.54
1070
    44
1040
2.286000000000008
1070
    76
1070
     0
1070
    75
1070
     0
1070
   279
1070
     0
1070
   271
1070
     0
1070
   173
1070
     1
1070
    41
1040
3.0
1070
   140
1040
3.200000047683716
1070
   344
1005
26A
1070
   343
1005
26A
1002
}
  0
DIMENSION
  5
7EC
330
1F
100
AcDbEntity
  8
0
 62
     7
100
AcDbDimension
  2
*D98
 10
29.07323609636865
 20
-115.3747145117823
 30
0.0
 11
10.29923676751423
 21
-115.3747145117823
 31
0.0
 70
   160
  1
\U+220575
 71
     5
 42
37.54999865770885
  3
ISO-25
100
AcDbAlignedDimension
 13
-8.476762561340202
 23
-91.32571718207035
 33
0.0
 14
29.07323609636865
 24
-91.32571718207035
 34
0.0
 50
180.0
100
AcDbRotatedDimension
1001
ACAD
1000
DSTYLE
1002
{
1070
   178
1070
     1
1070
   278
1070
    46
1070
   147
1040
0.800000011920929
1070
    77
1070
     1
1070
    74
1070
     0
1070
    73
1070
     0
1070
    42
1040
2.54
1070
    44
1040
2.286000000000001
1070
    76
1070
     0
1070
    75
1070
     0
1070
   279
1070
     0
1070
   271
1070
     0
1070
   173
1070
     1
1070
    41
1040
3.0
1070
   140
1040
3.200000047683716
1070
   344
1005
26A
1070
   343
1005
26A
1002
}
  0
POINT
  5
7FA
330
1F
100
AcDbEntity
  8
VIEW0001
 62
     7
100
AcDbPoint
 10
105.0
 20
-148.5
 30
0.0
  0
LWPOLYLINE
  5
7FB
330
1F
100
AcDbEntity
  8
VIEW0001
  6
Continuous
 62
     7
100
AcDbPolyline
 90
        2
 70
     0
 10
81.0
 20
-129.0
 40
0.001000000047497
 41
0.001000000047497
 10
81.0
 20
-120.0
 40
0.001000000047497
 41
0.001000000047497
  0
LWPOLYLINE
  5
7FC
330
1F
100
AcDbEntity
  8
VIEW0001
  6
Continuous
 62
     7
100
AcDbPolyline
 90
        2
 70
     0
 10
66.0
 20
-129.0
 40
0.001000000047497
 41
0.001000000047497
 10
66.0
 20
-120.0
 40
0.001000000047497
 41
0.001000000047497
  0
LWPOLYLINE
  5
7FD
330
1F
100
AcDbEntity
  8
VIEW0001
  6
Continuous
 62
     7
100
AcDbPolyline
 90
        2
 70
     0
 10
5.75
 20
-138.0
 40
0.001000000047497
 41
0.001000000047497
 10
5.75
 20
-120.0
 40
0.001000000047497
 41
0.001000000047497
  0
LINE
  5
7FE
330
1F
100
AcDbEntity
  8
VIEW0001
  6
Continuous
 62
     7
370
    20
100
AcDbLine
 10
41.0
 20
138.0
 30
0.0
 11
41.0
 21
128.0
 31
0.0
  0
LINE
  5
7FF
330
1F
100
AcDbEntity
  8
VIEW0001
  6
Continuous
 62
     7
370
    20
100
AcDbLine
 10
41.0
 20
128.0
 30
0.0
 11
96.0
 21
128.0
 31
0.0
  0
LWPOLYLINE
  5
800
330
1F
100
AcDbEntity
  8
VIEW0001
  6
Continuous
 62
     7
100
AcDbPolyline
 90
        2
 70
     0
 10
96.0
 20
-129.0
 40
0.001000000047497
 41
0.001000000047497
 10
-84.5
 20
-129.0
 40
0.001000000047497
 41
0.001000000047497
  0
LINE
  5
801
330
1F
100
AcDbEntity
  8
VIEW0001
  6
Continuous
 62
     7
370
    20
100
AcDbLine
 10
-84.5
 20
-120.0
 30
0.0
 11
96.0
 21
-120.0
 31
0.0
  0
LINE
  5
802
330
1F
100
AcDbEntity
  8
VIEW0001
  6
Continuous
 62
     7
370
    50
100
AcDbLine
 10
-84.5
 20
138.0
 30
0.0
 11
96.0
 21
138.0
 31
0.0
  0
LINE
  5
803
330
1F
100
AcDbEntity
  8
VIEW0001
  6
Continuous
 62
     7
370
    50
100
AcDbLine
 10
-84.5
 20
-138.0
 30
0.0
 11
96.0
 21
-138.0
 31
0.0
  0
LINE
  5
804
330
1F
100
AcDbEntity
  8
VIEW0001
  6
Continuous
 62
     7
370
    50
100
AcDbLine
 10
96.0
 20
138.0
 30
0.0
 11
96.0
 21
-138.0
 31
0.0
  0
LINE
  5
805
330
1F
100
AcDbEntity
  8
VIEW0001
  6
Continuous
 62
     7
370
    50
100
AcDbLine
 10
-84.5
 20
138.0
 30
0.0
 11
-84.5
 21
-138.0
 31
0.0
  0
LWPOLYLINE
  5
806
330
1F
100
AcDbEntity
  8
VIEW0001
  6
Continuous
 62
     7
100
AcDbPolyline
 90
        2
 70
     0
 10
-64.5
 20
-138.0
 40
0.001000000047497
 41
0.001000000047497
 10
-64.5
 20
-120.0
 40
0.001000000047497
 41
0.001000000047497
  0
LWPOLYLINE
  5
807
330
1F
100
AcDbEntity
  8
VIEW0001
  6
Continuous
 62
     7
100
AcDbPolyline
 90
        2
 70
     0
 10
25.75
 20
-129.0
 40
0.001000000047497
 41
0.001000000047497
 10
25.75
 20
-120.0
 40
0.001000000047497
 41
0.001000000047497
  0
MTEXT
  5
808
330
1F
100
AcDbEntity
  8
VIEW0001
 62
     1
100
AcDbMText
 10
-77.92875003814697
 20
-126.5
 30
0.0
 40
4.0
 41
0.0
 71
     7
 72
     1
  1
{\W0.833333;品名}
 73
     1
 44
1.0
  0
MTEXT
  5
809
330
1F
100
AcDbEntity
  8
VIEW0001
 62
     1
100
AcDbMText
 10
-77.92875003814697
 20
-135.5
 30
0.0
 40
4.0
 41
0.0
 71
     7
 72
     1
  1
{\W0.833333;規格}
 73
     1
 44
1.0
  0
MTEXT
  5
80A
330
1F
100
AcDbEntity
  8
VIEW0001
 62
     1
100
AcDbMText
 10
12.32124996185303
 20
-126.5
 30
0.0
 40
4.0
 41
0.0
 71
     7
 72
     1
  1
{\W0.833333;材質}
 73
     1
 44
1.0
  0
MTEXT
  5
80B
330
1F
100
AcDbEntity
  8
VIEW0001
 62
     1
100
AcDbMText
 10
70.07124996185303
 20
-126.5
 30
0.0
 40
4.0
 41
0.0
 71
     7
 72
     1
  1
{\W0.833333;尺度}
 73
     1
 44
1.0
  0
MTEXT
  5
80C
330
1F
100
AcDbEntity
  8
VIEW0001
 62
     1
100
AcDbMText
 10
-40.80375134944916
 20
-126.5
 30
0.0
 40
4.0
 41
0.0
 71
     7
 72
     1
  1
{\W0.833333;伸縮じょうご}
 73
     1
 44
1.0
  0
MTEXT
  5
80D
330
1F
100
AcDbEntity
  8
VIEW0001
 62
     1
100
AcDbMText
 10
-50.80375063419342
 20
-135.5
 30
0.0
 40
4.0
 41
0.0
 71
     7
 72
     1
  1
{\W0.833333;ＤＬ75-60（75）}
 73
     1
 44
1.0
  0
MTEXT
  5
80E
330
1F
100
AcDbEntity
  8
VIEW0001
 62
     1
100
AcDbMText
 10
83.07124984264374
 20
-126.5
 30
0.0
 40
4.0
 41
0.0
 71
     7
 72
     1
  1
{\W0.833333;1/2}
 73
     1
 44
1.0
  0
MTEXT
  5
80F
330
1F
100
AcDbEntity
  8
VIEW0001
 62
     1
100
AcDbMText
 10
26.46785604953766
 20
-135.75
 30
0.0
 40
4.5
 41
0.0
 71
     7
 72
     1
  1
{\W1.40741;デンカ株式会社}
 73
     1
 44
1.0
  0
MTEXT
  5
810
330
1F
100
AcDbEntity
  8
VIEW0001
 62
     1
100
AcDbMText
 10
36.44624972343445
 20
-126.5
 30
0.0
 40
4.0
 41
0.0
 71
     7
 72
     1
  1
{\W0.833333;硬質ＰＶＣ}
 73
     1
 44
1.0
  0
ENDSEC
  0
SECTION
  2
OBJECTS
  0
DICTIONARY
  5
C
330
0
100
AcDbDictionary
281
     1
  3
ACAD_GROUP
350
D
  3
ACAD_LAYOUT
350
1A
  3
ACAD_MATERIAL
350
3B
  3
ACAD_MLEADERSTYLE
350
838
  3
ACAD_MLINESTYLE
350
17
  3
ACAD_PLOTSETTINGS
350
19
  3
ACAD_PLOTSTYLENAME
350
E
  3
ACAD_TABLESTYLE
350
837
  3
ACAD_VISUALSTYLE
350
2A
  0
DICTIONARY
  5
D
102
{ACAD_REACTORS
330
C
102
}
330
C
100
AcDbDictionary
281
     1
  0
DICTIONARY
  5
1A
102
{ACAD_REACTORS
330
C
102
}
330
C
100
AcDbDictionary
281
     1
  3
Layout1
350
1E
  3
Layout2
350
26
  3
Model
350
22
  0
DICTIONARY
  5
3B
102
{ACAD_REACTORS
330
C
102
}
330
C
100
AcDbDictionary
281
     1
  3
ByBlock
350
3D
  3
ByLayer
350
3C
  3
Global
350
3E
  0
DICTIONARY
  5
838
102
{ACAD_REACTORS
330
C
102
}
330
C
100
AcDbDictionary
281
     1
  0
DICTIONARY
  5
17
102
{ACAD_REACTORS
330
C
102
}
330
C
100
AcDbDictionary
281
     1
  3
Standard
350
18
  0
DICTIONARY
  5
19
102
{ACAD_REACTORS
330
C
102
}
330
C
100
AcDbDictionary
281
     1
  0
ACDBDICTIONARYWDFLT
  5
E
102
{ACAD_REACTORS
330
C
102
}
330
C
100
AcDbDictionary
281
     1
  3
Normal
350
F
100
AcDbDictionaryWithDefault
340
F
  0
DICTIONARY
  5
837
102
{ACAD_REACTORS
330
C
102
}
330
C
100
AcDbDictionary
281
     1
  0
DICTIONARY
  5
2A
102
{ACAD_REACTORS
330
C
102
}
330
C
100
AcDbDictionary
281
     1
  3
2dWireframe
350
2F
  3
3D Hidden
350
31
  3
3dWireframe
350
30
  3
Basic
350
32
  3
Brighten
350
36
  3
ColorChange
350
3A
  3
Conceptual
350
34
  3
Dim
350
35
  3
Facepattern
350
39
  3
Flat
350
2B
  3
FlatWithEdges
350
2C
  3
Gouraud
350
2D
  3
GouraudWithEdges
350
2E
  3
Linepattern
350
38
  3
Realistic
350
33
  3
Thicken
350
37
  0
LAYOUT
  5
1E
102
{ACAD_REACTORS
330
1A
102
}
330
1A
100
AcDbPlotSettings
  1

  2
none_device
  4

  6

 40
0.0
 41
0.0
 42
0.0
 43
0.0
 44
0.0
 45
0.0
 46
0.0
 47
0.0
 48
0.0
 49
0.0
140
0.0
141
0.0
142
1.0
143
1.0
 70
   688
 72
     0
 73
     0
 74
     5
  7

 75
    16
 76
     0
 77
     2
 78
   300
147
1.0
148
0.0
149
0.0
100
AcDbLayout
  1
Layout1
 70
     1
 71
     1
 10
-105.0
 20
-148.5
 11
105.0
 21
148.5
 12
0.0
 22
0.0
 32
0.0
 14
1.000000000000000E+20
 24
1.000000000000000E+20
 34
1.000000000000000E+20
 15
-1.000000000000000E+20
 25
-1.000000000000000E+20
 35
-1.000000000000000E+20
146
0.0
 13
0.0
 23
0.0
 33
0.0
 16
1.0
 26
0.0
 36
0.0
 17
0.0
 27
1.0
 37
0.0
 76
     0
330
1B
  0
LAYOUT
  5
26
102
{ACAD_REACTORS
330
1A
102
}
330
1A
100
AcDbPlotSettings
  1

  2
none_device
  4

  6

 40
0.0
 41
0.0
 42
0.0
 43
0.0
 44
0.0
 45
0.0
 46
0.0
 47
0.0
 48
0.0
 49
0.0
140
0.0
141
0.0
142
1.0
143
1.0
 70
   688
 72
     0
 73
     0
 74
     5
  7

 75
    16
 76
     0
 77
     2
 78
   300
147
1.0
148
0.0
149
0.0
100
AcDbLayout
  1
Layout2
 70
     1
 71
     2
 10
0.0
 20
0.0
 11
0.0
 21
0.0
 12
0.0
 22
0.0
 32
0.0
 14
0.0
 24
0.0
 34
0.0
 15
0.0
 25
0.0
 35
0.0
146
0.0
 13
0.0
 23
0.0
 33
0.0
 16
1.0
 26
0.0
 36
0.0
 17
0.0
 27
1.0
 37
0.0
 76
     0
330
23
  0
LAYOUT
  5
22
102
{ACAD_REACTORS
330
1A
102
}
330
1A
100
AcDbPlotSettings
  1

  2
none_device
  4

  6

 40
0.0
 41
0.0
 42
0.0
 43
0.0
 44
0.0
 45
0.0
 46
0.0
 47
0.0
 48
0.0
 49
0.0
140
0.0
141
0.0
142
1.0
143
1.0
 70
  1712
 72
     0
 73
     0
 74
     0
  7

 75
     0
 76
     0
 77
     2
 78
   300
147
1.0
148
0.0
149
0.0
100
AcDbLayout
  1
Model
 70
     1
 71
     0
 10
-105.0
 20
-148.5
 11
105.0
 21
148.5
 12
0.0
 22
0.0
 32
0.0
 14
-105.0
 24
-148.5
 34
0.0
 15
105.0
 25
148.5
 35
0.0
146
0.0
 13
0.0
 23
0.0
 33
0.0
 16
1.0
 26
0.0
 36
0.0
 17
0.0
 27
1.0
 37
0.0
 76
     0
330
1F
331
29
  0
MATERIAL
  5
3D
102
{ACAD_REACTORS
330
3B
102
}
102
{ACAD_XDICTIONARY
360
833
102
}
330
3B
100
AcDbMaterial
  1
ByBlock
  0
MATERIAL
  5
3C
102
{ACAD_REACTORS
330
3B
102
}
102
{ACAD_XDICTIONARY
360
831
102
}
330
3B
100
AcDbMaterial
  1
ByLayer
  0
MATERIAL
  5
3E
102
{ACAD_REACTORS
330
3B
102
}
102
{ACAD_XDICTIONARY
360
835
102
}
330
3B
100
AcDbMaterial
  1
Global
  0
MLINESTYLE
  5
18
102
{ACAD_REACTORS
330
17
102
}
330
17
100
AcDbMlineStyle
  2
Standard
 70
     0
  3

 62
   256
 51
90.0
 52
90.0
 71
     2
 49
0.5
 62
   256
  6
BYLAYER
 49
-0.5
 62
   256
  6
BYLAYER
  0
ACDBPLACEHOLDER
  5
F
102
{ACAD_REACTORS
330
E
102
}
330
E
  0
VISUALSTYLE
  5
2F
102
{ACAD_REACTORS
330
2A
102
}
102
{ACAD_XDICTIONARY
360
819
102
}
330
2A
100
AcDbVisualStyle
  2
2dWireframe
 70
     4
 71
     0
 72
     2
 73
     0
 90
        0
 40
-0.6
 41
-30.0
 62
     5
 63
     7
421
 16777215
 74
     1
 91
        4
 64
     7
 65
   257
 75
     1
175
     1
 42
1.0
 92
        0
 66
   257
 43
1.0
 76
     1
 77
     6
 78
     2
 67
     7
 79
     5
170
     0
171
     0
290
     0
174
     0
 93
        1
 44
0.0
173
     0
291
     0
 45
0.0
1001
ACAD
1000
AcDbSavedByObjectVersion
1070
     0
  0
VISUALSTYLE
  5
31
102
{ACAD_REACTORS
330
2A
102
}
102
{ACAD_XDICTIONARY
360
81D
102
}
330
2A
100
AcDbVisualStyle
  2
3D Hidden
 70
     6
 71
     1
 72
     2
 73
     2
 90
        0
 40
-0.6
 41
-30.0
 62
     5
 63
     7
421
 16777215
 74
     2
 91
        2
 64
     7
 65
   257
 75
     2
175
     1
 42
40.0
 92
        0
 66
   257
 43
1.0
 76
     1
 77
     6
 78
     2
 67
     7
 79
     3
170
     0
171
     0
290
     0
174
     0
 93
        1
 44
0.0
173
     0
291
     0
 45
0.0
1001
ACAD
1000
AcDbSavedByObjectVersion
1070
     0
  0
VISUALSTYLE
  5
30
102
{ACAD_REACTORS
330
2A
102
}
102
{ACAD_XDICTIONARY
360
81B
102
}
330
2A
100
AcDbVisualStyle
  2
3dWireframe
 70
     5
 71
     0
 72
     2
 73
     0
 90
        0
 40
-0.6
 41
-30.0
 62
     5
 63
     7
421
 16777215
 74
     1
 91
        4
 64
     7
 65
   257
 75
     1
175
     1
 42
1.0
 92
        0
 66
   257
 43
1.0
 76
     1
 77
     6
 78
     2
 67
     7
 79
     5
170
     0
171
     0
290
     0
174
     0
 93
        1
 44
0.0
173
     0
291
     0
 45
0.0
1001
ACAD
1000
AcDbSavedByObjectVersion
1070
     0
  0
VISUALSTYLE
  5
32
102
{ACAD_REACTORS
330
2A
102
}
102
{ACAD_XDICTIONARY
360
81F
102
}
330
2A
100
AcDbVisualStyle
  2
Basic
 70
     7
 71
     1
 72
     0
 73
     1
 90
        0
 40
-0.6
 41
-30.0
 62
     5
 63
     7
421
 16777215
 74
     0
 91
        4
 64
     7
 65
   257
 75
     1
175
     1
 42
1.0
 92
        8
 66
     7
 43
1.0
 76
     1
 77
     6
 78
     2
 67
     7
 79
     5
170
     0
171
     0
290
     0
174
     0
 93
        1
 44
0.0
173
     0
291
     1
 45
0.0
1001
ACAD
1000
AcDbSavedByObjectVersion
1070
     0
  0
VISUALSTYLE
  5
36
102
{ACAD_REACTORS
330
2A
102
}
102
{ACAD_XDICTIONARY
360
827
102
}
330
2A
100
AcDbVisualStyle
  2
Brighten
 70
    12
 71
     2
 72
     2
 73
     0
 90
        0
 40
-0.6
 41
-30.0
 62
     5
 63
     7
421
 16777215
 74
     1
 91
        4
 64
     7
 65
   257
 75
     1
175
     1
 42
1.0
 92
        8
 66
     7
 43
1.0
 76
     1
 77
     6
 78
     2
 67
     7
 79
     5
170
     0
171
     0
290
     0
174
     0
 93
        1
 44
50.0
173
     0
291
     1
 45
0.0
1001
ACAD
1000
AcDbSavedByObjectVersion
1070
     0
  0
VISUALSTYLE
  5
3A
102
{ACAD_REACTORS
330
2A
102
}
102
{ACAD_XDICTIONARY
360
82F
102
}
330
2A
100
AcDbVisualStyle
  2
ColorChange
 70
    16
 71
     2
 72
     2
 73
     3
 90
        0
 40
-0.6
 41
-30.0
 62
     5
 63
     8
421
  8421504
 74
     1
 91
        4
 64
     7
 65
   257
 75
     1
175
     1
 42
1.0
 92
        8
 66
     8
424
  8421504
 43
1.0
 76
     1
 77
     6
 78
     2
 67
     7
 79
     5
170
     0
171
     0
290
     0
174
     0
 93
        1
 44
0.0
173
     0
291
     1
 45
0.0
1001
ACAD
1000
AcDbSavedByObjectVersion
1070
     0
  0
VISUALSTYLE
  5
34
102
{ACAD_REACTORS
330
2A
102
}
102
{ACAD_XDICTIONARY
360
823
102
}
330
2A
100
AcDbVisualStyle
  2
Conceptual
 70
     9
 71
     3
 72
     2
 73
     0
 90
        0
 40
-0.6
 41
-30.0
 62
     5
 63
     7
421
 16777215
 74
     2
 91
        2
 64
     7
 65
   257
 75
     1
175
     1
 42
40.0
 92
        8
 66
     7
 43
1.0
 76
     1
 77
     6
 78
     2
 67
     7
 79
     3
170
     0
171
     0
290
     0
174
     0
 93
        1
 44
0.0
173
     0
291
     0
 45
0.0
1001
ACAD
1000
AcDbSavedByObjectVersion
1070
     0
  0
VISUALSTYLE
  5
35
102
{ACAD_REACTORS
330
2A
102
}
102
{ACAD_XDICTIONARY
360
825
102
}
330
2A
100
AcDbVisualStyle
  2
Dim
 70
    11
 71
     2
 72
     2
 73
     0
 90
        0
 40
-0.6
 41
-30.0
 62
     5
 63
     7
421
 16777215
 74
     1
 91
        4
 64
     7
 65
   257
 75
     1
175
     1
 42
1.0
 92
        8
 66
     7
 43
1.0
 76
     1
 77
     6
 78
     2
 67
     7
 79
     5
170
     0
171
     0
290
     0
174
     0
 93
        1
 44
-50.0
173
     0
291
     1
 45
0.0
1001
ACAD
1000
AcDbSavedByObjectVersion
1070
     0
  0
VISUALSTYLE
  5
39
102
{ACAD_REACTORS
330
2A
102
}
102
{ACAD_XDICTIONARY
360
82D
102
}
330
2A
100
AcDbVisualStyle
  2
Facepattern
 70
    15
 71
     2
 72
     2
 73
     0
 90
        0
 40
-0.6
 41
-30.0
 62
     5
 63
     7
421
 16777215
 74
     1
 91
        4
 64
     7
 65
   257
 75
     1
175
     1
 42
1.0
 92
        8
 66
     7
 43
1.0
 76
     1
 77
     6
 78
     2
 67
     7
 79
     5
170
     0
171
     0
290
     0
174
     0
 93
        1
 44
0.0
173
     0
291
     1
 45
0.0
1001
ACAD
1000
AcDbSavedByObjectVersion
1070
     0
  0
VISUALSTYLE
  5
2B
102
{ACAD_REACTORS
330
2A
102
}
102
{ACAD_XDICTIONARY
360
811
102
}
330
2A
100
AcDbVisualStyle
  2
Flat
 70
     0
 71
     2
 72
     1
 73
     1
 90
        2
 40
-0.6
 41
30.0
 62
     5
 63
     7
421
 16777215
 74
     0
 91
        4
 64
     7
 65
   257
 75
     1
175
     1
 42
1.0
 92
        8
 66
     7
 43
1.0
 76
     1
 77
     6
 78
     2
 67
     7
 79
     5
170
     0
171
     0
290
     0
174
     0
 93
       13
 44
0.0
173
     0
291
     1
 45
0.0
1001
ACAD
1000
AcDbSavedByObjectVersion
1070
     0
  0
VISUALSTYLE
  5
2C
102
{ACAD_REACTORS
330
2A
102
}
102
{ACAD_XDICTIONARY
360
813
102
}
330
2A
100
AcDbVisualStyle
  2
FlatWithEdges
 70
     1
 71
     2
 72
     1
 73
     1
 90
        2
 40
-0.6
 41
30.0
 62
     5
 63
     7
421
 16777215
 74
     1
 91
        4
 64
     7
 65
   257
 75
     1
175
     1
 42
1.0
 92
        0
 66
   257
 43
1.0
 76
     1
 77
     6
 78
     2
 67
     7
 79
     5
170
     0
171
     0
290
     0
174
     0
 93
       13
 44
0.0
173
     0
291
     1
 45
0.0
1001
ACAD
1000
AcDbSavedByObjectVersion
1070
     0
  0
VISUALSTYLE
  5
2D
102
{ACAD_REACTORS
330
2A
102
}
102
{ACAD_XDICTIONARY
360
815
102
}
330
2A
100
AcDbVisualStyle
  2
Gouraud
 70
     2
 71
     2
 72
     2
 73
     1
 90
        2
 40
-0.6
 41
30.0
 62
     5
 63
     7
421
 16777215
 74
     0
 91
        4
 64
     7
 65
   257
 75
     1
175
     1
 42
1.0
 92
        0
 66
     7
 43
1.0
 76
     1
 77
     6
 78
     2
 67
     7
 79
     5
170
     0
171
     0
290
     0
174
     0
 93
       13
 44
0.0
173
     0
291
     1
 45
0.0
1001
ACAD
1000
AcDbSavedByObjectVersion
1070
     0
  0
VISUALSTYLE
  5
2E
102
{ACAD_REACTORS
330
2A
102
}
102
{ACAD_XDICTIONARY
360
817
102
}
330
2A
100
AcDbVisualStyle
  2
GouraudWithEdges
 70
     3
 71
     2
 72
     2
 73
     1
 90
        2
 40
-0.6
 41
30.0
 62
     5
 63
     7
421
 16777215
 74
     1
 91
        4
 64
     7
 65
   257
 75
     1
175
     1
 42
1.0
 92
        0
 66
   257
 43
1.0
 76
     1
 77
     6
 78
     2
 67
     7
 79
     5
170
     0
171
     0
290
     0
174
     0
 93
       13
 44
0.0
173
     0
291
     1
 45
0.0
1001
ACAD
1000
AcDbSavedByObjectVersion
1070
     0
  0
VISUALSTYLE
  5
38
102
{ACAD_REACTORS
330
2A
102
}
102
{ACAD_XDICTIONARY
360
82B
102
}
330
2A
100
AcDbVisualStyle
  2
Linepattern
 70
    14
 71
     2
 72
     2
 73
     0
 90
        0
 40
-0.6
 41
-30.0
 62
     5
 63
     7
421
 16777215
 74
     1
 91
        4
 64
     7
 65
   257
 75
     7
175
     7
 42
1.0
 92
        8
 66
     7
 43
1.0
 76
     1
 77
     6
 78
     2
 67
     7
 79
     5
170
     0
171
     0
290
     0
174
     0
 93
        1
 44
0.0
173
     0
291
     1
 45
0.0
1001
ACAD
1000
AcDbSavedByObjectVersion
1070
     0
  0
VISUALSTYLE
  5
33
102
{ACAD_REACTORS
330
2A
102
}
102
{ACAD_XDICTIONARY
360
821
102
}
330
2A
100
AcDbVisualStyle
  2
Realistic
 70
     8
 71
     2
 72
     2
 73
     0
 90
        0
 40
-0.6
 41
-30.0
 62
     5
 63
     7
421
 16777215
 74
     1
 91
        0
 64
     7
 65
   257
 75
     1
175
     1
 42
1.0
 92
        8
 66
     8
424
  7895160
 43
1.0
 76
     1
 77
     6
 78
     2
 67
     7
 79
     5
170
     0
171
     0
290
     0
174
     0
 93
       13
 44
0.0
173
     0
291
     0
 45
0.0
1001
ACAD
1000
AcDbSavedByObjectVersion
1070
     0
  0
VISUALSTYLE
  5
37
102
{ACAD_REACTORS
330
2A
102
}
102
{ACAD_XDICTIONARY
360
829
102
}
330
2A
100
AcDbVisualStyle
  2
Thicken
 70
    13
 71
     2
 72
     2
 73
     0
 90
        0
 40
-0.6
 41
-30.0
 62
     5
 63
     7
421
 16777215
 74
     1
 91
        4
 64
     7
 65
   257
 75
     1
175
     1
 42
1.0
 92
       12
 66
     7
 43
1.0
 76
     1
 77
     6
 78
     2
 67
     7
 79
     5
170
     0
171
     0
290
     0
174
     0
 93
        1
 44
0.0
173
     0
291
     1
 45
0.0
1001
ACAD
1000
AcDbSavedByObjectVersion
1070
     0
  0
DICTIONARY
  5
833
330
3D
100
AcDbDictionary
280
     1
281
     1
  3
ACAD_XREC_ROUNDTRIP
360
834
  0
DICTIONARY
  5
831
330
3C
100
AcDbDictionary
280
     1
281
     1
  3
ACAD_XREC_ROUNDTRIP
360
832
  0
DICTIONARY
  5
835
330
3E
100
AcDbDictionary
280
     1
281
     1
  3
ACAD_XREC_ROUNDTRIP
360
836
  0
DICTIONARY
  5
819
330
2F
100
AcDbDictionary
280
     1
281
     1
  3
ACAD_XREC_ROUNDTRIP
360
81A
  0
DICTIONARY
  5
81D
330
31
100
AcDbDictionary
280
     1
281
     1
  3
ACAD_XREC_ROUNDTRIP
360
81E
  0
DICTIONARY
  5
81B
330
30
100
AcDbDictionary
280
     1
281
     1
  3
ACAD_XREC_ROUNDTRIP
360
81C
  0
DICTIONARY
  5
81F
330
32
100
AcDbDictionary
280
     1
281
     1
  3
ACAD_XREC_ROUNDTRIP
360
820
  0
DICTIONARY
  5
827
330
36
100
AcDbDictionary
280
     1
281
     1
  3
ACAD_XREC_ROUNDTRIP
360
828
  0
DICTIONARY
  5
82F
330
3A
100
AcDbDictionary
280
     1
281
     1
  3
ACAD_XREC_ROUNDTRIP
360
830
  0
DICTIONARY
  5
823
330
34
100
AcDbDictionary
280
     1
281
     1
  3
ACAD_XREC_ROUNDTRIP
360
824
  0
DICTIONARY
  5
825
330
35
100
AcDbDictionary
280
     1
281
     1
  3
ACAD_XREC_ROUNDTRIP
360
826
  0
DICTIONARY
  5
82D
330
39
100
AcDbDictionary
280
     1
281
     1
  3
ACAD_XREC_ROUNDTRIP
360
82E
  0
DICTIONARY
  5
811
330
2B
100
AcDbDictionary
280
     1
281
     1
  3
ACAD_XREC_ROUNDTRIP
360
812
  0
DICTIONARY
  5
813
330
2C
100
AcDbDictionary
280
     1
281
     1
  3
ACAD_XREC_ROUNDTRIP
360
814
  0
DICTIONARY
  5
815
330
2D
100
AcDbDictionary
280
     1
281
     1
  3
ACAD_XREC_ROUNDTRIP
360
816
  0
DICTIONARY
  5
817
330
2E
100
AcDbDictionary
280
     1
281
     1
  3
ACAD_XREC_ROUNDTRIP
360
818
  0
DICTIONARY
  5
82B
330
38
100
AcDbDictionary
280
     1
281
     1
  3
ACAD_XREC_ROUNDTRIP
360
82C
  0
DICTIONARY
  5
821
330
33
100
AcDbDictionary
280
     1
281
     1
  3
ACAD_XREC_ROUNDTRIP
360
822
  0
DICTIONARY
  5
829
330
37
100
AcDbDictionary
280
     1
281
     1
  3
ACAD_XREC_ROUNDTRIP
360
82A
  0
XRECORD
  5
834
102
{ACAD_REACTORS
330
833
102
}
330
833
100
AcDbXrecord
280
     1
102
MATERIAL
148
0.0
149
0.0
149
0.0
 93
        0
 94
      127
282
     0
 72
     1
 77
     1
171
     1
175
     1
179
     1
273
     0
  0
XRECORD
  5
832
102
{ACAD_REACTORS
330
831
102
}
330
831
100
AcDbXrecord
280
     1
102
MATERIAL
148
0.0
149
0.0
149
0.0
 93
        0
 94
      127
282
     0
 72
     1
 77
     1
171
     1
175
     1
179
     1
273
     0
  0
XRECORD
  5
836
102
{ACAD_REACTORS
330
835
102
}
330
835
100
AcDbXrecord
280
     1
102
MATERIAL
148
0.0
149
0.0
149
0.0
 93
        0
 94
      127
282
     0
 72
     1
 77
     1
171
     1
175
     1
179
     1
273
     0
  0
XRECORD
  5
81A
102
{ACAD_REACTORS
330
819
102
}
330
819
100
AcDbXrecord
280
     1
102
RTVSPropertyOp0
 70
     1
102
RTVSPropertyOp1
 70
     1
102
RTVSPropertyOp2
 70
     1
102
RTVSPropertyOp3
 70
     1
102
RTVSPropertyOp4
 70
     1
102
RTVSPropertyOp5
 70
     1
102
RTVSPropertyOp6
 70
     1
102
RTVSPropertyOp7
 70
     1
102
RTVSPropertyOp8
 70
     1
102
RTVSPropertyOp9
 70
     1
102
RTVSPropertyOp10
 70
     1
102
RTVSPropertyOp11
 70
     1
102
RTVSPropertyOp12
 70
     1
102
RTVSPropertyOp13
 70
     1
102
RTVSPropertyOp14
 70
     1
102
RTVSPropertyOp15
 70
     1
102
RTVSPropertyOp16
 70
     1
102
RTVSPropertyOp17
 70
     1
102
RTVSPropertyOp18
 70
     1
102
RTVSPropertyOp19
 70
     1
102
RTVSPropertyOp20
 70
     1
102
RTVSPropertyOp21
 70
     1
102
RTVSPropertyOp22
 70
     1
102
RTVSPropertyOp23
 70
     1
102
RTVSPropertyOp24
 70
     1
102
RTVSPropertyOp25
 70
     1
102
RTVSPropertyOp26
 70
     1
102
RTVSPropertyOp27
 70
     1
102
RTVSPropertyOp28
 70
     1
102
RTVSPropertyOp29
 70
     1
102
RTVSPropertyOp30
 70
     1
102
RTVSPropertyOp31
 70
     1
102
RTVSPropertyOp32
 70
     1
  0
XRECORD
  5
81E
102
{ACAD_REACTORS
330
81D
102
}
330
81D
100
AcDbXrecord
280
     1
102
RTVSPropertyOp0
 70
     1
102
RTVSPropertyOp1
 70
     1
102
RTVSPropertyOp2
 70
     1
102
RTVSPropertyOp3
 70
     1
102
RTVSPropertyOp4
 70
     1
102
RTVSPropertyOp5
 70
     1
102
RTVSPropertyOp6
 70
     1
102
RTVSPropertyOp7
 70
     1
102
RTVSPropertyOp8
 70
     1
102
RTVSPropertyOp9
 70
     1
102
RTVSPropertyOp10
 70
     1
102
RTVSPropertyOp11
 70
     1
102
RTVSPropertyOp12
 70
     1
102
RTVSPropertyOp13
 70
     1
102
RTVSPropertyOp14
 70
     1
102
RTVSPropertyOp15
 70
     1
102
RTVSPropertyOp16
 70
     1
102
RTVSPropertyOp17
 70
     1
102
RTVSPropertyOp18
 70
     1
102
RTVSPropertyOp19
 70
     1
102
RTVSPropertyOp20
 70
     1
102
RTVSPropertyOp21
 70
     1
102
RTVSPropertyOp22
 70
     1
102
RTVSPropertyOp23
 70
     1
102
RTVSPropertyOp24
 70
     1
102
RTVSPropertyOp25
 70
     1
102
RTVSPropertyOp26
 70
     1
102
RTVSPropertyOp27
 70
     1
102
RTVSPropertyOp28
 70
     1
102
RTVSPropertyOp29
 70
     1
102
RTVSPropertyOp30
 70
     1
102
RTVSPropertyOp31
 70
     1
102
RTVSPropertyOp32
 70
     1
  0
XRECORD
  5
81C
102
{ACAD_REACTORS
330
81B
102
}
330
81B
100
AcDbXrecord
280
     1
102
RTVSPropertyOp0
 70
     1
102
RTVSPropertyOp1
 70
     1
102
RTVSPropertyOp2
 70
     1
102
RTVSPropertyOp3
 70
     1
102
RTVSPropertyOp4
 70
     1
102
RTVSPropertyOp5
 70
     1
102
RTVSPropertyOp6
 70
     1
102
RTVSPropertyOp7
 70
     1
102
RTVSPropertyOp8
 70
     1
102
RTVSPropertyOp9
 70
     1
102
RTVSPropertyOp10
 70
     1
102
RTVSPropertyOp11
 70
     1
102
RTVSPropertyOp12
 70
     1
102
RTVSPropertyOp13
 70
     1
102
RTVSPropertyOp14
 70
     1
102
RTVSPropertyOp15
 70
     1
102
RTVSPropertyOp16
 70
     1
102
RTVSPropertyOp17
 70
     1
102
RTVSPropertyOp18
 70
     1
102
RTVSPropertyOp19
 70
     1
102
RTVSPropertyOp20
 70
     1
102
RTVSPropertyOp21
 70
     1
102
RTVSPropertyOp22
 70
     1
102
RTVSPropertyOp23
 70
     1
102
RTVSPropertyOp24
 70
     1
102
RTVSPropertyOp25
 70
     1
102
RTVSPropertyOp26
 70
     1
102
RTVSPropertyOp27
 70
     1
102
RTVSPropertyOp28
 70
     1
102
RTVSPropertyOp29
 70
     1
102
RTVSPropertyOp30
 70
     1
102
RTVSPropertyOp31
 70
     1
102
RTVSPropertyOp32
 70
     1
  0
XRECORD
  5
820
102
{ACAD_REACTORS
330
81F
102
}
330
81F
100
AcDbXrecord
280
     1
102
RTVSPropertyOp0
 70
     1
102
RTVSPropertyOp1
 70
     1
102
RTVSPropertyOp2
 70
     1
102
RTVSPropertyOp3
 70
     1
102
RTVSPropertyOp4
 70
     1
102
RTVSPropertyOp5
 70
     1
102
RTVSPropertyOp6
 70
     1
102
RTVSPropertyOp7
 70
     1
102
RTVSPropertyOp8
 70
     1
102
RTVSPropertyOp9
 70
     1
102
RTVSPropertyOp10
 70
     1
102
RTVSPropertyOp11
 70
     1
102
RTVSPropertyOp12
 70
     1
102
RTVSPropertyOp13
 70
     1
102
RTVSPropertyOp14
 70
     1
102
RTVSPropertyOp15
 70
     1
102
RTVSPropertyOp16
 70
     1
102
RTVSPropertyOp17
 70
     1
102
RTVSPropertyOp18
 70
     1
102
RTVSPropertyOp19
 70
     1
102
RTVSPropertyOp20
 70
     1
102
RTVSPropertyOp21
 70
     1
102
RTVSPropertyOp22
 70
     1
102
RTVSPropertyOp23
 70
     1
102
RTVSPropertyOp24
 70
     1
102
RTVSPropertyOp25
 70
     1
102
RTVSPropertyOp26
 70
     1
102
RTVSPropertyOp27
 70
     1
102
RTVSPropertyOp28
 70
     1
102
RTVSPropertyOp29
 70
     1
102
RTVSPropertyOp30
 70
     1
102
RTVSPropertyOp31
 70
     1
102
RTVSPropertyOp32
 70
     1
  0
XRECORD
  5
828
102
{ACAD_REACTORS
330
827
102
}
330
827
100
AcDbXrecord
280
     1
102
RTVSPropertyOp0
 70
     1
102
RTVSPropertyOp1
 70
     1
102
RTVSPropertyOp2
 70
     1
102
RTVSPropertyOp3
 70
     1
102
RTVSPropertyOp4
 70
     1
102
RTVSPropertyOp5
 70
     1
102
RTVSPropertyOp6
 70
     1
102
RTVSPropertyOp7
 70
     1
102
RTVSPropertyOp8
 70
     1
102
RTVSPropertyOp9
 70
     1
102
RTVSPropertyOp10
 70
     1
102
RTVSPropertyOp11
 70
     1
102
RTVSPropertyOp12
 70
     1
102
RTVSPropertyOp13
 70
     1
102
RTVSPropertyOp14
 70
     1
102
RTVSPropertyOp15
 70
     1
102
RTVSPropertyOp16
 70
     1
102
RTVSPropertyOp17
 70
     1
102
RTVSPropertyOp18
 70
     1
102
RTVSPropertyOp19
 70
     1
102
RTVSPropertyOp20
 70
     1
102
RTVSPropertyOp21
 70
     1
102
RTVSPropertyOp22
 70
     1
102
RTVSPropertyOp23
 70
     1
102
RTVSPropertyOp24
 70
     1
102
RTVSPropertyOp25
 70
     1
102
RTVSPropertyOp26
 70
     1
102
RTVSPropertyOp27
 70
     1
102
RTVSPropertyOp28
 70
     1
102
RTVSPropertyOp29
 70
     1
102
RTVSPropertyOp30
 70
     1
102
RTVSPropertyOp31
 70
     1
102
RTVSPropertyOp32
 70
     1
  0
XRECORD
  5
830
102
{ACAD_REACTORS
330
82F
102
}
330
82F
100
AcDbXrecord
280
     1
102
RTVSPropertyOp0
 70
     1
102
RTVSPropertyOp1
 70
     1
102
RTVSPropertyOp2
 70
     1
102
RTVSPropertyOp3
 70
     1
102
RTVSPropertyOp4
 70
     1
102
RTVSPropertyOp5
 70
     1
102
RTVSPropertyOp6
 70
     1
102
RTVSPropertyOp7
 70
     1
102
RTVSPropertyOp8
 70
     1
102
RTVSPropertyOp9
 70
     1
102
RTVSPropertyOp10
 70
     1
102
RTVSPropertyOp11
 70
     1
102
RTVSPropertyOp12
 70
     1
102
RTVSPropertyOp13
 70
     1
102
RTVSPropertyOp14
 70
     1
102
RTVSPropertyOp15
 70
     1
102
RTVSPropertyOp16
 70
     1
102
RTVSPropertyOp17
 70
     1
102
RTVSPropertyOp18
 70
     1
102
RTVSPropertyOp19
 70
     1
102
RTVSPropertyOp20
 70
     1
102
RTVSPropertyOp21
 70
     1
102
RTVSPropertyOp22
 70
     1
102
RTVSPropertyOp23
 70
     1
102
RTVSPropertyOp24
 70
     1
102
RTVSPropertyOp25
 70
     1
102
RTVSPropertyOp26
 70
     1
102
RTVSPropertyOp27
 70
     1
102
RTVSPropertyOp28
 70
     1
102
RTVSPropertyOp29
 70
     1
102
RTVSPropertyOp30
 70
     1
102
RTVSPropertyOp31
 70
     1
102
RTVSPropertyOp32
 70
     1
  0
XRECORD
  5
824
102
{ACAD_REACTORS
330
823
102
}
330
823
100
AcDbXrecord
280
     1
102
RTVSPropertyOp0
 70
     1
102
RTVSPropertyOp1
 70
     1
102
RTVSPropertyOp2
 70
     1
102
RTVSPropertyOp3
 70
     1
102
RTVSPropertyOp4
 70
     1
102
RTVSPropertyOp5
 70
     1
102
RTVSPropertyOp6
 70
     1
102
RTVSPropertyOp7
 70
     1
102
RTVSPropertyOp8
 70
     1
102
RTVSPropertyOp9
 70
     1
102
RTVSPropertyOp10
 70
     1
102
RTVSPropertyOp11
 70
     1
102
RTVSPropertyOp12
 70
     1
102
RTVSPropertyOp13
 70
     1
102
RTVSPropertyOp14
 70
     1
102
RTVSPropertyOp15
 70
     1
102
RTVSPropertyOp16
 70
     1
102
RTVSPropertyOp17
 70
     1
102
RTVSPropertyOp18
 70
     1
102
RTVSPropertyOp19
 70
     1
102
RTVSPropertyOp20
 70
     1
102
RTVSPropertyOp21
 70
     1
102
RTVSPropertyOp22
 70
     1
102
RTVSPropertyOp23
 70
     1
102
RTVSPropertyOp24
 70
     1
102
RTVSPropertyOp25
 70
     1
102
RTVSPropertyOp26
 70
     1
102
RTVSPropertyOp27
 70
     1
102
RTVSPropertyOp28
 70
     1
102
RTVSPropertyOp29
 70
     1
102
RTVSPropertyOp30
 70
     1
102
RTVSPropertyOp31
 70
     1
102
RTVSPropertyOp32
 70
     1
  0
XRECORD
  5
826
102
{ACAD_REACTORS
330
825
102
}
330
825
100
AcDbXrecord
280
     1
102
RTVSPropertyOp0
 70
     1
102
RTVSPropertyOp1
 70
     1
102
RTVSPropertyOp2
 70
     1
102
RTVSPropertyOp3
 70
     1
102
RTVSPropertyOp4
 70
     1
102
RTVSPropertyOp5
 70
     1
102
RTVSPropertyOp6
 70
     1
102
RTVSPropertyOp7
 70
     1
102
RTVSPropertyOp8
 70
     1
102
RTVSPropertyOp9
 70
     1
102
RTVSPropertyOp10
 70
     1
102
RTVSPropertyOp11
 70
     1
102
RTVSPropertyOp12
 70
     1
102
RTVSPropertyOp13
 70
     1
102
RTVSPropertyOp14
 70
     1
102
RTVSPropertyOp15
 70
     1
102
RTVSPropertyOp16
 70
     1
102
RTVSPropertyOp17
 70
     1
102
RTVSPropertyOp18
 70
     1
102
RTVSPropertyOp19
 70
     1
102
RTVSPropertyOp20
 70
     1
102
RTVSPropertyOp21
 70
     1
102
RTVSPropertyOp22
 70
     1
102
RTVSPropertyOp23
 70
     1
102
RTVSPropertyOp24
 70
     1
102
RTVSPropertyOp25
 70
     1
102
RTVSPropertyOp26
 70
     1
102
RTVSPropertyOp27
 70
     1
102
RTVSPropertyOp28
 70
     1
102
RTVSPropertyOp29
 70
     1
102
RTVSPropertyOp30
 70
     1
102
RTVSPropertyOp31
 70
     1
102
RTVSPropertyOp32
 70
     1
  0
XRECORD
  5
82E
102
{ACAD_REACTORS
330
82D
102
}
330
82D
100
AcDbXrecord
280
     1
102
RTVSPropertyOp0
 70
     1
102
RTVSPropertyOp1
 70
     1
102
RTVSPropertyOp2
 70
     1
102
RTVSPropertyOp3
 70
     1
102
RTVSPropertyOp4
 70
     1
102
RTVSPropertyOp5
 70
     1
102
RTVSPropertyOp6
 70
     1
102
RTVSPropertyOp7
 70
     1
102
RTVSPropertyOp8
 70
     1
102
RTVSPropertyOp9
 70
     1
102
RTVSPropertyOp10
 70
     1
102
RTVSPropertyOp11
 70
     1
102
RTVSPropertyOp12
 70
     1
102
RTVSPropertyOp13
 70
     1
102
RTVSPropertyOp14
 70
     1
102
RTVSPropertyOp15
 70
     1
102
RTVSPropertyOp16
 70
     1
102
RTVSPropertyOp17
 70
     1
102
RTVSPropertyOp18
 70
     1
102
RTVSPropertyOp19
 70
     1
102
RTVSPropertyOp20
 70
     1
102
RTVSPropertyOp21
 70
     1
102
RTVSPropertyOp22
 70
     1
102
RTVSPropertyOp23
 70
     1
102
RTVSPropertyOp24
 70
     1
102
RTVSPropertyOp25
 70
     1
102
RTVSPropertyOp26
 70
     1
102
RTVSPropertyOp27
 70
     1
102
RTVSPropertyOp28
 70
     1
102
RTVSPropertyOp29
 70
     1
102
RTVSPropertyOp30
 70
     1
102
RTVSPropertyOp31
 70
     1
102
RTVSPropertyOp32
 70
     1
  0
XRECORD
  5
812
102
{ACAD_REACTORS
330
811
102
}
330
811
100
AcDbXrecord
280
     1
102
RTVSPropertyOp0
 70
     1
102
RTVSPropertyOp1
 70
     1
102
RTVSPropertyOp2
 70
     1
102
RTVSPropertyOp3
 70
     1
102
RTVSPropertyOp4
 70
     1
102
RTVSPropertyOp5
 70
     1
102
RTVSPropertyOp6
 70
     1
102
RTVSPropertyOp7
 70
     1
102
RTVSPropertyOp8
 70
     1
102
RTVSPropertyOp9
 70
     1
102
RTVSPropertyOp10
 70
     1
102
RTVSPropertyOp11
 70
     1
102
RTVSPropertyOp12
 70
     1
102
RTVSPropertyOp13
 70
     1
102
RTVSPropertyOp14
 70
     1
102
RTVSPropertyOp15
 70
     1
102
RTVSPropertyOp16
 70
     1
102
RTVSPropertyOp17
 70
     1
102
RTVSPropertyOp18
 70
     1
102
RTVSPropertyOp19
 70
     1
102
RTVSPropertyOp20
 70
     1
102
RTVSPropertyOp21
 70
     1
102
RTVSPropertyOp22
 70
     1
102
RTVSPropertyOp23
 70
     1
102
RTVSPropertyOp24
 70
     1
102
RTVSPropertyOp25
 70
     1
102
RTVSPropertyOp26
 70
     1
102
RTVSPropertyOp27
 70
     1
102
RTVSPropertyOp28
 70
     1
102
RTVSPropertyOp29
 70
     1
102
RTVSPropertyOp30
 70
     1
102
RTVSPropertyOp31
 70
     1
102
RTVSPropertyOp32
 70
     1
  0
XRECORD
  5
814
102
{ACAD_REACTORS
330
813
102
}
330
813
100
AcDbXrecord
280
     1
102
RTVSPropertyOp0
 70
     1
102
RTVSPropertyOp1
 70
     1
102
RTVSPropertyOp2
 70
     1
102
RTVSPropertyOp3
 70
     1
102
RTVSPropertyOp4
 70
     1
102
RTVSPropertyOp5
 70
     1
102
RTVSPropertyOp6
 70
     1
102
RTVSPropertyOp7
 70
     1
102
RTVSPropertyOp8
 70
     1
102
RTVSPropertyOp9
 70
     1
102
RTVSPropertyOp10
 70
     1
102
RTVSPropertyOp11
 70
     1
102
RTVSPropertyOp12
 70
     1
102
RTVSPropertyOp13
 70
     1
102
RTVSPropertyOp14
 70
     1
102
RTVSPropertyOp15
 70
     1
102
RTVSPropertyOp16
 70
     1
102
RTVSPropertyOp17
 70
     1
102
RTVSPropertyOp18
 70
     1
102
RTVSPropertyOp19
 70
     1
102
RTVSPropertyOp20
 70
     1
102
RTVSPropertyOp21
 70
     1
102
RTVSPropertyOp22
 70
     1
102
RTVSPropertyOp23
 70
     1
102
RTVSPropertyOp24
 70
     1
102
RTVSPropertyOp25
 70
     1
102
RTVSPropertyOp26
 70
     1
102
RTVSPropertyOp27
 70
     1
102
RTVSPropertyOp28
 70
     1
102
RTVSPropertyOp29
 70
     1
102
RTVSPropertyOp30
 70
     1
102
RTVSPropertyOp31
 70
     1
102
RTVSPropertyOp32
 70
     1
  0
XRECORD
  5
816
102
{ACAD_REACTORS
330
815
102
}
330
815
100
AcDbXrecord
280
     1
102
RTVSPropertyOp0
 70
     1
102
RTVSPropertyOp1
 70
     1
102
RTVSPropertyOp2
 70
     1
102
RTVSPropertyOp3
 70
     1
102
RTVSPropertyOp4
 70
     1
102
RTVSPropertyOp5
 70
     1
102
RTVSPropertyOp6
 70
     1
102
RTVSPropertyOp7
 70
     1
102
RTVSPropertyOp8
 70
     1
102
RTVSPropertyOp9
 70
     1
102
RTVSPropertyOp10
 70
     1
102
RTVSPropertyOp11
 70
     1
102
RTVSPropertyOp12
 70
     1
102
RTVSPropertyOp13
 70
     1
102
RTVSPropertyOp14
 70
     1
102
RTVSPropertyOp15
 70
     1
102
RTVSPropertyOp16
 70
     1
102
RTVSPropertyOp17
 70
     1
102
RTVSPropertyOp18
 70
     1
102
RTVSPropertyOp19
 70
     1
102
RTVSPropertyOp20
 70
     1
102
RTVSPropertyOp21
 70
     1
102
RTVSPropertyOp22
 70
     1
102
RTVSPropertyOp23
 70
     1
102
RTVSPropertyOp24
 70
     1
102
RTVSPropertyOp25
 70
     1
102
RTVSPropertyOp26
 70
     1
102
RTVSPropertyOp27
 70
     1
102
RTVSPropertyOp28
 70
     1
102
RTVSPropertyOp29
 70
     1
102
RTVSPropertyOp30
 70
     1
102
RTVSPropertyOp31
 70
     1
102
RTVSPropertyOp32
 70
     1
  0
XRECORD
  5
818
102
{ACAD_REACTORS
330
817
102
}
330
817
100
AcDbXrecord
280
     1
102
RTVSPropertyOp0
 70
     1
102
RTVSPropertyOp1
 70
     1
102
RTVSPropertyOp2
 70
     1
102
RTVSPropertyOp3
 70
     1
102
RTVSPropertyOp4
 70
     1
102
RTVSPropertyOp5
 70
     1
102
RTVSPropertyOp6
 70
     1
102
RTVSPropertyOp7
 70
     1
102
RTVSPropertyOp8
 70
     1
102
RTVSPropertyOp9
 70
     1
102
RTVSPropertyOp10
 70
     1
102
RTVSPropertyOp11
 70
     1
102
RTVSPropertyOp12
 70
     1
102
RTVSPropertyOp13
 70
     1
102
RTVSPropertyOp14
 70
     1
102
RTVSPropertyOp15
 70
     1
102
RTVSPropertyOp16
 70
     1
102
RTVSPropertyOp17
 70
     1
102
RTVSPropertyOp18
 70
     1
102
RTVSPropertyOp19
 70
     1
102
RTVSPropertyOp20
 70
     1
102
RTVSPropertyOp21
 70
     1
102
RTVSPropertyOp22
 70
     1
102
RTVSPropertyOp23
 70
     1
102
RTVSPropertyOp24
 70
     1
102
RTVSPropertyOp25
 70
     1
102
RTVSPropertyOp26
 70
     1
102
RTVSPropertyOp27
 70
     1
102
RTVSPropertyOp28
 70
     1
102
RTVSPropertyOp29
 70
     1
102
RTVSPropertyOp30
 70
     1
102
RTVSPropertyOp31
 70
     1
102
RTVSPropertyOp32
 70
     1
  0
XRECORD
  5
82C
102
{ACAD_REACTORS
330
82B
102
}
330
82B
100
AcDbXrecord
280
     1
102
RTVSPropertyOp0
 70
     1
102
RTVSPropertyOp1
 70
     1
102
RTVSPropertyOp2
 70
     1
102
RTVSPropertyOp3
 70
     1
102
RTVSPropertyOp4
 70
     1
102
RTVSPropertyOp5
 70
     1
102
RTVSPropertyOp6
 70
     1
102
RTVSPropertyOp7
 70
     1
102
RTVSPropertyOp8
 70
     1
102
RTVSPropertyOp9
 70
     1
102
RTVSPropertyOp10
 70
     1
102
RTVSPropertyOp11
 70
     1
102
RTVSPropertyOp12
 70
     1
102
RTVSPropertyOp13
 70
     1
102
RTVSPropertyOp14
 70
     1
102
RTVSPropertyOp15
 70
     1
102
RTVSPropertyOp16
 70
     1
102
RTVSPropertyOp17
 70
     1
102
RTVSPropertyOp18
 70
     1
102
RTVSPropertyOp19
 70
     1
102
RTVSPropertyOp20
 70
     1
102
RTVSPropertyOp21
 70
     1
102
RTVSPropertyOp22
 70
     1
102
RTVSPropertyOp23
 70
     1
102
RTVSPropertyOp24
 70
     1
102
RTVSPropertyOp25
 70
     1
102
RTVSPropertyOp26
 70
     1
102
RTVSPropertyOp27
 70
     1
102
RTVSPropertyOp28
 70
     1
102
RTVSPropertyOp29
 70
     1
102
RTVSPropertyOp30
 70
     1
102
RTVSPropertyOp31
 70
     1
102
RTVSPropertyOp32
 70
     1
  0
XRECORD
  5
822
102
{ACAD_REACTORS
330
821
102
}
330
821
100
AcDbXrecord
280
     1
102
RTVSPropertyOp0
 70
     1
102
RTVSPropertyOp1
 70
     1
102
RTVSPropertyOp2
 70
     1
102
RTVSPropertyOp3
 70
     1
102
RTVSPropertyOp4
 70
     1
102
RTVSPropertyOp5
 70
     1
102
RTVSPropertyOp6
 70
     1
102
RTVSPropertyOp7
 70
     1
102
RTVSPropertyOp8
 70
     1
102
RTVSPropertyOp9
 70
     1
102
RTVSPropertyOp10
 70
     1
102
RTVSPropertyOp11
 70
     1
102
RTVSPropertyOp12
 70
     1
102
RTVSPropertyOp13
 70
     1
102
RTVSPropertyOp14
 70
     1
102
RTVSPropertyOp15
 70
     1
102
RTVSPropertyOp16
 70
     1
102
RTVSPropertyOp17
 70
     1
102
RTVSPropertyOp18
 70
     1
102
RTVSPropertyOp19
 70
     1
102
RTVSPropertyOp20
 70
     1
102
RTVSPropertyOp21
 70
     1
102
RTVSPropertyOp22
 70
     1
102
RTVSPropertyOp23
 70
     1
102
RTVSPropertyOp24
 70
     1
102
RTVSPropertyOp25
 70
     1
102
RTVSPropertyOp26
 70
     1
102
RTVSPropertyOp27
 70
     1
102
RTVSPropertyOp28
 70
     1
102
RTVSPropertyOp29
 70
     1
102
RTVSPropertyOp30
 70
     1
102
RTVSPropertyOp31
 70
     1
102
RTVSPropertyOp32
 70
     1
  0
XRECORD
  5
82A
102
{ACAD_REACTORS
330
829
102
}
330
829
100
AcDbXrecord
280
     1
102
RTVSPropertyOp0
 70
     1
102
RTVSPropertyOp1
 70
     1
102
RTVSPropertyOp2
 70
     1
102
RTVSPropertyOp3
 70
     1
102
RTVSPropertyOp4
 70
     1
102
RTVSPropertyOp5
 70
     1
102
RTVSPropertyOp6
 70
     1
102
RTVSPropertyOp7
 70
     1
102
RTVSPropertyOp8
 70
     1
102
RTVSPropertyOp9
 70
     1
102
RTVSPropertyOp10
 70
     1
102
RTVSPropertyOp11
 70
     1
102
RTVSPropertyOp12
 70
     1
102
RTVSPropertyOp13
 70
     1
102
RTVSPropertyOp14
 70
     1
102
RTVSPropertyOp15
 70
     1
102
RTVSPropertyOp16
 70
     1
102
RTVSPropertyOp17
 70
     1
102
RTVSPropertyOp18
 70
     1
102
RTVSPropertyOp19
 70
     1
102
RTVSPropertyOp20
 70
     1
102
RTVSPropertyOp21
 70
     1
102
RTVSPropertyOp22
 70
     1
102
RTVSPropertyOp23
 70
     1
102
RTVSPropertyOp24
 70
     1
102
RTVSPropertyOp25
 70
     1
102
RTVSPropertyOp26
 70
     1
102
RTVSPropertyOp27
 70
     1
102
RTVSPropertyOp28
 70
     1
102
RTVSPropertyOp29
 70
     1
102
RTVSPropertyOp30
 70
     1
102
RTVSPropertyOp31
 70
     1
102
RTVSPropertyOp32
 70
     1
  0
ENDSEC
  0
EOF
