  0
SECTION
  2
HEADER
  9
$ACADVER
  1
AC1018
  9
$ACADMAINTVER
 70
     0
  9
$DWGCODEPAGE
  3
ANSI_932
  9
$INSBASE
 10
0.0
 20
0.0
 30
0.0
  9
$EXTMIN
 10
-105.0
 20
-148.5
 30
0.0
  9
$EXTMAX
 10
105.0
 20
148.5
 30
0.0
  9
$LIMMIN
 10
-105.0
 20
-148.5
  9
$LIMMAX
 10
105.0
 20
148.5
  9
$ORTHOMODE
 70
     0
  9
$REGENMODE
 70
     1
  9
$FILLMODE
 70
     1
  9
$QTEXTMODE
 70
     0
  9
$MIRRTEXT
 70
     1
  9
$LTSCALE
 40
1.0
  9
$ATTMODE
 70
     1
  9
$TEXTSIZE
 40
2.5
  9
$TRACEWID
 40
1.0
  9
$TEXTSTYLE
  7
Standard
  9
$CLAYER
  8
0
  9
$CELTYPE
  6
ByLayer
  9
$CECOLOR
 62
   256
  9
$CELTSCALE
 40
1.0
  9
$DISPSILH
 70
     0
  9
$DIMSCALE
 40
1.0
  9
$DIMASZ
 40
2.5
  9
$DIMEXO
 40
0.625
  9
$DIMDLI
 40
3.75
  9
$DIMRND
 40
0.0
  9
$DIMDLE
 40
0.0
  9
$DIMEXE
 40
1.25
  9
$DIMTP
 40
0.0
  9
$DIMTM
 40
0.0
  9
$DIMTXT
 40
2.5
  9
$DIMCEN
 40
2.5
  9
$DIMTSZ
 40
0.0
  9
$DIMTOL
 70
     0
  9
$DIMLIM
 70
     0
  9
$DIMTIH
 70
     0
  9
$DIMTOH
 70
     0
  9
$DIMSE1
 70
     0
  9
$DIMSE2
 70
     0
  9
$DIMTAD
 70
     1
  9
$DIMZIN
 70
     8
  9
$DIMBLK
  1

  9
$DIMASO
 70
     1
  9
$DIMSHO
 70
     1
  9
$DIMPOST
  1

  9
$DIMAPOST
  1

  9
$DIMALT
 70
     0
  9
$DIMALTD
 70
     3
  9
$DIMALTF
 40
0.03937007874016
  9
$DIMLFAC
 40
1.0
  9
$DIMTOFL
 70
     1
  9
$DIMTVP
 40
0.0
  9
$DIMTIX
 70
     0
  9
$DIMSOXD
 70
     0
  9
$DIMSAH
 70
     0
  9
$DIMBLK1
  1

  9
$DIMBLK2
  1

  9
$DIMSTYLE
  2
ISO-25
  9
$DIMCLRD
 70
     0
  9
$DIMCLRE
 70
     0
  9
$DIMCLRT
 70
     0
  9
$DIMTFAC
 40
1.0
  9
$DIMGAP
 40
0.625
  9
$DIMJUST
 70
     0
  9
$DIMSD1
 70
     0
  9
$DIMSD2
 70
     0
  9
$DIMTOLJ
 70
     0
  9
$DIMTZIN
 70
     8
  9
$DIMALTZ
 70
     0
  9
$DIMALTTZ
 70
     0
  9
$DIMUPT
 70
     0
  9
$DIMDEC
 70
     2
  9
$DIMTDEC
 70
     2
  9
$DIMALTU
 70
     2
  9
$DIMALTTD
 70
     3
  9
$DIMTXSTY
  7
Standard
  9
$DIMAUNIT
 70
     0
  9
$DIMADEC
 70
     0
  9
$DIMALTRND
 40
0.0
  9
$DIMAZIN
 70
     0
  9
$DIMDSEP
 70
    44
  9
$DIMATFIT
 70
     3
  9
$DIMFRAC
 70
     0
  9
$DIMLDRBLK
  1

  9
$DIMLUNIT
 70
     2
  9
$DIMLWD
 70
    -2
  9
$DIMLWE
 70
    -2
  9
$DIMTMOVE
 70
     0
  9
$LUNITS
 70
     2
  9
$LUPREC
 70
     4
  9
$SKETCHINC
 40
1.0
  9
$FILLETRAD
 40
10.0
  9
$AUNITS
 70
     0
  9
$AUPREC
 70
     0
  9
$MENU
  1
.
  9
$ELEVATION
 40
0.0
  9
$PELEVATION
 40
0.0
  9
$THICKNESS
 40
0.0
  9
$LIMCHECK
 70
     0
  9
$CHAMFERA
 40
10.0
  9
$CHAMFERB
 40
10.0
  9
$CHAMFERC
 40
20.0
  9
$CHAMFERD
 40
0.0
  9
$SKPOLY
 70
     0
  9
$TDCREATE
 40
2457290.490982546
  9
$TDUCREATE
 40
2457290.115982546
  9
$TDUPDATE
 40
2457290.490983009
  9
$TDUUPDATE
 40
2457290.115983009
  9
$TDINDWG
 40
0.0000000116
  9
$TDUSRTIMER
 40
0.0000000116
  9
$USRTIMER
 70
     1
  9
$ANGBASE
 50
0.0
  9
$ANGDIR
 70
     0
  9
$PDMODE
 70
     0
  9
$PDSIZE
 40
0.0
  9
$PLINEWID
 40
0.0
  9
$SPLFRAME
 70
     0
  9
$SPLINETYPE
 70
     6
  9
$SPLINESEGS
 70
     8
  9
$HANDSEED
  5
3C2
  9
$SURFTAB1
 70
     6
  9
$SURFTAB2
 70
     6
  9
$SURFTYPE
 70
     6
  9
$SURFU
 70
     6
  9
$SURFV
 70
     6
  9
$UCSBASE
  2

  9
$UCSNAME
  2

  9
$UCSORG
 10
0.0
 20
0.0
 30
0.0
  9
$UCSXDIR
 10
1.0
 20
0.0
 30
0.0
  9
$UCSYDIR
 10
0.0
 20
1.0
 30
0.0
  9
$UCSORTHOREF
  2

  9
$UCSORTHOVIEW
 70
     0
  9
$UCSORGTOP
 10
0.0
 20
0.0
 30
0.0
  9
$UCSORGBOTTOM
 10
0.0
 20
0.0
 30
0.0
  9
$UCSORGLEFT
 10
0.0
 20
0.0
 30
0.0
  9
$UCSORGRIGHT
 10
0.0
 20
0.0
 30
0.0
  9
$UCSORGFRONT
 10
0.0
 20
0.0
 30
0.0
  9
$UCSORGBACK
 10
0.0
 20
0.0
 30
0.0
  9
$PUCSBASE
  2

  9
$PUCSNAME
  2

  9
$PUCSORG
 10
0.0
 20
0.0
 30
0.0
  9
$PUCSXDIR
 10
1.0
 20
0.0
 30
0.0
  9
$PUCSYDIR
 10
0.0
 20
1.0
 30
0.0
  9
$PUCSORTHOREF
  2

  9
$PUCSORTHOVIEW
 70
     0
  9
$PUCSORGTOP
 10
0.0
 20
0.0
 30
0.0
  9
$PUCSORGBOTTOM
 10
0.0
 20
0.0
 30
0.0
  9
$PUCSORGLEFT
 10
0.0
 20
0.0
 30
0.0
  9
$PUCSORGRIGHT
 10
0.0
 20
0.0
 30
0.0
  9
$PUCSORGFRONT
 10
0.0
 20
0.0
 30
0.0
  9
$PUCSORGBACK
 10
0.0
 20
0.0
 30
0.0
  9
$USERI1
 70
     0
  9
$USERI2
 70
     0
  9
$USERI3
 70
     0
  9
$USERI4
 70
     0
  9
$USERI5
 70
     0
  9
$USERR1
 40
0.0
  9
$USERR2
 40
0.0
  9
$USERR3
 40
0.0
  9
$USERR4
 40
0.0
  9
$USERR5
 40
0.0
  9
$WORLDVIEW
 70
     1
  9
$SHADEDGE
 70
     3
  9
$SHADEDIF
 70
    70
  9
$TILEMODE
 70
     1
  9
$MAXACTVP
 70
    64
  9
$PINSBASE
 10
0.0
 20
0.0
 30
0.0
  9
$PLIMCHECK
 70
     0
  9
$PEXTMIN
 10
1.000000000000000E+20
 20
1.000000000000000E+20
 30
1.000000000000000E+20
  9
$PEXTMAX
 10
-1.000000000000000E+20
 20
-1.000000000000000E+20
 30
-1.000000000000000E+20
  9
$PLIMMIN
 10
-105.0
 20
-148.5
  9
$PLIMMAX
 10
105.0
 20
148.5
  9
$UNITMODE
 70
     0
  9
$VISRETAIN
 70
     1
  9
$PLINEGEN
 70
     0
  9
$PSLTSCALE
 70
     1
  9
$TREEDEPTH
 70
  3020
  9
$CMLSTYLE
  2
Standard
  9
$CMLJUST
 70
     0
  9
$CMLSCALE
 40
20.0
  9
$PROXYGRAPHICS
 70
     1
  9
$MEASUREMENT
 70
     1
  9
$CELWEIGHT
370
    -1
  9
$ENDCAPS
280
     0
  9
$JOINSTYLE
280
     0
  9
$LWDISPLAY
290
     0
  9
$INSUNITS
 70
     4
  9
$HYPERLINKBASE
  1

  9
$STYLESHEET
  1

  9
$XEDIT
290
     1
  9
$CEPSNTYPE
380
     0
  9
$PSTYLEMODE
290
     1
  9
$FINGERPRINTGUID
  2
{D0E49D0F-DFF7-4622-9F34-36B12046CBA8}
  9
$VERSIONGUID
  2
{FAEB1C32-E019-11D5-929B-00C0DF256EC4}
  9
$EXTNAMES
290
     1
  9
$PSVPSCALE
 40
0.0
  9
$OLESTARTUP
290
     0
  9
$SORTENTS
280
   127
  9
$INDEXCTL
280
     0
  9
$HIDETEXT
280
     1
  9
$XCLIPFRAME
290
     0
  9
$HALOGAP
280
     0
  9
$OBSCOLOR
 70
   257
  9
$OBSLTYPE
280
     0
  9
$INTERSECTIONDISPLAY
280
     0
  9
$INTERSECTIONCOLOR
 70
   257
  9
$DIMASSOC
280
     2
  9
$PROJECTNAME
  1

  0
ENDSEC
  0
SECTION
  2
CLASSES
  0
CLASS
  1
ACDBDICTIONARYWDFLT
  2
AcDbDictionaryWithDefault
  3
ObjectDBX Classes
 90
        0
 91
        4
280
     0
281
     0
  0
CLASS
  1
VISUALSTYLE
  2
AcDbVisualStyle
  3
ObjectDBX Classes
 90
     4095
 91
        4
280
     0
281
     0
  0
CLASS
  1
MATERIAL
  2
AcDbMaterial
  3
ObjectDBX Classes
 90
     1153
 91
        4
280
     0
281
     0
  0
CLASS
  1
SUN
  2
AcDbSun
  3
SCENEOE
 90
     1024
 91
        4
280
     0
281
     0
  0
ENDSEC
  0
SECTION
  2
TABLES
  0
TABLE
  2
VPORT
  5
8
330
0
100
AcDbSymbolTable
 70
     1
  0
VPORT
  5
29
330
8
100
AcDbSymbolTableRecord
100
AcDbViewportTableRecord
  2
*Active
 70
     0
 10
0.0
 20
0.0
 11
1.0
 21
1.0
 12
344.1869158878504
 22
148.5
 13
0.0
 23
0.0
 14
10.0
 24
10.0
 15
10.0
 25
10.0
 16
0.0
 26
0.0
 36
1.0
 17
0.0
 27
0.0
 37
0.0
 40
297.0
 41
1.972972972850329
 42
50.0
 43
0.0
 44
0.0
 50
0.0
 51
0.0
 71
     0
 72
   100
 73
     1
 74
     3
 75
     0
 76
     0
 77
     0
 78
     0
281
     0
 65
     1
110
0.0
120
0.0
130
0.0
111
1.0
121
0.0
131
0.0
112
0.0
122
1.0
132
0.0
 79
     0
146
0.0
  0
ENDTAB
  0
TABLE
  2
LTYPE
  5
5
330
0
100
AcDbSymbolTable
 70
     5
  0
LTYPE
  5
14
330
5
100
AcDbSymbolTableRecord
100
AcDbLinetypeTableRecord
  2
ByBlock
 70
     0
  3

 72
    65
 73
     0
 40
0.0
  0
LTYPE
  5
15
330
5
100
AcDbSymbolTableRecord
100
AcDbLinetypeTableRecord
  2
ByLayer
 70
     0
  3

 72
    65
 73
     0
 40
0.0
  0
LTYPE
  5
16
330
5
100
AcDbSymbolTableRecord
100
AcDbLinetypeTableRecord
  2
Continuous
 70
     0
  3
Solid line
 72
    65
 73
     0
 40
0.0
  0
LTYPE
  5
40
330
5
100
AcDbSymbolTableRecord
100
AcDbLinetypeTableRecord
  2
CONTINOUS
 70
     0
  3
______________________________
 72
    65
 73
     0
 40
0.0
  0
LTYPE
  5
41
330
5
100
AcDbSymbolTableRecord
100
AcDbLinetypeTableRecord
  2
DASHED
 70
     0
  3
__ __ __ __ __ __ __ __ __ __ __ __ __ __ __ __
 72
    65
 73
     2
 40
4.5
 49
3.0
 74
     0
 49
-1.5
 74
     0
  0
LTYPE
  5
42
330
5
100
AcDbSymbolTableRecord
100
AcDbLinetypeTableRecord
  2
PHANTOM
 70
     0
  3
______  __  __  ______  __  __  _____
 72
    65
 73
     6
 40
15.0
 49
7.5
 74
     0
 49
-1.5
 74
     0
 49
1.5
 74
     0
 49
-1.5
 74
     0
 49
1.5
 74
     0
 49
-1.5
 74
     0
  0
LTYPE
  5
43
330
5
100
AcDbSymbolTableRecord
100
AcDbLinetypeTableRecord
  2
CENTER
 70
     0
  3
____ _ ____ _ ____ _ ____ _ ____ _ ____
 72
    65
 73
     4
 40
12.0
 49
7.5
 74
     0
 49
-1.5
 74
     0
 49
1.5
 74
     0
 49
-1.5
 74
     0
  0
ENDTAB
  0
TABLE
  2
LAYER
  5
2
330
0
100
AcDbSymbolTable
 70
     3
  0
LAYER
  5
10
330
2
100
AcDbSymbolTableRecord
100
AcDbLayerTableRecord
  2
0
 70
     0
 62
     7
  6
Continuous
370
    -3
390
F
  0
LAYER
  5
283
330
2
100
AcDbSymbolTableRecord
100
AcDbLayerTableRecord
  2
Defpoints
 70
     0
 62
     7
  6
Continuous
290
     0
370
    -3
390
F
  0
LAYER
  5
383
330
2
100
AcDbSymbolTableRecord
100
AcDbLayerTableRecord
  2
VIEW0001
 70
     0
 62
     7
  6
Continuous
370
    -3
390
F
  0
ENDTAB
  0
TABLE
  2
STYLE
  5
3
330
0
100
AcDbSymbolTable
 70
     1
  0
STYLE
  5
11
330
3
100
AcDbSymbolTableRecord
100
AcDbTextStyleTableRecord
  2
Standard
 70
     0
 40
0.0
 41
1.0
 50
0.0
 71
     0
 42
2.5
  3
ROMANS
  4
BIGFONT
  0
ENDTAB
  0
TABLE
  2
VIEW
  5
6
330
0
100
AcDbSymbolTable
 70
     0
  0
ENDTAB
  0
TABLE
  2
UCS
  5
7
330
0
100
AcDbSymbolTable
 70
     0
  0
ENDTAB
  0
TABLE
  2
APPID
  5
9
330
0
100
AcDbSymbolTable
 70
     1
  0
APPID
  5
12
330
9
100
AcDbSymbolTableRecord
100
AcDbRegAppTableRecord
  2
ACAD
 70
     0
  0
ENDTAB
  0
TABLE
  2
DIMSTYLE
  5
A
330
0
100
AcDbSymbolTable
 70
     1
100
AcDbDimStyleTable
  0
DIMSTYLE
105
27
102
{ACAD_REACTORS
330
27C
330
290
330
29C
330
2A7
330
2B4
330
2CA
330
2D7
330
2E3
330
2F7
330
304
330
311
330
31D
330
32A
330
337
330
344
330
351
330
35C
330
369
330
376
102
}
330
A
100
AcDbSymbolTableRecord
100
AcDbDimStyleTableRecord
  2
ISO-25
 70
     0
 41
2.5
 42
0.625
 43
3.75
 44
1.25
 73
     0
 74
     0
 77
     1
 78
     8
140
2.5
141
2.5
143
0.03937007874016
147
0.625
171
     3
172
     1
178
     0
271
     2
272
     2
274
     3
278
    44
283
     0
284
     8
340
11
  0
ENDTAB
  0
TABLE
  2
BLOCK_RECORD
  5
1
330
0
100
AcDbSymbolTable
 70
    21
  0
BLOCK_RECORD
  5
1F
330
1
100
AcDbSymbolTableRecord
100
AcDbBlockTableRecord
  2
*Model_Space
340
22
  0
BLOCK_RECORD
  5
1B
330
1
100
AcDbSymbolTableRecord
100
AcDbBlockTableRecord
  2
*Paper_Space
340
1E
  0
BLOCK_RECORD
  5
23
330
1
100
AcDbSymbolTableRecord
100
AcDbBlockTableRecord
  2
*Paper_Space0
340
26
  0
BLOCK_RECORD
  5
27D
330
1
100
AcDbSymbolTableRecord
100
AcDbBlockTableRecord
  2
_OPEN30
340
0
102
{BLKREFS
331
28B
331
28A
331
297
331
296
331
2A2
331
2A1
331
2AF
331
2AE
331
0
331
0
331
2D2
331
2D1
331
2DE
331
2DD
331
0
331
0
331
2FF
331
2FE
331
30C
331
30B
331
318
331
317
331
325
331
324
331
332
331
331
331
33F
331
33E
331
34C
331
34B
331
357
331
356
331
364
331
363
331
371
331
370
331
37E
331
37D
102
}
  0
BLOCK_RECORD
  5
284
330
1
100
AcDbSymbolTableRecord
100
AcDbBlockTableRecord
  2
*D2
340
0
  0
BLOCK_RECORD
  5
291
330
1
100
AcDbSymbolTableRecord
100
AcDbBlockTableRecord
  2
*D3
340
0
  0
BLOCK_RECORD
  5
29D
330
1
100
AcDbSymbolTableRecord
100
AcDbBlockTableRecord
  2
*D4
340
0
  0
BLOCK_RECORD
  5
2A8
330
1
100
AcDbSymbolTableRecord
100
AcDbBlockTableRecord
  2
*D5
340
0
  0
BLOCK_RECORD
  5
2B5
330
1
100
AcDbSymbolTableRecord
100
AcDbBlockTableRecord
  2
*D6
340
0
  0
BLOCK_RECORD
  5
2CB
330
1
100
AcDbSymbolTableRecord
100
AcDbBlockTableRecord
  2
*D7
340
0
  0
BLOCK_RECORD
  5
2D8
330
1
100
AcDbSymbolTableRecord
100
AcDbBlockTableRecord
  2
*D8
340
0
  0
BLOCK_RECORD
  5
2E4
330
1
100
AcDbSymbolTableRecord
100
AcDbBlockTableRecord
  2
*D9
340
0
  0
BLOCK_RECORD
  5
2F8
330
1
100
AcDbSymbolTableRecord
100
AcDbBlockTableRecord
  2
*D10
340
0
  0
BLOCK_RECORD
  5
305
330
1
100
AcDbSymbolTableRecord
100
AcDbBlockTableRecord
  2
*D11
340
0
  0
BLOCK_RECORD
  5
312
330
1
100
AcDbSymbolTableRecord
100
AcDbBlockTableRecord
  2
*D12
340
0
  0
BLOCK_RECORD
  5
31E
330
1
100
AcDbSymbolTableRecord
100
AcDbBlockTableRecord
  2
*D13
340
0
  0
BLOCK_RECORD
  5
32B
330
1
100
AcDbSymbolTableRecord
100
AcDbBlockTableRecord
  2
*D14
340
0
  0
BLOCK_RECORD
  5
338
330
1
100
AcDbSymbolTableRecord
100
AcDbBlockTableRecord
  2
*D15
340
0
  0
BLOCK_RECORD
  5
345
330
1
100
AcDbSymbolTableRecord
100
AcDbBlockTableRecord
  2
*D16
340
0
  0
BLOCK_RECORD
  5
352
330
1
100
AcDbSymbolTableRecord
100
AcDbBlockTableRecord
  2
*D17
340
0
  0
BLOCK_RECORD
  5
35D
330
1
100
AcDbSymbolTableRecord
100
AcDbBlockTableRecord
  2
*D18
340
0
  0
BLOCK_RECORD
  5
36A
330
1
100
AcDbSymbolTableRecord
100
AcDbBlockTableRecord
  2
*D19
340
0
  0
BLOCK_RECORD
  5
377
330
1
100
AcDbSymbolTableRecord
100
AcDbBlockTableRecord
  2
*D20
340
0
  0
ENDTAB
  0
ENDSEC
  0
SECTION
  2
BLOCKS
  0
BLOCK
  5
20
330
1F
100
AcDbEntity
  8
0
100
AcDbBlockBegin
  2
*Model_Space
 70
     0
 10
0.0
 20
0.0
 30
0.0
  3
*Model_Space
  1

  0
ENDBLK
  5
21
330
1F
100
AcDbEntity
  8
0
100
AcDbBlockEnd
  0
BLOCK
  5
1C
330
1B
100
AcDbEntity
 67
     1
  8
0
100
AcDbBlockBegin
  2
*Paper_Space
 70
     0
 10
0.0
 20
0.0
 30
0.0
  3
*Paper_Space
  1

  0
ENDBLK
  5
1D
330
1B
100
AcDbEntity
 67
     1
  8
0
100
AcDbBlockEnd
  0
BLOCK
  5
24
330
23
100
AcDbEntity
  8
0
100
AcDbBlockBegin
  2
*Paper_Space0
 70
     0
 10
0.0
 20
0.0
 30
0.0
  3
*Paper_Space0
  1

  0
ENDBLK
  5
25
330
23
100
AcDbEntity
  8
0
100
AcDbBlockEnd
  0
BLOCK
  5
27E
330
27D
100
AcDbEntity
  8
0
100
AcDbBlockBegin
  2
_OPEN30
 70
     0
 10
0.0
 20
0.0
 30
0.0
  3
_OPEN30
  1

  0
LINE
  5
280
330
27D
100
AcDbEntity
  8
0
  6
ByBlock
 62
     0
370
    -2
100
AcDbLine
 10
-1.0
 20
0.267949
 30
0.0
 11
0.0
 21
0.0
 31
0.0
  0
LINE
  5
281
330
27D
100
AcDbEntity
  8
0
  6
ByBlock
 62
     0
370
    -2
100
AcDbLine
 10
0.0
 20
0.0
 30
0.0
 11
-1.0
 21
-0.267949
 31
0.0
  0
LINE
  5
282
330
27D
100
AcDbEntity
  8
0
  6
ByBlock
 62
     0
370
    -2
100
AcDbLine
 10
0.0
 20
0.0
 30
0.0
 11
-1.0
 21
0.0
 31
0.0
  0
ENDBLK
  5
27F
330
27D
100
AcDbEntity
  8
0
100
AcDbBlockEnd
  0
BLOCK
  5
285
330
284
100
AcDbEntity
  8
0
100
AcDbBlockBegin
  2
*D2
 70
     1
 10
0.0
 20
0.0
 30
0.0
  3
*D2
  1

  0
LINE
  5
287
330
284
100
AcDbEntity
  8
0
 62
     0
370
    -2
100
AcDbLine
 10
-54.00543310073127
 20
88.73940876760689
 30
0.0
 11
-54.00543310073127
 21
98.86608052053657
 31
0.0
  0
LINE
  5
288
330
284
100
AcDbEntity
  8
0
 62
     0
370
    -2
100
AcDbLine
 10
1.587900858848201
 20
88.73940876760689
 30
0.0
 11
1.587900858848201
 21
98.86608052053657
 31
0.0
  0
LINE
  5
289
330
284
100
AcDbEntity
  8
0
 62
     0
370
    -2
100
AcDbLine
 10
-51.00543310073127
 20
97.86608052053657
 30
0.0
 11
-1.412099141151799
 21
97.86608052053657
 31
0.0
  0
INSERT
  5
28A
330
284
100
AcDbEntity
  8
0
 62
     0
370
    -2
100
AcDbBlockReference
  2
_OPEN30
 10
-54.00543310073127
 20
97.86608052053657
 30
0.0
 41
3.0
 42
3.0
 43
3.0
 50
180.0
  0
INSERT
  5
28B
330
284
100
AcDbEntity
  8
0
 62
     0
370
    -2
100
AcDbBlockReference
  2
_OPEN30
 10
1.587900858848201
 20
97.86608052053657
 30
0.0
 41
3.0
 42
3.0
 43
3.0
  0
MTEXT
  5
28C
330
284
100
AcDbEntity
  8
0
 62
     1
100
AcDbMText
 10
-26.20776600173224
 20
100.2804805565139
 30
0.0
 40
3.200000047683716
 41
0.0
 71
     5
 72
     1
  1
167
 73
     1
 44
1.0
  0
POINT
  5
28D
330
284
100
AcDbEntity
  8
Defpoints
 62
     0
100
AcDbPoint
 10
-54.00543310073127
 20
86.19940876760688
 30
0.0
  0
POINT
  5
28E
330
284
100
AcDbEntity
  8
Defpoints
 62
     0
100
AcDbPoint
 10
1.587900858848201
 20
86.19940876760688
 30
0.0
  0
POINT
  5
28F
330
284
100
AcDbEntity
  8
Defpoints
 62
     0
100
AcDbPoint
 10
1.587900858848202
 20
97.86608052053657
 30
0.0
  0
ENDBLK
  5
286
330
284
100
AcDbEntity
  8
0
100
AcDbBlockEnd
  0
BLOCK
  5
292
330
291
100
AcDbEntity
  8
0
100
AcDbBlockBegin
  2
*D3
 70
     1
 10
0.0
 20
0.0
 30
0.0
  3
*D3
  1

  0
LINE
  5
294
330
291
100
AcDbEntity
  8
0
 62
     0
370
    -2
100
AcDbLine
 10
6.661226129659647
 20
70.19940876760688
 30
0.0
 11
22.58790109726678
 21
70.19940876760688
 31
0.0
  0
LINE
  5
295
330
291
100
AcDbEntity
  8
0
 62
     0
370
    -2
100
AcDbLine
 10
21.58790109726678
 20
38.29941105642526
 30
0.0
 11
21.58790109726678
 21
67.19940876760688
 31
0.0
  0
INSERT
  5
296
330
291
100
AcDbEntity
  8
0
 62
     0
370
    -2
100
AcDbBlockReference
  2
_OPEN30
 10
21.58790109726678
 20
35.29941105642526
 30
0.0
 41
3.0
 42
3.0
 43
3.0
 50
270.0
  0
INSERT
  5
297
330
291
100
AcDbEntity
  8
0
 62
     0
370
    -2
100
AcDbBlockReference
  2
_OPEN30
 10
21.58790109726678
 20
70.19940876760688
 30
0.0
 41
3.0
 42
3.0
 43
3.0
 50
89.99999999999999
  0
MTEXT
  5
298
330
291
100
AcDbEntity
  8
0
 62
     1
100
AcDbMText
 10
19.17350106128941
 20
52.75041181936469
 30
0.0
 40
3.200000047683716
 41
0.0
 71
     5
 72
     1
  1
105
 11
2.035939204467194E-16
 21
1.0
 31
0.0
 73
     1
 44
1.0
  0
POINT
  5
299
330
291
100
AcDbEntity
  8
Defpoints
 62
     0
100
AcDbPoint
 10
0.164942484824763
 20
35.29941105642526
 30
0.0
  0
POINT
  5
29A
330
291
100
AcDbEntity
  8
Defpoints
 62
     0
100
AcDbPoint
 10
4.121226129659647
 20
70.19940876760688
 30
0.0
  0
POINT
  5
29B
330
291
100
AcDbEntity
  8
Defpoints
 62
     0
100
AcDbPoint
 10
21.58790109726678
 20
70.19940876760688
 30
0.0
  0
ENDBLK
  5
293
330
291
100
AcDbEntity
  8
0
100
AcDbBlockEnd
  0
BLOCK
  5
29E
330
29D
100
AcDbEntity
  8
0
100
AcDbBlockBegin
  2
*D4
 70
     1
 10
0.0
 20
0.0
 30
0.0
  3
*D4
  1

  0
LINE
  5
2A0
330
29D
100
AcDbEntity
  8
0
 62
     0
370
    -2
100
AcDbLine
 10
21.58790109726678
 20
73.19940876760688
 30
0.0
 11
21.58790109726678
 21
84.86608052053657
 31
0.0
  0
INSERT
  5
2A1
330
29D
100
AcDbEntity
  8
0
 62
     0
370
    -2
100
AcDbBlockReference
  2
_OPEN30
 10
21.58790109726678
 20
70.19940876760688
 30
0.0
 41
3.0
 42
3.0
 43
3.0
 50
270.0
  0
INSERT
  5
2A2
330
29D
100
AcDbEntity
  8
0
 62
     0
370
    -2
100
AcDbBlockReference
  2
_OPEN30
 10
21.58790109726678
 20
87.86608052053657
 30
0.0
 41
3.0
 42
3.0
 43
3.0
 50
89.99999999999999
  0
MTEXT
  5
2A3
330
29D
100
AcDbEntity
  8
0
 62
     1
100
AcDbMText
 10
19.17350106128941
 20
79.03374464407173
 30
0.0
 40
3.200000047683716
 41
0.0
 71
     5
 72
     1
  1
53
 11
2.010969427906730E-16
 21
1.0
 31
0.0
 73
     1
 44
1.0
  0
POINT
  5
2A4
330
29D
100
AcDbEntity
  8
Defpoints
 62
     0
100
AcDbPoint
 10
0.748016339271175
 20
70.19940876760688
 30
0.0
  0
POINT
  5
2A5
330
29D
100
AcDbEntity
  8
Defpoints
 62
     0
100
AcDbPoint
 10
-0.078765887291325
 20
87.86608052053657
 30
0.0
  0
POINT
  5
2A6
330
29D
100
AcDbEntity
  8
Defpoints
 62
     0
100
AcDbPoint
 10
21.58790109726678
 20
87.86608052053657
 30
0.0
  0
ENDBLK
  5
29F
330
29D
100
AcDbEntity
  8
0
100
AcDbBlockEnd
  0
BLOCK
  5
2A9
330
2A8
100
AcDbEntity
  8
0
100
AcDbBlockBegin
  2
*D5
 70
     1
 10
0.0
 20
0.0
 30
0.0
  3
*D5
  1

  0
LINE
  5
2AB
330
2A8
100
AcDbEntity
  8
0
 62
     0
370
    -2
100
AcDbLine
 10
2.461234112708675
 20
87.86608052053657
 30
0.0
 11
32.58890109726677
 21
87.86608052053658
 31
0.0
  0
LINE
  5
2AC
330
2A8
100
AcDbEntity
  8
0
 62
     0
370
    -2
100
AcDbLine
 10
2.704942484824763
 20
35.29941105642526
 30
0.0
 11
32.58890109726679
 21
35.29941105642527
 31
0.0
  0
LINE
  5
2AD
330
2A8
100
AcDbEntity
  8
0
 62
     0
370
    -2
100
AcDbLine
 10
31.58890109726677
 20
84.86608052053658
 30
0.0
 11
31.58890109726679
 21
38.29941105642527
 31
0.0
  0
INSERT
  5
2AE
330
2A8
100
AcDbEntity
  8
0
 62
     0
370
    -2
100
AcDbBlockReference
  2
_OPEN30
 10
31.58890109726677
 20
87.86608052053658
 30
0.0
 41
3.0
 42
3.0
 43
3.0
 50
90.00000000000001
  0
INSERT
  5
2AF
330
2A8
100
AcDbEntity
  8
0
 62
     0
370
    -2
100
AcDbBlockReference
  2
_OPEN30
 10
31.58890109726679
 20
35.29941105642527
 30
0.0
 41
3.0
 42
3.0
 43
3.0
 50
270.0
  0
MTEXT
  5
2B0
330
2A8
100
AcDbEntity
  8
0
 62
     1
100
AcDbMText
 10
29.17450106128942
 20
61.58374388113227
 30
0.0
 40
3.200000047683716
 41
0.0
 71
     5
 72
     1
  1
158
 11
-4.055094661714531E-16
 21
1.0
 31
0.0
 73
     1
 44
1.0
  0
POINT
  5
2B1
330
2A8
100
AcDbEntity
  8
Defpoints
 62
     0
100
AcDbPoint
 10
-0.078765887291325
 20
87.86608052053657
 30
0.0
  0
POINT
  5
2B2
330
2A8
100
AcDbEntity
  8
Defpoints
 62
     0
100
AcDbPoint
 10
0.164942484824763
 20
35.29941105642526
 30
0.0
  0
POINT
  5
2B3
330
2A8
100
AcDbEntity
  8
Defpoints
 62
     0
100
AcDbPoint
 10
31.58790109726678
 20
35.29941105642527
 30
0.0
  0
ENDBLK
  5
2AA
330
2A8
100
AcDbEntity
  8
0
100
AcDbBlockEnd
  0
BLOCK
  5
2B6
330
2B5
100
AcDbEntity
  8
0
100
AcDbBlockBegin
  2
*D6
 70
     1
 10
0.0
 20
0.0
 30
0.0
  3
*D6
  1

  0
MTEXT
  5
2BF
330
2B5
100
AcDbEntity
  8
0
 62
     1
100
AcDbMText
 10
9.174501061289414
 20
78.08580879571643
 30
0.0
 40
3.200000047683716
 41
0.0
 71
     5
 72
     1
  1
5
 11
0.0
 21
1.0
 31
0.0
 73
     1
 44
1.0
  0
POINT
  5
2C0
330
2B5
100
AcDbEntity
  8
Defpoints
 62
     0
100
AcDbPoint
 10
-6.508331478792513
 20
68.53274205126968
 30
0.0
  0
POINT
  5
2C1
330
2B5
100
AcDbEntity
  8
Defpoints
 62
     0
100
AcDbPoint
 10
0.748016339271175
 20
70.19940876760688
 30
0.0
  0
POINT
  5
2C2
330
2B5
100
AcDbEntity
  8
Defpoints
 62
     0
100
AcDbPoint
 10
11.58790109726678
 20
70.19940876760688
 30
0.0
  0
LINE
  5
2C3
330
2B5
100
AcDbEntity
  8
0
  6
Continuous
 62
     7
100
AcDbLine
 10
-3.968331478792513
 20
68.53274205126968
 30
0.0
 11
13.87390109726678
 21
68.53274205126968
 31
0.0
  0
LINE
  5
2C4
330
2B5
100
AcDbEntity
  8
0
  6
Continuous
 62
     7
100
AcDbLine
 10
11.58790109726678
 20
62.18274205126968
 30
0.0
 11
11.58790109726678
 21
76.54940876760688
 31
0.0
  0
LINE
  5
2C5
330
2B5
100
AcDbEntity
  8
0
  6
Continuous
 62
     7
100
AcDbLine
 10
11.58790109726678
 20
68.53274205126968
 30
0.0
 11
12.40635878156678
 21
65.47821638926405
 31
0.0
  0
LINE
  5
2C6
330
2B5
100
AcDbEntity
  8
0
  6
Continuous
 62
     7
100
AcDbLine
 10
11.58790109726678
 20
68.53274205126968
 30
0.0
 11
10.76944341296678
 21
65.47821638926405
 31
0.0
  0
LINE
  5
2C7
330
2B5
100
AcDbEntity
  8
0
  6
Continuous
 62
     7
100
AcDbLine
 10
11.58790109726678
 20
70.19940876760688
 30
0.0
 11
10.76944341296678
 21
73.25393442961251
 31
0.0
  0
LINE
  5
2C8
330
2B5
100
AcDbEntity
  8
0
  6
Continuous
 62
     7
100
AcDbLine
 10
11.58790109726678
 20
70.19940876760688
 30
0.0
 11
12.40635878156678
 21
73.25393442961251
 31
0.0
  0
LINE
  5
2C9
330
2B5
100
AcDbEntity
  8
0
  6
Continuous
 62
     7
100
AcDbLine
 10
11.58790109726678
 20
70.19940876760688
 30
0.0
 11
11.58790109726678
 21
76.1073238524071
 31
0.0
  0
ENDBLK
  5
2B7
330
2B5
100
AcDbEntity
  8
0
100
AcDbBlockEnd
  0
BLOCK
  5
2CC
330
2CB
100
AcDbEntity
  8
0
100
AcDbBlockBegin
  2
*D7
 70
     1
 10
0.0
 20
0.0
 30
0.0
  3
*D7
  1

  0
LINE
  5
2CE
330
2CB
100
AcDbEntity
  8
0
 62
     0
370
    -2
100
AcDbLine
 10
-55.15921415117501
 20
1.072744524862441
 30
0.0
 11
-55.15921415117501
 21
9.532744956996119
 31
0.0
  0
LINE
  5
2CF
330
2CB
100
AcDbEntity
  8
0
 62
     0
370
    -2
100
AcDbLine
 10
2.735005366532818
 20
1.072744524862441
 30
0.0
 11
2.735005366532818
 21
9.532744956996112
 31
0.0
  0
LINE
  5
2D0
330
2CB
100
AcDbEntity
  8
0
 62
     0
370
    -2
100
AcDbLine
 10
-52.15921415117501
 20
8.532744956996115
 30
0.0
 11
-0.264994633467182
 21
8.532744956996108
 31
0.0
  0
INSERT
  5
2D1
330
2CB
100
AcDbEntity
  8
0
 62
     0
370
    -2
100
AcDbBlockReference
  2
_OPEN30
 10
-55.15921415117501
 20
8.532744956996115
 30
0.0
 41
3.0
 42
3.0
 43
3.0
 50
180.0
  0
INSERT
  5
2D2
330
2CB
100
AcDbEntity
  8
0
 62
     0
370
    -2
100
AcDbBlockReference
  2
_OPEN30
 10
2.735005366532818
 20
8.532744956996108
 30
0.0
 41
3.0
 42
3.0
 43
3.0
 50
360.0
  0
MTEXT
  5
2D3
330
2CB
100
AcDbEntity
  8
0
 62
     1
100
AcDbMText
 10
-26.21110302141426
 20
10.93754499283042
 30
0.0
 40
3.200000047683716
 41
0.0
 71
     5
 72
     1
  1
174
 73
     1
 44
1.0
  0
POINT
  5
2D4
330
2CB
100
AcDbEntity
  8
Defpoints
 62
     0
100
AcDbPoint
 10
-55.15921415117501
 20
-1.467255475137559
 30
0.0
  0
POINT
  5
2D5
330
2CB
100
AcDbEntity
  8
Defpoints
 62
     0
100
AcDbPoint
 10
2.735005366532818
 20
-1.467255475137559
 30
0.0
  0
POINT
  5
2D6
330
2CB
100
AcDbEntity
  8
Defpoints
 62
     0
100
AcDbPoint
 10
2.735005366532818
 20
8.532744956996112
 30
0.0
  0
ENDBLK
  5
2CD
330
2CB
100
AcDbEntity
  8
0
100
AcDbBlockEnd
  0
BLOCK
  5
2D9
330
2D8
100
AcDbEntity
  8
0
100
AcDbBlockBegin
  2
*D8
 70
     1
 10
0.0
 20
0.0
 30
0.0
  3
*D8
  1

  0
LINE
  5
2DB
330
2D8
100
AcDbEntity
  8
0
 62
     0
370
    -2
100
AcDbLine
 10
-47.28543393877266
 20
-56.13392107388766
 30
0.0
 11
-66.15721415117501
 21
-56.13392107388768
 31
0.0
  0
LINE
  5
2DC
330
2D8
100
AcDbEntity
  8
0
 62
     0
370
    -2
100
AcDbLine
 10
-65.15721415117503
 20
-4.46725547513757
 30
0.0
 11
-65.15721415117501
 21
-53.13392107388768
 31
0.0
  0
INSERT
  5
2DD
330
2D8
100
AcDbEntity
  8
0
 62
     0
370
    -2
100
AcDbBlockReference
  2
_OPEN30
 10
-65.15721415117503
 20
-1.46725547513757
 30
0.0
 41
3.0
 42
3.0
 43
3.0
 50
90.00000000000001
  0
INSERT
  5
2DE
330
2D8
100
AcDbEntity
  8
0
 62
     0
370
    -2
100
AcDbBlockReference
  2
_OPEN30
 10
-65.15721415117501
 20
-56.13392107388768
 30
0.0
 41
3.0
 42
3.0
 43
3.0
 50
270.0
  0
MTEXT
  5
2DF
330
2D8
100
AcDbEntity
  8
0
 62
     1
100
AcDbMText
 10
-67.57161418715239
 20
-28.7995890121201
 30
0.0
 40
3.200000047683716
 41
0.0
 71
     5
 72
     1
  1
164
 11
-2.599546645026566E-16
 21
1.0
 31
0.0
 73
     1
 44
1.0
  0
POINT
  5
2E0
330
2D8
100
AcDbEntity
  8
Defpoints
 62
     0
100
AcDbPoint
 10
-55.15921415117501
 20
-1.467255475137563
 30
0.0
  0
POINT
  5
2E1
330
2D8
100
AcDbEntity
  8
Defpoints
 62
     0
100
AcDbPoint
 10
-44.74543393877266
 20
-56.13392107388766
 30
0.0
  0
POINT
  5
2E2
330
2D8
100
AcDbEntity
  8
Defpoints
 62
     0
100
AcDbPoint
 10
-65.15921415117504
 20
-56.13392107388768
 30
0.0
  0
ENDBLK
  5
2DA
330
2D8
100
AcDbEntity
  8
0
100
AcDbBlockEnd
  0
BLOCK
  5
2E5
330
2E4
100
AcDbEntity
  8
0
100
AcDbBlockBegin
  2
*D9
 70
     1
 10
0.0
 20
0.0
 30
0.0
  3
*D9
  1

  0
MTEXT
  5
2ED
330
2E4
100
AcDbEntity
  8
0
 62
     1
100
AcDbMText
 10
52.46816668280842
 20
-48.18284980377945
 30
0.0
 40
3.200000047683716
 41
0.0
 71
     5
 72
     1
  1
5
 73
     1
 44
1.0
  0
POINT
  5
2EE
330
2E4
100
AcDbEntity
  8
Defpoints
 62
     0
100
AcDbPoint
 10
60.35456671091796
 20
-49.07654270544056
 30
0.0
  0
POINT
  5
2EF
330
2E4
100
AcDbEntity
  8
Defpoints
 62
     0
100
AcDbPoint
 10
62.02123342725517
 20
-51.77879564664158
 30
0.0
  0
POINT
  5
2F0
330
2E4
100
AcDbEntity
  8
Defpoints
 62
     0
100
AcDbPoint
 10
62.02123342725517
 20
-50.59824983975682
 30
0.0
  0
LINE
  5
2F1
330
2E4
100
AcDbEntity
  8
0
  6
Continuous
 62
     7
100
AcDbLine
 10
54.00456671091796
 20
-50.59824983975682
 30
0.0
 11
68.37123342725516
 21
-50.59824983975682
 31
0.0
  0
LINE
  5
2F2
330
2E4
100
AcDbEntity
  8
0
  6
Continuous
 62
     7
100
AcDbLine
 10
60.35456671091796
 20
-50.59824983975682
 30
0.0
 11
57.30004104891234
 21
-51.41670752405682
 31
0.0
  0
LINE
  5
2F3
330
2E4
100
AcDbEntity
  8
0
  6
Continuous
 62
     7
100
AcDbLine
 10
60.35456671091796
 20
-50.59824983975682
 30
0.0
 11
57.30004104891234
 21
-49.77979215545682
 31
0.0
  0
LINE
  5
2F4
330
2E4
100
AcDbEntity
  8
0
  6
Continuous
 62
     7
100
AcDbLine
 10
62.02123342725517
 20
-50.59824983975682
 30
0.0
 11
65.0757590892608
 21
-49.77979215545682
 31
0.0
  0
LINE
  5
2F5
330
2E4
100
AcDbEntity
  8
0
  6
Continuous
 62
     7
100
AcDbLine
 10
62.02123342725517
 20
-50.59824983975682
 30
0.0
 11
65.0757590892608
 21
-51.41670752405682
 31
0.0
  0
LINE
  5
2F6
330
2E4
100
AcDbEntity
  8
0
  6
Continuous
 62
     7
100
AcDbLine
 10
60.35456671091796
 20
-50.59824983975682
 30
0.0
 11
54.54960336345889
 21
-50.59824983975682
 31
0.0
  0
ENDBLK
  5
2E6
330
2E4
100
AcDbEntity
  8
0
100
AcDbBlockEnd
  0
BLOCK
  5
2F9
330
2F8
100
AcDbEntity
  8
0
100
AcDbBlockBegin
  2
*D10
 70
     1
 10
0.0
 20
0.0
 30
0.0
  3
*D10
  1

  0
LINE
  5
2FB
330
2F8
100
AcDbEntity
  8
0
 62
     0
370
    -2
100
AcDbLine
 10
36.52123724195243
 20
-6.927260765049783
 30
0.0
 11
36.52123724195243
 21
9.532744956996117
 31
0.0
  0
LINE
  5
2FC
330
2F8
100
AcDbEntity
  8
0
 62
     0
370
    -2
100
AcDbLine
 10
76.68790136548759
 20
-15.26059473416599
 30
0.0
 11
76.68790136548759
 21
9.532744956996112
 31
0.0
  0
LINE
  5
2FD
330
2F8
100
AcDbEntity
  8
0
 62
     0
370
    -2
100
AcDbLine
 10
39.52123724195243
 20
8.532744956996114
 30
0.0
 11
73.68790136548759
 21
8.532744956996108
 31
0.0
  0
INSERT
  5
2FE
330
2F8
100
AcDbEntity
  8
0
 62
     0
370
    -2
100
AcDbBlockReference
  2
_OPEN30
 10
36.52123724195243
 20
8.532744956996114
 30
0.0
 41
3.0
 42
3.0
 43
3.0
 50
180.0
  0
INSERT
  5
2FF
330
2F8
100
AcDbEntity
  8
0
 62
     0
370
    -2
100
AcDbBlockReference
  2
_OPEN30
 10
76.68790136548759
 20
8.532744956996108
 30
0.0
 41
3.0
 42
3.0
 43
3.0
 50
360.0
  0
MTEXT
  5
300
330
2F8
100
AcDbEntity
  8
0
 62
     1
100
AcDbMText
 10
51.53472656080009
 20
10.95354499306884
 30
0.0
 40
3.200000047683716
 41
0.0
 71
     5
 72
     1
  1
120.5
 73
     1
 44
1.0
  0
POINT
  5
301
330
2F8
100
AcDbEntity
  8
Defpoints
 62
     0
100
AcDbPoint
 10
36.52123724195243
 20
-9.467260765049783
 30
0.0
  0
POINT
  5
302
330
2F8
100
AcDbEntity
  8
Defpoints
 62
     0
100
AcDbPoint
 10
76.68790136548759
 20
-17.80059473416599
 30
0.0
  0
POINT
  5
303
330
2F8
100
AcDbEntity
  8
Defpoints
 62
     0
100
AcDbPoint
 10
76.68790136548759
 20
8.532744956996112
 30
0.0
  0
ENDBLK
  5
2FA
330
2F8
100
AcDbEntity
  8
0
100
AcDbBlockEnd
  0
BLOCK
  5
306
330
305
100
AcDbEntity
  8
0
100
AcDbBlockBegin
  2
*D11
 70
     1
 10
0.0
 20
0.0
 30
0.0
  3
*D11
  1

  0
LINE
  5
308
330
305
100
AcDbEntity
  8
0
 62
     0
370
    -2
100
AcDbLine
 10
27.12123190137626
 20
1.072744524862441
 30
0.0
 11
27.12123190137626
 21
19.53274495699612
 31
0.0
  0
LINE
  5
309
330
305
100
AcDbEntity
  8
0
 62
     0
370
    -2
100
AcDbLine
 10
62.02123342725517
 20
-29.26059664151463
 30
0.0
 11
62.02123342725517
 21
19.53274495699612
 31
0.0
  0
LINE
  5
30A
330
305
100
AcDbEntity
  8
0
 62
     0
370
    -2
100
AcDbLine
 10
30.12123190137626
 20
18.53274495699612
 30
0.0
 11
59.02123342725517
 21
18.53274495699611
 31
0.0
  0
INSERT
  5
30B
330
305
100
AcDbEntity
  8
0
 62
     0
370
    -2
100
AcDbBlockReference
  2
_OPEN30
 10
27.12123190137626
 20
18.53274495699612
 30
0.0
 41
3.0
 42
3.0
 43
3.0
 50
180.0
  0
INSERT
  5
30C
330
305
100
AcDbEntity
  8
0
 62
     0
370
    -2
100
AcDbBlockReference
  2
_OPEN30
 10
62.02123342725517
 20
18.53274495699611
 30
0.0
 41
3.0
 42
3.0
 43
3.0
 50
360.0
  0
MTEXT
  5
30D
330
305
100
AcDbEntity
  8
0
 62
     1
100
AcDbMText
 10
44.57223266431571
 20
20.94714499297347
 30
0.0
 40
3.200000047683716
 41
0.0
 71
     5
 72
     1
  1
105
 73
     1
 44
1.0
  0
POINT
  5
30E
330
305
100
AcDbEntity
  8
Defpoints
 62
     0
100
AcDbPoint
 10
27.12123190137626
 20
-1.467255475137559
 30
0.0
  0
POINT
  5
30F
330
305
100
AcDbEntity
  8
Defpoints
 62
     0
100
AcDbPoint
 10
62.02123342725517
 20
-31.80059664151463
 30
0.0
  0
POINT
  5
310
330
305
100
AcDbEntity
  8
Defpoints
 62
     0
100
AcDbPoint
 10
62.02123342725518
 20
18.53274495699611
 30
0.0
  0
ENDBLK
  5
307
330
305
100
AcDbEntity
  8
0
100
AcDbBlockEnd
  0
BLOCK
  5
313
330
312
100
AcDbEntity
  8
0
100
AcDbBlockBegin
  2
*D12
 70
     1
 10
0.0
 20
0.0
 30
0.0
  3
*D12
  1

  0
LINE
  5
315
330
312
100
AcDbEntity
  8
0
 62
     0
370
    -2
100
AcDbLine
 10
79.68790136548759
 20
-10.59392202756199
 30
0.0
 11
79.68790136548759
 21
19.53274495699612
 31
0.0
  0
LINE
  5
316
330
312
100
AcDbEntity
  8
0
 62
     0
370
    -2
100
AcDbLine
 10
65.02123342725517
 20
18.53274495699612
 30
0.0
 11
76.68790136548759
 21
18.53274495699611
 31
0.0
  0
INSERT
  5
317
330
312
100
AcDbEntity
  8
0
 62
     0
370
    -2
100
AcDbBlockReference
  2
_OPEN30
 10
62.02123342725518
 20
18.53274495699612
 30
0.0
 41
3.0
 42
3.0
 43
3.0
 50
180.0
  0
INSERT
  5
318
330
312
100
AcDbEntity
  8
0
 62
     0
370
    -2
100
AcDbBlockReference
  2
_OPEN30
 10
79.68790136548759
 20
18.53274495699611
 30
0.0
 41
3.0
 42
3.0
 43
3.0
 50
360.0
  0
MTEXT
  5
319
330
312
100
AcDbEntity
  8
0
 62
     1
100
AcDbMText
 10
70.85556548902275
 20
20.94714499297347
 30
0.0
 40
3.200000047683716
 41
0.0
 71
     5
 72
     1
  1
53
 73
     1
 44
1.0
  0
POINT
  5
31A
330
312
100
AcDbEntity
  8
Defpoints
 62
     0
100
AcDbPoint
 10
62.02123342725517
 20
-31.80059664151463
 30
0.0
  0
POINT
  5
31B
330
312
100
AcDbEntity
  8
Defpoints
 62
     0
100
AcDbPoint
 10
79.68790136548759
 20
-13.13392202756199
 30
0.0
  0
POINT
  5
31C
330
312
100
AcDbEntity
  8
Defpoints
 62
     0
100
AcDbPoint
 10
79.68790136548759
 20
18.53274495699611
 30
0.0
  0
ENDBLK
  5
314
330
312
100
AcDbEntity
  8
0
100
AcDbBlockEnd
  0
BLOCK
  5
31F
330
31E
100
AcDbEntity
  8
0
100
AcDbBlockBegin
  2
*D13
 70
     1
 10
0.0
 20
0.0
 30
0.0
  3
*D13
  1

  0
LINE
  5
321
330
31E
100
AcDbEntity
  8
0
 62
     0
370
    -2
100
AcDbLine
 10
26.58187086316826
 20
-9.467260765049788
 30
0.0
 11
16.12323190137626
 21
-9.467260765049792
 31
0.0
  0
LINE
  5
322
330
31E
100
AcDbEntity
  8
0
 62
     0
370
    -2
100
AcDbLine
 10
41.69178945752861
 20
-34.80059664151463
 30
0.0
 11
16.12323190137627
 21
-34.80059664151464
 31
0.0
  0
LINE
  5
323
330
31E
100
AcDbEntity
  8
0
 62
     0
370
    -2
100
AcDbLine
 10
17.12323190137626
 20
-12.46726076504979
 30
0.0
 11
17.12323190137627
 21
-31.80059664151464
 31
0.0
  0
INSERT
  5
324
330
31E
100
AcDbEntity
  8
0
 62
     0
370
    -2
100
AcDbBlockReference
  2
_OPEN30
 10
17.12323190137626
 20
-9.467260765049792
 30
0.0
 41
3.0
 42
3.0
 43
3.0
 50
90.00000000000001
  0
INSERT
  5
325
330
31E
100
AcDbEntity
  8
0
 62
     0
370
    -2
100
AcDbBlockReference
  2
_OPEN30
 10
17.12323190137627
 20
-34.80059664151464
 30
0.0
 41
3.0
 42
3.0
 43
3.0
 50
270.0
  0
MTEXT
  5
326
330
31E
100
AcDbEntity
  8
0
 62
     1
100
AcDbMText
 10
14.7088318653989
 20
-22.13292870328221
 30
0.0
 40
3.200000047683716
 41
0.0
 71
     5
 72
     1
  1
76
 11
-4.207160513078390E-16
 21
1.0
 31
0.0
 73
     1
 44
1.0
  0
POINT
  5
327
330
31E
100
AcDbEntity
  8
Defpoints
 62
     0
100
AcDbPoint
 10
29.12187086316825
 20
-9.467260765049787
 30
0.0
  0
POINT
  5
328
330
31E
100
AcDbEntity
  8
Defpoints
 62
     0
100
AcDbPoint
 10
44.23178945752861
 20
-34.80059664151463
 30
0.0
  0
POINT
  5
329
330
31E
100
AcDbEntity
  8
Defpoints
 62
     0
100
AcDbPoint
 10
17.12123190137626
 20
-34.80059664151464
 30
0.0
  0
ENDBLK
  5
320
330
31E
100
AcDbEntity
  8
0
100
AcDbBlockEnd
  0
BLOCK
  5
32C
330
32B
100
AcDbEntity
  8
0
100
AcDbBlockBegin
  2
*D14
 70
     1
 10
0.0
 20
0.0
 30
0.0
  3
*D14
  1

  0
LINE
  5
32E
330
32B
100
AcDbEntity
  8
0
 62
     0
370
    -2
100
AcDbLine
 10
81.89455785962822
 20
-17.800594734166
 30
0.0
 11
90.6889013654876
 21
-17.80059473416599
 31
0.0
  0
LINE
  5
32F
330
32B
100
AcDbEntity
  8
0
 62
     0
370
    -2
100
AcDbLine
 10
75.77179327222588
 20
-34.80059664151463
 30
0.0
 11
90.6889013654876
 21
-34.80059664151463
 31
0.0
  0
LINE
  5
330
330
32B
100
AcDbEntity
  8
0
 62
     0
370
    -2
100
AcDbLine
 10
89.6889013654876
 20
-20.80059473416599
 30
0.0
 11
89.6889013654876
 21
-31.80059664151463
 31
0.0
  0
INSERT
  5
331
330
32B
100
AcDbEntity
  8
0
 62
     0
370
    -2
100
AcDbBlockReference
  2
_OPEN30
 10
89.6889013654876
 20
-17.80059473416599
 30
0.0
 41
3.0
 42
3.0
 43
3.0
 50
90.0
  0
INSERT
  5
332
330
32B
100
AcDbEntity
  8
0
 62
     0
370
    -2
100
AcDbBlockReference
  2
_OPEN30
 10
89.6889013654876
 20
-34.80059664151463
 30
0.0
 41
3.0
 42
3.0
 43
3.0
 50
270.0
  0
MTEXT
  5
333
330
32B
100
AcDbEntity
  8
0
 62
     1
100
AcDbMText
 10
87.27450132951023
 20
-26.29959664151462
 30
0.0
 40
3.200000047683716
 41
0.0
 71
     5
 72
     1
  1
51
 11
0.0
 21
1.0
 31
0.0
 73
     1
 44
1.0
  0
POINT
  5
334
330
32B
100
AcDbEntity
  8
Defpoints
 62
     0
100
AcDbPoint
 10
79.35455785962822
 20
-17.800594734166
 30
0.0
  0
POINT
  5
335
330
32B
100
AcDbEntity
  8
Defpoints
 62
     0
100
AcDbPoint
 10
73.23179327222587
 20
-34.80059664151463
 30
0.0
  0
POINT
  5
336
330
32B
100
AcDbEntity
  8
Defpoints
 62
     0
100
AcDbPoint
 10
89.68790136548759
 20
-34.80059664151462
 30
0.0
  0
ENDBLK
  5
32D
330
32B
100
AcDbEntity
  8
0
100
AcDbBlockEnd
  0
BLOCK
  5
339
330
338
100
AcDbEntity
  8
0
100
AcDbBlockBegin
  2
*D15
 70
     1
 10
0.0
 20
0.0
 30
0.0
  3
*D15
  1

  0
LINE
  5
33B
330
338
100
AcDbEntity
  8
0
 62
     0
370
    -2
100
AcDbLine
 10
44.23178945752861
 20
-37.34059664151463
 30
0.0
 11
44.23178945752861
 21
-42.37275872037205
 31
0.0
  0
LINE
  5
33C
330
338
100
AcDbEntity
  8
0
 62
     0
370
    -2
100
AcDbLine
 10
73.23179327222587
 20
-37.34059664151463
 30
0.0
 11
73.23179327222587
 21
-42.37275872037205
 31
0.0
  0
LINE
  5
33D
330
338
100
AcDbEntity
  8
0
 62
     0
370
    -2
100
AcDbLine
 10
47.23178945752861
 20
-41.37275872037205
 30
0.0
 11
70.23179327222587
 21
-41.37275872037205
 31
0.0
  0
INSERT
  5
33E
330
338
100
AcDbEntity
  8
0
 62
     0
370
    -2
100
AcDbBlockReference
  2
_OPEN30
 10
44.23178945752861
 20
-41.37275872037205
 30
0.0
 41
3.0
 42
3.0
 43
3.0
 50
180.0
  0
INSERT
  5
33F
330
338
100
AcDbEntity
  8
0
 62
     0
370
    -2
100
AcDbBlockReference
  2
_OPEN30
 10
73.23179327222587
 20
-41.37275872037205
 30
0.0
 41
3.0
 42
3.0
 43
3.0
  0
MTEXT
  5
340
330
338
100
AcDbEntity
  8
0
 62
     1
100
AcDbMText
 10
58.7327894575286
 20
-38.95835868439469
 30
0.0
 40
3.200000047683716
 41
0.0
 71
     5
 72
     1
  1
87
 73
     1
 44
1.0
  0
POINT
  5
341
330
338
100
AcDbEntity
  8
Defpoints
 62
     0
100
AcDbPoint
 10
44.23178945752861
 20
-34.80059664151463
 30
0.0
  0
POINT
  5
342
330
338
100
AcDbEntity
  8
Defpoints
 62
     0
100
AcDbPoint
 10
73.23179327222587
 20
-34.80059664151463
 30
0.0
  0
POINT
  5
343
330
338
100
AcDbEntity
  8
Defpoints
 62
     0
100
AcDbPoint
 10
73.23179327222587
 20
-41.37375872037205
 30
0.0
  0
ENDBLK
  5
33A
330
338
100
AcDbEntity
  8
0
100
AcDbBlockEnd
  0
BLOCK
  5
346
330
345
100
AcDbEntity
  8
0
100
AcDbBlockBegin
  2
*D16
 70
     1
 10
0.0
 20
0.0
 30
0.0
  3
*D16
  1

  0
LINE
  5
348
330
345
100
AcDbEntity
  8
0
 62
     0
370
    -2
100
AcDbLine
 10
43.70411466458413
 20
-62.57124855717836
 30
0.0
 11
43.70411466458412
 21
-81.7522577997187
 31
0.0
  0
LINE
  5
349
330
345
100
AcDbEntity
  8
0
 62
     0
370
    -2
100
AcDbLine
 10
77.26126767388996
 20
-62.56453843626198
 30
0.0
 11
77.26126767388996
 21
-81.7522577997187
 31
0.0
  0
LINE
  5
34A
330
345
100
AcDbEntity
  8
0
 62
     0
370
    -2
100
AcDbLine
 10
46.70411466458412
 20
-79.4662577997187
 30
0.0
 11
74.26126767388996
 21
-79.4662577997187
 31
0.0
  0
INSERT
  5
34B
330
345
100
AcDbEntity
  8
0
 62
     0
370
    -2
100
AcDbBlockReference
  2
_OPEN30
 10
43.70411466458412
 20
-79.4662577997187
 30
0.0
 41
3.0
 42
3.0
 43
3.0
 50
180.0
  0
INSERT
  5
34C
330
345
100
AcDbEntity
  8
0
 62
     0
370
    -2
100
AcDbBlockReference
  2
_OPEN30
 10
77.26126767388996
 20
-79.4662577997187
 30
0.0
 41
3.0
 42
3.0
 43
3.0
  0
MTEXT
  5
34D
330
345
100
AcDbEntity
  8
0
 62
     1
100
AcDbMText
 10
60.48369116923705
 20
-77.05185776374134
 30
0.0
 40
3.200000047683716
 41
0.0
 71
     5
 72
     1
  1
101
 73
     1
 44
1.0
  0
POINT
  5
34E
330
345
100
AcDbEntity
  8
Defpoints
 62
     0
100
AcDbPoint
 10
43.70411466458413
 20
-60.03124855717836
 30
0.0
  0
POINT
  5
34F
330
345
100
AcDbEntity
  8
Defpoints
 62
     0
100
AcDbPoint
 10
77.26126767388996
 20
-60.02453843626198
 30
0.0
  0
POINT
  5
350
330
345
100
AcDbEntity
  8
Defpoints
 62
     0
100
AcDbPoint
 10
77.26126767388996
 20
-79.46725779971871
 30
0.0
  0
ENDBLK
  5
347
330
345
100
AcDbEntity
  8
0
100
AcDbBlockEnd
  0
BLOCK
  5
353
330
352
100
AcDbEntity
  8
0
100
AcDbBlockBegin
  2
*D17
 70
     1
 10
0.0
 20
0.0
 30
0.0
  3
*D17
  1

  0
LINE
  5
355
330
352
100
AcDbEntity
  8
0
 62
     0
370
    -2
100
AcDbLine
 10
-65.15721415117503
 20
-59.13392249943207
 30
0.0
 11
-65.15721415117503
 21
-66.4672575016955
 31
0.0
  0
INSERT
  5
356
330
352
100
AcDbEntity
  8
0
 62
     0
370
    -2
100
AcDbBlockReference
  2
_OPEN30
 10
-65.15721415117503
 20
-56.13392249943207
 30
0.0
 41
3.0
 42
3.0
 43
3.0
 50
90.0
  0
INSERT
  5
357
330
352
100
AcDbEntity
  8
0
 62
     0
370
    -2
100
AcDbBlockReference
  2
_OPEN30
 10
-65.15721415117503
 20
-69.4672575016955
 30
0.0
 41
3.0
 42
3.0
 43
3.0
 50
270.0
  0
MTEXT
  5
358
330
352
100
AcDbEntity
  8
0
 62
     1
100
AcDbMText
 10
-67.57161418715239
 20
-62.79959000056378
 30
0.0
 40
3.200000047683716
 41
0.0
 71
     5
 72
     1
  1
40
 11
0.0
 21
1.0
 31
0.0
 73
     1
 44
1.0
  0
POINT
  5
359
330
352
100
AcDbEntity
  8
Defpoints
 62
     0
100
AcDbPoint
 10
-44.87877024439098
 20
-56.13392249943206
 30
0.0
  0
POINT
  5
35A
330
352
100
AcDbEntity
  8
Defpoints
 62
     0
100
AcDbPoint
 10
-35.65163780794268
 20
-69.46725750169549
 30
0.0
  0
POINT
  5
35B
330
352
100
AcDbEntity
  8
Defpoints
 62
     0
100
AcDbPoint
 10
-65.15921415117504
 20
-69.4672575016955
 30
0.0
  0
ENDBLK
  5
354
330
352
100
AcDbEntity
  8
0
100
AcDbBlockEnd
  0
BLOCK
  5
35E
330
35D
100
AcDbEntity
  8
0
100
AcDbBlockBegin
  2
*D18
 70
     1
 10
0.0
 20
0.0
 30
0.0
  3
*D18
  1

  0
LINE
  5
360
330
35D
100
AcDbEntity
  8
0
 62
     0
370
    -2
100
AcDbLine
 10
-38.19163780794268
 20
-69.46725750169549
 30
0.0
 11
-77.44421444919827
 21
-69.46725750169547
 31
0.0
  0
LINE
  5
361
330
35D
100
AcDbEntity
  8
0
 62
     0
370
    -2
100
AcDbLine
 10
-57.69922200747803
 20
-1.467255475137562
 30
0.0
 11
-77.44421444919826
 21
-1.467255475137555
 31
0.0
  0
LINE
  5
362
330
35D
100
AcDbEntity
  8
0
 62
     0
370
    -2
100
AcDbLine
 10
-75.15821444919827
 20
-66.46725750169547
 30
0.0
 11
-75.15821444919825
 21
-4.467255475137556
 31
0.0
  0
INSERT
  5
363
330
35D
100
AcDbEntity
  8
0
 62
     0
370
    -2
100
AcDbBlockReference
  2
_OPEN30
 10
-75.15821444919827
 20
-69.46725750169547
 30
0.0
 41
3.0
 42
3.0
 43
3.0
 50
270.0
  0
INSERT
  5
364
330
35D
100
AcDbEntity
  8
0
 62
     0
370
    -2
100
AcDbBlockReference
  2
_OPEN30
 10
-75.15821444919825
 20
-1.467255475137556
 30
0.0
 41
3.0
 42
3.0
 43
3.0
 50
89.99999999999999
  0
MTEXT
  5
365
330
35D
100
AcDbEntity
  8
0
 62
     1
100
AcDbMText
 10
-77.57261448517562
 20
-35.46625648841653
 30
0.0
 40
3.200000047683716
 41
0.0
 71
     5
 72
     1
  1
204
 11
2.089831513483168E-16
 21
1.0
 31
0.0
 73
     1
 44
1.0
  0
POINT
  5
366
330
35D
100
AcDbEntity
  8
Defpoints
 62
     0
100
AcDbPoint
 10
-35.65163780794268
 20
-69.46725750169549
 30
0.0
  0
POINT
  5
367
330
35D
100
AcDbEntity
  8
Defpoints
 62
     0
100
AcDbPoint
 10
-55.15922200747804
 20
-1.467255475137563
 30
0.0
  0
POINT
  5
368
330
35D
100
AcDbEntity
  8
Defpoints
 62
     0
100
AcDbPoint
 10
-75.15921444919826
 20
-1.467255475137559
 30
0.0
  0
ENDBLK
  5
35F
330
35D
100
AcDbEntity
  8
0
100
AcDbBlockEnd
  0
BLOCK
  5
36B
330
36A
100
AcDbEntity
  8
0
100
AcDbBlockBegin
  2
*D19
 70
     1
 10
0.0
 20
0.0
 30
0.0
  3
*D19
  1

  0
LINE
  5
36D
330
36A
100
AcDbEntity
  8
0
 62
     0
370
    -2
100
AcDbLine
 10
-36.09543747190222
 20
-72.00725750169549
 30
0.0
 11
-36.09543747190223
 21
-81.7522577997187
 31
0.0
  0
LINE
  5
36E
330
36A
100
AcDbEntity
  8
0
 62
     0
370
    -2
100
AcDbLine
 10
-16.32876824521601
 20
-72.00725750169549
 30
0.0
 11
-16.32876824521601
 21
-81.7522577997187
 31
0.0
  0
LINE
  5
36F
330
36A
100
AcDbEntity
  8
0
 62
     0
370
    -2
100
AcDbLine
 10
-33.09543747190223
 20
-79.4662577997187
 30
0.0
 11
-19.32876824521601
 21
-79.4662577997187
 31
0.0
  0
INSERT
  5
370
330
36A
100
AcDbEntity
  8
0
 62
     0
370
    -2
100
AcDbBlockReference
  2
_OPEN30
 10
-36.09543747190223
 20
-79.4662577997187
 30
0.0
 41
3.0
 42
3.0
 43
3.0
 50
180.0
  0
INSERT
  5
371
330
36A
100
AcDbEntity
  8
0
 62
     0
370
    -2
100
AcDbBlockReference
  2
_OPEN30
 10
-16.32876824521601
 20
-79.4662577997187
 30
0.0
 41
3.0
 42
3.0
 43
3.0
  0
MTEXT
  5
372
330
36A
100
AcDbEntity
  8
0
 62
     1
100
AcDbMText
 10
-26.21110302141426
 20
-77.05185776374134
 30
0.0
 40
3.200000047683716
 41
0.0
 71
     5
 72
     1
  1
\U+220559
 73
     1
 44
1.0
  0
POINT
  5
373
330
36A
100
AcDbEntity
  8
Defpoints
 62
     0
100
AcDbPoint
 10
-36.09543747190222
 20
-69.46725750169549
 30
0.0
  0
POINT
  5
374
330
36A
100
AcDbEntity
  8
Defpoints
 62
     0
100
AcDbPoint
 10
-16.328768245216
 20
-69.46725750169549
 30
0.0
  0
POINT
  5
375
330
36A
100
AcDbEntity
  8
Defpoints
 62
     0
100
AcDbPoint
 10
-16.32876824521601
 20
-79.46725779971871
 30
0.0
  0
ENDBLK
  5
36C
330
36A
100
AcDbEntity
  8
0
100
AcDbBlockEnd
  0
BLOCK
  5
378
330
377
100
AcDbEntity
  8
0
100
AcDbBlockBegin
  2
*D20
 70
     1
 10
0.0
 20
0.0
 30
0.0
  3
*D20
  1

  0
LINE
  5
37A
330
377
100
AcDbEntity
  8
0
 62
     0
370
    -2
100
AcDbLine
 10
-38.72878188275912
 20
-69.42392154824124
 30
0.0
 11
-38.72878188275912
 21
-91.75225809774193
 31
0.0
  0
LINE
  5
37B
330
377
100
AcDbEntity
  8
0
 62
     0
370
    -2
100
AcDbLine
 10
-13.69542415225056
 20
-69.42392154824124
 30
0.0
 11
-13.69542415225057
 21
-91.75225809774193
 31
0.0
  0
LINE
  5
37C
330
377
100
AcDbEntity
  8
0
 62
     0
370
    -2
100
AcDbLine
 10
-35.72878188275912
 20
-89.46625809774193
 30
0.0
 11
-16.69542415225057
 21
-89.46625809774193
 31
0.0
  0
INSERT
  5
37D
330
377
100
AcDbEntity
  8
0
 62
     0
370
    -2
100
AcDbBlockReference
  2
_OPEN30
 10
-38.72878188275912
 20
-89.46625809774193
 30
0.0
 41
3.0
 42
3.0
 43
3.0
 50
180.0
  0
INSERT
  5
37E
330
377
100
AcDbEntity
  8
0
 62
     0
370
    -2
100
AcDbBlockReference
  2
_OPEN30
 10
-13.69542415225057
 20
-89.46625809774193
 30
0.0
 41
3.0
 42
3.0
 43
3.0
  0
MTEXT
  5
37F
330
377
100
AcDbEntity
  8
0
 62
     1
100
AcDbMText
 10
-26.21110302141426
 20
-87.05185806176456
 30
0.0
 40
3.200000047683716
 41
0.0
 71
     5
 72
     1
  1
\U+220575
 73
     1
 44
1.0
  0
POINT
  5
380
330
377
100
AcDbEntity
  8
Defpoints
 62
     0
100
AcDbPoint
 10
-38.72878188275912
 20
-66.88392154824123
 30
0.0
  0
POINT
  5
381
330
377
100
AcDbEntity
  8
Defpoints
 62
     0
100
AcDbPoint
 10
-13.69542415225056
 20
-66.88392154824123
 30
0.0
  0
POINT
  5
382
330
377
100
AcDbEntity
  8
Defpoints
 62
     0
100
AcDbPoint
 10
-13.69542415225056
 20
-89.46725809774193
 30
0.0
  0
ENDBLK
  5
379
330
377
100
AcDbEntity
  8
0
100
AcDbBlockEnd
  0
ENDSEC
  0
SECTION
  2
ENTITIES
  0
LINE
  5
44
330
1F
100
AcDbEntity
  8
0
  6
Continuous
 62
     7
100
AcDbLine
 10
-55.15922200747804
 20
-1.467255475137563
 30
0.0
 11
-26.21210302141426
 21
-1.467255475137563
 31
0.0
  0
LINE
  5
45
330
1F
100
AcDbEntity
  8
0
  6
Continuous
 62
     7
100
AcDbLine
 10
-54.91370808414553
 20
-3.133922191474767
 30
0.0
 11
-26.21210302141426
 21
-3.133922191474767
 31
0.0
  0
LINE
  5
46
330
1F
100
AcDbEntity
  8
0
  6
Continuous
 62
     7
100
AcDbLine
 10
-53.53046829682802
 20
-9.467255713556142
 30
0.0
 11
-26.21210302141426
 21
-9.467255713556142
 31
0.0
  0
LINE
  5
47
330
1F
100
AcDbEntity
  8
0
  6
Continuous
 62
     7
100
AcDbLine
 10
-54.79970629594519
 20
-2.975980036427309
 30
0.0
 11
-54.87877509762075
 21
-1.467257430720523
 31
0.0
  0
LINE
  5
48
330
1F
100
AcDbEntity
  8
0
  6
Continuous
 62
     7
100
AcDbLine
 10
-48.86084223726897
 20
-52.45937911878917
 30
0.0
 11
-52.04544385908047
 21
-9.467256903140049
 31
0.0
  0
LINE
  5
49
330
1F
100
AcDbEntity
  8
0
  6
Continuous
 62
     7
100
AcDbLine
 10
-43.93576687969875
 20
-60.03124876711138
 30
0.0
 11
-26.21210302141426
 21
-60.03124876711138
 31
0.0
  0
LINE
  5
4A
330
1F
100
AcDbEntity
  8
0
  6
Continuous
 62
     7
100
AcDbLine
 10
-44.87877024439098
 20
-56.13392249943206
 30
0.0
 11
-26.21210302141426
 21
-56.13392249943206
 31
0.0
  0
LINE
  5
4B
330
1F
100
AcDbEntity
  8
0
  6
Continuous
 62
     7
100
AcDbLine
 10
-54.82985594948508
 20
-4.733923256411117
 30
0.0
 11
-54.36623288879304
 21
-4.733923256411117
 31
0.0
  0
LINE
  5
4C
330
1F
100
AcDbEntity
  8
0
  6
Continuous
 62
     7
100
AcDbLine
 10
-44.19421008401554
 20
-60.46725596190879
 30
0.0
 11
-39.21210340884446
 21
-60.46725596190879
 31
0.0
  0
LINE
  5
4D
330
1F
100
AcDbEntity
  8
0
  6
Continuous
 62
     7
100
AcDbLine
 10
-46.86569930983188
 20
-55.27004023489745
 30
0.0
 11
-44.84326423954496
 21
-56.14935984210458
 31
0.0
  0
LINE
  5
4E
330
1F
100
AcDbEntity
  8
0
  6
Continuous
 62
     7
100
AcDbLine
 10
-44.5262738676204
 20
-60.1629739123914
 30
0.0
 11
-44.852843374207
 21
-56.4302673607221
 31
0.0
  0
LINE
  5
4F
330
1F
100
AcDbEntity
  8
0
  6
Continuous
 62
     7
100
AcDbLine
 10
-36.81643785079444
 20
-22.80058944425377
 30
0.0
 11
-35.06271465399817
 21
-22.80058944425377
 31
0.0
  0
LINE
  5
50
330
1F
100
AcDbEntity
  8
0
  6
Continuous
 62
     7
100
AcDbLine
 10
-38.54350155076487
 20
-54.46725571824299
 30
0.0
 11
-39.80188027618175
 21
-25.83913838062102
 31
0.0
  0
LINE
  5
51
330
1F
100
AcDbEntity
  8
0
  6
Continuous
 62
     7
100
AcDbLine
 10
-38.47816027152399
 20
-20.88924891477173
 30
0.0
 11
-36.99062738507047
 21
-22.8497232582927
 31
0.0
  0
LINE
  5
52
330
1F
100
AcDbEntity
  8
0
  6
Continuous
 62
     7
100
AcDbLine
 10
-41.78143746149635
 20
-24.20392440528611
 30
0.0
 11
-39.75823654607779
 21
-25.65902831621939
 31
0.0
  0
LINE
  5
53
330
1F
100
AcDbEntity
  8
0
  6
Continuous
 62
     7
100
AcDbLine
 10
-35.97830072988778
 20
-20.76487254447614
 30
0.0
 11
-34.89648249030004
 21
-22.7561806186388
 31
0.0
  0
LINE
  5
54
330
1F
100
AcDbEntity
  8
0
  6
Continuous
 62
     7
100
AcDbLine
 10
29.12186901544325
 20
-9.467255713556142
 30
0.0
 11
40.46769836358507
 21
-9.467255713556142
 31
0.0
  0
LINE
  5
55
330
1F
100
AcDbEntity
  8
0
  6
Continuous
 62
     7
100
AcDbLine
 10
27.12123190137626
 20
-1.467255475137563
 30
0.0
 11
42.50949479080904
 21
-1.467255475137563
 31
0.0
  0
LINE
  5
56
330
1F
100
AcDbEntity
  8
0
  6
Continuous
 62
     7
100
AcDbLine
 10
43.10780907926684
 20
-6.055496353715404
 30
0.0
 11
43.17605728255869
 21
-2.145559196724156
 31
0.0
  0
LINE
  5
57
330
1F
100
AcDbEntity
  8
0
  6
CENTER
 62
     7
100
AcDbLine
 10
62.02123192422471
 20
-71.13392421803252
 30
0.0
 11
62.02123192422457
 21
-31.80059664151464
 31
0.0
  0
LINE
  5
58
330
1F
100
AcDbEntity
  8
0
  6
Continuous
 62
     7
100
AcDbLine
 10
79.62630299623719
 20
-14.30931016291468
 30
0.0
 11
79.68790252106646
 21
-13.13392121504542
 31
0.0
  0
LINE
  5
59
330
1F
100
AcDbEntity
  8
0
  6
Continuous
 62
     7
100
AcDbLine
 10
27.20037122303093
 20
-2.977337088319343
 30
0.0
 11
27.12123134743775
 21
-1.467258311481563
 31
0.0
  0
LINE
  5
5A
330
1F
100
AcDbEntity
  8
0
  6
Continuous
 62
     7
100
AcDbLine
 10
41.05464804741868
 20
-4.733923256411117
 30
0.0
 11
41.07755911987883
 21
-4.733923256411117
 31
0.0
  0
LINE
  5
5B
330
1F
100
AcDbEntity
  8
0
  6
Continuous
 62
     7
100
AcDbLine
 10
41.12123231860878
 20
-3.900589898242515
 30
0.0
 11
43.14542518899302
 21
-3.900589898242515
 31
0.0
  0
LINE
  5
5C
330
1F
100
AcDbEntity
  8
0
  6
Continuous
 62
     7
100
AcDbLine
 10
41.0775592315193
 20
-4.733922366164217
 30
0.0
 11
41.12123242363502
 21
-3.900588221570386
 31
0.0
  0
LINE
  5
5D
330
1F
100
AcDbEntity
  8
0
  6
Continuous
 62
     7
100
AcDbLine
 10
39.78789597567344
 20
-3.242421166562597
 30
0.0
 11
40.63934835172768
 21
-4.512362616242299
 31
0.0
  0
LINE
  5
5E
330
1F
100
AcDbEntity
  8
0
  6
Continuous
 62
     7
100
AcDbLine
 10
27.82896025633458
 20
-3.422874836225827
 30
0.0
 11
28.62684285333617
 21
-9.037604191234605
 31
0.0
  0
LINE
  5
5F
330
1F
100
AcDbEntity
  8
0
  6
Continuous
 62
     7
100
AcDbLine
 10
39.78789942155544
 20
-3.242418353893433
 30
0.0
 11
27.50181790201097
 21
-3.13644793464849
 31
0.0
  0
LINE
  5
60
330
1F
100
AcDbEntity
  8
0
  6
Continuous
 62
     7
100
AcDbLine
 10
71.04450693272256
 20
-14.46725586256775
 30
0.0
 11
79.45986159432695
 21
-14.46725586256775
 31
0.0
  0
LINE
  5
61
330
1F
100
AcDbEntity
  8
0
  6
Continuous
 62
     7
100
AcDbLine
 10
41.69838750388755
 20
-9.02227121225877
 30
0.0
 11
42.90248859599618
 21
-6.828279111427289
 31
0.0
  0
LINE
  5
62
330
1F
100
AcDbEntity
  8
0
  6
Continuous
 62
     7
100
AcDbLine
 10
40.35456461184103
 20
-9.800589056823583
 30
0.0
 11
40.38340626716021
 21
-9.800589056823583
 31
0.0
  0
LINE
  5
63
330
1F
100
AcDbEntity
  8
0
  6
Continuous
 62
     7
100
AcDbLine
 10
37.02123117916662
 20
-14.96725587746892
 30
0.0
 11
39.51430630636318
 21
-14.96725587746892
 31
0.0
  0
LINE
  5
64
330
1F
100
AcDbEntity
  8
0
  6
Continuous
 62
     7
100
AcDbLine
 10
40.35456461184084
 20
-9.800589056823426
 30
0.0
 11
40.35456461184084
 21
-9.467255713555986
 31
0.0
  0
LINE
  5
65
330
1F
100
AcDbEntity
  8
0
  6
Continuous
 62
     7
100
AcDbLine
 10
36.52123116426529
 20
-14.46725586256761
 30
0.0
 11
36.52123116426527
 21
-9.467255713556
 31
0.0
  0
LINE
  5
66
330
1F
100
AcDbEntity
  8
0
  6
Continuous
 62
     7
100
AcDbLine
 10
74.66001098741307
 20
-21.96725608608517
 30
0.0
 11
76.18789901309091
 21
-21.96725608608517
 31
0.0
  0
LINE
  5
67
330
1F
100
AcDbEntity
  8
0
  6
Continuous
 62
     7
100
AcDbLine
 10
73.6878989385851
 20
-17.80058929524216
 30
0.0
 11
79.20491773907278
 21
-17.80058929524216
 31
0.0
  0
LINE
  5
68
330
1F
100
AcDbEntity
  8
0
  6
Continuous
 62
     7
100
AcDbLine
 10
76.68789902799192
 20
-21.46725607118373
 30
0.0
 11
76.68789902799192
 21
-17.80058929524188
 31
0.0
  0
LINE
  5
69
330
1F
100
AcDbEntity
  8
0
  6
Continuous
 62
     7
100
AcDbLine
 10
79.37153353449973
 20
-17.63828699271005
 30
0.0
 11
79.4545699344295
 21
-14.46725476355053
 31
0.0
  0
LINE
  5
6A
330
1F
100
AcDbEntity
  8
0
  6
Continuous
 62
     7
100
AcDbLine
 10
73.54270138380215
 20
-18.30058931014332
 30
0.0
 11
73.6878989385851
 21
-18.30058931014332
 31
0.0
  0
LINE
  5
6B
330
1F
100
AcDbEntity
  8
0
  6
Continuous
 62
     7
100
AcDbLine
 10
71.0524816601788
 20
-14.92416670284314
 30
0.0
 11
71.04491245311846
 21
-14.49052709759701
 31
0.0
  0
LINE
  5
6C
330
1F
100
AcDbEntity
  8
0
  6
Continuous
 62
     7
100
AcDbLine
 10
73.68789893858495
 20
-18.30058931014305
 30
0.0
 11
73.68789893858495
 21
-17.80058929524189
 31
0.0
  0
LINE
  5
6D
330
1F
100
AcDbEntity
  8
0
  6
Continuous
 62
     7
100
AcDbLine
 10
78.9885592009625
 20
-19.52963638672128
 30
0.0
 11
79.02958583753981
 21
-17.96289232085694
 31
0.0
  0
LINE
  5
6E
330
1F
100
AcDbEntity
  8
0
  6
Continuous
 62
     7
100
AcDbLine
 10
77.26954800005875
 20
-59.70832553238664
 30
0.0
 11
78.29001636312184
 21
-20.73821036786082
 31
0.0
  0
LINE
  5
6F
330
1F
100
AcDbEntity
  8
0
  6
Continuous
 62
     7
100
AcDbLine
 10
47.89846182966798
 20
-32.63392052751166
 30
0.0
 11
47.89846182966798
 21
-34.13392057221515
 31
0.0
  0
LINE
  5
70
330
1F
100
AcDbEntity
  8
0
  6
Continuous
 62
     7
100
AcDbLine
 10
78.4912570926807
 20
-20.27812233767379
 30
0.0
 11
78.78730802142337
 21
-19.98972228766171
 31
0.0
  0
LINE
  5
71
330
1F
100
AcDbEntity
  8
0
  6
Continuous
 62
     7
100
AcDbLine
 10
73.44476853513872
 20
-32.36633864966076
 30
0.0
 11
74.32794967783742
 21
-22.27153196633072
 31
0.0
  0
LINE
  5
72
330
1F
100
AcDbEntity
  8
0
  6
Continuous
 62
     7
100
AcDbLine
 10
48.56512851620286
 20
-34.80058725875006
 30
0.0
 11
70.78824573530673
 21
-34.80058725875006
 31
0.0
  0
LINE
  5
73
330
1F
100
AcDbEntity
  8
0
  6
Continuous
 62
     7
100
AcDbLine
 10
43.69374783864681
 20
-28.65069637596616
 30
0.0
 11
43.07697203863992
 21
-21.60091670222825
 31
0.0
  0
LINE
  5
74
330
1F
100
AcDbEntity
  8
0
  6
Continuous
 62
     7
100
AcDbLine
 10
40.42824495592123
 20
-20.6641211886509
 30
0.0
 11
42.831182528487
 21
-21.30798637607885
 31
0.0
  0
LINE
  5
75
330
1F
100
AcDbEntity
  8
0
  6
Continuous
 62
     7
100
AcDbLine
 10
40.30534669752848
 20
-20.51766365279268
 30
0.0
 11
39.84637023778873
 21
-15.27153869691532
 31
0.0
  0
LINE
  5
76
330
1F
100
AcDbEntity
  8
0
  6
Continuous
 62
     7
100
AcDbLine
 10
43.25839872344713
 20
-56.13392249943206
 30
0.0
 11
77.36314115423565
 21
-56.13392249943206
 31
0.0
  0
LINE
  5
77
330
1F
100
AcDbEntity
  8
0
  6
Continuous
 62
     7
100
AcDbLine
 10
-54.01210690167676
 20
-13.13392248949799
 30
0.0
 11
-51.77382558497078
 21
-13.13392248949799
 31
0.0
  0
LINE
  5
78
330
1F
100
AcDbEntity
  8
0
  6
Continuous
 62
     7
100
AcDbLine
 10
-53.95050871830819
 20
-14.30931239818412
 30
0.0
 11
-54.01210824313747
 21
-13.13392345031487
 31
0.0
  0
LINE
  5
79
330
1F
100
AcDbEntity
  8
0
  6
Continuous
 62
     7
100
AcDbLine
 10
-53.78406937860467
 20
-14.46725586256775
 30
0.0
 11
-53.34544021514188
 21
-14.46725586256775
 31
0.0
  0
LINE
  5
7A
330
1F
100
AcDbEntity
  8
0
  6
Continuous
 62
     7
100
AcDbLine
 10
-53.3454375667279
 20
-14.4672546287859
 30
0.0
 11
-53.0988083383529
 21
-17.99052921459856
 31
0.0
  0
LINE
  5
7B
330
1F
100
AcDbEntity
  8
0
  6
Continuous
 62
     7
100
AcDbLine
 10
-52.77047308481729
 20
-13.13391835208603
 30
0.0
 11
-52.52302909799666
 21
-16.66883234391721
 31
0.0
  0
LINE
  5
7C
330
1F
100
AcDbEntity
  8
0
  6
Continuous
 62
     7
100
AcDbLine
 10
-52.02425283852784
 20
-17.13392260870728
 30
0.0
 11
-51.47754058265122
 21
-17.13392260870728
 31
0.0
  0
LINE
  5
7D
330
1F
100
AcDbEntity
  8
0
  6
Continuous
 62
     7
100
AcDbLine
 10
-52.76628777275158
 20
-18.30058931014332
 30
0.0
 11
-51.59544016298781
 21
-18.30058931014332
 31
0.0
  0
LINE
  5
7E
330
1F
100
AcDbEntity
  8
0
  6
Continuous
 62
     7
100
AcDbLine
 10
43.67818481273575
 20
-59.73486899348389
 30
0.0
 11
43.39422612706126
 21
-56.4892063549255
 31
0.0
  0
LINE
  5
7F
330
1F
100
AcDbEntity
  8
0
  6
Continuous
 62
     7
100
AcDbLine
 10
44.00152439006543
 20
-60.03903650480026
 30
0.0
 11
60.35456684200148
 21
-60.46725598507573
 31
0.0
  0
LINE
  5
80
330
1F
100
AcDbEntity
  8
0
  6
Continuous
 62
     7
100
AcDbLine
 10
73.02123225205021
 20
-60.80058930517623
 30
0.0
 11
60.35456520788748
 21
-60.80058930517623
 31
0.0
  0
LINE
  5
81
330
1F
100
AcDbEntity
  8
0
  6
Continuous
 62
     7
100
AcDbLine
 10
39.05886915865682
 20
-52.24080845196151
 30
0.0
 11
33.84564123233864
 21
-15.1467661228143
 31
0.0
  0
LINE
  5
82
330
1F
100
AcDbEntity
  8
0
  6
Continuous
 62
     7
100
AcDbLine
 10
76.94504767069427
 20
-60.032818948333
 30
0.0
 11
60.35456320820523
 21
-60.46725606637547
 31
0.0
  0
LINE
  5
83
330
1F
100
AcDbEntity
  8
0
  6
Continuous
 62
     7
100
AcDbLine
 10
27.50181761514817
 20
-3.136447932174229
 30
0.0
 11
27.3653722367742
 21
-3.135271057844743
 31
0.0
  0
LINE
  5
84
330
1F
100
AcDbEntity
  8
0
  6
Continuous
 62
     7
100
AcDbLine
 10
45.70539028510728
 20
-56.13392298190302
 30
0.0
 11
41.4901587737312
 21
-54.99480098275703
 31
0.0
  0
LINE
  5
85
330
1F
100
AcDbEntity
  8
0
  6
Continuous
 62
     7
100
AcDbLine
 10
-46.20305495380672
 20
-52.24080719505471
 30
0.0
 11
-48.93469483622907
 21
-15.3636685068442
 31
0.0
  0
LINE
  5
86
330
1F
100
AcDbEntity
  8
0
  6
Continuous
 62
     7
100
AcDbLine
 10
-42.53652247867194
 20
-56.1339245821468
 30
0.0
 11
-44.64026049630828
 21
-54.82449579612265
 31
0.0
  0
LINE
  5
87
330
1F
100
AcDbEntity
  8
0
  6
Continuous
 62
     7
100
AcDbLine
 10
-38.25178131805018
 20
-20.80058938464913
 30
0.0
 11
-36.12842411772493
 21
-20.80058938464913
 31
0.0
  0
LINE
  5
88
330
1F
100
AcDbEntity
  8
0
  6
Continuous
 62
     7
100
AcDbLine
 10
-54.99629796156336
 20
-4.575980970086227
 30
0.0
 11
-55.15921934533998
 21
-1.467255790900761
 31
0.0
  0
LINE
  5
89
330
1F
100
AcDbEntity
  8
0
  6
Continuous
 62
     7
100
AcDbLine
 10
-53.50415197117394
 20
-9.800589056823583
 30
0.0
 11
-52.22874096311165
 21
-9.800589056823583
 31
0.0
  0
LINE
  5
8A
330
1F
100
AcDbEntity
  8
0
  6
Continuous
 62
     7
100
AcDbLine
 10
-54.02891201630266
 20
-9.006605652496166
 30
0.0
 11
-54.48042294402862
 21
-3.287467206138242
 31
0.0
  0
LINE
  5
8B
330
1F
100
AcDbEntity
  8
0
  6
Continuous
 62
     7
100
AcDbLine
 10
-53.51210688677558
 20
-9.467255713556114
 30
0.0
 11
-53.51210688677558
 21
-9.800589056823554
 31
0.0
  0
LINE
  5
8C
330
1F
100
AcDbEntity
  8
0
  6
Continuous
 62
     7
100
AcDbLine
 10
-44.26783498942824
 20
-59.72696705738683
 30
0.0
 11
-44.54453091885934
 21
-56.56431810279484
 31
0.0
  0
LINE
  5
8D
330
1F
100
AcDbEntity
  8
0
  6
Continuous
 62
     7
100
AcDbLine
 10
38.86043792205644
 20
-55.01120566208436
 30
0.0
 11
43.01709567164389
 21
-56.04763813479295
 31
0.0
  0
LINE
  5
8E
330
1F
100
AcDbEntity
  8
0
  6
Continuous
 62
     7
100
AcDbLine
 10
36.36599563885699
 20
-52.24080909035687
 30
0.0
 11
30.39489108711838
 21
-9.754194631053227
 31
0.0
  0
LINE
  5
8F
330
1F
100
AcDbEntity
  8
0
  6
Continuous
 62
     7
100
AcDbLine
 10
-13.54543597724909
 20
-60.80059057674202
 30
0.0
 11
-26.21210302141426
 21
-60.80059057674202
 31
0.0
  0
LINE
  5
90
330
1F
100
AcDbEntity
  8
0
  6
Continuous
 62
     7
100
AcDbLine
 10
-16.87876850265585
 20
-41.46725804896438
 30
0.0
 11
-19.21210191764884
 21
-39.80059125072102
 31
0.0
  0
LINE
  5
91
330
1F
100
AcDbEntity
  8
0
  6
Continuous
 62
     7
100
AcDbLine
 10
-19.21210617171597
 20
-45.46725640345409
 30
0.0
 11
-21.54543958670896
 21
-47.13392320169744
 31
0.0
  0
LINE
  5
92
330
1F
100
AcDbEntity
  8
0
  6
Continuous
 62
     7
100
AcDbLine
 10
-19.21210194178169
 20
-45.46725479518821
 30
0.0
 11
-21.54543546614134
 21
-41.46725450714567
 31
0.0
  0
LINE
  5
93
330
1F
100
AcDbEntity
  8
0
  6
Continuous
 62
     7
100
AcDbLine
 10
-19.21209925745596
 20
-45.46725065052167
 30
0.0
 11
-16.87876637380149
 21
-41.46725146083086
 31
0.0
  0
LINE
  5
94
330
1F
100
AcDbEntity
  8
0
  6
Continuous
 62
     7
100
AcDbLine
 10
-16.87876862044732
 20
-47.13392972821262
 30
0.0
 11
-19.21210203544026
 21
-45.4672629299693
 31
0.0
  0
LINE
  5
95
330
1F
100
AcDbEntity
  8
0
  6
Continuous
 62
     7
100
AcDbLine
 10
-19.21210487139247
 20
-51.13392098750932
 30
0.0
 11
-21.54543828638545
 21
-52.80058778575268
 31
0.0
  0
LINE
  5
96
330
1F
100
AcDbEntity
  8
0
  6
Continuous
 62
     7
100
AcDbLine
 10
-19.21210283276234
 20
-51.13392252480253
 30
0.0
 11
-21.5454357164168
 21
-47.13392333511173
 31
0.0
  0
LINE
  5
97
330
1F
100
AcDbEntity
  8
0
  6
Continuous
 62
     7
100
AcDbLine
 10
-19.21209964788568
 20
-51.1339205768395
 30
0.0
 11
-16.87876676423121
 21
-47.13392138714868
 31
0.0
  0
LINE
  5
98
330
1F
100
AcDbEntity
  8
0
  6
Continuous
 62
     7
100
AcDbLine
 10
-16.87876992077069
 20
-52.8005943122679
 30
0.0
 11
-19.21210333576368
 21
-51.13392751402455
 31
0.0
  0
LINE
  5
99
330
1F
100
AcDbEntity
  8
0
  6
Continuous
 62
     7
100
AcDbLine
 10
-19.21210611166547
 20
-34.1339222095818
 30
0.0
 11
-21.54543952665846
 21
-35.80058900782516
 31
0.0
  0
LINE
  5
9A
330
1F
100
AcDbEntity
  8
0
  6
Continuous
 62
     7
100
AcDbLine
 10
-19.21210455322736
 20
-34.13392189878011
 30
0.0
 11
-21.54543775723442
 21
-30.13392215991345
 31
0.0
  0
LINE
  5
9B
330
1F
100
AcDbEntity
  8
0
  6
Continuous
 62
     7
100
AcDbLine
 10
-19.212099208831
 20
-34.13392214752053
 30
0.0
 11
-16.87876376235586
 21
-30.13391856442291
 31
0.0
  0
LINE
  5
9C
330
1F
100
AcDbEntity
  8
0
  6
Continuous
 62
     7
100
AcDbLine
 10
-16.8787672023325
 20
-35.80059346490917
 30
0.0
 11
-19.21210061732549
 21
-34.13392666666581
 31
0.0
  0
LINE
  5
9D
330
1F
100
AcDbEntity
  8
0
  6
Continuous
 62
     7
100
AcDbLine
 10
-19.21210481134208
 20
-39.80058679363702
 30
0.0
 11
-21.54543822633507
 21
-41.46725359188038
 31
0.0
  0
LINE
  5
9E
330
1F
100
AcDbEntity
  8
0
  6
Continuous
 62
     7
100
AcDbLine
 10
-19.21210105080115
 20
-39.80058706557381
 30
0.0
 11
-21.54543457516079
 21
-35.80058677753129
 31
0.0
  0
LINE
  5
9F
330
1F
100
AcDbEntity
  8
0
  6
Continuous
 62
     7
100
AcDbLine
 10
-19.21210142984696
 20
-39.80058511761083
 30
0.0
 11
-16.87876854619245
 21
-35.80058592791997
 31
0.0
  0
LINE
  5
A0
330
1F
100
AcDbEntity
  8
0
  6
Continuous
 62
     7
100
AcDbLine
 10
-23.87877318878228
 20
-39.80058718627474
 30
0.0
 11
-26.21210660377522
 21
-41.46725398451807
 31
0.0
  0
LINE
  5
A1
330
1F
100
AcDbEntity
  8
0
  6
Continuous
 62
     7
100
AcDbLine
 10
-53.74846021441682
 20
-9.006607787547399
 30
0.0
 11
-54.19997114214279
 21
-3.287469341189474
 31
0.0
  0
LINE
  5
A2
330
1F
100
AcDbEntity
  8
0
  6
Continuous
 62
     7
100
AcDbLine
 10
-23.87876980425379
 20
-39.80058781783037
 30
0.0
 11
-26.21210268790827
 21
-35.80058862813955
 31
0.0
  0
LINE
  5
A3
330
1F
100
AcDbEntity
  8
0
  6
Continuous
 62
     7
100
AcDbLine
 10
-23.87876643059786
 20
-39.80058802652663
 30
0.0
 11
-21.5454335469434
 21
-35.80058883683584
 31
0.0
  0
LINE
  5
A4
330
1F
100
AcDbEntity
  8
0
  6
Continuous
 62
     7
100
AcDbLine
 10
-21.54543835826135
 20
-41.46725972575802
 30
0.0
 11
-23.87877177325433
 21
-39.80059292751466
 31
0.0
  0
LINE
  5
A5
330
1F
100
AcDbEntity
  8
0
  6
Continuous
 62
     7
100
AcDbLine
 10
-23.87877041029356
 20
-45.46725383976124
 30
0.0
 11
-26.21210382528654
 21
-47.1339206380046
 31
0.0
  0
LINE
  5
A6
330
1F
100
AcDbEntity
  8
0
  6
Continuous
 62
     7
100
AcDbLine
 10
-23.87877005452926
 20
-45.46725664579637
 30
0.0
 11
-26.21210421959406
 21
-41.46725525940215
 31
0.0
  0
LINE
  5
A7
330
1F
100
AcDbEntity
  8
0
  6
Continuous
 62
     7
100
AcDbLine
 10
-23.87876425820698
 20
-45.46725355943759
 30
0.0
 11
-21.5454313745525
 21
-41.46725436974677
 31
0.0
  0
LINE
  5
A8
330
1F
100
AcDbEntity
  8
0
  6
Continuous
 62
     7
100
AcDbLine
 10
-51.5954401629878
 20
-17.13392260870725
 30
0.0
 11
-51.5954401629878
 21
-18.30058931014329
 31
0.0
  0
LINE
  5
A9
330
1F
100
AcDbEntity
  8
0
  6
Continuous
 62
     7
100
AcDbLine
 10
-21.54543551972223
 20
-47.13392726614377
 30
0.0
 11
-23.87876893471522
 21
-45.46726046790042
 31
0.0
  0
LINE
  5
AA
330
1F
100
AcDbEntity
  8
0
  6
Continuous
 62
     7
100
AcDbLine
 10
-23.87877324883266
 20
-51.13392138014696
 30
0.0
 11
-26.21210666382565
 21
-52.80058817839031
 31
0.0
  0
LINE
  5
AB
330
1F
100
AcDbEntity
  8
0
  6
Continuous
 62
     7
100
AcDbLine
 10
-40.64329854182471
 20
-52.24081025327903
 30
0.0
 11
-41.86531131188782
 21
-24.44001843851821
 31
0.0
  0
LINE
  5
AC
330
1F
100
AcDbEntity
  8
0
  6
Continuous
 62
     7
100
AcDbLine
 10
-38.54344799340919
 20
-54.46725578309486
 30
0.0
 11
-26.21210302141426
 21
-54.46725578309486
 31
0.0
  0
LINE
  5
AD
330
1F
100
AcDbEntity
  8
0
  6
Continuous
 62
     7
100
AcDbLine
 10
-23.87876783351336
 20
-51.1339196158867
 30
0.0
 11
-26.21210071716784
 21
-47.13392042619589
 31
0.0
  0
LINE
  5
AE
330
1F
100
AcDbEntity
  8
0
  6
Continuous
 62
     7
100
AcDbLine
 10
-23.87877032345376
 20
-51.13392311963803
 30
0.0
 11
-21.54543359556832
 21
-47.13391733983706
 31
0.0
  0
LINE
  5
AF
330
1F
100
AcDbEntity
  8
0
  6
CENTER
 62
     7
100
AcDbLine
 10
-26.21210302141426
 20
0.19941124119967
 30
0.0
 11
-26.21210302141426
 21
-71.13392421803266
 31
0.0
  0
LINE
  5
B0
330
1F
100
AcDbEntity
  8
0
  6
Continuous
 62
     7
100
AcDbLine
 10
-35.54543663290264
 20
-52.80058906675765
 30
0.0
 11
-26.21210302141426
 21
-52.80058906675765
 31
0.0
  0
LINE
  5
B1
330
1F
100
AcDbEntity
  8
0
  6
Continuous
 62
     7
100
AcDbLine
 10
-35.54543663290264
 20
-30.13392045300589
 30
0.0
 11
-26.21210302141426
 21
-30.13392045300589
 31
0.0
  0
LINE
  5
B2
330
1F
100
AcDbEntity
  8
0
  6
Continuous
 62
     7
100
AcDbLine
 10
-35.54543663290264
 20
-28.13392039340124
 30
0.0
 11
-26.21210302141426
 21
-28.13392039340124
 31
0.0
  0
LINE
  5
B3
330
1F
100
AcDbEntity
  8
0
  6
Continuous
 62
     7
100
AcDbLine
 10
-35.54543663290262
 20
-30.13392045300586
 30
0.0
 11
-35.54543663290262
 21
-52.80058906675762
 31
0.0
  0
LINE
  5
B4
330
1F
100
AcDbEntity
  8
0
  6
Continuous
 62
     7
100
AcDbLine
 10
-35.54543663290264
 20
-35.80058728855238
 30
0.0
 11
-26.21210302141426
 21
-35.80058728855238
 31
0.0
  0
LINE
  5
B5
330
1F
100
AcDbEntity
  8
0
  6
Continuous
 62
     7
100
AcDbLine
 10
-35.54543663290264
 20
-41.46725412409887
 30
0.0
 11
-26.21210302141426
 21
-41.46725412409887
 31
0.0
  0
LINE
  5
B6
330
1F
100
AcDbEntity
  8
0
  6
Continuous
 62
     7
100
AcDbLine
 10
-35.54543663290264
 20
-47.13392223121116
 30
0.0
 11
-26.21210302141426
 21
-47.13392223121116
 31
0.0
  0
LINE
  5
B7
330
1F
100
AcDbEntity
  8
0
  6
Continuous
 62
     7
100
AcDbLine
 10
-30.87876982715844
 20
-30.13392045300586
 30
0.0
 11
-30.87876982715844
 21
-52.80058906675762
 31
0.0
  0
LINE
  5
B8
330
1F
100
AcDbEntity
  8
0
  6
Continuous
 62
     7
100
AcDbLine
 10
-30.87876898489071
 20
-35.80059514170261
 30
0.0
 11
-28.54543556989772
 21
-34.13392834345925
 31
0.0
  0
LINE
  5
B9
330
1F
100
AcDbEntity
  8
0
  6
Continuous
 62
     7
100
AcDbLine
 10
-28.54544000266049
 20
-34.13391810020902
 30
0.0
 11
-30.87877288631497
 21
-30.1339189105182
 31
0.0
  0
LINE
  5
BA
330
1F
100
AcDbEntity
  8
0
  6
Continuous
 62
     7
100
AcDbLine
 10
-28.54543777026064
 20
-34.13392118656757
 30
0.0
 11
-26.212104245901
 21
-30.13392089852506
 31
0.0
  0
LINE
  5
BB
330
1F
100
AcDbEntity
  8
0
  6
Continuous
 62
     7
100
AcDbLine
 10
-28.5454364316682
 20
-34.13392068060488
 30
0.0
 11
-26.21210301667521
 21
-35.80058747884824
 31
0.0
  0
LINE
  5
BC
330
1F
100
AcDbEntity
  8
0
  6
Continuous
 62
     7
100
AcDbLine
 10
-30.87876922278307
 20
-52.80059185019889
 30
0.0
 11
-28.54543580779008
 21
-51.13392505195554
 31
0.0
  0
LINE
  5
BD
330
1F
100
AcDbEntity
  8
0
  6
Continuous
 62
     7
100
AcDbLine
 10
-28.54543571937478
 20
-51.13392311963815
 30
0.0
 11
-30.87877244726024
 21
-47.13391733983713
 31
0.0
  0
LINE
  5
BE
330
1F
100
AcDbEntity
  8
0
  6
Continuous
 62
     7
100
AcDbLine
 10
-28.54543820931531
 20
-51.13391961588662
 30
0.0
 11
-26.21210532566083
 21
-47.1339204261958
 31
0.0
  0
LINE
  5
BF
330
1F
100
AcDbEntity
  8
0
  6
Continuous
 62
     7
100
AcDbLine
 10
-28.54543279399597
 20
-51.13392138014721
 30
0.0
 11
-26.21209937900299
 21
-52.80058817839056
 31
0.0
  0
LINE
  5
C0
330
1F
100
AcDbEntity
  8
0
  6
Continuous
 62
     7
100
AcDbLine
 10
-30.87877052310647
 20
-47.13392726614367
 30
0.0
 11
-28.54543710811348
 21
-45.46726046790032
 31
0.0
  0
LINE
  5
C1
330
1F
100
AcDbEntity
  8
0
  6
Continuous
 62
     7
100
AcDbLine
 10
-28.5454417846217
 20
-45.46725355943769
 30
0.0
 11
-30.87877466827618
 21
-41.46725436974688
 31
0.0
  0
LINE
  5
C2
330
1F
100
AcDbEntity
  8
0
  6
Continuous
 62
     7
100
AcDbLine
 10
-28.54543598829936
 20
-45.46725664579634
 30
0.0
 11
-26.21210182323455
 21
-41.46725525940212
 31
0.0
  0
LINE
  5
C3
330
1F
100
AcDbEntity
  8
0
  6
Continuous
 62
     7
100
AcDbLine
 10
-28.54543563253506
 20
-45.46725383976152
 30
0.0
 11
-26.21210221754208
 21
-47.13392063800487
 31
0.0
  0
LINE
  5
C4
330
1F
100
AcDbEntity
  8
0
  6
Continuous
 62
     7
100
AcDbLine
 10
-30.87876768456731
 20
-41.46725972575789
 30
0.0
 11
-28.54543426957432
 21
-39.80059292751454
 31
0.0
  0
LINE
  5
C5
330
1F
100
AcDbEntity
  8
0
  6
Continuous
 62
     7
100
AcDbLine
 10
-28.54543961223078
 20
-39.80058802652677
 30
0.0
 11
-30.87877249588526
 21
-35.80058883683594
 31
0.0
  0
LINE
  5
C6
330
1F
100
AcDbEntity
  8
0
  6
Continuous
 62
     7
100
AcDbLine
 10
-28.54543623857494
 20
-39.80058781783035
 30
0.0
 11
-26.21210335492047
 21
-35.80058862813953
 31
0.0
  0
LINE
  5
C7
330
1F
100
AcDbEntity
  8
0
  6
Continuous
 62
     7
100
AcDbLine
 10
-28.54543285404641
 20
-39.80058718627499
 30
0.0
 11
-26.21209943905343
 21
-41.46725398451834
 31
0.0
  0
LINE
  5
C8
330
1F
100
AcDbEntity
  8
0
  6
Continuous
 62
     7
100
AcDbLine
 10
-33.2121046129818
 20
-39.80058511761101
 30
0.0
 11
-35.54543749663628
 21
-35.80058592792019
 31
0.0
  0
LINE
  5
C9
330
1F
100
AcDbEntity
  8
0
  6
Continuous
 62
     7
100
AcDbLine
 10
-33.21210499202754
 20
-39.80058706557372
 30
0.0
 11
-30.8787714676679
 21
-35.80058677753119
 31
0.0
  0
LINE
  5
CA
330
1F
100
AcDbEntity
  8
0
  6
Continuous
 62
     7
100
AcDbLine
 10
-33.21210123148659
 20
-39.80058679363732
 30
0.0
 11
-30.8787678164936
 21
-41.46725359188068
 31
0.0
  0
LINE
  5
CB
330
1F
100
AcDbEntity
  8
0
  6
Continuous
 62
     7
100
AcDbLine
 10
-35.5454388404962
 20
-35.80059346490907
 30
0.0
 11
-33.21210542550321
 21
-34.13392666666572
 31
0.0
  0
LINE
  5
CC
330
1F
100
AcDbEntity
  8
0
  6
Continuous
 62
     7
100
AcDbLine
 10
-33.2121068339977
 20
-34.13392214752063
 30
0.0
 11
-35.54544228047284
 21
-30.13391856442301
 31
0.0
  0
LINE
  5
CD
330
1F
100
AcDbEntity
  8
0
  6
Continuous
 62
     7
100
AcDbLine
 10
-33.21210148960137
 20
-34.1339218987801
 30
0.0
 11
-30.87876828559431
 21
-30.13392215991344
 31
0.0
  0
LINE
  5
CE
330
1F
100
AcDbEntity
  8
0
  6
Continuous
 62
     7
100
AcDbLine
 10
-33.21209993116318
 20
-34.13392220958208
 30
0.0
 11
-30.8787665161702
 21
-35.80058900782544
 31
0.0
  0
LINE
  5
CF
330
1F
100
AcDbEntity
  8
0
  6
Continuous
 62
     7
100
AcDbLine
 10
-35.54543612205801
 20
-52.8005943122678
 30
0.0
 11
-33.21210270706501
 21
-51.13392751402445
 31
0.0
  0
LINE
  5
D0
330
1F
100
AcDbEntity
  8
0
  6
Continuous
 62
     7
100
AcDbLine
 10
-33.21210639494299
 20
-51.13392057683961
 30
0.0
 11
-35.54543927859746
 21
-47.1339213871488
 31
0.0
  0
LINE
  5
D1
330
1F
100
AcDbEntity
  8
0
  6
Continuous
 62
     7
100
AcDbLine
 10
-33.21210321006635
 20
-51.13392252480241
 30
0.0
 11
-30.87877032641187
 21
-47.1339233351116
 31
0.0
  0
LINE
  5
D2
330
1F
100
AcDbEntity
  8
0
  6
Continuous
 62
     7
100
AcDbLine
 10
-33.21210117143617
 20
-51.13392098750958
 30
0.0
 11
-30.87876775644318
 21
-52.80058778575293
 31
0.0
  0
LINE
  5
D3
330
1F
100
AcDbEntity
  8
0
  6
Continuous
 62
     7
100
AcDbLine
 10
-35.54543742238141
 20
-47.13392972821256
 30
0.0
 11
-33.21210400738843
 21
-45.46726292996921
 31
0.0
  0
LINE
  5
D4
330
1F
100
AcDbEntity
  8
0
  6
Continuous
 62
     7
100
AcDbLine
 10
-33.21210678537273
 20
-45.46725065052186
 30
0.0
 11
-35.5454396690272
 21
-41.46725146083105
 31
0.0
  0
LINE
  5
D5
330
1F
100
AcDbEntity
  8
0
  6
Continuous
 62
     7
100
AcDbLine
 10
-33.21210410104691
 20
-45.46725479518813
 30
0.0
 11
-30.87877057668727
 21
-41.46725450714561
 31
0.0
  0
LINE
  5
D6
330
1F
100
AcDbEntity
  8
0
  6
Continuous
 62
     7
100
AcDbLine
 10
-33.21209987111276
 20
-45.46725640345432
 30
0.0
 11
-30.87876645611977
 21
-47.13392320169768
 31
0.0
  0
LINE
  5
D7
330
1F
100
AcDbEntity
  8
0
  6
Continuous
 62
     7
100
AcDbLine
 10
-35.5454375401728
 20
-41.4672580489642
 30
0.0
 11
-33.21210412517981
 21
-39.80059125072084
 31
0.0
  0
LINE
  5
D8
330
1F
100
AcDbEntity
  8
0
  6
Continuous
 62
     7
100
AcDbLine
 10
-21.54543682004564
 20
-52.80059185019903
 30
0.0
 11
-23.87877023503863
 21
-51.13392505195566
 31
0.0
  0
LINE
  5
D9
330
1F
100
AcDbEntity
  8
0
  6
Continuous
 62
     7
100
AcDbLine
 10
-23.87876961116047
 20
-34.13392068060458
 30
0.0
 11
-26.21210302615346
 21
-35.80058747884794
 31
0.0
  0
LINE
  5
DA
330
1F
100
AcDbEntity
  8
0
  6
Continuous
 62
     7
100
AcDbLine
 10
-23.87876827256801
 20
-34.13392118656773
 30
0.0
 11
-26.21210179692766
 21
-30.13392089852521
 31
0.0
  0
LINE
  5
DB
330
1F
100
AcDbEntity
  8
0
  6
Continuous
 62
     7
100
AcDbLine
 10
-23.87876604016819
 20
-34.13391810020891
 30
0.0
 11
-21.54543315651372
 21
-30.13391891051809
 31
0.0
  0
LINE
  5
DC
330
1F
100
AcDbEntity
  8
0
  6
Continuous
 62
     7
100
AcDbLine
 10
-21.54543705793792
 20
-35.80059514170276
 30
0.0
 11
-23.87877047293091
 21
-34.1339283434594
 31
0.0
  0
LINE
  5
DD
330
1F
100
AcDbEntity
  8
0
  6
Continuous
 62
     7
100
AcDbLine
 10
-21.54543621567009
 20
-30.13392045300586
 30
0.0
 11
-21.54543621567009
 21
-52.80058906675762
 31
0.0
  0
LINE
  5
DE
330
1F
100
AcDbEntity
  8
0
  6
Continuous
 62
     7
100
AcDbLine
 10
-16.87876940992592
 20
-47.13392223121116
 30
0.0
 11
-26.21210302141426
 21
-47.13392223121116
 31
0.0
  0
LINE
  5
DF
330
1F
100
AcDbEntity
  8
0
  6
Continuous
 62
     7
100
AcDbLine
 10
-16.87876940992592
 20
-41.46725412409887
 30
0.0
 11
-26.21210302141426
 21
-41.46725412409887
 31
0.0
  0
LINE
  5
E0
330
1F
100
AcDbEntity
  8
0
  6
Continuous
 62
     7
100
AcDbLine
 10
-16.87876940992592
 20
-35.80058728855238
 30
0.0
 11
-26.21210302141426
 21
-35.80058728855238
 31
0.0
  0
LINE
  5
E1
330
1F
100
AcDbEntity
  8
0
  6
Continuous
 62
     7
100
AcDbLine
 10
-16.87876940992592
 20
-30.13392045300586
 30
0.0
 11
-16.87876940992592
 21
-52.80058906675762
 31
0.0
  0
LINE
  5
E2
330
1F
100
AcDbEntity
  8
0
  6
Continuous
 62
     7
100
AcDbLine
 10
-16.87876940992592
 20
-28.13392039340124
 30
0.0
 11
-26.21210302141426
 21
-28.13392039340124
 31
0.0
  0
LINE
  5
E3
330
1F
100
AcDbEntity
  8
0
  6
Continuous
 62
     7
100
AcDbLine
 10
-16.87876940992592
 20
-30.13392045300589
 30
0.0
 11
-26.21210302141426
 21
-30.13392045300589
 31
0.0
  0
LINE
  5
E4
330
1F
100
AcDbEntity
  8
0
  6
Continuous
 62
     7
100
AcDbLine
 10
-16.87876940992592
 20
-52.80058906675765
 30
0.0
 11
-26.21210302141426
 21
-52.80058906675765
 31
0.0
  0
LINE
  5
E5
330
1F
100
AcDbEntity
  8
0
  6
Continuous
 62
     7
100
AcDbLine
 10
-13.88075804941937
 20
-54.46725578309486
 30
0.0
 11
-26.21210302141426
 21
-54.46725578309486
 31
0.0
  0
LINE
  5
E6
330
1F
100
AcDbEntity
  8
0
  6
Continuous
 62
     7
100
AcDbLine
 10
-11.78090750100391
 20
-52.24081025327898
 30
0.0
 11
-10.55889473094081
 21
-24.44001843851816
 31
0.0
  0
LINE
  5
E7
330
1F
100
AcDbEntity
  8
0
  6
Continuous
 62
     7
100
AcDbLine
 10
-0.828765879840745
 20
-17.13392260870725
 30
0.0
 11
-0.828765879840745
 21
-18.30058931014329
 31
0.0
  0
LINE
  5
E8
330
1F
100
AcDbEntity
  8
0
  6
Continuous
 62
     7
100
AcDbLine
 10
1.324254171588101
 20
-9.00660778754742
 30
0.0
 11
1.775765099314067
 21
-3.287469341189523
 31
0.0
  0
LINE
  5
E9
330
1F
100
AcDbEntity
  8
0
  6
Continuous
 62
     7
100
AcDbLine
 10
-8.156371053400738
 20
-59.72696705738684
 30
0.0
 11
-7.879675123969628
 21
-56.56431810279485
 31
0.0
  0
LINE
  5
EA
330
1F
100
AcDbEntity
  8
0
  6
Continuous
 62
     7
100
AcDbLine
 10
1.08790084394704
 20
-9.467255713556114
 30
0.0
 11
1.08790084394704
 21
-9.800589056823554
 31
0.0
  0
LINE
  5
EB
330
1F
100
AcDbEntity
  8
0
  6
Continuous
 62
     7
100
AcDbLine
 10
1.604705973474017
 20
-9.006605652496093
 30
0.0
 11
2.056216901199985
 21
-3.287467206138168
 31
0.0
  0
LINE
  5
EC
330
1F
100
AcDbEntity
  8
0
  6
Continuous
 62
     7
100
AcDbLine
 10
1.079945928345381
 20
-9.800589056823583
 30
0.0
 11
-0.195465079716911
 21
-9.800589056823583
 31
0.0
  0
LINE
  5
ED
330
1F
100
AcDbEntity
  8
0
  6
Continuous
 62
     7
100
AcDbLine
 10
2.572091918734579
 20
-4.575980970086241
 30
0.0
 11
2.735013302511209
 21
-1.467255790900749
 31
0.0
  0
LINE
  5
EE
330
1F
100
AcDbEntity
  8
0
  6
Continuous
 62
     7
100
AcDbLine
 10
-14.17242472477838
 20
-20.80058938464913
 30
0.0
 11
-16.29578192510363
 21
-20.80058938464913
 31
0.0
  0
LINE
  5
EF
330
1F
100
AcDbEntity
  8
0
  6
Continuous
 62
     7
100
AcDbLine
 10
-9.887683564156571
 20
-56.13392458214674
 30
0.0
 11
-7.783945546520229
 21
-54.82449579612259
 31
0.0
  0
LINE
  5
F0
330
1F
100
AcDbEntity
  8
0
  6
Continuous
 62
     7
100
AcDbLine
 10
-6.221151089021877
 20
-52.24080719505478
 30
0.0
 11
-3.489511206599525
 21
-15.36366850684418
 31
0.0
  0
LINE
  5
F1
330
1F
100
AcDbEntity
  8
0
  6
Continuous
 62
     7
100
AcDbLine
 10
47.68789816372473
 20
-60.80058930517623
 30
0.0
 11
60.35456520788748
 21
-60.80058930517623
 31
0.0
  0
LINE
  5
F2
330
1F
100
AcDbEntity
  8
0
  6
Continuous
 62
     7
100
AcDbLine
 10
-38.87877006557944
 20
-60.80059057674202
 30
0.0
 11
-26.21210302141426
 21
-60.80059057674202
 31
0.0
  0
LINE
  5
F3
330
1F
100
AcDbEntity
  8
0
  6
Continuous
 62
     7
100
AcDbLine
 10
0.342081729923024
 20
-18.30058931014332
 30
0.0
 11
-0.828765879840745
 21
-18.30058931014332
 31
0.0
  0
LINE
  5
F4
330
1F
100
AcDbEntity
  8
0
  6
Continuous
 62
     7
100
AcDbLine
 10
-0.399953204300715
 20
-17.13392260870728
 30
0.0
 11
-0.946665460177343
 21
-17.13392260870728
 31
0.0
  0
LINE
  5
F5
330
1F
100
AcDbEntity
  8
0
  6
Continuous
 62
     7
100
AcDbLine
 10
0.346267041988797
 20
-13.13391835208604
 30
0.0
 11
0.098823055168164
 21
-16.66883234391722
 31
0.0
  0
LINE
  5
F6
330
1F
100
AcDbEntity
  8
0
  6
Continuous
 62
     7
100
AcDbLine
 10
0.92123152389937
 20
-14.46725462878593
 30
0.0
 11
0.674602295524374
 21
-17.99052921459859
 31
0.0
  0
LINE
  5
F7
330
1F
100
AcDbEntity
  8
0
  6
Continuous
 62
     7
100
AcDbLine
 10
1.359863335776112
 20
-14.46725586256775
 30
0.0
 11
0.921234172313319
 21
-14.46725586256775
 31
0.0
  0
LINE
  5
F8
330
1F
100
AcDbEntity
  8
0
  6
Continuous
 62
     7
100
AcDbLine
 10
1.526302675479357
 20
-14.30931239818407
 30
0.0
 11
1.587902200308624
 21
-13.13392345031487
 31
0.0
  0
LINE
  5
F9
330
1F
100
AcDbEntity
  8
0
  6
Continuous
 62
     7
100
AcDbLine
 10
1.587900858848201
 20
-13.13392248949799
 30
0.0
 11
-0.650380457857779
 21
-13.13392248949799
 31
0.0
  0
LINE
  5
FA
330
1F
100
AcDbEntity
  8
0
  6
Continuous
 62
     7
100
AcDbLine
 10
-16.44590531294079
 20
-20.76487254447608
 30
0.0
 11
-17.52772355252855
 21
-22.75618061863874
 31
0.0
  0
LINE
  5
FB
330
1F
100
AcDbEntity
  8
0
  6
Continuous
 62
     7
100
AcDbLine
 10
-10.64276858133219
 20
-24.20392440528606
 30
0.0
 11
-12.66596949675075
 21
-25.65902831621934
 31
0.0
  0
LINE
  5
FC
330
1F
100
AcDbEntity
  8
0
  6
Continuous
 62
     7
100
AcDbLine
 10
-13.94604577130445
 20
-20.88924891477182
 30
0.0
 11
-15.43357865775793
 21
-22.84972325829274
 31
0.0
  0
LINE
  5
FD
330
1F
100
AcDbEntity
  8
0
  6
Continuous
 62
     7
100
AcDbLine
 10
-13.88070449206385
 20
-54.4672557182429
 30
0.0
 11
-12.62232576664696
 21
-25.8391383806209
 31
0.0
  0
LINE
  5
FE
330
1F
100
AcDbEntity
  8
0
  6
Continuous
 62
     7
100
AcDbLine
 10
-15.60776819203411
 20
-22.80058944425377
 30
0.0
 11
-17.36149138883039
 21
-22.80058944425377
 31
0.0
  0
LINE
  5
FF
330
1F
100
AcDbEntity
  8
0
  6
Continuous
 62
     7
100
AcDbLine
 10
-7.897932175208458
 20
-60.16297391239144
 30
0.0
 11
-7.571362668621859
 21
-56.43026736072214
 31
0.0
  0
LINE
  5
100
330
1F
100
AcDbEntity
  8
0
  6
Continuous
 62
     7
100
AcDbLine
 10
-5.558506732996651
 20
-55.27004023489744
 30
0.0
 11
-7.580941803283572
 21
-56.14935984210458
 31
0.0
  0
LINE
  5
101
330
1F
100
AcDbEntity
  8
0
  6
Continuous
 62
     7
100
AcDbLine
 10
-8.22999595881302
 20
-60.46725596190879
 30
0.0
 11
-13.21210263398407
 21
-60.46725596190879
 31
0.0
  0
LINE
  5
102
330
1F
100
AcDbEntity
  8
0
  6
Continuous
 62
     7
100
AcDbLine
 10
2.405649906656521
 20
-4.733923256411117
 30
0.0
 11
1.942026845964477
 21
-4.733923256411117
 31
0.0
  0
LINE
  5
103
330
1F
100
AcDbEntity
  8
0
  6
Continuous
 62
     7
100
AcDbLine
 10
-7.54543579843758
 20
-56.13392249943206
 30
0.0
 11
-26.21210302141426
 21
-56.13392249943206
 31
0.0
  0
LINE
  5
104
330
1F
100
AcDbEntity
  8
0
  6
Continuous
 62
     7
100
AcDbLine
 10
-8.488439163129812
 20
-60.03124876711138
 30
0.0
 11
-26.21210302141426
 21
-60.03124876711138
 31
0.0
  0
LINE
  5
105
330
1F
100
AcDbEntity
  8
0
  6
Continuous
 62
     7
100
AcDbLine
 10
-3.563363805559592
 20
-52.45937911878914
 30
0.0
 11
-0.378762183748089
 21
-9.467256903140033
 31
0.0
  0
LINE
  5
106
330
1F
100
AcDbEntity
  8
0
  6
Continuous
 62
     7
100
AcDbLine
 10
2.375500253116348
 20
-2.975980036427336
 30
0.0
 11
2.45456905479191
 21
-1.467257430720493
 31
0.0
  0
LINE
  5
107
330
1F
100
AcDbEntity
  8
0
  6
Continuous
 62
     7
100
AcDbLine
 10
1.106262253999461
 20
-9.467255713556142
 30
0.0
 11
-26.21210302141426
 21
-9.467255713556142
 31
0.0
  0
LINE
  5
108
330
1F
100
AcDbEntity
  8
0
  6
Continuous
 62
     7
100
AcDbLine
 10
2.489502041316968
 20
-3.133922191474767
 30
0.0
 11
-26.21210302141426
 21
-3.133922191474767
 31
0.0
  0
LINE
  5
109
330
1F
100
AcDbEntity
  8
0
  6
Continuous
 62
     7
100
AcDbLine
 10
2.735015964649477
 20
-1.467255475137563
 30
0.0
 11
-26.21210302141426
 21
-1.467255475137563
 31
0.0
  0
LINE
  5
10A
330
1F
100
AcDbEntity
  8
0
  6
Continuous
 62
     7
100
AcDbLine
 10
72.37804375631922
 20
-13.13392248949799
 30
0.0
 11
79.68789911739904
 21
-13.13392248949799
 31
0.0
  0
LINE
  5
10B
330
1F
100
AcDbEntity
  8
0
  6
Continuous
 62
     7
100
AcDbLine
 10
-42.26854029740414
 20
41.28391424311347
 30
0.0
 11
-40.37811456268318
 21
47.32818028953925
 31
0.0
  0
LINE
  5
10C
330
1F
100
AcDbEntity
  8
0
  6
Continuous
 62
     7
100
AcDbLine
 10
-43.99887773746589
 20
54.19136909222186
 30
0.0
 11
-44.2492073132159
 21
68.53274164870345
 31
0.0
  0
LINE
  5
10D
330
1F
100
AcDbEntity
  8
0
  6
Continuous
 62
     7
100
AcDbLine
 10
-26.21210302141429
 20
85.89568251259539
 30
0.0
 11
-39.54543675211193
 21
85.89568251259539
 31
0.0
  0
LINE
  5
10E
330
1F
100
AcDbEntity
  8
0
  6
Continuous
 62
     7
100
AcDbLine
 10
-26.21210302141429
 20
86.89602840829343
 30
0.0
 11
-51.1571466928944
 21
86.89602840829343
 31
0.0
  0
LINE
  5
10F
330
1F
100
AcDbEntity
  8
0
  6
Continuous
 62
     7
100
AcDbLine
 10
-26.21210302141429
 20
87.00076473953982
 30
0.0
 11
-51.43713530800954
 21
87.00076473953982
 31
0.0
  0
LINE
  5
110
330
1F
100
AcDbEntity
  8
0
  6
Continuous
 62
     7
100
AcDbLine
 10
-26.21210302141429
 20
47.60744284612633
 30
0.0
 11
-38.92051302743306
 21
47.60744284612633
 31
0.0
  0
LINE
  5
111
330
1F
100
AcDbEntity
  8
0
  6
Continuous
 62
     7
100
AcDbLine
 10
-43.65001725831493
 20
54.52089234725319
 30
0.0
 11
-43.89459505336033
 21
68.53274559024203
 31
0.0
  0
LINE
  5
112
330
1F
100
AcDbEntity
  8
0
  6
Continuous
 62
     7
100
AcDbLine
 10
-52.77047475850591
 20
79.19941204161806
 30
0.0
 11
-52.49047886244503
 21
79.94317256089874
 31
0.0
  0
LINE
  5
113
330
1F
100
AcDbEntity
  8
0
  6
Continuous
 62
     7
100
AcDbLine
 10
-54.01210690167676
 20
79.19941359558311
 30
0.0
 11
-52.77046868107931
 21
79.19941359558311
 31
0.0
  0
LINE
  5
114
330
1F
100
AcDbEntity
  8
0
  6
Continuous
 62
     7
100
AcDbLine
 10
-52.49048006596414
 20
85.56269503522367
 30
0.0
 11
-52.49048006596414
 21
79.94317785928547
 31
0.0
  0
LINE
  5
115
330
1F
100
AcDbEntity
  8
0
  6
Continuous
 62
     7
100
AcDbLine
 10
-52.49048006596416
 20
79.94317785928547
 30
0.0
 11
-51.59544016298781
 21
79.94317785928547
 31
0.0
  0
LINE
  5
116
330
1F
100
AcDbEntity
  8
0
  6
Continuous
 62
     7
100
AcDbLine
 10
-50.45102077666789
 20
84.8660804311296
 30
0.0
 11
-50.45102077666789
 21
82.53274702825752
 31
0.0
  0
LINE
  5
117
330
1F
100
AcDbEntity
  8
0
  6
Continuous
 62
     7
100
AcDbLine
 10
-50.45101131909529
 20
82.5327399081223
 30
0.0
 11
-49.50039423631836
 21
81.40997024316404
 31
0.0
  0
LINE
  5
118
330
1F
100
AcDbEntity
  8
0
  6
Continuous
 62
     7
100
AcDbLine
 10
-51.11950690887907
 20
82.53274348433393
 30
0.0
 11
-50.16888982610214
 21
81.40997381937568
 31
0.0
  0
LINE
  5
119
330
1F
100
AcDbEntity
  8
0
  6
Continuous
 62
     7
100
AcDbLine
 10
-51.1195083454185
 20
84.8660804311296
 30
0.0
 11
-51.1195083454185
 21
82.53274702825752
 31
0.0
  0
LINE
  5
11A
330
1F
100
AcDbEntity
  8
0
  6
Continuous
 62
     7
100
AcDbLine
 10
-50.45102077666792
 20
84.8660804311296
 30
0.0
 11
-51.59544016298781
 21
84.8660804311296
 31
0.0
  0
LINE
  5
11B
330
1F
100
AcDbEntity
  8
0
  6
Continuous
 62
     7
100
AcDbLine
 10
-49.50040836226972
 20
81.40996460547308
 30
0.0
 11
-49.50040836226972
 21
56.07664068967392
 31
0.0
  0
LINE
  5
11C
330
1F
100
AcDbEntity
  8
0
  6
Continuous
 62
     7
100
AcDbLine
 10
-50.16889593102033
 20
81.40996460547308
 30
0.0
 11
-50.16889593102033
 21
56.07664068967392
 31
0.0
  0
LINE
  5
11D
330
1F
100
AcDbEntity
  8
0
  6
Continuous
 62
     7
100
AcDbLine
 10
-49.50040836226975
 20
56.07664068967392
 30
0.0
 11
-50.35408677312802
 21
56.07664068967392
 31
0.0
  0
LINE
  5
11E
330
1F
100
AcDbEntity
  8
0
  6
Continuous
 62
     7
100
AcDbLine
 10
-49.50040836226975
 20
81.40996460547308
 30
0.0
 11
-50.16889593102036
 21
81.40996460547308
 31
0.0
  0
LINE
  5
11F
330
1F
100
AcDbEntity
  8
0
  6
Continuous
 62
     7
100
AcDbLine
 10
-49.68558755019949
 20
56.07664568548
 30
0.0
 11
-50.49538022779224
 21
51.23480888828878
 31
0.0
  0
LINE
  5
120
330
1F
100
AcDbEntity
  8
0
  6
Continuous
 62
     7
100
AcDbLine
 10
-52.21209871001147
 20
50.03482125505639
 30
0.0
 11
-52.21209871001147
 21
44.69941256740299
 31
0.0
  0
LINE
  5
121
330
1F
100
AcDbEntity
  8
0
  6
Continuous
 62
     7
100
AcDbLine
 10
-53.03438470456959
 20
50.03482125505639
 30
0.0
 11
-53.03438470456959
 21
39.50257403361888
 31
0.0
  0
LINE
  5
122
330
1F
100
AcDbEntity
  8
0
  6
Continuous
 62
     7
100
AcDbLine
 10
-43.89459493020367
 20
68.53274912944809
 30
0.0
 11
-43.633667931964
 21
83.48124764620533
 31
0.0
  0
LINE
  5
123
330
1F
100
AcDbEntity
  8
0
  6
Continuous
 62
     7
100
AcDbLine
 10
-51.16387001014067
 20
51.2348113780504
 30
0.0
 11
-50.35407733254792
 21
56.07664817524161
 31
0.0
  0
LINE
  5
124
330
1F
100
AcDbEntity
  8
0
  6
Continuous
 62
     7
100
AcDbLine
 10
-51.21827584940646
 20
48.49369224684181
 30
0.0
 11
-51.16387001933288
 21
51.23481098585699
 31
0.0
  0
LINE
  5
125
330
1F
100
AcDbEntity
  8
0
  6
Continuous
 62
     7
100
AcDbLine
 10
-53.60806432778637
 20
51.3660794327518
 30
0.0
 11
-53.60806432778637
 21
38.46994053930234
 31
0.0
  0
LINE
  5
126
330
1F
100
AcDbEntity
  8
0
  6
Continuous
 62
     7
100
AcDbLine
 10
0.066274023135577
 20
79.94317785928547
 30
0.0
 11
-0.828765879840773
 21
79.94317785928547
 31
0.0
  0
LINE
  5
127
330
1F
100
AcDbEntity
  8
0
  6
Continuous
 62
     7
100
AcDbLine
 10
0.346270009781573
 20
79.1993971227753
 30
0.0
 11
0.066274113720699
 21
79.94315764205598
 31
0.0
  0
LINE
  5
128
330
1F
100
AcDbEntity
  8
0
  6
Continuous
 62
     7
100
AcDbLine
 10
0.066274023135605
 20
85.56269503522367
 30
0.0
 11
0.066274023135605
 21
79.94317785928547
 31
0.0
  0
LINE
  5
129
330
1F
100
AcDbEntity
  8
0
  6
Continuous
 62
     7
100
AcDbLine
 10
0.346262638250749
 20
85.66743136647005
 30
0.0
 11
0.346262638250749
 21
79.19941359558311
 31
0.0
  0
LINE
  5
12A
330
1F
100
AcDbEntity
  8
0
  6
Continuous
 62
     7
100
AcDbLine
 10
1.587900858848172
 20
79.19941359558311
 30
0.0
 11
0.346262638250721
 21
79.19941359558311
 31
0.0
  0
LINE
  5
12B
330
1F
100
AcDbEntity
  8
0
  6
Continuous
 62
     7
100
AcDbLine
 10
-1.973185266160641
 20
84.8660804311296
 30
0.0
 11
-1.973185266160641
 21
82.53274702825752
 31
0.0
  0
LINE
  5
12C
330
1F
100
AcDbEntity
  8
0
  6
Continuous
 62
     7
100
AcDbLine
 10
-1.304697697410035
 20
84.8660804311296
 30
0.0
 11
-1.304697697410035
 21
82.53274702825752
 31
0.0
  0
LINE
  5
12D
330
1F
100
AcDbEntity
  8
0
  6
Continuous
 62
     7
100
AcDbLine
 10
-1.973185266160669
 20
84.8660804311296
 30
0.0
 11
-0.828765879840773
 21
84.8660804311296
 31
0.0
  0
LINE
  5
12E
330
1F
100
AcDbEntity
  8
0
  6
Continuous
 62
     7
100
AcDbLine
 10
-1.973188740763071
 20
82.53274734210243
 30
0.0
 11
-2.923805823540015
 21
81.40997767714418
 31
0.0
  0
LINE
  5
12F
330
1F
100
AcDbEntity
  8
0
  6
Continuous
 62
     7
100
AcDbLine
 10
-1.304689269186795
 20
82.53274763171106
 30
0.0
 11
-2.255306351963732
 21
81.40997796675279
 31
0.0
  0
LINE
  5
130
330
1F
100
AcDbEntity
  8
0
  6
Continuous
 62
     7
100
AcDbLine
 10
-1.973185266160669
 20
82.53274702825752
 30
0.0
 11
-1.304697697410063
 21
82.53274702825752
 31
0.0
  0
LINE
  5
131
330
1F
100
AcDbEntity
  8
0
  6
Continuous
 62
     7
100
AcDbLine
 10
-2.923797680558835
 20
81.40996460547308
 30
0.0
 11
-2.255310111808228
 21
81.40996460547308
 31
0.0
  0
LINE
  5
132
330
1F
100
AcDbEntity
  8
0
  6
Continuous
 62
     7
100
AcDbLine
 10
-50.42632190315432
 20
39.17022005747346
 30
0.0
 11
-47.90563210632661
 21
41.59830725278531
 31
0.0
  0
LINE
  5
133
330
1F
100
AcDbEntity
  8
0
  6
Continuous
 62
     7
100
AcDbLine
 10
-51.42632467491035
 20
40.17021903914569
 30
0.0
 11
-50.96982110982853
 21
41.92522567266181
 31
0.0
  0
LINE
  5
134
330
1F
100
AcDbEntity
  8
0
  6
Continuous
 62
     7
100
AcDbLine
 10
-44.54397586755624
 20
47.3281641772039
 30
0.0
 11
-41.99917953969508
 21
52.22628022110436
 31
0.0
  0
LINE
  5
135
330
1F
100
AcDbEntity
  8
0
  6
Continuous
 62
     7
100
AcDbLine
 10
-17.3387902248079
 20
43.11432231201761
 30
0.0
 11
-16.27551654638756
 21
40.81357809665264
 31
0.0
  0
LINE
  5
136
330
1F
100
AcDbEntity
  8
0
  6
Continuous
 62
     7
100
AcDbLine
 10
-46.00000815520463
 20
44.25067991360204
 30
0.0
 11
-44.5439772408804
 21
47.32816971214702
 31
0.0
  0
LINE
  5
137
330
1F
100
AcDbEntity
  8
0
  6
Continuous
 62
     7
100
AcDbLine
 10
-50.39081865048932
 20
43.52036332203983
 30
0.0
 11
-48.07700763118311
 21
48.41087061664678
 31
0.0
  0
LINE
  5
138
330
1F
100
AcDbEntity
  8
0
  6
Continuous
 62
     7
100
AcDbLine
 10
-43.99887109649742
 20
54.19136745033609
 30
0.0
 11
-48.07700296645175
 21
48.41085900272756
 31
0.0
  0
LINE
  5
139
330
1F
100
AcDbEntity
  8
0
  6
Continuous
 62
     7
100
AcDbLine
 10
-44.39307788779382
 20
47.32816630785533
 30
0.0
 11
-40.37811398233129
 21
47.32816630785533
 31
0.0
  0
LINE
  5
13A
330
1F
100
AcDbEntity
  8
0
  6
Continuous
 62
     7
100
AcDbLine
 10
-41.21210346844913
 20
85.89568251259539
 30
0.0
 11
-49.4757094683045
 21
85.89568251259539
 31
0.0
  0
LINE
  5
13B
330
1F
100
AcDbEntity
  8
0
  6
Continuous
 62
     7
100
AcDbLine
 10
-17.33878631002875
 20
43.11431933982499
 30
0.0
 11
-15.14849897261769
 21
43.11431933982499
 31
0.0
  0
LINE
  5
13C
330
1F
100
AcDbEntity
  8
0
  6
Continuous
 62
     7
100
AcDbLine
 10
0.161600767512994
 20
35.29940821825062
 30
0.0
 11
-26.21210302141429
 21
35.29940821825062
 31
0.0
  0
LINE
  5
13D
330
1F
100
AcDbEntity
  8
0
  6
Continuous
 62
     7
100
AcDbLine
 10
2.494575284843391
 20
37.5920179465937
 30
0.0
 11
2.735002510035071
 21
51.36608518920495
 31
0.0
  0
LINE
  5
13E
330
1F
100
AcDbEntity
  8
0
  6
Continuous
 62
     7
100
AcDbLine
 10
-0.212107332817055
 20
50.03482125505639
 30
0.0
 11
-0.212107332817055
 21
44.69941256740299
 31
0.0
  0
LINE
  5
13F
330
1F
100
AcDbEntity
  8
0
  6
Continuous
 62
     7
100
AcDbLine
 10
0.856000239546841
 20
51.27880229993074
 30
0.0
 11
0.610179883219924
 21
50.03482180843805
 31
0.0
  0
LINE
  5
140
330
1F
100
AcDbEntity
  8
0
  6
Continuous
 62
     7
100
AcDbLine
 10
1.183858179883218
 20
51.36607500470973
 30
0.0
 11
0.855999927622367
 21
51.27880599279172
 31
0.0
  0
LINE
  5
141
330
1F
100
AcDbEntity
  8
0
  6
Continuous
 62
     7
100
AcDbLine
 10
0.61017866174106
 20
50.03482125505639
 30
0.0
 11
0.61017866174106
 21
39.50257403361888
 31
0.0
  0
LINE
  5
142
330
1F
100
AcDbEntity
  8
0
  6
Continuous
 62
     7
100
AcDbLine
 10
1.183858284957836
 20
51.3660794327518
 30
0.0
 11
1.183858284957836
 21
38.46994053930234
 31
0.0
  0
LINE
  5
143
330
1F
100
AcDbEntity
  8
0
  6
Continuous
 62
     7
100
AcDbLine
 10
-8.425326824029725
 20
54.19137240574591
 30
0.0
 11
-4.347194954075395
 21
48.41086395813738
 31
0.0
  0
LINE
  5
144
330
1F
100
AcDbEntity
  8
0
  6
Continuous
 62
     7
100
AcDbLine
 10
-7.88023241349072
 20
47.32816024706405
 30
0.0
 11
-10.42502639640376
 21
52.22627177750782
 31
0.0
  0
LINE
  5
145
330
1F
100
AcDbEntity
  8
0
  6
Continuous
 62
     7
100
AcDbLine
 10
-8.774181466225416
 20
54.52089958235194
 30
0.0
 11
-8.529603671180022
 21
68.53275282534078
 31
0.0
  0
LINE
  5
146
330
1F
100
AcDbEntity
  8
0
  6
Continuous
 62
     7
100
AcDbLine
 10
-48.07700744094282
 20
83.59654914329462
 30
0.0
 11
-48.07700744094282
 21
48.82590805171026
 31
0.0
  0
LINE
  5
147
330
1F
100
AcDbEntity
  8
0
  6
Continuous
 62
     7
100
AcDbLine
 10
-38.90551363733761
 20
40.81358888388809
 30
0.0
 11
-36.14868779020384
 21
40.81358888388809
 31
0.0
  0
LINE
  5
148
330
1F
100
AcDbEntity
  8
0
  6
Continuous
 62
     7
100
AcDbLine
 10
-37.27570619644617
 20
43.11431949865552
 30
0.0
 11
-38.90551840743092
 21
40.81358042948084
 31
0.0
  0
LINE
  5
149
330
1F
100
AcDbEntity
  8
0
  6
Continuous
 62
     7
100
AcDbLine
 10
-26.21210302141429
 20
84.79131236249509
 30
0.0
 11
-38.85721448225235
 21
84.79131236249509
 31
0.0
  0
LINE
  5
14A
330
1F
100
AcDbEntity
  8
0
  6
Continuous
 62
     7
100
AcDbLine
 10
-40.19595727996046
 20
43.52948002512123
 30
0.0
 11
-38.92051605787456
 21
47.60745353726429
 31
0.0
  0
LINE
  5
14B
330
1F
100
AcDbEntity
  8
0
  6
Continuous
 62
     7
100
AcDbLine
 10
-2.033386418747241
 20
43.5203626472916
 30
0.0
 11
-4.347197438053453
 21
48.41086994189855
 31
0.0
  0
LINE
  5
14C
330
1F
100
AcDbEntity
  8
0
  6
Continuous
 62
     7
100
AcDbLine
 10
-8.425326072562969
 20
54.19137641608822
 30
0.0
 11
-8.174996496812959
 21
68.5327489725698
 31
0.0
  0
LINE
  5
14D
330
1F
100
AcDbEntity
  8
0
  6
Continuous
 62
     7
100
AcDbLine
 10
-1.997883130710587
 20
39.17021623229148
 30
0.0
 11
-4.518574759132797
 21
41.59830519191053
 31
0.0
  0
LINE
  5
14E
330
1F
100
AcDbEntity
  8
0
  6
Continuous
 62
     7
100
AcDbLine
 10
-0.997883447026124
 20
40.17021499890037
 30
0.0
 11
-1.454386692006381
 21
41.92522040180096
 31
0.0
  0
LINE
  5
14F
330
1F
100
AcDbEntity
  8
0
  6
Continuous
 62
     7
100
AcDbLine
 10
-6.424196914031949
 20
44.25067923885378
 30
0.0
 11
-7.880227828356169
 21
47.32816903739877
 31
0.0
  0
LINE
  5
150
330
1F
100
AcDbEntity
  8
0
  6
Continuous
 62
     7
100
AcDbLine
 10
-8.031128155034764
 20
47.32816630785533
 30
0.0
 11
-12.0460920604973
 21
47.32816630785533
 31
0.0
  0
LINE
  5
151
330
1F
100
AcDbEntity
  8
0
  6
Continuous
 62
     7
100
AcDbLine
 10
-40.06699235033776
 20
84.62464569086137
 30
0.0
 11
-40.06699235033776
 21
84.23497689669625
 31
0.0
  0
LINE
  5
152
330
1F
100
AcDbEntity
  8
0
  6
Continuous
 62
     7
100
AcDbLine
 10
-39.02388115388604
 20
84.62464569086137
 30
0.0
 11
-39.02388115388604
 21
84.23497689669625
 31
0.0
  0
LINE
  5
153
330
1F
100
AcDbEntity
  8
0
  6
Continuous
 62
     7
100
AcDbLine
 10
-39.19054782551979
 20
84.06831022506253
 30
0.0
 11
-39.90032567870406
 21
84.06831022506253
 31
0.0
  0
LINE
  5
154
330
1F
100
AcDbEntity
  8
0
  6
Continuous
 62
     7
100
AcDbLine
 10
-39.84543472654732
 20
84.95653453538785
 30
0.0
 11
-39.84543472654732
 21
84.45653452048668
 31
0.0
  0
LINE
  5
155
330
1F
100
AcDbEntity
  8
0
  6
Continuous
 62
     7
100
AcDbLine
 10
-39.24543877767647
 20
84.95653453538785
 30
0.0
 11
-39.24543877767647
 21
84.45653452048668
 31
0.0
  0
LINE
  5
156
330
1F
100
AcDbEntity
  8
0
  6
Continuous
 62
     7
100
AcDbLine
 10
-50.4953830701603
 20
51.2348104181288
 30
0.0
 11
-50.54978890023389
 21
48.49369167911362
 31
0.0
  0
LINE
  5
157
330
1F
100
AcDbEntity
  8
0
  6
Continuous
 62
     7
100
AcDbLine
 10
-50.96953926997067
 20
47.99792974834104
 30
0.0
 11
-50.54978451754061
 21
48.4937009270793
 31
0.0
  0
LINE
  5
158
330
1F
100
AcDbEntity
  8
0
  6
Continuous
 62
     7
100
AcDbLine
 10
-51.63803545494608
 20
47.99793288660797
 30
0.0
 11
-51.21828070251602
 21
48.49370406534623
 31
0.0
  0
LINE
  5
159
330
1F
100
AcDbEntity
  8
0
  6
Continuous
 62
     7
100
AcDbLine
 10
-50.49538316405773
 20
51.2348131527981
 30
0.0
 11
-51.16387073280833
 21
51.2348131527981
 31
0.0
  0
LINE
  5
15A
330
1F
100
AcDbEntity
  8
0
  6
Continuous
 62
     7
100
AcDbLine
 10
-49.68558903185107
 20
56.07664068967392
 30
0.0
 11
-50.35408677312802
 21
56.07664068967392
 31
0.0
  0
LINE
  5
15B
330
1F
100
AcDbEntity
  8
0
  6
Continuous
 62
     7
100
AcDbLine
 10
-10.15566545022056
 20
41.28391320751616
 30
0.0
 11
-12.04609118494152
 21
47.32817925394195
 31
0.0
  0
LINE
  5
15C
330
1F
100
AcDbEntity
  8
0
  6
Continuous
 62
     7
100
AcDbLine
 10
-26.21210302141429
 20
52.55579707888523
 30
0.0
 11
-10.77387522570729
 21
52.55579707888523
 31
0.0
  0
LINE
  5
15D
330
1F
100
AcDbEntity
  8
0
  6
Continuous
 62
     7
100
AcDbLine
 10
-4.347198601885708
 20
83.59654914329462
 30
0.0
 11
-4.347198601885708
 21
48.82590805171026
 31
0.0
  0
LINE
  5
15E
330
1F
100
AcDbEntity
  8
0
  6
Continuous
 62
     7
100
AcDbLine
 10
-26.21210302141429
 20
52.22627843299711
 30
0.0
 11
-10.42501860723763
 21
52.22627843299711
 31
0.0
  0
LINE
  5
15F
330
1F
100
AcDbEntity
  8
0
  6
Continuous
 62
     7
100
AcDbLine
 10
-12.04608496537112
 20
47.32817938695766
 30
0.0
 11
-13.50368803563229
 21
47.60745082615779
 31
0.0
  0
LINE
  5
160
330
1F
100
AcDbEntity
  8
0
  6
Continuous
 62
     7
100
AcDbLine
 10
-26.21210302141429
 20
47.60744284612633
 30
0.0
 11
-13.50369301539553
 21
47.60744284612633
 31
0.0
  0
LINE
  5
161
330
1F
100
AcDbEntity
  8
0
  6
Continuous
 62
     7
100
AcDbLine
 10
-15.1484965659439
 20
43.11431756517514
 30
0.0
 11
-13.51868435495916
 21
40.81357849600047
 31
0.0
  0
LINE
  5
162
330
1F
100
AcDbEntity
  8
0
  6
Continuous
 62
     7
100
AcDbLine
 10
-12.22825578813947
 20
43.52946757305524
 30
0.0
 11
-10.15566683375762
 21
41.28389916021247
 31
0.0
  0
LINE
  5
163
330
1F
100
AcDbEntity
  8
0
  6
Continuous
 62
     7
100
AcDbLine
 10
-12.22824846766429
 20
43.52947898952387
 30
0.0
 11
-13.50368968975019
 21
47.60745250166693
 31
0.0
  0
LINE
  5
164
330
1F
100
AcDbEntity
  8
0
  6
Continuous
 62
     7
100
AcDbLine
 10
-13.51868731922781
 20
40.81358888388809
 30
0.0
 11
-16.27551825262475
 21
40.81358888388809
 31
0.0
  0
LINE
  5
165
330
1F
100
AcDbEntity
  8
0
  6
Continuous
 62
     7
100
AcDbLine
 10
-2.738619003717157
 20
56.07664256190763
 30
0.0
 11
-1.928826326124406
 21
51.23480576471642
 31
0.0
  0
LINE
  5
166
330
1F
100
AcDbEntity
  8
0
  6
Continuous
 62
     7
100
AcDbLine
 10
-2.923797680558806
 20
81.40996460547308
 30
0.0
 11
-2.923797680558806
 21
56.07664068967392
 31
0.0
  0
LINE
  5
167
330
1F
100
AcDbEntity
  8
0
  6
Continuous
 62
     7
100
AcDbLine
 10
-2.2553101118082
 20
81.40996460547308
 30
0.0
 11
-2.2553101118082
 21
56.07664068967392
 31
0.0
  0
LINE
  5
168
330
1F
100
AcDbEntity
  8
0
  6
Continuous
 62
     7
100
AcDbLine
 10
-2.923797680558835
 20
56.07664068967392
 30
0.0
 11
-2.070119269700569
 21
56.07664068967392
 31
0.0
  0
LINE
  5
169
330
1F
100
AcDbEntity
  8
0
  6
Continuous
 62
     7
100
AcDbLine
 10
-1.260336543775971
 20
51.23480825447802
 30
0.0
 11
-2.070129221368723
 21
56.07664505166924
 31
0.0
  0
LINE
  5
16A
330
1F
100
AcDbEntity
  8
0
  6
Continuous
 62
     7
100
AcDbLine
 10
-1.928829067972385
 20
51.23481735687159
 30
0.0
 11
-1.8744232378988
 21
48.49369861785642
 31
0.0
  0
LINE
  5
16B
330
1F
100
AcDbEntity
  8
0
  6
Continuous
 62
     7
100
AcDbLine
 10
-1.454664031449635
 20
47.99792525110482
 30
0.0
 11
-1.874422070480176
 21
48.49370031163782
 31
0.0
  0
LINE
  5
16C
330
1F
100
AcDbEntity
  8
0
  6
Continuous
 62
     7
100
AcDbLine
 10
-2.738617010977521
 20
56.07664068967392
 30
0.0
 11
-2.070119269700569
 21
56.07664068967392
 31
0.0
  0
LINE
  5
16D
330
1F
100
AcDbEntity
  8
0
  6
Continuous
 62
     7
100
AcDbLine
 10
-1.928822878770859
 20
51.2348131527981
 30
0.0
 11
-1.260335310020253
 21
51.2348131527981
 31
0.0
  0
LINE
  5
16E
330
1F
100
AcDbEntity
  8
0
  6
Continuous
 62
     7
100
AcDbLine
 10
-1.8744202078787
 20
48.49370385886709
 30
0.0
 11
-1.205922466601749
 21
48.49370385886709
 31
0.0
  0
LINE
  5
16F
330
1F
100
AcDbEntity
  8
0
  6
Continuous
 62
     7
100
AcDbLine
 10
-1.205936288726197
 20
48.49369918558458
 30
0.0
 11
-1.260342118799783
 21
51.23481792459977
 31
0.0
  0
LINE
  5
170
330
1F
100
AcDbEntity
  8
0
  6
Continuous
 62
     7
100
AcDbLine
 10
-0.786171133074724
 20
47.99793227116658
 30
0.0
 11
-1.205922598904319
 21
48.4936995681101
 31
0.0
  0
LINE
  5
171
330
1F
100
AcDbEntity
  8
0
  6
Continuous
 62
     7
100
AcDbLine
 10
-50.45102077666792
 20
82.53274702825752
 30
0.0
 11
-51.11950834541852
 21
82.53274702825752
 31
0.0
  0
LINE
  5
172
330
1F
100
AcDbEntity
  8
0
  6
Continuous
 62
     7
100
AcDbLine
 10
-51.63803253079359
 20
47.99793561492538
 30
0.0
 11
-51.63803253079359
 21
44.69941256740299
 31
0.0
  0
LINE
  5
173
330
1F
100
AcDbEntity
  8
0
  6
Continuous
 62
     7
100
AcDbLine
 10
-50.96954496204299
 20
47.99793561492538
 30
0.0
 11
-50.96954496204299
 21
44.69941256740299
 31
0.0
  0
LINE
  5
174
330
1F
100
AcDbEntity
  8
0
  6
Continuous
 62
     7
100
AcDbLine
 10
-50.96954496204302
 20
47.99793561492538
 30
0.0
 11
-51.63803253079362
 21
47.99793561492538
 31
0.0
  0
LINE
  5
175
330
1F
100
AcDbEntity
  8
0
  6
Continuous
 62
     7
100
AcDbLine
 10
-46.71124914014894
 20
39.17021725288055
 30
0.0
 11
-50.42633205522901
 21
39.17021725288055
 31
0.0
  0
LINE
  5
176
330
1F
100
AcDbEntity
  8
0
  6
Continuous
 62
     7
100
AcDbLine
 10
-42.63928580088714
 20
84.88624227500773
 30
0.0
 11
-46.72946718267902
 21
84.9298213749897
 31
0.0
  0
LINE
  5
177
330
1F
100
AcDbEntity
  8
0
  6
Continuous
 62
     7
100
AcDbLine
 10
-44.24920228210578
 20
68.53274281124206
 30
0.0
 11
-43.98661692891946
 21
83.57624842434277
 31
0.0
  0
LINE
  5
178
330
1F
100
AcDbEntity
  8
0
  6
Continuous
 62
     7
100
AcDbLine
 10
-50.54978583494989
 20
48.49370385886709
 30
0.0
 11
-51.21828357622684
 21
48.49370385886709
 31
0.0
  0
LINE
  5
179
330
1F
100
AcDbEntity
  8
0
  6
Continuous
 62
     7
100
AcDbLine
 10
-53.28019838886665
 20
51.27881207774673
 30
0.0
 11
-53.03437815579206
 21
50.03483220997574
 31
0.0
  0
LINE
  5
17A
330
1F
100
AcDbEntity
  8
0
  6
Continuous
 62
     7
100
AcDbLine
 10
-52.2120987100115
 20
50.03482125505639
 30
0.0
 11
-53.03438470456962
 21
50.03482125505639
 31
0.0
  0
LINE
  5
17B
330
1F
100
AcDbEntity
  8
0
  6
Continuous
 62
     7
100
AcDbLine
 10
-53.60806216201289
 20
51.36607149354842
 30
0.0
 11
-53.28020390975204
 21
51.27880248163041
 31
0.0
  0
LINE
  5
17C
330
1F
100
AcDbEntity
  8
0
  6
Continuous
 62
     7
100
AcDbLine
 10
-51.59544016298779
 20
84.8660804311296
 30
0.0
 11
-51.59544016298779
 21
79.94317785928547
 31
0.0
  0
LINE
  5
17D
330
1F
100
AcDbEntity
  8
0
  6
Continuous
 62
     7
100
AcDbLine
 10
-50.96954496204302
 20
44.69941256740299
 30
0.0
 11
-52.2120987100115
 21
44.69941256740299
 31
0.0
  0
LINE
  5
17E
330
1F
100
AcDbEntity
  8
0
  6
Continuous
 62
     7
100
AcDbLine
 10
-52.77046868107928
 20
85.66743136647005
 30
0.0
 11
-52.77046868107928
 21
79.19941359558311
 31
0.0
  0
LINE
  5
17F
330
1F
100
AcDbEntity
  8
0
  6
Continuous
 62
     7
100
AcDbLine
 10
-26.21210302141429
 20
36.4699404796977
 30
0.0
 11
-51.60806426818175
 21
36.4699404796977
 31
0.0
  0
LINE
  5
180
330
1F
100
AcDbEntity
  8
0
  6
Continuous
 62
     7
100
AcDbLine
 10
-26.21210302141429
 20
39.17021725288055
 30
0.0
 11
-45.71295809477255
 21
39.17021725288055
 31
0.0
  0
LINE
  5
181
330
1F
100
AcDbEntity
  8
0
  6
Continuous
 62
     7
100
AcDbLine
 10
-26.21210302141429
 20
37.50257397401424
 30
0.0
 11
-51.03438464496497
 21
37.50257397401424
 31
0.0
  0
LINE
  5
182
330
1F
100
AcDbEntity
  8
0
  6
Continuous
 62
     7
100
AcDbLine
 10
-51.42633208503131
 20
44.69941256740299
 30
0.0
 11
-51.42633208503131
 21
40.17021728268287
 31
0.0
  0
LINE
  5
183
330
1F
100
AcDbEntity
  8
0
  6
Continuous
 62
     7
100
AcDbLine
 10
-35.08541973279983
 20
43.11431933982499
 30
0.0
 11
-37.2757070702109
 21
43.11431933982499
 31
0.0
  0
LINE
  5
184
330
1F
100
AcDbEntity
  8
0
  6
Continuous
 62
     7
100
AcDbLine
 10
-35.08540944821171
 20
43.11431665567638
 30
0.0
 11
-36.14867885914737
 21
40.8135816744257
 31
0.0
  0
LINE
  5
185
330
1F
100
AcDbEntity
  8
0
  6
Continuous
 62
     7
100
AcDbLine
 10
-39.41210544931022
 20
84.28986784885296
 30
0.0
 11
-39.67876805491363
 21
84.28986784885296
 31
0.0
  0
LINE
  5
186
330
1F
100
AcDbEntity
  8
0
  6
Continuous
 62
     7
100
AcDbLine
 10
-40.2336590219715
 20
84.79131236249509
 30
0.0
 11
-42.30054344229342
 21
84.79131236249509
 31
0.0
  0
LINE
  5
187
330
1F
100
AcDbEntity
  8
0
  6
Continuous
 62
     7
100
AcDbLine
 10
-40.19594701523871
 20
43.52947311891262
 30
0.0
 11
-42.26853941931289
 21
41.28390096846422
 31
0.0
  0
LINE
  5
188
330
1F
100
AcDbEntity
  8
0
  6
Continuous
 62
     7
100
AcDbLine
 10
-54.91877928350319
 20
37.59202142939047
 30
0.0
 11
-55.15920632006387
 21
51.36607786533863
 31
0.0
  0
LINE
  5
189
330
1F
100
AcDbEntity
  8
0
  6
Continuous
 62
     7
100
AcDbLine
 10
-52.34544018533956
 20
87.86608052053657
 30
0.0
 11
-26.21210302141429
 21
87.86608052053657
 31
0.0
  0
LINE
  5
18A
330
1F
100
AcDbEntity
  8
0
  6
Continuous
 62
     7
100
AcDbLine
 10
-5.712951816416478
 20
39.17021725288055
 30
0.0
 11
-1.997873987599576
 21
39.17021725288055
 31
0.0
  0
LINE
  5
18B
330
1F
100
AcDbEntity
  8
0
  6
Continuous
 62
     7
100
AcDbLine
 10
-1.45466108078557
 20
47.99793561492538
 30
0.0
 11
-0.786173512034964
 21
47.99793561492538
 31
0.0
  0
LINE
  5
18C
330
1F
100
AcDbEntity
  8
0
  6
Continuous
 62
     7
100
AcDbLine
 10
-1.454661080785542
 20
47.99793561492538
 30
0.0
 11
-1.454661080785542
 21
44.69941256740299
 31
0.0
  0
LINE
  5
18D
330
1F
100
AcDbEntity
  8
0
  6
Continuous
 62
     7
100
AcDbLine
 10
-0.997873957797225
 20
44.69941256740299
 30
0.0
 11
-0.997873957797225
 21
40.17021728268287
 31
0.0
  0
LINE
  5
18E
330
1F
100
AcDbEntity
  8
0
  6
Continuous
 62
     7
100
AcDbLine
 10
-26.21210302141429
 20
37.50257397401424
 30
0.0
 11
-1.389821397863614
 21
37.50257397401424
 31
0.0
  0
LINE
  5
18F
330
1F
100
AcDbEntity
  8
0
  6
Continuous
 62
     7
100
AcDbLine
 10
-26.21210302141429
 20
39.17021725288055
 30
0.0
 11
-6.711242861792869
 21
39.17021725288055
 31
0.0
  0
LINE
  5
190
330
1F
100
AcDbEntity
  8
0
  6
Continuous
 62
     7
100
AcDbLine
 10
-1.45466108078557
 20
44.69941256740299
 30
0.0
 11
-0.212107332817084
 21
44.69941256740299
 31
0.0
  0
LINE
  5
191
330
1F
100
AcDbEntity
  8
0
  6
Continuous
 62
     7
100
AcDbLine
 10
-0.212107332817084
 20
50.03482125505639
 30
0.0
 11
0.610178661741031
 21
50.03482125505639
 31
0.0
  0
LINE
  5
192
330
1F
100
AcDbEntity
  8
0
  6
Continuous
 62
     7
100
AcDbLine
 10
2.735015964649449
 20
51.3660794327518
 30
0.0
 11
1.183858284957807
 21
51.3660794327518
 31
0.0
  0
LINE
  5
193
330
1F
100
AcDbEntity
  8
0
  6
Continuous
 62
     7
100
AcDbLine
 10
-26.21210302141429
 20
36.4699404796977
 30
0.0
 11
-0.816141774646837
 21
36.4699404796977
 31
0.0
  0
LINE
  5
194
330
1F
100
AcDbEntity
  8
0
  6
Continuous
 62
     7
100
AcDbLine
 10
-40.37811824518558
 20
47.32817521481344
 30
0.0
 11
-38.92051517492441
 21
47.60744665401357
 31
0.0
  0
LINE
  5
195
330
1F
100
AcDbEntity
  8
0
  6
Continuous
 62
     7
100
AcDbLine
 10
-0.786173512034935
 20
47.99793561492538
 30
0.0
 11
-0.786173512034935
 21
44.69941256740299
 31
0.0
  0
LINE
  5
196
330
1F
100
AcDbEntity
  8
0
  6
CENTER
 62
     7
100
AcDbLine
 10
4.121226129659647
 20
70.19941332736221
 30
0.0
 11
-26.21210302141429
 21
70.19941332736221
 31
0.0
  0
LINE
  5
197
330
1F
100
AcDbEntity
  8
0
  6
Continuous
 62
     7
100
AcDbLine
 10
-26.21210302141429
 20
52.55579707888523
 30
0.0
 11
-41.65032573085813
 21
52.55579707888523
 31
0.0
  0
LINE
  5
198
330
1F
100
AcDbEntity
  8
0
  6
Continuous
 62
     7
100
AcDbLine
 10
-26.21210302141429
 20
52.22627843299711
 30
0.0
 11
-41.99918234932778
 21
52.22627843299711
 31
0.0
  0
LINE
  5
199
330
1F
100
AcDbEntity
  8
0
  6
Continuous
 62
     7
100
AcDbLine
 10
-54.01210690167673
 20
86.19941380419937
 30
0.0
 11
-54.01210690167673
 21
79.19941359558311
 31
0.0
  0
LINE
  5
19A
330
1F
100
AcDbEntity
  8
0
  6
CENTER
 62
     7
100
AcDbLine
 10
-56.54543217248823
 20
70.19941332736221
 30
0.0
 11
-26.21210302141429
 21
70.19941332736221
 31
0.0
  0
LINE
  5
19B
330
1F
100
AcDbEntity
  8
0
  6
Continuous
 62
     7
100
AcDbLine
 10
-55.15922200747804
 20
51.3660794327518
 30
0.0
 11
-53.60806432778639
 21
51.3660794327518
 31
0.0
  0
LINE
  5
19C
330
1F
100
AcDbEntity
  8
0
  6
Continuous
 62
     7
100
AcDbLine
 10
-0.078765857489032
 20
87.86608052053657
 30
0.0
 11
-26.21210302141429
 21
87.86608052053657
 31
0.0
  0
LINE
  5
19D
330
1F
100
AcDbEntity
  8
0
  6
Continuous
 62
     7
100
AcDbLine
 10
1.587900858848201
 20
86.19941380419937
 30
0.0
 11
1.587900858848201
 21
79.19941359558311
 31
0.0
  0
LINE
  5
19E
330
1F
100
AcDbEntity
  8
0
  6
Continuous
 62
     7
100
AcDbLine
 10
-0.828765879840745
 20
84.8660804311296
 30
0.0
 11
-0.828765879840745
 21
79.94317785928547
 31
0.0
  0
LINE
  5
19F
330
1F
100
AcDbEntity
  8
0
  6
Continuous
 62
     7
100
AcDbLine
 10
-8.529603971871706
 20
68.5327520653263
 30
0.0
 11
-8.790530970111375
 21
83.48125058208355
 31
0.0
  0
LINE
  5
1A0
330
1F
100
AcDbEntity
  8
0
  6
Continuous
 62
     7
100
AcDbLine
 10
-8.174996619969562
 20
68.53274574712033
 30
0.0
 11
-8.437581973155886
 21
83.57625136022105
 31
0.0
  0
LINE
  5
1A1
330
1F
100
AcDbEntity
  8
0
  6
Continuous
 62
     7
100
AcDbLine
 10
-9.784912159739827
 20
84.88623652092957
 30
0.0
 11
-5.694730777947937
 21
84.92981562091153
 31
0.0
  0
LINE
  5
1A2
330
1F
100
AcDbEntity
  8
0
  6
Continuous
 62
     7
100
AcDbLine
 10
-11.21209748811629
 20
85.89568251259539
 30
0.0
 11
-2.948496574524086
 21
85.89568251259539
 31
0.0
  0
LINE
  5
1A3
330
1F
100
AcDbEntity
  8
0
  6
Continuous
 62
     7
100
AcDbLine
 10
-12.19054193459391
 20
84.79131236249509
 30
0.0
 11
-10.123657514272
 21
84.79131236249509
 31
0.0
  0
LINE
  5
1A4
330
1F
100
AcDbEntity
  8
0
  6
Continuous
 62
     7
100
AcDbLine
 10
-26.21210302141429
 20
84.79131236249509
 30
0.0
 11
-13.56698647431307
 21
84.79131236249509
 31
0.0
  0
LINE
  5
1A5
330
1F
100
AcDbEntity
  8
0
  6
Continuous
 62
     7
100
AcDbLine
 10
-12.3572086062276
 20
84.62464569086137
 30
0.0
 11
-12.3572086062276
 21
84.23497689669625
 31
0.0
  0
LINE
  5
1A6
330
1F
100
AcDbEntity
  8
0
  6
Continuous
 62
     7
100
AcDbLine
 10
-13.40031980267932
 20
84.62464569086137
 30
0.0
 11
-13.40031980267932
 21
84.23497689669625
 31
0.0
  0
LINE
  5
1A7
330
1F
100
AcDbEntity
  8
0
  6
Continuous
 62
     7
100
AcDbLine
 10
-13.23365313104563
 20
84.06831022506253
 30
0.0
 11
-12.52387527786135
 21
84.06831022506253
 31
0.0
  0
LINE
  5
1A8
330
1F
100
AcDbEntity
  8
0
  6
Continuous
 62
     7
100
AcDbLine
 10
-12.57876623001803
 20
84.95653453538785
 30
0.0
 11
-12.57876623001803
 21
84.45653452048668
 31
0.0
  0
LINE
  5
1A9
330
1F
100
AcDbEntity
  8
0
  6
Continuous
 62
     7
100
AcDbLine
 10
-13.17876217888889
 20
84.95653453538785
 30
0.0
 11
-13.17876217888889
 21
84.45653452048668
 31
0.0
  0
LINE
  5
1AA
330
1F
100
AcDbEntity
  8
0
  6
Continuous
 62
     7
100
AcDbLine
 10
-13.0120955072552
 20
84.28986784885296
 30
0.0
 11
-12.74543290165178
 21
84.28986784885296
 31
0.0
  0
LINE
  5
1AB
330
1F
100
AcDbEntity
  8
0
  6
Continuous
 62
     7
100
AcDbLine
 10
-26.21210302141429
 20
85.89568251259539
 30
0.0
 11
-12.87876420445349
 21
85.89568251259539
 31
0.0
  0
LINE
  5
1AC
330
1F
100
AcDbEntity
  8
0
  6
Continuous
 62
     7
100
AcDbLine
 10
-26.21210302141429
 20
86.89602840829343
 30
0.0
 11
-1.267059349934186
 21
86.89602840829343
 31
0.0
  0
LINE
  5
1AD
330
1F
100
AcDbEntity
  8
0
  6
Continuous
 62
     7
100
AcDbLine
 10
-26.21210302141429
 20
87.00076473953982
 30
0.0
 11
-0.987070734819042
 21
87.00076473953982
 31
0.0
  0
LINE
  5
1AE
330
1F
100
AcDbEntity
  8
0
  6
Continuous
 62
     7
100
AcDbLine
 10
-52.58580681034158
 20
35.29940821825062
 30
0.0
 11
-26.21210302141429
 21
35.29940821825062
 31
0.0
  0
LINE
  5
1AF
330
1F
100
AcDbEntity
  8
0
  6
CENTER
 62
     7
100
AcDbLine
 10
-26.21210302141429
 20
68.532746611025
 30
0.0
 11
-45.91587456403607
 21
68.532746611025
 31
0.0
  0
LINE
  5
1B0
330
1F
100
AcDbEntity
  8
0
  6
CENTER
 62
     7
100
AcDbLine
 10
-26.21210302141426
 20
89.53274723687377
 30
0.0
 11
-26.21210302141426
 21
50.03274605968204
 31
0.0
  0
LINE
  5
1B1
330
1F
100
AcDbEntity
  8
0
  6
CENTER
 62
     7
100
AcDbLine
 10
-26.21210302141429
 20
68.532746611025
 30
0.0
 11
-6.508331478792513
 21
68.532746611025
 31
0.0
  0
LINE
  5
1B2
330
1F
100
AcDbEntity
  8
0
  6
Continuous
 62
     7
100
AcDbLine
 10
43.84417721813044
 20
-30.37020598203368
 30
0.0
 11
44.23178627789648
 21
-34.80059782111808
 31
0.0
  0
LINE
  5
1B3
330
1F
100
AcDbEntity
  8
0
  6
Continuous
 62
     7
100
AcDbLine
 10
47.76469503614189
 20
-34.80059664151463
 30
0.0
 11
44.23178945752861
 21
-34.80059664151463
 31
0.0
  0
LINE
  5
1B4
330
1F
100
AcDbEntity
  8
0
  6
CENTER
 62
     7
100
AcDbLine
 10
60.35456520788751
 20
-71.13392421803252
 30
0.0
 11
60.35456520788743
 21
-48.96321773372028
 31
0.0
  0
LINE
  5
1B5
330
1F
100
AcDbEntity
  8
0
  6
Continuous
 62
     7
100
AcDbLine
 10
-35.92877238972576
 20
-69.46725750169549
 30
0.0
 11
-16.4954374599813
 21
-69.46725750169549
 31
0.0
  0
LINE
  5
1B6
330
1F
100
AcDbEntity
  8
0
  6
Continuous
 62
     7
100
AcDbLine
 10
-16.32579970627236
 20
-69.29760809506645
 30
0.0
 11
-16.28356021166572
 21
-66.88392271980624
 31
0.0
  0
LINE
  5
1B7
330
1F
100
AcDbEntity
  8
0
  6
Continuous
 62
     7
100
AcDbLine
 10
-16.49542725877675
 20
-69.46724305571193
 30
0.0
 11
-16.32580046219782
 21
-69.29761625913301
 31
0.0
  0
LINE
  5
1B8
330
1F
100
AcDbEntity
  8
0
  6
Continuous
 62
     7
100
AcDbLine
 10
-35.92877188396572
 20
-69.46725114790712
 30
0.0
 11
-36.09840587360701
 21
-69.29761715826584
 31
0.0
  0
LINE
  5
1B9
330
1F
100
AcDbEntity
  8
0
  6
Continuous
 62
     7
100
AcDbLine
 10
-36.09840609349961
 20
-69.2976161814216
 30
0.0
 11
-36.1406457660982
 21
-66.88392063519235
 31
0.0
  0
LINE
  5
1BA
330
1F
100
AcDbEntity
  8
0
  6
Continuous
 62
     7
100
AcDbLine
 10
-36.09835857642045
 20
-69.30059083006176
 30
0.0
 11
-16.32877333147917
 21
-69.30059083006176
 31
0.0
  0
LINE
  5
1BB
330
1F
100
AcDbEntity
  8
0
  6
Continuous
 62
    71
100
AcDbLine
 10
-14.0205317364024
 20
-66.88392154824123
 30
0.0
 11
-38.40367048390991
 21
-66.88392154824123
 31
0.0
  0
LINE
  5
1BC
330
1F
100
AcDbEntity
  8
0
  6
Continuous
 62
    71
100
AcDbLine
 10
-38.73690750186864
 20
-66.55891944867045
 30
0.0
 11
-38.87878236829697
 21
-60.8839244531754
 31
0.0
  0
LINE
  5
1BD
330
1F
100
AcDbEntity
  8
0
  6
Continuous
 62
    71
100
AcDbLine
 10
-13.68729834043444
 20
-66.55892475340073
 30
0.0
 11
-13.54542334688925
 21
-60.88392467323123
 31
0.0
  0
LINE
  5
1BE
330
1F
100
AcDbEntity
  8
0
  6
Continuous
 62
    71
100
AcDbLine
 10
-13.54542389346705
 20
-60.8839213694273
 30
0.0
 11
-38.87876879010182
 21
-60.8839213694273
 31
0.0
  0
LINE
  5
1BF
330
1F
100
AcDbEntity
  8
0
  6
Continuous
 62
     7
100
AcDbLine
 10
50.63789583957602
 20
-69.46725623012969
 30
0.0
 11
70.07123076932048
 21
-69.46725623012969
 31
0.0
  0
LINE
  5
1C0
330
1F
100
AcDbEntity
  8
0
  6
Continuous
 62
     7
100
AcDbLine
 10
70.24086852302942
 20
-69.29760682350066
 30
0.0
 11
70.28310801763605
 21
-66.88392144824044
 31
0.0
  0
LINE
  5
1C1
330
1F
100
AcDbEntity
  8
0
  6
Continuous
 62
     7
100
AcDbLine
 10
70.07124097052504
 20
-69.46724178414614
 30
0.0
 11
70.24086776710396
 21
-69.29761498756721
 31
0.0
  0
LINE
  5
1C2
330
1F
100
AcDbEntity
  8
0
  6
Continuous
 62
     7
100
AcDbLine
 10
50.63789634533607
 20
-69.46724987634133
 30
0.0
 11
50.46826235569478
 21
-69.29761588670003
 31
0.0
  0
LINE
  5
1C3
330
1F
100
AcDbEntity
  8
0
  6
Continuous
 62
     7
100
AcDbLine
 10
50.46826213580217
 20
-69.2976149098558
 30
0.0
 11
50.42602246320358
 21
-66.88391936362655
 31
0.0
  0
LINE
  5
1C4
330
1F
100
AcDbEntity
  8
0
  6
Continuous
 62
     7
100
AcDbLine
 10
50.46830965288133
 20
-69.30058955849597
 30
0.0
 11
70.23789489782261
 21
-69.30058955849597
 31
0.0
  0
LINE
  5
1C5
330
1F
100
AcDbEntity
  8
0
  6
Continuous
 62
    71
100
AcDbLine
 10
72.54613649289938
 20
-66.88392027667544
 30
0.0
 11
48.16299774539188
 21
-66.88392027667544
 31
0.0
  0
LINE
  5
1C6
330
1F
100
AcDbEntity
  8
0
  6
Continuous
 62
    71
100
AcDbLine
 10
47.82976072743314
 20
-66.55891817710464
 30
0.0
 11
47.68788586100481
 21
-60.88392318160962
 31
0.0
  0
LINE
  5
1C7
330
1F
100
AcDbEntity
  8
0
  6
Continuous
 62
    71
100
AcDbLine
 10
72.87936988886734
 20
-66.55892348183492
 30
0.0
 11
73.02124488241253
 21
-60.88392340166543
 31
0.0
  0
LINE
  5
1C8
330
1F
100
AcDbEntity
  8
0
  6
Continuous
 62
    71
100
AcDbLine
 10
73.02124433583474
 20
-60.88392009786151
 30
0.0
 11
47.68789943919997
 21
-60.88392009786151
 31
0.0
  0
LINE
  5
1C9
330
1F
100
AcDbEntity
  8
0
  6
Continuous
 62
     7
100
AcDbLine
 10
47.68789816372473
 20
-60.80058930517623
 30
0.0
 11
47.68789816372473
 21
-60.46028656456775
 31
0.0
  0
LINE
  5
1CA
330
1F
100
AcDbEntity
  8
0
  6
Continuous
 62
     7
100
AcDbLine
 10
73.02123225205021
 20
-60.80058930517623
 30
0.0
 11
73.02123225205021
 21
-60.46028663629473
 31
0.0
  0
ARC
  5
1CB
330
1F
100
AcDbEntity
  8
0
  6
Continuous
 62
     7
100
AcDbCircle
 10
-54.36612099100323
 20
-3.300588863108487
 30
0.0
 40
0.1666666716337204
100
AcDbArc
 50
4.513988352644095
 51
90.00000250447816
  0
ARC
  5
1CC
330
1F
100
AcDbEntity
  8
0
  6
Continuous
 62
     7
100
AcDbCircle
 10
-52.97410231345013
 20
-10.46725574335846
 30
0.0
 40
1.000000029802322
100
AcDbArc
 50
4.23639495062279
 51
90.00000250447816
  0
ARC
  5
1CD
330
1F
100
AcDbEntity
  8
0
  6
Continuous
 62
     7
100
AcDbCircle
 10
-53.25002191802734
 20
-8.96725569865498
 30
0.0
 40
0.5000000149011612
100
AcDbArc
 50
184.513985051235
 51
269.9999974955218
  0
ARC
  5
1CE
330
1F
100
AcDbEntity
  8
0
  6
Continuous
 62
     7
100
AcDbCircle
 10
-26.21210302141426
 20
-27.8005870501338
 30
0.0
 40
12.00000035762787
100
AcDbArc
 50
90.00000250447816
 51
143.5162763497664
  0
ARC
  5
1CF
330
1F
100
AcDbEntity
  8
0
  6
Continuous
 62
     7
100
AcDbCircle
 10
-42.19816713715902
 20
-20.48119240247411
 30
0.0
 40
3.666666775941849
100
AcDbArc
 50
279.5824250519696
 51
350.608326820466
  0
ARC
  5
1D0
330
1F
100
AcDbEntity
  8
0
  6
Continuous
 62
     7
100
AcDbCircle
 10
-26.21210302141426
 20
-27.8005870501338
 30
0.0
 40
10.00000029802322
100
AcDbArc
 50
90.00000250447816
 51
148.9270702479805
  0
ARC
  5
1D1
330
1F
100
AcDbEntity
  8
0
  6
Continuous
 62
     7
100
AcDbCircle
 10
-42.19816713715902
 20
-20.48119240247411
 30
0.0
 40
5.666666835546494
100
AcDbArc
 50
297.0573889113663
 51
333.7606671712371
  0
ARC
  5
1D2
330
1F
100
AcDbEntity
  8
0
  6
Continuous
 62
     7
100
AcDbCircle
 10
42.50949479080904
 20
-2.133922161672444
 30
0.0
 40
0.6666666865348816
100
AcDbArc
 50
359.0000000077464
 51
90.00000250447816
  0
ARC
  5
1D3
330
1F
100
AcDbEntity
  8
0
  6
Continuous
 62
     7
100
AcDbCircle
 10
27.36681067456422
 20
-2.968613552108081
 30
0.0
 40
0.1666666716337204
100
AcDbArc
 50
183.00000531981
 51
269.5058196486931
  0
ARC
  5
1D4
330
1F
100
AcDbEntity
  8
0
  6
Continuous
 62
     7
100
AcDbCircle
 10
30.06480244401686
 20
-9.800589056823583
 30
0.0
 40
0.3333333432674408
100
AcDbArc
 50
7.999999938029066
 51
90.00000250447816
  0
ARC
  5
1D5
330
1F
100
AcDbEntity
  8
0
  6
Continuous
 62
     7
100
AcDbCircle
 10
29.12186901544325
 20
-8.96725569865498
 30
0.0
 40
0.5000000149011612
100
AcDbArc
 50
188.0878815344442
 51
269.9999974955218
  0
ARC
  5
1D6
330
1F
100
AcDbEntity
  8
0
  6
Continuous
 62
     7
100
AcDbCircle
 10
27.49894289082303
 20
-3.469773235012553
 30
0.0
 40
0.3333333432674408
100
AcDbArc
 50
8.08787971321139
 51
89.5058246576494
  0
ARC
  5
1D7
330
1F
100
AcDbEntity
  8
0
  6
Continuous
 62
     7
100
AcDbCircle
 10
41.05464804741868
 20
-4.233923241509956
 30
0.0
 40
0.5000000149011612
100
AcDbArc
 50
213.8405087433303
 51
269.9999974955218
  0
ARC
  5
1D8
330
1F
100
AcDbEntity
  8
0
  6
Continuous
 62
     7
100
AcDbCircle
 10
40.46769836358507
 20
-7.800588997218938
 30
0.0
 40
1.666666716337204
100
AcDbArc
 50
269.9999974955218
 51
331.2412528581349
  0
ARC
  5
1D9
330
1F
100
AcDbEntity
  8
0
  6
Continuous
 62
     7
100
AcDbCircle
 10
41.44139732652283
 20
-6.026408849943209
 30
0.0
 40
1.666666716337204
100
AcDbArc
 50
331.2412528581349
 51
359.0000000077464
  0
ARC
  5
1DA
330
1F
100
AcDbEntity
  8
0
  6
Continuous
 62
     7
100
AcDbCircle
 10
40.38340626716021
 20
-8.3005890121201
 30
0.0
 40
1.500000044703484
100
AcDbArc
 50
269.9999974955218
 51
331.2412528581349
  0
ARC
  5
1DB
330
1F
100
AcDbEntity
  8
0
  6
Continuous
 62
     7
100
AcDbCircle
 10
76.18789901309091
 20
-21.46725607118401
 30
0.0
 40
0.5000000149011612
100
AcDbArc
 50
269.9999974955218
 51
0.0
  0
ARC
  5
1DC
330
1F
100
AcDbEntity
  8
0
  6
Continuous
 62
     7
100
AcDbCircle
 10
79.45986159432695
 20
-14.30058919093403
 30
0.0
 40
0.1666666716337204
100
AcDbArc
 50
269.9999974955218
 51
356.9999999165174
  0
ARC
  5
1DD
330
1F
100
AcDbEntity
  8
0
  6
Continuous
 62
     7
100
AcDbCircle
 10
70.78824573530673
 20
-32.13392051261053
 30
0.0
 40
2.666666746139526
100
AcDbArc
 50
269.9999974955218
 51
355.0000001454536
  0
ARC
  5
1DE
330
1F
100
AcDbEntity
  8
0
  6
Continuous
 62
     7
100
AcDbCircle
 10
74.66001098741307
 20
-22.30058942935261
 30
0.0
 40
0.3333333432674408
100
AcDbArc
 50
90.00000250447816
 51
175.0000060081835
  0
ARC
  5
1DF
330
1F
100
AcDbEntity
  8
0
  6
Continuous
 62
     7
100
AcDbCircle
 10
75.0518719610055
 20
-14.8543560938308
 30
0.0
 40
4.00000011920929
100
AcDbArc
 50
181.0000029874252
 51
229.7001533545866
  0
ARC
  5
1E0
330
1F
100
AcDbEntity
  8
0
  6
Continuous
 62
     7
100
AcDbCircle
 10
73.54270138380215
 20
-16.63392259380612
 30
0.0
 40
1.666666716337204
100
AcDbArc
 50
229.7001533545866
 51
269.9999974955218
  0
ARC
  5
1E1
330
1F
100
AcDbEntity
  8
0
  6
Continuous
 62
     7
100
AcDbCircle
 10
79.20491773907278
 20
-17.63392262360844
 30
0.0
 40
0.1666666716337204
100
AcDbArc
 50
269.9999974955218
 51
358.4999999582587
  0
ARC
  5
1E2
330
1F
100
AcDbEntity
  8
0
  6
Continuous
 62
     7
100
AcDbCircle
 10
78.95645378310027
 20
-20.75565733578401
 30
0.0
 40
0.6666666865348816
100
AcDbArc
 50
134.2500045896202
 51
178.4999998445732
  0
ARC
  5
1E3
330
1F
100
AcDbEntity
  8
0
  6
Continuous
 62
     7
100
AcDbCircle
 10
78.32211538528927
 20
-19.51218297418131
 30
0.0
 40
0.6666666865348816
100
AcDbArc
 50
314.2499995806639
 51
358.4999999582587
  0
ARC
  5
1E4
330
1F
100
AcDbEntity
  8
0
  6
Continuous
 62
     7
100
AcDbCircle
 10
79.19618971146892
 20
-17.96725596687588
 30
0.0
 40
0.1666666716337204
100
AcDbArc
 50
90.00000250447816
 51
178.4999998445732
  0
ARC
  5
1E5
330
1F
100
AcDbEntity
  8
0
  6
Continuous
 62
     7
100
AcDbCircle
 10
48.56512851620286
 20
-34.13392057221517
 30
0.0
 40
0.6666666865348816
100
AcDbArc
 50
179.999991348578
 51
270.0000006832453
  0
ARC
  5
1E6
330
1F
100
AcDbEntity
  8
0
  6
Continuous
 62
     7
100
AcDbCircle
 10
47.67852672382955
 20
-28.30207225388131
 30
0.0
 40
4.00000011920929
100
AcDbArc
 50
184.9999939918165
 51
268.5004499538131
  0
ARC
  5
1E7
330
1F
100
AcDbEntity
  8
0
  6
Continuous
 62
     7
100
AcDbCircle
 10
47.56512848640054
 20
-32.63392052751169
 30
0.0
 40
0.3333333432674408
100
AcDbArc
 50
0.0
 51
88.5004481325802
  0
ARC
  5
1E8
330
1F
100
AcDbEntity
  8
0
  6
Continuous
 62
     7
100
AcDbCircle
 10
40.4713808181219
 20
-20.50313962806308
 30
0.0
 40
0.1666666716337204
100
AcDbArc
 50
184.9999939918165
 51
255.0000004932034
  0
ARC
  5
1E9
330
1F
100
AcDbEntity
  8
0
  6
Continuous
 62
     7
100
AcDbCircle
 10
39.51430630636318
 20
-15.30058922073636
 30
0.0
 40
0.3333333432674408
100
AcDbArc
 50
4.99999985454646
 51
90.00000250447816
  0
ARC
  5
1EA
330
1F
100
AcDbEntity
  8
0
  6
Continuous
 62
     7
100
AcDbCircle
 10
37.02123117916662
 20
-14.46725586256775
 30
0.0
 40
0.5000000149011612
100
AcDbArc
 50
179.999991348578
 51
270.0000006832453
  0
ARC
  5
1EB
330
1F
100
AcDbEntity
  8
0
  6
Continuous
 62
     7
100
AcDbCircle
 10
42.74490739548114
 20
-21.62996563006959
 30
0.0
 40
0.3333333432674408
100
AcDbArc
 50
4.99999985454646
 51
74.99999867197056
  0
ARC
  5
1EC
330
1F
100
AcDbEntity
  8
0
  6
Continuous
 62
     7
100
AcDbCircle
 10
44.01025014559363
 20
-59.70581756946518
 30
0.0
 40
0.3333333432674408
100
AcDbArc
 50
184.9999939918165
 51
268.4999991613278
  0
ARC
  5
1ED
330
1F
100
AcDbEntity
  8
0
  6
Continuous
 62
     7
100
AcDbCircle
 10
42.89612962899182
 20
-56.53278471428132
 30
0.0
 40
0.5000000149011612
100
AcDbArc
 50
4.99999985454646
 51
75.99920753621923
  0
ARC
  5
1EE
330
1F
100
AcDbEntity
  8
0
  6
Continuous
 62
     7
100
AcDbCircle
 10
-52.02425283852783
 20
-16.63392259380612
 30
0.0
 40
0.5000000149011612
100
AcDbArc
 50
184.0041797315853
 51
269.9999974955218
  0
ARC
  5
1EF
330
1F
100
AcDbEntity
  8
0
  6
Continuous
 62
     7
100
AcDbCircle
 10
-52.76628777275157
 20
-17.96725596687588
 30
0.0
 40
0.3333333432674408
100
AcDbArc
 50
184.0041797315853
 51
269.9999974955218
  0
ARC
  5
1F0
330
1F
100
AcDbEntity
  8
0
  6
Continuous
 62
     7
100
AcDbCircle
 10
39.66688911527248
 20
-51.77689849466401
 30
0.0
 40
3.333333432674408
100
AcDbArc
 50
188.0000043205828
 51
255.9992025272629
  0
ARC
  5
1F1
330
1F
100
AcDbEntity
  8
0
  6
Continuous
 62
     7
100
AcDbCircle
 10
76.9363222938592
 20
-59.6995996127369
 30
0.0
 40
0.3333333432674408
100
AcDbArc
 50
271.500002659905
 51
358.5000000649804
  0
ARC
  5
1F2
330
1F
100
AcDbEntity
  8
0
  6
Continuous
 62
     7
100
AcDbCircle
 10
-44.19421008401552
 20
-60.13392261864135
 30
0.0
 40
0.3333333432674408
100
AcDbArc
 50
184.9999939918165
 51
269.9999974955218
  0
ARC
  5
1F3
330
1F
100
AcDbEntity
  8
0
  6
Continuous
 62
     7
100
AcDbCircle
 10
-45.04262421249034
 20
-56.60789546989707
 30
0.0
 40
0.5000000149011612
100
AcDbArc
 50
4.99999985454646
 51
66.50143334434463
  0
ARC
  5
1F4
330
1F
100
AcDbEntity
  8
0
  6
Continuous
 62
     7
100
AcDbCircle
 10
-45.5366122643217
 20
-52.21314092913315
 30
0.0
 40
3.333333432674408
100
AcDbArc
 50
184.2363925029874
 51
246.5014351655775
  0
ARC
  5
1F5
330
1F
100
AcDbEntity
  8
0
  6
Continuous
 62
     7
100
AcDbCircle
 10
-45.35093822721267
 20
-56.47384573242226
 30
0.0
 40
0.5000000149011612
100
AcDbArc
 50
4.99999985454646
 51
66.50143334434463
  0
ARC
  5
1F6
330
1F
100
AcDbEntity
  8
0
  6
Continuous
 62
     7
100
AcDbCircle
 10
42.35976283240788
 20
-51.77689849466401
 30
0.0
 40
3.333333432674408
100
AcDbArc
 50
188.0000043205828
 51
254.8776376542226
  0
ARC
  5
1F7
330
1F
100
AcDbEntity
  8
0
  6
Continuous
 62
     7
100
AcDbCircle
 10
-41.53230408020538
 20
-24.42538095589248
 30
0.0
 40
0.3333333432674408
100
AcDbArc
 50
99.5824300609259
 51
182.5168750765927
  0
ARC
  5
1F8
330
1F
100
AcDbEntity
  8
0
  6
Continuous
 62
     7
100
AcDbCircle
 10
-42.87883121994439
 20
-51.99456894182492
 30
0.0
 40
3.333333432674408
100
AcDbArc
 50
184.2363925029874
 51
238.1006439959203
  0
ARC
  5
1F9
330
1F
100
AcDbEntity
  8
0
  6
Continuous
 62
     7
100
AcDbCircle
 10
-36.12842411772492
 20
-20.46725604138169
 30
0.0
 40
0.3333333432674408
100
AcDbArc
 50
269.9999974955218
 51
323.5162781709993
  0
ARC
  5
1FA
330
1F
100
AcDbEntity
  8
0
  6
Continuous
 62
     7
100
AcDbCircle
 10
-39.46887323257754
 20
-25.82450005683427
 30
0.0
 40
0.3333333432674408
100
AcDbArc
 50
117.0573939203227
 51
182.5168750765927
  0
ARC
  5
1FB
330
1F
100
AcDbEntity
  8
0
  6
Continuous
 62
     7
100
AcDbCircle
 10
-35.06271465399816
 20
-22.46725610098633
 30
0.0
 40
0.3333333432674408
100
AcDbArc
 50
269.9999974955218
 51
328.9270652390242
  0
ARC
  5
1FC
330
1F
100
AcDbEntity
  8
0
  6
Continuous
 62
     7
100
AcDbCircle
 10
-38.25178131805016
 20
-21.13392272791657
 30
0.0
 40
0.3333333432674408
100
AcDbArc
 50
90.00000250447816
 51
170.6083309756487
  0
ARC
  5
1FD
330
1F
100
AcDbEntity
  8
0
  6
Continuous
 62
     7
100
AcDbCircle
 10
-36.81643785079443
 20
-23.13392278752121
 30
0.0
 40
0.3333333432674408
100
AcDbArc
 50
90.00000250447816
 51
153.7606721801934
  0
ARC
  5
1FE
330
1F
100
AcDbEntity
  8
0
  6
Continuous
 62
     7
100
AcDbCircle
 10
-54.91370808414551
 20
-2.967255519841046
 30
0.0
 40
0.1666666716337204
100
AcDbArc
 50
183.00000531981
 51
269.9999974955218
  0
ARC
  5
1FF
330
1F
100
AcDbEntity
  8
0
  6
Continuous
 62
     7
100
AcDbCircle
 10
-54.82985594948507
 20
-4.567256584777397
 30
0.0
 40
0.1666666716337204
100
AcDbArc
 50
183.00000531981
 51
269.9999974955218
  0
ARC
  5
200
330
1F
100
AcDbEntity
  8
0
  6
Continuous
 62
     7
100
AcDbCircle
 10
-54.64657754233023
 20
-3.300588863108487
 30
0.0
 40
0.1666666716337204
100
AcDbArc
 50
4.513988352644095
 51
90.00000250447816
  0
ARC
  5
201
330
1F
100
AcDbEntity
  8
0
  6
Continuous
 62
     7
100
AcDbCircle
 10
-54.63326170534485
 20
-2.967255519841046
 30
0.0
 40
0.1666666716337204
100
AcDbArc
 50
183.00000531981
 51
269.9999974955218
  0
ARC
  5
202
330
1F
100
AcDbEntity
  8
0
  6
Continuous
 62
     7
100
AcDbCircle
 10
-53.530468296828
 20
-8.96725569865498
 30
0.0
 40
0.5000000149011612
100
AcDbArc
 50
184.513985051235
 51
269.9999974955218
  0
ARC
  5
203
330
1F
100
AcDbEntity
  8
0
  6
Continuous
 62
     7
100
AcDbCircle
 10
-43.93576687969873
 20
-59.69791542384394
 30
0.0
 40
0.3333333432674408
100
AcDbArc
 50
184.9999939918165
 51
269.9999974955218
  0
ARC
  5
204
330
1F
100
AcDbEntity
  8
0
  6
Continuous
 62
     7
100
AcDbCircle
 10
-57.24526129490725
 20
-15.97926457462131
 30
0.0
 40
8.33333358168602
100
AcDbArc
 50
4.23639495062279
 51
51.3927202210071
  0
ARC
  5
205
330
1F
100
AcDbEntity
  8
0
  6
Continuous
 62
     7
100
AcDbCircle
 10
-26.21210302141426
 20
-34.34503355458105
 30
0.0
 40
11.21111203862563
100
AcDbArc
 50
33.64281574799354
 51
89.99999749552188
  0
ARC
  5
206
330
1F
100
AcDbEntity
  8
0
  6
Continuous
 62
     7
100
AcDbCircle
 10
-53.78406937860466
 20
-14.30058919093403
 30
0.0
 40
0.1666666716337204
100
AcDbArc
 50
183.00000531981
 51
269.9999974955218
  0
ARC
  5
207
330
1F
100
AcDbEntity
  8
0
  6
Continuous
 62
     7
100
AcDbCircle
 10
-51.89248810478323
 20
-18.30058931014332
 30
0.0
 40
0.5000000149011612
100
AcDbArc
 50
4.23639495062279
 51
53.55136052705461
  0
ARC
  5
208
330
1F
100
AcDbEntity
  8
0
  6
Continuous
 62
     7
100
AcDbCircle
 10
-0.531717938045318
 20
-18.30058931014332
 30
0.0
 40
0.5000000149011612
100
AcDbArc
 50
126.4486394729454
 51
175.7636050493772
  0
ARC
  5
209
330
1F
100
AcDbEntity
  8
0
  6
Continuous
 62
     7
100
AcDbCircle
 10
1.359863335776112
 20
-14.30058919093403
 30
0.0
 40
0.1666666716337204
100
AcDbArc
 50
270.0000025044782
 51
356.99999468019
  0
ARC
  5
20A
330
1F
100
AcDbEntity
  8
0
  6
Continuous
 62
     7
100
AcDbCircle
 10
4.821055252078708
 20
-15.97926457462131
 30
0.0
 40
8.33333358168602
100
AcDbArc
 50
128.607279778993
 51
175.7636050493772
  0
ARC
  5
20B
330
1F
100
AcDbEntity
  8
0
  6
Continuous
 62
     7
100
AcDbCircle
 10
-8.488439163129812
 20
-59.69791542384394
 30
0.0
 40
0.3333333432674408
100
AcDbArc
 50
270.0000025044782
 51
355.0000060081836
  0
ARC
  5
20C
330
1F
100
AcDbEntity
  8
0
  6
Continuous
 62
     7
100
AcDbCircle
 10
1.106262253999461
 20
-8.96725569865498
 30
0.0
 40
0.5000000149011612
100
AcDbArc
 50
270.0000025044782
 51
355.486014948765
  0
ARC
  5
20D
330
1F
100
AcDbEntity
  8
0
  6
Continuous
 62
     7
100
AcDbCircle
 10
2.209055662516306
 20
-2.967255519841046
 30
0.0
 40
0.1666666716337204
100
AcDbArc
 50
270.0000025044782
 51
356.99999468019
  0
ARC
  5
20E
330
1F
100
AcDbEntity
  8
0
  6
Continuous
 62
     7
100
AcDbCircle
 10
2.222371499501691
 20
-3.300588863108487
 30
0.0
 40
0.1666666716337204
100
AcDbArc
 50
89.99999749552188
 51
175.486011647356
  0
ARC
  5
20F
330
1F
100
AcDbEntity
  8
0
  6
Continuous
 62
     7
100
AcDbCircle
 10
2.405649906656521
 20
-4.567256584777397
 30
0.0
 40
0.1666666716337204
100
AcDbArc
 50
270.0000025044782
 51
356.99999468019
  0
ARC
  5
210
330
1F
100
AcDbEntity
  8
0
  6
Continuous
 62
     7
100
AcDbCircle
 10
2.489502041316968
 20
-2.967255519841046
 30
0.0
 40
0.1666666716337204
100
AcDbArc
 50
270.0000025044782
 51
356.99999468019
  0
ARC
  5
211
330
1F
100
AcDbEntity
  8
0
  6
Continuous
 62
     7
100
AcDbCircle
 10
-15.60776819203411
 20
-23.13392278752121
 30
0.0
 40
0.3333333432674408
100
AcDbArc
 50
26.2393278198066
 51
89.99999749552188
  0
ARC
  5
212
330
1F
100
AcDbEntity
  8
0
  6
Continuous
 62
     7
100
AcDbCircle
 10
-14.17242472477838
 20
-21.13392272791657
 30
0.0
 40
0.3333333432674408
100
AcDbArc
 50
9.391669024351328
 51
89.99999749552188
  0
ARC
  5
213
330
1F
100
AcDbEntity
  8
0
  6
Continuous
 62
     7
100
AcDbCircle
 10
-17.36149138883039
 20
-22.46725610098633
 30
0.0
 40
0.3333333432674408
100
AcDbArc
 50
211.0729347609759
 51
270.0000025044782
  0
ARC
  5
214
330
1F
100
AcDbEntity
  8
0
  6
Continuous
 62
     7
100
AcDbCircle
 10
-12.95533281025101
 20
-25.82450005683427
 30
0.0
 40
0.3333333432674408
100
AcDbArc
 50
357.4831249234074
 51
62.9426060796774
  0
ARC
  5
215
330
1F
100
AcDbEntity
  8
0
  6
Continuous
 62
     7
100
AcDbCircle
 10
-16.29578192510363
 20
-20.46725604138169
 30
0.0
 40
0.3333333432674408
100
AcDbArc
 50
216.4837218290008
 51
270.0000025044782
  0
ARC
  5
216
330
1F
100
AcDbEntity
  8
0
  6
Continuous
 62
     7
100
AcDbCircle
 10
-9.545374822884156
 20
-51.99456894182492
 30
0.0
 40
3.333333432674408
100
AcDbArc
 50
301.8993560040798
 51
355.7636074970127
  0
ARC
  5
217
330
1F
100
AcDbEntity
  8
0
  6
Continuous
 62
     7
100
AcDbCircle
 10
-10.89190196262317
 20
-24.42538095589248
 30
0.0
 40
0.3333333432674408
100
AcDbArc
 50
357.4831249234074
 51
80.41756993907416
  0
ARC
  5
218
330
1F
100
AcDbEntity
  8
0
  6
Continuous
 62
     7
100
AcDbCircle
 10
-26.21210302141426
 20
-34.34503355458105
 30
0.0
 40
11.21111203862563
100
AcDbArc
 50
90.00000250447816
 51
146.3571842520065
  0
ARC
  5
219
330
1F
100
AcDbEntity
  8
0
  6
Continuous
 62
     7
100
AcDbCircle
 10
-7.073267815615878
 20
-56.47384573242226
 30
0.0
 40
0.5000000149011612
100
AcDbArc
 50
113.4985666556554
 51
175.0000001454536
  0
ARC
  5
21A
330
1F
100
AcDbEntity
  8
0
  6
Continuous
 62
     7
100
AcDbCircle
 10
-6.88759377850684
 20
-52.21314092913315
 30
0.0
 40
3.333333432674408
100
AcDbArc
 50
293.4985648344226
 51
355.7636074970127
  0
ARC
  5
21B
330
1F
100
AcDbEntity
  8
0
  6
Continuous
 62
     7
100
AcDbCircle
 10
-7.381581830338206
 20
-56.60789546989707
 30
0.0
 40
0.5000000149011612
100
AcDbArc
 50
113.4985666556554
 51
175.0000001454536
  0
ARC
  5
21C
330
1F
100
AcDbEntity
  8
0
  6
Continuous
 62
     7
100
AcDbCircle
 10
-8.22999595881302
 20
-60.13392261864135
 30
0.0
 40
0.3333333432674408
100
AcDbArc
 50
270.0000025044782
 51
355.0000060081836
  0
ARC
  5
21D
330
1F
100
AcDbEntity
  8
0
  6
Continuous
 62
     7
100
AcDbCircle
 10
0.342081729923024
 20
-17.96725596687588
 30
0.0
 40
0.3333333432674408
100
AcDbArc
 50
270.0000025044782
 51
355.9958202684147
  0
ARC
  5
21E
330
1F
100
AcDbEntity
  8
0
  6
Continuous
 62
     7
100
AcDbCircle
 10
-0.399953204300715
 20
-16.63392259380612
 30
0.0
 40
0.5000000149011612
100
AcDbArc
 50
270.0000025044782
 51
355.9958202684147
  0
ARC
  5
21F
330
1F
100
AcDbEntity
  8
0
  6
Continuous
 62
     7
100
AcDbCircle
 10
-10.22603890566953
 20
-20.48119240247411
 30
0.0
 40
5.666666835546494
100
AcDbArc
 50
206.2393328287629
 51
242.9426110886337
  0
ARC
  5
220
330
1F
100
AcDbEntity
  8
0
  6
Continuous
 62
     7
100
AcDbCircle
 10
-26.21210302141426
 20
-27.8005870501338
 30
0.0
 40
10.00000029802322
100
AcDbArc
 50
31.07292975201957
 51
89.99999749552188
  0
ARC
  5
221
330
1F
100
AcDbEntity
  8
0
  6
Continuous
 62
     7
100
AcDbCircle
 10
-10.22603890566953
 20
-20.48119240247411
 30
0.0
 40
3.666666775941849
100
AcDbArc
 50
189.391673179534
 51
260.4175749480304
  0
ARC
  5
222
330
1F
100
AcDbEntity
  8
0
  6
Continuous
 62
     7
100
AcDbCircle
 10
-26.21210302141426
 20
-27.8005870501338
 30
0.0
 40
12.00000035762787
100
AcDbArc
 50
36.48372365023363
 51
89.99999749552188
  0
ARC
  5
223
330
1F
100
AcDbEntity
  8
0
  6
Continuous
 62
     7
100
AcDbCircle
 10
0.825815875198799
 20
-8.96725569865498
 30
0.0
 40
0.5000000149011612
100
AcDbArc
 50
270.0000025044782
 51
355.486014948765
  0
ARC
  5
224
330
1F
100
AcDbEntity
  8
0
  6
Continuous
 62
     7
100
AcDbCircle
 10
0.549896270621588
 20
-10.46725574335846
 30
0.0
 40
1.000000029802322
100
AcDbArc
 50
89.99999749552188
 51
175.7636050493772
  0
ARC
  5
225
330
1F
100
AcDbEntity
  8
0
  6
Continuous
 62
     7
100
AcDbCircle
 10
1.941914948174684
 20
-3.300588863108487
 30
0.0
 40
0.1666666716337204
100
AcDbArc
 50
89.99999749552188
 51
175.486011647356
  0
ARC
  5
226
330
1F
100
AcDbEntity
  8
0
  6
Continuous
 62
     7
100
AcDbCircle
 10
72.37804375631922
 20
-14.46725586256775
 30
0.0
 40
1.333333373069763
100
AcDbArc
 50
90.00000250447816
 51
180.9999993449596
  0
ARC
  5
227
330
1F
100
AcDbEntity
  8
0
  6
Continuous
 62
     7
100
AcDbCircle
 10
-51.15714669289437
 20
85.56269503522367
 30
0.0
 40
1.333333373069763
100
AcDbArc
 50
90.00000250447816
 51
180.0000050089563
  0
ARC
  5
228
330
1F
100
AcDbEntity
  8
0
  6
Continuous
 62
     7
100
AcDbCircle
 10
-51.43713530800952
 20
85.66743136647005
 30
0.0
 40
1.333333373069763
100
AcDbArc
 50
90.00000250447816
 51
180.0000050089563
  0
ARC
  5
229
330
1F
100
AcDbEntity
  8
0
  6
Continuous
 62
     7
100
AcDbCircle
 10
-49.47570946830447
 20
84.56234913952562
 30
0.0
 40
1.333333373069763
100
AcDbArc
 50
90.00000250447816
 51
166.8323974967906
  0
ARC
  5
22A
330
1F
100
AcDbEntity
  8
0
  6
Continuous
 62
     7
100
AcDbCircle
 10
-52.58580681034155
 20
37.6327416211227
 30
0.0
 40
2.333333402872086
100
AcDbArc
 50
181.0000029874252
 51
269.9999974955218
  0
ARC
  5
22B
330
1F
100
AcDbEntity
  8
0
  6
Continuous
 62
     7
100
AcDbCircle
 10
-52.34544018533953
 20
86.19941380419937
 30
0.0
 40
1.666666716337204
100
AcDbArc
 50
90.00000250447816
 51
180.0000050089563
  0
ARC
  5
22C
330
1F
100
AcDbEntity
  8
0
  6
Continuous
 62
     7
100
AcDbCircle
 10
-42.65349450261684
 20
83.55297004043337
 30
0.0
 40
1.333333373069763
100
AcDbArc
 50
90.00000250447816
 51
178.9999970125748
  0
ARC
  5
22D
330
1F
100
AcDbEntity
  8
0
  6
Continuous
 62
     7
100
AcDbCircle
 10
-42.30054344229339
 20
83.45797898942533
 30
0.0
 40
1.333333373069763
100
AcDbArc
 50
90.00000250447816
 51
178.9999970125748
  0
ARC
  5
22E
330
1F
100
AcDbEntity
  8
0
  6
Continuous
 62
     7
100
AcDbCircle
 10
-44.39307788779379
 20
47.66149965112277
 30
0.0
 40
0.3333333432674408
100
AcDbArc
 50
222.472884306986
 51
269.9999974955218
  0
ARC
  5
22F
330
1F
100
AcDbEntity
  8
0
  6
Continuous
 62
     7
100
AcDbCircle
 10
-54.19568031209556
 20
48.12823550487633
 30
0.0
 40
9.066667191187548
100
AcDbArc
 50
313.9279937273383
 51
334.6800960108854
  0
ARC
  5
230
330
1F
100
AcDbEntity
  8
0
  6
Continuous
 62
     7
100
AcDbCircle
 10
-42.19514589683459
 20
39.64280230928239
 30
0.0
 40
9.066667191187548
100
AcDbArc
 50
154.6800976047472
 51
165.4196138481085
  0
ARC
  5
231
330
1F
100
AcDbEntity
  8
0
  6
Continuous
 62
     7
100
AcDbCircle
 10
-47.14677059681335
 20
45.14059503497833
 30
0.0
 40
3.400000037749606
100
AcDbArc
 50
42.47288590084773
 51
99.2001648636478
  0
ARC
  5
232
330
1F
100
AcDbEntity
  8
0
  6
Continuous
 62
     7
100
AcDbCircle
 10
-26.21210302141426
 20
98.78630789676595
 30
0.0
 40
56.37468124552606
100
AcDbArc
 50
270.000004325711
 51
279.055954070745
  0
ARC
  5
233
330
1F
100
AcDbEntity
  8
0
  6
Continuous
 62
     7
100
AcDbCircle
 10
-26.21210302141426
 20
110.7162398929306
 30
0.0
 40
70.6053691289435
100
AcDbArc
 50
270.000004325711
 51
278.0903292466453
  0
ARC
  5
234
330
1F
100
AcDbEntity
  8
0
  6
Continuous
 62
     7
100
AcDbCircle
 10
-47.74367409767538
 20
48.82590805171026
 30
0.0
 40
0.3333333432674408
100
AcDbArc
 50
179.999991348578
 51
279.2001562122258
  0
ARC
  5
235
330
1F
100
AcDbEntity
  8
0
  6
Continuous
 62
     7
100
AcDbCircle
 10
-0.816141774646809
 20
38.46994053930234
 30
0.0
 40
2.000000059604645
100
AcDbArc
 50
269.9999974955218
 51
0.000008651422209
  0
ARC
  5
236
330
1F
100
AcDbEntity
  8
0
  6
Continuous
 62
     7
100
AcDbCircle
 10
-1.389821397863585
 20
39.50257403361888
 30
0.0
 40
2.000000059604645
100
AcDbArc
 50
269.9999974955218
 51
0.000008651422209
  0
ARC
  5
237
330
1F
100
AcDbEntity
  8
0
  6
Continuous
 62
     7
100
AcDbCircle
 10
-10.4250186072376
 20
54.22627849260175
 30
0.0
 40
2.000000059604645
100
AcDbArc
 50
270.000004325711
 51
358.9999970195386
  0
ARC
  5
238
330
1F
100
AcDbEntity
  8
0
  6
Continuous
 62
     7
100
AcDbCircle
 10
-10.77387522570726
 20
54.55579713848988
 30
0.0
 40
2.000000059604645
100
AcDbArc
 50
270.000004325711
 51
358.9999970195386
  0
ARC
  5
239
330
1F
100
AcDbEntity
  8
0
  6
Continuous
 62
     7
100
AcDbCircle
 10
-8.031128155034736
 20
47.66149965112277
 30
0.0
 40
0.3333333432674408
100
AcDbArc
 50
270.000004325711
 51
317.5271140991522
  0
ARC
  5
23A
330
1F
100
AcDbEntity
  8
0
  6
Continuous
 62
     7
100
AcDbCircle
 10
-4.680531945153149
 20
48.82590805171026
 30
0.0
 40
0.3333333432674408
100
AcDbArc
 50
260.7998419665414
 51
0.000008651422209
  0
ARC
  5
23B
330
1F
100
AcDbEntity
  8
0
  6
Continuous
 62
     7
100
AcDbCircle
 10
-10.22905505973077
 20
39.64280230928239
 30
0.0
 40
9.066667191187548
100
AcDbArc
 50
14.580386038206
 51
25.31990228156725
  0
ARC
  5
23C
330
1F
100
AcDbEntity
  8
0
  6
Continuous
 62
     7
100
AcDbCircle
 10
1.771474269267031
 20
48.12823550487633
 30
0.0
 40
9.066667191187548
100
AcDbArc
 50
205.3199023952528
 51
226.0720115089892
  0
ARC
  5
23D
330
1F
100
AcDbEntity
  8
0
  6
Continuous
 62
     7
100
AcDbCircle
 10
-5.277435446015176
 20
45.14059503497833
 30
0.0
 40
3.400000037749606
100
AcDbArc
 50
80.79983331511937
 51
137.527115693014
  0
ARC
  5
23E
330
1F
100
AcDbEntity
  8
0
  6
Continuous
 62
     7
100
AcDbCircle
 10
0.161600767513022
 20
37.6327416211227
 30
0.0
 40
2.333333402872086
100
AcDbArc
 50
270.000004325711
 51
358.9999970195386
  0
CIRCLE
  5
23F
330
1F
100
AcDbEntity
  8
0
  6
Continuous
 62
     7
100
AcDbCircle
 10
-6.212097339104645
 20
39.19941240349021
 30
0.0
 40
0.5000000149011612
  0
CIRCLE
  5
240
330
1F
100
AcDbEntity
  8
0
  6
Continuous
 62
     7
100
AcDbCircle
 10
-6.212097339104645
 20
39.19941240349021
 30
0.0
 40
0.3333333432674408
  0
ARC
  5
241
330
1F
100
AcDbEntity
  8
0
  6
Continuous
 62
     7
100
AcDbCircle
 10
-1.997873987599547
 20
40.17021728268287
 30
0.0
 40
1.000000029802322
100
AcDbArc
 50
269.9999974955218
 51
0.000008651422209
  0
ARC
  5
242
330
1F
100
AcDbEntity
  8
0
  6
Continuous
 62
     7
100
AcDbCircle
 10
-46.74367406787306
 20
83.59654914329462
 30
0.0
 40
1.333333373069763
100
AcDbArc
 50
90.00000250447816
 51
180.0000050089563
  0
ARC
  5
243
330
1F
100
AcDbEntity
  8
0
  6
Continuous
 62
     7
100
AcDbCircle
 10
-41.6503257308581
 20
54.55579713848988
 30
0.0
 40
2.000000059604645
100
AcDbArc
 50
181.0000029874252
 51
269.9999974955218
  0
ARC
  5
244
330
1F
100
AcDbEntity
  8
0
  6
Continuous
 62
     7
100
AcDbCircle
 10
-38.85721448225232
 20
84.62464569086137
 30
0.0
 40
0.1666666716337204
100
AcDbArc
 50
90.00000250447816
 51
180.0000050089563
  0
ARC
  5
245
330
1F
100
AcDbEntity
  8
0
  6
Continuous
 62
     7
100
AcDbCircle
 10
-26.21210302141426
 20
98.78630789676595
 30
0.0
 40
56.37468124552606
100
AcDbArc
 50
260.9440477504879
 51
269.9999974955218
  0
ARC
  5
246
330
1F
100
AcDbEntity
  8
0
  6
Continuous
 62
     7
100
AcDbCircle
 10
-39.19054782551976
 20
84.23497689669625
 30
0.0
 40
0.1666666716337204
100
AcDbArc
 50
269.9999974955218
 51
0.0
  0
ARC
  5
247
330
1F
100
AcDbEntity
  8
0
  6
Continuous
 62
     7
100
AcDbCircle
 10
-40.23365902197148
 20
84.62464569086137
 30
0.0
 40
0.1666666716337204
100
AcDbArc
 50
0.0
 51
90.00000250447816
  0
ARC
  5
248
330
1F
100
AcDbEntity
  8
0
  6
Continuous
 62
     7
100
AcDbCircle
 10
-39.90032567870404
 20
84.23497689669625
 30
0.0
 40
0.1666666716337204
100
AcDbArc
 50
179.999991348578
 51
270.0000006832453
  0
ARC
  5
249
330
1F
100
AcDbEntity
  8
0
  6
Continuous
 62
     7
100
AcDbCircle
 10
-39.07877210604275
 20
84.95653453538785
 30
0.0
 40
0.1666666716337204
100
AcDbArc
 50
90.00000250447816
 51
180.0000050089563
  0
ARC
  5
24A
330
1F
100
AcDbEntity
  8
0
  6
Continuous
 62
     7
100
AcDbCircle
 10
-40.01210139818104
 20
84.95653453538785
 30
0.0
 40
0.1666666716337204
100
AcDbArc
 50
0.0
 51
90.00000250447816
  0
ARC
  5
24B
330
1F
100
AcDbEntity
  8
0
  6
Continuous
 62
     7
100
AcDbCircle
 10
-39.6787680549136
 20
84.45653452048668
 30
0.0
 40
0.1666666716337204
100
AcDbArc
 50
179.999991348578
 51
270.0000006832453
  0
ARC
  5
24C
330
1F
100
AcDbEntity
  8
0
  6
Continuous
 62
     7
100
AcDbCircle
 10
-39.41210544931019
 20
84.45653452048668
 30
0.0
 40
0.1666666716337204
100
AcDbArc
 50
269.9999974955218
 51
0.0
  0
ARC
  5
24D
330
1F
100
AcDbEntity
  8
0
  6
Continuous
 62
     7
100
AcDbCircle
 10
-41.99918234932775
 20
54.22627849260175
 30
0.0
 40
2.000000059604645
100
AcDbArc
 50
181.0000029874252
 51
269.9999974955218
  0
CIRCLE
  5
24E
330
1F
100
AcDbEntity
  8
0
  6
Continuous
 62
     7
100
AcDbCircle
 10
-46.21210361746071
 20
39.19941240349021
 30
0.0
 40
0.3333333432674408
  0
CIRCLE
  5
24F
330
1F
100
AcDbEntity
  8
0
  6
Continuous
 62
     7
100
AcDbCircle
 10
-46.21210361746071
 20
39.19941240349021
 30
0.0
 40
0.5000000149011612
  0
ARC
  5
250
330
1F
100
AcDbEntity
  8
0
  6
Continuous
 62
     7
100
AcDbCircle
 10
-50.42633205522898
 20
40.17021728268287
 30
0.0
 40
1.000000029802322
100
AcDbArc
 50
179.999991348578
 51
270.0000006832453
  0
ARC
  5
251
330
1F
100
AcDbEntity
  8
0
  6
Continuous
 62
     7
100
AcDbCircle
 10
-51.60806426818172
 20
38.46994053930234
 30
0.0
 40
2.000000059604645
100
AcDbArc
 50
179.999991348578
 51
270.0000006832453
  0
ARC
  5
252
330
1F
100
AcDbEntity
  8
0
  6
Continuous
 62
     7
100
AcDbCircle
 10
-26.21210302141426
 20
110.7162398929306
 30
0.0
 40
70.6053691289435
100
AcDbArc
 50
261.9096725745876
 51
269.9999974955218
  0
ARC
  5
253
330
1F
100
AcDbEntity
  8
0
  6
Continuous
 62
     7
100
AcDbCircle
 10
-51.03438464496494
 20
39.50257403361888
 30
0.0
 40
2.000000059604645
100
AcDbArc
 50
179.999991348578
 51
270.0000006832453
  0
ARC
  5
254
330
1F
100
AcDbEntity
  8
0
  6
Continuous
 62
     7
100
AcDbCircle
 10
-10.12365751427197
 20
83.45797898942533
 30
0.0
 40
1.333333373069763
100
AcDbArc
 50
1.000002980461395
 51
89.999995674289
  0
ARC
  5
255
330
1F
100
AcDbEntity
  8
0
  6
Continuous
 62
     7
100
AcDbCircle
 10
-9.770711540211693
 20
83.55297004043337
 30
0.0
 40
1.333333373069763
100
AcDbArc
 50
1.000002980461395
 51
89.999995674289
  0
ARC
  5
256
330
1F
100
AcDbEntity
  8
0
  6
Continuous
 62
     7
100
AcDbCircle
 10
-12.19054193459388
 20
84.62464569086137
 30
0.0
 40
0.1666666716337204
100
AcDbArc
 50
89.999995674289
 51
180.0000050089563
  0
ARC
  5
257
330
1F
100
AcDbEntity
  8
0
  6
Continuous
 62
     7
100
AcDbCircle
 10
-13.2336531310456
 20
84.23497689669625
 30
0.0
 40
0.1666666716337204
100
AcDbArc
 50
179.999991348578
 51
270.0000006832453
  0
ARC
  5
258
330
1F
100
AcDbEntity
  8
0
  6
Continuous
 62
     7
100
AcDbCircle
 10
-12.41209955838431
 20
84.95653453538785
 30
0.0
 40
0.1666666716337204
100
AcDbArc
 50
89.999995674289
 51
180.0000050089563
  0
ARC
  5
259
330
1F
100
AcDbEntity
  8
0
  6
Continuous
 62
     7
100
AcDbCircle
 10
-12.52387527786132
 20
84.23497689669625
 30
0.0
 40
0.1666666716337204
100
AcDbArc
 50
269.9999974955218
 51
0.000008651422209
  0
ARC
  5
25A
330
1F
100
AcDbEntity
  8
0
  6
Continuous
 62
     7
100
AcDbCircle
 10
-5.680531974955471
 20
83.59654914329462
 30
0.0
 40
1.333333373069763
100
AcDbArc
 50
359.9999949910439
 51
89.999995674289
  0
ARC
  5
25B
330
1F
100
AcDbEntity
  8
0
  6
Continuous
 62
     7
100
AcDbCircle
 10
-13.56698647431304
 20
84.62464569086137
 30
0.0
 40
0.1666666716337204
100
AcDbArc
 50
359.9999949910439
 51
89.999995674289
  0
ARC
  5
25C
330
1F
100
AcDbEntity
  8
0
  6
Continuous
 62
     7
100
AcDbCircle
 10
-13.34542885052261
 20
84.95653453538785
 30
0.0
 40
0.1666666716337204
100
AcDbArc
 50
359.9999949910439
 51
89.999995674289
  0
ARC
  5
25D
330
1F
100
AcDbEntity
  8
0
  6
Continuous
 62
     7
100
AcDbCircle
 10
-13.01209550725517
 20
84.45653452048668
 30
0.0
 40
0.1666666716337204
100
AcDbArc
 50
179.999991348578
 51
270.0000006832453
  0
ARC
  5
25E
330
1F
100
AcDbEntity
  8
0
  6
Continuous
 62
     7
100
AcDbCircle
 10
-2.948496574524057
 20
84.56234913952562
 30
0.0
 40
1.333333373069763
100
AcDbArc
 50
13.16760238952388
 51
89.999995674289
  0
ARC
  5
25F
330
1F
100
AcDbEntity
  8
0
  6
Continuous
 62
     7
100
AcDbCircle
 10
-12.74543290165175
 20
84.45653452048668
 30
0.0
 40
0.1666666716337204
100
AcDbArc
 50
269.9999974955218
 51
0.000008651422209
  0
ARC
  5
260
330
1F
100
AcDbEntity
  8
0
  6
Continuous
 62
     7
100
AcDbCircle
 10
-1.267059349934158
 20
85.56269503522367
 30
0.0
 40
1.333333373069763
100
AcDbArc
 50
359.9999949910439
 51
89.999995674289
  0
ARC
  5
261
330
1F
100
AcDbEntity
  8
0
  6
Continuous
 62
     7
100
AcDbCircle
 10
-0.987070734819014
 20
85.66743136647005
 30
0.0
 40
1.333333373069763
100
AcDbArc
 50
359.9999949910439
 51
89.999995674289
  0
ARC
  5
262
330
1F
100
AcDbEntity
  8
0
  6
Continuous
 62
     7
100
AcDbCircle
 10
-0.078765857489003
 20
86.19941380419937
 30
0.0
 40
1.666666716337204
100
AcDbArc
 50
359.9999949910439
 51
89.999995674289
  0
ARC
  5
263
330
1F
100
AcDbEntity
  8
0
  6
Continuous
 62
     7
100
AcDbCircle
 10
25.59340699129854
 20
-16.30654136598065
 30
0.0
 40
8.33333358168602
100
AcDbArc
 50
7.99999560690519
 51
55.1563573424897
  0
CIRCLE
  5
264
330
1F
100
AcDbEntity
  8
0
  6
Continuous
 62
     7
100
AcDbCircle
 10
-26.21210302141426
 20
68.532746611025
 30
0.0
 40
10.38332525044655
  0
CIRCLE
  5
265
330
1F
100
AcDbEntity
  8
0
  6
Continuous
 62
     7
100
AcDbCircle
 10
-26.21210302141426
 20
68.532746611025
 30
0.0
 40
11.93186477617019
  0
CIRCLE
  5
266
330
1F
100
AcDbEntity
  8
0
  6
Continuous
 62
     7
100
AcDbCircle
 10
-26.21210302141426
 20
68.532746611025
 30
0.0
 40
9.14988417873434
  0
CIRCLE
  5
267
330
1F
100
AcDbEntity
  8
0
  6
Continuous
 62
     7
100
AcDbCircle
 10
-26.21210302141426
 20
68.532746611025
 30
0.0
 40
9.279384253801425
  0
ARC
  5
268
330
1F
100
AcDbEntity
  8
0
  6
Continuous
 62
     7
100
AcDbCircle
 10
-37.42877243442923
 20
-60.90056362252744
 30
0.0
 40
0.1000000069538753
100
AcDbArc
 50
9.579881603434606
 51
90.00000250447816
  0
ARC
  5
269
330
1F
100
AcDbEntity
  8
0
  6
Continuous
 62
     7
100
AcDbCircle
 10
-14.99543741527783
 20
-60.90056362252744
 30
0.0
 40
0.1000000069538753
100
AcDbArc
 50
90.00000250447816
 51
170.4201182828799
  0
ARC
  5
26A
330
1F
100
AcDbEntity
  8
0
  6
Continuous
 62
    71
100
AcDbCircle
 10
-14.02053173640241
 20
-66.55058820497379
 30
0.0
 40
0.3333333432674408
100
AcDbArc
 50
269.9999974955218
 51
358.5679030309443
  0
ARC
  5
26B
330
1F
100
AcDbEntity
  8
0
  6
Continuous
 62
    71
100
AcDbCircle
 10
-38.40367048390988
 20
-66.55058820497379
 30
0.0
 40
0.3333333432674408
100
AcDbArc
 50
181.4320944146986
 51
270.000004325711
  0
ARC
  5
26C
330
1F
100
AcDbEntity
  8
0
  6
Continuous
 62
     7
100
AcDbCircle
 10
49.13789579487254
 20
-60.90056235096165
 30
0.0
 40
0.1000000069538753
100
AcDbArc
 50
9.579881603434606
 51
90.00000250447816
  0
ARC
  5
26D
330
1F
100
AcDbEntity
  8
0
  6
Continuous
 62
     7
100
AcDbCircle
 10
71.57123081402393
 20
-60.90056235096165
 30
0.0
 40
0.1000000069538753
100
AcDbArc
 50
90.00000250447816
 51
170.4201182828799
  0
ARC
  5
26E
330
1F
100
AcDbEntity
  8
0
  6
Continuous
 62
    71
100
AcDbCircle
 10
72.54613649289935
 20
-66.550586933408
 30
0.0
 40
0.3333333432674408
100
AcDbArc
 50
269.9999974955218
 51
358.5679030309443
  0
ARC
  5
26F
330
1F
100
AcDbEntity
  8
0
  6
Continuous
 62
    71
100
AcDbCircle
 10
48.16299774539188
 20
-66.550586933408
 30
0.0
 40
0.3333333432674408
100
AcDbArc
 50
181.4320944146986
 51
270.000004325711
  0
ARC
  5
270
330
1F
100
AcDbEntity
  8
0
  6
Continuous
 62
     7
100
AcDbCircle
 10
-39.21210340884446
 20
-60.80058930517623
 30
0.0
 40
0.3333333432674408
100
AcDbArc
 50
0.0
 51
90.00000000000001
  0
ARC
  5
271
330
1F
100
AcDbEntity
  8
0
  6
Continuous
 62
     7
100
AcDbCircle
 10
-26.21210302141426
 20
-302.1898037033181
 30
0.0
 40
242.0541860874746
100
AcDbArc
 50
90.00000250447816
 51
93.05697440438689
  0
ARC
  5
272
330
1F
100
AcDbEntity
  8
0
  6
Continuous
 62
     7
100
AcDbCircle
 10
-13.21210263398407
 20
-60.80058930517623
 30
0.0
 40
0.3333333432674408
100
AcDbArc
 50
90.00000000000001
 51
180.0
  0
ARC
  5
273
330
1F
100
AcDbEntity
  8
0
  6
Continuous
 62
     7
100
AcDbCircle
 10
-26.21210302141426
 20
-302.1898037033181
 30
0.0
 40
242.0541860874746
100
AcDbArc
 50
86.9430255956131
 51
89.99999749552188
  0
ARC
  5
274
330
1F
100
AcDbEntity
  8
0
  6
Continuous
 62
     7
100
AcDbCircle
 10
73.35456559531767
 20
-60.46028663629473
 30
0.0
 40
0.3333333432674408
100
AcDbArc
 50
91.49999997623233
 51
180.0
  0
ARC
  5
275
330
1F
100
AcDbEntity
  8
0
  6
Continuous
 62
     7
100
AcDbCircle
 10
47.35456482045728
 20
-60.46028656456775
 30
0.0
 40
0.3333333432674408
100
AcDbArc
 50
0.0
 51
88.50000002376896
  0
ELLIPSE
  5
276
330
1F
100
AcDbEntity
  8
0
  6
Continuous
 62
     7
100
AcDbEllipse
 10
-38.64136873200452
 20
-52.2408089292253
 30
0.0
 11
0.4818980018624757
 21
-2.184697523267573
 31
0.0
210
0.0
220
0.0
230
1.0
 40
0.890525295615794
 41
4.518545595127835
 42
6.08938987410495
  0
ELLIPSE
  5
277
330
1F
100
AcDbEntity
  8
0
  6
Continuous
 62
     7
100
AcDbEllipse
 10
-13.78283731082402
 20
-52.2408089292253
 30
0.0
 11
-0.4818980018624722
 21
-2.184697523267574
 31
0.0
210
0.0
220
0.0
230
1.0
 40
0.890525295615791
 41
0.1937954330746243
 42
1.764639712051744
  0
ELLIPSE
  5
278
330
1F
100
AcDbEntity
  8
0
  6
Continuous
 62
     7
100
AcDbEllipse
 10
-40.19595200994277
 20
43.11431933982499
 30
0.0
 11
-2.920246394641822
 21
0.0004230500054873688
 31
0.0
210
0.0
220
0.0
230
1.0
 40
0.142163818331692
 41
3.141737521329185
 42
4.712407926337986
  0
ELLIPSE
  5
279
330
1F
100
AcDbEntity
  8
0
  6
Continuous
 62
     7
100
AcDbEllipse
 10
-42.26854067441255
 20
40.81358379762491
 30
0.0
 11
-3.363024370196861
 21
-2.131628207280301E-14
 31
0.0
210
0.0
220
0.0
230
1.0
 40
0.139851031913169
 41
3.141592910593837
 42
4.712388980384688
  0
ELLIPSE
  5
27A
330
1F
100
AcDbEntity
  8
0
  6
Continuous
 62
     7
100
AcDbEllipse
 10
-12.22825148975417
 20
43.11431933982499
 30
0.0
 11
2.920246425285004
 21
0.0
 31
0.0
210
0.0
220
0.0
230
1.0
 40
0.142163818331694
 41
1.570795534202829
 42
3.141592653589793
  0
ELLIPSE
  5
27B
330
1F
100
AcDbEntity
  8
0
  6
Continuous
 62
     7
100
AcDbEllipse
 10
-10.15566028215281
 20
40.81358379762491
 30
0.0
 11
3.363024370196861
 21
-2.131628207280301E-14
 31
0.0
210
0.0
220
0.0
230
1.0
 40
0.139851031913169
 41
1.570796326794897
 42
3.141591756408542
  0
DIMENSION
  5
27C
330
1F
100
AcDbEntity
  8
0
 62
     7
100
AcDbDimension
  2
*D2
 10
1.587900858848201
 20
97.86608052053657
 30
0.0
 11
-26.20776600173224
 21
97.86608052053657
 31
0.0
 70
   160
  1
167
 71
     5
 42
55.59333395957947
  3
ISO-25
100
AcDbAlignedDimension
 13
-54.00543310073127
 23
86.19940876760688
 33
0.0
 14
1.587900858848201
 24
86.19940876760688
 34
0.0
 50
180.0
100
AcDbRotatedDimension
1001
ACAD
1000
DSTYLE
1002
{
1070
   178
1070
     1
1070
   278
1070
    46
1070
   147
1040
0.800000011920929
1070
    77
1070
     1
1070
    74
1070
     0
1070
    73
1070
     0
1070
    42
1040
2.54
1070
    44
1040
1.0
1070
    76
1070
     0
1070
    75
1070
     0
1070
   279
1070
     0
1070
   271
1070
     0
1070
   173
1070
     1
1070
    41
1040
3.0
1070
   140
1040
3.200000047683716
1070
   344
1005
27D
1070
   343
1005
27D
1002
}
  0
DIMENSION
  5
290
330
1F
100
AcDbEntity
  8
0
 62
     7
100
AcDbDimension
  2
*D3
 10
21.58790109726678
 20
70.19940876760688
 30
0.0
 11
21.58790109726678
 21
52.75041181936469
 31
0.0
 70
   160
  1
105
 71
     5
 42
34.89999771118163
  3
ISO-25
100
AcDbAlignedDimension
 13
0.164942484824763
 23
35.29941105642526
 33
0.0
 14
4.121226129659647
 24
70.19940876760688
 34
0.0
 50
270.0
100
AcDbRotatedDimension
1001
ACAD
1000
DSTYLE
1002
{
1070
   178
1070
     1
1070
   278
1070
    46
1070
   147
1040
0.800000011920929
1070
    77
1070
     1
1070
    74
1070
     0
1070
    73
1070
     0
1070
    42
1040
2.54
1070
    44
1040
1.0
1070
    76
1070
     0
1070
    75
1070
     1
1070
   279
1070
     0
1070
   271
1070
     0
1070
   173
1070
     1
1070
    41
1040
3.0
1070
   140
1040
3.200000047683716
1070
   344
1005
27D
1070
   343
1005
27D
1002
}
  0
DIMENSION
  5
29C
330
1F
100
AcDbEntity
  8
0
 62
     7
100
AcDbDimension
  2
*D4
 10
21.58790109726678
 20
87.86608052053657
 30
0.0
 11
21.58790109726678
 21
79.03374464407173
 31
0.0
 70
   160
  1
53
 71
     5
 42
17.66667175292969
  3
ISO-25
100
AcDbAlignedDimension
 13
0.748016339271175
 23
70.19940876760688
 33
0.0
 14
-0.078765887291325
 24
87.86608052053657
 34
0.0
 50
270.0
100
AcDbRotatedDimension
1001
ACAD
1000
DSTYLE
1002
{
1070
   178
1070
     1
1070
   278
1070
    46
1070
   147
1040
0.800000011920929
1070
    77
1070
     1
1070
    74
1070
     0
1070
    73
1070
     0
1070
    42
1040
2.54
1070
    44
1040
1.0
1070
    76
1070
     1
1070
    75
1070
     1
1070
   279
1070
     0
1070
   271
1070
     0
1070
   173
1070
     1
1070
    41
1040
3.0
1070
   140
1040
3.200000047683716
1070
   344
1005
27D
1070
   343
1005
27D
1002
}
  0
DIMENSION
  5
2A7
330
1F
100
AcDbEntity
  8
0
 62
     7
100
AcDbDimension
  2
*D5
 10
31.58890109726679
 20
35.29941105642527
 30
0.0
 11
31.58890109726678
 21
61.58374388113227
 31
0.0
 70
   160
  1
158
 71
     5
 42
52.56666946411131
  3
ISO-25
100
AcDbAlignedDimension
 13
-0.078765887291325
 23
87.86608052053657
 33
0.0
 14
0.164942484824763
 24
35.29941105642526
 34
0.0
 50
90.00000000000001
100
AcDbRotatedDimension
1001
ACAD
1000
DSTYLE
1002
{
1070
   178
1070
     1
1070
   278
1070
    46
1070
   147
1040
0.800000011920929
1070
    77
1070
     1
1070
    74
1070
     0
1070
    73
1070
     0
1070
    42
1040
2.54
1070
    44
1040
1.0
1070
    76
1070
     0
1070
    75
1070
     0
1070
   279
1070
     0
1070
   271
1070
     0
1070
   173
1070
     1
1070
    41
1040
3.0
1070
   140
1040
3.200000047683716
1070
   344
1005
27D
1070
   343
1005
27D
1002
}
  0
DIMENSION
  5
2B4
330
1F
100
AcDbEntity
  8
0
 62
     7
100
AcDbDimension
  2
*D6
 10
11.58890109726678
 20
70.19940876760688
 30
0.0
 11
11.58890109726678
 21
78.08580879571643
 31
0.0
 70
   160
  1
5
 71
     5
 42
1.666666716337204
  3
ISO-25
100
AcDbAlignedDimension
 13
-6.508331478792513
 23
68.53274205126968
 33
0.0
 14
0.748016339271175
 24
70.19940876760688
 34
0.0
 50
270.0
100
AcDbRotatedDimension
1001
ACAD
1000
DSTYLE
1002
{
1070
   178
1070
     1
1070
   278
1070
    46
1070
   147
1040
0.800000011920929
1070
    77
1070
     1
1070
    74
1070
     0
1070
    73
1070
     0
1070
    42
1040
2.54
1070
    44
1040
2.286000000000001
1070
    76
1070
     1
1070
    75
1070
     0
1070
   279
1070
     0
1070
   271
1070
     0
1070
   173
1070
     1
1070
    41
1040
3.0
1070
   140
1040
3.200000047683716
1070
   344
1005
27D
1070
   343
1005
27D
1002
}
  0
DIMENSION
  5
2CA
330
1F
100
AcDbEntity
  8
0
 62
     7
100
AcDbDimension
  2
*D7
 10
2.735005366532818
 20
8.532744956996108
 30
0.0
 11
-26.21110302141426
 21
8.532744956996112
 31
0.0
 70
   160
  1
174
 71
     5
 42
57.89421951770782
  3
ISO-25
100
AcDbAlignedDimension
 13
-55.15921415117501
 23
-1.467255475137559
 33
0.0
 14
2.735005366532818
 24
-1.467255475137559
 34
0.0
 50
180.0
100
AcDbRotatedDimension
1001
ACAD
1000
DSTYLE
1002
{
1070
   178
1070
     1
1070
   278
1070
    46
1070
   147
1040
0.800000011920929
1070
    77
1070
     1
1070
    74
1070
     0
1070
    73
1070
     0
1070
    42
1040
2.54
1070
    44
1040
1.000000000000004
1070
    76
1070
     0
1070
    75
1070
     0
1070
   279
1070
     0
1070
   271
1070
     0
1070
   173
1070
     1
1070
    41
1040
3.0
1070
   140
1040
3.200000047683716
1070
   344
1005
27D
1070
   343
1005
27D
1002
}
  0
DIMENSION
  5
2D7
330
1F
100
AcDbEntity
  8
0
 62
     7
100
AcDbDimension
  2
*D8
 10
-65.15721415117501
 20
-56.13392107388768
 30
0.0
 11
-65.15721415117503
 21
-28.7995890121201
 31
0.0
 70
   160
  1
164
 71
     5
 42
54.66666559875011
  3
ISO-25
100
AcDbAlignedDimension
 13
-55.15921415117501
 23
-1.467255475137563
 33
0.0
 14
-44.74543393877266
 24
-56.13392107388766
 34
0.0
 50
90.00000000000001
100
AcDbRotatedDimension
1001
ACAD
1000
DSTYLE
1002
{
1070
   178
1070
     1
1070
   278
1070
    46
1070
   147
1040
0.800000011920929
1070
    77
1070
     1
1070
    74
1070
     0
1070
    73
1070
     0
1070
    42
1040
2.54
1070
    44
1040
1.0
1070
    76
1070
     0
1070
    75
1070
     1
1070
   279
1070
     0
1070
   271
1070
     0
1070
   173
1070
     1
1070
    41
1040
3.0
1070
   140
1040
3.200000047683716
1070
   344
1005
27D
1070
   343
1005
27D
1002
}
  0
DIMENSION
  5
2E3
330
1F
100
AcDbEntity
  8
0
 62
     7
100
AcDbDimension
  2
*D9
 10
62.02123342725517
 20
-50.59724983975682
 30
0.0
 11
52.46816668280842
 21
-50.59724983975682
 31
0.0
 70
   160
  1
5
 71
     5
 42
1.666666716337204
  3
ISO-25
100
AcDbAlignedDimension
 13
60.35456671091796
 23
-49.07654270544056
 33
0.0
 14
62.02123342725517
 24
-51.77879564664158
 34
0.0
 50
180.0
100
AcDbRotatedDimension
1001
ACAD
1000
DSTYLE
1002
{
1070
   178
1070
     1
1070
   278
1070
    46
1070
   147
1040
0.800000011920929
1070
    77
1070
     1
1070
    74
1070
     0
1070
    73
1070
     0
1070
    42
1040
2.54
1070
    44
1040
2.286000000000001
1070
    76
1070
     1
1070
    75
1070
     1
1070
   279
1070
     0
1070
   271
1070
     0
1070
   173
1070
     1
1070
    41
1040
3.0
1070
   140
1040
3.200000047683716
1070
   344
1005
27D
1070
   343
1005
27D
1002
}
  0
DIMENSION
  5
2F7
330
1F
100
AcDbEntity
  8
0
 62
     7
100
AcDbDimension
  2
*D10
 10
76.68790136548759
 20
8.532744956996108
 30
0.0
 11
51.53472656080009
 21
8.532744956996112
 31
0.0
 70
   160
  1
120.5
 71
     5
 42
40.16666412353516
  3
ISO-25
100
AcDbAlignedDimension
 13
36.52123724195243
 23
-9.467260765049783
 33
0.0
 14
76.68790136548759
 24
-17.80059473416599
 34
0.0
 50
180.0
100
AcDbRotatedDimension
1001
ACAD
1000
DSTYLE
1002
{
1070
   178
1070
     1
1070
   278
1070
    46
1070
   147
1040
0.800000011920929
1070
    77
1070
     1
1070
    74
1070
     0
1070
    73
1070
     0
1070
    42
1040
2.54
1070
    44
1040
1.000000000000004
1070
    76
1070
     0
1070
    75
1070
     0
1070
   279
1070
     0
1070
   271
1070
     1
1070
   173
1070
     1
1070
    41
1040
3.0
1070
   140
1040
3.200000047683716
1070
   344
1005
27D
1070
   343
1005
27D
1002
}
  0
DIMENSION
  5
304
330
1F
100
AcDbEntity
  8
0
 62
     7
100
AcDbDimension
  2
*D11
 10
62.02123342725517
 20
18.53274495699611
 30
0.0
 11
44.57223266431571
 21
18.53274495699611
 31
0.0
 70
   160
  1
105
 71
     5
 42
34.90000152587891
  3
ISO-25
100
AcDbAlignedDimension
 13
27.12123190137626
 23
-1.467255475137559
 33
0.0
 14
62.02123342725517
 24
-31.80059664151463
 34
0.0
 50
180.0
100
AcDbRotatedDimension
1001
ACAD
1000
DSTYLE
1002
{
1070
   178
1070
     1
1070
   278
1070
    46
1070
   147
1040
0.800000011920929
1070
    77
1070
     1
1070
    74
1070
     0
1070
    73
1070
     0
1070
    42
1040
2.54
1070
    44
1040
1.000000000000004
1070
    76
1070
     0
1070
    75
1070
     0
1070
   279
1070
     0
1070
   271
1070
     0
1070
   173
1070
     1
1070
    41
1040
3.0
1070
   140
1040
3.200000047683716
1070
   344
1005
27D
1070
   343
1005
27D
1002
}
  0
DIMENSION
  5
311
330
1F
100
AcDbEntity
  8
0
 62
     7
100
AcDbDimension
  2
*D12
 10
79.68790136548759
 20
18.53274495699611
 30
0.0
 11
70.85556548902275
 21
18.53274495699611
 31
0.0
 70
   160
  1
53
 71
     5
 42
17.66666793823242
  3
ISO-25
100
AcDbAlignedDimension
 13
62.02123342725517
 23
-31.80059664151463
 33
0.0
 14
79.68790136548759
 24
-13.13392202756199
 34
0.0
 50
180.0
100
AcDbRotatedDimension
1001
ACAD
1000
DSTYLE
1002
{
1070
   178
1070
     1
1070
   278
1070
    46
1070
   147
1040
0.800000011920929
1070
    77
1070
     1
1070
    74
1070
     0
1070
    73
1070
     0
1070
    42
1040
2.54
1070
    44
1040
1.000000000000004
1070
    76
1070
     0
1070
    75
1070
     1
1070
   279
1070
     0
1070
   271
1070
     0
1070
   173
1070
     1
1070
    41
1040
3.0
1070
   140
1040
3.200000047683716
1070
   344
1005
27D
1070
   343
1005
27D
1002
}
  0
DIMENSION
  5
31D
330
1F
100
AcDbEntity
  8
0
 62
     7
100
AcDbDimension
  2
*D13
 10
17.12323190137627
 20
-34.80059664151464
 30
0.0
 11
17.12323190137626
 21
-22.13292870328221
 31
0.0
 70
   160
  1
76
 71
     5
 42
25.33333587646485
  3
ISO-25
100
AcDbAlignedDimension
 13
29.12187086316825
 23
-9.467260765049787
 33
0.0
 14
44.23178945752861
 24
-34.80059664151463
 34
0.0
 50
90.00000000000001
100
AcDbRotatedDimension
1001
ACAD
1000
DSTYLE
1002
{
1070
   178
1070
     1
1070
   278
1070
    46
1070
   147
1040
0.800000011920929
1070
    77
1070
     1
1070
    74
1070
     0
1070
    73
1070
     0
1070
    42
1040
2.54
1070
    44
1040
1.0
1070
    76
1070
     0
1070
    75
1070
     0
1070
   279
1070
     0
1070
   271
1070
     0
1070
   173
1070
     1
1070
    41
1040
3.0
1070
   140
1040
3.200000047683716
1070
   344
1005
27D
1070
   343
1005
27D
1002
}
  0
DIMENSION
  5
32A
330
1F
100
AcDbEntity
  8
0
 62
     7
100
AcDbDimension
  2
*D14
 10
89.6889013654876
 20
-34.80059664151463
 30
0.0
 11
89.6889013654876
 21
-26.29959664151462
 31
0.0
 70
   160
  1
51
 71
     5
 42
17.00000190734863
  3
ISO-25
100
AcDbAlignedDimension
 13
79.35455785962822
 23
-17.800594734166
 33
0.0
 14
73.23179327222587
 24
-34.80059664151463
 34
0.0
 50
90.00000000000001
100
AcDbRotatedDimension
1001
ACAD
1000
DSTYLE
1002
{
1070
   178
1070
     1
1070
   278
1070
    46
1070
   147
1040
0.800000011920929
1070
    77
1070
     1
1070
    74
1070
     0
1070
    73
1070
     0
1070
    42
1040
2.54
1070
    44
1040
1.0
1070
    76
1070
     0
1070
    75
1070
     0
1070
   279
1070
     0
1070
   271
1070
     0
1070
   173
1070
     1
1070
    41
1040
3.0
1070
   140
1040
3.200000047683716
1070
   344
1005
27D
1070
   343
1005
27D
1002
}
  0
DIMENSION
  5
337
330
1F
100
AcDbEntity
  8
0
 62
     7
100
AcDbDimension
  2
*D15
 10
73.23179327222587
 20
-41.37275872037205
 30
0.0
 11
58.7327894575286
 21
-41.37275872037205
 31
0.0
 70
   160
  1
87
 71
     5
 42
29.00000381469727
  3
ISO-25
100
AcDbAlignedDimension
 13
44.23178945752861
 23
-34.80059664151463
 33
0.0
 14
73.23179327222587
 24
-34.80059664151463
 34
0.0
 50
180.0
100
AcDbRotatedDimension
1001
ACAD
1000
DSTYLE
1002
{
1070
   178
1070
     1
1070
   278
1070
    46
1070
   147
1040
0.800000011920929
1070
    77
1070
     1
1070
    74
1070
     0
1070
    73
1070
     0
1070
    42
1040
2.54
1070
    44
1040
1.0
1070
    76
1070
     0
1070
    75
1070
     0
1070
   279
1070
     0
1070
   271
1070
     0
1070
   173
1070
     1
1070
    41
1040
3.0
1070
   140
1040
3.200000047683716
1070
   344
1005
27D
1070
   343
1005
27D
1002
}
  0
DIMENSION
  5
344
330
1F
100
AcDbEntity
  8
0
 62
     7
100
AcDbDimension
  2
*D16
 10
77.26126767388996
 20
-79.4662577997187
 30
0.0
 11
60.48369116923705
 21
-79.4662577997187
 31
0.0
 70
   160
  1
101
 71
     5
 42
33.55715300930584
  3
ISO-25
100
AcDbAlignedDimension
 13
43.70411466458413
 23
-60.03124855717836
 33
0.0
 14
77.26126767388996
 24
-60.02453843626198
 34
0.0
 50
180.0
100
AcDbRotatedDimension
1001
ACAD
1000
DSTYLE
1002
{
1070
   178
1070
     1
1070
   278
1070
    46
1070
   147
1040
0.800000011920929
1070
    77
1070
     1
1070
    74
1070
     0
1070
    73
1070
     0
1070
    42
1040
2.54
1070
    44
1040
2.286000000000001
1070
    76
1070
     0
1070
    75
1070
     0
1070
   279
1070
     0
1070
   271
1070
     0
1070
   173
1070
     1
1070
    41
1040
3.0
1070
   140
1040
3.200000047683716
1070
   344
1005
27D
1070
   343
1005
27D
1002
}
  0
DIMENSION
  5
351
330
1F
100
AcDbEntity
  8
0
 62
     7
100
AcDbDimension
  2
*D17
 10
-65.15721415117503
 20
-69.4672575016955
 30
0.0
 11
-65.15721415117503
 21
-62.79959000056378
 31
0.0
 70
   160
  1
40
 71
     5
 42
13.33333500226343
  3
ISO-25
100
AcDbAlignedDimension
 13
-44.87877024439098
 23
-56.13392249943206
 33
0.0
 14
-35.65163780794268
 24
-69.46725750169549
 34
0.0
 50
90.00000000000001
100
AcDbRotatedDimension
1001
ACAD
1000
DSTYLE
1002
{
1070
   178
1070
     1
1070
   278
1070
    46
1070
   147
1040
0.800000011920929
1070
    77
1070
     1
1070
    74
1070
     0
1070
    73
1070
     0
1070
    42
1040
2.54
1070
    44
1040
2.286000000000001
1070
    76
1070
     1
1070
    75
1070
     1
1070
   279
1070
     0
1070
   271
1070
     0
1070
   173
1070
     1
1070
    41
1040
3.0
1070
   140
1040
3.200000047683716
1070
   344
1005
27D
1070
   343
1005
27D
1002
}
  0
DIMENSION
  5
35C
330
1F
100
AcDbEntity
  8
0
 62
     7
100
AcDbDimension
  2
*D18
 10
-75.15821444919825
 20
-1.467255475137556
 30
0.0
 11
-75.15821444919825
 21
-35.46625648841653
 31
0.0
 70
   160
  1
204
 71
     5
 42
68.00000202655792
  3
ISO-25
100
AcDbAlignedDimension
 13
-35.65163780794268
 23
-69.46725750169549
 33
0.0
 14
-55.15922200747804
 24
-1.467255475137563
 34
0.0
 50
270.0
100
AcDbRotatedDimension
1001
ACAD
1000
DSTYLE
1002
{
1070
   178
1070
     1
1070
   278
1070
    46
1070
   147
1040
0.800000011920929
1070
    77
1070
     1
1070
    74
1070
     0
1070
    73
1070
     0
1070
    42
1040
2.54
1070
    44
1040
2.286000000000001
1070
    76
1070
     0
1070
    75
1070
     0
1070
   279
1070
     0
1070
   271
1070
     0
1070
   173
1070
     1
1070
    41
1040
3.0
1070
   140
1040
3.200000047683716
1070
   344
1005
27D
1070
   343
1005
27D
1002
}
  0
DIMENSION
  5
369
330
1F
100
AcDbEntity
  8
0
 62
     7
100
AcDbDimension
  2
*D19
 10
-16.32876824521601
 20
-79.4662577997187
 30
0.0
 11
-26.21110302141426
 21
-79.4662577997187
 31
0.0
 70
   160
  1
\U+220559
 71
     5
 42
19.76666922668622
  3
ISO-25
100
AcDbAlignedDimension
 13
-36.09543747190222
 23
-69.46725750169549
 33
0.0
 14
-16.328768245216
 24
-69.46725750169549
 34
0.0
 50
180.0
100
AcDbRotatedDimension
1001
ACAD
1000
DSTYLE
1002
{
1070
   178
1070
     1
1070
   278
1070
    46
1070
   147
1040
0.800000011920929
1070
    77
1070
     1
1070
    74
1070
     0
1070
    73
1070
     0
1070
    42
1040
2.54
1070
    44
1040
2.286000000000001
1070
    76
1070
     0
1070
    75
1070
     0
1070
   279
1070
     0
1070
   271
1070
     0
1070
   173
1070
     1
1070
    41
1040
3.0
1070
   140
1040
3.200000047683716
1070
   344
1005
27D
1070
   343
1005
27D
1002
}
  0
DIMENSION
  5
376
330
1F
100
AcDbEntity
  8
0
 62
     7
100
AcDbDimension
  2
*D20
 10
-13.69542415225057
 20
-89.46625809774193
 30
0.0
 11
-26.21110302141426
 21
-89.46625809774193
 31
0.0
 70
   160
  1
\U+220575
 71
     5
 42
25.03335773050856
  3
ISO-25
100
AcDbAlignedDimension
 13
-38.72878188275912
 23
-66.88392154824123
 33
0.0
 14
-13.69542415225056
 24
-66.88392154824123
 34
0.0
 50
180.0
100
AcDbRotatedDimension
1001
ACAD
1000
DSTYLE
1002
{
1070
   178
1070
     1
1070
   278
1070
    46
1070
   147
1040
0.800000011920929
1070
    77
1070
     1
1070
    74
1070
     0
1070
    73
1070
     0
1070
    42
1040
2.54
1070
    44
1040
2.286000000000001
1070
    76
1070
     0
1070
    75
1070
     0
1070
   279
1070
     0
1070
   271
1070
     0
1070
   173
1070
     1
1070
    41
1040
3.0
1070
   140
1040
3.200000047683716
1070
   344
1005
27D
1070
   343
1005
27D
1002
}
  0
LWPOLYLINE
  5
384
330
1F
100
AcDbEntity
  8
VIEW0001
  6
Continuous
 62
     7
100
AcDbPolyline
 90
        2
 70
     0
 10
25.75
 20
-129.0
 40
0.001000000047497
 41
0.001000000047497
 10
25.75
 20
-120.0
 40
0.001000000047497
 41
0.001000000047497
  0
LWPOLYLINE
  5
385
330
1F
100
AcDbEntity
  8
VIEW0001
  6
Continuous
 62
     7
100
AcDbPolyline
 90
        2
 70
     0
 10
-64.5
 20
-138.0
 40
0.001000000047497
 41
0.001000000047497
 10
-64.5
 20
-120.0
 40
0.001000000047497
 41
0.001000000047497
  0
LINE
  5
386
330
1F
100
AcDbEntity
  8
VIEW0001
  6
Continuous
 62
     7
370
    50
100
AcDbLine
 10
-84.5
 20
138.0
 30
0.0
 11
-84.5
 21
-138.0
 31
0.0
  0
LINE
  5
387
330
1F
100
AcDbEntity
  8
VIEW0001
  6
Continuous
 62
     7
370
    50
100
AcDbLine
 10
96.0
 20
138.0
 30
0.0
 11
96.0
 21
-138.0
 31
0.0
  0
LINE
  5
388
330
1F
100
AcDbEntity
  8
VIEW0001
  6
Continuous
 62
     7
370
    50
100
AcDbLine
 10
-84.5
 20
-138.0
 30
0.0
 11
96.0
 21
-138.0
 31
0.0
  0
LINE
  5
389
330
1F
100
AcDbEntity
  8
VIEW0001
  6
Continuous
 62
     7
370
    50
100
AcDbLine
 10
-84.5
 20
138.0
 30
0.0
 11
96.0
 21
138.0
 31
0.0
  0
LINE
  5
38A
330
1F
100
AcDbEntity
  8
VIEW0001
  6
Continuous
 62
     7
370
    20
100
AcDbLine
 10
-84.5
 20
-120.0
 30
0.0
 11
96.0
 21
-120.0
 31
0.0
  0
LWPOLYLINE
  5
38B
330
1F
100
AcDbEntity
  8
VIEW0001
  6
Continuous
 62
     7
100
AcDbPolyline
 90
        2
 70
     0
 10
96.0
 20
-129.0
 40
0.001000000047497
 41
0.001000000047497
 10
-84.5
 20
-129.0
 40
0.001000000047497
 41
0.001000000047497
  0
LINE
  5
38C
330
1F
100
AcDbEntity
  8
VIEW0001
  6
Continuous
 62
     7
370
    20
100
AcDbLine
 10
41.0
 20
128.0
 30
0.0
 11
96.0
 21
128.0
 31
0.0
  0
LINE
  5
38D
330
1F
100
AcDbEntity
  8
VIEW0001
  6
Continuous
 62
     7
370
    20
100
AcDbLine
 10
41.0
 20
138.0
 30
0.0
 11
41.0
 21
128.0
 31
0.0
  0
LWPOLYLINE
  5
38E
330
1F
100
AcDbEntity
  8
VIEW0001
  6
Continuous
 62
     7
100
AcDbPolyline
 90
        2
 70
     0
 10
5.75
 20
-138.0
 40
0.001000000047497
 41
0.001000000047497
 10
5.75
 20
-120.0
 40
0.001000000047497
 41
0.001000000047497
  0
LWPOLYLINE
  5
38F
330
1F
100
AcDbEntity
  8
VIEW0001
  6
Continuous
 62
     7
100
AcDbPolyline
 90
        2
 70
     0
 10
66.0
 20
-129.0
 40
0.001000000047497
 41
0.001000000047497
 10
66.0
 20
-120.0
 40
0.001000000047497
 41
0.001000000047497
  0
LWPOLYLINE
  5
390
330
1F
100
AcDbEntity
  8
VIEW0001
  6
Continuous
 62
     7
100
AcDbPolyline
 90
        2
 70
     0
 10
81.0
 20
-129.0
 40
0.001000000047497
 41
0.001000000047497
 10
81.0
 20
-120.0
 40
0.001000000047497
 41
0.001000000047497
  0
MTEXT
  5
391
330
1F
100
AcDbEntity
  8
VIEW0001
 62
     1
100
AcDbMText
 10
9.321428060531616
 20
-126.5
 30
0.0
 40
4.0
 41
0.0
 71
     7
 72
     1
  1
{\W2.08333;材質}
 73
     1
 44
1.0
  0
MTEXT
  5
392
330
1F
100
AcDbEntity
  8
VIEW0001
 62
     1
100
AcDbMText
 10
67.57142806053162
 20
-126.5
 30
0.0
 40
4.0
 41
0.0
 71
     7
 72
     1
  1
{\W1.875;尺度}
 73
     1
 44
1.0
  0
MTEXT
  5
393
330
1F
100
AcDbEntity
  8
VIEW0001
 62
     1
100
AcDbMText
 10
-80.92857193946838
 20
-135.5
 30
0.0
 40
4.0
 41
0.0
 71
     7
 72
     1
  1
{\W2.08333;規格}
 73
     1
 44
1.0
  0
MTEXT
  5
394
330
1F
100
AcDbEntity
  8
VIEW0001
 62
     1
100
AcDbMText
 10
-80.92857193946838
 20
-126.5
 30
0.0
 40
4.0
 41
0.0
 71
     7
 72
     1
  1
{\W2.08333;品名}
 73
     1
 44
1.0
  0
MTEXT
  5
395
330
1F
100
AcDbEntity
  8
VIEW0001
 62
     1
100
AcDbMText
 10
-50.80375063419342
 20
-135.5
 30
0.0
 40
4.0
 41
0.0
 71
     7
 72
     1
  1
{\W0.833333;DL55－60(75)}
 73
     1
 44
1.0
  0
MTEXT
  5
396
330
1F
100
AcDbEntity
  8
VIEW0001
 62
     1
100
AcDbMText
 10
83.07124984264374
 20
-126.5
 30
0.0
 40
4.0
 41
0.0
 71
     7
 72
     1
  1
{\W0.833333;1/3}
 73
     1
 44
1.0
  0
MTEXT
  5
397
330
1F
100
AcDbEntity
  8
VIEW0001
 62
     1
100
AcDbMText
 10
26.46785604953766
 20
-135.75
 30
0.0
 40
4.5
 41
0.0
 71
     7
 72
     1
  1
{\W1.40741;デンカ株式会社}
 73
     1
 44
1.0
  0
MTEXT
  5
398
330
1F
100
AcDbEntity
  8
VIEW0001
 62
     1
100
AcDbMText
 10
-40.8037503361702
 20
-126.5
 30
0.0
 40
4.0
 41
0.0
 71
     7
 72
     1
  1
{\W0.833333;DLじょうご}
 73
     1
 44
1.0
  0
MTEXT
  5
399
330
1F
100
AcDbEntity
  8
VIEW0001
 62
     1
100
AcDbMText
 10
36.44624972343445
 20
-126.5
 30
0.0
 40
4.0
 41
0.0
 71
     7
 72
     1
  1
{\W0.833333;硬質ＰＶＣ}
 73
     1
 44
1.0
  0
ENDSEC
  0
SECTION
  2
OBJECTS
  0
DICTIONARY
  5
C
330
0
100
AcDbDictionary
281
     1
  3
ACAD_GROUP
350
D
  3
ACAD_LAYOUT
350
1A
  3
ACAD_MATERIAL
350
3B
  3
ACAD_MLEADERSTYLE
350
3C1
  3
ACAD_MLINESTYLE
350
17
  3
ACAD_PLOTSETTINGS
350
19
  3
ACAD_PLOTSTYLENAME
350
E
  3
ACAD_TABLESTYLE
350
3C0
  3
ACAD_VISUALSTYLE
350
2A
  0
DICTIONARY
  5
D
102
{ACAD_REACTORS
330
C
102
}
330
C
100
AcDbDictionary
281
     1
  0
DICTIONARY
  5
1A
102
{ACAD_REACTORS
330
C
102
}
330
C
100
AcDbDictionary
281
     1
  3
Layout1
350
1E
  3
Layout2
350
26
  3
Model
350
22
  0
DICTIONARY
  5
3B
102
{ACAD_REACTORS
330
C
102
}
330
C
100
AcDbDictionary
281
     1
  3
ByBlock
350
3D
  3
ByLayer
350
3C
  3
Global
350
3E
  0
DICTIONARY
  5
3C1
102
{ACAD_REACTORS
330
C
102
}
330
C
100
AcDbDictionary
281
     1
  0
DICTIONARY
  5
17
102
{ACAD_REACTORS
330
C
102
}
330
C
100
AcDbDictionary
281
     1
  3
Standard
350
18
  0
DICTIONARY
  5
19
102
{ACAD_REACTORS
330
C
102
}
330
C
100
AcDbDictionary
281
     1
  0
ACDBDICTIONARYWDFLT
  5
E
102
{ACAD_REACTORS
330
C
102
}
330
C
100
AcDbDictionary
281
     1
  3
Normal
350
F
100
AcDbDictionaryWithDefault
340
F
  0
DICTIONARY
  5
3C0
102
{ACAD_REACTORS
330
C
102
}
330
C
100
AcDbDictionary
281
     1
  0
DICTIONARY
  5
2A
102
{ACAD_REACTORS
330
C
102
}
330
C
100
AcDbDictionary
281
     1
  3
2dWireframe
350
2F
  3
3D Hidden
350
31
  3
3dWireframe
350
30
  3
Basic
350
32
  3
Brighten
350
36
  3
ColorChange
350
3A
  3
Conceptual
350
34
  3
Dim
350
35
  3
Facepattern
350
39
  3
Flat
350
2B
  3
FlatWithEdges
350
2C
  3
Gouraud
350
2D
  3
GouraudWithEdges
350
2E
  3
Linepattern
350
38
  3
Realistic
350
33
  3
Thicken
350
37
  0
LAYOUT
  5
1E
102
{ACAD_REACTORS
330
1A
102
}
330
1A
100
AcDbPlotSettings
  1

  2
none_device
  4

  6

 40
0.0
 41
0.0
 42
0.0
 43
0.0
 44
0.0
 45
0.0
 46
0.0
 47
0.0
 48
0.0
 49
0.0
140
0.0
141
0.0
142
1.0
143
1.0
 70
   688
 72
     0
 73
     0
 74
     5
  7

 75
    16
 76
     0
 77
     2
 78
   300
147
1.0
148
0.0
149
0.0
100
AcDbLayout
  1
Layout1
 70
     1
 71
     1
 10
-105.0
 20
-148.5
 11
105.0
 21
148.5
 12
0.0
 22
0.0
 32
0.0
 14
1.000000000000000E+20
 24
1.000000000000000E+20
 34
1.000000000000000E+20
 15
-1.000000000000000E+20
 25
-1.000000000000000E+20
 35
-1.000000000000000E+20
146
0.0
 13
0.0
 23
0.0
 33
0.0
 16
1.0
 26
0.0
 36
0.0
 17
0.0
 27
1.0
 37
0.0
 76
     0
330
1B
  0
LAYOUT
  5
26
102
{ACAD_REACTORS
330
1A
102
}
330
1A
100
AcDbPlotSettings
  1

  2
none_device
  4

  6

 40
0.0
 41
0.0
 42
0.0
 43
0.0
 44
0.0
 45
0.0
 46
0.0
 47
0.0
 48
0.0
 49
0.0
140
0.0
141
0.0
142
1.0
143
1.0
 70
   688
 72
     0
 73
     0
 74
     5
  7

 75
    16
 76
     0
 77
     2
 78
   300
147
1.0
148
0.0
149
0.0
100
AcDbLayout
  1
Layout2
 70
     1
 71
     2
 10
0.0
 20
0.0
 11
0.0
 21
0.0
 12
0.0
 22
0.0
 32
0.0
 14
0.0
 24
0.0
 34
0.0
 15
0.0
 25
0.0
 35
0.0
146
0.0
 13
0.0
 23
0.0
 33
0.0
 16
1.0
 26
0.0
 36
0.0
 17
0.0
 27
1.0
 37
0.0
 76
     0
330
23
  0
LAYOUT
  5
22
102
{ACAD_REACTORS
330
1A
102
}
330
1A
100
AcDbPlotSettings
  1

  2
none_device
  4

  6

 40
0.0
 41
0.0
 42
0.0
 43
0.0
 44
0.0
 45
0.0
 46
0.0
 47
0.0
 48
0.0
 49
0.0
140
0.0
141
0.0
142
1.0
143
1.0
 70
  1712
 72
     0
 73
     0
 74
     0
  7

 75
     0
 76
     0
 77
     2
 78
   300
147
1.0
148
0.0
149
0.0
100
AcDbLayout
  1
Model
 70
     1
 71
     0
 10
-105.0
 20
-148.5
 11
105.0
 21
148.5
 12
0.0
 22
0.0
 32
0.0
 14
-105.0
 24
-148.5
 34
0.0
 15
105.0
 25
148.5
 35
0.0
146
0.0
 13
0.0
 23
0.0
 33
0.0
 16
1.0
 26
0.0
 36
0.0
 17
0.0
 27
1.0
 37
0.0
 76
     0
330
1F
331
29
  0
MATERIAL
  5
3D
102
{ACAD_REACTORS
330
3B
102
}
102
{ACAD_XDICTIONARY
360
3BC
102
}
330
3B
100
AcDbMaterial
  1
ByBlock
  0
MATERIAL
  5
3C
102
{ACAD_REACTORS
330
3B
102
}
102
{ACAD_XDICTIONARY
360
3BA
102
}
330
3B
100
AcDbMaterial
  1
ByLayer
  0
MATERIAL
  5
3E
102
{ACAD_REACTORS
330
3B
102
}
102
{ACAD_XDICTIONARY
360
3BE
102
}
330
3B
100
AcDbMaterial
  1
Global
  0
MLINESTYLE
  5
18
102
{ACAD_REACTORS
330
17
102
}
330
17
100
AcDbMlineStyle
  2
Standard
 70
     0
  3

 62
   256
 51
90.0
 52
90.0
 71
     2
 49
0.5
 62
   256
  6
BYLAYER
 49
-0.5
 62
   256
  6
BYLAYER
  0
ACDBPLACEHOLDER
  5
F
102
{ACAD_REACTORS
330
E
102
}
330
E
  0
VISUALSTYLE
  5
2F
102
{ACAD_REACTORS
330
2A
102
}
102
{ACAD_XDICTIONARY
360
3A2
102
}
330
2A
100
AcDbVisualStyle
  2
2dWireframe
 70
     4
 71
     0
 72
     2
 73
     0
 90
        0
 40
-0.6
 41
-30.0
 62
     5
 63
     7
421
 16777215
 74
     1
 91
        4
 64
     7
 65
   257
 75
     1
175
     1
 42
1.0
 92
        0
 66
   257
 43
1.0
 76
     1
 77
     6
 78
     2
 67
     7
 79
     5
170
     0
171
     0
290
     0
174
     0
 93
        1
 44
0.0
173
     0
291
     0
 45
0.0
1001
ACAD
1000
AcDbSavedByObjectVersion
1070
     0
  0
VISUALSTYLE
  5
31
102
{ACAD_REACTORS
330
2A
102
}
102
{ACAD_XDICTIONARY
360
3A6
102
}
330
2A
100
AcDbVisualStyle
  2
3D Hidden
 70
     6
 71
     1
 72
     2
 73
     2
 90
        0
 40
-0.6
 41
-30.0
 62
     5
 63
     7
421
 16777215
 74
     2
 91
        2
 64
     7
 65
   257
 75
     2
175
     1
 42
40.0
 92
        0
 66
   257
 43
1.0
 76
     1
 77
     6
 78
     2
 67
     7
 79
     3
170
     0
171
     0
290
     0
174
     0
 93
        1
 44
0.0
173
     0
291
     0
 45
0.0
1001
ACAD
1000
AcDbSavedByObjectVersion
1070
     0
  0
VISUALSTYLE
  5
30
102
{ACAD_REACTORS
330
2A
102
}
102
{ACAD_XDICTIONARY
360
3A4
102
}
330
2A
100
AcDbVisualStyle
  2
3dWireframe
 70
     5
 71
     0
 72
     2
 73
     0
 90
        0
 40
-0.6
 41
-30.0
 62
     5
 63
     7
421
 16777215
 74
     1
 91
        4
 64
     7
 65
   257
 75
     1
175
     1
 42
1.0
 92
        0
 66
   257
 43
1.0
 76
     1
 77
     6
 78
     2
 67
     7
 79
     5
170
     0
171
     0
290
     0
174
     0
 93
        1
 44
0.0
173
     0
291
     0
 45
0.0
1001
ACAD
1000
AcDbSavedByObjectVersion
1070
     0
  0
VISUALSTYLE
  5
32
102
{ACAD_REACTORS
330
2A
102
}
102
{ACAD_XDICTIONARY
360
3A8
102
}
330
2A
100
AcDbVisualStyle
  2
Basic
 70
     7
 71
     1
 72
     0
 73
     1
 90
        0
 40
-0.6
 41
-30.0
 62
     5
 63
     7
421
 16777215
 74
     0
 91
        4
 64
     7
 65
   257
 75
     1
175
     1
 42
1.0
 92
        8
 66
     7
 43
1.0
 76
     1
 77
     6
 78
     2
 67
     7
 79
     5
170
     0
171
     0
290
     0
174
     0
 93
        1
 44
0.0
173
     0
291
     1
 45
0.0
1001
ACAD
1000
AcDbSavedByObjectVersion
1070
     0
  0
VISUALSTYLE
  5
36
102
{ACAD_REACTORS
330
2A
102
}
102
{ACAD_XDICTIONARY
360
3B0
102
}
330
2A
100
AcDbVisualStyle
  2
Brighten
 70
    12
 71
     2
 72
     2
 73
     0
 90
        0
 40
-0.6
 41
-30.0
 62
     5
 63
     7
421
 16777215
 74
     1
 91
        4
 64
     7
 65
   257
 75
     1
175
     1
 42
1.0
 92
        8
 66
     7
 43
1.0
 76
     1
 77
     6
 78
     2
 67
     7
 79
     5
170
     0
171
     0
290
     0
174
     0
 93
        1
 44
50.0
173
     0
291
     1
 45
0.0
1001
ACAD
1000
AcDbSavedByObjectVersion
1070
     0
  0
VISUALSTYLE
  5
3A
102
{ACAD_REACTORS
330
2A
102
}
102
{ACAD_XDICTIONARY
360
3B8
102
}
330
2A
100
AcDbVisualStyle
  2
ColorChange
 70
    16
 71
     2
 72
     2
 73
     3
 90
        0
 40
-0.6
 41
-30.0
 62
     5
 63
     8
421
  8421504
 74
     1
 91
        4
 64
     7
 65
   257
 75
     1
175
     1
 42
1.0
 92
        8
 66
     8
424
  8421504
 43
1.0
 76
     1
 77
     6
 78
     2
 67
     7
 79
     5
170
     0
171
     0
290
     0
174
     0
 93
        1
 44
0.0
173
     0
291
     1
 45
0.0
1001
ACAD
1000
AcDbSavedByObjectVersion
1070
     0
  0
VISUALSTYLE
  5
34
102
{ACAD_REACTORS
330
2A
102
}
102
{ACAD_XDICTIONARY
360
3AC
102
}
330
2A
100
AcDbVisualStyle
  2
Conceptual
 70
     9
 71
     3
 72
     2
 73
     0
 90
        0
 40
-0.6
 41
-30.0
 62
     5
 63
     7
421
 16777215
 74
     2
 91
        2
 64
     7
 65
   257
 75
     1
175
     1
 42
40.0
 92
        8
 66
     7
 43
1.0
 76
     1
 77
     6
 78
     2
 67
     7
 79
     3
170
     0
171
     0
290
     0
174
     0
 93
        1
 44
0.0
173
     0
291
     0
 45
0.0
1001
ACAD
1000
AcDbSavedByObjectVersion
1070
     0
  0
VISUALSTYLE
  5
35
102
{ACAD_REACTORS
330
2A
102
}
102
{ACAD_XDICTIONARY
360
3AE
102
}
330
2A
100
AcDbVisualStyle
  2
Dim
 70
    11
 71
     2
 72
     2
 73
     0
 90
        0
 40
-0.6
 41
-30.0
 62
     5
 63
     7
421
 16777215
 74
     1
 91
        4
 64
     7
 65
   257
 75
     1
175
     1
 42
1.0
 92
        8
 66
     7
 43
1.0
 76
     1
 77
     6
 78
     2
 67
     7
 79
     5
170
     0
171
     0
290
     0
174
     0
 93
        1
 44
-50.0
173
     0
291
     1
 45
0.0
1001
ACAD
1000
AcDbSavedByObjectVersion
1070
     0
  0
VISUALSTYLE
  5
39
102
{ACAD_REACTORS
330
2A
102
}
102
{ACAD_XDICTIONARY
360
3B6
102
}
330
2A
100
AcDbVisualStyle
  2
Facepattern
 70
    15
 71
     2
 72
     2
 73
     0
 90
        0
 40
-0.6
 41
-30.0
 62
     5
 63
     7
421
 16777215
 74
     1
 91
        4
 64
     7
 65
   257
 75
     1
175
     1
 42
1.0
 92
        8
 66
     7
 43
1.0
 76
     1
 77
     6
 78
     2
 67
     7
 79
     5
170
     0
171
     0
290
     0
174
     0
 93
        1
 44
0.0
173
     0
291
     1
 45
0.0
1001
ACAD
1000
AcDbSavedByObjectVersion
1070
     0
  0
VISUALSTYLE
  5
2B
102
{ACAD_REACTORS
330
2A
102
}
102
{ACAD_XDICTIONARY
360
39A
102
}
330
2A
100
AcDbVisualStyle
  2
Flat
 70
     0
 71
     2
 72
     1
 73
     1
 90
        2
 40
-0.6
 41
30.0
 62
     5
 63
     7
421
 16777215
 74
     0
 91
        4
 64
     7
 65
   257
 75
     1
175
     1
 42
1.0
 92
        8
 66
     7
 43
1.0
 76
     1
 77
     6
 78
     2
 67
     7
 79
     5
170
     0
171
     0
290
     0
174
     0
 93
       13
 44
0.0
173
     0
291
     1
 45
0.0
1001
ACAD
1000
AcDbSavedByObjectVersion
1070
     0
  0
VISUALSTYLE
  5
2C
102
{ACAD_REACTORS
330
2A
102
}
102
{ACAD_XDICTIONARY
360
39C
102
}
330
2A
100
AcDbVisualStyle
  2
FlatWithEdges
 70
     1
 71
     2
 72
     1
 73
     1
 90
        2
 40
-0.6
 41
30.0
 62
     5
 63
     7
421
 16777215
 74
     1
 91
        4
 64
     7
 65
   257
 75
     1
175
     1
 42
1.0
 92
        0
 66
   257
 43
1.0
 76
     1
 77
     6
 78
     2
 67
     7
 79
     5
170
     0
171
     0
290
     0
174
     0
 93
       13
 44
0.0
173
     0
291
     1
 45
0.0
1001
ACAD
1000
AcDbSavedByObjectVersion
1070
     0
  0
VISUALSTYLE
  5
2D
102
{ACAD_REACTORS
330
2A
102
}
102
{ACAD_XDICTIONARY
360
39E
102
}
330
2A
100
AcDbVisualStyle
  2
Gouraud
 70
     2
 71
     2
 72
     2
 73
     1
 90
        2
 40
-0.6
 41
30.0
 62
     5
 63
     7
421
 16777215
 74
     0
 91
        4
 64
     7
 65
   257
 75
     1
175
     1
 42
1.0
 92
        0
 66
     7
 43
1.0
 76
     1
 77
     6
 78
     2
 67
     7
 79
     5
170
     0
171
     0
290
     0
174
     0
 93
       13
 44
0.0
173
     0
291
     1
 45
0.0
1001
ACAD
1000
AcDbSavedByObjectVersion
1070
     0
  0
VISUALSTYLE
  5
2E
102
{ACAD_REACTORS
330
2A
102
}
102
{ACAD_XDICTIONARY
360
3A0
102
}
330
2A
100
AcDbVisualStyle
  2
GouraudWithEdges
 70
     3
 71
     2
 72
     2
 73
     1
 90
        2
 40
-0.6
 41
30.0
 62
     5
 63
     7
421
 16777215
 74
     1
 91
        4
 64
     7
 65
   257
 75
     1
175
     1
 42
1.0
 92
        0
 66
   257
 43
1.0
 76
     1
 77
     6
 78
     2
 67
     7
 79
     5
170
     0
171
     0
290
     0
174
     0
 93
       13
 44
0.0
173
     0
291
     1
 45
0.0
1001
ACAD
1000
AcDbSavedByObjectVersion
1070
     0
  0
VISUALSTYLE
  5
38
102
{ACAD_REACTORS
330
2A
102
}
102
{ACAD_XDICTIONARY
360
3B4
102
}
330
2A
100
AcDbVisualStyle
  2
Linepattern
 70
    14
 71
     2
 72
     2
 73
     0
 90
        0
 40
-0.6
 41
-30.0
 62
     5
 63
     7
421
 16777215
 74
     1
 91
        4
 64
     7
 65
   257
 75
     7
175
     7
 42
1.0
 92
        8
 66
     7
 43
1.0
 76
     1
 77
     6
 78
     2
 67
     7
 79
     5
170
     0
171
     0
290
     0
174
     0
 93
        1
 44
0.0
173
     0
291
     1
 45
0.0
1001
ACAD
1000
AcDbSavedByObjectVersion
1070
     0
  0
VISUALSTYLE
  5
33
102
{ACAD_REACTORS
330
2A
102
}
102
{ACAD_XDICTIONARY
360
3AA
102
}
330
2A
100
AcDbVisualStyle
  2
Realistic
 70
     8
 71
     2
 72
     2
 73
     0
 90
        0
 40
-0.6
 41
-30.0
 62
     5
 63
     7
421
 16777215
 74
     1
 91
        0
 64
     7
 65
   257
 75
     1
175
     1
 42
1.0
 92
        8
 66
     8
424
  7895160
 43
1.0
 76
     1
 77
     6
 78
     2
 67
     7
 79
     5
170
     0
171
     0
290
     0
174
     0
 93
       13
 44
0.0
173
     0
291
     0
 45
0.0
1001
ACAD
1000
AcDbSavedByObjectVersion
1070
     0
  0
VISUALSTYLE
  5
37
102
{ACAD_REACTORS
330
2A
102
}
102
{ACAD_XDICTIONARY
360
3B2
102
}
330
2A
100
AcDbVisualStyle
  2
Thicken
 70
    13
 71
     2
 72
     2
 73
     0
 90
        0
 40
-0.6
 41
-30.0
 62
     5
 63
     7
421
 16777215
 74
     1
 91
        4
 64
     7
 65
   257
 75
     1
175
     1
 42
1.0
 92
       12
 66
     7
 43
1.0
 76
     1
 77
     6
 78
     2
 67
     7
 79
     5
170
     0
171
     0
290
     0
174
     0
 93
        1
 44
0.0
173
     0
291
     1
 45
0.0
1001
ACAD
1000
AcDbSavedByObjectVersion
1070
     0
  0
DICTIONARY
  5
3BC
330
3D
100
AcDbDictionary
280
     1
281
     1
  3
ACAD_XREC_ROUNDTRIP
360
3BD
  0
DICTIONARY
  5
3BA
330
3C
100
AcDbDictionary
280
     1
281
     1
  3
ACAD_XREC_ROUNDTRIP
360
3BB
  0
DICTIONARY
  5
3BE
330
3E
100
AcDbDictionary
280
     1
281
     1
  3
ACAD_XREC_ROUNDTRIP
360
3BF
  0
DICTIONARY
  5
3A2
330
2F
100
AcDbDictionary
280
     1
281
     1
  3
ACAD_XREC_ROUNDTRIP
360
3A3
  0
DICTIONARY
  5
3A6
330
31
100
AcDbDictionary
280
     1
281
     1
  3
ACAD_XREC_ROUNDTRIP
360
3A7
  0
DICTIONARY
  5
3A4
330
30
100
AcDbDictionary
280
     1
281
     1
  3
ACAD_XREC_ROUNDTRIP
360
3A5
  0
DICTIONARY
  5
3A8
330
32
100
AcDbDictionary
280
     1
281
     1
  3
ACAD_XREC_ROUNDTRIP
360
3A9
  0
DICTIONARY
  5
3B0
330
36
100
AcDbDictionary
280
     1
281
     1
  3
ACAD_XREC_ROUNDTRIP
360
3B1
  0
DICTIONARY
  5
3B8
330
3A
100
AcDbDictionary
280
     1
281
     1
  3
ACAD_XREC_ROUNDTRIP
360
3B9
  0
DICTIONARY
  5
3AC
330
34
100
AcDbDictionary
280
     1
281
     1
  3
ACAD_XREC_ROUNDTRIP
360
3AD
  0
DICTIONARY
  5
3AE
330
35
100
AcDbDictionary
280
     1
281
     1
  3
ACAD_XREC_ROUNDTRIP
360
3AF
  0
DICTIONARY
  5
3B6
330
39
100
AcDbDictionary
280
     1
281
     1
  3
ACAD_XREC_ROUNDTRIP
360
3B7
  0
DICTIONARY
  5
39A
330
2B
100
AcDbDictionary
280
     1
281
     1
  3
ACAD_XREC_ROUNDTRIP
360
39B
  0
DICTIONARY
  5
39C
330
2C
100
AcDbDictionary
280
     1
281
     1
  3
ACAD_XREC_ROUNDTRIP
360
39D
  0
DICTIONARY
  5
39E
330
2D
100
AcDbDictionary
280
     1
281
     1
  3
ACAD_XREC_ROUNDTRIP
360
39F
  0
DICTIONARY
  5
3A0
330
2E
100
AcDbDictionary
280
     1
281
     1
  3
ACAD_XREC_ROUNDTRIP
360
3A1
  0
DICTIONARY
  5
3B4
330
38
100
AcDbDictionary
280
     1
281
     1
  3
ACAD_XREC_ROUNDTRIP
360
3B5
  0
DICTIONARY
  5
3AA
330
33
100
AcDbDictionary
280
     1
281
     1
  3
ACAD_XREC_ROUNDTRIP
360
3AB
  0
DICTIONARY
  5
3B2
330
37
100
AcDbDictionary
280
     1
281
     1
  3
ACAD_XREC_ROUNDTRIP
360
3B3
  0
XRECORD
  5
3BD
102
{ACAD_REACTORS
330
3BC
102
}
330
3BC
100
AcDbXrecord
280
     1
102
MATERIAL
148
0.0
149
0.0
149
0.0
 93
        0
 94
      127
282
     0
 72
     1
 77
     1
171
     1
175
     1
179
     1
273
     0
  0
XRECORD
  5
3BB
102
{ACAD_REACTORS
330
3BA
102
}
330
3BA
100
AcDbXrecord
280
     1
102
MATERIAL
148
0.0
149
0.0
149
0.0
 93
        0
 94
      127
282
     0
 72
     1
 77
     1
171
     1
175
     1
179
     1
273
     0
  0
XRECORD
  5
3BF
102
{ACAD_REACTORS
330
3BE
102
}
330
3BE
100
AcDbXrecord
280
     1
102
MATERIAL
148
0.0
149
0.0
149
0.0
 93
        0
 94
      127
282
     0
 72
     1
 77
     1
171
     1
175
     1
179
     1
273
     0
  0
XRECORD
  5
3A3
102
{ACAD_REACTORS
330
3A2
102
}
330
3A2
100
AcDbXrecord
280
     1
102
RTVSPropertyOp0
 70
     1
102
RTVSPropertyOp1
 70
     1
102
RTVSPropertyOp2
 70
     1
102
RTVSPropertyOp3
 70
     1
102
RTVSPropertyOp4
 70
     1
102
RTVSPropertyOp5
 70
     1
102
RTVSPropertyOp6
 70
     1
102
RTVSPropertyOp7
 70
     1
102
RTVSPropertyOp8
 70
     1
102
RTVSPropertyOp9
 70
     1
102
RTVSPropertyOp10
 70
     1
102
RTVSPropertyOp11
 70
     1
102
RTVSPropertyOp12
 70
     1
102
RTVSPropertyOp13
 70
     1
102
RTVSPropertyOp14
 70
     1
102
RTVSPropertyOp15
 70
     1
102
RTVSPropertyOp16
 70
     1
102
RTVSPropertyOp17
 70
     1
102
RTVSPropertyOp18
 70
     1
102
RTVSPropertyOp19
 70
     1
102
RTVSPropertyOp20
 70
     1
102
RTVSPropertyOp21
 70
     1
102
RTVSPropertyOp22
 70
     1
102
RTVSPropertyOp23
 70
     1
102
RTVSPropertyOp24
 70
     1
102
RTVSPropertyOp25
 70
     1
102
RTVSPropertyOp26
 70
     1
102
RTVSPropertyOp27
 70
     1
102
RTVSPropertyOp28
 70
     1
102
RTVSPropertyOp29
 70
     1
102
RTVSPropertyOp30
 70
     1
102
RTVSPropertyOp31
 70
     1
102
RTVSPropertyOp32
 70
     1
  0
XRECORD
  5
3A7
102
{ACAD_REACTORS
330
3A6
102
}
330
3A6
100
AcDbXrecord
280
     1
102
RTVSPropertyOp0
 70
     1
102
RTVSPropertyOp1
 70
     1
102
RTVSPropertyOp2
 70
     1
102
RTVSPropertyOp3
 70
     1
102
RTVSPropertyOp4
 70
     1
102
RTVSPropertyOp5
 70
     1
102
RTVSPropertyOp6
 70
     1
102
RTVSPropertyOp7
 70
     1
102
RTVSPropertyOp8
 70
     1
102
RTVSPropertyOp9
 70
     1
102
RTVSPropertyOp10
 70
     1
102
RTVSPropertyOp11
 70
     1
102
RTVSPropertyOp12
 70
     1
102
RTVSPropertyOp13
 70
     1
102
RTVSPropertyOp14
 70
     1
102
RTVSPropertyOp15
 70
     1
102
RTVSPropertyOp16
 70
     1
102
RTVSPropertyOp17
 70
     1
102
RTVSPropertyOp18
 70
     1
102
RTVSPropertyOp19
 70
     1
102
RTVSPropertyOp20
 70
     1
102
RTVSPropertyOp21
 70
     1
102
RTVSPropertyOp22
 70
     1
102
RTVSPropertyOp23
 70
     1
102
RTVSPropertyOp24
 70
     1
102
RTVSPropertyOp25
 70
     1
102
RTVSPropertyOp26
 70
     1
102
RTVSPropertyOp27
 70
     1
102
RTVSPropertyOp28
 70
     1
102
RTVSPropertyOp29
 70
     1
102
RTVSPropertyOp30
 70
     1
102
RTVSPropertyOp31
 70
     1
102
RTVSPropertyOp32
 70
     1
  0
XRECORD
  5
3A5
102
{ACAD_REACTORS
330
3A4
102
}
330
3A4
100
AcDbXrecord
280
     1
102
RTVSPropertyOp0
 70
     1
102
RTVSPropertyOp1
 70
     1
102
RTVSPropertyOp2
 70
     1
102
RTVSPropertyOp3
 70
     1
102
RTVSPropertyOp4
 70
     1
102
RTVSPropertyOp5
 70
     1
102
RTVSPropertyOp6
 70
     1
102
RTVSPropertyOp7
 70
     1
102
RTVSPropertyOp8
 70
     1
102
RTVSPropertyOp9
 70
     1
102
RTVSPropertyOp10
 70
     1
102
RTVSPropertyOp11
 70
     1
102
RTVSPropertyOp12
 70
     1
102
RTVSPropertyOp13
 70
     1
102
RTVSPropertyOp14
 70
     1
102
RTVSPropertyOp15
 70
     1
102
RTVSPropertyOp16
 70
     1
102
RTVSPropertyOp17
 70
     1
102
RTVSPropertyOp18
 70
     1
102
RTVSPropertyOp19
 70
     1
102
RTVSPropertyOp20
 70
     1
102
RTVSPropertyOp21
 70
     1
102
RTVSPropertyOp22
 70
     1
102
RTVSPropertyOp23
 70
     1
102
RTVSPropertyOp24
 70
     1
102
RTVSPropertyOp25
 70
     1
102
RTVSPropertyOp26
 70
     1
102
RTVSPropertyOp27
 70
     1
102
RTVSPropertyOp28
 70
     1
102
RTVSPropertyOp29
 70
     1
102
RTVSPropertyOp30
 70
     1
102
RTVSPropertyOp31
 70
     1
102
RTVSPropertyOp32
 70
     1
  0
XRECORD
  5
3A9
102
{ACAD_REACTORS
330
3A8
102
}
330
3A8
100
AcDbXrecord
280
     1
102
RTVSPropertyOp0
 70
     1
102
RTVSPropertyOp1
 70
     1
102
RTVSPropertyOp2
 70
     1
102
RTVSPropertyOp3
 70
     1
102
RTVSPropertyOp4
 70
     1
102
RTVSPropertyOp5
 70
     1
102
RTVSPropertyOp6
 70
     1
102
RTVSPropertyOp7
 70
     1
102
RTVSPropertyOp8
 70
     1
102
RTVSPropertyOp9
 70
     1
102
RTVSPropertyOp10
 70
     1
102
RTVSPropertyOp11
 70
     1
102
RTVSPropertyOp12
 70
     1
102
RTVSPropertyOp13
 70
     1
102
RTVSPropertyOp14
 70
     1
102
RTVSPropertyOp15
 70
     1
102
RTVSPropertyOp16
 70
     1
102
RTVSPropertyOp17
 70
     1
102
RTVSPropertyOp18
 70
     1
102
RTVSPropertyOp19
 70
     1
102
RTVSPropertyOp20
 70
     1
102
RTVSPropertyOp21
 70
     1
102
RTVSPropertyOp22
 70
     1
102
RTVSPropertyOp23
 70
     1
102
RTVSPropertyOp24
 70
     1
102
RTVSPropertyOp25
 70
     1
102
RTVSPropertyOp26
 70
     1
102
RTVSPropertyOp27
 70
     1
102
RTVSPropertyOp28
 70
     1
102
RTVSPropertyOp29
 70
     1
102
RTVSPropertyOp30
 70
     1
102
RTVSPropertyOp31
 70
     1
102
RTVSPropertyOp32
 70
     1
  0
XRECORD
  5
3B1
102
{ACAD_REACTORS
330
3B0
102
}
330
3B0
100
AcDbXrecord
280
     1
102
RTVSPropertyOp0
 70
     1
102
RTVSPropertyOp1
 70
     1
102
RTVSPropertyOp2
 70
     1
102
RTVSPropertyOp3
 70
     1
102
RTVSPropertyOp4
 70
     1
102
RTVSPropertyOp5
 70
     1
102
RTVSPropertyOp6
 70
     1
102
RTVSPropertyOp7
 70
     1
102
RTVSPropertyOp8
 70
     1
102
RTVSPropertyOp9
 70
     1
102
RTVSPropertyOp10
 70
     1
102
RTVSPropertyOp11
 70
     1
102
RTVSPropertyOp12
 70
     1
102
RTVSPropertyOp13
 70
     1
102
RTVSPropertyOp14
 70
     1
102
RTVSPropertyOp15
 70
     1
102
RTVSPropertyOp16
 70
     1
102
RTVSPropertyOp17
 70
     1
102
RTVSPropertyOp18
 70
     1
102
RTVSPropertyOp19
 70
     1
102
RTVSPropertyOp20
 70
     1
102
RTVSPropertyOp21
 70
     1
102
RTVSPropertyOp22
 70
     1
102
RTVSPropertyOp23
 70
     1
102
RTVSPropertyOp24
 70
     1
102
RTVSPropertyOp25
 70
     1
102
RTVSPropertyOp26
 70
     1
102
RTVSPropertyOp27
 70
     1
102
RTVSPropertyOp28
 70
     1
102
RTVSPropertyOp29
 70
     1
102
RTVSPropertyOp30
 70
     1
102
RTVSPropertyOp31
 70
     1
102
RTVSPropertyOp32
 70
     1
  0
XRECORD
  5
3B9
102
{ACAD_REACTORS
330
3B8
102
}
330
3B8
100
AcDbXrecord
280
     1
102
RTVSPropertyOp0
 70
     1
102
RTVSPropertyOp1
 70
     1
102
RTVSPropertyOp2
 70
     1
102
RTVSPropertyOp3
 70
     1
102
RTVSPropertyOp4
 70
     1
102
RTVSPropertyOp5
 70
     1
102
RTVSPropertyOp6
 70
     1
102
RTVSPropertyOp7
 70
     1
102
RTVSPropertyOp8
 70
     1
102
RTVSPropertyOp9
 70
     1
102
RTVSPropertyOp10
 70
     1
102
RTVSPropertyOp11
 70
     1
102
RTVSPropertyOp12
 70
     1
102
RTVSPropertyOp13
 70
     1
102
RTVSPropertyOp14
 70
     1
102
RTVSPropertyOp15
 70
     1
102
RTVSPropertyOp16
 70
     1
102
RTVSPropertyOp17
 70
     1
102
RTVSPropertyOp18
 70
     1
102
RTVSPropertyOp19
 70
     1
102
RTVSPropertyOp20
 70
     1
102
RTVSPropertyOp21
 70
     1
102
RTVSPropertyOp22
 70
     1
102
RTVSPropertyOp23
 70
     1
102
RTVSPropertyOp24
 70
     1
102
RTVSPropertyOp25
 70
     1
102
RTVSPropertyOp26
 70
     1
102
RTVSPropertyOp27
 70
     1
102
RTVSPropertyOp28
 70
     1
102
RTVSPropertyOp29
 70
     1
102
RTVSPropertyOp30
 70
     1
102
RTVSPropertyOp31
 70
     1
102
RTVSPropertyOp32
 70
     1
  0
XRECORD
  5
3AD
102
{ACAD_REACTORS
330
3AC
102
}
330
3AC
100
AcDbXrecord
280
     1
102
RTVSPropertyOp0
 70
     1
102
RTVSPropertyOp1
 70
     1
102
RTVSPropertyOp2
 70
     1
102
RTVSPropertyOp3
 70
     1
102
RTVSPropertyOp4
 70
     1
102
RTVSPropertyOp5
 70
     1
102
RTVSPropertyOp6
 70
     1
102
RTVSPropertyOp7
 70
     1
102
RTVSPropertyOp8
 70
     1
102
RTVSPropertyOp9
 70
     1
102
RTVSPropertyOp10
 70
     1
102
RTVSPropertyOp11
 70
     1
102
RTVSPropertyOp12
 70
     1
102
RTVSPropertyOp13
 70
     1
102
RTVSPropertyOp14
 70
     1
102
RTVSPropertyOp15
 70
     1
102
RTVSPropertyOp16
 70
     1
102
RTVSPropertyOp17
 70
     1
102
RTVSPropertyOp18
 70
     1
102
RTVSPropertyOp19
 70
     1
102
RTVSPropertyOp20
 70
     1
102
RTVSPropertyOp21
 70
     1
102
RTVSPropertyOp22
 70
     1
102
RTVSPropertyOp23
 70
     1
102
RTVSPropertyOp24
 70
     1
102
RTVSPropertyOp25
 70
     1
102
RTVSPropertyOp26
 70
     1
102
RTVSPropertyOp27
 70
     1
102
RTVSPropertyOp28
 70
     1
102
RTVSPropertyOp29
 70
     1
102
RTVSPropertyOp30
 70
     1
102
RTVSPropertyOp31
 70
     1
102
RTVSPropertyOp32
 70
     1
  0
XRECORD
  5
3AF
102
{ACAD_REACTORS
330
3AE
102
}
330
3AE
100
AcDbXrecord
280
     1
102
RTVSPropertyOp0
 70
     1
102
RTVSPropertyOp1
 70
     1
102
RTVSPropertyOp2
 70
     1
102
RTVSPropertyOp3
 70
     1
102
RTVSPropertyOp4
 70
     1
102
RTVSPropertyOp5
 70
     1
102
RTVSPropertyOp6
 70
     1
102
RTVSPropertyOp7
 70
     1
102
RTVSPropertyOp8
 70
     1
102
RTVSPropertyOp9
 70
     1
102
RTVSPropertyOp10
 70
     1
102
RTVSPropertyOp11
 70
     1
102
RTVSPropertyOp12
 70
     1
102
RTVSPropertyOp13
 70
     1
102
RTVSPropertyOp14
 70
     1
102
RTVSPropertyOp15
 70
     1
102
RTVSPropertyOp16
 70
     1
102
RTVSPropertyOp17
 70
     1
102
RTVSPropertyOp18
 70
     1
102
RTVSPropertyOp19
 70
     1
102
RTVSPropertyOp20
 70
     1
102
RTVSPropertyOp21
 70
     1
102
RTVSPropertyOp22
 70
     1
102
RTVSPropertyOp23
 70
     1
102
RTVSPropertyOp24
 70
     1
102
RTVSPropertyOp25
 70
     1
102
RTVSPropertyOp26
 70
     1
102
RTVSPropertyOp27
 70
     1
102
RTVSPropertyOp28
 70
     1
102
RTVSPropertyOp29
 70
     1
102
RTVSPropertyOp30
 70
     1
102
RTVSPropertyOp31
 70
     1
102
RTVSPropertyOp32
 70
     1
  0
XRECORD
  5
3B7
102
{ACAD_REACTORS
330
3B6
102
}
330
3B6
100
AcDbXrecord
280
     1
102
RTVSPropertyOp0
 70
     1
102
RTVSPropertyOp1
 70
     1
102
RTVSPropertyOp2
 70
     1
102
RTVSPropertyOp3
 70
     1
102
RTVSPropertyOp4
 70
     1
102
RTVSPropertyOp5
 70
     1
102
RTVSPropertyOp6
 70
     1
102
RTVSPropertyOp7
 70
     1
102
RTVSPropertyOp8
 70
     1
102
RTVSPropertyOp9
 70
     1
102
RTVSPropertyOp10
 70
     1
102
RTVSPropertyOp11
 70
     1
102
RTVSPropertyOp12
 70
     1
102
RTVSPropertyOp13
 70
     1
102
RTVSPropertyOp14
 70
     1
102
RTVSPropertyOp15
 70
     1
102
RTVSPropertyOp16
 70
     1
102
RTVSPropertyOp17
 70
     1
102
RTVSPropertyOp18
 70
     1
102
RTVSPropertyOp19
 70
     1
102
RTVSPropertyOp20
 70
     1
102
RTVSPropertyOp21
 70
     1
102
RTVSPropertyOp22
 70
     1
102
RTVSPropertyOp23
 70
     1
102
RTVSPropertyOp24
 70
     1
102
RTVSPropertyOp25
 70
     1
102
RTVSPropertyOp26
 70
     1
102
RTVSPropertyOp27
 70
     1
102
RTVSPropertyOp28
 70
     1
102
RTVSPropertyOp29
 70
     1
102
RTVSPropertyOp30
 70
     1
102
RTVSPropertyOp31
 70
     1
102
RTVSPropertyOp32
 70
     1
  0
XRECORD
  5
39B
102
{ACAD_REACTORS
330
39A
102
}
330
39A
100
AcDbXrecord
280
     1
102
RTVSPropertyOp0
 70
     1
102
RTVSPropertyOp1
 70
     1
102
RTVSPropertyOp2
 70
     1
102
RTVSPropertyOp3
 70
     1
102
RTVSPropertyOp4
 70
     1
102
RTVSPropertyOp5
 70
     1
102
RTVSPropertyOp6
 70
     1
102
RTVSPropertyOp7
 70
     1
102
RTVSPropertyOp8
 70
     1
102
RTVSPropertyOp9
 70
     1
102
RTVSPropertyOp10
 70
     1
102
RTVSPropertyOp11
 70
     1
102
RTVSPropertyOp12
 70
     1
102
RTVSPropertyOp13
 70
     1
102
RTVSPropertyOp14
 70
     1
102
RTVSPropertyOp15
 70
     1
102
RTVSPropertyOp16
 70
     1
102
RTVSPropertyOp17
 70
     1
102
RTVSPropertyOp18
 70
     1
102
RTVSPropertyOp19
 70
     1
102
RTVSPropertyOp20
 70
     1
102
RTVSPropertyOp21
 70
     1
102
RTVSPropertyOp22
 70
     1
102
RTVSPropertyOp23
 70
     1
102
RTVSPropertyOp24
 70
     1
102
RTVSPropertyOp25
 70
     1
102
RTVSPropertyOp26
 70
     1
102
RTVSPropertyOp27
 70
     1
102
RTVSPropertyOp28
 70
     1
102
RTVSPropertyOp29
 70
     1
102
RTVSPropertyOp30
 70
     1
102
RTVSPropertyOp31
 70
     1
102
RTVSPropertyOp32
 70
     1
  0
XRECORD
  5
39D
102
{ACAD_REACTORS
330
39C
102
}
330
39C
100
AcDbXrecord
280
     1
102
RTVSPropertyOp0
 70
     1
102
RTVSPropertyOp1
 70
     1
102
RTVSPropertyOp2
 70
     1
102
RTVSPropertyOp3
 70
     1
102
RTVSPropertyOp4
 70
     1
102
RTVSPropertyOp5
 70
     1
102
RTVSPropertyOp6
 70
     1
102
RTVSPropertyOp7
 70
     1
102
RTVSPropertyOp8
 70
     1
102
RTVSPropertyOp9
 70
     1
102
RTVSPropertyOp10
 70
     1
102
RTVSPropertyOp11
 70
     1
102
RTVSPropertyOp12
 70
     1
102
RTVSPropertyOp13
 70
     1
102
RTVSPropertyOp14
 70
     1
102
RTVSPropertyOp15
 70
     1
102
RTVSPropertyOp16
 70
     1
102
RTVSPropertyOp17
 70
     1
102
RTVSPropertyOp18
 70
     1
102
RTVSPropertyOp19
 70
     1
102
RTVSPropertyOp20
 70
     1
102
RTVSPropertyOp21
 70
     1
102
RTVSPropertyOp22
 70
     1
102
RTVSPropertyOp23
 70
     1
102
RTVSPropertyOp24
 70
     1
102
RTVSPropertyOp25
 70
     1
102
RTVSPropertyOp26
 70
     1
102
RTVSPropertyOp27
 70
     1
102
RTVSPropertyOp28
 70
     1
102
RTVSPropertyOp29
 70
     1
102
RTVSPropertyOp30
 70
     1
102
RTVSPropertyOp31
 70
     1
102
RTVSPropertyOp32
 70
     1
  0
XRECORD
  5
39F
102
{ACAD_REACTORS
330
39E
102
}
330
39E
100
AcDbXrecord
280
     1
102
RTVSPropertyOp0
 70
     1
102
RTVSPropertyOp1
 70
     1
102
RTVSPropertyOp2
 70
     1
102
RTVSPropertyOp3
 70
     1
102
RTVSPropertyOp4
 70
     1
102
RTVSPropertyOp5
 70
     1
102
RTVSPropertyOp6
 70
     1
102
RTVSPropertyOp7
 70
     1
102
RTVSPropertyOp8
 70
     1
102
RTVSPropertyOp9
 70
     1
102
RTVSPropertyOp10
 70
     1
102
RTVSPropertyOp11
 70
     1
102
RTVSPropertyOp12
 70
     1
102
RTVSPropertyOp13
 70
     1
102
RTVSPropertyOp14
 70
     1
102
RTVSPropertyOp15
 70
     1
102
RTVSPropertyOp16
 70
     1
102
RTVSPropertyOp17
 70
     1
102
RTVSPropertyOp18
 70
     1
102
RTVSPropertyOp19
 70
     1
102
RTVSPropertyOp20
 70
     1
102
RTVSPropertyOp21
 70
     1
102
RTVSPropertyOp22
 70
     1
102
RTVSPropertyOp23
 70
     1
102
RTVSPropertyOp24
 70
     1
102
RTVSPropertyOp25
 70
     1
102
RTVSPropertyOp26
 70
     1
102
RTVSPropertyOp27
 70
     1
102
RTVSPropertyOp28
 70
     1
102
RTVSPropertyOp29
 70
     1
102
RTVSPropertyOp30
 70
     1
102
RTVSPropertyOp31
 70
     1
102
RTVSPropertyOp32
 70
     1
  0
XRECORD
  5
3A1
102
{ACAD_REACTORS
330
3A0
102
}
330
3A0
100
AcDbXrecord
280
     1
102
RTVSPropertyOp0
 70
     1
102
RTVSPropertyOp1
 70
     1
102
RTVSPropertyOp2
 70
     1
102
RTVSPropertyOp3
 70
     1
102
RTVSPropertyOp4
 70
     1
102
RTVSPropertyOp5
 70
     1
102
RTVSPropertyOp6
 70
     1
102
RTVSPropertyOp7
 70
     1
102
RTVSPropertyOp8
 70
     1
102
RTVSPropertyOp9
 70
     1
102
RTVSPropertyOp10
 70
     1
102
RTVSPropertyOp11
 70
     1
102
RTVSPropertyOp12
 70
     1
102
RTVSPropertyOp13
 70
     1
102
RTVSPropertyOp14
 70
     1
102
RTVSPropertyOp15
 70
     1
102
RTVSPropertyOp16
 70
     1
102
RTVSPropertyOp17
 70
     1
102
RTVSPropertyOp18
 70
     1
102
RTVSPropertyOp19
 70
     1
102
RTVSPropertyOp20
 70
     1
102
RTVSPropertyOp21
 70
     1
102
RTVSPropertyOp22
 70
     1
102
RTVSPropertyOp23
 70
     1
102
RTVSPropertyOp24
 70
     1
102
RTVSPropertyOp25
 70
     1
102
RTVSPropertyOp26
 70
     1
102
RTVSPropertyOp27
 70
     1
102
RTVSPropertyOp28
 70
     1
102
RTVSPropertyOp29
 70
     1
102
RTVSPropertyOp30
 70
     1
102
RTVSPropertyOp31
 70
     1
102
RTVSPropertyOp32
 70
     1
  0
XRECORD
  5
3B5
102
{ACAD_REACTORS
330
3B4
102
}
330
3B4
100
AcDbXrecord
280
     1
102
RTVSPropertyOp0
 70
     1
102
RTVSPropertyOp1
 70
     1
102
RTVSPropertyOp2
 70
     1
102
RTVSPropertyOp3
 70
     1
102
RTVSPropertyOp4
 70
     1
102
RTVSPropertyOp5
 70
     1
102
RTVSPropertyOp6
 70
     1
102
RTVSPropertyOp7
 70
     1
102
RTVSPropertyOp8
 70
     1
102
RTVSPropertyOp9
 70
     1
102
RTVSPropertyOp10
 70
     1
102
RTVSPropertyOp11
 70
     1
102
RTVSPropertyOp12
 70
     1
102
RTVSPropertyOp13
 70
     1
102
RTVSPropertyOp14
 70
     1
102
RTVSPropertyOp15
 70
     1
102
RTVSPropertyOp16
 70
     1
102
RTVSPropertyOp17
 70
     1
102
RTVSPropertyOp18
 70
     1
102
RTVSPropertyOp19
 70
     1
102
RTVSPropertyOp20
 70
     1
102
RTVSPropertyOp21
 70
     1
102
RTVSPropertyOp22
 70
     1
102
RTVSPropertyOp23
 70
     1
102
RTVSPropertyOp24
 70
     1
102
RTVSPropertyOp25
 70
     1
102
RTVSPropertyOp26
 70
     1
102
RTVSPropertyOp27
 70
     1
102
RTVSPropertyOp28
 70
     1
102
RTVSPropertyOp29
 70
     1
102
RTVSPropertyOp30
 70
     1
102
RTVSPropertyOp31
 70
     1
102
RTVSPropertyOp32
 70
     1
  0
XRECORD
  5
3AB
102
{ACAD_REACTORS
330
3AA
102
}
330
3AA
100
AcDbXrecord
280
     1
102
RTVSPropertyOp0
 70
     1
102
RTVSPropertyOp1
 70
     1
102
RTVSPropertyOp2
 70
     1
102
RTVSPropertyOp3
 70
     1
102
RTVSPropertyOp4
 70
     1
102
RTVSPropertyOp5
 70
     1
102
RTVSPropertyOp6
 70
     1
102
RTVSPropertyOp7
 70
     1
102
RTVSPropertyOp8
 70
     1
102
RTVSPropertyOp9
 70
     1
102
RTVSPropertyOp10
 70
     1
102
RTVSPropertyOp11
 70
     1
102
RTVSPropertyOp12
 70
     1
102
RTVSPropertyOp13
 70
     1
102
RTVSPropertyOp14
 70
     1
102
RTVSPropertyOp15
 70
     1
102
RTVSPropertyOp16
 70
     1
102
RTVSPropertyOp17
 70
     1
102
RTVSPropertyOp18
 70
     1
102
RTVSPropertyOp19
 70
     1
102
RTVSPropertyOp20
 70
     1
102
RTVSPropertyOp21
 70
     1
102
RTVSPropertyOp22
 70
     1
102
RTVSPropertyOp23
 70
     1
102
RTVSPropertyOp24
 70
     1
102
RTVSPropertyOp25
 70
     1
102
RTVSPropertyOp26
 70
     1
102
RTVSPropertyOp27
 70
     1
102
RTVSPropertyOp28
 70
     1
102
RTVSPropertyOp29
 70
     1
102
RTVSPropertyOp30
 70
     1
102
RTVSPropertyOp31
 70
     1
102
RTVSPropertyOp32
 70
     1
  0
XRECORD
  5
3B3
102
{ACAD_REACTORS
330
3B2
102
}
330
3B2
100
AcDbXrecord
280
     1
102
RTVSPropertyOp0
 70
     1
102
RTVSPropertyOp1
 70
     1
102
RTVSPropertyOp2
 70
     1
102
RTVSPropertyOp3
 70
     1
102
RTVSPropertyOp4
 70
     1
102
RTVSPropertyOp5
 70
     1
102
RTVSPropertyOp6
 70
     1
102
RTVSPropertyOp7
 70
     1
102
RTVSPropertyOp8
 70
     1
102
RTVSPropertyOp9
 70
     1
102
RTVSPropertyOp10
 70
     1
102
RTVSPropertyOp11
 70
     1
102
RTVSPropertyOp12
 70
     1
102
RTVSPropertyOp13
 70
     1
102
RTVSPropertyOp14
 70
     1
102
RTVSPropertyOp15
 70
     1
102
RTVSPropertyOp16
 70
     1
102
RTVSPropertyOp17
 70
     1
102
RTVSPropertyOp18
 70
     1
102
RTVSPropertyOp19
 70
     1
102
RTVSPropertyOp20
 70
     1
102
RTVSPropertyOp21
 70
     1
102
RTVSPropertyOp22
 70
     1
102
RTVSPropertyOp23
 70
     1
102
RTVSPropertyOp24
 70
     1
102
RTVSPropertyOp25
 70
     1
102
RTVSPropertyOp26
 70
     1
102
RTVSPropertyOp27
 70
     1
102
RTVSPropertyOp28
 70
     1
102
RTVSPropertyOp29
 70
     1
102
RTVSPropertyOp30
 70
     1
102
RTVSPropertyOp31
 70
     1
102
RTVSPropertyOp32
 70
     1
  0
ENDSEC
  0
EOF
