  0
SECTION
  2
HEADER
  9
$ACADVER
  1
AC1018
  9
$ACADMAINTVER
 70
     0
  9
$DWGCODEPAGE
  3
ANSI_932
  9
$INSBASE
 10
0.0
 20
0.0
 30
0.0
  9
$EXTMIN
 10
-105.0
 20
-148.5
 30
0.0
  9
$EXTMAX
 10
105.0
 20
148.5
 30
0.0
  9
$LIMMIN
 10
-105.0
 20
-148.5
  9
$LIMMAX
 10
105.0
 20
148.5
  9
$ORTHOMODE
 70
     0
  9
$REGENMODE
 70
     1
  9
$FILLMODE
 70
     1
  9
$QTEXTMODE
 70
     0
  9
$MIRRTEXT
 70
     1
  9
$LTSCALE
 40
1.0
  9
$ATTMODE
 70
     1
  9
$TEXTSIZE
 40
2.5
  9
$TRACEWID
 40
1.0
  9
$TEXTSTYLE
  7
Standard
  9
$CLAYER
  8
0
  9
$CELTYPE
  6
ByLayer
  9
$CECOLOR
 62
   256
  9
$CELTSCALE
 40
1.0
  9
$DISPSILH
 70
     0
  9
$DIMSCALE
 40
1.0
  9
$DIMASZ
 40
2.5
  9
$DIMEXO
 40
0.625
  9
$DIMDLI
 40
3.75
  9
$DIMRND
 40
0.0
  9
$DIMDLE
 40
0.0
  9
$DIMEXE
 40
1.25
  9
$DIMTP
 40
0.0
  9
$DIMTM
 40
0.0
  9
$DIMTXT
 40
2.5
  9
$DIMCEN
 40
2.5
  9
$DIMTSZ
 40
0.0
  9
$DIMTOL
 70
     0
  9
$DIMLIM
 70
     0
  9
$DIMTIH
 70
     0
  9
$DIMTOH
 70
     0
  9
$DIMSE1
 70
     0
  9
$DIMSE2
 70
     0
  9
$DIMTAD
 70
     1
  9
$DIMZIN
 70
     8
  9
$DIMBLK
  1

  9
$DIMASO
 70
     1
  9
$DIMSHO
 70
     1
  9
$DIMPOST
  1

  9
$DIMAPOST
  1

  9
$DIMALT
 70
     0
  9
$DIMALTD
 70
     3
  9
$DIMALTF
 40
0.03937007874016
  9
$DIMLFAC
 40
1.0
  9
$DIMTOFL
 70
     1
  9
$DIMTVP
 40
0.0
  9
$DIMTIX
 70
     0
  9
$DIMSOXD
 70
     0
  9
$DIMSAH
 70
     0
  9
$DIMBLK1
  1

  9
$DIMBLK2
  1

  9
$DIMSTYLE
  2
ISO-25
  9
$DIMCLRD
 70
     0
  9
$DIMCLRE
 70
     0
  9
$DIMCLRT
 70
     0
  9
$DIMTFAC
 40
1.0
  9
$DIMGAP
 40
0.625
  9
$DIMJUST
 70
     0
  9
$DIMSD1
 70
     0
  9
$DIMSD2
 70
     0
  9
$DIMTOLJ
 70
     0
  9
$DIMTZIN
 70
     8
  9
$DIMALTZ
 70
     0
  9
$DIMALTTZ
 70
     0
  9
$DIMUPT
 70
     0
  9
$DIMDEC
 70
     2
  9
$DIMTDEC
 70
     2
  9
$DIMALTU
 70
     2
  9
$DIMALTTD
 70
     3
  9
$DIMTXSTY
  7
Standard
  9
$DIMAUNIT
 70
     0
  9
$DIMADEC
 70
     0
  9
$DIMALTRND
 40
0.0
  9
$DIMAZIN
 70
     0
  9
$DIMDSEP
 70
    44
  9
$DIMATFIT
 70
     3
  9
$DIMFRAC
 70
     0
  9
$DIMLDRBLK
  1

  9
$DIMLUNIT
 70
     2
  9
$DIMLWD
 70
    -2
  9
$DIMLWE
 70
    -2
  9
$DIMTMOVE
 70
     0
  9
$LUNITS
 70
     2
  9
$LUPREC
 70
     4
  9
$SKETCHINC
 40
1.0
  9
$FILLETRAD
 40
10.0
  9
$AUNITS
 70
     0
  9
$AUPREC
 70
     0
  9
$MENU
  1
.
  9
$ELEVATION
 40
0.0
  9
$PELEVATION
 40
0.0
  9
$THICKNESS
 40
0.0
  9
$LIMCHECK
 70
     0
  9
$CHAMFERA
 40
10.0
  9
$CHAMFERB
 40
10.0
  9
$CHAMFERC
 40
20.0
  9
$CHAMFERD
 40
0.0
  9
$SKPOLY
 70
     0
  9
$TDCREATE
 40
2457284.82831412
  9
$TDUCREATE
 40
2457284.45331412
  9
$TDUPDATE
 40
2457284.828314641
  9
$TDUUPDATE
 40
2457284.453314641
  9
$TDINDWG
 40
0.0000000116
  9
$TDUSRTIMER
 40
0.0000000116
  9
$USRTIMER
 70
     1
  9
$ANGBASE
 50
0.0
  9
$ANGDIR
 70
     0
  9
$PDMODE
 70
     0
  9
$PDSIZE
 40
0.0
  9
$PLINEWID
 40
0.0
  9
$SPLFRAME
 70
     0
  9
$SPLINETYPE
 70
     6
  9
$SPLINESEGS
 70
     8
  9
$HANDSEED
  5
584
  9
$SURFTAB1
 70
     6
  9
$SURFTAB2
 70
     6
  9
$SURFTYPE
 70
     6
  9
$SURFU
 70
     6
  9
$SURFV
 70
     6
  9
$UCSBASE
  2

  9
$UCSNAME
  2

  9
$UCSORG
 10
0.0
 20
0.0
 30
0.0
  9
$UCSXDIR
 10
1.0
 20
0.0
 30
0.0
  9
$UCSYDIR
 10
0.0
 20
1.0
 30
0.0
  9
$UCSORTHOREF
  2

  9
$UCSORTHOVIEW
 70
     0
  9
$UCSORGTOP
 10
0.0
 20
0.0
 30
0.0
  9
$UCSORGBOTTOM
 10
0.0
 20
0.0
 30
0.0
  9
$UCSORGLEFT
 10
0.0
 20
0.0
 30
0.0
  9
$UCSORGRIGHT
 10
0.0
 20
0.0
 30
0.0
  9
$UCSORGFRONT
 10
0.0
 20
0.0
 30
0.0
  9
$UCSORGBACK
 10
0.0
 20
0.0
 30
0.0
  9
$PUCSBASE
  2

  9
$PUCSNAME
  2

  9
$PUCSORG
 10
0.0
 20
0.0
 30
0.0
  9
$PUCSXDIR
 10
1.0
 20
0.0
 30
0.0
  9
$PUCSYDIR
 10
0.0
 20
1.0
 30
0.0
  9
$PUCSORTHOREF
  2

  9
$PUCSORTHOVIEW
 70
     0
  9
$PUCSORGTOP
 10
0.0
 20
0.0
 30
0.0
  9
$PUCSORGBOTTOM
 10
0.0
 20
0.0
 30
0.0
  9
$PUCSORGLEFT
 10
0.0
 20
0.0
 30
0.0
  9
$PUCSORGRIGHT
 10
0.0
 20
0.0
 30
0.0
  9
$PUCSORGFRONT
 10
0.0
 20
0.0
 30
0.0
  9
$PUCSORGBACK
 10
0.0
 20
0.0
 30
0.0
  9
$USERI1
 70
     0
  9
$USERI2
 70
     0
  9
$USERI3
 70
     0
  9
$USERI4
 70
     0
  9
$USERI5
 70
     0
  9
$USERR1
 40
0.0
  9
$USERR2
 40
0.0
  9
$USERR3
 40
0.0
  9
$USERR4
 40
0.0
  9
$USERR5
 40
0.0
  9
$WORLDVIEW
 70
     1
  9
$SHADEDGE
 70
     3
  9
$SHADEDIF
 70
    70
  9
$TILEMODE
 70
     1
  9
$MAXACTVP
 70
    64
  9
$PINSBASE
 10
0.0
 20
0.0
 30
0.0
  9
$PLIMCHECK
 70
     0
  9
$PEXTMIN
 10
1.000000000000000E+20
 20
1.000000000000000E+20
 30
1.000000000000000E+20
  9
$PEXTMAX
 10
-1.000000000000000E+20
 20
-1.000000000000000E+20
 30
-1.000000000000000E+20
  9
$PLIMMIN
 10
-105.0
 20
-148.5
  9
$PLIMMAX
 10
105.0
 20
148.5
  9
$UNITMODE
 70
     0
  9
$VISRETAIN
 70
     1
  9
$PLINEGEN
 70
     0
  9
$PSLTSCALE
 70
     1
  9
$TREEDEPTH
 70
  3020
  9
$CMLSTYLE
  2
Standard
  9
$CMLJUST
 70
     0
  9
$CMLSCALE
 40
20.0
  9
$PROXYGRAPHICS
 70
     1
  9
$MEASUREMENT
 70
     1
  9
$CELWEIGHT
370
    -1
  9
$ENDCAPS
280
     0
  9
$JOINSTYLE
280
     0
  9
$LWDISPLAY
290
     0
  9
$INSUNITS
 70
     4
  9
$HYPERLINKBASE
  1

  9
$STYLESHEET
  1

  9
$XEDIT
290
     1
  9
$CEPSNTYPE
380
     0
  9
$PSTYLEMODE
290
     1
  9
$FINGERPRINTGUID
  2
{E4A7FFB7-C0A8-45CC-A52C-DFA944571F6E}
  9
$VERSIONGUID
  2
{FAEB1C32-E019-11D5-929B-00C0DF256EC4}
  9
$EXTNAMES
290
     1
  9
$PSVPSCALE
 40
0.0
  9
$OLESTARTUP
290
     0
  9
$SORTENTS
280
   127
  9
$INDEXCTL
280
     0
  9
$HIDETEXT
280
     1
  9
$XCLIPFRAME
290
     0
  9
$HALOGAP
280
     0
  9
$OBSCOLOR
 70
   257
  9
$OBSLTYPE
280
     0
  9
$INTERSECTIONDISPLAY
280
     0
  9
$INTERSECTIONCOLOR
 70
   257
  9
$DIMASSOC
280
     2
  9
$PROJECTNAME
  1

  0
ENDSEC
  0
SECTION
  2
CLASSES
  0
CLASS
  1
ACDBDICTIONARYWDFLT
  2
AcDbDictionaryWithDefault
  3
ObjectDBX Classes
 90
        0
 91
        4
280
     0
281
     0
  0
CLASS
  1
VISUALSTYLE
  2
AcDbVisualStyle
  3
ObjectDBX Classes
 90
     4095
 91
        4
280
     0
281
     0
  0
CLASS
  1
MATERIAL
  2
AcDbMaterial
  3
ObjectDBX Classes
 90
     1153
 91
        4
280
     0
281
     0
  0
CLASS
  1
SUN
  2
AcDbSun
  3
SCENEOE
 90
     1024
 91
        4
280
     0
281
     0
  0
ENDSEC
  0
SECTION
  2
TABLES
  0
TABLE
  2
VPORT
  5
8
330
0
100
AcDbSymbolTable
 70
     1
  0
VPORT
  5
29
330
8
100
AcDbSymbolTableRecord
100
AcDbViewportTableRecord
  2
*Active
 70
     0
 10
0.0
 20
0.0
 11
1.0
 21
1.0
 12
344.1869158878504
 22
148.5
 13
0.0
 23
0.0
 14
10.0
 24
10.0
 15
10.0
 25
10.0
 16
0.0
 26
0.0
 36
1.0
 17
0.0
 27
0.0
 37
0.0
 40
297.0
 41
1.972972972850329
 42
50.0
 43
0.0
 44
0.0
 50
0.0
 51
0.0
 71
     0
 72
   100
 73
     1
 74
     3
 75
     0
 76
     0
 77
     0
 78
     0
281
     0
 65
     1
110
0.0
120
0.0
130
0.0
111
1.0
121
0.0
131
0.0
112
0.0
122
1.0
132
0.0
 79
     0
146
0.0
  0
ENDTAB
  0
TABLE
  2
LTYPE
  5
5
330
0
100
AcDbSymbolTable
 70
     5
  0
LTYPE
  5
14
330
5
100
AcDbSymbolTableRecord
100
AcDbLinetypeTableRecord
  2
ByBlock
 70
     0
  3

 72
    65
 73
     0
 40
0.0
  0
LTYPE
  5
15
330
5
100
AcDbSymbolTableRecord
100
AcDbLinetypeTableRecord
  2
ByLayer
 70
     0
  3

 72
    65
 73
     0
 40
0.0
  0
LTYPE
  5
16
330
5
100
AcDbSymbolTableRecord
100
AcDbLinetypeTableRecord
  2
Continuous
 70
     0
  3
Solid line
 72
    65
 73
     0
 40
0.0
  0
LTYPE
  5
40
330
5
100
AcDbSymbolTableRecord
100
AcDbLinetypeTableRecord
  2
CONTINOUS
 70
     0
  3
______________________________
 72
    65
 73
     0
 40
0.0
  0
LTYPE
  5
41
330
5
100
AcDbSymbolTableRecord
100
AcDbLinetypeTableRecord
  2
DASHED
 70
     0
  3
__ __ __ __ __ __ __ __ __ __ __ __ __ __ __ __
 72
    65
 73
     2
 40
4.5
 49
3.0
 74
     0
 49
-1.5
 74
     0
  0
LTYPE
  5
42
330
5
100
AcDbSymbolTableRecord
100
AcDbLinetypeTableRecord
  2
PHANTOM
 70
     0
  3
______  __  __  ______  __  __  _____
 72
    65
 73
     6
 40
15.0
 49
7.5
 74
     0
 49
-1.5
 74
     0
 49
1.5
 74
     0
 49
-1.5
 74
     0
 49
1.5
 74
     0
 49
-1.5
 74
     0
  0
LTYPE
  5
43
330
5
100
AcDbSymbolTableRecord
100
AcDbLinetypeTableRecord
  2
CENTER
 70
     0
  3
____ _ ____ _ ____ _ ____ _ ____ _ ____
 72
    65
 73
     4
 40
12.0
 49
7.5
 74
     0
 49
-1.5
 74
     0
 49
1.5
 74
     0
 49
-1.5
 74
     0
  0
ENDTAB
  0
TABLE
  2
LAYER
  5
2
330
0
100
AcDbSymbolTable
 70
     3
  0
LAYER
  5
10
330
2
100
AcDbSymbolTableRecord
100
AcDbLayerTableRecord
  2
0
 70
     0
 62
     7
  6
Continuous
370
    -3
390
F
  0
LAYER
  5
476
330
2
100
AcDbSymbolTableRecord
100
AcDbLayerTableRecord
  2
Defpoints
 70
     0
 62
     7
  6
Continuous
290
     0
370
    -3
390
F
  0
LAYER
  5
544
330
2
100
AcDbSymbolTableRecord
100
AcDbLayerTableRecord
  2
VIEW0001
 70
     0
 62
     7
  6
Continuous
370
    -3
390
F
  0
ENDTAB
  0
TABLE
  2
STYLE
  5
3
330
0
100
AcDbSymbolTable
 70
     1
  0
STYLE
  5
11
330
3
100
AcDbSymbolTableRecord
100
AcDbTextStyleTableRecord
  2
Standard
 70
     0
 40
0.0
 41
1.0
 50
0.0
 71
     0
 42
2.5
  3
ROMANS
  4
BIGFONT
  0
ENDTAB
  0
TABLE
  2
VIEW
  5
6
330
0
100
AcDbSymbolTable
 70
     0
  0
ENDTAB
  0
TABLE
  2
UCS
  5
7
330
0
100
AcDbSymbolTable
 70
     0
  0
ENDTAB
  0
TABLE
  2
APPID
  5
9
330
0
100
AcDbSymbolTable
 70
     1
  0
APPID
  5
12
330
9
100
AcDbSymbolTableRecord
100
AcDbRegAppTableRecord
  2
ACAD
 70
     0
  0
ENDTAB
  0
TABLE
  2
DIMSTYLE
  5
A
330
0
100
AcDbSymbolTable
 70
     1
100
AcDbDimStyleTable
  0
DIMSTYLE
105
27
102
{ACAD_REACTORS
330
46F
330
483
330
490
330
49D
330
4AA
330
4B7
330
4C4
330
4D0
330
4DE
330
4E9
330
4F6
330
503
330
510
330
51D
330
52A
330
537
102
}
330
A
100
AcDbSymbolTableRecord
100
AcDbDimStyleTableRecord
  2
ISO-25
 70
     0
 41
2.5
 42
0.625
 43
3.75
 44
1.25
 73
     0
 74
     0
 77
     1
 78
     8
140
2.5
141
2.5
143
0.03937007874016
147
0.625
171
     3
172
     1
178
     0
271
     2
272
     2
274
     3
278
    44
283
     0
284
     8
340
11
  0
ENDTAB
  0
TABLE
  2
BLOCK_RECORD
  5
1
330
0
100
AcDbSymbolTable
 70
    28
  0
BLOCK_RECORD
  5
1F
330
1
100
AcDbSymbolTableRecord
100
AcDbBlockTableRecord
  2
*Model_Space
340
22
  0
BLOCK_RECORD
  5
1B
330
1
100
AcDbSymbolTableRecord
100
AcDbBlockTableRecord
  2
*Paper_Space
340
1E
  0
BLOCK_RECORD
  5
23
330
1
100
AcDbSymbolTableRecord
100
AcDbBlockTableRecord
  2
*Paper_Space0
340
26
  0
BLOCK_RECORD
  5
44
330
1
100
AcDbSymbolTableRecord
100
AcDbBlockTableRecord
  2
DTL0001
340
0
  0
BLOCK_RECORD
  5
47
330
1
100
AcDbSymbolTableRecord
100
AcDbBlockTableRecord
  2
DTL0002
340
0
  0
BLOCK_RECORD
  5
4A
330
1
100
AcDbSymbolTableRecord
100
AcDbBlockTableRecord
  2
DTL0003
340
0
  0
BLOCK_RECORD
  5
4D
330
1
100
AcDbSymbolTableRecord
100
AcDbBlockTableRecord
  2
DTL0004
340
0
  0
BLOCK_RECORD
  5
50
330
1
100
AcDbSymbolTableRecord
100
AcDbBlockTableRecord
  2
DTL0005
340
0
  0
BLOCK_RECORD
  5
53
330
1
100
AcDbSymbolTableRecord
100
AcDbBlockTableRecord
  2
DTL0006
340
0
  0
BLOCK_RECORD
  5
56
330
1
100
AcDbSymbolTableRecord
100
AcDbBlockTableRecord
  2
DTL0007
340
0
  0
BLOCK_RECORD
  5
59
330
1
100
AcDbSymbolTableRecord
100
AcDbBlockTableRecord
  2
DTL0008
340
0
  0
BLOCK_RECORD
  5
5C
330
1
100
AcDbSymbolTableRecord
100
AcDbBlockTableRecord
  2
DTL0009
340
0
  0
BLOCK_RECORD
  5
5F
330
1
100
AcDbSymbolTableRecord
100
AcDbBlockTableRecord
  2
DTL0010
340
0
  0
BLOCK_RECORD
  5
470
330
1
100
AcDbSymbolTableRecord
100
AcDbBlockTableRecord
  2
_OPEN30
340
0
102
{BLKREFS
331
47E
331
47D
331
48B
331
48A
331
498
331
497
331
4A5
331
4A4
331
4B2
331
4B1
331
4BF
331
4BE
331
4CB
331
4CA
331
4D9
331
4D8
331
4E4
331
4E3
331
4F1
331
4F0
331
4FE
331
4FD
331
50B
331
50A
331
518
331
517
331
525
331
524
331
532
331
531
331
53F
331
53E
102
}
  0
BLOCK_RECORD
  5
477
330
1
100
AcDbSymbolTableRecord
100
AcDbBlockTableRecord
  2
*D12
340
0
  0
BLOCK_RECORD
  5
484
330
1
100
AcDbSymbolTableRecord
100
AcDbBlockTableRecord
  2
*D13
340
0
  0
BLOCK_RECORD
  5
491
330
1
100
AcDbSymbolTableRecord
100
AcDbBlockTableRecord
  2
*D14
340
0
  0
BLOCK_RECORD
  5
49E
330
1
100
AcDbSymbolTableRecord
100
AcDbBlockTableRecord
  2
*D15
340
0
  0
BLOCK_RECORD
  5
4AB
330
1
100
AcDbSymbolTableRecord
100
AcDbBlockTableRecord
  2
*D16
340
0
  0
BLOCK_RECORD
  5
4B8
330
1
100
AcDbSymbolTableRecord
100
AcDbBlockTableRecord
  2
*D17
340
0
  0
BLOCK_RECORD
  5
4C5
330
1
100
AcDbSymbolTableRecord
100
AcDbBlockTableRecord
  2
*D18
340
0
  0
BLOCK_RECORD
  5
4D1
330
1
100
AcDbSymbolTableRecord
100
AcDbBlockTableRecord
  2
*D19
340
0
  0
BLOCK_RECORD
  5
4DF
330
1
100
AcDbSymbolTableRecord
100
AcDbBlockTableRecord
  2
*D20
340
0
  0
BLOCK_RECORD
  5
4EA
330
1
100
AcDbSymbolTableRecord
100
AcDbBlockTableRecord
  2
*D21
340
0
  0
BLOCK_RECORD
  5
4F7
330
1
100
AcDbSymbolTableRecord
100
AcDbBlockTableRecord
  2
*D22
340
0
  0
BLOCK_RECORD
  5
504
330
1
100
AcDbSymbolTableRecord
100
AcDbBlockTableRecord
  2
*D23
340
0
  0
BLOCK_RECORD
  5
511
330
1
100
AcDbSymbolTableRecord
100
AcDbBlockTableRecord
  2
*D24
340
0
  0
BLOCK_RECORD
  5
51E
330
1
100
AcDbSymbolTableRecord
100
AcDbBlockTableRecord
  2
*D25
340
0
  0
BLOCK_RECORD
  5
52B
330
1
100
AcDbSymbolTableRecord
100
AcDbBlockTableRecord
  2
*D26
340
0
  0
BLOCK_RECORD
  5
538
330
1
100
AcDbSymbolTableRecord
100
AcDbBlockTableRecord
  2
*D27
340
0
  0
ENDTAB
  0
ENDSEC
  0
SECTION
  2
BLOCKS
  0
BLOCK
  5
20
330
1F
100
AcDbEntity
  8
0
100
AcDbBlockBegin
  2
*Model_Space
 70
     0
 10
0.0
 20
0.0
 30
0.0
  3
*Model_Space
  1

  0
ENDBLK
  5
21
330
1F
100
AcDbEntity
  8
0
100
AcDbBlockEnd
  0
BLOCK
  5
1C
330
1B
100
AcDbEntity
 67
     1
  8
0
100
AcDbBlockBegin
  2
*Paper_Space
 70
     0
 10
0.0
 20
0.0
 30
0.0
  3
*Paper_Space
  1

  0
ENDBLK
  5
1D
330
1B
100
AcDbEntity
 67
     1
  8
0
100
AcDbBlockEnd
  0
BLOCK
  5
24
330
23
100
AcDbEntity
  8
0
100
AcDbBlockBegin
  2
*Paper_Space0
 70
     0
 10
0.0
 20
0.0
 30
0.0
  3
*Paper_Space0
  1

  0
ENDBLK
  5
25
330
23
100
AcDbEntity
  8
0
100
AcDbBlockEnd
  0
BLOCK
  5
45
330
44
100
AcDbEntity
  8
0
100
AcDbBlockBegin
  2
DTL0001
 70
     0
 10
0.0
 20
0.0
 30
0.0
  3
DTL0001
  1

  0
POINT
  5
62
330
44
100
AcDbEntity
  8
0
 62
     0
100
AcDbPoint
 10
0.0
 20
0.0
 30
0.0
  0
LINE
  5
63
330
44
100
AcDbEntity
  8
0
  6
Continuous
 62
     0
100
AcDbLine
 10
43.99999618530273
 20
0.0
 30
0.0
 11
43.99999618530273
 21
-6.000003814697266
 31
0.0
  0
LINE
  5
64
330
44
100
AcDbEntity
  8
0
  6
Continuous
 62
     0
100
AcDbLine
 10
36.20493505739575
 20
-14.96925592921882
 30
0.0
 11
36.0611288912734
 21
-21.30623507922253
 31
0.0
  0
LINE
  5
65
330
44
100
AcDbEntity
  8
0
  6
Continuous
 62
     0
100
AcDbLine
 10
36.0
 20
-21.98036766052246
 30
0.0
 11
36.0
 21
-23.99988555908203
 31
0.0
  0
LINE
  5
66
330
44
100
AcDbEntity
  8
0
  6
Continuous
 62
     0
100
AcDbLine
 10
-43.99999618530273
 20
0.0
 30
0.0
 11
-43.99999618530273
 21
-6.000003814697266
 31
0.0
  0
LINE
  5
67
330
44
100
AcDbEntity
  8
0
  6
Continuous
 62
     0
100
AcDbLine
 10
43.99999618530273
 20
0.0
 30
0.0
 11
-43.99999618530273
 21
0.0
 31
0.0
  0
LINE
  5
68
330
44
100
AcDbEntity
  8
0
  6
Continuous
 62
     0
100
AcDbLine
 10
43.99999618530273
 20
-6.000003814697266
 30
0.0
 11
-43.99999618530273
 21
-6.000003814697266
 31
0.0
  0
LINE
  5
69
330
44
100
AcDbEntity
  8
0
  6
Continuous
 62
     0
100
AcDbLine
 10
-36.20493505739575
 20
-14.96925592921882
 30
0.0
 11
-36.06112893454605
 21
-21.30623317236483
 31
0.0
  0
LINE
  5
6A
330
44
100
AcDbEntity
  8
0
  6
Continuous
 62
     0
100
AcDbLine
 10
-36.0
 20
-21.98036766052246
 30
0.0
 11
-36.0
 21
-24.00000381469727
 31
0.0
  0
LINE
  5
6B
330
44
100
AcDbEntity
  8
0
  6
Continuous
 62
     0
100
AcDbLine
 10
36.0
 20
-24.00000381469727
 30
0.0
 11
-36.0
 21
-24.00000381469727
 31
0.0
  0
LINE
  5
6C
330
44
100
AcDbEntity
  8
0
  6
Continuous
 62
     0
100
AcDbLine
 10
18.50000190734863
 20
-18.00000381469727
 30
0.0
 11
18.50000190734863
 21
-24.00000381469727
 31
0.0
  0
LINE
  5
6D
330
44
100
AcDbEntity
  8
0
  6
Continuous
 62
     0
100
AcDbLine
 10
20.63619804382324
 20
-18.00000381469727
 30
0.0
 11
20.63619804382324
 21
-24.00000381469727
 31
0.0
  0
LINE
  5
6E
330
44
100
AcDbEntity
  8
0
  6
Continuous
 62
     0
100
AcDbLine
 10
-18.49999809265137
 20
-18.00000381469727
 30
0.0
 11
-18.49999809265137
 21
-24.00000381469727
 31
0.0
  0
LINE
  5
6F
330
44
100
AcDbEntity
  8
0
  6
Continuous
 62
     0
100
AcDbLine
 10
-20.63619422912598
 20
-18.00002098083496
 30
0.0
 11
-20.63619422912598
 21
-24.00000381469727
 31
0.0
  0
LINE
  5
70
330
44
100
AcDbEntity
  8
0
  6
Continuous
 62
     0
100
AcDbLine
 10
30.4310417175293
 20
-14.16534900665283
 30
0.0
 11
30.4310417175293
 21
-24.00000381469727
 31
0.0
  0
LINE
  5
71
330
44
100
AcDbEntity
  8
0
  6
Continuous
 62
     0
100
AcDbLine
 10
-30.43103981018066
 20
-14.16534900665283
 30
0.0
 11
-30.43103981018066
 21
-24.00000381469727
 31
0.0
  0
LINE
  5
72
330
44
100
AcDbEntity
  8
0
  6
CENTER
 62
     0
100
AcDbLine
 10
0.0
 20
2.22619104385376
 30
0.0
 11
0.0
 21
-26.54154396057129
 31
0.0
  0
ARC
  5
73
330
44
100
AcDbEntity
  8
0
  6
Continuous
 62
     0
100
AcDbCircle
 10
47.97169876098633
 20
-17.32368087768555
 30
0.0
 40
12.0
100
AcDbArc
 50
109.3279557045644
 51
168.6850453280215
  0
ARC
  5
74
330
44
100
AcDbEntity
  8
0
  6
Continuous
 62
     0
100
AcDbCircle
 10
31.06241607666016
 20
-21.19279861450195
 30
0.0
 40
5.0
100
AcDbArc
 50
325.8445359798003
 51
358.7000000634312
  0
ARC
  5
75
330
44
100
AcDbEntity
  8
0
  6
Continuous
 62
     0
100
AcDbCircle
 10
-47.97169876098633
 20
-17.32368087768555
 30
0.0
 40
12.0
100
AcDbArc
 50
11.31495455829295
 51
70.6720424742028
  0
ARC
  5
76
330
44
100
AcDbEntity
  8
0
  6
Continuous
 62
     0
100
AcDbCircle
 10
-31.06241607666016
 20
-21.19279861450195
 30
0.0
 40
5.0
100
AcDbArc
 50
181.2999985561505
 51
214.1555170678513
  0
ARC
  5
77
330
44
100
AcDbEntity
  8
0
  6
Continuous
 62
     0
100
AcDbCircle
 10
-6.499999046325684
 20
-18.00000381469727
 30
0.0
 40
12.0
100
AcDbArc
 50
90.00000250447816
 51
180.0000050089563
  0
ARC
  5
78
330
44
100
AcDbEntity
  8
0
  6
Continuous
 62
     0
100
AcDbCircle
 10
6.500001907348633
 20
-18.00000381469727
 30
0.0
 40
12.0
100
AcDbArc
 50
0.0
 51
90.00000250447816
  0
ARC
  5
79
330
44
100
AcDbEntity
  8
0
  6
Continuous
 62
     0
100
AcDbCircle
 10
35.42054748535156
 20
-20.53437995910645
 30
0.0
 40
15.0
100
AcDbArc
 50
126.9312793090332
 51
170.2727364609693
  0
ARC
  5
7A
330
44
100
AcDbEntity
  8
0
  6
Continuous
 62
     0
100
AcDbCircle
 10
12.22457408905029
 20
-21.27795791625977
 30
0.0
 40
20.0
100
AcDbArc
 50
28.30557775081305
 51
38.91268736201901
  0
ARC
  5
7B
330
44
100
AcDbEntity
  8
0
  6
Continuous
 62
     0
100
AcDbCircle
 10
27.0085506439209
 20
-9.343385696411133
 30
0.0
 40
1.0
100
AcDbArc
 50
38.91268736201901
 51
126.9312793090332
  0
ARC
  5
7C
330
44
100
AcDbEntity
  8
0
  6
Continuous
 62
     0
100
AcDbCircle
 10
25.4310417175293
 20
-14.16534900665283
 30
0.0
 40
5.0
100
AcDbArc
 50
0.0
 51
28.30557775081305
  0
ARC
  5
7D
330
44
100
AcDbEntity
  8
0
  6
Continuous
 62
     0
100
AcDbCircle
 10
-12.22457408905029
 20
-21.27795791625977
 30
0.0
 40
20.0
100
AcDbArc
 50
141.0873108167482
 51
151.6944170128595
  0
ARC
  5
7E
330
44
100
AcDbEntity
  8
0
  6
Continuous
 62
     0
100
AcDbCircle
 10
-25.4310417175293
 20
-14.16534900665283
 30
0.0
 40
5.0
100
AcDbArc
 50
151.6944170128595
 51
180.0000050089563
  0
ARC
  5
7F
330
44
100
AcDbEntity
  8
0
  6
Continuous
 62
     0
100
AcDbCircle
 10
-35.42054748535156
 20
-20.53437995910645
 30
0.0
 40
15.0
100
AcDbArc
 50
9.727194269679796
 51
53.068718869734
  0
ARC
  5
80
330
44
100
AcDbEntity
  8
0
  6
Continuous
 62
     0
100
AcDbCircle
 10
-27.0085506439209
 20
-9.343385696411133
 30
0.0
 40
1.0
100
AcDbArc
 50
53.068718869734
 51
141.0873108167482
  0
ENDBLK
  5
46
330
44
100
AcDbEntity
  8
0
100
AcDbBlockEnd
  0
BLOCK
  5
48
330
47
100
AcDbEntity
  8
0
100
AcDbBlockBegin
  2
DTL0002
 70
     0
 10
0.0
 20
0.0
 30
0.0
  3
DTL0002
  1

  0
POINT
  5
81
330
47
100
AcDbEntity
  8
0
 62
     0
100
AcDbPoint
 10
0.0
 20
0.0
 30
0.0
  0
LINE
  5
82
330
47
100
AcDbEntity
  8
0
  6
Continuous
 62
     0
100
AcDbLine
 10
0.0
 20
-33.70000076293945
 30
0.0
 11
28.96200180053711
 21
-33.70000076293945
 31
0.0
  0
LINE
  5
83
330
47
100
AcDbEntity
  8
0
  6
Continuous
 62
     0
100
AcDbLine
 10
0.0
 20
0.0
 30
0.0
 11
38.0
 21
0.0
 31
0.0
  0
LINE
  5
84
330
47
100
AcDbEntity
  8
0
  6
DASHED
 62
     0
100
AcDbLine
 10
33.35000228881836
 20
-2.75
 30
0.0
 11
35.45000076293945
 21
-2.75
 31
0.0
  0
LINE
  5
85
330
47
100
AcDbEntity
  8
0
  6
Continuous
 62
     0
100
AcDbLine
 10
31.12599563598633
 20
-13.0
 30
0.0
 11
31.5
 21
-13.0
 31
0.0
  0
LINE
  5
86
330
47
100
AcDbEntity
  8
0
  6
DASHED
 62
     0
100
AcDbLine
 10
33.35000228881836
 20
-1.0
 30
0.0
 11
33.35000228881836
 21
-2.75
 31
0.0
  0
LINE
  5
87
330
47
100
AcDbEntity
  8
0
  6
DASHED
 62
     0
100
AcDbLine
 10
31.7999993978141
 20
-6.499999685781392
 30
0.0
 11
31.49999939455365
 21
-12.99999967562398
 31
0.0
  0
LINE
  5
88
330
47
100
AcDbEntity
  8
0
  6
Continuous
 62
     0
100
AcDbLine
 10
38.00000189959515
 20
-0.000000515419133
 30
0.0
 11
37.47500194768431
 21
-20.99999984394128
 31
0.0
  0
LINE
  5
89
330
47
100
AcDbEntity
  8
0
  6
DASHED
 62
     0
100
AcDbLine
 10
29.96666511252049
 20
-7.499999453319374
 30
0.0
 11
29.84999840352367
 21
-11.00000056667463
 31
0.0
  0
LINE
  5
8A
330
47
100
AcDbEntity
  8
0
  6
DASHED
 62
     0
100
AcDbLine
 10
28.50000092667466
 20
-10.99999975548542
 30
0.0
 11
28.0500009044295
 21
-33.69999998483377
 31
0.0
  0
LINE
  5
8B
330
47
100
AcDbEntity
  8
0
  6
Continuous
 62
     0
100
AcDbLine
 10
29.57000040195006
 20
-28.69999942967535
 30
0.0
 11
29.46200036892538
 21
-33.20000061286418
 31
0.0
  0
LINE
  5
8C
330
47
100
AcDbEntity
  8
0
  6
Continuous
 62
     0
100
AcDbLine
 10
29.88999841844113
 20
-23.70000067045202
 30
0.0
 11
29.56999832495049
 21
-28.70000214990787
 31
0.0
  0
LINE
  5
8D
330
47
100
AcDbEntity
  8
0
  6
DASHED
 62
     0
100
AcDbLine
 10
30.12629132883866
 20
-13.97570732951103
 30
0.0
 11
29.93130854296943
 21
-21.9999986948104
 31
0.0
  0
LINE
  5
8E
330
47
100
AcDbEntity
  8
0
  6
DASHED
 62
     0
100
AcDbLine
 10
29.96666621843418
 20
-7.499999323733936
 30
0.0
 11
30.9666666227884
 21
-6.499998919379722
 31
0.0
  0
LINE
  5
8F
330
47
100
AcDbEntity
  8
0
  6
DASHED
 62
     0
100
AcDbLine
 10
31.12599563598633
 20
-13.0
 30
0.0
 11
34.7918701171875
 21
-13.0
 31
0.0
  0
LINE
  5
90
330
47
100
AcDbEntity
  8
0
  6
Continuous
 62
     0
100
AcDbLine
 10
28.96200167523636
 20
-33.70000135357473
 30
0.0
 11
29.4620008658891
 21
-33.20000216292198
 31
0.0
  0
LINE
  5
91
330
47
100
AcDbEntity
  8
0
  6
Continuous
 62
     0
100
AcDbLine
 10
36.47500279597372
 20
-22.00000147794737
 30
0.0
 11
37.47500320032793
 21
-21.00000107359316
 31
0.0
  0
LINE
  5
92
330
47
100
AcDbEntity
  8
0
  6
DASHED
 62
     0
100
AcDbLine
 10
36.0000009923596
 20
-21.99999853170477
 30
0.0
 11
35.45000198810546
 21
-2.750000059069543
 31
0.0
  0
LINE
  5
93
330
47
100
AcDbEntity
  8
0
  6
DASHED
 62
     0
100
AcDbLine
 10
32.5
 20
-20.0
 30
0.0
 11
32.5
 21
-22.0
 31
0.0
  0
LINE
  5
94
330
47
100
AcDbEntity
  8
0
  6
DASHED
 62
     0
100
AcDbLine
 10
32.49999852479361
 20
-19.99999893807325
 30
0.0
 11
34.97476963670024
 21
-19.09925588446324
 31
0.0
  0
LINE
  5
95
330
47
100
AcDbEntity
  8
0
  6
DASHED
 62
     0
100
AcDbLine
 10
35.14249999073944
 20
-13.00000055728978
 30
0.0
 11
34.97477066986505
 21
-19.09925721825472
 31
0.0
  0
LINE
  5
96
330
47
100
AcDbEntity
  8
0
  6
Continuous
 62
     0
100
AcDbLine
 10
0.0
 20
-33.70000076293945
 30
0.0
 11
-28.96200180053711
 21
-33.70000076293945
 31
0.0
  0
LINE
  5
97
330
47
100
AcDbEntity
  8
0
  6
Continuous
 62
     0
100
AcDbLine
 10
0.0
 20
0.0
 30
0.0
 11
-38.0
 21
0.0
 31
0.0
  0
LINE
  5
98
330
47
100
AcDbEntity
  8
0
  6
DASHED
 62
     0
100
AcDbLine
 10
-33.35000228881836
 20
-2.75
 30
0.0
 11
-35.45000076293945
 21
-2.75
 31
0.0
  0
LINE
  5
99
330
47
100
AcDbEntity
  8
0
  6
Continuous
 62
     0
100
AcDbLine
 10
-31.12599563598633
 20
-13.0
 30
0.0
 11
-31.5
 21
-13.0
 31
0.0
  0
LINE
  5
9A
330
47
100
AcDbEntity
  8
0
  6
DASHED
 62
     0
100
AcDbLine
 10
34.57109069824219
 20
-6.5
 30
0.0
 11
-34.57109069824219
 21
-6.5
 31
0.0
  0
LINE
  5
9B
330
47
100
AcDbEntity
  8
0
  6
DASHED
 62
     0
100
AcDbLine
 10
29.96666717529297
 20
-7.5
 30
0.0
 11
-29.96666717529297
 21
-7.5
 31
0.0
  0
LINE
  5
9C
330
47
100
AcDbEntity
  8
0
  6
DASHED
 62
     0
100
AcDbLine
 10
-31.12599563598633
 20
-13.0
 30
0.0
 11
-34.7918701171875
 21
-13.0
 31
0.0
  0
LINE
  5
9D
330
47
100
AcDbEntity
  8
0
  6
Continuous
 62
     0
100
AcDbLine
 10
-28.96200150664896
 20
-33.70000152216213
 30
0.0
 11
-29.4620006973017
 21
-33.20000233150938
 31
0.0
  0
LINE
  5
9E
330
47
100
AcDbEntity
  8
0
  6
Continuous
 62
     0
100
AcDbLine
 10
-36.47500279597372
 20
-22.00000147794737
 30
0.0
 11
-37.47500252597836
 21
-21.00000174794273
 31
0.0
  0
LINE
  5
9F
330
47
100
AcDbEntity
  8
0
  6
DASHED
 62
     0
100
AcDbLine
 10
-33.35000228881836
 20
-1.0
 30
0.0
 11
-33.35000228881836
 21
-2.75
 31
0.0
  0
LINE
  5
A0
330
47
100
AcDbEntity
  8
0
  6
DASHED
 62
     0
100
AcDbLine
 10
-31.7999993978141
 20
-6.499999685781392
 30
0.0
 11
-31.49999943852258
 21
-12.99999872296379
 31
0.0
  0
LINE
  5
A1
330
47
100
AcDbEntity
  8
0
  6
Continuous
 62
     0
100
AcDbLine
 10
-38.00000189661585
 20
-0.000000634591187
 30
0.0
 11
-37.47500199535313
 21
-20.99999793718841
 31
0.0
  0
LINE
  5
A2
330
47
100
AcDbEntity
  8
0
  6
Continuous
 62
     0
100
AcDbLine
 10
36.47500228881836
 20
-22.0
 30
0.0
 11
-36.47499847412109
 21
-22.0
 31
0.0
  0
LINE
  5
A3
330
47
100
AcDbEntity
  8
0
  6
DASHED
 62
     0
100
AcDbLine
 10
-29.96666514429199
 20
-7.499998500174435
 30
0.0
 11
-29.84999833998068
 21
-11.00000247296451
 31
0.0
  0
LINE
  5
A4
330
47
100
AcDbEntity
  8
0
  6
DASHED
 62
     0
100
AcDbLine
 10
-29.85000228881836
 20
-11.0
 30
0.0
 11
29.85000228881836
 21
-11.0
 31
0.0
  0
LINE
  5
A5
330
47
100
AcDbEntity
  8
0
  6
DASHED
 62
     0
100
AcDbLine
 10
-29.96666621843418
 20
-7.499999323733936
 30
0.0
 11
-30.9666666227884
 21
-6.499998919379722
 31
0.0
  0
LINE
  5
A6
330
47
100
AcDbEntity
  8
0
  6
DASHED
 62
     0
100
AcDbLine
 10
-28.50000090777293
 20
-11.0000007089724
 30
0.0
 11
-28.0500009044295
 21
-33.69999998483377
 31
0.0
  0
LINE
  5
A7
330
47
100
AcDbEntity
  8
0
  6
DASHED
 62
     0
100
AcDbLine
 10
-36.00000104683296
 20
-22.00000043827537
 30
0.0
 11
-35.4500020017238
 21
-2.750000535712194
 31
0.0
  0
LINE
  5
A8
330
47
100
AcDbEntity
  8
0
  6
DASHED
 62
     0
100
AcDbLine
 10
-32.5
 20
-20.0
 30
0.0
 11
-32.5
 21
-22.0
 31
0.0
  0
LINE
  5
A9
330
47
100
AcDbEntity
  8
0
  6
Continuous
 62
     0
100
AcDbLine
 10
-29.57000035618687
 20
-28.70000133647491
 30
0.0
 11
-29.46200036892538
 21
-33.20000061286418
 31
0.0
  0
LINE
  5
AA
330
47
100
AcDbEntity
  8
0
  6
Continuous
 62
     0
100
AcDbLine
 10
-29.88999841844113
 20
-23.70000067045202
 30
0.0
 11
-29.56999832495049
 21
-28.70000214990787
 31
0.0
  0
LINE
  5
AB
330
47
100
AcDbEntity
  8
0
  6
DASHED
 62
     0
100
AcDbLine
 10
-30.12629323562445
 20
-13.97570737584414
 30
0.0
 11
-29.93131040342211
 21
-22.00000064792931
 31
0.0
  0
LINE
  5
AC
330
47
100
AcDbEntity
  8
0
  6
DASHED
 62
     0
100
AcDbLine
 10
-32.49999852479361
 20
-19.99999893807325
 30
0.0
 11
-34.97476963670024
 21
-19.09925588446324
 31
0.0
  0
LINE
  5
AD
330
47
100
AcDbEntity
  8
0
  6
DASHED
 62
     0
100
AcDbLine
 10
-35.14249999073944
 20
-13.00000055728978
 30
0.0
 11
-34.97477066986505
 21
-19.09925721825472
 31
0.0
  0
LINE
  5
AE
330
47
100
AcDbEntity
  8
0
  6
Continuous
 62
     0
100
AcDbLine
 10
-37.47500228881836
 20
-21.0
 30
0.0
 11
37.47500228881836
 21
-21.0
 31
0.0
  0
LINE
  5
AF
330
47
100
AcDbEntity
  8
0
  6
Continuous
 62
     0
100
AcDbLine
 10
-29.93131040342211
 20
-22.00000064792931
 30
0.0
 11
-29.89000202309933
 21
-23.69999933274053
 31
0.0
  0
LINE
  5
B0
330
47
100
AcDbEntity
  8
0
  6
Continuous
 62
     0
100
AcDbLine
 10
29.93130854296943
 20
-21.9999986948104
 30
0.0
 11
29.89000016264666
 21
-23.69999737962162
 31
0.0
  0
LINE
  5
B1
330
47
100
AcDbEntity
  8
0
  6
Continuous
 62
     0
100
AcDbLine
 10
-29.46200180053711
 20
-33.20000076293945
 30
0.0
 11
29.46200180053711
 21
-33.20000076293945
 31
0.0
  0
ARC
  5
B2
330
47
100
AcDbEntity
  8
0
  6
DASHED
 62
     0
100
AcDbCircle
 10
-31.12599563598633
 20
-14.0
 30
0.0
 40
1.0
100
AcDbArc
 50
1.391960216171747
 51
89.999995674289
  0
ARC
  5
B3
330
47
100
AcDbEntity
  8
0
  6
DASHED
 62
     0
100
AcDbCircle
 10
34.57109069824219
 20
-5.5
 30
0.0
 40
1.0
100
AcDbArc
 50
269.9999974955218
 51
1.487867491341244
  0
ARC
  5
B4
330
47
100
AcDbEntity
  8
0
  6
DASHED
 62
     0
100
AcDbCircle
 10
34.35000228881836
 20
-1.0
 30
0.0
 40
1.0
100
AcDbArc
 50
90.00000250447816
 51
180.0000050089563
  0
ARC
  5
B5
330
47
100
AcDbEntity
  8
0
  6
DASHED
 62
     0
100
AcDbCircle
 10
31.12599563598633
 20
-14.0
 30
0.0
 40
1.0
100
AcDbArc
 50
90.00000250447816
 51
178.6080397768644
  0
ARC
  5
B6
330
47
100
AcDbEntity
  8
0
  6
DASHED
 62
     0
100
AcDbCircle
 10
34.7918701171875
 20
-14.0
 30
0.0
 40
1.0
100
AcDbArc
 50
1.487867491341244
 51
90.00000250447816
  0
ARC
  5
B7
330
47
100
AcDbEntity
  8
0
  6
DASHED
 62
     0
100
AcDbCircle
 10
-34.7918701171875
 20
-14.0
 30
0.0
 40
1.0
100
AcDbArc
 50
89.999995674289
 51
178.5121302605391
  0
ARC
  5
B8
330
47
100
AcDbEntity
  8
0
  6
DASHED
 62
     0
100
AcDbCircle
 10
-34.35000228881836
 20
-1.0
 30
0.0
 40
1.0
100
AcDbArc
 50
359.9999949910439
 51
89.999995674289
  0
ARC
  5
B9
330
47
100
AcDbEntity
  8
0
  6
DASHED
 62
     0
100
AcDbCircle
 10
-34.57109069824219
 20
-5.5
 30
0.0
 40
1.0
100
AcDbArc
 50
178.5121302605391
 51
270.0000006832453
  0
ENDBLK
  5
49
330
47
100
AcDbEntity
  8
0
100
AcDbBlockEnd
  0
BLOCK
  5
4B
330
4A
100
AcDbEntity
  8
0
100
AcDbBlockBegin
  2
DTL0003
 70
     0
 10
0.0
 20
0.0
 30
0.0
  3
DTL0003
  1

  0
POINT
  5
BA
330
4A
100
AcDbEntity
  8
0
 62
     0
100
AcDbPoint
 10
0.0
 20
0.0
 30
0.0
  0
POINT
  5
BB
330
4A
100
AcDbEntity
  8
0
 62
     0
100
AcDbPoint
 10
-92.40492248535156
 20
-11.20000076293945
 30
0.0
  0
POINT
  5
BC
330
4A
100
AcDbEntity
  8
0
 62
     0
100
AcDbPoint
 10
92.40491485595703
 20
-11.20000076293945
 30
0.0
  0
LINE
  5
BD
330
4A
100
AcDbEntity
  8
0
  6
Continuous
 62
     0
100
AcDbLine
 10
-121.6499938964844
 20
37.79999923706055
 30
0.0
 11
121.6500015258789
 21
37.79999923706055
 31
0.0
  0
LINE
  5
BE
330
4A
100
AcDbEntity
  8
0
  6
Continuous
 62
     0
100
AcDbLine
 10
121.6500015258789
 20
37.79999923706055
 30
0.0
 11
121.6500015258789
 21
32.79999923706055
 31
0.0
  0
LINE
  5
BF
330
4A
100
AcDbEntity
  8
0
  6
Continuous
 62
     0
100
AcDbLine
 10
119.6500016854011
 20
32.79999939766324
 30
0.0
 11
118.8463703669236
 21
23.156424152727
 31
0.0
  0
LINE
  5
C0
330
4A
100
AcDbEntity
  8
0
  6
Continuous
 62
     0
100
AcDbLine
 10
112.1500024199204
 20
19.80000159672513
 30
0.0
 11
116.312901365216
 21
20.44044761244825
 31
0.0
  0
LINE
  5
C1
330
4A
100
AcDbEntity
  8
0
  6
Continuous
 62
     0
100
AcDbLine
 10
112.1499953705521
 20
19.80000165247349
 30
0.0
 11
111.5060174632967
 21
12.07226722761412
 31
0.0
  0
LINE
  5
C2
330
4A
100
AcDbEntity
  8
0
  6
Continuous
 62
     0
100
AcDbLine
 10
-117.3436965942383
 20
20.79999923706055
 30
0.0
 11
117.3436889648438
 21
20.79999923706055
 31
0.0
  0
LINE
  5
C3
330
4A
100
AcDbEntity
  8
0
  6
Continuous
 62
     0
100
AcDbLine
 10
-112.1500091552734
 20
19.79999923706055
 30
0.0
 11
112.1500015258789
 21
19.79999923706055
 31
0.0
  0
LINE
  5
C4
330
4A
100
AcDbEntity
  8
0
  6
Continuous
 62
     0
100
AcDbLine
 10
-109.1527786254883
 20
10.80000114440918
 30
0.0
 11
108.8632736206055
 21
10.80000114440918
 31
0.0
  0
LINE
  5
C5
330
4A
100
AcDbEntity
  8
0
  6
Continuous
 62
     0
100
AcDbLine
 10
121.6499980300727
 20
32.80000065493692
 30
0.0
 11
120.8324357225453
 21
22.98925355140105
 31
0.0
  0
LINE
  5
C6
330
4A
100
AcDbEntity
  8
0
  6
Continuous
 62
     0
100
AcDbLine
 10
114.0121743963405
 20
18.06296089831012
 30
0.0
 11
113.4991089789643
 21
11.90617625804105
 31
0.0
  0
LINE
  5
C7
330
4A
100
AcDbEntity
  8
0
  6
Continuous
 62
     0
100
AcDbLine
 10
114.0121791679285
 20
18.06295999438525
 30
0.0
 11
116.6099953921853
 21
18.4626240439501
 31
0.0
  0
LINE
  5
C8
330
4A
100
AcDbEntity
  8
0
  6
Continuous
 62
     0
100
AcDbLine
 10
92.40491485595703
 20
-11.20000076293945
 30
0.0
 11
92.40491485595703
 21
-9.200000762939453
 31
0.0
  0
LINE
  5
C9
330
4A
100
AcDbEntity
  8
0
  6
Continuous
 62
     0
100
AcDbLine
 10
96.1134033203125
 20
-9.200000762939453
 30
0.0
 11
-96.1134033203125
 21
-9.200000762939453
 31
0.0
  0
LINE
  5
CA
330
4A
100
AcDbEntity
  8
0
  6
Continuous
 62
     0
100
AcDbLine
 10
-121.6499938964844
 20
37.79999923706055
 30
0.0
 11
-121.6499938964844
 21
32.79999923706055
 31
0.0
  0
LINE
  5
CB
330
4A
100
AcDbEntity
  8
0
  6
Continuous
 62
     0
100
AcDbLine
 10
-119.6500092884419
 20
32.79999876407648
 30
0.0
 11
-118.8463779699644
 21
23.15642351914023
 31
0.0
  0
LINE
  5
CC
330
4A
100
AcDbEntity
  8
0
  6
Continuous
 62
     0
100
AcDbLine
 10
-112.1500025286801
 20
19.8000008897866
 30
0.0
 11
-116.3129090146534
 21
20.44044806561401
 31
0.0
  0
LINE
  5
CD
330
4A
100
AcDbEntity
  8
0
  6
Continuous
 62
     0
100
AcDbLine
 10
-112.1500104182369
 20
19.79999848453977
 30
0.0
 11
-111.5060326693782
 21
12.07226596044059
 31
0.0
  0
LINE
  5
CE
330
4A
100
AcDbEntity
  8
0
  6
Continuous
 62
     0
100
AcDbLine
 10
121.6500015258789
 20
32.79999923706055
 30
0.0
 11
-121.6499938964844
 21
32.79999923706055
 31
0.0
  0
LINE
  5
CF
330
4A
100
AcDbEntity
  8
0
  6
Continuous
 62
     0
100
AcDbLine
 10
-121.6500056331135
 20
32.80000002135016
 30
0.0
 11
-120.8324433255861
 21
22.98925291781428
 31
0.0
  0
LINE
  5
D0
330
4A
100
AcDbEntity
  8
0
  6
Continuous
 62
     0
100
AcDbLine
 10
-114.0121894440253
 20
18.06295773037639
 30
0.0
 11
-113.4991241850459
 21
11.90617499086751
 31
0.0
  0
LINE
  5
D1
330
4A
100
AcDbEntity
  8
0
  6
Continuous
 62
     0
100
AcDbLine
 10
-114.0121867992393
 20
18.0629605653741
 30
0.0
 11
-116.6099954828184
 21
18.46262345483466
 31
0.0
  0
LINE
  5
D2
330
4A
100
AcDbEntity
  8
0
  6
Continuous
 62
     0
100
AcDbLine
 10
97.89301300048828
 20
-11.20000076293945
 30
0.0
 11
92.40491485595703
 21
-11.20000076293945
 31
0.0
  0
LINE
  5
D3
330
4A
100
AcDbEntity
  8
0
  6
Continuous
 62
     0
100
AcDbLine
 10
-92.40492248535156
 20
-11.20000076293945
 30
0.0
 11
-92.40492248535156
 21
-9.200000762939453
 31
0.0
  0
LINE
  5
D4
330
4A
100
AcDbEntity
  8
0
  6
Continuous
 62
     0
100
AcDbLine
 10
-92.40492248535156
 20
-11.20000076293945
 30
0.0
 11
-97.89302062988281
 21
-11.20000076293945
 31
0.0
  0
ARC
  5
D5
330
4A
100
AcDbEntity
  8
0
  6
Continuous
 62
     0
100
AcDbCircle
 10
115.8567276000977
 20
23.40556144714355
 30
0.0
 40
3.0
100
AcDbArc
 50
278.7461640107499
 51
355.2363571341346
  0
ARC
  5
D6
330
4A
100
AcDbEntity
  8
0
  6
Continuous
 62
     0
100
AcDbCircle
 10
118.3830947875977
 20
-10.06232070922852
 30
0.0
 40
22.0
100
AcDbArc
 50
111.6903405535533
 51
177.0122753603177
  0
ARC
  5
D7
330
4A
100
AcDbEntity
  8
0
  6
Continuous
 62
     0
100
AcDbCircle
 10
109.5129318237305
 20
12.23835754394531
 30
0.0
 40
2.0
100
AcDbArc
 50
291.6903423747862
 51
355.2363571341346
  0
ARC
  5
D8
330
4A
100
AcDbEntity
  8
0
  6
Continuous
 62
     0
100
AcDbCircle
 10
96.1134033203125
 20
-8.89999771118164
 30
0.0
 40
0.300000011920929
100
AcDbArc
 50
269.9999974955218
 51
357.0122746202296
  0
ARC
  5
D9
330
4A
100
AcDbEntity
  8
0
  6
Continuous
 62
     0
100
AcDbCircle
 10
118.3830947875977
 20
-10.06232070922852
 30
0.0
 40
20.0
100
AcDbArc
 50
111.6903405535533
 51
181.7825477785462
  0
ARC
  5
DA
330
4A
100
AcDbEntity
  8
0
  6
Continuous
 62
     0
100
AcDbCircle
 10
109.5129318237305
 20
12.23835754394531
 30
0.0
 40
4.0
100
AcDbArc
 50
291.6903423747862
 51
355.2363571341346
  0
ARC
  5
DB
330
4A
100
AcDbEntity
  8
0
  6
Continuous
 62
     0
100
AcDbCircle
 10
115.8497085571289
 20
23.40448188781738
 30
0.0
 40
5.0
100
AcDbArc
 50
278.7461640107499
 51
355.2363571341346
  0
ARC
  5
DC
330
4A
100
AcDbEntity
  8
0
  6
Continuous
 62
     0
100
AcDbCircle
 10
97.89301300048828
 20
-10.70000076293945
 30
0.0
 40
0.5
100
AcDbArc
 50
269.9999974955218
 51
1.782547145179865
  0
ARC
  5
DD
330
4A
100
AcDbEntity
  8
0
  6
Continuous
 62
     0
100
AcDbCircle
 10
-96.1134033203125
 20
-8.89999771118164
 30
0.0
 40
0.300000011920929
100
AcDbArc
 50
182.9877246396823
 51
270.000004325711
  0
ARC
  5
DE
330
4A
100
AcDbEntity
  8
0
  6
Continuous
 62
     0
100
AcDbCircle
 10
-118.3830871582031
 20
-10.06232070922852
 30
0.0
 40
20.0
100
AcDbArc
 50
358.2174479456216
 51
68.30965762521382
  0
ARC
  5
DF
330
4A
100
AcDbEntity
  8
0
  6
Continuous
 62
     0
100
AcDbCircle
 10
-109.5129241943359
 20
12.23835754394531
 30
0.0
 40
4.0
100
AcDbArc
 50
184.7636421257774
 51
248.3096594464466
  0
ARC
  5
E0
330
4A
100
AcDbEntity
  8
0
  6
Continuous
 62
     0
100
AcDbCircle
 10
-115.8497161865234
 20
23.40448188781738
 30
0.0
 40
5.0
100
AcDbArc
 50
184.7636421257774
 51
261.2538378104829
  0
ARC
  5
E1
330
4A
100
AcDbEntity
  8
0
  6
Continuous
 62
     0
100
AcDbCircle
 10
-97.89302062988281
 20
-10.70000076293945
 30
0.0
 40
0.5
100
AcDbArc
 50
178.2174485789881
 51
270.0000006832453
  0
ARC
  5
E2
330
4A
100
AcDbEntity
  8
0
  6
Continuous
 62
     0
100
AcDbCircle
 10
-115.8567352294922
 20
23.40556144714355
 30
0.0
 40
3.0
100
AcDbArc
 50
184.7636421257774
 51
261.2538378104829
  0
ARC
  5
E3
330
4A
100
AcDbEntity
  8
0
  6
Continuous
 62
     0
100
AcDbCircle
 10
-118.3830871582031
 20
-10.06232070922852
 30
0.0
 40
22.0
100
AcDbArc
 50
2.987720257128569
 51
68.30965762521382
  0
ARC
  5
E4
330
4A
100
AcDbEntity
  8
0
  6
Continuous
 62
     0
100
AcDbCircle
 10
-109.5129241943359
 20
12.23835754394531
 30
0.0
 40
2.0
100
AcDbArc
 50
184.7636421257774
 51
248.3096594464466
  0
ENDBLK
  5
4C
330
4A
100
AcDbEntity
  8
0
100
AcDbBlockEnd
  0
BLOCK
  5
4E
330
4D
100
AcDbEntity
  8
0
100
AcDbBlockBegin
  2
DTL0004
 70
     0
 10
0.0
 20
0.0
 30
0.0
  3
DTL0004
  1

  0
POINT
  5
E5
330
4D
100
AcDbEntity
  8
0
 62
     0
100
AcDbPoint
 10
-27.24508666992188
 20
37.79999923706055
 30
0.0
  0
POINT
  5
E6
330
4D
100
AcDbEntity
  8
0
 62
     0
100
AcDbPoint
 10
0.0
 20
0.0
 30
0.0
  0
LINE
  5
E7
330
4D
100
AcDbEntity
  8
0
  6
Continuous
 62
     0
100
AcDbLine
 10
2.0
 20
-7.200000762939453
 30
0.0
 11
-0.000000000000568
 21
-7.200000762939453
 31
0.0
  0
LINE
  5
E8
330
4D
100
AcDbEntity
  8
0
  6
Continuous
 62
     0
100
AcDbLine
 10
1.999998576323856
 20
-7.200001709599559
 30
0.0
 11
2.139852121579056
 21
-9.200000729033682
 31
0.0
  0
LINE
  5
E9
330
4D
100
AcDbEntity
  8
0
  6
Continuous
 62
     0
100
AcDbLine
 10
4.0
 20
0.0
 30
0.0
 11
-0.000000000000625
 21
0.0
 31
0.0
  0
LINE
  5
EA
330
4D
100
AcDbEntity
  8
0
  6
Continuous
 62
     0
100
AcDbLine
 10
4.0
 20
2.0
 30
0.0
 11
4.0
 21
0.000000000000085
 31
0.0
  0
LINE
  5
EB
330
4D
100
AcDbEntity
  8
0
  6
Continuous
 62
     0
100
AcDbLine
 10
4.0
 20
2.0
 30
0.0
 11
-2.109222412109375
 21
2.0
 31
0.0
  0
LINE
  5
EC
330
4D
100
AcDbEntity
  8
0
  6
Continuous
 62
     0
100
AcDbLine
 10
0.0
 20
0.000000000000057
 30
0.0
 11
0.0
 21
-7.200000762939453
 31
0.0
  0
LINE
  5
ED
330
4D
100
AcDbEntity
  8
0
  6
Continuous
 62
     0
100
AcDbLine
 10
-15.8174500460983
 20
20.75156711045449
 30
0.0
 11
-15.2080826079997
 21
13.43915829063564
 31
0.0
  0
LINE
  5
EE
330
4D
100
AcDbEntity
  8
0
  6
Continuous
 62
     0
100
AcDbLine
 10
-16.66193814741866
 20
21.65689279407085
 30
0.0
 11
-21.60387203814123
 21
22.41719034437699
 31
0.0
  0
LINE
  5
EF
330
4D
100
AcDbEntity
  8
0
  6
Continuous
 62
     0
100
AcDbLine
 10
-23.65481945588489
 20
37.80000213906951
 30
0.0
 11
-22.44836238246453
 21
23.32251812394156
 31
0.0
  0
LINE
  5
F0
330
4D
100
AcDbEntity
  8
0
  6
Continuous
 62
     0
100
AcDbLine
 10
-27.24508666992188
 20
37.79999923706055
 30
0.0
 11
37.97643280029297
 21
37.79999923706055
 31
0.0
  0
LINE
  5
F1
330
4D
100
AcDbEntity
  8
0
  6
Continuous
 62
     0
100
AcDbLine
 10
-27.24508666992188
 20
32.79999923706055
 30
0.0
 11
31.33844757080078
 21
32.79999923706055
 31
0.0
  0
LINE
  5
F2
330
4D
100
AcDbEntity
  8
0
  6
Continuous
 62
     0
100
AcDbLine
 10
-22.93877410888672
 20
20.79999923706055
 30
0.0
 11
38.39046478271484
 21
20.79999923706055
 31
0.0
  0
LINE
  5
F3
330
4D
100
AcDbEntity
  8
0
  6
Continuous
 62
     0
100
AcDbLine
 10
-17.74508666992188
 20
19.79999923706055
 30
0.0
 11
38.65842437744141
 21
19.79999923706055
 31
0.0
  0
LINE
  5
F4
330
4D
100
AcDbEntity
  8
0
  6
Continuous
 62
     0
100
AcDbLine
 10
-27.24508666992188
 20
32.79999923706055
 30
0.0
 11
-27.24508666992188
 21
37.79999923706055
 31
0.0
  0
LINE
  5
F5
330
4D
100
AcDbEntity
  8
0
  6
Continuous
 62
     0
100
AcDbLine
 10
48.10491679398353
 20
0.000002661397085
 30
0.0
 11
37.97643763147877
 21
37.80000118244762
 31
0.0
  0
LINE
  5
F6
330
4D
100
AcDbEntity
  8
0
  6
Continuous
 62
     0
100
AcDbLine
 10
-25.24508505821301
 20
32.80000049854453
 30
0.0
 11
-24.44145389813216
 21
23.15642715436848
 31
0.0
  0
LINE
  5
F7
330
4D
100
AcDbEntity
  8
0
  6
Continuous
 62
     0
100
AcDbLine
 10
-21.90798641784652
 20
20.44044695079844
 30
0.0
 11
-17.74507993187324
 21
19.79999977497102
 31
0.0
  0
LINE
  5
F8
330
4D
100
AcDbEntity
  8
0
  6
Continuous
 62
     0
100
AcDbLine
 10
-16.99508666992188
 20
10.80000114440918
 30
0.0
 11
41.06995391845703
 21
10.80000114440918
 31
0.0
  0
LINE
  5
F9
330
4D
100
AcDbEntity
  8
0
  6
Continuous
 62
     0
100
AcDbLine
 10
-17.74508618800806
 20
19.80000021900782
 30
0.0
 11
-17.10110843914935
 21
12.07226769490865
 31
0.0
  0
LINE
  5
FA
330
4D
100
AcDbEntity
  8
0
  6
Continuous
 62
     0
100
AcDbLine
 10
-1.708488464355469
 20
-9.200000762939453
 30
0.0
 11
39.10491180419922
 21
-9.200000762939453
 31
0.0
  0
LINE
  5
FB
330
4D
100
AcDbEntity
  8
0
  6
Continuous
 62
     0
100
AcDbLine
 10
48.10491180419922
 20
-11.20000076293945
 30
0.0
 11
48.10491180419922
 21
0.000000000000227
 31
0.0
  0
LINE
  5
FC
330
4D
100
AcDbEntity
  8
0
  6
Continuous
 62
     0
100
AcDbLine
 10
44.10491644884522
 20
-0.526606045142156
 30
0.0
 11
36.1680731484619
 21
29.09409615533573
 31
0.0
  0
LINE
  5
FD
330
4D
100
AcDbEntity
  8
0
  6
Continuous
 62
     0
100
AcDbLine
 10
44.10491180419922
 20
-11.20000076293945
 30
0.0
 11
44.10491180419922
 21
-0.526607513427734
 31
0.0
  0
LINE
  5
FE
330
4D
100
AcDbEntity
  8
0
  6
Continuous
 62
     0
100
AcDbLine
 10
44.10491180419922
 20
-11.20000076293945
 30
0.0
 11
48.10491180419922
 21
-11.20000076293945
 31
0.0
  0
LINE
  5
FF
330
4D
100
AcDbEntity
  8
0
  6
Continuous
 62
     0
100
AcDbLine
 10
39.10491228907379
 20
-9.199996406459277
 30
0.0
 11
44.10491002201416
 21
-11.19999546753736
 31
0.0
  0
LINE
  5
100
330
4D
100
AcDbEntity
  8
0
  6
Continuous
 62
     0
100
AcDbLine
 10
41.33791351318359
 20
9.80000114440918
 30
0.0
 11
45.47901153564453
 21
9.80000114440918
 31
0.0
  0
LINE
  5
101
330
4D
100
AcDbEntity
  8
0
  6
Continuous
 62
     0
100
AcDbLine
 10
38.92636871337891
 20
18.80000114440918
 30
0.0
 11
43.06746673583984
 21
18.80000114440918
 31
0.0
  0
ARC
  5
102
330
4D
100
AcDbEntity
  8
0
  6
Continuous
 62
     0
100
AcDbCircle
 10
-2.109222412109375
 20
4.0
 30
0.0
 40
2.0
100
AcDbArc
 50
212.7420913813872
 51
270.000004325711
  0
ARC
  5
103
330
4D
100
AcDbEntity
  8
0
  6
Continuous
 62
     0
100
AcDbCircle
 10
-16.81399536132812
 20
20.66852188110352
 30
0.0
 40
1.0
100
AcDbArc
 50
4.763644573412754
 51
81.25383598925012
  0
ARC
  5
104
330
4D
100
AcDbEntity
  8
0
  6
Continuous
 62
     0
100
AcDbCircle
 10
-21.45181274414062
 20
23.40556144714355
 30
0.0
 40
1.0
100
AcDbArc
 50
184.7636421257774
 51
261.2538378104829
  0
ARC
  5
105
330
4D
100
AcDbEntity
  8
0
  6
Continuous
 62
     0
100
AcDbCircle
 10
-23.97817993164062
 20
-10.06232070922852
 30
0.0
 40
24.0
100
AcDbArc
 50
32.74209639034356
 51
65.5456098417039
  0
ARC
  5
106
330
4D
100
AcDbEntity
  8
0
  6
Continuous
 62
     0
100
AcDbCircle
 10
-13.21498870849609
 20
13.60524940490723
 30
0.0
 40
2.0
100
AcDbArc
 50
184.7636421257774
 51
245.5456048327476
  0
ARC
  5
107
330
4D
100
AcDbEntity
  8
0
  6
Continuous
 62
     0
100
AcDbCircle
 10
-23.97817993164062
 20
-10.06232070922852
 30
0.0
 40
22.0
100
AcDbArc
 50
2.987720257128569
 51
68.30965762521382
  0
ARC
  5
108
330
4D
100
AcDbEntity
  8
0
  6
Continuous
 62
     0
100
AcDbCircle
 10
-1.708488464355469
 20
-8.89999771118164
 30
0.0
 40
0.300000011920929
100
AcDbArc
 50
182.9877246396823
 51
270.000004325711
  0
ARC
  5
109
330
4D
100
AcDbEntity
  8
0
  6
Continuous
 62
     0
100
AcDbCircle
 10
-15.10801696777344
 20
12.23835754394531
 30
0.0
 40
2.0
100
AcDbArc
 50
184.7636421257774
 51
248.3096594464466
  0
ARC
  5
10A
330
4D
100
AcDbEntity
  8
0
  6
Continuous
 62
     0
100
AcDbCircle
 10
-21.45181274414062
 20
23.40556144714355
 30
0.0
 40
3.0
100
AcDbArc
 50
184.7636421257774
 51
261.2538378104829
  0
ARC
  5
10B
330
4D
100
AcDbEntity
  8
0
  6
Continuous
 62
     0
100
AcDbCircle
 10
31.33844757080078
 20
27.80000114440918
 30
0.0
 40
5.0
100
AcDbArc
 50
15.00000212496032
 51
90.00000250447816
  0
ENDBLK
  5
4F
330
4D
100
AcDbEntity
  8
0
100
AcDbBlockEnd
  0
BLOCK
  5
51
330
50
100
AcDbEntity
  8
0
100
AcDbBlockBegin
  2
DTL0005
 70
     0
 10
0.0
 20
0.0
 30
0.0
  3
DTL0005
  1

  0
POINT
  5
10C
330
50
100
AcDbEntity
  8
0
 62
     0
100
AcDbPoint
 10
-0.000000000000625
 20
31.24508666992188
 30
0.0
  0
POINT
  5
10D
330
50
100
AcDbEntity
  8
0
 62
     0
100
AcDbPoint
 10
-0.000000000000625
 20
31.24508666992188
 30
0.0
  0
POINT
  5
10E
330
50
100
AcDbEntity
  8
0
 62
     0
100
AcDbPoint
 10
0.0
 20
0.0
 30
0.0
  0
LINE
  5
10F
330
50
100
AcDbEntity
  8
0
  6
Continuous
 62
     0
100
AcDbLine
 10
121.6500015258789
 20
8.0
 30
0.0
 11
121.6500015258789
 21
65.22151947021484
 31
0.0
  0
LINE
  5
110
330
50
100
AcDbEntity
  8
0
  6
Continuous
 62
     0
100
AcDbLine
 10
118.0597305297852
 20
7.590263366699219
 30
0.0
 11
118.0597305297852
 21
65.22151947021484
 31
0.0
  0
LINE
  5
111
330
50
100
AcDbEntity
  8
0
  6
Continuous
 62
     0
100
AcDbLine
 10
110.2878189086914
 20
15.3621826171875
 30
0.0
 11
110.2878189086914
 21
69.77666473388672
 31
0.0
  0
LINE
  5
112
330
50
100
AcDbEntity
  8
0
  6
Continuous
 62
     0
100
AcDbLine
 10
109.5129318237305
 20
16.13706970214844
 30
0.0
 11
109.5129318237305
 21
72.7240982055664
 31
0.0
  0
LINE
  5
113
330
50
100
AcDbEntity
  8
0
  6
Continuous
 62
     0
100
AcDbLine
 10
97.63459014892578
 20
28.01541137695312
 30
0.0
 11
97.63459014892578
 21
75.3499984741211
 31
0.0
  0
LINE
  5
114
330
50
100
AcDbEntity
  8
0
  6
Continuous
 62
     0
100
AcDbLine
 10
90.40491485595703
 20
37.24508666992188
 30
0.0
 11
90.40491485595703
 21
75.3499984741211
 31
0.0
  0
LINE
  5
115
330
50
100
AcDbEntity
  8
0
  6
Continuous
 62
     0
100
AcDbLine
 10
118.0597305297852
 20
65.22151947021484
 30
0.0
 11
121.6500015258789
 21
65.22151947021484
 31
0.0
  0
LINE
  5
116
330
50
100
AcDbEntity
  8
0
  6
Continuous
 62
     0
100
AcDbLine
 10
90.40491485595703
 20
75.3499984741211
 30
0.0
 11
99.98471069335938
 21
75.3499984741211
 31
0.0
  0
LINE
  5
117
330
50
100
AcDbEntity
  8
0
  6
Continuous
 62
     0
100
AcDbLine
 10
109.5129318237305
 20
72.7240982055664
 30
0.0
 11
111.8630523681641
 21
72.7240982055664
 31
0.0
  0
LINE
  5
118
330
50
100
AcDbEntity
  8
0
  6
Continuous
 62
     0
100
AcDbLine
 10
97.63459094890452
 20
75.35000085896125
 30
0.0
 11
109.5129267811504
 21
72.72410003886303
 31
0.0
  0
LINE
  5
119
330
50
100
AcDbEntity
  8
0
  6
Continuous
 62
     0
100
AcDbLine
 10
99.98471177032584
 20
75.35000978886515
 30
0.0
 11
111.8630550521068
 21
72.72410732192509
 31
0.0
  0
LINE
  5
11A
330
50
100
AcDbEntity
  8
0
  6
Continuous
 62
     0
100
AcDbLine
 10
110.2878189086914
 20
69.77666473388672
 30
0.0
 11
116.7878189086914
 21
69.77666473388672
 31
0.0
  0
LINE
  5
11B
330
50
100
AcDbEntity
  8
0
  6
Continuous
 62
     0
100
AcDbLine
 10
112.4970550537109
 20
70.31255340576172
 30
0.0
 11
120.2284469604492
 21
70.31255340576172
 31
0.0
  0
LINE
  5
11C
330
50
100
AcDbEntity
  8
0
  6
Continuous
 62
     0
100
AcDbLine
 10
109.5129343314416
 20
72.72410282797424
 30
0.0
 11
110.2878246889512
 21
69.77666166164612
 31
0.0
  0
LINE
  5
11D
330
50
100
AcDbEntity
  8
0
  6
Continuous
 62
     0
100
AcDbLine
 10
111.8630516359761
 20
72.7241000098017
 30
0.0
 11
112.4970531902784
 21
70.31255589577754
 31
0.0
  0
LINE
  5
11E
330
50
100
AcDbEntity
  8
0
  6
Continuous
 62
     0
100
AcDbLine
 10
116.7878212586894
 20
69.77665876684672
 30
0.0
 11
118.0597340494213
 21
65.22152411212596
 31
0.0
  0
LINE
  5
11F
330
50
100
AcDbEntity
  8
0
  6
Continuous
 62
     0
100
AcDbLine
 10
120.2284521533826
 20
70.31255715061445
 30
0.0
 11
121.6500015016313
 21
65.22152516572737
 31
0.0
  0
LINE
  5
120
330
50
100
AcDbEntity
  8
0
  6
Continuous
 62
     0
100
AcDbLine
 10
116.7878189086914
 20
8.8621826171875
 30
0.0
 11
116.7878189086914
 21
69.77666473388672
 31
0.0
  0
LINE
  5
121
330
50
100
AcDbEntity
  8
0
  6
Continuous
 62
     0
100
AcDbLine
 10
-121.6499938964844
 20
8.0
 30
0.0
 11
-121.6499938964844
 21
65.22151947021484
 31
0.0
  0
LINE
  5
122
330
50
100
AcDbEntity
  8
0
  6
Continuous
 62
     0
100
AcDbLine
 10
-118.0597381591797
 20
7.590263366699219
 30
0.0
 11
-118.0597381591797
 21
65.22151947021484
 31
0.0
  0
LINE
  5
123
330
50
100
AcDbEntity
  8
0
  6
Continuous
 62
     0
100
AcDbLine
 10
-110.2878265380859
 20
15.3621826171875
 30
0.0
 11
-110.2878265380859
 21
69.77666473388672
 31
0.0
  0
LINE
  5
124
330
50
100
AcDbEntity
  8
0
  6
Continuous
 62
     0
100
AcDbLine
 10
-109.5129241943359
 20
16.13706970214844
 30
0.0
 11
-109.5129241943359
 21
72.7240982055664
 31
0.0
  0
LINE
  5
125
330
50
100
AcDbEntity
  8
0
  6
Continuous
 62
     0
100
AcDbLine
 10
-97.63458251953125
 20
28.01541137695312
 30
0.0
 11
-97.63458251953125
 21
75.3499984741211
 31
0.0
  0
LINE
  5
126
330
50
100
AcDbEntity
  8
0
  6
Continuous
 62
     0
100
AcDbLine
 10
-90.40492248535156
 20
37.24508666992188
 30
0.0
 11
-90.40492248535156
 21
75.3499984741211
 31
0.0
  0
LINE
  5
127
330
50
100
AcDbEntity
  8
0
  6
Continuous
 62
     0
100
AcDbLine
 10
113.6500015258789
 20
0.0
 30
0.0
 11
-113.6499938964844
 21
0.0
 31
0.0
  0
LINE
  5
128
330
50
100
AcDbEntity
  8
0
  6
Continuous
 62
     0
100
AcDbLine
 10
114.0597305297852
 20
3.590263366699219
 30
0.0
 11
-114.0597381591797
 21
3.590263366699219
 31
0.0
  0
LINE
  5
129
330
50
100
AcDbEntity
  8
0
  6
Continuous
 62
     0
100
AcDbLine
 10
112.7878189086914
 20
4.8621826171875
 30
0.0
 11
-112.7878265380859
 21
4.8621826171875
 31
0.0
  0
LINE
  5
12A
330
50
100
AcDbEntity
  8
0
  6
Continuous
 62
     0
100
AcDbLine
 10
106.2878189086914
 20
11.3621826171875
 30
0.0
 11
-106.2878265380859
 21
11.3621826171875
 31
0.0
  0
LINE
  5
12B
330
50
100
AcDbEntity
  8
0
  6
Continuous
 62
     0
100
AcDbLine
 10
105.5129318237305
 20
12.13706970214844
 30
0.0
 11
-105.5129241943359
 21
12.13706970214844
 31
0.0
  0
LINE
  5
12C
330
50
100
AcDbEntity
  8
0
  6
Continuous
 62
     0
100
AcDbLine
 10
93.63459014892578
 20
24.01541137695312
 30
0.0
 11
-93.63458251953125
 21
24.01541137695312
 31
0.0
  0
LINE
  5
12D
330
50
100
AcDbEntity
  8
0
  6
Continuous
 62
     0
100
AcDbLine
 10
84.40491485595703
 20
31.24508666992188
 30
0.0
 11
-84.40492248535156
 21
31.24508666992188
 31
0.0
  0
LINE
  5
12E
330
50
100
AcDbEntity
  8
0
  6
Continuous
 62
     0
100
AcDbLine
 10
-118.0597381591797
 20
65.22151947021484
 30
0.0
 11
-121.6499938964844
 21
65.22151947021484
 31
0.0
  0
LINE
  5
12F
330
50
100
AcDbEntity
  8
0
  6
Continuous
 62
     0
100
AcDbLine
 10
-90.40492248535156
 20
75.3499984741211
 30
0.0
 11
-99.98471069335938
 21
75.3499984741211
 31
0.0
  0
LINE
  5
130
330
50
100
AcDbEntity
  8
0
  6
Continuous
 62
     0
100
AcDbLine
 10
-109.5129241943359
 20
72.7240982055664
 30
0.0
 11
-111.8630523681641
 21
72.7240982055664
 31
0.0
  0
LINE
  5
131
330
50
100
AcDbEntity
  8
0
  6
Continuous
 62
     0
100
AcDbLine
 10
-97.63459094890452
 20
75.35000085896125
 30
0.0
 11
-109.5129342306855
 21
72.7240983920212
 31
0.0
  0
LINE
  5
132
330
50
100
AcDbEntity
  8
0
  6
Continuous
 62
     0
100
AcDbLine
 10
-99.98471592617727
 20
75.34999324295318
 30
0.0
 11
-111.8630592079582
 21
72.72409077601313
 31
0.0
  0
LINE
  5
133
330
50
100
AcDbEntity
  8
0
  6
Continuous
 62
     0
100
AcDbLine
 10
-110.2878265380859
 20
69.77666473388672
 30
0.0
 11
-116.7878265380859
 21
69.77666473388672
 31
0.0
  0
LINE
  5
134
330
50
100
AcDbEntity
  8
0
  6
Continuous
 62
     0
100
AcDbLine
 10
-112.4970550537109
 20
70.31255340576172
 30
0.0
 11
-120.2284545898438
 21
70.31255340576172
 31
0.0
  0
LINE
  5
135
330
50
100
AcDbEntity
  8
0
  6
Continuous
 62
     0
100
AcDbLine
 10
-109.5129353013761
 20
72.72409913864607
 30
0.0
 11
-110.2878256588857
 21
69.77665797231795
 31
0.0
  0
LINE
  5
136
330
50
100
AcDbEntity
  8
0
  6
Continuous
 62
     0
100
AcDbLine
 10
-111.863058044698
 20
72.72410563899882
 30
0.0
 11
-112.4970595990002
 21
70.31256152497467
 31
0.0
  0
LINE
  5
137
330
50
100
AcDbEntity
  8
0
  6
Continuous
 62
     0
100
AcDbLine
 10
-116.7878222846092
 20
69.77665509269323
 30
0.0
 11
-118.0597350753411
 21
65.22152043797249
 31
0.0
  0
LINE
  5
138
330
50
100
AcDbEntity
  8
0
  6
Continuous
 62
     0
100
AcDbLine
 10
-120.2284511274628
 20
70.31256082476793
 30
0.0
 11
-121.6500025275511
 21
65.2215214915739
 31
0.0
  0
LINE
  5
139
330
50
100
AcDbEntity
  8
0
  6
Continuous
 62
     0
100
AcDbLine
 10
-116.7878265380859
 20
8.8621826171875
 30
0.0
 11
-116.7878265380859
 21
69.77666473388672
 31
0.0
  0
LINE
  5
13A
330
50
100
AcDbEntity
  8
0
  6
Continuous
 62
     0
100
AcDbLine
 10
121.6500015258789
 20
8.0
 30
0.0
 11
121.6500015258789
 21
65.22151947021484
 31
0.0
  0
LINE
  5
13B
330
50
100
AcDbEntity
  8
0
  6
Continuous
 62
     0
100
AcDbLine
 10
118.0597305297852
 20
7.590263366699219
 30
0.0
 11
118.0597305297852
 21
65.22151947021484
 31
0.0
  0
LINE
  5
13C
330
50
100
AcDbEntity
  8
0
  6
Continuous
 62
     0
100
AcDbLine
 10
110.2878189086914
 20
15.3621826171875
 30
0.0
 11
110.2878189086914
 21
69.77666473388672
 31
0.0
  0
LINE
  5
13D
330
50
100
AcDbEntity
  8
0
  6
Continuous
 62
     0
100
AcDbLine
 10
109.5129318237305
 20
16.13706970214844
 30
0.0
 11
109.5129318237305
 21
72.7240982055664
 31
0.0
  0
LINE
  5
13E
330
50
100
AcDbEntity
  8
0
  6
Continuous
 62
     0
100
AcDbLine
 10
97.63459014892578
 20
28.01541137695312
 30
0.0
 11
97.63459014892578
 21
75.3499984741211
 31
0.0
  0
LINE
  5
13F
330
50
100
AcDbEntity
  8
0
  6
Continuous
 62
     0
100
AcDbLine
 10
90.40491485595703
 20
37.24508666992188
 30
0.0
 11
90.40491485595703
 21
75.3499984741211
 31
0.0
  0
LINE
  5
140
330
50
100
AcDbEntity
  8
0
  6
Continuous
 62
     0
100
AcDbLine
 10
118.0597305297852
 20
65.22151947021484
 30
0.0
 11
121.6500015258789
 21
65.22151947021484
 31
0.0
  0
LINE
  5
141
330
50
100
AcDbEntity
  8
0
  6
Continuous
 62
     0
100
AcDbLine
 10
90.40491485595703
 20
75.3499984741211
 30
0.0
 11
99.98471069335938
 21
75.3499984741211
 31
0.0
  0
LINE
  5
142
330
50
100
AcDbEntity
  8
0
  6
Continuous
 62
     0
100
AcDbLine
 10
109.5129318237305
 20
72.7240982055664
 30
0.0
 11
111.8630523681641
 21
72.7240982055664
 31
0.0
  0
LINE
  5
143
330
50
100
AcDbEntity
  8
0
  6
Continuous
 62
     0
100
AcDbLine
 10
97.63459094890452
 20
75.35000085896125
 30
0.0
 11
109.5129267811504
 21
72.72410003886303
 31
0.0
  0
LINE
  5
144
330
50
100
AcDbEntity
  8
0
  6
Continuous
 62
     0
100
AcDbLine
 10
99.98471177032584
 20
75.35000978886515
 30
0.0
 11
111.8630550521068
 21
72.72410732192509
 31
0.0
  0
LINE
  5
145
330
50
100
AcDbEntity
  8
0
  6
Continuous
 62
     0
100
AcDbLine
 10
110.2878189086914
 20
69.77666473388672
 30
0.0
 11
116.7878189086914
 21
69.77666473388672
 31
0.0
  0
LINE
  5
146
330
50
100
AcDbEntity
  8
0
  6
Continuous
 62
     0
100
AcDbLine
 10
112.4970550537109
 20
70.31255340576172
 30
0.0
 11
120.2284469604492
 21
70.31255340576172
 31
0.0
  0
LINE
  5
147
330
50
100
AcDbEntity
  8
0
  6
Continuous
 62
     0
100
AcDbLine
 10
109.5129343314416
 20
72.72410282797424
 30
0.0
 11
110.2878246889512
 21
69.77666166164612
 31
0.0
  0
LINE
  5
148
330
50
100
AcDbEntity
  8
0
  6
Continuous
 62
     0
100
AcDbLine
 10
111.8630516359761
 20
72.7241000098017
 30
0.0
 11
112.4970531902784
 21
70.31255589577754
 31
0.0
  0
LINE
  5
149
330
50
100
AcDbEntity
  8
0
  6
Continuous
 62
     0
100
AcDbLine
 10
116.7878212586894
 20
69.77665876684672
 30
0.0
 11
118.0597340494213
 21
65.22152411212596
 31
0.0
  0
LINE
  5
14A
330
50
100
AcDbEntity
  8
0
  6
Continuous
 62
     0
100
AcDbLine
 10
120.2284521533826
 20
70.31255715061445
 30
0.0
 11
121.6500015016313
 21
65.22152516572737
 31
0.0
  0
LINE
  5
14B
330
50
100
AcDbEntity
  8
0
  6
Continuous
 62
     0
100
AcDbLine
 10
116.7878189086914
 20
8.8621826171875
 30
0.0
 11
116.7878189086914
 21
69.77666473388672
 31
0.0
  0
LINE
  5
14C
330
50
100
AcDbEntity
  8
0
  6
Continuous
 62
     0
100
AcDbLine
 10
-121.6499938964844
 20
8.0
 30
0.0
 11
-121.6499938964844
 21
65.22151947021484
 31
0.0
  0
LINE
  5
14D
330
50
100
AcDbEntity
  8
0
  6
Continuous
 62
     0
100
AcDbLine
 10
-118.0597381591797
 20
7.590263366699219
 30
0.0
 11
-118.0597381591797
 21
65.22151947021484
 31
0.0
  0
LINE
  5
14E
330
50
100
AcDbEntity
  8
0
  6
Continuous
 62
     0
100
AcDbLine
 10
-110.2878265380859
 20
15.3621826171875
 30
0.0
 11
-110.2878265380859
 21
69.77666473388672
 31
0.0
  0
LINE
  5
14F
330
50
100
AcDbEntity
  8
0
  6
Continuous
 62
     0
100
AcDbLine
 10
-109.5129241943359
 20
16.13706970214844
 30
0.0
 11
-109.5129241943359
 21
72.7240982055664
 31
0.0
  0
LINE
  5
150
330
50
100
AcDbEntity
  8
0
  6
Continuous
 62
     0
100
AcDbLine
 10
-97.63458251953125
 20
28.01541137695312
 30
0.0
 11
-97.63458251953125
 21
75.3499984741211
 31
0.0
  0
LINE
  5
151
330
50
100
AcDbEntity
  8
0
  6
Continuous
 62
     0
100
AcDbLine
 10
-90.40492248535156
 20
37.24508666992188
 30
0.0
 11
-90.40492248535156
 21
75.3499984741211
 31
0.0
  0
LINE
  5
152
330
50
100
AcDbEntity
  8
0
  6
Continuous
 62
     0
100
AcDbLine
 10
113.6500015258789
 20
0.0
 30
0.0
 11
-113.6499938964844
 21
0.0
 31
0.0
  0
LINE
  5
153
330
50
100
AcDbEntity
  8
0
  6
Continuous
 62
     0
100
AcDbLine
 10
114.0597305297852
 20
3.590263366699219
 30
0.0
 11
-114.0597381591797
 21
3.590263366699219
 31
0.0
  0
LINE
  5
154
330
50
100
AcDbEntity
  8
0
  6
Continuous
 62
     0
100
AcDbLine
 10
112.7878189086914
 20
4.8621826171875
 30
0.0
 11
-112.7878265380859
 21
4.8621826171875
 31
0.0
  0
LINE
  5
155
330
50
100
AcDbEntity
  8
0
  6
Continuous
 62
     0
100
AcDbLine
 10
106.2878189086914
 20
11.3621826171875
 30
0.0
 11
-106.2878265380859
 21
11.3621826171875
 31
0.0
  0
LINE
  5
156
330
50
100
AcDbEntity
  8
0
  6
Continuous
 62
     0
100
AcDbLine
 10
105.5129318237305
 20
12.13706970214844
 30
0.0
 11
-105.5129241943359
 21
12.13706970214844
 31
0.0
  0
LINE
  5
157
330
50
100
AcDbEntity
  8
0
  6
Continuous
 62
     0
100
AcDbLine
 10
93.63459014892578
 20
24.01541137695312
 30
0.0
 11
-93.63458251953125
 21
24.01541137695312
 31
0.0
  0
LINE
  5
158
330
50
100
AcDbEntity
  8
0
  6
Continuous
 62
     0
100
AcDbLine
 10
84.40491485595703
 20
31.24508666992188
 30
0.0
 11
-84.40492248535156
 21
31.24508666992188
 31
0.0
  0
LINE
  5
159
330
50
100
AcDbEntity
  8
0
  6
Continuous
 62
     0
100
AcDbLine
 10
-118.0597381591797
 20
65.22151947021484
 30
0.0
 11
-121.6499938964844
 21
65.22151947021484
 31
0.0
  0
LINE
  5
15A
330
50
100
AcDbEntity
  8
0
  6
Continuous
 62
     0
100
AcDbLine
 10
-90.40492248535156
 20
75.3499984741211
 30
0.0
 11
-99.98471069335938
 21
75.3499984741211
 31
0.0
  0
LINE
  5
15B
330
50
100
AcDbEntity
  8
0
  6
Continuous
 62
     0
100
AcDbLine
 10
-109.5129241943359
 20
72.7240982055664
 30
0.0
 11
-111.8630523681641
 21
72.7240982055664
 31
0.0
  0
LINE
  5
15C
330
50
100
AcDbEntity
  8
0
  6
Continuous
 62
     0
100
AcDbLine
 10
-97.63459094890452
 20
75.35000085896125
 30
0.0
 11
-109.5129342306855
 21
72.7240983920212
 31
0.0
  0
LINE
  5
15D
330
50
100
AcDbEntity
  8
0
  6
Continuous
 62
     0
100
AcDbLine
 10
-99.98471592617727
 20
75.34999324295318
 30
0.0
 11
-111.8630592079582
 21
72.72409077601313
 31
0.0
  0
LINE
  5
15E
330
50
100
AcDbEntity
  8
0
  6
Continuous
 62
     0
100
AcDbLine
 10
-110.2878265380859
 20
69.77666473388672
 30
0.0
 11
-116.7878265380859
 21
69.77666473388672
 31
0.0
  0
LINE
  5
15F
330
50
100
AcDbEntity
  8
0
  6
Continuous
 62
     0
100
AcDbLine
 10
-112.4970550537109
 20
70.31255340576172
 30
0.0
 11
-120.2284545898438
 21
70.31255340576172
 31
0.0
  0
LINE
  5
160
330
50
100
AcDbEntity
  8
0
  6
Continuous
 62
     0
100
AcDbLine
 10
-109.5129353013761
 20
72.72409913864607
 30
0.0
 11
-110.2878256588857
 21
69.77665797231795
 31
0.0
  0
LINE
  5
161
330
50
100
AcDbEntity
  8
0
  6
Continuous
 62
     0
100
AcDbLine
 10
-111.863058044698
 20
72.72410563899882
 30
0.0
 11
-112.4970595990002
 21
70.31256152497467
 31
0.0
  0
LINE
  5
162
330
50
100
AcDbEntity
  8
0
  6
Continuous
 62
     0
100
AcDbLine
 10
-116.7878222846092
 20
69.77665509269323
 30
0.0
 11
-118.0597350753411
 21
65.22152043797249
 31
0.0
  0
LINE
  5
163
330
50
100
AcDbEntity
  8
0
  6
Continuous
 62
     0
100
AcDbLine
 10
-120.2284511274628
 20
70.31256082476793
 30
0.0
 11
-121.6500025275511
 21
65.2215214915739
 31
0.0
  0
LINE
  5
164
330
50
100
AcDbEntity
  8
0
  6
Continuous
 62
     0
100
AcDbLine
 10
-116.7878265380859
 20
8.8621826171875
 30
0.0
 11
-116.7878265380859
 21
69.77666473388672
 31
0.0
  0
ARC
  5
165
330
50
100
AcDbEntity
  8
0
  6
Continuous
 62
     0
100
AcDbCircle
 10
84.40491485595703
 20
37.24508666992188
 30
0.0
 40
6.0
100
AcDbArc
 50
269.9999974955218
 51
359.9999974955223
  0
ARC
  5
166
330
50
100
AcDbEntity
  8
0
  6
Continuous
 62
     0
100
AcDbCircle
 10
93.63459014892578
 20
28.01541137695312
 30
0.0
 40
4.0
100
AcDbArc
 50
269.9999974955218
 51
359.9999974955223
  0
ARC
  5
167
330
50
100
AcDbEntity
  8
0
  6
Continuous
 62
     0
100
AcDbCircle
 10
105.5129318237305
 20
16.13706970214844
 30
0.0
 40
4.0
100
AcDbArc
 50
269.9999974955218
 51
359.9999974955223
  0
ARC
  5
168
330
50
100
AcDbEntity
  8
0
  6
Continuous
 62
     0
100
AcDbCircle
 10
106.2878189086914
 20
15.3621826171875
 30
0.0
 40
4.0
100
AcDbArc
 50
269.9999974955218
 51
359.9999974955223
  0
ARC
  5
169
330
50
100
AcDbEntity
  8
0
  6
Continuous
 62
     0
100
AcDbCircle
 10
112.7878189086914
 20
8.8621826171875
 30
0.0
 40
4.0
100
AcDbArc
 50
269.9999974955218
 51
359.9999974955223
  0
ARC
  5
16A
330
50
100
AcDbEntity
  8
0
  6
Continuous
 62
     0
100
AcDbCircle
 10
114.0597305297852
 20
7.590263366699219
 30
0.0
 40
4.0
100
AcDbArc
 50
269.9999974955218
 51
359.9999974955223
  0
ARC
  5
16B
330
50
100
AcDbEntity
  8
0
  6
Continuous
 62
     0
100
AcDbCircle
 10
113.6500015258789
 20
8.0
 30
0.0
 40
8.0
100
AcDbArc
 50
269.9999974955218
 51
359.9999974955223
  0
ARC
  5
16C
330
50
100
AcDbEntity
  8
0
  6
Continuous
 62
     0
100
AcDbCircle
 10
-84.40492248535156
 20
37.24508666992188
 30
0.0
 40
6.0
100
AcDbArc
 50
180.000008651422
 51
270.000004325711
  0
ARC
  5
16D
330
50
100
AcDbEntity
  8
0
  6
Continuous
 62
     0
100
AcDbCircle
 10
-93.63458251953125
 20
28.01541137695312
 30
0.0
 40
4.0
100
AcDbArc
 50
180.000008651422
 51
270.000004325711
  0
ARC
  5
16E
330
50
100
AcDbEntity
  8
0
  6
Continuous
 62
     0
100
AcDbCircle
 10
-105.5129241943359
 20
16.13706970214844
 30
0.0
 40
4.0
100
AcDbArc
 50
180.000008651422
 51
270.000004325711
  0
ARC
  5
16F
330
50
100
AcDbEntity
  8
0
  6
Continuous
 62
     0
100
AcDbCircle
 10
-106.2878265380859
 20
15.3621826171875
 30
0.0
 40
4.0
100
AcDbArc
 50
180.000008651422
 51
270.000004325711
  0
ARC
  5
170
330
50
100
AcDbEntity
  8
0
  6
Continuous
 62
     0
100
AcDbCircle
 10
-112.7878265380859
 20
8.8621826171875
 30
0.0
 40
4.0
100
AcDbArc
 50
180.000008651422
 51
270.000004325711
  0
ARC
  5
171
330
50
100
AcDbEntity
  8
0
  6
Continuous
 62
     0
100
AcDbCircle
 10
-114.0597381591797
 20
7.590263366699219
 30
0.0
 40
4.0
100
AcDbArc
 50
180.000008651422
 51
270.000004325711
  0
ARC
  5
172
330
50
100
AcDbEntity
  8
0
  6
Continuous
 62
     0
100
AcDbCircle
 10
-113.6499938964844
 20
8.0
 30
0.0
 40
8.0
100
AcDbArc
 50
180.000008651422
 51
270.000004325711
  0
ARC
  5
173
330
50
100
AcDbEntity
  8
0
  6
Continuous
 62
     0
100
AcDbCircle
 10
84.40491485595703
 20
37.24508666992188
 30
0.0
 40
6.0
100
AcDbArc
 50
269.9999974955218
 51
359.9999974955223
  0
ARC
  5
174
330
50
100
AcDbEntity
  8
0
  6
Continuous
 62
     0
100
AcDbCircle
 10
93.63459014892578
 20
28.01541137695312
 30
0.0
 40
4.0
100
AcDbArc
 50
269.9999974955218
 51
359.9999974955223
  0
ARC
  5
175
330
50
100
AcDbEntity
  8
0
  6
Continuous
 62
     0
100
AcDbCircle
 10
105.5129318237305
 20
16.13706970214844
 30
0.0
 40
4.0
100
AcDbArc
 50
269.9999974955218
 51
359.9999974955223
  0
ARC
  5
176
330
50
100
AcDbEntity
  8
0
  6
Continuous
 62
     0
100
AcDbCircle
 10
106.2878189086914
 20
15.3621826171875
 30
0.0
 40
4.0
100
AcDbArc
 50
269.9999974955218
 51
359.9999974955223
  0
ARC
  5
177
330
50
100
AcDbEntity
  8
0
  6
Continuous
 62
     0
100
AcDbCircle
 10
112.7878189086914
 20
8.8621826171875
 30
0.0
 40
4.0
100
AcDbArc
 50
269.9999974955218
 51
359.9999974955223
  0
ARC
  5
178
330
50
100
AcDbEntity
  8
0
  6
Continuous
 62
     0
100
AcDbCircle
 10
114.0597305297852
 20
7.590263366699219
 30
0.0
 40
4.0
100
AcDbArc
 50
269.9999974955218
 51
359.9999974955223
  0
ARC
  5
179
330
50
100
AcDbEntity
  8
0
  6
Continuous
 62
     0
100
AcDbCircle
 10
113.6500015258789
 20
8.0
 30
0.0
 40
8.0
100
AcDbArc
 50
269.9999974955218
 51
359.9999974955223
  0
ARC
  5
17A
330
50
100
AcDbEntity
  8
0
  6
Continuous
 62
     0
100
AcDbCircle
 10
-84.40492248535156
 20
37.24508666992188
 30
0.0
 40
6.0
100
AcDbArc
 50
180.000008651422
 51
270.000004325711
  0
ARC
  5
17B
330
50
100
AcDbEntity
  8
0
  6
Continuous
 62
     0
100
AcDbCircle
 10
-93.63458251953125
 20
28.01541137695312
 30
0.0
 40
4.0
100
AcDbArc
 50
180.000008651422
 51
270.000004325711
  0
ARC
  5
17C
330
50
100
AcDbEntity
  8
0
  6
Continuous
 62
     0
100
AcDbCircle
 10
-105.5129241943359
 20
16.13706970214844
 30
0.0
 40
4.0
100
AcDbArc
 50
180.000008651422
 51
270.000004325711
  0
ARC
  5
17D
330
50
100
AcDbEntity
  8
0
  6
Continuous
 62
     0
100
AcDbCircle
 10
-106.2878265380859
 20
15.3621826171875
 30
0.0
 40
4.0
100
AcDbArc
 50
180.000008651422
 51
270.000004325711
  0
ARC
  5
17E
330
50
100
AcDbEntity
  8
0
  6
Continuous
 62
     0
100
AcDbCircle
 10
-112.7878265380859
 20
8.8621826171875
 30
0.0
 40
4.0
100
AcDbArc
 50
180.000008651422
 51
270.000004325711
  0
ARC
  5
17F
330
50
100
AcDbEntity
  8
0
  6
Continuous
 62
     0
100
AcDbCircle
 10
-114.0597381591797
 20
7.590263366699219
 30
0.0
 40
4.0
100
AcDbArc
 50
180.000008651422
 51
270.000004325711
  0
ARC
  5
180
330
50
100
AcDbEntity
  8
0
  6
Continuous
 62
     0
100
AcDbCircle
 10
-113.6499938964844
 20
8.0
 30
0.0
 40
8.0
100
AcDbArc
 50
180.000008651422
 51
270.000004325711
  0
ENDBLK
  5
52
330
50
100
AcDbEntity
  8
0
100
AcDbBlockEnd
  0
BLOCK
  5
54
330
53
100
AcDbEntity
  8
0
100
AcDbBlockBegin
  2
DTL0006
 70
     0
 10
0.0
 20
0.0
 30
0.0
  3
DTL0006
  1

  0
POINT
  5
181
330
53
100
AcDbEntity
  8
0
 62
     0
100
AcDbPoint
 10
0.0
 20
0.0
 30
0.0
  0
LINE
  5
182
330
53
100
AcDbEntity
  8
0
  6
Continuous
 62
     0
100
AcDbLine
 10
37.25
 20
-28.0
 30
0.0
 11
-37.25
 21
-28.0
 31
0.0
  0
LINE
  5
183
330
53
100
AcDbEntity
  8
0
  6
CENTER
 62
     0
100
AcDbLine
 10
0.0
 20
1.500263214111328
 30
0.0
 11
0.0
 21
-29.18556976318359
 31
0.0
  0
LINE
  5
184
330
53
100
AcDbEntity
  8
0
  6
Continuous
 62
     0
100
AcDbLine
 10
50.79999923706055
 20
0.0
 30
0.0
 11
-50.79999923706055
 21
0.0
 31
0.0
  0
LINE
  5
185
330
53
100
AcDbEntity
  8
0
  6
Continuous
 62
     0
100
AcDbLine
 10
-50.79999923706055
 20
0.0
 30
0.0
 11
-50.79999923706055
 21
-12.0
 31
0.0
  0
LINE
  5
186
330
53
100
AcDbEntity
  8
0
  6
Continuous
 62
     0
100
AcDbLine
 10
50.79999923706055
 20
0.0
 30
0.0
 11
50.79999923706055
 21
-12.0
 31
0.0
  0
LINE
  5
187
330
53
100
AcDbEntity
  8
0
  6
Continuous
 62
     0
100
AcDbLine
 10
45.70000076293945
 20
-17.0
 30
0.0
 11
40.20000076293945
 21
-17.0
 31
0.0
  0
LINE
  5
188
330
53
100
AcDbEntity
  8
0
  6
Continuous
 62
     0
100
AcDbLine
 10
-50.79999935527734
 20
-11.99999779386618
 30
0.0
 11
-45.6999997392353
 21
-16.99999740908967
 31
0.0
  0
LINE
  5
189
330
53
100
AcDbEntity
  8
0
  6
Continuous
 62
     0
100
AcDbLine
 10
50.79999799329148
 20
-11.99999912914643
 30
0.0
 11
45.69999837724944
 21
-16.99999874436992
 31
0.0
  0
LINE
  5
18A
330
53
100
AcDbEntity
  8
0
  6
Continuous
 62
     0
100
AcDbLine
 10
40.20000076293945
 20
-17.0
 30
0.0
 11
40.20000076293945
 21
-20.75
 31
0.0
  0
LINE
  5
18B
330
53
100
AcDbEntity
  8
0
  6
Continuous
 62
     0
100
AcDbLine
 10
-40.20000076293945
 20
-17.0
 30
0.0
 11
-40.20000076293945
 21
-20.75
 31
0.0
  0
LINE
  5
18C
330
53
100
AcDbEntity
  8
0
  6
Continuous
 62
     0
100
AcDbLine
 10
-40.20000076293945
 20
-17.0
 30
0.0
 11
-45.70000076293945
 21
-17.0
 31
0.0
  0
LINE
  5
18D
330
53
100
AcDbEntity
  8
0
  6
Continuous
 62
     0
100
AcDbLine
 10
42.84999847412109
 20
-20.75
 30
0.0
 11
-42.84999847412109
 21
-20.75
 31
0.0
  0
LINE
  5
18E
330
53
100
AcDbEntity
  8
0
  6
Continuous
 62
     0
100
AcDbLine
 10
-42.84999847412109
 20
-20.75
 30
0.0
 11
-42.84999847412109
 21
-21.75
 31
0.0
  0
LINE
  5
18F
330
53
100
AcDbEntity
  8
0
  6
Continuous
 62
     0
100
AcDbLine
 10
42.84999847412109
 20
-20.75
 30
0.0
 11
42.84999847412109
 21
-21.75
 31
0.0
  0
LINE
  5
190
330
53
100
AcDbEntity
  8
0
  6
Continuous
 62
     0
100
AcDbLine
 10
41.69529724121094
 20
-23.75
 30
0.0
 11
-41.6953010559082
 21
-23.75
 31
0.0
  0
LINE
  5
191
330
53
100
AcDbEntity
  8
0
  6
Continuous
 62
     0
100
AcDbLine
 10
-37.40000177113069
 20
-23.75000340611282
 30
0.0
 11
-37.25000173060027
 21
-28.00000457031701
 31
0.0
  0
LINE
  5
192
330
53
100
AcDbEntity
  8
0
  6
Continuous
 62
     0
100
AcDbLine
 10
37.40000190568329
 20
-23.74999959378927
 30
0.0
 11
37.25000186515287
 21
-28.00000075799347
 31
0.0
  0
LINE
  5
193
330
53
100
AcDbEntity
  8
0
  6
DASHED
 62
     0
100
AcDbLine
 10
-48.54999923706055
 20
0.0
 30
0.0
 11
-48.54999923706055
 21
-3.200000762939453
 31
0.0
  0
LINE
  5
194
330
53
100
AcDbEntity
  8
0
  6
DASHED
 62
     0
100
AcDbLine
 10
-45.54999923706055
 20
-5.400001525878906
 30
0.0
 11
-45.54999923706055
 21
-6.400001525878906
 31
0.0
  0
LINE
  5
195
330
53
100
AcDbEntity
  8
0
  6
DASHED
 62
     0
100
AcDbLine
 10
-47.75
 20
-3.200000762939453
 30
0.0
 11
-48.54999923706055
 21
-3.200000762939453
 31
0.0
  0
LINE
  5
196
330
53
100
AcDbEntity
  8
0
  6
DASHED
 62
     0
100
AcDbLine
 10
-45.54999923706055
 20
-6.400001525878906
 30
0.0
 11
-46.75
 21
-6.400001525878906
 31
0.0
  0
LINE
  5
197
330
53
100
AcDbEntity
  8
0
  6
DASHED
 62
     0
100
AcDbLine
 10
-47.75000160623735
 20
-3.200000484713993
 30
0.0
 11
-45.550000851528
 21
-5.40000123942335
 31
0.0
  0
LINE
  5
198
330
53
100
AcDbEntity
  8
0
  6
DASHED
 62
     0
100
AcDbLine
 10
-46.75
 20
-6.400001525878906
 30
0.0
 11
-46.75
 21
-13.16975402832031
 31
0.0
  0
LINE
  5
199
330
53
100
AcDbEntity
  8
0
  6
DASHED
 62
     0
100
AcDbLine
 10
-46.74999864770957
 20
-13.16975199919653
 30
0.0
 11
-44.88314779058901
 21
-14.99999793449456
 31
0.0
  0
LINE
  5
19A
330
53
100
AcDbEntity
  8
0
  6
DASHED
 62
     0
100
AcDbLine
 10
-38.20000076293945
 20
-15.0
 30
0.0
 11
-44.88314819335938
 21
-15.0
 31
0.0
  0
LINE
  5
19B
330
53
100
AcDbEntity
  8
0
  6
DASHED
 62
     0
100
AcDbLine
 10
-38.20000076293945
 20
-15.0
 30
0.0
 11
-38.20000076293945
 21
-21.75
 31
0.0
  0
LINE
  5
19C
330
53
100
AcDbEntity
  8
0
  6
DASHED
 62
     0
100
AcDbLine
 10
-35.46934127807617
 20
-21.75
 30
0.0
 11
-38.20000076293945
 21
-21.75
 31
0.0
  0
LINE
  5
19D
330
53
100
AcDbEntity
  8
0
  6
DASHED
 62
     0
100
AcDbLine
 10
-35.46934469728516
 20
-21.75000402463748
 30
0.0
 11
-35.25124624275908
 21
-27.9294602592444
 31
0.0
  0
LINE
  5
19E
330
53
100
AcDbEntity
  8
0
  6
DASHED
 62
     0
100
AcDbLine
 10
35.46934483183776
 20
-21.75000021231393
 30
0.0
 11
35.25124637731167
 21
-27.92945644692086
 31
0.0
  0
LINE
  5
19F
330
53
100
AcDbEntity
  8
0
  6
DASHED
 62
     0
100
AcDbLine
 10
48.54999923706055
 20
0.0
 30
0.0
 11
48.54999923706055
 21
-3.200000762939453
 31
0.0
  0
LINE
  5
1A0
330
53
100
AcDbEntity
  8
0
  6
DASHED
 62
     0
100
AcDbLine
 10
45.54999923706055
 20
-5.400001525878906
 30
0.0
 11
45.54999923706055
 21
-6.400001525878906
 31
0.0
  0
LINE
  5
1A1
330
53
100
AcDbEntity
  8
0
  6
DASHED
 62
     0
100
AcDbLine
 10
47.75
 20
-3.200000762939453
 30
0.0
 11
48.54999923706055
 21
-3.200000762939453
 31
0.0
  0
LINE
  5
1A2
330
53
100
AcDbEntity
  8
0
  6
DASHED
 62
     0
100
AcDbLine
 10
45.54999923706055
 20
-6.400001525878906
 30
0.0
 11
46.75
 21
-6.400001525878906
 31
0.0
  0
LINE
  5
1A3
330
53
100
AcDbEntity
  8
0
  6
DASHED
 62
     0
100
AcDbLine
 10
46.75
 20
-6.400001525878906
 30
0.0
 11
46.75
 21
-13.16975402832031
 31
0.0
  0
LINE
  5
1A4
330
53
100
AcDbEntity
  8
0
  6
DASHED
 62
     0
100
AcDbLine
 10
47.75000160623735
 20
-3.200000484713993
 30
0.0
 11
45.550000851528
 21
-5.40000123942335
 31
0.0
  0
LINE
  5
1A5
330
53
100
AcDbEntity
  8
0
  6
DASHED
 62
     0
100
AcDbLine
 10
46.74999864770957
 20
-13.16975199919653
 30
0.0
 11
44.88314642860315
 21
-14.9999992697748
 31
0.0
  0
LINE
  5
1A6
330
53
100
AcDbEntity
  8
0
  6
DASHED
 62
     0
100
AcDbLine
 10
38.20000076293945
 20
-15.0
 30
0.0
 11
44.88314819335938
 21
-15.0
 31
0.0
  0
LINE
  5
1A7
330
53
100
AcDbEntity
  8
0
  6
DASHED
 62
     0
100
AcDbLine
 10
38.20000076293945
 20
-15.0
 30
0.0
 11
38.20000076293945
 21
-21.75
 31
0.0
  0
LINE
  5
1A8
330
53
100
AcDbEntity
  8
0
  6
DASHED
 62
     0
100
AcDbLine
 10
35.46934127807617
 20
-21.75
 30
0.0
 11
38.20000076293945
 21
-21.75
 31
0.0
  0
LINE
  5
1A9
330
53
100
AcDbEntity
  8
0
  6
Continuous
 62
     0
100
AcDbLine
 10
-42.84999933614105
 20
-21.75000024542064
 30
0.0
 11
-41.69529811748958
 21
-23.7500013877902
 31
0.0
  0
LINE
  5
1AA
330
53
100
AcDbEntity
  8
0
  6
Continuous
 62
     0
100
AcDbLine
 10
42.84999650935349
 20
-21.7499975121658
 30
0.0
 11
41.69529520129505
 21
-23.74999880939276
 31
0.0
  0
LINE
  5
1AB
330
53
100
AcDbEntity
  8
0
  6
DASHED
 62
     0
100
AcDbLine
 10
4.785037040710449
 20
-2.0
 30
0.0
 11
-4.785037040710449
 21
-2.0
 31
0.0
  0
LINE
  5
1AC
330
53
100
AcDbEntity
  8
0
  6
DASHED
 62
     0
100
AcDbLine
 10
-7.770148776879044
 20
-4.701487393423899
 30
0.0
 11
-8.50000015074068
 21
-12.00000124133902
 31
0.0
  0
LINE
  5
1AD
330
53
100
AcDbEntity
  8
0
  6
DASHED
 62
     0
100
AcDbLine
 10
7.770148966667325
 20
-4.701489291306724
 30
0.0
 11
8.500000245634821
 21
-12.00000219028043
 31
0.0
  0
LINE
  5
1AE
330
53
100
AcDbEntity
  8
0
  6
Continuous
 62
     0
100
AcDbLine
 10
50.79999923706055
 20
-12.0
 30
0.0
 11
-50.79999923706055
 21
-12.0
 31
0.0
  0
ARC
  5
1AF
330
53
100
AcDbEntity
  8
0
  6
DASHED
 62
     0
100
AcDbCircle
 10
-4.785037040710449
 20
-5.0
 30
0.0
 40
3.0
100
AcDbArc
 50
90.00000250447816
 51
174.2894067873137
  0
ARC
  5
1B0
330
53
100
AcDbEntity
  8
0
  6
DASHED
 62
     0
100
AcDbCircle
 10
4.785037040710449
 20
-5.0
 30
0.0
 40
3.0
100
AcDbArc
 50
5.710593099000723
 51
90.00000250447816
  0
ARC
  5
1B1
330
53
100
AcDbEntity
  8
0
  6
DASHED
 62
     0
100
AcDbCircle
 10
10.50997447967529
 20
-12.0
 30
0.0
 40
2.0
100
AcDbArc
 50
185.7105932126863
 51
269.9999974955218
  0
ARC
  5
1B2
330
53
100
AcDbEntity
  8
0
  6
DASHED
 62
     0
100
AcDbCircle
 10
-10.50997543334961
 20
-12.0
 30
0.0
 40
2.0
100
AcDbArc
 50
269.9999974955218
 51
354.2894069009993
  0
ENDBLK
  5
55
330
53
100
AcDbEntity
  8
0
100
AcDbBlockEnd
  0
BLOCK
  5
57
330
56
100
AcDbEntity
  8
0
100
AcDbBlockBegin
  2
DTL0007
 70
     0
 10
0.0
 20
0.0
 30
0.0
  3
DTL0007
  1

  0
POINT
  5
1B3
330
56
100
AcDbEntity
  8
0
 62
     0
100
AcDbPoint
 10
0.0
 20
0.0
 30
0.0
  0
LINE
  5
1B4
330
56
100
AcDbEntity
  8
0
  6
Continuous
 62
     0
100
AcDbLine
 10
-55.59999847412109
 20
43.79999923706055
 30
0.0
 11
-55.59999847412109
 21
-45.79999923706055
 31
0.0
  0
LINE
  5
1B5
330
56
100
AcDbEntity
  8
0
  6
Continuous
 62
     0
100
AcDbLine
 10
55.59999847412109
 20
43.79999923706055
 30
0.0
 11
55.59999847412109
 21
-45.79999923706055
 31
0.0
  0
LINE
  5
1B6
330
56
100
AcDbEntity
  8
0
  6
Continuous
 62
     0
100
AcDbLine
 10
48.59999847412109
 20
50.79999923706055
 30
0.0
 11
-48.60000228881836
 21
50.79999923706055
 31
0.0
  0
LINE
  5
1B7
330
56
100
AcDbEntity
  8
0
  6
Continuous
 62
     0
100
AcDbLine
 10
50.59999847412109
 20
-50.79999923706055
 30
0.0
 11
-50.59999847412109
 21
-50.79999923706055
 31
0.0
  0
LINE
  5
1B8
330
56
100
AcDbEntity
  8
0
  6
Continuous
 62
     0
100
AcDbLine
 10
47.59999847412109
 20
-48.79999923706055
 30
0.0
 11
-47.59999847412109
 21
-48.79999923706055
 31
0.0
  0
LINE
  5
1B9
330
56
100
AcDbEntity
  8
0
  6
Continuous
 62
     0
100
AcDbLine
 10
45.59999847412109
 20
48.79999923706055
 30
0.0
 11
-45.60000228881836
 21
48.79999923706055
 31
0.0
  0
LINE
  5
1BA
330
56
100
AcDbEntity
  8
0
  6
Continuous
 62
     0
100
AcDbLine
 10
-11.0
 20
-45.54999923706055
 30
0.0
 11
-25.0
 21
-45.54999923706055
 31
0.0
  0
LINE
  5
1BB
330
56
100
AcDbEntity
  8
0
  6
Continuous
 62
     0
100
AcDbLine
 10
45.80000305175781
 20
-46.75
 30
0.0
 11
-11.0
 21
-46.75
 31
0.0
  0
LINE
  5
1BC
330
56
100
AcDbEntity
  8
0
  6
Continuous
 62
     0
100
AcDbLine
 10
-11.0
 20
-45.54999923706055
 30
0.0
 11
-11.0
 21
-48.79999923706055
 31
0.0
  0
LINE
  5
1BD
330
56
100
AcDbEntity
  8
0
  6
Continuous
 62
     0
100
AcDbLine
 10
-25.0
 20
-45.54999923706055
 30
0.0
 11
-25.0
 21
-48.79999923706055
 31
0.0
  0
LINE
  5
1BE
330
56
100
AcDbEntity
  8
0
  6
Continuous
 62
     0
100
AcDbLine
 10
-25.0
 20
-46.75
 30
0.0
 11
-45.79999923706055
 21
-46.75
 31
0.0
  0
LINE
  5
1BF
330
56
100
AcDbEntity
  8
0
  6
Continuous
 62
     0
100
AcDbLine
 10
8.0
 20
48.79999923706055
 30
0.0
 11
8.0
 21
45.54999923706055
 31
0.0
  0
LINE
  5
1C0
330
56
100
AcDbEntity
  8
0
  6
Continuous
 62
     0
100
AcDbLine
 10
22.0
 20
48.79999923706055
 30
0.0
 11
22.0
 21
45.54999923706055
 31
0.0
  0
LINE
  5
1C1
330
56
100
AcDbEntity
  8
0
  6
Continuous
 62
     0
100
AcDbLine
 10
22.0
 20
45.54999923706055
 30
0.0
 11
8.0
 21
45.54999923706055
 31
0.0
  0
LINE
  5
1C2
330
56
100
AcDbEntity
  8
0
  6
Continuous
 62
     0
100
AcDbLine
 10
43.80000305175781
 20
46.75
 30
0.0
 11
22.0
 21
46.75
 31
0.0
  0
LINE
  5
1C3
330
56
100
AcDbEntity
  8
0
  6
Continuous
 62
     0
100
AcDbLine
 10
8.0
 20
46.75
 30
0.0
 11
-43.79999923706055
 21
46.75
 31
0.0
  0
LINE
  5
1C4
330
56
100
AcDbEntity
  8
0
  6
Continuous
 62
     0
100
AcDbLine
 10
53.59999847412109
 20
40.79999923706055
 30
0.0
 11
53.59999847412109
 21
-42.79999923706055
 31
0.0
  0
LINE
  5
1C5
330
56
100
AcDbEntity
  8
0
  6
Continuous
 62
     0
100
AcDbLine
 10
-53.59999847412109
 20
40.79999923706055
 30
0.0
 11
-53.59999847412109
 21
-42.79999923706055
 31
0.0
  0
LINE
  5
1C6
330
56
100
AcDbEntity
  8
0
  6
Continuous
 62
     0
100
AcDbLine
 10
51.80000305175781
 20
38.75
 30
0.0
 11
51.80000305175781
 21
9.5
 31
0.0
  0
LINE
  5
1C7
330
56
100
AcDbEntity
  8
0
  6
Continuous
 62
     0
100
AcDbLine
 10
-51.79999923706055
 20
38.75
 30
0.0
 11
-51.79999923706055
 21
9.5
 31
0.0
  0
LINE
  5
1C8
330
56
100
AcDbEntity
  8
0
  6
Continuous
 62
     0
100
AcDbLine
 10
-50.5
 20
8.5
 30
0.0
 11
-50.79999923706055
 21
8.5
 31
0.0
  0
LINE
  5
1C9
330
56
100
AcDbEntity
  8
0
  6
Continuous
 62
     0
100
AcDbLine
 10
-51.09999847412109
 20
6.5
 30
0.0
 11
-51.09999847412109
 21
-6.500000953674316
 31
0.0
  0
LINE
  5
1CA
330
56
100
AcDbEntity
  8
0
  6
Continuous
 62
     0
100
AcDbLine
 10
-49.5
 20
7.5
 30
0.0
 11
-49.5
 21
-7.500000953674316
 31
0.0
  0
LINE
  5
1CB
330
56
100
AcDbEntity
  8
0
  6
Continuous
 62
     0
100
AcDbLine
 10
-51.79999923706055
 20
-9.500000953674316
 30
0.0
 11
-51.79999923706055
 21
-40.75
 31
0.0
  0
LINE
  5
1CC
330
56
100
AcDbEntity
  8
0
  6
Continuous
 62
     0
100
AcDbLine
 10
-51.59999847412109
 20
7.5
 30
0.0
 11
-51.59999847412109
 21
-7.500000953674316
 31
0.0
  0
LINE
  5
1CD
330
56
100
AcDbEntity
  8
0
  6
Continuous
 62
     0
100
AcDbLine
 10
50.5
 20
-8.500000953674316
 30
0.0
 11
50.80000305175781
 21
-8.500000953674316
 31
0.0
  0
LINE
  5
1CE
330
56
100
AcDbEntity
  8
0
  6
Continuous
 62
     0
100
AcDbLine
 10
50.5
 20
8.5
 30
0.0
 11
50.80000305175781
 21
8.5
 31
0.0
  0
LINE
  5
1CF
330
56
100
AcDbEntity
  8
0
  6
Continuous
 62
     0
100
AcDbLine
 10
51.09999847412109
 20
6.5
 30
0.0
 11
51.09999847412109
 21
-6.500000953674316
 31
0.0
  0
LINE
  5
1D0
330
56
100
AcDbEntity
  8
0
  6
Continuous
 62
     0
100
AcDbLine
 10
49.5
 20
7.5
 30
0.0
 11
49.5
 21
-7.500000953674316
 31
0.0
  0
LINE
  5
1D1
330
56
100
AcDbEntity
  8
0
  6
Continuous
 62
     0
100
AcDbLine
 10
51.59999847412109
 20
7.5
 30
0.0
 11
51.59999847412109
 21
-7.500000953674316
 31
0.0
  0
LINE
  5
1D2
330
56
100
AcDbEntity
  8
0
  6
Continuous
 62
     0
100
AcDbLine
 10
51.80000305175781
 20
-9.500000953674316
 30
0.0
 11
51.80000305175781
 21
-40.75
 31
0.0
  0
LINE
  5
1D3
330
56
100
AcDbEntity
  8
0
  6
Continuous
 62
     0
100
AcDbLine
 10
-50.5
 20
-8.500000953674316
 30
0.0
 11
-50.79999923706055
 21
-8.500000953674316
 31
0.0
  0
ARC
  5
1D4
330
56
100
AcDbEntity
  8
0
  6
Continuous
 62
     0
100
AcDbCircle
 10
48.59999847412109
 20
43.79999923706055
 30
0.0
 40
7.0
100
AcDbArc
 50
0.00000250447888
 51
90.00000250447816
  0
ARC
  5
1D5
330
56
100
AcDbEntity
  8
0
  6
Continuous
 62
     0
100
AcDbCircle
 10
-48.60000228881836
 20
43.79999923706055
 30
0.0
 40
7.0
100
AcDbArc
 50
89.999995674289
 51
179.999991348578
  0
ARC
  5
1D6
330
56
100
AcDbEntity
  8
0
  6
Continuous
 62
     0
100
AcDbCircle
 10
50.59999847412109
 20
-45.79999923706055
 30
0.0
 40
5.0
100
AcDbArc
 50
269.9999974955218
 51
0.00000250447888
  0
ARC
  5
1D7
330
56
100
AcDbEntity
  8
0
  6
Continuous
 62
     0
100
AcDbCircle
 10
-50.59999847412109
 20
-45.79999923706055
 30
0.0
 40
5.0
100
AcDbArc
 50
179.999991348578
 51
270.0000006832453
  0
ARC
  5
1D8
330
56
100
AcDbEntity
  8
0
  6
Continuous
 62
     0
100
AcDbCircle
 10
-45.60000228881836
 20
40.79999923706055
 30
0.0
 40
8.0
100
AcDbArc
 50
89.999995674289
 51
179.999991348578
  0
ARC
  5
1D9
330
56
100
AcDbEntity
  8
0
  6
Continuous
 62
     0
100
AcDbCircle
 10
-43.79999923706055
 20
38.75
 30
0.0
 40
8.0
100
AcDbArc
 50
89.999995674289
 51
179.999991348578
  0
ARC
  5
1DA
330
56
100
AcDbEntity
  8
0
  6
Continuous
 62
     0
100
AcDbCircle
 10
45.59999847412109
 20
40.79999923706055
 30
0.0
 40
8.0
100
AcDbArc
 50
0.00000250447888
 51
90.00000250447816
  0
ARC
  5
1DB
330
56
100
AcDbEntity
  8
0
  6
Continuous
 62
     0
100
AcDbCircle
 10
43.80000305175781
 20
38.75
 30
0.0
 40
8.0
100
AcDbArc
 50
0.00000250447888
 51
90.00000250447816
  0
ARC
  5
1DC
330
56
100
AcDbEntity
  8
0
  6
Continuous
 62
     0
100
AcDbCircle
 10
45.80000305175781
 20
-40.75
 30
0.0
 40
6.0
100
AcDbArc
 50
269.9999974955218
 51
0.00000250447888
  0
ARC
  5
1DD
330
56
100
AcDbEntity
  8
0
  6
Continuous
 62
     0
100
AcDbCircle
 10
47.59999847412109
 20
-42.79999923706055
 30
0.0
 40
6.0
100
AcDbArc
 50
269.9999974955218
 51
0.00000250447888
  0
ARC
  5
1DE
330
56
100
AcDbEntity
  8
0
  6
Continuous
 62
     0
100
AcDbCircle
 10
-45.79999923706055
 20
-40.75
 30
0.0
 40
6.0
100
AcDbArc
 50
179.999991348578
 51
270.0000006832453
  0
ARC
  5
1DF
330
56
100
AcDbEntity
  8
0
  6
Continuous
 62
     0
100
AcDbCircle
 10
-47.59999847412109
 20
-42.79999923706055
 30
0.0
 40
6.0
100
AcDbArc
 50
179.999991348578
 51
270.0000006832453
  0
ARC
  5
1E0
330
56
100
AcDbEntity
  8
0
  6
Continuous
 62
     0
100
AcDbCircle
 10
-50.79999923706055
 20
9.5
 30
0.0
 40
1.0
100
AcDbArc
 50
179.999991348578
 51
270.0000006832453
  0
ARC
  5
1E1
330
56
100
AcDbEntity
  8
0
  6
Continuous
 62
     0
100
AcDbCircle
 10
-50.79999923706055
 20
-9.500000953674316
 30
0.0
 40
1.0
100
AcDbArc
 50
89.999995674289
 51
179.999991348578
  0
ARC
  5
1E2
330
56
100
AcDbEntity
  8
0
  6
Continuous
 62
     0
100
AcDbCircle
 10
-50.09999847412109
 20
-6.500000953674316
 30
0.0
 40
1.0
100
AcDbArc
 50
179.999991348578
 51
258.4630461939067
  0
ARC
  5
1E3
330
56
100
AcDbEntity
  8
0
  6
Continuous
 62
     0
100
AcDbCircle
 10
-50.10000228881836
 20
6.5
 30
0.0
 40
1.0
100
AcDbArc
 50
101.5369638240059
 51
179.999991348578
  0
ARC
  5
1E4
330
56
100
AcDbEntity
  8
0
  6
Continuous
 62
     0
100
AcDbCircle
 10
-50.59999847412109
 20
-7.500000953674316
 30
0.0
 40
1.0
100
AcDbArc
 50
179.999991348578
 51
270.0000006832453
  0
ARC
  5
1E5
330
56
100
AcDbEntity
  8
0
  6
Continuous
 62
     0
100
AcDbCircle
 10
-50.60000228881836
 20
7.5
 30
0.0
 40
1.0
100
AcDbArc
 50
89.999995674289
 51
179.999991348578
  0
ARC
  5
1E6
330
56
100
AcDbEntity
  8
0
  6
Continuous
 62
     0
100
AcDbCircle
 10
50.59999847412109
 20
7.5
 30
0.0
 40
1.0
100
AcDbArc
 50
0.00000250447888
 51
90.00000250447816
  0
ARC
  5
1E7
330
56
100
AcDbEntity
  8
0
  6
Continuous
 62
     0
100
AcDbCircle
 10
50.80000305175781
 20
9.5
 30
0.0
 40
1.0
100
AcDbArc
 50
269.9999974955218
 51
0.00000250447888
  0
ARC
  5
1E8
330
56
100
AcDbEntity
  8
0
  6
Continuous
 62
     0
100
AcDbCircle
 10
50.80000305175781
 20
-9.500000953674316
 30
0.0
 40
1.0
100
AcDbArc
 50
0.00000250447888
 51
90.00000250447816
  0
ARC
  5
1E9
330
56
100
AcDbEntity
  8
0
  6
Continuous
 62
     0
100
AcDbCircle
 10
50.09999847412109
 20
-6.500000953674316
 30
0.0
 40
1.0
100
AcDbArc
 50
281.5369588150496
 51
0.00000250447888
  0
ARC
  5
1EA
330
56
100
AcDbEntity
  8
0
  6
Continuous
 62
     0
100
AcDbCircle
 10
50.09999847412109
 20
6.5
 30
0.0
 40
1.0
100
AcDbArc
 50
0.00000250447888
 51
78.46303435476125
  0
ARC
  5
1EB
330
56
100
AcDbEntity
  8
0
  6
Continuous
 62
     0
100
AcDbCircle
 10
50.59999847412109
 20
-7.500000953674316
 30
0.0
 40
1.0
100
AcDbArc
 50
269.9999974955218
 51
0.00000250447888
  0
ARC
  5
1EC
330
56
100
AcDbEntity
  8
0
  6
Continuous
 62
     0
100
AcDbCircle
 10
-50.5
 20
-7.500000953674316
 30
0.0
 40
1.0
100
AcDbArc
 50
269.9999974955218
 51
0.00000250447888
  0
ARC
  5
1ED
330
56
100
AcDbEntity
  8
0
  6
Continuous
 62
     0
100
AcDbCircle
 10
-50.5
 20
-6.500000953674316
 30
0.0
 40
1.0
100
AcDbArc
 50
281.5369588150496
 51
0.00000250447888
  0
ARC
  5
1EE
330
56
100
AcDbEntity
  8
0
  6
Continuous
 62
     0
100
AcDbCircle
 10
-50.5
 20
6.5
 30
0.0
 40
1.0
100
AcDbArc
 50
0.00000250447888
 51
78.46303435476125
  0
ARC
  5
1EF
330
56
100
AcDbEntity
  8
0
  6
Continuous
 62
     0
100
AcDbCircle
 10
-50.5
 20
7.5
 30
0.0
 40
1.0
100
AcDbArc
 50
0.00000250447888
 51
90.00000250447816
  0
ARC
  5
1F0
330
56
100
AcDbEntity
  8
0
  6
Continuous
 62
     0
100
AcDbCircle
 10
50.5
 20
6.5
 30
0.0
 40
1.0
100
AcDbArc
 50
101.5369638240059
 51
179.999991348578
  0
ARC
  5
1F1
330
56
100
AcDbEntity
  8
0
  6
Continuous
 62
     0
100
AcDbCircle
 10
50.5
 20
7.5
 30
0.0
 40
1.0
100
AcDbArc
 50
89.999995674289
 51
179.999991348578
  0
ARC
  5
1F2
330
56
100
AcDbEntity
  8
0
  6
Continuous
 62
     0
100
AcDbCircle
 10
50.5
 20
-6.500000953674316
 30
0.0
 40
1.0
100
AcDbArc
 50
179.999991348578
 51
258.4630461939067
  0
ARC
  5
1F3
330
56
100
AcDbEntity
  8
0
  6
Continuous
 62
     0
100
AcDbCircle
 10
50.5
 20
-7.500000953674316
 30
0.0
 40
1.0
100
AcDbArc
 50
179.999991348578
 51
270.0000006832453
  0
CIRCLE
  5
1F4
330
56
100
AcDbEntity
  8
0
  6
Continuous
 62
     0
100
AcDbCircle
 10
0.0
 20
0.0
 30
0.0
 40
35.46934127807617
  0
CIRCLE
  5
1F5
330
56
100
AcDbEntity
  8
0
  6
Continuous
 62
     0
100
AcDbCircle
 10
0.0
 20
0.0
 30
0.0
 40
38.20000076293945
  0
CIRCLE
  5
1F6
330
56
100
AcDbEntity
  8
0
  6
Continuous
 62
     0
100
AcDbCircle
 10
0.0
 20
0.0
 30
0.0
 40
44.88314819335938
  0
ENDBLK
  5
58
330
56
100
AcDbEntity
  8
0
100
AcDbBlockEnd
  0
BLOCK
  5
5A
330
59
100
AcDbEntity
  8
0
100
AcDbBlockBegin
  2
DTL0008
 70
     0
 10
0.0
 20
0.0
 30
0.0
  3
DTL0008
  1

  0
POINT
  5
1F7
330
59
100
AcDbEntity
  8
0
 62
     0
100
AcDbPoint
 10
0.0
 20
0.0
 30
0.0
  0
LINE
  5
1F8
330
59
100
AcDbEntity
  8
0
  6
Continuous
 62
     0
100
AcDbLine
 10
-49.60000228881836
 20
50.80000305175781
 30
0.0
 11
49.59999847412109
 21
50.80000305175781
 31
0.0
  0
LINE
  5
1F9
330
59
100
AcDbEntity
  8
0
  6
Continuous
 62
     0
100
AcDbLine
 10
51.40000152587891
 20
42.70001220703125
 30
0.0
 11
51.40000152587891
 21
-40.69999694824219
 31
0.0
  0
LINE
  5
1FA
330
59
100
AcDbEntity
  8
0
  6
Continuous
 62
     0
100
AcDbLine
 10
-47.40000152587891
 20
46.69999694824219
 30
0.0
 11
47.39999771118164
 21
46.69999694824219
 31
0.0
  0
LINE
  5
1FB
330
59
100
AcDbEntity
  8
0
  6
Continuous
 62
     0
100
AcDbLine
 10
-55.60000228881836
 20
44.80000305175781
 30
0.0
 11
-55.60000228881836
 21
-43.80000305175781
 31
0.0
  0
LINE
  5
1FC
330
59
100
AcDbEntity
  8
0
  6
Continuous
 62
     0
100
AcDbLine
 10
-51.39999771118164
 20
42.70001220703125
 30
0.0
 11
-51.39999771118164
 21
-40.69999694824219
 31
0.0
  0
LINE
  5
1FD
330
59
100
AcDbEntity
  8
0
  6
Continuous
 62
     0
100
AcDbLine
 10
-47.40000152587891
 20
-46.69999694824219
 30
0.0
 11
45.40000152587891
 21
-46.69999694824219
 31
0.0
  0
LINE
  5
1FE
330
59
100
AcDbEntity
  8
0
  6
Continuous
 62
     0
100
AcDbLine
 10
-48.60000228881836
 20
-50.80000305175781
 30
0.0
 11
49.59999847412109
 21
-50.80000305175781
 31
0.0
  0
LINE
  5
1FF
330
59
100
AcDbEntity
  8
0
  6
Continuous
 62
     0
100
AcDbLine
 10
55.60000228881836
 20
44.80000305175781
 30
0.0
 11
55.60000228881836
 21
-43.80000686645508
 31
0.0
  0
LINE
  5
200
330
59
100
AcDbEntity
  8
0
  6
Continuous
 62
     0
100
AcDbLine
 10
25.24999809265137
 20
44.70000457763672
 30
0.0
 11
25.24999809265137
 21
45.0
 31
0.0
  0
LINE
  5
201
330
59
100
AcDbEntity
  8
0
  6
Continuous
 62
     0
100
AcDbLine
 10
4.750001907348633
 20
44.70000457763672
 30
0.0
 11
4.750001907348633
 21
45.0
 31
0.0
  0
LINE
  5
202
330
59
100
AcDbEntity
  8
0
  6
Continuous
 62
     0
100
AcDbLine
 10
7.000001907348633
 20
44.00000381469727
 30
0.0
 11
7.000001907348633
 21
46.69999694824219
 31
0.0
  0
LINE
  5
203
330
59
100
AcDbEntity
  8
0
  6
Continuous
 62
     0
100
AcDbLine
 10
22.99999809265137
 20
44.00000381469727
 30
0.0
 11
22.99999809265137
 21
46.69999694824219
 31
0.0
  0
LINE
  5
204
330
59
100
AcDbEntity
  8
0
  6
Continuous
 62
     0
100
AcDbLine
 10
5.749998092651367
 20
44.00000381469727
 30
0.0
 11
24.25000190734863
 21
44.00000381469727
 31
0.0
  0
LINE
  5
205
330
59
100
AcDbEntity
  8
0
  6
Continuous
 62
     0
100
AcDbLine
 10
-28.24999809265137
 20
-44.70000457763672
 30
0.0
 11
-28.24999809265137
 21
-45.0
 31
0.0
  0
LINE
  5
206
330
59
100
AcDbEntity
  8
0
  6
Continuous
 62
     0
100
AcDbLine
 10
-7.750001907348633
 20
-44.70000457763672
 30
0.0
 11
-7.750001907348633
 21
-45.0
 31
0.0
  0
LINE
  5
207
330
59
100
AcDbEntity
  8
0
  6
Continuous
 62
     0
100
AcDbLine
 10
-10.00000190734863
 20
-43.99999237060547
 30
0.0
 11
-10.00000190734863
 21
-46.69999694824219
 31
0.0
  0
LINE
  5
208
330
59
100
AcDbEntity
  8
0
  6
Continuous
 62
     0
100
AcDbLine
 10
-25.99999809265137
 20
-43.99999237060547
 30
0.0
 11
-25.99999809265137
 21
-46.69999694824219
 31
0.0
  0
LINE
  5
209
330
59
100
AcDbEntity
  8
0
  6
Continuous
 62
     0
100
AcDbLine
 10
-8.749998092651367
 20
-43.99999237060547
 30
0.0
 11
-27.25000190734863
 21
-43.99999237060547
 31
0.0
  0
ARC
  5
20A
330
59
100
AcDbEntity
  8
0
  6
Continuous
 62
     0
100
AcDbCircle
 10
49.59999847412109
 20
44.80000305175781
 30
0.0
 40
6.0
100
AcDbArc
 50
0.0
 51
90.00000250447816
  0
ARC
  5
20B
330
59
100
AcDbEntity
  8
0
  6
Continuous
 62
     0
100
AcDbCircle
 10
48.60000228881836
 20
-43.80000686645508
 30
0.0
 40
7.000000476837158
100
AcDbArc
 50
269.9999974955218
 51
0.0
  0
ARC
  5
20C
330
59
100
AcDbEntity
  8
0
  6
Continuous
 62
     0
100
AcDbCircle
 10
47.39999771118164
 20
42.70001220703125
 30
0.0
 40
4.0
100
AcDbArc
 50
0.0
 51
90.00000250447816
  0
ARC
  5
20D
330
59
100
AcDbEntity
  8
0
  6
Continuous
 62
     0
100
AcDbCircle
 10
-49.60000228881836
 20
44.80000305175781
 30
0.0
 40
6.0
100
AcDbArc
 50
90.00000250447816
 51
180.0000050089563
  0
ARC
  5
20E
330
59
100
AcDbEntity
  8
0
  6
Continuous
 62
     0
100
AcDbCircle
 10
-47.40000152587891
 20
42.70001220703125
 30
0.0
 40
4.0
100
AcDbArc
 50
90.00000250447816
 51
180.0000050089563
  0
ARC
  5
20F
330
59
100
AcDbEntity
  8
0
  6
Continuous
 62
     0
100
AcDbCircle
 10
-45.39999771118164
 20
-40.69999694824219
 30
0.0
 40
6.0
100
AcDbArc
 50
179.999991348578
 51
270.0000006832453
  0
ARC
  5
210
330
59
100
AcDbEntity
  8
0
  6
Continuous
 62
     0
100
AcDbCircle
 10
-48.60000228881836
 20
-43.80000305175781
 30
0.0
 40
7.0
100
AcDbArc
 50
179.9999949910437
 51
269.9999974955218
  0
ARC
  5
211
330
59
100
AcDbEntity
  8
0
  6
Continuous
 62
     0
100
AcDbCircle
 10
45.40000152587891
 20
-40.69999694824219
 30
0.0
 40
6.0
100
AcDbArc
 50
269.9999974955218
 51
0.0
  0
ARC
  5
212
330
59
100
AcDbEntity
  8
0
  6
Continuous
 62
     0
100
AcDbCircle
 10
24.25000190734863
 20
45.0
 30
0.0
 40
1.0
100
AcDbArc
 50
269.9999974955218
 51
0.0
  0
ARC
  5
213
330
59
100
AcDbEntity
  8
0
  6
Continuous
 62
     0
100
AcDbCircle
 10
2.749998092651367
 20
44.70000457763672
 30
0.0
 40
2.0
100
AcDbArc
 50
0.0
 51
90.00000250447816
  0
ARC
  5
214
330
59
100
AcDbEntity
  8
0
  6
Continuous
 62
     0
100
AcDbCircle
 10
5.749998092651367
 20
45.0
 30
0.0
 40
1.0
100
AcDbArc
 50
179.999991348578
 51
270.0000006832453
  0
ARC
  5
215
330
59
100
AcDbEntity
  8
0
  6
Continuous
 62
     0
100
AcDbCircle
 10
27.25000190734863
 20
44.70000457763672
 30
0.0
 40
2.0
100
AcDbArc
 50
90.00000250447816
 51
180.0000050089563
  0
ARC
  5
216
330
59
100
AcDbEntity
  8
0
  6
Continuous
 62
     0
100
AcDbCircle
 10
-5.749998092651367
 20
-44.70000457763672
 30
0.0
 40
2.0
100
AcDbArc
 50
179.999991348578
 51
270.0000006832453
  0
ARC
  5
217
330
59
100
AcDbEntity
  8
0
  6
Continuous
 62
     0
100
AcDbCircle
 10
-8.749998092651367
 20
-45.0
 30
0.0
 40
1.0
100
AcDbArc
 50
359.9999999999996
 51
90.00000250447816
  0
ARC
  5
218
330
59
100
AcDbEntity
  8
0
  6
Continuous
 62
     0
100
AcDbCircle
 10
-27.25000190734863
 20
-45.0
 30
0.0
 40
1.0
100
AcDbArc
 50
90.00000250447816
 51
180.0000050089563
  0
ARC
  5
219
330
59
100
AcDbEntity
  8
0
  6
Continuous
 62
     0
100
AcDbCircle
 10
-30.25000190734863
 20
-44.70000457763672
 30
0.0
 40
2.0
100
AcDbArc
 50
269.9999974955218
 51
359.9999999999996
  0
ENDBLK
  5
5B
330
59
100
AcDbEntity
  8
0
100
AcDbBlockEnd
  0
BLOCK
  5
5D
330
5C
100
AcDbEntity
  8
0
100
AcDbBlockBegin
  2
DTL0009
 70
     0
 10
0.0
 20
0.0
 30
0.0
  3
DTL0009
  1

  0
POINT
  5
21A
330
5C
100
AcDbEntity
  8
0
 62
     0
100
AcDbPoint
 10
-55.59999465942383
 20
0.0
 30
0.0
  0
POINT
  5
21B
330
5C
100
AcDbEntity
  8
0
 62
     0
100
AcDbPoint
 10
55.59997177124023
 20
0.0
 30
0.0
  0
POINT
  5
21C
330
5C
100
AcDbEntity
  8
0
 62
     0
100
AcDbPoint
 10
0.0
 20
0.0
 30
0.0
  0
LINE
  5
21D
330
5C
100
AcDbEntity
  8
0
  6
CENTER
 62
     0
100
AcDbLine
 10
0.0
 20
1.500263214111328
 30
0.0
 11
0.0
 21
-29.18556976318359
 31
0.0
  0
LINE
  5
21E
330
5C
100
AcDbEntity
  8
0
  6
Continuous
 62
     0
100
AcDbLine
 10
-55.59999465942383
 20
0.0
 30
0.0
 11
-55.59999465942383
 21
-12.0
 31
0.0
  0
LINE
  5
21F
330
5C
100
AcDbEntity
  8
0
  6
Continuous
 62
     0
100
AcDbLine
 10
55.59997177124023
 20
0.0
 30
0.0
 11
55.59997177124023
 21
-12.0
 31
0.0
  0
LINE
  5
220
330
5C
100
AcDbEntity
  8
0
  6
Continuous
 62
     0
100
AcDbLine
 10
50.49997329711914
 20
-17.0
 30
0.0
 11
44.99997329711914
 21
-17.0
 31
0.0
  0
LINE
  5
221
330
5C
100
AcDbEntity
  8
0
  6
Continuous
 62
     0
100
AcDbLine
 10
-55.59999458355303
 20
-11.9999987592738
 30
0.0
 11
-50.49999496751098
 21
-16.99999837449729
 31
0.0
  0
LINE
  5
222
330
5C
100
AcDbEntity
  8
0
  6
Continuous
 62
     0
100
AcDbLine
 10
55.59996897287786
 20
-11.99999715693747
 30
0.0
 11
50.49996935683581
 21
-16.99999677216097
 31
0.0
  0
LINE
  5
223
330
5C
100
AcDbEntity
  8
0
  6
Continuous
 62
     0
100
AcDbLine
 10
44.99997329711914
 20
-17.0
 30
0.0
 11
44.99997329711914
 21
-20.75
 31
0.0
  0
LINE
  5
224
330
5C
100
AcDbEntity
  8
0
  6
Continuous
 62
     0
100
AcDbLine
 10
-44.99999618530273
 20
-17.0
 30
0.0
 11
-44.99999618530273
 21
-20.75
 31
0.0
  0
LINE
  5
225
330
5C
100
AcDbEntity
  8
0
  6
Continuous
 62
     0
100
AcDbLine
 10
-44.99999618530273
 20
-17.0
 30
0.0
 11
-50.49999618530273
 21
-17.0
 31
0.0
  0
LINE
  5
226
330
5C
100
AcDbEntity
  8
0
  6
Continuous
 62
     0
100
AcDbLine
 10
-47.64999389648438
 20
-20.75
 30
0.0
 11
-47.64999389648438
 21
-21.75
 31
0.0
  0
LINE
  5
227
330
5C
100
AcDbEntity
  8
0
  6
Continuous
 62
     0
100
AcDbLine
 10
47.64997100830078
 20
-20.75
 30
0.0
 11
47.64997100830078
 21
-21.75
 31
0.0
  0
LINE
  5
228
330
5C
100
AcDbEntity
  8
0
  6
Continuous
 62
     0
100
AcDbLine
 10
-42.19999716566014
 20
-23.75000188055268
 30
0.0
 11
-42.04999712512971
 21
-28.00000304475688
 31
0.0
  0
LINE
  5
229
330
5C
100
AcDbEntity
  8
0
  6
Continuous
 62
     0
100
AcDbLine
 10
42.1999705466716
 20
-23.74999903252274
 30
0.0
 11
42.04997050614118
 21
-28.00000019672694
 31
0.0
  0
LINE
  5
22A
330
5C
100
AcDbEntity
  8
0
  6
DASHED
 62
     0
100
AcDbLine
 10
-53.34999465942383
 20
0.0
 30
0.0
 11
-53.34999465942383
 21
-3.200000762939453
 31
0.0
  0
LINE
  5
22B
330
5C
100
AcDbEntity
  8
0
  6
DASHED
 62
     0
100
AcDbLine
 10
-50.34999465942383
 20
-5.400001525878906
 30
0.0
 11
-50.34999465942383
 21
-6.400001525878906
 31
0.0
  0
LINE
  5
22C
330
5C
100
AcDbEntity
  8
0
  6
DASHED
 62
     0
100
AcDbLine
 10
-52.54999542236328
 20
-3.200000762939453
 30
0.0
 11
-53.34999465942383
 21
-3.200000762939453
 31
0.0
  0
LINE
  5
22D
330
5C
100
AcDbEntity
  8
0
  6
DASHED
 62
     0
100
AcDbLine
 10
-50.34999465942383
 20
-6.400001525878906
 30
0.0
 11
-51.54999542236328
 21
-6.400001525878906
 31
0.0
  0
LINE
  5
22E
330
5C
100
AcDbEntity
  8
0
  6
DASHED
 62
     0
100
AcDbLine
 10
-52.54999626416216
 20
-3.199999136014842
 30
0.0
 11
-50.34999416075365
 21
-5.40000123942335
 31
0.0
  0
LINE
  5
22F
330
5C
100
AcDbEntity
  8
0
  6
DASHED
 62
     0
100
AcDbLine
 10
-51.54999542236328
 20
-6.400001525878906
 30
0.0
 11
-51.54999542236328
 21
-13.16975402832031
 31
0.0
  0
LINE
  5
230
330
5C
100
AcDbEntity
  8
0
  6
DASHED
 62
     0
100
AcDbLine
 10
-51.54999387598526
 20
-13.16975296460415
 30
0.0
 11
-49.6831430188647
 21
-14.99999889990217
 31
0.0
  0
LINE
  5
231
330
5C
100
AcDbEntity
  8
0
  6
DASHED
 62
     0
100
AcDbLine
 10
-42.99999618530273
 20
-15.0
 30
0.0
 11
-49.68314361572266
 21
-15.0
 31
0.0
  0
LINE
  5
232
330
5C
100
AcDbEntity
  8
0
  6
DASHED
 62
     0
100
AcDbLine
 10
-42.99999618530273
 20
-15.0
 30
0.0
 11
-42.99999618530273
 21
-21.75
 31
0.0
  0
LINE
  5
233
330
5C
100
AcDbEntity
  8
0
  6
DASHED
 62
     0
100
AcDbLine
 10
-40.26933670043945
 20
-21.75
 30
0.0
 11
-42.99999618530273
 21
-21.75
 31
0.0
  0
LINE
  5
234
330
5C
100
AcDbEntity
  8
0
  6
DASHED
 62
     0
100
AcDbLine
 10
-40.26934009181461
 20
-21.75000249907734
 30
0.0
 11
-40.05124163728852
 21
-27.92945873368427
 31
0.0
  0
LINE
  5
235
330
5C
100
AcDbEntity
  8
0
  6
DASHED
 62
     0
100
AcDbLine
 10
40.26931347282607
 20
-21.74999965104741
 30
0.0
 11
40.05121501829998
 21
-27.92945588565433
 31
0.0
  0
LINE
  5
236
330
5C
100
AcDbEntity
  8
0
  6
DASHED
 62
     0
100
AcDbLine
 10
53.34997177124023
 20
0.0
 30
0.0
 11
53.34997177124023
 21
-3.200000762939453
 31
0.0
  0
LINE
  5
237
330
5C
100
AcDbEntity
  8
0
  6
DASHED
 62
     0
100
AcDbLine
 10
50.34997177124023
 20
-5.400001525878906
 30
0.0
 11
50.34997177124023
 21
-6.400001525878906
 31
0.0
  0
LINE
  5
238
330
5C
100
AcDbEntity
  8
0
  6
DASHED
 62
     0
100
AcDbLine
 10
52.54997253417969
 20
-3.200000762939453
 30
0.0
 11
53.34997177124023
 21
-3.200000762939453
 31
0.0
  0
LINE
  5
239
330
5C
100
AcDbEntity
  8
0
  6
DASHED
 62
     0
100
AcDbLine
 10
50.34997177124023
 20
-6.400001525878906
 30
0.0
 11
51.54997253417969
 21
-6.400001525878906
 31
0.0
  0
LINE
  5
23A
330
5C
100
AcDbEntity
  8
0
  6
DASHED
 62
     0
100
AcDbLine
 10
51.54997253417969
 20
-6.400001525878906
 30
0.0
 11
51.54997253417969
 21
-13.16975402832031
 31
0.0
  0
LINE
  5
23B
330
5C
100
AcDbEntity
  8
0
  6
DASHED
 62
     0
100
AcDbLine
 10
52.54997198757741
 20
-3.200001833413147
 30
0.0
 11
50.34997258156722
 21
-5.40000123942335
 31
0.0
  0
LINE
  5
23C
330
5C
100
AcDbEntity
  8
0
  6
DASHED
 62
     0
100
AcDbLine
 10
51.5499682653101
 20
-13.16975136226783
 30
0.0
 11
49.68311740818954
 21
-14.99999729756586
 31
0.0
  0
LINE
  5
23D
330
5C
100
AcDbEntity
  8
0
  6
DASHED
 62
     0
100
AcDbLine
 10
42.99997329711914
 20
-15.0
 30
0.0
 11
49.68312072753906
 21
-15.0
 31
0.0
  0
LINE
  5
23E
330
5C
100
AcDbEntity
  8
0
  6
DASHED
 62
     0
100
AcDbLine
 10
42.99997329711914
 20
-15.0
 30
0.0
 11
42.99997329711914
 21
-21.75
 31
0.0
  0
LINE
  5
23F
330
5C
100
AcDbEntity
  8
0
  6
DASHED
 62
     0
100
AcDbLine
 10
40.26931381225586
 20
-21.75
 30
0.0
 11
42.99997329711914
 21
-21.75
 31
0.0
  0
LINE
  5
240
330
5C
100
AcDbEntity
  8
0
  6
Continuous
 62
     0
100
AcDbLine
 10
-47.64999417212181
 20
-21.75000049478132
 30
0.0
 11
-46.49529304287731
 21
-23.75000148229347
 31
0.0
  0
LINE
  5
241
330
5C
100
AcDbEntity
  8
0
  6
Continuous
 62
     0
100
AcDbLine
 10
47.64996910516466
 20
-21.74999813565736
 30
0.0
 11
46.49526785671087
 21
-23.74999932964606
 31
0.0
  0
LINE
  5
242
330
5C
100
AcDbEntity
  8
0
  6
Continuous
 62
     0
100
AcDbLine
 10
55.59997177124023
 20
0.0
 30
0.0
 11
-55.59999465942383
 21
0.0
 31
0.0
  0
LINE
  5
243
330
5C
100
AcDbEntity
  8
0
  6
Continuous
 62
     0
100
AcDbLine
 10
55.59997177124023
 20
-12.0
 30
0.0
 11
-55.59999465942383
 21
-12.0
 31
0.0
  0
LINE
  5
244
330
5C
100
AcDbEntity
  8
0
  6
Continuous
 62
     0
100
AcDbLine
 10
47.64997100830078
 20
-20.75
 30
0.0
 11
-47.64999389648438
 21
-20.75
 31
0.0
  0
LINE
  5
245
330
5C
100
AcDbEntity
  8
0
  6
Continuous
 62
     0
100
AcDbLine
 10
46.49526977539062
 20
-23.75
 30
0.0
 11
-46.49529647827148
 21
-23.75
 31
0.0
  0
LINE
  5
246
330
5C
100
AcDbEntity
  8
0
  6
Continuous
 62
     0
100
AcDbLine
 10
42.04997253417969
 20
-28.0
 30
0.0
 11
-42.04999542236328
 21
-28.0
 31
0.0
  0
ENDBLK
  5
5E
330
5C
100
AcDbEntity
  8
0
100
AcDbBlockEnd
  0
BLOCK
  5
60
330
5F
100
AcDbEntity
  8
0
100
AcDbBlockBegin
  2
DTL0010
 70
     0
 10
0.0
 20
0.0
 30
0.0
  3
DTL0010
  1

  0
POINT
  5
247
330
5F
100
AcDbEntity
  8
0
 62
     0
100
AcDbPoint
 10
0.0
 20
0.0
 30
0.0
  0
LINE
  5
248
330
5F
100
AcDbEntity
  8
0
  6
CENTER
 62
     0
100
AcDbLine
 10
0.0
 20
2.692085266113281
 30
0.0
 11
0.0
 21
-35.56118392944336
 31
0.0
  0
LINE
  5
249
330
5F
100
AcDbEntity
  8
0
  6
Continuous
 62
     0
100
AcDbLine
 10
45.70000081392995
 20
0.000003619404248
 30
0.0
 11
45.1756418139774
 21
-20.97435762925793
 31
0.0
  0
LINE
  5
24A
330
5F
100
AcDbEntity
  8
0
  6
DASHED
 62
     0
100
AcDbLine
 10
40.85000228881836
 20
-3.349998474121094
 30
0.0
 11
43.10000228881836
 21
-3.349998474121094
 31
0.0
  0
LINE
  5
24B
330
5F
100
AcDbEntity
  8
0
  6
DASHED
 62
     0
100
AcDbLine
 10
35.89999800493885
 20
-10.99999693729029
 30
0.0
 11
35.34999794684595
 21
-33.69999995782491
 31
0.0
  0
LINE
  5
24C
330
5F
100
AcDbEntity
  8
0
  6
DASHED
 62
     0
100
AcDbLine
 10
38.62613677978516
 20
-13.0
 30
0.0
 11
42.44211196899414
 21
-13.0
 31
0.0
  0
LINE
  5
24D
330
5F
100
AcDbEntity
  8
0
  6
DASHED
 62
     0
100
AcDbLine
 10
37.62643101377422
 20
-13.97585265846085
 30
0.0
 11
37.43261111266091
 21
-21.99999666920543
 31
0.0
  0
LINE
  5
24E
330
5F
100
AcDbEntity
  8
0
  6
DASHED
 62
     0
100
AcDbLine
 10
37.25000090727065
 20
-11.00000032411248
 30
0.0
 11
37.36390630440858
 21
-7.962523006709222
 31
0.0
  0
LINE
  5
24F
330
5F
100
AcDbEntity
  8
0
  6
DASHED
 62
     0
100
AcDbLine
 10
39.10000093254127
 20
-6.999998027908489
 30
0.0
 11
38.90000086905287
 21
-12.99999966419037
 31
0.0
  0
LINE
  5
250
330
5F
100
AcDbEntity
  8
0
  6
DASHED
 62
     0
100
AcDbLine
 10
40.85000228881836
 20
-1.0
 30
0.0
 11
40.85000228881836
 21
-3.349998474121094
 31
0.0
  0
LINE
  5
251
330
5F
100
AcDbEntity
  8
0
  6
DASHED
 62
     0
100
AcDbLine
 10
43.09999978084475
 20
-3.349997764514081
 30
0.0
 11
43.69999984265009
 21
-21.99999815635259
 31
0.0
  0
LINE
  5
252
330
5F
100
AcDbEntity
  8
0
  6
DASHED
 62
     0
100
AcDbLine
 10
40.30000104046849
 20
-19.99999678417187
 30
0.0
 11
42.64999808823721
 21
-19.58562888809235
 31
0.0
  0
LINE
  5
253
330
5F
100
AcDbEntity
  8
0
  6
DASHED
 62
     0
100
AcDbLine
 10
40.30000305175781
 20
-20.0
 30
0.0
 11
40.30000305175781
 21
-21.99999618530273
 31
0.0
  0
LINE
  5
254
330
5F
100
AcDbEntity
  8
0
  6
DASHED
 62
     0
100
AcDbLine
 10
42.83493953476639
 20
-12.99999851905609
 30
0.0
 11
42.65000312224529
 21
-19.58562867457249
 31
0.0
  0
LINE
  5
255
330
5F
100
AcDbEntity
  8
0
  6
Continuous
 62
     0
100
AcDbLine
 10
44.15000283110174
 20
-21.99999961716396
 30
0.0
 11
45.17564331181374
 21
-20.97435904999693
 31
0.0
  0
LINE
  5
256
330
5F
100
AcDbEntity
  8
0
  6
Continuous
 62
     0
100
AcDbLine
 10
37.43261111266091
 20
-21.99999666920543
 30
0.0
 11
37.17415000379675
 21
-32.70028671573851
 31
0.0
  0
LINE
  5
257
330
5F
100
AcDbEntity
  8
0
  6
Continuous
 62
     0
100
AcDbLine
 10
37.17414547349964
 20
-32.7002916869529
 30
0.0
 11
36.1249463824463
 21
-33.70000011630909
 31
0.0
  0
LINE
  5
258
330
5F
100
AcDbEntity
  8
0
  6
Continuous
 62
     0
100
AcDbLine
 10
36.12495040893555
 20
-33.70000076293945
 30
0.0
 11
-36.12494659423828
 21
-33.70000076293945
 31
0.0
  0
LINE
  5
259
330
5F
100
AcDbEntity
  8
0
  6
Continuous
 62
     0
100
AcDbLine
 10
45.70000076293945
 20
0.0
 30
0.0
 11
-45.69999694824219
 21
0.0
 31
0.0
  0
LINE
  5
25A
330
5F
100
AcDbEntity
  8
0
  6
Continuous
 62
     0
100
AcDbLine
 10
44.15000152587891
 20
-21.99999618530273
 30
0.0
 11
-44.14999771118164
 21
-21.99999618530273
 31
0.0
  0
LINE
  5
25B
330
5F
100
AcDbEntity
  8
0
  6
Continuous
 62
     0
100
AcDbLine
 10
-45.70000074242673
 20
0.000000759274949
 30
0.0
 11
-45.1756418139774
 21
-20.97435762925793
 31
0.0
  0
LINE
  5
25C
330
5F
100
AcDbEntity
  8
0
  6
DASHED
 62
     0
100
AcDbLine
 10
-40.84999847412109
 20
-3.349998474121094
 30
0.0
 11
-43.09999847412109
 21
-3.349998474121094
 31
0.0
  0
LINE
  5
25D
330
5F
100
AcDbEntity
  8
0
  6
DASHED
 62
     0
100
AcDbLine
 10
42.18473815917969
 20
-7.0
 30
0.0
 11
-42.18473815917969
 21
-7.0
 31
0.0
  0
LINE
  5
25E
330
5F
100
AcDbEntity
  8
0
  6
DASHED
 62
     0
100
AcDbLine
 10
37.25
 20
-11.0
 30
0.0
 11
-37.25
 21
-11.0
 31
0.0
  0
LINE
  5
25F
330
5F
100
AcDbEntity
  8
0
  6
DASHED
 62
     0
100
AcDbLine
 10
-35.90000174921731
 20
-10.99999988987329
 30
0.0
 11
-35.350001760424
 21
-33.70000005022438
 31
0.0
  0
LINE
  5
260
330
5F
100
AcDbEntity
  8
0
  6
DASHED
 62
     0
100
AcDbLine
 10
-38.62613677978516
 20
-13.0
 30
0.0
 11
-42.44210815429688
 21
-13.0
 31
0.0
  0
LINE
  5
261
330
5F
100
AcDbEntity
  8
0
  6
DASHED
 62
     0
100
AcDbLine
 10
-37.62642722321819
 20
-13.97585161294905
 30
0.0
 11
-37.43260729907598
 21
-21.99999657708985
 31
0.0
  0
LINE
  5
262
330
5F
100
AcDbEntity
  8
0
  6
DASHED
 62
     0
100
AcDbLine
 10
-37.25000094300831
 20
-10.99999937110801
 30
0.0
 11
-37.36390617932675
 21
-7.962526342224869
 31
0.0
  0
LINE
  5
263
330
5F
100
AcDbEntity
  8
0
  6
DASHED
 62
     0
100
AcDbLine
 10
-39.10000086899827
 20
-6.999999934198367
 30
0.0
 11
-38.90000093259587
 21
-12.9999977579005
 31
0.0
  0
LINE
  5
264
330
5F
100
AcDbEntity
  8
0
  6
DASHED
 62
     0
100
AcDbLine
 10
-40.84999847412109
 20
-1.0
 30
0.0
 11
-40.84999847412109
 21
-3.349998474121094
 31
0.0
  0
LINE
  5
265
330
5F
100
AcDbEntity
  8
0
  6
DASHED
 62
     0
100
AcDbLine
 10
-43.09999982684278
 20
-3.349999194285833
 30
0.0
 11
-43.6999997813194
 21
-21.99999624999026
 31
0.0
  0
LINE
  5
266
330
5F
100
AcDbEntity
  8
0
  6
DASHED
 62
     0
100
AcDbLine
 10
-40.30000104046849
 20
-19.99999678417187
 30
0.0
 11
-42.64999808823721
 21
-19.58562888809235
 31
0.0
  0
LINE
  5
267
330
5F
100
AcDbEntity
  8
0
  6
DASHED
 62
     0
100
AcDbLine
 10
-40.29999923706055
 20
-20.0
 30
0.0
 11
-40.29999923706055
 21
-21.99999618530273
 31
0.0
  0
LINE
  5
268
330
5F
100
AcDbEntity
  8
0
  6
DASHED
 62
     0
100
AcDbLine
 10
-42.83493569480201
 20
-12.99999936527321
 30
0.0
 11
-42.64999930905125
 21
-19.5856285674911
 31
0.0
  0
LINE
  5
269
330
5F
100
AcDbEntity
  8
0
  6
Continuous
 62
     0
100
AcDbLine
 10
-44.15000283110174
 20
-21.99999961716396
 30
0.0
 11
-45.17564196311465
 21
-20.97436039869614
 31
0.0
  0
LINE
  5
26A
330
5F
100
AcDbEntity
  8
0
  6
Continuous
 62
     0
100
AcDbLine
 10
45.17564392089844
 20
-20.97435760498047
 30
0.0
 11
-45.17564010620117
 21
-20.97435760498047
 31
0.0
  0
LINE
  5
26B
330
5F
100
AcDbEntity
  8
0
  6
Continuous
 62
     0
100
AcDbLine
 10
-37.43260729907598
 20
-21.99999657708985
 30
0.0
 11
-37.17414609809624
 21
-32.70029043720785
 31
0.0
  0
LINE
  5
26C
330
5F
100
AcDbEntity
  8
0
  6
Continuous
 62
     0
100
AcDbLine
 10
-37.17414547349964
 20
-32.7002916869529
 30
0.0
 11
-36.12494655505552
 21
-33.69999995184184
 31
0.0
  0
LINE
  5
26D
330
5F
100
AcDbEntity
  8
0
  6
Continuous
 62
     0
100
AcDbLine
 10
37.17414855957031
 20
-32.70029067993164
 30
0.0
 11
-37.17414855957031
 21
-32.70029067993164
 31
0.0
  0
ARC
  5
26E
330
5F
100
AcDbEntity
  8
0
  6
DASHED
 62
     0
100
AcDbCircle
 10
38.36320495605469
 20
-8.0
 30
0.0
 40
1.0
100
AcDbArc
 50
90.00000250447816
 51
177.8524159489859
  0
ARC
  5
26F
330
5F
100
AcDbEntity
  8
0
  6
DASHED
 62
     0
100
AcDbCircle
 10
41.85000228881836
 20
-1.0
 30
0.0
 40
1.0
100
AcDbArc
 50
90.00000250447816
 51
180.0000050089563
  0
ARC
  5
270
330
5F
100
AcDbEntity
  8
0
  6
DASHED
 62
     0
100
AcDbCircle
 10
38.62613677978516
 20
-14.0
 30
0.0
 40
1.0
100
AcDbArc
 50
90.00000250447816
 51
178.6163179661385
  0
ARC
  5
271
330
5F
100
AcDbEntity
  8
0
  6
DASHED
 62
     0
100
AcDbCircle
 10
42.18473815917969
 20
-6.0
 30
0.0
 40
1.0
100
AcDbArc
 50
269.9999974955218
 51
1.842660387117087
  0
ARC
  5
272
330
5F
100
AcDbEntity
  8
0
  6
DASHED
 62
     0
100
AcDbCircle
 10
42.44211196899414
 20
-14.0
 30
0.0
 40
1.0
100
AcDbArc
 50
1.842660387117087
 51
90.00000250447816
  0
ARC
  5
273
330
5F
100
AcDbEntity
  8
0
  6
DASHED
 62
     0
100
AcDbCircle
 10
-38.36320114135742
 20
-8.0
 30
0.0
 40
1.0
100
AcDbArc
 50
2.147585431432433
 51
90.00000250447816
  0
ARC
  5
274
330
5F
100
AcDbEntity
  8
0
  6
DASHED
 62
     0
100
AcDbCircle
 10
-41.84999847412109
 20
-1.0
 30
0.0
 40
1.0
100
AcDbArc
 50
0.0
 51
90.00000250447816
  0
ARC
  5
275
330
5F
100
AcDbEntity
  8
0
  6
DASHED
 62
     0
100
AcDbCircle
 10
-38.62613677978516
 20
-14.0
 30
0.0
 40
1.0
100
AcDbArc
 50
1.383686936096157
 51
90.00000250447816
  0
ARC
  5
276
330
5F
100
AcDbEntity
  8
0
  6
DASHED
 62
     0
100
AcDbCircle
 10
-42.18473815917969
 20
-6.0
 30
0.0
 40
1.0
100
AcDbArc
 50
178.1573429142919
 51
270.0000006832453
  0
ARC
  5
277
330
5F
100
AcDbEntity
  8
0
  6
DASHED
 62
     0
100
AcDbCircle
 10
-42.44210815429688
 20
-14.0
 30
0.0
 40
1.0
100
AcDbArc
 50
90.00000250447816
 51
178.1573429142919
  0
ENDBLK
  5
61
330
5F
100
AcDbEntity
  8
0
100
AcDbBlockEnd
  0
BLOCK
  5
471
330
470
100
AcDbEntity
  8
0
100
AcDbBlockBegin
  2
_OPEN30
 70
     0
 10
0.0
 20
0.0
 30
0.0
  3
_OPEN30
  1

  0
LINE
  5
473
330
470
100
AcDbEntity
  8
0
  6
ByBlock
 62
     0
370
    -2
100
AcDbLine
 10
-1.0
 20
0.267949
 30
0.0
 11
0.0
 21
0.0
 31
0.0
  0
LINE
  5
474
330
470
100
AcDbEntity
  8
0
  6
ByBlock
 62
     0
370
    -2
100
AcDbLine
 10
0.0
 20
0.0
 30
0.0
 11
-1.0
 21
-0.267949
 31
0.0
  0
LINE
  5
475
330
470
100
AcDbEntity
  8
0
  6
ByBlock
 62
     0
370
    -2
100
AcDbLine
 10
0.0
 20
0.0
 30
0.0
 11
-1.0
 21
0.0
 31
0.0
  0
ENDBLK
  5
472
330
470
100
AcDbEntity
  8
0
100
AcDbBlockEnd
  0
BLOCK
  5
478
330
477
100
AcDbEntity
  8
0
100
AcDbBlockBegin
  2
*D12
 70
     1
 10
0.0
 20
0.0
 30
0.0
  3
*D12
  1

  0
LINE
  5
47A
330
477
100
AcDbEntity
  8
0
 62
     0
370
    -2
100
AcDbLine
 10
39.20825618516394
 20
-34.54252205292414
 30
0.0
 11
10.27590601285359
 21
-34.54252205292414
 31
0.0
  0
LINE
  5
47B
330
477
100
AcDbEntity
  8
0
 62
     0
370
    -2
100
AcDbLine
 10
29.68755292057991
 20
2.290812378128066
 30
0.0
 11
10.27590601285359
 21
2.290812378128066
 31
0.0
  0
LINE
  5
47C
330
477
100
AcDbEntity
  8
0
 62
     0
370
    -2
100
AcDbLine
 10
12.56190601285359
 20
-31.54252205292414
 30
0.0
 11
12.5619060128536
 21
-0.709187621871934
 31
0.0
  0
INSERT
  5
47D
330
477
100
AcDbEntity
  8
0
 62
     0
370
    -2
100
AcDbBlockReference
  2
_OPEN30
 10
12.56190601285359
 20
-34.54252205292414
 30
0.0
 41
3.0
 42
3.0
 43
3.0
 50
270.0
  0
INSERT
  5
47E
330
477
100
AcDbEntity
  8
0
 62
     0
370
    -2
100
AcDbBlockReference
  2
_OPEN30
 10
12.5619060128536
 20
2.290812378128066
 30
0.0
 41
3.0
 42
3.0
 43
3.0
 50
89.99999999999999
  0
MTEXT
  5
47F
330
477
100
AcDbEntity
  8
0
 62
     1
100
AcDbMText
 10
10.14110597678086
 20
-16.12485483739804
 30
0.0
 40
3.200000047683716
 41
0.0
 71
     5
 72
     1
  1
110.5
 11
1.929075243215232E-16
 21
1.0
 31
0.0
 73
     1
 44
1.0
  0
POINT
  5
480
330
477
100
AcDbEntity
  8
Defpoints
 62
     0
100
AcDbPoint
 10
41.74825618516394
 20
-34.54252205292414
 30
0.0
  0
POINT
  5
481
330
477
100
AcDbEntity
  8
Defpoints
 62
     0
100
AcDbPoint
 10
32.22755292057991
 20
2.290812378128066
 30
0.0
  0
POINT
  5
482
330
477
100
AcDbEntity
  8
Defpoints
 62
     0
100
AcDbPoint
 10
12.56090601285359
 20
2.29081237812807
 30
0.0
  0
ENDBLK
  5
479
330
477
100
AcDbEntity
  8
0
100
AcDbBlockEnd
  0
BLOCK
  5
485
330
484
100
AcDbEntity
  8
0
100
AcDbBlockBegin
  2
*D13
 70
     1
 10
0.0
 20
0.0
 30
0.0
  3
*D13
  1

  0
LINE
  5
487
330
484
100
AcDbEntity
  8
0
 62
     0
370
    -2
100
AcDbLine
 10
41.74825618516393
 20
-37.08252205292414
 30
0.0
 11
41.74825618516394
 21
-46.82752235094735
 31
0.0
  0
LINE
  5
488
330
484
100
AcDbEntity
  8
0
 62
     0
370
    -2
100
AcDbLine
 10
75.24828734667105
 20
-37.08252205292414
 30
0.0
 11
75.24828734667105
 21
-46.82752235094736
 31
0.0
  0
LINE
  5
489
330
484
100
AcDbEntity
  8
0
 62
     0
370
    -2
100
AcDbLine
 10
44.74825618516394
 20
-44.54152235094735
 30
0.0
 11
72.24828734667105
 21
-44.54152235094736
 31
0.0
  0
INSERT
  5
48A
330
484
100
AcDbEntity
  8
0
 62
     0
370
    -2
100
AcDbBlockReference
  2
_OPEN30
 10
41.74825618516394
 20
-44.54152235094735
 30
0.0
 41
3.0
 42
3.0
 43
3.0
 50
180.0
  0
INSERT
  5
48B
330
484
100
AcDbEntity
  8
0
 62
     0
370
    -2
100
AcDbBlockReference
  2
_OPEN30
 10
75.24828734667105
 20
-44.54152235094736
 30
0.0
 41
3.0
 42
3.0
 43
3.0
 50
360.0
  0
MTEXT
  5
48C
330
484
100
AcDbEntity
  8
0
 62
     1
100
AcDbMText
 10
58.49927176591748
 20
-42.12072231487463
 30
0.0
 40
3.200000047683716
 41
0.0
 71
     5
 72
     1
  1
100.5
 73
     1
 44
1.0
  0
POINT
  5
48D
330
484
100
AcDbEntity
  8
Defpoints
 62
     0
100
AcDbPoint
 10
41.74825618516393
 20
-34.54252205292414
 30
0.0
  0
POINT
  5
48E
330
484
100
AcDbEntity
  8
Defpoints
 62
     0
100
AcDbPoint
 10
75.24828734667105
 20
-34.54252205292414
 30
0.0
  0
POINT
  5
48F
330
484
100
AcDbEntity
  8
Defpoints
 62
     0
100
AcDbPoint
 10
75.24828734667105
 20
-44.54252235094736
 30
0.0
  0
ENDBLK
  5
486
330
484
100
AcDbEntity
  8
0
100
AcDbBlockEnd
  0
BLOCK
  5
492
330
491
100
AcDbEntity
  8
0
100
AcDbBlockBegin
  2
*D14
 70
     1
 10
0.0
 20
0.0
 30
0.0
  3
*D14
  1

  0
LINE
  5
494
330
491
100
AcDbEntity
  8
0
 62
     0
370
    -2
100
AcDbLine
 10
77.78828734667105
 20
-34.54252205292414
 30
0.0
 11
94.1802417105045
 21
-34.54252205292414
 31
0.0
  0
LINE
  5
495
330
491
100
AcDbEntity
  8
0
 62
     0
370
    -2
100
AcDbLine
 10
84.26755439579486
 20
-9.209187964598641
 30
0.0
 11
94.1802417105045
 21
-9.209187964598641
 31
0.0
  0
LINE
  5
496
330
491
100
AcDbEntity
  8
0
 62
     0
370
    -2
100
AcDbLine
 10
91.8942417105045
 20
-31.54252205292414
 30
0.0
 11
91.8942417105045
 21
-12.20918796459864
 31
0.0
  0
INSERT
  5
497
330
491
100
AcDbEntity
  8
0
 62
     0
370
    -2
100
AcDbBlockReference
  2
_OPEN30
 10
91.8942417105045
 20
-34.54252205292414
 30
0.0
 41
3.0
 42
3.0
 43
3.0
 50
270.0
  0
INSERT
  5
498
330
491
100
AcDbEntity
  8
0
 62
     0
370
    -2
100
AcDbBlockReference
  2
_OPEN30
 10
91.8942417105045
 20
-9.209187964598641
 30
0.0
 41
3.0
 42
3.0
 43
3.0
 50
90.0
  0
MTEXT
  5
499
330
491
100
AcDbEntity
  8
0
 62
     1
100
AcDbMText
 10
89.47984167452714
 20
-21.87485500876139
 30
0.0
 40
3.200000047683716
 41
0.0
 71
     5
 72
     1
  1
76
 11
0.0
 21
1.0
 31
0.0
 73
     1
 44
1.0
  0
POINT
  5
49A
330
491
100
AcDbEntity
  8
Defpoints
 62
     0
100
AcDbPoint
 10
75.24828734667105
 20
-34.54252205292414
 30
0.0
  0
POINT
  5
49B
330
491
100
AcDbEntity
  8
Defpoints
 62
     0
100
AcDbPoint
 10
81.72755439579485
 20
-9.209187964598641
 30
0.0
  0
POINT
  5
49C
330
491
100
AcDbEntity
  8
Defpoints
 62
     0
100
AcDbPoint
 10
91.8942417105045
 20
-9.209187964598645
 30
0.0
  0
ENDBLK
  5
493
330
491
100
AcDbEntity
  8
0
100
AcDbBlockEnd
  0
BLOCK
  5
49F
330
49E
100
AcDbEntity
  8
0
100
AcDbBlockBegin
  2
*D15
 70
     1
 10
0.0
 20
0.0
 30
0.0
  3
*D15
  1

  0
LINE
  5
4A1
330
49E
100
AcDbEntity
  8
0
 62
     0
370
    -2
100
AcDbLine
 10
32.2275732656326
 20
4.997504481077645
 30
0.0
 11
32.2275732656326
 21
23.07682310199738
 31
0.0
  0
LINE
  5
4A2
330
49E
100
AcDbEntity
  8
0
 62
     0
370
    -2
100
AcDbLine
 10
79.39424133797547
 20
-6.669182878335474
 30
0.0
 11
79.39424133797547
 21
23.07682310199737
 31
0.0
  0
LINE
  5
4A3
330
49E
100
AcDbEntity
  8
0
 62
     0
370
    -2
100
AcDbLine
 10
35.2275732656326
 20
20.79082310199738
 30
0.0
 11
76.39424133797547
 21
20.79082310199737
 31
0.0
  0
INSERT
  5
4A4
330
49E
100
AcDbEntity
  8
0
 62
     0
370
    -2
100
AcDbBlockReference
  2
_OPEN30
 10
32.2275732656326
 20
20.79082310199738
 30
0.0
 41
3.0
 42
3.0
 43
3.0
 50
180.0
  0
INSERT
  5
4A5
330
49E
100
AcDbEntity
  8
0
 62
     0
370
    -2
100
AcDbBlockReference
  2
_OPEN30
 10
79.39424133797547
 20
20.79082310199737
 30
0.0
 41
3.0
 42
3.0
 43
3.0
 50
360.0
  0
MTEXT
  5
4A6
330
49E
100
AcDbEntity
  8
0
 62
     1
100
AcDbMText
 10
55.81190730180403
 20
23.21162313807011
 30
0.0
 40
3.200000047683716
 41
0.0
 71
     5
 72
     1
  1
141.5
 73
     1
 44
1.0
  0
POINT
  5
4A7
330
49E
100
AcDbEntity
  8
Defpoints
 62
     0
100
AcDbPoint
 10
32.2275732656326
 20
2.457504481077645
 30
0.0
  0
POINT
  5
4A8
330
49E
100
AcDbEntity
  8
Defpoints
 62
     0
100
AcDbPoint
 10
79.39424133797547
 20
-9.209182878335474
 30
0.0
  0
POINT
  5
4A9
330
49E
100
AcDbEntity
  8
Defpoints
 62
     0
100
AcDbPoint
 10
79.39424133797547
 20
20.79082310199738
 30
0.0
  0
ENDBLK
  5
4A0
330
49E
100
AcDbEntity
  8
0
100
AcDbBlockEnd
  0
BLOCK
  5
4AC
330
4AB
100
AcDbEntity
  8
0
100
AcDbBlockBegin
  2
*D16
 70
     1
 10
0.0
 20
0.0
 30
0.0
  3
*D16
  1

  0
LINE
  5
4AE
330
4AB
100
AcDbEntity
  8
0
 62
     0
370
    -2
100
AcDbLine
 10
81.89424141248128
 20
-2.002516072591303
 30
0.0
 11
81.89424141248128
 21
33.0768234000206
 31
0.0
  0
LINE
  5
4AF
330
4AB
100
AcDbEntity
  8
0
 62
     0
370
    -2
100
AcDbLine
 10
22.56090631087682
 20
13.3308126314478
 30
0.0
 11
22.56090631087682
 21
33.0768234000206
 31
0.0
  0
LINE
  5
4B0
330
4AB
100
AcDbEntity
  8
0
 62
     0
370
    -2
100
AcDbLine
 10
78.89424141248128
 20
30.7908234000206
 30
0.0
 11
25.56090631087682
 21
30.7908234000206
 31
0.0
  0
INSERT
  5
4B1
330
4AB
100
AcDbEntity
  8
0
 62
     0
370
    -2
100
AcDbBlockReference
  2
_OPEN30
 10
81.89424141248128
 20
30.7908234000206
 30
0.0
 41
3.0
 42
3.0
 43
3.0
  0
INSERT
  5
4B2
330
4AB
100
AcDbEntity
  8
0
 62
     0
370
    -2
100
AcDbBlockReference
  2
_OPEN30
 10
22.56090631087682
 20
30.7908234000206
 30
0.0
 41
3.0
 42
3.0
 43
3.0
 50
180.0
  0
MTEXT
  5
4B3
330
4AB
100
AcDbEntity
  8
0
 62
     1
100
AcDbMText
 10
52.22957386167904
 20
33.20522343599796
 30
0.0
 40
3.200000047683716
 41
0.0
 71
     5
 72
     1
  1
178
 73
     1
 44
1.0
  0
POINT
  5
4B4
330
4AB
100
AcDbEntity
  8
Defpoints
 62
     0
100
AcDbPoint
 10
81.89424141248128
 20
-4.542516072591303
 30
0.0
  0
POINT
  5
4B5
330
4AB
100
AcDbEntity
  8
Defpoints
 62
     0
100
AcDbPoint
 10
22.56090631087682
 20
10.7908126314478
 30
0.0
  0
POINT
  5
4B6
330
4AB
100
AcDbEntity
  8
Defpoints
 62
     0
100
AcDbPoint
 10
22.56090631087682
 20
30.7908234000206
 30
0.0
  0
ENDBLK
  5
4AD
330
4AB
100
AcDbEntity
  8
0
100
AcDbBlockEnd
  0
BLOCK
  5
4B9
330
4B8
100
AcDbEntity
  8
0
100
AcDbBlockBegin
  2
*D17
 70
     1
 10
0.0
 20
0.0
 30
0.0
  3
*D17
  1

  0
LINE
  5
4BB
330
4B8
100
AcDbEntity
  8
0
 62
     0
370
    -2
100
AcDbLine
 10
-57.27244974672795
 20
13.33082280397415
 30
0.0
 11
-57.27244974672795
 21
23.07682310199738
 31
0.0
  0
LINE
  5
4BC
330
4B8
100
AcDbEntity
  8
0
 62
     0
370
    -2
100
AcDbLine
 10
5.727552130818367
 20
13.33082280397415
 30
0.0
 11
5.727552130818367
 21
23.07682310199737
 31
0.0
  0
LINE
  5
4BD
330
4B8
100
AcDbEntity
  8
0
 62
     0
370
    -2
100
AcDbLine
 10
-54.27244974672795
 20
20.79082310199738
 30
0.0
 11
2.727552130818367
 21
20.79082310199737
 31
0.0
  0
INSERT
  5
4BE
330
4B8
100
AcDbEntity
  8
0
 62
     0
370
    -2
100
AcDbBlockReference
  2
_OPEN30
 10
-57.27244974672795
 20
20.79082310199738
 30
0.0
 41
3.0
 42
3.0
 43
3.0
 50
180.0
  0
INSERT
  5
4BF
330
4B8
100
AcDbEntity
  8
0
 62
     0
370
    -2
100
AcDbBlockReference
  2
_OPEN30
 10
5.727552130818367
 20
20.79082310199737
 30
0.0
 41
3.0
 42
3.0
 43
3.0
 50
360.0
  0
MTEXT
  5
4C0
330
4B8
100
AcDbEntity
  8
0
 62
     1
100
AcDbMText
 10
-25.77144880795479
 20
23.20522313797474
 30
0.0
 40
3.200000047683716
 41
0.0
 71
     5
 72
     1
  1
189
 73
     1
 44
1.0
  0
POINT
  5
4C1
330
4B8
100
AcDbEntity
  8
Defpoints
 62
     0
100
AcDbPoint
 10
-57.27244974672795
 20
10.79082280397415
 30
0.0
  0
POINT
  5
4C2
330
4B8
100
AcDbEntity
  8
Defpoints
 62
     0
100
AcDbPoint
 10
5.727552130818367
 20
10.79082280397415
 30
0.0
  0
POINT
  5
4C3
330
4B8
100
AcDbEntity
  8
Defpoints
 62
     0
100
AcDbPoint
 10
5.727552130818369
 20
20.79082310199738
 30
0.0
  0
ENDBLK
  5
4BA
330
4B8
100
AcDbEntity
  8
0
100
AcDbBlockEnd
  0
BLOCK
  5
4C6
330
4C5
100
AcDbEntity
  8
0
100
AcDbBlockBegin
  2
*D18
 70
     1
 10
0.0
 20
0.0
 30
0.0
  3
*D18
  1

  0
LINE
  5
4C8
330
4C5
100
AcDbEntity
  8
0
 62
     0
370
    -2
100
AcDbLine
 10
-43.53992728911275
 20
-58.54251259565353
 30
0.0
 11
-69.55745004475116
 21
-58.54251259565352
 31
0.0
  0
LINE
  5
4C9
330
4C5
100
AcDbEntity
  8
0
 62
     0
370
    -2
100
AcDbLine
 10
-67.27145004475116
 20
-66.90918672184169
 30
0.0
 11
-67.27145004475116
 21
-61.54251259565352
 31
0.0
  0
INSERT
  5
4CA
330
4C5
100
AcDbEntity
  8
0
 62
     0
370
    -2
100
AcDbBlockReference
  2
_OPEN30
 10
-67.27145004475116
 20
-69.90918672184169
 30
0.0
 41
3.0
 42
3.0
 43
3.0
 50
270.0
  0
INSERT
  5
4CB
330
4C5
100
AcDbEntity
  8
0
 62
     0
370
    -2
100
AcDbBlockReference
  2
_OPEN30
 10
-67.27145004475116
 20
-58.54251259565352
 30
0.0
 41
3.0
 42
3.0
 43
3.0
 50
90.0
  0
MTEXT
  5
4CC
330
4C5
100
AcDbEntity
  8
0
 62
     1
100
AcDbMText
 10
-69.68585008072853
 20
-64.22484965874762
 30
0.0
 40
3.200000047683716
 41
0.0
 71
     5
 72
     1
  1
34
 11
0.0
 21
1.0
 31
0.0
 73
     1
 44
1.0
  0
POINT
  5
4CD
330
4C5
100
AcDbEntity
  8
Defpoints
 62
     0
100
AcDbPoint
 10
-37.8140954884384
 20
-69.9091867218417
 30
0.0
  0
POINT
  5
4CE
330
4C5
100
AcDbEntity
  8
Defpoints
 62
     0
100
AcDbPoint
 10
-40.99992728911275
 20
-58.54251259565353
 30
0.0
  0
POINT
  5
4CF
330
4C5
100
AcDbEntity
  8
Defpoints
 62
     0
100
AcDbPoint
 10
-67.27245004475117
 20
-58.54251259565352
 30
0.0
  0
ENDBLK
  5
4C7
330
4C5
100
AcDbEntity
  8
0
100
AcDbBlockEnd
  0
BLOCK
  5
4D2
330
4D1
100
AcDbEntity
  8
0
100
AcDbBlockBegin
  2
*D19
 70
     1
 10
0.0
 20
0.0
 30
0.0
  3
*D19
  1

  0
LINE
  5
4D4
330
4D1
100
AcDbEntity
  8
0
 62
     0
370
    -2
100
AcDbLine
 10
-46.8399151804288
 20
-52.88142729815586
 30
0.0
 11
-69.55745004475116
 21
-52.88142729815586
 31
0.0
  0
LINE
  5
4D5
330
4D1
100
AcDbEntity
  8
0
 62
     0
370
    -2
100
AcDbLine
 10
-67.27145004475116
 20
-58.54251259565352
 30
0.0
 11
-67.27145004475116
 21
-52.88142729815586
 31
0.0
  0
LINE
  5
4D6
330
4D1
100
AcDbEntity
  8
0
 62
     0
370
    -2
100
AcDbLine
 10
-67.27145004475116
 20
-61.54251259565352
 30
0.0
 11
-67.27145004475116
 21
-64.54251259565352
 31
0.0
  0
LINE
  5
4D7
330
4D1
100
AcDbEntity
  8
0
 62
     0
370
    -2
100
AcDbLine
 10
-67.27145004475116
 20
-49.88142729815586
 30
0.0
 11
-67.27145004475116
 21
-46.88142729815586
 31
0.0
  0
INSERT
  5
4D8
330
4D1
100
AcDbEntity
  8
0
 62
     0
370
    -2
100
AcDbBlockReference
  2
_OPEN30
 10
-67.27145004475116
 20
-58.54251259565352
 30
0.0
 41
3.0
 42
3.0
 43
3.0
 50
90.0
  0
INSERT
  5
4D9
330
4D1
100
AcDbEntity
  8
0
 62
     0
370
    -2
100
AcDbBlockReference
  2
_OPEN30
 10
-67.27145004475116
 20
-52.88142729815586
 30
0.0
 41
3.0
 42
3.0
 43
3.0
 50
270.0
  0
MTEXT
  5
4DA
330
4D1
100
AcDbEntity
  8
0
 62
     1
100
AcDbMText
 10
-69.67625008058548
 20
-55.7109699469047
 30
0.0
 40
3.200000047683716
 41
0.0
 71
     5
 72
     1
  1
17
 11
0.0
 21
1.0
 31
0.0
 73
     1
 44
1.0
  0
POINT
  5
4DB
330
4D1
100
AcDbEntity
  8
Defpoints
 62
     0
100
AcDbPoint
 10
-40.99992728911275
 20
-58.54251259565353
 30
0.0
  0
POINT
  5
4DC
330
4D1
100
AcDbEntity
  8
Defpoints
 62
     0
100
AcDbPoint
 10
-44.2999151804288
 20
-52.88142729815586
 30
0.0
  0
POINT
  5
4DD
330
4D1
100
AcDbEntity
  8
Defpoints
 62
     0
100
AcDbPoint
 10
-67.27245004475117
 20
-52.88142729815586
 30
0.0
  0
ENDBLK
  5
4D3
330
4D1
100
AcDbEntity
  8
0
100
AcDbBlockEnd
  0
BLOCK
  5
4E0
330
4DF
100
AcDbEntity
  8
0
100
AcDbBlockBegin
  2
*D20
 70
     1
 10
0.0
 20
0.0
 30
0.0
  3
*D20
  1

  0
LINE
  5
4E2
330
4DF
100
AcDbEntity
  8
0
 62
     0
370
    -2
100
AcDbLine
 10
-67.27145004475118
 20
-49.88142729815586
 30
0.0
 11
-67.27145004475116
 21
7.790822803974155
 31
0.0
  0
INSERT
  5
4E3
330
4DF
100
AcDbEntity
  8
0
 62
     0
370
    -2
100
AcDbBlockReference
  2
_OPEN30
 10
-67.27145004475118
 20
-52.88142729815586
 30
0.0
 41
3.0
 42
3.0
 43
3.0
 50
270.0
  0
INSERT
  5
4E4
330
4DF
100
AcDbEntity
  8
0
 62
     0
370
    -2
100
AcDbBlockReference
  2
_OPEN30
 10
-67.27145004475116
 20
10.79082280397416
 30
0.0
 41
3.0
 42
3.0
 43
3.0
 50
89.99999999999999
  0
MTEXT
  5
4E5
330
4DF
100
AcDbEntity
  8
0
 62
     1
100
AcDbMText
 10
-69.68585008072853
 20
-21.04430224709086
 30
0.0
 40
3.200000047683716
 41
0.0
 71
     5
 72
     1
  1
191
 11
2.231875690337291E-16
 21
1.0
 31
0.0
 73
     1
 44
1.0
  0
POINT
  5
4E6
330
4DF
100
AcDbEntity
  8
Defpoints
 62
     0
100
AcDbPoint
 10
-44.2999151804288
 20
-52.88142729815586
 30
0.0
  0
POINT
  5
4E7
330
4DF
100
AcDbEntity
  8
Defpoints
 62
     0
100
AcDbPoint
 10
-57.27244974672794
 20
10.79082280397415
 30
0.0
  0
POINT
  5
4E8
330
4DF
100
AcDbEntity
  8
Defpoints
 62
     0
100
AcDbPoint
 10
-67.27245004475117
 20
10.79082280397415
 30
0.0
  0
ENDBLK
  5
4E1
330
4DF
100
AcDbEntity
  8
0
100
AcDbBlockEnd
  0
BLOCK
  5
4EB
330
4EA
100
AcDbEntity
  8
0
100
AcDbBlockBegin
  2
*D21
 70
     1
 10
0.0
 20
0.0
 30
0.0
  3
*D21
  1

  0
LINE
  5
4ED
330
4EA
100
AcDbEntity
  8
0
 62
     0
370
    -2
100
AcDbLine
 10
-59.81244974672794
 20
10.79082280397415
 30
0.0
 11
-79.5564503427744
 21
10.79082280397414
 31
0.0
  0
LINE
  5
4EE
330
4EA
100
AcDbEntity
  8
0
 62
     0
370
    -2
100
AcDbLine
 10
-40.3540954884384
 20
-69.9091867218417
 30
0.0
 11
-79.55645034277437
 21
-69.90918672184173
 31
0.0
  0
LINE
  5
4EF
330
4EA
100
AcDbEntity
  8
0
 62
     0
370
    -2
100
AcDbLine
 10
-77.2704503427744
 20
7.790822803974141
 30
0.0
 11
-77.27045034277437
 21
-66.90918672184173
 31
0.0
  0
INSERT
  5
4F0
330
4EA
100
AcDbEntity
  8
0
 62
     0
370
    -2
100
AcDbBlockReference
  2
_OPEN30
 10
-77.2704503427744
 20
10.79082280397414
 30
0.0
 41
3.0
 42
3.0
 43
3.0
 50
90.00000000000001
  0
INSERT
  5
4F1
330
4EA
100
AcDbEntity
  8
0
 62
     0
370
    -2
100
AcDbBlockReference
  2
_OPEN30
 10
-77.27045034277437
 20
-69.90918672184173
 30
0.0
 41
3.0
 42
3.0
 43
3.0
 50
270.0
  0
MTEXT
  5
4F2
330
4EA
100
AcDbEntity
  8
0
 62
     1
100
AcDbMText
 10
-79.68485037875175
 20
-29.55818195893378
 30
0.0
 40
3.200000047683716
 41
0.0
 71
     5
 72
     1
  1
242
 11
-3.521896663631983E-16
 21
1.0
 31
0.0
 73
     1
 44
1.0
  0
POINT
  5
4F3
330
4EA
100
AcDbEntity
  8
Defpoints
 62
     0
100
AcDbPoint
 10
-57.27244974672794
 20
10.79082280397415
 30
0.0
  0
POINT
  5
4F4
330
4EA
100
AcDbEntity
  8
Defpoints
 62
     0
100
AcDbPoint
 10
-37.8140954884384
 20
-69.9091867218417
 30
0.0
  0
POINT
  5
4F5
330
4EA
100
AcDbEntity
  8
Defpoints
 62
     0
100
AcDbPoint
 10
-77.27245034277439
 20
-69.90918672184172
 30
0.0
  0
ENDBLK
  5
4EC
330
4EA
100
AcDbEntity
  8
0
100
AcDbBlockEnd
  0
BLOCK
  5
4F8
330
4F7
100
AcDbEntity
  8
0
100
AcDbBlockBegin
  2
*D22
 70
     1
 10
0.0
 20
0.0
 30
0.0
  3
*D22
  1

  0
LINE
  5
4FA
330
4F7
100
AcDbEntity
  8
0
 62
     0
370
    -2
100
AcDbLine
 10
-38.15577897737737
 20
-72.44918672184171
 30
0.0
 11
-38.15577897737737
 21
-82.19418701986493
 31
0.0
  0
LINE
  5
4FB
330
4F7
100
AcDbEntity
  8
0
 62
     0
370
    -2
100
AcDbLine
 10
-13.38911247050032
 20
-72.44918672184171
 30
0.0
 11
-13.38911247050032
 21
-82.19418701986493
 31
0.0
  0
LINE
  5
4FC
330
4F7
100
AcDbEntity
  8
0
 62
     0
370
    -2
100
AcDbLine
 10
-35.15577897737737
 20
-79.90818701986493
 30
0.0
 11
-16.38911247050032
 21
-79.90818701986493
 31
0.0
  0
INSERT
  5
4FD
330
4F7
100
AcDbEntity
  8
0
 62
     0
370
    -2
100
AcDbBlockReference
  2
_OPEN30
 10
-38.15577897737737
 20
-79.90818701986493
 30
0.0
 41
3.0
 42
3.0
 43
3.0
 50
180.0
  0
INSERT
  5
4FE
330
4F7
100
AcDbEntity
  8
0
 62
     0
370
    -2
100
AcDbBlockReference
  2
_OPEN30
 10
-13.38911247050032
 20
-79.90818701986493
 30
0.0
 41
3.0
 42
3.0
 43
3.0
  0
MTEXT
  5
4FF
330
4F7
100
AcDbEntity
  8
0
 62
     1
100
AcDbMText
 10
-25.77144880795479
 20
-77.49378698388756
 30
0.0
 40
3.200000047683716
 41
0.0
 71
     5
 72
     1
  1
\U+220574
 73
     1
 44
1.0
  0
POINT
  5
500
330
4F7
100
AcDbEntity
  8
Defpoints
 62
     0
100
AcDbPoint
 10
-38.15577897737737
 20
-69.9091867218417
 30
0.0
  0
POINT
  5
501
330
4F7
100
AcDbEntity
  8
Defpoints
 62
     0
100
AcDbPoint
 10
-13.38911247050032
 20
-69.9091867218417
 30
0.0
  0
POINT
  5
502
330
4F7
100
AcDbEntity
  8
Defpoints
 62
     0
100
AcDbPoint
 10
-13.38911247050032
 20
-79.90918701986493
 30
0.0
  0
ENDBLK
  5
4F9
330
4F7
100
AcDbEntity
  8
0
100
AcDbBlockEnd
  0
BLOCK
  5
505
330
504
100
AcDbEntity
  8
0
100
AcDbBlockBegin
  2
*D23
 70
     1
 10
0.0
 20
0.0
 30
0.0
  3
*D23
  1

  0
LINE
  5
507
330
504
100
AcDbEntity
  8
0
 62
     0
370
    -2
100
AcDbLine
 10
-40.82244213040445
 20
-68.54918253660212
 30
0.0
 11
-40.82244213040445
 21
-92.19418731788815
 31
0.0
  0
LINE
  5
508
330
504
100
AcDbEntity
  8
0
 62
     0
370
    -2
100
AcDbLine
 10
-10.72244114673964
 20
-68.54918253660212
 30
0.0
 11
-10.72244114673964
 21
-92.19418731788815
 31
0.0
  0
LINE
  5
509
330
504
100
AcDbEntity
  8
0
 62
     0
370
    -2
100
AcDbLine
 10
-37.82244213040445
 20
-89.90818731788815
 30
0.0
 11
-13.72244114673964
 21
-89.90818731788815
 31
0.0
  0
INSERT
  5
50A
330
504
100
AcDbEntity
  8
0
 62
     0
370
    -2
100
AcDbBlockReference
  2
_OPEN30
 10
-40.82244213040445
 20
-89.90818731788815
 30
0.0
 41
3.0
 42
3.0
 43
3.0
 50
180.0
  0
INSERT
  5
50B
330
504
100
AcDbEntity
  8
0
 62
     0
370
    -2
100
AcDbBlockReference
  2
_OPEN30
 10
-10.72244114673964
 20
-89.90818731788815
 30
0.0
 41
3.0
 42
3.0
 43
3.0
  0
MTEXT
  5
50C
330
504
100
AcDbEntity
  8
0
 62
     1
100
AcDbMText
 10
-25.77144880795479
 20
-87.49378728191078
 30
0.0
 40
3.200000047683716
 41
0.0
 71
     5
 72
     1
  1
\U+220590
 73
     1
 44
1.0
  0
POINT
  5
50D
330
504
100
AcDbEntity
  8
Defpoints
 62
     0
100
AcDbPoint
 10
-40.82244213040445
 20
-66.00918253660211
 30
0.0
  0
POINT
  5
50E
330
504
100
AcDbEntity
  8
Defpoints
 62
     0
100
AcDbPoint
 10
-10.72244114673964
 20
-66.00918253660211
 30
0.0
  0
POINT
  5
50F
330
504
100
AcDbEntity
  8
Defpoints
 62
     0
100
AcDbPoint
 10
-10.72244114673964
 20
-89.90918731788815
 30
0.0
  0
ENDBLK
  5
506
330
504
100
AcDbEntity
  8
0
100
AcDbBlockEnd
  0
BLOCK
  5
512
330
511
100
AcDbEntity
  8
0
100
AcDbBlockBegin
  2
*D24
 70
     1
 10
0.0
 20
0.0
 30
0.0
  3
*D24
  1

  0
LINE
  5
514
330
511
100
AcDbEntity
  8
0
 62
     0
370
    -2
100
AcDbLine
 10
-44.2999151804288
 20
-59.00567944456638
 30
0.0
 11
-44.29991518042881
 21
-102.1941876159114
 31
0.0
  0
LINE
  5
515
330
511
100
AcDbEntity
  8
0
 62
     0
370
    -2
100
AcDbLine
 10
-7.24498243548078
 20
-59.00567944456638
 30
0.0
 11
-7.24498243548079
 21
-102.1941876159114
 31
0.0
  0
LINE
  5
516
330
511
100
AcDbEntity
  8
0
 62
     0
370
    -2
100
AcDbLine
 10
-41.29991518042881
 20
-99.90818761591137
 30
0.0
 11
-10.24498243548079
 21
-99.90818761591137
 31
0.0
  0
INSERT
  5
517
330
511
100
AcDbEntity
  8
0
 62
     0
370
    -2
100
AcDbBlockReference
  2
_OPEN30
 10
-44.29991518042881
 20
-99.90818761591137
 30
0.0
 41
3.0
 42
3.0
 43
3.0
 50
180.0
  0
INSERT
  5
518
330
511
100
AcDbEntity
  8
0
 62
     0
370
    -2
100
AcDbBlockReference
  2
_OPEN30
 10
-7.244982435480789
 20
-99.90818761591137
 30
0.0
 41
3.0
 42
3.0
 43
3.0
  0
MTEXT
  5
519
330
511
100
AcDbEntity
  8
0
 62
     1
100
AcDbMText
 10
-25.77144880795479
 20
-97.50818758014859
 30
0.0
 40
3.200000047683716
 41
0.0
 71
     5
 72
     1
  1
111
 73
     1
 44
1.0
  0
POINT
  5
51A
330
511
100
AcDbEntity
  8
Defpoints
 62
     0
100
AcDbPoint
 10
-44.2999151804288
 20
-56.46567944456638
 30
0.0
  0
POINT
  5
51B
330
511
100
AcDbEntity
  8
Defpoints
 62
     0
100
AcDbPoint
 10
-7.244982435480779
 20
-56.46567944456638
 30
0.0
  0
POINT
  5
51C
330
511
100
AcDbEntity
  8
Defpoints
 62
     0
100
AcDbPoint
 10
-7.244982435480784
 20
-99.90918761591138
 30
0.0
  0
ENDBLK
  5
513
330
511
100
AcDbEntity
  8
0
100
AcDbBlockEnd
  0
BLOCK
  5
51F
330
51E
100
AcDbEntity
  8
0
100
AcDbBlockBegin
  2
*D25
 70
     1
 10
0.0
 20
0.0
 30
0.0
  3
*D25
  1

  0
LINE
  5
521
330
51E
100
AcDbEntity
  8
0
 62
     0
370
    -2
100
AcDbLine
 10
42.96091098785472
 20
-59.13582166035899
 30
0.0
 11
42.96091098785472
 21
-82.19418701986493
 31
0.0
  0
LINE
  5
522
330
51E
100
AcDbEntity
  8
0
 62
     0
370
    -2
100
AcDbLine
 10
76.82758069833199
 20
-59.13584200541167
 30
0.0
 11
76.82758069833199
 21
-82.19418701986493
 31
0.0
  0
LINE
  5
523
330
51E
100
AcDbEntity
  8
0
 62
     0
370
    -2
100
AcDbLine
 10
45.96091098785472
 20
-79.90818701986493
 30
0.0
 11
73.82758069833199
 21
-79.90818701986493
 31
0.0
  0
INSERT
  5
524
330
51E
100
AcDbEntity
  8
0
 62
     0
370
    -2
100
AcDbBlockReference
  2
_OPEN30
 10
42.96091098785472
 20
-79.90818701986493
 30
0.0
 41
3.0
 42
3.0
 43
3.0
 50
180.0
  0
INSERT
  5
525
330
51E
100
AcDbEntity
  8
0
 62
     0
370
    -2
100
AcDbBlockReference
  2
_OPEN30
 10
76.82758069833199
 20
-79.90818701986493
 30
0.0
 41
3.0
 42
3.0
 43
3.0
  0
MTEXT
  5
526
330
51E
100
AcDbEntity
  8
0
 62
     1
100
AcDbMText
 10
59.89524584309336
 20
-77.49378698388756
 30
0.0
 40
3.200000047683716
 41
0.0
 71
     5
 72
     1
  1
102
 73
     1
 44
1.0
  0
POINT
  5
527
330
51E
100
AcDbEntity
  8
Defpoints
 62
     0
100
AcDbPoint
 10
42.96091098785472
 20
-56.59582166035899
 30
0.0
  0
POINT
  5
528
330
51E
100
AcDbEntity
  8
Defpoints
 62
     0
100
AcDbPoint
 10
76.82758069833199
 20
-56.59584200541168
 30
0.0
  0
POINT
  5
529
330
51E
100
AcDbEntity
  8
Defpoints
 62
     0
100
AcDbPoint
 10
76.82758069833197
 20
-79.90918701986493
 30
0.0
  0
ENDBLK
  5
520
330
51E
100
AcDbEntity
  8
0
100
AcDbBlockEnd
  0
BLOCK
  5
52C
330
52B
100
AcDbEntity
  8
0
100
AcDbBlockBegin
  2
*D26
 70
     1
 10
0.0
 20
0.0
 30
0.0
  3
*D26
  1

  0
LINE
  5
52E
330
52B
100
AcDbEntity
  8
0
 62
     0
370
    -2
100
AcDbLine
 10
-55.83912043968849
 20
103.3308254861832
 30
0.0
 11
-55.83912043968849
 21
115.0768258438111
 31
0.0
  0
LINE
  5
52F
330
52B
100
AcDbEntity
  8
0
 62
     0
370
    -2
100
AcDbLine
 10
4.29422282377891
 20
103.3308254861832
 30
0.0
 11
4.29422282377891
 21
115.0768258438111
 31
0.0
  0
LINE
  5
530
330
52B
100
AcDbEntity
  8
0
 62
     0
370
    -2
100
AcDbLine
 10
-52.83912043968849
 20
112.7908258438111
 30
0.0
 11
1.29422282377891
 21
112.7908258438111
 31
0.0
  0
INSERT
  5
531
330
52B
100
AcDbEntity
  8
0
 62
     0
370
    -2
100
AcDbBlockReference
  2
_OPEN30
 10
-55.83912043968849
 20
112.7908258438111
 30
0.0
 41
3.0
 42
3.0
 43
3.0
 50
180.0
  0
INSERT
  5
532
330
52B
100
AcDbEntity
  8
0
 62
     0
370
    -2
100
AcDbBlockReference
  2
_OPEN30
 10
4.29422282377891
 20
112.7908258438111
 30
0.0
 41
3.0
 42
3.0
 43
3.0
 50
360.0
  0
MTEXT
  5
533
330
52B
100
AcDbEntity
  8
0
 62
     1
100
AcDbMText
 10
-25.77144880795479
 20
115.2052258797884
 30
0.0
 40
3.200000047683716
 41
0.0
 71
     5
 72
     1
  1
180
 73
     1
 44
1.0
  0
POINT
  5
534
330
52B
100
AcDbEntity
  8
Defpoints
 62
     0
100
AcDbPoint
 10
-55.83912043968849
 20
100.7908254861832
 30
0.0
  0
POINT
  5
535
330
52B
100
AcDbEntity
  8
Defpoints
 62
     0
100
AcDbPoint
 10
4.29422282377891
 20
100.7908254861832
 30
0.0
  0
POINT
  5
536
330
52B
100
AcDbEntity
  8
Defpoints
 62
     0
100
AcDbPoint
 10
4.294222823778911
 20
112.7908258438111
 30
0.0
  0
ENDBLK
  5
52D
330
52B
100
AcDbEntity
  8
0
100
AcDbBlockEnd
  0
BLOCK
  5
539
330
538
100
AcDbEntity
  8
0
100
AcDbBlockBegin
  2
*D27
 70
     1
 10
0.0
 20
0.0
 30
0.0
  3
*D27
  1

  0
LINE
  5
53B
330
538
100
AcDbEntity
  8
0
 62
     0
370
    -2
100
AcDbLine
 10
-57.14578300058842
 20
43.45749044418336
 30
0.0
 11
-69.55745004475118
 21
43.45749044418337
 31
0.0
  0
LINE
  5
53C
330
538
100
AcDbEntity
  8
0
 62
     0
370
    -2
100
AcDbLine
 10
-56.37912038008384
 20
102.7908255457878
 30
0.0
 11
-69.55745004475116
 21
102.7908255457879
 31
0.0
  0
LINE
  5
53D
330
538
100
AcDbEntity
  8
0
 62
     0
370
    -2
100
AcDbLine
 10
-67.27145004475118
 20
46.45749044418337
 30
0.0
 11
-67.27145004475116
 21
99.79082554578785
 31
0.0
  0
INSERT
  5
53E
330
538
100
AcDbEntity
  8
0
 62
     0
370
    -2
100
AcDbBlockReference
  2
_OPEN30
 10
-67.27145004475118
 20
43.45749044418337
 30
0.0
 41
3.0
 42
3.0
 43
3.0
 50
270.0
  0
INSERT
  5
53F
330
538
100
AcDbEntity
  8
0
 62
     0
370
    -2
100
AcDbBlockReference
  2
_OPEN30
 10
-67.27145004475116
 20
102.7908255457879
 30
0.0
 41
3.0
 42
3.0
 43
3.0
 50
89.99999999999999
  0
MTEXT
  5
540
330
538
100
AcDbEntity
  8
0
 62
     1
100
AcDbMText
 10
-69.68585008072853
 20
73.1251579949856
 30
0.0
 40
3.200000047683716
 41
0.0
 71
     5
 72
     1
  1
178
 11
2.395087801969473E-16
 21
1.0
 31
0.0
 73
     1
 44
1.0
  0
POINT
  5
541
330
538
100
AcDbEntity
  8
Defpoints
 62
     0
100
AcDbPoint
 10
-54.60578300058842
 20
43.45749044418336
 30
0.0
  0
POINT
  5
542
330
538
100
AcDbEntity
  8
Defpoints
 62
     0
100
AcDbPoint
 10
-53.83912038008384
 20
102.7908255457878
 30
0.0
  0
POINT
  5
543
330
538
100
AcDbEntity
  8
Defpoints
 62
     0
100
AcDbPoint
 10
-67.27245004475117
 20
102.7908255457878
 30
0.0
  0
ENDBLK
  5
53A
330
538
100
AcDbEntity
  8
0
100
AcDbBlockEnd
  0
ENDSEC
  0
SECTION
  2
ENTITIES
  0
LINE
  5
278
330
1F
100
AcDbEntity
  8
0
  6
Continuous
 62
     7
100
AcDbLine
 10
-55.80489497480131
 20
-4.54251098632813
 30
0.0
 11
-55.80489497480131
 21
-5.875844359397894
 31
0.0
  0
LINE
  5
279
330
1F
100
AcDbEntity
  8
0
  6
Continuous
 62
     7
100
AcDbLine
 10
-54.43866873779552
 20
-9.209177792072296
 30
0.0
 11
-54.07356150849
 21
-9.209177792072296
 31
0.0
  0
LINE
  5
27A
330
1F
100
AcDbEntity
  8
0
  6
Continuous
 62
     7
100
AcDbLine
 10
-55.13822752398224
 20
-5.875844694194704
 30
0.0
 11
-54.93745030108822
 21
-8.744090649848292
 31
0.0
  0
LINE
  5
27B
330
1F
100
AcDbEntity
  8
0
  6
Continuous
 62
     7
100
AcDbLine
 10
-54.49643407828008
 20
-4.542511005017955
 30
0.0
 11
-54.28947122631491
 21
-7.49912308761947
 31
0.0
  0
LINE
  5
27C
330
1F
100
AcDbEntity
  8
0
  6
Continuous
 62
     7
100
AcDbLine
 10
-53.95694875273603
 20
-7.809178767601678
 30
0.0
 11
-53.3353921342773
 21
-7.809178767601678
 31
0.0
  0
LINE
  5
27D
330
1F
100
AcDbEntity
  8
0
  6
Continuous
 62
     7
100
AcDbLine
 10
-46.74559905051638
 20
-49.54262168209083
 30
0.0
 11
-41.07346956832271
 21
-49.54262168209083
 31
0.0
  0
LINE
  5
27E
330
1F
100
AcDbEntity
  8
0
  6
Continuous
 62
     7
100
AcDbLine
 10
-55.83912043968849
 20
-5.875844359397887
 30
0.0
 11
-55.13822828826642
 21
-5.875844359397887
 31
0.0
  0
LINE
  5
27F
330
1F
100
AcDbEntity
  8
0
  6
Continuous
 62
     7
100
AcDbLine
 10
-16.77244853973389
 20
-17.87584471702576
 30
0.0
 11
-25.77244880795479
 21
-17.87584471702576
 31
0.0
  0
LINE
  5
280
330
1F
100
AcDbEntity
  8
0
  6
Continuous
 62
     7
100
AcDbLine
 10
-16.77244853973389
 20
-17.87584471702576
 30
0.0
 11
-16.77244853973389
 21
-48.54251229763032
 31
0.0
  0
LINE
  5
281
330
1F
100
AcDbEntity
  8
0
  6
Continuous
 62
     7
100
AcDbLine
 10
-16.77244853973389
 20
-25.5425116121769
 30
0.0
 11
-25.77244880795479
 21
-25.5425116121769
 31
0.0
  0
LINE
  5
282
330
1F
100
AcDbEntity
  8
0
  6
Continuous
 62
     7
100
AcDbLine
 10
2.594312055711434
 20
57.82786164275838
 30
0.0
 11
2.494312526922037
 21
57.62415982944636
 31
0.0
  0
LINE
  5
283
330
1F
100
AcDbEntity
  8
0
  6
Continuous
 62
     7
100
AcDbLine
 10
2.494311271113929
 20
57.62415753304958
 30
0.0
 11
2.494311271113929
 21
56.95749084651469
 31
0.0
  0
LINE
  5
284
330
1F
100
AcDbEntity
  8
0
  6
Continuous
 62
     7
100
AcDbLine
 10
2.494311271113929
 20
56.95749084651471
 30
0.0
 11
2.594312291346796
 21
56.95749084651471
 31
0.0
  0
LINE
  5
285
330
1F
100
AcDbEntity
  8
0
  6
Continuous
 62
     7
100
AcDbLine
 10
2.594312291346796
 20
56.49452900003508
 30
0.0
 11
3.999565425674518
 21
56.49452900003508
 31
0.0
  0
LINE
  5
286
330
1F
100
AcDbEntity
  8
0
  6
Continuous
 62
     7
100
AcDbLine
 10
-9.215405167410355
 20
50.02960821055845
 30
0.0
 11
-9.92830859462052
 21
54.87295837064889
 31
0.0
  0
LINE
  5
287
330
1F
100
AcDbEntity
  8
0
  6
Continuous
 62
     7
100
AcDbLine
 10
-11.59909070057192
 20
52.64213071183487
 30
0.0
 11
-12.43998488374287
 21
57.83653873496576
 31
0.0
  0
LINE
  5
288
330
1F
100
AcDbEntity
  8
0
  6
Continuous
 62
     7
100
AcDbLine
 10
-9.928311316034247
 20
54.87295711191543
 30
0.0
 11
-12.43998923633404
 21
57.8365393376371
 31
0.0
  0
LINE
  5
289
330
1F
100
AcDbEntity
  8
0
  6
Continuous
 62
     7
100
AcDbLine
 10
-25.77244880795479
 20
57.83653953807698
 30
0.0
 11
-12.43998991452281
 21
57.83653953807698
 31
0.0
  0
LINE
  5
28A
330
1F
100
AcDbEntity
  8
0
  6
Continuous
 62
     7
100
AcDbLine
 10
-4.936959994604265
 20
55.26809566314263
 30
0.0
 11
-9.86676676334774
 21
64.72941169019306
 31
0.0
  0
LINE
  5
28B
330
1F
100
AcDbEntity
  8
0
  6
Continuous
 62
     7
100
AcDbLine
 10
-2.290009518987638
 20
57.8601335364026
 30
0.0
 11
-8.181281866055933
 21
66.2298054245349
 31
0.0
  0
LINE
  5
28C
330
1F
100
AcDbEntity
  8
0
  6
Continuous
 62
     7
100
AcDbLine
 10
-0.520336938300957
 20
48.78784168917635
 30
0.0
 11
-4.731079194608327
 21
54.87295644807794
 31
0.0
  0
LINE
  5
28D
330
1F
100
AcDbEntity
  8
0
  6
Continuous
 62
     7
100
AcDbLine
 10
1.199869169872361
 20
52.82228133176002
 30
0.0
 11
-2.064410407903601
 21
57.53962440972958
 31
0.0
  0
LINE
  5
28E
330
1F
100
AcDbEntity
  8
0
  6
Continuous
 62
     7
100
AcDbLine
 10
-5.045834827623366
 20
54.87295709298451
 30
0.0
 11
-9.92831177977314
 21
54.87295709298451
 31
0.0
  0
LINE
  5
28F
330
1F
100
AcDbEntity
  8
0
  6
Continuous
 62
     7
100
AcDbLine
 10
-8.272448286414146
 20
101.7190532563596
 30
0.0
 11
-6.605781570076942
 21
101.7190532563596
 31
0.0
  0
LINE
  5
290
330
1F
100
AcDbEntity
  8
0
  6
Continuous
 62
     7
100
AcDbLine
 10
1.627556077639383
 20
97.79082539677623
 30
0.0
 11
2.627556107441706
 21
97.79082539677623
 31
0.0
  0
LINE
  5
291
330
1F
100
AcDbEntity
  8
0
  6
Continuous
 62
     7
100
AcDbLine
 10
2.960890080917077
 20
94.45749010010748
 30
0.0
 11
2.627556655493722
 21
96.45749053179395
 31
0.0
  0
LINE
  5
292
330
1F
100
AcDbEntity
  8
0
  6
Continuous
 62
     7
100
AcDbLine
 10
1.62755162670188
 20
96.45749581458179
 30
0.0
 11
1.527550157960484
 21
96.62416322999633
 31
0.0
  0
LINE
  5
293
330
1F
100
AcDbEntity
  8
0
  6
Continuous
 62
     7
100
AcDbLine
 10
1.527555057406516
 20
96.62415869534016
 30
0.0
 11
1.527555057406516
 21
97.29082538187504
 31
0.0
  0
LINE
  5
294
330
1F
100
AcDbEntity
  8
0
  6
Continuous
 62
     7
100
AcDbLine
 10
1.527555057406516
 20
97.29082538187507
 30
0.0
 11
1.627556077639383
 21
97.29082538187507
 31
0.0
  0
LINE
  5
295
330
1F
100
AcDbEntity
  8
0
  6
Continuous
 62
     7
100
AcDbLine
 10
1.627556077639383
 20
96.45749202370644
 30
0.0
 11
1.627556077639383
 21
100.6523875751564
 31
0.0
  0
LINE
  5
296
330
1F
100
AcDbEntity
  8
0
  6
Continuous
 62
     7
100
AcDbLine
 10
2.627556107441706
 20
96.45749202370644
 30
0.0
 11
2.627556107441706
 21
100.6241588145494
 31
0.0
  0
LINE
  5
297
330
1F
100
AcDbEntity
  8
0
  6
Continuous
 62
     7
100
AcDbLine
 10
2.960889450709146
 20
94.45749196410179
 30
0.0
 11
2.960889450709146
 21
100.6241588145494
 31
0.0
  0
LINE
  5
298
330
1F
100
AcDbEntity
  8
0
  6
Continuous
 62
     7
100
AcDbLine
 10
-2.064409771322062
 20
97.84895121231057
 30
0.0
 11
-2.064409771322062
 21
57.8543821492858
 31
0.0
  0
LINE
  5
299
330
1F
100
AcDbEntity
  8
0
  6
Continuous
 62
     7
100
AcDbLine
 10
-9.405784705281349
 20
96.45749202370646
 30
0.0
 11
-25.77244880795479
 21
96.45749202370646
 31
0.0
  0
LINE
  5
29A
330
1F
100
AcDbEntity
  8
0
  6
Continuous
 62
     7
100
AcDbLine
 10
-8.505785695711893
 20
66.69082345267134
 30
0.0
 11
-8.505785695711893
 21
95.55749301413698
 31
0.0
  0
LINE
  5
29B
330
1F
100
AcDbEntity
  8
0
  6
Continuous
 62
     7
100
AcDbLine
 10
-10.07245139181623
 20
65.124157756567
 30
0.0
 11
-25.77244880795479
 21
65.124157756567
 31
0.0
  0
LINE
  5
29C
330
1F
100
AcDbEntity
  8
0
  6
CENTER
 62
     7
100
AcDbLine
 10
1.601738205776201
 20
80.79082489013672
 30
0.0
 11
-25.77244880795479
 21
80.79082489013672
 31
0.0
  0
LINE
  5
29D
330
1F
100
AcDbEntity
  8
0
  6
Continuous
 62
     7
100
AcDbLine
 10
-25.77244880795479
 20
57.83653953807698
 30
0.0
 11
-39.10490770138676
 21
57.83653953807698
 31
0.0
  0
LINE
  5
29E
330
1F
100
AcDbEntity
  8
0
  6
Continuous
 62
     7
100
AcDbLine
 10
78.08575337060336
 20
-50.52674365622883
 30
0.0
 11
76.8275804890551
 21
-52.87585768245939
 31
0.0
  0
LINE
  5
29F
330
1F
100
AcDbEntity
  8
0
  6
Continuous
 62
     7
100
AcDbLine
 10
36.26254820883307
 20
-50.5456616832297
 30
0.0
 11
42.96091160827927
 21
-52.87585613720822
 31
0.0
  0
LINE
  5
2A0
330
1F
100
AcDbEntity
  8
0
  6
Continuous
 62
     7
100
AcDbLine
 10
-16.77244853973389
 20
-33.20917850732803
 30
0.0
 11
-25.77244880795479
 21
-33.20917850732803
 31
0.0
  0
LINE
  5
2A1
330
1F
100
AcDbEntity
  8
0
  6
Continuous
 62
     7
100
AcDbLine
 10
-16.77244853973389
 20
-40.87584540247917
 30
0.0
 11
-25.77244880795479
 21
-40.87584540247917
 31
0.0
  0
LINE
  5
2A2
330
1F
100
AcDbEntity
  8
0
  6
Continuous
 62
     7
100
AcDbLine
 10
-44.05368108445418
 20
-52.4016650014357
 30
0.0
 11
-45.29642726307997
 21
-51.72560729307173
 31
0.0
  0
LINE
  5
2A3
330
1F
100
AcDbEntity
  8
0
  6
Continuous
 62
     7
100
AcDbLine
 10
-50.64135576304639
 20
-46.62494557607977
 30
0.0
 11
-54.04791261078878
 21
2.457482675024408
 31
0.0
  0
LINE
  5
2A4
330
1F
100
AcDbEntity
  8
0
  6
Continuous
 62
     7
100
AcDbLine
 10
-22.77244871854782
 20
-17.87584471702576
 30
0.0
 11
-22.77244871854782
 21
-48.54251229763032
 31
0.0
  0
LINE
  5
2A5
330
1F
100
AcDbEntity
  8
0
  6
Continuous
 62
     7
100
AcDbLine
 10
-49.48048784458752
 20
97.84895121231057
 30
0.0
 11
-49.48048784458752
 21
57.8543821492858
 31
0.0
  0
LINE
  5
2A6
330
1F
100
AcDbEntity
  8
0
  6
Continuous
 62
     7
100
AcDbLine
 10
-39.9458049432632
 20
52.64213128309032
 30
0.0
 11
-39.10491076009225
 21
57.83653930622121
 31
0.0
  0
LINE
  5
2A7
330
1F
100
AcDbEntity
  8
0
  6
Continuous
 62
     7
100
AcDbLine
 10
-49.25488686908201
 20
57.86013037641359
 30
0.0
 11
-43.36361525391635
 21
66.22980122473912
 31
0.0
  0
LINE
  5
2A8
330
1F
100
AcDbEntity
  8
0
  6
Continuous
 62
     7
100
AcDbLine
 10
-46.60793668319686
 20
55.26809465183597
 30
0.0
 11
-41.67812962066785
 21
64.72941124272144
 31
0.0
  0
LINE
  5
2A9
330
1F
100
AcDbEntity
  8
0
  6
Continuous
 62
     7
100
AcDbLine
 10
-41.6165860441382
 20
54.87295728717593
 30
0.0
 11
-39.10490812383841
 21
57.83653951289759
 31
0.0
  0
LINE
  5
2AA
330
1F
100
AcDbEntity
  8
0
  6
Continuous
 62
     7
100
AcDbLine
 10
-53.17245369354896
 20
97.79082539677623
 30
0.0
 11
-54.17245372335128
 21
97.79082539677623
 31
0.0
  0
LINE
  5
2AB
330
1F
100
AcDbEntity
  8
0
  6
Continuous
 62
     7
100
AcDbLine
 10
-53.0724526733161
 20
96.62415869534016
 30
0.0
 11
-53.0724526733161
 21
97.29082538187504
 31
0.0
  0
LINE
  5
2AC
330
1F
100
AcDbEntity
  8
0
  6
Continuous
 62
     7
100
AcDbLine
 10
-53.17245013318262
 20
96.45749379022172
 30
0.0
 11
-53.07244866444123
 21
96.62416120563626
 31
0.0
  0
LINE
  5
2AD
330
1F
100
AcDbEntity
  8
0
  6
Continuous
 62
     7
100
AcDbLine
 10
-54.03920888702351
 20
57.62415753304958
 30
0.0
 11
-54.03920888702351
 21
56.95749084651469
 31
0.0
  0
LINE
  5
2AE
330
1F
100
AcDbEntity
  8
0
  6
Continuous
 62
     7
100
AcDbLine
 10
-0.733202456258368
 20
93.70131721825874
 30
0.0
 11
-0.733202456258368
 21
68.6448691245132
 31
0.0
  0
LINE
  5
2AF
330
1F
100
AcDbEntity
  8
0
  6
Continuous
 62
     7
100
AcDbLine
 10
1.531374841049001
 20
57.28655172871732
 30
0.0
 11
0.863111067877981
 21
57.28655172871732
 31
0.0
  0
LINE
  5
2B0
330
1F
100
AcDbEntity
  8
0
  6
Continuous
 62
     7
100
AcDbLine
 10
-0.640662984099436
 20
67.31153575144344
 30
0.0
 11
-0.50181817201883
 21
67.31153575144344
 31
0.0
  0
LINE
  5
2B1
330
1F
100
AcDbEntity
  8
0
  6
Continuous
 62
     7
100
AcDbLine
 10
0.747429098284556
 20
98.01129456024773
 30
0.0
 11
0.747429098284556
 21
100.290825471282
 31
0.0
  0
LINE
  5
2B2
330
1F
100
AcDbEntity
  8
0
  6
Continuous
 62
     7
100
AcDbLine
 10
-54.17245372335129
 20
96.45749202370644
 30
0.0
 11
-54.17245372335129
 21
100.6241588145494
 31
0.0
  0
LINE
  5
2B3
330
1F
100
AcDbEntity
  8
0
  6
Continuous
 62
     7
100
AcDbLine
 10
1.441480225739724
 20
56.55749693810959
 30
0.0
 11
2.109754171437089
 21
56.55749693810959
 31
0.0
  0
LINE
  5
2B4
330
1F
100
AcDbEntity
  8
0
  6
Continuous
 62
     7
100
AcDbLine
 10
-0.564248110249316
 20
96.35784970603424
 30
0.0
 11
0.74743976357145
 21
98.0113059800749
 31
0.0
  0
LINE
  5
2B5
330
1F
100
AcDbEntity
  8
0
  6
Continuous
 62
     7
100
AcDbLine
 10
0.799363591104933
 20
60.71297117228222
 30
0.0
 11
0.863084452929826
 21
57.28655902994602
 31
0.0
  0
LINE
  5
2B6
330
1F
100
AcDbEntity
  8
0
  6
Continuous
 62
     7
100
AcDbLine
 10
0.027600789071585
 20
67.31153575144344
 30
0.0
 11
0.166445601152191
 21
67.31153575144344
 31
0.0
  0
LINE
  5
2B7
330
1F
100
AcDbEntity
  8
0
  6
Continuous
 62
     7
100
AcDbLine
 10
-0.064928510561003
 20
93.70131721825874
 30
0.0
 11
-0.064928510561003
 21
68.6448691245132
 31
0.0
  0
LINE
  5
2B8
330
1F
100
AcDbEntity
  8
0
  6
Continuous
 62
     7
100
AcDbLine
 10
0.104023753060744
 20
96.35784963201357
 30
0.0
 11
1.41571162688151
 21
98.01130590605422
 31
0.0
  0
LINE
  5
2B9
330
1F
100
AcDbEntity
  8
0
  6
Continuous
 62
     7
100
AcDbLine
 10
1.415703043981921
 20
98.01129456024773
 30
0.0
 11
1.415703043981921
 21
100.290825471282
 31
0.0
  0
LINE
  5
2BA
330
1F
100
AcDbEntity
  8
0
  6
Continuous
 62
     7
100
AcDbLine
 10
1.441480225739724
 20
53.12415739893914
 30
0.0
 11
2.109754171437089
 21
53.12415739893914
 31
0.0
  0
LINE
  5
2BB
330
1F
100
AcDbEntity
  8
0
  6
Continuous
 62
     7
100
AcDbLine
 10
1.441480225739724
 20
56.55749693810957
 30
0.0
 11
1.441480225739724
 21
53.12415739893913
 31
0.0
  0
LINE
  5
2BC
330
1F
100
AcDbEntity
  8
0
  6
Continuous
 62
     7
100
AcDbLine
 10
0.863105128258045
 20
57.28658526288432
 30
0.0
 11
1.441477824129468
 21
56.55751397861851
 31
0.0
  0
LINE
  5
2BD
330
1F
100
AcDbEntity
  8
0
  6
Continuous
 62
     7
100
AcDbLine
 10
-15.1057675519918
 20
49.46766154201747
 30
0.0
 11
-16.34424551934201
 21
52.15188090376295
 31
0.0
  0
LINE
  5
2BE
330
1F
100
AcDbEntity
  8
0
  6
Continuous
 62
     7
100
AcDbLine
 10
-13.10577518946319
 20
49.46766703577114
 30
0.0
 11
-14.99351893353566
 21
52.15188546396785
 31
0.0
  0
LINE
  5
2BF
330
1F
100
AcDbEntity
  8
0
  6
Continuous
 62
     7
100
AcDbLine
 10
-14.9944435225525
 20
52.15188767595283
 30
0.0
 11
-16.34422587072186
 21
52.15188767595283
 31
0.0
  0
LINE
  5
2C0
330
1F
100
AcDbEntity
  8
0
  6
Continuous
 62
     7
100
AcDbLine
 10
-11.59909696764955
 20
52.64213233755606
 30
0.0
 11
-9.215408489855406
 21
50.02960730717594
 31
0.0
  0
LINE
  5
2C1
330
1F
100
AcDbEntity
  8
0
  6
Continuous
 62
     7
100
AcDbLine
 10
-25.77244880795479
 20
43.45749044418336
 30
0.0
 11
-54.60578300058842
 21
43.45749044418336
 31
0.0
  0
LINE
  5
2C2
330
1F
100
AcDbEntity
  8
0
  6
Continuous
 62
     7
100
AcDbLine
 10
-25.77244880795479
 20
102.7908255457878
 30
0.0
 11
-53.83912038008384
 21
102.7908255457878
 31
0.0
  0
LINE
  5
2C3
330
1F
100
AcDbEntity
  8
0
  6
Continuous
 62
     7
100
AcDbLine
 10
-25.77244880795479
 20
101.9574921876192
 30
0.0
 11
-52.83912035028152
 21
101.9574921876192
 31
0.0
  0
LINE
  5
2C4
330
1F
100
AcDbEntity
  8
0
  6
Continuous
 62
     7
100
AcDbLine
 10
-56.08852026808472
 20
59.45749092102051
 30
0.0
 11
-57.55172628499895
 21
59.45749092102051
 31
0.0
  0
LINE
  5
2C5
330
1F
100
AcDbEntity
  8
0
  6
CENTER
 62
     7
100
AcDbLine
 10
-25.77244880795479
 20
41.79082372784615
 30
0.0
 11
-25.77244880795479
 21
104.457492262125
 31
0.0
  0
LINE
  5
2C6
330
1F
100
AcDbEntity
  8
0
  6
Continuous
 62
     7
100
AcDbLine
 10
-57.31989919829856
 20
46.17535465179753
 30
0.0
 11
-57.55173991837415
 21
59.45750131946613
 31
0.0
  0
LINE
  5
2C7
330
1F
100
AcDbEntity
  8
0
  6
Continuous
 62
     7
100
AcDbLine
 10
-56.08852026808473
 20
46.13612008130439
 30
0.0
 11
-56.08852026808473
 21
59.4574909210205
 31
0.0
  0
LINE
  5
2C8
330
1F
100
AcDbEntity
  8
0
  6
Continuous
 62
     7
100
AcDbLine
 10
-54.13920990725637
 20
57.82786237310484
 30
0.0
 11
-55.54446304158409
 21
57.82786237310484
 31
0.0
  0
LINE
  5
2C9
330
1F
100
AcDbEntity
  8
0
  6
Continuous
 62
     7
100
AcDbLine
 10
1.627556077639383
 20
96.45749202370646
 30
0.0
 11
2.627556107441706
 21
96.45749202370646
 31
0.0
  0
LINE
  5
2CA
330
1F
100
AcDbEntity
  8
0
  6
Continuous
 62
     7
100
AcDbLine
 10
-6.605781570076942
 20
100.9857209184238
 30
0.0
 11
-6.605781570076942
 21
101.9574921876192
 31
0.0
  0
LINE
  5
2CB
330
1F
100
AcDbEntity
  8
0
  6
Continuous
 62
     7
100
AcDbLine
 10
-52.47254319091917
 20
47.54692741501641
 30
0.0
 11
-25.77244880795479
 21
47.54692741501641
 31
0.0
  0
LINE
  5
2CC
330
1F
100
AcDbEntity
  8
0
  6
Continuous
 62
     7
100
AcDbLine
 10
-53.87779632524689
 20
45.54692735541176
 30
0.0
 11
-25.77244880795479
 21
45.54692735541176
 31
0.0
  0
LINE
  5
2CD
330
1F
100
AcDbEntity
  8
0
  6
Continuous
 62
     7
100
AcDbLine
 10
-54.42185355174752
 20
44.4694533649672
 30
0.0
 11
-25.77244880795479
 21
44.4694533649672
 31
0.0
  0
LINE
  5
2CE
330
1F
100
AcDbEntity
  8
0
  6
Continuous
 62
     7
100
AcDbLine
 10
-8.272448286414146
 20
100.9857209184238
 30
0.0
 11
-8.272448286414146
 21
101.9574921876192
 31
0.0
  0
LINE
  5
2CF
330
1F
100
AcDbEntity
  8
0
  6
Continuous
 62
     7
100
AcDbLine
 10
-38.43911585211754
 20
49.46766314934212
 30
0.0
 11
-36.43911579251289
 21
49.46766314934212
 31
0.0
  0
LINE
  5
2D0
330
1F
100
AcDbEntity
  8
0
  6
Continuous
 62
     7
100
AcDbLine
 10
-25.77244880795479
 20
100.9857209184238
 30
0.0
 11
1.294222734371942
 21
100.9857209184238
 31
0.0
  0
LINE
  5
2D1
330
1F
100
AcDbEntity
  8
0
  6
Continuous
 62
     7
100
AcDbLine
 10
2.960889450709146
 20
94.45749196410182
 30
0.0
 11
4.193758953597353
 21
94.45749196410182
 31
0.0
  0
LINE
  5
2D2
330
1F
100
AcDbEntity
  8
0
  6
Continuous
 62
     7
100
AcDbLine
 10
-52.74476671612193
 20
52.82228131552166
 30
0.0
 11
-49.48048713834597
 21
57.53962439349123
 31
0.0
  0
LINE
  5
2D3
330
1F
100
AcDbEntity
  8
0
  6
Continuous
 62
     7
100
AcDbLine
 10
1.531370535974578
 20
57.28656073858926
 30
0.0
 11
2.109743231846
 21
56.55748945432344
 31
0.0
  0
LINE
  5
2D4
330
1F
100
AcDbEntity
  8
0
  6
Continuous
 62
     7
100
AcDbLine
 10
2.121310161364818
 20
53.12415739893914
 30
0.0
 11
2.503044384980967
 21
53.12415739893914
 31
0.0
  0
LINE
  5
2D5
330
1F
100
AcDbEntity
  8
0
  6
Continuous
 62
     7
100
AcDbLine
 10
1.471828964344416
 20
60.48751062834731
 30
0.0
 11
1.531356803720026
 21
57.28656660778247
 31
0.0
  0
LINE
  5
2D6
330
1F
100
AcDbEntity
  8
0
  6
Continuous
 62
     7
100
AcDbLine
 10
1.467636178326879
 20
60.712966036659
 30
0.0
 11
1.531356803720026
 21
57.28656660778247
 31
0.0
  0
LINE
  5
2D7
330
1F
100
AcDbEntity
  8
0
  6
Continuous
 62
     7
100
AcDbLine
 10
0.504311403435391
 20
61.9272911332321
 30
0.0
 11
1.467656865798205
 21
60.71294004361454
 31
0.0
  0
LINE
  5
2D8
330
1F
100
AcDbEntity
  8
0
  6
Continuous
 62
     7
100
AcDbLine
 10
-36.55045409335708
 20
52.15188767595283
 30
0.0
 11
-35.20067174518772
 21
52.15188767595283
 31
0.0
  0
LINE
  5
2D9
330
1F
100
AcDbEntity
  8
0
  6
Continuous
 62
     7
100
AcDbLine
 10
-39.94580022193863
 20
52.64213248831428
 30
0.0
 11
-42.32948869973278
 21
50.02960745793415
 31
0.0
  0
LINE
  5
2DA
330
1F
100
AcDbEntity
  8
0
  6
Continuous
 62
     7
100
AcDbLine
 10
-38.43912413518134
 20
49.46766762637122
 30
0.0
 11
-36.55138039110887
 21
52.15188605456794
 31
0.0
  0
LINE
  5
2DB
330
1F
100
AcDbEntity
  8
0
  6
Continuous
 62
     7
100
AcDbLine
 10
-36.43913027125676
 20
49.46766171089608
 30
0.0
 11
-35.20065230390654
 21
52.15188107264156
 31
0.0
  0
LINE
  5
2DC
330
1F
100
AcDbEntity
  8
0
  6
Continuous
 62
     7
100
AcDbLine
 10
-54.50578706661872
 20
94.45749196410182
 30
0.0
 11
-55.73865656950693
 21
94.45749196410182
 31
0.0
  0
LINE
  5
2DD
330
1F
100
AcDbEntity
  8
0
  6
Continuous
 62
     7
100
AcDbLine
 10
-53.07245267331609
 20
97.29082538187507
 30
0.0
 11
-53.17245369354896
 21
97.29082538187507
 31
0.0
  0
LINE
  5
2DE
330
1F
100
AcDbEntity
  8
0
  6
Continuous
 62
     7
100
AcDbLine
 10
-53.17245369354896
 20
96.45749202370646
 30
0.0
 11
-54.17245372335128
 21
96.45749202370646
 31
0.0
  0
LINE
  5
2DF
330
1F
100
AcDbEntity
  8
0
  6
Continuous
 62
     7
100
AcDbLine
 10
-25.77244880795479
 20
100.9857209184238
 30
0.0
 11
-52.83912035028152
 21
100.9857209184238
 31
0.0
  0
LINE
  5
2E0
330
1F
100
AcDbEntity
  8
0
  6
Continuous
 62
     7
100
AcDbLine
 10
-43.27244932949544
 20
100.9857209184238
 30
0.0
 11
-43.27244932949544
 21
101.9574921876192
 31
0.0
  0
LINE
  5
2E1
330
1F
100
AcDbEntity
  8
0
  6
Continuous
 62
     7
100
AcDbLine
 10
-44.93911604583264
 20
100.9857209184238
 30
0.0
 11
-44.93911604583264
 21
101.9574921876192
 31
0.0
  0
LINE
  5
2E2
330
1F
100
AcDbEntity
  8
0
  6
Continuous
 62
     7
100
AcDbLine
 10
-51.02456269921795
 20
48.78784312004228
 30
0.0
 11
-46.81382044291058
 21
54.87295787894386
 31
0.0
  0
LINE
  5
2E3
330
1F
100
AcDbEntity
  8
0
  6
Continuous
 62
     7
100
AcDbLine
 10
-54.13920990725637
 20
56.49452900003508
 30
0.0
 11
-55.54446304158409
 21
56.49452900003508
 31
0.0
  0
LINE
  5
2E4
330
1F
100
AcDbEntity
  8
0
  6
Continuous
 62
     7
100
AcDbLine
 10
-54.03920888702351
 20
56.95749084651471
 30
0.0
 11
-54.13920990725637
 21
56.95749084651471
 31
0.0
  0
LINE
  5
2E5
330
1F
100
AcDbEntity
  8
0
  6
Continuous
 62
     7
100
AcDbLine
 10
-54.50578831253235
 20
94.4574901574602
 30
0.0
 11
-54.17245488710898
 21
96.45749058914667
 31
0.0
  0
LINE
  5
2E6
330
1F
100
AcDbEntity
  8
0
  6
Continuous
 62
     7
100
AcDbLine
 10
-43.27244932949543
 20
101.7190532563596
 30
0.0
 11
-44.93911604583263
 21
101.7190532563596
 31
0.0
  0
LINE
  5
2E7
330
1F
100
AcDbEntity
  8
0
  6
Continuous
 62
     7
100
AcDbLine
 10
-54.94151706007324
 20
94.45749196410182
 30
0.0
 11
-54.98942965915739
 21
94.45749196410182
 31
0.0
  0
LINE
  5
2E8
330
1F
100
AcDbEntity
  8
0
  6
Continuous
 62
     7
100
AcDbLine
 10
-54.94151706007324
 20
94.45749196410182
 30
0.0
 11
-54.98942965915739
 21
94.45749196410182
 31
0.0
  0
LINE
  5
2E9
330
1F
100
AcDbEntity
  8
0
  6
Continuous
 62
     7
100
AcDbLine
 10
-55.83912043968849
 20
95.79082533717155
 30
0.0
 11
-55.83912043968849
 21
100.7908254861832
 31
0.0
  0
LINE
  5
2EA
330
1F
100
AcDbEntity
  8
0
  6
Continuous
 62
     7
100
AcDbLine
 10
-52.29232671419413
 20
100.290825471282
 30
0.0
 11
-53.17245369354896
 21
100.290825471282
 31
0.0
  0
LINE
  5
2EB
330
1F
100
AcDbEntity
  8
0
  6
Continuous
 62
     7
100
AcDbLine
 10
-25.77244880795479
 20
98.84895124211292
 30
0.0
 11
-48.48048781478519
 21
98.84895124211292
 31
0.0
  0
LINE
  5
2EC
330
1F
100
AcDbEntity
  8
0
  6
Continuous
 62
     7
100
AcDbLine
 10
3.999565025764186
 20
57.82786802871151
 30
0.0
 11
4.543626041993599
 21
59.45750663882925
 31
0.0
  0
LINE
  5
2ED
330
1F
100
AcDbEntity
  8
0
  6
Continuous
 62
     7
100
AcDbLine
 10
1.415703043981921
 20
98.01129456024776
 30
0.0
 11
0.747429098284556
 21
98.01129456024776
 31
0.0
  0
LINE
  5
2EE
330
1F
100
AcDbEntity
  8
0
  6
Continuous
 62
     7
100
AcDbLine
 10
3.999565425674518
 20
57.82786237310483
 30
0.0
 11
3.999565425674518
 21
47.21359407174895
 31
0.0
  0
LINE
  5
2EF
330
1F
100
AcDbEntity
  8
0
  6
Continuous
 62
     7
100
AcDbLine
 10
0.166445601152191
 20
67.31125092070579
 30
0.0
 11
-0.50181817201883
 21
67.31125092070579
 31
0.0
  0
LINE
  5
2F0
330
1F
100
AcDbEntity
  8
0
  6
Continuous
 62
     7
100
AcDbLine
 10
-46.49906278828621
 20
54.87295709298451
 30
0.0
 11
-41.61658583613644
 21
54.87295709298451
 31
0.0
  0
LINE
  5
2F1
330
1F
100
AcDbEntity
  8
0
  6
Continuous
 62
     7
100
AcDbLine
 10
2.594312291346796
 20
57.82786237310483
 30
0.0
 11
2.594312291346796
 21
49.2135941313536
 31
0.0
  0
LINE
  5
2F2
330
1F
100
AcDbEntity
  8
0
  6
Continuous
 62
     7
100
AcDbLine
 10
-53.65465178734667
 20
56.55749693810957
 30
0.0
 11
-53.65465178734667
 21
53.12415739893913
 31
0.0
  0
LINE
  5
2F3
330
1F
100
AcDbEntity
  8
0
  6
Continuous
 62
     7
100
AcDbLine
 10
-53.07626825192339
 20
57.28655981841668
 30
0.0
 11
-53.65464094779482
 21
56.55748853415086
 31
0.0
  0
LINE
  5
2F4
330
1F
100
AcDbEntity
  8
0
  6
Continuous
 62
     7
100
AcDbLine
 10
-53.66620777727439
 20
53.12415739893914
 30
0.0
 11
-54.04794200089054
 21
53.12415739893914
 31
0.0
  0
LINE
  5
2F5
330
1F
100
AcDbEntity
  8
0
  6
Continuous
 62
     7
100
AcDbLine
 10
-53.01672613343295
 20
60.48750973483872
 30
0.0
 11
-53.07625397280856
 21
57.28656571427389
 31
0.0
  0
LINE
  5
2F6
330
1F
100
AcDbEntity
  8
0
  6
Continuous
 62
     7
100
AcDbLine
 10
-53.01253334741541
 20
60.71296514315044
 30
0.0
 11
-53.07625397280856
 21
57.28656571427389
 31
0.0
  0
LINE
  5
2F7
330
1F
100
AcDbEntity
  8
0
  6
Continuous
 62
     7
100
AcDbLine
 10
-52.04921148529564
 20
61.9272920899385
 30
0.0
 11
-53.01255694765846
 21
60.71294100032095
 31
0.0
  0
LINE
  5
2F8
330
1F
100
AcDbEntity
  8
0
  6
Continuous
 62
     7
100
AcDbLine
 10
-51.57249840498116
 20
67.31153575144344
 30
0.0
 11
-51.71134321706177
 21
67.31153575144344
 31
0.0
  0
LINE
  5
2F9
330
1F
100
AcDbEntity
  8
0
  6
Continuous
 62
     7
100
AcDbLine
 10
-51.47996910534858
 20
93.70131721825874
 30
0.0
 11
-51.47996910534858
 21
68.6448691245132
 31
0.0
  0
LINE
  5
2FA
330
1F
100
AcDbEntity
  8
0
  6
Continuous
 62
     7
100
AcDbLine
 10
-51.64892379666912
 20
96.35785195183387
 30
0.0
 11
-52.9606116704899
 21
98.01130822587452
 31
0.0
  0
LINE
  5
2FB
330
1F
100
AcDbEntity
  8
0
  6
Continuous
 62
     7
100
AcDbLine
 10
-52.9606006598915
 20
98.01129456024773
 30
0.0
 11
-52.9606006598915
 21
100.290825471282
 31
0.0
  0
LINE
  5
2FC
330
1F
100
AcDbEntity
  8
0
  6
Continuous
 62
     7
100
AcDbLine
 10
-52.9863778416493
 20
53.12415739893914
 30
0.0
 11
-53.65465178734667
 21
53.12415739893914
 31
0.0
  0
LINE
  5
2FD
330
1F
100
AcDbEntity
  8
0
  6
Continuous
 62
     7
100
AcDbLine
 10
-52.98637784164931
 20
56.55749693810957
 30
0.0
 11
-52.98637784164931
 21
53.12415739893913
 31
0.0
  0
LINE
  5
2FE
330
1F
100
AcDbEntity
  8
0
  6
Continuous
 62
     7
100
AcDbLine
 10
-52.4080023461203
 20
57.28658394757932
 30
0.0
 11
-52.98637504199172
 21
56.5575126633135
 31
0.0
  0
LINE
  5
2FF
330
1F
100
AcDbEntity
  8
0
  6
Continuous
 62
     7
100
AcDbLine
 10
-52.34426076019358
 20
60.71297027877368
 30
0.0
 11
-52.40798162201848
 21
57.28655813643746
 31
0.0
  0
LINE
  5
300
330
1F
100
AcDbEntity
  8
0
  6
Continuous
 62
     7
100
AcDbLine
 10
-51.38095827174766
 20
61.92729382605926
 30
0.0
 11
-52.34430373411047
 21
60.7129427364417
 31
0.0
  0
LINE
  5
301
330
1F
100
AcDbEntity
  8
0
  6
Continuous
 62
     7
100
AcDbLine
 10
-50.90423463181014
 20
67.31153575144344
 30
0.0
 11
-51.04307944389075
 21
67.31153575144344
 31
0.0
  0
LINE
  5
302
330
1F
100
AcDbEntity
  8
0
  6
Continuous
 62
     7
100
AcDbLine
 10
-50.81169515965122
 20
93.70131721825874
 30
0.0
 11
-50.81169515965122
 21
68.6448691245132
 31
0.0
  0
LINE
  5
303
330
1F
100
AcDbEntity
  8
0
  6
Continuous
 62
     7
100
AcDbLine
 10
-50.98064719177009
 20
96.35784604881536
 30
0.0
 11
-52.29233822665014
 21
98.01130630754888
 31
0.0
  0
LINE
  5
304
330
1F
100
AcDbEntity
  8
0
  6
Continuous
 62
     7
100
AcDbLine
 10
-52.29232671419414
 20
98.01129456024773
 30
0.0
 11
-52.29232671419414
 21
100.290825471282
 31
0.0
  0
LINE
  5
305
330
1F
100
AcDbEntity
  8
0
  6
Continuous
 62
     7
100
AcDbLine
 10
-52.9863778416493
 20
56.55749693810959
 30
0.0
 11
-53.65465178734667
 21
56.55749693810959
 31
0.0
  0
LINE
  5
306
330
1F
100
AcDbEntity
  8
0
  6
Continuous
 62
     7
100
AcDbLine
 10
-53.07627245695858
 20
57.28655172871732
 30
0.0
 11
-52.40800868378756
 21
57.28655172871732
 31
0.0
  0
LINE
  5
307
330
1F
100
AcDbEntity
  8
0
  6
Continuous
 62
     7
100
AcDbLine
 10
-52.34428797876353
 20
60.71296377744694
 30
0.0
 11
-53.01255175193455
 21
60.71296377744694
 31
0.0
  0
LINE
  5
308
330
1F
100
AcDbEntity
  8
0
  6
Continuous
 62
     7
100
AcDbLine
 10
-51.71134321706177
 20
67.31125092070579
 30
0.0
 11
-51.04307944389075
 21
67.31125092070579
 31
0.0
  0
LINE
  5
309
330
1F
100
AcDbEntity
  8
0
  6
Continuous
 62
     7
100
AcDbLine
 10
-52.9606006598915
 20
98.01129456024776
 30
0.0
 11
-52.29232671419413
 21
98.01129456024776
 31
0.0
  0
LINE
  5
30A
330
1F
100
AcDbEntity
  8
0
  6
Continuous
 62
     7
100
AcDbLine
 10
-25.77244880795479
 20
43.45749044418336
 30
0.0
 11
3.060885384678841
 21
43.45749044418336
 31
0.0
  0
LINE
  5
30B
330
1F
100
AcDbEntity
  8
0
  6
Continuous
 62
     7
100
AcDbLine
 10
-25.77244880795479
 20
102.7908255457878
 30
0.0
 11
2.294222764174265
 21
102.7908255457878
 31
0.0
  0
LINE
  5
30C
330
1F
100
AcDbEntity
  8
0
  6
Continuous
 62
     7
100
AcDbLine
 10
-54.13920990725638
 20
57.82786237310483
 30
0.0
 11
-54.13920990725638
 21
49.2135941313536
 31
0.0
  0
LINE
  5
30D
330
1F
100
AcDbEntity
  8
0
  6
Continuous
 62
     7
100
AcDbLine
 10
-55.5444630415841
 20
57.82786237310483
 30
0.0
 11
-55.5444630415841
 21
47.21359407174895
 31
0.0
  0
LINE
  5
30E
330
1F
100
AcDbEntity
  8
0
  6
Continuous
 62
     7
100
AcDbLine
 10
-55.54446356838288
 20
57.82786724688287
 30
0.0
 11
-56.0885245846123
 21
59.4575058570006
 31
0.0
  0
LINE
  5
30F
330
1F
100
AcDbEntity
  8
0
  6
Continuous
 62
     7
100
AcDbLine
 10
-25.77244880795479
 20
101.9574921876192
 30
0.0
 11
1.294222734371942
 21
101.9574921876192
 31
0.0
  0
LINE
  5
310
330
1F
100
AcDbEntity
  8
0
  6
Continuous
 62
     7
100
AcDbLine
 10
4.543622652175145
 20
59.45749092102051
 30
0.0
 11
6.006828669089373
 21
59.45749092102051
 31
0.0
  0
LINE
  5
311
330
1F
100
AcDbEntity
  8
0
  6
Continuous
 62
     7
100
AcDbLine
 10
5.775000561061239
 20
46.17535411114125
 30
0.0
 11
6.006841303328703
 21
59.45750205018198
 31
0.0
  0
LINE
  5
312
330
1F
100
AcDbEntity
  8
0
  6
Continuous
 62
     7
100
AcDbLine
 10
4.543622652175145
 20
46.13612008130439
 30
0.0
 11
4.543622652175145
 21
59.4574909210205
 31
0.0
  0
LINE
  5
313
330
1F
100
AcDbEntity
  8
0
  6
Continuous
 62
     7
100
AcDbLine
 10
2.594312291346796
 20
57.82786237310484
 30
0.0
 11
3.999565425674518
 21
57.82786237310484
 31
0.0
  0
LINE
  5
314
330
1F
100
AcDbEntity
  8
0
  6
Continuous
 62
     7
100
AcDbLine
 10
0.927645575009592
 20
47.54692741501641
 30
0.0
 11
-25.77244880795479
 21
47.54692741501641
 31
0.0
  0
LINE
  5
315
330
1F
100
AcDbEntity
  8
0
  6
Continuous
 62
     7
100
AcDbLine
 10
2.332898709337314
 20
45.54692735541176
 30
0.0
 11
-25.77244880795479
 21
45.54692735541176
 31
0.0
  0
LINE
  5
316
330
1F
100
AcDbEntity
  8
0
  6
Continuous
 62
     7
100
AcDbLine
 10
2.876955935837941
 20
44.4694533649672
 30
0.0
 11
-25.77244880795479
 21
44.4694533649672
 31
0.0
  0
LINE
  5
317
330
1F
100
AcDbEntity
  8
0
  6
Continuous
 62
     7
100
AcDbLine
 10
-13.10578176379204
 20
49.46766314934212
 30
0.0
 11
-15.10578182339668
 21
49.46766314934212
 31
0.0
  0
LINE
  5
318
330
1F
100
AcDbEntity
  8
0
  6
Continuous
 62
     7
100
AcDbLine
 10
3.396619444163662
 20
94.45749196410182
 30
0.0
 11
3.444532043247818
 21
94.45749196410182
 31
0.0
  0
LINE
  5
319
330
1F
100
AcDbEntity
  8
0
  6
Continuous
 62
     7
100
AcDbLine
 10
3.396619444163662
 20
94.45749196410182
 30
0.0
 11
3.444532043247818
 21
94.45749196410182
 31
0.0
  0
LINE
  5
31A
330
1F
100
AcDbEntity
  8
0
  6
Continuous
 62
     7
100
AcDbLine
 10
4.29422282377891
 20
95.79082533717155
 30
0.0
 11
4.29422282377891
 21
100.7908254861832
 31
0.0
  0
LINE
  5
31B
330
1F
100
AcDbEntity
  8
0
  6
Continuous
 62
     7
100
AcDbLine
 10
0.747429098284556
 20
100.290825471282
 30
0.0
 11
1.627556077639383
 21
100.290825471282
 31
0.0
  0
LINE
  5
31C
330
1F
100
AcDbEntity
  8
0
  6
Continuous
 62
     7
100
AcDbLine
 10
-25.77244880795479
 20
98.84895124211292
 30
0.0
 11
-3.064409801124384
 21
98.84895124211292
 31
0.0
  0
LINE
  5
31D
330
1F
100
AcDbEntity
  8
0
  6
Continuous
 62
     7
100
AcDbLine
 10
2.109754171437089
 20
56.55749693810957
 30
0.0
 11
2.109754171437089
 21
53.12415739893913
 31
0.0
  0
LINE
  5
31E
330
1F
100
AcDbEntity
  8
0
  6
CENTER
 62
     7
100
AcDbLine
 10
59.89424075683019
 20
-71.57586361070526
 30
0.0
 11
59.89424075683019
 21
-51.20918921629617
 31
0.0
  0
LINE
  5
31F
330
1F
100
AcDbEntity
  8
0
  6
Continuous
 62
     7
100
AcDbLine
 10
22.56090631087682
 20
8.622584417415506
 30
0.0
 11
22.56090631087682
 21
10.7908126314478
 31
0.0
  0
LINE
  5
320
330
1F
100
AcDbEntity
  8
0
  6
Continuous
 62
     7
100
AcDbLine
 10
37.56088641285896
 20
10.79081263144781
 30
0.0
 11
30.70212156001435
 21
10.79081263144781
 31
0.0
  0
LINE
  5
321
330
1F
100
AcDbEntity
  8
0
  6
Continuous
 62
     7
100
AcDbLine
 10
38.56090678771397
 20
7.657481239239128
 30
0.0
 11
38.56090678771397
 21
9.790838032961343
 31
0.0
  0
LINE
  5
322
330
1F
100
AcDbEntity
  8
0
  6
Continuous
 62
     7
100
AcDbLine
 10
36.92756526768244
 20
2.457479049761787
 30
0.0
 11
24.50544575684944
 21
2.457479049761787
 31
0.0
  0
LINE
  5
323
330
1F
100
AcDbEntity
  8
0
  6
Continuous
 62
     7
100
AcDbLine
 10
30.70212156001435
 20
10.79081263144781
 30
0.0
 11
22.56090631087682
 21
10.79081263144781
 31
0.0
  0
LINE
  5
324
330
1F
100
AcDbEntity
  8
0
  6
Continuous
 62
     7
100
AcDbLine
 10
24.01030023347683
 20
2.887903259439908
 30
0.0
 11
23.77437543017165
 21
4.566596278241626
 31
0.0
  0
LINE
  5
325
330
1F
100
AcDbEntity
  8
0
  6
Continuous
 62
     7
100
AcDbLine
 10
23.77437543017165
 20
4.566596278241626
 30
0.0
 11
23.22754532961823
 21
8.457496511746365
 31
0.0
  0
LINE
  5
326
330
1F
100
AcDbEntity
  8
0
  6
Continuous
 62
     7
100
AcDbLine
 10
32.95401689564406
 20
-46.51911296847165
 30
0.0
 11
26.07080912087913
 21
2.45747904976178
 31
0.0
  0
LINE
  5
327
330
1F
100
AcDbEntity
  8
0
  6
Continuous
 62
     7
100
AcDbLine
 10
32.2275732656326
 20
-3.04249568283513
 30
0.0
 11
32.2275732656326
 21
2.457504481077645
 31
0.0
  0
LINE
  5
328
330
1F
100
AcDbEntity
  8
0
  6
Continuous
 62
     7
100
AcDbLine
 10
36.56090672810932
 20
6.824173312386388
 30
0.0
 11
36.56090672810932
 21
7.65750667055499
 31
0.0
  0
LINE
  5
329
330
1F
100
AcDbEntity
  8
0
  6
Continuous
 62
     7
100
AcDbLine
 10
38.56088644266129
 20
7.657481239239133
 30
0.0
 11
36.56088638305664
 21
7.657481239239133
 31
0.0
  0
LINE
  5
32A
330
1F
100
AcDbEntity
  8
0
  6
Continuous
 62
     7
100
AcDbLine
 10
36.56088638305664
 20
6.824147881070531
 30
0.0
 11
36.2275530397892
 21
6.824147881070531
 31
0.0
  0
LINE
  5
32B
330
1F
100
AcDbEntity
  8
0
  6
Continuous
 62
     7
100
AcDbLine
 10
35.30184418884583
 20
8.336138221751872
 30
0.0
 11
36.22755389586273
 21
6.824145464292007
 31
0.0
  0
LINE
  5
32C
330
1F
100
AcDbEntity
  8
0
  6
Continuous
 62
     7
100
AcDbLine
 10
37.72757342954537
 20
6.787567476334512
 30
0.0
 11
37.72757342954537
 21
7.65750667055499
 31
0.0
  0
LINE
  5
32D
330
1F
100
AcDbEntity
  8
0
  6
Continuous
 62
     7
100
AcDbLine
 10
36.06090671320816
 20
1.457504451275322
 30
0.0
 11
36.06090671320816
 21
2.457504481077645
 31
0.0
  0
LINE
  5
32E
330
1F
100
AcDbEntity
  8
0
  6
Continuous
 62
     7
100
AcDbLine
 10
36.06088636815548
 20
2.290812378128066
 30
0.0
 11
32.22755292057991
 21
2.290812378128066
 31
0.0
  0
LINE
  5
32F
330
1F
100
AcDbEntity
  8
0
  6
Continuous
 62
     7
100
AcDbLine
 10
35.3554420111941
 20
-3.209187785784707
 30
0.0
 11
32.39421959221363
 21
-3.209187785784707
 31
0.0
  0
LINE
  5
330
330
1F
100
AcDbEntity
  8
0
  6
Continuous
 62
     7
100
AcDbLine
 10
36.38995589513601
 20
-11.54253228547283
 30
0.0
 11
35.6875053364474
 21
-3.513478772415072
 31
0.0
  0
LINE
  5
331
330
1F
100
AcDbEntity
  8
0
  6
Continuous
 62
     7
100
AcDbLine
 10
39.59089493312188
 20
-12.40019627895685
 30
0.0
 11
36.38994651087196
 21
-11.54250433196901
 31
0.0
  0
LINE
  5
332
330
1F
100
AcDbEntity
  8
0
  6
Continuous
 62
     7
100
AcDbLine
 10
72.80472291242585
 20
-34.54252205292414
 30
0.0
 11
47.74826464615398
 21
-34.54252205292414
 31
0.0
  0
LINE
  5
333
330
1F
100
AcDbEntity
  8
0
  6
Continuous
 62
     7
100
AcDbLine
 10
76.82758069833197
 20
-52.87585593263338
 30
0.0
 11
43.52757156789357
 21
-52.87585593263338
 31
0.0
  0
LINE
  5
334
330
1F
100
AcDbEntity
  8
0
  6
Continuous
 62
     7
100
AcDbLine
 10
81.89424141248128
 20
-5.875849445661066
 30
0.0
 11
81.89424141248128
 21
-4.542516072591303
 31
0.0
  0
LINE
  5
335
330
1F
100
AcDbEntity
  8
0
  6
Continuous
 62
     7
100
AcDbLine
 10
74.89422085881232
 20
-4.54252115885447
 30
0.0
 11
81.89422106742857
 21
-4.54252115885447
 31
0.0
  0
LINE
  5
336
330
1F
100
AcDbEntity
  8
0
  6
Continuous
 62
     7
100
AcDbLine
 10
73.56088748574255
 20
-5.875854531924232
 30
0.0
 11
81.89422106742857
 21
-5.875854531924232
 31
0.0
  0
LINE
  5
337
330
1F
100
AcDbEntity
  8
0
  6
Continuous
 62
     7
100
AcDbLine
 10
81.72757474084756
 20
-9.209182878335474
 30
0.0
 11
81.72757474084756
 21
-5.875849445661066
 31
0.0
  0
LINE
  5
338
330
1F
100
AcDbEntity
  8
0
  6
Continuous
 62
     7
100
AcDbLine
 10
76.22755423188208
 20
-9.209187964598641
 30
0.0
 11
81.72755439579485
 21
-9.209187964598641
 31
0.0
  0
LINE
  5
339
330
1F
100
AcDbEntity
  8
0
  6
Continuous
 62
     7
100
AcDbLine
 10
81.11470388019197
 20
-14.54251992925688
 30
0.0
 11
81.39421270655268
 21
-9.209181424652833
 31
0.0
  0
LINE
  5
33A
330
1F
100
AcDbEntity
  8
0
  6
Continuous
 62
     7
100
AcDbLine
 10
79.3403727247164
 20
-14.54252145687769
 30
0.0
 11
81.11471054615048
 21
-14.54252145687769
 31
0.0
  0
LINE
  5
33B
330
1F
100
AcDbEntity
  8
0
  6
Continuous
 62
     7
100
AcDbLine
 10
78.67128147139444
 20
-48.42772737288961
 30
0.0
 11
80.44713330469575
 21
-14.54250419645044
 31
0.0
  0
LINE
  5
33C
330
1F
100
AcDbEntity
  8
0
  6
Continuous
 62
     7
100
AcDbLine
 10
79.39424133797547
 20
-13.04251632591104
 30
0.0
 11
79.39424133797547
 21
-9.209182878335474
 31
0.0
  0
LINE
  5
33D
330
1F
100
AcDbEntity
  8
0
  6
Continuous
 62
     7
100
AcDbLine
 10
77.42014053044475
 20
-13.20918808380793
 30
0.0
 11
79.22755432128905
 21
-13.20918808380793
 31
0.0
  0
LINE
  5
33E
330
1F
100
AcDbEntity
  8
0
  6
Continuous
 62
     7
100
AcDbLine
 10
46.4149516181369
 20
-33.20917342106487
 30
0.0
 11
46.4149516181369
 21
-31.53644387902614
 31
0.0
  0
LINE
  5
33F
330
1F
100
AcDbEntity
  8
0
  6
Continuous
 62
     7
100
AcDbLine
 10
22.72596132956062
 20
8.455908619691366
 30
0.0
 11
23.22844099790368
 21
8.45112306102171
 31
0.0
  0
LINE
  5
340
330
1F
100
AcDbEntity
  8
0
  6
Continuous
 62
     7
100
AcDbLine
 10
23.22844105934951
 20
8.451123060436506
 30
0.0
 11
35.3018499862301
 21
8.336137300011899
 31
0.0
  0
LINE
  5
341
330
1F
100
AcDbEntity
  8
0
  6
Continuous
 62
     7
100
AcDbLine
 10
73.56090783079526
 20
-5.875839273134721
 30
0.0
 11
73.56090783079526
 21
-5.875839273134721
 31
0.0
  0
LINE
  5
342
330
1F
100
AcDbEntity
  8
0
  6
Continuous
 62
     7
100
AcDbLine
 10
76.13826488189032
 20
-9.975860757629562
 30
0.0
 11
76.22755423188208
 21
-9.975860757629562
 31
0.0
  0
LINE
  5
343
330
1F
100
AcDbEntity
  8
0
  6
Continuous
 62
     7
100
AcDbLine
 10
73.56090783079526
 20
-6.511744240002832
 30
0.0
 11
73.56090783079526
 21
-5.875839273134721
 31
0.0
  0
LINE
  5
344
330
1F
100
AcDbEntity
  8
0
  6
Continuous
 62
     7
100
AcDbLine
 10
75.2722409318349
 20
-9.475858036962538
 30
0.0
 11
73.56090289108633
 21
-6.511733477985818
 31
0.0
  0
LINE
  5
345
330
1F
100
AcDbEntity
  8
0
  6
Continuous
 62
     7
100
AcDbLine
 10
76.22757457693479
 20
-9.97584549884005
 30
0.0
 11
76.22757457693479
 21
-9.209172705809129
 31
0.0
  0
LINE
  5
346
330
1F
100
AcDbEntity
  8
0
  6
Continuous
 62
     7
100
AcDbLine
 10
36.06090671320817
 20
1.457519710064844
 30
0.0
 11
36.18103916307746
 21
1.457519710064844
 31
0.0
  0
LINE
  5
347
330
1F
100
AcDbEntity
  8
0
  6
Continuous
 62
     7
100
AcDbLine
 10
36.06088636815548
 20
1.957468862334281
 30
0.0
 11
36.82652410663081
 21
1.957468862334281
 31
0.0
  0
LINE
  5
348
330
1F
100
AcDbEntity
  8
0
  6
Continuous
 62
     7
100
AcDbLine
 10
32.22754212617674
 20
1.790832673067786
 30
0.0
 11
28.89420218512859
 21
2.457500904418094
 31
0.0
  0
LINE
  5
349
330
1F
100
AcDbEntity
  8
0
  6
Continuous
 62
     7
100
AcDbLine
 10
42.96090081532839
 20
-52.87585593263338
 30
0.0
 11
76.82757052580563
 21
-52.87585593263338
 31
0.0
  0
LINE
  5
34A
330
1F
100
AcDbEntity
  8
0
  6
Continuous
 62
     7
100
AcDbLine
 10
42.96091098785472
 20
-52.87583050131753
 30
0.0
 11
42.96091098785472
 21
-56.59582166035899
 31
0.0
  0
LINE
  5
34B
330
1F
100
AcDbEntity
  8
0
  6
Continuous
 62
     7
100
AcDbLine
 10
76.82758069833199
 20
-52.87585084637022
 30
0.0
 11
76.82758069833199
 21
-56.59584200541168
 31
0.0
  0
LINE
  5
34C
330
1F
100
AcDbEntity
  8
0
  6
Continuous
 62
     7
100
AcDbLine
 10
42.96091098785473
 20
-56.87585605184267
 30
0.0
 11
76.76590467110326
 21
-56.87585605184267
 31
0.0
  0
LINE
  5
34D
330
1F
100
AcDbEntity
  8
0
  6
Continuous
 62
     7
100
AcDbLine
 10
46.49423628846853
 20
-58.54252276817987
 30
0.0
 11
75.12755826811006
 21
-58.54252276817987
 31
0.0
  0
LINE
  5
34E
330
1F
100
AcDbEntity
  8
0
  6
Continuous
 62
     7
100
AcDbLine
 10
43.1608383855343
 20
-57.07187066115693
 30
0.0
 11
44.66088775895397
 21
-58.54250754727661
 31
0.0
  0
LINE
  5
34F
330
1F
100
AcDbEntity
  8
0
  6
Continuous
 62
     7
100
AcDbLine
 10
76.62759021318442
 20
-57.07188321068458
 30
0.0
 11
75.1275460397901
 21
-58.54251450280653
 31
0.0
  0
LINE
  5
350
330
1F
100
AcDbEntity
  8
0
  6
Continuous
 62
     7
100
AcDbLine
 10
73.29424522519184
 20
-58.54250750939037
 30
0.0
 11
73.29424522519184
 21
-58.67585915724477
 31
0.0
  0
LINE
  5
351
330
1F
100
AcDbEntity
  8
0
  6
Continuous
 62
     7
100
AcDbLine
 10
46.49423628846852
 20
-58.54250750939037
 30
0.0
 11
46.49423628846852
 21
-58.67585915724477
 31
0.0
  0
LINE
  5
352
330
1F
100
AcDbEntity
  8
0
  6
Continuous
 62
     7
100
AcDbLine
 10
44.66089272797126
 20
-58.54252276817987
 30
0.0
 11
46.49422611594218
 21
-58.54252276817987
 31
0.0
  0
LINE
  5
353
330
1F
100
AcDbEntity
  8
0
  6
CENTER
 62
     7
100
AcDbLine
 10
-53.14663582168578
 20
80.79082489013672
 30
0.0
 11
-25.77244880795479
 21
80.79082489013672
 31
0.0
  0
LINE
  5
354
330
1F
100
AcDbEntity
  8
0
  6
Continuous
 62
     7
100
AcDbLine
 10
79.39421204336375
 20
-9.875836443502294
 30
0.0
 11
81.72753924347957
 21
-9.2091717771419
 31
0.0
  0
LINE
  5
355
330
1F
100
AcDbEntity
  8
0
  6
Continuous
 62
     7
100
AcDbLine
 10
41.74825618516397
 20
-34.54252205292413
 30
0.0
 11
41.26706976805017
 21
-29.04253142016582
 31
0.0
  0
LINE
  5
356
330
1F
100
AcDbEntity
  8
0
  6
Continuous
 62
     7
100
AcDbLine
 10
75.46125918106698
 20
-32.10824492061867
 30
0.0
 11
77.0880946589316
 21
-13.51344616226826
 31
0.0
  0
LINE
  5
357
330
1F
100
AcDbEntity
  8
0
  6
Continuous
 62
     7
100
AcDbLine
 10
36.83475857114272
 20
1.993443242310949
 30
0.0
 11
37.66284196570709
 21
6.133843478780157
 31
0.0
  0
LINE
  5
358
330
1F
100
AcDbEntity
  8
0
  6
Continuous
 62
     7
100
AcDbLine
 10
-54.13920986733908
 20
57.82786170257354
 30
0.0
 11
-54.03920921785564
 21
57.62415760637668
 31
0.0
  0
LINE
  5
359
330
1F
100
AcDbEntity
  8
0
  6
Continuous
 62
     7
100
AcDbLine
 10
-22.77244569499416
 20
-40.87585078450919
 30
0.0
 11
-19.77244810260681
 21
-45.87584700352248
 31
0.0
  0
LINE
  5
35A
330
1F
100
AcDbEntity
  8
0
  6
Continuous
 62
     7
100
AcDbLine
 10
-16.77245384944313
 20
-40.87583704598993
 30
0.0
 11
-19.77245569422916
 21
-45.87584035233468
 31
0.0
  0
LINE
  5
35B
330
1F
100
AcDbEntity
  8
0
  6
Continuous
 62
     7
100
AcDbLine
 10
-22.77244484446118
 20
-48.54252596860848
 30
0.0
 11
-19.77243693272531
 21
-45.8758522692877
 31
0.0
  0
LINE
  5
35C
330
1F
100
AcDbEntity
  8
0
  6
Continuous
 62
     7
100
AcDbLine
 10
-54.50578706661873
 20
94.45749196410179
 30
0.0
 11
-54.50578706661873
 21
100.6241588145494
 31
0.0
  0
LINE
  5
35D
330
1F
100
AcDbEntity
  8
0
  6
Continuous
 62
     7
100
AcDbLine
 10
-54.02728903817832
 20
-9.875843289685719
 30
0.0
 11
-54.07355915932434
 21
-9.209173099571403
 31
0.0
  0
LINE
  5
35E
330
1F
100
AcDbEntity
  8
0
  6
Continuous
 62
     7
100
AcDbLine
 10
-42.13911291062823
 20
96.45749202370646
 30
0.0
 11
-25.77244880795479
 21
96.45749202370646
 31
0.0
  0
LINE
  5
35F
330
1F
100
AcDbEntity
  8
0
  6
Continuous
 62
     7
100
AcDbLine
 10
-43.03911192019769
 20
66.69082345267134
 30
0.0
 11
-43.03911192019769
 21
95.55749301413698
 31
0.0
  0
LINE
  5
360
330
1F
100
AcDbEntity
  8
0
  6
Continuous
 62
     7
100
AcDbLine
 10
-41.47244622409335
 20
65.124157756567
 30
0.0
 11
-25.77244880795479
 21
65.124157756567
 31
0.0
  0
LINE
  5
361
330
1F
100
AcDbEntity
  8
0
  6
Continuous
 62
     7
100
AcDbLine
 10
-0.163938198984727
 20
61.92729573406282
 30
0.0
 11
0.79940726337809
 21
60.71294464444526
 31
0.0
  0
LINE
  5
362
330
1F
100
AcDbEntity
  8
0
  6
Continuous
 62
     7
100
AcDbLine
 10
-53.17245369354897
 20
96.45749202370644
 30
0.0
 11
-53.17245369354897
 21
100.6523875751564
 31
0.0
  0
LINE
  5
363
330
1F
100
AcDbEntity
  8
0
  6
Continuous
 62
     7
100
AcDbLine
 10
-42.32949011534426
 20
50.02960781788153
 30
0.0
 11
-41.6165866881341
 21
54.87295797797197
 31
0.0
  0
LINE
  5
364
330
1F
100
AcDbEntity
  8
0
  6
Continuous
 62
     7
100
AcDbLine
 10
-19.77242257142561
 20
-45.87581784440772
 30
0.0
 11
-16.77242036197048
 21
-48.54248647503452
 31
0.0
  0
LINE
  5
365
330
1F
100
AcDbEntity
  8
0
  6
Continuous
 62
     7
100
AcDbLine
 10
-16.77244864979561
 20
-17.87581775749981
 30
0.0
 11
-19.77244918615127
 21
-22.87581888312718
 31
0.0
  0
LINE
  5
366
330
1F
100
AcDbEntity
  8
0
  6
Continuous
 62
     7
100
AcDbLine
 10
-22.77246201630076
 20
-17.87585744655522
 30
0.0
 11
-19.77246115283749
 21
-22.87585911736195
 31
0.0
  0
LINE
  5
367
330
1F
100
AcDbEntity
  8
0
  6
Continuous
 62
     7
100
AcDbLine
 10
-22.77244357728764
 20
-25.54250871265895
 30
0.0
 11
-19.77245087163373
 21
-22.87584852985548
 31
0.0
  0
LINE
  5
368
330
1F
100
AcDbEntity
  8
0
  6
Continuous
 62
     7
100
AcDbLine
 10
-19.77242922408651
 20
-22.87583152861116
 30
0.0
 11
-16.77243556805248
 21
-25.54249255619697
 31
0.0
  0
LINE
  5
369
330
1F
100
AcDbEntity
  8
0
  6
Continuous
 62
     7
100
AcDbLine
 10
5.727552130818367
 20
10.79082280397415
 30
0.0
 11
-25.77244880795479
 21
10.79082280397415
 31
0.0
  0
LINE
  5
36A
330
1F
100
AcDbEntity
  8
0
  6
Continuous
 62
     7
100
AcDbLine
 10
5.727552130818367
 20
8.457489401102066
 30
0.0
 11
-25.77244880795479
 21
8.457489401102066
 31
0.0
  0
LINE
  5
36B
330
1F
100
AcDbEntity
  8
0
  6
Continuous
 62
     7
100
AcDbLine
 10
-22.77244861851861
 20
-17.87583052832571
 30
0.0
 11
-25.77244915487429
 21
-22.87583165395311
 31
0.0
  0
LINE
  5
36C
330
1F
100
AcDbEntity
  8
0
  6
Continuous
 62
     7
100
AcDbLine
 10
-25.77243723332172
 20
-22.87582814948199
 30
0.0
 11
-22.77243692462685
 21
-25.5424950905441
 31
0.0
  0
LINE
  5
36D
330
1F
100
AcDbEntity
  8
0
  6
Continuous
 62
     7
100
AcDbLine
 10
-22.7724641629442
 20
-25.5425052236821
 30
0.0
 11
-25.77246469929986
 21
-30.54250634930947
 31
0.0
  0
LINE
  5
36E
330
1F
100
AcDbEntity
  8
0
  6
Continuous
 62
     7
100
AcDbLine
 10
-25.7724381837018
 20
-30.54250785437933
 30
0.0
 11
-22.7724378750069
 21
-33.20917479544146
 31
0.0
  0
LINE
  5
36F
330
1F
100
AcDbEntity
  8
0
  6
Continuous
 62
     7
100
AcDbLine
 10
3.792188303608782
 20
2.457489222288132
 30
0.0
 11
-25.77244880795479
 21
2.457489222288132
 31
0.0
  0
LINE
  5
370
330
1F
100
AcDbEntity
  8
0
  6
Continuous
 62
     7
100
AcDbLine
 10
-7.244982435480779
 20
-52.88142729815586
 30
0.0
 11
-25.77244880795479
 21
-52.88142729815586
 31
0.0
  0
LINE
  5
371
330
1F
100
AcDbEntity
  8
0
  6
Continuous
 62
     7
100
AcDbLine
 10
-16.77244631233897
 20
-25.54249725043398
 30
0.0
 11
-19.77244684869464
 21
-30.54249837606135
 31
0.0
  0
LINE
  5
372
330
1F
100
AcDbEntity
  8
0
  6
Continuous
 62
     7
100
AcDbLine
 10
-22.77244025683026
 20
-25.54251284256323
 30
0.0
 11
-19.77244102890496
 21
-30.54251178747323
 31
0.0
  0
LINE
  5
373
330
1F
100
AcDbEntity
  8
0
  6
Continuous
 62
     7
100
AcDbLine
 10
-22.77244864598161
 20
-33.20918356005799
 30
0.0
 11
-19.77244073424573
 21
-30.54250986073721
 31
0.0
  0
LINE
  5
374
330
1F
100
AcDbEntity
  8
0
  6
Continuous
 62
     7
100
AcDbLine
 10
-19.77243524316057
 20
-30.54248631242988
 30
0.0
 11
-16.77243493446567
 21
-33.209153253492
 31
0.0
  0
LINE
  5
375
330
1F
100
AcDbEntity
  8
0
  6
Continuous
 62
     7
100
AcDbLine
 10
-16.77245705918654
 20
-33.20916889278597
 30
0.0
 11
-19.7724575955422
 21
-38.20917001841333
 31
0.0
  0
LINE
  5
376
330
1F
100
AcDbEntity
  8
0
  6
Continuous
 62
     7
100
AcDbLine
 10
-22.77244935451057
 20
-33.20918601141697
 30
0.0
 11
-19.7724488181549
 21
-38.20918713704435
 31
0.0
  0
LINE
  5
377
330
1F
100
AcDbEntity
  8
0
  6
Continuous
 62
     7
100
AcDbLine
 10
-22.77243301750848
 20
-40.87585872425043
 30
0.0
 11
-19.77244031185457
 21
-38.20919854144695
 31
0.0
  0
LINE
  5
378
330
1F
100
AcDbEntity
  8
0
  6
Continuous
 62
     7
100
AcDbLine
 10
-19.77243186403132
 20
-38.2091630605891
 30
0.0
 11
-16.77243155533642
 21
-40.87583000165122
 31
0.0
  0
LINE
  5
379
330
1F
100
AcDbEntity
  8
0
  6
Continuous
 62
     7
100
AcDbLine
 10
-22.77245223033136
 20
-33.20917861060752
 30
0.0
 11
-25.77245276668702
 21
-38.20917973623489
 31
0.0
  0
LINE
  5
37A
330
1F
100
AcDbEntity
  8
0
  6
Continuous
 62
     7
100
AcDbLine
 10
-25.77244325239585
 20
-38.20916348298023
 30
0.0
 11
-22.77244294370095
 21
-40.87583042404236
 31
0.0
  0
LINE
  5
37B
330
1F
100
AcDbEntity
  8
0
  6
Continuous
 62
     7
100
AcDbLine
 10
-22.77246254103562
 20
-40.87584458309446
 30
0.0
 11
-25.77245391837875
 21
-45.87583044370024
 31
0.0
  0
LINE
  5
37C
330
1F
100
AcDbEntity
  8
0
  6
Continuous
 62
     7
100
AcDbLine
 10
-25.77243501576807
 20
-45.87583093853395
 30
0.0
 11
-22.7724347070732
 21
-48.54249787959606
 31
0.0
  0
LINE
  5
37D
330
1F
100
AcDbEntity
  8
0
  6
Continuous
 62
     7
100
AcDbLine
 10
-16.73548157899677
 20
-16.20917800068855
 30
0.0
 11
-25.77244880795479
 21
-16.20917800068855
 31
0.0
  0
LINE
  5
37E
330
1F
100
AcDbEntity
  8
0
  6
Continuous
 62
     7
100
AcDbLine
 10
-41.55302005066093
 20
-46.3654959037682
 30
0.0
 11
-42.34021485674806
 21
-14.54127170566807
 31
0.0
  0
LINE
  5
37F
330
1F
100
AcDbEntity
  8
0
  6
Continuous
 62
     7
100
AcDbLine
 10
-39.11562954415422
 20
-50.54251235723495
 30
0.0
 11
-25.77244880795479
 21
-50.54251235723495
 31
0.0
  0
LINE
  5
380
330
1F
100
AcDbEntity
  8
0
  6
Continuous
 62
     7
100
AcDbLine
 10
-16.77244853973389
 20
-48.5425122976303
 30
0.0
 11
-25.77244880795479
 21
-48.5425122976303
 31
0.0
  0
LINE
  5
381
330
1F
100
AcDbEntity
  8
0
  6
Continuous
 62
     7
100
AcDbLine
 10
3.333795064214835
 20
1.624130108888451
 30
0.0
 11
3.396580316308924
 21
2.457461642343083
 31
0.0
  0
LINE
  5
382
330
1F
100
AcDbEntity
  8
0
  6
Continuous
 62
     7
100
AcDbLine
 10
4.100822752910972
 20
2.457489222288132
 30
0.0
 11
3.395927712372213
 21
2.457489222288132
 31
0.0
  0
LINE
  5
383
330
1F
100
AcDbEntity
  8
0
  6
Continuous
 62
     7
100
AcDbLine
 10
4.599072821840311
 20
2.915983013497827
 30
0.0
 11
5.060866352597895
 21
8.457505051143475
 31
0.0
  0
LINE
  5
384
330
1F
100
AcDbEntity
  8
0
  6
Continuous
 62
     7
100
AcDbLine
 10
5.727552130818367
 20
10.79082280397415
 30
0.0
 11
5.727552130818367
 21
8.457489401102062
 31
0.0
  0
LINE
  5
385
330
1F
100
AcDbEntity
  8
0
  6
Continuous
 62
     7
100
AcDbLine
 10
-12.4292561944259
 20
-50.54250659759569
 30
0.0
 11
-11.58399593496976
 21
-16.37084820418489
 31
0.0
  0
LINE
  5
386
330
1F
100
AcDbEntity
  8
0
  6
Continuous
 62
     7
100
AcDbLine
 10
-7.244982435480779
 20
-53.08037076009885
 30
0.0
 11
-7.244982435480779
 21
-56.46567944456638
 31
0.0
  0
LINE
  5
387
330
1F
100
AcDbEntity
  8
0
  6
Continuous
 62
     7
100
AcDbLine
 10
-25.77244880795479
 20
-56.87584587931632
 30
0.0
 11
-7.386095720936282
 21
-56.87584587931632
 31
0.0
  0
LINE
  5
388
330
1F
100
AcDbEntity
  8
0
  6
Continuous
 62
     7
100
AcDbLine
 10
-25.77244880795479
 20
-58.54251259565353
 30
0.0
 11
-10.54497032679683
 21
-58.54251259565353
 31
0.0
  0
LINE
  5
389
330
1F
100
AcDbEntity
  8
0
  6
Continuous
 62
     7
100
AcDbLine
 10
-12.37830371476775
 20
-58.54251259565354
 30
0.0
 11
-12.37830371476775
 21
-58.67584898471842
 31
0.0
  0
LINE
  5
38A
330
1F
100
AcDbEntity
  8
0
  6
Continuous
 62
     7
100
AcDbLine
 10
-7.611099337445705
 20
-57.06074791770774
 30
0.0
 11
-10.54497374772664
 21
-58.54250267927988
 31
0.0
  0
LINE
  5
38B
330
1F
100
AcDbEntity
  8
0
  6
Continuous
 62
     7
100
AcDbLine
 10
-47.89508314647144
 20
-47.67964299032247
 30
0.0
 11
-50.96460348106493
 21
-3.453311735103102
 31
0.0
  0
LINE
  5
38C
330
1F
100
AcDbEntity
  8
0
  6
Continuous
 62
     7
100
AcDbLine
 10
-54.02729177241054
 20
-9.875844478607178
 30
0.0
 11
-53.19194425402566
 21
-9.875844478607178
 31
0.0
  0
LINE
  5
38D
330
1F
100
AcDbEntity
  8
0
  6
Continuous
 62
     7
100
AcDbLine
 10
-55.83912043968849
 20
-4.542510986328125
 30
0.0
 11
-53.5620817976087
 21
-4.542510986328125
 31
0.0
  0
LINE
  5
38E
330
1F
100
AcDbEntity
  8
0
  6
Continuous
 62
     7
100
AcDbLine
 10
-7.070937548018126
 20
-52.78755984766489
 30
0.0
 11
-3.514799261125049
 21
-50.8530097824852
 31
0.0
  0
LINE
  5
38F
330
1F
100
AcDbEntity
  8
0
  6
Continuous
 62
     7
100
AcDbLine
 10
0.799390362853956
 20
60.71296377744694
 30
0.0
 11
1.467654136024976
 21
60.71296377744694
 31
0.0
  0
LINE
  5
390
330
1F
100
AcDbEntity
  8
0
  6
Continuous
 62
     7
100
AcDbLine
 10
-44.47396006789136
 20
-52.78755984766489
 30
0.0
 11
-48.03009835478444
 21
-50.85300978248522
 31
0.0
  0
LINE
  5
391
330
1F
100
AcDbEntity
  8
0
  6
Continuous
 62
     7
100
AcDbLine
 10
-43.93379827846381
 20
-57.06074791770765
 30
0.0
 11
-40.99992386818288
 21
-58.54250267927979
 31
0.0
  0
LINE
  5
392
330
1F
100
AcDbEntity
  8
0
  6
Continuous
 62
     7
100
AcDbLine
 10
4.29422282377891
 20
-4.542510986328125
 30
0.0
 11
2.017184181699122
 21
-4.542510986328125
 31
0.0
  0
LINE
  5
393
330
1F
100
AcDbEntity
  8
0
  6
Continuous
 62
     7
100
AcDbLine
 10
2.482394156500959
 20
-9.875844478607178
 30
0.0
 11
1.64704663811608
 21
-9.875844478607178
 31
0.0
  0
LINE
  5
394
330
1F
100
AcDbEntity
  8
0
  6
Continuous
 62
     7
100
AcDbLine
 10
-3.649814469438271
 20
-47.67964299032244
 30
0.0
 11
-0.580294134844776
 21
-3.453311735103057
 31
0.0
  0
LINE
  5
395
330
1F
100
AcDbEntity
  8
0
  6
Continuous
 62
     7
100
AcDbLine
 10
-12.42926807175536
 20
-50.54251235723495
 30
0.0
 11
-25.77244880795479
 21
-50.54251235723495
 31
0.0
  0
LINE
  5
396
330
1F
100
AcDbEntity
  8
0
  6
Continuous
 62
     7
100
AcDbLine
 10
3.333793921457982
 20
1.62415586411953
 30
0.0
 11
2.498100537177379
 21
1.62415586411953
 31
0.0
  0
LINE
  5
397
330
1F
100
AcDbEntity
  8
0
  6
Continuous
 62
     7
100
AcDbLine
 10
-9.991877565248545
 20
-46.36549590376819
 30
0.0
 11
-9.204682759161413
 21
-14.54127170566804
 31
0.0
  0
LINE
  5
398
330
1F
100
AcDbEntity
  8
0
  6
Continuous
 62
     7
100
AcDbLine
 10
-13.10578176379204
 20
-10.54251116514206
 30
0.0
 11
-15.10578182339668
 21
-10.54251116514206
 31
0.0
  0
LINE
  5
399
330
1F
100
AcDbEntity
  8
0
  6
Continuous
 62
     7
100
AcDbLine
 10
-14.99361954791857
 20
-12.87584456801414
 30
0.0
 11
-16.34436828609068
 21
-12.87584456801414
 31
0.0
  0
LINE
  5
39A
330
1F
100
AcDbEntity
  8
0
  6
Continuous
 62
     7
100
AcDbLine
 10
2.482391422268503
 20
-9.875843289685681
 30
0.0
 11
2.528661543414527
 21
-9.209173099571368
 31
0.0
  0
LINE
  5
39B
330
1F
100
AcDbEntity
  8
0
  6
Continuous
 62
     7
100
AcDbLine
 10
-39.16659390114182
 20
-58.54251259565354
 30
0.0
 11
-39.16659390114182
 21
-58.67584898471842
 31
0.0
  0
LINE
  5
39C
330
1F
100
AcDbEntity
  8
0
  6
Continuous
 62
     7
100
AcDbLine
 10
-25.77244880795479
 20
-58.54251259565353
 30
0.0
 11
-40.99992728911275
 21
-58.54251259565353
 31
0.0
  0
LINE
  5
39D
330
1F
100
AcDbEntity
  8
0
  6
Continuous
 62
     7
100
AcDbLine
 10
-25.77244880795479
 20
-56.87584587931632
 30
0.0
 11
-44.15880189497329
 21
-56.87584587931632
 31
0.0
  0
LINE
  5
39E
330
1F
100
AcDbEntity
  8
0
  6
Continuous
 62
     7
100
AcDbLine
 10
-44.2999151804288
 20
-53.08037076009885
 30
0.0
 11
-44.2999151804288
 21
-56.46567944456638
 31
0.0
  0
LINE
  5
39F
330
1F
100
AcDbEntity
  8
0
  6
Continuous
 62
     7
100
AcDbLine
 10
-0.9035418528634
 20
-46.62494557607975
 30
0.0
 11
2.503014994878982
 21
2.457482675024423
 31
0.0
  0
LINE
  5
3A0
330
1F
100
AcDbEntity
  8
0
  6
Continuous
 62
     7
100
AcDbLine
 10
-39.11564142148355
 20
-50.54250659759567
 30
0.0
 11
-39.96090168093969
 21
-16.37084820418488
 31
0.0
  0
LINE
  5
3A1
330
1F
100
AcDbEntity
  8
0
  6
Continuous
 62
     7
100
AcDbLine
 10
-7.491216531455382
 20
-52.40166500143579
 30
0.0
 11
-6.248470352829585
 21
-51.72560729307182
 31
0.0
  0
LINE
  5
3A2
330
1F
100
AcDbEntity
  8
0
  6
Continuous
 62
     7
100
AcDbLine
 10
-57.27244974672795
 20
10.79082280397415
 30
0.0
 11
-57.27244974672795
 21
8.457489401102062
 31
0.0
  0
LINE
  5
3A3
330
1F
100
AcDbEntity
  8
0
  6
Continuous
 62
     7
100
AcDbLine
 10
-56.14397043774975
 20
2.915983013497824
 30
0.0
 11
-56.60576396850733
 21
8.457505051143482
 31
0.0
  0
LINE
  5
3A4
330
1F
100
AcDbEntity
  8
0
  6
Continuous
 62
     7
100
AcDbLine
 10
-55.64572036882055
 20
2.457489222288132
 30
0.0
 11
-54.94082532828179
 21
2.457489222288132
 31
0.0
  0
LINE
  5
3A5
330
1F
100
AcDbEntity
  8
0
  6
Continuous
 62
     7
100
AcDbLine
 10
4.29422282377891
 20
-5.875844359397887
 30
0.0
 11
3.593330672356842
 21
-5.875844359397887
 31
0.0
  0
LINE
  5
3A6
330
1F
100
AcDbEntity
  8
0
  6
Continuous
 62
     7
100
AcDbLine
 10
-54.87869268012452
 20
1.624130108888439
 30
0.0
 11
-54.94147793221861
 21
2.457461642343072
 31
0.0
  0
LINE
  5
3A7
330
1F
100
AcDbEntity
  8
0
  6
Continuous
 62
     7
100
AcDbLine
 10
-4.799298565393201
 20
-49.54262168209083
 30
0.0
 11
-10.47142804758687
 21
-49.54262168209083
 31
0.0
  0
LINE
  5
3A8
330
1F
100
AcDbEntity
  8
0
  6
Continuous
 62
     7
100
AcDbLine
 10
2.412051136826449
 20
-7.809178767601678
 30
0.0
 11
1.790494518367723
 21
-7.809178767601678
 31
0.0
  0
LINE
  5
3A9
330
1F
100
AcDbEntity
  8
0
  6
Continuous
 62
     7
100
AcDbLine
 10
2.95153646237039
 20
-4.542511005017947
 30
0.0
 11
2.744573610405217
 21
-7.499123087619455
 31
0.0
  0
LINE
  5
3AA
330
1F
100
AcDbEntity
  8
0
  6
Continuous
 62
     7
100
AcDbLine
 10
3.593329908072638
 20
-5.875844694194694
 30
0.0
 11
3.392552685178616
 21
-8.74409064984829
 31
0.0
  0
LINE
  5
3AB
330
1F
100
AcDbEntity
  8
0
  6
Continuous
 62
     7
100
AcDbLine
 10
-34.77244907617569
 20
-48.5425122976303
 30
0.0
 11
-25.77244880795479
 21
-48.5425122976303
 31
0.0
  0
LINE
  5
3AC
330
1F
100
AcDbEntity
  8
0
  6
Continuous
 62
     7
100
AcDbLine
 10
-34.80941603691281
 20
-16.20917800068855
 30
0.0
 11
-25.77244880795479
 21
-16.20917800068855
 31
0.0
  0
LINE
  5
3AD
330
1F
100
AcDbEntity
  8
0
  6
Continuous
 62
     7
100
AcDbLine
 10
-25.77246260014161
 20
-45.87583093853379
 30
0.0
 11
-28.7724629088365
 21
-48.54249787959592
 31
0.0
  0
LINE
  5
3AE
330
1F
100
AcDbEntity
  8
0
  6
Continuous
 62
     7
100
AcDbLine
 10
2.893771121885948
 20
-9.209177792072296
 30
0.0
 11
2.528663892580425
 21
-9.209177792072296
 31
0.0
  0
LINE
  5
3AF
330
1F
100
AcDbEntity
  8
0
  6
Continuous
 62
     7
100
AcDbLine
 10
4.259997358891724
 20
-4.54251098632813
 30
0.0
 11
4.259997358891724
 21
-5.875844359397894
 31
0.0
  0
LINE
  5
3B0
330
1F
100
AcDbEntity
  8
0
  6
Continuous
 62
     7
100
AcDbLine
 10
-28.77243507487399
 20
-40.8758445830944
 30
0.0
 11
-25.77244369753086
 21
-45.87583044370017
 31
0.0
  0
LINE
  5
3B1
330
1F
100
AcDbEntity
  8
0
  6
Continuous
 62
     7
100
AcDbLine
 10
-25.77245436351392
 20
-38.2091634829802
 30
0.0
 11
-28.77245467220881
 21
-40.87583042404233
 31
0.0
  0
LINE
  5
3B2
330
1F
100
AcDbEntity
  8
0
  6
Continuous
 62
     7
100
AcDbLine
 10
-28.77244538557825
 20
-33.20917861060754
 30
0.0
 11
-25.77244484922259
 21
-38.20917973623492
 31
0.0
  0
LINE
  5
3B3
330
1F
100
AcDbEntity
  8
0
  6
Continuous
 62
     7
100
AcDbLine
 10
-31.77246575187837
 20
-38.20916306058902
 30
0.0
 11
-34.77246606057327
 21
-40.87583000165115
 31
0.0
  0
LINE
  5
3B4
330
1F
100
AcDbEntity
  8
0
  6
Continuous
 62
     7
100
AcDbLine
 10
-28.77246459840126
 20
-40.87585872425056
 30
0.0
 11
-31.77245730405517
 21
-38.20919854144708
 31
0.0
  0
LINE
  5
3B5
330
1F
100
AcDbEntity
  8
0
  6
Continuous
 62
     7
100
AcDbLine
 10
-28.77244826139898
 20
-33.20918601141699
 30
0.0
 11
-31.77244879775465
 21
-38.20918713704436
 31
0.0
  0
LINE
  5
3B6
330
1F
100
AcDbEntity
  8
0
  6
Continuous
 62
     7
100
AcDbLine
 10
-34.77244055672297
 20
-33.20916889278594
 30
0.0
 11
-31.77244002036731
 21
-38.20917001841331
 31
0.0
  0
LINE
  5
3B7
330
1F
100
AcDbEntity
  8
0
  6
Continuous
 62
     7
100
AcDbLine
 10
-31.77246237274911
 20
-30.54248631242976
 30
0.0
 11
-34.77246268144402
 21
-33.20915325349188
 31
0.0
  0
LINE
  5
3B8
330
1F
100
AcDbEntity
  8
0
  6
Continuous
 62
     7
100
AcDbLine
 10
-28.77244896992801
 20
-33.20918356005815
 30
0.0
 11
-31.77245688166389
 21
-30.54250986073737
 31
0.0
  0
LINE
  5
3B9
330
1F
100
AcDbEntity
  8
0
  6
Continuous
 62
     7
100
AcDbLine
 10
-28.77245735907933
 20
-25.54251284256328
 30
0.0
 11
-31.77245658700462
 21
-30.54251178747326
 31
0.0
  0
LINE
  5
3BA
330
1F
100
AcDbEntity
  8
0
  6
Continuous
 62
     7
100
AcDbLine
 10
-34.77245130357063
 20
-25.54249725043393
 30
0.0
 11
-31.77245076721496
 21
-30.54249837606131
 31
0.0
  0
LINE
  5
3BB
330
1F
100
AcDbEntity
  8
0
  6
Continuous
 62
     7
100
AcDbLine
 10
-25.77245943220786
 20
-30.54250785437919
 30
0.0
 11
-28.77245974090276
 21
-33.20917479544131
 31
0.0
  0
LINE
  5
3BC
330
1F
100
AcDbEntity
  8
0
  6
Continuous
 62
     7
100
AcDbLine
 10
-28.77243345296523
 20
-25.54250522368204
 30
0.0
 11
-25.77243291660957
 21
-30.54250634930941
 31
0.0
  0
LINE
  5
3BD
330
1F
100
AcDbEntity
  8
0
  6
Continuous
 62
     7
100
AcDbLine
 10
-25.772460382588
 20
-22.87582814948174
 30
0.0
 11
-28.77246069128289
 21
-25.54249509054387
 31
0.0
  0
LINE
  5
3BE
330
1F
100
AcDbEntity
  8
0
  6
Continuous
 62
     7
100
AcDbLine
 10
-28.77244899739102
 20
-17.8758305283257
 30
0.0
 11
-25.77244846103535
 21
-22.87583165395307
 31
0.0
  0
LINE
  5
3BF
330
1F
100
AcDbEntity
  8
0
  6
Continuous
 62
     7
100
AcDbLine
 10
-31.77246839182315
 20
-22.87583152861103
 30
0.0
 11
-34.77246204785719
 21
-25.54249255619683
 31
0.0
  0
LINE
  5
3C0
330
1F
100
AcDbEntity
  8
0
  6
Continuous
 62
     7
100
AcDbLine
 10
-28.77245403862204
 20
-25.5425087126591
 30
0.0
 11
-31.77244674427595
 21
-22.87584852985562
 31
0.0
  0
LINE
  5
3C1
330
1F
100
AcDbEntity
  8
0
  6
Continuous
 62
     7
100
AcDbLine
 10
-28.77243559960888
 20
-17.87585744655522
 30
0.0
 11
-31.77243646307214
 21
-22.87585911736193
 31
0.0
  0
LINE
  5
3C2
330
1F
100
AcDbEntity
  8
0
  6
Continuous
 62
     7
100
AcDbLine
 10
-34.77244896611396
 20
-17.87581775749973
 30
0.0
 11
-31.7724484297583
 21
-22.8758188831271
 31
0.0
  0
LINE
  5
3C3
330
1F
100
AcDbEntity
  8
0
  6
Continuous
 62
     7
100
AcDbLine
 10
-31.77247504448406
 20
-45.87581784440766
 30
0.0
 11
-34.7724772539392
 21
-48.54248647503446
 31
0.0
  0
LINE
  5
3C4
330
1F
100
AcDbEntity
  8
0
  6
Continuous
 62
     7
100
AcDbLine
 10
-28.7724527714486
 20
-48.54252596860862
 30
0.0
 11
-31.77246068318448
 21
-45.87585226928784
 31
0.0
  0
LINE
  5
3C5
330
1F
100
AcDbEntity
  8
0
  6
Continuous
 62
     7
100
AcDbLine
 10
-34.77244376646635
 20
-40.87583704598991
 30
0.0
 11
-31.77244192168033
 21
-45.87584035233466
 31
0.0
  0
LINE
  5
3C6
330
1F
100
AcDbEntity
  8
0
  6
Continuous
 62
     7
100
AcDbLine
 10
-28.77245192091537
 20
-40.87585078450914
 30
0.0
 11
-31.77244951330271
 21
-45.87584700352242
 31
0.0
  0
LINE
  5
3C7
330
1F
100
AcDbEntity
  8
0
  6
Continuous
 62
     7
100
AcDbLine
 10
-28.77244889736176
 20
-17.87584471702576
 30
0.0
 11
-28.77244889736176
 21
-48.54251229763032
 31
0.0
  0
LINE
  5
3C8
330
1F
100
AcDbEntity
  8
0
  6
Continuous
 62
     7
100
AcDbLine
 10
-34.77244907617569
 20
-40.87584540247917
 30
0.0
 11
-25.77244880795479
 21
-40.87584540247917
 31
0.0
  0
LINE
  5
3C9
330
1F
100
AcDbEntity
  8
0
  6
Continuous
 62
     7
100
AcDbLine
 10
-34.77244907617569
 20
-33.20917850732803
 30
0.0
 11
-25.77244880795479
 21
-33.20917850732803
 31
0.0
  0
LINE
  5
3CA
330
1F
100
AcDbEntity
  8
0
  6
Continuous
 62
     7
100
AcDbLine
 10
-34.77244907617569
 20
-25.5425116121769
 30
0.0
 11
-25.77244880795479
 21
-25.5425116121769
 31
0.0
  0
LINE
  5
3CB
330
1F
100
AcDbEntity
  8
0
  6
Continuous
 62
     7
100
AcDbLine
 10
-34.77244907617569
 20
-17.87584471702576
 30
0.0
 11
-34.77244907617569
 21
-48.54251229763032
 31
0.0
  0
LINE
  5
3CC
330
1F
100
AcDbEntity
  8
0
  6
Continuous
 62
     7
100
AcDbLine
 10
-34.77244907617569
 20
-17.87584471702576
 30
0.0
 11
-25.77244880795479
 21
-17.87584471702576
 31
0.0
  0
LINE
  5
3CD
330
1F
100
AcDbEntity
  8
0
  6
Continuous
 62
     7
100
AcDbLine
 10
-36.55127806799101
 20
-12.87584456801414
 30
0.0
 11
-35.20052932981889
 21
-12.87584456801414
 31
0.0
  0
LINE
  5
3CE
330
1F
100
AcDbEntity
  8
0
  6
Continuous
 62
     7
100
AcDbLine
 10
-38.43911585211754
 20
-10.54251116514206
 30
0.0
 11
-36.43911579251289
 21
-10.54251116514206
 31
0.0
  0
LINE
  5
3CF
330
1F
100
AcDbEntity
  8
0
  6
Continuous
 62
     7
100
AcDbLine
 10
-54.87869153736756
 20
1.62415586411953
 30
0.0
 11
-54.04299815308696
 21
1.62415586411953
 31
0.0
  0
LINE
  5
3D0
330
1F
100
AcDbEntity
  8
0
  6
Continuous
 62
     7
100
AcDbLine
 10
-44.2999151804288
 20
-52.88142729815586
 30
0.0
 11
-25.77244880795479
 21
-52.88142729815586
 31
0.0
  0
LINE
  5
3D1
330
1F
100
AcDbEntity
  8
0
  6
Continuous
 62
     7
100
AcDbLine
 10
-55.33708591951836
 20
2.457489222288132
 30
0.0
 11
-25.77244880795479
 21
2.457489222288132
 31
0.0
  0
LINE
  5
3D2
330
1F
100
AcDbEntity
  8
0
  6
Continuous
 62
     7
100
AcDbLine
 10
-57.27244974672794
 20
8.457489401102066
 30
0.0
 11
-25.77244880795479
 21
8.457489401102066
 31
0.0
  0
LINE
  5
3D3
330
1F
100
AcDbEntity
  8
0
  6
Continuous
 62
     7
100
AcDbLine
 10
-57.27244974672794
 20
10.79082280397415
 30
0.0
 11
-25.77244880795479
 21
10.79082280397415
 31
0.0
  0
LINE
  5
3D4
330
1F
100
AcDbEntity
  8
0
  6
CENTER
 62
     7
100
AcDbLine
 10
-25.77244880795479
 20
12.45748952031136
 30
0.0
 11
-25.77244880795479
 21
-71.57585343817891
 31
0.0
  0
LINE
  5
3D5
330
1F
100
AcDbEntity
  8
0
  6
Continuous
 62
     7
100
AcDbLine
 10
-13.38106049920953
 20
-69.57595001757454
 30
0.0
 11
-38.16382694417371
 21
-69.57595001757454
 31
0.0
  0
LINE
  5
3D6
330
1F
100
AcDbEntity
  8
0
  6
Continuous
 62
     7
100
AcDbLine
 10
-10.53910774050086
 20
-58.67584584981244
 30
0.0
 11
-10.71389417734436
 21
-65.66730374040596
 31
0.0
  0
LINE
  5
3D7
330
1F
100
AcDbEntity
  8
0
  6
Continuous
 62
     7
100
AcDbLine
 10
-11.05577933041069
 20
-66.00917986037524
 30
0.0
 11
-10.71390028390048
 21
-65.66730078504676
 31
0.0
  0
LINE
  5
3D8
330
1F
100
AcDbEntity
  8
0
  6
Continuous
 62
     7
100
AcDbLine
 10
-13.2949095421474
 20
-66.00918543716575
 30
0.0
 11
-13.38106315555412
 21
-69.57594507872291
 31
0.0
  0
LINE
  5
3D9
330
1F
100
AcDbEntity
  8
0
  6
Continuous
 62
     7
100
AcDbLine
 10
-13.38106538482971
 20
-69.57594747789109
 30
0.0
 11
-13.73079836806728
 21
-69.90918357611862
 31
0.0
  0
LINE
  5
3DA
330
1F
100
AcDbEntity
  8
0
  6
Continuous
 62
     7
100
AcDbLine
 10
-13.73079195494483
 20
-69.9091867218417
 30
0.0
 11
-37.8140954884384
 21
-69.9091867218417
 31
0.0
  0
LINE
  5
3DB
330
1F
100
AcDbEntity
  8
0
  6
Continuous
 62
     7
100
AcDbLine
 10
-10.53911095162221
 20
-58.67584898471841
 30
0.0
 11
-41.00577649176103
 21
-58.67584898471841
 31
0.0
  0
LINE
  5
3DC
330
1F
100
AcDbEntity
  8
0
  6
Continuous
 62
     7
100
AcDbLine
 10
-11.0557735646762
 20
-66.00918253660211
 30
0.0
 11
-40.48911387870703
 21
-66.00918253660211
 31
0.0
  0
LINE
  5
3DD
330
1F
100
AcDbEntity
  8
0
  6
Continuous
 62
     7
100
AcDbLine
 10
-41.00577534721842
 20
-58.67585342680882
 30
0.0
 11
-40.83098903749177
 21
-65.66730623272787
 31
0.0
  0
LINE
  5
3DE
330
1F
100
AcDbEntity
  8
0
  6
Continuous
 62
     7
100
AcDbLine
 10
-40.48911654961569
 20
-66.00917664702109
 30
0.0
 11
-40.8309955961259
 21
-65.66729757169264
 31
0.0
  0
LINE
  5
3DF
330
1F
100
AcDbEntity
  8
0
  6
Continuous
 62
     7
100
AcDbLine
 10
-10.7138952992791
 20
-65.66730427120501
 30
0.0
 11
-40.83099214410413
 21
-65.66730427120501
 31
0.0
  0
LINE
  5
3E0
330
1F
100
AcDbEntity
  8
0
  6
Continuous
 62
     7
100
AcDbLine
 10
-38.24998211510913
 20
-66.00917676888155
 30
0.0
 11
-38.16382837888164
 21
-69.57594149521876
 31
0.0
  0
LINE
  5
3E1
330
1F
100
AcDbEntity
  8
0
  6
Continuous
 62
     7
100
AcDbLine
 10
-38.16382654166112
 20
-69.57594584127169
 30
0.0
 11
-37.81409355842356
 21
-69.9091819394992
 31
0.0
  0
LINE
  5
3E2
330
1F
100
AcDbEntity
  8
0
  6
Continuous
 62
     7
100
AcDbLine
 10
72.28562906557543
 20
-69.57596019010089
 30
0.0
 11
47.50286262061127
 21
-69.57596019010089
 31
0.0
  0
LINE
  5
3E3
330
1F
100
AcDbEntity
  8
0
  6
Continuous
 62
     7
100
AcDbLine
 10
75.12758182428423
 20
-58.67585602233878
 30
0.0
 11
74.95279538744074
 21
-65.66731391293229
 31
0.0
  0
LINE
  5
3E4
330
1F
100
AcDbEntity
  8
0
  6
Continuous
 62
     7
100
AcDbLine
 10
74.61091023437437
 20
-66.00919003290171
 30
0.0
 11
74.95278928088459
 21
-65.66731095757325
 31
0.0
  0
LINE
  5
3E5
330
1F
100
AcDbEntity
  8
0
  6
Continuous
 62
     7
100
AcDbLine
 10
72.37178002263768
 20
-66.0091956096921
 30
0.0
 11
72.28562640923096
 21
-69.57595525124925
 31
0.0
  0
LINE
  5
3E6
330
1F
100
AcDbEntity
  8
0
  6
Continuous
 62
     7
100
AcDbLine
 10
72.2856241799552
 20
-69.57595765041741
 30
0.0
 11
71.93589119671763
 21
-69.90919374864494
 31
0.0
  0
LINE
  5
3E7
330
1F
100
AcDbEntity
  8
0
  6
Continuous
 62
     7
100
AcDbLine
 10
71.93589760984013
 20
-69.90919689436805
 30
0.0
 11
47.85259407634658
 21
-69.90919689436805
 31
0.0
  0
LINE
  5
3E8
330
1F
100
AcDbEntity
  8
0
  6
Continuous
 62
     7
100
AcDbLine
 10
75.12757861316275
 20
-58.67585915724475
 30
0.0
 11
44.66091307302395
 21
-58.67585915724475
 31
0.0
  0
LINE
  5
3E9
330
1F
100
AcDbEntity
  8
0
  6
Continuous
 62
     7
100
AcDbLine
 10
74.61091600010876
 20
-66.00919270912846
 30
0.0
 11
45.17757568607794
 21
-66.00919270912846
 31
0.0
  0
LINE
  5
3EA
330
1F
100
AcDbEntity
  8
0
  6
Continuous
 62
     7
100
AcDbLine
 10
44.66091421756657
 20
-58.67586359933517
 30
0.0
 11
44.83570052729322
 21
-65.6673164052542
 31
0.0
  0
LINE
  5
3EB
330
1F
100
AcDbEntity
  8
0
  6
Continuous
 62
     7
100
AcDbLine
 10
45.17757301516933
 20
-66.00918681954738
 30
0.0
 11
44.83569396865911
 21
-65.66730774421892
 31
0.0
  0
LINE
  5
3EC
330
1F
100
AcDbEntity
  8
0
  6
Continuous
 62
     7
100
AcDbLine
 10
74.95279426550586
 20
-65.66731444373136
 30
0.0
 11
44.83569742068084
 21
-65.66731444373136
 31
0.0
  0
LINE
  5
3ED
330
1F
100
AcDbEntity
  8
0
  6
Continuous
 62
     7
100
AcDbLine
 10
47.41670744967586
 20
-66.00918694140788
 30
0.0
 11
47.50286118590336
 21
-69.57595166774509
 31
0.0
  0
LINE
  5
3EE
330
1F
100
AcDbEntity
  8
0
  6
Continuous
 62
     7
100
AcDbLine
 10
47.50286302312382
 20
-69.57595601379803
 30
0.0
 11
47.85259600636138
 21
-69.90919211202555
 31
0.0
  0
LINE
  5
3EF
330
1F
100
AcDbEntity
  8
0
  6
Continuous
 62
     7
100
AcDbLine
 10
41.03068764921947
 20
-26.34066912089612
 30
0.0
 11
39.83668136764373
 21
-12.69310316608221
 31
0.0
  0
LINE
  5
3F0
330
1F
100
AcDbEntity
  8
0
  6
Continuous
 62
     7
100
AcDbLine
 10
46.0228322864632
 20
-34.54252205292414
 30
0.0
 11
41.74825618516394
 21
-34.54252205292414
 31
0.0
  0
ARC
  5
3F1
330
1F
100
AcDbEntity
  8
0
  6
Continuous
 62
     7
100
AcDbCircle
 10
-44.63324852369625
 20
-53.08037076009884
 30
0.0
 40
0.3333333432674408
100
AcDbArc
 50
0.0
 51
61.45367766089509
  0
ARC
  5
3F2
330
1F
100
AcDbEntity
  8
0
  6
Continuous
 62
     7
100
AcDbCircle
 10
-0.419237603151487
 20
99.9857208886215
 30
0.0
 40
1.000000029802322
100
AcDbArc
 50
359.9999974955218
 51
90.00000000000001
  0
ARC
  5
3F3
330
1F
100
AcDbEntity
  8
0
  6
Continuous
 62
     7
100
AcDbCircle
 10
2.332898709337314
 20
47.21359407174896
 30
0.0
 40
1.666666716337204
100
AcDbArc
 50
269.9999949910436
 51
359.9999974955218
  0
ARC
  5
3F4
330
1F
100
AcDbEntity
  8
0
  6
Continuous
 62
     7
100
AcDbCircle
 10
2.876955935837941
 20
46.13612008130441
 30
0.0
 40
1.666666716337204
100
AcDbArc
 50
269.9999949910436
 51
359.9999974955218
  0
ARC
  5
3F5
330
1F
100
AcDbEntity
  8
0
  6
Continuous
 62
     7
100
AcDbCircle
 10
-5.045834827623367
 20
55.20629043625195
 30
0.0
 40
0.3333333432674408
100
AcDbArc
 50
270.0000359721787
 51
353.6204505465682
  0
ARC
  5
3F6
330
1F
100
AcDbEntity
  8
0
  6
Continuous
 62
     7
100
AcDbCircle
 10
-2.397743114589503
 20
57.85438214928582
 30
0.0
 40
0.3333333432674408
100
AcDbArc
 50
276.3795146192406
 51
0.000017986089343
  0
ARC
  5
3F7
330
1F
100
AcDbEntity
  8
0
  6
Continuous
 62
     7
100
AcDbCircle
 10
-10.07245139181623
 20
66.69082345267134
 30
0.0
 40
1.566666649778682
100
AcDbArc
 50
270.0000359721787
 51
0.000017986089343
  0
ARC
  5
3F8
330
1F
100
AcDbEntity
  8
0
  6
Continuous
 62
     7
100
AcDbCircle
 10
0.927645575009592
 20
49.21359413135361
 30
0.0
 40
1.666666716337204
100
AcDbArc
 50
270.0000359721787
 51
0.000017986089343
  0
ARC
  5
3F9
330
1F
100
AcDbEntity
  8
0
  6
Continuous
 62
     7
100
AcDbCircle
 10
1.375989501131698
 20
48.72020753014238
 30
0.0
 40
1.000000029802322
100
AcDbArc
 50
312.2617631597409
 51
356.8784029693401
  0
ARC
  5
3FA
330
1F
100
AcDbEntity
  8
0
  6
Continuous
 62
     7
100
AcDbCircle
 10
1.179649570150104
 20
48.59639008260468
 30
0.0
 40
1.000000029802322
100
AcDbArc
 50
243.5011932936247
 51
292.2099087180052
  0
ARC
  5
3FB
330
1F
100
AcDbEntity
  8
0
  6
Continuous
 62
     7
100
AcDbCircle
 10
-4.28226465512762
 20
49.02878475898388
 30
0.0
 40
6.666666865348816
100
AcDbArc
 50
356.8784097995293
 51
34.68223985545878
  0
ARC
  5
3FC
330
1F
100
AcDbEntity
  8
0
  6
Continuous
 62
     7
100
AcDbCircle
 10
2.220736433859201
 20
50.68459103188219
 30
0.0
 40
3.333333432674408
100
AcDbArc
 50
214.6822619398881
 51
243.501165972868
  0
ARC
  5
3FD
330
1F
100
AcDbEntity
  8
0
  6
Continuous
 62
     7
100
AcDbCircle
 10
0.927645575009592
 20
49.21359413135361
 30
0.0
 40
1.666666716337204
100
AcDbArc
 50
292.2099260208492
 51
312.2617768201192
  0
ARC
  5
3FE
330
1F
100
AcDbEntity
  8
0
  6
Continuous
 62
     7
100
AcDbCircle
 10
-2.064409771322062
 20
54.87295709298451
 30
0.0
 40
2.666666746139526
100
AcDbArc
 50
96.37934716592045
 51
173.6206536310105
  0
ARC
  5
3FF
330
1F
100
AcDbEntity
  8
0
  6
Continuous
 62
     7
100
AcDbCircle
 10
1.294222734371942
 20
100.6523875751564
 30
0.0
 40
0.3333333432674408
100
AcDbArc
 50
0.000017986089368
 51
90.00000000000001
  0
ARC
  5
400
330
1F
100
AcDbEntity
  8
0
  6
Continuous
 62
     7
100
AcDbCircle
 10
2.294222764174265
 20
100.7908254861832
 30
0.0
 40
2.000000059604645
100
AcDbArc
 50
0.000017986089368
 51
90.00000000000001
  0
ARC
  5
401
330
1F
100
AcDbEntity
  8
0
  6
Continuous
 62
     7
100
AcDbCircle
 10
1.294222734371942
 20
100.6241588145495
 30
0.0
 40
1.333333373069763
100
AcDbArc
 50
0.000017986089368
 51
90.00000000000001
  0
ARC
  5
402
330
1F
100
AcDbEntity
  8
0
  6
Continuous
 62
     7
100
AcDbCircle
 10
1.627556077639383
 20
100.6241588145495
 30
0.0
 40
1.333333373069763
100
AcDbArc
 50
0.000017986089368
 51
90.00000000000001
  0
ARC
  5
403
330
1F
100
AcDbEntity
  8
0
  6
Continuous
 62
     7
100
AcDbCircle
 10
-9.405784705281349
 20
95.55749301413701
 30
0.0
 40
0.9000000427166626
100
AcDbArc
 50
0.000017986089368
 51
90.00000000000001
  0
ARC
  5
404
330
1F
100
AcDbEntity
  8
0
  6
Continuous
 62
     7
100
AcDbCircle
 10
-3.064409801124384
 20
97.8489512123106
 30
0.0
 40
1.000000029802322
100
AcDbArc
 50
0.000017986089368
 51
90.00000000000001
  0
ARC
  5
405
330
1F
100
AcDbEntity
  8
0
  6
Continuous
 62
     7
100
AcDbCircle
 10
-25.77244880795479
 20
80.79082489013672
 30
0.0
 40
15.2333340416352
100
AcDbArc
 50
269.9999949910436
 51
90.0
  0
ARC
  5
406
330
1F
100
AcDbEntity
  8
0
  6
Continuous
 62
     7
100
AcDbCircle
 10
-25.77244880795479
 20
80.79082489013672
 30
0.0
 40
12.7333339671294
100
AcDbArc
 50
269.9999949910436
 51
90.0
  0
ARC
  5
407
330
1F
100
AcDbEntity
  8
0
  6
Continuous
 62
     7
100
AcDbCircle
 10
-25.77244880795479
 20
80.79082489013672
 30
0.0
 40
11.75000035017729
100
AcDbArc
 50
269.9999949910436
 51
90.0
  0
CIRCLE
  5
408
330
1F
100
AcDbEntity
  8
0
  6
Continuous
 62
     7
100
AcDbCircle
 10
3.666232082407078
 20
50.79082399606705
 30
0.0
 40
0.3333333432674408
  0
ARC
  5
409
330
1F
100
AcDbEntity
  8
0
  6
Continuous
 62
     7
100
AcDbCircle
 10
3.060885384678841
 20
46.12415719032288
 30
0.0
 40
2.666666746139526
100
AcDbArc
 50
269.999991348578
 51
0.000000683245332
  0
ARC
  5
40A
330
1F
100
AcDbEntity
  8
0
  6
Continuous
 62
     7
100
AcDbCircle
 10
-51.1256600127581
 20
99.9857208886215
 30
0.0
 40
1.000000029802322
100
AcDbArc
 50
90.00000000000001
 51
180.0000025044782
  0
ARC
  5
40B
330
1F
100
AcDbEntity
  8
0
  6
Continuous
 62
     7
100
AcDbCircle
 10
73.6781360243931
 20
-48.16604617109498
 30
0.0
 40
5.000000149011612
100
AcDbArc
 50
331.8267349662411
 51
356.9999913787809
  0
ARC
  5
40C
330
1F
100
AcDbEntity
  8
0
  6
Continuous
 62
     7
100
AcDbCircle
 10
37.90535867247399
 20
-45.82324723245903
 30
0.0
 40
5.000000149011612
100
AcDbArc
 50
187.9999769998262
 51
250.8184767210516
  0
ARC
  5
40D
330
1F
100
AcDbEntity
  8
0
  6
Continuous
 62
     7
100
AcDbCircle
 10
-45.64075079167788
 20
-46.4608573690557
 30
0.0
 40
5.000000149011612
100
AcDbArc
 50
183.970220031032
 51
241.4536521613713
  0
ARC
  5
40E
330
1F
100
AcDbEntity
  8
0
  6
Continuous
 62
     7
100
AcDbCircle
 10
-42.90708270076812
 20
-47.33345159265217
 30
0.0
 40
5.000000149011612
100
AcDbArc
 50
183.970220031032
 51
241.4536794821279
  0
ARC
  5
40F
330
1F
100
AcDbEntity
  8
0
  6
Continuous
 62
     7
100
AcDbCircle
 10
-48.4804878147852
 20
97.8489512123106
 30
0.0
 40
1.000000029802322
100
AcDbArc
 50
90.00000000000001
 51
179.9999820139107
  0
ARC
  5
410
330
1F
100
AcDbEntity
  8
0
  6
Continuous
 62
     7
100
AcDbCircle
 10
-41.47244622409335
 20
66.69082345267134
 30
0.0
 40
1.566666649778682
100
AcDbArc
 50
179.9999820139107
 51
269.9999640278213
  0
ARC
  5
411
330
1F
100
AcDbEntity
  8
0
  6
Continuous
 62
     7
100
AcDbCircle
 10
-46.49906278828622
 20
55.20629043625195
 30
0.0
 40
0.3333333432674408
100
AcDbArc
 50
186.3795494534318
 51
269.9999640278213
  0
ARC
  5
412
330
1F
100
AcDbEntity
  8
0
  6
Continuous
 62
     7
100
AcDbCircle
 10
-25.77244880795479
 20
80.79082489013672
 30
0.0
 40
15.2333340416352
100
AcDbArc
 50
90.00000000000001
 51
270.0000050089564
  0
ARC
  5
413
330
1F
100
AcDbEntity
  8
0
  6
Continuous
 62
     7
100
AcDbCircle
 10
-25.77244880795479
 20
80.79082489013672
 30
0.0
 40
12.7333339671294
100
AcDbArc
 50
90.00000000000001
 51
270.0000050089564
  0
ARC
  5
414
330
1F
100
AcDbEntity
  8
0
  6
Continuous
 62
     7
100
AcDbCircle
 10
-25.77244880795479
 20
80.79082489013672
 30
0.0
 40
11.75000035017729
100
AcDbArc
 50
90.00000000000001
 51
270.0000050089564
  0
ARC
  5
415
330
1F
100
AcDbEntity
  8
0
  6
Continuous
 62
     7
100
AcDbCircle
 10
-54.42185355174752
 20
46.13612008130441
 30
0.0
 40
1.666666716337204
100
AcDbArc
 50
180.0000025044782
 51
270.0000050089564
  0
ARC
  5
416
330
1F
100
AcDbEntity
  8
0
  6
Continuous
 62
     7
100
AcDbCircle
 10
-49.14715450132008
 20
57.85438214928582
 30
0.0
 40
0.3333333432674408
100
AcDbArc
 50
179.9999820139107
 51
263.6204853807594
  0
ARC
  5
417
330
1F
100
AcDbEntity
  8
0
  6
Continuous
 62
     7
100
AcDbCircle
 10
-54.60578300058842
 20
46.12415719032288
 30
0.0
 40
2.666666746139526
100
AcDbArc
 50
180.0000025044782
 51
270.0000050089564
  0
ARC
  5
418
330
1F
100
AcDbEntity
  8
0
  6
Continuous
 62
     7
100
AcDbCircle
 10
-53.8777963252469
 20
47.21359407174896
 30
0.0
 40
1.666666716337204
100
AcDbArc
 50
180.0000025044782
 51
270.0000050089564
  0
CIRCLE
  5
419
330
1F
100
AcDbEntity
  8
0
  6
Continuous
 62
     7
100
AcDbCircle
 10
-55.21112969831666
 20
50.79082399606705
 30
0.0
 40
0.3333333432674408
  0
ARC
  5
41A
330
1F
100
AcDbEntity
  8
0
  6
Continuous
 62
     7
100
AcDbCircle
 10
-53.83912038008385
 20
100.7908254861832
 30
0.0
 40
2.000000059604645
100
AcDbArc
 50
90.00000000000001
 51
179.9999820139107
  0
ARC
  5
41B
330
1F
100
AcDbEntity
  8
0
  6
Continuous
 62
     7
100
AcDbCircle
 10
-53.17245369354897
 20
100.6241588145495
 30
0.0
 40
1.333333373069763
100
AcDbArc
 50
90.00000000000001
 51
179.9999820139107
  0
ARC
  5
41C
330
1F
100
AcDbEntity
  8
0
  6
Continuous
 62
     7
100
AcDbCircle
 10
-52.83912035028153
 20
100.6241588145495
 30
0.0
 40
1.333333373069763
100
AcDbArc
 50
90.00000000000001
 51
179.9999820139107
  0
ARC
  5
41D
330
1F
100
AcDbEntity
  8
0
  6
Continuous
 62
     7
100
AcDbCircle
 10
-52.83912035028153
 20
100.6523875751564
 30
0.0
 40
0.3333333432674408
100
AcDbArc
 50
90.00000000000001
 51
179.9999820139107
  0
ARC
  5
41E
330
1F
100
AcDbEntity
  8
0
  6
Continuous
 62
     7
100
AcDbCircle
 10
-52.92088966017287
 20
48.72020753014238
 30
0.0
 40
1.000000029802322
100
AcDbArc
 50
183.1215970306599
 51
227.7382368402592
  0
ARC
  5
41F
330
1F
100
AcDbEntity
  8
0
  6
Continuous
 62
     7
100
AcDbCircle
 10
-52.47254319091918
 20
49.21359413135361
 30
0.0
 40
1.666666716337204
100
AcDbArc
 50
179.9999820139107
 51
269.9999640278213
  0
ARC
  5
420
330
1F
100
AcDbEntity
  8
0
  6
Continuous
 62
     7
100
AcDbCircle
 10
-47.26263041765038
 20
49.02878475898388
 30
0.0
 40
6.666666865348816
100
AcDbArc
 50
145.3177601445412
 51
183.1215902004708
  0
ARC
  5
421
330
1F
100
AcDbEntity
  8
0
  6
Continuous
 62
     7
100
AcDbCircle
 10
-53.7656315066372
 20
50.68459103188219
 30
0.0
 40
3.333333432674408
100
AcDbArc
 50
296.498834027132
 51
325.3177380601119
  0
ARC
  5
422
330
1F
100
AcDbEntity
  8
0
  6
Continuous
 62
     7
100
AcDbCircle
 10
34.39423999687096
 20
6.787567476334517
 30
0.0
 40
3.333333432674408
100
AcDbArc
 50
348.6900417250849
 51
0.0
  0
ARC
  5
423
330
1F
100
AcDbEntity
  8
0
  6
Continuous
 62
     7
100
AcDbCircle
 10
36.18103916307745
 20
2.124186396599725
 30
0.0
 40
0.6666666865348816
100
AcDbArc
 50
270.0000179860893
 51
348.6901962581149
  0
ARC
  5
424
330
1F
100
AcDbEntity
  8
0
  6
Continuous
 62
     7
100
AcDbCircle
 10
22.72755263745785
 20
8.624156072735786
 30
0.0
 40
0.1666666716337204
100
AcDbArc
 50
180.0000359721787
 51
270.0000453068461
  0
ARC
  5
425
330
1F
100
AcDbEntity
  8
0
  6
Continuous
 62
     7
100
AcDbCircle
 10
37.56088641285896
 20
9.790827860435002
 30
0.0
 40
1.000000029802322
100
AcDbArc
 50
0.00002732075668
 51
90.00002982523485
  0
ARC
  5
426
330
1F
100
AcDbEntity
  8
0
  6
Continuous
 62
     7
100
AcDbCircle
 10
24.50544575684944
 20
2.957489237189293
 30
0.0
 40
0.5000000149011612
100
AcDbArc
 50
188.0000316413395
 51
270.0000179860893
  0
ARC
  5
427
330
1F
100
AcDbEntity
  8
0
  6
Continuous
 62
     7
100
AcDbCircle
 10
26.01285140073196
 20
2.390818484624106
 30
0.0
 40
0.0666666696468989
100
AcDbArc
 50
8.000022989917515
 51
90.00002982523485
  0
ARC
  5
428
330
1F
100
AcDbEntity
  8
0
  6
Continuous
 62
     7
100
AcDbCircle
 10
32.39421959221363
 20
-3.042510941624641
 30
0.0
 40
0.1666666716337204
100
AcDbArc
 50
180.0000359721787
 51
270.0000453068461
  0
ARC
  5
429
330
1F
100
AcDbEntity
  8
0
  6
Continuous
 62
     7
100
AcDbCircle
 10
35.35544201119409
 20
-3.542510956525803
 30
0.0
 40
0.3333333432674408
100
AcDbArc
 50
5.000026321529495
 51
90.00002982523485
  0
ARC
  5
42A
330
1F
100
AcDbEntity
  8
0
  6
Continuous
 62
     7
100
AcDbCircle
 10
79.22755432128906
 20
-13.04250615338469
 30
0.0
 40
0.1666666716337204
100
AcDbArc
 50
270.0000179860893
 51
0.00002732075668
  0
ARC
  5
42B
330
1F
100
AcDbEntity
  8
0
  6
Continuous
 62
     7
100
AcDbCircle
 10
39.50463748803985
 20
-12.72219364383864
 30
0.0
 40
0.3333333432674408
100
AcDbArc
 50
5.000026321529495
 51
75.00002599272723
  0
ARC
  5
42C
330
1F
100
AcDbEntity
  8
0
  6
Continuous
 62
     7
100
AcDbCircle
 10
47.74826464615398
 20
-33.20917342106486
 30
0.0
 40
1.333333373069763
100
AcDbArc
 50
180.0000050089563
 51
270.0000006832453
  0
ARC
  5
42D
330
1F
100
AcDbEntity
  8
0
  6
Continuous
 62
     7
100
AcDbCircle
 10
46.34374393372308
 20
-25.87583732604958
 30
0.0
 40
5.333333492279053
100
AcDbArc
 50
185.0000486333298
 51
267.3485385502904
  0
ARC
  5
42E
330
1F
100
AcDbEntity
  8
0
  6
Continuous
 62
     7
100
AcDbCircle
 10
72.80471273989951
 20
-31.87584259112668
 30
0.0
 40
2.666666746139526
100
AcDbArc
 50
270.0000179860893
 51
355.0000283199839
  0
ARC
  5
42F
330
1F
100
AcDbEntity
  8
0
  6
Continuous
 62
     7
100
AcDbCircle
 10
22.72755263745785
 20
8.622569158625993
 30
0.0
 40
0.1666666716337204
100
AcDbArc
 50
180.0000050089563
 51
269.4543505308313
  0
ARC
  5
430
330
1F
100
AcDbEntity
  8
0
  6
Continuous
 62
     7
100
AcDbCircle
 10
74.89422085881233
 20
-5.875839273134715
 30
0.0
 40
1.333333373069763
100
AcDbArc
 50
90.00002982523485
 51
180.000032329713
  0
ARC
  5
431
330
1F
100
AcDbEntity
  8
0
  6
Continuous
 62
     7
100
AcDbCircle
 10
77.42014053044477
 20
-13.54250616828585
 30
0.0
 40
0.3333333432674408
100
AcDbArc
 50
90.00002982523485
 51
175.0000333289402
  0
ARC
  5
432
330
1F
100
AcDbEntity
  8
0
  6
Continuous
 62
     7
100
AcDbCircle
 10
46.08159792981677
 20
-31.53644133589455
 30
0.0
 40
0.3333333432674408
100
AcDbArc
 50
0.00002732075668
 51
87.34851623849005
  0
ARC
  5
433
330
1F
100
AcDbEntity
  8
0
  6
Continuous
 62
     7
100
AcDbCircle
 10
26.01285140073196
 20
2.390818484624106
 30
0.0
 40
0.0666666696468989
100
AcDbArc
 50
8.000022989917515
 51
90.00002982523485
  0
ARC
  5
434
330
1F
100
AcDbEntity
  8
0
  6
Continuous
 62
     7
100
AcDbCircle
 10
83.46622225360079
 20
-55.65919138342178
 30
0.0
 40
0.1666666716337204
100
AcDbArc
 50
60.00002899040879
 51
90.00002982523485
  0
ARC
  5
435
330
1F
100
AcDbEntity
  8
0
  6
Continuous
 62
     7
100
AcDbCircle
 10
76.16089366674441
 20
-56.59583183288532
 30
0.0
 40
0.6666666865348816
100
AcDbArc
 50
314.4327481220968
 51
0.00002732075668
  0
ARC
  5
436
330
1F
100
AcDbEntity
  8
0
  6
Continuous
 62
     7
100
AcDbCircle
 10
43.62755732933692
 20
-56.59583183288532
 30
0.0
 40
0.6666666865348816
100
AcDbArc
 50
180.0000359721787
 51
225.5673015104602
  0
ARC
  5
437
330
1F
100
AcDbEntity
  8
0
  6
Continuous
 62
     7
100
AcDbCircle
 10
-42.13911291062823
 20
95.55749301413701
 30
0.0
 40
0.9000000427166626
100
AcDbArc
 50
90.00000000000001
 51
179.9999820139107
  0
ARC
  5
438
330
1F
100
AcDbEntity
  8
0
  6
Continuous
 62
     7
100
AcDbCircle
 10
-49.48048784458752
 20
54.87295709298451
 30
0.0
 40
2.666666746139526
100
AcDbArc
 50
6.379346368989578
 51
83.62065283407959
  0
ARC
  5
439
330
1F
100
AcDbEntity
  8
0
  6
Continuous
 62
     7
100
AcDbCircle
 10
-59.27796331561149
 20
-4.030293767286821
 30
0.0
 40
8.33333358168602
100
AcDbArc
 50
3.970236139045733
 51
51.12659214528131
  0
ARC
  5
43A
330
1F
100
AcDbEntity
  8
0
  6
Continuous
 62
     7
100
AcDbCircle
 10
76.13826488189034
 20
-8.97586072782724
 30
0.0
 40
1.000000029802322
100
AcDbArc
 50
209.9999070334105
 51
270.0000179860893
  0
ARC
  5
43B
330
1F
100
AcDbEntity
  8
0
  6
Continuous
 62
     7
100
AcDbCircle
 10
-43.63324849389392
 20
-56.46567944456637
 30
0.0
 40
0.6666666865348816
100
AcDbArc
 50
179.999991348578
 51
243.203911814478
  0
ARC
  5
43C
330
1F
100
AcDbEntity
  8
0
  6
Continuous
 62
     7
100
AcDbCircle
 10
-42.43911597132684
 20
-10.54251116514206
 30
0.0
 40
4.00000011920929
100
AcDbArc
 50
271.416961219976
 51
0.0
  0
ARC
  5
43D
330
1F
100
AcDbEntity
  8
0
  6
Continuous
 62
     7
100
AcDbCircle
 10
-55.64572036882056
 20
2.957489237189293
 30
0.0
 40
0.5000000149011612
100
AcDbArc
 50
184.7636421257774
 51
269.9999974955218
  0
ARC
  5
43E
330
1F
100
AcDbEntity
  8
0
  6
Continuous
 62
     7
100
AcDbCircle
 10
-57.10578307509423
 20
8.624156072735786
 30
0.0
 40
0.1666666716337204
100
AcDbArc
 50
180.000008651422
 51
269.9999974955218
  0
ARC
  5
43F
330
1F
100
AcDbEntity
  8
0
  6
Continuous
 62
     7
100
AcDbCircle
 10
-25.77244880795479
 20
-21.87584483623505
 30
0.0
 40
10.66666698455811
100
AcDbArc
 50
90.00000000000001
 51
147.9100550805656
  0
ARC
  5
440
330
1F
100
AcDbEntity
  8
0
  6
Continuous
 62
     7
100
AcDbCircle
 10
-36.55455362147404
 20
-46.24186322190416
 30
0.0
 40
5.000000149011612
100
AcDbArc
 50
181.5622231787657
 51
239.1864118475205
  0
ARC
  5
441
330
1F
100
AcDbEntity
  8
0
  6
Continuous
 62
     7
100
AcDbCircle
 10
-42.43911597132684
 20
-10.54251116514206
 30
0.0
 40
6.333333522081375
100
AcDbArc
 50
293.0352339431184
 51
338.3817272768576
  0
ARC
  5
442
330
1F
100
AcDbEntity
  8
0
  6
Continuous
 62
     7
100
AcDbCircle
 10
-25.77244880795479
 20
-18.54251140356064
 30
0.0
 40
11.00000032782555
100
AcDbArc
 50
90.00000250447816
 51
148.9924214979592
  0
ARC
  5
443
330
1F
100
AcDbEntity
  8
0
  6
Continuous
 62
     7
100
AcDbCircle
 10
-25.77244880795479
 20
-18.54251140356064
 30
0.0
 40
13.33333373069763
100
AcDbArc
 50
90.00000250447816
 51
143.1300974540939
  0
ARC
  5
444
330
1F
100
AcDbEntity
  8
0
  6
Continuous
 62
     7
100
AcDbCircle
 10
-54.43866873779553
 20
-8.709177777171135
 30
0.0
 40
0.5000000149011612
100
AcDbArc
 50
184.0041797315853
 51
269.9999974955218
  0
ARC
  5
445
330
1F
100
AcDbEntity
  8
0
  6
Continuous
 62
     7
100
AcDbCircle
 10
-53.95694875273603
 20
-7.475845424334238
 30
0.0
 40
0.3333333432674408
100
AcDbArc
 50
184.0041797315853
 51
269.9999974955218
  0
ARC
  5
446
330
1F
100
AcDbEntity
  8
0
  6
Continuous
 62
     7
100
AcDbCircle
 10
2.412051136826449
 20
-7.475845424334238
 30
0.0
 40
0.3333333432674408
100
AcDbArc
 50
270.0000025044782
 51
355.9958202684147
  0
ARC
  5
447
330
1F
100
AcDbEntity
  8
0
  6
Continuous
 62
     7
100
AcDbCircle
 10
-52.47254319091918
 20
49.21359413135361
 30
0.0
 40
1.666666716337204
100
AcDbArc
 50
227.7382231798808
 51
247.7900739791508
  0
ARC
  5
448
330
1F
100
AcDbEntity
  8
0
  6
Continuous
 62
     7
100
AcDbCircle
 10
-52.7245446429281
 20
48.59639008260468
 30
0.0
 40
1.000000029802322
100
AcDbArc
 50
247.7900876395291
 51
296.4988030639097
  0
ARC
  5
449
330
1F
100
AcDbEntity
  8
0
  6
Continuous
 62
     7
100
AcDbCircle
 10
2.893771121885948
 20
-8.709177777171135
 30
0.0
 40
0.5000000149011612
100
AcDbArc
 50
270.0000025044782
 51
355.9958202684147
  0
ARC
  5
44A
330
1F
100
AcDbEntity
  8
0
  6
Continuous
 62
     7
100
AcDbCircle
 10
-25.77244880795479
 20
-18.54251140356064
 30
0.0
 40
13.33333373069763
100
AcDbArc
 50
36.86990254590614
 51
89.99999749552188
  0
ARC
  5
44B
330
1F
100
AcDbEntity
  8
0
  6
Continuous
 62
     7
100
AcDbCircle
 10
-25.77244880795479
 20
-18.54251140356064
 30
0.0
 40
11.00000032782555
100
AcDbArc
 50
31.00757850204088
 51
89.99999749552188
  0
ARC
  5
44C
330
1F
100
AcDbEntity
  8
0
  6
Continuous
 62
     7
100
AcDbCircle
 10
-9.105781644582748
 20
-10.54251116514206
 30
0.0
 40
6.333333522081375
100
AcDbArc
 50
201.6182727231424
 51
246.9647660568816
  0
ARC
  5
44D
330
1F
100
AcDbEntity
  8
0
  6
Continuous
 62
     7
100
AcDbCircle
 10
-14.99034399443553
 20
-46.24186322190416
 30
0.0
 40
5.000000149011612
100
AcDbArc
 50
300.8135881524795
 51
358.4377768212344
  0
ARC
  5
44E
330
1F
100
AcDbEntity
  8
0
  6
Continuous
 62
     7
100
AcDbCircle
 10
-25.77244880795479
 20
-21.87584483623505
 30
0.0
 40
10.66666698455811
100
AcDbArc
 50
32.08994491943447
 51
90.00000000000001
  0
ARC
  5
44F
330
1F
100
AcDbEntity
  8
0
  6
Continuous
 62
     7
100
AcDbCircle
 10
5.560885459184647
 20
8.624156072735786
 30
0.0
 40
0.1666666716337204
100
AcDbArc
 50
270.0000025044782
 51
359.9999913485781
  0
ARC
  5
450
330
1F
100
AcDbEntity
  8
0
  6
Continuous
 62
     7
100
AcDbCircle
 10
4.100822752910972
 20
2.957489237189293
 30
0.0
 40
0.5000000149011612
100
AcDbArc
 50
270.0000025044782
 51
355.2363578742227
  0
ARC
  5
451
330
1F
100
AcDbEntity
  8
0
  6
Continuous
 62
     7
100
AcDbCircle
 10
-9.105781644582748
 20
-10.54251116514206
 30
0.0
 40
4.00000011920929
100
AcDbArc
 50
180.0
 51
268.5830387800241
  0
ARC
  5
452
330
1F
100
AcDbEntity
  8
0
  6
Continuous
 62
     7
100
AcDbCircle
 10
-7.91164912201566
 20
-56.46567944456637
 30
0.0
 40
0.6666666865348816
100
AcDbArc
 50
296.796088185522
 51
0.000008651422056
  0
ARC
  5
453
330
1F
100
AcDbEntity
  8
0
  6
Continuous
 62
     7
100
AcDbCircle
 10
7.73306569970191
 20
-4.030293767286821
 30
0.0
 40
8.33333358168602
100
AcDbArc
 50
128.8734078547187
 51
176.0297638609543
  0
ARC
  5
454
330
1F
100
AcDbEntity
  8
0
  6
Continuous
 62
     7
100
AcDbCircle
 10
-8.637814915141462
 20
-47.33345159265217
 30
0.0
 40
5.000000149011612
100
AcDbArc
 50
298.5463205178721
 51
356.0297799689681
  0
ARC
  5
455
330
1F
100
AcDbEntity
  8
0
  6
Continuous
 62
     7
100
AcDbCircle
 10
-5.904146824231703
 20
-46.4608573690557
 30
0.0
 40
5.000000149011612
100
AcDbArc
 50
298.5463478386288
 51
356.0297799689681
  0
ARC
  5
456
330
1F
100
AcDbEntity
  8
0
  6
Continuous
 62
     7
100
AcDbCircle
 10
-6.911649092213338
 20
-53.08037076009884
 30
0.0
 40
0.3333333432674408
100
AcDbArc
 50
118.5463223391049
 51
180.0
  0
ELLIPSE
  5
457
330
1F
100
AcDbEntity
  8
0
  6
Continuous
 62
     7
100
AcDbEllipse
 10
-42.43911597132683
 20
49.46766314934212
 30
0.0
 11
-3.999999938360588
 21
0.0
 31
0.0
210
0.0
220
0.0
230
1.0
 40
0.140540850300906
 41
3.141592653589793
 42
4.684976857961901
  0
ELLIPSE
  5
458
330
1F
100
AcDbEntity
  8
0
  6
Continuous
 62
     7
100
AcDbEllipse
 10
-42.43911597132683
 20
51.82392542659546
 30
0.0
 11
-6.333333610376265
 21
0.0
 31
0.0
210
0.0
220
0.0
230
1.0
 40
0.140540838290336
 41
3.518941930566824
 42
4.307754540637714
  0
ELLIPSE
  5
459
330
1F
100
AcDbEntity
  8
0
  6
Continuous
 62
     7
100
AcDbEllipse
 10
-25.77244880795479
 20
52.94825407338431
 30
0.0
 11
-11.00000050484122
 21
0.0
 31
0.0
210
0.0
220
0.0
230
1.0
 40
0.140540835299232
 41
0.5411668126461242
 42
1.570796326794896
  0
ELLIPSE
  5
45A
330
1F
100
AcDbEntity
  8
0
  6
Continuous
 62
     7
100
AcDbEllipse
 10
-42.43911597132683
 20
51.82392542659546
 30
0.0
 11
-6.333333610376265
 21
0.0
 31
0.0
210
0.0
220
0.0
230
1.0
 40
0.140540838290336
 41
3.518941930566824
 42
4.310343681526861
  0
ELLIPSE
  5
45B
330
1F
100
AcDbEntity
  8
0
  6
Continuous
 62
     7
100
AcDbEllipse
 10
-55.73865656950694
 20
95.79082533717158
 30
0.0
 11
0.0
 21
1.333333350250726
 31
0.0
210
0.0
220
0.0
230
1.0
 40
0.07534246633078
 41
1.570796326794897
 42
3.141592653589792
  0
ELLIPSE
  5
45C
330
1F
100
AcDbEntity
  8
0
  6
Continuous
 62
     7
100
AcDbEllipse
 10
-52.08147058811847
 20
67.24034841208231
 30
0.0
 11
0.0
 21
5.333333401002918
 31
0.0
210
0.0
220
0.0
230
1.0
 40
0.069404818210945
 41
3.228882588868799
 42
4.725684323128563
  0
ELLIPSE
  5
45D
330
1F
100
AcDbEntity
  8
0
  6
Continuous
 62
     7
100
AcDbEllipse
 10
-51.57249840498117
 20
68.6448691245132
 30
0.0
 11
0.0
 21
1.333333350250726
 31
0.0
210
0.0
220
0.0
230
1.0
 40
0.069404818210949
 41
3.141592653589792
 42
4.71238898038469
  0
ELLIPSE
  5
45E
330
1F
100
AcDbEntity
  8
0
  6
Continuous
 62
     7
100
AcDbEllipse
 10
-51.66504804966645
 20
93.70131721825877
 30
0.0
 11
0.0
 21
2.666666700501466
 31
0.0
210
0.0
220
0.0
230
1.0
 40
0.069404818210942
 41
4.71238898038469
 42
6.195949824134217
  0
ELLIPSE
  5
45F
330
1F
100
AcDbEntity
  8
0
  6
Continuous
 62
     7
100
AcDbEllipse
 10
-51.41319664242111
 20
67.24034841208231
 30
0.0
 11
0.0
 21
5.333333401002918
 31
0.0
210
0.0
220
0.0
230
1.0
 40
0.069404818210945
 41
3.228882588868799
 42
4.725684323128563
  0
ELLIPSE
  5
460
330
1F
100
AcDbEntity
  8
0
  6
Continuous
 62
     7
100
AcDbEllipse
 10
-50.90423463181015
 20
68.6448691245132
 30
0.0
 11
0.0
 21
1.333333350250726
 31
0.0
210
0.0
220
0.0
230
1.0
 40
0.069404818210949
 41
3.141592653589792
 42
4.71238898038469
  0
ELLIPSE
  5
461
330
1F
100
AcDbEntity
  8
0
  6
Continuous
 62
     7
100
AcDbEllipse
 10
-50.99677410396908
 20
93.70131721825877
 30
0.0
 11
0.0
 21
2.666666700501466
 31
0.0
210
0.0
220
0.0
230
1.0
 40
0.069404818210942
 41
4.71238898038469
 42
6.195949824134097
  0
ELLIPSE
  5
462
330
1F
100
AcDbEntity
  8
0
  6
Continuous
 62
     7
100
AcDbEllipse
 10
-0.640662984099436
 20
68.6448691245132
 30
0.0
 11
-5.551115123125783E-16
 21
1.333333350250726
 31
0.0
210
0.0
220
0.0
230
1.0
 40
0.069404818210946
 41
1.570796326794897
 42
3.141592653589793
  0
ELLIPSE
  5
463
330
1F
100
AcDbEntity
  8
0
  6
Continuous
 62
     7
100
AcDbEllipse
 10
4.193758953597353
 20
95.79082533717158
 30
0.0
 11
-8.881784197001252E-16
 21
1.333333350250726
 31
0.0
210
0.0
220
0.0
230
1.0
 40
0.075342466330779
 41
3.141592653589793
 42
4.71238898038469
  0
ELLIPSE
  5
464
330
1F
100
AcDbEntity
  8
0
  6
Continuous
 62
     7
100
AcDbEllipse
 10
-0.548123511940503
 20
93.70131721825877
 30
0.0
 11
-9.992007221626409E-16
 21
2.666666700501466
 31
0.0
210
0.0
220
0.0
230
1.0
 40
0.069404818210945
 41
0.0872354830454294
 42
1.570796326794897
  0
ELLIPSE
  5
465
330
1F
100
AcDbEntity
  8
0
  6
Continuous
 62
     7
100
AcDbEllipse
 10
0.120150433756862
 20
93.70131721825877
 30
0.0
 11
-1.026956297778270E-15
 21
2.666666700501466
 31
0.0
210
0.0
220
0.0
230
1.0
 40
0.069404818210945
 41
0.0872354830454907
 42
1.570796326794897
  0
ELLIPSE
  5
466
330
1F
100
AcDbEntity
  8
0
  6
Continuous
 62
     7
100
AcDbEllipse
 10
0.027600789071585
 20
68.6448691245132
 30
0.0
 11
-5.100087019371813E-16
 21
1.333333350250726
 31
0.0
210
0.0
220
0.0
230
1.0
 40
0.069404818210946
 41
1.570796326794897
 42
3.141592653589793
  0
ELLIPSE
  5
467
330
1F
100
AcDbEntity
  8
0
  6
Continuous
 62
     7
100
AcDbEllipse
 10
0.536572972208887
 20
67.24034841208231
 30
0.0
 11
-1.998401444325282E-15
 21
5.333333401002918
 31
0.0
210
0.0
220
0.0
230
1.0
 40
0.069404818210946
 41
1.557500984051023
 42
3.054306052590109
  0
ELLIPSE
  5
468
330
1F
100
AcDbEntity
  8
0
  6
Continuous
 62
     7
100
AcDbEllipse
 10
-25.77244880795479
 20
50.59198162360463
 30
0.0
 11
13.3333337272905
 21
0.0
 31
0.0
210
0.0
220
0.0
230
1.0
 40
0.140540841172871
 41
4.71238898038469
 42
5.639694912063569
  0
ELLIPSE
  5
469
330
1F
100
AcDbEntity
  8
0
  6
Continuous
 62
     7
100
AcDbEllipse
 10
-9.105781644582748
 20
49.46766314934212
 30
0.0
 11
3.99999993836059
 21
0.0
 31
0.0
210
0.0
220
0.0
230
1.0
 40
0.140540850300906
 41
1.598208449217688
 42
3.141592653589793
  0
ELLIPSE
  5
46A
330
1F
100
AcDbEntity
  8
0
  6
Continuous
 62
     7
100
AcDbEllipse
 10
-9.105781644582748
 20
51.82392542659546
 30
0.0
 11
6.333333610376266
 21
0.0
 31
0.0
210
0.0
220
0.0
230
1.0
 40
0.140540838290335
 41
1.975430766541872
 42
2.764243376612759
  0
ELLIPSE
  5
46B
330
1F
100
AcDbEntity
  8
0
  6
Continuous
 62
     7
100
AcDbEllipse
 10
-25.77244880795479
 20
52.94825407338431
 30
0.0
 11
11.00000050484122
 21
0.0
 31
0.0
210
0.0
220
0.0
230
1.0
 40
0.140540835299232
 41
4.71238898038469
 42
5.742018494533462
  0
ELLIPSE
  5
46C
330
1F
100
AcDbEntity
  8
0
  6
Continuous
 62
     7
100
AcDbEllipse
 10
-9.105781644582748
 20
51.82392542659546
 30
0.0
 11
6.333333610376266
 21
0.0
 31
0.0
210
0.0
220
0.0
230
1.0
 40
0.140540838290335
 41
1.972841625652726
 42
2.764243376612759
  0
ELLIPSE
  5
46D
330
1F
100
AcDbEntity
  8
0
  6
Continuous
 62
     7
100
AcDbEllipse
 10
-25.77244880795479
 20
50.59198162360463
 30
0.0
 11
-13.33333372729049
 21
0.0
 31
0.0
210
0.0
220
0.0
230
1.0
 40
0.140540841172871
 41
0.6434903951160171
 42
1.570796326794896
  0
ELLIPSE
  5
46E
330
1F
100
AcDbEntity
  8
0
  6
Continuous
 62
     7
100
AcDbEllipse
 10
-0.131700973488478
 20
67.24034841208231
 30
0.0
 11
-2.053912595556540E-15
 21
5.333333401002918
 31
0.0
210
0.0
220
0.0
230
1.0
 40
0.069404818210946
 41
1.557500984051023
 42
3.054306052590109
  0
DIMENSION
  5
46F
330
1F
100
AcDbEntity
  8
0
 62
     7
100
AcDbDimension
  2
*D12
 10
12.5619060128536
 20
2.290812378128066
 30
0.0
 11
12.56190601285359
 21
-16.12485483739804
 31
0.0
 70
   160
  1
110.5
 71
     5
 42
36.83333443105221
  3
ISO-25
100
AcDbAlignedDimension
 13
41.74825618516394
 23
-34.54252205292414
 33
0.0
 14
32.22755292057991
 24
2.290812378128066
 34
0.0
 50
270.0
100
AcDbRotatedDimension
1001
ACAD
1000
DSTYLE
1002
{
1070
   178
1070
     1
1070
   278
1070
    46
1070
   147
1040
0.800000011920929
1070
    77
1070
     1
1070
    74
1070
     0
1070
    73
1070
     0
1070
    42
1040
2.54
1070
    44
1040
2.286000000000001
1070
    76
1070
     0
1070
    75
1070
     0
1070
   279
1070
     0
1070
   271
1070
     1
1070
   173
1070
     1
1070
    41
1040
3.0
1070
   140
1040
3.200000047683716
1070
   344
1005
470
1070
   343
1005
470
1002
}
  0
DIMENSION
  5
483
330
1F
100
AcDbEntity
  8
0
 62
     7
100
AcDbDimension
  2
*D13
 10
75.24828734667105
 20
-44.54152235094736
 30
0.0
 11
58.49927176591748
 21
-44.54152235094736
 31
0.0
 70
   160
  1
100.5
 71
     5
 42
33.50003116150712
  3
ISO-25
100
AcDbAlignedDimension
 13
41.74825618516393
 23
-34.54252205292414
 33
0.0
 14
75.24828734667105
 24
-34.54252205292414
 34
0.0
 50
180.0
100
AcDbRotatedDimension
1001
ACAD
1000
DSTYLE
1002
{
1070
   178
1070
     1
1070
   278
1070
    46
1070
   147
1040
0.800000011920929
1070
    77
1070
     1
1070
    74
1070
     0
1070
    73
1070
     0
1070
    42
1040
2.54
1070
    44
1040
2.286000000000001
1070
    76
1070
     0
1070
    75
1070
     0
1070
   279
1070
     0
1070
   271
1070
     1
1070
   173
1070
     1
1070
    41
1040
3.0
1070
   140
1040
3.200000047683716
1070
   344
1005
470
1070
   343
1005
470
1002
}
  0
DIMENSION
  5
490
330
1F
100
AcDbEntity
  8
0
 62
     7
100
AcDbDimension
  2
*D14
 10
91.8942417105045
 20
-9.209187964598641
 30
0.0
 11
91.8942417105045
 21
-21.87485500876139
 31
0.0
 70
   160
  1
76
 71
     5
 42
25.3333340883255
  3
ISO-25
100
AcDbAlignedDimension
 13
75.24828734667105
 23
-34.54252205292414
 33
0.0
 14
81.72755439579485
 24
-9.209187964598641
 34
0.0
 50
270.0
100
AcDbRotatedDimension
1001
ACAD
1000
DSTYLE
1002
{
1070
   178
1070
     1
1070
   278
1070
    46
1070
   147
1040
0.800000011920929
1070
    77
1070
     1
1070
    74
1070
     0
1070
    73
1070
     0
1070
    42
1040
2.54
1070
    44
1040
2.286000000000001
1070
    76
1070
     0
1070
    75
1070
     0
1070
   279
1070
     0
1070
   271
1070
     0
1070
   173
1070
     1
1070
    41
1040
3.0
1070
   140
1040
3.200000047683716
1070
   344
1005
470
1070
   343
1005
470
1002
}
  0
DIMENSION
  5
49D
330
1F
100
AcDbEntity
  8
0
 62
     7
100
AcDbDimension
  2
*D15
 10
79.39424133797547
 20
20.79082310199737
 30
0.0
 11
55.81190730180403
 21
20.79082310199738
 31
0.0
 70
   160
  1
141.5
 71
     5
 42
47.16666807234287
  3
ISO-25
100
AcDbAlignedDimension
 13
32.2275732656326
 23
2.457504481077645
 33
0.0
 14
79.39424133797547
 24
-9.209182878335474
 34
0.0
 50
180.0
100
AcDbRotatedDimension
1001
ACAD
1000
DSTYLE
1002
{
1070
   178
1070
     1
1070
   278
1070
    46
1070
   147
1040
0.800000011920929
1070
    77
1070
     1
1070
    74
1070
     0
1070
    73
1070
     0
1070
    42
1040
2.54
1070
    44
1040
2.286000000000001
1070
    76
1070
     0
1070
    75
1070
     0
1070
   279
1070
     0
1070
   271
1070
     1
1070
   173
1070
     1
1070
    41
1040
3.0
1070
   140
1040
3.200000047683716
1070
   344
1005
470
1070
   343
1005
470
1002
}
  0
DIMENSION
  5
4AA
330
1F
100
AcDbEntity
  8
0
 62
     7
100
AcDbDimension
  2
*D16
 10
22.56090631087682
 20
30.7908234000206
 30
0.0
 11
52.22957386167904
 21
30.7908234000206
 31
0.0
 70
   160
  1
178
 71
     5
 42
59.33333510160445
  3
ISO-25
100
AcDbAlignedDimension
 13
81.89424141248128
 23
-4.542516072591303
 33
0.0
 14
22.56090631087682
 24
10.7908126314478
 34
0.0
100
AcDbRotatedDimension
1001
ACAD
1000
DSTYLE
1002
{
1070
   178
1070
     1
1070
   278
1070
    46
1070
   147
1040
0.800000011920929
1070
    77
1070
     1
1070
    74
1070
     0
1070
    73
1070
     0
1070
    42
1040
2.54
1070
    44
1040
2.286000000000001
1070
    76
1070
     0
1070
    75
1070
     0
1070
   279
1070
     0
1070
   271
1070
     0
1070
   173
1070
     1
1070
    41
1040
3.0
1070
   140
1040
3.200000047683716
1070
   344
1005
470
1070
   343
1005
470
1002
}
  0
DIMENSION
  5
4B7
330
1F
100
AcDbEntity
  8
0
 62
     7
100
AcDbDimension
  2
*D17
 10
5.727552130818367
 20
20.79082310199737
 30
0.0
 11
-25.77144880795479
 21
20.79082310199738
 31
0.0
 70
   160
  1
189
 71
     5
 42
63.00000187754632
  3
ISO-25
100
AcDbAlignedDimension
 13
-57.27244974672795
 23
10.79082280397415
 33
0.0
 14
5.727552130818367
 24
10.79082280397415
 34
0.0
 50
180.0
100
AcDbRotatedDimension
1001
ACAD
1000
DSTYLE
1002
{
1070
   178
1070
     1
1070
   278
1070
    46
1070
   147
1040
0.800000011920929
1070
    77
1070
     1
1070
    74
1070
     0
1070
    73
1070
     0
1070
    42
1040
2.54
1070
    44
1040
2.286000000000001
1070
    76
1070
     0
1070
    75
1070
     0
1070
   279
1070
     0
1070
   271
1070
     0
1070
   173
1070
     1
1070
    41
1040
3.0
1070
   140
1040
3.200000047683716
1070
   344
1005
470
1070
   343
1005
470
1002
}
  0
DIMENSION
  5
4C4
330
1F
100
AcDbEntity
  8
0
 62
     7
100
AcDbDimension
  2
*D18
 10
-67.27145004475116
 20
-58.54251259565352
 30
0.0
 11
-67.27145004475116
 21
-64.22484965874762
 31
0.0
 70
   160
  1
34
 71
     5
 42
11.36667412618818
  3
ISO-25
100
AcDbAlignedDimension
 13
-37.8140954884384
 23
-69.9091867218417
 33
0.0
 14
-40.99992728911275
 24
-58.54251259565353
 34
0.0
 50
270.0
100
AcDbRotatedDimension
1001
ACAD
1000
DSTYLE
1002
{
1070
   178
1070
     1
1070
   278
1070
    46
1070
   147
1040
0.800000011920929
1070
    77
1070
     1
1070
    74
1070
     0
1070
    73
1070
     0
1070
    42
1040
2.54
1070
    44
1040
2.286000000000001
1070
    76
1070
     0
1070
    75
1070
     1
1070
   279
1070
     0
1070
   271
1070
     0
1070
   173
1070
     1
1070
    41
1040
3.0
1070
   140
1040
3.200000047683716
1070
   344
1005
470
1070
   343
1005
470
1002
}
  0
DIMENSION
  5
4D0
330
1F
100
AcDbEntity
  8
0
 62
     7
100
AcDbDimension
  2
*D19
 10
-67.27145004475116
 20
-52.88142729815586
 30
0.0
 11
-67.27145004475116
 21
-55.7109699469047
 31
0.0
 70
   160
  1
17
 71
     5
 42
5.661085297497663
  3
ISO-25
100
AcDbAlignedDimension
 13
-40.99992728911275
 23
-58.54251259565353
 33
0.0
 14
-44.2999151804288
 24
-52.88142729815586
 34
0.0
 50
270.0
100
AcDbRotatedDimension
1001
ACAD
1000
DSTYLE
1002
{
1070
   178
1070
     1
1070
   278
1070
    46
1070
   147
1040
0.800000011920929
1070
    77
1070
     1
1070
    74
1070
     0
1070
    73
1070
     0
1070
    42
1040
2.54
1070
    44
1040
2.286000000000001
1070
    76
1070
     0
1070
    75
1070
     1
1070
   279
1070
     0
1070
   271
1070
     0
1070
   173
1070
     1
1070
    41
1040
3.0
1070
   140
1040
3.200000047683716
1070
   344
1005
470
1070
   343
1005
470
1002
}
  0
DIMENSION
  5
4DE
330
1F
100
AcDbEntity
  8
0
 62
     7
100
AcDbDimension
  2
*D20
 10
-67.27145004475116
 20
10.79082280397416
 30
0.0
 11
-67.27145004475116
 21
-21.04430224709086
 31
0.0
 70
   160
  1
191
 71
     5
 42
63.67225010213002
  3
ISO-25
100
AcDbAlignedDimension
 13
-44.2999151804288
 23
-52.88142729815586
 33
0.0
 14
-57.27244974672794
 24
10.79082280397415
 34
0.0
 50
270.0
100
AcDbRotatedDimension
1001
ACAD
1000
DSTYLE
1002
{
1070
   178
1070
     1
1070
   278
1070
    46
1070
   147
1040
0.800000011920929
1070
    77
1070
     1
1070
    74
1070
     0
1070
    73
1070
     0
1070
    42
1040
2.54
1070
    44
1040
2.286000000000001
1070
    76
1070
     1
1070
    75
1070
     1
1070
   279
1070
     0
1070
   271
1070
     0
1070
   173
1070
     1
1070
    41
1040
3.0
1070
   140
1040
3.200000047683716
1070
   344
1005
470
1070
   343
1005
470
1002
}
  0
DIMENSION
  5
4E9
330
1F
100
AcDbEntity
  8
0
 62
     7
100
AcDbDimension
  2
*D21
 10
-77.27045034277437
 20
-69.90918672184173
 30
0.0
 11
-77.27045034277438
 21
-29.55818195893378
 31
0.0
 70
   160
  1
242
 71
     5
 42
80.70000952581587
  3
ISO-25
100
AcDbAlignedDimension
 13
-57.27244974672794
 23
10.79082280397415
 33
0.0
 14
-37.8140954884384
 24
-69.9091867218417
 34
0.0
 50
90.00000000000001
100
AcDbRotatedDimension
1001
ACAD
1000
DSTYLE
1002
{
1070
   178
1070
     1
1070
   278
1070
    46
1070
   147
1040
0.800000011920929
1070
    77
1070
     1
1070
    74
1070
     0
1070
    73
1070
     0
1070
    42
1040
2.54
1070
    44
1040
2.286000000000001
1070
    76
1070
     0
1070
    75
1070
     0
1070
   279
1070
     0
1070
   271
1070
     0
1070
   173
1070
     1
1070
    41
1040
3.0
1070
   140
1040
3.200000047683716
1070
   344
1005
470
1070
   343
1005
470
1002
}
  0
DIMENSION
  5
4F6
330
1F
100
AcDbEntity
  8
0
 62
     7
100
AcDbDimension
  2
*D22
 10
-13.38911247050032
 20
-79.90818701986493
 30
0.0
 11
-25.77144880795479
 21
-79.90818701986493
 31
0.0
 70
   160
  1
\U+220574
 71
     5
 42
24.76666650687704
  3
ISO-25
100
AcDbAlignedDimension
 13
-38.15577897737737
 23
-69.9091867218417
 33
0.0
 14
-13.38911247050032
 24
-69.9091867218417
 34
0.0
 50
180.0
100
AcDbRotatedDimension
1001
ACAD
1000
DSTYLE
1002
{
1070
   178
1070
     1
1070
   278
1070
    46
1070
   147
1040
0.800000011920929
1070
    77
1070
     1
1070
    74
1070
     0
1070
    73
1070
     0
1070
    42
1040
2.54
1070
    44
1040
2.286000000000001
1070
    76
1070
     0
1070
    75
1070
     0
1070
   279
1070
     0
1070
   271
1070
     0
1070
   173
1070
     1
1070
    41
1040
3.0
1070
   140
1040
3.200000047683716
1070
   344
1005
470
1070
   343
1005
470
1002
}
  0
DIMENSION
  5
503
330
1F
100
AcDbEntity
  8
0
 62
     7
100
AcDbDimension
  2
*D23
 10
-10.72244114673964
 20
-89.90818731788815
 30
0.0
 11
-25.77144880795479
 21
-89.90818731788815
 31
0.0
 70
   160
  1
\U+220590
 71
     5
 42
30.10000098366481
  3
ISO-25
100
AcDbAlignedDimension
 13
-40.82244213040445
 23
-66.00918253660211
 33
0.0
 14
-10.72244114673964
 24
-66.00918253660211
 34
0.0
 50
180.0
100
AcDbRotatedDimension
1001
ACAD
1000
DSTYLE
1002
{
1070
   178
1070
     1
1070
   278
1070
    46
1070
   147
1040
0.800000011920929
1070
    77
1070
     1
1070
    74
1070
     0
1070
    73
1070
     0
1070
    42
1040
2.54
1070
    44
1040
2.286000000000001
1070
    76
1070
     0
1070
    75
1070
     0
1070
   279
1070
     0
1070
   271
1070
     0
1070
   173
1070
     1
1070
    41
1040
3.0
1070
   140
1040
3.200000047683716
1070
   344
1005
470
1070
   343
1005
470
1002
}
  0
DIMENSION
  5
510
330
1F
100
AcDbEntity
  8
0
 62
     7
100
AcDbDimension
  2
*D24
 10
-7.244982435480789
 20
-99.90818761591137
 30
0.0
 11
-25.77144880795479
 21
-99.90818761591137
 31
0.0
 70
   160
  1
111
 71
     5
 42
37.05493274494803
  3
ISO-25
100
AcDbAlignedDimension
 13
-44.2999151804288
 23
-56.46567944456638
 33
0.0
 14
-7.244982435480779
 24
-56.46567944456638
 34
0.0
 50
180.0
100
AcDbRotatedDimension
1001
ACAD
1000
DSTYLE
1002
{
1070
   178
1070
     1
1070
   278
1070
    46
1070
   147
1040
0.800000011920929
1070
    77
1070
     1
1070
    74
1070
     0
1070
    73
1070
     0
1070
    42
1040
2.54
1070
    44
1040
2.286000000000001
1070
    76
1070
     0
1070
    75
1070
     0
1070
   279
1070
     0
1070
   271
1070
     0
1070
   173
1070
     1
1070
    41
1040
3.0
1070
   140
1040
3.200000047683716
1070
   344
1005
470
1070
   343
1005
470
1002
}
  0
DIMENSION
  5
51D
330
1F
100
AcDbEntity
  8
0
 62
     7
100
AcDbDimension
  2
*D25
 10
76.82758069833199
 20
-79.90818701986493
 30
0.0
 11
59.89524584309336
 21
-79.90818701986493
 31
0.0
 70
   160
  1
102
 71
     5
 42
33.86666971047726
  3
ISO-25
100
AcDbAlignedDimension
 13
42.96091098785472
 23
-56.59582166035899
 33
0.0
 14
76.82758069833199
 24
-56.59584200541168
 34
0.0
 50
180.0
100
AcDbRotatedDimension
1001
ACAD
1000
DSTYLE
1002
{
1070
   178
1070
     1
1070
   278
1070
    46
1070
   147
1040
0.800000011920929
1070
    77
1070
     1
1070
    74
1070
     0
1070
    73
1070
     0
1070
    42
1040
2.54
1070
    44
1040
2.286000000000001
1070
    76
1070
     0
1070
    75
1070
     0
1070
   279
1070
     0
1070
   271
1070
     0
1070
   173
1070
     1
1070
    41
1040
3.0
1070
   140
1040
3.200000047683716
1070
   344
1005
470
1070
   343
1005
470
1002
}
  0
DIMENSION
  5
52A
330
1F
100
AcDbEntity
  8
0
 62
     7
100
AcDbDimension
  2
*D26
 10
4.29422282377891
 20
112.7908258438111
 30
0.0
 11
-25.77144880795479
 21
112.7908258438111
 31
0.0
 70
   160
  1
180
 71
     5
 42
60.1333432634674
  3
ISO-25
100
AcDbAlignedDimension
 13
-55.83912043968849
 23
100.7908254861832
 33
0.0
 14
4.29422282377891
 24
100.7908254861832
 34
0.0
 50
180.0
100
AcDbRotatedDimension
1001
ACAD
1000
DSTYLE
1002
{
1070
   178
1070
     1
1070
   278
1070
    46
1070
   147
1040
0.800000011920929
1070
    77
1070
     1
1070
    74
1070
     0
1070
    73
1070
     0
1070
    42
1040
2.54
1070
    44
1040
2.286000000000001
1070
    76
1070
     0
1070
    75
1070
     0
1070
   279
1070
     0
1070
   271
1070
     0
1070
   173
1070
     1
1070
    41
1040
3.0
1070
   140
1040
3.200000047683716
1070
   344
1005
470
1070
   343
1005
470
1002
}
  0
DIMENSION
  5
537
330
1F
100
AcDbEntity
  8
0
 62
     7
100
AcDbDimension
  2
*D27
 10
-67.27145004475116
 20
102.7908255457879
 30
0.0
 11
-67.27145004475116
 21
73.1251579949856
 31
0.0
 70
   160
  1
178
 71
     5
 42
59.33333510160448
  3
ISO-25
100
AcDbAlignedDimension
 13
-54.60578300058842
 23
43.45749044418336
 33
0.0
 14
-53.83912038008384
 24
102.7908255457878
 34
0.0
 50
270.0
100
AcDbRotatedDimension
1001
ACAD
1000
DSTYLE
1002
{
1070
   178
1070
     1
1070
   278
1070
    46
1070
   147
1040
0.800000011920929
1070
    77
1070
     1
1070
    74
1070
     0
1070
    73
1070
     0
1070
    42
1040
2.54
1070
    44
1040
2.286000000000001
1070
    76
1070
     0
1070
    75
1070
     0
1070
   279
1070
     0
1070
   271
1070
     0
1070
   173
1070
     1
1070
    41
1040
3.0
1070
   140
1040
3.200000047683716
1070
   344
1005
470
1070
   343
1005
470
1002
}
  0
POINT
  5
545
330
1F
100
AcDbEntity
  8
VIEW0001
 62
     7
100
AcDbPoint
 10
105.0
 20
-148.5
 30
0.0
  0
LWPOLYLINE
  5
546
330
1F
100
AcDbEntity
  8
VIEW0001
  6
Continuous
 62
     7
100
AcDbPolyline
 90
        2
 70
     0
 10
25.75
 20
-129.0
 40
0.001000000047497
 41
0.001000000047497
 10
25.75
 20
-120.0
 40
0.001000000047497
 41
0.001000000047497
  0
LWPOLYLINE
  5
547
330
1F
100
AcDbEntity
  8
VIEW0001
  6
Continuous
 62
     7
100
AcDbPolyline
 90
        2
 70
     0
 10
-64.5
 20
-138.0
 40
0.001000000047497
 41
0.001000000047497
 10
-64.5
 20
-120.0
 40
0.001000000047497
 41
0.001000000047497
  0
LINE
  5
548
330
1F
100
AcDbEntity
  8
VIEW0001
  6
Continuous
 62
     7
370
    50
100
AcDbLine
 10
-84.5
 20
138.0
 30
0.0
 11
-84.5
 21
-138.0
 31
0.0
  0
LINE
  5
549
330
1F
100
AcDbEntity
  8
VIEW0001
  6
Continuous
 62
     7
370
    50
100
AcDbLine
 10
96.0
 20
138.0
 30
0.0
 11
96.0
 21
-138.0
 31
0.0
  0
LINE
  5
54A
330
1F
100
AcDbEntity
  8
VIEW0001
  6
Continuous
 62
     7
370
    50
100
AcDbLine
 10
-84.5
 20
-138.0
 30
0.0
 11
96.0
 21
-138.0
 31
0.0
  0
LINE
  5
54B
330
1F
100
AcDbEntity
  8
VIEW0001
  6
Continuous
 62
     7
370
    50
100
AcDbLine
 10
-84.5
 20
138.0
 30
0.0
 11
96.0
 21
138.0
 31
0.0
  0
LINE
  5
54C
330
1F
100
AcDbEntity
  8
VIEW0001
  6
Continuous
 62
     7
370
    20
100
AcDbLine
 10
-84.5
 20
-120.0
 30
0.0
 11
96.0
 21
-120.0
 31
0.0
  0
LWPOLYLINE
  5
54D
330
1F
100
AcDbEntity
  8
VIEW0001
  6
Continuous
 62
     7
100
AcDbPolyline
 90
        2
 70
     0
 10
96.0
 20
-129.0
 40
0.001000000047497
 41
0.001000000047497
 10
-84.5
 20
-129.0
 40
0.001000000047497
 41
0.001000000047497
  0
LINE
  5
54E
330
1F
100
AcDbEntity
  8
VIEW0001
  6
Continuous
 62
     7
370
    20
100
AcDbLine
 10
41.0
 20
128.0
 30
0.0
 11
96.0
 21
128.0
 31
0.0
  0
LINE
  5
54F
330
1F
100
AcDbEntity
  8
VIEW0001
  6
Continuous
 62
     7
370
    20
100
AcDbLine
 10
41.0
 20
138.0
 30
0.0
 11
41.0
 21
128.0
 31
0.0
  0
LWPOLYLINE
  5
550
330
1F
100
AcDbEntity
  8
VIEW0001
  6
Continuous
 62
     7
100
AcDbPolyline
 90
        2
 70
     0
 10
5.75
 20
-138.0
 40
0.001000000047497
 41
0.001000000047497
 10
5.75
 20
-120.0
 40
0.001000000047497
 41
0.001000000047497
  0
LWPOLYLINE
  5
551
330
1F
100
AcDbEntity
  8
VIEW0001
  6
Continuous
 62
     7
100
AcDbPolyline
 90
        2
 70
     0
 10
66.0
 20
-129.0
 40
0.001000000047497
 41
0.001000000047497
 10
66.0
 20
-120.0
 40
0.001000000047497
 41
0.001000000047497
  0
LWPOLYLINE
  5
552
330
1F
100
AcDbEntity
  8
VIEW0001
  6
Continuous
 62
     7
100
AcDbPolyline
 90
        2
 70
     0
 10
81.0
 20
-129.0
 40
0.001000000047497
 41
0.001000000047497
 10
81.0
 20
-120.0
 40
0.001000000047497
 41
0.001000000047497
  0
MTEXT
  5
553
330
1F
100
AcDbEntity
  8
VIEW0001
 62
     1
100
AcDbMText
 10
-77.92875003814697
 20
-126.5
 30
0.0
 40
4.0
 41
0.0
 71
     7
 72
     1
  1
{\W0.833333;品名}
 73
     1
 44
1.0
  0
MTEXT
  5
554
330
1F
100
AcDbEntity
  8
VIEW0001
 62
     1
100
AcDbMText
 10
-77.92875003814697
 20
-135.5
 30
0.0
 40
4.0
 41
0.0
 71
     7
 72
     1
  1
{\W0.833333;規格}
 73
     1
 44
1.0
  0
MTEXT
  5
555
330
1F
100
AcDbEntity
  8
VIEW0001
 62
     1
100
AcDbMText
 10
12.32124996185303
 20
-126.5
 30
0.0
 40
4.0
 41
0.0
 71
     7
 72
     1
  1
{\W0.833333;材質}
 73
     1
 44
1.0
  0
MTEXT
  5
556
330
1F
100
AcDbEntity
  8
VIEW0001
 62
     1
100
AcDbMText
 10
70.07124996185303
 20
-126.5
 30
0.0
 40
4.0
 41
0.0
 71
     7
 72
     1
  1
{\W0.833333;尺度}
 73
     1
 44
1.0
  0
MTEXT
  5
557
330
1F
100
AcDbEntity
  8
VIEW0001
 62
     1
100
AcDbMText
 10
-50.80375063419342
 20
-135.5
 30
0.0
 40
4.0
 41
0.0
 71
     7
 72
     1
  1
{\W0.833333;ＤＬ７５－７５（９０）}
 73
     1
 44
1.0
  0
MTEXT
  5
558
330
1F
100
AcDbEntity
  8
VIEW0001
 62
     1
100
AcDbMText
 10
36.44624972343445
 20
-126.5
 30
0.0
 40
4.0
 41
0.0
 71
     7
 72
     1
  1
{\W0.833333;硬質ＰＶＣ}
 73
     1
 44
1.0
  0
MTEXT
  5
559
330
1F
100
AcDbEntity
  8
VIEW0001
 62
     1
100
AcDbMText
 10
26.46785604953766
 20
-135.75
 30
0.0
 40
4.5
 41
0.0
 71
     7
 72
     1
  1
{\W1.40741;デンカ株式会社}
 73
     1
 44
1.0
  0
MTEXT
  5
55A
330
1F
100
AcDbEntity
  8
VIEW0001
 62
     1
100
AcDbMText
 10
-40.80375134944916
 20
-126.5
 30
0.0
 40
4.0
 41
0.0
 71
     7
 72
     1
  1
{\W0.833333;ＤＬじょうご}
 73
     1
 44
1.0
  0
MTEXT
  5
55B
330
1F
100
AcDbEntity
  8
VIEW0001
 62
     1
100
AcDbMText
 10
83.07124984264374
 20
-126.5
 30
0.0
 40
4.0
 41
0.0
 71
     7
 72
     1
  1
{\W0.833333;1/3}
 73
     1
 44
1.0
  0
ENDSEC
  0
SECTION
  2
OBJECTS
  0
DICTIONARY
  5
C
330
0
100
AcDbDictionary
281
     1
  3
ACAD_GROUP
350
D
  3
ACAD_LAYOUT
350
1A
  3
ACAD_MATERIAL
350
3B
  3
ACAD_MLEADERSTYLE
350
583
  3
ACAD_MLINESTYLE
350
17
  3
ACAD_PLOTSETTINGS
350
19
  3
ACAD_PLOTSTYLENAME
350
E
  3
ACAD_TABLESTYLE
350
582
  3
ACAD_VISUALSTYLE
350
2A
  0
DICTIONARY
  5
D
102
{ACAD_REACTORS
330
C
102
}
330
C
100
AcDbDictionary
281
     1
  0
DICTIONARY
  5
1A
102
{ACAD_REACTORS
330
C
102
}
330
C
100
AcDbDictionary
281
     1
  3
Layout1
350
1E
  3
Layout2
350
26
  3
Model
350
22
  0
DICTIONARY
  5
3B
102
{ACAD_REACTORS
330
C
102
}
330
C
100
AcDbDictionary
281
     1
  3
ByBlock
350
3D
  3
ByLayer
350
3C
  3
Global
350
3E
  0
DICTIONARY
  5
583
102
{ACAD_REACTORS
330
C
102
}
330
C
100
AcDbDictionary
281
     1
  0
DICTIONARY
  5
17
102
{ACAD_REACTORS
330
C
102
}
330
C
100
AcDbDictionary
281
     1
  3
Standard
350
18
  0
DICTIONARY
  5
19
102
{ACAD_REACTORS
330
C
102
}
330
C
100
AcDbDictionary
281
     1
  0
ACDBDICTIONARYWDFLT
  5
E
102
{ACAD_REACTORS
330
C
102
}
330
C
100
AcDbDictionary
281
     1
  3
Normal
350
F
100
AcDbDictionaryWithDefault
340
F
  0
DICTIONARY
  5
582
102
{ACAD_REACTORS
330
C
102
}
330
C
100
AcDbDictionary
281
     1
  0
DICTIONARY
  5
2A
102
{ACAD_REACTORS
330
C
102
}
330
C
100
AcDbDictionary
281
     1
  3
2dWireframe
350
2F
  3
3D Hidden
350
31
  3
3dWireframe
350
30
  3
Basic
350
32
  3
Brighten
350
36
  3
ColorChange
350
3A
  3
Conceptual
350
34
  3
Dim
350
35
  3
Facepattern
350
39
  3
Flat
350
2B
  3
FlatWithEdges
350
2C
  3
Gouraud
350
2D
  3
GouraudWithEdges
350
2E
  3
Linepattern
350
38
  3
Realistic
350
33
  3
Thicken
350
37
  0
LAYOUT
  5
1E
102
{ACAD_REACTORS
330
1A
102
}
330
1A
100
AcDbPlotSettings
  1

  2
none_device
  4

  6

 40
0.0
 41
0.0
 42
0.0
 43
0.0
 44
0.0
 45
0.0
 46
0.0
 47
0.0
 48
0.0
 49
0.0
140
0.0
141
0.0
142
1.0
143
1.0
 70
   688
 72
     0
 73
     0
 74
     5
  7

 75
    16
 76
     0
 77
     2
 78
   300
147
1.0
148
0.0
149
0.0
100
AcDbLayout
  1
Layout1
 70
     1
 71
     1
 10
-105.0
 20
-148.5
 11
105.0
 21
148.5
 12
0.0
 22
0.0
 32
0.0
 14
1.000000000000000E+20
 24
1.000000000000000E+20
 34
1.000000000000000E+20
 15
-1.000000000000000E+20
 25
-1.000000000000000E+20
 35
-1.000000000000000E+20
146
0.0
 13
0.0
 23
0.0
 33
0.0
 16
1.0
 26
0.0
 36
0.0
 17
0.0
 27
1.0
 37
0.0
 76
     0
330
1B
  0
LAYOUT
  5
26
102
{ACAD_REACTORS
330
1A
102
}
330
1A
100
AcDbPlotSettings
  1

  2
none_device
  4

  6

 40
0.0
 41
0.0
 42
0.0
 43
0.0
 44
0.0
 45
0.0
 46
0.0
 47
0.0
 48
0.0
 49
0.0
140
0.0
141
0.0
142
1.0
143
1.0
 70
   688
 72
     0
 73
     0
 74
     5
  7

 75
    16
 76
     0
 77
     2
 78
   300
147
1.0
148
0.0
149
0.0
100
AcDbLayout
  1
Layout2
 70
     1
 71
     2
 10
0.0
 20
0.0
 11
0.0
 21
0.0
 12
0.0
 22
0.0
 32
0.0
 14
0.0
 24
0.0
 34
0.0
 15
0.0
 25
0.0
 35
0.0
146
0.0
 13
0.0
 23
0.0
 33
0.0
 16
1.0
 26
0.0
 36
0.0
 17
0.0
 27
1.0
 37
0.0
 76
     0
330
23
  0
LAYOUT
  5
22
102
{ACAD_REACTORS
330
1A
102
}
330
1A
100
AcDbPlotSettings
  1

  2
none_device
  4

  6

 40
0.0
 41
0.0
 42
0.0
 43
0.0
 44
0.0
 45
0.0
 46
0.0
 47
0.0
 48
0.0
 49
0.0
140
0.0
141
0.0
142
1.0
143
1.0
 70
  1712
 72
     0
 73
     0
 74
     0
  7

 75
     0
 76
     0
 77
     2
 78
   300
147
1.0
148
0.0
149
0.0
100
AcDbLayout
  1
Model
 70
     1
 71
     0
 10
-105.0
 20
-148.5
 11
105.0
 21
148.5
 12
0.0
 22
0.0
 32
0.0
 14
-105.0
 24
-148.5
 34
0.0
 15
105.0
 25
148.5
 35
0.0
146
0.0
 13
0.0
 23
0.0
 33
0.0
 16
1.0
 26
0.0
 36
0.0
 17
0.0
 27
1.0
 37
0.0
 76
     0
330
1F
331
29
  0
MATERIAL
  5
3D
102
{ACAD_REACTORS
330
3B
102
}
102
{ACAD_XDICTIONARY
360
57E
102
}
330
3B
100
AcDbMaterial
  1
ByBlock
  0
MATERIAL
  5
3C
102
{ACAD_REACTORS
330
3B
102
}
102
{ACAD_XDICTIONARY
360
57C
102
}
330
3B
100
AcDbMaterial
  1
ByLayer
  0
MATERIAL
  5
3E
102
{ACAD_REACTORS
330
3B
102
}
102
{ACAD_XDICTIONARY
360
580
102
}
330
3B
100
AcDbMaterial
  1
Global
  0
MLINESTYLE
  5
18
102
{ACAD_REACTORS
330
17
102
}
330
17
100
AcDbMlineStyle
  2
Standard
 70
     0
  3

 62
   256
 51
90.0
 52
90.0
 71
     2
 49
0.5
 62
   256
  6
BYLAYER
 49
-0.5
 62
   256
  6
BYLAYER
  0
ACDBPLACEHOLDER
  5
F
102
{ACAD_REACTORS
330
E
102
}
330
E
  0
VISUALSTYLE
  5
2F
102
{ACAD_REACTORS
330
2A
102
}
102
{ACAD_XDICTIONARY
360
564
102
}
330
2A
100
AcDbVisualStyle
  2
2dWireframe
 70
     4
 71
     0
 72
     2
 73
     0
 90
        0
 40
-0.6
 41
-30.0
 62
     5
 63
     7
421
 16777215
 74
     1
 91
        4
 64
     7
 65
   257
 75
     1
175
     1
 42
1.0
 92
        0
 66
   257
 43
1.0
 76
     1
 77
     6
 78
     2
 67
     7
 79
     5
170
     0
171
     0
290
     0
174
     0
 93
        1
 44
0.0
173
     0
291
     0
 45
0.0
1001
ACAD
1000
AcDbSavedByObjectVersion
1070
     0
  0
VISUALSTYLE
  5
31
102
{ACAD_REACTORS
330
2A
102
}
102
{ACAD_XDICTIONARY
360
568
102
}
330
2A
100
AcDbVisualStyle
  2
3D Hidden
 70
     6
 71
     1
 72
     2
 73
     2
 90
        0
 40
-0.6
 41
-30.0
 62
     5
 63
     7
421
 16777215
 74
     2
 91
        2
 64
     7
 65
   257
 75
     2
175
     1
 42
40.0
 92
        0
 66
   257
 43
1.0
 76
     1
 77
     6
 78
     2
 67
     7
 79
     3
170
     0
171
     0
290
     0
174
     0
 93
        1
 44
0.0
173
     0
291
     0
 45
0.0
1001
ACAD
1000
AcDbSavedByObjectVersion
1070
     0
  0
VISUALSTYLE
  5
30
102
{ACAD_REACTORS
330
2A
102
}
102
{ACAD_XDICTIONARY
360
566
102
}
330
2A
100
AcDbVisualStyle
  2
3dWireframe
 70
     5
 71
     0
 72
     2
 73
     0
 90
        0
 40
-0.6
 41
-30.0
 62
     5
 63
     7
421
 16777215
 74
     1
 91
        4
 64
     7
 65
   257
 75
     1
175
     1
 42
1.0
 92
        0
 66
   257
 43
1.0
 76
     1
 77
     6
 78
     2
 67
     7
 79
     5
170
     0
171
     0
290
     0
174
     0
 93
        1
 44
0.0
173
     0
291
     0
 45
0.0
1001
ACAD
1000
AcDbSavedByObjectVersion
1070
     0
  0
VISUALSTYLE
  5
32
102
{ACAD_REACTORS
330
2A
102
}
102
{ACAD_XDICTIONARY
360
56A
102
}
330
2A
100
AcDbVisualStyle
  2
Basic
 70
     7
 71
     1
 72
     0
 73
     1
 90
        0
 40
-0.6
 41
-30.0
 62
     5
 63
     7
421
 16777215
 74
     0
 91
        4
 64
     7
 65
   257
 75
     1
175
     1
 42
1.0
 92
        8
 66
     7
 43
1.0
 76
     1
 77
     6
 78
     2
 67
     7
 79
     5
170
     0
171
     0
290
     0
174
     0
 93
        1
 44
0.0
173
     0
291
     1
 45
0.0
1001
ACAD
1000
AcDbSavedByObjectVersion
1070
     0
  0
VISUALSTYLE
  5
36
102
{ACAD_REACTORS
330
2A
102
}
102
{ACAD_XDICTIONARY
360
572
102
}
330
2A
100
AcDbVisualStyle
  2
Brighten
 70
    12
 71
     2
 72
     2
 73
     0
 90
        0
 40
-0.6
 41
-30.0
 62
     5
 63
     7
421
 16777215
 74
     1
 91
        4
 64
     7
 65
   257
 75
     1
175
     1
 42
1.0
 92
        8
 66
     7
 43
1.0
 76
     1
 77
     6
 78
     2
 67
     7
 79
     5
170
     0
171
     0
290
     0
174
     0
 93
        1
 44
50.0
173
     0
291
     1
 45
0.0
1001
ACAD
1000
AcDbSavedByObjectVersion
1070
     0
  0
VISUALSTYLE
  5
3A
102
{ACAD_REACTORS
330
2A
102
}
102
{ACAD_XDICTIONARY
360
57A
102
}
330
2A
100
AcDbVisualStyle
  2
ColorChange
 70
    16
 71
     2
 72
     2
 73
     3
 90
        0
 40
-0.6
 41
-30.0
 62
     5
 63
     8
421
  8421504
 74
     1
 91
        4
 64
     7
 65
   257
 75
     1
175
     1
 42
1.0
 92
        8
 66
     8
424
  8421504
 43
1.0
 76
     1
 77
     6
 78
     2
 67
     7
 79
     5
170
     0
171
     0
290
     0
174
     0
 93
        1
 44
0.0
173
     0
291
     1
 45
0.0
1001
ACAD
1000
AcDbSavedByObjectVersion
1070
     0
  0
VISUALSTYLE
  5
34
102
{ACAD_REACTORS
330
2A
102
}
102
{ACAD_XDICTIONARY
360
56E
102
}
330
2A
100
AcDbVisualStyle
  2
Conceptual
 70
     9
 71
     3
 72
     2
 73
     0
 90
        0
 40
-0.6
 41
-30.0
 62
     5
 63
     7
421
 16777215
 74
     2
 91
        2
 64
     7
 65
   257
 75
     1
175
     1
 42
40.0
 92
        8
 66
     7
 43
1.0
 76
     1
 77
     6
 78
     2
 67
     7
 79
     3
170
     0
171
     0
290
     0
174
     0
 93
        1
 44
0.0
173
     0
291
     0
 45
0.0
1001
ACAD
1000
AcDbSavedByObjectVersion
1070
     0
  0
VISUALSTYLE
  5
35
102
{ACAD_REACTORS
330
2A
102
}
102
{ACAD_XDICTIONARY
360
570
102
}
330
2A
100
AcDbVisualStyle
  2
Dim
 70
    11
 71
     2
 72
     2
 73
     0
 90
        0
 40
-0.6
 41
-30.0
 62
     5
 63
     7
421
 16777215
 74
     1
 91
        4
 64
     7
 65
   257
 75
     1
175
     1
 42
1.0
 92
        8
 66
     7
 43
1.0
 76
     1
 77
     6
 78
     2
 67
     7
 79
     5
170
     0
171
     0
290
     0
174
     0
 93
        1
 44
-50.0
173
     0
291
     1
 45
0.0
1001
ACAD
1000
AcDbSavedByObjectVersion
1070
     0
  0
VISUALSTYLE
  5
39
102
{ACAD_REACTORS
330
2A
102
}
102
{ACAD_XDICTIONARY
360
578
102
}
330
2A
100
AcDbVisualStyle
  2
Facepattern
 70
    15
 71
     2
 72
     2
 73
     0
 90
        0
 40
-0.6
 41
-30.0
 62
     5
 63
     7
421
 16777215
 74
     1
 91
        4
 64
     7
 65
   257
 75
     1
175
     1
 42
1.0
 92
        8
 66
     7
 43
1.0
 76
     1
 77
     6
 78
     2
 67
     7
 79
     5
170
     0
171
     0
290
     0
174
     0
 93
        1
 44
0.0
173
     0
291
     1
 45
0.0
1001
ACAD
1000
AcDbSavedByObjectVersion
1070
     0
  0
VISUALSTYLE
  5
2B
102
{ACAD_REACTORS
330
2A
102
}
102
{ACAD_XDICTIONARY
360
55C
102
}
330
2A
100
AcDbVisualStyle
  2
Flat
 70
     0
 71
     2
 72
     1
 73
     1
 90
        2
 40
-0.6
 41
30.0
 62
     5
 63
     7
421
 16777215
 74
     0
 91
        4
 64
     7
 65
   257
 75
     1
175
     1
 42
1.0
 92
        8
 66
     7
 43
1.0
 76
     1
 77
     6
 78
     2
 67
     7
 79
     5
170
     0
171
     0
290
     0
174
     0
 93
       13
 44
0.0
173
     0
291
     1
 45
0.0
1001
ACAD
1000
AcDbSavedByObjectVersion
1070
     0
  0
VISUALSTYLE
  5
2C
102
{ACAD_REACTORS
330
2A
102
}
102
{ACAD_XDICTIONARY
360
55E
102
}
330
2A
100
AcDbVisualStyle
  2
FlatWithEdges
 70
     1
 71
     2
 72
     1
 73
     1
 90
        2
 40
-0.6
 41
30.0
 62
     5
 63
     7
421
 16777215
 74
     1
 91
        4
 64
     7
 65
   257
 75
     1
175
     1
 42
1.0
 92
        0
 66
   257
 43
1.0
 76
     1
 77
     6
 78
     2
 67
     7
 79
     5
170
     0
171
     0
290
     0
174
     0
 93
       13
 44
0.0
173
     0
291
     1
 45
0.0
1001
ACAD
1000
AcDbSavedByObjectVersion
1070
     0
  0
VISUALSTYLE
  5
2D
102
{ACAD_REACTORS
330
2A
102
}
102
{ACAD_XDICTIONARY
360
560
102
}
330
2A
100
AcDbVisualStyle
  2
Gouraud
 70
     2
 71
     2
 72
     2
 73
     1
 90
        2
 40
-0.6
 41
30.0
 62
     5
 63
     7
421
 16777215
 74
     0
 91
        4
 64
     7
 65
   257
 75
     1
175
     1
 42
1.0
 92
        0
 66
     7
 43
1.0
 76
     1
 77
     6
 78
     2
 67
     7
 79
     5
170
     0
171
     0
290
     0
174
     0
 93
       13
 44
0.0
173
     0
291
     1
 45
0.0
1001
ACAD
1000
AcDbSavedByObjectVersion
1070
     0
  0
VISUALSTYLE
  5
2E
102
{ACAD_REACTORS
330
2A
102
}
102
{ACAD_XDICTIONARY
360
562
102
}
330
2A
100
AcDbVisualStyle
  2
GouraudWithEdges
 70
     3
 71
     2
 72
     2
 73
     1
 90
        2
 40
-0.6
 41
30.0
 62
     5
 63
     7
421
 16777215
 74
     1
 91
        4
 64
     7
 65
   257
 75
     1
175
     1
 42
1.0
 92
        0
 66
   257
 43
1.0
 76
     1
 77
     6
 78
     2
 67
     7
 79
     5
170
     0
171
     0
290
     0
174
     0
 93
       13
 44
0.0
173
     0
291
     1
 45
0.0
1001
ACAD
1000
AcDbSavedByObjectVersion
1070
     0
  0
VISUALSTYLE
  5
38
102
{ACAD_REACTORS
330
2A
102
}
102
{ACAD_XDICTIONARY
360
576
102
}
330
2A
100
AcDbVisualStyle
  2
Linepattern
 70
    14
 71
     2
 72
     2
 73
     0
 90
        0
 40
-0.6
 41
-30.0
 62
     5
 63
     7
421
 16777215
 74
     1
 91
        4
 64
     7
 65
   257
 75
     7
175
     7
 42
1.0
 92
        8
 66
     7
 43
1.0
 76
     1
 77
     6
 78
     2
 67
     7
 79
     5
170
     0
171
     0
290
     0
174
     0
 93
        1
 44
0.0
173
     0
291
     1
 45
0.0
1001
ACAD
1000
AcDbSavedByObjectVersion
1070
     0
  0
VISUALSTYLE
  5
33
102
{ACAD_REACTORS
330
2A
102
}
102
{ACAD_XDICTIONARY
360
56C
102
}
330
2A
100
AcDbVisualStyle
  2
Realistic
 70
     8
 71
     2
 72
     2
 73
     0
 90
        0
 40
-0.6
 41
-30.0
 62
     5
 63
     7
421
 16777215
 74
     1
 91
        0
 64
     7
 65
   257
 75
     1
175
     1
 42
1.0
 92
        8
 66
     8
424
  7895160
 43
1.0
 76
     1
 77
     6
 78
     2
 67
     7
 79
     5
170
     0
171
     0
290
     0
174
     0
 93
       13
 44
0.0
173
     0
291
     0
 45
0.0
1001
ACAD
1000
AcDbSavedByObjectVersion
1070
     0
  0
VISUALSTYLE
  5
37
102
{ACAD_REACTORS
330
2A
102
}
102
{ACAD_XDICTIONARY
360
574
102
}
330
2A
100
AcDbVisualStyle
  2
Thicken
 70
    13
 71
     2
 72
     2
 73
     0
 90
        0
 40
-0.6
 41
-30.0
 62
     5
 63
     7
421
 16777215
 74
     1
 91
        4
 64
     7
 65
   257
 75
     1
175
     1
 42
1.0
 92
       12
 66
     7
 43
1.0
 76
     1
 77
     6
 78
     2
 67
     7
 79
     5
170
     0
171
     0
290
     0
174
     0
 93
        1
 44
0.0
173
     0
291
     1
 45
0.0
1001
ACAD
1000
AcDbSavedByObjectVersion
1070
     0
  0
DICTIONARY
  5
57E
330
3D
100
AcDbDictionary
280
     1
281
     1
  3
ACAD_XREC_ROUNDTRIP
360
57F
  0
DICTIONARY
  5
57C
330
3C
100
AcDbDictionary
280
     1
281
     1
  3
ACAD_XREC_ROUNDTRIP
360
57D
  0
DICTIONARY
  5
580
330
3E
100
AcDbDictionary
280
     1
281
     1
  3
ACAD_XREC_ROUNDTRIP
360
581
  0
DICTIONARY
  5
564
330
2F
100
AcDbDictionary
280
     1
281
     1
  3
ACAD_XREC_ROUNDTRIP
360
565
  0
DICTIONARY
  5
568
330
31
100
AcDbDictionary
280
     1
281
     1
  3
ACAD_XREC_ROUNDTRIP
360
569
  0
DICTIONARY
  5
566
330
30
100
AcDbDictionary
280
     1
281
     1
  3
ACAD_XREC_ROUNDTRIP
360
567
  0
DICTIONARY
  5
56A
330
32
100
AcDbDictionary
280
     1
281
     1
  3
ACAD_XREC_ROUNDTRIP
360
56B
  0
DICTIONARY
  5
572
330
36
100
AcDbDictionary
280
     1
281
     1
  3
ACAD_XREC_ROUNDTRIP
360
573
  0
DICTIONARY
  5
57A
330
3A
100
AcDbDictionary
280
     1
281
     1
  3
ACAD_XREC_ROUNDTRIP
360
57B
  0
DICTIONARY
  5
56E
330
34
100
AcDbDictionary
280
     1
281
     1
  3
ACAD_XREC_ROUNDTRIP
360
56F
  0
DICTIONARY
  5
570
330
35
100
AcDbDictionary
280
     1
281
     1
  3
ACAD_XREC_ROUNDTRIP
360
571
  0
DICTIONARY
  5
578
330
39
100
AcDbDictionary
280
     1
281
     1
  3
ACAD_XREC_ROUNDTRIP
360
579
  0
DICTIONARY
  5
55C
330
2B
100
AcDbDictionary
280
     1
281
     1
  3
ACAD_XREC_ROUNDTRIP
360
55D
  0
DICTIONARY
  5
55E
330
2C
100
AcDbDictionary
280
     1
281
     1
  3
ACAD_XREC_ROUNDTRIP
360
55F
  0
DICTIONARY
  5
560
330
2D
100
AcDbDictionary
280
     1
281
     1
  3
ACAD_XREC_ROUNDTRIP
360
561
  0
DICTIONARY
  5
562
330
2E
100
AcDbDictionary
280
     1
281
     1
  3
ACAD_XREC_ROUNDTRIP
360
563
  0
DICTIONARY
  5
576
330
38
100
AcDbDictionary
280
     1
281
     1
  3
ACAD_XREC_ROUNDTRIP
360
577
  0
DICTIONARY
  5
56C
330
33
100
AcDbDictionary
280
     1
281
     1
  3
ACAD_XREC_ROUNDTRIP
360
56D
  0
DICTIONARY
  5
574
330
37
100
AcDbDictionary
280
     1
281
     1
  3
ACAD_XREC_ROUNDTRIP
360
575
  0
XRECORD
  5
57F
102
{ACAD_REACTORS
330
57E
102
}
330
57E
100
AcDbXrecord
280
     1
102
MATERIAL
148
0.0
149
0.0
149
0.0
 93
        0
 94
      127
282
     0
 72
     1
 77
     1
171
     1
175
     1
179
     1
273
     0
  0
XRECORD
  5
57D
102
{ACAD_REACTORS
330
57C
102
}
330
57C
100
AcDbXrecord
280
     1
102
MATERIAL
148
0.0
149
0.0
149
0.0
 93
        0
 94
      127
282
     0
 72
     1
 77
     1
171
     1
175
     1
179
     1
273
     0
  0
XRECORD
  5
581
102
{ACAD_REACTORS
330
580
102
}
330
580
100
AcDbXrecord
280
     1
102
MATERIAL
148
0.0
149
0.0
149
0.0
 93
        0
 94
      127
282
     0
 72
     1
 77
     1
171
     1
175
     1
179
     1
273
     0
  0
XRECORD
  5
565
102
{ACAD_REACTORS
330
564
102
}
330
564
100
AcDbXrecord
280
     1
102
RTVSPropertyOp0
 70
     1
102
RTVSPropertyOp1
 70
     1
102
RTVSPropertyOp2
 70
     1
102
RTVSPropertyOp3
 70
     1
102
RTVSPropertyOp4
 70
     1
102
RTVSPropertyOp5
 70
     1
102
RTVSPropertyOp6
 70
     1
102
RTVSPropertyOp7
 70
     1
102
RTVSPropertyOp8
 70
     1
102
RTVSPropertyOp9
 70
     1
102
RTVSPropertyOp10
 70
     1
102
RTVSPropertyOp11
 70
     1
102
RTVSPropertyOp12
 70
     1
102
RTVSPropertyOp13
 70
     1
102
RTVSPropertyOp14
 70
     1
102
RTVSPropertyOp15
 70
     1
102
RTVSPropertyOp16
 70
     1
102
RTVSPropertyOp17
 70
     1
102
RTVSPropertyOp18
 70
     1
102
RTVSPropertyOp19
 70
     1
102
RTVSPropertyOp20
 70
     1
102
RTVSPropertyOp21
 70
     1
102
RTVSPropertyOp22
 70
     1
102
RTVSPropertyOp23
 70
     1
102
RTVSPropertyOp24
 70
     1
102
RTVSPropertyOp25
 70
     1
102
RTVSPropertyOp26
 70
     1
102
RTVSPropertyOp27
 70
     1
102
RTVSPropertyOp28
 70
     1
102
RTVSPropertyOp29
 70
     1
102
RTVSPropertyOp30
 70
     1
102
RTVSPropertyOp31
 70
     1
102
RTVSPropertyOp32
 70
     1
  0
XRECORD
  5
569
102
{ACAD_REACTORS
330
568
102
}
330
568
100
AcDbXrecord
280
     1
102
RTVSPropertyOp0
 70
     1
102
RTVSPropertyOp1
 70
     1
102
RTVSPropertyOp2
 70
     1
102
RTVSPropertyOp3
 70
     1
102
RTVSPropertyOp4
 70
     1
102
RTVSPropertyOp5
 70
     1
102
RTVSPropertyOp6
 70
     1
102
RTVSPropertyOp7
 70
     1
102
RTVSPropertyOp8
 70
     1
102
RTVSPropertyOp9
 70
     1
102
RTVSPropertyOp10
 70
     1
102
RTVSPropertyOp11
 70
     1
102
RTVSPropertyOp12
 70
     1
102
RTVSPropertyOp13
 70
     1
102
RTVSPropertyOp14
 70
     1
102
RTVSPropertyOp15
 70
     1
102
RTVSPropertyOp16
 70
     1
102
RTVSPropertyOp17
 70
     1
102
RTVSPropertyOp18
 70
     1
102
RTVSPropertyOp19
 70
     1
102
RTVSPropertyOp20
 70
     1
102
RTVSPropertyOp21
 70
     1
102
RTVSPropertyOp22
 70
     1
102
RTVSPropertyOp23
 70
     1
102
RTVSPropertyOp24
 70
     1
102
RTVSPropertyOp25
 70
     1
102
RTVSPropertyOp26
 70
     1
102
RTVSPropertyOp27
 70
     1
102
RTVSPropertyOp28
 70
     1
102
RTVSPropertyOp29
 70
     1
102
RTVSPropertyOp30
 70
     1
102
RTVSPropertyOp31
 70
     1
102
RTVSPropertyOp32
 70
     1
  0
XRECORD
  5
567
102
{ACAD_REACTORS
330
566
102
}
330
566
100
AcDbXrecord
280
     1
102
RTVSPropertyOp0
 70
     1
102
RTVSPropertyOp1
 70
     1
102
RTVSPropertyOp2
 70
     1
102
RTVSPropertyOp3
 70
     1
102
RTVSPropertyOp4
 70
     1
102
RTVSPropertyOp5
 70
     1
102
RTVSPropertyOp6
 70
     1
102
RTVSPropertyOp7
 70
     1
102
RTVSPropertyOp8
 70
     1
102
RTVSPropertyOp9
 70
     1
102
RTVSPropertyOp10
 70
     1
102
RTVSPropertyOp11
 70
     1
102
RTVSPropertyOp12
 70
     1
102
RTVSPropertyOp13
 70
     1
102
RTVSPropertyOp14
 70
     1
102
RTVSPropertyOp15
 70
     1
102
RTVSPropertyOp16
 70
     1
102
RTVSPropertyOp17
 70
     1
102
RTVSPropertyOp18
 70
     1
102
RTVSPropertyOp19
 70
     1
102
RTVSPropertyOp20
 70
     1
102
RTVSPropertyOp21
 70
     1
102
RTVSPropertyOp22
 70
     1
102
RTVSPropertyOp23
 70
     1
102
RTVSPropertyOp24
 70
     1
102
RTVSPropertyOp25
 70
     1
102
RTVSPropertyOp26
 70
     1
102
RTVSPropertyOp27
 70
     1
102
RTVSPropertyOp28
 70
     1
102
RTVSPropertyOp29
 70
     1
102
RTVSPropertyOp30
 70
     1
102
RTVSPropertyOp31
 70
     1
102
RTVSPropertyOp32
 70
     1
  0
XRECORD
  5
56B
102
{ACAD_REACTORS
330
56A
102
}
330
56A
100
AcDbXrecord
280
     1
102
RTVSPropertyOp0
 70
     1
102
RTVSPropertyOp1
 70
     1
102
RTVSPropertyOp2
 70
     1
102
RTVSPropertyOp3
 70
     1
102
RTVSPropertyOp4
 70
     1
102
RTVSPropertyOp5
 70
     1
102
RTVSPropertyOp6
 70
     1
102
RTVSPropertyOp7
 70
     1
102
RTVSPropertyOp8
 70
     1
102
RTVSPropertyOp9
 70
     1
102
RTVSPropertyOp10
 70
     1
102
RTVSPropertyOp11
 70
     1
102
RTVSPropertyOp12
 70
     1
102
RTVSPropertyOp13
 70
     1
102
RTVSPropertyOp14
 70
     1
102
RTVSPropertyOp15
 70
     1
102
RTVSPropertyOp16
 70
     1
102
RTVSPropertyOp17
 70
     1
102
RTVSPropertyOp18
 70
     1
102
RTVSPropertyOp19
 70
     1
102
RTVSPropertyOp20
 70
     1
102
RTVSPropertyOp21
 70
     1
102
RTVSPropertyOp22
 70
     1
102
RTVSPropertyOp23
 70
     1
102
RTVSPropertyOp24
 70
     1
102
RTVSPropertyOp25
 70
     1
102
RTVSPropertyOp26
 70
     1
102
RTVSPropertyOp27
 70
     1
102
RTVSPropertyOp28
 70
     1
102
RTVSPropertyOp29
 70
     1
102
RTVSPropertyOp30
 70
     1
102
RTVSPropertyOp31
 70
     1
102
RTVSPropertyOp32
 70
     1
  0
XRECORD
  5
573
102
{ACAD_REACTORS
330
572
102
}
330
572
100
AcDbXrecord
280
     1
102
RTVSPropertyOp0
 70
     1
102
RTVSPropertyOp1
 70
     1
102
RTVSPropertyOp2
 70
     1
102
RTVSPropertyOp3
 70
     1
102
RTVSPropertyOp4
 70
     1
102
RTVSPropertyOp5
 70
     1
102
RTVSPropertyOp6
 70
     1
102
RTVSPropertyOp7
 70
     1
102
RTVSPropertyOp8
 70
     1
102
RTVSPropertyOp9
 70
     1
102
RTVSPropertyOp10
 70
     1
102
RTVSPropertyOp11
 70
     1
102
RTVSPropertyOp12
 70
     1
102
RTVSPropertyOp13
 70
     1
102
RTVSPropertyOp14
 70
     1
102
RTVSPropertyOp15
 70
     1
102
RTVSPropertyOp16
 70
     1
102
RTVSPropertyOp17
 70
     1
102
RTVSPropertyOp18
 70
     1
102
RTVSPropertyOp19
 70
     1
102
RTVSPropertyOp20
 70
     1
102
RTVSPropertyOp21
 70
     1
102
RTVSPropertyOp22
 70
     1
102
RTVSPropertyOp23
 70
     1
102
RTVSPropertyOp24
 70
     1
102
RTVSPropertyOp25
 70
     1
102
RTVSPropertyOp26
 70
     1
102
RTVSPropertyOp27
 70
     1
102
RTVSPropertyOp28
 70
     1
102
RTVSPropertyOp29
 70
     1
102
RTVSPropertyOp30
 70
     1
102
RTVSPropertyOp31
 70
     1
102
RTVSPropertyOp32
 70
     1
  0
XRECORD
  5
57B
102
{ACAD_REACTORS
330
57A
102
}
330
57A
100
AcDbXrecord
280
     1
102
RTVSPropertyOp0
 70
     1
102
RTVSPropertyOp1
 70
     1
102
RTVSPropertyOp2
 70
     1
102
RTVSPropertyOp3
 70
     1
102
RTVSPropertyOp4
 70
     1
102
RTVSPropertyOp5
 70
     1
102
RTVSPropertyOp6
 70
     1
102
RTVSPropertyOp7
 70
     1
102
RTVSPropertyOp8
 70
     1
102
RTVSPropertyOp9
 70
     1
102
RTVSPropertyOp10
 70
     1
102
RTVSPropertyOp11
 70
     1
102
RTVSPropertyOp12
 70
     1
102
RTVSPropertyOp13
 70
     1
102
RTVSPropertyOp14
 70
     1
102
RTVSPropertyOp15
 70
     1
102
RTVSPropertyOp16
 70
     1
102
RTVSPropertyOp17
 70
     1
102
RTVSPropertyOp18
 70
     1
102
RTVSPropertyOp19
 70
     1
102
RTVSPropertyOp20
 70
     1
102
RTVSPropertyOp21
 70
     1
102
RTVSPropertyOp22
 70
     1
102
RTVSPropertyOp23
 70
     1
102
RTVSPropertyOp24
 70
     1
102
RTVSPropertyOp25
 70
     1
102
RTVSPropertyOp26
 70
     1
102
RTVSPropertyOp27
 70
     1
102
RTVSPropertyOp28
 70
     1
102
RTVSPropertyOp29
 70
     1
102
RTVSPropertyOp30
 70
     1
102
RTVSPropertyOp31
 70
     1
102
RTVSPropertyOp32
 70
     1
  0
XRECORD
  5
56F
102
{ACAD_REACTORS
330
56E
102
}
330
56E
100
AcDbXrecord
280
     1
102
RTVSPropertyOp0
 70
     1
102
RTVSPropertyOp1
 70
     1
102
RTVSPropertyOp2
 70
     1
102
RTVSPropertyOp3
 70
     1
102
RTVSPropertyOp4
 70
     1
102
RTVSPropertyOp5
 70
     1
102
RTVSPropertyOp6
 70
     1
102
RTVSPropertyOp7
 70
     1
102
RTVSPropertyOp8
 70
     1
102
RTVSPropertyOp9
 70
     1
102
RTVSPropertyOp10
 70
     1
102
RTVSPropertyOp11
 70
     1
102
RTVSPropertyOp12
 70
     1
102
RTVSPropertyOp13
 70
     1
102
RTVSPropertyOp14
 70
     1
102
RTVSPropertyOp15
 70
     1
102
RTVSPropertyOp16
 70
     1
102
RTVSPropertyOp17
 70
     1
102
RTVSPropertyOp18
 70
     1
102
RTVSPropertyOp19
 70
     1
102
RTVSPropertyOp20
 70
     1
102
RTVSPropertyOp21
 70
     1
102
RTVSPropertyOp22
 70
     1
102
RTVSPropertyOp23
 70
     1
102
RTVSPropertyOp24
 70
     1
102
RTVSPropertyOp25
 70
     1
102
RTVSPropertyOp26
 70
     1
102
RTVSPropertyOp27
 70
     1
102
RTVSPropertyOp28
 70
     1
102
RTVSPropertyOp29
 70
     1
102
RTVSPropertyOp30
 70
     1
102
RTVSPropertyOp31
 70
     1
102
RTVSPropertyOp32
 70
     1
  0
XRECORD
  5
571
102
{ACAD_REACTORS
330
570
102
}
330
570
100
AcDbXrecord
280
     1
102
RTVSPropertyOp0
 70
     1
102
RTVSPropertyOp1
 70
     1
102
RTVSPropertyOp2
 70
     1
102
RTVSPropertyOp3
 70
     1
102
RTVSPropertyOp4
 70
     1
102
RTVSPropertyOp5
 70
     1
102
RTVSPropertyOp6
 70
     1
102
RTVSPropertyOp7
 70
     1
102
RTVSPropertyOp8
 70
     1
102
RTVSPropertyOp9
 70
     1
102
RTVSPropertyOp10
 70
     1
102
RTVSPropertyOp11
 70
     1
102
RTVSPropertyOp12
 70
     1
102
RTVSPropertyOp13
 70
     1
102
RTVSPropertyOp14
 70
     1
102
RTVSPropertyOp15
 70
     1
102
RTVSPropertyOp16
 70
     1
102
RTVSPropertyOp17
 70
     1
102
RTVSPropertyOp18
 70
     1
102
RTVSPropertyOp19
 70
     1
102
RTVSPropertyOp20
 70
     1
102
RTVSPropertyOp21
 70
     1
102
RTVSPropertyOp22
 70
     1
102
RTVSPropertyOp23
 70
     1
102
RTVSPropertyOp24
 70
     1
102
RTVSPropertyOp25
 70
     1
102
RTVSPropertyOp26
 70
     1
102
RTVSPropertyOp27
 70
     1
102
RTVSPropertyOp28
 70
     1
102
RTVSPropertyOp29
 70
     1
102
RTVSPropertyOp30
 70
     1
102
RTVSPropertyOp31
 70
     1
102
RTVSPropertyOp32
 70
     1
  0
XRECORD
  5
579
102
{ACAD_REACTORS
330
578
102
}
330
578
100
AcDbXrecord
280
     1
102
RTVSPropertyOp0
 70
     1
102
RTVSPropertyOp1
 70
     1
102
RTVSPropertyOp2
 70
     1
102
RTVSPropertyOp3
 70
     1
102
RTVSPropertyOp4
 70
     1
102
RTVSPropertyOp5
 70
     1
102
RTVSPropertyOp6
 70
     1
102
RTVSPropertyOp7
 70
     1
102
RTVSPropertyOp8
 70
     1
102
RTVSPropertyOp9
 70
     1
102
RTVSPropertyOp10
 70
     1
102
RTVSPropertyOp11
 70
     1
102
RTVSPropertyOp12
 70
     1
102
RTVSPropertyOp13
 70
     1
102
RTVSPropertyOp14
 70
     1
102
RTVSPropertyOp15
 70
     1
102
RTVSPropertyOp16
 70
     1
102
RTVSPropertyOp17
 70
     1
102
RTVSPropertyOp18
 70
     1
102
RTVSPropertyOp19
 70
     1
102
RTVSPropertyOp20
 70
     1
102
RTVSPropertyOp21
 70
     1
102
RTVSPropertyOp22
 70
     1
102
RTVSPropertyOp23
 70
     1
102
RTVSPropertyOp24
 70
     1
102
RTVSPropertyOp25
 70
     1
102
RTVSPropertyOp26
 70
     1
102
RTVSPropertyOp27
 70
     1
102
RTVSPropertyOp28
 70
     1
102
RTVSPropertyOp29
 70
     1
102
RTVSPropertyOp30
 70
     1
102
RTVSPropertyOp31
 70
     1
102
RTVSPropertyOp32
 70
     1
  0
XRECORD
  5
55D
102
{ACAD_REACTORS
330
55C
102
}
330
55C
100
AcDbXrecord
280
     1
102
RTVSPropertyOp0
 70
     1
102
RTVSPropertyOp1
 70
     1
102
RTVSPropertyOp2
 70
     1
102
RTVSPropertyOp3
 70
     1
102
RTVSPropertyOp4
 70
     1
102
RTVSPropertyOp5
 70
     1
102
RTVSPropertyOp6
 70
     1
102
RTVSPropertyOp7
 70
     1
102
RTVSPropertyOp8
 70
     1
102
RTVSPropertyOp9
 70
     1
102
RTVSPropertyOp10
 70
     1
102
RTVSPropertyOp11
 70
     1
102
RTVSPropertyOp12
 70
     1
102
RTVSPropertyOp13
 70
     1
102
RTVSPropertyOp14
 70
     1
102
RTVSPropertyOp15
 70
     1
102
RTVSPropertyOp16
 70
     1
102
RTVSPropertyOp17
 70
     1
102
RTVSPropertyOp18
 70
     1
102
RTVSPropertyOp19
 70
     1
102
RTVSPropertyOp20
 70
     1
102
RTVSPropertyOp21
 70
     1
102
RTVSPropertyOp22
 70
     1
102
RTVSPropertyOp23
 70
     1
102
RTVSPropertyOp24
 70
     1
102
RTVSPropertyOp25
 70
     1
102
RTVSPropertyOp26
 70
     1
102
RTVSPropertyOp27
 70
     1
102
RTVSPropertyOp28
 70
     1
102
RTVSPropertyOp29
 70
     1
102
RTVSPropertyOp30
 70
     1
102
RTVSPropertyOp31
 70
     1
102
RTVSPropertyOp32
 70
     1
  0
XRECORD
  5
55F
102
{ACAD_REACTORS
330
55E
102
}
330
55E
100
AcDbXrecord
280
     1
102
RTVSPropertyOp0
 70
     1
102
RTVSPropertyOp1
 70
     1
102
RTVSPropertyOp2
 70
     1
102
RTVSPropertyOp3
 70
     1
102
RTVSPropertyOp4
 70
     1
102
RTVSPropertyOp5
 70
     1
102
RTVSPropertyOp6
 70
     1
102
RTVSPropertyOp7
 70
     1
102
RTVSPropertyOp8
 70
     1
102
RTVSPropertyOp9
 70
     1
102
RTVSPropertyOp10
 70
     1
102
RTVSPropertyOp11
 70
     1
102
RTVSPropertyOp12
 70
     1
102
RTVSPropertyOp13
 70
     1
102
RTVSPropertyOp14
 70
     1
102
RTVSPropertyOp15
 70
     1
102
RTVSPropertyOp16
 70
     1
102
RTVSPropertyOp17
 70
     1
102
RTVSPropertyOp18
 70
     1
102
RTVSPropertyOp19
 70
     1
102
RTVSPropertyOp20
 70
     1
102
RTVSPropertyOp21
 70
     1
102
RTVSPropertyOp22
 70
     1
102
RTVSPropertyOp23
 70
     1
102
RTVSPropertyOp24
 70
     1
102
RTVSPropertyOp25
 70
     1
102
RTVSPropertyOp26
 70
     1
102
RTVSPropertyOp27
 70
     1
102
RTVSPropertyOp28
 70
     1
102
RTVSPropertyOp29
 70
     1
102
RTVSPropertyOp30
 70
     1
102
RTVSPropertyOp31
 70
     1
102
RTVSPropertyOp32
 70
     1
  0
XRECORD
  5
561
102
{ACAD_REACTORS
330
560
102
}
330
560
100
AcDbXrecord
280
     1
102
RTVSPropertyOp0
 70
     1
102
RTVSPropertyOp1
 70
     1
102
RTVSPropertyOp2
 70
     1
102
RTVSPropertyOp3
 70
     1
102
RTVSPropertyOp4
 70
     1
102
RTVSPropertyOp5
 70
     1
102
RTVSPropertyOp6
 70
     1
102
RTVSPropertyOp7
 70
     1
102
RTVSPropertyOp8
 70
     1
102
RTVSPropertyOp9
 70
     1
102
RTVSPropertyOp10
 70
     1
102
RTVSPropertyOp11
 70
     1
102
RTVSPropertyOp12
 70
     1
102
RTVSPropertyOp13
 70
     1
102
RTVSPropertyOp14
 70
     1
102
RTVSPropertyOp15
 70
     1
102
RTVSPropertyOp16
 70
     1
102
RTVSPropertyOp17
 70
     1
102
RTVSPropertyOp18
 70
     1
102
RTVSPropertyOp19
 70
     1
102
RTVSPropertyOp20
 70
     1
102
RTVSPropertyOp21
 70
     1
102
RTVSPropertyOp22
 70
     1
102
RTVSPropertyOp23
 70
     1
102
RTVSPropertyOp24
 70
     1
102
RTVSPropertyOp25
 70
     1
102
RTVSPropertyOp26
 70
     1
102
RTVSPropertyOp27
 70
     1
102
RTVSPropertyOp28
 70
     1
102
RTVSPropertyOp29
 70
     1
102
RTVSPropertyOp30
 70
     1
102
RTVSPropertyOp31
 70
     1
102
RTVSPropertyOp32
 70
     1
  0
XRECORD
  5
563
102
{ACAD_REACTORS
330
562
102
}
330
562
100
AcDbXrecord
280
     1
102
RTVSPropertyOp0
 70
     1
102
RTVSPropertyOp1
 70
     1
102
RTVSPropertyOp2
 70
     1
102
RTVSPropertyOp3
 70
     1
102
RTVSPropertyOp4
 70
     1
102
RTVSPropertyOp5
 70
     1
102
RTVSPropertyOp6
 70
     1
102
RTVSPropertyOp7
 70
     1
102
RTVSPropertyOp8
 70
     1
102
RTVSPropertyOp9
 70
     1
102
RTVSPropertyOp10
 70
     1
102
RTVSPropertyOp11
 70
     1
102
RTVSPropertyOp12
 70
     1
102
RTVSPropertyOp13
 70
     1
102
RTVSPropertyOp14
 70
     1
102
RTVSPropertyOp15
 70
     1
102
RTVSPropertyOp16
 70
     1
102
RTVSPropertyOp17
 70
     1
102
RTVSPropertyOp18
 70
     1
102
RTVSPropertyOp19
 70
     1
102
RTVSPropertyOp20
 70
     1
102
RTVSPropertyOp21
 70
     1
102
RTVSPropertyOp22
 70
     1
102
RTVSPropertyOp23
 70
     1
102
RTVSPropertyOp24
 70
     1
102
RTVSPropertyOp25
 70
     1
102
RTVSPropertyOp26
 70
     1
102
RTVSPropertyOp27
 70
     1
102
RTVSPropertyOp28
 70
     1
102
RTVSPropertyOp29
 70
     1
102
RTVSPropertyOp30
 70
     1
102
RTVSPropertyOp31
 70
     1
102
RTVSPropertyOp32
 70
     1
  0
XRECORD
  5
577
102
{ACAD_REACTORS
330
576
102
}
330
576
100
AcDbXrecord
280
     1
102
RTVSPropertyOp0
 70
     1
102
RTVSPropertyOp1
 70
     1
102
RTVSPropertyOp2
 70
     1
102
RTVSPropertyOp3
 70
     1
102
RTVSPropertyOp4
 70
     1
102
RTVSPropertyOp5
 70
     1
102
RTVSPropertyOp6
 70
     1
102
RTVSPropertyOp7
 70
     1
102
RTVSPropertyOp8
 70
     1
102
RTVSPropertyOp9
 70
     1
102
RTVSPropertyOp10
 70
     1
102
RTVSPropertyOp11
 70
     1
102
RTVSPropertyOp12
 70
     1
102
RTVSPropertyOp13
 70
     1
102
RTVSPropertyOp14
 70
     1
102
RTVSPropertyOp15
 70
     1
102
RTVSPropertyOp16
 70
     1
102
RTVSPropertyOp17
 70
     1
102
RTVSPropertyOp18
 70
     1
102
RTVSPropertyOp19
 70
     1
102
RTVSPropertyOp20
 70
     1
102
RTVSPropertyOp21
 70
     1
102
RTVSPropertyOp22
 70
     1
102
RTVSPropertyOp23
 70
     1
102
RTVSPropertyOp24
 70
     1
102
RTVSPropertyOp25
 70
     1
102
RTVSPropertyOp26
 70
     1
102
RTVSPropertyOp27
 70
     1
102
RTVSPropertyOp28
 70
     1
102
RTVSPropertyOp29
 70
     1
102
RTVSPropertyOp30
 70
     1
102
RTVSPropertyOp31
 70
     1
102
RTVSPropertyOp32
 70
     1
  0
XRECORD
  5
56D
102
{ACAD_REACTORS
330
56C
102
}
330
56C
100
AcDbXrecord
280
     1
102
RTVSPropertyOp0
 70
     1
102
RTVSPropertyOp1
 70
     1
102
RTVSPropertyOp2
 70
     1
102
RTVSPropertyOp3
 70
     1
102
RTVSPropertyOp4
 70
     1
102
RTVSPropertyOp5
 70
     1
102
RTVSPropertyOp6
 70
     1
102
RTVSPropertyOp7
 70
     1
102
RTVSPropertyOp8
 70
     1
102
RTVSPropertyOp9
 70
     1
102
RTVSPropertyOp10
 70
     1
102
RTVSPropertyOp11
 70
     1
102
RTVSPropertyOp12
 70
     1
102
RTVSPropertyOp13
 70
     1
102
RTVSPropertyOp14
 70
     1
102
RTVSPropertyOp15
 70
     1
102
RTVSPropertyOp16
 70
     1
102
RTVSPropertyOp17
 70
     1
102
RTVSPropertyOp18
 70
     1
102
RTVSPropertyOp19
 70
     1
102
RTVSPropertyOp20
 70
     1
102
RTVSPropertyOp21
 70
     1
102
RTVSPropertyOp22
 70
     1
102
RTVSPropertyOp23
 70
     1
102
RTVSPropertyOp24
 70
     1
102
RTVSPropertyOp25
 70
     1
102
RTVSPropertyOp26
 70
     1
102
RTVSPropertyOp27
 70
     1
102
RTVSPropertyOp28
 70
     1
102
RTVSPropertyOp29
 70
     1
102
RTVSPropertyOp30
 70
     1
102
RTVSPropertyOp31
 70
     1
102
RTVSPropertyOp32
 70
     1
  0
XRECORD
  5
575
102
{ACAD_REACTORS
330
574
102
}
330
574
100
AcDbXrecord
280
     1
102
RTVSPropertyOp0
 70
     1
102
RTVSPropertyOp1
 70
     1
102
RTVSPropertyOp2
 70
     1
102
RTVSPropertyOp3
 70
     1
102
RTVSPropertyOp4
 70
     1
102
RTVSPropertyOp5
 70
     1
102
RTVSPropertyOp6
 70
     1
102
RTVSPropertyOp7
 70
     1
102
RTVSPropertyOp8
 70
     1
102
RTVSPropertyOp9
 70
     1
102
RTVSPropertyOp10
 70
     1
102
RTVSPropertyOp11
 70
     1
102
RTVSPropertyOp12
 70
     1
102
RTVSPropertyOp13
 70
     1
102
RTVSPropertyOp14
 70
     1
102
RTVSPropertyOp15
 70
     1
102
RTVSPropertyOp16
 70
     1
102
RTVSPropertyOp17
 70
     1
102
RTVSPropertyOp18
 70
     1
102
RTVSPropertyOp19
 70
     1
102
RTVSPropertyOp20
 70
     1
102
RTVSPropertyOp21
 70
     1
102
RTVSPropertyOp22
 70
     1
102
RTVSPropertyOp23
 70
     1
102
RTVSPropertyOp24
 70
     1
102
RTVSPropertyOp25
 70
     1
102
RTVSPropertyOp26
 70
     1
102
RTVSPropertyOp27
 70
     1
102
RTVSPropertyOp28
 70
     1
102
RTVSPropertyOp29
 70
     1
102
RTVSPropertyOp30
 70
     1
102
RTVSPropertyOp31
 70
     1
102
RTVSPropertyOp32
 70
     1
  0
ENDSEC
  0
EOF
