  0
SECTION
  2
HEADER
  9
$ACADVER
  1
AC1018
  9
$ACADMAINTVER
 70
     0
  9
$DWGCODEPAGE
  3
ANSI_932
  9
$INSBASE
 10
0.0
 20
0.0
 30
0.0
  9
$EXTMIN
 10
-105.0
 20
-148.5
 30
0.0
  9
$EXTMAX
 10
105.0
 20
148.5
 30
0.0
  9
$LIMMIN
 10
-105.0
 20
-148.5
  9
$LIMMAX
 10
105.0
 20
148.5
  9
$ORTHOMODE
 70
     0
  9
$REGENMODE
 70
     1
  9
$FILLMODE
 70
     1
  9
$QTEXTMODE
 70
     0
  9
$MIRRTEXT
 70
     1
  9
$LTSCALE
 40
1.0
  9
$ATTMODE
 70
     1
  9
$TEXTSIZE
 40
2.5
  9
$TRACEWID
 40
1.0
  9
$TEXTSTYLE
  7
Standard
  9
$CLAYER
  8
0
  9
$CELTYPE
  6
ByLayer
  9
$CECOLOR
 62
   256
  9
$CELTSCALE
 40
1.0
  9
$DISPSILH
 70
     0
  9
$DIMSCALE
 40
1.0
  9
$DIMASZ
 40
2.5
  9
$DIMEXO
 40
0.625
  9
$DIMDLI
 40
3.75
  9
$DIMRND
 40
0.0
  9
$DIMDLE
 40
0.0
  9
$DIMEXE
 40
1.25
  9
$DIMTP
 40
0.0
  9
$DIMTM
 40
0.0
  9
$DIMTXT
 40
2.5
  9
$DIMCEN
 40
2.5
  9
$DIMTSZ
 40
0.0
  9
$DIMTOL
 70
     0
  9
$DIMLIM
 70
     0
  9
$DIMTIH
 70
     0
  9
$DIMTOH
 70
     0
  9
$DIMSE1
 70
     0
  9
$DIMSE2
 70
     0
  9
$DIMTAD
 70
     1
  9
$DIMZIN
 70
     8
  9
$DIMBLK
  1

  9
$DIMASO
 70
     1
  9
$DIMSHO
 70
     1
  9
$DIMPOST
  1

  9
$DIMAPOST
  1

  9
$DIMALT
 70
     0
  9
$DIMALTD
 70
     3
  9
$DIMALTF
 40
0.03937007874016
  9
$DIMLFAC
 40
1.0
  9
$DIMTOFL
 70
     1
  9
$DIMTVP
 40
0.0
  9
$DIMTIX
 70
     0
  9
$DIMSOXD
 70
     0
  9
$DIMSAH
 70
     0
  9
$DIMBLK1
  1

  9
$DIMBLK2
  1

  9
$DIMSTYLE
  2
ISO-25
  9
$DIMCLRD
 70
     0
  9
$DIMCLRE
 70
     0
  9
$DIMCLRT
 70
     0
  9
$DIMTFAC
 40
1.0
  9
$DIMGAP
 40
0.625
  9
$DIMJUST
 70
     0
  9
$DIMSD1
 70
     0
  9
$DIMSD2
 70
     0
  9
$DIMTOLJ
 70
     0
  9
$DIMTZIN
 70
     8
  9
$DIMALTZ
 70
     0
  9
$DIMALTTZ
 70
     0
  9
$DIMUPT
 70
     0
  9
$DIMDEC
 70
     2
  9
$DIMTDEC
 70
     2
  9
$DIMALTU
 70
     2
  9
$DIMALTTD
 70
     3
  9
$DIMTXSTY
  7
Standard
  9
$DIMAUNIT
 70
     0
  9
$DIMADEC
 70
     0
  9
$DIMALTRND
 40
0.0
  9
$DIMAZIN
 70
     0
  9
$DIMDSEP
 70
    44
  9
$DIMATFIT
 70
     3
  9
$DIMFRAC
 70
     0
  9
$DIMLDRBLK
  1

  9
$DIMLUNIT
 70
     2
  9
$DIMLWD
 70
    -2
  9
$DIMLWE
 70
    -2
  9
$DIMTMOVE
 70
     0
  9
$LUNITS
 70
     2
  9
$LUPREC
 70
     4
  9
$SKETCHINC
 40
1.0
  9
$FILLETRAD
 40
10.0
  9
$AUNITS
 70
     0
  9
$AUPREC
 70
     0
  9
$MENU
  1
.
  9
$ELEVATION
 40
0.0
  9
$PELEVATION
 40
0.0
  9
$THICKNESS
 40
0.0
  9
$LIMCHECK
 70
     0
  9
$CHAMFERA
 40
10.0
  9
$CHAMFERB
 40
10.0
  9
$CHAMFERC
 40
20.0
  9
$CHAMFERD
 40
0.0
  9
$SKPOLY
 70
     0
  9
$TDCREATE
 40
2457290.490970301
  9
$TDUCREATE
 40
2457290.115970301
  9
$TDUPDATE
 40
2457290.490970857
  9
$TDUUPDATE
 40
2457290.115970857
  9
$TDINDWG
 40
0.0000000116
  9
$TDUSRTIMER
 40
0.0000000116
  9
$USRTIMER
 70
     1
  9
$ANGBASE
 50
0.0
  9
$ANGDIR
 70
     0
  9
$PDMODE
 70
     0
  9
$PDSIZE
 40
0.0
  9
$PLINEWID
 40
0.0
  9
$SPLFRAME
 70
     0
  9
$SPLINETYPE
 70
     6
  9
$SPLINESEGS
 70
     8
  9
$HANDSEED
  5
4D9
  9
$SURFTAB1
 70
     6
  9
$SURFTAB2
 70
     6
  9
$SURFTYPE
 70
     6
  9
$SURFU
 70
     6
  9
$SURFV
 70
     6
  9
$UCSBASE
  2

  9
$UCSNAME
  2

  9
$UCSORG
 10
0.0
 20
0.0
 30
0.0
  9
$UCSXDIR
 10
1.0
 20
0.0
 30
0.0
  9
$UCSYDIR
 10
0.0
 20
1.0
 30
0.0
  9
$UCSORTHOREF
  2

  9
$UCSORTHOVIEW
 70
     0
  9
$UCSORGTOP
 10
0.0
 20
0.0
 30
0.0
  9
$UCSORGBOTTOM
 10
0.0
 20
0.0
 30
0.0
  9
$UCSORGLEFT
 10
0.0
 20
0.0
 30
0.0
  9
$UCSORGRIGHT
 10
0.0
 20
0.0
 30
0.0
  9
$UCSORGFRONT
 10
0.0
 20
0.0
 30
0.0
  9
$UCSORGBACK
 10
0.0
 20
0.0
 30
0.0
  9
$PUCSBASE
  2

  9
$PUCSNAME
  2

  9
$PUCSORG
 10
0.0
 20
0.0
 30
0.0
  9
$PUCSXDIR
 10
1.0
 20
0.0
 30
0.0
  9
$PUCSYDIR
 10
0.0
 20
1.0
 30
0.0
  9
$PUCSORTHOREF
  2

  9
$PUCSORTHOVIEW
 70
     0
  9
$PUCSORGTOP
 10
0.0
 20
0.0
 30
0.0
  9
$PUCSORGBOTTOM
 10
0.0
 20
0.0
 30
0.0
  9
$PUCSORGLEFT
 10
0.0
 20
0.0
 30
0.0
  9
$PUCSORGRIGHT
 10
0.0
 20
0.0
 30
0.0
  9
$PUCSORGFRONT
 10
0.0
 20
0.0
 30
0.0
  9
$PUCSORGBACK
 10
0.0
 20
0.0
 30
0.0
  9
$USERI1
 70
     0
  9
$USERI2
 70
     0
  9
$USERI3
 70
     0
  9
$USERI4
 70
     0
  9
$USERI5
 70
     0
  9
$USERR1
 40
0.0
  9
$USERR2
 40
0.0
  9
$USERR3
 40
0.0
  9
$USERR4
 40
0.0
  9
$USERR5
 40
0.0
  9
$WORLDVIEW
 70
     1
  9
$SHADEDGE
 70
     3
  9
$SHADEDIF
 70
    70
  9
$TILEMODE
 70
     1
  9
$MAXACTVP
 70
    64
  9
$PINSBASE
 10
0.0
 20
0.0
 30
0.0
  9
$PLIMCHECK
 70
     0
  9
$PEXTMIN
 10
1.000000000000000E+20
 20
1.000000000000000E+20
 30
1.000000000000000E+20
  9
$PEXTMAX
 10
-1.000000000000000E+20
 20
-1.000000000000000E+20
 30
-1.000000000000000E+20
  9
$PLIMMIN
 10
-105.0
 20
-148.5
  9
$PLIMMAX
 10
105.0
 20
148.5
  9
$UNITMODE
 70
     0
  9
$VISRETAIN
 70
     1
  9
$PLINEGEN
 70
     0
  9
$PSLTSCALE
 70
     1
  9
$TREEDEPTH
 70
  3020
  9
$CMLSTYLE
  2
Standard
  9
$CMLJUST
 70
     0
  9
$CMLSCALE
 40
20.0
  9
$PROXYGRAPHICS
 70
     1
  9
$MEASUREMENT
 70
     1
  9
$CELWEIGHT
370
    -1
  9
$ENDCAPS
280
     0
  9
$JOINSTYLE
280
     0
  9
$LWDISPLAY
290
     0
  9
$INSUNITS
 70
     4
  9
$HYPERLINKBASE
  1

  9
$STYLESHEET
  1

  9
$XEDIT
290
     1
  9
$CEPSNTYPE
380
     0
  9
$PSTYLEMODE
290
     1
  9
$FINGERPRINTGUID
  2
{3AFB104B-0E14-4260-8903-FF3F285E5BF5}
  9
$VERSIONGUID
  2
{FAEB1C32-E019-11D5-929B-00C0DF256EC4}
  9
$EXTNAMES
290
     1
  9
$PSVPSCALE
 40
0.0
  9
$OLESTARTUP
290
     0
  9
$SORTENTS
280
   127
  9
$INDEXCTL
280
     0
  9
$HIDETEXT
280
     1
  9
$XCLIPFRAME
290
     0
  9
$HALOGAP
280
     0
  9
$OBSCOLOR
 70
   257
  9
$OBSLTYPE
280
     0
  9
$INTERSECTIONDISPLAY
280
     0
  9
$INTERSECTIONCOLOR
 70
   257
  9
$DIMASSOC
280
     2
  9
$PROJECTNAME
  1

  0
ENDSEC
  0
SECTION
  2
CLASSES
  0
CLASS
  1
ACDBDICTIONARYWDFLT
  2
AcDbDictionaryWithDefault
  3
ObjectDBX Classes
 90
        0
 91
        4
280
     0
281
     0
  0
CLASS
  1
VISUALSTYLE
  2
AcDbVisualStyle
  3
ObjectDBX Classes
 90
     4095
 91
        4
280
     0
281
     0
  0
CLASS
  1
MATERIAL
  2
AcDbMaterial
  3
ObjectDBX Classes
 90
     1153
 91
        4
280
     0
281
     0
  0
CLASS
  1
SUN
  2
AcDbSun
  3
SCENEOE
 90
     1024
 91
        4
280
     0
281
     0
  0
ENDSEC
  0
SECTION
  2
TABLES
  0
TABLE
  2
VPORT
  5
8
330
0
100
AcDbSymbolTable
 70
     1
  0
VPORT
  5
29
330
8
100
AcDbSymbolTableRecord
100
AcDbViewportTableRecord
  2
*Active
 70
     0
 10
0.0
 20
0.0
 11
1.0
 21
1.0
 12
344.1869158878504
 22
148.5
 13
0.0
 23
0.0
 14
10.0
 24
10.0
 15
10.0
 25
10.0
 16
0.0
 26
0.0
 36
1.0
 17
0.0
 27
0.0
 37
0.0
 40
297.0
 41
1.972972972850329
 42
50.0
 43
0.0
 44
0.0
 50
0.0
 51
0.0
 71
     0
 72
   100
 73
     1
 74
     3
 75
     0
 76
     0
 77
     0
 78
     0
281
     0
 65
     1
110
0.0
120
0.0
130
0.0
111
1.0
121
0.0
131
0.0
112
0.0
122
1.0
132
0.0
 79
     0
146
0.0
  0
ENDTAB
  0
TABLE
  2
LTYPE
  5
5
330
0
100
AcDbSymbolTable
 70
     5
  0
LTYPE
  5
14
330
5
100
AcDbSymbolTableRecord
100
AcDbLinetypeTableRecord
  2
ByBlock
 70
     0
  3

 72
    65
 73
     0
 40
0.0
  0
LTYPE
  5
15
330
5
100
AcDbSymbolTableRecord
100
AcDbLinetypeTableRecord
  2
ByLayer
 70
     0
  3

 72
    65
 73
     0
 40
0.0
  0
LTYPE
  5
16
330
5
100
AcDbSymbolTableRecord
100
AcDbLinetypeTableRecord
  2
Continuous
 70
     0
  3
Solid line
 72
    65
 73
     0
 40
0.0
  0
LTYPE
  5
40
330
5
100
AcDbSymbolTableRecord
100
AcDbLinetypeTableRecord
  2
CONTINOUS
 70
     0
  3
______________________________
 72
    65
 73
     0
 40
0.0
  0
LTYPE
  5
41
330
5
100
AcDbSymbolTableRecord
100
AcDbLinetypeTableRecord
  2
DASHED
 70
     0
  3
__ __ __ __ __ __ __ __ __ __ __ __ __ __ __ __
 72
    65
 73
     2
 40
4.5
 49
3.0
 74
     0
 49
-1.5
 74
     0
  0
LTYPE
  5
42
330
5
100
AcDbSymbolTableRecord
100
AcDbLinetypeTableRecord
  2
PHANTOM
 70
     0
  3
______  __  __  ______  __  __  _____
 72
    65
 73
     6
 40
15.0
 49
7.5
 74
     0
 49
-1.5
 74
     0
 49
1.5
 74
     0
 49
-1.5
 74
     0
 49
1.5
 74
     0
 49
-1.5
 74
     0
  0
LTYPE
  5
43
330
5
100
AcDbSymbolTableRecord
100
AcDbLinetypeTableRecord
  2
CENTER
 70
     0
  3
____ _ ____ _ ____ _ ____ _ ____ _ ____
 72
    65
 73
     4
 40
12.0
 49
7.5
 74
     0
 49
-1.5
 74
     0
 49
1.5
 74
     0
 49
-1.5
 74
     0
  0
ENDTAB
  0
TABLE
  2
LAYER
  5
2
330
0
100
AcDbSymbolTable
 70
     3
  0
LAYER
  5
10
330
2
100
AcDbSymbolTableRecord
100
AcDbLayerTableRecord
  2
0
 70
     0
 62
     7
  6
Continuous
370
    -3
390
F
  0
LAYER
  5
13A
330
2
100
AcDbSymbolTableRecord
100
AcDbLayerTableRecord
  2
Defpoints
 70
     0
 62
     7
  6
Continuous
290
     0
370
    -3
390
F
  0
LAYER
  5
499
330
2
100
AcDbSymbolTableRecord
100
AcDbLayerTableRecord
  2
VIEW0001
 70
     0
 62
     7
  6
Continuous
370
    -3
390
F
  0
ENDTAB
  0
TABLE
  2
STYLE
  5
3
330
0
100
AcDbSymbolTable
 70
     1
  0
STYLE
  5
11
330
3
100
AcDbSymbolTableRecord
100
AcDbTextStyleTableRecord
  2
Standard
 70
     0
 40
0.0
 41
1.0
 50
0.0
 71
     0
 42
2.5
  3
ROMANS
  4
BIGFONT
  0
ENDTAB
  0
TABLE
  2
VIEW
  5
6
330
0
100
AcDbSymbolTable
 70
     0
  0
ENDTAB
  0
TABLE
  2
UCS
  5
7
330
0
100
AcDbSymbolTable
 70
     0
  0
ENDTAB
  0
TABLE
  2
APPID
  5
9
330
0
100
AcDbSymbolTable
 70
     1
  0
APPID
  5
12
330
9
100
AcDbSymbolTableRecord
100
AcDbRegAppTableRecord
  2
ACAD
 70
     0
  0
ENDTAB
  0
TABLE
  2
DIMSTYLE
  5
A
330
0
100
AcDbSymbolTable
 70
     1
100
AcDbDimStyleTable
  0
DIMSTYLE
105
27
102
{ACAD_REACTORS
330
133
330
148
330
155
330
162
330
252
330
25F
330
26D
330
27A
330
3D5
330
3E2
330
3EF
330
3FC
330
409
330
416
330
423
330
432
330
441
330
44D
330
463
330
470
330
47F
330
48C
102
}
330
A
100
AcDbSymbolTableRecord
100
AcDbDimStyleTableRecord
  2
ISO-25
 70
     0
 41
2.5
 42
0.625
 43
3.75
 44
1.25
 73
     0
 74
     0
 77
     1
 78
     8
140
2.5
141
2.5
143
0.03937007874016
147
0.625
171
     3
172
     1
178
     0
271
     2
272
     2
274
     3
278
    44
283
     0
284
     8
340
11
  0
ENDTAB
  0
TABLE
  2
BLOCK_RECORD
  5
1
330
0
100
AcDbSymbolTable
 70
    27
  0
BLOCK_RECORD
  5
1F
330
1
100
AcDbSymbolTableRecord
100
AcDbBlockTableRecord
  2
*Model_Space
340
22
  0
BLOCK_RECORD
  5
1B
330
1
100
AcDbSymbolTableRecord
100
AcDbBlockTableRecord
  2
*Paper_Space
340
1E
  0
BLOCK_RECORD
  5
23
330
1
100
AcDbSymbolTableRecord
100
AcDbBlockTableRecord
  2
*Paper_Space0
340
26
  0
BLOCK_RECORD
  5
44
330
1
100
AcDbSymbolTableRecord
100
AcDbBlockTableRecord
  2
DTL0001
340
0
  0
BLOCK_RECORD
  5
47
330
1
100
AcDbSymbolTableRecord
100
AcDbBlockTableRecord
  2
DTL0002
340
0
  0
BLOCK_RECORD
  5
4A
330
1
100
AcDbSymbolTableRecord
100
AcDbBlockTableRecord
  2
DTL0003
340
0
  0
BLOCK_RECORD
  5
134
330
1
100
AcDbSymbolTableRecord
100
AcDbBlockTableRecord
  2
_OPEN30
340
0
102
{BLKREFS
331
142
331
141
331
150
331
14F
331
15D
331
15C
331
16A
331
169
331
25A
331
259
331
267
331
266
331
275
331
274
331
282
331
281
331
3DD
331
3DC
331
3EA
331
3E9
331
3F7
331
3F6
331
404
331
403
331
411
331
410
331
41E
331
41D
331
42D
331
42C
331
43C
331
43B
331
448
331
447
331
0
331
0
331
46B
331
46A
331
47A
331
479
331
487
331
486
331
494
331
493
102
}
  0
BLOCK_RECORD
  5
13B
330
1
100
AcDbSymbolTableRecord
100
AcDbBlockTableRecord
  2
*D5
340
0
  0
BLOCK_RECORD
  5
149
330
1
100
AcDbSymbolTableRecord
100
AcDbBlockTableRecord
  2
*D6
340
0
  0
BLOCK_RECORD
  5
156
330
1
100
AcDbSymbolTableRecord
100
AcDbBlockTableRecord
  2
*D7
340
0
  0
BLOCK_RECORD
  5
163
330
1
100
AcDbSymbolTableRecord
100
AcDbBlockTableRecord
  2
*D8
340
0
  0
BLOCK_RECORD
  5
253
330
1
100
AcDbSymbolTableRecord
100
AcDbBlockTableRecord
  2
*D9
340
0
  0
BLOCK_RECORD
  5
260
330
1
100
AcDbSymbolTableRecord
100
AcDbBlockTableRecord
  2
*D10
340
0
  0
BLOCK_RECORD
  5
26E
330
1
100
AcDbSymbolTableRecord
100
AcDbBlockTableRecord
  2
*D11
340
0
  0
BLOCK_RECORD
  5
27B
330
1
100
AcDbSymbolTableRecord
100
AcDbBlockTableRecord
  2
*D12
340
0
  0
BLOCK_RECORD
  5
3D6
330
1
100
AcDbSymbolTableRecord
100
AcDbBlockTableRecord
  2
*D13
340
0
  0
BLOCK_RECORD
  5
3E3
330
1
100
AcDbSymbolTableRecord
100
AcDbBlockTableRecord
  2
*D14
340
0
  0
BLOCK_RECORD
  5
3F0
330
1
100
AcDbSymbolTableRecord
100
AcDbBlockTableRecord
  2
*D15
340
0
  0
BLOCK_RECORD
  5
3FD
330
1
100
AcDbSymbolTableRecord
100
AcDbBlockTableRecord
  2
*D16
340
0
  0
BLOCK_RECORD
  5
40A
330
1
100
AcDbSymbolTableRecord
100
AcDbBlockTableRecord
  2
*D17
340
0
  0
BLOCK_RECORD
  5
417
330
1
100
AcDbSymbolTableRecord
100
AcDbBlockTableRecord
  2
*D18
340
0
  0
BLOCK_RECORD
  5
424
330
1
100
AcDbSymbolTableRecord
100
AcDbBlockTableRecord
  2
*D19
340
0
  0
BLOCK_RECORD
  5
433
330
1
100
AcDbSymbolTableRecord
100
AcDbBlockTableRecord
  2
*D20
340
0
  0
BLOCK_RECORD
  5
442
330
1
100
AcDbSymbolTableRecord
100
AcDbBlockTableRecord
  2
*D21
340
0
  0
BLOCK_RECORD
  5
44E
330
1
100
AcDbSymbolTableRecord
100
AcDbBlockTableRecord
  2
*D22
340
0
  0
BLOCK_RECORD
  5
464
330
1
100
AcDbSymbolTableRecord
100
AcDbBlockTableRecord
  2
*D23
340
0
  0
BLOCK_RECORD
  5
471
330
1
100
AcDbSymbolTableRecord
100
AcDbBlockTableRecord
  2
*D24
340
0
  0
BLOCK_RECORD
  5
480
330
1
100
AcDbSymbolTableRecord
100
AcDbBlockTableRecord
  2
*D25
340
0
  0
BLOCK_RECORD
  5
48D
330
1
100
AcDbSymbolTableRecord
100
AcDbBlockTableRecord
  2
*D26
340
0
  0
ENDTAB
  0
ENDSEC
  0
SECTION
  2
BLOCKS
  0
BLOCK
  5
20
330
1F
100
AcDbEntity
  8
0
100
AcDbBlockBegin
  2
*Model_Space
 70
     0
 10
0.0
 20
0.0
 30
0.0
  3
*Model_Space
  1

  0
ENDBLK
  5
21
330
1F
100
AcDbEntity
  8
0
100
AcDbBlockEnd
  0
BLOCK
  5
1C
330
1B
100
AcDbEntity
 67
     1
  8
0
100
AcDbBlockBegin
  2
*Paper_Space
 70
     0
 10
0.0
 20
0.0
 30
0.0
  3
*Paper_Space
  1

  0
ENDBLK
  5
1D
330
1B
100
AcDbEntity
 67
     1
  8
0
100
AcDbBlockEnd
  0
BLOCK
  5
24
330
23
100
AcDbEntity
  8
0
100
AcDbBlockBegin
  2
*Paper_Space0
 70
     0
 10
0.0
 20
0.0
 30
0.0
  3
*Paper_Space0
  1

  0
ENDBLK
  5
25
330
23
100
AcDbEntity
  8
0
100
AcDbBlockEnd
  0
BLOCK
  5
45
330
44
100
AcDbEntity
  8
0
100
AcDbBlockBegin
  2
DTL0001
 70
     0
 10
0.0
 20
0.0
 30
0.0
  3
DTL0001
  1

  0
POINT
  5
4D
330
44
100
AcDbEntity
  8
0
 62
     0
100
AcDbPoint
 10
100.0000076293945
 20
137.5
 30
0.0
  0
POINT
  5
4E
330
44
100
AcDbEntity
  8
0
 62
     0
100
AcDbPoint
 10
105.0000076293945
 20
148.4999847412109
 30
0.0
  0
POINT
  5
4F
330
44
100
AcDbEntity
  8
0
 62
     0
100
AcDbPoint
 10
-105.0000076293945
 20
-148.4999847412109
 30
0.0
  0
POINT
  5
50
330
44
100
AcDbEntity
  8
0
 62
     0
100
AcDbPoint
 10
0.0
 20
0.0
 30
0.0
  0
POINT
  5
51
330
44
100
AcDbEntity
  8
0
 62
     0
100
AcDbPoint
 10
5.0
 20
-128.5
 30
0.0
  0
POINT
  5
52
330
44
100
AcDbEntity
  8
0
 62
     0
100
AcDbPoint
 10
-85.0
 20
-119.5
 30
0.0
  0
MTEXT
  5
53
330
44
100
AcDbEntity
  8
0
 62
     1
100
AcDbMText
 10
-82.50000762939453
 20
-123.4168127775192
 30
0.0
 40
7.0
 41
0.0
 71
     7
 72
     1
  1
{\W1;A4}
 11
6.123233995736766E-17
 21
1.0
 31
0.0
 73
     1
 44
1.0
  0
ENDBLK
  5
46
330
44
100
AcDbEntity
  8
0
100
AcDbBlockEnd
  0
BLOCK
  5
48
330
47
100
AcDbEntity
  8
0
100
AcDbBlockBegin
  2
DTL0002
 70
     0
 10
0.0
 20
0.0
 30
0.0
  3
DTL0002
  1

  0
POINT
  5
54
330
47
100
AcDbEntity
  8
0
 62
     0
100
AcDbPoint
 10
0.0
 20
0.0
 30
0.0
  0
LINE
  5
55
330
47
100
AcDbEntity
  8
0
  6
Continuous
 62
     0
100
AcDbLine
 10
-26.06787109375
 20
-106.5
 30
0.0
 11
48.6014404296875
 21
-106.5
 31
0.0
  0
LINE
  5
56
330
47
100
AcDbEntity
  8
0
  6
Continuous
 62
     0
100
AcDbLine
 10
60.505126953125
 20
-31.79998779296875
 30
0.0
 11
67.6051025390625
 21
-31.79998779296875
 31
0.0
  0
LINE
  5
57
330
47
100
AcDbEntity
  8
0
  6
Continuous
 62
     0
100
AcDbLine
 10
57.9918212890625
 20
-42.79998779296875
 30
0.0
 11
67.6051025390625
 21
-42.79998779296875
 31
0.0
  0
LINE
  5
58
330
47
100
AcDbEntity
  8
0
  6
Continuous
 62
     0
100
AcDbLine
 10
61.50521754260015
 20
-42.80002003442026
 30
0.0
 11
56.57111701251
 21
-99.19726427750146
 31
0.0
  0
LINE
  5
59
330
47
100
AcDbEntity
  8
0
  6
Continuous
 62
     0
100
AcDbLine
 10
61.505126953125
 20
-42.79998779296875
 30
0.0
 11
67.6051025390625
 21
-42.79998779296875
 31
0.0
  0
LINE
  5
5A
330
47
100
AcDbEntity
  8
0
  6
Continuous
 62
     0
100
AcDbLine
 10
68.6051025390625
 20
-32.80001831054688
 30
0.0
 11
68.6051025390625
 21
-41.80001831054688
 31
0.0
  0
LINE
  5
5B
330
47
100
AcDbEntity
  8
0
  6
Continuous
 62
     0
100
AcDbLine
 10
60.505126953125
 20
-31.79998779296875
 30
0.0
 11
60.505126953125
 21
-32.73651123046875
 31
0.0
  0
LINE
  5
5C
330
47
100
AcDbEntity
  8
0
  6
Continuous
 62
     0
100
AcDbLine
 10
62.83819580078125
 20
-30.0
 30
0.0
 11
67.9051513671875
 21
-30.0
 31
0.0
  0
LINE
  5
5D
330
47
100
AcDbEntity
  8
0
  6
Continuous
 62
     0
100
AcDbLine
 10
70.4051513671875
 20
-32.5
 30
0.0
 11
70.4051513671875
 21
-42.10000610351562
 31
0.0
  0
LINE
  5
5E
330
47
100
AcDbEntity
  8
0
  6
Continuous
 62
     0
100
AcDbLine
 10
63.154541015625
 20
-44.5999755859375
 30
0.0
 11
67.9051513671875
 21
-44.5999755859375
 31
0.0
  0
LINE
  5
5F
330
47
100
AcDbEntity
  8
0
  6
Continuous
 62
     0
100
AcDbLine
 10
63.15449450640921
 20
-44.59993512166488
 30
0.0
 11
58.36414667503771
 21
-99.35407217412518
 31
0.0
  0
LINE
  5
60
330
47
100
AcDbEntity
  8
0
  6
Continuous
 62
     0
100
AcDbLine
 10
59.70353902608406
 20
-43.88715158910935
 30
0.0
 11
58.56619125004137
 21
-56.88714620284555
 31
0.0
  0
LINE
  5
61
330
47
100
AcDbEntity
  8
0
  6
Continuous
 62
     0
100
AcDbLine
 10
57.99184062339327
 20
-42.79993171947447
 30
0.0
 11
56.67951974458436
 21
-57.79988574881185
 31
0.0
  0
LINE
  5
62
330
47
100
AcDbEntity
  8
0
  6
Continuous
 62
     0
100
AcDbLine
 10
56.679443359375
 20
-57.79998779296875
 30
0.0
 11
57.39501953125
 21
-57.79998779296875
 31
0.0
  0
LINE
  5
63
330
47
100
AcDbEntity
  8
0
  6
Continuous
 62
     0
100
AcDbLine
 10
55.8045654296875
 20
-67.79998779296875
 30
0.0
 11
56.5201416015625
 21
-67.79998779296875
 31
0.0
  0
LINE
  5
64
330
47
100
AcDbEntity
  8
0
  6
Continuous
 62
     0
100
AcDbLine
 10
55.80463561234905
 20
-67.79989563697065
 30
0.0
 11
53.22019896868446
 21
-97.34025537116068
 31
0.0
  0
LINE
  5
65
330
47
100
AcDbEntity
  8
0
  6
Continuous
 62
     0
100
AcDbLine
 10
58.39121548750312
 20
-58.88713601989714
 30
0.0
 11
57.69130711780605
 21
-66.88715609100434
 31
0.0
  0
LINE
  5
66
330
47
100
AcDbEntity
  8
0
  6
Continuous
 62
     0
100
AcDbLine
 10
57.5163313552678
 20
-68.88714590805594
 30
0.0
 11
55.01328373561547
 21
-97.49722125952353
 31
0.0
  0
LINE
  5
67
330
47
100
AcDbEntity
  8
0
  6
Continuous
 62
     0
100
AcDbLine
 10
-18.367919921875
 20
-104.8000183105469
 30
0.0
 11
2.93212890625
 21
-104.8000183105469
 31
0.0
  0
LINE
  5
68
330
47
100
AcDbEntity
  8
0
  6
Continuous
 62
     0
100
AcDbLine
 10
-17.622314453125
 20
-103.0
 30
0.0
 11
3.93212890625
 21
-103.0
 31
0.0
  0
LINE
  5
69
330
47
100
AcDbEntity
  8
0
  6
Continuous
 62
     0
100
AcDbLine
 10
56.23713209890884
 20
-103.0147440047588
 30
0.0
 11
55.93221051424173
 21
-106.5000270833231
 31
0.0
  0
LINE
  5
6A
330
47
100
AcDbEntity
  8
0
  6
Continuous
 62
     0
100
AcDbLine
 10
52.6859130859375
 20
-106.5
 30
0.0
 11
55.93212890625
 21
-106.5
 31
0.0
  0
LINE
  5
6B
330
47
100
AcDbEntity
  8
0
  6
Continuous
 62
     0
100
AcDbLine
 10
23.93212890625
 20
-103.0
 30
0.0
 11
23.93212890625
 21
-103.7999877929688
 31
0.0
  0
LINE
  5
6C
330
47
100
AcDbEntity
  8
0
  6
Continuous
 62
     0
100
AcDbLine
 10
3.93212890625
 20
-103.0
 30
0.0
 11
3.93212890625
 21
-103.7999877929688
 31
0.0
  0
LINE
  5
6D
330
47
100
AcDbEntity
  8
0
  6
Continuous
 62
     0
100
AcDbLine
 10
23.93212890625
 20
-103.0
 30
0.0
 11
47.043701171875
 21
-103.0
 31
0.0
  0
LINE
  5
6E
330
47
100
AcDbEntity
  8
0
  6
Continuous
 62
     0
100
AcDbLine
 10
4.93212890625
 20
-104.8000183105469
 30
0.0
 11
22.93212890625
 21
-104.8000183105469
 31
0.0
  0
LINE
  5
6F
330
47
100
AcDbEntity
  8
0
  6
Continuous
 62
     0
100
AcDbLine
 10
24.93212890625
 20
-104.8000183105469
 30
0.0
 11
47.043701171875
 21
-104.8000183105469
 31
0.0
  0
LINE
  5
70
330
47
100
AcDbEntity
  8
0
  6
Continuous
 62
     0
100
AcDbLine
 10
-30.06787109375
 20
-96.49859619140625
 30
0.0
 11
-30.06787109375
 21
-102.5
 31
0.0
  0
LINE
  5
71
330
47
100
AcDbEntity
  8
0
  6
Continuous
 62
     0
100
AcDbLine
 10
-31.867919921875
 20
-98.22918701171875
 30
0.0
 11
-31.867919921875
 21
-102.5
 31
0.0
  0
LINE
  5
72
330
47
100
AcDbEntity
  8
0
  6
Continuous
 62
     0
100
AcDbLine
 10
-30.06787109375
 20
-96.49859619140625
 30
0.0
 11
-30.06787109375
 21
-102.5
 31
0.0
  0
LINE
  5
73
330
47
100
AcDbEntity
  8
0
  6
Continuous
 62
     0
100
AcDbLine
 10
-49.86352519082256
 20
-40.25437545344001
 30
0.0
 11
-46.22046512364381
 21
-81.8946013672106
 31
0.0
  0
LINE
  5
74
330
47
100
AcDbEntity
  8
0
  6
Continuous
 62
     0
100
AcDbLine
 10
-30.281494140625
 20
-93.0
 30
0.0
 11
-27.622314453125
 21
-93.0
 31
0.0
  0
LINE
  5
75
330
47
100
AcDbEntity
  8
0
  6
Continuous
 62
     0
100
AcDbLine
 10
-30.281494140625
 20
-94.79998779296875
 30
0.0
 11
-28.367919921875
 21
-94.79998779296875
 31
0.0
  0
LINE
  5
76
330
47
100
AcDbEntity
  8
0
  6
Continuous
 62
     0
100
AcDbLine
 10
-28.36765882099775
 20
-94.79976609240471
 30
0.0
 11
-18.3676463480842
 21
-104.7997751935667
 31
0.0
  0
LINE
  5
77
330
47
100
AcDbEntity
  8
0
  6
Continuous
 62
     0
100
AcDbLine
 10
-27.62213060179746
 20
-92.99987839473933
 30
0.0
 11
-17.62213970807399
 21
-102.9998659167185
 31
0.0
  0
LINE
  5
78
330
47
100
AcDbEntity
  8
0
  6
Continuous
 62
     0
100
AcDbLine
 10
-44.06787109375
 20
-106.5
 30
0.0
 11
-29.35968017578125
 21
-106.5
 31
0.0
  0
LINE
  5
79
330
47
100
AcDbEntity
  8
0
  6
Continuous
 62
     0
100
AcDbLine
 10
-45.67098951144695
 20
-88.17511505736881
 30
0.0
 11
-44.06775784588658
 21
-106.5000747107911
 31
0.0
  0
LINE
  5
7A
330
47
100
AcDbEntity
  8
0
  6
Continuous
 62
     0
100
AcDbLine
 10
-51.54679007521935
 20
-41.66658408604327
 30
0.0
 11
-48.01357971454627
 21
-82.05122636651953
 31
0.0
  0
LINE
  5
7B
330
47
100
AcDbEntity
  8
0
  6
Continuous
 62
     0
100
AcDbLine
 10
-48.34792325468273
 20
-38.07238294123453
 30
0.0
 11
-48.10564819943315
 21
-40.84159010439724
 31
0.0
  0
LINE
  5
7C
330
47
100
AcDbEntity
  8
0
  6
Continuous
 62
     0
100
AcDbLine
 10
-46.21891498480036
 20
-41.75432694488327
 30
0.0
 11
-42.73377702422188
 21
-81.58950104112874
 31
0.0
  0
LINE
  5
7D
330
47
100
AcDbEntity
  8
0
  6
Continuous
 62
     0
100
AcDbLine
 10
-62.3037148339162
 20
-12.79993583275801
 30
0.0
 11
-60.14273826550848
 21
-37.4999272804826
 31
0.0
  0
LINE
  5
7E
330
47
100
AcDbEntity
  8
0
  6
Continuous
 62
     0
100
AcDbLine
 10
-60.14276962718213
 20
-37.49970734607371
 30
0.0
 11
-49.86359490506788
 21
-40.25400361765782
 31
0.0
  0
LINE
  5
7F
330
47
100
AcDbEntity
  8
0
  6
Continuous
 62
     0
100
AcDbLine
 10
-61.82611258890896
 20
-38.91207434330491
 30
0.0
 11
-51.54687891136054
 21
-41.6663864119483
 31
0.0
  0
LINE
  5
80
330
47
100
AcDbEntity
  8
0
  6
Continuous
 62
     0
100
AcDbLine
 10
-63.95303779111706
 20
-14.60010115296025
 30
0.0
 11
-61.82596558035543
 21
-38.91256533354937
 31
0.0
  0
LINE
  5
81
330
47
100
AcDbEntity
  8
0
  6
Continuous
 62
     0
100
AcDbLine
 10
-52.87084197475308
 20
-36.8600277966762
 30
0.0
 11
-48.34801688810963
 21
-38.07191499676134
 31
0.0
  0
LINE
  5
82
330
47
100
AcDbEntity
  8
0
  6
Continuous
 62
     0
100
AcDbLine
 10
-56.3375767155195
 20
-17.8871083138667
 30
0.0
 11
-55.02524108722567
 21
-32.88712232109217
 31
0.0
  0
LINE
  5
83
330
47
100
AcDbEntity
  8
0
  6
Continuous
 62
     0
100
AcDbLine
 10
-54.62591999375522
 20
-16.80016283306585
 30
0.0
 11
-52.87056157401209
 21
-36.86393334738194
 31
0.0
  0
LINE
  5
84
330
47
100
AcDbEntity
  8
0
  6
Continuous
 62
     0
100
AcDbLine
 10
-47.109619140625
 20
-41.7542724609375
 30
0.0
 11
-46.21905517578125
 21
-41.7542724609375
 31
0.0
  0
LINE
  5
85
330
47
100
AcDbEntity
  8
0
  6
Continuous
 62
     0
100
AcDbLine
 10
-47.9306711795771
 20
-42.84157981144781
 30
0.0
 11
-44.52692050052818
 21
-81.74649617740486
 31
0.0
  0
LINE
  5
86
330
47
100
AcDbEntity
  8
0
  6
Continuous
 62
     0
100
AcDbLine
 10
-61.953857421875
 20
-16.79998779296875
 30
0.0
 11
-54.6259765625
 21
-16.79998779296875
 31
0.0
  0
LINE
  5
87
330
47
100
AcDbEntity
  8
0
  6
Continuous
 62
     0
100
AcDbLine
 10
-54.0291748046875
 20
-33.79998779296875
 30
0.0
 11
-53.138671875
 21
-33.79998779296875
 31
0.0
  0
LINE
  5
88
330
47
100
AcDbEntity
  8
0
  6
Continuous
 62
     0
100
AcDbLine
 10
-71.60382080078125
 20
3.199981689453125
 30
0.0
 11
-64.35382080078125
 21
3.199981689453125
 31
0.0
  0
LINE
  5
89
330
47
100
AcDbEntity
  8
0
  6
Continuous
 62
     0
100
AcDbLine
 10
-71.60382080078125
 20
-12.79998779296875
 30
0.0
 11
-62.3038330078125
 21
-12.79998779296875
 31
0.0
  0
LINE
  5
8A
330
47
100
AcDbEntity
  8
0
  6
Continuous
 62
     0
100
AcDbLine
 10
-72.60382080078125
 20
2.20001220703125
 30
0.0
 11
-72.60382080078125
 21
-11.80001831054688
 31
0.0
  0
LINE
  5
8B
330
47
100
AcDbEntity
  8
0
  6
Continuous
 62
     0
100
AcDbLine
 10
-71.90380859375
 20
-14.5999755859375
 30
0.0
 11
-63.9532470703125
 21
-14.5999755859375
 31
0.0
  0
LINE
  5
8C
330
47
100
AcDbEntity
  8
0
  6
Continuous
 62
     0
100
AcDbLine
 10
-74.40380859375
 20
2.499969482421875
 30
0.0
 11
-74.40380859375
 21
-12.10000610351562
 31
0.0
  0
LINE
  5
8D
330
47
100
AcDbEntity
  8
0
  6
Continuous
 62
     0
100
AcDbLine
 10
-105.40380859375
 20
5.0
 30
0.0
 11
-66.10308837890625
 21
5.0
 31
0.0
  0
LINE
  5
8E
330
47
100
AcDbEntity
  8
0
  6
Continuous
 62
     0
100
AcDbLine
 10
-105.40380859375
 20
-108.2999877929688
 30
0.0
 11
48.60150146484375
 21
-108.2999877929688
 31
0.0
  0
LINE
  5
8F
330
47
100
AcDbEntity
  8
0
  6
Continuous
 62
     0
100
AcDbLine
 10
70.4051513671875
 20
213.1833190917969
 30
0.0
 11
70.4051513671875
 21
37.3743896484375
 31
0.0
  0
LINE
  5
90
330
47
100
AcDbEntity
  8
0
  6
Continuous
 62
     0
100
AcDbLine
 10
-62.3037109375
 20
68.3743896484375
 30
0.0
 11
-56.337646484375
 21
68.3743896484375
 31
0.0
  0
LINE
  5
91
330
47
100
AcDbEntity
  8
0
  6
Continuous
 62
     0
100
AcDbLine
 10
-73.608154296875
 20
33.3743896484375
 30
0.0
 11
69.6094970703125
 21
33.3743896484375
 31
0.0
  0
LINE
  5
92
330
47
100
AcDbEntity
  8
0
  6
Continuous
 62
     0
100
AcDbLine
 10
-74.40380859375
 20
63.3743896484375
 30
0.0
 11
-74.40380859375
 21
37.3743896484375
 31
0.0
  0
LINE
  5
93
330
47
100
AcDbEntity
  8
0
  6
Continuous
 62
     0
100
AcDbLine
 10
-67.21905517578125
 20
55.3743896484375
 30
0.0
 11
-62.60382080078125
 21
55.3743896484375
 31
0.0
  0
LINE
  5
94
330
47
100
AcDbEntity
  8
0
  6
Continuous
 62
     0
100
AcDbLine
 10
-62.60382080078125
 20
55.3743896484375
 30
0.0
 11
-62.60382080078125
 21
33.3743896484375
 31
0.0
  0
LINE
  5
95
330
47
100
AcDbEntity
  8
0
  6
Continuous
 62
     0
100
AcDbLine
 10
-66.10308837890625
 20
55.3743896484375
 30
0.0
 11
-66.10308837890625
 21
33.3743896484375
 31
0.0
  0
LINE
  5
96
330
47
100
AcDbEntity
  8
0
  6
Continuous
 62
     0
100
AcDbLine
 10
-74.40380859375
 20
37.3743896484375
 30
0.0
 11
-66.10308837890625
 21
37.3743896484375
 31
0.0
  0
LINE
  5
97
330
47
100
AcDbEntity
  8
0
  6
Continuous
 62
     0
100
AcDbLine
 10
-74.40369119757213
 20
37.3744054733137
 30
0.0
 11
-73.60803687946411
 21
33.37440184165555
 31
0.0
  0
LINE
  5
98
330
47
100
AcDbEntity
  8
0
  6
Continuous
 62
     0
100
AcDbLine
 10
-62.3037109375
 20
80.47447204589844
 30
0.0
 11
-62.3037109375
 21
33.3743896484375
 31
0.0
  0
LINE
  5
99
330
47
100
AcDbEntity
  8
0
  6
Continuous
 62
     0
100
AcDbLine
 10
-60.142822265625
 20
82.63542175292969
 30
0.0
 11
-60.142822265625
 21
70.3743896484375
 31
0.0
  0
LINE
  5
9A
330
47
100
AcDbEntity
  8
0
  6
Continuous
 62
     0
100
AcDbLine
 10
-56.337646484375
 20
68.3743896484375
 30
0.0
 11
-56.337646484375
 21
61.3743896484375
 31
0.0
  0
LINE
  5
9B
330
47
100
AcDbEntity
  8
0
  6
Continuous
 62
     0
100
AcDbLine
 10
-54.6258544921875
 20
70.3743896484375
 30
0.0
 11
-54.6258544921875
 21
60.3743896484375
 31
0.0
  0
LINE
  5
9C
330
47
100
AcDbEntity
  8
0
  6
Continuous
 62
     0
100
AcDbLine
 10
-53.138671875
 20
68.3743896484375
 30
0.0
 11
-53.138671875
 21
60.3743896484375
 31
0.0
  0
LINE
  5
9D
330
47
100
AcDbEntity
  8
0
  6
Continuous
 62
     0
100
AcDbLine
 10
-55.337646484375
 20
60.3743896484375
 30
0.0
 11
-53.138671875
 21
60.3743896484375
 31
0.0
  0
LINE
  5
9E
330
47
100
AcDbEntity
  8
0
  6
Continuous
 62
     0
100
AcDbLine
 10
-53.138671875
 20
68.3743896484375
 30
0.0
 11
-47.9307861328125
 21
68.3743896484375
 31
0.0
  0
LINE
  5
9F
330
47
100
AcDbEntity
  8
0
  6
Continuous
 62
     0
100
AcDbLine
 10
-46.218994140625
 20
70.3743896484375
 30
0.0
 11
-46.218994140625
 21
60.3743896484375
 31
0.0
  0
LINE
  5
A0
330
47
100
AcDbEntity
  8
0
  6
Continuous
 62
     0
100
AcDbLine
 10
-47.142822265625
 20
60.3743896484375
 30
0.0
 11
1.122314453125
 21
60.3743896484375
 31
0.0
  0
LINE
  5
A1
330
47
100
AcDbEntity
  8
0
  6
Continuous
 62
     0
100
AcDbLine
 10
-47.93079661845533
 20
68.37436704426797
 30
0.0
 11
-47.14286090163154
 21
60.37437983590691
 31
0.0
  0
LINE
  5
A2
330
47
100
AcDbEntity
  8
0
  6
Continuous
 62
     0
100
AcDbLine
 10
-49.8636474609375
 20
92.91458129882812
 30
0.0
 11
-49.8636474609375
 21
70.3743896484375
 31
0.0
  0
LINE
  5
A3
330
47
100
AcDbEntity
  8
0
  6
Continuous
 62
     0
100
AcDbLine
 10
-60.142822265625
 20
68.3743896484375
 30
0.0
 11
-60.142822265625
 21
33.3743896484375
 31
0.0
  0
LINE
  5
A4
330
47
100
AcDbEntity
  8
0
  6
Continuous
 62
     0
100
AcDbLine
 10
-49.8636474609375
 20
68.3743896484375
 30
0.0
 11
-49.8636474609375
 21
33.3743896484375
 31
0.0
  0
LINE
  5
A5
330
47
100
AcDbEntity
  8
0
  6
Continuous
 62
     0
100
AcDbLine
 10
-30.06787109375
 20
112.7103271484375
 30
0.0
 11
-30.06787109375
 21
70.3743896484375
 31
0.0
  0
LINE
  5
A6
330
47
100
AcDbEntity
  8
0
  6
Continuous
 62
     0
100
AcDbLine
 10
-30.06787109375
 20
60.3743896484375
 30
0.0
 11
-30.06787109375
 21
33.3743896484375
 31
0.0
  0
LINE
  5
A7
330
47
100
AcDbEntity
  8
0
  6
Continuous
 62
     0
100
AcDbLine
 10
3.534215695063139
 20
68.37439388514072
 30
0.0
 11
2.103022342536454
 21
61.17929446908975
 31
0.0
  0
LINE
  5
A8
330
47
100
AcDbEntity
  8
0
  6
Continuous
 62
     0
100
AcDbLine
 10
24.32996623369334
 20
68.37444767819045
 30
0.0
 11
25.76116509498099
 21
61.17934935790165
 31
0.0
  0
LINE
  5
A9
330
47
100
AcDbEntity
  8
0
  6
Continuous
 62
     0
100
AcDbLine
 10
26.741943359375
 20
60.3743896484375
 30
0.0
 11
54.8045654296875
 21
60.3743896484375
 31
0.0
  0
LINE
  5
AA
330
47
100
AcDbEntity
  8
0
  6
Continuous
 62
     0
100
AcDbLine
 10
3.5343017578125
 20
68.3743896484375
 30
0.0
 11
24.3299560546875
 21
68.3743896484375
 31
0.0
  0
LINE
  5
AB
330
47
100
AcDbEntity
  8
0
  6
Continuous
 62
     0
100
AcDbLine
 10
59.005126953125
 20
55.3743896484375
 30
0.0
 11
59.005126953125
 21
33.3743896484375
 31
0.0
  0
LINE
  5
AC
330
47
100
AcDbEntity
  8
0
  6
Continuous
 62
     0
100
AcDbLine
 10
62.83819580078125
 20
55.3743896484375
 30
0.0
 11
62.83819580078125
 21
33.3743896484375
 31
0.0
  0
LINE
  5
AD
330
47
100
AcDbEntity
  8
0
  6
Continuous
 62
     0
100
AcDbLine
 10
68.6051025390625
 20
206.3833312988281
 30
0.0
 11
68.6051025390625
 21
72.52871704101562
 31
0.0
  0
LINE
  5
AE
330
47
100
AcDbEntity
  8
0
  6
Continuous
 62
     0
100
AcDbLine
 10
59.005126953125
 20
55.3743896484375
 30
0.0
 11
62.83819580078125
 21
55.3743896484375
 31
0.0
  0
LINE
  5
AF
330
47
100
AcDbEntity
  8
0
  6
Continuous
 62
     0
100
AcDbLine
 10
62.83819580078125
 20
37.3743896484375
 30
0.0
 11
70.4051513671875
 21
37.3743896484375
 31
0.0
  0
LINE
  5
B0
330
47
100
AcDbEntity
  8
0
  6
Continuous
 62
     0
100
AcDbLine
 10
70.40514822404226
 20
37.3743646747152
 30
0.0
 11
69.6094971359688
 21
33.37439151601983
 31
0.0
  0
LINE
  5
B1
330
47
100
AcDbEntity
  8
0
  6
Continuous
 62
     0
100
AcDbLine
 10
57.9918212890625
 20
70.3743896484375
 30
0.0
 11
57.9918212890625
 21
60.3743896484375
 31
0.0
  0
LINE
  5
B2
330
47
100
AcDbEntity
  8
0
  6
Continuous
 62
     0
100
AcDbLine
 10
59.7034912109375
 20
68.3743896484375
 30
0.0
 11
59.7034912109375
 21
61.3743896484375
 31
0.0
  0
LINE
  5
B3
330
47
100
AcDbEntity
  8
0
  6
Continuous
 62
     0
100
AcDbLine
 10
56.67950439453125
 20
70.3743896484375
 30
0.0
 11
56.67950439453125
 21
60.3743896484375
 31
0.0
  0
LINE
  5
B4
330
47
100
AcDbEntity
  8
0
  6
Continuous
 62
     0
100
AcDbLine
 10
55.8045654296875
 20
70.3743896484375
 30
0.0
 11
55.8045654296875
 21
61.3743896484375
 31
0.0
  0
LINE
  5
B5
330
47
100
AcDbEntity
  8
0
  6
Continuous
 62
     0
100
AcDbLine
 10
68.67511187906871
 20
72.73660838073731
 30
0.0
 11
62.83825107834557
 21
55.37442904870069
 31
0.0
  0
LINE
  5
B6
330
47
100
AcDbEntity
  8
0
  6
Continuous
 62
     0
100
AcDbLine
 10
-62.3037109375
 20
70.3743896484375
 30
0.0
 11
61.505126953125
 21
70.3743896484375
 31
0.0
  0
LINE
  5
B7
330
47
100
AcDbEntity
  8
0
  6
Continuous
 62
     0
100
AcDbLine
 10
61.505126953125
 20
199.2833251953125
 30
0.0
 11
61.505126953125
 21
70.3743896484375
 31
0.0
  0
LINE
  5
B8
330
47
100
AcDbEntity
  8
0
  6
Continuous
 62
     0
100
AcDbLine
 10
55.8045654296875
 20
68.3743896484375
 30
0.0
 11
56.67950439453125
 21
68.3743896484375
 31
0.0
  0
LINE
  5
B9
330
47
100
AcDbEntity
  8
0
  6
Continuous
 62
     0
100
AcDbLine
 10
61.505126953125
 20
68.3743896484375
 30
0.0
 11
61.505126953125
 21
55.3743896484375
 31
0.0
  0
LINE
  5
BA
330
47
100
AcDbEntity
  8
0
  6
Continuous
 62
     0
100
AcDbLine
 10
57.1199951171875
 20
60.3743896484375
 30
0.0
 11
58.7034912109375
 21
60.3743896484375
 31
0.0
  0
LINE
  5
BB
330
47
100
AcDbEntity
  8
0
  6
Continuous
 62
     0
100
AcDbLine
 10
59.7034912109375
 20
68.3743896484375
 30
0.0
 11
61.505126953125
 21
68.3743896484375
 31
0.0
  0
LINE
  5
BC
330
47
100
AcDbEntity
  8
0
  6
DASHED
 62
     0
100
AcDbLine
 10
-72.60382080078125
 20
69.64932250976562
 30
0.0
 11
-72.60382080078125
 21
33.3743896484375
 31
0.0
  0
LINE
  5
BD
330
47
100
AcDbEntity
  8
0
  6
Continuous
 62
     0
100
AcDbLine
 10
-109.40380859375
 20
6.70001220703125
 30
0.0
 11
-109.40380859375
 21
-107.5043334960938
 31
0.0
  0
LINE
  5
BE
330
47
100
AcDbEntity
  8
0
  6
Continuous
 62
     0
100
AcDbLine
 10
-105.40380859375
 20
-98.22918701171875
 30
0.0
 11
-31.867919921875
 21
-98.22918701171875
 31
0.0
  0
LINE
  5
BF
330
47
100
AcDbEntity
  8
0
  6
Continuous
 62
     0
100
AcDbLine
 10
-105.40380859375
 20
-38.91207885742188
 30
0.0
 11
-61.8260498046875
 21
-38.91207885742188
 31
0.0
  0
LINE
  5
C0
330
47
100
AcDbEntity
  8
0
  6
Continuous
 62
     0
100
AcDbLine
 10
-105.40380859375
 20
-14.60009765625
 30
0.0
 11
-71.90380859375
 21
-14.60009765625
 31
0.0
  0
LINE
  5
C1
330
47
100
AcDbEntity
  8
0
  6
Continuous
 62
     0
100
AcDbLine
 10
-109.40380859375
 20
6.70001220703125
 30
0.0
 11
-87.40380859375
 21
6.70001220703125
 31
0.0
  0
LINE
  5
C2
330
47
100
AcDbEntity
  8
0
  6
Continuous
 62
     0
100
AcDbLine
 10
-87.40380859375
 20
6.70001220703125
 30
0.0
 11
-87.40380859375
 21
5.0
 31
0.0
  0
LINE
  5
C3
330
47
100
AcDbEntity
  8
0
  6
Continuous
 62
     0
100
AcDbLine
 10
-105.40380859375
 20
5.0
 30
0.0
 11
-105.40380859375
 21
-108.2999877929688
 31
0.0
  0
LINE
  5
C4
330
47
100
AcDbEntity
  8
0
  6
Continuous
 62
     0
100
AcDbLine
 10
-109.40373943951
 20
-107.5043641561863
 30
0.0
 11
-105.4037351754221
 21
-108.300015294865
 31
0.0
  0
LINE
  5
C5
330
47
100
AcDbEntity
  8
0
  6
Continuous
 62
     0
100
AcDbLine
 10
-109.4038066396747
 20
-97.43353364922552
 30
0.0
 11
-105.4038020058574
 21
-98.22918292914889
 31
0.0
  0
LINE
  5
C6
330
47
100
AcDbEntity
  8
0
  6
Continuous
 62
     0
100
AcDbLine
 10
-109.4038150078423
 20
-13.80445423652024
 30
0.0
 11
-105.4038109390596
 21
-14.60010635706287
 31
0.0
  0
LINE
  5
C7
330
47
100
AcDbEntity
  8
0
  6
Continuous
 62
     0
100
AcDbLine
 10
-105.40380859375
 20
-41.66659545898438
 30
0.0
 11
-51.546142578125
 21
-41.66659545898438
 31
0.0
  0
LINE
  5
C8
330
47
100
AcDbEntity
  8
0
  6
Continuous
 62
     0
100
AcDbLine
 10
-109.4038296575937
 20
-38.10469031475634
 30
0.0
 11
-105.4038253935058
 21
-38.90034145343505
 31
0.0
  0
LINE
  5
C9
330
47
100
AcDbEntity
  8
0
  6
Continuous
 62
     0
100
AcDbLine
 10
-109.4038259076912
 20
-40.87094049303782
 30
0.0
 11
-105.4037019188423
 21
-41.66661544647674
 31
0.0
  0
LINE
  5
CA
330
47
100
AcDbEntity
  8
0
  6
Continuous
 62
     0
100
AcDbLine
 10
-105.4037665163595
 20
5.000010320051132
 30
0.0
 11
-109.4038309893058
 21
4.204349015854874
 31
0.0
  0
LINE
  5
CB
330
47
100
AcDbEntity
  8
0
  6
Continuous
 62
     0
100
AcDbLine
 10
-46.12744140625
 20
-42.79989624023438
 30
0.0
 11
57.9918212890625
 21
-42.79989624023438
 31
0.0
  0
LINE
  5
CC
330
47
100
AcDbEntity
  8
0
  6
Continuous
 62
     0
100
AcDbLine
 10
-53.470947265625
 20
-30.0
 30
0.0
 11
59.172119140625
 21
-30.0
 31
0.0
  0
LINE
  5
CD
330
47
100
AcDbEntity
  8
0
  6
Continuous
 62
     0
100
AcDbLine
 10
-62.30376417736865
 20
80.4744990293741
 30
0.0
 11
-30.06790687489961
 21
112.7103454627264
 31
0.0
  0
LINE
  5
CE
330
47
100
AcDbEntity
  8
0
  6
DASHED
 62
     0
100
AcDbLine
 10
68.6051025390625
 20
72.52871704101562
 30
0.0
 11
68.6051025390625
 21
33.66943359375
 31
0.0
  0
LINE
  5
CF
330
47
100
AcDbEntity
  8
0
  6
Continuous
 62
     0
100
AcDbLine
 10
70.40509033203125
 20
213.1834716796875
 30
0.0
 11
-105.40380859375
 21
213.1834716796875
 31
0.0
  0
LINE
  5
D0
330
47
100
AcDbEntity
  8
0
  6
Continuous
 62
     0
100
AcDbLine
 10
-74.40380859375
 20
80.4744873046875
 30
0.0
 11
-74.40380859375
 21
86.44058227539062
 31
0.0
  0
LINE
  5
D1
330
47
100
AcDbEntity
  8
0
  6
Continuous
 62
     0
100
AcDbLine
 10
-109.40380859375
 20
69.17013549804688
 30
0.0
 11
-109.40380859375
 21
212.3877563476562
 31
0.0
  0
LINE
  5
D2
330
47
100
AcDbEntity
  8
0
  6
Continuous
 62
     0
100
AcDbLine
 10
-79.40386962890625
 20
68.37452697753906
 30
0.0
 11
-105.4038696289062
 21
68.37452697753906
 31
0.0
  0
LINE
  5
D3
330
47
100
AcDbEntity
  8
0
  6
Continuous
 62
     0
100
AcDbLine
 10
-87.40380859375
 20
75.55921936035156
 30
0.0
 11
-87.40380859375
 21
80.17445373535156
 31
0.0
  0
LINE
  5
D4
330
47
100
AcDbEntity
  8
0
  6
Continuous
 62
     0
100
AcDbLine
 10
-87.40386962890625
 20
80.17453002929688
 30
0.0
 11
-109.4038696289062
 21
80.17453002929688
 31
0.0
  0
LINE
  5
D5
330
47
100
AcDbEntity
  8
0
  6
Continuous
 62
     0
100
AcDbLine
 10
-87.40386962890625
 20
76.67526245117188
 30
0.0
 11
-109.4038696289062
 21
76.67526245117188
 31
0.0
  0
LINE
  5
D6
330
47
100
AcDbEntity
  8
0
  6
Continuous
 62
     0
100
AcDbLine
 10
-105.40380859375
 20
68.37445068359375
 30
0.0
 11
-105.40380859375
 21
76.6751708984375
 31
0.0
  0
LINE
  5
D7
330
47
100
AcDbEntity
  8
0
  6
Continuous
 62
     0
100
AcDbLine
 10
-105.4038628489323
 20
68.37455331741046
 30
0.0
 11
-109.4038661806291
 21
69.17020914351686
 31
0.0
  0
LINE
  5
D8
330
47
100
AcDbEntity
  8
0
  6
Continuous
 62
     0
100
AcDbLine
 10
-62.30377197265625
 20
80.474609375
 30
0.0
 11
-109.4038696289062
 21
80.474609375
 31
0.0
  0
LINE
  5
D9
330
47
100
AcDbEntity
  8
0
  6
Continuous
 62
     0
100
AcDbLine
 10
-60.142822265625
 20
82.63555908203125
 30
0.0
 11
-72.40386962890625
 21
82.63555908203125
 31
0.0
  0
LINE
  5
DA
330
47
100
AcDbEntity
  8
0
  6
Continuous
 62
     0
100
AcDbLine
 10
-74.40386962890625
 20
86.44070434570312
 30
0.0
 11
-81.40386962890625
 21
86.44070434570312
 31
0.0
  0
LINE
  5
DB
330
47
100
AcDbEntity
  8
0
  6
Continuous
 62
     0
100
AcDbLine
 10
-72.40386962890625
 20
88.15245056152344
 30
0.0
 11
-82.40386962890625
 21
88.15245056152344
 31
0.0
  0
LINE
  5
DC
330
47
100
AcDbEntity
  8
0
  6
Continuous
 62
     0
100
AcDbLine
 10
-74.40386962890625
 20
89.63967895507812
 30
0.0
 11
-82.40386962890625
 21
89.63967895507812
 31
0.0
  0
LINE
  5
DD
330
47
100
AcDbEntity
  8
0
  6
Continuous
 62
     0
100
AcDbLine
 10
-82.40380859375
 20
87.44061279296875
 30
0.0
 11
-82.40380859375
 21
89.63958740234375
 31
0.0
  0
LINE
  5
DE
330
47
100
AcDbEntity
  8
0
  6
Continuous
 62
     0
100
AcDbLine
 10
-74.40380859375
 20
89.63955688476562
 30
0.0
 11
-74.40380859375
 21
94.84744262695312
 31
0.0
  0
LINE
  5
DF
330
47
100
AcDbEntity
  8
0
  6
Continuous
 62
     0
100
AcDbLine
 10
-72.40380859375
 20
96.55937194824219
 30
0.0
 11
-82.40380859375
 21
96.55937194824219
 31
0.0
  0
LINE
  5
E0
330
47
100
AcDbEntity
  8
0
  6
Continuous
 62
     0
100
AcDbLine
 10
-82.40380859375
 20
95.63540649414062
 30
0.0
 11
-82.40380859375
 21
143.9005737304688
 31
0.0
  0
LINE
  5
E1
330
47
100
AcDbEntity
  8
0
  6
Continuous
 62
     0
100
AcDbLine
 10
-74.40379140634471
 20
94.84745976455338
 30
0.0
 11
-82.403778347198
 21
95.63539819740464
 31
0.0
  0
LINE
  5
E2
330
47
100
AcDbEntity
  8
0
  6
Continuous
 62
     0
100
AcDbLine
 10
-49.8636474609375
 20
92.91470336914062
 30
0.0
 11
-72.40386962890625
 21
92.91470336914062
 31
0.0
  0
LINE
  5
E3
330
47
100
AcDbEntity
  8
0
  6
Continuous
 62
     0
100
AcDbLine
 10
-74.40386962890625
 20
82.63555908203125
 30
0.0
 11
-109.4038696289062
 21
82.63555908203125
 31
0.0
  0
LINE
  5
E4
330
47
100
AcDbEntity
  8
0
  6
Continuous
 62
     0
100
AcDbLine
 10
-74.40386962890625
 20
92.91470336914062
 30
0.0
 11
-109.4038696289062
 21
92.91470336914062
 31
0.0
  0
LINE
  5
E5
330
47
100
AcDbEntity
  8
0
  6
Continuous
 62
     0
100
AcDbLine
 10
-30.06787109375
 20
112.71044921875
 30
0.0
 11
-72.40380859375
 21
112.71044921875
 31
0.0
  0
LINE
  5
E6
330
47
100
AcDbEntity
  8
0
  6
Continuous
 62
     0
100
AcDbLine
 10
-82.40380859375
 20
112.71044921875
 30
0.0
 11
-109.40380859375
 21
112.71044921875
 31
0.0
  0
LINE
  5
E7
330
47
100
AcDbEntity
  8
0
  6
Continuous
 62
     0
100
AcDbLine
 10
-74.40384446835286
 20
146.3125224180293
 30
0.0
 11
-81.59888454065697
 21
144.8813435802341
 31
0.0
  0
LINE
  5
E8
330
47
100
AcDbEntity
  8
0
  6
Continuous
 62
     0
100
AcDbLine
 10
-74.40379788039964
 20
167.1082621492081
 30
0.0
 11
-81.5988957238773
 21
168.5394634075769
 31
0.0
  0
LINE
  5
E9
330
47
100
AcDbEntity
  8
0
  6
Continuous
 62
     0
100
AcDbLine
 10
-82.40380859375
 20
169.5201416015625
 30
0.0
 11
-82.40380859375
 21
197.5828552246094
 31
0.0
  0
LINE
  5
EA
330
47
100
AcDbEntity
  8
0
  6
Continuous
 62
     0
100
AcDbLine
 10
-74.40380859375
 20
146.3125305175781
 30
0.0
 11
-74.40380859375
 21
167.108154296875
 31
0.0
  0
LINE
  5
EB
330
47
100
AcDbEntity
  8
0
  6
Continuous
 62
     0
100
AcDbLine
 10
-87.40380859375
 20
201.7834777832031
 30
0.0
 11
-109.40380859375
 21
201.7834777832031
 31
0.0
  0
LINE
  5
EC
330
47
100
AcDbEntity
  8
0
  6
Continuous
 62
     0
100
AcDbLine
 10
-87.40380859375
 20
205.6165161132812
 30
0.0
 11
-109.40380859375
 21
205.6165161132812
 31
0.0
  0
LINE
  5
ED
330
47
100
AcDbEntity
  8
0
  6
Continuous
 62
     0
100
AcDbLine
 10
63.6051025390625
 20
211.3834533691406
 30
0.0
 11
-70.24945068359375
 21
211.3834533691406
 31
0.0
  0
LINE
  5
EE
330
47
100
AcDbEntity
  8
0
  6
Continuous
 62
     0
100
AcDbLine
 10
-87.40380859375
 20
201.7833862304688
 30
0.0
 11
-87.40380859375
 21
205.616455078125
 31
0.0
  0
LINE
  5
EF
330
47
100
AcDbEntity
  8
0
  6
Continuous
 62
     0
100
AcDbLine
 10
-105.40380859375
 20
205.616455078125
 30
0.0
 11
-105.40380859375
 21
213.1834106445312
 31
0.0
  0
LINE
  5
F0
330
47
100
AcDbEntity
  8
0
  6
Continuous
 62
     0
100
AcDbLine
 10
-105.4038308829683
 20
213.1833929941008
 30
0.0
 11
-109.4038342611786
 21
212.387737401832
 31
0.0
  0
LINE
  5
F1
330
47
100
AcDbEntity
  8
0
  6
Continuous
 62
     0
100
AcDbLine
 10
-72.40380859375
 20
200.7701416015625
 30
0.0
 11
-82.40380859375
 21
200.7701416015625
 31
0.0
  0
LINE
  5
F2
330
47
100
AcDbEntity
  8
0
  6
Continuous
 62
     0
100
AcDbLine
 10
-74.40380859375
 20
202.4817810058594
 30
0.0
 11
-81.40380859375
 21
202.4817810058594
 31
0.0
  0
LINE
  5
F3
330
47
100
AcDbEntity
  8
0
  6
Continuous
 62
     0
100
AcDbLine
 10
-72.40380859375
 20
199.4578247070312
 30
0.0
 11
-82.40380859375
 21
199.4578247070312
 31
0.0
  0
LINE
  5
F4
330
47
100
AcDbEntity
  8
0
  6
Continuous
 62
     0
100
AcDbLine
 10
-72.40380859375
 20
198.5829162597656
 30
0.0
 11
-81.40380859375
 21
198.5829162597656
 31
0.0
  0
LINE
  5
F5
330
47
100
AcDbEntity
  8
0
  6
Continuous
 62
     0
100
AcDbLine
 10
-70.04159765830883
 20
211.4532589166456
 30
0.0
 11
-87.40380784162926
 21
205.6163941161053
 31
0.0
  0
LINE
  5
F6
330
47
100
AcDbEntity
  8
0
  6
Continuous
 62
     0
100
AcDbLine
 10
-72.40380859375
 20
80.4744873046875
 30
0.0
 11
-72.40380859375
 21
204.2833862304688
 31
0.0
  0
LINE
  5
F7
330
47
100
AcDbEntity
  8
0
  6
Continuous
 62
     0
100
AcDbLine
 10
56.505126953125
 20
204.2834777832031
 30
0.0
 11
-72.40380859375
 21
204.2834777832031
 31
0.0
  0
LINE
  5
F8
330
47
100
AcDbEntity
  8
0
  6
Continuous
 62
     0
100
AcDbLine
 10
-74.40380859375
 20
198.5828247070312
 30
0.0
 11
-74.40380859375
 21
199.4577331542969
 31
0.0
  0
LINE
  5
F9
330
47
100
AcDbEntity
  8
0
  6
Continuous
 62
     0
100
AcDbLine
 10
-74.40380859375
 20
204.2834777832031
 30
0.0
 11
-87.40380859375
 21
204.2834777832031
 31
0.0
  0
LINE
  5
FA
330
47
100
AcDbEntity
  8
0
  6
Continuous
 62
     0
100
AcDbLine
 10
-82.40380859375
 20
199.8982849121094
 30
0.0
 11
-82.40380859375
 21
201.4817199707031
 31
0.0
  0
LINE
  5
FB
330
47
100
AcDbEntity
  8
0
  6
Continuous
 62
     0
100
AcDbLine
 10
-74.40380859375
 20
202.481689453125
 30
0.0
 11
-74.40380859375
 21
204.2833862304688
 31
0.0
  0
LINE
  5
FC
330
47
100
AcDbEntity
  8
0
  6
DASHED
 62
     0
100
AcDbLine
 10
-72.60382080078125
 20
70.17453002929688
 30
0.0
 11
-109.4038696289062
 21
70.17453002929688
 31
0.0
  0
LINE
  5
FD
330
47
100
AcDbEntity
  8
0
  6
DASHED
 62
     0
100
AcDbLine
 10
-70.24945068359375
 20
211.3834533691406
 30
0.0
 11
-109.1087646484375
 21
211.3834533691406
 31
0.0
  0
LINE
  5
FE
330
47
100
AcDbEntity
  8
0
  6
Continuous
 62
     0
100
AcDbLine
 10
-87.40381813245769
 20
75.55919226727852
 30
0.0
 11
-72.60381946443115
 21
70.17443380912428
 31
0.0
  0
LINE
  5
FF
330
47
100
AcDbEntity
  8
0
  6
Continuous
 62
     0
100
AcDbLine
 10
-67.21909515832652
 20
55.3743923421047
 30
0.0
 11
-72.60385888803123
 21
70.174421566873
 31
0.0
  0
ARC
  5
100
330
47
100
AcDbEntity
  8
0
  6
Continuous
 62
     0
100
AcDbCircle
 10
61.005126953125
 20
-30.79998779296875
 30
0.0
 40
2.000003814697266
100
AcDbArc
 50
0.0
 51
3.59440882194719
  0
ARC
  5
101
330
47
100
AcDbEntity
  8
0
  6
Continuous
 62
     0
100
AcDbCircle
 10
67.9051513671875
 20
-42.0999755859375
 30
0.0
 40
2.5
100
AcDbArc
 50
270.0000179860893
 51
0.0
  0
ARC
  5
102
330
47
100
AcDbEntity
  8
0
  6
Continuous
 62
     0
100
AcDbCircle
 10
67.9051513671875
 20
-32.5
 30
0.0
 40
2.5
100
AcDbArc
 50
0.0
 51
89.99998201391067
  0
ARC
  5
103
330
47
100
AcDbEntity
  8
0
  6
Continuous
 62
     0
100
AcDbCircle
 10
61.005126953125
 20
-30.79998779296875
 30
0.0
 40
2.000003814697266
100
AcDbArc
 50
23.57767811864791
 51
255.5227317184863
  0
ARC
  5
104
330
47
100
AcDbEntity
  8
0
  6
Continuous
 62
     0
100
AcDbCircle
 10
67.6051025390625
 20
-32.79998779296875
 30
0.0
 40
1.0
100
AcDbArc
 50
0.0
 51
89.99998201391067
  0
ARC
  5
105
330
47
100
AcDbEntity
  8
0
  6
Continuous
 62
     0
100
AcDbCircle
 10
67.6051025390625
 20
-41.80001831054688
 30
0.0
 40
1.0
100
AcDbArc
 50
270.0000179860893
 51
0.0
  0
ARC
  5
106
330
47
100
AcDbEntity
  8
0
  6
Continuous
 62
     0
100
AcDbCircle
 10
57.5699462890625
 20
-56.80001831054688
 30
0.0
 40
1.0
100
AcDbArc
 50
270.0000179860893
 51
354.9999271478068
  0
ARC
  5
107
330
47
100
AcDbEntity
  8
0
  6
Continuous
 62
     0
100
AcDbCircle
 10
57.39501953125
 20
-58.79998779296875
 30
0.0
 40
1.0
100
AcDbArc
 50
354.9999271478068
 51
89.99998201391067
  0
ARC
  5
108
330
47
100
AcDbEntity
  8
0
  6
Continuous
 62
     0
100
AcDbCircle
 10
56.695068359375
 20
-66.79998779296875
 30
0.0
 40
1.0
100
AcDbArc
 50
270.0000179860893
 51
354.9999271478068
  0
ARC
  5
109
330
47
100
AcDbEntity
  8
0
  6
Continuous
 62
     0
100
AcDbCircle
 10
56.5201416015625
 20
-68.80001831054688
 30
0.0
 40
1.0
100
AcDbArc
 50
354.9999271478068
 51
89.99998201391067
  0
ARC
  5
10A
330
47
100
AcDbEntity
  8
0
  6
Continuous
 62
     0
100
AcDbCircle
 10
58.70733642578125
 20
-43.79998779296875
 30
0.0
 40
1.0
100
AcDbArc
 50
354.9998127421382
 51
89.99998201391067
  0
ARC
  5
10B
330
47
100
AcDbEntity
  8
0
  6
Continuous
 62
     0
100
AcDbCircle
 10
48.60150146484375
 20
-98.5
 30
0.0
 40
8.0
100
AcDbArc
 50
270.0000179860893
 51
355.0000189284738
  0
ARC
  5
10C
330
47
100
AcDbEntity
  8
0
  6
Continuous
 62
     0
100
AcDbCircle
 10
47.043701171875
 20
-96.79998779296875
 30
0.0
 40
8.0
100
AcDbArc
 50
270.0000179860893
 51
355.0000189284738
  0
ARC
  5
10D
330
47
100
AcDbEntity
  8
0
  6
Continuous
 62
     0
100
AcDbCircle
 10
47.043701171875
 20
-96.79998779296875
 30
0.0
 40
6.199999809265137
100
AcDbArc
 50
270.0000179860893
 51
355.0000189284738
  0
ARC
  5
10E
330
47
100
AcDbEntity
  8
0
  6
Continuous
 62
     0
100
AcDbCircle
 10
48.60150146484375
 20
-98.5
 30
0.0
 40
9.80000114440918
100
AcDbArc
 50
270.0000179860893
 51
355.0000189284738
  0
ARC
  5
10F
330
47
100
AcDbEntity
  8
0
  6
Continuous
 62
     0
100
AcDbCircle
 10
24.93212890625
 20
-103.7999877929688
 30
0.0
 40
1.0
100
AcDbArc
 50
179.9999813306653
 51
270.0000179860893
  0
ARC
  5
110
330
47
100
AcDbEntity
  8
0
  6
Continuous
 62
     0
100
AcDbCircle
 10
22.93212890625
 20
-103.7999877929688
 30
0.0
 40
1.0
100
AcDbArc
 50
270.0000179860893
 51
0.0
  0
ARC
  5
111
330
47
100
AcDbEntity
  8
0
  6
Continuous
 62
     0
100
AcDbCircle
 10
2.93212890625
 20
-103.7999877929688
 30
0.0
 40
1.0
100
AcDbArc
 50
270.0000179860893
 51
0.0
  0
ARC
  5
112
330
47
100
AcDbEntity
  8
0
  6
Continuous
 62
     0
100
AcDbCircle
 10
4.93212890625
 20
-103.7999877929688
 30
0.0
 40
1.0
100
AcDbArc
 50
179.9999813306653
 51
270.0000179860893
  0
ARC
  5
113
330
47
100
AcDbEntity
  8
0
  6
Continuous
 62
     0
100
AcDbCircle
 10
-26.06787109375
 20
-102.5
 30
0.0
 40
4.0
100
AcDbArc
 50
179.9999813306653
 51
270.0000179860893
  0
ARC
  5
114
330
47
100
AcDbEntity
  8
0
  6
Continuous
 62
     0
100
AcDbCircle
 10
-26.06787109375
 20
-102.5
 30
0.0
 40
5.800000190734863
100
AcDbArc
 50
179.9999813306653
 51
270.0000179860893
  0
ARC
  5
115
330
47
100
AcDbEntity
  8
0
  6
Continuous
 62
     0
100
AcDbCircle
 10
-30.281494140625
 20
-80.5
 30
0.0
 40
16.0
100
AcDbArc
 50
184.9999939918165
 51
270.0000179860893
  0
ARC
  5
116
330
47
100
AcDbEntity
  8
0
  6
Continuous
 62
     0
100
AcDbCircle
 10
-30.281494140625
 20
-80.5
 30
0.0
 40
17.79999923706055
100
AcDbArc
 50
184.9999939918165
 51
264.8867812790669
  0
ARC
  5
117
330
47
100
AcDbEntity
  8
0
  6
Continuous
 62
     0
100
AcDbCircle
 10
-30.281494140625
 20
-80.5
 30
0.0
 40
14.30000114440918
100
AcDbArc
 50
184.9999939918165
 51
270.0000179860893
  0
ARC
  5
118
330
47
100
AcDbEntity
  8
0
  6
Continuous
 62
     0
100
AcDbCircle
 10
-30.281494140625
 20
-80.5
 30
0.0
 40
12.50000095367432
100
AcDbArc
 50
184.9999939918165
 51
270.0000179860893
  0
ARC
  5
119
330
47
100
AcDbEntity
  8
0
  6
Continuous
 62
     0
100
AcDbCircle
 10
-46.9345703125
 20
-42.7542724609375
 30
0.0
 40
1.0
100
AcDbArc
 50
89.99998201391067
 51
185.0000313304858
  0
ARC
  5
11A
330
47
100
AcDbEntity
  8
0
  6
Continuous
 62
     0
100
AcDbCircle
 10
-47.109619140625
 20
-40.75430297851562
 30
0.0
 40
1.0
100
AcDbArc
 50
185.0000486333298
 51
270.0000179860893
  0
ARC
  5
11B
330
47
100
AcDbEntity
  8
0
  6
Continuous
 62
     0
100
AcDbCircle
 10
-54.0291748046875
 20
-32.80001831054688
 30
0.0
 40
1.0
100
AcDbArc
 50
185.0000486333298
 51
270.0000179860893
  0
ARC
  5
11C
330
47
100
AcDbEntity
  8
0
  6
Continuous
 62
     0
100
AcDbCircle
 10
-55.341552734375
 20
-17.79998779296875
 30
0.0
 40
1.0
100
AcDbArc
 50
89.99998201391067
 51
185.0000313304858
  0
ARC
  5
11D
330
47
100
AcDbEntity
  8
0
  6
Continuous
 62
     0
100
AcDbCircle
 10
-71.90380859375
 20
2.5
 30
0.0
 40
2.5
100
AcDbArc
 50
89.99998201391067
 51
179.9999640278213
  0
ARC
  5
11E
330
47
100
AcDbEntity
  8
0
  6
Continuous
 62
     0
100
AcDbCircle
 10
-71.90380859375
 20
-12.0999755859375
 30
0.0
 40
2.5
100
AcDbArc
 50
179.9999813306653
 51
270.0000179860893
  0
ARC
  5
11F
330
47
100
AcDbEntity
  8
0
  6
Continuous
 62
     0
100
AcDbCircle
 10
-71.603759765625
 20
-11.80001831054688
 30
0.0
 40
1.0
100
AcDbArc
 50
179.9999813306653
 51
270.0000179860893
  0
ARC
  5
120
330
47
100
AcDbEntity
  8
0
  6
Continuous
 62
     0
100
AcDbCircle
 10
-71.603759765625
 20
2.20001220703125
 30
0.0
 40
1.0
100
AcDbArc
 50
89.99998201391067
 51
179.9999640278213
  0
ARC
  5
121
330
47
100
AcDbEntity
  8
0
  6
Continuous
 62
     0
100
AcDbCircle
 10
-64.35382080078125
 20
4.95001220703125
 30
0.0
 40
1.749996185302734
100
AcDbArc
 50
0.0
 51
178.3631638347411
  0
ARC
  5
122
330
47
100
AcDbEntity
  8
0
  6
Continuous
 62
     0
100
AcDbCircle
 10
-64.35382080078125
 20
4.95001220703125
 30
0.0
 40
1.749996185302734
100
AcDbArc
 50
270.0000179860893
 51
0.0
  0
ARC
  5
123
330
47
100
AcDbEntity
  8
0
  6
Continuous
 62
     0
100
AcDbCircle
 10
-56.03765869140625
 20
60.67437744140625
 30
0.0
 40
0.300000011920929
100
AcDbArc
 50
179.9999813306653
 51
270.0000179860893
  0
ARC
  5
124
330
47
100
AcDbEntity
  8
0
  6
Continuous
 62
     0
100
AcDbCircle
 10
-55.337646484375
 20
61.3743896484375
 30
0.0
 40
1.0
100
AcDbArc
 50
179.9999813306653
 51
270.0000179860893
  0
ARC
  5
125
330
47
100
AcDbEntity
  8
0
  6
Continuous
 62
     0
100
AcDbCircle
 10
1.122314453125
 20
61.3743896484375
 30
0.0
 40
1.0
100
AcDbArc
 50
270.0000179860893
 51
348.7493926538777
  0
ARC
  5
126
330
47
100
AcDbEntity
  8
0
  6
Continuous
 62
     0
100
AcDbCircle
 10
26.741943359375
 20
61.3743896484375
 30
0.0
 40
1.0
100
AcDbArc
 50
191.2505869692403
 51
270.0000179860893
  0
ARC
  5
127
330
47
100
AcDbEntity
  8
0
  6
Continuous
 62
     0
100
AcDbCircle
 10
54.8045654296875
 20
61.3743896484375
 30
0.0
 40
1.0
100
AcDbArc
 50
270.0000179860893
 51
0.0
  0
ARC
  5
128
330
47
100
AcDbEntity
  8
0
  6
Continuous
 62
     0
100
AcDbCircle
 10
58.7034912109375
 20
61.3743896484375
 30
0.0
 40
1.0
100
AcDbArc
 50
270.0000179860893
 51
0.0
  0
ARC
  5
129
330
47
100
AcDbEntity
  8
0
  6
Continuous
 62
     0
100
AcDbCircle
 10
-79.40380859375
 20
63.3743896484375
 30
0.0
 40
5.0
100
AcDbArc
 50
0.0
 51
45.00012419564414
  0
ARC
  5
12A
330
47
100
AcDbEntity
  8
0
  6
Continuous
 62
     0
100
AcDbCircle
 10
-79.40380859375
 20
63.37442016601562
 30
0.0
 40
5.0
100
AcDbArc
 50
44.99979976165856
 51
89.9999273723973
  0
ARC
  5
12B
330
47
100
AcDbEntity
  8
0
  6
Continuous
 62
     0
100
AcDbCircle
 10
-82.1038818359375
 20
86.74057006835938
 30
0.0
 40
0.300000011920929
100
AcDbArc
 50
179.999909386308
 51
269.999946041732
  0
ARC
  5
12C
330
47
100
AcDbEntity
  8
0
  6
Continuous
 62
     0
100
AcDbCircle
 10
-81.40380859375
 20
87.44058227539062
 30
0.0
 40
1.0
100
AcDbArc
 50
179.999909386308
 51
269.999946041732
  0
ARC
  5
12D
330
47
100
AcDbEntity
  8
0
  6
Continuous
 62
     0
100
AcDbCircle
 10
-81.40380859375
 20
143.9005432128906
 30
0.0
 40
1.0
100
AcDbArc
 50
101.2505330109723
 51
179.999909386308
  0
ARC
  5
12E
330
47
100
AcDbEntity
  8
0
  6
Continuous
 62
     0
100
AcDbCircle
 10
-81.40380859375
 20
169.5201416015625
 30
0.0
 40
1.0
100
AcDbArc
 50
179.999909386308
 51
258.749340403157
  0
ARC
  5
12F
330
47
100
AcDbEntity
  8
0
  6
Continuous
 62
     0
100
AcDbCircle
 10
-81.40380859375
 20
197.5828247070312
 30
0.0
 40
1.0
100
AcDbArc
 50
89.9999273723973
 51
179.999909386308
  0
ARC
  5
130
330
47
100
AcDbEntity
  8
0
  6
Continuous
 62
     0
100
AcDbCircle
 10
-81.40380859375
 20
201.481689453125
 30
0.0
 40
1.0
100
AcDbArc
 50
89.9999273723973
 51
179.999909386308
  0
ARC
  5
131
330
47
100
AcDbEntity
  8
0
  6
Continuous
 62
     0
100
AcDbCircle
 10
63.6051025390625
 20
206.3833312988281
 30
0.0
 40
5.0
100
AcDbArc
 50
0.0
 51
89.99998201391067
  0
ARC
  5
132
330
47
100
AcDbEntity
  8
0
  6
Continuous
 62
     0
100
AcDbCircle
 10
56.505126953125
 20
199.2833251953125
 30
0.0
 40
5.0
100
AcDbArc
 50
0.0
 51
89.99998201391067
  0
DIMENSION
  5
133
330
47
100
AcDbEntity
  8
0
 62
     0
100
AcDbDimension
  2
*D5
 10
55.93212890625
 20
-143.1348032226562
 30
0.0
 11
6.871849609375
 21
-143.1348032226562
 31
0.0
 70
   160
 71
     5
 42
100.0000076293945
  3
ISO-25
100
AcDbAlignedDimension
 13
-44.06787109375
 23
-106.5
 33
0.0
 14
55.93212890625
 24
-106.5
 34
0.0
 50
180.0
100
AcDbRotatedDimension
1001
ACAD
1000
DSTYLE
1002
{
1070
   178
1070
     1
1070
   147
1040
0.800000011920929
1070
    77
1070
     1
1070
    74
1070
     0
1070
    73
1070
     0
1070
    42
1040
2.54
1070
    44
1040
6.0
1070
    76
1070
     0
1070
    75
1070
     0
1070
   279
1070
     0
1070
   271
1070
     0
1070
   144
1040
1.000000076293945
1070
   278
1070
    46
1070
   173
1070
     1
1070
    41
1040
3.0
1070
   140
1040
3.200000047683716
1070
   344
1005
134
1070
   343
1005
134
1002
}
  0
DIMENSION
  5
148
330
47
100
AcDbEntity
  8
0
 62
     0
100
AcDbDimension
  2
*D6
 10
-150.418654296875
 20
-106.5
 30
0.0
 11
-150.418654296875
 21
-46.76602880859375
 31
0.0
 70
   160
 71
     5
 42
109.6999969482422
  3
ISO-25
100
AcDbAlignedDimension
 13
-72.60382080078125
 23
3.199981689453125
 33
0.0
 14
-44.06787109375
 24
-106.5
 34
0.0
 50
90.00000000000001
100
AcDbRotatedDimension
1001
ACAD
1000
DSTYLE
1002
{
1070
   178
1070
     1
1070
   147
1040
0.800000011920929
1070
    77
1070
     1
1070
    74
1070
     0
1070
    73
1070
     0
1070
    42
1040
2.54
1070
    44
1040
6.0
1070
    76
1070
     0
1070
    75
1070
     0
1070
   279
1070
     0
1070
   271
1070
     1
1070
   144
1040
1.000000139095639
1070
   278
1070
    46
1070
   173
1070
     1
1070
    41
1040
3.0
1070
   140
1040
3.200000047683716
1070
   344
1005
134
1070
   343
1005
134
1002
}
  0
DIMENSION
  5
155
330
47
100
AcDbEntity
  8
0
 62
     0
100
AcDbDimension
  2
*D7
 10
120.256615234375
 20
-106.5
 30
0.0
 11
120.256615234375
 21
-65.8277353515625
 31
0.0
 70
   160
 71
     5
 42
74.70000457763672
  3
ISO-25
100
AcDbAlignedDimension
 13
68.6051025390625
 23
-31.79998779296875
 33
0.0
 14
55.93212890625
 24
-106.5
 34
0.0
 50
90.00000000000001
100
AcDbRotatedDimension
1001
ACAD
1000
DSTYLE
1002
{
1070
   178
1070
     1
1070
   147
1040
0.800000011920929
1070
    77
1070
     1
1070
    74
1070
     0
1070
    73
1070
     0
1070
    42
1040
2.54
1070
    44
1040
6.0
1070
    76
1070
     0
1070
    75
1070
     0
1070
   279
1070
     0
1070
   271
1070
     1
1070
   144
1040
0.999999897866221
1070
   278
1070
    46
1070
   173
1070
     1
1070
    41
1040
3.0
1070
   140
1040
3.200000047683716
1070
   344
1005
134
1070
   343
1005
134
1002
}
  0
DIMENSION
  5
162
330
47
100
AcDbEntity
  8
0
 62
     0
100
AcDbDimension
  2
*D8
 10
121.5263671875
 20
213.1833496093749
 30
0.0
 11
121.5263671875
 21
120.9769521484375
 31
0.0
 70
   160
  1
182
 71
     5
 42
179.8089599609375
  3
ISO-25
100
AcDbAlignedDimension
 13
69.6094970703125
 23
33.3743896484375
 33
0.0
 14
70.405029296875
 24
213.183349609375
 34
0.0
 50
270.0
100
AcDbRotatedDimension
1001
ACAD
1000
DSTYLE
1002
{
1070
   178
1070
     1
1070
   147
1040
0.800000011920929
1070
    77
1070
     1
1070
    74
1070
     0
1070
    73
1070
     0
1070
    42
1040
2.54
1070
    44
1040
6.0
1070
    76
1070
     0
1070
    75
1070
     0
1070
   279
1070
     0
1070
   271
1070
     0
1070
   278
1070
    46
1070
   173
1070
     1
1070
    41
1040
3.0
1070
   140
1040
3.200000047683716
1070
   344
1005
134
1070
   343
1005
134
1002
}
  0
ENDBLK
  5
49
330
47
100
AcDbEntity
  8
0
100
AcDbBlockEnd
  0
BLOCK
  5
4B
330
4A
100
AcDbEntity
  8
0
100
AcDbBlockBegin
  2
DTL0003
 70
     0
 10
0.0
 20
0.0
 30
0.0
  3
DTL0003
  1

  0
POINT
  5
16F
330
4A
100
AcDbEntity
  8
0
 62
     0
100
AcDbPoint
 10
0.0
 20
0.0
 30
0.0
  0
LINE
  5
170
330
4A
100
AcDbEntity
  8
0
  6
Continuous
 62
     0
100
AcDbLine
 10
-65.73492431640625
 20
0.965530395507812
 30
0.0
 11
-55.23487854003906
 21
0.965530395507812
 31
0.0
  0
LINE
  5
171
330
4A
100
AcDbEntity
  8
0
  6
Continuous
 62
     0
100
AcDbLine
 10
-42.02500915527344
 20
-73.73443603515625
 30
0.0
 11
-30.46464538574219
 21
-73.73443603515625
 31
0.0
  0
LINE
  5
172
330
4A
100
AcDbEntity
  8
0
  6
Continuous
 62
     0
100
AcDbLine
 10
47.31698541261259
 20
-35.53432605804046
 30
0.0
 11
44.61383782385927
 21
-66.43156332718698
 31
0.0
  0
LINE
  5
173
330
4A
100
AcDbEntity
  8
0
  6
Continuous
 62
     0
100
AcDbLine
 10
44.10482788085938
 20
-35.534423828125
 30
0.0
 11
54.61703491210938
 21
-35.534423828125
 31
0.0
  0
LINE
  5
174
330
4A
100
AcDbEntity
  8
0
  6
Continuous
 62
     0
100
AcDbLine
 10
46.61703491210938
 20
-24.03445434570312
 30
0.0
 11
54.61703491210938
 21
-24.03445434570312
 31
0.0
  0
LINE
  5
175
330
4A
100
AcDbEntity
  8
0
  6
Continuous
 62
     0
100
AcDbLine
 10
54.61703491210938
 20
-24.03446960449219
 30
0.0
 11
54.61703491210938
 21
-35.53445434570312
 31
0.0
  0
LINE
  5
176
330
4A
100
AcDbEntity
  8
0
  6
Continuous
 62
     0
100
AcDbLine
 10
46.6170654296875
 20
-24.03446960449219
 30
0.0
 11
46.6170654296875
 21
-24.97096252441406
 31
0.0
  0
LINE
  5
177
330
4A
100
AcDbEntity
  8
0
  6
Continuous
 62
     0
100
AcDbLine
 10
47.11703491210938
 20
-21.03445434570312
 30
0.0
 11
50.11703491210938
 21
-21.03445434570312
 31
0.0
  0
LINE
  5
178
330
4A
100
AcDbEntity
  8
0
  6
Continuous
 62
     0
100
AcDbLine
 10
56.41705322265625
 20
-24.03446960449219
 30
0.0
 11
56.41705322265625
 21
-35.53445434570312
 31
0.0
  0
LINE
  5
179
330
4A
100
AcDbEntity
  8
0
  6
Continuous
 62
     0
100
AcDbLine
 10
50.77334594726562
 20
-37.33444213867188
 30
0.0
 11
54.61703491210938
 21
-37.33444213867188
 31
0.0
  0
LINE
  5
17A
330
4A
100
AcDbEntity
  8
0
  6
Continuous
 62
     0
100
AcDbLine
 10
48.2492025164953
 20
-45.5345937546639
 30
0.0
 11
46.4072119765483
 21
-66.58872302124738
 31
0.0
  0
LINE
  5
17B
330
4A
100
AcDbEntity
  8
0
  6
Continuous
 62
     0
100
AcDbLine
 10
50.7734453182121
 20
-37.33465927278939
 30
0.0
 11
50.05604096812443
 21
-45.53466008473151
 31
0.0
  0
LINE
  5
17C
330
4A
100
AcDbEntity
  8
0
  6
Continuous
 62
     0
100
AcDbLine
 10
-31.02496337890625
 20
-66.23446655273438
 30
0.0
 11
-31.02496337890625
 21
-71.73446655273438
 31
0.0
  0
LINE
  5
17D
330
4A
100
AcDbEntity
  8
0
  6
Continuous
 62
     0
100
AcDbLine
 10
-45.54993454444904
 20
-33.43793806264954
 30
0.0
 11
-43.68270530940865
 21
-54.78039351112406
 31
0.0
  0
LINE
  5
17E
330
4A
100
AcDbEntity
  8
0
  6
Continuous
 62
     0
100
AcDbLine
 10
-31.72894287109375
 20
-65.73446655273438
 30
0.0
 11
-31.52500915527344
 21
-65.73446655273438
 31
0.0
  0
LINE
  5
17F
330
4A
100
AcDbEntity
  8
0
  6
Continuous
 62
     0
100
AcDbLine
 10
-29.02497863769531
 20
-75.53445434570312
 30
0.0
 11
36.64431762695312
 21
-75.53445434570312
 31
0.0
  0
LINE
  5
180
330
4A
100
AcDbEntity
  8
0
  6
Continuous
 62
     0
100
AcDbLine
 10
-32.82498168945312
 20
-67.49087524414062
 30
0.0
 11
-32.82498168945312
 21
-71.73446655273438
 31
0.0
  0
LINE
  5
181
330
4A
100
AcDbEntity
  8
0
  6
Continuous
 62
     0
100
AcDbLine
 10
-55.19460770015175
 20
-14.99091007426287
 30
0.0
 11
-53.77346932563925
 21
-31.23454094452096
 31
0.0
  0
LINE
  5
182
330
4A
100
AcDbEntity
  8
0
  6
Continuous
 62
     0
100
AcDbLine
 10
-53.7737203511567
 20
-31.23413619966637
 30
0.0
 11
-45.55041005118237
 21
-33.437565318404
 31
0.0
  0
LINE
  5
183
330
4A
100
AcDbEntity
  8
0
  6
Continuous
 62
     0
100
AcDbLine
 10
-65.43490600585938
 20
-14.53443908691406
 30
0.0
 11
-55.69305419921875
 21
-14.53443908691406
 31
0.0
  0
LINE
  5
184
330
4A
100
AcDbEntity
  8
0
  6
Continuous
 62
     0
100
AcDbLine
 10
-65.73489379882812
 20
0.96551513671875
 30
0.0
 11
-65.73489379882812
 21
-14.23448181152344
 31
0.0
  0
LINE
  5
185
330
4A
100
AcDbEntity
  8
0
  6
Continuous
 62
     0
100
AcDbLine
 10
-55.23489379882812
 20
0.96551513671875
 30
0.0
 11
-55.23489379882812
 21
-0.034469604492188
 31
0.0
  0
LINE
  5
186
330
4A
100
AcDbEntity
  8
0
  6
Continuous
 62
     0
100
AcDbLine
 10
-60.534912109375
 20
4.465545654296875
 30
0.0
 11
-55.23487854003906
 21
4.465545654296875
 31
0.0
  0
LINE
  5
187
330
4A
100
AcDbEntity
  8
0
  6
Continuous
 62
     0
100
AcDbLine
 10
-67.53486633300781
 20
0.96551513671875
 30
0.0
 11
-67.53486633300781
 21
-14.53445434570312
 31
0.0
  0
LINE
  5
188
330
4A
100
AcDbEntity
  8
0
  6
Continuous
 62
     0
100
AcDbLine
 10
-65.73492431640625
 20
2.765548706054688
 30
0.0
 11
-62.23490905761719
 21
2.765548706054688
 31
0.0
  0
LINE
  5
189
330
4A
100
AcDbEntity
  8
0
  6
Continuous
 62
     0
100
AcDbLine
 10
-65.73492431640625
 20
-16.33445739746094
 30
0.0
 11
-56.88429260253906
 21
-16.33445739746094
 31
0.0
  0
LINE
  5
18A
330
4A
100
AcDbEntity
  8
0
  6
Continuous
 62
     0
100
AcDbLine
 10
-56.8839918763932
 20
-16.33453194464782
 30
0.0
 11
-55.48734219889548
 21
-32.29825667632301
 31
0.0
  0
LINE
  5
18B
330
4A
100
AcDbEntity
  8
0
  6
Continuous
 62
     0
100
AcDbLine
 10
-47.2334938015904
 20
-34.85028349841589
 30
0.0
 11
-45.47611660037293
 21
-54.93712871232842
 31
0.0
  0
LINE
  5
18C
330
4A
100
AcDbEntity
  8
0
  6
Continuous
 62
     0
100
AcDbLine
 10
-55.11888528206138
 20
-32.73725594176129
 30
0.0
 11
-47.23374335240077
 21
-34.85007312844188
 31
0.0
  0
LINE
  5
18D
330
4A
100
AcDbEntity
  8
0
  6
Continuous
 62
     0
100
AcDbLine
 10
-54.97244262695312
 20
-17.53443908691406
 30
0.0
 11
-48.84912109375
 21
-17.53443908691406
 31
0.0
  0
LINE
  5
18E
330
4A
100
AcDbEntity
  8
0
  6
Continuous
 62
     0
100
AcDbLine
 10
-48.66400146484375
 20
-25.53445434570312
 30
0.0
 11
-48.14920043945312
 21
-25.53445434570312
 31
0.0
  0
LINE
  5
18F
330
4A
100
AcDbEntity
  8
0
  6
Continuous
 62
     0
100
AcDbLine
 10
-50.35965263745485
 20
-18.62170678188389
 30
0.0
 11
-49.83472157788669
 21
-24.62167590303559
 31
0.0
  0
LINE
  5
190
330
4A
100
AcDbEntity
  8
0
  6
Continuous
 62
     0
100
AcDbLine
 10
-48.84873558273473
 20
-17.53439133961825
 30
0.0
 11
-48.14882484351937
 21
-25.53438056926926
 31
0.0
  0
LINE
  5
191
330
4A
100
AcDbEntity
  8
0
  6
Continuous
 62
     0
100
AcDbLine
 10
-49.2965955147626
 20
-30.77746413529339
 30
0.0
 11
-44.05427830969019
 21
-32.18213864688904
 31
0.0
  0
LINE
  5
192
330
4A
100
AcDbEntity
  8
0
  6
Continuous
 62
     0
100
AcDbLine
 10
-44.05368566262995
 20
-32.18248375089426
 30
0.0
 11
-43.89247040212596
 21
-34.02517636214512
 31
0.0
  0
LINE
  5
193
330
4A
100
AcDbEntity
  8
0
  6
Continuous
 62
     0
100
AcDbLine
 10
-42.20652920597549
 20
-34.93790777261472
 30
0.0
 11
-40.49493764942105
 21
-54.50142244785385
 31
0.0
  0
LINE
  5
194
330
4A
100
AcDbEntity
  8
0
  6
Continuous
 62
     0
100
AcDbLine
 10
-42.72181701660156
 20
-34.9378662109375
 30
0.0
 11
-42.20701599121094
 21
-34.9378662109375
 31
0.0
  0
LINE
  5
195
330
4A
100
AcDbEntity
  8
0
  6
Continuous
 62
     0
100
AcDbLine
 10
-31.02496337890625
 20
-62.50625610351562
 30
0.0
 11
-31.02496337890625
 21
-63.12979125976562
 31
0.0
  0
LINE
  5
196
330
4A
100
AcDbEntity
  8
0
  6
Continuous
 62
     0
100
AcDbLine
 10
-32.43284606933594
 20
-62.5062255859375
 30
0.0
 11
-31.02499389648438
 21
-62.5062255859375
 31
0.0
  0
LINE
  5
197
330
4A
100
AcDbEntity
  8
0
  6
Continuous
 62
     0
100
AcDbLine
 10
-31.02474738087961
 20
-62.50604190961099
 30
0.0
 11
-22.99655430358433
 21
-70.53423092655079
 31
0.0
  0
LINE
  5
198
330
4A
100
AcDbEntity
  8
0
  6
Continuous
 62
     0
100
AcDbLine
 10
-19.02499389648438
 20
-72.13446044921875
 30
0.0
 11
-3.025009155273438
 21
-72.13446044921875
 31
0.0
  0
LINE
  5
199
330
4A
100
AcDbEntity
  8
0
  6
Continuous
 62
     0
100
AcDbLine
 10
-22.99678039550781
 20
-70.53445434570312
 30
0.0
 11
-2.024978637695312
 21
-70.53445434570312
 31
0.0
  0
LINE
  5
19A
330
4A
100
AcDbEntity
  8
0
  6
Continuous
 62
     0
100
AcDbLine
 10
-20.02494812011719
 20
-70.53445434570312
 30
0.0
 11
-20.02494812011719
 21
-71.13446044921875
 31
0.0
  0
LINE
  5
19B
330
4A
100
AcDbEntity
  8
0
  6
Continuous
 62
     0
100
AcDbLine
 10
-2.024948120117188
 20
-70.53445434570312
 30
0.0
 11
-2.024948120117188
 21
-71.13446044921875
 31
0.0
  0
LINE
  5
19C
330
4A
100
AcDbEntity
  8
0
  6
Continuous
 62
     0
100
AcDbLine
 10
17.97502136230469
 20
-70.53445434570312
 30
0.0
 11
17.97502136230469
 21
-71.13446044921875
 31
0.0
  0
LINE
  5
19D
330
4A
100
AcDbEntity
  8
0
  6
Continuous
 62
     0
100
AcDbLine
 10
7.1895751953125
 20
-72.13446044921875
 30
0.0
 11
16.97500610351562
 21
-72.13446044921875
 31
0.0
  0
LINE
  5
19E
330
4A
100
AcDbEntity
  8
0
  6
Continuous
 62
     0
100
AcDbLine
 10
17.97499084472656
 20
-70.53445434570312
 30
0.0
 11
36.64431762695312
 21
-70.53445434570312
 31
0.0
  0
LINE
  5
19F
330
4A
100
AcDbEntity
  8
0
  6
Continuous
 62
     0
100
AcDbLine
 10
45.61570701474776
 20
-36.62149540145285
 30
0.0
 11
43.01987191806342
 21
-66.29214055139965
 31
0.0
  0
LINE
  5
1A0
330
4A
100
AcDbEntity
  8
0
  6
Continuous
 62
     0
100
AcDbLine
 10
44.1047334177125
 20
-35.5345129976978
 30
0.0
 11
41.42598125798665
 21
-66.1529081636309
 31
0.0
  0
LINE
  5
1A1
330
4A
100
AcDbEntity
  8
0
  6
Continuous
 62
     0
100
AcDbLine
 10
51.58676147460938
 20
-22.23443603515625
 30
0.0
 11
54.61703491210938
 21
-22.23443603515625
 31
0.0
  0
LINE
  5
1A2
330
4A
100
AcDbEntity
  8
0
  6
Continuous
 62
     0
100
AcDbLine
 10
18.97502136230469
 20
-72.13446044921875
 30
0.0
 11
36.64431762695312
 21
-72.13446044921875
 31
0.0
  0
LINE
  5
1A3
330
4A
100
AcDbEntity
  8
0
  6
Continuous
 62
     0
100
AcDbLine
 10
18.97502136230469
 20
-72.13446044921875
 30
0.0
 11
36.64431762695312
 21
-72.13446044921875
 31
0.0
  0
LINE
  5
1A4
330
4A
100
AcDbEntity
  8
0
  6
Continuous
 62
     0
100
AcDbLine
 10
-1.024993896484375
 20
-72.13446044921875
 30
0.0
 11
16.97500610351562
 21
-72.13446044921875
 31
0.0
  0
LINE
  5
1A5
330
4A
100
AcDbEntity
  8
0
  6
Continuous
 62
     0
100
AcDbLine
 10
-43.71749072247876
 20
-36.02519647064443
 30
0.0
 11
-42.08881283509365
 21
-54.64100678419737
 31
0.0
  0
LINE
  5
1A6
330
4A
100
AcDbEntity
  8
0
  6
Continuous
 62
     0
100
AcDbLine
 10
-49.6597418982395
 20
-26.62169601153489
 30
0.0
 11
-49.29048043465095
 21
-30.84235954206627
 31
0.0
  0
LINE
  5
1A7
330
4A
100
AcDbEntity
  8
0
  6
Continuous
 62
     0
100
AcDbLine
 10
-29.02497863769531
 20
-73.73443603515625
 30
0.0
 11
36.64431762695312
 21
-73.73443603515625
 31
0.0
  0
LINE
  5
1A8
330
4A
100
AcDbEntity
  8
0
  6
Continuous
 62
     0
100
AcDbLine
 10
-43.44258468498149
 20
-57.5249755008044
 30
0.0
 11
-42.02443192602227
 21
-73.73448074484774
 31
0.0
  0
LINE
  5
1A9
330
4A
100
AcDbEntity
  8
0
  6
Continuous
 62
     0
100
AcDbLine
 10
44.31425440164944
 20
-69.85583069476681
 30
0.0
 11
43.97492866581898
 21
-73.73435653445901
 31
0.0
  0
LINE
  5
1AA
330
4A
100
AcDbEntity
  8
0
  6
Continuous
 62
     0
100
AcDbLine
 10
39.80715942382812
 20
-73.73443603515625
 30
0.0
 11
43.97500610351562
 21
-73.73443603515625
 31
0.0
  0
LINE
  5
1AB
330
4A
100
AcDbEntity
  8
0
  6
Continuous
 62
     0
100
AcDbLine
 10
-52.98489379882812
 20
2.715545654296875
 30
0.0
 11
-52.98489379882812
 21
1.71551513671875
 31
0.0
  0
LINE
  5
1AC
330
4A
100
AcDbEntity
  8
0
  6
Continuous
 62
     0
100
AcDbLine
 10
-67.53488159179688
 20
17.52333068847656
 30
0.0
 11
56.41708374023438
 21
17.52333068847656
 31
0.0
  0
LINE
  5
1AD
330
4A
100
AcDbEntity
  8
0
  6
Continuous
 62
     0
100
AcDbLine
 10
-67.53486633300781
 20
51.5233154296875
 30
0.0
 11
-67.53486633300781
 21
17.52333068847656
 31
0.0
  0
LINE
  5
1AE
330
4A
100
AcDbEntity
  8
0
  6
Continuous
 62
     0
100
AcDbLine
 10
56.41705322265625
 20
175.4752197265625
 30
0.0
 11
56.41705322265625
 21
17.52333068847656
 31
0.0
  0
LINE
  5
1AF
330
4A
100
AcDbEntity
  8
0
  6
Continuous
 62
     0
100
AcDbLine
 10
-65.73487854003906
 20
49.52337646484375
 30
0.0
 11
-63.53486633300781
 21
49.52337646484375
 31
0.0
  0
LINE
  5
1B0
330
4A
100
AcDbEntity
  8
0
  6
Continuous
 62
     0
100
AcDbLine
 10
-63.53486633300781
 20
34.52333068847656
 30
0.0
 11
-52.98489379882812
 21
34.52333068847656
 31
0.0
  0
LINE
  5
1B1
330
4A
100
AcDbEntity
  8
0
  6
Continuous
 62
     0
100
AcDbLine
 10
-63.53486633300781
 20
49.5233154296875
 30
0.0
 11
-63.53486633300781
 21
34.5233154296875
 31
0.0
  0
LINE
  5
1B2
330
4A
100
AcDbEntity
  8
0
  6
Continuous
 62
     0
100
AcDbLine
 10
-55.23487854003906
 20
34.5233154296875
 30
0.0
 11
-55.23487854003906
 21
17.52333068847656
 31
0.0
  0
LINE
  5
1B3
330
4A
100
AcDbEntity
  8
0
  6
Continuous
 62
     0
100
AcDbLine
 10
-62.23487854003906
 20
34.5233154296875
 30
0.0
 11
-62.23487854003906
 21
17.52333068847656
 31
0.0
  0
LINE
  5
1B4
330
4A
100
AcDbEntity
  8
0
  6
Continuous
 62
     0
100
AcDbLine
 10
-52.98489379882812
 20
34.5233154296875
 30
0.0
 11
-52.98489379882812
 21
17.52333068847656
 31
0.0
  0
LINE
  5
1B5
330
4A
100
AcDbEntity
  8
0
  6
Continuous
 62
     0
100
AcDbLine
 10
-65.73487854003906
 20
53.32330322265625
 30
0.0
 11
-65.73487854003906
 21
49.52337646484375
 31
0.0
  0
LINE
  5
1B6
330
4A
100
AcDbEntity
  8
0
  6
Continuous
 62
     0
100
AcDbLine
 10
-55.59579467773438
 20
63.46237182617188
 30
0.0
 11
-55.59579467773438
 21
34.5233154296875
 31
0.0
  0
LINE
  5
1B7
330
4A
100
AcDbEntity
  8
0
  6
Continuous
 62
     0
100
AcDbLine
 10
-48.84909057617188
 20
51.5233154296875
 30
0.0
 11
-48.84909057617188
 21
46.5233154296875
 31
0.0
  0
LINE
  5
1B8
330
4A
100
AcDbEntity
  8
0
  6
Continuous
 62
     0
100
AcDbLine
 10
-54.972412109375
 20
51.5233154296875
 30
0.0
 11
-54.972412109375
 21
49.5233154296875
 31
0.0
  0
LINE
  5
1B9
330
4A
100
AcDbEntity
  8
0
  6
Continuous
 62
     0
100
AcDbLine
 10
-54.97244262695312
 20
51.52337646484375
 30
0.0
 11
47.31698608398438
 21
51.52337646484375
 31
0.0
  0
LINE
  5
1BA
330
4A
100
AcDbEntity
  8
0
  6
Continuous
 62
     0
100
AcDbLine
 10
-54.97244262695312
 20
49.52337646484375
 30
0.0
 11
-50.39228820800781
 21
49.52337646484375
 31
0.0
  0
LINE
  5
1BB
330
4A
100
AcDbEntity
  8
0
  6
Continuous
 62
     0
100
AcDbLine
 10
-49.79229736328125
 20
46.52337646484375
 30
0.0
 11
-48.14895629882812
 21
46.52337646484375
 31
0.0
  0
LINE
  5
1BC
330
4A
100
AcDbEntity
  8
0
  6
Continuous
 62
     0
100
AcDbLine
 10
-48.14894104003906
 20
51.5233154296875
 30
0.0
 11
-48.14894104003906
 21
46.5233154296875
 31
0.0
  0
LINE
  5
1BD
330
4A
100
AcDbEntity
  8
0
  6
Continuous
 62
     0
100
AcDbLine
 10
-48.25900268554688
 20
49.52337646484375
 30
0.0
 11
-44.11090087890625
 21
49.52337646484375
 31
0.0
  0
LINE
  5
1BE
330
4A
100
AcDbEntity
  8
0
  6
Continuous
 62
     0
100
AcDbLine
 10
-42.20661926269531
 20
51.5233154296875
 30
0.0
 11
-42.20661926269531
 21
46.5233154296875
 31
0.0
  0
LINE
  5
1BF
330
4A
100
AcDbEntity
  8
0
  6
Continuous
 62
     0
100
AcDbLine
 10
-44.11093460982224
 20
49.52334584770563
 30
0.0
 11
-42.86829017200354
 21
46.52334683504924
 31
0.0
  0
LINE
  5
1C0
330
4A
100
AcDbEntity
  8
0
  6
DASHED
 62
     0
100
AcDbLine
 10
-44.11090087890625
 20
49.52337646484375
 30
0.0
 11
-31.02484130859375
 21
49.52337646484375
 31
0.0
  0
LINE
  5
1C1
330
4A
100
AcDbEntity
  8
0
  6
Continuous
 62
     0
100
AcDbLine
 10
-42.86825561523438
 20
46.52337646484375
 30
0.0
 11
-32.02484130859375
 21
46.52337646484375
 31
0.0
  0
LINE
  5
1C2
330
4A
100
AcDbEntity
  8
0
  6
Continuous
 62
     0
100
AcDbLine
 10
-31.02482604980469
 20
88.03334045410156
 30
0.0
 11
-31.02482604980469
 21
51.5233154296875
 31
0.0
  0
LINE
  5
1C3
330
4A
100
AcDbEntity
  8
0
  6
Continuous
 62
     0
100
AcDbLine
 10
-31.02482604980469
 20
51.5233154296875
 30
0.0
 11
-31.02482604980469
 21
47.52333068847656
 31
0.0
  0
LINE
  5
1C4
330
4A
100
AcDbEntity
  8
0
  6
Continuous
 62
     0
100
AcDbLine
 10
-28.79705810546875
 20
49.52337646484375
 30
0.0
 11
-20.61761474609375
 21
49.52337646484375
 31
0.0
  0
LINE
  5
1C5
330
4A
100
AcDbEntity
  8
0
  6
Continuous
 62
     0
100
AcDbLine
 10
-31.02482604980469
 20
44.53021240234375
 30
0.0
 11
-31.02482604980469
 21
17.52333068847656
 31
0.0
  0
LINE
  5
1C6
330
4A
100
AcDbEntity
  8
0
  6
Continuous
 62
     0
100
AcDbLine
 10
-2.024948120117188
 20
51.5233154296875
 30
0.0
 11
-2.024948120117188
 21
47.52333068847656
 31
0.0
  0
LINE
  5
1C7
330
4A
100
AcDbEntity
  8
0
  6
Continuous
 62
     0
100
AcDbLine
 10
-20.61761474609375
 20
51.5233154296875
 30
0.0
 11
-20.61761474609375
 21
47.52333068847656
 31
0.0
  0
LINE
  5
1C8
330
4A
100
AcDbEntity
  8
0
  6
Continuous
 62
     0
100
AcDbLine
 10
17.97499084472656
 20
51.5233154296875
 30
0.0
 11
17.97499084472656
 21
47.52333068847656
 31
0.0
  0
LINE
  5
1C9
330
4A
100
AcDbEntity
  8
0
  6
Continuous
 62
     0
100
AcDbLine
 10
-19.61761474609375
 20
46.52337646484375
 30
0.0
 11
-3.02496337890625
 21
46.52337646484375
 31
0.0
  0
LINE
  5
1CA
330
4A
100
AcDbEntity
  8
0
  6
Continuous
 62
     0
100
AcDbLine
 10
18.97500610351562
 20
46.52337646484375
 30
0.0
 11
45.01898193359375
 21
46.52337646484375
 31
0.0
  0
LINE
  5
1CB
330
4A
100
AcDbEntity
  8
0
  6
Continuous
 62
     0
100
AcDbLine
 10
-2.02496337890625
 20
49.52337646484375
 30
0.0
 11
17.97499084472656
 21
49.52337646484375
 31
0.0
  0
LINE
  5
1CC
330
4A
100
AcDbEntity
  8
0
  6
DASHED
 62
     0
100
AcDbLine
 10
-20.61761474609375
 20
49.52337646484375
 30
0.0
 11
-2.02496337890625
 21
49.52337646484375
 31
0.0
  0
LINE
  5
1CD
330
4A
100
AcDbEntity
  8
0
  6
DASHED
 62
     0
100
AcDbLine
 10
17.97499084472656
 20
49.52337646484375
 30
0.0
 11
44.104736328125
 21
49.52337646484375
 31
0.0
  0
LINE
  5
1CE
330
4A
100
AcDbEntity
  8
0
  6
Continuous
 62
     0
100
AcDbLine
 10
45.1170654296875
 20
34.52333068847656
 30
0.0
 11
52.41705322265625
 21
34.52333068847656
 31
0.0
  0
LINE
  5
1CF
330
4A
100
AcDbEntity
  8
0
  6
Continuous
 62
     0
100
AcDbLine
 10
45.1170654296875
 20
34.5233154296875
 30
0.0
 11
45.1170654296875
 21
17.52333068847656
 31
0.0
  0
LINE
  5
1D0
330
4A
100
AcDbEntity
  8
0
  6
Continuous
 62
     0
100
AcDbLine
 10
52.41705322265625
 20
49.5233154296875
 30
0.0
 11
52.41705322265625
 21
34.5233154296875
 31
0.0
  0
LINE
  5
1D1
330
4A
100
AcDbEntity
  8
0
  6
Continuous
 62
     0
100
AcDbLine
 10
51.58673095703125
 20
34.5233154296875
 30
0.0
 11
51.58673095703125
 21
17.52333068847656
 31
0.0
  0
LINE
  5
1D2
330
4A
100
AcDbEntity
  8
0
  6
Continuous
 62
     0
100
AcDbLine
 10
54.6170654296875
 20
170.6752319335938
 30
0.0
 11
54.6170654296875
 21
49.52337646484375
 31
0.0
  0
LINE
  5
1D3
330
4A
100
AcDbEntity
  8
0
  6
Continuous
 62
     0
100
AcDbLine
 10
52.41705322265625
 20
49.52337646484375
 30
0.0
 11
54.6170654296875
 21
49.52337646484375
 31
0.0
  0
LINE
  5
1D4
330
4A
100
AcDbEntity
  8
0
  6
Continuous
 62
     0
100
AcDbLine
 10
44.104736328125
 20
51.5233154296875
 30
0.0
 11
44.104736328125
 21
46.5233154296875
 31
0.0
  0
LINE
  5
1D5
330
4A
100
AcDbEntity
  8
0
  6
Continuous
 62
     0
100
AcDbLine
 10
45.615718581396
 20
49.52335440476432
 30
0.0
 11
45.01898079736632
 21
46.52335109332238
 31
0.0
  0
LINE
  5
1D6
330
4A
100
AcDbEntity
  8
0
  6
Continuous
 62
     0
100
AcDbLine
 10
47.31698608398438
 20
163.3751373291016
 30
0.0
 11
47.31698608398438
 21
51.52336120605469
 31
0.0
  0
LINE
  5
1D7
330
4A
100
AcDbEntity
  8
0
  6
Continuous
 62
     0
100
AcDbLine
 10
45.61572265625
 20
49.52337646484375
 30
0.0
 11
47.31698608398438
 21
49.52337646484375
 31
0.0
  0
LINE
  5
1D8
330
4A
100
AcDbEntity
  8
0
  6
Continuous
 62
     0
100
AcDbLine
 10
-53.7738037109375
 20
65.28436279296875
 30
0.0
 11
-53.7738037109375
 21
51.5233154296875
 31
0.0
  0
LINE
  5
1D9
330
4A
100
AcDbEntity
  8
0
  6
Continuous
 62
     0
100
AcDbLine
 10
-45.60505676269531
 20
73.45310974121094
 30
0.0
 11
-45.60505676269531
 21
51.63433837890625
 31
0.0
  0
LINE
  5
1DA
330
4A
100
AcDbEntity
  8
0
  6
Continuous
 62
     0
100
AcDbLine
 10
-45.60505676269531
 20
48.26152038574219
 30
0.0
 11
-45.60505676269531
 21
17.52333068847656
 31
0.0
  0
LINE
  5
1DB
330
4A
100
AcDbEntity
  8
0
  6
Continuous
 62
     0
100
AcDbLine
 10
42.42803955078125
 20
45.22598266601562
 30
0.0
 11
42.42803955078125
 21
17.52333068847656
 31
0.0
  0
LINE
  5
1DC
330
4A
100
AcDbEntity
  8
0
  6
Continuous
 62
     0
100
AcDbLine
 10
-53.7738037109375
 20
49.5233154296875
 30
0.0
 11
-53.7738037109375
 21
34.5233154296875
 31
0.0
  0
LINE
  5
1DD
330
4A
100
AcDbEntity
  8
0
  6
Continuous
 62
     0
100
AcDbLine
 10
47.31698608398438
 20
49.52337646484375
 30
0.0
 11
47.31698608398438
 21
34.5233154296875
 31
0.0
  0
LINE
  5
1DE
330
4A
100
AcDbEntity
  8
0
  6
Continuous
 62
     0
100
AcDbLine
 10
-53.77382251721408
 20
65.28437349870835
 30
0.0
 11
-31.02484275510349
 21
88.03334559043768
 31
0.0
  0
LINE
  5
1DF
330
4A
100
AcDbEntity
  8
0
  6
Continuous
 62
     0
100
AcDbLine
 10
-101.5348052978516
 20
51.52336120605469
 30
0.0
 11
-101.5348052978516
 21
175.4752807617188
 31
0.0
  0
LINE
  5
1E0
330
4A
100
AcDbEntity
  8
0
  6
Continuous
 62
     0
100
AcDbLine
 10
-67.53488159179688
 20
51.52339172363281
 30
0.0
 11
-101.5348663330078
 21
51.52339172363281
 31
0.0
  0
LINE
  5
1E1
330
4A
100
AcDbEntity
  8
0
  6
Continuous
 62
     0
100
AcDbLine
 10
56.41705322265625
 20
175.4753112792969
 30
0.0
 11
-101.5348205566406
 21
175.4753112792969
 31
0.0
  0
LINE
  5
1E2
330
4A
100
AcDbEntity
  8
0
  6
Continuous
 62
     0
100
AcDbLine
 10
-69.53477478027344
 20
53.32331848144531
 30
0.0
 11
-69.53477478027344
 21
55.52333068847656
 31
0.0
  0
LINE
  5
1E3
330
4A
100
AcDbEntity
  8
0
  6
Continuous
 62
     0
100
AcDbLine
 10
-84.53482055664062
 20
55.52334594726562
 30
0.0
 11
-84.53482055664062
 21
66.07331848144531
 31
0.0
  0
LINE
  5
1E4
330
4A
100
AcDbEntity
  8
0
  6
Continuous
 62
     0
100
AcDbLine
 10
-69.53488159179688
 20
55.52340698242188
 30
0.0
 11
-84.53486633300781
 21
55.52340698242188
 31
0.0
  0
LINE
  5
1E5
330
4A
100
AcDbEntity
  8
0
  6
Continuous
 62
     0
100
AcDbLine
 10
-84.53486633300781
 20
63.82337951660156
 30
0.0
 11
-101.5348510742188
 21
63.82337951660156
 31
0.0
  0
LINE
  5
1E6
330
4A
100
AcDbEntity
  8
0
  6
Continuous
 62
     0
100
AcDbLine
 10
-84.53486633300781
 20
56.82337951660156
 30
0.0
 11
-101.5348663330078
 21
56.82337951660156
 31
0.0
  0
LINE
  5
1E7
330
4A
100
AcDbEntity
  8
0
  6
Continuous
 62
     0
100
AcDbLine
 10
-84.53486633300781
 20
66.0733642578125
 30
0.0
 11
-101.5348510742188
 21
66.0733642578125
 31
0.0
  0
LINE
  5
1E8
330
4A
100
AcDbEntity
  8
0
  6
Continuous
 62
     0
100
AcDbLine
 10
-65.73489379882812
 20
53.32339477539062
 30
0.0
 11
-69.53483581542969
 21
53.32339477539062
 31
0.0
  0
LINE
  5
1E9
330
4A
100
AcDbEntity
  8
0
  6
Continuous
 62
     0
100
AcDbLine
 10
-55.5958251953125
 20
63.46244812011719
 30
0.0
 11
-84.53486633300781
 21
63.46244812011719
 31
0.0
  0
LINE
  5
1EA
330
4A
100
AcDbEntity
  8
0
  6
Continuous
 62
     0
100
AcDbLine
 10
-67.53488159179688
 20
70.20915222167969
 30
0.0
 11
-72.53486633300781
 21
70.20915222167969
 31
0.0
  0
LINE
  5
1EB
330
4A
100
AcDbEntity
  8
0
  6
Continuous
 62
     0
100
AcDbLine
 10
-67.53488159179688
 20
64.08583068847656
 30
0.0
 11
-69.53486633300781
 21
64.08583068847656
 31
0.0
  0
LINE
  5
1EC
330
4A
100
AcDbEntity
  8
0
  6
Continuous
 62
     0
100
AcDbLine
 10
-67.53477478027344
 20
64.08575439453125
 30
0.0
 11
-67.53477478027344
 21
166.3751678466797
 31
0.0
  0
LINE
  5
1ED
330
4A
100
AcDbEntity
  8
0
  6
Continuous
 62
     0
100
AcDbLine
 10
-69.53477478027344
 20
64.08575439453125
 30
0.0
 11
-69.53477478027344
 21
68.66592407226562
 31
0.0
  0
LINE
  5
1EE
330
4A
100
AcDbEntity
  8
0
  6
Continuous
 62
     0
100
AcDbLine
 10
-72.53477478027344
 20
69.26591491699219
 30
0.0
 11
-72.53477478027344
 21
70.90925598144531
 31
0.0
  0
LINE
  5
1EF
330
4A
100
AcDbEntity
  8
0
  6
Continuous
 62
     0
100
AcDbLine
 10
-67.53488159179688
 20
70.9093017578125
 30
0.0
 11
-72.53486633300781
 21
70.9093017578125
 31
0.0
  0
LINE
  5
1F0
330
4A
100
AcDbEntity
  8
0
  6
Continuous
 62
     0
100
AcDbLine
 10
-69.53477478027344
 20
70.79920959472656
 30
0.0
 11
-69.53477478027344
 21
74.94731140136719
 31
0.0
  0
LINE
  5
1F1
330
4A
100
AcDbEntity
  8
0
  6
Continuous
 62
     0
100
AcDbLine
 10
-67.53488159179688
 20
76.85163879394531
 30
0.0
 11
-72.53486633300781
 21
76.85163879394531
 31
0.0
  0
LINE
  5
1F2
330
4A
100
AcDbEntity
  8
0
  6
Continuous
 62
     0
100
AcDbLine
 10
-69.53484321814494
 20
74.94729964536805
 30
0.0
 11
-72.53485589502509
 21
76.18995096796581
 31
0.0
  0
LINE
  5
1F3
330
4A
100
AcDbEntity
  8
0
  6
DASHED
 62
     0
100
AcDbLine
 10
-69.53477478027344
 20
74.94731140136719
 30
0.0
 11
-69.53477478027344
 21
88.03337097167969
 31
0.0
  0
LINE
  5
1F4
330
4A
100
AcDbEntity
  8
0
  6
Continuous
 62
     0
100
AcDbLine
 10
-72.53477478027344
 20
76.18994140625
 30
0.0
 11
-72.53477478027344
 21
87.03335571289062
 31
0.0
  0
LINE
  5
1F5
330
4A
100
AcDbEntity
  8
0
  6
Continuous
 62
     0
100
AcDbLine
 10
-31.02484130859375
 20
88.03343200683594
 30
0.0
 11
-67.53488159179688
 21
88.03343200683594
 31
0.0
  0
LINE
  5
1F6
330
4A
100
AcDbEntity
  8
0
  6
Continuous
 62
     0
100
AcDbLine
 10
-67.53488159179688
 20
88.03343200683594
 30
0.0
 11
-71.53485107421875
 21
88.03343200683594
 31
0.0
  0
LINE
  5
1F7
330
4A
100
AcDbEntity
  8
0
  6
Continuous
 62
     0
100
AcDbLine
 10
-69.53477478027344
 20
90.26113891601562
 30
0.0
 11
-69.53477478027344
 21
98.4405746459961
 31
0.0
  0
LINE
  5
1F8
330
4A
100
AcDbEntity
  8
0
  6
Continuous
 62
     0
100
AcDbLine
 10
-74.52796936035156
 20
88.03343200683594
 30
0.0
 11
-101.5348510742188
 21
88.03343200683594
 31
0.0
  0
LINE
  5
1F9
330
4A
100
AcDbEntity
  8
0
  6
Continuous
 62
     0
100
AcDbLine
 10
-67.53486633300781
 20
117.0332946777344
 30
0.0
 11
-71.53485107421875
 21
117.0332946777344
 31
0.0
  0
LINE
  5
1FA
330
4A
100
AcDbEntity
  8
0
  6
Continuous
 62
     0
100
AcDbLine
 10
-67.53486633300781
 20
98.44064331054688
 30
0.0
 11
-71.53485107421875
 21
98.44064331054688
 31
0.0
  0
LINE
  5
1FB
330
4A
100
AcDbEntity
  8
0
  6
Continuous
 62
     0
100
AcDbLine
 10
-67.53485107421875
 20
137.0332336425781
 30
0.0
 11
-71.53483581542969
 21
137.0332336425781
 31
0.0
  0
LINE
  5
1FC
330
4A
100
AcDbEntity
  8
0
  6
Continuous
 62
     0
100
AcDbLine
 10
-72.53477478027344
 20
99.44058227539062
 30
0.0
 11
-72.53477478027344
 21
116.0332336425781
 31
0.0
  0
LINE
  5
1FD
330
4A
100
AcDbEntity
  8
0
  6
Continuous
 62
     0
100
AcDbLine
 10
-72.53477478027344
 20
138.033203125
 30
0.0
 11
-72.53477478027344
 21
164.0771789550781
 31
0.0
  0
LINE
  5
1FE
330
4A
100
AcDbEntity
  8
0
  6
Continuous
 62
     0
100
AcDbLine
 10
-69.53477478027344
 20
117.0332412719727
 30
0.0
 11
-69.53477478027344
 21
137.0331878662109
 31
0.0
  0
LINE
  5
1FF
330
4A
100
AcDbEntity
  8
0
  6
DASHED
 62
     0
100
AcDbLine
 10
-69.53477478027344
 20
98.4405746459961
 30
0.0
 11
-69.53477478027344
 21
117.0332412719727
 31
0.0
  0
LINE
  5
200
330
4A
100
AcDbEntity
  8
0
  6
DASHED
 62
     0
100
AcDbLine
 10
-69.53477478027344
 20
137.0331878662109
 30
0.0
 11
-69.53477478027344
 21
163.1629333496094
 31
0.0
  0
LINE
  5
201
330
4A
100
AcDbEntity
  8
0
  6
Continuous
 62
     0
100
AcDbLine
 10
-84.53482055664062
 20
164.1752624511719
 30
0.0
 11
-84.53482055664062
 21
171.4752655029297
 31
0.0
  0
LINE
  5
202
330
4A
100
AcDbEntity
  8
0
  6
Continuous
 62
     0
100
AcDbLine
 10
-84.53483581542969
 20
164.17529296875
 30
0.0
 11
-101.5348205566406
 21
164.17529296875
 31
0.0
  0
LINE
  5
203
330
4A
100
AcDbEntity
  8
0
  6
Continuous
 62
     0
100
AcDbLine
 10
-69.53483581542969
 20
171.4752960205078
 30
0.0
 11
-84.53483581542969
 21
171.4752960205078
 31
0.0
  0
LINE
  5
204
330
4A
100
AcDbEntity
  8
0
  6
Continuous
 62
     0
100
AcDbLine
 10
-84.53483581542969
 20
170.6449890136719
 30
0.0
 11
-101.5348205566406
 21
170.6449890136719
 31
0.0
  0
LINE
  5
205
330
4A
100
AcDbEntity
  8
0
  6
Continuous
 62
     0
100
AcDbLine
 10
51.6170654296875
 20
173.6753082275391
 30
0.0
 11
-69.5347900390625
 21
173.6753082275391
 31
0.0
  0
LINE
  5
206
330
4A
100
AcDbEntity
  8
0
  6
Continuous
 62
     0
100
AcDbLine
 10
-69.53477478027344
 20
171.4752502441406
 30
0.0
 11
-69.53477478027344
 21
173.6752624511719
 31
0.0
  0
LINE
  5
207
330
4A
100
AcDbEntity
  8
0
  6
Continuous
 62
     0
100
AcDbLine
 10
-67.53485107421875
 20
163.1629791259766
 30
0.0
 11
-72.53483581542969
 21
163.1629791259766
 31
0.0
  0
LINE
  5
208
330
4A
100
AcDbEntity
  8
0
  6
Continuous
 62
     0
100
AcDbLine
 10
-69.53480173802113
 20
164.6739420974743
 30
0.0
 11
-72.53482022952593
 21
164.0772024148027
 31
0.0
  0
LINE
  5
209
330
4A
100
AcDbEntity
  8
0
  6
Continuous
 62
     0
100
AcDbLine
 10
44.31698608398438
 20
166.3752136230469
 30
0.0
 11
-67.5347900390625
 21
166.3752136230469
 31
0.0
  0
LINE
  5
20A
330
4A
100
AcDbEntity
  8
0
  6
Continuous
 62
     0
100
AcDbLine
 10
-69.53477478027344
 20
164.6739196777344
 30
0.0
 11
-69.53477478027344
 21
166.3751678466797
 31
0.0
  0
LINE
  5
20B
330
4A
100
AcDbEntity
  8
0
  6
Continuous
 62
     0
100
AcDbLine
 10
-53.77383422851562
 20
65.28445434570312
 30
0.0
 11
-67.53488159179688
 21
65.28445434570312
 31
0.0
  0
LINE
  5
20C
330
4A
100
AcDbEntity
  8
0
  6
Continuous
 62
     0
100
AcDbLine
 10
-45.60507202148438
 20
73.45318603515625
 30
0.0
 11
-67.42384338378906
 21
73.45318603515625
 31
0.0
  0
LINE
  5
20D
330
4A
100
AcDbEntity
  8
0
  6
Continuous
 62
     0
100
AcDbLine
 10
-70.79667663574219
 20
73.45318603515625
 30
0.0
 11
-101.5348510742188
 21
73.45318603515625
 31
0.0
  0
LINE
  5
20E
330
4A
100
AcDbEntity
  8
0
  6
Continuous
 62
     0
100
AcDbLine
 10
-73.83218383789062
 20
161.4862823486328
 30
0.0
 11
-101.5348205566406
 21
161.4862823486328
 31
0.0
  0
LINE
  5
20F
330
4A
100
AcDbEntity
  8
0
  6
Continuous
 62
     0
100
AcDbLine
 10
-69.53486633300781
 20
65.28445434570312
 30
0.0
 11
-84.53486633300781
 21
65.28445434570312
 31
0.0
  0
LINE
  5
210
330
4A
100
AcDbEntity
  8
0
  6
Continuous
 62
     0
100
AcDbLine
 10
-69.5347900390625
 20
166.3752136230469
 30
0.0
 11
-84.53483581542969
 21
166.3752136230469
 31
0.0
  0
LINE
  5
211
330
4A
100
AcDbEntity
  8
0
  6
Continuous
 62
     0
100
AcDbLine
 10
-101.5348815917969
 20
4.465545654296875
 30
0.0
 11
-101.5348815917969
 21
-74.73883056640625
 31
0.0
  0
LINE
  5
212
330
4A
100
AcDbEntity
  8
0
  6
Continuous
 62
     0
100
AcDbLine
 10
-97.53486633300781
 20
-75.53445434570312
 30
0.0
 11
-29.02496337890625
 21
-75.53445434570312
 31
0.0
  0
LINE
  5
213
330
4A
100
AcDbEntity
  8
0
  6
Continuous
 62
     0
100
AcDbLine
 10
-97.53486633300781
 20
2.765548706054688
 30
0.0
 11
-67.53488159179688
 21
2.765548706054688
 31
0.0
  0
LINE
  5
214
330
4A
100
AcDbEntity
  8
0
  6
Continuous
 62
     0
100
AcDbLine
 10
-97.53486633300781
 20
-16.33445739746094
 30
0.0
 11
-67.53488159179688
 21
-16.33445739746094
 31
0.0
  0
LINE
  5
215
330
4A
100
AcDbEntity
  8
0
  6
Continuous
 62
     0
100
AcDbLine
 10
-97.53486633300781
 20
-32.29824829101562
 30
0.0
 11
-55.48735046386719
 21
-32.29824829101562
 31
0.0
  0
LINE
  5
216
330
4A
100
AcDbEntity
  8
0
  6
Continuous
 62
     0
100
AcDbLine
 10
-97.53486633300781
 20
-67.53445434570312
 30
0.0
 11
-31.72891235351562
 21
-67.53445434570312
 31
0.0
  0
LINE
  5
217
330
4A
100
AcDbEntity
  8
0
  6
Continuous
 62
     0
100
AcDbLine
 10
-48.43754577636719
 20
-22.23443603515625
 30
0.0
 11
44.57077026367188
 21
-22.23443603515625
 31
0.0
  0
LINE
  5
218
330
4A
100
AcDbEntity
  8
0
  6
Continuous
 62
     0
100
AcDbLine
 10
-42.15432739257812
 20
-35.534423828125
 30
0.0
 11
44.104736328125
 21
-35.534423828125
 31
0.0
  0
LINE
  5
219
330
4A
100
AcDbEntity
  8
0
  6
Continuous
 62
     0
100
AcDbLine
 10
-84.53488159179688
 20
4.465545654296875
 30
0.0
 11
-84.53488159179688
 21
2.76556396484375
 31
0.0
  0
LINE
  5
21A
330
4A
100
AcDbEntity
  8
0
  6
Continuous
 62
     0
100
AcDbLine
 10
-101.5348663330078
 20
4.465545654296875
 30
0.0
 11
-84.53488159179688
 21
4.465545654296875
 31
0.0
  0
LINE
  5
21B
330
4A
100
AcDbEntity
  8
0
  6
Continuous
 62
     0
100
AcDbLine
 10
-97.53486633300781
 20
2.76556396484375
 30
0.0
 11
-97.53486633300781
 21
-75.53445434570312
 31
0.0
  0
LINE
  5
21C
330
4A
100
AcDbEntity
  8
0
  6
Continuous
 62
     0
100
AcDbLine
 10
-97.53485567064556
 20
2.765528816655863
 30
0.0
 11
-101.534868154614
 21
1.969879895126162
 31
0.0
  0
LINE
  5
21D
330
4A
100
AcDbEntity
  8
0
  6
Continuous
 62
     0
100
AcDbLine
 10
-101.5348799709461
 20
-15.53877935136823
 30
0.0
 11
-97.53486140858043
 21
-16.33443682171202
 31
0.0
  0
LINE
  5
21E
330
4A
100
AcDbEntity
  8
0
  6
Continuous
 62
     0
100
AcDbLine
 10
-101.5348831533308
 20
-31.50260844292
 30
0.0
 11
-97.53486448868573
 21
-32.29826539907324
 31
0.0
  0
LINE
  5
21F
330
4A
100
AcDbEntity
  8
0
  6
Continuous
 62
     0
100
AcDbLine
 10
-101.5348706943997
 20
-66.73879585651498
 30
0.0
 11
-97.53486614198047
 21
-67.53444554565435
 31
0.0
  0
LINE
  5
220
330
4A
100
AcDbEntity
  8
0
  6
Continuous
 62
     0
100
AcDbLine
 10
-101.5348858749299
 20
-74.738860959687
 30
0.0
 11
-97.534881415537
 21
-75.53451111650176
 31
0.0
  0
LINE
  5
221
330
4A
100
AcDbEntity
  8
0
  6
Continuous
 62
     0
100
AcDbLine
 10
-97.53486633300781
 20
-34.85028076171875
 30
0.0
 11
-47.23348999023438
 21
-34.85028076171875
 31
0.0
  0
LINE
  5
222
330
4A
100
AcDbEntity
  8
0
  6
Continuous
 62
     0
100
AcDbLine
 10
-101.5348596653458
 20
-34.05460820582169
 30
0.0
 11
-97.53485503152854
 21
-34.85025748574506
 31
0.0
  0
ARC
  5
223
330
4A
100
AcDbEntity
  8
0
  6
Continuous
 62
     0
100
AcDbCircle
 10
54.61703491210938
 20
-35.534423828125
 30
0.0
 40
1.800000071525574
100
AcDbArc
 50
270.0000179860893
 51
0.0
  0
ARC
  5
224
330
4A
100
AcDbEntity
  8
0
  6
Continuous
 62
     0
100
AcDbCircle
 10
47.11703491210938
 20
-23.03446960449219
 30
0.0
 40
2.0
100
AcDbArc
 50
89.99998201391067
 51
255.5224585109195
  0
ARC
  5
225
330
4A
100
AcDbEntity
  8
0
  6
Continuous
 62
     0
100
AcDbCircle
 10
-31.72891235351562
 20
-53.73446655273438
 30
0.0
 40
12.0
100
AcDbArc
 50
184.9999939918165
 51
270.0000179860893
  0
ARC
  5
226
330
4A
100
AcDbEntity
  8
0
  6
Continuous
 62
     0
100
AcDbCircle
 10
-29.02494812011719
 20
-71.73446655273438
 30
0.0
 40
2.0
100
AcDbArc
 50
179.9999813306653
 51
270.0000179860893
  0
ARC
  5
227
330
4A
100
AcDbEntity
  8
0
  6
Continuous
 62
     0
100
AcDbCircle
 10
36.64434814453125
 20
-65.73446655273438
 30
0.0
 40
8.0
100
AcDbArc
 50
270.0000179860893
 51
355.0000236242288
  0
ARC
  5
228
330
4A
100
AcDbEntity
  8
0
  6
Continuous
 62
     0
100
AcDbCircle
 10
36.64434814453125
 20
-65.73446655273438
 30
0.0
 40
9.80000114440918
100
AcDbArc
 50
270.0000179860893
 51
355.0000236242288
  0
ARC
  5
229
330
4A
100
AcDbEntity
  8
0
  6
Continuous
 62
     0
100
AcDbCircle
 10
-29.02494812011719
 20
-71.73446655273438
 30
0.0
 40
3.799999952316284
100
AcDbArc
 50
179.9999813306653
 51
270.0000179860893
  0
ARC
  5
22A
330
4A
100
AcDbEntity
  8
0
  6
Continuous
 62
     0
100
AcDbCircle
 10
-31.72891235351562
 20
-53.73446655273438
 30
0.0
 40
13.80000114440918
100
AcDbArc
 50
184.9999939918165
 51
265.444445734231
  0
ARC
  5
22B
330
4A
100
AcDbEntity
  8
0
  6
Continuous
 62
     0
100
AcDbCircle
 10
-55.23489379882812
 20
2.215545654296875
 30
0.0
 40
2.25
100
AcDbArc
 50
0.0
 51
89.99998201391067
  0
ARC
  5
22C
330
4A
100
AcDbEntity
  8
0
  6
Continuous
 62
     0
100
AcDbCircle
 10
-55.23489379882812
 20
2.215545654296875
 30
0.0
 40
2.25
100
AcDbArc
 50
270.0000179860893
 51
0.0
  0
ARC
  5
22D
330
4A
100
AcDbEntity
  8
0
  6
Continuous
 62
     0
100
AcDbCircle
 10
-65.73489379882812
 20
0.965530395507812
 30
0.0
 40
1.800000071525574
100
AcDbArc
 50
89.99998201391067
 51
179.9999640278213
  0
ARC
  5
22E
330
4A
100
AcDbEntity
  8
0
  6
Continuous
 62
     0
100
AcDbCircle
 10
-65.73489379882812
 20
-14.53443908691406
 30
0.0
 40
1.800000071525574
100
AcDbArc
 50
179.9999813306653
 51
270.0000179860893
  0
ARC
  5
22F
330
4A
100
AcDbEntity
  8
0
  6
Continuous
 62
     0
100
AcDbCircle
 10
-60.53488159179688
 20
2.765548706054688
 30
0.0
 40
1.700000166893005
100
AcDbArc
 50
89.99998201391067
 51
179.9999640278213
  0
ARC
  5
230
330
4A
100
AcDbEntity
  8
0
  6
Continuous
 62
     0
100
AcDbCircle
 10
-55.69306945800781
 20
-15.03445434570312
 30
0.0
 40
0.5
100
AcDbArc
 50
5.000034859265956
 51
89.99998201391067
  0
ARC
  5
231
330
4A
100
AcDbEntity
  8
0
  6
Continuous
 62
     0
100
AcDbCircle
 10
-65.43487548828125
 20
-14.23446655273438
 30
0.0
 40
0.300000011920929
100
AcDbArc
 50
179.9999813306653
 51
270.0000179860893
  0
ARC
  5
232
330
4A
100
AcDbEntity
  8
0
  6
Continuous
 62
     0
100
AcDbCircle
 10
-54.98953247070312
 20
-32.25454711914062
 30
0.0
 40
0.5
100
AcDbArc
 50
185.0000213125732
 51
254.9999731724467
  0
ARC
  5
233
330
4A
100
AcDbEntity
  8
0
  6
Continuous
 62
     0
100
AcDbCircle
 10
-31.72891235351562
 20
-53.73446655273438
 30
0.0
 40
10.39999961853027
100
AcDbArc
 50
184.9999939918165
 51
268.1950858564001
  0
ARC
  5
234
330
4A
100
AcDbEntity
  8
0
  6
Continuous
 62
     0
100
AcDbCircle
 10
-31.72891235351562
 20
-53.73446655273438
 30
0.0
 40
8.799999237060547
100
AcDbArc
 50
184.9999939918165
 51
265.4118452413225
  0
ARC
  5
235
330
4A
100
AcDbEntity
  8
0
  6
Continuous
 62
     0
100
AcDbCircle
 10
36.64434814453125
 20
-65.73446655273438
 30
0.0
 40
6.40000057220459
100
AcDbArc
 50
270.0000179860893
 51
355.0000236242288
  0
ARC
  5
236
330
4A
100
AcDbEntity
  8
0
  6
Continuous
 62
     0
100
AcDbCircle
 10
36.64434814453125
 20
-65.73446655273438
 30
0.0
 40
4.800000190734863
100
AcDbArc
 50
270.0000179860893
 51
355.0000236242288
  0
ARC
  5
237
330
4A
100
AcDbEntity
  8
0
  6
Continuous
 62
     0
100
AcDbCircle
 10
54.61703491210938
 20
-24.03445434570312
 30
0.0
 40
1.800000071525574
100
AcDbArc
 50
0.0
 51
89.99998201391067
  0
ARC
  5
238
330
4A
100
AcDbEntity
  8
0
  6
Continuous
 62
     0
100
AcDbCircle
 10
50.11703491210938
 20
-22.53445434570312
 30
0.0
 40
1.5
100
AcDbArc
 50
11.53705608840248
 51
89.99998201391067
  0
ARC
  5
239
330
4A
100
AcDbEntity
  8
0
  6
Continuous
 62
     0
100
AcDbCircle
 10
44.61962890625
 20
-36.53445434570312
 30
0.0
 40
1.0
100
AcDbArc
 50
355.0001064402725
 51
89.99998201391067
  0
ARC
  5
23A
330
4A
100
AcDbEntity
  8
0
  6
Continuous
 62
     0
100
AcDbCircle
 10
16.97503662109375
 20
-71.13442993164062
 30
0.0
 40
1.0
100
AcDbArc
 50
270.0000179860893
 51
0.0
  0
ARC
  5
23B
330
4A
100
AcDbEntity
  8
0
  6
Continuous
 62
     0
100
AcDbCircle
 10
18.97505187988281
 20
-71.13442993164062
 30
0.0
 40
1.0
100
AcDbArc
 50
179.9999813306653
 51
270.0000179860893
  0
ARC
  5
23C
330
4A
100
AcDbEntity
  8
0
  6
Continuous
 62
     0
100
AcDbCircle
 10
-3.024978637695312
 20
-71.13442993164062
 30
0.0
 40
1.0
100
AcDbArc
 50
270.0000179860893
 51
0.0
  0
ARC
  5
23D
330
4A
100
AcDbEntity
  8
0
  6
Continuous
 62
     0
100
AcDbCircle
 10
-1.02496337890625
 20
-71.13442993164062
 30
0.0
 40
1.0
100
AcDbArc
 50
179.9999813306653
 51
270.0000179860893
  0
ARC
  5
23E
330
4A
100
AcDbEntity
  8
0
  6
Continuous
 62
     0
100
AcDbCircle
 10
-19.02496337890625
 20
-71.13442993164062
 30
0.0
 40
1.0
100
AcDbArc
 50
179.9999813306653
 51
270.0000179860893
  0
ARC
  5
23F
330
4A
100
AcDbEntity
  8
0
  6
Continuous
 62
     0
100
AcDbCircle
 10
-31.52497863769531
 20
-66.23443603515625
 30
0.0
 40
0.5
100
AcDbArc
 50
0.0
 51
89.99998201391067
  0
ARC
  5
240
330
4A
100
AcDbEntity
  8
0
  6
Continuous
 62
     0
100
AcDbCircle
 10
-32.02494812011719
 20
-63.12979125976562
 30
0.0
 40
1.0
100
AcDbArc
 50
268.195201969616
 51
0.0
  0
ARC
  5
241
330
4A
100
AcDbEntity
  8
0
  6
Continuous
 62
     0
100
AcDbCircle
 10
-42.72183227539062
 20
-35.93789672851562
 30
0.0
 40
1.0
100
AcDbArc
 50
89.99998201391067
 51
185.0000723116208
  0
ARC
  5
242
330
4A
100
AcDbEntity
  8
0
  6
Continuous
 62
     0
100
AcDbCircle
 10
-42.89678955078125
 20
-33.93789672851562
 30
0.0
 40
1.0
100
AcDbArc
 50
184.9999530106815
 51
270.0000179860893
  0
ARC
  5
243
330
4A
100
AcDbEntity
  8
0
  6
Continuous
 62
     0
100
AcDbCircle
 10
-48.83897399902344
 20
-24.53446960449219
 30
0.0
 40
1.0
100
AcDbArc
 50
185.0001715767349
 51
270.0000179860893
  0
ARC
  5
244
330
4A
100
AcDbEntity
  8
0
  6
Continuous
 62
     0
100
AcDbCircle
 10
-48.66401672363281
 20
-26.53443908691406
 30
0.0
 40
1.0
100
AcDbArc
 50
89.99998201391067
 51
185.0000723116208
  0
ARC
  5
245
330
4A
100
AcDbEntity
  8
0
  6
Continuous
 62
     0
100
AcDbCircle
 10
-49.36393737792969
 20
-18.53446960449219
 30
0.0
 40
1.0
100
AcDbArc
 50
89.99998201391067
 51
185.0001542738909
  0
ARC
  5
246
330
4A
100
AcDbEntity
  8
0
  6
Continuous
 62
     0
100
AcDbCircle
 10
-32.02484130859375
 20
47.52339172363281
 30
0.0
 40
1.0
100
AcDbArc
 50
270.0000179860893
 51
0.0
  0
ARC
  5
247
330
4A
100
AcDbEntity
  8
0
  6
Continuous
 62
     0
100
AcDbCircle
 10
-19.61761474609375
 20
47.52339172363281
 30
0.0
 40
1.0
100
AcDbArc
 50
179.9999813306653
 51
270.0000179860893
  0
ARC
  5
248
330
4A
100
AcDbEntity
  8
0
  6
Continuous
 62
     0
100
AcDbCircle
 10
-3.02496337890625
 20
47.52339172363281
 30
0.0
 40
1.0
100
AcDbArc
 50
270.0000179860893
 51
0.0
  0
ARC
  5
249
330
4A
100
AcDbEntity
  8
0
  6
Continuous
 62
     0
100
AcDbCircle
 10
18.97500610351562
 20
47.52339172363281
 30
0.0
 40
1.0
100
AcDbArc
 50
179.9999813306653
 51
270.0000179860893
  0
ARC
  5
24A
330
4A
100
AcDbEntity
  8
0
  6
Continuous
 62
     0
100
AcDbCircle
 10
-71.53480529785156
 20
87.03335571289062
 30
0.0
 40
1.0
100
AcDbArc
 50
89.9999273723973
 51
179.999909386308
  0
ARC
  5
24B
330
4A
100
AcDbEntity
  8
0
  6
Continuous
 62
     0
100
AcDbCircle
 10
-71.5347900390625
 20
99.44058227539062
 30
0.0
 40
1.0
100
AcDbArc
 50
179.999909386308
 51
269.999946041732
  0
ARC
  5
24C
330
4A
100
AcDbEntity
  8
0
  6
Continuous
 62
     0
100
AcDbCircle
 10
-71.5347900390625
 20
116.0332336425781
 30
0.0
 40
1.0
100
AcDbArc
 50
89.9999273723973
 51
179.999909386308
  0
ARC
  5
24D
330
4A
100
AcDbEntity
  8
0
  6
Continuous
 62
     0
100
AcDbCircle
 10
-71.5347900390625
 20
138.033203125
 30
0.0
 40
1.0
100
AcDbArc
 50
179.999909386308
 51
269.999946041732
  0
ARC
  5
24E
330
4A
100
AcDbEntity
  8
0
  6
Continuous
 62
     0
100
AcDbCircle
 10
44.31698608398438
 20
163.3751373291016
 30
0.0
 40
3.0
100
AcDbArc
 50
0.0
 51
89.99998201391067
  0
ARC
  5
24F
330
4A
100
AcDbEntity
  8
0
  6
Continuous
 62
     0
100
AcDbCircle
 10
51.6170654296875
 20
170.6752319335938
 30
0.0
 40
3.0
100
AcDbArc
 50
0.0
 51
89.99998201391067
  0
LWPOLYLINE
  5
250
330
4A
100
AcDbEntity
  8
0
  6
Continuous
 62
     0
100
AcDbPolyline
 90
        2
 70
     0
 43
0.0
 10
-49.79226684570312
 20
46.52337646484375
 10
-50.39228820800781
 20
49.52337646484375
  0
LWPOLYLINE
  5
251
330
4A
100
AcDbEntity
  8
0
  6
Continuous
 62
     0
100
AcDbPolyline
 90
        2
 70
     0
 43
0.0
 10
-72.53482055664062
 20
69.26593017578125
 10
-69.53482055664062
 20
68.66592407226562
  0
DIMENSION
  5
252
330
4A
100
AcDbEntity
  8
0
 62
     0
100
AcDbDimension
  2
*D9
 10
-80.10571179199216
 20
-73.73443603515625
 30
0.0
 11
-80.10571179199218
 21
-37.77127783203125
 31
0.0
 70
   160
 71
     5
 42
74.6999969482422
  3
ISO-25
100
AcDbAlignedDimension
 13
-65.73492431640625
 23
0.965530395507812
 33
0.0
 14
-42.02500915527344
 24
-73.73443603515625
 34
0.0
 50
90.00000000000001
100
AcDbRotatedDimension
1001
ACAD
1000
DSTYLE
1002
{
1070
   178
1070
     1
1070
   147
1040
0.800000011920929
1070
    77
1070
     1
1070
    74
1070
     0
1070
    73
1070
     0
1070
    42
1040
2.54
1070
    44
1040
4.500015258789062
1070
    76
1070
     0
1070
    75
1070
     0
1070
   279
1070
     0
1070
   271
1070
     1
1070
   144
1040
1.000000408535366
1070
   278
1070
    46
1070
   173
1070
     1
1070
    41
1040
3.0
1070
   140
1040
3.200000047683716
1070
   344
1005
134
1070
   343
1005
134
1002
}
  0
DIMENSION
  5
25F
330
4A
100
AcDbEntity
  8
0
 62
     0
100
AcDbDimension
  2
*D10
 10
43.97500610351561
 20
-96.55258886718751
 30
0.0
 11
-1.644965576171875
 21
-96.5525888671875
 31
0.0
 70
   160
 71
     5
 42
86.0
  3
ISO-25
100
AcDbAlignedDimension
 13
-42.02497863769531
 23
-73.73446655273438
 33
0.0
 14
43.97500610351562
 24
-73.73446655273438
 34
0.0
 50
180.0
100
AcDbRotatedDimension
1001
ACAD
1000
DSTYLE
1002
{
1070
   178
1070
     1
1070
   147
1040
0.800000011920929
1070
    77
1070
     1
1070
    74
1070
     0
1070
    73
1070
     0
1070
    42
1040
2.54
1070
    44
1040
4.5
1070
    76
1070
     0
1070
    75
1070
     0
1070
   279
1070
     0
1070
   271
1070
     0
1070
   144
1040
1.000000177427811
1070
   278
1070
    46
1070
   173
1070
     1
1070
    41
1040
3.0
1070
   140
1040
3.200000047683716
1070
   344
1005
134
1070
   343
1005
134
1002
}
  0
DIMENSION
  5
26D
330
4A
100
AcDbEntity
  8
0
 62
     0
100
AcDbDimension
  2
*D11
 10
86.64153344726564
 20
-73.73443603515625
 30
0.0
 11
86.64153344726563
 21
-47.92020361328125
 31
0.0
 70
   160
 71
     5
 42
49.70000457763672
  3
ISO-25
100
AcDbAlignedDimension
 13
54.61703491210938
 23
-24.03445434570312
 33
0.0
 14
43.97500610351562
 24
-73.73443603515625
 34
0.0
 50
90.00000000000001
100
AcDbRotatedDimension
1001
ACAD
1000
DSTYLE
1002
{
1070
   178
1070
     1
1070
   147
1040
0.800000011920929
1070
    77
1070
     1
1070
    74
1070
     0
1070
    73
1070
     0
1070
    42
1040
2.54
1070
    44
1040
4.5
1070
    76
1070
     0
1070
    75
1070
     0
1070
   279
1070
     0
1070
   271
1070
     1
1070
   144
1040
1.000000460527003
1070
   278
1070
    46
1070
   173
1070
     1
1070
    41
1040
3.0
1070
   140
1040
3.200000047683716
1070
   344
1005
134
1070
   343
1005
134
1002
}
  0
DIMENSION
  5
27A
330
4A
100
AcDbEntity
  8
0
 62
     0
100
AcDbDimension
  2
*D12
 10
86.64153344726566
 20
17.52333068847656
 30
0.0
 11
86.64153344726563
 21
97.22882897949219
 31
0.0
 70
   160
  1
160
 71
     5
 42
157.9518890380859
  3
ISO-25
100
AcDbAlignedDimension
 13
56.41708374023438
 23
175.4752197265625
 33
0.0
 14
56.41708374023438
 24
17.52333068847656
 34
0.0
 50
90.00000000000001
100
AcDbRotatedDimension
1001
ACAD
1000
DSTYLE
1002
{
1070
   178
1070
     1
1070
   147
1040
0.800000011920929
1070
    77
1070
     1
1070
    74
1070
     0
1070
    73
1070
     0
1070
    42
1040
2.54
1070
    44
1040
4.5
1070
    76
1070
     0
1070
    75
1070
     0
1070
   279
1070
     0
1070
   271
1070
     0
1070
   278
1070
    46
1070
   173
1070
     1
1070
    41
1040
3.0
1070
   140
1040
3.200000047683716
1070
   344
1005
134
1070
   343
1005
134
1002
}
  0
ENDBLK
  5
4C
330
4A
100
AcDbEntity
  8
0
100
AcDbBlockEnd
  0
BLOCK
  5
135
330
134
100
AcDbEntity
  8
0
100
AcDbBlockBegin
  2
_OPEN30
 70
     0
 10
0.0
 20
0.0
 30
0.0
  3
_OPEN30
  1

  0
LINE
  5
137
330
134
100
AcDbEntity
  8
0
  6
ByBlock
 62
     0
370
    -2
100
AcDbLine
 10
-1.0
 20
0.267949
 30
0.0
 11
0.0
 21
0.0
 31
0.0
  0
LINE
  5
138
330
134
100
AcDbEntity
  8
0
  6
ByBlock
 62
     0
370
    -2
100
AcDbLine
 10
0.0
 20
0.0
 30
0.0
 11
-1.0
 21
-0.267949
 31
0.0
  0
LINE
  5
139
330
134
100
AcDbEntity
  8
0
  6
ByBlock
 62
     0
370
    -2
100
AcDbLine
 10
0.0
 20
0.0
 30
0.0
 11
-1.0
 21
0.0
 31
0.0
  0
ENDBLK
  5
136
330
134
100
AcDbEntity
  8
0
100
AcDbBlockEnd
  0
BLOCK
  5
13C
330
13B
100
AcDbEntity
  8
0
100
AcDbBlockBegin
  2
*D5
 70
     1
 10
0.0
 20
0.0
 30
0.0
  3
*D5
  1

  0
LINE
  5
13E
330
13B
100
AcDbEntity
  8
0
 62
     0
370
    -2
100
AcDbLine
 10
-44.06787109375
 20
-109.04
 30
0.0
 11
-44.06787109375
 21
-149.1348032226562
 31
0.0
  0
LINE
  5
13F
330
13B
100
AcDbEntity
  8
0
 62
     0
370
    -2
100
AcDbLine
 10
55.93212890625
 20
-109.04
 30
0.0
 11
55.93212890625
 21
-149.1348032226562
 31
0.0
  0
LINE
  5
140
330
13B
100
AcDbEntity
  8
0
 62
     0
370
    -2
100
AcDbLine
 10
-41.06787109375
 20
-143.1348032226562
 30
0.0
 11
52.93212890625
 21
-143.1348032226562
 31
0.0
  0
INSERT
  5
141
330
13B
100
AcDbEntity
  8
0
 62
     0
370
    -2
100
AcDbBlockReference
  2
_OPEN30
 10
-44.06787109375
 20
-143.1348032226562
 30
0.0
 41
3.0
 42
3.0
 43
3.0
 50
180.0
  0
INSERT
  5
142
330
13B
100
AcDbEntity
  8
0
 62
     0
370
    -2
100
AcDbBlockReference
  2
_OPEN30
 10
55.93212890625
 20
-143.1348032226562
 30
0.0
 41
3.0
 42
3.0
 43
3.0
  0
MTEXT
  5
143
330
13B
100
AcDbEntity
  8
0
 62
     1
 60
     1
100
AcDbMText
 10
6.871849609375
 20
-140.7204031866789
 30
0.0
 40
3.200000047683716
 41
0.0
 71
     5
 72
     1
  1
100
 73
     1
 44
1.0
  0
POINT
  5
144
330
13B
100
AcDbEntity
  8
Defpoints
 62
     0
100
AcDbPoint
 10
-44.06787109375
 20
-106.5
 30
0.0
  0
POINT
  5
145
330
13B
100
AcDbEntity
  8
Defpoints
 62
     0
100
AcDbPoint
 10
55.93212890625
 20
-106.5
 30
0.0
  0
POINT
  5
146
330
13B
100
AcDbEntity
  8
Defpoints
 62
     0
100
AcDbPoint
 10
55.93212890625
 20
-143.1358032226562
 30
0.0
  0
MTEXT
  5
147
330
13B
100
AcDbEntity
  8
0
 62
     1
100
AcDbMText
 10
2.529252432494762
 20
-142.3282244680167
 30
0.0
 40
3.200000047683716
 41
0.0
 71
     7
 72
     1
  1
\W1;100
 11
0.9999984769132877
 21
-0.001745328365898445
 31
0.0
 73
     1
 44
1.0
  0
ENDBLK
  5
13D
330
13B
100
AcDbEntity
  8
0
100
AcDbBlockEnd
  0
BLOCK
  5
14A
330
149
100
AcDbEntity
  8
0
100
AcDbBlockBegin
  2
*D6
 70
     1
 10
0.0
 20
0.0
 30
0.0
  3
*D6
  1

  0
LINE
  5
14C
330
149
100
AcDbEntity
  8
0
 62
     0
370
    -2
100
AcDbLine
 10
-75.14382080078126
 20
3.199981689453124
 30
0.0
 11
-156.418654296875
 21
3.199981689453094
 31
0.0
  0
LINE
  5
14D
330
149
100
AcDbEntity
  8
0
 62
     0
370
    -2
100
AcDbLine
 10
-46.60787109375
 20
-106.5
 30
0.0
 11
-156.418654296875
 21
-106.5
 31
0.0
  0
LINE
  5
14E
330
149
100
AcDbEntity
  8
0
 62
     0
370
    -2
100
AcDbLine
 10
-150.418654296875
 20
0.199981689453097
 30
0.0
 11
-150.418654296875
 21
-103.5
 31
0.0
  0
INSERT
  5
14F
330
149
100
AcDbEntity
  8
0
 62
     0
370
    -2
100
AcDbBlockReference
  2
_OPEN30
 10
-150.418654296875
 20
3.199981689453097
 30
0.0
 41
3.0
 42
3.0
 43
3.0
 50
90.00000000000001
  0
INSERT
  5
150
330
149
100
AcDbEntity
  8
0
 62
     0
370
    -2
100
AcDbBlockReference
  2
_OPEN30
 10
-150.418654296875
 20
-106.5
 30
0.0
 41
3.0
 42
3.0
 43
3.0
 50
270.0
  0
MTEXT
  5
151
330
149
100
AcDbEntity
  8
0
 62
     1
100
AcDbMText
 10
-152.8394543329477
 20
-46.76602880859375
 30
0.0
 40
3.200000047683716
 41
0.0
 71
     5
 72
     1
  1
109.7
 11
-2.590858174512945E-16
 21
1.0
 31
0.0
 73
     1
 44
1.0
  0
POINT
  5
152
330
149
100
AcDbEntity
  8
Defpoints
 62
     0
100
AcDbPoint
 10
-72.60382080078125
 20
3.199981689453125
 30
0.0
  0
POINT
  5
153
330
149
100
AcDbEntity
  8
Defpoints
 62
     0
100
AcDbPoint
 10
-44.06787109375
 20
-106.5
 30
0.0
  0
POINT
  5
154
330
149
100
AcDbEntity
  8
Defpoints
 62
     0
100
AcDbPoint
 10
-150.420654296875
 20
-106.5
 30
0.0
  0
ENDBLK
  5
14B
330
149
100
AcDbEntity
  8
0
100
AcDbBlockEnd
  0
BLOCK
  5
157
330
156
100
AcDbEntity
  8
0
100
AcDbBlockBegin
  2
*D7
 70
     1
 10
0.0
 20
0.0
 30
0.0
  3
*D7
  1

  0
LINE
  5
159
330
156
100
AcDbEntity
  8
0
 62
     0
370
    -2
100
AcDbLine
 10
71.1451025390625
 20
-31.79998779296875
 30
0.0
 11
126.256615234375
 21
-31.79998779296874
 31
0.0
  0
LINE
  5
15A
330
156
100
AcDbEntity
  8
0
 62
     0
370
    -2
100
AcDbLine
 10
58.47212890625
 20
-106.5
 30
0.0
 11
126.256615234375
 21
-106.5
 31
0.0
  0
LINE
  5
15B
330
156
100
AcDbEntity
  8
0
 62
     0
370
    -2
100
AcDbLine
 10
120.256615234375
 20
-34.79998779296874
 30
0.0
 11
120.256615234375
 21
-103.5
 31
0.0
  0
INSERT
  5
15C
330
156
100
AcDbEntity
  8
0
 62
     0
370
    -2
100
AcDbBlockReference
  2
_OPEN30
 10
120.256615234375
 20
-31.79998779296874
 30
0.0
 41
3.0
 42
3.0
 43
3.0
 50
90.00000000000001
  0
INSERT
  5
15D
330
156
100
AcDbEntity
  8
0
 62
     0
370
    -2
100
AcDbBlockReference
  2
_OPEN30
 10
120.256615234375
 20
-106.5
 30
0.0
 41
3.0
 42
3.0
 43
3.0
 50
270.0
  0
MTEXT
  5
15E
330
156
100
AcDbEntity
  8
0
 62
     1
100
AcDbMText
 10
117.8358151983023
 20
-65.8277353515625
 30
0.0
 40
3.200000047683716
 41
0.0
 71
     5
 72
     1
  1
74.7
 11
-3.804779757148256E-16
 21
1.0
 31
0.0
 73
     1
 44
1.0
  0
POINT
  5
15F
330
156
100
AcDbEntity
  8
Defpoints
 62
     0
100
AcDbPoint
 10
68.6051025390625
 20
-31.79998779296875
 30
0.0
  0
POINT
  5
160
330
156
100
AcDbEntity
  8
Defpoints
 62
     0
100
AcDbPoint
 10
55.93212890625
 20
-106.5
 30
0.0
  0
POINT
  5
161
330
156
100
AcDbEntity
  8
Defpoints
 62
     0
100
AcDbPoint
 10
120.255615234375
 20
-106.5
 30
0.0
  0
ENDBLK
  5
158
330
156
100
AcDbEntity
  8
0
100
AcDbBlockEnd
  0
BLOCK
  5
164
330
163
100
AcDbEntity
  8
0
100
AcDbBlockBegin
  2
*D8
 70
     1
 10
0.0
 20
0.0
 30
0.0
  3
*D8
  1

  0
LINE
  5
166
330
163
100
AcDbEntity
  8
0
 62
     0
370
    -2
100
AcDbLine
 10
72.1494970703125
 20
33.3743896484375
 30
0.0
 11
127.5263671875
 21
33.37438964843747
 31
0.0
  0
LINE
  5
167
330
163
100
AcDbEntity
  8
0
 62
     0
370
    -2
100
AcDbLine
 10
72.945029296875
 20
213.183349609375
 30
0.0
 11
127.5263671875
 21
213.1833496093749
 31
0.0
  0
LINE
  5
168
330
163
100
AcDbEntity
  8
0
 62
     0
370
    -2
100
AcDbLine
 10
121.5263671875
 20
36.37438964843747
 30
0.0
 11
121.5263671875
 21
210.1833496093749
 31
0.0
  0
INSERT
  5
169
330
163
100
AcDbEntity
  8
0
 62
     0
370
    -2
100
AcDbBlockReference
  2
_OPEN30
 10
121.5263671875
 20
33.37438964843747
 30
0.0
 41
3.0
 42
3.0
 43
3.0
 50
270.0
  0
INSERT
  5
16A
330
163
100
AcDbEntity
  8
0
 62
     0
370
    -2
100
AcDbBlockReference
  2
_OPEN30
 10
121.5263671875
 20
213.1833496093749
 30
0.0
 41
3.0
 42
3.0
 43
3.0
 50
90.0
  0
MTEXT
  5
16B
330
163
100
AcDbEntity
  8
0
 62
     1
100
AcDbMText
 10
119.1119671515226
 20
120.9769521484375
 30
0.0
 40
3.200000047683716
 41
0.0
 71
     5
 72
     1
  1
182
 11
1.580661466290582E-16
 21
1.0
 31
0.0
 73
     1
 44
1.0
  0
POINT
  5
16C
330
163
100
AcDbEntity
  8
Defpoints
 62
     0
100
AcDbPoint
 10
69.6094970703125
 20
33.3743896484375
 30
0.0
  0
POINT
  5
16D
330
163
100
AcDbEntity
  8
Defpoints
 62
     0
100
AcDbPoint
 10
70.405029296875
 20
213.183349609375
 30
0.0
  0
POINT
  5
16E
330
163
100
AcDbEntity
  8
Defpoints
 62
     0
100
AcDbPoint
 10
121.5263671875
 20
213.183349609375
 30
0.0
  0
ENDBLK
  5
165
330
163
100
AcDbEntity
  8
0
100
AcDbBlockEnd
  0
BLOCK
  5
254
330
253
100
AcDbEntity
  8
0
100
AcDbBlockBegin
  2
*D9
 70
     1
 10
0.0
 20
0.0
 30
0.0
  3
*D9
  1

  0
LINE
  5
256
330
253
100
AcDbEntity
  8
0
 62
     0
370
    -2
100
AcDbLine
 10
-68.27492431640626
 20
0.965530395507812
 30
0.0
 11
-84.60572705078125
 21
0.965530395507812
 31
0.0
  0
LINE
  5
257
330
253
100
AcDbEntity
  8
0
 62
     0
370
    -2
100
AcDbLine
 10
-44.56500915527344
 20
-73.73443603515625
 30
0.0
 11
-84.60572705078123
 21
-73.73443603515625
 31
0.0
  0
LINE
  5
258
330
253
100
AcDbEntity
  8
0
 62
     0
370
    -2
100
AcDbLine
 10
-80.10571179199219
 20
-2.034469604492188
 30
0.0
 11
-80.10571179199216
 21
-70.73443603515625
 31
0.0
  0
INSERT
  5
259
330
253
100
AcDbEntity
  8
0
 62
     0
370
    -2
100
AcDbBlockReference
  2
_OPEN30
 10
-80.10571179199219
 20
0.965530395507812
 30
0.0
 41
3.0
 42
3.0
 43
3.0
 50
90.00000000000001
  0
INSERT
  5
25A
330
253
100
AcDbEntity
  8
0
 62
     0
370
    -2
100
AcDbBlockReference
  2
_OPEN30
 10
-80.10571179199216
 20
-73.73443603515625
 30
0.0
 41
3.0
 42
3.0
 43
3.0
 50
270.0
  0
MTEXT
  5
25B
330
253
100
AcDbEntity
  8
0
 62
     1
100
AcDbMText
 10
-82.52651182806491
 20
-37.77127783203125
 30
0.0
 40
3.200000047683716
 41
0.0
 71
     5
 72
     1
  1
74.7
 11
-3.804782088728890E-16
 21
1.0
 31
0.0
 73
     1
 44
1.0
  0
POINT
  5
25C
330
253
100
AcDbEntity
  8
Defpoints
 62
     0
100
AcDbPoint
 10
-65.73492431640625
 20
0.965530395507812
 30
0.0
  0
POINT
  5
25D
330
253
100
AcDbEntity
  8
Defpoints
 62
     0
100
AcDbPoint
 10
-42.02500915527344
 20
-73.73443603515625
 30
0.0
  0
POINT
  5
25E
330
253
100
AcDbEntity
  8
Defpoints
 62
     0
100
AcDbPoint
 10
-80.10771179199219
 20
-73.73443603515626
 30
0.0
  0
ENDBLK
  5
255
330
253
100
AcDbEntity
  8
0
100
AcDbBlockEnd
  0
BLOCK
  5
261
330
260
100
AcDbEntity
  8
0
100
AcDbBlockBegin
  2
*D10
 70
     1
 10
0.0
 20
0.0
 30
0.0
  3
*D10
  1

  0
LINE
  5
263
330
260
100
AcDbEntity
  8
0
 62
     0
370
    -2
100
AcDbLine
 10
-42.02497863769531
 20
-76.27446655273438
 30
0.0
 11
-42.02497863769533
 21
-101.0525888671875
 31
0.0
  0
LINE
  5
264
330
260
100
AcDbEntity
  8
0
 62
     0
370
    -2
100
AcDbLine
 10
43.97500610351562
 20
-76.27446655273438
 30
0.0
 11
43.97500610351561
 21
-101.0525888671875
 31
0.0
  0
LINE
  5
265
330
260
100
AcDbEntity
  8
0
 62
     0
370
    -2
100
AcDbLine
 10
-39.02497863769533
 20
-96.5525888671875
 30
0.0
 11
40.97500610351561
 21
-96.55258886718751
 31
0.0
  0
INSERT
  5
266
330
260
100
AcDbEntity
  8
0
 62
     0
370
    -2
100
AcDbBlockReference
  2
_OPEN30
 10
-42.02497863769533
 20
-96.5525888671875
 30
0.0
 41
3.0
 42
3.0
 43
3.0
 50
180.0
  0
INSERT
  5
267
330
260
100
AcDbEntity
  8
0
 62
     0
370
    -2
100
AcDbBlockReference
  2
_OPEN30
 10
43.97500610351561
 20
-96.55258886718751
 30
0.0
 41
3.0
 42
3.0
 43
3.0
 50
360.0
  0
MTEXT
  5
268
330
260
100
AcDbEntity
  8
0
 62
     1
 60
     1
100
AcDbMText
 10
-1.644965576171875
 20
-94.13818883121013
 30
0.0
 40
3.200000047683716
 41
0.0
 71
     5
 72
     1
  1
86
 73
     1
 44
1.0
  0
POINT
  5
269
330
260
100
AcDbEntity
  8
Defpoints
 62
     0
100
AcDbPoint
 10
-42.02497863769531
 20
-73.73446655273438
 30
0.0
  0
POINT
  5
26A
330
260
100
AcDbEntity
  8
Defpoints
 62
     0
100
AcDbPoint
 10
43.97500610351562
 20
-73.73446655273438
 30
0.0
  0
POINT
  5
26B
330
260
100
AcDbEntity
  8
Defpoints
 62
     0
100
AcDbPoint
 10
43.97500610351562
 20
-96.5535888671875
 30
0.0
  0
MTEXT
  5
26C
330
260
100
AcDbEntity
  8
0
 62
     1
100
AcDbMText
 10
-4.38756516614903
 20
-95.74880263797503
 30
0.0
 40
3.200000047683716
 41
0.0
 71
     7
 72
     1
  1
\W1;86
 11
0.9999984769132877
 21
-0.001745328365898445
 31
0.0
 73
     1
 44
1.0
  0
ENDBLK
  5
262
330
260
100
AcDbEntity
  8
0
100
AcDbBlockEnd
  0
BLOCK
  5
26F
330
26E
100
AcDbEntity
  8
0
100
AcDbBlockBegin
  2
*D11
 70
     1
 10
0.0
 20
0.0
 30
0.0
  3
*D11
  1

  0
LINE
  5
271
330
26E
100
AcDbEntity
  8
0
 62
     0
370
    -2
100
AcDbLine
 10
57.15703491210937
 20
-24.03445434570312
 30
0.0
 11
91.14153344726563
 21
-24.03445434570311
 31
0.0
  0
LINE
  5
272
330
26E
100
AcDbEntity
  8
0
 62
     0
370
    -2
100
AcDbLine
 10
46.51500610351562
 20
-73.73443603515625
 30
0.0
 11
91.14153344726564
 21
-73.73443603515625
 31
0.0
  0
LINE
  5
273
330
26E
100
AcDbEntity
  8
0
 62
     0
370
    -2
100
AcDbLine
 10
86.64153344726563
 20
-27.03445434570311
 30
0.0
 11
86.64153344726564
 21
-70.73443603515625
 31
0.0
  0
INSERT
  5
274
330
26E
100
AcDbEntity
  8
0
 62
     0
370
    -2
100
AcDbBlockReference
  2
_OPEN30
 10
86.64153344726563
 20
-24.03445434570311
 30
0.0
 41
3.0
 42
3.0
 43
3.0
 50
90.00000000000001
  0
INSERT
  5
275
330
26E
100
AcDbEntity
  8
0
 62
     0
370
    -2
100
AcDbBlockReference
  2
_OPEN30
 10
86.64153344726564
 20
-73.73443603515625
 30
0.0
 41
3.0
 42
3.0
 43
3.0
 50
270.0
  0
MTEXT
  5
276
330
26E
100
AcDbEntity
  8
0
 62
     1
100
AcDbMText
 10
84.2207334111929
 20
-47.92020361328125
 30
0.0
 40
3.200000047683716
 41
0.0
 71
     5
 72
     1
  1
49.7
 11
-2.859327957905003E-16
 21
1.0
 31
0.0
 73
     1
 44
1.0
  0
POINT
  5
277
330
26E
100
AcDbEntity
  8
Defpoints
 62
     0
100
AcDbPoint
 10
54.61703491210938
 20
-24.03445434570312
 30
0.0
  0
POINT
  5
278
330
26E
100
AcDbEntity
  8
Defpoints
 62
     0
100
AcDbPoint
 10
43.97500610351562
 20
-73.73443603515625
 30
0.0
  0
POINT
  5
279
330
26E
100
AcDbEntity
  8
Defpoints
 62
     0
100
AcDbPoint
 10
86.64053344726562
 20
-73.73443603515624
 30
0.0
  0
ENDBLK
  5
270
330
26E
100
AcDbEntity
  8
0
100
AcDbBlockEnd
  0
BLOCK
  5
27C
330
27B
100
AcDbEntity
  8
0
100
AcDbBlockBegin
  2
*D12
 70
     1
 10
0.0
 20
0.0
 30
0.0
  3
*D12
  1

  0
LINE
  5
27E
330
27B
100
AcDbEntity
  8
0
 62
     0
370
    -2
100
AcDbLine
 10
58.95708374023437
 20
175.4752197265625
 30
0.0
 11
91.1415334472656
 21
175.4752197265625
 31
0.0
  0
LINE
  5
27F
330
27B
100
AcDbEntity
  8
0
 62
     0
370
    -2
100
AcDbLine
 10
58.95708374023437
 20
17.52333068847656
 30
0.0
 11
91.14153344726566
 21
17.52333068847656
 31
0.0
  0
LINE
  5
280
330
27B
100
AcDbEntity
  8
0
 62
     0
370
    -2
100
AcDbLine
 10
86.6415334472656
 20
172.4752197265625
 30
0.0
 11
86.64153344726566
 21
20.52333068847656
 31
0.0
  0
INSERT
  5
281
330
27B
100
AcDbEntity
  8
0
 62
     0
370
    -2
100
AcDbBlockReference
  2
_OPEN30
 10
86.6415334472656
 20
175.4752197265625
 30
0.0
 41
3.0
 42
3.0
 43
3.0
 50
90.00000000000001
  0
INSERT
  5
282
330
27B
100
AcDbEntity
  8
0
 62
     0
370
    -2
100
AcDbBlockReference
  2
_OPEN30
 10
86.64153344726566
 20
17.52333068847656
 30
0.0
 41
3.0
 42
3.0
 43
3.0
 50
270.0
  0
MTEXT
  5
283
330
27B
100
AcDbEntity
  8
0
 62
     1
100
AcDbMText
 10
84.22713341128826
 20
97.22882897949219
 30
0.0
 40
3.200000047683716
 41
0.0
 71
     5
 72
     1
  1
160
 11
-3.598780565840635E-16
 21
1.0
 31
0.0
 73
     1
 44
1.0
  0
POINT
  5
284
330
27B
100
AcDbEntity
  8
Defpoints
 62
     0
100
AcDbPoint
 10
56.41708374023438
 20
175.4752197265625
 30
0.0
  0
POINT
  5
285
330
27B
100
AcDbEntity
  8
Defpoints
 62
     0
100
AcDbPoint
 10
56.41708374023438
 20
17.52333068847656
 30
0.0
  0
POINT
  5
286
330
27B
100
AcDbEntity
  8
Defpoints
 62
     0
100
AcDbPoint
 10
86.64053344726562
 20
17.52333068847657
 30
0.0
  0
ENDBLK
  5
27D
330
27B
100
AcDbEntity
  8
0
100
AcDbBlockEnd
  0
BLOCK
  5
3D7
330
3D6
100
AcDbEntity
  8
0
100
AcDbBlockBegin
  2
*D13
 70
     1
 10
0.0
 20
0.0
 30
0.0
  3
*D13
  1

  0
LINE
  5
3D9
330
3D6
100
AcDbEntity
  8
0
 62
     0
370
    -2
100
AcDbLine
 10
18.98600677490234
 20
93.51264953613281
 30
0.0
 11
28.44700677490233
 21
93.51264953613281
 31
0.0
  0
LINE
  5
3DA
330
3D6
100
AcDbEntity
  8
0
 62
     0
370
    -2
100
AcDbLine
 10
18.48600677490234
 20
13.29669053613281
 30
0.0
 11
28.44700677490236
 21
13.29669053613281
 31
0.0
  0
LINE
  5
3DB
330
3D6
100
AcDbEntity
  8
0
 62
     0
370
    -2
100
AcDbLine
 10
26.44700677490233
 20
90.51264953613281
 30
0.0
 11
26.44700677490236
 21
16.29669053613281
 31
0.0
  0
INSERT
  5
3DC
330
3D6
100
AcDbEntity
  8
0
 62
     0
370
    -2
100
AcDbBlockReference
  2
_OPEN30
 10
26.44700677490233
 20
93.51264953613281
 30
0.0
 41
3.0
 42
3.0
 43
3.0
 50
90.00000000000001
  0
INSERT
  5
3DD
330
3D6
100
AcDbEntity
  8
0
 62
     0
370
    -2
100
AcDbBlockReference
  2
_OPEN30
 10
26.44700677490236
 20
13.29669053613281
 30
0.0
 41
3.0
 42
3.0
 43
3.0
 50
270.0
  0
MTEXT
  5
3DE
330
3D6
100
AcDbEntity
  8
0
 62
     1
100
AcDbMText
 10
24.03260673892498
 20
53.40567003613281
 30
0.0
 40
3.200000047683716
 41
0.0
 71
     5
 72
     1
  1
160
 11
-3.986042616433035E-16
 21
1.0
 31
0.0
 73
     1
 44
1.0
  0
POINT
  5
3DF
330
3D6
100
AcDbEntity
  8
Defpoints
 62
     0
100
AcDbPoint
 10
16.44600677490234
 20
93.51264953613281
 30
0.0
  0
POINT
  5
3E0
330
3D6
100
AcDbEntity
  8
Defpoints
 62
     0
100
AcDbPoint
 10
15.94600677490234
 20
13.29669053613281
 30
0.0
  0
POINT
  5
3E1
330
3D6
100
AcDbEntity
  8
Defpoints
 62
     0
100
AcDbPoint
 10
26.44600677490234
 20
13.29669053613282
 30
0.0
  0
ENDBLK
  5
3D8
330
3D6
100
AcDbEntity
  8
0
100
AcDbBlockEnd
  0
BLOCK
  5
3E4
330
3E3
100
AcDbEntity
  8
0
100
AcDbBlockBegin
  2
*D14
 70
     1
 10
0.0
 20
0.0
 30
0.0
  3
*D14
  1

  0
LINE
  5
3E6
330
3E3
100
AcDbEntity
  8
0
 62
     0
370
    -2
100
AcDbLine
 10
16.44600677490234
 20
96.05264953613282
 30
0.0
 11
16.44600677490234
 21
105.5126495361328
 31
0.0
  0
LINE
  5
3E7
330
3E3
100
AcDbEntity
  8
0
 62
     0
370
    -2
100
AcDbLine
 10
-63.76995222509763
 20
95.55264953613282
 30
0.0
 11
-63.76995222509763
 21
105.5126495361328
 31
0.0
  0
LINE
  5
3E8
330
3E3
100
AcDbEntity
  8
0
 62
     0
370
    -2
100
AcDbLine
 10
13.44600677490234
 20
103.5126495361328
 30
0.0
 11
-60.76995222509763
 21
103.5126495361328
 31
0.0
  0
INSERT
  5
3E9
330
3E3
100
AcDbEntity
  8
0
 62
     0
370
    -2
100
AcDbBlockReference
  2
_OPEN30
 10
16.44600677490234
 20
103.5126495361328
 30
0.0
 41
3.0
 42
3.0
 43
3.0
  0
INSERT
  5
3EA
330
3E3
100
AcDbEntity
  8
0
 62
     0
370
    -2
100
AcDbBlockReference
  2
_OPEN30
 10
-63.76995222509763
 20
103.5126495361328
 30
0.0
 41
3.0
 42
3.0
 43
3.0
 50
180.0
  0
MTEXT
  5
3EB
330
3E3
100
AcDbEntity
  8
0
 62
     1
100
AcDbMText
 10
-23.65997272509764
 20
105.9270495721102
 30
0.0
 40
3.200000047683716
 41
0.0
 71
     5
 72
     1
  1
160
 73
     1
 44
1.0
  0
POINT
  5
3EC
330
3E3
100
AcDbEntity
  8
Defpoints
 62
     0
100
AcDbPoint
 10
16.44600677490234
 20
93.51264953613281
 30
0.0
  0
POINT
  5
3ED
330
3E3
100
AcDbEntity
  8
Defpoints
 62
     0
100
AcDbPoint
 10
-63.76995222509763
 20
93.01264953613281
 30
0.0
  0
POINT
  5
3EE
330
3E3
100
AcDbEntity
  8
Defpoints
 62
     0
100
AcDbPoint
 10
-63.76995222509763
 20
103.5126495361328
 30
0.0
  0
ENDBLK
  5
3E5
330
3E3
100
AcDbEntity
  8
0
100
AcDbBlockEnd
  0
BLOCK
  5
3F1
330
3F0
100
AcDbEntity
  8
0
100
AcDbBlockBegin
  2
*D15
 70
     1
 10
0.0
 20
0.0
 30
0.0
  3
*D15
  1

  0
LINE
  5
3F3
330
3F0
100
AcDbEntity
  8
0
 62
     0
370
    -2
100
AcDbLine
 10
-46.26995222509765
 20
12.75669053613282
 30
0.0
 11
-46.26995222509765
 21
1.297690536132814
 31
0.0
  0
LINE
  5
3F4
330
3F0
100
AcDbEntity
  8
0
 62
     0
370
    -2
100
AcDbLine
 10
-63.76995222509763
 20
28.75669053613282
 30
0.0
 11
-63.76995222509763
 21
1.297690536132814
 31
0.0
  0
LINE
  5
3F5
330
3F0
100
AcDbEntity
  8
0
 62
     0
370
    -2
100
AcDbLine
 10
-49.26995222509765
 20
3.297690536132814
 30
0.0
 11
-60.76995222509763
 21
3.297690536132814
 31
0.0
  0
INSERT
  5
3F6
330
3F0
100
AcDbEntity
  8
0
 62
     0
370
    -2
100
AcDbBlockReference
  2
_OPEN30
 10
-46.26995222509765
 20
3.297690536132814
 30
0.0
 41
3.0
 42
3.0
 43
3.0
  0
INSERT
  5
3F7
330
3F0
100
AcDbEntity
  8
0
 62
     0
370
    -2
100
AcDbBlockReference
  2
_OPEN30
 10
-63.76995222509763
 20
3.297690536132814
 30
0.0
 41
3.0
 42
3.0
 43
3.0
 50
180.0
  0
MTEXT
  5
3F8
330
3F0
100
AcDbEntity
  8
0
 62
     1
100
AcDbMText
 10
-55.01795222509764
 20
5.712090572110178
 30
0.0
 40
3.200000047683716
 41
0.0
 71
     5
 72
     1
  1
35
 73
     1
 44
1.0
  0
POINT
  5
3F9
330
3F0
100
AcDbEntity
  8
Defpoints
 62
     0
100
AcDbPoint
 10
-46.26995222509765
 20
15.29669053613282
 30
0.0
  0
POINT
  5
3FA
330
3F0
100
AcDbEntity
  8
Defpoints
 62
     0
100
AcDbPoint
 10
-63.76995222509763
 20
31.29669053613282
 30
0.0
  0
POINT
  5
3FB
330
3F0
100
AcDbEntity
  8
Defpoints
 62
     0
100
AcDbPoint
 10
-63.76995222509763
 20
3.296690536132814
 30
0.0
  0
ENDBLK
  5
3F2
330
3F0
100
AcDbEntity
  8
0
100
AcDbBlockEnd
  0
BLOCK
  5
3FE
330
3FD
100
AcDbEntity
  8
0
100
AcDbBlockBegin
  2
*D16
 70
     1
 10
0.0
 20
0.0
 30
0.0
  3
*D16
  1

  0
LINE
  5
400
330
3FD
100
AcDbEntity
  8
0
 62
     0
370
    -2
100
AcDbLine
 10
-64.30995222509766
 20
30.79669053613282
 30
0.0
 11
-75.76795222509762
 21
30.79669053613282
 31
0.0
  0
LINE
  5
401
330
3FD
100
AcDbEntity
  8
0
 62
     0
370
    -2
100
AcDbLine
 10
-48.30995222509765
 20
13.29669053613281
 30
0.0
 11
-75.76795222509762
 21
13.29669053613281
 31
0.0
  0
LINE
  5
402
330
3FD
100
AcDbEntity
  8
0
 62
     0
370
    -2
100
AcDbLine
 10
-73.76795222509762
 20
27.79669053613282
 30
0.0
 11
-73.76795222509762
 21
16.29669053613281
 31
0.0
  0
INSERT
  5
403
330
3FD
100
AcDbEntity
  8
0
 62
     0
370
    -2
100
AcDbBlockReference
  2
_OPEN30
 10
-73.76795222509762
 20
30.79669053613282
 30
0.0
 41
3.0
 42
3.0
 43
3.0
 50
90.0
  0
INSERT
  5
404
330
3FD
100
AcDbEntity
  8
0
 62
     0
370
    -2
100
AcDbBlockReference
  2
_OPEN30
 10
-73.76795222509762
 20
13.29669053613281
 30
0.0
 41
3.0
 42
3.0
 43
3.0
 50
270.0
  0
MTEXT
  5
405
330
3FD
100
AcDbEntity
  8
0
 62
     1
100
AcDbMText
 10
-76.18235226107498
 20
22.04769053613282
 30
0.0
 40
3.200000047683716
 41
0.0
 71
     5
 72
     1
  1
35
 11
0.0
 21
1.0
 31
0.0
 73
     1
 44
1.0
  0
POINT
  5
406
330
3FD
100
AcDbEntity
  8
Defpoints
 62
     0
100
AcDbPoint
 10
-61.76995222509765
 20
30.79669053613282
 30
0.0
  0
POINT
  5
407
330
3FD
100
AcDbEntity
  8
Defpoints
 62
     0
100
AcDbPoint
 10
-45.76995222509765
 20
13.29669053613281
 30
0.0
  0
POINT
  5
408
330
3FD
100
AcDbEntity
  8
Defpoints
 62
     0
100
AcDbPoint
 10
-73.76995222509763
 20
13.2966905361328
 30
0.0
  0
ENDBLK
  5
3FF
330
3FD
100
AcDbEntity
  8
0
100
AcDbBlockEnd
  0
BLOCK
  5
40B
330
40A
100
AcDbEntity
  8
0
100
AcDbBlockBegin
  2
*D17
 70
     1
 10
0.0
 20
0.0
 30
0.0
  3
*D17
  1

  0
LINE
  5
40D
330
40A
100
AcDbEntity
  8
0
 62
     0
370
    -2
100
AcDbLine
 10
16.46346184134833
 20
-37.93837496386717
 30
0.0
 11
16.46346184134833
 21
-9.478374963867168
 31
0.0
  0
LINE
  5
40E
330
40A
100
AcDbEntity
  8
0
 62
     0
370
    -2
100
AcDbLine
 10
-46.2961381625264
 20
-25.43837496386718
 30
0.0
 11
-46.2961381625264
 21
-9.478374963867168
 31
0.0
  0
LINE
  5
40F
330
40A
100
AcDbEntity
  8
0
 62
     0
370
    -2
100
AcDbLine
 10
13.46346184134833
 20
-11.47837496386717
 30
0.0
 11
-43.2961381625264
 21
-11.47837496386717
 31
0.0
  0
INSERT
  5
410
330
40A
100
AcDbEntity
  8
0
 62
     0
370
    -2
100
AcDbBlockReference
  2
_OPEN30
 10
16.46346184134833
 20
-11.47837496386717
 30
0.0
 41
3.0
 42
3.0
 43
3.0
  0
INSERT
  5
411
330
40A
100
AcDbEntity
  8
0
 62
     0
370
    -2
100
AcDbBlockReference
  2
_OPEN30
 10
-46.2961381625264
 20
-11.47837496386717
 30
0.0
 41
3.0
 42
3.0
 43
3.0
 50
180.0
  0
MTEXT
  5
412
330
40A
100
AcDbEntity
  8
0
 62
     1
100
AcDbMText
 10
-14.91433816058904
 20
-9.063974927889804
 30
0.0
 40
3.200000047683716
 41
0.0
 71
     5
 72
     1
  1
126
 73
     1
 44
1.0
  0
POINT
  5
413
330
40A
100
AcDbEntity
  8
Defpoints
 62
     0
100
AcDbPoint
 10
16.46346184134833
 20
-40.47837496386717
 30
0.0
  0
POINT
  5
414
330
40A
100
AcDbEntity
  8
Defpoints
 62
     0
100
AcDbPoint
 10
-46.2961381625264
 20
-27.97837496386718
 30
0.0
  0
POINT
  5
415
330
40A
100
AcDbEntity
  8
Defpoints
 62
     0
100
AcDbPoint
 10
-46.2961381625264
 20
-11.47837496386717
 30
0.0
  0
ENDBLK
  5
40C
330
40A
100
AcDbEntity
  8
0
100
AcDbBlockEnd
  0
BLOCK
  5
418
330
417
100
AcDbEntity
  8
0
100
AcDbBlockBegin
  2
*D18
 70
     1
 10
0.0
 20
0.0
 30
0.0
  3
*D18
  1

  0
LINE
  5
41A
330
417
100
AcDbEntity
  8
0
 62
     0
370
    -2
100
AcDbLine
 10
-64.30995222509766
 20
-27.97837496386718
 30
0.0
 11
-75.76795222509762
 21
-27.97837496386718
 31
0.0
  0
LINE
  5
41B
330
417
100
AcDbEntity
  8
0
 62
     0
370
    -2
100
AcDbLine
 10
-64.30995222509766
 20
-67.87837496386717
 30
0.0
 11
-75.7679522250976
 21
-67.87837496386717
 31
0.0
  0
LINE
  5
41C
330
417
100
AcDbEntity
  8
0
 62
     0
370
    -2
100
AcDbLine
 10
-73.76795222509762
 20
-30.97837496386718
 30
0.0
 11
-73.7679522250976
 21
-64.87837496386717
 31
0.0
  0
INSERT
  5
41D
330
417
100
AcDbEntity
  8
0
 62
     0
370
    -2
100
AcDbBlockReference
  2
_OPEN30
 10
-73.76795222509762
 20
-27.97837496386718
 30
0.0
 41
3.0
 42
3.0
 43
3.0
 50
90.00000000000001
  0
INSERT
  5
41E
330
417
100
AcDbEntity
  8
0
 62
     0
370
    -2
100
AcDbBlockReference
  2
_OPEN30
 10
-73.7679522250976
 20
-67.87837496386717
 30
0.0
 41
3.0
 42
3.0
 43
3.0
 50
270.0
  0
MTEXT
  5
41F
330
417
100
AcDbEntity
  8
0
 62
     1
100
AcDbMText
 10
-76.18235226107498
 20
-47.92737496386718
 30
0.0
 40
3.200000047683716
 41
0.0
 71
     5
 72
     1
  1
80
 11
-3.561617723108272E-16
 21
1.0
 31
0.0
 73
     1
 44
1.0
  0
POINT
  5
420
330
417
100
AcDbEntity
  8
Defpoints
 62
     0
100
AcDbPoint
 10
-61.76995222509765
 20
-27.97837496386718
 30
0.0
  0
POINT
  5
421
330
417
100
AcDbEntity
  8
Defpoints
 62
     0
100
AcDbPoint
 10
-61.76995222509765
 20
-67.87837496386717
 30
0.0
  0
POINT
  5
422
330
417
100
AcDbEntity
  8
Defpoints
 62
     0
100
AcDbPoint
 10
-73.76995222509763
 20
-67.87837496386717
 30
0.0
  0
ENDBLK
  5
419
330
417
100
AcDbEntity
  8
0
100
AcDbBlockEnd
  0
BLOCK
  5
425
330
424
100
AcDbEntity
  8
0
100
AcDbBlockBegin
  2
*D19
 70
     1
 10
0.0
 20
0.0
 30
0.0
  3
*D19
  1

  0
LINE
  5
427
330
424
100
AcDbEntity
  8
0
 62
     0
370
    -2
100
AcDbLine
 10
-38.8352990282162
 20
-25.63218874601928
 30
0.0
 11
-38.8352990282162
 21
-19.47837496386717
 31
0.0
  0
LINE
  5
428
330
424
100
AcDbEntity
  8
0
 62
     0
370
    -2
100
AcDbLine
 10
-46.2961381625264
 20
-25.43837496386718
 30
0.0
 11
-46.2961381625264
 21
-19.47837496386717
 31
0.0
  0
LINE
  5
429
330
424
100
AcDbEntity
  8
0
 62
     0
370
    -2
100
AcDbLine
 10
-38.8352990282162
 20
-21.47837496386717
 30
0.0
 11
-46.2961381625264
 21
-21.47837496386717
 31
0.0
  0
LINE
  5
42A
330
424
100
AcDbEntity
  8
0
 62
     0
370
    -2
100
AcDbLine
 10
-35.8352990282162
 20
-21.47837496386717
 30
0.0
 11
-32.8352990282162
 21
-21.47837496386717
 31
0.0
  0
LINE
  5
42B
330
424
100
AcDbEntity
  8
0
 62
     0
370
    -2
100
AcDbLine
 10
-49.2961381625264
 20
-21.47837496386717
 30
0.0
 11
-52.2961381625264
 21
-21.47837496386717
 31
0.0
  0
INSERT
  5
42C
330
424
100
AcDbEntity
  8
0
 62
     0
370
    -2
100
AcDbBlockReference
  2
_OPEN30
 10
-38.8352990282162
 20
-21.47837496386717
 30
0.0
 41
3.0
 42
3.0
 43
3.0
 50
180.0
  0
INSERT
  5
42D
330
424
100
AcDbEntity
  8
0
 62
     0
370
    -2
100
AcDbBlockReference
  2
_OPEN30
 10
-46.2961381625264
 20
-21.47837496386717
 30
0.0
 41
3.0
 42
3.0
 43
3.0
  0
MTEXT
  5
42E
330
424
100
AcDbEntity
  8
0
 62
     1
100
AcDbMText
 10
-42.56371859537131
 20
-19.06397492788981
 30
0.0
 40
3.200000047683716
 41
0.0
 71
     5
 72
     1
  1
15
 73
     1
 44
1.0
  0
POINT
  5
42F
330
424
100
AcDbEntity
  8
Defpoints
 62
     0
100
AcDbPoint
 10
-38.8352990282162
 20
-28.17218874601928
 30
0.0
  0
POINT
  5
430
330
424
100
AcDbEntity
  8
Defpoints
 62
     0
100
AcDbPoint
 10
-46.2961381625264
 20
-27.97837496386718
 30
0.0
  0
POINT
  5
431
330
424
100
AcDbEntity
  8
Defpoints
 62
     0
100
AcDbPoint
 10
-46.2961381625264
 20
-21.47837496386717
 30
0.0
  0
ENDBLK
  5
426
330
424
100
AcDbEntity
  8
0
100
AcDbBlockEnd
  0
BLOCK
  5
434
330
433
100
AcDbEntity
  8
0
100
AcDbBlockBegin
  2
*D20
 70
     1
 10
0.0
 20
0.0
 30
0.0
  3
*D20
  1

  0
LINE
  5
436
330
433
100
AcDbEntity
  8
0
 62
     0
370
    -2
100
AcDbLine
 10
-36.97995222509766
 20
-28.97837496386718
 30
0.0
 11
-22.20757267471432
 21
-28.97837496386718
 31
0.0
  0
LINE
  5
437
330
433
100
AcDbEntity
  8
0
 62
     0
370
    -2
100
AcDbLine
 10
-37.45903522509763
 20
-36.32837496386719
 30
0.0
 11
-22.20757267471431
 21
-36.32837496386718
 31
0.0
  0
LINE
  5
438
330
433
100
AcDbEntity
  8
0
 62
     0
370
    -2
100
AcDbLine
 10
-24.20757267471432
 20
-28.97837496386718
 30
0.0
 11
-24.20757267471431
 21
-36.32837496386718
 31
0.0
  0
LINE
  5
439
330
433
100
AcDbEntity
  8
0
 62
     0
370
    -2
100
AcDbLine
 10
-24.20757267471432
 20
-25.97837496386718
 30
0.0
 11
-24.20757267471432
 21
-22.97837496386718
 31
0.0
  0
LINE
  5
43A
330
433
100
AcDbEntity
  8
0
 62
     0
370
    -2
100
AcDbLine
 10
-24.20757267471431
 20
-39.32837496386718
 30
0.0
 11
-24.20757267471431
 21
-42.32837496386718
 31
0.0
  0
INSERT
  5
43B
330
433
100
AcDbEntity
  8
0
 62
     0
370
    -2
100
AcDbBlockReference
  2
_OPEN30
 10
-24.20757267471432
 20
-28.97837496386718
 30
0.0
 41
3.0
 42
3.0
 43
3.0
 50
270.0
  0
INSERT
  5
43C
330
433
100
AcDbEntity
  8
0
 62
     0
370
    -2
100
AcDbBlockReference
  2
_OPEN30
 10
-24.20757267471431
 20
-36.32837496386718
 30
0.0
 41
3.0
 42
3.0
 43
3.0
 50
90.00000000000001
  0
MTEXT
  5
43D
330
433
100
AcDbEntity
  8
0
 62
     1
100
AcDbMText
 10
-26.62197271069168
 20
-32.65237496386719
 30
0.0
 40
3.200000047683716
 41
0.0
 71
     5
 72
     1
  1
15
 11
-4.833624052789792E-16
 21
1.0
 31
0.0
 73
     1
 44
1.0
  0
POINT
  5
43E
330
433
100
AcDbEntity
  8
Defpoints
 62
     0
100
AcDbPoint
 10
-39.51995222509765
 20
-28.97837496386718
 30
0.0
  0
POINT
  5
43F
330
433
100
AcDbEntity
  8
Defpoints
 62
     0
100
AcDbPoint
 10
-39.99903522509763
 20
-36.32837496386719
 30
0.0
  0
POINT
  5
440
330
433
100
AcDbEntity
  8
Defpoints
 62
     0
100
AcDbPoint
 10
-24.20857267471432
 20
-36.32837496386718
 30
0.0
  0
ENDBLK
  5
435
330
433
100
AcDbEntity
  8
0
100
AcDbBlockEnd
  0
BLOCK
  5
443
330
442
100
AcDbEntity
  8
0
100
AcDbBlockBegin
  2
*D21
 70
     1
 10
0.0
 20
0.0
 30
0.0
  3
*D21
  1

  0
LINE
  5
445
330
442
100
AcDbEntity
  8
0
 62
     0
370
    -2
100
AcDbLine
 10
-24.81725072509764
 20
-64.87837496386717
 30
0.0
 11
-26.20657267471431
 21
-64.87837496386717
 31
0.0
  0
LINE
  5
446
330
442
100
AcDbEntity
  8
0
 62
     0
370
    -2
100
AcDbLine
 10
-24.20657267471432
 20
-39.3283749638672
 30
0.0
 11
-24.20657267471431
 21
-61.87837496386717
 31
0.0
  0
INSERT
  5
447
330
442
100
AcDbEntity
  8
0
 62
     0
370
    -2
100
AcDbBlockReference
  2
_OPEN30
 10
-24.20657267471432
 20
-36.3283749638672
 30
0.0
 41
3.0
 42
3.0
 43
3.0
 50
90.00000000000001
  0
INSERT
  5
448
330
442
100
AcDbEntity
  8
0
 62
     0
370
    -2
100
AcDbBlockReference
  2
_OPEN30
 10
-24.20657267471431
 20
-64.87837496386717
 30
0.0
 41
3.0
 42
3.0
 43
3.0
 50
270.0
  0
MTEXT
  5
449
330
442
100
AcDbEntity
  8
0
 62
     1
100
AcDbMText
 10
-26.62097271069168
 20
-50.60237496386718
 30
0.0
 40
3.200000047683716
 41
0.0
 71
     5
 72
     1
  1
57
 11
-3.733149224659023E-16
 21
1.0
 31
0.0
 73
     1
 44
1.0
  0
POINT
  5
44A
330
442
100
AcDbEntity
  8
Defpoints
 62
     0
100
AcDbPoint
 10
-22.20857267471432
 20
-36.32837496386719
 30
0.0
  0
POINT
  5
44B
330
442
100
AcDbEntity
  8
Defpoints
 62
     0
100
AcDbPoint
 10
-22.27725072509764
 20
-64.87837496386717
 30
0.0
  0
POINT
  5
44C
330
442
100
AcDbEntity
  8
Defpoints
 62
     0
100
AcDbPoint
 10
-24.20857267471432
 20
-64.87837496386717
 30
0.0
  0
ENDBLK
  5
444
330
442
100
AcDbEntity
  8
0
100
AcDbBlockEnd
  0
BLOCK
  5
44F
330
44E
100
AcDbEntity
  8
0
100
AcDbBlockBegin
  2
*D22
 70
     1
 10
0.0
 20
0.0
 30
0.0
  3
*D22
  1

  0
MTEXT
  5
458
330
44E
100
AcDbEntity
  8
0
 62
     1
100
AcDbMText
 10
-2.571006729601659
 20
-44.15237496386718
 30
0.0
 40
3.200000047683716
 41
0.0
 71
     5
 72
     1
  1
11
 11
-3.839088963657067E-16
 21
1.0
 31
0.0
 73
     1
 44
1.0
  0
POINT
  5
459
330
44E
100
AcDbEntity
  8
Defpoints
 62
     0
100
AcDbPoint
 10
11.29600677490237
 20
-41.47837496386717
 30
0.0
  0
POINT
  5
45A
330
44E
100
AcDbEntity
  8
Defpoints
 62
     0
100
AcDbPoint
 10
11.87508977490234
 20
-46.82837496386719
 30
0.0
  0
POINT
  5
45B
330
44E
100
AcDbEntity
  8
Defpoints
 62
     0
100
AcDbPoint
 10
-0.173006693838871
 20
-46.8283749638672
 30
0.0
  0
LINE
  5
45C
330
44E
100
AcDbEntity
  8
0
  6
Continuous
 62
     7
100
AcDbLine
 10
8.756006774902367
 20
-41.47837496386717
 30
0.0
 11
-2.173006693838872
 21
-41.47837496386717
 31
0.0
  0
LINE
  5
45D
330
44E
100
AcDbEntity
  8
0
  6
Continuous
 62
     7
100
AcDbLine
 10
9.335089774902336
 20
-46.82837496386719
 30
0.0
 11
-2.173006693838872
 21
-46.82837496386719
 31
0.0
  0
LINE
  5
45E
330
44E
100
AcDbEntity
  8
0
  6
Continuous
 62
     7
100
AcDbLine
 10
-0.173006693838871
 20
-35.12837496386717
 30
0.0
 11
-0.173006693838871
 21
-53.17837496386719
 31
0.0
  0
LINE
  5
45F
330
44E
100
AcDbEntity
  8
0
  6
Continuous
 62
     7
100
AcDbLine
 10
-0.173006693838871
 20
-41.47837496386717
 30
0.0
 11
-0.991464378138871
 21
-38.42384930186154
 31
0.0
  0
LINE
  5
460
330
44E
100
AcDbEntity
  8
0
  6
Continuous
 62
     7
100
AcDbLine
 10
-0.173006693838871
 20
-41.47837496386717
 30
0.0
 11
0.645450990461129
 21
-38.42384930186154
 31
0.0
  0
LINE
  5
461
330
44E
100
AcDbEntity
  8
0
  6
Continuous
 62
     7
100
AcDbLine
 10
-0.173006693838871
 20
-46.82837496386719
 30
0.0
 11
0.645450990461129
 21
-49.88290062587281
 31
0.0
  0
LINE
  5
462
330
44E
100
AcDbEntity
  8
0
  6
Continuous
 62
     7
100
AcDbLine
 10
-0.173006693838871
 20
-46.82837496386719
 30
0.0
 11
-0.991464378138871
 21
-49.88290062587281
 31
0.0
  0
ENDBLK
  5
450
330
44E
100
AcDbEntity
  8
0
100
AcDbBlockEnd
  0
BLOCK
  5
465
330
464
100
AcDbEntity
  8
0
100
AcDbBlockBegin
  2
*D23
 70
     1
 10
0.0
 20
0.0
 30
0.0
  3
*D23
  1

  0
LINE
  5
467
330
464
100
AcDbEntity
  8
0
 62
     0
370
    -2
100
AcDbLine
 10
0.366993306161128
 20
-46.82837496386719
 30
0.0
 11
1.827993306161125
 21
-46.82837496386719
 31
0.0
  0
LINE
  5
468
330
464
100
AcDbEntity
  8
0
 62
     0
370
    -2
100
AcDbLine
 10
-0.555017725097648
 20
-64.87837496386717
 30
0.0
 11
1.827993306161132
 21
-64.87837496386717
 31
0.0
  0
LINE
  5
469
330
464
100
AcDbEntity
  8
0
 62
     0
370
    -2
100
AcDbLine
 10
-0.172006693838874
 20
-49.82837496386719
 30
0.0
 11
-0.172006693838869
 21
-61.87837496386717
 31
0.0
  0
INSERT
  5
46A
330
464
100
AcDbEntity
  8
0
 62
     0
370
    -2
100
AcDbBlockReference
  2
_OPEN30
 10
-0.172006693838875
 20
-46.82837496386719
 30
0.0
 41
3.0
 42
3.0
 43
3.0
 50
90.00000000000001
  0
INSERT
  5
46B
330
464
100
AcDbEntity
  8
0
 62
     0
370
    -2
100
AcDbBlockReference
  2
_OPEN30
 10
-0.172006693838868
 20
-64.87837496386717
 30
0.0
 41
3.0
 42
3.0
 43
3.0
 50
270.0
  0
MTEXT
  5
46C
330
464
100
AcDbEntity
  8
0
 62
     1
100
AcDbMText
 10
-2.586406729816237
 20
-55.85237496386718
 30
0.0
 40
3.200000047683716
 41
0.0
 71
     5
 72
     1
  1
36
 11
-3.828885500438563E-16
 21
1.0
 31
0.0
 73
     1
 44
1.0
  0
POINT
  5
46D
330
464
100
AcDbEntity
  8
Defpoints
 62
     0
100
AcDbPoint
 10
-2.173006693838872
 20
-46.82837496386719
 30
0.0
  0
POINT
  5
46E
330
464
100
AcDbEntity
  8
Defpoints
 62
     0
100
AcDbPoint
 10
-3.095017725097648
 20
-64.87837496386717
 30
0.0
  0
POINT
  5
46F
330
464
100
AcDbEntity
  8
Defpoints
 62
     0
100
AcDbPoint
 10
-0.173006693838872
 20
-64.87837496386717
 30
0.0
  0
ENDBLK
  5
466
330
464
100
AcDbEntity
  8
0
100
AcDbBlockEnd
  0
BLOCK
  5
472
330
471
100
AcDbEntity
  8
0
100
AcDbBlockBegin
  2
*D24
 70
     1
 10
0.0
 20
0.0
 30
0.0
  3
*D24
  1

  0
LINE
  5
474
330
471
100
AcDbEntity
  8
0
 62
     0
370
    -2
100
AcDbLine
 10
16.46346184134833
 20
-37.93837496386717
 30
0.0
 11
16.46346184134833
 21
-19.47837496386717
 31
0.0
  0
LINE
  5
475
330
471
100
AcDbEntity
  8
0
 62
     0
370
    -2
100
AcDbLine
 10
10.54600677490237
 20
-38.43837496386717
 30
0.0
 11
10.54600677490237
 21
-19.47837496386717
 31
0.0
  0
LINE
  5
476
330
471
100
AcDbEntity
  8
0
 62
     0
370
    -2
100
AcDbLine
 10
16.46346184134833
 20
-21.47837496386717
 30
0.0
 11
10.54600677490237
 21
-21.47837496386717
 31
0.0
  0
LINE
  5
477
330
471
100
AcDbEntity
  8
0
 62
     0
370
    -2
100
AcDbLine
 10
19.46346184134833
 20
-21.47837496386717
 30
0.0
 11
22.46346184134833
 21
-21.47837496386717
 31
0.0
  0
LINE
  5
478
330
471
100
AcDbEntity
  8
0
 62
     0
370
    -2
100
AcDbLine
 10
7.546006774902366
 20
-21.47837496386717
 30
0.0
 11
4.546006774902366
 21
-21.47837496386717
 31
0.0
  0
INSERT
  5
479
330
471
100
AcDbEntity
  8
0
 62
     0
370
    -2
100
AcDbBlockReference
  2
_OPEN30
 10
16.46346184134833
 20
-21.47837496386717
 30
0.0
 41
3.0
 42
3.0
 43
3.0
 50
180.0
  0
INSERT
  5
47A
330
471
100
AcDbEntity
  8
0
 62
     0
370
    -2
100
AcDbBlockReference
  2
_OPEN30
 10
10.54600677490237
 20
-21.47837496386717
 30
0.0
 41
3.0
 42
3.0
 43
3.0
  0
MTEXT
  5
47B
330
471
100
AcDbEntity
  8
0
 62
     1
100
AcDbMText
 10
13.50673430812535
 20
-19.06397492788981
 30
0.0
 40
3.200000047683716
 41
0.0
 71
     5
 72
     1
  1
12
 73
     1
 44
1.0
  0
POINT
  5
47C
330
471
100
AcDbEntity
  8
Defpoints
 62
     0
100
AcDbPoint
 10
16.46346184134833
 20
-40.47837496386717
 30
0.0
  0
POINT
  5
47D
330
471
100
AcDbEntity
  8
Defpoints
 62
     0
100
AcDbPoint
 10
10.54600677490237
 20
-40.97837496386717
 30
0.0
  0
POINT
  5
47E
330
471
100
AcDbEntity
  8
Defpoints
 62
     0
100
AcDbPoint
 10
10.54600677490237
 20
-21.47837496386717
 30
0.0
  0
ENDBLK
  5
473
330
471
100
AcDbEntity
  8
0
100
AcDbBlockEnd
  0
BLOCK
  5
481
330
480
100
AcDbEntity
  8
0
100
AcDbBlockBegin
  2
*D25
 70
     1
 10
0.0
 20
0.0
 30
0.0
  3
*D25
  1

  0
LINE
  5
483
330
480
100
AcDbEntity
  8
0
 62
     0
370
    -2
100
AcDbLine
 10
17.98600677490234
 20
-40.47837496386717
 30
0.0
 11
28.44548372620146
 21
-40.47837496386716
 31
0.0
  0
LINE
  5
484
330
480
100
AcDbEntity
  8
0
 62
     0
370
    -2
100
AcDbLine
 10
8.779657774902354
 20
-67.87837496386717
 30
0.0
 11
28.44548372620147
 21
-67.87837496386716
 31
0.0
  0
LINE
  5
485
330
480
100
AcDbEntity
  8
0
 62
     0
370
    -2
100
AcDbLine
 10
26.44548372620146
 20
-43.47837496386716
 30
0.0
 11
26.44548372620147
 21
-64.87837496386716
 31
0.0
  0
INSERT
  5
486
330
480
100
AcDbEntity
  8
0
 62
     0
370
    -2
100
AcDbBlockReference
  2
_OPEN30
 10
26.44548372620146
 20
-40.47837496386716
 30
0.0
 41
3.0
 42
3.0
 43
3.0
 50
90.00000000000001
  0
INSERT
  5
487
330
480
100
AcDbEntity
  8
0
 62
     0
370
    -2
100
AcDbBlockReference
  2
_OPEN30
 10
26.44548372620147
 20
-67.87837496386716
 30
0.0
 41
3.0
 42
3.0
 43
3.0
 50
270.0
  0
MTEXT
  5
488
330
480
100
AcDbEntity
  8
0
 62
     1
100
AcDbMText
 10
24.0310836902241
 20
-54.17737496386717
 30
0.0
 40
3.200000047683716
 41
0.0
 71
     5
 72
     1
  1
55
 11
-3.889832495037045E-16
 21
1.0
 31
0.0
 73
     1
 44
1.0
  0
POINT
  5
489
330
480
100
AcDbEntity
  8
Defpoints
 62
     0
100
AcDbPoint
 10
15.44600677490234
 20
-40.47837496386717
 30
0.0
  0
POINT
  5
48A
330
480
100
AcDbEntity
  8
Defpoints
 62
     0
100
AcDbPoint
 10
6.239657774902355
 20
-67.87837496386717
 30
0.0
  0
POINT
  5
48B
330
480
100
AcDbEntity
  8
Defpoints
 62
     0
100
AcDbPoint
 10
26.44448372620146
 20
-67.87837496386716
 30
0.0
  0
ENDBLK
  5
482
330
480
100
AcDbEntity
  8
0
100
AcDbBlockEnd
  0
BLOCK
  5
48E
330
48D
100
AcDbEntity
  8
0
100
AcDbBlockBegin
  2
*D26
 70
     1
 10
0.0
 20
0.0
 30
0.0
  3
*D26
  1

  0
LINE
  5
490
330
48D
100
AcDbEntity
  8
0
 62
     0
370
    -2
100
AcDbLine
 10
9.904982780291723
 20
-69.26837496386717
 30
0.0
 11
9.904982780291725
 21
-79.87737496386717
 31
0.0
  0
LINE
  5
491
330
48D
100
AcDbEntity
  8
0
 62
     0
370
    -2
100
AcDbLine
 10
-33.09501721067409
 20
-69.26837496386717
 30
0.0
 11
-33.09501721067408
 21
-79.87737496386717
 31
0.0
  0
LINE
  5
492
330
48D
100
AcDbEntity
  8
0
 62
     0
370
    -2
100
AcDbLine
 10
6.904982780291725
 20
-77.87737496386717
 30
0.0
 11
-30.09501721067408
 21
-77.87737496386717
 31
0.0
  0
INSERT
  5
493
330
48D
100
AcDbEntity
  8
0
 62
     0
370
    -2
100
AcDbBlockReference
  2
_OPEN30
 10
9.904982780291725
 20
-77.87737496386717
 30
0.0
 41
3.0
 42
3.0
 43
3.0
  0
INSERT
  5
494
330
48D
100
AcDbEntity
  8
0
 62
     0
370
    -2
100
AcDbBlockReference
  2
_OPEN30
 10
-33.09501721067408
 20
-77.87737496386717
 30
0.0
 41
3.0
 42
3.0
 43
3.0
 50
180.0
  0
MTEXT
  5
495
330
48D
100
AcDbEntity
  8
0
 62
     1
100
AcDbMText
 10
-11.59301721519118
 20
-75.4629749278898
 30
0.0
 40
3.200000047683716
 41
0.0
 71
     5
 72
     1
  1
86
 73
     1
 44
1.0
  0
POINT
  5
496
330
48D
100
AcDbEntity
  8
Defpoints
 62
     0
100
AcDbPoint
 10
9.904982780291723
 20
-66.72837496386717
 30
0.0
  0
POINT
  5
497
330
48D
100
AcDbEntity
  8
Defpoints
 62
     0
100
AcDbPoint
 10
-33.09501721067409
 20
-66.72837496386717
 30
0.0
  0
POINT
  5
498
330
48D
100
AcDbEntity
  8
Defpoints
 62
     0
100
AcDbPoint
 10
-33.09501721067409
 20
-77.87837496386717
 30
0.0
  0
ENDBLK
  5
48F
330
48D
100
AcDbEntity
  8
0
100
AcDbBlockEnd
  0
ENDSEC
  0
SECTION
  2
ENTITIES
  0
POINT
  5
287
330
1F
100
AcDbEntity
  8
0
 62
     7
100
AcDbPoint
 10
16.44600677490234
 20
93.51264953613281
 30
0.0
  0
POINT
  5
288
330
1F
100
AcDbEntity
  8
0
 62
     7
100
AcDbPoint
 10
16.44600677490234
 20
93.51264953613281
 30
0.0
  0
POINT
  5
289
330
1F
100
AcDbEntity
  8
0
 62
     7
100
AcDbPoint
 10
26.44600677490234
 20
93.51264953613281
 30
0.0
  0
POINT
  5
28A
330
1F
100
AcDbEntity
  8
0
 62
     7
100
AcDbPoint
 10
16.44600677490234
 20
103.5126495361328
 30
0.0
  0
POINT
  5
28B
330
1F
100
AcDbEntity
  8
0
 62
     7
100
AcDbPoint
 10
-73.76995222509763
 20
31.29669053613282
 30
0.0
  0
POINT
  5
28C
330
1F
100
AcDbEntity
  8
0
 62
     7
100
AcDbPoint
 10
-45.76995222509765
 20
3.296690536132814
 30
0.0
  0
POINT
  5
28D
330
1F
100
AcDbEntity
  8
0
 62
     7
100
AcDbPoint
 10
-35.37693722509763
 20
-31.47837496386717
 30
0.0
  0
POINT
  5
28E
330
1F
100
AcDbEntity
  8
0
 62
     7
100
AcDbPoint
 10
26.44448372620146
 20
-41.65289904341063
 30
0.0
  0
POINT
  5
28F
330
1F
100
AcDbEntity
  8
0
 62
     7
100
AcDbPoint
 10
-35.37693722509763
 20
-21.47837496386717
 30
0.0
  0
POINT
  5
290
330
1F
100
AcDbEntity
  8
0
 62
     7
100
AcDbPoint
 10
-35.37693722509763
 20
-11.47837496386717
 30
0.0
  0
POINT
  5
291
330
1F
100
AcDbEntity
  8
0
 62
     7
100
AcDbPoint
 10
-73.76995222509763
 20
-27.97837496386718
 30
0.0
  0
POINT
  5
292
330
1F
100
AcDbEntity
  8
0
 62
     7
100
AcDbPoint
 10
-26.59501772509765
 20
-77.87837496386717
 30
0.0
  0
POINT
  5
293
330
1F
100
AcDbEntity
  8
0
 62
     7
100
AcDbPoint
 10
-46.2961381625264
 20
-27.97837496386718
 30
0.0
  0
POINT
  5
294
330
1F
100
AcDbEntity
  8
0
 62
     7
100
AcDbPoint
 10
16.46346184134833
 20
-40.47837496386717
 30
0.0
  0
POINT
  5
295
330
1F
100
AcDbEntity
  8
0
 62
     7
100
AcDbPoint
 10
-38.8352990282162
 20
-28.17218874601928
 30
0.0
  0
POINT
  5
296
330
1F
100
AcDbEntity
  8
0
 62
     7
100
AcDbPoint
 10
-24.20857267471432
 20
-43.81111633038931
 30
0.0
  0
POINT
  5
297
330
1F
100
AcDbEntity
  8
0
 62
     7
100
AcDbPoint
 10
-0.173006693838871
 20
-45.95681739721559
 30
0.0
  0
LINE
  5
298
330
1F
100
AcDbEntity
  8
0
  6
Continuous
 62
     2
100
AcDbLine
 10
15.29600677490237
 20
-42.22837496386718
 30
0.0
 11
15.29600677490237
 21
-45.50643346386718
 31
0.0
  0
LINE
  5
299
330
1F
100
AcDbEntity
  8
0
  6
Continuous
 62
     2
100
AcDbLine
 10
-34.30979722509765
 20
32.15024353613283
 30
0.0
 11
15.29600677490237
 21
81.75604824936791
 31
0.0
  0
LINE
  5
29A
330
1F
100
AcDbEntity
  8
0
  6
Continuous
 62
     2
100
AcDbLine
 10
-30.77426322509768
 20
32.15024353613288
 30
0.0
 11
15.29600677490233
 21
78.22051423400981
 31
0.0
  0
LINE
  5
29B
330
1F
100
AcDbEntity
  8
0
  6
Continuous
 62
     2
100
AcDbLine
 10
-44.91639872509766
 20
46.29237953613278
 30
0.0
 11
1.153871274902386
 21
92.36264953613284
 31
0.0
  0
LINE
  5
29C
330
1F
100
AcDbEntity
  8
0
  6
Continuous
 62
     2
100
AcDbLine
 10
-44.91639872509766
 20
42.75684553613288
 30
0.0
 11
-10.14118472509767
 21
77.53205953613288
 31
0.0
  0
LINE
  5
29D
330
1F
100
AcDbEntity
  8
0
  6
Continuous
 62
     2
100
AcDbLine
 10
-44.91639872509766
 20
42.75684553613288
 30
0.0
 11
4.689405274902334
 21
92.36264953613289
 31
0.0
  0
LINE
  5
29E
330
1F
100
AcDbEntity
  8
0
  6
Continuous
 62
     2
100
AcDbLine
 10
-12.68250622509765
 20
30.79669053613282
 30
0.0
 11
-9.62202772509761
 21
30.79669053613282
 31
0.0
  0
LINE
  5
29F
330
1F
100
AcDbEntity
  8
0
  6
Continuous
 62
     2
100
AcDbLine
 10
-38.76995222509765
 20
31.79669053613282
 30
0.0
 11
-9.62202772509761
 21
31.79669053613282
 31
0.0
  0
LINE
  5
2A0
330
1F
100
AcDbEntity
  8
0
  6
Continuous
 62
     2
100
AcDbLine
 10
-45.26995222509765
 20
13.29669053613281
 30
0.0
 11
-9.62202772509761
 21
13.29669053613281
 31
0.0
  0
LINE
  5
2A1
330
1F
100
AcDbEntity
  8
0
  6
Continuous
 62
     2
100
AcDbLine
 10
-12.68250622509765
 20
30.79669053613282
 30
0.0
 11
-9.62202772509761
 21
30.79669053613282
 31
0.0
  0
LINE
  5
2A2
330
1F
100
AcDbEntity
  8
0
  6
Continuous
 62
     7
100
AcDbLine
 10
-49.76995222509765
 20
32.04669053613282
 30
0.0
 11
-45.01995222509765
 21
32.04669053613282
 31
0.0
  0
LINE
  5
2A3
330
1F
100
AcDbEntity
  8
0
  6
Continuous
 62
     7
100
AcDbLine
 10
-45.01995222509765
 20
27.29669053613282
 30
0.0
 11
-45.01995222509765
 21
32.04669053613282
 31
0.0
  0
LINE
  5
2A4
330
1F
100
AcDbEntity
  8
0
  6
Continuous
 62
     7
100
AcDbLine
 10
-45.26995222509763
 20
63.97162503613289
 30
0.0
 11
-50.81353022509762
 21
63.48662503613289
 31
0.0
  0
LINE
  5
2A5
330
1F
100
AcDbEntity
  8
0
  6
Continuous
 62
     7
100
AcDbLine
 10
-45.26995222509763
 20
73.97162503613299
 30
0.0
 11
-50.81353022509762
 21
74.45662553613298
 31
0.0
  0
LINE
  5
2A6
330
1F
100
AcDbEntity
  8
0
  6
Continuous
 62
     7
100
AcDbLine
 10
-61.76995222509765
 20
30.79669053613282
 30
0.0
 11
-48.76995222509765
 21
30.79669053613282
 31
0.0
  0
LINE
  5
2A7
330
1F
100
AcDbEntity
  8
0
  6
Continuous
 62
     7
100
AcDbLine
 10
-63.76995222509763
 20
93.01264953613281
 30
0.0
 11
-63.76995222509763
 21
31.29669053613282
 31
0.0
  0
LINE
  5
2A8
330
1F
100
AcDbEntity
  8
0
  6
Continuous
 62
     7
100
AcDbLine
 10
-51.26995222509765
 20
87.61264953613282
 30
0.0
 11
-51.26995222509765
 21
90.86264953613282
 31
0.0
  0
LINE
  5
2A9
330
1F
100
AcDbEntity
  8
0
  6
Continuous
 62
     7
100
AcDbLine
 10
-63.76995222509763
 20
87.61264953613282
 30
0.0
 11
-51.26995222509765
 21
87.61264953613282
 31
0.0
  0
LINE
  5
2AA
330
1F
100
AcDbEntity
  8
0
  6
Continuous
 62
     7
100
AcDbLine
 10
-61.76995222509765
 20
89.11264953613282
 30
0.0
 11
-51.26995222509765
 21
89.11264953613282
 31
0.0
  0
LINE
  5
2AB
330
1F
100
AcDbEntity
  8
0
  6
Continuous
 62
     7
100
AcDbLine
 10
-63.76995222509763
 20
38.39669053613282
 30
0.0
 11
-51.26995222509765
 21
38.39669053613282
 31
0.0
  0
LINE
  5
2AC
330
1F
100
AcDbEntity
  8
0
  6
Continuous
 62
     7
100
AcDbLine
 10
-61.76995222509765
 20
36.89669053613282
 30
0.0
 11
-51.26995222509765
 21
36.89669053613282
 31
0.0
  0
LINE
  5
2AD
330
1F
100
AcDbEntity
  8
0
  6
Continuous
 62
     7
100
AcDbLine
 10
-51.26995222509765
 20
38.39669053613282
 30
0.0
 11
-51.26995222509765
 21
33.54669053613282
 31
0.0
  0
LINE
  5
2AE
330
1F
100
AcDbEntity
  8
0
  6
Continuous
 62
     7
100
AcDbLine
 10
-63.76995222509763
 20
49.47162503613282
 30
0.0
 11
-51.26995222509765
 21
49.47162503613282
 31
0.0
  0
LINE
  5
2AF
330
1F
100
AcDbEntity
  8
0
  6
Continuous
 62
     7
100
AcDbLine
 10
-63.76995222509763
 20
42.16513453613283
 30
0.0
 11
-46.26995222509765
 21
42.16513453613283
 31
0.0
  0
LINE
  5
2B0
330
1F
100
AcDbEntity
  8
0
  6
Continuous
 62
     7
100
AcDbLine
 10
-51.26995222509765
 20
37.29669053613282
 30
0.0
 11
-39.76995222509765
 21
37.29669053613282
 31
0.0
  0
LINE
  5
2B1
330
1F
100
AcDbEntity
  8
0
  6
Continuous
 62
     7
100
AcDbLine
 10
-51.26995222509765
 20
88.71264953613282
 30
0.0
 11
-46.26995222509765
 21
88.71264953613282
 31
0.0
  0
LINE
  5
2B2
330
1F
100
AcDbEntity
  8
0
  6
Continuous
 62
     7
100
AcDbLine
 10
-46.26995222509765
 20
88.71264953613282
 30
0.0
 11
-46.26995222509765
 21
88.00298753613282
 31
0.0
  0
LINE
  5
2B3
330
1F
100
AcDbEntity
  8
0
  6
Continuous
 62
     7
100
AcDbLine
 10
-45.26995222509765
 20
88.21264953613282
 30
0.0
 11
-45.26995222509765
 21
37.79669053613282
 31
0.0
  0
LINE
  5
2B4
330
1F
100
AcDbEntity
  8
0
  6
Continuous
 62
     7
100
AcDbLine
 10
-45.26995222509765
 20
42.16513453613283
 30
0.0
 11
-34.90150822509764
 21
42.16513453613283
 31
0.0
  0
LINE
  5
2B5
330
1F
100
AcDbEntity
  8
0
  6
Continuous
 62
     7
100
AcDbLine
 10
-45.26995222509765
 20
49.47162503613282
 30
0.0
 11
-27.59501772509765
 21
49.47162503613282
 31
0.0
  0
LINE
  5
2B6
330
1F
100
AcDbEntity
  8
0
  6
Continuous
 62
     7
100
AcDbLine
 10
-51.26995222509765
 20
40.66505653613282
 30
0.0
 11
-45.26995222509765
 21
40.66505653613282
 31
0.0
  0
LINE
  5
2B7
330
1F
100
AcDbEntity
  8
0
  6
Continuous
 62
     7
100
AcDbLine
 10
-51.26995222509765
 20
40.60420803613282
 30
0.0
 11
-51.26995222509765
 21
40.66505653613282
 31
0.0
  0
LINE
  5
2B8
330
1F
100
AcDbEntity
  8
0
  6
Continuous
 62
     7
100
AcDbLine
 10
-46.41733422509765
 20
39.66762953613291
 30
0.0
 11
-48.44581022509765
 21
39.70303653613291
 31
0.0
  0
LINE
  5
2B9
330
1F
100
AcDbEntity
  8
0
  6
Continuous
 62
     7
100
AcDbLine
 10
-49.08192972509757
 20
39.79684203613288
 30
0.0
 11
-51.08792722509758
 21
40.36362653613288
 31
0.0
  0
LINE
  5
2BA
330
1F
100
AcDbEntity
  8
0
  6
Continuous
 62
     7
100
AcDbLine
 10
-46.26995222509765
 20
39.51765203613282
 30
0.0
 11
-46.26995222509765
 21
37.29669053613282
 31
0.0
  0
LINE
  5
2BB
330
1F
100
AcDbEntity
  8
0
  6
Continuous
 62
     7
100
AcDbLine
 10
-51.26995222509765
 20
44.08781753613282
 30
0.0
 11
-45.26995222509765
 21
44.08781753613282
 31
0.0
  0
LINE
  5
2BC
330
1F
100
AcDbEntity
  8
0
  6
Continuous
 62
     7
100
AcDbLine
 10
-51.26995222509765
 20
44.02696903613283
 30
0.0
 11
-51.26995222509765
 21
44.08781753613282
 31
0.0
  0
LINE
  5
2BD
330
1F
100
AcDbEntity
  8
0
  6
Continuous
 62
     7
100
AcDbLine
 10
-46.41733422509765
 20
43.09039003613281
 30
0.0
 11
-48.44581022509767
 21
43.12579753613281
 31
0.0
  0
LINE
  5
2BE
330
1F
100
AcDbEntity
  8
0
  6
Continuous
 62
     7
100
AcDbLine
 10
-49.08192972509767
 20
43.21960303613288
 30
0.0
 11
-51.08792722509765
 21
43.78638753613288
 31
0.0
  0
LINE
  5
2BF
330
1F
100
AcDbEntity
  8
0
  6
Continuous
 62
     7
100
AcDbLine
 10
-46.26995222509765
 20
42.94041303613282
 30
0.0
 11
-46.26995222509765
 21
40.66505653613282
 31
0.0
  0
LINE
  5
2C0
330
1F
100
AcDbEntity
  8
0
  6
Continuous
 62
     7
100
AcDbLine
 10
-46.26995222509765
 20
42.87246203613282
 30
0.0
 11
-45.26995222509765
 21
42.87246203613282
 31
0.0
  0
LINE
  5
2C1
330
1F
100
AcDbEntity
  8
0
  6
Continuous
 62
     7
100
AcDbLine
 10
-51.26995222509765
 20
44.08781753613282
 30
0.0
 11
-51.26995222509765
 21
62.98852753613282
 31
0.0
  0
LINE
  5
2C2
330
1F
100
AcDbEntity
  8
0
  6
Continuous
 62
     7
100
AcDbLine
 10
-51.26995222509765
 20
86.85558303613281
 30
0.0
 11
-45.26995222509765
 21
86.85558303613281
 31
0.0
  0
LINE
  5
2C3
330
1F
100
AcDbEntity
  8
0
  6
Continuous
 62
     7
100
AcDbLine
 10
-51.26995222509765
 20
86.91643153613282
 30
0.0
 11
-51.26995222509765
 21
86.85558303613281
 31
0.0
  0
LINE
  5
2C4
330
1F
100
AcDbEntity
  8
0
  6
Continuous
 62
     7
100
AcDbLine
 10
-46.41733422509763
 20
87.8530100361329
 30
0.0
 11
-48.4458102250976
 21
87.81760303613291
 31
0.0
  0
LINE
  5
2C5
330
1F
100
AcDbEntity
  8
0
  6
Continuous
 62
     7
100
AcDbLine
 10
-49.08192972509768
 20
87.72379753613276
 30
0.0
 11
-51.08792722509769
 21
87.15701303613275
 31
0.0
  0
LINE
  5
2C6
330
1F
100
AcDbEntity
  8
0
  6
Continuous
 62
     7
100
AcDbLine
 10
-51.26995222509765
 20
86.85558303613281
 30
0.0
 11
-51.26995222509765
 21
74.95472253613282
 31
0.0
  0
LINE
  5
2C7
330
1F
100
AcDbEntity
  8
0
  6
Continuous
 62
     7
100
AcDbLine
 10
-46.26995222509765
 20
74.05911353613281
 30
0.0
 11
-46.26995222509765
 21
63.88413653613281
 31
0.0
  0
LINE
  5
2C8
330
1F
100
AcDbEntity
  8
0
  6
Continuous
 62
     7
100
AcDbLine
 10
-51.26995222509765
 20
38.05346753613283
 30
0.0
 11
-46.26995222509765
 21
38.05346753613283
 31
0.0
  0
LINE
  5
2C9
330
1F
100
AcDbEntity
  8
0
  6
Continuous
 62
     7
100
AcDbLine
 10
-45.26995222509765
 20
38.05346753613283
 30
0.0
 11
-39.01317522509765
 21
38.05346753613283
 31
0.0
  0
LINE
  5
2CA
330
1F
100
AcDbEntity
  8
0
  6
Continuous
 62
     7
100
AcDbLine
 10
-61.76995222509765
 20
93.51264953613293
 30
0.0
 11
-63.76995222509765
 21
93.01264953613293
 31
0.0
  0
LINE
  5
2CB
330
1F
100
AcDbEntity
  8
0
  6
Continuous
 62
     7
100
AcDbLine
 10
-61.76995222509765
 20
93.51264953613281
 30
0.0
 11
-61.76995222509765
 21
89.11264953613282
 31
0.0
  0
LINE
  5
2CC
330
1F
100
AcDbEntity
  8
0
  6
Continuous
 62
     7
100
AcDbLine
 10
-61.76995222509765
 20
89.1126495361328
 30
0.0
 11
-63.76995222509765
 21
89.3308955361328
 31
0.0
  0
LINE
  5
2CD
330
1F
100
AcDbEntity
  8
0
  6
Continuous
 62
     7
100
AcDbLine
 10
-61.76995222509765
 20
30.79669053613282
 30
0.0
 11
-61.76995222509765
 21
36.89669053613282
 31
0.0
  0
LINE
  5
2CE
330
1F
100
AcDbEntity
  8
0
  6
Continuous
 62
     7
100
AcDbLine
 10
-61.76995222509762
 20
30.79669053613287
 30
0.0
 11
-63.76995222509763
 21
31.29669053613288
 31
0.0
  0
LINE
  5
2CF
330
1F
100
AcDbEntity
  8
0
  6
Continuous
 62
     7
100
AcDbLine
 10
-63.7699522250977
 20
36.67844453613286
 30
0.0
 11
-61.76995222509772
 21
36.89669053613286
 31
0.0
  0
LINE
  5
2D0
330
1F
100
AcDbEntity
  8
0
  6
Continuous
 62
     7
100
AcDbLine
 10
16.44600677490243
 20
15.29669053613281
 30
0.0
 11
15.94600677490243
 21
13.29669053613281
 31
0.0
  0
LINE
  5
2D1
330
1F
100
AcDbEntity
  8
0
  6
Continuous
 62
     7
100
AcDbLine
 10
16.44600677490234
 20
15.29669053613281
 30
0.0
 11
12.04600677490237
 21
15.29669053613281
 31
0.0
  0
LINE
  5
2D2
330
1F
100
AcDbEntity
  8
0
  6
Continuous
 62
     7
100
AcDbLine
 10
12.0460067749024
 20
15.29669053613282
 30
0.0
 11
12.2642527749024
 21
13.29669053613282
 31
0.0
  0
LINE
  5
2D3
330
1F
100
AcDbEntity
  8
0
  6
Continuous
 62
     7
100
AcDbLine
 10
-46.26995222509765
 20
15.29669053613281
 30
0.0
 11
-40.16995222509763
 21
15.29669053613281
 31
0.0
  0
LINE
  5
2D4
330
1F
100
AcDbEntity
  8
0
  6
Continuous
 62
     7
100
AcDbLine
 10
-46.26995222509763
 20
15.29669053613283
 30
0.0
 11
-45.76995222509763
 21
13.29669053613284
 31
0.0
  0
LINE
  5
2D5
330
1F
100
AcDbEntity
  8
0
  6
Continuous
 62
     7
100
AcDbLine
 10
-40.38819822509763
 20
13.29669053613281
 30
0.0
 11
-40.16995222509762
 21
15.29669053613281
 31
0.0
  0
LINE
  5
2D6
330
1F
100
AcDbEntity
  8
0
  6
Continuous
 62
     7
100
AcDbLine
 10
-39.01317522509765
 20
31.79669053613282
 30
0.0
 11
-39.01317522509765
 21
38.05346753613283
 31
0.0
  0
LINE
  5
2D7
330
1F
100
AcDbEntity
  8
0
  6
Continuous
 62
     7
100
AcDbLine
 10
-39.01317522509765
 20
25.79669053613282
 30
0.0
 11
-39.01317522509765
 21
30.79669053613282
 31
0.0
  0
LINE
  5
2D8
330
1F
100
AcDbEntity
  8
0
  6
Continuous
 62
     7
100
AcDbLine
 10
-3.095017725097589
 20
31.79669053613283
 30
0.0
 11
-2.61001722509759
 21
26.25311253613283
 31
0.0
  0
LINE
  5
2D9
330
1F
100
AcDbEntity
  8
0
  6
Continuous
 62
     7
100
AcDbLine
 10
-32.97882472509764
 20
25.79669053613281
 30
0.0
 11
-14.07811522509763
 21
25.79669053613281
 31
0.0
  0
LINE
  5
2DA
330
1F
100
AcDbEntity
  8
0
  6
Continuous
 62
     7
100
AcDbLine
 10
9.788940274902359
 20
25.79669053613282
 30
0.0
 11
9.788940274902359
 21
31.79669053613282
 31
0.0
  0
LINE
  5
2DB
330
1F
100
AcDbEntity
  8
0
  6
Continuous
 62
     7
100
AcDbLine
 10
9.849789274902378
 20
25.79669053613281
 30
0.0
 11
9.788940274902359
 21
25.79669053613281
 31
0.0
  0
LINE
  5
2DC
330
1F
100
AcDbEntity
  8
0
  6
Continuous
 62
     7
100
AcDbLine
 10
10.78636777490243
 20
30.64930803613281
 30
0.0
 11
10.75096027490244
 21
28.62083253613282
 31
0.0
  0
LINE
  5
2DD
330
1F
100
AcDbEntity
  8
0
  6
Continuous
 62
     7
100
AcDbLine
 10
10.65715477490236
 20
27.98471303613285
 30
0.0
 11
10.09037027490234
 21
25.97871553613285
 31
0.0
  0
LINE
  5
2DE
330
1F
100
AcDbEntity
  8
0
  6
Continuous
 62
     7
100
AcDbLine
 10
9.788940274902359
 20
25.79669053613281
 30
0.0
 11
-2.111919725097664
 21
25.79669053613281
 31
0.0
  0
LINE
  5
2DF
330
1F
100
AcDbEntity
  8
0
  6
Continuous
 62
     7
100
AcDbLine
 10
-3.007528725097643
 20
30.79669053613282
 30
0.0
 11
-13.18250622509765
 21
30.79669053613282
 31
0.0
  0
LINE
  5
2E0
330
1F
100
AcDbEntity
  8
0
  6
Continuous
 62
     7
100
AcDbLine
 10
-13.09501772509756
 20
31.79669053613281
 30
0.0
 11
-13.58001772509756
 21
26.25311253613282
 31
0.0
  0
LINE
  5
2E1
330
1F
100
AcDbEntity
  8
0
  6
Continuous
 62
     7
100
AcDbLine
 10
-34.12622972509763
 20
30.79669053613282
 30
0.0
 11
-36.40158572509765
 21
30.79669053613282
 31
0.0
  0
LINE
  5
2E2
330
1F
100
AcDbEntity
  8
0
  6
Continuous
 62
     7
100
AcDbLine
 10
-34.19418072509762
 20
30.79669053613282
 30
0.0
 11
-34.19418072509762
 21
31.79669053613282
 31
0.0
  0
LINE
  5
2E3
330
1F
100
AcDbEntity
  8
0
  6
Continuous
 62
     7
100
AcDbLine
 10
-32.97882472509764
 20
25.79669053613282
 30
0.0
 11
-32.97882472509764
 21
31.79669053613282
 31
0.0
  0
LINE
  5
2E4
330
1F
100
AcDbEntity
  8
0
  6
Continuous
 62
     7
100
AcDbLine
 10
-33.03967372509763
 20
25.79669053613281
 30
0.0
 11
-32.97882472509764
 21
25.79669053613281
 31
0.0
  0
LINE
  5
2E5
330
1F
100
AcDbEntity
  8
0
  6
Continuous
 62
     7
100
AcDbLine
 10
-33.97625222509767
 20
30.64930803613282
 30
0.0
 11
-33.94084522509768
 21
28.62083253613282
 31
0.0
  0
LINE
  5
2E6
330
1F
100
AcDbEntity
  8
0
  6
Continuous
 62
     7
100
AcDbLine
 10
-33.84703972509766
 20
27.98471303613283
 30
0.0
 11
-33.28025522509766
 21
25.97871553613284
 31
0.0
  0
LINE
  5
2E7
330
1F
100
AcDbEntity
  8
0
  6
Continuous
 62
     7
100
AcDbLine
 10
-37.54899022509764
 20
30.79669053613282
 30
0.0
 11
-39.76995222509765
 21
30.79669053613282
 31
0.0
  0
LINE
  5
2E8
330
1F
100
AcDbEntity
  8
0
  6
Continuous
 62
     7
100
AcDbLine
 10
-37.26980072509758
 20
27.98471303613284
 30
0.0
 11
-36.70301622509758
 21
25.97871553613284
 31
0.0
  0
LINE
  5
2E9
330
1F
100
AcDbEntity
  8
0
  6
Continuous
 62
     7
100
AcDbLine
 10
-37.39901322509761
 20
30.64930803613281
 30
0.0
 11
-37.36360622509761
 21
28.62083253613282
 31
0.0
  0
LINE
  5
2EA
330
1F
100
AcDbEntity
  8
0
  6
Continuous
 62
     7
100
AcDbLine
 10
-36.46243472509764
 20
25.79669053613281
 30
0.0
 11
-36.40158572509765
 21
25.79669053613281
 31
0.0
  0
LINE
  5
2EB
330
1F
100
AcDbEntity
  8
0
  6
Continuous
 62
     7
100
AcDbLine
 10
-44.76995222509765
 20
88.71264953613282
 30
0.0
 11
10.14600677490239
 21
88.71264953613282
 31
0.0
  0
LINE
  5
2EC
330
1F
100
AcDbEntity
  8
0
  6
Continuous
 62
     7
100
AcDbLine
 10
11.64600677490239
 20
32.29669053613282
 30
0.0
 11
11.64600677490239
 21
87.21264953613282
 31
0.0
  0
LINE
  5
2ED
330
1F
100
AcDbEntity
  8
0
  6
Continuous
 62
     7
100
AcDbLine
 10
-27.59501772509765
 20
31.79669053613282
 30
0.0
 11
-27.59501772509765
 21
49.47162503613282
 31
0.0
  0
LINE
  5
2EE
330
1F
100
AcDbEntity
  8
0
  6
Continuous
 62
     7
100
AcDbLine
 10
-34.90150822509764
 20
31.79669053613282
 30
0.0
 11
-34.90150822509764
 21
42.16513453613283
 31
0.0
  0
LINE
  5
2EF
330
1F
100
AcDbEntity
  8
0
  6
Continuous
 62
     7
100
AcDbLine
 10
11.14600677490239
 20
31.79669053613282
 30
0.0
 11
-39.26995222509765
 21
31.79669053613282
 31
0.0
  0
LINE
  5
2F0
330
1F
100
AcDbEntity
  8
0
  6
Continuous
 62
     7
100
AcDbLine
 10
-38.66995222509763
 20
13.29669053613282
 30
0.0
 11
-38.66995222509763
 21
25.79669053613282
 31
0.0
  0
LINE
  5
2F1
330
1F
100
AcDbEntity
  8
0
  6
Continuous
 62
     7
100
AcDbLine
 10
-40.16995222509763
 20
15.29669053613282
 30
0.0
 11
-40.16995222509763
 21
25.79669053613282
 31
0.0
  0
LINE
  5
2F2
330
1F
100
AcDbEntity
  8
0
  6
Continuous
 62
     7
100
AcDbLine
 10
-38.66995222509763
 20
25.79669053613281
 30
0.0
 11
-43.51995222509765
 21
25.79669053613281
 31
0.0
  0
LINE
  5
2F3
330
1F
100
AcDbEntity
  8
0
  6
Continuous
 62
     7
100
AcDbLine
 10
-27.59501772509765
 20
13.29669053613282
 30
0.0
 11
-27.59501772509765
 21
25.89669053613282
 31
0.0
  0
LINE
  5
2F4
330
1F
100
AcDbEntity
  8
0
  6
Continuous
 62
     7
100
AcDbLine
 10
-34.90150822509764
 20
13.29669053613282
 30
0.0
 11
-34.90150822509764
 21
30.79669053613282
 31
0.0
  0
LINE
  5
2F5
330
1F
100
AcDbEntity
  8
0
  6
Continuous
 62
     7
100
AcDbLine
 10
-39.76995222509765
 20
25.79669053613282
 30
0.0
 11
-39.76995222509765
 21
37.29669053613282
 31
0.0
  0
LINE
  5
2F6
330
1F
100
AcDbEntity
  8
0
  6
Continuous
 62
     7
100
AcDbLine
 10
11.64600677490239
 20
25.79669053613282
 30
0.0
 11
11.64600677490239
 21
30.79669053613282
 31
0.0
  0
LINE
  5
2F7
330
1F
100
AcDbEntity
  8
0
  6
Continuous
 62
     7
100
AcDbLine
 10
11.64600677490239
 20
30.79669053613282
 30
0.0
 11
10.93634477490235
 21
30.79669053613282
 31
0.0
  0
LINE
  5
2F8
330
1F
100
AcDbEntity
  8
0
  6
Continuous
 62
     7
100
AcDbLine
 10
16.44600677490234
 20
15.29669053613282
 30
0.0
 11
16.44600677490234
 21
93.51264953613281
 31
0.0
  0
LINE
  5
2F9
330
1F
100
AcDbEntity
  8
0
  6
Continuous
 62
     7
100
AcDbLine
 10
-46.26995222509765
 20
15.29669053613282
 30
0.0
 11
-46.26995222509765
 21
28.39669053613282
 31
0.0
  0
LINE
  5
2FA
330
1F
100
AcDbEntity
  8
0
  6
Continuous
 62
     7
100
AcDbLine
 10
16.44600677490234
 20
93.51264953613281
 30
0.0
 11
-61.76995222509765
 21
93.51264953613281
 31
0.0
  0
LINE
  5
2FB
330
1F
100
AcDbEntity
  8
0
  6
Continuous
 62
     7
100
AcDbLine
 10
15.94600677490234
 20
13.29669053613281
 30
0.0
 11
-45.76995222509765
 21
13.29669053613281
 31
0.0
  0
LINE
  5
2FC
330
1F
100
AcDbEntity
  8
0
  6
Continuous
 62
     7
100
AcDbLine
 10
10.54600677490237
 20
25.79669053613281
 30
0.0
 11
13.79600677490237
 21
25.79669053613281
 31
0.0
  0
LINE
  5
2FD
330
1F
100
AcDbEntity
  8
0
  6
Continuous
 62
     7
100
AcDbLine
 10
10.54600677490237
 20
13.29669053613282
 30
0.0
 11
10.54600677490237
 21
25.79669053613282
 31
0.0
  0
LINE
  5
2FE
330
1F
100
AcDbEntity
  8
0
  6
Continuous
 62
     7
100
AcDbLine
 10
15.29600677490237
 20
27.29669053613282
 30
0.0
 11
15.29600677490237
 21
90.86264953613282
 31
0.0
  0
LINE
  5
2FF
330
1F
100
AcDbEntity
  8
0
  6
Continuous
 62
     7
100
AcDbLine
 10
-49.76995222509765
 20
92.36264953613282
 30
0.0
 11
13.79600677490237
 21
92.36264953613282
 31
0.0
  0
LINE
  5
300
330
1F
100
AcDbEntity
  8
0
  6
Continuous
 62
     7
100
AcDbLine
 10
12.04600677490237
 20
15.29669053613282
 30
0.0
 11
12.04600677490237
 21
25.79669053613282
 31
0.0
  0
LINE
  5
301
330
1F
100
AcDbEntity
  8
0
  6
Continuous
 62
     7
100
AcDbLine
 10
-36.40158572509765
 20
25.79669053613282
 30
0.0
 11
-36.40158572509765
 21
31.79669053613282
 31
0.0
  0
LINE
  5
302
330
1F
100
AcDbEntity
  8
0
  6
Continuous
 62
     7
100
AcDbLine
 10
-61.76995222509768
 20
-67.8783749638673
 30
0.0
 11
-63.76995222509768
 21
-67.3783749638673
 31
0.0
  0
LINE
  5
303
330
1F
100
AcDbEntity
  8
0
  6
Continuous
 62
     7
100
AcDbLine
 10
-61.76995222509763
 20
-63.82592346386728
 30
0.0
 11
-63.76995222509763
 21
-63.32592346386728
 31
0.0
  0
LINE
  5
304
330
1F
100
AcDbEntity
  8
0
  6
Continuous
 62
     7
100
AcDbLine
 10
-61.76995222509763
 20
-46.98249646386725
 30
0.0
 11
-63.76995222509763
 21
-46.48249646386725
 31
0.0
  0
LINE
  5
305
330
1F
100
AcDbEntity
  8
0
  6
Continuous
 62
     7
100
AcDbLine
 10
-61.76995222509766
 20
-45.88077846386724
 30
0.0
 11
-63.76995222509766
 21
-45.38077846386724
 31
0.0
  0
LINE
  5
306
330
1F
100
AcDbEntity
  8
0
  6
Continuous
 62
     7
100
AcDbLine
 10
-61.76995222509763
 20
-37.47837496386724
 30
0.0
 11
-63.76995222509763
 21
-36.97837496386724
 31
0.0
  0
LINE
  5
307
330
1F
100
AcDbEntity
  8
0
  6
Continuous
 62
     7
100
AcDbLine
 10
-63.76995222509763
 20
-28.4783749638672
 30
0.0
 11
-61.76995222509763
 21
-27.9783749638672
 31
0.0
  0
LINE
  5
308
330
1F
100
AcDbEntity
  8
0
  6
Continuous
 62
     7
100
AcDbLine
 10
-28.93371422509762
 20
-63.82592346386718
 30
0.0
 11
-61.76995222509765
 21
-63.82592346386718
 31
0.0
  0
LINE
  5
309
330
1F
100
AcDbEntity
  8
0
  6
Continuous
 62
     7
100
AcDbLine
 10
-36.05577322509765
 20
-46.98249646386716
 30
0.0
 11
-61.76995222509765
 21
-46.98249646386716
 31
0.0
  0
LINE
  5
30A
330
1F
100
AcDbEntity
  8
0
  6
Continuous
 62
     7
100
AcDbLine
 10
-40.00979522509763
 20
-45.88077846386719
 30
0.0
 11
-61.76995222509765
 21
-45.88077846386719
 31
0.0
  0
LINE
  5
30B
330
1F
100
AcDbEntity
  8
0
  6
Continuous
 62
     7
100
AcDbLine
 10
-44.97321522509765
 20
-37.47837496386717
 30
0.0
 11
-61.76995222509765
 21
-37.47837496386717
 31
0.0
  0
LINE
  5
30C
330
1F
100
AcDbEntity
  8
0
  6
Continuous
 62
     7
100
AcDbLine
 10
-55.16995222509763
 20
-27.72837496386718
 30
0.0
 11
-55.16995222509763
 21
-27.97837496386718
 31
0.0
  0
LINE
  5
30D
330
1F
100
AcDbEntity
  8
0
  6
Continuous
 62
     7
100
AcDbLine
 10
-55.16995222509763
 20
-27.72837496386718
 30
0.0
 11
-63.76995222509763
 21
-27.72837496386718
 31
0.0
  0
LINE
  5
30E
330
1F
100
AcDbEntity
  8
0
  6
Continuous
 62
     7
100
AcDbLine
 10
-63.76995222509763
 20
-27.97837496386718
 30
0.0
 11
-63.76995222509763
 21
-27.72837496386718
 31
0.0
  0
LINE
  5
30F
330
1F
100
AcDbEntity
  8
0
  6
Continuous
 62
     7
100
AcDbLine
 10
-61.76995222509765
 20
-27.97837496386718
 30
0.0
 11
-61.76995222509765
 21
-67.87837496386717
 31
0.0
  0
LINE
  5
310
330
1F
100
AcDbEntity
  8
0
  6
Continuous
 62
     7
100
AcDbLine
 10
-45.16995222509763
 20
-27.97837496386718
 30
0.0
 11
-61.76995222509765
 21
-27.97837496386718
 31
0.0
  0
LINE
  5
311
330
1F
100
AcDbEntity
  8
0
  6
Continuous
 62
     7
100
AcDbLine
 10
-26.59501772509765
 20
-67.87837496386717
 30
0.0
 11
-61.76995222509765
 21
-67.87837496386717
 31
0.0
  0
LINE
  5
312
330
1F
100
AcDbEntity
  8
0
  6
Continuous
 62
     7
100
AcDbLine
 10
-63.76995222509763
 20
-27.97837496386718
 30
0.0
 11
-63.76995222509763
 21
-67.37837496386717
 31
0.0
  0
LINE
  5
313
330
1F
100
AcDbEntity
  8
0
  6
Continuous
 62
     7
100
AcDbLine
 10
57.99927477490235
 20
31.79669053613282
 30
0.0
 11
60.65498227490235
 21
31.79669053613282
 31
0.0
  0
LINE
  5
314
330
1F
100
AcDbEntity
  8
0
  6
Continuous
 62
     7
100
AcDbLine
 10
58.98237227490233
 20
25.79669053613281
 30
0.0
 11
60.65498227490235
 21
25.79669053613281
 31
0.0
  0
LINE
  5
315
330
1F
100
AcDbEntity
  8
0
  6
Continuous
 62
     7
100
AcDbLine
 10
57.99927477490234
 20
31.79669053613282
 30
0.0
 11
58.48427477490232
 21
26.25311253613283
 31
0.0
  0
LINE
  5
316
330
1F
100
AcDbEntity
  8
0
  6
Continuous
 62
     7
100
AcDbLine
 10
68.15498227490258
 20
15.29669053613279
 30
0.0
 11
67.65498227490258
 21
13.29669053613279
 31
0.0
  0
LINE
  5
317
330
1F
100
AcDbEntity
  8
0
  6
Continuous
 62
     7
100
AcDbLine
 10
68.15498227490235
 20
89.99551303613282
 30
0.0
 11
68.15498227490235
 21
15.29669053613282
 31
0.0
  0
LINE
  5
318
330
1F
100
AcDbEntity
  8
0
  6
Continuous
 62
     7
100
AcDbLine
 10
56.50498227490237
 20
32.29669053613282
 30
0.0
 11
56.50498227490237
 21
13.29669053613282
 31
0.0
  0
LINE
  5
319
330
1F
100
AcDbEntity
  8
0
  6
Continuous
 62
     7
100
AcDbLine
 10
60.40498227490235
 20
25.79669053613281
 30
0.0
 11
60.65498227490235
 21
25.79669053613281
 31
0.0
  0
LINE
  5
31A
330
1F
100
AcDbEntity
  8
0
  6
Continuous
 62
     7
100
AcDbLine
 10
60.40498227490235
 20
25.79669053613282
 30
0.0
 11
60.40498227490235
 21
13.29669053613282
 31
0.0
  0
LINE
  5
31B
330
1F
100
AcDbEntity
  8
0
  6
Continuous
 62
     7
100
AcDbLine
 10
60.65498227490235
 20
13.29669053613281
 30
0.0
 11
60.40498227490235
 21
13.29669053613281
 31
0.0
  0
LINE
  5
31C
330
1F
100
AcDbEntity
  8
0
  6
Continuous
 62
     7
100
AcDbLine
 10
60.65498227490261
 20
15.29669053613288
 30
0.0
 11
61.15498227490261
 21
13.29669053613289
 31
0.0
  0
LINE
  5
31D
330
1F
100
AcDbEntity
  8
0
  6
Continuous
 62
     7
100
AcDbLine
 10
57.71601827490242
 20
40.66505703613298
 30
0.0
 11
60.65498227490237
 21
40.92218303613298
 31
0.0
  0
LINE
  5
31E
330
1F
100
AcDbEntity
  8
0
  6
Continuous
 62
     7
100
AcDbLine
 10
57.71601827490241
 20
40.66505703613282
 30
0.0
 11
57.99927477490243
 21
37.42742403613283
 31
0.0
  0
LINE
  5
31F
330
1F
100
AcDbEntity
  8
0
  6
Continuous
 62
     7
100
AcDbLine
 10
49.15498227490242
 20
32.29669053613289
 30
0.0
 11
49.40498227490242
 21
32.04669053613289
 31
0.0
  0
LINE
  5
320
330
1F
100
AcDbEntity
  8
0
  6
Continuous
 62
     7
100
AcDbLine
 10
48.15498227490235
 20
32.04669053613282
 30
0.0
 11
56.25498227490237
 21
32.04669053613282
 31
0.0
  0
LINE
  5
321
330
1F
100
AcDbEntity
  8
0
  6
Continuous
 62
     7
100
AcDbLine
 10
56.50498227490237
 20
32.29669053613282
 30
0.0
 11
56.50498227490237
 21
37.29669053613282
 31
0.0
  0
LINE
  5
322
330
1F
100
AcDbEntity
  8
0
  6
Continuous
 62
     7
100
AcDbLine
 10
56.50498227490239
 20
37.29669053613283
 30
0.0
 11
60.65498227490239
 21
37.65976853613283
 31
0.0
  0
LINE
  5
323
330
1F
100
AcDbEntity
  8
0
  6
Continuous
 62
     7
100
AcDbLine
 10
68.38319377490241
 20
89.74646453613312
 30
0.0
 11
83.35383477490237
 21
88.43670303613311
 31
0.0
  0
LINE
  5
324
330
1F
100
AcDbEntity
  8
0
  6
Continuous
 62
     7
100
AcDbLine
 10
68.15498227490235
 20
89.99551303613282
 30
0.0
 11
68.15498227490235
 21
92.41649453613282
 31
0.0
  0
LINE
  5
325
330
1F
100
AcDbEntity
  8
0
  6
Continuous
 62
     7
100
AcDbLine
 10
61.65498227490235
 20
93.51264953613291
 30
0.0
 11
67.17243477490238
 21
93.41634203613292
 31
0.0
  0
LINE
  5
326
330
1F
100
AcDbEntity
  8
0
  6
Continuous
 62
     7
100
AcDbLine
 10
60.65498227490235
 20
92.51264953613281
 30
0.0
 11
60.65498227490235
 21
88.92166653613282
 31
0.0
  0
LINE
  5
327
330
1F
100
AcDbEntity
  8
0
  6
Continuous
 62
     7
100
AcDbLine
 10
49.15498227490235
 20
32.29669053613282
 30
0.0
 11
49.15498227490235
 21
37.54669053613282
 31
0.0
  0
LINE
  5
328
330
1F
100
AcDbEntity
  8
0
  6
Continuous
 62
     7
100
AcDbLine
 10
48.15498227490235
 20
31.79669053613282
 30
0.0
 11
48.15498227490235
 21
36.98767353613282
 31
0.0
  0
LINE
  5
329
330
1F
100
AcDbEntity
  8
0
  6
Continuous
 62
     7
100
AcDbLine
 10
49.40498227490235
 20
37.54669053613282
 30
0.0
 11
49.15498227490235
 21
37.54669053613282
 31
0.0
  0
LINE
  5
32A
330
1F
100
AcDbEntity
  8
0
  6
Continuous
 62
     7
100
AcDbLine
 10
48.15498227490235
 20
13.29669053613281
 30
0.0
 11
87.55498227490239
 21
13.29669053613281
 31
0.0
  0
LINE
  5
32B
330
1F
100
AcDbEntity
  8
0
  6
Continuous
 62
     7
100
AcDbLine
 10
88.05498227490239
 20
83.30630053613282
 30
0.0
 11
88.05498227490239
 21
15.29669053613282
 31
0.0
  0
LINE
  5
32C
330
1F
100
AcDbEntity
  8
0
  6
Continuous
 62
     7
100
AcDbLine
 10
48.15498227490235
 20
31.79669053613282
 30
0.0
 11
48.15498227490235
 21
25.79669053613282
 31
0.0
  0
LINE
  5
32D
330
1F
100
AcDbEntity
  8
0
  6
Continuous
 62
     7
100
AcDbLine
 10
47.90498227490235
 20
25.79669053613282
 30
0.0
 11
47.90498227490235
 21
13.29669053613282
 31
0.0
  0
LINE
  5
32E
330
1F
100
AcDbEntity
  8
0
  6
Continuous
 62
     7
100
AcDbLine
 10
48.15498227490235
 20
13.29669053613281
 30
0.0
 11
47.90498227490235
 21
13.29669053613281
 31
0.0
  0
LINE
  5
32F
330
1F
100
AcDbEntity
  8
0
  6
Continuous
 62
     7
100
AcDbLine
 10
49.40498227490235
 20
25.79669053613282
 30
0.0
 11
49.40498227490235
 21
13.29669053613282
 31
0.0
  0
LINE
  5
330
330
1F
100
AcDbEntity
  8
0
  6
Continuous
 62
     7
100
AcDbLine
 10
47.90498227490235
 20
25.79669053613281
 30
0.0
 11
49.40498227490235
 21
25.79669053613281
 31
0.0
  0
LINE
  5
331
330
1F
100
AcDbEntity
  8
0
  6
Continuous
 62
     7
100
AcDbLine
 10
88.05498227490239
 20
15.29669053613281
 30
0.0
 11
60.65498227490235
 21
15.29669053613281
 31
0.0
  0
LINE
  5
332
330
1F
100
AcDbEntity
  8
0
  6
Continuous
 62
     7
100
AcDbLine
 10
88.05498227490257
 20
15.29669053613277
 30
0.0
 11
87.55498227490257
 21
13.29669053613277
 31
0.0
  0
LINE
  5
333
330
1F
100
AcDbEntity
  8
0
  6
Continuous
 62
     7
100
AcDbLine
 10
60.65498227490235
 20
88.92166653613282
 30
0.0
 11
60.65498227490235
 21
15.29669053613282
 31
0.0
  0
LINE
  5
334
330
1F
100
AcDbEntity
  8
0
  6
Continuous
 62
     7
100
AcDbLine
 10
-34.01859772509763
 20
-46.41915096386719
 30
0.0
 11
-34.17051972509763
 21
-44.68267296386718
 31
0.0
  0
LINE
  5
335
330
1F
100
AcDbEntity
  8
0
  6
Continuous
 62
     7
100
AcDbLine
 10
-44.76995222509763
 20
-28.9783749638672
 30
0.0
 11
-45.01995222509764
 21
-29.22837496386721
 31
0.0
  0
LINE
  5
336
330
1F
100
AcDbEntity
  8
0
  6
Continuous
 62
     7
100
AcDbLine
 10
-24.48586922509764
 20
-62.72837496386717
 30
0.0
 11
8.33784077490236
 21
-62.72837496386717
 31
0.0
  0
LINE
  5
337
330
1F
100
AcDbEntity
  8
0
  6
Continuous
 62
     7
100
AcDbLine
 10
-13.59501772509765
 20
-65.87837496386717
 30
0.0
 11
-22.58791072509763
 21
-65.87837496386717
 31
0.0
  0
LINE
  5
338
330
1F
100
AcDbEntity
  8
0
  6
Continuous
 62
     7
100
AcDbLine
 10
-12.59501772509765
 20
-66.12837496386717
 30
0.0
 11
-3.595017725097648
 21
-66.12837496386717
 31
0.0
  0
LINE
  5
339
330
1F
100
AcDbEntity
  8
0
  6
Continuous
 62
     7
100
AcDbLine
 10
-3.095017725097648
 20
-65.62837496386717
 30
0.0
 11
-3.095017725097648
 21
-64.87837496386717
 31
0.0
  0
LINE
  5
33A
330
1F
100
AcDbEntity
  8
0
  6
Continuous
 62
     7
100
AcDbLine
 10
-3.095017725097648
 20
-64.87837496386717
 30
0.0
 11
5.460776274902344
 21
-64.87837496386717
 31
0.0
  0
LINE
  5
33B
330
1F
100
AcDbEntity
  8
0
  6
Continuous
 62
     7
100
AcDbLine
 10
-3.095017725097648
 20
-65.12837496386717
 30
0.0
 11
5.460776274902344
 21
-65.12837496386717
 31
0.0
  0
LINE
  5
33C
330
1F
100
AcDbEntity
  8
0
  6
Continuous
 62
     7
100
AcDbLine
 10
-13.09501772509765
 20
-65.62837496386717
 30
0.0
 11
-13.09501772509765
 21
-64.87837496386717
 31
0.0
  0
LINE
  5
33D
330
1F
100
AcDbEntity
  8
0
  6
Continuous
 62
     7
100
AcDbLine
 10
9.972622274902385
 20
-47.59730996386718
 30
0.0
 11
8.698409274902383
 21
-62.16163096386718
 31
0.0
  0
LINE
  5
33E
330
1F
100
AcDbEntity
  8
0
  6
Continuous
 62
     7
100
AcDbLine
 10
-27.94698522509765
 20
-61.12837496386717
 30
0.0
 11
-26.58791072509763
 21
-61.12837496386717
 31
0.0
  0
LINE
  5
33F
330
1F
100
AcDbEntity
  8
0
  6
Continuous
 62
     7
100
AcDbLine
 10
-22.27725072509764
 20
-65.12837496386717
 30
0.0
 11
-13.09501772509765
 21
-65.12837496386717
 31
0.0
  0
LINE
  5
340
330
1F
100
AcDbEntity
  8
0
  6
Continuous
 62
     7
100
AcDbLine
 10
-26.58791072509763
 20
-60.87837496386717
 30
0.0
 11
-27.94698522509765
 21
-60.87837496386717
 31
0.0
  0
LINE
  5
341
330
1F
100
AcDbEntity
  8
0
  6
Continuous
 62
     7
100
AcDbLine
 10
11.87508977490234
 20
-46.82837496386719
 30
0.0
 11
10.79276027490238
 21
-46.82837496386719
 31
0.0
  0
LINE
  5
342
330
1F
100
AcDbEntity
  8
0
  6
Continuous
 62
     7
100
AcDbLine
 10
9.788940274902348
 20
-46.82837496386719
 30
0.0
 11
8.44936027490235
 21
-62.13984196386718
 31
0.0
  0
LINE
  5
343
330
1F
100
AcDbEntity
  8
0
  6
Continuous
 62
     7
100
AcDbLine
 10
10.79276027490238
 20
-46.82837496386719
 30
0.0
 11
-32.30017122509764
 21
-46.82837496386719
 31
0.0
  0
LINE
  5
344
330
1F
100
AcDbEntity
  8
0
  6
Continuous
 62
     7
100
AcDbLine
 10
-22.27725072509764
 20
-64.87837496386717
 30
0.0
 11
-13.09501772509765
 21
-64.87837496386717
 31
0.0
  0
LINE
  5
345
330
1F
100
AcDbEntity
  8
0
  6
Continuous
 62
     7
100
AcDbLine
 10
10.74520327490237
 20
-47.37195296386719
 30
0.0
 11
9.445555274902365
 21
-62.22699796386718
 31
0.0
  0
LINE
  5
346
330
1F
100
AcDbEntity
  8
0
  6
Continuous
 62
     7
100
AcDbLine
 10
5.460776274902344
 20
-65.87837496386717
 30
0.0
 11
-2.595017725097648
 21
-65.87837496386717
 31
0.0
  0
LINE
  5
347
330
1F
100
AcDbEntity
  8
0
  6
Continuous
 62
     7
100
AcDbLine
 10
-26.89857072509767
 20
-61.87837496386717
 30
0.0
 11
-27.94698522509765
 21
-61.87837496386717
 31
0.0
  0
LINE
  5
348
330
1F
100
AcDbEntity
  8
0
  6
Continuous
 62
     7
100
AcDbLine
 10
6.239657774902355
 20
-67.87837496386717
 30
0.0
 11
-26.59501772509765
 21
-67.87837496386717
 31
0.0
  0
LINE
  5
349
330
1F
100
AcDbEntity
  8
0
  6
Continuous
 62
     7
100
AcDbLine
 10
-45.07321522509764
 20
-37.47837496386717
 30
0.0
 11
-41.05281572509764
 21
-37.47837496386717
 31
0.0
  0
LINE
  5
34A
330
1F
100
AcDbEntity
  8
0
  6
Continuous
 62
     7
100
AcDbLine
 10
-27.84501772509765
 20
-62.72837496386717
 30
0.0
 11
-27.90205022509764
 21
-62.72837496386717
 31
0.0
  0
LINE
  5
34B
330
1F
100
AcDbEntity
  8
0
  6
Continuous
 62
     7
100
AcDbLine
 10
-27.59501772509765
 20
-62.97837496386718
 30
0.0
 11
-27.59501772509765
 21
-65.72837496386717
 31
0.0
  0
LINE
  5
34C
330
1F
100
AcDbEntity
  8
0
  6
Continuous
 62
     7
100
AcDbLine
 10
-44.76995222509765
 20
-36.32837496386719
 30
0.0
 11
-39.99903522509763
 21
-36.32837496386719
 31
0.0
  0
LINE
  5
34D
330
1F
100
AcDbEntity
  8
0
  6
Continuous
 62
     7
100
AcDbLine
 10
-33.09501721067409
 20
-66.72837496386717
 30
0.0
 11
-27.29082257208911
 21
-66.72837496386717
 31
0.0
  0
LINE
  5
34E
330
1F
100
AcDbEntity
  8
0
  6
Continuous
 62
     7
100
AcDbLine
 10
15.04600677490238
 20
-41.47837496386715
 30
0.0
 11
15.29600677490238
 21
-41.72837496386715
 31
0.0
  0
LINE
  5
34F
330
1F
100
AcDbEntity
  8
0
  6
Continuous
 62
     7
100
AcDbLine
 10
12.67982177490243
 20
-48.20658596386719
 30
0.0
 11
11.37006027490242
 21
-63.1772269638672
 31
0.0
  0
LINE
  5
350
330
1F
100
AcDbEntity
  8
0
  6
Continuous
 62
     7
100
AcDbLine
 10
12.92887077490235
 20
-47.97837496386717
 30
0.0
 11
15.34985177490239
 21
-47.97837496386717
 31
0.0
  0
LINE
  5
351
330
1F
100
AcDbEntity
  8
0
  6
Continuous
 62
     7
100
AcDbLine
 10
16.44600677490235
 20
-41.47837496386719
 30
0.0
 11
16.34969927490236
 21
-46.99582746386719
 31
0.0
  0
LINE
  5
352
330
1F
100
AcDbEntity
  8
0
  6
Continuous
 62
     7
100
AcDbLine
 10
11.29600677490237
 20
-41.72837496386718
 30
0.0
 11
11.29600677490237
 21
-41.47837496386718
 31
0.0
  0
LINE
  5
353
330
1F
100
AcDbEntity
  8
0
  6
Continuous
 62
     7
100
AcDbLine
 10
15.44600677490234
 20
-40.47837496386717
 30
0.0
 11
11.85502377490235
 21
-40.47837496386717
 31
0.0
  0
LINE
  5
354
330
1F
100
AcDbEntity
  8
0
  6
Continuous
 62
     7
100
AcDbLine
 10
-35.37693722509763
 20
-41.47837496386717
 30
0.0
 11
10.73698977490233
 21
-41.47837496386717
 31
0.0
  0
LINE
  5
355
330
1F
100
AcDbEntity
  8
0
  6
Continuous
 62
     7
100
AcDbLine
 10
9.904982780291723
 20
-66.72837496386718
 30
0.0
 11
10.11640046404969
 21
-64.31185903077316
 31
0.0
  0
LINE
  5
356
330
1F
100
AcDbEntity
  8
0
  6
Continuous
 62
     7
100
AcDbLine
 10
11.87508977490234
 20
-46.82837496386719
 30
0.0
 11
15.04600677490237
 21
-46.82837496386719
 31
0.0
  0
LINE
  5
357
330
1F
100
AcDbEntity
  8
0
  6
Continuous
 62
     7
100
AcDbLine
 10
15.29600677490237
 20
-46.57837496386718
 30
0.0
 11
15.29600677490237
 21
-41.72837496386718
 31
0.0
  0
LINE
  5
358
330
1F
100
AcDbEntity
  8
0
  6
Continuous
 62
     7
100
AcDbLine
 10
-44.76995222509765
 20
-28.97837496386718
 30
0.0
 11
-39.51995222509765
 21
-28.97837496386718
 31
0.0
  0
LINE
  5
359
330
1F
100
AcDbEntity
  8
0
  6
Continuous
 62
     7
100
AcDbLine
 10
-45.26995222509765
 20
-27.97837496386718
 30
0.0
 11
-40.07896922509764
 21
-27.97837496386718
 31
0.0
  0
LINE
  5
35A
330
1F
100
AcDbEntity
  8
0
  6
Continuous
 62
     7
100
AcDbLine
 10
-39.51995222509765
 20
-29.22837496386718
 30
0.0
 11
-39.51995222509765
 21
-28.97837496386718
 31
0.0
  0
LINE
  5
35B
330
1F
100
AcDbEntity
  8
0
  6
Continuous
 62
     7
100
AcDbLine
 10
-28.74501772509765
 20
-65.7283749638672
 30
0.0
 11
-28.80410322509764
 21
-64.03638596386718
 31
0.0
  0
LINE
  5
35C
330
1F
100
AcDbEntity
  8
0
  6
Continuous
 62
     7
100
AcDbLine
 10
-33.09501721067409
 20
-66.72837496386717
 30
0.0
 11
-33.75275423969362
 21
-59.21040831260895
 31
0.0
  0
LINE
  5
35D
330
1F
100
AcDbEntity
  8
0
  6
Continuous
 62
     7
100
AcDbLine
 10
-27.90205022509764
 20
-62.72837496386717
 30
0.0
 11
-27.94698522509765
 21
-62.72837496386717
 31
0.0
  0
LINE
  5
35E
330
1F
100
AcDbEntity
  8
0
  6
Continuous
 62
     7
100
AcDbLine
 10
-39.02843222509762
 20
-44.80398896386718
 30
0.0
 11
-39.74998622509762
 21
-36.55658596386718
 31
0.0
  0
LINE
  5
35F
330
1F
100
AcDbEntity
  8
0
  6
Continuous
 62
     7
100
AcDbLine
 10
-38.84408822509764
 20
-45.02368146386725
 30
0.0
 11
-35.23968222509765
 21
-45.98947946386725
 31
0.0
  0
LINE
  5
360
330
1F
100
AcDbEntity
  8
0
  6
Continuous
 62
     7
100
AcDbLine
 10
-45.01995222509765
 20
-36.07837496386718
 30
0.0
 11
-45.01995222509765
 21
-29.22837496386718
 31
0.0
  0
LINE
  5
361
330
1F
100
AcDbEntity
  8
0
  6
Continuous
 62
     7
100
AcDbLine
 10
-46.26995222509762
 20
-28.97837496386719
 30
0.0
 11
-46.07287222509762
 21
-36.50455196386717
 31
0.0
  0
LINE
  5
362
330
1F
100
AcDbEntity
  8
0
  6
Continuous
 62
     7
100
AcDbLine
 10
-40.10387472509763
 20
-45.70639296386717
 30
0.0
 11
-40.80376722509763
 21
-37.70658596386718
 31
0.0
  0
LINE
  5
363
330
1F
100
AcDbEntity
  8
0
  6
Continuous
 62
     7
100
AcDbLine
 10
-36.14603772509761
 20
-46.93718946386721
 30
0.0
 11
-39.91953072509762
 21
-45.92608546386721
 31
0.0
  0
LINE
  5
364
330
1F
100
AcDbEntity
  8
0
  6
Continuous
 62
     7
100
AcDbLine
 10
-35.06977722509768
 20
-57.35153846386717
 30
0.0
 11
-35.96169422509768
 21
-47.15688196386719
 31
0.0
  0
LINE
  5
365
330
1F
100
AcDbEntity
  8
0
  6
Continuous
 62
     7
100
AcDbLine
 10
-37.35420272509765
 20
-38.12466396386718
 30
0.0
 11
-36.91842372509765
 21
-43.10563746386718
 31
0.0
  0
LINE
  5
366
330
1F
100
AcDbEntity
  8
0
  6
Continuous
 62
     7
100
AcDbLine
 10
-36.40158572509759
 20
-37.53941096386718
 30
0.0
 11
-39.14112122509759
 21
-37.77908896386717
 31
0.0
  0
LINE
  5
367
330
1F
100
AcDbEntity
  8
0
  6
Continuous
 62
     7
100
AcDbLine
 10
-36.4015857250976
 20
-37.53941096386717
 30
0.0
 11
-35.8786512250976
 21
-43.51657896386718
 31
0.0
  0
LINE
  5
368
330
1F
100
AcDbEntity
  8
0
  6
Continuous
 62
     7
100
AcDbLine
 10
-36.19306672509761
 20
-42.79122196386718
 30
0.0
 11
-36.58526772509761
 21
-38.30834596386718
 31
0.0
  0
LINE
  5
369
330
1F
100
AcDbEntity
  8
0
  6
Continuous
 62
     7
100
AcDbLine
 10
-36.37674872509761
 20
-43.56015696386722
 30
0.0
 11
-35.8786512250976
 21
-43.51657896386722
 31
0.0
  0
LINE
  5
36A
330
1F
100
AcDbEntity
  8
0
  6
Continuous
 62
     7
100
AcDbLine
 10
-35.87865122509766
 20
-43.51657896386718
 30
0.0
 11
-34.43388122509766
 21
-44.28477696386717
 31
0.0
  0
LINE
  5
36B
330
1F
100
AcDbEntity
  8
0
  6
Continuous
 62
     7
100
AcDbLine
 10
-33.07738772509764
 20
-57.17722696386718
 30
0.0
 11
-33.93144172509764
 21
-47.41534596386717
 31
0.0
  0
LINE
  5
36C
330
1F
100
AcDbEntity
  8
0
  6
Continuous
 62
     7
100
AcDbLine
 10
-32.97882472509763
 20
-46.83009296386718
 30
0.0
 11
-32.08119322509763
 21
-57.09007146386718
 31
0.0
  0
LINE
  5
36D
330
1F
100
AcDbEntity
  8
0
  6
Continuous
 62
     7
100
AcDbLine
 10
-33.47692222509767
 20
-46.87367046386724
 30
0.0
 11
-32.97882472509767
 21
-46.83009296386724
 31
0.0
  0
LINE
  5
36E
330
1F
100
AcDbEntity
  8
0
  6
Continuous
 62
     7
100
AcDbLine
 10
-33.16250672509764
 20
-47.59902796386718
 30
0.0
 11
-32.33024172509764
 21
-57.11185996386718
 31
0.0
  0
LINE
  5
36F
330
1F
100
AcDbEntity
  8
0
  6
Continuous
 62
     7
100
AcDbLine
 10
-26.72179422509768
 20
-61.95159796386721
 30
0.0
 11
-22.94146422509769
 21
-65.7319284638672
 31
0.0
  0
LINE
  5
370
330
1F
100
AcDbEntity
  8
0
  6
Continuous
 62
     7
100
AcDbLine
 10
-26.41113422509765
 20
-61.20159796386718
 30
0.0
 11
-22.63080372509765
 21
-64.98192846386718
 31
0.0
  0
LINE
  5
371
330
1F
100
AcDbEntity
  8
0
  6
Continuous
 62
     7
100
AcDbLine
 10
-26.23435722509766
 20
-61.0248214638672
 30
0.0
 11
-22.45402722509765
 21
-64.80515146386719
 31
0.0
  0
LINE
  5
372
330
1F
100
AcDbEntity
  8
0
  6
Continuous
 62
     7
100
AcDbLine
 10
11.29600677490237
 20
-41.47837496386717
 30
0.0
 11
15.04600677490237
 21
-41.47837496386717
 31
0.0
  0
LINE
  5
373
330
1F
100
AcDbEntity
  8
0
  6
Continuous
 62
     7
100
AcDbLine
 10
-26.59501772509765
 20
-66.72837496386717
 30
0.0
 11
6.239657774902355
 21
-66.72837496386717
 31
0.0
  0
LINE
  5
374
330
1F
100
AcDbEntity
  8
0
  6
Continuous
 62
     7
100
AcDbLine
 10
-33.92402369631547
 20
-57.25278998423
 30
0.0
 11
-34.87099472509765
 21
-46.42886446386716
 31
0.0
  0
LINE
  5
375
330
1F
100
AcDbEntity
  8
0
  6
Continuous
 62
     7
100
AcDbLine
 10
10.22443678523837
 20
-63.07699784572583
 30
0.0
 11
11.62604077490235
 21
-47.05658596386719
 31
0.0
  0
LINE
  5
376
330
1F
100
AcDbEntity
  8
0
  6
Continuous
 62
     7
100
AcDbLine
 10
7.668854395375257
 20
-66.72837496386717
 30
0.0
 11
9.904982780291723
 21
-66.72837496386717
 31
0.0
  0
ARC
  5
377
330
1F
100
AcDbEntity
  8
0
  6
Continuous
 62
     7
100
AcDbCircle
 10
11.14600677490239
 20
32.29669053613282
 30
0.0
 40
0.5
100
AcDbArc
 50
270.0
 51
0.0
  0
ARC
  5
378
330
1F
100
AcDbEntity
  8
0
  6
Continuous
 62
     7
100
AcDbCircle
 10
-44.76995222509765
 20
88.21264953613282
 30
0.0
 40
0.5
100
AcDbArc
 50
90.00000000000001
 51
180.0
  0
ARC
  5
379
330
1F
100
AcDbEntity
  8
0
  6
Continuous
 62
     7
100
AcDbCircle
 10
-50.76995222509765
 20
62.98852753613282
 30
0.0
 40
0.5
100
AcDbArc
 50
94.99999999999976
 51
180.0
  0
ARC
  5
37A
330
1F
100
AcDbEntity
  8
0
  6
Continuous
 62
     7
100
AcDbCircle
 10
-50.76995222509765
 20
74.95472253613282
 30
0.0
 40
0.5
100
AcDbArc
 50
180.0
 51
265.0000000000003
  0
ARC
  5
37B
330
1F
100
AcDbEntity
  8
0
  6
Continuous
 62
     7
100
AcDbCircle
 10
-48.76995222509765
 20
28.29669053613281
 30
0.0
 40
2.5
100
AcDbArc
 50
0.0
 51
90.00000000000001
  0
ARC
  5
37C
330
1F
100
AcDbEntity
  8
0
  6
Continuous
 62
     7
100
AcDbCircle
 10
-51.01995222509765
 20
40.60420803613282
 30
0.0
 40
0.25
100
AcDbArc
 50
180.0
 51
254.2226300000006
  0
ARC
  5
37D
330
1F
100
AcDbEntity
  8
0
  6
Continuous
 62
     7
100
AcDbCircle
 10
-48.40217922509765
 20
42.20265553613282
 30
0.0
 40
2.5
100
AcDbArc
 50
254.2226299999999
 51
269.0
  0
ARC
  5
37E
330
1F
100
AcDbEntity
  8
0
  6
Continuous
 62
     7
100
AcDbCircle
 10
-46.41995222509763
 20
39.51765203613282
 30
0.0
 40
0.15
100
AcDbArc
 50
0.0
 51
88.99999999999986
  0
ARC
  5
37F
330
1F
100
AcDbEntity
  8
0
  6
Continuous
 62
     7
100
AcDbCircle
 10
-51.01995222509765
 20
44.02696903613283
 30
0.0
 40
0.25
100
AcDbArc
 50
180.0
 51
254.2226300000006
  0
ARC
  5
380
330
1F
100
AcDbEntity
  8
0
  6
Continuous
 62
     7
100
AcDbCircle
 10
-48.40217922509765
 20
45.62541653613282
 30
0.0
 40
2.5
100
AcDbArc
 50
254.2226299999999
 51
269.0
  0
ARC
  5
381
330
1F
100
AcDbEntity
  8
0
  6
Continuous
 62
     7
100
AcDbCircle
 10
-46.41995222509763
 20
42.94041303613282
 30
0.0
 40
0.15
100
AcDbArc
 50
0.0
 51
88.99999999999986
  0
ARC
  5
382
330
1F
100
AcDbEntity
  8
0
  6
Continuous
 62
     7
100
AcDbCircle
 10
-51.01995222509765
 20
86.91643153613282
 30
0.0
 40
0.25
100
AcDbArc
 50
105.7773699999995
 51
180.0
  0
ARC
  5
383
330
1F
100
AcDbEntity
  8
0
  6
Continuous
 62
     7
100
AcDbCircle
 10
-48.40217922509765
 20
85.31798403613281
 30
0.0
 40
2.5
100
AcDbArc
 50
91.0
 51
105.77737
  0
ARC
  5
384
330
1F
100
AcDbEntity
  8
0
  6
Continuous
 62
     7
100
AcDbCircle
 10
-46.41995222509763
 20
88.00298753613282
 30
0.0
 40
0.15
100
AcDbArc
 50
271.0000000000002
 51
0.0
  0
ARC
  5
385
330
1F
100
AcDbEntity
  8
0
  6
Continuous
 62
     7
100
AcDbCircle
 10
-49.76995222509765
 20
90.86264953613282
 30
0.0
 40
1.5
100
AcDbArc
 50
90.00000000000001
 51
180.0
  0
ARC
  5
386
330
1F
100
AcDbEntity
  8
0
  6
Continuous
 62
     7
100
AcDbCircle
 10
-49.76995222509765
 20
33.54669053613282
 30
0.0
 40
1.5
100
AcDbArc
 50
180.0
 51
270.0000000000001
  0
ARC
  5
387
330
1F
100
AcDbEntity
  8
0
  6
Continuous
 62
     7
100
AcDbCircle
 10
-43.51995222509765
 20
27.29669053613281
 30
0.0
 40
1.5
100
AcDbArc
 50
180.0
 51
270.0000000000001
  0
ARC
  5
388
330
1F
100
AcDbEntity
  8
0
  6
Continuous
 62
     7
100
AcDbCircle
 10
13.79600677490237
 20
27.29669053613281
 30
0.0
 40
1.5
100
AcDbArc
 50
270.0
 51
0.0
  0
ARC
  5
389
330
1F
100
AcDbEntity
  8
0
  6
Continuous
 62
     7
100
AcDbCircle
 10
10.14600677490239
 20
87.21264953613282
 30
0.0
 40
1.5
100
AcDbArc
 50
0.0
 51
90.00000000000001
  0
ARC
  5
38A
330
1F
100
AcDbEntity
  8
0
  6
Continuous
 62
     7
100
AcDbCircle
 10
13.79600677490237
 20
90.86264953613282
 30
0.0
 40
1.5
100
AcDbArc
 50
0.0
 51
90.00000000000001
  0
ARC
  5
38B
330
1F
100
AcDbEntity
  8
0
  6
Continuous
 62
     7
100
AcDbCircle
 10
-14.07811522509763
 20
26.29669053613281
 30
0.0
 40
0.5
100
AcDbArc
 50
270.0
 51
355.0000000000003
  0
ARC
  5
38C
330
1F
100
AcDbEntity
  8
0
  6
Continuous
 62
     7
100
AcDbCircle
 10
-2.111919725097664
 20
26.29669053613281
 30
0.0
 40
0.5
100
AcDbArc
 50
184.9999999999997
 51
270.0
  0
ARC
  5
38D
330
1F
100
AcDbEntity
  8
0
  6
Continuous
 62
     7
100
AcDbCircle
 10
9.849789274902378
 20
26.04669053613281
 30
0.0
 40
0.25
100
AcDbArc
 50
270.0
 51
344.2226300000005
  0
ARC
  5
38E
330
1F
100
AcDbEntity
  8
0
  6
Continuous
 62
     7
100
AcDbCircle
 10
8.251341274902359
 20
28.66446353613281
 30
0.0
 40
2.5
100
AcDbArc
 50
344.22263
 51
359.0
  0
ARC
  5
38F
330
1F
100
AcDbEntity
  8
0
  6
Continuous
 62
     7
100
AcDbCircle
 10
10.93634477490235
 20
30.64669053613282
 30
0.0
 40
0.15
100
AcDbArc
 50
90.00000000000001
 51
178.9999999999999
  0
ARC
  5
390
330
1F
100
AcDbEntity
  8
0
  6
Continuous
 62
     7
100
AcDbCircle
 10
-33.03967372509763
 20
26.04669053613281
 30
0.0
 40
0.25
100
AcDbArc
 50
195.7773699999995
 51
270.0
  0
ARC
  5
391
330
1F
100
AcDbEntity
  8
0
  6
Continuous
 62
     7
100
AcDbCircle
 10
-31.44122572509764
 20
28.66446353613281
 30
0.0
 40
2.5
100
AcDbArc
 50
180.9999999999999
 51
195.77737
  0
ARC
  5
392
330
1F
100
AcDbEntity
  8
0
  6
Continuous
 62
     7
100
AcDbCircle
 10
-34.12622972509763
 20
30.64669053613282
 30
0.0
 40
0.15
100
AcDbArc
 50
1.000000000000153
 51
90.00000000000001
  0
ARC
  5
393
330
1F
100
AcDbEntity
  8
0
  6
Continuous
 62
     7
100
AcDbCircle
 10
-37.54899022509764
 20
30.64669053613282
 30
0.0
 40
0.15
100
AcDbArc
 50
1.000000000000153
 51
90.00000000000001
  0
ARC
  5
394
330
1F
100
AcDbEntity
  8
0
  6
Continuous
 62
     7
100
AcDbCircle
 10
-34.86398672509765
 20
28.66446353613281
 30
0.0
 40
2.5
100
AcDbArc
 50
180.9999999999999
 51
195.77737
  0
ARC
  5
395
330
1F
100
AcDbEntity
  8
0
  6
Continuous
 62
     7
100
AcDbCircle
 10
-36.46243472509764
 20
26.04669053613281
 30
0.0
 40
0.25
100
AcDbArc
 50
195.7773699999995
 51
270.0
  0
ARC
  5
396
330
1F
100
AcDbEntity
  8
0
  6
Continuous
 62
     7
100
AcDbCircle
 10
-39.26995222509765
 20
32.29669053613282
 30
0.0
 40
0.5
100
AcDbArc
 50
180.0
 51
270.0000000000001
  0
ARC
  5
397
330
1F
100
AcDbEntity
  8
0
  6
Continuous
 62
     7
100
AcDbCircle
 10
-44.76995222509765
 20
37.79669053613282
 30
0.0
 40
0.5
100
AcDbArc
 50
180.0
 51
270.0000000000001
  0
ARC
  5
398
330
1F
100
AcDbEntity
  8
0
  6
Continuous
 62
     7
100
AcDbCircle
 10
58.98237227490233
 20
26.29669053613281
 30
0.0
 40
0.5
100
AcDbArc
 50
184.9999999999997
 51
270.0
  0
ARC
  5
399
330
1F
100
AcDbEntity
  8
0
  6
Continuous
 62
     7
100
AcDbCircle
 10
57.45759927490235
 20
37.88194353613282
 30
0.0
 40
0.5
100
AcDbArc
 50
274.9999999999998
 51
4.99999999999974
  0
ARC
  5
39A
330
1F
100
AcDbEntity
  8
0
  6
Continuous
 62
     7
100
AcDbCircle
 10
56.25498227490237
 20
32.29669053613282
 30
0.0
 40
0.25
100
AcDbArc
 50
270.0
 51
0.0
  0
ARC
  5
39B
330
1F
100
AcDbEntity
  8
0
  6
Continuous
 62
     7
100
AcDbCircle
 10
56.75498227490237
 20
37.06760803613282
 30
0.0
 40
0.25
100
AcDbArc
 50
94.99999999999976
 51
180.0
  0
ARC
  5
39C
330
1F
100
AcDbEntity
  8
0
  6
Continuous
 62
     7
100
AcDbCircle
 10
82.90498227490235
 20
83.30630053613282
 30
0.0
 40
5.15
100
AcDbArc
 50
0.0
 51
85.00000000000016
  0
ARC
  5
39D
330
1F
100
AcDbEntity
  8
0
  6
Continuous
 62
     7
100
AcDbCircle
 10
67.15498227490235
 20
92.41649453613282
 30
0.0
 40
1.0
100
AcDbArc
 50
0.0
 51
88.99999999999987
  0
ARC
  5
39E
330
1F
100
AcDbEntity
  8
0
  6
Continuous
 62
     7
100
AcDbCircle
 10
68.40498227490235
 20
89.99551303613282
 30
0.0
 40
0.25
100
AcDbArc
 50
180.0
 51
265.0000000000003
  0
ARC
  5
39F
330
1F
100
AcDbEntity
  8
0
  6
Continuous
 62
     7
100
AcDbCircle
 10
61.65498227490235
 20
92.51264953613281
 30
0.0
 40
1.0
100
AcDbArc
 50
90.00000000000001
 51
180.0
  0
ARC
  5
3A0
330
1F
100
AcDbEntity
  8
0
  6
Continuous
 62
     7
100
AcDbCircle
 10
61.15498227490235
 20
88.36264953613282
 30
0.0
 40
0.75
100
AcDbArc
 50
131.8103149999991
 51
228.189685000001
  0
ARC
  5
3A1
330
1F
100
AcDbEntity
  8
0
  6
Continuous
 62
     7
100
AcDbCircle
 10
48.65498227490235
 20
37.54669053613282
 30
0.0
 40
0.75
100
AcDbArc
 50
0.0
 51
228.1896850000006
  0
ARC
  5
3A2
330
1F
100
AcDbEntity
  8
0
  6
Continuous
 62
     7
100
AcDbCircle
 10
-26.89857072509767
 20
-62.12837496386717
 30
0.0
 40
0.25
100
AcDbArc
 50
45.00000000000001
 51
90.00000000000001
  0
ARC
  5
3A3
330
1F
100
AcDbEntity
  8
0
  6
Continuous
 62
     7
100
AcDbCircle
 10
-26.58791072509763
 20
-61.37837496386717
 30
0.0
 40
0.25
100
AcDbArc
 50
45.00000000000001
 51
90.00000000000001
  0
ARC
  5
3A4
330
1F
100
AcDbEntity
  8
0
  6
Continuous
 62
     7
100
AcDbCircle
 10
-26.58791072509763
 20
-61.37837496386717
 30
0.0
 40
0.5
100
AcDbArc
 50
45.00000000000001
 51
90.00000000000001
  0
ARC
  5
3A5
330
1F
100
AcDbEntity
  8
0
  6
Continuous
 62
     7
100
AcDbCircle
 10
-22.58791072509763
 20
-65.37837496386717
 30
0.0
 40
0.5
100
AcDbArc
 50
225.0
 51
270.0
  0
ARC
  5
3A6
330
1F
100
AcDbEntity
  8
0
  6
Continuous
 62
     7
100
AcDbCircle
 10
-22.27725072509764
 20
-64.62837496386717
 30
0.0
 40
0.25
100
AcDbArc
 50
225.0
 51
270.0
  0
ARC
  5
3A7
330
1F
100
AcDbEntity
  8
0
  6
Continuous
 62
     7
100
AcDbCircle
 10
-35.36909172509763
 20
-46.47244196386717
 30
0.0
 40
0.5
100
AcDbArc
 50
5.00000000000022
 51
74.99999999999964
  0
ARC
  5
3A8
330
1F
100
AcDbEntity
  8
0
  6
Continuous
 62
     7
100
AcDbCircle
 10
-36.21074272509765
 20
-47.17867096386718
 30
0.0
 40
0.25
100
AcDbArc
 50
4.999999999999745
 51
75.00000000000043
  0
ARC
  5
3A9
330
1F
100
AcDbEntity
  8
0
  6
Continuous
 62
     7
100
AcDbCircle
 10
-33.52050022509763
 20
-46.37557346386717
 30
0.0
 40
0.5
100
AcDbArc
 50
184.9999999999998
 51
274.9999999999997
  0
ARC
  5
3AA
330
1F
100
AcDbEntity
  8
0
  6
Continuous
 62
     7
100
AcDbCircle
 10
-33.43334422509764
 20
-47.37176796386717
 30
0.0
 40
0.5
100
AcDbArc
 50
94.9999999999998
 51
184.9999999999998
  0
ARC
  5
3AB
330
1F
100
AcDbEntity
  8
0
  6
Continuous
 62
     7
100
AcDbCircle
 10
-34.66861722509765
 20
-44.72625046386719
 30
0.0
 40
0.5
100
AcDbArc
 50
5.00000000000022
 51
62.00000000000033
  0
ARC
  5
3AC
330
1F
100
AcDbEntity
  8
0
  6
Continuous
 62
     7
100
AcDbCircle
 10
-39.85482622509764
 20
-45.68460396386718
 30
0.0
 40
0.25
100
AcDbArc
 50
184.9999999999997
 51
255.0000000000004
  0
ARC
  5
3AD
330
1F
100
AcDbEntity
  8
0
  6
Continuous
 62
     7
100
AcDbCircle
 10
-38.77938322509763
 20
-44.78219996386719
 30
0.0
 40
0.25
100
AcDbArc
 50
184.9999999999997
 51
255.0000000000004
  0
ARC
  5
3AE
330
1F
100
AcDbEntity
  8
0
  6
Continuous
 62
     7
100
AcDbCircle
 10
-39.18469922509763
 20
-37.28099146386717
 30
0.0
 40
0.5
100
AcDbArc
 50
184.9999999999998
 51
274.9999999999997
  0
ARC
  5
3AF
330
1F
100
AcDbEntity
  8
0
  6
Continuous
 62
     7
100
AcDbCircle
 10
-45.07321522509764
 20
-36.47837496386717
 30
0.0
 40
1.0
100
AcDbArc
 50
181.5
 51
270.0
  0
ARC
  5
3B0
330
1F
100
AcDbEntity
  8
0
  6
Continuous
 62
     7
100
AcDbCircle
 10
-39.99903522509763
 20
-36.57837496386719
 30
0.0
 40
0.25
100
AcDbArc
 50
4.999999999999745
 51
90.00000000000001
  0
ARC
  5
3B1
330
1F
100
AcDbEntity
  8
0
  6
Continuous
 62
     7
100
AcDbCircle
 10
-41.05281572509764
 20
-37.72837496386717
 30
0.0
 40
0.25
100
AcDbArc
 50
4.999999999999745
 51
90.00000000000001
  0
ARC
  5
3B2
330
1F
100
AcDbEntity
  8
0
  6
Continuous
 62
     7
100
AcDbCircle
 10
-44.76995222509765
 20
-36.07837496386719
 30
0.0
 40
0.25
100
AcDbArc
 50
180.0
 51
270.0000000000001
  0
ARC
  5
3B3
330
1F
100
AcDbEntity
  8
0
  6
Continuous
 62
     7
100
AcDbCircle
 10
-2.595017725097648
 20
-65.37837496386717
 30
0.0
 40
0.5
100
AcDbArc
 50
180.0
 51
270.0000000000001
  0
ARC
  5
3B4
330
1F
100
AcDbEntity
  8
0
  6
Continuous
 62
     7
100
AcDbCircle
 10
-13.59501772509765
 20
-65.37837496386717
 30
0.0
 40
0.5
100
AcDbArc
 50
270.0
 51
0.0
  0
ARC
  5
3B5
330
1F
100
AcDbEntity
  8
0
  6
Continuous
 62
     7
100
AcDbCircle
 10
-3.595017725097648
 20
-65.62837496386717
 30
0.0
 40
0.5
100
AcDbArc
 50
270.0
 51
0.0
  0
ARC
  5
3B6
330
1F
100
AcDbEntity
  8
0
  6
Continuous
 62
     7
100
AcDbCircle
 10
-12.59501772509765
 20
-65.62837496386717
 30
0.0
 40
0.5
100
AcDbArc
 50
180.0
 51
270.0000000000001
  0
ARC
  5
3B7
330
1F
100
AcDbEntity
  8
0
  6
Continuous
 62
     7
100
AcDbCircle
 10
9.723573274902378
 20
-47.57552096386718
 30
0.0
 40
0.25
100
AcDbArc
 50
355.0000000000003
 51
85.00000000000021
  0
ARC
  5
3B8
330
1F
100
AcDbEntity
  8
0
  6
Continuous
 62
     7
100
AcDbCircle
 10
10.24710577490237
 20
-47.32837496386719
 30
0.0
 40
0.5
100
AcDbArc
 50
354.9999999999999
 51
90.0
  0
ARC
  5
3B9
330
1F
100
AcDbEntity
  8
0
  6
Continuous
 62
     7
100
AcDbCircle
 10
5.460776274902344
 20
-61.87837496386717
 30
0.0
 40
3.25
100
AcDbArc
 50
270.0
 51
354.9999999999999
  0
ARC
  5
3BA
330
1F
100
AcDbEntity
  8
0
  6
Continuous
 62
     7
100
AcDbCircle
 10
5.460776274902344
 20
-61.87837496386717
 30
0.0
 40
3.0
100
AcDbArc
 50
270.0
 51
354.9999999999999
  0
ARC
  5
3BB
330
1F
100
AcDbEntity
  8
0
  6
Continuous
 62
     7
100
AcDbCircle
 10
5.460776274902344
 20
-61.87837496386717
 30
0.0
 40
4.0
100
AcDbArc
 50
270.0
 51
355.0
  0
ARC
  5
3BC
330
1F
100
AcDbEntity
  8
0
  6
Continuous
 62
     7
100
AcDbCircle
 10
-26.59501772509765
 20
-65.72837496386717
 30
0.0
 40
2.15
100
AcDbArc
 50
180.0
 51
270.0000000000001
  0
ARC
  5
3BD
330
1F
100
AcDbEntity
  8
0
  6
Continuous
 62
     7
100
AcDbCircle
 10
-26.59501772509765
 20
-65.72837496386717
 30
0.0
 40
1.0
100
AcDbArc
 50
180.0
 51
270.0000000000001
  0
ARC
  5
3BE
330
1F
100
AcDbEntity
  8
0
  6
Continuous
 62
     7
100
AcDbCircle
 10
6.239657774902355
 20
-62.72837496386717
 30
0.0
 40
5.15
100
AcDbArc
 50
270.0
 51
355.0
  0
ARC
  5
3BF
330
1F
100
AcDbEntity
  8
0
  6
Continuous
 62
     7
100
AcDbCircle
 10
15.34985177490239
 20
-46.97837496386717
 30
0.0
 40
1.0
100
AcDbArc
 50
270.0
 51
359.0000000000001
  0
ARC
  5
3C0
330
1F
100
AcDbEntity
  8
0
  6
Continuous
 62
     7
100
AcDbCircle
 10
15.04600677490237
 20
-46.57837496386719
 30
0.0
 40
0.25
100
AcDbArc
 50
270.0
 51
0.0
  0
ARC
  5
3C1
330
1F
100
AcDbEntity
  8
0
  6
Continuous
 62
     7
100
AcDbCircle
 10
12.92887077490235
 20
-48.22837496386717
 30
0.0
 40
0.25
100
AcDbArc
 50
90.00000000000001
 51
175.0000000000003
  0
ARC
  5
3C2
330
1F
100
AcDbEntity
  8
0
  6
Continuous
 62
     7
100
AcDbCircle
 10
11.87508977490234
 20
-47.07837496386719
 30
0.0
 40
0.25
100
AcDbArc
 50
90.00000000000001
 51
175.0000000000003
  0
ARC
  5
3C3
330
1F
100
AcDbEntity
  8
0
  6
Continuous
 62
     7
100
AcDbCircle
 10
6.239657774902355
 20
-62.72837496386717
 30
0.0
 40
4.0
100
AcDbArc
 50
270.0
 51
355.0
  0
ARC
  5
3C4
330
1F
100
AcDbEntity
  8
0
  6
Continuous
 62
     7
100
AcDbCircle
 10
15.44600677490234
 20
-41.47837496386717
 30
0.0
 40
1.0
100
AcDbArc
 50
0.0
 51
90.00000000000001
  0
ARC
  5
3C5
330
1F
100
AcDbEntity
  8
0
  6
Continuous
 62
     7
100
AcDbCircle
 10
11.29600677490237
 20
-40.97837496386717
 30
0.0
 40
0.75
100
AcDbArc
 50
41.81031489577865
 51
270.0000000000001
  0
ARC
  5
3C6
330
1F
100
AcDbEntity
  8
0
  6
Continuous
 62
     7
100
AcDbCircle
 10
-39.51995222509765
 20
-28.47837496386718
 30
0.0
 40
0.75
100
AcDbArc
 50
270.0
 51
138.1896851042216
  0
ARC
  5
3C7
330
1F
100
AcDbEntity
  8
0
  6
Continuous
 62
     7
100
AcDbCircle
 10
-27.94698522509765
 20
-56.72837496386717
 30
0.0
 40
6.0
100
AcDbArc
 50
185.0
 51
270.0
  0
ARC
  5
3C8
330
1F
100
AcDbEntity
  8
0
  6
Continuous
 62
     7
100
AcDbCircle
 10
-27.84501772509765
 20
-62.97837496386717
 30
0.0
 40
0.25
100
AcDbArc
 50
0.0
 51
90.00000000000001
  0
ARC
  5
3C9
330
1F
100
AcDbEntity
  8
0
  6
Continuous
 62
     7
100
AcDbCircle
 10
-45.26995222509765
 20
-28.97837496386718
 30
0.0
 40
1.0
100
AcDbArc
 50
90.00000000000001
 51
180.0
  0
ARC
  5
3CA
330
1F
100
AcDbEntity
  8
0
  6
Continuous
 62
     7
100
AcDbCircle
 10
-27.94698522509765
 20
-56.72837496386717
 30
0.0
 40
7.15
100
AcDbArc
 50
185.0
 51
261.396836
  0
ARC
  5
3CB
330
1F
100
AcDbEntity
  8
0
  6
Continuous
 62
     7
100
AcDbCircle
 10
-29.05395072509765
 20
-64.04511096386716
 30
0.0
 40
0.25
100
AcDbArc
 50
2.000000000000357
 51
81.39683599999948
  0
ARC
  5
3CC
330
1F
100
AcDbEntity
  8
0
  6
Continuous
 62
     7
100
AcDbCircle
 10
-36.33621922509764
 20
-38.28655696386718
 30
0.0
 40
0.25
100
AcDbArc
 50
94.99999999999984
 51
184.9999999999998
  0
ARC
  5
3CD
330
1F
100
AcDbEntity
  8
0
  6
Continuous
 62
     7
100
AcDbCircle
 10
-36.85610522509762
 20
-38.08108596386717
 30
0.0
 40
0.5
100
AcDbArc
 50
94.9999999999998
 51
184.9999999999998
  0
ARC
  5
3CE
330
1F
100
AcDbEntity
  8
0
  6
Continuous
 62
     7
100
AcDbCircle
 10
-36.42032672509765
 20
-43.06205946386717
 30
0.0
 40
0.5
100
AcDbArc
 50
184.9999999999998
 51
274.9999999999997
  0
ARC
  5
3CF
330
1F
100
AcDbEntity
  8
0
  6
Continuous
 62
     7
100
AcDbCircle
 10
-35.94401822509764
 20
-42.76943296386719
 30
0.0
 40
0.25
100
AcDbArc
 50
184.9999999999997
 51
274.9999999999998
  0
ARC
  5
3D0
330
1F
100
AcDbEntity
  8
0
  6
Continuous
 62
     7
100
AcDbCircle
 10
-27.94698522509765
 20
-56.72837496386717
 30
0.0
 40
5.15
100
AcDbArc
 50
185.0
 51
270.0
  0
ARC
  5
3D1
330
1F
100
AcDbEntity
  8
0
  6
Continuous
 62
     7
100
AcDbCircle
 10
-32.91345822509766
 20
-47.57723896386719
 30
0.0
 40
0.25
100
AcDbArc
 50
94.99999999999984
 51
184.9999999999998
  0
ARC
  5
3D2
330
1F
100
AcDbEntity
  8
0
  6
Continuous
 62
     7
100
AcDbCircle
 10
-27.94698522509765
 20
-56.72837496386717
 30
0.0
 40
4.4
100
AcDbArc
 50
184.9999999999999
 51
270.0
  0
ARC
  5
3D3
330
1F
100
AcDbEntity
  8
0
  6
Continuous
 62
     7
100
AcDbCircle
 10
-27.94698522509765
 20
-56.72837496386717
 30
0.0
 40
4.15
100
AcDbArc
 50
184.9999999999999
 51
270.0
  0
ARC
  5
3D4
330
1F
100
AcDbEntity
  8
0
  6
Continuous
 62
     7
100
AcDbCircle
 10
-22.27725072509764
 20
-64.62837496386717
 30
0.0
 40
0.5
100
AcDbArc
 50
225.0
 51
270.0
  0
DIMENSION
  5
3D5
330
1F
100
AcDbEntity
  8
0
 62
     7
100
AcDbDimension
  2
*D13
 10
26.44700677490236
 20
13.29669053613281
 30
0.0
 11
26.44700677490234
 21
53.40567003613281
 31
0.0
 70
   160
  1
160
 71
     5
 42
80.215959
  3
ISO-25
100
AcDbAlignedDimension
 13
16.44600677490234
 23
93.51264953613281
 33
0.0
 14
15.94600677490234
 24
13.29669053613281
 34
0.0
 50
90.00000000000001
100
AcDbRotatedDimension
1001
ACAD
1000
DSTYLE
1002
{
1070
   178
1070
     1
1070
   278
1070
    46
1070
   147
1040
0.800000011920929
1070
    77
1070
     1
1070
    74
1070
     0
1070
    73
1070
     0
1070
    42
1040
2.54
1070
    44
1040
2.0
1070
    76
1070
     0
1070
    75
1070
     0
1070
   279
1070
     0
1070
   271
1070
     0
1070
   173
1070
     1
1070
    41
1040
3.0
1070
   140
1040
3.200000047683716
1070
   344
1005
134
1070
   343
1005
134
1002
}
  0
DIMENSION
  5
3E2
330
1F
100
AcDbEntity
  8
0
 62
     7
100
AcDbDimension
  2
*D14
 10
-63.76995222509763
 20
103.5126495361328
 30
0.0
 11
-23.65997272509764
 21
103.5126495361328
 31
0.0
 70
   160
  1
160
 71
     5
 42
80.21595899999997
  3
ISO-25
100
AcDbAlignedDimension
 13
16.44600677490234
 23
93.51264953613281
 33
0.0
 14
-63.76995222509763
 24
93.01264953613281
 34
0.0
100
AcDbRotatedDimension
1001
ACAD
1000
DSTYLE
1002
{
1070
   178
1070
     1
1070
   278
1070
    46
1070
   147
1040
0.800000011920929
1070
    77
1070
     1
1070
    74
1070
     0
1070
    73
1070
     0
1070
    42
1040
2.54
1070
    44
1040
2.0
1070
    76
1070
     0
1070
    75
1070
     0
1070
   279
1070
     0
1070
   271
1070
     0
1070
   173
1070
     1
1070
    41
1040
3.0
1070
   140
1040
3.200000047683716
1070
   344
1005
134
1070
   343
1005
134
1002
}
  0
DIMENSION
  5
3EF
330
1F
100
AcDbEntity
  8
0
 62
     7
100
AcDbDimension
  2
*D15
 10
-63.76995222509763
 20
3.297690536132814
 30
0.0
 11
-55.01795222509764
 21
3.297690536132814
 31
0.0
 70
   160
  1
35
 71
     5
 42
17.49999999999997
  3
ISO-25
100
AcDbAlignedDimension
 13
-46.26995222509765
 23
15.29669053613282
 33
0.0
 14
-63.76995222509763
 24
31.29669053613282
 34
0.0
100
AcDbRotatedDimension
1001
ACAD
1000
DSTYLE
1002
{
1070
   178
1070
     1
1070
   278
1070
    46
1070
   147
1040
0.800000011920929
1070
    77
1070
     1
1070
    74
1070
     0
1070
    73
1070
     0
1070
    42
1040
2.54
1070
    44
1040
2.0
1070
    76
1070
     0
1070
    75
1070
     0
1070
   279
1070
     0
1070
   271
1070
     0
1070
   173
1070
     1
1070
    41
1040
3.0
1070
   140
1040
3.200000047683716
1070
   344
1005
134
1070
   343
1005
134
1002
}
  0
DIMENSION
  5
3FC
330
1F
100
AcDbEntity
  8
0
 62
     7
100
AcDbDimension
  2
*D16
 10
-73.76795222509762
 20
13.29669053613281
 30
0.0
 11
-73.76795222509762
 21
22.04769053613282
 31
0.0
 70
   160
  1
35
 71
     5
 42
17.50000000000001
  3
ISO-25
100
AcDbAlignedDimension
 13
-61.76995222509765
 23
30.79669053613282
 33
0.0
 14
-45.76995222509765
 24
13.29669053613281
 34
0.0
 50
90.00000000000001
100
AcDbRotatedDimension
1001
ACAD
1000
DSTYLE
1002
{
1070
   178
1070
     1
1070
   278
1070
    46
1070
   147
1040
0.800000011920929
1070
    77
1070
     1
1070
    74
1070
     0
1070
    73
1070
     0
1070
    42
1040
2.54
1070
    44
1040
2.0
1070
    76
1070
     0
1070
    75
1070
     0
1070
   279
1070
     0
1070
   271
1070
     0
1070
   173
1070
     1
1070
    41
1040
3.0
1070
   140
1040
3.200000047683716
1070
   344
1005
134
1070
   343
1005
134
1002
}
  0
DIMENSION
  5
409
330
1F
100
AcDbEntity
  8
0
 62
     7
100
AcDbDimension
  2
*D17
 10
-46.2961381625264
 20
-11.47837496386717
 30
0.0
 11
-14.91433816058904
 21
-11.47837496386717
 31
0.0
 70
   160
  1
126
 71
     5
 42
62.75960000387472
  3
ISO-25
100
AcDbAlignedDimension
 13
16.46346184134833
 23
-40.47837496386717
 33
0.0
 14
-46.2961381625264
 24
-27.97837496386718
 34
0.0
100
AcDbRotatedDimension
1001
ACAD
1000
DSTYLE
1002
{
1070
   178
1070
     1
1070
   278
1070
    46
1070
   147
1040
0.800000011920929
1070
    77
1070
     1
1070
    74
1070
     0
1070
    73
1070
     0
1070
    42
1040
2.54
1070
    44
1040
2.0
1070
    76
1070
     0
1070
    75
1070
     0
1070
   279
1070
     0
1070
   271
1070
     0
1070
   173
1070
     1
1070
    41
1040
3.0
1070
   140
1040
3.200000047683716
1070
   344
1005
134
1070
   343
1005
134
1002
}
  0
DIMENSION
  5
416
330
1F
100
AcDbEntity
  8
0
 62
     7
100
AcDbDimension
  2
*D18
 10
-73.7679522250976
 20
-67.87837496386717
 30
0.0
 11
-73.76795222509762
 21
-47.92737496386718
 31
0.0
 70
   160
  1
80
 71
     5
 42
39.89999999999999
  3
ISO-25
100
AcDbAlignedDimension
 13
-61.76995222509765
 23
-27.97837496386718
 33
0.0
 14
-61.76995222509765
 24
-67.87837496386717
 34
0.0
 50
90.00000000000001
100
AcDbRotatedDimension
1001
ACAD
1000
DSTYLE
1002
{
1070
   178
1070
     1
1070
   278
1070
    46
1070
   147
1040
0.800000011920929
1070
    77
1070
     1
1070
    74
1070
     0
1070
    73
1070
     0
1070
    42
1040
2.54
1070
    44
1040
2.0
1070
    76
1070
     0
1070
    75
1070
     0
1070
   279
1070
     0
1070
   271
1070
     0
1070
   173
1070
     1
1070
    41
1040
3.0
1070
   140
1040
3.200000047683716
1070
   344
1005
134
1070
   343
1005
134
1002
}
  0
DIMENSION
  5
423
330
1F
100
AcDbEntity
  8
0
 62
     7
100
AcDbDimension
  2
*D19
 10
-46.2961381625264
 20
-21.47837496386717
 30
0.0
 11
-42.56371859537131
 21
-21.47837496386717
 31
0.0
 70
   160
  1
15
 71
     5
 42
7.460839134310206
  3
ISO-25
100
AcDbAlignedDimension
 13
-38.8352990282162
 23
-28.17218874601928
 33
0.0
 14
-46.2961381625264
 24
-27.97837496386718
 34
0.0
100
AcDbRotatedDimension
1001
ACAD
1000
DSTYLE
1002
{
1070
   178
1070
     1
1070
   278
1070
    46
1070
   147
1040
0.800000011920929
1070
    77
1070
     1
1070
    74
1070
     0
1070
    73
1070
     0
1070
    42
1040
2.54
1070
    44
1040
2.0
1070
    76
1070
     0
1070
    75
1070
     0
1070
   279
1070
     0
1070
   271
1070
     0
1070
   173
1070
     1
1070
    41
1040
3.0
1070
   140
1040
3.200000047683716
1070
   344
1005
134
1070
   343
1005
134
1002
}
  0
DIMENSION
  5
432
330
1F
100
AcDbEntity
  8
0
 62
     7
100
AcDbDimension
  2
*D20
 10
-24.20757267471431
 20
-36.32837496386718
 30
0.0
 11
-24.20757267471432
 21
-32.65237496386719
 31
0.0
 70
   160
  1
15
 71
     5
 42
7.350000000000009
  3
ISO-25
100
AcDbAlignedDimension
 13
-39.51995222509765
 23
-28.97837496386718
 33
0.0
 14
-39.99903522509763
 24
-36.32837496386719
 34
0.0
 50
90.00000000000001
100
AcDbRotatedDimension
1001
ACAD
1000
DSTYLE
1002
{
1070
   178
1070
     1
1070
   278
1070
    46
1070
   147
1040
0.800000011920929
1070
    77
1070
     1
1070
    74
1070
     0
1070
    73
1070
     0
1070
    42
1040
2.54
1070
    44
1040
2.0
1070
    76
1070
     0
1070
    75
1070
     0
1070
   279
1070
     0
1070
   271
1070
     0
1070
   173
1070
     1
1070
    41
1040
3.0
1070
   140
1040
3.200000047683716
1070
   344
1005
134
1070
   343
1005
134
1002
}
  0
DIMENSION
  5
441
330
1F
100
AcDbEntity
  8
0
 62
     7
100
AcDbDimension
  2
*D21
 10
-24.20657267471431
 20
-64.87837496386717
 30
0.0
 11
-24.20657267471432
 21
-50.60237496386718
 31
0.0
 70
   160
  1
57
 71
     5
 42
28.54999999999998
  3
ISO-25
100
AcDbAlignedDimension
 13
-22.20857267471432
 23
-36.32837496386719
 33
0.0
 14
-22.27725072509764
 24
-64.87837496386717
 34
0.0
 50
90.00000000000001
100
AcDbRotatedDimension
1001
ACAD
1000
DSTYLE
1002
{
1070
   178
1070
     1
1070
   278
1070
    46
1070
   147
1040
0.800000011920929
1070
    77
1070
     1
1070
    74
1070
     0
1070
    73
1070
     0
1070
    42
1040
2.54
1070
    44
1040
2.0
1070
    76
1070
     0
1070
    75
1070
     1
1070
   279
1070
     0
1070
   271
1070
     0
1070
   173
1070
     1
1070
    41
1040
3.0
1070
   140
1040
3.200000047683716
1070
   344
1005
134
1070
   343
1005
134
1002
}
  0
DIMENSION
  5
44D
330
1F
100
AcDbEntity
  8
0
 62
     7
100
AcDbDimension
  2
*D22
 10
-0.171006693838871
 20
-46.8283749638672
 30
0.0
 11
-0.171006693838872
 21
-44.15237496386718
 31
0.0
 70
   160
  1
11
 71
     5
 42
5.350000000000023
  3
ISO-25
100
AcDbAlignedDimension
 13
11.29600677490237
 23
-41.47837496386717
 33
0.0
 14
11.87508977490234
 24
-46.82837496386719
 34
0.0
 50
90.00000000000001
100
AcDbRotatedDimension
1001
ACAD
1000
DSTYLE
1002
{
1070
   178
1070
     1
1070
   278
1070
    46
1070
   147
1040
0.800000011920929
1070
    77
1070
     1
1070
    74
1070
     0
1070
    73
1070
     0
1070
    42
1040
2.54
1070
    44
1040
2.000000000000001
1070
    76
1070
     0
1070
    75
1070
     0
1070
   279
1070
     0
1070
   271
1070
     0
1070
   173
1070
     1
1070
    41
1040
3.0
1070
   140
1040
3.200000047683716
1070
   344
1005
134
1070
   343
1005
134
1002
}
  0
DIMENSION
  5
463
330
1F
100
AcDbEntity
  8
0
 62
     7
100
AcDbDimension
  2
*D23
 10
-0.172006693838868
 20
-64.87837496386717
 30
0.0
 11
-0.172006693838872
 21
-55.85237496386718
 31
0.0
 70
   160
  1
36
 71
     5
 42
18.04999999999998
  3
ISO-25
100
AcDbAlignedDimension
 13
-2.173006693838872
 23
-46.82837496386719
 33
0.0
 14
-3.095017725097648
 24
-64.87837496386717
 34
0.0
 50
90.00000000000001
100
AcDbRotatedDimension
1001
ACAD
1000
DSTYLE
1002
{
1070
   178
1070
     1
1070
   278
1070
    46
1070
   147
1040
0.800000011920929
1070
    77
1070
     1
1070
    74
1070
     0
1070
    73
1070
     0
1070
    42
1040
2.54
1070
    44
1040
2.0
1070
    76
1070
     0
1070
    75
1070
     0
1070
   279
1070
     0
1070
   271
1070
     0
1070
   173
1070
     1
1070
    41
1040
3.0
1070
   140
1040
3.200000047683716
1070
   344
1005
134
1070
   343
1005
134
1002
}
  0
DIMENSION
  5
470
330
1F
100
AcDbEntity
  8
0
 62
     7
100
AcDbDimension
  2
*D24
 10
10.54600677490237
 20
-21.47837496386717
 30
0.0
 11
13.50673430812535
 21
-21.47837496386717
 31
0.0
 70
   160
  1
12
 71
     5
 42
5.91745506644596
  3
ISO-25
100
AcDbAlignedDimension
 13
16.46346184134833
 23
-40.47837496386717
 33
0.0
 14
10.54600677490237
 24
-40.97837496386717
 34
0.0
100
AcDbRotatedDimension
1001
ACAD
1000
DSTYLE
1002
{
1070
   178
1070
     1
1070
   278
1070
    46
1070
   147
1040
0.800000011920929
1070
    77
1070
     1
1070
    74
1070
     0
1070
    73
1070
     0
1070
    42
1040
2.54
1070
    44
1040
2.0
1070
    76
1070
     0
1070
    75
1070
     0
1070
   279
1070
     0
1070
   271
1070
     0
1070
   173
1070
     1
1070
    41
1040
3.0
1070
   140
1040
3.200000047683716
1070
   344
1005
134
1070
   343
1005
134
1002
}
  0
DIMENSION
  5
47F
330
1F
100
AcDbEntity
  8
0
 62
     7
100
AcDbDimension
  2
*D25
 10
26.44548372620147
 20
-67.87837496386716
 30
0.0
 11
26.44548372620146
 21
-54.17737496386717
 31
0.0
 70
   160
  1
55
 71
     5
 42
27.4
  3
ISO-25
100
AcDbAlignedDimension
 13
15.44600677490234
 23
-40.47837496386717
 33
0.0
 14
6.239657774902355
 24
-67.87837496386717
 34
0.0
 50
90.00000000000001
100
AcDbRotatedDimension
1001
ACAD
1000
DSTYLE
1002
{
1070
   178
1070
     1
1070
   278
1070
    46
1070
   147
1040
0.800000011920929
1070
    77
1070
     1
1070
    74
1070
     0
1070
    73
1070
     0
1070
    42
1040
2.54
1070
    44
1040
2.0
1070
    76
1070
     0
1070
    75
1070
     0
1070
   279
1070
     0
1070
   271
1070
     0
1070
   173
1070
     1
1070
    41
1040
3.0
1070
   140
1040
3.200000047683716
1070
   344
1005
134
1070
   343
1005
134
1002
}
  0
DIMENSION
  5
48C
330
1F
100
AcDbEntity
  8
0
 62
     7
100
AcDbDimension
  2
*D26
 10
-33.09501721067408
 20
-77.87737496386717
 30
0.0
 11
-11.59301721519118
 21
-77.87737496386717
 31
0.0
 70
   160
  1
86
 71
     5
 42
42.99999999096581
  3
ISO-25
100
AcDbAlignedDimension
 13
9.904982780291723
 23
-66.72837496386717
 33
0.0
 14
-33.09501721067409
 24
-66.72837496386717
 34
0.0
100
AcDbRotatedDimension
1001
ACAD
1000
DSTYLE
1002
{
1070
   178
1070
     1
1070
   278
1070
    46
1070
   147
1040
0.800000011920929
1070
    77
1070
     1
1070
    74
1070
     0
1070
    73
1070
     0
1070
    42
1040
2.54
1070
    44
1040
2.0
1070
    76
1070
     0
1070
    75
1070
     0
1070
   279
1070
     0
1070
   271
1070
     0
1070
   173
1070
     1
1070
    41
1040
3.0
1070
   140
1040
3.200000047683716
1070
   344
1005
134
1070
   343
1005
134
1002
}
  0
POINT
  5
49A
330
1F
100
AcDbEntity
  8
VIEW0001
 62
     7
100
AcDbPoint
 10
105.0
 20
-148.5
 30
0.0
  0
LWPOLYLINE
  5
49B
330
1F
100
AcDbEntity
  8
VIEW0001
  6
Continuous
 62
     7
100
AcDbPolyline
 90
        2
 70
     0
 10
81.0
 20
-129.0
 40
0.001000000047497
 41
0.001000000047497
 10
81.0
 20
-120.0
 40
0.001000000047497
 41
0.001000000047497
  0
LWPOLYLINE
  5
49C
330
1F
100
AcDbEntity
  8
VIEW0001
  6
Continuous
 62
     7
100
AcDbPolyline
 90
        2
 70
     0
 10
66.0
 20
-129.0
 40
0.001000000047497
 41
0.001000000047497
 10
66.0
 20
-120.0
 40
0.001000000047497
 41
0.001000000047497
  0
LWPOLYLINE
  5
49D
330
1F
100
AcDbEntity
  8
VIEW0001
  6
Continuous
 62
     7
100
AcDbPolyline
 90
        2
 70
     0
 10
5.75
 20
-138.0
 40
0.001000000047497
 41
0.001000000047497
 10
5.75
 20
-120.0
 40
0.001000000047497
 41
0.001000000047497
  0
LINE
  5
49E
330
1F
100
AcDbEntity
  8
VIEW0001
  6
Continuous
 62
     7
370
    20
100
AcDbLine
 10
41.0
 20
138.0
 30
0.0
 11
41.0
 21
128.0
 31
0.0
  0
LINE
  5
49F
330
1F
100
AcDbEntity
  8
VIEW0001
  6
Continuous
 62
     7
370
    20
100
AcDbLine
 10
41.0
 20
128.0
 30
0.0
 11
96.0
 21
128.0
 31
0.0
  0
LWPOLYLINE
  5
4A0
330
1F
100
AcDbEntity
  8
VIEW0001
  6
Continuous
 62
     7
100
AcDbPolyline
 90
        2
 70
     0
 10
96.0
 20
-129.0
 40
0.001000000047497
 41
0.001000000047497
 10
-84.5
 20
-129.0
 40
0.001000000047497
 41
0.001000000047497
  0
LINE
  5
4A1
330
1F
100
AcDbEntity
  8
VIEW0001
  6
Continuous
 62
     7
370
    20
100
AcDbLine
 10
-84.5
 20
-120.0
 30
0.0
 11
96.0
 21
-120.0
 31
0.0
  0
LINE
  5
4A2
330
1F
100
AcDbEntity
  8
VIEW0001
  6
Continuous
 62
     7
370
    50
100
AcDbLine
 10
-84.5
 20
138.0
 30
0.0
 11
96.0
 21
138.0
 31
0.0
  0
LINE
  5
4A3
330
1F
100
AcDbEntity
  8
VIEW0001
  6
Continuous
 62
     7
370
    50
100
AcDbLine
 10
-84.5
 20
-138.0
 30
0.0
 11
96.0
 21
-138.0
 31
0.0
  0
LINE
  5
4A4
330
1F
100
AcDbEntity
  8
VIEW0001
  6
Continuous
 62
     7
370
    50
100
AcDbLine
 10
96.0
 20
138.0
 30
0.0
 11
96.0
 21
-138.0
 31
0.0
  0
LINE
  5
4A5
330
1F
100
AcDbEntity
  8
VIEW0001
  6
Continuous
 62
     7
370
    50
100
AcDbLine
 10
-84.5
 20
138.0
 30
0.0
 11
-84.5
 21
-138.0
 31
0.0
  0
LWPOLYLINE
  5
4A6
330
1F
100
AcDbEntity
  8
VIEW0001
  6
Continuous
 62
     7
100
AcDbPolyline
 90
        2
 70
     0
 10
-64.5
 20
-138.0
 40
0.001000000047497
 41
0.001000000047497
 10
-64.5
 20
-120.0
 40
0.001000000047497
 41
0.001000000047497
  0
LWPOLYLINE
  5
4A7
330
1F
100
AcDbEntity
  8
VIEW0001
  6
Continuous
 62
     7
100
AcDbPolyline
 90
        2
 70
     0
 10
25.75
 20
-129.0
 40
0.001000000047497
 41
0.001000000047497
 10
25.75
 20
-120.0
 40
0.001000000047497
 41
0.001000000047497
  0
MTEXT
  5
4A8
330
1F
100
AcDbEntity
  8
VIEW0001
 62
     1
100
AcDbMText
 10
-80.92857193946838
 20
-126.5
 30
0.0
 40
4.0
 41
0.0
 71
     7
 72
     1
  1
{\W2.08333;品名}
 73
     1
 44
1.0
  0
MTEXT
  5
4A9
330
1F
100
AcDbEntity
  8
VIEW0001
 62
     1
100
AcDbMText
 10
-80.92857193946838
 20
-135.5
 30
0.0
 40
4.0
 41
0.0
 71
     7
 72
     1
  1
{\W2.08333;規格}
 73
     1
 44
1.0
  0
MTEXT
  5
4AA
330
1F
100
AcDbEntity
  8
VIEW0001
 62
     1
100
AcDbMText
 10
67.57142806053162
 20
-126.5
 30
0.0
 40
4.0
 41
0.0
 71
     7
 72
     1
  1
{\W1.875;尺度}
 73
     1
 44
1.0
  0
MTEXT
  5
4AB
330
1F
100
AcDbEntity
  8
VIEW0001
 62
     1
100
AcDbMText
 10
9.321428060531616
 20
-126.5
 30
0.0
 40
4.0
 41
0.0
 71
     7
 72
     1
  1
{\W2.08333;材質}
 73
     1
 44
1.0
  0
MTEXT
  5
4AC
330
1F
100
AcDbEntity
  8
VIEW0001
 62
     1
100
AcDbMText
 10
83.07124984264374
 20
-126.5
 30
0.0
 40
4.0
 41
0.0
 71
     7
 72
     1
  1
{\W0.833333;1/2}
 73
     1
 44
1.0
  0
MTEXT
  5
4AD
330
1F
100
AcDbEntity
  8
VIEW0001
 62
     1
100
AcDbMText
 10
26.46785604953766
 20
-135.75
 30
0.0
 40
4.5
 41
0.0
 71
     7
 72
     1
  1
{\W1.40741;デンカ株式会社}
 73
     1
 44
1.0
  0
MTEXT
  5
4AE
330
1F
100
AcDbEntity
  8
VIEW0001
 62
     1
100
AcDbMText
 10
36.44624972343445
 20
-126.5
 30
0.0
 40
4.0
 41
0.0
 71
     7
 72
     1
  1
{\W0.833333;硬質ＰＶＣ}
 73
     1
 44
1.0
  0
MTEXT
  5
4AF
330
1F
100
AcDbEntity
  8
VIEW0001
 62
     1
100
AcDbMText
 10
-36.80375021696091
 20
-135.5
 30
0.0
 40
4.0
 41
0.0
 71
     7
 72
     1
  1
{\W0.833333;ＤＬ55}
 73
     1
 44
1.0
  0
MTEXT
  5
4B0
330
1F
100
AcDbEntity
  8
VIEW0001
 62
     1
100
AcDbMText
 10
-40.8037503361702
 20
-126.5
 30
0.0
 40
4.0
 41
0.0
 71
     7
 72
     1
  1
{\W0.833333;曲り（入隅）}
 73
     1
 44
1.0
  0
ENDSEC
  0
SECTION
  2
OBJECTS
  0
DICTIONARY
  5
C
330
0
100
AcDbDictionary
281
     1
  3
ACAD_GROUP
350
D
  3
ACAD_LAYOUT
350
1A
  3
ACAD_MATERIAL
350
3B
  3
ACAD_MLEADERSTYLE
350
4D8
  3
ACAD_MLINESTYLE
350
17
  3
ACAD_PLOTSETTINGS
350
19
  3
ACAD_PLOTSTYLENAME
350
E
  3
ACAD_TABLESTYLE
350
4D7
  3
ACAD_VISUALSTYLE
350
2A
  0
DICTIONARY
  5
D
102
{ACAD_REACTORS
330
C
102
}
330
C
100
AcDbDictionary
281
     1
  0
DICTIONARY
  5
1A
102
{ACAD_REACTORS
330
C
102
}
330
C
100
AcDbDictionary
281
     1
  3
Layout1
350
1E
  3
Layout2
350
26
  3
Model
350
22
  0
DICTIONARY
  5
3B
102
{ACAD_REACTORS
330
C
102
}
330
C
100
AcDbDictionary
281
     1
  3
ByBlock
350
3D
  3
ByLayer
350
3C
  3
Global
350
3E
  0
DICTIONARY
  5
4D8
102
{ACAD_REACTORS
330
C
102
}
330
C
100
AcDbDictionary
281
     1
  0
DICTIONARY
  5
17
102
{ACAD_REACTORS
330
C
102
}
330
C
100
AcDbDictionary
281
     1
  3
Standard
350
18
  0
DICTIONARY
  5
19
102
{ACAD_REACTORS
330
C
102
}
330
C
100
AcDbDictionary
281
     1
  0
ACDBDICTIONARYWDFLT
  5
E
102
{ACAD_REACTORS
330
C
102
}
330
C
100
AcDbDictionary
281
     1
  3
Normal
350
F
100
AcDbDictionaryWithDefault
340
F
  0
DICTIONARY
  5
4D7
102
{ACAD_REACTORS
330
C
102
}
330
C
100
AcDbDictionary
281
     1
  0
DICTIONARY
  5
2A
102
{ACAD_REACTORS
330
C
102
}
330
C
100
AcDbDictionary
281
     1
  3
2dWireframe
350
2F
  3
3D Hidden
350
31
  3
3dWireframe
350
30
  3
Basic
350
32
  3
Brighten
350
36
  3
ColorChange
350
3A
  3
Conceptual
350
34
  3
Dim
350
35
  3
Facepattern
350
39
  3
Flat
350
2B
  3
FlatWithEdges
350
2C
  3
Gouraud
350
2D
  3
GouraudWithEdges
350
2E
  3
Linepattern
350
38
  3
Realistic
350
33
  3
Thicken
350
37
  0
LAYOUT
  5
1E
102
{ACAD_REACTORS
330
1A
102
}
330
1A
100
AcDbPlotSettings
  1

  2
none_device
  4

  6

 40
0.0
 41
0.0
 42
0.0
 43
0.0
 44
0.0
 45
0.0
 46
0.0
 47
0.0
 48
0.0
 49
0.0
140
0.0
141
0.0
142
1.0
143
1.0
 70
   688
 72
     0
 73
     0
 74
     5
  7

 75
    16
 76
     0
 77
     2
 78
   300
147
1.0
148
0.0
149
0.0
100
AcDbLayout
  1
Layout1
 70
     1
 71
     1
 10
-105.0
 20
-148.5
 11
105.0
 21
148.5
 12
0.0
 22
0.0
 32
0.0
 14
1.000000000000000E+20
 24
1.000000000000000E+20
 34
1.000000000000000E+20
 15
-1.000000000000000E+20
 25
-1.000000000000000E+20
 35
-1.000000000000000E+20
146
0.0
 13
0.0
 23
0.0
 33
0.0
 16
1.0
 26
0.0
 36
0.0
 17
0.0
 27
1.0
 37
0.0
 76
     0
330
1B
  0
LAYOUT
  5
26
102
{ACAD_REACTORS
330
1A
102
}
330
1A
100
AcDbPlotSettings
  1

  2
none_device
  4

  6

 40
0.0
 41
0.0
 42
0.0
 43
0.0
 44
0.0
 45
0.0
 46
0.0
 47
0.0
 48
0.0
 49
0.0
140
0.0
141
0.0
142
1.0
143
1.0
 70
   688
 72
     0
 73
     0
 74
     5
  7

 75
    16
 76
     0
 77
     2
 78
   300
147
1.0
148
0.0
149
0.0
100
AcDbLayout
  1
Layout2
 70
     1
 71
     2
 10
0.0
 20
0.0
 11
0.0
 21
0.0
 12
0.0
 22
0.0
 32
0.0
 14
0.0
 24
0.0
 34
0.0
 15
0.0
 25
0.0
 35
0.0
146
0.0
 13
0.0
 23
0.0
 33
0.0
 16
1.0
 26
0.0
 36
0.0
 17
0.0
 27
1.0
 37
0.0
 76
     0
330
23
  0
LAYOUT
  5
22
102
{ACAD_REACTORS
330
1A
102
}
330
1A
100
AcDbPlotSettings
  1

  2
none_device
  4

  6

 40
0.0
 41
0.0
 42
0.0
 43
0.0
 44
0.0
 45
0.0
 46
0.0
 47
0.0
 48
0.0
 49
0.0
140
0.0
141
0.0
142
1.0
143
1.0
 70
  1712
 72
     0
 73
     0
 74
     0
  7

 75
     0
 76
     0
 77
     2
 78
   300
147
1.0
148
0.0
149
0.0
100
AcDbLayout
  1
Model
 70
     1
 71
     0
 10
-105.0
 20
-148.5
 11
105.0
 21
148.5
 12
0.0
 22
0.0
 32
0.0
 14
-105.0
 24
-148.5
 34
0.0
 15
105.0
 25
148.5
 35
0.0
146
0.0
 13
0.0
 23
0.0
 33
0.0
 16
1.0
 26
0.0
 36
0.0
 17
0.0
 27
1.0
 37
0.0
 76
     0
330
1F
331
29
  0
MATERIAL
  5
3D
102
{ACAD_REACTORS
330
3B
102
}
102
{ACAD_XDICTIONARY
360
4D3
102
}
330
3B
100
AcDbMaterial
  1
ByBlock
  0
MATERIAL
  5
3C
102
{ACAD_REACTORS
330
3B
102
}
102
{ACAD_XDICTIONARY
360
4D1
102
}
330
3B
100
AcDbMaterial
  1
ByLayer
  0
MATERIAL
  5
3E
102
{ACAD_REACTORS
330
3B
102
}
102
{ACAD_XDICTIONARY
360
4D5
102
}
330
3B
100
AcDbMaterial
  1
Global
  0
MLINESTYLE
  5
18
102
{ACAD_REACTORS
330
17
102
}
330
17
100
AcDbMlineStyle
  2
Standard
 70
     0
  3

 62
   256
 51
90.0
 52
90.0
 71
     2
 49
0.5
 62
   256
  6
BYLAYER
 49
-0.5
 62
   256
  6
BYLAYER
  0
ACDBPLACEHOLDER
  5
F
102
{ACAD_REACTORS
330
E
102
}
330
E
  0
VISUALSTYLE
  5
2F
102
{ACAD_REACTORS
330
2A
102
}
102
{ACAD_XDICTIONARY
360
4B9
102
}
330
2A
100
AcDbVisualStyle
  2
2dWireframe
 70
     4
 71
     0
 72
     2
 73
     0
 90
        0
 40
-0.6
 41
-30.0
 62
     5
 63
     7
421
 16777215
 74
     1
 91
        4
 64
     7
 65
   257
 75
     1
175
     1
 42
1.0
 92
        0
 66
   257
 43
1.0
 76
     1
 77
     6
 78
     2
 67
     7
 79
     5
170
     0
171
     0
290
     0
174
     0
 93
        1
 44
0.0
173
     0
291
     0
 45
0.0
1001
ACAD
1000
AcDbSavedByObjectVersion
1070
     0
  0
VISUALSTYLE
  5
31
102
{ACAD_REACTORS
330
2A
102
}
102
{ACAD_XDICTIONARY
360
4BD
102
}
330
2A
100
AcDbVisualStyle
  2
3D Hidden
 70
     6
 71
     1
 72
     2
 73
     2
 90
        0
 40
-0.6
 41
-30.0
 62
     5
 63
     7
421
 16777215
 74
     2
 91
        2
 64
     7
 65
   257
 75
     2
175
     1
 42
40.0
 92
        0
 66
   257
 43
1.0
 76
     1
 77
     6
 78
     2
 67
     7
 79
     3
170
     0
171
     0
290
     0
174
     0
 93
        1
 44
0.0
173
     0
291
     0
 45
0.0
1001
ACAD
1000
AcDbSavedByObjectVersion
1070
     0
  0
VISUALSTYLE
  5
30
102
{ACAD_REACTORS
330
2A
102
}
102
{ACAD_XDICTIONARY
360
4BB
102
}
330
2A
100
AcDbVisualStyle
  2
3dWireframe
 70
     5
 71
     0
 72
     2
 73
     0
 90
        0
 40
-0.6
 41
-30.0
 62
     5
 63
     7
421
 16777215
 74
     1
 91
        4
 64
     7
 65
   257
 75
     1
175
     1
 42
1.0
 92
        0
 66
   257
 43
1.0
 76
     1
 77
     6
 78
     2
 67
     7
 79
     5
170
     0
171
     0
290
     0
174
     0
 93
        1
 44
0.0
173
     0
291
     0
 45
0.0
1001
ACAD
1000
AcDbSavedByObjectVersion
1070
     0
  0
VISUALSTYLE
  5
32
102
{ACAD_REACTORS
330
2A
102
}
102
{ACAD_XDICTIONARY
360
4BF
102
}
330
2A
100
AcDbVisualStyle
  2
Basic
 70
     7
 71
     1
 72
     0
 73
     1
 90
        0
 40
-0.6
 41
-30.0
 62
     5
 63
     7
421
 16777215
 74
     0
 91
        4
 64
     7
 65
   257
 75
     1
175
     1
 42
1.0
 92
        8
 66
     7
 43
1.0
 76
     1
 77
     6
 78
     2
 67
     7
 79
     5
170
     0
171
     0
290
     0
174
     0
 93
        1
 44
0.0
173
     0
291
     1
 45
0.0
1001
ACAD
1000
AcDbSavedByObjectVersion
1070
     0
  0
VISUALSTYLE
  5
36
102
{ACAD_REACTORS
330
2A
102
}
102
{ACAD_XDICTIONARY
360
4C7
102
}
330
2A
100
AcDbVisualStyle
  2
Brighten
 70
    12
 71
     2
 72
     2
 73
     0
 90
        0
 40
-0.6
 41
-30.0
 62
     5
 63
     7
421
 16777215
 74
     1
 91
        4
 64
     7
 65
   257
 75
     1
175
     1
 42
1.0
 92
        8
 66
     7
 43
1.0
 76
     1
 77
     6
 78
     2
 67
     7
 79
     5
170
     0
171
     0
290
     0
174
     0
 93
        1
 44
50.0
173
     0
291
     1
 45
0.0
1001
ACAD
1000
AcDbSavedByObjectVersion
1070
     0
  0
VISUALSTYLE
  5
3A
102
{ACAD_REACTORS
330
2A
102
}
102
{ACAD_XDICTIONARY
360
4CF
102
}
330
2A
100
AcDbVisualStyle
  2
ColorChange
 70
    16
 71
     2
 72
     2
 73
     3
 90
        0
 40
-0.6
 41
-30.0
 62
     5
 63
     8
421
  8421504
 74
     1
 91
        4
 64
     7
 65
   257
 75
     1
175
     1
 42
1.0
 92
        8
 66
     8
424
  8421504
 43
1.0
 76
     1
 77
     6
 78
     2
 67
     7
 79
     5
170
     0
171
     0
290
     0
174
     0
 93
        1
 44
0.0
173
     0
291
     1
 45
0.0
1001
ACAD
1000
AcDbSavedByObjectVersion
1070
     0
  0
VISUALSTYLE
  5
34
102
{ACAD_REACTORS
330
2A
102
}
102
{ACAD_XDICTIONARY
360
4C3
102
}
330
2A
100
AcDbVisualStyle
  2
Conceptual
 70
     9
 71
     3
 72
     2
 73
     0
 90
        0
 40
-0.6
 41
-30.0
 62
     5
 63
     7
421
 16777215
 74
     2
 91
        2
 64
     7
 65
   257
 75
     1
175
     1
 42
40.0
 92
        8
 66
     7
 43
1.0
 76
     1
 77
     6
 78
     2
 67
     7
 79
     3
170
     0
171
     0
290
     0
174
     0
 93
        1
 44
0.0
173
     0
291
     0
 45
0.0
1001
ACAD
1000
AcDbSavedByObjectVersion
1070
     0
  0
VISUALSTYLE
  5
35
102
{ACAD_REACTORS
330
2A
102
}
102
{ACAD_XDICTIONARY
360
4C5
102
}
330
2A
100
AcDbVisualStyle
  2
Dim
 70
    11
 71
     2
 72
     2
 73
     0
 90
        0
 40
-0.6
 41
-30.0
 62
     5
 63
     7
421
 16777215
 74
     1
 91
        4
 64
     7
 65
   257
 75
     1
175
     1
 42
1.0
 92
        8
 66
     7
 43
1.0
 76
     1
 77
     6
 78
     2
 67
     7
 79
     5
170
     0
171
     0
290
     0
174
     0
 93
        1
 44
-50.0
173
     0
291
     1
 45
0.0
1001
ACAD
1000
AcDbSavedByObjectVersion
1070
     0
  0
VISUALSTYLE
  5
39
102
{ACAD_REACTORS
330
2A
102
}
102
{ACAD_XDICTIONARY
360
4CD
102
}
330
2A
100
AcDbVisualStyle
  2
Facepattern
 70
    15
 71
     2
 72
     2
 73
     0
 90
        0
 40
-0.6
 41
-30.0
 62
     5
 63
     7
421
 16777215
 74
     1
 91
        4
 64
     7
 65
   257
 75
     1
175
     1
 42
1.0
 92
        8
 66
     7
 43
1.0
 76
     1
 77
     6
 78
     2
 67
     7
 79
     5
170
     0
171
     0
290
     0
174
     0
 93
        1
 44
0.0
173
     0
291
     1
 45
0.0
1001
ACAD
1000
AcDbSavedByObjectVersion
1070
     0
  0
VISUALSTYLE
  5
2B
102
{ACAD_REACTORS
330
2A
102
}
102
{ACAD_XDICTIONARY
360
4B1
102
}
330
2A
100
AcDbVisualStyle
  2
Flat
 70
     0
 71
     2
 72
     1
 73
     1
 90
        2
 40
-0.6
 41
30.0
 62
     5
 63
     7
421
 16777215
 74
     0
 91
        4
 64
     7
 65
   257
 75
     1
175
     1
 42
1.0
 92
        8
 66
     7
 43
1.0
 76
     1
 77
     6
 78
     2
 67
     7
 79
     5
170
     0
171
     0
290
     0
174
     0
 93
       13
 44
0.0
173
     0
291
     1
 45
0.0
1001
ACAD
1000
AcDbSavedByObjectVersion
1070
     0
  0
VISUALSTYLE
  5
2C
102
{ACAD_REACTORS
330
2A
102
}
102
{ACAD_XDICTIONARY
360
4B3
102
}
330
2A
100
AcDbVisualStyle
  2
FlatWithEdges
 70
     1
 71
     2
 72
     1
 73
     1
 90
        2
 40
-0.6
 41
30.0
 62
     5
 63
     7
421
 16777215
 74
     1
 91
        4
 64
     7
 65
   257
 75
     1
175
     1
 42
1.0
 92
        0
 66
   257
 43
1.0
 76
     1
 77
     6
 78
     2
 67
     7
 79
     5
170
     0
171
     0
290
     0
174
     0
 93
       13
 44
0.0
173
     0
291
     1
 45
0.0
1001
ACAD
1000
AcDbSavedByObjectVersion
1070
     0
  0
VISUALSTYLE
  5
2D
102
{ACAD_REACTORS
330
2A
102
}
102
{ACAD_XDICTIONARY
360
4B5
102
}
330
2A
100
AcDbVisualStyle
  2
Gouraud
 70
     2
 71
     2
 72
     2
 73
     1
 90
        2
 40
-0.6
 41
30.0
 62
     5
 63
     7
421
 16777215
 74
     0
 91
        4
 64
     7
 65
   257
 75
     1
175
     1
 42
1.0
 92
        0
 66
     7
 43
1.0
 76
     1
 77
     6
 78
     2
 67
     7
 79
     5
170
     0
171
     0
290
     0
174
     0
 93
       13
 44
0.0
173
     0
291
     1
 45
0.0
1001
ACAD
1000
AcDbSavedByObjectVersion
1070
     0
  0
VISUALSTYLE
  5
2E
102
{ACAD_REACTORS
330
2A
102
}
102
{ACAD_XDICTIONARY
360
4B7
102
}
330
2A
100
AcDbVisualStyle
  2
GouraudWithEdges
 70
     3
 71
     2
 72
     2
 73
     1
 90
        2
 40
-0.6
 41
30.0
 62
     5
 63
     7
421
 16777215
 74
     1
 91
        4
 64
     7
 65
   257
 75
     1
175
     1
 42
1.0
 92
        0
 66
   257
 43
1.0
 76
     1
 77
     6
 78
     2
 67
     7
 79
     5
170
     0
171
     0
290
     0
174
     0
 93
       13
 44
0.0
173
     0
291
     1
 45
0.0
1001
ACAD
1000
AcDbSavedByObjectVersion
1070
     0
  0
VISUALSTYLE
  5
38
102
{ACAD_REACTORS
330
2A
102
}
102
{ACAD_XDICTIONARY
360
4CB
102
}
330
2A
100
AcDbVisualStyle
  2
Linepattern
 70
    14
 71
     2
 72
     2
 73
     0
 90
        0
 40
-0.6
 41
-30.0
 62
     5
 63
     7
421
 16777215
 74
     1
 91
        4
 64
     7
 65
   257
 75
     7
175
     7
 42
1.0
 92
        8
 66
     7
 43
1.0
 76
     1
 77
     6
 78
     2
 67
     7
 79
     5
170
     0
171
     0
290
     0
174
     0
 93
        1
 44
0.0
173
     0
291
     1
 45
0.0
1001
ACAD
1000
AcDbSavedByObjectVersion
1070
     0
  0
VISUALSTYLE
  5
33
102
{ACAD_REACTORS
330
2A
102
}
102
{ACAD_XDICTIONARY
360
4C1
102
}
330
2A
100
AcDbVisualStyle
  2
Realistic
 70
     8
 71
     2
 72
     2
 73
     0
 90
        0
 40
-0.6
 41
-30.0
 62
     5
 63
     7
421
 16777215
 74
     1
 91
        0
 64
     7
 65
   257
 75
     1
175
     1
 42
1.0
 92
        8
 66
     8
424
  7895160
 43
1.0
 76
     1
 77
     6
 78
     2
 67
     7
 79
     5
170
     0
171
     0
290
     0
174
     0
 93
       13
 44
0.0
173
     0
291
     0
 45
0.0
1001
ACAD
1000
AcDbSavedByObjectVersion
1070
     0
  0
VISUALSTYLE
  5
37
102
{ACAD_REACTORS
330
2A
102
}
102
{ACAD_XDICTIONARY
360
4C9
102
}
330
2A
100
AcDbVisualStyle
  2
Thicken
 70
    13
 71
     2
 72
     2
 73
     0
 90
        0
 40
-0.6
 41
-30.0
 62
     5
 63
     7
421
 16777215
 74
     1
 91
        4
 64
     7
 65
   257
 75
     1
175
     1
 42
1.0
 92
       12
 66
     7
 43
1.0
 76
     1
 77
     6
 78
     2
 67
     7
 79
     5
170
     0
171
     0
290
     0
174
     0
 93
        1
 44
0.0
173
     0
291
     1
 45
0.0
1001
ACAD
1000
AcDbSavedByObjectVersion
1070
     0
  0
DICTIONARY
  5
4D3
330
3D
100
AcDbDictionary
280
     1
281
     1
  3
ACAD_XREC_ROUNDTRIP
360
4D4
  0
DICTIONARY
  5
4D1
330
3C
100
AcDbDictionary
280
     1
281
     1
  3
ACAD_XREC_ROUNDTRIP
360
4D2
  0
DICTIONARY
  5
4D5
330
3E
100
AcDbDictionary
280
     1
281
     1
  3
ACAD_XREC_ROUNDTRIP
360
4D6
  0
DICTIONARY
  5
4B9
330
2F
100
AcDbDictionary
280
     1
281
     1
  3
ACAD_XREC_ROUNDTRIP
360
4BA
  0
DICTIONARY
  5
4BD
330
31
100
AcDbDictionary
280
     1
281
     1
  3
ACAD_XREC_ROUNDTRIP
360
4BE
  0
DICTIONARY
  5
4BB
330
30
100
AcDbDictionary
280
     1
281
     1
  3
ACAD_XREC_ROUNDTRIP
360
4BC
  0
DICTIONARY
  5
4BF
330
32
100
AcDbDictionary
280
     1
281
     1
  3
ACAD_XREC_ROUNDTRIP
360
4C0
  0
DICTIONARY
  5
4C7
330
36
100
AcDbDictionary
280
     1
281
     1
  3
ACAD_XREC_ROUNDTRIP
360
4C8
  0
DICTIONARY
  5
4CF
330
3A
100
AcDbDictionary
280
     1
281
     1
  3
ACAD_XREC_ROUNDTRIP
360
4D0
  0
DICTIONARY
  5
4C3
330
34
100
AcDbDictionary
280
     1
281
     1
  3
ACAD_XREC_ROUNDTRIP
360
4C4
  0
DICTIONARY
  5
4C5
330
35
100
AcDbDictionary
280
     1
281
     1
  3
ACAD_XREC_ROUNDTRIP
360
4C6
  0
DICTIONARY
  5
4CD
330
39
100
AcDbDictionary
280
     1
281
     1
  3
ACAD_XREC_ROUNDTRIP
360
4CE
  0
DICTIONARY
  5
4B1
330
2B
100
AcDbDictionary
280
     1
281
     1
  3
ACAD_XREC_ROUNDTRIP
360
4B2
  0
DICTIONARY
  5
4B3
330
2C
100
AcDbDictionary
280
     1
281
     1
  3
ACAD_XREC_ROUNDTRIP
360
4B4
  0
DICTIONARY
  5
4B5
330
2D
100
AcDbDictionary
280
     1
281
     1
  3
ACAD_XREC_ROUNDTRIP
360
4B6
  0
DICTIONARY
  5
4B7
330
2E
100
AcDbDictionary
280
     1
281
     1
  3
ACAD_XREC_ROUNDTRIP
360
4B8
  0
DICTIONARY
  5
4CB
330
38
100
AcDbDictionary
280
     1
281
     1
  3
ACAD_XREC_ROUNDTRIP
360
4CC
  0
DICTIONARY
  5
4C1
330
33
100
AcDbDictionary
280
     1
281
     1
  3
ACAD_XREC_ROUNDTRIP
360
4C2
  0
DICTIONARY
  5
4C9
330
37
100
AcDbDictionary
280
     1
281
     1
  3
ACAD_XREC_ROUNDTRIP
360
4CA
  0
XRECORD
  5
4D4
102
{ACAD_REACTORS
330
4D3
102
}
330
4D3
100
AcDbXrecord
280
     1
102
MATERIAL
148
0.0
149
0.0
149
0.0
 93
        0
 94
      127
282
     0
 72
     1
 77
     1
171
     1
175
     1
179
     1
273
     0
  0
XRECORD
  5
4D2
102
{ACAD_REACTORS
330
4D1
102
}
330
4D1
100
AcDbXrecord
280
     1
102
MATERIAL
148
0.0
149
0.0
149
0.0
 93
        0
 94
      127
282
     0
 72
     1
 77
     1
171
     1
175
     1
179
     1
273
     0
  0
XRECORD
  5
4D6
102
{ACAD_REACTORS
330
4D5
102
}
330
4D5
100
AcDbXrecord
280
     1
102
MATERIAL
148
0.0
149
0.0
149
0.0
 93
        0
 94
      127
282
     0
 72
     1
 77
     1
171
     1
175
     1
179
     1
273
     0
  0
XRECORD
  5
4BA
102
{ACAD_REACTORS
330
4B9
102
}
330
4B9
100
AcDbXrecord
280
     1
102
RTVSPropertyOp0
 70
     1
102
RTVSPropertyOp1
 70
     1
102
RTVSPropertyOp2
 70
     1
102
RTVSPropertyOp3
 70
     1
102
RTVSPropertyOp4
 70
     1
102
RTVSPropertyOp5
 70
     1
102
RTVSPropertyOp6
 70
     1
102
RTVSPropertyOp7
 70
     1
102
RTVSPropertyOp8
 70
     1
102
RTVSPropertyOp9
 70
     1
102
RTVSPropertyOp10
 70
     1
102
RTVSPropertyOp11
 70
     1
102
RTVSPropertyOp12
 70
     1
102
RTVSPropertyOp13
 70
     1
102
RTVSPropertyOp14
 70
     1
102
RTVSPropertyOp15
 70
     1
102
RTVSPropertyOp16
 70
     1
102
RTVSPropertyOp17
 70
     1
102
RTVSPropertyOp18
 70
     1
102
RTVSPropertyOp19
 70
     1
102
RTVSPropertyOp20
 70
     1
102
RTVSPropertyOp21
 70
     1
102
RTVSPropertyOp22
 70
     1
102
RTVSPropertyOp23
 70
     1
102
RTVSPropertyOp24
 70
     1
102
RTVSPropertyOp25
 70
     1
102
RTVSPropertyOp26
 70
     1
102
RTVSPropertyOp27
 70
     1
102
RTVSPropertyOp28
 70
     1
102
RTVSPropertyOp29
 70
     1
102
RTVSPropertyOp30
 70
     1
102
RTVSPropertyOp31
 70
     1
102
RTVSPropertyOp32
 70
     1
  0
XRECORD
  5
4BE
102
{ACAD_REACTORS
330
4BD
102
}
330
4BD
100
AcDbXrecord
280
     1
102
RTVSPropertyOp0
 70
     1
102
RTVSPropertyOp1
 70
     1
102
RTVSPropertyOp2
 70
     1
102
RTVSPropertyOp3
 70
     1
102
RTVSPropertyOp4
 70
     1
102
RTVSPropertyOp5
 70
     1
102
RTVSPropertyOp6
 70
     1
102
RTVSPropertyOp7
 70
     1
102
RTVSPropertyOp8
 70
     1
102
RTVSPropertyOp9
 70
     1
102
RTVSPropertyOp10
 70
     1
102
RTVSPropertyOp11
 70
     1
102
RTVSPropertyOp12
 70
     1
102
RTVSPropertyOp13
 70
     1
102
RTVSPropertyOp14
 70
     1
102
RTVSPropertyOp15
 70
     1
102
RTVSPropertyOp16
 70
     1
102
RTVSPropertyOp17
 70
     1
102
RTVSPropertyOp18
 70
     1
102
RTVSPropertyOp19
 70
     1
102
RTVSPropertyOp20
 70
     1
102
RTVSPropertyOp21
 70
     1
102
RTVSPropertyOp22
 70
     1
102
RTVSPropertyOp23
 70
     1
102
RTVSPropertyOp24
 70
     1
102
RTVSPropertyOp25
 70
     1
102
RTVSPropertyOp26
 70
     1
102
RTVSPropertyOp27
 70
     1
102
RTVSPropertyOp28
 70
     1
102
RTVSPropertyOp29
 70
     1
102
RTVSPropertyOp30
 70
     1
102
RTVSPropertyOp31
 70
     1
102
RTVSPropertyOp32
 70
     1
  0
XRECORD
  5
4BC
102
{ACAD_REACTORS
330
4BB
102
}
330
4BB
100
AcDbXrecord
280
     1
102
RTVSPropertyOp0
 70
     1
102
RTVSPropertyOp1
 70
     1
102
RTVSPropertyOp2
 70
     1
102
RTVSPropertyOp3
 70
     1
102
RTVSPropertyOp4
 70
     1
102
RTVSPropertyOp5
 70
     1
102
RTVSPropertyOp6
 70
     1
102
RTVSPropertyOp7
 70
     1
102
RTVSPropertyOp8
 70
     1
102
RTVSPropertyOp9
 70
     1
102
RTVSPropertyOp10
 70
     1
102
RTVSPropertyOp11
 70
     1
102
RTVSPropertyOp12
 70
     1
102
RTVSPropertyOp13
 70
     1
102
RTVSPropertyOp14
 70
     1
102
RTVSPropertyOp15
 70
     1
102
RTVSPropertyOp16
 70
     1
102
RTVSPropertyOp17
 70
     1
102
RTVSPropertyOp18
 70
     1
102
RTVSPropertyOp19
 70
     1
102
RTVSPropertyOp20
 70
     1
102
RTVSPropertyOp21
 70
     1
102
RTVSPropertyOp22
 70
     1
102
RTVSPropertyOp23
 70
     1
102
RTVSPropertyOp24
 70
     1
102
RTVSPropertyOp25
 70
     1
102
RTVSPropertyOp26
 70
     1
102
RTVSPropertyOp27
 70
     1
102
RTVSPropertyOp28
 70
     1
102
RTVSPropertyOp29
 70
     1
102
RTVSPropertyOp30
 70
     1
102
RTVSPropertyOp31
 70
     1
102
RTVSPropertyOp32
 70
     1
  0
XRECORD
  5
4C0
102
{ACAD_REACTORS
330
4BF
102
}
330
4BF
100
AcDbXrecord
280
     1
102
RTVSPropertyOp0
 70
     1
102
RTVSPropertyOp1
 70
     1
102
RTVSPropertyOp2
 70
     1
102
RTVSPropertyOp3
 70
     1
102
RTVSPropertyOp4
 70
     1
102
RTVSPropertyOp5
 70
     1
102
RTVSPropertyOp6
 70
     1
102
RTVSPropertyOp7
 70
     1
102
RTVSPropertyOp8
 70
     1
102
RTVSPropertyOp9
 70
     1
102
RTVSPropertyOp10
 70
     1
102
RTVSPropertyOp11
 70
     1
102
RTVSPropertyOp12
 70
     1
102
RTVSPropertyOp13
 70
     1
102
RTVSPropertyOp14
 70
     1
102
RTVSPropertyOp15
 70
     1
102
RTVSPropertyOp16
 70
     1
102
RTVSPropertyOp17
 70
     1
102
RTVSPropertyOp18
 70
     1
102
RTVSPropertyOp19
 70
     1
102
RTVSPropertyOp20
 70
     1
102
RTVSPropertyOp21
 70
     1
102
RTVSPropertyOp22
 70
     1
102
RTVSPropertyOp23
 70
     1
102
RTVSPropertyOp24
 70
     1
102
RTVSPropertyOp25
 70
     1
102
RTVSPropertyOp26
 70
     1
102
RTVSPropertyOp27
 70
     1
102
RTVSPropertyOp28
 70
     1
102
RTVSPropertyOp29
 70
     1
102
RTVSPropertyOp30
 70
     1
102
RTVSPropertyOp31
 70
     1
102
RTVSPropertyOp32
 70
     1
  0
XRECORD
  5
4C8
102
{ACAD_REACTORS
330
4C7
102
}
330
4C7
100
AcDbXrecord
280
     1
102
RTVSPropertyOp0
 70
     1
102
RTVSPropertyOp1
 70
     1
102
RTVSPropertyOp2
 70
     1
102
RTVSPropertyOp3
 70
     1
102
RTVSPropertyOp4
 70
     1
102
RTVSPropertyOp5
 70
     1
102
RTVSPropertyOp6
 70
     1
102
RTVSPropertyOp7
 70
     1
102
RTVSPropertyOp8
 70
     1
102
RTVSPropertyOp9
 70
     1
102
RTVSPropertyOp10
 70
     1
102
RTVSPropertyOp11
 70
     1
102
RTVSPropertyOp12
 70
     1
102
RTVSPropertyOp13
 70
     1
102
RTVSPropertyOp14
 70
     1
102
RTVSPropertyOp15
 70
     1
102
RTVSPropertyOp16
 70
     1
102
RTVSPropertyOp17
 70
     1
102
RTVSPropertyOp18
 70
     1
102
RTVSPropertyOp19
 70
     1
102
RTVSPropertyOp20
 70
     1
102
RTVSPropertyOp21
 70
     1
102
RTVSPropertyOp22
 70
     1
102
RTVSPropertyOp23
 70
     1
102
RTVSPropertyOp24
 70
     1
102
RTVSPropertyOp25
 70
     1
102
RTVSPropertyOp26
 70
     1
102
RTVSPropertyOp27
 70
     1
102
RTVSPropertyOp28
 70
     1
102
RTVSPropertyOp29
 70
     1
102
RTVSPropertyOp30
 70
     1
102
RTVSPropertyOp31
 70
     1
102
RTVSPropertyOp32
 70
     1
  0
XRECORD
  5
4D0
102
{ACAD_REACTORS
330
4CF
102
}
330
4CF
100
AcDbXrecord
280
     1
102
RTVSPropertyOp0
 70
     1
102
RTVSPropertyOp1
 70
     1
102
RTVSPropertyOp2
 70
     1
102
RTVSPropertyOp3
 70
     1
102
RTVSPropertyOp4
 70
     1
102
RTVSPropertyOp5
 70
     1
102
RTVSPropertyOp6
 70
     1
102
RTVSPropertyOp7
 70
     1
102
RTVSPropertyOp8
 70
     1
102
RTVSPropertyOp9
 70
     1
102
RTVSPropertyOp10
 70
     1
102
RTVSPropertyOp11
 70
     1
102
RTVSPropertyOp12
 70
     1
102
RTVSPropertyOp13
 70
     1
102
RTVSPropertyOp14
 70
     1
102
RTVSPropertyOp15
 70
     1
102
RTVSPropertyOp16
 70
     1
102
RTVSPropertyOp17
 70
     1
102
RTVSPropertyOp18
 70
     1
102
RTVSPropertyOp19
 70
     1
102
RTVSPropertyOp20
 70
     1
102
RTVSPropertyOp21
 70
     1
102
RTVSPropertyOp22
 70
     1
102
RTVSPropertyOp23
 70
     1
102
RTVSPropertyOp24
 70
     1
102
RTVSPropertyOp25
 70
     1
102
RTVSPropertyOp26
 70
     1
102
RTVSPropertyOp27
 70
     1
102
RTVSPropertyOp28
 70
     1
102
RTVSPropertyOp29
 70
     1
102
RTVSPropertyOp30
 70
     1
102
RTVSPropertyOp31
 70
     1
102
RTVSPropertyOp32
 70
     1
  0
XRECORD
  5
4C4
102
{ACAD_REACTORS
330
4C3
102
}
330
4C3
100
AcDbXrecord
280
     1
102
RTVSPropertyOp0
 70
     1
102
RTVSPropertyOp1
 70
     1
102
RTVSPropertyOp2
 70
     1
102
RTVSPropertyOp3
 70
     1
102
RTVSPropertyOp4
 70
     1
102
RTVSPropertyOp5
 70
     1
102
RTVSPropertyOp6
 70
     1
102
RTVSPropertyOp7
 70
     1
102
RTVSPropertyOp8
 70
     1
102
RTVSPropertyOp9
 70
     1
102
RTVSPropertyOp10
 70
     1
102
RTVSPropertyOp11
 70
     1
102
RTVSPropertyOp12
 70
     1
102
RTVSPropertyOp13
 70
     1
102
RTVSPropertyOp14
 70
     1
102
RTVSPropertyOp15
 70
     1
102
RTVSPropertyOp16
 70
     1
102
RTVSPropertyOp17
 70
     1
102
RTVSPropertyOp18
 70
     1
102
RTVSPropertyOp19
 70
     1
102
RTVSPropertyOp20
 70
     1
102
RTVSPropertyOp21
 70
     1
102
RTVSPropertyOp22
 70
     1
102
RTVSPropertyOp23
 70
     1
102
RTVSPropertyOp24
 70
     1
102
RTVSPropertyOp25
 70
     1
102
RTVSPropertyOp26
 70
     1
102
RTVSPropertyOp27
 70
     1
102
RTVSPropertyOp28
 70
     1
102
RTVSPropertyOp29
 70
     1
102
RTVSPropertyOp30
 70
     1
102
RTVSPropertyOp31
 70
     1
102
RTVSPropertyOp32
 70
     1
  0
XRECORD
  5
4C6
102
{ACAD_REACTORS
330
4C5
102
}
330
4C5
100
AcDbXrecord
280
     1
102
RTVSPropertyOp0
 70
     1
102
RTVSPropertyOp1
 70
     1
102
RTVSPropertyOp2
 70
     1
102
RTVSPropertyOp3
 70
     1
102
RTVSPropertyOp4
 70
     1
102
RTVSPropertyOp5
 70
     1
102
RTVSPropertyOp6
 70
     1
102
RTVSPropertyOp7
 70
     1
102
RTVSPropertyOp8
 70
     1
102
RTVSPropertyOp9
 70
     1
102
RTVSPropertyOp10
 70
     1
102
RTVSPropertyOp11
 70
     1
102
RTVSPropertyOp12
 70
     1
102
RTVSPropertyOp13
 70
     1
102
RTVSPropertyOp14
 70
     1
102
RTVSPropertyOp15
 70
     1
102
RTVSPropertyOp16
 70
     1
102
RTVSPropertyOp17
 70
     1
102
RTVSPropertyOp18
 70
     1
102
RTVSPropertyOp19
 70
     1
102
RTVSPropertyOp20
 70
     1
102
RTVSPropertyOp21
 70
     1
102
RTVSPropertyOp22
 70
     1
102
RTVSPropertyOp23
 70
     1
102
RTVSPropertyOp24
 70
     1
102
RTVSPropertyOp25
 70
     1
102
RTVSPropertyOp26
 70
     1
102
RTVSPropertyOp27
 70
     1
102
RTVSPropertyOp28
 70
     1
102
RTVSPropertyOp29
 70
     1
102
RTVSPropertyOp30
 70
     1
102
RTVSPropertyOp31
 70
     1
102
RTVSPropertyOp32
 70
     1
  0
XRECORD
  5
4CE
102
{ACAD_REACTORS
330
4CD
102
}
330
4CD
100
AcDbXrecord
280
     1
102
RTVSPropertyOp0
 70
     1
102
RTVSPropertyOp1
 70
     1
102
RTVSPropertyOp2
 70
     1
102
RTVSPropertyOp3
 70
     1
102
RTVSPropertyOp4
 70
     1
102
RTVSPropertyOp5
 70
     1
102
RTVSPropertyOp6
 70
     1
102
RTVSPropertyOp7
 70
     1
102
RTVSPropertyOp8
 70
     1
102
RTVSPropertyOp9
 70
     1
102
RTVSPropertyOp10
 70
     1
102
RTVSPropertyOp11
 70
     1
102
RTVSPropertyOp12
 70
     1
102
RTVSPropertyOp13
 70
     1
102
RTVSPropertyOp14
 70
     1
102
RTVSPropertyOp15
 70
     1
102
RTVSPropertyOp16
 70
     1
102
RTVSPropertyOp17
 70
     1
102
RTVSPropertyOp18
 70
     1
102
RTVSPropertyOp19
 70
     1
102
RTVSPropertyOp20
 70
     1
102
RTVSPropertyOp21
 70
     1
102
RTVSPropertyOp22
 70
     1
102
RTVSPropertyOp23
 70
     1
102
RTVSPropertyOp24
 70
     1
102
RTVSPropertyOp25
 70
     1
102
RTVSPropertyOp26
 70
     1
102
RTVSPropertyOp27
 70
     1
102
RTVSPropertyOp28
 70
     1
102
RTVSPropertyOp29
 70
     1
102
RTVSPropertyOp30
 70
     1
102
RTVSPropertyOp31
 70
     1
102
RTVSPropertyOp32
 70
     1
  0
XRECORD
  5
4B2
102
{ACAD_REACTORS
330
4B1
102
}
330
4B1
100
AcDbXrecord
280
     1
102
RTVSPropertyOp0
 70
     1
102
RTVSPropertyOp1
 70
     1
102
RTVSPropertyOp2
 70
     1
102
RTVSPropertyOp3
 70
     1
102
RTVSPropertyOp4
 70
     1
102
RTVSPropertyOp5
 70
     1
102
RTVSPropertyOp6
 70
     1
102
RTVSPropertyOp7
 70
     1
102
RTVSPropertyOp8
 70
     1
102
RTVSPropertyOp9
 70
     1
102
RTVSPropertyOp10
 70
     1
102
RTVSPropertyOp11
 70
     1
102
RTVSPropertyOp12
 70
     1
102
RTVSPropertyOp13
 70
     1
102
RTVSPropertyOp14
 70
     1
102
RTVSPropertyOp15
 70
     1
102
RTVSPropertyOp16
 70
     1
102
RTVSPropertyOp17
 70
     1
102
RTVSPropertyOp18
 70
     1
102
RTVSPropertyOp19
 70
     1
102
RTVSPropertyOp20
 70
     1
102
RTVSPropertyOp21
 70
     1
102
RTVSPropertyOp22
 70
     1
102
RTVSPropertyOp23
 70
     1
102
RTVSPropertyOp24
 70
     1
102
RTVSPropertyOp25
 70
     1
102
RTVSPropertyOp26
 70
     1
102
RTVSPropertyOp27
 70
     1
102
RTVSPropertyOp28
 70
     1
102
RTVSPropertyOp29
 70
     1
102
RTVSPropertyOp30
 70
     1
102
RTVSPropertyOp31
 70
     1
102
RTVSPropertyOp32
 70
     1
  0
XRECORD
  5
4B4
102
{ACAD_REACTORS
330
4B3
102
}
330
4B3
100
AcDbXrecord
280
     1
102
RTVSPropertyOp0
 70
     1
102
RTVSPropertyOp1
 70
     1
102
RTVSPropertyOp2
 70
     1
102
RTVSPropertyOp3
 70
     1
102
RTVSPropertyOp4
 70
     1
102
RTVSPropertyOp5
 70
     1
102
RTVSPropertyOp6
 70
     1
102
RTVSPropertyOp7
 70
     1
102
RTVSPropertyOp8
 70
     1
102
RTVSPropertyOp9
 70
     1
102
RTVSPropertyOp10
 70
     1
102
RTVSPropertyOp11
 70
     1
102
RTVSPropertyOp12
 70
     1
102
RTVSPropertyOp13
 70
     1
102
RTVSPropertyOp14
 70
     1
102
RTVSPropertyOp15
 70
     1
102
RTVSPropertyOp16
 70
     1
102
RTVSPropertyOp17
 70
     1
102
RTVSPropertyOp18
 70
     1
102
RTVSPropertyOp19
 70
     1
102
RTVSPropertyOp20
 70
     1
102
RTVSPropertyOp21
 70
     1
102
RTVSPropertyOp22
 70
     1
102
RTVSPropertyOp23
 70
     1
102
RTVSPropertyOp24
 70
     1
102
RTVSPropertyOp25
 70
     1
102
RTVSPropertyOp26
 70
     1
102
RTVSPropertyOp27
 70
     1
102
RTVSPropertyOp28
 70
     1
102
RTVSPropertyOp29
 70
     1
102
RTVSPropertyOp30
 70
     1
102
RTVSPropertyOp31
 70
     1
102
RTVSPropertyOp32
 70
     1
  0
XRECORD
  5
4B6
102
{ACAD_REACTORS
330
4B5
102
}
330
4B5
100
AcDbXrecord
280
     1
102
RTVSPropertyOp0
 70
     1
102
RTVSPropertyOp1
 70
     1
102
RTVSPropertyOp2
 70
     1
102
RTVSPropertyOp3
 70
     1
102
RTVSPropertyOp4
 70
     1
102
RTVSPropertyOp5
 70
     1
102
RTVSPropertyOp6
 70
     1
102
RTVSPropertyOp7
 70
     1
102
RTVSPropertyOp8
 70
     1
102
RTVSPropertyOp9
 70
     1
102
RTVSPropertyOp10
 70
     1
102
RTVSPropertyOp11
 70
     1
102
RTVSPropertyOp12
 70
     1
102
RTVSPropertyOp13
 70
     1
102
RTVSPropertyOp14
 70
     1
102
RTVSPropertyOp15
 70
     1
102
RTVSPropertyOp16
 70
     1
102
RTVSPropertyOp17
 70
     1
102
RTVSPropertyOp18
 70
     1
102
RTVSPropertyOp19
 70
     1
102
RTVSPropertyOp20
 70
     1
102
RTVSPropertyOp21
 70
     1
102
RTVSPropertyOp22
 70
     1
102
RTVSPropertyOp23
 70
     1
102
RTVSPropertyOp24
 70
     1
102
RTVSPropertyOp25
 70
     1
102
RTVSPropertyOp26
 70
     1
102
RTVSPropertyOp27
 70
     1
102
RTVSPropertyOp28
 70
     1
102
RTVSPropertyOp29
 70
     1
102
RTVSPropertyOp30
 70
     1
102
RTVSPropertyOp31
 70
     1
102
RTVSPropertyOp32
 70
     1
  0
XRECORD
  5
4B8
102
{ACAD_REACTORS
330
4B7
102
}
330
4B7
100
AcDbXrecord
280
     1
102
RTVSPropertyOp0
 70
     1
102
RTVSPropertyOp1
 70
     1
102
RTVSPropertyOp2
 70
     1
102
RTVSPropertyOp3
 70
     1
102
RTVSPropertyOp4
 70
     1
102
RTVSPropertyOp5
 70
     1
102
RTVSPropertyOp6
 70
     1
102
RTVSPropertyOp7
 70
     1
102
RTVSPropertyOp8
 70
     1
102
RTVSPropertyOp9
 70
     1
102
RTVSPropertyOp10
 70
     1
102
RTVSPropertyOp11
 70
     1
102
RTVSPropertyOp12
 70
     1
102
RTVSPropertyOp13
 70
     1
102
RTVSPropertyOp14
 70
     1
102
RTVSPropertyOp15
 70
     1
102
RTVSPropertyOp16
 70
     1
102
RTVSPropertyOp17
 70
     1
102
RTVSPropertyOp18
 70
     1
102
RTVSPropertyOp19
 70
     1
102
RTVSPropertyOp20
 70
     1
102
RTVSPropertyOp21
 70
     1
102
RTVSPropertyOp22
 70
     1
102
RTVSPropertyOp23
 70
     1
102
RTVSPropertyOp24
 70
     1
102
RTVSPropertyOp25
 70
     1
102
RTVSPropertyOp26
 70
     1
102
RTVSPropertyOp27
 70
     1
102
RTVSPropertyOp28
 70
     1
102
RTVSPropertyOp29
 70
     1
102
RTVSPropertyOp30
 70
     1
102
RTVSPropertyOp31
 70
     1
102
RTVSPropertyOp32
 70
     1
  0
XRECORD
  5
4CC
102
{ACAD_REACTORS
330
4CB
102
}
330
4CB
100
AcDbXrecord
280
     1
102
RTVSPropertyOp0
 70
     1
102
RTVSPropertyOp1
 70
     1
102
RTVSPropertyOp2
 70
     1
102
RTVSPropertyOp3
 70
     1
102
RTVSPropertyOp4
 70
     1
102
RTVSPropertyOp5
 70
     1
102
RTVSPropertyOp6
 70
     1
102
RTVSPropertyOp7
 70
     1
102
RTVSPropertyOp8
 70
     1
102
RTVSPropertyOp9
 70
     1
102
RTVSPropertyOp10
 70
     1
102
RTVSPropertyOp11
 70
     1
102
RTVSPropertyOp12
 70
     1
102
RTVSPropertyOp13
 70
     1
102
RTVSPropertyOp14
 70
     1
102
RTVSPropertyOp15
 70
     1
102
RTVSPropertyOp16
 70
     1
102
RTVSPropertyOp17
 70
     1
102
RTVSPropertyOp18
 70
     1
102
RTVSPropertyOp19
 70
     1
102
RTVSPropertyOp20
 70
     1
102
RTVSPropertyOp21
 70
     1
102
RTVSPropertyOp22
 70
     1
102
RTVSPropertyOp23
 70
     1
102
RTVSPropertyOp24
 70
     1
102
RTVSPropertyOp25
 70
     1
102
RTVSPropertyOp26
 70
     1
102
RTVSPropertyOp27
 70
     1
102
RTVSPropertyOp28
 70
     1
102
RTVSPropertyOp29
 70
     1
102
RTVSPropertyOp30
 70
     1
102
RTVSPropertyOp31
 70
     1
102
RTVSPropertyOp32
 70
     1
  0
XRECORD
  5
4C2
102
{ACAD_REACTORS
330
4C1
102
}
330
4C1
100
AcDbXrecord
280
     1
102
RTVSPropertyOp0
 70
     1
102
RTVSPropertyOp1
 70
     1
102
RTVSPropertyOp2
 70
     1
102
RTVSPropertyOp3
 70
     1
102
RTVSPropertyOp4
 70
     1
102
RTVSPropertyOp5
 70
     1
102
RTVSPropertyOp6
 70
     1
102
RTVSPropertyOp7
 70
     1
102
RTVSPropertyOp8
 70
     1
102
RTVSPropertyOp9
 70
     1
102
RTVSPropertyOp10
 70
     1
102
RTVSPropertyOp11
 70
     1
102
RTVSPropertyOp12
 70
     1
102
RTVSPropertyOp13
 70
     1
102
RTVSPropertyOp14
 70
     1
102
RTVSPropertyOp15
 70
     1
102
RTVSPropertyOp16
 70
     1
102
RTVSPropertyOp17
 70
     1
102
RTVSPropertyOp18
 70
     1
102
RTVSPropertyOp19
 70
     1
102
RTVSPropertyOp20
 70
     1
102
RTVSPropertyOp21
 70
     1
102
RTVSPropertyOp22
 70
     1
102
RTVSPropertyOp23
 70
     1
102
RTVSPropertyOp24
 70
     1
102
RTVSPropertyOp25
 70
     1
102
RTVSPropertyOp26
 70
     1
102
RTVSPropertyOp27
 70
     1
102
RTVSPropertyOp28
 70
     1
102
RTVSPropertyOp29
 70
     1
102
RTVSPropertyOp30
 70
     1
102
RTVSPropertyOp31
 70
     1
102
RTVSPropertyOp32
 70
     1
  0
XRECORD
  5
4CA
102
{ACAD_REACTORS
330
4C9
102
}
330
4C9
100
AcDbXrecord
280
     1
102
RTVSPropertyOp0
 70
     1
102
RTVSPropertyOp1
 70
     1
102
RTVSPropertyOp2
 70
     1
102
RTVSPropertyOp3
 70
     1
102
RTVSPropertyOp4
 70
     1
102
RTVSPropertyOp5
 70
     1
102
RTVSPropertyOp6
 70
     1
102
RTVSPropertyOp7
 70
     1
102
RTVSPropertyOp8
 70
     1
102
RTVSPropertyOp9
 70
     1
102
RTVSPropertyOp10
 70
     1
102
RTVSPropertyOp11
 70
     1
102
RTVSPropertyOp12
 70
     1
102
RTVSPropertyOp13
 70
     1
102
RTVSPropertyOp14
 70
     1
102
RTVSPropertyOp15
 70
     1
102
RTVSPropertyOp16
 70
     1
102
RTVSPropertyOp17
 70
     1
102
RTVSPropertyOp18
 70
     1
102
RTVSPropertyOp19
 70
     1
102
RTVSPropertyOp20
 70
     1
102
RTVSPropertyOp21
 70
     1
102
RTVSPropertyOp22
 70
     1
102
RTVSPropertyOp23
 70
     1
102
RTVSPropertyOp24
 70
     1
102
RTVSPropertyOp25
 70
     1
102
RTVSPropertyOp26
 70
     1
102
RTVSPropertyOp27
 70
     1
102
RTVSPropertyOp28
 70
     1
102
RTVSPropertyOp29
 70
     1
102
RTVSPropertyOp30
 70
     1
102
RTVSPropertyOp31
 70
     1
102
RTVSPropertyOp32
 70
     1
  0
ENDSEC
  0
EOF
