  0
SECTION
  2
HEADER
  9
$ACADVER
  1
AC1018
  9
$ACADMAINTVER
 70
     0
  9
$DWGCODEPAGE
  3
ANSI_932
  9
$INSBASE
 10
0.0
 20
0.0
 30
0.0
  9
$EXTMIN
 10
-105.0
 20
-148.5
 30
0.0
  9
$EXTMAX
 10
105.0
 20
148.5
 30
0.0
  9
$LIMMIN
 10
-105.0
 20
-148.5
  9
$LIMMAX
 10
105.0
 20
148.5
  9
$ORTHOMODE
 70
     0
  9
$REGENMODE
 70
     1
  9
$FILLMODE
 70
     1
  9
$QTEXTMODE
 70
     0
  9
$MIRRTEXT
 70
     1
  9
$LTSCALE
 40
1.0
  9
$ATTMODE
 70
     1
  9
$TEXTSIZE
 40
2.5
  9
$TRACEWID
 40
1.0
  9
$TEXTSTYLE
  7
Standard
  9
$CLAYER
  8
0
  9
$CELTYPE
  6
ByLayer
  9
$CECOLOR
 62
   256
  9
$CELTSCALE
 40
1.0
  9
$DISPSILH
 70
     0
  9
$DIMSCALE
 40
1.0
  9
$DIMASZ
 40
2.5
  9
$DIMEXO
 40
0.625
  9
$DIMDLI
 40
3.75
  9
$DIMRND
 40
0.0
  9
$DIMDLE
 40
0.0
  9
$DIMEXE
 40
1.25
  9
$DIMTP
 40
0.0
  9
$DIMTM
 40
0.0
  9
$DIMTXT
 40
2.5
  9
$DIMCEN
 40
2.5
  9
$DIMTSZ
 40
0.0
  9
$DIMTOL
 70
     0
  9
$DIMLIM
 70
     0
  9
$DIMTIH
 70
     0
  9
$DIMTOH
 70
     0
  9
$DIMSE1
 70
     0
  9
$DIMSE2
 70
     0
  9
$DIMTAD
 70
     1
  9
$DIMZIN
 70
     8
  9
$DIMBLK
  1

  9
$DIMASO
 70
     1
  9
$DIMSHO
 70
     1
  9
$DIMPOST
  1

  9
$DIMAPOST
  1

  9
$DIMALT
 70
     0
  9
$DIMALTD
 70
     3
  9
$DIMALTF
 40
0.03937007874016
  9
$DIMLFAC
 40
1.0
  9
$DIMTOFL
 70
     1
  9
$DIMTVP
 40
0.0
  9
$DIMTIX
 70
     0
  9
$DIMSOXD
 70
     0
  9
$DIMSAH
 70
     0
  9
$DIMBLK1
  1

  9
$DIMBLK2
  1

  9
$DIMSTYLE
  2
ISO-25
  9
$DIMCLRD
 70
     0
  9
$DIMCLRE
 70
     0
  9
$DIMCLRT
 70
     0
  9
$DIMTFAC
 40
1.0
  9
$DIMGAP
 40
0.625
  9
$DIMJUST
 70
     0
  9
$DIMSD1
 70
     0
  9
$DIMSD2
 70
     0
  9
$DIMTOLJ
 70
     0
  9
$DIMTZIN
 70
     8
  9
$DIMALTZ
 70
     0
  9
$DIMALTTZ
 70
     0
  9
$DIMUPT
 70
     0
  9
$DIMDEC
 70
     2
  9
$DIMTDEC
 70
     2
  9
$DIMALTU
 70
     2
  9
$DIMALTTD
 70
     3
  9
$DIMTXSTY
  7
Standard
  9
$DIMAUNIT
 70
     0
  9
$DIMADEC
 70
     0
  9
$DIMALTRND
 40
0.0
  9
$DIMAZIN
 70
     0
  9
$DIMDSEP
 70
    44
  9
$DIMATFIT
 70
     3
  9
$DIMFRAC
 70
     0
  9
$DIMLDRBLK
  1

  9
$DIMLUNIT
 70
     2
  9
$DIMLWD
 70
    -2
  9
$DIMLWE
 70
    -2
  9
$DIMTMOVE
 70
     0
  9
$LUNITS
 70
     2
  9
$LUPREC
 70
     4
  9
$SKETCHINC
 40
1.0
  9
$FILLETRAD
 40
10.0
  9
$AUNITS
 70
     0
  9
$AUPREC
 70
     0
  9
$MENU
  1
.
  9
$ELEVATION
 40
0.0
  9
$PELEVATION
 40
0.0
  9
$THICKNESS
 40
0.0
  9
$LIMCHECK
 70
     0
  9
$CHAMFERA
 40
10.0
  9
$CHAMFERB
 40
10.0
  9
$CHAMFERC
 40
20.0
  9
$CHAMFERD
 40
0.0
  9
$SKPOLY
 70
     0
  9
$TDCREATE
 40
2457284.828275556
  9
$TDUCREATE
 40
2457284.453275556
  9
$TDUPDATE
 40
2457284.828275914
  9
$TDUUPDATE
 40
2457284.453275914
  9
$TDINDWG
 40
0.0000000116
  9
$TDUSRTIMER
 40
0.0000000116
  9
$USRTIMER
 70
     1
  9
$ANGBASE
 50
0.0
  9
$ANGDIR
 70
     0
  9
$PDMODE
 70
     0
  9
$PDSIZE
 40
0.0
  9
$PLINEWID
 40
0.0
  9
$SPLFRAME
 70
     0
  9
$SPLINETYPE
 70
     6
  9
$SPLINESEGS
 70
     8
  9
$HANDSEED
  5
2FE
  9
$SURFTAB1
 70
     6
  9
$SURFTAB2
 70
     6
  9
$SURFTYPE
 70
     6
  9
$SURFU
 70
     6
  9
$SURFV
 70
     6
  9
$UCSBASE
  2

  9
$UCSNAME
  2

  9
$UCSORG
 10
0.0
 20
0.0
 30
0.0
  9
$UCSXDIR
 10
1.0
 20
0.0
 30
0.0
  9
$UCSYDIR
 10
0.0
 20
1.0
 30
0.0
  9
$UCSORTHOREF
  2

  9
$UCSORTHOVIEW
 70
     0
  9
$UCSORGTOP
 10
0.0
 20
0.0
 30
0.0
  9
$UCSORGBOTTOM
 10
0.0
 20
0.0
 30
0.0
  9
$UCSORGLEFT
 10
0.0
 20
0.0
 30
0.0
  9
$UCSORGRIGHT
 10
0.0
 20
0.0
 30
0.0
  9
$UCSORGFRONT
 10
0.0
 20
0.0
 30
0.0
  9
$UCSORGBACK
 10
0.0
 20
0.0
 30
0.0
  9
$PUCSBASE
  2

  9
$PUCSNAME
  2

  9
$PUCSORG
 10
0.0
 20
0.0
 30
0.0
  9
$PUCSXDIR
 10
1.0
 20
0.0
 30
0.0
  9
$PUCSYDIR
 10
0.0
 20
1.0
 30
0.0
  9
$PUCSORTHOREF
  2

  9
$PUCSORTHOVIEW
 70
     0
  9
$PUCSORGTOP
 10
0.0
 20
0.0
 30
0.0
  9
$PUCSORGBOTTOM
 10
0.0
 20
0.0
 30
0.0
  9
$PUCSORGLEFT
 10
0.0
 20
0.0
 30
0.0
  9
$PUCSORGRIGHT
 10
0.0
 20
0.0
 30
0.0
  9
$PUCSORGFRONT
 10
0.0
 20
0.0
 30
0.0
  9
$PUCSORGBACK
 10
0.0
 20
0.0
 30
0.0
  9
$USERI1
 70
     0
  9
$USERI2
 70
     0
  9
$USERI3
 70
     0
  9
$USERI4
 70
     0
  9
$USERI5
 70
     0
  9
$USERR1
 40
0.0
  9
$USERR2
 40
0.0
  9
$USERR3
 40
0.0
  9
$USERR4
 40
0.0
  9
$USERR5
 40
0.0
  9
$WORLDVIEW
 70
     1
  9
$SHADEDGE
 70
     3
  9
$SHADEDIF
 70
    70
  9
$TILEMODE
 70
     1
  9
$MAXACTVP
 70
    64
  9
$PINSBASE
 10
0.0
 20
0.0
 30
0.0
  9
$PLIMCHECK
 70
     0
  9
$PEXTMIN
 10
1.000000000000000E+20
 20
1.000000000000000E+20
 30
1.000000000000000E+20
  9
$PEXTMAX
 10
-1.000000000000000E+20
 20
-1.000000000000000E+20
 30
-1.000000000000000E+20
  9
$PLIMMIN
 10
-105.0
 20
-148.5
  9
$PLIMMAX
 10
105.0
 20
148.5
  9
$UNITMODE
 70
     0
  9
$VISRETAIN
 70
     1
  9
$PLINEGEN
 70
     0
  9
$PSLTSCALE
 70
     1
  9
$TREEDEPTH
 70
  3020
  9
$CMLSTYLE
  2
Standard
  9
$CMLJUST
 70
     0
  9
$CMLSCALE
 40
20.0
  9
$PROXYGRAPHICS
 70
     1
  9
$MEASUREMENT
 70
     1
  9
$CELWEIGHT
370
    -1
  9
$ENDCAPS
280
     0
  9
$JOINSTYLE
280
     0
  9
$LWDISPLAY
290
     0
  9
$INSUNITS
 70
     4
  9
$HYPERLINKBASE
  1

  9
$STYLESHEET
  1

  9
$XEDIT
290
     1
  9
$CEPSNTYPE
380
     0
  9
$PSTYLEMODE
290
     1
  9
$FINGERPRINTGUID
  2
{829F8C90-32B5-4007-97BA-6DBDDD90B583}
  9
$VERSIONGUID
  2
{FAEB1C32-E019-11D5-929B-00C0DF256EC4}
  9
$EXTNAMES
290
     1
  9
$PSVPSCALE
 40
0.0
  9
$OLESTARTUP
290
     0
  9
$SORTENTS
280
   127
  9
$INDEXCTL
280
     0
  9
$HIDETEXT
280
     1
  9
$XCLIPFRAME
290
     0
  9
$HALOGAP
280
     0
  9
$OBSCOLOR
 70
   257
  9
$OBSLTYPE
280
     0
  9
$INTERSECTIONDISPLAY
280
     0
  9
$INTERSECTIONCOLOR
 70
   257
  9
$DIMASSOC
280
     2
  9
$PROJECTNAME
  1

  0
ENDSEC
  0
SECTION
  2
CLASSES
  0
CLASS
  1
ACDBDICTIONARYWDFLT
  2
AcDbDictionaryWithDefault
  3
ObjectDBX Classes
 90
        0
 91
        4
280
     0
281
     0
  0
CLASS
  1
VISUALSTYLE
  2
AcDbVisualStyle
  3
ObjectDBX Classes
 90
     4095
 91
        4
280
     0
281
     0
  0
CLASS
  1
MATERIAL
  2
AcDbMaterial
  3
ObjectDBX Classes
 90
     1153
 91
        4
280
     0
281
     0
  0
CLASS
  1
SUN
  2
AcDbSun
  3
SCENEOE
 90
     1024
 91
        4
280
     0
281
     0
  0
ENDSEC
  0
SECTION
  2
TABLES
  0
TABLE
  2
VPORT
  5
8
330
0
100
AcDbSymbolTable
 70
     1
  0
VPORT
  5
29
330
8
100
AcDbSymbolTableRecord
100
AcDbViewportTableRecord
  2
*Active
 70
     0
 10
0.0
 20
0.0
 11
1.0
 21
1.0
 12
344.1869158878504
 22
148.5
 13
0.0
 23
0.0
 14
10.0
 24
10.0
 15
10.0
 25
10.0
 16
0.0
 26
0.0
 36
1.0
 17
0.0
 27
0.0
 37
0.0
 40
297.0
 41
1.972972972850329
 42
50.0
 43
0.0
 44
0.0
 50
0.0
 51
0.0
 71
     0
 72
   100
 73
     1
 74
     3
 75
     0
 76
     0
 77
     0
 78
     0
281
     0
 65
     1
110
0.0
120
0.0
130
0.0
111
1.0
121
0.0
131
0.0
112
0.0
122
1.0
132
0.0
 79
     0
146
0.0
  0
ENDTAB
  0
TABLE
  2
LTYPE
  5
5
330
0
100
AcDbSymbolTable
 70
     5
  0
LTYPE
  5
14
330
5
100
AcDbSymbolTableRecord
100
AcDbLinetypeTableRecord
  2
ByBlock
 70
     0
  3

 72
    65
 73
     0
 40
0.0
  0
LTYPE
  5
15
330
5
100
AcDbSymbolTableRecord
100
AcDbLinetypeTableRecord
  2
ByLayer
 70
     0
  3

 72
    65
 73
     0
 40
0.0
  0
LTYPE
  5
16
330
5
100
AcDbSymbolTableRecord
100
AcDbLinetypeTableRecord
  2
Continuous
 70
     0
  3
Solid line
 72
    65
 73
     0
 40
0.0
  0
LTYPE
  5
40
330
5
100
AcDbSymbolTableRecord
100
AcDbLinetypeTableRecord
  2
CONTINOUS
 70
     0
  3
______________________________
 72
    65
 73
     0
 40
0.0
  0
LTYPE
  5
41
330
5
100
AcDbSymbolTableRecord
100
AcDbLinetypeTableRecord
  2
DASHED
 70
     0
  3
__ __ __ __ __ __ __ __ __ __ __ __ __ __ __ __
 72
    65
 73
     2
 40
4.5
 49
3.0
 74
     0
 49
-1.5
 74
     0
  0
LTYPE
  5
42
330
5
100
AcDbSymbolTableRecord
100
AcDbLinetypeTableRecord
  2
PHANTOM
 70
     0
  3
______  __  __  ______  __  __  _____
 72
    65
 73
     6
 40
15.0
 49
7.5
 74
     0
 49
-1.5
 74
     0
 49
1.5
 74
     0
 49
-1.5
 74
     0
 49
1.5
 74
     0
 49
-1.5
 74
     0
  0
LTYPE
  5
43
330
5
100
AcDbSymbolTableRecord
100
AcDbLinetypeTableRecord
  2
CENTER
 70
     0
  3
____ _ ____ _ ____ _ ____ _ ____ _ ____
 72
    65
 73
     4
 40
12.0
 49
7.5
 74
     0
 49
-1.5
 74
     0
 49
1.5
 74
     0
 49
-1.5
 74
     0
  0
ENDTAB
  0
TABLE
  2
LAYER
  5
2
330
0
100
AcDbSymbolTable
 70
     3
  0
LAYER
  5
10
330
2
100
AcDbSymbolTableRecord
100
AcDbLayerTableRecord
  2
0
 70
     0
 62
     7
  6
Continuous
370
    -3
390
F
  0
LAYER
  5
143
330
2
100
AcDbSymbolTableRecord
100
AcDbLayerTableRecord
  2
Defpoints
 70
     0
 62
     7
  6
Continuous
290
     0
370
    -3
390
F
  0
LAYER
  5
2BE
330
2
100
AcDbSymbolTableRecord
100
AcDbLayerTableRecord
  2
VIEW0001
 70
     0
 62
     7
  6
Continuous
370
    -3
390
F
  0
ENDTAB
  0
TABLE
  2
STYLE
  5
3
330
0
100
AcDbSymbolTable
 70
     1
  0
STYLE
  5
11
330
3
100
AcDbSymbolTableRecord
100
AcDbTextStyleTableRecord
  2
Standard
 70
     0
 40
0.0
 41
1.0
 50
0.0
 71
     0
 42
2.5
  3
ROMANS
  4
BIGFONT
  0
ENDTAB
  0
TABLE
  2
VIEW
  5
6
330
0
100
AcDbSymbolTable
 70
     0
  0
ENDTAB
  0
TABLE
  2
UCS
  5
7
330
0
100
AcDbSymbolTable
 70
     0
  0
ENDTAB
  0
TABLE
  2
APPID
  5
9
330
0
100
AcDbSymbolTable
 70
     1
  0
APPID
  5
12
330
9
100
AcDbSymbolTableRecord
100
AcDbRegAppTableRecord
  2
ACAD
 70
     0
  0
ENDTAB
  0
TABLE
  2
DIMSTYLE
  5
A
330
0
100
AcDbSymbolTable
 70
     1
100
AcDbDimStyleTable
  0
DIMSTYLE
105
27
102
{ACAD_REACTORS
330
13C
330
151
330
15E
330
16B
330
27D
330
28A
330
297
330
2A4
330
2B1
102
}
330
A
100
AcDbSymbolTableRecord
100
AcDbDimStyleTableRecord
  2
ISO-25
 70
     0
 41
2.5
 42
0.625
 43
3.75
 44
1.25
 73
     0
 74
     0
 77
     1
 78
     8
140
2.5
141
2.5
143
0.03937007874016
147
0.625
171
     3
172
     1
178
     0
271
     2
272
     2
274
     3
278
    44
283
     0
284
     8
340
11
  0
ENDTAB
  0
TABLE
  2
BLOCK_RECORD
  5
1
330
0
100
AcDbSymbolTable
 70
    13
  0
BLOCK_RECORD
  5
1F
330
1
100
AcDbSymbolTableRecord
100
AcDbBlockTableRecord
  2
*Model_Space
340
22
  0
BLOCK_RECORD
  5
1B
330
1
100
AcDbSymbolTableRecord
100
AcDbBlockTableRecord
  2
*Paper_Space
340
1E
  0
BLOCK_RECORD
  5
23
330
1
100
AcDbSymbolTableRecord
100
AcDbBlockTableRecord
  2
*Paper_Space0
340
26
  0
BLOCK_RECORD
  5
44
330
1
100
AcDbSymbolTableRecord
100
AcDbBlockTableRecord
  2
DTL0001
340
0
  0
BLOCK_RECORD
  5
47
330
1
100
AcDbSymbolTableRecord
100
AcDbBlockTableRecord
  2
DTL0002
340
0
  0
BLOCK_RECORD
  5
13D
330
1
100
AcDbSymbolTableRecord
100
AcDbBlockTableRecord
  2
_OPEN30
340
0
102
{BLKREFS
331
14B
331
14A
331
159
331
158
331
166
331
165
331
173
331
172
331
285
331
284
331
292
331
291
331
29F
331
29E
331
2AC
331
2AB
331
2B9
331
2B8
102
}
  0
BLOCK_RECORD
  5
144
330
1
100
AcDbSymbolTableRecord
100
AcDbBlockTableRecord
  2
*D4
340
0
  0
BLOCK_RECORD
  5
152
330
1
100
AcDbSymbolTableRecord
100
AcDbBlockTableRecord
  2
*D5
340
0
  0
BLOCK_RECORD
  5
15F
330
1
100
AcDbSymbolTableRecord
100
AcDbBlockTableRecord
  2
*D6
340
0
  0
BLOCK_RECORD
  5
16C
330
1
100
AcDbSymbolTableRecord
100
AcDbBlockTableRecord
  2
*D7
340
0
  0
BLOCK_RECORD
  5
27E
330
1
100
AcDbSymbolTableRecord
100
AcDbBlockTableRecord
  2
*D8
340
0
  0
BLOCK_RECORD
  5
28B
330
1
100
AcDbSymbolTableRecord
100
AcDbBlockTableRecord
  2
*D9
340
0
  0
BLOCK_RECORD
  5
298
330
1
100
AcDbSymbolTableRecord
100
AcDbBlockTableRecord
  2
*D10
340
0
  0
BLOCK_RECORD
  5
2A5
330
1
100
AcDbSymbolTableRecord
100
AcDbBlockTableRecord
  2
*D11
340
0
  0
BLOCK_RECORD
  5
2B2
330
1
100
AcDbSymbolTableRecord
100
AcDbBlockTableRecord
  2
*D12
340
0
  0
ENDTAB
  0
ENDSEC
  0
SECTION
  2
BLOCKS
  0
BLOCK
  5
20
330
1F
100
AcDbEntity
  8
0
100
AcDbBlockBegin
  2
*Model_Space
 70
     0
 10
0.0
 20
0.0
 30
0.0
  3
*Model_Space
  1

  0
ENDBLK
  5
21
330
1F
100
AcDbEntity
  8
0
100
AcDbBlockEnd
  0
BLOCK
  5
1C
330
1B
100
AcDbEntity
 67
     1
  8
0
100
AcDbBlockBegin
  2
*Paper_Space
 70
     0
 10
0.0
 20
0.0
 30
0.0
  3
*Paper_Space
  1

  0
ENDBLK
  5
1D
330
1B
100
AcDbEntity
 67
     1
  8
0
100
AcDbBlockEnd
  0
BLOCK
  5
24
330
23
100
AcDbEntity
  8
0
100
AcDbBlockBegin
  2
*Paper_Space0
 70
     0
 10
0.0
 20
0.0
 30
0.0
  3
*Paper_Space0
  1

  0
ENDBLK
  5
25
330
23
100
AcDbEntity
  8
0
100
AcDbBlockEnd
  0
BLOCK
  5
45
330
44
100
AcDbEntity
  8
0
100
AcDbBlockBegin
  2
DTL0001
 70
     0
 10
0.0
 20
0.0
 30
0.0
  3
DTL0001
  1

  0
POINT
  5
4A
330
44
100
AcDbEntity
  8
0
 62
     0
100
AcDbPoint
 10
100.0000076293945
 20
137.5
 30
0.0
  0
POINT
  5
4B
330
44
100
AcDbEntity
  8
0
 62
     0
100
AcDbPoint
 10
105.0000076293945
 20
148.4999847412109
 30
0.0
  0
POINT
  5
4C
330
44
100
AcDbEntity
  8
0
 62
     0
100
AcDbPoint
 10
-105.0000076293945
 20
-148.4999847412109
 30
0.0
  0
POINT
  5
4D
330
44
100
AcDbEntity
  8
0
 62
     0
100
AcDbPoint
 10
0.0
 20
0.0
 30
0.0
  0
POINT
  5
4E
330
44
100
AcDbEntity
  8
0
 62
     0
100
AcDbPoint
 10
5.0
 20
-128.5
 30
0.0
  0
POINT
  5
4F
330
44
100
AcDbEntity
  8
0
 62
     0
100
AcDbPoint
 10
-85.0
 20
-119.5
 30
0.0
  0
MTEXT
  5
50
330
44
100
AcDbEntity
  8
0
 62
     1
100
AcDbMText
 10
-82.50000762939453
 20
-123.4168127775192
 30
0.0
 40
7.0
 41
0.0
 71
     7
 72
     1
  1
{\W1;A4}
 11
6.123233995736766E-17
 21
1.0
 31
0.0
 73
     1
 44
1.0
  0
ENDBLK
  5
46
330
44
100
AcDbEntity
  8
0
100
AcDbBlockEnd
  0
BLOCK
  5
48
330
47
100
AcDbEntity
  8
0
100
AcDbBlockBegin
  2
DTL0002
 70
     0
 10
0.0
 20
0.0
 30
0.0
  3
DTL0002
  1

  0
POINT
  5
51
330
47
100
AcDbEntity
  8
0
 62
     0
100
AcDbPoint
 10
0.0
 20
0.0
 30
0.0
  0
LINE
  5
52
330
47
100
AcDbEntity
  8
0
  6
Continuous
 62
     0
100
AcDbLine
 10
-35.85262680053711
 20
-150.6305847167969
 30
0.0
 11
38.81674575805664
 21
-150.6305847167969
 31
0.0
  0
LINE
  5
53
330
47
100
AcDbEntity
  8
0
  6
Continuous
 62
     0
100
AcDbLine
 10
50.72043228149414
 20
-75.93057250976562
 30
0.0
 11
57.82040786743164
 21
-75.93057250976562
 31
0.0
  0
LINE
  5
54
330
47
100
AcDbEntity
  8
0
  6
Continuous
 62
     0
100
AcDbLine
 10
48.20706558227539
 20
-86.93057250976562
 30
0.0
 11
57.82040786743164
 21
-86.93057250976562
 31
0.0
  0
LINE
  5
55
330
47
100
AcDbEntity
  8
0
  6
Continuous
 62
     0
100
AcDbLine
 10
51.7204764833147
 20
-86.93066202997196
 30
0.0
 11
46.78637595322455
 21
-143.3279062730532
 31
0.0
  0
LINE
  5
56
330
47
100
AcDbEntity
  8
0
  6
Continuous
 62
     0
100
AcDbLine
 10
51.72040176391602
 20
-86.93057250976562
 30
0.0
 11
57.82040786743164
 21
-86.93057250976562
 31
0.0
  0
LINE
  5
57
330
47
100
AcDbEntity
  8
0
  6
Continuous
 62
     0
100
AcDbLine
 10
58.82040786743164
 20
-76.93060302734375
 30
0.0
 11
58.82040786743164
 21
-85.93060302734375
 31
0.0
  0
LINE
  5
58
330
47
100
AcDbEntity
  8
0
  6
Continuous
 62
     0
100
AcDbLine
 10
50.72043228149414
 20
-75.93057250976562
 30
0.0
 11
50.72043228149414
 21
-76.86709594726562
 31
0.0
  0
LINE
  5
59
330
47
100
AcDbEntity
  8
0
  6
Continuous
 62
     0
100
AcDbLine
 10
53.05347061157227
 20
-74.13058471679688
 30
0.0
 11
58.12039566040039
 21
-74.13058471679688
 31
0.0
  0
LINE
  5
5A
330
47
100
AcDbEntity
  8
0
  6
Continuous
 62
     0
100
AcDbLine
 10
60.62042617797852
 20
-76.63058471679688
 30
0.0
 11
60.62042617797852
 21
-86.2305908203125
 31
0.0
  0
LINE
  5
5B
330
47
100
AcDbEntity
  8
0
  6
Continuous
 62
     0
100
AcDbLine
 10
53.36978530883789
 20
-88.73056030273438
 30
0.0
 11
58.12039566040039
 21
-88.73056030273438
 31
0.0
  0
LINE
  5
5C
330
47
100
AcDbEntity
  8
0
  6
Continuous
 62
     0
100
AcDbLine
 10
53.36978916811824
 20
-88.73051897408779
 30
0.0
 11
48.57944133674673
 21
-143.4846560265481
 31
0.0
  0
LINE
  5
5D
330
47
100
AcDbEntity
  8
0
  6
Continuous
 62
     0
100
AcDbLine
 10
49.9188034758194
 20
-88.0176868471131
 30
0.0
 11
48.78145569977671
 21
-101.0176814608493
 31
0.0
  0
LINE
  5
5E
330
47
100
AcDbEntity
  8
0
  6
Continuous
 62
     0
100
AcDbLine
 10
48.20710735394718
 20
-86.93052844532205
 30
0.0
 11
46.89478647513826
 21
-101.9304824746594
 31
0.0
  0
LINE
  5
5F
330
47
100
AcDbEntity
  8
0
  6
Continuous
 62
     0
100
AcDbLine
 10
46.89471817016602
 20
-101.9305725097656
 30
0.0
 11
47.61026382446289
 21
-101.9305725097656
 31
0.0
  0
LINE
  5
60
330
47
100
AcDbEntity
  8
0
  6
Continuous
 62
     0
100
AcDbLine
 10
46.01984024047852
 20
-111.9305725097656
 30
0.0
 11
46.73538589477539
 21
-111.9305725097656
 31
0.0
  0
LINE
  5
61
330
47
100
AcDbEntity
  8
0
  6
Continuous
 62
     0
100
AcDbLine
 10
46.01990234290295
 20
-111.9304923628182
 30
0.0
 11
43.43546569923836
 21
-141.4708520970082
 31
0.0
  0
LINE
  5
62
330
47
100
AcDbEntity
  8
0
  6
Continuous
 62
     0
100
AcDbLine
 10
48.60647993723846
 20
-103.0176712779009
 30
0.0
 11
47.90657156754141
 21
-111.0176913490081
 31
0.0
  0
LINE
  5
63
330
47
100
AcDbEntity
  8
0
  6
Continuous
 62
     0
100
AcDbLine
 10
47.73159580500315
 20
-113.0176811660597
 30
0.0
 11
45.22854818535082
 21
-141.6277565175273
 31
0.0
  0
LINE
  5
64
330
47
100
AcDbEntity
  8
0
  6
Continuous
 62
     0
100
AcDbLine
 10
-28.15261459350586
 20
-148.9306030273438
 30
0.0
 11
-6.852596282958984
 21
-148.9306030273438
 31
0.0
  0
LINE
  5
65
330
47
100
AcDbEntity
  8
0
  6
Continuous
 62
     0
100
AcDbLine
 10
-27.40703964233398
 20
-147.1305847167969
 30
0.0
 11
-5.852596282958984
 21
-147.1305847167969
 31
0.0
  0
LINE
  5
66
330
47
100
AcDbEntity
  8
0
  6
Continuous
 62
     0
100
AcDbLine
 10
46.45239103962339
 20
-147.1453860003105
 30
0.0
 11
46.14746945495628
 21
-150.6306690788748
 31
0.0
  0
LINE
  5
67
330
47
100
AcDbEntity
  8
0
  6
Continuous
 62
     0
100
AcDbLine
 10
42.90121841430664
 20
-150.6305847167969
 30
0.0
 11
46.14737319946289
 21
-150.6305847167969
 31
0.0
  0
LINE
  5
68
330
47
100
AcDbEntity
  8
0
  6
Continuous
 62
     0
100
AcDbLine
 10
14.14740371704102
 20
-147.1305847167969
 30
0.0
 11
14.14740371704102
 21
-147.9305725097656
 31
0.0
  0
LINE
  5
69
330
47
100
AcDbEntity
  8
0
  6
Continuous
 62
     0
100
AcDbLine
 10
-5.852565765380859
 20
-147.1305847167969
 30
0.0
 11
-5.852565765380859
 21
-147.9305725097656
 31
0.0
  0
LINE
  5
6A
330
47
100
AcDbEntity
  8
0
  6
Continuous
 62
     0
100
AcDbLine
 10
14.14740371704102
 20
-147.1305847167969
 30
0.0
 11
37.25900650024414
 21
-147.1305847167969
 31
0.0
  0
LINE
  5
6B
330
47
100
AcDbEntity
  8
0
  6
Continuous
 62
     0
100
AcDbLine
 10
-4.852596282958984
 20
-148.9306030273438
 30
0.0
 11
13.14737319946289
 21
-148.9306030273438
 31
0.0
  0
LINE
  5
6C
330
47
100
AcDbEntity
  8
0
  6
Continuous
 62
     0
100
AcDbLine
 10
15.14740371704102
 20
-148.9306030273438
 30
0.0
 11
37.25900650024414
 21
-148.9306030273438
 31
0.0
  0
LINE
  5
6D
330
47
100
AcDbEntity
  8
0
  6
Continuous
 62
     0
100
AcDbLine
 10
-39.85259628295898
 20
-140.6291809082031
 30
0.0
 11
-39.85259628295898
 21
-146.6305847167969
 31
0.0
  0
LINE
  5
6E
330
47
100
AcDbEntity
  8
0
  6
Continuous
 62
     0
100
AcDbLine
 10
-41.65261459350586
 20
-142.3597717285156
 30
0.0
 11
-41.65261459350586
 21
-146.6305847167969
 31
0.0
  0
LINE
  5
6F
330
47
100
AcDbEntity
  8
0
  6
Continuous
 62
     0
100
AcDbLine
 10
-39.85259628295898
 20
-140.6291809082031
 30
0.0
 11
-39.85259628295898
 21
-146.6305847167969
 31
0.0
  0
LINE
  5
70
330
47
100
AcDbEntity
  8
0
  6
Continuous
 62
     0
100
AcDbLine
 10
-59.64825782495361
 20
-84.38483841231445
 30
0.0
 11
-56.00519775777487
 21
-126.025064326085
 31
0.0
  0
LINE
  5
71
330
47
100
AcDbEntity
  8
0
  6
Continuous
 62
     0
100
AcDbLine
 10
-40.06621932983398
 20
-137.1305847167969
 30
0.0
 11
-37.40703964233398
 21
-137.1305847167969
 31
0.0
  0
LINE
  5
72
330
47
100
AcDbEntity
  8
0
  6
Continuous
 62
     0
100
AcDbLine
 10
-40.06621932983398
 20
-138.9305725097656
 30
0.0
 11
-38.15264511108398
 21
-138.9305725097656
 31
0.0
  0
LINE
  5
73
330
47
100
AcDbEntity
  8
0
  6
Continuous
 62
     0
100
AcDbLine
 10
-38.15241517825313
 20
-138.9303746777027
 30
0.0
 11
-28.15240270533958
 21
-148.9303837788646
 31
0.0
  0
LINE
  5
74
330
47
100
AcDbEntity
  8
0
  6
Continuous
 62
     0
100
AcDbLine
 10
-37.40689235384854
 20
-137.1304923748348
 30
0.0
 11
-27.40689606532755
 21
-147.1304852916097
 31
0.0
  0
LINE
  5
75
330
47
100
AcDbEntity
  8
0
  6
Continuous
 62
     0
100
AcDbLine
 10
-53.85262680053711
 20
-150.6305847167969
 30
0.0
 11
-39.14440536499023
 21
-150.6305847167969
 31
0.0
  0
LINE
  5
76
330
47
100
AcDbEntity
  8
0
  6
Continuous
 62
     0
100
AcDbLine
 10
-55.45572214557799
 20
-132.3055780162433
 30
0.0
 11
-53.85249048001762
 21
-150.6305376696656
 31
0.0
  0
LINE
  5
77
330
47
100
AcDbEntity
  8
0
  6
Continuous
 62
     0
100
AcDbLine
 10
-61.33149615797635
 20
-85.79726299029224
 30
0.0
 11
-57.79828546482939
 21
-126.1819090709496
 31
0.0
  0
LINE
  5
78
330
47
100
AcDbEntity
  8
0
  6
Continuous
 62
     0
100
AcDbLine
 10
-58.13268249008143
 20
-82.20284822742623
 30
0.0
 11
-57.89040743483186
 21
-84.97205539058893
 31
0.0
  0
LINE
  5
79
330
47
100
AcDbEntity
  8
0
  6
Continuous
 62
     0
100
AcDbLine
 10
-56.00361223037427
 20
-85.88484424668297
 30
0.0
 11
-52.51847460226969
 21
-125.7200145427474
 31
0.0
  0
LINE
  5
7A
330
47
100
AcDbEntity
  8
0
  6
Continuous
 62
     0
100
AcDbLine
 10
-72.08839483738505
 20
-56.93056267486163
 30
0.0
 11
-69.92741826897733
 21
-81.6305541225862
 31
0.0
  0
LINE
  5
7B
330
47
100
AcDbEntity
  8
0
  6
Continuous
 62
     0
100
AcDbLine
 10
-69.92753944961133
 20
-81.63034218355413
 30
0.0
 11
-59.64839420521415
 21
-84.3846305566086
 31
0.0
  0
LINE
  5
7C
330
47
100
AcDbEntity
  8
0
  6
Continuous
 62
     0
100
AcDbLine
 10
-71.61080286403276
 20
-83.04276603880596
 30
0.0
 11
-61.33162814191851
 21
-85.79706231039007
 31
0.0
  0
LINE
  5
7D
330
47
100
AcDbEntity
  8
0
  6
Continuous
 62
     0
100
AcDbLine
 10
-73.73775883519922
 20
-58.73060904906003
 30
0.0
 11
-71.61068662443758
 21
-83.04307322964915
 31
0.0
  0
LINE
  5
7E
330
47
100
AcDbEntity
  8
0
  6
Continuous
 62
     0
100
AcDbLine
 10
-62.65558725604621
 20
-80.99068895625945
 30
0.0
 11
-58.13276216940277
 21
-82.20257615634459
 31
0.0
  0
LINE
  5
7F
330
47
100
AcDbEntity
  8
0
  6
Continuous
 62
     0
100
AcDbLine
 10
-66.12229225051377
 20
-62.01772294751098
 30
0.0
 11
-64.80995662221994
 21
-77.01773695473645
 31
0.0
  0
LINE
  5
80
330
47
100
AcDbEntity
  8
0
  6
Continuous
 62
     0
100
AcDbLine
 10
-64.41052308925522
 20
-60.93061828800906
 30
0.0
 11
-62.65516466951208
 21
-80.99438880232515
 31
0.0
  0
LINE
  5
81
330
47
100
AcDbEntity
  8
0
  6
Continuous
 62
     0
100
AcDbLine
 10
-56.89431381225586
 20
-85.88485717773438
 30
0.0
 11
-56.00378036499023
 21
-85.88485717773438
 31
0.0
  0
LINE
  5
82
330
47
100
AcDbEntity
  8
0
  6
Continuous
 62
     0
100
AcDbLine
 10
-57.7154304149758
 20
-86.97204509763951
 30
0.0
 11
-54.31167973592688
 21
-125.8769614635966
 31
0.0
  0
LINE
  5
83
330
47
100
AcDbEntity
  8
0
  6
Continuous
 62
     0
100
AcDbLine
 10
-71.73858642578125
 20
-60.93057250976562
 30
0.0
 11
-64.41070556640625
 21
-60.93057250976562
 31
0.0
  0
LINE
  5
84
330
47
100
AcDbEntity
  8
0
  6
Continuous
 62
     0
100
AcDbLine
 10
-63.81393051147461
 20
-77.93057250976562
 30
0.0
 11
-62.92339706420898
 21
-77.93057250976562
 31
0.0
  0
LINE
  5
85
330
47
100
AcDbEntity
  8
0
  6
Continuous
 62
     0
100
AcDbLine
 10
-81.3885498046875
 20
-40.93060302734375
 30
0.0
 11
-74.1385498046875
 21
-40.93060302734375
 31
0.0
  0
LINE
  5
86
330
47
100
AcDbEntity
  8
0
  6
Continuous
 62
     0
100
AcDbLine
 10
-81.3885498046875
 20
-56.93057250976562
 30
0.0
 11
-72.08856201171875
 21
-56.93057250976562
 31
0.0
  0
LINE
  5
87
330
47
100
AcDbEntity
  8
0
  6
Continuous
 62
     0
100
AcDbLine
 10
-82.3885498046875
 20
-41.93057250976562
 30
0.0
 11
-82.3885498046875
 21
-55.93060302734375
 31
0.0
  0
LINE
  5
88
330
47
100
AcDbEntity
  8
0
  6
Continuous
 62
     0
100
AcDbLine
 10
-81.68853759765625
 20
-58.73056030273438
 30
0.0
 11
-73.73794555664062
 21
-58.73056030273438
 31
0.0
  0
LINE
  5
89
330
47
100
AcDbEntity
  8
0
  6
Continuous
 62
     0
100
AcDbLine
 10
-84.18853759765625
 20
-41.630615234375
 30
0.0
 11
-84.18853759765625
 21
-56.2305908203125
 31
0.0
  0
LINE
  5
8A
330
47
100
AcDbEntity
  8
0
  6
Continuous
 62
     0
100
AcDbLine
 10
-81.68853759765625
 20
-39.13058471679688
 30
0.0
 11
-75.8878173828125
 21
-39.13058471679688
 31
0.0
  0
LINE
  5
8B
330
47
100
AcDbEntity
  8
0
  6
Continuous
 62
     0
100
AcDbLine
 10
-35.85262680053711
 20
-152.4305725097656
 30
0.0
 11
38.81674575805664
 21
-152.4305725097656
 31
0.0
  0
LINE
  5
8C
330
47
100
AcDbEntity
  8
0
  6
Continuous
 62
     0
100
AcDbLine
 10
95.62042236328125
 20
-37.43057250976562
 30
0.0
 11
95.62042236328125
 21
-151.6349182128906
 31
0.0
  0
LINE
  5
8D
330
47
100
AcDbEntity
  8
0
  6
Continuous
 62
     0
100
AcDbLine
 10
73.62042236328125
 20
-37.43057250976562
 30
0.0
 11
95.62042236328125
 21
-37.43057250976562
 31
0.0
  0
LINE
  5
8E
330
47
100
AcDbEntity
  8
0
  6
Continuous
 62
     0
100
AcDbLine
 10
-72.3892822265625
 20
-39.13058471679688
 30
0.0
 11
73.62042236328125
 21
-39.13058471679688
 31
0.0
  0
LINE
  5
8F
330
47
100
AcDbEntity
  8
0
  6
Continuous
 62
     0
100
AcDbLine
 10
-72.0885009765625
 20
-56.93057250976562
 30
0.0
 11
95.62042236328125
 21
-56.93057250976562
 31
0.0
  0
LINE
  5
90
330
47
100
AcDbEntity
  8
0
  6
Continuous
 62
     0
100
AcDbLine
 10
58.12039566040039
 20
-74.13058471679688
 30
0.0
 11
91.62042236328125
 21
-74.13058471679688
 31
0.0
  0
LINE
  5
91
330
47
100
AcDbEntity
  8
0
  6
Continuous
 62
     0
100
AcDbLine
 10
58.12039566040039
 20
-88.73056030273438
 30
0.0
 11
91.62042236328125
 21
-88.73056030273438
 31
0.0
  0
LINE
  5
92
330
47
100
AcDbEntity
  8
0
  6
Continuous
 62
     0
100
AcDbLine
 10
38.81677627563477
 20
-152.4305725097656
 30
0.0
 11
91.62042236328125
 21
-152.4305725097656
 31
0.0
  0
LINE
  5
93
330
47
100
AcDbEntity
  8
0
  6
Continuous
 62
     0
100
AcDbLine
 10
91.62042236328125
 20
-74.13058471679688
 30
0.0
 11
91.62042236328125
 21
-152.4305725097656
 31
0.0
  0
LINE
  5
94
330
47
100
AcDbEntity
  8
0
  6
Continuous
 62
     0
100
AcDbLine
 10
91.62046984373401
 20
-74.13040459745619
 30
0.0
 11
95.62047521463121
 21
-74.9260501718145
 31
0.0
  0
LINE
  5
95
330
47
100
AcDbEntity
  8
0
  6
Continuous
 62
     0
100
AcDbLine
 10
91.62042130252897
 20
-88.73051545508991
 30
0.0
 11
95.62039570519599
 21
-87.93487062085515
 31
0.0
  0
LINE
  5
96
330
47
100
AcDbEntity
  8
0
  6
Continuous
 62
     0
100
AcDbLine
 10
91.62038752788601
 20
-152.4303998254169
 30
0.0
 11
95.62036175850584
 21
-151.6347541262435
 31
0.0
  0
LINE
  5
97
330
47
100
AcDbEntity
  8
0
  6
Continuous
 62
     0
100
AcDbLine
 10
73.62042236328125
 20
-37.43057250976562
 30
0.0
 11
73.62042236328125
 21
-40.93057250976562
 31
0.0
  0
LINE
  5
98
330
47
100
AcDbEntity
  8
0
  6
Continuous
 62
     0
100
AcDbLine
 10
57.62042617797852
 20
-39.13058471679688
 30
0.0
 11
57.62042617797852
 21
-40.93057250976562
 31
0.0
  0
LINE
  5
99
330
47
100
AcDbEntity
  8
0
  6
Continuous
 62
     0
100
AcDbLine
 10
57.62042617797852
 20
-40.93057250976562
 30
0.0
 11
95.62042236328125
 21
-40.93057250976562
 31
0.0
  0
LINE
  5
9A
330
47
100
AcDbEntity
  8
0
  6
Continuous
 62
     0
100
AcDbLine
 10
-60.26836776733398
 20
-81.63055419921875
 30
0.0
 11
58.82040786743164
 21
-81.63055419921875
 31
0.0
  0
LINE
  5
9B
330
47
100
AcDbEntity
  8
0
  6
Continuous
 62
     0
100
AcDbLine
 10
58.82043838500977
 20
-60.93060302734375
 30
0.0
 11
60.62042617797852
 21
-60.93060302734375
 31
0.0
  0
LINE
  5
9C
330
47
100
AcDbEntity
  8
0
  6
DASHED
 62
     0
100
AcDbLine
 10
60.62042617797852
 20
-60.93060302734375
 30
0.0
 11
60.62042617797852
 21
-74.13058471679688
 31
0.0
  0
LINE
  5
9D
330
47
100
AcDbEntity
  8
0
  6
Continuous
 62
     0
100
AcDbLine
 10
58.82043838500977
 20
-60.93060302734375
 30
0.0
 11
58.82043838500977
 21
-74.13058471679688
 31
0.0
  0
LINE
  5
9E
330
47
100
AcDbEntity
  8
0
  6
Continuous
 62
     0
100
AcDbLine
 10
68.62042236328125
 20
-62.6248779296875
 30
0.0
 11
68.62042236328125
 21
-74.13058471679688
 31
0.0
  0
LINE
  5
9F
330
47
100
AcDbEntity
  8
0
  6
Continuous
 62
     0
100
AcDbLine
 10
60.62036123173169
 20
-60.93077724209653
 30
0.0
 11
67.71837189938307
 21
-61.62986854280737
 31
0.0
  0
LINE
  5
A0
330
47
100
AcDbEntity
  8
0
  6
Continuous
 62
     0
100
AcDbLine
 10
73.62042236328125
 20
-72.93057250976562
 30
0.0
 11
73.62042236328125
 21
-74.13058471679688
 31
0.0
  0
LINE
  5
A1
330
47
100
AcDbEntity
  8
0
  6
Continuous
 62
     0
100
AcDbLine
 10
73.62042236328125
 20
-72.93057250976562
 30
0.0
 11
95.62042236328125
 21
-72.93057250976562
 31
0.0
  0
LINE
  5
A2
330
47
100
AcDbEntity
  8
0
  6
Continuous
 62
     0
100
AcDbLine
 10
60.62042617797852
 20
19.24383544921875
 30
0.0
 11
60.62042617797852
 21
-6.756195068359375
 31
0.0
  0
LINE
  5
A3
330
47
100
AcDbEntity
  8
0
  6
Continuous
 62
     0
100
AcDbLine
 10
-72.08847045898438
 20
24.24380493164062
 30
0.0
 11
-66.12237548828125
 21
24.24380493164062
 31
0.0
  0
LINE
  5
A4
330
47
100
AcDbEntity
  8
0
  6
Continuous
 62
     0
100
AcDbLine
 10
-83.39285278320312
 20
-10.75619506835938
 30
0.0
 11
59.82477188110352
 21
-10.75619506835938
 31
0.0
  0
LINE
  5
A5
330
47
100
AcDbEntity
  8
0
  6
Continuous
 62
     0
100
AcDbLine
 10
-84.18853759765625
 20
169.0528564453125
 30
0.0
 11
-84.18853759765625
 21
-6.756195068359375
 31
0.0
  0
LINE
  5
A6
330
47
100
AcDbEntity
  8
0
  6
Continuous
 62
     0
100
AcDbLine
 10
-82.3885498046875
 20
162.2528991699219
 30
0.0
 11
-82.3885498046875
 21
24.24380493164062
 31
0.0
  0
LINE
  5
A7
330
47
100
AcDbEntity
  8
0
  6
Continuous
 62
     0
100
AcDbLine
 10
-77.0037841796875
 20
11.24380493164062
 30
0.0
 11
-72.3885498046875
 21
11.24380493164062
 31
0.0
  0
LINE
  5
A8
330
47
100
AcDbEntity
  8
0
  6
Continuous
 62
     0
100
AcDbLine
 10
-72.3885498046875
 20
11.24380493164062
 30
0.0
 11
-72.3885498046875
 21
-10.75619506835938
 31
0.0
  0
LINE
  5
A9
330
47
100
AcDbEntity
  8
0
  6
Continuous
 62
     0
100
AcDbLine
 10
-75.8878173828125
 20
11.24380493164062
 30
0.0
 11
-75.8878173828125
 21
-10.75619506835938
 31
0.0
  0
LINE
  5
AA
330
47
100
AcDbEntity
  8
0
  6
Continuous
 62
     0
100
AcDbLine
 10
-84.18853759765625
 20
-6.756195068359375
 30
0.0
 11
-75.8878173828125
 21
-6.756195068359375
 31
0.0
  0
LINE
  5
AB
330
47
100
AcDbEntity
  8
0
  6
Continuous
 62
     0
100
AcDbLine
 10
-84.18841322293144
 20
-6.756165264465908
 30
0.0
 11
-83.39275890482344
 21
-10.75616889612406
 31
0.0
  0
LINE
  5
AC
330
47
100
AcDbEntity
  8
0
  6
Continuous
 62
     0
100
AcDbLine
 10
-82.38856334947238
 20
24.24371648499746
 30
0.0
 11
-77.00378414808246
 21
11.24379230322922
 31
0.0
  0
LINE
  5
AD
330
47
100
AcDbEntity
  8
0
  6
Continuous
 62
     0
100
AcDbLine
 10
-72.08847045898438
 20
151.9527893066406
 30
0.0
 11
-72.08847045898438
 21
-10.75619506835938
 31
0.0
  0
LINE
  5
AE
330
47
100
AcDbEntity
  8
0
  6
Continuous
 62
     0
100
AcDbLine
 10
-69.92752075195312
 20
149.7918395996094
 30
0.0
 11
-69.92752075195312
 21
26.24380493164062
 31
0.0
  0
LINE
  5
AF
330
47
100
AcDbEntity
  8
0
  6
Continuous
 62
     0
100
AcDbLine
 10
-66.12237548828125
 20
24.24380493164062
 30
0.0
 11
-66.12237548828125
 21
17.24380493164062
 31
0.0
  0
LINE
  5
B0
330
47
100
AcDbEntity
  8
0
  6
Continuous
 62
     0
100
AcDbLine
 10
-64.41061401367188
 20
26.24380493164062
 30
0.0
 11
-64.41061401367188
 21
16.24380493164062
 31
0.0
  0
LINE
  5
B1
330
47
100
AcDbEntity
  8
0
  6
Continuous
 62
     0
100
AcDbLine
 10
-62.92339706420898
 20
24.24380493164062
 30
0.0
 11
-62.92339706420898
 21
16.24380493164062
 31
0.0
  0
LINE
  5
B2
330
47
100
AcDbEntity
  8
0
  6
Continuous
 62
     0
100
AcDbLine
 10
-65.12237548828125
 20
16.24380493164062
 30
0.0
 11
-62.92339706420898
 21
16.24380493164062
 31
0.0
  0
LINE
  5
B3
330
47
100
AcDbEntity
  8
0
  6
Continuous
 62
     0
100
AcDbLine
 10
-62.92339706420898
 20
24.24380493164062
 30
0.0
 11
-57.71551132202148
 21
24.24380493164062
 31
0.0
  0
LINE
  5
B4
330
47
100
AcDbEntity
  8
0
  6
Continuous
 62
     0
100
AcDbLine
 10
-56.00368881225586
 20
26.24380493164062
 30
0.0
 11
-56.00368881225586
 21
16.24380493164062
 31
0.0
  0
LINE
  5
B5
330
47
100
AcDbEntity
  8
0
  6
Continuous
 62
     0
100
AcDbLine
 10
-56.92757797241211
 20
16.24380493164062
 30
0.0
 11
-8.662410736083984
 21
16.24380493164062
 31
0.0
  0
LINE
  5
B6
330
47
100
AcDbEntity
  8
0
  6
Continuous
 62
     0
100
AcDbLine
 10
-57.71550937060655
 20
24.24380236480084
 30
0.0
 11
-56.92757066251542
 21
16.24378478581426
 31
0.0
  0
LINE
  5
B7
330
47
100
AcDbEntity
  8
0
  6
Continuous
 62
     0
100
AcDbLine
 10
-59.64834213256836
 20
139.5126647949219
 30
0.0
 11
-59.64834213256836
 21
26.24380493164062
 31
0.0
  0
LINE
  5
B8
330
47
100
AcDbEntity
  8
0
  6
Continuous
 62
     0
100
AcDbLine
 10
-69.92752075195312
 20
24.24380493164062
 30
0.0
 11
-69.92752075195312
 21
-10.75619506835938
 31
0.0
  0
LINE
  5
B9
330
47
100
AcDbEntity
  8
0
  6
Continuous
 62
     0
100
AcDbLine
 10
-59.64834213256836
 20
24.24380493164062
 30
0.0
 11
-59.64834213256836
 21
-10.75619506835938
 31
0.0
  0
LINE
  5
BA
330
47
100
AcDbEntity
  8
0
  6
Continuous
 62
     0
100
AcDbLine
 10
-39.85259628295898
 20
119.7168884277344
 30
0.0
 11
-39.85259628295898
 21
26.24380493164062
 31
0.0
  0
LINE
  5
BB
330
47
100
AcDbEntity
  8
0
  6
Continuous
 62
     0
100
AcDbLine
 10
-39.85259628295898
 20
16.24380493164062
 30
0.0
 11
-39.85259628295898
 21
-10.75619506835938
 31
0.0
  0
LINE
  5
BC
330
47
100
AcDbEntity
  8
0
  6
Continuous
 62
     0
100
AcDbLine
 10
-6.25046972032973
 20
24.24380600196806
 30
0.0
 11
-7.681663072856415
 21
17.04870658591708
 31
0.0
  0
LINE
  5
BD
330
47
100
AcDbEntity
  8
0
  6
Continuous
 62
     0
100
AcDbLine
 10
14.54529240383593
 20
24.24383464124665
 30
0.0
 11
15.97649126512357
 21
17.04873632095786
 31
0.0
  0
LINE
  5
BE
330
47
100
AcDbEntity
  8
0
  6
Continuous
 62
     0
100
AcDbLine
 10
16.95718765258789
 20
16.24380493164062
 30
0.0
 11
45.01987075805664
 21
16.24380493164062
 31
0.0
  0
LINE
  5
BF
330
47
100
AcDbEntity
  8
0
  6
Continuous
 62
     0
100
AcDbLine
 10
-6.250423431396484
 20
24.24380493164062
 30
0.0
 11
14.54520034790039
 21
24.24380493164062
 31
0.0
  0
LINE
  5
C0
330
47
100
AcDbEntity
  8
0
  6
Continuous
 62
     0
100
AcDbLine
 10
49.22043228149414
 20
11.24380493164062
 30
0.0
 11
49.22043228149414
 21
-10.75619506835938
 31
0.0
  0
LINE
  5
C1
330
47
100
AcDbEntity
  8
0
  6
Continuous
 62
     0
100
AcDbLine
 10
53.05347061157227
 20
11.24380493164062
 30
0.0
 11
53.05347061157227
 21
-10.75619506835938
 31
0.0
  0
LINE
  5
C2
330
47
100
AcDbEntity
  8
0
  6
DASHED
 62
     0
100
AcDbLine
 10
58.82040786743164
 20
26.0438232421875
 30
0.0
 11
58.82040786743164
 21
-10.46115112304688
 31
0.0
  0
LINE
  5
C3
330
47
100
AcDbEntity
  8
0
  6
Continuous
 62
     0
100
AcDbLine
 10
49.22043228149414
 20
11.24380493164062
 30
0.0
 11
53.05347061157227
 21
11.24380493164062
 31
0.0
  0
LINE
  5
C4
330
47
100
AcDbEntity
  8
0
  6
Continuous
 62
     0
100
AcDbLine
 10
53.05347061157227
 20
-6.756195068359375
 30
0.0
 11
60.62042617797852
 21
-6.756195068359375
 31
0.0
  0
LINE
  5
C5
330
47
100
AcDbEntity
  8
0
  6
Continuous
 62
     0
100
AcDbLine
 10
60.62040573098153
 20
-6.756241164329115
 30
0.0
 11
59.82475464290807
 21
-10.75621432302448
 31
0.0
  0
LINE
  5
C6
330
47
100
AcDbEntity
  8
0
  6
Continuous
 62
     0
100
AcDbLine
 10
48.20709609985352
 20
26.24380493164062
 30
0.0
 11
48.20709609985352
 21
16.24380493164062
 31
0.0
  0
LINE
  5
C7
330
47
100
AcDbEntity
  8
0
  6
Continuous
 62
     0
100
AcDbLine
 10
49.91873550415039
 20
24.24380493164062
 30
0.0
 11
49.91873550415039
 21
17.24380493164062
 31
0.0
  0
LINE
  5
C8
330
47
100
AcDbEntity
  8
0
  6
Continuous
 62
     0
100
AcDbLine
 10
46.89477920532227
 20
26.24380493164062
 30
0.0
 11
46.89477920532227
 21
16.24380493164062
 31
0.0
  0
LINE
  5
C9
330
47
100
AcDbEntity
  8
0
  6
Continuous
 62
     0
100
AcDbLine
 10
46.01987075805664
 20
26.24380493164062
 30
0.0
 11
46.01987075805664
 21
17.24380493164062
 31
0.0
  0
LINE
  5
CA
330
47
100
AcDbEntity
  8
0
  6
Continuous
 62
     0
100
AcDbLine
 10
57.02039108093781
 20
23.04383901085868
 30
0.0
 11
53.05344415400256
 21
11.24385845665592
 31
0.0
  0
LINE
  5
CB
330
47
100
AcDbEntity
  8
0
  6
Continuous
 62
     0
100
AcDbLine
 10
-72.08847045898438
 20
26.24380493164062
 30
0.0
 11
51.72043228149414
 21
26.24380493164062
 31
0.0
  0
LINE
  5
CC
330
47
100
AcDbEntity
  8
0
  6
Continuous
 62
     0
100
AcDbLine
 10
51.72043228149414
 20
33.143798828125
 30
0.0
 11
51.72043228149414
 21
26.24380493164062
 31
0.0
  0
LINE
  5
CD
330
47
100
AcDbEntity
  8
0
  6
Continuous
 62
     0
100
AcDbLine
 10
46.01987075805664
 20
24.24380493164062
 30
0.0
 11
46.89477920532227
 21
24.24380493164062
 31
0.0
  0
LINE
  5
CE
330
47
100
AcDbEntity
  8
0
  6
Continuous
 62
     0
100
AcDbLine
 10
51.72043228149414
 20
24.24380493164062
 30
0.0
 11
51.72043228149414
 21
11.24380493164062
 31
0.0
  0
LINE
  5
CF
330
47
100
AcDbEntity
  8
0
  6
Continuous
 62
     0
100
AcDbLine
 10
47.33530044555664
 20
16.24380493164062
 30
0.0
 11
48.91873550415039
 21
16.24380493164062
 31
0.0
  0
LINE
  5
D0
330
47
100
AcDbEntity
  8
0
  6
Continuous
 62
     0
100
AcDbLine
 10
49.91873550415039
 20
24.24380493164062
 30
0.0
 11
51.72043228149414
 21
24.24380493164062
 31
0.0
  0
LINE
  5
D1
330
47
100
AcDbEntity
  8
0
  6
DASHED
 62
     0
100
AcDbLine
 10
-82.3885498046875
 20
24.24371337890625
 30
0.0
 11
-82.3885498046875
 21
-10.75619506835938
 31
0.0
  0
LINE
  5
D2
330
47
100
AcDbEntity
  8
0
  6
Continuous
 62
     0
100
AcDbLine
 10
65.62045288085938
 20
24.24365234375
 30
0.0
 11
91.6204833984375
 21
24.24365234375
 31
0.0
  0
LINE
  5
D3
330
47
100
AcDbEntity
  8
0
  6
Continuous
 62
     0
100
AcDbLine
 10
60.62067031860352
 20
156.9527282714844
 30
0.0
 11
60.62067031860352
 21
150.9866027832031
 31
0.0
  0
LINE
  5
D4
330
47
100
AcDbEntity
  8
0
  6
Continuous
 62
     0
100
AcDbLine
 10
95.62066650390625
 20
168.2570495605469
 30
0.0
 11
95.62066650390625
 21
25.03945922851562
 31
0.0
  0
LINE
  5
D5
330
47
100
AcDbEntity
  8
0
  6
Continuous
 62
     0
100
AcDbLine
 10
-77.38851928710938
 20
167.2525939941406
 30
0.0
 11
60.62057876586914
 21
167.2525939941406
 31
0.0
  0
LINE
  5
D6
330
47
100
AcDbEntity
  8
0
  6
Continuous
 62
     0
100
AcDbLine
 10
73.62066650390625
 20
161.8680114746094
 30
0.0
 11
73.62066650390625
 21
157.2527770996094
 31
0.0
  0
LINE
  5
D7
330
47
100
AcDbEntity
  8
0
  6
Continuous
 62
     0
100
AcDbLine
 10
73.62054443359375
 20
157.2525939941406
 30
0.0
 11
95.62057495117188
 21
157.2525939941406
 31
0.0
  0
LINE
  5
D8
330
47
100
AcDbEntity
  8
0
  6
Continuous
 62
     0
100
AcDbLine
 10
73.62057495117188
 20
160.7518615722656
 30
0.0
 11
95.62057495117188
 21
160.7518615722656
 31
0.0
  0
LINE
  5
D9
330
47
100
AcDbEntity
  8
0
  6
Continuous
 62
     0
100
AcDbLine
 10
91.62066650390625
 20
169.0527648925781
 30
0.0
 11
91.62066650390625
 21
160.7520446777344
 31
0.0
  0
LINE
  5
DA
330
47
100
AcDbEntity
  8
0
  6
Continuous
 62
     0
100
AcDbLine
 10
60.62069081510575
 20
167.2527738115053
 30
0.0
 11
73.62058304924865
 21
161.8679972280663
 31
0.0
  0
LINE
  5
DB
330
47
100
AcDbEntity
  8
0
  6
Continuous
 62
     0
100
AcDbLine
 10
-67.08843994140625
 20
156.9525146484375
 30
0.0
 11
95.62057495117188
 21
156.9525146484375
 31
0.0
  0
LINE
  5
DC
330
47
100
AcDbEntity
  8
0
  6
Continuous
 62
     0
100
AcDbLine
 10
-64.927490234375
 20
154.7915649414062
 30
0.0
 11
58.62054824829102
 21
154.7915649414062
 31
0.0
  0
LINE
  5
DD
330
47
100
AcDbEntity
  8
0
  6
Continuous
 62
     0
100
AcDbLine
 10
60.62054824829102
 20
150.9864196777344
 30
0.0
 11
67.62057495117188
 21
150.9864196777344
 31
0.0
  0
LINE
  5
DE
330
47
100
AcDbEntity
  8
0
  6
Continuous
 62
     0
100
AcDbLine
 10
58.62057876586914
 20
149.2746276855469
 30
0.0
 11
68.62054443359375
 21
149.2746276855469
 31
0.0
  0
LINE
  5
DF
330
47
100
AcDbEntity
  8
0
  6
Continuous
 62
     0
100
AcDbLine
 10
60.62054824829102
 20
147.7874450683594
 30
0.0
 11
68.62054443359375
 21
147.7874450683594
 31
0.0
  0
LINE
  5
E0
330
47
100
AcDbEntity
  8
0
  6
Continuous
 62
     0
100
AcDbLine
 10
68.62069702148438
 20
149.9866027832031
 30
0.0
 11
68.62069702148438
 21
147.7876281738281
 31
0.0
  0
LINE
  5
E1
330
47
100
AcDbEntity
  8
0
  6
Continuous
 62
     0
100
AcDbLine
 10
60.62067031860352
 20
147.7876281738281
 30
0.0
 11
60.62067031860352
 21
142.5797424316406
 31
0.0
  0
LINE
  5
E2
330
47
100
AcDbEntity
  8
0
  6
Continuous
 62
     0
100
AcDbLine
 10
58.62054824829102
 20
140.8677368164062
 30
0.0
 11
68.62054443359375
 21
140.8677368164062
 31
0.0
  0
LINE
  5
E3
330
47
100
AcDbEntity
  8
0
  6
Continuous
 62
     0
100
AcDbLine
 10
68.62069702148438
 20
141.7918395996094
 30
0.0
 11
68.62069702148438
 21
93.52665710449219
 31
0.0
  0
LINE
  5
E4
330
47
100
AcDbEntity
  8
0
  6
Continuous
 62
     0
100
AcDbLine
 10
60.62053281160431
 20
142.5797735508586
 30
0.0
 11
68.62051948370997
 21
141.7918323894011
 31
0.0
  0
LINE
  5
E5
330
47
100
AcDbEntity
  8
0
  6
Continuous
 62
     0
100
AcDbLine
 10
-54.64831161499023
 20
144.5123596191406
 30
0.0
 11
58.62054824829102
 21
144.5123596191406
 31
0.0
  0
LINE
  5
E6
330
47
100
AcDbEntity
  8
0
  6
Continuous
 62
     0
100
AcDbLine
 10
60.62054824829102
 20
154.7915649414062
 30
0.0
 11
95.62054443359375
 21
154.7915649414062
 31
0.0
  0
LINE
  5
E7
330
47
100
AcDbEntity
  8
0
  6
Continuous
 62
     0
100
AcDbLine
 10
60.62054824829102
 20
144.5123596191406
 30
0.0
 11
95.62054443359375
 21
144.5123596191406
 31
0.0
  0
LINE
  5
E8
330
47
100
AcDbEntity
  8
0
  6
Continuous
 62
     0
100
AcDbLine
 10
-34.85256576538086
 20
124.7166442871094
 30
0.0
 11
58.62051773071289
 21
124.7166442871094
 31
0.0
  0
LINE
  5
E9
330
47
100
AcDbEntity
  8
0
  6
Continuous
 62
     0
100
AcDbLine
 10
68.62051391601562
 20
124.7166442871094
 30
0.0
 11
95.62051391601562
 21
124.7166442871094
 31
0.0
  0
LINE
  5
EA
330
47
100
AcDbEntity
  8
0
  6
Continuous
 62
     0
100
AcDbLine
 10
60.62050394516774
 20
91.11465382073955
 30
0.0
 11
67.81560431483487
 21
92.54584237910265
 31
0.0
  0
LINE
  5
EB
330
47
100
AcDbEntity
  8
0
  6
Continuous
 62
     0
100
AcDbLine
 10
60.62044123177581
 20
70.31906574077055
 30
0.0
 11
67.81556852962518
 21
68.88785613159735
 31
0.0
  0
LINE
  5
EC
330
47
100
AcDbEntity
  8
0
  6
Continuous
 62
     0
100
AcDbLine
 10
68.62069702148438
 20
67.90707397460938
 30
0.0
 11
68.62069702148438
 21
39.8443603515625
 31
0.0
  0
LINE
  5
ED
330
47
100
AcDbEntity
  8
0
  6
Continuous
 62
     0
100
AcDbLine
 10
60.62067031860352
 20
91.11466979980469
 30
0.0
 11
60.62067031860352
 21
70.31904602050781
 31
0.0
  0
LINE
  5
EE
330
47
100
AcDbEntity
  8
0
  6
Continuous
 62
     0
100
AcDbLine
 10
73.62045288085938
 20
35.64364624023438
 30
0.0
 11
95.62045288085938
 21
35.64364624023438
 31
0.0
  0
LINE
  5
EF
330
47
100
AcDbEntity
  8
0
  6
Continuous
 62
     0
100
AcDbLine
 10
73.62045288085938
 20
31.81060791015625
 30
0.0
 11
95.62045288085938
 21
31.81060791015625
 31
0.0
  0
LINE
  5
F0
330
47
100
AcDbEntity
  8
0
  6
DASHED
 62
     0
100
AcDbLine
 10
58.82046890258789
 20
26.04364013671875
 30
0.0
 11
95.325439453125
 21
26.04364013671875
 31
0.0
  0
LINE
  5
F1
330
47
100
AcDbEntity
  8
0
  6
Continuous
 62
     0
100
AcDbLine
 10
73.62066650390625
 20
35.64382934570312
 30
0.0
 11
73.62066650390625
 21
31.810791015625
 31
0.0
  0
LINE
  5
F2
330
47
100
AcDbEntity
  8
0
  6
Continuous
 62
     0
100
AcDbLine
 10
91.62066650390625
 20
31.810791015625
 30
0.0
 11
91.62066650390625
 21
24.24383544921875
 31
0.0
  0
LINE
  5
F3
330
47
100
AcDbEntity
  8
0
  6
Continuous
 62
     0
100
AcDbLine
 10
91.62046595879498
 20
24.24385737913336
 30
0.0
 11
95.62043965926762
 21
25.03950574352753
 31
0.0
  0
LINE
  5
F4
330
47
100
AcDbEntity
  8
0
  6
Continuous
 62
     0
100
AcDbLine
 10
58.62045669555664
 20
36.656982421875
 30
0.0
 11
68.62045288085938
 21
36.656982421875
 31
0.0
  0
LINE
  5
F5
330
47
100
AcDbEntity
  8
0
  6
Continuous
 62
     0
100
AcDbLine
 10
60.62045669555664
 20
34.94534301757812
 30
0.0
 11
67.62045288085938
 21
34.94534301757812
 31
0.0
  0
LINE
  5
F6
330
47
100
AcDbEntity
  8
0
  6
Continuous
 62
     0
100
AcDbLine
 10
58.62045669555664
 20
37.96929931640625
 30
0.0
 11
68.62045288085938
 21
37.96929931640625
 31
0.0
  0
LINE
  5
F7
330
47
100
AcDbEntity
  8
0
  6
Continuous
 62
     0
100
AcDbLine
 10
58.62045669555664
 20
38.84420776367188
 30
0.0
 11
67.62045288085938
 21
38.84420776367188
 31
0.0
  0
LINE
  5
F8
330
47
100
AcDbEntity
  8
0
  6
Continuous
 62
     0
100
AcDbLine
 10
61.82051767219811
 20
27.84388512077759
 30
0.0
 11
73.62047187901881
 21
31.81081465069143
 31
0.0
  0
LINE
  5
F9
330
47
100
AcDbEntity
  8
0
  6
Continuous
 62
     0
100
AcDbLine
 10
58.62067031860352
 20
156.9527282714844
 30
0.0
 11
58.62067031860352
 21
33.14382934570312
 31
0.0
  0
LINE
  5
FA
330
47
100
AcDbEntity
  8
0
  6
Continuous
 62
     0
100
AcDbLine
 10
51.72046279907227
 20
33.14364624023438
 30
0.0
 11
58.62045669555664
 21
33.14364624023438
 31
0.0
  0
LINE
  5
FB
330
47
100
AcDbEntity
  8
0
  6
Continuous
 62
     0
100
AcDbLine
 10
60.62067031860352
 20
38.84439086914062
 30
0.0
 11
60.62067031860352
 21
37.969482421875
 31
0.0
  0
LINE
  5
FC
330
47
100
AcDbEntity
  8
0
  6
Continuous
 62
     0
100
AcDbLine
 10
60.62045669555664
 20
33.14364624023438
 30
0.0
 11
73.62045288085938
 21
33.14364624023438
 31
0.0
  0
LINE
  5
FD
330
47
100
AcDbEntity
  8
0
  6
Continuous
 62
     0
100
AcDbLine
 10
68.62069702148438
 20
37.5289306640625
 30
0.0
 11
68.62069702148438
 21
35.94549560546875
 31
0.0
  0
LINE
  5
FE
330
47
100
AcDbEntity
  8
0
  6
Continuous
 62
     0
100
AcDbLine
 10
60.62067031860352
 20
34.94552612304688
 30
0.0
 11
60.62067031860352
 21
33.14382934570312
 31
0.0
  0
LINE
  5
FF
330
47
100
AcDbEntity
  8
0
  6
DASHED
 62
     0
100
AcDbLine
 10
60.62067031860352
 20
167.2525939941406
 30
0.0
 11
95.62054443359375
 21
167.2525939941406
 31
0.0
  0
LINE
  5
100
330
47
100
AcDbEntity
  8
0
  6
Continuous
 62
     0
100
AcDbLine
 10
37.43989906471458
 20
47.42439817138217
 30
0.0
 11
51.72041719603652
 21
33.14387040999546
 31
0.0
  0
LINE
  5
101
330
47
100
AcDbEntity
  8
0
  6
Continuous
 62
     0
100
AcDbLine
 10
-84.1884765625
 20
169.0525817871094
 30
0.0
 11
91.62054443359375
 21
169.0525817871094
 31
0.0
  0
LINE
  5
102
330
47
100
AcDbEntity
  8
0
  6
Continuous
 62
     0
100
AcDbLine
 10
91.62054540914986
 20
169.05272719306
 30
0.0
 11
95.62054851065506
 21
168.2570702097117
 31
0.0
  0
ARC
  5
103
330
47
100
AcDbEntity
  8
0
  6
Continuous
 62
     0
100
AcDbCircle
 10
67.62042236328125
 20
-62.6248779296875
 30
0.0
 40
1.0
100
AcDbArc
 50
0.0
 51
84.37465870405566
  0
ARC
  5
104
330
47
100
AcDbEntity
  8
0
  6
Continuous
 62
     0
100
AcDbCircle
 10
51.22043228149414
 20
-74.93057250976562
 30
0.0
 40
2.000003814697266
100
AcDbArc
 50
0.0
 51
3.59440882194719
  0
ARC
  5
105
330
47
100
AcDbEntity
  8
0
  6
Continuous
 62
     0
100
AcDbCircle
 10
58.12039566040039
 20
-86.23056030273438
 30
0.0
 40
2.5
100
AcDbArc
 50
270.0000179860893
 51
0.0
  0
ARC
  5
106
330
47
100
AcDbEntity
  8
0
  6
Continuous
 62
     0
100
AcDbCircle
 10
58.12039566040039
 20
-76.63058471679688
 30
0.0
 40
2.5
100
AcDbArc
 50
0.0
 51
89.99998201391067
  0
ARC
  5
107
330
47
100
AcDbEntity
  8
0
  6
Continuous
 62
     0
100
AcDbCircle
 10
51.22043228149414
 20
-74.93057250976562
 30
0.0
 40
2.000003814697266
100
AcDbArc
 50
23.57767811864791
 51
255.5227317184863
  0
ARC
  5
108
330
47
100
AcDbEntity
  8
0
  6
Continuous
 62
     0
100
AcDbCircle
 10
57.82040786743164
 20
-76.93057250976562
 30
0.0
 40
1.0
100
AcDbArc
 50
0.0
 51
89.99998201391067
  0
ARC
  5
109
330
47
100
AcDbEntity
  8
0
  6
Continuous
 62
     0
100
AcDbCircle
 10
57.82040786743164
 20
-85.93060302734375
 30
0.0
 40
1.0
100
AcDbArc
 50
270.0000179860893
 51
0.0
  0
ARC
  5
10A
330
47
100
AcDbEntity
  8
0
  6
Continuous
 62
     0
100
AcDbCircle
 10
47.78525161743164
 20
-100.9306030273438
 30
0.0
 40
1.0
100
AcDbArc
 50
270.0000179860893
 51
354.9999271478068
  0
ARC
  5
10B
330
47
100
AcDbEntity
  8
0
  6
Continuous
 62
     0
100
AcDbCircle
 10
47.61026382446289
 20
-102.9305725097656
 30
0.0
 40
1.0
100
AcDbArc
 50
354.9999271478068
 51
89.99998201391067
  0
ARC
  5
10C
330
47
100
AcDbEntity
  8
0
  6
Continuous
 62
     0
100
AcDbCircle
 10
46.91037368774414
 20
-110.9305725097656
 30
0.0
 40
1.0
100
AcDbArc
 50
270.0000179860893
 51
354.9999271478068
  0
ARC
  5
10D
330
47
100
AcDbEntity
  8
0
  6
Continuous
 62
     0
100
AcDbCircle
 10
46.73538589477539
 20
-112.9306030273438
 30
0.0
 40
1.0
100
AcDbArc
 50
354.9999271478068
 51
89.99998201391067
  0
ARC
  5
10E
330
47
100
AcDbEntity
  8
0
  6
Continuous
 62
     0
100
AcDbCircle
 10
48.92261123657227
 20
-87.93057250976562
 30
0.0
 40
1.0
100
AcDbArc
 50
354.9998127421382
 51
89.99998201391067
  0
ARC
  5
10F
330
47
100
AcDbEntity
  8
0
  6
Continuous
 62
     0
100
AcDbCircle
 10
38.81677627563477
 20
-142.6305847167969
 30
0.0
 40
8.0
100
AcDbArc
 50
270.0000179860893
 51
355.0000189284738
  0
ARC
  5
110
330
47
100
AcDbEntity
  8
0
  6
Continuous
 62
     0
100
AcDbCircle
 10
37.25900650024414
 20
-140.9305725097656
 30
0.0
 40
8.0
100
AcDbArc
 50
270.0000179860893
 51
355.0000189284738
  0
ARC
  5
111
330
47
100
AcDbEntity
  8
0
  6
Continuous
 62
     0
100
AcDbCircle
 10
37.25900650024414
 20
-140.9305725097656
 30
0.0
 40
6.199999809265137
100
AcDbArc
 50
270.0000179860893
 51
355.0000189284738
  0
ARC
  5
112
330
47
100
AcDbEntity
  8
0
  6
Continuous
 62
     0
100
AcDbCircle
 10
38.81677627563477
 20
-142.6305847167969
 30
0.0
 40
9.80000114440918
100
AcDbArc
 50
270.0000179860893
 51
355.0000189284738
  0
ARC
  5
113
330
47
100
AcDbEntity
  8
0
  6
Continuous
 62
     0
100
AcDbCircle
 10
15.14743423461914
 20
-147.9305725097656
 30
0.0
 40
1.0
100
AcDbArc
 50
179.9999813306653
 51
270.0000179860893
  0
ARC
  5
114
330
47
100
AcDbEntity
  8
0
  6
Continuous
 62
     0
100
AcDbCircle
 10
13.14740371704102
 20
-147.9305725097656
 30
0.0
 40
1.0
100
AcDbArc
 50
270.0000179860893
 51
0.0
  0
ARC
  5
115
330
47
100
AcDbEntity
  8
0
  6
Continuous
 62
     0
100
AcDbCircle
 10
-6.852596282958984
 20
-147.9305725097656
 30
0.0
 40
1.0
100
AcDbArc
 50
270.0000179860893
 51
0.0
  0
ARC
  5
116
330
47
100
AcDbEntity
  8
0
  6
Continuous
 62
     0
100
AcDbCircle
 10
-4.852565765380859
 20
-147.9305725097656
 30
0.0
 40
1.0
100
AcDbArc
 50
179.9999813306653
 51
270.0000179860893
  0
ARC
  5
117
330
47
100
AcDbEntity
  8
0
  6
Continuous
 62
     0
100
AcDbCircle
 10
-35.85259628295898
 20
-146.6305847167969
 30
0.0
 40
4.0
100
AcDbArc
 50
179.9999813306653
 51
270.0000179860893
  0
ARC
  5
118
330
47
100
AcDbEntity
  8
0
  6
Continuous
 62
     0
100
AcDbCircle
 10
-35.85259628295898
 20
-146.6305847167969
 30
0.0
 40
5.800000190734863
100
AcDbArc
 50
179.9999813306653
 51
270.0000179860893
  0
ARC
  5
119
330
47
100
AcDbEntity
  8
0
  6
Continuous
 62
     0
100
AcDbCircle
 10
-40.06618881225586
 20
-124.6305847167969
 30
0.0
 40
16.0
100
AcDbArc
 50
184.9999939918165
 51
270.0000179860893
  0
ARC
  5
11A
330
47
100
AcDbEntity
  8
0
  6
Continuous
 62
     0
100
AcDbCircle
 10
-40.06618881225586
 20
-124.6305847167969
 30
0.0
 40
17.79999923706055
100
AcDbArc
 50
184.9999939918165
 51
264.8867812790669
  0
ARC
  5
11B
330
47
100
AcDbEntity
  8
0
  6
Continuous
 62
     0
100
AcDbCircle
 10
-40.06618881225586
 20
-124.6305847167969
 30
0.0
 40
14.30000114440918
100
AcDbArc
 50
184.9999939918165
 51
270.0000179860893
  0
ARC
  5
11C
330
47
100
AcDbEntity
  8
0
  6
Continuous
 62
     0
100
AcDbCircle
 10
-40.06618881225586
 20
-124.6305847167969
 30
0.0
 40
12.50000095367432
100
AcDbArc
 50
184.9999939918165
 51
270.0000179860893
  0
ARC
  5
11D
330
47
100
AcDbEntity
  8
0
  6
Continuous
 62
     0
100
AcDbCircle
 10
-56.71932601928711
 20
-86.88485717773438
 30
0.0
 40
1.0
100
AcDbArc
 50
89.99998201391067
 51
185.0000313304858
  0
ARC
  5
11E
330
47
100
AcDbEntity
  8
0
  6
Continuous
 62
     0
100
AcDbCircle
 10
-56.89431381225586
 20
-84.8848876953125
 30
0.0
 40
1.0
100
AcDbArc
 50
185.0000486333298
 51
270.0000179860893
  0
ARC
  5
11F
330
47
100
AcDbEntity
  8
0
  6
Continuous
 62
     0
100
AcDbCircle
 10
-63.81389999389648
 20
-76.93060302734375
 30
0.0
 40
1.0
100
AcDbArc
 50
185.0000486333298
 51
270.0000179860893
  0
ARC
  5
120
330
47
100
AcDbEntity
  8
0
  6
Continuous
 62
     0
100
AcDbCircle
 10
-65.12625122070312
 20
-61.93057250976562
 30
0.0
 40
1.0
100
AcDbArc
 50
89.99998201391067
 51
185.0000313304858
  0
ARC
  5
121
330
47
100
AcDbEntity
  8
0
  6
Continuous
 62
     0
100
AcDbCircle
 10
-81.68853759765625
 20
-41.63058471679688
 30
0.0
 40
2.5
100
AcDbArc
 50
89.99998201391067
 51
179.9999640278213
  0
ARC
  5
122
330
47
100
AcDbEntity
  8
0
  6
Continuous
 62
     0
100
AcDbCircle
 10
-81.68853759765625
 20
-56.23056030273438
 30
0.0
 40
2.5
100
AcDbArc
 50
179.9999813306653
 51
270.0000179860893
  0
ARC
  5
123
330
47
100
AcDbEntity
  8
0
  6
Continuous
 62
     0
100
AcDbCircle
 10
-81.38851928710938
 20
-55.93060302734375
 30
0.0
 40
1.0
100
AcDbArc
 50
179.9999813306653
 51
270.0000179860893
  0
ARC
  5
124
330
47
100
AcDbEntity
  8
0
  6
Continuous
 62
     0
100
AcDbCircle
 10
-81.38851928710938
 20
-41.93057250976562
 30
0.0
 40
1.0
100
AcDbArc
 50
89.99998201391067
 51
179.9999640278213
  0
ARC
  5
125
330
47
100
AcDbEntity
  8
0
  6
Continuous
 62
     0
100
AcDbCircle
 10
-74.1385498046875
 20
-39.18057250976562
 30
0.0
 40
1.749996185302734
100
AcDbArc
 50
0.0
 51
178.3631638347411
  0
ARC
  5
126
330
47
100
AcDbEntity
  8
0
  6
Continuous
 62
     0
100
AcDbCircle
 10
-74.1385498046875
 20
-39.18057250976562
 30
0.0
 40
1.749996185302734
100
AcDbArc
 50
270.0000179860893
 51
0.0
  0
ARC
  5
127
330
47
100
AcDbEntity
  8
0
  6
Continuous
 62
     0
100
AcDbCircle
 10
-67.08847045898438
 20
151.9527893066406
 30
0.0
 40
5.0
100
AcDbArc
 50
89.99998201391067
 51
179.9999640278213
  0
ARC
  5
128
330
47
100
AcDbEntity
  8
0
  6
Continuous
 62
     0
100
AcDbCircle
 10
-77.3885498046875
 20
162.2528991699219
 30
0.0
 40
5.0
100
AcDbArc
 50
89.99998201391067
 51
179.9999640278213
  0
ARC
  5
129
330
47
100
AcDbEntity
  8
0
  6
Continuous
 62
     0
100
AcDbCircle
 10
-65.8223876953125
 20
16.54379272460938
 30
0.0
 40
0.300000011920929
100
AcDbArc
 50
179.9999813306653
 51
270.0000179860893
  0
ARC
  5
12A
330
47
100
AcDbEntity
  8
0
  6
Continuous
 62
     0
100
AcDbCircle
 10
-65.12237548828125
 20
17.24380493164062
 30
0.0
 40
1.0
100
AcDbArc
 50
179.9999813306653
 51
270.0000179860893
  0
ARC
  5
12B
330
47
100
AcDbEntity
  8
0
  6
Continuous
 62
     0
100
AcDbCircle
 10
-8.662410736083984
 20
17.24380493164062
 30
0.0
 40
1.0
100
AcDbArc
 50
270.0000179860893
 51
348.7493926538777
  0
ARC
  5
12C
330
47
100
AcDbEntity
  8
0
  6
Continuous
 62
     0
100
AcDbCircle
 10
16.95718765258789
 20
17.24380493164062
 30
0.0
 40
1.0
100
AcDbArc
 50
191.2505869692403
 51
270.0000179860893
  0
ARC
  5
12D
330
47
100
AcDbEntity
  8
0
  6
Continuous
 62
     0
100
AcDbCircle
 10
62.02042007446289
 20
23.04379272460938
 30
0.0
 40
5.0
100
AcDbArc
 50
136.6208998543151
 51
179.9999640278213
  0
ARC
  5
12E
330
47
100
AcDbEntity
  8
0
  6
Continuous
 62
     0
100
AcDbCircle
 10
65.62042236328125
 20
19.24383544921875
 30
0.0
 40
5.0
100
AcDbArc
 50
135.0002598888111
 51
179.9999640278213
  0
ARC
  5
12F
330
47
100
AcDbEntity
  8
0
  6
Continuous
 62
     0
100
AcDbCircle
 10
45.01987075805664
 20
17.24380493164062
 30
0.0
 40
1.0
100
AcDbArc
 50
270.0000179860893
 51
0.0
  0
ARC
  5
130
330
47
100
AcDbEntity
  8
0
  6
Continuous
 62
     0
100
AcDbCircle
 10
48.91873550415039
 20
17.24380493164062
 30
0.0
 40
1.0
100
AcDbArc
 50
270.0000179860893
 51
0.0
  0
ARC
  5
131
330
47
100
AcDbEntity
  8
0
  6
Continuous
 62
     0
100
AcDbCircle
 10
67.62045288085938
 20
35.94552612304688
 30
0.0
 40
1.0
100
AcDbArc
 50
270.0000179860893
 51
0.0
  0
ARC
  5
132
330
47
100
AcDbEntity
  8
0
  6
Continuous
 62
     0
100
AcDbCircle
 10
68.32052612304688
 20
150.6866149902344
 30
0.0
 40
0.300000011920929
100
AcDbArc
 50
0.0
 51
90.00003665542401
  0
ARC
  5
133
330
47
100
AcDbEntity
  8
0
  6
Continuous
 62
     0
100
AcDbCircle
 10
67.62051391601562
 20
149.9866027832031
 30
0.0
 40
1.0
100
AcDbArc
 50
0.0
 51
90.00003665542401
  0
ARC
  5
134
330
47
100
AcDbEntity
  8
0
  6
Continuous
 62
     0
100
AcDbCircle
 10
67.6204833984375
 20
93.52665710449219
 30
0.0
 40
1.0
100
AcDbArc
 50
281.2506236246643
 51
0.0
  0
ARC
  5
135
330
47
100
AcDbEntity
  8
0
  6
Continuous
 62
     0
100
AcDbCircle
 10
67.6204833984375
 20
67.90705871582031
 30
0.0
 40
1.0
100
AcDbArc
 50
0.0
 51
78.74943101684906
  0
ARC
  5
136
330
47
100
AcDbEntity
  8
0
  6
Continuous
 62
     0
100
AcDbCircle
 10
61.82046890258789
 20
22.84384155273438
 30
0.0
 40
5.0
100
AcDbArc
 50
90.00003665542401
 51
133.3791008289303
  0
ARC
  5
137
330
47
100
AcDbEntity
  8
0
  6
Continuous
 62
     0
100
AcDbCircle
 10
65.62042236328125
 20
19.24380493164062
 30
0.0
 40
5.0
100
AcDbArc
 50
90.00003665542401
 51
134.9997407944342
  0
ARC
  5
138
330
47
100
AcDbEntity
  8
0
  6
Continuous
 62
     0
100
AcDbCircle
 10
67.62045288085938
 20
39.8443603515625
 30
0.0
 40
1.0
100
AcDbArc
 50
270.0000179860893
 51
0.0
  0
ARC
  5
139
330
47
100
AcDbEntity
  8
0
  6
Continuous
 62
     0
100
AcDbCircle
 10
-34.85259628295898
 20
119.7168884277344
 30
0.0
 40
5.0
100
AcDbArc
 50
89.99998201391067
 51
179.9999640278213
  0
ARC
  5
13A
330
47
100
AcDbEntity
  8
0
  6
Continuous
 62
     0
100
AcDbCircle
 10
-54.64834213256836
 20
139.5126647949219
 30
0.0
 40
5.0
100
AcDbArc
 50
89.99998201391067
 51
179.9999640278213
  0
ARC
  5
13B
330
47
100
AcDbEntity
  8
0
  6
Continuous
 62
     0
100
AcDbCircle
 10
-64.92752075195312
 20
149.7918395996094
 30
0.0
 40
5.0
100
AcDbArc
 50
89.99998201391067
 51
179.9999640278213
  0
DIMENSION
  5
13C
330
47
100
AcDbEntity
  8
0
 62
     0
100
AcDbDimension
  2
*D4
 10
46.14740371704102
 20
-187.2653879394531
 30
0.0
 11
-2.912875579833984
 21
-187.2653879394531
 31
0.0
 70
   160
 71
     5
 42
100.0000076293945
  3
ISO-25
100
AcDbAlignedDimension
 13
-53.85259628295898
 23
-150.6305847167969
 33
0.0
 14
46.14740371704102
 24
-150.6305847167969
 34
0.0
 50
180.0
100
AcDbRotatedDimension
1001
ACAD
1000
DSTYLE
1002
{
1070
   178
1070
     1
1070
   147
1040
0.800000011920929
1070
    77
1070
     1
1070
    74
1070
     0
1070
    73
1070
     0
1070
    42
1040
2.54
1070
    44
1040
6.0
1070
    76
1070
     0
1070
    75
1070
     0
1070
   279
1070
     0
1070
   271
1070
     0
1070
   144
1040
1.000000076293945
1070
   278
1070
    46
1070
   173
1070
     1
1070
    41
1040
3.0
1070
   140
1040
3.200000047683716
1070
   344
1005
13D
1070
   343
1005
13D
1002
}
  0
DIMENSION
  5
151
330
47
100
AcDbEntity
  8
0
 62
     0
100
AcDbDimension
  2
*D5
 10
-120.7764729003906
 20
-150.6305847167969
 30
0.0
 11
-120.7764729003906
 21
-94.76013891601562
 31
0.0
 70
   160
 71
     5
 42
109.6999969482422
  3
ISO-25
100
AcDbAlignedDimension
 13
-82.3885498046875
 23
-40.93060302734375
 33
0.0
 14
-53.85262680053711
 24
-150.6305847167969
 34
0.0
 50
90.00000000000001
100
AcDbRotatedDimension
1001
ACAD
1000
DSTYLE
1002
{
1070
   178
1070
     1
1070
   147
1040
0.800000011920929
1070
    77
1070
     1
1070
    74
1070
     0
1070
    73
1070
     0
1070
    42
1040
2.54
1070
    44
1040
6.0
1070
    76
1070
     0
1070
    75
1070
     0
1070
   279
1070
     0
1070
   271
1070
     1
1070
   144
1040
1.000000139095639
1070
   278
1070
    46
1070
   173
1070
     1
1070
    41
1040
3.0
1070
   140
1040
3.200000047683716
1070
   344
1005
13D
1070
   343
1005
13D
1002
}
  0
DIMENSION
  5
15E
330
47
100
AcDbEntity
  8
0
 62
     0
100
AcDbDimension
  2
*D6
 10
144.4179006347657
 20
-150.6305847167969
 30
0.0
 11
144.4179006347656
 21
-105.8099436035156
 31
0.0
 70
   160
 71
     5
 42
74.70000457763672
  3
ISO-25
100
AcDbAlignedDimension
 13
58.82040786743164
 23
-75.93057250976562
 33
0.0
 14
46.14737319946289
 24
-150.6305847167969
 34
0.0
 50
90.00000000000001
100
AcDbRotatedDimension
1001
ACAD
1000
DSTYLE
1002
{
1070
   178
1070
     1
1070
   147
1040
0.800000011920929
1070
    77
1070
     1
1070
    74
1070
     0
1070
    73
1070
     0
1070
    42
1040
2.54
1070
    44
1040
6.0
1070
    76
1070
     0
1070
    75
1070
     0
1070
   279
1070
     0
1070
   271
1070
     1
1070
   144
1040
0.999999897866221
1070
   278
1070
    46
1070
   173
1070
     1
1070
    41
1040
3.0
1070
   140
1040
3.200000047683716
1070
   344
1005
13D
1070
   343
1005
13D
1002
}
  0
DIMENSION
  5
16B
330
47
100
AcDbEntity
  8
0
 62
     0
100
AcDbDimension
  2
*D7
 10
-121.51413671875
 20
169.0525817871094
 30
0.0
 11
-121.51413671875
 21
80.13997705078125
 31
0.0
 70
   160
  1
182
 71
     5
 42
179.8087768554688
  3
ISO-25
100
AcDbAlignedDimension
 13
-83.39285278320312
 23
-10.75619506835938
 33
0.0
 14
-84.1884765625
 24
169.0525817871094
 34
0.0
 50
270.0
100
AcDbRotatedDimension
1001
ACAD
1000
DSTYLE
1002
{
1070
   178
1070
     1
1070
   147
1040
0.800000011920929
1070
    77
1070
     1
1070
    74
1070
     0
1070
    73
1070
     0
1070
    42
1040
2.54
1070
    44
1040
5.999969482421875
1070
    76
1070
     0
1070
    75
1070
     0
1070
   279
1070
     0
1070
   271
1070
     0
1070
   278
1070
    46
1070
   173
1070
     1
1070
    41
1040
3.0
1070
   140
1040
3.200000047683716
1070
   344
1005
13D
1070
   343
1005
13D
1002
}
  0
ENDBLK
  5
49
330
47
100
AcDbEntity
  8
0
100
AcDbBlockEnd
  0
BLOCK
  5
13E
330
13D
100
AcDbEntity
  8
0
100
AcDbBlockBegin
  2
_OPEN30
 70
     0
 10
0.0
 20
0.0
 30
0.0
  3
_OPEN30
  1

  0
LINE
  5
140
330
13D
100
AcDbEntity
  8
0
  6
ByBlock
 62
     0
370
    -2
100
AcDbLine
 10
-1.0
 20
0.267949
 30
0.0
 11
0.0
 21
0.0
 31
0.0
  0
LINE
  5
141
330
13D
100
AcDbEntity
  8
0
  6
ByBlock
 62
     0
370
    -2
100
AcDbLine
 10
0.0
 20
0.0
 30
0.0
 11
-1.0
 21
-0.267949
 31
0.0
  0
LINE
  5
142
330
13D
100
AcDbEntity
  8
0
  6
ByBlock
 62
     0
370
    -2
100
AcDbLine
 10
0.0
 20
0.0
 30
0.0
 11
-1.0
 21
0.0
 31
0.0
  0
ENDBLK
  5
13F
330
13D
100
AcDbEntity
  8
0
100
AcDbBlockEnd
  0
BLOCK
  5
145
330
144
100
AcDbEntity
  8
0
100
AcDbBlockBegin
  2
*D4
 70
     1
 10
0.0
 20
0.0
 30
0.0
  3
*D4
  1

  0
LINE
  5
147
330
144
100
AcDbEntity
  8
0
 62
     0
370
    -2
100
AcDbLine
 10
-53.85259628295898
 20
-153.1705847167969
 30
0.0
 11
-53.85259628295898
 21
-193.2653879394531
 31
0.0
  0
LINE
  5
148
330
144
100
AcDbEntity
  8
0
 62
     0
370
    -2
100
AcDbLine
 10
46.14740371704102
 20
-153.1705847167969
 30
0.0
 11
46.14740371704102
 21
-193.2653879394531
 31
0.0
  0
LINE
  5
149
330
144
100
AcDbEntity
  8
0
 62
     0
370
    -2
100
AcDbLine
 10
-50.85259628295898
 20
-187.2653879394531
 30
0.0
 11
43.14740371704102
 21
-187.2653879394531
 31
0.0
  0
INSERT
  5
14A
330
144
100
AcDbEntity
  8
0
 62
     0
370
    -2
100
AcDbBlockReference
  2
_OPEN30
 10
-53.85259628295898
 20
-187.2653879394531
 30
0.0
 41
3.0
 42
3.0
 43
3.0
 50
180.0
  0
INSERT
  5
14B
330
144
100
AcDbEntity
  8
0
 62
     0
370
    -2
100
AcDbBlockReference
  2
_OPEN30
 10
46.14740371704102
 20
-187.2653879394531
 30
0.0
 41
3.0
 42
3.0
 43
3.0
  0
MTEXT
  5
14C
330
144
100
AcDbEntity
  8
0
 62
     1
 60
     1
100
AcDbMText
 10
-2.912875579833984
 20
-184.8509879034758
 30
0.0
 40
3.200000047683716
 41
0.0
 71
     5
 72
     1
  1
100
 73
     1
 44
1.0
  0
POINT
  5
14D
330
144
100
AcDbEntity
  8
Defpoints
 62
     0
100
AcDbPoint
 10
-53.85259628295898
 20
-150.6305847167969
 30
0.0
  0
POINT
  5
14E
330
144
100
AcDbEntity
  8
Defpoints
 62
     0
100
AcDbPoint
 10
46.14740371704102
 20
-150.6305847167969
 30
0.0
  0
POINT
  5
14F
330
144
100
AcDbEntity
  8
Defpoints
 62
     0
100
AcDbPoint
 10
46.14740371704102
 20
-187.2663879394531
 30
0.0
  0
MTEXT
  5
150
330
144
100
AcDbEntity
  8
0
 62
     1
100
AcDbMText
 10
-7.255472756714222
 20
-186.4588091848136
 30
0.0
 40
3.200000047683716
 41
0.0
 71
     7
 72
     1
  1
\W1;100
 11
0.9999984769132877
 21
-0.001745328365898445
 31
0.0
 73
     1
 44
1.0
  0
ENDBLK
  5
146
330
144
100
AcDbEntity
  8
0
100
AcDbBlockEnd
  0
BLOCK
  5
153
330
152
100
AcDbEntity
  8
0
100
AcDbBlockBegin
  2
*D5
 70
     1
 10
0.0
 20
0.0
 30
0.0
  3
*D5
  1

  0
LINE
  5
155
330
152
100
AcDbEntity
  8
0
 62
     0
370
    -2
100
AcDbLine
 10
-84.9285498046875
 20
-40.93060302734375
 30
0.0
 11
-126.7764729003906
 21
-40.93060302734377
 31
0.0
  0
LINE
  5
156
330
152
100
AcDbEntity
  8
0
 62
     0
370
    -2
100
AcDbLine
 10
-56.39262680053711
 20
-150.6305847167969
 30
0.0
 11
-126.7764729003906
 21
-150.6305847167969
 31
0.0
  0
LINE
  5
157
330
152
100
AcDbEntity
  8
0
 62
     0
370
    -2
100
AcDbLine
 10
-120.7764729003906
 20
-43.93060302734377
 30
0.0
 11
-120.7764729003906
 21
-147.6305847167969
 31
0.0
  0
INSERT
  5
158
330
152
100
AcDbEntity
  8
0
 62
     0
370
    -2
100
AcDbBlockReference
  2
_OPEN30
 10
-120.7764729003906
 20
-40.93060302734377
 30
0.0
 41
3.0
 42
3.0
 43
3.0
 50
90.00000000000001
  0
INSERT
  5
159
330
152
100
AcDbEntity
  8
0
 62
     0
370
    -2
100
AcDbBlockReference
  2
_OPEN30
 10
-120.7764729003906
 20
-150.6305847167969
 30
0.0
 41
3.0
 42
3.0
 43
3.0
 50
270.0
  0
MTEXT
  5
15A
330
152
100
AcDbEntity
  8
0
 62
     1
100
AcDbMText
 10
-123.1972729364633
 20
-94.76013891601562
 30
0.0
 40
3.200000047683716
 41
0.0
 71
     5
 72
     1
  1
109.7
 11
-3.886287261769418E-16
 21
1.0
 31
0.0
 73
     1
 44
1.0
  0
POINT
  5
15B
330
152
100
AcDbEntity
  8
Defpoints
 62
     0
100
AcDbPoint
 10
-82.3885498046875
 20
-40.93060302734375
 30
0.0
  0
POINT
  5
15C
330
152
100
AcDbEntity
  8
Defpoints
 62
     0
100
AcDbPoint
 10
-53.85262680053711
 20
-150.6305847167969
 30
0.0
  0
POINT
  5
15D
330
152
100
AcDbEntity
  8
Defpoints
 62
     0
100
AcDbPoint
 10
-120.7784729003906
 20
-150.6305847167969
 30
0.0
  0
ENDBLK
  5
154
330
152
100
AcDbEntity
  8
0
100
AcDbBlockEnd
  0
BLOCK
  5
160
330
15F
100
AcDbEntity
  8
0
100
AcDbBlockBegin
  2
*D6
 70
     1
 10
0.0
 20
0.0
 30
0.0
  3
*D6
  1

  0
LINE
  5
162
330
15F
100
AcDbEntity
  8
0
 62
     0
370
    -2
100
AcDbLine
 10
61.36040786743164
 20
-75.93057250976562
 30
0.0
 11
150.4179006347656
 21
-75.9305725097656
 31
0.0
  0
LINE
  5
163
330
15F
100
AcDbEntity
  8
0
 62
     0
370
    -2
100
AcDbLine
 10
48.68737319946289
 20
-150.6305847167969
 30
0.0
 11
150.4179006347657
 21
-150.6305847167969
 31
0.0
  0
LINE
  5
164
330
15F
100
AcDbEntity
  8
0
 62
     0
370
    -2
100
AcDbLine
 10
144.4179006347656
 20
-78.9305725097656
 30
0.0
 11
144.4179006347657
 21
-147.6305847167969
 31
0.0
  0
INSERT
  5
165
330
15F
100
AcDbEntity
  8
0
 62
     0
370
    -2
100
AcDbBlockReference
  2
_OPEN30
 10
144.4179006347656
 20
-75.9305725097656
 30
0.0
 41
3.0
 42
3.0
 43
3.0
 50
90.00000000000001
  0
INSERT
  5
166
330
15F
100
AcDbEntity
  8
0
 62
     0
370
    -2
100
AcDbBlockReference
  2
_OPEN30
 10
144.4179006347657
 20
-150.6305847167969
 30
0.0
 41
3.0
 42
3.0
 43
3.0
 50
270.0
  0
MTEXT
  5
167
330
15F
100
AcDbEntity
  8
0
 62
     1
100
AcDbMText
 10
141.9971005986929
 20
-105.8099436035156
 30
0.0
 40
3.200000047683716
 41
0.0
 71
     5
 72
     1
  1
74.7
 11
-3.804779757148256E-16
 21
1.0
 31
0.0
 73
     1
 44
1.0
  0
POINT
  5
168
330
15F
100
AcDbEntity
  8
Defpoints
 62
     0
100
AcDbPoint
 10
58.82040786743164
 20
-75.93057250976562
 30
0.0
  0
POINT
  5
169
330
15F
100
AcDbEntity
  8
Defpoints
 62
     0
100
AcDbPoint
 10
46.14737319946289
 20
-150.6305847167969
 30
0.0
  0
POINT
  5
16A
330
15F
100
AcDbEntity
  8
Defpoints
 62
     0
100
AcDbPoint
 10
144.4169006347656
 20
-150.6305847167968
 30
0.0
  0
ENDBLK
  5
161
330
15F
100
AcDbEntity
  8
0
100
AcDbBlockEnd
  0
BLOCK
  5
16D
330
16C
100
AcDbEntity
  8
0
100
AcDbBlockBegin
  2
*D7
 70
     1
 10
0.0
 20
0.0
 30
0.0
  3
*D7
  1

  0
LINE
  5
16F
330
16C
100
AcDbEntity
  8
0
 62
     0
370
    -2
100
AcDbLine
 10
-85.93285278320313
 20
-10.75619506835938
 30
0.0
 11
-127.5141062011719
 21
-10.75619506835938
 31
0.0
  0
LINE
  5
170
330
16C
100
AcDbEntity
  8
0
 62
     0
370
    -2
100
AcDbLine
 10
-86.7284765625
 20
169.0525817871094
 30
0.0
 11
-127.5141062011719
 21
169.0525817871094
 31
0.0
  0
LINE
  5
171
330
16C
100
AcDbEntity
  8
0
 62
     0
370
    -2
100
AcDbLine
 10
-121.51413671875
 20
-7.756195068359375
 30
0.0
 11
-121.51413671875
 21
166.0525817871094
 31
0.0
  0
INSERT
  5
172
330
16C
100
AcDbEntity
  8
0
 62
     0
370
    -2
100
AcDbBlockReference
  2
_OPEN30
 10
-121.51413671875
 20
-10.75619506835938
 30
0.0
 41
3.0
 42
3.0
 43
3.0
 50
270.0
  0
INSERT
  5
173
330
16C
100
AcDbEntity
  8
0
 62
     0
370
    -2
100
AcDbBlockReference
  2
_OPEN30
 10
-121.51413671875
 20
169.0525817871094
 30
0.0
 41
3.0
 42
3.0
 43
3.0
 50
90.0
  0
MTEXT
  5
174
330
16C
100
AcDbEntity
  8
0
 62
     1
100
AcDbMText
 10
-123.9285367547274
 20
80.13997705078125
 30
0.0
 40
3.200000047683716
 41
0.0
 71
     5
 72
     1
  1
182
 11
1.580663075932580E-16
 21
1.0
 31
0.0
 73
     1
 44
1.0
  0
POINT
  5
175
330
16C
100
AcDbEntity
  8
Defpoints
 62
     0
100
AcDbPoint
 10
-83.39285278320312
 20
-10.75619506835938
 30
0.0
  0
POINT
  5
176
330
16C
100
AcDbEntity
  8
Defpoints
 62
     0
100
AcDbPoint
 10
-84.1884765625
 20
169.0525817871094
 30
0.0
  0
POINT
  5
177
330
16C
100
AcDbEntity
  8
Defpoints
 62
     0
100
AcDbPoint
 10
-121.51513671875
 20
169.0525817871094
 30
0.0
  0
ENDBLK
  5
16E
330
16C
100
AcDbEntity
  8
0
100
AcDbBlockEnd
  0
BLOCK
  5
27F
330
27E
100
AcDbEntity
  8
0
100
AcDbBlockBegin
  2
*D8
 70
     1
 10
0.0
 20
0.0
 30
0.0
  3
*D8
  1

  0
LINE
  5
281
330
27E
100
AcDbEntity
  8
0
 62
     0
370
    -2
100
AcDbLine
 10
9.662381134033204
 20
23.08126831054688
 30
0.0
 11
0.938152564525599
 21
23.08126831054688
 31
0.0
  0
LINE
  5
282
330
27E
100
AcDbEntity
  8
0
 62
     0
370
    -2
100
AcDbLine
 10
9.39717384338379
 20
83.01751708984375
 30
0.0
 11
0.93815256452561
 21
83.01751708984375
 31
0.0
  0
LINE
  5
283
330
27E
100
AcDbEntity
  8
0
 62
     0
370
    -2
100
AcDbLine
 10
1.938152504920954
 20
26.08126831054688
 30
0.0
 11
1.938152504920964
 21
80.01751708984375
 31
0.0
  0
INSERT
  5
284
330
27E
100
AcDbEntity
  8
0
 62
     0
370
    -2
100
AcDbBlockReference
  2
_OPEN30
 10
1.938152504920954
 20
23.08126831054688
 30
0.0
 41
3.0
 42
3.0
 43
3.0
 50
270.0
  0
INSERT
  5
285
330
27E
100
AcDbEntity
  8
0
 62
     0
370
    -2
100
AcDbBlockReference
  2
_OPEN30
 10
1.938152504920965
 20
83.01751708984375
 30
0.0
 41
3.0
 42
3.0
 43
3.0
 50
89.99999999999999
  0
MTEXT
  5
286
330
27E
100
AcDbEntity
  8
0
 62
     1
100
AcDbMText
 10
-0.476247531056406
 20
53.05039270019531
 30
0.0
 40
3.200000047683716
 41
0.0
 71
     5
 72
     1
  1
182
 11
1.852339856492068E-16
 21
1.0
 31
0.0
 73
     1
 44
1.0
  0
POINT
  5
287
330
27E
100
AcDbEntity
  8
Defpoints
 62
     0
100
AcDbPoint
 10
12.2023811340332
 20
23.08126831054688
 30
0.0
  0
POINT
  5
288
330
27E
100
AcDbEntity
  8
Defpoints
 62
     0
100
AcDbPoint
 10
11.93717384338379
 20
83.01751708984375
 30
0.0
  0
POINT
  5
289
330
27E
100
AcDbEntity
  8
Defpoints
 62
     0
100
AcDbPoint
 10
1.937152504920959
 20
83.01751708984375
 30
0.0
  0
ENDBLK
  5
280
330
27E
100
AcDbEntity
  8
0
100
AcDbBlockEnd
  0
BLOCK
  5
28C
330
28B
100
AcDbEntity
  8
0
100
AcDbBlockBegin
  2
*D9
 70
     1
 10
0.0
 20
0.0
 30
0.0
  3
*D9
  1

  0
LINE
  5
28E
330
28B
100
AcDbEntity
  8
0
 62
     0
370
    -2
100
AcDbLine
 10
11.93715286254883
 20
85.55760864257813
 30
0.0
 11
11.93715286254883
 21
94.01760864257814
 31
0.0
  0
LINE
  5
28F
330
28B
100
AcDbEntity
  8
0
 62
     0
370
    -2
100
AcDbLine
 10
71.8735580444336
 20
85.29234985351563
 30
0.0
 11
71.8735580444336
 21
94.01760864257812
 31
0.0
  0
LINE
  5
290
330
28B
100
AcDbEntity
  8
0
 62
     0
370
    -2
100
AcDbLine
 10
14.93715286254883
 20
93.01760864257814
 30
0.0
 11
68.8735580444336
 21
93.01760864257812
 31
0.0
  0
INSERT
  5
291
330
28B
100
AcDbEntity
  8
0
 62
     0
370
    -2
100
AcDbBlockReference
  2
_OPEN30
 10
11.93715286254883
 20
93.01760864257814
 30
0.0
 41
3.0
 42
3.0
 43
3.0
 50
180.0
  0
INSERT
  5
292
330
28B
100
AcDbEntity
  8
0
 62
     0
370
    -2
100
AcDbBlockReference
  2
_OPEN30
 10
71.8735580444336
 20
93.01760864257812
 30
0.0
 41
3.0
 42
3.0
 43
3.0
 50
360.0
  0
MTEXT
  5
293
330
28B
100
AcDbEntity
  8
0
 62
     1
100
AcDbMText
 10
41.90635736083984
 20
95.43200867855549
 30
0.0
 40
3.200000047683716
 41
0.0
 71
     5
 72
     1
  1
182
 73
     1
 44
1.0
  0
POINT
  5
294
330
28B
100
AcDbEntity
  8
Defpoints
 62
     0
100
AcDbPoint
 10
11.93715286254883
 20
83.01760864257812
 30
0.0
  0
POINT
  5
295
330
28B
100
AcDbEntity
  8
Defpoints
 62
     0
100
AcDbPoint
 10
71.8735580444336
 20
82.75234985351562
 30
0.0
  0
POINT
  5
296
330
28B
100
AcDbEntity
  8
Defpoints
 62
     0
100
AcDbPoint
 10
71.8735580444336
 20
93.01760864257812
 30
0.0
  0
ENDBLK
  5
28D
330
28B
100
AcDbEntity
  8
0
100
AcDbBlockEnd
  0
BLOCK
  5
299
330
298
100
AcDbEntity
  8
0
100
AcDbBlockBegin
  2
*D10
 70
     1
 10
0.0
 20
0.0
 30
0.0
  3
*D10
  1

  0
LINE
  5
29B
330
298
100
AcDbEntity
  8
0
 62
     0
370
    -2
100
AcDbLine
 10
22.04916954040527
 20
-76.08352569580079
 30
0.0
 11
22.04916954040527
 21
-85.11424200439453
 31
0.0
  0
LINE
  5
29C
330
298
100
AcDbEntity
  8
0
 62
     0
370
    -2
100
AcDbLine
 10
55.38248825073242
 20
-76.08352569580079
 30
0.0
 11
55.38248825073242
 21
-85.11424200439453
 31
0.0
  0
LINE
  5
29D
330
298
100
AcDbEntity
  8
0
 62
     0
370
    -2
100
AcDbLine
 10
25.04916954040527
 20
-84.11424200439453
 30
0.0
 11
52.38248825073242
 21
-84.11424200439453
 31
0.0
  0
INSERT
  5
29E
330
298
100
AcDbEntity
  8
0
 62
     0
370
    -2
100
AcDbBlockReference
  2
_OPEN30
 10
22.04916954040527
 20
-84.11424200439453
 30
0.0
 41
3.0
 42
3.0
 43
3.0
 50
180.0
  0
INSERT
  5
29F
330
298
100
AcDbEntity
  8
0
 62
     0
370
    -2
100
AcDbBlockReference
  2
_OPEN30
 10
55.38248825073242
 20
-84.11424200439453
 30
0.0
 41
3.0
 42
3.0
 43
3.0
  0
MTEXT
  5
2A0
330
298
100
AcDbEntity
  8
0
 62
     1
100
AcDbMText
 10
38.71682794189453
 20
-81.69984196841716
 30
0.0
 40
3.200000047683716
 41
0.0
 71
     5
 72
     1
  1
100
 73
     1
 44
1.0
  0
POINT
  5
2A1
330
298
100
AcDbEntity
  8
Defpoints
 62
     0
100
AcDbPoint
 10
22.04916954040527
 20
-73.54352569580078
 30
0.0
  0
POINT
  5
2A2
330
298
100
AcDbEntity
  8
Defpoints
 62
     0
100
AcDbPoint
 10
55.38248825073242
 20
-73.54352569580078
 30
0.0
  0
POINT
  5
2A3
330
298
100
AcDbEntity
  8
Defpoints
 62
     0
100
AcDbPoint
 10
55.38248825073242
 20
-84.11524200439453
 30
0.0
  0
ENDBLK
  5
29A
330
298
100
AcDbEntity
  8
0
100
AcDbBlockEnd
  0
BLOCK
  5
2A6
330
2A5
100
AcDbEntity
  8
0
100
AcDbBlockBegin
  2
*D11
 70
     1
 10
0.0
 20
0.0
 30
0.0
  3
*D11
  1

  0
LINE
  5
2A8
330
2A5
100
AcDbEntity
  8
0
 62
     0
370
    -2
100
AcDbLine
 10
10.3304833984375
 20
-36.97686767578125
 30
0.0
 11
0.939152564525597
 21
-36.97686767578126
 31
0.0
  0
LINE
  5
2A9
330
2A5
100
AcDbEntity
  8
0
 62
     0
370
    -2
100
AcDbLine
 10
19.50912376403809
 20
-73.54352569580078
 30
0.0
 11
0.939152564525611
 21
-73.5435256958008
 31
0.0
  0
LINE
  5
2AA
330
2A5
100
AcDbEntity
  8
0
 62
     0
370
    -2
100
AcDbLine
 10
1.939152504920953
 20
-39.97686767578126
 30
0.0
 11
1.939152504920965
 21
-70.5435256958008
 31
0.0
  0
INSERT
  5
2AB
330
2A5
100
AcDbEntity
  8
0
 62
     0
370
    -2
100
AcDbBlockReference
  2
_OPEN30
 10
1.939152504920952
 20
-36.97686767578126
 30
0.0
 41
3.0
 42
3.0
 43
3.0
 50
90.00000000000001
  0
INSERT
  5
2AC
330
2A5
100
AcDbEntity
  8
0
 62
     0
370
    -2
100
AcDbBlockReference
  2
_OPEN30
 10
1.939152504920966
 20
-73.5435256958008
 30
0.0
 41
3.0
 42
3.0
 43
3.0
 50
270.0
  0
MTEXT
  5
2AD
330
2A5
100
AcDbEntity
  8
0
 62
     1
100
AcDbMText
 10
-0.475247531056406
 20
-55.25919668579102
 30
0.0
 40
3.200000047683716
 41
0.0
 71
     5
 72
     1
  1
110
 11
-3.825564289363925E-16
 21
1.0
 31
0.0
 73
     1
 44
1.0
  0
POINT
  5
2AE
330
2A5
100
AcDbEntity
  8
Defpoints
 62
     0
100
AcDbPoint
 10
12.8704833984375
 20
-36.97686767578125
 30
0.0
  0
POINT
  5
2AF
330
2A5
100
AcDbEntity
  8
Defpoints
 62
     0
100
AcDbPoint
 10
22.04912376403809
 20
-73.54352569580078
 30
0.0
  0
POINT
  5
2B0
330
2A5
100
AcDbEntity
  8
Defpoints
 62
     0
100
AcDbPoint
 10
1.937152504920959
 20
-73.5435256958008
 30
0.0
  0
ENDBLK
  5
2A7
330
2A5
100
AcDbEntity
  8
0
100
AcDbBlockEnd
  0
BLOCK
  5
2B3
330
2B2
100
AcDbEntity
  8
0
100
AcDbBlockBegin
  2
*D12
 70
     1
 10
0.0
 20
0.0
 30
0.0
  3
*D12
  1

  0
LINE
  5
2B5
330
2B2
100
AcDbEntity
  8
0
 62
     0
370
    -2
100
AcDbLine
 10
61.81347183227539
 20
-48.64352416992188
 30
0.0
 11
82.87447412109375
 21
-48.64352416992187
 31
0.0
  0
LINE
  5
2B6
330
2B2
100
AcDbEntity
  8
0
 62
     0
370
    -2
100
AcDbLine
 10
57.92248825073242
 20
-73.54352569580078
 30
0.0
 11
82.87447412109377
 21
-73.54352569580077
 31
0.0
  0
LINE
  5
2B7
330
2B2
100
AcDbEntity
  8
0
 62
     0
370
    -2
100
AcDbLine
 10
81.87447412109375
 20
-51.64352416992187
 30
0.0
 11
81.87447412109377
 21
-70.54352569580077
 31
0.0
  0
INSERT
  5
2B8
330
2B2
100
AcDbEntity
  8
0
 62
     0
370
    -2
100
AcDbBlockReference
  2
_OPEN30
 10
81.87447412109375
 20
-48.64352416992187
 30
0.0
 41
3.0
 42
3.0
 43
3.0
 50
90.00000000000004
  0
INSERT
  5
2B9
330
2B2
100
AcDbEntity
  8
0
 62
     0
370
    -2
100
AcDbBlockReference
  2
_OPEN30
 10
81.87447412109377
 20
-73.54352569580077
 30
0.0
 41
3.0
 42
3.0
 43
3.0
 50
270.0000000000001
  0
MTEXT
  5
2BA
330
2B2
100
AcDbEntity
  8
0
 62
     1
100
AcDbMText
 10
79.46007408511639
 20
-61.09252493286133
 30
0.0
 40
3.200000047683716
 41
0.0
 71
     5
 72
     1
  1
75
 11
-5.707170218617246E-16
 21
1.0
 31
0.0
 73
     1
 44
1.0
  0
POINT
  5
2BB
330
2B2
100
AcDbEntity
  8
Defpoints
 62
     0
100
AcDbPoint
 10
59.27347183227539
 20
-48.64352416992188
 30
0.0
  0
POINT
  5
2BC
330
2B2
100
AcDbEntity
  8
Defpoints
 62
     0
100
AcDbPoint
 10
55.38248825073242
 20
-73.54352569580078
 30
0.0
  0
POINT
  5
2BD
330
2B2
100
AcDbEntity
  8
Defpoints
 62
     0
100
AcDbPoint
 10
81.87347412109375
 20
-73.54352569580077
 30
0.0
  0
ENDBLK
  5
2B4
330
2B2
100
AcDbEntity
  8
0
100
AcDbBlockEnd
  0
ENDSEC
  0
SECTION
  2
ENTITIES
  0
LINE
  5
178
330
1F
100
AcDbEntity
  8
0
  6
Continuous
 62
     7
100
AcDbLine
 10
28.04912376403809
 20
-73.54352569580078
 30
0.0
 11
52.93891525268555
 21
-73.54352569580078
 31
0.0
  0
LINE
  5
179
330
1F
100
AcDbEntity
  8
0
  6
Continuous
 62
     7
100
AcDbLine
 10
56.90681076049805
 20
-48.64352416992188
 30
0.0
 11
59.27347183227539
 21
-48.64352416992188
 31
0.0
  0
LINE
  5
17A
330
1F
100
AcDbEntity
  8
0
  6
Continuous
 62
     7
100
AcDbLine
 10
56.06902313232422
 20
-52.31018829345703
 30
0.0
 11
59.27347183227539
 21
-52.31018829345703
 31
0.0
  0
LINE
  5
17B
330
1F
100
AcDbEntity
  8
0
  6
Continuous
 62
     7
100
AcDbLine
 10
57.2401548509682
 20
-52.31021929276611
 30
0.0
 11
55.59545489591915
 21
-71.10929817367231
 31
0.0
  0
LINE
  5
17C
330
1F
100
AcDbEntity
  8
0
  6
Continuous
 62
     7
100
AcDbLine
 10
57.24013519287109
 20
-52.31018829345703
 30
0.0
 11
59.27347183227539
 21
-52.31018829345703
 31
0.0
  0
LINE
  5
17D
330
1F
100
AcDbEntity
  8
0
  6
Continuous
 62
     7
100
AcDbLine
 10
59.60680389404297
 20
-48.97686767578125
 30
0.0
 11
59.60680389404297
 21
-51.97686767578125
 31
0.0
  0
LINE
  5
17E
330
1F
100
AcDbEntity
  8
0
  6
Continuous
 62
     7
100
AcDbLine
 10
56.90681076049805
 20
-48.64352416992188
 30
0.0
 11
56.90681076049805
 21
-48.95569610595703
 31
0.0
  0
LINE
  5
17F
330
1F
100
AcDbEntity
  8
0
  6
Continuous
 62
     7
100
AcDbLine
 10
57.68449020385742
 20
-48.04352569580078
 30
0.0
 11
59.37346649169922
 21
-48.04352569580078
 31
0.0
  0
LINE
  5
180
330
1F
100
AcDbEntity
  8
0
  6
Continuous
 62
     7
100
AcDbLine
 10
60.20680999755859
 20
-48.87686157226562
 30
0.0
 11
60.20680999755859
 21
-52.07686614990234
 31
0.0
  0
LINE
  5
181
330
1F
100
AcDbEntity
  8
0
  6
Continuous
 62
     7
100
AcDbLine
 10
57.7899284362793
 20
-52.91018676757812
 30
0.0
 11
59.37346649169922
 21
-52.91018676757812
 31
0.0
  0
LINE
  5
182
330
1F
100
AcDbEntity
  8
0
  6
Continuous
 62
     7
100
AcDbLine
 10
57.78992596755038
 20
-52.91016907401718
 30
0.0
 11
56.19314313544555
 21
-71.16155062495814
 31
0.0
  0
LINE
  5
183
330
1F
100
AcDbEntity
  8
0
  6
Continuous
 62
     7
100
AcDbLine
 10
56.63959662768393
 20
-52.67256723211533
 30
0.0
 11
56.26048070233637
 21
-57.00589877002739
 31
0.0
  0
LINE
  5
184
330
1F
100
AcDbEntity
  8
0
  6
Continuous
 62
     7
100
AcDbLine
 10
56.06903411965222
 20
-52.31017751965134
 30
0.0
 11
55.63159404836359
 21
-57.31015966264293
 31
0.0
  0
LINE
  5
185
330
1F
100
AcDbEntity
  8
0
  6
Continuous
 62
     7
100
AcDbLine
 10
55.63157272338867
 20
-57.31019592285156
 30
0.0
 11
55.87009048461914
 21
-57.31019592285156
 31
0.0
  0
LINE
  5
186
330
1F
100
AcDbEntity
  8
0
  6
Continuous
 62
     7
100
AcDbLine
 10
55.33994674682617
 20
-60.64352416992188
 30
0.0
 11
55.57846450805664
 21
-60.64352416992188
 31
0.0
  0
LINE
  5
187
330
1F
100
AcDbEntity
  8
0
  6
Continuous
 62
     7
100
AcDbLine
 10
55.33996600428515
 20
-60.6434962920292
 30
0.0
 11
54.47848712306362
 21
-70.49028287009254
 31
0.0
  0
LINE
  5
188
330
1F
100
AcDbEntity
  8
0
  6
Continuous
 62
     7
100
AcDbLine
 10
56.20215589145229
 20
-57.67255697546952
 30
0.0
 11
55.96885265825793
 21
-60.33923539941366
 31
0.0
  0
LINE
  5
189
330
1F
100
AcDbEntity
  8
0
  6
Continuous
 62
     7
100
AcDbLine
 10
55.91052784737385
 20
-61.00589360485579
 30
0.0
 11
55.07617897329457
 21
-70.54258158849701
 31
0.0
  0
LINE
  5
18A
330
1F
100
AcDbEntity
  8
0
  6
Continuous
 62
     7
100
AcDbLine
 10
30.61579513549805
 20
-72.97686767578125
 30
0.0
 11
37.71580123901367
 21
-72.97686767578125
 31
0.0
  0
LINE
  5
18B
330
1F
100
AcDbEntity
  8
0
  6
Continuous
 62
     7
100
AcDbLine
 10
30.86431884765625
 20
-72.37686157226562
 30
0.0
 11
38.04913330078125
 21
-72.37686157226562
 31
0.0
  0
LINE
  5
18C
330
1F
100
AcDbEntity
  8
0
  6
Continuous
 62
     7
100
AcDbLine
 10
55.48412614809009
 20
-72.38179648299983
 30
0.0
 11
55.38248561986772
 21
-73.54355750918792
 31
0.0
  0
LINE
  5
18D
330
1F
100
AcDbEntity
  8
0
  6
Continuous
 62
     7
100
AcDbLine
 10
54.30040740966797
 20
-73.54352569580078
 30
0.0
 11
55.3824577331543
 21
-73.54352569580078
 31
0.0
  0
LINE
  5
18E
330
1F
100
AcDbEntity
  8
0
  6
Continuous
 62
     7
100
AcDbLine
 10
44.71580123901367
 20
-72.37686157226562
 30
0.0
 11
44.71580123901367
 21
-72.64352416992188
 31
0.0
  0
LINE
  5
18F
330
1F
100
AcDbEntity
  8
0
  6
Continuous
 62
     7
100
AcDbLine
 10
38.04914474487305
 20
-72.37686157226562
 30
0.0
 11
38.04914474487305
 21
-72.64352416992188
 31
0.0
  0
LINE
  5
190
330
1F
100
AcDbEntity
  8
0
  6
Continuous
 62
     7
100
AcDbLine
 10
44.71580123901367
 20
-72.37686157226562
 30
0.0
 11
52.41967010498047
 21
-72.37686157226562
 31
0.0
  0
LINE
  5
191
330
1F
100
AcDbEntity
  8
0
  6
Continuous
 62
     7
100
AcDbLine
 10
38.38246917724609
 20
-72.97686767578125
 30
0.0
 11
44.3824577331543
 21
-72.97686767578125
 31
0.0
  0
LINE
  5
192
330
1F
100
AcDbEntity
  8
0
  6
Continuous
 62
     7
100
AcDbLine
 10
45.04913330078125
 20
-72.97686767578125
 30
0.0
 11
52.41967010498047
 21
-72.97686767578125
 31
0.0
  0
LINE
  5
193
330
1F
100
AcDbEntity
  8
0
  6
Continuous
 62
     7
100
AcDbLine
 10
26.71580123901367
 20
-70.20973205566406
 30
0.0
 11
26.71580123901367
 21
-72.21019744873047
 31
0.0
  0
LINE
  5
194
330
1F
100
AcDbEntity
  8
0
  6
Continuous
 62
     7
100
AcDbLine
 10
-58.35723114013672
 20
68.83894348144531
 30
0.0
 11
-59.78083801269531
 21
68.83894348144531
 31
0.0
  0
LINE
  5
195
330
1F
100
AcDbEntity
  8
0
  6
Continuous
 62
     7
100
AcDbLine
 10
26.71580123901367
 20
-70.20973205566406
 30
0.0
 11
26.71580123901367
 21
-72.21019744873047
 31
0.0
  0
LINE
  5
196
330
1F
100
AcDbEntity
  8
0
  6
Continuous
 62
     7
100
AcDbLine
 10
20.11724570907165
 20
-51.46161197616401
 30
0.0
 11
21.33159961892105
 21
-65.34169361438936
 31
0.0
  0
LINE
  5
197
330
1F
100
AcDbEntity
  8
0
  6
Continuous
 62
     7
100
AcDbLine
 10
26.64459228515625
 20
-69.04353332519531
 30
0.0
 11
27.53098678588867
 21
-69.04353332519531
 31
0.0
  0
LINE
  5
198
330
1F
100
AcDbEntity
  8
0
  6
Continuous
 62
     7
100
AcDbLine
 10
26.64459228515625
 20
-69.64352416992188
 30
0.0
 11
27.28245162963867
 21
-69.64352416992188
 31
0.0
  0
LINE
  5
199
330
1F
100
AcDbEntity
  8
0
  6
Continuous
 62
     7
100
AcDbLine
 10
27.282540739162
 20
-69.64345732080383
 30
0.0
 11
30.61587823013318
 21
-72.97679368785782
 31
0.0
  0
LINE
  5
19A
330
1F
100
AcDbEntity
  8
0
  6
Continuous
 62
     7
100
AcDbLine
 10
27.53103710813613
 20
-69.04348980968734
 30
0.0
 11
30.86436920430979
 21
-72.37682078194564
 31
0.0
  0
LINE
  5
19B
330
1F
100
AcDbEntity
  8
0
  6
Continuous
 62
     7
100
AcDbLine
 10
22.04912376403809
 20
-73.54352569580078
 30
0.0
 11
26.95186424255371
 21
-73.54352569580078
 31
0.0
  0
LINE
  5
19C
330
1F
100
AcDbEntity
  8
0
  6
Continuous
 62
     7
100
AcDbLine
 10
21.51475815632001
 20
-67.43519817777542
 30
0.0
 11
22.0491687115068
 21
-73.54351806224953
 31
0.0
  0
LINE
  5
19D
330
1F
100
AcDbEntity
  8
0
  6
Continuous
 62
     7
100
AcDbLine
 10
-39.50306433430017
 20
75.39857164938883
 30
0.0
 11
-52.96462054080039
 21
74.2208330875779
 31
0.0
  0
LINE
  5
19E
330
1F
100
AcDbEntity
  8
0
  6
Continuous
 62
     7
100
AcDbLine
 10
20.62243981495931
 20
-50.73428298731852
 30
0.0
 11
20.70319838835843
 21
-51.65735457516016
 31
0.0
  0
LINE
  5
19F
330
1F
100
AcDbEntity
  8
0
  6
Continuous
 62
     7
100
AcDbLine
 10
21.33212926816485
 20
-51.96161504914975
 30
0.0
 11
22.4938422541649
 21
-65.24001021474601
 31
0.0
  0
LINE
  5
1A0
330
1F
100
AcDbEntity
  8
0
  6
Continuous
 62
     7
100
AcDbLine
 10
15.97053718756773
 20
-42.31019022575975
 30
0.0
 11
16.69086248872104
 21
-50.54351817488055
 31
0.0
  0
LINE
  5
1A1
330
1F
100
AcDbEntity
  8
0
  6
Continuous
 62
     7
100
AcDbLine
 10
16.69082337523668
 20
-50.54343251437036
 30
0.0
 11
20.11720450924996
 21
-51.46152847416914
 31
0.0
  0
LINE
  5
1A2
330
1F
100
AcDbEntity
  8
0
  6
Continuous
 62
     7
100
AcDbLine
 10
-38.58487560970053
 20
78.82500423745604
 30
0.0
 11
-39.50297388629662
 21
75.39861385106369
 31
0.0
  0
LINE
  5
1A3
330
1F
100
AcDbEntity
  8
0
  6
Continuous
 62
     7
100
AcDbLine
 10
-30.48085046101092
 20
79.53399287897194
 30
0.0
 11
-38.58500260179451
 21
78.82496842885861
 31
0.0
  0
LINE
  5
1A4
330
1F
100
AcDbEntity
  8
0
  6
Continuous
 62
     7
100
AcDbLine
 10
19.11480366686035
 20
-50.33021902668084
 30
0.0
 11
20.62241018671751
 21
-50.73418093305111
 31
0.0
  0
LINE
  5
1A5
330
1F
100
AcDbEntity
  8
0
  6
Continuous
 62
     7
100
AcDbLine
 10
17.95924248340277
 20
-44.00590992875666
 30
0.0
 11
18.39668769283405
 21
-49.00591459783182
 31
0.0
  0
LINE
  5
1A6
330
1F
100
AcDbEntity
  8
0
  6
Continuous
 62
     7
100
AcDbLine
 10
18.52982637693388
 20
-43.64353711301925
 30
0.0
 11
19.11494585018159
 21
-50.33146061779128
 31
0.0
  0
LINE
  5
1A7
330
1F
100
AcDbEntity
  8
0
  6
Continuous
 62
     7
100
AcDbLine
 10
21.03522872924805
 20
-51.96161651611328
 30
0.0
 11
21.33207321166992
 21
-51.96161651611328
 31
0.0
  0
LINE
  5
1A8
330
1F
100
AcDbEntity
  8
0
  6
Continuous
 62
     7
100
AcDbLine
 10
20.76152361834526
 20
-52.32401274393555
 30
0.0
 11
21.89610806462528
 21
-65.29232833307083
 31
0.0
  0
LINE
  5
1A9
330
1F
100
AcDbEntity
  8
0
  6
Continuous
 62
     7
100
AcDbLine
 10
16.08713722229004
 20
-43.64352416992188
 30
0.0
 11
18.52976417541504
 21
-43.64352416992188
 31
0.0
  0
LINE
  5
1AA
330
1F
100
AcDbEntity
  8
0
  6
Continuous
 62
     7
100
AcDbLine
 10
18.72868919372559
 20
-49.31018829345703
 30
0.0
 11
19.02553367614746
 21
-49.31018829345703
 31
0.0
  0
LINE
  5
1AB
330
1F
100
AcDbEntity
  8
0
  6
Continuous
 62
     7
100
AcDbLine
 10
12.8704833984375
 20
-36.97686767578125
 30
0.0
 11
15.28714942932129
 21
-36.97686767578125
 31
0.0
  0
LINE
  5
1AC
330
1F
100
AcDbEntity
  8
0
  6
Continuous
 62
     7
100
AcDbLine
 10
12.8704833984375
 20
-42.31018829345703
 30
0.0
 11
15.97047805786133
 21
-42.31018829345703
 31
0.0
  0
LINE
  5
1AD
330
1F
100
AcDbEntity
  8
0
  6
Continuous
 62
     7
100
AcDbLine
 10
12.53714942932129
 20
-37.3101921081543
 30
0.0
 11
12.53714942932129
 21
-41.97686767578125
 31
0.0
  0
LINE
  5
1AE
330
1F
100
AcDbEntity
  8
0
  6
Continuous
 62
     7
100
AcDbLine
 10
-30.48082733154297
 20
82.18425750732422
 30
0.0
 11
-30.48082733154297
 21
79.5340576171875
 31
0.0
  0
LINE
  5
1AF
330
1F
100
AcDbEntity
  8
0
  6
Continuous
 62
     7
100
AcDbLine
 10
-24.78085327148438
 20
83.01759338378906
 30
0.0
 11
-29.64751434326172
 21
83.01759338378906
 31
0.0
  0
LINE
  5
1B0
330
1F
100
AcDbEntity
  8
0
  6
Continuous
 62
     7
100
AcDbLine
 10
-61.71416473388672
 20
66.9056167602539
 30
0.0
 11
-61.71416473388672
 21
42.01582717895508
 31
0.0
  0
LINE
  5
1B1
330
1F
100
AcDbEntity
  8
0
  6
Continuous
 62
     7
100
AcDbLine
 10
-23.38083267211914
 20
23.08127593994141
 30
0.0
 11
-61.4488525390625
 21
23.08127593994141
 31
0.0
  0
LINE
  5
1B2
330
1F
100
AcDbEntity
  8
0
  6
Continuous
 62
     7
100
AcDbLine
 10
-23.38083267211914
 20
30.41459655761719
 30
0.0
 11
-23.38083267211914
 21
23.08126831054688
 31
0.0
  0
LINE
  5
1B3
330
1F
100
AcDbEntity
  8
0
  6
Continuous
 62
     7
100
AcDbLine
 10
-23.94750213623047
 20
82.18425750732422
 30
0.0
 11
-23.94750213623047
 21
24.41459655761719
 31
0.0
  0
LINE
  5
1B4
330
1F
100
AcDbEntity
  8
0
  6
Continuous
 62
     7
100
AcDbLine
 10
15.97049903869629
 20
-42.31018829345703
 30
0.0
 11
71.87347412109375
 21
-42.31018829345703
 31
0.0
  0
LINE
  5
1B5
330
1F
100
AcDbEntity
  8
0
  6
Continuous
 62
     7
100
AcDbLine
 10
59.37346649169922
 20
-48.04352569580078
 30
0.0
 11
70.54014587402344
 21
-48.04352569580078
 31
0.0
  0
LINE
  5
1B6
330
1F
100
AcDbEntity
  8
0
  6
Continuous
 62
     7
100
AcDbLine
 10
59.37346649169922
 20
-52.91018676757812
 30
0.0
 11
70.54014587402344
 21
-52.91018676757812
 31
0.0
  0
LINE
  5
1B7
330
1F
100
AcDbEntity
  8
0
  6
Continuous
 62
     7
100
AcDbLine
 10
-61.71416473388672
 20
42.01581573486328
 30
0.0
 11
-61.71416473388672
 21
24.41506958007812
 31
0.0
  0
LINE
  5
1B8
330
1F
100
AcDbEntity
  8
0
  6
Continuous
 62
     7
100
AcDbLine
 10
-23.94750213623047
 20
24.41460418701172
 30
0.0
 11
-61.71416473388672
 21
24.41460418701172
 31
0.0
  0
LINE
  5
1B9
330
1F
100
AcDbEntity
  8
0
  6
Continuous
 62
     7
100
AcDbLine
 10
70.54016643038881
 20
-48.04347070423302
 30
0.0
 11
71.87349656548813
 21
-48.30868490341106
 31
0.0
  0
LINE
  5
1BA
330
1F
100
AcDbEntity
  8
0
  6
Continuous
 62
     7
100
AcDbLine
 10
70.54014297147769
 20
-52.91016841445997
 30
0.0
 11
71.8734652781008
 21
-52.64495396585567
 31
0.0
  0
LINE
  5
1BB
330
1F
100
AcDbEntity
  8
0
  6
Continuous
 62
     7
100
AcDbLine
 10
-61.71406848735027
 20
24.4146243465201
 30
0.0
 11
-61.44885216457815
 21
23.08129463382904
 31
0.0
  0
LINE
  5
1BC
330
1F
100
AcDbEntity
  8
0
  6
Continuous
 62
     7
100
AcDbLine
 10
-23.38083267211914
 20
30.41460418701172
 30
0.0
 11
-23.94750213623047
 21
30.41460418701172
 31
0.0
  0
LINE
  5
1BD
330
1F
100
AcDbEntity
  8
0
  6
Continuous
 62
     7
100
AcDbLine
 10
59.20680999755859
 20
-36.37686157226562
 30
0.0
 11
59.20680999755859
 21
-36.97686004638672
 31
0.0
  0
LINE
  5
1BE
330
1F
100
AcDbEntity
  8
0
  6
Continuous
 62
     7
100
AcDbLine
 10
59.20680999755859
 20
-36.97686004638672
 30
0.0
 11
71.87347412109375
 21
-36.97686004638672
 31
0.0
  0
LINE
  5
1BF
330
1F
100
AcDbEntity
  8
0
  6
Continuous
 62
     7
100
AcDbLine
 10
19.91054344177246
 20
-50.54351806640625
 30
0.0
 11
59.60680389404297
 21
-50.54351806640625
 31
0.0
  0
LINE
  5
1C0
330
1F
100
AcDbEntity
  8
0
  6
Continuous
 62
     7
100
AcDbLine
 10
59.60681533813477
 20
-43.64353179931641
 30
0.0
 11
60.20680999755859
 21
-43.64353179931641
 31
0.0
  0
LINE
  5
1C1
330
1F
100
AcDbEntity
  8
0
  6
DASHED
 62
     7
100
AcDbLine
 10
60.20680999755859
 20
-43.64353179931641
 30
0.0
 11
60.20680999755859
 21
-48.04352569580078
 31
0.0
  0
LINE
  5
1C2
330
1F
100
AcDbEntity
  8
0
  6
Continuous
 62
     7
100
AcDbLine
 10
59.60681533813477
 20
-43.64353179931641
 30
0.0
 11
59.60681533813477
 21
-48.04352569580078
 31
0.0
  0
LINE
  5
1C3
330
1F
100
AcDbEntity
  8
0
  6
Continuous
 62
     7
100
AcDbLine
 10
62.87347412109375
 20
-44.20829010009766
 30
0.0
 11
62.87347412109375
 21
-48.04352569580078
 31
0.0
  0
LINE
  5
1C4
330
1F
100
AcDbEntity
  8
0
  6
Continuous
 62
     7
100
AcDbLine
 10
60.20678655791447
 20
-43.64360677979507
 30
0.0
 11
62.57278758291256
 21
-43.87663696409548
 31
0.0
  0
LINE
  5
1C5
330
1F
100
AcDbEntity
  8
0
  6
Continuous
 62
     7
100
AcDbLine
 10
64.54014587402344
 20
-47.64352416992188
 30
0.0
 11
64.54014587402344
 21
-48.04352569580078
 31
0.0
  0
LINE
  5
1C6
330
1F
100
AcDbEntity
  8
0
  6
Continuous
 62
     7
100
AcDbLine
 10
64.54014587402344
 20
-47.64352416992188
 30
0.0
 11
71.87347412109375
 21
-47.64352416992188
 31
0.0
  0
LINE
  5
1C7
330
1F
100
AcDbEntity
  8
0
  6
Continuous
 62
     7
100
AcDbLine
 10
60.20680999755859
 20
33.08127593994141
 30
0.0
 11
60.20680999755859
 21
24.41460037231445
 31
0.0
  0
LINE
  5
1C8
330
1F
100
AcDbEntity
  8
0
  6
Continuous
 62
     7
100
AcDbLine
 10
15.97050857543945
 20
34.74793243408203
 30
0.0
 11
17.95920753479004
 21
34.74793243408203
 31
0.0
  0
LINE
  5
1C9
330
1F
100
AcDbEntity
  8
0
  6
Continuous
 62
     7
100
AcDbLine
 10
12.2023811340332
 20
23.08126831054688
 30
0.0
 11
59.94159317016602
 21
23.08126831054688
 31
0.0
  0
LINE
  5
1CA
330
1F
100
AcDbEntity
  8
0
  6
Continuous
 62
     7
100
AcDbLine
 10
11.93715286254883
 20
83.01760864257812
 30
0.0
 11
11.93715286254883
 21
24.41460037231445
 31
0.0
  0
LINE
  5
1CB
330
1F
100
AcDbEntity
  8
0
  6
Continuous
 62
     7
100
AcDbLine
 10
12.53714942932129
 20
80.75096130371094
 30
0.0
 11
12.53714942932129
 21
34.74793243408203
 31
0.0
  0
LINE
  5
1CC
330
1F
100
AcDbEntity
  8
0
  6
Continuous
 62
     7
100
AcDbLine
 10
14.33207130432129
 20
30.41460037231445
 30
0.0
 11
15.8704833984375
 21
30.41460037231445
 31
0.0
  0
LINE
  5
1CD
330
1F
100
AcDbEntity
  8
0
  6
Continuous
 62
     7
100
AcDbLine
 10
15.8704833984375
 20
30.41460037231445
 30
0.0
 11
15.8704833984375
 21
23.08126831054688
 31
0.0
  0
LINE
  5
1CE
330
1F
100
AcDbEntity
  8
0
  6
Continuous
 62
     7
100
AcDbLine
 10
14.70405960083008
 20
30.41460037231445
 30
0.0
 11
14.70405960083008
 21
23.08126831054688
 31
0.0
  0
LINE
  5
1CF
330
1F
100
AcDbEntity
  8
0
  6
Continuous
 62
     7
100
AcDbLine
 10
11.93715286254883
 20
24.41460037231445
 30
0.0
 11
14.70405960083008
 21
24.41460037231445
 31
0.0
  0
LINE
  5
1D0
330
1F
100
AcDbEntity
  8
0
  6
Continuous
 62
     7
100
AcDbLine
 10
11.93719211952351
 20
24.41460886005977
 30
0.0
 11
12.20241034959522
 21
23.08127369260735
 31
0.0
  0
LINE
  5
1D1
330
1F
100
AcDbEntity
  8
0
  6
Continuous
 62
     7
100
AcDbLine
 10
12.53714300740121
 20
34.74790692486431
 30
0.0
 11
14.33206965116942
 21
30.41459827688865
 31
0.0
  0
LINE
  5
1D2
330
1F
100
AcDbEntity
  8
0
  6
Continuous
 62
     7
100
AcDbLine
 10
15.97050857543945
 20
77.31759643554688
 30
0.0
 11
15.97050857543945
 21
23.08126831054688
 31
0.0
  0
LINE
  5
1D3
330
1F
100
AcDbEntity
  8
0
  6
Continuous
 62
     7
100
AcDbLine
 10
16.69082641601562
 20
76.59727478027344
 30
0.0
 11
16.69082641601562
 21
35.41460037231445
 31
0.0
  0
LINE
  5
1D4
330
1F
100
AcDbEntity
  8
0
  6
Continuous
 62
     7
100
AcDbLine
 10
17.95920753479004
 20
34.74793243408203
 30
0.0
 11
17.95920753479004
 21
32.41460037231445
 31
0.0
  0
LINE
  5
1D5
330
1F
100
AcDbEntity
  8
0
  6
Continuous
 62
     7
100
AcDbLine
 10
18.52979469299316
 20
35.41460037231445
 30
0.0
 11
18.52979469299316
 21
32.08126831054688
 31
0.0
  0
LINE
  5
1D6
330
1F
100
AcDbEntity
  8
0
  6
Continuous
 62
     7
100
AcDbLine
 10
19.02553367614746
 20
34.74793243408203
 30
0.0
 11
19.02553367614746
 21
32.08126831054688
 31
0.0
  0
LINE
  5
1D7
330
1F
100
AcDbEntity
  8
0
  6
Continuous
 62
     7
100
AcDbLine
 10
18.29254150390625
 20
32.08126831054688
 30
0.0
 11
19.02553367614746
 21
32.08126831054688
 31
0.0
  0
LINE
  5
1D8
330
1F
100
AcDbEntity
  8
0
  6
Continuous
 62
     7
100
AcDbLine
 10
19.02553367614746
 20
34.74793243408203
 30
0.0
 11
20.76149559020996
 21
34.74793243408203
 31
0.0
  0
LINE
  5
1D9
330
1F
100
AcDbEntity
  8
0
  6
Continuous
 62
     7
100
AcDbLine
 10
21.33210372924805
 20
35.41460037231445
 30
0.0
 11
21.33210372924805
 21
32.08126831054688
 31
0.0
  0
LINE
  5
1DA
330
1F
100
AcDbEntity
  8
0
  6
Continuous
 62
     7
100
AcDbLine
 10
21.02413940429688
 20
32.08126831054688
 30
0.0
 11
37.11252975463867
 21
32.08126831054688
 31
0.0
  0
LINE
  5
1DB
330
1F
100
AcDbEntity
  8
0
  6
Continuous
 62
     7
100
AcDbLine
 10
20.7614942469184
 20
34.74793255488317
 30
0.0
 11
21.02414060758491
 21
32.08125876311158
 31
0.0
  0
LINE
  5
1DC
330
1F
100
AcDbEntity
  8
0
  6
Continuous
 62
     7
100
AcDbLine
 10
20.11721801757812
 20
73.17088317871094
 30
0.0
 11
20.11721801757812
 21
35.41460037231445
 31
0.0
  0
LINE
  5
1DD
330
1F
100
AcDbEntity
  8
0
  6
Continuous
 62
     7
100
AcDbLine
 10
16.69082641601562
 20
34.74793243408203
 30
0.0
 11
16.69082641601562
 21
23.08126831054688
 31
0.0
  0
LINE
  5
1DE
330
1F
100
AcDbEntity
  8
0
  6
Continuous
 62
     7
100
AcDbLine
 10
20.11721801757812
 20
34.74793243408203
 30
0.0
 11
20.11721801757812
 21
23.08126831054688
 31
0.0
  0
LINE
  5
1DF
330
1F
100
AcDbEntity
  8
0
  6
Continuous
 62
     7
100
AcDbLine
 10
26.71580123901367
 20
66.57229614257812
 30
0.0
 11
26.71580123901367
 21
35.41460037231445
 31
0.0
  0
LINE
  5
1E0
330
1F
100
AcDbEntity
  8
0
  6
Continuous
 62
     7
100
AcDbLine
 10
26.71580123901367
 20
32.08126831054688
 30
0.0
 11
26.71580123901367
 21
23.08126831054688
 31
0.0
  0
LINE
  5
1E1
330
1F
100
AcDbEntity
  8
0
  6
Continuous
 62
     7
100
AcDbLine
 10
37.91651708817567
 20
34.74794331920325
 30
0.0
 11
37.43945313347348
 21
32.34957934145227
 31
0.0
  0
LINE
  5
1E2
330
1F
100
AcDbEntity
  8
0
  6
Continuous
 62
     7
100
AcDbLine
 10
44.84839484029408
 20
34.74793615013951
 30
0.0
 11
45.32546137546095
 21
32.34956879624377
 31
0.0
  0
LINE
  5
1E3
330
1F
100
AcDbEntity
  8
0
  6
Continuous
 62
     7
100
AcDbLine
 10
45.65239715576172
 20
32.08126831054688
 30
0.0
 11
55.00662231445312
 21
32.08126831054688
 31
0.0
  0
LINE
  5
1E4
330
1F
100
AcDbEntity
  8
0
  6
Continuous
 62
     7
100
AcDbLine
 10
37.91652679443359
 20
34.74793243408203
 30
0.0
 11
44.8484001159668
 21
34.74793243408203
 31
0.0
  0
LINE
  5
1E5
330
1F
100
AcDbEntity
  8
0
  6
Continuous
 62
     7
100
AcDbLine
 10
56.40681076049805
 20
30.41460037231445
 30
0.0
 11
56.40681076049805
 21
23.08126831054688
 31
0.0
  0
LINE
  5
1E6
330
1F
100
AcDbEntity
  8
0
  6
Continuous
 62
     7
100
AcDbLine
 10
57.68449020385742
 20
30.41460037231445
 30
0.0
 11
57.68449020385742
 21
23.08126831054688
 31
0.0
  0
LINE
  5
1E7
330
1F
100
AcDbEntity
  8
0
  6
DASHED
 62
     7
100
AcDbLine
 10
59.60680389404297
 20
35.34794235229492
 30
0.0
 11
59.60680389404297
 21
23.17961502075195
 31
0.0
  0
LINE
  5
1E8
330
1F
100
AcDbEntity
  8
0
  6
Continuous
 62
     7
100
AcDbLine
 10
56.40681076049805
 20
30.41460037231445
 30
0.0
 11
57.68449020385742
 21
30.41460037231445
 31
0.0
  0
LINE
  5
1E9
330
1F
100
AcDbEntity
  8
0
  6
Continuous
 62
     7
100
AcDbLine
 10
57.68449020385742
 20
24.41460037231445
 30
0.0
 11
60.20680999755859
 21
24.41460037231445
 31
0.0
  0
LINE
  5
1EA
330
1F
100
AcDbEntity
  8
0
  6
Continuous
 62
     7
100
AcDbLine
 10
60.20679334392572
 20
24.41458825958144
 30
0.0
 11
59.94157681071242
 21
23.08126636761477
 31
0.0
  0
LINE
  5
1EB
330
1F
100
AcDbEntity
  8
0
  6
Continuous
 62
     7
100
AcDbLine
 10
56.06903076171875
 20
35.41460037231445
 30
0.0
 11
56.06903076171875
 21
32.08126831054688
 31
0.0
  0
LINE
  5
1EC
330
1F
100
AcDbEntity
  8
0
  6
Continuous
 62
     7
100
AcDbLine
 10
56.63957977294922
 20
34.74793243408203
 30
0.0
 11
56.63957977294922
 21
32.41460037231445
 31
0.0
  0
LINE
  5
1ED
330
1F
100
AcDbEntity
  8
0
  6
Continuous
 62
     7
100
AcDbLine
 10
55.631591796875
 20
35.41460037231445
 30
0.0
 11
55.631591796875
 21
32.08126831054688
 31
0.0
  0
LINE
  5
1EE
330
1F
100
AcDbEntity
  8
0
  6
Continuous
 62
     7
100
AcDbLine
 10
55.33995819091797
 20
35.41460037231445
 30
0.0
 11
55.33995819091797
 21
32.41460037231445
 31
0.0
  0
LINE
  5
1EF
330
1F
100
AcDbEntity
  8
0
  6
Continuous
 62
     7
100
AcDbLine
 10
59.00680629877471
 20
34.34794527023509
 30
0.0
 11
57.6844922772378
 21
30.41462323995027
 31
0.0
  0
LINE
  5
1F0
330
1F
100
AcDbEntity
  8
0
  6
Continuous
 62
     7
100
AcDbLine
 10
15.97050857543945
 20
35.41460037231445
 30
0.0
 11
57.24014663696289
 21
35.41460037231445
 31
0.0
  0
LINE
  5
1F1
330
1F
100
AcDbEntity
  8
0
  6
Continuous
 62
     7
100
AcDbLine
 10
57.24014282226562
 20
37.714599609375
 30
0.0
 11
57.24014282226562
 21
35.41460037231445
 31
0.0
  0
LINE
  5
1F2
330
1F
100
AcDbEntity
  8
0
  6
Continuous
 62
     7
100
AcDbLine
 10
55.33995819091797
 20
34.74793243408203
 30
0.0
 11
55.63159561157227
 21
34.74793243408203
 31
0.0
  0
LINE
  5
1F3
330
1F
100
AcDbEntity
  8
0
  6
Continuous
 62
     7
100
AcDbLine
 10
57.24014282226562
 20
34.74793243408203
 30
0.0
 11
57.24014282226562
 21
30.41460037231445
 31
0.0
  0
LINE
  5
1F4
330
1F
100
AcDbEntity
  8
0
  6
Continuous
 62
     7
100
AcDbLine
 10
55.77843475341797
 20
32.08126831054688
 30
0.0
 11
56.30624771118164
 21
32.08126831054688
 31
0.0
  0
LINE
  5
1F5
330
1F
100
AcDbEntity
  8
0
  6
Continuous
 62
     7
100
AcDbLine
 10
56.63957977294922
 20
34.74793243408203
 30
0.0
 11
57.24014663696289
 21
34.74793243408203
 31
0.0
  0
LINE
  5
1F6
330
1F
100
AcDbEntity
  8
0
  6
DASHED
 62
     7
100
AcDbLine
 10
12.53714942932129
 20
34.74790191650391
 30
0.0
 11
12.53714942932129
 21
23.08126831054688
 31
0.0
  0
LINE
  5
1F7
330
1F
100
AcDbEntity
  8
0
  6
Continuous
 62
     7
100
AcDbLine
 10
61.87348556518555
 20
34.74788284301758
 30
0.0
 11
70.5401611328125
 21
34.74788284301758
 31
0.0
  0
LINE
  5
1F8
330
1F
100
AcDbEntity
  8
0
  6
Continuous
 62
     7
100
AcDbLine
 10
60.20689010620117
 20
78.98423767089844
 30
0.0
 11
60.20689010620117
 21
76.99552917480469
 31
0.0
  0
LINE
  5
1F9
330
1F
100
AcDbEntity
  8
0
  6
Continuous
 62
     7
100
AcDbLine
 10
71.8735580444336
 20
82.75234985351562
 30
0.0
 11
71.8735580444336
 21
35.01315307617188
 31
0.0
  0
LINE
  5
1FA
330
1F
100
AcDbEntity
  8
0
  6
Continuous
 62
     7
100
AcDbLine
 10
14.20382690429688
 20
82.41752624511719
 30
0.0
 11
60.20685958862305
 21
82.41752624511719
 31
0.0
  0
LINE
  5
1FB
330
1F
100
AcDbEntity
  8
0
  6
Continuous
 62
     7
100
AcDbLine
 10
64.54022216796875
 20
80.62266540527344
 30
0.0
 11
64.54022216796875
 21
79.08425903320312
 31
0.0
  0
LINE
  5
1FC
330
1F
100
AcDbEntity
  8
0
  6
Continuous
 62
     7
100
AcDbLine
 10
64.54017639160156
 20
79.08419799804688
 30
0.0
 11
71.87352752685547
 21
79.08419799804688
 31
0.0
  0
LINE
  5
1FD
330
1F
100
AcDbEntity
  8
0
  6
Continuous
 62
     7
100
AcDbLine
 10
64.54019165039062
 20
80.2506103515625
 30
0.0
 11
71.87352752685547
 21
80.2506103515625
 31
0.0
  0
LINE
  5
1FE
330
1F
100
AcDbEntity
  8
0
  6
Continuous
 62
     7
100
AcDbLine
 10
70.54022216796875
 20
83.017578125
 30
0.0
 11
70.54022216796875
 21
80.25067138671875
 31
0.0
  0
LINE
  5
1FF
330
1F
100
AcDbEntity
  8
0
  6
Continuous
 62
     7
100
AcDbLine
 10
60.20691628301507
 20
82.41764380153448
 30
0.0
 11
64.54021486916818
 21
80.62271778711089
 31
0.0
  0
LINE
  5
200
330
1F
100
AcDbEntity
  8
0
  6
Continuous
 62
     7
100
AcDbLine
 10
17.63718605041504
 20
78.98416137695312
 30
0.0
 11
71.87352752685547
 21
78.98416137695312
 31
0.0
  0
LINE
  5
201
330
1F
100
AcDbEntity
  8
0
  6
Continuous
 62
     7
100
AcDbLine
 10
18.35750198364258
 20
78.26385498046875
 30
0.0
 11
59.54018402099609
 21
78.26385498046875
 31
0.0
  0
LINE
  5
202
330
1F
100
AcDbEntity
  8
0
  6
Continuous
 62
     7
100
AcDbLine
 10
60.20685195922852
 20
76.99546813964844
 30
0.0
 11
62.54019165039062
 21
76.99546813964844
 31
0.0
  0
LINE
  5
203
330
1F
100
AcDbEntity
  8
0
  6
Continuous
 62
     7
100
AcDbLine
 10
59.54019546508789
 20
76.42486572265625
 30
0.0
 11
62.87351608276367
 21
76.42486572265625
 31
0.0
  0
LINE
  5
204
330
1F
100
AcDbEntity
  8
0
  6
Continuous
 62
     7
100
AcDbLine
 10
60.20685195922852
 20
75.92913818359375
 30
0.0
 11
62.87351608276367
 21
75.92913818359375
 31
0.0
  0
LINE
  5
205
330
1F
100
AcDbEntity
  8
0
  6
Continuous
 62
     7
100
AcDbLine
 10
62.87356567382812
 20
76.66220092773438
 30
0.0
 11
62.87356567382812
 21
75.92919921875
 31
0.0
  0
LINE
  5
206
330
1F
100
AcDbEntity
  8
0
  6
Continuous
 62
     7
100
AcDbLine
 10
60.20689010620117
 20
75.92919921875
 30
0.0
 11
60.20689010620117
 21
74.1932373046875
 31
0.0
  0
LINE
  5
207
330
1F
100
AcDbEntity
  8
0
  6
Continuous
 62
     7
100
AcDbLine
 10
59.54018402099609
 20
73.62257385253906
 30
0.0
 11
62.87351608276367
 21
73.62257385253906
 31
0.0
  0
LINE
  5
208
330
1F
100
AcDbEntity
  8
0
  6
Continuous
 62
     7
100
AcDbLine
 10
62.87356567382812
 20
73.93060302734375
 30
0.0
 11
62.87356567382812
 21
57.84221649169922
 31
0.0
  0
LINE
  5
209
330
1F
100
AcDbEntity
  8
0
  6
Continuous
 62
     7
100
AcDbLine
 10
60.20684273772228
 20
74.19326598008313
 30
0.0
 11
62.8735049617575
 21
73.93061892626395
 31
0.0
  0
LINE
  5
20A
330
1F
100
AcDbEntity
  8
0
  6
Continuous
 62
     7
100
AcDbLine
 10
21.78389549255371
 20
74.83744812011719
 30
0.0
 11
59.54018402099609
 21
74.83744812011719
 31
0.0
  0
LINE
  5
20B
330
1F
100
AcDbEntity
  8
0
  6
Continuous
 62
     7
100
AcDbLine
 10
60.20685195922852
 20
78.26385498046875
 30
0.0
 11
71.8735122680664
 21
78.26385498046875
 31
0.0
  0
LINE
  5
20C
330
1F
100
AcDbEntity
  8
0
  6
Continuous
 62
     7
100
AcDbLine
 10
60.20685195922852
 20
74.83744812011719
 30
0.0
 11
71.8735122680664
 21
74.83744812011719
 31
0.0
  0
LINE
  5
20D
330
1F
100
AcDbEntity
  8
0
  6
Continuous
 62
     7
100
AcDbLine
 10
28.38247680664062
 20
68.23887634277344
 30
0.0
 11
59.5401725769043
 21
68.23887634277344
 31
0.0
  0
LINE
  5
20E
330
1F
100
AcDbEntity
  8
0
  6
Continuous
 62
     7
100
AcDbLine
 10
62.87350463867188
 20
68.23887634277344
 30
0.0
 11
71.87350463867188
 21
68.23887634277344
 31
0.0
  0
LINE
  5
20F
330
1F
100
AcDbEntity
  8
0
  6
Continuous
 62
     7
100
AcDbLine
 10
60.20683980656374
 20
57.03821539532835
 30
0.0
 11
62.60521158498547
 21
57.51527924039281
 31
0.0
  0
LINE
  5
210
330
1F
100
AcDbEntity
  8
0
  6
Continuous
 62
     7
100
AcDbLine
 10
60.20681150568292
 20
50.10634131631374
 30
0.0
 11
62.60518976589802
 21
49.62927095044572
 31
0.0
  0
LINE
  5
211
330
1F
100
AcDbEntity
  8
0
  6
Continuous
 62
     7
100
AcDbLine
 10
62.87356567382812
 20
49.30236053466797
 30
0.0
 11
62.87356567382812
 21
39.9481201171875
 31
0.0
  0
LINE
  5
212
330
1F
100
AcDbEntity
  8
0
  6
Continuous
 62
     7
100
AcDbLine
 10
60.20689010620117
 20
57.03822326660156
 30
0.0
 11
60.20689010620117
 21
50.10634613037109
 31
0.0
  0
LINE
  5
213
330
1F
100
AcDbEntity
  8
0
  6
Continuous
 62
     7
100
AcDbLine
 10
64.54014587402344
 20
38.54788208007812
 30
0.0
 11
71.87348175048828
 21
38.54788208007812
 31
0.0
  0
LINE
  5
214
330
1F
100
AcDbEntity
  8
0
  6
Continuous
 62
     7
100
AcDbLine
 10
64.54014587402344
 20
37.27020263671875
 30
0.0
 11
71.87348175048828
 21
37.27020263671875
 31
0.0
  0
LINE
  5
215
330
1F
100
AcDbEntity
  8
0
  6
DASHED
 62
     7
100
AcDbLine
 10
59.6068229675293
 20
35.34788131713867
 30
0.0
 11
71.775146484375
 21
35.34788131713867
 31
0.0
  0
LINE
  5
216
330
1F
100
AcDbEntity
  8
0
  6
Continuous
 62
     7
100
AcDbLine
 10
64.54022216796875
 20
38.54794311523438
 30
0.0
 11
64.54022216796875
 21
37.270263671875
 31
0.0
  0
LINE
  5
217
330
1F
100
AcDbEntity
  8
0
  6
Continuous
 62
     7
100
AcDbLine
 10
70.54022216796875
 20
37.270263671875
 30
0.0
 11
70.54022216796875
 21
34.74794387817383
 31
0.0
  0
LINE
  5
218
330
1F
100
AcDbEntity
  8
0
  6
Continuous
 62
     7
100
AcDbLine
 10
70.54017569733216
 20
34.74795367515836
 30
0.0
 11
71.87350525268728
 21
35.01317078890872
 31
0.0
  0
LINE
  5
219
330
1F
100
AcDbEntity
  8
0
  6
Continuous
 62
     7
100
AcDbLine
 10
59.54015350341797
 20
38.88565826416016
 30
0.0
 11
62.87348556518555
 21
38.88565826416016
 31
0.0
  0
LINE
  5
21A
330
1F
100
AcDbEntity
  8
0
  6
Continuous
 62
     7
100
AcDbLine
 10
60.20682144165039
 20
38.31511306762695
 30
0.0
 11
62.5401496887207
 21
38.31511306762695
 31
0.0
  0
LINE
  5
21B
330
1F
100
AcDbEntity
  8
0
  6
Continuous
 62
     7
100
AcDbLine
 10
59.54015350341797
 20
39.32309722900391
 30
0.0
 11
62.87348556518555
 21
39.32309722900391
 31
0.0
  0
LINE
  5
21C
330
1F
100
AcDbEntity
  8
0
  6
Continuous
 62
     7
100
AcDbLine
 10
59.54015350341797
 20
39.6147346496582
 30
0.0
 11
62.5401496887207
 21
39.6147346496582
 31
0.0
  0
LINE
  5
21D
330
1F
100
AcDbEntity
  8
0
  6
Continuous
 62
     7
100
AcDbLine
 10
60.60683054845223
 20
35.94795820798237
 30
0.0
 11
64.54013897515816
 21
37.27026480974355
 31
0.0
  0
LINE
  5
21E
330
1F
100
AcDbEntity
  8
0
  6
Continuous
 62
     7
100
AcDbLine
 10
59.54022216796875
 20
78.98423767089844
 30
0.0
 11
59.54022216796875
 21
37.7146110534668
 31
0.0
  0
LINE
  5
21F
330
1F
100
AcDbEntity
  8
0
  6
Continuous
 62
     7
100
AcDbLine
 10
57.24015426635742
 20
37.71455001831055
 30
0.0
 11
59.54015350341797
 21
37.71455001831055
 31
0.0
  0
LINE
  5
220
330
1F
100
AcDbEntity
  8
0
  6
Continuous
 62
     7
100
AcDbLine
 10
60.20689010620117
 20
39.61479568481445
 30
0.0
 11
60.20689010620117
 21
39.32315826416016
 31
0.0
  0
LINE
  5
221
330
1F
100
AcDbEntity
  8
0
  6
Continuous
 62
     7
100
AcDbLine
 10
60.20682144165039
 20
37.71455001831055
 30
0.0
 11
64.54014587402344
 21
37.71455001831055
 31
0.0
  0
LINE
  5
222
330
1F
100
AcDbEntity
  8
0
  6
Continuous
 62
     7
100
AcDbLine
 10
62.87356567382812
 20
39.17630767822266
 30
0.0
 11
62.87356567382812
 21
38.64849853515625
 31
0.0
  0
LINE
  5
223
330
1F
100
AcDbEntity
  8
0
  6
Continuous
 62
     7
100
AcDbLine
 10
60.20689010620117
 20
38.3151741027832
 30
0.0
 11
60.20689010620117
 21
37.7146110534668
 31
0.0
  0
LINE
  5
224
330
1F
100
AcDbEntity
  8
0
  6
DASHED
 62
     7
100
AcDbLine
 10
60.20689010620117
 20
82.41752624511719
 30
0.0
 11
71.8735122680664
 21
82.41752624511719
 31
0.0
  0
LINE
  5
225
330
1F
100
AcDbEntity
  8
0
  6
Continuous
 62
     7
100
AcDbLine
 10
52.47995207094934
 20
42.47478758253506
 30
0.0
 11
57.24012511856466
 21
37.71461132489793
 31
0.0
  0
LINE
  5
226
330
1F
100
AcDbEntity
  8
0
  6
Continuous
 62
     7
100
AcDbLine
 10
11.93717384338379
 20
83.01751708984375
 30
0.0
 11
70.54017639160156
 21
83.01751708984375
 31
0.0
  0
LINE
  5
227
330
1F
100
AcDbEntity
  8
0
  6
Continuous
 62
     7
100
AcDbLine
 10
70.5401843124135
 20
83.01758379485521
 30
0.0
 11
71.87352491524473
 21
82.75236356004457
 31
0.0
  0
LINE
  5
228
330
1F
100
AcDbEntity
  8
0
  6
Continuous
 62
     7
100
AcDbLine
 10
11.93715286254883
 20
-37.210205078125
 30
0.0
 11
11.93715286254883
 21
-42.07686614990234
 31
0.0
  0
LINE
  5
229
330
1F
100
AcDbEntity
  8
0
  6
Continuous
 62
     7
100
AcDbLine
 10
12.77048492431641
 20
-36.37686157226562
 30
0.0
 11
14.70405960083008
 21
-36.37686157226562
 31
0.0
  0
LINE
  5
22A
330
1F
100
AcDbEntity
  8
0
  6
Continuous
 62
     7
100
AcDbLine
 10
26.11579513549805
 20
-70.78659057617188
 30
0.0
 11
26.11579513549805
 21
-72.21019744873047
 31
0.0
  0
LINE
  5
22B
330
1F
100
AcDbEntity
  8
0
  6
Continuous
 62
     7
100
AcDbLine
 10
16.12973585544323
 20
-51.01424185891188
 30
0.0
 11
19.55612620124311
 21
-51.93234028700118
 31
0.0
  0
LINE
  5
22C
330
1F
100
AcDbEntity
  8
0
  6
Continuous
 62
     7
100
AcDbLine
 10
15.4207518167829
 20
-42.9102029010164
 30
0.0
 11
16.12977566538751
 21
-51.01435509442538
 31
0.0
  0
LINE
  5
22D
330
1F
100
AcDbEntity
  8
0
  6
Continuous
 62
     7
100
AcDbLine
 10
19.55616605887361
 20
-51.93242146325645
 30
0.0
 11
20.73390362153705
 21
-65.39397775717109
 31
0.0
  0
LINE
  5
22E
330
1F
100
AcDbEntity
  8
0
  6
Continuous
 62
     7
100
AcDbLine
 10
12.77048492431641
 20
-42.91018676757812
 30
0.0
 11
15.42068481445312
 21
-42.91018676757812
 31
0.0
  0
LINE
  5
22F
330
1F
100
AcDbEntity
  8
0
  6
Continuous
 62
     7
100
AcDbLine
 10
15.8702392578125
 20
-36.37686157226562
 30
0.0
 11
64.54014587402344
 21
-36.37686157226562
 31
0.0
  0
LINE
  5
230
330
1F
100
AcDbEntity
  8
0
  6
Continuous
 62
     7
100
AcDbLine
 10
52.93892669677734
 20
-74.14352416992188
 30
0.0
 11
70.54014587402344
 21
-74.14352416992188
 31
0.0
  0
LINE
  5
231
330
1F
100
AcDbEntity
  8
0
  6
Continuous
 62
     7
100
AcDbLine
 10
28.04912567138672
 20
-74.14352416992188
 30
0.0
 11
52.93891525268555
 21
-74.14352416992188
 31
0.0
  0
LINE
  5
232
330
1F
100
AcDbEntity
  8
0
  6
Continuous
 62
     7
100
AcDbLine
 10
64.54014587402344
 20
-35.8101921081543
 30
0.0
 11
64.54014587402344
 21
-36.97686004638672
 31
0.0
  0
LINE
  5
233
330
1F
100
AcDbEntity
  8
0
  6
Continuous
 62
     7
100
AcDbLine
 10
64.54014587402344
 20
-35.8101921081543
 30
0.0
 11
71.87347412109375
 21
-35.8101921081543
 31
0.0
  0
LINE
  5
234
330
1F
100
AcDbEntity
  8
0
  6
Continuous
 62
     7
100
AcDbLine
 10
71.87347412109375
 20
-35.8101921081543
 30
0.0
 11
71.87347412109375
 21
-73.87830352783203
 31
0.0
  0
LINE
  5
235
330
1F
100
AcDbEntity
  8
0
  6
Continuous
 62
     7
100
AcDbLine
 10
70.54011932602901
 20
-74.14343209317373
 30
0.0
 11
71.87344905810053
 21
-73.8782158678336
 31
0.0
  0
LINE
  5
236
330
1F
100
AcDbEntity
  8
0
  6
Continuous
 62
     7
100
AcDbLine
 10
70.54014587402344
 20
-48.04352569580078
 30
0.0
 11
70.54014587402344
 21
-74.14352416992188
 31
0.0
  0
LINE
  5
237
330
1F
100
AcDbEntity
  8
0
  6
Continuous
 62
     7
100
AcDbLine
 10
-58.35722351074219
 20
68.83894348144531
 30
0.0
 11
-58.35722351074219
 21
24.41459655761719
 31
0.0
  0
LINE
  5
238
330
1F
100
AcDbEntity
  8
0
  6
Continuous
 62
     7
100
AcDbLine
 10
-39.50297546386719
 20
75.3985824584961
 30
0.0
 11
-39.50297546386719
 21
24.41459655761719
 31
0.0
  0
LINE
  5
239
330
1F
100
AcDbEntity
  8
0
  6
Continuous
 62
     7
100
AcDbLine
 10
-38.58487701416016
 20
78.8249740600586
 30
0.0
 11
-38.58487701416016
 21
24.41459655761719
 31
0.0
  0
LINE
  5
23A
330
1F
100
AcDbEntity
  8
0
  6
Continuous
 62
     7
100
AcDbLine
 10
-30.48084259033203
 20
79.53398895263672
 30
0.0
 11
-30.48084259033203
 21
24.41459655761719
 31
0.0
  0
LINE
  5
23B
330
1F
100
AcDbEntity
  8
0
  6
Continuous
 62
     7
100
AcDbLine
 10
-58.35721925802262
 20
24.41459751164882
 30
0.0
 11
-58.09054755481721
 21
23.08126245869652
 31
0.0
  0
LINE
  5
23C
330
1F
100
AcDbEntity
  8
0
  6
Continuous
 62
     7
100
AcDbLine
 10
-39.50297268893559
 20
24.41459862643333
 30
0.0
 11
-39.23630614857331
 21
23.08127032139106
 31
0.0
  0
LINE
  5
23D
330
1F
100
AcDbEntity
  8
0
  6
Continuous
 62
     7
100
AcDbLine
 10
-38.58487530337067
 20
24.41459920864635
 30
0.0
 11
-38.31820726675627
 21
23.08126342236819
 31
0.0
  0
LINE
  5
23E
330
1F
100
AcDbEntity
  8
0
  6
Continuous
 62
     7
100
AcDbLine
 10
-30.48084531676817
 20
24.41459499628474
 30
0.0
 11
-30.21417877640589
 21
23.08126669124247
 31
0.0
  0
LINE
  5
23F
330
1F
100
AcDbEntity
  8
0
  6
Continuous
 62
     7
100
AcDbLine
 10
-23.94750241074103
 20
24.41459309551165
 30
0.0
 11
-24.21416875628019
 21
23.08126475150465
 31
0.0
  0
ARC
  5
240
330
1F
100
AcDbEntity
  8
0
  6
Continuous
 62
     7
100
AcDbCircle
 10
62.54014205932617
 20
-44.20829010009766
 30
0.0
 40
0.3333333432674408
100
AcDbArc
 50
0.0
 51
84.37465870405566
  0
ARC
  5
241
330
1F
100
AcDbEntity
  8
0
  6
Continuous
 62
     7
100
AcDbCircle
 10
57.07347869873047
 20
-48.31018829345703
 30
0.0
 40
0.6666679382324219
100
AcDbArc
 50
0.0
 51
3.59440882194719
  0
ARC
  5
242
330
1F
100
AcDbEntity
  8
0
  6
Continuous
 62
     7
100
AcDbCircle
 10
59.37346649169922
 20
-52.07685089111328
 30
0.0
 40
0.8333333730697632
100
AcDbArc
 50
270.0000179860893
 51
0.0
  0
ARC
  5
243
330
1F
100
AcDbEntity
  8
0
  6
Continuous
 62
     7
100
AcDbCircle
 10
59.37346649169922
 20
-48.87686157226562
 30
0.0
 40
0.8333333730697632
100
AcDbArc
 50
0.0
 51
89.99998201391067
  0
ARC
  5
244
330
1F
100
AcDbEntity
  8
0
  6
Continuous
 62
     7
100
AcDbCircle
 10
57.07347869873047
 20
-48.31018829345703
 30
0.0
 40
0.6666679382324219
100
AcDbArc
 50
23.57767811864791
 51
255.5227317184863
  0
ARC
  5
245
330
1F
100
AcDbEntity
  8
0
  6
Continuous
 62
     7
100
AcDbCircle
 10
59.27347183227539
 20
-48.97686004638672
 30
0.0
 40
0.3333333432674408
100
AcDbArc
 50
0.0
 51
89.99998201391067
  0
ARC
  5
246
330
1F
100
AcDbEntity
  8
0
  6
Continuous
 62
     7
100
AcDbCircle
 10
59.27347183227539
 20
-51.97686767578125
 30
0.0
 40
0.3333333432674408
100
AcDbArc
 50
270.0000179860893
 51
0.0
  0
ARC
  5
247
330
1F
100
AcDbEntity
  8
0
  6
Continuous
 62
     7
100
AcDbCircle
 10
55.92841720581055
 20
-56.97686767578125
 30
0.0
 40
0.3333333432674408
100
AcDbArc
 50
270.0000179860893
 51
354.9999271478068
  0
ARC
  5
248
330
1F
100
AcDbEntity
  8
0
  6
Continuous
 62
     7
100
AcDbCircle
 10
55.87009048461914
 20
-57.64352416992188
 30
0.0
 40
0.3333333432674408
100
AcDbArc
 50
354.9999271478068
 51
89.99998201391067
  0
ARC
  5
249
330
1F
100
AcDbEntity
  8
0
  6
Continuous
 62
     7
100
AcDbCircle
 10
55.63679122924805
 20
-60.31019592285156
 30
0.0
 40
0.3333333432674408
100
AcDbArc
 50
270.0000179860893
 51
354.9999271478068
  0
ARC
  5
24A
330
1F
100
AcDbEntity
  8
0
  6
Continuous
 62
     7
100
AcDbCircle
 10
55.57846450805664
 20
-60.97686767578125
 30
0.0
 40
0.3333333432674408
100
AcDbArc
 50
354.9999271478068
 51
89.99998201391067
  0
ARC
  5
24B
330
1F
100
AcDbEntity
  8
0
  6
Continuous
 62
     7
100
AcDbCircle
 10
56.30753707885742
 20
-52.64352416992188
 30
0.0
 40
0.3333333432674408
100
AcDbArc
 50
354.9998127421382
 51
89.99998201391067
  0
ARC
  5
24C
330
1F
100
AcDbEntity
  8
0
  6
Continuous
 62
     7
100
AcDbCircle
 10
52.93892669677734
 20
-70.87686157226562
 30
0.0
 40
2.666666746139526
100
AcDbArc
 50
270.0000179860893
 51
355.0000189284738
  0
ARC
  5
24D
330
1F
100
AcDbEntity
  8
0
  6
Continuous
 62
     7
100
AcDbCircle
 10
52.41967010498047
 20
-70.31019592285156
 30
0.0
 40
2.666666746139526
100
AcDbArc
 50
270.0000179860893
 51
355.0000189284738
  0
ARC
  5
24E
330
1F
100
AcDbEntity
  8
0
  6
Continuous
 62
     7
100
AcDbCircle
 10
52.41967010498047
 20
-70.31019592285156
 30
0.0
 40
2.066666603088379
100
AcDbArc
 50
270.0000179860893
 51
355.0000189284738
  0
ARC
  5
24F
330
1F
100
AcDbEntity
  8
0
  6
Continuous
 62
     7
100
AcDbCircle
 10
52.93892669677734
 20
-70.87686157226562
 30
0.0
 40
3.266667127609253
100
AcDbArc
 50
270.0000179860893
 51
355.0000189284738
  0
ARC
  5
250
330
1F
100
AcDbEntity
  8
0
  6
Continuous
 62
     7
100
AcDbCircle
 10
45.04914474487305
 20
-72.64352416992188
 30
0.0
 40
0.3333333432674408
100
AcDbArc
 50
179.9999776881997
 51
270.000028004002
  0
ARC
  5
251
330
1F
100
AcDbEntity
  8
0
  6
Continuous
 62
     7
100
AcDbCircle
 10
44.38246917724609
 20
-72.64352416992188
 30
0.0
 40
0.3333333432674408
100
AcDbArc
 50
270.0000179860893
 51
0.0
  0
ARC
  5
252
330
1F
100
AcDbEntity
  8
0
  6
Continuous
 62
     7
100
AcDbCircle
 10
37.71580123901367
 20
-72.64352416992188
 30
0.0
 40
0.3333333432674408
100
AcDbArc
 50
270.0000179860893
 51
0.0
  0
ARC
  5
253
330
1F
100
AcDbEntity
  8
0
  6
Continuous
 62
     7
100
AcDbCircle
 10
38.38247680664062
 20
-72.64352416992188
 30
0.0
 40
0.3333333432674408
100
AcDbArc
 50
179.9999776881997
 51
270.000028004002
  0
ARC
  5
254
330
1F
100
AcDbEntity
  8
0
  6
Continuous
 62
     7
100
AcDbCircle
 10
28.04913330078125
 20
-72.21019744873047
 30
0.0
 40
1.333333373069763
100
AcDbArc
 50
179.9999776881997
 51
270.000028004002
  0
ARC
  5
255
330
1F
100
AcDbEntity
  8
0
  6
Continuous
 62
     7
100
AcDbCircle
 10
-59.78084182739258
 20
66.90560913085938
 30
0.0
 40
1.933333396911621
100
AcDbArc
 50
89.99998201391067
 51
180.0000050089563
  0
ARC
  5
256
330
1F
100
AcDbEntity
  8
0
  6
Continuous
 62
     7
100
AcDbCircle
 10
26.64460372924805
 20
-64.87686157226562
 30
0.0
 40
5.333333492279053
100
AcDbArc
 50
184.9999939918165
 51
270.0000179860893
  0
ARC
  5
257
330
1F
100
AcDbEntity
  8
0
  6
Continuous
 62
     7
100
AcDbCircle
 10
-52.44750595092773
 20
68.31013488769531
 30
0.0
 40
5.933333396911621
100
AcDbArc
 50
94.99998101468347
 51
174.8867751321231
  0
ARC
  5
258
330
1F
100
AcDbEntity
  8
0
  6
Continuous
 62
     7
100
AcDbCircle
 10
26.64460372924805
 20
-64.87686157226562
 30
0.0
 40
4.766667366027832
100
AcDbArc
 50
184.9999939918165
 51
270.0000179860893
  0
ARC
  5
259
330
1F
100
AcDbEntity
  8
0
  6
Continuous
 62
     7
100
AcDbCircle
 10
26.64460372924805
 20
-64.87686157226562
 30
0.0
 40
4.166666984558105
100
AcDbArc
 50
184.9999939918165
 51
270.0000179860893
  0
ARC
  5
25A
330
1F
100
AcDbEntity
  8
0
  6
Continuous
 62
     7
100
AcDbCircle
 10
21.09355735778809
 20
-52.29495239257812
 30
0.0
 40
0.3333333432674408
100
AcDbArc
 50
89.99998201391067
 51
185.0000313304858
  0
ARC
  5
25B
330
1F
100
AcDbEntity
  8
0
  6
Continuous
 62
     7
100
AcDbCircle
 10
21.03522872924805
 20
-51.6282958984375
 30
0.0
 40
0.3333333432674408
100
AcDbArc
 50
185.0000486333298
 51
270.0000179860893
  0
ARC
  5
25C
330
1F
100
AcDbEntity
  8
0
  6
Continuous
 62
     7
100
AcDbCircle
 10
18.72869873046875
 20
-48.97686767578125
 30
0.0
 40
0.3333333432674408
100
AcDbArc
 50
185.0000486333298
 51
270.0000179860893
  0
ARC
  5
25D
330
1F
100
AcDbEntity
  8
0
  6
Continuous
 62
     7
100
AcDbCircle
 10
18.2912483215332
 20
-43.97686004638672
 30
0.0
 40
0.3333333432674408
100
AcDbArc
 50
89.99998201391067
 51
185.0000313304858
  0
ARC
  5
25E
330
1F
100
AcDbEntity
  8
0
  6
Continuous
 62
     7
100
AcDbCircle
 10
-24.78084182739258
 20
82.18426513671875
 30
0.0
 40
0.8333333730697632
100
AcDbArc
 50
359.9999863396217
 51
89.99996835353231
  0
ARC
  5
25F
330
1F
100
AcDbEntity
  8
0
  6
Continuous
 62
     7
100
AcDbCircle
 10
-29.64749526977539
 20
82.18426513671875
 30
0.0
 40
0.8333333730697632
100
AcDbArc
 50
89.99998201391067
 51
180.0000050089563
  0
ARC
  5
260
330
1F
100
AcDbEntity
  8
0
  6
Continuous
 62
     7
100
AcDbCircle
 10
12.87049293518066
 20
-41.97686767578125
 30
0.0
 40
0.3333333432674408
100
AcDbArc
 50
179.9999776881997
 51
270.000028004002
  0
ARC
  5
261
330
1F
100
AcDbEntity
  8
0
  6
Continuous
 62
     7
100
AcDbCircle
 10
12.87049293518066
 20
-37.3101921081543
 30
0.0
 40
0.3333333432674408
100
AcDbArc
 50
89.99998201391067
 51
179.9999640278213
  0
ARC
  5
262
330
1F
100
AcDbEntity
  8
0
  6
Continuous
 62
     7
100
AcDbCircle
 10
17.63717651367188
 20
77.31759643554688
 30
0.0
 40
1.666666746139526
100
AcDbArc
 50
89.99998201391067
 51
179.9999640278213
  0
ARC
  5
263
330
1F
100
AcDbEntity
  8
0
  6
Continuous
 62
     7
100
AcDbCircle
 10
14.20381546020508
 20
80.75096130371094
 30
0.0
 40
1.666666746139526
100
AcDbArc
 50
89.99998201391067
 51
179.9999640278213
  0
ARC
  5
264
330
1F
100
AcDbEntity
  8
0
  6
Continuous
 62
     7
100
AcDbCircle
 10
18.0592041015625
 20
32.1812629699707
 30
0.0
 40
0.1000000089406967
100
AcDbArc
 50
179.9999776881997
 51
270.000028004002
  0
ARC
  5
265
330
1F
100
AcDbEntity
  8
0
  6
Continuous
 62
     7
100
AcDbCircle
 10
18.29254150390625
 20
32.41460037231445
 30
0.0
 40
0.3333333432674408
100
AcDbArc
 50
179.9999776881997
 51
270.000028004002
  0
ARC
  5
266
330
1F
100
AcDbEntity
  8
0
  6
Continuous
 62
     7
100
AcDbCircle
 10
37.11252975463867
 20
32.41460037231445
 30
0.0
 40
0.3333333432674408
100
AcDbArc
 50
270.0000179860893
 51
348.7493926538777
  0
ARC
  5
267
330
1F
100
AcDbEntity
  8
0
  6
Continuous
 62
     7
100
AcDbCircle
 10
45.65239715576172
 20
32.41460037231445
 30
0.0
 40
0.3333333432674408
100
AcDbArc
 50
191.2505869692403
 51
270.0000179860893
  0
ARC
  5
268
330
1F
100
AcDbEntity
  8
0
  6
Continuous
 62
     7
100
AcDbCircle
 10
60.6734733581543
 20
34.34793090820312
 30
0.0
 40
1.666666746139526
100
AcDbArc
 50
136.6208998543151
 51
179.9999640278213
  0
ARC
  5
269
330
1F
100
AcDbEntity
  8
0
  6
Continuous
 62
     7
100
AcDbCircle
 10
61.87347412109375
 20
33.08127593994141
 30
0.0
 40
1.666666746139526
100
AcDbArc
 50
135.0002598888111
 51
179.9999640278213
  0
ARC
  5
26A
330
1F
100
AcDbEntity
  8
0
  6
Continuous
 62
     7
100
AcDbCircle
 10
55.00662231445312
 20
32.41460037231445
 30
0.0
 40
0.3333333432674408
100
AcDbArc
 50
270.0000179860893
 51
0.0
  0
ARC
  5
26B
330
1F
100
AcDbEntity
  8
0
  6
Continuous
 62
     7
100
AcDbCircle
 10
56.30624389648438
 20
32.41460037231445
 30
0.0
 40
0.3333333432674408
100
AcDbArc
 50
270.0000179860893
 51
0.0
  0
ARC
  5
26C
330
1F
100
AcDbEntity
  8
0
  6
Continuous
 62
     7
100
AcDbCircle
 10
62.54014587402344
 20
38.64850997924805
 30
0.0
 40
0.3333333432674408
100
AcDbArc
 50
270.0000179860893
 51
0.0
  0
ARC
  5
26D
330
1F
100
AcDbEntity
  8
0
  6
Continuous
 62
     7
100
AcDbCircle
 10
62.77350997924805
 20
76.89553833007812
 30
0.0
 40
0.1000000089406967
100
AcDbArc
 50
0.0
 51
90.00003665542401
  0
ARC
  5
26E
330
1F
100
AcDbEntity
  8
0
  6
Continuous
 62
     7
100
AcDbCircle
 10
62.5401725769043
 20
76.66220092773438
 30
0.0
 40
0.3333333432674408
100
AcDbArc
 50
0.0
 51
90.00003665542401
  0
ARC
  5
26F
330
1F
100
AcDbEntity
  8
0
  6
Continuous
 62
     7
100
AcDbCircle
 10
62.5401611328125
 20
57.84221649169922
 30
0.0
 40
0.3333333432674408
100
AcDbArc
 50
281.2506236246643
 51
0.0
  0
ARC
  5
270
330
1F
100
AcDbEntity
  8
0
  6
Continuous
 62
     7
100
AcDbCircle
 10
62.5401611328125
 20
49.30235290527344
 30
0.0
 40
0.3333333432674408
100
AcDbArc
 50
0.0
 51
78.74943101684906
  0
ARC
  5
271
330
1F
100
AcDbEntity
  8
0
  6
Continuous
 62
     7
100
AcDbCircle
 10
60.6068229675293
 20
34.28128051757812
 30
0.0
 40
1.666666746139526
100
AcDbArc
 50
90.00003665542401
 51
133.3791008289303
  0
ARC
  5
272
330
1F
100
AcDbEntity
  8
0
  6
Continuous
 62
     7
100
AcDbCircle
 10
61.87347412109375
 20
33.08126831054688
 30
0.0
 40
1.666666746139526
100
AcDbArc
 50
90.00003665542401
 51
134.9997407944342
  0
ARC
  5
273
330
1F
100
AcDbEntity
  8
0
  6
Continuous
 62
     7
100
AcDbCircle
 10
62.54014587402344
 20
39.9481201171875
 30
0.0
 40
0.3333333432674408
100
AcDbArc
 50
270.0000179860893
 51
0.0
  0
ARC
  5
274
330
1F
100
AcDbEntity
  8
0
  6
Continuous
 62
     7
100
AcDbCircle
 10
28.38246726989746
 20
66.57229614257812
 30
0.0
 40
1.666666746139526
100
AcDbArc
 50
89.99998201391067
 51
179.9999640278213
  0
ARC
  5
275
330
1F
100
AcDbEntity
  8
0
  6
Continuous
 62
     7
100
AcDbCircle
 10
21.78388595581055
 20
73.17088317871094
 30
0.0
 40
1.666666746139526
100
AcDbArc
 50
89.99998201391067
 51
179.9999640278213
  0
ARC
  5
276
330
1F
100
AcDbEntity
  8
0
  6
Continuous
 62
     7
100
AcDbCircle
 10
18.35749244689941
 20
76.59727478027344
 30
0.0
 40
1.666666746139526
100
AcDbArc
 50
89.99998201391067
 51
179.9999640278213
  0
ARC
  5
277
330
1F
100
AcDbEntity
  8
0
  6
Continuous
 62
     7
100
AcDbCircle
 10
12.77048492431641
 20
-37.21019744873047
 30
0.0
 40
0.8333333730697632
100
AcDbArc
 50
89.99998201391067
 51
179.9999640278213
  0
ARC
  5
278
330
1F
100
AcDbEntity
  8
0
  6
Continuous
 62
     7
100
AcDbCircle
 10
15.28714752197266
 20
-36.39352416992188
 30
0.0
 40
0.5833320617675781
100
AcDbArc
 50
0.0
 51
178.3631638347411
  0
ARC
  5
279
330
1F
100
AcDbEntity
  8
0
  6
Continuous
 62
     7
100
AcDbCircle
 10
15.28714752197266
 20
-36.39352416992188
 30
0.0
 40
0.5833320617675781
100
AcDbArc
 50
270.0000179860893
 51
0.0
  0
ARC
  5
27A
330
1F
100
AcDbEntity
  8
0
  6
Continuous
 62
     7
100
AcDbCircle
 10
26.64460372924805
 20
-64.87686157226562
 30
0.0
 40
5.933333396911621
100
AcDbArc
 50
184.9999939918165
 51
264.8867812790669
  0
ARC
  5
27B
330
1F
100
AcDbEntity
  8
0
  6
Continuous
 62
     7
100
AcDbCircle
 10
12.77048492431641
 20
-42.07685089111328
 30
0.0
 40
0.8333333730697632
100
AcDbArc
 50
179.9999776881997
 51
270.000028004002
  0
ARC
  5
27C
330
1F
100
AcDbEntity
  8
0
  6
Continuous
 62
     7
100
AcDbCircle
 10
28.04913330078125
 20
-72.21019744873047
 30
0.0
 40
1.933333396911621
100
AcDbArc
 50
179.9999776881997
 51
270.000028004002
  0
DIMENSION
  5
27D
330
1F
100
AcDbEntity
  8
0
 62
     7
100
AcDbDimension
  2
*D8
 10
1.938152504920965
 20
83.01751708984375
 30
0.0
 11
1.938152504920959
 21
53.05039270019531
 31
0.0
 70
   160
  1
182
 71
     5
 42
59.93624877929688
  3
ISO-25
100
AcDbAlignedDimension
 13
12.2023811340332
 23
23.08126831054688
 33
0.0
 14
11.93717384338379
 24
83.01751708984375
 34
0.0
 50
270.0
100
AcDbRotatedDimension
1001
ACAD
1000
DSTYLE
1002
{
1070
   178
1070
     1
1070
   278
1070
    46
1070
   147
1040
0.800000011920929
1070
    77
1070
     1
1070
    74
1070
     0
1070
    73
1070
     0
1070
    42
1040
2.54
1070
    44
1040
0.999999940395355
1070
    76
1070
     0
1070
    75
1070
     0
1070
   279
1070
     0
1070
   271
1070
     0
1070
   173
1070
     1
1070
    41
1040
3.0
1070
   140
1040
3.200000047683716
1070
   344
1005
13D
1070
   343
1005
13D
1002
}
  0
DIMENSION
  5
28A
330
1F
100
AcDbEntity
  8
0
 62
     7
100
AcDbDimension
  2
*D9
 10
71.8735580444336
 20
93.01760864257812
 30
0.0
 11
41.90635736083984
 21
93.01760864257812
 31
0.0
 70
   160
  1
182
 71
     5
 42
59.93640518188477
  3
ISO-25
100
AcDbAlignedDimension
 13
11.93715286254883
 23
83.01760864257812
 33
0.0
 14
71.8735580444336
 24
82.75234985351562
 34
0.0
 50
180.0
100
AcDbRotatedDimension
1001
ACAD
1000
DSTYLE
1002
{
1070
   178
1070
     1
1070
   278
1070
    46
1070
   147
1040
0.800000011920929
1070
    77
1070
     1
1070
    74
1070
     0
1070
    73
1070
     0
1070
    42
1040
2.54
1070
    44
1040
1.0
1070
    76
1070
     0
1070
    75
1070
     0
1070
   279
1070
     0
1070
   271
1070
     0
1070
   173
1070
     1
1070
    41
1040
3.0
1070
   140
1040
3.200000047683716
1070
   344
1005
13D
1070
   343
1005
13D
1002
}
  0
DIMENSION
  5
297
330
1F
100
AcDbEntity
  8
0
 62
     7
100
AcDbDimension
  2
*D10
 10
55.38248825073242
 20
-84.11424200439453
 30
0.0
 11
38.71682794189453
 21
-84.11424200439453
 31
0.0
 70
   160
  1
100
 71
     5
 42
33.33331871032715
  3
ISO-25
100
AcDbAlignedDimension
 13
22.04916954040527
 23
-73.54352569580078
 33
0.0
 14
55.38248825073242
 24
-73.54352569580078
 34
0.0
 50
180.0
100
AcDbRotatedDimension
1001
ACAD
1000
DSTYLE
1002
{
1070
   178
1070
     1
1070
   278
1070
    46
1070
   147
1040
0.800000011920929
1070
    77
1070
     1
1070
    74
1070
     0
1070
    73
1070
     0
1070
    42
1040
2.54
1070
    44
1040
1.0
1070
    76
1070
     0
1070
    75
1070
     0
1070
   279
1070
     0
1070
   271
1070
     0
1070
   173
1070
     1
1070
    41
1040
3.0
1070
   140
1040
3.200000047683716
1070
   344
1005
13D
1070
   343
1005
13D
1002
}
  0
DIMENSION
  5
2A4
330
1F
100
AcDbEntity
  8
0
 62
     7
100
AcDbDimension
  2
*D11
 10
1.939152504920966
 20
-73.5435256958008
 30
0.0
 11
1.939152504920959
 21
-55.25919668579102
 31
0.0
 70
   160
  1
110
 71
     5
 42
36.56665802001954
  3
ISO-25
100
AcDbAlignedDimension
 13
12.8704833984375
 23
-36.97686767578125
 33
0.0
 14
22.04912376403809
 24
-73.54352569580078
 34
0.0
 50
90.00000000000001
100
AcDbRotatedDimension
1001
ACAD
1000
DSTYLE
1002
{
1070
   178
1070
     1
1070
   278
1070
    46
1070
   147
1040
0.800000011920929
1070
    77
1070
     1
1070
    74
1070
     0
1070
    73
1070
     0
1070
    42
1040
2.54
1070
    44
1040
0.999999940395355
1070
    76
1070
     0
1070
    75
1070
     0
1070
   279
1070
     0
1070
   271
1070
     0
1070
   173
1070
     1
1070
    41
1040
3.0
1070
   140
1040
3.200000047683716
1070
   344
1005
13D
1070
   343
1005
13D
1002
}
  0
DIMENSION
  5
2B1
330
1F
100
AcDbEntity
  8
0
 62
     7
100
AcDbDimension
  2
*D12
 10
81.87447412109377
 20
-73.54352569580077
 30
0.0
 11
81.87447412109375
 21
-61.09252493286133
 31
0.0
 70
   160
  1
75
 71
     5
 42
24.90000152587891
  3
ISO-25
100
AcDbAlignedDimension
 13
59.27347183227539
 23
-48.64352416992188
 33
0.0
 14
55.38248825073242
 24
-73.54352569580078
 34
0.0
 50
90.00000000000001
100
AcDbRotatedDimension
1001
ACAD
1000
DSTYLE
1002
{
1070
   178
1070
     1
1070
   278
1070
    46
1070
   147
1040
0.800000011920929
1070
    77
1070
     1
1070
    74
1070
     0
1070
    73
1070
     0
1070
    42
1040
2.54
1070
    44
1040
1.0
1070
    76
1070
     0
1070
    75
1070
     0
1070
   279
1070
     0
1070
   271
1070
     0
1070
   173
1070
     1
1070
    41
1040
3.0
1070
   140
1040
3.200000047683716
1070
   344
1005
13D
1070
   343
1005
13D
1002
}
  0
POINT
  5
2BF
330
1F
100
AcDbEntity
  8
VIEW0001
 62
     7
100
AcDbPoint
 10
105.0
 20
-148.5
 30
0.0
  0
LWPOLYLINE
  5
2C0
330
1F
100
AcDbEntity
  8
VIEW0001
  6
Continuous
 62
     7
100
AcDbPolyline
 90
        2
 70
     0
 10
25.75
 20
-129.0
 40
0.001000000047497
 41
0.001000000047497
 10
25.75
 20
-120.0
 40
0.001000000047497
 41
0.001000000047497
  0
LWPOLYLINE
  5
2C1
330
1F
100
AcDbEntity
  8
VIEW0001
  6
Continuous
 62
     7
100
AcDbPolyline
 90
        2
 70
     0
 10
-64.5
 20
-138.0
 40
0.001000000047497
 41
0.001000000047497
 10
-64.5
 20
-120.0
 40
0.001000000047497
 41
0.001000000047497
  0
LINE
  5
2C2
330
1F
100
AcDbEntity
  8
VIEW0001
  6
Continuous
 62
     7
370
    50
100
AcDbLine
 10
-84.5
 20
138.0
 30
0.0
 11
-84.5
 21
-138.0
 31
0.0
  0
LINE
  5
2C3
330
1F
100
AcDbEntity
  8
VIEW0001
  6
Continuous
 62
     7
370
    50
100
AcDbLine
 10
96.0
 20
138.0
 30
0.0
 11
96.0
 21
-138.0
 31
0.0
  0
LINE
  5
2C4
330
1F
100
AcDbEntity
  8
VIEW0001
  6
Continuous
 62
     7
370
    50
100
AcDbLine
 10
-84.5
 20
-138.0
 30
0.0
 11
96.0
 21
-138.0
 31
0.0
  0
LINE
  5
2C5
330
1F
100
AcDbEntity
  8
VIEW0001
  6
Continuous
 62
     7
370
    50
100
AcDbLine
 10
-84.5
 20
138.0
 30
0.0
 11
96.0
 21
138.0
 31
0.0
  0
LINE
  5
2C6
330
1F
100
AcDbEntity
  8
VIEW0001
  6
Continuous
 62
     7
370
    20
100
AcDbLine
 10
-84.5
 20
-120.0
 30
0.0
 11
96.0
 21
-120.0
 31
0.0
  0
LWPOLYLINE
  5
2C7
330
1F
100
AcDbEntity
  8
VIEW0001
  6
Continuous
 62
     7
100
AcDbPolyline
 90
        2
 70
     0
 10
96.0
 20
-129.0
 40
0.001000000047497
 41
0.001000000047497
 10
-84.5
 20
-129.0
 40
0.001000000047497
 41
0.001000000047497
  0
LINE
  5
2C8
330
1F
100
AcDbEntity
  8
VIEW0001
  6
Continuous
 62
     7
370
    20
100
AcDbLine
 10
41.0
 20
128.0
 30
0.0
 11
96.0
 21
128.0
 31
0.0
  0
LINE
  5
2C9
330
1F
100
AcDbEntity
  8
VIEW0001
  6
Continuous
 62
     7
370
    20
100
AcDbLine
 10
41.0
 20
138.0
 30
0.0
 11
41.0
 21
128.0
 31
0.0
  0
LWPOLYLINE
  5
2CA
330
1F
100
AcDbEntity
  8
VIEW0001
  6
Continuous
 62
     7
100
AcDbPolyline
 90
        2
 70
     0
 10
5.75
 20
-138.0
 40
0.001000000047497
 41
0.001000000047497
 10
5.75
 20
-120.0
 40
0.001000000047497
 41
0.001000000047497
  0
LWPOLYLINE
  5
2CB
330
1F
100
AcDbEntity
  8
VIEW0001
  6
Continuous
 62
     7
100
AcDbPolyline
 90
        2
 70
     0
 10
66.0
 20
-129.0
 40
0.001000000047497
 41
0.001000000047497
 10
66.0
 20
-120.0
 40
0.001000000047497
 41
0.001000000047497
  0
LWPOLYLINE
  5
2CC
330
1F
100
AcDbEntity
  8
VIEW0001
  6
Continuous
 62
     7
100
AcDbPolyline
 90
        2
 70
     0
 10
81.0
 20
-129.0
 40
0.001000000047497
 41
0.001000000047497
 10
81.0
 20
-120.0
 40
0.001000000047497
 41
0.001000000047497
  0
MTEXT
  5
2CD
330
1F
100
AcDbEntity
  8
VIEW0001
 62
     1
100
AcDbMText
 10
-77.92875003814697
 20
-126.5
 30
0.0
 40
4.0
 41
0.0
 71
     7
 72
     1
  1
{\W0.833333;品名}
 73
     1
 44
1.0
  0
MTEXT
  5
2CE
330
1F
100
AcDbEntity
  8
VIEW0001
 62
     1
100
AcDbMText
 10
-77.92875003814697
 20
-135.5
 30
0.0
 40
4.0
 41
0.0
 71
     7
 72
     1
  1
{\W0.833333;規格}
 73
     1
 44
1.0
  0
MTEXT
  5
2CF
330
1F
100
AcDbEntity
  8
VIEW0001
 62
     1
100
AcDbMText
 10
12.32124996185303
 20
-126.5
 30
0.0
 40
4.0
 41
0.0
 71
     7
 72
     1
  1
{\W0.833333;材質}
 73
     1
 44
1.0
  0
MTEXT
  5
2D0
330
1F
100
AcDbEntity
  8
VIEW0001
 62
     1
100
AcDbMText
 10
70.07124996185303
 20
-126.5
 30
0.0
 40
4.0
 41
0.0
 71
     7
 72
     1
  1
{\W0.833333;尺度}
 73
     1
 44
1.0
  0
MTEXT
  5
2D1
330
1F
100
AcDbEntity
  8
VIEW0001
 62
     1
100
AcDbMText
 10
26.46785604953766
 20
-135.75
 30
0.0
 40
4.5
 41
0.0
 71
     7
 72
     1
  1
{\W1.40741;デンカ株式会社}
 73
     1
 44
1.0
  0
MTEXT
  5
2D2
330
1F
100
AcDbEntity
  8
VIEW0001
 62
     1
100
AcDbMText
 10
36.44624972343445
 20
-126.5
 30
0.0
 40
4.0
 41
0.0
 71
     7
 72
     1
  1
{\W0.833333;硬質PVC}
 73
     1
 44
1.0
  0
MTEXT
  5
2D3
330
1F
100
AcDbEntity
  8
VIEW0001
 62
     1
100
AcDbMText
 10
-40.8037503361702
 20
-126.5
 30
0.0
 40
4.0
 41
0.0
 71
     7
 72
     1
  1
{\W0.833333;曲り（出隅）}
 73
     1
 44
1.0
  0
MTEXT
  5
2D4
330
1F
100
AcDbEntity
  8
VIEW0001
 62
     1
100
AcDbMText
 10
83.07124984264374
 20
-126.5
 30
0.0
 40
4.0
 41
0.0
 71
     7
 72
     1
  1
{\W0.833333;1/3}
 73
     1
 44
1.0
  0
MTEXT
  5
2D5
330
1F
100
AcDbEntity
  8
VIEW0001
 62
     1
100
AcDbMText
 10
-36.80375021696091
 20
-135.5
 30
0.0
 40
4.0
 41
0.0
 71
     7
 72
     1
  1
{\W0.833333;DL75}
 73
     1
 44
1.0
  0
ENDSEC
  0
SECTION
  2
OBJECTS
  0
DICTIONARY
  5
C
330
0
100
AcDbDictionary
281
     1
  3
ACAD_GROUP
350
D
  3
ACAD_LAYOUT
350
1A
  3
ACAD_MATERIAL
350
3B
  3
ACAD_MLEADERSTYLE
350
2FD
  3
ACAD_MLINESTYLE
350
17
  3
ACAD_PLOTSETTINGS
350
19
  3
ACAD_PLOTSTYLENAME
350
E
  3
ACAD_TABLESTYLE
350
2FC
  3
ACAD_VISUALSTYLE
350
2A
  0
DICTIONARY
  5
D
102
{ACAD_REACTORS
330
C
102
}
330
C
100
AcDbDictionary
281
     1
  0
DICTIONARY
  5
1A
102
{ACAD_REACTORS
330
C
102
}
330
C
100
AcDbDictionary
281
     1
  3
Layout1
350
1E
  3
Layout2
350
26
  3
Model
350
22
  0
DICTIONARY
  5
3B
102
{ACAD_REACTORS
330
C
102
}
330
C
100
AcDbDictionary
281
     1
  3
ByBlock
350
3D
  3
ByLayer
350
3C
  3
Global
350
3E
  0
DICTIONARY
  5
2FD
102
{ACAD_REACTORS
330
C
102
}
330
C
100
AcDbDictionary
281
     1
  0
DICTIONARY
  5
17
102
{ACAD_REACTORS
330
C
102
}
330
C
100
AcDbDictionary
281
     1
  3
Standard
350
18
  0
DICTIONARY
  5
19
102
{ACAD_REACTORS
330
C
102
}
330
C
100
AcDbDictionary
281
     1
  0
ACDBDICTIONARYWDFLT
  5
E
102
{ACAD_REACTORS
330
C
102
}
330
C
100
AcDbDictionary
281
     1
  3
Normal
350
F
100
AcDbDictionaryWithDefault
340
F
  0
DICTIONARY
  5
2FC
102
{ACAD_REACTORS
330
C
102
}
330
C
100
AcDbDictionary
281
     1
  0
DICTIONARY
  5
2A
102
{ACAD_REACTORS
330
C
102
}
330
C
100
AcDbDictionary
281
     1
  3
2dWireframe
350
2F
  3
3D Hidden
350
31
  3
3dWireframe
350
30
  3
Basic
350
32
  3
Brighten
350
36
  3
ColorChange
350
3A
  3
Conceptual
350
34
  3
Dim
350
35
  3
Facepattern
350
39
  3
Flat
350
2B
  3
FlatWithEdges
350
2C
  3
Gouraud
350
2D
  3
GouraudWithEdges
350
2E
  3
Linepattern
350
38
  3
Realistic
350
33
  3
Thicken
350
37
  0
LAYOUT
  5
1E
102
{ACAD_REACTORS
330
1A
102
}
330
1A
100
AcDbPlotSettings
  1

  2
none_device
  4

  6

 40
0.0
 41
0.0
 42
0.0
 43
0.0
 44
0.0
 45
0.0
 46
0.0
 47
0.0
 48
0.0
 49
0.0
140
0.0
141
0.0
142
1.0
143
1.0
 70
   688
 72
     0
 73
     0
 74
     5
  7

 75
    16
 76
     0
 77
     2
 78
   300
147
1.0
148
0.0
149
0.0
100
AcDbLayout
  1
Layout1
 70
     1
 71
     1
 10
-105.0
 20
-148.5
 11
105.0
 21
148.5
 12
0.0
 22
0.0
 32
0.0
 14
1.000000000000000E+20
 24
1.000000000000000E+20
 34
1.000000000000000E+20
 15
-1.000000000000000E+20
 25
-1.000000000000000E+20
 35
-1.000000000000000E+20
146
0.0
 13
0.0
 23
0.0
 33
0.0
 16
1.0
 26
0.0
 36
0.0
 17
0.0
 27
1.0
 37
0.0
 76
     0
330
1B
  0
LAYOUT
  5
26
102
{ACAD_REACTORS
330
1A
102
}
330
1A
100
AcDbPlotSettings
  1

  2
none_device
  4

  6

 40
0.0
 41
0.0
 42
0.0
 43
0.0
 44
0.0
 45
0.0
 46
0.0
 47
0.0
 48
0.0
 49
0.0
140
0.0
141
0.0
142
1.0
143
1.0
 70
   688
 72
     0
 73
     0
 74
     5
  7

 75
    16
 76
     0
 77
     2
 78
   300
147
1.0
148
0.0
149
0.0
100
AcDbLayout
  1
Layout2
 70
     1
 71
     2
 10
0.0
 20
0.0
 11
0.0
 21
0.0
 12
0.0
 22
0.0
 32
0.0
 14
0.0
 24
0.0
 34
0.0
 15
0.0
 25
0.0
 35
0.0
146
0.0
 13
0.0
 23
0.0
 33
0.0
 16
1.0
 26
0.0
 36
0.0
 17
0.0
 27
1.0
 37
0.0
 76
     0
330
23
  0
LAYOUT
  5
22
102
{ACAD_REACTORS
330
1A
102
}
330
1A
100
AcDbPlotSettings
  1

  2
none_device
  4

  6

 40
0.0
 41
0.0
 42
0.0
 43
0.0
 44
0.0
 45
0.0
 46
0.0
 47
0.0
 48
0.0
 49
0.0
140
0.0
141
0.0
142
1.0
143
1.0
 70
  1712
 72
     0
 73
     0
 74
     0
  7

 75
     0
 76
     0
 77
     2
 78
   300
147
1.0
148
0.0
149
0.0
100
AcDbLayout
  1
Model
 70
     1
 71
     0
 10
-105.0
 20
-148.5
 11
105.0
 21
148.5
 12
0.0
 22
0.0
 32
0.0
 14
-105.0
 24
-148.5
 34
0.0
 15
105.0
 25
148.5
 35
0.0
146
0.0
 13
0.0
 23
0.0
 33
0.0
 16
1.0
 26
0.0
 36
0.0
 17
0.0
 27
1.0
 37
0.0
 76
     0
330
1F
331
29
  0
MATERIAL
  5
3D
102
{ACAD_REACTORS
330
3B
102
}
102
{ACAD_XDICTIONARY
360
2F8
102
}
330
3B
100
AcDbMaterial
  1
ByBlock
  0
MATERIAL
  5
3C
102
{ACAD_REACTORS
330
3B
102
}
102
{ACAD_XDICTIONARY
360
2F6
102
}
330
3B
100
AcDbMaterial
  1
ByLayer
  0
MATERIAL
  5
3E
102
{ACAD_REACTORS
330
3B
102
}
102
{ACAD_XDICTIONARY
360
2FA
102
}
330
3B
100
AcDbMaterial
  1
Global
  0
MLINESTYLE
  5
18
102
{ACAD_REACTORS
330
17
102
}
330
17
100
AcDbMlineStyle
  2
Standard
 70
     0
  3

 62
   256
 51
90.0
 52
90.0
 71
     2
 49
0.5
 62
   256
  6
BYLAYER
 49
-0.5
 62
   256
  6
BYLAYER
  0
ACDBPLACEHOLDER
  5
F
102
{ACAD_REACTORS
330
E
102
}
330
E
  0
VISUALSTYLE
  5
2F
102
{ACAD_REACTORS
330
2A
102
}
102
{ACAD_XDICTIONARY
360
2DE
102
}
330
2A
100
AcDbVisualStyle
  2
2dWireframe
 70
     4
 71
     0
 72
     2
 73
     0
 90
        0
 40
-0.6
 41
-30.0
 62
     5
 63
     7
421
 16777215
 74
     1
 91
        4
 64
     7
 65
   257
 75
     1
175
     1
 42
1.0
 92
        0
 66
   257
 43
1.0
 76
     1
 77
     6
 78
     2
 67
     7
 79
     5
170
     0
171
     0
290
     0
174
     0
 93
        1
 44
0.0
173
     0
291
     0
 45
0.0
1001
ACAD
1000
AcDbSavedByObjectVersion
1070
     0
  0
VISUALSTYLE
  5
31
102
{ACAD_REACTORS
330
2A
102
}
102
{ACAD_XDICTIONARY
360
2E2
102
}
330
2A
100
AcDbVisualStyle
  2
3D Hidden
 70
     6
 71
     1
 72
     2
 73
     2
 90
        0
 40
-0.6
 41
-30.0
 62
     5
 63
     7
421
 16777215
 74
     2
 91
        2
 64
     7
 65
   257
 75
     2
175
     1
 42
40.0
 92
        0
 66
   257
 43
1.0
 76
     1
 77
     6
 78
     2
 67
     7
 79
     3
170
     0
171
     0
290
     0
174
     0
 93
        1
 44
0.0
173
     0
291
     0
 45
0.0
1001
ACAD
1000
AcDbSavedByObjectVersion
1070
     0
  0
VISUALSTYLE
  5
30
102
{ACAD_REACTORS
330
2A
102
}
102
{ACAD_XDICTIONARY
360
2E0
102
}
330
2A
100
AcDbVisualStyle
  2
3dWireframe
 70
     5
 71
     0
 72
     2
 73
     0
 90
        0
 40
-0.6
 41
-30.0
 62
     5
 63
     7
421
 16777215
 74
     1
 91
        4
 64
     7
 65
   257
 75
     1
175
     1
 42
1.0
 92
        0
 66
   257
 43
1.0
 76
     1
 77
     6
 78
     2
 67
     7
 79
     5
170
     0
171
     0
290
     0
174
     0
 93
        1
 44
0.0
173
     0
291
     0
 45
0.0
1001
ACAD
1000
AcDbSavedByObjectVersion
1070
     0
  0
VISUALSTYLE
  5
32
102
{ACAD_REACTORS
330
2A
102
}
102
{ACAD_XDICTIONARY
360
2E4
102
}
330
2A
100
AcDbVisualStyle
  2
Basic
 70
     7
 71
     1
 72
     0
 73
     1
 90
        0
 40
-0.6
 41
-30.0
 62
     5
 63
     7
421
 16777215
 74
     0
 91
        4
 64
     7
 65
   257
 75
     1
175
     1
 42
1.0
 92
        8
 66
     7
 43
1.0
 76
     1
 77
     6
 78
     2
 67
     7
 79
     5
170
     0
171
     0
290
     0
174
     0
 93
        1
 44
0.0
173
     0
291
     1
 45
0.0
1001
ACAD
1000
AcDbSavedByObjectVersion
1070
     0
  0
VISUALSTYLE
  5
36
102
{ACAD_REACTORS
330
2A
102
}
102
{ACAD_XDICTIONARY
360
2EC
102
}
330
2A
100
AcDbVisualStyle
  2
Brighten
 70
    12
 71
     2
 72
     2
 73
     0
 90
        0
 40
-0.6
 41
-30.0
 62
     5
 63
     7
421
 16777215
 74
     1
 91
        4
 64
     7
 65
   257
 75
     1
175
     1
 42
1.0
 92
        8
 66
     7
 43
1.0
 76
     1
 77
     6
 78
     2
 67
     7
 79
     5
170
     0
171
     0
290
     0
174
     0
 93
        1
 44
50.0
173
     0
291
     1
 45
0.0
1001
ACAD
1000
AcDbSavedByObjectVersion
1070
     0
  0
VISUALSTYLE
  5
3A
102
{ACAD_REACTORS
330
2A
102
}
102
{ACAD_XDICTIONARY
360
2F4
102
}
330
2A
100
AcDbVisualStyle
  2
ColorChange
 70
    16
 71
     2
 72
     2
 73
     3
 90
        0
 40
-0.6
 41
-30.0
 62
     5
 63
     8
421
  8421504
 74
     1
 91
        4
 64
     7
 65
   257
 75
     1
175
     1
 42
1.0
 92
        8
 66
     8
424
  8421504
 43
1.0
 76
     1
 77
     6
 78
     2
 67
     7
 79
     5
170
     0
171
     0
290
     0
174
     0
 93
        1
 44
0.0
173
     0
291
     1
 45
0.0
1001
ACAD
1000
AcDbSavedByObjectVersion
1070
     0
  0
VISUALSTYLE
  5
34
102
{ACAD_REACTORS
330
2A
102
}
102
{ACAD_XDICTIONARY
360
2E8
102
}
330
2A
100
AcDbVisualStyle
  2
Conceptual
 70
     9
 71
     3
 72
     2
 73
     0
 90
        0
 40
-0.6
 41
-30.0
 62
     5
 63
     7
421
 16777215
 74
     2
 91
        2
 64
     7
 65
   257
 75
     1
175
     1
 42
40.0
 92
        8
 66
     7
 43
1.0
 76
     1
 77
     6
 78
     2
 67
     7
 79
     3
170
     0
171
     0
290
     0
174
     0
 93
        1
 44
0.0
173
     0
291
     0
 45
0.0
1001
ACAD
1000
AcDbSavedByObjectVersion
1070
     0
  0
VISUALSTYLE
  5
35
102
{ACAD_REACTORS
330
2A
102
}
102
{ACAD_XDICTIONARY
360
2EA
102
}
330
2A
100
AcDbVisualStyle
  2
Dim
 70
    11
 71
     2
 72
     2
 73
     0
 90
        0
 40
-0.6
 41
-30.0
 62
     5
 63
     7
421
 16777215
 74
     1
 91
        4
 64
     7
 65
   257
 75
     1
175
     1
 42
1.0
 92
        8
 66
     7
 43
1.0
 76
     1
 77
     6
 78
     2
 67
     7
 79
     5
170
     0
171
     0
290
     0
174
     0
 93
        1
 44
-50.0
173
     0
291
     1
 45
0.0
1001
ACAD
1000
AcDbSavedByObjectVersion
1070
     0
  0
VISUALSTYLE
  5
39
102
{ACAD_REACTORS
330
2A
102
}
102
{ACAD_XDICTIONARY
360
2F2
102
}
330
2A
100
AcDbVisualStyle
  2
Facepattern
 70
    15
 71
     2
 72
     2
 73
     0
 90
        0
 40
-0.6
 41
-30.0
 62
     5
 63
     7
421
 16777215
 74
     1
 91
        4
 64
     7
 65
   257
 75
     1
175
     1
 42
1.0
 92
        8
 66
     7
 43
1.0
 76
     1
 77
     6
 78
     2
 67
     7
 79
     5
170
     0
171
     0
290
     0
174
     0
 93
        1
 44
0.0
173
     0
291
     1
 45
0.0
1001
ACAD
1000
AcDbSavedByObjectVersion
1070
     0
  0
VISUALSTYLE
  5
2B
102
{ACAD_REACTORS
330
2A
102
}
102
{ACAD_XDICTIONARY
360
2D6
102
}
330
2A
100
AcDbVisualStyle
  2
Flat
 70
     0
 71
     2
 72
     1
 73
     1
 90
        2
 40
-0.6
 41
30.0
 62
     5
 63
     7
421
 16777215
 74
     0
 91
        4
 64
     7
 65
   257
 75
     1
175
     1
 42
1.0
 92
        8
 66
     7
 43
1.0
 76
     1
 77
     6
 78
     2
 67
     7
 79
     5
170
     0
171
     0
290
     0
174
     0
 93
       13
 44
0.0
173
     0
291
     1
 45
0.0
1001
ACAD
1000
AcDbSavedByObjectVersion
1070
     0
  0
VISUALSTYLE
  5
2C
102
{ACAD_REACTORS
330
2A
102
}
102
{ACAD_XDICTIONARY
360
2D8
102
}
330
2A
100
AcDbVisualStyle
  2
FlatWithEdges
 70
     1
 71
     2
 72
     1
 73
     1
 90
        2
 40
-0.6
 41
30.0
 62
     5
 63
     7
421
 16777215
 74
     1
 91
        4
 64
     7
 65
   257
 75
     1
175
     1
 42
1.0
 92
        0
 66
   257
 43
1.0
 76
     1
 77
     6
 78
     2
 67
     7
 79
     5
170
     0
171
     0
290
     0
174
     0
 93
       13
 44
0.0
173
     0
291
     1
 45
0.0
1001
ACAD
1000
AcDbSavedByObjectVersion
1070
     0
  0
VISUALSTYLE
  5
2D
102
{ACAD_REACTORS
330
2A
102
}
102
{ACAD_XDICTIONARY
360
2DA
102
}
330
2A
100
AcDbVisualStyle
  2
Gouraud
 70
     2
 71
     2
 72
     2
 73
     1
 90
        2
 40
-0.6
 41
30.0
 62
     5
 63
     7
421
 16777215
 74
     0
 91
        4
 64
     7
 65
   257
 75
     1
175
     1
 42
1.0
 92
        0
 66
     7
 43
1.0
 76
     1
 77
     6
 78
     2
 67
     7
 79
     5
170
     0
171
     0
290
     0
174
     0
 93
       13
 44
0.0
173
     0
291
     1
 45
0.0
1001
ACAD
1000
AcDbSavedByObjectVersion
1070
     0
  0
VISUALSTYLE
  5
2E
102
{ACAD_REACTORS
330
2A
102
}
102
{ACAD_XDICTIONARY
360
2DC
102
}
330
2A
100
AcDbVisualStyle
  2
GouraudWithEdges
 70
     3
 71
     2
 72
     2
 73
     1
 90
        2
 40
-0.6
 41
30.0
 62
     5
 63
     7
421
 16777215
 74
     1
 91
        4
 64
     7
 65
   257
 75
     1
175
     1
 42
1.0
 92
        0
 66
   257
 43
1.0
 76
     1
 77
     6
 78
     2
 67
     7
 79
     5
170
     0
171
     0
290
     0
174
     0
 93
       13
 44
0.0
173
     0
291
     1
 45
0.0
1001
ACAD
1000
AcDbSavedByObjectVersion
1070
     0
  0
VISUALSTYLE
  5
38
102
{ACAD_REACTORS
330
2A
102
}
102
{ACAD_XDICTIONARY
360
2F0
102
}
330
2A
100
AcDbVisualStyle
  2
Linepattern
 70
    14
 71
     2
 72
     2
 73
     0
 90
        0
 40
-0.6
 41
-30.0
 62
     5
 63
     7
421
 16777215
 74
     1
 91
        4
 64
     7
 65
   257
 75
     7
175
     7
 42
1.0
 92
        8
 66
     7
 43
1.0
 76
     1
 77
     6
 78
     2
 67
     7
 79
     5
170
     0
171
     0
290
     0
174
     0
 93
        1
 44
0.0
173
     0
291
     1
 45
0.0
1001
ACAD
1000
AcDbSavedByObjectVersion
1070
     0
  0
VISUALSTYLE
  5
33
102
{ACAD_REACTORS
330
2A
102
}
102
{ACAD_XDICTIONARY
360
2E6
102
}
330
2A
100
AcDbVisualStyle
  2
Realistic
 70
     8
 71
     2
 72
     2
 73
     0
 90
        0
 40
-0.6
 41
-30.0
 62
     5
 63
     7
421
 16777215
 74
     1
 91
        0
 64
     7
 65
   257
 75
     1
175
     1
 42
1.0
 92
        8
 66
     8
424
  7895160
 43
1.0
 76
     1
 77
     6
 78
     2
 67
     7
 79
     5
170
     0
171
     0
290
     0
174
     0
 93
       13
 44
0.0
173
     0
291
     0
 45
0.0
1001
ACAD
1000
AcDbSavedByObjectVersion
1070
     0
  0
VISUALSTYLE
  5
37
102
{ACAD_REACTORS
330
2A
102
}
102
{ACAD_XDICTIONARY
360
2EE
102
}
330
2A
100
AcDbVisualStyle
  2
Thicken
 70
    13
 71
     2
 72
     2
 73
     0
 90
        0
 40
-0.6
 41
-30.0
 62
     5
 63
     7
421
 16777215
 74
     1
 91
        4
 64
     7
 65
   257
 75
     1
175
     1
 42
1.0
 92
       12
 66
     7
 43
1.0
 76
     1
 77
     6
 78
     2
 67
     7
 79
     5
170
     0
171
     0
290
     0
174
     0
 93
        1
 44
0.0
173
     0
291
     1
 45
0.0
1001
ACAD
1000
AcDbSavedByObjectVersion
1070
     0
  0
DICTIONARY
  5
2F8
330
3D
100
AcDbDictionary
280
     1
281
     1
  3
ACAD_XREC_ROUNDTRIP
360
2F9
  0
DICTIONARY
  5
2F6
330
3C
100
AcDbDictionary
280
     1
281
     1
  3
ACAD_XREC_ROUNDTRIP
360
2F7
  0
DICTIONARY
  5
2FA
330
3E
100
AcDbDictionary
280
     1
281
     1
  3
ACAD_XREC_ROUNDTRIP
360
2FB
  0
DICTIONARY
  5
2DE
330
2F
100
AcDbDictionary
280
     1
281
     1
  3
ACAD_XREC_ROUNDTRIP
360
2DF
  0
DICTIONARY
  5
2E2
330
31
100
AcDbDictionary
280
     1
281
     1
  3
ACAD_XREC_ROUNDTRIP
360
2E3
  0
DICTIONARY
  5
2E0
330
30
100
AcDbDictionary
280
     1
281
     1
  3
ACAD_XREC_ROUNDTRIP
360
2E1
  0
DICTIONARY
  5
2E4
330
32
100
AcDbDictionary
280
     1
281
     1
  3
ACAD_XREC_ROUNDTRIP
360
2E5
  0
DICTIONARY
  5
2EC
330
36
100
AcDbDictionary
280
     1
281
     1
  3
ACAD_XREC_ROUNDTRIP
360
2ED
  0
DICTIONARY
  5
2F4
330
3A
100
AcDbDictionary
280
     1
281
     1
  3
ACAD_XREC_ROUNDTRIP
360
2F5
  0
DICTIONARY
  5
2E8
330
34
100
AcDbDictionary
280
     1
281
     1
  3
ACAD_XREC_ROUNDTRIP
360
2E9
  0
DICTIONARY
  5
2EA
330
35
100
AcDbDictionary
280
     1
281
     1
  3
ACAD_XREC_ROUNDTRIP
360
2EB
  0
DICTIONARY
  5
2F2
330
39
100
AcDbDictionary
280
     1
281
     1
  3
ACAD_XREC_ROUNDTRIP
360
2F3
  0
DICTIONARY
  5
2D6
330
2B
100
AcDbDictionary
280
     1
281
     1
  3
ACAD_XREC_ROUNDTRIP
360
2D7
  0
DICTIONARY
  5
2D8
330
2C
100
AcDbDictionary
280
     1
281
     1
  3
ACAD_XREC_ROUNDTRIP
360
2D9
  0
DICTIONARY
  5
2DA
330
2D
100
AcDbDictionary
280
     1
281
     1
  3
ACAD_XREC_ROUNDTRIP
360
2DB
  0
DICTIONARY
  5
2DC
330
2E
100
AcDbDictionary
280
     1
281
     1
  3
ACAD_XREC_ROUNDTRIP
360
2DD
  0
DICTIONARY
  5
2F0
330
38
100
AcDbDictionary
280
     1
281
     1
  3
ACAD_XREC_ROUNDTRIP
360
2F1
  0
DICTIONARY
  5
2E6
330
33
100
AcDbDictionary
280
     1
281
     1
  3
ACAD_XREC_ROUNDTRIP
360
2E7
  0
DICTIONARY
  5
2EE
330
37
100
AcDbDictionary
280
     1
281
     1
  3
ACAD_XREC_ROUNDTRIP
360
2EF
  0
XRECORD
  5
2F9
102
{ACAD_REACTORS
330
2F8
102
}
330
2F8
100
AcDbXrecord
280
     1
102
MATERIAL
148
0.0
149
0.0
149
0.0
 93
        0
 94
      127
282
     0
 72
     1
 77
     1
171
     1
175
     1
179
     1
273
     0
  0
XRECORD
  5
2F7
102
{ACAD_REACTORS
330
2F6
102
}
330
2F6
100
AcDbXrecord
280
     1
102
MATERIAL
148
0.0
149
0.0
149
0.0
 93
        0
 94
      127
282
     0
 72
     1
 77
     1
171
     1
175
     1
179
     1
273
     0
  0
XRECORD
  5
2FB
102
{ACAD_REACTORS
330
2FA
102
}
330
2FA
100
AcDbXrecord
280
     1
102
MATERIAL
148
0.0
149
0.0
149
0.0
 93
        0
 94
      127
282
     0
 72
     1
 77
     1
171
     1
175
     1
179
     1
273
     0
  0
XRECORD
  5
2DF
102
{ACAD_REACTORS
330
2DE
102
}
330
2DE
100
AcDbXrecord
280
     1
102
RTVSPropertyOp0
 70
     1
102
RTVSPropertyOp1
 70
     1
102
RTVSPropertyOp2
 70
     1
102
RTVSPropertyOp3
 70
     1
102
RTVSPropertyOp4
 70
     1
102
RTVSPropertyOp5
 70
     1
102
RTVSPropertyOp6
 70
     1
102
RTVSPropertyOp7
 70
     1
102
RTVSPropertyOp8
 70
     1
102
RTVSPropertyOp9
 70
     1
102
RTVSPropertyOp10
 70
     1
102
RTVSPropertyOp11
 70
     1
102
RTVSPropertyOp12
 70
     1
102
RTVSPropertyOp13
 70
     1
102
RTVSPropertyOp14
 70
     1
102
RTVSPropertyOp15
 70
     1
102
RTVSPropertyOp16
 70
     1
102
RTVSPropertyOp17
 70
     1
102
RTVSPropertyOp18
 70
     1
102
RTVSPropertyOp19
 70
     1
102
RTVSPropertyOp20
 70
     1
102
RTVSPropertyOp21
 70
     1
102
RTVSPropertyOp22
 70
     1
102
RTVSPropertyOp23
 70
     1
102
RTVSPropertyOp24
 70
     1
102
RTVSPropertyOp25
 70
     1
102
RTVSPropertyOp26
 70
     1
102
RTVSPropertyOp27
 70
     1
102
RTVSPropertyOp28
 70
     1
102
RTVSPropertyOp29
 70
     1
102
RTVSPropertyOp30
 70
     1
102
RTVSPropertyOp31
 70
     1
102
RTVSPropertyOp32
 70
     1
  0
XRECORD
  5
2E3
102
{ACAD_REACTORS
330
2E2
102
}
330
2E2
100
AcDbXrecord
280
     1
102
RTVSPropertyOp0
 70
     1
102
RTVSPropertyOp1
 70
     1
102
RTVSPropertyOp2
 70
     1
102
RTVSPropertyOp3
 70
     1
102
RTVSPropertyOp4
 70
     1
102
RTVSPropertyOp5
 70
     1
102
RTVSPropertyOp6
 70
     1
102
RTVSPropertyOp7
 70
     1
102
RTVSPropertyOp8
 70
     1
102
RTVSPropertyOp9
 70
     1
102
RTVSPropertyOp10
 70
     1
102
RTVSPropertyOp11
 70
     1
102
RTVSPropertyOp12
 70
     1
102
RTVSPropertyOp13
 70
     1
102
RTVSPropertyOp14
 70
     1
102
RTVSPropertyOp15
 70
     1
102
RTVSPropertyOp16
 70
     1
102
RTVSPropertyOp17
 70
     1
102
RTVSPropertyOp18
 70
     1
102
RTVSPropertyOp19
 70
     1
102
RTVSPropertyOp20
 70
     1
102
RTVSPropertyOp21
 70
     1
102
RTVSPropertyOp22
 70
     1
102
RTVSPropertyOp23
 70
     1
102
RTVSPropertyOp24
 70
     1
102
RTVSPropertyOp25
 70
     1
102
RTVSPropertyOp26
 70
     1
102
RTVSPropertyOp27
 70
     1
102
RTVSPropertyOp28
 70
     1
102
RTVSPropertyOp29
 70
     1
102
RTVSPropertyOp30
 70
     1
102
RTVSPropertyOp31
 70
     1
102
RTVSPropertyOp32
 70
     1
  0
XRECORD
  5
2E1
102
{ACAD_REACTORS
330
2E0
102
}
330
2E0
100
AcDbXrecord
280
     1
102
RTVSPropertyOp0
 70
     1
102
RTVSPropertyOp1
 70
     1
102
RTVSPropertyOp2
 70
     1
102
RTVSPropertyOp3
 70
     1
102
RTVSPropertyOp4
 70
     1
102
RTVSPropertyOp5
 70
     1
102
RTVSPropertyOp6
 70
     1
102
RTVSPropertyOp7
 70
     1
102
RTVSPropertyOp8
 70
     1
102
RTVSPropertyOp9
 70
     1
102
RTVSPropertyOp10
 70
     1
102
RTVSPropertyOp11
 70
     1
102
RTVSPropertyOp12
 70
     1
102
RTVSPropertyOp13
 70
     1
102
RTVSPropertyOp14
 70
     1
102
RTVSPropertyOp15
 70
     1
102
RTVSPropertyOp16
 70
     1
102
RTVSPropertyOp17
 70
     1
102
RTVSPropertyOp18
 70
     1
102
RTVSPropertyOp19
 70
     1
102
RTVSPropertyOp20
 70
     1
102
RTVSPropertyOp21
 70
     1
102
RTVSPropertyOp22
 70
     1
102
RTVSPropertyOp23
 70
     1
102
RTVSPropertyOp24
 70
     1
102
RTVSPropertyOp25
 70
     1
102
RTVSPropertyOp26
 70
     1
102
RTVSPropertyOp27
 70
     1
102
RTVSPropertyOp28
 70
     1
102
RTVSPropertyOp29
 70
     1
102
RTVSPropertyOp30
 70
     1
102
RTVSPropertyOp31
 70
     1
102
RTVSPropertyOp32
 70
     1
  0
XRECORD
  5
2E5
102
{ACAD_REACTORS
330
2E4
102
}
330
2E4
100
AcDbXrecord
280
     1
102
RTVSPropertyOp0
 70
     1
102
RTVSPropertyOp1
 70
     1
102
RTVSPropertyOp2
 70
     1
102
RTVSPropertyOp3
 70
     1
102
RTVSPropertyOp4
 70
     1
102
RTVSPropertyOp5
 70
     1
102
RTVSPropertyOp6
 70
     1
102
RTVSPropertyOp7
 70
     1
102
RTVSPropertyOp8
 70
     1
102
RTVSPropertyOp9
 70
     1
102
RTVSPropertyOp10
 70
     1
102
RTVSPropertyOp11
 70
     1
102
RTVSPropertyOp12
 70
     1
102
RTVSPropertyOp13
 70
     1
102
RTVSPropertyOp14
 70
     1
102
RTVSPropertyOp15
 70
     1
102
RTVSPropertyOp16
 70
     1
102
RTVSPropertyOp17
 70
     1
102
RTVSPropertyOp18
 70
     1
102
RTVSPropertyOp19
 70
     1
102
RTVSPropertyOp20
 70
     1
102
RTVSPropertyOp21
 70
     1
102
RTVSPropertyOp22
 70
     1
102
RTVSPropertyOp23
 70
     1
102
RTVSPropertyOp24
 70
     1
102
RTVSPropertyOp25
 70
     1
102
RTVSPropertyOp26
 70
     1
102
RTVSPropertyOp27
 70
     1
102
RTVSPropertyOp28
 70
     1
102
RTVSPropertyOp29
 70
     1
102
RTVSPropertyOp30
 70
     1
102
RTVSPropertyOp31
 70
     1
102
RTVSPropertyOp32
 70
     1
  0
XRECORD
  5
2ED
102
{ACAD_REACTORS
330
2EC
102
}
330
2EC
100
AcDbXrecord
280
     1
102
RTVSPropertyOp0
 70
     1
102
RTVSPropertyOp1
 70
     1
102
RTVSPropertyOp2
 70
     1
102
RTVSPropertyOp3
 70
     1
102
RTVSPropertyOp4
 70
     1
102
RTVSPropertyOp5
 70
     1
102
RTVSPropertyOp6
 70
     1
102
RTVSPropertyOp7
 70
     1
102
RTVSPropertyOp8
 70
     1
102
RTVSPropertyOp9
 70
     1
102
RTVSPropertyOp10
 70
     1
102
RTVSPropertyOp11
 70
     1
102
RTVSPropertyOp12
 70
     1
102
RTVSPropertyOp13
 70
     1
102
RTVSPropertyOp14
 70
     1
102
RTVSPropertyOp15
 70
     1
102
RTVSPropertyOp16
 70
     1
102
RTVSPropertyOp17
 70
     1
102
RTVSPropertyOp18
 70
     1
102
RTVSPropertyOp19
 70
     1
102
RTVSPropertyOp20
 70
     1
102
RTVSPropertyOp21
 70
     1
102
RTVSPropertyOp22
 70
     1
102
RTVSPropertyOp23
 70
     1
102
RTVSPropertyOp24
 70
     1
102
RTVSPropertyOp25
 70
     1
102
RTVSPropertyOp26
 70
     1
102
RTVSPropertyOp27
 70
     1
102
RTVSPropertyOp28
 70
     1
102
RTVSPropertyOp29
 70
     1
102
RTVSPropertyOp30
 70
     1
102
RTVSPropertyOp31
 70
     1
102
RTVSPropertyOp32
 70
     1
  0
XRECORD
  5
2F5
102
{ACAD_REACTORS
330
2F4
102
}
330
2F4
100
AcDbXrecord
280
     1
102
RTVSPropertyOp0
 70
     1
102
RTVSPropertyOp1
 70
     1
102
RTVSPropertyOp2
 70
     1
102
RTVSPropertyOp3
 70
     1
102
RTVSPropertyOp4
 70
     1
102
RTVSPropertyOp5
 70
     1
102
RTVSPropertyOp6
 70
     1
102
RTVSPropertyOp7
 70
     1
102
RTVSPropertyOp8
 70
     1
102
RTVSPropertyOp9
 70
     1
102
RTVSPropertyOp10
 70
     1
102
RTVSPropertyOp11
 70
     1
102
RTVSPropertyOp12
 70
     1
102
RTVSPropertyOp13
 70
     1
102
RTVSPropertyOp14
 70
     1
102
RTVSPropertyOp15
 70
     1
102
RTVSPropertyOp16
 70
     1
102
RTVSPropertyOp17
 70
     1
102
RTVSPropertyOp18
 70
     1
102
RTVSPropertyOp19
 70
     1
102
RTVSPropertyOp20
 70
     1
102
RTVSPropertyOp21
 70
     1
102
RTVSPropertyOp22
 70
     1
102
RTVSPropertyOp23
 70
     1
102
RTVSPropertyOp24
 70
     1
102
RTVSPropertyOp25
 70
     1
102
RTVSPropertyOp26
 70
     1
102
RTVSPropertyOp27
 70
     1
102
RTVSPropertyOp28
 70
     1
102
RTVSPropertyOp29
 70
     1
102
RTVSPropertyOp30
 70
     1
102
RTVSPropertyOp31
 70
     1
102
RTVSPropertyOp32
 70
     1
  0
XRECORD
  5
2E9
102
{ACAD_REACTORS
330
2E8
102
}
330
2E8
100
AcDbXrecord
280
     1
102
RTVSPropertyOp0
 70
     1
102
RTVSPropertyOp1
 70
     1
102
RTVSPropertyOp2
 70
     1
102
RTVSPropertyOp3
 70
     1
102
RTVSPropertyOp4
 70
     1
102
RTVSPropertyOp5
 70
     1
102
RTVSPropertyOp6
 70
     1
102
RTVSPropertyOp7
 70
     1
102
RTVSPropertyOp8
 70
     1
102
RTVSPropertyOp9
 70
     1
102
RTVSPropertyOp10
 70
     1
102
RTVSPropertyOp11
 70
     1
102
RTVSPropertyOp12
 70
     1
102
RTVSPropertyOp13
 70
     1
102
RTVSPropertyOp14
 70
     1
102
RTVSPropertyOp15
 70
     1
102
RTVSPropertyOp16
 70
     1
102
RTVSPropertyOp17
 70
     1
102
RTVSPropertyOp18
 70
     1
102
RTVSPropertyOp19
 70
     1
102
RTVSPropertyOp20
 70
     1
102
RTVSPropertyOp21
 70
     1
102
RTVSPropertyOp22
 70
     1
102
RTVSPropertyOp23
 70
     1
102
RTVSPropertyOp24
 70
     1
102
RTVSPropertyOp25
 70
     1
102
RTVSPropertyOp26
 70
     1
102
RTVSPropertyOp27
 70
     1
102
RTVSPropertyOp28
 70
     1
102
RTVSPropertyOp29
 70
     1
102
RTVSPropertyOp30
 70
     1
102
RTVSPropertyOp31
 70
     1
102
RTVSPropertyOp32
 70
     1
  0
XRECORD
  5
2EB
102
{ACAD_REACTORS
330
2EA
102
}
330
2EA
100
AcDbXrecord
280
     1
102
RTVSPropertyOp0
 70
     1
102
RTVSPropertyOp1
 70
     1
102
RTVSPropertyOp2
 70
     1
102
RTVSPropertyOp3
 70
     1
102
RTVSPropertyOp4
 70
     1
102
RTVSPropertyOp5
 70
     1
102
RTVSPropertyOp6
 70
     1
102
RTVSPropertyOp7
 70
     1
102
RTVSPropertyOp8
 70
     1
102
RTVSPropertyOp9
 70
     1
102
RTVSPropertyOp10
 70
     1
102
RTVSPropertyOp11
 70
     1
102
RTVSPropertyOp12
 70
     1
102
RTVSPropertyOp13
 70
     1
102
RTVSPropertyOp14
 70
     1
102
RTVSPropertyOp15
 70
     1
102
RTVSPropertyOp16
 70
     1
102
RTVSPropertyOp17
 70
     1
102
RTVSPropertyOp18
 70
     1
102
RTVSPropertyOp19
 70
     1
102
RTVSPropertyOp20
 70
     1
102
RTVSPropertyOp21
 70
     1
102
RTVSPropertyOp22
 70
     1
102
RTVSPropertyOp23
 70
     1
102
RTVSPropertyOp24
 70
     1
102
RTVSPropertyOp25
 70
     1
102
RTVSPropertyOp26
 70
     1
102
RTVSPropertyOp27
 70
     1
102
RTVSPropertyOp28
 70
     1
102
RTVSPropertyOp29
 70
     1
102
RTVSPropertyOp30
 70
     1
102
RTVSPropertyOp31
 70
     1
102
RTVSPropertyOp32
 70
     1
  0
XRECORD
  5
2F3
102
{ACAD_REACTORS
330
2F2
102
}
330
2F2
100
AcDbXrecord
280
     1
102
RTVSPropertyOp0
 70
     1
102
RTVSPropertyOp1
 70
     1
102
RTVSPropertyOp2
 70
     1
102
RTVSPropertyOp3
 70
     1
102
RTVSPropertyOp4
 70
     1
102
RTVSPropertyOp5
 70
     1
102
RTVSPropertyOp6
 70
     1
102
RTVSPropertyOp7
 70
     1
102
RTVSPropertyOp8
 70
     1
102
RTVSPropertyOp9
 70
     1
102
RTVSPropertyOp10
 70
     1
102
RTVSPropertyOp11
 70
     1
102
RTVSPropertyOp12
 70
     1
102
RTVSPropertyOp13
 70
     1
102
RTVSPropertyOp14
 70
     1
102
RTVSPropertyOp15
 70
     1
102
RTVSPropertyOp16
 70
     1
102
RTVSPropertyOp17
 70
     1
102
RTVSPropertyOp18
 70
     1
102
RTVSPropertyOp19
 70
     1
102
RTVSPropertyOp20
 70
     1
102
RTVSPropertyOp21
 70
     1
102
RTVSPropertyOp22
 70
     1
102
RTVSPropertyOp23
 70
     1
102
RTVSPropertyOp24
 70
     1
102
RTVSPropertyOp25
 70
     1
102
RTVSPropertyOp26
 70
     1
102
RTVSPropertyOp27
 70
     1
102
RTVSPropertyOp28
 70
     1
102
RTVSPropertyOp29
 70
     1
102
RTVSPropertyOp30
 70
     1
102
RTVSPropertyOp31
 70
     1
102
RTVSPropertyOp32
 70
     1
  0
XRECORD
  5
2D7
102
{ACAD_REACTORS
330
2D6
102
}
330
2D6
100
AcDbXrecord
280
     1
102
RTVSPropertyOp0
 70
     1
102
RTVSPropertyOp1
 70
     1
102
RTVSPropertyOp2
 70
     1
102
RTVSPropertyOp3
 70
     1
102
RTVSPropertyOp4
 70
     1
102
RTVSPropertyOp5
 70
     1
102
RTVSPropertyOp6
 70
     1
102
RTVSPropertyOp7
 70
     1
102
RTVSPropertyOp8
 70
     1
102
RTVSPropertyOp9
 70
     1
102
RTVSPropertyOp10
 70
     1
102
RTVSPropertyOp11
 70
     1
102
RTVSPropertyOp12
 70
     1
102
RTVSPropertyOp13
 70
     1
102
RTVSPropertyOp14
 70
     1
102
RTVSPropertyOp15
 70
     1
102
RTVSPropertyOp16
 70
     1
102
RTVSPropertyOp17
 70
     1
102
RTVSPropertyOp18
 70
     1
102
RTVSPropertyOp19
 70
     1
102
RTVSPropertyOp20
 70
     1
102
RTVSPropertyOp21
 70
     1
102
RTVSPropertyOp22
 70
     1
102
RTVSPropertyOp23
 70
     1
102
RTVSPropertyOp24
 70
     1
102
RTVSPropertyOp25
 70
     1
102
RTVSPropertyOp26
 70
     1
102
RTVSPropertyOp27
 70
     1
102
RTVSPropertyOp28
 70
     1
102
RTVSPropertyOp29
 70
     1
102
RTVSPropertyOp30
 70
     1
102
RTVSPropertyOp31
 70
     1
102
RTVSPropertyOp32
 70
     1
  0
XRECORD
  5
2D9
102
{ACAD_REACTORS
330
2D8
102
}
330
2D8
100
AcDbXrecord
280
     1
102
RTVSPropertyOp0
 70
     1
102
RTVSPropertyOp1
 70
     1
102
RTVSPropertyOp2
 70
     1
102
RTVSPropertyOp3
 70
     1
102
RTVSPropertyOp4
 70
     1
102
RTVSPropertyOp5
 70
     1
102
RTVSPropertyOp6
 70
     1
102
RTVSPropertyOp7
 70
     1
102
RTVSPropertyOp8
 70
     1
102
RTVSPropertyOp9
 70
     1
102
RTVSPropertyOp10
 70
     1
102
RTVSPropertyOp11
 70
     1
102
RTVSPropertyOp12
 70
     1
102
RTVSPropertyOp13
 70
     1
102
RTVSPropertyOp14
 70
     1
102
RTVSPropertyOp15
 70
     1
102
RTVSPropertyOp16
 70
     1
102
RTVSPropertyOp17
 70
     1
102
RTVSPropertyOp18
 70
     1
102
RTVSPropertyOp19
 70
     1
102
RTVSPropertyOp20
 70
     1
102
RTVSPropertyOp21
 70
     1
102
RTVSPropertyOp22
 70
     1
102
RTVSPropertyOp23
 70
     1
102
RTVSPropertyOp24
 70
     1
102
RTVSPropertyOp25
 70
     1
102
RTVSPropertyOp26
 70
     1
102
RTVSPropertyOp27
 70
     1
102
RTVSPropertyOp28
 70
     1
102
RTVSPropertyOp29
 70
     1
102
RTVSPropertyOp30
 70
     1
102
RTVSPropertyOp31
 70
     1
102
RTVSPropertyOp32
 70
     1
  0
XRECORD
  5
2DB
102
{ACAD_REACTORS
330
2DA
102
}
330
2DA
100
AcDbXrecord
280
     1
102
RTVSPropertyOp0
 70
     1
102
RTVSPropertyOp1
 70
     1
102
RTVSPropertyOp2
 70
     1
102
RTVSPropertyOp3
 70
     1
102
RTVSPropertyOp4
 70
     1
102
RTVSPropertyOp5
 70
     1
102
RTVSPropertyOp6
 70
     1
102
RTVSPropertyOp7
 70
     1
102
RTVSPropertyOp8
 70
     1
102
RTVSPropertyOp9
 70
     1
102
RTVSPropertyOp10
 70
     1
102
RTVSPropertyOp11
 70
     1
102
RTVSPropertyOp12
 70
     1
102
RTVSPropertyOp13
 70
     1
102
RTVSPropertyOp14
 70
     1
102
RTVSPropertyOp15
 70
     1
102
RTVSPropertyOp16
 70
     1
102
RTVSPropertyOp17
 70
     1
102
RTVSPropertyOp18
 70
     1
102
RTVSPropertyOp19
 70
     1
102
RTVSPropertyOp20
 70
     1
102
RTVSPropertyOp21
 70
     1
102
RTVSPropertyOp22
 70
     1
102
RTVSPropertyOp23
 70
     1
102
RTVSPropertyOp24
 70
     1
102
RTVSPropertyOp25
 70
     1
102
RTVSPropertyOp26
 70
     1
102
RTVSPropertyOp27
 70
     1
102
RTVSPropertyOp28
 70
     1
102
RTVSPropertyOp29
 70
     1
102
RTVSPropertyOp30
 70
     1
102
RTVSPropertyOp31
 70
     1
102
RTVSPropertyOp32
 70
     1
  0
XRECORD
  5
2DD
102
{ACAD_REACTORS
330
2DC
102
}
330
2DC
100
AcDbXrecord
280
     1
102
RTVSPropertyOp0
 70
     1
102
RTVSPropertyOp1
 70
     1
102
RTVSPropertyOp2
 70
     1
102
RTVSPropertyOp3
 70
     1
102
RTVSPropertyOp4
 70
     1
102
RTVSPropertyOp5
 70
     1
102
RTVSPropertyOp6
 70
     1
102
RTVSPropertyOp7
 70
     1
102
RTVSPropertyOp8
 70
     1
102
RTVSPropertyOp9
 70
     1
102
RTVSPropertyOp10
 70
     1
102
RTVSPropertyOp11
 70
     1
102
RTVSPropertyOp12
 70
     1
102
RTVSPropertyOp13
 70
     1
102
RTVSPropertyOp14
 70
     1
102
RTVSPropertyOp15
 70
     1
102
RTVSPropertyOp16
 70
     1
102
RTVSPropertyOp17
 70
     1
102
RTVSPropertyOp18
 70
     1
102
RTVSPropertyOp19
 70
     1
102
RTVSPropertyOp20
 70
     1
102
RTVSPropertyOp21
 70
     1
102
RTVSPropertyOp22
 70
     1
102
RTVSPropertyOp23
 70
     1
102
RTVSPropertyOp24
 70
     1
102
RTVSPropertyOp25
 70
     1
102
RTVSPropertyOp26
 70
     1
102
RTVSPropertyOp27
 70
     1
102
RTVSPropertyOp28
 70
     1
102
RTVSPropertyOp29
 70
     1
102
RTVSPropertyOp30
 70
     1
102
RTVSPropertyOp31
 70
     1
102
RTVSPropertyOp32
 70
     1
  0
XRECORD
  5
2F1
102
{ACAD_REACTORS
330
2F0
102
}
330
2F0
100
AcDbXrecord
280
     1
102
RTVSPropertyOp0
 70
     1
102
RTVSPropertyOp1
 70
     1
102
RTVSPropertyOp2
 70
     1
102
RTVSPropertyOp3
 70
     1
102
RTVSPropertyOp4
 70
     1
102
RTVSPropertyOp5
 70
     1
102
RTVSPropertyOp6
 70
     1
102
RTVSPropertyOp7
 70
     1
102
RTVSPropertyOp8
 70
     1
102
RTVSPropertyOp9
 70
     1
102
RTVSPropertyOp10
 70
     1
102
RTVSPropertyOp11
 70
     1
102
RTVSPropertyOp12
 70
     1
102
RTVSPropertyOp13
 70
     1
102
RTVSPropertyOp14
 70
     1
102
RTVSPropertyOp15
 70
     1
102
RTVSPropertyOp16
 70
     1
102
RTVSPropertyOp17
 70
     1
102
RTVSPropertyOp18
 70
     1
102
RTVSPropertyOp19
 70
     1
102
RTVSPropertyOp20
 70
     1
102
RTVSPropertyOp21
 70
     1
102
RTVSPropertyOp22
 70
     1
102
RTVSPropertyOp23
 70
     1
102
RTVSPropertyOp24
 70
     1
102
RTVSPropertyOp25
 70
     1
102
RTVSPropertyOp26
 70
     1
102
RTVSPropertyOp27
 70
     1
102
RTVSPropertyOp28
 70
     1
102
RTVSPropertyOp29
 70
     1
102
RTVSPropertyOp30
 70
     1
102
RTVSPropertyOp31
 70
     1
102
RTVSPropertyOp32
 70
     1
  0
XRECORD
  5
2E7
102
{ACAD_REACTORS
330
2E6
102
}
330
2E6
100
AcDbXrecord
280
     1
102
RTVSPropertyOp0
 70
     1
102
RTVSPropertyOp1
 70
     1
102
RTVSPropertyOp2
 70
     1
102
RTVSPropertyOp3
 70
     1
102
RTVSPropertyOp4
 70
     1
102
RTVSPropertyOp5
 70
     1
102
RTVSPropertyOp6
 70
     1
102
RTVSPropertyOp7
 70
     1
102
RTVSPropertyOp8
 70
     1
102
RTVSPropertyOp9
 70
     1
102
RTVSPropertyOp10
 70
     1
102
RTVSPropertyOp11
 70
     1
102
RTVSPropertyOp12
 70
     1
102
RTVSPropertyOp13
 70
     1
102
RTVSPropertyOp14
 70
     1
102
RTVSPropertyOp15
 70
     1
102
RTVSPropertyOp16
 70
     1
102
RTVSPropertyOp17
 70
     1
102
RTVSPropertyOp18
 70
     1
102
RTVSPropertyOp19
 70
     1
102
RTVSPropertyOp20
 70
     1
102
RTVSPropertyOp21
 70
     1
102
RTVSPropertyOp22
 70
     1
102
RTVSPropertyOp23
 70
     1
102
RTVSPropertyOp24
 70
     1
102
RTVSPropertyOp25
 70
     1
102
RTVSPropertyOp26
 70
     1
102
RTVSPropertyOp27
 70
     1
102
RTVSPropertyOp28
 70
     1
102
RTVSPropertyOp29
 70
     1
102
RTVSPropertyOp30
 70
     1
102
RTVSPropertyOp31
 70
     1
102
RTVSPropertyOp32
 70
     1
  0
XRECORD
  5
2EF
102
{ACAD_REACTORS
330
2EE
102
}
330
2EE
100
AcDbXrecord
280
     1
102
RTVSPropertyOp0
 70
     1
102
RTVSPropertyOp1
 70
     1
102
RTVSPropertyOp2
 70
     1
102
RTVSPropertyOp3
 70
     1
102
RTVSPropertyOp4
 70
     1
102
RTVSPropertyOp5
 70
     1
102
RTVSPropertyOp6
 70
     1
102
RTVSPropertyOp7
 70
     1
102
RTVSPropertyOp8
 70
     1
102
RTVSPropertyOp9
 70
     1
102
RTVSPropertyOp10
 70
     1
102
RTVSPropertyOp11
 70
     1
102
RTVSPropertyOp12
 70
     1
102
RTVSPropertyOp13
 70
     1
102
RTVSPropertyOp14
 70
     1
102
RTVSPropertyOp15
 70
     1
102
RTVSPropertyOp16
 70
     1
102
RTVSPropertyOp17
 70
     1
102
RTVSPropertyOp18
 70
     1
102
RTVSPropertyOp19
 70
     1
102
RTVSPropertyOp20
 70
     1
102
RTVSPropertyOp21
 70
     1
102
RTVSPropertyOp22
 70
     1
102
RTVSPropertyOp23
 70
     1
102
RTVSPropertyOp24
 70
     1
102
RTVSPropertyOp25
 70
     1
102
RTVSPropertyOp26
 70
     1
102
RTVSPropertyOp27
 70
     1
102
RTVSPropertyOp28
 70
     1
102
RTVSPropertyOp29
 70
     1
102
RTVSPropertyOp30
 70
     1
102
RTVSPropertyOp31
 70
     1
102
RTVSPropertyOp32
 70
     1
  0
ENDSEC
  0
EOF
