  0
SECTION
  2
HEADER
  9
$ACADVER
  1
AC1018
  9
$ACADMAINTVER
 70
     0
  9
$DWGCODEPAGE
  3
ANSI_932
  9
$INSBASE
 10
0.0
 20
0.0
 30
0.0
  9
$EXTMIN
 10
-105.0
 20
-148.5
 30
0.0
  9
$EXTMAX
 10
105.0
 20
148.5
 30
0.0
  9
$LIMMIN
 10
-105.0
 20
-148.5
  9
$LIMMAX
 10
105.0
 20
148.5
  9
$ORTHOMODE
 70
     0
  9
$REGENMODE
 70
     1
  9
$FILLMODE
 70
     1
  9
$QTEXTMODE
 70
     0
  9
$MIRRTEXT
 70
     1
  9
$LTSCALE
 40
1.0
  9
$ATTMODE
 70
     1
  9
$TEXTSIZE
 40
2.5
  9
$TRACEWID
 40
1.0
  9
$TEXTSTYLE
  7
Standard
  9
$CLAYER
  8
0
  9
$CELTYPE
  6
ByLayer
  9
$CECOLOR
 62
   256
  9
$CELTSCALE
 40
1.0
  9
$DISPSILH
 70
     0
  9
$DIMSCALE
 40
1.0
  9
$DIMASZ
 40
2.5
  9
$DIMEXO
 40
0.625
  9
$DIMDLI
 40
3.75
  9
$DIMRND
 40
0.0
  9
$DIMDLE
 40
0.0
  9
$DIMEXE
 40
1.25
  9
$DIMTP
 40
0.0
  9
$DIMTM
 40
0.0
  9
$DIMTXT
 40
2.5
  9
$DIMCEN
 40
2.5
  9
$DIMTSZ
 40
0.0
  9
$DIMTOL
 70
     0
  9
$DIMLIM
 70
     0
  9
$DIMTIH
 70
     0
  9
$DIMTOH
 70
     0
  9
$DIMSE1
 70
     0
  9
$DIMSE2
 70
     0
  9
$DIMTAD
 70
     1
  9
$DIMZIN
 70
     8
  9
$DIMBLK
  1

  9
$DIMASO
 70
     1
  9
$DIMSHO
 70
     1
  9
$DIMPOST
  1

  9
$DIMAPOST
  1

  9
$DIMALT
 70
     0
  9
$DIMALTD
 70
     3
  9
$DIMALTF
 40
0.03937007874016
  9
$DIMLFAC
 40
1.0
  9
$DIMTOFL
 70
     1
  9
$DIMTVP
 40
0.0
  9
$DIMTIX
 70
     0
  9
$DIMSOXD
 70
     0
  9
$DIMSAH
 70
     0
  9
$DIMBLK1
  1

  9
$DIMBLK2
  1

  9
$DIMSTYLE
  2
ISO-25
  9
$DIMCLRD
 70
     0
  9
$DIMCLRE
 70
     0
  9
$DIMCLRT
 70
     0
  9
$DIMTFAC
 40
1.0
  9
$DIMGAP
 40
0.625
  9
$DIMJUST
 70
     0
  9
$DIMSD1
 70
     0
  9
$DIMSD2
 70
     0
  9
$DIMTOLJ
 70
     0
  9
$DIMTZIN
 70
     8
  9
$DIMALTZ
 70
     0
  9
$DIMALTTZ
 70
     0
  9
$DIMUPT
 70
     0
  9
$DIMDEC
 70
     2
  9
$DIMTDEC
 70
     2
  9
$DIMALTU
 70
     2
  9
$DIMALTTD
 70
     3
  9
$DIMTXSTY
  7
Standard
  9
$DIMAUNIT
 70
     0
  9
$DIMADEC
 70
     0
  9
$DIMALTRND
 40
0.0
  9
$DIMAZIN
 70
     0
  9
$DIMDSEP
 70
    44
  9
$DIMATFIT
 70
     3
  9
$DIMFRAC
 70
     0
  9
$DIMLDRBLK
  1

  9
$DIMLUNIT
 70
     2
  9
$DIMLWD
 70
    -2
  9
$DIMLWE
 70
    -2
  9
$DIMTMOVE
 70
     0
  9
$LUNITS
 70
     2
  9
$LUPREC
 70
     4
  9
$SKETCHINC
 40
1.0
  9
$FILLETRAD
 40
10.0
  9
$AUNITS
 70
     0
  9
$AUPREC
 70
     0
  9
$MENU
  1
.
  9
$ELEVATION
 40
0.0
  9
$PELEVATION
 40
0.0
  9
$THICKNESS
 40
0.0
  9
$LIMCHECK
 70
     0
  9
$CHAMFERA
 40
10.0
  9
$CHAMFERB
 40
10.0
  9
$CHAMFERC
 40
20.0
  9
$CHAMFERD
 40
0.0
  9
$SKPOLY
 70
     0
  9
$TDCREATE
 40
2457290.490973449
  9
$TDUCREATE
 40
2457290.115973449
  9
$TDUPDATE
 40
2457290.490974063
  9
$TDUUPDATE
 40
2457290.115974063
  9
$TDINDWG
 40
0.0000000116
  9
$TDUSRTIMER
 40
0.0000000116
  9
$USRTIMER
 70
     1
  9
$ANGBASE
 50
0.0
  9
$ANGDIR
 70
     0
  9
$PDMODE
 70
     0
  9
$PDSIZE
 40
0.0
  9
$PLINEWID
 40
0.0
  9
$SPLFRAME
 70
     0
  9
$SPLINETYPE
 70
     6
  9
$SPLINESEGS
 70
     8
  9
$HANDSEED
  5
567
  9
$SURFTAB1
 70
     6
  9
$SURFTAB2
 70
     6
  9
$SURFTYPE
 70
     6
  9
$SURFU
 70
     6
  9
$SURFV
 70
     6
  9
$UCSBASE
  2

  9
$UCSNAME
  2

  9
$UCSORG
 10
0.0
 20
0.0
 30
0.0
  9
$UCSXDIR
 10
1.0
 20
0.0
 30
0.0
  9
$UCSYDIR
 10
0.0
 20
1.0
 30
0.0
  9
$UCSORTHOREF
  2

  9
$UCSORTHOVIEW
 70
     0
  9
$UCSORGTOP
 10
0.0
 20
0.0
 30
0.0
  9
$UCSORGBOTTOM
 10
0.0
 20
0.0
 30
0.0
  9
$UCSORGLEFT
 10
0.0
 20
0.0
 30
0.0
  9
$UCSORGRIGHT
 10
0.0
 20
0.0
 30
0.0
  9
$UCSORGFRONT
 10
0.0
 20
0.0
 30
0.0
  9
$UCSORGBACK
 10
0.0
 20
0.0
 30
0.0
  9
$PUCSBASE
  2

  9
$PUCSNAME
  2

  9
$PUCSORG
 10
0.0
 20
0.0
 30
0.0
  9
$PUCSXDIR
 10
1.0
 20
0.0
 30
0.0
  9
$PUCSYDIR
 10
0.0
 20
1.0
 30
0.0
  9
$PUCSORTHOREF
  2

  9
$PUCSORTHOVIEW
 70
     0
  9
$PUCSORGTOP
 10
0.0
 20
0.0
 30
0.0
  9
$PUCSORGBOTTOM
 10
0.0
 20
0.0
 30
0.0
  9
$PUCSORGLEFT
 10
0.0
 20
0.0
 30
0.0
  9
$PUCSORGRIGHT
 10
0.0
 20
0.0
 30
0.0
  9
$PUCSORGFRONT
 10
0.0
 20
0.0
 30
0.0
  9
$PUCSORGBACK
 10
0.0
 20
0.0
 30
0.0
  9
$USERI1
 70
     0
  9
$USERI2
 70
     0
  9
$USERI3
 70
     0
  9
$USERI4
 70
     0
  9
$USERI5
 70
     0
  9
$USERR1
 40
0.0
  9
$USERR2
 40
0.0
  9
$USERR3
 40
0.0
  9
$USERR4
 40
0.0
  9
$USERR5
 40
0.0
  9
$WORLDVIEW
 70
     1
  9
$SHADEDGE
 70
     3
  9
$SHADEDIF
 70
    70
  9
$TILEMODE
 70
     1
  9
$MAXACTVP
 70
    64
  9
$PINSBASE
 10
0.0
 20
0.0
 30
0.0
  9
$PLIMCHECK
 70
     0
  9
$PEXTMIN
 10
1.000000000000000E+20
 20
1.000000000000000E+20
 30
1.000000000000000E+20
  9
$PEXTMAX
 10
-1.000000000000000E+20
 20
-1.000000000000000E+20
 30
-1.000000000000000E+20
  9
$PLIMMIN
 10
-105.0
 20
-148.5
  9
$PLIMMAX
 10
105.0
 20
148.5
  9
$UNITMODE
 70
     0
  9
$VISRETAIN
 70
     1
  9
$PLINEGEN
 70
     0
  9
$PSLTSCALE
 70
     1
  9
$TREEDEPTH
 70
  3020
  9
$CMLSTYLE
  2
Standard
  9
$CMLJUST
 70
     0
  9
$CMLSCALE
 40
20.0
  9
$PROXYGRAPHICS
 70
     1
  9
$MEASUREMENT
 70
     1
  9
$CELWEIGHT
370
    -1
  9
$ENDCAPS
280
     0
  9
$JOINSTYLE
280
     0
  9
$LWDISPLAY
290
     0
  9
$INSUNITS
 70
     4
  9
$HYPERLINKBASE
  1

  9
$STYLESHEET
  1

  9
$XEDIT
290
     1
  9
$CEPSNTYPE
380
     0
  9
$PSTYLEMODE
290
     1
  9
$FINGERPRINTGUID
  2
{0EC103DC-48A4-41C4-8AA3-3BDD8FD60FA1}
  9
$VERSIONGUID
  2
{FAEB1C32-E019-11D5-929B-00C0DF256EC4}
  9
$EXTNAMES
290
     1
  9
$PSVPSCALE
 40
0.0
  9
$OLESTARTUP
290
     0
  9
$SORTENTS
280
   127
  9
$INDEXCTL
280
     0
  9
$HIDETEXT
280
     1
  9
$XCLIPFRAME
290
     0
  9
$HALOGAP
280
     0
  9
$OBSCOLOR
 70
   257
  9
$OBSLTYPE
280
     0
  9
$INTERSECTIONDISPLAY
280
     0
  9
$INTERSECTIONCOLOR
 70
   257
  9
$DIMASSOC
280
     2
  9
$PROJECTNAME
  1

  0
ENDSEC
  0
SECTION
  2
CLASSES
  0
CLASS
  1
ACDBDICTIONARYWDFLT
  2
AcDbDictionaryWithDefault
  3
ObjectDBX Classes
 90
        0
 91
        4
280
     0
281
     0
  0
CLASS
  1
VISUALSTYLE
  2
AcDbVisualStyle
  3
ObjectDBX Classes
 90
     4095
 91
        4
280
     0
281
     0
  0
CLASS
  1
MATERIAL
  2
AcDbMaterial
  3
ObjectDBX Classes
 90
     1153
 91
        4
280
     0
281
     0
  0
CLASS
  1
SUN
  2
AcDbSun
  3
SCENEOE
 90
     1024
 91
        4
280
     0
281
     0
  0
ENDSEC
  0
SECTION
  2
TABLES
  0
TABLE
  2
VPORT
  5
8
330
0
100
AcDbSymbolTable
 70
     1
  0
VPORT
  5
29
330
8
100
AcDbSymbolTableRecord
100
AcDbViewportTableRecord
  2
*Active
 70
     0
 10
0.0
 20
0.0
 11
1.0
 21
1.0
 12
344.1869158878504
 22
148.5
 13
0.0
 23
0.0
 14
10.0
 24
10.0
 15
10.0
 25
10.0
 16
0.0
 26
0.0
 36
1.0
 17
0.0
 27
0.0
 37
0.0
 40
297.0
 41
1.972972972850329
 42
50.0
 43
0.0
 44
0.0
 50
0.0
 51
0.0
 71
     0
 72
   100
 73
     1
 74
     3
 75
     0
 76
     0
 77
     0
 78
     0
281
     0
 65
     1
110
0.0
120
0.0
130
0.0
111
1.0
121
0.0
131
0.0
112
0.0
122
1.0
132
0.0
 79
     0
146
0.0
  0
ENDTAB
  0
TABLE
  2
LTYPE
  5
5
330
0
100
AcDbSymbolTable
 70
     5
  0
LTYPE
  5
14
330
5
100
AcDbSymbolTableRecord
100
AcDbLinetypeTableRecord
  2
ByBlock
 70
     0
  3

 72
    65
 73
     0
 40
0.0
  0
LTYPE
  5
15
330
5
100
AcDbSymbolTableRecord
100
AcDbLinetypeTableRecord
  2
ByLayer
 70
     0
  3

 72
    65
 73
     0
 40
0.0
  0
LTYPE
  5
16
330
5
100
AcDbSymbolTableRecord
100
AcDbLinetypeTableRecord
  2
Continuous
 70
     0
  3
Solid line
 72
    65
 73
     0
 40
0.0
  0
LTYPE
  5
40
330
5
100
AcDbSymbolTableRecord
100
AcDbLinetypeTableRecord
  2
CONTINOUS
 70
     0
  3
______________________________
 72
    65
 73
     0
 40
0.0
  0
LTYPE
  5
41
330
5
100
AcDbSymbolTableRecord
100
AcDbLinetypeTableRecord
  2
DASHED
 70
     0
  3
__ __ __ __ __ __ __ __ __ __ __ __ __ __ __ __
 72
    65
 73
     2
 40
4.5
 49
3.0
 74
     0
 49
-1.5
 74
     0
  0
LTYPE
  5
42
330
5
100
AcDbSymbolTableRecord
100
AcDbLinetypeTableRecord
  2
PHANTOM
 70
     0
  3
______  __  __  ______  __  __  _____
 72
    65
 73
     6
 40
15.0
 49
7.5
 74
     0
 49
-1.5
 74
     0
 49
1.5
 74
     0
 49
-1.5
 74
     0
 49
1.5
 74
     0
 49
-1.5
 74
     0
  0
LTYPE
  5
43
330
5
100
AcDbSymbolTableRecord
100
AcDbLinetypeTableRecord
  2
CENTER
 70
     0
  3
____ _ ____ _ ____ _ ____ _ ____ _ ____
 72
    65
 73
     4
 40
12.0
 49
7.5
 74
     0
 49
-1.5
 74
     0
 49
1.5
 74
     0
 49
-1.5
 74
     0
  0
ENDTAB
  0
TABLE
  2
LAYER
  5
2
330
0
100
AcDbSymbolTable
 70
     3
  0
LAYER
  5
10
330
2
100
AcDbSymbolTableRecord
100
AcDbLayerTableRecord
  2
0
 70
     0
 62
     7
  6
Continuous
370
    -3
390
F
  0
LAYER
  5
13E
330
2
100
AcDbSymbolTableRecord
100
AcDbLayerTableRecord
  2
Defpoints
 70
     0
 62
     7
  6
Continuous
290
     0
370
    -3
390
F
  0
LAYER
  5
527
330
2
100
AcDbSymbolTableRecord
100
AcDbLayerTableRecord
  2
VIEW0001
 70
     0
 62
     7
  6
Continuous
370
    -3
390
F
  0
ENDTAB
  0
TABLE
  2
STYLE
  5
3
330
0
100
AcDbSymbolTable
 70
     1
  0
STYLE
  5
11
330
3
100
AcDbSymbolTableRecord
100
AcDbTextStyleTableRecord
  2
Standard
 70
     0
 40
0.0
 41
1.0
 50
0.0
 71
     0
 42
2.5
  3
ROMANS
  4
BIGFONT
  0
ENDTAB
  0
TABLE
  2
VIEW
  5
6
330
0
100
AcDbSymbolTable
 70
     0
  0
ENDTAB
  0
TABLE
  2
UCS
  5
7
330
0
100
AcDbSymbolTable
 70
     0
  0
ENDTAB
  0
TABLE
  2
APPID
  5
9
330
0
100
AcDbSymbolTable
 70
     1
  0
APPID
  5
12
330
9
100
AcDbSymbolTableRecord
100
AcDbRegAppTableRecord
  2
ACAD
 70
     0
  0
ENDTAB
  0
TABLE
  2
DIMSTYLE
  5
A
330
0
100
AcDbSymbolTable
 70
     1
100
AcDbDimStyleTable
  0
DIMSTYLE
105
27
102
{ACAD_REACTORS
330
137
330
14C
330
159
330
166
330
263
330
270
330
27E
330
28B
330
3F9
330
406
330
413
330
420
330
42D
330
43A
330
44E
330
45A
330
470
330
47D
330
48A
330
497
330
4AD
330
4C3
330
4D0
330
4DF
330
4EB
330
501
330
50D
330
51A
102
}
330
A
100
AcDbSymbolTableRecord
100
AcDbDimStyleTableRecord
  2
ISO-25
 70
     0
 41
2.5
 42
0.625
 43
3.75
 44
1.25
 73
     0
 74
     0
 77
     1
 78
     8
140
2.5
141
2.5
143
0.03937007874016
147
0.625
171
     3
172
     1
178
     0
271
     2
272
     2
274
     3
278
    44
283
     0
284
     8
340
11
  0
ENDTAB
  0
TABLE
  2
BLOCK_RECORD
  5
1
330
0
100
AcDbSymbolTable
 70
    33
  0
BLOCK_RECORD
  5
1F
330
1
100
AcDbSymbolTableRecord
100
AcDbBlockTableRecord
  2
*Model_Space
340
22
  0
BLOCK_RECORD
  5
1B
330
1
100
AcDbSymbolTableRecord
100
AcDbBlockTableRecord
  2
*Paper_Space
340
1E
  0
BLOCK_RECORD
  5
23
330
1
100
AcDbSymbolTableRecord
100
AcDbBlockTableRecord
  2
*Paper_Space0
340
26
  0
BLOCK_RECORD
  5
44
330
1
100
AcDbSymbolTableRecord
100
AcDbBlockTableRecord
  2
DTL0001
340
0
  0
BLOCK_RECORD
  5
47
330
1
100
AcDbSymbolTableRecord
100
AcDbBlockTableRecord
  2
DTL0002
340
0
  0
BLOCK_RECORD
  5
4A
330
1
100
AcDbSymbolTableRecord
100
AcDbBlockTableRecord
  2
DTL0003
340
0
  0
BLOCK_RECORD
  5
138
330
1
100
AcDbSymbolTableRecord
100
AcDbBlockTableRecord
  2
_OPEN30
340
0
102
{BLKREFS
331
146
331
145
331
154
331
153
331
161
331
160
331
16E
331
16D
331
26B
331
26A
331
278
331
277
331
286
331
285
331
293
331
292
331
401
331
400
331
40E
331
40D
331
41B
331
41A
331
428
331
427
331
435
331
434
331
0
331
0
331
455
331
454
331
0
331
0
331
478
331
477
331
485
331
484
331
492
331
491
331
0
331
0
331
0
331
0
331
4CB
331
4CA
331
4DA
331
4D9
331
4E6
331
4E5
331
0
331
0
331
508
331
507
331
515
331
514
331
522
331
521
102
}
  0
BLOCK_RECORD
  5
13F
330
1
100
AcDbSymbolTableRecord
100
AcDbBlockTableRecord
  2
*D5
340
0
  0
BLOCK_RECORD
  5
14D
330
1
100
AcDbSymbolTableRecord
100
AcDbBlockTableRecord
  2
*D6
340
0
  0
BLOCK_RECORD
  5
15A
330
1
100
AcDbSymbolTableRecord
100
AcDbBlockTableRecord
  2
*D7
340
0
  0
BLOCK_RECORD
  5
167
330
1
100
AcDbSymbolTableRecord
100
AcDbBlockTableRecord
  2
*D8
340
0
  0
BLOCK_RECORD
  5
264
330
1
100
AcDbSymbolTableRecord
100
AcDbBlockTableRecord
  2
*D9
340
0
  0
BLOCK_RECORD
  5
271
330
1
100
AcDbSymbolTableRecord
100
AcDbBlockTableRecord
  2
*D10
340
0
  0
BLOCK_RECORD
  5
27F
330
1
100
AcDbSymbolTableRecord
100
AcDbBlockTableRecord
  2
*D11
340
0
  0
BLOCK_RECORD
  5
28C
330
1
100
AcDbSymbolTableRecord
100
AcDbBlockTableRecord
  2
*D12
340
0
  0
BLOCK_RECORD
  5
3FA
330
1
100
AcDbSymbolTableRecord
100
AcDbBlockTableRecord
  2
*D13
340
0
  0
BLOCK_RECORD
  5
407
330
1
100
AcDbSymbolTableRecord
100
AcDbBlockTableRecord
  2
*D14
340
0
  0
BLOCK_RECORD
  5
414
330
1
100
AcDbSymbolTableRecord
100
AcDbBlockTableRecord
  2
*D15
340
0
  0
BLOCK_RECORD
  5
421
330
1
100
AcDbSymbolTableRecord
100
AcDbBlockTableRecord
  2
*D16
340
0
  0
BLOCK_RECORD
  5
42E
330
1
100
AcDbSymbolTableRecord
100
AcDbBlockTableRecord
  2
*D17
340
0
  0
BLOCK_RECORD
  5
43B
330
1
100
AcDbSymbolTableRecord
100
AcDbBlockTableRecord
  2
*D18
340
0
  0
BLOCK_RECORD
  5
44F
330
1
100
AcDbSymbolTableRecord
100
AcDbBlockTableRecord
  2
*D19
340
0
  0
BLOCK_RECORD
  5
45B
330
1
100
AcDbSymbolTableRecord
100
AcDbBlockTableRecord
  2
*D20
340
0
  0
BLOCK_RECORD
  5
471
330
1
100
AcDbSymbolTableRecord
100
AcDbBlockTableRecord
  2
*D21
340
0
  0
BLOCK_RECORD
  5
47E
330
1
100
AcDbSymbolTableRecord
100
AcDbBlockTableRecord
  2
*D22
340
0
  0
BLOCK_RECORD
  5
48B
330
1
100
AcDbSymbolTableRecord
100
AcDbBlockTableRecord
  2
*D23
340
0
  0
BLOCK_RECORD
  5
498
330
1
100
AcDbSymbolTableRecord
100
AcDbBlockTableRecord
  2
*D24
340
0
  0
BLOCK_RECORD
  5
4AE
330
1
100
AcDbSymbolTableRecord
100
AcDbBlockTableRecord
  2
*D25
340
0
  0
BLOCK_RECORD
  5
4C4
330
1
100
AcDbSymbolTableRecord
100
AcDbBlockTableRecord
  2
*D26
340
0
  0
BLOCK_RECORD
  5
4D1
330
1
100
AcDbSymbolTableRecord
100
AcDbBlockTableRecord
  2
*D27
340
0
  0
BLOCK_RECORD
  5
4E0
330
1
100
AcDbSymbolTableRecord
100
AcDbBlockTableRecord
  2
*D28
340
0
  0
BLOCK_RECORD
  5
4EC
330
1
100
AcDbSymbolTableRecord
100
AcDbBlockTableRecord
  2
*D29
340
0
  0
BLOCK_RECORD
  5
502
330
1
100
AcDbSymbolTableRecord
100
AcDbBlockTableRecord
  2
*D30
340
0
  0
BLOCK_RECORD
  5
50E
330
1
100
AcDbSymbolTableRecord
100
AcDbBlockTableRecord
  2
*D31
340
0
  0
BLOCK_RECORD
  5
51B
330
1
100
AcDbSymbolTableRecord
100
AcDbBlockTableRecord
  2
*D32
340
0
  0
ENDTAB
  0
ENDSEC
  0
SECTION
  2
BLOCKS
  0
BLOCK
  5
20
330
1F
100
AcDbEntity
  8
0
100
AcDbBlockBegin
  2
*Model_Space
 70
     0
 10
0.0
 20
0.0
 30
0.0
  3
*Model_Space
  1

  0
ENDBLK
  5
21
330
1F
100
AcDbEntity
  8
0
100
AcDbBlockEnd
  0
BLOCK
  5
1C
330
1B
100
AcDbEntity
 67
     1
  8
0
100
AcDbBlockBegin
  2
*Paper_Space
 70
     0
 10
0.0
 20
0.0
 30
0.0
  3
*Paper_Space
  1

  0
ENDBLK
  5
1D
330
1B
100
AcDbEntity
 67
     1
  8
0
100
AcDbBlockEnd
  0
BLOCK
  5
24
330
23
100
AcDbEntity
  8
0
100
AcDbBlockBegin
  2
*Paper_Space0
 70
     0
 10
0.0
 20
0.0
 30
0.0
  3
*Paper_Space0
  1

  0
ENDBLK
  5
25
330
23
100
AcDbEntity
  8
0
100
AcDbBlockEnd
  0
BLOCK
  5
45
330
44
100
AcDbEntity
  8
0
100
AcDbBlockBegin
  2
DTL0001
 70
     0
 10
0.0
 20
0.0
 30
0.0
  3
DTL0001
  1

  0
POINT
  5
4D
330
44
100
AcDbEntity
  8
0
 62
     0
100
AcDbPoint
 10
100.0000076293945
 20
137.5
 30
0.0
  0
POINT
  5
4E
330
44
100
AcDbEntity
  8
0
 62
     0
100
AcDbPoint
 10
105.0000076293945
 20
148.4999847412109
 30
0.0
  0
POINT
  5
4F
330
44
100
AcDbEntity
  8
0
 62
     0
100
AcDbPoint
 10
-105.0000076293945
 20
-148.4999847412109
 30
0.0
  0
POINT
  5
50
330
44
100
AcDbEntity
  8
0
 62
     0
100
AcDbPoint
 10
0.0
 20
0.0
 30
0.0
  0
POINT
  5
51
330
44
100
AcDbEntity
  8
0
 62
     0
100
AcDbPoint
 10
5.0
 20
-128.5
 30
0.0
  0
POINT
  5
52
330
44
100
AcDbEntity
  8
0
 62
     0
100
AcDbPoint
 10
-85.0
 20
-119.5
 30
0.0
  0
MTEXT
  5
53
330
44
100
AcDbEntity
  8
0
 62
     1
100
AcDbMText
 10
-82.50000762939453
 20
-123.4168127775192
 30
0.0
 40
7.0
 41
0.0
 71
     7
 72
     1
  1
{\W1;A4}
 11
6.123233995736766E-17
 21
1.0
 31
0.0
 73
     1
 44
1.0
  0
ENDBLK
  5
46
330
44
100
AcDbEntity
  8
0
100
AcDbBlockEnd
  0
BLOCK
  5
48
330
47
100
AcDbEntity
  8
0
100
AcDbBlockBegin
  2
DTL0002
 70
     0
 10
0.0
 20
0.0
 30
0.0
  3
DTL0002
  1

  0
POINT
  5
54
330
47
100
AcDbEntity
  8
0
 62
     0
100
AcDbPoint
 10
0.0
 20
0.0
 30
0.0
  0
LINE
  5
55
330
47
100
AcDbEntity
  8
0
  6
Continuous
 62
     0
100
AcDbLine
 10
-28.867919921875
 20
-131.7000122070312
 30
0.0
 11
45.80145263671875
 21
-131.7000122070312
 31
0.0
  0
LINE
  5
56
330
47
100
AcDbEntity
  8
0
  6
Continuous
 62
     0
100
AcDbLine
 10
57.70513916015625
 20
-57.0
 30
0.0
 11
64.80511474609375
 21
-57.0
 31
0.0
  0
LINE
  5
57
330
47
100
AcDbEntity
  8
0
  6
Continuous
 62
     0
100
AcDbLine
 10
55.1917724609375
 20
-68.0
 30
0.0
 11
64.80511474609375
 21
-68.0
 31
0.0
  0
LINE
  5
58
330
47
100
AcDbEntity
  8
0
  6
Continuous
 62
     0
100
AcDbLine
 10
58.70518398345386
 20
-68.00009595025018
 30
0.0
 11
53.77108345336372
 21
-124.3973401933314
 31
0.0
  0
LINE
  5
59
330
47
100
AcDbEntity
  8
0
  6
Continuous
 62
     0
100
AcDbLine
 10
58.70510864257812
 20
-68.0
 30
0.0
 11
64.80511474609375
 21
-68.0
 31
0.0
  0
LINE
  5
5A
330
47
100
AcDbEntity
  8
0
  6
Continuous
 62
     0
100
AcDbLine
 10
65.80511474609375
 20
-58.00003051757812
 30
0.0
 11
65.80511474609375
 21
-67.00003051757812
 31
0.0
  0
LINE
  5
5B
330
47
100
AcDbEntity
  8
0
  6
Continuous
 62
     0
100
AcDbLine
 10
57.70513916015625
 20
-57.0
 30
0.0
 11
57.70513916015625
 21
-57.9365234375
 31
0.0
  0
LINE
  5
5C
330
47
100
AcDbEntity
  8
0
  6
Continuous
 62
     0
100
AcDbLine
 10
60.03817749023438
 20
-55.20001220703125
 30
0.0
 11
65.1051025390625
 21
-55.20001220703125
 31
0.0
  0
LINE
  5
5D
330
47
100
AcDbEntity
  8
0
  6
Continuous
 62
     0
100
AcDbLine
 10
67.60513305664062
 20
-57.70001220703125
 30
0.0
 11
67.60513305664062
 21
-67.30001831054688
 31
0.0
  0
LINE
  5
5E
330
47
100
AcDbEntity
  8
0
  6
Continuous
 62
     0
100
AcDbLine
 10
60.3544921875
 20
-69.79998779296875
 30
0.0
 11
65.1051025390625
 21
-69.79998779296875
 31
0.0
  0
LINE
  5
5F
330
47
100
AcDbEntity
  8
0
  6
Continuous
 62
     0
100
AcDbLine
 10
60.35449666825741
 20
-69.79995289436599
 30
0.0
 11
55.56414883688591
 21
-124.5540899468263
 31
0.0
  0
LINE
  5
60
330
47
100
AcDbEntity
  8
0
  6
Continuous
 62
     0
100
AcDbLine
 10
56.90350850566329
 20
-69.0871052341946
 30
0.0
 11
55.7661607296206
 21
-82.08709984793079
 31
0.0
  0
LINE
  5
61
330
47
100
AcDbEntity
  8
0
  6
Continuous
 62
     0
100
AcDbLine
 10
55.19181618397236
 20
-67.99994716487507
 30
0.0
 11
53.87949530516344
 21
-82.99990119421244
 31
0.0
  0
LINE
  5
62
330
47
100
AcDbEntity
  8
0
  6
Continuous
 62
     0
100
AcDbLine
 10
53.87942504882812
 20
-83.0
 30
0.0
 11
54.594970703125
 21
-83.0
 31
0.0
  0
LINE
  5
63
330
47
100
AcDbEntity
  8
0
  6
Continuous
 62
     0
100
AcDbLine
 10
53.00454711914062
 20
-93.0
 30
0.0
 11
53.7200927734375
 21
-93.0
 31
0.0
  0
LINE
  5
64
330
47
100
AcDbEntity
  8
0
  6
Continuous
 62
     0
100
AcDbLine
 10
53.00461117292813
 20
-92.99991108237123
 30
0.0
 11
50.42017452926354
 21
-122.5402708165613
 31
0.0
  0
LINE
  5
65
330
47
100
AcDbEntity
  8
0
  6
Continuous
 62
     0
100
AcDbLine
 10
55.59118496708235
 20
-84.08708966498239
 30
0.0
 11
54.89127659738529
 21
-92.08710973608959
 31
0.0
  0
LINE
  5
66
330
47
100
AcDbEntity
  8
0
  6
Continuous
 62
     0
100
AcDbLine
 10
54.71630083484703
 20
-94.08709955314119
 30
0.0
 11
52.2132532151947
 21
-122.6971749046088
 31
0.0
  0
LINE
  5
67
330
47
100
AcDbEntity
  8
0
  6
Continuous
 62
     0
100
AcDbLine
 10
-21.16790771484375
 20
-130.0000305175781
 30
0.0
 11
0.132110595703125
 21
-130.0000305175781
 31
0.0
  0
LINE
  5
68
330
47
100
AcDbEntity
  8
0
  6
Continuous
 62
     0
100
AcDbLine
 10
-20.42233276367188
 20
-128.2000122070312
 30
0.0
 11
1.132110595703125
 21
-128.2000122070312
 31
0.0
  0
LINE
  5
69
330
47
100
AcDbEntity
  8
0
  6
Continuous
 62
     0
100
AcDbLine
 10
53.43709853976256
 20
-128.2148199205887
 30
0.0
 11
53.13217695509545
 21
-131.700102999153
 31
0.0
  0
LINE
  5
6A
330
47
100
AcDbEntity
  8
0
  6
Continuous
 62
     0
100
AcDbLine
 10
49.88592529296875
 20
-131.7000122070312
 30
0.0
 11
53.132080078125
 21
-131.7000122070312
 31
0.0
  0
LINE
  5
6B
330
47
100
AcDbEntity
  8
0
  6
Continuous
 62
     0
100
AcDbLine
 10
21.13211059570312
 20
-128.2000122070312
 30
0.0
 11
21.13211059570312
 21
-129.0
 31
0.0
  0
LINE
  5
6C
330
47
100
AcDbEntity
  8
0
  6
Continuous
 62
     0
100
AcDbLine
 10
1.13214111328125
 20
-128.2000122070312
 30
0.0
 11
1.13214111328125
 21
-129.0
 31
0.0
  0
LINE
  5
6D
330
47
100
AcDbEntity
  8
0
  6
Continuous
 62
     0
100
AcDbLine
 10
21.13211059570312
 20
-128.2000122070312
 30
0.0
 11
44.24371337890625
 21
-128.2000122070312
 31
0.0
  0
LINE
  5
6E
330
47
100
AcDbEntity
  8
0
  6
Continuous
 62
     0
100
AcDbLine
 10
2.132110595703125
 20
-130.0000305175781
 30
0.0
 11
20.132080078125
 21
-130.0000305175781
 31
0.0
  0
LINE
  5
6F
330
47
100
AcDbEntity
  8
0
  6
Continuous
 62
     0
100
AcDbLine
 10
22.13211059570312
 20
-130.0000305175781
 30
0.0
 11
44.24371337890625
 21
-130.0000305175781
 31
0.0
  0
LINE
  5
70
330
47
100
AcDbEntity
  8
0
  6
Continuous
 62
     0
100
AcDbLine
 10
-32.86788940429688
 20
-121.6986083984375
 30
0.0
 11
-32.86788940429688
 21
-127.7000122070312
 31
0.0
  0
LINE
  5
71
330
47
100
AcDbEntity
  8
0
  6
Continuous
 62
     0
100
AcDbLine
 10
-34.66790771484375
 20
-123.42919921875
 30
0.0
 11
-34.66790771484375
 21
-127.7000122070312
 31
0.0
  0
LINE
  5
72
330
47
100
AcDbEntity
  8
0
  6
Continuous
 62
     0
100
AcDbLine
 10
-32.86788940429688
 20
-121.6986083984375
 30
0.0
 11
-32.86788940429688
 21
-127.7000122070312
 31
0.0
  0
LINE
  5
73
330
47
100
AcDbEntity
  8
0
  6
Continuous
 62
     0
100
AcDbLine
 10
-52.66354828940061
 20
-65.45427068693385
 30
0.0
 11
-49.02048822222186
 21
-107.0944966007044
 31
0.0
  0
LINE
  5
74
330
47
100
AcDbEntity
  8
0
  6
Continuous
 62
     0
100
AcDbLine
 10
-33.08151245117188
 20
-118.2000122070312
 30
0.0
 11
-30.42233276367188
 21
-118.2000122070312
 31
0.0
  0
LINE
  5
75
330
47
100
AcDbEntity
  8
0
  6
Continuous
 62
     0
100
AcDbLine
 10
-33.08151245117188
 20
-120.0
 30
0.0
 11
-31.16793823242188
 21
-120.0
 31
0.0
  0
LINE
  5
76
330
47
100
AcDbEntity
  8
0
  6
Continuous
 62
     0
100
AcDbLine
 10
-31.16771315936487
 20
-119.9998029189487
 30
0.0
 11
-21.16770338385007
 21
-129.9998093227128
 31
0.0
  0
LINE
  5
77
330
47
100
AcDbEntity
  8
0
  6
Continuous
 62
     0
100
AcDbLine
 10
-30.4221903349621
 20
-118.1999098264876
 30
0.0
 11
-20.42219134904235
 21
-128.1999054406603
 31
0.0
  0
LINE
  5
78
330
47
100
AcDbEntity
  8
0
  6
Continuous
 62
     0
100
AcDbLine
 10
-46.867919921875
 20
-131.7000122070312
 30
0.0
 11
-32.15969848632812
 21
-131.7000122070312
 31
0.0
  0
LINE
  5
79
330
47
100
AcDbEntity
  8
0
  6
Continuous
 62
     0
100
AcDbLine
 10
-48.47101261002499
 20
-113.3750102908627
 30
0.0
 11
-46.86778094446462
 21
-131.699969944285
 31
0.0
  0
LINE
  5
7A
330
47
100
AcDbEntity
  8
0
  6
Continuous
 62
     0
100
AcDbLine
 10
-54.34679042260444
 20
-66.86669559738553
 30
0.0
 11
-50.81357972945747
 21
-107.2513416780429
 31
0.0
  0
LINE
  5
7B
330
47
100
AcDbEntity
  8
0
  6
Continuous
 62
     0
100
AcDbLine
 10
-51.14797295452843
 20
-63.27228050204562
 30
0.0
 11
-50.90569789927886
 21
-66.04148766520834
 31
0.0
  0
LINE
  5
7C
330
47
100
AcDbEntity
  8
0
  6
Continuous
 62
     0
100
AcDbLine
 10
-49.01889889464019
 20
-66.95427618882847
 30
0.0
 11
-45.53376126653561
 21
-106.7894464848929
 31
0.0
  0
LINE
  5
7D
330
47
100
AcDbEntity
  8
0
  6
Continuous
 62
     0
100
AcDbLine
 10
-65.10369043190872
 20
-37.99998008123055
 30
0.0
 11
-62.942713863501
 21
-62.69997152895513
 31
0.0
  0
LINE
  5
7E
330
47
100
AcDbEntity
  8
0
  6
Continuous
 62
     0
100
AcDbLine
 10
-62.94283192547131
 20
-62.69977413615377
 30
0.0
 11
-52.66368668107413
 21
-65.45406250920823
 31
0.0
  0
LINE
  5
7F
330
47
100
AcDbEntity
  8
0
  6
Continuous
 62
     0
100
AcDbLine
 10
-64.62609533989274
 20
-64.11219799140562
 30
0.0
 11
-54.34692061777849
 21
-66.86649426298972
 31
0.0
  0
LINE
  5
80
330
47
100
AcDbEntity
  8
0
  6
Continuous
 62
     0
100
AcDbLine
 10
-66.7530544297229
 20
-39.80002645542895
 30
0.0
 11
-64.62598221896125
 21
-64.11249063601807
 31
0.0
  0
LINE
  5
81
330
47
100
AcDbEntity
  8
0
  6
Continuous
 62
     0
100
AcDbLine
 10
-55.67088341662082
 20
-62.06011992154288
 30
0.0
 11
-51.14805832997739
 21
-63.27200712162802
 31
0.0
  0
LINE
  5
82
330
47
100
AcDbEntity
  8
0
  6
Continuous
 62
     0
100
AcDbLine
 10
-59.13758651514186
 20
-43.08715555460426
 30
0.0
 11
-57.82525088684802
 21
-58.08716956182973
 31
0.0
  0
LINE
  5
83
330
47
100
AcDbEntity
  8
0
  6
Continuous
 62
     0
100
AcDbLine
 10
-57.42581735388332
 20
-42.00005089510235
 30
0.0
 11
-55.67045893414019
 21
-62.06382140941844
 31
0.0
  0
LINE
  5
84
330
47
100
AcDbEntity
  8
0
  6
Continuous
 62
     0
100
AcDbLine
 10
-49.90960693359375
 20
-66.95428466796875
 30
0.0
 11
-49.01907348632812
 21
-66.95428466796875
 31
0.0
  0
LINE
  5
85
330
47
100
AcDbEntity
  8
0
  6
Continuous
 62
     0
100
AcDbLine
 10
-50.7307208794228
 20
-68.0414773722589
 30
0.0
 11
-47.32697020037388
 21
-106.946393738216
 31
0.0
  0
LINE
  5
86
330
47
100
AcDbEntity
  8
0
  6
Continuous
 62
     0
100
AcDbLine
 10
-64.75387573242188
 20
-42.0
 30
0.0
 11
-57.42599487304688
 21
-42.0
 31
0.0
  0
LINE
  5
87
330
47
100
AcDbEntity
  8
0
  6
Continuous
 62
     0
100
AcDbLine
 10
-56.8292236328125
 20
-59.0
 30
0.0
 11
-55.93869018554688
 21
-59.0
 31
0.0
  0
LINE
  5
88
330
47
100
AcDbEntity
  8
0
  6
Continuous
 62
     0
100
AcDbLine
 10
-74.40383911132812
 20
-22.00003051757812
 30
0.0
 11
-67.15383911132812
 21
-22.00003051757812
 31
0.0
  0
LINE
  5
89
330
47
100
AcDbEntity
  8
0
  6
Continuous
 62
     0
100
AcDbLine
 10
-74.40383911132812
 20
-38.0
 30
0.0
 11
-65.10385131835938
 21
-38.0
 31
0.0
  0
LINE
  5
8A
330
47
100
AcDbEntity
  8
0
  6
Continuous
 62
     0
100
AcDbLine
 10
-75.40383911132812
 20
-23.0
 30
0.0
 11
-75.40383911132812
 21
-37.00003051757812
 31
0.0
  0
LINE
  5
8B
330
47
100
AcDbEntity
  8
0
  6
Continuous
 62
     0
100
AcDbLine
 10
-74.70382690429688
 20
-39.79998779296875
 30
0.0
 11
-66.75323486328125
 21
-39.79998779296875
 31
0.0
  0
LINE
  5
8C
330
47
100
AcDbEntity
  8
0
  6
Continuous
 62
     0
100
AcDbLine
 10
-77.20382690429688
 20
-22.70004272460938
 30
0.0
 11
-77.20382690429688
 21
-37.30001831054688
 31
0.0
  0
LINE
  5
8D
330
47
100
AcDbEntity
  8
0
  6
Continuous
 62
     0
100
AcDbLine
 10
-74.70382690429688
 20
-20.20001220703125
 30
0.0
 11
-68.90310668945312
 21
-20.20001220703125
 31
0.0
  0
LINE
  5
8E
330
47
100
AcDbEntity
  8
0
  6
Continuous
 62
     0
100
AcDbLine
 10
-28.867919921875
 20
-133.5
 30
0.0
 11
45.80145263671875
 21
-133.5
 31
0.0
  0
LINE
  5
8F
330
47
100
AcDbEntity
  8
0
  6
Continuous
 62
     0
100
AcDbLine
 10
102.6051330566406
 20
-18.5
 30
0.0
 11
102.6051330566406
 21
-132.704345703125
 31
0.0
  0
LINE
  5
90
330
47
100
AcDbEntity
  8
0
  6
Continuous
 62
     0
100
AcDbLine
 10
80.60513305664062
 20
-18.5
 30
0.0
 11
102.6051330566406
 21
-18.5
 31
0.0
  0
LINE
  5
91
330
47
100
AcDbEntity
  8
0
  6
Continuous
 62
     0
100
AcDbLine
 10
-65.40457153320312
 20
-20.20001220703125
 30
0.0
 11
80.60513305664062
 21
-20.20001220703125
 31
0.0
  0
LINE
  5
92
330
47
100
AcDbEntity
  8
0
  6
Continuous
 62
     0
100
AcDbLine
 10
-65.10379028320312
 20
-38.0
 30
0.0
 11
102.6051330566406
 21
-38.0
 31
0.0
  0
LINE
  5
93
330
47
100
AcDbEntity
  8
0
  6
Continuous
 62
     0
100
AcDbLine
 10
65.1051025390625
 20
-55.20001220703125
 30
0.0
 11
98.60513305664062
 21
-55.20001220703125
 31
0.0
  0
LINE
  5
94
330
47
100
AcDbEntity
  8
0
  6
Continuous
 62
     0
100
AcDbLine
 10
65.1051025390625
 20
-69.79998779296875
 30
0.0
 11
98.60513305664062
 21
-69.79998779296875
 31
0.0
  0
LINE
  5
95
330
47
100
AcDbEntity
  8
0
  6
Continuous
 62
     0
100
AcDbLine
 10
45.80148315429688
 20
-133.5
 30
0.0
 11
98.60513305664062
 21
-133.5
 31
0.0
  0
LINE
  5
96
330
47
100
AcDbEntity
  8
0
  6
Continuous
 62
     0
100
AcDbLine
 10
98.60513305664062
 20
-55.20001220703125
 30
0.0
 11
98.60513305664062
 21
-133.5
 31
0.0
  0
LINE
  5
97
330
47
100
AcDbEntity
  8
0
  6
Continuous
 62
     0
100
AcDbLine
 10
98.60517578777878
 20
-55.19982979697785
 30
0.0
 11
102.605181158676
 21
-55.99547537133616
 31
0.0
  0
LINE
  5
98
330
47
100
AcDbEntity
  8
0
  6
Continuous
 62
     0
100
AcDbLine
 10
98.60512012332913
 20
-69.79994367076156
 30
0.0
 11
102.6050945259962
 21
-69.0042988365268
 31
0.0
  0
LINE
  5
99
330
47
100
AcDbEntity
  8
0
  6
Continuous
 62
     0
100
AcDbLine
 10
98.60509271485824
 20
-133.4998400079165
 30
0.0
 11
102.6050669454781
 21
-132.7041943087431
 31
0.0
  0
LINE
  5
9A
330
47
100
AcDbEntity
  8
0
  6
Continuous
 62
     0
100
AcDbLine
 10
80.60513305664062
 20
-18.5
 30
0.0
 11
80.60513305664062
 21
-22.0
 31
0.0
  0
LINE
  5
9B
330
47
100
AcDbEntity
  8
0
  6
Continuous
 62
     0
100
AcDbLine
 10
64.60513305664062
 20
-20.20001220703125
 30
0.0
 11
64.60513305664062
 21
-22.0
 31
0.0
  0
LINE
  5
9C
330
47
100
AcDbEntity
  8
0
  6
Continuous
 62
     0
100
AcDbLine
 10
64.60513305664062
 20
-22.0
 30
0.0
 11
102.6051330566406
 21
-22.0
 31
0.0
  0
LINE
  5
9D
330
47
100
AcDbEntity
  8
0
  6
Continuous
 62
     0
100
AcDbLine
 10
-53.28366088867188
 20
-62.69998168945312
 30
0.0
 11
65.80511474609375
 21
-62.69998168945312
 31
0.0
  0
LINE
  5
9E
330
47
100
AcDbEntity
  8
0
  6
Continuous
 62
     0
100
AcDbLine
 10
65.80514526367188
 20
-42.00003051757812
 30
0.0
 11
67.60513305664062
 21
-42.00003051757812
 31
0.0
  0
LINE
  5
9F
330
47
100
AcDbEntity
  8
0
  6
DASHED
 62
     0
100
AcDbLine
 10
67.60513305664062
 20
-42.00003051757812
 30
0.0
 11
67.60513305664062
 21
-55.20001220703125
 31
0.0
  0
LINE
  5
A0
330
47
100
AcDbEntity
  8
0
  6
Continuous
 62
     0
100
AcDbLine
 10
65.80514526367188
 20
-42.00003051757812
 30
0.0
 11
65.80514526367188
 21
-55.20001220703125
 31
0.0
  0
LINE
  5
A1
330
47
100
AcDbEntity
  8
0
  6
Continuous
 62
     0
100
AcDbLine
 10
75.60513305664062
 20
-43.69430541992188
 30
0.0
 11
75.60513305664062
 21
-55.20001220703125
 31
0.0
  0
LINE
  5
A2
330
47
100
AcDbEntity
  8
0
  6
Continuous
 62
     0
100
AcDbLine
 10
67.60506853701557
 20
-42.00020475925862
 30
0.0
 11
74.70307920466695
 21
-42.69929605996945
 31
0.0
  0
LINE
  5
A3
330
47
100
AcDbEntity
  8
0
  6
Continuous
 62
     0
100
AcDbLine
 10
80.60513305664062
 20
-54.0
 30
0.0
 11
80.60513305664062
 21
-55.20001220703125
 31
0.0
  0
LINE
  5
A4
330
47
100
AcDbEntity
  8
0
  6
Continuous
 62
     0
100
AcDbLine
 10
80.60513305664062
 20
-54.0
 30
0.0
 11
102.6051330566406
 21
-54.0
 31
0.0
  0
LINE
  5
A5
330
47
100
AcDbEntity
  8
0
  6
Continuous
 62
     0
100
AcDbLine
 10
67.60513305664062
 20
38.17440795898438
 30
0.0
 11
67.60513305664062
 21
12.17437744140625
 31
0.0
  0
LINE
  5
A6
330
47
100
AcDbEntity
  8
0
  6
Continuous
 62
     0
100
AcDbLine
 10
-65.103759765625
 20
43.17437744140625
 30
0.0
 11
-59.13766479492188
 21
43.17437744140625
 31
0.0
  0
LINE
  5
A7
330
47
100
AcDbEntity
  8
0
  6
Continuous
 62
     0
100
AcDbLine
 10
-76.40814208984375
 20
8.17437744140625
 30
0.0
 11
66.80947875976562
 21
8.17437744140625
 31
0.0
  0
LINE
  5
A8
330
47
100
AcDbEntity
  8
0
  6
Continuous
 62
     0
100
AcDbLine
 10
-77.20382690429688
 20
187.9834289550781
 30
0.0
 11
-77.20382690429688
 21
12.17437744140625
 31
0.0
  0
LINE
  5
A9
330
47
100
AcDbEntity
  8
0
  6
Continuous
 62
     0
100
AcDbLine
 10
-75.40383911132812
 20
181.1834716796875
 30
0.0
 11
-75.40383911132812
 21
43.17437744140625
 31
0.0
  0
LINE
  5
AA
330
47
100
AcDbEntity
  8
0
  6
Continuous
 62
     0
100
AcDbLine
 10
-70.01907348632812
 20
30.17437744140625
 30
0.0
 11
-65.40383911132812
 21
30.17437744140625
 31
0.0
  0
LINE
  5
AB
330
47
100
AcDbEntity
  8
0
  6
Continuous
 62
     0
100
AcDbLine
 10
-65.40383911132812
 20
30.17437744140625
 30
0.0
 11
-65.40383911132812
 21
8.17437744140625
 31
0.0
  0
LINE
  5
AC
330
47
100
AcDbEntity
  8
0
  6
Continuous
 62
     0
100
AcDbLine
 10
-68.90310668945312
 20
30.17437744140625
 30
0.0
 11
-68.90310668945312
 21
8.17437744140625
 31
0.0
  0
LINE
  5
AD
330
47
100
AcDbEntity
  8
0
  6
Continuous
 62
     0
100
AcDbLine
 10
-77.20382690429688
 20
12.17437744140625
 30
0.0
 11
-68.90310668945312
 21
12.17437744140625
 31
0.0
  0
LINE
  5
AE
330
47
100
AcDbEntity
  8
0
  6
Continuous
 62
     0
100
AcDbLine
 10
-77.20370568398033
 20
12.17440218386275
 30
0.0
 11
-76.40805136587231
 21
8.174398552204602
 31
0.0
  0
LINE
  5
AF
330
47
100
AcDbEntity
  8
0
  6
Continuous
 62
     0
100
AcDbLine
 10
-75.40385436248802
 20
43.17428833090483
 30
0.0
 11
-70.0190751610981
 21
30.17436414913658
 31
0.0
  0
LINE
  5
B0
330
47
100
AcDbEntity
  8
0
  6
Continuous
 62
     0
100
AcDbLine
 10
-65.103759765625
 20
170.8833618164062
 30
0.0
 11
-65.103759765625
 21
8.17437744140625
 31
0.0
  0
LINE
  5
B1
330
47
100
AcDbEntity
  8
0
  6
Continuous
 62
     0
100
AcDbLine
 10
-62.94281005859375
 20
168.722412109375
 30
0.0
 11
-62.94281005859375
 21
45.17437744140625
 31
0.0
  0
LINE
  5
B2
330
47
100
AcDbEntity
  8
0
  6
Continuous
 62
     0
100
AcDbLine
 10
-59.13766479492188
 20
43.17437744140625
 30
0.0
 11
-59.13766479492188
 21
36.17437744140625
 31
0.0
  0
LINE
  5
B3
330
47
100
AcDbEntity
  8
0
  6
Continuous
 62
     0
100
AcDbLine
 10
-57.4259033203125
 20
45.17437744140625
 30
0.0
 11
-57.4259033203125
 21
35.17437744140625
 31
0.0
  0
LINE
  5
B4
330
47
100
AcDbEntity
  8
0
  6
Continuous
 62
     0
100
AcDbLine
 10
-55.93869018554688
 20
43.17437744140625
 30
0.0
 11
-55.93869018554688
 21
35.17437744140625
 31
0.0
  0
LINE
  5
B5
330
47
100
AcDbEntity
  8
0
  6
Continuous
 62
     0
100
AcDbLine
 10
-58.13766479492188
 20
35.17437744140625
 30
0.0
 11
-55.93869018554688
 21
35.17437744140625
 31
0.0
  0
LINE
  5
B6
330
47
100
AcDbEntity
  8
0
  6
Continuous
 62
     0
100
AcDbLine
 10
-55.93869018554688
 20
43.17437744140625
 30
0.0
 11
-50.73080444335938
 21
43.17437744140625
 31
0.0
  0
LINE
  5
B7
330
47
100
AcDbEntity
  8
0
  6
Continuous
 62
     0
100
AcDbLine
 10
-49.01898193359375
 20
45.17437744140625
 30
0.0
 11
-49.01898193359375
 21
35.17437744140625
 31
0.0
  0
LINE
  5
B8
330
47
100
AcDbEntity
  8
0
  6
Continuous
 62
     0
100
AcDbLine
 10
-49.94287109375
 20
35.17437744140625
 30
0.0
 11
-1.677703857421875
 21
35.17437744140625
 31
0.0
  0
LINE
  5
B9
330
47
100
AcDbEntity
  8
0
  6
Continuous
 62
     0
100
AcDbLine
 10
-50.7308043894708
 20
43.17438579034418
 30
0.0
 11
-49.94286568137966
 21
35.17436821135761
 31
0.0
  0
LINE
  5
BA
330
47
100
AcDbEntity
  8
0
  6
Continuous
 62
     0
100
AcDbLine
 10
-52.66363525390625
 20
158.4432373046875
 30
0.0
 11
-52.66363525390625
 21
45.17437744140625
 31
0.0
  0
LINE
  5
BB
330
47
100
AcDbEntity
  8
0
  6
Continuous
 62
     0
100
AcDbLine
 10
-62.94281005859375
 20
43.17437744140625
 30
0.0
 11
-62.94281005859375
 21
8.17437744140625
 31
0.0
  0
LINE
  5
BC
330
47
100
AcDbEntity
  8
0
  6
Continuous
 62
     0
100
AcDbLine
 10
-52.66363525390625
 20
43.17437744140625
 30
0.0
 11
-52.66363525390625
 21
8.17437744140625
 31
0.0
  0
LINE
  5
BD
330
47
100
AcDbEntity
  8
0
  6
Continuous
 62
     0
100
AcDbLine
 10
-32.86788940429688
 20
138.6474609375
 30
0.0
 11
-32.86788940429688
 21
45.17437744140625
 31
0.0
  0
LINE
  5
BE
330
47
100
AcDbEntity
  8
0
  6
Continuous
 62
     0
100
AcDbLine
 10
-32.86788940429688
 20
35.17437744140625
 30
0.0
 11
-32.86788940429688
 21
8.17437744140625
 31
0.0
  0
LINE
  5
BF
330
47
100
AcDbEntity
  8
0
  6
Continuous
 62
     0
100
AcDbLine
 10
0.734236885136605
 20
43.17437721817227
 30
0.0
 11
-0.69695646739008
 21
35.9792778021213
 31
0.0
  0
LINE
  5
C0
330
47
100
AcDbEntity
  8
0
  6
Continuous
 62
     0
100
AcDbLine
 10
21.52999904346558
 20
43.17439817207936
 30
0.0
 11
22.96119790475322
 21
35.97929985179057
 31
0.0
  0
LINE
  5
C1
330
47
100
AcDbEntity
  8
0
  6
Continuous
 62
     0
100
AcDbLine
 10
23.94189453125
 20
35.17437744140625
 30
0.0
 11
52.00457763671875
 21
35.17437744140625
 31
0.0
  0
LINE
  5
C2
330
47
100
AcDbEntity
  8
0
  6
Continuous
 62
     0
100
AcDbLine
 10
0.734283447265625
 20
43.17437744140625
 30
0.0
 11
21.5299072265625
 21
43.17437744140625
 31
0.0
  0
LINE
  5
C3
330
47
100
AcDbEntity
  8
0
  6
Continuous
 62
     0
100
AcDbLine
 10
56.20513916015625
 20
30.17437744140625
 30
0.0
 11
56.20513916015625
 21
8.17437744140625
 31
0.0
  0
LINE
  5
C4
330
47
100
AcDbEntity
  8
0
  6
Continuous
 62
     0
100
AcDbLine
 10
60.03817749023438
 20
30.17437744140625
 30
0.0
 11
60.03817749023438
 21
8.17437744140625
 31
0.0
  0
LINE
  5
C5
330
47
100
AcDbEntity
  8
0
  6
DASHED
 62
     0
100
AcDbLine
 10
65.80511474609375
 20
44.97439575195312
 30
0.0
 11
65.80511474609375
 21
8.46942138671875
 31
0.0
  0
LINE
  5
C6
330
47
100
AcDbEntity
  8
0
  6
Continuous
 62
     0
100
AcDbLine
 10
56.20513916015625
 20
30.17437744140625
 30
0.0
 11
60.03817749023438
 21
30.17437744140625
 31
0.0
  0
LINE
  5
C7
330
47
100
AcDbEntity
  8
0
  6
Continuous
 62
     0
100
AcDbLine
 10
60.03817749023438
 20
12.17437744140625
 30
0.0
 11
67.60513305664062
 21
12.17437744140625
 31
0.0
  0
LINE
  5
C8
330
47
100
AcDbEntity
  8
0
  6
Continuous
 62
     0
100
AcDbLine
 10
67.60510982532702
 20
12.17432477515383
 30
0.0
 11
66.80945873725356
 21
8.174351616458459
 31
0.0
  0
LINE
  5
C9
330
47
100
AcDbEntity
  8
0
  6
Continuous
 62
     0
100
AcDbLine
 10
55.19180297851562
 20
45.17437744140625
 30
0.0
 11
55.19180297851562
 21
35.17437744140625
 31
0.0
  0
LINE
  5
CA
330
47
100
AcDbEntity
  8
0
  6
Continuous
 62
     0
100
AcDbLine
 10
56.9034423828125
 20
43.17437744140625
 30
0.0
 11
56.9034423828125
 21
36.17437744140625
 31
0.0
  0
LINE
  5
CB
330
47
100
AcDbEntity
  8
0
  6
Continuous
 62
     0
100
AcDbLine
 10
53.87948608398438
 20
45.17437744140625
 30
0.0
 11
53.87948608398438
 21
35.17437744140625
 31
0.0
  0
LINE
  5
CC
330
47
100
AcDbEntity
  8
0
  6
Continuous
 62
     0
100
AcDbLine
 10
53.00457763671875
 20
45.17437744140625
 30
0.0
 11
53.00457763671875
 21
36.17437744140625
 31
0.0
  0
LINE
  5
CD
330
47
100
AcDbEntity
  8
0
  6
Continuous
 62
     0
100
AcDbLine
 10
64.0050989110837
 20
41.97441053503945
 30
0.0
 11
60.03815198414845
 21
30.17442998083669
 31
0.0
  0
LINE
  5
CE
330
47
100
AcDbEntity
  8
0
  6
Continuous
 62
     0
100
AcDbLine
 10
-65.103759765625
 20
45.17437744140625
 30
0.0
 11
58.70513916015625
 21
45.17437744140625
 31
0.0
  0
LINE
  5
CF
330
47
100
AcDbEntity
  8
0
  6
Continuous
 62
     0
100
AcDbLine
 10
58.70513916015625
 20
52.07437133789062
 30
0.0
 11
58.70513916015625
 21
45.17437744140625
 31
0.0
  0
LINE
  5
D0
330
47
100
AcDbEntity
  8
0
  6
Continuous
 62
     0
100
AcDbLine
 10
53.00457763671875
 20
43.17437744140625
 30
0.0
 11
53.87948608398438
 21
43.17437744140625
 31
0.0
  0
LINE
  5
D1
330
47
100
AcDbEntity
  8
0
  6
Continuous
 62
     0
100
AcDbLine
 10
58.70513916015625
 20
43.17437744140625
 30
0.0
 11
58.70513916015625
 21
30.17437744140625
 31
0.0
  0
LINE
  5
D2
330
47
100
AcDbEntity
  8
0
  6
Continuous
 62
     0
100
AcDbLine
 10
54.32000732421875
 20
35.17437744140625
 30
0.0
 11
55.9034423828125
 21
35.17437744140625
 31
0.0
  0
LINE
  5
D3
330
47
100
AcDbEntity
  8
0
  6
Continuous
 62
     0
100
AcDbLine
 10
56.9034423828125
 20
43.17437744140625
 30
0.0
 11
58.70513916015625
 21
43.17437744140625
 31
0.0
  0
LINE
  5
D4
330
47
100
AcDbEntity
  8
0
  6
DASHED
 62
     0
100
AcDbLine
 10
-75.40383911132812
 20
43.17428588867188
 30
0.0
 11
-75.40383911132812
 21
8.17437744140625
 31
0.0
  0
LINE
  5
D5
330
47
100
AcDbEntity
  8
0
  6
Continuous
 62
     0
100
AcDbLine
 10
72.60516357421875
 20
43.17422485351562
 30
0.0
 11
98.60519409179688
 21
43.17422485351562
 31
0.0
  0
LINE
  5
D6
330
47
100
AcDbEntity
  8
0
  6
Continuous
 62
     0
100
AcDbLine
 10
67.60537719726562
 20
175.88330078125
 30
0.0
 11
67.60537719726562
 21
169.9171752929688
 31
0.0
  0
LINE
  5
D7
330
47
100
AcDbEntity
  8
0
  6
Continuous
 62
     0
100
AcDbLine
 10
102.6053771972656
 20
187.1876220703125
 30
0.0
 11
102.6053771972656
 21
43.97003173828125
 31
0.0
  0
LINE
  5
D8
330
47
100
AcDbEntity
  8
0
  6
Continuous
 62
     0
100
AcDbLine
 10
80.60537719726562
 20
180.798583984375
 30
0.0
 11
80.60537719726562
 21
176.183349609375
 31
0.0
  0
LINE
  5
D9
330
47
100
AcDbEntity
  8
0
  6
Continuous
 62
     0
100
AcDbLine
 10
80.60525512695312
 20
176.1831665039062
 30
0.0
 11
102.6052856445312
 21
176.1831665039062
 31
0.0
  0
LINE
  5
DA
330
47
100
AcDbEntity
  8
0
  6
Continuous
 62
     0
100
AcDbLine
 10
-60.10372924804688
 20
175.8830871582031
 30
0.0
 11
102.6052856445312
 21
175.8830871582031
 31
0.0
  0
LINE
  5
DB
330
47
100
AcDbEntity
  8
0
  6
Continuous
 62
     0
100
AcDbLine
 10
-57.94277954101562
 20
173.7221374511719
 30
0.0
 11
65.60525512695312
 21
173.7221374511719
 31
0.0
  0
LINE
  5
DC
330
47
100
AcDbEntity
  8
0
  6
Continuous
 62
     0
100
AcDbLine
 10
67.60525512695312
 20
169.9169921875
 30
0.0
 11
74.60528564453125
 21
169.9169921875
 31
0.0
  0
LINE
  5
DD
330
47
100
AcDbEntity
  8
0
  6
Continuous
 62
     0
100
AcDbLine
 10
65.60528564453125
 20
168.2052001953125
 30
0.0
 11
75.60525512695312
 21
168.2052001953125
 31
0.0
  0
LINE
  5
DE
330
47
100
AcDbEntity
  8
0
  6
Continuous
 62
     0
100
AcDbLine
 10
67.60525512695312
 20
166.718017578125
 30
0.0
 11
75.60525512695312
 21
166.718017578125
 31
0.0
  0
LINE
  5
DF
330
47
100
AcDbEntity
  8
0
  6
Continuous
 62
     0
100
AcDbLine
 10
75.60540771484375
 20
168.9171752929688
 30
0.0
 11
75.60540771484375
 21
166.7182006835938
 31
0.0
  0
LINE
  5
E0
330
47
100
AcDbEntity
  8
0
  6
Continuous
 62
     0
100
AcDbLine
 10
67.60537719726562
 20
166.7182006835938
 30
0.0
 11
67.60537719726562
 21
161.5103149414062
 31
0.0
  0
LINE
  5
E1
330
47
100
AcDbEntity
  8
0
  6
Continuous
 62
     0
100
AcDbLine
 10
65.60525512695312
 20
159.7983093261719
 30
0.0
 11
75.60525512695312
 21
159.7983093261719
 31
0.0
  0
LINE
  5
E2
330
47
100
AcDbEntity
  8
0
  6
Continuous
 62
     0
100
AcDbLine
 10
75.60540771484375
 20
160.722412109375
 30
0.0
 11
75.60540771484375
 21
112.4572296142578
 31
0.0
  0
LINE
  5
E3
330
47
100
AcDbEntity
  8
0
  6
Continuous
 62
     0
100
AcDbLine
 10
67.60523800293399
 20
161.5103493753154
 30
0.0
 11
75.60522467503965
 21
160.7224082138578
 31
0.0
  0
LINE
  5
E4
330
47
100
AcDbEntity
  8
0
  6
Continuous
 62
     0
100
AcDbLine
 10
-47.66360473632812
 20
163.4429321289062
 30
0.0
 11
65.60525512695312
 21
163.4429321289062
 31
0.0
  0
LINE
  5
E5
330
47
100
AcDbEntity
  8
0
  6
Continuous
 62
     0
100
AcDbLine
 10
67.60525512695312
 20
173.7221374511719
 30
0.0
 11
102.6052551269531
 21
173.7221374511719
 31
0.0
  0
LINE
  5
E6
330
47
100
AcDbEntity
  8
0
  6
Continuous
 62
     0
100
AcDbLine
 10
67.60525512695312
 20
163.4429321289062
 30
0.0
 11
102.6052551269531
 21
163.4429321289062
 31
0.0
  0
LINE
  5
E7
330
47
100
AcDbEntity
  8
0
  6
Continuous
 62
     0
100
AcDbLine
 10
-27.86785888671875
 20
143.647216796875
 30
0.0
 11
65.605224609375
 21
143.647216796875
 31
0.0
  0
LINE
  5
E8
330
47
100
AcDbEntity
  8
0
  6
Continuous
 62
     0
100
AcDbLine
 10
75.605224609375
 20
143.647216796875
 30
0.0
 11
102.605224609375
 21
143.647216796875
 31
0.0
  0
LINE
  5
E9
330
47
100
AcDbEntity
  8
0
  6
Continuous
 62
     0
100
AcDbLine
 10
67.60521077851041
 20
110.0452253330489
 30
0.0
 11
74.80031114817754
 21
111.476413891412
 31
0.0
  0
LINE
  5
EA
330
47
100
AcDbEntity
  8
0
  6
Continuous
 62
     0
100
AcDbLine
 10
67.60514594877449
 20
89.2496327229694
 30
0.0
 11
74.80027324662387
 21
87.81842311379617
 31
0.0
  0
LINE
  5
EB
330
47
100
AcDbEntity
  8
0
  6
Continuous
 62
     0
100
AcDbLine
 10
75.60540771484375
 20
86.837646484375
 30
0.0
 11
75.60540771484375
 21
58.77493286132812
 31
0.0
  0
LINE
  5
EC
330
47
100
AcDbEntity
  8
0
  6
Continuous
 62
     0
100
AcDbLine
 10
67.60537719726562
 20
110.0452423095703
 30
0.0
 11
67.60537719726562
 21
89.24961853027344
 31
0.0
  0
LINE
  5
ED
330
47
100
AcDbEntity
  8
0
  6
Continuous
 62
     0
100
AcDbLine
 10
80.60516357421875
 20
54.57421875
 30
0.0
 11
102.6051635742188
 21
54.57421875
 31
0.0
  0
LINE
  5
EE
330
47
100
AcDbEntity
  8
0
  6
Continuous
 62
     0
100
AcDbLine
 10
80.60516357421875
 20
50.74118041992188
 30
0.0
 11
102.6051635742188
 21
50.74118041992188
 31
0.0
  0
LINE
  5
EF
330
47
100
AcDbEntity
  8
0
  6
DASHED
 62
     0
100
AcDbLine
 10
65.80517578125
 20
44.97421264648438
 30
0.0
 11
102.3101501464844
 21
44.97421264648438
 31
0.0
  0
LINE
  5
F0
330
47
100
AcDbEntity
  8
0
  6
Continuous
 62
     0
100
AcDbLine
 10
80.60537719726562
 20
54.57440185546875
 30
0.0
 11
80.60537719726562
 21
50.74136352539062
 31
0.0
  0
LINE
  5
F1
330
47
100
AcDbEntity
  8
0
  6
Continuous
 62
     0
100
AcDbLine
 10
98.60537719726562
 20
50.74136352539062
 30
0.0
 11
98.60537719726562
 21
43.17440795898438
 31
0.0
  0
LINE
  5
F2
330
47
100
AcDbEntity
  8
0
  6
Continuous
 62
     0
100
AcDbLine
 10
98.60518032935502
 20
43.17442958961389
 30
0.0
 11
102.6051540298277
 21
43.97007795400806
 31
0.0
  0
LINE
  5
F3
330
47
100
AcDbEntity
  8
0
  6
Continuous
 62
     0
100
AcDbLine
 10
65.60516357421875
 20
55.58755493164062
 30
0.0
 11
75.60516357421875
 21
55.58755493164062
 31
0.0
  0
LINE
  5
F4
330
47
100
AcDbEntity
  8
0
  6
Continuous
 62
     0
100
AcDbLine
 10
67.60516357421875
 20
53.87591552734375
 30
0.0
 11
74.60516357421875
 21
53.87591552734375
 31
0.0
  0
LINE
  5
F5
330
47
100
AcDbEntity
  8
0
  6
Continuous
 62
     0
100
AcDbLine
 10
65.60516357421875
 20
56.89987182617188
 30
0.0
 11
75.60516357421875
 21
56.89987182617188
 31
0.0
  0
LINE
  5
F6
330
47
100
AcDbEntity
  8
0
  6
Continuous
 62
     0
100
AcDbLine
 10
65.60516357421875
 20
57.7747802734375
 30
0.0
 11
74.60516357421875
 21
57.7747802734375
 31
0.0
  0
LINE
  5
F7
330
47
100
AcDbEntity
  8
0
  6
Continuous
 62
     0
100
AcDbLine
 10
68.8052300623287
 20
46.7744572802445
 30
0.0
 11
80.6051842691494
 21
50.74138681015834
 31
0.0
  0
LINE
  5
F8
330
47
100
AcDbEntity
  8
0
  6
Continuous
 62
     0
100
AcDbLine
 10
65.60537719726562
 20
175.88330078125
 30
0.0
 11
65.60537719726562
 21
52.07440185546875
 31
0.0
  0
LINE
  5
F9
330
47
100
AcDbEntity
  8
0
  6
Continuous
 62
     0
100
AcDbLine
 10
58.70516967773438
 20
52.07421875
 30
0.0
 11
65.60516357421875
 21
52.07421875
 31
0.0
  0
LINE
  5
FA
330
47
100
AcDbEntity
  8
0
  6
Continuous
 62
     0
100
AcDbLine
 10
67.60537719726562
 20
57.77496337890625
 30
0.0
 11
67.60537719726562
 21
56.90005493164062
 31
0.0
  0
LINE
  5
FB
330
47
100
AcDbEntity
  8
0
  6
Continuous
 62
     0
100
AcDbLine
 10
67.60516357421875
 20
52.07421875
 30
0.0
 11
80.60516357421875
 21
52.07421875
 31
0.0
  0
LINE
  5
FC
330
47
100
AcDbEntity
  8
0
  6
Continuous
 62
     0
100
AcDbLine
 10
75.60540771484375
 20
56.45950317382812
 30
0.0
 11
75.60540771484375
 21
54.87606811523438
 31
0.0
  0
LINE
  5
FD
330
47
100
AcDbEntity
  8
0
  6
Continuous
 62
     0
100
AcDbLine
 10
67.60537719726562
 20
53.8760986328125
 30
0.0
 11
67.60537719726562
 21
52.07440185546875
 31
0.0
  0
LINE
  5
FE
330
47
100
AcDbEntity
  8
0
  6
Continuous
 62
     0
100
AcDbLine
 10
44.42460796057201
 20
66.35496909493475
 30
0.0
 11
58.70512609189395
 21
52.07444133354803
 31
0.0
  0
ARC
  5
FF
330
47
100
AcDbEntity
  8
0
  6
Continuous
 62
     0
100
AcDbCircle
 10
74.60513305664062
 20
-43.69430541992188
 30
0.0
 40
1.0
100
AcDbArc
 50
0.0
 51
84.37465870405566
  0
ARC
  5
100
330
47
100
AcDbEntity
  8
0
  6
Continuous
 62
     0
100
AcDbCircle
 10
58.20513916015625
 20
-56.0
 30
0.0
 40
2.000003814697266
100
AcDbArc
 50
0.0
 51
3.59440882194719
  0
ARC
  5
101
330
47
100
AcDbEntity
  8
0
  6
Continuous
 62
     0
100
AcDbCircle
 10
65.1051025390625
 20
-67.29998779296875
 30
0.0
 40
2.5
100
AcDbArc
 50
270.0000179860893
 51
0.0
  0
ARC
  5
102
330
47
100
AcDbEntity
  8
0
  6
Continuous
 62
     0
100
AcDbCircle
 10
65.1051025390625
 20
-57.70001220703125
 30
0.0
 40
2.5
100
AcDbArc
 50
0.0
 51
89.99998201391067
  0
ARC
  5
103
330
47
100
AcDbEntity
  8
0
  6
Continuous
 62
     0
100
AcDbCircle
 10
58.20513916015625
 20
-56.0
 30
0.0
 40
2.000003814697266
100
AcDbArc
 50
23.57767811864791
 51
255.5227317184863
  0
ARC
  5
104
330
47
100
AcDbEntity
  8
0
  6
Continuous
 62
     0
100
AcDbCircle
 10
64.80511474609375
 20
-58.0
 30
0.0
 40
1.0
100
AcDbArc
 50
0.0
 51
89.99998201391067
  0
ARC
  5
105
330
47
100
AcDbEntity
  8
0
  6
Continuous
 62
     0
100
AcDbCircle
 10
64.80511474609375
 20
-67.00003051757812
 30
0.0
 40
1.0
100
AcDbArc
 50
270.0000179860893
 51
0.0
  0
ARC
  5
106
330
47
100
AcDbEntity
  8
0
  6
Continuous
 62
     0
100
AcDbCircle
 10
54.76995849609375
 20
-82.00003051757812
 30
0.0
 40
1.0
100
AcDbArc
 50
270.0000179860893
 51
354.9999271478068
  0
ARC
  5
107
330
47
100
AcDbEntity
  8
0
  6
Continuous
 62
     0
100
AcDbCircle
 10
54.594970703125
 20
-84.0
 30
0.0
 40
1.0
100
AcDbArc
 50
354.9999271478068
 51
89.99998201391067
  0
ARC
  5
108
330
47
100
AcDbEntity
  8
0
  6
Continuous
 62
     0
100
AcDbCircle
 10
53.89508056640625
 20
-92.0
 30
0.0
 40
1.0
100
AcDbArc
 50
270.0000179860893
 51
354.9999271478068
  0
ARC
  5
109
330
47
100
AcDbEntity
  8
0
  6
Continuous
 62
     0
100
AcDbCircle
 10
53.7200927734375
 20
-94.00003051757812
 30
0.0
 40
1.0
100
AcDbArc
 50
354.9999271478068
 51
89.99998201391067
  0
ARC
  5
10A
330
47
100
AcDbEntity
  8
0
  6
Continuous
 62
     0
100
AcDbCircle
 10
55.90731811523438
 20
-69.0
 30
0.0
 40
1.0
100
AcDbArc
 50
354.9998127421382
 51
89.99998201391067
  0
ARC
  5
10B
330
47
100
AcDbEntity
  8
0
  6
Continuous
 62
     0
100
AcDbCircle
 10
45.80148315429688
 20
-123.7000122070312
 30
0.0
 40
8.0
100
AcDbArc
 50
270.0000179860893
 51
355.0000189284738
  0
ARC
  5
10C
330
47
100
AcDbEntity
  8
0
  6
Continuous
 62
     0
100
AcDbCircle
 10
44.24371337890625
 20
-122.0
 30
0.0
 40
8.0
100
AcDbArc
 50
270.0000179860893
 51
355.0000189284738
  0
ARC
  5
10D
330
47
100
AcDbEntity
  8
0
  6
Continuous
 62
     0
100
AcDbCircle
 10
44.24371337890625
 20
-122.0
 30
0.0
 40
6.199999809265137
100
AcDbArc
 50
270.0000179860893
 51
355.0000189284738
  0
ARC
  5
10E
330
47
100
AcDbEntity
  8
0
  6
Continuous
 62
     0
100
AcDbCircle
 10
45.80148315429688
 20
-123.7000122070312
 30
0.0
 40
9.80000114440918
100
AcDbArc
 50
270.0000179860893
 51
355.0000189284738
  0
ARC
  5
10F
330
47
100
AcDbEntity
  8
0
  6
Continuous
 62
     0
100
AcDbCircle
 10
22.13214111328125
 20
-129.0
 30
0.0
 40
1.0
100
AcDbArc
 50
179.9999813306653
 51
270.0000179860893
  0
ARC
  5
110
330
47
100
AcDbEntity
  8
0
  6
Continuous
 62
     0
100
AcDbCircle
 10
20.13211059570312
 20
-129.0
 30
0.0
 40
1.0
100
AcDbArc
 50
270.0000179860893
 51
0.0
  0
ARC
  5
111
330
47
100
AcDbEntity
  8
0
  6
Continuous
 62
     0
100
AcDbCircle
 10
0.132110595703125
 20
-129.0
 30
0.0
 40
1.0
100
AcDbArc
 50
270.0000179860893
 51
0.0
  0
ARC
  5
112
330
47
100
AcDbEntity
  8
0
  6
Continuous
 62
     0
100
AcDbCircle
 10
2.13214111328125
 20
-129.0
 30
0.0
 40
1.0
100
AcDbArc
 50
179.9999813306653
 51
270.0000179860893
  0
ARC
  5
113
330
47
100
AcDbEntity
  8
0
  6
Continuous
 62
     0
100
AcDbCircle
 10
-28.86788940429688
 20
-127.7000122070312
 30
0.0
 40
4.0
100
AcDbArc
 50
179.9999813306653
 51
270.0000179860893
  0
ARC
  5
114
330
47
100
AcDbEntity
  8
0
  6
Continuous
 62
     0
100
AcDbCircle
 10
-28.86788940429688
 20
-127.7000122070312
 30
0.0
 40
5.800000190734863
100
AcDbArc
 50
179.9999813306653
 51
270.0000179860893
  0
ARC
  5
115
330
47
100
AcDbEntity
  8
0
  6
Continuous
 62
     0
100
AcDbCircle
 10
-33.08148193359375
 20
-105.7000122070312
 30
0.0
 40
16.0
100
AcDbArc
 50
184.9999939918165
 51
270.0000179860893
  0
ARC
  5
116
330
47
100
AcDbEntity
  8
0
  6
Continuous
 62
     0
100
AcDbCircle
 10
-33.08148193359375
 20
-105.7000122070312
 30
0.0
 40
17.79999923706055
100
AcDbArc
 50
184.9999939918165
 51
264.8867812790669
  0
ARC
  5
117
330
47
100
AcDbEntity
  8
0
  6
Continuous
 62
     0
100
AcDbCircle
 10
-33.08148193359375
 20
-105.7000122070312
 30
0.0
 40
14.30000114440918
100
AcDbArc
 50
184.9999939918165
 51
270.0000179860893
  0
ARC
  5
118
330
47
100
AcDbEntity
  8
0
  6
Continuous
 62
     0
100
AcDbCircle
 10
-33.08148193359375
 20
-105.7000122070312
 30
0.0
 40
12.50000095367432
100
AcDbArc
 50
184.9999939918165
 51
270.0000179860893
  0
ARC
  5
119
330
47
100
AcDbEntity
  8
0
  6
Continuous
 62
     0
100
AcDbCircle
 10
-49.734619140625
 20
-67.95428466796875
 30
0.0
 40
1.0
100
AcDbArc
 50
89.99998201391067
 51
185.0000313304858
  0
ARC
  5
11A
330
47
100
AcDbEntity
  8
0
  6
Continuous
 62
     0
100
AcDbCircle
 10
-49.90960693359375
 20
-65.95431518554688
 30
0.0
 40
1.0
100
AcDbArc
 50
185.0000486333298
 51
270.0000179860893
  0
ARC
  5
11B
330
47
100
AcDbEntity
  8
0
  6
Continuous
 62
     0
100
AcDbCircle
 10
-56.82919311523438
 20
-58.00003051757812
 30
0.0
 40
1.0
100
AcDbArc
 50
185.0000486333298
 51
270.0000179860893
  0
ARC
  5
11C
330
47
100
AcDbEntity
  8
0
  6
Continuous
 62
     0
100
AcDbCircle
 10
-58.14154052734375
 20
-43.0
 30
0.0
 40
1.0
100
AcDbArc
 50
89.99998201391067
 51
185.0000313304858
  0
ARC
  5
11D
330
47
100
AcDbEntity
  8
0
  6
Continuous
 62
     0
100
AcDbCircle
 10
-74.70382690429688
 20
-22.70001220703125
 30
0.0
 40
2.5
100
AcDbArc
 50
89.99998201391067
 51
179.9999640278213
  0
ARC
  5
11E
330
47
100
AcDbEntity
  8
0
  6
Continuous
 62
     0
100
AcDbCircle
 10
-74.70382690429688
 20
-37.29998779296875
 30
0.0
 40
2.5
100
AcDbArc
 50
179.9999813306653
 51
270.0000179860893
  0
ARC
  5
11F
330
47
100
AcDbEntity
  8
0
  6
Continuous
 62
     0
100
AcDbCircle
 10
-74.40380859375
 20
-37.00003051757812
 30
0.0
 40
1.0
100
AcDbArc
 50
179.9999813306653
 51
270.0000179860893
  0
ARC
  5
120
330
47
100
AcDbEntity
  8
0
  6
Continuous
 62
     0
100
AcDbCircle
 10
-74.40380859375
 20
-23.0
 30
0.0
 40
1.0
100
AcDbArc
 50
89.99998201391067
 51
179.9999640278213
  0
ARC
  5
121
330
47
100
AcDbEntity
  8
0
  6
Continuous
 62
     0
100
AcDbCircle
 10
-67.15383911132812
 20
-20.25
 30
0.0
 40
1.749996185302734
100
AcDbArc
 50
0.0
 51
178.3631638347411
  0
ARC
  5
122
330
47
100
AcDbEntity
  8
0
  6
Continuous
 62
     0
100
AcDbCircle
 10
-67.15383911132812
 20
-20.25
 30
0.0
 40
1.749996185302734
100
AcDbArc
 50
270.0000179860893
 51
0.0
  0
ARC
  5
123
330
47
100
AcDbEntity
  8
0
  6
Continuous
 62
     0
100
AcDbCircle
 10
-60.103759765625
 20
170.8833618164062
 30
0.0
 40
5.0
100
AcDbArc
 50
89.99998201391067
 51
179.9999640278213
  0
ARC
  5
124
330
47
100
AcDbEntity
  8
0
  6
Continuous
 62
     0
100
AcDbCircle
 10
-58.83767700195312
 20
35.474365234375
 30
0.0
 40
0.300000011920929
100
AcDbArc
 50
179.9999813306653
 51
270.0000179860893
  0
ARC
  5
125
330
47
100
AcDbEntity
  8
0
  6
Continuous
 62
     0
100
AcDbCircle
 10
-58.13766479492188
 20
36.17437744140625
 30
0.0
 40
1.0
100
AcDbArc
 50
179.9999813306653
 51
270.0000179860893
  0
ARC
  5
126
330
47
100
AcDbEntity
  8
0
  6
Continuous
 62
     0
100
AcDbCircle
 10
-1.677703857421875
 20
36.17437744140625
 30
0.0
 40
1.0
100
AcDbArc
 50
270.0000179860893
 51
348.7493926538777
  0
ARC
  5
127
330
47
100
AcDbEntity
  8
0
  6
Continuous
 62
     0
100
AcDbCircle
 10
23.94189453125
 20
36.17437744140625
 30
0.0
 40
1.0
100
AcDbArc
 50
191.2505869692403
 51
270.0000179860893
  0
ARC
  5
128
330
47
100
AcDbEntity
  8
0
  6
Continuous
 62
     0
100
AcDbCircle
 10
69.005126953125
 20
41.974365234375
 30
0.0
 40
5.0
100
AcDbArc
 50
136.6208998543151
 51
179.9999640278213
  0
ARC
  5
129
330
47
100
AcDbEntity
  8
0
  6
Continuous
 62
     0
100
AcDbCircle
 10
72.60513305664062
 20
38.17440795898438
 30
0.0
 40
5.0
100
AcDbArc
 50
135.0002598888111
 51
179.9999640278213
  0
ARC
  5
12A
330
47
100
AcDbEntity
  8
0
  6
Continuous
 62
     0
100
AcDbCircle
 10
52.00457763671875
 20
36.17437744140625
 30
0.0
 40
1.0
100
AcDbArc
 50
270.0000179860893
 51
0.0
  0
ARC
  5
12B
330
47
100
AcDbEntity
  8
0
  6
Continuous
 62
     0
100
AcDbCircle
 10
55.9034423828125
 20
36.17437744140625
 30
0.0
 40
1.0
100
AcDbArc
 50
270.0000179860893
 51
0.0
  0
ARC
  5
12C
330
47
100
AcDbEntity
  8
0
  6
Continuous
 62
     0
100
AcDbCircle
 10
74.60516357421875
 20
54.8760986328125
 30
0.0
 40
1.0
100
AcDbArc
 50
270.0000179860893
 51
0.0
  0
ARC
  5
12D
330
47
100
AcDbEntity
  8
0
  6
Continuous
 62
     0
100
AcDbCircle
 10
75.30523681640625
 20
169.6171875
 30
0.0
 40
0.300000011920929
100
AcDbArc
 50
0.0
 51
90.00003665542401
  0
ARC
  5
12E
330
47
100
AcDbEntity
  8
0
  6
Continuous
 62
     0
100
AcDbCircle
 10
74.605224609375
 20
168.9171752929688
 30
0.0
 40
1.0
100
AcDbArc
 50
0.0
 51
90.00003665542401
  0
ARC
  5
12F
330
47
100
AcDbEntity
  8
0
  6
Continuous
 62
     0
100
AcDbCircle
 10
74.60519409179688
 20
112.4572296142578
 30
0.0
 40
1.0
100
AcDbArc
 50
281.2506236246643
 51
0.0
  0
ARC
  5
130
330
47
100
AcDbEntity
  8
0
  6
Continuous
 62
     0
100
AcDbCircle
 10
74.60519409179688
 20
86.83763122558594
 30
0.0
 40
1.0
100
AcDbArc
 50
0.0
 51
78.74943101684906
  0
ARC
  5
131
330
47
100
AcDbEntity
  8
0
  6
Continuous
 62
     0
100
AcDbCircle
 10
68.80517578125
 20
41.7744140625
 30
0.0
 40
5.0
100
AcDbArc
 50
90.00003665542401
 51
133.3791008289303
  0
ARC
  5
132
330
47
100
AcDbEntity
  8
0
  6
Continuous
 62
     0
100
AcDbCircle
 10
72.60513305664062
 20
38.17437744140625
 30
0.0
 40
5.0
100
AcDbArc
 50
90.00003665542401
 51
134.9997407944342
  0
ARC
  5
133
330
47
100
AcDbEntity
  8
0
  6
Continuous
 62
     0
100
AcDbCircle
 10
74.60516357421875
 20
58.77493286132812
 30
0.0
 40
1.0
100
AcDbArc
 50
270.0000179860893
 51
0.0
  0
ARC
  5
134
330
47
100
AcDbEntity
  8
0
  6
Continuous
 62
     0
100
AcDbCircle
 10
-27.86788940429688
 20
138.6474609375
 30
0.0
 40
5.0
100
AcDbArc
 50
89.99998201391067
 51
179.9999640278213
  0
ARC
  5
135
330
47
100
AcDbEntity
  8
0
  6
Continuous
 62
     0
100
AcDbCircle
 10
-47.66363525390625
 20
158.4432373046875
 30
0.0
 40
5.0
100
AcDbArc
 50
89.99998201391067
 51
179.9999640278213
  0
ARC
  5
136
330
47
100
AcDbEntity
  8
0
  6
Continuous
 62
     0
100
AcDbCircle
 10
-57.94281005859375
 20
168.722412109375
 30
0.0
 40
5.0
100
AcDbArc
 50
89.99998201391067
 51
179.9999640278213
  0
DIMENSION
  5
137
330
47
100
AcDbEntity
  8
0
 62
     0
100
AcDbDimension
  2
*D5
 10
53.13211059570312
 20
-168.3348154296875
 30
0.0
 11
4.071831298828125
 21
-168.3348154296875
 31
0.0
 70
   160
 71
     5
 42
100.0000076293945
  3
ISO-25
100
AcDbAlignedDimension
 13
-46.86788940429688
 23
-131.7000122070312
 33
0.0
 14
53.13211059570312
 24
-131.7000122070312
 34
0.0
 50
180.0
100
AcDbRotatedDimension
1001
ACAD
1000
DSTYLE
1002
{
1070
   178
1070
     1
1070
   147
1040
0.800000011920929
1070
    77
1070
     1
1070
    74
1070
     0
1070
    73
1070
     0
1070
    42
1040
2.54
1070
    44
1040
6.0
1070
    76
1070
     0
1070
    75
1070
     0
1070
   279
1070
     0
1070
   271
1070
     0
1070
   144
1040
1.000000076293945
1070
   278
1070
    46
1070
   173
1070
     1
1070
    41
1040
3.0
1070
   140
1040
3.200000047683716
1070
   344
1005
138
1070
   343
1005
138
1002
}
  0
DIMENSION
  5
14C
330
47
100
AcDbEntity
  8
0
 62
     0
100
AcDbDimension
  2
*D6
 10
-113.7917622070312
 20
-131.7000122070313
 30
0.0
 11
-113.7917622070312
 21
-75.82956640625
 31
0.0
 70
   160
 71
     5
 42
109.6999969482422
  3
ISO-25
100
AcDbAlignedDimension
 13
-75.40383911132812
 23
-22.00003051757812
 33
0.0
 14
-46.867919921875
 24
-131.7000122070312
 34
0.0
 50
90.00000000000001
100
AcDbRotatedDimension
1001
ACAD
1000
DSTYLE
1002
{
1070
   178
1070
     1
1070
   147
1040
0.800000011920929
1070
    77
1070
     1
1070
    74
1070
     0
1070
    73
1070
     0
1070
    42
1040
2.54
1070
    44
1040
6.0
1070
    76
1070
     0
1070
    75
1070
     0
1070
   279
1070
     0
1070
   271
1070
     1
1070
   144
1040
1.000000139095639
1070
   278
1070
    46
1070
   173
1070
     1
1070
    41
1040
3.0
1070
   140
1040
3.200000047683716
1070
   344
1005
138
1070
   343
1005
138
1002
}
  0
DIMENSION
  5
159
330
47
100
AcDbEntity
  8
0
 62
     0
100
AcDbDimension
  2
*D7
 10
151.402611328125
 20
-131.7000122070312
 30
0.0
 11
151.402611328125
 21
-86.87937109375
 31
0.0
 70
   160
 71
     5
 42
74.70000457763672
  3
ISO-25
100
AcDbAlignedDimension
 13
65.80511474609375
 23
-57.0
 33
0.0
 14
53.132080078125
 24
-131.7000122070312
 34
0.0
 50
90.00000000000001
100
AcDbRotatedDimension
1001
ACAD
1000
DSTYLE
1002
{
1070
   178
1070
     1
1070
   147
1040
0.800000011920929
1070
    77
1070
     1
1070
    74
1070
     0
1070
    73
1070
     0
1070
    42
1040
2.54
1070
    44
1040
6.0
1070
    76
1070
     0
1070
    75
1070
     0
1070
   279
1070
     0
1070
   271
1070
     1
1070
   144
1040
0.999999897866221
1070
   278
1070
    46
1070
   173
1070
     1
1070
    41
1040
3.0
1070
   140
1040
3.200000047683716
1070
   344
1005
138
1070
   343
1005
138
1002
}
  0
DIMENSION
  5
166
330
47
100
AcDbEntity
  8
0
 62
     0
100
AcDbDimension
  2
*D8
 10
-114.5294260253906
 20
187.983154296875
 30
0.0
 11
-114.5294260253906
 21
99.07054956054688
 31
0.0
 70
   160
  1
182
 71
     5
 42
179.8087768554688
  3
ISO-25
100
AcDbAlignedDimension
 13
-76.40814208984375
 23
8.17437744140625
 33
0.0
 14
-77.20376586914062
 24
187.983154296875
 34
0.0
 50
270.0
100
AcDbRotatedDimension
1001
ACAD
1000
DSTYLE
1002
{
1070
   178
1070
     1
1070
   147
1040
0.800000011920929
1070
    77
1070
     1
1070
    74
1070
     0
1070
    73
1070
     0
1070
    42
1040
2.54
1070
    44
1040
5.999969482421875
1070
    76
1070
     0
1070
    75
1070
     0
1070
   279
1070
     0
1070
   271
1070
     0
1070
   278
1070
    46
1070
   173
1070
     1
1070
    41
1040
3.0
1070
   140
1040
3.200000047683716
1070
   344
1005
138
1070
   343
1005
138
1002
}
  0
ENDBLK
  5
49
330
47
100
AcDbEntity
  8
0
100
AcDbBlockEnd
  0
BLOCK
  5
4B
330
4A
100
AcDbEntity
  8
0
100
AcDbBlockBegin
  2
DTL0003
 70
     0
 10
0.0
 20
0.0
 30
0.0
  3
DTL0003
  1

  0
POINT
  5
173
330
4A
100
AcDbEntity
  8
0
 62
     0
100
AcDbPoint
 10
0.0
 20
0.0
 30
0.0
  0
LINE
  5
174
330
4A
100
AcDbEntity
  8
0
  6
Continuous
 62
     0
100
AcDbLine
 10
-70.00993347167969
 20
-11.97505187988281
 30
0.0
 11
-59.50990295410156
 21
-11.97505187988281
 31
0.0
  0
LINE
  5
175
330
4A
100
AcDbEntity
  8
0
  6
Continuous
 62
     0
100
AcDbLine
 10
-46.30000305175781
 20
-86.67501831054688
 30
0.0
 11
-34.73965454101562
 21
-86.67501831054688
 31
0.0
  0
LINE
  5
176
330
4A
100
AcDbEntity
  8
0
  6
Continuous
 62
     0
100
AcDbLine
 10
43.04200751598261
 20
-48.47492765990592
 30
0.0
 11
40.33885992722929
 21
-79.37216492905243
 31
0.0
  0
LINE
  5
177
330
4A
100
AcDbEntity
  8
0
  6
Continuous
 62
     0
100
AcDbLine
 10
39.82981872558594
 20
-48.47500610351562
 30
0.0
 11
50.342041015625
 21
-48.47500610351562
 31
0.0
  0
LINE
  5
178
330
4A
100
AcDbEntity
  8
0
  6
Continuous
 62
     0
100
AcDbLine
 10
42.34202575683594
 20
-36.97503662109375
 30
0.0
 11
50.342041015625
 21
-36.97503662109375
 31
0.0
  0
LINE
  5
179
330
4A
100
AcDbEntity
  8
0
  6
Continuous
 62
     0
100
AcDbLine
 10
50.34205627441406
 20
-36.97505187988281
 30
0.0
 11
50.34205627441406
 21
-48.47503662109375
 31
0.0
  0
LINE
  5
17A
330
4A
100
AcDbEntity
  8
0
  6
Continuous
 62
     0
100
AcDbLine
 10
42.34205627441406
 20
-36.97505187988281
 30
0.0
 11
42.34205627441406
 21
-37.91154479980469
 31
0.0
  0
LINE
  5
17B
330
4A
100
AcDbEntity
  8
0
  6
Continuous
 62
     0
100
AcDbLine
 10
42.842041015625
 20
-33.97503662109375
 30
0.0
 11
45.842041015625
 21
-33.97503662109375
 31
0.0
  0
LINE
  5
17C
330
4A
100
AcDbEntity
  8
0
  6
Continuous
 62
     0
100
AcDbLine
 10
52.14207458496094
 20
-36.97505187988281
 30
0.0
 11
52.14207458496094
 21
-48.47503662109375
 31
0.0
  0
LINE
  5
17D
330
4A
100
AcDbEntity
  8
0
  6
Continuous
 62
     0
100
AcDbLine
 10
46.49833679199219
 20
-50.2750244140625
 30
0.0
 11
50.342041015625
 21
-50.2750244140625
 31
0.0
  0
LINE
  5
17E
330
4A
100
AcDbEntity
  8
0
  6
Continuous
 62
     0
100
AcDbLine
 10
43.97420694884483
 20
-58.47517849344663
 30
0.0
 11
42.13221640889783
 21
-79.5293077600301
 31
0.0
  0
LINE
  5
17F
330
4A
100
AcDbEntity
  8
0
  6
Continuous
 62
     0
100
AcDbLine
 10
46.49847008135415
 20
-50.27523047320443
 30
0.0
 11
45.78106573126648
 21
-58.47523128514655
 31
0.0
  0
LINE
  5
180
330
4A
100
AcDbEntity
  8
0
  6
Continuous
 62
     0
100
AcDbLine
 10
43.97419738769531
 20
-58.47503662109375
 30
0.0
 11
83.14076232910156
 21
-58.47503662109375
 31
0.0
  0
LINE
  5
181
330
4A
100
AcDbEntity
  8
0
  6
Continuous
 62
     0
100
AcDbLine
 10
-35.29997253417969
 20
-79.175048828125
 30
0.0
 11
-35.29997253417969
 21
-84.675048828125
 31
0.0
  0
LINE
  5
182
330
4A
100
AcDbEntity
  8
0
  6
Continuous
 62
     0
100
AcDbLine
 10
-49.82490429491706
 20
-46.37850838222002
 30
0.0
 11
-47.9576737299811
 21
-67.7209790314189
 31
0.0
  0
LINE
  5
183
330
4A
100
AcDbEntity
  8
0
  6
Continuous
 62
     0
100
AcDbLine
 10
-36.00395202636719
 20
-78.675048828125
 30
0.0
 11
-35.80001831054688
 21
-78.675048828125
 31
0.0
  0
LINE
  5
184
330
4A
100
AcDbEntity
  8
0
  6
Continuous
 62
     0
100
AcDbLine
 10
-33.29998779296875
 20
-88.47503662109375
 30
0.0
 11
32.36932373046875
 21
-88.47503662109375
 31
0.0
  0
LINE
  5
185
330
4A
100
AcDbEntity
  8
0
  6
Continuous
 62
     0
100
AcDbLine
 10
-37.09999084472656
 20
-80.43145751953125
 30
0.0
 11
-37.09999084472656
 21
-84.675048828125
 31
0.0
  0
LINE
  5
186
330
4A
100
AcDbEntity
  8
0
  6
Continuous
 62
     0
100
AcDbLine
 10
-59.46960405188742
 20
-27.93148272115059
 30
0.0
 11
-58.04846567737491
 21
-44.17511359140869
 31
0.0
  0
LINE
  5
187
330
4A
100
AcDbEntity
  8
0
  6
Continuous
 62
     0
100
AcDbLine
 10
-58.04871528918889
 20
-44.17471623034765
 30
0.0
 11
-49.82540498921457
 21
-46.37814534908529
 31
0.0
  0
LINE
  5
188
330
4A
100
AcDbEntity
  8
0
  6
Continuous
 62
     0
100
AcDbLine
 10
-69.70991516113281
 20
-27.47502136230469
 30
0.0
 11
-59.96806335449219
 21
-27.47502136230469
 31
0.0
  0
LINE
  5
189
330
4A
100
AcDbEntity
  8
0
  6
Continuous
 62
     0
100
AcDbLine
 10
-70.00990295410156
 20
-11.97506713867188
 30
0.0
 11
-70.00990295410156
 21
-27.17506408691406
 31
0.0
  0
LINE
  5
18A
330
4A
100
AcDbEntity
  8
0
  6
Continuous
 62
     0
100
AcDbLine
 10
-59.50990295410156
 20
-11.97506713867188
 30
0.0
 11
-59.50990295410156
 21
-12.97505187988281
 31
0.0
  0
LINE
  5
18B
330
4A
100
AcDbEntity
  8
0
  6
Continuous
 62
     0
100
AcDbLine
 10
-64.80992126464844
 20
-8.47503662109375
 30
0.0
 11
-59.50990295410156
 21
-8.47503662109375
 31
0.0
  0
LINE
  5
18C
330
4A
100
AcDbEntity
  8
0
  6
Continuous
 62
     0
100
AcDbLine
 10
-71.80986022949219
 20
-11.97506713867188
 30
0.0
 11
-71.80986022949219
 21
-27.47503662109375
 31
0.0
  0
LINE
  5
18D
330
4A
100
AcDbEntity
  8
0
  6
Continuous
 62
     0
100
AcDbLine
 10
-70.00993347167969
 20
-10.17503356933594
 30
0.0
 11
-66.50990295410156
 21
-10.17503356933594
 31
0.0
  0
LINE
  5
18E
330
4A
100
AcDbEntity
  8
0
  6
Continuous
 62
     0
100
AcDbLine
 10
-70.00993347167969
 20
-29.27503967285156
 30
0.0
 11
-61.15931701660156
 21
-29.27503967285156
 31
0.0
  0
LINE
  5
18F
330
4A
100
AcDbEntity
  8
0
  6
Continuous
 62
     0
100
AcDbLine
 10
-61.15896029696564
 20
-29.27511746494267
 30
0.0
 11
-59.76231061946793
 21
-45.23884219661787
 31
0.0
  0
LINE
  5
190
330
4A
100
AcDbEntity
  8
0
  6
Continuous
 62
     0
100
AcDbLine
 10
-51.50849395350716
 20
-47.7908564777775
 30
0.0
 11
-49.75111675228968
 21
-67.87770169169004
 31
0.0
  0
LINE
  5
191
330
4A
100
AcDbEntity
  8
0
  6
Continuous
 62
     0
100
AcDbLine
 10
-59.3938929843197
 20
-45.67782465374849
 30
0.0
 11
-51.50875105465909
 21
-47.79064184042907
 31
0.0
  0
LINE
  5
192
330
4A
100
AcDbEntity
  8
0
  6
Continuous
 62
     0
100
AcDbLine
 10
-59.24745178222656
 20
-30.47502136230469
 30
0.0
 11
-53.12413024902344
 21
-30.47502136230469
 31
0.0
  0
LINE
  5
193
330
4A
100
AcDbEntity
  8
0
  6
Continuous
 62
     0
100
AcDbLine
 10
-52.93901062011719
 20
-38.47503662109375
 30
0.0
 11
-52.42420959472656
 21
-38.47503662109375
 31
0.0
  0
LINE
  5
194
330
4A
100
AcDbEntity
  8
0
  6
Continuous
 62
     0
100
AcDbLine
 10
-54.63466418991489
 20
-31.56228075866718
 30
0.0
 11
-54.10973313034673
 21
-37.56224987981888
 31
0.0
  0
LINE
  5
195
330
4A
100
AcDbEntity
  8
0
  6
Continuous
 62
     0
100
AcDbLine
 10
-53.12372167431707
 20
-30.47499372300694
 30
0.0
 11
-52.42381093510171
 21
-38.47498295265794
 31
0.0
  0
LINE
  5
196
330
4A
100
AcDbEntity
  8
0
  6
Continuous
 62
     0
100
AcDbLine
 10
-53.57157275198764
 20
-43.71803706109559
 30
0.0
 11
-48.32925554691523
 21
-45.12271157269123
 31
0.0
  0
LINE
  5
197
330
4A
100
AcDbEntity
  8
0
  6
Continuous
 62
     0
100
AcDbLine
 10
-48.32866928392677
 20
-45.12307060108468
 30
0.0
 11
-48.16745402342278
 21
-46.96576321233554
 31
0.0
  0
LINE
  5
198
330
4A
100
AcDbEntity
  8
0
  6
Continuous
 62
     0
100
AcDbLine
 10
-46.48149629665236
 20
-47.87850849363394
 30
0.0
 11
-44.76990474009792
 21
-67.44202316887308
 31
0.0
  0
LINE
  5
199
330
4A
100
AcDbEntity
  8
0
  6
Continuous
 62
     0
100
AcDbLine
 10
-46.99684143066406
 20
-47.87844848632812
 30
0.0
 11
-46.48200988769531
 21
-47.87844848632812
 31
0.0
  0
LINE
  5
19A
330
4A
100
AcDbEntity
  8
0
  6
Continuous
 62
     0
100
AcDbLine
 10
-35.29997253417969
 20
-75.44683837890625
 30
0.0
 11
-35.29997253417969
 21
-76.07037353515625
 31
0.0
  0
LINE
  5
19B
330
4A
100
AcDbEntity
  8
0
  6
Continuous
 62
     0
100
AcDbLine
 10
-36.70785522460938
 20
-75.44680786132812
 30
0.0
 11
-35.30000305175781
 21
-75.44680786132812
 31
0.0
  0
LINE
  5
19C
330
4A
100
AcDbEntity
  8
0
  6
Continuous
 62
     0
100
AcDbLine
 10
-35.29975222653725
 20
-75.44658612470577
 30
0.0
 11
-27.27154701094652
 21
-83.47478727993487
 31
0.0
  0
LINE
  5
19D
330
4A
100
AcDbEntity
  8
0
  6
Continuous
 62
     0
100
AcDbLine
 10
-23.30000305175781
 20
-85.07504272460938
 30
0.0
 11
-7.300018310546875
 21
-85.07504272460938
 31
0.0
  0
LINE
  5
19E
330
4A
100
AcDbEntity
  8
0
  6
Continuous
 62
     0
100
AcDbLine
 10
-27.27178955078125
 20
-83.47503662109375
 30
0.0
 11
-6.29998779296875
 21
-83.47503662109375
 31
0.0
  0
LINE
  5
19F
330
4A
100
AcDbEntity
  8
0
  6
Continuous
 62
     0
100
AcDbLine
 10
-24.29995727539062
 20
-83.47503662109375
 30
0.0
 11
-24.29995727539062
 21
-84.07504272460938
 31
0.0
  0
LINE
  5
1A0
330
4A
100
AcDbEntity
  8
0
  6
Continuous
 62
     0
100
AcDbLine
 10
-6.299957275390625
 20
-83.47503662109375
 30
0.0
 11
-6.299957275390625
 21
-84.07504272460938
 31
0.0
  0
LINE
  5
1A1
330
4A
100
AcDbEntity
  8
0
  6
Continuous
 62
     0
100
AcDbLine
 10
13.70001220703125
 20
-83.47503662109375
 30
0.0
 11
13.70001220703125
 21
-84.07504272460938
 31
0.0
  0
LINE
  5
1A2
330
4A
100
AcDbEntity
  8
0
  6
Continuous
 62
     0
100
AcDbLine
 10
2.914566040039062
 20
-85.07504272460938
 30
0.0
 11
12.69999694824219
 21
-85.07504272460938
 31
0.0
  0
LINE
  5
1A3
330
4A
100
AcDbEntity
  8
0
  6
Continuous
 62
     0
100
AcDbLine
 10
13.69998168945312
 20
-83.47503662109375
 30
0.0
 11
32.36932373046875
 21
-83.47503662109375
 31
0.0
  0
LINE
  5
1A4
330
4A
100
AcDbEntity
  8
0
  6
Continuous
 62
     0
100
AcDbLine
 10
41.34073044800379
 20
-49.5620818025931
 30
0.0
 11
38.74489668120546
 21
-79.23271175181469
 31
0.0
  0
LINE
  5
1A5
330
4A
100
AcDbEntity
  8
0
  6
Continuous
 62
     0
100
AcDbLine
 10
39.82973917994804
 20
-48.47508253575533
 30
0.0
 11
37.15098702022219
 21
-79.09347770168841
 31
0.0
  0
LINE
  5
1A6
330
4A
100
AcDbEntity
  8
0
  6
Continuous
 62
     0
100
AcDbLine
 10
47.31173706054688
 20
-35.17501831054688
 30
0.0
 11
50.342041015625
 21
-35.17501831054688
 31
0.0
  0
LINE
  5
1A7
330
4A
100
AcDbEntity
  8
0
  6
Continuous
 62
     0
100
AcDbLine
 10
14.70001220703125
 20
-85.07504272460938
 30
0.0
 11
32.36932373046875
 21
-85.07504272460938
 31
0.0
  0
LINE
  5
1A8
330
4A
100
AcDbEntity
  8
0
  6
Continuous
 62
     0
100
AcDbLine
 10
14.70001220703125
 20
-85.07504272460938
 30
0.0
 11
32.36932373046875
 21
-85.07504272460938
 31
0.0
  0
LINE
  5
1A9
330
4A
100
AcDbEntity
  8
0
  6
Continuous
 62
     0
100
AcDbLine
 10
-5.300003051757812
 20
-85.07504272460938
 30
0.0
 11
12.69999694824219
 21
-85.07504272460938
 31
0.0
  0
LINE
  5
1AA
330
4A
100
AcDbEntity
  8
0
  6
Continuous
 62
     0
100
AcDbLine
 10
-47.99247434377559
 20
-48.96578332083485
 30
0.0
 11
-46.36379645639047
 21
-67.58159363438779
 31
0.0
  0
LINE
  5
1AB
330
4A
100
AcDbEntity
  8
0
  6
Continuous
 62
     0
100
AcDbLine
 10
-53.93475345069954
 20
-39.56226998831819
 30
0.0
 11
-53.565491987111
 21
-43.78293351884957
 31
0.0
  0
LINE
  5
1AC
330
4A
100
AcDbEntity
  8
0
  6
Continuous
 62
     0
100
AcDbLine
 10
-33.29998779296875
 20
-86.67501831054688
 30
0.0
 11
32.36932373046875
 21
-86.67501831054688
 31
0.0
  0
LINE
  5
1AD
330
4A
100
AcDbEntity
  8
0
  6
Continuous
 62
     0
100
AcDbLine
 10
-47.71755576534508
 20
-70.46553061965051
 30
0.0
 11
-46.29940034659472
 21
-86.67506626514259
 31
0.0
  0
LINE
  5
1AE
330
4A
100
AcDbEntity
  8
0
  6
Continuous
 62
     0
100
AcDbLine
 10
40.03927650501947
 20
-82.79643229663225
 30
0.0
 11
39.699950769189
 21
-86.67495813632445
 31
0.0
  0
LINE
  5
1AF
330
4A
100
AcDbEntity
  8
0
  6
Continuous
 62
     0
100
AcDbLine
 10
35.53215026855469
 20
-86.67501831054688
 30
0.0
 11
39.69999694824219
 21
-86.67501831054688
 31
0.0
  0
LINE
  5
1B0
330
4A
100
AcDbEntity
  8
0
  6
Continuous
 62
     0
100
AcDbLine
 10
-57.25990295410156
 20
-10.22503662109375
 30
0.0
 11
-57.25990295410156
 21
-11.22506713867188
 31
0.0
  0
LINE
  5
1B1
330
4A
100
AcDbEntity
  8
0
  6
Continuous
 62
     0
100
AcDbLine
 10
-71.80989074707031
 20
4.582748413085938
 30
0.0
 11
52.14205932617188
 21
4.582748413085938
 31
0.0
  0
LINE
  5
1B2
330
4A
100
AcDbEntity
  8
0
  6
Continuous
 62
     0
100
AcDbLine
 10
-71.80986022949219
 20
164.582763671875
 30
0.0
 11
-71.80986022949219
 21
4.582748413085938
 31
0.0
  0
LINE
  5
1B3
330
4A
100
AcDbEntity
  8
0
  6
Continuous
 62
     0
100
AcDbLine
 10
52.14207458496094
 20
34.54046630859375
 30
0.0
 11
52.14207458496094
 21
4.582748413085938
 31
0.0
  0
LINE
  5
1B4
330
4A
100
AcDbEntity
  8
0
  6
Continuous
 62
     0
100
AcDbLine
 10
-70.00990295410156
 20
36.58279418945312
 30
0.0
 11
-67.80989074707031
 21
36.58279418945312
 31
0.0
  0
LINE
  5
1B5
330
4A
100
AcDbEntity
  8
0
  6
Continuous
 62
     0
100
AcDbLine
 10
-67.80989074707031
 20
21.58274841308594
 30
0.0
 11
-57.25990295410156
 21
21.58274841308594
 31
0.0
  0
LINE
  5
1B6
330
4A
100
AcDbEntity
  8
0
  6
Continuous
 62
     0
100
AcDbLine
 10
-67.80986022949219
 20
36.58273315429688
 30
0.0
 11
-67.80986022949219
 21
21.58273315429688
 31
0.0
  0
LINE
  5
1B7
330
4A
100
AcDbEntity
  8
0
  6
Continuous
 62
     0
100
AcDbLine
 10
-59.50987243652344
 20
21.58273315429688
 30
0.0
 11
-59.50987243652344
 21
4.582748413085938
 31
0.0
  0
LINE
  5
1B8
330
4A
100
AcDbEntity
  8
0
  6
Continuous
 62
     0
100
AcDbLine
 10
-66.50987243652344
 20
21.58273315429688
 30
0.0
 11
-66.50987243652344
 21
4.582748413085938
 31
0.0
  0
LINE
  5
1B9
330
4A
100
AcDbEntity
  8
0
  6
Continuous
 62
     0
100
AcDbLine
 10
-57.25990295410156
 20
21.58273315429688
 30
0.0
 11
-57.25990295410156
 21
4.582748413085938
 31
0.0
  0
LINE
  5
1BA
330
4A
100
AcDbEntity
  8
0
  6
Continuous
 62
     0
100
AcDbLine
 10
-70.00987243652344
 20
159.7421722412109
 30
0.0
 11
-70.00987243652344
 21
36.58273315429688
 31
0.0
  0
LINE
  5
1BB
330
4A
100
AcDbEntity
  8
0
  6
Continuous
 62
     0
100
AcDbLine
 10
-59.87080383300781
 20
149.5173950195312
 30
0.0
 11
-59.87080383300781
 21
21.58273315429688
 31
0.0
  0
LINE
  5
1BC
330
4A
100
AcDbEntity
  8
0
  6
Continuous
 62
     0
100
AcDbLine
 10
-53.12409973144531
 20
38.58273315429688
 30
0.0
 11
-53.12409973144531
 21
33.58273315429688
 31
0.0
  0
LINE
  5
1BD
330
4A
100
AcDbEntity
  8
0
  6
Continuous
 62
     0
100
AcDbLine
 10
-59.24742126464844
 20
38.58273315429688
 30
0.0
 11
-59.24742126464844
 21
36.58273315429688
 31
0.0
  0
LINE
  5
1BE
330
4A
100
AcDbEntity
  8
0
  6
Continuous
 62
     0
100
AcDbLine
 10
-59.24745178222656
 20
38.58279418945312
 30
0.0
 11
43.04197692871094
 21
38.58279418945312
 31
0.0
  0
LINE
  5
1BF
330
4A
100
AcDbEntity
  8
0
  6
Continuous
 62
     0
100
AcDbLine
 10
-59.24745178222656
 20
36.58279418945312
 30
0.0
 11
-54.66731262207031
 21
36.58279418945312
 31
0.0
  0
LINE
  5
1C0
330
4A
100
AcDbEntity
  8
0
  6
Continuous
 62
     0
100
AcDbLine
 10
-54.06730651855469
 20
33.58279418945312
 30
0.0
 11
-52.42396545410156
 21
33.58279418945312
 31
0.0
  0
LINE
  5
1C1
330
4A
100
AcDbEntity
  8
0
  6
Continuous
 62
     0
100
AcDbLine
 10
-52.42393493652344
 20
38.58273315429688
 30
0.0
 11
-52.42393493652344
 21
33.58273315429688
 31
0.0
  0
LINE
  5
1C2
330
4A
100
AcDbEntity
  8
0
  6
Continuous
 62
     0
100
AcDbLine
 10
-52.53401184082031
 20
36.58279418945312
 30
0.0
 11
-48.38591003417969
 21
36.58279418945312
 31
0.0
  0
LINE
  5
1C3
330
4A
100
AcDbEntity
  8
0
  6
Continuous
 62
     0
100
AcDbLine
 10
-46.48161315917969
 20
38.58273315429688
 30
0.0
 11
-46.48161315917969
 21
33.58273315429688
 31
0.0
  0
LINE
  5
1C4
330
4A
100
AcDbEntity
  8
0
  6
Continuous
 62
     0
100
AcDbLine
 10
-48.38593237037492
 20
36.58276005108237
 30
0.0
 11
-47.14328939238184
 21
33.58276456274498
 31
0.0
  0
LINE
  5
1C5
330
4A
100
AcDbEntity
  8
0
  6
DASHED
 62
     0
100
AcDbLine
 10
-48.38591003417969
 20
36.58279418945312
 30
0.0
 11
-35.29985046386719
 21
36.58279418945312
 31
0.0
  0
LINE
  5
1C6
330
4A
100
AcDbEntity
  8
0
  6
Continuous
 62
     0
100
AcDbLine
 10
-47.14326477050781
 20
33.58279418945312
 30
0.0
 11
-36.29985046386719
 21
33.58279418945312
 31
0.0
  0
LINE
  5
1C7
330
4A
100
AcDbEntity
  8
0
  6
Continuous
 62
     0
100
AcDbLine
 10
-35.29983520507812
 20
124.738639831543
 30
0.0
 11
-35.29983520507812
 21
38.58273315429688
 31
0.0
  0
LINE
  5
1C8
330
4A
100
AcDbEntity
  8
0
  6
Continuous
 62
     0
100
AcDbLine
 10
-35.29983520507812
 20
38.58273315429688
 30
0.0
 11
-35.29983520507812
 21
34.58274841308594
 31
0.0
  0
LINE
  5
1C9
330
4A
100
AcDbEntity
  8
0
  6
Continuous
 62
     0
100
AcDbLine
 10
-33.07206726074219
 20
36.58279418945312
 30
0.0
 11
-24.89262390136719
 21
36.58279418945312
 31
0.0
  0
LINE
  5
1CA
330
4A
100
AcDbEntity
  8
0
  6
Continuous
 62
     0
100
AcDbLine
 10
-35.29983520507812
 20
31.58963012695312
 30
0.0
 11
-35.29983520507812
 21
4.582748413085938
 31
0.0
  0
LINE
  5
1CB
330
4A
100
AcDbEntity
  8
0
  6
Continuous
 62
     0
100
AcDbLine
 10
-6.299957275390625
 20
38.58273315429688
 30
0.0
 11
-6.299957275390625
 21
34.58274841308594
 31
0.0
  0
LINE
  5
1CC
330
4A
100
AcDbEntity
  8
0
  6
Continuous
 62
     0
100
AcDbLine
 10
-24.89262390136719
 20
38.58273315429688
 30
0.0
 11
-24.89262390136719
 21
34.58274841308594
 31
0.0
  0
LINE
  5
1CD
330
4A
100
AcDbEntity
  8
0
  6
Continuous
 62
     0
100
AcDbLine
 10
13.69999694824219
 20
38.58273315429688
 30
0.0
 11
13.69999694824219
 21
34.58274841308594
 31
0.0
  0
LINE
  5
1CE
330
4A
100
AcDbEntity
  8
0
  6
Continuous
 62
     0
100
AcDbLine
 10
-23.89262390136719
 20
33.58279418945312
 30
0.0
 11
-7.299972534179688
 21
33.58279418945312
 31
0.0
  0
LINE
  5
1CF
330
4A
100
AcDbEntity
  8
0
  6
Continuous
 62
     0
100
AcDbLine
 10
14.69999694824219
 20
33.58279418945312
 30
0.0
 11
40.74397277832031
 21
33.58279418945312
 31
0.0
  0
LINE
  5
1D0
330
4A
100
AcDbEntity
  8
0
  6
Continuous
 62
     0
100
AcDbLine
 10
-6.299972534179688
 20
36.58279418945312
 30
0.0
 11
13.69998168945312
 21
36.58279418945312
 31
0.0
  0
LINE
  5
1D1
330
4A
100
AcDbEntity
  8
0
  6
DASHED
 62
     0
100
AcDbLine
 10
-24.89262390136719
 20
36.58279418945312
 30
0.0
 11
-6.299972534179688
 21
36.58279418945312
 31
0.0
  0
LINE
  5
1D2
330
4A
100
AcDbEntity
  8
0
  6
DASHED
 62
     0
100
AcDbLine
 10
13.69998168945312
 20
36.58279418945312
 30
0.0
 11
39.82972717285156
 21
36.58279418945312
 31
0.0
  0
LINE
  5
1D3
330
4A
100
AcDbEntity
  8
0
  6
Continuous
 62
     0
100
AcDbLine
 10
40.84205627441406
 20
21.58274841308594
 30
0.0
 11
48.14204406738281
 21
21.58274841308594
 31
0.0
  0
LINE
  5
1D4
330
4A
100
AcDbEntity
  8
0
  6
Continuous
 62
     0
100
AcDbLine
 10
40.84205627441406
 20
21.58273315429688
 30
0.0
 11
40.84205627441406
 21
4.582748413085938
 31
0.0
  0
LINE
  5
1D5
330
4A
100
AcDbEntity
  8
0
  6
Continuous
 62
     0
100
AcDbLine
 10
48.14205932617188
 20
36.58273315429688
 30
0.0
 11
48.14205932617188
 21
21.58273315429688
 31
0.0
  0
LINE
  5
1D6
330
4A
100
AcDbEntity
  8
0
  6
Continuous
 62
     0
100
AcDbLine
 10
47.31175231933594
 20
21.58273315429688
 30
0.0
 11
47.31175231933594
 21
4.582748413085938
 31
0.0
  0
LINE
  5
1D7
330
4A
100
AcDbEntity
  8
0
  6
Continuous
 62
     0
100
AcDbLine
 10
50.34207153320312
 20
41.39794921875
 30
0.0
 11
50.34207153320312
 21
36.58273315429688
 31
0.0
  0
LINE
  5
1D8
330
4A
100
AcDbEntity
  8
0
  6
Continuous
 62
     0
100
AcDbLine
 10
48.14204406738281
 20
36.58279418945312
 30
0.0
 11
50.34205627441406
 21
36.58279418945312
 31
0.0
  0
LINE
  5
1D9
330
4A
100
AcDbEntity
  8
0
  6
Continuous
 62
     0
100
AcDbLine
 10
39.82974243164062
 20
38.58273315429688
 30
0.0
 11
39.82974243164062
 21
33.58273315429688
 31
0.0
  0
LINE
  5
1DA
330
4A
100
AcDbEntity
  8
0
  6
Continuous
 62
     0
100
AcDbLine
 10
43.04197692871094
 20
48.75978088378906
 30
0.0
 11
43.04197692871094
 21
38.58273315429688
 31
0.0
  0
LINE
  5
1DB
330
4A
100
AcDbEntity
  8
0
  6
Continuous
 62
     0
100
AcDbLine
 10
41.34077611727207
 20
36.58276457265561
 30
0.0
 11
40.74403833324239
 21
33.58276126121367
 31
0.0
  0
LINE
  5
1DC
330
4A
100
AcDbEntity
  8
0
  6
Continuous
 62
     0
100
AcDbLine
 10
43.04197692871094
 20
36.58273315429688
 30
0.0
 11
43.04197692871094
 21
21.58273315429688
 31
0.0
  0
LINE
  5
1DD
330
4A
100
AcDbEntity
  8
0
  6
Continuous
 62
     0
100
AcDbLine
 10
41.34071350097656
 20
36.58279418945312
 30
0.0
 11
43.04197692871094
 21
36.58279418945312
 31
0.0
  0
LINE
  5
1DE
330
4A
100
AcDbEntity
  8
0
  6
Continuous
 62
     0
100
AcDbLine
 10
-58.04881286621094
 20
147.6799621582031
 30
0.0
 11
-58.04881286621094
 21
38.58273315429688
 31
0.0
  0
LINE
  5
1DF
330
4A
100
AcDbEntity
  8
0
  6
Continuous
 62
     0
100
AcDbLine
 10
-49.88005065917969
 20
139.4421539306641
 30
0.0
 11
-49.88005065917969
 21
38.69375610351562
 31
0.0
  0
LINE
  5
1E0
330
4A
100
AcDbEntity
  8
0
  6
Continuous
 62
     0
100
AcDbLine
 10
38.15304565429688
 20
53.6900634765625
 30
0.0
 11
38.15304565429688
 21
38.58273315429688
 31
0.0
  0
LINE
  5
1E1
330
4A
100
AcDbEntity
  8
0
  6
Continuous
 62
     0
100
AcDbLine
 10
-49.88005065917969
 20
35.32093811035156
 30
0.0
 11
-49.88005065917969
 21
4.582748413085938
 31
0.0
  0
LINE
  5
1E2
330
4A
100
AcDbEntity
  8
0
  6
Continuous
 62
     0
100
AcDbLine
 10
38.15304565429688
 20
32.285400390625
 30
0.0
 11
38.15304565429688
 21
4.582748413085938
 31
0.0
  0
LINE
  5
1E3
330
4A
100
AcDbEntity
  8
0
  6
Continuous
 62
     0
100
AcDbLine
 10
-58.04881286621094
 20
36.58273315429688
 30
0.0
 11
-58.04881286621094
 21
21.58273315429688
 31
0.0
  0
LINE
  5
1E4
330
4A
100
AcDbEntity
  8
0
  6
Continuous
 62
     0
100
AcDbLine
 10
88.18440878481323
 20
163.2355686179794
 30
0.0
 11
87.14076212219331
 21
39.28802751332482
 31
0.0
  0
LINE
  5
1E5
330
4A
100
AcDbEntity
  8
0
  6
Continuous
 62
     0
100
AcDbLine
 10
-71.80991221317096
 20
164.5827163411462
 30
0.0
 11
88.18440102721365
 21
163.235553423969
 31
0.0
  0
LINE
  5
1E6
330
4A
100
AcDbEntity
  8
0
  6
Continuous
 62
     0
100
AcDbLine
 10
57.1841446654699
 20
39.54031003238642
 30
0.0
 11
87.14074724937156
 21
39.28807341654485
 31
0.0
  0
LINE
  5
1E7
330
4A
100
AcDbEntity
  8
0
  6
Continuous
 62
     0
100
AcDbLine
 10
56.17039891881412
 20
161.7050618834941
 30
0.0
 11
56.15187532415601
 21
159.5051276600393
 31
0.0
  0
LINE
  5
1E8
330
4A
100
AcDbEntity
  8
0
  6
Continuous
 62
     0
100
AcDbLine
 10
71.15135506458898
 20
159.3788310281528
 30
0.0
 11
71.0625268609976
 21
148.8292477158691
 31
0.0
  0
LINE
  5
1E9
330
4A
100
AcDbEntity
  8
0
  6
Continuous
 62
     0
100
AcDbLine
 10
56.15187176654492
 20
159.5051582086546
 30
0.0
 11
71.15134006329176
 21
159.3788616731246
 31
0.0
  0
LINE
  5
1EA
330
4A
100
AcDbEntity
  8
0
  6
Continuous
 62
     0
100
AcDbLine
 10
71.08147134132709
 20
151.0791679603811
 30
0.0
 11
88.08083822781045
 21
150.9360321437315
 31
0.0
  0
LINE
  5
1EB
330
4A
100
AcDbEntity
  8
0
  6
Continuous
 62
     0
100
AcDbLine
 10
71.14040959609892
 20
158.0789045739481
 30
0.0
 11
88.13978411170638
 21
157.9357686930607
 31
0.0
  0
LINE
  5
1EC
330
4A
100
AcDbEntity
  8
0
  6
Continuous
 62
     0
100
AcDbLine
 10
71.06251173122489
 20
148.8292631025928
 30
0.0
 11
88.06190150508053
 21
148.6861270932299
 31
0.0
  0
LINE
  5
1ED
330
4A
100
AcDbEntity
  8
0
  6
Continuous
 62
     0
100
AcDbLine
 10
-66.98461707442351
 20
162.74206594984
 30
0.0
 11
56.17039536120303
 21
161.7050924321093
 31
0.0
  0
LINE
  5
1EE
330
4A
100
AcDbEntity
  8
0
  6
Continuous
 62
     0
100
AcDbLine
 10
-56.84557077663077
 20
152.5172817403123
 30
0.0
 11
71.08451042879857
 21
151.4401018212205
 31
0.0
  0
LINE
  5
1EF
330
4A
100
AcDbEntity
  8
0
  6
Continuous
 62
     0
100
AcDbLine
 10
54.02830720705848
 20
144.836757684645
 30
0.0
 11
59.02811471439257
 21
144.7946589679439
 31
0.0
  0
LINE
  5
1F0
330
4A
100
AcDbEntity
  8
0
  6
Continuous
 62
     0
100
AcDbLine
 10
54.07986416009711
 20
150.9598621651828
 30
0.0
 11
56.07979326633002
 21
150.9430226271122
 31
0.0
  0
LINE
  5
1F1
330
4A
100
AcDbEntity
  8
0
  6
Continuous
 62
     0
100
AcDbLine
 10
54.07985653097302
 20
150.9598622294206
 30
0.0
 11
53.21860329494658
 21
48.67407461819867
 31
0.0
  0
LINE
  5
1F2
330
4A
100
AcDbEntity
  8
0
  6
Continuous
 62
     0
100
AcDbLine
 10
56.07978182264388
 20
150.9430227234688
 30
0.0
 11
56.04121798029021
 21
146.3630306567238
 31
0.0
  0
LINE
  5
1F3
330
4A
100
AcDbEntity
  8
0
  6
Continuous
 62
     0
100
AcDbLine
 10
59.03607498507638
 20
145.7377863859732
 30
0.0
 11
59.02223856134289
 21
144.0945188310876
 31
0.0
  0
LINE
  5
1F4
330
4A
100
AcDbEntity
  8
0
  6
Continuous
 62
     0
100
AcDbLine
 10
54.02241236662501
 20
144.1366634831276
 30
0.0
 11
59.0222198739591
 21
144.0945647664265
 31
0.0
  0
LINE
  5
1F5
330
4A
100
AcDbEntity
  8
0
  6
Continuous
 62
     0
100
AcDbLine
 10
56.0232560804292
 20
144.2298054943382
 30
0.0
 11
55.98833002128225
 21
140.0818507249792
 31
0.0
  0
LINE
  5
1F6
330
4A
100
AcDbEntity
  8
0
  6
Continuous
 62
     0
100
AcDbLine
 10
53.9723791327752
 20
138.1945218260755
 30
0.0
 11
58.97220189835748
 21
138.1524229808989
 31
0.0
  0
LINE
  5
1F7
330
4A
100
AcDbEntity
  8
0
  6
Continuous
 62
     0
100
AcDbLine
 10
55.98834535680881
 20
140.0819466672829
 30
0.0
 11
58.97776823640523
 21
138.8140899822455
 31
0.0
  0
LINE
  5
1F8
330
4A
100
AcDbEntity
  8
0
  6
DASHED
 62
     0
100
AcDbLine
 10
55.98833002128225
 20
140.0818507249792
 30
0.0
 11
55.8781484863554
 21
126.9962626438204
 31
0.0
  0
LINE
  5
1F9
330
4A
100
AcDbEntity
  8
0
  6
Continuous
 62
     0
100
AcDbLine
 10
58.97777615276684
 20
138.8139900736278
 30
0.0
 11
58.88647723722602
 21
127.9709753904795
 31
0.0
  0
LINE
  5
1FA
330
4A
100
AcDbEntity
  8
0
  6
Continuous
 62
     0
100
AcDbLine
 10
-32.27458374942631
 20
127.7385145995976
 30
0.0
 11
53.87821556556044
 21
127.01310221401
 31
0.0
  0
LINE
  5
1FB
330
4A
100
AcDbEntity
  8
0
  6
Continuous
 62
     0
100
AcDbLine
 10
53.87821556556044
 20
127.01310221401
 30
0.0
 11
57.87808903627445
 21
126.9794230093932
 31
0.0
  0
LINE
  5
1FC
330
4A
100
AcDbEntity
  8
0
  6
Continuous
 62
     0
100
AcDbLine
 10
55.85939100208656
 20
124.7685507795431
 30
0.0
 11
55.79052210663854
 21
116.5894126141925
 31
0.0
  0
LINE
  5
1FD
330
4A
100
AcDbEntity
  8
0
  6
Continuous
 62
     0
100
AcDbLine
 10
60.87107070919556
 20
126.9542219016795
 30
0.0
 11
87.87696459677535
 21
126.7268304522352
 31
0.0
  0
LINE
  5
1FE
330
4A
100
AcDbEntity
  8
0
  6
Continuous
 62
     0
100
AcDbLine
 10
53.63405861382564
 20
98.01425974026688
 30
0.0
 11
57.63388630979509
 21
97.98058092107652
 31
0.0
  0
LINE
  5
1FF
330
4A
100
AcDbEntity
  8
0
  6
Continuous
 62
     0
100
AcDbLine
 10
53.79060437985403
 20
116.6062444267825
 30
0.0
 11
57.79043207582347
 21
116.5725656075921
 31
0.0
  0
LINE
  5
200
330
4A
100
AcDbEntity
  8
0
  6
Continuous
 62
     0
100
AcDbLine
 10
53.46564855301052
 20
78.0150374685301
 30
0.0
 11
57.46549150722815
 21
77.98135852086426
 31
0.0
  0
LINE
  5
201
330
4A
100
AcDbEntity
  8
0
  6
Continuous
 62
     0
100
AcDbLine
 10
58.78201112672528
 20
115.5641733672464
 30
0.0
 11
58.64230483452982
 21
98.97211015783964
 31
0.0
  0
LINE
  5
202
330
4A
100
AcDbEntity
  8
0
  6
Continuous
 62
     0
100
AcDbLine
 10
58.457070301179
 20
76.97293576402218
 30
0.0
 11
58.23778591145255
 21
50.92986785347416
 31
0.0
  0
LINE
  5
203
330
4A
100
AcDbEntity
  8
0
  6
Continuous
 62
     0
100
AcDbLine
 10
55.63397614789694
 20
97.99740504030464
 30
0.0
 11
55.4655810241413
 21
77.99814449447192
 31
0.0
  0
LINE
  5
204
330
4A
100
AcDbEntity
  8
0
  6
DASHED
 62
     0
100
AcDbLine
 10
55.79052210663854
 20
116.5894126141925
 30
0.0
 11
55.63397614789694
 21
97.99740504030464
 31
0.0
  0
LINE
  5
205
330
4A
100
AcDbEntity
  8
0
  6
DASHED
 62
     0
100
AcDbLine
 10
55.4655810241413
 20
77.99814449447192
 30
0.0
 11
55.24557473069462
 21
51.86934048736688
 31
0.0
  0
LINE
  5
206
330
4A
100
AcDbEntity
  8
0
  6
Continuous
 62
     0
100
AcDbLine
 10
70.23653076542921
 20
50.7307353795814
 30
0.0
 11
70.17506655425169
 21
43.43100634842983
 31
0.0
  0
LINE
  5
207
330
4A
100
AcDbEntity
  8
0
  6
Continuous
 62
     0
100
AcDbLine
 10
70.23653169687644
 20
50.73084600188076
 30
0.0
 11
87.2358985833598
 21
50.58771018523112
 31
0.0
  0
LINE
  5
208
330
4A
100
AcDbEntity
  8
0
  6
Continuous
 62
     0
100
AcDbLine
 10
55.17558341680198
 20
43.55735260174187
 30
0.0
 11
70.17505171354881
 21
43.43105606621192
 31
0.0
  0
LINE
  5
209
330
4A
100
AcDbEntity
  8
0
  6
Continuous
 62
     0
100
AcDbLine
 10
70.18205809349845
 20
44.26134877102479
 30
0.0
 11
87.18144023823
 21
44.11821282589966
 31
0.0
  0
LINE
  5
20A
330
4A
100
AcDbEntity
  8
0
  6
Continuous
 62
     0
100
AcDbLine
 10
50.34201444209383
 20
41.39796138540502
 30
0.0
 11
55.15705982214387
 21
41.35741837828711
 31
0.0
  0
LINE
  5
20B
330
4A
100
AcDbEntity
  8
0
  6
Continuous
 62
     0
100
AcDbLine
 10
55.17558681381872
 20
43.55730298031639
 30
0.0
 11
55.15706321916061
 21
41.35736875686164
 31
0.0
  0
LINE
  5
20C
330
4A
100
AcDbEntity
  8
0
  6
Continuous
 62
     0
100
AcDbLine
 10
53.24565790323847
 20
51.88627910769414
 30
0.0
 11
58.24546541057256
 21
51.84418039099297
 31
0.0
  0
LINE
  5
20D
330
4A
100
AcDbEntity
  8
0
  6
Continuous
 62
     0
100
AcDbLine
 10
43.04193935804673
 20
48.75978188963953
 30
0.0
 11
53.2186416011614
 21
48.67409336982021
 31
0.0
  0
LINE
  5
20E
330
4A
100
AcDbEntity
  8
0
  6
Continuous
 62
     0
100
AcDbLine
 10
55.23286252798889
 20
50.3583826701543
 30
0.0
 11
58.23778391376546
 21
50.92983985739924
 31
0.0
  0
LINE
  5
20F
330
4A
100
AcDbEntity
  8
0
  6
Continuous
 62
     0
100
AcDbLine
 10
55.21854019089794
 20
48.6572540887005
 30
0.0
 11
70.21800848764477
 21
48.53095755317056
 31
0.0
  0
LINE
  5
210
330
4A
100
AcDbEntity
  8
0
  6
Continuous
 62
     0
100
AcDbLine
 10
55.23285270327175
 20
50.35842297724648
 30
0.0
 11
55.21852832966649
 21
48.65720459575052
 31
0.0
  0
LINE
  5
211
330
4A
100
AcDbEntity
  8
0
  6
Continuous
 62
     0
100
AcDbLine
 10
-55.0235898213917
 20
150.6798544660368
 30
0.0
 11
54.06977202574298
 21
149.7612809954295
 31
0.0
  0
LINE
  5
212
330
4A
100
AcDbEntity
  8
0
  6
Continuous
 62
     0
100
AcDbLine
 10
-46.85483717437013
 20
142.4420517615559
 30
0.0
 11
53.88995891955682
 21
141.5937737781228
 31
0.0
  0
LINE
  5
213
330
4A
100
AcDbEntity
  8
0
  6
Continuous
 62
     0
100
AcDbLine
 10
38.15298010293252
 20
53.69007090867183
 30
0.0
 11
53.25975965917135
 21
53.5628708050934
 31
0.0
  0
LINE
  5
214
330
4A
100
AcDbEntity
  8
0
  6
Continuous
 62
     0
100
AcDbLine
 10
57.26265735683426
 20
141.5653754296222
 30
0.0
 11
87.99978799756568
 21
141.306566714856
 31
0.0
  0
LINE
  5
215
330
4A
100
AcDbEntity
  8
0
  6
Continuous
 62
     0
100
AcDbLine
 10
59.5568844602703
 20
53.50984858920918
 30
0.0
 11
87.25853157775856
 21
53.27659885060541
 31
0.0
  0
LINE
  5
216
330
4A
100
AcDbEntity
  8
0
  6
Continuous
 62
     0
100
AcDbLine
 10
56.0696858737277
 20
149.7444415858343
 30
0.0
 11
71.06915417047453
 21
149.6181450503043
 31
0.0
  0
LINE
  5
217
330
4A
100
AcDbEntity
  8
0
  6
Continuous
 62
     0
100
AcDbLine
 10
32.30826127776812
 20
59.58414785941942
 30
0.0
 11
43.04191143245673
 21
48.75973915188721
 31
0.0
  0
LINE
  5
218
330
4A
100
AcDbEntity
  8
0
  6
Continuous
 62
     0
100
AcDbLine
 10
-47.70162683147166
 20
140.2705608742899
 30
0.0
 11
-35.16685920622451
 21
127.629805318236
 31
0.0
  0
LINE
  5
219
330
4A
100
AcDbEntity
  8
0
  6
Continuous
 62
     0
100
AcDbLine
 10
-55.89001888902123
 20
148.5281900135916
 30
0.0
 11
-50.25388167121825
 21
142.8443963461984
 31
0.0
  0
LINE
  5
21A
330
4A
100
AcDbEntity
  8
0
  6
Continuous
 62
     0
100
AcDbLine
 10
87.14075469970703
 20
-33.97500610351562
 30
0.0
 11
87.14075469970703
 21
-87.67938232421875
 31
0.0
  0
LINE
  5
21B
330
4A
100
AcDbEntity
  8
0
  6
Continuous
 62
     0
100
AcDbLine
 10
32.36933898925781
 20
-88.47503662109375
 30
0.0
 11
83.14076232910156
 21
-88.47503662109375
 31
0.0
  0
LINE
  5
21C
330
4A
100
AcDbEntity
  8
0
  6
Continuous
 62
     0
100
AcDbLine
 10
50.342041015625
 20
-35.17501831054688
 30
0.0
 11
83.14076232910156
 21
-35.17501831054688
 31
0.0
  0
LINE
  5
21D
330
4A
100
AcDbEntity
  8
0
  6
Continuous
 62
     0
100
AcDbLine
 10
50.342041015625
 20
-50.2750244140625
 30
0.0
 11
83.14076232910156
 21
-50.2750244140625
 31
0.0
  0
LINE
  5
21E
330
4A
100
AcDbEntity
  8
0
  6
Continuous
 62
     0
100
AcDbLine
 10
70.17506408691406
 20
-33.97503662109375
 30
0.0
 11
87.14076232910156
 21
-33.97503662109375
 31
0.0
  0
LINE
  5
21F
330
4A
100
AcDbEntity
  8
0
  6
Continuous
 62
     0
100
AcDbLine
 10
70.17507934570312
 20
-33.97500610351562
 30
0.0
 11
70.17507934570312
 21
-35.17498779296875
 31
0.0
  0
LINE
  5
220
330
4A
100
AcDbEntity
  8
0
  6
Continuous
 62
     0
100
AcDbLine
 10
55.17558288574219
 20
-10.17503356933594
 30
0.0
 11
70.17506408691406
 21
-10.17503356933594
 31
0.0
  0
LINE
  5
221
330
4A
100
AcDbEntity
  8
0
  6
Continuous
 62
     0
100
AcDbLine
 10
-57.25990295410156
 20
-8.47503662109375
 30
0.0
 11
87.14076232910156
 21
-8.47503662109375
 31
0.0
  0
LINE
  5
222
330
4A
100
AcDbEntity
  8
0
  6
Continuous
 62
     0
100
AcDbLine
 10
87.14075469970703
 20
-8.475006103515625
 30
0.0
 11
87.14075469970703
 21
-33.97500610351562
 31
0.0
  0
LINE
  5
223
330
4A
100
AcDbEntity
  8
0
  6
Continuous
 62
     0
100
AcDbLine
 10
70.17507934570312
 20
-8.475006103515625
 30
0.0
 11
70.17507934570312
 21
-12.97500610351562
 31
0.0
  0
LINE
  5
224
330
4A
100
AcDbEntity
  8
0
  6
Continuous
 62
     0
100
AcDbLine
 10
70.17506408691406
 20
-12.97503662109375
 30
0.0
 11
87.14076232910156
 21
-12.97503662109375
 31
0.0
  0
LINE
  5
225
330
4A
100
AcDbEntity
  8
0
  6
Continuous
 62
     0
100
AcDbLine
 10
55.17559814453125
 20
-8.475006103515625
 30
0.0
 11
55.17559814453125
 21
-10.17500305175781
 31
0.0
  0
LINE
  5
226
330
4A
100
AcDbEntity
  8
0
  6
Continuous
 62
     0
100
AcDbLine
 10
53.2186279296875
 20
-30.47502136230469
 30
0.0
 11
57.23777770996094
 21
-30.47502136230469
 31
0.0
  0
LINE
  5
227
330
4A
100
AcDbEntity
  8
0
  6
Continuous
 62
     0
100
AcDbLine
 10
53.21864318847656
 20
-30.47499084472656
 30
0.0
 11
53.21864318847656
 21
-35.17498779296875
 31
0.0
  0
LINE
  5
228
330
4A
100
AcDbEntity
  8
0
  6
Continuous
 62
     0
100
AcDbLine
 10
58.23779296875
 20
-31.47500610351562
 30
0.0
 11
58.23779296875
 21
-35.17498779296875
 31
0.0
  0
LINE
  5
229
330
4A
100
AcDbEntity
  8
0
  6
Continuous
 62
     0
100
AcDbLine
 10
-59.50962829589844
 20
-27.47502136230469
 30
0.0
 11
87.14076232910156
 21
-27.47502136230469
 31
0.0
  0
LINE
  5
22A
330
4A
100
AcDbEntity
  8
0
  6
Continuous
 62
     0
100
AcDbLine
 10
83.14077758789062
 20
-35.17498779296875
 30
0.0
 11
83.14077758789062
 21
-88.47503662109375
 31
0.0
  0
LINE
  5
22B
330
4A
100
AcDbEntity
  8
0
  6
Continuous
 62
     0
100
AcDbLine
 10
83.14077870740195
 20
-88.47502521231897
 30
0.0
 11
87.14076834073798
 21
-87.67937873385605
 31
0.0
  0
LINE
  5
22C
330
4A
100
AcDbEntity
  8
0
  6
Continuous
 62
     0
100
AcDbLine
 10
83.14076919386702
 20
-35.1750966875897
 30
0.0
 11
87.14075965492961
 21
-35.9707390047741
 31
0.0
  0
LINE
  5
22D
330
4A
100
AcDbEntity
  8
0
  6
Continuous
 62
     0
100
AcDbLine
 10
83.14080548643811
 20
-50.27509606453351
 30
0.0
 11
87.14076462355307
 21
-49.47945269916071
 31
0.0
  0
LINE
  5
22E
330
4A
100
AcDbEntity
  8
0
  6
Continuous
 62
     0
100
AcDbLine
 10
83.14074137411471
 20
-58.47500525007162
 30
0.0
 11
87.1407462032365
 21
-57.67935695201231
 31
0.0
  0
ARC
  5
22F
330
4A
100
AcDbEntity
  8
0
  6
Continuous
 62
     0
100
AcDbCircle
 10
50.34205627441406
 20
-48.47500610351562
 30
0.0
 40
1.800000071525574
100
AcDbArc
 50
270.0000179860893
 51
0.0
  0
ARC
  5
230
330
4A
100
AcDbEntity
  8
0
  6
Continuous
 62
     0
100
AcDbCircle
 10
42.84205627441406
 20
-35.97505187988281
 30
0.0
 40
2.0
100
AcDbArc
 50
89.99998201391067
 51
255.5224585109195
  0
ARC
  5
231
330
4A
100
AcDbEntity
  8
0
  6
Continuous
 62
     0
100
AcDbCircle
 10
-36.00392150878906
 20
-66.675048828125
 30
0.0
 40
12.0
100
AcDbArc
 50
184.9999939918165
 51
270.0000179860893
  0
ARC
  5
232
330
4A
100
AcDbEntity
  8
0
  6
Continuous
 62
     0
100
AcDbCircle
 10
-33.29995727539062
 20
-84.675048828125
 30
0.0
 40
2.0
100
AcDbArc
 50
179.9999813306653
 51
270.0000179860893
  0
ARC
  5
233
330
4A
100
AcDbEntity
  8
0
  6
Continuous
 62
     0
100
AcDbCircle
 10
32.36935424804688
 20
-78.675048828125
 30
0.0
 40
8.0
100
AcDbArc
 50
270.0000179860893
 51
355.0000236242288
  0
ARC
  5
234
330
4A
100
AcDbEntity
  8
0
  6
Continuous
 62
     0
100
AcDbCircle
 10
32.36935424804688
 20
-78.675048828125
 30
0.0
 40
9.80000114440918
100
AcDbArc
 50
270.0000179860893
 51
355.0000236242288
  0
ARC
  5
235
330
4A
100
AcDbEntity
  8
0
  6
Continuous
 62
     0
100
AcDbCircle
 10
-33.29995727539062
 20
-84.675048828125
 30
0.0
 40
3.799999952316284
100
AcDbArc
 50
179.9999813306653
 51
270.0000179860893
  0
ARC
  5
236
330
4A
100
AcDbEntity
  8
0
  6
Continuous
 62
     0
100
AcDbCircle
 10
-36.00392150878906
 20
-66.675048828125
 30
0.0
 40
13.80000114440918
100
AcDbArc
 50
184.9999939918165
 51
265.444445734231
  0
ARC
  5
237
330
4A
100
AcDbEntity
  8
0
  6
Continuous
 62
     0
100
AcDbCircle
 10
-59.50990295410156
 20
-10.72503662109375
 30
0.0
 40
2.25
100
AcDbArc
 50
0.0
 51
89.99998201391067
  0
ARC
  5
238
330
4A
100
AcDbEntity
  8
0
  6
Continuous
 62
     0
100
AcDbCircle
 10
-59.50990295410156
 20
-10.72503662109375
 30
0.0
 40
2.25
100
AcDbArc
 50
270.0000179860893
 51
0.0
  0
ARC
  5
239
330
4A
100
AcDbEntity
  8
0
  6
Continuous
 62
     0
100
AcDbCircle
 10
-70.00990295410156
 20
-11.97505187988281
 30
0.0
 40
1.800000071525574
100
AcDbArc
 50
89.99998201391067
 51
179.9999640278213
  0
ARC
  5
23A
330
4A
100
AcDbEntity
  8
0
  6
Continuous
 62
     0
100
AcDbCircle
 10
-70.00990295410156
 20
-27.47502136230469
 30
0.0
 40
1.800000071525574
100
AcDbArc
 50
179.9999813306653
 51
270.0000179860893
  0
ARC
  5
23B
330
4A
100
AcDbEntity
  8
0
  6
Continuous
 62
     0
100
AcDbCircle
 10
-64.80989074707031
 20
-10.17503356933594
 30
0.0
 40
1.700000166893005
100
AcDbArc
 50
89.99998201391067
 51
179.9999640278213
  0
ARC
  5
23C
330
4A
100
AcDbEntity
  8
0
  6
Continuous
 62
     0
100
AcDbCircle
 10
-59.96806335449219
 20
-27.97503662109375
 30
0.0
 40
0.5
100
AcDbArc
 50
5.000034859265956
 51
89.99998201391067
  0
ARC
  5
23D
330
4A
100
AcDbEntity
  8
0
  6
Continuous
 62
     0
100
AcDbCircle
 10
-69.70988464355469
 20
-27.175048828125
 30
0.0
 40
0.300000011920929
100
AcDbArc
 50
179.9999813306653
 51
270.0000179860893
  0
ARC
  5
23E
330
4A
100
AcDbEntity
  8
0
  6
Continuous
 62
     0
100
AcDbCircle
 10
-59.26454162597656
 20
-45.19512939453125
 30
0.0
 40
0.5
100
AcDbArc
 50
185.0000213125732
 51
254.9999731724467
  0
ARC
  5
23F
330
4A
100
AcDbEntity
  8
0
  6
Continuous
 62
     0
100
AcDbCircle
 10
-36.00392150878906
 20
-66.675048828125
 30
0.0
 40
10.39999961853027
100
AcDbArc
 50
184.9999939918165
 51
268.1950858564001
  0
ARC
  5
240
330
4A
100
AcDbEntity
  8
0
  6
Continuous
 62
     0
100
AcDbCircle
 10
-36.00392150878906
 20
-66.675048828125
 30
0.0
 40
8.799999237060547
100
AcDbArc
 50
184.9999939918165
 51
265.4118452413225
  0
ARC
  5
241
330
4A
100
AcDbEntity
  8
0
  6
Continuous
 62
     0
100
AcDbCircle
 10
32.36935424804688
 20
-78.675048828125
 30
0.0
 40
6.40000057220459
100
AcDbArc
 50
270.0000179860893
 51
355.0000236242288
  0
ARC
  5
242
330
4A
100
AcDbEntity
  8
0
  6
Continuous
 62
     0
100
AcDbCircle
 10
32.36935424804688
 20
-78.675048828125
 30
0.0
 40
4.800000190734863
100
AcDbArc
 50
270.0000179860893
 51
355.0000236242288
  0
ARC
  5
243
330
4A
100
AcDbEntity
  8
0
  6
Continuous
 62
     0
100
AcDbCircle
 10
50.34205627441406
 20
-36.97503662109375
 30
0.0
 40
1.800000071525574
100
AcDbArc
 50
0.0
 51
89.99998201391067
  0
ARC
  5
244
330
4A
100
AcDbEntity
  8
0
  6
Continuous
 62
     0
100
AcDbCircle
 10
45.84205627441406
 20
-35.47503662109375
 30
0.0
 40
1.5
100
AcDbArc
 50
11.53705608840248
 51
89.99998201391067
  0
ARC
  5
245
330
4A
100
AcDbEntity
  8
0
  6
Continuous
 62
     0
100
AcDbCircle
 10
40.34463500976562
 20
-49.47503662109375
 30
0.0
 40
1.0
100
AcDbArc
 50
355.0001064402725
 51
89.99998201391067
  0
ARC
  5
246
330
4A
100
AcDbEntity
  8
0
  6
Continuous
 62
     0
100
AcDbCircle
 10
12.70002746582031
 20
-84.07501220703125
 30
0.0
 40
1.0
100
AcDbArc
 50
270.0000179860893
 51
0.0
  0
ARC
  5
247
330
4A
100
AcDbEntity
  8
0
  6
Continuous
 62
     0
100
AcDbCircle
 10
14.70004272460938
 20
-84.07501220703125
 30
0.0
 40
1.0
100
AcDbArc
 50
179.9999813306653
 51
270.0000179860893
  0
ARC
  5
248
330
4A
100
AcDbEntity
  8
0
  6
Continuous
 62
     0
100
AcDbCircle
 10
-7.29998779296875
 20
-84.07501220703125
 30
0.0
 40
1.0
100
AcDbArc
 50
270.0000179860893
 51
0.0
  0
ARC
  5
249
330
4A
100
AcDbEntity
  8
0
  6
Continuous
 62
     0
100
AcDbCircle
 10
-5.299972534179688
 20
-84.07501220703125
 30
0.0
 40
1.0
100
AcDbArc
 50
179.9999813306653
 51
270.0000179860893
  0
ARC
  5
24A
330
4A
100
AcDbEntity
  8
0
  6
Continuous
 62
     0
100
AcDbCircle
 10
-23.29997253417969
 20
-84.07501220703125
 30
0.0
 40
1.0
100
AcDbArc
 50
179.9999813306653
 51
270.0000179860893
  0
ARC
  5
24B
330
4A
100
AcDbEntity
  8
0
  6
Continuous
 62
     0
100
AcDbCircle
 10
-35.79998779296875
 20
-79.17501831054688
 30
0.0
 40
0.5
100
AcDbArc
 50
0.0
 51
89.99998201391067
  0
ARC
  5
24C
330
4A
100
AcDbEntity
  8
0
  6
Continuous
 62
     0
100
AcDbCircle
 10
-36.29995727539062
 20
-76.07037353515625
 30
0.0
 40
1.0
100
AcDbArc
 50
268.195201969616
 51
0.0
  0
ARC
  5
24D
330
4A
100
AcDbEntity
  8
0
  6
Continuous
 62
     0
100
AcDbCircle
 10
-46.99684143066406
 20
-48.87847900390625
 30
0.0
 40
1.0
100
AcDbArc
 50
89.99998201391067
 51
185.0000723116208
  0
ARC
  5
24E
330
4A
100
AcDbEntity
  8
0
  6
Continuous
 62
     0
100
AcDbCircle
 10
-47.17179870605469
 20
-46.87847900390625
 30
0.0
 40
1.0
100
AcDbArc
 50
184.9999530106815
 51
270.0000179860893
  0
ARC
  5
24F
330
4A
100
AcDbEntity
  8
0
  6
Continuous
 62
     0
100
AcDbCircle
 10
-53.11396789550781
 20
-37.47505187988281
 30
0.0
 40
1.0
100
AcDbArc
 50
185.0001715767349
 51
270.0000179860893
  0
ARC
  5
250
330
4A
100
AcDbEntity
  8
0
  6
Continuous
 62
     0
100
AcDbCircle
 10
-52.93901062011719
 20
-39.47502136230469
 30
0.0
 40
1.0
100
AcDbArc
 50
89.99998201391067
 51
185.0000723116208
  0
ARC
  5
251
330
4A
100
AcDbEntity
  8
0
  6
Continuous
 62
     0
100
AcDbCircle
 10
-53.63893127441406
 20
-31.47505187988281
 30
0.0
 40
1.0
100
AcDbArc
 50
89.99998201391067
 51
185.0001542738909
  0
ARC
  5
252
330
4A
100
AcDbEntity
  8
0
  6
Continuous
 62
     0
100
AcDbCircle
 10
-36.29983520507812
 20
34.58280944824219
 30
0.0
 40
1.0
100
AcDbArc
 50
270.0000179860893
 51
0.0
  0
ARC
  5
253
330
4A
100
AcDbEntity
  8
0
  6
Continuous
 62
     0
100
AcDbCircle
 10
-23.89260864257812
 20
34.58280944824219
 30
0.0
 40
1.0
100
AcDbArc
 50
179.9999813306653
 51
270.0000179860893
  0
ARC
  5
254
330
4A
100
AcDbEntity
  8
0
  6
Continuous
 62
     0
100
AcDbCircle
 10
-7.299957275390625
 20
34.58280944824219
 30
0.0
 40
1.0
100
AcDbArc
 50
270.0000179860893
 51
0.0
  0
ARC
  5
255
330
4A
100
AcDbEntity
  8
0
  6
Continuous
 62
     0
100
AcDbCircle
 10
14.69999694824219
 20
34.58280944824219
 30
0.0
 40
1.0
100
AcDbArc
 50
179.9999813306653
 51
270.0000179860893
  0
ARC
  5
256
330
4A
100
AcDbEntity
  8
0
  6
Continuous
 62
     0
100
AcDbCircle
 10
57.88650512695312
 20
127.9794158935547
 30
0.0
 40
1.0
100
AcDbArc
 50
269.5176427061464
 51
359.517624720057
  0
ARC
  5
257
330
4A
100
AcDbEntity
  8
0
  6
Continuous
 62
     0
100
AcDbCircle
 10
57.78204345703125
 20
115.5726470947266
 30
0.0
 40
1.0
100
AcDbArc
 50
359.517624720057
 51
89.51766137548104
  0
ARC
  5
258
330
4A
100
AcDbEntity
  8
0
  6
Continuous
 62
     0
100
AcDbCircle
 10
57.642333984375
 20
98.9805679321289
 30
0.0
 40
1.0
100
AcDbArc
 50
269.5176427061464
 51
359.517624720057
  0
ARC
  5
259
330
4A
100
AcDbEntity
  8
0
  6
Continuous
 62
     0
100
AcDbCircle
 10
57.45709228515625
 20
76.98138427734375
 30
0.0
 40
1.0
100
AcDbArc
 50
359.517624720057
 51
89.51766137548104
  0
ARC
  5
25A
330
4A
100
AcDbEntity
  8
0
  6
Continuous
 62
     0
100
AcDbCircle
 10
-67.00987243652344
 20
159.7421569824219
 30
0.0
 40
3.0
100
AcDbArc
 50
89.51740182829258
 51
179.9999640278213
  0
ARC
  5
25B
330
4A
100
AcDbEntity
  8
0
  6
Continuous
 62
     0
100
AcDbCircle
 10
-56.87080383300781
 20
149.5173950195312
 30
0.0
 40
3.0
100
AcDbArc
 50
89.51740182829258
 51
179.9999640278213
  0
ARC
  5
25C
330
4A
100
AcDbEntity
  8
0
  6
Continuous
 62
     0
100
AcDbCircle
 10
-55.04881286621094
 20
147.6799774169922
 30
0.0
 40
3.0
100
AcDbArc
 50
89.51740182829258
 51
179.9999640278213
  0
ARC
  5
25D
330
4A
100
AcDbEntity
  8
0
  6
Continuous
 62
     0
100
AcDbCircle
 10
-46.88005065917969
 20
139.4421691894531
 30
0.0
 40
3.0
100
AcDbArc
 50
89.51740182829258
 51
179.9999640278213
  0
ARC
  5
25E
330
4A
100
AcDbEntity
  8
0
  6
Continuous
 62
     0
100
AcDbCircle
 10
-32.29983520507812
 20
124.738655090332
 30
0.0
 40
3.0
100
AcDbArc
 50
89.51740182829258
 51
179.9999640278213
  0
ARC
  5
25F
330
4A
100
AcDbEntity
  8
0
  6
Continuous
 62
     0
100
AcDbCircle
 10
57.23777770996094
 20
-31.47502136230469
 30
0.0
 40
1.0
100
AcDbArc
 50
0.0
 51
89.99998201391067
  0
ARC
  5
260
330
4A
100
AcDbEntity
  8
0
  6
Continuous
 62
     0
100
AcDbCircle
 10
57.14205932617188
 20
34.54048156738281
 30
0.0
 40
5.0
100
AcDbArc
 50
89.51766137548104
 51
179.9999640278213
  0
LWPOLYLINE
  5
261
330
4A
100
AcDbEntity
  8
0
  6
Continuous
 62
     0
100
AcDbPolyline
 90
        2
 70
     0
 43
0.0
 10
59.03608703613281
 20
145.7378234863281
 10
56.04122924804688
 20
146.3630676269531
  0
LWPOLYLINE
  5
262
330
4A
100
AcDbEntity
  8
0
  6
Continuous
 62
     0
100
AcDbPolyline
 90
        2
 70
     0
 43
0.0
 10
-54.06727600097656
 20
33.58279418945312
 10
-54.66728210449219
 20
36.58279418945312
  0
DIMENSION
  5
263
330
4A
100
AcDbEntity
  8
0
 62
     0
100
AcDbDimension
  2
*D9
 10
-96.97134289550779
 20
-86.6750183105469
 30
0.0
 11
-96.9713428955078
 21
-49.21906225585938
 31
0.0
 70
   160
 71
     5
 42
74.6999969482422
  3
ISO-25
100
AcDbAlignedDimension
 13
-70.00993347167969
 23
-11.97505187988281
 33
0.0
 14
-46.30000305175781
 24
-86.67501831054688
 34
0.0
 50
90.00000000000001
100
AcDbRotatedDimension
1001
ACAD
1000
DSTYLE
1002
{
1070
   178
1070
     1
1070
   147
1040
0.800000011920929
1070
    77
1070
     1
1070
    74
1070
     0
1070
    73
1070
     0
1070
    42
1040
2.54
1070
    44
1040
4.5
1070
    76
1070
     0
1070
    75
1070
     0
1070
   279
1070
     0
1070
   271
1070
     1
1070
   144
1040
1.000000408535366
1070
   278
1070
    46
1070
   173
1070
     1
1070
    41
1040
3.0
1070
   140
1040
3.200000047683716
1070
   344
1005
138
1070
   343
1005
138
1002
}
  0
DIMENSION
  5
270
330
4A
100
AcDbEntity
  8
0
 62
     0
100
AcDbDimension
  2
*D10
 10
39.70001220703124
 20
-109.5404733886719
 30
0.0
 11
1.195000244140625
 21
-109.5404733886719
 31
0.0
 70
   160
 71
     5
 42
86.0
  3
ISO-25
100
AcDbAlignedDimension
 13
-46.29997253417969
 23
-86.675048828125
 33
0.0
 14
39.70001220703125
 24
-86.675048828125
 34
0.0
 50
180.0
100
AcDbRotatedDimension
1001
ACAD
1000
DSTYLE
1002
{
1070
   178
1070
     1
1070
   147
1040
0.800000011920929
1070
    77
1070
     1
1070
    74
1070
     0
1070
    73
1070
     0
1070
    42
1040
2.54
1070
    44
1040
4.500030517578125
1070
    76
1070
     0
1070
    75
1070
     0
1070
   279
1070
     0
1070
   271
1070
     0
1070
   144
1040
1.000000177427811
1070
   278
1070
    46
1070
   173
1070
     1
1070
    41
1040
3.0
1070
   140
1040
3.200000047683716
1070
   344
1005
138
1070
   343
1005
138
1002
}
  0
DIMENSION
  5
27E
330
4A
100
AcDbEntity
  8
0
 62
     0
100
AcDbDimension
  2
*D11
 10
70.87728173828127
 20
-86.67501831054688
 30
0.0
 11
70.87728173828125
 21
-59.43653051757813
 31
0.0
 70
   160
 71
     5
 42
49.70000457763671
  3
ISO-25
100
AcDbAlignedDimension
 13
50.342041015625
 23
-36.97503662109375
 33
0.0
 14
39.69999694824219
 24
-86.67501831054688
 34
0.0
 50
90.00000000000001
100
AcDbRotatedDimension
1001
ACAD
1000
DSTYLE
1002
{
1070
   178
1070
     1
1070
   147
1040
0.800000011920929
1070
    77
1070
     1
1070
    74
1070
     0
1070
    73
1070
     0
1070
    42
1040
2.54
1070
    44
1040
4.499984741210938
1070
    76
1070
     0
1070
    75
1070
     0
1070
   279
1070
     0
1070
   271
1070
     1
1070
   144
1040
1.000000460527003
1070
   278
1070
    46
1070
   173
1070
     1
1070
    41
1040
3.0
1070
   140
1040
3.200000047683716
1070
   344
1005
138
1070
   343
1005
138
1002
}
  0
DIMENSION
  5
28B
330
4A
100
AcDbEntity
  8
0
 62
     0
100
AcDbDimension
  2
*D12
 10
-96.80569348144527
 20
4.582748413085938
 30
0.0
 11
-96.8056934814453
 21
83.08355004882813
 31
0.0
 70
   160
 71
     5
 42
160.0000305175781
  3
ISO-25
100
AcDbAlignedDimension
 13
-71.80989074707031
 23
164.582763671875
 33
0.0
 14
-71.80989074707031
 24
4.582748413085938
 34
0.0
 50
90.00000000000001
100
AcDbRotatedDimension
1001
ACAD
1000
DSTYLE
1002
{
1070
   178
1070
     1
1070
   147
1040
0.800000011920929
1070
    77
1070
     1
1070
    74
1070
     0
1070
    73
1070
     0
1070
    42
1040
2.54
1070
    44
1040
4.500030517578125
1070
    76
1070
     0
1070
    75
1070
     0
1070
   279
1070
     0
1070
   271
1070
     0
1070
   144
1040
1.000000095367423
1070
   278
1070
    46
1070
   173
1070
     1
1070
    41
1040
3.0
1070
   140
1040
3.200000047683716
1070
   344
1005
138
1070
   343
1005
138
1002
}
  0
ENDBLK
  5
4C
330
4A
100
AcDbEntity
  8
0
100
AcDbBlockEnd
  0
BLOCK
  5
139
330
138
100
AcDbEntity
  8
0
100
AcDbBlockBegin
  2
_OPEN30
 70
     0
 10
0.0
 20
0.0
 30
0.0
  3
_OPEN30
  1

  0
LINE
  5
13B
330
138
100
AcDbEntity
  8
0
  6
ByBlock
 62
     0
370
    -2
100
AcDbLine
 10
-1.0
 20
0.267949
 30
0.0
 11
0.0
 21
0.0
 31
0.0
  0
LINE
  5
13C
330
138
100
AcDbEntity
  8
0
  6
ByBlock
 62
     0
370
    -2
100
AcDbLine
 10
0.0
 20
0.0
 30
0.0
 11
-1.0
 21
-0.267949
 31
0.0
  0
LINE
  5
13D
330
138
100
AcDbEntity
  8
0
  6
ByBlock
 62
     0
370
    -2
100
AcDbLine
 10
0.0
 20
0.0
 30
0.0
 11
-1.0
 21
0.0
 31
0.0
  0
ENDBLK
  5
13A
330
138
100
AcDbEntity
  8
0
100
AcDbBlockEnd
  0
BLOCK
  5
140
330
13F
100
AcDbEntity
  8
0
100
AcDbBlockBegin
  2
*D5
 70
     1
 10
0.0
 20
0.0
 30
0.0
  3
*D5
  1

  0
LINE
  5
142
330
13F
100
AcDbEntity
  8
0
 62
     0
370
    -2
100
AcDbLine
 10
-46.86788940429688
 20
-134.2400122070312
 30
0.0
 11
-46.86788940429688
 21
-174.3348154296875
 31
0.0
  0
LINE
  5
143
330
13F
100
AcDbEntity
  8
0
 62
     0
370
    -2
100
AcDbLine
 10
53.13211059570312
 20
-134.2400122070312
 30
0.0
 11
53.13211059570312
 21
-174.3348154296875
 31
0.0
  0
LINE
  5
144
330
13F
100
AcDbEntity
  8
0
 62
     0
370
    -2
100
AcDbLine
 10
-43.86788940429688
 20
-168.3348154296875
 30
0.0
 11
50.13211059570312
 21
-168.3348154296875
 31
0.0
  0
INSERT
  5
145
330
13F
100
AcDbEntity
  8
0
 62
     0
370
    -2
100
AcDbBlockReference
  2
_OPEN30
 10
-46.86788940429688
 20
-168.3348154296875
 30
0.0
 41
3.0
 42
3.0
 43
3.0
 50
180.0
  0
INSERT
  5
146
330
13F
100
AcDbEntity
  8
0
 62
     0
370
    -2
100
AcDbBlockReference
  2
_OPEN30
 10
53.13211059570312
 20
-168.3348154296875
 30
0.0
 41
3.0
 42
3.0
 43
3.0
  0
MTEXT
  5
147
330
13F
100
AcDbEntity
  8
0
 62
     1
 60
     1
100
AcDbMText
 10
4.071831298828125
 20
-165.9204153937101
 30
0.0
 40
3.200000047683716
 41
0.0
 71
     5
 72
     1
  1
100
 73
     1
 44
1.0
  0
POINT
  5
148
330
13F
100
AcDbEntity
  8
Defpoints
 62
     0
100
AcDbPoint
 10
-46.86788940429688
 20
-131.7000122070312
 30
0.0
  0
POINT
  5
149
330
13F
100
AcDbEntity
  8
Defpoints
 62
     0
100
AcDbPoint
 10
53.13211059570312
 20
-131.7000122070312
 30
0.0
  0
POINT
  5
14A
330
13F
100
AcDbEntity
  8
Defpoints
 62
     0
100
AcDbPoint
 10
53.13211059570312
 20
-168.3358154296875
 30
0.0
  0
MTEXT
  5
14B
330
13F
100
AcDbEntity
  8
0
 62
     1
100
AcDbMText
 10
-0.270765878052113
 20
-167.528236675048
 30
0.0
 40
3.200000047683716
 41
0.0
 71
     7
 72
     1
  1
\W1;100
 11
0.9999984769132877
 21
-0.001745328365898445
 31
0.0
 73
     1
 44
1.0
  0
ENDBLK
  5
141
330
13F
100
AcDbEntity
  8
0
100
AcDbBlockEnd
  0
BLOCK
  5
14E
330
14D
100
AcDbEntity
  8
0
100
AcDbBlockBegin
  2
*D6
 70
     1
 10
0.0
 20
0.0
 30
0.0
  3
*D6
  1

  0
LINE
  5
150
330
14D
100
AcDbEntity
  8
0
 62
     0
370
    -2
100
AcDbLine
 10
-77.94383911132813
 20
-22.00003051757813
 30
0.0
 11
-119.7917622070313
 21
-22.00003051757816
 31
0.0
  0
LINE
  5
151
330
14D
100
AcDbEntity
  8
0
 62
     0
370
    -2
100
AcDbLine
 10
-49.407919921875
 20
-131.7000122070312
 30
0.0
 11
-119.7917622070312
 21
-131.7000122070313
 31
0.0
  0
LINE
  5
152
330
14D
100
AcDbEntity
  8
0
 62
     0
370
    -2
100
AcDbLine
 10
-113.7917622070313
 20
-25.00003051757815
 30
0.0
 11
-113.7917622070312
 21
-128.7000122070313
 31
0.0
  0
INSERT
  5
153
330
14D
100
AcDbEntity
  8
0
 62
     0
370
    -2
100
AcDbBlockReference
  2
_OPEN30
 10
-113.7917622070313
 20
-22.00003051757815
 30
0.0
 41
3.0
 42
3.0
 43
3.0
 50
90.00000000000001
  0
INSERT
  5
154
330
14D
100
AcDbEntity
  8
0
 62
     0
370
    -2
100
AcDbBlockReference
  2
_OPEN30
 10
-113.7917622070312
 20
-131.7000122070313
 30
0.0
 41
3.0
 42
3.0
 43
3.0
 50
270.0
  0
MTEXT
  5
155
330
14D
100
AcDbEntity
  8
0
 62
     1
100
AcDbMText
 10
-116.212562243104
 20
-75.82956640625
 30
0.0
 40
3.200000047683716
 41
0.0
 71
     5
 72
     1
  1
109.7
 11
-3.886287261769418E-16
 21
1.0
 31
0.0
 73
     1
 44
1.0
  0
POINT
  5
156
330
14D
100
AcDbEntity
  8
Defpoints
 62
     0
100
AcDbPoint
 10
-75.40383911132812
 20
-22.00003051757812
 30
0.0
  0
POINT
  5
157
330
14D
100
AcDbEntity
  8
Defpoints
 62
     0
100
AcDbPoint
 10
-46.867919921875
 20
-131.7000122070312
 30
0.0
  0
POINT
  5
158
330
14D
100
AcDbEntity
  8
Defpoints
 62
     0
100
AcDbPoint
 10
-113.7937622070312
 20
-131.7000122070313
 30
0.0
  0
ENDBLK
  5
14F
330
14D
100
AcDbEntity
  8
0
100
AcDbBlockEnd
  0
BLOCK
  5
15B
330
15A
100
AcDbEntity
  8
0
100
AcDbBlockBegin
  2
*D7
 70
     1
 10
0.0
 20
0.0
 30
0.0
  3
*D7
  1

  0
LINE
  5
15D
330
15A
100
AcDbEntity
  8
0
 62
     0
370
    -2
100
AcDbLine
 10
68.34511474609376
 20
-57.0
 30
0.0
 11
157.402611328125
 21
-56.99999999999996
 31
0.0
  0
LINE
  5
15E
330
15A
100
AcDbEntity
  8
0
 62
     0
370
    -2
100
AcDbLine
 10
55.672080078125
 20
-131.7000122070312
 30
0.0
 11
157.402611328125
 21
-131.7000122070312
 31
0.0
  0
LINE
  5
15F
330
15A
100
AcDbEntity
  8
0
 62
     0
370
    -2
100
AcDbLine
 10
151.402611328125
 20
-59.99999999999996
 30
0.0
 11
151.402611328125
 21
-128.7000122070312
 31
0.0
  0
INSERT
  5
160
330
15A
100
AcDbEntity
  8
0
 62
     0
370
    -2
100
AcDbBlockReference
  2
_OPEN30
 10
151.402611328125
 20
-56.99999999999996
 30
0.0
 41
3.0
 42
3.0
 43
3.0
 50
90.00000000000001
  0
INSERT
  5
161
330
15A
100
AcDbEntity
  8
0
 62
     0
370
    -2
100
AcDbBlockReference
  2
_OPEN30
 10
151.402611328125
 20
-131.7000122070312
 30
0.0
 41
3.0
 42
3.0
 43
3.0
 50
270.0
  0
MTEXT
  5
162
330
15A
100
AcDbEntity
  8
0
 62
     1
100
AcDbMText
 10
148.9818112920523
 20
-86.87937109375
 30
0.0
 40
3.200000047683716
 41
0.0
 71
     5
 72
     1
  1
74.7
 11
-3.804779757148256E-16
 21
1.0
 31
0.0
 73
     1
 44
1.0
  0
POINT
  5
163
330
15A
100
AcDbEntity
  8
Defpoints
 62
     0
100
AcDbPoint
 10
65.80511474609375
 20
-57.0
 30
0.0
  0
POINT
  5
164
330
15A
100
AcDbEntity
  8
Defpoints
 62
     0
100
AcDbPoint
 10
53.132080078125
 20
-131.7000122070312
 30
0.0
  0
POINT
  5
165
330
15A
100
AcDbEntity
  8
Defpoints
 62
     0
100
AcDbPoint
 10
151.401611328125
 20
-131.7000122070312
 30
0.0
  0
ENDBLK
  5
15C
330
15A
100
AcDbEntity
  8
0
100
AcDbBlockEnd
  0
BLOCK
  5
168
330
167
100
AcDbEntity
  8
0
100
AcDbBlockBegin
  2
*D8
 70
     1
 10
0.0
 20
0.0
 30
0.0
  3
*D8
  1

  0
LINE
  5
16A
330
167
100
AcDbEntity
  8
0
 62
     0
370
    -2
100
AcDbLine
 10
-78.94814208984376
 20
8.174377441406252
 30
0.0
 11
-120.5293955078125
 21
8.174377441406284
 31
0.0
  0
LINE
  5
16B
330
167
100
AcDbEntity
  8
0
 62
     0
370
    -2
100
AcDbLine
 10
-79.74376586914063
 20
187.983154296875
 30
0.0
 11
-120.5293955078125
 21
187.983154296875
 31
0.0
  0
LINE
  5
16C
330
167
100
AcDbEntity
  8
0
 62
     0
370
    -2
100
AcDbLine
 10
-114.5294260253906
 20
11.17437744140628
 30
0.0
 11
-114.5294260253906
 21
184.983154296875
 31
0.0
  0
INSERT
  5
16D
330
167
100
AcDbEntity
  8
0
 62
     0
370
    -2
100
AcDbBlockReference
  2
_OPEN30
 10
-114.5294260253906
 20
8.174377441406278
 30
0.0
 41
3.0
 42
3.0
 43
3.0
 50
270.0
  0
INSERT
  5
16E
330
167
100
AcDbEntity
  8
0
 62
     0
370
    -2
100
AcDbBlockReference
  2
_OPEN30
 10
-114.5294260253906
 20
187.983154296875
 30
0.0
 41
3.0
 42
3.0
 43
3.0
 50
90.0
  0
MTEXT
  5
16F
330
167
100
AcDbEntity
  8
0
 62
     1
100
AcDbMText
 10
-116.943826061368
 20
99.07054956054688
 30
0.0
 40
3.200000047683716
 41
0.0
 71
     5
 72
     1
  1
182
 11
1.580663075932580E-16
 21
1.0
 31
0.0
 73
     1
 44
1.0
  0
POINT
  5
170
330
167
100
AcDbEntity
  8
Defpoints
 62
     0
100
AcDbPoint
 10
-76.40814208984375
 20
8.17437744140625
 30
0.0
  0
POINT
  5
171
330
167
100
AcDbEntity
  8
Defpoints
 62
     0
100
AcDbPoint
 10
-77.20376586914062
 20
187.983154296875
 30
0.0
  0
POINT
  5
172
330
167
100
AcDbEntity
  8
Defpoints
 62
     0
100
AcDbPoint
 10
-114.5304260253906
 20
187.983154296875
 30
0.0
  0
ENDBLK
  5
169
330
167
100
AcDbEntity
  8
0
100
AcDbBlockEnd
  0
BLOCK
  5
265
330
264
100
AcDbEntity
  8
0
100
AcDbBlockBegin
  2
*D9
 70
     1
 10
0.0
 20
0.0
 30
0.0
  3
*D9
  1

  0
LINE
  5
267
330
264
100
AcDbEntity
  8
0
 62
     0
370
    -2
100
AcDbLine
 10
-72.5499334716797
 20
-11.97505187988281
 30
0.0
 11
-101.4713428955078
 21
-11.97505187988283
 31
0.0
  0
LINE
  5
268
330
264
100
AcDbEntity
  8
0
 62
     0
370
    -2
100
AcDbLine
 10
-48.84000305175781
 20
-86.67501831054688
 30
0.0
 11
-101.4713428955078
 21
-86.6750183105469
 31
0.0
  0
LINE
  5
269
330
264
100
AcDbEntity
  8
0
 62
     0
370
    -2
100
AcDbLine
 10
-96.97134289550782
 20
-14.97505187988283
 30
0.0
 11
-96.97134289550779
 21
-83.6750183105469
 31
0.0
  0
INSERT
  5
26A
330
264
100
AcDbEntity
  8
0
 62
     0
370
    -2
100
AcDbBlockReference
  2
_OPEN30
 10
-96.97134289550782
 20
-11.97505187988283
 30
0.0
 41
3.0
 42
3.0
 43
3.0
 50
90.00000000000001
  0
INSERT
  5
26B
330
264
100
AcDbEntity
  8
0
 62
     0
370
    -2
100
AcDbBlockReference
  2
_OPEN30
 10
-96.97134289550779
 20
-86.6750183105469
 30
0.0
 41
3.0
 42
3.0
 43
3.0
 50
270.0
  0
MTEXT
  5
26C
330
264
100
AcDbEntity
  8
0
 62
     1
100
AcDbMText
 10
-99.39214293158054
 20
-49.21906225585938
 30
0.0
 40
3.200000047683716
 41
0.0
 71
     5
 72
     1
  1
74.7
 11
-3.804782088728890E-16
 21
1.0
 31
0.0
 73
     1
 44
1.0
  0
POINT
  5
26D
330
264
100
AcDbEntity
  8
Defpoints
 62
     0
100
AcDbPoint
 10
-70.00993347167969
 20
-11.97505187988281
 30
0.0
  0
POINT
  5
26E
330
264
100
AcDbEntity
  8
Defpoints
 62
     0
100
AcDbPoint
 10
-46.30000305175781
 20
-86.67501831054688
 30
0.0
  0
POINT
  5
26F
330
264
100
AcDbEntity
  8
Defpoints
 62
     0
100
AcDbPoint
 10
-96.97334289550781
 20
-86.6750183105469
 30
0.0
  0
ENDBLK
  5
266
330
264
100
AcDbEntity
  8
0
100
AcDbBlockEnd
  0
BLOCK
  5
272
330
271
100
AcDbEntity
  8
0
100
AcDbBlockBegin
  2
*D10
 70
     1
 10
0.0
 20
0.0
 30
0.0
  3
*D10
  1

  0
LINE
  5
274
330
271
100
AcDbEntity
  8
0
 62
     0
370
    -2
100
AcDbLine
 10
-46.29997253417969
 20
-89.215048828125
 30
0.0
 11
-46.29997253417969
 21
-114.04050390625
 31
0.0
  0
LINE
  5
275
330
271
100
AcDbEntity
  8
0
 62
     0
370
    -2
100
AcDbLine
 10
39.70001220703125
 20
-89.215048828125
 30
0.0
 11
39.70001220703124
 21
-114.04050390625
 31
0.0
  0
LINE
  5
276
330
271
100
AcDbEntity
  8
0
 62
     0
370
    -2
100
AcDbLine
 10
-43.29997253417969
 20
-109.5404733886719
 30
0.0
 11
36.70001220703124
 21
-109.5404733886719
 31
0.0
  0
INSERT
  5
277
330
271
100
AcDbEntity
  8
0
 62
     0
370
    -2
100
AcDbBlockReference
  2
_OPEN30
 10
-46.29997253417969
 20
-109.5404733886719
 30
0.0
 41
3.0
 42
3.0
 43
3.0
 50
180.0
  0
INSERT
  5
278
330
271
100
AcDbEntity
  8
0
 62
     0
370
    -2
100
AcDbBlockReference
  2
_OPEN30
 10
39.70001220703124
 20
-109.5404733886719
 30
0.0
 41
3.0
 42
3.0
 43
3.0
 50
360.0
  0
MTEXT
  5
279
330
271
100
AcDbEntity
  8
0
 62
     1
 60
     1
100
AcDbMText
 10
1.195000244140625
 20
-107.1260733526945
 30
0.0
 40
3.200000047683716
 41
0.0
 71
     5
 72
     1
  1
86
 73
     1
 44
1.0
  0
POINT
  5
27A
330
271
100
AcDbEntity
  8
Defpoints
 62
     0
100
AcDbPoint
 10
-46.29997253417969
 20
-86.675048828125
 30
0.0
  0
POINT
  5
27B
330
271
100
AcDbEntity
  8
Defpoints
 62
     0
100
AcDbPoint
 10
39.70001220703125
 20
-86.675048828125
 30
0.0
  0
POINT
  5
27C
330
271
100
AcDbEntity
  8
Defpoints
 62
     0
100
AcDbPoint
 10
39.70001220703124
 20
-109.5414733886719
 30
0.0
  0
MTEXT
  5
27D
330
271
100
AcDbEntity
  8
0
 62
     1
100
AcDbMText
 10
-1.54759934583653
 20
-108.7366871594594
 30
0.0
 40
3.200000047683716
 41
0.0
 71
     7
 72
     1
  1
\W1;86
 11
0.9999984769132877
 21
-0.001745328365898445
 31
0.0
 73
     1
 44
1.0
  0
ENDBLK
  5
273
330
271
100
AcDbEntity
  8
0
100
AcDbBlockEnd
  0
BLOCK
  5
280
330
27F
100
AcDbEntity
  8
0
100
AcDbBlockBegin
  2
*D11
 70
     1
 10
0.0
 20
0.0
 30
0.0
  3
*D11
  1

  0
LINE
  5
282
330
27F
100
AcDbEntity
  8
0
 62
     0
370
    -2
100
AcDbLine
 10
52.882041015625
 20
-36.97503662109375
 30
0.0
 11
75.37726647949219
 21
-36.97503662109374
 31
0.0
  0
LINE
  5
283
330
27F
100
AcDbEntity
  8
0
 62
     0
370
    -2
100
AcDbLine
 10
42.23999694824219
 20
-86.67501831054688
 30
0.0
 11
75.3772664794922
 21
-86.67501831054688
 31
0.0
  0
LINE
  5
284
330
27F
100
AcDbEntity
  8
0
 62
     0
370
    -2
100
AcDbLine
 10
70.87728173828125
 20
-39.97503662109374
 30
0.0
 11
70.87728173828127
 21
-83.67501831054688
 31
0.0
  0
INSERT
  5
285
330
27F
100
AcDbEntity
  8
0
 62
     0
370
    -2
100
AcDbBlockReference
  2
_OPEN30
 10
70.87728173828125
 20
-36.97503662109374
 30
0.0
 41
3.0
 42
3.0
 43
3.0
 50
90.00000000000001
  0
INSERT
  5
286
330
27F
100
AcDbEntity
  8
0
 62
     0
370
    -2
100
AcDbBlockReference
  2
_OPEN30
 10
70.87728173828127
 20
-86.67501831054688
 30
0.0
 41
3.0
 42
3.0
 43
3.0
 50
270.0
  0
MTEXT
  5
287
330
27F
100
AcDbEntity
  8
0
 62
     1
100
AcDbMText
 10
68.45648170220852
 20
-59.43653051757813
 30
0.0
 40
3.200000047683716
 41
0.0
 71
     5
 72
     1
  1
49.7
 11
-2.859327957905003E-16
 21
1.0
 31
0.0
 73
     1
 44
1.0
  0
POINT
  5
288
330
27F
100
AcDbEntity
  8
Defpoints
 62
     0
100
AcDbPoint
 10
50.342041015625
 20
-36.97503662109375
 30
0.0
  0
POINT
  5
289
330
27F
100
AcDbEntity
  8
Defpoints
 62
     0
100
AcDbPoint
 10
39.69999694824219
 20
-86.67501831054688
 30
0.0
  0
POINT
  5
28A
330
27F
100
AcDbEntity
  8
Defpoints
 62
     0
100
AcDbPoint
 10
70.87628173828125
 20
-86.67501831054686
 30
0.0
  0
ENDBLK
  5
281
330
27F
100
AcDbEntity
  8
0
100
AcDbBlockEnd
  0
BLOCK
  5
28D
330
28C
100
AcDbEntity
  8
0
100
AcDbBlockBegin
  2
*D12
 70
     1
 10
0.0
 20
0.0
 30
0.0
  3
*D12
  1

  0
LINE
  5
28F
330
28C
100
AcDbEntity
  8
0
 62
     0
370
    -2
100
AcDbLine
 10
-74.34989074707032
 20
164.582763671875
 30
0.0
 11
-101.3057239990235
 21
164.582763671875
 31
0.0
  0
LINE
  5
290
330
28C
100
AcDbEntity
  8
0
 62
     0
370
    -2
100
AcDbLine
 10
-74.34989074707032
 20
4.582748413085938
 30
0.0
 11
-101.3057239990234
 21
4.582748413085938
 31
0.0
  0
LINE
  5
291
330
28C
100
AcDbEntity
  8
0
 62
     0
370
    -2
100
AcDbLine
 10
-96.80569348144533
 20
161.582763671875
 30
0.0
 11
-96.80569348144527
 21
7.582748413085938
 31
0.0
  0
INSERT
  5
292
330
28C
100
AcDbEntity
  8
0
 62
     0
370
    -2
100
AcDbBlockReference
  2
_OPEN30
 10
-96.80569348144533
 20
164.582763671875
 30
0.0
 41
3.0
 42
3.0
 43
3.0
 50
90.00000000000001
  0
INSERT
  5
293
330
28C
100
AcDbEntity
  8
0
 62
     0
370
    -2
100
AcDbBlockReference
  2
_OPEN30
 10
-96.80569348144527
 20
4.582748413085938
 30
0.0
 41
3.0
 42
3.0
 43
3.0
 50
270.0
  0
MTEXT
  5
294
330
28C
100
AcDbEntity
  8
0
 62
     1
100
AcDbMText
 10
-99.22009351742267
 20
83.08355004882813
 30
0.0
 40
3.200000047683716
 41
0.0
 71
     5
 72
     1
  1
160
 11
-3.552713339987354E-16
 21
1.0
 31
0.0
 73
     1
 44
1.0
  0
POINT
  5
295
330
28C
100
AcDbEntity
  8
Defpoints
 62
     0
100
AcDbPoint
 10
-71.80989074707031
 20
164.582763671875
 30
0.0
  0
POINT
  5
296
330
28C
100
AcDbEntity
  8
Defpoints
 62
     0
100
AcDbPoint
 10
-71.80989074707031
 20
4.582748413085938
 30
0.0
  0
POINT
  5
297
330
28C
100
AcDbEntity
  8
Defpoints
 62
     0
100
AcDbPoint
 10
-96.80769348144531
 20
4.582748413085928
 30
0.0
  0
ENDBLK
  5
28E
330
28C
100
AcDbEntity
  8
0
100
AcDbBlockEnd
  0
BLOCK
  5
3FB
330
3FA
100
AcDbEntity
  8
0
100
AcDbBlockBegin
  2
*D13
 70
     1
 10
0.0
 20
0.0
 30
0.0
  3
*D13
  1

  0
LINE
  5
3FD
330
3FA
100
AcDbEntity
  8
0
 62
     0
370
    -2
100
AcDbLine
 10
80.627502859375
 20
81.68136505126954
 30
0.0
 11
80.627502859375
 21
101.6413650512695
 31
0.0
  0
LINE
  5
3FE
330
3FA
100
AcDbEntity
  8
0
 62
     0
370
    -2
100
AcDbLine
 10
-5.367431640625
 20
82.18136505126954
 30
0.0
 11
-5.367431640625
 21
101.6413650512695
 31
0.0
  0
LINE
  5
3FF
330
3FA
100
AcDbEntity
  8
0
 62
     0
370
    -2
100
AcDbLine
 10
77.627502859375
 20
99.64136505126953
 30
0.0
 11
-2.367431640625
 21
99.64136505126953
 31
0.0
  0
INSERT
  5
400
330
3FA
100
AcDbEntity
  8
0
 62
     0
370
    -2
100
AcDbBlockReference
  2
_OPEN30
 10
80.627502859375
 20
99.64136505126953
 30
0.0
 41
3.0
 42
3.0
 43
3.0
  0
INSERT
  5
401
330
3FA
100
AcDbEntity
  8
0
 62
     0
370
    -2
100
AcDbBlockReference
  2
_OPEN30
 10
-5.367431640625
 20
99.64136505126953
 30
0.0
 41
3.0
 42
3.0
 43
3.0
 50
180.0
  0
MTEXT
  5
402
330
3FA
100
AcDbEntity
  8
0
 62
     1
100
AcDbMText
 10
37.632035609375
 20
102.0557650872469
 30
0.0
 40
3.200000047683716
 41
0.0
 71
     5
 72
     1
  1
172
 73
     1
 44
1.0
  0
POINT
  5
403
330
3FA
100
AcDbEntity
  8
Defpoints
 62
     0
100
AcDbPoint
 10
80.627502859375
 20
79.14136505126953
 30
0.0
  0
POINT
  5
404
330
3FA
100
AcDbEntity
  8
Defpoints
 62
     0
100
AcDbPoint
 10
-5.367431640625
 20
79.64136505126953
 30
0.0
  0
POINT
  5
405
330
3FA
100
AcDbEntity
  8
Defpoints
 62
     0
100
AcDbPoint
 10
-5.367431640625
 20
99.64136505126953
 30
0.0
  0
ENDBLK
  5
3FC
330
3FA
100
AcDbEntity
  8
0
100
AcDbBlockEnd
  0
BLOCK
  5
408
330
407
100
AcDbEntity
  8
0
100
AcDbBlockBegin
  2
*D14
 70
     1
 10
0.0
 20
0.0
 30
0.0
  3
*D14
  1

  0
LINE
  5
40A
330
407
100
AcDbEntity
  8
0
 62
     0
370
    -2
100
AcDbLine
 10
-7.407431640625
 20
79.64136505126953
 30
0.0
 11
-27.36543164062501
 21
79.64136505126952
 31
0.0
  0
LINE
  5
40B
330
407
100
AcDbEntity
  8
0
 62
     0
370
    -2
100
AcDbLine
 10
-7.407431640625
 20
-6.353569948730483
 30
0.0
 11
-27.36543164062498
 21
-6.353569948730497
 31
0.0
  0
LINE
  5
40C
330
407
100
AcDbEntity
  8
0
 62
     0
370
    -2
100
AcDbLine
 10
-25.36543164062501
 20
76.64136505126952
 30
0.0
 11
-25.36543164062498
 21
-3.353569948730495
 31
0.0
  0
INSERT
  5
40D
330
407
100
AcDbEntity
  8
0
 62
     0
370
    -2
100
AcDbBlockReference
  2
_OPEN30
 10
-25.36543164062501
 20
79.64136505126952
 30
0.0
 41
3.0
 42
3.0
 43
3.0
 50
90.00000000000001
  0
INSERT
  5
40E
330
407
100
AcDbEntity
  8
0
 62
     0
370
    -2
100
AcDbBlockReference
  2
_OPEN30
 10
-25.36543164062498
 20
-6.353569948730495
 30
0.0
 41
3.0
 42
3.0
 43
3.0
 50
270.0
  0
MTEXT
  5
40F
330
407
100
AcDbEntity
  8
0
 62
     1
100
AcDbMText
 10
-27.77983167660236
 20
36.64489755126952
 30
0.0
 40
3.200000047683716
 41
0.0
 71
     5
 72
     1
  1
172
 11
-3.718175158711906E-16
 21
1.0
 31
0.0
 73
     1
 44
1.0
  0
POINT
  5
410
330
407
100
AcDbEntity
  8
Defpoints
 62
     0
100
AcDbPoint
 10
-4.867431640625
 20
79.64136505126953
 30
0.0
  0
POINT
  5
411
330
407
100
AcDbEntity
  8
Defpoints
 62
     0
100
AcDbPoint
 10
-4.867431640625
 20
-6.353569948730481
 30
0.0
  0
POINT
  5
412
330
407
100
AcDbEntity
  8
Defpoints
 62
     0
100
AcDbPoint
 10
-25.367431640625
 20
-6.353569948730489
 30
0.0
  0
ENDBLK
  5
409
330
407
100
AcDbEntity
  8
0
100
AcDbBlockEnd
  0
BLOCK
  5
415
330
414
100
AcDbEntity
  8
0
100
AcDbBlockBegin
  2
*D15
 70
     1
 10
0.0
 20
0.0
 30
0.0
  3
*D15
  1

  0
LINE
  5
417
330
414
100
AcDbEntity
  8
0
 62
     0
370
    -2
100
AcDbLine
 10
68.127502859375
 20
78.93136505126954
 30
0.0
 11
68.127502859375
 21
91.64136505126953
 31
0.0
  0
LINE
  5
418
330
414
100
AcDbEntity
  8
0
 62
     0
370
    -2
100
AcDbLine
 10
80.627502859375
 20
81.68136505126954
 30
0.0
 11
80.627502859375
 21
91.64136505126953
 31
0.0
  0
LINE
  5
419
330
414
100
AcDbEntity
  8
0
 62
     0
370
    -2
100
AcDbLine
 10
71.127502859375
 20
89.64136505126953
 30
0.0
 11
77.627502859375
 21
89.64136505126953
 31
0.0
  0
INSERT
  5
41A
330
414
100
AcDbEntity
  8
0
 62
     0
370
    -2
100
AcDbBlockReference
  2
_OPEN30
 10
68.127502859375
 20
89.64136505126953
 30
0.0
 41
3.0
 42
3.0
 43
3.0
 50
180.0
  0
INSERT
  5
41B
330
414
100
AcDbEntity
  8
0
 62
     0
370
    -2
100
AcDbBlockReference
  2
_OPEN30
 10
80.627502859375
 20
89.64136505126953
 30
0.0
 41
3.0
 42
3.0
 43
3.0
  0
MTEXT
  5
41C
330
414
100
AcDbEntity
  8
0
 62
     1
100
AcDbMText
 10
74.378502859375
 20
92.0557650872469
 30
0.0
 40
3.200000047683716
 41
0.0
 71
     5
 72
     1
  1
25
 73
     1
 44
1.0
  0
POINT
  5
41D
330
414
100
AcDbEntity
  8
Defpoints
 62
     0
100
AcDbPoint
 10
68.127502859375
 20
76.39136505126953
 30
0.0
  0
POINT
  5
41E
330
414
100
AcDbEntity
  8
Defpoints
 62
     0
100
AcDbPoint
 10
80.627502859375
 20
79.14136505126953
 30
0.0
  0
POINT
  5
41F
330
414
100
AcDbEntity
  8
Defpoints
 62
     0
100
AcDbPoint
 10
80.627502859375
 20
89.64136505126953
 30
0.0
  0
ENDBLK
  5
416
330
414
100
AcDbEntity
  8
0
100
AcDbBlockEnd
  0
BLOCK
  5
422
330
421
100
AcDbEntity
  8
0
100
AcDbBlockBegin
  2
*D16
 70
     1
 10
0.0
 20
0.0
 30
0.0
  3
*D16
  1

  0
LINE
  5
424
330
421
100
AcDbEntity
  8
0
 62
     0
370
    -2
100
AcDbLine
 10
-4.657431640625
 20
6.146430051269532
 30
0.0
 11
-17.365431640625
 21
6.146430051269529
 31
0.0
  0
LINE
  5
425
330
421
100
AcDbEntity
  8
0
 62
     0
370
    -2
100
AcDbLine
 10
-7.407431640625
 20
-6.353569948730482
 30
0.0
 11
-17.365431640625
 21
-6.353569948730485
 31
0.0
  0
LINE
  5
426
330
421
100
AcDbEntity
  8
0
 62
     0
370
    -2
100
AcDbLine
 10
-15.365431640625
 20
3.14643005126953
 30
0.0
 11
-15.365431640625
 21
-3.353569948730484
 31
0.0
  0
INSERT
  5
427
330
421
100
AcDbEntity
  8
0
 62
     0
370
    -2
100
AcDbBlockReference
  2
_OPEN30
 10
-15.365431640625
 20
6.14643005126953
 30
0.0
 41
3.0
 42
3.0
 43
3.0
 50
90.00000000000001
  0
INSERT
  5
428
330
421
100
AcDbEntity
  8
0
 62
     0
370
    -2
100
AcDbBlockReference
  2
_OPEN30
 10
-15.365431640625
 20
-6.353569948730484
 30
0.0
 41
3.0
 42
3.0
 43
3.0
 50
270.0
  0
MTEXT
  5
429
330
421
100
AcDbEntity
  8
0
 62
     1
100
AcDbMText
 10
-17.77983167660236
 20
-0.102569948730475
 30
0.0
 40
3.200000047683716
 41
0.0
 71
     5
 72
     1
  1
25
 11
-4.263256414560596E-16
 21
1.0
 31
0.0
 73
     1
 44
1.0
  0
POINT
  5
42A
330
421
100
AcDbEntity
  8
Defpoints
 62
     0
100
AcDbPoint
 10
-2.117431640625
 20
6.146430051269533
 30
0.0
  0
POINT
  5
42B
330
421
100
AcDbEntity
  8
Defpoints
 62
     0
100
AcDbPoint
 10
-4.867431640625
 20
-6.353569948730481
 30
0.0
  0
POINT
  5
42C
330
421
100
AcDbEntity
  8
Defpoints
 62
     0
100
AcDbPoint
 10
-15.367431640625
 20
-6.353569948730486
 30
0.0
  0
ENDBLK
  5
423
330
421
100
AcDbEntity
  8
0
100
AcDbBlockEnd
  0
BLOCK
  5
42F
330
42E
100
AcDbEntity
  8
0
100
AcDbBlockBegin
  2
*D17
 70
     1
 10
0.0
 20
0.0
 30
0.0
  3
*D17
  1

  0
LINE
  5
431
330
42E
100
AcDbEntity
  8
0
 62
     0
370
    -2
100
AcDbLine
 10
68.127502859375
 20
44.90952755126953
 30
0.0
 11
68.127502859375
 21
38.68484415233331
 31
0.0
  0
LINE
  5
432
330
42E
100
AcDbEntity
  8
0
 62
     0
370
    -2
100
AcDbLine
 10
80.627502859375
 20
45.74338530126953
 30
0.0
 11
80.627502859375
 21
38.68484415233331
 31
0.0
  0
LINE
  5
433
330
42E
100
AcDbEntity
  8
0
 62
     0
370
    -2
100
AcDbLine
 10
71.127502859375
 20
40.68484415233331
 30
0.0
 11
77.627502859375
 21
40.68484415233331
 31
0.0
  0
INSERT
  5
434
330
42E
100
AcDbEntity
  8
0
 62
     0
370
    -2
100
AcDbBlockReference
  2
_OPEN30
 10
68.127502859375
 20
40.68484415233331
 30
0.0
 41
3.0
 42
3.0
 43
3.0
 50
180.0
  0
INSERT
  5
435
330
42E
100
AcDbEntity
  8
0
 62
     0
370
    -2
100
AcDbBlockReference
  2
_OPEN30
 10
80.627502859375
 20
40.68484415233331
 30
0.0
 41
3.0
 42
3.0
 43
3.0
  0
MTEXT
  5
436
330
42E
100
AcDbEntity
  8
0
 62
     1
100
AcDbMText
 10
74.378502859375
 20
43.09924418831068
 30
0.0
 40
3.200000047683716
 41
0.0
 71
     5
 72
     1
  1
25
 73
     1
 44
1.0
  0
POINT
  5
437
330
42E
100
AcDbEntity
  8
Defpoints
 62
     0
100
AcDbPoint
 10
68.127502859375
 20
47.44952755126953
 30
0.0
  0
POINT
  5
438
330
42E
100
AcDbEntity
  8
Defpoints
 62
     0
100
AcDbPoint
 10
80.627502859375
 20
48.28338530126953
 30
0.0
  0
POINT
  5
439
330
42E
100
AcDbEntity
  8
Defpoints
 62
     0
100
AcDbPoint
 10
80.627502859375
 20
40.68384415233331
 30
0.0
  0
ENDBLK
  5
430
330
42E
100
AcDbEntity
  8
0
100
AcDbBlockEnd
  0
BLOCK
  5
43C
330
43B
100
AcDbEntity
  8
0
100
AcDbBlockBegin
  2
*D18
 70
     1
 10
0.0
 20
0.0
 30
0.0
  3
*D18
  1

  0
MTEXT
  5
444
330
43B
100
AcDbEntity
  8
0
 62
     1
100
AcDbMText
 10
52.94990281202507
 20
43.09824418831068
 30
0.0
 40
3.200000047683716
 41
0.0
 71
     5
 72
     1
  1
12
 73
     1
 44
1.0
  0
POINT
  5
445
330
43B
100
AcDbEntity
  8
Defpoints
 62
     0
100
AcDbPoint
 10
68.127502859375
 20
38.68384415233331
 30
0.0
  0
POINT
  5
446
330
43B
100
AcDbEntity
  8
Defpoints
 62
     0
100
AcDbPoint
 10
62.127502859375
 20
22.11025305126952
 30
0.0
  0
POINT
  5
447
330
43B
100
AcDbEntity
  8
Defpoints
 62
     0
100
AcDbPoint
 10
62.127502859375
 20
40.68384415233331
 30
0.0
  0
LINE
  5
448
330
43B
100
AcDbEntity
  8
0
  6
Continuous
 62
     7
100
AcDbLine
 10
74.477502859375
 20
40.68384415233331
 30
0.0
 11
55.777502859375
 21
40.68384415233331
 31
0.0
  0
LINE
  5
449
330
43B
100
AcDbEntity
  8
0
  6
Continuous
 62
     7
100
AcDbLine
 10
68.127502859375
 20
40.68384415233331
 30
0.0
 11
71.18202852138063
 21
41.50230183663331
 31
0.0
  0
LINE
  5
44A
330
43B
100
AcDbEntity
  8
0
  6
Continuous
 62
     7
100
AcDbLine
 10
68.127502859375
 20
40.68384415233331
 30
0.0
 11
71.18202852138063
 21
39.86538646803331
 31
0.0
  0
LINE
  5
44B
330
43B
100
AcDbEntity
  8
0
  6
Continuous
 62
     7
100
AcDbLine
 10
62.127502859375
 20
40.68384415233331
 30
0.0
 11
59.07297719736938
 21
39.86538646803331
 31
0.0
  0
LINE
  5
44C
330
43B
100
AcDbEntity
  8
0
  6
Continuous
 62
     7
100
AcDbLine
 10
62.127502859375
 20
40.68384415233331
 30
0.0
 11
59.07297719736938
 21
41.50230183663331
 31
0.0
  0
LINE
  5
44D
330
43B
100
AcDbEntity
  8
0
  6
Continuous
 62
     7
100
AcDbLine
 10
62.127502859375
 20
40.68384415233331
 30
0.0
 11
54.88765589763908
 21
40.68384415233331
 31
0.0
  0
ENDBLK
  5
43D
330
43B
100
AcDbEntity
  8
0
100
AcDbBlockEnd
  0
BLOCK
  5
450
330
44F
100
AcDbEntity
  8
0
100
AcDbBlockBegin
  2
*D19
 70
     1
 10
0.0
 20
0.0
 30
0.0
  3
*D19
  1

  0
LINE
  5
452
330
44F
100
AcDbEntity
  8
0
 62
     0
370
    -2
100
AcDbLine
 10
36.25060085937499
 20
6.146430051269532
 30
0.0
 11
32.24749724597032
 21
6.14643005126953
 31
0.0
  0
LINE
  5
453
330
44F
100
AcDbEntity
  8
0
 62
     0
370
    -2
100
AcDbLine
 10
34.24749724597032
 20
3.146430051269531
 30
0.0
 11
34.24749724597033
 21
-3.35356994873049
 31
0.0
  0
INSERT
  5
454
330
44F
100
AcDbEntity
  8
0
 62
     0
370
    -2
100
AcDbBlockReference
  2
_OPEN30
 10
34.24749724597032
 20
6.146430051269531
 30
0.0
 41
3.0
 42
3.0
 43
3.0
 50
90.00000000000004
  0
INSERT
  5
455
330
44F
100
AcDbEntity
  8
0
 62
     0
370
    -2
100
AcDbBlockReference
  2
_OPEN30
 10
34.24749724597033
 20
-6.35356994873049
 30
0.0
 41
3.0
 42
3.0
 43
3.0
 50
270.0000000000001
  0
MTEXT
  5
456
330
44F
100
AcDbEntity
  8
0
 62
     1
100
AcDbMText
 10
31.83309720999296
 20
-0.102569948730475
 30
0.0
 40
3.200000047683716
 41
0.0
 71
     5
 72
     1
  1
25
 11
-5.684341886080792E-16
 21
1.0
 31
0.0
 73
     1
 44
1.0
  0
POINT
  5
457
330
44F
100
AcDbEntity
  8
Defpoints
 62
     0
100
AcDbPoint
 10
38.79060085937499
 20
6.146430051269533
 30
0.0
  0
POINT
  5
458
330
44F
100
AcDbEntity
  8
Defpoints
 62
     0
100
AcDbPoint
 10
56.848527359375
 20
-6.353569948730481
 30
0.0
  0
POINT
  5
459
330
44F
100
AcDbEntity
  8
Defpoints
 62
     0
100
AcDbPoint
 10
34.24549724597033
 20
-6.35356994873049
 30
0.0
  0
ENDBLK
  5
451
330
44F
100
AcDbEntity
  8
0
100
AcDbBlockEnd
  0
BLOCK
  5
45C
330
45B
100
AcDbEntity
  8
0
100
AcDbBlockBegin
  2
*D20
 70
     1
 10
0.0
 20
0.0
 30
0.0
  3
*D20
  1

  0
MTEXT
  5
465
330
45B
100
AcDbEntity
  8
0
 62
     1
100
AcDbMText
 10
31.83309720999296
 20
21.32403009861945
 30
0.0
 40
3.200000047683716
 41
0.0
 71
     5
 72
     1
  1
12
 11
0.0
 21
1.0
 31
0.0
 73
     1
 44
1.0
  0
POINT
  5
466
330
45B
100
AcDbEntity
  8
Defpoints
 62
     0
100
AcDbPoint
 10
52.16367985937501
 20
12.14643005126953
 30
0.0
  0
POINT
  5
467
330
45B
100
AcDbEntity
  8
Defpoints
 62
     0
100
AcDbPoint
 10
38.79060085937499
 20
6.146430051269533
 30
0.0
  0
POINT
  5
468
330
45B
100
AcDbEntity
  8
Defpoints
 62
     0
100
AcDbPoint
 10
34.24549724597033
 20
6.146430051269531
 30
0.0
  0
LINE
  5
469
330
45B
100
AcDbEntity
  8
0
  6
Continuous
 62
     7
100
AcDbLine
 10
36.25060085937499
 20
6.146430051269533
 30
0.0
 11
32.24549724597033
 21
6.146430051269533
 31
0.0
  0
LINE
  5
46A
330
45B
100
AcDbEntity
  8
0
  6
Continuous
 62
     7
100
AcDbLine
 10
34.24549724597033
 20
18.49643005126953
 30
0.0
 11
34.24549724597033
 21
-0.203569948730467
 31
0.0
  0
LINE
  5
46B
330
45B
100
AcDbEntity
  8
0
  6
Continuous
 62
     7
100
AcDbLine
 10
34.24549724597033
 20
12.14643005126953
 30
0.0
 11
33.42703956167033
 21
15.20095571327516
 31
0.0
  0
LINE
  5
46C
330
45B
100
AcDbEntity
  8
0
  6
Continuous
 62
     7
100
AcDbLine
 10
34.24549724597033
 20
12.14643005126953
 30
0.0
 11
35.06395493027033
 21
15.20095571327516
 31
0.0
  0
LINE
  5
46D
330
45B
100
AcDbEntity
  8
0
  6
Continuous
 62
     7
100
AcDbLine
 10
34.24549724597033
 20
6.146430051269533
 30
0.0
 11
35.06395493027033
 21
3.091904389263909
 31
0.0
  0
LINE
  5
46E
330
45B
100
AcDbEntity
  8
0
  6
Continuous
 62
     7
100
AcDbLine
 10
34.24549724597033
 20
6.146430051269533
 30
0.0
 11
33.42703956167033
 21
3.091904389263909
 31
0.0
  0
LINE
  5
46F
330
45B
100
AcDbEntity
  8
0
  6
Continuous
 62
     7
100
AcDbLine
 10
34.24549724597033
 20
12.14643005126953
 30
0.0
 11
34.24549724597033
 21
19.98679076204395
 31
0.0
  0
ENDBLK
  5
45D
330
45B
100
AcDbEntity
  8
0
100
AcDbBlockEnd
  0
BLOCK
  5
472
330
471
100
AcDbEntity
  8
0
100
AcDbBlockBegin
  2
*D21
 70
     1
 10
0.0
 20
0.0
 30
0.0
  3
*D21
  1

  0
LINE
  5
474
330
471
100
AcDbEntity
  8
0
 62
     0
370
    -2
100
AcDbLine
 10
80.627502859375
 20
14.88540555126952
 30
0.0
 11
80.627502859375
 21
-18.35256994873048
 31
0.0
  0
LINE
  5
475
330
471
100
AcDbEntity
  8
0
 62
     0
370
    -2
100
AcDbLine
 10
57.348527359375
 20
-6.893569948730481
 30
0.0
 11
57.348527359375
 21
-18.35256994873048
 31
0.0
  0
LINE
  5
476
330
471
100
AcDbEntity
  8
0
 62
     0
370
    -2
100
AcDbLine
 10
77.627502859375
 20
-16.35256994873048
 30
0.0
 11
60.348527359375
 21
-16.35256994873048
 31
0.0
  0
INSERT
  5
477
330
471
100
AcDbEntity
  8
0
 62
     0
370
    -2
100
AcDbBlockReference
  2
_OPEN30
 10
80.627502859375
 20
-16.35256994873048
 30
0.0
 41
3.0
 42
3.0
 43
3.0
  0
INSERT
  5
478
330
471
100
AcDbEntity
  8
0
 62
     0
370
    -2
100
AcDbBlockReference
  2
_OPEN30
 10
57.348527359375
 20
-16.35256994873048
 30
0.0
 41
3.0
 42
3.0
 43
3.0
 50
180.0
  0
MTEXT
  5
479
330
471
100
AcDbEntity
  8
0
 62
     1
100
AcDbMText
 10
68.99001510937501
 20
-13.94776991289617
 30
0.0
 40
3.200000047683716
 41
0.0
 71
     5
 72
     1
  1
47
 73
     1
 44
1.0
  0
POINT
  5
47A
330
471
100
AcDbEntity
  8
Defpoints
 62
     0
100
AcDbPoint
 10
80.627502859375
 20
17.42540555126952
 30
0.0
  0
POINT
  5
47B
330
471
100
AcDbEntity
  8
Defpoints
 62
     0
100
AcDbPoint
 10
57.348527359375
 20
-4.353569948730481
 30
0.0
  0
POINT
  5
47C
330
471
100
AcDbEntity
  8
Defpoints
 62
     0
100
AcDbPoint
 10
57.348527359375
 20
-16.35356994873048
 30
0.0
  0
ENDBLK
  5
473
330
471
100
AcDbEntity
  8
0
100
AcDbBlockEnd
  0
BLOCK
  5
47F
330
47E
100
AcDbEntity
  8
0
100
AcDbBlockBegin
  2
*D22
 70
     1
 10
0.0
 20
0.0
 30
0.0
  3
*D22
  1

  0
LINE
  5
481
330
47E
100
AcDbEntity
  8
0
 62
     0
370
    -2
100
AcDbLine
 10
81.167502859375
 20
16.92540555126952
 30
0.0
 11
92.628502859375
 21
16.92540555126953
 31
0.0
  0
LINE
  5
482
330
47E
100
AcDbEntity
  8
0
 62
     0
370
    -2
100
AcDbLine
 10
59.388527359375
 20
-6.353569948730479
 30
0.0
 11
92.62850285937502
 21
-6.35356994873046
 31
0.0
  0
LINE
  5
483
330
47E
100
AcDbEntity
  8
0
 62
     0
370
    -2
100
AcDbLine
 10
90.628502859375
 20
13.92540555126953
 30
0.0
 11
90.62850285937502
 21
-3.353569948730461
 31
0.0
  0
INSERT
  5
484
330
47E
100
AcDbEntity
  8
0
 62
     0
370
    -2
100
AcDbBlockReference
  2
_OPEN30
 10
90.628502859375
 20
16.92540555126953
 30
0.0
 41
3.0
 42
3.0
 43
3.0
 50
90.00000000000004
  0
INSERT
  5
485
330
47E
100
AcDbEntity
  8
0
 62
     0
370
    -2
100
AcDbBlockReference
  2
_OPEN30
 10
90.62850285937502
 20
-6.353569948730461
 30
0.0
 41
3.0
 42
3.0
 43
3.0
 50
270.0000000000001
  0
MTEXT
  5
486
330
47E
100
AcDbEntity
  8
0
 62
     1
100
AcDbMText
 10
88.22370282354069
 20
5.286917801269518
 30
0.0
 40
3.200000047683716
 41
0.0
 71
     5
 72
     1
  1
47
 11
-6.104587684798245E-16
 21
1.0
 31
0.0
 73
     1
 44
1.0
  0
POINT
  5
487
330
47E
100
AcDbEntity
  8
Defpoints
 62
     0
100
AcDbPoint
 10
78.627502859375
 20
16.92540555126952
 30
0.0
  0
POINT
  5
488
330
47E
100
AcDbEntity
  8
Defpoints
 62
     0
100
AcDbPoint
 10
56.848527359375
 20
-6.353569948730481
 30
0.0
  0
POINT
  5
489
330
47E
100
AcDbEntity
  8
Defpoints
 62
     0
100
AcDbPoint
 10
90.627502859375
 20
-6.353569948730469
 30
0.0
  0
ENDBLK
  5
480
330
47E
100
AcDbEntity
  8
0
100
AcDbBlockEnd
  0
BLOCK
  5
48C
330
48B
100
AcDbEntity
  8
0
100
AcDbBlockBegin
  2
*D23
 70
     1
 10
0.0
 20
0.0
 30
0.0
  3
*D23
  1

  0
LINE
  5
48E
330
48B
100
AcDbEntity
  8
0
 62
     0
370
    -2
100
AcDbLine
 10
57.30037360937494
 20
-57.70229619873048
 30
0.0
 11
57.30037360937494
 21
-21.98356994873048
 31
0.0
  0
LINE
  5
48F
330
48B
100
AcDbEntity
  8
0
 62
     0
370
    -2
100
AcDbLine
 10
-5.393617578053838
 20
-41.44356994873048
 30
0.0
 11
-5.393617578053835
 21
-21.98356994873048
 31
0.0
  0
LINE
  5
490
330
48B
100
AcDbEntity
  8
0
 62
     0
370
    -2
100
AcDbLine
 10
54.30037360937494
 20
-23.98356994873048
 30
0.0
 11
-2.393617578053835
 21
-23.98356994873048
 31
0.0
  0
INSERT
  5
491
330
48B
100
AcDbEntity
  8
0
 62
     0
370
    -2
100
AcDbBlockReference
  2
_OPEN30
 10
57.30037360937494
 20
-23.98356994873048
 30
0.0
 41
3.0
 42
3.0
 43
3.0
  0
INSERT
  5
492
330
48B
100
AcDbEntity
  8
0
 62
     0
370
    -2
100
AcDbBlockReference
  2
_OPEN30
 10
-5.393617578053835
 20
-23.98356994873048
 30
0.0
 41
3.0
 42
3.0
 43
3.0
 50
180.0
  0
MTEXT
  5
493
330
48B
100
AcDbEntity
  8
0
 62
     1
100
AcDbMText
 10
25.95537801566055
 20
-21.56916991275311
 30
0.0
 40
3.200000047683716
 41
0.0
 71
     5
 72
     1
  1
125
 73
     1
 44
1.0
  0
POINT
  5
494
330
48B
100
AcDbEntity
  8
Defpoints
 62
     0
100
AcDbPoint
 10
57.30037360937494
 20
-60.24229619873048
 30
0.0
  0
POINT
  5
495
330
48B
100
AcDbEntity
  8
Defpoints
 62
     0
100
AcDbPoint
 10
-5.393617578053838
 20
-43.98356994873048
 30
0.0
  0
POINT
  5
496
330
48B
100
AcDbEntity
  8
Defpoints
 62
     0
100
AcDbPoint
 10
-5.393617578053838
 20
-23.98356994873048
 30
0.0
  0
ENDBLK
  5
48D
330
48B
100
AcDbEntity
  8
0
100
AcDbBlockEnd
  0
BLOCK
  5
499
330
498
100
AcDbEntity
  8
0
100
AcDbBlockBegin
  2
*D24
 70
     1
 10
0.0
 20
0.0
 30
0.0
  3
*D24
  1

  0
MTEXT
  5
4A2
330
498
100
AcDbEntity
  8
0
 62
     1
100
AcDbMText
 10
-1.725016109339428
 20
-31.56916991275311
 30
0.0
 40
3.200000047683716
 41
0.0
 71
     5
 72
     1
  1
15
 73
     1
 44
1.0
  0
POINT
  5
4A3
330
498
100
AcDbEntity
  8
Defpoints
 62
     0
100
AcDbPoint
 10
-5.393617578053838
 20
-43.98356994873048
 30
0.0
  0
POINT
  5
4A4
330
498
100
AcDbEntity
  8
Defpoints
 62
     0
100
AcDbPoint
 10
1.941585359374983
 20
-43.98356994873048
 30
0.0
  0
POINT
  5
4A5
330
498
100
AcDbEntity
  8
Defpoints
 62
     0
100
AcDbPoint
 10
1.941585359374984
 20
-33.98356994873048
 30
0.0
  0
LINE
  5
4A6
330
498
100
AcDbEntity
  8
0
  6
Continuous
 62
     7
100
AcDbLine
 10
-5.393617578053838
 20
-41.44356994873048
 30
0.0
 11
-5.393617578053838
 21
-31.98356994873048
 31
0.0
  0
LINE
  5
4A7
330
498
100
AcDbEntity
  8
0
  6
Continuous
 62
     7
100
AcDbLine
 10
1.941585359374983
 20
-41.44356994873048
 30
0.0
 11
1.941585359374983
 21
-31.98356994873048
 31
0.0
  0
LINE
  5
4A8
330
498
100
AcDbEntity
  8
0
  6
Continuous
 62
     7
100
AcDbLine
 10
-11.74361757805384
 20
-33.98356994873048
 30
0.0
 11
8.291585359374983
 21
-33.98356994873048
 31
0.0
  0
LINE
  5
4A9
330
498
100
AcDbEntity
  8
0
  6
Continuous
 62
     7
100
AcDbLine
 10
-5.393617578053838
 20
-33.98356994873048
 30
0.0
 11
-8.448143240059462
 21
-34.80202763303048
 31
0.0
  0
LINE
  5
4AA
330
498
100
AcDbEntity
  8
0
  6
Continuous
 62
     7
100
AcDbLine
 10
-5.393617578053838
 20
-33.98356994873048
 30
0.0
 11
-8.448143240059462
 21
-33.16511226443048
 31
0.0
  0
LINE
  5
4AB
330
498
100
AcDbEntity
  8
0
  6
Continuous
 62
     7
100
AcDbLine
 10
1.941585359374983
 20
-33.98356994873048
 30
0.0
 11
4.996111021380607
 21
-33.16511226443048
 31
0.0
  0
LINE
  5
4AC
330
498
100
AcDbEntity
  8
0
  6
Continuous
 62
     7
100
AcDbLine
 10
1.941585359374983
 20
-33.98356994873048
 30
0.0
 11
4.996111021380607
 21
-34.80202763303048
 31
0.0
  0
ENDBLK
  5
49A
330
498
100
AcDbEntity
  8
0
100
AcDbBlockEnd
  0
BLOCK
  5
4AF
330
4AE
100
AcDbEntity
  8
0
100
AcDbBlockBegin
  2
*D25
 70
     1
 10
0.0
 20
0.0
 30
0.0
  3
*D25
  1

  0
MTEXT
  5
4B8
330
4AE
100
AcDbEntity
  8
0
 62
     1
100
AcDbMText
 10
54.37545048437496
 20
-31.56916991275311
 30
0.0
 40
3.200000047683716
 41
0.0
 71
     5
 72
     1
  1
12
 73
     1
 44
1.0
  0
POINT
  5
4B9
330
4AE
100
AcDbEntity
  8
Defpoints
 62
     0
100
AcDbPoint
 10
51.44852735937499
 20
-56.98356994873046
 30
0.0
  0
POINT
  5
4BA
330
4AE
100
AcDbEntity
  8
Defpoints
 62
     0
100
AcDbPoint
 10
57.30037360937494
 20
-60.24229619873048
 30
0.0
  0
POINT
  5
4BB
330
4AE
100
AcDbEntity
  8
Defpoints
 62
     0
100
AcDbPoint
 10
57.30037360937494
 20
-33.98356994873048
 30
0.0
  0
LINE
  5
4BC
330
4AE
100
AcDbEntity
  8
0
  6
Continuous
 62
     7
100
AcDbLine
 10
51.44852735937499
 20
-54.44356994873046
 30
0.0
 11
51.44852735937499
 21
-31.98356994873048
 31
0.0
  0
LINE
  5
4BD
330
4AE
100
AcDbEntity
  8
0
  6
Continuous
 62
     7
100
AcDbLine
 10
57.30037360937494
 20
-57.70229619873048
 30
0.0
 11
57.30037360937494
 21
-31.98356994873048
 31
0.0
  0
LINE
  5
4BE
330
4AE
100
AcDbEntity
  8
0
  6
Continuous
 62
     7
100
AcDbLine
 10
45.09852735937499
 20
-33.98356994873048
 30
0.0
 11
63.65037360937494
 21
-33.98356994873048
 31
0.0
  0
LINE
  5
4BF
330
4AE
100
AcDbEntity
  8
0
  6
Continuous
 62
     7
100
AcDbLine
 10
51.44852735937499
 20
-33.98356994873048
 30
0.0
 11
48.39400169736937
 21
-34.80202763303048
 31
0.0
  0
LINE
  5
4C0
330
4AE
100
AcDbEntity
  8
0
  6
Continuous
 62
     7
100
AcDbLine
 10
51.44852735937499
 20
-33.98356994873048
 30
0.0
 11
48.39400169736937
 21
-33.16511226443048
 31
0.0
  0
LINE
  5
4C1
330
4AE
100
AcDbEntity
  8
0
  6
Continuous
 62
     7
100
AcDbLine
 10
57.30037360937494
 20
-33.98356994873048
 30
0.0
 11
60.35489927138056
 21
-33.16511226443048
 31
0.0
  0
LINE
  5
4C2
330
4AE
100
AcDbEntity
  8
0
  6
Continuous
 62
     7
100
AcDbLine
 10
57.30037360937494
 20
-33.98356994873048
 30
0.0
 11
60.35489927138056
 21
-34.80202763303048
 31
0.0
  0
ENDBLK
  5
4B0
330
4AE
100
AcDbEntity
  8
0
100
AcDbBlockEnd
  0
BLOCK
  5
4C5
330
4C4
100
AcDbEntity
  8
0
100
AcDbBlockBegin
  2
*D26
 70
     1
 10
0.0
 20
0.0
 30
0.0
  3
*D26
  1

  0
LINE
  5
4C7
330
4C4
100
AcDbEntity
  8
0
 62
     0
370
    -2
100
AcDbLine
 10
-6.907431640625
 20
-43.98356994873048
 30
0.0
 11
-17.36200488623192
 21
-43.98356994873048
 31
0.0
  0
LINE
  5
4C8
330
4C4
100
AcDbEntity
  8
0
 62
     0
370
    -2
100
AcDbLine
 10
11.76750285937501
 20
-83.88356994873047
 30
0.0
 11
-17.3620048862319
 21
-83.88356994873047
 31
0.0
  0
LINE
  5
4C9
330
4C4
100
AcDbEntity
  8
0
 62
     0
370
    -2
100
AcDbLine
 10
-15.36200488623191
 20
-46.98356994873048
 30
0.0
 11
-15.3620048862319
 21
-80.88356994873047
 31
0.0
  0
INSERT
  5
4CA
330
4C4
100
AcDbEntity
  8
0
 62
     0
370
    -2
100
AcDbBlockReference
  2
_OPEN30
 10
-15.36200488623192
 20
-43.98356994873048
 30
0.0
 41
3.0
 42
3.0
 43
3.0
 50
90.00000000000001
  0
INSERT
  5
4CB
330
4C4
100
AcDbEntity
  8
0
 62
     0
370
    -2
100
AcDbBlockReference
  2
_OPEN30
 10
-15.3620048862319
 20
-83.88356994873047
 30
0.0
 41
3.0
 42
3.0
 43
3.0
 50
270.0
  0
MTEXT
  5
4CC
330
4C4
100
AcDbEntity
  8
0
 62
     1
100
AcDbMText
 10
-17.77640492220927
 20
-63.93256994873047
 30
0.0
 40
3.200000047683716
 41
0.0
 71
     5
 72
     1
  1
80
 11
-4.006819938496806E-16
 21
1.0
 31
0.0
 73
     1
 44
1.0
  0
POINT
  5
4CD
330
4C4
100
AcDbEntity
  8
Defpoints
 62
     0
100
AcDbPoint
 10
-4.367431640625
 20
-43.98356994873048
 30
0.0
  0
POINT
  5
4CE
330
4C4
100
AcDbEntity
  8
Defpoints
 62
     0
100
AcDbPoint
 10
14.30750285937501
 20
-83.88356994873047
 30
0.0
  0
POINT
  5
4CF
330
4C4
100
AcDbEntity
  8
Defpoints
 62
     0
100
AcDbPoint
 10
-15.36400488623191
 20
-83.88356994873047
 30
0.0
  0
ENDBLK
  5
4C6
330
4C4
100
AcDbEntity
  8
0
100
AcDbBlockEnd
  0
BLOCK
  5
4D2
330
4D1
100
AcDbEntity
  8
0
100
AcDbBlockBegin
  2
*D27
 70
     1
 10
0.0
 20
0.0
 30
0.0
  3
*D27
  1

  0
LINE
  5
4D4
330
4D1
100
AcDbEntity
  8
0
 62
     0
370
    -2
100
AcDbLine
 10
3.922568359375
 20
-44.98356994873048
 30
0.0
 11
24.6696462919229
 21
-44.98356994873047
 31
0.0
  0
LINE
  5
4D5
330
4D1
100
AcDbEntity
  8
0
 62
     0
370
    -2
100
AcDbLine
 10
3.717502859375011
 20
-52.33356994873049
 30
0.0
 11
24.6696462919229
 21
-52.33356994873048
 31
0.0
  0
LINE
  5
4D6
330
4D1
100
AcDbEntity
  8
0
 62
     0
370
    -2
100
AcDbLine
 10
22.6696462919229
 20
-44.98356994873047
 30
0.0
 11
22.6696462919229
 21
-52.33356994873048
 31
0.0
  0
LINE
  5
4D7
330
4D1
100
AcDbEntity
  8
0
 62
     0
370
    -2
100
AcDbLine
 10
22.6696462919229
 20
-41.98356994873047
 30
0.0
 11
22.6696462919229
 21
-38.98356994873047
 31
0.0
  0
LINE
  5
4D8
330
4D1
100
AcDbEntity
  8
0
 62
     0
370
    -2
100
AcDbLine
 10
22.6696462919229
 20
-55.33356994873048
 30
0.0
 11
22.6696462919229
 21
-58.33356994873048
 31
0.0
  0
INSERT
  5
4D9
330
4D1
100
AcDbEntity
  8
0
 62
     0
370
    -2
100
AcDbBlockReference
  2
_OPEN30
 10
22.6696462919229
 20
-44.98356994873047
 30
0.0
 41
3.0
 42
3.0
 43
3.0
 50
270.0
  0
INSERT
  5
4DA
330
4D1
100
AcDbEntity
  8
0
 62
     0
370
    -2
100
AcDbBlockReference
  2
_OPEN30
 10
22.6696462919229
 20
-52.33356994873048
 30
0.0
 41
3.0
 42
3.0
 43
3.0
 50
90.00000000000001
  0
MTEXT
  5
4DB
330
4D1
100
AcDbEntity
  8
0
 62
     1
100
AcDbMText
 10
20.25524625594553
 20
-48.65756994873048
 30
0.0
 40
3.200000047683716
 41
0.0
 71
     5
 72
     1
  1
15
 11
-4.833624052789792E-16
 21
1.0
 31
0.0
 73
     1
 44
1.0
  0
POINT
  5
4DC
330
4D1
100
AcDbEntity
  8
Defpoints
 62
     0
100
AcDbPoint
 10
1.382568359375
 20
-44.98356994873048
 30
0.0
  0
POINT
  5
4DD
330
4D1
100
AcDbEntity
  8
Defpoints
 62
     0
100
AcDbPoint
 10
1.177502859375011
 20
-52.33356994873049
 30
0.0
  0
POINT
  5
4DE
330
4D1
100
AcDbEntity
  8
Defpoints
 62
     0
100
AcDbPoint
 10
22.6686462919229
 20
-52.33356994873048
 30
0.0
  0
ENDBLK
  5
4D3
330
4D1
100
AcDbEntity
  8
0
100
AcDbBlockEnd
  0
BLOCK
  5
4E1
330
4E0
100
AcDbEntity
  8
0
100
AcDbBlockBegin
  2
*D28
 70
     1
 10
0.0
 20
0.0
 30
0.0
  3
*D28
  1

  0
LINE
  5
4E3
330
4E0
100
AcDbEntity
  8
0
 62
     0
370
    -2
100
AcDbLine
 10
21.16526985937501
 20
-80.88356994873047
 30
0.0
 11
24.66964629192291
 21
-80.88356994873047
 31
0.0
  0
LINE
  5
4E4
330
4E0
100
AcDbEntity
  8
0
 62
     0
370
    -2
100
AcDbLine
 10
22.66964629192289
 20
-55.33356994873047
 30
0.0
 11
22.66964629192291
 21
-77.88356994873047
 31
0.0
  0
INSERT
  5
4E5
330
4E0
100
AcDbEntity
  8
0
 62
     0
370
    -2
100
AcDbBlockReference
  2
_OPEN30
 10
22.66964629192289
 20
-52.33356994873047
 30
0.0
 41
3.0
 42
3.0
 43
3.0
 50
90.00000000000001
  0
INSERT
  5
4E6
330
4E0
100
AcDbEntity
  8
0
 62
     0
370
    -2
100
AcDbBlockReference
  2
_OPEN30
 10
22.66964629192291
 20
-80.88356994873047
 30
0.0
 41
3.0
 42
3.0
 43
3.0
 50
270.0
  0
MTEXT
  5
4E7
330
4E0
100
AcDbEntity
  8
0
 62
     1
100
AcDbMText
 10
20.25524625594553
 20
-66.60756994873047
 30
0.0
 40
3.200000047683716
 41
0.0
 71
     5
 72
     1
  1
57
 11
-3.733149224659021E-16
 21
1.0
 31
0.0
 73
     1
 44
1.0
  0
POINT
  5
4E8
330
4E0
100
AcDbEntity
  8
Defpoints
 62
     0
100
AcDbPoint
 10
1.177502859375011
 20
-52.33356994873049
 30
0.0
  0
POINT
  5
4E9
330
4E0
100
AcDbEntity
  8
Defpoints
 62
     0
100
AcDbPoint
 10
18.62526985937501
 20
-80.88356994873047
 30
0.0
  0
POINT
  5
4EA
330
4E0
100
AcDbEntity
  8
Defpoints
 62
     0
100
AcDbPoint
 10
22.6686462919229
 20
-80.88356994873047
 30
0.0
  0
ENDBLK
  5
4E2
330
4E0
100
AcDbEntity
  8
0
100
AcDbBlockEnd
  0
BLOCK
  5
4ED
330
4EC
100
AcDbEntity
  8
0
100
AcDbBlockBegin
  2
*D29
 70
     1
 10
0.0
 20
0.0
 30
0.0
  3
*D29
  1

  0
MTEXT
  5
4F6
330
4EC
100
AcDbEntity
  8
0
 62
     1
100
AcDbMText
 10
38.4445978759055
 20
-60.15756994873048
 30
0.0
 40
3.200000047683716
 41
0.0
 71
     5
 72
     1
  1
11
 11
0.0
 21
1.0
 31
0.0
 73
     1
 44
1.0
  0
POINT
  5
4F7
330
4EC
100
AcDbEntity
  8
Defpoints
 62
     0
100
AcDbPoint
 10
52.19852735937499
 20
-57.48356994873046
 30
0.0
  0
POINT
  5
4F8
330
4EC
100
AcDbEntity
  8
Defpoints
 62
     0
100
AcDbPoint
 10
52.77761035937499
 20
-62.83356994873049
 30
0.0
  0
POINT
  5
4F9
330
4EC
100
AcDbEntity
  8
Defpoints
 62
     0
100
AcDbPoint
 10
40.84259791166829
 20
-62.83356994873049
 30
0.0
  0
LINE
  5
4FA
330
4EC
100
AcDbEntity
  8
0
  6
Continuous
 62
     7
100
AcDbLine
 10
49.65852735937499
 20
-57.48356994873046
 30
0.0
 11
38.84259791166829
 21
-57.48356994873046
 31
0.0
  0
LINE
  5
4FB
330
4EC
100
AcDbEntity
  8
0
  6
Continuous
 62
     7
100
AcDbLine
 10
50.23761035937499
 20
-62.83356994873049
 30
0.0
 11
38.84259791166829
 21
-62.83356994873049
 31
0.0
  0
LINE
  5
4FC
330
4EC
100
AcDbEntity
  8
0
  6
Continuous
 62
     7
100
AcDbLine
 10
40.84259791166829
 20
-51.13356994873046
 30
0.0
 11
40.84259791166829
 21
-69.18356994873048
 31
0.0
  0
LINE
  5
4FD
330
4EC
100
AcDbEntity
  8
0
  6
Continuous
 62
     7
100
AcDbLine
 10
40.84259791166829
 20
-57.48356994873046
 30
0.0
 11
40.02414022736829
 21
-54.42904428672484
 31
0.0
  0
LINE
  5
4FE
330
4EC
100
AcDbEntity
  8
0
  6
Continuous
 62
     7
100
AcDbLine
 10
40.84259791166829
 20
-57.48356994873046
 30
0.0
 11
41.66105559596829
 21
-54.42904428672484
 31
0.0
  0
LINE
  5
4FF
330
4EC
100
AcDbEntity
  8
0
  6
Continuous
 62
     7
100
AcDbLine
 10
40.84259791166829
 20
-62.83356994873049
 30
0.0
 11
41.66105559596829
 21
-65.88809561073612
 31
0.0
  0
LINE
  5
500
330
4EC
100
AcDbEntity
  8
0
  6
Continuous
 62
     7
100
AcDbLine
 10
40.84259791166829
 20
-62.83356994873049
 30
0.0
 11
40.02414022736829
 21
-65.88809561073612
 31
0.0
  0
ENDBLK
  5
4EE
330
4EC
100
AcDbEntity
  8
0
100
AcDbBlockEnd
  0
BLOCK
  5
503
330
502
100
AcDbEntity
  8
0
100
AcDbBlockBegin
  2
*D30
 70
     1
 10
0.0
 20
0.0
 30
0.0
  3
*D30
  1

  0
LINE
  5
505
330
502
100
AcDbEntity
  8
0
 62
     0
370
    -2
100
AcDbLine
 10
40.34750285937501
 20
-80.88356994873047
 30
0.0
 11
42.84459791166829
 21
-80.88356994873047
 31
0.0
  0
LINE
  5
506
330
502
100
AcDbEntity
  8
0
 62
     0
370
    -2
100
AcDbLine
 10
40.84459791166829
 20
-65.83356994873049
 30
0.0
 11
40.84459791166829
 21
-77.88356994873047
 31
0.0
  0
INSERT
  5
507
330
502
100
AcDbEntity
  8
0
 62
     0
370
    -2
100
AcDbBlockReference
  2
_OPEN30
 10
40.84459791166829
 20
-62.83356994873049
 30
0.0
 41
3.0
 42
3.0
 43
3.0
 50
90.00000000000001
  0
INSERT
  5
508
330
502
100
AcDbEntity
  8
0
 62
     0
370
    -2
100
AcDbBlockReference
  2
_OPEN30
 10
40.84459791166829
 20
-80.88356994873047
 30
0.0
 41
3.0
 42
3.0
 43
3.0
 50
270.0
  0
MTEXT
  5
509
330
502
100
AcDbEntity
  8
0
 62
     1
100
AcDbMText
 10
38.43019787569092
 20
-71.85756994873047
 30
0.0
 40
3.200000047683716
 41
0.0
 71
     5
 72
     1
  1
36
 11
-3.936524851856516E-16
 21
1.0
 31
0.0
 73
     1
 44
1.0
  0
POINT
  5
50A
330
502
100
AcDbEntity
  8
Defpoints
 62
     0
100
AcDbPoint
 10
52.77761035937499
 20
-62.83356994873049
 30
0.0
  0
POINT
  5
50B
330
502
100
AcDbEntity
  8
Defpoints
 62
     0
100
AcDbPoint
 10
37.80750285937501
 20
-80.88356994873047
 30
0.0
  0
POINT
  5
50C
330
502
100
AcDbEntity
  8
Defpoints
 62
     0
100
AcDbPoint
 10
40.84259791166829
 20
-80.88356994873047
 30
0.0
  0
ENDBLK
  5
504
330
502
100
AcDbEntity
  8
0
100
AcDbBlockEnd
  0
BLOCK
  5
50F
330
50E
100
AcDbEntity
  8
0
100
AcDbBlockBegin
  2
*D31
 70
     1
 10
0.0
 20
0.0
 30
0.0
  3
*D31
  1

  0
LINE
  5
511
330
50E
100
AcDbEntity
  8
0
 62
     0
370
    -2
100
AcDbLine
 10
50.80750336476432
 20
-85.27356994873047
 30
0.0
 11
50.80750336476432
 21
-95.88256994873046
 31
0.0
  0
LINE
  5
512
330
50E
100
AcDbEntity
  8
0
 62
     0
370
    -2
100
AcDbLine
 10
7.807503373798597
 20
-85.27356994873047
 30
0.0
 11
7.807503373798596
 21
-95.88256994873046
 31
0.0
  0
LINE
  5
513
330
50E
100
AcDbEntity
  8
0
 62
     0
370
    -2
100
AcDbLine
 10
47.80750336476432
 20
-93.88256994873046
 30
0.0
 11
10.8075033737986
 21
-93.88256994873046
 31
0.0
  0
INSERT
  5
514
330
50E
100
AcDbEntity
  8
0
 62
     0
370
    -2
100
AcDbBlockReference
  2
_OPEN30
 10
50.80750336476432
 20
-93.88256994873046
 30
0.0
 41
3.0
 42
3.0
 43
3.0
  0
INSERT
  5
515
330
50E
100
AcDbEntity
  8
0
 62
     0
370
    -2
100
AcDbBlockReference
  2
_OPEN30
 10
7.807503373798596
 20
-93.88256994873046
 30
0.0
 41
3.0
 42
3.0
 43
3.0
 50
180.0
  0
MTEXT
  5
516
330
50E
100
AcDbEntity
  8
0
 62
     1
100
AcDbMText
 10
29.30950336928146
 20
-91.4681699127531
 30
0.0
 40
3.200000047683716
 41
0.0
 71
     5
 72
     1
  1
86
 73
     1
 44
1.0
  0
POINT
  5
517
330
50E
100
AcDbEntity
  8
Defpoints
 62
     0
100
AcDbPoint
 10
50.80750336476432
 20
-82.73356994873046
 30
0.0
  0
POINT
  5
518
330
50E
100
AcDbEntity
  8
Defpoints
 62
     0
100
AcDbPoint
 10
7.807503373798597
 20
-82.73356994873046
 30
0.0
  0
POINT
  5
519
330
50E
100
AcDbEntity
  8
Defpoints
 62
     0
100
AcDbPoint
 10
7.807503373798597
 20
-93.88356994873047
 30
0.0
  0
ENDBLK
  5
510
330
50E
100
AcDbEntity
  8
0
100
AcDbBlockEnd
  0
BLOCK
  5
51C
330
51B
100
AcDbEntity
  8
0
100
AcDbBlockBegin
  2
*D32
 70
     1
 10
0.0
 20
0.0
 30
0.0
  3
*D32
  1

  0
LINE
  5
51E
330
51B
100
AcDbEntity
  8
0
 62
     0
370
    -2
100
AcDbLine
 10
81.167502859375
 20
-56.48356994873046
 30
0.0
 11
92.628502859375
 21
-56.48356994873046
 31
0.0
  0
LINE
  5
51F
330
51B
100
AcDbEntity
  8
0
 62
     0
370
    -2
100
AcDbLine
 10
81.167502859375
 20
-83.88356994873047
 30
0.0
 11
92.62850285937502
 21
-83.88356994873047
 31
0.0
  0
LINE
  5
520
330
51B
100
AcDbEntity
  8
0
 62
     0
370
    -2
100
AcDbLine
 10
90.628502859375
 20
-59.48356994873046
 30
0.0
 11
90.62850285937502
 21
-80.88356994873047
 31
0.0
  0
INSERT
  5
521
330
51B
100
AcDbEntity
  8
0
 62
     0
370
    -2
100
AcDbBlockReference
  2
_OPEN30
 10
90.628502859375
 20
-56.48356994873046
 30
0.0
 41
3.0
 42
3.0
 43
3.0
 50
90.00000000000004
  0
INSERT
  5
522
330
51B
100
AcDbEntity
  8
0
 62
     0
370
    -2
100
AcDbBlockReference
  2
_OPEN30
 10
90.62850285937502
 20
-83.88356994873047
 30
0.0
 41
3.0
 42
3.0
 43
3.0
 50
270.0000000000001
  0
MTEXT
  5
523
330
51B
100
AcDbEntity
  8
0
 62
     1
100
AcDbMText
 10
88.21410282339764
 20
-70.18256994873046
 30
0.0
 40
3.200000047683716
 41
0.0
 71
     5
 72
     1
  1
55
 11
-5.186443326716058E-16
 21
1.0
 31
0.0
 73
     1
 44
1.0
  0
POINT
  5
524
330
51B
100
AcDbEntity
  8
Defpoints
 62
     0
100
AcDbPoint
 10
78.627502859375
 20
-56.48356994873046
 30
0.0
  0
POINT
  5
525
330
51B
100
AcDbEntity
  8
Defpoints
 62
     0
100
AcDbPoint
 10
78.627502859375
 20
-83.88356994873047
 30
0.0
  0
POINT
  5
526
330
51B
100
AcDbEntity
  8
Defpoints
 62
     0
100
AcDbPoint
 10
90.627502859375
 20
-83.88356994873047
 30
0.0
  0
ENDBLK
  5
51D
330
51B
100
AcDbEntity
  8
0
100
AcDbBlockEnd
  0
ENDSEC
  0
SECTION
  2
ENTITIES
  0
POINT
  5
298
330
1F
100
AcDbEntity
  8
0
 62
     7
100
AcDbPoint
 10
-5.367431640625
 20
79.64136505126953
 30
0.0
  0
POINT
  5
299
330
1F
100
AcDbEntity
  8
0
 62
     7
100
AcDbPoint
 10
-5.367431640625
 20
79.64136505126953
 30
0.0
  0
POINT
  5
29A
330
1F
100
AcDbEntity
  8
0
 62
     7
100
AcDbPoint
 10
90.627502859375
 20
17.42540555126952
 30
0.0
  0
POINT
  5
29B
330
1F
100
AcDbEntity
  8
0
 62
     7
100
AcDbPoint
 10
56.848527359375
 20
-16.35356994873048
 30
0.0
  0
POINT
  5
29C
330
1F
100
AcDbEntity
  8
0
 62
     7
100
AcDbPoint
 10
-15.367431640625
 20
-4.353569948730481
 30
0.0
  0
POINT
  5
29D
330
1F
100
AcDbEntity
  8
0
 62
     7
100
AcDbPoint
 10
-25.367431640625
 20
-4.353569948730481
 30
0.0
  0
POINT
  5
29E
330
1F
100
AcDbEntity
  8
0
 62
     7
100
AcDbPoint
 10
78.627502859375
 20
89.64136505126953
 30
0.0
  0
POINT
  5
29F
330
1F
100
AcDbEntity
  8
0
 62
     7
100
AcDbPoint
 10
78.627502859375
 20
99.64136505126953
 30
0.0
  0
POINT
  5
2A0
330
1F
100
AcDbEntity
  8
0
 62
     7
100
AcDbPoint
 10
80.627502859375
 20
48.28338530126953
 30
0.0
  0
POINT
  5
2A1
330
1F
100
AcDbEntity
  8
0
 62
     7
100
AcDbPoint
 10
25.990547859375
 20
-6.353569948730481
 30
0.0
  0
POINT
  5
2A2
330
1F
100
AcDbEntity
  8
0
 62
     7
100
AcDbPoint
 10
57.348527359375
 20
16.92540555126952
 30
0.0
  0
POINT
  5
2A3
330
1F
100
AcDbEntity
  8
0
 62
     7
100
AcDbPoint
 10
1.941585359374983
 20
-33.98356994873048
 30
0.0
  0
POINT
  5
2A4
330
1F
100
AcDbEntity
  8
0
 62
     7
100
AcDbPoint
 10
1.941585359374983
 20
-23.98356994873048
 30
0.0
  0
POINT
  5
2A5
330
1F
100
AcDbEntity
  8
0
 62
     7
100
AcDbPoint
 10
-15.36400488623191
 20
-45.24533959024227
 30
0.0
  0
POINT
  5
2A6
330
1F
100
AcDbEntity
  8
0
 62
     7
100
AcDbPoint
 10
90.627502859375
 20
-83.38356994873047
 30
0.0
  0
POINT
  5
2A7
330
1F
100
AcDbEntity
  8
0
 62
     7
100
AcDbPoint
 10
78.627502859375
 20
-93.88356994873047
 30
0.0
  0
POINT
  5
2A8
330
1F
100
AcDbEntity
  8
0
 62
     7
100
AcDbPoint
 10
57.30037360937494
 20
-60.24229619873048
 30
0.0
  0
POINT
  5
2A9
330
1F
100
AcDbEntity
  8
0
 62
     7
100
AcDbPoint
 10
-5.393617578053838
 20
-43.98356994873048
 30
0.0
  0
POINT
  5
2AA
330
1F
100
AcDbEntity
  8
0
 62
     7
100
AcDbPoint
 10
50.80750336476432
 20
-82.73356994873046
 30
0.0
  0
POINT
  5
2AB
330
1F
100
AcDbEntity
  8
0
 62
     7
100
AcDbPoint
 10
7.807503373798597
 20
-82.73356994873046
 30
0.0
  0
LINE
  5
2AC
330
1F
100
AcDbEntity
  8
0
  6
Continuous
 62
     7
100
AcDbLine
 10
-48.46867364062503
 20
79.44428505126956
 30
0.0
 11
-40.96867364062503
 21
79.64067955126957
 31
0.0
  0
LINE
  5
2AD
330
1F
100
AcDbEntity
  8
0
  6
Continuous
 62
     7
100
AcDbLine
 10
80.627502859375
 20
18.32540555126953
 30
0.0
 11
80.627502859375
 21
21.10401405126953
 31
0.0
  0
LINE
  5
2AE
330
1F
100
AcDbEntity
  8
0
  6
Continuous
 62
     7
100
AcDbLine
 10
80.627502859375
 20
21.34978155126953
 30
0.0
 11
80.627502859375
 21
22.82690905126952
 31
0.0
  0
LINE
  5
2AF
330
1F
100
AcDbEntity
  8
0
  6
Continuous
 62
     7
100
AcDbLine
 10
68.127502859375
 20
21.51399555126952
 30
0.0
 11
68.127502859375
 21
22.82836605126953
 31
0.0
  0
LINE
  5
2B0
330
1F
100
AcDbEntity
  8
0
  6
Continuous
 62
     7
100
AcDbLine
 10
80.627502859375
 20
21.34736655126952
 30
0.0
 11
80.627502859375
 21
21.10401405126953
 31
0.0
  0
LINE
  5
2B1
330
1F
100
AcDbEntity
  8
0
  6
Continuous
 62
     7
100
AcDbLine
 10
80.627502859375
 20
18.32540555126953
 30
0.0
 11
80.627502859375
 21
18.07540555126953
 31
0.0
  0
LINE
  5
2B2
330
1F
100
AcDbEntity
  8
0
  6
Continuous
 62
     7
100
AcDbLine
 10
80.627502859375
 20
27.13175505126952
 30
0.0
 11
80.627502859375
 21
23.14697605126952
 31
0.0
  0
LINE
  5
2B3
330
1F
100
AcDbEntity
  8
0
  6
Continuous
 62
     7
100
AcDbLine
 10
80.627502859375
 20
23.14697605126952
 30
0.0
 11
80.627502859375
 21
22.82690905126952
 31
0.0
  0
LINE
  5
2B4
330
1F
100
AcDbEntity
  8
0
  6
Continuous
 62
     7
100
AcDbLine
 10
55.94852735937499
 20
-6.353569948730481
 30
0.0
 11
56.19852735937499
 21
-6.353569948730481
 31
0.0
  0
LINE
  5
2B5
330
1F
100
AcDbEntity
  8
0
  6
Continuous
 62
     7
100
AcDbLine
 10
47.14217835937501
 20
-6.353569948730481
 30
0.0
 11
51.12695735937498
 21
-6.353569948730481
 31
0.0
  0
LINE
  5
2B6
330
1F
100
AcDbEntity
  8
0
  6
Continuous
 62
     7
100
AcDbLine
 10
51.12695735937498
 20
-6.353569948730481
 30
0.0
 11
51.44702385937501
 21
-6.353569948730481
 31
0.0
  0
LINE
  5
2B7
330
1F
100
AcDbEntity
  8
0
  6
Continuous
 62
     7
100
AcDbLine
 10
56.348527359375
 20
-4.353569948730481
 30
0.0
 11
56.25237235937499
 21
-4.353569948730481
 31
0.0
  0
LINE
  5
2B8
330
1F
100
AcDbEntity
  8
0
  6
Continuous
 62
     7
100
AcDbLine
 10
56.19852735937499
 20
-4.353569948730481
 30
0.0
 11
56.25237235937499
 21
-4.353569948730481
 31
0.0
  0
LINE
  5
2B9
330
1F
100
AcDbEntity
  8
0
  6
Continuous
 62
     7
100
AcDbLine
 10
56.348527359375
 20
-4.353569948730481
 30
0.0
 11
57.348527359375
 21
-4.353569948730481
 31
0.0
  0
LINE
  5
2BA
330
1F
100
AcDbEntity
  8
0
  6
Continuous
 62
     7
100
AcDbLine
 10
78.627502859375
 20
17.92540555126952
 30
0.0
 11
78.627502859375
 21
18.02156105126952
 31
0.0
  0
LINE
  5
2BB
330
1F
100
AcDbEntity
  8
0
  6
Continuous
 62
     7
100
AcDbLine
 10
78.627502859375
 20
18.07540555126953
 30
0.0
 11
78.627502859375
 21
18.02156105126952
 31
0.0
  0
LINE
  5
2BC
330
1F
100
AcDbEntity
  8
0
  6
Continuous
 62
     7
100
AcDbLine
 10
78.627502859375
 20
17.92540555126952
 30
0.0
 11
78.627502859375
 21
16.92540555126952
 31
0.0
  0
LINE
  5
2BD
330
1F
100
AcDbEntity
  8
0
  6
Continuous
 62
     7
100
AcDbLine
 10
55.94852735937499
 20
-6.353569948730481
 30
0.0
 11
53.169918859375
 21
-6.353569948730481
 31
0.0
  0
LINE
  5
2BE
330
1F
100
AcDbEntity
  8
0
  6
Continuous
 62
     7
100
AcDbLine
 10
52.924151859375
 20
-6.353569948730481
 30
0.0
 11
51.44702385937501
 21
-6.353569948730481
 31
0.0
  0
LINE
  5
2BF
330
1F
100
AcDbEntity
  8
0
  6
Continuous
 62
     7
100
AcDbLine
 10
51.44702385937501
 20
-6.353569948730481
 30
0.0
 11
51.44702385937501
 21
6.146430051269533
 31
0.0
  0
LINE
  5
2C0
330
1F
100
AcDbEntity
  8
0
  6
Continuous
 62
     7
100
AcDbLine
 10
52.75993785937499
 20
6.146430051269533
 30
0.0
 11
51.44556685937499
 21
6.146430051269533
 31
0.0
  0
LINE
  5
2C1
330
1F
100
AcDbEntity
  8
0
  6
Continuous
 62
     7
100
AcDbLine
 10
52.92656685937494
 20
-6.353569448730473
 30
0.0
 11
53.16991885937496
 21
-6.353569948730476
 31
0.0
  0
LINE
  5
2C2
330
1F
100
AcDbEntity
  8
0
  6
Continuous
 62
     7
100
AcDbLine
 10
78.62750285937496
 20
73.64136505126955
 30
0.0
 11
80.62750285937494
 21
73.85961055126955
 31
0.0
  0
LINE
  5
2C3
330
1F
100
AcDbEntity
  8
0
  6
Continuous
 62
     7
100
AcDbLine
 10
63.127502859375
 20
67.5655930512695
 30
0.0
 11
62.127502859375
 21
67.5655930512695
 31
0.0
  0
LINE
  5
2C4
330
1F
100
AcDbEntity
  8
0
  6
Continuous
 62
     7
100
AcDbLine
 10
78.627502859375
 20
79.64136505126953
 30
0.0
 11
78.627502859375
 21
73.64136505126953
 31
0.0
  0
LINE
  5
2C5
330
1F
100
AcDbEntity
  8
0
  6
Continuous
 62
     7
100
AcDbLine
 10
78.627502859375
 20
79.64136505126953
 30
0.0
 11
80.627502859375
 21
79.14136505126953
 31
0.0
  0
LINE
  5
2C6
330
1F
100
AcDbEntity
  8
0
  6
Continuous
 62
     7
100
AcDbLine
 10
63.127502859375
 20
68.27292055126952
 30
0.0
 11
80.627502859375
 21
68.27292055126952
 31
0.0
  0
LINE
  5
2C7
330
1F
100
AcDbEntity
  8
0
  6
Continuous
 62
     7
100
AcDbLine
 10
68.127502859375
 20
60.96643005126953
 30
0.0
 11
80.627502859375
 21
60.96643005126953
 31
0.0
  0
LINE
  5
2C8
330
1F
100
AcDbEntity
  8
0
  6
Continuous
 62
     7
100
AcDbLine
 10
62.12750285937491
 20
46.46643005126957
 30
0.0
 11
67.67108085937492
 21
46.95143055126957
 31
0.0
  0
LINE
  5
2C9
330
1F
100
AcDbEntity
  8
0
  6
Continuous
 62
     7
100
AcDbLine
 10
68.127502859375
 20
66.35786255126953
 30
0.0
 11
62.127502859375
 21
66.35786255126953
 31
0.0
  0
LINE
  5
2CA
330
1F
100
AcDbEntity
  8
0
  6
Continuous
 62
     7
100
AcDbLine
 10
65.26058085937498
 20
67.34643205126952
 30
0.0
 11
63.127502859375
 21
67.34643205126952
 31
0.0
  0
LINE
  5
2CB
330
1F
100
AcDbEntity
  8
0
  6
Continuous
 62
     7
100
AcDbLine
 10
67.94933985937496
 20
66.64988105126953
 30
0.0
 11
65.97895085937498
 21
67.24099805126954
 31
0.0
  0
LINE
  5
2CC
330
1F
100
AcDbEntity
  8
0
  6
Continuous
 62
     7
100
AcDbLine
 10
68.127502859375
 20
69.25006405126953
 30
0.0
 11
62.127502859375
 21
69.25006405126953
 31
0.0
  0
LINE
  5
2CD
330
1F
100
AcDbEntity
  8
0
  6
Continuous
 62
     7
100
AcDbLine
 10
68.127502859375
 20
69.25006405126953
 30
0.0
 11
68.127502859375
 21
69.83318555126954
 31
0.0
  0
LINE
  5
2CE
330
1F
100
AcDbEntity
  8
0
  6
Continuous
 62
     7
100
AcDbLine
 10
68.127502859375
 20
69.77299855126952
 30
0.0
 11
62.127502859375
 21
69.77299855126952
 31
0.0
  0
LINE
  5
2CF
330
1F
100
AcDbEntity
  8
0
  6
Continuous
 62
     7
100
AcDbLine
 10
65.26058085937498
 20
70.76919305126953
 30
0.0
 11
63.127502859375
 21
70.76919305126953
 31
0.0
  0
LINE
  5
2D0
330
1F
100
AcDbEntity
  8
0
  6
Continuous
 62
     7
100
AcDbLine
 10
67.94933985937496
 20
70.0726420512696
 30
0.0
 11
65.97895085937496
 21
70.6637590512696
 31
0.0
  0
LINE
  5
2D1
330
1F
100
AcDbEntity
  8
0
  6
Continuous
 62
     7
100
AcDbLine
 10
63.127502859375
 20
69.25006405126953
 30
0.0
 11
63.127502859375
 21
67.34643205126952
 31
0.0
  0
LINE
  5
2D2
330
1F
100
AcDbEntity
  8
0
  6
Continuous
 62
     7
100
AcDbLine
 10
63.127502859375
 20
72.38458805126953
 30
0.0
 11
68.127502859375
 21
72.38458805126953
 31
0.0
  0
LINE
  5
2D3
330
1F
100
AcDbEntity
  8
0
  6
Continuous
 62
     7
100
AcDbLine
 10
62.12750285937499
 20
36.46643005126957
 30
0.0
 11
67.67108085937501
 21
35.98143005126956
 31
0.0
  0
LINE
  5
2D4
330
1F
100
AcDbEntity
  8
0
  6
Continuous
 62
     7
100
AcDbLine
 10
68.127502859375
 20
35.48333255126953
 30
0.0
 11
68.127502859375
 21
23.51466005126952
 31
0.0
  0
LINE
  5
2D5
330
1F
100
AcDbEntity
  8
0
  6
Continuous
 62
     7
100
AcDbLine
 10
63.127502859375
 20
46.55391855126952
 30
0.0
 11
63.127502859375
 21
36.37894155126952
 31
0.0
  0
LINE
  5
2D6
330
1F
100
AcDbEntity
  8
0
  6
Continuous
 62
     7
100
AcDbLine
 10
63.127502859375
 20
73.14136505126953
 30
0.0
 11
63.127502859375
 21
70.76919305126953
 31
0.0
  0
LINE
  5
2D7
330
1F
100
AcDbEntity
  8
0
  6
Continuous
 62
     7
100
AcDbLine
 10
68.127502859375
 20
47.44952755126953
 30
0.0
 11
68.127502859375
 21
66.36549005126952
 31
0.0
  0
LINE
  5
2D8
330
1F
100
AcDbEntity
  8
0
  6
Continuous
 62
     7
100
AcDbLine
 10
68.127502859375
 20
73.64136505126953
 30
0.0
 11
78.627502859375
 21
73.64136505126953
 31
0.0
  0
LINE
  5
2D9
330
1F
100
AcDbEntity
  8
0
  6
Continuous
 62
     7
100
AcDbLine
 10
62.127502859375
 20
72.38458805126953
 30
0.0
 11
3.389345359375
 21
72.38458805126953
 31
0.0
  0
LINE
  5
2DA
330
1F
100
AcDbEntity
  8
0
  6
Continuous
 62
     7
100
AcDbLine
 10
62.127502859375
 20
68.27292055126952
 30
0.0
 11
7.501012359375011
 21
68.27292055126952
 31
0.0
  0
LINE
  5
2DB
330
1F
100
AcDbEntity
  8
0
  6
Continuous
 62
     7
100
AcDbLine
 10
-2.617431640625
 20
78.39136505126953
 30
0.0
 11
62.127502859375
 21
78.39136505126953
 31
0.0
  0
LINE
  5
2DC
330
1F
100
AcDbEntity
  8
0
  6
Continuous
 62
     7
100
AcDbLine
 10
80.627502859375
 20
72.14136505126953
 30
0.0
 11
68.127502859375
 21
72.14136505126953
 31
0.0
  0
LINE
  5
2DD
330
1F
100
AcDbEntity
  8
0
  6
Continuous
 62
     7
100
AcDbLine
 10
68.127502859375
 20
72.14136505126953
 30
0.0
 11
68.127502859375
 21
76.39136505126953
 31
0.0
  0
LINE
  5
2DE
330
1F
100
AcDbEntity
  8
0
  6
Continuous
 62
     7
100
AcDbLine
 10
68.127502859375
 20
73.14136505126953
 30
0.0
 11
2.632568359375
 21
73.14136505126953
 31
0.0
  0
LINE
  5
2DF
330
1F
100
AcDbEntity
  8
0
  6
Continuous
 62
     7
100
AcDbLine
 10
-4.867431640625
 20
79.64136505126953
 30
0.0
 11
78.627502859375
 21
79.64136505126953
 31
0.0
  0
LINE
  5
2E0
330
1F
100
AcDbEntity
  8
0
  6
Continuous
 62
     7
100
AcDbLine
 10
6.883922859374893
 20
-62.42434594873048
 30
0.0
 11
6.732000859374894
 21
-60.68786794873049
 31
0.0
  0
LINE
  5
2E1
330
1F
100
AcDbEntity
  8
0
  6
Continuous
 62
     7
100
AcDbLine
 10
-3.867431640625025
 20
-44.98356994873049
 30
0.0
 11
-4.117431640625007
 21
-45.23356994873048
 31
0.0
  0
LINE
  5
2E2
330
1F
100
AcDbEntity
  8
0
  6
Continuous
 62
     7
100
AcDbLine
 10
78.62750385937497
 20
21.32540555126955
 30
0.0
 11
80.62750285937497
 21
21.10716005126955
 31
0.0
  0
LINE
  5
2E3
330
1F
100
AcDbEntity
  8
0
  6
Continuous
 62
     7
100
AcDbLine
 10
52.94852735937499
 20
-4.353569948730482
 30
0.0
 11
53.16677335937498
 21
-6.353569948730464
 31
0.0
  0
LINE
  5
2E4
330
1F
100
AcDbEntity
  8
0
  6
Continuous
 62
     7
100
AcDbLine
 10
0.632568359374952
 20
-4.353569948730486
 30
0.0
 11
0.41432235937495
 21
-6.353569948730489
 31
0.0
  0
LINE
  5
2E5
330
1F
100
AcDbEntity
  8
0
  6
Continuous
 62
     7
100
AcDbLine
 10
68.127502859375
 20
23.58247255126952
 30
0.0
 11
62.127502859375
 21
23.58247255126952
 31
0.0
  0
LINE
  5
2E6
330
1F
100
AcDbEntity
  8
0
  6
Continuous
 62
     7
100
AcDbLine
 10
65.26058085937498
 20
22.57865255126953
 30
0.0
 11
63.127502859375
 21
22.57865255126953
 31
0.0
  0
LINE
  5
2E7
330
1F
100
AcDbEntity
  8
0
  6
Continuous
 62
     7
100
AcDbLine
 10
67.9493398593751
 20
23.2752035512696
 30
0.0
 11
65.97895085937509
 21
22.6840870512696
 31
0.0
  0
LINE
  5
2E8
330
1F
100
AcDbEntity
  8
0
  6
Continuous
 62
     7
100
AcDbLine
 10
6.708339859374973
 20
11.14643005126953
 30
0.0
 11
6.708339859374973
 21
12.14643005126953
 31
0.0
  0
LINE
  5
2E9
330
1F
100
AcDbEntity
  8
0
  6
Continuous
 62
     7
100
AcDbLine
 10
68.127502859375
 20
-44.98356994873048
 30
0.0
 11
62.127502859375
 21
-44.98356994873048
 31
0.0
  0
LINE
  5
2EA
330
1F
100
AcDbEntity
  8
0
  6
Continuous
 62
     7
100
AcDbLine
 10
-79.84249714062503
 20
-4.353569948730481
 30
0.0
 11
-39.94249714062499
 21
-4.353569948730481
 31
0.0
  0
LINE
  5
2EB
330
1F
100
AcDbEntity
  8
0
  6
Continuous
 62
     7
100
AcDbLine
 10
-79.84249714062496
 20
-4.353569948730463
 30
0.0
 11
-79.34249714062496
 21
-6.35356994873046
 31
0.0
  0
LINE
  5
2EC
330
1F
100
AcDbEntity
  8
0
  6
Continuous
 62
     7
100
AcDbLine
 10
-75.78440314062495
 20
-4.353569948730456
 30
0.0
 11
-75.28440314062495
 21
-6.353569948730454
 31
0.0
  0
LINE
  5
2ED
330
1F
100
AcDbEntity
  8
0
  6
Continuous
 62
     7
100
AcDbLine
 10
-58.94661864062498
 20
-4.353569948730476
 30
0.0
 11
-58.44661864062498
 21
-6.353569948730472
 31
0.0
  0
LINE
  5
2EE
330
1F
100
AcDbEntity
  8
0
  6
Continuous
 62
     7
100
AcDbLine
 10
-57.84490064062505
 20
-4.353569948730435
 30
0.0
 11
-57.34490064062505
 21
-6.353569948730432
 31
0.0
  0
LINE
  5
2EF
330
1F
100
AcDbEntity
  8
0
  6
Continuous
 62
     7
100
AcDbLine
 10
-49.44249714062497
 20
-4.353569948730476
 30
0.0
 11
-48.94249714062497
 21
-6.353569948730472
 31
0.0
  0
LINE
  5
2F0
330
1F
100
AcDbEntity
  8
0
  6
Continuous
 62
     7
100
AcDbLine
 10
-40.44249714062493
 20
-6.353569948730485
 30
0.0
 11
-39.94249714062494
 21
-4.353569948730492
 31
0.0
  0
LINE
  5
2F1
330
1F
100
AcDbEntity
  8
0
  6
Continuous
 62
     7
100
AcDbLine
 10
-39.94249714062499
 20
6.146430051269533
 30
0.0
 11
-39.69249714062499
 21
6.146430051269533
 31
0.0
  0
LINE
  5
2F2
330
1F
100
AcDbEntity
  8
0
  6
Continuous
 62
     7
100
AcDbLine
 10
-39.69249714062499
 20
6.146430051269533
 30
0.0
 11
-39.69249714062499
 21
-6.353569948730481
 31
0.0
  0
LINE
  5
2F3
330
1F
100
AcDbEntity
  8
0
  6
Continuous
 62
     7
100
AcDbLine
 10
-77.69249714062505
 20
62.01516455126954
 30
0.0
 11
-75.95746664062507
 21
62.07575305126955
 31
0.0
  0
LINE
  5
2F4
330
1F
100
AcDbEntity
  8
0
  6
Continuous
 62
     7
100
AcDbLine
 10
-79.34249714062503
 20
-6.353569948730481
 30
0.0
 11
-39.69249714062499
 21
-6.353569948730481
 31
0.0
  0
LINE
  5
2F5
330
1F
100
AcDbEntity
  8
0
  6
Continuous
 62
     7
100
AcDbLine
 10
-49.44249714062499
 20
-4.353569948730481
 30
0.0
 11
-49.44249714062499
 21
78.44462755126952
 31
0.0
  0
LINE
  5
2F6
330
1F
100
AcDbEntity
  8
0
  6
Continuous
 62
     7
100
AcDbLine
 10
-49.67070814062504
 20
74.17518005126965
 30
0.0
 11
-57.67051114062505
 21
73.47528755126964
 31
0.0
  0
LINE
  5
2F7
330
1F
100
AcDbEntity
  8
0
  6
Continuous
 62
     7
100
AcDbLine
 10
-57.84490064062499
 20
-4.353569948730481
 30
0.0
 11
-57.84490064062499
 21
73.38120405126952
 31
0.0
  0
LINE
  5
2F8
330
1F
100
AcDbEntity
  8
0
  6
Continuous
 62
     7
100
AcDbLine
 10
-58.94661864062499
 20
69.42687505126952
 30
0.0
 11
-58.94661864062499
 21
-4.353569948730481
 31
0.0
  0
LINE
  5
2F9
330
1F
100
AcDbEntity
  8
0
  6
Continuous
 62
     7
100
AcDbLine
 10
-58.90131414062529
 20
69.5171395512696
 30
0.0
 11
-57.89020464062529
 21
73.29093905126959
 31
0.0
  0
LINE
  5
2FA
330
1F
100
AcDbEntity
  8
0
  6
Continuous
 62
     7
100
AcDbLine
 10
-75.78440314062499
 20
62.15037155126953
 30
0.0
 11
-75.78440314062499
 21
-4.353569948730481
 31
0.0
  0
LINE
  5
2FB
330
1F
100
AcDbEntity
  8
0
  6
Continuous
 62
     7
100
AcDbLine
 10
-59.12100764062503
 20
69.33279105126954
 30
0.0
 11
-69.25756664062504
 21
68.44595705126953
 31
0.0
  0
LINE
  5
2FC
330
1F
100
AcDbEntity
  8
0
  6
Continuous
 62
     7
100
AcDbLine
 10
-79.84249714062503
 20
59.86516455126952
 30
0.0
 11
-79.84249714062503
 21
-4.353569948730481
 31
0.0
  0
LINE
  5
2FD
330
1F
100
AcDbEntity
  8
0
  6
Continuous
 62
     7
100
AcDbLine
 10
60.83664785937497
 20
-63.98356994873046
 30
0.0
 11
59.50692085937497
 21
-79.18242194873046
 31
0.0
  0
LINE
  5
2FE
330
1F
100
AcDbEntity
  8
0
  6
Continuous
 62
     7
100
AcDbLine
 10
62.127502859375
 20
-53.54460594873048
 30
0.0
 11
62.127502859375
 21
-56.48356994873048
 31
0.0
  0
LINE
  5
2FF
330
1F
100
AcDbEntity
  8
0
  6
Continuous
 62
     7
100
AcDbLine
 10
68.127502859375
 20
-54.52770344873048
 30
0.0
 11
68.127502859375
 21
-56.23356994873048
 31
0.0
  0
LINE
  5
300
330
1F
100
AcDbEntity
  8
0
  6
Continuous
 62
     7
100
AcDbLine
 10
78.627502859375
 20
16.92540555126952
 30
0.0
 11
78.627502859375
 21
21.32540555126953
 31
0.0
  0
LINE
  5
301
330
1F
100
AcDbEntity
  8
0
  6
Continuous
 62
     7
100
AcDbLine
 10
57.348527359375
 20
-4.353569948730481
 30
0.0
 11
52.94852735937499
 21
-4.353569948730481
 31
0.0
  0
LINE
  5
302
330
1F
100
AcDbEntity
  8
0
  6
Continuous
 62
     7
100
AcDbLine
 10
-5.367431640625
 20
-4.353569948730481
 30
0.0
 11
0.632568359375
 21
-4.353569948730481
 31
0.0
  0
LINE
  5
303
330
1F
100
AcDbEntity
  8
0
  6
Continuous
 62
     7
100
AcDbLine
 10
-5.36743164062505
 20
-4.353569948730484
 30
0.0
 11
-4.867431640625051
 21
-6.353569948730481
 31
0.0
  0
LINE
  5
304
330
1F
100
AcDbEntity
  8
0
  6
Continuous
 62
     7
100
AcDbLine
 10
56.84852735937502
 20
-6.353569948730479
 30
0.0
 11
57.34852735937502
 21
-4.353569948730483
 31
0.0
  0
LINE
  5
305
330
1F
100
AcDbEntity
  8
0
  6
Continuous
 62
     7
100
AcDbLine
 10
78.62750285937501
 20
16.92540555126954
 30
0.0
 11
80.62750285937499
 21
17.42540555126953
 31
0.0
  0
LINE
  5
306
330
1F
100
AcDbEntity
  8
0
  6
Continuous
 62
     7
100
AcDbLine
 10
-39.94249714062499
 20
78.64102205126952
 30
0.0
 11
-39.94249714062499
 21
-4.353569948730481
 31
0.0
  0
LINE
  5
307
330
1F
100
AcDbEntity
  8
0
  6
Continuous
 62
     7
100
AcDbLine
 10
6.001012359375011
 20
11.14643005126953
 30
0.0
 11
6.001012359375011
 21
-6.353569948730481
 31
0.0
  0
LINE
  5
308
330
1F
100
AcDbEntity
  8
0
  6
Continuous
 62
     7
100
AcDbLine
 10
13.30750285937501
 20
6.146430051269533
 30
0.0
 11
13.30750285937501
 21
-6.353569948730481
 31
0.0
  0
LINE
  5
309
330
1F
100
AcDbEntity
  8
0
  6
Continuous
 62
     7
100
AcDbLine
 10
27.80750285937491
 20
12.14643005126952
 30
0.0
 11
27.32250285937491
 21
6.602852051269528
 31
0.0
  0
LINE
  5
30A
330
1F
100
AcDbEntity
  8
0
  6
Continuous
 62
     7
100
AcDbLine
 10
7.916070359374999
 20
6.146430051269533
 30
0.0
 11
7.916070359374999
 21
12.14643005126953
 31
0.0
  0
LINE
  5
30B
330
1F
100
AcDbEntity
  8
0
  6
Continuous
 62
     7
100
AcDbLine
 10
6.927500859375016
 20
9.013352051269521
 30
0.0
 11
6.927500859375016
 21
11.14643005126953
 31
0.0
  0
LINE
  5
30C
330
1F
100
AcDbEntity
  8
0
  6
Continuous
 62
     7
100
AcDbLine
 10
7.624051859374942
 20
6.324593051269522
 30
0.0
 11
7.032935359374946
 21
8.294982551269513
 31
0.0
  0
LINE
  5
30D
330
1F
100
AcDbEntity
  8
0
  6
Continuous
 62
     7
100
AcDbLine
 10
5.023869359374999
 20
6.146430051269533
 30
0.0
 11
5.023869359374999
 21
12.14643005126953
 31
0.0
  0
LINE
  5
30E
330
1F
100
AcDbEntity
  8
0
  6
Continuous
 62
     7
100
AcDbLine
 10
5.023869359374999
 20
6.146430051269533
 30
0.0
 11
4.440747859374994
 21
6.146430051269533
 31
0.0
  0
LINE
  5
30F
330
1F
100
AcDbEntity
  8
0
  6
Continuous
 62
     7
100
AcDbLine
 10
4.500934859374979
 20
6.146430051269533
 30
0.0
 11
4.500934859374979
 21
12.14643005126953
 31
0.0
  0
LINE
  5
310
330
1F
100
AcDbEntity
  8
0
  6
Continuous
 62
     7
100
AcDbLine
 10
3.504739859374979
 20
9.013352051269521
 30
0.0
 11
3.504739859374979
 21
11.14643005126953
 31
0.0
  0
LINE
  5
311
330
1F
100
AcDbEntity
  8
0
  6
Continuous
 62
     7
100
AcDbLine
 10
4.201291359374983
 20
6.324593051269506
 30
0.0
 11
3.610174359374981
 21
8.294982551269504
 31
0.0
  0
LINE
  5
312
330
1F
100
AcDbEntity
  8
0
  6
Continuous
 62
     7
100
AcDbLine
 10
5.023869359374999
 20
11.14643005126953
 30
0.0
 11
6.927500859375016
 21
11.14643005126953
 31
0.0
  0
LINE
  5
313
330
1F
100
AcDbEntity
  8
0
  6
Continuous
 62
     7
100
AcDbLine
 10
1.889345359375
 20
11.14643005126953
 30
0.0
 11
1.889345359375
 21
6.146430051269533
 31
0.0
  0
LINE
  5
314
330
1F
100
AcDbEntity
  8
0
  6
Continuous
 62
     7
100
AcDbLine
 10
37.80750285937497
 20
12.14643005126951
 30
0.0
 11
38.29250335937498
 21
6.602852051269513
 31
0.0
  0
LINE
  5
315
330
1F
100
AcDbEntity
  8
0
  6
Continuous
 62
     7
100
AcDbLine
 10
38.79060085937499
 20
6.146430051269533
 30
0.0
 11
50.75927285937502
 21
6.146430051269533
 31
0.0
  0
LINE
  5
316
330
1F
100
AcDbEntity
  8
0
  6
Continuous
 62
     7
100
AcDbLine
 10
50.69146085937501
 20
6.146430051269533
 30
0.0
 11
50.69146085937501
 21
12.14643005126953
 31
0.0
  0
LINE
  5
317
330
1F
100
AcDbEntity
  8
0
  6
Continuous
 62
     7
100
AcDbLine
 10
51.69528085937498
 20
9.013352051269521
 30
0.0
 11
51.69528085937498
 21
11.14643005126953
 31
0.0
  0
LINE
  5
318
330
1F
100
AcDbEntity
  8
0
  6
Continuous
 62
     7
100
AcDbLine
 10
50.99872935937502
 20
6.324593051269533
 30
0.0
 11
51.58984635937502
 21
8.294982551269532
 31
0.0
  0
LINE
  5
319
330
1F
100
AcDbEntity
  8
0
  6
Continuous
 62
     7
100
AcDbLine
 10
27.720014359375
 20
11.14643005126953
 30
0.0
 11
37.89499185937501
 21
11.14643005126953
 31
0.0
  0
LINE
  5
31A
330
1F
100
AcDbEntity
  8
0
  6
Continuous
 62
     7
100
AcDbLine
 10
51.69528085937498
 20
11.14643005126953
 30
0.0
 11
52.54852735937499
 21
11.14643005126953
 31
0.0
  0
LINE
  5
31B
330
1F
100
AcDbEntity
  8
0
  6
Continuous
 62
     7
100
AcDbLine
 10
63.127502859375
 20
22.57865255126953
 30
0.0
 11
63.127502859375
 21
21.72540555126952
 31
0.0
  0
LINE
  5
31C
330
1F
100
AcDbEntity
  8
0
  6
Continuous
 62
     7
100
AcDbLine
 10
1.132568359375
 20
11.14643005126953
 30
0.0
 11
3.504739859374979
 21
11.14643005126953
 31
0.0
  0
LINE
  5
31D
330
1F
100
AcDbEntity
  8
0
  6
Continuous
 62
     7
100
AcDbLine
 10
26.82440535937496
 20
6.146430051269533
 30
0.0
 11
7.908443359374985
 21
6.146430051269533
 31
0.0
  0
LINE
  5
31E
330
1F
100
AcDbEntity
  8
0
  6
Continuous
 62
     7
100
AcDbLine
 10
-4.117431640624972
 20
67.78476305126948
 30
0.0
 11
51.52090135937505
 21
12.14643005126947
 31
0.0
  0
LINE
  5
31F
330
1F
100
AcDbEntity
  8
0
  6
Continuous
 62
     7
100
AcDbLine
 10
-4.117431640625021
 20
64.24922905126957
 30
0.0
 11
47.98536735937498
 21
12.14643005126958
 31
0.0
  0
LINE
  5
320
330
1F
100
AcDbEntity
  8
0
  6
Continuous
 62
     7
100
AcDbLine
 10
10.02470385937498
 20
78.39136505126945
 30
0.0
 11
62.12750285937496
 21
26.28856555126946
 31
0.0
  0
LINE
  5
321
330
1F
100
AcDbEntity
  8
0
  6
Continuous
 62
     7
100
AcDbLine
 10
0.632568359375
 20
6.146430051269533
 30
0.0
 11
0.632568359375
 21
-4.353569948730481
 31
0.0
  0
LINE
  5
322
330
1F
100
AcDbEntity
  8
0
  6
Continuous
 62
     7
100
AcDbLine
 10
52.94852735937499
 20
-4.353569948730481
 30
0.0
 11
52.94852735937499
 21
6.146430051269533
 31
0.0
  0
LINE
  5
323
330
1F
100
AcDbEntity
  8
0
  6
Continuous
 62
     7
100
AcDbLine
 10
78.627503859375
 20
21.32540555126953
 30
0.0
 11
68.127502859375
 21
21.32540555126953
 31
0.0
  0
LINE
  5
324
330
1F
100
AcDbEntity
  8
0
  6
Continuous
 62
     7
100
AcDbLine
 10
58.60294285937499
 20
19.96804655126952
 30
0.0
 11
54.30588685937499
 21
15.67099005126951
 31
0.0
  0
LINE
  5
325
330
1F
100
AcDbEntity
  8
0
  6
Continuous
 62
     7
100
AcDbLine
 10
68.127502859375
 20
21.72540555126952
 30
0.0
 11
62.84558385937498
 21
21.72540555126952
 31
0.0
  0
LINE
  5
326
330
1F
100
AcDbEntity
  8
0
  6
Continuous
 62
     7
100
AcDbLine
 10
68.127502859375
 20
22.82540555126953
 30
0.0
 11
68.127502859375
 21
20.07540555126953
 31
0.0
  0
LINE
  5
327
330
1F
100
AcDbEntity
  8
0
  6
Continuous
 62
     7
100
AcDbLine
 10
80.627502859375
 20
22.82540555126953
 30
0.0
 11
68.127502859375
 21
22.82540555126953
 31
0.0
  0
LINE
  5
328
330
1F
100
AcDbEntity
  8
0
  6
Continuous
 62
     7
100
AcDbLine
 10
56.19852735937499
 20
8.646430051269533
 30
0.0
 11
56.19852735937499
 21
16.07540555126953
 31
0.0
  0
LINE
  5
329
330
1F
100
AcDbEntity
  8
0
  6
Continuous
 62
     7
100
AcDbLine
 10
65.627502859375
 20
18.07540555126953
 30
0.0
 11
58.19852735937499
 21
18.07540555126953
 31
0.0
  0
LINE
  5
32A
330
1F
100
AcDbEntity
  8
0
  6
Continuous
 62
     7
100
AcDbLine
 10
52.54852735937499
 20
6.146430051269533
 30
0.0
 11
52.54852735937499
 21
11.42834955126952
 31
0.0
  0
LINE
  5
32B
330
1F
100
AcDbEntity
  8
0
  6
Continuous
 62
     7
100
AcDbLine
 10
51.44852735937499
 20
-6.353569948730481
 30
0.0
 11
51.44852735937499
 21
6.146430051269533
 31
0.0
  0
LINE
  5
32C
330
1F
100
AcDbEntity
  8
0
  6
Continuous
 62
     7
100
AcDbLine
 10
51.44852735937499
 20
6.146430051269533
 30
0.0
 11
54.19852735937499
 21
6.146430051269533
 31
0.0
  0
LINE
  5
32D
330
1F
100
AcDbEntity
  8
0
  6
Continuous
 62
     7
100
AcDbLine
 10
13.30750285937501
 20
12.14643005126953
 30
0.0
 11
13.30750285937501
 21
59.46643005126953
 31
0.0
  0
LINE
  5
32E
330
1F
100
AcDbEntity
  8
0
  6
Continuous
 62
     7
100
AcDbLine
 10
62.127502859375
 20
60.96643005126953
 30
0.0
 11
14.80750285937501
 21
60.96643005126953
 31
0.0
  0
LINE
  5
32F
330
1F
100
AcDbEntity
  8
0
  6
Continuous
 62
     7
100
AcDbLine
 10
62.127502859375
 20
72.59643005126952
 30
0.0
 11
62.127502859375
 21
22.11025305126952
 31
0.0
  0
LINE
  5
330
330
1F
100
AcDbEntity
  8
0
  6
Continuous
 62
     7
100
AcDbLine
 10
1.889345359375
 20
12.14643005126953
 30
0.0
 11
1.889345359375
 21
70.88458805126953
 31
0.0
  0
LINE
  5
331
330
1F
100
AcDbEntity
  8
0
  6
Continuous
 62
     7
100
AcDbLine
 10
6.001012359375011
 20
12.14643005126953
 30
0.0
 11
6.001012359375011
 21
66.77292055126952
 31
0.0
  0
LINE
  5
332
330
1F
100
AcDbEntity
  8
0
  6
Continuous
 62
     7
100
AcDbLine
 10
78.627502859375
 20
16.92540555126952
 30
0.0
 11
58.848527359375
 21
16.92540555126952
 31
0.0
  0
LINE
  5
333
330
1F
100
AcDbEntity
  8
0
  6
Continuous
 62
     7
100
AcDbLine
 10
-4.117431640625
 20
76.89136505126953
 30
0.0
 11
-4.117431640625
 21
12.14643005126953
 31
0.0
  0
LINE
  5
334
330
1F
100
AcDbEntity
  8
0
  6
Continuous
 62
     7
100
AcDbLine
 10
2.132568359375
 20
-6.353569948730481
 30
0.0
 11
2.132568359375
 21
6.146430051269533
 31
0.0
  0
LINE
  5
335
330
1F
100
AcDbEntity
  8
0
  6
Continuous
 62
     7
100
AcDbLine
 10
2.132568359375
 20
6.146430051269533
 30
0.0
 11
-2.117431640625
 21
6.146430051269533
 31
0.0
  0
LINE
  5
336
330
1F
100
AcDbEntity
  8
0
  6
Continuous
 62
     7
100
AcDbLine
 10
52.16367985937501
 20
12.14643005126953
 30
0.0
 11
1.632568359375
 21
12.14643005126953
 31
0.0
  0
LINE
  5
337
330
1F
100
AcDbEntity
  8
0
  6
Continuous
 62
     7
100
AcDbLine
 10
1.132568359375
 20
6.146430051269533
 30
0.0
 11
1.132568359375
 21
71.64136505126953
 31
0.0
  0
LINE
  5
338
330
1F
100
AcDbEntity
  8
0
  6
Continuous
 62
     7
100
AcDbLine
 10
16.41665135937501
 20
-78.73356994873046
 30
0.0
 11
49.24036135937496
 21
-78.73356994873046
 31
0.0
  0
LINE
  5
339
330
1F
100
AcDbEntity
  8
0
  6
Continuous
 62
     7
100
AcDbLine
 10
57.348527359375
 20
-4.353569948730481
 30
0.0
 11
57.348527359375
 21
15.42540555126952
 31
0.0
  0
LINE
  5
33A
330
1F
100
AcDbEntity
  8
0
  6
Continuous
 62
     7
100
AcDbLine
 10
78.627502859375
 20
-83.88356994873047
 30
0.0
 11
78.627502859375
 21
-56.48356994873048
 31
0.0
  0
LINE
  5
33B
330
1F
100
AcDbEntity
  8
0
  6
Continuous
 62
     7
100
AcDbLine
 10
78.62750285937499
 20
-56.48356994873046
 30
0.0
 11
80.62750285937499
 21
-56.98356994873046
 31
0.0
  0
LINE
  5
33C
330
1F
100
AcDbEntity
  8
0
  6
Continuous
 62
     7
100
AcDbLine
 10
78.62750285937504
 20
-63.98356994873047
 30
0.0
 11
80.62750285937504
 21
-63.48356994873047
 31
0.0
  0
LINE
  5
33D
330
1F
100
AcDbEntity
  8
0
  6
Continuous
 62
     7
100
AcDbLine
 10
78.62750285937504
 20
-83.88356994873047
 30
0.0
 11
80.62750285937504
 21
-83.38356994873047
 31
0.0
  0
LINE
  5
33E
330
1F
100
AcDbEntity
  8
0
  6
Continuous
 62
     7
100
AcDbLine
 10
56.25237235937499
 20
-63.98356994873046
 30
0.0
 11
78.627502859375
 21
-63.98356994873046
 31
0.0
  0
LINE
  5
33F
330
1F
100
AcDbEntity
  8
0
  6
Continuous
 62
     7
100
AcDbLine
 10
68.127502859375
 20
-56.48356994873048
 30
0.0
 11
68.127502859375
 21
-56.23356994873048
 31
0.0
  0
LINE
  5
340
330
1F
100
AcDbEntity
  8
0
  6
Continuous
 62
     7
100
AcDbLine
 10
68.127502859375
 20
-56.23356994873046
 30
0.0
 11
80.627502859375
 21
-56.23356994873046
 31
0.0
  0
LINE
  5
341
330
1F
100
AcDbEntity
  8
0
  6
Continuous
 62
     7
100
AcDbLine
 10
1.177502859375011
 20
-52.33356994873049
 30
0.0
 11
80.627502859375
 21
-52.33356994873049
 31
0.0
  0
LINE
  5
342
330
1F
100
AcDbEntity
  8
0
  6
Continuous
 62
     7
100
AcDbLine
 10
56.348527359375
 20
-56.48356994873046
 30
0.0
 11
78.627502859375
 21
-56.48356994873046
 31
0.0
  0
LINE
  5
343
330
1F
100
AcDbEntity
  8
0
  6
Continuous
 62
     7
100
AcDbLine
 10
80.627502859375
 20
-43.98356994873048
 30
0.0
 11
80.627502859375
 21
-43.73356994873048
 31
0.0
  0
LINE
  5
344
330
1F
100
AcDbEntity
  8
0
  6
Continuous
 62
     7
100
AcDbLine
 10
68.127502859375
 20
-43.73356994873048
 30
0.0
 11
68.127502859375
 21
-45.23356994873048
 31
0.0
  0
LINE
  5
345
330
1F
100
AcDbEntity
  8
0
  6
Continuous
 62
     7
100
AcDbLine
 10
68.127502859375
 20
-45.23356994873048
 30
0.0
 11
80.627502859375
 21
-45.23356994873048
 31
0.0
  0
LINE
  5
346
330
1F
100
AcDbEntity
  8
0
  6
Continuous
 62
     7
100
AcDbLine
 10
68.127502859375
 20
-43.73356994873048
 30
0.0
 11
80.627502859375
 21
-43.73356994873048
 31
0.0
  0
LINE
  5
347
330
1F
100
AcDbEntity
  8
0
  6
Continuous
 62
     7
100
AcDbLine
 10
47.14217835937501
 20
-83.88356994873047
 30
0.0
 11
78.627502859375
 21
-83.88356994873047
 31
0.0
  0
LINE
  5
348
330
1F
100
AcDbEntity
  8
0
  6
Continuous
 62
     7
100
AcDbLine
 10
80.627502859375
 20
-43.98356994873048
 30
0.0
 11
80.627502859375
 21
-83.38356994873047
 31
0.0
  0
LINE
  5
349
330
1F
100
AcDbEntity
  8
0
  6
Continuous
 62
     7
100
AcDbLine
 10
1.941585359374983
 20
-43.98356994873048
 30
0.0
 11
68.127502859375
 21
-43.98356994873048
 31
0.0
  0
LINE
  5
34A
330
1F
100
AcDbEntity
  8
0
  6
Continuous
 62
     7
100
AcDbLine
 10
27.30750285937501
 20
-81.88356994873047
 30
0.0
 11
18.31460985937497
 21
-81.88356994873047
 31
0.0
  0
LINE
  5
34B
330
1F
100
AcDbEntity
  8
0
  6
Continuous
 62
     7
100
AcDbLine
 10
28.30750285937501
 20
-82.13356994873047
 30
0.0
 11
37.30750285937501
 21
-82.13356994873047
 31
0.0
  0
LINE
  5
34C
330
1F
100
AcDbEntity
  8
0
  6
Continuous
 62
     7
100
AcDbLine
 10
37.80750285937501
 20
-81.63356994873047
 30
0.0
 11
37.80750285937501
 21
-80.88356994873047
 31
0.0
  0
LINE
  5
34D
330
1F
100
AcDbEntity
  8
0
  6
Continuous
 62
     7
100
AcDbLine
 10
37.80750285937501
 20
-80.88356994873047
 30
0.0
 11
46.363296859375
 21
-80.88356994873047
 31
0.0
  0
LINE
  5
34E
330
1F
100
AcDbEntity
  8
0
  6
Continuous
 62
     7
100
AcDbLine
 10
37.80750285937501
 20
-81.13356994873047
 30
0.0
 11
46.363296859375
 21
-81.13356994873047
 31
0.0
  0
LINE
  5
34F
330
1F
100
AcDbEntity
  8
0
  6
Continuous
 62
     7
100
AcDbLine
 10
27.80750285937501
 20
-81.63356994873047
 30
0.0
 11
27.80750285937501
 21
-80.88356994873047
 31
0.0
  0
LINE
  5
350
330
1F
100
AcDbEntity
  8
0
  6
Continuous
 62
     7
100
AcDbLine
 10
50.87514285937499
 20
-63.60250494873048
 30
0.0
 11
49.60092985937499
 21
-78.16682594873049
 31
0.0
  0
LINE
  5
351
330
1F
100
AcDbEntity
  8
0
  6
Continuous
 62
     7
100
AcDbLine
 10
12.95553535937501
 20
-77.13356994873047
 30
0.0
 11
14.31460985937497
 21
-77.13356994873047
 31
0.0
  0
LINE
  5
352
330
1F
100
AcDbEntity
  8
0
  6
Continuous
 62
     7
100
AcDbLine
 10
18.62526985937501
 20
-81.13356994873047
 30
0.0
 11
27.80750285937501
 21
-81.13356994873047
 31
0.0
  0
LINE
  5
353
330
1F
100
AcDbEntity
  8
0
  6
Continuous
 62
     7
100
AcDbLine
 10
14.31460985937497
 20
-76.88356994873047
 30
0.0
 11
12.95553535937501
 21
-76.88356994873047
 31
0.0
  0
LINE
  5
354
330
1F
100
AcDbEntity
  8
0
  6
Continuous
 62
     7
100
AcDbLine
 10
52.77761035937499
 20
-62.83356994873049
 30
0.0
 11
51.69528085937498
 21
-62.83356994873049
 31
0.0
  0
LINE
  5
355
330
1F
100
AcDbEntity
  8
0
  6
Continuous
 62
     7
100
AcDbLine
 10
50.69146085937496
 20
-62.83356994873049
 30
0.0
 11
49.35188085937496
 21
-78.14503694873048
 31
0.0
  0
LINE
  5
356
330
1F
100
AcDbEntity
  8
0
  6
Continuous
 62
     7
100
AcDbLine
 10
51.69528085937498
 20
-62.83356994873049
 30
0.0
 11
8.196024859374972
 21
-62.83356994873049
 31
0.0
  0
LINE
  5
357
330
1F
100
AcDbEntity
  8
0
  6
Continuous
 62
     7
100
AcDbLine
 10
18.62526985937501
 20
-80.88356994873047
 30
0.0
 11
27.80750285937501
 21
-80.88356994873047
 31
0.0
  0
LINE
  5
358
330
1F
100
AcDbEntity
  8
0
  6
Continuous
 62
     7
100
AcDbLine
 10
51.64772385937496
 20
-63.37714794873048
 30
0.0
 11
50.34807585937496
 21
-78.23219294873047
 31
0.0
  0
LINE
  5
359
330
1F
100
AcDbEntity
  8
0
  6
Continuous
 62
     7
100
AcDbLine
 10
46.363296859375
 20
-81.88356994873047
 30
0.0
 11
38.30750285937501
 21
-81.88356994873047
 31
0.0
  0
LINE
  5
35A
330
1F
100
AcDbEntity
  8
0
  6
Continuous
 62
     7
100
AcDbLine
 10
14.00394985937498
 20
-77.88356994873047
 30
0.0
 11
12.95553535937501
 21
-77.88356994873047
 31
0.0
  0
LINE
  5
35B
330
1F
100
AcDbEntity
  8
0
  6
Continuous
 62
     7
100
AcDbLine
 10
51.86128385937499
 20
-83.88356994873047
 30
0.0
 11
14.30750285937501
 21
-83.88356994873047
 31
0.0
  0
LINE
  5
35C
330
1F
100
AcDbEntity
  8
0
  6
Continuous
 62
     7
100
AcDbLine
 10
-4.170694640625015
 20
-53.48356994873046
 30
0.0
 11
-0.150295140625019
 21
-53.48356994873046
 31
0.0
  0
LINE
  5
35D
330
1F
100
AcDbEntity
  8
0
  6
Continuous
 62
     7
100
AcDbLine
 10
13.05750285937501
 20
-78.73356994873046
 30
0.0
 11
13.00047035937502
 21
-78.73356994873046
 31
0.0
  0
LINE
  5
35E
330
1F
100
AcDbEntity
  8
0
  6
Continuous
 62
     7
100
AcDbLine
 10
13.30750285937501
 20
-78.98356994873048
 30
0.0
 11
13.30750285937501
 21
-81.73356994873048
 31
0.0
  0
LINE
  5
35F
330
1F
100
AcDbEntity
  8
0
  6
Continuous
 62
     7
100
AcDbLine
 10
-3.867431640625
 20
-52.33356994873049
 30
0.0
 11
1.177502859375011
 21
-52.33356994873049
 31
0.0
  0
LINE
  5
360
330
1F
100
AcDbEntity
  8
0
  6
Continuous
 62
     7
100
AcDbLine
 10
7.807503373798597
 20
-82.73356994873046
 30
0.0
 11
11.13732020585093
 21
-82.73356994873046
 31
0.0
  0
LINE
  5
361
330
1F
100
AcDbEntity
  8
0
  6
Continuous
 62
     7
100
AcDbLine
 10
55.94852735937499
 20
-57.48356994873048
 30
0.0
 11
56.19852735937499
 21
-57.73356994873049
 31
0.0
  0
LINE
  5
362
330
1F
100
AcDbEntity
  8
0
  6
Continuous
 62
     7
100
AcDbLine
 10
53.58234235937496
 20
-64.21178094873049
 30
0.0
 11
52.27258085937495
 21
-79.1824219487305
 31
0.0
  0
LINE
  5
363
330
1F
100
AcDbEntity
  8
0
  6
Continuous
 62
     7
100
AcDbLine
 10
53.831391359375
 20
-63.98356994873046
 30
0.0
 11
56.25237235937499
 21
-63.98356994873046
 31
0.0
  0
LINE
  5
364
330
1F
100
AcDbEntity
  8
0
  6
Continuous
 62
     7
100
AcDbLine
 10
57.34852735937493
 20
-57.48356994873048
 30
0.0
 11
57.25221985937494
 21
-63.00102244873047
 31
0.0
  0
LINE
  5
365
330
1F
100
AcDbEntity
  8
0
  6
Continuous
 62
     7
100
AcDbLine
 10
52.19852735937499
 20
-57.73356994873048
 30
0.0
 11
52.19852735937499
 21
-57.48356994873048
 31
0.0
  0
LINE
  5
366
330
1F
100
AcDbEntity
  8
0
  6
Continuous
 62
     7
100
AcDbLine
 10
56.348527359375
 20
-56.48356994873046
 30
0.0
 11
52.757544359375
 21
-56.48356994873046
 31
0.0
  0
LINE
  5
367
330
1F
100
AcDbEntity
  8
0
  6
Continuous
 62
     7
100
AcDbLine
 10
52.19852735937499
 20
-57.48356994873046
 30
0.0
 11
55.94852735937499
 21
-57.48356994873046
 31
0.0
  0
LINE
  5
368
330
1F
100
AcDbEntity
  8
0
  6
Continuous
 62
     7
100
AcDbLine
 10
50.80750336476432
 20
-82.73356994873046
 30
0.0
 11
51.03968912342303
 21
-80.07967375961773
 31
0.0
  0
LINE
  5
369
330
1F
100
AcDbEntity
  8
0
  6
Continuous
 62
     7
100
AcDbLine
 10
52.77761035937499
 20
-62.83356994873049
 30
0.0
 11
55.94852735937499
 21
-62.83356994873049
 31
0.0
  0
LINE
  5
36A
330
1F
100
AcDbEntity
  8
0
  6
Continuous
 62
     7
100
AcDbLine
 10
56.19852735937499
 20
-62.58356994873048
 30
0.0
 11
56.19852735937499
 21
-57.73356994873048
 31
0.0
  0
LINE
  5
36B
330
1F
100
AcDbEntity
  8
0
  6
Continuous
 62
     7
100
AcDbLine
 10
80.627502859375
 20
79.14136505126953
 30
0.0
 11
80.627502859375
 21
17.42540555126952
 31
0.0
  0
LINE
  5
36C
330
1F
100
AcDbEntity
  8
0
  6
Continuous
 62
     7
100
AcDbLine
 10
-4.867431640625
 20
-6.353569948730481
 30
0.0
 11
56.848527359375
 21
-6.353569948730481
 31
0.0
  0
LINE
  5
36D
330
1F
100
AcDbEntity
  8
0
  6
Continuous
 62
     7
100
AcDbLine
 10
-5.367431640625
 20
79.14136505126953
 30
0.0
 11
-5.367431640625
 21
-4.353569948730481
 31
0.0
  0
LINE
  5
36E
330
1F
100
AcDbEntity
  8
0
  6
Continuous
 62
     7
100
AcDbLine
 10
-3.867431640625
 20
-44.98356994873048
 30
0.0
 11
1.382568359375
 21
-44.98356994873048
 31
0.0
  0
LINE
  5
36F
330
1F
100
AcDbEntity
  8
0
  6
Continuous
 62
     7
100
AcDbLine
 10
-4.367431640625
 20
-43.98356994873048
 30
0.0
 11
0.823551359375017
 21
-43.98356994873048
 31
0.0
  0
LINE
  5
370
330
1F
100
AcDbEntity
  8
0
  6
Continuous
 62
     7
100
AcDbLine
 10
1.382568359375
 20
-45.23356994873048
 30
0.0
 11
1.382568359375
 21
-44.98356994873048
 31
0.0
  0
LINE
  5
371
330
1F
100
AcDbEntity
  8
0
  6
Continuous
 62
     7
100
AcDbLine
 10
12.15750285937498
 20
-81.73356994873049
 30
0.0
 11
12.09841735937497
 21
-80.0415809487305
 31
0.0
  0
LINE
  5
372
330
1F
100
AcDbEntity
  8
0
  6
Continuous
 62
     7
100
AcDbLine
 10
7.807503373798597
 20
-82.73356994873045
 30
0.0
 11
7.250210805495643
 21
-76.36368843279831
 31
0.0
  0
LINE
  5
373
330
1F
100
AcDbEntity
  8
0
  6
Continuous
 62
     7
100
AcDbLine
 10
13.00047035937502
 20
-78.73356994873046
 30
0.0
 11
12.95553535937501
 21
-78.73356994873046
 31
0.0
  0
LINE
  5
374
330
1F
100
AcDbEntity
  8
0
  6
Continuous
 62
     7
100
AcDbLine
 10
1.874088359374934
 20
-60.80918394873048
 30
0.0
 11
1.152534359374935
 21
-52.56178094873048
 31
0.0
  0
LINE
  5
375
330
1F
100
AcDbEntity
  8
0
  6
Continuous
 62
     7
100
AcDbLine
 10
2.058432359374988
 20
-61.02887644873046
 30
0.0
 11
5.662838359374986
 21
-61.99467444873046
 31
0.0
  0
LINE
  5
376
330
1F
100
AcDbEntity
  8
0
  6
Continuous
 62
     7
100
AcDbLine
 10
-4.117431640625
 20
-52.08356994873048
 30
0.0
 11
-4.117431640625
 21
-45.23356994873048
 31
0.0
  0
LINE
  5
377
330
1F
100
AcDbEntity
  8
0
  6
Continuous
 62
     7
100
AcDbLine
 10
-5.367431640625049
 20
-44.98356994873049
 30
0.0
 11
-5.17035164062505
 21
-52.50974694873048
 31
0.0
  0
LINE
  5
378
330
1F
100
AcDbEntity
  8
0
  6
Continuous
 62
     7
100
AcDbLine
 10
0.798645859374971
 20
-61.71158794873047
 30
0.0
 11
0.09875335937497
 21
-53.71178094873047
 31
0.0
  0
LINE
  5
379
330
1F
100
AcDbEntity
  8
0
  6
Continuous
 62
     7
100
AcDbLine
 10
4.756482859375042
 20
-62.94238444873051
 30
0.0
 11
0.98298985937503
 21
-61.9312804487305
 31
0.0
  0
LINE
  5
37A
330
1F
100
AcDbEntity
  8
0
  6
Continuous
 62
     7
100
AcDbLine
 10
5.83274335937498
 20
-73.35673344873044
 30
0.0
 11
4.940826359374981
 21
-63.16207694873045
 31
0.0
  0
LINE
  5
37B
330
1F
100
AcDbEntity
  8
0
  6
Continuous
 62
     7
100
AcDbLine
 10
3.548317859374929
 20
-54.12985894873047
 30
0.0
 11
3.98409685937493
 21
-59.11083244873048
 31
0.0
  0
LINE
  5
37C
330
1F
100
AcDbEntity
  8
0
  6
Continuous
 62
     7
100
AcDbLine
 10
4.500934859374953
 20
-53.54460594873047
 30
0.0
 11
1.761399359374961
 21
-53.78428394873047
 31
0.0
  0
LINE
  5
37D
330
1F
100
AcDbEntity
  8
0
  6
Continuous
 62
     7
100
AcDbLine
 10
4.500934859375034
 20
-53.54460594873048
 30
0.0
 11
5.023869359375036
 21
-59.52177394873048
 31
0.0
  0
LINE
  5
37E
330
1F
100
AcDbEntity
  8
0
  6
Continuous
 62
     7
100
AcDbLine
 10
4.709453859374906
 20
-58.79641694873049
 30
0.0
 11
4.317252859374906
 21
-54.31354094873048
 31
0.0
  0
LINE
  5
37F
330
1F
100
AcDbEntity
  8
0
  6
Continuous
 62
     7
100
AcDbLine
 10
4.525771859374986
 20
-59.56535194873047
 30
0.0
 11
5.02386935937497
 21
-59.52177394873047
 31
0.0
  0
LINE
  5
380
330
1F
100
AcDbEntity
  8
0
  6
Continuous
 62
     7
100
AcDbLine
 10
5.023869359374999
 20
-59.5217739487305
 30
0.0
 11
6.468639359375011
 21
-60.2899719487305
 31
0.0
  0
LINE
  5
381
330
1F
100
AcDbEntity
  8
0
  6
Continuous
 62
     7
100
AcDbLine
 10
7.825132859375013
 20
-73.18242194873048
 30
0.0
 11
6.971078859375011
 21
-63.42054094873048
 31
0.0
  0
LINE
  5
382
330
1F
100
AcDbEntity
  8
0
  6
Continuous
 62
     7
100
AcDbLine
 10
7.923695859375
 20
-62.83528794873047
 30
0.0
 11
8.821327359375003
 21
-73.09526644873047
 31
0.0
  0
LINE
  5
383
330
1F
100
AcDbEntity
  8
0
  6
Continuous
 62
     7
100
AcDbLine
 10
7.425598359375063
 20
-62.87886544873047
 30
0.0
 11
7.923695859375028
 21
-62.83528794873047
 31
0.0
  0
LINE
  5
384
330
1F
100
AcDbEntity
  8
0
  6
Continuous
 62
     7
100
AcDbLine
 10
7.740013859374994
 20
-63.60422294873047
 30
0.0
 11
8.572278859374991
 21
-73.11705494873044
 31
0.0
  0
LINE
  5
385
330
1F
100
AcDbEntity
  8
0
  6
Continuous
 62
     7
100
AcDbLine
 10
14.180726359375
 20
-77.95679294873054
 30
0.0
 11
17.96105635937498
 21
-81.73712344873053
 31
0.0
  0
LINE
  5
386
330
1F
100
AcDbEntity
  8
0
  6
Continuous
 62
     7
100
AcDbLine
 10
14.49138635937495
 20
-77.20679294873052
 30
0.0
 11
18.27171685937494
 21
-80.98712344873051
 31
0.0
  0
LINE
  5
387
330
1F
100
AcDbEntity
  8
0
  6
Continuous
 62
     7
100
AcDbLine
 10
14.66816335937498
 20
-77.03001644873052
 30
0.0
 11
18.44849335937498
 21
-80.81034644873053
 31
0.0
  0
LINE
  5
388
330
1F
100
AcDbEntity
  8
0
  6
Continuous
 62
     7
100
AcDbLine
 10
62.127502859375
 20
77.89136505126953
 30
0.0
 11
66.627502859375
 21
77.89136505126953
 31
0.0
  0
LINE
  5
389
330
1F
100
AcDbEntity
  8
0
  6
Continuous
 62
     7
100
AcDbLine
 10
62.127502859375
 20
77.89136505126953
 30
0.0
 11
62.127502859375
 21
78.39136505126953
 31
0.0
  0
LINE
  5
38A
330
1F
100
AcDbEntity
  8
0
  6
Continuous
 62
     7
100
AcDbLine
 10
-3.617431640625
 20
12.14643005126953
 30
0.0
 11
-4.117431640625
 21
12.14643005126953
 31
0.0
  0
LINE
  5
38B
330
1F
100
AcDbEntity
  8
0
  6
Continuous
 62
     7
100
AcDbLine
 10
-3.617431640625
 20
12.14643005126953
 30
0.0
 11
-3.617431640625
 21
7.646430051269533
 31
0.0
  0
LINE
  5
38C
330
1F
100
AcDbEntity
  8
0
  6
Continuous
 62
     7
100
AcDbLine
 10
55.69852735937499
 20
8.646430051269533
 30
0.0
 11
56.19852735937499
 21
8.646430051269533
 31
0.0
  0
LINE
  5
38D
330
1F
100
AcDbEntity
  8
0
  6
Continuous
 62
     7
100
AcDbLine
 10
55.69852735937499
 20
8.646430051269533
 30
0.0
 11
55.69852735937499
 21
7.646430051269533
 31
0.0
  0
LINE
  5
38E
330
1F
100
AcDbEntity
  8
0
  6
Continuous
 62
     7
100
AcDbLine
 10
65.627502859375
 20
18.57540555126953
 30
0.0
 11
66.627502859375
 21
18.57540555126953
 31
0.0
  0
LINE
  5
38F
330
1F
100
AcDbEntity
  8
0
  6
Continuous
 62
     7
100
AcDbLine
 10
65.627502859375
 20
18.07540555126953
 30
0.0
 11
65.627502859375
 21
18.57540555126953
 31
0.0
  0
LINE
  5
390
330
1F
100
AcDbEntity
  8
0
  6
Continuous
 62
     7
100
AcDbLine
 10
62.127502859375
 20
-43.98356994873048
 30
0.0
 11
62.127502859375
 21
-44.98356994873048
 31
0.0
  0
LINE
  5
391
330
1F
100
AcDbEntity
  8
0
  6
Continuous
 62
     7
100
AcDbLine
 10
62.12750285937493
 20
-53.54460594873048
 30
0.0
 11
67.67108085937494
 21
-54.02960594873048
 31
0.0
  0
LINE
  5
392
330
1F
100
AcDbEntity
  8
0
  6
Continuous
 62
     7
100
AcDbLine
 10
10.0247043494094
 20
78.39136492855647
 30
0.0
 11
62.12750293402228
 21
26.28856551316938
 31
0.0
  0
LINE
  5
393
330
1F
100
AcDbEntity
  8
0
  6
Continuous
 62
     7
100
AcDbLine
 10
10.0247043494094
 20
78.39136492855647
 30
0.0
 11
62.12750293402228
 21
26.28856551316938
 31
0.0
  0
LINE
  5
394
330
1F
100
AcDbEntity
  8
0
  6
Continuous
 62
     7
100
AcDbLine
 10
6.489170349409484
 20
78.3913649567433
 30
0.0
 11
62.12750290583551
 21
22.75303151316932
 31
0.0
  0
LINE
  5
395
330
1F
100
AcDbEntity
  8
0
  6
Continuous
 62
     7
100
AcDbLine
 10
51.12695736971096
 20
-79.08219283058912
 30
0.0
 11
52.52856135937495
 21
-63.06178094873046
 31
0.0
  0
LINE
  5
396
330
1F
100
AcDbEntity
  8
0
  6
Continuous
 62
     7
100
AcDbLine
 10
48.18696388443966
 20
-82.73356994873046
 30
0.0
 11
50.80750336476432
 21
-82.73356994873046
 31
0.0
  0
LINE
  5
397
330
1F
100
AcDbEntity
  8
0
  6
Continuous
 62
     7
100
AcDbLine
 10
6.978496888167842
 20
-73.25798496921475
 30
0.0
 11
6.031525859375029
 21
-62.43405944873047
 31
0.0
  0
LINE
  5
398
330
1F
100
AcDbEntity
  8
0
  6
Continuous
 62
     7
100
AcDbLine
 10
14.30750285937501
 20
-82.73356994873046
 30
0.0
 11
47.14217835937501
 21
-82.73356994873046
 31
0.0
  0
ARC
  5
399
330
1F
100
AcDbEntity
  8
0
  6
Continuous
 62
     7
100
AcDbCircle
 10
-48.44249714062499
 20
78.44462755126952
 30
0.0
 40
1.0
100
AcDbArc
 50
91.4999999999999
 51
180.0
  0
ARC
  5
39A
330
1F
100
AcDbEntity
  8
0
  6
Continuous
 62
     7
100
AcDbCircle
 10
-75.96619164062503
 20
62.32560105126953
 30
0.0
 40
0.25
100
AcDbArc
 50
272.0000000000003
 51
352.2145310000005
  0
ARC
  5
39B
330
1F
100
AcDbEntity
  8
0
  6
Continuous
 62
     7
100
AcDbCircle
 10
7.501012359375011
 20
66.77292055126952
 30
0.0
 40
1.5
100
AcDbArc
 50
90.00000000000001
 51
180.0
  0
ARC
  5
39C
330
1F
100
AcDbEntity
  8
0
  6
Continuous
 62
     7
100
AcDbCircle
 10
-2.617431640625
 20
76.89136505126953
 30
0.0
 40
1.5
100
AcDbArc
 50
90.00000000000001
 51
180.0
  0
ARC
  5
39D
330
1F
100
AcDbEntity
  8
0
  6
Continuous
 62
     7
100
AcDbCircle
 10
2.632568359375
 20
71.64136505126953
 30
0.0
 40
1.5
100
AcDbArc
 50
90.00000000000001
 51
180.0
  0
ARC
  5
39E
330
1F
100
AcDbEntity
  8
0
  6
Continuous
 62
     7
100
AcDbCircle
 10
3.389345359375
 20
70.88458805126953
 30
0.0
 40
1.5
100
AcDbArc
 50
90.00000000000001
 51
180.0
  0
ARC
  5
39F
330
1F
100
AcDbEntity
  8
0
  6
Continuous
 62
     7
100
AcDbCircle
 10
-4.867431640625
 20
79.14136505126953
 30
0.0
 40
0.5
100
AcDbArc
 50
90.00000000000001
 51
180.0
  0
ARC
  5
3A0
330
1F
100
AcDbEntity
  8
0
  6
Continuous
 62
     7
100
AcDbCircle
 10
67.627502859375
 20
47.44952755126953
 30
0.0
 40
0.5
100
AcDbArc
 50
274.9999999999997
 51
0.0
  0
ARC
  5
3A1
330
1F
100
AcDbEntity
  8
0
  6
Continuous
 62
     7
100
AcDbCircle
 10
67.627502859375
 20
35.48333255126953
 30
0.0
 40
0.5
100
AcDbArc
 50
0.0
 51
85.00000000000028
  0
ARC
  5
3A2
330
1F
100
AcDbEntity
  8
0
  6
Continuous
 62
     7
100
AcDbCircle
 10
61.627502859375
 20
72.64136505126953
 30
0.0
 40
0.5
100
AcDbArc
 50
0.0
 51
90.00000000000001
  0
ARC
  5
3A3
330
1F
100
AcDbEntity
  8
0
  6
Continuous
 62
     7
100
AcDbCircle
 10
67.877502859375
 20
69.83318555126954
 30
0.0
 40
0.25
100
AcDbArc
 50
0.0
 51
73.30075599999975
  0
ARC
  5
3A4
330
1F
100
AcDbEntity
  8
0
  6
Continuous
 62
     7
100
AcDbCircle
 10
67.877502859375
 20
66.41042455126953
 30
0.0
 40
0.25
100
AcDbArc
 50
0.0
 51
73.30075599999975
  0
ARC
  5
3A5
330
1F
100
AcDbEntity
  8
0
  6
Continuous
 62
     7
100
AcDbCircle
 10
65.26058085937498
 20
64.84643205126952
 30
0.0
 40
2.5
100
AcDbArc
 50
73.30075600000016
 51
90.00000000000001
  0
ARC
  5
3A6
330
1F
100
AcDbEntity
  8
0
  6
Continuous
 62
     7
100
AcDbCircle
 10
65.26058085937498
 20
68.26919305126953
 30
0.0
 40
2.5
100
AcDbArc
 50
73.30075600000016
 51
90.00000000000001
  0
ARC
  5
3A7
330
1F
100
AcDbEntity
  8
0
  6
Continuous
 62
     7
100
AcDbCircle
 10
14.00394985937498
 20
-78.13356994873047
 30
0.0
 40
0.25
100
AcDbArc
 50
45.00000000000001
 51
90.00000000000001
  0
ARC
  5
3A8
330
1F
100
AcDbEntity
  8
0
  6
Continuous
 62
     7
100
AcDbCircle
 10
14.31460985937497
 20
-77.38356994873047
 30
0.0
 40
0.25
100
AcDbArc
 50
45.00000000000001
 51
90.00000000000001
  0
ARC
  5
3A9
330
1F
100
AcDbEntity
  8
0
  6
Continuous
 62
     7
100
AcDbCircle
 10
14.31460985937497
 20
-77.38356994873047
 30
0.0
 40
0.5
100
AcDbArc
 50
45.00000000000001
 51
90.00000000000001
  0
ARC
  5
3AA
330
1F
100
AcDbEntity
  8
0
  6
Continuous
 62
     7
100
AcDbCircle
 10
18.31460985937497
 20
-81.38356994873047
 30
0.0
 40
0.5
100
AcDbArc
 50
225.0
 51
270.0
  0
ARC
  5
3AB
330
1F
100
AcDbEntity
  8
0
  6
Continuous
 62
     7
100
AcDbCircle
 10
18.62526985937501
 20
-80.63356994873047
 30
0.0
 40
0.25
100
AcDbArc
 50
225.0
 51
270.0
  0
ARC
  5
3AC
330
1F
100
AcDbEntity
  8
0
  6
Continuous
 62
     7
100
AcDbCircle
 10
5.533428859374965
 20
-62.47763694873049
 30
0.0
 40
0.5
100
AcDbArc
 50
5.000000000000186
 51
75.00000000000003
  0
ARC
  5
3AD
330
1F
100
AcDbEntity
  8
0
  6
Continuous
 62
     7
100
AcDbCircle
 10
4.691777859375009
 20
-63.18386594873047
 30
0.0
 40
0.25
100
AcDbArc
 50
4.999999999999815
 51
74.99999999999964
  0
ARC
  5
3AE
330
1F
100
AcDbEntity
  8
0
  6
Continuous
 62
     7
100
AcDbCircle
 10
7.382020359374962
 20
-62.38076844873046
 30
0.0
 40
0.5
100
AcDbArc
 50
184.9999999999997
 51
274.9999999999997
  0
ARC
  5
3AF
330
1F
100
AcDbEntity
  8
0
  6
Continuous
 62
     7
100
AcDbCircle
 10
7.469176359375012
 20
-63.37696294873047
 30
0.0
 40
0.5
100
AcDbArc
 50
94.9999999999998
 51
184.9999999999998
  0
ARC
  5
3B0
330
1F
100
AcDbEntity
  8
0
  6
Continuous
 62
     7
100
AcDbCircle
 10
6.233903359375006
 20
-60.73144544873048
 30
0.0
 40
0.5
100
AcDbArc
 50
5.000000000000186
 51
61.99999999999997
  0
ARC
  5
3B1
330
1F
100
AcDbEntity
  8
0
  6
Continuous
 62
     7
100
AcDbCircle
 10
1.047694359374987
 20
-61.68979894873047
 30
0.0
 40
0.25
100
AcDbArc
 50
184.9999999999998
 51
254.9999999999996
  0
ARC
  5
3B2
330
1F
100
AcDbEntity
  8
0
  6
Continuous
 62
     7
100
AcDbCircle
 10
2.123137359374994
 20
-60.78739494873048
 30
0.0
 40
0.25
100
AcDbArc
 50
184.9999999999998
 51
254.9999999999996
  0
ARC
  5
3B3
330
1F
100
AcDbEntity
  8
0
  6
Continuous
 62
     7
100
AcDbCircle
 10
1.717821359374966
 20
-53.28618644873046
 30
0.0
 40
0.5
100
AcDbArc
 50
184.9999999999997
 51
274.9999999999997
  0
ARC
  5
3B4
330
1F
100
AcDbEntity
  8
0
  6
Continuous
 62
     7
100
AcDbCircle
 10
-4.170694640625015
 20
-52.48356994873046
 30
0.0
 40
1.0
100
AcDbArc
 50
181.5
 51
270.0
  0
ARC
  5
3B5
330
1F
100
AcDbEntity
  8
0
  6
Continuous
 62
     7
100
AcDbCircle
 10
0.903485359374997
 20
-52.58356994873049
 30
0.0
 40
0.25
100
AcDbArc
 50
4.999999999999815
 51
90.00000000000001
  0
ARC
  5
3B6
330
1F
100
AcDbEntity
  8
0
  6
Continuous
 62
     7
100
AcDbCircle
 10
-0.150295140625019
 20
-53.73356994873046
 30
0.0
 40
0.25
100
AcDbArc
 50
4.999999999999815
 51
90.00000000000001
  0
ARC
  5
3B7
330
1F
100
AcDbEntity
  8
0
  6
Continuous
 62
     7
100
AcDbCircle
 10
-3.867431640625
 20
-52.08356994873049
 30
0.0
 40
0.25
100
AcDbArc
 50
180.0
 51
270.0000000000001
  0
ARC
  5
3B8
330
1F
100
AcDbEntity
  8
0
  6
Continuous
 62
     7
100
AcDbCircle
 10
67.877502859375
 20
23.51466005126952
 30
0.0
 40
0.25
100
AcDbArc
 50
286.6992440000002
 51
0.0
  0
ARC
  5
3B9
330
1F
100
AcDbEntity
  8
0
  6
Continuous
 62
     7
100
AcDbCircle
 10
65.26058085937498
 20
25.07865255126953
 30
0.0
 40
2.5
100
AcDbArc
 50
270.0
 51
286.6992440000001
  0
ARC
  5
3BA
330
1F
100
AcDbEntity
  8
0
  6
Continuous
 62
     7
100
AcDbCircle
 10
-59.14279664062502
 20
69.58183955126952
 30
0.0
 40
0.25
100
AcDbArc
 50
274.9999999999997
 51
345.0010969999992
  0
ARC
  5
3BB
330
1F
100
AcDbEntity
  8
0
  6
Continuous
 62
     7
100
AcDbCircle
 10
-57.64872214062501
 20
73.22623905126952
 30
0.0
 40
0.25
100
AcDbArc
 50
94.99999999999976
 51
165.0010969999993
  0
ARC
  5
3BC
330
1F
100
AcDbEntity
  8
0
  6
Continuous
 62
     7
100
AcDbCircle
 10
-49.69249714062499
 20
74.42422855126952
 30
0.0
 40
0.25
100
AcDbArc
 50
274.9999999999997
 51
0.0
  0
ARC
  5
3BD
330
1F
100
AcDbEntity
  8
0
  6
Continuous
 62
     7
100
AcDbCircle
 10
-68.63440314062501
 20
61.32316505126954
 30
0.0
 40
7.15
100
AcDbArc
 50
95.00000000000004
 51
172.2145310000001
  0
ARC
  5
3BE
330
1F
100
AcDbEntity
  8
0
  6
Continuous
 62
     7
100
AcDbCircle
 10
-77.692497140625
 20
59.86516455126952
 30
0.0
 40
2.15
100
AcDbArc
 50
90.00000000000001
 51
180.0
  0
ARC
  5
3BF
330
1F
100
AcDbEntity
  8
0
  6
Continuous
 62
     7
100
AcDbCircle
 10
54.37651785937499
 20
-78.73356994873046
 30
0.0
 40
5.15
100
AcDbArc
 50
270.0
 51
355.0
  0
ARC
  5
3C0
330
1F
100
AcDbEntity
  8
0
  6
Continuous
 62
     7
100
AcDbCircle
 10
14.80750285937501
 20
59.46643005126953
 30
0.0
 40
1.5
100
AcDbArc
 50
90.00000000000001
 51
180.0
  0
ARC
  5
3C1
330
1F
100
AcDbEntity
  8
0
  6
Continuous
 62
     7
100
AcDbCircle
 10
26.82440535937496
 20
6.646430051269533
 30
0.0
 40
0.5
100
AcDbArc
 50
270.0
 51
355.0000000000002
  0
ARC
  5
3C2
330
1F
100
AcDbEntity
  8
0
  6
Continuous
 62
     7
100
AcDbCircle
 10
38.79060085937499
 20
6.646430051269533
 30
0.0
 40
0.5
100
AcDbArc
 50
184.9999999999998
 51
270.0
  0
ARC
  5
3C3
330
1F
100
AcDbEntity
  8
0
  6
Continuous
 62
     7
100
AcDbCircle
 10
1.632568359375
 20
12.64643005126953
 30
0.0
 40
0.5
100
AcDbArc
 50
180.0
 51
270.0000000000001
  0
ARC
  5
3C4
330
1F
100
AcDbEntity
  8
0
  6
Continuous
 62
     7
100
AcDbCircle
 10
4.440747859374994
 20
6.396430051269533
 30
0.0
 40
0.25
100
AcDbArc
 50
196.6992440000002
 51
270.0
  0
ARC
  5
3C5
330
1F
100
AcDbEntity
  8
0
  6
Continuous
 62
     7
100
AcDbCircle
 10
7.863508859374974
 20
6.396430051269533
 30
0.0
 40
0.25
100
AcDbArc
 50
196.6992440000002
 51
270.0
  0
ARC
  5
3C6
330
1F
100
AcDbEntity
  8
0
  6
Continuous
 62
     7
100
AcDbCircle
 10
50.75927285937502
 20
6.396430051269533
 30
0.0
 40
0.25
100
AcDbArc
 50
270.0
 51
343.3007559999998
  0
ARC
  5
3C7
330
1F
100
AcDbEntity
  8
0
  6
Continuous
 62
     7
100
AcDbCircle
 10
49.19528085937498
 20
9.013352051269521
 30
0.0
 40
2.5
100
AcDbArc
 50
343.3007559999999
 51
0.0
  0
ARC
  5
3C8
330
1F
100
AcDbEntity
  8
0
  6
Continuous
 62
     7
100
AcDbCircle
 10
9.427500859375016
 20
9.013352051269521
 30
0.0
 40
2.5
100
AcDbArc
 50
180.0
 51
196.699244
  0
ARC
  5
3C9
330
1F
100
AcDbEntity
  8
0
  6
Continuous
 62
     7
100
AcDbCircle
 10
6.004739859374979
 20
9.013352051269521
 30
0.0
 40
2.5
100
AcDbArc
 50
180.0
 51
196.699244
  0
ARC
  5
3CA
330
1F
100
AcDbEntity
  8
0
  6
Continuous
 62
     7
100
AcDbCircle
 10
58.54852735937499
 20
11.42834955126952
 30
0.0
 40
6.0
100
AcDbArc
 50
135.0000000000001
 51
180.0
  0
ARC
  5
3CB
330
1F
100
AcDbEntity
  8
0
  6
Continuous
 62
     7
100
AcDbCircle
 10
62.84558385937498
 20
15.72540555126952
 30
0.0
 40
6.0
100
AcDbArc
 50
90.00000000000001
 51
135.0000000000001
  0
ARC
  5
3CC
330
1F
100
AcDbEntity
  8
0
  6
Continuous
 62
     7
100
AcDbCircle
 10
61.627502859375
 20
22.11025305126952
 30
0.0
 40
0.5
100
AcDbArc
 50
280.8009170000005
 51
0.0
  0
ARC
  5
3CD
330
1F
100
AcDbEntity
  8
0
  6
Continuous
 62
     7
100
AcDbCircle
 10
52.16367985937501
 20
12.64643005126953
 30
0.0
 40
0.5
100
AcDbArc
 50
270.0
 51
349.199083
  0
ARC
  5
3CE
330
1F
100
AcDbEntity
  8
0
  6
Continuous
 62
     7
100
AcDbCircle
 10
58.19852735937499
 20
16.07540555126953
 30
0.0
 40
2.0
100
AcDbArc
 50
90.00000000000001
 51
180.0
  0
ARC
  5
3CF
330
1F
100
AcDbEntity
  8
0
  6
Continuous
 62
     7
100
AcDbCircle
 10
58.848527359375
 20
15.42540555126952
 30
0.0
 40
1.5
100
AcDbArc
 50
90.00000000000001
 51
180.0
  0
ARC
  5
3D0
330
1F
100
AcDbEntity
  8
0
  6
Continuous
 62
     7
100
AcDbCircle
 10
38.30750285937501
 20
-81.38356994873047
 30
0.0
 40
0.5
100
AcDbArc
 50
180.0
 51
270.0000000000001
  0
ARC
  5
3D1
330
1F
100
AcDbEntity
  8
0
  6
Continuous
 62
     7
100
AcDbCircle
 10
27.30750285937501
 20
-81.38356994873047
 30
0.0
 40
0.5
100
AcDbArc
 50
270.0
 51
0.0
  0
ARC
  5
3D2
330
1F
100
AcDbEntity
  8
0
  6
Continuous
 62
     7
100
AcDbCircle
 10
37.30750285937501
 20
-81.63356994873047
 30
0.0
 40
0.5
100
AcDbArc
 50
270.0
 51
0.0
  0
ARC
  5
3D3
330
1F
100
AcDbEntity
  8
0
  6
Continuous
 62
     7
100
AcDbCircle
 10
28.30750285937501
 20
-81.63356994873047
 30
0.0
 40
0.5
100
AcDbArc
 50
180.0
 51
270.0000000000001
  0
ARC
  5
3D4
330
1F
100
AcDbEntity
  8
0
  6
Continuous
 62
     7
100
AcDbCircle
 10
50.62609385937498
 20
-63.58071594873047
 30
0.0
 40
0.25
100
AcDbArc
 50
355.0000000000003
 51
85.00000000000021
  0
ARC
  5
3D5
330
1F
100
AcDbEntity
  8
0
  6
Continuous
 62
     7
100
AcDbCircle
 10
51.14962635937499
 20
-63.33356994873049
 30
0.0
 40
0.5
100
AcDbArc
 50
354.9999999999999
 51
90.0
  0
ARC
  5
3D6
330
1F
100
AcDbEntity
  8
0
  6
Continuous
 62
     7
100
AcDbCircle
 10
46.363296859375
 20
-77.88356994873047
 30
0.0
 40
3.25
100
AcDbArc
 50
270.0
 51
354.9999999999999
  0
ARC
  5
3D7
330
1F
100
AcDbEntity
  8
0
  6
Continuous
 62
     7
100
AcDbCircle
 10
46.363296859375
 20
-77.88356994873047
 30
0.0
 40
3.0
100
AcDbArc
 50
270.0
 51
354.9999999999999
  0
ARC
  5
3D8
330
1F
100
AcDbEntity
  8
0
  6
Continuous
 62
     7
100
AcDbCircle
 10
46.363296859375
 20
-77.88356994873047
 30
0.0
 40
4.0
100
AcDbArc
 50
270.0
 51
355.0
  0
ARC
  5
3D9
330
1F
100
AcDbEntity
  8
0
  6
Continuous
 62
     7
100
AcDbCircle
 10
14.30750285937501
 20
-81.73356994873046
 30
0.0
 40
2.15
100
AcDbArc
 50
180.0
 51
270.0000000000001
  0
ARC
  5
3DA
330
1F
100
AcDbEntity
  8
0
  6
Continuous
 62
     7
100
AcDbCircle
 10
14.30750285937501
 20
-81.73356994873046
 30
0.0
 40
1.0
100
AcDbArc
 50
180.0
 51
270.0000000000001
  0
ARC
  5
3DB
330
1F
100
AcDbEntity
  8
0
  6
Continuous
 62
     7
100
AcDbCircle
 10
47.14217835937501
 20
-78.73356994873046
 30
0.0
 40
5.15
100
AcDbArc
 50
270.0
 51
355.0
  0
ARC
  5
3DC
330
1F
100
AcDbEntity
  8
0
  6
Continuous
 62
     7
100
AcDbCircle
 10
56.25237235937499
 20
-62.98356994873046
 30
0.0
 40
1.0
100
AcDbArc
 50
270.0
 51
359.0000000000001
  0
ARC
  5
3DD
330
1F
100
AcDbEntity
  8
0
  6
Continuous
 62
     7
100
AcDbCircle
 10
55.94852735937499
 20
-62.58356994873049
 30
0.0
 40
0.25
100
AcDbArc
 50
270.0
 51
0.0
  0
ARC
  5
3DE
330
1F
100
AcDbEntity
  8
0
  6
Continuous
 62
     7
100
AcDbCircle
 10
53.831391359375
 20
-64.23356994873046
 30
0.0
 40
0.25
100
AcDbArc
 50
90.00000000000001
 51
175.0000000000003
  0
ARC
  5
3DF
330
1F
100
AcDbEntity
  8
0
  6
Continuous
 62
     7
100
AcDbCircle
 10
52.77761035937499
 20
-63.08356994873049
 30
0.0
 40
0.25
100
AcDbArc
 50
90.00000000000001
 51
175.0000000000003
  0
ARC
  5
3E0
330
1F
100
AcDbEntity
  8
0
  6
Continuous
 62
     7
100
AcDbCircle
 10
47.14217835937501
 20
-78.73356994873046
 30
0.0
 40
4.0
100
AcDbArc
 50
270.0
 51
355.0
  0
ARC
  5
3E1
330
1F
100
AcDbEntity
  8
0
  6
Continuous
 62
     7
100
AcDbCircle
 10
56.348527359375
 20
-57.48356994873046
 30
0.0
 40
1.0
100
AcDbArc
 50
0.0
 51
90.00000000000001
  0
ARC
  5
3E2
330
1F
100
AcDbEntity
  8
0
  6
Continuous
 62
     7
100
AcDbCircle
 10
52.19852735937499
 20
-56.98356994873046
 30
0.0
 40
0.75
100
AcDbArc
 50
41.81031489577811
 51
270.0000000000001
  0
ARC
  5
3E3
330
1F
100
AcDbEntity
  8
0
  6
Continuous
 62
     7
100
AcDbCircle
 10
1.382568359375
 20
-44.48356994873048
 30
0.0
 40
0.75
100
AcDbArc
 50
270.0
 51
138.1896851042205
  0
ARC
  5
3E4
330
1F
100
AcDbEntity
  8
0
  6
Continuous
 62
     7
100
AcDbCircle
 10
12.95553535937501
 20
-72.73356994873046
 30
0.0
 40
6.0
100
AcDbArc
 50
185.0
 51
270.0
  0
ARC
  5
3E5
330
1F
100
AcDbEntity
  8
0
  6
Continuous
 62
     7
100
AcDbCircle
 10
13.05750285937501
 20
-78.98356994873046
 30
0.0
 40
0.25
100
AcDbArc
 50
0.0
 51
90.00000000000001
  0
ARC
  5
3E6
330
1F
100
AcDbEntity
  8
0
  6
Continuous
 62
     7
100
AcDbCircle
 10
-4.367431640625
 20
-44.98356994873048
 30
0.0
 40
1.0
100
AcDbArc
 50
90.00000000000001
 51
180.0
  0
ARC
  5
3E7
330
1F
100
AcDbEntity
  8
0
  6
Continuous
 62
     7
100
AcDbCircle
 10
12.95553535937501
 20
-72.73356994873046
 30
0.0
 40
7.15
100
AcDbArc
 50
185.0
 51
261.396836
  0
ARC
  5
3E8
330
1F
100
AcDbEntity
  8
0
  6
Continuous
 62
     7
100
AcDbCircle
 10
11.848569859375
 20
-80.05030594873048
 30
0.0
 40
0.25
100
AcDbArc
 50
2.000000000000414
 51
81.39683599999948
  0
ARC
  5
3E9
330
1F
100
AcDbEntity
  8
0
  6
Continuous
 62
     7
100
AcDbCircle
 10
4.566301359375018
 20
-54.29175194873048
 30
0.0
 40
0.25
100
AcDbArc
 50
94.99999999999984
 51
184.9999999999998
  0
ARC
  5
3EA
330
1F
100
AcDbEntity
  8
0
  6
Continuous
 62
     7
100
AcDbCircle
 10
4.046415359374976
 20
-54.08628094873046
 30
0.0
 40
0.5
100
AcDbArc
 50
95.0000000000002
 51
184.9999999999998
  0
ARC
  5
3EB
330
1F
100
AcDbEntity
  8
0
  6
Continuous
 62
     7
100
AcDbCircle
 10
4.482193859375002
 20
-59.06725444873047
 30
0.0
 40
0.5
100
AcDbArc
 50
184.9999999999997
 51
274.9999999999997
  0
ARC
  5
3EC
330
1F
100
AcDbEntity
  8
0
  6
Continuous
 62
     7
100
AcDbCircle
 10
4.958502359375018
 20
-58.77462794873048
 30
0.0
 40
0.25
100
AcDbArc
 50
184.9999999999998
 51
274.9999999999998
  0
ARC
  5
3ED
330
1F
100
AcDbEntity
  8
0
  6
Continuous
 62
     7
100
AcDbCircle
 10
12.95553535937501
 20
-72.73356994873046
 30
0.0
 40
5.15
100
AcDbArc
 50
185.0
 51
270.0
  0
ARC
  5
3EE
330
1F
100
AcDbEntity
  8
0
  6
Continuous
 62
     7
100
AcDbCircle
 10
7.989062359374998
 20
-63.58243394873048
 30
0.0
 40
0.25
100
AcDbArc
 50
94.99999999999984
 51
184.9999999999998
  0
ARC
  5
3EF
330
1F
100
AcDbEntity
  8
0
  6
Continuous
 62
     7
100
AcDbCircle
 10
12.95553535937501
 20
-72.73356994873046
 30
0.0
 40
4.4
100
AcDbArc
 50
184.9999999999999
 51
270.0
  0
ARC
  5
3F0
330
1F
100
AcDbEntity
  8
0
  6
Continuous
 62
     7
100
AcDbCircle
 10
12.95553535937501
 20
-72.73356994873046
 30
0.0
 40
4.15
100
AcDbArc
 50
184.9999999999999
 51
270.0
  0
ARC
  5
3F1
330
1F
100
AcDbEntity
  8
0
  6
Continuous
 62
     7
100
AcDbCircle
 10
66.627502859375
 20
76.39136505126953
 30
0.0
 40
1.5
100
AcDbArc
 50
0.0
 51
90.00000000000001
  0
ARC
  5
3F2
330
1F
100
AcDbEntity
  8
0
  6
Continuous
 62
     7
100
AcDbCircle
 10
-2.117431640625
 20
7.646430051269533
 30
0.0
 40
1.5
100
AcDbArc
 50
180.0
 51
270.0000000000001
  0
ARC
  5
3F3
330
1F
100
AcDbEntity
  8
0
  6
Continuous
 62
     7
100
AcDbCircle
 10
54.19852735937499
 20
7.646430051269533
 30
0.0
 40
1.5
100
AcDbArc
 50
270.0
 51
0.0
  0
ARC
  5
3F4
330
1F
100
AcDbEntity
  8
0
  6
Continuous
 62
     7
100
AcDbCircle
 10
66.627502859375
 20
20.07540555126953
 30
0.0
 40
1.5
100
AcDbArc
 50
270.0
 51
0.0
  0
ARC
  5
3F5
330
1F
100
AcDbEntity
  8
0
  6
Continuous
 62
     7
100
AcDbCircle
 10
67.627502859375
 20
-54.52770344873048
 30
0.0
 40
0.5
100
AcDbArc
 50
0.0
 51
85.00000000000024
  0
ARC
  5
3F6
330
1F
100
AcDbEntity
  8
0
  6
Continuous
 62
     7
100
AcDbCircle
 10
18.62526985937501
 20
-80.63356994873047
 30
0.0
 40
0.5
100
AcDbArc
 50
225.0
 51
270.0
  0
ARC
  5
3F7
330
1F
100
AcDbEntity
  8
0
  6
Continuous
 62
     3
100
AcDbCircle
 10
-40.44249714062499
 20
72.89136505126953
 30
0.0
 40
0.75
100
AcDbArc
 50
311.8103149999997
 51
48.18968500000031
  0
ARC
  5
3F8
330
1F
100
AcDbEntity
  8
0
  6
Continuous
 62
     7
100
AcDbCircle
 10
-40.94249714062499
 20
78.64102205126952
 30
0.0
 40
1.0
100
AcDbArc
 50
0.0
 51
91.5000000000001
  0
DIMENSION
  5
3F9
330
1F
100
AcDbEntity
  8
0
 62
     7
100
AcDbDimension
  2
*D13
 10
-5.367431640625
 20
99.64136505126953
 30
0.0
 11
37.632035609375
 21
99.64136505126953
 31
0.0
 70
   160
  1
172
 71
     5
 42
85.9949345
  3
ISO-25
100
AcDbAlignedDimension
 13
80.627502859375
 23
79.14136505126953
 33
0.0
 14
-5.367431640625
 24
79.64136505126953
 34
0.0
100
AcDbRotatedDimension
1001
ACAD
1000
DSTYLE
1002
{
1070
   178
1070
     1
1070
   278
1070
    46
1070
   147
1040
0.800000011920929
1070
    77
1070
     1
1070
    74
1070
     0
1070
    73
1070
     0
1070
    42
1040
2.54
1070
    44
1040
2.0
1070
    76
1070
     0
1070
    75
1070
     0
1070
   279
1070
     0
1070
   271
1070
     0
1070
   173
1070
     1
1070
    41
1040
3.0
1070
   140
1040
3.200000047683716
1070
   344
1005
138
1070
   343
1005
138
1002
}
  0
DIMENSION
  5
406
330
1F
100
AcDbEntity
  8
0
 62
     7
100
AcDbDimension
  2
*D14
 10
-25.36543164062498
 20
-6.353569948730495
 30
0.0
 11
-25.365431640625
 21
36.64489755126952
 31
0.0
 70
   160
  1
172
 71
     5
 42
85.99493500000001
  3
ISO-25
100
AcDbAlignedDimension
 13
-4.867431640625
 23
79.64136505126953
 33
0.0
 14
-4.867431640625
 24
-6.353569948730481
 34
0.0
 50
90.00000000000001
100
AcDbRotatedDimension
1001
ACAD
1000
DSTYLE
1002
{
1070
   178
1070
     1
1070
   278
1070
    46
1070
   147
1040
0.800000011920929
1070
    77
1070
     1
1070
    74
1070
     0
1070
    73
1070
     0
1070
    42
1040
2.54
1070
    44
1040
2.0
1070
    76
1070
     0
1070
    75
1070
     0
1070
   279
1070
     0
1070
   271
1070
     0
1070
   173
1070
     1
1070
    41
1040
3.0
1070
   140
1040
3.200000047683716
1070
   344
1005
138
1070
   343
1005
138
1002
}
  0
DIMENSION
  5
413
330
1F
100
AcDbEntity
  8
0
 62
     7
100
AcDbDimension
  2
*D15
 10
80.627502859375
 20
89.64136505126953
 30
0.0
 11
74.378502859375
 21
89.64136505126953
 31
0.0
 70
   160
  1
25
 71
     5
 42
12.5
  3
ISO-25
100
AcDbAlignedDimension
 13
68.127502859375
 23
76.39136505126953
 33
0.0
 14
80.627502859375
 24
79.14136505126953
 34
0.0
 50
180.0
100
AcDbRotatedDimension
1001
ACAD
1000
DSTYLE
1002
{
1070
   178
1070
     1
1070
   278
1070
    46
1070
   147
1040
0.800000011920929
1070
    77
1070
     1
1070
    74
1070
     0
1070
    73
1070
     0
1070
    42
1040
2.54
1070
    44
1040
2.0
1070
    76
1070
     0
1070
    75
1070
     0
1070
   279
1070
     0
1070
   271
1070
     0
1070
   173
1070
     1
1070
    41
1040
3.0
1070
   140
1040
3.200000047683716
1070
   344
1005
138
1070
   343
1005
138
1002
}
  0
DIMENSION
  5
420
330
1F
100
AcDbEntity
  8
0
 62
     7
100
AcDbDimension
  2
*D16
 10
-15.365431640625
 20
-6.353569948730484
 30
0.0
 11
-15.365431640625
 21
-0.102569948730474
 31
0.0
 70
   160
  1
25
 71
     5
 42
12.50000000000001
  3
ISO-25
100
AcDbAlignedDimension
 13
-2.117431640625
 23
6.146430051269533
 33
0.0
 14
-4.867431640625
 24
-6.353569948730481
 34
0.0
 50
90.00000000000001
100
AcDbRotatedDimension
1001
ACAD
1000
DSTYLE
1002
{
1070
   178
1070
     1
1070
   278
1070
    46
1070
   147
1040
0.800000011920929
1070
    77
1070
     1
1070
    74
1070
     0
1070
    73
1070
     0
1070
    42
1040
2.54
1070
    44
1040
2.0
1070
    76
1070
     0
1070
    75
1070
     0
1070
   279
1070
     0
1070
   271
1070
     0
1070
   173
1070
     1
1070
    41
1040
3.0
1070
   140
1040
3.200000047683716
1070
   344
1005
138
1070
   343
1005
138
1002
}
  0
DIMENSION
  5
42D
330
1F
100
AcDbEntity
  8
0
 62
     7
100
AcDbDimension
  2
*D17
 10
80.627502859375
 20
40.68484415233331
 30
0.0
 11
74.378502859375
 21
40.68484415233331
 31
0.0
 70
   160
  1
25
 71
     5
 42
12.5
  3
ISO-25
100
AcDbAlignedDimension
 13
68.127502859375
 23
47.44952755126953
 33
0.0
 14
80.627502859375
 24
48.28338530126953
 34
0.0
 50
180.0
100
AcDbRotatedDimension
1001
ACAD
1000
DSTYLE
1002
{
1070
   178
1070
     1
1070
   278
1070
    46
1070
   147
1040
0.800000011920929
1070
    77
1070
     1
1070
    74
1070
     0
1070
    73
1070
     0
1070
    42
1040
2.54
1070
    44
1040
2.0
1070
    76
1070
     0
1070
    75
1070
     0
1070
   279
1070
     0
1070
   271
1070
     0
1070
   173
1070
     1
1070
    41
1040
3.0
1070
   140
1040
3.200000047683716
1070
   344
1005
138
1070
   343
1005
138
1002
}
  0
DIMENSION
  5
43A
330
1F
100
AcDbEntity
  8
0
 62
     7
100
AcDbDimension
  2
*D18
 10
62.127502859375
 20
40.68384415233331
 30
0.0
 11
52.94990281202507
 21
40.68384415233331
 31
0.0
 70
   160
  1
12
 71
     5
 42
6.0
  3
ISO-25
100
AcDbAlignedDimension
 13
68.127502859375
 23
38.68384415233331
 33
0.0
 14
62.127502859375
 24
22.11025305126952
 34
0.0
100
AcDbRotatedDimension
1001
ACAD
1000
DSTYLE
1002
{
1070
   178
1070
     1
1070
   278
1070
    46
1070
   147
1040
0.800000011920929
1070
    77
1070
     1
1070
    74
1070
     0
1070
    73
1070
     0
1070
    42
1040
2.54
1070
    44
1040
2.0
1070
    76
1070
     1
1070
    75
1070
     1
1070
   279
1070
     0
1070
   271
1070
     0
1070
   173
1070
     1
1070
    41
1040
3.0
1070
   140
1040
3.200000047683716
1070
   344
1005
138
1070
   343
1005
138
1002
}
  0
DIMENSION
  5
44E
330
1F
100
AcDbEntity
  8
0
 62
     7
100
AcDbDimension
  2
*D19
 10
34.24749724597033
 20
-6.35356994873049
 30
0.0
 11
34.24749724597032
 21
-0.102569948730474
 31
0.0
 70
   160
  1
25
 71
     5
 42
12.50000000000002
  3
ISO-25
100
AcDbAlignedDimension
 13
38.79060085937499
 23
6.146430051269533
 33
0.0
 14
56.848527359375
 24
-6.353569948730481
 34
0.0
 50
90.00000000000001
100
AcDbRotatedDimension
1001
ACAD
1000
DSTYLE
1002
{
1070
   178
1070
     1
1070
   278
1070
    46
1070
   147
1040
0.800000011920929
1070
    77
1070
     1
1070
    74
1070
     0
1070
    73
1070
     0
1070
    42
1040
2.54
1070
    44
1040
2.0
1070
    76
1070
     1
1070
    75
1070
     0
1070
   279
1070
     0
1070
   271
1070
     0
1070
   173
1070
     1
1070
    41
1040
3.0
1070
   140
1040
3.200000047683716
1070
   344
1005
138
1070
   343
1005
138
1002
}
  0
DIMENSION
  5
45A
330
1F
100
AcDbEntity
  8
0
 62
     7
100
AcDbDimension
  2
*D20
 10
34.24749724597032
 20
6.146430051269533
 30
0.0
 11
34.24749724597032
 21
21.32403009861945
 31
0.0
 70
   160
  1
12
 71
     5
 42
5.999999999999995
  3
ISO-25
100
AcDbAlignedDimension
 13
52.16367985937501
 23
12.14643005126953
 33
0.0
 14
38.79060085937499
 24
6.146430051269533
 34
0.0
 50
90.00000000000001
100
AcDbRotatedDimension
1001
ACAD
1000
DSTYLE
1002
{
1070
   178
1070
     1
1070
   278
1070
    46
1070
   147
1040
0.800000011920929
1070
    77
1070
     1
1070
    74
1070
     0
1070
    73
1070
     0
1070
    42
1040
2.54
1070
    44
1040
2.0
1070
    76
1070
     0
1070
    75
1070
     1
1070
   279
1070
     0
1070
   271
1070
     0
1070
   173
1070
     1
1070
    41
1040
3.0
1070
   140
1040
3.200000047683716
1070
   344
1005
138
1070
   343
1005
138
1002
}
  0
DIMENSION
  5
470
330
1F
100
AcDbEntity
  8
0
 62
     7
100
AcDbDimension
  2
*D21
 10
57.348527359375
 20
-16.35256994873048
 30
0.0
 11
68.99001510937501
 21
-16.35256994873048
 31
0.0
 70
   160
  1
47
 71
     5
 42
23.2789755
  3
ISO-25
100
AcDbAlignedDimension
 13
80.627502859375
 23
17.42540555126952
 33
0.0
 14
57.348527359375
 24
-4.353569948730481
 34
0.0
100
AcDbRotatedDimension
1001
ACAD
1000
DSTYLE
1002
{
1070
   178
1070
     1
1070
   278
1070
    46
1070
   147
1040
0.800000011920929
1070
    77
1070
     1
1070
    74
1070
     0
1070
    73
1070
     0
1070
    42
1040
2.54
1070
    44
1040
2.0
1070
    76
1070
     0
1070
    75
1070
     0
1070
   279
1070
     0
1070
   271
1070
     0
1070
   173
1070
     1
1070
    41
1040
3.0
1070
   140
1040
3.200000047683716
1070
   344
1005
138
1070
   343
1005
138
1002
}
  0
DIMENSION
  5
47D
330
1F
100
AcDbEntity
  8
0
 62
     7
100
AcDbDimension
  2
*D22
 10
90.62850285937502
 20
-6.353569948730461
 30
0.0
 11
90.628502859375
 21
5.28691780126952
 31
0.0
 70
   160
  1
47
 71
     5
 42
23.27897549999999
  3
ISO-25
100
AcDbAlignedDimension
 13
78.627502859375
 23
16.92540555126952
 33
0.0
 14
56.848527359375
 24
-6.353569948730481
 34
0.0
 50
90.00000000000001
100
AcDbRotatedDimension
1001
ACAD
1000
DSTYLE
1002
{
1070
   178
1070
     1
1070
   278
1070
    46
1070
   147
1040
0.800000011920929
1070
    77
1070
     1
1070
    74
1070
     0
1070
    73
1070
     0
1070
    42
1040
2.54
1070
    44
1040
2.0
1070
    76
1070
     0
1070
    75
1070
     0
1070
   279
1070
     0
1070
   271
1070
     0
1070
   173
1070
     1
1070
    41
1040
3.0
1070
   140
1040
3.200000047683716
1070
   344
1005
138
1070
   343
1005
138
1002
}
  0
DIMENSION
  5
48A
330
1F
100
AcDbEntity
  8
0
 62
     7
100
AcDbDimension
  2
*D23
 10
-5.393617578053835
 20
-23.98356994873048
 30
0.0
 11
25.95537801566055
 21
-23.98356994873048
 31
0.0
 70
   160
  1
125
 71
     5
 42
62.69399118742878
  3
ISO-25
100
AcDbAlignedDimension
 13
57.30037360937494
 23
-60.24229619873048
 33
0.0
 14
-5.393617578053838
 24
-43.98356994873048
 34
0.0
100
AcDbRotatedDimension
1001
ACAD
1000
DSTYLE
1002
{
1070
   178
1070
     1
1070
   278
1070
    46
1070
   147
1040
0.800000011920929
1070
    77
1070
     1
1070
    74
1070
     0
1070
    73
1070
     0
1070
    42
1040
2.54
1070
    44
1040
2.0
1070
    76
1070
     0
1070
    75
1070
     0
1070
   279
1070
     0
1070
   271
1070
     0
1070
   173
1070
     1
1070
    41
1040
3.0
1070
   140
1040
3.200000047683716
1070
   344
1005
138
1070
   343
1005
138
1002
}
  0
DIMENSION
  5
497
330
1F
100
AcDbEntity
  8
0
 62
     7
100
AcDbDimension
  2
*D24
 10
1.941585359374984
 20
-33.98356994873048
 30
0.0
 11
-1.725016109339428
 21
-33.98356994873048
 31
0.0
 70
   160
  1
15
 71
     5
 42
7.335202937428821
  3
ISO-25
100
AcDbAlignedDimension
 13
-5.393617578053838
 23
-43.98356994873048
 33
0.0
 14
1.941585359374983
 24
-43.98356994873048
 34
0.0
 50
180.0
100
AcDbRotatedDimension
1001
ACAD
1000
DSTYLE
1002
{
1070
   178
1070
     1
1070
   278
1070
    46
1070
   147
1040
0.800000011920929
1070
    77
1070
     1
1070
    74
1070
     0
1070
    73
1070
     0
1070
    42
1040
2.54
1070
    44
1040
2.0
1070
    76
1070
     0
1070
    75
1070
     0
1070
   279
1070
     0
1070
   271
1070
     0
1070
   173
1070
     1
1070
    41
1040
3.0
1070
   140
1040
3.200000047683716
1070
   344
1005
138
1070
   343
1005
138
1002
}
  0
DIMENSION
  5
4AD
330
1F
100
AcDbEntity
  8
0
 62
     7
100
AcDbDimension
  2
*D25
 10
57.30037360937494
 20
-33.98356994873048
 30
0.0
 11
54.37545048437496
 21
-33.98356994873048
 31
0.0
 70
   160
  1
12
 71
     5
 42
5.851846249999944
  3
ISO-25
100
AcDbAlignedDimension
 13
51.44852735937499
 23
-56.98356994873046
 33
0.0
 14
57.30037360937494
 24
-60.24229619873048
 34
0.0
 50
180.0
100
AcDbRotatedDimension
1001
ACAD
1000
DSTYLE
1002
{
1070
   178
1070
     1
1070
   278
1070
    46
1070
   147
1040
0.800000011920929
1070
    77
1070
     1
1070
    74
1070
     0
1070
    73
1070
     0
1070
    42
1040
2.54
1070
    44
1040
2.0
1070
    76
1070
     0
1070
    75
1070
     0
1070
   279
1070
     0
1070
   271
1070
     0
1070
   173
1070
     1
1070
    41
1040
3.0
1070
   140
1040
3.200000047683716
1070
   344
1005
138
1070
   343
1005
138
1002
}
  0
DIMENSION
  5
4C3
330
1F
100
AcDbEntity
  8
0
 62
     7
100
AcDbDimension
  2
*D26
 10
-15.3620048862319
 20
-83.88356994873047
 30
0.0
 11
-15.36200488623191
 21
-63.93256994873047
 31
0.0
 70
   160
  1
80
 71
     5
 42
39.89999999999999
  3
ISO-25
100
AcDbAlignedDimension
 13
-4.367431640625
 23
-43.98356994873048
 33
0.0
 14
14.30750285937501
 24
-83.88356994873047
 34
0.0
 50
90.00000000000001
100
AcDbRotatedDimension
1001
ACAD
1000
DSTYLE
1002
{
1070
   178
1070
     1
1070
   278
1070
    46
1070
   147
1040
0.800000011920929
1070
    77
1070
     1
1070
    74
1070
     0
1070
    73
1070
     0
1070
    42
1040
2.54
1070
    44
1040
2.0
1070
    76
1070
     0
1070
    75
1070
     0
1070
   279
1070
     0
1070
   271
1070
     0
1070
   173
1070
     1
1070
    41
1040
3.0
1070
   140
1040
3.200000047683716
1070
   344
1005
138
1070
   343
1005
138
1002
}
  0
DIMENSION
  5
4D0
330
1F
100
AcDbEntity
  8
0
 62
     7
100
AcDbDimension
  2
*D27
 10
22.6696462919229
 20
-52.33356994873048
 30
0.0
 11
22.6696462919229
 21
-48.65756994873048
 31
0.0
 70
   160
  1
15
 71
     5
 42
7.350000000000008
  3
ISO-25
100
AcDbAlignedDimension
 13
1.382568359375
 23
-44.98356994873048
 33
0.0
 14
1.177502859375011
 24
-52.33356994873049
 34
0.0
 50
90.00000000000001
100
AcDbRotatedDimension
1001
ACAD
1000
DSTYLE
1002
{
1070
   178
1070
     1
1070
   278
1070
    46
1070
   147
1040
0.800000011920929
1070
    77
1070
     1
1070
    74
1070
     0
1070
    73
1070
     0
1070
    42
1040
2.54
1070
    44
1040
2.0
1070
    76
1070
     0
1070
    75
1070
     0
1070
   279
1070
     0
1070
   271
1070
     0
1070
   173
1070
     1
1070
    41
1040
3.0
1070
   140
1040
3.200000047683716
1070
   344
1005
138
1070
   343
1005
138
1002
}
  0
DIMENSION
  5
4DF
330
1F
100
AcDbEntity
  8
0
 62
     7
100
AcDbDimension
  2
*D28
 10
22.66964629192291
 20
-80.88356994873047
 30
0.0
 11
22.6696462919229
 21
-66.60756994873047
 31
0.0
 70
   160
  1
57
 71
     5
 42
28.54999999999998
  3
ISO-25
100
AcDbAlignedDimension
 13
1.177502859375011
 23
-52.33356994873049
 33
0.0
 14
18.62526985937501
 24
-80.88356994873047
 34
0.0
 50
90.00000000000001
100
AcDbRotatedDimension
1001
ACAD
1000
DSTYLE
1002
{
1070
   178
1070
     1
1070
   278
1070
    46
1070
   147
1040
0.800000011920929
1070
    77
1070
     1
1070
    74
1070
     0
1070
    73
1070
     0
1070
    42
1040
2.54
1070
    44
1040
2.0
1070
    76
1070
     0
1070
    75
1070
     1
1070
   279
1070
     0
1070
   271
1070
     0
1070
   173
1070
     1
1070
    41
1040
3.0
1070
   140
1040
3.200000047683716
1070
   344
1005
138
1070
   343
1005
138
1002
}
  0
DIMENSION
  5
4EB
330
1F
100
AcDbEntity
  8
0
 62
     7
100
AcDbDimension
  2
*D29
 10
40.84459791166829
 20
-62.83356994873049
 30
0.0
 11
40.84459791166829
 21
-60.15756994873048
 31
0.0
 70
   160
  1
11
 71
     5
 42
5.350000000000024
  3
ISO-25
100
AcDbAlignedDimension
 13
52.19852735937499
 23
-57.48356994873046
 33
0.0
 14
52.77761035937499
 24
-62.83356994873049
 34
0.0
 50
90.00000000000001
100
AcDbRotatedDimension
1001
ACAD
1000
DSTYLE
1002
{
1070
   178
1070
     1
1070
   278
1070
    46
1070
   147
1040
0.800000011920929
1070
    77
1070
     1
1070
    74
1070
     0
1070
    73
1070
     0
1070
    42
1040
2.54
1070
    44
1040
2.0
1070
    76
1070
     0
1070
    75
1070
     0
1070
   279
1070
     0
1070
   271
1070
     0
1070
   173
1070
     1
1070
    41
1040
3.0
1070
   140
1040
3.200000047683716
1070
   344
1005
138
1070
   343
1005
138
1002
}
  0
DIMENSION
  5
501
330
1F
100
AcDbEntity
  8
0
 62
     7
100
AcDbDimension
  2
*D30
 10
40.84459791166829
 20
-80.88356994873047
 30
0.0
 11
40.84459791166829
 21
-71.85756994873047
 31
0.0
 70
   160
  1
36
 71
     5
 42
18.04999999999998
  3
ISO-25
100
AcDbAlignedDimension
 13
52.77761035937499
 23
-62.83356994873049
 33
0.0
 14
37.80750285937501
 24
-80.88356994873047
 34
0.0
 50
90.00000000000001
100
AcDbRotatedDimension
1001
ACAD
1000
DSTYLE
1002
{
1070
   178
1070
     1
1070
   278
1070
    46
1070
   147
1040
0.800000011920929
1070
    77
1070
     1
1070
    74
1070
     0
1070
    73
1070
     0
1070
    42
1040
2.54
1070
    44
1040
2.0
1070
    76
1070
     0
1070
    75
1070
     1
1070
   279
1070
     0
1070
   271
1070
     0
1070
   173
1070
     1
1070
    41
1040
3.0
1070
   140
1040
3.200000047683716
1070
   344
1005
138
1070
   343
1005
138
1002
}
  0
DIMENSION
  5
50D
330
1F
100
AcDbEntity
  8
0
 62
     7
100
AcDbDimension
  2
*D31
 10
7.807503373798596
 20
-93.88256994873046
 30
0.0
 11
29.30950336928146
 21
-93.88256994873046
 31
0.0
 70
   160
  1
86
 71
     5
 42
42.99999999096572
  3
ISO-25
100
AcDbAlignedDimension
 13
50.80750336476432
 23
-82.73356994873046
 33
0.0
 14
7.807503373798597
 24
-82.73356994873046
 34
0.0
100
AcDbRotatedDimension
1001
ACAD
1000
DSTYLE
1002
{
1070
   178
1070
     1
1070
   278
1070
    46
1070
   147
1040
0.800000011920929
1070
    77
1070
     1
1070
    74
1070
     0
1070
    73
1070
     0
1070
    42
1040
2.54
1070
    44
1040
2.0
1070
    76
1070
     0
1070
    75
1070
     0
1070
   279
1070
     0
1070
   271
1070
     0
1070
   173
1070
     1
1070
    41
1040
3.0
1070
   140
1040
3.200000047683716
1070
   344
1005
138
1070
   343
1005
138
1002
}
  0
DIMENSION
  5
51A
330
1F
100
AcDbEntity
  8
0
 62
     7
100
AcDbDimension
  2
*D32
 10
90.62850285937502
 20
-83.88356994873047
 30
0.0
 11
90.628502859375
 21
-70.18256994873046
 31
0.0
 70
   160
  1
55
 71
     5
 42
27.40000000000001
  3
ISO-25
100
AcDbAlignedDimension
 13
78.627502859375
 23
-56.48356994873046
 33
0.0
 14
78.627502859375
 24
-83.88356994873047
 34
0.0
 50
90.00000000000001
100
AcDbRotatedDimension
1001
ACAD
1000
DSTYLE
1002
{
1070
   178
1070
     1
1070
   278
1070
    46
1070
   147
1040
0.800000011920929
1070
    77
1070
     1
1070
    74
1070
     0
1070
    73
1070
     0
1070
    42
1040
2.54
1070
    44
1040
2.0
1070
    76
1070
     0
1070
    75
1070
     0
1070
   279
1070
     0
1070
   271
1070
     0
1070
   173
1070
     1
1070
    41
1040
3.0
1070
   140
1040
3.200000047683716
1070
   344
1005
138
1070
   343
1005
138
1002
}
  0
POINT
  5
528
330
1F
100
AcDbEntity
  8
VIEW0001
 62
     7
100
AcDbPoint
 10
105.0
 20
-148.5
 30
0.0
  0
LWPOLYLINE
  5
529
330
1F
100
AcDbEntity
  8
VIEW0001
  6
Continuous
 62
     7
100
AcDbPolyline
 90
        2
 70
     0
 10
81.0
 20
-129.0
 40
0.001000000047497
 41
0.001000000047497
 10
81.0
 20
-120.0
 40
0.001000000047497
 41
0.001000000047497
  0
LWPOLYLINE
  5
52A
330
1F
100
AcDbEntity
  8
VIEW0001
  6
Continuous
 62
     7
100
AcDbPolyline
 90
        2
 70
     0
 10
66.0
 20
-129.0
 40
0.001000000047497
 41
0.001000000047497
 10
66.0
 20
-120.0
 40
0.001000000047497
 41
0.001000000047497
  0
LWPOLYLINE
  5
52B
330
1F
100
AcDbEntity
  8
VIEW0001
  6
Continuous
 62
     7
100
AcDbPolyline
 90
        2
 70
     0
 10
5.75
 20
-138.0
 40
0.001000000047497
 41
0.001000000047497
 10
5.75
 20
-120.0
 40
0.001000000047497
 41
0.001000000047497
  0
LINE
  5
52C
330
1F
100
AcDbEntity
  8
VIEW0001
  6
Continuous
 62
     7
370
    20
100
AcDbLine
 10
41.0
 20
138.0
 30
0.0
 11
41.0
 21
128.0
 31
0.0
  0
LINE
  5
52D
330
1F
100
AcDbEntity
  8
VIEW0001
  6
Continuous
 62
     7
370
    20
100
AcDbLine
 10
41.0
 20
128.0
 30
0.0
 11
96.0
 21
128.0
 31
0.0
  0
LWPOLYLINE
  5
52E
330
1F
100
AcDbEntity
  8
VIEW0001
  6
Continuous
 62
     7
100
AcDbPolyline
 90
        2
 70
     0
 10
96.0
 20
-129.0
 40
0.001000000047497
 41
0.001000000047497
 10
-84.5
 20
-129.0
 40
0.001000000047497
 41
0.001000000047497
  0
LINE
  5
52F
330
1F
100
AcDbEntity
  8
VIEW0001
  6
Continuous
 62
     7
370
    20
100
AcDbLine
 10
-84.5
 20
-120.0
 30
0.0
 11
96.0
 21
-120.0
 31
0.0
  0
LINE
  5
530
330
1F
100
AcDbEntity
  8
VIEW0001
  6
Continuous
 62
     7
370
    50
100
AcDbLine
 10
-84.5
 20
138.0
 30
0.0
 11
96.0
 21
138.0
 31
0.0
  0
LINE
  5
531
330
1F
100
AcDbEntity
  8
VIEW0001
  6
Continuous
 62
     7
370
    50
100
AcDbLine
 10
-84.5
 20
-138.0
 30
0.0
 11
96.0
 21
-138.0
 31
0.0
  0
LINE
  5
532
330
1F
100
AcDbEntity
  8
VIEW0001
  6
Continuous
 62
     7
370
    50
100
AcDbLine
 10
96.0
 20
138.0
 30
0.0
 11
96.0
 21
-138.0
 31
0.0
  0
LINE
  5
533
330
1F
100
AcDbEntity
  8
VIEW0001
  6
Continuous
 62
     7
370
    50
100
AcDbLine
 10
-84.5
 20
138.0
 30
0.0
 11
-84.5
 21
-138.0
 31
0.0
  0
LWPOLYLINE
  5
534
330
1F
100
AcDbEntity
  8
VIEW0001
  6
Continuous
 62
     7
100
AcDbPolyline
 90
        2
 70
     0
 10
-64.5
 20
-138.0
 40
0.001000000047497
 41
0.001000000047497
 10
-64.5
 20
-120.0
 40
0.001000000047497
 41
0.001000000047497
  0
LWPOLYLINE
  5
535
330
1F
100
AcDbEntity
  8
VIEW0001
  6
Continuous
 62
     7
100
AcDbPolyline
 90
        2
 70
     0
 10
25.75
 20
-129.0
 40
0.001000000047497
 41
0.001000000047497
 10
25.75
 20
-120.0
 40
0.001000000047497
 41
0.001000000047497
  0
MTEXT
  5
536
330
1F
100
AcDbEntity
  8
VIEW0001
 62
     1
100
AcDbMText
 10
-80.92857193946838
 20
-126.5
 30
0.0
 40
4.0
 41
0.0
 71
     7
 72
     1
  1
{\W2.08333;品名}
 73
     1
 44
1.0
  0
MTEXT
  5
537
330
1F
100
AcDbEntity
  8
VIEW0001
 62
     1
100
AcDbMText
 10
-80.92857193946838
 20
-135.5
 30
0.0
 40
4.0
 41
0.0
 71
     7
 72
     1
  1
{\W2.08333;規格}
 73
     1
 44
1.0
  0
MTEXT
  5
538
330
1F
100
AcDbEntity
  8
VIEW0001
 62
     1
100
AcDbMText
 10
67.57142806053162
 20
-126.5
 30
0.0
 40
4.0
 41
0.0
 71
     7
 72
     1
  1
{\W1.875;尺度}
 73
     1
 44
1.0
  0
MTEXT
  5
539
330
1F
100
AcDbEntity
  8
VIEW0001
 62
     1
100
AcDbMText
 10
9.321428060531616
 20
-126.5
 30
0.0
 40
4.0
 41
0.0
 71
     7
 72
     1
  1
{\W2.08333;材質}
 73
     1
 44
1.0
  0
MTEXT
  5
53A
330
1F
100
AcDbEntity
  8
VIEW0001
 62
     1
100
AcDbMText
 10
83.07124984264374
 20
-126.5
 30
0.0
 40
4.0
 41
0.0
 71
     7
 72
     1
  1
{\W0.833333;1/2}
 73
     1
 44
1.0
  0
MTEXT
  5
53B
330
1F
100
AcDbEntity
  8
VIEW0001
 62
     1
100
AcDbMText
 10
26.46785604953766
 20
-135.75
 30
0.0
 40
4.5
 41
0.0
 71
     7
 72
     1
  1
{\W1.40741;デンカ株式会社}
 73
     1
 44
1.0
  0
MTEXT
  5
53C
330
1F
100
AcDbEntity
  8
VIEW0001
 62
     1
100
AcDbMText
 10
36.44624972343445
 20
-126.5
 30
0.0
 40
4.0
 41
0.0
 71
     7
 72
     1
  1
{\W0.833333;硬質ＰＶＣ}
 73
     1
 44
1.0
  0
MTEXT
  5
53D
330
1F
100
AcDbEntity
  8
VIEW0001
 62
     1
100
AcDbMText
 10
-36.80375021696091
 20
-135.5
 30
0.0
 40
4.0
 41
0.0
 71
     7
 72
     1
  1
{\W0.833333;ＤＬ55}
 73
     1
 44
1.0
  0
MTEXT
  5
53E
330
1F
100
AcDbEntity
  8
VIEW0001
 62
     1
100
AcDbMText
 10
-40.8037503361702
 20
-126.5
 30
0.0
 40
4.0
 41
0.0
 71
     7
 72
     1
  1
{\W0.833333;曲り（出隅）}
 73
     1
 44
1.0
  0
ENDSEC
  0
SECTION
  2
OBJECTS
  0
DICTIONARY
  5
C
330
0
100
AcDbDictionary
281
     1
  3
ACAD_GROUP
350
D
  3
ACAD_LAYOUT
350
1A
  3
ACAD_MATERIAL
350
3B
  3
ACAD_MLEADERSTYLE
350
566
  3
ACAD_MLINESTYLE
350
17
  3
ACAD_PLOTSETTINGS
350
19
  3
ACAD_PLOTSTYLENAME
350
E
  3
ACAD_TABLESTYLE
350
565
  3
ACAD_VISUALSTYLE
350
2A
  0
DICTIONARY
  5
D
102
{ACAD_REACTORS
330
C
102
}
330
C
100
AcDbDictionary
281
     1
  0
DICTIONARY
  5
1A
102
{ACAD_REACTORS
330
C
102
}
330
C
100
AcDbDictionary
281
     1
  3
Layout1
350
1E
  3
Layout2
350
26
  3
Model
350
22
  0
DICTIONARY
  5
3B
102
{ACAD_REACTORS
330
C
102
}
330
C
100
AcDbDictionary
281
     1
  3
ByBlock
350
3D
  3
ByLayer
350
3C
  3
Global
350
3E
  0
DICTIONARY
  5
566
102
{ACAD_REACTORS
330
C
102
}
330
C
100
AcDbDictionary
281
     1
  0
DICTIONARY
  5
17
102
{ACAD_REACTORS
330
C
102
}
330
C
100
AcDbDictionary
281
     1
  3
Standard
350
18
  0
DICTIONARY
  5
19
102
{ACAD_REACTORS
330
C
102
}
330
C
100
AcDbDictionary
281
     1
  0
ACDBDICTIONARYWDFLT
  5
E
102
{ACAD_REACTORS
330
C
102
}
330
C
100
AcDbDictionary
281
     1
  3
Normal
350
F
100
AcDbDictionaryWithDefault
340
F
  0
DICTIONARY
  5
565
102
{ACAD_REACTORS
330
C
102
}
330
C
100
AcDbDictionary
281
     1
  0
DICTIONARY
  5
2A
102
{ACAD_REACTORS
330
C
102
}
330
C
100
AcDbDictionary
281
     1
  3
2dWireframe
350
2F
  3
3D Hidden
350
31
  3
3dWireframe
350
30
  3
Basic
350
32
  3
Brighten
350
36
  3
ColorChange
350
3A
  3
Conceptual
350
34
  3
Dim
350
35
  3
Facepattern
350
39
  3
Flat
350
2B
  3
FlatWithEdges
350
2C
  3
Gouraud
350
2D
  3
GouraudWithEdges
350
2E
  3
Linepattern
350
38
  3
Realistic
350
33
  3
Thicken
350
37
  0
LAYOUT
  5
1E
102
{ACAD_REACTORS
330
1A
102
}
330
1A
100
AcDbPlotSettings
  1

  2
none_device
  4

  6

 40
0.0
 41
0.0
 42
0.0
 43
0.0
 44
0.0
 45
0.0
 46
0.0
 47
0.0
 48
0.0
 49
0.0
140
0.0
141
0.0
142
1.0
143
1.0
 70
   688
 72
     0
 73
     0
 74
     5
  7

 75
    16
 76
     0
 77
     2
 78
   300
147
1.0
148
0.0
149
0.0
100
AcDbLayout
  1
Layout1
 70
     1
 71
     1
 10
-105.0
 20
-148.5
 11
105.0
 21
148.5
 12
0.0
 22
0.0
 32
0.0
 14
1.000000000000000E+20
 24
1.000000000000000E+20
 34
1.000000000000000E+20
 15
-1.000000000000000E+20
 25
-1.000000000000000E+20
 35
-1.000000000000000E+20
146
0.0
 13
0.0
 23
0.0
 33
0.0
 16
1.0
 26
0.0
 36
0.0
 17
0.0
 27
1.0
 37
0.0
 76
     0
330
1B
  0
LAYOUT
  5
26
102
{ACAD_REACTORS
330
1A
102
}
330
1A
100
AcDbPlotSettings
  1

  2
none_device
  4

  6

 40
0.0
 41
0.0
 42
0.0
 43
0.0
 44
0.0
 45
0.0
 46
0.0
 47
0.0
 48
0.0
 49
0.0
140
0.0
141
0.0
142
1.0
143
1.0
 70
   688
 72
     0
 73
     0
 74
     5
  7

 75
    16
 76
     0
 77
     2
 78
   300
147
1.0
148
0.0
149
0.0
100
AcDbLayout
  1
Layout2
 70
     1
 71
     2
 10
0.0
 20
0.0
 11
0.0
 21
0.0
 12
0.0
 22
0.0
 32
0.0
 14
0.0
 24
0.0
 34
0.0
 15
0.0
 25
0.0
 35
0.0
146
0.0
 13
0.0
 23
0.0
 33
0.0
 16
1.0
 26
0.0
 36
0.0
 17
0.0
 27
1.0
 37
0.0
 76
     0
330
23
  0
LAYOUT
  5
22
102
{ACAD_REACTORS
330
1A
102
}
330
1A
100
AcDbPlotSettings
  1

  2
none_device
  4

  6

 40
0.0
 41
0.0
 42
0.0
 43
0.0
 44
0.0
 45
0.0
 46
0.0
 47
0.0
 48
0.0
 49
0.0
140
0.0
141
0.0
142
1.0
143
1.0
 70
  1712
 72
     0
 73
     0
 74
     0
  7

 75
     0
 76
     0
 77
     2
 78
   300
147
1.0
148
0.0
149
0.0
100
AcDbLayout
  1
Model
 70
     1
 71
     0
 10
-105.0
 20
-148.5
 11
105.0
 21
148.5
 12
0.0
 22
0.0
 32
0.0
 14
-105.0
 24
-148.5
 34
0.0
 15
105.0
 25
148.5
 35
0.0
146
0.0
 13
0.0
 23
0.0
 33
0.0
 16
1.0
 26
0.0
 36
0.0
 17
0.0
 27
1.0
 37
0.0
 76
     0
330
1F
331
29
  0
MATERIAL
  5
3D
102
{ACAD_REACTORS
330
3B
102
}
102
{ACAD_XDICTIONARY
360
561
102
}
330
3B
100
AcDbMaterial
  1
ByBlock
  0
MATERIAL
  5
3C
102
{ACAD_REACTORS
330
3B
102
}
102
{ACAD_XDICTIONARY
360
55F
102
}
330
3B
100
AcDbMaterial
  1
ByLayer
  0
MATERIAL
  5
3E
102
{ACAD_REACTORS
330
3B
102
}
102
{ACAD_XDICTIONARY
360
563
102
}
330
3B
100
AcDbMaterial
  1
Global
  0
MLINESTYLE
  5
18
102
{ACAD_REACTORS
330
17
102
}
330
17
100
AcDbMlineStyle
  2
Standard
 70
     0
  3

 62
   256
 51
90.0
 52
90.0
 71
     2
 49
0.5
 62
   256
  6
BYLAYER
 49
-0.5
 62
   256
  6
BYLAYER
  0
ACDBPLACEHOLDER
  5
F
102
{ACAD_REACTORS
330
E
102
}
330
E
  0
VISUALSTYLE
  5
2F
102
{ACAD_REACTORS
330
2A
102
}
102
{ACAD_XDICTIONARY
360
547
102
}
330
2A
100
AcDbVisualStyle
  2
2dWireframe
 70
     4
 71
     0
 72
     2
 73
     0
 90
        0
 40
-0.6
 41
-30.0
 62
     5
 63
     7
421
 16777215
 74
     1
 91
        4
 64
     7
 65
   257
 75
     1
175
     1
 42
1.0
 92
        0
 66
   257
 43
1.0
 76
     1
 77
     6
 78
     2
 67
     7
 79
     5
170
     0
171
     0
290
     0
174
     0
 93
        1
 44
0.0
173
     0
291
     0
 45
0.0
1001
ACAD
1000
AcDbSavedByObjectVersion
1070
     0
  0
VISUALSTYLE
  5
31
102
{ACAD_REACTORS
330
2A
102
}
102
{ACAD_XDICTIONARY
360
54B
102
}
330
2A
100
AcDbVisualStyle
  2
3D Hidden
 70
     6
 71
     1
 72
     2
 73
     2
 90
        0
 40
-0.6
 41
-30.0
 62
     5
 63
     7
421
 16777215
 74
     2
 91
        2
 64
     7
 65
   257
 75
     2
175
     1
 42
40.0
 92
        0
 66
   257
 43
1.0
 76
     1
 77
     6
 78
     2
 67
     7
 79
     3
170
     0
171
     0
290
     0
174
     0
 93
        1
 44
0.0
173
     0
291
     0
 45
0.0
1001
ACAD
1000
AcDbSavedByObjectVersion
1070
     0
  0
VISUALSTYLE
  5
30
102
{ACAD_REACTORS
330
2A
102
}
102
{ACAD_XDICTIONARY
360
549
102
}
330
2A
100
AcDbVisualStyle
  2
3dWireframe
 70
     5
 71
     0
 72
     2
 73
     0
 90
        0
 40
-0.6
 41
-30.0
 62
     5
 63
     7
421
 16777215
 74
     1
 91
        4
 64
     7
 65
   257
 75
     1
175
     1
 42
1.0
 92
        0
 66
   257
 43
1.0
 76
     1
 77
     6
 78
     2
 67
     7
 79
     5
170
     0
171
     0
290
     0
174
     0
 93
        1
 44
0.0
173
     0
291
     0
 45
0.0
1001
ACAD
1000
AcDbSavedByObjectVersion
1070
     0
  0
VISUALSTYLE
  5
32
102
{ACAD_REACTORS
330
2A
102
}
102
{ACAD_XDICTIONARY
360
54D
102
}
330
2A
100
AcDbVisualStyle
  2
Basic
 70
     7
 71
     1
 72
     0
 73
     1
 90
        0
 40
-0.6
 41
-30.0
 62
     5
 63
     7
421
 16777215
 74
     0
 91
        4
 64
     7
 65
   257
 75
     1
175
     1
 42
1.0
 92
        8
 66
     7
 43
1.0
 76
     1
 77
     6
 78
     2
 67
     7
 79
     5
170
     0
171
     0
290
     0
174
     0
 93
        1
 44
0.0
173
     0
291
     1
 45
0.0
1001
ACAD
1000
AcDbSavedByObjectVersion
1070
     0
  0
VISUALSTYLE
  5
36
102
{ACAD_REACTORS
330
2A
102
}
102
{ACAD_XDICTIONARY
360
555
102
}
330
2A
100
AcDbVisualStyle
  2
Brighten
 70
    12
 71
     2
 72
     2
 73
     0
 90
        0
 40
-0.6
 41
-30.0
 62
     5
 63
     7
421
 16777215
 74
     1
 91
        4
 64
     7
 65
   257
 75
     1
175
     1
 42
1.0
 92
        8
 66
     7
 43
1.0
 76
     1
 77
     6
 78
     2
 67
     7
 79
     5
170
     0
171
     0
290
     0
174
     0
 93
        1
 44
50.0
173
     0
291
     1
 45
0.0
1001
ACAD
1000
AcDbSavedByObjectVersion
1070
     0
  0
VISUALSTYLE
  5
3A
102
{ACAD_REACTORS
330
2A
102
}
102
{ACAD_XDICTIONARY
360
55D
102
}
330
2A
100
AcDbVisualStyle
  2
ColorChange
 70
    16
 71
     2
 72
     2
 73
     3
 90
        0
 40
-0.6
 41
-30.0
 62
     5
 63
     8
421
  8421504
 74
     1
 91
        4
 64
     7
 65
   257
 75
     1
175
     1
 42
1.0
 92
        8
 66
     8
424
  8421504
 43
1.0
 76
     1
 77
     6
 78
     2
 67
     7
 79
     5
170
     0
171
     0
290
     0
174
     0
 93
        1
 44
0.0
173
     0
291
     1
 45
0.0
1001
ACAD
1000
AcDbSavedByObjectVersion
1070
     0
  0
VISUALSTYLE
  5
34
102
{ACAD_REACTORS
330
2A
102
}
102
{ACAD_XDICTIONARY
360
551
102
}
330
2A
100
AcDbVisualStyle
  2
Conceptual
 70
     9
 71
     3
 72
     2
 73
     0
 90
        0
 40
-0.6
 41
-30.0
 62
     5
 63
     7
421
 16777215
 74
     2
 91
        2
 64
     7
 65
   257
 75
     1
175
     1
 42
40.0
 92
        8
 66
     7
 43
1.0
 76
     1
 77
     6
 78
     2
 67
     7
 79
     3
170
     0
171
     0
290
     0
174
     0
 93
        1
 44
0.0
173
     0
291
     0
 45
0.0
1001
ACAD
1000
AcDbSavedByObjectVersion
1070
     0
  0
VISUALSTYLE
  5
35
102
{ACAD_REACTORS
330
2A
102
}
102
{ACAD_XDICTIONARY
360
553
102
}
330
2A
100
AcDbVisualStyle
  2
Dim
 70
    11
 71
     2
 72
     2
 73
     0
 90
        0
 40
-0.6
 41
-30.0
 62
     5
 63
     7
421
 16777215
 74
     1
 91
        4
 64
     7
 65
   257
 75
     1
175
     1
 42
1.0
 92
        8
 66
     7
 43
1.0
 76
     1
 77
     6
 78
     2
 67
     7
 79
     5
170
     0
171
     0
290
     0
174
     0
 93
        1
 44
-50.0
173
     0
291
     1
 45
0.0
1001
ACAD
1000
AcDbSavedByObjectVersion
1070
     0
  0
VISUALSTYLE
  5
39
102
{ACAD_REACTORS
330
2A
102
}
102
{ACAD_XDICTIONARY
360
55B
102
}
330
2A
100
AcDbVisualStyle
  2
Facepattern
 70
    15
 71
     2
 72
     2
 73
     0
 90
        0
 40
-0.6
 41
-30.0
 62
     5
 63
     7
421
 16777215
 74
     1
 91
        4
 64
     7
 65
   257
 75
     1
175
     1
 42
1.0
 92
        8
 66
     7
 43
1.0
 76
     1
 77
     6
 78
     2
 67
     7
 79
     5
170
     0
171
     0
290
     0
174
     0
 93
        1
 44
0.0
173
     0
291
     1
 45
0.0
1001
ACAD
1000
AcDbSavedByObjectVersion
1070
     0
  0
VISUALSTYLE
  5
2B
102
{ACAD_REACTORS
330
2A
102
}
102
{ACAD_XDICTIONARY
360
53F
102
}
330
2A
100
AcDbVisualStyle
  2
Flat
 70
     0
 71
     2
 72
     1
 73
     1
 90
        2
 40
-0.6
 41
30.0
 62
     5
 63
     7
421
 16777215
 74
     0
 91
        4
 64
     7
 65
   257
 75
     1
175
     1
 42
1.0
 92
        8
 66
     7
 43
1.0
 76
     1
 77
     6
 78
     2
 67
     7
 79
     5
170
     0
171
     0
290
     0
174
     0
 93
       13
 44
0.0
173
     0
291
     1
 45
0.0
1001
ACAD
1000
AcDbSavedByObjectVersion
1070
     0
  0
VISUALSTYLE
  5
2C
102
{ACAD_REACTORS
330
2A
102
}
102
{ACAD_XDICTIONARY
360
541
102
}
330
2A
100
AcDbVisualStyle
  2
FlatWithEdges
 70
     1
 71
     2
 72
     1
 73
     1
 90
        2
 40
-0.6
 41
30.0
 62
     5
 63
     7
421
 16777215
 74
     1
 91
        4
 64
     7
 65
   257
 75
     1
175
     1
 42
1.0
 92
        0
 66
   257
 43
1.0
 76
     1
 77
     6
 78
     2
 67
     7
 79
     5
170
     0
171
     0
290
     0
174
     0
 93
       13
 44
0.0
173
     0
291
     1
 45
0.0
1001
ACAD
1000
AcDbSavedByObjectVersion
1070
     0
  0
VISUALSTYLE
  5
2D
102
{ACAD_REACTORS
330
2A
102
}
102
{ACAD_XDICTIONARY
360
543
102
}
330
2A
100
AcDbVisualStyle
  2
Gouraud
 70
     2
 71
     2
 72
     2
 73
     1
 90
        2
 40
-0.6
 41
30.0
 62
     5
 63
     7
421
 16777215
 74
     0
 91
        4
 64
     7
 65
   257
 75
     1
175
     1
 42
1.0
 92
        0
 66
     7
 43
1.0
 76
     1
 77
     6
 78
     2
 67
     7
 79
     5
170
     0
171
     0
290
     0
174
     0
 93
       13
 44
0.0
173
     0
291
     1
 45
0.0
1001
ACAD
1000
AcDbSavedByObjectVersion
1070
     0
  0
VISUALSTYLE
  5
2E
102
{ACAD_REACTORS
330
2A
102
}
102
{ACAD_XDICTIONARY
360
545
102
}
330
2A
100
AcDbVisualStyle
  2
GouraudWithEdges
 70
     3
 71
     2
 72
     2
 73
     1
 90
        2
 40
-0.6
 41
30.0
 62
     5
 63
     7
421
 16777215
 74
     1
 91
        4
 64
     7
 65
   257
 75
     1
175
     1
 42
1.0
 92
        0
 66
   257
 43
1.0
 76
     1
 77
     6
 78
     2
 67
     7
 79
     5
170
     0
171
     0
290
     0
174
     0
 93
       13
 44
0.0
173
     0
291
     1
 45
0.0
1001
ACAD
1000
AcDbSavedByObjectVersion
1070
     0
  0
VISUALSTYLE
  5
38
102
{ACAD_REACTORS
330
2A
102
}
102
{ACAD_XDICTIONARY
360
559
102
}
330
2A
100
AcDbVisualStyle
  2
Linepattern
 70
    14
 71
     2
 72
     2
 73
     0
 90
        0
 40
-0.6
 41
-30.0
 62
     5
 63
     7
421
 16777215
 74
     1
 91
        4
 64
     7
 65
   257
 75
     7
175
     7
 42
1.0
 92
        8
 66
     7
 43
1.0
 76
     1
 77
     6
 78
     2
 67
     7
 79
     5
170
     0
171
     0
290
     0
174
     0
 93
        1
 44
0.0
173
     0
291
     1
 45
0.0
1001
ACAD
1000
AcDbSavedByObjectVersion
1070
     0
  0
VISUALSTYLE
  5
33
102
{ACAD_REACTORS
330
2A
102
}
102
{ACAD_XDICTIONARY
360
54F
102
}
330
2A
100
AcDbVisualStyle
  2
Realistic
 70
     8
 71
     2
 72
     2
 73
     0
 90
        0
 40
-0.6
 41
-30.0
 62
     5
 63
     7
421
 16777215
 74
     1
 91
        0
 64
     7
 65
   257
 75
     1
175
     1
 42
1.0
 92
        8
 66
     8
424
  7895160
 43
1.0
 76
     1
 77
     6
 78
     2
 67
     7
 79
     5
170
     0
171
     0
290
     0
174
     0
 93
       13
 44
0.0
173
     0
291
     0
 45
0.0
1001
ACAD
1000
AcDbSavedByObjectVersion
1070
     0
  0
VISUALSTYLE
  5
37
102
{ACAD_REACTORS
330
2A
102
}
102
{ACAD_XDICTIONARY
360
557
102
}
330
2A
100
AcDbVisualStyle
  2
Thicken
 70
    13
 71
     2
 72
     2
 73
     0
 90
        0
 40
-0.6
 41
-30.0
 62
     5
 63
     7
421
 16777215
 74
     1
 91
        4
 64
     7
 65
   257
 75
     1
175
     1
 42
1.0
 92
       12
 66
     7
 43
1.0
 76
     1
 77
     6
 78
     2
 67
     7
 79
     5
170
     0
171
     0
290
     0
174
     0
 93
        1
 44
0.0
173
     0
291
     1
 45
0.0
1001
ACAD
1000
AcDbSavedByObjectVersion
1070
     0
  0
DICTIONARY
  5
561
330
3D
100
AcDbDictionary
280
     1
281
     1
  3
ACAD_XREC_ROUNDTRIP
360
562
  0
DICTIONARY
  5
55F
330
3C
100
AcDbDictionary
280
     1
281
     1
  3
ACAD_XREC_ROUNDTRIP
360
560
  0
DICTIONARY
  5
563
330
3E
100
AcDbDictionary
280
     1
281
     1
  3
ACAD_XREC_ROUNDTRIP
360
564
  0
DICTIONARY
  5
547
330
2F
100
AcDbDictionary
280
     1
281
     1
  3
ACAD_XREC_ROUNDTRIP
360
548
  0
DICTIONARY
  5
54B
330
31
100
AcDbDictionary
280
     1
281
     1
  3
ACAD_XREC_ROUNDTRIP
360
54C
  0
DICTIONARY
  5
549
330
30
100
AcDbDictionary
280
     1
281
     1
  3
ACAD_XREC_ROUNDTRIP
360
54A
  0
DICTIONARY
  5
54D
330
32
100
AcDbDictionary
280
     1
281
     1
  3
ACAD_XREC_ROUNDTRIP
360
54E
  0
DICTIONARY
  5
555
330
36
100
AcDbDictionary
280
     1
281
     1
  3
ACAD_XREC_ROUNDTRIP
360
556
  0
DICTIONARY
  5
55D
330
3A
100
AcDbDictionary
280
     1
281
     1
  3
ACAD_XREC_ROUNDTRIP
360
55E
  0
DICTIONARY
  5
551
330
34
100
AcDbDictionary
280
     1
281
     1
  3
ACAD_XREC_ROUNDTRIP
360
552
  0
DICTIONARY
  5
553
330
35
100
AcDbDictionary
280
     1
281
     1
  3
ACAD_XREC_ROUNDTRIP
360
554
  0
DICTIONARY
  5
55B
330
39
100
AcDbDictionary
280
     1
281
     1
  3
ACAD_XREC_ROUNDTRIP
360
55C
  0
DICTIONARY
  5
53F
330
2B
100
AcDbDictionary
280
     1
281
     1
  3
ACAD_XREC_ROUNDTRIP
360
540
  0
DICTIONARY
  5
541
330
2C
100
AcDbDictionary
280
     1
281
     1
  3
ACAD_XREC_ROUNDTRIP
360
542
  0
DICTIONARY
  5
543
330
2D
100
AcDbDictionary
280
     1
281
     1
  3
ACAD_XREC_ROUNDTRIP
360
544
  0
DICTIONARY
  5
545
330
2E
100
AcDbDictionary
280
     1
281
     1
  3
ACAD_XREC_ROUNDTRIP
360
546
  0
DICTIONARY
  5
559
330
38
100
AcDbDictionary
280
     1
281
     1
  3
ACAD_XREC_ROUNDTRIP
360
55A
  0
DICTIONARY
  5
54F
330
33
100
AcDbDictionary
280
     1
281
     1
  3
ACAD_XREC_ROUNDTRIP
360
550
  0
DICTIONARY
  5
557
330
37
100
AcDbDictionary
280
     1
281
     1
  3
ACAD_XREC_ROUNDTRIP
360
558
  0
XRECORD
  5
562
102
{ACAD_REACTORS
330
561
102
}
330
561
100
AcDbXrecord
280
     1
102
MATERIAL
148
0.0
149
0.0
149
0.0
 93
        0
 94
      127
282
     0
 72
     1
 77
     1
171
     1
175
     1
179
     1
273
     0
  0
XRECORD
  5
560
102
{ACAD_REACTORS
330
55F
102
}
330
55F
100
AcDbXrecord
280
     1
102
MATERIAL
148
0.0
149
0.0
149
0.0
 93
        0
 94
      127
282
     0
 72
     1
 77
     1
171
     1
175
     1
179
     1
273
     0
  0
XRECORD
  5
564
102
{ACAD_REACTORS
330
563
102
}
330
563
100
AcDbXrecord
280
     1
102
MATERIAL
148
0.0
149
0.0
149
0.0
 93
        0
 94
      127
282
     0
 72
     1
 77
     1
171
     1
175
     1
179
     1
273
     0
  0
XRECORD
  5
548
102
{ACAD_REACTORS
330
547
102
}
330
547
100
AcDbXrecord
280
     1
102
RTVSPropertyOp0
 70
     1
102
RTVSPropertyOp1
 70
     1
102
RTVSPropertyOp2
 70
     1
102
RTVSPropertyOp3
 70
     1
102
RTVSPropertyOp4
 70
     1
102
RTVSPropertyOp5
 70
     1
102
RTVSPropertyOp6
 70
     1
102
RTVSPropertyOp7
 70
     1
102
RTVSPropertyOp8
 70
     1
102
RTVSPropertyOp9
 70
     1
102
RTVSPropertyOp10
 70
     1
102
RTVSPropertyOp11
 70
     1
102
RTVSPropertyOp12
 70
     1
102
RTVSPropertyOp13
 70
     1
102
RTVSPropertyOp14
 70
     1
102
RTVSPropertyOp15
 70
     1
102
RTVSPropertyOp16
 70
     1
102
RTVSPropertyOp17
 70
     1
102
RTVSPropertyOp18
 70
     1
102
RTVSPropertyOp19
 70
     1
102
RTVSPropertyOp20
 70
     1
102
RTVSPropertyOp21
 70
     1
102
RTVSPropertyOp22
 70
     1
102
RTVSPropertyOp23
 70
     1
102
RTVSPropertyOp24
 70
     1
102
RTVSPropertyOp25
 70
     1
102
RTVSPropertyOp26
 70
     1
102
RTVSPropertyOp27
 70
     1
102
RTVSPropertyOp28
 70
     1
102
RTVSPropertyOp29
 70
     1
102
RTVSPropertyOp30
 70
     1
102
RTVSPropertyOp31
 70
     1
102
RTVSPropertyOp32
 70
     1
  0
XRECORD
  5
54C
102
{ACAD_REACTORS
330
54B
102
}
330
54B
100
AcDbXrecord
280
     1
102
RTVSPropertyOp0
 70
     1
102
RTVSPropertyOp1
 70
     1
102
RTVSPropertyOp2
 70
     1
102
RTVSPropertyOp3
 70
     1
102
RTVSPropertyOp4
 70
     1
102
RTVSPropertyOp5
 70
     1
102
RTVSPropertyOp6
 70
     1
102
RTVSPropertyOp7
 70
     1
102
RTVSPropertyOp8
 70
     1
102
RTVSPropertyOp9
 70
     1
102
RTVSPropertyOp10
 70
     1
102
RTVSPropertyOp11
 70
     1
102
RTVSPropertyOp12
 70
     1
102
RTVSPropertyOp13
 70
     1
102
RTVSPropertyOp14
 70
     1
102
RTVSPropertyOp15
 70
     1
102
RTVSPropertyOp16
 70
     1
102
RTVSPropertyOp17
 70
     1
102
RTVSPropertyOp18
 70
     1
102
RTVSPropertyOp19
 70
     1
102
RTVSPropertyOp20
 70
     1
102
RTVSPropertyOp21
 70
     1
102
RTVSPropertyOp22
 70
     1
102
RTVSPropertyOp23
 70
     1
102
RTVSPropertyOp24
 70
     1
102
RTVSPropertyOp25
 70
     1
102
RTVSPropertyOp26
 70
     1
102
RTVSPropertyOp27
 70
     1
102
RTVSPropertyOp28
 70
     1
102
RTVSPropertyOp29
 70
     1
102
RTVSPropertyOp30
 70
     1
102
RTVSPropertyOp31
 70
     1
102
RTVSPropertyOp32
 70
     1
  0
XRECORD
  5
54A
102
{ACAD_REACTORS
330
549
102
}
330
549
100
AcDbXrecord
280
     1
102
RTVSPropertyOp0
 70
     1
102
RTVSPropertyOp1
 70
     1
102
RTVSPropertyOp2
 70
     1
102
RTVSPropertyOp3
 70
     1
102
RTVSPropertyOp4
 70
     1
102
RTVSPropertyOp5
 70
     1
102
RTVSPropertyOp6
 70
     1
102
RTVSPropertyOp7
 70
     1
102
RTVSPropertyOp8
 70
     1
102
RTVSPropertyOp9
 70
     1
102
RTVSPropertyOp10
 70
     1
102
RTVSPropertyOp11
 70
     1
102
RTVSPropertyOp12
 70
     1
102
RTVSPropertyOp13
 70
     1
102
RTVSPropertyOp14
 70
     1
102
RTVSPropertyOp15
 70
     1
102
RTVSPropertyOp16
 70
     1
102
RTVSPropertyOp17
 70
     1
102
RTVSPropertyOp18
 70
     1
102
RTVSPropertyOp19
 70
     1
102
RTVSPropertyOp20
 70
     1
102
RTVSPropertyOp21
 70
     1
102
RTVSPropertyOp22
 70
     1
102
RTVSPropertyOp23
 70
     1
102
RTVSPropertyOp24
 70
     1
102
RTVSPropertyOp25
 70
     1
102
RTVSPropertyOp26
 70
     1
102
RTVSPropertyOp27
 70
     1
102
RTVSPropertyOp28
 70
     1
102
RTVSPropertyOp29
 70
     1
102
RTVSPropertyOp30
 70
     1
102
RTVSPropertyOp31
 70
     1
102
RTVSPropertyOp32
 70
     1
  0
XRECORD
  5
54E
102
{ACAD_REACTORS
330
54D
102
}
330
54D
100
AcDbXrecord
280
     1
102
RTVSPropertyOp0
 70
     1
102
RTVSPropertyOp1
 70
     1
102
RTVSPropertyOp2
 70
     1
102
RTVSPropertyOp3
 70
     1
102
RTVSPropertyOp4
 70
     1
102
RTVSPropertyOp5
 70
     1
102
RTVSPropertyOp6
 70
     1
102
RTVSPropertyOp7
 70
     1
102
RTVSPropertyOp8
 70
     1
102
RTVSPropertyOp9
 70
     1
102
RTVSPropertyOp10
 70
     1
102
RTVSPropertyOp11
 70
     1
102
RTVSPropertyOp12
 70
     1
102
RTVSPropertyOp13
 70
     1
102
RTVSPropertyOp14
 70
     1
102
RTVSPropertyOp15
 70
     1
102
RTVSPropertyOp16
 70
     1
102
RTVSPropertyOp17
 70
     1
102
RTVSPropertyOp18
 70
     1
102
RTVSPropertyOp19
 70
     1
102
RTVSPropertyOp20
 70
     1
102
RTVSPropertyOp21
 70
     1
102
RTVSPropertyOp22
 70
     1
102
RTVSPropertyOp23
 70
     1
102
RTVSPropertyOp24
 70
     1
102
RTVSPropertyOp25
 70
     1
102
RTVSPropertyOp26
 70
     1
102
RTVSPropertyOp27
 70
     1
102
RTVSPropertyOp28
 70
     1
102
RTVSPropertyOp29
 70
     1
102
RTVSPropertyOp30
 70
     1
102
RTVSPropertyOp31
 70
     1
102
RTVSPropertyOp32
 70
     1
  0
XRECORD
  5
556
102
{ACAD_REACTORS
330
555
102
}
330
555
100
AcDbXrecord
280
     1
102
RTVSPropertyOp0
 70
     1
102
RTVSPropertyOp1
 70
     1
102
RTVSPropertyOp2
 70
     1
102
RTVSPropertyOp3
 70
     1
102
RTVSPropertyOp4
 70
     1
102
RTVSPropertyOp5
 70
     1
102
RTVSPropertyOp6
 70
     1
102
RTVSPropertyOp7
 70
     1
102
RTVSPropertyOp8
 70
     1
102
RTVSPropertyOp9
 70
     1
102
RTVSPropertyOp10
 70
     1
102
RTVSPropertyOp11
 70
     1
102
RTVSPropertyOp12
 70
     1
102
RTVSPropertyOp13
 70
     1
102
RTVSPropertyOp14
 70
     1
102
RTVSPropertyOp15
 70
     1
102
RTVSPropertyOp16
 70
     1
102
RTVSPropertyOp17
 70
     1
102
RTVSPropertyOp18
 70
     1
102
RTVSPropertyOp19
 70
     1
102
RTVSPropertyOp20
 70
     1
102
RTVSPropertyOp21
 70
     1
102
RTVSPropertyOp22
 70
     1
102
RTVSPropertyOp23
 70
     1
102
RTVSPropertyOp24
 70
     1
102
RTVSPropertyOp25
 70
     1
102
RTVSPropertyOp26
 70
     1
102
RTVSPropertyOp27
 70
     1
102
RTVSPropertyOp28
 70
     1
102
RTVSPropertyOp29
 70
     1
102
RTVSPropertyOp30
 70
     1
102
RTVSPropertyOp31
 70
     1
102
RTVSPropertyOp32
 70
     1
  0
XRECORD
  5
55E
102
{ACAD_REACTORS
330
55D
102
}
330
55D
100
AcDbXrecord
280
     1
102
RTVSPropertyOp0
 70
     1
102
RTVSPropertyOp1
 70
     1
102
RTVSPropertyOp2
 70
     1
102
RTVSPropertyOp3
 70
     1
102
RTVSPropertyOp4
 70
     1
102
RTVSPropertyOp5
 70
     1
102
RTVSPropertyOp6
 70
     1
102
RTVSPropertyOp7
 70
     1
102
RTVSPropertyOp8
 70
     1
102
RTVSPropertyOp9
 70
     1
102
RTVSPropertyOp10
 70
     1
102
RTVSPropertyOp11
 70
     1
102
RTVSPropertyOp12
 70
     1
102
RTVSPropertyOp13
 70
     1
102
RTVSPropertyOp14
 70
     1
102
RTVSPropertyOp15
 70
     1
102
RTVSPropertyOp16
 70
     1
102
RTVSPropertyOp17
 70
     1
102
RTVSPropertyOp18
 70
     1
102
RTVSPropertyOp19
 70
     1
102
RTVSPropertyOp20
 70
     1
102
RTVSPropertyOp21
 70
     1
102
RTVSPropertyOp22
 70
     1
102
RTVSPropertyOp23
 70
     1
102
RTVSPropertyOp24
 70
     1
102
RTVSPropertyOp25
 70
     1
102
RTVSPropertyOp26
 70
     1
102
RTVSPropertyOp27
 70
     1
102
RTVSPropertyOp28
 70
     1
102
RTVSPropertyOp29
 70
     1
102
RTVSPropertyOp30
 70
     1
102
RTVSPropertyOp31
 70
     1
102
RTVSPropertyOp32
 70
     1
  0
XRECORD
  5
552
102
{ACAD_REACTORS
330
551
102
}
330
551
100
AcDbXrecord
280
     1
102
RTVSPropertyOp0
 70
     1
102
RTVSPropertyOp1
 70
     1
102
RTVSPropertyOp2
 70
     1
102
RTVSPropertyOp3
 70
     1
102
RTVSPropertyOp4
 70
     1
102
RTVSPropertyOp5
 70
     1
102
RTVSPropertyOp6
 70
     1
102
RTVSPropertyOp7
 70
     1
102
RTVSPropertyOp8
 70
     1
102
RTVSPropertyOp9
 70
     1
102
RTVSPropertyOp10
 70
     1
102
RTVSPropertyOp11
 70
     1
102
RTVSPropertyOp12
 70
     1
102
RTVSPropertyOp13
 70
     1
102
RTVSPropertyOp14
 70
     1
102
RTVSPropertyOp15
 70
     1
102
RTVSPropertyOp16
 70
     1
102
RTVSPropertyOp17
 70
     1
102
RTVSPropertyOp18
 70
     1
102
RTVSPropertyOp19
 70
     1
102
RTVSPropertyOp20
 70
     1
102
RTVSPropertyOp21
 70
     1
102
RTVSPropertyOp22
 70
     1
102
RTVSPropertyOp23
 70
     1
102
RTVSPropertyOp24
 70
     1
102
RTVSPropertyOp25
 70
     1
102
RTVSPropertyOp26
 70
     1
102
RTVSPropertyOp27
 70
     1
102
RTVSPropertyOp28
 70
     1
102
RTVSPropertyOp29
 70
     1
102
RTVSPropertyOp30
 70
     1
102
RTVSPropertyOp31
 70
     1
102
RTVSPropertyOp32
 70
     1
  0
XRECORD
  5
554
102
{ACAD_REACTORS
330
553
102
}
330
553
100
AcDbXrecord
280
     1
102
RTVSPropertyOp0
 70
     1
102
RTVSPropertyOp1
 70
     1
102
RTVSPropertyOp2
 70
     1
102
RTVSPropertyOp3
 70
     1
102
RTVSPropertyOp4
 70
     1
102
RTVSPropertyOp5
 70
     1
102
RTVSPropertyOp6
 70
     1
102
RTVSPropertyOp7
 70
     1
102
RTVSPropertyOp8
 70
     1
102
RTVSPropertyOp9
 70
     1
102
RTVSPropertyOp10
 70
     1
102
RTVSPropertyOp11
 70
     1
102
RTVSPropertyOp12
 70
     1
102
RTVSPropertyOp13
 70
     1
102
RTVSPropertyOp14
 70
     1
102
RTVSPropertyOp15
 70
     1
102
RTVSPropertyOp16
 70
     1
102
RTVSPropertyOp17
 70
     1
102
RTVSPropertyOp18
 70
     1
102
RTVSPropertyOp19
 70
     1
102
RTVSPropertyOp20
 70
     1
102
RTVSPropertyOp21
 70
     1
102
RTVSPropertyOp22
 70
     1
102
RTVSPropertyOp23
 70
     1
102
RTVSPropertyOp24
 70
     1
102
RTVSPropertyOp25
 70
     1
102
RTVSPropertyOp26
 70
     1
102
RTVSPropertyOp27
 70
     1
102
RTVSPropertyOp28
 70
     1
102
RTVSPropertyOp29
 70
     1
102
RTVSPropertyOp30
 70
     1
102
RTVSPropertyOp31
 70
     1
102
RTVSPropertyOp32
 70
     1
  0
XRECORD
  5
55C
102
{ACAD_REACTORS
330
55B
102
}
330
55B
100
AcDbXrecord
280
     1
102
RTVSPropertyOp0
 70
     1
102
RTVSPropertyOp1
 70
     1
102
RTVSPropertyOp2
 70
     1
102
RTVSPropertyOp3
 70
     1
102
RTVSPropertyOp4
 70
     1
102
RTVSPropertyOp5
 70
     1
102
RTVSPropertyOp6
 70
     1
102
RTVSPropertyOp7
 70
     1
102
RTVSPropertyOp8
 70
     1
102
RTVSPropertyOp9
 70
     1
102
RTVSPropertyOp10
 70
     1
102
RTVSPropertyOp11
 70
     1
102
RTVSPropertyOp12
 70
     1
102
RTVSPropertyOp13
 70
     1
102
RTVSPropertyOp14
 70
     1
102
RTVSPropertyOp15
 70
     1
102
RTVSPropertyOp16
 70
     1
102
RTVSPropertyOp17
 70
     1
102
RTVSPropertyOp18
 70
     1
102
RTVSPropertyOp19
 70
     1
102
RTVSPropertyOp20
 70
     1
102
RTVSPropertyOp21
 70
     1
102
RTVSPropertyOp22
 70
     1
102
RTVSPropertyOp23
 70
     1
102
RTVSPropertyOp24
 70
     1
102
RTVSPropertyOp25
 70
     1
102
RTVSPropertyOp26
 70
     1
102
RTVSPropertyOp27
 70
     1
102
RTVSPropertyOp28
 70
     1
102
RTVSPropertyOp29
 70
     1
102
RTVSPropertyOp30
 70
     1
102
RTVSPropertyOp31
 70
     1
102
RTVSPropertyOp32
 70
     1
  0
XRECORD
  5
540
102
{ACAD_REACTORS
330
53F
102
}
330
53F
100
AcDbXrecord
280
     1
102
RTVSPropertyOp0
 70
     1
102
RTVSPropertyOp1
 70
     1
102
RTVSPropertyOp2
 70
     1
102
RTVSPropertyOp3
 70
     1
102
RTVSPropertyOp4
 70
     1
102
RTVSPropertyOp5
 70
     1
102
RTVSPropertyOp6
 70
     1
102
RTVSPropertyOp7
 70
     1
102
RTVSPropertyOp8
 70
     1
102
RTVSPropertyOp9
 70
     1
102
RTVSPropertyOp10
 70
     1
102
RTVSPropertyOp11
 70
     1
102
RTVSPropertyOp12
 70
     1
102
RTVSPropertyOp13
 70
     1
102
RTVSPropertyOp14
 70
     1
102
RTVSPropertyOp15
 70
     1
102
RTVSPropertyOp16
 70
     1
102
RTVSPropertyOp17
 70
     1
102
RTVSPropertyOp18
 70
     1
102
RTVSPropertyOp19
 70
     1
102
RTVSPropertyOp20
 70
     1
102
RTVSPropertyOp21
 70
     1
102
RTVSPropertyOp22
 70
     1
102
RTVSPropertyOp23
 70
     1
102
RTVSPropertyOp24
 70
     1
102
RTVSPropertyOp25
 70
     1
102
RTVSPropertyOp26
 70
     1
102
RTVSPropertyOp27
 70
     1
102
RTVSPropertyOp28
 70
     1
102
RTVSPropertyOp29
 70
     1
102
RTVSPropertyOp30
 70
     1
102
RTVSPropertyOp31
 70
     1
102
RTVSPropertyOp32
 70
     1
  0
XRECORD
  5
542
102
{ACAD_REACTORS
330
541
102
}
330
541
100
AcDbXrecord
280
     1
102
RTVSPropertyOp0
 70
     1
102
RTVSPropertyOp1
 70
     1
102
RTVSPropertyOp2
 70
     1
102
RTVSPropertyOp3
 70
     1
102
RTVSPropertyOp4
 70
     1
102
RTVSPropertyOp5
 70
     1
102
RTVSPropertyOp6
 70
     1
102
RTVSPropertyOp7
 70
     1
102
RTVSPropertyOp8
 70
     1
102
RTVSPropertyOp9
 70
     1
102
RTVSPropertyOp10
 70
     1
102
RTVSPropertyOp11
 70
     1
102
RTVSPropertyOp12
 70
     1
102
RTVSPropertyOp13
 70
     1
102
RTVSPropertyOp14
 70
     1
102
RTVSPropertyOp15
 70
     1
102
RTVSPropertyOp16
 70
     1
102
RTVSPropertyOp17
 70
     1
102
RTVSPropertyOp18
 70
     1
102
RTVSPropertyOp19
 70
     1
102
RTVSPropertyOp20
 70
     1
102
RTVSPropertyOp21
 70
     1
102
RTVSPropertyOp22
 70
     1
102
RTVSPropertyOp23
 70
     1
102
RTVSPropertyOp24
 70
     1
102
RTVSPropertyOp25
 70
     1
102
RTVSPropertyOp26
 70
     1
102
RTVSPropertyOp27
 70
     1
102
RTVSPropertyOp28
 70
     1
102
RTVSPropertyOp29
 70
     1
102
RTVSPropertyOp30
 70
     1
102
RTVSPropertyOp31
 70
     1
102
RTVSPropertyOp32
 70
     1
  0
XRECORD
  5
544
102
{ACAD_REACTORS
330
543
102
}
330
543
100
AcDbXrecord
280
     1
102
RTVSPropertyOp0
 70
     1
102
RTVSPropertyOp1
 70
     1
102
RTVSPropertyOp2
 70
     1
102
RTVSPropertyOp3
 70
     1
102
RTVSPropertyOp4
 70
     1
102
RTVSPropertyOp5
 70
     1
102
RTVSPropertyOp6
 70
     1
102
RTVSPropertyOp7
 70
     1
102
RTVSPropertyOp8
 70
     1
102
RTVSPropertyOp9
 70
     1
102
RTVSPropertyOp10
 70
     1
102
RTVSPropertyOp11
 70
     1
102
RTVSPropertyOp12
 70
     1
102
RTVSPropertyOp13
 70
     1
102
RTVSPropertyOp14
 70
     1
102
RTVSPropertyOp15
 70
     1
102
RTVSPropertyOp16
 70
     1
102
RTVSPropertyOp17
 70
     1
102
RTVSPropertyOp18
 70
     1
102
RTVSPropertyOp19
 70
     1
102
RTVSPropertyOp20
 70
     1
102
RTVSPropertyOp21
 70
     1
102
RTVSPropertyOp22
 70
     1
102
RTVSPropertyOp23
 70
     1
102
RTVSPropertyOp24
 70
     1
102
RTVSPropertyOp25
 70
     1
102
RTVSPropertyOp26
 70
     1
102
RTVSPropertyOp27
 70
     1
102
RTVSPropertyOp28
 70
     1
102
RTVSPropertyOp29
 70
     1
102
RTVSPropertyOp30
 70
     1
102
RTVSPropertyOp31
 70
     1
102
RTVSPropertyOp32
 70
     1
  0
XRECORD
  5
546
102
{ACAD_REACTORS
330
545
102
}
330
545
100
AcDbXrecord
280
     1
102
RTVSPropertyOp0
 70
     1
102
RTVSPropertyOp1
 70
     1
102
RTVSPropertyOp2
 70
     1
102
RTVSPropertyOp3
 70
     1
102
RTVSPropertyOp4
 70
     1
102
RTVSPropertyOp5
 70
     1
102
RTVSPropertyOp6
 70
     1
102
RTVSPropertyOp7
 70
     1
102
RTVSPropertyOp8
 70
     1
102
RTVSPropertyOp9
 70
     1
102
RTVSPropertyOp10
 70
     1
102
RTVSPropertyOp11
 70
     1
102
RTVSPropertyOp12
 70
     1
102
RTVSPropertyOp13
 70
     1
102
RTVSPropertyOp14
 70
     1
102
RTVSPropertyOp15
 70
     1
102
RTVSPropertyOp16
 70
     1
102
RTVSPropertyOp17
 70
     1
102
RTVSPropertyOp18
 70
     1
102
RTVSPropertyOp19
 70
     1
102
RTVSPropertyOp20
 70
     1
102
RTVSPropertyOp21
 70
     1
102
RTVSPropertyOp22
 70
     1
102
RTVSPropertyOp23
 70
     1
102
RTVSPropertyOp24
 70
     1
102
RTVSPropertyOp25
 70
     1
102
RTVSPropertyOp26
 70
     1
102
RTVSPropertyOp27
 70
     1
102
RTVSPropertyOp28
 70
     1
102
RTVSPropertyOp29
 70
     1
102
RTVSPropertyOp30
 70
     1
102
RTVSPropertyOp31
 70
     1
102
RTVSPropertyOp32
 70
     1
  0
XRECORD
  5
55A
102
{ACAD_REACTORS
330
559
102
}
330
559
100
AcDbXrecord
280
     1
102
RTVSPropertyOp0
 70
     1
102
RTVSPropertyOp1
 70
     1
102
RTVSPropertyOp2
 70
     1
102
RTVSPropertyOp3
 70
     1
102
RTVSPropertyOp4
 70
     1
102
RTVSPropertyOp5
 70
     1
102
RTVSPropertyOp6
 70
     1
102
RTVSPropertyOp7
 70
     1
102
RTVSPropertyOp8
 70
     1
102
RTVSPropertyOp9
 70
     1
102
RTVSPropertyOp10
 70
     1
102
RTVSPropertyOp11
 70
     1
102
RTVSPropertyOp12
 70
     1
102
RTVSPropertyOp13
 70
     1
102
RTVSPropertyOp14
 70
     1
102
RTVSPropertyOp15
 70
     1
102
RTVSPropertyOp16
 70
     1
102
RTVSPropertyOp17
 70
     1
102
RTVSPropertyOp18
 70
     1
102
RTVSPropertyOp19
 70
     1
102
RTVSPropertyOp20
 70
     1
102
RTVSPropertyOp21
 70
     1
102
RTVSPropertyOp22
 70
     1
102
RTVSPropertyOp23
 70
     1
102
RTVSPropertyOp24
 70
     1
102
RTVSPropertyOp25
 70
     1
102
RTVSPropertyOp26
 70
     1
102
RTVSPropertyOp27
 70
     1
102
RTVSPropertyOp28
 70
     1
102
RTVSPropertyOp29
 70
     1
102
RTVSPropertyOp30
 70
     1
102
RTVSPropertyOp31
 70
     1
102
RTVSPropertyOp32
 70
     1
  0
XRECORD
  5
550
102
{ACAD_REACTORS
330
54F
102
}
330
54F
100
AcDbXrecord
280
     1
102
RTVSPropertyOp0
 70
     1
102
RTVSPropertyOp1
 70
     1
102
RTVSPropertyOp2
 70
     1
102
RTVSPropertyOp3
 70
     1
102
RTVSPropertyOp4
 70
     1
102
RTVSPropertyOp5
 70
     1
102
RTVSPropertyOp6
 70
     1
102
RTVSPropertyOp7
 70
     1
102
RTVSPropertyOp8
 70
     1
102
RTVSPropertyOp9
 70
     1
102
RTVSPropertyOp10
 70
     1
102
RTVSPropertyOp11
 70
     1
102
RTVSPropertyOp12
 70
     1
102
RTVSPropertyOp13
 70
     1
102
RTVSPropertyOp14
 70
     1
102
RTVSPropertyOp15
 70
     1
102
RTVSPropertyOp16
 70
     1
102
RTVSPropertyOp17
 70
     1
102
RTVSPropertyOp18
 70
     1
102
RTVSPropertyOp19
 70
     1
102
RTVSPropertyOp20
 70
     1
102
RTVSPropertyOp21
 70
     1
102
RTVSPropertyOp22
 70
     1
102
RTVSPropertyOp23
 70
     1
102
RTVSPropertyOp24
 70
     1
102
RTVSPropertyOp25
 70
     1
102
RTVSPropertyOp26
 70
     1
102
RTVSPropertyOp27
 70
     1
102
RTVSPropertyOp28
 70
     1
102
RTVSPropertyOp29
 70
     1
102
RTVSPropertyOp30
 70
     1
102
RTVSPropertyOp31
 70
     1
102
RTVSPropertyOp32
 70
     1
  0
XRECORD
  5
558
102
{ACAD_REACTORS
330
557
102
}
330
557
100
AcDbXrecord
280
     1
102
RTVSPropertyOp0
 70
     1
102
RTVSPropertyOp1
 70
     1
102
RTVSPropertyOp2
 70
     1
102
RTVSPropertyOp3
 70
     1
102
RTVSPropertyOp4
 70
     1
102
RTVSPropertyOp5
 70
     1
102
RTVSPropertyOp6
 70
     1
102
RTVSPropertyOp7
 70
     1
102
RTVSPropertyOp8
 70
     1
102
RTVSPropertyOp9
 70
     1
102
RTVSPropertyOp10
 70
     1
102
RTVSPropertyOp11
 70
     1
102
RTVSPropertyOp12
 70
     1
102
RTVSPropertyOp13
 70
     1
102
RTVSPropertyOp14
 70
     1
102
RTVSPropertyOp15
 70
     1
102
RTVSPropertyOp16
 70
     1
102
RTVSPropertyOp17
 70
     1
102
RTVSPropertyOp18
 70
     1
102
RTVSPropertyOp19
 70
     1
102
RTVSPropertyOp20
 70
     1
102
RTVSPropertyOp21
 70
     1
102
RTVSPropertyOp22
 70
     1
102
RTVSPropertyOp23
 70
     1
102
RTVSPropertyOp24
 70
     1
102
RTVSPropertyOp25
 70
     1
102
RTVSPropertyOp26
 70
     1
102
RTVSPropertyOp27
 70
     1
102
RTVSPropertyOp28
 70
     1
102
RTVSPropertyOp29
 70
     1
102
RTVSPropertyOp30
 70
     1
102
RTVSPropertyOp31
 70
     1
102
RTVSPropertyOp32
 70
     1
  0
ENDSEC
  0
EOF
