  0
SECTION
  2
HEADER
  9
$ACADVER
  1
AC1018
  9
$ACADMAINTVER
 70
     0
  9
$DWGCODEPAGE
  3
ANSI_932
  9
$INSBASE
 10
0.0
 20
0.0
 30
0.0
  9
$EXTMIN
 10
-105.0
 20
-148.5
 30
0.0
  9
$EXTMAX
 10
105.0
 20
148.5
 30
0.0
  9
$LIMMIN
 10
-105.0
 20
-148.5
  9
$LIMMAX
 10
105.0
 20
148.5
  9
$ORTHOMODE
 70
     0
  9
$REGENMODE
 70
     1
  9
$FILLMODE
 70
     1
  9
$QTEXTMODE
 70
     0
  9
$MIRRTEXT
 70
     1
  9
$LTSCALE
 40
1.0
  9
$ATTMODE
 70
     1
  9
$TEXTSIZE
 40
2.5
  9
$TRACEWID
 40
1.0
  9
$TEXTSTYLE
  7
Standard
  9
$CLAYER
  8
0
  9
$CELTYPE
  6
ByLayer
  9
$CECOLOR
 62
   256
  9
$CELTSCALE
 40
1.0
  9
$DISPSILH
 70
     0
  9
$DIMSCALE
 40
1.0
  9
$DIMASZ
 40
2.5
  9
$DIMEXO
 40
0.625
  9
$DIMDLI
 40
3.75
  9
$DIMRND
 40
0.0
  9
$DIMDLE
 40
0.0
  9
$DIMEXE
 40
1.25
  9
$DIMTP
 40
0.0
  9
$DIMTM
 40
0.0
  9
$DIMTXT
 40
2.5
  9
$DIMCEN
 40
2.5
  9
$DIMTSZ
 40
0.0
  9
$DIMTOL
 70
     0
  9
$DIMLIM
 70
     0
  9
$DIMTIH
 70
     0
  9
$DIMTOH
 70
     0
  9
$DIMSE1
 70
     0
  9
$DIMSE2
 70
     0
  9
$DIMTAD
 70
     1
  9
$DIMZIN
 70
     8
  9
$DIMBLK
  1

  9
$DIMASO
 70
     1
  9
$DIMSHO
 70
     1
  9
$DIMPOST
  1

  9
$DIMAPOST
  1

  9
$DIMALT
 70
     0
  9
$DIMALTD
 70
     3
  9
$DIMALTF
 40
0.03937007874016
  9
$DIMLFAC
 40
1.0
  9
$DIMTOFL
 70
     1
  9
$DIMTVP
 40
0.0
  9
$DIMTIX
 70
     0
  9
$DIMSOXD
 70
     0
  9
$DIMSAH
 70
     0
  9
$DIMBLK1
  1

  9
$DIMBLK2
  1

  9
$DIMSTYLE
  2
ISO-25
  9
$DIMCLRD
 70
     0
  9
$DIMCLRE
 70
     0
  9
$DIMCLRT
 70
     0
  9
$DIMTFAC
 40
1.0
  9
$DIMGAP
 40
0.625
  9
$DIMJUST
 70
     0
  9
$DIMSD1
 70
     0
  9
$DIMSD2
 70
     0
  9
$DIMTOLJ
 70
     0
  9
$DIMTZIN
 70
     8
  9
$DIMALTZ
 70
     0
  9
$DIMALTTZ
 70
     0
  9
$DIMUPT
 70
     0
  9
$DIMDEC
 70
     2
  9
$DIMTDEC
 70
     2
  9
$DIMALTU
 70
     2
  9
$DIMALTTD
 70
     3
  9
$DIMTXSTY
  7
Standard
  9
$DIMAUNIT
 70
     0
  9
$DIMADEC
 70
     0
  9
$DIMALTRND
 40
0.0
  9
$DIMAZIN
 70
     0
  9
$DIMDSEP
 70
    44
  9
$DIMATFIT
 70
     3
  9
$DIMFRAC
 70
     0
  9
$DIMLDRBLK
  1

  9
$DIMLUNIT
 70
     2
  9
$DIMLWD
 70
    -2
  9
$DIMLWE
 70
    -2
  9
$DIMTMOVE
 70
     0
  9
$LUNITS
 70
     2
  9
$LUPREC
 70
     4
  9
$SKETCHINC
 40
1.0
  9
$FILLETRAD
 40
10.0
  9
$AUNITS
 70
     0
  9
$AUPREC
 70
     0
  9
$MENU
  1
.
  9
$ELEVATION
 40
0.0
  9
$PELEVATION
 40
0.0
  9
$THICKNESS
 40
0.0
  9
$LIMCHECK
 70
     0
  9
$CHAMFERA
 40
10.0
  9
$CHAMFERB
 40
10.0
  9
$CHAMFERC
 40
20.0
  9
$CHAMFERD
 40
0.0
  9
$SKPOLY
 70
     0
  9
$TDCREATE
 40
2457290.490999873
  9
$TDUCREATE
 40
2457290.115999873
  9
$TDUPDATE
 40
2457290.491000579
  9
$TDUUPDATE
 40
2457290.116000579
  9
$TDINDWG
 40
0.0000000116
  9
$TDUSRTIMER
 40
0.0000000116
  9
$USRTIMER
 70
     1
  9
$ANGBASE
 50
0.0
  9
$ANGDIR
 70
     0
  9
$PDMODE
 70
     0
  9
$PDSIZE
 40
0.0
  9
$PLINEWID
 40
0.0
  9
$SPLFRAME
 70
     0
  9
$SPLINETYPE
 70
     6
  9
$SPLINESEGS
 70
     8
  9
$HANDSEED
  5
45B
  9
$SURFTAB1
 70
     6
  9
$SURFTAB2
 70
     6
  9
$SURFTYPE
 70
     6
  9
$SURFU
 70
     6
  9
$SURFV
 70
     6
  9
$UCSBASE
  2

  9
$UCSNAME
  2

  9
$UCSORG
 10
0.0
 20
0.0
 30
0.0
  9
$UCSXDIR
 10
1.0
 20
0.0
 30
0.0
  9
$UCSYDIR
 10
0.0
 20
1.0
 30
0.0
  9
$UCSORTHOREF
  2

  9
$UCSORTHOVIEW
 70
     0
  9
$UCSORGTOP
 10
0.0
 20
0.0
 30
0.0
  9
$UCSORGBOTTOM
 10
0.0
 20
0.0
 30
0.0
  9
$UCSORGLEFT
 10
0.0
 20
0.0
 30
0.0
  9
$UCSORGRIGHT
 10
0.0
 20
0.0
 30
0.0
  9
$UCSORGFRONT
 10
0.0
 20
0.0
 30
0.0
  9
$UCSORGBACK
 10
0.0
 20
0.0
 30
0.0
  9
$PUCSBASE
  2

  9
$PUCSNAME
  2

  9
$PUCSORG
 10
0.0
 20
0.0
 30
0.0
  9
$PUCSXDIR
 10
1.0
 20
0.0
 30
0.0
  9
$PUCSYDIR
 10
0.0
 20
1.0
 30
0.0
  9
$PUCSORTHOREF
  2

  9
$PUCSORTHOVIEW
 70
     0
  9
$PUCSORGTOP
 10
0.0
 20
0.0
 30
0.0
  9
$PUCSORGBOTTOM
 10
0.0
 20
0.0
 30
0.0
  9
$PUCSORGLEFT
 10
0.0
 20
0.0
 30
0.0
  9
$PUCSORGRIGHT
 10
0.0
 20
0.0
 30
0.0
  9
$PUCSORGFRONT
 10
0.0
 20
0.0
 30
0.0
  9
$PUCSORGBACK
 10
0.0
 20
0.0
 30
0.0
  9
$USERI1
 70
     0
  9
$USERI2
 70
     0
  9
$USERI3
 70
     0
  9
$USERI4
 70
     0
  9
$USERI5
 70
     0
  9
$USERR1
 40
0.0
  9
$USERR2
 40
0.0
  9
$USERR3
 40
0.0
  9
$USERR4
 40
0.0
  9
$USERR5
 40
0.0
  9
$WORLDVIEW
 70
     1
  9
$SHADEDGE
 70
     3
  9
$SHADEDIF
 70
    70
  9
$TILEMODE
 70
     1
  9
$MAXACTVP
 70
    64
  9
$PINSBASE
 10
0.0
 20
0.0
 30
0.0
  9
$PLIMCHECK
 70
     0
  9
$PEXTMIN
 10
1.000000000000000E+20
 20
1.000000000000000E+20
 30
1.000000000000000E+20
  9
$PEXTMAX
 10
-1.000000000000000E+20
 20
-1.000000000000000E+20
 30
-1.000000000000000E+20
  9
$PLIMMIN
 10
-105.0
 20
-148.5
  9
$PLIMMAX
 10
105.0
 20
148.5
  9
$UNITMODE
 70
     0
  9
$VISRETAIN
 70
     1
  9
$PLINEGEN
 70
     0
  9
$PSLTSCALE
 70
     1
  9
$TREEDEPTH
 70
  3020
  9
$CMLSTYLE
  2
Standard
  9
$CMLJUST
 70
     0
  9
$CMLSCALE
 40
20.0
  9
$PROXYGRAPHICS
 70
     1
  9
$MEASUREMENT
 70
     1
  9
$CELWEIGHT
370
    -1
  9
$ENDCAPS
280
     0
  9
$JOINSTYLE
280
     0
  9
$LWDISPLAY
290
     0
  9
$INSUNITS
 70
     4
  9
$HYPERLINKBASE
  1

  9
$STYLESHEET
  1

  9
$XEDIT
290
     1
  9
$CEPSNTYPE
380
     0
  9
$PSTYLEMODE
290
     1
  9
$FINGERPRINTGUID
  2
{46D99499-D3C1-480F-9128-4149CFC1458F}
  9
$VERSIONGUID
  2
{FAEB1C32-E019-11D5-929B-00C0DF256EC4}
  9
$EXTNAMES
290
     1
  9
$PSVPSCALE
 40
0.0
  9
$OLESTARTUP
290
     0
  9
$SORTENTS
280
   127
  9
$INDEXCTL
280
     0
  9
$HIDETEXT
280
     1
  9
$XCLIPFRAME
290
     0
  9
$HALOGAP
280
     0
  9
$OBSCOLOR
 70
   257
  9
$OBSLTYPE
280
     0
  9
$INTERSECTIONDISPLAY
280
     0
  9
$INTERSECTIONCOLOR
 70
   257
  9
$DIMASSOC
280
     2
  9
$PROJECTNAME
  1

  0
ENDSEC
  0
SECTION
  2
CLASSES
  0
CLASS
  1
ACDBDICTIONARYWDFLT
  2
AcDbDictionaryWithDefault
  3
ObjectDBX Classes
 90
        0
 91
        4
280
     0
281
     0
  0
CLASS
  1
VISUALSTYLE
  2
AcDbVisualStyle
  3
ObjectDBX Classes
 90
     4095
 91
        4
280
     0
281
     0
  0
CLASS
  1
MATERIAL
  2
AcDbMaterial
  3
ObjectDBX Classes
 90
     1153
 91
        4
280
     0
281
     0
  0
CLASS
  1
SUN
  2
AcDbSun
  3
SCENEOE
 90
     1024
 91
        4
280
     0
281
     0
  0
ENDSEC
  0
SECTION
  2
TABLES
  0
TABLE
  2
VPORT
  5
8
330
0
100
AcDbSymbolTable
 70
     1
  0
VPORT
  5
29
330
8
100
AcDbSymbolTableRecord
100
AcDbViewportTableRecord
  2
*Active
 70
     0
 10
0.0
 20
0.0
 11
1.0
 21
1.0
 12
344.1869158878504
 22
148.5
 13
0.0
 23
0.0
 14
10.0
 24
10.0
 15
10.0
 25
10.0
 16
0.0
 26
0.0
 36
1.0
 17
0.0
 27
0.0
 37
0.0
 40
297.0
 41
1.972972972850329
 42
50.0
 43
0.0
 44
0.0
 50
0.0
 51
0.0
 71
     0
 72
   100
 73
     1
 74
     3
 75
     0
 76
     0
 77
     0
 78
     0
281
     0
 65
     1
110
0.0
120
0.0
130
0.0
111
1.0
121
0.0
131
0.0
112
0.0
122
1.0
132
0.0
 79
     0
146
0.0
  0
ENDTAB
  0
TABLE
  2
LTYPE
  5
5
330
0
100
AcDbSymbolTable
 70
     5
  0
LTYPE
  5
14
330
5
100
AcDbSymbolTableRecord
100
AcDbLinetypeTableRecord
  2
ByBlock
 70
     0
  3

 72
    65
 73
     0
 40
0.0
  0
LTYPE
  5
15
330
5
100
AcDbSymbolTableRecord
100
AcDbLinetypeTableRecord
  2
ByLayer
 70
     0
  3

 72
    65
 73
     0
 40
0.0
  0
LTYPE
  5
16
330
5
100
AcDbSymbolTableRecord
100
AcDbLinetypeTableRecord
  2
Continuous
 70
     0
  3
Solid line
 72
    65
 73
     0
 40
0.0
  0
LTYPE
  5
40
330
5
100
AcDbSymbolTableRecord
100
AcDbLinetypeTableRecord
  2
CONTINOUS
 70
     0
  3
______________________________
 72
    65
 73
     0
 40
0.0
  0
LTYPE
  5
41
330
5
100
AcDbSymbolTableRecord
100
AcDbLinetypeTableRecord
  2
DASHED
 70
     0
  3
__ __ __ __ __ __ __ __ __ __ __ __ __ __ __ __
 72
    65
 73
     2
 40
4.5
 49
3.0
 74
     0
 49
-1.5
 74
     0
  0
LTYPE
  5
42
330
5
100
AcDbSymbolTableRecord
100
AcDbLinetypeTableRecord
  2
PHANTOM
 70
     0
  3
______  __  __  ______  __  __  _____
 72
    65
 73
     6
 40
15.0
 49
7.5
 74
     0
 49
-1.5
 74
     0
 49
1.5
 74
     0
 49
-1.5
 74
     0
 49
1.5
 74
     0
 49
-1.5
 74
     0
  0
LTYPE
  5
43
330
5
100
AcDbSymbolTableRecord
100
AcDbLinetypeTableRecord
  2
CENTER
 70
     0
  3
____ _ ____ _ ____ _ ____ _ ____ _ ____
 72
    65
 73
     4
 40
12.0
 49
7.5
 74
     0
 49
-1.5
 74
     0
 49
1.5
 74
     0
 49
-1.5
 74
     0
  0
ENDTAB
  0
TABLE
  2
LAYER
  5
2
330
0
100
AcDbSymbolTable
 70
     3
  0
LAYER
  5
10
330
2
100
AcDbSymbolTableRecord
100
AcDbLayerTableRecord
  2
0
 70
     0
 62
     7
  6
Continuous
370
    -3
390
F
  0
LAYER
  5
DD
330
2
100
AcDbSymbolTableRecord
100
AcDbLayerTableRecord
  2
Defpoints
 70
     0
 62
     7
  6
Continuous
290
     0
370
    -3
390
F
  0
LAYER
  5
41B
330
2
100
AcDbSymbolTableRecord
100
AcDbLayerTableRecord
  2
VIEW0001
 70
     0
 62
     7
  6
Continuous
370
    -3
390
F
  0
ENDTAB
  0
TABLE
  2
STYLE
  5
3
330
0
100
AcDbSymbolTable
 70
     1
  0
STYLE
  5
11
330
3
100
AcDbSymbolTableRecord
100
AcDbTextStyleTableRecord
  2
Standard
 70
     0
 40
0.0
 41
1.0
 50
0.0
 71
     0
 42
2.5
  3
ROMANS
  4
BIGFONT
  0
ENDTAB
  0
TABLE
  2
VIEW
  5
6
330
0
100
AcDbSymbolTable
 70
     0
  0
ENDTAB
  0
TABLE
  2
UCS
  5
7
330
0
100
AcDbSymbolTable
 70
     0
  0
ENDTAB
  0
TABLE
  2
APPID
  5
9
330
0
100
AcDbSymbolTable
 70
     1
  0
APPID
  5
12
330
9
100
AcDbSymbolTableRecord
100
AcDbRegAppTableRecord
  2
ACAD
 70
     0
  0
ENDTAB
  0
TABLE
  2
DIMSTYLE
  5
A
330
0
100
AcDbSymbolTable
 70
     1
100
AcDbDimStyleTable
  0
DIMSTYLE
105
27
102
{ACAD_REACTORS
330
D6
330
EB
330
F6
330
103
330
10F
330
11E
330
12B
330
13F
330
14B
330
157
330
162
330
16F
330
17C
330
19B
330
1B1
330
1BE
330
1D6
330
1E5
330
1F3
330
211
330
265
330
274
330
2A3
330
2B2
330
2C0
330
2D5
330
2E8
330
356
330
362
330
36E
330
37A
330
385
330
392
330
39E
330
3AB
330
3BF
330
3CB
330
3D6
330
3E3
330
3EF
330
3FA
330
407
102
}
330
A
100
AcDbSymbolTableRecord
100
AcDbDimStyleTableRecord
  2
ISO-25
 70
     0
 41
2.5
 42
0.625
 43
3.75
 44
1.25
 73
     0
 74
     0
 77
     1
 78
     8
140
2.5
141
2.5
143
0.03937007874016
147
0.625
171
     3
172
     1
178
     0
271
     2
272
     2
274
     3
278
    44
283
     0
284
     8
340
11
  0
ENDTAB
  0
TABLE
  2
BLOCK_RECORD
  5
1
330
0
100
AcDbSymbolTable
 70
    62
  0
BLOCK_RECORD
  5
1F
330
1
100
AcDbSymbolTableRecord
100
AcDbBlockTableRecord
  2
*Model_Space
340
22
  0
BLOCK_RECORD
  5
1B
330
1
100
AcDbSymbolTableRecord
100
AcDbBlockTableRecord
  2
*Paper_Space
340
1E
  0
BLOCK_RECORD
  5
23
330
1
100
AcDbSymbolTableRecord
100
AcDbBlockTableRecord
  2
*Paper_Space0
340
26
  0
BLOCK_RECORD
  5
44
330
1
100
AcDbSymbolTableRecord
100
AcDbBlockTableRecord
  2
DTL0001
340
0
  0
BLOCK_RECORD
  5
47
330
1
100
AcDbSymbolTableRecord
100
AcDbBlockTableRecord
  2
DTL0002
340
0
  0
BLOCK_RECORD
  5
D7
330
1
100
AcDbSymbolTableRecord
100
AcDbBlockTableRecord
  2
_OPEN30
340
0
102
{BLKREFS
331
E4
331
E3
331
F1
331
F0
331
FE
331
FD
331
10A
331
109
331
117
331
116
331
126
331
125
331
0
331
0
331
146
331
145
331
152
331
151
331
15D
331
15C
331
16A
331
169
331
177
331
176
331
0
331
0
331
0
331
0
331
0
331
1DE
331
1DD
331
1EE
331
1ED
331
1FA
331
1F9
331
0
331
0
331
0
331
0
331
0
331
0
331
0
331
0
331
0
331
0
331
0
331
0
331
35D
331
35C
331
369
331
368
331
375
331
374
331
380
331
37F
331
38D
331
38C
331
399
331
398
331
3A6
331
3A5
331
0
331
0
331
3C6
331
3C5
331
3D1
331
3D0
331
3DE
331
3DD
331
3EA
331
3E9
331
3F5
331
3F4
331
402
331
401
331
0
331
0
102
}
  0
BLOCK_RECORD
  5
DE
330
1
100
AcDbSymbolTableRecord
100
AcDbBlockTableRecord
  2
*D4
340
0
  0
BLOCK_RECORD
  5
EC
330
1
100
AcDbSymbolTableRecord
100
AcDbBlockTableRecord
  2
*D5
340
0
  0
BLOCK_RECORD
  5
F7
330
1
100
AcDbSymbolTableRecord
100
AcDbBlockTableRecord
  2
*D6
340
0
  0
BLOCK_RECORD
  5
104
330
1
100
AcDbSymbolTableRecord
100
AcDbBlockTableRecord
  2
*D7
340
0
  0
BLOCK_RECORD
  5
110
330
1
100
AcDbSymbolTableRecord
100
AcDbBlockTableRecord
  2
*D8
340
0
  0
BLOCK_RECORD
  5
11F
330
1
100
AcDbSymbolTableRecord
100
AcDbBlockTableRecord
  2
*D9
340
0
  0
BLOCK_RECORD
  5
12C
330
1
100
AcDbSymbolTableRecord
100
AcDbBlockTableRecord
  2
*D10
340
0
  0
BLOCK_RECORD
  5
140
330
1
100
AcDbSymbolTableRecord
100
AcDbBlockTableRecord
  2
*D11
340
0
  0
BLOCK_RECORD
  5
14C
330
1
100
AcDbSymbolTableRecord
100
AcDbBlockTableRecord
  2
*D12
340
0
  0
BLOCK_RECORD
  5
158
330
1
100
AcDbSymbolTableRecord
100
AcDbBlockTableRecord
  2
*D13
340
0
  0
BLOCK_RECORD
  5
163
330
1
100
AcDbSymbolTableRecord
100
AcDbBlockTableRecord
  2
*D14
340
0
  0
BLOCK_RECORD
  5
170
330
1
100
AcDbSymbolTableRecord
100
AcDbBlockTableRecord
  2
*D15
340
0
  0
BLOCK_RECORD
  5
17D
330
1
100
AcDbSymbolTableRecord
100
AcDbBlockTableRecord
  2
_ORIGIN
340
0
102
{BLKREFS
331
0
102
}
  0
BLOCK_RECORD
  5
182
330
1
100
AcDbSymbolTableRecord
100
AcDbBlockTableRecord
  2
*D17
340
0
  0
BLOCK_RECORD
  5
19C
330
1
100
AcDbSymbolTableRecord
100
AcDbBlockTableRecord
  2
_NONE
340
0
102
{BLKREFS
331
0
102
}
  0
BLOCK_RECORD
  5
19F
330
1
100
AcDbSymbolTableRecord
100
AcDbBlockTableRecord
  2
*D19
340
0
  0
BLOCK_RECORD
  5
1B2
330
1
100
AcDbSymbolTableRecord
100
AcDbBlockTableRecord
  2
*D20
340
0
  0
BLOCK_RECORD
  5
1BF
330
1
100
AcDbSymbolTableRecord
100
AcDbBlockTableRecord
  2
*D21
340
0
  0
BLOCK_RECORD
  5
1D7
330
1
100
AcDbSymbolTableRecord
100
AcDbBlockTableRecord
  2
*D22
340
0
  0
BLOCK_RECORD
  5
1E6
330
1
100
AcDbSymbolTableRecord
100
AcDbBlockTableRecord
  2
*D23
340
0
  0
BLOCK_RECORD
  5
1F4
330
1
100
AcDbSymbolTableRecord
100
AcDbBlockTableRecord
  2
*D24
340
0
  0
BLOCK_RECORD
  5
1FF
330
1
100
AcDbSymbolTableRecord
100
AcDbBlockTableRecord
  2
SYM0001
340
0
102
{BLKREFS
331
205
102
}
  0
BLOCK_RECORD
  5
208
330
1
100
AcDbSymbolTableRecord
100
AcDbBlockTableRecord
  2
SYM0002
340
0
102
{BLKREFS
331
20E
102
}
  0
BLOCK_RECORD
  5
212
330
1
100
AcDbSymbolTableRecord
100
AcDbBlockTableRecord
  2
*D27
340
0
  0
BLOCK_RECORD
  5
225
330
1
100
AcDbSymbolTableRecord
100
AcDbBlockTableRecord
  2
SYM0003
340
0
102
{BLKREFS
331
22B
102
}
  0
BLOCK_RECORD
  5
22E
330
1
100
AcDbSymbolTableRecord
100
AcDbBlockTableRecord
  2
SYM0004
340
0
102
{BLKREFS
331
234
102
}
  0
BLOCK_RECORD
  5
237
330
1
100
AcDbSymbolTableRecord
100
AcDbBlockTableRecord
  2
SYM0005
340
0
102
{BLKREFS
331
23D
102
}
  0
BLOCK_RECORD
  5
240
330
1
100
AcDbSymbolTableRecord
100
AcDbBlockTableRecord
  2
SYM0006
340
0
102
{BLKREFS
331
244
102
}
  0
BLOCK_RECORD
  5
247
330
1
100
AcDbSymbolTableRecord
100
AcDbBlockTableRecord
  2
SYM0007
340
0
102
{BLKREFS
331
24B
102
}
  0
BLOCK_RECORD
  5
24E
330
1
100
AcDbSymbolTableRecord
100
AcDbBlockTableRecord
  2
SYM0008
340
0
102
{BLKREFS
331
252
102
}
  0
BLOCK_RECORD
  5
255
330
1
100
AcDbSymbolTableRecord
100
AcDbBlockTableRecord
  2
SYM0009
340
0
102
{BLKREFS
331
25B
102
}
  0
BLOCK_RECORD
  5
25E
330
1
100
AcDbSymbolTableRecord
100
AcDbBlockTableRecord
  2
SYM0010
340
0
102
{BLKREFS
331
262
102
}
  0
BLOCK_RECORD
  5
266
330
1
100
AcDbSymbolTableRecord
100
AcDbBlockTableRecord
  2
*D36
340
0
  0
BLOCK_RECORD
  5
275
330
1
100
AcDbSymbolTableRecord
100
AcDbBlockTableRecord
  2
*D37
340
0
  0
BLOCK_RECORD
  5
283
330
1
100
AcDbSymbolTableRecord
100
AcDbBlockTableRecord
  2
SYM0011
340
0
102
{BLKREFS
331
289
102
}
  0
BLOCK_RECORD
  5
28C
330
1
100
AcDbSymbolTableRecord
100
AcDbBlockTableRecord
  2
SYM0012
340
0
102
{BLKREFS
331
292
102
}
  0
BLOCK_RECORD
  5
295
330
1
100
AcDbSymbolTableRecord
100
AcDbBlockTableRecord
  2
SYM0013
340
0
102
{BLKREFS
331
299
102
}
  0
BLOCK_RECORD
  5
29C
330
1
100
AcDbSymbolTableRecord
100
AcDbBlockTableRecord
  2
SYM0014
340
0
102
{BLKREFS
331
2A0
102
}
  0
BLOCK_RECORD
  5
2A4
330
1
100
AcDbSymbolTableRecord
100
AcDbBlockTableRecord
  2
*D42
340
0
  0
BLOCK_RECORD
  5
2B3
330
1
100
AcDbSymbolTableRecord
100
AcDbBlockTableRecord
  2
*D43
340
0
  0
BLOCK_RECORD
  5
2C1
330
1
100
AcDbSymbolTableRecord
100
AcDbBlockTableRecord
  2
*D44
340
0
  0
BLOCK_RECORD
  5
2D6
330
1
100
AcDbSymbolTableRecord
100
AcDbBlockTableRecord
  2
*D45
340
0
  0
BLOCK_RECORD
  5
2E9
330
1
100
AcDbSymbolTableRecord
100
AcDbBlockTableRecord
  2
*D46
340
0
  0
BLOCK_RECORD
  5
357
330
1
100
AcDbSymbolTableRecord
100
AcDbBlockTableRecord
  2
*D47
340
0
  0
BLOCK_RECORD
  5
363
330
1
100
AcDbSymbolTableRecord
100
AcDbBlockTableRecord
  2
*D48
340
0
  0
BLOCK_RECORD
  5
36F
330
1
100
AcDbSymbolTableRecord
100
AcDbBlockTableRecord
  2
*D49
340
0
  0
BLOCK_RECORD
  5
37B
330
1
100
AcDbSymbolTableRecord
100
AcDbBlockTableRecord
  2
*D50
340
0
  0
BLOCK_RECORD
  5
386
330
1
100
AcDbSymbolTableRecord
100
AcDbBlockTableRecord
  2
*D51
340
0
  0
BLOCK_RECORD
  5
393
330
1
100
AcDbSymbolTableRecord
100
AcDbBlockTableRecord
  2
*D52
340
0
  0
BLOCK_RECORD
  5
39F
330
1
100
AcDbSymbolTableRecord
100
AcDbBlockTableRecord
  2
*D53
340
0
  0
BLOCK_RECORD
  5
3AC
330
1
100
AcDbSymbolTableRecord
100
AcDbBlockTableRecord
  2
*D54
340
0
  0
BLOCK_RECORD
  5
3C0
330
1
100
AcDbSymbolTableRecord
100
AcDbBlockTableRecord
  2
*D55
340
0
  0
BLOCK_RECORD
  5
3CC
330
1
100
AcDbSymbolTableRecord
100
AcDbBlockTableRecord
  2
*D56
340
0
  0
BLOCK_RECORD
  5
3D7
330
1
100
AcDbSymbolTableRecord
100
AcDbBlockTableRecord
  2
*D57
340
0
  0
BLOCK_RECORD
  5
3E4
330
1
100
AcDbSymbolTableRecord
100
AcDbBlockTableRecord
  2
*D58
340
0
  0
BLOCK_RECORD
  5
3F0
330
1
100
AcDbSymbolTableRecord
100
AcDbBlockTableRecord
  2
*D59
340
0
  0
BLOCK_RECORD
  5
3FB
330
1
100
AcDbSymbolTableRecord
100
AcDbBlockTableRecord
  2
*D60
340
0
  0
BLOCK_RECORD
  5
408
330
1
100
AcDbSymbolTableRecord
100
AcDbBlockTableRecord
  2
*D61
340
0
  0
ENDTAB
  0
ENDSEC
  0
SECTION
  2
BLOCKS
  0
BLOCK
  5
20
330
1F
100
AcDbEntity
  8
0
100
AcDbBlockBegin
  2
*Model_Space
 70
     0
 10
0.0
 20
0.0
 30
0.0
  3
*Model_Space
  1

  0
ENDBLK
  5
21
330
1F
100
AcDbEntity
  8
0
100
AcDbBlockEnd
  0
BLOCK
  5
1C
330
1B
100
AcDbEntity
 67
     1
  8
0
100
AcDbBlockBegin
  2
*Paper_Space
 70
     0
 10
0.0
 20
0.0
 30
0.0
  3
*Paper_Space
  1

  0
ENDBLK
  5
1D
330
1B
100
AcDbEntity
 67
     1
  8
0
100
AcDbBlockEnd
  0
BLOCK
  5
24
330
23
100
AcDbEntity
  8
0
100
AcDbBlockBegin
  2
*Paper_Space0
 70
     0
 10
0.0
 20
0.0
 30
0.0
  3
*Paper_Space0
  1

  0
ENDBLK
  5
25
330
23
100
AcDbEntity
  8
0
100
AcDbBlockEnd
  0
BLOCK
  5
45
330
44
100
AcDbEntity
  8
0
100
AcDbBlockBegin
  2
DTL0001
 70
     0
 10
0.0
 20
0.0
 30
0.0
  3
DTL0001
  1

  0
POINT
  5
4A
330
44
100
AcDbEntity
  8
0
 62
     0
100
AcDbPoint
 10
100.0000076293945
 20
137.5
 30
0.0
  0
POINT
  5
4B
330
44
100
AcDbEntity
  8
0
 62
     0
100
AcDbPoint
 10
105.0000076293945
 20
148.4999847412109
 30
0.0
  0
POINT
  5
4C
330
44
100
AcDbEntity
  8
0
 62
     0
100
AcDbPoint
 10
-105.0000076293945
 20
-148.4999847412109
 30
0.0
  0
POINT
  5
4D
330
44
100
AcDbEntity
  8
0
 62
     0
100
AcDbPoint
 10
0.0
 20
0.0
 30
0.0
  0
POINT
  5
4E
330
44
100
AcDbEntity
  8
0
 62
     0
100
AcDbPoint
 10
5.0
 20
-128.5
 30
0.0
  0
POINT
  5
4F
330
44
100
AcDbEntity
  8
0
 62
     0
100
AcDbPoint
 10
-85.0
 20
-119.5
 30
0.0
  0
MTEXT
  5
50
330
44
100
AcDbEntity
  8
0
 62
     1
100
AcDbMText
 10
-82.50000762939453
 20
-123.4168127775192
 30
0.0
 40
7.0
 41
0.0
 71
     7
 72
     1
  1
{\W1;A4}
 11
6.123233995736766E-17
 21
1.0
 31
0.0
 73
     1
 44
1.0
  0
ENDBLK
  5
46
330
44
100
AcDbEntity
  8
0
100
AcDbBlockEnd
  0
BLOCK
  5
48
330
47
100
AcDbEntity
  8
0
100
AcDbBlockBegin
  2
DTL0002
 70
     0
 10
0.0
 20
0.0
 30
0.0
  3
DTL0002
  1

  0
POINT
  5
51
330
47
100
AcDbEntity
  8
0
 62
     0
100
AcDbPoint
 10
-1.804195404052734
 20
-2.075492858886719
 30
0.0
  0
POINT
  5
52
330
47
100
AcDbEntity
  8
0
 62
     0
100
AcDbPoint
 10
-1.804195404052734
 20
-2.075492858886719
 30
0.0
  0
POINT
  5
53
330
47
100
AcDbEntity
  8
0
 62
     0
100
AcDbPoint
 10
-0.543731689453125
 20
-0.625492095947266
 30
0.0
  0
POINT
  5
54
330
47
100
AcDbEntity
  8
0
 62
     0
100
AcDbPoint
 10
-21.80419540405273
 20
32.92450714111328
 30
0.0
  0
POINT
  5
55
330
47
100
AcDbEntity
  8
0
 62
     0
100
AcDbPoint
 10
-7.004207611083984
 20
34.92450714111328
 30
0.0
  0
POINT
  5
56
330
47
100
AcDbEntity
  8
0
 62
     0
100
AcDbPoint
 10
-6.383201599121094
 20
40.92450714111328
 30
0.0
  0
POINT
  5
57
330
47
100
AcDbEntity
  8
0
 62
     0
100
AcDbPoint
 10
-7.004207611083984
 20
34.92450714111328
 30
0.0
  0
POINT
  5
58
330
47
100
AcDbEntity
  8
0
 62
     0
100
AcDbPoint
 10
-21.80419158935547
 20
32.92450714111328
 30
0.0
  0
POINT
  5
59
330
47
100
AcDbEntity
  8
0
 62
     0
100
AcDbPoint
 10
-20.07394409179688
 20
40.92450714111328
 30
0.0
  0
POINT
  5
5A
330
47
100
AcDbEntity
  8
0
 62
     0
100
AcDbPoint
 10
-7.643669128417969
 20
39.47450637817383
 30
0.0
  0
POINT
  5
5B
330
47
100
AcDbEntity
  8
0
 62
     0
100
AcDbPoint
 10
-5.804191589355469
 20
117.9245071411133
 30
0.0
  0
POINT
  5
5C
330
47
100
AcDbEntity
  8
0
 62
     0
100
AcDbPoint
 10
49.71809005737305
 20
75.29498291015625
 30
0.0
  0
POINT
  5
5D
330
47
100
AcDbEntity
  8
0
 62
     0
100
AcDbPoint
 10
-5.804191589355469
 20
117.9245071411133
 30
0.0
  0
POINT
  5
5E
330
47
100
AcDbEntity
  8
0
 62
     0
100
AcDbPoint
 10
1.195808410644531
 20
117.9245071411133
 30
0.0
  0
POINT
  5
5F
330
47
100
AcDbEntity
  8
0
 62
     0
100
AcDbPoint
 10
-0.254192352294922
 20
116.4745101928711
 30
0.0
  0
POINT
  5
60
330
47
100
AcDbEntity
  8
0
 62
     0
100
AcDbPoint
 10
-5.084732055664062
 20
116.4745101928711
 30
0.0
  0
POINT
  5
61
330
47
100
AcDbEntity
  8
0
 62
     0
100
AcDbPoint
 10
-11.38154983520508
 20
106.37451171875
 30
0.0
  0
POINT
  5
62
330
47
100
AcDbEntity
  8
0
 62
     0
100
AcDbPoint
 10
-12.09771728515625
 20
104.9245071411133
 30
0.0
  0
POINT
  5
63
330
47
100
AcDbEntity
  8
0
 62
     0
100
AcDbPoint
 10
-4.804191589355469
 20
104.9245071411133
 30
0.0
  0
POINT
  5
64
330
47
100
AcDbEntity
  8
0
 62
     0
100
AcDbPoint
 10
-3.354190826416016
 20
106.37451171875
 30
0.0
  0
POINT
  5
65
330
47
100
AcDbEntity
  8
0
 62
     0
100
AcDbPoint
 10
-3.354190826416016
 20
99.37451171875
 30
0.0
  0
POINT
  5
66
330
47
100
AcDbEntity
  8
0
 62
     0
100
AcDbPoint
 10
-4.804191589355469
 20
97.92450714111328
 30
0.0
  0
POINT
  5
67
330
47
100
AcDbEntity
  8
0
 62
     0
100
AcDbPoint
 10
-0.254192352294922
 20
99.37451171875
 30
0.0
  0
POINT
  5
68
330
47
100
AcDbEntity
  8
0
 62
     0
100
AcDbPoint
 10
1.195808410644531
 20
97.92450714111328
 30
0.0
  0
POINT
  5
69
330
47
100
AcDbEntity
  8
0
 62
     0
100
AcDbPoint
 10
1.195808410644531
 20
117.9245071411133
 30
0.0
  0
POINT
  5
6A
330
47
100
AcDbEntity
  8
0
 62
     0
100
AcDbPoint
 10
1.195808410644531
 20
97.92450714111328
 30
0.0
  0
POINT
  5
6B
330
47
100
AcDbEntity
  8
0
 62
     0
100
AcDbPoint
 10
-1.804195404052734
 20
-2.075492858886719
 30
0.0
  0
POINT
  5
6C
330
47
100
AcDbEntity
  8
0
 62
     0
100
AcDbPoint
 10
109.19580078125
 20
-2.075492858886719
 30
0.0
  0
POINT
  5
6D
330
47
100
AcDbEntity
  8
0
 62
     0
100
AcDbPoint
 10
110.5385894775391
 20
77.92450714111328
 30
0.0
  0
POINT
  5
6E
330
47
100
AcDbEntity
  8
0
 62
     0
100
AcDbPoint
 10
117.5385894775391
 20
77.92450714111328
 30
0.0
  0
POINT
  5
6F
330
47
100
AcDbEntity
  8
0
 62
     0
100
AcDbPoint
 10
116.0885925292969
 20
76.47450256347656
 30
0.0
  0
POINT
  5
70
330
47
100
AcDbEntity
  8
0
 62
     0
100
AcDbPoint
 10
111.6402740478516
 20
67.92450714111328
 30
0.0
  0
POINT
  5
71
330
47
100
AcDbEntity
  8
0
 62
     0
100
AcDbPoint
 10
117.5385894775391
 20
67.92450714111328
 30
0.0
  0
POINT
  5
72
330
47
100
AcDbEntity
  8
0
 62
     0
100
AcDbPoint
 10
117.5385894775391
 20
77.92450714111328
 30
0.0
  0
POINT
  5
73
330
47
100
AcDbEntity
  8
0
 62
     0
100
AcDbPoint
 10
110.5385894775391
 20
77.92450714111328
 30
0.0
  0
POINT
  5
74
330
47
100
AcDbEntity
  8
0
 62
     0
100
AcDbPoint
 10
109.19580078125
 20
-2.075492858886719
 30
0.0
  0
POINT
  5
75
330
47
100
AcDbEntity
  8
0
 62
     0
100
AcDbPoint
 10
107.7955627441406
 20
-0.625492095947266
 30
0.0
  0
POINT
  5
76
330
47
100
AcDbEntity
  8
0
 62
     0
100
AcDbPoint
 10
109.19580078125
 20
-2.075492858886719
 30
0.0
  0
POINT
  5
77
330
47
100
AcDbEntity
  8
0
 62
     0
100
AcDbPoint
 10
0.0
 20
0.0
 30
0.0
  0
POINT
  5
78
330
47
100
AcDbEntity
  8
0
 62
     0
100
AcDbPoint
 10
107.1044311523438
 20
0.090190887451172
 30
0.0
  0
POINT
  5
79
330
47
100
AcDbEntity
  8
0
 62
     0
100
AcDbPoint
 10
113.9535369873047
 20
73.0274887084961
 30
0.0
  0
POINT
  5
7A
330
47
100
AcDbEntity
  8
0
 62
     0
100
AcDbPoint
 10
111.9930419921875
 20
76.41837310791016
 30
0.0
  0
POINT
  5
7B
330
47
100
AcDbEntity
  8
0
 62
     0
100
AcDbPoint
 10
116.0300140380859
 20
76.41592407226562
 30
0.0
  0
POINT
  5
7C
330
47
100
AcDbEntity
  8
0
 62
     0
100
AcDbPoint
 10
116.0300140380859
 20
69.43309020996094
 30
0.0
  0
POINT
  5
7D
330
47
100
AcDbEntity
  8
0
 62
     0
100
AcDbPoint
 10
111.7541351318359
 20
69.43557739257812
 30
0.0
  0
POINT
  5
7E
330
47
100
AcDbEntity
  8
0
 62
     0
100
AcDbPoint
 10
107.5385894775391
 20
83.92450714111328
 30
0.0
  0
POINT
  5
7F
330
47
100
AcDbEntity
  8
0
 62
     0
100
AcDbPoint
 10
120.5385894775391
 20
83.92450714111328
 30
0.0
  0
POINT
  5
80
330
47
100
AcDbEntity
  8
0
 62
     0
100
AcDbPoint
 10
-16.29508972167969
 20
37.19161987304688
 30
0.0
  0
POINT
  5
81
330
47
100
AcDbEntity
  8
0
 62
     0
100
AcDbPoint
 10
-7.974170684814453
 20
39.09430694580078
 30
0.0
  0
POINT
  5
82
330
47
100
AcDbEntity
  8
0
 62
     0
100
AcDbPoint
 10
-20.07036972045898
 20
39.41837310791016
 30
0.0
  0
POINT
  5
83
330
47
100
AcDbEntity
  8
0
 62
     0
100
AcDbPoint
 10
-20.22115707397461
 20
34.67329406738281
 30
0.0
  0
POINT
  5
84
330
47
100
AcDbEntity
  8
0
 62
     0
100
AcDbPoint
 10
-7.272640228271484
 20
36.41090393066406
 30
0.0
  0
POINT
  5
85
330
47
100
AcDbEntity
  8
0
 62
     0
100
AcDbPoint
 10
-21.80419158935547
 20
32.92450714111328
 30
0.0
  0
POINT
  5
86
330
47
100
AcDbEntity
  8
0
 62
     0
100
AcDbPoint
 10
-7.643669128417969
 20
39.47450637817383
 30
0.0
  0
POINT
  5
87
330
47
100
AcDbEntity
  8
0
 62
     0
100
AcDbPoint
 10
-7.206008911132812
 20
36.36041641235352
 30
0.0
  0
POINT
  5
88
330
47
100
AcDbEntity
  8
0
 62
     0
100
AcDbPoint
 10
-20.12457656860352
 20
39.47450637817383
 30
0.0
  0
POINT
  5
89
330
47
100
AcDbEntity
  8
0
 62
     0
100
AcDbPoint
 10
-20.29508972167969
 20
34.59162139892578
 30
0.0
  0
LINE
  5
8A
330
47
100
AcDbEntity
  8
0
  6
Continuous
 62
     0
100
AcDbLine
 10
-1.804195404052734
 20
-2.075492858886719
 30
0.0
 11
-0.695133209228516
 21
-2.075492858886719
 31
0.0
  0
LINE
  5
8B
330
47
100
AcDbEntity
  8
0
  6
Continuous
 62
     0
100
AcDbLine
 10
-1.80419575521906
 20
-2.07549324708393
 30
0.0
 11
-1.957576333135881
 21
-0.984133546631245
 31
0.0
  0
LINE
  5
8C
330
47
100
AcDbEntity
  8
0
  6
Continuous
 62
     0
100
AcDbLine
 10
1.672950744628906
 20
-0.625492095947266
 30
0.0
 11
105.3330535888672
 21
-0.625492095947266
 31
0.0
  0
LINE
  5
8D
330
47
100
AcDbEntity
  8
0
  6
Continuous
 62
     0
100
AcDbLine
 10
-0.852230720724612
 20
1.569614734740447
 30
0.0
 11
-6.020254988404577
 21
38.34202420998775
 31
0.0
  0
LINE
  5
8E
330
47
100
AcDbEntity
  8
0
  6
Continuous
 62
     0
100
AcDbLine
 10
-19.03841018676758
 20
40.92450714111328
 30
0.0
 11
-8.99106216430664
 21
40.92450714111328
 31
0.0
  0
LINE
  5
8F
330
47
100
AcDbEntity
  8
0
  6
Continuous
 62
     0
100
AcDbLine
 10
-21.80419439104739
 20
32.92450839368098
 30
0.0
 11
-21.77886347035583
 21
33.64988868810454
 31
0.0
  0
LINE
  5
90
330
47
100
AcDbEntity
  8
0
  6
Continuous
 62
     0
100
AcDbLine
 10
-20.28682482879179
 20
34.82854611805759
 30
0.0
 11
-20.13132423500973
 21
39.28148598053455
 31
0.0
  0
LINE
  5
91
330
47
100
AcDbEntity
  8
0
  6
Continuous
 62
     0
100
AcDbLine
 10
-21.80418502615019
 20
32.9245097548019
 30
0.0
 11
-21.35686920201068
 21
32.98495789404468
 31
0.0
  0
LINE
  5
92
330
47
100
AcDbEntity
  8
0
  6
Continuous
 62
     0
100
AcDbLine
 10
-20.06015393333698
 20
34.6233703328684
 30
0.0
 11
-7.40526729720853
 21
36.33349170171092
 31
0.0
  0
LINE
  5
93
330
47
100
AcDbEntity
  8
0
  6
Continuous
 62
     0
100
AcDbLine
 10
-19.93143844604492
 20
39.47450637817383
 30
0.0
 11
-8.99106216430664
 21
39.47450637817383
 31
0.0
  0
LINE
  5
94
330
47
100
AcDbEntity
  8
0
  6
Continuous
 62
     0
100
AcDbLine
 10
-7.233991913911188
 20
36.55952032342826
 30
0.0
 11
-7.456145156485135
 21
38.14022304057135
 31
0.0
  0
LINE
  5
95
330
47
100
AcDbEntity
  8
0
  6
Continuous
 62
     0
100
AcDbLine
 10
-20.037808844825
 20
41.95940764360097
 30
0.0
 11
-18.79015762419616
 21
77.68734745193748
 31
0.0
  0
LINE
  5
96
330
47
100
AcDbEntity
  8
0
  6
Continuous
 62
     0
100
AcDbLine
 10
-5.557159423828125
 20
117.9245071411133
 30
0.0
 11
-1.804191589355469
 21
117.9245071411133
 31
0.0
  0
LINE
  5
97
330
47
100
AcDbEntity
  8
0
  6
Continuous
 62
     0
100
AcDbLine
 10
-4.984756469726562
 20
116.4745101928711
 30
0.0
 11
-1.804191589355469
 21
116.4745101928711
 31
0.0
  0
LINE
  5
98
330
47
100
AcDbEntity
  8
0
  6
Continuous
 62
     0
100
AcDbLine
 10
-11.7821044921875
 20
104.9245071411133
 30
0.0
 11
-5.304191589355469
 21
104.9245071411133
 31
0.0
  0
LINE
  5
99
330
47
100
AcDbEntity
  8
0
  6
Continuous
 62
     0
100
AcDbLine
 10
-11.05455780029297
 20
106.37451171875
 30
0.0
 11
-5.304191589355469
 21
106.37451171875
 31
0.0
  0
LINE
  5
9A
330
47
100
AcDbEntity
  8
0
  6
Continuous
 62
     0
100
AcDbLine
 10
1.195808410644531
 20
117.9245071411133
 30
0.0
 11
1.195808410644531
 21
117.3205184936523
 31
0.0
  0
LINE
  5
9B
330
47
100
AcDbEntity
  8
0
  6
Continuous
 62
     0
100
AcDbLine
 10
-0.254192352294922
 20
114.9245071411133
 30
0.0
 11
-0.254192352294922
 21
100.9245071411133
 31
0.0
  0
LINE
  5
9C
330
47
100
AcDbEntity
  8
0
  6
Continuous
 62
     0
100
AcDbLine
 10
-4.304191589355469
 20
97.92450714111328
 30
0.0
 11
-1.804191589355469
 21
97.92450714111328
 31
0.0
  0
LINE
  5
9D
330
47
100
AcDbEntity
  8
0
  6
Continuous
 62
     0
100
AcDbLine
 10
-3.154190063476562
 20
99.37451171875
 30
0.0
 11
-1.804191589355469
 21
99.37451171875
 31
0.0
  0
LINE
  5
9E
330
47
100
AcDbEntity
  8
0
  6
Continuous
 62
     0
100
AcDbLine
 10
-4.804191589355469
 20
104.4245071411133
 30
0.0
 11
-4.804191589355469
 21
98.42450714111328
 31
0.0
  0
LINE
  5
9F
330
47
100
AcDbEntity
  8
0
  6
Continuous
 62
     0
100
AcDbLine
 10
-3.354190826416016
 20
104.4245071411133
 30
0.0
 11
-3.354190826416016
 21
99.57450866699219
 31
0.0
  0
LINE
  5
A0
330
47
100
AcDbEntity
  8
0
  6
Continuous
 62
     0
100
AcDbLine
 10
0.552474975585938
 20
97.92450714111328
 30
0.0
 11
1.195808410644531
 21
97.92450714111328
 31
0.0
  0
LINE
  5
A1
330
47
100
AcDbEntity
  8
0
  6
Continuous
 62
     0
100
AcDbLine
 10
1.195808410644531
 20
98.87071228027344
 30
0.0
 11
1.195808410644531
 21
97.92450714111328
 31
0.0
  0
LINE
  5
A2
330
47
100
AcDbEntity
  8
0
  6
Continuous
 62
     0
100
AcDbLine
 10
0.477474212646484
 20
117.9245071411133
 30
0.0
 11
1.195808410644531
 21
117.9245071411133
 31
0.0
  0
LINE
  5
A3
330
47
100
AcDbEntity
  8
0
  6
Continuous
 62
     0
100
AcDbLine
 10
1.195808410644531
 20
114.9245071411133
 30
0.0
 11
1.195808410644531
 21
100.9245071411133
 31
0.0
  0
LINE
  5
A4
330
47
100
AcDbEntity
  8
0
  6
Continuous
 62
     0
100
AcDbLine
 10
-2.288120357902009
 20
1.367809787751147
 30
0.0
 11
-6.865768629956356
 21
33.93947508475024
 31
0.0
  0
LINE
  5
A5
330
47
100
AcDbEntity
  8
0
  6
Continuous
 62
     0
100
AcDbLine
 10
1.672950744628906
 20
-2.075492858886719
 30
0.0
 11
105.3330535888672
 21
-2.075492858886719
 31
0.0
  0
LINE
  5
A6
330
47
100
AcDbEntity
  8
0
  6
Continuous
 62
     0
100
AcDbLine
 10
109.1958145351836
 20
-2.0754919097627
 30
0.0
 11
109.2624107464971
 21
-0.168432156258714
 31
0.0
  0
LINE
  5
A7
330
47
100
AcDbEntity
  8
0
  6
Continuous
 62
     0
100
AcDbLine
 10
107.8815095300734
 20
1.835514139403931
 30
0.0
 11
110.5217535105443
 21
77.4419628439094
 31
0.0
  0
LINE
  5
A8
330
47
100
AcDbEntity
  8
0
  6
Continuous
 62
     0
100
AcDbLine
 10
112.1231079101562
 20
67.92450714111328
 30
0.0
 11
117.0385894775391
 21
67.92450714111328
 31
0.0
  0
LINE
  5
A9
330
47
100
AcDbEntity
  8
0
  6
Continuous
 62
     0
100
AcDbLine
 10
111.0214385986328
 20
77.92450714111328
 30
0.0
 11
117.0385894775391
 21
77.92450714111328
 31
0.0
  0
LINE
  5
AA
330
47
100
AcDbEntity
  8
0
  6
Continuous
 62
     0
100
AcDbLine
 10
112.1319732666016
 20
76.47450256347656
 30
0.0
 11
115.8885955810547
 21
76.47450256347656
 31
0.0
  0
LINE
  5
AB
330
47
100
AcDbEntity
  8
0
  6
Continuous
 62
     0
100
AcDbLine
 10
111.8980102539062
 20
69.37451171875
 30
0.0
 11
115.8885955810547
 21
69.37451171875
 31
0.0
  0
LINE
  5
AC
330
47
100
AcDbEntity
  8
0
  6
Continuous
 62
     0
100
AcDbLine
 10
117.5385894775391
 20
77.42450714111328
 30
0.0
 11
117.5385894775391
 21
68.42450714111328
 31
0.0
  0
LINE
  5
AD
330
47
100
AcDbEntity
  8
0
  6
Continuous
 62
     0
100
AcDbLine
 10
116.0885925292969
 20
76.27450561523438
 30
0.0
 11
116.0885925292969
 21
69.57450866699219
 31
0.0
  0
LINE
  5
AE
330
47
100
AcDbEntity
  8
0
  6
Continuous
 62
     0
100
AcDbLine
 10
111.6981396603456
 20
69.58149040586888
 30
0.0
 11
111.9321093942745
 21
76.28148510997345
 31
0.0
  0
LINE
  5
AF
330
47
100
AcDbEntity
  8
0
  6
Continuous
 62
     0
100
AcDbLine
 10
107.8710327148438
 20
-2.075492858886719
 30
0.0
 11
109.19580078125
 21
-2.075492858886719
 31
0.0
  0
LINE
  5
B0
330
47
100
AcDbEntity
  8
0
  6
Continuous
 62
     0
100
AcDbLine
 10
109.3306231735945
 20
1.784909810806538
 30
0.0
 11
111.6234254927016
 21
67.44196355711568
 31
0.0
  0
LINE
  5
B1
330
47
100
AcDbEntity
  8
0
  6
Continuous
 62
     0
100
AcDbLine
 10
-21.74214182293715
 20
34.70145565405214
 30
0.0
 11
-20.2392690952676
 21
77.73795933871602
 31
0.0
  0
LINE
  5
B2
330
47
100
AcDbEntity
  8
0
  6
Continuous
 62
     0
100
AcDbLine
 10
-20.04217039186193
 20
33.1626200567707
 30
0.0
 11
-7.989952489969703
 21
34.79129963080422
 31
0.0
  0
ARC
  5
B3
330
47
100
AcDbEntity
  8
0
  6
Continuous
 62
     0
100
AcDbCircle
 10
1.672950744628906
 20
1.924507141113281
 30
0.0
 40
4.0
100
AcDbArc
 50
188.0000043205828
 51
270.0000179860893
  0
ARC
  5
B4
330
47
100
AcDbEntity
  8
0
  6
Continuous
 62
     0
100
AcDbCircle
 10
1.672950744628906
 20
1.924507141113281
 30
0.0
 40
2.549999952316284
100
AcDbArc
 50
188.0000043205828
 51
270.0000179860893
  0
ARC
  5
B5
330
47
100
AcDbEntity
  8
0
  6
Continuous
 62
     0
100
AcDbCircle
 10
-8.99106216430664
 20
37.92450714111328
 30
0.0
 40
3.0
100
AcDbArc
 50
7.999999938029066
 51
89.99998201391067
  0
ARC
  5
B6
330
47
100
AcDbEntity
  8
0
  6
Continuous
 62
     0
100
AcDbCircle
 10
-7.856037139892578
 20
33.8003044128418
 30
0.0
 40
1.0
100
AcDbArc
 50
7.999964079535923
 51
97.69611622727597
  0
ARC
  5
B7
330
47
100
AcDbEntity
  8
0
  6
Continuous
 62
     0
100
AcDbCircle
 10
-20.2430534362793
 20
34.64910888671875
 30
0.0
 40
1.5
100
AcDbArc
 50
178.0000299973282
 51
277.6960939154756
  0
ARC
  5
B8
330
47
100
AcDbEntity
  8
0
  6
Continuous
 62
     0
100
AcDbCircle
 10
-19.03841018676758
 20
41.92450714111328
 30
0.0
 40
1.0
100
AcDbArc
 50
178.0000163369499
 51
270.0000006832453
  0
ARC
  5
B9
330
47
100
AcDbEntity
  8
0
  6
Continuous
 62
     0
100
AcDbCircle
 10
49.71809005737305
 20
75.29498291015625
 30
0.0
 40
70.0
100
AcDbArc
 50
142.6862034599348
 51
178.0000163369499
  0
ARC
  5
BA
330
47
100
AcDbEntity
  8
0
  6
Continuous
 62
     0
100
AcDbCircle
 10
49.71809005737305
 20
75.29498291015625
 30
0.0
 40
68.55000305175781
100
AcDbArc
 50
143.1620490790312
 51
152.7652540709341
  0
ARC
  5
BB
330
47
100
AcDbEntity
  8
0
  6
Continuous
 62
     0
100
AcDbCircle
 10
-5.557159423828125
 20
117.4245071411133
 30
0.0
 40
0.5
100
AcDbArc
 50
89.99998201391067
 51
142.6861624787998
  0
ARC
  5
BC
330
47
100
AcDbEntity
  8
0
  6
Continuous
 62
     0
100
AcDbCircle
 10
-1.804191589355469
 20
114.9245071411133
 30
0.0
 40
3.0
100
AcDbArc
 50
0.0
 51
89.99998201391067
  0
ARC
  5
BD
330
47
100
AcDbEntity
  8
0
  6
Continuous
 62
     0
100
AcDbCircle
 10
-1.804191589355469
 20
114.9245071411133
 30
0.0
 40
1.549999952316284
100
AcDbArc
 50
0.0
 51
89.99998201391067
  0
ARC
  5
BE
330
47
100
AcDbEntity
  8
0
  6
Continuous
 62
     0
100
AcDbCircle
 10
-4.984756469726562
 20
116.2745132446289
 30
0.0
 40
0.2000000029802322
100
AcDbArc
 50
89.99998201391067
 51
143.1622539847063
  0
ARC
  5
BF
330
47
100
AcDbEntity
  8
0
  6
Continuous
 62
     0
100
AcDbCircle
 10
49.71809005737305
 20
75.29498291015625
 30
0.0
 40
68.55000305175781
100
AcDbArc
 50
154.6554816029785
 51
178.0000163369499
  0
ARC
  5
C0
330
47
100
AcDbEntity
  8
0
  6
Continuous
 62
     0
100
AcDbCircle
 10
-11.05455780029297
 20
106.5745086669922
 30
0.0
 40
0.2000000029802322
100
AcDbArc
 50
152.7653906747175
 51
270.0000006832453
  0
ARC
  5
C1
330
47
100
AcDbEntity
  8
0
  6
Continuous
 62
     0
100
AcDbCircle
 10
-11.7821044921875
 20
104.4245071411133
 30
0.0
 40
0.5
100
AcDbArc
 50
89.99998201391067
 51
154.6555089237352
  0
ARC
  5
C2
330
47
100
AcDbEntity
  8
0
  6
Continuous
 62
     0
100
AcDbCircle
 10
-5.304191589355469
 20
104.4245071411133
 30
0.0
 40
0.5
100
AcDbArc
 50
0.0
 51
89.99998201391067
  0
ARC
  5
C3
330
47
100
AcDbEntity
  8
0
  6
Continuous
 62
     0
100
AcDbCircle
 10
-5.304191589355469
 20
104.4245071411133
 30
0.0
 40
1.950000047683716
100
AcDbArc
 50
0.0
 51
89.99998201391067
  0
ARC
  5
C4
330
47
100
AcDbEntity
  8
0
  6
Continuous
 62
     0
100
AcDbCircle
 10
-3.154190063476562
 20
99.57450866699219
 30
0.0
 40
0.2000000029802322
100
AcDbArc
 50
179.9999813306653
 51
270.0000179860893
  0
ARC
  5
C5
330
47
100
AcDbEntity
  8
0
  6
Continuous
 62
     0
100
AcDbCircle
 10
-4.304191589355469
 20
98.42450714111328
 30
0.0
 40
0.5
100
AcDbArc
 50
179.9999813306653
 51
270.0000179860893
  0
ARC
  5
C6
330
47
100
AcDbEntity
  8
0
  6
Continuous
 62
     0
100
AcDbCircle
 10
-1.804191589355469
 20
100.9245071411133
 30
0.0
 40
1.549999952316284
100
AcDbArc
 50
270.0000179860893
 51
0.0
  0
ARC
  5
C7
330
47
100
AcDbEntity
  8
0
  6
Continuous
 62
     0
100
AcDbCircle
 10
-1.804191589355469
 20
100.9245071411133
 30
0.0
 40
3.0
100
AcDbArc
 50
270.0000179860893
 51
0.0
  0
ARC
  5
C8
330
47
100
AcDbEntity
  8
0
  6
Continuous
 62
     0
100
AcDbCircle
 10
112.1319732666016
 20
76.27450561523438
 30
0.0
 40
0.2000000029802322
100
AcDbArc
 50
89.99998201391067
 51
178.0002485633817
  0
ARC
  5
C9
330
47
100
AcDbEntity
  8
0
  6
Continuous
 62
     0
100
AcDbCircle
 10
115.8885955810547
 20
76.27450561523438
 30
0.0
 40
0.2000000029802322
100
AcDbArc
 50
0.0
 51
89.99998201391067
  0
ARC
  5
CA
330
47
100
AcDbEntity
  8
0
  6
Continuous
 62
     0
100
AcDbCircle
 10
115.8885955810547
 20
69.57450866699219
 30
0.0
 40
0.2000000029802322
100
AcDbArc
 50
270.0000179860893
 51
0.0
  0
ARC
  5
CB
330
47
100
AcDbEntity
  8
0
  6
Continuous
 62
     0
100
AcDbCircle
 10
111.8980102539062
 20
69.57450866699219
 30
0.0
 40
0.2000000029802322
100
AcDbArc
 50
178.0002485633817
 51
270.0000006832453
  0
ARC
  5
CC
330
47
100
AcDbEntity
  8
0
  6
Continuous
 62
     0
100
AcDbCircle
 10
112.1231079101562
 20
67.42450714111328
 30
0.0
 40
0.5
100
AcDbArc
 50
89.99998201391067
 51
177.9999480350582
  0
ARC
  5
CD
330
47
100
AcDbEntity
  8
0
  6
Continuous
 62
     0
100
AcDbCircle
 10
117.0385894775391
 20
68.42450714111328
 30
0.0
 40
0.5
100
AcDbArc
 50
270.0000179860893
 51
0.0
  0
ARC
  5
CE
330
47
100
AcDbEntity
  8
0
  6
Continuous
 62
     0
100
AcDbCircle
 10
117.0385894775391
 20
77.42450714111328
 30
0.0
 40
0.5
100
AcDbArc
 50
0.0
 51
89.99998201391067
  0
ARC
  5
CF
330
47
100
AcDbEntity
  8
0
  6
Continuous
 62
     0
100
AcDbCircle
 10
111.0214385986328
 20
77.42450714111328
 30
0.0
 40
0.5
100
AcDbArc
 50
89.99998201391067
 51
177.9999480350582
  0
ARC
  5
D0
330
47
100
AcDbEntity
  8
0
  6
Continuous
 62
     0
100
AcDbCircle
 10
105.3330535888672
 20
1.924507141113281
 30
0.0
 40
4.0
100
AcDbArc
 50
270.0000179860893
 51
357.9999891298787
  0
ARC
  5
D1
330
47
100
AcDbEntity
  8
0
  6
Continuous
 62
     0
100
AcDbCircle
 10
105.3330535888672
 20
1.924507141113281
 30
0.0
 40
2.549999952316284
100
AcDbArc
 50
270.0000179860893
 51
358.0000145296447
  0
ARC
  5
D2
330
47
100
AcDbEntity
  8
0
  6
Continuous
 62
     0
100
AcDbCircle
 10
-8.99106216430664
 20
37.92450714111328
 30
0.0
 40
1.549999952316284
100
AcDbArc
 50
7.999996522934481
 51
89.99998201391067
  0
ARC
  5
D3
330
47
100
AcDbEntity
  8
0
  6
Continuous
 62
     0
100
AcDbCircle
 10
-7.432048797607422
 20
36.53168869018555
 30
0.0
 40
0.2000000029802322
100
AcDbArc
 50
277.6958516711312
 51
8.000011037086468
  0
ARC
  5
D4
330
47
100
AcDbEntity
  8
0
  6
Continuous
 62
     0
100
AcDbCircle
 10
-19.93143844604492
 20
39.27450561523438
 30
0.0
 40
0.2000000029802322
100
AcDbArc
 50
89.99998201391067
 51
178.0000163369499
  0
ARC
  5
D5
330
47
100
AcDbEntity
  8
0
  6
Continuous
 62
     0
100
AcDbCircle
 10
-20.08693695068359
 20
34.82156753540039
 30
0.0
 40
0.2000000029802322
100
AcDbArc
 50
178.0000436577066
 51
277.6958753494222
  0
DIMENSION
  5
D6
330
47
100
AcDbEntity
  8
0
 62
     0
100
AcDbDimension
  2
*D4
 10
-1.804195404052736
 20
-16.93250219726562
 30
0.0
 11
-11.780005859375
 21
-16.93250219726562
 31
0.0
 70
   160
 71
     5
 42
19.99999618530274
  3
ISO-25
100
AcDbAlignedDimension
 13
-21.80419158935547
 23
32.92450714111328
 33
0.0
 14
-1.804195404052734
 24
-2.075492858886719
 34
0.0
 50
180.0
100
AcDbRotatedDimension
1001
ACAD
1000
DSTYLE
1002
{
1070
   178
1070
     1
1070
   283
1070
     1
1070
    71
1070
     1
1070
    72
1070
     0
1070
    48
1040
0.3
1070
    47
1040
0.3
1070
   272
1070
     1
1070
   147
1040
0.800000011920929
1070
    77
1070
     1
1070
    74
1070
     0
1070
    73
1070
     0
1070
    42
1040
2.54
1070
    44
1040
1.5
1070
    76
1070
     0
1070
    75
1070
     1
1070
   279
1070
     0
1070
   271
1070
     0
1070
   144
1040
1.0
1070
   278
1070
    46
1070
   173
1070
     1
1070
    41
1040
3.0
1070
   140
1040
3.200000047683716
1070
   344
1005
D7
1070
   343
1005
D7
1002
}
  0
DIMENSION
  5
EB
330
47
100
AcDbEntity
  8
0
 62
     0
100
AcDbDimension
  2
*D5
 10
109.19580078125
 20
-16.93250219726563
 30
0.0
 11
53.69680459594726
 21
-16.93250219726562
 31
0.0
 70
   160
 71
     5
 42
111.0
  3
ISO-25
100
AcDbAlignedDimension
 13
-1.804195404052734
 23
-2.075492858886719
 33
0.0
 14
109.19580078125
 24
-2.075492858886719
 34
0.0
 50
180.0
100
AcDbRotatedDimension
1001
ACAD
1000
DSTYLE
1002
{
1070
   178
1070
     1
1070
   283
1070
     1
1070
    71
1070
     1
1070
    72
1070
     0
1070
    48
1040
0.3
1070
    47
1040
0.3
1070
   272
1070
     1
1070
   147
1040
0.800000011920929
1070
    77
1070
     1
1070
    74
1070
     0
1070
    73
1070
     0
1070
    42
1040
2.54
1070
    44
1040
1.5
1070
    76
1070
     1
1070
    75
1070
     1
1070
   279
1070
     0
1070
   271
1070
     0
1070
   144
1040
1.000000034366643
1070
   278
1070
    46
1070
   173
1070
     1
1070
    41
1040
3.0
1070
   140
1040
3.200000047683716
1070
   344
1005
D7
1070
   343
1005
D7
1002
}
  0
DIMENSION
  5
F6
330
47
100
AcDbEntity
  8
0
 62
     0
100
AcDbDimension
  2
*D6
 10
109.19580078125
 20
-26.98734991455079
 30
0.0
 11
43.69680841064453
 21
-26.98734991455078
 31
0.0
 70
   160
 71
     5
 42
131.0
  3
ISO-25
100
AcDbAlignedDimension
 13
-21.80419158935547
 23
32.92450714111328
 33
0.0
 14
109.19580078125
 24
-2.075492858886719
 34
0.0
 50
180.0
100
AcDbRotatedDimension
1001
ACAD
1000
DSTYLE
1002
{
1070
   178
1070
     1
1070
   283
1070
     1
1070
    71
1070
     1
1070
    72
1070
     0
1070
    48
1040
0.5
1070
    47
1040
0.5
1070
   272
1070
     1
1070
   147
1040
0.800000011920929
1070
    77
1070
     1
1070
    74
1070
     0
1070
    73
1070
     0
1070
    42
1040
2.54
1070
    44
1040
1.5
1070
    76
1070
     0
1070
    75
1070
     0
1070
   279
1070
     0
1070
   271
1070
     0
1070
   144
1040
1.000000058239656
1070
   278
1070
    46
1070
   173
1070
     1
1070
    41
1040
3.0
1070
   140
1040
3.200000047683716
1070
   344
1005
D7
1070
   343
1005
D7
1002
}
  0
DIMENSION
  5
103
330
47
100
AcDbEntity
  8
0
 62
     0
100
AcDbDimension
  2
*D7
 10
132.4640045166016
 20
67.92450714111328
 30
0.0
 11
132.4640045166016
 21
34.0876470336914
 31
0.0
 70
   160
 71
     5
 42
70.0
  3
ISO-25
100
AcDbAlignedDimension
 13
109.19580078125
 23
-2.075492858886719
 33
0.0
 14
117.5385894775391
 24
67.92450714111328
 34
0.0
 50
270.0
100
AcDbRotatedDimension
1001
ACAD
1000
DSTYLE
1002
{
1070
   178
1070
     1
1070
   283
1070
     1
1070
    71
1070
     1
1070
    72
1070
     0
1070
    48
1040
0.3
1070
    47
1040
0.3
1070
   272
1070
     1
1070
   147
1040
0.800000011920929
1070
    77
1070
     1
1070
    74
1070
     0
1070
    73
1070
     0
1070
    42
1040
2.54
1070
    44
1040
1.5
1070
    76
1070
     0
1070
    75
1070
     1
1070
   279
1070
     0
1070
   271
1070
     0
1070
   144
1040
1.0
1070
   278
1070
    46
1070
   173
1070
     1
1070
    41
1040
3.0
1070
   140
1040
3.200000047683716
1070
   344
1005
D7
1070
   343
1005
D7
1002
}
  0
DIMENSION
  5
10F
330
47
100
AcDbEntity
  8
0
 62
     0
100
AcDbDimension
  2
*D8
 10
132.4640045166016
 20
77.92450714111328
 30
0.0
 11
142.3584371337891
 21
88.51163482666016
 31
0.0
 70
   160
 71
     5
 42
10.0
  3
ISO-25
100
AcDbAlignedDimension
 13
117.5385894775391
 23
67.92450714111328
 33
0.0
 14
117.5385894775391
 24
77.92450714111328
 34
0.0
 50
270.0
100
AcDbRotatedDimension
1001
ACAD
1000
DSTYLE
1002
{
1070
   178
1070
     1
1070
   283
1070
     1
1070
    71
1070
     1
1070
    72
1070
     0
1070
    48
1040
0.3
1070
    47
1040
0.3
1070
   272
1070
     1
1070
   147
1040
0.800000011920929
1070
    77
1070
     1
1070
    74
1070
     0
1070
    73
1070
     0
1070
    42
1040
2.54
1070
    44
1040
1.5
1070
    76
1070
     1
1070
    75
1070
     1
1070
   279
1070
     1
1070
   271
1070
     0
1070
   144
1040
1.0
1070
   278
1070
    46
1070
   173
1070
     1
1070
    41
1040
3.0
1070
   140
1040
3.200000047683716
1070
   344
1005
D7
1070
   343
1005
D7
1002
}
  0
DIMENSION
  5
11E
330
47
100
AcDbEntity
  8
0
 62
     0
100
AcDbDimension
  2
*D9
 10
142.4400106201172
 20
-2.075492858886705
 30
0.0
 11
142.4400106201172
 21
37.92550714111328
 31
0.0
 70
   160
 71
     5
 42
80.0
  3
ISO-25
100
AcDbAlignedDimension
 13
117.0385894775391
 23
77.92450714111328
 33
0.0
 14
109.19580078125
 24
-2.075492858886719
 34
0.0
 50
90.00000000000001
100
AcDbRotatedDimension
1001
ACAD
1000
DSTYLE
1002
{
1070
   178
1070
     1
1070
   283
1070
     1
1070
    71
1070
     1
1070
    72
1070
     0
1070
    48
1040
0.5
1070
    47
1040
0.5
1070
   272
1070
     1
1070
   147
1040
0.800000011920929
1070
    77
1070
     1
1070
    74
1070
     0
1070
    73
1070
     0
1070
    42
1040
2.54
1070
    44
1040
1.5
1070
    76
1070
     0
1070
    75
1070
     0
1070
   279
1070
     0
1070
   271
1070
     0
1070
   144
1040
1.0
1070
   278
1070
    46
1070
   173
1070
     1
1070
    41
1040
3.0
1070
   140
1040
3.200000047683716
1070
   344
1005
D7
1070
   343
1005
D7
1002
}
  0
DIMENSION
  5
12B
330
47
100
AcDbEntity
  8
0
 62
     0
100
AcDbDimension
  2
*D10
 10
110.5385894775391
 20
93.0616455078125
 30
0.0
 11
117.5026561279297
 21
93.0616455078125
 31
0.0
 70
   160
 71
     5
 42
7.0
  3
ISO-25
100
AcDbAlignedDimension
 13
117.5385894775391
 23
77.92450714111328
 33
0.0
 14
110.5385894775391
 24
77.92450714111328
 34
0.0
100
AcDbRotatedDimension
1001
ACAD
1000
DSTYLE
1002
{
1070
   178
1070
     1
1070
   283
1070
     1
1070
    71
1070
     1
1070
    72
1070
     0
1070
    48
1040
0.3
1070
    47
1040
0.3
1070
   272
1070
     1
1070
   147
1040
0.800000011920929
1070
    77
1070
     1
1070
    74
1070
     0
1070
    73
1070
     0
1070
    42
1040
2.54
1070
    44
1040
1.5
1070
    76
1070
     1
1070
    75
1070
     0
1070
   279
1070
     0
1070
   271
1070
     0
1070
   144
1040
1.0
1070
   278
1070
    46
1070
   173
1070
     1
1070
    41
1040
3.0
1070
   140
1040
3.200000047683716
1070
   344
1005
D7
1070
   343
1005
D7
1002
}
  0
DIMENSION
  5
13F
330
47
100
AcDbEntity
  8
0
 62
     0
100
AcDbDimension
  2
*D11
 10
-37.10999624633789
 20
32.92450714111328
 30
0.0
 11
-37.10999624633789
 21
16.9376455078125
 31
0.0
 70
   160
 71
     5
 42
35.0
  3
ISO-25
100
AcDbAlignedDimension
 13
-1.804195404052734
 23
-2.075492858886719
 33
0.0
 14
-21.80419158935547
 24
32.92450714111328
 34
0.0
 50
270.0
100
AcDbRotatedDimension
1001
ACAD
1000
DSTYLE
1002
{
1070
   178
1070
     1
1070
   283
1070
     1
1070
    71
1070
     1
1070
    72
1070
     0
1070
    48
1040
0.3
1070
    47
1040
0.3
1070
   272
1070
     1
1070
   147
1040
0.800000011920929
1070
    77
1070
     1
1070
    74
1070
     0
1070
    73
1070
     0
1070
    42
1040
2.54
1070
    44
1040
1.5
1070
    76
1070
     0
1070
    75
1070
     1
1070
   279
1070
     0
1070
   271
1070
     0
1070
   144
1040
1.0
1070
   278
1070
    46
1070
   173
1070
     1
1070
    41
1040
3.0
1070
   140
1040
3.200000047683716
1070
   344
1005
D7
1070
   343
1005
D7
1002
}
  0
DIMENSION
  5
14B
330
47
100
AcDbEntity
  8
0
 62
     0
100
AcDbDimension
  2
*D12
 10
-37.10999624633789
 20
40.92450714111328
 30
0.0
 11
-37.10999624633789
 21
36.92550714111328
 31
0.0
 70
   160
 71
     5
 42
8.0
  3
ISO-25
100
AcDbAlignedDimension
 13
-21.80419158935547
 23
32.92450714111328
 33
0.0
 14
-20.07394409179688
 24
40.92450714111328
 34
0.0
 50
270.0
100
AcDbRotatedDimension
1001
ACAD
1000
DSTYLE
1002
{
1070
   178
1070
     1
1070
   283
1070
     1
1070
    71
1070
     1
1070
    72
1070
     0
1070
    48
1040
0.3
1070
    47
1040
0.3
1070
   272
1070
     1
1070
   147
1040
0.800000011920929
1070
    77
1070
     1
1070
    74
1070
     0
1070
    73
1070
     0
1070
    42
1040
2.54
1070
    44
1040
1.5
1070
    76
1070
     0
1070
    75
1070
     1
1070
   279
1070
     0
1070
   271
1070
     0
1070
   144
1040
1.0
1070
   278
1070
    46
1070
   173
1070
     1
1070
    41
1040
3.0
1070
   140
1040
3.200000047683716
1070
   344
1005
D7
1070
   343
1005
D7
1002
}
  0
DIMENSION
  5
157
330
47
100
AcDbEntity
  8
0
 62
     0
100
AcDbDimension
  2
*D13
 10
-37.10999624633789
 20
117.9245071411133
 30
0.0
 11
-37.10999624633789
 21
79.42550714111329
 31
0.0
 70
   160
 71
     5
 42
77.0
  3
ISO-25
100
AcDbAlignedDimension
 13
-20.07394409179688
 23
40.92450714111328
 33
0.0
 14
-5.804191589355469
 24
117.9245071411133
 34
0.0
 50
270.0
100
AcDbRotatedDimension
1001
ACAD
1000
DSTYLE
1002
{
1070
   178
1070
     1
1070
   283
1070
     1
1070
    71
1070
     1
1070
    72
1070
     0
1070
    48
1040
0.3
1070
    47
1040
0.3
1070
   272
1070
     1
1070
   147
1040
0.800000011920929
1070
    77
1070
     1
1070
    74
1070
     0
1070
    73
1070
     0
1070
    42
1040
2.54
1070
    44
1040
1.5
1070
    76
1070
     1
1070
    75
1070
     1
1070
   279
1070
     0
1070
   271
1070
     0
1070
   144
1040
1.0
1070
   278
1070
    46
1070
   173
1070
     1
1070
    41
1040
3.0
1070
   140
1040
3.200000047683716
1070
   344
1005
D7
1070
   343
1005
D7
1002
}
  0
DIMENSION
  5
162
330
47
100
AcDbEntity
  8
0
 62
     0
100
AcDbDimension
  2
*D14
 10
-46.90899929809569
 20
-2.075492858886733
 30
0.0
 11
-46.90899929809571
 21
57.92550714111328
 31
0.0
 70
   160
 71
     5
 42
120.0
  3
ISO-25
100
AcDbAlignedDimension
 13
-5.804191589355469
 23
117.9245071411133
 33
0.0
 14
-1.804195404052734
 24
-2.075492858886719
 34
0.0
 50
90.00000000000001
100
AcDbRotatedDimension
1001
ACAD
1000
DSTYLE
1002
{
1070
   178
1070
     1
1070
   283
1070
     1
1070
    71
1070
     1
1070
    72
1070
     0
1070
    48
1040
0.5
1070
    47
1040
0.5
1070
   272
1070
     1
1070
   147
1040
0.800000011920929
1070
    77
1070
     1
1070
    74
1070
     0
1070
    73
1070
     0
1070
    42
1040
2.54
1070
    44
1040
1.5
1070
    76
1070
     0
1070
    75
1070
     0
1070
   279
1070
     0
1070
   271
1070
     0
1070
   144
1040
1.0
1070
   278
1070
    46
1070
   173
1070
     1
1070
    41
1040
3.0
1070
   140
1040
3.200000047683716
1070
   344
1005
D7
1070
   343
1005
D7
1002
}
  0
DIMENSION
  5
16F
330
47
100
AcDbEntity
  8
0
 62
     0
100
AcDbDimension
  2
*D15
 10
16.09000260925293
 20
97.92450714111328
 30
0.0
 11
16.09000260925293
 21
107.9255071411133
 31
0.0
 70
   160
 71
     5
 42
20.0
  3
ISO-25
100
AcDbAlignedDimension
 13
1.195808410644531
 23
117.9245071411133
 33
0.0
 14
1.195808410644531
 24
97.92450714111328
 34
0.0
 50
90.00000000000001
100
AcDbRotatedDimension
1001
ACAD
1000
DSTYLE
1002
{
1070
   178
1070
     1
1070
   147
1040
0.800000011920929
1070
    77
1070
     1
1070
    74
1070
     0
1070
    73
1070
     0
1070
    42
1040
2.54
1070
    44
1040
1.5
1070
    76
1070
     0
1070
    75
1070
     0
1070
   279
1070
     0
1070
   271
1070
     0
1070
   144
1040
1.0
1070
   278
1070
    46
1070
   173
1070
     1
1070
    41
1040
3.0
1070
   140
1040
3.200000047683716
1070
   344
1005
D7
1070
   343
1005
D7
1002
}
  0
DIMENSION
  5
17C
330
47
100
AcDbEntity
  8
0
 62
     0
100
AcDbDimension
  2
*D17
 10
-4.804191589355471
 20
83.0866470336914
 30
0.0
 11
-29.30295126342773
 21
93.23764093017579
 31
0.0
 70
   160
  1
(<>)
 71
     5
 42
7.293525695800782
  3
ISO-25
100
AcDbAlignedDimension
 13
-12.09771728515625
 23
104.9245071411133
 33
0.0
 14
-4.804191589355469
 24
97.92450714111328
 34
0.0
 50
180.0
100
AcDbRotatedDimension
1001
ACAD
1000
DSTYLE
1002
{
1070
   178
1070
     1
1070
   147
1040
0.800000011920929
1070
    77
1070
     1
1070
    74
1070
     0
1070
    73
1070
     0
1070
    42
1040
2.54
1070
    44
1040
1.5
1070
    76
1070
     0
1070
    75
1070
     0
1070
   279
1070
     1
1070
   271
1070
     1
1070
   144
1040
1.0
1070
   278
1070
    46
1070
   173
1070
     1
1070
    41
1040
3.0
1070
   140
1040
3.200000047683716
1070
   344
1005
17D
1070
   343
1005
D7
1002
}
  0
DIMENSION
  5
19B
330
47
100
AcDbEntity
  8
0
 62
     0
100
AcDbDimension
  2
*D19
 10
1.195808410644529
 20
83.08764703369141
 30
0.0
 11
6.990004135131836
 21
83.08764703369141
 31
0.0
 70
   160
 71
     5
 42
6.0
  3
ISO-25
100
AcDbAlignedDimension
 13
-4.804191589355469
 23
97.92450714111328
 33
0.0
 14
1.195808410644531
 24
97.92450714111328
 34
0.0
 50
180.0
100
AcDbRotatedDimension
1001
ACAD
1000
DSTYLE
1002
{
1070
   178
1070
     1
1070
   147
1040
0.800000011920929
1070
    77
1070
     1
1070
    74
1070
     0
1070
    73
1070
     0
1070
    42
1040
2.54
1070
    44
1040
1.5
1070
    76
1070
     0
1070
    75
1070
     1
1070
   279
1070
     0
1070
   271
1070
     0
1070
   144
1040
1.0
1070
   278
1070
    46
1070
   173
1070
     1
1070
    41
1040
3.0
1070
   140
1040
3.200000047683716
1070
   344
1005
D7
1070
   343
1005
19C
1002
}
  0
DIMENSION
  5
1B1
330
47
100
AcDbEntity
  8
0
 62
     0
100
AcDbDimension
  2
*D20
 10
-20.18774536730258
 20
78.92459399058806
 30
0.0
 11
20.98900208608021
 21
76.78664125274864
 31
0.0
 70
   164
  1
<>
 71
     5
 42
70.0
  3
ISO-25
100
AcDbRadialDimension
 15
49.71809100895602
 25
75.29498787755595
 35
0.0
 40
0.0
1001
ACAD
1000
DSTYLE
1002
{
1070
   178
1070
     1
1070
   147
1040
0.800000011920929
1070
    77
1070
     1
1070
    74
1070
     0
1070
    73
1070
     0
1070
   279
1070
     0
1070
   271
1070
     0
1070
   144
1040
1.0
1070
   278
1070
    46
1070
   173
1070
     1
1070
    41
1040
3.0
1070
   140
1040
3.200000047683716
1070
   344
1005
D7
1070
   343
1005
19C
1002
}
  0
DIMENSION
  5
1BE
330
47
100
AcDbEntity
  8
0
 62
     0
100
AcDbDimension
  2
*D21
 10
14.36191232299805
 20
34.92450714111328
 30
0.0
 11
14.36191232299805
 21
42.81890716934204
 31
0.0
 70
   160
 71
     5
 42
2.0
  3
ISO-25
100
AcDbAlignedDimension
 13
-21.80419158935547
 23
32.92450714111328
 33
0.0
 14
-7.004207611083984
 24
34.92450714111328
 34
0.0
 50
270.0
100
AcDbRotatedDimension
1001
ACAD
1000
DSTYLE
1002
{
1070
   178
1070
     1
1070
   147
1040
0.800000011920929
1070
    77
1070
     1
1070
    74
1070
     0
1070
    73
1070
     0
1070
    42
1040
2.54
1070
    44
1040
1.5
1070
    76
1070
     0
1070
    75
1070
     0
1070
   279
1070
     0
1070
   271
1070
     0
1070
   144
1040
1.0
1070
   278
1070
    46
1070
   173
1070
     1
1070
    41
1040
3.0
1070
   140
1040
3.200000047683716
1070
   344
1005
D7
1070
   343
1005
D7
1002
}
  0
DIMENSION
  5
1D6
330
47
100
AcDbEntity
  8
0
 62
     0
100
AcDbDimension
  2
*D22
 10
-5.804191589355467
 20
133.06103515625
 30
0.0
 11
-13.87745993041992
 21
133.06103515625
 31
0.0
 70
   160
 71
     5
 42
15.99999999999999
  3
ISO-25
100
AcDbAlignedDimension
 13
-21.80419158935547
 23
32.92450714111328
 33
0.0
 14
-5.804191589355469
 24
117.9245071411133
 34
0.0
 50
180.0
100
AcDbRotatedDimension
1001
ACAD
1000
DSTYLE
1002
{
1070
   178
1070
     1
1070
   283
1070
     1
1070
    71
1070
     1
1070
    72
1070
     0
1070
    48
1040
0.5
1070
    47
1040
0.5
1070
   272
1070
     1
1070
   147
1040
0.800000011920929
1070
    77
1070
     1
1070
    74
1070
     0
1070
    73
1070
     0
1070
    42
1040
2.54
1070
    44
1040
1.5
1070
    76
1070
     0
1070
    75
1070
     0
1070
   279
1070
     0
1070
   271
1070
     0
1070
   144
1040
1.0
1070
   278
1070
    46
1070
   173
1070
     1
1070
    41
1040
3.0
1070
   140
1040
3.200000047683716
1070
   344
1005
D7
1070
   343
1005
D7
1002
}
  0
DIMENSION
  5
1E5
330
47
100
AcDbEntity
  8
0
 62
     0
100
AcDbDimension
  2
*D23
 10
1.195808410644533
 20
133.06103515625
 30
0.0
 11
-2.303191589355469
 21
133.06103515625
 31
0.0
 70
   160
 71
     5
 42
7.0
  3
ISO-25
100
AcDbAlignedDimension
 13
-5.804191589355469
 23
117.9245071411133
 33
0.0
 14
1.195808410644531
 24
117.9245071411133
 34
0.0
 50
180.0
100
AcDbRotatedDimension
1001
ACAD
1000
DSTYLE
1002
{
1070
   178
1070
     1
1070
   147
1040
0.800000011920929
1070
    77
1070
     1
1070
    74
1070
     0
1070
    73
1070
     0
1070
    42
1040
2.54
1070
    44
1040
1.5
1070
    76
1070
     0
1070
    75
1070
     1
1070
   279
1070
     0
1070
   271
1070
     0
1070
   144
1040
1.0
1070
   278
1070
    46
1070
   173
1070
     1
1070
    41
1040
3.0
1070
   140
1040
3.200000047683716
1070
   344
1005
D7
1070
   343
1005
D7
1002
}
  0
DIMENSION
  5
1F3
330
47
100
AcDbEntity
  8
0
 62
     0
100
AcDbDimension
  2
*D24
 10
110.5385894775391
 20
133.06103515625
 30
0.0
 11
55.86820275878906
 21
133.06103515625
 31
0.0
 70
   160
  1
(<>)\A2;{\H0.5x;\S±3;}
 71
     5
 42
109.3427886962891
  3
ISO-25
100
AcDbAlignedDimension
 13
1.195808410644531
 23
117.9245071411133
 33
0.0
 14
110.5385894775391
 24
77.92450714111328
 34
0.0
 50
180.0
100
AcDbRotatedDimension
1001
ACAD
1000
DSTYLE
1002
{
1070
   178
1070
     1
1070
   147
1040
0.800000011920929
1070
    77
1070
     1
1070
    74
1070
     0
1070
    73
1070
     0
1070
    42
1040
2.54
1070
    44
1040
1.5
1070
    76
1070
     0
1070
    75
1070
     1
1070
   279
1070
     0
1070
   271
1070
     0
1070
   144
1040
1.000000069775018
1070
   278
1070
    46
1070
   173
1070
     1
1070
    41
1040
3.0
1070
   140
1040
3.200000047683716
1070
   344
1005
D7
1070
   343
1005
D7
1002
}
  0
INSERT
  5
205
330
47
100
AcDbEntity
  8
0
 62
     0
100
AcDbBlockReference
  2
SYM0001
 10
-1.804195946391726
 20
-2.075492049956518
 30
0.0
  0
INSERT
  5
20E
330
47
100
AcDbEntity
  8
0
 62
     0
100
AcDbBlockReference
  2
SYM0002
 10
-0.000001800914987
 20
-0.000003423967219
 30
0.0
  0
DIMENSION
  5
211
330
47
100
AcDbEntity
  8
0
 62
     0
100
AcDbDimension
  2
*D27
 10
38.79974420166015
 20
-0.625492095947273
 30
0.0
 11
38.79974420166015
 21
16.30890806698798
 31
0.0
 70
   160
 71
     5
 42
1.450000762939453
  3
ISO-25
100
AcDbAlignedDimension
 13
1.672950744628906
 23
-2.075492858886719
 33
0.0
 14
1.672950744628906
 24
-0.625492095947266
 34
0.0
 50
270.0
100
AcDbRotatedDimension
1001
ACAD
1000
DSTYLE
1002
{
1070
   178
1070
     1
1070
   283
1070
     1
1070
    71
1070
     1
1070
    72
1070
     0
1070
    48
1040
0.1
1070
    47
1040
0.1
1070
   272
1070
     1
1070
   147
1040
0.800000011920929
1070
    77
1070
     1
1070
    74
1070
     0
1070
    73
1070
     0
1070
    42
1040
2.54
1070
    44
1040
1.5
1070
    76
1070
     1
1070
    75
1070
     1
1070
   279
1070
     0
1070
   271
1070
     2
1070
   144
1040
1.0
1070
   278
1070
    46
1070
   173
1070
     1
1070
    41
1040
3.0
1070
   140
1040
3.200000047683716
1070
   344
1005
D7
1070
   343
1005
D7
1002
}
  0
INSERT
  5
22B
330
47
100
AcDbEntity
  8
0
 62
     0
100
AcDbBlockReference
  2
SYM0003
 10
107.1044367399728
 20
0.090187040531433
 30
0.0
  0
INSERT
  5
234
330
47
100
AcDbEntity
  8
0
 62
     0
100
AcDbBlockReference
  2
SYM0004
 10
109.1958063671403
 20
-2.075499038011245
 30
0.0
  0
INSERT
  5
23D
330
47
100
AcDbEntity
  8
0
 62
     0
100
AcDbBlockReference
  2
SYM0005
 10
116.0300370818993
 20
69.43309427132563
 30
0.0
  0
INSERT
  5
244
330
47
100
AcDbEntity
  8
0
 62
     0
100
AcDbBlockReference
  2
SYM0006
 10
116.0300286073831
 20
76.41592981427554
 30
0.0
  0
INSERT
  5
24B
330
47
100
AcDbEntity
  8
0
 62
     0
100
AcDbBlockReference
  2
SYM0007
 10
111.993039541346
 20
76.41838018889767
 30
0.0
  0
INSERT
  5
252
330
47
100
AcDbEntity
  8
0
 62
     0
100
AcDbBlockReference
  2
SYM0008
 10
111.754142115006
 20
69.4355795937153
 30
0.0
  0
INSERT
  5
25B
330
47
100
AcDbEntity
  8
0
 62
     0
100
AcDbBlockReference
  2
SYM0009
 10
110.5385804254788
 20
77.92450107759994
 30
0.0
  0
INSERT
  5
262
330
47
100
AcDbEntity
  8
0
 62
     0
100
AcDbBlockReference
  2
SYM0010
 10
117.5385843234687
 20
77.9245055742787
 30
0.0
  0
DIMENSION
  5
265
330
47
100
AcDbEntity
  8
0
 62
     0
100
AcDbDimension
  2
*D36
 10
111.8398363955032
 20
67.83651910914037
 30
0.0
 11
118.7858530230994
 21
57.73402164001296
 31
0.0
 70
   164
  1
<>
 71
     5
 42
0.5
  3
ISO-25
100
AcDbRadialDimension
 15
112.1231160275981
 25
67.42450861165256
 35
0.0
 40
0.0
1001
ACAD
1000
DSTYLE
1002
{
1070
   178
1070
     1
1070
   147
1040
0.800000011920929
1070
    77
1070
     1
1070
    74
1070
     0
1070
    73
1070
     0
1070
   279
1070
     0
1070
   271
1070
     1
1070
   144
1040
0.999999999999994
1070
   278
1070
    46
1070
   173
1070
     1
1070
    41
1040
3.0
1070
   140
1040
3.200000047683716
1070
   344
1005
D7
1070
   343
1005
19C
1002
}
  0
DIMENSION
  5
274
330
47
100
AcDbEntity
  8
0
 62
     0
100
AcDbDimension
  2
*D37
 10
-19.81921293634809
 20
41.29973411658891
 30
0.0
 11
-12.53724449513082
 21
47.12655783827603
 31
0.0
 70
   164
  1
<>
 71
     5
 42
1.0
  3
ISO-25
100
AcDbRadialDimension
 15
-19.03840945786347
 25
41.92451081908853
 35
0.0
 40
0.0
1001
ACAD
1000
DSTYLE
1002
{
1070
   178
1070
     1
1070
   147
1040
0.625
1070
    77
1070
     1
1070
    74
1070
     0
1070
    73
1070
     0
1070
   279
1070
     0
1070
   271
1070
     0
1070
   144
1040
1.000000000000001
1070
   278
1070
    46
1070
   173
1070
     1
1070
    41
1040
3.0
1070
   140
1040
2.5
1070
   344
1005
D7
1070
   343
1005
19C
1002
}
  0
INSERT
  5
289
330
47
100
AcDbEntity
  8
0
 62
     0
100
AcDbBlockReference
  2
SYM0011
 10
-7.974160709293679
 20
39.09430195015807
 30
0.0
  0
INSERT
  5
292
330
47
100
AcDbEntity
  8
0
 62
     0
100
AcDbBlockReference
  2
SYM0012
 10
-7.272626590345633
 20
36.41090857747972
 30
0.0
  0
INSERT
  5
299
330
47
100
AcDbEntity
  8
0
 62
     0
100
AcDbBlockReference
  2
SYM0013
 10
-20.07037335046196
 20
39.41837612874914
 30
0.0
  0
INSERT
  5
2A0
330
47
100
AcDbEntity
  8
0
 62
     0
100
AcDbBlockReference
  2
SYM0014
 10
-20.2211539851877
 20
34.67329566099613
 30
0.0
  0
DIMENSION
  5
2A3
330
47
100
AcDbEntity
  8
0
 62
     0
100
AcDbDimension
  2
*D42
 10
-7.403111381364244
 20
34.69186164732978
 30
0.0
 11
-11.62711066760381
 21
26.37700932799496
 31
0.0
 70
   164
  1
<>
 71
     5
 42
1.0
  3
ISO-25
100
AcDbRadialDimension
 15
-7.856026463657726
 25
33.80030798756998
 35
0.0
 40
0.0
1001
ACAD
1000
DSTYLE
1002
{
1070
   178
1070
     1
1070
   147
1040
0.625
1070
    77
1070
     1
1070
    74
1070
     0
1070
    73
1070
     0
1070
   279
1070
     0
1070
   271
1070
     0
1070
   144
1040
0.999999999999997
1070
   278
1070
    46
1070
   173
1070
     1
1070
    41
1040
3.0
1070
   140
1040
2.5
1070
   344
1005
D7
1070
   343
1005
19C
1002
}
  0
DIMENSION
  5
2B2
330
47
100
AcDbEntity
  8
0
 62
     0
100
AcDbDimension
  2
*D43
 10
-21.78946354917574
 20
32.76827273887714
 30
0.0
 11
-27.65969254387025
 21
25.62852939709035
 31
0.0
 70
   164
  1
<>
 71
     5
 42
1.5
  3
ISO-25
100
AcDbRadialDimension
 15
-21.7187600845666
 25
32.85426675906622
 35
0.0
 40
0.0
1001
ACAD
1000
DSTYLE
1002
{
1070
   178
1070
     1
1070
   147
1040
0.625
1070
    77
1070
     1
1070
    74
1070
     0
1070
    73
1070
     0
1070
   279
1070
     0
1070
   271
1070
     1
1070
   144
1040
13.47368421052652
1070
   278
1070
    46
1070
   173
1070
     1
1070
    41
1040
3.0
1070
   140
1040
2.5
1070
   344
1005
D7
1070
   343
1005
19C
1002
}
  0
DIMENSION
  5
2C0
330
47
100
AcDbEntity
  8
0
 62
     0
100
AcDbDimension
  2
*D44
 10
-20.86866608938719
 20
73.11819380367422
 30
0.0
 11
-26.29005758666992
 21
72.87801416015625
 31
0.0
 70
   165
 71
     5
 42
0.034909484079261
  3
ISO-25
100
AcDb3PointAngularDimension
 13
-20.23925538742032
 23
77.73794645247777
 33
0.0
 14
-21.80417633056641
 24
134.56103515625
 34
0.0
 15
-21.80417633056641
 25
32.92819849246514
 35
0.0
1001
ACAD
1000
DSTYLE
1002
{
1070
   178
1070
     1
1070
   275
1070
     1
1070
   147
1040
0.800000011920929
1070
    77
1070
     1
1070
    74
1070
     0
1070
    73
1070
     0
1070
    42
1040
2.54
1070
    44
1040
1.500003814694367
1070
    76
1070
     1
1070
    75
1070
     1
1070
   279
1070
     0
1070
   179
1070
     0
1070
   144
1040
0.313545093689488
1070
   278
1070
    46
1070
   173
1070
     1
1070
    41
1040
3.0
1070
   140
1040
3.200000047683716
1070
   344
1005
D7
1070
   343
1005
D7
1002
}
  0
DIMENSION
  5
2D5
330
47
100
AcDbEntity
  8
0
 62
     0
100
AcDbDimension
  2
*D45
 10
6.872742418928483
 20
16.81847419174537
 30
0.0
 11
12.07112748718262
 21
13.40825708007812
 31
0.0
 70
   165
 71
     5
 42
1.710421904538828
  3
ISO-25
100
AcDb3PointAngularDimension
 13
40.07352447509766
 23
-2.075492858886719
 33
0.0
 14
-5.7619444505283
 24
26.08541253108605
 34
0.0
 15
-1.804209195433861
 25
-2.075492858886719
 35
0.0
1001
ACAD
1000
DSTYLE
1002
{
1070
   178
1070
     1
1070
   275
1070
     1
1070
   147
1040
0.800000011920929
1070
    77
1070
     1
1070
    74
1070
     0
1070
    73
1070
     0
1070
    42
1040
2.54
1070
    44
1040
1.499998800423394
1070
    76
1070
     1
1070
    75
1070
     1
1070
   279
1070
     0
1070
   179
1070
     0
1070
   144
1040
15.36380017563965
1070
   278
1070
    46
1070
   173
1070
     1
1070
    41
1040
3.0
1070
   140
1040
3.200000047683716
1070
   344
1005
D7
1070
   343
1005
D7
1002
}
  0
DIMENSION
  5
2E8
330
47
100
AcDbEntity
  8
0
 62
     0
100
AcDbDimension
  2
*D46
 10
88.28579854150374
 20
10.32350657983398
 30
0.0
 11
92.77074542236329
 21
15.84602410888672
 31
0.0
 70
   165
 71
     5
 42
1.605703615934649
  3
ISO-25
100
AcDb3PointAngularDimension
 13
111.5816306551417
 23
66.24502725261378
 33
0.0
 14
1.672950744628906
 24
-2.075489044189453
 34
0.0
 15
109.1957774908548
 25
-2.075489044189453
 35
0.0
1001
ACAD
1000
DSTYLE
1002
{
1070
   178
1070
     1
1070
   275
1070
     1
1070
   147
1040
0.800000011920929
1070
    77
1070
     1
1070
    74
1070
     0
1070
    73
1070
     0
1070
    42
1040
2.54
1070
    44
1040
1.500003814696967
1070
    76
1070
     1
1070
    75
1070
     1
1070
   279
1070
     0
1070
   179
1070
     0
1070
   144
1040
14.42315119564432
1070
   278
1070
    46
1070
   173
1070
     1
1070
    41
1040
3.0
1070
   140
1040
3.200000047683716
1070
   344
1005
D7
1070
   343
1005
D7
1002
}
  0
ENDBLK
  5
49
330
47
100
AcDbEntity
  8
0
100
AcDbBlockEnd
  0
BLOCK
  5
D8
330
D7
100
AcDbEntity
  8
0
100
AcDbBlockBegin
  2
_OPEN30
 70
     0
 10
0.0
 20
0.0
 30
0.0
  3
_OPEN30
  1

  0
LINE
  5
DA
330
D7
100
AcDbEntity
  8
0
  6
ByBlock
 62
     0
370
    -2
100
AcDbLine
 10
-1.0
 20
0.267949
 30
0.0
 11
0.0
 21
0.0
 31
0.0
  0
LINE
  5
DB
330
D7
100
AcDbEntity
  8
0
  6
ByBlock
 62
     0
370
    -2
100
AcDbLine
 10
0.0
 20
0.0
 30
0.0
 11
-1.0
 21
-0.267949
 31
0.0
  0
LINE
  5
DC
330
D7
100
AcDbEntity
  8
0
  6
ByBlock
 62
     0
370
    -2
100
AcDbLine
 10
0.0
 20
0.0
 30
0.0
 11
-1.0
 21
0.0
 31
0.0
  0
ENDBLK
  5
D9
330
D7
100
AcDbEntity
  8
0
100
AcDbBlockEnd
  0
BLOCK
  5
DF
330
DE
100
AcDbEntity
  8
0
100
AcDbBlockBegin
  2
*D4
 70
     1
 10
0.0
 20
0.0
 30
0.0
  3
*D4
  1

  0
LINE
  5
E1
330
DE
100
AcDbEntity
  8
0
 62
     0
370
    -2
100
AcDbLine
 10
-1.804195404052735
 20
-4.615492858886719
 30
0.0
 11
-1.804195404052736
 21
-18.43250219726562
 31
0.0
  0
LINE
  5
E2
330
DE
100
AcDbEntity
  8
0
 62
     0
370
    -2
100
AcDbLine
 10
-18.80419158935548
 20
-16.93250219726562
 30
0.0
 11
-4.804195404052736
 21
-16.93250219726562
 31
0.0
  0
INSERT
  5
E3
330
DE
100
AcDbEntity
  8
0
 62
     0
370
    -2
100
AcDbBlockReference
  2
_OPEN30
 10
-21.80419158935548
 20
-16.93250219726562
 30
0.0
 41
3.0
 42
3.0
 43
3.0
 50
180.0
  0
INSERT
  5
E4
330
DE
100
AcDbEntity
  8
0
 62
     0
370
    -2
100
AcDbBlockReference
  2
_OPEN30
 10
-1.804195404052736
 20
-16.93250219726562
 30
0.0
 41
3.0
 42
3.0
 43
3.0
 50
360.0
  0
MTEXT
  5
E5
330
DE
100
AcDbEntity
  8
0
 62
     1
 60
     1
100
AcDbMText
 10
-11.780005859375
 20
-14.51170216119289
 30
0.0
 40
3.200000047683716
 41
0.0
 71
     5
 72
     1
  1
\A1;20%%p0.3
 73
     1
 44
1.0
  0
POINT
  5
E6
330
DE
100
AcDbEntity
  8
Defpoints
 62
     0
100
AcDbPoint
 10
-21.80419158935547
 20
32.92450714111328
 30
0.0
  0
POINT
  5
E7
330
DE
100
AcDbEntity
  8
Defpoints
 62
     0
100
AcDbPoint
 10
-1.804195404052734
 20
-2.075492858886719
 30
0.0
  0
POINT
  5
E8
330
DE
100
AcDbEntity
  8
Defpoints
 62
     0
100
AcDbPoint
 10
-1.804195404052736
 20
-16.93350219726562
 30
0.0
  0
MTEXT
  5
E9
330
DE
100
AcDbEntity
  8
0
 62
     1
100
AcDbMText
 10
-17.83685045343719
 20
-16.12293151342577
 30
0.0
 40
3.200000047683716
 41
0.0
 71
     7
 72
     1
  1
\W1;20
 11
0.9999984769132877
 21
-0.001745328365898445
 31
0.0
 73
     1
 44
1.0
  0
MTEXT
  5
EA
330
DE
100
AcDbEntity
  8
0
 62
     1
100
AcDbMText
 10
-11.66396350366908
 20
-15.33370401413583
 30
0.0
 40
1.600000023841858
 41
0.0
 71
     7
 72
     1
  1
\W1;±0.3
 11
0.9999984769132877
 21
-0.001745328365898445
 31
0.0
 73
     1
 44
1.0
  0
ENDBLK
  5
E0
330
DE
100
AcDbEntity
  8
0
100
AcDbBlockEnd
  0
BLOCK
  5
ED
330
EC
100
AcDbEntity
  8
0
100
AcDbBlockBegin
  2
*D5
 70
     1
 10
0.0
 20
0.0
 30
0.0
  3
*D5
  1

  0
LINE
  5
EF
330
EC
100
AcDbEntity
  8
0
 62
     0
370
    -2
100
AcDbLine
 10
1.195804595947266
 20
-16.93250219726562
 30
0.0
 11
106.19580078125
 21
-16.93250219726563
 31
0.0
  0
INSERT
  5
F0
330
EC
100
AcDbEntity
  8
0
 62
     0
370
    -2
100
AcDbBlockReference
  2
_OPEN30
 10
-1.804195404052734
 20
-16.93250219726562
 30
0.0
 41
3.0
 42
3.0
 43
3.0
 50
180.0
  0
INSERT
  5
F1
330
EC
100
AcDbEntity
  8
0
 62
     0
370
    -2
100
AcDbBlockReference
  2
_OPEN30
 10
109.19580078125
 20
-16.93250219726563
 30
0.0
 41
3.0
 42
3.0
 43
3.0
 50
360.0
  0
MTEXT
  5
F2
330
EC
100
AcDbEntity
  8
0
 62
     1
100
AcDbMText
 10
53.69680459594726
 20
-14.51170216119289
 30
0.0
 40
3.200000047683716
 41
0.0
 71
     5
 72
     1
  1
\A1;\A1;111{\H0.5x;%%p0.3}
 73
     1
 44
1.0
  0
POINT
  5
F3
330
EC
100
AcDbEntity
  8
Defpoints
 62
     0
100
AcDbPoint
 10
-1.804195404052734
 20
-2.075492858886719
 30
0.0
  0
POINT
  5
F4
330
EC
100
AcDbEntity
  8
Defpoints
 62
     0
100
AcDbPoint
 10
109.19580078125
 20
-2.075492858886719
 30
0.0
  0
POINT
  5
F5
330
EC
100
AcDbEntity
  8
Defpoints
 62
     0
100
AcDbPoint
 10
109.19580078125
 20
-16.93350219726562
 30
0.0
  0
ENDBLK
  5
EE
330
EC
100
AcDbEntity
  8
0
100
AcDbBlockEnd
  0
BLOCK
  5
F8
330
F7
100
AcDbEntity
  8
0
100
AcDbBlockBegin
  2
*D6
 70
     1
 10
0.0
 20
0.0
 30
0.0
  3
*D6
  1

  0
LINE
  5
FA
330
F7
100
AcDbEntity
  8
0
 62
     0
370
    -2
100
AcDbLine
 10
-21.80419158935547
 20
30.38450714111328
 30
0.0
 11
-21.80419158935548
 21
-28.48734991455077
 31
0.0
  0
LINE
  5
FB
330
F7
100
AcDbEntity
  8
0
 62
     0
370
    -2
100
AcDbLine
 10
109.19580078125
 20
-4.615492858886719
 30
0.0
 11
109.19580078125
 21
-28.48734991455079
 31
0.0
  0
LINE
  5
FC
330
F7
100
AcDbEntity
  8
0
 62
     0
370
    -2
100
AcDbLine
 10
-18.80419158935548
 20
-26.98734991455077
 30
0.0
 11
106.19580078125
 21
-26.98734991455079
 31
0.0
  0
INSERT
  5
FD
330
F7
100
AcDbEntity
  8
0
 62
     0
370
    -2
100
AcDbBlockReference
  2
_OPEN30
 10
-21.80419158935548
 20
-26.98734991455077
 30
0.0
 41
3.0
 42
3.0
 43
3.0
 50
180.0
  0
INSERT
  5
FE
330
F7
100
AcDbEntity
  8
0
 62
     0
370
    -2
100
AcDbBlockReference
  2
_OPEN30
 10
109.19580078125
 20
-26.98734991455079
 30
0.0
 41
3.0
 42
3.0
 43
3.0
 50
360.0
  0
MTEXT
  5
FF
330
F7
100
AcDbEntity
  8
0
 62
     1
100
AcDbMText
 10
43.69680841064453
 20
-24.56654987847805
 30
0.0
 40
3.200000047683716
 41
0.0
 71
     5
 72
     1
  1
\A1;\A1;131{\H0.5x;%%p0.5}
 73
     1
 44
1.0
  0
POINT
  5
100
330
F7
100
AcDbEntity
  8
Defpoints
 62
     0
100
AcDbPoint
 10
-21.80419158935547
 20
32.92450714111328
 30
0.0
  0
POINT
  5
101
330
F7
100
AcDbEntity
  8
Defpoints
 62
     0
100
AcDbPoint
 10
109.19580078125
 20
-2.075492858886719
 30
0.0
  0
POINT
  5
102
330
F7
100
AcDbEntity
  8
Defpoints
 62
     0
100
AcDbPoint
 10
109.19580078125
 20
-26.98834991455078
 30
0.0
  0
ENDBLK
  5
F9
330
F7
100
AcDbEntity
  8
0
100
AcDbBlockEnd
  0
BLOCK
  5
105
330
104
100
AcDbEntity
  8
0
100
AcDbBlockBegin
  2
*D7
 70
     1
 10
0.0
 20
0.0
 30
0.0
  3
*D7
  1

  0
LINE
  5
107
330
104
100
AcDbEntity
  8
0
 62
     0
370
    -2
100
AcDbLine
 10
120.0785894775391
 20
67.92450714111328
 30
0.0
 11
133.9640045166016
 21
67.92450714111328
 31
0.0
  0
LINE
  5
108
330
104
100
AcDbEntity
  8
0
 62
     0
370
    -2
100
AcDbLine
 10
132.4640045166016
 20
0.924507141113267
 30
0.0
 11
132.4640045166016
 21
64.92450714111328
 31
0.0
  0
INSERT
  5
109
330
104
100
AcDbEntity
  8
0
 62
     0
370
    -2
100
AcDbBlockReference
  2
_OPEN30
 10
132.4640045166016
 20
-2.075492858886733
 30
0.0
 41
3.0
 42
3.0
 43
3.0
 50
270.0
  0
INSERT
  5
10A
330
104
100
AcDbEntity
  8
0
 62
     0
370
    -2
100
AcDbBlockReference
  2
_OPEN30
 10
132.4640045166016
 20
67.92450714111328
 30
0.0
 41
3.0
 42
3.0
 43
3.0
 50
90.0
  0
MTEXT
  5
10B
330
104
100
AcDbEntity
  8
0
 62
     1
100
AcDbMText
 10
130.0432044805288
 20
34.0876470336914
 30
0.0
 40
3.200000047683716
 41
0.0
 71
     5
 72
     1
  1
\A1;\A1;70{\H0.5x;%%p0.3}
 11
0.0
 21
1.0
 31
0.0
 73
     1
 44
1.0
  0
POINT
  5
10C
330
104
100
AcDbEntity
  8
Defpoints
 62
     0
100
AcDbPoint
 10
109.19580078125
 20
-2.075492858886719
 30
0.0
  0
POINT
  5
10D
330
104
100
AcDbEntity
  8
Defpoints
 62
     0
100
AcDbPoint
 10
117.5385894775391
 20
67.92450714111328
 30
0.0
  0
POINT
  5
10E
330
104
100
AcDbEntity
  8
Defpoints
 62
     0
100
AcDbPoint
 10
132.4640045166016
 20
67.92450714111328
 30
0.0
  0
ENDBLK
  5
106
330
104
100
AcDbEntity
  8
0
100
AcDbBlockEnd
  0
BLOCK
  5
111
330
110
100
AcDbEntity
  8
0
100
AcDbBlockBegin
  2
*D8
 70
     1
 10
0.0
 20
0.0
 30
0.0
  3
*D8
  1

  0
LINE
  5
115
330
110
100
AcDbEntity
  8
0
 62
     0
370
    -2
100
AcDbLine
 10
132.4640045166016
 20
70.92450714111328
 30
0.0
 11
132.4640045166016
 21
74.92450714111328
 31
0.0
  0
INSERT
  5
116
330
110
100
AcDbEntity
  8
0
 62
     0
370
    -2
100
AcDbBlockReference
  2
_OPEN30
 10
132.4640045166016
 20
67.92450714111328
 30
0.0
 41
3.0
 42
3.0
 43
3.0
 50
270.0
  0
INSERT
  5
117
330
110
100
AcDbEntity
  8
0
 62
     0
370
    -2
100
AcDbBlockReference
  2
_OPEN30
 10
132.4640045166016
 20
77.92450714111328
 30
0.0
 41
3.0
 42
3.0
 43
3.0
 50
90.0
  0
MTEXT
  5
118
330
110
100
AcDbEntity
  8
0
 62
     1
100
AcDbMText
 10
142.3574371337891
 20
88.51163482666016
 30
0.0
 40
3.200000047683716
 41
0.0
 71
     8
 72
     1
  1
\A1;\A1;10{\H0.5x;%%p0.3}
 11
0.0
 21
1.0
 31
0.0
 73
     1
 44
1.0
  0
POINT
  5
119
330
110
100
AcDbEntity
  8
Defpoints
 62
     0
100
AcDbPoint
 10
117.5385894775391
 20
67.92450714111328
 30
0.0
  0
POINT
  5
11A
330
110
100
AcDbEntity
  8
Defpoints
 62
     0
100
AcDbPoint
 10
117.5385894775391
 20
77.92450714111328
 30
0.0
  0
POINT
  5
11B
330
110
100
AcDbEntity
  8
Defpoints
 62
     0
100
AcDbPoint
 10
132.4640045166016
 20
77.92450714111328
 30
0.0
  0
LINE
  5
11C
330
110
100
AcDbEntity
  8
0
  6
Continuous
 62
     0
100
AcDbLine
 10
132.4640016467039
 20
72.92450410287287
 30
0.0
 11
142.3574474173701
 21
78.63648427435393
 31
0.0
  0
LINE
  5
11D
330
110
100
AcDbEntity
  8
0
  6
Continuous
 62
     0
100
AcDbLine
 10
142.3574371337891
 20
78.63648223876953
 30
0.0
 11
142.3574371337891
 21
94.45463562011719
 31
0.0
  0
ENDBLK
  5
112
330
110
100
AcDbEntity
  8
0
100
AcDbBlockEnd
  0
BLOCK
  5
120
330
11F
100
AcDbEntity
  8
0
100
AcDbBlockBegin
  2
*D9
 70
     1
 10
0.0
 20
0.0
 30
0.0
  3
*D9
  1

  0
LINE
  5
122
330
11F
100
AcDbEntity
  8
0
 62
     0
370
    -2
100
AcDbLine
 10
119.5785894775391
 20
77.92450714111328
 30
0.0
 11
143.9400106201172
 21
77.92450714111328
 31
0.0
  0
LINE
  5
123
330
11F
100
AcDbEntity
  8
0
 62
     0
370
    -2
100
AcDbLine
 10
111.73580078125
 20
-2.075492858886718
 30
0.0
 11
143.9400106201172
 21
-2.075492858886704
 31
0.0
  0
LINE
  5
124
330
11F
100
AcDbEntity
  8
0
 62
     0
370
    -2
100
AcDbLine
 10
142.4400106201172
 20
74.92450714111328
 30
0.0
 11
142.4400106201172
 21
0.924507141113295
 31
0.0
  0
INSERT
  5
125
330
11F
100
AcDbEntity
  8
0
 62
     0
370
    -2
100
AcDbBlockReference
  2
_OPEN30
 10
142.4400106201172
 20
77.92450714111328
 30
0.0
 41
3.0
 42
3.0
 43
3.0
 50
90.00000000000001
  0
INSERT
  5
126
330
11F
100
AcDbEntity
  8
0
 62
     0
370
    -2
100
AcDbBlockReference
  2
_OPEN30
 10
142.4400106201172
 20
-2.075492858886705
 30
0.0
 41
3.0
 42
3.0
 43
3.0
 50
270.0
  0
MTEXT
  5
127
330
11F
100
AcDbEntity
  8
0
 62
     1
100
AcDbMText
 10
140.0192105840445
 20
37.92550714111328
 30
0.0
 40
3.200000047683716
 41
0.0
 71
     5
 72
     1
  1
\A1;\A1;80{\H0.5x;%%p0.5}
 11
-3.552713678800501E-16
 21
1.0
 31
0.0
 73
     1
 44
1.0
  0
POINT
  5
128
330
11F
100
AcDbEntity
  8
Defpoints
 62
     0
100
AcDbPoint
 10
117.0385894775391
 20
77.92450714111328
 30
0.0
  0
POINT
  5
129
330
11F
100
AcDbEntity
  8
Defpoints
 62
     0
100
AcDbPoint
 10
109.19580078125
 20
-2.075492858886719
 30
0.0
  0
POINT
  5
12A
330
11F
100
AcDbEntity
  8
Defpoints
 62
     0
100
AcDbPoint
 10
142.4390106201172
 20
-2.075492858886706
 30
0.0
  0
ENDBLK
  5
121
330
11F
100
AcDbEntity
  8
0
100
AcDbBlockEnd
  0
BLOCK
  5
12D
330
12C
100
AcDbEntity
  8
0
100
AcDbBlockBegin
  2
*D10
 70
     1
 10
0.0
 20
0.0
 30
0.0
  3
*D10
  1

  0
MTEXT
  5
135
330
12C
100
AcDbEntity
  8
0
 62
     1
100
AcDbMText
 10
117.5026561279297
 20
95.48244554388523
 30
0.0
 40
3.200000047683716
 41
0.0
 71
     5
 72
     1
  1
\A1;\A1;7{\H0.5x;%%p0.3}
 73
     1
 44
1.0
  0
POINT
  5
136
330
12C
100
AcDbEntity
  8
Defpoints
 62
     0
100
AcDbPoint
 10
117.5385894775391
 20
77.92450714111328
 30
0.0
  0
POINT
  5
137
330
12C
100
AcDbEntity
  8
Defpoints
 62
     0
100
AcDbPoint
 10
110.5385894775391
 20
77.92450714111328
 30
0.0
  0
POINT
  5
138
330
12C
100
AcDbEntity
  8
Defpoints
 62
     0
100
AcDbPoint
 10
110.5385894775391
 20
93.0616455078125
 30
0.0
  0
LINE
  5
139
330
12C
100
AcDbEntity
  8
0
  6
Continuous
 62
     0
100
AcDbLine
 10
117.5385894775391
 20
80.46450714111329
 30
0.0
 11
117.5385894775391
 21
94.5616455078125
 31
0.0
  0
LINE
  5
13A
330
12C
100
AcDbEntity
  8
0
  6
Continuous
 62
     0
100
AcDbLine
 10
123.8885894775391
 20
93.0616455078125
 30
0.0
 11
104.1885894775391
 21
93.0616455078125
 31
0.0
  0
LINE
  5
13B
330
12C
100
AcDbEntity
  8
0
  6
Continuous
 62
     0
100
AcDbLine
 10
117.5385894775391
 20
93.0616455078125
 30
0.0
 11
120.5931151395447
 21
93.8801031921125
 31
0.0
  0
LINE
  5
13C
330
12C
100
AcDbEntity
  8
0
  6
Continuous
 62
     0
100
AcDbLine
 10
117.5385894775391
 20
93.0616455078125
 30
0.0
 11
120.5931151395447
 21
92.2431878235125
 31
0.0
  0
LINE
  5
13D
330
12C
100
AcDbEntity
  8
0
  6
Continuous
 62
     0
100
AcDbLine
 10
110.5385894775391
 20
93.0616455078125
 30
0.0
 11
107.4840638155334
 21
92.2431878235125
 31
0.0
  0
LINE
  5
13E
330
12C
100
AcDbEntity
  8
0
  6
Continuous
 62
     0
100
AcDbLine
 10
110.5385894775391
 20
93.0616455078125
 30
0.0
 11
107.4840638155334
 21
93.8801031921125
 31
0.0
  0
ENDBLK
  5
12E
330
12C
100
AcDbEntity
  8
0
100
AcDbBlockEnd
  0
BLOCK
  5
141
330
140
100
AcDbEntity
  8
0
100
AcDbBlockBegin
  2
*D11
 70
     1
 10
0.0
 20
0.0
 30
0.0
  3
*D11
  1

  0
LINE
  5
143
330
140
100
AcDbEntity
  8
0
 62
     0
370
    -2
100
AcDbLine
 10
-24.34419158935547
 20
32.92450714111328
 30
0.0
 11
-38.60999624633789
 21
32.92450714111328
 31
0.0
  0
LINE
  5
144
330
140
100
AcDbEntity
  8
0
 62
     0
370
    -2
100
AcDbLine
 10
-37.1099962463379
 20
0.924507141113288
 30
0.0
 11
-37.10999624633789
 21
29.92450714111328
 31
0.0
  0
INSERT
  5
145
330
140
100
AcDbEntity
  8
0
 62
     0
370
    -2
100
AcDbBlockReference
  2
_OPEN30
 10
-37.1099962463379
 20
-2.075492858886712
 30
0.0
 41
3.0
 42
3.0
 43
3.0
 50
270.0
  0
INSERT
  5
146
330
140
100
AcDbEntity
  8
0
 62
     0
370
    -2
100
AcDbBlockReference
  2
_OPEN30
 10
-37.10999624633789
 20
32.92450714111328
 30
0.0
 41
3.0
 42
3.0
 43
3.0
 50
89.99999999999999
  0
MTEXT
  5
147
330
140
100
AcDbEntity
  8
0
 62
     1
100
AcDbMText
 10
-39.53079628241062
 20
16.9376455078125
 30
0.0
 40
3.200000047683716
 41
0.0
 71
     5
 72
     1
  1
\A1;\A1;35{\H0.5x;%%p0.3}
 11
2.030122102171715E-16
 21
1.0
 31
0.0
 73
     1
 44
1.0
  0
POINT
  5
148
330
140
100
AcDbEntity
  8
Defpoints
 62
     0
100
AcDbPoint
 10
-1.804195404052734
 20
-2.075492858886719
 30
0.0
  0
POINT
  5
149
330
140
100
AcDbEntity
  8
Defpoints
 62
     0
100
AcDbPoint
 10
-21.80419158935547
 20
32.92450714111328
 30
0.0
  0
POINT
  5
14A
330
140
100
AcDbEntity
  8
Defpoints
 62
     0
100
AcDbPoint
 10
-37.11099624633789
 20
32.92450714111328
 30
0.0
  0
ENDBLK
  5
142
330
140
100
AcDbEntity
  8
0
100
AcDbBlockEnd
  0
BLOCK
  5
14D
330
14C
100
AcDbEntity
  8
0
100
AcDbBlockBegin
  2
*D12
 70
     1
 10
0.0
 20
0.0
 30
0.0
  3
*D12
  1

  0
LINE
  5
14F
330
14C
100
AcDbEntity
  8
0
 62
     0
370
    -2
100
AcDbLine
 10
-22.61394409179687
 20
40.92450714111328
 30
0.0
 11
-38.60999624633789
 21
40.92450714111328
 31
0.0
  0
LINE
  5
150
330
14C
100
AcDbEntity
  8
0
 62
     0
370
    -2
100
AcDbLine
 10
-37.10999624633789
 20
35.92450714111328
 30
0.0
 11
-37.10999624633789
 21
37.92450714111328
 31
0.0
  0
INSERT
  5
151
330
14C
100
AcDbEntity
  8
0
 62
     0
370
    -2
100
AcDbBlockReference
  2
_OPEN30
 10
-37.10999624633789
 20
32.92450714111328
 30
0.0
 41
3.0
 42
3.0
 43
3.0
 50
270.0
  0
INSERT
  5
152
330
14C
100
AcDbEntity
  8
0
 62
     0
370
    -2
100
AcDbBlockReference
  2
_OPEN30
 10
-37.10999624633789
 20
40.92450714111328
 30
0.0
 41
3.0
 42
3.0
 43
3.0
 50
90.0
  0
MTEXT
  5
153
330
14C
100
AcDbEntity
  8
0
 62
     1
100
AcDbMText
 10
-39.53079628241063
 20
36.92550714111328
 30
0.0
 40
3.200000047683716
 41
0.0
 71
     5
 72
     1
  1
\A1;\A1;8{\H0.5x;%%p0.3}
 11
0.0
 21
1.0
 31
0.0
 73
     1
 44
1.0
  0
POINT
  5
154
330
14C
100
AcDbEntity
  8
Defpoints
 62
     0
100
AcDbPoint
 10
-21.80419158935547
 20
32.92450714111328
 30
0.0
  0
POINT
  5
155
330
14C
100
AcDbEntity
  8
Defpoints
 62
     0
100
AcDbPoint
 10
-20.07394409179688
 20
40.92450714111328
 30
0.0
  0
POINT
  5
156
330
14C
100
AcDbEntity
  8
Defpoints
 62
     0
100
AcDbPoint
 10
-37.11099624633789
 20
40.92450714111328
 30
0.0
  0
ENDBLK
  5
14E
330
14C
100
AcDbEntity
  8
0
100
AcDbBlockEnd
  0
BLOCK
  5
159
330
158
100
AcDbEntity
  8
0
100
AcDbBlockBegin
  2
*D13
 70
     1
 10
0.0
 20
0.0
 30
0.0
  3
*D13
  1

  0
LINE
  5
15B
330
158
100
AcDbEntity
  8
0
 62
     0
370
    -2
100
AcDbLine
 10
-37.1099962463379
 20
43.92450714111328
 30
0.0
 11
-37.10999624633789
 21
114.9245071411133
 31
0.0
  0
INSERT
  5
15C
330
158
100
AcDbEntity
  8
0
 62
     0
370
    -2
100
AcDbBlockReference
  2
_OPEN30
 10
-37.1099962463379
 20
40.92450714111328
 30
0.0
 41
3.0
 42
3.0
 43
3.0
 50
270.0
  0
INSERT
  5
15D
330
158
100
AcDbEntity
  8
0
 62
     0
370
    -2
100
AcDbBlockReference
  2
_OPEN30
 10
-37.10999624633789
 20
117.9245071411133
 30
0.0
 41
3.0
 42
3.0
 43
3.0
 50
89.99999999999999
  0
MTEXT
  5
15E
330
158
100
AcDbEntity
  8
0
 62
     1
100
AcDbMText
 10
-39.53079628241063
 20
79.42550714111329
 30
0.0
 40
3.200000047683716
 41
0.0
 71
     5
 72
     1
  1
\A1;\A1;77{\H0.5x;%%p0.3}
 11
1.845565547428832E-16
 21
1.0
 31
0.0
 73
     1
 44
1.0
  0
POINT
  5
15F
330
158
100
AcDbEntity
  8
Defpoints
 62
     0
100
AcDbPoint
 10
-20.07394409179688
 20
40.92450714111328
 30
0.0
  0
POINT
  5
160
330
158
100
AcDbEntity
  8
Defpoints
 62
     0
100
AcDbPoint
 10
-5.804191589355469
 20
117.9245071411133
 30
0.0
  0
POINT
  5
161
330
158
100
AcDbEntity
  8
Defpoints
 62
     0
100
AcDbPoint
 10
-37.11099624633789
 20
117.9245071411133
 30
0.0
  0
ENDBLK
  5
15A
330
158
100
AcDbEntity
  8
0
100
AcDbBlockEnd
  0
BLOCK
  5
164
330
163
100
AcDbEntity
  8
0
100
AcDbBlockBegin
  2
*D14
 70
     1
 10
0.0
 20
0.0
 30
0.0
  3
*D14
  1

  0
LINE
  5
166
330
163
100
AcDbEntity
  8
0
 62
     0
370
    -2
100
AcDbLine
 10
-8.344191589355468
 20
117.9245071411133
 30
0.0
 11
-48.40899929809573
 21
117.9245071411133
 31
0.0
  0
LINE
  5
167
330
163
100
AcDbEntity
  8
0
 62
     0
370
    -2
100
AcDbLine
 10
-4.344195404052734
 20
-2.07549285888672
 30
0.0
 11
-48.40899929809569
 21
-2.075492858886733
 31
0.0
  0
LINE
  5
168
330
163
100
AcDbEntity
  8
0
 62
     0
370
    -2
100
AcDbLine
 10
-46.90899929809573
 20
114.9245071411133
 30
0.0
 11
-46.90899929809569
 21
0.924507141113267
 31
0.0
  0
INSERT
  5
169
330
163
100
AcDbEntity
  8
0
 62
     0
370
    -2
100
AcDbBlockReference
  2
_OPEN30
 10
-46.90899929809573
 20
117.9245071411133
 30
0.0
 41
3.0
 42
3.0
 43
3.0
 50
90.00000000000001
  0
INSERT
  5
16A
330
163
100
AcDbEntity
  8
0
 62
     0
370
    -2
100
AcDbBlockReference
  2
_OPEN30
 10
-46.90899929809569
 20
-2.075492858886733
 30
0.0
 41
3.0
 42
3.0
 43
3.0
 50
270.0
  0
MTEXT
  5
16B
330
163
100
AcDbEntity
  8
0
 62
     1
100
AcDbMText
 10
-49.32979933416844
 20
57.92550714111328
 30
0.0
 40
3.200000047683716
 41
0.0
 71
     5
 72
     1
  1
\A1;\A1;120{\H0.5x;%%p0.5}
 11
-3.552713678800501E-16
 21
1.0
 31
0.0
 73
     1
 44
1.0
  0
POINT
  5
16C
330
163
100
AcDbEntity
  8
Defpoints
 62
     0
100
AcDbPoint
 10
-5.804191589355469
 20
117.9245071411133
 30
0.0
  0
POINT
  5
16D
330
163
100
AcDbEntity
  8
Defpoints
 62
     0
100
AcDbPoint
 10
-1.804195404052734
 20
-2.075492858886719
 30
0.0
  0
POINT
  5
16E
330
163
100
AcDbEntity
  8
Defpoints
 62
     0
100
AcDbPoint
 10
-46.9109992980957
 20
-2.075492858886736
 30
0.0
  0
ENDBLK
  5
165
330
163
100
AcDbEntity
  8
0
100
AcDbBlockEnd
  0
BLOCK
  5
171
330
170
100
AcDbEntity
  8
0
100
AcDbBlockBegin
  2
*D15
 70
     1
 10
0.0
 20
0.0
 30
0.0
  3
*D15
  1

  0
LINE
  5
173
330
170
100
AcDbEntity
  8
0
 62
     0
370
    -2
100
AcDbLine
 10
3.735808410644531
 20
117.9245071411133
 30
0.0
 11
17.59000260925293
 21
117.9245071411133
 31
0.0
  0
LINE
  5
174
330
170
100
AcDbEntity
  8
0
 62
     0
370
    -2
100
AcDbLine
 10
3.735808410644531
 20
97.92450714111328
 30
0.0
 11
17.59000260925293
 21
97.92450714111328
 31
0.0
  0
LINE
  5
175
330
170
100
AcDbEntity
  8
0
 62
     0
370
    -2
100
AcDbLine
 10
16.09000260925293
 20
114.9245071411133
 30
0.0
 11
16.09000260925293
 21
100.9245071411133
 31
0.0
  0
INSERT
  5
176
330
170
100
AcDbEntity
  8
0
 62
     0
370
    -2
100
AcDbBlockReference
  2
_OPEN30
 10
16.09000260925293
 20
117.9245071411133
 30
0.0
 41
3.0
 42
3.0
 43
3.0
 50
90.00000000000001
  0
INSERT
  5
177
330
170
100
AcDbEntity
  8
0
 62
     0
370
    -2
100
AcDbBlockReference
  2
_OPEN30
 10
16.09000260925293
 20
97.92450714111328
 30
0.0
 41
3.0
 42
3.0
 43
3.0
 50
270.0
  0
MTEXT
  5
178
330
170
100
AcDbEntity
  8
0
 62
     1
100
AcDbMText
 10
13.67560257327557
 20
107.9255071411133
 30
0.0
 40
3.200000047683716
 41
0.0
 71
     5
 72
     1
  1
20
 11
-3.552713678800501E-16
 21
1.0
 31
0.0
 73
     1
 44
1.0
  0
POINT
  5
179
330
170
100
AcDbEntity
  8
Defpoints
 62
     0
100
AcDbPoint
 10
1.195808410644531
 20
117.9245071411133
 30
0.0
  0
POINT
  5
17A
330
170
100
AcDbEntity
  8
Defpoints
 62
     0
100
AcDbPoint
 10
1.195808410644531
 20
97.92450714111328
 30
0.0
  0
POINT
  5
17B
330
170
100
AcDbEntity
  8
Defpoints
 62
     0
100
AcDbPoint
 10
16.08900260925293
 20
97.92450714111328
 30
0.0
  0
ENDBLK
  5
172
330
170
100
AcDbEntity
  8
0
100
AcDbBlockEnd
  0
BLOCK
  5
17E
330
17D
100
AcDbEntity
  8
0
100
AcDbBlockBegin
  2
_ORIGIN
 70
     0
 10
0.0
 20
0.0
 30
0.0
  3
_ORIGIN
  1

  0
CIRCLE
  5
180
330
17D
100
AcDbEntity
  8
0
  6
ByBlock
 62
     0
370
    -2
100
AcDbCircle
 10
0.0
 20
0.0
 30
0.0
 40
0.5
  0
LINE
  5
181
330
17D
100
AcDbEntity
  8
0
  6
ByBlock
 62
     0
370
    -2
100
AcDbLine
 10
0.0
 20
0.0
 30
0.0
 11
-1.0
 21
0.0
 31
0.0
  0
ENDBLK
  5
17F
330
17D
100
AcDbEntity
  8
0
100
AcDbBlockEnd
  0
BLOCK
  5
183
330
182
100
AcDbEntity
  8
0
100
AcDbBlockBegin
  2
*D17
 70
     1
 10
0.0
 20
0.0
 30
0.0
  3
*D17
  1

  0
MTEXT
  5
18D
330
182
100
AcDbEntity
  8
0
 62
     1
100
AcDbMText
 10
-29.30395126342773
 20
93.23664093017578
 30
0.0
 40
3.200000047683716
 41
0.0
 71
     8
 72
     1
  1
(7.3)
 73
     1
 44
1.0
  0
POINT
  5
18E
330
182
100
AcDbEntity
  8
Defpoints
 62
     0
100
AcDbPoint
 10
-12.09771728515625
 20
104.9245071411133
 30
0.0
  0
POINT
  5
18F
330
182
100
AcDbEntity
  8
Defpoints
 62
     0
100
AcDbPoint
 10
-4.804191589355469
 20
97.92450714111328
 30
0.0
  0
POINT
  5
190
330
182
100
AcDbEntity
  8
Defpoints
 62
     0
100
AcDbPoint
 10
-4.804191589355471
 20
83.0866470336914
 30
0.0
  0
LINE
  5
193
330
182
100
AcDbEntity
  8
0
  6
Continuous
 62
     0
100
AcDbLine
 10
-12.09771728515625
 20
102.3845071411133
 30
0.0
 11
-12.09771728515625
 21
81.5866470336914
 31
0.0
  0
LINE
  5
194
330
182
100
AcDbEntity
  8
0
  6
Continuous
 62
     0
100
AcDbLine
 10
-4.804191589355469
 20
95.38450714111327
 30
0.0
 11
-4.804191589355469
 21
81.5866470336914
 31
0.0
  0
LINE
  5
195
330
182
100
AcDbEntity
  8
0
  6
Continuous
 62
     0
100
AcDbLine
 10
-18.44771728515625
 20
83.0866470336914
 30
0.0
 11
-4.804191589355469
 21
83.0866470336914
 31
0.0
  0
LINE
  5
196
330
182
100
AcDbEntity
  8
0
  6
Continuous
 62
     0
100
AcDbLine
 10
-12.09771728515625
 20
83.0866470336914
 30
0.0
 11
-15.15224294716187
 21
82.2681893493914
 31
0.0
  0
LINE
  5
197
330
182
100
AcDbEntity
  8
0
  6
Continuous
 62
     0
100
AcDbLine
 10
-12.09771728515625
 20
83.0866470336914
 30
0.0
 11
-15.15224294716187
 21
83.9051047179914
 31
0.0
  0
CIRCLE
  5
198
330
182
100
AcDbEntity
  8
0
  6
Continuous
 62
     0
100
AcDbCircle
 10
-4.804191589355469
 20
83.0866470336914
 30
0.0
 40
1.27
  0
LINE
  5
199
330
182
100
AcDbEntity
  8
0
  6
Continuous
 62
     0
100
AcDbLine
 10
-8.45095443249905
 20
83.08664399170097
 30
0.0
 11
-14.31105295350248
 21
93.23663530378847
 31
0.0
  0
LINE
  5
19A
330
182
100
AcDbEntity
  8
0
  6
Continuous
 62
     0
100
AcDbLine
 10
-14.31105422973633
 20
93.23664093017578
 30
0.0
 11
-36.84695053100586
 21
93.23664093017578
 31
0.0
  0
ENDBLK
  5
184
330
182
100
AcDbEntity
  8
0
100
AcDbBlockEnd
  0
BLOCK
  5
19D
330
19C
100
AcDbEntity
  8
0
100
AcDbBlockBegin
  2
_NONE
 70
     0
 10
0.0
 20
0.0
 30
0.0
  3
_NONE
  1

  0
ENDBLK
  5
19E
330
19C
100
AcDbEntity
  8
0
100
AcDbBlockEnd
  0
BLOCK
  5
1A0
330
19F
100
AcDbEntity
  8
0
100
AcDbBlockBegin
  2
*D19
 70
     1
 10
0.0
 20
0.0
 30
0.0
  3
*D19
  1

  0
MTEXT
  5
1A7
330
19F
100
AcDbEntity
  8
0
 62
     1
 60
     1
100
AcDbMText
 10
6.990004135131836
 20
85.50204706966878
 30
0.0
 40
3.200000047683716
 41
0.0
 71
     5
 72
     1
  1
6
 73
     1
 44
1.0
  0
POINT
  5
1A8
330
19F
100
AcDbEntity
  8
Defpoints
 62
     0
100
AcDbPoint
 10
-4.804191589355469
 20
97.92450714111328
 30
0.0
  0
POINT
  5
1A9
330
19F
100
AcDbEntity
  8
Defpoints
 62
     0
100
AcDbPoint
 10
1.195808410644531
 20
97.92450714111328
 30
0.0
  0
POINT
  5
1AA
330
19F
100
AcDbEntity
  8
Defpoints
 62
     0
100
AcDbPoint
 10
1.195808410644529
 20
83.0866470336914
 30
0.0
  0
MTEXT
  5
1AB
330
19F
100
AcDbEntity
  8
0
 62
     1
100
AcDbMText
 10
5.847402132057764
 20
83.88864073747682
 30
0.0
 40
3.200000047683716
 41
0.0
 71
     7
 72
     1
  1
\W1;6
 11
0.9999984769132877
 21
-0.001745328365898445
 31
0.0
 73
     1
 44
1.0
  0
LINE
  5
1AC
330
19F
100
AcDbEntity
  8
0
  6
Continuous
 62
     0
100
AcDbLine
 10
1.195808410644531
 20
95.38450714111327
 30
0.0
 11
1.195808410644531
 21
81.5866470336914
 31
0.0
  0
LINE
  5
1AD
330
19F
100
AcDbEntity
  8
0
  6
Continuous
 62
     0
100
AcDbLine
 10
-4.804191589355469
 20
83.0866470336914
 30
0.0
 11
7.545808410644531
 21
83.0866470336914
 31
0.0
  0
LINE
  5
1AE
330
19F
100
AcDbEntity
  8
0
  6
Continuous
 62
     0
100
AcDbLine
 10
1.195808410644531
 20
83.0866470336914
 30
0.0
 11
4.250334072650155
 21
83.9051047179914
 31
0.0
  0
LINE
  5
1AF
330
19F
100
AcDbEntity
  8
0
  6
Continuous
 62
     0
100
AcDbLine
 10
1.195808410644531
 20
83.0866470336914
 30
0.0
 11
4.250334072650155
 21
82.2681893493914
 31
0.0
  0
LINE
  5
1B0
330
19F
100
AcDbEntity
  8
0
  6
Continuous
 62
     0
100
AcDbLine
 10
1.195808410644531
 20
83.0866470336914
 30
0.0
 11
8.132003784179688
 21
83.0866470336914
 31
0.0
  0
ENDBLK
  5
1A1
330
19F
100
AcDbEntity
  8
0
100
AcDbBlockEnd
  0
BLOCK
  5
1B3
330
1B2
100
AcDbEntity
  8
0
100
AcDbBlockBegin
  2
*D20
 70
     1
 10
0.0
 20
0.0
 30
0.0
  3
*D20
  1

  0
POINT
  5
1B8
330
1B2
100
AcDbEntity
  8
Defpoints
 62
     0
100
AcDbPoint
 10
49.71809100895602
 20
75.29498787755595
 30
0.0
  0
POINT
  5
1B9
330
1B2
100
AcDbEntity
  8
Defpoints
 62
     0
100
AcDbPoint
 10
-20.18774536730258
 20
78.92459399058806
 30
0.0
  0
LINE
  5
1BA
330
1B2
100
AcDbEntity
  8
0
  6
Continuous
 62
     0
100
AcDbLine
 10
49.71809100895602
 20
75.29498787755595
 30
0.0
 11
-20.18774536730258
 21
78.92459399058806
 31
0.0
  0
LINE
  5
1BB
330
1B2
100
AcDbEntity
  8
0
  6
Continuous
 62
     0
100
AcDbLine
 10
-20.18774536730258
 20
78.92459399058806
 30
0.0
 11
-17.0948903651677
 21
79.58356890407862
 31
0.0
  0
LINE
  5
1BC
330
1B2
100
AcDbEntity
  8
0
  6
Continuous
 62
     0
100
AcDbLine
 10
-20.18774536730258
 20
78.92459399058806
 30
0.0
 11
-17.17976690843037
 21
77.94885550523384
 31
0.0
  0
MTEXT
  5
1BD
330
1B2
100
AcDbEntity
  8
0
 62
     1
100
AcDbMText
 10
16.6938228696774
 20
77.81284268244991
 30
0.0
 40
3.200000047683716
 41
0.0
 71
     7
 72
     1
  1
\W1;R70
 11
0.9986295347545738
 21
-0.05233595624294437
 31
0.0
 73
     1
 44
1.0
  0
ENDBLK
  5
1B4
330
1B2
100
AcDbEntity
  8
0
100
AcDbBlockEnd
  0
BLOCK
  5
1C0
330
1BF
100
AcDbEntity
  8
0
100
AcDbBlockBegin
  2
*D21
 70
     1
 10
0.0
 20
0.0
 30
0.0
  3
*D21
  1

  0
MTEXT
  5
1CA
330
1BF
100
AcDbEntity
  8
0
 62
     1
100
AcDbMText
 10
11.94751228702068
 20
42.81890716934204
 30
0.0
 40
3.200000047683716
 41
0.0
 71
     5
 72
     1
  1
2
 11
0.0
 21
1.0
 31
0.0
 73
     1
 44
1.0
  0
POINT
  5
1CB
330
1BF
100
AcDbEntity
  8
Defpoints
 62
     0
100
AcDbPoint
 10
-21.80419158935547
 20
32.92450714111328
 30
0.0
  0
POINT
  5
1CC
330
1BF
100
AcDbEntity
  8
Defpoints
 62
     0
100
AcDbPoint
 10
-7.004207611083984
 20
34.92450714111328
 30
0.0
  0
POINT
  5
1CD
330
1BF
100
AcDbEntity
  8
Defpoints
 62
     0
100
AcDbPoint
 10
14.36091232299805
 20
34.92450714111328
 30
0.0
  0
LINE
  5
1CE
330
1BF
100
AcDbEntity
  8
0
  6
Continuous
 62
     0
100
AcDbLine
 10
-19.26419158935547
 20
32.92450714111328
 30
0.0
 11
15.86091232299805
 21
32.92450714111328
 31
0.0
  0
LINE
  5
1CF
330
1BF
100
AcDbEntity
  8
0
  6
Continuous
 62
     0
100
AcDbLine
 10
-4.464207611083984
 20
34.92450714111328
 30
0.0
 11
15.86091232299805
 21
34.92450714111328
 31
0.0
  0
LINE
  5
1D0
330
1BF
100
AcDbEntity
  8
0
  6
Continuous
 62
     0
100
AcDbLine
 10
14.36091232299805
 20
26.57450714111328
 30
0.0
 11
14.36091232299805
 21
41.27450714111328
 31
0.0
  0
LINE
  5
1D1
330
1BF
100
AcDbEntity
  8
0
  6
Continuous
 62
     0
100
AcDbLine
 10
14.36091232299805
 20
32.92450714111328
 30
0.0
 11
15.17937000729805
 21
29.86998147910766
 31
0.0
  0
LINE
  5
1D2
330
1BF
100
AcDbEntity
  8
0
  6
Continuous
 62
     0
100
AcDbLine
 10
14.36091232299805
 20
32.92450714111328
 30
0.0
 11
13.54245463869805
 21
29.86998147910766
 31
0.0
  0
LINE
  5
1D3
330
1BF
100
AcDbEntity
  8
0
  6
Continuous
 62
     0
100
AcDbLine
 10
14.36091232299805
 20
34.92450714111328
 30
0.0
 11
13.54245463869805
 21
37.9790328031189
 31
0.0
  0
LINE
  5
1D4
330
1BF
100
AcDbEntity
  8
0
  6
Continuous
 62
     0
100
AcDbLine
 10
14.36091232299805
 20
34.92450714111328
 30
0.0
 11
15.17937000729805
 21
37.9790328031189
 31
0.0
  0
LINE
  5
1D5
330
1BF
100
AcDbEntity
  8
0
  6
Continuous
 62
     0
100
AcDbLine
 10
14.36091232299805
 20
34.92450714111328
 30
0.0
 11
14.36091232299805
 21
40.50502777099609
 31
0.0
  0
ENDBLK
  5
1C1
330
1BF
100
AcDbEntity
  8
0
100
AcDbBlockEnd
  0
BLOCK
  5
1D8
330
1D7
100
AcDbEntity
  8
0
100
AcDbBlockBegin
  2
*D22
 70
     1
 10
0.0
 20
0.0
 30
0.0
  3
*D22
  1

  0
LINE
  5
1DA
330
1D7
100
AcDbEntity
  8
0
 62
     0
370
    -2
100
AcDbLine
 10
-21.80419158935547
 20
35.46450714111328
 30
0.0
 11
-21.80419158935545
 21
134.56103515625
 31
0.0
  0
LINE
  5
1DB
330
1D7
100
AcDbEntity
  8
0
 62
     0
370
    -2
100
AcDbLine
 10
-5.804191589355469
 20
120.4645071411133
 30
0.0
 11
-5.804191589355467
 21
134.56103515625
 31
0.0
  0
LINE
  5
1DC
330
1D7
100
AcDbEntity
  8
0
 62
     0
370
    -2
100
AcDbLine
 10
-18.80419158935545
 20
133.06103515625
 30
0.0
 11
-8.804191589355467
 21
133.06103515625
 31
0.0
  0
INSERT
  5
1DD
330
1D7
100
AcDbEntity
  8
0
 62
     0
370
    -2
100
AcDbBlockReference
  2
_OPEN30
 10
-21.80419158935545
 20
133.06103515625
 30
0.0
 41
3.0
 42
3.0
 43
3.0
 50
180.0
  0
INSERT
  5
1DE
330
1D7
100
AcDbEntity
  8
0
 62
     0
370
    -2
100
AcDbBlockReference
  2
_OPEN30
 10
-5.804191589355467
 20
133.06103515625
 30
0.0
 41
3.0
 42
3.0
 43
3.0
  0
MTEXT
  5
1DF
330
1D7
100
AcDbEntity
  8
0
 62
     1
 60
     1
100
AcDbMText
 10
-13.87745993041992
 20
135.4818351923227
 30
0.0
 40
3.200000047683716
 41
0.0
 71
     5
 72
     1
  1
\A1;16%%p0.5
 73
     1
 44
1.0
  0
POINT
  5
1E0
330
1D7
100
AcDbEntity
  8
Defpoints
 62
     0
100
AcDbPoint
 10
-21.80419158935547
 20
32.92450714111328
 30
0.0
  0
POINT
  5
1E1
330
1D7
100
AcDbEntity
  8
Defpoints
 62
     0
100
AcDbPoint
 10
-5.804191589355469
 20
117.9245071411133
 30
0.0
  0
POINT
  5
1E2
330
1D7
100
AcDbEntity
  8
Defpoints
 62
     0
100
AcDbPoint
 10
-5.804191589355467
 20
133.06103515625
 30
0.0
  0
MTEXT
  5
1E3
330
1D7
100
AcDbEntity
  8
0
 62
     1
100
AcDbMText
 10
-19.93430452448211
 20
133.8716058400899
 30
0.0
 40
3.200000047683716
 41
0.0
 71
     7
 72
     1
  1
\W1;16
 11
0.9999984769132877
 21
-0.001745328365898445
 31
0.0
 73
     1
 44
1.0
  0
MTEXT
  5
1E4
330
1D7
100
AcDbEntity
  8
0
 62
     1
100
AcDbMText
 10
-13.761417574714
 20
134.6608333393798
 30
0.0
 40
1.600000023841858
 41
0.0
 71
     7
 72
     1
  1
\W1;±0.5
 11
0.9999984769132877
 21
-0.001745328365898445
 31
0.0
 73
     1
 44
1.0
  0
ENDBLK
  5
1D9
330
1D7
100
AcDbEntity
  8
0
100
AcDbBlockEnd
  0
BLOCK
  5
1E7
330
1E6
100
AcDbEntity
  8
0
100
AcDbBlockBegin
  2
*D23
 70
     1
 10
0.0
 20
0.0
 30
0.0
  3
*D23
  1

  0
LINE
  5
1E9
330
1E6
100
AcDbEntity
  8
0
 62
     0
370
    -2
100
AcDbLine
 10
1.195808410644531
 20
120.4645071411133
 30
0.0
 11
1.195808410644533
 21
134.56103515625
 31
0.0
  0
LINE
  5
1EA
330
1E6
100
AcDbEntity
  8
0
 62
     0
370
    -2
100
AcDbLine
 10
-5.804191589355467
 20
133.06103515625
 30
0.0
 11
1.195808410644533
 21
133.06103515625
 31
0.0
  0
LINE
  5
1EB
330
1E6
100
AcDbEntity
  8
0
 62
     0
370
    -2
100
AcDbLine
 10
-8.804191589355467
 20
133.06103515625
 30
0.0
 11
-11.80419158935547
 21
133.06103515625
 31
0.0
  0
LINE
  5
1EC
330
1E6
100
AcDbEntity
  8
0
 62
     0
370
    -2
100
AcDbLine
 10
4.195808410644533
 20
133.06103515625
 30
0.0
 11
7.195808410644533
 21
133.06103515625
 31
0.0
  0
INSERT
  5
1ED
330
1E6
100
AcDbEntity
  8
0
 62
     0
370
    -2
100
AcDbBlockReference
  2
_OPEN30
 10
-5.804191589355467
 20
133.06103515625
 30
0.0
 41
3.0
 42
3.0
 43
3.0
  0
INSERT
  5
1EE
330
1E6
100
AcDbEntity
  8
0
 62
     0
370
    -2
100
AcDbBlockReference
  2
_OPEN30
 10
1.195808410644533
 20
133.06103515625
 30
0.0
 41
3.0
 42
3.0
 43
3.0
 50
180.0
  0
MTEXT
  5
1EF
330
1E6
100
AcDbEntity
  8
0
 62
     1
100
AcDbMText
 10
-2.303191589355469
 20
135.4658351920843
 30
0.0
 40
3.200000047683716
 41
0.0
 71
     5
 72
     1
  1
7
 73
     1
 44
1.0
  0
POINT
  5
1F0
330
1E6
100
AcDbEntity
  8
Defpoints
 62
     0
100
AcDbPoint
 10
-5.804191589355469
 20
117.9245071411133
 30
0.0
  0
POINT
  5
1F1
330
1E6
100
AcDbEntity
  8
Defpoints
 62
     0
100
AcDbPoint
 10
1.195808410644531
 20
117.9245071411133
 30
0.0
  0
POINT
  5
1F2
330
1E6
100
AcDbEntity
  8
Defpoints
 62
     0
100
AcDbPoint
 10
1.195808410644533
 20
133.06103515625
 30
0.0
  0
ENDBLK
  5
1E8
330
1E6
100
AcDbEntity
  8
0
100
AcDbBlockEnd
  0
BLOCK
  5
1F5
330
1F4
100
AcDbEntity
  8
0
100
AcDbBlockBegin
  2
*D24
 70
     1
 10
0.0
 20
0.0
 30
0.0
  3
*D24
  1

  0
LINE
  5
1F7
330
1F4
100
AcDbEntity
  8
0
 62
     0
370
    -2
100
AcDbLine
 10
110.5385894775391
 20
80.46450714111329
 30
0.0
 11
110.5385894775391
 21
134.56103515625
 31
0.0
  0
LINE
  5
1F8
330
1F4
100
AcDbEntity
  8
0
 62
     0
370
    -2
100
AcDbLine
 10
4.195808410644531
 20
133.06103515625
 30
0.0
 11
107.5385894775391
 21
133.06103515625
 31
0.0
  0
INSERT
  5
1F9
330
1F4
100
AcDbEntity
  8
0
 62
     0
370
    -2
100
AcDbBlockReference
  2
_OPEN30
 10
1.195808410644531
 20
133.06103515625
 30
0.0
 41
3.0
 42
3.0
 43
3.0
 50
180.0
  0
INSERT
  5
1FA
330
1F4
100
AcDbEntity
  8
0
 62
     0
370
    -2
100
AcDbBlockReference
  2
_OPEN30
 10
110.5385894775391
 20
133.06103515625
 30
0.0
 41
3.0
 42
3.0
 43
3.0
  0
MTEXT
  5
1FB
330
1F4
100
AcDbEntity
  8
0
 62
     1
100
AcDbMText
 10
55.86820275878906
 20
136.2946352044344
 30
0.0
 40
3.200000047683716
 41
0.0
 71
     5
 72
     1
  1
(109)\A2;{\H0.5x;\S±3;}
 73
     1
 44
1.0
  0
POINT
  5
1FC
330
1F4
100
AcDbEntity
  8
Defpoints
 62
     0
100
AcDbPoint
 10
1.195808410644531
 20
117.9245071411133
 30
0.0
  0
POINT
  5
1FD
330
1F4
100
AcDbEntity
  8
Defpoints
 62
     0
100
AcDbPoint
 10
110.5385894775391
 20
77.92450714111328
 30
0.0
  0
POINT
  5
1FE
330
1F4
100
AcDbEntity
  8
Defpoints
 62
     0
100
AcDbPoint
 10
110.5385894775391
 20
133.06103515625
 30
0.0
  0
ENDBLK
  5
1F6
330
1F4
100
AcDbEntity
  8
0
100
AcDbBlockEnd
  0
BLOCK
  5
206
330
1FF
100
AcDbEntity
  8
0
100
AcDbBlockBegin
  2
SYM0001
 70
     0
 10
0.0
 20
0.0
 30
0.0
  3
SYM0001
  1

  0
LINE
  5
200
330
1FF
100
AcDbEntity
  8
0
  6
Continuous
 62
     0
100
AcDbLine
 10
0.0
 20
0.0
 30
0.0
 11
-4.481139690732777
 21
-6.111911336377712
 31
0.0
  0
LINE
  5
201
330
1FF
100
AcDbEntity
  8
0
  6
Continuous
 62
     0
100
AcDbLine
 10
0.0
 20
0.0
 30
0.0
 11
-1.146035903624272
 21
-2.947304142507982
 31
0.0
  0
LINE
  5
202
330
1FF
100
AcDbEntity
  8
0
  6
Continuous
 62
     0
100
AcDbLine
 10
0.0
 20
0.0
 30
0.0
 11
-2.466148277327335
 21
-1.979422308421331
 31
0.0
  0
LINE
  5
203
330
1FF
100
AcDbEntity
  8
0
  6
Continuous
 62
     0
100
AcDbLine
 10
-4.481139594379759
 20
-6.111912582611842
 30
0.0
 11
-12.7102388680614
 21
-6.111912582611842
 31
0.0
  0
MTEXT
  5
204
330
1FF
100
AcDbEntity
  8
0
 62
     1
100
AcDbMText
 10
-11.29909699565539
 20
-5.311912570690913
 30
0.0
 40
3.200000047683716
 41
0.0
 71
     7
 72
     1
  1
{\W1;R4}
 73
     1
 44
1.0
  0
ENDBLK
  5
207
330
1FF
100
AcDbEntity
  8
0
100
AcDbBlockEnd
  0
BLOCK
  5
20F
330
208
100
AcDbEntity
  8
0
100
AcDbBlockBegin
  2
SYM0002
 70
     0
 10
0.0
 20
0.0
 30
0.0
  3
SYM0002
  1

  0
LINE
  5
209
330
208
100
AcDbEntity
  8
0
  6
Continuous
 62
     0
100
AcDbLine
 10
0.0
 20
0.0
 30
0.0
 11
2.840152835938402
 21
3.724491041650237
 31
0.0
  0
LINE
  5
20A
330
208
100
AcDbEntity
  8
0
  6
Continuous
 62
     0
100
AcDbLine
 10
0.0
 20
0.0
 30
0.0
 11
1.201362242348905
 21
2.925188671436259
 31
0.0
  0
LINE
  5
20B
330
208
100
AcDbEntity
  8
0
  6
Continuous
 62
     0
100
AcDbLine
 10
0.0
 20
0.0
 30
0.0
 11
2.503004556628092
 21
1.932606579296372
 31
0.0
  0
LINE
  5
20C
330
208
100
AcDbEntity
  8
0
  6
Continuous
 62
     0
100
AcDbLine
 10
2.840154541393503
 20
3.724494543351985
 30
0.0
 11
16.76937855567573
 21
3.724494543351985
 31
0.0
  0
MTEXT
  5
20D
330
208
100
AcDbEntity
  8
0
 62
     1
100
AcDbMText
 10
3.902517987152322
 20
4.349494543351985
 30
0.0
 40
2.5
 41
0.0
 71
     7
 72
     1
  1
{\W1;R2.55}
 73
     1
 44
1.0
  0
ENDBLK
  5
210
330
208
100
AcDbEntity
  8
0
100
AcDbBlockEnd
  0
BLOCK
  5
213
330
212
100
AcDbEntity
  8
0
100
AcDbBlockBegin
  2
*D27
 70
     1
 10
0.0
 20
0.0
 30
0.0
  3
*D27
  1

  0
MTEXT
  5
21B
330
212
100
AcDbEntity
  8
0
 62
     1
100
AcDbMText
 10
36.37894416558743
 20
16.30890806698798
 30
0.0
 40
3.200000047683716
 41
0.0
 71
     5
 72
     1
  1
\A1;\A1;1.45{\H0.5x;%%p0.1}
 11
0.0
 21
1.0
 31
0.0
 73
     1
 44
1.0
  0
POINT
  5
21C
330
212
100
AcDbEntity
  8
Defpoints
 62
     0
100
AcDbPoint
 10
1.672950744628906
 20
-2.075492858886719
 30
0.0
  0
POINT
  5
21D
330
212
100
AcDbEntity
  8
Defpoints
 62
     0
100
AcDbPoint
 10
1.672950744628906
 20
-0.625492095947266
 30
0.0
  0
POINT
  5
21E
330
212
100
AcDbEntity
  8
Defpoints
 62
     0
100
AcDbPoint
 10
38.79874420166016
 20
-0.625492095947272
 30
0.0
  0
LINE
  5
21F
330
212
100
AcDbEntity
  8
0
  6
Continuous
 62
     0
100
AcDbLine
 10
38.79874420166016
 20
-8.425492858886718
 30
0.0
 11
38.79874420166016
 21
5.724507904052734
 31
0.0
  0
LINE
  5
220
330
212
100
AcDbEntity
  8
0
  6
Continuous
 62
     0
100
AcDbLine
 10
38.79874420166016
 20
-2.075492858886719
 30
0.0
 11
39.61720188596016
 21
-5.130018520892342
 31
0.0
  0
LINE
  5
221
330
212
100
AcDbEntity
  8
0
  6
Continuous
 62
     0
100
AcDbLine
 10
38.79874420166016
 20
-2.075492858886719
 30
0.0
 11
37.98028651736016
 21
-5.130018520892342
 31
0.0
  0
LINE
  5
222
330
212
100
AcDbEntity
  8
0
  6
Continuous
 62
     0
100
AcDbLine
 10
38.79874420166016
 20
-0.625492095947266
 30
0.0
 11
37.98028651736016
 21
2.429033566058358
 31
0.0
  0
LINE
  5
223
330
212
100
AcDbEntity
  8
0
  6
Continuous
 62
     0
100
AcDbLine
 10
38.79874420166016
 20
-0.625492095947266
 30
0.0
 11
39.61720188596016
 21
2.429033566058358
 31
0.0
  0
LINE
  5
224
330
212
100
AcDbEntity
  8
0
  6
Continuous
 62
     0
100
AcDbLine
 10
38.79874420166016
 20
-0.625492095947266
 30
0.0
 11
38.79874420166016
 21
20.09395980834961
 31
0.0
  0
ENDBLK
  5
214
330
212
100
AcDbEntity
  8
0
100
AcDbBlockEnd
  0
BLOCK
  5
22C
330
225
100
AcDbEntity
  8
0
100
AcDbBlockBegin
  2
SYM0003
 70
     0
 10
0.0
 20
0.0
 30
0.0
  3
SYM0003
  1

  0
LINE
  5
226
330
225
100
AcDbEntity
  8
0
  6
Continuous
 62
     0
100
AcDbLine
 10
0.0
 20
0.0
 30
0.0
 11
-3.415687397102246
 21
4.834838578911601
 31
0.0
  0
LINE
  5
227
330
225
100
AcDbEntity
  8
0
  6
Continuous
 62
     0
100
AcDbLine
 10
0.0
 20
0.0
 30
0.0
 11
-2.430945777932223
 21
2.022499103978566
 31
0.0
  0
LINE
  5
228
330
225
100
AcDbEntity
  8
0
  6
Continuous
 62
     0
100
AcDbLine
 10
0.0
 20
0.0
 30
0.0
 11
-1.094011247093917
 21
2.967008492079626
 31
0.0
  0
LINE
  5
229
330
225
100
AcDbEntity
  8
0
  6
Continuous
 62
     0
100
AcDbLine
 10
-3.415685519269701
 20
4.834838899409974
 30
0.0
 11
-17.88974557786345
 21
4.834838899409974
 31
0.0
  0
MTEXT
  5
22A
330
225
100
AcDbEntity
  8
0
 62
     1
100
AcDbMText
 10
-17.17569558291792
 20
5.459838899409974
 30
0.0
 40
2.5
 41
0.0
 71
     7
 72
     1
  1
{\W1;R2.55}
 73
     1
 44
1.0
  0
ENDBLK
  5
22D
330
225
100
AcDbEntity
  8
0
100
AcDbBlockEnd
  0
BLOCK
  5
235
330
22E
100
AcDbEntity
  8
0
100
AcDbBlockBegin
  2
SYM0004
 70
     0
 10
0.0
 20
0.0
 30
0.0
  3
SYM0004
  1

  0
LINE
  5
22F
330
22E
100
AcDbEntity
  8
0
  6
Continuous
 62
     0
100
AcDbLine
 10
0.0
 20
0.0
 30
0.0
 11
4.782936161215275
 21
-6.22947689364301
 31
0.0
  0
LINE
  5
230
330
22E
100
AcDbEntity
  8
0
  6
Continuous
 62
     0
100
AcDbLine
 10
0.0
 20
0.0
 30
0.0
 11
2.509365510371623
 21
-1.924340078104185
 31
0.0
  0
LINE
  5
231
330
22E
100
AcDbEntity
  8
0
  6
Continuous
 62
     0
100
AcDbLine
 10
0.0
 20
0.0
 30
0.0
 11
1.211004240478957
 21
-2.921210148274616
 31
0.0
  0
LINE
  5
232
330
22E
100
AcDbEntity
  8
0
  6
Continuous
 62
     0
100
AcDbLine
 10
4.782938139695631
 20
-6.229474564283677
 30
0.0
 11
13.14693655278157
 21
-6.229474564283677
 31
0.0
  0
MTEXT
  5
233
330
22E
100
AcDbEntity
  8
0
 62
     1
100
AcDbMText
 10
6.746941225785719
 20
-5.429474552362748
 30
0.0
 40
3.200000047683716
 41
0.0
 71
     7
 72
     1
  1
{\W1;R4}
 73
     1
 44
1.0
  0
ENDBLK
  5
236
330
22E
100
AcDbEntity
  8
0
100
AcDbBlockEnd
  0
BLOCK
  5
23E
330
237
100
AcDbEntity
  8
0
100
AcDbBlockBegin
  2
SYM0005
 70
     0
 10
0.0
 20
0.0
 30
0.0
  3
SYM0005
  1

  0
LINE
  5
238
330
237
100
AcDbEntity
  8
0
  6
Continuous
 62
     0
100
AcDbLine
 10
0.0
 20
0.0
 30
0.0
 11
-2.076484830706107
 21
3.594400728083144
 31
0.0
  0
LINE
  5
239
330
237
100
AcDbEntity
  8
0
  6
Continuous
 62
     0
100
AcDbLine
 10
0.0
 20
0.0
 30
0.0
 11
-2.236654109080931
 21
2.235481692426049
 31
0.0
  0
LINE
  5
23A
330
237
100
AcDbEntity
  8
0
  6
Continuous
 62
     0
100
AcDbLine
 10
0.0
 20
0.0
 30
0.0
 11
-0.819258431906334
 21
3.054310989829133
 31
0.0
  0
LINE
  5
23B
330
237
100
AcDbEntity
  8
0
  6
Continuous
 62
     0
100
AcDbLine
 10
-2.076500094594564
 20
3.594394437170465
 30
0.0
 11
-21.30155197447738
 21
3.594394437170465
 31
0.0
  0
MTEXT
  5
23C
330
237
100
AcDbEntity
  8
0
 62
     1
100
AcDbMText
 10
-20.38754764861068
 20
4.394394449091394
 30
0.0
 40
3.200000047683716
 41
0.0
 71
     7
 72
     1
  1
{\W1;R0.2}
 73
     1
 44
1.0
  0
ENDBLK
  5
23F
330
237
100
AcDbEntity
  8
0
100
AcDbBlockEnd
  0
BLOCK
  5
245
330
240
100
AcDbEntity
  8
0
100
AcDbBlockBegin
  2
SYM0006
 70
     0
 10
0.0
 20
0.0
 30
0.0
  3
SYM0006
  1

  0
LINE
  5
241
330
240
100
AcDbEntity
  8
0
  6
Continuous
 62
     0
100
AcDbLine
 10
0.0
 20
0.0
 30
0.0
 11
-2.076486415773346
 21
-3.388442036242509
 31
0.0
  0
LINE
  5
242
330
240
100
AcDbEntity
  8
0
  6
Continuous
 62
     0
100
AcDbLine
 10
0.0
 20
0.0
 30
0.0
 11
-0.898165606813123
 21
-3.032045273998833
 31
0.0
  0
LINE
  5
243
330
240
100
AcDbEntity
  8
0
  6
Continuous
 62
     0
100
AcDbLine
 10
0.0
 20
0.0
 30
0.0
 11
-2.293856869179322
 21
-2.176745429433467
 31
0.0
  0
ENDBLK
  5
246
330
240
100
AcDbEntity
  8
0
100
AcDbBlockEnd
  0
BLOCK
  5
24C
330
247
100
AcDbEntity
  8
0
100
AcDbBlockBegin
  2
SYM0007
 70
     0
 10
0.0
 20
0.0
 30
0.0
  3
SYM0007
  1

  0
LINE
  5
248
330
247
100
AcDbEntity
  8
0
  6
Continuous
 62
     0
100
AcDbLine
 10
0.0
 20
0.0
 30
0.0
 11
1.960487249616492
 21
-3.390885909553091
 31
0.0
  0
LINE
  5
249
330
247
100
AcDbEntity
  8
0
  6
Continuous
 62
     0
100
AcDbLine
 10
0.0
 20
0.0
 30
0.0
 11
2.237431298356526
 21
-2.234703825113129
 31
0.0
  0
LINE
  5
24A
330
247
100
AcDbEntity
  8
0
  6
Continuous
 62
     0
100
AcDbLine
 10
0.0
 20
0.0
 30
0.0
 11
0.820320431218974
 21
-3.054025931613111
 31
0.0
  0
ENDBLK
  5
24D
330
247
100
AcDbEntity
  8
0
100
AcDbBlockEnd
  0
BLOCK
  5
253
330
24E
100
AcDbEntity
  8
0
100
AcDbBlockBegin
  2
SYM0008
 70
     0
 10
0.0
 20
0.0
 30
0.0
  3
SYM0008
  1

  0
LINE
  5
24F
330
24E
100
AcDbEntity
  8
0
  6
Continuous
 62
     0
100
AcDbLine
 10
0.0
 20
0.0
 30
0.0
 11
2.1993921681225
 21
3.591907795234832
 31
0.0
  0
LINE
  5
250
330
24E
100
AcDbEntity
  8
0
  6
Continuous
 62
     0
100
AcDbLine
 10
0.0
 20
0.0
 30
0.0
 11
0.897072346679181
 21
3.032368909889442
 31
0.0
  0
LINE
  5
251
330
24E
100
AcDbEntity
  8
0
  6
Continuous
 62
     0
100
AcDbLine
 10
0.0
 20
0.0
 30
0.0
 11
2.293071896075645
 21
2.177572336403244
 31
0.0
  0
ENDBLK
  5
254
330
24E
100
AcDbEntity
  8
0
100
AcDbBlockEnd
  0
BLOCK
  5
25C
330
255
100
AcDbEntity
  8
0
100
AcDbBlockBegin
  2
SYM0009
 70
     0
 10
0.0
 20
0.0
 30
0.0
  3
SYM0009
  1

  0
LINE
  5
256
330
255
100
AcDbEntity
  8
0
  6
Continuous
 62
     0
100
AcDbLine
 10
0.0
 20
0.0
 30
0.0
 11
-2.999999350990336
 21
6.000000701181378
 31
0.0
  0
LINE
  5
257
330
255
100
AcDbEntity
  8
0
  6
Continuous
 62
     0
100
AcDbLine
 10
0.0
 20
0.0
 30
0.0
 11
-2.098075896029201
 21
2.366025683576126
 31
0.0
  0
LINE
  5
258
330
255
100
AcDbEntity
  8
0
  6
Continuous
 62
     0
100
AcDbLine
 10
0.0
 20
0.0
 30
0.0
 11
-0.633974183419951
 21
3.098076295961349
 31
0.0
  0
LINE
  5
259
330
255
100
AcDbEntity
  8
0
  6
Continuous
 62
     0
100
AcDbLine
 10
-2.99999094793975
 20
5.999998434118808
 30
0.0
 11
24.71090077569306
 21
5.999998434118808
 31
0.0
  0
MTEXT
  5
25A
330
255
100
AcDbEntity
  8
0
 62
     1
100
AcDbMText
 10
11.91089629342378
 20
6.799998446039737
 30
0.0
 40
3.200000047683716
 41
0.0
 71
     7
 72
     1
  1
{\W1;R0.5}
 73
     1
 44
1.0
  0
ENDBLK
  5
25D
330
255
100
AcDbEntity
  8
0
100
AcDbBlockEnd
  0
BLOCK
  5
263
330
25E
100
AcDbEntity
  8
0
100
AcDbBlockBegin
  2
SYM0010
 70
     0
 10
0.0
 20
0.0
 30
0.0
  3
SYM0010
  1

  0
LINE
  5
25F
330
25E
100
AcDbEntity
  8
0
  6
Continuous
 62
     0
100
AcDbLine
 10
0.0
 20
0.0
 30
0.0
 11
3.000001003662874
 21
6.000002007325776
 31
0.0
  0
LINE
  5
260
330
25E
100
AcDbEntity
  8
0
  6
Continuous
 62
     0
100
AcDbLine
 10
0.0
 20
0.0
 30
0.0
 11
0.633974596331669
 21
3.098076211465226
 31
0.0
  0
LINE
  5
261
330
25E
100
AcDbEntity
  8
0
  6
Continuous
 62
     0
100
AcDbLine
 10
0.0
 20
0.0
 30
0.0
 11
2.098076211373169
 21
2.366025403944477
 31
0.0
  0
ENDBLK
  5
264
330
25E
100
AcDbEntity
  8
0
100
AcDbBlockEnd
  0
BLOCK
  5
267
330
266
100
AcDbEntity
  8
0
100
AcDbBlockBegin
  2
*D36
 70
     1
 10
0.0
 20
0.0
 30
0.0
  3
*D36
  1

  0
POINT
  5
26D
330
266
100
AcDbEntity
  8
Defpoints
 62
     0
100
AcDbPoint
 10
112.1231160275981
 20
67.42450861165256
 30
0.0
  0
POINT
  5
26E
330
266
100
AcDbEntity
  8
Defpoints
 62
     0
100
AcDbPoint
 10
111.8398363955032
 20
67.83651910914037
 30
0.0
  0
LINE
  5
26F
330
266
100
AcDbEntity
  8
0
  6
Continuous
 62
     0
100
AcDbLine
 10
112.1231160275981
 20
67.42450861165256
 30
0.0
 11
111.8398363955032
 21
67.83651910914037
 31
0.0
  0
LINE
  5
270
330
266
100
AcDbEntity
  8
0
  6
Continuous
 62
     0
100
AcDbLine
 10
111.8398363955032
 20
67.83651910914037
 30
0.0
 11
114.2448325223806
 21
65.78323061734353
 31
0.0
  0
LINE
  5
271
330
266
100
AcDbEntity
  8
0
  6
Continuous
 62
     0
100
AcDbLine
 10
111.8398363955032
 20
67.83651910914037
 30
0.0
 11
112.8959798916559
 21
64.85582105056837
 31
0.0
  0
LINE
  5
272
330
266
100
AcDbEntity
  8
0
  6
Continuous
 62
     0
100
AcDbLine
 10
112.1231090569764
 20
67.42449785967571
 30
0.0
 11
120.7856580940876
 21
54.82543513725578
 31
0.0
  0
MTEXT
  5
273
330
266
100
AcDbEntity
  8
0
 62
     1
100
AcDbMText
 10
114.7117430107355
 20
65.07350221456407
 30
0.0
 40
3.200000047683716
 41
0.0
 71
     7
 72
     1
  1
\W1;R0.5
 11
0.5664062369248326
 21
-0.8241261886220158
 31
0.0
 73
     1
 44
1.0
  0
ENDBLK
  5
268
330
266
100
AcDbEntity
  8
0
100
AcDbBlockEnd
  0
BLOCK
  5
276
330
275
100
AcDbEntity
  8
0
100
AcDbBlockBegin
  2
*D37
 70
     1
 10
0.0
 20
0.0
 30
0.0
  3
*D37
  1

  0
POINT
  5
27C
330
275
100
AcDbEntity
  8
Defpoints
 62
     0
100
AcDbPoint
 10
-19.03840945786347
 20
41.92451081908853
 30
0.0
  0
POINT
  5
27D
330
275
100
AcDbEntity
  8
Defpoints
 62
     0
100
AcDbPoint
 10
-19.81921293634809
 20
41.29973411658891
 30
0.0
  0
LINE
  5
27E
330
275
100
AcDbEntity
  8
0
  6
Continuous
 62
     0
100
AcDbLine
 10
-19.03840945786347
 20
41.92451081908853
 30
0.0
 11
-19.81921293634809
 21
41.29973411658891
 31
0.0
  0
LINE
  5
27F
330
275
100
AcDbEntity
  8
0
  6
Continuous
 62
     0
100
AcDbLine
 10
-19.81921293634809
 20
41.29973411658891
 30
0.0
 11
-17.94558196746596
 21
43.84718519429116
 31
0.0
  0
LINE
  5
280
330
275
100
AcDbEntity
  8
0
  6
Continuous
 62
     0
100
AcDbLine
 10
-19.81921293634809
 20
41.29973411658891
 30
0.0
 11
-16.9228753812011
 21
42.56907598050334
 31
0.0
  0
LINE
  5
281
330
275
100
AcDbEntity
  8
0
  6
Continuous
 62
     0
100
AcDbLine
 10
-19.03841044489169
 20
41.92450624787298
 30
0.0
 11
-12.42616725478273
 21
47.21543207372929
 31
0.0
  0
MTEXT
  5
282
330
275
100
AcDbEntity
  8
0
 62
     1
100
AcDbMText
 10
-16.16410212109381
 20
45.02805599346507
 30
0.0
 40
2.5
 41
0.0
 71
     7
 72
     1
  1
\W1;R1
 11
0.7815204724188187
 21
0.6238795967093862
 31
0.0
 73
     1
 44
1.0
  0
ENDBLK
  5
277
330
275
100
AcDbEntity
  8
0
100
AcDbBlockEnd
  0
BLOCK
  5
28A
330
283
100
AcDbEntity
  8
0
100
AcDbBlockBegin
  2
SYM0011
 70
     0
 10
0.0
 20
0.0
 30
0.0
  3
SYM0011
  1

  0
LINE
  5
284
330
283
100
AcDbEntity
  8
0
  6
Continuous
 62
     0
100
AcDbLine
 10
0.0
 20
0.0
 30
0.0
 11
-1.683256857058245
 21
-1.163904132128003
 31
0.0
  0
LINE
  5
285
330
283
100
AcDbEntity
  8
0
  6
Continuous
 62
     0
100
AcDbLine
 10
0.0
 20
0.0
 30
0.0
 11
-2.046915654254619
 21
-2.41042243293743
 31
0.0
  0
LINE
  5
286
330
283
100
AcDbEntity
  8
0
  6
Continuous
 62
     0
100
AcDbLine
 10
0.0
 20
0.0
 30
0.0
 11
-2.977892172395801
 21
-1.064029233820399
 31
0.0
  0
LINE
  5
287
330
283
100
AcDbEntity
  8
0
  6
Continuous
 62
     0
100
AcDbLine
 10
-1.683260402766868
 20
-1.163897287072132
 30
0.0
 11
15.78119997015794
 21
-1.163897287072132
 31
0.0
  0
MTEXT
  5
288
330
283
100
AcDbEntity
  8
0
 62
     1
100
AcDbMText
 10
3.281198837669686
 20
-0.538897287072132
 30
0.0
 40
2.5
 41
0.0
 71
     7
 72
     1
  1
{\W1;R1.55}
 73
     1
 44
1.0
  0
ENDBLK
  5
28B
330
283
100
AcDbEntity
  8
0
100
AcDbBlockEnd
  0
BLOCK
  5
293
330
28C
100
AcDbEntity
  8
0
100
AcDbBlockBegin
  2
SYM0012
 70
     0
 10
0.0
 20
0.0
 30
0.0
  3
SYM0012
  1

  0
LINE
  5
28D
330
28C
100
AcDbEntity
  8
0
  6
Continuous
 62
     0
100
AcDbLine
 10
0.0
 20
0.0
 30
0.0
 11
-9.022452758459496
 21
0.780716252325227
 31
0.0
  0
LINE
  5
28E
330
28C
100
AcDbEntity
  8
0
  6
Continuous
 62
     0
100
AcDbLine
 10
0.0
 20
0.0
 30
0.0
 11
-3.11371188547963
 21
-0.552085405588215
 31
0.0
  0
LINE
  5
28F
330
28C
100
AcDbEntity
  8
0
  6
Continuous
 62
     0
100
AcDbLine
 10
0.0
 20
0.0
 30
0.0
 11
-2.972596295747318
 21
1.078735956270094
 31
0.0
  0
LINE
  5
290
330
28C
100
AcDbEntity
  8
0
  6
Continuous
 62
     0
100
AcDbLine
 10
-9.022451687242258
 20
0.780711295567151
 30
0.0
 11
-26.94352560081648
 21
0.780711295567151
 31
0.0
  0
MTEXT
  5
291
330
28C
100
AcDbEntity
  8
0
 62
     1
100
AcDbMText
 10
-26.22946410217451
 20
1.405711295567151
 30
0.0
 40
2.5
 41
0.0
 71
     7
 72
     1
  1
{\W1;R0.2}
 73
     1
 44
1.0
  0
ENDBLK
  5
294
330
28C
100
AcDbEntity
  8
0
100
AcDbBlockEnd
  0
BLOCK
  5
29A
330
295
100
AcDbEntity
  8
0
100
AcDbBlockBegin
  2
SYM0013
 70
     0
 10
0.0
 20
0.0
 30
0.0
  3
SYM0013
  1

  0
LINE
  5
296
330
295
100
AcDbEntity
  8
0
  6
Continuous
 62
     0
100
AcDbLine
 10
0.0
 20
0.0
 30
0.0
 11
3.775280192155137
 21
-2.226756606737254
 31
0.0
  0
LINE
  5
297
330
295
100
AcDbEntity
  8
0
  6
Continuous
 62
     0
100
AcDbLine
 10
0.0
 20
0.0
 30
0.0
 11
3.046777027765042
 21
-0.846846942442269
 31
0.0
  0
LINE
  5
298
330
295
100
AcDbEntity
  8
0
  6
Continuous
 62
     0
100
AcDbLine
 10
0.0
 20
0.0
 30
0.0
 11
2.215162834620589
 21
-2.256779479026761
 31
0.0
  0
ENDBLK
  5
29B
330
295
100
AcDbEntity
  8
0
100
AcDbBlockEnd
  0
BLOCK
  5
2A1
330
29C
100
AcDbEntity
  8
0
100
AcDbBlockBegin
  2
SYM0014
 70
     0
 10
0.0
 20
0.0
 30
0.0
  3
SYM0014
  1

  0
LINE
  5
29D
330
29C
100
AcDbEntity
  8
0
  6
Continuous
 62
     0
100
AcDbLine
 10
0.0
 20
0.0
 30
0.0
 11
3.926066885021235
 21
2.51832658081819
 31
0.0
  0
LINE
  5
29E
330
29C
100
AcDbEntity
  8
0
  6
Continuous
 62
     0
100
AcDbLine
 10
0.0
 20
0.0
 30
0.0
 11
2.1291652418771
 21
2.338087973884441
 31
0.0
  0
LINE
  5
29F
330
29C
100
AcDbEntity
  8
0
  6
Continuous
 62
     0
100
AcDbLine
 10
0.0
 20
0.0
 30
0.0
 11
3.012955175207164
 21
0.960260960902289
 31
0.0
  0
ENDBLK
  5
2A2
330
29C
100
AcDbEntity
  8
0
100
AcDbBlockEnd
  0
BLOCK
  5
2A5
330
2A4
100
AcDbEntity
  8
0
100
AcDbBlockBegin
  2
*D42
 70
     1
 10
0.0
 20
0.0
 30
0.0
  3
*D42
  1

  0
POINT
  5
2AB
330
2A4
100
AcDbEntity
  8
Defpoints
 62
     0
100
AcDbPoint
 10
-7.856026463657726
 20
33.80030798756998
 30
0.0
  0
POINT
  5
2AC
330
2A4
100
AcDbEntity
  8
Defpoints
 62
     0
100
AcDbPoint
 10
-7.403111381364244
 20
34.69186164732978
 30
0.0
  0
LINE
  5
2AD
330
2A4
100
AcDbEntity
  8
0
  6
Continuous
 62
     0
100
AcDbLine
 10
-7.856026463657726
 20
33.80030798756998
 30
0.0
 11
-7.403111381364244
 21
34.69186164732978
 31
0.0
  0
LINE
  5
2AE
330
2A4
100
AcDbEntity
  8
0
  6
Continuous
 62
     0
100
AcDbLine
 10
-7.403111381364244
 20
34.69186164732978
 30
0.0
 11
-8.056853179142875
 21
31.59789628509998
 31
0.0
  0
LINE
  5
2AF
330
2A4
100
AcDbEntity
  8
0
  6
Continuous
 62
     0
100
AcDbLine
 10
-7.403111381364244
 20
34.69186164732978
 30
0.0
 11
-9.516251066735263
 21
32.33927994397691
 31
0.0
  0
LINE
  5
2B0
330
2A4
100
AcDbEntity
  8
0
  6
Continuous
 62
     0
100
AcDbLine
 10
-7.856028932134249
 20
33.80030974747756
 30
0.0
 11
-11.72848252000878
 21
26.17747768606304
 31
0.0
  0
MTEXT
  5
2B1
330
2A4
100
AcDbEntity
  8
0
 62
     1
100
AcDbMText
 10
-12.28766679374752
 20
26.462391904746
 30
0.0
 40
2.5
 41
0.0
 71
     7
 72
     1
  1
\W1;R1
 11
0.4539904997395468
 21
0.8910065241883678
 31
0.0
 73
     1
 44
1.0
  0
ENDBLK
  5
2A6
330
2A4
100
AcDbEntity
  8
0
100
AcDbBlockEnd
  0
BLOCK
  5
2B4
330
2B3
100
AcDbEntity
  8
0
100
AcDbBlockBegin
  2
*D43
 70
     1
 10
0.0
 20
0.0
 30
0.0
  3
*D43
  1

  0
POINT
  5
2B9
330
2B3
100
AcDbEntity
  8
Defpoints
 62
     0
100
AcDbPoint
 10
-21.7187600845666
 20
32.85426675906622
 30
0.0
  0
POINT
  5
2BA
330
2B3
100
AcDbEntity
  8
Defpoints
 62
     0
100
AcDbPoint
 10
-21.78946354917574
 20
32.76827273887714
 30
0.0
  0
LINE
  5
2BB
330
2B3
100
AcDbEntity
  8
0
  6
Continuous
 62
     0
100
AcDbLine
 10
-21.7187600845666
 20
32.85426675906622
 30
0.0
 11
-25.82228993754783
 21
27.86329452065336
 31
0.0
  0
LINE
  5
2BC
330
2B3
100
AcDbEntity
  8
0
  6
Continuous
 62
     0
100
AcDbLine
 10
-21.78946354917574
 20
32.76827273887714
 30
0.0
 11
-23.09715718376891
 21
29.88904760719933
 31
0.0
  0
LINE
  5
2BD
330
2B3
100
AcDbEntity
  8
0
  6
Continuous
 62
     0
100
AcDbLine
 10
-21.78946354917574
 20
32.76827273887714
 30
0.0
 11
-24.36157202283328
 21
30.92863744877758
 31
0.0
  0
LINE
  5
2BE
330
2B3
100
AcDbEntity
  8
0
  6
Continuous
 62
     0
100
AcDbLine
 10
-21.71875061280634
 20
32.85426159283411
 30
0.0
 11
-30.60877919749581
 21
22.04162383580075
 31
0.0
  0
MTEXT
  5
2BF
330
2B3
100
AcDbEntity
  8
0
 62
     1
100
AcDbMText
 10
-31.09564050670966
 20
22.44294884251598
 30
0.0
 40
2.5
 41
0.0
 71
     7
 72
     1
  1
\W1;R1.5
 11
0.636078220277764
 21
0.77162458338772
 31
0.0
 73
     1
 44
1.0
  0
ENDBLK
  5
2B5
330
2B3
100
AcDbEntity
  8
0
100
AcDbBlockEnd
  0
BLOCK
  5
2C2
330
2C1
100
AcDbEntity
  8
0
100
AcDbBlockBegin
  2
*D44
 70
     1
 10
0.0
 20
0.0
 30
0.0
  3
*D44
  1

  0
MTEXT
  5
2C9
330
2C1
100
AcDbEntity
  8
0
 62
     1
 60
     1
100
AcDbMText
 10
-26.55947236973758
 20
75.27733556596918
 30
0.0
 40
3.200000047683716
 41
0.0
 71
     5
 72
     1
  1
2%%d
 11
0.9937547092694865
 21
0.1115866381101184
 31
0.0
 73
     1
 44
1.0
  0
POINT
  5
2CA
330
2C1
100
AcDbEntity
  8
Defpoints
 62
     0
100
AcDbPoint
 10
-21.80417633056641
 20
32.92819849246514
 30
0.0
  0
POINT
  5
2CB
330
2C1
100
AcDbEntity
  8
Defpoints
 62
     0
100
AcDbPoint
 10
-20.23925538742032
 20
77.73794645247777
 30
0.0
  0
POINT
  5
2CC
330
2C1
100
AcDbEntity
  8
Defpoints
 62
     0
100
AcDbPoint
 10
-21.80417633056641
 20
134.56103515625
 30
0.0
  0
POINT
  5
2CD
330
2C1
100
AcDbEntity
  8
Defpoints
 62
     0
100
AcDbPoint
 10
-20.86866608938719
 20
73.11819380367422
 30
0.0
  0
MTEXT
  5
2CE
330
2C1
100
AcDbEntity
  8
0
 62
     1
100
AcDbMText
 10
-29.1061381663487
 20
73.36626922288765
 30
0.0
 40
3.200000047683716
 41
0.0
 71
     7
 72
     1
  1
\W1;2°
 11
0.9937679191605964
 21
0.1114689322063255
 31
0.0
 73
     1
 44
1.0
  0
ARC
  5
2CF
330
2C1
100
AcDbEntity
  8
0
  6
Continuous
 62
     0
100
AcDbCircle
 10
-21.80419158935547
 20
32.92457580566406
 30
0.0
 40
40.2036018371582
100
AcDbArc
 50
78.95035143713824
 51
99.04962391867663
  0
LINE
  5
2D0
330
2C1
100
AcDbEntity
  8
0
  6
Continuous
 62
     0
100
AcDbLine
 10
-20.40110145056946
 20
73.10368653180124
 30
0.0
 11
-17.29507898652068
 21
73.69750843579683
 31
0.0
  0
LINE
  5
2D1
330
2C1
100
AcDbEntity
  8
0
  6
Continuous
 62
     0
100
AcDbLine
 10
-20.40110145056946
 20
73.10368653180124
 30
0.0
 11
-17.41429613992029
 21
72.06494015413318
 31
0.0
  0
LINE
  5
2D2
330
2C1
100
AcDbEntity
  8
0
  6
Continuous
 62
     0
100
AcDbLine
 10
-21.80417896878235
 20
73.12817764282028
 30
0.0
 11
-24.82541692579954
 21
72.19430334297087
 31
0.0
  0
LINE
  5
2D3
330
2C1
100
AcDbEntity
  8
0
  6
Continuous
 62
     0
100
AcDbLine
 10
-21.80417896878235
 20
73.12817764282028
 30
0.0
 11
-24.88758494040228
 21
73.83003775353978
 31
0.0
  0
ARC
  5
2D4
330
2C1
100
AcDbEntity
  8
0
  6
Continuous
 62
     0
100
AcDbCircle
 10
-21.80419158935547
 20
32.92457580566406
 30
0.0
 40
40.2036018371582
100
AcDbArc
 50
89.99998201391067
 51
100.3108970566644
  0
ENDBLK
  5
2C3
330
2C1
100
AcDbEntity
  8
0
100
AcDbBlockEnd
  0
BLOCK
  5
2D7
330
2D6
100
AcDbEntity
  8
0
100
AcDbBlockBegin
  2
*D45
 70
     1
 10
0.0
 20
0.0
 30
0.0
  3
*D45
  1

  0
POINT
  5
2DD
330
2D6
100
AcDbEntity
  8
Defpoints
 62
     0
100
AcDbPoint
 10
-1.804209195433861
 20
-2.075492858886719
 30
0.0
  0
POINT
  5
2DE
330
2D6
100
AcDbEntity
  8
Defpoints
 62
     0
100
AcDbPoint
 10
40.07352447509766
 20
-2.075492858886719
 30
0.0
  0
POINT
  5
2DF
330
2D6
100
AcDbEntity
  8
Defpoints
 62
     0
100
AcDbPoint
 10
-5.7619444505283
 20
26.08541253108605
 30
0.0
  0
POINT
  5
2E0
330
2D6
100
AcDbEntity
  8
Defpoints
 62
     0
100
AcDbPoint
 10
6.872742418928483
 20
16.81847419174537
 30
0.0
  0
ARC
  5
2E2
330
2D6
100
AcDbEntity
  8
0
  6
Continuous
 62
     0
100
AcDbCircle
 10
-1.804195404052734
 20
-2.075492858886719
 30
0.0
 40
20.78971862792969
100
AcDbArc
 50
0.0
 51
98.00001866420651
  0
LINE
  5
2E3
330
2D6
100
AcDbEntity
  8
0
  6
Continuous
 62
     0
100
AcDbLine
 10
18.98552322387695
 20
-2.075492858886719
 30
0.0
 11
17.94508200280229
 21
0.910722482700235
 31
0.0
  0
LINE
  5
2E4
330
2D6
100
AcDbEntity
  8
0
  6
Continuous
 62
     0
100
AcDbLine
 10
18.98552322387695
 20
-2.075492858886719
 30
0.0
 11
19.57758236589585
 21
1.030866098669935
 31
0.0
  0
LINE
  5
2E5
330
2D6
100
AcDbEntity
  8
0
  6
Continuous
 62
     0
100
AcDbLine
 10
-4.697571719970763
 20
18.51190071395225
 30
0.0
 11
-1.703842672816731
 21
19.53052056113118
 31
0.0
  0
LINE
  5
2E6
330
2D6
100
AcDbEntity
  8
0
  6
Continuous
 62
     0
100
AcDbLine
 10
-4.697571719970763
 20
18.51190071395225
 30
0.0
 11
-1.59561638946302
 21
17.89718685501037
 31
0.0
  0
MTEXT
  5
2E7
330
2D6
100
AcDbEntity
  8
0
 62
     1
100
AcDbMText
 10
9.37184845377838
 20
16.90310315064969
 30
0.0
 40
3.200000047683716
 41
0.0
 71
     7
 72
     1
  1
\W1;98°
 11
0.7443115462311547
 21
-0.6678325554710459
 31
0.0
 73
     1
 44
1.0
  0
ENDBLK
  5
2D8
330
2D6
100
AcDbEntity
  8
0
100
AcDbBlockEnd
  0
BLOCK
  5
2EA
330
2E9
100
AcDbEntity
  8
0
100
AcDbBlockBegin
  2
*D46
 70
     1
 10
0.0
 20
0.0
 30
0.0
  3
*D46
  1

  0
POINT
  5
2F0
330
2E9
100
AcDbEntity
  8
Defpoints
 62
     0
100
AcDbPoint
 10
109.1957774908548
 20
-2.075489044189453
 30
0.0
  0
POINT
  5
2F1
330
2E9
100
AcDbEntity
  8
Defpoints
 62
     0
100
AcDbPoint
 10
111.5816306551417
 20
66.24502725261378
 30
0.0
  0
POINT
  5
2F2
330
2E9
100
AcDbEntity
  8
Defpoints
 62
     0
100
AcDbPoint
 10
1.672950744628906
 20
-2.075489044189453
 30
0.0
  0
POINT
  5
2F3
330
2E9
100
AcDbEntity
  8
Defpoints
 62
     0
100
AcDbPoint
 10
88.28579854150374
 20
10.32350657983398
 30
0.0
  0
ARC
  5
2F5
330
2E9
100
AcDbEntity
  8
0
  6
Continuous
 62
     0
100
AcDbCircle
 10
109.19580078125
 20
-2.075492858886719
 30
0.0
 40
24.31035232543945
100
AcDbArc
 50
87.9999933419042
 51
179.9999640278213
  0
LINE
  5
2F6
330
2E9
100
AcDbEntity
  8
0
  6
Continuous
 62
     0
100
AcDbLine
 10
110.0442226653487
 20
22.22005015816852
 30
0.0
 11
107.0137329979327
 21
21.31664970625085
 31
0.0
  0
LINE
  5
2F7
330
2E9
100
AcDbEntity
  8
0
  6
Continuous
 62
     0
100
AcDbLine
 10
110.0442226653487
 20
22.22005015816852
 30
0.0
 11
106.968041401459
 21
22.95292725054783
 31
0.0
  0
LINE
  5
2F8
330
2E9
100
AcDbEntity
  8
0
  6
Continuous
 62
     0
100
AcDbLine
 10
84.88544845581534
 20
-2.075477596046325
 30
0.0
 11
84.26037729666841
 21
1.024407248079878
 31
0.0
  0
LINE
  5
2F9
330
2E9
100
AcDbEntity
  8
0
  6
Continuous
 62
     0
100
AcDbLine
 10
84.88544845581534
 20
-2.075477596046325
 30
0.0
 11
85.89406337471111
 21
0.92163700740505
 31
0.0
  0
MTEXT
  5
2FA
330
2E9
100
AcDbEntity
  8
0
 62
     1
100
AcDbMText
 10
89.02627773437274
 20
13.50075767872433
 30
0.0
 40
3.200000047683716
 41
0.0
 71
     7
 72
     1
  1
\W1;92°
 11
0.737277336810124
 21
0.6755902076156602
 31
0.0
 73
     1
 44
1.0
  0
ENDBLK
  5
2EB
330
2E9
100
AcDbEntity
  8
0
100
AcDbBlockEnd
  0
BLOCK
  5
358
330
357
100
AcDbEntity
  8
0
100
AcDbBlockBegin
  2
*D47
 70
     1
 10
0.0
 20
0.0
 30
0.0
  3
*D47
  1

  0
LINE
  5
35A
330
357
100
AcDbEntity
  8
0
 62
     0
370
    -2
100
AcDbLine
 10
-19.71242766285508
 20
-29.83438219845
 30
0.0
 11
-63.83776928348804
 21
-29.83438219845
 31
0.0
  0
LINE
  5
35B
330
357
100
AcDbEntity
  8
0
 62
     0
370
    -2
100
AcDbLine
 10
-61.55176928348804
 20
-34.83438219845
 30
0.0
 11
-61.55176928348804
 21
-32.83438219845
 31
0.0
  0
INSERT
  5
35C
330
357
100
AcDbEntity
  8
0
 62
     0
370
    -2
100
AcDbBlockReference
  2
_OPEN30
 10
-61.55176928348804
 20
-37.83438219845
 30
0.0
 41
3.0
 42
3.0
 43
3.0
 50
270.0
  0
INSERT
  5
35D
330
357
100
AcDbEntity
  8
0
 62
     0
370
    -2
100
AcDbBlockReference
  2
_OPEN30
 10
-61.55176928348804
 20
-29.83438219845
 30
0.0
 41
3.0
 42
3.0
 43
3.0
 50
90.0
  0
MTEXT
  5
35E
330
357
100
AcDbEntity
  8
0
 62
     1
100
AcDbMText
 10
-63.9661693194654
 20
-33.83338219845
 30
0.0
 40
3.200000047683716
 41
0.0
 71
     5
 72
     1
  1
8
 11
0.0
 21
1.0
 31
0.0
 73
     1
 44
1.0
  0
POINT
  5
35F
330
357
100
AcDbEntity
  8
Defpoints
 62
     0
100
AcDbPoint
 10
-28.17242766285503
 20
-37.83438219845
 30
0.0
  0
POINT
  5
360
330
357
100
AcDbEntity
  8
Defpoints
 62
     0
100
AcDbPoint
 10
-17.17242766285509
 20
-29.83438219845
 30
0.0
  0
POINT
  5
361
330
357
100
AcDbEntity
  8
Defpoints
 62
     0
100
AcDbPoint
 10
-61.55276928348803
 20
-29.83438219844999
 30
0.0
  0
ENDBLK
  5
359
330
357
100
AcDbEntity
  8
0
100
AcDbBlockEnd
  0
BLOCK
  5
364
330
363
100
AcDbEntity
  8
0
100
AcDbBlockBegin
  2
*D48
 70
     1
 10
0.0
 20
0.0
 30
0.0
  3
*D48
  1

  0
LINE
  5
366
330
363
100
AcDbEntity
  8
0
 62
     0
370
    -2
100
AcDbLine
 10
-42.59248755834239
 20
6.165617801549999
 30
0.0
 11
-63.83776928348804
 21
6.165617801550001
 31
0.0
  0
LINE
  5
367
330
363
100
AcDbEntity
  8
0
 62
     0
370
    -2
100
AcDbLine
 10
-61.55176928348804
 20
-26.83438219844999
 30
0.0
 11
-61.55176928348804
 21
3.165617801550001
 31
0.0
  0
INSERT
  5
368
330
363
100
AcDbEntity
  8
0
 62
     0
370
    -2
100
AcDbBlockReference
  2
_OPEN30
 10
-61.55176928348804
 20
-29.83438219844999
 30
0.0
 41
3.0
 42
3.0
 43
3.0
 50
270.0
  0
INSERT
  5
369
330
363
100
AcDbEntity
  8
0
 62
     0
370
    -2
100
AcDbBlockReference
  2
_OPEN30
 10
-61.55176928348804
 20
6.165617801550001
 30
0.0
 41
3.0
 42
3.0
 43
3.0
 50
89.99999999999999
  0
MTEXT
  5
36A
330
363
100
AcDbEntity
  8
0
 62
     1
100
AcDbMText
 10
-63.9661693194654
 20
-11.83338219845
 30
0.0
 40
3.200000047683716
 41
0.0
 71
     5
 72
     1
  1
36
 11
1.973729821555834E-16
 21
1.0
 31
0.0
 73
     1
 44
1.0
  0
POINT
  5
36B
330
363
100
AcDbEntity
  8
Defpoints
 62
     0
100
AcDbPoint
 10
-17.17242766285509
 20
-29.83438219845
 30
0.0
  0
POINT
  5
36C
330
363
100
AcDbEntity
  8
Defpoints
 62
     0
100
AcDbPoint
 10
-40.05248755834239
 20
6.165617801549999
 30
0.0
  0
POINT
  5
36D
330
363
100
AcDbEntity
  8
Defpoints
 62
     0
100
AcDbPoint
 10
-61.55276928348803
 20
6.165617801550003
 30
0.0
  0
ENDBLK
  5
365
330
363
100
AcDbEntity
  8
0
100
AcDbBlockEnd
  0
BLOCK
  5
370
330
36F
100
AcDbEntity
  8
0
100
AcDbBlockBegin
  2
*D49
 70
     1
 10
0.0
 20
0.0
 30
0.0
  3
*D49
  1

  0
LINE
  5
372
330
36F
100
AcDbEntity
  8
0
 62
     0
370
    -2
100
AcDbLine
 10
-53.79276928348813
 20
23.16561780155
 30
0.0
 11
-63.83776928348804
 21
23.16561780155
 31
0.0
  0
LINE
  5
373
330
36F
100
AcDbEntity
  8
0
 62
     0
370
    -2
100
AcDbLine
 10
-61.55176928348804
 20
9.165617801550004
 30
0.0
 11
-61.55176928348804
 21
20.16561780155
 31
0.0
  0
INSERT
  5
374
330
36F
100
AcDbEntity
  8
0
 62
     0
370
    -2
100
AcDbBlockReference
  2
_OPEN30
 10
-61.55176928348804
 20
6.165617801550004
 30
0.0
 41
3.0
 42
3.0
 43
3.0
 50
270.0
  0
INSERT
  5
375
330
36F
100
AcDbEntity
  8
0
 62
     0
370
    -2
100
AcDbBlockReference
  2
_OPEN30
 10
-61.55176928348804
 20
23.16561780155
 30
0.0
 41
3.0
 42
3.0
 43
3.0
 50
90.0
  0
MTEXT
  5
376
330
36F
100
AcDbEntity
  8
0
 62
     1
100
AcDbMText
 10
-63.95656931932235
 20
14.66661780155
 30
0.0
 40
3.200000047683716
 41
0.0
 71
     5
 72
     1
  1
17
 11
0.0
 21
1.0
 31
0.0
 73
     1
 44
1.0
  0
POINT
  5
377
330
36F
100
AcDbEntity
  8
Defpoints
 62
     0
100
AcDbPoint
 10
-40.05248755834239
 20
6.165617801549999
 30
0.0
  0
POINT
  5
378
330
36F
100
AcDbEntity
  8
Defpoints
 62
     0
100
AcDbPoint
 10
-51.25276928348813
 20
23.16561780155
 30
0.0
  0
POINT
  5
379
330
36F
100
AcDbEntity
  8
Defpoints
 62
     0
100
AcDbPoint
 10
-61.55276928348803
 20
23.16561780155
 30
0.0
  0
ENDBLK
  5
371
330
36F
100
AcDbEntity
  8
0
100
AcDbBlockEnd
  0
BLOCK
  5
37C
330
37B
100
AcDbEntity
  8
0
100
AcDbBlockBegin
  2
*D50
 70
     1
 10
0.0
 20
0.0
 30
0.0
  3
*D50
  1

  0
LINE
  5
37E
330
37B
100
AcDbEntity
  8
0
 62
     0
370
    -2
100
AcDbLine
 10
-61.55176928348804
 20
26.16561780155
 30
0.0
 11
-61.55176928348804
 21
34.16561780155001
 31
0.0
  0
INSERT
  5
37F
330
37B
100
AcDbEntity
  8
0
 62
     0
370
    -2
100
AcDbBlockReference
  2
_OPEN30
 10
-61.55176928348804
 20
23.16561780155
 30
0.0
 41
3.0
 42
3.0
 43
3.0
 50
270.0
  0
INSERT
  5
380
330
37B
100
AcDbEntity
  8
0
 62
     0
370
    -2
100
AcDbBlockReference
  2
_OPEN30
 10
-61.55176928348804
 20
37.16561780155001
 30
0.0
 41
3.0
 42
3.0
 43
3.0
 50
90.0
  0
MTEXT
  5
381
330
37B
100
AcDbEntity
  8
0
 62
     1
100
AcDbMText
 10
-63.95176931925082
 20
30.16661780155
 30
0.0
 40
3.200000047683716
 41
0.0
 71
     5
 72
     1
  1
14
 11
0.0
 21
1.0
 31
0.0
 73
     1
 44
1.0
  0
POINT
  5
382
330
37B
100
AcDbEntity
  8
Defpoints
 62
     0
100
AcDbPoint
 10
-51.25276928348813
 20
23.16561780155
 30
0.0
  0
POINT
  5
383
330
37B
100
AcDbEntity
  8
Defpoints
 62
     0
100
AcDbPoint
 10
-51.25276928348813
 20
37.16561780155
 30
0.0
  0
POINT
  5
384
330
37B
100
AcDbEntity
  8
Defpoints
 62
     0
100
AcDbPoint
 10
-61.55276928348803
 20
37.16561780155001
 30
0.0
  0
ENDBLK
  5
37D
330
37B
100
AcDbEntity
  8
0
100
AcDbBlockEnd
  0
BLOCK
  5
387
330
386
100
AcDbEntity
  8
0
100
AcDbBlockBegin
  2
*D51
 70
     1
 10
0.0
 20
0.0
 30
0.0
  3
*D51
  1

  0
LINE
  5
389
330
386
100
AcDbEntity
  8
0
 62
     0
370
    -2
100
AcDbLine
 10
-53.79276928348813
 20
37.16561780155
 30
0.0
 11
-73.83676928348804
 21
37.16561780154998
 31
0.0
  0
LINE
  5
38A
330
386
100
AcDbEntity
  8
0
 62
     0
370
    -2
100
AcDbLine
 10
-30.71242766285503
 20
-37.83438219845
 30
0.0
 11
-73.83676928348801
 21
-37.83438219845003
 31
0.0
  0
LINE
  5
38B
330
386
100
AcDbEntity
  8
0
 62
     0
370
    -2
100
AcDbLine
 10
-71.55076928348804
 20
34.16561780154998
 30
0.0
 11
-71.55076928348801
 21
-34.83438219845003
 31
0.0
  0
INSERT
  5
38C
330
386
100
AcDbEntity
  8
0
 62
     0
370
    -2
100
AcDbBlockReference
  2
_OPEN30
 10
-71.55076928348804
 20
37.16561780154998
 30
0.0
 41
3.0
 42
3.0
 43
3.0
 50
90.00000000000001
  0
INSERT
  5
38D
330
386
100
AcDbEntity
  8
0
 62
     0
370
    -2
100
AcDbBlockReference
  2
_OPEN30
 10
-71.55076928348801
 20
-37.83438219845003
 30
0.0
 41
3.0
 42
3.0
 43
3.0
 50
270.0
  0
MTEXT
  5
38E
330
386
100
AcDbEntity
  8
0
 62
     1
100
AcDbMText
 10
-73.96516931946539
 20
-0.333382198450002
 30
0.0
 40
3.200000047683716
 41
0.0
 71
     5
 72
     1
  1
75
 11
-3.789561257387201E-16
 21
1.0
 31
0.0
 73
     1
 44
1.0
  0
POINT
  5
38F
330
386
100
AcDbEntity
  8
Defpoints
 62
     0
100
AcDbPoint
 10
-51.25276928348813
 20
37.16561780155
 30
0.0
  0
POINT
  5
390
330
386
100
AcDbEntity
  8
Defpoints
 62
     0
100
AcDbPoint
 10
-28.17242766285503
 20
-37.83438219845
 30
0.0
  0
POINT
  5
391
330
386
100
AcDbEntity
  8
Defpoints
 62
     0
100
AcDbPoint
 10
-71.55276928348803
 20
-37.83438219845002
 30
0.0
  0
ENDBLK
  5
388
330
386
100
AcDbEntity
  8
0
100
AcDbBlockEnd
  0
BLOCK
  5
394
330
393
100
AcDbEntity
  8
0
100
AcDbBlockBegin
  2
*D52
 70
     1
 10
0.0
 20
0.0
 30
0.0
  3
*D52
  1

  0
LINE
  5
396
330
393
100
AcDbEntity
  8
0
 62
     0
370
    -2
100
AcDbLine
 10
-41.55276928348809
 20
39.70561780155
 30
0.0
 11
-41.55276928348809
 21
49.45161780155
 31
0.0
  0
LINE
  5
397
330
393
100
AcDbEntity
  8
0
 62
     0
370
    -2
100
AcDbLine
 10
-48.55276928348803
 20
47.16561780155
 30
0.0
 11
-44.55276928348809
 21
47.16561780155
 31
0.0
  0
INSERT
  5
398
330
393
100
AcDbEntity
  8
0
 62
     0
370
    -2
100
AcDbBlockReference
  2
_OPEN30
 10
-51.55276928348803
 20
47.16561780155
 30
0.0
 41
3.0
 42
3.0
 43
3.0
 50
180.0
  0
INSERT
  5
399
330
393
100
AcDbEntity
  8
0
 62
     0
370
    -2
100
AcDbBlockReference
  2
_OPEN30
 10
-41.55276928348809
 20
47.16561780155
 30
0.0
 41
3.0
 42
3.0
 43
3.0
  0
MTEXT
  5
39A
330
393
100
AcDbEntity
  8
0
 62
     1
100
AcDbMText
 10
-46.55176928348806
 20
49.58001783752736
 30
0.0
 40
3.200000047683716
 41
0.0
 71
     5
 72
     1
  1
10
 73
     1
 44
1.0
  0
POINT
  5
39B
330
393
100
AcDbEntity
  8
Defpoints
 62
     0
100
AcDbPoint
 10
-51.55276928348803
 20
37.16561780155
 30
0.0
  0
POINT
  5
39C
330
393
100
AcDbEntity
  8
Defpoints
 62
     0
100
AcDbPoint
 10
-41.55276928348809
 20
37.16561780155
 30
0.0
  0
POINT
  5
39D
330
393
100
AcDbEntity
  8
Defpoints
 62
     0
100
AcDbPoint
 10
-41.55276928348809
 20
47.16561780155
 30
0.0
  0
ENDBLK
  5
395
330
393
100
AcDbEntity
  8
0
100
AcDbBlockEnd
  0
BLOCK
  5
3A0
330
39F
100
AcDbEntity
  8
0
100
AcDbBlockBegin
  2
*D53
 70
     1
 10
0.0
 20
0.0
 30
0.0
  3
*D53
  1

  0
LINE
  5
3A2
330
39F
100
AcDbEntity
  8
0
 62
     0
370
    -2
100
AcDbLine
 10
-51.55276928348803
 20
39.70561780155
 30
0.0
 11
-51.55276928348803
 21
59.45161780155001
 31
0.0
  0
LINE
  5
3A3
330
39F
100
AcDbEntity
  8
0
 62
     0
370
    -2
100
AcDbLine
 10
67.94723071651194
 20
14.70561780155
 30
0.0
 11
67.94723071651194
 21
59.45161780154999
 31
0.0
  0
LINE
  5
3A4
330
39F
100
AcDbEntity
  8
0
 62
     0
370
    -2
100
AcDbLine
 10
-48.55276928348803
 20
57.16561780155001
 30
0.0
 11
64.94723071651194
 21
57.16561780154999
 31
0.0
  0
INSERT
  5
3A5
330
39F
100
AcDbEntity
  8
0
 62
     0
370
    -2
100
AcDbBlockReference
  2
_OPEN30
 10
-51.55276928348803
 20
57.16561780155001
 30
0.0
 41
3.0
 42
3.0
 43
3.0
 50
180.0
  0
INSERT
  5
3A6
330
39F
100
AcDbEntity
  8
0
 62
     0
370
    -2
100
AcDbBlockReference
  2
_OPEN30
 10
67.94723071651194
 20
57.16561780154999
 30
0.0
 41
3.0
 42
3.0
 43
3.0
 50
360.0
  0
MTEXT
  5
3A7
330
39F
100
AcDbEntity
  8
0
 62
     1
100
AcDbMText
 10
8.198230716511967
 20
60.39921784973439
 30
0.0
 40
3.200000047683716
 41
0.0
 71
     5
 72
     1
  1
(120)
 73
     1
 44
1.0
  0
POINT
  5
3A8
330
39F
100
AcDbEntity
  8
Defpoints
 62
     0
100
AcDbPoint
 10
-51.55276928348803
 20
37.16561780155
 30
0.0
  0
POINT
  5
3A9
330
39F
100
AcDbEntity
  8
Defpoints
 62
     0
100
AcDbPoint
 10
67.94723071651194
 20
12.16561780155
 30
0.0
  0
POINT
  5
3AA
330
39F
100
AcDbEntity
  8
Defpoints
 62
     0
100
AcDbPoint
 10
67.94723071651194
 20
57.16561780155
 30
0.0
  0
ENDBLK
  5
3A1
330
39F
100
AcDbEntity
  8
0
100
AcDbBlockEnd
  0
BLOCK
  5
3AD
330
3AC
100
AcDbEntity
  8
0
100
AcDbBlockBegin
  2
*D54
 70
     1
 10
0.0
 20
0.0
 30
0.0
  3
*D54
  1

  0
MTEXT
  5
3B5
330
3AC
100
AcDbEntity
  8
0
 62
     1
100
AcDbMText
 10
64.44823071651197
 20
24.57041783738431
 30
0.0
 40
3.200000047683716
 41
0.0
 71
     5
 72
     1
  1
7
 73
     1
 44
1.0
  0
POINT
  5
3B6
330
3AC
100
AcDbEntity
  8
Defpoints
 62
     0
100
AcDbPoint
 10
60.94723071651197
 20
12.16561780155
 30
0.0
  0
POINT
  5
3B7
330
3AC
100
AcDbEntity
  8
Defpoints
 62
     0
100
AcDbPoint
 10
67.94723071651194
 20
12.16561780155
 30
0.0
  0
POINT
  5
3B8
330
3AC
100
AcDbEntity
  8
Defpoints
 62
     0
100
AcDbPoint
 10
67.94723071651194
 20
22.16561780155
 30
0.0
  0
LINE
  5
3B9
330
3AC
100
AcDbEntity
  8
0
  6
Continuous
 62
     7
100
AcDbLine
 10
60.94723071651197
 20
14.70561780155
 30
0.0
 11
60.94723071651197
 21
24.45161780155
 31
0.0
  0
LINE
  5
3BA
330
3AC
100
AcDbEntity
  8
0
  6
Continuous
 62
     7
100
AcDbLine
 10
54.59723071651197
 20
22.16561780155
 30
0.0
 11
74.29723071651193
 21
22.16561780155
 31
0.0
  0
LINE
  5
3BB
330
3AC
100
AcDbEntity
  8
0
  6
Continuous
 62
     7
100
AcDbLine
 10
60.94723071651197
 20
22.16561780155
 30
0.0
 11
57.89270505450634
 21
21.34716011725
 31
0.0
  0
LINE
  5
3BC
330
3AC
100
AcDbEntity
  8
0
  6
Continuous
 62
     7
100
AcDbLine
 10
60.94723071651197
 20
22.16561780155
 30
0.0
 11
57.89270505450634
 21
22.98407548585
 31
0.0
  0
LINE
  5
3BD
330
3AC
100
AcDbEntity
  8
0
  6
Continuous
 62
     7
100
AcDbLine
 10
67.94723071651194
 20
22.16561780155
 30
0.0
 11
71.00175637851757
 21
22.98407548585
 31
0.0
  0
LINE
  5
3BE
330
3AC
100
AcDbEntity
  8
0
  6
Continuous
 62
     7
100
AcDbLine
 10
67.94723071651194
 20
22.16561780155
 30
0.0
 11
71.00175637851757
 21
21.34716011725
 31
0.0
  0
ENDBLK
  5
3AE
330
3AC
100
AcDbEntity
  8
0
100
AcDbBlockEnd
  0
BLOCK
  5
3C1
330
3C0
100
AcDbEntity
  8
0
100
AcDbBlockBegin
  2
*D55
 70
     1
 10
0.0
 20
0.0
 30
0.0
  3
*D55
  1

  0
LINE
  5
3C3
330
3C0
100
AcDbEntity
  8
0
 62
     0
370
    -2
100
AcDbLine
 10
70.18723071651196
 20
2.16561780155
 30
0.0
 11
80.23423071651195
 21
2.165617801550003
 31
0.0
  0
LINE
  5
3C4
330
3C0
100
AcDbEntity
  8
0
 62
     0
370
    -2
100
AcDbLine
 10
77.94823071651194
 20
9.165617801550002
 30
0.0
 11
77.94823071651194
 21
5.165617801550002
 31
0.0
  0
INSERT
  5
3C5
330
3C0
100
AcDbEntity
  8
0
 62
     0
370
    -2
100
AcDbBlockReference
  2
_OPEN30
 10
77.94823071651194
 20
12.16561780155
 30
0.0
 41
3.0
 42
3.0
 43
3.0
 50
90.0
  0
INSERT
  5
3C6
330
3C0
100
AcDbEntity
  8
0
 62
     0
370
    -2
100
AcDbBlockReference
  2
_OPEN30
 10
77.94823071651194
 20
2.165617801550002
 30
0.0
 41
3.0
 42
3.0
 43
3.0
 50
270.0
  0
MTEXT
  5
3C7
330
3C0
100
AcDbEntity
  8
0
 62
     1
100
AcDbMText
 10
75.53383068053458
 20
7.166617801549999
 30
0.0
 40
3.200000047683716
 41
0.0
 71
     5
 72
     1
  1
10
 11
0.0
 21
1.0
 31
0.0
 73
     1
 44
1.0
  0
POINT
  5
3C8
330
3C0
100
AcDbEntity
  8
Defpoints
 62
     0
100
AcDbPoint
 10
67.94723071651194
 20
12.16561780155
 30
0.0
  0
POINT
  5
3C9
330
3C0
100
AcDbEntity
  8
Defpoints
 62
     0
100
AcDbPoint
 10
67.64723071651196
 20
2.165617801549999
 30
0.0
  0
POINT
  5
3CA
330
3C0
100
AcDbEntity
  8
Defpoints
 62
     0
100
AcDbPoint
 10
77.94723071651194
 20
2.165617801550003
 30
0.0
  0
ENDBLK
  5
3C2
330
3C0
100
AcDbEntity
  8
0
100
AcDbBlockEnd
  0
BLOCK
  5
3CD
330
3CC
100
AcDbEntity
  8
0
100
AcDbBlockBegin
  2
*D56
 70
     1
 10
0.0
 20
0.0
 30
0.0
  3
*D56
  1

  0
LINE
  5
3CF
330
3CC
100
AcDbEntity
  8
0
 62
     0
370
    -2
100
AcDbLine
 10
77.94823071651194
 20
-0.834382198450001
 30
0.0
 11
77.94823071651196
 21
-34.83438219845
 31
0.0
  0
INSERT
  5
3D0
330
3CC
100
AcDbEntity
  8
0
 62
     0
370
    -2
100
AcDbBlockReference
  2
_OPEN30
 10
77.94823071651194
 20
2.165617801549999
 30
0.0
 41
3.0
 42
3.0
 43
3.0
 50
90.00000000000001
  0
INSERT
  5
3D1
330
3CC
100
AcDbEntity
  8
0
 62
     0
370
    -2
100
AcDbBlockReference
  2
_OPEN30
 10
77.94823071651196
 20
-37.83438219845
 30
0.0
 41
3.0
 42
3.0
 43
3.0
 50
270.0
  0
MTEXT
  5
3D2
330
3CC
100
AcDbEntity
  8
0
 62
     1
100
AcDbMText
 10
75.53383068053458
 20
-17.83338219845
 30
0.0
 40
3.200000047683716
 41
0.0
 71
     5
 72
     1
  1
40
 11
-3.552713678800502E-16
 21
1.0
 31
0.0
 73
     1
 44
1.0
  0
POINT
  5
3D3
330
3CC
100
AcDbEntity
  8
Defpoints
 62
     0
100
AcDbPoint
 10
67.64723071651196
 20
2.165617801549999
 30
0.0
  0
POINT
  5
3D4
330
3CC
100
AcDbEntity
  8
Defpoints
 62
     0
100
AcDbPoint
 10
57.82757233714494
 20
-37.83438219845
 30
0.0
  0
POINT
  5
3D5
330
3CC
100
AcDbEntity
  8
Defpoints
 62
     0
100
AcDbPoint
 10
77.94723071651194
 20
-37.83438219844999
 30
0.0
  0
ENDBLK
  5
3CE
330
3CC
100
AcDbEntity
  8
0
100
AcDbBlockEnd
  0
BLOCK
  5
3D8
330
3D7
100
AcDbEntity
  8
0
100
AcDbBlockBegin
  2
*D57
 70
     1
 10
0.0
 20
0.0
 30
0.0
  3
*D57
  1

  0
LINE
  5
3DA
330
3D7
100
AcDbEntity
  8
0
 62
     0
370
    -2
100
AcDbLine
 10
60.36757233714494
 20
-37.83438219845
 30
0.0
 11
90.23323071651193
 21
-37.83438219845002
 31
0.0
  0
LINE
  5
3DB
330
3D7
100
AcDbEntity
  8
0
 62
     0
370
    -2
100
AcDbLine
 10
70.48723071651195
 20
12.16561780155
 30
0.0
 11
90.23323071651194
 21
12.16561780154999
 31
0.0
  0
LINE
  5
3DC
330
3D7
100
AcDbEntity
  8
0
 62
     0
370
    -2
100
AcDbLine
 10
87.94723071651192
 20
-34.83438219845002
 30
0.0
 11
87.94723071651194
 21
9.16561780154999
 31
0.0
  0
INSERT
  5
3DD
330
3D7
100
AcDbEntity
  8
0
 62
     0
370
    -2
100
AcDbBlockReference
  2
_OPEN30
 10
87.94723071651192
 20
-37.83438219845002
 30
0.0
 41
3.0
 42
3.0
 43
3.0
 50
270.0
  0
INSERT
  5
3DE
330
3D7
100
AcDbEntity
  8
0
 62
     0
370
    -2
100
AcDbBlockReference
  2
_OPEN30
 10
87.94723071651194
 20
12.16561780154999
 30
0.0
 41
3.0
 42
3.0
 43
3.0
 50
89.99999999999999
  0
MTEXT
  5
3DF
330
3D7
100
AcDbEntity
  8
0
 62
     1
100
AcDbMText
 10
85.53283068053457
 20
-12.83338219845
 30
0.0
 40
3.200000047683716
 41
0.0
 71
     5
 72
     1
  1
50
 11
2.842170943040400E-16
 21
1.0
 31
0.0
 73
     1
 44
1.0
  0
POINT
  5
3E0
330
3D7
100
AcDbEntity
  8
Defpoints
 62
     0
100
AcDbPoint
 10
57.82757233714494
 20
-37.83438219845
 30
0.0
  0
POINT
  5
3E1
330
3D7
100
AcDbEntity
  8
Defpoints
 62
     0
100
AcDbPoint
 10
67.94723071651194
 20
12.16561780155
 30
0.0
  0
POINT
  5
3E2
330
3D7
100
AcDbEntity
  8
Defpoints
 62
     0
100
AcDbPoint
 10
87.94723071651194
 20
12.16561780155
 30
0.0
  0
ENDBLK
  5
3D9
330
3D7
100
AcDbEntity
  8
0
100
AcDbBlockEnd
  0
BLOCK
  5
3E5
330
3E4
100
AcDbEntity
  8
0
100
AcDbBlockBegin
  2
*D58
 70
     1
 10
0.0
 20
0.0
 30
0.0
  3
*D58
  1

  0
LINE
  5
3E7
330
3E4
100
AcDbEntity
  8
0
 62
     0
370
    -2
100
AcDbLine
 10
-17.17242766285509
 20
-40.37438219845
 30
0.0
 11
-17.17242766285509
 21
-50.11938219845
 31
0.0
  0
LINE
  5
3E8
330
3E4
100
AcDbEntity
  8
0
 62
     0
370
    -2
100
AcDbLine
 10
-25.17242766285503
 20
-47.83338219845
 30
0.0
 11
-20.17242766285509
 21
-47.83338219845
 31
0.0
  0
INSERT
  5
3E9
330
3E4
100
AcDbEntity
  8
0
 62
     0
370
    -2
100
AcDbBlockReference
  2
_OPEN30
 10
-28.17242766285503
 20
-47.83338219845
 30
0.0
 41
3.0
 42
3.0
 43
3.0
 50
180.0
  0
INSERT
  5
3EA
330
3E4
100
AcDbEntity
  8
0
 62
     0
370
    -2
100
AcDbBlockReference
  2
_OPEN30
 10
-17.17242766285509
 20
-47.83338219845
 30
0.0
 41
3.0
 42
3.0
 43
3.0
  0
MTEXT
  5
3EB
330
3E4
100
AcDbEntity
  8
0
 62
     1
100
AcDbMText
 10
-22.67142766285506
 20
-45.43338216268722
 30
0.0
 40
3.200000047683716
 41
0.0
 71
     5
 72
     1
  1
11
 73
     1
 44
1.0
  0
POINT
  5
3EC
330
3E4
100
AcDbEntity
  8
Defpoints
 62
     0
100
AcDbPoint
 10
-28.17242766285503
 20
-37.83438219845
 30
0.0
  0
POINT
  5
3ED
330
3E4
100
AcDbEntity
  8
Defpoints
 62
     0
100
AcDbPoint
 10
-17.17242766285509
 20
-37.83438219845
 30
0.0
  0
POINT
  5
3EE
330
3E4
100
AcDbEntity
  8
Defpoints
 62
     0
100
AcDbPoint
 10
-17.17242766285509
 20
-47.83438219845
 30
0.0
  0
ENDBLK
  5
3E6
330
3E4
100
AcDbEntity
  8
0
100
AcDbBlockEnd
  0
BLOCK
  5
3F1
330
3F0
100
AcDbEntity
  8
0
100
AcDbBlockBegin
  2
*D59
 70
     1
 10
0.0
 20
0.0
 30
0.0
  3
*D59
  1

  0
LINE
  5
3F3
330
3F0
100
AcDbEntity
  8
0
 62
     0
370
    -2
100
AcDbLine
 10
-14.17242766285509
 20
-47.83338219845
 30
0.0
 11
54.82757233714494
 21
-47.83338219845
 31
0.0
  0
INSERT
  5
3F4
330
3F0
100
AcDbEntity
  8
0
 62
     0
370
    -2
100
AcDbBlockReference
  2
_OPEN30
 10
-17.17242766285509
 20
-47.83338219845
 30
0.0
 41
3.0
 42
3.0
 43
3.0
 50
180.0
  0
INSERT
  5
3F5
330
3F0
100
AcDbEntity
  8
0
 62
     0
370
    -2
100
AcDbBlockReference
  2
_OPEN30
 10
57.82757233714494
 20
-47.83338219845
 30
0.0
 41
3.0
 42
3.0
 43
3.0
 50
360.0
  0
MTEXT
  5
3F6
330
3F0
100
AcDbEntity
  8
0
 62
     1
100
AcDbMText
 10
20.32857233714494
 20
-45.41898216247264
 30
0.0
 40
3.200000047683716
 41
0.0
 71
     5
 72
     1
  1
75
 73
     1
 44
1.0
  0
POINT
  5
3F7
330
3F0
100
AcDbEntity
  8
Defpoints
 62
     0
100
AcDbPoint
 10
-17.17242766285509
 20
-37.83438219845
 30
0.0
  0
POINT
  5
3F8
330
3F0
100
AcDbEntity
  8
Defpoints
 62
     0
100
AcDbPoint
 10
57.82757233714494
 20
-37.83438219845
 30
0.0
  0
POINT
  5
3F9
330
3F0
100
AcDbEntity
  8
Defpoints
 62
     0
100
AcDbPoint
 10
57.82757233714494
 20
-47.83438219845
 30
0.0
  0
ENDBLK
  5
3F2
330
3F0
100
AcDbEntity
  8
0
100
AcDbBlockEnd
  0
BLOCK
  5
3FC
330
3FB
100
AcDbEntity
  8
0
100
AcDbBlockBegin
  2
*D60
 70
     1
 10
0.0
 20
0.0
 30
0.0
  3
*D60
  1

  0
LINE
  5
3FE
330
3FB
100
AcDbEntity
  8
0
 62
     0
370
    -2
100
AcDbLine
 10
57.82757233714494
 20
-40.37438219845
 30
0.0
 11
57.82757233714494
 21
-60.11938219845
 31
0.0
  0
LINE
  5
3FF
330
3FB
100
AcDbEntity
  8
0
 62
     0
370
    -2
100
AcDbLine
 10
-28.17242766285503
 20
-40.37438219845
 30
0.0
 11
-28.17242766285502
 21
-60.11938219845
 31
0.0
  0
LINE
  5
400
330
3FB
100
AcDbEntity
  8
0
 62
     0
370
    -2
100
AcDbLine
 10
54.82757233714494
 20
-57.83338219845
 30
0.0
 11
-25.17242766285502
 21
-57.83338219845
 31
0.0
  0
INSERT
  5
401
330
3FB
100
AcDbEntity
  8
0
 62
     0
370
    -2
100
AcDbBlockReference
  2
_OPEN30
 10
57.82757233714494
 20
-57.83338219845
 30
0.0
 41
3.0
 42
3.0
 43
3.0
  0
INSERT
  5
402
330
3FB
100
AcDbEntity
  8
0
 62
     0
370
    -2
100
AcDbBlockReference
  2
_OPEN30
 10
-28.17242766285502
 20
-57.83338219845
 30
0.0
 41
3.0
 42
3.0
 43
3.0
 50
180.0
  0
MTEXT
  5
403
330
3FB
100
AcDbEntity
  8
0
 62
     1
100
AcDbMText
 10
14.82957233714494
 20
-55.41898216247263
 30
0.0
 40
3.200000047683716
 41
0.0
 71
     5
 72
     1
  1
86
 73
     1
 44
1.0
  0
POINT
  5
404
330
3FB
100
AcDbEntity
  8
Defpoints
 62
     0
100
AcDbPoint
 10
57.82757233714494
 20
-37.83438219845
 30
0.0
  0
POINT
  5
405
330
3FB
100
AcDbEntity
  8
Defpoints
 62
     0
100
AcDbPoint
 10
-28.17242766285503
 20
-37.83438219845
 30
0.0
  0
POINT
  5
406
330
3FB
100
AcDbEntity
  8
Defpoints
 62
     0
100
AcDbPoint
 10
-28.17242766285503
 20
-57.83438219844999
 30
0.0
  0
ENDBLK
  5
3FD
330
3FB
100
AcDbEntity
  8
0
100
AcDbBlockEnd
  0
BLOCK
  5
409
330
408
100
AcDbEntity
  8
0
100
AcDbBlockBegin
  2
*D61
 70
     1
 10
0.0
 20
0.0
 30
0.0
  3
*D61
  1

  0
MTEXT
  5
411
330
408
100
AcDbEntity
  8
0
 62
     1
100
AcDbMText
 10
0.453609853124162
 20
-25.05958211612407
 30
0.0
 40
3.200000047683716
 41
0.0
 71
     5
 72
     1
  1
1.25
 11
0.0
 21
1.0
 31
0.0
 73
     1
 44
1.0
  0
POINT
  5
412
330
408
100
AcDbEntity
  8
Defpoints
 62
     0
100
AcDbPoint
 10
-7.126590110803107
 20
-37.83438219845
 30
0.0
  0
POINT
  5
413
330
408
100
AcDbEntity
  8
Defpoints
 62
     0
100
AcDbPoint
 10
-7.126590110803107
 20
-36.58438219845
 30
0.0
  0
POINT
  5
414
330
408
100
AcDbEntity
  8
Defpoints
 62
     0
100
AcDbPoint
 10
2.873409889196893
 20
-36.58438219845
 30
0.0
  0
LINE
  5
415
330
408
100
AcDbEntity
  8
0
  6
Continuous
 62
     7
100
AcDbLine
 10
2.873409889196893
 20
-44.18438219845
 30
0.0
 11
2.873409889196893
 21
-30.23438219845
 31
0.0
  0
LINE
  5
416
330
408
100
AcDbEntity
  8
0
  6
Continuous
 62
     7
100
AcDbLine
 10
2.873409889196893
 20
-37.83438219845
 30
0.0
 11
3.691867573496893
 21
-40.88890786045562
 31
0.0
  0
LINE
  5
417
330
408
100
AcDbEntity
  8
0
  6
Continuous
 62
     7
100
AcDbLine
 10
2.873409889196893
 20
-37.83438219845
 30
0.0
 11
2.054952204896892
 21
-40.88890786045562
 31
0.0
  0
LINE
  5
418
330
408
100
AcDbEntity
  8
0
  6
Continuous
 62
     7
100
AcDbLine
 10
2.873409889196893
 20
-36.58438219845
 30
0.0
 11
2.054952204896892
 21
-33.52985653644438
 31
0.0
  0
LINE
  5
419
330
408
100
AcDbEntity
  8
0
  6
Continuous
 62
     7
100
AcDbLine
 10
2.873409889196893
 20
-36.58438219845
 30
0.0
 11
3.691867573496893
 21
-33.52985653644438
 31
0.0
  0
LINE
  5
41A
330
408
100
AcDbEntity
  8
0
  6
Continuous
 62
     7
100
AcDbLine
 10
2.873409889196893
 20
-36.58438219845
 30
0.0
 11
2.873409889196893
 21
-21.8200681104084
 31
0.0
  0
ENDBLK
  5
40A
330
408
100
AcDbEntity
  8
0
100
AcDbBlockEnd
  0
ENDSEC
  0
SECTION
  2
ENTITIES
  0
LINE
  5
2FB
330
1F
100
AcDbEntity
  8
0
  6
Continuous
 62
     7
100
AcDbLine
 10
-40.12045441936969
 20
24.41561780155001
 30
0.0
 11
-37.5741853625311
 21
23.73334706405775
 31
0.0
  0
LINE
  5
2FC
330
1F
100
AcDbEntity
  8
0
  6
Continuous
 62
     7
100
AcDbLine
 10
-35.8538523232974
 20
6.334692106519419
 30
0.0
 11
-30.86309828071309
 21
4.997423591186594
 31
0.0
  0
LINE
  5
2FD
330
1F
100
AcDbEntity
  8
0
  6
Continuous
 62
     7
100
AcDbLine
 10
-28.58545588733961
 20
-18.77130643298734
 30
0.0
 11
-30.64188558481641
 21
4.733792566124126
 31
0.0
  0
LINE
  5
2FE
330
1F
100
AcDbEntity
  8
0
  6
Continuous
 62
     7
100
AcDbLine
 10
-38.68062350733994
 20
7.092123162471189
 30
0.0
 11
-37.75549839256228
 21
6.844236635068766
 31
0.0
  0
LINE
  5
2FF
330
1F
100
AcDbEntity
  8
0
  6
Continuous
 62
     7
100
AcDbLine
 10
-37.37899426960393
 20
7.1601611057798
 30
0.0
 11
-38.724836717637
 21
22.54321067807418
 31
0.0
  0
LINE
  5
300
330
1F
100
AcDbEntity
  8
0
  6
Continuous
 62
     7
100
AcDbLine
 10
-36.07506501919404
 20
6.598323131581836
 30
0.0
 11
-37.57418536253107
 21
23.73334706405772
 31
0.0
  0
LINE
  5
301
330
1F
100
AcDbEntity
  8
0
  6
Continuous
 62
     7
100
AcDbLine
 10
-38.90183620323653
 20
7.35575418753357
 30
0.0
 11
-40.24767865126961
 21
22.73880375982796
 31
0.0
  0
LINE
  5
302
330
1F
100
AcDbEntity
  8
0
  6
Continuous
 62
     7
100
AcDbLine
 10
-39.87117452831129
 20
23.054728230539
 30
0.0
 11
-38.94604941353369
 21
22.80684170313659
 31
0.0
  0
LINE
  5
303
330
1F
100
AcDbEntity
  8
0
  6
Continuous
 62
     7
100
AcDbLine
 10
-39.8495829948668
 20
6.111249687626092
 30
0.0
 11
-32.03205776824007
 21
4.016550116341531
 31
0.0
  0
LINE
  5
304
330
1F
100
AcDbEntity
  8
0
  6
Continuous
 62
     7
100
AcDbLine
 10
-40.07079569076348
 20
6.374880712688551
 30
0.0
 11
-41.51583578106084
 21
22.8917645243743
 31
0.0
  0
LINE
  5
305
330
1F
100
AcDbEntity
  8
0
  6
Continuous
 62
     7
100
AcDbLine
 10
-51.25276928348813
 20
37.16561780155
 30
0.0
 11
-41.82766863569333
 21
37.16561780155
 31
0.0
  0
LINE
  5
306
330
1F
100
AcDbEntity
  8
0
  6
Continuous
 62
     7
100
AcDbLine
 10
-51.25276928348813
 20
23.16561780155
 30
0.0
 11
-41.8146941904883
 21
23.16561780155
 31
0.0
  0
LINE
  5
307
330
1F
100
AcDbEntity
  8
0
  6
Continuous
 62
     7
100
AcDbLine
 10
-28.17242766285502
 20
-37.83438219845
 30
0.0
 11
-29.49100070872855
 21
-22.7630233191043
 31
0.0
  0
LINE
  5
308
330
1F
100
AcDbEntity
  8
0
  6
Continuous
 62
     7
100
AcDbLine
 10
-17.17242766285509
 20
-30.13438219845001
 30
0.0
 11
-17.17242766285509
 21
-35.83438219845
 31
0.0
  0
LINE
  5
309
330
1F
100
AcDbEntity
  8
0
  6
Continuous
 62
     7
100
AcDbLine
 10
-17.87636288285336
 20
-29.83438219845
 30
0.0
 11
-17.47242766285507
 21
-29.83438219845
 31
0.0
  0
LINE
  5
30A
330
1F
100
AcDbEntity
  8
0
  6
Continuous
 62
     7
100
AcDbLine
 10
61.76387225791001
 20
3.415617801549999
 30
0.0
 11
66.39723071651196
 21
3.415617801549999
 31
0.0
  0
LINE
  5
30B
330
1F
100
AcDbEntity
  8
0
  6
Continuous
 62
     7
100
AcDbLine
 10
61.46501384848256
 20
3.741764524374287
 30
0.0
 11
62.06868562681143
 21
10.6417645243743
 31
0.0
  0
LINE
  5
30C
330
1F
100
AcDbEntity
  8
0
  6
Continuous
 62
     7
100
AcDbLine
 10
66.69723071651194
 20
10.61561780155
 30
0.0
 11
66.69723071651194
 21
3.715617801549996
 31
0.0
  0
LINE
  5
30D
330
1F
100
AcDbEntity
  8
0
  6
Continuous
 62
     7
100
AcDbLine
 10
62.36754403623894
 20
10.91561780155
 30
0.0
 11
66.39723071651196
 21
10.91561780155
 31
0.0
  0
LINE
  5
30E
330
1F
100
AcDbEntity
  8
0
  6
Continuous
 62
     7
100
AcDbLine
 10
57.82757233714494
 20
-37.83438219844999
 30
0.0
 11
58.12390553812634
 21
-34.44727821218784
 31
0.0
  0
LINE
  5
30F
330
1F
100
AcDbEntity
  8
0
  6
Continuous
 62
     7
100
AcDbLine
 10
-51.55276928348803
 20
36.86561780155
 30
0.0
 11
-51.55276928348803
 21
23.46561780155
 31
0.0
  0
LINE
  5
310
330
1F
100
AcDbEntity
  8
0
  6
Continuous
 62
     7
100
AcDbLine
 10
-50.00276928348813
 20
24.41561780155
 30
0.0
 11
-46.2856904803418
 21
24.41561780155
 31
0.0
  0
LINE
  5
311
330
1F
100
AcDbEntity
  8
0
  6
Continuous
 62
     7
100
AcDbLine
 10
67.94723071651194
 20
11.86561780155
 30
0.0
 11
67.94723071651194
 21
2.465617801549996
 31
0.0
  0
LINE
  5
312
330
1F
100
AcDbEntity
  8
0
  6
Continuous
 62
     7
100
AcDbLine
 10
-15.17242766285511
 20
-36.58438219845
 30
0.0
 11
-10.41445868453337
 21
-36.58438219845
 31
0.0
  0
LINE
  5
313
330
1F
100
AcDbEntity
  8
0
  6
Continuous
 62
     7
100
AcDbLine
 10
61.22213006871715
 20
12.16561780155
 30
0.0
 11
67.64723071651196
 21
12.16561780155
 31
0.0
  0
LINE
  5
314
330
1F
100
AcDbEntity
  8
0
  6
Continuous
 62
     7
100
AcDbLine
 10
57.22123715712488
 20
-30.4226834619967
 30
0.0
 11
60.9232716592897
 21
11.89176452437429
 31
0.0
  0
LINE
  5
315
330
1F
100
AcDbEntity
  8
0
  6
Continuous
 62
     7
100
AcDbLine
 10
61.60201823038705
 20
2.165617801549999
 30
0.0
 11
67.64723071651196
 21
2.165617801549999
 31
0.0
  0
LINE
  5
316
330
1F
100
AcDbEntity
  8
0
  6
Continuous
 62
     7
100
AcDbLine
 10
-28.17242766285503
 20
-37.83438219845
 30
0.0
 11
-16.30273089142139
 21
-37.83438219845
 31
0.0
  0
LINE
  5
317
330
1F
100
AcDbEntity
  8
0
  6
Continuous
 62
     7
100
AcDbLine
 10
-42.04847959908263
 20
28.48947107872569
 30
0.0
 11
-42.36801387144691
 21
32.1417645243743
 31
0.0
  0
LINE
  5
318
330
1F
100
AcDbEntity
  8
0
  6
Continuous
 62
     7
100
AcDbLine
 10
-50.00276928348813
 20
35.91561780155
 30
0.0
 11
-42.97308260321512
 21
35.91561780155
 31
0.0
  0
LINE
  5
319
330
1F
100
AcDbEntity
  8
0
  6
Continuous
 62
     7
100
AcDbLine
 10
-41.7496211896551
 20
28.21561780155
 30
0.0
 11
-41.0971382952518
 21
28.21561780155
 31
0.0
  0
LINE
  5
31A
330
1F
100
AcDbEntity
  8
0
  6
Continuous
 62
     7
100
AcDbLine
 10
-40.79827988582434
 20
28.54176452437427
 30
0.0
 11
-41.52881022626581
 21
36.8917645243743
 31
0.0
  0
LINE
  5
31B
330
1F
100
AcDbEntity
  8
0
  6
Continuous
 62
     7
100
AcDbLine
 10
-50.30276928348803
 20
35.61561780155
 30
0.0
 11
-50.30276928348803
 21
24.71561780155
 31
0.0
  0
LINE
  5
31C
330
1F
100
AcDbEntity
  8
0
  6
Continuous
 62
     7
100
AcDbLine
 10
-44.42862378088662
 20
24.41561780155
 30
0.0
 11
-40.12045441936976
 21
24.41561780155
 31
0.0
  0
LINE
  5
31D
330
1F
100
AcDbEntity
  8
0
  6
Continuous
 62
     7
100
AcDbLine
 10
-42.52986789896987
 20
33.9917645243743
 30
0.0
 11
-42.67422419378764
 21
35.6417645243743
 31
0.0
  0
LINE
  5
31E
330
1F
100
AcDbEntity
  8
0
  6
Continuous
 62
     7
100
AcDbLine
 10
-17.87636288285336
 20
-28.58438219845
 30
0.0
 11
-16.04669173156714
 21
-28.58438219845
 31
0.0
  0
LINE
  5
31F
330
1F
100
AcDbEntity
  8
0
  6
Continuous
 62
     7
100
AcDbLine
 10
-15.92242766285509
 20
-31.07641322012829
 30
0.0
 11
-15.92242766285509
 21
-35.83438219845
 31
0.0
  0
LINE
  5
320
330
1F
100
AcDbEntity
  8
0
  6
Continuous
 62
     7
100
AcDbLine
 10
-15.83455969721109
 20
-28.67225016409404
 30
0.0
 11
-8.01029562849908
 21
-36.49651423280606
 31
0.0
  0
LINE
  5
321
330
1F
100
AcDbEntity
  8
0
  6
Continuous
 62
     7
100
AcDbLine
 10
-7.798163594143205
 20
-36.58438219845
 30
0.0
 11
50.49692294500556
 21
-36.58438219845
 31
0.0
  0
LINE
  5
322
330
1F
100
AcDbEntity
  8
0
  6
Continuous
 62
     7
100
AcDbLine
 10
-15.41029562849917
 20
-30.8642811857723
 30
0.0
 11
-10.20232665017736
 21
-36.0722501640941
 31
0.0
  0
LINE
  5
323
330
1F
100
AcDbEntity
  8
0
  6
Continuous
 62
     7
100
AcDbLine
 10
-44.72748219031413
 20
24.68947107872569
 30
0.0
 11
-45.37489830040597
 21
32.08947107872569
 31
0.0
  0
LINE
  5
324
330
1F
100
AcDbEntity
  8
0
  6
Continuous
 62
     7
100
AcDbLine
 10
-45.07603989097845
 20
33.66561780155
 30
0.0
 11
-42.82872630839736
 21
33.66561780155
 31
0.0
  0
LINE
  5
325
330
1F
100
AcDbEntity
  8
0
  6
Continuous
 62
     7
100
AcDbLine
 10
-45.07603989097845
 20
32.41561780155
 30
0.0
 11
-42.66687228087443
 21
32.41561780155
 31
0.0
  0
LINE
  5
326
330
1F
100
AcDbEntity
  8
0
  6
Continuous
 62
     7
100
AcDbLine
 10
-45.98683207091428
 20
24.74176452437429
 30
0.0
 11
-46.62014167302065
 21
31.98052640029113
 31
0.0
  0
LINE
  5
327
330
1F
100
AcDbEntity
  8
0
  6
Continuous
 62
     7
100
AcDbLine
 10
54.84214677355672
 20
-37.83438219845
 30
0.0
 11
57.82757233714494
 21
-37.83438219845
 31
0.0
  0
LINE
  5
328
330
1F
100
AcDbEntity
  8
0
  6
Continuous
 62
     7
100
AcDbLine
 10
58.46648047096608
 20
-30.53162881221473
 30
0.0
 11
61.3031598209596
 21
1.891764524374305
 31
0.0
  0
LINE
  5
329
330
1F
100
AcDbEntity
  8
0
  6
Continuous
 62
     7
100
AcDbLine
 10
-29.83069925995428
 20
-18.88025111142191
 30
0.0
 11
-31.81084507234336
 21
3.752919091279079
 31
0.0
  0
LINE
  5
32A
330
1F
100
AcDbEntity
  8
0
  6
Continuous
 62
     7
100
AcDbLine
 10
-17.17242766285509
 20
-37.18256314654711
 30
0.0
 11
-17.17242766285509
 21
-37.83438219845
 31
0.0
  0
LINE
  5
32B
330
1F
100
AcDbEntity
  8
0
  6
Continuous
 62
     7
100
AcDbLine
 10
-15.17242766285509
 20
-37.83438219845
 30
0.0
 11
50.49692294500559
 21
-37.83438219845
 31
0.0
  0
ARC
  5
32C
330
1F
100
AcDbEntity
  8
0
  6
Continuous
 62
     7
100
AcDbCircle
 10
-39.02369512706449
 20
22.51706395524987
 30
0.0
 40
0.3
100
AcDbArc
 50
5.000000000000433
 51
75.00000000000429
  0
ARC
  5
32D
330
1F
100
AcDbEntity
  8
0
  6
Continuous
 62
     7
100
AcDbCircle
 10
-37.67785267903153
 20
7.134014382955471
 30
0.0
 40
0.3
100
AcDbArc
 50
255.0000000000043
 51
4.999999999999893
  0
ARC
  5
32E
330
1F
100
AcDbEntity
  8
0
  6
Continuous
 62
     7
100
AcDbCircle
 10
-39.94882024184213
 20
22.76495048265227
 30
0.0
 40
0.3
100
AcDbArc
 50
75.00000000000568
 51
185.0000000000004
  0
ARC
  5
32F
330
1F
100
AcDbEntity
  8
0
  6
Continuous
 62
     7
100
AcDbCircle
 10
-30.94074399424383
 20
4.707645843299844
 30
0.0
 40
0.3
100
AcDbArc
 50
5.000000000000433
 51
75.00000000000568
  0
ARC
  5
330
330
1F
100
AcDbEntity
  8
0
  6
Continuous
 62
     7
100
AcDbCircle
 10
-38.60297779380917
 20
7.381900910357871
 30
0.0
 40
0.3
100
AcDbArc
 50
185.0000000000009
 51
255.0000000000028
  0
ARC
  5
331
330
1F
100
AcDbEntity
  8
0
  6
Continuous
 62
     7
100
AcDbCircle
 10
-41.81469419048827
 20
22.86561780155
 30
0.0
 40
0.3
100
AcDbArc
 50
5.000000000000433
 51
90.00000000000001
  0
ARC
  5
332
330
1F
100
AcDbEntity
  8
0
  6
Continuous
 62
     7
100
AcDbCircle
 10
-32.10970348177082
 20
3.726772368454789
 30
0.0
 40
0.3
100
AcDbArc
 50
5.000000000000433
 51
75.00000000000568
  0
ARC
  5
333
330
1F
100
AcDbEntity
  8
0
  6
Continuous
 62
     7
100
AcDbCircle
 10
-39.77193728133605
 20
6.401027435512844
 30
0.0
 40
0.3
100
AcDbArc
 50
185.0000000000004
 51
255.0000000000057
  0
ARC
  5
334
330
1F
100
AcDbEntity
  8
0
  6
Continuous
 62
     7
100
AcDbCircle
 10
-17.87636288285333
 20
-17.83438219845
 30
0.0
 40
12.0
100
AcDbArc
 50
185.0
 51
270.0
  0
ARC
  5
335
330
1F
100
AcDbEntity
  8
0
  6
Continuous
 62
     7
100
AcDbCircle
 10
-15.17242766285509
 20
-35.83438219845
 30
0.0
 40
0.75
100
AcDbArc
 50
180.0
 51
270.0
  0
ARC
  5
336
330
1F
100
AcDbEntity
  8
0
  6
Continuous
 62
     7
100
AcDbCircle
 10
-51.25276928348808
 20
23.46561780155
 30
0.0
 40
0.3
100
AcDbArc
 50
180.0
 51
270.0
  0
ARC
  5
337
330
1F
100
AcDbEntity
  8
0
  6
Continuous
 62
     7
100
AcDbCircle
 10
-15.17242766285509
 20
-35.83438219845
 30
0.0
 40
2.0
100
AcDbArc
 50
180.0
 51
270.0
  0
ARC
  5
338
330
1F
100
AcDbEntity
  8
0
  6
Continuous
 62
     7
100
AcDbCircle
 10
50.49692294500559
 20
-29.83438219845
 30
0.0
 40
6.75
100
AcDbArc
 50
270.0
 51
355.0000000000001
  0
ARC
  5
339
330
1F
100
AcDbEntity
  8
0
  6
Continuous
 62
     7
100
AcDbCircle
 10
50.49692294500559
 20
-29.83438219845
 30
0.0
 40
8.0
100
AcDbArc
 50
270.0
 51
355.0
  0
ARC
  5
33A
330
1F
100
AcDbEntity
  8
0
  6
Continuous
 62
     7
100
AcDbCircle
 10
-51.25276928348808
 20
36.86561780155
 30
0.0
 40
0.3
100
AcDbArc
 50
90.00000000000001
 51
180.0
  0
ARC
  5
33B
330
1F
100
AcDbEntity
  8
0
  6
Continuous
 62
     7
100
AcDbCircle
 10
61.76387225791004
 20
3.715617801549996
 30
0.0
 40
0.3
100
AcDbArc
 50
174.9999999999996
 51
270.0
  0
ARC
  5
33C
330
1F
100
AcDbEntity
  8
0
  6
Continuous
 62
     7
100
AcDbCircle
 10
66.39723071651198
 20
3.715617801549996
 30
0.0
 40
0.3
100
AcDbArc
 50
270.0
 51
0.0
  0
ARC
  5
33D
330
1F
100
AcDbEntity
  8
0
  6
Continuous
 62
     7
100
AcDbCircle
 10
66.39723071651198
 20
10.61561780155
 30
0.0
 40
0.3
100
AcDbArc
 50
0.0
 51
90.00000000000001
  0
ARC
  5
33E
330
1F
100
AcDbEntity
  8
0
  6
Continuous
 62
     7
100
AcDbCircle
 10
62.36754403623897
 20
10.61561780155
 30
0.0
 40
0.3
100
AcDbArc
 50
90.00000000000001
 51
174.9999999999996
  0
ARC
  5
33F
330
1F
100
AcDbEntity
  8
0
  6
Continuous
 62
     7
100
AcDbCircle
 10
61.60201823038707
 20
1.865617801550002
 30
0.0
 40
0.3
100
AcDbArc
 50
90.00000000000001
 51
174.9999999999996
  0
ARC
  5
340
330
1F
100
AcDbEntity
  8
0
  6
Continuous
 62
     7
100
AcDbCircle
 10
67.64723071651198
 20
2.465617801549996
 30
0.0
 40
0.3
100
AcDbArc
 50
270.0
 51
0.0
  0
ARC
  5
341
330
1F
100
AcDbEntity
  8
0
  6
Continuous
 62
     7
100
AcDbCircle
 10
67.64723071651198
 20
11.86561780155
 30
0.0
 40
0.3
100
AcDbArc
 50
0.0
 51
90.00000000000001
  0
ARC
  5
342
330
1F
100
AcDbEntity
  8
0
  6
Continuous
 62
     7
100
AcDbCircle
 10
61.22213006871718
 20
11.86561780155
 30
0.0
 40
0.3
100
AcDbArc
 50
90.00000000000001
 51
174.9999999999996
  0
ARC
  5
343
330
1F
100
AcDbEntity
  8
0
  6
Continuous
 62
     7
100
AcDbCircle
 10
-50.00276928348808
 20
24.71561780155
 30
0.0
 40
0.3
100
AcDbArc
 50
180.0
 51
270.0
  0
ARC
  5
344
330
1F
100
AcDbEntity
  8
0
  6
Continuous
 62
     7
100
AcDbCircle
 10
-50.00276928348808
 20
35.61561780155
 30
0.0
 40
0.3
100
AcDbArc
 50
90.00000000000001
 51
180.0
  0
ARC
  5
345
330
1F
100
AcDbEntity
  8
0
  6
Continuous
 62
     7
100
AcDbCircle
 10
-42.97308260321509
 20
35.61561780155
 30
0.0
 40
0.3
100
AcDbArc
 50
5.000000000000433
 51
90.00000000000001
  0
ARC
  5
346
330
1F
100
AcDbEntity
  8
0
  6
Continuous
 62
     7
100
AcDbCircle
 10
-41.74962118965507
 20
28.51561780154999
 30
0.0
 40
0.3
100
AcDbArc
 50
185.0000000000004
 51
270.0
  0
ARC
  5
347
330
1F
100
AcDbEntity
  8
0
  6
Continuous
 62
     7
100
AcDbCircle
 10
-41.09713829525177
 20
28.51561780154999
 30
0.0
 40
0.3
100
AcDbArc
 50
270.0
 51
5.000000000000452
  0
ARC
  5
348
330
1F
100
AcDbEntity
  8
0
  6
Continuous
 62
     7
100
AcDbCircle
 10
-44.4286237808866
 20
24.71561780155
 30
0.0
 40
0.3
100
AcDbArc
 50
185.0000000000006
 51
270.0
  0
ARC
  5
349
330
1F
100
AcDbEntity
  8
0
  6
Continuous
 62
     7
100
AcDbCircle
 10
-41.8276686356933
 20
36.86561780155
 30
0.0
 40
0.3
100
AcDbArc
 50
5.000000000000433
 51
90.00000000000001
  0
ARC
  5
34A
330
1F
100
AcDbEntity
  8
0
  6
Continuous
 62
     7
100
AcDbCircle
 10
-42.66687228087437
 20
32.11561780155
 30
0.0
 40
0.3
100
AcDbArc
 50
5.000000000000602
 51
90.00000000000001
  0
ARC
  5
34B
330
1F
100
AcDbEntity
  8
0
  6
Continuous
 62
     7
100
AcDbCircle
 10
-45.07603989097842
 20
32.11561780155
 30
0.0
 40
0.3
100
AcDbArc
 50
90.00000000000001
 51
185.0000000000006
  0
ARC
  5
34C
330
1F
100
AcDbEntity
  8
0
  6
Continuous
 62
     7
100
AcDbCircle
 10
-46.28569048034177
 20
24.71561780155
 30
0.0
 40
0.3
100
AcDbArc
 50
270.0
 51
5.000000000000605
  0
ARC
  5
34D
330
1F
100
AcDbEntity
  8
0
  6
Continuous
 62
     7
100
AcDbCircle
 10
-17.47242766285504
 20
-30.13438219845001
 30
0.0
 40
0.3
100
AcDbArc
 50
0.0
 51
90.00000000000001
  0
ARC
  5
34E
330
1F
100
AcDbEntity
  8
0
  6
Continuous
 62
     7
100
AcDbCircle
 10
-42.82872630839734
 20
33.96561780155
 30
0.0
 40
0.3
100
AcDbArc
 50
270.0
 51
5.000000000000605
  0
ARC
  5
34F
330
1F
100
AcDbEntity
  8
0
  6
Continuous
 62
     7
100
AcDbCircle
 10
-35.77620660976666
 20
6.624469854406129
 30
0.0
 40
0.3
100
AcDbArc
 50
185.0000000000004
 51
255.0000000000057
  0
ARC
  5
350
330
1F
100
AcDbEntity
  8
0
  6
Continuous
 62
     7
100
AcDbCircle
 10
-45.07603989097842
 20
32.11561780155
 30
0.0
 40
1.55
100
AcDbArc
 50
90.00000000000001
 51
184.9999999999999
  0
ARC
  5
351
330
1F
100
AcDbEntity
  8
0
  6
Continuous
 62
     7
100
AcDbCircle
 10
-17.87636288285333
 20
-17.83438219845
 30
0.0
 40
10.75
100
AcDbArc
 50
185.0
 51
270.0
  0
ARC
  5
352
330
1F
100
AcDbEntity
  8
0
  6
Continuous
 62
     7
100
AcDbCircle
 10
-16.04669173156711
 20
-28.88438219845001
 30
0.0
 40
0.3
100
AcDbArc
 50
45.00000000000527
 51
90.00000000000001
  0
ARC
  5
353
330
1F
100
AcDbEntity
  8
0
  6
Continuous
 62
     7
100
AcDbCircle
 10
-10.41445868453334
 20
-36.28438219845
 30
0.0
 40
0.3
100
AcDbArc
 50
270.0
 51
45.0
  0
ARC
  5
354
330
1F
100
AcDbEntity
  8
0
  6
Continuous
 62
     7
100
AcDbCircle
 10
-15.62242766285513
 20
-31.07641322012829
 30
0.0
 40
0.3
100
AcDbArc
 50
45.00000000000527
 51
180.0
  0
ARC
  5
355
330
1F
100
AcDbEntity
  8
0
  6
Continuous
 62
     7
100
AcDbCircle
 10
-7.798163594143176
 20
-36.28438219845
 30
0.0
 40
0.3
100
AcDbArc
 50
225.0
 51
270.0
  0
DIMENSION
  5
356
330
1F
100
AcDbEntity
  8
0
 62
     7
100
AcDbDimension
  2
*D47
 10
-61.55176928348804
 20
-29.83438219845
 30
0.0
 11
-61.55176928348804
 21
-33.83338219845
 31
0.0
 70
   160
 71
     5
 42
8.000000000000002
  3
ISO-25
100
AcDbAlignedDimension
 13
-28.17242766285503
 23
-37.83438219845
 33
0.0
 14
-17.17242766285509
 24
-29.83438219845
 34
0.0
 50
270.0
100
AcDbRotatedDimension
1001
ACAD
1000
DSTYLE
1002
{
1070
   178
1070
     1
1070
   278
1070
    46
1070
   147
1040
0.800000011920929
1070
    77
1070
     1
1070
    74
1070
     0
1070
    73
1070
     0
1070
    42
1040
2.54
1070
    44
1040
2.286000000000001
1070
    76
1070
     0
1070
    75
1070
     1
1070
   279
1070
     0
1070
   271
1070
     0
1070
   144
1040
1.0
1070
   173
1070
     1
1070
    41
1040
3.0
1070
   140
1040
3.200000047683716
1070
   344
1005
D7
1070
   343
1005
D7
1002
}
  0
DIMENSION
  5
362
330
1F
100
AcDbEntity
  8
0
 62
     7
100
AcDbDimension
  2
*D48
 10
-61.55176928348804
 20
6.165617801550001
 30
0.0
 11
-61.55176928348804
 21
-11.83338219845
 31
0.0
 70
   160
 71
     5
 42
35.99999999999999
  3
ISO-25
100
AcDbAlignedDimension
 13
-17.17242766285509
 23
-29.83438219845
 33
0.0
 14
-40.05248755834239
 24
6.165617801549999
 34
0.0
 50
270.0
100
AcDbRotatedDimension
1001
ACAD
1000
DSTYLE
1002
{
1070
   178
1070
     1
1070
   278
1070
    46
1070
   147
1040
0.800000011920929
1070
    77
1070
     1
1070
    74
1070
     0
1070
    73
1070
     0
1070
    42
1040
2.54
1070
    44
1040
2.286000000000001
1070
    76
1070
     0
1070
    75
1070
     1
1070
   279
1070
     0
1070
   271
1070
     0
1070
   144
1040
1.0
1070
   173
1070
     1
1070
    41
1040
3.0
1070
   140
1040
3.200000047683716
1070
   344
1005
D7
1070
   343
1005
D7
1002
}
  0
DIMENSION
  5
36E
330
1F
100
AcDbEntity
  8
0
 62
     7
100
AcDbDimension
  2
*D49
 10
-61.55176928348804
 20
23.16561780155
 30
0.0
 11
-61.55176928348804
 21
14.66661780155
 31
0.0
 70
   160
 71
     5
 42
17.0
  3
ISO-25
100
AcDbAlignedDimension
 13
-40.05248755834239
 23
6.165617801549999
 33
0.0
 14
-51.25276928348813
 24
23.16561780155
 34
0.0
 50
270.0
100
AcDbRotatedDimension
1001
ACAD
1000
DSTYLE
1002
{
1070
   178
1070
     1
1070
   278
1070
    46
1070
   147
1040
0.800000011920929
1070
    77
1070
     1
1070
    74
1070
     0
1070
    73
1070
     0
1070
    42
1040
2.54
1070
    44
1040
2.286000000000001
1070
    76
1070
     0
1070
    75
1070
     1
1070
   279
1070
     0
1070
   271
1070
     0
1070
   144
1040
1.0
1070
   173
1070
     1
1070
    41
1040
3.0
1070
   140
1040
3.200000047683716
1070
   344
1005
D7
1070
   343
1005
D7
1002
}
  0
DIMENSION
  5
37A
330
1F
100
AcDbEntity
  8
0
 62
     7
100
AcDbDimension
  2
*D50
 10
-61.55176928348804
 20
37.16561780155001
 30
0.0
 11
-61.55176928348804
 21
30.16661780155
 31
0.0
 70
   160
 71
     5
 42
14.0
  3
ISO-25
100
AcDbAlignedDimension
 13
-51.25276928348813
 23
23.16561780155
 33
0.0
 14
-51.25276928348813
 24
37.16561780155
 34
0.0
 50
270.0
100
AcDbRotatedDimension
1001
ACAD
1000
DSTYLE
1002
{
1070
   178
1070
     1
1070
   278
1070
    46
1070
   147
1040
0.800000011920929
1070
    77
1070
     1
1070
    74
1070
     0
1070
    73
1070
     0
1070
    42
1040
2.54
1070
    44
1040
2.286000000000001
1070
    76
1070
     1
1070
    75
1070
     1
1070
   279
1070
     0
1070
   271
1070
     0
1070
   144
1040
1.0
1070
   173
1070
     1
1070
    41
1040
3.0
1070
   140
1040
3.200000047683716
1070
   344
1005
D7
1070
   343
1005
D7
1002
}
  0
DIMENSION
  5
385
330
1F
100
AcDbEntity
  8
0
 62
     7
100
AcDbDimension
  2
*D51
 10
-71.55076928348801
 20
-37.83438219845003
 30
0.0
 11
-71.55076928348802
 21
-0.333382198450001
 31
0.0
 70
   160
 71
     5
 42
75.0
  3
ISO-25
100
AcDbAlignedDimension
 13
-51.25276928348813
 23
37.16561780155
 33
0.0
 14
-28.17242766285503
 24
-37.83438219845
 34
0.0
 50
90.00000000000001
100
AcDbRotatedDimension
1001
ACAD
1000
DSTYLE
1002
{
1070
   178
1070
     1
1070
   278
1070
    46
1070
   147
1040
0.800000011920929
1070
    77
1070
     1
1070
    74
1070
     0
1070
    73
1070
     0
1070
    42
1040
2.54
1070
    44
1040
2.286000000000001
1070
    76
1070
     0
1070
    75
1070
     0
1070
   279
1070
     0
1070
   271
1070
     0
1070
   144
1040
1.0
1070
   173
1070
     1
1070
    41
1040
3.0
1070
   140
1040
3.200000047683716
1070
   344
1005
D7
1070
   343
1005
D7
1002
}
  0
DIMENSION
  5
392
330
1F
100
AcDbEntity
  8
0
 62
     7
100
AcDbDimension
  2
*D52
 10
-41.55276928348809
 20
47.16561780155
 30
0.0
 11
-46.55176928348806
 21
47.16561780155
 31
0.0
 70
   160
 71
     5
 42
9.999999999999943
  3
ISO-25
100
AcDbAlignedDimension
 13
-51.55276928348803
 23
37.16561780155
 33
0.0
 14
-41.55276928348809
 24
37.16561780155
 34
0.0
 50
180.0
100
AcDbRotatedDimension
1001
ACAD
1000
DSTYLE
1002
{
1070
   178
1070
     1
1070
   278
1070
    46
1070
   147
1040
0.800000011920929
1070
    77
1070
     1
1070
    74
1070
     0
1070
    73
1070
     0
1070
    42
1040
2.54
1070
    44
1040
2.286000000000001
1070
    76
1070
     0
1070
    75
1070
     1
1070
   279
1070
     0
1070
   271
1070
     0
1070
   144
1040
1.0
1070
   173
1070
     1
1070
    41
1040
3.0
1070
   140
1040
3.200000047683716
1070
   344
1005
D7
1070
   343
1005
D7
1002
}
  0
DIMENSION
  5
39E
330
1F
100
AcDbEntity
  8
0
 62
     7
100
AcDbDimension
  2
*D53
 10
67.94723071651194
 20
57.16561780154999
 30
0.0
 11
8.198230716511967
 21
57.16561780155
 31
0.0
 70
   160
  1
(<>)
 71
     5
 42
119.5
  3
ISO-25
100
AcDbAlignedDimension
 13
-51.55276928348803
 23
37.16561780155
 33
0.0
 14
67.94723071651194
 24
12.16561780155
 34
0.0
 50
180.0
100
AcDbRotatedDimension
1001
ACAD
1000
DSTYLE
1002
{
1070
   178
1070
     1
1070
   278
1070
    46
1070
   147
1040
0.800000011920929
1070
    77
1070
     1
1070
    74
1070
     0
1070
    73
1070
     0
1070
    42
1040
2.54
1070
    44
1040
2.286000000000001
1070
    76
1070
     0
1070
    75
1070
     0
1070
   279
1070
     0
1070
   271
1070
     0
1070
   144
1040
1.0
1070
   173
1070
     1
1070
    41
1040
3.0
1070
   140
1040
3.200000047683716
1070
   344
1005
D7
1070
   343
1005
D7
1002
}
  0
DIMENSION
  5
3AB
330
1F
100
AcDbEntity
  8
0
 62
     7
100
AcDbDimension
  2
*D54
 10
67.94723071651194
 20
22.16561780155
 30
0.0
 11
64.44823071651197
 21
22.16561780155
 31
0.0
 70
   160
 71
     5
 42
6.999999999999972
  3
ISO-25
100
AcDbAlignedDimension
 13
60.94723071651197
 23
12.16561780155
 33
0.0
 14
67.94723071651194
 24
12.16561780155
 34
0.0
 50
180.0
100
AcDbRotatedDimension
1001
ACAD
1000
DSTYLE
1002
{
1070
   178
1070
     1
1070
   278
1070
    46
1070
   147
1040
0.800000011920929
1070
    77
1070
     1
1070
    74
1070
     0
1070
    73
1070
     0
1070
    42
1040
2.54
1070
    44
1040
2.286000000000001
1070
    76
1070
     1
1070
    75
1070
     0
1070
   279
1070
     0
1070
   271
1070
     0
1070
   144
1040
1.0
1070
   173
1070
     1
1070
    41
1040
3.0
1070
   140
1040
3.200000047683716
1070
   344
1005
D7
1070
   343
1005
D7
1002
}
  0
DIMENSION
  5
3BF
330
1F
100
AcDbEntity
  8
0
 62
     7
100
AcDbDimension
  2
*D55
 10
77.94823071651194
 20
2.165617801550002
 30
0.0
 11
77.94823071651194
 21
7.166617801549999
 31
0.0
 70
   160
 71
     5
 42
10.0
  3
ISO-25
100
AcDbAlignedDimension
 13
67.94723071651194
 23
12.16561780155
 33
0.0
 14
67.64723071651196
 24
2.165617801549999
 34
0.0
 50
90.00000000000001
100
AcDbRotatedDimension
1001
ACAD
1000
DSTYLE
1002
{
1070
   178
1070
     1
1070
   278
1070
    46
1070
   147
1040
0.800000011920929
1070
    77
1070
     1
1070
    74
1070
     0
1070
    73
1070
     0
1070
    42
1040
2.54
1070
    44
1040
2.286000000000001
1070
    76
1070
     0
1070
    75
1070
     1
1070
   279
1070
     0
1070
   271
1070
     0
1070
   144
1040
1.0
1070
   173
1070
     1
1070
    41
1040
3.0
1070
   140
1040
3.200000047683716
1070
   344
1005
D7
1070
   343
1005
D7
1002
}
  0
DIMENSION
  5
3CB
330
1F
100
AcDbEntity
  8
0
 62
     7
100
AcDbDimension
  2
*D56
 10
77.94823071651196
 20
-37.83438219845
 30
0.0
 11
77.94823071651194
 21
-17.83338219845
 31
0.0
 70
   160
 71
     5
 42
39.99999999999999
  3
ISO-25
100
AcDbAlignedDimension
 13
67.64723071651196
 23
2.165617801549999
 33
0.0
 14
57.82757233714494
 24
-37.83438219845
 34
0.0
 50
90.00000000000001
100
AcDbRotatedDimension
1001
ACAD
1000
DSTYLE
1002
{
1070
   178
1070
     1
1070
   278
1070
    46
1070
   147
1040
0.800000011920929
1070
    77
1070
     1
1070
    74
1070
     0
1070
    73
1070
     0
1070
    42
1040
2.54
1070
    44
1040
2.286000000000001
1070
    76
1070
     1
1070
    75
1070
     1
1070
   279
1070
     0
1070
   271
1070
     0
1070
   144
1040
1.0
1070
   173
1070
     1
1070
    41
1040
3.0
1070
   140
1040
3.200000047683716
1070
   344
1005
D7
1070
   343
1005
D7
1002
}
  0
DIMENSION
  5
3D6
330
1F
100
AcDbEntity
  8
0
 62
     7
100
AcDbDimension
  2
*D57
 10
87.94723071651194
 20
12.16561780154999
 30
0.0
 11
87.94723071651194
 21
-12.83338219845
 31
0.0
 70
   160
 71
     5
 42
50.0
  3
ISO-25
100
AcDbAlignedDimension
 13
57.82757233714494
 23
-37.83438219845
 33
0.0
 14
67.94723071651194
 24
12.16561780155
 34
0.0
 50
270.0
100
AcDbRotatedDimension
1001
ACAD
1000
DSTYLE
1002
{
1070
   178
1070
     1
1070
   278
1070
    46
1070
   147
1040
0.800000011920929
1070
    77
1070
     1
1070
    74
1070
     0
1070
    73
1070
     0
1070
    42
1040
2.54
1070
    44
1040
2.286000000000001
1070
    76
1070
     0
1070
    75
1070
     0
1070
   279
1070
     0
1070
   271
1070
     0
1070
   144
1040
1.0
1070
   173
1070
     1
1070
    41
1040
3.0
1070
   140
1040
3.200000047683716
1070
   344
1005
D7
1070
   343
1005
D7
1002
}
  0
DIMENSION
  5
3E3
330
1F
100
AcDbEntity
  8
0
 62
     7
100
AcDbDimension
  2
*D58
 10
-17.17242766285509
 20
-47.83338219845
 30
0.0
 11
-22.67142766285506
 21
-47.83338219845
 31
0.0
 70
   160
 71
     5
 42
10.99999999999994
  3
ISO-25
100
AcDbAlignedDimension
 13
-28.17242766285503
 23
-37.83438219845
 33
0.0
 14
-17.17242766285509
 24
-37.83438219845
 34
0.0
 50
180.0
100
AcDbRotatedDimension
1001
ACAD
1000
DSTYLE
1002
{
1070
   178
1070
     1
1070
   278
1070
    46
1070
   147
1040
0.800000011920929
1070
    77
1070
     1
1070
    74
1070
     0
1070
    73
1070
     0
1070
    42
1040
2.54
1070
    44
1040
2.286000000000001
1070
    76
1070
     0
1070
    75
1070
     1
1070
   279
1070
     0
1070
   271
1070
     0
1070
   144
1040
1.0
1070
   173
1070
     1
1070
    41
1040
3.0
1070
   140
1040
3.200000047683716
1070
   344
1005
D7
1070
   343
1005
D7
1002
}
  0
DIMENSION
  5
3EF
330
1F
100
AcDbEntity
  8
0
 62
     7
100
AcDbDimension
  2
*D59
 10
57.82757233714494
 20
-47.83338219845
 30
0.0
 11
20.32857233714494
 21
-47.83338219845
 31
0.0
 70
   160
 71
     5
 42
75.00000000000003
  3
ISO-25
100
AcDbAlignedDimension
 13
-17.17242766285509
 23
-37.83438219845
 33
0.0
 14
57.82757233714494
 24
-37.83438219845
 34
0.0
 50
180.0
100
AcDbRotatedDimension
1001
ACAD
1000
DSTYLE
1002
{
1070
   178
1070
     1
1070
   278
1070
    46
1070
   147
1040
0.800000011920929
1070
    77
1070
     1
1070
    74
1070
     0
1070
    73
1070
     0
1070
    42
1040
2.54
1070
    44
1040
2.286000000000001
1070
    76
1070
     1
1070
    75
1070
     1
1070
   279
1070
     0
1070
   271
1070
     0
1070
   144
1040
1.0
1070
   173
1070
     1
1070
    41
1040
3.0
1070
   140
1040
3.200000047683716
1070
   344
1005
D7
1070
   343
1005
D7
1002
}
  0
DIMENSION
  5
3FA
330
1F
100
AcDbEntity
  8
0
 62
     7
100
AcDbDimension
  2
*D60
 10
-28.17242766285502
 20
-57.83338219845
 30
0.0
 11
14.82957233714494
 21
-57.83338219845
 31
0.0
 70
   160
 71
     5
 42
85.99999999999997
  3
ISO-25
100
AcDbAlignedDimension
 13
57.82757233714494
 23
-37.83438219845
 33
0.0
 14
-28.17242766285503
 24
-37.83438219845
 34
0.0
100
AcDbRotatedDimension
1001
ACAD
1000
DSTYLE
1002
{
1070
   178
1070
     1
1070
   278
1070
    46
1070
   147
1040
0.800000011920929
1070
    77
1070
     1
1070
    74
1070
     0
1070
    73
1070
     0
1070
    42
1040
2.54
1070
    44
1040
2.286000000000001
1070
    76
1070
     0
1070
    75
1070
     0
1070
   279
1070
     0
1070
   271
1070
     0
1070
   144
1040
1.0
1070
   173
1070
     1
1070
    41
1040
3.0
1070
   140
1040
3.200000047683716
1070
   344
1005
D7
1070
   343
1005
D7
1002
}
  0
DIMENSION
  5
407
330
1F
100
AcDbEntity
  8
0
 62
     7
100
AcDbDimension
  2
*D61
 10
2.874409889196893
 20
-36.58438219845
 30
0.0
 11
2.874409889196893
 21
-25.05958211612407
 31
0.0
 70
   161
 71
     5
 42
1.25
  3
ISO-25
100
AcDbAlignedDimension
 13
-7.126590110803107
 23
-37.83438219845
 33
0.0
 14
-7.126590110803107
 24
-36.58438219845
 34
0.0
1001
ACAD
1000
DSTYLE
1002
{
1070
   178
1070
     1
1070
   278
1070
    46
1070
   147
1040
0.800000011920929
1070
    77
1070
     1
1070
    74
1070
     0
1070
    73
1070
     0
1070
    42
1040
2.54
1070
    44
1040
0.0
1070
    76
1070
     1
1070
    75
1070
     1
1070
   279
1070
     0
1070
   271
1070
     2
1070
   144
1040
1.0
1070
   173
1070
     1
1070
    41
1040
3.0
1070
   140
1040
3.200000047683716
1070
   344
1005
D7
1070
   343
1005
D7
1002
}
  0
POINT
  5
41C
330
1F
100
AcDbEntity
  8
VIEW0001
 62
     7
100
AcDbPoint
 10
105.0
 20
-148.5
 30
0.0
  0
LWPOLYLINE
  5
41D
330
1F
100
AcDbEntity
  8
VIEW0001
  6
Continuous
 62
     7
100
AcDbPolyline
 90
        2
 70
     0
 10
81.0
 20
-129.0
 40
0.001000000047497
 41
0.001000000047497
 10
81.0
 20
-120.0
 40
0.001000000047497
 41
0.001000000047497
  0
LWPOLYLINE
  5
41E
330
1F
100
AcDbEntity
  8
VIEW0001
  6
Continuous
 62
     7
100
AcDbPolyline
 90
        2
 70
     0
 10
66.0
 20
-129.0
 40
0.001000000047497
 41
0.001000000047497
 10
66.0
 20
-120.0
 40
0.001000000047497
 41
0.001000000047497
  0
LWPOLYLINE
  5
41F
330
1F
100
AcDbEntity
  8
VIEW0001
  6
Continuous
 62
     7
100
AcDbPolyline
 90
        2
 70
     0
 10
5.75
 20
-138.0
 40
0.001000000047497
 41
0.001000000047497
 10
5.75
 20
-120.0
 40
0.001000000047497
 41
0.001000000047497
  0
LINE
  5
420
330
1F
100
AcDbEntity
  8
VIEW0001
  6
Continuous
 62
     7
370
    20
100
AcDbLine
 10
41.0
 20
138.0
 30
0.0
 11
41.0
 21
128.0
 31
0.0
  0
LINE
  5
421
330
1F
100
AcDbEntity
  8
VIEW0001
  6
Continuous
 62
     7
370
    20
100
AcDbLine
 10
41.0
 20
128.0
 30
0.0
 11
96.0
 21
128.0
 31
0.0
  0
LWPOLYLINE
  5
422
330
1F
100
AcDbEntity
  8
VIEW0001
  6
Continuous
 62
     7
100
AcDbPolyline
 90
        2
 70
     0
 10
96.0
 20
-129.0
 40
0.001000000047497
 41
0.001000000047497
 10
-84.5
 20
-129.0
 40
0.001000000047497
 41
0.001000000047497
  0
LINE
  5
423
330
1F
100
AcDbEntity
  8
VIEW0001
  6
Continuous
 62
     7
370
    20
100
AcDbLine
 10
-84.5
 20
-120.0
 30
0.0
 11
96.0
 21
-120.0
 31
0.0
  0
LINE
  5
424
330
1F
100
AcDbEntity
  8
VIEW0001
  6
Continuous
 62
     7
370
    50
100
AcDbLine
 10
-84.5
 20
138.0
 30
0.0
 11
96.0
 21
138.0
 31
0.0
  0
LINE
  5
425
330
1F
100
AcDbEntity
  8
VIEW0001
  6
Continuous
 62
     7
370
    50
100
AcDbLine
 10
-84.5
 20
-138.0
 30
0.0
 11
96.0
 21
-138.0
 31
0.0
  0
LINE
  5
426
330
1F
100
AcDbEntity
  8
VIEW0001
  6
Continuous
 62
     7
370
    50
100
AcDbLine
 10
96.0
 20
138.0
 30
0.0
 11
96.0
 21
-138.0
 31
0.0
  0
LINE
  5
427
330
1F
100
AcDbEntity
  8
VIEW0001
  6
Continuous
 62
     7
370
    50
100
AcDbLine
 10
-84.5
 20
138.0
 30
0.0
 11
-84.5
 21
-138.0
 31
0.0
  0
LWPOLYLINE
  5
428
330
1F
100
AcDbEntity
  8
VIEW0001
  6
Continuous
 62
     7
100
AcDbPolyline
 90
        2
 70
     0
 10
-64.5
 20
-138.0
 40
0.001000000047497
 41
0.001000000047497
 10
-64.5
 20
-120.0
 40
0.001000000047497
 41
0.001000000047497
  0
LWPOLYLINE
  5
429
330
1F
100
AcDbEntity
  8
VIEW0001
  6
Continuous
 62
     7
100
AcDbPolyline
 90
        2
 70
     0
 10
25.75
 20
-129.0
 40
0.001000000047497
 41
0.001000000047497
 10
25.75
 20
-120.0
 40
0.001000000047497
 41
0.001000000047497
  0
MTEXT
  5
42A
330
1F
100
AcDbEntity
  8
VIEW0001
 62
     1
100
AcDbMText
 10
-77.92875003814697
 20
-135.5
 30
0.0
 40
4.0
 41
0.0
 71
     7
 72
     1
  1
{\W0.833333;規格}
 73
     1
 44
1.0
  0
MTEXT
  5
42B
330
1F
100
AcDbEntity
  8
VIEW0001
 62
     1
100
AcDbMText
 10
12.32124996185303
 20
-126.5
 30
0.0
 40
4.0
 41
0.0
 71
     7
 72
     1
  1
{\W0.833333;材質}
 73
     1
 44
1.0
  0
MTEXT
  5
42C
330
1F
100
AcDbEntity
  8
VIEW0001
 62
     1
100
AcDbMText
 10
-77.92875003814697
 20
-126.5
 30
0.0
 40
4.0
 41
0.0
 71
     7
 72
     1
  1
{\W0.833333;品名}
 73
     1
 44
1.0
  0
MTEXT
  5
42D
330
1F
100
AcDbEntity
  8
VIEW0001
 62
     1
100
AcDbMText
 10
70.07124996185303
 20
-126.5
 30
0.0
 40
4.0
 41
0.0
 71
     7
 72
     1
  1
{\W0.833333;尺度}
 73
     1
 44
1.0
  0
MTEXT
  5
42E
330
1F
100
AcDbEntity
  8
VIEW0001
 62
     1
100
AcDbMText
 10
-36.80375021696091
 20
-135.5
 30
0.0
 40
4.0
 41
0.0
 71
     7
 72
     1
  1
{\W0.833333;ＤＬ55}
 73
     1
 44
1.0
  0
MTEXT
  5
42F
330
1F
100
AcDbEntity
  8
VIEW0001
 62
     1
100
AcDbMText
 10
36.44624972343445
 20
-126.5
 30
0.0
 40
4.0
 41
0.0
 71
     7
 72
     1
  1
{\W0.833333;硬質ＰＶＣ}
 73
     1
 44
1.0
  0
MTEXT
  5
430
330
1F
100
AcDbEntity
  8
VIEW0001
 62
     1
100
AcDbMText
 10
26.46785604953766
 20
-135.75
 30
0.0
 40
4.5
 41
0.0
 71
     7
 72
     1
  1
{\W1.40741;デンカ株式会社}
 73
     1
 44
1.0
  0
MTEXT
  5
431
330
1F
100
AcDbEntity
  8
VIEW0001
 62
     1
100
AcDbMText
 10
-34.80375063419342
 20
-126.5
 30
0.0
 40
4.0
 41
0.0
 71
     7
 72
     1
  1
{\W0.833333;軒どい}
 73
     1
 44
1.0
  0
MTEXT
  5
432
330
1F
100
AcDbEntity
  8
VIEW0001
 62
     1
100
AcDbMText
 10
83.07124984264374
 20
-126.5
 30
0.0
 40
4.0
 41
0.0
 71
     7
 72
     1
  1
{\W0.833333;1/1}
 73
     1
 44
1.0
  0
ENDSEC
  0
SECTION
  2
OBJECTS
  0
DICTIONARY
  5
C
330
0
100
AcDbDictionary
281
     1
  3
ACAD_GROUP
350
D
  3
ACAD_LAYOUT
350
1A
  3
ACAD_MATERIAL
350
3B
  3
ACAD_MLEADERSTYLE
350
45A
  3
ACAD_MLINESTYLE
350
17
  3
ACAD_PLOTSETTINGS
350
19
  3
ACAD_PLOTSTYLENAME
350
E
  3
ACAD_TABLESTYLE
350
459
  3
ACAD_VISUALSTYLE
350
2A
  0
DICTIONARY
  5
D
102
{ACAD_REACTORS
330
C
102
}
330
C
100
AcDbDictionary
281
     1
  0
DICTIONARY
  5
1A
102
{ACAD_REACTORS
330
C
102
}
330
C
100
AcDbDictionary
281
     1
  3
Layout1
350
1E
  3
Layout2
350
26
  3
Model
350
22
  0
DICTIONARY
  5
3B
102
{ACAD_REACTORS
330
C
102
}
330
C
100
AcDbDictionary
281
     1
  3
ByBlock
350
3D
  3
ByLayer
350
3C
  3
Global
350
3E
  0
DICTIONARY
  5
45A
102
{ACAD_REACTORS
330
C
102
}
330
C
100
AcDbDictionary
281
     1
  0
DICTIONARY
  5
17
102
{ACAD_REACTORS
330
C
102
}
330
C
100
AcDbDictionary
281
     1
  3
Standard
350
18
  0
DICTIONARY
  5
19
102
{ACAD_REACTORS
330
C
102
}
330
C
100
AcDbDictionary
281
     1
  0
ACDBDICTIONARYWDFLT
  5
E
102
{ACAD_REACTORS
330
C
102
}
330
C
100
AcDbDictionary
281
     1
  3
Normal
350
F
100
AcDbDictionaryWithDefault
340
F
  0
DICTIONARY
  5
459
102
{ACAD_REACTORS
330
C
102
}
330
C
100
AcDbDictionary
281
     1
  0
DICTIONARY
  5
2A
102
{ACAD_REACTORS
330
C
102
}
330
C
100
AcDbDictionary
281
     1
  3
2dWireframe
350
2F
  3
3D Hidden
350
31
  3
3dWireframe
350
30
  3
Basic
350
32
  3
Brighten
350
36
  3
ColorChange
350
3A
  3
Conceptual
350
34
  3
Dim
350
35
  3
Facepattern
350
39
  3
Flat
350
2B
  3
FlatWithEdges
350
2C
  3
Gouraud
350
2D
  3
GouraudWithEdges
350
2E
  3
Linepattern
350
38
  3
Realistic
350
33
  3
Thicken
350
37
  0
LAYOUT
  5
1E
102
{ACAD_REACTORS
330
1A
102
}
330
1A
100
AcDbPlotSettings
  1

  2
none_device
  4

  6

 40
0.0
 41
0.0
 42
0.0
 43
0.0
 44
0.0
 45
0.0
 46
0.0
 47
0.0
 48
0.0
 49
0.0
140
0.0
141
0.0
142
1.0
143
1.0
 70
   688
 72
     0
 73
     0
 74
     5
  7

 75
    16
 76
     0
 77
     2
 78
   300
147
1.0
148
0.0
149
0.0
100
AcDbLayout
  1
Layout1
 70
     1
 71
     1
 10
-105.0
 20
-148.5
 11
105.0
 21
148.5
 12
0.0
 22
0.0
 32
0.0
 14
1.000000000000000E+20
 24
1.000000000000000E+20
 34
1.000000000000000E+20
 15
-1.000000000000000E+20
 25
-1.000000000000000E+20
 35
-1.000000000000000E+20
146
0.0
 13
0.0
 23
0.0
 33
0.0
 16
1.0
 26
0.0
 36
0.0
 17
0.0
 27
1.0
 37
0.0
 76
     0
330
1B
  0
LAYOUT
  5
26
102
{ACAD_REACTORS
330
1A
102
}
330
1A
100
AcDbPlotSettings
  1

  2
none_device
  4

  6

 40
0.0
 41
0.0
 42
0.0
 43
0.0
 44
0.0
 45
0.0
 46
0.0
 47
0.0
 48
0.0
 49
0.0
140
0.0
141
0.0
142
1.0
143
1.0
 70
   688
 72
     0
 73
     0
 74
     5
  7

 75
    16
 76
     0
 77
     2
 78
   300
147
1.0
148
0.0
149
0.0
100
AcDbLayout
  1
Layout2
 70
     1
 71
     2
 10
0.0
 20
0.0
 11
0.0
 21
0.0
 12
0.0
 22
0.0
 32
0.0
 14
0.0
 24
0.0
 34
0.0
 15
0.0
 25
0.0
 35
0.0
146
0.0
 13
0.0
 23
0.0
 33
0.0
 16
1.0
 26
0.0
 36
0.0
 17
0.0
 27
1.0
 37
0.0
 76
     0
330
23
  0
LAYOUT
  5
22
102
{ACAD_REACTORS
330
1A
102
}
330
1A
100
AcDbPlotSettings
  1

  2
none_device
  4

  6

 40
0.0
 41
0.0
 42
0.0
 43
0.0
 44
0.0
 45
0.0
 46
0.0
 47
0.0
 48
0.0
 49
0.0
140
0.0
141
0.0
142
1.0
143
1.0
 70
  1712
 72
     0
 73
     0
 74
     0
  7

 75
     0
 76
     0
 77
     2
 78
   300
147
1.0
148
0.0
149
0.0
100
AcDbLayout
  1
Model
 70
     1
 71
     0
 10
-105.0
 20
-148.5
 11
105.0
 21
148.5
 12
0.0
 22
0.0
 32
0.0
 14
-105.0
 24
-148.5
 34
0.0
 15
105.0
 25
148.5
 35
0.0
146
0.0
 13
0.0
 23
0.0
 33
0.0
 16
1.0
 26
0.0
 36
0.0
 17
0.0
 27
1.0
 37
0.0
 76
     0
330
1F
331
29
  0
MATERIAL
  5
3D
102
{ACAD_REACTORS
330
3B
102
}
102
{ACAD_XDICTIONARY
360
455
102
}
330
3B
100
AcDbMaterial
  1
ByBlock
  0
MATERIAL
  5
3C
102
{ACAD_REACTORS
330
3B
102
}
102
{ACAD_XDICTIONARY
360
453
102
}
330
3B
100
AcDbMaterial
  1
ByLayer
  0
MATERIAL
  5
3E
102
{ACAD_REACTORS
330
3B
102
}
102
{ACAD_XDICTIONARY
360
457
102
}
330
3B
100
AcDbMaterial
  1
Global
  0
MLINESTYLE
  5
18
102
{ACAD_REACTORS
330
17
102
}
330
17
100
AcDbMlineStyle
  2
Standard
 70
     0
  3

 62
   256
 51
90.0
 52
90.0
 71
     2
 49
0.5
 62
   256
  6
BYLAYER
 49
-0.5
 62
   256
  6
BYLAYER
  0
ACDBPLACEHOLDER
  5
F
102
{ACAD_REACTORS
330
E
102
}
330
E
  0
VISUALSTYLE
  5
2F
102
{ACAD_REACTORS
330
2A
102
}
102
{ACAD_XDICTIONARY
360
43B
102
}
330
2A
100
AcDbVisualStyle
  2
2dWireframe
 70
     4
 71
     0
 72
     2
 73
     0
 90
        0
 40
-0.6
 41
-30.0
 62
     5
 63
     7
421
 16777215
 74
     1
 91
        4
 64
     7
 65
   257
 75
     1
175
     1
 42
1.0
 92
        0
 66
   257
 43
1.0
 76
     1
 77
     6
 78
     2
 67
     7
 79
     5
170
     0
171
     0
290
     0
174
     0
 93
        1
 44
0.0
173
     0
291
     0
 45
0.0
1001
ACAD
1000
AcDbSavedByObjectVersion
1070
     0
  0
VISUALSTYLE
  5
31
102
{ACAD_REACTORS
330
2A
102
}
102
{ACAD_XDICTIONARY
360
43F
102
}
330
2A
100
AcDbVisualStyle
  2
3D Hidden
 70
     6
 71
     1
 72
     2
 73
     2
 90
        0
 40
-0.6
 41
-30.0
 62
     5
 63
     7
421
 16777215
 74
     2
 91
        2
 64
     7
 65
   257
 75
     2
175
     1
 42
40.0
 92
        0
 66
   257
 43
1.0
 76
     1
 77
     6
 78
     2
 67
     7
 79
     3
170
     0
171
     0
290
     0
174
     0
 93
        1
 44
0.0
173
     0
291
     0
 45
0.0
1001
ACAD
1000
AcDbSavedByObjectVersion
1070
     0
  0
VISUALSTYLE
  5
30
102
{ACAD_REACTORS
330
2A
102
}
102
{ACAD_XDICTIONARY
360
43D
102
}
330
2A
100
AcDbVisualStyle
  2
3dWireframe
 70
     5
 71
     0
 72
     2
 73
     0
 90
        0
 40
-0.6
 41
-30.0
 62
     5
 63
     7
421
 16777215
 74
     1
 91
        4
 64
     7
 65
   257
 75
     1
175
     1
 42
1.0
 92
        0
 66
   257
 43
1.0
 76
     1
 77
     6
 78
     2
 67
     7
 79
     5
170
     0
171
     0
290
     0
174
     0
 93
        1
 44
0.0
173
     0
291
     0
 45
0.0
1001
ACAD
1000
AcDbSavedByObjectVersion
1070
     0
  0
VISUALSTYLE
  5
32
102
{ACAD_REACTORS
330
2A
102
}
102
{ACAD_XDICTIONARY
360
441
102
}
330
2A
100
AcDbVisualStyle
  2
Basic
 70
     7
 71
     1
 72
     0
 73
     1
 90
        0
 40
-0.6
 41
-30.0
 62
     5
 63
     7
421
 16777215
 74
     0
 91
        4
 64
     7
 65
   257
 75
     1
175
     1
 42
1.0
 92
        8
 66
     7
 43
1.0
 76
     1
 77
     6
 78
     2
 67
     7
 79
     5
170
     0
171
     0
290
     0
174
     0
 93
        1
 44
0.0
173
     0
291
     1
 45
0.0
1001
ACAD
1000
AcDbSavedByObjectVersion
1070
     0
  0
VISUALSTYLE
  5
36
102
{ACAD_REACTORS
330
2A
102
}
102
{ACAD_XDICTIONARY
360
449
102
}
330
2A
100
AcDbVisualStyle
  2
Brighten
 70
    12
 71
     2
 72
     2
 73
     0
 90
        0
 40
-0.6
 41
-30.0
 62
     5
 63
     7
421
 16777215
 74
     1
 91
        4
 64
     7
 65
   257
 75
     1
175
     1
 42
1.0
 92
        8
 66
     7
 43
1.0
 76
     1
 77
     6
 78
     2
 67
     7
 79
     5
170
     0
171
     0
290
     0
174
     0
 93
        1
 44
50.0
173
     0
291
     1
 45
0.0
1001
ACAD
1000
AcDbSavedByObjectVersion
1070
     0
  0
VISUALSTYLE
  5
3A
102
{ACAD_REACTORS
330
2A
102
}
102
{ACAD_XDICTIONARY
360
451
102
}
330
2A
100
AcDbVisualStyle
  2
ColorChange
 70
    16
 71
     2
 72
     2
 73
     3
 90
        0
 40
-0.6
 41
-30.0
 62
     5
 63
     8
421
  8421504
 74
     1
 91
        4
 64
     7
 65
   257
 75
     1
175
     1
 42
1.0
 92
        8
 66
     8
424
  8421504
 43
1.0
 76
     1
 77
     6
 78
     2
 67
     7
 79
     5
170
     0
171
     0
290
     0
174
     0
 93
        1
 44
0.0
173
     0
291
     1
 45
0.0
1001
ACAD
1000
AcDbSavedByObjectVersion
1070
     0
  0
VISUALSTYLE
  5
34
102
{ACAD_REACTORS
330
2A
102
}
102
{ACAD_XDICTIONARY
360
445
102
}
330
2A
100
AcDbVisualStyle
  2
Conceptual
 70
     9
 71
     3
 72
     2
 73
     0
 90
        0
 40
-0.6
 41
-30.0
 62
     5
 63
     7
421
 16777215
 74
     2
 91
        2
 64
     7
 65
   257
 75
     1
175
     1
 42
40.0
 92
        8
 66
     7
 43
1.0
 76
     1
 77
     6
 78
     2
 67
     7
 79
     3
170
     0
171
     0
290
     0
174
     0
 93
        1
 44
0.0
173
     0
291
     0
 45
0.0
1001
ACAD
1000
AcDbSavedByObjectVersion
1070
     0
  0
VISUALSTYLE
  5
35
102
{ACAD_REACTORS
330
2A
102
}
102
{ACAD_XDICTIONARY
360
447
102
}
330
2A
100
AcDbVisualStyle
  2
Dim
 70
    11
 71
     2
 72
     2
 73
     0
 90
        0
 40
-0.6
 41
-30.0
 62
     5
 63
     7
421
 16777215
 74
     1
 91
        4
 64
     7
 65
   257
 75
     1
175
     1
 42
1.0
 92
        8
 66
     7
 43
1.0
 76
     1
 77
     6
 78
     2
 67
     7
 79
     5
170
     0
171
     0
290
     0
174
     0
 93
        1
 44
-50.0
173
     0
291
     1
 45
0.0
1001
ACAD
1000
AcDbSavedByObjectVersion
1070
     0
  0
VISUALSTYLE
  5
39
102
{ACAD_REACTORS
330
2A
102
}
102
{ACAD_XDICTIONARY
360
44F
102
}
330
2A
100
AcDbVisualStyle
  2
Facepattern
 70
    15
 71
     2
 72
     2
 73
     0
 90
        0
 40
-0.6
 41
-30.0
 62
     5
 63
     7
421
 16777215
 74
     1
 91
        4
 64
     7
 65
   257
 75
     1
175
     1
 42
1.0
 92
        8
 66
     7
 43
1.0
 76
     1
 77
     6
 78
     2
 67
     7
 79
     5
170
     0
171
     0
290
     0
174
     0
 93
        1
 44
0.0
173
     0
291
     1
 45
0.0
1001
ACAD
1000
AcDbSavedByObjectVersion
1070
     0
  0
VISUALSTYLE
  5
2B
102
{ACAD_REACTORS
330
2A
102
}
102
{ACAD_XDICTIONARY
360
433
102
}
330
2A
100
AcDbVisualStyle
  2
Flat
 70
     0
 71
     2
 72
     1
 73
     1
 90
        2
 40
-0.6
 41
30.0
 62
     5
 63
     7
421
 16777215
 74
     0
 91
        4
 64
     7
 65
   257
 75
     1
175
     1
 42
1.0
 92
        8
 66
     7
 43
1.0
 76
     1
 77
     6
 78
     2
 67
     7
 79
     5
170
     0
171
     0
290
     0
174
     0
 93
       13
 44
0.0
173
     0
291
     1
 45
0.0
1001
ACAD
1000
AcDbSavedByObjectVersion
1070
     0
  0
VISUALSTYLE
  5
2C
102
{ACAD_REACTORS
330
2A
102
}
102
{ACAD_XDICTIONARY
360
435
102
}
330
2A
100
AcDbVisualStyle
  2
FlatWithEdges
 70
     1
 71
     2
 72
     1
 73
     1
 90
        2
 40
-0.6
 41
30.0
 62
     5
 63
     7
421
 16777215
 74
     1
 91
        4
 64
     7
 65
   257
 75
     1
175
     1
 42
1.0
 92
        0
 66
   257
 43
1.0
 76
     1
 77
     6
 78
     2
 67
     7
 79
     5
170
     0
171
     0
290
     0
174
     0
 93
       13
 44
0.0
173
     0
291
     1
 45
0.0
1001
ACAD
1000
AcDbSavedByObjectVersion
1070
     0
  0
VISUALSTYLE
  5
2D
102
{ACAD_REACTORS
330
2A
102
}
102
{ACAD_XDICTIONARY
360
437
102
}
330
2A
100
AcDbVisualStyle
  2
Gouraud
 70
     2
 71
     2
 72
     2
 73
     1
 90
        2
 40
-0.6
 41
30.0
 62
     5
 63
     7
421
 16777215
 74
     0
 91
        4
 64
     7
 65
   257
 75
     1
175
     1
 42
1.0
 92
        0
 66
     7
 43
1.0
 76
     1
 77
     6
 78
     2
 67
     7
 79
     5
170
     0
171
     0
290
     0
174
     0
 93
       13
 44
0.0
173
     0
291
     1
 45
0.0
1001
ACAD
1000
AcDbSavedByObjectVersion
1070
     0
  0
VISUALSTYLE
  5
2E
102
{ACAD_REACTORS
330
2A
102
}
102
{ACAD_XDICTIONARY
360
439
102
}
330
2A
100
AcDbVisualStyle
  2
GouraudWithEdges
 70
     3
 71
     2
 72
     2
 73
     1
 90
        2
 40
-0.6
 41
30.0
 62
     5
 63
     7
421
 16777215
 74
     1
 91
        4
 64
     7
 65
   257
 75
     1
175
     1
 42
1.0
 92
        0
 66
   257
 43
1.0
 76
     1
 77
     6
 78
     2
 67
     7
 79
     5
170
     0
171
     0
290
     0
174
     0
 93
       13
 44
0.0
173
     0
291
     1
 45
0.0
1001
ACAD
1000
AcDbSavedByObjectVersion
1070
     0
  0
VISUALSTYLE
  5
38
102
{ACAD_REACTORS
330
2A
102
}
102
{ACAD_XDICTIONARY
360
44D
102
}
330
2A
100
AcDbVisualStyle
  2
Linepattern
 70
    14
 71
     2
 72
     2
 73
     0
 90
        0
 40
-0.6
 41
-30.0
 62
     5
 63
     7
421
 16777215
 74
     1
 91
        4
 64
     7
 65
   257
 75
     7
175
     7
 42
1.0
 92
        8
 66
     7
 43
1.0
 76
     1
 77
     6
 78
     2
 67
     7
 79
     5
170
     0
171
     0
290
     0
174
     0
 93
        1
 44
0.0
173
     0
291
     1
 45
0.0
1001
ACAD
1000
AcDbSavedByObjectVersion
1070
     0
  0
VISUALSTYLE
  5
33
102
{ACAD_REACTORS
330
2A
102
}
102
{ACAD_XDICTIONARY
360
443
102
}
330
2A
100
AcDbVisualStyle
  2
Realistic
 70
     8
 71
     2
 72
     2
 73
     0
 90
        0
 40
-0.6
 41
-30.0
 62
     5
 63
     7
421
 16777215
 74
     1
 91
        0
 64
     7
 65
   257
 75
     1
175
     1
 42
1.0
 92
        8
 66
     8
424
  7895160
 43
1.0
 76
     1
 77
     6
 78
     2
 67
     7
 79
     5
170
     0
171
     0
290
     0
174
     0
 93
       13
 44
0.0
173
     0
291
     0
 45
0.0
1001
ACAD
1000
AcDbSavedByObjectVersion
1070
     0
  0
VISUALSTYLE
  5
37
102
{ACAD_REACTORS
330
2A
102
}
102
{ACAD_XDICTIONARY
360
44B
102
}
330
2A
100
AcDbVisualStyle
  2
Thicken
 70
    13
 71
     2
 72
     2
 73
     0
 90
        0
 40
-0.6
 41
-30.0
 62
     5
 63
     7
421
 16777215
 74
     1
 91
        4
 64
     7
 65
   257
 75
     1
175
     1
 42
1.0
 92
       12
 66
     7
 43
1.0
 76
     1
 77
     6
 78
     2
 67
     7
 79
     5
170
     0
171
     0
290
     0
174
     0
 93
        1
 44
0.0
173
     0
291
     1
 45
0.0
1001
ACAD
1000
AcDbSavedByObjectVersion
1070
     0
  0
DICTIONARY
  5
455
330
3D
100
AcDbDictionary
280
     1
281
     1
  3
ACAD_XREC_ROUNDTRIP
360
456
  0
DICTIONARY
  5
453
330
3C
100
AcDbDictionary
280
     1
281
     1
  3
ACAD_XREC_ROUNDTRIP
360
454
  0
DICTIONARY
  5
457
330
3E
100
AcDbDictionary
280
     1
281
     1
  3
ACAD_XREC_ROUNDTRIP
360
458
  0
DICTIONARY
  5
43B
330
2F
100
AcDbDictionary
280
     1
281
     1
  3
ACAD_XREC_ROUNDTRIP
360
43C
  0
DICTIONARY
  5
43F
330
31
100
AcDbDictionary
280
     1
281
     1
  3
ACAD_XREC_ROUNDTRIP
360
440
  0
DICTIONARY
  5
43D
330
30
100
AcDbDictionary
280
     1
281
     1
  3
ACAD_XREC_ROUNDTRIP
360
43E
  0
DICTIONARY
  5
441
330
32
100
AcDbDictionary
280
     1
281
     1
  3
ACAD_XREC_ROUNDTRIP
360
442
  0
DICTIONARY
  5
449
330
36
100
AcDbDictionary
280
     1
281
     1
  3
ACAD_XREC_ROUNDTRIP
360
44A
  0
DICTIONARY
  5
451
330
3A
100
AcDbDictionary
280
     1
281
     1
  3
ACAD_XREC_ROUNDTRIP
360
452
  0
DICTIONARY
  5
445
330
34
100
AcDbDictionary
280
     1
281
     1
  3
ACAD_XREC_ROUNDTRIP
360
446
  0
DICTIONARY
  5
447
330
35
100
AcDbDictionary
280
     1
281
     1
  3
ACAD_XREC_ROUNDTRIP
360
448
  0
DICTIONARY
  5
44F
330
39
100
AcDbDictionary
280
     1
281
     1
  3
ACAD_XREC_ROUNDTRIP
360
450
  0
DICTIONARY
  5
433
330
2B
100
AcDbDictionary
280
     1
281
     1
  3
ACAD_XREC_ROUNDTRIP
360
434
  0
DICTIONARY
  5
435
330
2C
100
AcDbDictionary
280
     1
281
     1
  3
ACAD_XREC_ROUNDTRIP
360
436
  0
DICTIONARY
  5
437
330
2D
100
AcDbDictionary
280
     1
281
     1
  3
ACAD_XREC_ROUNDTRIP
360
438
  0
DICTIONARY
  5
439
330
2E
100
AcDbDictionary
280
     1
281
     1
  3
ACAD_XREC_ROUNDTRIP
360
43A
  0
DICTIONARY
  5
44D
330
38
100
AcDbDictionary
280
     1
281
     1
  3
ACAD_XREC_ROUNDTRIP
360
44E
  0
DICTIONARY
  5
443
330
33
100
AcDbDictionary
280
     1
281
     1
  3
ACAD_XREC_ROUNDTRIP
360
444
  0
DICTIONARY
  5
44B
330
37
100
AcDbDictionary
280
     1
281
     1
  3
ACAD_XREC_ROUNDTRIP
360
44C
  0
XRECORD
  5
456
102
{ACAD_REACTORS
330
455
102
}
330
455
100
AcDbXrecord
280
     1
102
MATERIAL
148
0.0
149
0.0
149
0.0
 93
        0
 94
      127
282
     0
 72
     1
 77
     1
171
     1
175
     1
179
     1
273
     0
  0
XRECORD
  5
454
102
{ACAD_REACTORS
330
453
102
}
330
453
100
AcDbXrecord
280
     1
102
MATERIAL
148
0.0
149
0.0
149
0.0
 93
        0
 94
      127
282
     0
 72
     1
 77
     1
171
     1
175
     1
179
     1
273
     0
  0
XRECORD
  5
458
102
{ACAD_REACTORS
330
457
102
}
330
457
100
AcDbXrecord
280
     1
102
MATERIAL
148
0.0
149
0.0
149
0.0
 93
        0
 94
      127
282
     0
 72
     1
 77
     1
171
     1
175
     1
179
     1
273
     0
  0
XRECORD
  5
43C
102
{ACAD_REACTORS
330
43B
102
}
330
43B
100
AcDbXrecord
280
     1
102
RTVSPropertyOp0
 70
     1
102
RTVSPropertyOp1
 70
     1
102
RTVSPropertyOp2
 70
     1
102
RTVSPropertyOp3
 70
     1
102
RTVSPropertyOp4
 70
     1
102
RTVSPropertyOp5
 70
     1
102
RTVSPropertyOp6
 70
     1
102
RTVSPropertyOp7
 70
     1
102
RTVSPropertyOp8
 70
     1
102
RTVSPropertyOp9
 70
     1
102
RTVSPropertyOp10
 70
     1
102
RTVSPropertyOp11
 70
     1
102
RTVSPropertyOp12
 70
     1
102
RTVSPropertyOp13
 70
     1
102
RTVSPropertyOp14
 70
     1
102
RTVSPropertyOp15
 70
     1
102
RTVSPropertyOp16
 70
     1
102
RTVSPropertyOp17
 70
     1
102
RTVSPropertyOp18
 70
     1
102
RTVSPropertyOp19
 70
     1
102
RTVSPropertyOp20
 70
     1
102
RTVSPropertyOp21
 70
     1
102
RTVSPropertyOp22
 70
     1
102
RTVSPropertyOp23
 70
     1
102
RTVSPropertyOp24
 70
     1
102
RTVSPropertyOp25
 70
     1
102
RTVSPropertyOp26
 70
     1
102
RTVSPropertyOp27
 70
     1
102
RTVSPropertyOp28
 70
     1
102
RTVSPropertyOp29
 70
     1
102
RTVSPropertyOp30
 70
     1
102
RTVSPropertyOp31
 70
     1
102
RTVSPropertyOp32
 70
     1
  0
XRECORD
  5
440
102
{ACAD_REACTORS
330
43F
102
}
330
43F
100
AcDbXrecord
280
     1
102
RTVSPropertyOp0
 70
     1
102
RTVSPropertyOp1
 70
     1
102
RTVSPropertyOp2
 70
     1
102
RTVSPropertyOp3
 70
     1
102
RTVSPropertyOp4
 70
     1
102
RTVSPropertyOp5
 70
     1
102
RTVSPropertyOp6
 70
     1
102
RTVSPropertyOp7
 70
     1
102
RTVSPropertyOp8
 70
     1
102
RTVSPropertyOp9
 70
     1
102
RTVSPropertyOp10
 70
     1
102
RTVSPropertyOp11
 70
     1
102
RTVSPropertyOp12
 70
     1
102
RTVSPropertyOp13
 70
     1
102
RTVSPropertyOp14
 70
     1
102
RTVSPropertyOp15
 70
     1
102
RTVSPropertyOp16
 70
     1
102
RTVSPropertyOp17
 70
     1
102
RTVSPropertyOp18
 70
     1
102
RTVSPropertyOp19
 70
     1
102
RTVSPropertyOp20
 70
     1
102
RTVSPropertyOp21
 70
     1
102
RTVSPropertyOp22
 70
     1
102
RTVSPropertyOp23
 70
     1
102
RTVSPropertyOp24
 70
     1
102
RTVSPropertyOp25
 70
     1
102
RTVSPropertyOp26
 70
     1
102
RTVSPropertyOp27
 70
     1
102
RTVSPropertyOp28
 70
     1
102
RTVSPropertyOp29
 70
     1
102
RTVSPropertyOp30
 70
     1
102
RTVSPropertyOp31
 70
     1
102
RTVSPropertyOp32
 70
     1
  0
XRECORD
  5
43E
102
{ACAD_REACTORS
330
43D
102
}
330
43D
100
AcDbXrecord
280
     1
102
RTVSPropertyOp0
 70
     1
102
RTVSPropertyOp1
 70
     1
102
RTVSPropertyOp2
 70
     1
102
RTVSPropertyOp3
 70
     1
102
RTVSPropertyOp4
 70
     1
102
RTVSPropertyOp5
 70
     1
102
RTVSPropertyOp6
 70
     1
102
RTVSPropertyOp7
 70
     1
102
RTVSPropertyOp8
 70
     1
102
RTVSPropertyOp9
 70
     1
102
RTVSPropertyOp10
 70
     1
102
RTVSPropertyOp11
 70
     1
102
RTVSPropertyOp12
 70
     1
102
RTVSPropertyOp13
 70
     1
102
RTVSPropertyOp14
 70
     1
102
RTVSPropertyOp15
 70
     1
102
RTVSPropertyOp16
 70
     1
102
RTVSPropertyOp17
 70
     1
102
RTVSPropertyOp18
 70
     1
102
RTVSPropertyOp19
 70
     1
102
RTVSPropertyOp20
 70
     1
102
RTVSPropertyOp21
 70
     1
102
RTVSPropertyOp22
 70
     1
102
RTVSPropertyOp23
 70
     1
102
RTVSPropertyOp24
 70
     1
102
RTVSPropertyOp25
 70
     1
102
RTVSPropertyOp26
 70
     1
102
RTVSPropertyOp27
 70
     1
102
RTVSPropertyOp28
 70
     1
102
RTVSPropertyOp29
 70
     1
102
RTVSPropertyOp30
 70
     1
102
RTVSPropertyOp31
 70
     1
102
RTVSPropertyOp32
 70
     1
  0
XRECORD
  5
442
102
{ACAD_REACTORS
330
441
102
}
330
441
100
AcDbXrecord
280
     1
102
RTVSPropertyOp0
 70
     1
102
RTVSPropertyOp1
 70
     1
102
RTVSPropertyOp2
 70
     1
102
RTVSPropertyOp3
 70
     1
102
RTVSPropertyOp4
 70
     1
102
RTVSPropertyOp5
 70
     1
102
RTVSPropertyOp6
 70
     1
102
RTVSPropertyOp7
 70
     1
102
RTVSPropertyOp8
 70
     1
102
RTVSPropertyOp9
 70
     1
102
RTVSPropertyOp10
 70
     1
102
RTVSPropertyOp11
 70
     1
102
RTVSPropertyOp12
 70
     1
102
RTVSPropertyOp13
 70
     1
102
RTVSPropertyOp14
 70
     1
102
RTVSPropertyOp15
 70
     1
102
RTVSPropertyOp16
 70
     1
102
RTVSPropertyOp17
 70
     1
102
RTVSPropertyOp18
 70
     1
102
RTVSPropertyOp19
 70
     1
102
RTVSPropertyOp20
 70
     1
102
RTVSPropertyOp21
 70
     1
102
RTVSPropertyOp22
 70
     1
102
RTVSPropertyOp23
 70
     1
102
RTVSPropertyOp24
 70
     1
102
RTVSPropertyOp25
 70
     1
102
RTVSPropertyOp26
 70
     1
102
RTVSPropertyOp27
 70
     1
102
RTVSPropertyOp28
 70
     1
102
RTVSPropertyOp29
 70
     1
102
RTVSPropertyOp30
 70
     1
102
RTVSPropertyOp31
 70
     1
102
RTVSPropertyOp32
 70
     1
  0
XRECORD
  5
44A
102
{ACAD_REACTORS
330
449
102
}
330
449
100
AcDbXrecord
280
     1
102
RTVSPropertyOp0
 70
     1
102
RTVSPropertyOp1
 70
     1
102
RTVSPropertyOp2
 70
     1
102
RTVSPropertyOp3
 70
     1
102
RTVSPropertyOp4
 70
     1
102
RTVSPropertyOp5
 70
     1
102
RTVSPropertyOp6
 70
     1
102
RTVSPropertyOp7
 70
     1
102
RTVSPropertyOp8
 70
     1
102
RTVSPropertyOp9
 70
     1
102
RTVSPropertyOp10
 70
     1
102
RTVSPropertyOp11
 70
     1
102
RTVSPropertyOp12
 70
     1
102
RTVSPropertyOp13
 70
     1
102
RTVSPropertyOp14
 70
     1
102
RTVSPropertyOp15
 70
     1
102
RTVSPropertyOp16
 70
     1
102
RTVSPropertyOp17
 70
     1
102
RTVSPropertyOp18
 70
     1
102
RTVSPropertyOp19
 70
     1
102
RTVSPropertyOp20
 70
     1
102
RTVSPropertyOp21
 70
     1
102
RTVSPropertyOp22
 70
     1
102
RTVSPropertyOp23
 70
     1
102
RTVSPropertyOp24
 70
     1
102
RTVSPropertyOp25
 70
     1
102
RTVSPropertyOp26
 70
     1
102
RTVSPropertyOp27
 70
     1
102
RTVSPropertyOp28
 70
     1
102
RTVSPropertyOp29
 70
     1
102
RTVSPropertyOp30
 70
     1
102
RTVSPropertyOp31
 70
     1
102
RTVSPropertyOp32
 70
     1
  0
XRECORD
  5
452
102
{ACAD_REACTORS
330
451
102
}
330
451
100
AcDbXrecord
280
     1
102
RTVSPropertyOp0
 70
     1
102
RTVSPropertyOp1
 70
     1
102
RTVSPropertyOp2
 70
     1
102
RTVSPropertyOp3
 70
     1
102
RTVSPropertyOp4
 70
     1
102
RTVSPropertyOp5
 70
     1
102
RTVSPropertyOp6
 70
     1
102
RTVSPropertyOp7
 70
     1
102
RTVSPropertyOp8
 70
     1
102
RTVSPropertyOp9
 70
     1
102
RTVSPropertyOp10
 70
     1
102
RTVSPropertyOp11
 70
     1
102
RTVSPropertyOp12
 70
     1
102
RTVSPropertyOp13
 70
     1
102
RTVSPropertyOp14
 70
     1
102
RTVSPropertyOp15
 70
     1
102
RTVSPropertyOp16
 70
     1
102
RTVSPropertyOp17
 70
     1
102
RTVSPropertyOp18
 70
     1
102
RTVSPropertyOp19
 70
     1
102
RTVSPropertyOp20
 70
     1
102
RTVSPropertyOp21
 70
     1
102
RTVSPropertyOp22
 70
     1
102
RTVSPropertyOp23
 70
     1
102
RTVSPropertyOp24
 70
     1
102
RTVSPropertyOp25
 70
     1
102
RTVSPropertyOp26
 70
     1
102
RTVSPropertyOp27
 70
     1
102
RTVSPropertyOp28
 70
     1
102
RTVSPropertyOp29
 70
     1
102
RTVSPropertyOp30
 70
     1
102
RTVSPropertyOp31
 70
     1
102
RTVSPropertyOp32
 70
     1
  0
XRECORD
  5
446
102
{ACAD_REACTORS
330
445
102
}
330
445
100
AcDbXrecord
280
     1
102
RTVSPropertyOp0
 70
     1
102
RTVSPropertyOp1
 70
     1
102
RTVSPropertyOp2
 70
     1
102
RTVSPropertyOp3
 70
     1
102
RTVSPropertyOp4
 70
     1
102
RTVSPropertyOp5
 70
     1
102
RTVSPropertyOp6
 70
     1
102
RTVSPropertyOp7
 70
     1
102
RTVSPropertyOp8
 70
     1
102
RTVSPropertyOp9
 70
     1
102
RTVSPropertyOp10
 70
     1
102
RTVSPropertyOp11
 70
     1
102
RTVSPropertyOp12
 70
     1
102
RTVSPropertyOp13
 70
     1
102
RTVSPropertyOp14
 70
     1
102
RTVSPropertyOp15
 70
     1
102
RTVSPropertyOp16
 70
     1
102
RTVSPropertyOp17
 70
     1
102
RTVSPropertyOp18
 70
     1
102
RTVSPropertyOp19
 70
     1
102
RTVSPropertyOp20
 70
     1
102
RTVSPropertyOp21
 70
     1
102
RTVSPropertyOp22
 70
     1
102
RTVSPropertyOp23
 70
     1
102
RTVSPropertyOp24
 70
     1
102
RTVSPropertyOp25
 70
     1
102
RTVSPropertyOp26
 70
     1
102
RTVSPropertyOp27
 70
     1
102
RTVSPropertyOp28
 70
     1
102
RTVSPropertyOp29
 70
     1
102
RTVSPropertyOp30
 70
     1
102
RTVSPropertyOp31
 70
     1
102
RTVSPropertyOp32
 70
     1
  0
XRECORD
  5
448
102
{ACAD_REACTORS
330
447
102
}
330
447
100
AcDbXrecord
280
     1
102
RTVSPropertyOp0
 70
     1
102
RTVSPropertyOp1
 70
     1
102
RTVSPropertyOp2
 70
     1
102
RTVSPropertyOp3
 70
     1
102
RTVSPropertyOp4
 70
     1
102
RTVSPropertyOp5
 70
     1
102
RTVSPropertyOp6
 70
     1
102
RTVSPropertyOp7
 70
     1
102
RTVSPropertyOp8
 70
     1
102
RTVSPropertyOp9
 70
     1
102
RTVSPropertyOp10
 70
     1
102
RTVSPropertyOp11
 70
     1
102
RTVSPropertyOp12
 70
     1
102
RTVSPropertyOp13
 70
     1
102
RTVSPropertyOp14
 70
     1
102
RTVSPropertyOp15
 70
     1
102
RTVSPropertyOp16
 70
     1
102
RTVSPropertyOp17
 70
     1
102
RTVSPropertyOp18
 70
     1
102
RTVSPropertyOp19
 70
     1
102
RTVSPropertyOp20
 70
     1
102
RTVSPropertyOp21
 70
     1
102
RTVSPropertyOp22
 70
     1
102
RTVSPropertyOp23
 70
     1
102
RTVSPropertyOp24
 70
     1
102
RTVSPropertyOp25
 70
     1
102
RTVSPropertyOp26
 70
     1
102
RTVSPropertyOp27
 70
     1
102
RTVSPropertyOp28
 70
     1
102
RTVSPropertyOp29
 70
     1
102
RTVSPropertyOp30
 70
     1
102
RTVSPropertyOp31
 70
     1
102
RTVSPropertyOp32
 70
     1
  0
XRECORD
  5
450
102
{ACAD_REACTORS
330
44F
102
}
330
44F
100
AcDbXrecord
280
     1
102
RTVSPropertyOp0
 70
     1
102
RTVSPropertyOp1
 70
     1
102
RTVSPropertyOp2
 70
     1
102
RTVSPropertyOp3
 70
     1
102
RTVSPropertyOp4
 70
     1
102
RTVSPropertyOp5
 70
     1
102
RTVSPropertyOp6
 70
     1
102
RTVSPropertyOp7
 70
     1
102
RTVSPropertyOp8
 70
     1
102
RTVSPropertyOp9
 70
     1
102
RTVSPropertyOp10
 70
     1
102
RTVSPropertyOp11
 70
     1
102
RTVSPropertyOp12
 70
     1
102
RTVSPropertyOp13
 70
     1
102
RTVSPropertyOp14
 70
     1
102
RTVSPropertyOp15
 70
     1
102
RTVSPropertyOp16
 70
     1
102
RTVSPropertyOp17
 70
     1
102
RTVSPropertyOp18
 70
     1
102
RTVSPropertyOp19
 70
     1
102
RTVSPropertyOp20
 70
     1
102
RTVSPropertyOp21
 70
     1
102
RTVSPropertyOp22
 70
     1
102
RTVSPropertyOp23
 70
     1
102
RTVSPropertyOp24
 70
     1
102
RTVSPropertyOp25
 70
     1
102
RTVSPropertyOp26
 70
     1
102
RTVSPropertyOp27
 70
     1
102
RTVSPropertyOp28
 70
     1
102
RTVSPropertyOp29
 70
     1
102
RTVSPropertyOp30
 70
     1
102
RTVSPropertyOp31
 70
     1
102
RTVSPropertyOp32
 70
     1
  0
XRECORD
  5
434
102
{ACAD_REACTORS
330
433
102
}
330
433
100
AcDbXrecord
280
     1
102
RTVSPropertyOp0
 70
     1
102
RTVSPropertyOp1
 70
     1
102
RTVSPropertyOp2
 70
     1
102
RTVSPropertyOp3
 70
     1
102
RTVSPropertyOp4
 70
     1
102
RTVSPropertyOp5
 70
     1
102
RTVSPropertyOp6
 70
     1
102
RTVSPropertyOp7
 70
     1
102
RTVSPropertyOp8
 70
     1
102
RTVSPropertyOp9
 70
     1
102
RTVSPropertyOp10
 70
     1
102
RTVSPropertyOp11
 70
     1
102
RTVSPropertyOp12
 70
     1
102
RTVSPropertyOp13
 70
     1
102
RTVSPropertyOp14
 70
     1
102
RTVSPropertyOp15
 70
     1
102
RTVSPropertyOp16
 70
     1
102
RTVSPropertyOp17
 70
     1
102
RTVSPropertyOp18
 70
     1
102
RTVSPropertyOp19
 70
     1
102
RTVSPropertyOp20
 70
     1
102
RTVSPropertyOp21
 70
     1
102
RTVSPropertyOp22
 70
     1
102
RTVSPropertyOp23
 70
     1
102
RTVSPropertyOp24
 70
     1
102
RTVSPropertyOp25
 70
     1
102
RTVSPropertyOp26
 70
     1
102
RTVSPropertyOp27
 70
     1
102
RTVSPropertyOp28
 70
     1
102
RTVSPropertyOp29
 70
     1
102
RTVSPropertyOp30
 70
     1
102
RTVSPropertyOp31
 70
     1
102
RTVSPropertyOp32
 70
     1
  0
XRECORD
  5
436
102
{ACAD_REACTORS
330
435
102
}
330
435
100
AcDbXrecord
280
     1
102
RTVSPropertyOp0
 70
     1
102
RTVSPropertyOp1
 70
     1
102
RTVSPropertyOp2
 70
     1
102
RTVSPropertyOp3
 70
     1
102
RTVSPropertyOp4
 70
     1
102
RTVSPropertyOp5
 70
     1
102
RTVSPropertyOp6
 70
     1
102
RTVSPropertyOp7
 70
     1
102
RTVSPropertyOp8
 70
     1
102
RTVSPropertyOp9
 70
     1
102
RTVSPropertyOp10
 70
     1
102
RTVSPropertyOp11
 70
     1
102
RTVSPropertyOp12
 70
     1
102
RTVSPropertyOp13
 70
     1
102
RTVSPropertyOp14
 70
     1
102
RTVSPropertyOp15
 70
     1
102
RTVSPropertyOp16
 70
     1
102
RTVSPropertyOp17
 70
     1
102
RTVSPropertyOp18
 70
     1
102
RTVSPropertyOp19
 70
     1
102
RTVSPropertyOp20
 70
     1
102
RTVSPropertyOp21
 70
     1
102
RTVSPropertyOp22
 70
     1
102
RTVSPropertyOp23
 70
     1
102
RTVSPropertyOp24
 70
     1
102
RTVSPropertyOp25
 70
     1
102
RTVSPropertyOp26
 70
     1
102
RTVSPropertyOp27
 70
     1
102
RTVSPropertyOp28
 70
     1
102
RTVSPropertyOp29
 70
     1
102
RTVSPropertyOp30
 70
     1
102
RTVSPropertyOp31
 70
     1
102
RTVSPropertyOp32
 70
     1
  0
XRECORD
  5
438
102
{ACAD_REACTORS
330
437
102
}
330
437
100
AcDbXrecord
280
     1
102
RTVSPropertyOp0
 70
     1
102
RTVSPropertyOp1
 70
     1
102
RTVSPropertyOp2
 70
     1
102
RTVSPropertyOp3
 70
     1
102
RTVSPropertyOp4
 70
     1
102
RTVSPropertyOp5
 70
     1
102
RTVSPropertyOp6
 70
     1
102
RTVSPropertyOp7
 70
     1
102
RTVSPropertyOp8
 70
     1
102
RTVSPropertyOp9
 70
     1
102
RTVSPropertyOp10
 70
     1
102
RTVSPropertyOp11
 70
     1
102
RTVSPropertyOp12
 70
     1
102
RTVSPropertyOp13
 70
     1
102
RTVSPropertyOp14
 70
     1
102
RTVSPropertyOp15
 70
     1
102
RTVSPropertyOp16
 70
     1
102
RTVSPropertyOp17
 70
     1
102
RTVSPropertyOp18
 70
     1
102
RTVSPropertyOp19
 70
     1
102
RTVSPropertyOp20
 70
     1
102
RTVSPropertyOp21
 70
     1
102
RTVSPropertyOp22
 70
     1
102
RTVSPropertyOp23
 70
     1
102
RTVSPropertyOp24
 70
     1
102
RTVSPropertyOp25
 70
     1
102
RTVSPropertyOp26
 70
     1
102
RTVSPropertyOp27
 70
     1
102
RTVSPropertyOp28
 70
     1
102
RTVSPropertyOp29
 70
     1
102
RTVSPropertyOp30
 70
     1
102
RTVSPropertyOp31
 70
     1
102
RTVSPropertyOp32
 70
     1
  0
XRECORD
  5
43A
102
{ACAD_REACTORS
330
439
102
}
330
439
100
AcDbXrecord
280
     1
102
RTVSPropertyOp0
 70
     1
102
RTVSPropertyOp1
 70
     1
102
RTVSPropertyOp2
 70
     1
102
RTVSPropertyOp3
 70
     1
102
RTVSPropertyOp4
 70
     1
102
RTVSPropertyOp5
 70
     1
102
RTVSPropertyOp6
 70
     1
102
RTVSPropertyOp7
 70
     1
102
RTVSPropertyOp8
 70
     1
102
RTVSPropertyOp9
 70
     1
102
RTVSPropertyOp10
 70
     1
102
RTVSPropertyOp11
 70
     1
102
RTVSPropertyOp12
 70
     1
102
RTVSPropertyOp13
 70
     1
102
RTVSPropertyOp14
 70
     1
102
RTVSPropertyOp15
 70
     1
102
RTVSPropertyOp16
 70
     1
102
RTVSPropertyOp17
 70
     1
102
RTVSPropertyOp18
 70
     1
102
RTVSPropertyOp19
 70
     1
102
RTVSPropertyOp20
 70
     1
102
RTVSPropertyOp21
 70
     1
102
RTVSPropertyOp22
 70
     1
102
RTVSPropertyOp23
 70
     1
102
RTVSPropertyOp24
 70
     1
102
RTVSPropertyOp25
 70
     1
102
RTVSPropertyOp26
 70
     1
102
RTVSPropertyOp27
 70
     1
102
RTVSPropertyOp28
 70
     1
102
RTVSPropertyOp29
 70
     1
102
RTVSPropertyOp30
 70
     1
102
RTVSPropertyOp31
 70
     1
102
RTVSPropertyOp32
 70
     1
  0
XRECORD
  5
44E
102
{ACAD_REACTORS
330
44D
102
}
330
44D
100
AcDbXrecord
280
     1
102
RTVSPropertyOp0
 70
     1
102
RTVSPropertyOp1
 70
     1
102
RTVSPropertyOp2
 70
     1
102
RTVSPropertyOp3
 70
     1
102
RTVSPropertyOp4
 70
     1
102
RTVSPropertyOp5
 70
     1
102
RTVSPropertyOp6
 70
     1
102
RTVSPropertyOp7
 70
     1
102
RTVSPropertyOp8
 70
     1
102
RTVSPropertyOp9
 70
     1
102
RTVSPropertyOp10
 70
     1
102
RTVSPropertyOp11
 70
     1
102
RTVSPropertyOp12
 70
     1
102
RTVSPropertyOp13
 70
     1
102
RTVSPropertyOp14
 70
     1
102
RTVSPropertyOp15
 70
     1
102
RTVSPropertyOp16
 70
     1
102
RTVSPropertyOp17
 70
     1
102
RTVSPropertyOp18
 70
     1
102
RTVSPropertyOp19
 70
     1
102
RTVSPropertyOp20
 70
     1
102
RTVSPropertyOp21
 70
     1
102
RTVSPropertyOp22
 70
     1
102
RTVSPropertyOp23
 70
     1
102
RTVSPropertyOp24
 70
     1
102
RTVSPropertyOp25
 70
     1
102
RTVSPropertyOp26
 70
     1
102
RTVSPropertyOp27
 70
     1
102
RTVSPropertyOp28
 70
     1
102
RTVSPropertyOp29
 70
     1
102
RTVSPropertyOp30
 70
     1
102
RTVSPropertyOp31
 70
     1
102
RTVSPropertyOp32
 70
     1
  0
XRECORD
  5
444
102
{ACAD_REACTORS
330
443
102
}
330
443
100
AcDbXrecord
280
     1
102
RTVSPropertyOp0
 70
     1
102
RTVSPropertyOp1
 70
     1
102
RTVSPropertyOp2
 70
     1
102
RTVSPropertyOp3
 70
     1
102
RTVSPropertyOp4
 70
     1
102
RTVSPropertyOp5
 70
     1
102
RTVSPropertyOp6
 70
     1
102
RTVSPropertyOp7
 70
     1
102
RTVSPropertyOp8
 70
     1
102
RTVSPropertyOp9
 70
     1
102
RTVSPropertyOp10
 70
     1
102
RTVSPropertyOp11
 70
     1
102
RTVSPropertyOp12
 70
     1
102
RTVSPropertyOp13
 70
     1
102
RTVSPropertyOp14
 70
     1
102
RTVSPropertyOp15
 70
     1
102
RTVSPropertyOp16
 70
     1
102
RTVSPropertyOp17
 70
     1
102
RTVSPropertyOp18
 70
     1
102
RTVSPropertyOp19
 70
     1
102
RTVSPropertyOp20
 70
     1
102
RTVSPropertyOp21
 70
     1
102
RTVSPropertyOp22
 70
     1
102
RTVSPropertyOp23
 70
     1
102
RTVSPropertyOp24
 70
     1
102
RTVSPropertyOp25
 70
     1
102
RTVSPropertyOp26
 70
     1
102
RTVSPropertyOp27
 70
     1
102
RTVSPropertyOp28
 70
     1
102
RTVSPropertyOp29
 70
     1
102
RTVSPropertyOp30
 70
     1
102
RTVSPropertyOp31
 70
     1
102
RTVSPropertyOp32
 70
     1
  0
XRECORD
  5
44C
102
{ACAD_REACTORS
330
44B
102
}
330
44B
100
AcDbXrecord
280
     1
102
RTVSPropertyOp0
 70
     1
102
RTVSPropertyOp1
 70
     1
102
RTVSPropertyOp2
 70
     1
102
RTVSPropertyOp3
 70
     1
102
RTVSPropertyOp4
 70
     1
102
RTVSPropertyOp5
 70
     1
102
RTVSPropertyOp6
 70
     1
102
RTVSPropertyOp7
 70
     1
102
RTVSPropertyOp8
 70
     1
102
RTVSPropertyOp9
 70
     1
102
RTVSPropertyOp10
 70
     1
102
RTVSPropertyOp11
 70
     1
102
RTVSPropertyOp12
 70
     1
102
RTVSPropertyOp13
 70
     1
102
RTVSPropertyOp14
 70
     1
102
RTVSPropertyOp15
 70
     1
102
RTVSPropertyOp16
 70
     1
102
RTVSPropertyOp17
 70
     1
102
RTVSPropertyOp18
 70
     1
102
RTVSPropertyOp19
 70
     1
102
RTVSPropertyOp20
 70
     1
102
RTVSPropertyOp21
 70
     1
102
RTVSPropertyOp22
 70
     1
102
RTVSPropertyOp23
 70
     1
102
RTVSPropertyOp24
 70
     1
102
RTVSPropertyOp25
 70
     1
102
RTVSPropertyOp26
 70
     1
102
RTVSPropertyOp27
 70
     1
102
RTVSPropertyOp28
 70
     1
102
RTVSPropertyOp29
 70
     1
102
RTVSPropertyOp30
 70
     1
102
RTVSPropertyOp31
 70
     1
102
RTVSPropertyOp32
 70
     1
  0
ENDSEC
  0
EOF
