  0
SECTION
  2
HEADER
  9
$ACADVER
  1
AC1018
  9
$ACADMAINTVER
 70
     0
  9
$DWGCODEPAGE
  3
ANSI_932
  9
$INSBASE
 10
0.0
 20
0.0
 30
0.0
  9
$EXTMIN
 10
-105.0
 20
-148.5
 30
0.0
  9
$EXTMAX
 10
105.0
 20
148.5
 30
0.0
  9
$LIMMIN
 10
-105.0
 20
-148.5
  9
$LIMMAX
 10
105.0
 20
148.5
  9
$ORTHOMODE
 70
     0
  9
$REGENMODE
 70
     1
  9
$FILLMODE
 70
     1
  9
$QTEXTMODE
 70
     0
  9
$MIRRTEXT
 70
     1
  9
$LTSCALE
 40
1.0
  9
$ATTMODE
 70
     1
  9
$TEXTSIZE
 40
2.5
  9
$TRACEWID
 40
1.0
  9
$TEXTSTYLE
  7
Standard
  9
$CLAYER
  8
0
  9
$CELTYPE
  6
ByLayer
  9
$CECOLOR
 62
   256
  9
$CELTSCALE
 40
1.0
  9
$DISPSILH
 70
     0
  9
$DIMSCALE
 40
1.0
  9
$DIMASZ
 40
2.5
  9
$DIMEXO
 40
0.625
  9
$DIMDLI
 40
3.75
  9
$DIMRND
 40
0.0
  9
$DIMDLE
 40
0.0
  9
$DIMEXE
 40
1.25
  9
$DIMTP
 40
0.0
  9
$DIMTM
 40
0.0
  9
$DIMTXT
 40
2.5
  9
$DIMCEN
 40
2.5
  9
$DIMTSZ
 40
0.0
  9
$DIMTOL
 70
     0
  9
$DIMLIM
 70
     0
  9
$DIMTIH
 70
     0
  9
$DIMTOH
 70
     0
  9
$DIMSE1
 70
     0
  9
$DIMSE2
 70
     0
  9
$DIMTAD
 70
     1
  9
$DIMZIN
 70
     8
  9
$DIMBLK
  1

  9
$DIMASO
 70
     1
  9
$DIMSHO
 70
     1
  9
$DIMPOST
  1

  9
$DIMAPOST
  1

  9
$DIMALT
 70
     0
  9
$DIMALTD
 70
     3
  9
$DIMALTF
 40
0.03937007874016
  9
$DIMLFAC
 40
1.0
  9
$DIMTOFL
 70
     1
  9
$DIMTVP
 40
0.0
  9
$DIMTIX
 70
     0
  9
$DIMSOXD
 70
     0
  9
$DIMSAH
 70
     0
  9
$DIMBLK1
  1

  9
$DIMBLK2
  1

  9
$DIMSTYLE
  2
ISO-25
  9
$DIMCLRD
 70
     0
  9
$DIMCLRE
 70
     0
  9
$DIMCLRT
 70
     0
  9
$DIMTFAC
 40
1.0
  9
$DIMGAP
 40
0.625
  9
$DIMJUST
 70
     0
  9
$DIMSD1
 70
     0
  9
$DIMSD2
 70
     0
  9
$DIMTOLJ
 70
     0
  9
$DIMTZIN
 70
     8
  9
$DIMALTZ
 70
     0
  9
$DIMALTTZ
 70
     0
  9
$DIMUPT
 70
     0
  9
$DIMDEC
 70
     2
  9
$DIMTDEC
 70
     2
  9
$DIMALTU
 70
     2
  9
$DIMALTTD
 70
     3
  9
$DIMTXSTY
  7
Standard
  9
$DIMAUNIT
 70
     0
  9
$DIMADEC
 70
     0
  9
$DIMALTRND
 40
0.0
  9
$DIMAZIN
 70
     0
  9
$DIMDSEP
 70
    44
  9
$DIMATFIT
 70
     3
  9
$DIMFRAC
 70
     0
  9
$DIMLDRBLK
  1

  9
$DIMLUNIT
 70
     2
  9
$DIMLWD
 70
    -2
  9
$DIMLWE
 70
    -2
  9
$DIMTMOVE
 70
     0
  9
$LUNITS
 70
     2
  9
$LUPREC
 70
     4
  9
$SKETCHINC
 40
1.0
  9
$FILLETRAD
 40
10.0
  9
$AUNITS
 70
     0
  9
$AUPREC
 70
     0
  9
$MENU
  1
.
  9
$ELEVATION
 40
0.0
  9
$PELEVATION
 40
0.0
  9
$THICKNESS
 40
0.0
  9
$LIMCHECK
 70
     0
  9
$CHAMFERA
 40
10.0
  9
$CHAMFERB
 40
10.0
  9
$CHAMFERC
 40
20.0
  9
$CHAMFERD
 40
0.0
  9
$SKPOLY
 70
     0
  9
$TDCREATE
 40
2457532.408675243
  9
$TDUCREATE
 40
2457532.033675243
  9
$TDUPDATE
 40
2457532.408675486
  9
$TDUUPDATE
 40
2457532.033675486
  9
$TDINDWG
 40
0.0000000116
  9
$TDUSRTIMER
 40
0.0000000116
  9
$USRTIMER
 70
     1
  9
$ANGBASE
 50
0.0
  9
$ANGDIR
 70
     0
  9
$PDMODE
 70
     0
  9
$PDSIZE
 40
0.0
  9
$PLINEWID
 40
0.0
  9
$SPLFRAME
 70
     0
  9
$SPLINETYPE
 70
     6
  9
$SPLINESEGS
 70
     8
  9
$HANDSEED
  5
279
  9
$SURFTAB1
 70
     6
  9
$SURFTAB2
 70
     6
  9
$SURFTYPE
 70
     6
  9
$SURFU
 70
     6
  9
$SURFV
 70
     6
  9
$UCSBASE
  2

  9
$UCSNAME
  2

  9
$UCSORG
 10
0.0
 20
0.0
 30
0.0
  9
$UCSXDIR
 10
1.0
 20
0.0
 30
0.0
  9
$UCSYDIR
 10
0.0
 20
1.0
 30
0.0
  9
$UCSORTHOREF
  2

  9
$UCSORTHOVIEW
 70
     0
  9
$UCSORGTOP
 10
0.0
 20
0.0
 30
0.0
  9
$UCSORGBOTTOM
 10
0.0
 20
0.0
 30
0.0
  9
$UCSORGLEFT
 10
0.0
 20
0.0
 30
0.0
  9
$UCSORGRIGHT
 10
0.0
 20
0.0
 30
0.0
  9
$UCSORGFRONT
 10
0.0
 20
0.0
 30
0.0
  9
$UCSORGBACK
 10
0.0
 20
0.0
 30
0.0
  9
$PUCSBASE
  2

  9
$PUCSNAME
  2

  9
$PUCSORG
 10
0.0
 20
0.0
 30
0.0
  9
$PUCSXDIR
 10
1.0
 20
0.0
 30
0.0
  9
$PUCSYDIR
 10
0.0
 20
1.0
 30
0.0
  9
$PUCSORTHOREF
  2

  9
$PUCSORTHOVIEW
 70
     0
  9
$PUCSORGTOP
 10
0.0
 20
0.0
 30
0.0
  9
$PUCSORGBOTTOM
 10
0.0
 20
0.0
 30
0.0
  9
$PUCSORGLEFT
 10
0.0
 20
0.0
 30
0.0
  9
$PUCSORGRIGHT
 10
0.0
 20
0.0
 30
0.0
  9
$PUCSORGFRONT
 10
0.0
 20
0.0
 30
0.0
  9
$PUCSORGBACK
 10
0.0
 20
0.0
 30
0.0
  9
$USERI1
 70
     0
  9
$USERI2
 70
     0
  9
$USERI3
 70
     0
  9
$USERI4
 70
     0
  9
$USERI5
 70
     0
  9
$USERR1
 40
0.0
  9
$USERR2
 40
0.0
  9
$USERR3
 40
0.0
  9
$USERR4
 40
0.0
  9
$USERR5
 40
0.0
  9
$WORLDVIEW
 70
     1
  9
$SHADEDGE
 70
     3
  9
$SHADEDIF
 70
    70
  9
$TILEMODE
 70
     1
  9
$MAXACTVP
 70
    64
  9
$PINSBASE
 10
0.0
 20
0.0
 30
0.0
  9
$PLIMCHECK
 70
     0
  9
$PEXTMIN
 10
1.000000000000000E+20
 20
1.000000000000000E+20
 30
1.000000000000000E+20
  9
$PEXTMAX
 10
-1.000000000000000E+20
 20
-1.000000000000000E+20
 30
-1.000000000000000E+20
  9
$PLIMMIN
 10
-105.0
 20
-148.5
  9
$PLIMMAX
 10
105.0
 20
148.5
  9
$UNITMODE
 70
     0
  9
$VISRETAIN
 70
     1
  9
$PLINEGEN
 70
     0
  9
$PSLTSCALE
 70
     1
  9
$TREEDEPTH
 70
  3020
  9
$CMLSTYLE
  2
Standard
  9
$CMLJUST
 70
     0
  9
$CMLSCALE
 40
20.0
  9
$PROXYGRAPHICS
 70
     1
  9
$MEASUREMENT
 70
     1
  9
$CELWEIGHT
370
    -1
  9
$ENDCAPS
280
     0
  9
$JOINSTYLE
280
     0
  9
$LWDISPLAY
290
     0
  9
$INSUNITS
 70
     4
  9
$HYPERLINKBASE
  1

  9
$STYLESHEET
  1

  9
$XEDIT
290
     1
  9
$CEPSNTYPE
380
     0
  9
$PSTYLEMODE
290
     1
  9
$FINGERPRINTGUID
  2
{B3EC862F-60F7-4BC3-B772-28D089FA3B54}
  9
$VERSIONGUID
  2
{FAEB1C32-E019-11D5-929B-00C0DF256EC4}
  9
$EXTNAMES
290
     1
  9
$PSVPSCALE
 40
0.0
  9
$OLESTARTUP
290
     0
  9
$SORTENTS
280
   127
  9
$INDEXCTL
280
     0
  9
$HIDETEXT
280
     1
  9
$XCLIPFRAME
290
     0
  9
$HALOGAP
280
     0
  9
$OBSCOLOR
 70
   257
  9
$OBSLTYPE
280
     0
  9
$INTERSECTIONDISPLAY
280
     0
  9
$INTERSECTIONCOLOR
 70
   257
  9
$DIMASSOC
280
     2
  9
$PROJECTNAME
  1

  0
ENDSEC
  0
SECTION
  2
CLASSES
  0
CLASS
  1
ACDBDICTIONARYWDFLT
  2
AcDbDictionaryWithDefault
  3
ObjectDBX Classes
 90
        0
 91
        4
280
     0
281
     0
  0
CLASS
  1
VISUALSTYLE
  2
AcDbVisualStyle
  3
ObjectDBX Classes
 90
     4095
 91
        4
280
     0
281
     0
  0
CLASS
  1
MATERIAL
  2
AcDbMaterial
  3
ObjectDBX Classes
 90
     1153
 91
        4
280
     0
281
     0
  0
CLASS
  1
SUN
  2
AcDbSun
  3
SCENEOE
 90
     1024
 91
        4
280
     0
281
     0
  0
ENDSEC
  0
SECTION
  2
TABLES
  0
TABLE
  2
VPORT
  5
8
330
0
100
AcDbSymbolTable
 70
     1
  0
VPORT
  5
29
330
8
100
AcDbSymbolTableRecord
100
AcDbViewportTableRecord
  2
*Active
 70
     0
 10
0.0
 20
0.0
 11
1.0
 21
1.0
 12
344.1869158878504
 22
148.5
 13
0.0
 23
0.0
 14
10.0
 24
10.0
 15
10.0
 25
10.0
 16
0.0
 26
0.0
 36
1.0
 17
0.0
 27
0.0
 37
0.0
 40
297.0
 41
1.972972972850329
 42
50.0
 43
0.0
 44
0.0
 50
0.0
 51
0.0
 71
     0
 72
   100
 73
     1
 74
     3
 75
     0
 76
     0
 77
     0
 78
     0
281
     0
 65
     1
110
0.0
120
0.0
130
0.0
111
1.0
121
0.0
131
0.0
112
0.0
122
1.0
132
0.0
 79
     0
146
0.0
  0
ENDTAB
  0
TABLE
  2
LTYPE
  5
5
330
0
100
AcDbSymbolTable
 70
     5
  0
LTYPE
  5
14
330
5
100
AcDbSymbolTableRecord
100
AcDbLinetypeTableRecord
  2
ByBlock
 70
     0
  3

 72
    65
 73
     0
 40
0.0
  0
LTYPE
  5
15
330
5
100
AcDbSymbolTableRecord
100
AcDbLinetypeTableRecord
  2
ByLayer
 70
     0
  3

 72
    65
 73
     0
 40
0.0
  0
LTYPE
  5
16
330
5
100
AcDbSymbolTableRecord
100
AcDbLinetypeTableRecord
  2
Continuous
 70
     0
  3
Solid line
 72
    65
 73
     0
 40
0.0
  0
LTYPE
  5
40
330
5
100
AcDbSymbolTableRecord
100
AcDbLinetypeTableRecord
  2
CONTINOUS
 70
     0
  3
______________________________
 72
    65
 73
     0
 40
0.0
  0
LTYPE
  5
41
330
5
100
AcDbSymbolTableRecord
100
AcDbLinetypeTableRecord
  2
DASHED
 70
     0
  3
__ __ __ __ __ __ __ __ __ __ __ __ __ __ __ __
 72
    65
 73
     2
 40
4.5
 49
3.0
 74
     0
 49
-1.5
 74
     0
  0
LTYPE
  5
42
330
5
100
AcDbSymbolTableRecord
100
AcDbLinetypeTableRecord
  2
PHANTOM
 70
     0
  3
______  __  __  ______  __  __  _____
 72
    65
 73
     6
 40
15.0
 49
7.5
 74
     0
 49
-1.5
 74
     0
 49
1.5
 74
     0
 49
-1.5
 74
     0
 49
1.5
 74
     0
 49
-1.5
 74
     0
  0
LTYPE
  5
43
330
5
100
AcDbSymbolTableRecord
100
AcDbLinetypeTableRecord
  2
CENTER
 70
     0
  3
____ _ ____ _ ____ _ ____ _ ____ _ ____
 72
    65
 73
     4
 40
12.0
 49
7.5
 74
     0
 49
-1.5
 74
     0
 49
1.5
 74
     0
 49
-1.5
 74
     0
  0
ENDTAB
  0
TABLE
  2
LAYER
  5
2
330
0
100
AcDbSymbolTable
 70
     4
  0
LAYER
  5
10
330
2
100
AcDbSymbolTableRecord
100
AcDbLayerTableRecord
  2
0
 70
     0
 62
     7
  6
Continuous
370
    -3
390
F
  0
LAYER
  5
44
330
2
100
AcDbSymbolTableRecord
100
AcDbLayerTableRecord
  2
VIEW0001
 70
     0
 62
     7
  6
Continuous
370
    -3
390
F
  0
LAYER
  5
5B
330
2
100
AcDbSymbolTableRecord
100
AcDbLayerTableRecord
  2
VIEW0002
 70
     0
 62
     7
  6
Continuous
370
    -3
390
F
  0
LAYER
  5
12C
330
2
100
AcDbSymbolTableRecord
100
AcDbLayerTableRecord
  2
Defpoints
 70
     0
 62
     7
  6
Continuous
290
     0
370
    -3
390
F
  0
ENDTAB
  0
TABLE
  2
STYLE
  5
3
330
0
100
AcDbSymbolTable
 70
     1
  0
STYLE
  5
11
330
3
100
AcDbSymbolTableRecord
100
AcDbTextStyleTableRecord
  2
Standard
 70
     0
 40
0.0
 41
1.0
 50
0.0
 71
     0
 42
2.5
  3
ROMANS
  4
BIGFONT
  0
ENDTAB
  0
TABLE
  2
VIEW
  5
6
330
0
100
AcDbSymbolTable
 70
     0
  0
ENDTAB
  0
TABLE
  2
UCS
  5
7
330
0
100
AcDbSymbolTable
 70
     0
  0
ENDTAB
  0
TABLE
  2
APPID
  5
9
330
0
100
AcDbSymbolTable
 70
     1
  0
APPID
  5
12
330
9
100
AcDbSymbolTableRecord
100
AcDbRegAppTableRecord
  2
ACAD
 70
     0
  0
ENDTAB
  0
TABLE
  2
DIMSTYLE
  5
A
330
0
100
AcDbSymbolTable
 70
     1
100
AcDbDimStyleTable
  0
DIMSTYLE
105
27
102
{ACAD_REACTORS
330
122
330
13F
330
14A
330
157
330
164
330
170
330
17D
330
18A
330
197
330
1A4
330
1B7
330
1C3
330
1D4
330
1E1
330
1ED
330
209
330
215
330
221
330
232
102
}
330
A
100
AcDbSymbolTableRecord
100
AcDbDimStyleTableRecord
  2
ISO-25
 70
     0
 41
2.5
 42
0.625
 43
3.75
 44
1.25
 73
     0
 74
     0
 77
     1
 78
     8
140
2.5
141
2.5
143
0.03937007874016
147
0.625
171
     3
172
     1
178
     0
271
     2
272
     2
274
     3
278
    44
283
     0
284
     8
340
11
  0
ENDTAB
  0
TABLE
  2
BLOCK_RECORD
  5
1
330
0
100
AcDbSymbolTable
 70
    25
  0
BLOCK_RECORD
  5
1F
330
1
100
AcDbSymbolTableRecord
100
AcDbBlockTableRecord
  2
*Model_Space
340
22
  0
BLOCK_RECORD
  5
1B
330
1
100
AcDbSymbolTableRecord
100
AcDbBlockTableRecord
  2
*Paper_Space
340
1E
  0
BLOCK_RECORD
  5
23
330
1
100
AcDbSymbolTableRecord
100
AcDbBlockTableRecord
  2
*Paper_Space0
340
26
  0
BLOCK_RECORD
  5
123
330
1
100
AcDbSymbolTableRecord
100
AcDbBlockTableRecord
  2
_OPEN30
340
0
102
{BLKREFS
331
0
331
145
331
144
331
152
331
151
331
15F
331
15E
331
16B
331
16A
331
178
331
177
331
185
331
184
331
192
331
191
331
19F
331
19E
331
0
331
1BE
331
1BD
331
0
331
1DC
331
1DB
331
1E8
331
1E7
331
0
331
21C
331
21B
331
0
331
23A
331
239
102
}
  0
BLOCK_RECORD
  5
129
330
1
100
AcDbSymbolTableRecord
100
AcDbBlockTableRecord
  2
_NONE
340
0
102
{BLKREFS
331
0
331
0
331
0
331
210
331
20F
331
0
102
}
  0
BLOCK_RECORD
  5
12D
330
1
100
AcDbSymbolTableRecord
100
AcDbBlockTableRecord
  2
*D3
340
0
  0
BLOCK_RECORD
  5
140
330
1
100
AcDbSymbolTableRecord
100
AcDbBlockTableRecord
  2
*D4
340
0
  0
BLOCK_RECORD
  5
14B
330
1
100
AcDbSymbolTableRecord
100
AcDbBlockTableRecord
  2
*D5
340
0
  0
BLOCK_RECORD
  5
158
330
1
100
AcDbSymbolTableRecord
100
AcDbBlockTableRecord
  2
*D6
340
0
  0
BLOCK_RECORD
  5
165
330
1
100
AcDbSymbolTableRecord
100
AcDbBlockTableRecord
  2
*D7
340
0
  0
BLOCK_RECORD
  5
171
330
1
100
AcDbSymbolTableRecord
100
AcDbBlockTableRecord
  2
*D8
340
0
  0
BLOCK_RECORD
  5
17E
330
1
100
AcDbSymbolTableRecord
100
AcDbBlockTableRecord
  2
*D9
340
0
  0
BLOCK_RECORD
  5
18B
330
1
100
AcDbSymbolTableRecord
100
AcDbBlockTableRecord
  2
*D10
340
0
  0
BLOCK_RECORD
  5
198
330
1
100
AcDbSymbolTableRecord
100
AcDbBlockTableRecord
  2
*D11
340
0
  0
BLOCK_RECORD
  5
1A5
330
1
100
AcDbSymbolTableRecord
100
AcDbBlockTableRecord
  2
*D12
340
0
  0
BLOCK_RECORD
  5
1B8
330
1
100
AcDbSymbolTableRecord
100
AcDbBlockTableRecord
  2
*D13
340
0
  0
BLOCK_RECORD
  5
1C4
330
1
100
AcDbSymbolTableRecord
100
AcDbBlockTableRecord
  2
*D14
340
0
  0
BLOCK_RECORD
  5
1D5
330
1
100
AcDbSymbolTableRecord
100
AcDbBlockTableRecord
  2
*D15
340
0
  0
BLOCK_RECORD
  5
1E2
330
1
100
AcDbSymbolTableRecord
100
AcDbBlockTableRecord
  2
*D16
340
0
  0
BLOCK_RECORD
  5
1EE
330
1
100
AcDbSymbolTableRecord
100
AcDbBlockTableRecord
  2
_ORIGIN
340
0
102
{BLKREFS
331
0
102
}
  0
BLOCK_RECORD
  5
1F3
330
1
100
AcDbSymbolTableRecord
100
AcDbBlockTableRecord
  2
*D18
340
0
  0
BLOCK_RECORD
  5
20A
330
1
100
AcDbSymbolTableRecord
100
AcDbBlockTableRecord
  2
*D19
340
0
  0
BLOCK_RECORD
  5
216
330
1
100
AcDbSymbolTableRecord
100
AcDbBlockTableRecord
  2
*D20
340
0
  0
BLOCK_RECORD
  5
222
330
1
100
AcDbSymbolTableRecord
100
AcDbBlockTableRecord
  2
*D21
340
0
  0
BLOCK_RECORD
  5
233
330
1
100
AcDbSymbolTableRecord
100
AcDbBlockTableRecord
  2
*D22
340
0
  0
BLOCK_RECORD
  5
23F
330
1
100
AcDbSymbolTableRecord
100
AcDbBlockTableRecord
  2
SYM0001
340
0
102
{BLKREFS
331
245
102
}
  0
BLOCK_RECORD
  5
248
330
1
100
AcDbSymbolTableRecord
100
AcDbBlockTableRecord
  2
SYM0002
340
0
102
{BLKREFS
331
24E
102
}
  0
ENDTAB
  0
ENDSEC
  0
SECTION
  2
BLOCKS
  0
BLOCK
  5
20
330
1F
100
AcDbEntity
  8
0
100
AcDbBlockBegin
  2
*Model_Space
 70
     0
 10
0.0
 20
0.0
 30
0.0
  3
*Model_Space
  1

  0
ENDBLK
  5
21
330
1F
100
AcDbEntity
  8
0
100
AcDbBlockEnd
  0
BLOCK
  5
1C
330
1B
100
AcDbEntity
 67
     1
  8
0
100
AcDbBlockBegin
  2
*Paper_Space
 70
     0
 10
0.0
 20
0.0
 30
0.0
  3
*Paper_Space
  1

  0
ENDBLK
  5
1D
330
1B
100
AcDbEntity
 67
     1
  8
0
100
AcDbBlockEnd
  0
BLOCK
  5
24
330
23
100
AcDbEntity
  8
0
100
AcDbBlockBegin
  2
*Paper_Space0
 70
     0
 10
0.0
 20
0.0
 30
0.0
  3
*Paper_Space0
  1

  0
ENDBLK
  5
25
330
23
100
AcDbEntity
  8
0
100
AcDbBlockEnd
  0
BLOCK
  5
124
330
123
100
AcDbEntity
  8
0
100
AcDbBlockBegin
  2
_OPEN30
 70
     0
 10
0.0
 20
0.0
 30
0.0
  3
_OPEN30
  1

  0
LINE
  5
126
330
123
100
AcDbEntity
  8
0
  6
ByBlock
 62
     0
370
    -2
100
AcDbLine
 10
-1.0
 20
0.267949
 30
0.0
 11
0.0
 21
0.0
 31
0.0
  0
LINE
  5
127
330
123
100
AcDbEntity
  8
0
  6
ByBlock
 62
     0
370
    -2
100
AcDbLine
 10
0.0
 20
0.0
 30
0.0
 11
-1.0
 21
-0.267949
 31
0.0
  0
LINE
  5
128
330
123
100
AcDbEntity
  8
0
  6
ByBlock
 62
     0
370
    -2
100
AcDbLine
 10
0.0
 20
0.0
 30
0.0
 11
-1.0
 21
0.0
 31
0.0
  0
ENDBLK
  5
125
330
123
100
AcDbEntity
  8
0
100
AcDbBlockEnd
  0
BLOCK
  5
12A
330
129
100
AcDbEntity
  8
0
100
AcDbBlockBegin
  2
_NONE
 70
     0
 10
0.0
 20
0.0
 30
0.0
  3
_NONE
  1

  0
ENDBLK
  5
12B
330
129
100
AcDbEntity
  8
0
100
AcDbBlockEnd
  0
BLOCK
  5
12E
330
12D
100
AcDbEntity
  8
0
100
AcDbBlockBegin
  2
*D3
 70
     1
 10
0.0
 20
0.0
 30
0.0
  3
*D3
  1

  0
MTEXT
  5
136
330
12D
100
AcDbEntity
  8
0
 62
     1
100
AcDbMText
 10
-41.32110102245746
 20
-47.30924284638599
 30
0.0
 40
3.200000047683716
 41
0.0
 71
     5
 72
     1
  1
8
 11
0.0
 21
1.0
 31
0.0
 73
     1
 44
1.0
  0
POINT
  5
137
330
12D
100
AcDbEntity
  8
Defpoints
 62
     0
100
AcDbPoint
 10
-28.90870098648008
 20
-55.19884287454322
 30
0.0
  0
POINT
  5
138
330
12D
100
AcDbEntity
  8
Defpoints
 62
     0
100
AcDbPoint
 10
-27.15870098648003
 20
-59.19884287454322
 30
0.0
  0
POINT
  5
139
330
12D
100
AcDbEntity
  8
Defpoints
 62
     0
100
AcDbPoint
 10
-38.90870098648008
 20
-59.19884287454323
 30
0.0
  0
LINE
  5
13A
330
12D
100
AcDbEntity
  8
0
  6
Continuous
 62
     7
100
AcDbLine
 10
-29.69870098648003
 20
-59.19884287454322
 30
0.0
 11
-41.19470098648009
 21
-59.19884287454322
 31
0.0
  0
LINE
  5
13B
330
12D
100
AcDbEntity
  8
0
  6
Continuous
 62
     7
100
AcDbLine
 10
-38.90870098648008
 20
-48.84884287454322
 30
0.0
 11
-38.90870098648008
 21
-59.19884287454322
 31
0.0
  0
LINE
  5
13C
330
12D
100
AcDbEntity
  8
0
  6
Continuous
 62
     7
100
AcDbLine
 10
-38.90870098648008
 20
-55.19884287454322
 30
0.0
 11
-39.72715867078009
 21
-52.1443172125376
 31
0.0
  0
LINE
  5
13D
330
12D
100
AcDbEntity
  8
0
  6
Continuous
 62
     7
100
AcDbLine
 10
-38.90870098648008
 20
-55.19884287454322
 30
0.0
 11
-38.09024330218008
 21
-52.1443172125376
 31
0.0
  0
LINE
  5
13E
330
12D
100
AcDbEntity
  8
0
  6
Continuous
 62
     7
100
AcDbLine
 10
-38.90870098648008
 20
-55.19884287454322
 30
0.0
 11
-38.90870098648008
 21
-47.97776489795248
 31
0.0
  0
ENDBLK
  5
12F
330
12D
100
AcDbEntity
  8
0
100
AcDbBlockEnd
  0
BLOCK
  5
141
330
140
100
AcDbEntity
  8
0
100
AcDbBlockBegin
  2
*D4
 70
     1
 10
0.0
 20
0.0
 30
0.0
  3
*D4
  1

  0
LINE
  5
143
330
140
100
AcDbEntity
  8
0
 62
     0
370
    -2
100
AcDbLine
 10
-38.90670098648009
 20
-62.19884287454324
 30
0.0
 11
-38.90670098648008
 21
-70.19884287454327
 31
0.0
  0
INSERT
  5
144
330
140
100
AcDbEntity
  8
0
 62
     0
370
    -2
100
AcDbBlockReference
  2
_OPEN30
 10
-38.90670098648009
 20
-59.19884287454324
 30
0.0
 41
3.0
 42
3.0
 43
3.0
 50
90.00000000000004
  0
INSERT
  5
145
330
140
100
AcDbEntity
  8
0
 62
     0
370
    -2
100
AcDbBlockReference
  2
_OPEN30
 10
-38.90670098648008
 20
-73.19884287454327
 30
0.0
 41
3.0
 42
3.0
 43
3.0
 50
270.0000000000001
  0
MTEXT
  5
146
330
140
100
AcDbEntity
  8
0
 62
     1
100
AcDbMText
 10
-41.32110102245746
 20
-66.19784287454323
 30
0.0
 40
3.200000047683716
 41
0.0
 71
     5
 72
     1
  1
28
 11
-5.075305255429277E-16
 21
1.0
 31
0.0
 73
     1
 44
1.0
  0
POINT
  5
147
330
140
100
AcDbEntity
  8
Defpoints
 62
     0
100
AcDbPoint
 10
-27.15870098648003
 20
-59.19884287454322
 30
0.0
  0
POINT
  5
148
330
140
100
AcDbEntity
  8
Defpoints
 62
     0
100
AcDbPoint
 10
0.568454094418996
 20
-73.19884287454325
 30
0.0
  0
POINT
  5
149
330
140
100
AcDbEntity
  8
Defpoints
 62
     0
100
AcDbPoint
 10
-38.90870098648008
 20
-73.19884287454326
 30
0.0
  0
ENDBLK
  5
142
330
140
100
AcDbEntity
  8
0
100
AcDbBlockEnd
  0
BLOCK
  5
14C
330
14B
100
AcDbEntity
  8
0
100
AcDbBlockBegin
  2
*D5
 70
     1
 10
0.0
 20
0.0
 30
0.0
  3
*D5
  1

  0
LINE
  5
14E
330
14B
100
AcDbEntity
  8
0
 62
     0
370
    -2
100
AcDbLine
 10
-1.971545905581004
 20
-73.19884287454325
 30
0.0
 11
-51.19370098648009
 21
-73.19884287454323
 31
0.0
  0
LINE
  5
14F
330
14B
100
AcDbEntity
  8
0
 62
     0
370
    -2
100
AcDbLine
 10
-31.44870098648008
 20
-55.19884287454322
 30
0.0
 11
-51.19370098648009
 21
-55.19884287454322
 31
0.0
  0
LINE
  5
150
330
14B
100
AcDbEntity
  8
0
 62
     0
370
    -2
100
AcDbLine
 10
-48.90770098648009
 20
-70.19884287454323
 30
0.0
 11
-48.90770098648009
 21
-58.19884287454322
 31
0.0
  0
INSERT
  5
151
330
14B
100
AcDbEntity
  8
0
 62
     0
370
    -2
100
AcDbBlockReference
  2
_OPEN30
 10
-48.90770098648009
 20
-73.19884287454323
 30
0.0
 41
3.0
 42
3.0
 43
3.0
 50
270.0
  0
INSERT
  5
152
330
14B
100
AcDbEntity
  8
0
 62
     0
370
    -2
100
AcDbBlockReference
  2
_OPEN30
 10
-48.90770098648009
 20
-55.19884287454322
 30
0.0
 41
3.0
 42
3.0
 43
3.0
 50
90.0
  0
MTEXT
  5
153
330
14B
100
AcDbEntity
  8
0
 62
     1
100
AcDbMText
 10
-51.32210102245745
 20
-64.19784287454323
 30
0.0
 40
3.200000047683716
 41
0.0
 71
     5
 72
     1
  1
36
 11
0.0
 21
1.0
 31
0.0
 73
     1
 44
1.0
  0
POINT
  5
154
330
14B
100
AcDbEntity
  8
Defpoints
 62
     0
100
AcDbPoint
 10
0.568454094418996
 20
-73.19884287454325
 30
0.0
  0
POINT
  5
155
330
14B
100
AcDbEntity
  8
Defpoints
 62
     0
100
AcDbPoint
 10
-28.90870098648008
 20
-55.19884287454322
 30
0.0
  0
POINT
  5
156
330
14B
100
AcDbEntity
  8
Defpoints
 62
     0
100
AcDbPoint
 10
-48.90870098648008
 20
-55.19884287454322
 30
0.0
  0
ENDBLK
  5
14D
330
14B
100
AcDbEntity
  8
0
100
AcDbBlockEnd
  0
BLOCK
  5
159
330
158
100
AcDbEntity
  8
0
100
AcDbBlockBegin
  2
*D6
 70
     1
 10
0.0
 20
0.0
 30
0.0
  3
*D6
  1

  0
LINE
  5
15B
330
158
100
AcDbEntity
  8
0
 62
     0
370
    -2
100
AcDbLine
 10
-28.90870098648008
 20
-59.9888428745432
 30
0.0
 11
-28.90870098648009
 21
-100.7338428745432
 31
0.0
  0
LINE
  5
15C
330
158
100
AcDbEntity
  8
0
 62
     0
370
    -2
100
AcDbLine
 10
35.09135200974421
 20
-74.48884263612467
 30
0.0
 11
35.09135200974421
 21
-100.7338428745432
 31
0.0
  0
LINE
  5
15D
330
158
100
AcDbEntity
  8
0
 62
     0
370
    -2
100
AcDbLine
 10
-25.90870098648009
 20
-98.44784287454323
 30
0.0
 11
32.09135200974421
 21
-98.44784287454324
 31
0.0
  0
INSERT
  5
15E
330
158
100
AcDbEntity
  8
0
 62
     0
370
    -2
100
AcDbBlockReference
  2
_OPEN30
 10
-28.90870098648009
 20
-98.44784287454323
 30
0.0
 41
3.0
 42
3.0
 43
3.0
 50
180.0
  0
INSERT
  5
15F
330
158
100
AcDbEntity
  8
0
 62
     0
370
    -2
100
AcDbBlockReference
  2
_OPEN30
 10
35.09135200974421
 20
-98.44784287454324
 30
0.0
 41
3.0
 42
3.0
 43
3.0
 50
360.0
  0
MTEXT
  5
160
330
158
100
AcDbEntity
  8
0
 62
     1
100
AcDbMText
 10
3.09232551163205
 20
-96.03344283856588
 30
0.0
 40
3.200000047683716
 41
0.0
 71
     5
 72
     1
  1
128
 73
     1
 44
1.0
  0
POINT
  5
161
330
158
100
AcDbEntity
  8
Defpoints
 62
     0
100
AcDbPoint
 10
-28.90870098648008
 20
-57.4488428745432
 30
0.0
  0
POINT
  5
162
330
158
100
AcDbEntity
  8
Defpoints
 62
     0
100
AcDbPoint
 10
35.09135200974421
 20
-71.94884263612467
 30
0.0
  0
POINT
  5
163
330
158
100
AcDbEntity
  8
Defpoints
 62
     0
100
AcDbPoint
 10
35.09135200974421
 20
-98.44884287454325
 30
0.0
  0
ENDBLK
  5
15A
330
158
100
AcDbEntity
  8
0
100
AcDbBlockEnd
  0
BLOCK
  5
166
330
165
100
AcDbEntity
  8
0
100
AcDbBlockBegin
  2
*D7
 70
     1
 10
0.0
 20
0.0
 30
0.0
  3
*D7
  1

  0
LINE
  5
168
330
165
100
AcDbEntity
  8
0
 62
     0
370
    -2
100
AcDbLine
 10
43.59135200974421
 20
-90.98884287454325
 30
0.0
 11
43.59135200974421
 21
-100.7338428745432
 31
0.0
  0
LINE
  5
169
330
165
100
AcDbEntity
  8
0
 62
     0
370
    -2
100
AcDbLine
 10
38.09135200974421
 20
-98.44784287454324
 30
0.0
 11
40.59135200974421
 21
-98.44784287454324
 31
0.0
  0
INSERT
  5
16A
330
165
100
AcDbEntity
  8
0
 62
     0
370
    -2
100
AcDbBlockReference
  2
_OPEN30
 10
35.09135200974421
 20
-98.44784287454324
 30
0.0
 41
3.0
 42
3.0
 43
3.0
 50
180.0
  0
INSERT
  5
16B
330
165
100
AcDbEntity
  8
0
 62
     0
370
    -2
100
AcDbBlockReference
  2
_OPEN30
 10
43.59135200974421
 20
-98.44784287454324
 30
0.0
 41
3.0
 42
3.0
 43
3.0
  0
MTEXT
  5
16C
330
165
100
AcDbEntity
  8
0
 62
     1
100
AcDbMText
 10
39.34235200974421
 20
-96.04304283870893
 30
0.0
 40
3.200000047683716
 41
0.0
 71
     5
 72
     1
  1
17
 73
     1
 44
1.0
  0
POINT
  5
16D
330
165
100
AcDbEntity
  8
Defpoints
 62
     0
100
AcDbPoint
 10
35.09135200974421
 20
-71.94884263612467
 30
0.0
  0
POINT
  5
16E
330
165
100
AcDbEntity
  8
Defpoints
 62
     0
100
AcDbPoint
 10
43.59135200974421
 20
-88.44884287454325
 30
0.0
  0
POINT
  5
16F
330
165
100
AcDbEntity
  8
Defpoints
 62
     0
100
AcDbPoint
 10
43.59135200974421
 20
-98.44884287454325
 30
0.0
  0
ENDBLK
  5
167
330
165
100
AcDbEntity
  8
0
100
AcDbBlockEnd
  0
BLOCK
  5
172
330
171
100
AcDbEntity
  8
0
100
AcDbBlockBegin
  2
*D8
 70
     1
 10
0.0
 20
0.0
 30
0.0
  3
*D8
  1

  0
LINE
  5
174
330
171
100
AcDbEntity
  8
0
 62
     0
370
    -2
100
AcDbLine
 10
46.13135200974421
 20
-88.44884287454325
 30
0.0
 11
55.87735200974421
 21
-88.44884287454323
 31
0.0
  0
LINE
  5
175
330
171
100
AcDbEntity
  8
0
 62
     0
370
    -2
100
AcDbLine
 10
46.13135200974421
 20
-45.19884287454322
 30
0.0
 11
55.87735200974421
 21
-45.19884287454322
 31
0.0
  0
LINE
  5
176
330
171
100
AcDbEntity
  8
0
 62
     0
370
    -2
100
AcDbLine
 10
53.59135200974421
 20
-85.44884287454323
 30
0.0
 11
53.59135200974421
 21
-48.19884287454322
 31
0.0
  0
INSERT
  5
177
330
171
100
AcDbEntity
  8
0
 62
     0
370
    -2
100
AcDbBlockReference
  2
_OPEN30
 10
53.59135200974421
 20
-88.44884287454323
 30
0.0
 41
3.0
 42
3.0
 43
3.0
 50
270.0
  0
INSERT
  5
178
330
171
100
AcDbEntity
  8
0
 62
     0
370
    -2
100
AcDbBlockReference
  2
_OPEN30
 10
53.59135200974421
 20
-45.19884287454322
 30
0.0
 41
3.0
 42
3.0
 43
3.0
 50
90.0
  0
MTEXT
  5
179
330
171
100
AcDbEntity
  8
0
 62
     1
100
AcDbMText
 10
51.17055197367148
 20
-66.82284287454323
 30
0.0
 40
3.200000047683716
 41
0.0
 71
     5
 72
     1
  1
86.5
 11
1.642873377480000E-16
 21
1.0
 31
0.0
 73
     1
 44
1.0
  0
POINT
  5
17A
330
171
100
AcDbEntity
  8
Defpoints
 62
     0
100
AcDbPoint
 10
43.59135200974421
 20
-88.44884287454325
 30
0.0
  0
POINT
  5
17B
330
171
100
AcDbEntity
  8
Defpoints
 62
     0
100
AcDbPoint
 10
43.59135200974421
 20
-45.19884287454322
 30
0.0
  0
POINT
  5
17C
330
171
100
AcDbEntity
  8
Defpoints
 62
     0
100
AcDbPoint
 10
53.59135200974421
 20
-45.19884287454322
 30
0.0
  0
ENDBLK
  5
173
330
171
100
AcDbEntity
  8
0
100
AcDbBlockEnd
  0
BLOCK
  5
17F
330
17E
100
AcDbEntity
  8
0
100
AcDbBlockBegin
  2
*D9
 70
     1
 10
0.0
 20
0.0
 30
0.0
  3
*D9
  1

  0
LINE
  5
181
330
17E
100
AcDbEntity
  8
0
 62
     0
370
    -2
100
AcDbLine
 10
46.13135200974421
 20
-20.19884287454294
 30
0.0
 11
55.87735200974421
 21
-20.19884287454294
 31
0.0
  0
LINE
  5
182
330
17E
100
AcDbEntity
  8
0
 62
     0
370
    -2
100
AcDbLine
 10
46.13135200974421
 20
19.80115712545655
 30
0.0
 11
55.87735200974421
 21
19.80115712545654
 31
0.0
  0
LINE
  5
183
330
17E
100
AcDbEntity
  8
0
 62
     0
370
    -2
100
AcDbLine
 10
53.59135200974421
 20
-17.19884287454294
 30
0.0
 11
53.59135200974421
 21
16.80115712545654
 31
0.0
  0
INSERT
  5
184
330
17E
100
AcDbEntity
  8
0
 62
     0
370
    -2
100
AcDbBlockReference
  2
_OPEN30
 10
53.59135200974421
 20
-20.19884287454294
 30
0.0
 41
3.0
 42
3.0
 43
3.0
 50
270.0
  0
INSERT
  5
185
330
17E
100
AcDbEntity
  8
0
 62
     0
370
    -2
100
AcDbBlockReference
  2
_OPEN30
 10
53.59135200974421
 20
19.80115712545654
 30
0.0
 41
3.0
 42
3.0
 43
3.0
 50
89.99999999999999
  0
MTEXT
  5
186
330
17E
100
AcDbEntity
  8
0
 62
     1
100
AcDbMText
 10
51.17695197376685
 20
-0.197842874543196
 30
0.0
 40
3.200000047683716
 41
0.0
 71
     5
 72
     1
  1
80
 11
1.776356839400273E-16
 21
1.0
 31
0.0
 73
     1
 44
1.0
  0
POINT
  5
187
330
17E
100
AcDbEntity
  8
Defpoints
 62
     0
100
AcDbPoint
 10
43.59135200974421
 20
-20.19884287454294
 30
0.0
  0
POINT
  5
188
330
17E
100
AcDbEntity
  8
Defpoints
 62
     0
100
AcDbPoint
 10
43.59135200974421
 20
19.80115712545655
 30
0.0
  0
POINT
  5
189
330
17E
100
AcDbEntity
  8
Defpoints
 62
     0
100
AcDbPoint
 10
53.59135200974421
 20
19.80115712545654
 30
0.0
  0
ENDBLK
  5
180
330
17E
100
AcDbEntity
  8
0
100
AcDbBlockEnd
  0
BLOCK
  5
18C
330
18B
100
AcDbEntity
  8
0
100
AcDbBlockBegin
  2
*D10
 70
     1
 10
0.0
 20
0.0
 30
0.0
  3
*D10
  1

  0
LINE
  5
18E
330
18B
100
AcDbEntity
  8
0
 62
     0
370
    -2
100
AcDbLine
 10
-31.10618304407289
 20
7.301157125456775
 30
0.0
 11
-41.19270098648009
 21
7.301157125456771
 31
0.0
  0
LINE
  5
18F
330
18B
100
AcDbEntity
  8
0
 62
     0
370
    -2
100
AcDbLine
 10
-31.10618304407289
 20
-7.698842874543225
 30
0.0
 11
-41.19270098648008
 21
-7.698842874543229
 31
0.0
  0
LINE
  5
190
330
18B
100
AcDbEntity
  8
0
 62
     0
370
    -2
100
AcDbLine
 10
-38.90670098648009
 20
4.301157125456772
 30
0.0
 11
-38.90670098648008
 21
-4.698842874543228
 31
0.0
  0
INSERT
  5
191
330
18B
100
AcDbEntity
  8
0
 62
     0
370
    -2
100
AcDbBlockReference
  2
_OPEN30
 10
-38.90670098648009
 20
7.301157125456772
 30
0.0
 41
3.0
 42
3.0
 43
3.0
 50
90.00000000000001
  0
INSERT
  5
192
330
18B
100
AcDbEntity
  8
0
 62
     0
370
    -2
100
AcDbBlockReference
  2
_OPEN30
 10
-38.90670098648008
 20
-7.698842874543228
 30
0.0
 41
3.0
 42
3.0
 43
3.0
 50
270.0
  0
MTEXT
  5
193
330
18B
100
AcDbEntity
  8
0
 62
     1
100
AcDbMText
 10
-41.32110102245746
 20
-0.197842874543226
 30
0.0
 40
3.200000047683716
 41
0.0
 71
     5
 72
     1
  1
30
 11
-4.736951571734001E-16
 21
1.0
 31
0.0
 73
     1
 44
1.0
  0
POINT
  5
194
330
18B
100
AcDbEntity
  8
Defpoints
 62
     0
100
AcDbPoint
 10
-28.56618304407289
 20
7.301157125456776
 30
0.0
  0
POINT
  5
195
330
18B
100
AcDbEntity
  8
Defpoints
 62
     0
100
AcDbPoint
 10
-28.56618304407289
 20
-7.698842874543224
 30
0.0
  0
POINT
  5
196
330
18B
100
AcDbEntity
  8
Defpoints
 62
     0
100
AcDbPoint
 10
-38.90870098648008
 20
-7.698842874543229
 30
0.0
  0
ENDBLK
  5
18D
330
18B
100
AcDbEntity
  8
0
100
AcDbBlockEnd
  0
BLOCK
  5
199
330
198
100
AcDbEntity
  8
0
100
AcDbBlockBegin
  2
*D11
 70
     1
 10
0.0
 20
0.0
 30
0.0
  3
*D11
  1

  0
LINE
  5
19B
330
198
100
AcDbEntity
  8
0
 62
     0
370
    -2
100
AcDbLine
 10
-8.158647990255531
 20
73.38615646491135
 30
0.0
 11
-8.158647990255538
 21
36.016156795184
 31
0.0
  0
LINE
  5
19C
330
198
100
AcDbEntity
  8
0
 62
     0
370
    -2
100
AcDbLine
 10
22.84129149070168
 20
73.38615646491135
 30
0.0
 11
22.84129149070167
 21
36.016156795184
 31
0.0
  0
LINE
  5
19D
330
198
100
AcDbEntity
  8
0
 62
     0
370
    -2
100
AcDbLine
 10
-5.158647990255538
 20
38.30215679518401
 30
0.0
 11
19.84129149070167
 21
38.302156795184
 31
0.0
  0
INSERT
  5
19E
330
198
100
AcDbEntity
  8
0
 62
     0
370
    -2
100
AcDbBlockReference
  2
_OPEN30
 10
-8.158647990255538
 20
38.30215679518401
 30
0.0
 41
3.0
 42
3.0
 43
3.0
 50
180.0
  0
INSERT
  5
19F
330
198
100
AcDbEntity
  8
0
 62
     0
370
    -2
100
AcDbBlockReference
  2
_OPEN30
 10
22.84129149070167
 20
38.302156795184
 30
0.0
 41
3.0
 42
3.0
 43
3.0
 50
360.0
  0
MTEXT
  5
1A0
330
198
100
AcDbEntity
  8
0
 62
     1
100
AcDbMText
 10
7.342321750223075
 20
40.71655683116137
 30
0.0
 40
3.200000047683716
 41
0.0
 71
     5
 72
     1
  1
62
 73
     1
 44
1.0
  0
POINT
  5
1A1
330
198
100
AcDbEntity
  8
Defpoints
 62
     0
100
AcDbPoint
 10
-8.158647990255531
 20
75.92615646491136
 30
0.0
  0
POINT
  5
1A2
330
198
100
AcDbEntity
  8
Defpoints
 62
     0
100
AcDbPoint
 10
22.84129149070168
 20
75.92615646491136
 30
0.0
  0
POINT
  5
1A3
330
198
100
AcDbEntity
  8
Defpoints
 62
     0
100
AcDbPoint
 10
22.84129149070167
 20
38.30115679518401
 30
0.0
  0
ENDBLK
  5
19A
330
198
100
AcDbEntity
  8
0
100
AcDbBlockEnd
  0
BLOCK
  5
1A6
330
1A5
100
AcDbEntity
  8
0
100
AcDbBlockBegin
  2
*D12
 70
     1
 10
0.0
 20
0.0
 30
0.0
  3
*D12
  1

  0
MTEXT
  5
1AE
330
1A5
100
AcDbEntity
  8
0
 62
     1
100
AcDbMText
 10
-20.5482782779341
 20
113.9655568311612
 30
0.0
 40
3.200000047683716
 41
0.0
 71
     5
 72
     1
  1
8
 73
     1
 44
1.0
  0
POINT
  5
1AF
330
1A5
100
AcDbEntity
  8
Defpoints
 62
     0
100
AcDbPoint
 10
-12.65867824977687
 20
86.98998630612074
 30
0.0
  0
POINT
  5
1B0
330
1A5
100
AcDbEntity
  8
Defpoints
 62
     0
100
AcDbPoint
 10
-8.658708509298322
 20
89.12615646491135
 30
0.0
  0
POINT
  5
1B1
330
1A5
100
AcDbEntity
  8
Defpoints
 62
     0
100
AcDbPoint
 10
-8.658708509298318
 20
111.5511567951838
 30
0.0
  0
LINE
  5
1B2
330
1A5
100
AcDbEntity
  8
0
  6
Continuous
 62
     7
100
AcDbLine
 10
-8.658708509298322
 20
91.66615646491135
 30
0.0
 11
-8.658708509298322
 21
113.8371567951838
 31
0.0
  0
LINE
  5
1B3
330
1A5
100
AcDbEntity
  8
0
  6
Continuous
 62
     7
100
AcDbLine
 10
-19.00867824977687
 20
111.5511567951838
 30
0.0
 11
-8.658708509298322
 21
111.5511567951838
 31
0.0
  0
LINE
  5
1B4
330
1A5
100
AcDbEntity
  8
0
  6
Continuous
 62
     7
100
AcDbLine
 10
-12.65867824977687
 20
111.5511567951838
 30
0.0
 11
-15.71320391178249
 21
110.7326991108838
 31
0.0
  0
LINE
  5
1B5
330
1A5
100
AcDbEntity
  8
0
  6
Continuous
 62
     7
100
AcDbLine
 10
-12.65867824977687
 20
111.5511567951838
 30
0.0
 11
-15.71320391178249
 21
112.3696144794838
 31
0.0
  0
LINE
  5
1B6
330
1A5
100
AcDbEntity
  8
0
  6
Continuous
 62
     7
100
AcDbLine
 10
-12.65867824977687
 20
111.5511567951838
 30
0.0
 11
-18.36798368698325
 21
111.5511567951838
 31
0.0
  0
ENDBLK
  5
1A7
330
1A5
100
AcDbEntity
  8
0
100
AcDbBlockEnd
  0
BLOCK
  5
1B9
330
1B8
100
AcDbEntity
  8
0
100
AcDbBlockBegin
  2
*D13
 70
     1
 10
0.0
 20
0.0
 30
0.0
  3
*D13
  1

  0
LINE
  5
1BB
330
1B8
100
AcDbEntity
  8
0
 62
     0
370
    -2
100
AcDbLine
 10
23.34135200974447
 20
91.66615646491135
 30
0.0
 11
23.34135200974447
 21
113.8371567951838
 31
0.0
  0
LINE
  5
1BC
330
1B8
100
AcDbEntity
  8
0
 62
     0
370
    -2
100
AcDbLine
 10
-5.658708509298318
 20
111.5511567951838
 30
0.0
 11
20.34135200974447
 21
111.5511567951838
 31
0.0
  0
INSERT
  5
1BD
330
1B8
100
AcDbEntity
  8
0
 62
     0
370
    -2
100
AcDbBlockReference
  2
_OPEN30
 10
-8.658708509298318
 20
111.5511567951838
 30
0.0
 41
3.0
 42
3.0
 43
3.0
 50
180.0
  0
INSERT
  5
1BE
330
1B8
100
AcDbEntity
  8
0
 62
     0
370
    -2
100
AcDbBlockReference
  2
_OPEN30
 10
23.34135200974447
 20
111.5511567951838
 30
0.0
 41
3.0
 42
3.0
 43
3.0
  0
MTEXT
  5
1BF
330
1B8
100
AcDbEntity
  8
0
 62
     1
100
AcDbMText
 10
7.342321750223074
 20
113.9655568311612
 30
0.0
 40
3.200000047683716
 41
0.0
 71
     5
 72
     1
  1
64
 73
     1
 44
1.0
  0
POINT
  5
1C0
330
1B8
100
AcDbEntity
  8
Defpoints
 62
     0
100
AcDbPoint
 10
-8.658708509298322
 20
89.12615646491135
 30
0.0
  0
POINT
  5
1C1
330
1B8
100
AcDbEntity
  8
Defpoints
 62
     0
100
AcDbPoint
 10
23.34135200974447
 20
89.12615646491135
 30
0.0
  0
POINT
  5
1C2
330
1B8
100
AcDbEntity
  8
Defpoints
 62
     0
100
AcDbPoint
 10
23.34135200974447
 20
111.5511567951838
 30
0.0
  0
ENDBLK
  5
1BA
330
1B8
100
AcDbEntity
  8
0
100
AcDbBlockEnd
  0
BLOCK
  5
1C5
330
1C4
100
AcDbEntity
  8
0
100
AcDbBlockBegin
  2
*D14
 70
     1
 10
0.0
 20
0.0
 30
0.0
  3
*D14
  1

  0
MTEXT
  5
1CC
330
1C4
100
AcDbEntity
  8
0
 62
     1
100
AcDbMText
 10
35.23092177838005
 20
113.9655568311612
 30
0.0
 40
3.200000047683716
 41
0.0
 71
     5
 72
     1
  1
8
 73
     1
 44
1.0
  0
POINT
  5
1CD
330
1C4
100
AcDbEntity
  8
Defpoints
 62
     0
100
AcDbPoint
 10
23.34135200974447
 20
89.12615646491135
 30
0.0
  0
POINT
  5
1CE
330
1C4
100
AcDbEntity
  8
Defpoints
 62
     0
100
AcDbPoint
 10
27.34132175022282
 20
86.98998683923962
 30
0.0
  0
POINT
  5
1CF
330
1C4
100
AcDbEntity
  8
Defpoints
 62
     0
100
AcDbPoint
 10
27.34132175022282
 20
111.5511567951838
 30
0.0
  0
LINE
  5
1D0
330
1C4
100
AcDbEntity
  8
0
  6
Continuous
 62
     7
100
AcDbLine
 10
23.34135200974447
 20
111.5511567951838
 30
0.0
 11
33.69132175022282
 21
111.5511567951838
 31
0.0
  0
LINE
  5
1D1
330
1C4
100
AcDbEntity
  8
0
  6
Continuous
 62
     7
100
AcDbLine
 10
27.34132175022282
 20
111.5511567951838
 30
0.0
 11
30.39584741222844
 21
112.3696144794838
 31
0.0
  0
LINE
  5
1D2
330
1C4
100
AcDbEntity
  8
0
  6
Continuous
 62
     7
100
AcDbLine
 10
27.34132175022282
 20
111.5511567951838
 30
0.0
 11
30.39584741222844
 21
110.7326991108838
 31
0.0
  0
LINE
  5
1D3
330
1C4
100
AcDbEntity
  8
0
  6
Continuous
 62
     7
100
AcDbLine
 10
27.34132175022282
 20
111.5511567951838
 30
0.0
 11
33.8918705619264
 21
111.5511567951838
 31
0.0
  0
ENDBLK
  5
1C6
330
1C4
100
AcDbEntity
  8
0
100
AcDbBlockEnd
  0
BLOCK
  5
1D6
330
1D5
100
AcDbEntity
  8
0
100
AcDbBlockBegin
  2
*D15
 70
     1
 10
0.0
 20
0.0
 30
0.0
  3
*D15
  1

  0
LINE
  5
1D8
330
1D5
100
AcDbEntity
  8
0
 62
     0
370
    -2
100
AcDbLine
 10
27.34132175022282
 20
89.52998683923963
 30
0.0
 11
27.34132175022282
 21
123.8371567951838
 31
0.0
  0
LINE
  5
1D9
330
1D5
100
AcDbEntity
  8
0
 62
     0
370
    -2
100
AcDbLine
 10
-12.65867824977687
 20
89.52998630612075
 30
0.0
 11
-12.65867824977687
 21
123.8371567951838
 31
0.0
  0
LINE
  5
1DA
330
1D5
100
AcDbEntity
  8
0
 62
     0
370
    -2
100
AcDbLine
 10
24.34132175022282
 20
121.5511567951838
 30
0.0
 11
-9.658678249776871
 21
121.5511567951838
 31
0.0
  0
INSERT
  5
1DB
330
1D5
100
AcDbEntity
  8
0
 62
     0
370
    -2
100
AcDbBlockReference
  2
_OPEN30
 10
27.34132175022282
 20
121.5511567951838
 30
0.0
 41
3.0
 42
3.0
 43
3.0
  0
INSERT
  5
1DC
330
1D5
100
AcDbEntity
  8
0
 62
     0
370
    -2
100
AcDbBlockReference
  2
_OPEN30
 10
-12.65867824977687
 20
121.5511567951838
 30
0.0
 41
3.0
 42
3.0
 43
3.0
 50
180.0
  0
MTEXT
  5
1DD
330
1D5
100
AcDbEntity
  8
0
 62
     1
100
AcDbMText
 10
7.343321750223074
 20
123.9655568311612
 30
0.0
 40
3.200000047683716
 41
0.0
 71
     5
 72
     1
  1
80
 73
     1
 44
1.0
  0
POINT
  5
1DE
330
1D5
100
AcDbEntity
  8
Defpoints
 62
     0
100
AcDbPoint
 10
27.34132175022282
 20
86.98998683923962
 30
0.0
  0
POINT
  5
1DF
330
1D5
100
AcDbEntity
  8
Defpoints
 62
     0
100
AcDbPoint
 10
-12.65867824977687
 20
86.98998630612074
 30
0.0
  0
POINT
  5
1E0
330
1D5
100
AcDbEntity
  8
Defpoints
 62
     0
100
AcDbPoint
 10
-12.65867824977687
 20
121.5511567951838
 30
0.0
  0
ENDBLK
  5
1D7
330
1D5
100
AcDbEntity
  8
0
100
AcDbBlockEnd
  0
BLOCK
  5
1E3
330
1E2
100
AcDbEntity
  8
0
100
AcDbBlockBegin
  2
*D16
 70
     1
 10
0.0
 20
0.0
 30
0.0
  3
*D16
  1

  0
LINE
  5
1E5
330
1E2
100
AcDbEntity
  8
0
 62
     0
370
    -2
100
AcDbLine
 10
7.341321750223075
 20
96.59115679518393
 30
0.0
 11
7.341321750223081
 21
103.8371567951838
 31
0.0
  0
LINE
  5
1E6
330
1E2
100
AcDbEntity
  8
0
 62
     0
370
    -2
100
AcDbLine
 10
10.34132175022308
 20
101.5511567951838
 30
0.0
 11
24.34132175022282
 21
101.5511567951838
 31
0.0
  0
INSERT
  5
1E7
330
1E2
100
AcDbEntity
  8
0
 62
     0
370
    -2
100
AcDbBlockReference
  2
_OPEN30
 10
7.341321750223079
 20
101.5511567951838
 30
0.0
 41
3.0
 42
3.0
 43
3.0
 50
180.0
  0
INSERT
  5
1E8
330
1E2
100
AcDbEntity
  8
0
 62
     0
370
    -2
100
AcDbBlockReference
  2
_OPEN30
 10
27.34132175022282
 20
101.5511567951838
 30
0.0
 41
3.0
 42
3.0
 43
3.0
  0
MTEXT
  5
1E9
330
1E2
100
AcDbEntity
  8
0
 62
     1
100
AcDbMText
 10
17.34232175022293
 20
103.9655568311612
 30
0.0
 40
3.200000047683716
 41
0.0
 71
     5
 72
     1
  1
40
 73
     1
 44
1.0
  0
POINT
  5
1EA
330
1E2
100
AcDbEntity
  8
Defpoints
 62
     0
100
AcDbPoint
 10
7.341321750223074
 20
94.05115679518393
 30
0.0
  0
POINT
  5
1EB
330
1E2
100
AcDbEntity
  8
Defpoints
 62
     0
100
AcDbPoint
 10
27.34132175022282
 20
86.98998683923962
 30
0.0
  0
POINT
  5
1EC
330
1E2
100
AcDbEntity
  8
Defpoints
 62
     0
100
AcDbPoint
 10
27.34132175022282
 20
101.5511567951838
 30
0.0
  0
ENDBLK
  5
1E4
330
1E2
100
AcDbEntity
  8
0
100
AcDbBlockEnd
  0
BLOCK
  5
1EF
330
1EE
100
AcDbEntity
  8
0
100
AcDbBlockBegin
  2
_ORIGIN
 70
     0
 10
0.0
 20
0.0
 30
0.0
  3
_ORIGIN
  1

  0
CIRCLE
  5
1F1
330
1EE
100
AcDbEntity
  8
0
  6
ByBlock
 62
     0
370
    -2
100
AcDbCircle
 10
0.0
 20
0.0
 30
0.0
 40
0.5
  0
LINE
  5
1F2
330
1EE
100
AcDbEntity
  8
0
  6
ByBlock
 62
     0
370
    -2
100
AcDbLine
 10
0.0
 20
0.0
 30
0.0
 11
-1.0
 21
0.0
 31
0.0
  0
ENDBLK
  5
1F0
330
1EE
100
AcDbEntity
  8
0
100
AcDbBlockEnd
  0
BLOCK
  5
1F4
330
1F3
100
AcDbEntity
  8
0
100
AcDbBlockBegin
  2
*D18
 70
     1
 10
0.0
 20
0.0
 30
0.0
  3
*D18
  1

  0
MTEXT
  5
1FD
330
1F3
100
AcDbEntity
  8
0
 62
     1
 60
     1
100
AcDbMText
 10
32.26125500784227
 20
100.7287568425337
 30
0.0
 40
3.200000047683716
 41
0.0
 71
     5
 72
     1
  1
\P12
 11
0.0
 21
1.0
 31
0.0
 73
     1
 44
1.0
  0
POINT
  5
1FE
330
1F3
100
AcDbEntity
  8
Defpoints
 62
     0
100
AcDbPoint
 10
7.341321750223074
 20
91.5511567951838
 30
0.0
  0
POINT
  5
1FF
330
1F3
100
AcDbEntity
  8
Defpoints
 62
     0
100
AcDbPoint
 10
26.91635200974451
 20
85.55115646491134
 30
0.0
  0
POINT
  5
200
330
1F3
100
AcDbEntity
  8
Defpoints
 62
     0
100
AcDbPoint
 10
37.34132175022273
 20
85.55115646491134
 30
0.0
  0
LINE
  5
201
330
1F3
100
AcDbEntity
  8
0
  6
Continuous
 62
     7
100
AcDbLine
 10
29.45635200974451
 20
85.55115646491134
 30
0.0
 11
39.62732175022273
 21
85.55115646491134
 31
0.0
  0
LINE
  5
202
330
1F3
100
AcDbEntity
  8
0
  6
Continuous
 62
     7
100
AcDbLine
 10
37.34132175022273
 20
97.90115679518381
 30
0.0
 11
37.34132175022273
 21
85.55115646491136
 31
0.0
  0
LINE
  5
203
330
1F3
100
AcDbEntity
  8
0
  6
Continuous
 62
     7
100
AcDbLine
 10
37.34132175022273
 20
91.55115679518381
 30
0.0
 11
36.52286406592273
 21
94.60568245718945
 31
0.0
  0
LINE
  5
204
330
1F3
100
AcDbEntity
  8
0
  6
Continuous
 62
     7
100
AcDbLine
 10
37.34132175022273
 20
91.55115679518381
 30
0.0
 11
38.15977943452273
 21
94.60568245718945
 31
0.0
  0
CIRCLE
  5
205
330
1F3
100
AcDbEntity
  8
0
  6
Continuous
 62
     7
100
AcDbCircle
 10
37.34132175022273
 20
85.55115646491136
 30
0.0
 40
1.27
  0
LINE
  5
206
330
1F3
100
AcDbEntity
  8
0
  6
Continuous
 62
     7
100
AcDbLine
 10
37.34132175022273
 20
91.55115679518381
 30
0.0
 11
37.34132175022273
 21
99.82026855792739
 31
0.0
  0
MTEXT
  5
207
330
1F3
100
AcDbEntity
  8
0
 62
     1
100
AcDbMText
 10
36.5413217383018
 20
94.33426855649688
 30
0.0
 40
3.200000047683716
 41
0.0
 71
     7
 72
     1
  1
\W1; 
 11
6.123233995736766E-17
 21
1.0
 31
0.0
 73
     1
 44
1.0
  0
MTEXT
  5
208
330
1F3
100
AcDbEntity
  8
0
 62
     1
100
AcDbMText
 10
42.14132182174831
 20
94.33426855649688
 30
0.0
 40
3.200000047683716
 41
0.0
 71
     7
 72
     1
  1
\W1;12
 11
6.123233995736766E-17
 21
1.0
 31
0.0
 73
     1
 44
1.0
  0
ENDBLK
  5
1F5
330
1F3
100
AcDbEntity
  8
0
100
AcDbBlockEnd
  0
BLOCK
  5
20B
330
20A
100
AcDbEntity
  8
0
100
AcDbBlockBegin
  2
*D19
 70
     1
 10
0.0
 20
0.0
 30
0.0
  3
*D19
  1

  0
LINE
  5
20D
330
20A
100
AcDbEntity
  8
0
 62
     0
370
    -2
100
AcDbLine
 10
29.50629149070168
 20
80.05115646491134
 30
0.0
 11
39.62832175022273
 21
80.05115646491134
 31
0.0
  0
LINE
  5
20E
330
20A
100
AcDbEntity
  8
0
 62
     0
370
    -2
100
AcDbLine
 10
37.34232175022273
 20
85.55115646491134
 30
0.0
 11
37.34232175022273
 21
80.05115646491134
 31
0.0
  0
INSERT
  5
20F
330
20A
100
AcDbEntity
  8
0
 62
     0
370
    -2
100
AcDbBlockReference
  2
_NONE
 10
37.34232175022273
 20
85.55115646491134
 30
0.0
 50
90.0
  0
INSERT
  5
210
330
20A
100
AcDbEntity
  8
0
 62
     0
370
    -2
100
AcDbBlockReference
  2
_NONE
 10
37.34232175022273
 20
80.05115646491134
 30
0.0
 50
270.0
  0
MTEXT
  5
211
330
20A
100
AcDbEntity
  8
0
 62
     1
100
AcDbMText
 10
34.94232171445994
 20
82.80215646491135
 30
0.0
 40
3.200000047683716
 41
0.0
 71
     5
 72
     1
  1
11
 11
0.0
 21
1.0
 31
0.0
 73
     1
 44
1.0
  0
POINT
  5
212
330
20A
100
AcDbEntity
  8
Defpoints
 62
     0
100
AcDbPoint
 10
26.91635200974451
 20
85.55115646491134
 30
0.0
  0
POINT
  5
213
330
20A
100
AcDbEntity
  8
Defpoints
 62
     0
100
AcDbPoint
 10
26.96629149070168
 20
80.05115646491134
 30
0.0
  0
POINT
  5
214
330
20A
100
AcDbEntity
  8
Defpoints
 62
     0
100
AcDbPoint
 10
37.34132175022273
 20
80.05115646491134
 30
0.0
  0
ENDBLK
  5
20C
330
20A
100
AcDbEntity
  8
0
100
AcDbBlockEnd
  0
BLOCK
  5
217
330
216
100
AcDbEntity
  8
0
100
AcDbBlockBegin
  2
*D20
 70
     1
 10
0.0
 20
0.0
 30
0.0
  3
*D20
  1

  0
LINE
  5
219
330
216
100
AcDbEntity
  8
0
 62
     0
370
    -2
100
AcDbLine
 10
13.45635205742824
 20
52.30115646491138
 30
0.0
 11
39.62832175022274
 21
52.30115646491138
 31
0.0
  0
LINE
  5
21A
330
216
100
AcDbEntity
  8
0
 62
     0
370
    -2
100
AcDbLine
 10
37.34232175022273
 20
77.05115646491134
 30
0.0
 11
37.34232175022274
 21
55.30115646491138
 31
0.0
  0
INSERT
  5
21B
330
216
100
AcDbEntity
  8
0
 62
     0
370
    -2
100
AcDbBlockReference
  2
_OPEN30
 10
37.34232175022273
 20
80.05115646491134
 30
0.0
 41
3.0
 42
3.0
 43
3.0
 50
90.00000000000001
  0
INSERT
  5
21C
330
216
100
AcDbEntity
  8
0
 62
     0
370
    -2
100
AcDbBlockReference
  2
_OPEN30
 10
37.34232175022274
 20
52.30115646491138
 30
0.0
 41
3.0
 42
3.0
 43
3.0
 50
270.0
  0
MTEXT
  5
21D
330
216
100
AcDbEntity
  8
0
 62
     1
100
AcDbMText
 10
34.92152171415
 20
66.17715646491138
 30
0.0
 40
3.200000047683716
 41
0.0
 71
     5
 72
     1
  1
55.5
 11
-2.560514363099464E-16
 21
1.0
 31
0.0
 73
     1
 44
1.0
  0
POINT
  5
21E
330
216
100
AcDbEntity
  8
Defpoints
 62
     0
100
AcDbPoint
 10
26.96629149070168
 20
80.05115646491134
 30
0.0
  0
POINT
  5
21F
330
216
100
AcDbEntity
  8
Defpoints
 62
     0
100
AcDbPoint
 10
10.91635205742824
 20
52.30115646491138
 30
0.0
  0
POINT
  5
220
330
216
100
AcDbEntity
  8
Defpoints
 62
     0
100
AcDbPoint
 10
37.34132175022273
 20
52.30115646491139
 30
0.0
  0
ENDBLK
  5
218
330
216
100
AcDbEntity
  8
0
100
AcDbBlockEnd
  0
BLOCK
  5
223
330
222
100
AcDbEntity
  8
0
100
AcDbBlockBegin
  2
*D21
 70
     1
 10
0.0
 20
0.0
 30
0.0
  3
*D21
  1

  0
MTEXT
  5
22A
330
222
100
AcDbEntity
  8
0
 62
     1
100
AcDbMText
 10
34.92692171424537
 20
40.41155676702678
 30
0.0
 40
3.200000047683716
 41
0.0
 71
     5
 72
     1
  1
8
 11
0.0
 21
1.0
 31
0.0
 73
     1
 44
1.0
  0
POINT
  5
22B
330
222
100
AcDbEntity
  8
Defpoints
 62
     0
100
AcDbPoint
 10
10.91635205742824
 20
52.30115646491138
 30
0.0
  0
POINT
  5
22C
330
222
100
AcDbEntity
  8
Defpoints
 62
     0
100
AcDbPoint
 10
7.341321750223074
 20
48.30115679518401
 30
0.0
  0
POINT
  5
22D
330
222
100
AcDbEntity
  8
Defpoints
 62
     0
100
AcDbPoint
 10
37.34132175022273
 20
48.30115679518402
 30
0.0
  0
LINE
  5
22E
330
222
100
AcDbEntity
  8
0
  6
Continuous
 62
     7
100
AcDbLine
 10
37.34132175022273
 20
52.30115646491139
 30
0.0
 11
37.34132175022273
 21
41.951156795184
 31
0.0
  0
LINE
  5
22F
330
222
100
AcDbEntity
  8
0
  6
Continuous
 62
     7
100
AcDbLine
 10
37.34132175022273
 20
48.301156795184
 30
0.0
 11
38.15977943452273
 21
45.24663113317838
 31
0.0
  0
LINE
  5
230
330
222
100
AcDbEntity
  8
0
  6
Continuous
 62
     7
100
AcDbLine
 10
37.34132175022273
 20
48.301156795184
 30
0.0
 11
36.52286406592273
 21
45.24663113317838
 31
0.0
  0
LINE
  5
231
330
222
100
AcDbEntity
  8
0
  6
Continuous
 62
     7
100
AcDbLine
 10
37.34132175022273
 20
48.301156795184
 30
0.0
 11
37.34132175022273
 21
41.27536548039463
 31
0.0
  0
ENDBLK
  5
224
330
222
100
AcDbEntity
  8
0
100
AcDbBlockEnd
  0
BLOCK
  5
234
330
233
100
AcDbEntity
  8
0
100
AcDbBlockBegin
  2
*D22
 70
     1
 10
0.0
 20
0.0
 30
0.0
  3
*D22
  1

  0
LINE
  5
236
330
233
100
AcDbEntity
  8
0
 62
     0
370
    -2
100
AcDbLine
 10
9.881321750223073
 20
48.30115679518401
 30
0.0
 11
49.62732175022273
 21
48.30115679518399
 31
0.0
  0
LINE
  5
237
330
233
100
AcDbEntity
  8
0
 62
     0
370
    -2
100
AcDbLine
 10
9.881321750223073
 20
91.5511567951838
 30
0.0
 11
49.62732175022273
 21
91.55115679518379
 31
0.0
  0
LINE
  5
238
330
233
100
AcDbEntity
  8
0
 62
     0
370
    -2
100
AcDbLine
 10
47.34132175022273
 20
51.30115679518399
 30
0.0
 11
47.34132175022273
 21
88.55115679518379
 31
0.0
  0
INSERT
  5
239
330
233
100
AcDbEntity
  8
0
 62
     0
370
    -2
100
AcDbBlockReference
  2
_OPEN30
 10
47.34132175022273
 20
48.30115679518399
 30
0.0
 41
3.0
 42
3.0
 43
3.0
 50
270.0
  0
INSERT
  5
23A
330
233
100
AcDbEntity
  8
0
 62
     0
370
    -2
100
AcDbBlockReference
  2
_OPEN30
 10
47.34132175022273
 20
91.55115679518379
 30
0.0
 41
3.0
 42
3.0
 43
3.0
 50
90.0
  0
MTEXT
  5
23B
330
233
100
AcDbEntity
  8
0
 62
     1
100
AcDbMText
 10
44.92052171415
 20
69.92715679518389
 30
0.0
 40
3.200000047683716
 41
0.0
 71
     5
 72
     1
  1
86.5
 11
1.642873377480008E-16
 21
1.0
 31
0.0
 73
     1
 44
1.0
  0
POINT
  5
23C
330
233
100
AcDbEntity
  8
Defpoints
 62
     0
100
AcDbPoint
 10
7.341321750223074
 20
48.30115679518401
 30
0.0
  0
POINT
  5
23D
330
233
100
AcDbEntity
  8
Defpoints
 62
     0
100
AcDbPoint
 10
7.341321750223074
 20
91.5511567951838
 30
0.0
  0
POINT
  5
23E
330
233
100
AcDbEntity
  8
Defpoints
 62
     0
100
AcDbPoint
 10
47.34132175022273
 20
91.55115679518379
 30
0.0
  0
ENDBLK
  5
235
330
233
100
AcDbEntity
  8
0
100
AcDbBlockEnd
  0
BLOCK
  5
246
330
23F
100
AcDbEntity
  8
0
100
AcDbBlockBegin
  2
SYM0001
 70
     0
 10
0.0
 20
0.0
 30
0.0
  3
SYM0001
  1

  0
LINE
  5
240
330
23F
100
AcDbEntity
  8
0
  6
Continuous
 62
     7
100
AcDbLine
 10
0.0
 20
0.0
 30
0.0
 11
13.59136584245051
 21
20.15275723547143
 31
0.0
  0
LINE
  5
241
330
23F
100
AcDbEntity
  8
0
  6
Continuous
 62
     7
100
AcDbLine
 10
0.0
 20
0.0
 30
0.0
 11
1.029349205885516
 21
2.990056891295467
 31
0.0
  0
LINE
  5
242
330
23F
100
AcDbEntity
  8
0
  6
Continuous
 62
     7
100
AcDbLine
 10
0.0
 20
0.0
 30
0.0
 11
2.386471007190089
 21
2.074790623817677
 31
0.0
  0
LINE
  5
243
330
23F
100
AcDbEntity
  8
0
  6
Continuous
 62
     7
100
AcDbLine
 10
13.59136584245051
 20
20.15275723547141
 30
0.0
 11
37.82046570845927
 21
20.15275723547141
 31
0.0
  0
MTEXT
  5
244
330
23F
100
AcDbEntity
  8
0
 62
     1
100
AcDbMText
 10
15.25764290508441
 20
20.95275724739234
 30
0.0
 40
3.200000047683716
 41
0.0
 71
     7
 72
     1
  1
{\W0.833333;2-\U+22056.5穴}
 73
     1
 44
1.0
  0
ENDBLK
  5
247
330
23F
100
AcDbEntity
  8
0
100
AcDbBlockEnd
  0
BLOCK
  5
24F
330
248
100
AcDbEntity
  8
0
100
AcDbBlockBegin
  2
SYM0002
 70
     0
 10
0.0
 20
0.0
 30
0.0
  3
SYM0002
  1

  0
LINE
  5
249
330
248
100
AcDbEntity
  8
0
  6
Continuous
 62
     7
100
AcDbLine
 10
0.0
 20
0.0
 30
0.0
 11
13.49031328970488
 21
25.05349343532393
 31
0.0
  0
LINE
  5
24A
330
248
100
AcDbEntity
  8
0
  6
Continuous
 62
     7
100
AcDbLine
 10
0.0
 20
0.0
 30
0.0
 11
0.727518945377152
 21
3.077452872906093
 31
0.0
  0
LINE
  5
24B
330
248
100
AcDbEntity
  8
0
  6
Continuous
 62
     7
100
AcDbLine
 10
0.0
 20
0.0
 30
0.0
 11
2.168776324751196
 21
2.30139289432276
 31
0.0
  0
LINE
  5
24C
330
248
100
AcDbEntity
  8
0
  6
Continuous
 62
     7
100
AcDbLine
 10
13.49031328970489
 20
25.05349343532394
 30
0.0
 11
37.71941315571365
 21
25.05349343532394
 31
0.0
  0
MTEXT
  5
24D
330
248
100
AcDbEntity
  8
0
 62
     1
100
AcDbMText
 10
14.67076990916598
 20
25.85349344724487
 30
0.0
 40
3.200000047683716
 41
0.0
 71
     7
 72
     1
  1
{\W0.833333;3-\U+22054.3穴}
 73
     1
 44
1.0
  0
ENDBLK
  5
250
330
248
100
AcDbEntity
  8
0
100
AcDbBlockEnd
  0
ENDSEC
  0
SECTION
  2
ENTITIES
  0
LWPOLYLINE
  5
45
330
1F
100
AcDbEntity
  8
VIEW0001
  6
Continuous
 62
     7
100
AcDbPolyline
 90
        2
 70
     0
 10
25.75
 20
-129.0
 40
0.001000000047497
 41
0.001000000047497
 10
25.75
 20
-120.0
 40
0.001000000047497
 41
0.001000000047497
  0
LWPOLYLINE
  5
46
330
1F
100
AcDbEntity
  8
VIEW0001
  6
Continuous
 62
     7
100
AcDbPolyline
 90
        2
 70
     0
 10
-64.5
 20
-138.0
 40
0.001000000047497
 41
0.001000000047497
 10
-64.5
 20
-120.0
 40
0.001000000047497
 41
0.001000000047497
  0
LINE
  5
47
330
1F
100
AcDbEntity
  8
VIEW0001
  6
Continuous
 62
     7
370
    50
100
AcDbLine
 10
-84.5
 20
138.0
 30
0.0
 11
-84.5
 21
-138.0
 31
0.0
  0
LINE
  5
48
330
1F
100
AcDbEntity
  8
VIEW0001
  6
Continuous
 62
     7
370
    50
100
AcDbLine
 10
96.0
 20
138.0
 30
0.0
 11
96.0
 21
-138.0
 31
0.0
  0
LINE
  5
49
330
1F
100
AcDbEntity
  8
VIEW0001
  6
Continuous
 62
     7
370
    50
100
AcDbLine
 10
-84.5
 20
-138.0
 30
0.0
 11
96.0
 21
-138.0
 31
0.0
  0
LINE
  5
4A
330
1F
100
AcDbEntity
  8
VIEW0001
  6
Continuous
 62
     7
370
    50
100
AcDbLine
 10
-84.5
 20
138.0
 30
0.0
 11
96.0
 21
138.0
 31
0.0
  0
LINE
  5
4B
330
1F
100
AcDbEntity
  8
VIEW0001
  6
Continuous
 62
     7
370
    20
100
AcDbLine
 10
-84.5
 20
-120.0
 30
0.0
 11
96.0
 21
-120.0
 31
0.0
  0
LWPOLYLINE
  5
4C
330
1F
100
AcDbEntity
  8
VIEW0001
  6
Continuous
 62
     7
100
AcDbPolyline
 90
        2
 70
     0
 10
96.0
 20
-129.0
 40
0.001000000047497
 41
0.001000000047497
 10
-84.5
 20
-129.0
 40
0.001000000047497
 41
0.001000000047497
  0
LINE
  5
4D
330
1F
100
AcDbEntity
  8
VIEW0001
  6
Continuous
 62
     7
370
    20
100
AcDbLine
 10
41.0
 20
128.0
 30
0.0
 11
96.0
 21
128.0
 31
0.0
  0
LINE
  5
4E
330
1F
100
AcDbEntity
  8
VIEW0001
  6
Continuous
 62
     7
370
    20
100
AcDbLine
 10
41.0
 20
138.0
 30
0.0
 11
41.0
 21
128.0
 31
0.0
  0
LWPOLYLINE
  5
4F
330
1F
100
AcDbEntity
  8
VIEW0001
  6
Continuous
 62
     7
100
AcDbPolyline
 90
        2
 70
     0
 10
5.75
 20
-138.0
 40
0.001000000047497
 41
0.001000000047497
 10
5.75
 20
-120.0
 40
0.001000000047497
 41
0.001000000047497
  0
LWPOLYLINE
  5
50
330
1F
100
AcDbEntity
  8
VIEW0001
  6
Continuous
 62
     7
100
AcDbPolyline
 90
        2
 70
     0
 10
66.0
 20
-129.0
 40
0.001000000047497
 41
0.001000000047497
 10
66.0
 20
-120.0
 40
0.001000000047497
 41
0.001000000047497
  0
LWPOLYLINE
  5
51
330
1F
100
AcDbEntity
  8
VIEW0001
  6
Continuous
 62
     7
100
AcDbPolyline
 90
        2
 70
     0
 10
81.0
 20
-129.0
 40
0.001000000047497
 41
0.001000000047497
 10
81.0
 20
-120.0
 40
0.001000000047497
 41
0.001000000047497
  0
MTEXT
  5
52
330
1F
100
AcDbEntity
  8
VIEW0001
 62
     1
100
AcDbMText
 10
70.07124996185303
 20
-126.5
 30
0.0
 40
4.0
 41
0.0
 71
     7
 72
     1
  1
{\W0.833333;尺度}
 73
     1
 44
1.0
  0
MTEXT
  5
53
330
1F
100
AcDbEntity
  8
VIEW0001
 62
     1
100
AcDbMText
 10
-77.92875003814697
 20
-126.5
 30
0.0
 40
4.0
 41
0.0
 71
     7
 72
     1
  1
{\W0.833333;品名}
 73
     1
 44
1.0
  0
MTEXT
  5
54
330
1F
100
AcDbEntity
  8
VIEW0001
 62
     1
100
AcDbMText
 10
-77.92875003814697
 20
-135.5
 30
0.0
 40
4.0
 41
0.0
 71
     7
 72
     1
  1
{\W0.833333;規格}
 73
     1
 44
1.0
  0
MTEXT
  5
55
330
1F
100
AcDbEntity
  8
VIEW0001
 62
     1
100
AcDbMText
 10
12.32124996185303
 20
-126.5
 30
0.0
 40
4.0
 41
0.0
 71
     7
 72
     1
  1
{\W0.833333;材質}
 73
     1
 44
1.0
  0
MTEXT
  5
56
330
1F
100
AcDbEntity
  8
VIEW0001
 62
     1
100
AcDbMText
 10
-54.80375301837921
 20
-126.5
 30
0.0
 40
4.0
 41
0.0
 71
     7
 72
     1
  1
{\W0.833333;ポリカ内吊り面打ち固定0寸}
 73
     1
 44
1.0
  0
MTEXT
  5
57
330
1F
100
AcDbEntity
  8
VIEW0001
 62
     1
100
AcDbMText
 10
83.07124984264374
 20
-126.5
 30
0.0
 40
4.0
 41
0.0
 71
     7
 72
     1
  1
{\W0.833333;1/2}
 73
     1
 44
1.0
  0
MTEXT
  5
58
330
1F
100
AcDbEntity
  8
VIEW0001
 62
     1
100
AcDbMText
 10
-48.80375057458878
 20
-135.5
 30
0.0
 40
4.0
 41
0.0
 71
     7
 72
     1
  1
{\W0.833333;Ｋ型ＣＲ１０５－５Ｎ}
 73
     1
 44
1.0
  0
MTEXT
  5
59
330
1F
100
AcDbEntity
  8
VIEW0001
 62
     1
100
AcDbMText
 10
42.44624990224838
 20
-126.5
 30
0.0
 40
4.0
 41
0.0
 71
     7
 72
     1
  1
{\W0.833333;ＰＣ}
 73
     1
 44
1.0
  0
MTEXT
  5
5A
330
1F
100
AcDbEntity
  8
VIEW0001
 62
     1
100
AcDbMText
 10
26.46785604953766
 20
-135.75
 30
0.0
 40
4.5
 41
0.0
 71
     7
 72
     1
  1
{\W1.40741;デンカ株式会社}
 73
     1
 44
1.0
  0
LINE
  5
5C
330
1F
100
AcDbEntity
  8
VIEW0002
  6
Continuous
 62
     7
100
AcDbLine
 10
23.47561624488414
 20
-7.698842874543183
 30
0.0
 11
23.0168965937555
 21
-0.198842874543195
 31
0.0
  0
LINE
  5
5D
330
1F
100
AcDbEntity
  8
VIEW0002
  6
Continuous
 62
     7
100
AcDbLine
 10
-21.75517736709304
 20
-69.19884287454322
 30
0.0
 11
-15.05204525739427
 21
-69.19884287454322
 31
0.0
  0
LINE
  5
5E
330
1F
100
AcDbEntity
  8
VIEW0002
  6
Continuous
 62
     7
100
AcDbLine
 10
34.09135200974424
 20
-58.14884287454321
 30
0.0
 11
37.34129901351992
 21
-58.14884287454321
 31
0.0
  0
LINE
  5
5F
330
1F
100
AcDbEntity
  8
VIEW0002
  6
Continuous
 62
     7
100
AcDbLine
 10
43.59135200974421
 20
-45.1988428745432
 30
0.0
 11
43.59135200974421
 21
-88.44884287454319
 31
0.0
  0
LINE
  5
60
330
1F
100
AcDbEntity
  8
VIEW0002
  6
Continuous
 62
     7
100
AcDbLine
 10
29.62823230847675
 20
-48.72892322784677
 30
0.0
 11
36.18867766468279
 21
-48.32766920050713
 31
0.0
  0
LINE
  5
61
330
1F
100
AcDbEntity
  8
VIEW0002
  6
Continuous
 62
     7
100
AcDbLine
 10
29.49697826328662
 20
-46.58293339198504
 30
0.0
 11
31.66278635152299
 21
-46.45046689456539
 31
0.0
  0
LINE
  5
62
330
1F
100
AcDbEntity
  8
VIEW0002
  6
Continuous
 62
     7
100
AcDbLine
 10
39.84135200974421
 20
-45.1988428745432
 30
0.0
 11
39.84135200974421
 21
-78.0346823083945
 31
0.0
  0
LINE
  5
63
330
1F
100
AcDbEntity
  8
VIEW0002
  6
Continuous
 62
     7
100
AcDbLine
 10
-24.80870098648006
 20
-59.40088390341051
 30
0.0
 11
-24.80870098648006
 21
-62.39884287454318
 31
0.0
  0
LINE
  5
64
330
1F
100
AcDbEntity
  8
VIEW0002
  6
Continuous
 62
     7
100
AcDbLine
 10
0.568454094418996
 20
-71.14884287454323
 30
0.0
 11
27.2913518309303
 21
-71.14884287454323
 31
0.0
  0
LINE
  5
65
330
1F
100
AcDbEntity
  8
VIEW0002
  6
Continuous
 62
     7
100
AcDbLine
 10
39.84135200974424
 20
-45.19884287454322
 30
0.0
 11
43.59135200974424
 21
-45.19884287454322
 31
0.0
  0
LINE
  5
66
330
1F
100
AcDbEntity
  8
VIEW0002
  6
DASHED
 62
     7
100
AcDbLine
 10
41.09135201011246
 20
-85.52384325249946
 30
0.0
 11
43.13492988150562
 21
-85.7026331492788
 31
0.0
  0
LINE
  5
67
330
1F
100
AcDbEntity
  8
VIEW0002
  6
Continuous
 62
     7
100
AcDbLine
 10
0.568454094418996
 20
-73.19884287454325
 30
0.0
 11
29.55681350652375
 21
-73.19884287454325
 31
0.0
  0
LINE
  5
68
330
1F
100
AcDbEntity
  8
VIEW0002
  6
CENTER
 62
     7
100
AcDbLine
 10
39.84135200977826
 20
-84.44884287454325
 30
0.0
 11
44.84135200977826
 21
-84.44884287454325
 31
0.0
  0
LINE
  5
69
330
1F
100
AcDbEntity
  8
VIEW0002
  6
Continuous
 62
     7
100
AcDbLine
 10
34.09135200974424
 20
-60.19884287454322
 30
0.0
 11
37.34129901351992
 21
-60.19884287454322
 31
0.0
  0
LINE
  5
6A
330
1F
100
AcDbEntity
  8
VIEW0002
  6
Continuous
 62
     7
100
AcDbLine
 10
38.84129901351989
 20
-46.19889872413957
 30
0.0
 11
38.84129901351989
 21
-78.44884287454325
 31
0.0
  0
LINE
  5
6B
330
1F
100
AcDbEntity
  8
VIEW0002
  6
CENTER
 62
     7
100
AcDbLine
 10
36.34129901351992
 20
-51.19884287454322
 30
0.0
 11
46.09135200974424
 21
-51.19884287454322
 31
0.0
  0
LINE
  5
6C
330
1F
100
AcDbEntity
  8
VIEW0002
  6
Continuous
 62
     7
100
AcDbLine
 10
33.2194584605511
 20
-45.6038552343699
 30
0.0
 11
39.84135504900543
 21
-45.19884268865448
 31
0.0
  0
LINE
  5
6D
330
1F
100
AcDbEntity
  8
VIEW0002
  6
Continuous
 62
     7
100
AcDbLine
 10
-28.15870098648003
 20
-55.19884287454322
 30
0.0
 11
-27.40870098648003
 21
-55.19884287454322
 31
0.0
  0
LINE
  5
6E
330
1F
100
AcDbEntity
  8
VIEW0002
  6
Continuous
 62
     7
100
AcDbLine
 10
-27.15870098648003
 20
-59.19884287454322
 30
0.0
 11
-20.46510879266521
 21
-59.19884287454322
 31
0.0
  0
LINE
  5
6F
330
1F
100
AcDbEntity
  8
VIEW0002
  6
Continuous
 62
     7
100
AcDbLine
 10
-28.90870098648008
 20
-55.9488428745432
 30
0.0
 11
-28.90870098648008
 21
-57.4488428745432
 31
0.0
  0
LINE
  5
70
330
1F
100
AcDbEntity
  8
VIEW0002
  6
Continuous
 62
     7
100
AcDbLine
 10
-27.00869183120659
 20
-57.19884287454322
 30
0.0
 11
-20.21097387684239
 21
-57.19884287454322
 31
0.0
  0
LINE
  5
71
330
1F
100
AcDbEntity
  8
VIEW0002
  6
Continuous
 62
     7
100
AcDbLine
 10
-27.15870098648008
 20
-55.4488428745432
 30
0.0
 11
-27.15870098648008
 21
-57.04884897805882
 31
0.0
  0
LINE
  5
72
330
1F
100
AcDbEntity
  8
VIEW0002
  6
Continuous
 62
     7
100
AcDbLine
 10
38.84135225563033
 20
-46.19884548202981
 30
0.0
 11
39.84135333433412
 21
-45.19884440332602
 31
0.0
  0
LINE
  5
73
330
1F
100
AcDbEntity
  8
VIEW0002
  6
CENTER
 62
     7
100
AcDbLine
 10
36.34129901351992
 20
-56.69884287454322
 30
0.0
 11
46.09135200974424
 21
-56.69884287454322
 31
0.0
  0
LINE
  5
74
330
1F
100
AcDbEntity
  8
VIEW0002
  6
Continuous
 62
     7
100
AcDbLine
 10
42.09135200974424
 20
-88.44884287454325
 30
0.0
 11
43.59135200974424
 21
-88.44884287454325
 31
0.0
  0
LINE
  5
75
330
1F
100
AcDbEntity
  8
VIEW0002
  6
Continuous
 62
     7
100
AcDbLine
 10
-27.15870098648052
 20
-0.198842874543185
 30
0.0
 11
-27.35127033014134
 21
7.155083667703066
 31
0.0
  0
LINE
  5
76
330
1F
100
AcDbEntity
  8
VIEW0002
  6
Continuous
 62
     7
100
AcDbLine
 10
-28.90870098648066
 20
-0.198842874543219
 30
0.0
 11
-28.71613164281985
 21
7.155083667702918
 31
0.0
  0
LINE
  5
77
330
1F
100
AcDbEntity
  8
VIEW0002
  6
Continuous
 62
     7
100
AcDbLine
 10
-27.15870098648062
 20
-0.198842874543332
 30
0.0
 11
-27.35127033014144
 21
-7.552769416789411
 31
0.0
  0
LINE
  5
78
330
1F
100
AcDbEntity
  8
VIEW0002
  6
Continuous
 62
     7
100
AcDbLine
 10
-28.90870098648071
 20
-0.198842874543145
 30
0.0
 11
-28.71613164281989
 21
-7.552769416789282
 31
0.0
  0
LINE
  5
79
330
1F
100
AcDbEntity
  8
VIEW0002
  6
Continuous
 62
     7
100
AcDbLine
 10
-18.50870098648023
 20
-0.198842874543135
 30
0.0
 11
-18.77060675766834
 21
7.301157125456815
 31
0.0
  0
LINE
  5
7A
330
1F
100
AcDbEntity
  8
VIEW0002
  6
Continuous
 62
     7
100
AcDbLine
 10
32.30884459317463
 20
-46.15943887732976
 30
0.0
 11
32.57340021889943
 21
-45.89488325160497
 31
0.0
  0
LINE
  5
7B
330
1F
100
AcDbEntity
  8
VIEW0002
  6
Continuous
 62
     7
100
AcDbLine
 10
-18.96742063760892
 20
-7.698842874543208
 30
0.0
 11
-18.50870098648029
 21
-0.198842874543192
 31
0.0
  0
LINE
  5
7C
330
1F
100
AcDbEntity
  8
VIEW0002
  6
Continuous
 62
     7
100
AcDbLine
 10
32.84129901351982
 20
-0.198842874543144
 30
0.0
 11
33.10320478470793
 21
-7.698842874543207
 31
0.0
  0
LINE
  5
7D
330
1F
100
AcDbEntity
  8
VIEW0002
  6
Continuous
 62
     7
100
AcDbLine
 10
32.49966544968299
 20
-7.698842874543164
 30
0.0
 11
32.04094579855435
 21
-0.198842874543177
 31
0.0
  0
LINE
  5
7E
330
1F
100
AcDbEntity
  8
VIEW0002
  6
Continuous
 62
     7
100
AcDbLine
 10
32.04094579855455
 20
-0.198842874543248
 30
0.0
 11
32.30285156974266
 21
7.301157125456736
 31
0.0
  0
LINE
  5
7F
330
1F
100
AcDbEntity
  8
VIEW0002
  6
Continuous
 62
     7
100
AcDbLine
 10
-28.56618304407289
 20
7.301157125456776
 30
0.0
 11
36.43900544186997
 21
7.301157125456776
 31
0.0
  0
LINE
  5
80
330
1F
100
AcDbEntity
  8
VIEW0002
  6
Continuous
 62
     7
100
AcDbLine
 10
32.84129901351984
 20
-0.198842874543229
 30
0.0
 11
33.10320478470795
 21
7.301157125456689
 31
0.0
  0
LINE
  5
81
330
1F
100
AcDbEntity
  8
VIEW0002
  6
Continuous
 62
     7
100
AcDbLine
 10
-28.56618304407289
 20
-7.698842874543224
 30
0.0
 11
36.43900544186997
 21
-7.698842874543224
 31
0.0
  0
LINE
  5
82
330
1F
100
AcDbEntity
  8
VIEW0002
  6
CENTER
 62
     7
100
AcDbLine
 10
-31.40870098648003
 20
-0.198842874543224
 30
0.0
 11
46.09135200974424
 21
-0.198842874543224
 31
0.0
  0
LINE
  5
83
330
1F
100
AcDbEntity
  8
VIEW0002
  6
Continuous
 62
     7
100
AcDbLine
 10
23.01689659375555
 20
-0.198842874543268
 30
0.0
 11
23.27880236494365
 21
7.30115712545671
 31
0.0
  0
LINE
  5
84
330
1F
100
AcDbEntity
  8
VIEW0002
  6
Continuous
 62
     7
100
AcDbLine
 10
43.59135200974421
 20
19.80115712545655
 30
0.0
 11
43.59135200974421
 21
-20.19884287454294
 31
0.0
  0
LINE
  5
85
330
1F
100
AcDbEntity
  8
VIEW0002
  6
Continuous
 62
     7
100
AcDbLine
 10
38.6510967115608
 20
-77.18631863656752
 30
0.0
 11
35.28155424176142
 21
-72.5355517420459
 31
0.0
  0
LINE
  5
86
330
1F
100
AcDbEntity
  8
VIEW0002
  6
Continuous
 62
     7
100
AcDbLine
 10
37.48395073998869
 20
-72.16653693086678
 30
0.0
 11
36.90114970778517
 21
-71.36213343366838
 31
0.0
  0
LINE
  5
87
330
1F
100
AcDbEntity
  8
VIEW0002
  6
DASHED
 62
     7
100
AcDbLine
 10
38.84129901351984
 20
-50.12384320481583
 30
0.0
 11
43.134929881118
 21
-49.74819917853602
 31
0.0
  0
LINE
  5
88
330
1F
100
AcDbEntity
  8
VIEW0002
  6
DASHED
 62
     7
100
AcDbLine
 10
38.84129901351984
 20
-52.27384320481572
 30
0.0
 11
43.134929881118
 21
-52.64948723109553
 31
0.0
  0
LINE
  5
89
330
1F
100
AcDbEntity
  8
VIEW0002
  6
DASHED
 62
     7
100
AcDbLine
 10
38.84129901351989
 20
-55.07384287454322
 30
0.0
 11
43.13492988111805
 21
-54.69819884826341
 31
0.0
  0
LINE
  5
8A
330
1F
100
AcDbEntity
  8
VIEW0002
  6
DASHED
 62
     7
100
AcDbLine
 10
41.09135201011255
 20
-83.3738431571322
 30
0.0
 11
43.13492988153583
 21
-83.19505326035022
 31
0.0
  0
LINE
  5
8B
330
1F
100
AcDbEntity
  8
VIEW0002
  6
Continuous
 62
     7
100
AcDbLine
 10
40.01079259824195
 20
-20.19884287454294
 30
0.0
 11
43.59135200974427
 21
-20.19884287454294
 31
0.0
  0
LINE
  5
8C
330
1F
100
AcDbEntity
  8
VIEW0002
  6
Continuous
 62
     7
100
AcDbLine
 10
39.00720730750927
 20
18.80629181317997
 30
0.0
 11
40.01079254193822
 21
19.80115709745778
 31
0.0
  0
LINE
  5
8D
330
1F
100
AcDbEntity
  8
VIEW0002
  6
Continuous
 62
     7
100
AcDbLine
 10
40.01079254193788
 20
-20.19884284654314
 30
0.0
 11
39.00720730750963
 21
-19.20397756226605
 31
0.0
  0
LINE
  5
8E
330
1F
100
AcDbEntity
  8
VIEW0002
  6
Continuous
 62
     7
100
AcDbLine
 10
43.59135200974427
 20
19.80115712545655
 30
0.0
 11
40.01079259824195
 21
19.80115712545655
 31
0.0
  0
LINE
  5
8F
330
1F
100
AcDbEntity
  8
VIEW0002
  6
Continuous
 62
     7
100
AcDbLine
 10
41.09135200974421
 20
-80.69889587076757
 30
0.0
 11
41.09135200974421
 21
-87.44884287454325
 31
0.0
  0
LINE
  5
90
330
1F
100
AcDbEntity
  8
VIEW0002
  6
Continuous
 62
     7
100
AcDbLine
 10
35.47082061351298
 20
-46.19889872413957
 30
0.0
 11
38.84129901351992
 21
-46.19889872413957
 31
0.0
  0
LINE
  5
91
330
1F
100
AcDbEntity
  8
VIEW0002
  6
Continuous
 62
     7
100
AcDbLine
 10
38.84129901351987
 20
-78.44884287454323
 30
0.0
 11
41.0913520097442
 21
-80.69889587076754
 31
0.0
  0
LINE
  5
92
330
1F
100
AcDbEntity
  8
VIEW0002
  6
Continuous
 62
     7
100
AcDbLine
 10
39.84135200974423
 20
-78.03468230839448
 30
0.0
 11
42.09135200974423
 21
-80.28468230839448
 31
0.0
  0
LINE
  5
93
330
1F
100
AcDbEntity
  8
VIEW0002
  6
Continuous
 62
     7
100
AcDbLine
 10
42.09135200974421
 20
-80.2846823083945
 30
0.0
 11
42.09135200974421
 21
-88.44884287454319
 31
0.0
  0
LINE
  5
94
330
1F
100
AcDbEntity
  8
VIEW0002
  6
Continuous
 62
     7
100
AcDbLine
 10
41.09135200974424
 20
-87.44884287454326
 30
0.0
 11
42.09135200974426
 21
-88.44884287454326
 31
0.0
  0
LINE
  5
95
330
1F
100
AcDbEntity
  8
VIEW0002
  6
Continuous
 62
     7
100
AcDbLine
 10
41.09135200974414
 20
-80.69889587076759
 30
0.0
 11
42.09135200974413
 21
-80.2846823083945
 31
0.0
  0
LINE
  5
96
330
1F
100
AcDbEntity
  8
VIEW0002
  6
Continuous
 62
     7
100
AcDbLine
 10
38.84129901351992
 20
-78.44884287454342
 30
0.0
 11
39.84135200974426
 21
-78.03468230839464
 31
0.0
  0
LINE
  5
97
330
1F
100
AcDbEntity
  8
VIEW0002
  6
CENTER
 62
     7
100
AcDbLine
 10
-5.083708509298333
 20
85.55115646491134
 30
0.0
 11
-12.23370850929831
 21
85.55115646491134
 31
0.0
  0
LINE
  5
98
330
1F
100
AcDbEntity
  8
VIEW0002
  6
CENTER
 62
     7
100
AcDbLine
 10
-8.658708509298322
 20
89.12615646491135
 30
0.0
 11
-8.658708509298322
 21
81.97615646491134
 31
0.0
  0
LINE
  5
99
330
1F
100
AcDbEntity
  8
VIEW0002
  6
Continuous
 62
     7
100
AcDbLine
 10
23.4809203895715
 20
90.98754959140877
 30
0.0
 11
7.341321750223084
 21
91.55115679518379
 31
0.0
  0
LINE
  5
9A
330
1F
100
AcDbEntity
  8
VIEW0002
  6
Continuous
 62
     7
100
AcDbLine
 10
-8.798276528411
 20
90.9875496040064
 30
0.0
 11
7.341321750223099
 21
91.551156795184
 31
0.0
  0
LINE
  5
9B
330
1F
100
AcDbEntity
  8
VIEW0002
  6
Continuous
 62
     7
100
AcDbLine
 10
-3.193577746479463
 20
89.18205090964324
 30
0.0
 11
5.306422253520533
 21
89.4788774503231
 31
0.0
  0
LINE
  5
9C
330
1F
100
AcDbEntity
  8
VIEW0002
  6
Continuous
 62
     7
100
AcDbLine
 10
18.84132175022233
 20
79.42087259634063
 30
0.0
 11
18.8413217502229
 21
88.18266008262337
 31
0.0
  0
LINE
  5
9D
330
1F
100
AcDbEntity
  8
VIEW0002
  6
Continuous
 62
     7
100
AcDbLine
 10
12.34132175022096
 20
64.30115679518396
 30
0.0
 11
12.34132175022159
 21
67.94743228820897
 31
0.0
  0
LINE
  5
9E
330
1F
100
AcDbEntity
  8
VIEW0002
  6
Continuous
 62
     7
100
AcDbLine
 10
9.306422253520617
 20
76.1209987054854
 30
0.0
 11
14.39592323190399
 21
76.29872799597925
 31
0.0
  0
LINE
  5
9F
330
1F
100
AcDbEntity
  8
VIEW0002
  6
Continuous
 62
     7
100
AcDbLine
 10
6.341321750223074
 20
88.479486623304
 30
0.0
 11
6.341321750223074
 21
79.12404605566145
 31
0.0
  0
LINE
  5
A0
330
1F
100
AcDbEntity
  8
VIEW0002
  6
Continuous
 62
     7
100
AcDbLine
 10
12.34132175022097
 20
60.80115679518396
 30
0.0
 11
12.34132175022097
 21
56.80115679518396
 31
0.0
  0
LINE
  5
A1
330
1F
100
AcDbEntity
  8
VIEW0002
  6
Continuous
 62
     7
100
AcDbLine
 10
9.34132175022313
 20
63.30115679518395
 30
0.0
 11
11.34132175022103
 21
63.30115679518395
 31
0.0
  0
LINE
  5
A2
330
1F
100
AcDbEntity
  8
VIEW0002
  6
Continuous
 62
     7
100
AcDbLine
 10
2.34132175022313
 20
60.80115679518396
 30
0.0
 11
2.34132175022313
 21
56.80115679518396
 31
0.0
  0
LINE
  5
A3
330
1F
100
AcDbEntity
  8
VIEW0002
  6
Continuous
 62
     7
100
AcDbLine
 10
3.341321750223187
 20
61.80115679518395
 30
0.0
 11
11.34132175022103
 21
61.80115679518395
 31
0.0
  0
LINE
  5
A4
330
1F
100
AcDbEntity
  8
VIEW0002
  6
Continuous
 62
     7
100
AcDbLine
 10
3.341321750223187
 20
55.80115679518395
 30
0.0
 11
11.34132175022103
 21
55.80115679518395
 31
0.0
  0
LINE
  5
A5
330
1F
100
AcDbEntity
  8
VIEW0002
  6
Continuous
 62
     7
100
AcDbLine
 10
5.306422253520701
 20
78.12465522864248
 30
0.0
 11
-3.193577746479313
 21
78.42148176932182
 31
0.0
  0
LINE
  5
A6
330
1F
100
AcDbEntity
  8
VIEW0002
  6
Continuous
 62
     7
100
AcDbLine
 10
6.341321750223074
 20
75.12160787846618
 30
0.0
 11
6.341321750223074
 21
64.30115679518396
 31
0.0
  0
LINE
  5
A7
330
1F
100
AcDbEntity
  8
VIEW0002
  6
Continuous
 62
     7
100
AcDbLine
 10
8.341321750223074
 20
88.47948662330386
 30
0.0
 11
8.341321750223074
 21
79.12404605566142
 31
0.0
  0
LINE
  5
A8
330
1F
100
AcDbEntity
  8
VIEW0002
  6
Continuous
 62
     7
100
AcDbLine
 10
9.376221246925487
 20
78.12465522864254
 30
0.0
 11
17.8762212469247
 21
78.42148176932184
 31
0.0
  0
LINE
  5
A9
330
1F
100
AcDbEntity
  8
VIEW0002
  6
Continuous
 62
     7
100
AcDbLine
 10
8.341321750223074
 20
75.12160787846615
 30
0.0
 11
8.341321750223074
 21
64.30115679518396
 31
0.0
  0
LINE
  5
AA
330
1F
100
AcDbEntity
  8
VIEW0002
  6
Continuous
 62
     7
100
AcDbLine
 10
14.61684083831602
 20
69.08834625190947
 30
0.0
 11
16.67132009179687
 21
73.09403820474498
 31
0.0
  0
LINE
  5
AB
330
1F
100
AcDbEntity
  8
VIEW0002
  6
Continuous
 62
     7
100
AcDbLine
 10
14.34132175022058
 20
50.9598241186434
 30
0.0
 11
14.34132175022164
 21
67.94743228820877
 31
0.0
  0
LINE
  5
AC
330
1F
100
AcDbEntity
  8
VIEW0002
  6
Continuous
 62
     7
100
AcDbLine
 10
7.341321750221791
 20
48.30115679518394
 30
0.0
 11
11.92857049197676
 21
48.46134705109581
 31
0.0
  0
LINE
  5
AD
330
1F
100
AcDbEntity
  8
VIEW0002
  6
Continuous
 62
     7
100
AcDbLine
 10
18.80855226194625
 20
74.45160130859203
 30
0.0
 11
23.48091973703198
 21
74.61476397616995
 31
0.0
  0
LINE
  5
AE
330
1F
100
AcDbEntity
  8
VIEW0002
  6
Continuous
 62
     7
100
AcDbLine
 10
27.34132175022228
 20
78.61232728424595
 30
0.0
 11
27.34132175022282
 21
86.98998683923962
 31
0.0
  0
LINE
  5
AF
330
1F
100
AcDbEntity
  8
VIEW0002
  6
Continuous
 62
     7
100
AcDbLine
 10
0.065802662128785
 20
69.08834625190995
 30
0.0
 11
-1.988676591351769
 21
73.09403820474557
 31
0.0
  0
LINE
  5
B0
330
1F
100
AcDbEntity
  8
VIEW0002
  6
Continuous
 62
     7
100
AcDbLine
 10
0.34132175022313
 20
50.95982411864379
 30
0.0
 11
0.34132175022313
 21
67.94743228820919
 31
0.0
  0
LINE
  5
B1
330
1F
100
AcDbEntity
  8
VIEW0002
  6
Continuous
 62
     7
100
AcDbLine
 10
7.341321750221784
 20
48.30115679518392
 30
0.0
 11
2.754073008466829
 21
48.46134705109608
 31
0.0
  0
LINE
  5
B2
330
1F
100
AcDbEntity
  8
VIEW0002
  6
Continuous
 62
     7
100
AcDbLine
 10
-4.125908761501135
 20
74.45160130859254
 30
0.0
 11
-8.7982762365869
 21
74.61476397617076
 31
0.0
  0
LINE
  5
B3
330
1F
100
AcDbEntity
  8
VIEW0002
  6
Continuous
 62
     7
100
AcDbLine
 10
-12.65867824977687
 20
78.61232728424717
 30
0.0
 11
-12.65867824977687
 21
86.98998630612074
 31
0.0
  0
LINE
  5
B4
330
1F
100
AcDbEntity
  8
VIEW0002
  6
CENTER
 62
     7
100
AcDbLine
 10
-12.28364799025547
 20
80.05115646491134
 30
0.0
 11
-4.033647990255474
 21
80.05115646491134
 31
0.0
  0
LINE
  5
B5
330
1F
100
AcDbEntity
  8
VIEW0002
  6
CENTER
 62
     7
100
AcDbLine
 10
-8.158647990255531
 20
84.17615646491136
 30
0.0
 11
-8.158647990255531
 21
75.92615646491136
 31
0.0
  0
LINE
  5
B6
330
1F
100
AcDbEntity
  8
VIEW0002
  6
CENTER
 62
     7
100
AcDbLine
 10
22.84129149070168
 20
84.17615646491136
 30
0.0
 11
22.84129149070168
 21
75.92615646491136
 31
0.0
  0
LINE
  5
B7
330
1F
100
AcDbEntity
  8
VIEW0002
  6
CENTER
 62
     7
100
AcDbLine
 10
23.34135200974447
 20
89.12615646491135
 30
0.0
 11
23.34135200974447
 21
81.97615646491134
 31
0.0
  0
LINE
  5
B8
330
1F
100
AcDbEntity
  8
VIEW0002
  6
CENTER
 62
     7
100
AcDbLine
 10
19.76635200974454
 20
85.55115646491134
 30
0.0
 11
26.91635200974451
 21
85.55115646491134
 31
0.0
  0
LINE
  5
B9
330
1F
100
AcDbEntity
  8
VIEW0002
  6
CENTER
 62
     7
100
AcDbLine
 10
3.76635196206081
 20
52.30115646491138
 30
0.0
 11
10.91635205742824
 21
52.30115646491138
 31
0.0
  0
LINE
  5
BA
330
1F
100
AcDbEntity
  8
VIEW0002
  6
Continuous
 62
     7
100
AcDbLine
 10
-4.15867824977687
 20
79.4208725963408
 30
0.0
 11
-4.15867824977687
 21
88.18266008262414
 31
0.0
  0
LINE
  5
BB
330
1F
100
AcDbEntity
  8
VIEW0002
  6
Continuous
 62
     7
100
AcDbLine
 10
17.87622124692544
 20
89.18205090964237
 30
0.0
 11
9.376221246925633
 21
89.47887745032274
 31
0.0
  0
LINE
  5
BC
330
1F
100
AcDbEntity
  8
VIEW0002
  6
Continuous
 62
     7
100
AcDbLine
 10
2.34132175022313
 20
64.30115679518396
 30
0.0
 11
2.34132175022313
 21
67.94743228820919
 31
0.0
  0
LINE
  5
BD
330
1F
100
AcDbEntity
  8
VIEW0002
  6
Continuous
 62
     7
100
AcDbLine
 10
5.376221246925573
 20
76.12099870548545
 30
0.0
 11
0.286720268541575
 21
76.2987279959793
 31
0.0
  0
LINE
  5
BE
330
1F
100
AcDbEntity
  8
VIEW0002
  6
Continuous
 62
     7
100
AcDbLine
 10
1.845387391653322
 20
70.00107742287062
 30
0.0
 11
-0.637971592923236
 21
74.84297158347988
 31
0.0
  0
LINE
  5
BF
330
1F
100
AcDbEntity
  8
VIEW0002
  6
CENTER
 62
     7
100
AcDbLine
 10
7.341321750223074
 20
94.05115679518393
 30
0.0
 11
7.341321750223074
 21
45.8011567951839
 31
0.0
  0
LINE
  5
C0
330
1F
100
AcDbEntity
  8
VIEW0002
  6
Continuous
 62
     7
100
AcDbLine
 10
12.83725610879159
 20
70.00107742287015
 30
0.0
 11
15.32061509336872
 21
74.84297158347967
 31
0.0
  0
LINE
  5
C1
330
1F
100
AcDbEntity
  8
VIEW0002
  6
Continuous
 62
     7
100
AcDbLine
 10
3.341321750223187
 20
63.30115679518395
 30
0.0
 11
5.34132175022313
 21
63.30115679518395
 31
0.0
  0
LINE
  5
C2
330
1F
100
AcDbEntity
  8
VIEW0002
  6
CENTER
 62
     7
100
AcDbLine
 10
26.96629149070168
 20
80.05115646491134
 30
0.0
 11
18.71629149070168
 21
80.05115646491134
 31
0.0
  0
LINE
  5
C3
330
1F
100
AcDbEntity
  8
VIEW0002
  6
Continuous
 62
     7
100
AcDbLine
 10
30.09135200974421
 20
-64.19884287454326
 30
0.0
 11
30.09135200974421
 21
-70.39884287454326
 31
0.0
  0
LINE
  5
C4
330
1F
100
AcDbEntity
  8
VIEW0002
  6
Continuous
 62
     7
100
AcDbLine
 10
28.0413520097442
 20
-64.19884287454326
 30
0.0
 11
28.0413520097442
 21
-70.39884287454326
 31
0.0
  0
LINE
  5
C5
330
1F
100
AcDbEntity
  8
VIEW0002
  6
DASHED
 62
     7
100
AcDbLine
 10
38.8412990135199
 20
-58.32384287454321
 30
0.0
 11
43.13492988111805
 21
-58.69948690082303
 31
0.0
  0
LINE
  5
C6
330
1F
100
AcDbEntity
  8
VIEW0002
  6
Continuous
 62
     7
100
AcDbLine
 10
31.98287401401043
 20
-70.55378715466665
 30
0.0
 11
33.05692094412495
 21
-60.33491322061818
 31
0.0
  0
LINE
  5
C7
330
1F
100
AcDbEntity
  8
VIEW0002
  6
Continuous
 62
     7
100
AcDbLine
 10
31.70974648340749
 20
-71.27156820133233
 30
0.0
 11
30.77546881897324
 21
-72.57341661611042
 31
0.0
  0
ARC
  5
C8
330
1F
100
AcDbEntity
  8
VIEW0002
  6
Continuous
 62
     7
100
AcDbCircle
 10
-27.15870098648008
 20
-57.44884287454322
 30
0.0
 40
1.75
100
AcDbArc
 50
180.0
 51
270.0
  0
ARC
  5
C9
330
1F
100
AcDbEntity
  8
VIEW0002
  6
Continuous
 62
     7
100
AcDbCircle
 10
31.60173781198813
 20
-45.4523320961432
 30
0.0
 40
1.0
100
AcDbArc
 50
273.5
 51
314.9999999999997
  0
ARC
  5
CA
330
1F
100
AcDbEntity
  8
VIEW0002
  6
Continuous
 62
     7
100
AcDbCircle
 10
-28.15870098648008
 20
-55.94884287454322
 30
0.0
 40
0.75
100
AcDbArc
 50
90.00000000000001
 51
180.0
  0
ARC
  5
CB
330
1F
100
AcDbEntity
  8
VIEW0002
  6
Continuous
 62
     7
100
AcDbCircle
 10
30.2600850074723
 20
-59.05961837225794
 30
0.0
 40
10.35
100
AcDbArc
 50
93.49999825401142
 51
145.0370085592224
  0
ARC
  5
CC
330
1F
100
AcDbEntity
  8
VIEW0002
  6
Continuous
 62
     7
100
AcDbCircle
 10
23.55460847794566
 20
-58.76012089448064
 30
0.0
 40
48.5
100
AcDbArc
 50
184.3026699771822
 51
189.9379128020709
  0
ARC
  5
CD
330
1F
100
AcDbEntity
  8
VIEW0002
  6
Continuous
 62
     7
100
AcDbCircle
 10
-20.21097387684242
 20
-62.19884287454322
 30
0.0
 40
5.0
100
AcDbArc
 50
54.01247381689472
 51
90.00000000000001
  0
ARC
  5
CE
330
1F
100
AcDbEntity
  8
VIEW0002
  6
Continuous
 62
     7
100
AcDbCircle
 10
-25.35450869921246
 20
-60.19884287454322
 30
0.0
 40
1.0
100
AcDbArc
 50
33.25643128596943
 51
90.00000000000001
  0
ARC
  5
CF
330
1F
100
AcDbEntity
  8
VIEW0002
  6
Continuous
 62
     7
100
AcDbCircle
 10
-1.70128697668008
 20
-36.71077721906519
 30
0.0
 40
26.5
100
AcDbArc
 50
234.0124738168947
 51
325.0370085592224
  0
ARC
  5
D0
330
1F
100
AcDbEntity
  8
VIEW0002
  6
Continuous
 62
     7
100
AcDbCircle
 10
-20.86230650804214
 20
-59.94884287454322
 30
0.0
 40
0.75
100
AcDbArc
 50
90.00000000000001
 51
218.0107143804514
  0
ARC
  5
D1
330
1F
100
AcDbEntity
  8
VIEW0002
  6
Continuous
 62
     7
100
AcDbCircle
 10
37.34129901351989
 20
-61.69884287454322
 30
0.0
 40
1.5
100
AcDbArc
 50
0.0
 51
90.00000000000001
  0
ARC
  5
D2
330
1F
100
AcDbEntity
  8
VIEW0002
  6
Continuous
 62
     7
100
AcDbCircle
 10
-27.40870098648008
 20
-55.44884287454322
 30
0.0
 40
0.25
100
AcDbArc
 50
0.0
 51
90.00000000000001
  0
ARC
  5
D3
330
1F
100
AcDbEntity
  8
VIEW0002
  6
Continuous
 62
     7
100
AcDbCircle
 10
30.2600850074723
 20
-59.05961837225794
 30
0.0
 40
12.5
100
AcDbArc
 50
93.49999999999999
 51
145.0370085592224
  0
ARC
  5
D4
330
1F
100
AcDbEntity
  8
VIEW0002
  6
Continuous
 62
     7
100
AcDbCircle
 10
38.09129901351989
 20
-71.72650502902418
 30
0.0
 40
0.75
100
AcDbArc
 50
215.9238293235701
 51
0.0
  0
ARC
  5
D5
330
1F
100
AcDbEntity
  8
VIEW0002
  6
Continuous
 62
     7
100
AcDbCircle
 10
-21.75517736709307
 20
-66.69884287454322
 30
0.0
 40
2.5
100
AcDbArc
 50
189.9379128020709
 51
270.0
  0
ARC
  5
D6
330
1F
100
AcDbEntity
  8
VIEW0002
  6
Continuous
 62
     7
100
AcDbCircle
 10
36.09135200974421
 20
-71.94884263612467
 30
0.0
 40
1.0
100
AcDbArc
 50
35.92382932356905
 51
215.9238361537589
  0
ARC
  5
D7
330
1F
100
AcDbEntity
  8
VIEW0002
  6
Continuous
 62
     7
100
AcDbCircle
 10
37.34129901351989
 20
-56.64884287454321
 30
0.0
 40
1.5
100
AcDbArc
 50
270.0
 51
0.0
  0
ARC
  5
D8
330
1F
100
AcDbEntity
  8
VIEW0002
  6
Continuous
 62
     7
100
AcDbCircle
 10
-15.0520452573943
 20
-71.69884287454325
 30
0.0
 40
2.5
100
AcDbArc
 50
61.27339465185916
 51
90.00000000000001
  0
ARC
  5
D9
330
1F
100
AcDbEntity
  8
VIEW0002
  6
Continuous
 62
     7
100
AcDbCircle
 10
-27.00869183120665
 20
-57.04884897805885
 30
0.0
 40
0.1500000059604645
100
AcDbArc
 50
179.999991348578
 51
270.0000006832453
  0
ARC
  5
DA
330
1F
100
AcDbEntity
  8
VIEW0002
  6
Continuous
 62
     7
100
AcDbCircle
 10
-1.70128697668008
 20
-36.71077721906519
 30
0.0
 40
28.65
100
AcDbArc
 50
233.6402170216983
 51
325.0370085592224
  0
ARC
  5
DB
330
1F
100
AcDbEntity
  8
VIEW0002
  6
Continuous
 62
     7
100
AcDbCircle
 10
0.568454094418968
 20
-43.19884287454322
 30
0.0
 40
27.95
100
AcDbArc
 50
218.0107143804508
 51
270.0
  0
ARC
  5
DC
330
1F
100
AcDbEntity
  8
VIEW0002
  6
Continuous
 62
     7
100
AcDbCircle
 10
-28.56618304407294
 20
7.15115712545677
 30
0.0
 40
0.15
100
AcDbArc
 50
90.00000000000001
 51
178.5000000000016
  0
ARC
  5
DD
330
1F
100
AcDbEntity
  8
VIEW0002
  6
Continuous
 62
     7
100
AcDbCircle
 10
-27.50121892888725
 20
7.15115712545677
 30
0.0
 40
0.15
100
AcDbArc
 50
1.499999999998368
 51
90.00000000000001
  0
ARC
  5
DE
330
1F
100
AcDbEntity
  8
VIEW0002
  6
Continuous
 62
     7
100
AcDbCircle
 10
-28.56618304407294
 20
-7.548842874543219
 30
0.0
 40
0.15
100
AcDbArc
 50
181.4999999999984
 51
270.0
  0
ARC
  5
DF
330
1F
100
AcDbEntity
  8
VIEW0002
  6
Continuous
 62
     7
100
AcDbCircle
 10
-27.50121892888723
 20
-7.548842874543219
 30
0.0
 40
0.15
100
AcDbArc
 50
270.0
 51
358.5000000000016
  0
ARC
  5
E0
330
1F
100
AcDbEntity
  8
VIEW0002
  6
Continuous
 62
     7
100
AcDbCircle
 10
33.28050700008598
 20
-46.60199003279146
 30
0.0
 40
1.0
100
AcDbArc
 50
93.49999999999993
 51
135.0000000000002
  0
ARC
  5
E1
330
1F
100
AcDbEntity
  8
VIEW0002
  6
Continuous
 62
     7
100
AcDbCircle
 10
-20.46510879266523
 20
-62.19884287454322
 30
0.0
 40
3.0
100
AcDbArc
 50
53.64021702169829
 51
90.00000000000001
  0
ARC
  5
E2
330
1F
100
AcDbEntity
  8
VIEW0002
  6
Continuous
 62
     7
100
AcDbCircle
 10
37.84129901351989
 20
-77.77302783902378
 30
0.0
 40
1.0
100
AcDbArc
 50
0.0
 51
35.92382932356929
  0
ARC
  5
E3
330
1F
100
AcDbEntity
  8
VIEW0002
  6
DASHED
 62
     7
100
AcDbCircle
 10
43.09135200974421
 20
-53.14758458014136
 30
0.0
 40
0.5
100
AcDbArc
 50
0.0
 51
84.99999999999986
  0
ARC
  5
E4
330
1F
100
AcDbEntity
  8
VIEW0002
  6
DASHED
 62
     7
100
AcDbCircle
 10
43.09135200974421
 20
-49.25010182949006
 30
0.0
 40
0.5
100
AcDbArc
 50
275.0000000000001
 51
0.0
  0
ARC
  5
E5
330
1F
100
AcDbEntity
  8
VIEW0002
  6
DASHED
 62
     7
100
AcDbCircle
 10
43.09135200974421
 20
-59.1975842498689
 30
0.0
 40
0.5
100
AcDbArc
 50
0.0
 51
85.00000000000026
  0
ARC
  5
E6
330
1F
100
AcDbEntity
  8
VIEW0002
  6
DASHED
 62
     7
100
AcDbCircle
 10
43.09135201013186
 20
-86.20073049832466
 30
0.0
 40
0.5
100
AcDbArc
 50
359.9999999995066
 51
85.00000000000026
  0
ARC
  5
E7
330
1F
100
AcDbEntity
  8
VIEW0002
  6
DASHED
 62
     7
100
AcDbCircle
 10
43.09135201016201
 20
-82.69695591130436
 30
0.0
 40
0.5
100
AcDbArc
 50
274.9999999999998
 51
359.9999999995066
  0
ARC
  5
E8
330
1F
100
AcDbEntity
  8
VIEW0002
  6
Continuous
 62
     7
100
AcDbCircle
 10
0.568454094418968
 20
-43.19884287454322
 30
0.0
 40
30.0
100
AcDbArc
 50
213.2564312859695
 51
270.0
  0
ARC
  5
E9
330
1F
100
AcDbEntity
  8
VIEW0002
  6
DASHED
 62
     7
100
AcDbCircle
 10
43.09135200974421
 20
-54.20010149921755
 30
0.0
 40
0.5
100
AcDbArc
 50
274.9999999999997
 51
0.0
  0
ARC
  5
EA
330
1F
100
AcDbEntity
  8
VIEW0002
  6
Continuous
 62
     7
100
AcDbCircle
 10
35.43721287294181
 20
10.80099576741913
 30
0.0
 40
3.5
100
AcDbArc
 50
269.9999999999991
 51
359.499994024913
  0
ARC
  5
EB
330
1F
100
AcDbEntity
  8
VIEW0002
  6
Continuous
 62
     7
100
AcDbCircle
 10
36.43900544186994
 20
10.80117736982388
 30
0.0
 40
3.5
100
AcDbArc
 50
269.9999999999991
 51
359.490851058532
  0
ARC
  5
EC
330
1F
100
AcDbEntity
  8
VIEW0002
  6
Continuous
 62
     7
100
AcDbCircle
 10
36.43900544186994
 20
-11.19886311891036
 30
0.0
 40
3.5
100
AcDbArc
 50
0.509148941467984
 51
89.9999999999993
  0
ARC
  5
ED
330
1F
100
AcDbEntity
  8
VIEW0002
  6
Continuous
 62
     7
100
AcDbCircle
 10
35.43721287294181
 20
-11.19868151650569
 30
0.0
 40
3.5
100
AcDbArc
 50
0.499999999996434
 51
89.9999999999993
  0
ARC
  5
EE
330
1F
100
AcDbEntity
  8
VIEW0002
  6
Continuous
 62
     7
100
AcDbCircle
 10
36.34129901351989
 20
-50.82300619656178
 30
0.0
 40
2.5
100
AcDbArc
 50
0.0
 51
93.50000000000003
  0
ARC
  5
EF
330
1F
100
AcDbEntity
  8
VIEW0002
  6
Continuous
 62
     7
100
AcDbCircle
 10
11.34132175022097
 20
64.30115679518394
 30
0.0
 40
1.0
100
AcDbArc
 50
270.0
 51
359.9999999999963
  0
ARC
  5
F0
330
1F
100
AcDbEntity
  8
VIEW0002
  6
Continuous
 62
     7
100
AcDbCircle
 10
3.34132175022313
 20
64.30115679518394
 30
0.0
 40
1.0
100
AcDbArc
 50
180.0
 51
270.0
  0
ARC
  5
F1
330
1F
100
AcDbEntity
  8
VIEW0002
  6
Continuous
 62
     7
100
AcDbCircle
 10
-3.15867824977687
 20
88.18266008262412
 30
0.0
 40
1.0
100
AcDbArc
 50
91.99999999999997
 51
180.0
  0
ARC
  5
F2
330
1F
100
AcDbEntity
  8
VIEW0002
  6
Continuous
 62
     7
100
AcDbCircle
 10
-2.15867824977687
 20
67.94743228820917
 30
0.0
 40
4.50000000000001
100
AcDbArc
 50
0.0
 51
27.1528328763931
  0
ARC
  5
F3
330
1F
100
AcDbEntity
  8
VIEW0002
  6
Continuous
 62
     7
100
AcDbCircle
 10
5.341321750223074
 20
75.1216078784662
 30
0.0
 40
1.0
100
AcDbArc
 50
0.0
 51
88.00000000000368
  0
ARC
  5
F4
330
1F
100
AcDbEntity
  8
VIEW0002
  6
Continuous
 62
     7
100
AcDbCircle
 10
5.341321750223074
 20
88.47948662330398
 30
0.0
 40
1.0
100
AcDbArc
 50
0.0
 51
91.99999999999997
  0
ARC
  5
F5
330
1F
100
AcDbEntity
  8
VIEW0002
  6
Continuous
 62
     7
100
AcDbCircle
 10
3.34132175022313
 20
60.80115679518395
 30
0.0
 40
1.0
100
AcDbArc
 50
90.00000000000001
 51
180.0
  0
ARC
  5
F6
330
1F
100
AcDbEntity
  8
VIEW0002
  6
Continuous
 62
     7
100
AcDbCircle
 10
-3.15867824977687
 20
79.42087259634079
 30
0.0
 40
1.0
100
AcDbArc
 50
180.0
 51
268.0000000000037
  0
ARC
  5
F7
330
1F
100
AcDbEntity
  8
VIEW0002
  6
Continuous
 62
     7
100
AcDbCircle
 10
16.84132175022165
 20
67.94743228820857
 30
0.0
 40
4.500000000000005
100
AcDbArc
 50
152.8471671236031
 51
180.0
  0
ARC
  5
F8
330
1F
100
AcDbEntity
  8
VIEW0002
  6
Continuous
 62
     7
100
AcDbCircle
 10
11.34132175022097
 20
56.80115679518395
 30
0.0
 40
1.0
100
AcDbArc
 50
270.0
 51
0.0
  0
ARC
  5
F9
330
1F
100
AcDbEntity
  8
VIEW0002
  6
Continuous
 62
     7
100
AcDbCircle
 10
5.341321750223074
 20
79.12404605566144
 30
0.0
 40
1.0
100
AcDbArc
 50
268.0000000000037
 51
0.0
  0
ARC
  5
FA
330
1F
100
AcDbEntity
  8
VIEW0002
  6
Continuous
 62
     7
100
AcDbCircle
 10
17.84132175022233
 20
79.42087259634073
 30
0.0
 40
1.0
100
AcDbArc
 50
271.9999999999965
 51
359.9999999999959
  0
ARC
  5
FB
330
1F
100
AcDbEntity
  8
VIEW0002
  6
Continuous
 62
     7
100
AcDbCircle
 10
5.341321750223074
 20
64.30115679518394
 30
0.0
 40
1.0
100
AcDbArc
 50
270.0
 51
0.0
  0
ARC
  5
FC
330
1F
100
AcDbEntity
  8
VIEW0002
  6
Continuous
 62
     7
100
AcDbCircle
 10
3.34132175022313
 20
56.80115679518395
 30
0.0
 40
1.0
100
AcDbArc
 50
180.0
 51
270.0
  0
ARC
  5
FD
330
1F
100
AcDbEntity
  8
VIEW0002
  6
Continuous
 62
     7
100
AcDbCircle
 10
11.34132175022097
 20
60.80115679518395
 30
0.0
 40
1.0
100
AcDbArc
 50
0.0
 51
90.00000000000001
  0
ARC
  5
FE
330
1F
100
AcDbEntity
  8
VIEW0002
  6
Continuous
 62
     7
100
AcDbCircle
 10
9.341321750223074
 20
75.12160787846614
 30
0.0
 40
1.0
100
AcDbArc
 50
91.99999999999632
 51
180.0
  0
ARC
  5
FF
330
1F
100
AcDbEntity
  8
VIEW0002
  6
Continuous
 62
     7
100
AcDbCircle
 10
9.341321750223074
 20
64.30115679518394
 30
0.0
 40
1.0
100
AcDbArc
 50
180.0
 51
270.0
  0
ARC
  5
100
330
1F
100
AcDbEntity
  8
VIEW0002
  6
Continuous
 62
     7
100
AcDbCircle
 10
0.25182077183905
 20
75.29933716896005
 30
0.0
 40
1.0
100
AcDbArc
 50
88.00000000000367
 51
207.1528328763931
  0
ARC
  5
101
330
1F
100
AcDbEntity
  8
VIEW0002
  6
Continuous
 62
     7
100
AcDbCircle
 10
9.341321750223074
 20
79.12404605566144
 30
0.0
 40
1.0
100
AcDbArc
 50
180.0
 51
271.9999999999963
  0
ARC
  5
102
330
1F
100
AcDbEntity
  8
VIEW0002
  6
Continuous
 62
     7
100
AcDbCircle
 10
17.8413217502229
 20
88.18266008262344
 30
0.0
 40
1.0
100
AcDbArc
 50
359.9999999999959
 51
87.99999999999636
  0
ARC
  5
103
330
1F
100
AcDbEntity
  8
VIEW0002
  6
Continuous
 62
     7
100
AcDbCircle
 10
14.43082272860642
 20
75.29933716896
 30
0.0
 40
1.0
100
AcDbArc
 50
332.8471671236032
 51
91.99999999999632
  0
ARC
  5
104
330
1F
100
AcDbEntity
  8
VIEW0002
  6
Continuous
 62
     7
100
AcDbCircle
 10
18.89580100370245
 20
71.95312424104412
 30
0.0
 40
2.499999999999992
100
AcDbArc
 50
91.99999999999713
 51
152.8471671236033
  0
ARC
  5
105
330
1F
100
AcDbEntity
  8
VIEW0002
  6
Continuous
 62
     7
100
AcDbCircle
 10
16.84132175022165
 20
67.94743228820857
 30
0.0
 40
2.500000000000005
100
AcDbArc
 50
152.8471671236031
 51
180.0
  0
ARC
  5
106
330
1F
100
AcDbEntity
  8
VIEW0002
  6
Continuous
 62
     7
100
AcDbCircle
 10
11.84132175022052
 20
50.9598241186435
 30
0.0
 40
2.499999999999993
100
AcDbArc
 50
271.9999999999963
 51
0.0
  0
ARC
  5
107
330
1F
100
AcDbEntity
  8
VIEW0002
  6
Continuous
 62
     7
100
AcDbCircle
 10
23.34132175022233
 20
78.61232728424619
 30
0.0
 40
3.999999999999999
100
AcDbArc
 50
271.9999999999964
 51
0.0
  0
ARC
  5
108
330
1F
100
AcDbEntity
  8
VIEW0002
  6
Continuous
 62
     7
100
AcDbCircle
 10
23.34132175022285
 20
86.9899863061197
 30
0.0
 40
3.999999999999996
100
AcDbArc
 50
0.0
 51
87.99999999999649
  0
ARC
  5
109
330
1F
100
AcDbEntity
  8
VIEW0002
  6
Continuous
 62
     7
100
AcDbCircle
 10
-4.213157503257491
 20
71.95312424104483
 30
0.0
 40
2.500000000000004
100
AcDbArc
 50
27.15283287639325
 51
87.99999999999962
  0
ARC
  5
10A
330
1F
100
AcDbEntity
  8
VIEW0002
  6
Continuous
 62
     7
100
AcDbCircle
 10
-2.15867824977687
 20
67.94743228820917
 30
0.0
 40
2.50000000000001
100
AcDbArc
 50
0.0
 51
27.1528328763931
  0
ARC
  5
10B
330
1F
100
AcDbEntity
  8
VIEW0002
  6
Continuous
 62
     7
100
AcDbCircle
 10
2.84132175022313
 20
50.95982411864379
 30
0.0
 40
2.499999999999995
100
AcDbArc
 50
180.0
 51
267.9999999999996
  0
ARC
  5
10C
330
1F
100
AcDbEntity
  8
VIEW0002
  6
Continuous
 62
     7
100
AcDbCircle
 10
-8.65867824977687
 20
78.61232728424716
 30
0.0
 40
4.0
100
AcDbArc
 50
180.0
 51
267.9999999999997
  0
ARC
  5
10D
330
1F
100
AcDbEntity
  8
VIEW0002
  6
Continuous
 62
     7
100
AcDbCircle
 10
-8.65867824977687
 20
86.98998630612073
 30
0.0
 40
3.999999999999996
100
AcDbArc
 50
91.99999999999997
 51
180.0
  0
CIRCLE
  5
10E
330
1F
100
AcDbEntity
  8
VIEW0002
  6
Continuous
 62
     7
100
AcDbCircle
 10
23.34135200974447
 20
85.55115646491134
 30
0.0
 40
1.075
  0
CIRCLE
  5
10F
330
1F
100
AcDbEntity
  8
VIEW0002
  6
Continuous
 62
     7
100
AcDbCircle
 10
7.341352009744469
 20
52.30115646491138
 30
0.0
 40
1.075000047683716
  0
CIRCLE
  5
110
330
1F
100
AcDbEntity
  8
VIEW0002
  6
Continuous
 62
     7
100
AcDbCircle
 10
-8.658647990255531
 20
85.55115646491134
 30
0.0
 40
1.075
  0
CIRCLE
  5
111
330
1F
100
AcDbEntity
  8
VIEW0002
  6
Continuous
 62
     7
100
AcDbCircle
 10
22.84135200974447
 20
80.05115646491134
 30
0.0
 40
1.625
  0
CIRCLE
  5
112
330
1F
100
AcDbEntity
  8
VIEW0002
  6
Continuous
 62
     7
100
AcDbCircle
 10
-8.158647990255531
 20
80.05115646491134
 30
0.0
 40
1.625
  0
ARC
  5
113
330
1F
100
AcDbEntity
  8
VIEW0002
  6
Continuous
 62
     7
100
AcDbCircle
 10
9.341321750223074
 20
88.47948662330384
 30
0.0
 40
1.0
100
AcDbArc
 50
87.99999999999636
 51
180.0
  0
ARC
  5
114
330
1F
100
AcDbEntity
  8
VIEW0002
  6
Continuous
 62
     7
100
AcDbCircle
 10
29.55681350652372
 20
-71.69884287454325
 30
0.0
 40
1.5
100
AcDbArc
 50
270.0
 51
324.3347085887698
  0
ARC
  5
115
330
1F
100
AcDbEntity
  8
VIEW0002
  6
Continuous
 62
     7
100
AcDbCircle
 10
27.2913520097442
 20
-70.39884287454326
 30
0.0
 40
2.8
100
AcDbArc
 50
269.9999999999999
 51
0.0
  0
ARC
  5
116
330
1F
100
AcDbEntity
  8
VIEW0002
  6
Continuous
 62
     7
100
AcDbCircle
 10
34.09135200974421
 20
-64.19884287454326
 30
0.0
 40
4.0
100
AcDbArc
 50
90.00000000000001
 51
180.0
  0
ARC
  5
117
330
1F
100
AcDbEntity
  8
VIEW0002
  6
Continuous
 62
     7
100
AcDbCircle
 10
34.09135200974421
 20
-64.19884287454326
 30
0.0
 40
6.05
100
AcDbArc
 50
90.00000000000001
 51
180.0
  0
ARC
  5
118
330
1F
100
AcDbEntity
  8
VIEW0002
  6
Continuous
 62
     7
100
AcDbCircle
 10
27.2913520097442
 20
-70.39884287454326
 30
0.0
 40
0.75
100
AcDbArc
 50
269.9999999999999
 51
0.0
  0
ARC
  5
119
330
1F
100
AcDbEntity
  8
VIEW0002
  6
Continuous
 62
     7
100
AcDbCircle
 10
30.49109117095796
 20
-70.39699445976517
 30
0.0
 40
1.5
100
AcDbArc
 50
324.3347085887697
 51
354.0
  0
SPLINE
  5
11A
330
1F
100
AcDbEntity
  8
VIEW0002
  6
Continuous
 62
     7
100
AcDbSpline
210
0.0
220
0.0
230
1.0
 70
    24
 71
     3
 72
    13
 73
     9
 74
     7
 42
0.0000000001
 43
0.0000000001
 44
0.0000000001
 12
0.008726535498399605
 22
-0.9999619230641711
 32
0.0
 13
0.008726535498361353
 23
-0.9999619230641712
 33
0.0
 40
0.0
 40
0.0
 40
0.0
 40
0.0
 40
0.4034314056525207
 40
1.350845980317529
 40
2.298492837993015
 40
3.246514188622415
 40
4.195052242149047
 40
5.144249208516262
 40
5.144249208516262
 40
5.144249208516262
 40
5.144249208516262
 10
38.9370796066018
 20
-11.16813897857472
 30
0.0
 10
38.938253126096
 20
-11.30261099331498
 30
0.0
 10
38.94218252789603
 20
-11.75287584139559
 30
0.0
 10
38.9488684876772
 20
-12.5190109475385
 30
0.0
 10
38.95713857528729
 20
-13.4666691232349
 30
0.0
 10
38.96541193092352
 20
-14.41470177762563
 30
0.0
 10
38.97368979558583
 20
-15.36325111523915
 30
0.0
 10
38.97921001292509
 20
-15.99580536855891
 30
0.0
 10
38.98197107993241
 20
-16.31219230984399
 30
0.0
 11
38.9370796066018
 21
-11.16813897857472
 31
0.0
 11
38.94060016508439
 21
-11.5715550227955
 31
0.0
 11
38.94886781200188
 21
-12.51893352281655
 31
0.0
 11
38.95713748594528
 21
-13.46654429700344
 31
0.0
 11
38.96541042791478
 21
-14.41452954988471
 31
0.0
 11
38.97368787891043
 21
-15.36303148598875
 31
0.0
 11
38.98197107993241
 21
-16.31219230984399
 31
0.0
  0
SPLINE
  5
11B
330
1F
100
AcDbEntity
  8
VIEW0002
  6
Continuous
 62
     7
100
AcDbSpline
210
0.0
220
0.0
230
1.0
 70
    24
 71
     3
 72
    36
 73
    32
 74
    30
 42
0.0000000001
 43
0.0000000001
 44
0.0000000001
 12
0.008726535498326089
 22
-0.9999619230641718
 32
0.0
 13
0.008726535501786764
 23
-0.9999619230641416
 33
0.0
 40
0.0
 40
0.0
 40
0.0
 40
0.0
 40
0.1584863084645509
 40
0.3161314666780111
 40
0.472546794065666
 40
0.6273436100528305
 40
0.780133234064846
 40
0.9304723204698361
 40
1.077841970508306
 40
1.221864879354389
 40
1.3621708992013
 40
1.498389882242164
 40
1.630151680670196
 40
1.757086146678524
 40
1.878823132460331
 40
1.994992490208888
 40
2.105217552161834
 40
2.209161104414432
 40
2.306591470544082
 40
2.397284405077432
 40
2.481015662541049
 40
2.557560997461666
 40
2.626696164365877
 40
2.688196917780331
 40
2.741839012231707
 40
2.787419203765941
 40
2.82485640594115
 40
2.854087907515265
 40
2.875048424295343
 40
2.887672672088551
 40
2.891895366701975
 40
2.891895366701975
 40
2.891895366701975
 40
2.891895366701975
 10
38.98197107993241
 20
-16.31219230984399
 30
0.0
 10
38.98243209206468
 20
-16.3650190677745
 30
0.0
 10
38.98335166955337
 20
-16.47039221089465
 30
0.0
 10
38.98472623501107
 20
-16.62790181120522
 30
0.0
 10
38.98609006830635
 20
-16.78418162751819
 30
0.0
 10
38.98743977760456
 20
-16.93884299405862
 30
0.0
 10
38.98877181205842
 20
-17.09147902405972
 30
0.0
 10
38.99008224203669
 20
-17.24163942634583
 30
0.0
 10
38.99136717099771
 20
-17.38887770151317
 30
0.0
 10
38.9926229153217
 20
-17.53277174850396
 30
0.0
 10
38.99384622408185
 20
-17.6729490480233
 30
0.0
 10
38.9950338671703
 20
-17.80903946635846
 30
0.0
 10
38.99618261447892
 20
-17.94067286979669
 30
0.0
 10
38.99728923589987
 20
-18.06747912462526
 30
0.0
 10
38.99835050132508
 20
-18.18908809713146
 30
0.0
 10
38.99936316168115
 20
-18.30512748036683
 30
0.0
 10
39.00032406369398
 20
-18.41523594493228
 30
0.0
 10
39.0012304568817
 20
-18.51909831679922
 30
0.0
 10
39.00208003413504
 20
-18.61645022743414
 30
0.0
 10
39.00287081695234
 20
-18.70706496301349
 30
0.0
 10
39.00360084844751
 20
-18.7907182866025
 30
0.0
 10
39.00426817173457
 20
-18.86718596126637
 30
0.0
 10
39.00487082992742
 20
-18.93624375007034
 30
0.0
 10
39.00540686613988
 20
-18.99766741607965
 30
0.0
 10
39.00587438457612
 20
-19.05123972259938
 30
0.0
 10
39.00627190586771
 20
-19.0967911507948
 30
0.0
 10
39.00659842052413
 20
-19.13420602452466
 30
0.0
 10
39.00685332035862
 20
-19.16341465248372
 30
0.0
 10
39.00703604315083
 20
-19.18435261058254
 30
0.0
 10
39.00714601919572
 20
-19.19695461711406
 30
0.0
 10
39.00719502434269
 20
-19.20257005075628
 30
0.0
 10
39.00720730750751
 20
-19.20397756203166
 30
0.0
 11
38.98197107993241
 21
-16.31219230984399
 31
0.0
 11
38.98335411632922
 21
-16.47067258363554
 31
0.0
 11
38.98472981239851
 21
-16.62831173920443
 31
0.0
 11
38.98609477630544
 21
-16.7847211107757
 31
0.0
 11
38.98744561621521
 21
-16.93951203257443
 31
0.0
 11
38.98877894029292
 21
-17.09229583882574
 31
0.0
 11
38.99009087966726
 21
-17.24262920077899
 31
0.0
 11
38.99137690614967
 21
-17.38999323943275
 31
0.0
 11
38.9926337271763
 21
-17.53401066432777
 31
0.0
 11
38.99385811263912
 21
-17.67431134175137
 31
0.0
 11
38.99504683243021
 21
-17.81052513799076
 31
0.0
 11
38.9961966564415
 21
-17.94228191933325
 31
0.0
 11
38.9973043545651
 21
-18.06921155206606
 31
0.0
 11
38.99836669669298
 21
-18.19094390247647
 31
0.0
 11
38.99938045271722
 21
-18.30710883685185
 31
0.0
 11
39.00034233563312
 21
-18.41732970177218
 31
0.0
 11
39.00124940273167
 21
-18.52126929617281
 31
0.0
 11
39.00209963228036
 21
-18.61869595245266
 31
0.0
 11
39.00289106739302
 21
-18.70938543367696
 31
0.0
 11
39.00362175118357
 21
-18.79311350291086
 31
0.0
 11
39.00428972676599
 21
-18.86965592321967
 31
0.0
 11
39.00489303725419
 21
-18.93878845766857
 31
0.0
 11
39.00542972576201
 21
-19.00028686932279
 31
0.0
 11
39.00589783540346
 21
-19.05392692124757
 31
0.0
 11
39.00629559256294
 21
-19.09950537722778
 31
0.0
 11
39.00662228963665
 21
-19.13694115390904
 31
0.0
 11
39.00687737937278
 21
-19.16617154243715
 31
0.0
 11
39.00706029206657
 21
-19.18713126110497
 31
0.0
 11
39.00717045801306
 21
-19.19975502820551
 31
0.0
 11
39.00720730750751
 21
-19.20397756203166
 31
0.0
  0
SPLINE
  5
11C
330
1F
100
AcDbEntity
  8
VIEW0002
  6
Continuous
 62
     7
100
AcDbSpline
210
0.0
220
0.0
230
1.0
 70
     8
 71
     3
 72
    36
 73
    32
 74
    30
 42
0.0000000001
 43
0.0000000001
 44
0.0000000001
 12
-0.01173910218668623
 22
0.9999310943659319
 32
0.0
 13
-0.006658229772075281
 23
0.9999778337424796
 33
0.0
 40
0.0
 40
0.0
 40
0.0
 40
0.0
 40
0.005638225284626
 40
0.0224941188855747
 40
0.050480255659685
 40
0.0895091848854972
 40
0.1394934530008042
 40
0.2003489993421896
 40
0.2719675456359911
 40
0.3540776999379556
 40
0.4463798024160558
 40
0.5485741931928281
 40
0.660361212363473
 40
0.7814412000054811
 40
0.9115144961845709
 40
1.05028144095803
 40
1.197432530020511
 40
1.352517532840134
 40
1.51503336501326
 40
1.684485686073269
 40
1.860380155551175
 40
2.042222432976365
 40
2.229518177876699
 40
2.421773049779222
 40
2.618492708209904
 40
2.81917330108238
 40
3.023122089743016
 40
3.229747053189995
 40
3.438529238578812
 40
3.648949693064784
 40
3.86048946380287
 40
3.86048946380287
 40
3.86048946380287
 40
3.86048946380287
 10
40.0107925982432
 20
-20.19884287454294
 30
0.0
 10
40.01077053567561
 20
-20.19696359561656
 30
0.0
 10
40.01068681327566
 20
-20.18946601542617
 30
0.0
 10
40.010571735806
 20
-20.17263961661775
 30
0.0
 10
40.01035626883885
 20
-20.14468348043318
 30
0.0
 10
40.01008118122508
 20
-20.10568466167067
 30
0.0
 10
40.00972846081996
 20
-20.05572966317898
 30
0.0
 10
40.00930668307643
 20
-19.9949116704663
 30
0.0
 10
40.0088140459505
 20
-19.92338528517554
 30
0.0
 10
40.00825305010402
 20
-19.84137693606409
 30
0.0
 10
40.0076252777631
 20
-19.74917685742389
 30
0.0
 10
40.0069328120536
 20
-19.64708470163862
 30
0.0
 10
40.00617758617397
 20
-19.5354001225476
 30
0.0
 10
40.00536157510602
 20
-19.41442277357341
 30
0.0
 10
40.00448673808755
 20
-19.28445230828903
 30
0.0
 10
40.00355505783543
 20
-19.14579166162396
 30
0.0
 10
40.00256885741208
 20
-18.99879395755137
 30
0.0
 10
40.00153087695047
 20
-18.84388012692051
 30
0.0
 10
40.00044426799752
 20
-18.68153271125708
 30
0.0
 10
39.99931228344289
 20
-18.51224895504729
 30
0.0
 10
39.99813815535219
 20
-18.33652318820492
 30
0.0
 10
39.99692511585744
 20
-18.15484974064342
 30
0.0
 10
39.9956763966672
 20
-17.96772294227916
 30
0.0
 10
39.99439523001263
 20
-17.77563712302501
 30
0.0
 10
39.99308486667984
 20
-17.57908978327791
 30
0.0
 10
39.99174900759876
 20
-17.37864455462968
 30
0.0
 10
39.99039152623985
 20
-17.17489762842066
 30
0.0
 10
39.9890163598367
 20
-16.96845022926356
 30
0.0
 10
39.98762706341748
 20
-16.75984565442858
 30
0.0
 10
39.98622703639649
 20
-16.54960284562969
 30
0.0
 10
39.98529049320751
 20
-16.40895255525086
 30
0.0
 10
39.984820999741
 20
-16.33844086135317
 30
0.0
 11
40.0107925982432
 21
-20.19884287454294
 31
0.0
 11
40.01073060342026
 21
-20.1932049900991
 31
0.0
 11
40.01059527539689
 21
-20.17634963974935
 31
0.0
 11
40.01038718405414
 21
-20.1483642766191
 31
0.0
 11
40.0101068992729
 21
-20.10933635383355
 31
0.0
 11
40.0097549909342
 21
-20.05935332451815
 31
0.0
 11
40.0093320067129
 21
-19.99849924819735
 31
0.0
 11
40.00883865246976
 21
-19.92688240119312
 31
0.0
 11
40.00827670079616
 21
-19.84477416987732
 31
0.0
 11
40.00764810918292
 21
-19.75247420782716
 31
0.0
 11
40.00695483512092
 21
-19.65028216862003
 31
0.0
 11
40.00619883610102
 21
-19.5384977058332
 31
0.0
 11
40.00538206961409
 21
-19.41742047304398
 31
0.0
 11
40.00450649315087
 21
-19.2873501238296
 31
0.0
 11
40.00357406420238
 21
-19.14858631176747
 31
0.0
 11
40.00258680460291
 21
-19.00143853458155
 31
0.0
 11
40.00154765637353
 21
-18.84635701321127
 31
0.0
 11
40.00045990770457
 21
-18.68384482133091
 31
0.0
 11
39.99932678970225
 21
-18.51439628886097
 31
0.0
 11
39.99815153347282
 21
-18.33850574572204
 31
0.0
 11
39.99693737012245
 21
-18.1566675218346
 31
0.0
 11
39.99568753075738
 21
-17.96937594711931
 31
0.0
 11
39.99440524648386
 21
-17.77712535149657
 31
0.0
 11
39.99309374840811
 21
-17.58041006488701
 31
0.0
 11
39.99175632984759
 21
-17.37973392861954
 31
0.0
 11
39.99039751975158
 21
-17.17578966654957
 31
0.0
 11
39.98902118882415
 21
-16.9691692870304
 31
0.0
 11
39.9876307299341
 21
-16.76039173181959
 31
0.0
 11
39.98622953595014
 21
-16.54997594267461
 31
0.0
 11
39.984820999741
 21
-16.33844086135317
 31
0.0
  0
SPLINE
  5
11D
330
1F
100
AcDbEntity
  8
VIEW0002
  6
Continuous
 62
     7
100
AcDbSpline
210
0.0
220
0.0
230
1.0
 70
     8
 71
     3
 72
    36
 73
    32
 74
    30
 42
0.0000000001
 43
0.0000000001
 44
0.0000000001
 12
0.006658229772073487
 22
0.9999778337424796
 32
0.0
 13
0.01173910219000981
 23
0.999931094365893
 33
0.0
 40
0.0
 40
0.0
 40
0.0
 40
0.0
 40
0.2115397707382284
 40
0.4219602252242289
 40
0.6307424106130737
 40
0.8373673740600536
 40
1.041316162720632
 40
1.241996755593108
 40
1.438716414023733
 40
1.630971285926256
 40
1.81826703082659
 40
2.000109308251781
 40
2.176003777729658
 40
2.345456098789668
 40
2.507971930962821
 40
2.663056933782444
 40
2.810208022845011
 40
2.948974967618584
 40
3.079048263797645
 40
3.200128251439653
 40
3.31191527061027
 40
3.414109661386985
 40
3.506411763865001
 40
3.588521918166936
 40
3.66014046446071
 40
3.720996010802095
 40
3.770980278917459
 40
3.810009208143215
 40
3.837995344917325
 40
3.854851238518274
 40
3.8604894638029
 40
3.8604894638029
 40
3.8604894638029
 40
3.8604894638029
 10
39.984820999741
 20
15.94075511226675
 30
0.0
 10
39.98529049320751
 20
16.01126680616448
 30
0.0
 10
39.98622703639649
 20
16.15191709654337
 30
0.0
 10
39.98762706341749
 20
16.36215990534233
 30
0.0
 10
39.98901635983669
 20
16.57076448017733
 30
0.0
 10
39.99039152623985
 20
16.77721187933442
 30
0.0
 10
39.99174900759876
 20
16.98095880554342
 30
0.0
 10
39.99308486667985
 20
17.18140403419162
 30
0.0
 10
39.99439523001263
 20
17.37795137393869
 30
0.0
 10
39.9956763966672
 20
17.57003719319282
 30
0.0
 10
39.99692511585745
 20
17.75716399155709
 30
0.0
 10
39.99813815535218
 20
17.93883743911857
 30
0.0
 10
39.99931228344293
 20
18.11456320596093
 30
0.0
 10
40.00044426799754
 20
18.28384696217073
 30
0.0
 10
40.0015308769505
 20
18.44619437783417
 30
0.0
 10
40.002568857412
 20
18.60110820846507
 30
0.0
 10
40.00355505783539
 20
18.74810591253772
 30
0.0
 10
40.0044867380876
 20
18.88676655920285
 30
0.0
 10
40.00536157510591
 20
19.01673702448725
 30
0.0
 10
40.006177586174
 20
19.13771437346142
 30
0.0
 10
40.00693281205353
 20
19.24939895255241
 30
0.0
 10
40.00762527776313
 20
19.35149110833763
 30
0.0
 10
40.00825305010404
 20
19.44369118697778
 30
0.0
 10
40.00881404595049
 20
19.52569953608917
 30
0.0
 10
40.00930668307644
 20
19.59722592137992
 30
0.0
 10
40.00972846081995
 20
19.6580439140926
 30
0.0
 10
40.01008118122509
 20
19.70799891258431
 30
0.0
 10
40.01035626883886
 20
19.7469977313468
 30
0.0
 10
40.010571735806
 20
19.77495386753136
 30
0.0
 10
40.01068681327566
 20
19.79178026633977
 30
0.0
 10
40.0107705356756
 20
19.79927784653017
 30
0.0
 10
40.0107925982432
 20
19.80115712545655
 30
0.0
 11
39.984820999741
 21
15.94075511226675
 31
0.0
 11
39.98622953595014
 21
16.15229019358834
 31
0.0
 11
39.9876307299341
 21
16.36270598273334
 31
0.0
 11
39.98902118882415
 21
16.57148353794418
 31
0.0
 11
39.99039751975158
 21
16.77810391746335
 31
0.0
 11
39.99175632984759
 21
16.98204817953326
 31
0.0
 11
39.99309374840811
 21
17.18272431580073
 31
0.0
 11
39.99440524648386
 21
17.37943960241024
 31
0.0
 11
39.99568753075738
 21
17.57169019803298
 31
0.0
 11
39.99693737012245
 21
17.75898177274826
 31
0.0
 11
39.99815153347282
 21
17.9408199966357
 31
0.0
 11
39.99932678970228
 21
18.11671053977461
 31
0.0
 11
40.0004599077046
 21
18.28615907224455
 31
0.0
 11
40.00154765637353
 21
18.44867126412493
 31
0.0
 11
40.00258680460286
 21
18.60375278549521
 31
0.0
 11
40.00357406420235
 21
18.75090056268122
 31
0.0
 11
40.00450649315087
 21
18.88966437474347
 31
0.0
 11
40.00538206961403
 21
19.01973472395782
 31
0.0
 11
40.00619883610102
 21
19.14081195674704
 31
0.0
 11
40.00695483512089
 21
19.25259641953384
 31
0.0
 11
40.00764810918292
 21
19.35478845874091
 31
0.0
 11
40.00827670079616
 21
19.44708842079098
 31
0.0
 11
40.00883865246976
 21
19.52919665210676
 31
0.0
 11
40.0093320067129
 21
19.60081349911096
 31
0.0
 11
40.0097549909342
 21
19.66166757543176
 31
0.0
 11
40.0101068992729
 21
19.71165060474721
 31
0.0
 11
40.01038718405414
 21
19.75067852753271
 31
0.0
 11
40.01059527539689
 21
19.77866389066296
 31
0.0
 11
40.01073060342026
 21
19.79551924101271
 31
0.0
 11
40.0107925982432
 21
19.80115712545655
 31
0.0
  0
SPLINE
  5
11E
330
1F
100
AcDbEntity
  8
VIEW0002
  6
Continuous
 62
     7
100
AcDbSpline
210
0.0
220
0.0
230
1.0
 70
     8
 71
     3
 72
    13
 73
     9
 74
     7
 42
0.0000000001
 43
0.0000000001
 44
0.0000000001
 12
0.008886555274772797
 22
0.9999605137880938
 32
0.0
 13
0.008886183280505864
 23
0.9999605170939028
 33
0.0
 40
0.0
 40
0.0
 40
0.0
 40
0.0
 40
0.4204727648931039
 40
1.369430565290016
 40
2.318620476910552
 40
3.268185403880712
 40
4.218268250326418
 40
5.169011920373287
 40
5.169011920373287
 40
5.169011920373287
 40
5.169011920373287
 10
39.93888696580042
 20
10.77194729058383
 30
0.0
 10
39.94013248395601
 20
10.9120993445893
 30
0.0
 10
39.94418899033676
 20
11.36855817514791
 30
0.0
 10
39.95105716411955
 20
12.14140114968693
 30
0.0
 10
39.95949256774217
 20
13.09060121465048
 30
0.0
 10
39.96793124342328
 20
14.04017628069367
 30
0.0
 10
39.97637444060199
 20
14.99026924648165
 30
0.0
 10
39.98200483890649
 20
15.62385306829177
 30
0.0
 10
39.98482099974143
 20
15.94075511226638
 30
0.0
 11
39.93888696580042
 21
10.77194729058383
 31
0.0
 11
39.94262351953316
 21
11.19240345260676
 31
0.0
 11
39.95105647040509
 21
12.14132378238885
 31
0.0
 11
39.95949144680395
 21
13.09047621455944
 31
0.0
 11
39.96792969578757
 21
14.04000364780502
 31
0.0
 11
39.97637246441394
 21
14.99004898081197
 31
0.0
 11
39.98482099974143
 21
15.94075511226638
 31
0.0
  0
SPLINE
  5
11F
330
1F
100
AcDbEntity
  8
VIEW0002
  6
Continuous
 62
     7
100
AcDbSpline
210
0.0
220
0.0
230
1.0
 70
     8
 71
     3
 72
    13
 73
     9
 74
     7
 42
0.0000000001
 43
0.0000000001
 44
0.0000000001
 12
-0.00888618327984775
 22
0.9999605170939085
 32
0.0
 13
-0.00888655529122657
 23
0.9999605137879475
 33
0.0
 40
0.0
 40
0.0
 40
0.0
 40
0.0
 40
0.9507436700470645
 40
1.900826516492685
 40
2.850391443462787
 40
3.79958135508338
 40
4.74853915548035
 40
5.172793196130824
 40
5.172793196130824
 40
5.172793196130824
 40
5.172793196130824
 10
39.984820999741
 20
-16.33844086135317
 30
0.0
 10
39.98200483890627
 20
-16.0215388173785
 30
0.0
 10
39.97637444060209
 20
-15.38795499556834
 30
0.0
 10
39.96793124342324
 20
-14.43786202978033
 30
0.0
 10
39.95949256774217
 20
-13.48828696373718
 30
0.0
 10
39.95105716411954
 20
-12.53908689877361
 30
0.0
 10
39.94417778951313
 20
-11.76498354875137
 30
0.0
 10
39.94011008228096
 20
-11.30726434270982
 30
0.0
 10
39.93885336328437
 20
-11.16585191322133
 30
0.0
 11
39.984820999741
 21
-16.33844086135317
 31
0.0
 11
39.97637246441394
 21
-15.38773472989856
 31
0.0
 11
39.96792969578757
 21
-14.43768939689169
 31
0.0
 11
39.95949144680395
 21
-13.48816196364617
 31
0.0
 11
39.95105647040509
 21
-12.53900953147552
 31
0.0
 11
39.94262351953316
 21
-11.59008920169338
 31
0.0
 11
39.93885336328437
 21
-11.16585191322133
 31
0.0
  0
SPLINE
  5
120
330
1F
100
AcDbEntity
  8
VIEW0002
  6
Continuous
 62
     7
100
AcDbSpline
210
0.0
220
0.0
230
1.0
 70
    24
 71
     3
 72
    36
 73
    32
 74
    30
 42
0.0000000001
 43
0.0000000001
 44
0.0000000001
 12
-0.008726535497296073
 22
-0.9999619230641805
 32
0.0
 13
-0.008726535498504318
 23
-0.9999619230641702
 33
0.0
 40
0.0
 40
0.0
 40
0.0
 40
0.0
 40
0.0042226946133949
 40
0.0168469424066037
 40
0.0378074591867098
 40
0.0670389607608252
 40
0.1044761629360053
 40
0.1500563544702957
 40
0.2036984489216146
 40
0.2651992023360406
 40
0.3343343692402235
 40
0.4108797041608124
 40
0.4946109616244006
 40
0.5853038961577227
 40
0.6827342622873724
 40
0.7866778145399982
 40
0.8969028764930589
 40
1.013072234241616
 40
1.134809220023479
 40
1.261743686031807
 40
1.39350548445981
 40
1.529724467500647
 40
1.670030487347585
 40
1.814053396193669
 40
1.961423046232168
 40
2.1117621326371
 40
2.264551756649059
 40
2.419348572636223
 40
2.575763900023878
 40
2.733409058237367
 40
2.891895366701946
 40
2.891895366701946
 40
2.891895366701946
 40
2.891895366701946
 10
39.00720730750751
 20
18.80629181294524
 30
0.0
 10
39.0071950243427
 20
18.80488430166987
 30
0.0
 10
39.00714601919578
 20
18.79926886802765
 30
0.0
 10
39.00703604315079
 20
18.78666686149614
 30
0.0
 10
39.00685332035868
 20
18.76572890339731
 30
0.0
 10
39.00659842052413
 20
18.73652027543825
 30
0.0
 10
39.00627190586767
 20
18.69910540170838
 30
0.0
 10
39.00587438457612
 20
18.65355397351297
 30
0.0
 10
39.00540686613991
 20
18.59998166699324
 30
0.0
 10
39.00487082992742
 20
18.53855800098398
 30
0.0
 10
39.00426817173457
 20
18.46950021218004
 30
0.0
 10
39.00360084844753
 20
18.39303253751619
 30
0.0
 10
39.0028708169523
 20
18.30937921392722
 30
0.0
 10
39.00208003413506
 20
18.21876447834789
 30
0.0
 10
39.00123045688166
 20
18.12141256771296
 30
0.0
 10
39.00032406369404
 20
18.01755019584597
 30
0.0
 10
38.99936316168109
 20
17.90744173128048
 30
0.0
 10
38.99835050132508
 20
17.79140234804505
 30
0.0
 10
38.99728923589991
 20
17.66979337553882
 30
0.0
 10
38.9961826144789
 20
17.54298712071025
 30
0.0
 10
38.99503386717029
 20
17.41135371727204
 30
0.0
 10
38.99384622408189
 20
17.27526329893689
 30
0.0
 10
38.99262291532173
 20
17.13508599941756
 30
0.0
 10
38.99136717099776
 20
16.99119195242674
 30
0.0
 10
38.99008224203659
 20
16.8439536772594
 30
0.0
 10
38.98877181205849
 20
16.69379327497333
 30
0.0
 10
38.98743977760454
 20
16.54115724497228
 30
0.0
 10
38.98609006830636
 20
16.38649587843185
 30
0.0
 10
38.98472623501107
 20
16.23021606211888
 30
0.0
 10
38.98335166955338
 20
16.07270646180829
 30
0.0
 10
38.98243209206469
 20
15.96733331868812
 30
0.0
 10
38.98197107993241
 20
15.91450656075759
 30
0.0
 11
39.00720730750751
 21
18.80629181294524
 31
0.0
 11
39.00717045801309
 21
18.80206927911912
 31
0.0
 11
39.00706029206657
 21
18.78944551201858
 31
0.0
 11
39.00687737937281
 21
18.76848579335073
 31
0.0
 11
39.00662228963665
 21
18.73925540482262
 31
0.0
 11
39.00629559256291
 21
18.70181962814139
 31
0.0
 11
39.00589783540346
 21
18.65624117216112
 31
0.0
 11
39.00542972576204
 21
18.60260112023639
 31
0.0
 11
39.00489303725419
 21
18.54110270858221
 31
0.0
 11
39.00428972676599
 21
18.47197017413334
 31
0.0
 11
39.00362175118357
 21
18.39542775382456
 31
0.0
 11
39.00289106739299
 21
18.31169968459069
 31
0.0
 11
39.00209963228036
 21
18.22101020336641
 31
0.0
 11
39.00124940273167
 21
18.12358354708656
 31
0.0
 11
39.00034233563315
 21
18.0196439526859
 31
0.0
 11
38.99938045271719
 21
17.90942308776545
 31
0.0
 11
38.99836669669298
 21
17.79325815339008
 31
0.0
 11
38.99730435456513
 21
17.67152580297961
 31
0.0
 11
38.9961966564415
 21
17.5445961702468
 31
0.0
 11
38.99504683243021
 21
17.41283938890434
 31
0.0
 11
38.99385811263915
 21
17.27662559266498
 31
0.0
 11
38.99263372717633
 21
17.13632491524135
 31
0.0
 11
38.9913769061497
 21
16.99230749034633
 31
0.0
 11
38.99009087966724
 21
16.84494345169254
 31
0.0
 11
38.98877894029295
 21
16.69461008973935
 31
0.0
 11
38.98744561621521
 21
16.5418262834881
 31
0.0
 11
38.98609477630544
 21
16.38703536168936
 31
0.0
 11
38.98472981239851
 21
16.23062599011809
 31
0.0
 11
38.98335411632922
 21
16.07298683454918
 31
0.0
 11
38.98197107993241
 21
15.91450656075759
 31
0.0
  0
SPLINE
  5
121
330
1F
100
AcDbEntity
  8
VIEW0002
  6
Continuous
 62
     7
100
AcDbSpline
210
0.0
220
0.0
230
1.0
 70
    24
 71
     3
 72
    13
 73
     9
 74
     7
 42
0.0000000001
 43
0.0000000001
 44
0.0000000001
 12
-0.008726535498359788
 22
-0.9999619230641714
 32
0.0
 13
-0.008726535498370535
 23
-0.9999619230641713
 33
0.0
 40
0.0
 40
0.0
 40
0.0
 40
0.0
 40
0.9491969663674704
 40
1.89773501989416
 40
2.845756370523588
 40
3.793403228199102
 40
4.740817802864054
 40
5.14424990983985
 40
5.14424990983985
 40
5.14424990983985
 40
5.14424990983985
 10
38.98197107993241
 20
15.91450656075757
 30
0.0
 10
38.97921001292509
 20
15.5981196194724
 30
0.0
 10
38.97368979558589
 20
14.96556536615254
 30
0.0
 10
38.96541193092351
 20
14.01701602853891
 30
0.0
 10
38.95713857528729
 20
13.06898337414814
 30
0.0
 10
38.9488684876772
 20
12.12132519845173
 30
0.0
 10
38.94218252585596
 20
11.35518985854332
 30
0.0
 10
38.93825312201589
 20
10.9049247766972
 30
0.0
 10
38.93707960048165
 20
10.77045252819142
 30
0.0
 11
38.98197107993241
 21
15.91450656075757
 31
0.0
 11
38.97368787891045
 21
14.96534573690207
 31
0.0
 11
38.96541042791478
 21
14.01684380079798
 31
0.0
 11
38.95713748594528
 21
13.06885854791668
 31
0.0
 11
38.94886781200188
 21
12.12124777372976
 31
0.0
 11
38.94060016508436
 21
11.17386927370877
 31
0.0
 11
38.93707960048165
 21
10.77045252819142
 31
0.0
  0
DIMENSION
  5
122
330
1F
100
AcDbEntity
  8
VIEW0002
 62
     7
100
AcDbDimension
  2
*D3
 10
-38.90670098648009
 20
-59.19884287454322
 30
0.0
 11
-38.90670098648009
 21
-47.30924284638599
 31
0.0
 70
   160
  1
8
 71
     5
 42
4.000000000000001
  3
ISO-25
100
AcDbAlignedDimension
 13
-28.90870098648008
 23
-55.19884287454322
 33
0.0
 14
-27.15870098648003
 24
-59.19884287454322
 34
0.0
 50
90.00000000000001
100
AcDbRotatedDimension
1001
ACAD
1000
DSTYLE
1002
{
1070
   178
1070
     1
1070
   278
1070
    46
1070
   147
1040
0.800000011920929
1070
    77
1070
     1
1070
    74
1070
     0
1070
    73
1070
     0
1070
    42
1040
2.54
1070
    44
1040
2.286000000000001
1070
    76
1070
     0
1070
    75
1070
     1
1070
   279
1070
     0
1070
   271
1070
     0
1070
   173
1070
     1
1070
    41
1040
3.0
1070
   140
1040
3.200000047683716
1070
   344
1005
129
1070
   343
1005
123
1002
}
  0
DIMENSION
  5
13F
330
1F
100
AcDbEntity
  8
VIEW0002
 62
     7
100
AcDbDimension
  2
*D4
 10
-38.90670098648008
 20
-73.19884287454327
 30
0.0
 11
-38.90670098648009
 21
-66.19784287454323
 31
0.0
 70
   160
  1
28
 71
     5
 42
14.00000000000003
  3
ISO-25
100
AcDbAlignedDimension
 13
-27.15870098648003
 23
-59.19884287454322
 33
0.0
 14
0.568454094418996
 24
-73.19884287454325
 34
0.0
 50
90.00000000000001
100
AcDbRotatedDimension
1001
ACAD
1000
DSTYLE
1002
{
1070
   178
1070
     1
1070
   278
1070
    46
1070
   147
1040
0.800000011920929
1070
    77
1070
     1
1070
    74
1070
     0
1070
    73
1070
     0
1070
    42
1040
2.54
1070
    44
1040
2.286000000000001
1070
    76
1070
     1
1070
    75
1070
     1
1070
   279
1070
     0
1070
   271
1070
     0
1070
   173
1070
     1
1070
    41
1040
3.0
1070
   140
1040
3.200000047683716
1070
   344
1005
123
1070
   343
1005
123
1002
}
  0
DIMENSION
  5
14A
330
1F
100
AcDbEntity
  8
VIEW0002
 62
     7
100
AcDbDimension
  2
*D5
 10
-48.90770098648009
 20
-55.19884287454322
 30
0.0
 11
-48.90770098648009
 21
-64.19784287454323
 31
0.0
 70
   160
  1
36
 71
     5
 42
18.00000000000002
  3
ISO-25
100
AcDbAlignedDimension
 13
0.568454094418996
 23
-73.19884287454325
 33
0.0
 14
-28.90870098648008
 24
-55.19884287454322
 34
0.0
 50
270.0
100
AcDbRotatedDimension
1001
ACAD
1000
DSTYLE
1002
{
1070
   178
1070
     1
1070
   278
1070
    46
1070
   147
1040
0.800000011920929
1070
    77
1070
     1
1070
    74
1070
     0
1070
    73
1070
     0
1070
    42
1040
2.54
1070
    44
1040
2.286000000000001
1070
    76
1070
     0
1070
    75
1070
     0
1070
   279
1070
     0
1070
   271
1070
     0
1070
   173
1070
     1
1070
    41
1040
3.0
1070
   140
1040
3.200000047683716
1070
   344
1005
123
1070
   343
1005
123
1002
}
  0
DIMENSION
  5
157
330
1F
100
AcDbEntity
  8
VIEW0002
 62
     7
100
AcDbDimension
  2
*D6
 10
35.09135200974421
 20
-98.44784287454324
 30
0.0
 11
3.09232551163205
 21
-98.44784287454324
 31
0.0
 70
   160
  1
128
 71
     5
 42
64.0000529962243
  3
ISO-25
100
AcDbAlignedDimension
 13
-28.90870098648008
 23
-57.4488428745432
 33
0.0
 14
35.09135200974421
 24
-71.94884263612467
 34
0.0
 50
180.0
100
AcDbRotatedDimension
1001
ACAD
1000
DSTYLE
1002
{
1070
   178
1070
     1
1070
   278
1070
    46
1070
   147
1040
0.800000011920929
1070
    77
1070
     1
1070
    74
1070
     0
1070
    73
1070
     0
1070
    42
1040
2.54
1070
    44
1040
2.286000000000001
1070
    76
1070
     0
1070
    75
1070
     0
1070
   279
1070
     0
1070
   271
1070
     0
1070
   173
1070
     1
1070
    41
1040
3.0
1070
   140
1040
3.200000047683716
1070
   344
1005
123
1070
   343
1005
123
1002
}
  0
DIMENSION
  5
164
330
1F
100
AcDbEntity
  8
VIEW0002
 62
     7
100
AcDbDimension
  2
*D7
 10
43.59135200974421
 20
-98.44784287454324
 30
0.0
 11
39.34235200974421
 21
-98.44784287454324
 31
0.0
 70
   160
  1
17
 71
     5
 42
8.5
  3
ISO-25
100
AcDbAlignedDimension
 13
35.09135200974421
 23
-71.94884263612467
 33
0.0
 14
43.59135200974421
 24
-88.44884287454325
 34
0.0
 50
180.0
100
AcDbRotatedDimension
1001
ACAD
1000
DSTYLE
1002
{
1070
   178
1070
     1
1070
   278
1070
    46
1070
   147
1040
0.800000011920929
1070
    77
1070
     1
1070
    74
1070
     0
1070
    73
1070
     0
1070
    42
1040
2.54
1070
    44
1040
2.286000000000001
1070
    76
1070
     0
1070
    75
1070
     1
1070
   279
1070
     0
1070
   271
1070
     0
1070
   173
1070
     1
1070
    41
1040
3.0
1070
   140
1040
3.200000047683716
1070
   344
1005
123
1070
   343
1005
123
1002
}
  0
DIMENSION
  5
170
330
1F
100
AcDbEntity
  8
VIEW0002
 62
     7
100
AcDbDimension
  2
*D8
 10
53.59135200974421
 20
-45.19884287454322
 30
0.0
 11
53.59135200974421
 21
-66.82284287454323
 31
0.0
 70
   160
  1
86.5
 71
     5
 42
43.25000000000002
  3
ISO-25
100
AcDbAlignedDimension
 13
43.59135200974421
 23
-88.44884287454325
 33
0.0
 14
43.59135200974421
 24
-45.19884287454322
 34
0.0
 50
270.0
100
AcDbRotatedDimension
1001
ACAD
1000
DSTYLE
1002
{
1070
   178
1070
     1
1070
   278
1070
    46
1070
   147
1040
0.800000011920929
1070
    77
1070
     1
1070
    74
1070
     0
1070
    73
1070
     0
1070
    42
1040
2.54
1070
    44
1040
2.286000000000001
1070
    76
1070
     0
1070
    75
1070
     0
1070
   279
1070
     0
1070
   271
1070
     1
1070
   173
1070
     1
1070
    41
1040
3.0
1070
   140
1040
3.200000047683716
1070
   344
1005
123
1070
   343
1005
123
1002
}
  0
DIMENSION
  5
17D
330
1F
100
AcDbEntity
  8
VIEW0002
 62
     7
100
AcDbDimension
  2
*D9
 10
53.59135200974421
 20
19.80115712545654
 30
0.0
 11
53.59135200974421
 21
-0.197842874543196
 31
0.0
 70
   160
  1
80
 71
     5
 42
39.99999999999949
  3
ISO-25
100
AcDbAlignedDimension
 13
43.59135200974421
 23
-20.19884287454294
 33
0.0
 14
43.59135200974421
 24
19.80115712545655
 34
0.0
 50
270.0
100
AcDbRotatedDimension
1001
ACAD
1000
DSTYLE
1002
{
1070
   178
1070
     1
1070
   278
1070
    46
1070
   147
1040
0.800000011920929
1070
    77
1070
     1
1070
    74
1070
     0
1070
    73
1070
     0
1070
    42
1040
2.54
1070
    44
1040
2.286000000000001
1070
    76
1070
     0
1070
    75
1070
     0
1070
   279
1070
     0
1070
   271
1070
     0
1070
   173
1070
     1
1070
    41
1040
3.0
1070
   140
1040
3.200000047683716
1070
   344
1005
123
1070
   343
1005
123
1002
}
  0
DIMENSION
  5
18A
330
1F
100
AcDbEntity
  8
VIEW0002
 62
     7
100
AcDbDimension
  2
*D10
 10
-38.90670098648008
 20
-7.698842874543228
 30
0.0
 11
-38.90670098648009
 21
-0.197842874543224
 31
0.0
 70
   160
  1
30
 71
     5
 42
15.0
  3
ISO-25
100
AcDbAlignedDimension
 13
-28.56618304407289
 23
7.301157125456776
 33
0.0
 14
-28.56618304407289
 24
-7.698842874543224
 34
0.0
 50
90.00000000000001
100
AcDbRotatedDimension
1001
ACAD
1000
DSTYLE
1002
{
1070
   178
1070
     1
1070
   278
1070
    46
1070
   147
1040
0.800000011920929
1070
    77
1070
     1
1070
    74
1070
     0
1070
    73
1070
     0
1070
    42
1040
2.54
1070
    44
1040
2.286000000000001
1070
    76
1070
     0
1070
    75
1070
     0
1070
   279
1070
     0
1070
   271
1070
     0
1070
   173
1070
     1
1070
    41
1040
3.0
1070
   140
1040
3.200000047683716
1070
   344
1005
123
1070
   343
1005
123
1002
}
  0
DIMENSION
  5
197
330
1F
100
AcDbEntity
  8
VIEW0002
 62
     7
100
AcDbDimension
  2
*D11
 10
22.84129149070167
 20
38.302156795184
 30
0.0
 11
7.342321750223074
 21
38.302156795184
 31
0.0
 70
   160
  1
62
 71
     5
 42
30.99993948095721
  3
ISO-25
100
AcDbAlignedDimension
 13
-8.158647990255531
 23
75.92615646491136
 33
0.0
 14
22.84129149070168
 24
75.92615646491136
 34
0.0
 50
180.0
100
AcDbRotatedDimension
1001
ACAD
1000
DSTYLE
1002
{
1070
   178
1070
     1
1070
   278
1070
    46
1070
   147
1040
0.800000011920929
1070
    77
1070
     1
1070
    74
1070
     0
1070
    73
1070
     0
1070
    42
1040
2.54
1070
    44
1040
2.286000000000008
1070
    76
1070
     0
1070
    75
1070
     0
1070
   279
1070
     0
1070
   271
1070
     0
1070
   173
1070
     1
1070
    41
1040
3.0
1070
   140
1040
3.200000047683716
1070
   344
1005
123
1070
   343
1005
123
1002
}
  0
DIMENSION
  5
1A4
330
1F
100
AcDbEntity
  8
VIEW0002
 62
     7
100
AcDbDimension
  2
*D12
 10
-8.658708509298316
 20
111.5511567951838
 30
0.0
 11
-20.5482782779341
 21
111.5511567951838
 31
0.0
 70
   160
  1
8
 71
     5
 42
3.999969740478547
  3
ISO-25
100
AcDbAlignedDimension
 13
-12.65867824977687
 23
86.98998630612074
 33
0.0
 14
-8.658708509298322
 24
89.12615646491135
 34
0.0
 50
180.0
100
AcDbRotatedDimension
1001
ACAD
1000
DSTYLE
1002
{
1070
   178
1070
     1
1070
   278
1070
    46
1070
   147
1040
0.800000011920929
1070
    77
1070
     1
1070
    74
1070
     0
1070
    73
1070
     0
1070
    42
1040
2.54
1070
    44
1040
2.286000000000016
1070
    76
1070
     0
1070
    75
1070
     1
1070
   279
1070
     0
1070
   271
1070
     0
1070
   173
1070
     1
1070
    41
1040
3.0
1070
   140
1040
3.200000047683716
1070
   344
1005
129
1070
   343
1005
123
1002
}
  0
DIMENSION
  5
1B7
330
1F
100
AcDbEntity
  8
VIEW0002
 62
     7
100
AcDbDimension
  2
*D13
 10
23.34135200974447
 20
111.5511567951838
 30
0.0
 11
7.342321750223074
 21
111.5511567951838
 31
0.0
 70
   160
  1
64
 71
     5
 42
32.00006051904279
  3
ISO-25
100
AcDbAlignedDimension
 13
-8.658708509298322
 23
89.12615646491135
 33
0.0
 14
23.34135200974447
 24
89.12615646491135
 34
0.0
 50
180.0
100
AcDbRotatedDimension
1001
ACAD
1000
DSTYLE
1002
{
1070
   178
1070
     1
1070
   278
1070
    46
1070
   147
1040
0.800000011920929
1070
    77
1070
     1
1070
    74
1070
     0
1070
    73
1070
     0
1070
    42
1040
2.54
1070
    44
1040
2.286000000000016
1070
    76
1070
     0
1070
    75
1070
     1
1070
   279
1070
     0
1070
   271
1070
     0
1070
   173
1070
     1
1070
    41
1040
3.0
1070
   140
1040
3.200000047683716
1070
   344
1005
123
1070
   343
1005
123
1002
}
  0
DIMENSION
  5
1C3
330
1F
100
AcDbEntity
  8
VIEW0002
 62
     7
100
AcDbDimension
  2
*D14
 10
27.34132175022282
 20
111.5511567951838
 30
0.0
 11
35.23092177838005
 21
111.5511567951838
 31
0.0
 70
   160
  1
8
 71
     5
 42
3.99996974047835
  3
ISO-25
100
AcDbAlignedDimension
 13
23.34135200974447
 23
89.12615646491135
 33
0.0
 14
27.34132175022282
 24
86.98998683923962
 34
0.0
 50
180.0
100
AcDbRotatedDimension
1001
ACAD
1000
DSTYLE
1002
{
1070
   178
1070
     1
1070
   278
1070
    46
1070
   147
1040
0.800000011920929
1070
    77
1070
     1
1070
    74
1070
     0
1070
    73
1070
     0
1070
    42
1040
2.54
1070
    44
1040
2.286000000000016
1070
    76
1070
     1
1070
    75
1070
     1
1070
   279
1070
     0
1070
   271
1070
     0
1070
   173
1070
     1
1070
    41
1040
3.0
1070
   140
1040
3.200000047683716
1070
   344
1005
123
1070
   343
1005
129
1002
}
  0
DIMENSION
  5
1D4
330
1F
100
AcDbEntity
  8
VIEW0002
 62
     7
100
AcDbDimension
  2
*D15
 10
-12.65867824977687
 20
121.5511567951838
 30
0.0
 11
7.343321750223074
 21
121.5511567951838
 31
0.0
 70
   160
  1
80
 71
     5
 42
39.99999999999969
  3
ISO-25
100
AcDbAlignedDimension
 13
27.34132175022282
 23
86.98998683923962
 33
0.0
 14
-12.65867824977687
 24
86.98998630612074
 34
0.0
100
AcDbRotatedDimension
1001
ACAD
1000
DSTYLE
1002
{
1070
   178
1070
     1
1070
   278
1070
    46
1070
   147
1040
0.800000011920929
1070
    77
1070
     1
1070
    74
1070
     0
1070
    73
1070
     0
1070
    42
1040
2.54
1070
    44
1040
2.286000000000016
1070
    76
1070
     0
1070
    75
1070
     0
1070
   279
1070
     0
1070
   271
1070
     0
1070
   173
1070
     1
1070
    41
1040
3.0
1070
   140
1040
3.200000047683716
1070
   344
1005
123
1070
   343
1005
123
1002
}
  0
DIMENSION
  5
1E1
330
1F
100
AcDbEntity
  8
VIEW0002
 62
     7
100
AcDbDimension
  2
*D16
 10
27.34132175022282
 20
101.5511567951838
 30
0.0
 11
17.34232175022293
 21
101.5511567951838
 31
0.0
 70
   160
  1
40
 71
     5
 42
19.99999999999974
  3
ISO-25
100
AcDbAlignedDimension
 13
7.341321750223074
 23
94.05115679518393
 33
0.0
 14
27.34132175022282
 24
86.98998683923962
 34
0.0
 50
180.0
100
AcDbRotatedDimension
1001
ACAD
1000
DSTYLE
1002
{
1070
   178
1070
     1
1070
   278
1070
    46
1070
   147
1040
0.800000011920929
1070
    77
1070
     1
1070
    74
1070
     0
1070
    73
1070
     0
1070
    42
1040
2.54
1070
    44
1040
2.286000000000016
1070
    76
1070
     1
1070
    75
1070
     0
1070
   279
1070
     0
1070
   271
1070
     0
1070
   173
1070
     1
1070
    41
1040
3.0
1070
   140
1040
3.200000047683716
1070
   344
1005
123
1070
   343
1005
123
1002
}
  0
DIMENSION
  5
1ED
330
1F
100
AcDbEntity
  8
VIEW0002
 62
     7
100
AcDbDimension
  2
*D18
 10
37.34232175022273
 20
85.55115646491134
 30
0.0
 11
37.34232175022273
 21
100.7287568425337
 31
0.0
 70
   160
  1
\P12
 71
     5
 42
6.000000330272456
  3
ISO-25
100
AcDbAlignedDimension
 13
7.341321750223074
 23
91.5511567951838
 33
0.0
 14
26.91635200974451
 24
85.55115646491134
 34
0.0
 50
90.00000000000001
100
AcDbRotatedDimension
1001
ACAD
1000
DSTYLE
1002
{
1070
   178
1070
     1
1070
   278
1070
    46
1070
   147
1040
0.800000011920929
1070
    77
1070
     1
1070
    74
1070
     0
1070
    73
1070
     0
1070
    42
1040
2.54
1070
    44
1040
2.286000000000001
1070
    76
1070
     0
1070
    75
1070
     1
1070
   279
1070
     0
1070
   271
1070
     0
1070
   173
1070
     1
1070
    41
1040
3.0
1070
   140
1040
3.200000047683716
1070
   344
1005
1EE
1070
   343
1005
123
1002
}
  0
DIMENSION
  5
209
330
1F
100
AcDbEntity
  8
VIEW0002
 62
     7
100
AcDbDimension
  2
*D19
 10
37.34232175022273
 20
80.05115646491134
 30
0.0
 11
37.34232175022273
 21
82.80215646491135
 31
0.0
 70
   160
  1
11
 71
     5
 42
5.5
  3
ISO-25
100
AcDbAlignedDimension
 13
26.91635200974451
 23
85.55115646491134
 33
0.0
 14
26.96629149070168
 24
80.05115646491134
 34
0.0
 50
90.00000000000001
100
AcDbRotatedDimension
1001
ACAD
1000
DSTYLE
1002
{
1070
   178
1070
     1
1070
   278
1070
    46
1070
   147
1040
0.800000011920929
1070
    77
1070
     1
1070
    74
1070
     0
1070
    73
1070
     0
1070
    42
1040
2.54
1070
    44
1040
2.286000000000001
1070
    76
1070
     0
1070
    75
1070
     1
1070
   279
1070
     0
1070
   271
1070
     0
1070
   173
1070
     1
1070
    41
1040
1.0
1070
   140
1040
3.200000047683716
1070
   344
1005
129
1070
   343
1005
129
1002
}
  0
DIMENSION
  5
215
330
1F
100
AcDbEntity
  8
VIEW0002
 62
     7
100
AcDbDimension
  2
*D20
 10
37.34232175022274
 20
52.30115646491138
 30
0.0
 11
37.34232175022273
 21
66.17715646491138
 31
0.0
 70
   160
  1
55.5
 71
     5
 42
27.74999999999996
  3
ISO-25
100
AcDbAlignedDimension
 13
26.96629149070168
 23
80.05115646491134
 33
0.0
 14
10.91635205742824
 24
52.30115646491138
 34
0.0
 50
90.00000000000001
100
AcDbRotatedDimension
1001
ACAD
1000
DSTYLE
1002
{
1070
   178
1070
     1
1070
   278
1070
    46
1070
   147
1040
0.800000011920929
1070
    77
1070
     1
1070
    74
1070
     0
1070
    73
1070
     0
1070
    42
1040
2.54
1070
    44
1040
2.286000000000001
1070
    76
1070
     0
1070
    75
1070
     1
1070
   279
1070
     0
1070
   271
1070
     1
1070
   173
1070
     1
1070
    41
1040
3.0
1070
   140
1040
3.200000047683716
1070
   344
1005
123
1070
   343
1005
123
1002
}
  0
DIMENSION
  5
221
330
1F
100
AcDbEntity
  8
VIEW0002
 62
     7
100
AcDbDimension
  2
*D21
 10
37.34132175022273
 20
48.30115679518401
 30
0.0
 11
37.34132175022273
 21
40.41155676702678
 31
0.0
 70
   160
  1
8
 71
     5
 42
3.999999669727371
  3
ISO-25
100
AcDbAlignedDimension
 13
10.91635205742824
 23
52.30115646491138
 33
0.0
 14
7.341321750223074
 24
48.30115679518401
 34
0.0
 50
90.00000000000001
100
AcDbRotatedDimension
1001
ACAD
1000
DSTYLE
1002
{
1070
   178
1070
     1
1070
   278
1070
    46
1070
   147
1040
0.800000011920929
1070
    77
1070
     1
1070
    74
1070
     0
1070
    73
1070
     0
1070
    42
1040
2.54
1070
    44
1040
2.286000000000001
1070
    76
1070
     1
1070
    75
1070
     1
1070
   279
1070
     0
1070
   271
1070
     0
1070
   173
1070
     1
1070
    41
1040
3.0
1070
   140
1040
3.200000047683716
1070
   344
1005
123
1070
   343
1005
129
1002
}
  0
DIMENSION
  5
232
330
1F
100
AcDbEntity
  8
VIEW0002
 62
     7
100
AcDbDimension
  2
*D22
 10
47.34132175022273
 20
91.55115679518379
 30
0.0
 11
47.34132175022273
 21
69.92715679518389
 31
0.0
 70
   160
  1
86.5
 71
     5
 42
43.24999999999979
  3
ISO-25
100
AcDbAlignedDimension
 13
7.341321750223074
 23
48.30115679518401
 33
0.0
 14
7.341321750223074
 24
91.5511567951838
 34
0.0
 50
270.0
100
AcDbRotatedDimension
1001
ACAD
1000
DSTYLE
1002
{
1070
   178
1070
     1
1070
   278
1070
    46
1070
   147
1040
0.800000011920929
1070
    77
1070
     1
1070
    74
1070
     0
1070
    73
1070
     0
1070
    42
1040
2.54
1070
    44
1040
2.286000000000001
1070
    76
1070
     0
1070
    75
1070
     0
1070
   279
1070
     0
1070
   271
1070
     1
1070
   173
1070
     1
1070
    41
1040
3.0
1070
   140
1040
3.200000047683716
1070
   344
1005
123
1070
   343
1005
123
1002
}
  0
INSERT
  5
245
330
1F
100
AcDbEntity
  8
VIEW0002
 62
     7
100
AcDbBlockReference
  2
SYM0001
 10
23.74995590777217
 20
81.39839955971235
 30
0.0
  0
INSERT
  5
24E
330
1F
100
AcDbEntity
  8
VIEW0002
 62
     7
100
AcDbBlockReference
  2
SYM0002
 10
23.85100846051783
 20
86.49766335985987
 30
0.0
  0
ENDSEC
  0
SECTION
  2
OBJECTS
  0
DICTIONARY
  5
C
330
0
100
AcDbDictionary
281
     1
  3
ACAD_GROUP
350
D
  3
ACAD_LAYOUT
350
1A
  3
ACAD_MATERIAL
350
3B
  3
ACAD_MLEADERSTYLE
350
278
  3
ACAD_MLINESTYLE
350
17
  3
ACAD_PLOTSETTINGS
350
19
  3
ACAD_PLOTSTYLENAME
350
E
  3
ACAD_TABLESTYLE
350
277
  3
ACAD_VISUALSTYLE
350
2A
  0
DICTIONARY
  5
D
102
{ACAD_REACTORS
330
C
102
}
330
C
100
AcDbDictionary
281
     1
  0
DICTIONARY
  5
1A
102
{ACAD_REACTORS
330
C
102
}
330
C
100
AcDbDictionary
281
     1
  3
Layout1
350
1E
  3
Layout2
350
26
  3
Model
350
22
  0
DICTIONARY
  5
3B
102
{ACAD_REACTORS
330
C
102
}
330
C
100
AcDbDictionary
281
     1
  3
ByBlock
350
3D
  3
ByLayer
350
3C
  3
Global
350
3E
  0
DICTIONARY
  5
278
102
{ACAD_REACTORS
330
C
102
}
330
C
100
AcDbDictionary
281
     1
  0
DICTIONARY
  5
17
102
{ACAD_REACTORS
330
C
102
}
330
C
100
AcDbDictionary
281
     1
  3
Standard
350
18
  0
DICTIONARY
  5
19
102
{ACAD_REACTORS
330
C
102
}
330
C
100
AcDbDictionary
281
     1
  0
ACDBDICTIONARYWDFLT
  5
E
102
{ACAD_REACTORS
330
C
102
}
330
C
100
AcDbDictionary
281
     1
  3
Normal
350
F
100
AcDbDictionaryWithDefault
340
F
  0
DICTIONARY
  5
277
102
{ACAD_REACTORS
330
C
102
}
330
C
100
AcDbDictionary
281
     1
  0
DICTIONARY
  5
2A
102
{ACAD_REACTORS
330
C
102
}
330
C
100
AcDbDictionary
281
     1
  3
2dWireframe
350
2F
  3
3D Hidden
350
31
  3
3dWireframe
350
30
  3
Basic
350
32
  3
Brighten
350
36
  3
ColorChange
350
3A
  3
Conceptual
350
34
  3
Dim
350
35
  3
Facepattern
350
39
  3
Flat
350
2B
  3
FlatWithEdges
350
2C
  3
Gouraud
350
2D
  3
GouraudWithEdges
350
2E
  3
Linepattern
350
38
  3
Realistic
350
33
  3
Thicken
350
37
  0
LAYOUT
  5
1E
102
{ACAD_REACTORS
330
1A
102
}
330
1A
100
AcDbPlotSettings
  1

  2
none_device
  4

  6

 40
0.0
 41
0.0
 42
0.0
 43
0.0
 44
0.0
 45
0.0
 46
0.0
 47
0.0
 48
0.0
 49
0.0
140
0.0
141
0.0
142
1.0
143
1.0
 70
   688
 72
     0
 73
     0
 74
     5
  7

 75
    16
 76
     0
 77
     2
 78
   300
147
1.0
148
0.0
149
0.0
100
AcDbLayout
  1
Layout1
 70
     1
 71
     1
 10
-105.0
 20
-148.5
 11
105.0
 21
148.5
 12
0.0
 22
0.0
 32
0.0
 14
1.000000000000000E+20
 24
1.000000000000000E+20
 34
1.000000000000000E+20
 15
-1.000000000000000E+20
 25
-1.000000000000000E+20
 35
-1.000000000000000E+20
146
0.0
 13
0.0
 23
0.0
 33
0.0
 16
1.0
 26
0.0
 36
0.0
 17
0.0
 27
1.0
 37
0.0
 76
     0
330
1B
  0
LAYOUT
  5
26
102
{ACAD_REACTORS
330
1A
102
}
330
1A
100
AcDbPlotSettings
  1

  2
none_device
  4

  6

 40
0.0
 41
0.0
 42
0.0
 43
0.0
 44
0.0
 45
0.0
 46
0.0
 47
0.0
 48
0.0
 49
0.0
140
0.0
141
0.0
142
1.0
143
1.0
 70
   688
 72
     0
 73
     0
 74
     5
  7

 75
    16
 76
     0
 77
     2
 78
   300
147
1.0
148
0.0
149
0.0
100
AcDbLayout
  1
Layout2
 70
     1
 71
     2
 10
0.0
 20
0.0
 11
0.0
 21
0.0
 12
0.0
 22
0.0
 32
0.0
 14
0.0
 24
0.0
 34
0.0
 15
0.0
 25
0.0
 35
0.0
146
0.0
 13
0.0
 23
0.0
 33
0.0
 16
1.0
 26
0.0
 36
0.0
 17
0.0
 27
1.0
 37
0.0
 76
     0
330
23
  0
LAYOUT
  5
22
102
{ACAD_REACTORS
330
1A
102
}
330
1A
100
AcDbPlotSettings
  1

  2
none_device
  4

  6

 40
0.0
 41
0.0
 42
0.0
 43
0.0
 44
0.0
 45
0.0
 46
0.0
 47
0.0
 48
0.0
 49
0.0
140
0.0
141
0.0
142
1.0
143
1.0
 70
  1712
 72
     0
 73
     0
 74
     0
  7

 75
     0
 76
     0
 77
     2
 78
   300
147
1.0
148
0.0
149
0.0
100
AcDbLayout
  1
Model
 70
     1
 71
     0
 10
-105.0
 20
-148.5
 11
105.0
 21
148.5
 12
0.0
 22
0.0
 32
0.0
 14
-105.0
 24
-148.5
 34
0.0
 15
105.0
 25
148.5
 35
0.0
146
0.0
 13
0.0
 23
0.0
 33
0.0
 16
1.0
 26
0.0
 36
0.0
 17
0.0
 27
1.0
 37
0.0
 76
     0
330
1F
331
29
  0
MATERIAL
  5
3D
102
{ACAD_REACTORS
330
3B
102
}
102
{ACAD_XDICTIONARY
360
273
102
}
330
3B
100
AcDbMaterial
  1
ByBlock
  0
MATERIAL
  5
3C
102
{ACAD_REACTORS
330
3B
102
}
102
{ACAD_XDICTIONARY
360
271
102
}
330
3B
100
AcDbMaterial
  1
ByLayer
  0
MATERIAL
  5
3E
102
{ACAD_REACTORS
330
3B
102
}
102
{ACAD_XDICTIONARY
360
275
102
}
330
3B
100
AcDbMaterial
  1
Global
  0
MLINESTYLE
  5
18
102
{ACAD_REACTORS
330
17
102
}
330
17
100
AcDbMlineStyle
  2
Standard
 70
     0
  3

 62
   256
 51
90.0
 52
90.0
 71
     2
 49
0.5
 62
   256
  6
BYLAYER
 49
-0.5
 62
   256
  6
BYLAYER
  0
ACDBPLACEHOLDER
  5
F
102
{ACAD_REACTORS
330
E
102
}
330
E
  0
VISUALSTYLE
  5
2F
102
{ACAD_REACTORS
330
2A
102
}
102
{ACAD_XDICTIONARY
360
259
102
}
330
2A
100
AcDbVisualStyle
  2
2dWireframe
 70
     4
 71
     0
 72
     2
 73
     0
 90
        0
 40
-0.6
 41
-30.0
 62
     5
 63
     7
421
 16777215
 74
     1
 91
        4
 64
     7
 65
   257
 75
     1
175
     1
 42
1.0
 92
        0
 66
   257
 43
1.0
 76
     1
 77
     6
 78
     2
 67
     7
 79
     5
170
     0
171
     0
290
     0
174
     0
 93
        1
 44
0.0
173
     0
291
     0
 45
0.0
1001
ACAD
1000
AcDbSavedByObjectVersion
1070
     0
  0
VISUALSTYLE
  5
31
102
{ACAD_REACTORS
330
2A
102
}
102
{ACAD_XDICTIONARY
360
25D
102
}
330
2A
100
AcDbVisualStyle
  2
3D Hidden
 70
     6
 71
     1
 72
     2
 73
     2
 90
        0
 40
-0.6
 41
-30.0
 62
     5
 63
     7
421
 16777215
 74
     2
 91
        2
 64
     7
 65
   257
 75
     2
175
     1
 42
40.0
 92
        0
 66
   257
 43
1.0
 76
     1
 77
     6
 78
     2
 67
     7
 79
     3
170
     0
171
     0
290
     0
174
     0
 93
        1
 44
0.0
173
     0
291
     0
 45
0.0
1001
ACAD
1000
AcDbSavedByObjectVersion
1070
     0
  0
VISUALSTYLE
  5
30
102
{ACAD_REACTORS
330
2A
102
}
102
{ACAD_XDICTIONARY
360
25B
102
}
330
2A
100
AcDbVisualStyle
  2
3dWireframe
 70
     5
 71
     0
 72
     2
 73
     0
 90
        0
 40
-0.6
 41
-30.0
 62
     5
 63
     7
421
 16777215
 74
     1
 91
        4
 64
     7
 65
   257
 75
     1
175
     1
 42
1.0
 92
        0
 66
   257
 43
1.0
 76
     1
 77
     6
 78
     2
 67
     7
 79
     5
170
     0
171
     0
290
     0
174
     0
 93
        1
 44
0.0
173
     0
291
     0
 45
0.0
1001
ACAD
1000
AcDbSavedByObjectVersion
1070
     0
  0
VISUALSTYLE
  5
32
102
{ACAD_REACTORS
330
2A
102
}
102
{ACAD_XDICTIONARY
360
25F
102
}
330
2A
100
AcDbVisualStyle
  2
Basic
 70
     7
 71
     1
 72
     0
 73
     1
 90
        0
 40
-0.6
 41
-30.0
 62
     5
 63
     7
421
 16777215
 74
     0
 91
        4
 64
     7
 65
   257
 75
     1
175
     1
 42
1.0
 92
        8
 66
     7
 43
1.0
 76
     1
 77
     6
 78
     2
 67
     7
 79
     5
170
     0
171
     0
290
     0
174
     0
 93
        1
 44
0.0
173
     0
291
     1
 45
0.0
1001
ACAD
1000
AcDbSavedByObjectVersion
1070
     0
  0
VISUALSTYLE
  5
36
102
{ACAD_REACTORS
330
2A
102
}
102
{ACAD_XDICTIONARY
360
267
102
}
330
2A
100
AcDbVisualStyle
  2
Brighten
 70
    12
 71
     2
 72
     2
 73
     0
 90
        0
 40
-0.6
 41
-30.0
 62
     5
 63
     7
421
 16777215
 74
     1
 91
        4
 64
     7
 65
   257
 75
     1
175
     1
 42
1.0
 92
        8
 66
     7
 43
1.0
 76
     1
 77
     6
 78
     2
 67
     7
 79
     5
170
     0
171
     0
290
     0
174
     0
 93
        1
 44
50.0
173
     0
291
     1
 45
0.0
1001
ACAD
1000
AcDbSavedByObjectVersion
1070
     0
  0
VISUALSTYLE
  5
3A
102
{ACAD_REACTORS
330
2A
102
}
102
{ACAD_XDICTIONARY
360
26F
102
}
330
2A
100
AcDbVisualStyle
  2
ColorChange
 70
    16
 71
     2
 72
     2
 73
     3
 90
        0
 40
-0.6
 41
-30.0
 62
     5
 63
     8
421
  8421504
 74
     1
 91
        4
 64
     7
 65
   257
 75
     1
175
     1
 42
1.0
 92
        8
 66
     8
424
  8421504
 43
1.0
 76
     1
 77
     6
 78
     2
 67
     7
 79
     5
170
     0
171
     0
290
     0
174
     0
 93
        1
 44
0.0
173
     0
291
     1
 45
0.0
1001
ACAD
1000
AcDbSavedByObjectVersion
1070
     0
  0
VISUALSTYLE
  5
34
102
{ACAD_REACTORS
330
2A
102
}
102
{ACAD_XDICTIONARY
360
263
102
}
330
2A
100
AcDbVisualStyle
  2
Conceptual
 70
     9
 71
     3
 72
     2
 73
     0
 90
        0
 40
-0.6
 41
-30.0
 62
     5
 63
     7
421
 16777215
 74
     2
 91
        2
 64
     7
 65
   257
 75
     1
175
     1
 42
40.0
 92
        8
 66
     7
 43
1.0
 76
     1
 77
     6
 78
     2
 67
     7
 79
     3
170
     0
171
     0
290
     0
174
     0
 93
        1
 44
0.0
173
     0
291
     0
 45
0.0
1001
ACAD
1000
AcDbSavedByObjectVersion
1070
     0
  0
VISUALSTYLE
  5
35
102
{ACAD_REACTORS
330
2A
102
}
102
{ACAD_XDICTIONARY
360
265
102
}
330
2A
100
AcDbVisualStyle
  2
Dim
 70
    11
 71
     2
 72
     2
 73
     0
 90
        0
 40
-0.6
 41
-30.0
 62
     5
 63
     7
421
 16777215
 74
     1
 91
        4
 64
     7
 65
   257
 75
     1
175
     1
 42
1.0
 92
        8
 66
     7
 43
1.0
 76
     1
 77
     6
 78
     2
 67
     7
 79
     5
170
     0
171
     0
290
     0
174
     0
 93
        1
 44
-50.0
173
     0
291
     1
 45
0.0
1001
ACAD
1000
AcDbSavedByObjectVersion
1070
     0
  0
VISUALSTYLE
  5
39
102
{ACAD_REACTORS
330
2A
102
}
102
{ACAD_XDICTIONARY
360
26D
102
}
330
2A
100
AcDbVisualStyle
  2
Facepattern
 70
    15
 71
     2
 72
     2
 73
     0
 90
        0
 40
-0.6
 41
-30.0
 62
     5
 63
     7
421
 16777215
 74
     1
 91
        4
 64
     7
 65
   257
 75
     1
175
     1
 42
1.0
 92
        8
 66
     7
 43
1.0
 76
     1
 77
     6
 78
     2
 67
     7
 79
     5
170
     0
171
     0
290
     0
174
     0
 93
        1
 44
0.0
173
     0
291
     1
 45
0.0
1001
ACAD
1000
AcDbSavedByObjectVersion
1070
     0
  0
VISUALSTYLE
  5
2B
102
{ACAD_REACTORS
330
2A
102
}
102
{ACAD_XDICTIONARY
360
251
102
}
330
2A
100
AcDbVisualStyle
  2
Flat
 70
     0
 71
     2
 72
     1
 73
     1
 90
        2
 40
-0.6
 41
30.0
 62
     5
 63
     7
421
 16777215
 74
     0
 91
        4
 64
     7
 65
   257
 75
     1
175
     1
 42
1.0
 92
        8
 66
     7
 43
1.0
 76
     1
 77
     6
 78
     2
 67
     7
 79
     5
170
     0
171
     0
290
     0
174
     0
 93
       13
 44
0.0
173
     0
291
     1
 45
0.0
1001
ACAD
1000
AcDbSavedByObjectVersion
1070
     0
  0
VISUALSTYLE
  5
2C
102
{ACAD_REACTORS
330
2A
102
}
102
{ACAD_XDICTIONARY
360
253
102
}
330
2A
100
AcDbVisualStyle
  2
FlatWithEdges
 70
     1
 71
     2
 72
     1
 73
     1
 90
        2
 40
-0.6
 41
30.0
 62
     5
 63
     7
421
 16777215
 74
     1
 91
        4
 64
     7
 65
   257
 75
     1
175
     1
 42
1.0
 92
        0
 66
   257
 43
1.0
 76
     1
 77
     6
 78
     2
 67
     7
 79
     5
170
     0
171
     0
290
     0
174
     0
 93
       13
 44
0.0
173
     0
291
     1
 45
0.0
1001
ACAD
1000
AcDbSavedByObjectVersion
1070
     0
  0
VISUALSTYLE
  5
2D
102
{ACAD_REACTORS
330
2A
102
}
102
{ACAD_XDICTIONARY
360
255
102
}
330
2A
100
AcDbVisualStyle
  2
Gouraud
 70
     2
 71
     2
 72
     2
 73
     1
 90
        2
 40
-0.6
 41
30.0
 62
     5
 63
     7
421
 16777215
 74
     0
 91
        4
 64
     7
 65
   257
 75
     1
175
     1
 42
1.0
 92
        0
 66
     7
 43
1.0
 76
     1
 77
     6
 78
     2
 67
     7
 79
     5
170
     0
171
     0
290
     0
174
     0
 93
       13
 44
0.0
173
     0
291
     1
 45
0.0
1001
ACAD
1000
AcDbSavedByObjectVersion
1070
     0
  0
VISUALSTYLE
  5
2E
102
{ACAD_REACTORS
330
2A
102
}
102
{ACAD_XDICTIONARY
360
257
102
}
330
2A
100
AcDbVisualStyle
  2
GouraudWithEdges
 70
     3
 71
     2
 72
     2
 73
     1
 90
        2
 40
-0.6
 41
30.0
 62
     5
 63
     7
421
 16777215
 74
     1
 91
        4
 64
     7
 65
   257
 75
     1
175
     1
 42
1.0
 92
        0
 66
   257
 43
1.0
 76
     1
 77
     6
 78
     2
 67
     7
 79
     5
170
     0
171
     0
290
     0
174
     0
 93
       13
 44
0.0
173
     0
291
     1
 45
0.0
1001
ACAD
1000
AcDbSavedByObjectVersion
1070
     0
  0
VISUALSTYLE
  5
38
102
{ACAD_REACTORS
330
2A
102
}
102
{ACAD_XDICTIONARY
360
26B
102
}
330
2A
100
AcDbVisualStyle
  2
Linepattern
 70
    14
 71
     2
 72
     2
 73
     0
 90
        0
 40
-0.6
 41
-30.0
 62
     5
 63
     7
421
 16777215
 74
     1
 91
        4
 64
     7
 65
   257
 75
     7
175
     7
 42
1.0
 92
        8
 66
     7
 43
1.0
 76
     1
 77
     6
 78
     2
 67
     7
 79
     5
170
     0
171
     0
290
     0
174
     0
 93
        1
 44
0.0
173
     0
291
     1
 45
0.0
1001
ACAD
1000
AcDbSavedByObjectVersion
1070
     0
  0
VISUALSTYLE
  5
33
102
{ACAD_REACTORS
330
2A
102
}
102
{ACAD_XDICTIONARY
360
261
102
}
330
2A
100
AcDbVisualStyle
  2
Realistic
 70
     8
 71
     2
 72
     2
 73
     0
 90
        0
 40
-0.6
 41
-30.0
 62
     5
 63
     7
421
 16777215
 74
     1
 91
        0
 64
     7
 65
   257
 75
     1
175
     1
 42
1.0
 92
        8
 66
     8
424
  7895160
 43
1.0
 76
     1
 77
     6
 78
     2
 67
     7
 79
     5
170
     0
171
     0
290
     0
174
     0
 93
       13
 44
0.0
173
     0
291
     0
 45
0.0
1001
ACAD
1000
AcDbSavedByObjectVersion
1070
     0
  0
VISUALSTYLE
  5
37
102
{ACAD_REACTORS
330
2A
102
}
102
{ACAD_XDICTIONARY
360
269
102
}
330
2A
100
AcDbVisualStyle
  2
Thicken
 70
    13
 71
     2
 72
     2
 73
     0
 90
        0
 40
-0.6
 41
-30.0
 62
     5
 63
     7
421
 16777215
 74
     1
 91
        4
 64
     7
 65
   257
 75
     1
175
     1
 42
1.0
 92
       12
 66
     7
 43
1.0
 76
     1
 77
     6
 78
     2
 67
     7
 79
     5
170
     0
171
     0
290
     0
174
     0
 93
        1
 44
0.0
173
     0
291
     1
 45
0.0
1001
ACAD
1000
AcDbSavedByObjectVersion
1070
     0
  0
DICTIONARY
  5
273
330
3D
100
AcDbDictionary
280
     1
281
     1
  3
ACAD_XREC_ROUNDTRIP
360
274
  0
DICTIONARY
  5
271
330
3C
100
AcDbDictionary
280
     1
281
     1
  3
ACAD_XREC_ROUNDTRIP
360
272
  0
DICTIONARY
  5
275
330
3E
100
AcDbDictionary
280
     1
281
     1
  3
ACAD_XREC_ROUNDTRIP
360
276
  0
DICTIONARY
  5
259
330
2F
100
AcDbDictionary
280
     1
281
     1
  3
ACAD_XREC_ROUNDTRIP
360
25A
  0
DICTIONARY
  5
25D
330
31
100
AcDbDictionary
280
     1
281
     1
  3
ACAD_XREC_ROUNDTRIP
360
25E
  0
DICTIONARY
  5
25B
330
30
100
AcDbDictionary
280
     1
281
     1
  3
ACAD_XREC_ROUNDTRIP
360
25C
  0
DICTIONARY
  5
25F
330
32
100
AcDbDictionary
280
     1
281
     1
  3
ACAD_XREC_ROUNDTRIP
360
260
  0
DICTIONARY
  5
267
330
36
100
AcDbDictionary
280
     1
281
     1
  3
ACAD_XREC_ROUNDTRIP
360
268
  0
DICTIONARY
  5
26F
330
3A
100
AcDbDictionary
280
     1
281
     1
  3
ACAD_XREC_ROUNDTRIP
360
270
  0
DICTIONARY
  5
263
330
34
100
AcDbDictionary
280
     1
281
     1
  3
ACAD_XREC_ROUNDTRIP
360
264
  0
DICTIONARY
  5
265
330
35
100
AcDbDictionary
280
     1
281
     1
  3
ACAD_XREC_ROUNDTRIP
360
266
  0
DICTIONARY
  5
26D
330
39
100
AcDbDictionary
280
     1
281
     1
  3
ACAD_XREC_ROUNDTRIP
360
26E
  0
DICTIONARY
  5
251
330
2B
100
AcDbDictionary
280
     1
281
     1
  3
ACAD_XREC_ROUNDTRIP
360
252
  0
DICTIONARY
  5
253
330
2C
100
AcDbDictionary
280
     1
281
     1
  3
ACAD_XREC_ROUNDTRIP
360
254
  0
DICTIONARY
  5
255
330
2D
100
AcDbDictionary
280
     1
281
     1
  3
ACAD_XREC_ROUNDTRIP
360
256
  0
DICTIONARY
  5
257
330
2E
100
AcDbDictionary
280
     1
281
     1
  3
ACAD_XREC_ROUNDTRIP
360
258
  0
DICTIONARY
  5
26B
330
38
100
AcDbDictionary
280
     1
281
     1
  3
ACAD_XREC_ROUNDTRIP
360
26C
  0
DICTIONARY
  5
261
330
33
100
AcDbDictionary
280
     1
281
     1
  3
ACAD_XREC_ROUNDTRIP
360
262
  0
DICTIONARY
  5
269
330
37
100
AcDbDictionary
280
     1
281
     1
  3
ACAD_XREC_ROUNDTRIP
360
26A
  0
XRECORD
  5
274
102
{ACAD_REACTORS
330
273
102
}
330
273
100
AcDbXrecord
280
     1
102
MATERIAL
148
0.0
149
0.0
149
0.0
 93
        0
 94
      127
282
     0
 72
     1
 77
     1
171
     1
175
     1
179
     1
273
     0
  0
XRECORD
  5
272
102
{ACAD_REACTORS
330
271
102
}
330
271
100
AcDbXrecord
280
     1
102
MATERIAL
148
0.0
149
0.0
149
0.0
 93
        0
 94
      127
282
     0
 72
     1
 77
     1
171
     1
175
     1
179
     1
273
     0
  0
XRECORD
  5
276
102
{ACAD_REACTORS
330
275
102
}
330
275
100
AcDbXrecord
280
     1
102
MATERIAL
148
0.0
149
0.0
149
0.0
 93
        0
 94
      127
282
     0
 72
     1
 77
     1
171
     1
175
     1
179
     1
273
     0
  0
XRECORD
  5
25A
102
{ACAD_REACTORS
330
259
102
}
330
259
100
AcDbXrecord
280
     1
102
RTVSPropertyOp0
 70
     1
102
RTVSPropertyOp1
 70
     1
102
RTVSPropertyOp2
 70
     1
102
RTVSPropertyOp3
 70
     1
102
RTVSPropertyOp4
 70
     1
102
RTVSPropertyOp5
 70
     1
102
RTVSPropertyOp6
 70
     1
102
RTVSPropertyOp7
 70
     1
102
RTVSPropertyOp8
 70
     1
102
RTVSPropertyOp9
 70
     1
102
RTVSPropertyOp10
 70
     1
102
RTVSPropertyOp11
 70
     1
102
RTVSPropertyOp12
 70
     1
102
RTVSPropertyOp13
 70
     1
102
RTVSPropertyOp14
 70
     1
102
RTVSPropertyOp15
 70
     1
102
RTVSPropertyOp16
 70
     1
102
RTVSPropertyOp17
 70
     1
102
RTVSPropertyOp18
 70
     1
102
RTVSPropertyOp19
 70
     1
102
RTVSPropertyOp20
 70
     1
102
RTVSPropertyOp21
 70
     1
102
RTVSPropertyOp22
 70
     1
102
RTVSPropertyOp23
 70
     1
102
RTVSPropertyOp24
 70
     1
102
RTVSPropertyOp25
 70
     1
102
RTVSPropertyOp26
 70
     1
102
RTVSPropertyOp27
 70
     1
102
RTVSPropertyOp28
 70
     1
102
RTVSPropertyOp29
 70
     1
102
RTVSPropertyOp30
 70
     1
102
RTVSPropertyOp31
 70
     1
102
RTVSPropertyOp32
 70
     1
  0
XRECORD
  5
25E
102
{ACAD_REACTORS
330
25D
102
}
330
25D
100
AcDbXrecord
280
     1
102
RTVSPropertyOp0
 70
     1
102
RTVSPropertyOp1
 70
     1
102
RTVSPropertyOp2
 70
     1
102
RTVSPropertyOp3
 70
     1
102
RTVSPropertyOp4
 70
     1
102
RTVSPropertyOp5
 70
     1
102
RTVSPropertyOp6
 70
     1
102
RTVSPropertyOp7
 70
     1
102
RTVSPropertyOp8
 70
     1
102
RTVSPropertyOp9
 70
     1
102
RTVSPropertyOp10
 70
     1
102
RTVSPropertyOp11
 70
     1
102
RTVSPropertyOp12
 70
     1
102
RTVSPropertyOp13
 70
     1
102
RTVSPropertyOp14
 70
     1
102
RTVSPropertyOp15
 70
     1
102
RTVSPropertyOp16
 70
     1
102
RTVSPropertyOp17
 70
     1
102
RTVSPropertyOp18
 70
     1
102
RTVSPropertyOp19
 70
     1
102
RTVSPropertyOp20
 70
     1
102
RTVSPropertyOp21
 70
     1
102
RTVSPropertyOp22
 70
     1
102
RTVSPropertyOp23
 70
     1
102
RTVSPropertyOp24
 70
     1
102
RTVSPropertyOp25
 70
     1
102
RTVSPropertyOp26
 70
     1
102
RTVSPropertyOp27
 70
     1
102
RTVSPropertyOp28
 70
     1
102
RTVSPropertyOp29
 70
     1
102
RTVSPropertyOp30
 70
     1
102
RTVSPropertyOp31
 70
     1
102
RTVSPropertyOp32
 70
     1
  0
XRECORD
  5
25C
102
{ACAD_REACTORS
330
25B
102
}
330
25B
100
AcDbXrecord
280
     1
102
RTVSPropertyOp0
 70
     1
102
RTVSPropertyOp1
 70
     1
102
RTVSPropertyOp2
 70
     1
102
RTVSPropertyOp3
 70
     1
102
RTVSPropertyOp4
 70
     1
102
RTVSPropertyOp5
 70
     1
102
RTVSPropertyOp6
 70
     1
102
RTVSPropertyOp7
 70
     1
102
RTVSPropertyOp8
 70
     1
102
RTVSPropertyOp9
 70
     1
102
RTVSPropertyOp10
 70
     1
102
RTVSPropertyOp11
 70
     1
102
RTVSPropertyOp12
 70
     1
102
RTVSPropertyOp13
 70
     1
102
RTVSPropertyOp14
 70
     1
102
RTVSPropertyOp15
 70
     1
102
RTVSPropertyOp16
 70
     1
102
RTVSPropertyOp17
 70
     1
102
RTVSPropertyOp18
 70
     1
102
RTVSPropertyOp19
 70
     1
102
RTVSPropertyOp20
 70
     1
102
RTVSPropertyOp21
 70
     1
102
RTVSPropertyOp22
 70
     1
102
RTVSPropertyOp23
 70
     1
102
RTVSPropertyOp24
 70
     1
102
RTVSPropertyOp25
 70
     1
102
RTVSPropertyOp26
 70
     1
102
RTVSPropertyOp27
 70
     1
102
RTVSPropertyOp28
 70
     1
102
RTVSPropertyOp29
 70
     1
102
RTVSPropertyOp30
 70
     1
102
RTVSPropertyOp31
 70
     1
102
RTVSPropertyOp32
 70
     1
  0
XRECORD
  5
260
102
{ACAD_REACTORS
330
25F
102
}
330
25F
100
AcDbXrecord
280
     1
102
RTVSPropertyOp0
 70
     1
102
RTVSPropertyOp1
 70
     1
102
RTVSPropertyOp2
 70
     1
102
RTVSPropertyOp3
 70
     1
102
RTVSPropertyOp4
 70
     1
102
RTVSPropertyOp5
 70
     1
102
RTVSPropertyOp6
 70
     1
102
RTVSPropertyOp7
 70
     1
102
RTVSPropertyOp8
 70
     1
102
RTVSPropertyOp9
 70
     1
102
RTVSPropertyOp10
 70
     1
102
RTVSPropertyOp11
 70
     1
102
RTVSPropertyOp12
 70
     1
102
RTVSPropertyOp13
 70
     1
102
RTVSPropertyOp14
 70
     1
102
RTVSPropertyOp15
 70
     1
102
RTVSPropertyOp16
 70
     1
102
RTVSPropertyOp17
 70
     1
102
RTVSPropertyOp18
 70
     1
102
RTVSPropertyOp19
 70
     1
102
RTVSPropertyOp20
 70
     1
102
RTVSPropertyOp21
 70
     1
102
RTVSPropertyOp22
 70
     1
102
RTVSPropertyOp23
 70
     1
102
RTVSPropertyOp24
 70
     1
102
RTVSPropertyOp25
 70
     1
102
RTVSPropertyOp26
 70
     1
102
RTVSPropertyOp27
 70
     1
102
RTVSPropertyOp28
 70
     1
102
RTVSPropertyOp29
 70
     1
102
RTVSPropertyOp30
 70
     1
102
RTVSPropertyOp31
 70
     1
102
RTVSPropertyOp32
 70
     1
  0
XRECORD
  5
268
102
{ACAD_REACTORS
330
267
102
}
330
267
100
AcDbXrecord
280
     1
102
RTVSPropertyOp0
 70
     1
102
RTVSPropertyOp1
 70
     1
102
RTVSPropertyOp2
 70
     1
102
RTVSPropertyOp3
 70
     1
102
RTVSPropertyOp4
 70
     1
102
RTVSPropertyOp5
 70
     1
102
RTVSPropertyOp6
 70
     1
102
RTVSPropertyOp7
 70
     1
102
RTVSPropertyOp8
 70
     1
102
RTVSPropertyOp9
 70
     1
102
RTVSPropertyOp10
 70
     1
102
RTVSPropertyOp11
 70
     1
102
RTVSPropertyOp12
 70
     1
102
RTVSPropertyOp13
 70
     1
102
RTVSPropertyOp14
 70
     1
102
RTVSPropertyOp15
 70
     1
102
RTVSPropertyOp16
 70
     1
102
RTVSPropertyOp17
 70
     1
102
RTVSPropertyOp18
 70
     1
102
RTVSPropertyOp19
 70
     1
102
RTVSPropertyOp20
 70
     1
102
RTVSPropertyOp21
 70
     1
102
RTVSPropertyOp22
 70
     1
102
RTVSPropertyOp23
 70
     1
102
RTVSPropertyOp24
 70
     1
102
RTVSPropertyOp25
 70
     1
102
RTVSPropertyOp26
 70
     1
102
RTVSPropertyOp27
 70
     1
102
RTVSPropertyOp28
 70
     1
102
RTVSPropertyOp29
 70
     1
102
RTVSPropertyOp30
 70
     1
102
RTVSPropertyOp31
 70
     1
102
RTVSPropertyOp32
 70
     1
  0
XRECORD
  5
270
102
{ACAD_REACTORS
330
26F
102
}
330
26F
100
AcDbXrecord
280
     1
102
RTVSPropertyOp0
 70
     1
102
RTVSPropertyOp1
 70
     1
102
RTVSPropertyOp2
 70
     1
102
RTVSPropertyOp3
 70
     1
102
RTVSPropertyOp4
 70
     1
102
RTVSPropertyOp5
 70
     1
102
RTVSPropertyOp6
 70
     1
102
RTVSPropertyOp7
 70
     1
102
RTVSPropertyOp8
 70
     1
102
RTVSPropertyOp9
 70
     1
102
RTVSPropertyOp10
 70
     1
102
RTVSPropertyOp11
 70
     1
102
RTVSPropertyOp12
 70
     1
102
RTVSPropertyOp13
 70
     1
102
RTVSPropertyOp14
 70
     1
102
RTVSPropertyOp15
 70
     1
102
RTVSPropertyOp16
 70
     1
102
RTVSPropertyOp17
 70
     1
102
RTVSPropertyOp18
 70
     1
102
RTVSPropertyOp19
 70
     1
102
RTVSPropertyOp20
 70
     1
102
RTVSPropertyOp21
 70
     1
102
RTVSPropertyOp22
 70
     1
102
RTVSPropertyOp23
 70
     1
102
RTVSPropertyOp24
 70
     1
102
RTVSPropertyOp25
 70
     1
102
RTVSPropertyOp26
 70
     1
102
RTVSPropertyOp27
 70
     1
102
RTVSPropertyOp28
 70
     1
102
RTVSPropertyOp29
 70
     1
102
RTVSPropertyOp30
 70
     1
102
RTVSPropertyOp31
 70
     1
102
RTVSPropertyOp32
 70
     1
  0
XRECORD
  5
264
102
{ACAD_REACTORS
330
263
102
}
330
263
100
AcDbXrecord
280
     1
102
RTVSPropertyOp0
 70
     1
102
RTVSPropertyOp1
 70
     1
102
RTVSPropertyOp2
 70
     1
102
RTVSPropertyOp3
 70
     1
102
RTVSPropertyOp4
 70
     1
102
RTVSPropertyOp5
 70
     1
102
RTVSPropertyOp6
 70
     1
102
RTVSPropertyOp7
 70
     1
102
RTVSPropertyOp8
 70
     1
102
RTVSPropertyOp9
 70
     1
102
RTVSPropertyOp10
 70
     1
102
RTVSPropertyOp11
 70
     1
102
RTVSPropertyOp12
 70
     1
102
RTVSPropertyOp13
 70
     1
102
RTVSPropertyOp14
 70
     1
102
RTVSPropertyOp15
 70
     1
102
RTVSPropertyOp16
 70
     1
102
RTVSPropertyOp17
 70
     1
102
RTVSPropertyOp18
 70
     1
102
RTVSPropertyOp19
 70
     1
102
RTVSPropertyOp20
 70
     1
102
RTVSPropertyOp21
 70
     1
102
RTVSPropertyOp22
 70
     1
102
RTVSPropertyOp23
 70
     1
102
RTVSPropertyOp24
 70
     1
102
RTVSPropertyOp25
 70
     1
102
RTVSPropertyOp26
 70
     1
102
RTVSPropertyOp27
 70
     1
102
RTVSPropertyOp28
 70
     1
102
RTVSPropertyOp29
 70
     1
102
RTVSPropertyOp30
 70
     1
102
RTVSPropertyOp31
 70
     1
102
RTVSPropertyOp32
 70
     1
  0
XRECORD
  5
266
102
{ACAD_REACTORS
330
265
102
}
330
265
100
AcDbXrecord
280
     1
102
RTVSPropertyOp0
 70
     1
102
RTVSPropertyOp1
 70
     1
102
RTVSPropertyOp2
 70
     1
102
RTVSPropertyOp3
 70
     1
102
RTVSPropertyOp4
 70
     1
102
RTVSPropertyOp5
 70
     1
102
RTVSPropertyOp6
 70
     1
102
RTVSPropertyOp7
 70
     1
102
RTVSPropertyOp8
 70
     1
102
RTVSPropertyOp9
 70
     1
102
RTVSPropertyOp10
 70
     1
102
RTVSPropertyOp11
 70
     1
102
RTVSPropertyOp12
 70
     1
102
RTVSPropertyOp13
 70
     1
102
RTVSPropertyOp14
 70
     1
102
RTVSPropertyOp15
 70
     1
102
RTVSPropertyOp16
 70
     1
102
RTVSPropertyOp17
 70
     1
102
RTVSPropertyOp18
 70
     1
102
RTVSPropertyOp19
 70
     1
102
RTVSPropertyOp20
 70
     1
102
RTVSPropertyOp21
 70
     1
102
RTVSPropertyOp22
 70
     1
102
RTVSPropertyOp23
 70
     1
102
RTVSPropertyOp24
 70
     1
102
RTVSPropertyOp25
 70
     1
102
RTVSPropertyOp26
 70
     1
102
RTVSPropertyOp27
 70
     1
102
RTVSPropertyOp28
 70
     1
102
RTVSPropertyOp29
 70
     1
102
RTVSPropertyOp30
 70
     1
102
RTVSPropertyOp31
 70
     1
102
RTVSPropertyOp32
 70
     1
  0
XRECORD
  5
26E
102
{ACAD_REACTORS
330
26D
102
}
330
26D
100
AcDbXrecord
280
     1
102
RTVSPropertyOp0
 70
     1
102
RTVSPropertyOp1
 70
     1
102
RTVSPropertyOp2
 70
     1
102
RTVSPropertyOp3
 70
     1
102
RTVSPropertyOp4
 70
     1
102
RTVSPropertyOp5
 70
     1
102
RTVSPropertyOp6
 70
     1
102
RTVSPropertyOp7
 70
     1
102
RTVSPropertyOp8
 70
     1
102
RTVSPropertyOp9
 70
     1
102
RTVSPropertyOp10
 70
     1
102
RTVSPropertyOp11
 70
     1
102
RTVSPropertyOp12
 70
     1
102
RTVSPropertyOp13
 70
     1
102
RTVSPropertyOp14
 70
     1
102
RTVSPropertyOp15
 70
     1
102
RTVSPropertyOp16
 70
     1
102
RTVSPropertyOp17
 70
     1
102
RTVSPropertyOp18
 70
     1
102
RTVSPropertyOp19
 70
     1
102
RTVSPropertyOp20
 70
     1
102
RTVSPropertyOp21
 70
     1
102
RTVSPropertyOp22
 70
     1
102
RTVSPropertyOp23
 70
     1
102
RTVSPropertyOp24
 70
     1
102
RTVSPropertyOp25
 70
     1
102
RTVSPropertyOp26
 70
     1
102
RTVSPropertyOp27
 70
     1
102
RTVSPropertyOp28
 70
     1
102
RTVSPropertyOp29
 70
     1
102
RTVSPropertyOp30
 70
     1
102
RTVSPropertyOp31
 70
     1
102
RTVSPropertyOp32
 70
     1
  0
XRECORD
  5
252
102
{ACAD_REACTORS
330
251
102
}
330
251
100
AcDbXrecord
280
     1
102
RTVSPropertyOp0
 70
     1
102
RTVSPropertyOp1
 70
     1
102
RTVSPropertyOp2
 70
     1
102
RTVSPropertyOp3
 70
     1
102
RTVSPropertyOp4
 70
     1
102
RTVSPropertyOp5
 70
     1
102
RTVSPropertyOp6
 70
     1
102
RTVSPropertyOp7
 70
     1
102
RTVSPropertyOp8
 70
     1
102
RTVSPropertyOp9
 70
     1
102
RTVSPropertyOp10
 70
     1
102
RTVSPropertyOp11
 70
     1
102
RTVSPropertyOp12
 70
     1
102
RTVSPropertyOp13
 70
     1
102
RTVSPropertyOp14
 70
     1
102
RTVSPropertyOp15
 70
     1
102
RTVSPropertyOp16
 70
     1
102
RTVSPropertyOp17
 70
     1
102
RTVSPropertyOp18
 70
     1
102
RTVSPropertyOp19
 70
     1
102
RTVSPropertyOp20
 70
     1
102
RTVSPropertyOp21
 70
     1
102
RTVSPropertyOp22
 70
     1
102
RTVSPropertyOp23
 70
     1
102
RTVSPropertyOp24
 70
     1
102
RTVSPropertyOp25
 70
     1
102
RTVSPropertyOp26
 70
     1
102
RTVSPropertyOp27
 70
     1
102
RTVSPropertyOp28
 70
     1
102
RTVSPropertyOp29
 70
     1
102
RTVSPropertyOp30
 70
     1
102
RTVSPropertyOp31
 70
     1
102
RTVSPropertyOp32
 70
     1
  0
XRECORD
  5
254
102
{ACAD_REACTORS
330
253
102
}
330
253
100
AcDbXrecord
280
     1
102
RTVSPropertyOp0
 70
     1
102
RTVSPropertyOp1
 70
     1
102
RTVSPropertyOp2
 70
     1
102
RTVSPropertyOp3
 70
     1
102
RTVSPropertyOp4
 70
     1
102
RTVSPropertyOp5
 70
     1
102
RTVSPropertyOp6
 70
     1
102
RTVSPropertyOp7
 70
     1
102
RTVSPropertyOp8
 70
     1
102
RTVSPropertyOp9
 70
     1
102
RTVSPropertyOp10
 70
     1
102
RTVSPropertyOp11
 70
     1
102
RTVSPropertyOp12
 70
     1
102
RTVSPropertyOp13
 70
     1
102
RTVSPropertyOp14
 70
     1
102
RTVSPropertyOp15
 70
     1
102
RTVSPropertyOp16
 70
     1
102
RTVSPropertyOp17
 70
     1
102
RTVSPropertyOp18
 70
     1
102
RTVSPropertyOp19
 70
     1
102
RTVSPropertyOp20
 70
     1
102
RTVSPropertyOp21
 70
     1
102
RTVSPropertyOp22
 70
     1
102
RTVSPropertyOp23
 70
     1
102
RTVSPropertyOp24
 70
     1
102
RTVSPropertyOp25
 70
     1
102
RTVSPropertyOp26
 70
     1
102
RTVSPropertyOp27
 70
     1
102
RTVSPropertyOp28
 70
     1
102
RTVSPropertyOp29
 70
     1
102
RTVSPropertyOp30
 70
     1
102
RTVSPropertyOp31
 70
     1
102
RTVSPropertyOp32
 70
     1
  0
XRECORD
  5
256
102
{ACAD_REACTORS
330
255
102
}
330
255
100
AcDbXrecord
280
     1
102
RTVSPropertyOp0
 70
     1
102
RTVSPropertyOp1
 70
     1
102
RTVSPropertyOp2
 70
     1
102
RTVSPropertyOp3
 70
     1
102
RTVSPropertyOp4
 70
     1
102
RTVSPropertyOp5
 70
     1
102
RTVSPropertyOp6
 70
     1
102
RTVSPropertyOp7
 70
     1
102
RTVSPropertyOp8
 70
     1
102
RTVSPropertyOp9
 70
     1
102
RTVSPropertyOp10
 70
     1
102
RTVSPropertyOp11
 70
     1
102
RTVSPropertyOp12
 70
     1
102
RTVSPropertyOp13
 70
     1
102
RTVSPropertyOp14
 70
     1
102
RTVSPropertyOp15
 70
     1
102
RTVSPropertyOp16
 70
     1
102
RTVSPropertyOp17
 70
     1
102
RTVSPropertyOp18
 70
     1
102
RTVSPropertyOp19
 70
     1
102
RTVSPropertyOp20
 70
     1
102
RTVSPropertyOp21
 70
     1
102
RTVSPropertyOp22
 70
     1
102
RTVSPropertyOp23
 70
     1
102
RTVSPropertyOp24
 70
     1
102
RTVSPropertyOp25
 70
     1
102
RTVSPropertyOp26
 70
     1
102
RTVSPropertyOp27
 70
     1
102
RTVSPropertyOp28
 70
     1
102
RTVSPropertyOp29
 70
     1
102
RTVSPropertyOp30
 70
     1
102
RTVSPropertyOp31
 70
     1
102
RTVSPropertyOp32
 70
     1
  0
XRECORD
  5
258
102
{ACAD_REACTORS
330
257
102
}
330
257
100
AcDbXrecord
280
     1
102
RTVSPropertyOp0
 70
     1
102
RTVSPropertyOp1
 70
     1
102
RTVSPropertyOp2
 70
     1
102
RTVSPropertyOp3
 70
     1
102
RTVSPropertyOp4
 70
     1
102
RTVSPropertyOp5
 70
     1
102
RTVSPropertyOp6
 70
     1
102
RTVSPropertyOp7
 70
     1
102
RTVSPropertyOp8
 70
     1
102
RTVSPropertyOp9
 70
     1
102
RTVSPropertyOp10
 70
     1
102
RTVSPropertyOp11
 70
     1
102
RTVSPropertyOp12
 70
     1
102
RTVSPropertyOp13
 70
     1
102
RTVSPropertyOp14
 70
     1
102
RTVSPropertyOp15
 70
     1
102
RTVSPropertyOp16
 70
     1
102
RTVSPropertyOp17
 70
     1
102
RTVSPropertyOp18
 70
     1
102
RTVSPropertyOp19
 70
     1
102
RTVSPropertyOp20
 70
     1
102
RTVSPropertyOp21
 70
     1
102
RTVSPropertyOp22
 70
     1
102
RTVSPropertyOp23
 70
     1
102
RTVSPropertyOp24
 70
     1
102
RTVSPropertyOp25
 70
     1
102
RTVSPropertyOp26
 70
     1
102
RTVSPropertyOp27
 70
     1
102
RTVSPropertyOp28
 70
     1
102
RTVSPropertyOp29
 70
     1
102
RTVSPropertyOp30
 70
     1
102
RTVSPropertyOp31
 70
     1
102
RTVSPropertyOp32
 70
     1
  0
XRECORD
  5
26C
102
{ACAD_REACTORS
330
26B
102
}
330
26B
100
AcDbXrecord
280
     1
102
RTVSPropertyOp0
 70
     1
102
RTVSPropertyOp1
 70
     1
102
RTVSPropertyOp2
 70
     1
102
RTVSPropertyOp3
 70
     1
102
RTVSPropertyOp4
 70
     1
102
RTVSPropertyOp5
 70
     1
102
RTVSPropertyOp6
 70
     1
102
RTVSPropertyOp7
 70
     1
102
RTVSPropertyOp8
 70
     1
102
RTVSPropertyOp9
 70
     1
102
RTVSPropertyOp10
 70
     1
102
RTVSPropertyOp11
 70
     1
102
RTVSPropertyOp12
 70
     1
102
RTVSPropertyOp13
 70
     1
102
RTVSPropertyOp14
 70
     1
102
RTVSPropertyOp15
 70
     1
102
RTVSPropertyOp16
 70
     1
102
RTVSPropertyOp17
 70
     1
102
RTVSPropertyOp18
 70
     1
102
RTVSPropertyOp19
 70
     1
102
RTVSPropertyOp20
 70
     1
102
RTVSPropertyOp21
 70
     1
102
RTVSPropertyOp22
 70
     1
102
RTVSPropertyOp23
 70
     1
102
RTVSPropertyOp24
 70
     1
102
RTVSPropertyOp25
 70
     1
102
RTVSPropertyOp26
 70
     1
102
RTVSPropertyOp27
 70
     1
102
RTVSPropertyOp28
 70
     1
102
RTVSPropertyOp29
 70
     1
102
RTVSPropertyOp30
 70
     1
102
RTVSPropertyOp31
 70
     1
102
RTVSPropertyOp32
 70
     1
  0
XRECORD
  5
262
102
{ACAD_REACTORS
330
261
102
}
330
261
100
AcDbXrecord
280
     1
102
RTVSPropertyOp0
 70
     1
102
RTVSPropertyOp1
 70
     1
102
RTVSPropertyOp2
 70
     1
102
RTVSPropertyOp3
 70
     1
102
RTVSPropertyOp4
 70
     1
102
RTVSPropertyOp5
 70
     1
102
RTVSPropertyOp6
 70
     1
102
RTVSPropertyOp7
 70
     1
102
RTVSPropertyOp8
 70
     1
102
RTVSPropertyOp9
 70
     1
102
RTVSPropertyOp10
 70
     1
102
RTVSPropertyOp11
 70
     1
102
RTVSPropertyOp12
 70
     1
102
RTVSPropertyOp13
 70
     1
102
RTVSPropertyOp14
 70
     1
102
RTVSPropertyOp15
 70
     1
102
RTVSPropertyOp16
 70
     1
102
RTVSPropertyOp17
 70
     1
102
RTVSPropertyOp18
 70
     1
102
RTVSPropertyOp19
 70
     1
102
RTVSPropertyOp20
 70
     1
102
RTVSPropertyOp21
 70
     1
102
RTVSPropertyOp22
 70
     1
102
RTVSPropertyOp23
 70
     1
102
RTVSPropertyOp24
 70
     1
102
RTVSPropertyOp25
 70
     1
102
RTVSPropertyOp26
 70
     1
102
RTVSPropertyOp27
 70
     1
102
RTVSPropertyOp28
 70
     1
102
RTVSPropertyOp29
 70
     1
102
RTVSPropertyOp30
 70
     1
102
RTVSPropertyOp31
 70
     1
102
RTVSPropertyOp32
 70
     1
  0
XRECORD
  5
26A
102
{ACAD_REACTORS
330
269
102
}
330
269
100
AcDbXrecord
280
     1
102
RTVSPropertyOp0
 70
     1
102
RTVSPropertyOp1
 70
     1
102
RTVSPropertyOp2
 70
     1
102
RTVSPropertyOp3
 70
     1
102
RTVSPropertyOp4
 70
     1
102
RTVSPropertyOp5
 70
     1
102
RTVSPropertyOp6
 70
     1
102
RTVSPropertyOp7
 70
     1
102
RTVSPropertyOp8
 70
     1
102
RTVSPropertyOp9
 70
     1
102
RTVSPropertyOp10
 70
     1
102
RTVSPropertyOp11
 70
     1
102
RTVSPropertyOp12
 70
     1
102
RTVSPropertyOp13
 70
     1
102
RTVSPropertyOp14
 70
     1
102
RTVSPropertyOp15
 70
     1
102
RTVSPropertyOp16
 70
     1
102
RTVSPropertyOp17
 70
     1
102
RTVSPropertyOp18
 70
     1
102
RTVSPropertyOp19
 70
     1
102
RTVSPropertyOp20
 70
     1
102
RTVSPropertyOp21
 70
     1
102
RTVSPropertyOp22
 70
     1
102
RTVSPropertyOp23
 70
     1
102
RTVSPropertyOp24
 70
     1
102
RTVSPropertyOp25
 70
     1
102
RTVSPropertyOp26
 70
     1
102
RTVSPropertyOp27
 70
     1
102
RTVSPropertyOp28
 70
     1
102
RTVSPropertyOp29
 70
     1
102
RTVSPropertyOp30
 70
     1
102
RTVSPropertyOp31
 70
     1
102
RTVSPropertyOp32
 70
     1
  0
ENDSEC
  0
EOF
