  0
SECTION
  2
HEADER
  9
$ACADVER
  1
AC1018
  9
$ACADMAINTVER
 70
     0
  9
$DWGCODEPAGE
  3
ANSI_932
  9
$INSBASE
 10
0.0
 20
0.0
 30
0.0
  9
$EXTMIN
 10
-105.0
 20
-148.5
 30
0.0
  9
$EXTMAX
 10
105.0
 20
148.5
 30
0.0
  9
$LIMMIN
 10
-105.0
 20
-148.5
  9
$LIMMAX
 10
105.0
 20
148.5
  9
$ORTHOMODE
 70
     0
  9
$REGENMODE
 70
     1
  9
$FILLMODE
 70
     1
  9
$QTEXTMODE
 70
     0
  9
$MIRRTEXT
 70
     1
  9
$LTSCALE
 40
1.0
  9
$ATTMODE
 70
     1
  9
$TEXTSIZE
 40
2.5
  9
$TRACEWID
 40
1.0
  9
$TEXTSTYLE
  7
Standard
  9
$CLAYER
  8
0
  9
$CELTYPE
  6
ByLayer
  9
$CECOLOR
 62
   256
  9
$CELTSCALE
 40
1.0
  9
$DISPSILH
 70
     0
  9
$DIMSCALE
 40
1.0
  9
$DIMASZ
 40
2.5
  9
$DIMEXO
 40
0.625
  9
$DIMDLI
 40
3.75
  9
$DIMRND
 40
0.0
  9
$DIMDLE
 40
0.0
  9
$DIMEXE
 40
1.25
  9
$DIMTP
 40
0.0
  9
$DIMTM
 40
0.0
  9
$DIMTXT
 40
2.5
  9
$DIMCEN
 40
2.5
  9
$DIMTSZ
 40
0.0
  9
$DIMTOL
 70
     0
  9
$DIMLIM
 70
     0
  9
$DIMTIH
 70
     0
  9
$DIMTOH
 70
     0
  9
$DIMSE1
 70
     0
  9
$DIMSE2
 70
     0
  9
$DIMTAD
 70
     1
  9
$DIMZIN
 70
     8
  9
$DIMBLK
  1

  9
$DIMASO
 70
     1
  9
$DIMSHO
 70
     1
  9
$DIMPOST
  1

  9
$DIMAPOST
  1

  9
$DIMALT
 70
     0
  9
$DIMALTD
 70
     3
  9
$DIMALTF
 40
0.03937007874016
  9
$DIMLFAC
 40
1.0
  9
$DIMTOFL
 70
     1
  9
$DIMTVP
 40
0.0
  9
$DIMTIX
 70
     0
  9
$DIMSOXD
 70
     0
  9
$DIMSAH
 70
     0
  9
$DIMBLK1
  1

  9
$DIMBLK2
  1

  9
$DIMSTYLE
  2
ISO-25
  9
$DIMCLRD
 70
     0
  9
$DIMCLRE
 70
     0
  9
$DIMCLRT
 70
     0
  9
$DIMTFAC
 40
1.0
  9
$DIMGAP
 40
0.625
  9
$DIMJUST
 70
     0
  9
$DIMSD1
 70
     0
  9
$DIMSD2
 70
     0
  9
$DIMTOLJ
 70
     0
  9
$DIMTZIN
 70
     8
  9
$DIMALTZ
 70
     0
  9
$DIMALTTZ
 70
     0
  9
$DIMUPT
 70
     0
  9
$DIMDEC
 70
     2
  9
$DIMTDEC
 70
     2
  9
$DIMALTU
 70
     2
  9
$DIMALTTD
 70
     3
  9
$DIMTXSTY
  7
Standard
  9
$DIMAUNIT
 70
     0
  9
$DIMADEC
 70
     0
  9
$DIMALTRND
 40
0.0
  9
$DIMAZIN
 70
     0
  9
$DIMDSEP
 70
    44
  9
$DIMATFIT
 70
     3
  9
$DIMFRAC
 70
     0
  9
$DIMLDRBLK
  1

  9
$DIMLUNIT
 70
     2
  9
$DIMLWD
 70
    -2
  9
$DIMLWE
 70
    -2
  9
$DIMTMOVE
 70
     0
  9
$LUNITS
 70
     2
  9
$LUPREC
 70
     4
  9
$SKETCHINC
 40
1.0
  9
$FILLETRAD
 40
10.0
  9
$AUNITS
 70
     0
  9
$AUPREC
 70
     0
  9
$MENU
  1
.
  9
$ELEVATION
 40
0.0
  9
$PELEVATION
 40
0.0
  9
$THICKNESS
 40
0.0
  9
$LIMCHECK
 70
     0
  9
$CHAMFERA
 40
10.0
  9
$CHAMFERB
 40
10.0
  9
$CHAMFERC
 40
20.0
  9
$CHAMFERD
 40
0.0
  9
$SKPOLY
 70
     0
  9
$TDCREATE
 40
2457290.550591516
  9
$TDUCREATE
 40
2457290.175591516
  9
$TDUPDATE
 40
2457290.550592199
  9
$TDUUPDATE
 40
2457290.175592199
  9
$TDINDWG
 40
0.0000000116
  9
$TDUSRTIMER
 40
0.0000000116
  9
$USRTIMER
 70
     1
  9
$ANGBASE
 50
0.0
  9
$ANGDIR
 70
     0
  9
$PDMODE
 70
     0
  9
$PDSIZE
 40
0.0
  9
$PLINEWID
 40
0.0
  9
$SPLFRAME
 70
     0
  9
$SPLINETYPE
 70
     6
  9
$SPLINESEGS
 70
     8
  9
$HANDSEED
  5
5E2
  9
$SURFTAB1
 70
     6
  9
$SURFTAB2
 70
     6
  9
$SURFTYPE
 70
     6
  9
$SURFU
 70
     6
  9
$SURFV
 70
     6
  9
$UCSBASE
  2

  9
$UCSNAME
  2

  9
$UCSORG
 10
0.0
 20
0.0
 30
0.0
  9
$UCSXDIR
 10
1.0
 20
0.0
 30
0.0
  9
$UCSYDIR
 10
0.0
 20
1.0
 30
0.0
  9
$UCSORTHOREF
  2

  9
$UCSORTHOVIEW
 70
     0
  9
$UCSORGTOP
 10
0.0
 20
0.0
 30
0.0
  9
$UCSORGBOTTOM
 10
0.0
 20
0.0
 30
0.0
  9
$UCSORGLEFT
 10
0.0
 20
0.0
 30
0.0
  9
$UCSORGRIGHT
 10
0.0
 20
0.0
 30
0.0
  9
$UCSORGFRONT
 10
0.0
 20
0.0
 30
0.0
  9
$UCSORGBACK
 10
0.0
 20
0.0
 30
0.0
  9
$PUCSBASE
  2

  9
$PUCSNAME
  2

  9
$PUCSORG
 10
0.0
 20
0.0
 30
0.0
  9
$PUCSXDIR
 10
1.0
 20
0.0
 30
0.0
  9
$PUCSYDIR
 10
0.0
 20
1.0
 30
0.0
  9
$PUCSORTHOREF
  2

  9
$PUCSORTHOVIEW
 70
     0
  9
$PUCSORGTOP
 10
0.0
 20
0.0
 30
0.0
  9
$PUCSORGBOTTOM
 10
0.0
 20
0.0
 30
0.0
  9
$PUCSORGLEFT
 10
0.0
 20
0.0
 30
0.0
  9
$PUCSORGRIGHT
 10
0.0
 20
0.0
 30
0.0
  9
$PUCSORGFRONT
 10
0.0
 20
0.0
 30
0.0
  9
$PUCSORGBACK
 10
0.0
 20
0.0
 30
0.0
  9
$USERI1
 70
     0
  9
$USERI2
 70
     0
  9
$USERI3
 70
     0
  9
$USERI4
 70
     0
  9
$USERI5
 70
     0
  9
$USERR1
 40
0.0
  9
$USERR2
 40
0.0
  9
$USERR3
 40
0.0
  9
$USERR4
 40
0.0
  9
$USERR5
 40
0.0
  9
$WORLDVIEW
 70
     1
  9
$SHADEDGE
 70
     3
  9
$SHADEDIF
 70
    70
  9
$TILEMODE
 70
     1
  9
$MAXACTVP
 70
    64
  9
$PINSBASE
 10
0.0
 20
0.0
 30
0.0
  9
$PLIMCHECK
 70
     0
  9
$PEXTMIN
 10
1.000000000000000E+20
 20
1.000000000000000E+20
 30
1.000000000000000E+20
  9
$PEXTMAX
 10
-1.000000000000000E+20
 20
-1.000000000000000E+20
 30
-1.000000000000000E+20
  9
$PLIMMIN
 10
-105.0
 20
-148.5
  9
$PLIMMAX
 10
105.0
 20
148.5
  9
$UNITMODE
 70
     0
  9
$VISRETAIN
 70
     1
  9
$PLINEGEN
 70
     0
  9
$PSLTSCALE
 70
     1
  9
$TREEDEPTH
 70
  3020
  9
$CMLSTYLE
  2
Standard
  9
$CMLJUST
 70
     0
  9
$CMLSCALE
 40
20.0
  9
$PROXYGRAPHICS
 70
     1
  9
$MEASUREMENT
 70
     1
  9
$CELWEIGHT
370
    -1
  9
$ENDCAPS
280
     0
  9
$JOINSTYLE
280
     0
  9
$LWDISPLAY
290
     0
  9
$INSUNITS
 70
     4
  9
$HYPERLINKBASE
  1

  9
$STYLESHEET
  1

  9
$XEDIT
290
     1
  9
$CEPSNTYPE
380
     0
  9
$PSTYLEMODE
290
     1
  9
$FINGERPRINTGUID
  2
{ADAE77EB-FBF0-4220-A3C4-91E303395C2B}
  9
$VERSIONGUID
  2
{FAEB1C32-E019-11D5-929B-00C0DF256EC4}
  9
$EXTNAMES
290
     1
  9
$PSVPSCALE
 40
0.0
  9
$OLESTARTUP
290
     0
  9
$SORTENTS
280
   127
  9
$INDEXCTL
280
     0
  9
$HIDETEXT
280
     1
  9
$XCLIPFRAME
290
     0
  9
$HALOGAP
280
     0
  9
$OBSCOLOR
 70
   257
  9
$OBSLTYPE
280
     0
  9
$INTERSECTIONDISPLAY
280
     0
  9
$INTERSECTIONCOLOR
 70
   257
  9
$DIMASSOC
280
     2
  9
$PROJECTNAME
  1

  0
ENDSEC
  0
SECTION
  2
CLASSES
  0
CLASS
  1
ACDBDICTIONARYWDFLT
  2
AcDbDictionaryWithDefault
  3
ObjectDBX Classes
 90
        0
 91
        4
280
     0
281
     0
  0
CLASS
  1
VISUALSTYLE
  2
AcDbVisualStyle
  3
ObjectDBX Classes
 90
     4095
 91
        4
280
     0
281
     0
  0
CLASS
  1
MATERIAL
  2
AcDbMaterial
  3
ObjectDBX Classes
 90
     1153
 91
        4
280
     0
281
     0
  0
CLASS
  1
SUN
  2
AcDbSun
  3
SCENEOE
 90
     1024
 91
        4
280
     0
281
     0
  0
ENDSEC
  0
SECTION
  2
TABLES
  0
TABLE
  2
VPORT
  5
8
330
0
100
AcDbSymbolTable
 70
     1
  0
VPORT
  5
29
330
8
100
AcDbSymbolTableRecord
100
AcDbViewportTableRecord
  2
*Active
 70
     0
 10
0.0
 20
0.0
 11
1.0
 21
1.0
 12
344.1869158878504
 22
148.5
 13
0.0
 23
0.0
 14
10.0
 24
10.0
 15
10.0
 25
10.0
 16
0.0
 26
0.0
 36
1.0
 17
0.0
 27
0.0
 37
0.0
 40
297.0
 41
1.972972972850329
 42
50.0
 43
0.0
 44
0.0
 50
0.0
 51
0.0
 71
     0
 72
   100
 73
     1
 74
     3
 75
     0
 76
     0
 77
     0
 78
     0
281
     0
 65
     1
110
0.0
120
0.0
130
0.0
111
1.0
121
0.0
131
0.0
112
0.0
122
1.0
132
0.0
 79
     0
146
0.0
  0
ENDTAB
  0
TABLE
  2
LTYPE
  5
5
330
0
100
AcDbSymbolTable
 70
     5
  0
LTYPE
  5
14
330
5
100
AcDbSymbolTableRecord
100
AcDbLinetypeTableRecord
  2
ByBlock
 70
     0
  3

 72
    65
 73
     0
 40
0.0
  0
LTYPE
  5
15
330
5
100
AcDbSymbolTableRecord
100
AcDbLinetypeTableRecord
  2
ByLayer
 70
     0
  3

 72
    65
 73
     0
 40
0.0
  0
LTYPE
  5
16
330
5
100
AcDbSymbolTableRecord
100
AcDbLinetypeTableRecord
  2
Continuous
 70
     0
  3
Solid line
 72
    65
 73
     0
 40
0.0
  0
LTYPE
  5
40
330
5
100
AcDbSymbolTableRecord
100
AcDbLinetypeTableRecord
  2
CONTINOUS
 70
     0
  3
______________________________
 72
    65
 73
     0
 40
0.0
  0
LTYPE
  5
41
330
5
100
AcDbSymbolTableRecord
100
AcDbLinetypeTableRecord
  2
DASHED
 70
     0
  3
__ __ __ __ __ __ __ __ __ __ __ __ __ __ __ __
 72
    65
 73
     2
 40
4.5
 49
3.0
 74
     0
 49
-1.5
 74
     0
  0
LTYPE
  5
42
330
5
100
AcDbSymbolTableRecord
100
AcDbLinetypeTableRecord
  2
PHANTOM
 70
     0
  3
______  __  __  ______  __  __  _____
 72
    65
 73
     6
 40
15.0
 49
7.5
 74
     0
 49
-1.5
 74
     0
 49
1.5
 74
     0
 49
-1.5
 74
     0
 49
1.5
 74
     0
 49
-1.5
 74
     0
  0
LTYPE
  5
43
330
5
100
AcDbSymbolTableRecord
100
AcDbLinetypeTableRecord
  2
CENTER
 70
     0
  3
____ _ ____ _ ____ _ ____ _ ____ _ ____
 72
    65
 73
     4
 40
12.0
 49
7.5
 74
     0
 49
-1.5
 74
     0
 49
1.5
 74
     0
 49
-1.5
 74
     0
  0
ENDTAB
  0
TABLE
  2
LAYER
  5
2
330
0
100
AcDbSymbolTable
 70
     4
  0
LAYER
  5
10
330
2
100
AcDbSymbolTableRecord
100
AcDbLayerTableRecord
  2
0
 70
     0
 62
     7
  6
Continuous
370
    -3
390
F
  0
LAYER
  5
BE
330
2
100
AcDbSymbolTableRecord
100
AcDbLayerTableRecord
  2
Defpoints
 70
     0
 62
     7
  6
Continuous
290
     0
370
    -3
390
F
  0
LAYER
  5
267
330
2
100
AcDbSymbolTableRecord
100
AcDbLayerTableRecord
  2
VIEW0001
 70
     0
 62
     7
  6
Continuous
370
    -3
390
F
  0
LAYER
  5
27F
330
2
100
AcDbSymbolTableRecord
100
AcDbLayerTableRecord
  2
VIEW0002
 70
     0
 62
     7
  6
Continuous
370
    -3
390
F
  0
ENDTAB
  0
TABLE
  2
STYLE
  5
3
330
0
100
AcDbSymbolTable
 70
     1
  0
STYLE
  5
11
330
3
100
AcDbSymbolTableRecord
100
AcDbTextStyleTableRecord
  2
Standard
 70
     0
 40
0.0
 41
1.0
 50
0.0
 71
     0
 42
2.5
  3
ROMANS
  4
BIGFONT
  0
ENDTAB
  0
TABLE
  2
VIEW
  5
6
330
0
100
AcDbSymbolTable
 70
     0
  0
ENDTAB
  0
TABLE
  2
UCS
  5
7
330
0
100
AcDbSymbolTable
 70
     0
  0
ENDTAB
  0
TABLE
  2
APPID
  5
9
330
0
100
AcDbSymbolTable
 70
     1
  0
APPID
  5
12
330
9
100
AcDbSymbolTableRecord
100
AcDbRegAppTableRecord
  2
ACAD
 70
     0
  0
ENDTAB
  0
TABLE
  2
DIMSTYLE
  5
A
330
0
100
AcDbSymbolTable
 70
     1
100
AcDbDimStyleTable
  0
DIMSTYLE
105
27
102
{ACAD_REACTORS
330
B7
330
CB
330
D7
330
E4
330
F0
330
163
330
170
330
17C
330
189
330
195
330
1E6
330
1F2
330
1FF
330
215
330
227
330
233
330
441
330
457
330
463
330
477
330
484
330
49A
330
4A6
330
4BA
330
4C5
330
4D2
330
4EA
330
4F6
330
51E
330
52B
330
538
330
54C
330
559
330
565
330
57B
330
587
330
5AD
102
}
330
A
100
AcDbSymbolTableRecord
100
AcDbDimStyleTableRecord
  2
ISO-25
 70
     0
 41
2.5
 42
0.625
 43
3.75
 44
1.25
 73
     0
 74
     0
 77
     1
 78
     8
140
2.5
141
2.5
143
0.03937007874016
147
0.625
171
     3
172
     1
178
     0
271
     2
272
     2
274
     3
278
    44
283
     0
284
     8
340
11
  0
ENDTAB
  0
TABLE
  2
BLOCK_RECORD
  5
1
330
0
100
AcDbSymbolTable
 70
    50
  0
BLOCK_RECORD
  5
1F
330
1
100
AcDbSymbolTableRecord
100
AcDbBlockTableRecord
  2
*Model_Space
340
22
  0
BLOCK_RECORD
  5
1B
330
1
100
AcDbSymbolTableRecord
100
AcDbBlockTableRecord
  2
*Paper_Space
340
1E
  0
BLOCK_RECORD
  5
23
330
1
100
AcDbSymbolTableRecord
100
AcDbBlockTableRecord
  2
*Paper_Space0
340
26
  0
BLOCK_RECORD
  5
44
330
1
100
AcDbSymbolTableRecord
100
AcDbBlockTableRecord
  2
DTL0001
340
0
  0
BLOCK_RECORD
  5
47
330
1
100
AcDbSymbolTableRecord
100
AcDbBlockTableRecord
  2
DTL0002
340
0
  0
BLOCK_RECORD
  5
4A
330
1
100
AcDbSymbolTableRecord
100
AcDbBlockTableRecord
  2
DTL0003
340
0
  0
BLOCK_RECORD
  5
4D
330
1
100
AcDbSymbolTableRecord
100
AcDbBlockTableRecord
  2
DTL0004
340
0
  0
BLOCK_RECORD
  5
50
330
1
100
AcDbSymbolTableRecord
100
AcDbBlockTableRecord
  2
DTL0005
340
0
  0
BLOCK_RECORD
  5
53
330
1
100
AcDbSymbolTableRecord
100
AcDbBlockTableRecord
  2
DTL0006
340
0
  0
BLOCK_RECORD
  5
56
330
1
100
AcDbSymbolTableRecord
100
AcDbBlockTableRecord
  2
DTL0007
340
0
  0
BLOCK_RECORD
  5
B8
330
1
100
AcDbSymbolTableRecord
100
AcDbBlockTableRecord
  2
_OPEN30
340
0
102
{BLKREFS
331
C6
331
C5
331
D2
331
D1
331
DF
331
DE
331
EB
331
EA
331
F6
331
F5
331
16B
331
16A
331
177
331
176
331
184
331
183
331
190
331
18F
331
19B
331
19A
331
1ED
331
1EC
331
1FA
331
1F9
331
0
331
0
331
0
331
0
331
22E
331
22D
331
23B
331
23A
331
0
331
0
331
45E
331
45D
331
0
331
0
331
47F
331
47E
331
0
331
0
331
4A1
331
4A0
331
0
331
0
331
4C0
331
4BF
331
4CD
331
4CC
331
0
331
0
331
4F1
331
4F0
331
0
331
0
331
526
331
525
331
533
331
532
331
0
331
0
331
554
331
553
331
560
331
55F
331
0
331
0
331
582
331
581
331
0
331
0
331
5B5
331
5B4
102
}
  0
BLOCK_RECORD
  5
BF
330
1
100
AcDbSymbolTableRecord
100
AcDbBlockTableRecord
  2
*D9
340
0
  0
BLOCK_RECORD
  5
CC
330
1
100
AcDbSymbolTableRecord
100
AcDbBlockTableRecord
  2
*D10
340
0
  0
BLOCK_RECORD
  5
D8
330
1
100
AcDbSymbolTableRecord
100
AcDbBlockTableRecord
  2
*D11
340
0
  0
BLOCK_RECORD
  5
E5
330
1
100
AcDbSymbolTableRecord
100
AcDbBlockTableRecord
  2
*D12
340
0
  0
BLOCK_RECORD
  5
F1
330
1
100
AcDbSymbolTableRecord
100
AcDbBlockTableRecord
  2
*D13
340
0
  0
BLOCK_RECORD
  5
164
330
1
100
AcDbSymbolTableRecord
100
AcDbBlockTableRecord
  2
*D14
340
0
  0
BLOCK_RECORD
  5
171
330
1
100
AcDbSymbolTableRecord
100
AcDbBlockTableRecord
  2
*D15
340
0
  0
BLOCK_RECORD
  5
17D
330
1
100
AcDbSymbolTableRecord
100
AcDbBlockTableRecord
  2
*D16
340
0
  0
BLOCK_RECORD
  5
18A
330
1
100
AcDbSymbolTableRecord
100
AcDbBlockTableRecord
  2
*D17
340
0
  0
BLOCK_RECORD
  5
196
330
1
100
AcDbSymbolTableRecord
100
AcDbBlockTableRecord
  2
*D18
340
0
  0
BLOCK_RECORD
  5
1E7
330
1
100
AcDbSymbolTableRecord
100
AcDbBlockTableRecord
  2
*D19
340
0
  0
BLOCK_RECORD
  5
1F3
330
1
100
AcDbSymbolTableRecord
100
AcDbBlockTableRecord
  2
*D20
340
0
  0
BLOCK_RECORD
  5
200
330
1
100
AcDbSymbolTableRecord
100
AcDbBlockTableRecord
  2
*D21
340
0
  0
BLOCK_RECORD
  5
216
330
1
100
AcDbSymbolTableRecord
100
AcDbBlockTableRecord
  2
*D22
340
0
  0
BLOCK_RECORD
  5
228
330
1
100
AcDbSymbolTableRecord
100
AcDbBlockTableRecord
  2
*D23
340
0
  0
BLOCK_RECORD
  5
234
330
1
100
AcDbSymbolTableRecord
100
AcDbBlockTableRecord
  2
*D24
340
0
  0
BLOCK_RECORD
  5
442
330
1
100
AcDbSymbolTableRecord
100
AcDbBlockTableRecord
  2
*D25
340
0
  0
BLOCK_RECORD
  5
458
330
1
100
AcDbSymbolTableRecord
100
AcDbBlockTableRecord
  2
*D26
340
0
  0
BLOCK_RECORD
  5
464
330
1
100
AcDbSymbolTableRecord
100
AcDbBlockTableRecord
  2
*D27
340
0
  0
BLOCK_RECORD
  5
478
330
1
100
AcDbSymbolTableRecord
100
AcDbBlockTableRecord
  2
*D28
340
0
  0
BLOCK_RECORD
  5
485
330
1
100
AcDbSymbolTableRecord
100
AcDbBlockTableRecord
  2
*D29
340
0
  0
BLOCK_RECORD
  5
49B
330
1
100
AcDbSymbolTableRecord
100
AcDbBlockTableRecord
  2
*D30
340
0
  0
BLOCK_RECORD
  5
4A7
330
1
100
AcDbSymbolTableRecord
100
AcDbBlockTableRecord
  2
*D31
340
0
  0
BLOCK_RECORD
  5
4BB
330
1
100
AcDbSymbolTableRecord
100
AcDbBlockTableRecord
  2
*D32
340
0
  0
BLOCK_RECORD
  5
4C6
330
1
100
AcDbSymbolTableRecord
100
AcDbBlockTableRecord
  2
*D33
340
0
  0
BLOCK_RECORD
  5
4D3
330
1
100
AcDbSymbolTableRecord
100
AcDbBlockTableRecord
  2
*D34
340
0
  0
BLOCK_RECORD
  5
4EB
330
1
100
AcDbSymbolTableRecord
100
AcDbBlockTableRecord
  2
*D35
340
0
  0
BLOCK_RECORD
  5
4F7
330
1
100
AcDbSymbolTableRecord
100
AcDbBlockTableRecord
  2
*D36
340
0
  0
BLOCK_RECORD
  5
50C
330
1
100
AcDbSymbolTableRecord
100
AcDbBlockTableRecord
  2
SYM0001
340
0
102
{BLKREFS
331
512
102
}
  0
BLOCK_RECORD
  5
515
330
1
100
AcDbSymbolTableRecord
100
AcDbBlockTableRecord
  2
SYM0002
340
0
102
{BLKREFS
331
51B
102
}
  0
BLOCK_RECORD
  5
51F
330
1
100
AcDbSymbolTableRecord
100
AcDbBlockTableRecord
  2
*D39
340
0
  0
BLOCK_RECORD
  5
52C
330
1
100
AcDbSymbolTableRecord
100
AcDbBlockTableRecord
  2
*D40
340
0
  0
BLOCK_RECORD
  5
539
330
1
100
AcDbSymbolTableRecord
100
AcDbBlockTableRecord
  2
*D41
340
0
  0
BLOCK_RECORD
  5
54D
330
1
100
AcDbSymbolTableRecord
100
AcDbBlockTableRecord
  2
*D42
340
0
  0
BLOCK_RECORD
  5
55A
330
1
100
AcDbSymbolTableRecord
100
AcDbBlockTableRecord
  2
*D43
340
0
  0
BLOCK_RECORD
  5
566
330
1
100
AcDbSymbolTableRecord
100
AcDbBlockTableRecord
  2
*D44
340
0
  0
BLOCK_RECORD
  5
57C
330
1
100
AcDbSymbolTableRecord
100
AcDbBlockTableRecord
  2
*D45
340
0
  0
BLOCK_RECORD
  5
588
330
1
100
AcDbSymbolTableRecord
100
AcDbBlockTableRecord
  2
*D46
340
0
  0
BLOCK_RECORD
  5
59B
330
1
100
AcDbSymbolTableRecord
100
AcDbBlockTableRecord
  2
SYM0003
340
0
102
{BLKREFS
331
5A1
102
}
  0
BLOCK_RECORD
  5
5A4
330
1
100
AcDbSymbolTableRecord
100
AcDbBlockTableRecord
  2
SYM0004
340
0
102
{BLKREFS
331
5AA
102
}
  0
BLOCK_RECORD
  5
5AE
330
1
100
AcDbSymbolTableRecord
100
AcDbBlockTableRecord
  2
*D49
340
0
  0
ENDTAB
  0
ENDSEC
  0
SECTION
  2
BLOCKS
  0
BLOCK
  5
20
330
1F
100
AcDbEntity
  8
0
100
AcDbBlockBegin
  2
*Model_Space
 70
     0
 10
0.0
 20
0.0
 30
0.0
  3
*Model_Space
  1

  0
ENDBLK
  5
21
330
1F
100
AcDbEntity
  8
0
100
AcDbBlockEnd
  0
BLOCK
  5
1C
330
1B
100
AcDbEntity
 67
     1
  8
0
100
AcDbBlockBegin
  2
*Paper_Space
 70
     0
 10
0.0
 20
0.0
 30
0.0
  3
*Paper_Space
  1

  0
ENDBLK
  5
1D
330
1B
100
AcDbEntity
 67
     1
  8
0
100
AcDbBlockEnd
  0
BLOCK
  5
24
330
23
100
AcDbEntity
  8
0
100
AcDbBlockBegin
  2
*Paper_Space0
 70
     0
 10
0.0
 20
0.0
 30
0.0
  3
*Paper_Space0
  1

  0
ENDBLK
  5
25
330
23
100
AcDbEntity
  8
0
100
AcDbBlockEnd
  0
BLOCK
  5
45
330
44
100
AcDbEntity
  8
0
100
AcDbBlockBegin
  2
DTL0001
 70
     0
 10
0.0
 20
0.0
 30
0.0
  3
DTL0001
  1

  0
POINT
  5
59
330
44
100
AcDbEntity
  8
0
 62
     0
100
AcDbPoint
 10
0.0
 20
0.0
 30
0.0
  0
POINT
  5
5A
330
44
100
AcDbEntity
  8
0
 62
     0
100
AcDbPoint
 10
0.0
 20
0.0
 30
0.0
  0
POINT
  5
5B
330
44
100
AcDbEntity
  8
0
 62
     0
100
AcDbPoint
 10
-10.0
 20
1.199996948242188
 30
0.0
  0
POINT
  5
5C
330
44
100
AcDbEntity
  8
0
 62
     0
100
AcDbPoint
 10
88.0
 20
-16.51216125488281
 30
0.0
  0
POINT
  5
5D
330
44
100
AcDbEntity
  8
0
 62
     0
100
AcDbPoint
 10
88.0
 20
44.06312561035156
 30
0.0
  0
POINT
  5
5E
330
44
100
AcDbEntity
  8
0
 62
     0
100
AcDbPoint
 10
9.999910354614258
 20
1.199996948242188
 30
0.0
  0
POINT
  5
5F
330
44
100
AcDbEntity
  8
0
 62
     0
100
AcDbPoint
 10
30.0
 20
0.0
 30
0.0
  0
POINT
  5
60
330
44
100
AcDbEntity
  8
0
 62
     0
100
AcDbPoint
 10
-5.0
 20
2.399993896484375
 30
0.0
  0
POINT
  5
61
330
44
100
AcDbEntity
  8
0
 62
     0
100
AcDbPoint
 10
-5.0
 20
2.199993848800659
 30
0.0
  0
POINT
  5
62
330
44
100
AcDbEntity
  8
0
 62
     0
100
AcDbPoint
 10
25.44891929626465
 20
31.49088668823242
 30
0.0
  0
POINT
  5
63
330
44
100
AcDbEntity
  8
0
 62
     0
100
AcDbPoint
 10
26.64098358154297
 20
29.78828430175781
 30
0.0
  0
POINT
  5
64
330
44
100
AcDbEntity
  8
0
 62
     0
100
AcDbPoint
 10
27.43584632873535
 20
28.65325927734375
 30
0.0
  0
POINT
  5
65
330
44
100
AcDbEntity
  8
0
 62
     0
100
AcDbPoint
 10
28.13991165161133
 20
25.90414428710938
 30
0.0
  0
POINT
  5
66
330
44
100
AcDbEntity
  8
0
 62
     0
100
AcDbPoint
 10
82.92625427246094
 20
41.9499626159668
 30
0.0
  0
POINT
  5
67
330
44
100
AcDbEntity
  8
0
 62
     0
100
AcDbPoint
 10
24.65405464172363
 20
32.62591171264648
 30
0.0
  0
POINT
  5
68
330
44
100
AcDbEntity
  8
0
 62
     0
100
AcDbPoint
 10
67.99993133544922
 20
36.41818237304688
 30
0.0
  0
POINT
  5
69
330
44
100
AcDbEntity
  8
0
 62
     0
100
AcDbPoint
 10
14.22713279724121
 20
10.26530361175537
 30
0.0
  0
POINT
  5
6A
330
44
100
AcDbEntity
  8
0
 62
     0
100
AcDbPoint
 10
9.999910354614258
 20
1.199996948242188
 30
0.0
  0
POINT
  5
6B
330
44
100
AcDbEntity
  8
0
 62
     0
100
AcDbPoint
 10
10.76447582244873
 20
-0.000002980232239
 30
0.0
  0
POINT
  5
6C
330
44
100
AcDbEntity
  8
0
 62
     0
100
AcDbPoint
 10
24.65405464172363
 20
32.62590789794922
 30
0.0
  0
POINT
  5
6D
330
44
100
AcDbEntity
  8
0
 62
     0
100
AcDbPoint
 10
28.13991165161133
 20
25.90414428710938
 30
0.0
  0
POINT
  5
6E
330
44
100
AcDbEntity
  8
0
 62
     0
100
AcDbPoint
 10
27.43584632873535
 20
28.65325927734375
 30
0.0
  0
POINT
  5
6F
330
44
100
AcDbEntity
  8
0
 62
     0
100
AcDbPoint
 10
26.64098358154297
 20
29.78828430175781
 30
0.0
  0
POINT
  5
70
330
44
100
AcDbEntity
  8
0
 62
     0
100
AcDbPoint
 10
25.44891929626465
 20
31.49088668823242
 30
0.0
  0
LINE
  5
71
330
44
100
AcDbEntity
  8
0
  6
Continuous
 62
     0
100
AcDbLine
 10
-10.0
 20
1.199996948242188
 30
0.0
 11
9.36284065246582
 21
1.199996948242188
 31
0.0
  0
LINE
  5
72
330
44
100
AcDbEntity
  8
0
  6
Continuous
 62
     0
100
AcDbLine
 10
-10.0
 20
1.199996948242188
 30
0.0
 11
-10.0
 21
-1.800003051757812
 31
0.0
  0
LINE
  5
73
330
44
100
AcDbEntity
  8
0
  6
Continuous
 62
     0
100
AcDbLine
 10
83.799990630639
 20
0.219922212722857
 30
0.0
 11
86.7999990288715
 21
-1.512133474655151
 31
0.0
  0
LINE
  5
74
330
44
100
AcDbEntity
  8
0
  6
Continuous
 62
     0
100
AcDbLine
 10
88.0
 20
40.48783874511719
 30
0.0
 11
88.0
 21
-16.51216125488281
 31
0.0
  0
LINE
  5
75
330
44
100
AcDbEntity
  8
0
  6
Continuous
 62
     0
100
AcDbLine
 10
10.26914779743878
 20
1.777378812296899
 30
0.0
 11
19.77407907551854
 21
22.16076864481917
 31
0.0
  0
LINE
  5
76
330
44
100
AcDbEntity
  8
0
  6
Continuous
 62
     0
100
AcDbLine
 10
36.15711985083157
 20
33.63229757213051
 30
0.0
 11
68.00002750630473
 21
36.41819099755396
 31
0.0
  0
LINE
  5
77
330
44
100
AcDbEntity
  8
0
  6
DASHED
 62
     0
100
AcDbLine
 10
64.69979708516662
 20
33.11805081915304
 30
0.0
 11
67.99998838381114
 21
36.41824211779756
 31
0.0
  0
LINE
  5
78
330
44
100
AcDbEntity
  8
0
  6
Continuous
 62
     0
100
AcDbLine
 10
76.10501946936915
 20
41.96571900031419
 30
0.0
 11
84.47901097322128
 21
43.44227968133016
 31
0.0
  0
LINE
  5
79
330
44
100
AcDbEntity
  8
0
  6
Continuous
 62
     0
100
AcDbLine
 10
86.7999267578125
 20
40.48783874511719
 30
0.0
 11
86.7999267578125
 21
-16.51216125488281
 31
0.0
  0
LINE
  5
7A
330
44
100
AcDbEntity
  8
0
  6
Continuous
 62
     0
100
AcDbLine
 10
71.14817589318936
 20
29.6669346905641
 30
0.0
 11
76.38906974491098
 21
34.90782854228573
 31
0.0
  0
LINE
  5
7B
330
44
100
AcDbEntity
  8
0
  6
Continuous
 62
     0
100
AcDbLine
 10
36.19205642523227
 20
26.60861526367648
 30
0.0
 11
71.1481523161162
 21
29.66687736632547
 31
0.0
  0
LINE
  5
7C
330
44
100
AcDbEntity
  8
0
  6
Continuous
 62
     0
100
AcDbLine
 10
15.43777536185363
 20
-1.335675331407931
 30
0.0
 11
24.72392956807983
 21
18.57854558115666
 31
0.0
  0
LINE
  5
7D
330
44
100
AcDbEntity
  8
0
  6
Continuous
 62
     0
100
AcDbLine
 10
-7.0
 20
-4.800003051757812
 30
0.0
 11
10.0
 21
-4.800003051757812
 31
0.0
  0
LINE
  5
7E
330
44
100
AcDbEntity
  8
0
  6
Continuous
 62
     0
100
AcDbLine
 10
76.38912480573158
 20
34.90782814853252
 30
0.0
 11
80.19587801370456
 21
35.57906146739111
 31
0.0
  0
LINE
  5
7F
330
44
100
AcDbEntity
  8
0
  6
Continuous
 62
     0
100
AcDbLine
 10
80.1477707713705
 20
35.4668388018426
 30
0.0
 11
82.29224941848878
 21
40.47062252810856
 31
0.0
  0
LINE
  5
80
330
44
100
AcDbEntity
  8
0
  6
DASHED
 62
     0
100
AcDbLine
 10
36.26180015048621
 20
32.43689048708294
 30
0.0
 11
68.53971834706574
 21
35.26084240325637
 31
0.0
  0
LINE
  5
81
330
44
100
AcDbEntity
  8
0
  6
DASHED
 62
     0
100
AcDbLine
 10
65.23949253797045
 20
31.96067273376
 30
0.0
 11
71.61903374125731
 21
38.34021393704685
 31
0.0
  0
LINE
  5
82
330
44
100
AcDbEntity
  8
0
  6
DASHED
 62
     0
100
AcDbLine
 10
76.31339940813753
 20
40.78393767615016
 30
0.0
 11
84.68739091198965
 21
42.26049835716614
 31
0.0
  0
LINE
  5
83
330
44
100
AcDbEntity
  8
0
  6
DASHED
 62
     0
100
AcDbLine
 10
11.35679802107566
 20
1.270237038415292
 30
0.0
 11
20.86174219644179
 21
21.653654529256
 31
0.0
  0
LINE
  5
84
330
44
100
AcDbEntity
  8
0
  6
DASHED
 62
     0
100
AcDbLine
 10
36.52326737797164
 20
29.44830639274142
 30
0.0
 11
65.23947335371912
 21
31.96064886776004
 31
0.0
  0
LINE
  5
85
330
44
100
AcDbEntity
  8
0
  6
DASHED
 62
     0
100
AcDbLine
 10
15.12672826175295
 20
9.354799228235327
 30
0.0
 11
18.57765760050716
 21
9.656716423123898
 31
0.0
  0
LINE
  5
86
330
44
100
AcDbEntity
  8
0
  6
DASHED
 62
     0
100
AcDbLine
 10
18.57761313314582
 20
9.65671750405113
 30
0.0
 11
23.58066639632787
 21
20.38579928620945
 31
0.0
  0
LINE
  5
87
330
44
100
AcDbEntity
  8
0
  6
DASHED
 62
     0
100
AcDbLine
 10
36.418587078317
 20
30.643713477789
 30
0.0
 11
64.69978251295811
 21
33.11799746205763
 31
0.0
  0
LINE
  5
88
330
44
100
AcDbEntity
  8
0
  6
DASHED
 62
     0
100
AcDbLine
 10
14.33196659967487
 20
10.4898626514869
 30
0.0
 11
17.78289593842908
 21
10.79177984637547
 31
0.0
  0
LINE
  5
89
330
44
100
AcDbEntity
  8
0
  6
DASHED
 62
     0
100
AcDbLine
 10
17.78277161428719
 20
10.79178953868223
 30
0.0
 11
22.49300408148502
 21
20.89291513041752
 31
0.0
  0
LINE
  5
8A
330
44
100
AcDbEntity
  8
0
  6
Continuous
 62
     0
100
AcDbLine
 10
67.99998838381114
 20
36.41824211779756
 30
0.0
 11
70.77049697215888
 21
39.18875070614529
 31
0.0
  0
LINE
  5
8B
330
44
100
AcDbEntity
  8
0
  6
Continuous
 62
     0
100
AcDbLine
 10
83.7999267578125
 20
37.86598205566406
 30
0.0
 11
83.7999267578125
 21
0.219924926757812
 31
0.0
  0
LINE
  5
8C
330
44
100
AcDbEntity
  8
0
  6
DASHED
 62
     0
100
AcDbLine
 10
78.77895457571285
 20
38.17240174886894
 30
0.0
 11
82.62634072072538
 21
38.85079975104004
 31
0.0
  0
LINE
  5
8D
330
44
100
AcDbEntity
  8
0
  6
DASHED
 62
     0
100
AcDbLine
 10
76.55232972847577
 20
40.82608329439965
 30
0.0
 11
78.77901762981793
 21
38.17242011236987
 31
0.0
  0
LINE
  5
8E
330
44
100
AcDbEntity
  8
0
  6
Continuous
 62
     0
100
AcDbLine
 10
86.7999267578125
 20
-16.51216125488281
 30
0.0
 11
88.0
 21
-16.51216125488281
 31
0.0
  0
LINE
  5
8F
330
44
100
AcDbEntity
  8
0
  6
CENTER
 62
     0
100
AcDbLine
 10
0.0
 20
16.49760055541992
 30
0.0
 11
0.0
 21
-29.08761978149414
 31
0.0
  0
LINE
  5
90
330
44
100
AcDbEntity
  8
0
  6
Continuous
 62
     0
100
AcDbLine
 10
-5.0
 20
1.199993848800659
 30
0.0
 11
-5.0
 21
2.199993848800659
 31
0.0
  0
LINE
  5
91
330
44
100
AcDbEntity
  8
0
  6
Continuous
 62
     0
100
AcDbLine
 10
-4.5999755859375
 20
2.199993848800659
 30
0.0
 11
-4.5999755859375
 21
3.499996900558472
 31
0.0
  0
LINE
  5
92
330
44
100
AcDbEntity
  8
0
  6
Continuous
 62
     0
100
AcDbLine
 10
5.0
 20
2.199993848800659
 30
0.0
 11
-5.0
 21
2.199993848800659
 31
0.0
  0
LINE
  5
93
330
44
100
AcDbEntity
  8
0
  6
Continuous
 62
     0
100
AcDbLine
 10
4.60003662109375
 20
3.499996900558472
 30
0.0
 11
-4.5999755859375
 21
3.499996900558472
 31
0.0
  0
LINE
  5
94
330
44
100
AcDbEntity
  8
0
  6
Continuous
 62
     0
100
AcDbLine
 10
-11.0
 20
11.33836078643799
 30
0.0
 11
-11.0
 21
13.49999713897705
 31
0.0
  0
LINE
  5
95
330
44
100
AcDbEntity
  8
0
  6
Continuous
 62
     0
100
AcDbLine
 10
-9.0
 20
13.49999713897705
 30
0.0
 11
-11.0
 21
13.49999713897705
 31
0.0
  0
LINE
  5
96
330
44
100
AcDbEntity
  8
0
  6
Continuous
 62
     0
100
AcDbLine
 10
-5.0
 20
6.499997138977051
 30
0.0
 11
-5.0
 21
9.49999713897705
 31
0.0
  0
LINE
  5
97
330
44
100
AcDbEntity
  8
0
  6
Continuous
 62
     0
100
AcDbLine
 10
5.0
 20
6.499997138977051
 30
0.0
 11
-5.0
 21
6.499997138977051
 31
0.0
  0
LINE
  5
98
330
44
100
AcDbEntity
  8
0
  6
Continuous
 62
     0
100
AcDbLine
 10
-2.5
 20
6.499997138977051
 30
0.0
 11
-2.5
 21
13.99999713897705
 31
0.0
  0
LINE
  5
99
330
44
100
AcDbEntity
  8
0
  6
Continuous
 62
     0
100
AcDbLine
 10
-2.0
 20
6.499997138977051
 30
0.0
 11
-2.0
 21
13.99999713897705
 31
0.0
  0
LINE
  5
9A
330
44
100
AcDbEntity
  8
0
  6
Continuous
 62
     0
100
AcDbLine
 10
2.0
 20
6.499997138977051
 30
0.0
 11
2.0
 21
13.99999713897705
 31
0.0
  0
LINE
  5
9B
330
44
100
AcDbEntity
  8
0
  6
Continuous
 62
     0
100
AcDbLine
 10
2.5
 20
6.499997138977051
 30
0.0
 11
2.5
 21
13.99999713897705
 31
0.0
  0
LINE
  5
9C
330
44
100
AcDbEntity
  8
0
  6
Continuous
 62
     0
100
AcDbLine
 10
-2.5
 20
13.99999713897705
 30
0.0
 11
2.5
 21
13.99999713897705
 31
0.0
  0
LINE
  5
9D
330
44
100
AcDbEntity
  8
0
  6
Continuous
 62
     0
100
AcDbLine
 10
5.0
 20
6.499997138977051
 30
0.0
 11
5.0
 21
9.49999713897705
 31
0.0
  0
LINE
  5
9E
330
44
100
AcDbEntity
  8
0
  6
Continuous
 62
     0
100
AcDbLine
 10
9.0
 20
13.49999713897705
 30
0.0
 11
11.0
 21
13.49999713897705
 31
0.0
  0
LINE
  5
9F
330
44
100
AcDbEntity
  8
0
  6
Continuous
 62
     0
100
AcDbLine
 10
11.0
 20
11.33836078643799
 30
0.0
 11
11.0
 21
13.49999713897705
 31
0.0
  0
LINE
  5
A0
330
44
100
AcDbEntity
  8
0
  6
Continuous
 62
     0
100
AcDbLine
 10
4.60003662109375
 20
2.199993848800659
 30
0.0
 11
4.60003662109375
 21
3.499996900558472
 31
0.0
  0
LINE
  5
A1
330
44
100
AcDbEntity
  8
0
  6
Continuous
 62
     0
100
AcDbLine
 10
5.0
 20
1.199993848800659
 30
0.0
 11
5.0
 21
2.199993848800659
 31
0.0
  0
LINE
  5
A2
330
44
100
AcDbEntity
  8
0
  6
Continuous
 62
     0
100
AcDbLine
 10
0.7505764456015
 20
3.500002948091361
 30
0.0
 11
0.402243389844193
 21
2.200006147254101
 31
0.0
  0
LINE
  5
A3
330
44
100
AcDbEntity
  8
0
  6
Continuous
 62
     0
100
AcDbLine
 10
-0.750533937837359
 20
2.199996265881218
 30
0.0
 11
-0.402200912933684
 21
3.499992951571145
 31
0.0
  0
ARC
  5
A4
330
44
100
AcDbEntity
  8
0
  6
Continuous
 62
     0
100
AcDbCircle
 10
10.0
 20
1.199996948242188
 30
0.0
 40
6.0
100
AcDbArc
 50
269.9999974955218
 51
334.9999981659467
  0
ARC
  5
A5
330
44
100
AcDbEntity
  8
0
  6
DASHED
 62
     0
100
AcDbCircle
 10
77.841552734375
 20
32.11763000488281
 30
0.0
 40
8.800000190734863
100
AcDbArc
 50
100.0000005060238
 51
135.0000003416227
  0
ARC
  5
A6
330
44
100
AcDbEntity
  8
0
  6
Continuous
 62
     0
100
AcDbCircle
 10
85.0
 20
40.48783874511719
 30
0.0
 40
3.0
100
AcDbArc
 50
0.0
 51
100.0000005060238
  0
ARC
  5
A7
330
44
100
AcDbEntity
  8
0
  6
Continuous
 62
     0
100
AcDbCircle
 10
77.841552734375
 20
32.11763000488281
 30
0.0
 40
10.0
100
AcDbArc
 50
100.0000005060238
 51
135.0000003416227
  0
ARC
  5
A8
330
44
100
AcDbEntity
  8
0
  6
Continuous
 62
     0
100
AcDbCircle
 10
-7.0
 20
-1.800003051757812
 30
0.0
 40
3.0
100
AcDbArc
 50
179.999991348578
 51
270.0000006832453
  0
ARC
  5
A9
330
44
100
AcDbEntity
  8
0
  6
Continuous
 62
     0
100
AcDbCircle
 10
85.0
 20
40.48783874511719
 30
0.0
 40
1.799999952316284
100
AcDbArc
 50
0.0
 51
100.0000005060238
  0
ARC
  5
AA
330
44
100
AcDbEntity
  8
0
  6
Continuous
 62
     0
100
AcDbCircle
 10
82.7999267578125
 20
37.86598205566406
 30
0.0
 40
1.0
100
AcDbArc
 50
0.0
 51
100.0000005060238
  0
ARC
  5
AB
330
44
100
AcDbEntity
  8
0
  6
Continuous
 62
     0
100
AcDbCircle
 10
85.0496826171875
 20
39.28886413574219
 30
0.0
 40
3.0
100
AcDbArc
 50
92.37285120327562
 51
156.8014040967914
  0
ARC
  5
AC
330
44
100
AcDbEntity
  8
0
  6
Continuous
 62
     0
100
AcDbCircle
 10
-3.0
 20
11.33836078643799
 30
0.0
 40
8.0
100
AcDbArc
 50
179.999991348578
 51
258.4630461939067
  0
ARC
  5
AD
330
44
100
AcDbEntity
  8
0
  6
Continuous
 62
     0
100
AcDbCircle
 10
-9.0
 20
9.49999713897705
 30
0.0
 40
4.0
100
AcDbArc
 50
0.0
 51
90.00000250447816
  0
ARC
  5
AE
330
44
100
AcDbEntity
  8
0
  6
Continuous
 62
     0
100
AcDbCircle
 10
9.0
 20
9.49999713897705
 30
0.0
 40
4.0
100
AcDbArc
 50
90.00000250447816
 51
180.0000050089563
  0
ARC
  5
AF
330
44
100
AcDbEntity
  8
0
  6
Continuous
 62
     0
100
AcDbCircle
 10
3.0
 20
11.33836078643799
 30
0.0
 40
8.0
100
AcDbArc
 50
281.5369588150496
 51
359.9999999999999
  0
ARC
  5
B0
330
44
100
AcDbEntity
  8
0
  6
Continuous
 62
     0
100
AcDbCircle
 10
9.36284065246582
 20
2.199996948242188
 30
0.0
 40
1.0
100
AcDbArc
 50
269.9999974955218
 51
334.9999981659467
  0
ARC
  5
B1
330
44
100
AcDbEntity
  8
0
  6
DASHED
 62
     0
100
AcDbCircle
 10
9.362920761108398
 20
2.199996948242188
 30
0.0
 40
2.200000047683716
100
AcDbArc
 50
269.9999974955218
 51
334.9999981659467
  0
ARC
  5
B2
330
44
100
AcDbEntity
  8
0
  6
Continuous
 62
     0
100
AcDbCircle
 10
37.90023422241211
 20
13.70840358734131
 30
0.0
 40
20.0
100
AcDbArc
 50
95.00000150525099
 51
154.9999963447139
  0
ARC
  5
B3
330
44
100
AcDbEntity
  8
0
  6
Continuous
 62
     0
100
AcDbCircle
 10
37.41223907470703
 20
12.66189002990723
 30
0.0
 40
14.0
100
AcDbArc
 50
95.00000150525099
 51
154.9999963447139
  0
ARC
  5
B4
330
44
100
AcDbEntity
  8
0
  6
DASHED
 62
     0
100
AcDbCircle
 10
37.90032958984375
 20
13.70843029022217
 30
0.0
 40
15.80000019073486
100
AcDbArc
 50
95.00000150525099
 51
154.9999963447139
  0
ARC
  5
B5
330
44
100
AcDbEntity
  8
0
  6
DASHED
 62
     0
100
AcDbCircle
 10
37.90023422241211
 20
13.70840358734131
 30
0.0
 40
17.0
100
AcDbArc
 50
95.00000150525099
 51
154.9999963447139
  0
ARC
  5
B6
330
44
100
AcDbEntity
  8
0
  6
DASHED
 62
     0
100
AcDbCircle
 10
37.90032958984375
 20
13.70843029022217
 30
0.0
 40
18.79999923706055
100
AcDbArc
 50
95.00000150525099
 51
154.9999963447139
  0
DIMENSION
  5
B7
330
44
100
AcDbEntity
  8
0
 62
     0
100
AcDbDimension
  2
*D9
 10
88.0
 20
70.09814453124999
 30
0.0
 11
36.98334939575195
 21
70.09814453125
 31
0.0
 70
   160
 71
     5
 42
97.99999999999999
  3
ISO-25
100
AcDbAlignedDimension
 13
-10.0
 23
1.199996948242188
 33
0.0
 14
88.0
 24
40.48783874511719
 34
0.0
 50
180.0
100
AcDbRotatedDimension
1001
ACAD
1000
DSTYLE
1002
{
1070
   178
1070
     1
1070
   147
1040
0.800000011920929
1070
    77
1070
     1
1070
    74
1070
     0
1070
    73
1070
     0
1070
    42
1040
2.54
1070
    44
1040
1.0
1070
    76
1070
     0
1070
    75
1070
     0
1070
   279
1070
     0
1070
   271
1070
     0
1070
   144
1040
1.0
1070
   278
1070
    46
1070
   173
1070
     1
1070
    41
1040
3.0
1070
   140
1040
3.200000047683716
1070
   344
1005
B8
1070
   343
1005
B8
1002
}
  0
DIMENSION
  5
CB
330
44
100
AcDbEntity
  8
0
 62
     0
100
AcDbDimension
  2
*D10
 10
88.0
 20
61.51486587524413
 30
0.0
 11
45.98875482177734
 21
61.51486587524414
 31
0.0
 70
   160
 71
     5
 42
78.00009155273433
  3
ISO-25
100
AcDbAlignedDimension
 13
9.999910354614258
 23
1.199996948242188
 33
0.0
 14
88.0
 24
44.06312561035156
 34
0.0
 50
180.0
100
AcDbRotatedDimension
1001
ACAD
1000
DSTYLE
1002
{
1070
   178
1070
     1
1070
   147
1040
0.800000011920929
1070
    77
1070
     1
1070
    74
1070
     0
1070
    73
1070
     0
1070
    42
1040
2.54
1070
    44
1040
1.0
1070
    76
1070
     1
1070
    75
1070
     0
1070
   279
1070
     0
1070
   271
1070
     0
1070
   144
1040
1.000000024453159
1070
   278
1070
    46
1070
   173
1070
     1
1070
    41
1040
3.0
1070
   140
1040
3.200000047683716
1070
   344
1005
B8
1070
   343
1005
B8
1002
}
  0
DIMENSION
  5
D7
330
44
100
AcDbEntity
  8
0
 62
     0
100
AcDbDimension
  2
*D11
 10
112.3307958374024
 20
-16.5121612548828
 30
0.0
 11
112.3307958374023
 21
16.44135720825195
 31
0.0
 70
   160
 71
     5
 42
60.0
  3
ISO-25
100
AcDbAlignedDimension
 13
85.0
 23
43.48783874511719
 33
0.0
 14
86.7999267578125
 24
-16.51216125488281
 34
0.0
 50
90.00000000000001
100
AcDbRotatedDimension
1001
ACAD
1000
DSTYLE
1002
{
1070
   178
1070
     1
1070
   147
1040
0.800000011920929
1070
    77
1070
     1
1070
    74
1070
     0
1070
    73
1070
     0
1070
    42
1040
2.54
1070
    44
1040
1.0
1070
    76
1070
     0
1070
    75
1070
     0
1070
   279
1070
     0
1070
   271
1070
     0
1070
   144
1040
1.0
1070
   278
1070
    46
1070
   173
1070
     1
1070
    41
1040
3.0
1070
   140
1040
3.200000047683716
1070
   344
1005
B8
1070
   343
1005
B8
1002
}
  0
DIMENSION
  5
E4
330
44
100
AcDbEntity
  8
0
 62
     0
100
AcDbDimension
  2
*D12
 10
88.0
 20
53.91655349731445
 30
0.0
 11
54.1499028930664
 21
53.91655349731445
 31
0.0
 70
   160
 71
     5
 42
63.34594345092773
  3
ISO-25
100
AcDbAlignedDimension
 13
24.65405464172363
 23
32.62591171264648
 33
0.0
 14
88.0
 24
40.48783874511719
 34
0.0
 50
180.0
100
AcDbRotatedDimension
1001
ACAD
1000
DSTYLE
1002
{
1070
   178
1070
     1
1070
   147
1040
0.800000011920929
1070
    77
1070
     1
1070
    74
1070
     0
1070
    73
1070
     0
1070
    42
1040
2.54
1070
    44
1040
1.0
1070
    76
1070
     1
1070
    75
1070
     0
1070
   279
1070
     0
1070
   271
1070
     1
1070
   144
1040
0.999999969889965
1070
   278
1070
    46
1070
   173
1070
     1
1070
    41
1040
3.0
1070
   140
1040
3.200000047683716
1070
   344
1005
B8
1070
   343
1005
B8
1002
}
  0
DIMENSION
  5
F0
330
44
100
AcDbEntity
  8
0
 62
     0
100
AcDbDimension
  2
*D13
 10
9.999910354614265
 20
61.51486587524414
 30
0.0
 11
1.500955177307129
 21
61.51486587524414
 31
0.0
 70
   160
 71
     5
 42
19.99991035461426
  3
ISO-25
100
AcDbAlignedDimension
 13
-10.0
 23
1.199996948242188
 33
0.0
 14
9.999910354614258
 24
1.199996948242188
 34
0.0
 50
180.0
100
AcDbRotatedDimension
1001
ACAD
1000
DSTYLE
1002
{
1070
   178
1070
     1
1070
   147
1040
0.800000011920929
1070
    77
1070
     1
1070
    74
1070
     0
1070
    73
1070
     0
1070
    42
1040
2.54
1070
    44
1040
1.0
1070
    76
1070
     1
1070
    75
1070
     1
1070
   279
1070
     0
1070
   271
1070
     0
1070
   144
1040
1.0
1070
   278
1070
    46
1070
   173
1070
     1
1070
    41
1040
3.0
1070
   140
1040
3.200000047683716
1070
   344
1005
B8
1070
   343
1005
B8
1002
}
  0
ENDBLK
  5
46
330
44
100
AcDbEntity
  8
0
100
AcDbBlockEnd
  0
BLOCK
  5
48
330
47
100
AcDbEntity
  8
0
100
AcDbBlockBegin
  2
DTL0002
 70
     0
 10
0.0
 20
0.0
 30
0.0
  3
DTL0002
  1

  0
POINT
  5
FB
330
47
100
AcDbEntity
  8
0
 62
     0
100
AcDbPoint
 10
0.0
 20
0.0
 30
0.0
  0
POINT
  5
FC
330
47
100
AcDbEntity
  8
0
 62
     0
100
AcDbPoint
 10
0.0
 20
0.0
 30
0.0
  0
POINT
  5
FD
330
47
100
AcDbEntity
  8
0
 62
     0
100
AcDbPoint
 10
0.0
 20
-2.5
 30
0.0
  0
POINT
  5
FE
330
47
100
AcDbEntity
  8
0
 62
     0
100
AcDbPoint
 10
0.0
 20
-4.5
 30
0.0
  0
LINE
  5
FF
330
47
100
AcDbEntity
  8
0
  6
Continuous
 62
     0
100
AcDbLine
 10
-13.0
 20
-2.5
 30
0.0
 11
-13.0
 21
-4.5
 31
0.0
  0
LINE
  5
100
330
47
100
AcDbEntity
  8
0
  6
Continuous
 62
     0
100
AcDbLine
 10
-10.0
 20
-2.5
 30
0.0
 11
-10.0
 21
-4.0
 31
0.0
  0
LINE
  5
101
330
47
100
AcDbEntity
  8
0
  6
Continuous
 62
     0
100
AcDbLine
 10
-5.0
 20
-2.5
 30
0.0
 11
-5.0
 21
-4.0
 31
0.0
  0
LINE
  5
102
330
47
100
AcDbEntity
  8
0
  6
Continuous
 62
     0
100
AcDbLine
 10
0.0
 20
-2.5
 30
0.0
 11
0.0
 21
-4.5
 31
0.0
  0
MTEXT
  5
103
330
47
100
AcDbEntity
  8
0
 62
     1
100
AcDbMText
 10
-1.536675304174423
 20
-6.831439018249512
 30
0.0
 40
2.0
 41
0.0
 71
     7
 72
     1
  1
{\W1;30}
 73
     1
 44
1.0
  0
MTEXT
  5
104
330
47
100
AcDbEntity
  8
0
 62
     1
100
AcDbMText
 10
-14.53667506575584
 20
-6.831439018249512
 30
0.0
 40
2.0
 41
0.0
 71
     7
 72
     1
  1
{\W1;17}
 73
     1
 44
1.0
  0
ENDBLK
  5
49
330
47
100
AcDbEntity
  8
0
100
AcDbBlockEnd
  0
BLOCK
  5
4B
330
4A
100
AcDbEntity
  8
0
100
AcDbBlockBegin
  2
DTL0003
 70
     0
 10
0.0
 20
0.0
 30
0.0
  3
DTL0003
  1

  0
POINT
  5
105
330
4A
100
AcDbEntity
  8
0
 62
     0
100
AcDbPoint
 10
0.0
 20
0.0
 30
0.0
  0
POINT
  5
106
330
4A
100
AcDbEntity
  8
0
 62
     0
100
AcDbPoint
 10
0.0
 20
0.0
 30
0.0
  0
POINT
  5
107
330
4A
100
AcDbEntity
  8
0
 62
     0
100
AcDbPoint
 10
-10.0
 20
1.199996948242188
 30
0.0
  0
POINT
  5
108
330
4A
100
AcDbEntity
  8
0
 62
     0
100
AcDbPoint
 10
88.0
 20
-16.51216125488281
 30
0.0
  0
POINT
  5
109
330
4A
100
AcDbEntity
  8
0
 62
     0
100
AcDbPoint
 10
88.0
 20
44.06312561035156
 30
0.0
  0
POINT
  5
10A
330
4A
100
AcDbEntity
  8
0
 62
     0
100
AcDbPoint
 10
9.999910354614258
 20
1.199996948242188
 30
0.0
  0
POINT
  5
10B
330
4A
100
AcDbEntity
  8
0
 62
     0
100
AcDbPoint
 10
30.0
 20
0.0
 30
0.0
  0
POINT
  5
10C
330
4A
100
AcDbEntity
  8
0
 62
     0
100
AcDbPoint
 10
-5.0
 20
2.399993896484375
 30
0.0
  0
POINT
  5
10D
330
4A
100
AcDbEntity
  8
0
 62
     0
100
AcDbPoint
 10
-5.0
 20
2.199993848800659
 30
0.0
  0
POINT
  5
10E
330
4A
100
AcDbEntity
  8
0
 62
     0
100
AcDbPoint
 10
25.44891929626465
 20
31.49088668823242
 30
0.0
  0
POINT
  5
10F
330
4A
100
AcDbEntity
  8
0
 62
     0
100
AcDbPoint
 10
26.64098358154297
 20
29.78828430175781
 30
0.0
  0
POINT
  5
110
330
4A
100
AcDbEntity
  8
0
 62
     0
100
AcDbPoint
 10
27.43584632873535
 20
28.65325927734375
 30
0.0
  0
POINT
  5
111
330
4A
100
AcDbEntity
  8
0
 62
     0
100
AcDbPoint
 10
28.13991165161133
 20
25.90414428710938
 30
0.0
  0
POINT
  5
112
330
4A
100
AcDbEntity
  8
0
 62
     0
100
AcDbPoint
 10
82.92625427246094
 20
41.9499626159668
 30
0.0
  0
POINT
  5
113
330
4A
100
AcDbEntity
  8
0
 62
     0
100
AcDbPoint
 10
24.65405464172363
 20
32.62591171264648
 30
0.0
  0
POINT
  5
114
330
4A
100
AcDbEntity
  8
0
 62
     0
100
AcDbPoint
 10
67.99993133544922
 20
36.41818237304688
 30
0.0
  0
POINT
  5
115
330
4A
100
AcDbEntity
  8
0
 62
     0
100
AcDbPoint
 10
14.22713279724121
 20
10.26530361175537
 30
0.0
  0
POINT
  5
116
330
4A
100
AcDbEntity
  8
0
 62
     0
100
AcDbPoint
 10
9.999910354614258
 20
1.199996948242188
 30
0.0
  0
POINT
  5
117
330
4A
100
AcDbEntity
  8
0
 62
     0
100
AcDbPoint
 10
10.76447582244873
 20
-0.000002980232239
 30
0.0
  0
POINT
  5
118
330
4A
100
AcDbEntity
  8
0
 62
     0
100
AcDbPoint
 10
24.65405464172363
 20
32.62590789794922
 30
0.0
  0
POINT
  5
119
330
4A
100
AcDbEntity
  8
0
 62
     0
100
AcDbPoint
 10
28.13991165161133
 20
25.90414428710938
 30
0.0
  0
POINT
  5
11A
330
4A
100
AcDbEntity
  8
0
 62
     0
100
AcDbPoint
 10
27.43584632873535
 20
28.65325927734375
 30
0.0
  0
POINT
  5
11B
330
4A
100
AcDbEntity
  8
0
 62
     0
100
AcDbPoint
 10
26.64098358154297
 20
29.78828430175781
 30
0.0
  0
POINT
  5
11C
330
4A
100
AcDbEntity
  8
0
 62
     0
100
AcDbPoint
 10
25.44891929626465
 20
31.49088668823242
 30
0.0
  0
LINE
  5
11D
330
4A
100
AcDbEntity
  8
0
  6
Continuous
 62
     0
100
AcDbLine
 10
-10.0
 20
1.199996948242188
 30
0.0
 11
9.36284065246582
 21
1.199996948242188
 31
0.0
  0
LINE
  5
11E
330
4A
100
AcDbEntity
  8
0
  6
Continuous
 62
     0
100
AcDbLine
 10
-10.0
 20
1.199996948242188
 30
0.0
 11
-10.0
 21
-1.800003051757812
 31
0.0
  0
LINE
  5
11F
330
4A
100
AcDbEntity
  8
0
  6
Continuous
 62
     0
100
AcDbLine
 10
83.799990630639
 20
0.219922212722857
 30
0.0
 11
86.7999990288715
 21
-1.512133474655151
 31
0.0
  0
LINE
  5
120
330
4A
100
AcDbEntity
  8
0
  6
Continuous
 62
     0
100
AcDbLine
 10
88.0
 20
40.48783874511719
 30
0.0
 11
88.0
 21
-16.51216125488281
 31
0.0
  0
LINE
  5
121
330
4A
100
AcDbEntity
  8
0
  6
Continuous
 62
     0
100
AcDbLine
 10
10.26914779743878
 20
1.777378812296899
 30
0.0
 11
19.77407907551854
 21
22.16076864481917
 31
0.0
  0
LINE
  5
122
330
4A
100
AcDbEntity
  8
0
  6
Continuous
 62
     0
100
AcDbLine
 10
36.15711985083157
 20
33.63229757213051
 30
0.0
 11
68.00002750630473
 21
36.41819099755396
 31
0.0
  0
LINE
  5
123
330
4A
100
AcDbEntity
  8
0
  6
DASHED
 62
     0
100
AcDbLine
 10
64.69979708516662
 20
33.11805081915304
 30
0.0
 11
67.99998838381114
 21
36.41824211779756
 31
0.0
  0
LINE
  5
124
330
4A
100
AcDbEntity
  8
0
  6
Continuous
 62
     0
100
AcDbLine
 10
76.10501946936915
 20
41.96571900031419
 30
0.0
 11
84.47901097322128
 21
43.44227968133016
 31
0.0
  0
LINE
  5
125
330
4A
100
AcDbEntity
  8
0
  6
Continuous
 62
     0
100
AcDbLine
 10
86.7999267578125
 20
40.48783874511719
 30
0.0
 11
86.7999267578125
 21
-16.51216125488281
 31
0.0
  0
LINE
  5
126
330
4A
100
AcDbEntity
  8
0
  6
Continuous
 62
     0
100
AcDbLine
 10
71.14817589318936
 20
29.6669346905641
 30
0.0
 11
76.38906974491098
 21
34.90782854228573
 31
0.0
  0
LINE
  5
127
330
4A
100
AcDbEntity
  8
0
  6
Continuous
 62
     0
100
AcDbLine
 10
36.19205642523227
 20
26.60861526367648
 30
0.0
 11
71.1481523161162
 21
29.66687736632547
 31
0.0
  0
LINE
  5
128
330
4A
100
AcDbEntity
  8
0
  6
Continuous
 62
     0
100
AcDbLine
 10
15.43777536185363
 20
-1.335675331407931
 30
0.0
 11
24.72392956807983
 21
18.57854558115666
 31
0.0
  0
LINE
  5
129
330
4A
100
AcDbEntity
  8
0
  6
Continuous
 62
     0
100
AcDbLine
 10
-7.0
 20
-4.800003051757812
 30
0.0
 11
10.0
 21
-4.800003051757812
 31
0.0
  0
LINE
  5
12A
330
4A
100
AcDbEntity
  8
0
  6
Continuous
 62
     0
100
AcDbLine
 10
76.38912480573158
 20
34.90782814853252
 30
0.0
 11
80.19587801370456
 21
35.57906146739111
 31
0.0
  0
LINE
  5
12B
330
4A
100
AcDbEntity
  8
0
  6
Continuous
 62
     0
100
AcDbLine
 10
80.1477707713705
 20
35.4668388018426
 30
0.0
 11
82.29224941848878
 21
40.47062252810856
 31
0.0
  0
LINE
  5
12C
330
4A
100
AcDbEntity
  8
0
  6
DASHED
 62
     0
100
AcDbLine
 10
36.26180015048621
 20
32.43689048708294
 30
0.0
 11
68.53971834706574
 21
35.26084240325637
 31
0.0
  0
LINE
  5
12D
330
4A
100
AcDbEntity
  8
0
  6
DASHED
 62
     0
100
AcDbLine
 10
65.23949253797045
 20
31.96067273376
 30
0.0
 11
71.61903374125731
 21
38.34021393704685
 31
0.0
  0
LINE
  5
12E
330
4A
100
AcDbEntity
  8
0
  6
DASHED
 62
     0
100
AcDbLine
 10
76.31339940813753
 20
40.78393767615016
 30
0.0
 11
84.68739091198965
 21
42.26049835716614
 31
0.0
  0
LINE
  5
12F
330
4A
100
AcDbEntity
  8
0
  6
DASHED
 62
     0
100
AcDbLine
 10
11.35679802107566
 20
1.270237038415292
 30
0.0
 11
20.86174219644179
 21
21.653654529256
 31
0.0
  0
LINE
  5
130
330
4A
100
AcDbEntity
  8
0
  6
DASHED
 62
     0
100
AcDbLine
 10
36.52326737797164
 20
29.44830639274142
 30
0.0
 11
65.23947335371912
 21
31.96064886776004
 31
0.0
  0
LINE
  5
131
330
4A
100
AcDbEntity
  8
0
  6
DASHED
 62
     0
100
AcDbLine
 10
15.12672826175295
 20
9.354799228235327
 30
0.0
 11
18.57765760050716
 21
9.656716423123898
 31
0.0
  0
LINE
  5
132
330
4A
100
AcDbEntity
  8
0
  6
DASHED
 62
     0
100
AcDbLine
 10
18.57761313314582
 20
9.65671750405113
 30
0.0
 11
23.58066639632787
 21
20.38579928620945
 31
0.0
  0
LINE
  5
133
330
4A
100
AcDbEntity
  8
0
  6
DASHED
 62
     0
100
AcDbLine
 10
36.418587078317
 20
30.643713477789
 30
0.0
 11
64.69978251295811
 21
33.11799746205763
 31
0.0
  0
LINE
  5
134
330
4A
100
AcDbEntity
  8
0
  6
DASHED
 62
     0
100
AcDbLine
 10
14.33196659967487
 20
10.4898626514869
 30
0.0
 11
17.78289593842908
 21
10.79177984637547
 31
0.0
  0
LINE
  5
135
330
4A
100
AcDbEntity
  8
0
  6
DASHED
 62
     0
100
AcDbLine
 10
17.78277161428719
 20
10.79178953868223
 30
0.0
 11
22.49300408148502
 21
20.89291513041752
 31
0.0
  0
LINE
  5
136
330
4A
100
AcDbEntity
  8
0
  6
Continuous
 62
     0
100
AcDbLine
 10
67.99998838381114
 20
36.41824211779756
 30
0.0
 11
70.77049697215888
 21
39.18875070614529
 31
0.0
  0
LINE
  5
137
330
4A
100
AcDbEntity
  8
0
  6
Continuous
 62
     0
100
AcDbLine
 10
83.7999267578125
 20
37.86598205566406
 30
0.0
 11
83.7999267578125
 21
0.219924926757812
 31
0.0
  0
LINE
  5
138
330
4A
100
AcDbEntity
  8
0
  6
DASHED
 62
     0
100
AcDbLine
 10
78.77895457571285
 20
38.17240174886894
 30
0.0
 11
82.62634072072538
 21
38.85079975104004
 31
0.0
  0
LINE
  5
139
330
4A
100
AcDbEntity
  8
0
  6
DASHED
 62
     0
100
AcDbLine
 10
76.55232972847577
 20
40.82608329439965
 30
0.0
 11
78.77901762981793
 21
38.17242011236987
 31
0.0
  0
LINE
  5
13A
330
4A
100
AcDbEntity
  8
0
  6
Continuous
 62
     0
100
AcDbLine
 10
86.7999267578125
 20
-16.51216125488281
 30
0.0
 11
88.0
 21
-16.51216125488281
 31
0.0
  0
LINE
  5
13B
330
4A
100
AcDbEntity
  8
0
  6
CENTER
 62
     0
100
AcDbLine
 10
0.0
 20
16.49760055541992
 30
0.0
 11
0.0
 21
-29.08761978149414
 31
0.0
  0
LINE
  5
13C
330
4A
100
AcDbEntity
  8
0
  6
Continuous
 62
     0
100
AcDbLine
 10
-5.0
 20
1.199993848800659
 30
0.0
 11
-5.0
 21
2.199993848800659
 31
0.0
  0
LINE
  5
13D
330
4A
100
AcDbEntity
  8
0
  6
Continuous
 62
     0
100
AcDbLine
 10
-4.5999755859375
 20
2.199993848800659
 30
0.0
 11
-4.5999755859375
 21
3.499996900558472
 31
0.0
  0
LINE
  5
13E
330
4A
100
AcDbEntity
  8
0
  6
Continuous
 62
     0
100
AcDbLine
 10
5.0
 20
2.199993848800659
 30
0.0
 11
-5.0
 21
2.199993848800659
 31
0.0
  0
LINE
  5
13F
330
4A
100
AcDbEntity
  8
0
  6
Continuous
 62
     0
100
AcDbLine
 10
4.60003662109375
 20
3.499996900558472
 30
0.0
 11
-4.5999755859375
 21
3.499996900558472
 31
0.0
  0
LINE
  5
140
330
4A
100
AcDbEntity
  8
0
  6
Continuous
 62
     0
100
AcDbLine
 10
-11.0
 20
11.33836078643799
 30
0.0
 11
-11.0
 21
13.49999713897705
 31
0.0
  0
LINE
  5
141
330
4A
100
AcDbEntity
  8
0
  6
Continuous
 62
     0
100
AcDbLine
 10
-9.0
 20
13.49999713897705
 30
0.0
 11
-11.0
 21
13.49999713897705
 31
0.0
  0
LINE
  5
142
330
4A
100
AcDbEntity
  8
0
  6
Continuous
 62
     0
100
AcDbLine
 10
-5.0
 20
6.499997138977051
 30
0.0
 11
-5.0
 21
9.49999713897705
 31
0.0
  0
LINE
  5
143
330
4A
100
AcDbEntity
  8
0
  6
Continuous
 62
     0
100
AcDbLine
 10
5.0
 20
6.499997138977051
 30
0.0
 11
-5.0
 21
6.499997138977051
 31
0.0
  0
LINE
  5
144
330
4A
100
AcDbEntity
  8
0
  6
Continuous
 62
     0
100
AcDbLine
 10
-2.5
 20
6.499997138977051
 30
0.0
 11
-2.5
 21
13.99999713897705
 31
0.0
  0
LINE
  5
145
330
4A
100
AcDbEntity
  8
0
  6
Continuous
 62
     0
100
AcDbLine
 10
-2.0
 20
6.499997138977051
 30
0.0
 11
-2.0
 21
13.99999713897705
 31
0.0
  0
LINE
  5
146
330
4A
100
AcDbEntity
  8
0
  6
Continuous
 62
     0
100
AcDbLine
 10
2.0
 20
6.499997138977051
 30
0.0
 11
2.0
 21
13.99999713897705
 31
0.0
  0
LINE
  5
147
330
4A
100
AcDbEntity
  8
0
  6
Continuous
 62
     0
100
AcDbLine
 10
2.5
 20
6.499997138977051
 30
0.0
 11
2.5
 21
13.99999713897705
 31
0.0
  0
LINE
  5
148
330
4A
100
AcDbEntity
  8
0
  6
Continuous
 62
     0
100
AcDbLine
 10
-2.5
 20
13.99999713897705
 30
0.0
 11
2.5
 21
13.99999713897705
 31
0.0
  0
LINE
  5
149
330
4A
100
AcDbEntity
  8
0
  6
Continuous
 62
     0
100
AcDbLine
 10
5.0
 20
6.499997138977051
 30
0.0
 11
5.0
 21
9.49999713897705
 31
0.0
  0
LINE
  5
14A
330
4A
100
AcDbEntity
  8
0
  6
Continuous
 62
     0
100
AcDbLine
 10
9.0
 20
13.49999713897705
 30
0.0
 11
11.0
 21
13.49999713897705
 31
0.0
  0
LINE
  5
14B
330
4A
100
AcDbEntity
  8
0
  6
Continuous
 62
     0
100
AcDbLine
 10
11.0
 20
11.33836078643799
 30
0.0
 11
11.0
 21
13.49999713897705
 31
0.0
  0
LINE
  5
14C
330
4A
100
AcDbEntity
  8
0
  6
Continuous
 62
     0
100
AcDbLine
 10
4.60003662109375
 20
2.199993848800659
 30
0.0
 11
4.60003662109375
 21
3.499996900558472
 31
0.0
  0
LINE
  5
14D
330
4A
100
AcDbEntity
  8
0
  6
Continuous
 62
     0
100
AcDbLine
 10
5.0
 20
1.199993848800659
 30
0.0
 11
5.0
 21
2.199993848800659
 31
0.0
  0
LINE
  5
14E
330
4A
100
AcDbEntity
  8
0
  6
Continuous
 62
     0
100
AcDbLine
 10
0.7505764456015
 20
3.500002948091361
 30
0.0
 11
0.402243389844193
 21
2.200006147254101
 31
0.0
  0
LINE
  5
14F
330
4A
100
AcDbEntity
  8
0
  6
Continuous
 62
     0
100
AcDbLine
 10
-0.750533937837359
 20
2.199996265881218
 30
0.0
 11
-0.402200912933684
 21
3.499992951571145
 31
0.0
  0
ARC
  5
150
330
4A
100
AcDbEntity
  8
0
  6
Continuous
 62
     0
100
AcDbCircle
 10
10.0
 20
1.199996948242188
 30
0.0
 40
6.0
100
AcDbArc
 50
269.9999974955218
 51
334.9999981659467
  0
ARC
  5
151
330
4A
100
AcDbEntity
  8
0
  6
DASHED
 62
     0
100
AcDbCircle
 10
77.841552734375
 20
32.11763000488281
 30
0.0
 40
8.800000190734863
100
AcDbArc
 50
100.0000005060238
 51
135.0000003416227
  0
ARC
  5
152
330
4A
100
AcDbEntity
  8
0
  6
Continuous
 62
     0
100
AcDbCircle
 10
85.0
 20
40.48783874511719
 30
0.0
 40
3.0
100
AcDbArc
 50
0.0
 51
100.0000005060238
  0
ARC
  5
153
330
4A
100
AcDbEntity
  8
0
  6
Continuous
 62
     0
100
AcDbCircle
 10
77.841552734375
 20
32.11763000488281
 30
0.0
 40
10.0
100
AcDbArc
 50
100.0000005060238
 51
135.0000003416227
  0
ARC
  5
154
330
4A
100
AcDbEntity
  8
0
  6
Continuous
 62
     0
100
AcDbCircle
 10
-7.0
 20
-1.800003051757812
 30
0.0
 40
3.0
100
AcDbArc
 50
179.999991348578
 51
270.0000006832453
  0
ARC
  5
155
330
4A
100
AcDbEntity
  8
0
  6
Continuous
 62
     0
100
AcDbCircle
 10
85.0
 20
40.48783874511719
 30
0.0
 40
1.799999952316284
100
AcDbArc
 50
0.0
 51
100.0000005060238
  0
ARC
  5
156
330
4A
100
AcDbEntity
  8
0
  6
Continuous
 62
     0
100
AcDbCircle
 10
82.7999267578125
 20
37.86598205566406
 30
0.0
 40
1.0
100
AcDbArc
 50
0.0
 51
100.0000005060238
  0
ARC
  5
157
330
4A
100
AcDbEntity
  8
0
  6
Continuous
 62
     0
100
AcDbCircle
 10
85.0496826171875
 20
39.28886413574219
 30
0.0
 40
3.0
100
AcDbArc
 50
92.37285120327562
 51
156.8014040967914
  0
ARC
  5
158
330
4A
100
AcDbEntity
  8
0
  6
Continuous
 62
     0
100
AcDbCircle
 10
-3.0
 20
11.33836078643799
 30
0.0
 40
8.0
100
AcDbArc
 50
179.999991348578
 51
258.4630461939067
  0
ARC
  5
159
330
4A
100
AcDbEntity
  8
0
  6
Continuous
 62
     0
100
AcDbCircle
 10
-9.0
 20
9.49999713897705
 30
0.0
 40
4.0
100
AcDbArc
 50
0.0
 51
90.00000250447816
  0
ARC
  5
15A
330
4A
100
AcDbEntity
  8
0
  6
Continuous
 62
     0
100
AcDbCircle
 10
9.0
 20
9.49999713897705
 30
0.0
 40
4.0
100
AcDbArc
 50
90.00000250447816
 51
180.0000050089563
  0
ARC
  5
15B
330
4A
100
AcDbEntity
  8
0
  6
Continuous
 62
     0
100
AcDbCircle
 10
3.0
 20
11.33836078643799
 30
0.0
 40
8.0
100
AcDbArc
 50
281.5369588150496
 51
359.9999999999999
  0
ARC
  5
15C
330
4A
100
AcDbEntity
  8
0
  6
Continuous
 62
     0
100
AcDbCircle
 10
9.36284065246582
 20
2.199996948242188
 30
0.0
 40
1.0
100
AcDbArc
 50
269.9999974955218
 51
334.9999981659467
  0
ARC
  5
15D
330
4A
100
AcDbEntity
  8
0
  6
DASHED
 62
     0
100
AcDbCircle
 10
9.362920761108398
 20
2.199996948242188
 30
0.0
 40
2.200000047683716
100
AcDbArc
 50
269.9999974955218
 51
334.9999981659467
  0
ARC
  5
15E
330
4A
100
AcDbEntity
  8
0
  6
Continuous
 62
     0
100
AcDbCircle
 10
37.90023422241211
 20
13.70840358734131
 30
0.0
 40
20.0
100
AcDbArc
 50
95.00000150525099
 51
154.9999963447139
  0
ARC
  5
15F
330
4A
100
AcDbEntity
  8
0
  6
Continuous
 62
     0
100
AcDbCircle
 10
37.41223907470703
 20
12.66189002990723
 30
0.0
 40
14.0
100
AcDbArc
 50
95.00000150525099
 51
154.9999963447139
  0
ARC
  5
160
330
4A
100
AcDbEntity
  8
0
  6
DASHED
 62
     0
100
AcDbCircle
 10
37.90032958984375
 20
13.70843029022217
 30
0.0
 40
15.80000019073486
100
AcDbArc
 50
95.00000150525099
 51
154.9999963447139
  0
ARC
  5
161
330
4A
100
AcDbEntity
  8
0
  6
DASHED
 62
     0
100
AcDbCircle
 10
37.90023422241211
 20
13.70840358734131
 30
0.0
 40
17.0
100
AcDbArc
 50
95.00000150525099
 51
154.9999963447139
  0
ARC
  5
162
330
4A
100
AcDbEntity
  8
0
  6
DASHED
 62
     0
100
AcDbCircle
 10
37.90032958984375
 20
13.70843029022217
 30
0.0
 40
18.79999923706055
100
AcDbArc
 50
95.00000150525099
 51
154.9999963447139
  0
DIMENSION
  5
163
330
4A
100
AcDbEntity
  8
0
 62
     0
100
AcDbDimension
  2
*D14
 10
88.0
 20
70.09814453124999
 30
0.0
 11
36.98334939575195
 21
70.09814453125
 31
0.0
 70
   160
 71
     5
 42
97.99999999999999
  3
ISO-25
100
AcDbAlignedDimension
 13
-10.0
 23
1.199996948242188
 33
0.0
 14
88.0
 24
40.48783874511719
 34
0.0
 50
180.0
100
AcDbRotatedDimension
1001
ACAD
1000
DSTYLE
1002
{
1070
   178
1070
     1
1070
   147
1040
0.800000011920929
1070
    77
1070
     1
1070
    74
1070
     0
1070
    73
1070
     0
1070
    42
1040
2.54
1070
    44
1040
1.0
1070
    76
1070
     0
1070
    75
1070
     0
1070
   279
1070
     0
1070
   271
1070
     0
1070
   144
1040
1.0
1070
   278
1070
    46
1070
   173
1070
     1
1070
    41
1040
3.0
1070
   140
1040
3.200000047683716
1070
   344
1005
B8
1070
   343
1005
B8
1002
}
  0
DIMENSION
  5
170
330
4A
100
AcDbEntity
  8
0
 62
     0
100
AcDbDimension
  2
*D15
 10
88.0
 20
61.51486587524413
 30
0.0
 11
45.98875482177734
 21
61.51486587524414
 31
0.0
 70
   160
 71
     5
 42
78.00009155273433
  3
ISO-25
100
AcDbAlignedDimension
 13
9.999910354614258
 23
1.199996948242188
 33
0.0
 14
88.0
 24
44.06312561035156
 34
0.0
 50
180.0
100
AcDbRotatedDimension
1001
ACAD
1000
DSTYLE
1002
{
1070
   178
1070
     1
1070
   147
1040
0.800000011920929
1070
    77
1070
     1
1070
    74
1070
     0
1070
    73
1070
     0
1070
    42
1040
2.54
1070
    44
1040
1.0
1070
    76
1070
     1
1070
    75
1070
     0
1070
   279
1070
     0
1070
   271
1070
     0
1070
   144
1040
1.000000024453159
1070
   278
1070
    46
1070
   173
1070
     1
1070
    41
1040
3.0
1070
   140
1040
3.200000047683716
1070
   344
1005
B8
1070
   343
1005
B8
1002
}
  0
DIMENSION
  5
17C
330
4A
100
AcDbEntity
  8
0
 62
     0
100
AcDbDimension
  2
*D16
 10
112.3307958374024
 20
-16.5121612548828
 30
0.0
 11
112.3307958374023
 21
16.44135720825195
 31
0.0
 70
   160
 71
     5
 42
60.0
  3
ISO-25
100
AcDbAlignedDimension
 13
85.0
 23
43.48783874511719
 33
0.0
 14
86.7999267578125
 24
-16.51216125488281
 34
0.0
 50
90.00000000000001
100
AcDbRotatedDimension
1001
ACAD
1000
DSTYLE
1002
{
1070
   178
1070
     1
1070
   147
1040
0.800000011920929
1070
    77
1070
     1
1070
    74
1070
     0
1070
    73
1070
     0
1070
    42
1040
2.54
1070
    44
1040
1.0
1070
    76
1070
     0
1070
    75
1070
     0
1070
   279
1070
     0
1070
   271
1070
     0
1070
   144
1040
1.0
1070
   278
1070
    46
1070
   173
1070
     1
1070
    41
1040
3.0
1070
   140
1040
3.200000047683716
1070
   344
1005
B8
1070
   343
1005
B8
1002
}
  0
DIMENSION
  5
189
330
4A
100
AcDbEntity
  8
0
 62
     0
100
AcDbDimension
  2
*D17
 10
88.0
 20
53.91655349731445
 30
0.0
 11
54.1499028930664
 21
53.91655349731445
 31
0.0
 70
   160
 71
     5
 42
63.34594345092773
  3
ISO-25
100
AcDbAlignedDimension
 13
24.65405464172363
 23
32.62591171264648
 33
0.0
 14
88.0
 24
40.48783874511719
 34
0.0
 50
180.0
100
AcDbRotatedDimension
1001
ACAD
1000
DSTYLE
1002
{
1070
   178
1070
     1
1070
   147
1040
0.800000011920929
1070
    77
1070
     1
1070
    74
1070
     0
1070
    73
1070
     0
1070
    42
1040
2.54
1070
    44
1040
1.0
1070
    76
1070
     1
1070
    75
1070
     0
1070
   279
1070
     0
1070
   271
1070
     1
1070
   144
1040
0.999999969889965
1070
   278
1070
    46
1070
   173
1070
     1
1070
    41
1040
3.0
1070
   140
1040
3.200000047683716
1070
   344
1005
B8
1070
   343
1005
B8
1002
}
  0
DIMENSION
  5
195
330
4A
100
AcDbEntity
  8
0
 62
     0
100
AcDbDimension
  2
*D18
 10
9.999910354614265
 20
61.51486587524414
 30
0.0
 11
1.500955177307129
 21
61.51486587524414
 31
0.0
 70
   160
 71
     5
 42
19.99991035461426
  3
ISO-25
100
AcDbAlignedDimension
 13
-10.0
 23
1.199996948242188
 33
0.0
 14
9.999910354614258
 24
1.199996948242188
 34
0.0
 50
180.0
100
AcDbRotatedDimension
1001
ACAD
1000
DSTYLE
1002
{
1070
   178
1070
     1
1070
   147
1040
0.800000011920929
1070
    77
1070
     1
1070
    74
1070
     0
1070
    73
1070
     0
1070
    42
1040
2.54
1070
    44
1040
1.0
1070
    76
1070
     1
1070
    75
1070
     1
1070
   279
1070
     0
1070
   271
1070
     0
1070
   144
1040
1.0
1070
   278
1070
    46
1070
   173
1070
     1
1070
    41
1040
3.0
1070
   140
1040
3.200000047683716
1070
   344
1005
B8
1070
   343
1005
B8
1002
}
  0
ENDBLK
  5
4C
330
4A
100
AcDbEntity
  8
0
100
AcDbBlockEnd
  0
BLOCK
  5
4E
330
4D
100
AcDbEntity
  8
0
100
AcDbBlockBegin
  2
DTL0004
 70
     0
 10
0.0
 20
0.0
 30
0.0
  3
DTL0004
  1

  0
POINT
  5
1A0
330
4D
100
AcDbEntity
  8
0
 62
     0
100
AcDbPoint
 10
0.0
 20
0.0
 30
0.0
  0
POINT
  5
1A1
330
4D
100
AcDbEntity
  8
0
 62
     0
100
AcDbPoint
 10
0.0
 20
0.0
 30
0.0
  0
POINT
  5
1A2
330
4D
100
AcDbEntity
  8
0
 62
     0
100
AcDbPoint
 10
0.0
 20
-2.5
 30
0.0
  0
POINT
  5
1A3
330
4D
100
AcDbEntity
  8
0
 62
     0
100
AcDbPoint
 10
0.0
 20
-4.5
 30
0.0
  0
LINE
  5
1A4
330
4D
100
AcDbEntity
  8
0
  6
Continuous
 62
     0
100
AcDbLine
 10
-13.0
 20
-2.5
 30
0.0
 11
-13.0
 21
-4.5
 31
0.0
  0
LINE
  5
1A5
330
4D
100
AcDbEntity
  8
0
  6
Continuous
 62
     0
100
AcDbLine
 10
-10.0
 20
-2.5
 30
0.0
 11
-10.0
 21
-4.0
 31
0.0
  0
LINE
  5
1A6
330
4D
100
AcDbEntity
  8
0
  6
Continuous
 62
     0
100
AcDbLine
 10
-5.0
 20
-2.5
 30
0.0
 11
-5.0
 21
-4.0
 31
0.0
  0
LINE
  5
1A7
330
4D
100
AcDbEntity
  8
0
  6
Continuous
 62
     0
100
AcDbLine
 10
0.0
 20
-2.5
 30
0.0
 11
0.0
 21
-4.5
 31
0.0
  0
MTEXT
  5
1A8
330
4D
100
AcDbEntity
  8
0
 62
     1
100
AcDbMText
 10
-1.536675304174423
 20
-6.831439018249512
 30
0.0
 40
2.0
 41
0.0
 71
     7
 72
     1
  1
{\W1;30}
 73
     1
 44
1.0
  0
MTEXT
  5
1A9
330
4D
100
AcDbEntity
  8
0
 62
     1
100
AcDbMText
 10
-14.53667506575584
 20
-6.831439018249512
 30
0.0
 40
2.0
 41
0.0
 71
     7
 72
     1
  1
{\W1;17}
 73
     1
 44
1.0
  0
ENDBLK
  5
4F
330
4D
100
AcDbEntity
  8
0
100
AcDbBlockEnd
  0
BLOCK
  5
51
330
50
100
AcDbEntity
  8
0
100
AcDbBlockBegin
  2
DTL0005
 70
     0
 10
0.0
 20
0.0
 30
0.0
  3
DTL0005
  1

  0
POINT
  5
1AA
330
50
100
AcDbEntity
  8
0
 62
     0
100
AcDbPoint
 10
0.0
 20
0.0
 30
0.0
  0
POINT
  5
1AB
330
50
100
AcDbEntity
  8
0
 62
     0
100
AcDbPoint
 10
0.0
 20
0.0
 30
0.0
  0
POINT
  5
1AC
330
50
100
AcDbEntity
  8
0
 62
     0
100
AcDbPoint
 10
27.12799453735352
 20
30.83241844177246
 30
0.0
  0
POINT
  5
1AD
330
50
100
AcDbEntity
  8
0
 62
     0
100
AcDbPoint
 10
27.9227180480957
 20
29.6973819732666
 30
0.0
  0
POINT
  5
1AE
330
50
100
AcDbEntity
  8
0
 62
     0
100
AcDbPoint
 10
28.62692451477051
 20
26.94827842712402
 30
0.0
  0
POINT
  5
1AF
330
50
100
AcDbEntity
  8
0
 62
     0
100
AcDbPoint
 10
-2.75
 20
1.199996948242188
 30
0.0
  0
POINT
  5
1B0
330
50
100
AcDbEntity
  8
0
 62
     0
100
AcDbPoint
 10
9.999968528747559
 20
1.199996948242188
 30
0.0
  0
POINT
  5
1B1
330
50
100
AcDbEntity
  8
0
 62
     0
100
AcDbPoint
 10
9.999968528747559
 20
1.199996948242188
 30
0.0
  0
POINT
  5
1B2
330
50
100
AcDbEntity
  8
0
 62
     0
100
AcDbPoint
 10
10.76446628570557
 20
-0.000002980232239
 30
0.0
  0
POINT
  5
1B3
330
50
100
AcDbEntity
  8
0
 62
     0
100
AcDbPoint
 10
-10.0
 20
-4.800003051757812
 30
0.0
  0
POINT
  5
1B4
330
50
100
AcDbEntity
  8
0
 62
     0
100
AcDbPoint
 10
27.9227180480957
 20
29.6973819732666
 30
0.0
  0
POINT
  5
1B5
330
50
100
AcDbEntity
  8
0
 62
     0
100
AcDbPoint
 10
27.12799453735352
 20
30.83241844177246
 30
0.0
  0
POINT
  5
1B6
330
50
100
AcDbEntity
  8
0
 62
     0
100
AcDbPoint
 10
25.935791015625
 20
32.53500747680664
 30
0.0
  0
LINE
  5
1B7
330
50
100
AcDbEntity
  8
0
  6
Continuous
 62
     0
100
AcDbLine
 10
-10.0
 20
1.199996948242188
 30
0.0
 11
9.362897872924805
 21
1.199996948242188
 31
0.0
  0
LINE
  5
1B8
330
50
100
AcDbEntity
  8
0
  6
Continuous
 62
     0
100
AcDbLine
 10
-10.0
 20
1.199996948242188
 30
0.0
 11
-10.0
 21
-1.800003051757812
 31
0.0
  0
LINE
  5
1B9
330
50
100
AcDbEntity
  8
0
  6
CENTER
 62
     0
100
AcDbLine
 10
0.0
 20
7.347137451171875
 30
0.0
 11
0.0
 21
-9.3109130859375
 31
0.0
  0
LINE
  5
1BA
330
50
100
AcDbEntity
  8
0
  6
Continuous
 62
     0
100
AcDbLine
 10
110.0000534057617
 20
43.41412353515625
 30
0.0
 11
110.0000534057617
 21
-13.58587646484375
 31
0.0
  0
LINE
  5
1BB
330
50
100
AcDbEntity
  8
0
  6
Continuous
 62
     0
100
AcDbLine
 10
10.26920561269868
 20
1.777378685308443
 30
0.0
 11
20.26102255031733
 21
23.20489812928132
 31
0.0
  0
LINE
  5
1BC
330
50
100
AcDbEntity
  8
0
  6
Continuous
 62
     0
100
AcDbLine
 10
36.6440628227995
 20
34.6764256673532
 30
0.0
 11
90.00008881405067
 21
39.34447305875405
 31
0.0
  0
LINE
  5
1BD
330
50
100
AcDbEntity
  8
0
  6
DASHED
 62
     0
100
AcDbLine
 10
86.69985723152713
 20
36.04433550829619
 30
0.0
 11
90.00004853017165
 21
39.34452680694071
 31
0.0
  0
LINE
  5
1BE
330
50
100
AcDbEntity
  8
0
  6
Continuous
 62
     0
100
AcDbLine
 10
98.10507398191929
 20
44.89198759072037
 30
0.0
 11
106.4790654857714
 21
46.36854827173634
 31
0.0
  0
LINE
  5
1BF
330
50
100
AcDbEntity
  8
0
  6
Continuous
 62
     0
100
AcDbLine
 10
108.7999801635742
 20
-13.58587646484375
 30
0.0
 11
110.0000534057617
 21
-13.58587646484375
 31
0.0
  0
LINE
  5
1C0
330
50
100
AcDbEntity
  8
0
  6
Continuous
 62
     0
100
AcDbLine
 10
108.7999801635742
 20
43.41412353515625
 30
0.0
 11
108.7999801635742
 21
-13.58587646484375
 31
0.0
  0
LINE
  5
1C1
330
50
100
AcDbEntity
  8
0
  6
Continuous
 62
     0
100
AcDbLine
 10
93.14823603954986
 20
32.59321937970726
 30
0.0
 11
98.3891298912715
 21
37.83411323142889
 31
0.0
  0
LINE
  5
1C2
330
50
100
AcDbEntity
  8
0
  6
Continuous
 62
     0
100
AcDbLine
 10
36.67907160064283
 20
27.65274967588185
 30
0.0
 11
93.14821362386213
 21
32.59315942752556
 31
0.0
  0
LINE
  5
1C3
330
50
100
AcDbEntity
  8
0
  6
Continuous
 62
     0
100
AcDbLine
 10
15.43787614278227
 20
-1.335725483118801
 30
0.0
 11
25.21094119855982
 21
19.62267906104959
 31
0.0
  0
LINE
  5
1C4
330
50
100
AcDbEntity
  8
0
  6
Continuous
 62
     0
100
AcDbLine
 10
-7.0
 20
-4.800003051757812
 30
0.0
 11
10.0
 21
-4.800003051757812
 31
0.0
  0
LINE
  5
1C5
330
50
100
AcDbEntity
  8
0
  6
Continuous
 62
     0
100
AcDbLine
 10
98.38917931828172
 20
37.83409673893868
 30
0.0
 11
102.1959325262547
 21
38.50533005779728
 31
0.0
  0
LINE
  5
1C6
330
50
100
AcDbEntity
  8
0
  6
Continuous
 62
     0
100
AcDbLine
 10
102.1478418768989
 20
38.39311718634988
 30
0.0
 11
104.2923205240171
 21
43.39690091261584
 31
0.0
  0
LINE
  5
1C7
330
50
100
AcDbEntity
  8
0
  6
Continuous
 62
     0
100
AcDbLine
 10
105.7999801635742
 20
40.79226684570312
 30
0.0
 11
105.7999801635742
 21
3.146163940429688
 31
0.0
  0
LINE
  5
1C8
330
50
100
AcDbEntity
  8
0
  6
DASHED
 62
     0
100
AcDbLine
 10
98.55239555395927
 20
43.75235821198824
 30
0.0
 11
100.7790822292813
 21
41.09869649107225
 31
0.0
  0
LINE
  5
1C9
330
50
100
AcDbEntity
  8
0
  6
DASHED
 62
     0
100
AcDbLine
 10
36.74867091901152
 20
33.48101226532295
 30
0.0
 11
90.5397796548117
 21
38.18712446445645
 31
0.0
  0
LINE
  5
1CA
330
50
100
AcDbEntity
  8
0
  6
DASHED
 62
     0
100
AcDbLine
 10
87.23955268433095
 20
34.88695742290315
 30
0.0
 11
93.61909388761781
 21
41.26649862619
 31
0.0
  0
LINE
  5
1CB
330
50
100
AcDbEntity
  8
0
  6
DASHED
 62
     0
100
AcDbLine
 10
98.31345392068766
 20
43.71020626655633
 30
0.0
 11
106.6874454245398
 21
45.18676694757231
 31
0.0
  0
LINE
  5
1CC
330
50
100
AcDbEntity
  8
0
  6
Continuous
 62
     0
100
AcDbLine
 10
105.8000283736371
 20
3.14618058111067
 30
0.0
 11
108.8000367718696
 21
1.414124893732669
 31
0.0
  0
LINE
  5
1CD
330
50
100
AcDbEntity
  8
0
  6
DASHED
 62
     0
100
AcDbLine
 10
100.779009088263
 20
41.09867033927511
 30
0.0
 11
103.5140385278699
 21
41.58092983644406
 31
0.0
  0
LINE
  5
1CE
330
50
100
AcDbEntity
  8
0
  6
DASHED
 62
     0
100
AcDbLine
 10
11.3567884284927
 20
1.270236776326056
 30
0.0
 11
21.34861423299574
 21
22.69777523539285
 31
0.0
  0
LINE
  5
1CF
330
50
100
AcDbEntity
  8
0
  6
DASHED
 62
     0
100
AcDbLine
 10
37.01013814649694
 20
30.49242817098144
 30
0.0
 11
87.23953466146507
 21
34.88693092896013
 31
0.0
  0
LINE
  5
1D0
330
50
100
AcDbEntity
  8
0
  6
DASHED
 62
     0
100
AcDbLine
 10
15.61363124870018
 20
10.39892478253921
 30
0.0
 11
19.06456248754499
 21
10.70084214366416
 31
0.0
  0
LINE
  5
1D1
330
50
100
AcDbEntity
  8
0
  6
DASHED
 62
     0
100
AcDbLine
 10
19.06448269321653
 20
10.70083515593838
 30
0.0
 11
24.06753756855937
 21
21.4299203953865
 31
0.0
  0
LINE
  5
1D2
330
50
100
AcDbEntity
  8
0
  6
DASHED
 62
     0
100
AcDbLine
 10
36.90559845354638
 20
31.6878475575216
 30
0.0
 11
86.69984382070406
 21
36.04427952325772
 31
0.0
  0
LINE
  5
1D3
330
50
100
AcDbEntity
  8
0
  6
DASHED
 62
     0
100
AcDbLine
 10
14.8188705366674
 20
11.53398828890897
 30
0.0
 11
18.26980082546691
 21
11.83590556691574
 31
0.0
  0
LINE
  5
1D4
330
50
100
AcDbEntity
  8
0
  6
DASHED
 62
     0
100
AcDbLine
 10
18.26975825627482
 20
11.83586943058318
 30
0.0
 11
22.98001571196501
 21
21.93704861031045
 31
0.0
  0
LINE
  5
1D5
330
50
100
AcDbEntity
  8
0
  6
Continuous
 62
     0
100
AcDbLine
 10
103.5140385278699
 20
41.58092983644406
 30
0.0
 11
104.6263952332755
 21
41.77706834144622
 31
0.0
  0
LINE
  5
1D6
330
50
100
AcDbEntity
  8
0
  6
Continuous
 62
     0
100
AcDbLine
 10
90.00004853017165
 20
39.34452680694071
 30
0.0
 11
92.77055711851938
 21
42.11503539528843
 31
0.0
  0
ARC
  5
1D7
330
50
100
AcDbEntity
  8
0
  6
Continuous
 62
     0
100
AcDbCircle
 10
-7.0
 20
-1.800003051757812
 30
0.0
 40
3.0
100
AcDbArc
 50
179.999991348578
 51
270.0000006832453
  0
ARC
  5
1D8
330
50
100
AcDbEntity
  8
0
  6
Continuous
 62
     0
100
AcDbCircle
 10
107.0497360229492
 20
42.21514892578125
 30
0.0
 40
3.0
100
AcDbArc
 50
92.37285120327562
 51
156.8014040967914
  0
ARC
  5
1D9
330
50
100
AcDbEntity
  8
0
  6
Continuous
 62
     0
100
AcDbCircle
 10
107.0000534057617
 20
43.41412353515625
 30
0.0
 40
3.0
100
AcDbArc
 50
0.0
 51
100.0000005060238
  0
ARC
  5
1DA
330
50
100
AcDbEntity
  8
0
  6
Continuous
 62
     0
100
AcDbCircle
 10
104.7999801635742
 20
40.79226684570312
 30
0.0
 40
1.0
100
AcDbArc
 50
0.0
 51
100.0000005060238
  0
ARC
  5
1DB
330
50
100
AcDbEntity
  8
0
  6
DASHED
 62
     0
100
AcDbCircle
 10
99.84160614013672
 20
35.04391479492188
 30
0.0
 40
8.800000190734863
100
AcDbArc
 50
100.0000005060238
 51
135.0000003416227
  0
ARC
  5
1DC
330
50
100
AcDbEntity
  8
0
  6
Continuous
 62
     0
100
AcDbCircle
 10
10.0
 20
1.199996948242188
 30
0.0
 40
5.999999523162842
100
AcDbArc
 50
273.7307902541554
 51
334.9999998734941
  0
ARC
  5
1DD
330
50
100
AcDbEntity
  8
0
  6
Continuous
 62
     0
100
AcDbCircle
 10
107.0000534057617
 20
43.41412353515625
 30
0.0
 40
1.799999952316284
100
AcDbArc
 50
0.0
 51
100.0000005060238
  0
ARC
  5
1DE
330
50
100
AcDbEntity
  8
0
  6
Continuous
 62
     0
100
AcDbCircle
 10
99.84160614013672
 20
35.04391479492188
 30
0.0
 40
10.0
100
AcDbArc
 50
100.0000005060238
 51
135.0000003416227
  0
ARC
  5
1DF
330
50
100
AcDbEntity
  8
0
  6
Continuous
 62
     0
100
AcDbCircle
 10
9.362897872924805
 20
2.199996948242188
 30
0.0
 40
1.0
100
AcDbArc
 50
269.9999974955218
 51
334.9999981659467
  0
ARC
  5
1E0
330
50
100
AcDbEntity
  8
0
  6
DASHED
 62
     0
100
AcDbCircle
 10
9.362911224365234
 20
2.199996948242188
 30
0.0
 40
2.200000047683716
100
AcDbArc
 50
269.9999974955218
 51
334.9999981659467
  0
ARC
  5
1E1
330
50
100
AcDbEntity
  8
0
  6
Continuous
 62
     0
100
AcDbCircle
 10
38.38717651367188
 20
14.75253200531006
 30
0.0
 40
20.0
100
AcDbArc
 50
95.00000150525099
 51
154.9999963447139
  0
ARC
  5
1E2
330
50
100
AcDbEntity
  8
0
  6
Continuous
 62
     0
100
AcDbCircle
 10
37.89925003051758
 20
13.70602416992188
 30
0.0
 40
14.0
100
AcDbArc
 50
95.00000150525099
 51
154.9999963447139
  0
ARC
  5
1E3
330
50
100
AcDbEntity
  8
0
  6
DASHED
 62
     0
100
AcDbCircle
 10
38.38719940185547
 20
14.7525520324707
 30
0.0
 40
15.80000019073486
100
AcDbArc
 50
95.00000150525099
 51
154.9999963447139
  0
ARC
  5
1E4
330
50
100
AcDbEntity
  8
0
  6
DASHED
 62
     0
100
AcDbCircle
 10
38.38724899291992
 20
14.75253772735596
 30
0.0
 40
17.0
100
AcDbArc
 50
95.00000150525099
 51
154.9999963447139
  0
ARC
  5
1E5
330
50
100
AcDbEntity
  8
0
  6
DASHED
 62
     0
100
AcDbCircle
 10
38.38719940185547
 20
14.7525520324707
 30
0.0
 40
18.79999923706055
100
AcDbArc
 50
95.00000150525099
 51
154.9999963447139
  0
DIMENSION
  5
1E6
330
50
100
AcDbEntity
  8
0
 62
     0
100
AcDbDimension
  2
*D19
 10
110.0000534057617
 20
67.12509918212889
 30
0.0
 11
49.16592080688476
 21
67.1250991821289
 31
0.0
 70
   160
 71
     5
 42
110.0000534057617
  3
ISO-25
100
AcDbAlignedDimension
 13
0.0
 23
7.347137451171875
 33
0.0
 14
110.0000534057617
 24
43.41412353515625
 34
0.0
 50
180.0
100
AcDbRotatedDimension
1001
ACAD
1000
DSTYLE
1002
{
1070
   178
1070
     1
1070
   147
1040
0.800000011920929
1070
    77
1070
     1
1070
    74
1070
     0
1070
    73
1070
     0
1070
    42
1040
2.54
1070
    44
1040
1.0
1070
    76
1070
     1
1070
    75
1070
     0
1070
   279
1070
     0
1070
   271
1070
     0
1070
   144
1040
1.0
1070
   278
1070
    46
1070
   173
1070
     1
1070
    41
1040
3.0
1070
   140
1040
3.200000047683716
1070
   344
1005
B8
1070
   343
1005
B8
1002
}
  0
DIMENSION
  5
1F2
330
50
100
AcDbEntity
  8
0
 62
     0
100
AcDbDimension
  2
*D20
 10
110.0000534057617
 20
73.74277496337889
 30
0.0
 11
48.59869058227539
 21
73.7427749633789
 31
0.0
 70
   160
 71
     5
 42
120.0000534057617
  3
ISO-25
100
AcDbAlignedDimension
 13
-10.0
 23
1.199996948242188
 33
0.0
 14
110.0000534057617
 24
43.41412353515625
 34
0.0
 50
180.0
100
AcDbRotatedDimension
1001
ACAD
1000
DSTYLE
1002
{
1070
   178
1070
     1
1070
   147
1040
0.800000011920929
1070
    77
1070
     1
1070
    74
1070
     0
1070
    73
1070
     0
1070
    42
1040
2.54
1070
    44
1040
1.0
1070
    76
1070
     0
1070
    75
1070
     0
1070
   279
1070
     0
1070
   271
1070
     0
1070
   144
1040
1.0
1070
   278
1070
    46
1070
   173
1070
     1
1070
    41
1040
3.0
1070
   140
1040
3.200000047683716
1070
   344
1005
B8
1070
   343
1005
B8
1002
}
  0
DIMENSION
  5
1FF
330
50
100
AcDbEntity
  8
0
 62
     0
100
AcDbDimension
  2
*D21
 10
-2.749999999999993
 20
61.37936401367188
 30
0.0
 11
-21.74240008556842
 21
61.37936401367188
 31
0.0
 70
   160
 71
     5
 42
7.25
  3
ISO-25
100
AcDbAlignedDimension
 13
-10.0
 23
1.199996948242188
 33
0.0
 14
-2.75
 24
1.199996948242188
 34
0.0
 50
180.0
100
AcDbRotatedDimension
1001
ACAD
1000
DSTYLE
1002
{
1070
   178
1070
     1
1070
   147
1040
0.800000011920929
1070
    77
1070
     1
1070
    74
1070
     0
1070
    73
1070
     0
1070
    42
1040
2.54
1070
    44
1040
1.0
1070
    76
1070
     0
1070
    75
1070
     1
1070
   279
1070
     0
1070
   271
1070
     2
1070
   144
1040
1.0
1070
   278
1070
    46
1070
   173
1070
     1
1070
    41
1040
3.0
1070
   140
1040
3.200000047683716
1070
   344
1005
B8
1070
   343
1005
B8
1002
}
  0
DIMENSION
  5
215
330
50
100
AcDbEntity
  8
0
 62
     0
100
AcDbDimension
  2
*D22
 10
9.999968528747564
 20
50.67544555664062
 30
0.0
 11
4.922027660369873
 21
50.67544555664062
 31
0.0
 70
   160
 71
     5
 42
19.99996948242188
  3
ISO-25
100
AcDbAlignedDimension
 13
-10.0
 23
1.199996948242188
 33
0.0
 14
9.999968528747559
 24
1.199996948242188
 34
0.0
 50
180.0
100
AcDbRotatedDimension
1001
ACAD
1000
DSTYLE
1002
{
1070
   178
1070
     1
1070
   147
1040
0.800000011920929
1070
    77
1070
     1
1070
    74
1070
     0
1070
    73
1070
     0
1070
    42
1040
2.54
1070
    44
1040
1.0
1070
    76
1070
     0
1070
    75
1070
     1
1070
   279
1070
     0
1070
   271
1070
     0
1070
   144
1040
1.000000047683791
1070
   278
1070
    46
1070
   173
1070
     1
1070
    41
1040
3.0
1070
   140
1040
3.200000047683716
1070
   344
1005
B8
1070
   343
1005
B8
1002
}
  0
DIMENSION
  5
227
330
50
100
AcDbEntity
  8
0
 62
     0
100
AcDbDimension
  2
*D23
 10
110.0000534057617
 20
60.5074234008789
 30
0.0
 11
63.91388375854492
 21
60.50742340087891
 31
0.0
 70
   160
 71
     5
 42
84.0642623901367
  3
ISO-25
100
AcDbAlignedDimension
 13
25.935791015625
 23
32.53500747680664
 33
0.0
 14
110.0000534057617
 24
43.41412353515625
 34
0.0
 50
180.0
100
AcDbRotatedDimension
1001
ACAD
1000
DSTYLE
1002
{
1070
   178
1070
     1
1070
   147
1040
0.800000011920929
1070
    77
1070
     1
1070
    74
1070
     0
1070
    73
1070
     0
1070
    42
1040
2.54
1070
    44
1040
1.0
1070
    76
1070
     1
1070
    75
1070
     0
1070
   279
1070
     0
1070
   271
1070
     1
1070
   144
1040
1.0
1070
   278
1070
    46
1070
   173
1070
     1
1070
    41
1040
3.0
1070
   140
1040
3.200000047683716
1070
   344
1005
B8
1070
   343
1005
B8
1002
}
  0
DIMENSION
  5
233
330
50
100
AcDbEntity
  8
0
 62
     0
100
AcDbDimension
  2
*D24
 10
110.0000534057617
 20
-46.19900076293946
 30
0.0
 11
53.0260015258789
 21
-46.19900076293946
 31
0.0
 70
   160
 71
     5
 42
110.0000534057617
  3
ISO-25
100
AcDbAlignedDimension
 13
0.0
 23
-9.3109130859375
 33
0.0
 14
110.0000534057617
 24
-13.58587646484375
 34
0.0
 50
180.0
100
AcDbRotatedDimension
1001
ACAD
1000
DSTYLE
1002
{
1070
   178
1070
     1
1070
   147
1040
0.800000011920929
1070
    77
1070
     1
1070
    74
1070
     0
1070
    73
1070
     0
1070
    42
1040
2.54
1070
    44
1040
1.0
1070
    76
1070
     0
1070
    75
1070
     0
1070
   279
1070
     0
1070
   271
1070
     0
1070
   144
1040
1.0
1070
   278
1070
    46
1070
   173
1070
     1
1070
    41
1040
3.0
1070
   140
1040
3.200000047683716
1070
   344
1005
B8
1070
   343
1005
B8
1002
}
  0
ENDBLK
  5
52
330
50
100
AcDbEntity
  8
0
100
AcDbBlockEnd
  0
BLOCK
  5
54
330
53
100
AcDbEntity
  8
0
100
AcDbBlockBegin
  2
DTL0006
 70
     0
 10
0.0
 20
0.0
 30
0.0
  3
DTL0006
  1

  0
POINT
  5
240
330
53
100
AcDbEntity
  8
0
 62
     0
100
AcDbPoint
 10
0.0
 20
0.0
 30
0.0
  0
POINT
  5
241
330
53
100
AcDbEntity
  8
0
 62
     0
100
AcDbPoint
 10
-5.0
 20
2.399993896484375
 30
0.0
  0
POINT
  5
242
330
53
100
AcDbEntity
  8
0
 62
     0
100
AcDbPoint
 10
-5.0
 20
2.199993848800659
 30
0.0
  0
LINE
  5
243
330
53
100
AcDbEntity
  8
0
  6
Continuous
 62
     0
100
AcDbLine
 10
-5.0
 20
1.199993848800659
 30
0.0
 11
-5.0
 21
2.199993848800659
 31
0.0
  0
LINE
  5
244
330
53
100
AcDbEntity
  8
0
  6
Continuous
 62
     0
100
AcDbLine
 10
-4.5999755859375
 20
2.199993848800659
 30
0.0
 11
-4.5999755859375
 21
3.499996900558472
 31
0.0
  0
LINE
  5
245
330
53
100
AcDbEntity
  8
0
  6
Continuous
 62
     0
100
AcDbLine
 10
5.0
 20
2.199993848800659
 30
0.0
 11
-5.0
 21
2.199993848800659
 31
0.0
  0
LINE
  5
246
330
53
100
AcDbEntity
  8
0
  6
Continuous
 62
     0
100
AcDbLine
 10
4.60003662109375
 20
3.499996900558472
 30
0.0
 11
-4.5999755859375
 21
3.499996900558472
 31
0.0
  0
LINE
  5
247
330
53
100
AcDbEntity
  8
0
  6
Continuous
 62
     0
100
AcDbLine
 10
-11.0
 20
11.33836078643799
 30
0.0
 11
-11.0
 21
13.49999713897705
 31
0.0
  0
LINE
  5
248
330
53
100
AcDbEntity
  8
0
  6
Continuous
 62
     0
100
AcDbLine
 10
-9.0
 20
13.49999713897705
 30
0.0
 11
-11.0
 21
13.49999713897705
 31
0.0
  0
LINE
  5
249
330
53
100
AcDbEntity
  8
0
  6
Continuous
 62
     0
100
AcDbLine
 10
-5.0
 20
6.499997138977051
 30
0.0
 11
-5.0
 21
9.49999713897705
 31
0.0
  0
LINE
  5
24A
330
53
100
AcDbEntity
  8
0
  6
Continuous
 62
     0
100
AcDbLine
 10
5.0
 20
6.499997138977051
 30
0.0
 11
-5.0
 21
6.499997138977051
 31
0.0
  0
LINE
  5
24B
330
53
100
AcDbEntity
  8
0
  6
Continuous
 62
     0
100
AcDbLine
 10
-2.5
 20
6.499997138977051
 30
0.0
 11
-2.5
 21
13.99999713897705
 31
0.0
  0
LINE
  5
24C
330
53
100
AcDbEntity
  8
0
  6
Continuous
 62
     0
100
AcDbLine
 10
-2.0
 20
6.499997138977051
 30
0.0
 11
-2.0
 21
13.99999713897705
 31
0.0
  0
LINE
  5
24D
330
53
100
AcDbEntity
  8
0
  6
Continuous
 62
     0
100
AcDbLine
 10
2.0
 20
6.499997138977051
 30
0.0
 11
2.0
 21
13.99999713897705
 31
0.0
  0
LINE
  5
24E
330
53
100
AcDbEntity
  8
0
  6
Continuous
 62
     0
100
AcDbLine
 10
2.5
 20
6.499997138977051
 30
0.0
 11
2.5
 21
13.99999713897705
 31
0.0
  0
LINE
  5
24F
330
53
100
AcDbEntity
  8
0
  6
Continuous
 62
     0
100
AcDbLine
 10
-2.5
 20
13.99999713897705
 30
0.0
 11
2.5
 21
13.99999713897705
 31
0.0
  0
LINE
  5
250
330
53
100
AcDbEntity
  8
0
  6
Continuous
 62
     0
100
AcDbLine
 10
5.0
 20
6.499997138977051
 30
0.0
 11
5.0
 21
9.49999713897705
 31
0.0
  0
LINE
  5
251
330
53
100
AcDbEntity
  8
0
  6
Continuous
 62
     0
100
AcDbLine
 10
9.0
 20
13.49999713897705
 30
0.0
 11
11.0
 21
13.49999713897705
 31
0.0
  0
LINE
  5
252
330
53
100
AcDbEntity
  8
0
  6
Continuous
 62
     0
100
AcDbLine
 10
11.0
 20
11.33836078643799
 30
0.0
 11
11.0
 21
13.49999713897705
 31
0.0
  0
LINE
  5
253
330
53
100
AcDbEntity
  8
0
  6
Continuous
 62
     0
100
AcDbLine
 10
4.60003662109375
 20
2.199993848800659
 30
0.0
 11
4.60003662109375
 21
3.499996900558472
 31
0.0
  0
LINE
  5
254
330
53
100
AcDbEntity
  8
0
  6
Continuous
 62
     0
100
AcDbLine
 10
5.0
 20
1.199993848800659
 30
0.0
 11
5.0
 21
2.199993848800659
 31
0.0
  0
LINE
  5
255
330
53
100
AcDbEntity
  8
0
  6
Continuous
 62
     0
100
AcDbLine
 10
0.7505764456015
 20
3.500002948091361
 30
0.0
 11
0.402243389844193
 21
2.200006147254101
 31
0.0
  0
LINE
  5
256
330
53
100
AcDbEntity
  8
0
  6
Continuous
 62
     0
100
AcDbLine
 10
-0.750533937837359
 20
2.199996265881218
 30
0.0
 11
-0.402200912933684
 21
3.499992951571145
 31
0.0
  0
ARC
  5
257
330
53
100
AcDbEntity
  8
0
  6
Continuous
 62
     0
100
AcDbCircle
 10
-3.0
 20
11.33836078643799
 30
0.0
 40
8.0
100
AcDbArc
 50
179.999991348578
 51
258.4630461939067
  0
ARC
  5
258
330
53
100
AcDbEntity
  8
0
  6
Continuous
 62
     0
100
AcDbCircle
 10
-9.0
 20
9.49999713897705
 30
0.0
 40
4.0
100
AcDbArc
 50
0.0
 51
90.00000250447816
  0
ARC
  5
259
330
53
100
AcDbEntity
  8
0
  6
Continuous
 62
     0
100
AcDbCircle
 10
3.0
 20
11.33836078643799
 30
0.0
 40
8.0
100
AcDbArc
 50
281.5369588150496
 51
359.9999999999999
  0
ARC
  5
25A
330
53
100
AcDbEntity
  8
0
  6
Continuous
 62
     0
100
AcDbCircle
 10
9.0
 20
9.49999713897705
 30
0.0
 40
4.0
100
AcDbArc
 50
90.00000250447816
 51
180.0000050089563
  0
ENDBLK
  5
55
330
53
100
AcDbEntity
  8
0
100
AcDbBlockEnd
  0
BLOCK
  5
57
330
56
100
AcDbEntity
  8
0
100
AcDbBlockBegin
  2
DTL0007
 70
     0
 10
0.0
 20
0.0
 30
0.0
  3
DTL0007
  1

  0
POINT
  5
25B
330
56
100
AcDbEntity
  8
0
 62
     0
100
AcDbPoint
 10
0.0
 20
0.0
 30
0.0
  0
POINT
  5
25C
330
56
100
AcDbEntity
  8
0
 62
     0
100
AcDbPoint
 10
0.0
 20
0.0
 30
0.0
  0
LINE
  5
25D
330
56
100
AcDbEntity
  8
0
  6
Continuous
 62
     0
100
AcDbLine
 10
-21.99997711181641
 20
-2.5
 30
0.0
 11
-21.99997711181641
 21
-4.5
 31
0.0
  0
LINE
  5
25E
330
56
100
AcDbEntity
  8
0
  6
Continuous
 62
     0
100
AcDbLine
 10
-16.99997711181641
 20
-2.5
 30
0.0
 11
-16.99997711181641
 21
-4.0
 31
0.0
  0
LINE
  5
25F
330
56
100
AcDbEntity
  8
0
  6
Continuous
 62
     0
100
AcDbLine
 10
-11.99997711181641
 20
-2.5
 30
0.0
 11
-11.99997711181641
 21
-4.0
 31
0.0
  0
LINE
  5
260
330
56
100
AcDbEntity
  8
0
  6
Continuous
 62
     0
100
AcDbLine
 10
-6.999977111816406
 20
-2.5
 30
0.0
 11
-6.999977111816406
 21
-4.5
 31
0.0
  0
LINE
  5
261
330
56
100
AcDbEntity
  8
0
  6
Continuous
 62
     0
100
AcDbLine
 10
-1.999977111816406
 20
-2.5
 30
0.0
 11
-1.999977111816406
 21
-4.0
 31
0.0
  0
LINE
  5
262
330
56
100
AcDbEntity
  8
0
  6
Continuous
 62
     0
100
AcDbLine
 10
3.000022888183594
 20
-2.5
 30
0.0
 11
3.000022888183594
 21
-4.0
 31
0.0
  0
LINE
  5
263
330
56
100
AcDbEntity
  8
0
  6
Continuous
 62
     0
100
AcDbLine
 10
8.000022888183594
 20
-2.5
 30
0.0
 11
8.000022888183594
 21
-4.5
 31
0.0
  0
MTEXT
  5
264
330
56
100
AcDbEntity
  8
0
 62
     1
100
AcDbMText
 10
-23.29893264174461
 20
-6.823459625244141
 30
0.0
 40
2.0
 41
0.0
 71
     7
 72
     1
  1
{\W1;30}
 73
     1
 44
1.0
  0
MTEXT
  5
265
330
56
100
AcDbEntity
  8
0
 62
     1
100
AcDbMText
 10
-8.298932164907455
 20
-6.823459625244141
 30
0.0
 40
2.0
 41
0.0
 71
     7
 72
     1
  1
{\W1;45}
 73
     1
 44
1.0
  0
MTEXT
  5
266
330
56
100
AcDbEntity
  8
0
 62
     1
100
AcDbMText
 10
6.701067835092545
 20
-6.823459625244141
 30
0.0
 40
2.0
 41
0.0
 71
     7
 72
     1
  1
{\W1;60}
 73
     1
 44
1.0
  0
ENDBLK
  5
58
330
56
100
AcDbEntity
  8
0
100
AcDbBlockEnd
  0
BLOCK
  5
B9
330
B8
100
AcDbEntity
  8
0
100
AcDbBlockBegin
  2
_OPEN30
 70
     0
 10
0.0
 20
0.0
 30
0.0
  3
_OPEN30
  1

  0
LINE
  5
BB
330
B8
100
AcDbEntity
  8
0
  6
ByBlock
 62
     0
370
    -2
100
AcDbLine
 10
-1.0
 20
0.267949
 30
0.0
 11
0.0
 21
0.0
 31
0.0
  0
LINE
  5
BC
330
B8
100
AcDbEntity
  8
0
  6
ByBlock
 62
     0
370
    -2
100
AcDbLine
 10
0.0
 20
0.0
 30
0.0
 11
-1.0
 21
-0.267949
 31
0.0
  0
LINE
  5
BD
330
B8
100
AcDbEntity
  8
0
  6
ByBlock
 62
     0
370
    -2
100
AcDbLine
 10
0.0
 20
0.0
 30
0.0
 11
-1.0
 21
0.0
 31
0.0
  0
ENDBLK
  5
BA
330
B8
100
AcDbEntity
  8
0
100
AcDbBlockEnd
  0
BLOCK
  5
C0
330
BF
100
AcDbEntity
  8
0
100
AcDbBlockBegin
  2
*D9
 70
     1
 10
0.0
 20
0.0
 30
0.0
  3
*D9
  1

  0
LINE
  5
C2
330
BF
100
AcDbEntity
  8
0
 62
     0
370
    -2
100
AcDbLine
 10
-10.0
 20
3.739996948242188
 30
0.0
 11
-9.999999999999986
 21
71.09814453125
 31
0.0
  0
LINE
  5
C3
330
BF
100
AcDbEntity
  8
0
 62
     0
370
    -2
100
AcDbLine
 10
88.0
 20
43.02783874511719
 30
0.0
 11
88.0
 21
71.09814453124999
 31
0.0
  0
LINE
  5
C4
330
BF
100
AcDbEntity
  8
0
 62
     0
370
    -2
100
AcDbLine
 10
-6.999999999999986
 20
70.09814453125
 30
0.0
 11
85.0
 21
70.09814453124999
 31
0.0
  0
INSERT
  5
C5
330
BF
100
AcDbEntity
  8
0
 62
     0
370
    -2
100
AcDbBlockReference
  2
_OPEN30
 10
-9.999999999999986
 20
70.09814453125
 30
0.0
 41
3.0
 42
3.0
 43
3.0
 50
180.0
  0
INSERT
  5
C6
330
BF
100
AcDbEntity
  8
0
 62
     0
370
    -2
100
AcDbBlockReference
  2
_OPEN30
 10
88.0
 20
70.09814453124999
 30
0.0
 41
3.0
 42
3.0
 43
3.0
 50
360.0
  0
MTEXT
  5
C7
330
BF
100
AcDbEntity
  8
0
 62
     1
100
AcDbMText
 10
36.98334939575195
 20
72.51254456722737
 30
0.0
 40
3.200000047683716
 41
0.0
 71
     5
 72
     1
  1
98
 73
     1
 44
1.0
  0
POINT
  5
C8
330
BF
100
AcDbEntity
  8
Defpoints
 62
     0
100
AcDbPoint
 10
-10.0
 20
1.199996948242188
 30
0.0
  0
POINT
  5
C9
330
BF
100
AcDbEntity
  8
Defpoints
 62
     0
100
AcDbPoint
 10
88.0
 20
40.48783874511719
 30
0.0
  0
POINT
  5
CA
330
BF
100
AcDbEntity
  8
Defpoints
 62
     0
100
AcDbPoint
 10
88.00000000000001
 20
70.09814453125
 30
0.0
  0
ENDBLK
  5
C1
330
BF
100
AcDbEntity
  8
0
100
AcDbBlockEnd
  0
BLOCK
  5
CD
330
CC
100
AcDbEntity
  8
0
100
AcDbBlockBegin
  2
*D10
 70
     1
 10
0.0
 20
0.0
 30
0.0
  3
*D10
  1

  0
LINE
  5
CF
330
CC
100
AcDbEntity
  8
0
 62
     0
370
    -2
100
AcDbLine
 10
9.999910354614258
 20
3.739996948242188
 30
0.0
 11
9.999910354614272
 21
62.51486587524414
 31
0.0
  0
LINE
  5
D0
330
CC
100
AcDbEntity
  8
0
 62
     0
370
    -2
100
AcDbLine
 10
12.99991035461427
 20
61.51486587524414
 30
0.0
 11
85.0
 21
61.51486587524413
 31
0.0
  0
INSERT
  5
D1
330
CC
100
AcDbEntity
  8
0
 62
     0
370
    -2
100
AcDbBlockReference
  2
_OPEN30
 10
9.999910354614272
 20
61.51486587524414
 30
0.0
 41
3.0
 42
3.0
 43
3.0
 50
180.0
  0
INSERT
  5
D2
330
CC
100
AcDbEntity
  8
0
 62
     0
370
    -2
100
AcDbBlockReference
  2
_OPEN30
 10
88.0
 20
61.51486587524413
 30
0.0
 41
3.0
 42
3.0
 43
3.0
 50
360.0
  0
MTEXT
  5
D3
330
CC
100
AcDbEntity
  8
0
 62
     1
100
AcDbMText
 10
45.98875482177734
 20
63.92926591122151
 30
0.0
 40
3.200000047683716
 41
0.0
 71
     5
 72
     1
  1
78
 73
     1
 44
1.0
  0
POINT
  5
D4
330
CC
100
AcDbEntity
  8
Defpoints
 62
     0
100
AcDbPoint
 10
9.999910354614258
 20
1.199996948242188
 30
0.0
  0
POINT
  5
D5
330
CC
100
AcDbEntity
  8
Defpoints
 62
     0
100
AcDbPoint
 10
88.0
 20
44.06312561035156
 30
0.0
  0
POINT
  5
D6
330
CC
100
AcDbEntity
  8
Defpoints
 62
     0
100
AcDbPoint
 10
88.00000000000001
 20
61.51486587524414
 30
0.0
  0
ENDBLK
  5
CE
330
CC
100
AcDbEntity
  8
0
100
AcDbBlockEnd
  0
BLOCK
  5
D9
330
D8
100
AcDbEntity
  8
0
100
AcDbBlockBegin
  2
*D11
 70
     1
 10
0.0
 20
0.0
 30
0.0
  3
*D11
  1

  0
LINE
  5
DB
330
D8
100
AcDbEntity
  8
0
 62
     0
370
    -2
100
AcDbLine
 10
87.54
 20
43.48783874511719
 30
0.0
 11
113.3307958374023
 21
43.4878387451172
 31
0.0
  0
LINE
  5
DC
330
D8
100
AcDbEntity
  8
0
 62
     0
370
    -2
100
AcDbLine
 10
89.3399267578125
 20
-16.51216125488281
 30
0.0
 11
113.3307958374024
 21
-16.5121612548828
 31
0.0
  0
LINE
  5
DD
330
D8
100
AcDbEntity
  8
0
 62
     0
370
    -2
100
AcDbLine
 10
112.3307958374023
 20
40.4878387451172
 30
0.0
 11
112.3307958374024
 21
-13.5121612548828
 31
0.0
  0
INSERT
  5
DE
330
D8
100
AcDbEntity
  8
0
 62
     0
370
    -2
100
AcDbBlockReference
  2
_OPEN30
 10
112.3307958374023
 20
43.4878387451172
 30
0.0
 41
3.0
 42
3.0
 43
3.0
 50
90.00000000000001
  0
INSERT
  5
DF
330
D8
100
AcDbEntity
  8
0
 62
     0
370
    -2
100
AcDbBlockReference
  2
_OPEN30
 10
112.3307958374024
 20
-16.5121612548828
 30
0.0
 41
3.0
 42
3.0
 43
3.0
 50
270.0
  0
MTEXT
  5
E0
330
D8
100
AcDbEntity
  8
0
 62
     1
100
AcDbMText
 10
109.916395801425
 20
16.44135720825195
 30
0.0
 40
3.200000047683716
 41
0.0
 71
     5
 72
     1
  1
60
 11
-4.736951571734001E-16
 21
1.0
 31
0.0
 73
     1
 44
1.0
  0
POINT
  5
E1
330
D8
100
AcDbEntity
  8
Defpoints
 62
     0
100
AcDbPoint
 10
85.0
 20
43.48783874511719
 30
0.0
  0
POINT
  5
E2
330
D8
100
AcDbEntity
  8
Defpoints
 62
     0
100
AcDbPoint
 10
86.7999267578125
 20
-16.51216125488281
 30
0.0
  0
POINT
  5
E3
330
D8
100
AcDbEntity
  8
Defpoints
 62
     0
100
AcDbPoint
 10
112.3297958374023
 20
-16.5121612548828
 30
0.0
  0
ENDBLK
  5
DA
330
D8
100
AcDbEntity
  8
0
100
AcDbBlockEnd
  0
BLOCK
  5
E6
330
E5
100
AcDbEntity
  8
0
100
AcDbBlockBegin
  2
*D12
 70
     1
 10
0.0
 20
0.0
 30
0.0
  3
*D12
  1

  0
LINE
  5
E8
330
E5
100
AcDbEntity
  8
0
 62
     0
370
    -2
100
AcDbLine
 10
24.65405464172363
 20
35.16591171264648
 30
0.0
 11
24.65405464172363
 21
54.91655349731445
 31
0.0
  0
LINE
  5
E9
330
E5
100
AcDbEntity
  8
0
 62
     0
370
    -2
100
AcDbLine
 10
27.65405464172363
 20
53.91655349731445
 30
0.0
 11
85.0
 21
53.91655349731445
 31
0.0
  0
INSERT
  5
EA
330
E5
100
AcDbEntity
  8
0
 62
     0
370
    -2
100
AcDbBlockReference
  2
_OPEN30
 10
24.65405464172363
 20
53.91655349731445
 30
0.0
 41
3.0
 42
3.0
 43
3.0
 50
180.0
  0
INSERT
  5
EB
330
E5
100
AcDbEntity
  8
0
 62
     0
370
    -2
100
AcDbBlockReference
  2
_OPEN30
 10
88.0
 20
53.91655349731445
 30
0.0
 41
3.0
 42
3.0
 43
3.0
 50
360.0
  0
MTEXT
  5
EC
330
E5
100
AcDbEntity
  8
0
 62
     1
100
AcDbMText
 10
54.1499028930664
 20
56.33735353338719
 30
0.0
 40
3.200000047683716
 41
0.0
 71
     5
 72
     1
  1
63.3
 73
     1
 44
1.0
  0
POINT
  5
ED
330
E5
100
AcDbEntity
  8
Defpoints
 62
     0
100
AcDbPoint
 10
24.65405464172363
 20
32.62591171264648
 30
0.0
  0
POINT
  5
EE
330
E5
100
AcDbEntity
  8
Defpoints
 62
     0
100
AcDbPoint
 10
88.0
 20
40.48783874511719
 30
0.0
  0
POINT
  5
EF
330
E5
100
AcDbEntity
  8
Defpoints
 62
     0
100
AcDbPoint
 10
88.0
 20
53.91655349731445
 30
0.0
  0
ENDBLK
  5
E7
330
E5
100
AcDbEntity
  8
0
100
AcDbBlockEnd
  0
BLOCK
  5
F2
330
F1
100
AcDbEntity
  8
0
100
AcDbBlockBegin
  2
*D13
 70
     1
 10
0.0
 20
0.0
 30
0.0
  3
*D13
  1

  0
LINE
  5
F4
330
F1
100
AcDbEntity
  8
0
 62
     0
370
    -2
100
AcDbLine
 10
-6.999999999999993
 20
61.51486587524414
 30
0.0
 11
6.999910354614265
 21
61.51486587524414
 31
0.0
  0
INSERT
  5
F5
330
F1
100
AcDbEntity
  8
0
 62
     0
370
    -2
100
AcDbBlockReference
  2
_OPEN30
 10
-9.999999999999993
 20
61.51486587524414
 30
0.0
 41
3.0
 42
3.0
 43
3.0
 50
180.0
  0
INSERT
  5
F6
330
F1
100
AcDbEntity
  8
0
 62
     0
370
    -2
100
AcDbBlockReference
  2
_OPEN30
 10
9.999910354614265
 20
61.51486587524414
 30
0.0
 41
3.0
 42
3.0
 43
3.0
  0
MTEXT
  5
F7
330
F1
100
AcDbEntity
  8
0
 62
     1
100
AcDbMText
 10
1.500955177307129
 20
63.92926591122151
 30
0.0
 40
3.200000047683716
 41
0.0
 71
     5
 72
     1
  1
20
 73
     1
 44
1.0
  0
POINT
  5
F8
330
F1
100
AcDbEntity
  8
Defpoints
 62
     0
100
AcDbPoint
 10
-10.0
 20
1.199996948242188
 30
0.0
  0
POINT
  5
F9
330
F1
100
AcDbEntity
  8
Defpoints
 62
     0
100
AcDbPoint
 10
9.999910354614258
 20
1.199996948242188
 30
0.0
  0
POINT
  5
FA
330
F1
100
AcDbEntity
  8
Defpoints
 62
     0
100
AcDbPoint
 10
9.999910354614265
 20
61.51486587524414
 30
0.0
  0
ENDBLK
  5
F3
330
F1
100
AcDbEntity
  8
0
100
AcDbBlockEnd
  0
BLOCK
  5
165
330
164
100
AcDbEntity
  8
0
100
AcDbBlockBegin
  2
*D14
 70
     1
 10
0.0
 20
0.0
 30
0.0
  3
*D14
  1

  0
LINE
  5
167
330
164
100
AcDbEntity
  8
0
 62
     0
370
    -2
100
AcDbLine
 10
-10.0
 20
3.739996948242188
 30
0.0
 11
-9.999999999999986
 21
71.09814453125
 31
0.0
  0
LINE
  5
168
330
164
100
AcDbEntity
  8
0
 62
     0
370
    -2
100
AcDbLine
 10
88.0
 20
43.02783874511719
 30
0.0
 11
88.0
 21
71.09814453124999
 31
0.0
  0
LINE
  5
169
330
164
100
AcDbEntity
  8
0
 62
     0
370
    -2
100
AcDbLine
 10
-6.999999999999986
 20
70.09814453125
 30
0.0
 11
85.0
 21
70.09814453124999
 31
0.0
  0
INSERT
  5
16A
330
164
100
AcDbEntity
  8
0
 62
     0
370
    -2
100
AcDbBlockReference
  2
_OPEN30
 10
-9.999999999999986
 20
70.09814453125
 30
0.0
 41
3.0
 42
3.0
 43
3.0
 50
180.0
  0
INSERT
  5
16B
330
164
100
AcDbEntity
  8
0
 62
     0
370
    -2
100
AcDbBlockReference
  2
_OPEN30
 10
88.0
 20
70.09814453124999
 30
0.0
 41
3.0
 42
3.0
 43
3.0
 50
360.0
  0
MTEXT
  5
16C
330
164
100
AcDbEntity
  8
0
 62
     1
100
AcDbMText
 10
36.98334939575195
 20
72.51254456722737
 30
0.0
 40
3.200000047683716
 41
0.0
 71
     5
 72
     1
  1
98
 73
     1
 44
1.0
  0
POINT
  5
16D
330
164
100
AcDbEntity
  8
Defpoints
 62
     0
100
AcDbPoint
 10
-10.0
 20
1.199996948242188
 30
0.0
  0
POINT
  5
16E
330
164
100
AcDbEntity
  8
Defpoints
 62
     0
100
AcDbPoint
 10
88.0
 20
40.48783874511719
 30
0.0
  0
POINT
  5
16F
330
164
100
AcDbEntity
  8
Defpoints
 62
     0
100
AcDbPoint
 10
88.00000000000001
 20
70.09814453125
 30
0.0
  0
ENDBLK
  5
166
330
164
100
AcDbEntity
  8
0
100
AcDbBlockEnd
  0
BLOCK
  5
172
330
171
100
AcDbEntity
  8
0
100
AcDbBlockBegin
  2
*D15
 70
     1
 10
0.0
 20
0.0
 30
0.0
  3
*D15
  1

  0
LINE
  5
174
330
171
100
AcDbEntity
  8
0
 62
     0
370
    -2
100
AcDbLine
 10
9.999910354614258
 20
3.739996948242188
 30
0.0
 11
9.999910354614272
 21
62.51486587524414
 31
0.0
  0
LINE
  5
175
330
171
100
AcDbEntity
  8
0
 62
     0
370
    -2
100
AcDbLine
 10
12.99991035461427
 20
61.51486587524414
 30
0.0
 11
85.0
 21
61.51486587524413
 31
0.0
  0
INSERT
  5
176
330
171
100
AcDbEntity
  8
0
 62
     0
370
    -2
100
AcDbBlockReference
  2
_OPEN30
 10
9.999910354614272
 20
61.51486587524414
 30
0.0
 41
3.0
 42
3.0
 43
3.0
 50
180.0
  0
INSERT
  5
177
330
171
100
AcDbEntity
  8
0
 62
     0
370
    -2
100
AcDbBlockReference
  2
_OPEN30
 10
88.0
 20
61.51486587524413
 30
0.0
 41
3.0
 42
3.0
 43
3.0
 50
360.0
  0
MTEXT
  5
178
330
171
100
AcDbEntity
  8
0
 62
     1
100
AcDbMText
 10
45.98875482177734
 20
63.92926591122151
 30
0.0
 40
3.200000047683716
 41
0.0
 71
     5
 72
     1
  1
78
 73
     1
 44
1.0
  0
POINT
  5
179
330
171
100
AcDbEntity
  8
Defpoints
 62
     0
100
AcDbPoint
 10
9.999910354614258
 20
1.199996948242188
 30
0.0
  0
POINT
  5
17A
330
171
100
AcDbEntity
  8
Defpoints
 62
     0
100
AcDbPoint
 10
88.0
 20
44.06312561035156
 30
0.0
  0
POINT
  5
17B
330
171
100
AcDbEntity
  8
Defpoints
 62
     0
100
AcDbPoint
 10
88.00000000000001
 20
61.51486587524414
 30
0.0
  0
ENDBLK
  5
173
330
171
100
AcDbEntity
  8
0
100
AcDbBlockEnd
  0
BLOCK
  5
17E
330
17D
100
AcDbEntity
  8
0
100
AcDbBlockBegin
  2
*D16
 70
     1
 10
0.0
 20
0.0
 30
0.0
  3
*D16
  1

  0
LINE
  5
180
330
17D
100
AcDbEntity
  8
0
 62
     0
370
    -2
100
AcDbLine
 10
87.54
 20
43.48783874511719
 30
0.0
 11
113.3307958374023
 21
43.4878387451172
 31
0.0
  0
LINE
  5
181
330
17D
100
AcDbEntity
  8
0
 62
     0
370
    -2
100
AcDbLine
 10
89.3399267578125
 20
-16.51216125488281
 30
0.0
 11
113.3307958374024
 21
-16.5121612548828
 31
0.0
  0
LINE
  5
182
330
17D
100
AcDbEntity
  8
0
 62
     0
370
    -2
100
AcDbLine
 10
112.3307958374023
 20
40.4878387451172
 30
0.0
 11
112.3307958374024
 21
-13.5121612548828
 31
0.0
  0
INSERT
  5
183
330
17D
100
AcDbEntity
  8
0
 62
     0
370
    -2
100
AcDbBlockReference
  2
_OPEN30
 10
112.3307958374023
 20
43.4878387451172
 30
0.0
 41
3.0
 42
3.0
 43
3.0
 50
90.00000000000001
  0
INSERT
  5
184
330
17D
100
AcDbEntity
  8
0
 62
     0
370
    -2
100
AcDbBlockReference
  2
_OPEN30
 10
112.3307958374024
 20
-16.5121612548828
 30
0.0
 41
3.0
 42
3.0
 43
3.0
 50
270.0
  0
MTEXT
  5
185
330
17D
100
AcDbEntity
  8
0
 62
     1
100
AcDbMText
 10
109.916395801425
 20
16.44135720825195
 30
0.0
 40
3.200000047683716
 41
0.0
 71
     5
 72
     1
  1
60
 11
-4.736951571734001E-16
 21
1.0
 31
0.0
 73
     1
 44
1.0
  0
POINT
  5
186
330
17D
100
AcDbEntity
  8
Defpoints
 62
     0
100
AcDbPoint
 10
85.0
 20
43.48783874511719
 30
0.0
  0
POINT
  5
187
330
17D
100
AcDbEntity
  8
Defpoints
 62
     0
100
AcDbPoint
 10
86.7999267578125
 20
-16.51216125488281
 30
0.0
  0
POINT
  5
188
330
17D
100
AcDbEntity
  8
Defpoints
 62
     0
100
AcDbPoint
 10
112.3297958374023
 20
-16.5121612548828
 30
0.0
  0
ENDBLK
  5
17F
330
17D
100
AcDbEntity
  8
0
100
AcDbBlockEnd
  0
BLOCK
  5
18B
330
18A
100
AcDbEntity
  8
0
100
AcDbBlockBegin
  2
*D17
 70
     1
 10
0.0
 20
0.0
 30
0.0
  3
*D17
  1

  0
LINE
  5
18D
330
18A
100
AcDbEntity
  8
0
 62
     0
370
    -2
100
AcDbLine
 10
24.65405464172363
 20
35.16591171264648
 30
0.0
 11
24.65405464172363
 21
54.91655349731445
 31
0.0
  0
LINE
  5
18E
330
18A
100
AcDbEntity
  8
0
 62
     0
370
    -2
100
AcDbLine
 10
27.65405464172363
 20
53.91655349731445
 30
0.0
 11
85.0
 21
53.91655349731445
 31
0.0
  0
INSERT
  5
18F
330
18A
100
AcDbEntity
  8
0
 62
     0
370
    -2
100
AcDbBlockReference
  2
_OPEN30
 10
24.65405464172363
 20
53.91655349731445
 30
0.0
 41
3.0
 42
3.0
 43
3.0
 50
180.0
  0
INSERT
  5
190
330
18A
100
AcDbEntity
  8
0
 62
     0
370
    -2
100
AcDbBlockReference
  2
_OPEN30
 10
88.0
 20
53.91655349731445
 30
0.0
 41
3.0
 42
3.0
 43
3.0
 50
360.0
  0
MTEXT
  5
191
330
18A
100
AcDbEntity
  8
0
 62
     1
100
AcDbMText
 10
54.1499028930664
 20
56.33735353338719
 30
0.0
 40
3.200000047683716
 41
0.0
 71
     5
 72
     1
  1
63.3
 73
     1
 44
1.0
  0
POINT
  5
192
330
18A
100
AcDbEntity
  8
Defpoints
 62
     0
100
AcDbPoint
 10
24.65405464172363
 20
32.62591171264648
 30
0.0
  0
POINT
  5
193
330
18A
100
AcDbEntity
  8
Defpoints
 62
     0
100
AcDbPoint
 10
88.0
 20
40.48783874511719
 30
0.0
  0
POINT
  5
194
330
18A
100
AcDbEntity
  8
Defpoints
 62
     0
100
AcDbPoint
 10
88.0
 20
53.91655349731445
 30
0.0
  0
ENDBLK
  5
18C
330
18A
100
AcDbEntity
  8
0
100
AcDbBlockEnd
  0
BLOCK
  5
197
330
196
100
AcDbEntity
  8
0
100
AcDbBlockBegin
  2
*D18
 70
     1
 10
0.0
 20
0.0
 30
0.0
  3
*D18
  1

  0
LINE
  5
199
330
196
100
AcDbEntity
  8
0
 62
     0
370
    -2
100
AcDbLine
 10
-6.999999999999993
 20
61.51486587524414
 30
0.0
 11
6.999910354614265
 21
61.51486587524414
 31
0.0
  0
INSERT
  5
19A
330
196
100
AcDbEntity
  8
0
 62
     0
370
    -2
100
AcDbBlockReference
  2
_OPEN30
 10
-9.999999999999993
 20
61.51486587524414
 30
0.0
 41
3.0
 42
3.0
 43
3.0
 50
180.0
  0
INSERT
  5
19B
330
196
100
AcDbEntity
  8
0
 62
     0
370
    -2
100
AcDbBlockReference
  2
_OPEN30
 10
9.999910354614265
 20
61.51486587524414
 30
0.0
 41
3.0
 42
3.0
 43
3.0
  0
MTEXT
  5
19C
330
196
100
AcDbEntity
  8
0
 62
     1
100
AcDbMText
 10
1.500955177307129
 20
63.92926591122151
 30
0.0
 40
3.200000047683716
 41
0.0
 71
     5
 72
     1
  1
20
 73
     1
 44
1.0
  0
POINT
  5
19D
330
196
100
AcDbEntity
  8
Defpoints
 62
     0
100
AcDbPoint
 10
-10.0
 20
1.199996948242188
 30
0.0
  0
POINT
  5
19E
330
196
100
AcDbEntity
  8
Defpoints
 62
     0
100
AcDbPoint
 10
9.999910354614258
 20
1.199996948242188
 30
0.0
  0
POINT
  5
19F
330
196
100
AcDbEntity
  8
Defpoints
 62
     0
100
AcDbPoint
 10
9.999910354614265
 20
61.51486587524414
 30
0.0
  0
ENDBLK
  5
198
330
196
100
AcDbEntity
  8
0
100
AcDbBlockEnd
  0
BLOCK
  5
1E8
330
1E7
100
AcDbEntity
  8
0
100
AcDbBlockBegin
  2
*D19
 70
     1
 10
0.0
 20
0.0
 30
0.0
  3
*D19
  1

  0
LINE
  5
1EA
330
1E7
100
AcDbEntity
  8
0
 62
     0
370
    -2
100
AcDbLine
 10
0.000000000000001
 20
9.887137451171874
 30
0.0
 11
0.000000000000014
 21
68.1250991821289
 31
0.0
  0
LINE
  5
1EB
330
1E7
100
AcDbEntity
  8
0
 62
     0
370
    -2
100
AcDbLine
 10
3.000000000000014
 20
67.1250991821289
 30
0.0
 11
107.0000534057617
 21
67.12509918212889
 31
0.0
  0
INSERT
  5
1EC
330
1E7
100
AcDbEntity
  8
0
 62
     0
370
    -2
100
AcDbBlockReference
  2
_OPEN30
 10
0.000000000000014
 20
67.1250991821289
 30
0.0
 41
3.0
 42
3.0
 43
3.0
 50
180.0
  0
INSERT
  5
1ED
330
1E7
100
AcDbEntity
  8
0
 62
     0
370
    -2
100
AcDbBlockReference
  2
_OPEN30
 10
110.0000534057617
 20
67.12509918212889
 30
0.0
 41
3.0
 42
3.0
 43
3.0
 50
360.0
  0
MTEXT
  5
1EE
330
1E7
100
AcDbEntity
  8
0
 62
     1
100
AcDbMText
 10
49.16592080688476
 20
69.53949921810627
 30
0.0
 40
3.200000047683716
 41
0.0
 71
     5
 72
     1
  1
110
 73
     1
 44
1.0
  0
POINT
  5
1EF
330
1E7
100
AcDbEntity
  8
Defpoints
 62
     0
100
AcDbPoint
 10
0.0
 20
7.347137451171875
 30
0.0
  0
POINT
  5
1F0
330
1E7
100
AcDbEntity
  8
Defpoints
 62
     0
100
AcDbPoint
 10
110.0000534057617
 20
43.41412353515625
 30
0.0
  0
POINT
  5
1F1
330
1E7
100
AcDbEntity
  8
Defpoints
 62
     0
100
AcDbPoint
 10
110.0000534057617
 20
67.1250991821289
 30
0.0
  0
ENDBLK
  5
1E9
330
1E7
100
AcDbEntity
  8
0
100
AcDbBlockEnd
  0
BLOCK
  5
1F4
330
1F3
100
AcDbEntity
  8
0
100
AcDbBlockBegin
  2
*D20
 70
     1
 10
0.0
 20
0.0
 30
0.0
  3
*D20
  1

  0
LINE
  5
1F6
330
1F3
100
AcDbEntity
  8
0
 62
     0
370
    -2
100
AcDbLine
 10
-10.0
 20
3.739996948242188
 30
0.0
 11
-9.999999999999986
 21
74.7427749633789
 31
0.0
  0
LINE
  5
1F7
330
1F3
100
AcDbEntity
  8
0
 62
     0
370
    -2
100
AcDbLine
 10
110.0000534057617
 20
45.95412353515625
 30
0.0
 11
110.0000534057617
 21
74.74277496337889
 31
0.0
  0
LINE
  5
1F8
330
1F3
100
AcDbEntity
  8
0
 62
     0
370
    -2
100
AcDbLine
 10
-6.999999999999986
 20
73.7427749633789
 30
0.0
 11
107.0000534057617
 21
73.74277496337889
 31
0.0
  0
INSERT
  5
1F9
330
1F3
100
AcDbEntity
  8
0
 62
     0
370
    -2
100
AcDbBlockReference
  2
_OPEN30
 10
-9.999999999999986
 20
73.7427749633789
 30
0.0
 41
3.0
 42
3.0
 43
3.0
 50
180.0
  0
INSERT
  5
1FA
330
1F3
100
AcDbEntity
  8
0
 62
     0
370
    -2
100
AcDbBlockReference
  2
_OPEN30
 10
110.0000534057617
 20
73.74277496337889
 30
0.0
 41
3.0
 42
3.0
 43
3.0
 50
360.0
  0
MTEXT
  5
1FB
330
1F3
100
AcDbEntity
  8
0
 62
     1
100
AcDbMText
 10
48.59869058227539
 20
76.15717499935627
 30
0.0
 40
3.200000047683716
 41
0.0
 71
     5
 72
     1
  1
120
 73
     1
 44
1.0
  0
POINT
  5
1FC
330
1F3
100
AcDbEntity
  8
Defpoints
 62
     0
100
AcDbPoint
 10
-10.0
 20
1.199996948242188
 30
0.0
  0
POINT
  5
1FD
330
1F3
100
AcDbEntity
  8
Defpoints
 62
     0
100
AcDbPoint
 10
110.0000534057617
 20
43.41412353515625
 30
0.0
  0
POINT
  5
1FE
330
1F3
100
AcDbEntity
  8
Defpoints
 62
     0
100
AcDbPoint
 10
110.0000534057617
 20
73.7427749633789
 30
0.0
  0
ENDBLK
  5
1F5
330
1F3
100
AcDbEntity
  8
0
100
AcDbBlockEnd
  0
BLOCK
  5
201
330
200
100
AcDbEntity
  8
0
100
AcDbBlockBegin
  2
*D21
 70
     1
 10
0.0
 20
0.0
 30
0.0
  3
*D21
  1

  0
MTEXT
  5
20A
330
200
100
AcDbEntity
  8
0
 62
     1
100
AcDbMText
 10
-21.74240008556842
 20
63.80016404974461
 30
0.0
 40
3.200000047683716
 41
0.0
 71
     5
 72
     1
  1
7.25
 73
     1
 44
1.0
  0
POINT
  5
20B
330
200
100
AcDbEntity
  8
Defpoints
 62
     0
100
AcDbPoint
 10
-10.0
 20
1.199996948242188
 30
0.0
  0
POINT
  5
20C
330
200
100
AcDbEntity
  8
Defpoints
 62
     0
100
AcDbPoint
 10
-2.75
 20
1.199996948242188
 30
0.0
  0
POINT
  5
20D
330
200
100
AcDbEntity
  8
Defpoints
 62
     0
100
AcDbPoint
 10
-2.749999999999992
 20
61.37936401367188
 30
0.0
  0
LINE
  5
20E
330
200
100
AcDbEntity
  8
0
  6
Continuous
 62
     0
100
AcDbLine
 10
-2.75
 20
3.739996948242188
 30
0.0
 11
-2.75
 21
62.37936401367188
 31
0.0
  0
LINE
  5
20F
330
200
100
AcDbEntity
  8
0
  6
Continuous
 62
     0
100
AcDbLine
 10
-16.35
 20
61.37936401367188
 30
0.0
 11
3.6
 21
61.37936401367188
 31
0.0
  0
LINE
  5
210
330
200
100
AcDbEntity
  8
0
  6
Continuous
 62
     0
100
AcDbLine
 10
-10.0
 20
61.37936401367188
 30
0.0
 11
-13.05452566200562
 21
60.56090632937187
 31
0.0
  0
LINE
  5
211
330
200
100
AcDbEntity
  8
0
  6
Continuous
 62
     0
100
AcDbLine
 10
-10.0
 20
61.37936401367188
 30
0.0
 11
-13.05452566200562
 21
62.19782169797188
 31
0.0
  0
LINE
  5
212
330
200
100
AcDbEntity
  8
0
  6
Continuous
 62
     0
100
AcDbLine
 10
-2.75
 20
61.37936401367188
 30
0.0
 11
0.304525662005624
 21
62.19782169797188
 31
0.0
  0
LINE
  5
213
330
200
100
AcDbEntity
  8
0
  6
Continuous
 62
     0
100
AcDbLine
 10
-2.75
 20
61.37936401367188
 30
0.0
 11
0.304525662005624
 21
60.56090632937187
 31
0.0
  0
LINE
  5
214
330
200
100
AcDbEntity
  8
0
  6
Continuous
 62
     0
100
AcDbLine
 10
-10.0
 20
61.37936401367188
 30
0.0
 11
-22.02435111999512
 21
61.37936401367188
 31
0.0
  0
ENDBLK
  5
202
330
200
100
AcDbEntity
  8
0
100
AcDbBlockEnd
  0
BLOCK
  5
217
330
216
100
AcDbEntity
  8
0
100
AcDbBlockBegin
  2
*D22
 70
     1
 10
0.0
 20
0.0
 30
0.0
  3
*D22
  1

  0
MTEXT
  5
21D
330
216
100
AcDbEntity
  8
0
 62
     1
100
AcDbMText
 10
4.922027660369873
 20
53.08984559261799
 30
0.0
 40
3.200000047683716
 41
0.0
 71
     5
 72
     1
  1
20
 73
     1
 44
1.0
  0
POINT
  5
21E
330
216
100
AcDbEntity
  8
Defpoints
 62
     0
100
AcDbPoint
 10
-10.0
 20
1.199996948242188
 30
0.0
  0
POINT
  5
21F
330
216
100
AcDbEntity
  8
Defpoints
 62
     0
100
AcDbPoint
 10
9.999968528747559
 20
1.199996948242188
 30
0.0
  0
POINT
  5
220
330
216
100
AcDbEntity
  8
Defpoints
 62
     0
100
AcDbPoint
 10
9.999968528747564
 20
50.67544555664062
 30
0.0
  0
LINE
  5
221
330
216
100
AcDbEntity
  8
0
  6
Continuous
 62
     0
100
AcDbLine
 10
9.999968528747559
 20
3.739996948242188
 30
0.0
 11
9.999968528747559
 21
51.67544555664062
 31
0.0
  0
LINE
  5
222
330
216
100
AcDbEntity
  8
0
  6
Continuous
 62
     0
100
AcDbLine
 10
-16.35
 20
50.67544555664062
 30
0.0
 11
16.34996852874756
 21
50.67544555664062
 31
0.0
  0
LINE
  5
223
330
216
100
AcDbEntity
  8
0
  6
Continuous
 62
     0
100
AcDbLine
 10
-10.0
 20
50.67544555664062
 30
0.0
 11
-13.05452566200562
 21
49.85698787234062
 31
0.0
  0
LINE
  5
224
330
216
100
AcDbEntity
  8
0
  6
Continuous
 62
     0
100
AcDbLine
 10
-10.0
 20
50.67544555664062
 30
0.0
 11
-13.05452566200562
 21
51.49390324094063
 31
0.0
  0
LINE
  5
225
330
216
100
AcDbEntity
  8
0
  6
Continuous
 62
     0
100
AcDbLine
 10
9.999968528747559
 20
50.67544555664062
 30
0.0
 11
13.05449419075318
 21
51.49390324094063
 31
0.0
  0
LINE
  5
226
330
216
100
AcDbEntity
  8
0
  6
Continuous
 62
     0
100
AcDbLine
 10
9.999968528747559
 20
50.67544555664062
 30
0.0
 11
13.05449419075318
 21
49.85698787234062
 31
0.0
  0
ENDBLK
  5
218
330
216
100
AcDbEntity
  8
0
100
AcDbBlockEnd
  0
BLOCK
  5
229
330
228
100
AcDbEntity
  8
0
100
AcDbBlockBegin
  2
*D23
 70
     1
 10
0.0
 20
0.0
 30
0.0
  3
*D23
  1

  0
LINE
  5
22B
330
228
100
AcDbEntity
  8
0
 62
     0
370
    -2
100
AcDbLine
 10
25.935791015625
 20
35.07500747680664
 30
0.0
 11
25.93579101562501
 21
61.50742340087891
 31
0.0
  0
LINE
  5
22C
330
228
100
AcDbEntity
  8
0
 62
     0
370
    -2
100
AcDbLine
 10
28.93579101562501
 20
60.50742340087891
 30
0.0
 11
107.0000534057617
 21
60.5074234008789
 31
0.0
  0
INSERT
  5
22D
330
228
100
AcDbEntity
  8
0
 62
     0
370
    -2
100
AcDbBlockReference
  2
_OPEN30
 10
25.93579101562501
 20
60.50742340087891
 30
0.0
 41
3.0
 42
3.0
 43
3.0
 50
180.0
  0
INSERT
  5
22E
330
228
100
AcDbEntity
  8
0
 62
     0
370
    -2
100
AcDbBlockReference
  2
_OPEN30
 10
110.0000534057617
 20
60.5074234008789
 30
0.0
 41
3.0
 42
3.0
 43
3.0
 50
360.0
  0
MTEXT
  5
22F
330
228
100
AcDbEntity
  8
0
 62
     1
100
AcDbMText
 10
63.91388375854492
 20
62.92822343695164
 30
0.0
 40
3.200000047683716
 41
0.0
 71
     5
 72
     1
  1
84.1
 73
     1
 44
1.0
  0
POINT
  5
230
330
228
100
AcDbEntity
  8
Defpoints
 62
     0
100
AcDbPoint
 10
25.935791015625
 20
32.53500747680664
 30
0.0
  0
POINT
  5
231
330
228
100
AcDbEntity
  8
Defpoints
 62
     0
100
AcDbPoint
 10
110.0000534057617
 20
43.41412353515625
 30
0.0
  0
POINT
  5
232
330
228
100
AcDbEntity
  8
Defpoints
 62
     0
100
AcDbPoint
 10
110.0000534057617
 20
60.50742340087891
 30
0.0
  0
ENDBLK
  5
22A
330
228
100
AcDbEntity
  8
0
100
AcDbBlockEnd
  0
BLOCK
  5
235
330
234
100
AcDbEntity
  8
0
100
AcDbBlockBegin
  2
*D24
 70
     1
 10
0.0
 20
0.0
 30
0.0
  3
*D24
  1

  0
LINE
  5
237
330
234
100
AcDbEntity
  8
0
 62
     0
370
    -2
100
AcDbLine
 10
0.0
 20
-11.8509130859375
 30
0.0
 11
0.0
 21
-47.19900076293945
 31
0.0
  0
LINE
  5
238
330
234
100
AcDbEntity
  8
0
 62
     0
370
    -2
100
AcDbLine
 10
110.0000534057617
 20
-16.12587646484375
 30
0.0
 11
110.0000534057617
 21
-47.19900076293946
 31
0.0
  0
LINE
  5
239
330
234
100
AcDbEntity
  8
0
 62
     0
370
    -2
100
AcDbLine
 10
3.0
 20
-46.19900076293945
 30
0.0
 11
107.0000534057617
 21
-46.19900076293946
 31
0.0
  0
INSERT
  5
23A
330
234
100
AcDbEntity
  8
0
 62
     0
370
    -2
100
AcDbBlockReference
  2
_OPEN30
 10
0.0
 20
-46.19900076293945
 30
0.0
 41
3.0
 42
3.0
 43
3.0
 50
180.0
  0
INSERT
  5
23B
330
234
100
AcDbEntity
  8
0
 62
     0
370
    -2
100
AcDbBlockReference
  2
_OPEN30
 10
110.0000534057617
 20
-46.19900076293946
 30
0.0
 41
3.0
 42
3.0
 43
3.0
 50
360.0
  0
MTEXT
  5
23C
330
234
100
AcDbEntity
  8
0
 62
     1
100
AcDbMText
 10
53.0260015258789
 20
-43.78460072696209
 30
0.0
 40
3.200000047683716
 41
0.0
 71
     5
 72
     1
  1
110
 73
     1
 44
1.0
  0
POINT
  5
23D
330
234
100
AcDbEntity
  8
Defpoints
 62
     0
100
AcDbPoint
 10
0.0
 20
-9.3109130859375
 30
0.0
  0
POINT
  5
23E
330
234
100
AcDbEntity
  8
Defpoints
 62
     0
100
AcDbPoint
 10
110.0000534057617
 20
-13.58587646484375
 30
0.0
  0
POINT
  5
23F
330
234
100
AcDbEntity
  8
Defpoints
 62
     0
100
AcDbPoint
 10
110.0000534057617
 20
-46.20000076293945
 30
0.0
  0
ENDBLK
  5
236
330
234
100
AcDbEntity
  8
0
100
AcDbBlockEnd
  0
BLOCK
  5
443
330
442
100
AcDbEntity
  8
0
100
AcDbBlockBegin
  2
*D25
 70
     1
 10
0.0
 20
0.0
 30
0.0
  3
*D25
  1

  0
MTEXT
  5
44C
330
442
100
AcDbEntity
  8
0
 62
     1
100
AcDbMText
 10
-13.77616570651531
 20
-85.72974262750148
 30
0.0
 40
3.200000047683716
 41
0.0
 71
     5
 72
     1
  1
5.5
 73
     1
 44
1.0
  0
POINT
  5
44D
330
442
100
AcDbEntity
  8
Defpoints
 62
     0
100
AcDbPoint
 10
-3.560165643692017
 20
-75.15154266357422
 30
0.0
  0
POINT
  5
44E
330
442
100
AcDbEntity
  8
Defpoints
 62
     0
100
AcDbPoint
 10
-0.810165643692017
 20
-72.4765396118164
 30
0.0
  0
POINT
  5
44F
330
442
100
AcDbEntity
  8
Defpoints
 62
     0
100
AcDbPoint
 10
-0.810165643692018
 20
-88.15154266357422
 30
0.0
  0
LINE
  5
450
330
442
100
AcDbEntity
  8
0
  6
Continuous
 62
     7
100
AcDbLine
 10
-0.810165643692017
 20
-75.01653961181641
 30
0.0
 11
-0.810165643692017
 21
-90.15154266357422
 31
0.0
  0
LINE
  5
451
330
442
100
AcDbEntity
  8
0
  6
Continuous
 62
     7
100
AcDbLine
 10
-9.910165643692016
 20
-88.15154266357422
 30
0.0
 11
5.539834356307983
 21
-88.15154266357422
 31
0.0
  0
LINE
  5
452
330
442
100
AcDbEntity
  8
0
  6
Continuous
 62
     7
100
AcDbLine
 10
-3.560165643692017
 20
-88.15154266357422
 30
0.0
 11
-6.61469130569764
 21
-88.97000034787422
 31
0.0
  0
LINE
  5
453
330
442
100
AcDbEntity
  8
0
  6
Continuous
 62
     7
100
AcDbLine
 10
-3.560165643692017
 20
-88.15154266357422
 30
0.0
 11
-6.61469130569764
 21
-87.33308497927422
 31
0.0
  0
LINE
  5
454
330
442
100
AcDbEntity
  8
0
  6
Continuous
 62
     7
100
AcDbLine
 10
-0.810165643692017
 20
-88.15154266357422
 30
0.0
 11
2.244360018313607
 21
-87.33308497927422
 31
0.0
  0
LINE
  5
455
330
442
100
AcDbEntity
  8
0
  6
Continuous
 62
     7
100
AcDbLine
 10
-0.810165643692017
 20
-88.15154266357422
 30
0.0
 11
2.244360018313607
 21
-88.97000034787422
 31
0.0
  0
LINE
  5
456
330
442
100
AcDbEntity
  8
0
  6
Continuous
 62
     7
100
AcDbLine
 10
-3.560165643692017
 20
-88.15154266357422
 30
0.0
 11
-16.31195831298828
 21
-88.15154266357422
 31
0.0
  0
ENDBLK
  5
444
330
442
100
AcDbEntity
  8
0
100
AcDbBlockEnd
  0
BLOCK
  5
459
330
458
100
AcDbEntity
  8
0
100
AcDbBlockBegin
  2
*D26
 70
     1
 10
0.0
 20
0.0
 30
0.0
  3
*D26
  1

  0
LINE
  5
45B
330
458
100
AcDbEntity
  8
0
 62
     0
370
    -2
100
AcDbLine
 10
21.68983459472656
 20
-75.01653961181641
 30
0.0
 11
21.68983459472656
 21
-90.15054266357421
 31
0.0
  0
LINE
  5
45C
330
458
100
AcDbEntity
  8
0
 62
     0
370
    -2
100
AcDbLine
 10
2.18983435630798
 20
-88.15054266357421
 30
0.0
 11
18.68983459472656
 21
-88.15054266357421
 31
0.0
  0
INSERT
  5
45D
330
458
100
AcDbEntity
  8
0
 62
     0
370
    -2
100
AcDbBlockReference
  2
_OPEN30
 10
-0.81016564369202
 20
-88.15054266357421
 30
0.0
 41
3.0
 42
3.0
 43
3.0
 50
180.0
  0
INSERT
  5
45E
330
458
100
AcDbEntity
  8
0
 62
     0
370
    -2
100
AcDbBlockReference
  2
_OPEN30
 10
21.68983459472656
 20
-88.15054266357421
 30
0.0
 41
3.0
 42
3.0
 43
3.0
  0
MTEXT
  5
45F
330
458
100
AcDbEntity
  8
0
 62
     1
100
AcDbMText
 10
10.44083364105225
 20
-85.73614262759685
 30
0.0
 40
3.200000047683716
 41
0.0
 71
     5
 72
     1
  1
45
 73
     1
 44
1.0
  0
POINT
  5
460
330
458
100
AcDbEntity
  8
Defpoints
 62
     0
100
AcDbPoint
 10
-0.810165643692017
 20
-72.4765396118164
 30
0.0
  0
POINT
  5
461
330
458
100
AcDbEntity
  8
Defpoints
 62
     0
100
AcDbPoint
 10
21.68983459472656
 20
-72.4765396118164
 30
0.0
  0
POINT
  5
462
330
458
100
AcDbEntity
  8
Defpoints
 62
     0
100
AcDbPoint
 10
21.68983459472656
 20
-88.15154266357422
 30
0.0
  0
ENDBLK
  5
45A
330
458
100
AcDbEntity
  8
0
100
AcDbBlockEnd
  0
BLOCK
  5
465
330
464
100
AcDbEntity
  8
0
100
AcDbBlockBegin
  2
*D27
 70
     1
 10
0.0
 20
0.0
 30
0.0
  3
*D27
  1

  0
MTEXT
  5
46D
330
464
100
AcDbEntity
  8
0
 62
     1
100
AcDbMText
 10
34.65583465754985
 20
-85.72974262750148
 30
0.0
 40
3.200000047683716
 41
0.0
 71
     5
 72
     1
  1
5.5
 73
     1
 44
1.0
  0
POINT
  5
46E
330
464
100
AcDbEntity
  8
Defpoints
 62
     0
100
AcDbPoint
 10
21.68983459472656
 20
-72.4765396118164
 30
0.0
  0
POINT
  5
46F
330
464
100
AcDbEntity
  8
Defpoints
 62
     0
100
AcDbPoint
 10
24.43983459472656
 20
-72.65154266357422
 30
0.0
  0
POINT
  5
470
330
464
100
AcDbEntity
  8
Defpoints
 62
     0
100
AcDbPoint
 10
24.43983459472656
 20
-88.15154266357422
 30
0.0
  0
LINE
  5
471
330
464
100
AcDbEntity
  8
0
  6
Continuous
 62
     7
100
AcDbLine
 10
15.33983459472656
 20
-88.15154266357422
 30
0.0
 11
30.78983459472656
 21
-88.15154266357422
 31
0.0
  0
LINE
  5
472
330
464
100
AcDbEntity
  8
0
  6
Continuous
 62
     7
100
AcDbLine
 10
21.68983459472656
 20
-88.15154266357422
 30
0.0
 11
18.63530893272094
 21
-88.97000034787422
 31
0.0
  0
LINE
  5
473
330
464
100
AcDbEntity
  8
0
  6
Continuous
 62
     7
100
AcDbLine
 10
21.68983459472656
 20
-88.15154266357422
 30
0.0
 11
18.63530893272094
 21
-87.33308497927422
 31
0.0
  0
LINE
  5
474
330
464
100
AcDbEntity
  8
0
  6
Continuous
 62
     7
100
AcDbLine
 10
24.43983459472656
 20
-88.15154266357422
 30
0.0
 11
27.49436025673219
 21
-87.33308497927422
 31
0.0
  0
LINE
  5
475
330
464
100
AcDbEntity
  8
0
  6
Continuous
 62
     7
100
AcDbLine
 10
24.43983459472656
 20
-88.15154266357422
 30
0.0
 11
27.49436025673219
 21
-88.97000034787422
 31
0.0
  0
LINE
  5
476
330
464
100
AcDbEntity
  8
0
  6
Continuous
 62
     7
100
AcDbLine
 10
24.43983459472656
 20
-88.15154266357422
 30
0.0
 11
36.5187873840332
 21
-88.15154266357422
 31
0.0
  0
ENDBLK
  5
466
330
464
100
AcDbEntity
  8
0
100
AcDbBlockEnd
  0
BLOCK
  5
479
330
478
100
AcDbEntity
  8
0
100
AcDbBlockBegin
  2
*D28
 70
     1
 10
0.0
 20
0.0
 30
0.0
  3
*D28
  1

  0
LINE
  5
47B
330
478
100
AcDbEntity
  8
0
 62
     0
370
    -2
100
AcDbLine
 10
24.43983459472656
 20
-75.19154266357423
 30
0.0
 11
24.43983459472656
 21
-100.1505426635742
 31
0.0
  0
LINE
  5
47C
330
478
100
AcDbEntity
  8
0
 62
     0
370
    -2
100
AcDbLine
 10
-3.560165643692017
 20
-77.69154266357423
 30
0.0
 11
-3.560165643692017
 21
-100.1505426635742
 31
0.0
  0
LINE
  5
47D
330
478
100
AcDbEntity
  8
0
 62
     0
370
    -2
100
AcDbLine
 10
21.43983459472656
 20
-98.15054266357421
 30
0.0
 11
-0.560165643692017
 21
-98.15054266357421
 31
0.0
  0
INSERT
  5
47E
330
478
100
AcDbEntity
  8
0
 62
     0
370
    -2
100
AcDbBlockReference
  2
_OPEN30
 10
24.43983459472656
 20
-98.15054266357421
 30
0.0
 41
3.0
 42
3.0
 43
3.0
  0
INSERT
  5
47F
330
478
100
AcDbEntity
  8
0
 62
     0
370
    -2
100
AcDbBlockReference
  2
_OPEN30
 10
-3.560165643692017
 20
-98.15054266357421
 30
0.0
 41
3.0
 42
3.0
 43
3.0
 50
180.0
  0
MTEXT
  5
480
330
478
100
AcDbEntity
  8
0
 62
     1
100
AcDbMText
 10
10.44183364105224
 20
-95.73614262759685
 30
0.0
 40
3.200000047683716
 41
0.0
 71
     5
 72
     1
  1
56
 73
     1
 44
1.0
  0
POINT
  5
481
330
478
100
AcDbEntity
  8
Defpoints
 62
     0
100
AcDbPoint
 10
24.43983459472656
 20
-72.65154266357422
 30
0.0
  0
POINT
  5
482
330
478
100
AcDbEntity
  8
Defpoints
 62
     0
100
AcDbPoint
 10
-3.560165643692017
 20
-75.15154266357422
 30
0.0
  0
POINT
  5
483
330
478
100
AcDbEntity
  8
Defpoints
 62
     0
100
AcDbPoint
 10
-3.560165643692017
 20
-98.15154266357422
 30
0.0
  0
ENDBLK
  5
47A
330
478
100
AcDbEntity
  8
0
100
AcDbBlockEnd
  0
BLOCK
  5
486
330
485
100
AcDbEntity
  8
0
100
AcDbBlockBegin
  2
*D29
 70
     1
 10
0.0
 20
0.0
 30
0.0
  3
*D29
  1

  0
MTEXT
  5
48F
330
485
100
AcDbEntity
  8
0
 62
     1
100
AcDbMText
 10
-15.97356639492512
 20
-82.96594269061089
 30
0.0
 40
3.200000047683716
 41
0.0
 71
     5
 72
     1
  1
9
 11
0.0
 21
1.0
 31
0.0
 73
     1
 44
1.0
  0
POINT
  5
490
330
485
100
AcDbEntity
  8
Defpoints
 62
     0
100
AcDbPoint
 10
-1.060165643692017
 20
-75.15154266357422
 30
0.0
  0
POINT
  5
491
330
485
100
AcDbEntity
  8
Defpoints
 62
     0
100
AcDbPoint
 10
-2.635116815567017
 20
-70.65154266357422
 30
0.0
  0
POINT
  5
492
330
485
100
AcDbEntity
  8
Defpoints
 62
     0
100
AcDbPoint
 10
-13.56016635894775
 20
-70.65154266357422
 30
0.0
  0
LINE
  5
493
330
485
100
AcDbEntity
  8
0
  6
Continuous
 62
     7
100
AcDbLine
 10
-5.175116815567017
 20
-70.65154266357422
 30
0.0
 11
-15.56016635894775
 21
-70.65154266357422
 31
0.0
  0
LINE
  5
494
330
485
100
AcDbEntity
  8
0
  6
Continuous
 62
     7
100
AcDbLine
 10
-13.56016635894775
 20
-81.50154266357421
 30
0.0
 11
-13.56016635894775
 21
-64.30154266357422
 31
0.0
  0
LINE
  5
495
330
485
100
AcDbEntity
  8
0
  6
Continuous
 62
     7
100
AcDbLine
 10
-13.56016635894775
 20
-75.15154266357422
 30
0.0
 11
-12.74170867464775
 21
-78.20606832557985
 31
0.0
  0
LINE
  5
496
330
485
100
AcDbEntity
  8
0
  6
Continuous
 62
     7
100
AcDbLine
 10
-13.56016635894775
 20
-75.15154266357422
 30
0.0
 11
-14.37862404324775
 21
-78.20606832557985
 31
0.0
  0
LINE
  5
497
330
485
100
AcDbEntity
  8
0
  6
Continuous
 62
     7
100
AcDbLine
 10
-13.56016635894775
 20
-70.65154266357422
 30
0.0
 11
-14.37862404324775
 21
-67.59701700156859
 31
0.0
  0
LINE
  5
498
330
485
100
AcDbEntity
  8
0
  6
Continuous
 62
     7
100
AcDbLine
 10
-13.56016635894775
 20
-70.65154266357422
 30
0.0
 11
-12.74170867464775
 21
-67.59701700156859
 31
0.0
  0
LINE
  5
499
330
485
100
AcDbEntity
  8
0
  6
Continuous
 62
     7
100
AcDbLine
 10
-13.56016635894775
 20
-75.15154266357422
 30
0.0
 11
-13.56016635894775
 21
-81.54467010498047
 31
0.0
  0
ENDBLK
  5
487
330
485
100
AcDbEntity
  8
0
100
AcDbBlockEnd
  0
BLOCK
  5
49C
330
49B
100
AcDbEntity
  8
0
100
AcDbBlockBegin
  2
*D30
 70
     1
 10
0.0
 20
0.0
 30
0.0
  3
*D30
  1

  0
LINE
  5
49E
330
49B
100
AcDbEntity
  8
0
 62
     0
370
    -2
100
AcDbLine
 10
-5.225165643692017
 20
-60.15154266357422
 30
0.0
 11
-15.55916635894775
 21
-60.15154266357422
 31
0.0
  0
LINE
  5
49F
330
49B
100
AcDbEntity
  8
0
 62
     0
370
    -2
100
AcDbLine
 10
-13.55916635894776
 20
-67.65154266357422
 30
0.0
 11
-13.55916635894775
 21
-63.15154266357422
 31
0.0
  0
INSERT
  5
4A0
330
49B
100
AcDbEntity
  8
0
 62
     0
370
    -2
100
AcDbBlockReference
  2
_OPEN30
 10
-13.55916635894776
 20
-70.65154266357422
 30
0.0
 41
3.0
 42
3.0
 43
3.0
 50
270.0
  0
INSERT
  5
4A1
330
49B
100
AcDbEntity
  8
0
 62
     0
370
    -2
100
AcDbBlockReference
  2
_OPEN30
 10
-13.55916635894775
 20
-60.15154266357422
 30
0.0
 41
3.0
 42
3.0
 43
3.0
 50
90.0
  0
MTEXT
  5
4A2
330
49B
100
AcDbEntity
  8
0
 62
     1
100
AcDbMText
 10
-15.97356639492512
 20
-65.40054266357421
 30
0.0
 40
3.200000047683716
 41
0.0
 71
     5
 72
     1
  1
21
 11
1.691768418476429E-16
 21
1.0
 31
0.0
 73
     1
 44
1.0
  0
POINT
  5
4A3
330
49B
100
AcDbEntity
  8
Defpoints
 62
     0
100
AcDbPoint
 10
-2.635116815567017
 20
-70.65154266357422
 30
0.0
  0
POINT
  5
4A4
330
49B
100
AcDbEntity
  8
Defpoints
 62
     0
100
AcDbPoint
 10
-2.685165643692017
 20
-60.15154266357422
 30
0.0
  0
POINT
  5
4A5
330
49B
100
AcDbEntity
  8
Defpoints
 62
     0
100
AcDbPoint
 10
-13.56016635894775
 20
-60.15154266357422
 30
0.0
  0
ENDBLK
  5
49D
330
49B
100
AcDbEntity
  8
0
100
AcDbBlockEnd
  0
BLOCK
  5
4A8
330
4A7
100
AcDbEntity
  8
0
100
AcDbBlockBegin
  2
*D31
 70
     1
 10
0.0
 20
0.0
 30
0.0
  3
*D31
  1

  0
MTEXT
  5
4B0
330
4A7
100
AcDbEntity
  8
0
 62
     1
100
AcDbMText
 10
-15.97356639492512
 20
-57.90054266357422
 30
0.0
 40
3.200000047683716
 41
0.0
 71
     5
 72
     1
  1
9
 11
0.0
 21
1.0
 31
0.0
 73
     1
 44
1.0
  0
POINT
  5
4B1
330
4A7
100
AcDbEntity
  8
Defpoints
 62
     0
100
AcDbPoint
 10
-2.685165643692017
 20
-60.15154266357422
 30
0.0
  0
POINT
  5
4B2
330
4A7
100
AcDbEntity
  8
Defpoints
 62
     0
100
AcDbPoint
 10
-2.635116815567017
 20
-55.65154266357422
 30
0.0
  0
POINT
  5
4B3
330
4A7
100
AcDbEntity
  8
Defpoints
 62
     0
100
AcDbPoint
 10
-13.56016635894775
 20
-55.65154266357422
 30
0.0
  0
LINE
  5
4B4
330
4A7
100
AcDbEntity
  8
0
  6
Continuous
 62
     7
100
AcDbLine
 10
-5.175116815567017
 20
-55.65154266357422
 30
0.0
 11
-15.56016635894775
 21
-55.65154266357422
 31
0.0
  0
LINE
  5
4B5
330
4A7
100
AcDbEntity
  8
0
  6
Continuous
 62
     7
100
AcDbLine
 10
-13.56016635894775
 20
-66.50154266357421
 30
0.0
 11
-13.56016635894775
 21
-49.30154266357422
 31
0.0
  0
LINE
  5
4B6
330
4A7
100
AcDbEntity
  8
0
  6
Continuous
 62
     7
100
AcDbLine
 10
-13.56016635894775
 20
-60.15154266357422
 30
0.0
 11
-12.74170867464775
 21
-63.20606832557984
 31
0.0
  0
LINE
  5
4B7
330
4A7
100
AcDbEntity
  8
0
  6
Continuous
 62
     7
100
AcDbLine
 10
-13.56016635894775
 20
-60.15154266357422
 30
0.0
 11
-14.37862404324775
 21
-63.20606832557984
 31
0.0
  0
LINE
  5
4B8
330
4A7
100
AcDbEntity
  8
0
  6
Continuous
 62
     7
100
AcDbLine
 10
-13.56016635894775
 20
-55.65154266357422
 30
0.0
 11
-14.37862404324775
 21
-52.5970170015686
 31
0.0
  0
LINE
  5
4B9
330
4A7
100
AcDbEntity
  8
0
  6
Continuous
 62
     7
100
AcDbLine
 10
-13.56016635894775
 20
-55.65154266357422
 30
0.0
 11
-12.74170867464775
 21
-52.5970170015686
 31
0.0
  0
ENDBLK
  5
4A9
330
4A7
100
AcDbEntity
  8
0
100
AcDbBlockEnd
  0
BLOCK
  5
4BC
330
4BB
100
AcDbEntity
  8
0
100
AcDbBlockBegin
  2
*D32
 70
     1
 10
0.0
 20
0.0
 30
0.0
  3
*D32
  1

  0
LINE
  5
4BE
330
4BB
100
AcDbEntity
  8
0
 62
     0
370
    -2
100
AcDbLine
 10
-13.55916635894776
 20
-52.65154266357422
 30
0.0
 11
-13.55916635894775
 21
-48.15154266357422
 31
0.0
  0
INSERT
  5
4BF
330
4BB
100
AcDbEntity
  8
0
 62
     0
370
    -2
100
AcDbBlockReference
  2
_OPEN30
 10
-13.55916635894776
 20
-55.65154266357422
 30
0.0
 41
3.0
 42
3.0
 43
3.0
 50
270.0
  0
INSERT
  5
4C0
330
4BB
100
AcDbEntity
  8
0
 62
     0
370
    -2
100
AcDbBlockReference
  2
_OPEN30
 10
-13.55916635894775
 20
-45.15154266357422
 30
0.0
 41
3.0
 42
3.0
 43
3.0
 50
90.0
  0
MTEXT
  5
4C1
330
4BB
100
AcDbEntity
  8
0
 62
     1
100
AcDbMText
 10
-15.97356639492512
 20
-50.40054266357422
 30
0.0
 40
3.200000047683716
 41
0.0
 71
     5
 72
     1
  1
21
 11
1.691768418476429E-16
 21
1.0
 31
0.0
 73
     1
 44
1.0
  0
POINT
  5
4C2
330
4BB
100
AcDbEntity
  8
Defpoints
 62
     0
100
AcDbPoint
 10
-2.635116815567017
 20
-55.65154266357422
 30
0.0
  0
POINT
  5
4C3
330
4BB
100
AcDbEntity
  8
Defpoints
 62
     0
100
AcDbPoint
 10
0.855361580848694
 20
-45.15154266357422
 30
0.0
  0
POINT
  5
4C4
330
4BB
100
AcDbEntity
  8
Defpoints
 62
     0
100
AcDbPoint
 10
-13.56016635894775
 20
-45.15154266357422
 30
0.0
  0
ENDBLK
  5
4BD
330
4BB
100
AcDbEntity
  8
0
100
AcDbBlockEnd
  0
BLOCK
  5
4C7
330
4C6
100
AcDbEntity
  8
0
100
AcDbBlockBegin
  2
*D33
 70
     1
 10
0.0
 20
0.0
 30
0.0
  3
*D33
  1

  0
LINE
  5
4C9
330
4C6
100
AcDbEntity
  8
0
 62
     0
370
    -2
100
AcDbLine
 10
-1.684638419151306
 20
-45.15154266357422
 30
0.0
 11
-25.55816540527344
 21
-45.15154266357423
 31
0.0
  0
LINE
  5
4CA
330
4C6
100
AcDbEntity
  8
0
 62
     0
370
    -2
100
AcDbLine
 10
-3.600165643692017
 20
-75.15154266357422
 30
0.0
 11
-25.55816540527343
 21
-75.15154266357423
 31
0.0
  0
LINE
  5
4CB
330
4C6
100
AcDbEntity
  8
0
 62
     0
370
    -2
100
AcDbLine
 10
-23.55816540527344
 20
-48.15154266357423
 30
0.0
 11
-23.55816540527343
 21
-72.15154266357423
 31
0.0
  0
INSERT
  5
4CC
330
4C6
100
AcDbEntity
  8
0
 62
     0
370
    -2
100
AcDbBlockReference
  2
_OPEN30
 10
-23.55816540527344
 20
-45.15154266357423
 30
0.0
 41
3.0
 42
3.0
 43
3.0
 50
90.00000000000001
  0
INSERT
  5
4CD
330
4C6
100
AcDbEntity
  8
0
 62
     0
370
    -2
100
AcDbBlockReference
  2
_OPEN30
 10
-23.55816540527343
 20
-75.15154266357423
 30
0.0
 41
3.0
 42
3.0
 43
3.0
 50
270.0
  0
MTEXT
  5
4CE
330
4C6
100
AcDbEntity
  8
0
 62
     1
100
AcDbMText
 10
-25.9725654412508
 20
-60.15054266357422
 30
0.0
 40
3.200000047683716
 41
0.0
 71
     5
 72
     1
  1
60
 11
-3.552713678800501E-16
 21
1.0
 31
0.0
 73
     1
 44
1.0
  0
POINT
  5
4CF
330
4C6
100
AcDbEntity
  8
Defpoints
 62
     0
100
AcDbPoint
 10
0.855361580848694
 20
-45.15154266357422
 30
0.0
  0
POINT
  5
4D0
330
4C6
100
AcDbEntity
  8
Defpoints
 62
     0
100
AcDbPoint
 10
-1.060165643692017
 20
-75.15154266357422
 30
0.0
  0
POINT
  5
4D1
330
4C6
100
AcDbEntity
  8
Defpoints
 62
     0
100
AcDbPoint
 10
-23.56016540527344
 20
-75.15154266357423
 30
0.0
  0
ENDBLK
  5
4C8
330
4C6
100
AcDbEntity
  8
0
100
AcDbBlockEnd
  0
BLOCK
  5
4D4
330
4D3
100
AcDbEntity
  8
0
100
AcDbBlockBegin
  2
*D34
 70
     1
 10
0.0
 20
0.0
 30
0.0
  3
*D34
  1

  0
MTEXT
  5
4DE
330
4D3
100
AcDbEntity
  8
0
 62
     1
100
AcDbMText
 10
-13.70416570544243
 20
-32.73074262750148
 30
0.0
 40
3.200000047683716
 41
0.0
 71
     5
 72
     1
  1
6.5
 73
     1
 44
1.0
  0
POINT
  5
4DF
330
4D3
100
AcDbEntity
  8
Defpoints
 62
     0
100
AcDbPoint
 10
-3.560165643692017
 20
-50.84408569335938
 30
0.0
  0
POINT
  5
4E0
330
4D3
100
AcDbEntity
  8
Defpoints
 62
     0
100
AcDbPoint
 10
-0.310165643692017
 20
-57.77654266357422
 30
0.0
  0
POINT
  5
4E1
330
4D3
100
AcDbEntity
  8
Defpoints
 62
     0
100
AcDbPoint
 10
-0.310165643692014
 20
-35.15154266357422
 30
0.0
  0
LINE
  5
4E2
330
4D3
100
AcDbEntity
  8
0
  6
Continuous
 62
     7
100
AcDbLine
 10
-3.560165643692017
 20
-48.30408569335938
 30
0.0
 11
-3.560165643692017
 21
-33.15154266357422
 31
0.0
  0
LINE
  5
4E3
330
4D3
100
AcDbEntity
  8
0
  6
Continuous
 62
     7
100
AcDbLine
 10
-0.310165643692017
 20
-55.23654266357422
 30
0.0
 11
-0.310165643692017
 21
-33.15154266357422
 31
0.0
  0
LINE
  5
4E4
330
4D3
100
AcDbEntity
  8
0
  6
Continuous
 62
     7
100
AcDbLine
 10
-9.910165643692016
 20
-35.15154266357422
 30
0.0
 11
6.039834356307983
 21
-35.15154266357422
 31
0.0
  0
LINE
  5
4E5
330
4D3
100
AcDbEntity
  8
0
  6
Continuous
 62
     7
100
AcDbLine
 10
-3.560165643692017
 20
-35.15154266357422
 30
0.0
 11
-6.61469130569764
 21
-35.97000034787422
 31
0.0
  0
LINE
  5
4E6
330
4D3
100
AcDbEntity
  8
0
  6
Continuous
 62
     7
100
AcDbLine
 10
-3.560165643692017
 20
-35.15154266357422
 30
0.0
 11
-6.61469130569764
 21
-34.33308497927422
 31
0.0
  0
LINE
  5
4E7
330
4D3
100
AcDbEntity
  8
0
  6
Continuous
 62
     7
100
AcDbLine
 10
-0.310165643692017
 20
-35.15154266357422
 30
0.0
 11
2.744360018313607
 21
-34.33308497927422
 31
0.0
  0
LINE
  5
4E8
330
4D3
100
AcDbEntity
  8
0
  6
Continuous
 62
     7
100
AcDbLine
 10
-0.310165643692017
 20
-35.15154266357422
 30
0.0
 11
2.744360018313607
 21
-35.97000034787422
 31
0.0
  0
LINE
  5
4E9
330
4D3
100
AcDbEntity
  8
0
  6
Continuous
 62
     7
100
AcDbLine
 10
-3.560165643692017
 20
-35.15154266357422
 30
0.0
 11
-15.4509801864624
 21
-35.15154266357422
 31
0.0
  0
ENDBLK
  5
4D5
330
4D3
100
AcDbEntity
  8
0
100
AcDbBlockEnd
  0
BLOCK
  5
4EC
330
4EB
100
AcDbEntity
  8
0
100
AcDbBlockBegin
  2
*D35
 70
     1
 10
0.0
 20
0.0
 30
0.0
  3
*D35
  1

  0
LINE
  5
4EE
330
4EB
100
AcDbEntity
  8
0
 62
     0
370
    -2
100
AcDbLine
 10
21.18983459472656
 20
-55.23654266357422
 30
0.0
 11
21.18983459472657
 21
-33.15154266357422
 31
0.0
  0
LINE
  5
4EF
330
4EB
100
AcDbEntity
  8
0
 62
     0
370
    -2
100
AcDbLine
 10
2.689834356307987
 20
-35.15154266357422
 30
0.0
 11
18.18983459472657
 21
-35.15154266357422
 31
0.0
  0
INSERT
  5
4F0
330
4EB
100
AcDbEntity
  8
0
 62
     0
370
    -2
100
AcDbBlockReference
  2
_OPEN30
 10
-0.310165643692013
 20
-35.15154266357422
 30
0.0
 41
3.0
 42
3.0
 43
3.0
 50
180.0
  0
INSERT
  5
4F1
330
4EB
100
AcDbEntity
  8
0
 62
     0
370
    -2
100
AcDbBlockReference
  2
_OPEN30
 10
21.18983459472657
 20
-35.15154266357422
 30
0.0
 41
3.0
 42
3.0
 43
3.0
  0
MTEXT
  5
4F2
330
4EB
100
AcDbEntity
  8
0
 62
     1
100
AcDbMText
 10
10.44083364105225
 20
-32.73714262759685
 30
0.0
 40
3.200000047683716
 41
0.0
 71
     5
 72
     1
  1
43
 73
     1
 44
1.0
  0
POINT
  5
4F3
330
4EB
100
AcDbEntity
  8
Defpoints
 62
     0
100
AcDbPoint
 10
-0.310165643692017
 20
-57.77654266357422
 30
0.0
  0
POINT
  5
4F4
330
4EB
100
AcDbEntity
  8
Defpoints
 62
     0
100
AcDbPoint
 10
21.18983459472656
 20
-57.77654266357422
 30
0.0
  0
POINT
  5
4F5
330
4EB
100
AcDbEntity
  8
Defpoints
 62
     0
100
AcDbPoint
 10
21.18983459472657
 20
-35.15154266357422
 30
0.0
  0
ENDBLK
  5
4ED
330
4EB
100
AcDbEntity
  8
0
100
AcDbBlockEnd
  0
BLOCK
  5
4F8
330
4F7
100
AcDbEntity
  8
0
100
AcDbBlockBegin
  2
*D36
 70
     1
 10
0.0
 20
0.0
 30
0.0
  3
*D36
  1

  0
MTEXT
  5
501
330
4F7
100
AcDbEntity
  8
0
 62
     1
100
AcDbMText
 10
34.58383465647697
 20
-32.73074262750148
 30
0.0
 40
3.200000047683716
 41
0.0
 71
     5
 72
     1
  1
6.5
 73
     1
 44
1.0
  0
POINT
  5
502
330
4F7
100
AcDbEntity
  8
Defpoints
 62
     0
100
AcDbPoint
 10
21.18983459472656
 20
-57.77654266357422
 30
0.0
  0
POINT
  5
503
330
4F7
100
AcDbEntity
  8
Defpoints
 62
     0
100
AcDbPoint
 10
24.43983459472656
 20
-50.84398651123047
 30
0.0
  0
POINT
  5
504
330
4F7
100
AcDbEntity
  8
Defpoints
 62
     0
100
AcDbPoint
 10
24.43983459472657
 20
-35.15154266357422
 30
0.0
  0
LINE
  5
505
330
4F7
100
AcDbEntity
  8
0
  6
Continuous
 62
     7
100
AcDbLine
 10
24.43983459472656
 20
-48.30398651123047
 30
0.0
 11
24.43983459472656
 21
-33.15154266357422
 31
0.0
  0
LINE
  5
506
330
4F7
100
AcDbEntity
  8
0
  6
Continuous
 62
     7
100
AcDbLine
 10
14.83983459472656
 20
-35.15154266357422
 30
0.0
 11
30.78983459472656
 21
-35.15154266357422
 31
0.0
  0
LINE
  5
507
330
4F7
100
AcDbEntity
  8
0
  6
Continuous
 62
     7
100
AcDbLine
 10
21.18983459472656
 20
-35.15154266357422
 30
0.0
 11
18.13530893272094
 21
-35.97000034787422
 31
0.0
  0
LINE
  5
508
330
4F7
100
AcDbEntity
  8
0
  6
Continuous
 62
     7
100
AcDbLine
 10
21.18983459472656
 20
-35.15154266357422
 30
0.0
 11
18.13530893272094
 21
-34.33308497927422
 31
0.0
  0
LINE
  5
509
330
4F7
100
AcDbEntity
  8
0
  6
Continuous
 62
     7
100
AcDbLine
 10
24.43983459472656
 20
-35.15154266357422
 30
0.0
 11
27.49436025673219
 21
-34.33308497927422
 31
0.0
  0
LINE
  5
50A
330
4F7
100
AcDbEntity
  8
0
  6
Continuous
 62
     7
100
AcDbLine
 10
24.43983459472656
 20
-35.15154266357422
 30
0.0
 11
27.49436025673219
 21
-35.97000034787422
 31
0.0
  0
LINE
  5
50B
330
4F7
100
AcDbEntity
  8
0
  6
Continuous
 62
     7
100
AcDbLine
 10
24.43983459472656
 20
-35.15154266357422
 30
0.0
 11
36.5970573425293
 21
-35.15154266357422
 31
0.0
  0
ENDBLK
  5
4F9
330
4F7
100
AcDbEntity
  8
0
100
AcDbBlockEnd
  0
BLOCK
  5
513
330
50C
100
AcDbEntity
  8
0
100
AcDbBlockBegin
  2
SYM0001
 70
     0
 10
0.0
 20
0.0
 30
0.0
  3
SYM0001
  1

  0
LINE
  5
50D
330
50C
100
AcDbEntity
  8
0
  6
Continuous
 62
     7
100
AcDbLine
 10
0.0
 20
0.0
 30
0.0
 11
7.793954334674062
 21
-8.781313946593698
 31
0.0
  0
LINE
  5
50E
330
50C
100
AcDbEntity
  8
0
  6
Continuous
 62
     7
100
AcDbLine
 10
0.0
 20
0.0
 30
0.0
 11
2.639747864055934
 21
-1.741186726072982
 31
0.0
  0
LINE
  5
50F
330
50C
100
AcDbEntity
  8
0
  6
Continuous
 62
     7
100
AcDbLine
 10
0.0
 20
0.0
 30
0.0
 11
1.41549534698499
 21
-2.827785869457671
 31
0.0
  0
LINE
  5
510
330
50C
100
AcDbEntity
  8
0
  6
Continuous
 62
     7
100
AcDbLine
 10
7.79395300329027
 20
-8.781307940400453
 30
0.0
 11
29.39510160863695
 21
-8.781307940400453
 31
0.0
  0
MTEXT
  5
511
330
50C
100
AcDbEntity
  8
0
 62
     1
100
AcDbMText
 10
10.19510126293001
 20
-7.981307928479524
 30
0.0
 40
3.200000047683716
 41
0.0
 71
     7
 72
     1
  1
{\W0.833333;2-\U+2205６．５}
 73
     1
 44
1.0
  0
ENDBLK
  5
514
330
50C
100
AcDbEntity
  8
0
100
AcDbBlockEnd
  0
BLOCK
  5
51C
330
515
100
AcDbEntity
  8
0
100
AcDbBlockBegin
  2
SYM0002
 70
     0
 10
0.0
 20
0.0
 30
0.0
  3
SYM0002
  1

  0
LINE
  5
516
330
515
100
AcDbEntity
  8
0
  6
Continuous
 62
     7
100
AcDbLine
 10
0.0
 20
0.0
 30
0.0
 11
5.90050570354979
 21
-6.05614515285184
 31
0.0
  0
LINE
  5
517
330
515
100
AcDbEntity
  8
0
  6
Continuous
 62
     7
100
AcDbLine
 10
0.0
 20
0.0
 30
0.0
 11
2.717800895158039
 21
-1.616650331741155
 31
0.0
  0
LINE
  5
518
330
515
100
AcDbEntity
  8
0
  6
Continuous
 62
     7
100
AcDbLine
 10
0.0
 20
0.0
 30
0.0
 11
1.545359451923726
 21
-2.758960703814139
 31
0.0
  0
LINE
  5
519
330
515
100
AcDbEntity
  8
0
  6
Continuous
 62
     7
100
AcDbLine
 10
5.900503632014587
 20
-6.056143029348377
 30
0.0
 11
27.03202294964154
 21
-6.056143029348377
 31
0.0
  0
MTEXT
  5
51A
330
515
100
AcDbEntity
  8
0
 62
     1
100
AcDbMText
 10
7.832024511283233
 20
-5.256143017427448
 30
0.0
 40
3.200000047683716
 41
0.0
 71
     7
 72
     1
  1
{\W0.833333;４－\U+2205４．３}
 73
     1
 44
1.0
  0
ENDBLK
  5
51D
330
515
100
AcDbEntity
  8
0
100
AcDbBlockEnd
  0
BLOCK
  5
520
330
51F
100
AcDbEntity
  8
0
100
AcDbBlockBegin
  2
*D39
 70
     1
 10
0.0
 20
0.0
 30
0.0
  3
*D39
  1

  0
LINE
  5
522
330
51F
100
AcDbEntity
  8
0
 62
     0
370
    -2
100
AcDbLine
 10
-8.219815254211426
 20
20.69026473999023
 30
0.0
 11
-8.219815254211419
 21
51.46970748901368
 31
0.0
  0
LINE
  5
523
330
51F
100
AcDbEntity
  8
0
 62
     0
370
    -2
100
AcDbLine
 10
51.78021240234375
 20
43.58496383666992
 30
0.0
 11
51.78021240234375
 21
51.46970748901367
 31
0.0
  0
LINE
  5
524
330
51F
100
AcDbEntity
  8
0
 62
     0
370
    -2
100
AcDbLine
 10
-5.219815254211419
 20
50.46970748901368
 30
0.0
 11
48.78021240234375
 21
50.46970748901367
 31
0.0
  0
INSERT
  5
525
330
51F
100
AcDbEntity
  8
0
 62
     0
370
    -2
100
AcDbBlockReference
  2
_OPEN30
 10
-8.219815254211419
 20
50.46970748901368
 30
0.0
 41
3.0
 42
3.0
 43
3.0
 50
180.0
  0
INSERT
  5
526
330
51F
100
AcDbEntity
  8
0
 62
     0
370
    -2
100
AcDbBlockReference
  2
_OPEN30
 10
51.78021240234375
 20
50.46970748901367
 30
0.0
 41
3.0
 42
3.0
 43
3.0
 50
360.0
  0
MTEXT
  5
527
330
51F
100
AcDbEntity
  8
0
 62
     1
100
AcDbMText
 10
21.78119905090332
 20
52.88410752499104
 30
0.0
 40
3.200000047683716
 41
0.0
 71
     5
 72
     1
  1
120
 73
     1
 44
1.0
  0
POINT
  5
528
330
51F
100
AcDbEntity
  8
Defpoints
 62
     0
100
AcDbPoint
 10
-8.219815254211426
 20
18.15026473999023
 30
0.0
  0
POINT
  5
529
330
51F
100
AcDbEntity
  8
Defpoints
 62
     0
100
AcDbPoint
 10
51.78021240234375
 20
41.04496383666992
 30
0.0
  0
POINT
  5
52A
330
51F
100
AcDbEntity
  8
Defpoints
 62
     0
100
AcDbPoint
 10
51.78021240234375
 20
50.46970748901367
 30
0.0
  0
ENDBLK
  5
521
330
51F
100
AcDbEntity
  8
0
100
AcDbBlockEnd
  0
BLOCK
  5
52D
330
52C
100
AcDbEntity
  8
0
100
AcDbBlockBegin
  2
*D40
 70
     1
 10
0.0
 20
0.0
 30
0.0
  3
*D40
  1

  0
LINE
  5
52F
330
52C
100
AcDbEntity
  8
0
 62
     0
370
    -2
100
AcDbLine
 10
68.95824350836169
 20
42.35178381265581
 30
0.0
 11
76.21307304731336
 21
46.7046886968887
 31
0.0
  0
LINE
  5
530
330
52C
100
AcDbEntity
  8
0
 62
     0
370
    -2
100
AcDbLine
 10
84.3931351481253
 20
16.62700673234774
 30
0.0
 11
91.64796468707696
 21
20.97991161658064
 31
0.0
  0
LINE
  5
531
330
52C
100
AcDbEntity
  8
0
 62
     0
370
    -2
100
AcDbLine
 10
76.8990696283166
 20
43.61771466219844
 30
0.0
 11
89.24698300146022
 21
23.03789289573092
 31
0.0
  0
INSERT
  5
532
330
52C
100
AcDbEntity
  8
0
 62
     0
370
    -2
100
AcDbBlockReference
  2
_OPEN30
 10
75.3555804950066
 20
46.19019231911871
 30
0.0
 41
3.0
 42
3.0
 43
3.0
 50
120.963798115629
  0
INSERT
  5
533
330
52C
100
AcDbEntity
  8
0
 62
     0
370
    -2
100
AcDbBlockReference
  2
_OPEN30
 10
90.79047213477021
 20
20.46541523881065
 30
0.0
 41
3.0
 42
3.0
 43
3.0
 50
300.963798115629
  0
MTEXT
  5
534
330
52C
100
AcDbEntity
  8
0
 62
     1
100
AcDbMText
 10
85.14291610871007
 20
34.57073760961919
 30
0.0
 40
3.200000047683716
 41
0.0
 71
     5
 72
     1
  1
60
 11
0.5144963777699956
 21
-0.8574925523067556
 31
0.0
 73
     1
 44
1.0
  0
POINT
  5
535
330
52C
100
AcDbEntity
  8
Defpoints
 62
     0
100
AcDbPoint
 10
66.78021242550253
 20
41.04496301312002
 30
0.0
  0
POINT
  5
536
330
52C
100
AcDbEntity
  8
Defpoints
 62
     0
100
AcDbPoint
 10
82.21510406526613
 20
15.32018593281196
 30
0.0
  0
POINT
  5
537
330
52C
100
AcDbEntity
  8
Defpoints
 62
     0
100
AcDbPoint
 10
90.7900295883337
 20
20.46514971051191
 30
0.0
  0
ENDBLK
  5
52E
330
52C
100
AcDbEntity
  8
0
100
AcDbBlockEnd
  0
BLOCK
  5
53A
330
539
100
AcDbEntity
  8
0
100
AcDbBlockBegin
  2
*D41
 70
     1
 10
0.0
 20
0.0
 30
0.0
  3
*D41
  1

  0
MTEXT
  5
541
330
539
100
AcDbEntity
  8
0
 62
     1
100
AcDbMText
 10
-38.48221662533284
 20
98.99236352539063
 30
0.0
 40
3.200000047683716
 41
0.0
 71
     5
 72
     1
  1
21
 11
-6.898471118790959E-16
 21
1.0
 31
0.0
 73
     1
 44
1.0
  0
POINT
  5
542
330
539
100
AcDbEntity
  8
Defpoints
 62
     0
100
AcDbPoint
 10
-22.83579254150391
 20
104.1413650512695
 30
0.0
  0
POINT
  5
543
330
539
100
AcDbEntity
  8
Defpoints
 62
     0
100
AcDbPoint
 10
-22.83579254150391
 20
93.84136199951172
 30
0.0
  0
POINT
  5
544
330
539
100
AcDbEntity
  8
Defpoints
 62
     0
100
AcDbPoint
 10
-36.06981658935547
 20
93.84136199951172
 30
0.0
  0
LINE
  5
545
330
539
100
AcDbEntity
  8
0
  6
Continuous
 62
     7
100
AcDbLine
 10
-25.37579254150391
 20
104.1413650512695
 30
0.0
 11
-37.06981658935547
 21
104.1413650512695
 31
0.0
  0
LINE
  5
546
330
539
100
AcDbEntity
  8
0
  6
Continuous
 62
     7
100
AcDbLine
 10
-25.37579254150391
 20
93.84136199951172
 30
0.0
 11
-37.06981658935547
 21
93.84136199951172
 31
0.0
  0
LINE
  5
547
330
539
100
AcDbEntity
  8
0
  6
Continuous
 62
     7
100
AcDbLine
 10
-36.06981658935547
 20
110.4913650512695
 30
0.0
 11
-36.06981658935547
 21
87.49136199951172
 31
0.0
  0
LINE
  5
548
330
539
100
AcDbEntity
  8
0
  6
Continuous
 62
     7
100
AcDbLine
 10
-36.06981658935547
 20
104.1413650512695
 30
0.0
 11
-36.88827427365547
 21
107.1958907132752
 31
0.0
  0
LINE
  5
549
330
539
100
AcDbEntity
  8
0
  6
Continuous
 62
     7
100
AcDbLine
 10
-36.06981658935547
 20
104.1413650512695
 30
0.0
 11
-35.25135890505547
 21
107.1958907132752
 31
0.0
  0
LINE
  5
54A
330
539
100
AcDbEntity
  8
0
  6
Continuous
 62
     7
100
AcDbLine
 10
-36.06981658935547
 20
93.84136199951172
 30
0.0
 11
-35.25135890505547
 21
90.78683633750609
 31
0.0
  0
LINE
  5
54B
330
539
100
AcDbEntity
  8
0
  6
Continuous
 62
     7
100
AcDbLine
 10
-36.06981658935547
 20
93.84136199951172
 30
0.0
 11
-36.88827427365547
 21
90.78683633750609
 31
0.0
  0
ENDBLK
  5
53B
330
539
100
AcDbEntity
  8
0
100
AcDbBlockEnd
  0
BLOCK
  5
54E
330
54D
100
AcDbEntity
  8
0
100
AcDbBlockBegin
  2
*D42
 70
     1
 10
0.0
 20
0.0
 30
0.0
  3
*D42
  1

  0
LINE
  5
550
330
54D
100
AcDbEntity
  8
0
 62
     0
370
    -2
100
AcDbLine
 10
-26.06978988647461
 20
36.6902685546875
 30
0.0
 11
-26.06978988647461
 21
60.29418945312501
 31
0.0
  0
LINE
  5
551
330
54D
100
AcDbEntity
  8
0
 62
     0
370
    -2
100
AcDbLine
 10
41.28020858764648
 20
33.44024185180664
 30
0.0
 11
41.28020858764648
 21
60.294189453125
 31
0.0
  0
LINE
  5
552
330
54D
100
AcDbEntity
  8
0
 62
     0
370
    -2
100
AcDbLine
 10
-23.06978988647461
 20
59.29418945312501
 30
0.0
 11
38.28020858764648
 21
59.294189453125
 31
0.0
  0
INSERT
  5
553
330
54D
100
AcDbEntity
  8
0
 62
     0
370
    -2
100
AcDbBlockReference
  2
_OPEN30
 10
-26.06978988647461
 20
59.29418945312501
 30
0.0
 41
3.0
 42
3.0
 43
3.0
 50
180.0
  0
INSERT
  5
554
330
54D
100
AcDbEntity
  8
0
 62
     0
370
    -2
100
AcDbBlockReference
  2
_OPEN30
 10
41.28020858764648
 20
59.294189453125
 30
0.0
 41
3.0
 42
3.0
 43
3.0
 50
360.0
  0
MTEXT
  5
555
330
54D
100
AcDbEntity
  8
0
 62
     1
100
AcDbMText
 10
7.606210781097412
 20
61.70858948910237
 30
0.0
 40
3.200000047683716
 41
0.0
 71
     5
 72
     1
  1
135
 73
     1
 44
1.0
  0
POINT
  5
556
330
54D
100
AcDbEntity
  8
Defpoints
 62
     0
100
AcDbPoint
 10
-26.06978988647461
 20
34.1502685546875
 30
0.0
  0
POINT
  5
557
330
54D
100
AcDbEntity
  8
Defpoints
 62
     0
100
AcDbPoint
 10
41.28020858764648
 20
30.90024185180664
 30
0.0
  0
POINT
  5
558
330
54D
100
AcDbEntity
  8
Defpoints
 62
     0
100
AcDbPoint
 10
41.28020858764648
 20
59.294189453125
 30
0.0
  0
ENDBLK
  5
54F
330
54D
100
AcDbEntity
  8
0
100
AcDbBlockEnd
  0
BLOCK
  5
55B
330
55A
100
AcDbEntity
  8
0
100
AcDbBlockBegin
  2
*D43
 70
     1
 10
0.0
 20
0.0
 30
0.0
  3
*D43
  1

  0
LINE
  5
55D
330
55A
100
AcDbEntity
  8
0
 62
     0
370
    -2
100
AcDbLine
 10
-26.06978988647461
 20
29.01023956298828
 30
0.0
 11
-26.06978988647461
 21
-12.84876100921631
 31
0.0
  0
LINE
  5
55E
330
55A
100
AcDbEntity
  8
0
 62
     0
370
    -2
100
AcDbLine
 10
-23.06978988647461
 20
-11.84876100921631
 30
0.0
 11
33.78020858764648
 21
-11.84876100921631
 31
0.0
  0
INSERT
  5
55F
330
55A
100
AcDbEntity
  8
0
 62
     0
370
    -2
100
AcDbBlockReference
  2
_OPEN30
 10
-26.06978988647461
 20
-11.84876100921631
 30
0.0
 41
3.0
 42
3.0
 43
3.0
 50
180.0
  0
INSERT
  5
560
330
55A
100
AcDbEntity
  8
0
 62
     0
370
    -2
100
AcDbBlockReference
  2
_OPEN30
 10
36.78020858764648
 20
-11.84876100921631
 30
0.0
 41
3.0
 42
3.0
 43
3.0
 50
360.0
  0
MTEXT
  5
561
330
55A
100
AcDbEntity
  8
0
 62
     1
100
AcDbMText
 10
5.356210781097412
 20
-9.434360973238945
 30
0.0
 40
3.200000047683716
 41
0.0
 71
     5
 72
     1
  1
126
 73
     1
 44
1.0
  0
POINT
  5
562
330
55A
100
AcDbEntity
  8
Defpoints
 62
     0
100
AcDbPoint
 10
-26.06978988647461
 20
31.55023956298828
 30
0.0
  0
POINT
  5
563
330
55A
100
AcDbEntity
  8
Defpoints
 62
     0
100
AcDbPoint
 10
36.78020858764648
 20
8.150238990783691
 30
0.0
  0
POINT
  5
564
330
55A
100
AcDbEntity
  8
Defpoints
 62
     0
100
AcDbPoint
 10
36.78020858764648
 20
-11.84976100921631
 30
0.0
  0
ENDBLK
  5
55C
330
55A
100
AcDbEntity
  8
0
100
AcDbBlockEnd
  0
BLOCK
  5
567
330
566
100
AcDbEntity
  8
0
100
AcDbBlockBegin
  2
*D44
 70
     1
 10
0.0
 20
0.0
 30
0.0
  3
*D44
  1

  0
MTEXT
  5
570
330
566
100
AcDbEntity
  8
0
 62
     1
100
AcDbMText
 10
-38.47258992230893
 20
32.35125405883789
 30
0.0
 40
3.200000047683716
 41
0.0
 71
     5
 72
     1
  1
7
 11
0.0
 21
1.0
 31
0.0
 73
     1
 44
1.0
  0
POINT
  5
571
330
566
100
AcDbEntity
  8
Defpoints
 62
     0
100
AcDbPoint
 10
-26.06978988647461
 20
34.1502685546875
 30
0.0
  0
POINT
  5
572
330
566
100
AcDbEntity
  8
Defpoints
 62
     0
100
AcDbPoint
 10
-25.06978988647461
 20
30.55023956298828
 30
0.0
  0
POINT
  5
573
330
566
100
AcDbEntity
  8
Defpoints
 62
     0
100
AcDbPoint
 10
-36.06978988647461
 20
30.55023956298828
 30
0.0
  0
LINE
  5
574
330
566
100
AcDbEntity
  8
0
  6
Continuous
 62
     7
100
AcDbLine
 10
-28.60978988647461
 20
34.1502685546875
 30
0.0
 11
-37.06978988647461
 21
34.1502685546875
 31
0.0
  0
LINE
  5
575
330
566
100
AcDbEntity
  8
0
  6
Continuous
 62
     7
100
AcDbLine
 10
-27.60978988647461
 20
30.55023956298828
 30
0.0
 11
-37.06978988647461
 21
30.55023956298828
 31
0.0
  0
LINE
  5
576
330
566
100
AcDbEntity
  8
0
  6
Continuous
 62
     7
100
AcDbLine
 10
-36.06978988647461
 20
40.5002685546875
 30
0.0
 11
-36.06978988647461
 21
24.20023956298828
 31
0.0
  0
LINE
  5
577
330
566
100
AcDbEntity
  8
0
  6
Continuous
 62
     7
100
AcDbLine
 10
-36.06978988647461
 20
34.1502685546875
 30
0.0
 11
-36.88824757077461
 21
37.20479421669312
 31
0.0
  0
LINE
  5
578
330
566
100
AcDbEntity
  8
0
  6
Continuous
 62
     7
100
AcDbLine
 10
-36.06978988647461
 20
34.1502685546875
 30
0.0
 11
-35.25133220217461
 21
37.20479421669312
 31
0.0
  0
LINE
  5
579
330
566
100
AcDbEntity
  8
0
  6
Continuous
 62
     7
100
AcDbLine
 10
-36.06978988647461
 20
30.55023956298828
 30
0.0
 11
-35.25133220217461
 21
27.49571390098266
 31
0.0
  0
LINE
  5
57A
330
566
100
AcDbEntity
  8
0
  6
Continuous
 62
     7
100
AcDbLine
 10
-36.06978988647461
 20
30.55023956298828
 30
0.0
 11
-36.88824757077461
 21
27.49571390098266
 31
0.0
  0
ENDBLK
  5
568
330
566
100
AcDbEntity
  8
0
100
AcDbBlockEnd
  0
BLOCK
  5
57D
330
57C
100
AcDbEntity
  8
0
100
AcDbBlockBegin
  2
*D45
 70
     1
 10
0.0
 20
0.0
 30
0.0
  3
*D45
  1

  0
LINE
  5
57F
330
57C
100
AcDbEntity
  8
0
 62
     0
370
    -2
100
AcDbLine
 10
51.78020858764648
 20
38.50496383666992
 30
0.0
 11
51.78020858764648
 21
-2.848760532379151
 31
0.0
  0
LINE
  5
580
330
57C
100
AcDbEntity
  8
0
 62
     0
370
    -2
100
AcDbLine
 10
39.78020858764648
 20
-1.848760413169861
 30
0.0
 11
48.78020858764648
 21
-1.848760413169861
 31
0.0
  0
INSERT
  5
581
330
57C
100
AcDbEntity
  8
0
 62
     0
370
    -2
100
AcDbBlockReference
  2
_OPEN30
 10
36.78020858764648
 20
-1.84876041316986
 30
0.0
 41
3.0
 42
3.0
 43
3.0
 50
180.0
  0
INSERT
  5
582
330
57C
100
AcDbEntity
  8
0
 62
     0
370
    -2
100
AcDbBlockReference
  2
_OPEN30
 10
51.78020858764648
 20
-1.848760413169862
 30
0.0
 41
3.0
 42
3.0
 43
3.0
 50
360.0
  0
MTEXT
  5
583
330
57C
100
AcDbEntity
  8
0
 62
     1
100
AcDbMText
 10
44.28120858764648
 20
0.565639622807502
 30
0.0
 40
3.200000047683716
 41
0.0
 71
     5
 72
     1
  1
30
 73
     1
 44
1.0
  0
POINT
  5
584
330
57C
100
AcDbEntity
  8
Defpoints
 62
     0
100
AcDbPoint
 10
36.78020858764648
 20
8.150239944458008
 30
0.0
  0
POINT
  5
585
330
57C
100
AcDbEntity
  8
Defpoints
 62
     0
100
AcDbPoint
 10
51.78020858764648
 20
41.04496383666992
 30
0.0
  0
POINT
  5
586
330
57C
100
AcDbEntity
  8
Defpoints
 62
     0
100
AcDbPoint
 10
51.78020858764648
 20
-1.849760413169861
 30
0.0
  0
ENDBLK
  5
57E
330
57C
100
AcDbEntity
  8
0
100
AcDbBlockEnd
  0
BLOCK
  5
589
330
588
100
AcDbEntity
  8
0
100
AcDbBlockBegin
  2
*D46
 70
     1
 10
0.0
 20
0.0
 30
0.0
  3
*D46
  1

  0
MTEXT
  5
590
330
588
100
AcDbEntity
  8
0
 62
     1
100
AcDbMText
 10
-60.70862142944336
 20
46.5646647759676
 30
0.0
 40
3.200000047683716
 41
0.0
 71
     5
 72
     1
  1
16
 73
     1
 44
1.0
  0
POINT
  5
591
330
588
100
AcDbEntity
  8
Defpoints
 62
     0
100
AcDbPoint
 10
-64.70962524414062
 20
32.56646347045898
 30
0.0
  0
POINT
  5
592
330
588
100
AcDbEntity
  8
Defpoints
 62
     0
100
AcDbPoint
 10
-56.70962142944336
 20
32.56646347045898
 30
0.0
  0
POINT
  5
593
330
588
100
AcDbEntity
  8
Defpoints
 62
     0
100
AcDbPoint
 10
-56.70962142944336
 20
44.15026473999023
 30
0.0
  0
LINE
  5
594
330
588
100
AcDbEntity
  8
0
  6
Continuous
 62
     7
100
AcDbLine
 10
-64.70962524414062
 20
35.10646347045898
 30
0.0
 11
-64.70962524414062
 21
45.15026473999023
 31
0.0
  0
LINE
  5
595
330
588
100
AcDbEntity
  8
0
  6
Continuous
 62
     7
100
AcDbLine
 10
-56.70962142944336
 20
35.10646347045898
 30
0.0
 11
-56.70962142944336
 21
45.15026473999023
 31
0.0
  0
LINE
  5
596
330
588
100
AcDbEntity
  8
0
  6
Continuous
 62
     7
100
AcDbLine
 10
-71.05962524414062
 20
44.15026473999023
 30
0.0
 11
-50.35962142944336
 21
44.15026473999023
 31
0.0
  0
LINE
  5
597
330
588
100
AcDbEntity
  8
0
  6
Continuous
 62
     7
100
AcDbLine
 10
-64.70962524414062
 20
44.15026473999023
 30
0.0
 11
-67.76415090614626
 21
43.33180705569023
 31
0.0
  0
LINE
  5
598
330
588
100
AcDbEntity
  8
0
  6
Continuous
 62
     7
100
AcDbLine
 10
-64.70962524414062
 20
44.15026473999023
 30
0.0
 11
-67.76415090614626
 21
44.96872242429023
 31
0.0
  0
LINE
  5
599
330
588
100
AcDbEntity
  8
0
  6
Continuous
 62
     7
100
AcDbLine
 10
-56.70962142944336
 20
44.15026473999023
 30
0.0
 11
-53.65509576743774
 21
44.96872242429023
 31
0.0
  0
LINE
  5
59A
330
588
100
AcDbEntity
  8
0
  6
Continuous
 62
     7
100
AcDbLine
 10
-56.70962142944336
 20
44.15026473999023
 30
0.0
 11
-53.65509576743774
 21
43.33180705569023
 31
0.0
  0
ENDBLK
  5
58A
330
588
100
AcDbEntity
  8
0
100
AcDbBlockEnd
  0
BLOCK
  5
5A2
330
59B
100
AcDbEntity
  8
0
100
AcDbBlockBegin
  2
SYM0003
 70
     0
 10
0.0
 20
0.0
 30
0.0
  3
SYM0003
  1

  0
LINE
  5
59C
330
59B
100
AcDbEntity
  8
0
  6
Continuous
 62
     7
100
AcDbLine
 10
0.0
 20
0.0
 30
0.0
 11
-24.50605680821506
 21
25.74454707837912
 31
0.0
  0
LINE
  5
59D
330
59B
100
AcDbEntity
  8
0
  6
Continuous
 62
     7
100
AcDbLine
 10
0.0
 20
0.0
 30
0.0
 11
-2.698824042071578
 21
1.648134943133311
 31
0.0
  0
LINE
  5
59E
330
59B
100
AcDbEntity
  8
0
  6
Continuous
 62
     7
100
AcDbLine
 10
0.0
 20
0.0
 30
0.0
 11
-1.513182709371918
 21
2.776738750566654
 31
0.0
  0
LINE
  5
59F
330
59B
100
AcDbEntity
  8
0
  6
Continuous
 62
     7
100
AcDbLine
 10
-24.50605811150056
 20
25.74454795605034
 30
0.0
 11
-48.73572577507478
 21
25.74454795605034
 31
0.0
  0
MTEXT
  5
5A0
330
59B
100
AcDbEntity
  8
0
 62
     1
100
AcDbMText
 10
-47.61672128708344
 20
26.54454796797127
 30
0.0
 40
3.200000047683716
 41
0.0
 71
     7
 72
     1
  1
{\W0.833333;蝶ナット　Ｍ５}
 73
     1
 44
1.0
  0
ENDBLK
  5
5A3
330
59B
100
AcDbEntity
  8
0
100
AcDbBlockEnd
  0
BLOCK
  5
5AB
330
5A4
100
AcDbEntity
  8
0
100
AcDbBlockBegin
  2
SYM0004
 70
     0
 10
0.0
 20
0.0
 30
0.0
  3
SYM0004
  1

  0
LINE
  5
5A5
330
5A4
100
AcDbEntity
  8
0
  6
Continuous
 62
     7
100
AcDbLine
 10
0.0
 20
0.0
 30
0.0
 11
-34.27001674589238
 21
36.78068222725947
 31
0.0
  0
LINE
  5
5A6
330
5A4
100
AcDbEntity
  8
0
  6
Continuous
 62
     7
100
AcDbLine
 10
0.0
 20
0.0
 30
0.0
 11
-2.681067929120982
 21
1.676864562294625
 31
0.0
  0
LINE
  5
5A7
330
5A4
100
AcDbEntity
  8
0
  6
Continuous
 62
     7
100
AcDbLine
 10
0.0
 20
0.0
 30
0.0
 11
-1.483440654904503
 21
2.792741274127827
 31
0.0
  0
LINE
  5
5A8
330
5A4
100
AcDbEntity
  8
0
  6
Continuous
 62
     7
100
AcDbLine
 10
-34.27001874609937
 20
36.78068311587039
 30
0.0
 11
-77.6996909873103
 21
36.78068311587039
 31
0.0
  0
MTEXT
  5
5A9
330
5A4
100
AcDbEntity
  8
0
 62
     1
100
AcDbMText
 10
-76.65963881178845
 20
37.58068312779132
 30
0.0
 40
3.200000047683716
 41
0.0
 71
     7
 72
     1
  1
{\W0.833333;角根丸頭ボルト　Ｍ５×12}
 73
     1
 44
1.0
  0
ENDBLK
  5
5AC
330
5A4
100
AcDbEntity
  8
0
100
AcDbBlockEnd
  0
BLOCK
  5
5AF
330
5AE
100
AcDbEntity
  8
0
100
AcDbBlockBegin
  2
*D49
 70
     1
 10
0.0
 20
0.0
 30
0.0
  3
*D49
  1

  0
LINE
  5
5B1
330
5AE
100
AcDbEntity
  8
0
 62
     0
370
    -2
100
AcDbLine
 10
36.78020858764648
 20
5.610239944458008
 30
0.0
 11
36.78020858764648
 21
-12.84876100921631
 31
0.0
  0
LINE
  5
5B2
330
5AE
100
AcDbEntity
  8
0
 62
     0
370
    -2
100
AcDbLine
 10
66.78021240234375
 20
38.50496383666992
 30
0.0
 11
66.78021240234375
 21
-12.84876100921631
 31
0.0
  0
LINE
  5
5B3
330
5AE
100
AcDbEntity
  8
0
 62
     0
370
    -2
100
AcDbLine
 10
39.78020858764648
 20
-11.84876100921631
 30
0.0
 11
63.78021240234375
 21
-11.84876100921631
 31
0.0
  0
INSERT
  5
5B4
330
5AE
100
AcDbEntity
  8
0
 62
     0
370
    -2
100
AcDbBlockReference
  2
_OPEN30
 10
36.78020858764648
 20
-11.84876100921631
 30
0.0
 41
3.0
 42
3.0
 43
3.0
 50
180.0
  0
INSERT
  5
5B5
330
5AE
100
AcDbEntity
  8
0
 62
     0
370
    -2
100
AcDbBlockReference
  2
_OPEN30
 10
66.78021240234375
 20
-11.84876100921631
 30
0.0
 41
3.0
 42
3.0
 43
3.0
 50
360.0
  0
MTEXT
  5
5B6
330
5AE
100
AcDbEntity
  8
0
 62
     1
100
AcDbMText
 10
51.78120858764648
 20
-9.434360973238945
 30
0.0
 40
3.200000047683716
 41
0.0
 71
     5
 72
     1
  1
60
 73
     1
 44
1.0
  0
POINT
  5
5B7
330
5AE
100
AcDbEntity
  8
Defpoints
 62
     0
100
AcDbPoint
 10
36.78020858764648
 20
8.150239944458008
 30
0.0
  0
POINT
  5
5B8
330
5AE
100
AcDbEntity
  8
Defpoints
 62
     0
100
AcDbPoint
 10
66.78021240234375
 20
41.04496383666992
 30
0.0
  0
POINT
  5
5B9
330
5AE
100
AcDbEntity
  8
Defpoints
 62
     0
100
AcDbPoint
 10
66.78021240234375
 20
-11.84976100921631
 30
0.0
  0
ENDBLK
  5
5B0
330
5AE
100
AcDbEntity
  8
0
100
AcDbBlockEnd
  0
ENDSEC
  0
SECTION
  2
ENTITIES
  0
POINT
  5
268
330
1F
100
AcDbEntity
  8
VIEW0001
 62
     7
100
AcDbPoint
 10
105.0
 20
-148.5
 30
0.0
  0
LINE
  5
269
330
1F
100
AcDbEntity
  8
VIEW0001
  6
Continuous
 62
     7
370
    20
100
AcDbLine
 10
41.0
 20
138.0
 30
0.0
 11
41.0
 21
128.0
 31
0.0
  0
LINE
  5
26A
330
1F
100
AcDbEntity
  8
VIEW0001
  6
Continuous
 62
     7
370
    20
100
AcDbLine
 10
41.0
 20
128.0
 30
0.0
 11
96.0
 21
128.0
 31
0.0
  0
LINE
  5
26B
330
1F
100
AcDbEntity
  8
VIEW0001
  6
Continuous
 62
     7
370
    20
100
AcDbLine
 10
-84.5
 20
-120.0
 30
0.0
 11
96.0
 21
-120.0
 31
0.0
  0
LINE
  5
26C
330
1F
100
AcDbEntity
  8
VIEW0001
  6
Continuous
 62
     7
370
    50
100
AcDbLine
 10
-84.5
 20
138.0
 30
0.0
 11
96.0
 21
138.0
 31
0.0
  0
LINE
  5
26D
330
1F
100
AcDbEntity
  8
VIEW0001
  6
Continuous
 62
     7
370
    50
100
AcDbLine
 10
-84.5
 20
-138.0
 30
0.0
 11
96.0
 21
-138.0
 31
0.0
  0
LINE
  5
26E
330
1F
100
AcDbEntity
  8
VIEW0001
  6
Continuous
 62
     7
370
    50
100
AcDbLine
 10
96.0
 20
138.0
 30
0.0
 11
96.0
 21
-138.0
 31
0.0
  0
LINE
  5
26F
330
1F
100
AcDbEntity
  8
VIEW0001
  6
Continuous
 62
     7
370
    50
100
AcDbLine
 10
-84.5
 20
138.0
 30
0.0
 11
-84.5
 21
-138.0
 31
0.0
  0
LWPOLYLINE
  5
270
330
1F
100
AcDbEntity
  8
VIEW0001
  6
Continuous
 62
     7
100
AcDbPolyline
 90
        2
 70
     0
 10
25.75
 20
-129.0
 40
0.001000000047497
 41
0.001000000047497
 10
25.75
 20
-120.0
 40
0.001000000047497
 41
0.001000000047497
  0
LWPOLYLINE
  5
271
330
1F
100
AcDbEntity
  8
VIEW0001
  6
Continuous
 62
     7
100
AcDbPolyline
 90
        2
 70
     0
 10
-64.5
 20
-138.0
 40
0.001000000047497
 41
0.001000000047497
 10
-64.5
 20
-120.0
 40
0.001000000047497
 41
0.001000000047497
  0
LWPOLYLINE
  5
272
330
1F
100
AcDbEntity
  8
VIEW0001
  6
Continuous
 62
     7
100
AcDbPolyline
 90
        2
 70
     0
 10
96.0
 20
-129.0
 40
0.001000000047497
 41
0.001000000047497
 10
-84.5
 20
-129.0
 40
0.001000000047497
 41
0.001000000047497
  0
LWPOLYLINE
  5
273
330
1F
100
AcDbEntity
  8
VIEW0001
  6
Continuous
 62
     7
100
AcDbPolyline
 90
        2
 70
     0
 10
5.75
 20
-138.0
 40
0.001000000047497
 41
0.001000000047497
 10
5.75
 20
-120.0
 40
0.001000000047497
 41
0.001000000047497
  0
LWPOLYLINE
  5
274
330
1F
100
AcDbEntity
  8
VIEW0001
  6
Continuous
 62
     7
100
AcDbPolyline
 90
        2
 70
     0
 10
66.0
 20
-129.0
 40
0.001000000047497
 41
0.001000000047497
 10
66.0
 20
-120.0
 40
0.001000000047497
 41
0.001000000047497
  0
LWPOLYLINE
  5
275
330
1F
100
AcDbEntity
  8
VIEW0001
  6
Continuous
 62
     7
100
AcDbPolyline
 90
        2
 70
     0
 10
81.0
 20
-129.0
 40
0.001000000047497
 41
0.001000000047497
 10
81.0
 20
-120.0
 40
0.001000000047497
 41
0.001000000047497
  0
MTEXT
  5
276
330
1F
100
AcDbEntity
  8
VIEW0001
 62
     1
100
AcDbMText
 10
12.32124996185303
 20
-126.5
 30
0.0
 40
4.0
 41
0.0
 71
     7
 72
     1
  1
{\W0.833333;材質}
 73
     1
 44
1.0
  0
MTEXT
  5
277
330
1F
100
AcDbEntity
  8
VIEW0001
 62
     1
100
AcDbMText
 10
-77.92875003814697
 20
-135.5
 30
0.0
 40
4.0
 41
0.0
 71
     7
 72
     1
  1
{\W0.833333;規格}
 73
     1
 44
1.0
  0
MTEXT
  5
278
330
1F
100
AcDbEntity
  8
VIEW0001
 62
     1
100
AcDbMText
 10
-77.92875003814697
 20
-126.5
 30
0.0
 40
4.0
 41
0.0
 71
     7
 72
     1
  1
{\W0.833333;品名}
 73
     1
 44
1.0
  0
MTEXT
  5
279
330
1F
100
AcDbEntity
  8
VIEW0001
 62
     1
100
AcDbMText
 10
70.07124996185303
 20
-126.5
 30
0.0
 40
4.0
 41
0.0
 71
     7
 72
     1
  1
{\W0.833333;尺度}
 73
     1
 44
1.0
  0
MTEXT
  5
27A
330
1F
100
AcDbEntity
  8
VIEW0001
 62
     1
100
AcDbMText
 10
-50.80375063419342
 20
-135.5
 30
0.0
 40
4.0
 41
0.0
 71
     7
 72
     1
  1
{\W0.833333;ＣＲ１０５-10～20}
 73
     1
 44
1.0
  0
MTEXT
  5
27B
330
1F
100
AcDbEntity
  8
VIEW0001
 62
     1
100
AcDbMText
 10
-60.80375093221664
 20
-126.5
 30
0.0
 40
4.0
 41
0.0
 71
     7
 72
     1
  1
{\W0.833333;ｽﾃﾝ内吊り面打ちｽﾗｲﾄﾞ6寸}
 73
     1
 44
1.0
  0
MTEXT
  5
27C
330
1F
100
AcDbEntity
  8
VIEW0001
 62
     1
100
AcDbMText
 10
83.07124984264374
 20
-126.5
 30
0.0
 40
4.0
 41
0.0
 71
     7
 72
     1
  1
{\W0.833333;1/2}
 73
     1
 44
1.0
  0
MTEXT
  5
27D
330
1F
100
AcDbEntity
  8
VIEW0001
 62
     1
100
AcDbMText
 10
26.46785604953766
 20
-135.75
 30
0.0
 40
4.5
 41
0.0
 71
     7
 72
     1
  1
{\W1.40741;デンカ株式会社}
 73
     1
 44
1.0
  0
MTEXT
  5
27E
330
1F
100
AcDbEntity
  8
VIEW0001
 62
     1
100
AcDbMText
 10
34.4462496638298
 20
-126.5
 30
0.0
 40
4.0
 41
0.0
 71
     7
 72
     1
  1
{\W0.833333;SUS304}
 73
     1
 44
1.0
  0
LINE
  5
280
330
1F
100
AcDbEntity
  8
VIEW0002
  6
Continuous
 62
     7
100
AcDbLine
 10
31.02750968933105
 20
-113.2365493774414
 30
0.0
 11
86.33969116210938
 21
-113.2365493774414
 31
0.0
  0
LINE
  5
281
330
1F
100
AcDbEntity
  8
VIEW0002
  6
Continuous
 62
     7
100
AcDbLine
 10
51.04097269389816
 20
38.19529400385107
 30
0.0
 11
60.63424683760191
 21
22.20653006712921
 31
0.0
  0
LINE
  5
282
330
1F
100
AcDbEntity
  8
VIEW0002
  6
Continuous
 62
     7
100
AcDbLine
 10
48.19766066264982
 20
37.54842448962309
 30
0.0
 11
49.13686296843493
 21
39.73989663119661
 31
0.0
  0
LINE
  5
283
330
1F
100
AcDbEntity
  8
VIEW0002
  6
Continuous
 62
     7
100
AcDbLine
 10
42.4235867412653
 20
37.86591420874211
 30
0.0
 11
43.16545759180278
 21
38.6077850592796
 31
0.0
  0
LINE
  5
284
330
1F
100
AcDbEntity
  8
VIEW0002
  6
Continuous
 62
     7
100
AcDbLine
 10
-8.219815254211426
 20
18.15026473999023
 30
0.0
 11
-8.219815254211426
 21
16.15026473999023
 31
0.0
  0
LINE
  5
285
330
1F
100
AcDbEntity
  8
VIEW0002
  6
Continuous
 62
     7
100
AcDbLine
 10
43.74030823671172
 20
34.23289902547592
 30
0.0
 11
45.86324971665248
 21
36.35584050541669
 31
0.0
  0
LINE
  5
286
330
1F
100
AcDbEntity
  8
VIEW0002
  6
Continuous
 62
     7
100
AcDbLine
 10
62.470335977867
 20
21.18729227617056
 30
0.0
 11
62.98987000893742
 21
21.19603242975009
 31
0.0
  0
LINE
  5
287
330
1F
100
AcDbEntity
  8
VIEW0002
  6
Continuous
 62
     7
100
AcDbLine
 10
52.32720833305542
 20
38.96704388600212
 30
0.0
 11
66.70057700257487
 21
15.01146884562335
 31
0.0
  0
LINE
  5
288
330
1F
100
AcDbEntity
  8
VIEW0002
  6
Continuous
 62
     7
100
AcDbLine
 10
45.83272745356778
 20
39.99626017434424
 30
0.0
 11
49.74832103246441
 21
40.68668498774151
 31
0.0
  0
LINE
  5
289
330
1F
100
AcDbEntity
  8
VIEW0002
  6
Continuous
 62
     7
100
AcDbLine
 10
2.049401209888682
 20
18.72764912996724
 30
0.0
 11
6.910690725536142
 21
29.15271759045318
 31
0.0
  0
LINE
  5
28A
330
1F
100
AcDbEntity
  8
VIEW0002
  6
Continuous
 62
     7
100
AcDbLine
 10
51.78021211251222
 20
41.04496290067673
 30
0.0
 11
52.15645539978646
 21
40.41789178680138
 31
0.0
  0
LINE
  5
28B
330
1F
100
AcDbEntity
  8
VIEW0002
  6
Continuous
 62
     7
100
AcDbLine
 10
46.12999373368748
 20
36.49468309680215
 30
0.0
 11
47.07941296264337
 21
36.66209132770755
 31
0.0
  0
LINE
  5
28C
330
1F
100
AcDbEntity
  8
VIEW0002
  6
Continuous
 62
     7
100
AcDbLine
 10
48.53720972654308
 20
38.34073129720609
 30
0.0
 11
50.11294570821369
 21
38.61857607327573
 31
0.0
  0
LINE
  5
28D
330
1F
100
AcDbEntity
  8
VIEW0002
  6
Continuous
 62
     7
100
AcDbLine
 10
-8.219815254211426
 20
18.15026473999023
 30
0.0
 11
1.143099784851074
 21
18.15026473999023
 31
0.0
  0
LINE
  5
28E
330
1F
100
AcDbEntity
  8
VIEW0002
  6
Continuous
 62
     7
100
AcDbLine
 10
15.11971552048405
 20
31.37664173230346
 30
0.0
 11
42.81039509959553
 21
33.79926227373178
 31
0.0
  0
LINE
  5
28F
330
1F
100
AcDbEntity
  8
VIEW0002
  6
Continuous
 62
     7
100
AcDbLine
 10
-6.719815254211426
 20
14.65026569366455
 30
0.0
 11
1.143099784851074
 21
14.65026569366455
 31
0.0
  0
LINE
  5
290
330
1F
100
AcDbEntity
  8
VIEW0002
  6
Continuous
 62
     7
100
AcDbLine
 10
5.221477786471079
 20
17.24848545223997
 30
0.0
 11
10.08276810819894
 21
27.67355564137081
 31
0.0
  0
LINE
  5
291
330
1F
100
AcDbEntity
  8
VIEW0002
  6
Continuous
 62
     7
100
AcDbLine
 10
15.10221476550719
 20
34.88848196060251
 30
0.0
 11
40.87371163885298
 21
37.14319577253151
 31
0.0
  0
LINE
  5
292
330
1F
100
AcDbEntity
  8
VIEW0002
  6
Continuous
 62
     7
100
AcDbLine
 10
10.66266059875488
 20
92.62067413330078
 30
0.0
 11
10.66266059875488
 21
95.24736785888672
 31
0.0
  0
LINE
  5
293
330
1F
100
AcDbEntity
  8
VIEW0002
  6
Continuous
 62
     7
100
AcDbLine
 10
10.66266059875488
 20
105.3620452880859
 30
0.0
 11
10.66266059875488
 21
102.7353515625
 31
0.0
  0
LINE
  5
294
330
1F
100
AcDbEntity
  8
VIEW0002
  6
Continuous
 62
     7
100
AcDbLine
 10
47.55640029907227
 20
96.74136352539062
 30
0.0
 11
62.88059234619141
 21
96.74136352539062
 31
0.0
  0
LINE
  5
295
330
1F
100
AcDbEntity
  8
VIEW0002
  6
Continuous
 62
     7
100
AcDbLine
 10
51.78021621704102
 20
93.22889709472656
 30
0.0
 11
51.78021621704102
 21
84.99136352539062
 31
0.0
  0
LINE
  5
296
330
1F
100
AcDbEntity
  8
VIEW0002
  6
Continuous
 62
     7
100
AcDbLine
 10
47.55640029907227
 20
93.74136352539062
 30
0.0
 11
62.88059234619141
 21
93.74136352539062
 31
0.0
  0
LINE
  5
297
330
1F
100
AcDbEntity
  8
VIEW0002
  6
Continuous
 62
     7
100
AcDbLine
 10
6.566896438598633
 20
104.9680404663086
 30
0.0
 11
6.566896438598633
 21
101.9473495483398
 31
0.0
  0
LINE
  5
298
330
1F
100
AcDbEntity
  8
VIEW0002
  6
Continuous
 62
     7
100
AcDbLine
 10
51.18022794880326
 20
112.9913470764044
 30
0.0
 11
46.5510555717136
 21
109.6237525784816
 31
0.0
  0
LINE
  5
299
330
1F
100
AcDbEntity
  8
VIEW0002
  6
Continuous
 62
     7
100
AcDbLine
 10
-8.219815254211426
 20
104.7413635253906
 30
0.0
 11
1.780169486999512
 21
104.7413635253906
 31
0.0
  0
LINE
  5
29A
330
1F
100
AcDbEntity
  8
VIEW0002
  6
Continuous
 62
     7
100
AcDbLine
 10
51.78021621704102
 20
112.9913635253906
 30
0.0
 11
51.78021621704102
 21
104.7538223266602
 31
0.0
  0
LINE
  5
29B
330
1F
100
AcDbEntity
  8
VIEW0002
  6
Continuous
 62
     7
100
AcDbLine
 10
-8.219815254211426
 20
104.7413635253906
 30
0.0
 11
-8.219815254211426
 21
100.0520248413086
 31
0.0
  0
LINE
  5
29C
330
1F
100
AcDbEntity
  8
VIEW0002
  6
Continuous
 62
     7
100
AcDbLine
 10
51.18017959594727
 20
112.9913635253906
 30
0.0
 11
66.22481536865234
 21
112.9913635253906
 31
0.0
  0
LINE
  5
29D
330
1F
100
AcDbEntity
  8
VIEW0002
  6
Continuous
 62
     7
100
AcDbLine
 10
-8.219815254211426
 20
93.24136352539062
 30
0.0
 11
1.451373100280762
 21
93.24136352539062
 31
0.0
  0
LINE
  5
29E
330
1F
100
AcDbEntity
  8
VIEW0002
  6
Continuous
 62
     7
100
AcDbLine
 10
47.55640029907227
 20
101.2413635253906
 30
0.0
 11
62.88180541992188
 21
101.2413635253906
 31
0.0
  0
LINE
  5
29F
330
1F
100
AcDbEntity
  8
VIEW0002
  6
Continuous
 62
     7
100
AcDbLine
 10
47.55640029907227
 20
104.2413635253906
 30
0.0
 11
62.88059234619141
 21
104.2413635253906
 31
0.0
  0
LINE
  5
2A0
330
1F
100
AcDbEntity
  8
VIEW0002
  6
Continuous
 62
     7
100
AcDbLine
 10
51.78021621704102
 20
100.7288970947266
 30
0.0
 11
51.78021621704102
 21
97.25382232666016
 31
0.0
  0
LINE
  5
2A1
330
1F
100
AcDbEntity
  8
VIEW0002
  6
Continuous
 62
     7
100
AcDbLine
 10
6.566896438598633
 20
93.01467895507812
 30
0.0
 11
6.566896438598633
 21
96.0353775024414
 31
0.0
  0
LINE
  5
2A2
330
1F
100
AcDbEntity
  8
VIEW0002
  6
CENTER
 62
     7
100
AcDbLine
 10
40.13013076782227
 20
98.99136352539062
 30
0.0
 11
51.78021621704102
 21
98.99136352539062
 31
0.0
  0
LINE
  5
2A3
330
1F
100
AcDbEntity
  8
VIEW0002
  6
Continuous
 62
     7
100
AcDbLine
 10
3.41224193572998
 20
98.99136352539062
 30
0.0
 11
40.13013076782227
 21
98.99136352539062
 31
0.0
  0
LINE
  5
2A4
330
1F
100
AcDbEntity
  8
VIEW0002
  6
Continuous
 62
     7
100
AcDbLine
 10
-2.094815254211426
 20
100.3663635253906
 30
0.0
 11
-2.137280464172363
 21
100.3663635253906
 31
0.0
  0
LINE
  5
2A5
330
1F
100
AcDbEntity
  8
VIEW0002
  6
Continuous
 62
     7
100
AcDbLine
 10
-4.594815254211426
 20
100.1163635253906
 30
0.0
 11
-4.594815254211426
 21
100.0738906860352
 31
0.0
  0
LINE
  5
2A6
330
1F
100
AcDbEntity
  8
VIEW0002
  6
Continuous
 62
     7
100
AcDbLine
 10
-2.094815254211426
 20
97.61636352539062
 30
0.0
 11
-2.137280464172363
 21
97.61636352539062
 31
0.0
  0
LINE
  5
2A7
330
1F
100
AcDbEntity
  8
VIEW0002
  6
Continuous
 62
     7
100
AcDbLine
 10
-1.844815254211426
 20
100.1163635253906
 30
0.0
 11
-1.844815254211426
 21
100.0738906860352
 31
0.0
  0
LINE
  5
2A8
330
1F
100
AcDbEntity
  8
VIEW0002
  6
CENTER
 62
     7
100
AcDbLine
 10
-3.219815254211426
 20
101.9913635253906
 30
0.0
 11
-3.219815254211426
 21
95.99136352539062
 31
0.0
  0
LINE
  5
2A9
330
1F
100
AcDbEntity
  8
VIEW0002
  6
Continuous
 62
     7
100
AcDbLine
 10
9.350679397583008
 20
101.832878112793
 30
0.0
 11
9.350679397583008
 21
96.14984130859375
 31
0.0
  0
LINE
  5
2AA
330
1F
100
AcDbEntity
  8
VIEW0002
  6
Continuous
 62
     7
100
AcDbLine
 10
44.03248025373747
 20
89.29775845486928
 30
0.0
 11
9.234434157456137
 21
92.25122777352708
 31
0.0
  0
LINE
  5
2AB
330
1F
100
AcDbEntity
  8
VIEW0002
  6
Continuous
 62
     7
100
AcDbLine
 10
44.03252927223762
 20
108.6849721256151
 30
0.0
 11
9.350689961763594
 21
105.7413658083325
 31
0.0
  0
LINE
  5
2AC
330
1F
100
AcDbEntity
  8
VIEW0002
  6
Continuous
 62
     7
100
AcDbLine
 10
1.780169486999512
 20
104.7413635253906
 30
0.0
 11
1.780169486999512
 21
100.0520324707031
 31
0.0
  0
LINE
  5
2AD
330
1F
100
AcDbEntity
  8
VIEW0002
  6
Continuous
 62
     7
100
AcDbLine
 10
1.780169022107229
 20
104.7413670495967
 30
0.0
 11
9.35067758505637
 21
105.7413662844887
 31
0.0
  0
LINE
  5
2AE
330
1F
100
AcDbEntity
  8
VIEW0002
  6
Continuous
 62
     7
100
AcDbLine
 10
2.106135736616999
 20
93.19830615419737
 30
0.0
 11
9.466351160686987
 21
92.22608483887757
 31
0.0
  0
LINE
  5
2AF
330
1F
100
AcDbEntity
  8
VIEW0002
  6
Continuous
 62
     7
100
AcDbLine
 10
41.78021453730874
 20
92.74135308664464
 30
0.0
 11
40.16378186656233
 21
98.86372253922902
 31
0.0
  0
LINE
  5
2B0
330
1F
100
AcDbEntity
  8
VIEW0002
  6
Continuous
 62
     7
100
AcDbLine
 10
40.1637817727384
 20
99.11899618587776
 30
0.0
 11
41.78021249590283
 21
105.2413582618379
 31
0.0
  0
LINE
  5
2B1
330
1F
100
AcDbEntity
  8
VIEW0002
  6
Continuous
 62
     7
100
AcDbLine
 10
9.350679234095246
 20
96.14983928000493
 30
0.0
 11
41.78020194210637
 21
92.74135912998793
 31
0.0
  0
LINE
  5
2B2
330
1F
100
AcDbEntity
  8
VIEW0002
  6
Continuous
 62
     7
100
AcDbLine
 10
9.350679439450857
 20
101.8328783452822
 30
0.0
 11
41.78021044639939
 21
105.2413593675527
 31
0.0
  0
LINE
  5
2B3
330
1F
100
AcDbEntity
  8
VIEW0002
  6
Continuous
 62
     7
100
AcDbLine
 10
41.78021621704102
 20
108.4938049316406
 30
0.0
 11
41.78021621704102
 21
106.0347061157227
 31
0.0
  0
LINE
  5
2B4
330
1F
100
AcDbEntity
  8
VIEW0002
  6
Continuous
 62
     7
100
AcDbLine
 10
41.78021621704102
 20
91.96781921386719
 30
0.0
 11
41.78021621704102
 21
89.48892211914062
 31
0.0
  0
LINE
  5
2B5
330
1F
100
AcDbEntity
  8
VIEW0002
  6
Continuous
 62
     7
100
AcDbLine
 10
51.18017959594727
 20
84.99136352539062
 30
0.0
 11
66.22481536865234
 21
84.99136352539062
 31
0.0
  0
LINE
  5
2B6
330
1F
100
AcDbEntity
  8
VIEW0002
  6
Continuous
 62
     7
100
AcDbLine
 10
4.189562797546387
 20
100.4913635253906
 30
0.0
 11
4.189562797546387
 21
97.49136352539062
 31
0.0
  0
LINE
  5
2B7
330
1F
100
AcDbEntity
  8
VIEW0002
  6
Continuous
 62
     7
100
AcDbLine
 10
51.18022293860562
 20
84.99134582331175
 30
0.0
 11
46.55101277283216
 21
88.3589678114538
 31
0.0
  0
LINE
  5
2B8
330
1F
100
AcDbEntity
  8
VIEW0002
  6
Continuous
 62
     7
100
AcDbLine
 10
4.189568048231877
 20
100.4913587930327
 30
0.0
 11
9.350681555591713
 21
101.8328760979831
 31
0.0
  0
LINE
  5
2B9
330
1F
100
AcDbEntity
  8
VIEW0002
  6
Continuous
 62
     7
100
AcDbLine
 10
4.18956624979678
 20
97.49136588106133
 30
0.0
 11
9.350685295178675
 21
96.14984713662456
 31
0.0
  0
LINE
  5
2BA
330
1F
100
AcDbEntity
  8
VIEW0002
  6
CENTER
 62
     7
100
AcDbLine
 10
-28.56981468200684
 20
98.99136352539062
 30
0.0
 11
3.41224193572998
 21
98.99136352539062
 31
0.0
  0
LINE
  5
2BB
330
1F
100
AcDbEntity
  8
VIEW0002
  6
Continuous
 62
     7
100
AcDbLine
 10
-7.344815254211426
 20
100.3663635253906
 30
0.0
 11
-6.164616584777832
 21
100.3663635253906
 31
0.0
  0
LINE
  5
2BC
330
1F
100
AcDbEntity
  8
VIEW0002
  6
Continuous
 62
     7
100
AcDbLine
 10
-7.344815254211426
 20
97.61636352539062
 30
0.0
 11
-6.164616584777832
 21
97.61636352539062
 31
0.0
  0
LINE
  5
2BD
330
1F
100
AcDbEntity
  8
VIEW0002
  6
Continuous
 62
     7
100
AcDbLine
 10
-7.344815254211426
 20
98.11636352539062
 30
0.0
 11
-6.164616584777832
 21
98.11636352539062
 31
0.0
  0
LINE
  5
2BE
330
1F
100
AcDbEntity
  8
VIEW0002
  6
Continuous
 62
     7
100
AcDbLine
 10
-7.344815254211426
 20
99.86636352539062
 30
0.0
 11
-6.164616584777832
 21
99.86636352539062
 31
0.0
  0
LINE
  5
2BF
330
1F
100
AcDbEntity
  8
VIEW0002
  6
Continuous
 62
     7
100
AcDbLine
 10
-0.27501392364502
 20
100.3663635253906
 30
0.0
 11
0.905184745788574
 21
100.3663635253906
 31
0.0
  0
LINE
  5
2C0
330
1F
100
AcDbEntity
  8
VIEW0002
  6
Continuous
 62
     7
100
AcDbLine
 10
-0.27501392364502
 20
99.86636352539062
 30
0.0
 11
0.905184745788574
 21
99.86636352539062
 31
0.0
  0
LINE
  5
2C1
330
1F
100
AcDbEntity
  8
VIEW0002
  6
Continuous
 62
     7
100
AcDbLine
 10
-0.27501392364502
 20
98.11636352539062
 30
0.0
 11
0.905184745788574
 21
98.11636352539062
 31
0.0
  0
LINE
  5
2C2
330
1F
100
AcDbEntity
  8
VIEW0002
  6
Continuous
 62
     7
100
AcDbLine
 10
-0.27501392364502
 20
97.61636352539062
 30
0.0
 11
0.905184745788574
 21
97.61636352539062
 31
0.0
  0
LINE
  5
2C3
330
1F
100
AcDbEntity
  8
VIEW0002
  6
Continuous
 62
     7
100
AcDbLine
 10
-8.219815254211426
 20
97.93070220947266
 30
0.0
 11
-8.219815254211426
 21
93.24136352539062
 31
0.0
  0
LINE
  5
2C4
330
1F
100
AcDbEntity
  8
VIEW0002
  6
Continuous
 62
     7
100
AcDbLine
 10
-1.844815254211426
 20
97.90882873535156
 30
0.0
 11
-1.844815254211426
 21
97.86636352539062
 31
0.0
  0
LINE
  5
2C5
330
1F
100
AcDbEntity
  8
VIEW0002
  6
Continuous
 62
     7
100
AcDbLine
 10
-4.594815254211426
 20
97.90882873535156
 30
0.0
 11
-4.594815254211426
 21
97.86636352539062
 31
0.0
  0
LINE
  5
2C6
330
1F
100
AcDbEntity
  8
VIEW0002
  6
Continuous
 62
     7
100
AcDbLine
 10
-4.302350044250488
 20
97.61636352539062
 30
0.0
 11
-4.344815254211426
 21
97.61636352539062
 31
0.0
  0
LINE
  5
2C7
330
1F
100
AcDbEntity
  8
VIEW0002
  6
Continuous
 62
     7
100
AcDbLine
 10
-4.302350044250488
 20
100.3663635253906
 30
0.0
 11
-4.344815254211426
 21
100.3663635253906
 31
0.0
  0
LINE
  5
2C8
330
1F
100
AcDbEntity
  8
VIEW0002
  6
Continuous
 62
     7
100
AcDbLine
 10
1.780169486999512
 20
97.9306869506836
 30
0.0
 11
1.780169486999512
 21
93.24136352539062
 31
0.0
  0
LINE
  5
2C9
330
1F
100
AcDbEntity
  8
VIEW0002
  6
PHANTOM
 62
     7
100
AcDbLine
 10
66.1802218321025
 20
84.99134576208189
 30
0.0
 11
61.55101243752667
 21
88.35896718919906
 31
0.0
  0
LINE
  5
2CA
330
1F
100
AcDbEntity
  8
VIEW0002
  6
PHANTOM
 62
     7
100
AcDbLine
 10
59.03252892282886
 20
108.684975069692
 30
0.0
 11
51.78021479428256
 21
108.0694380016433
 31
0.0
  0
LINE
  5
2CB
330
1F
100
AcDbEntity
  8
VIEW0002
  6
PHANTOM
 62
     7
100
AcDbLine
 10
59.03247990432872
 20
89.29775551079231
 30
0.0
 11
51.78021518918675
 21
89.91328838489943
 31
0.0
  0
LINE
  5
2CC
330
1F
100
AcDbEntity
  8
VIEW0002
  6
PHANTOM
 62
     7
100
AcDbLine
 10
66.78021240234375
 20
100.7288970947266
 30
0.0
 11
66.78021240234375
 21
97.25382232666016
 31
0.0
  0
LINE
  5
2CD
330
1F
100
AcDbEntity
  8
VIEW0002
  6
PHANTOM
 62
     7
100
AcDbLine
 10
62.88059234619141
 20
104.2413635253906
 30
0.0
 11
77.8805923461914
 21
104.2413635253906
 31
0.0
  0
LINE
  5
2CE
330
1F
100
AcDbEntity
  8
VIEW0002
  6
PHANTOM
 62
     7
100
AcDbLine
 10
62.88180541992188
 20
101.2413635253906
 30
0.0
 11
77.88180541992188
 21
101.2413635253906
 31
0.0
  0
LINE
  5
2CF
330
1F
100
AcDbEntity
  8
VIEW0002
  6
PHANTOM
 62
     7
100
AcDbLine
 10
66.22481536865234
 20
112.9913635253906
 30
0.0
 11
81.22481536865234
 21
112.9913635253906
 31
0.0
  0
LINE
  5
2D0
330
1F
100
AcDbEntity
  8
VIEW0002
  6
PHANTOM
 62
     7
100
AcDbLine
 10
66.78021240234375
 20
112.9913635253906
 30
0.0
 11
66.78021240234375
 21
104.7538223266602
 31
0.0
  0
LINE
  5
2D1
330
1F
100
AcDbEntity
  8
VIEW0002
  6
PHANTOM
 62
     7
100
AcDbLine
 10
66.1802279990966
 20
112.9913479791716
 30
0.0
 11
61.55105562200694
 21
109.6237534812488
 31
0.0
  0
LINE
  5
2D2
330
1F
100
AcDbEntity
  8
VIEW0002
  6
PHANTOM
 62
     7
100
AcDbLine
 10
62.88059234619141
 20
93.74136352539062
 30
0.0
 11
77.8805923461914
 21
93.74136352539062
 31
0.0
  0
LINE
  5
2D3
330
1F
100
AcDbEntity
  8
VIEW0002
  6
PHANTOM
 62
     7
100
AcDbLine
 10
66.78021240234375
 20
93.22889709472656
 30
0.0
 11
66.78021240234375
 21
84.99136352539062
 31
0.0
  0
LINE
  5
2D4
330
1F
100
AcDbEntity
  8
VIEW0002
  6
PHANTOM
 62
     7
100
AcDbLine
 10
62.88059234619141
 20
96.74136352539062
 30
0.0
 11
77.8805923461914
 21
96.74136352539062
 31
0.0
  0
LINE
  5
2D5
330
1F
100
AcDbEntity
  8
VIEW0002
  6
Continuous
 62
     7
100
AcDbLine
 10
56.78021240234375
 20
91.96781921386719
 30
0.0
 11
56.78021240234375
 21
89.48892211914062
 31
0.0
  0
LINE
  5
2D6
330
1F
100
AcDbEntity
  8
VIEW0002
  6
Continuous
 62
     7
100
AcDbLine
 10
56.78021240234375
 20
108.4938049316406
 30
0.0
 11
56.78021240234375
 21
106.0347061157227
 31
0.0
  0
LINE
  5
2D7
330
1F
100
AcDbEntity
  8
VIEW0002
  6
PHANTOM
 62
     7
100
AcDbLine
 10
51.78021624508501
 20
104.7158412533013
 30
0.0
 11
56.7802093705494
 21
105.2413617018078
 31
0.0
  0
LINE
  5
2D8
330
1F
100
AcDbEntity
  8
VIEW0002
  6
PHANTOM
 62
     7
100
AcDbLine
 10
51.78021343149194
 20
93.26687664612267
 30
0.0
 11
56.78020276315635
 21
92.74135659636057
 31
0.0
  0
LINE
  5
2D9
330
1F
100
AcDbEntity
  8
VIEW0002
  6
PHANTOM
 62
     7
100
AcDbLine
 10
55.13008287771913
 20
98.99135798896779
 30
0.0
 11
56.78021261193328
 21
105.2413577943348
 31
0.0
  0
LINE
  5
2DA
330
1F
100
AcDbEntity
  8
VIEW0002
  6
PHANTOM
 62
     7
100
AcDbLine
 10
56.7802154719913
 20
92.74136166111526
 30
0.0
 11
55.16378474882687
 21
98.86372373707539
 31
0.0
  0
LINE
  5
2DB
330
1F
100
AcDbEntity
  8
VIEW0002
  6
PHANTOM
 62
     7
100
AcDbLine
 10
16.7801685333252
 20
95.36897277832031
 30
0.0
 11
16.7801685333252
 21
93.24136352539062
 31
0.0
  0
LINE
  5
2DC
330
1F
100
AcDbEntity
  8
VIEW0002
  6
PHANTOM
 62
     7
100
AcDbLine
 10
6.780183792114258
 20
96.81798553466797
 30
0.0
 11
6.780183792114258
 21
93.24136352539062
 31
0.0
  0
LINE
  5
2DD
330
1F
100
AcDbEntity
  8
VIEW0002
  6
PHANTOM
 62
     7
100
AcDbLine
 10
16.78017031924686
 20
93.24136443718903
 30
0.0
 11
24.46634997683613
 21
92.2260860430203
 31
0.0
  0
LINE
  5
2DE
330
1F
100
AcDbEntity
  8
VIEW0002
  6
PHANTOM
 62
     7
100
AcDbLine
 10
16.78016902008351
 20
104.7413660015632
 30
0.0
 11
24.35067569210923
 21
105.7413649866804
 31
0.0
  0
LINE
  5
2DF
330
1F
100
AcDbEntity
  8
VIEW0002
  6
PHANTOM
 62
     7
100
AcDbLine
 10
16.7801685333252
 20
104.7413635253906
 30
0.0
 11
16.7801685333252
 21
102.6137542724609
 31
0.0
  0
LINE
  5
2E0
330
1F
100
AcDbEntity
  8
VIEW0002
  6
PHANTOM
 62
     7
100
AcDbLine
 10
51.78021479428256
 20
108.0694380016433
 30
0.0
 11
24.35068961235484
 21
105.7413687524094
 31
0.0
  0
LINE
  5
2E1
330
1F
100
AcDbEntity
  8
VIEW0002
  6
PHANTOM
 62
     7
100
AcDbLine
 10
51.78021518918675
 20
89.91328838489943
 30
0.0
 11
24.23443547099849
 21
92.25122468830784
 31
0.0
  0
LINE
  5
2E2
330
1F
100
AcDbEntity
  8
VIEW0002
  6
PHANTOM
 62
     7
100
AcDbLine
 10
6.780183792114258
 20
104.7413635253906
 30
0.0
 11
6.780183792114258
 21
101.1647338867188
 31
0.0
  0
LINE
  5
2E3
330
1F
100
AcDbEntity
  8
VIEW0002
  6
PHANTOM
 62
     7
100
AcDbLine
 10
6.780183792114258
 20
93.24136352539062
 30
0.0
 11
16.7801685333252
 21
93.24136352539062
 31
0.0
  0
LINE
  5
2E4
330
1F
100
AcDbEntity
  8
VIEW0002
  6
PHANTOM
 62
     7
100
AcDbLine
 10
6.780183792114258
 20
104.7413635253906
 30
0.0
 11
16.7801685333252
 21
104.7413635253906
 31
0.0
  0
LINE
  5
2E5
330
1F
100
AcDbEntity
  8
VIEW0002
  6
PHANTOM
 62
     7
100
AcDbLine
 10
51.78021621704102
 20
98.99136352539062
 30
0.0
 11
55.13008117675781
 21
98.99136352539062
 31
0.0
  0
LINE
  5
2E6
330
1F
100
AcDbEntity
  8
VIEW0002
  6
CENTER
 62
     7
100
AcDbLine
 10
55.13008117675781
 20
98.99136352539062
 30
0.0
 11
84.33709716796875
 21
98.99136352539062
 31
0.0
  0
LINE
  5
2E7
330
1F
100
AcDbEntity
  8
VIEW0002
  6
PHANTOM
 62
     7
100
AcDbLine
 10
30.10221330232792
 20
34.88847924557408
 30
0.0
 11
55.87371587594551
 21
37.14319355621223
 31
0.0
  0
LINE
  5
2E8
330
1F
100
AcDbEntity
  8
VIEW0002
  6
PHANTOM
 62
     7
100
AcDbLine
 10
20.22147744683926
 20
17.24848478608838
 30
0.0
 11
25.08276776856712
 21
27.67355497521921
 31
0.0
  0
LINE
  5
2E9
330
1F
100
AcDbEntity
  8
VIEW0002
  6
PHANTOM
 62
     7
100
AcDbLine
 10
8.280183792114258
 20
14.65026569366455
 30
0.0
 11
16.14309883117676
 21
14.65026569366455
 31
0.0
  0
LINE
  5
2EA
330
1F
100
AcDbEntity
  8
VIEW0002
  6
PHANTOM
 62
     7
100
AcDbLine
 10
30.11971389106839
 20
31.37664091736562
 30
0.0
 11
57.81039917045167
 21
33.79926195750309
 31
0.0
  0
LINE
  5
2EB
330
1F
100
AcDbEntity
  8
VIEW0002
  6
PHANTOM
 62
     7
100
AcDbLine
 10
6.780183792114258
 20
18.15026473999023
 30
0.0
 11
16.14309883117676
 21
18.15026473999023
 31
0.0
  0
LINE
  5
2EC
330
1F
100
AcDbEntity
  8
VIEW0002
  6
PHANTOM
 62
     7
100
AcDbLine
 10
17.04940065417625
 20
18.72764856457569
 30
0.0
 11
22.02260717844068
 21
29.39272381193766
 31
0.0
  0
LINE
  5
2ED
330
1F
100
AcDbEntity
  8
VIEW0002
  6
PHANTOM
 62
     7
100
AcDbLine
 10
6.780183792114258
 20
18.15026473999023
 30
0.0
 11
6.780183792114258
 21
16.15026473999023
 31
0.0
  0
LINE
  5
2EE
330
1F
100
AcDbEntity
  8
VIEW0002
  6
Continuous
 62
     7
100
AcDbLine
 10
49.48343250577427
 20
40.0307216372396
 30
0.0
 11
49.50960949405938
 21
40.03533734668132
 31
0.0
  0
LINE
  5
2EF
330
1F
100
AcDbEntity
  8
VIEW0002
  6
PHANTOM
 62
     7
100
AcDbLine
 10
63.53721074897408
 20
38.34073317188889
 30
0.0
 11
65.11294673064468
 21
38.61857794795854
 31
0.0
  0
LINE
  5
2F0
330
1F
100
AcDbEntity
  8
VIEW0002
  6
PHANTOM
 62
     7
100
AcDbLine
 10
61.12999475611848
 20
36.49468497148496
 30
0.0
 11
62.07941398507437
 21
36.66209320239036
 31
0.0
  0
LINE
  5
2F1
330
1F
100
AcDbEntity
  8
VIEW0002
  6
Continuous
 62
     7
100
AcDbLine
 10
66.78021242550253
 20
41.04496301312002
 30
0.0
 11
67.20915206447812
 21
40.33006479089161
 31
0.0
  0
LINE
  5
2F2
330
1F
100
AcDbEntity
  8
VIEW0002
  6
PHANTOM
 62
     7
100
AcDbLine
 10
60.83272880720639
 20
39.99626017065533
 30
0.0
 11
64.74832238610303
 21
40.6866849840526
 31
0.0
  0
LINE
  5
2F3
330
1F
100
AcDbEntity
  8
VIEW0002
  6
PHANTOM
 62
     7
100
AcDbLine
 10
67.32720864604572
 20
38.9670439984454
 30
0.0
 11
81.70057713156693
 21
15.01146926472987
 31
0.0
  0
LINE
  5
2F4
330
1F
100
AcDbEntity
  8
VIEW0002
  6
PHANTOM
 62
     7
100
AcDbLine
 10
64.48343352820527
 20
40.03072351192242
 30
0.0
 11
64.50961051649037
 21
40.03533922136413
 31
0.0
  0
LINE
  5
2F5
330
1F
100
AcDbEntity
  8
VIEW0002
  6
PHANTOM
 62
     7
100
AcDbLine
 10
77.47034097812117
 20
21.18729280033866
 30
0.0
 11
77.98987500919159
 21
21.19603295391818
 31
0.0
  0
LINE
  5
2F6
330
1F
100
AcDbEntity
  8
VIEW0002
  6
PHANTOM
 62
     7
100
AcDbLine
 10
58.74030553548044
 20
34.23289632807762
 30
0.0
 11
60.86324971281951
 21
36.35584050541669
 31
0.0
  0
LINE
  5
2F7
330
1F
100
AcDbEntity
  8
VIEW0002
  6
PHANTOM
 62
     7
100
AcDbLine
 10
57.42358673743232
 20
37.86591420874212
 30
0.0
 11
58.1654575879698
 21
38.6077850592796
 31
0.0
  0
LINE
  5
2F8
330
1F
100
AcDbEntity
  8
VIEW0002
  6
PHANTOM
 62
     7
100
AcDbLine
 10
63.19766022388959
 20
37.54842196949868
 30
0.0
 11
64.13686252967469
 21
39.73989411107221
 31
0.0
  0
LINE
  5
2F9
330
1F
100
AcDbEntity
  8
VIEW0002
  6
PHANTOM
 62
     7
100
AcDbLine
 10
66.04097325221946
 20
38.19529370741004
 30
0.0
 11
75.63424843857992
 21
22.20652803292986
 31
0.0
  0
LINE
  5
2FA
330
1F
100
AcDbEntity
  8
VIEW0002
  6
Continuous
 62
     7
100
AcDbLine
 10
49.50960949405938
 20
40.03533734668132
 30
0.0
 11
49.85247244079134
 21
40.09579333662218
 31
0.0
  0
LINE
  5
2FB
330
1F
100
AcDbEntity
  8
VIEW0002
  6
PHANTOM
 62
     7
100
AcDbLine
 10
64.50961051649037
 20
40.03533922136413
 30
0.0
 11
64.85247346322234
 21
40.09579521130499
 31
0.0
  0
LINE
  5
2FC
330
1F
100
AcDbEntity
  8
VIEW0002
  6
PHANTOM
 62
     7
100
AcDbLine
 10
66.22481536865234
 20
84.99136352539062
 30
0.0
 11
81.22481536865234
 21
84.99136352539062
 31
0.0
  0
LINE
  5
2FD
330
1F
100
AcDbEntity
  8
VIEW0002
  6
CENTER
 62
     7
100
AcDbLine
 10
57.47838592529297
 20
108.7299346923828
 30
0.0
 11
57.47838592529297
 21
111.306884765625
 31
0.0
  0
LINE
  5
2FE
330
1F
100
AcDbEntity
  8
VIEW0002
  6
CENTER
 62
     7
100
AcDbLine
 10
56.79776000976562
 20
109.9913635253906
 30
0.0
 11
58.29441070556641
 21
109.9913635253906
 31
0.0
  0
LINE
  5
2FF
330
1F
100
AcDbEntity
  8
VIEW0002
  6
CENTER
 62
     7
100
AcDbLine
 10
58.66100311279297
 20
109.9913635253906
 30
0.0
 11
61.13018035888672
 21
109.9913635253906
 31
0.0
  0
LINE
  5
300
330
1F
100
AcDbEntity
  8
VIEW0002
  6
CENTER
 62
     7
100
AcDbLine
 10
59.79361724853516
 20
107.8519668579102
 30
0.0
 11
59.79361724853516
 21
111.8026351928711
 31
0.0
  0
LINE
  5
301
330
1F
100
AcDbEntity
  8
VIEW0002
  6
CENTER
 62
     7
100
AcDbLine
 10
65.1958236694336
 20
108.6825485229492
 30
0.0
 11
65.1958236694336
 21
111.2809524536133
 31
0.0
  0
LINE
  5
302
330
1F
100
AcDbEntity
  8
VIEW0002
  6
CENTER
 62
     7
100
AcDbLine
 10
64.39857482910156
 20
109.9913635253906
 30
0.0
 11
66.16932678222656
 21
109.9913635253906
 31
0.0
  0
LINE
  5
303
330
1F
100
AcDbEntity
  8
VIEW0002
  6
CENTER
 62
     7
100
AcDbLine
 10
56.79776000976562
 20
87.99136352539062
 30
0.0
 11
58.29441070556641
 21
87.99136352539062
 31
0.0
  0
LINE
  5
304
330
1F
100
AcDbEntity
  8
VIEW0002
  6
CENTER
 62
     7
100
AcDbLine
 10
58.66100311279297
 20
87.99136352539062
 30
0.0
 11
61.13018035888672
 21
87.99136352539062
 31
0.0
  0
LINE
  5
305
330
1F
100
AcDbEntity
  8
VIEW0002
  6
CENTER
 62
     7
100
AcDbLine
 10
64.39857482910156
 20
87.99136352539062
 30
0.0
 11
66.16932678222656
 21
87.99136352539062
 31
0.0
  0
LINE
  5
306
330
1F
100
AcDbEntity
  8
VIEW0002
  6
Continuous
 62
     7
100
AcDbLine
 10
67.51105499267578
 20
111.3517074584961
 30
0.0
 11
67.51105499267578
 21
86.63101196289062
 31
0.0
  0
LINE
  5
307
330
1F
100
AcDbEntity
  8
VIEW0002
  6
CENTER
 62
     7
100
AcDbLine
 10
57.47838592529297
 20
89.2527847290039
 30
0.0
 11
57.47838592529297
 21
86.67583465576172
 31
0.0
  0
LINE
  5
308
330
1F
100
AcDbEntity
  8
VIEW0002
  6
CENTER
 62
     7
100
AcDbLine
 10
59.79361724853516
 20
90.13075256347656
 30
0.0
 11
59.79361724853516
 21
86.18008422851562
 31
0.0
  0
LINE
  5
309
330
1F
100
AcDbEntity
  8
VIEW0002
  6
CENTER
 62
     7
100
AcDbLine
 10
65.1958236694336
 20
89.30017852783203
 30
0.0
 11
65.1958236694336
 21
86.70176696777344
 31
0.0
  0
LINE
  5
30A
330
1F
100
AcDbEntity
  8
VIEW0002
  6
CENTER
 62
     7
100
AcDbLine
 10
72.47838592529297
 20
108.7299346923828
 30
0.0
 11
72.47838592529297
 21
111.306884765625
 31
0.0
  0
LINE
  5
30B
330
1F
100
AcDbEntity
  8
VIEW0002
  6
CENTER
 62
     7
100
AcDbLine
 10
71.79776000976562
 20
109.9913635253906
 30
0.0
 11
73.2944107055664
 21
109.9913635253906
 31
0.0
  0
LINE
  5
30C
330
1F
100
AcDbEntity
  8
VIEW0002
  6
CENTER
 62
     7
100
AcDbLine
 10
73.66100311279297
 20
109.9913635253906
 30
0.0
 11
76.13018035888672
 21
109.9913635253906
 31
0.0
  0
LINE
  5
30D
330
1F
100
AcDbEntity
  8
VIEW0002
  6
CENTER
 62
     7
100
AcDbLine
 10
74.79361724853516
 20
107.8519668579102
 30
0.0
 11
74.79361724853516
 21
111.8026351928711
 31
0.0
  0
LINE
  5
30E
330
1F
100
AcDbEntity
  8
VIEW0002
  6
CENTER
 62
     7
100
AcDbLine
 10
80.1958236694336
 20
108.6825485229492
 30
0.0
 11
80.1958236694336
 21
111.2809524536133
 31
0.0
  0
LINE
  5
30F
330
1F
100
AcDbEntity
  8
VIEW0002
  6
CENTER
 62
     7
100
AcDbLine
 10
79.39857482910156
 20
109.9913635253906
 30
0.0
 11
81.16932678222656
 21
109.9913635253906
 31
0.0
  0
LINE
  5
310
330
1F
100
AcDbEntity
  8
VIEW0002
  6
CENTER
 62
     7
100
AcDbLine
 10
71.79776000976562
 20
87.99136352539062
 30
0.0
 11
73.2944107055664
 21
87.99136352539062
 31
0.0
  0
LINE
  5
311
330
1F
100
AcDbEntity
  8
VIEW0002
  6
CENTER
 62
     7
100
AcDbLine
 10
73.66100311279297
 20
87.99136352539062
 30
0.0
 11
76.13018035888672
 21
87.99136352539062
 31
0.0
  0
LINE
  5
312
330
1F
100
AcDbEntity
  8
VIEW0002
  6
CENTER
 62
     7
100
AcDbLine
 10
79.39857482910156
 20
87.99136352539062
 30
0.0
 11
81.16932678222656
 21
87.99136352539062
 31
0.0
  0
LINE
  5
313
330
1F
100
AcDbEntity
  8
VIEW0002
  6
PHANTOM
 62
     7
100
AcDbLine
 10
82.51105499267578
 20
111.3517074584961
 30
0.0
 11
82.51105499267578
 21
86.63101196289062
 31
0.0
  0
LINE
  5
314
330
1F
100
AcDbEntity
  8
VIEW0002
  6
CENTER
 62
     7
100
AcDbLine
 10
72.47838592529297
 20
89.2527847290039
 30
0.0
 11
72.47838592529297
 21
86.67583465576172
 31
0.0
  0
LINE
  5
315
330
1F
100
AcDbEntity
  8
VIEW0002
  6
CENTER
 62
     7
100
AcDbLine
 10
74.79361724853516
 20
90.13075256347656
 30
0.0
 11
74.79361724853516
 21
86.18008422851562
 31
0.0
  0
LINE
  5
316
330
1F
100
AcDbEntity
  8
VIEW0002
  6
CENTER
 62
     7
100
AcDbLine
 10
80.1958236694336
 20
89.30017852783203
 30
0.0
 11
80.1958236694336
 21
86.70176696777344
 31
0.0
  0
LINE
  5
317
330
1F
100
AcDbEntity
  8
VIEW0002
  6
Continuous
 62
     7
100
AcDbLine
 10
-3.203907941346085
 20
-49.55784829120349
 30
0.0
 11
-1.288383612253732
 21
-46.36530759477313
 31
0.0
  0
LINE
  5
318
330
1F
100
AcDbEntity
  8
VIEW0002
  6
Continuous
 62
     7
100
AcDbLine
 10
-1.060165643692017
 20
-75.15154266357422
 30
0.0
 11
22.18983459472656
 21
-75.15154266357422
 31
0.0
  0
LINE
  5
319
330
1F
100
AcDbEntity
  8
VIEW0002
  6
CENTER
 62
     7
100
AcDbLine
 10
21.18983459472656
 20
-57.77654266357422
 30
0.0
 11
21.18983459472656
 21
-62.52654266357422
 31
0.0
  0
LINE
  5
31A
330
1F
100
AcDbEntity
  8
VIEW0002
  6
Continuous
 62
     7
100
AcDbLine
 10
15.68983364105225
 20
-45.15154266357422
 30
0.0
 11
20.02436828613281
 21
-45.15154266357422
 31
0.0
  0
LINE
  5
31B
330
1F
100
AcDbEntity
  8
VIEW0002
  6
CENTER
 62
     7
100
AcDbLine
 10
23.51478576660156
 20
-70.65154266357422
 30
0.0
 11
19.86482238769531
 21
-70.65154266357422
 31
0.0
  0
LINE
  5
31C
330
1F
100
AcDbEntity
  8
VIEW0002
  6
Continuous
 62
     7
100
AcDbLine
 10
24.08356309631683
 20
-49.55774935914081
 30
0.0
 11
22.1680996092345
 21
-46.36531006606519
 31
0.0
  0
LINE
  5
31D
330
1F
100
AcDbEntity
  8
VIEW0002
  6
CENTER
 62
     7
100
AcDbLine
 10
23.56483459472656
 20
-60.15154266357422
 30
0.0
 11
18.81483459472656
 21
-60.15154266357422
 31
0.0
  0
LINE
  5
31E
330
1F
100
AcDbEntity
  8
VIEW0002
  6
Continuous
 62
     7
100
AcDbLine
 10
15.68983364105225
 20
-45.15154266357422
 30
0.0
 11
15.68983364105225
 21
-66.15154266357422
 31
0.0
  0
LINE
  5
31F
330
1F
100
AcDbEntity
  8
VIEW0002
  6
CENTER
 62
     7
100
AcDbLine
 10
23.51478576660156
 20
-55.65154266357422
 30
0.0
 11
19.86482238769531
 21
-55.65154266357422
 31
0.0
  0
LINE
  5
320
330
1F
100
AcDbEntity
  8
VIEW0002
  6
CENTER
 62
     7
100
AcDbLine
 10
-0.310165643692017
 20
-57.77654266357422
 30
0.0
 11
-0.310165643692017
 21
-62.52654266357422
 31
0.0
  0
LINE
  5
321
330
1F
100
AcDbEntity
  8
VIEW0002
  6
CENTER
 62
     7
100
AcDbLine
 10
-2.635116815567017
 20
-55.65154266357422
 30
0.0
 11
1.014846444129944
 21
-55.65154266357422
 31
0.0
  0
LINE
  5
322
330
1F
100
AcDbEntity
  8
VIEW0002
  6
CENTER
 62
     7
100
AcDbLine
 10
-2.635116815567017
 20
-70.65154266357422
 30
0.0
 11
1.014846444129944
 21
-70.65154266357422
 31
0.0
  0
LINE
  5
323
330
1F
100
AcDbEntity
  8
VIEW0002
  6
CENTER
 62
     7
100
AcDbLine
 10
-0.810165643692017
 20
-68.82654571533203
 30
0.0
 11
-0.810165643692017
 21
-72.4765396118164
 31
0.0
  0
LINE
  5
324
330
1F
100
AcDbEntity
  8
VIEW0002
  6
CENTER
 62
     7
100
AcDbLine
 10
-2.685165643692017
 20
-60.15154266357422
 30
0.0
 11
2.064834117889404
 21
-60.15154266357422
 31
0.0
  0
LINE
  5
325
330
1F
100
AcDbEntity
  8
VIEW0002
  6
CENTER
 62
     7
100
AcDbLine
 10
-0.810165643692017
 20
-53.72429656982422
 30
0.0
 11
-0.810165643692017
 21
-57.47654724121094
 31
0.0
  0
LINE
  5
326
330
1F
100
AcDbEntity
  8
VIEW0002
  6
Continuous
 62
     7
100
AcDbLine
 10
-3.560165643692017
 20
-50.84408569335938
 30
0.0
 11
-3.560165643692017
 21
-72.65154266357422
 31
0.0
  0
LINE
  5
327
330
1F
100
AcDbEntity
  8
VIEW0002
  6
CENTER
 62
     7
100
AcDbLine
 10
10.43983364105225
 20
-41.93680572509766
 30
0.0
 11
10.43983364105225
 21
-78.3103256225586
 31
0.0
  0
LINE
  5
328
330
1F
100
AcDbEntity
  8
VIEW0002
  6
Continuous
 62
     7
100
AcDbLine
 10
12.68983364105225
 20
-45.15154266357422
 30
0.0
 11
12.68983364105225
 21
-66.15154266357422
 31
0.0
  0
LINE
  5
329
330
1F
100
AcDbEntity
  8
VIEW0002
  6
CENTER
 62
     7
100
AcDbLine
 10
21.68983459472656
 20
-54.01237487792969
 30
0.0
 11
21.68983459472656
 21
-57.47654724121094
 31
0.0
  0
LINE
  5
32A
330
1F
100
AcDbEntity
  8
VIEW0002
  6
Continuous
 62
     7
100
AcDbLine
 10
5.189834594726562
 20
-45.15154266357422
 30
0.0
 11
5.189834594726562
 21
-66.15154266357422
 31
0.0
  0
LINE
  5
32B
330
1F
100
AcDbEntity
  8
VIEW0002
  6
Continuous
 62
     7
100
AcDbLine
 10
8.189833641052246
 20
-45.15154266357422
 30
0.0
 11
8.189833641052246
 21
-66.15154266357422
 31
0.0
  0
LINE
  5
32C
330
1F
100
AcDbEntity
  8
VIEW0002
  6
CENTER
 62
     7
100
AcDbLine
 10
21.68983459472656
 20
-68.82654571533203
 30
0.0
 11
21.68983459472656
 21
-72.4765396118164
 31
0.0
  0
LINE
  5
32D
330
1F
100
AcDbEntity
  8
VIEW0002
  6
Continuous
 62
     7
100
AcDbLine
 10
0.855361580848694
 20
-45.15154266357422
 30
0.0
 11
5.189834594726562
 21
-45.15154266357422
 31
0.0
  0
LINE
  5
32E
330
1F
100
AcDbEntity
  8
VIEW0002
  6
Continuous
 62
     7
100
AcDbLine
 10
8.189833641052246
 20
-45.15154266357422
 30
0.0
 11
12.68983364105225
 21
-45.15154266357422
 31
0.0
  0
LINE
  5
32F
330
1F
100
AcDbEntity
  8
VIEW0002
  6
Continuous
 62
     7
100
AcDbLine
 10
24.43983459472656
 20
-50.84398651123047
 30
0.0
 11
24.43983459472656
 21
-72.65154266357422
 31
0.0
  0
LINE
  5
330
330
1F
100
AcDbEntity
  8
VIEW0002
  6
Continuous
 62
     7
100
AcDbLine
 10
50.91499273451555
 20
40.89240069238609
 30
0.0
 11
51.78021582950966
 21
41.04496287277373
 31
0.0
  0
LINE
  5
331
330
1F
100
AcDbEntity
  8
VIEW0002
  6
Continuous
 62
     7
100
AcDbLine
 10
52.84174164536038
 20
39.27574992309209
 30
0.0
 11
67.21510393627408
 21
15.32018551370543
 31
0.0
  0
LINE
  5
332
330
1F
100
AcDbEntity
  8
VIEW0002
  6
Continuous
 62
     7
100
AcDbLine
 10
65.78752026977153
 20
40.86992361453294
 30
0.0
 11
66.78021718314827
 21
41.04496286908481
 31
0.0
  0
LINE
  5
333
330
1F
100
AcDbEntity
  8
VIEW0002
  6
PHANTOM
 62
     7
100
AcDbLine
 10
67.84174097702672
 20
39.27575167107263
 30
0.0
 11
82.21510406526613
 21
15.32018593281196
 31
0.0
  0
LINE
  5
334
330
1F
100
AcDbEntity
  8
VIEW0002
  6
PHANTOM
 62
     7
100
AcDbLine
 10
82.21510406526613
 20
15.32018593281196
 30
0.0
 11
81.70057713156693
 21
15.01146926472987
 31
0.0
  0
LINE
  5
335
330
1F
100
AcDbEntity
  8
VIEW0002
  6
Continuous
 62
     7
100
AcDbLine
 10
67.21510393627408
 20
15.32018551370543
 30
0.0
 11
66.70057700257487
 21
15.01146884562335
 31
0.0
  0
LINE
  5
336
330
1F
100
AcDbEntity
  8
VIEW0002
  6
Continuous
 62
     7
100
AcDbLine
 10
-22.83579254150391
 20
104.1413650512695
 30
0.0
 11
-8.219841003417969
 21
104.1413650512695
 31
0.0
  0
LINE
  5
337
330
1F
100
AcDbEntity
  8
VIEW0002
  6
Continuous
 62
     7
100
AcDbLine
 10
-22.83579254150391
 20
93.84136199951172
 30
0.0
 11
-8.219841003417969
 21
93.84136199951172
 31
0.0
  0
LINE
  5
338
330
1F
100
AcDbEntity
  8
VIEW0002
  6
Continuous
 62
     7
100
AcDbLine
 10
-25.56981658935547
 20
102.9913635253906
 30
0.0
 11
-25.56981658935547
 21
94.99136352539062
 31
0.0
  0
LINE
  5
339
330
1F
100
AcDbEntity
  8
VIEW0002
  6
Continuous
 62
     7
100
AcDbLine
 10
-22.83579254150391
 20
104.1413650512695
 30
0.0
 11
-22.83579254150391
 21
103.9913635253906
 31
0.0
  0
LINE
  5
33A
330
1F
100
AcDbEntity
  8
VIEW0002
  6
Continuous
 62
     7
100
AcDbLine
 10
-26.06981658935547
 20
94.99136352539062
 30
0.0
 11
-23.83579254150391
 21
94.99136352539062
 31
0.0
  0
LINE
  5
33B
330
1F
100
AcDbEntity
  8
VIEW0002
  6
Continuous
 62
     7
100
AcDbLine
 10
-26.06981658935547
 20
102.9913635253906
 30
0.0
 11
-26.06981658935547
 21
94.99136352539062
 31
0.0
  0
LINE
  5
33C
330
1F
100
AcDbEntity
  8
VIEW0002
  6
Continuous
 62
     7
100
AcDbLine
 10
-22.83579254150391
 20
93.99136352539062
 30
0.0
 11
-22.83579254150391
 21
93.84136199951172
 31
0.0
  0
LINE
  5
33D
330
1F
100
AcDbEntity
  8
VIEW0002
  6
Continuous
 62
     7
100
AcDbLine
 10
-26.06981658935547
 20
102.9913635253906
 30
0.0
 11
-23.83579254150391
 21
102.9913635253906
 31
0.0
  0
LINE
  5
33E
330
1F
100
AcDbEntity
  8
VIEW0002
  6
Continuous
 62
     7
100
AcDbLine
 10
-11.31981658935547
 20
104.1413650512695
 30
0.0
 11
-11.31981658935547
 21
93.84136199951172
 31
0.0
  0
LINE
  5
33F
330
1F
100
AcDbEntity
  8
VIEW0002
  6
Continuous
 62
     7
100
AcDbLine
 10
-16.31981658935547
 20
104.1413650512695
 30
0.0
 11
-16.31981658935547
 21
93.84136199951172
 31
0.0
  0
LINE
  5
340
330
1F
100
AcDbEntity
  8
VIEW0002
  6
Continuous
 62
     7
100
AcDbLine
 10
-12.04499790380932
 20
19.50832397329375
 30
0.0
 11
-15.35284740541389
 21
28.43950025666728
 31
0.0
  0
LINE
  5
341
330
1F
100
AcDbEntity
  8
VIEW0002
  6
Continuous
 62
     7
100
AcDbLine
 10
-25.56978988647461
 20
34.15026473999023
 30
0.0
 11
-25.56978988647461
 21
31.55023956298828
 31
0.0
  0
LINE
  5
342
330
1F
100
AcDbEntity
  8
VIEW0002
  6
Continuous
 62
     7
100
AcDbLine
 10
-25.06978988647461
 20
31.05023956298828
 30
0.0
 11
-19.10384178161621
 21
31.05023956298828
 31
0.0
  0
LINE
  5
343
330
1F
100
AcDbEntity
  8
VIEW0002
  6
Continuous
 62
     7
100
AcDbLine
 10
-14.85824352594292
 20
18.46637912372341
 30
0.0
 11
-18.16609302754749
 21
27.39755540709694
 31
0.0
  0
LINE
  5
344
330
1F
100
AcDbEntity
  8
VIEW0002
  6
Continuous
 62
     7
100
AcDbLine
 10
-25.06978988647461
 20
30.55023956298828
 30
0.0
 11
-22.90312385559082
 21
30.55023956298828
 31
0.0
  0
LINE
  5
345
330
1F
100
AcDbEntity
  8
VIEW0002
  6
Continuous
 62
     7
100
AcDbLine
 10
-26.06978988647461
 20
34.15026473999023
 30
0.0
 11
-26.06978988647461
 21
31.55023956298828
 31
0.0
  0
LINE
  5
346
330
1F
100
AcDbEntity
  8
VIEW0002
  6
Continuous
 62
     7
100
AcDbLine
 10
-26.06978988647461
 20
34.15026473999023
 30
0.0
 11
-25.56978988647461
 21
34.15026473999023
 31
0.0
  0
LINE
  5
347
330
1F
100
AcDbEntity
  8
VIEW0002
  6
Continuous
 62
     7
100
AcDbLine
 10
-21.34903144836426
 20
28.05023956298828
 30
0.0
 11
-19.10384178161621
 21
28.05023956298828
 31
0.0
  0
LINE
  5
348
330
1F
100
AcDbEntity
  8
VIEW0002
  6
Continuous
 62
     7
100
AcDbLine
 10
-23.06978957746795
 20
31.05023946658666
 30
0.0
 11
-22.29771417183713
 21
28.73401317693132
 31
0.0
  0
LINE
  5
349
330
1F
100
AcDbEntity
  8
VIEW0002
  6
Continuous
 62
     7
100
AcDbLine
 10
-64.70962524414062
 20
32.56646347045898
 30
0.0
 11
-64.70962524414062
 21
30.55023956298828
 31
0.0
  0
LINE
  5
34A
330
1F
100
AcDbEntity
  8
VIEW0002
  6
Continuous
 62
     7
100
AcDbLine
 10
-56.05962371826172
 20
14.55026721954346
 30
0.0
 11
-55.55962371826172
 21
14.55026721954346
 31
0.0
  0
LINE
  5
34B
330
1F
100
AcDbEntity
  8
VIEW0002
  6
Continuous
 62
     7
100
AcDbLine
 10
-56.05962371826172
 20
28.4002685546875
 30
0.0
 11
-55.55962371826172
 21
28.4002685546875
 31
0.0
  0
LINE
  5
34C
330
1F
100
AcDbEntity
  8
VIEW0002
  6
Continuous
 62
     7
100
AcDbLine
 10
-65.85962677001953
 20
28.4002685546875
 30
0.0
 11
-65.35962677001953
 21
28.4002685546875
 31
0.0
  0
LINE
  5
34D
330
1F
100
AcDbEntity
  8
VIEW0002
  6
Continuous
 62
     7
100
AcDbLine
 10
-65.35962677001953
 20
30.05023956298828
 30
0.0
 11
-65.35962677001953
 21
14.55026721954346
 31
0.0
  0
LINE
  5
34E
330
1F
100
AcDbEntity
  8
VIEW0002
  6
CENTER
 62
     7
100
AcDbLine
 10
-60.70962142944336
 20
36.65026473999023
 30
0.0
 11
-60.70962142944336
 21
12.05026721954346
 31
0.0
  0
LINE
  5
34F
330
1F
100
AcDbEntity
  8
VIEW0002
  6
Continuous
 62
     7
100
AcDbLine
 10
-56.05962371826172
 20
30.05023956298828
 30
0.0
 11
-56.05962371826172
 21
14.55026721954346
 31
0.0
  0
LINE
  5
350
330
1F
100
AcDbEntity
  8
VIEW0002
  6
Continuous
 62
     7
100
AcDbLine
 10
-56.70962142944336
 20
31.05023956298828
 30
0.0
 11
-56.55962371826172
 21
31.05023956298828
 31
0.0
  0
LINE
  5
351
330
1F
100
AcDbEntity
  8
VIEW0002
  6
Continuous
 62
     7
100
AcDbLine
 10
-65.85962677001953
 20
30.05023956298828
 30
0.0
 11
-65.85962677001953
 21
14.55026721954346
 31
0.0
  0
LINE
  5
352
330
1F
100
AcDbEntity
  8
VIEW0002
  6
Continuous
 62
     7
100
AcDbLine
 10
-64.85962677001953
 20
17.05026626586914
 30
0.0
 11
-56.55962371826172
 21
17.05026626586914
 31
0.0
  0
LINE
  5
353
330
1F
100
AcDbEntity
  8
VIEW0002
  6
Continuous
 62
     7
100
AcDbLine
 10
-65.85962677001953
 20
14.55026721954346
 30
0.0
 11
-65.35962677001953
 21
14.55026721954346
 31
0.0
  0
LINE
  5
354
330
1F
100
AcDbEntity
  8
VIEW0002
  6
Continuous
 62
     7
100
AcDbLine
 10
-55.55962371826172
 20
30.05023956298828
 30
0.0
 11
-55.55962371826172
 21
14.55026721954346
 31
0.0
  0
LINE
  5
355
330
1F
100
AcDbEntity
  8
VIEW0002
  6
Continuous
 62
     7
100
AcDbLine
 10
-64.85962677001953
 20
30.55023956298828
 30
0.0
 11
-56.55962371826172
 21
30.55023956298828
 31
0.0
  0
LINE
  5
356
330
1F
100
AcDbEntity
  8
VIEW0002
  6
Continuous
 62
     7
100
AcDbLine
 10
-64.85962677001953
 20
31.05023956298828
 30
0.0
 11
-64.70962524414062
 21
31.05023956298828
 31
0.0
  0
LINE
  5
357
330
1F
100
AcDbEntity
  8
VIEW0002
  6
Continuous
 62
     7
100
AcDbLine
 10
-56.70962142944336
 20
32.56646347045898
 30
0.0
 11
-56.70962142944336
 21
30.55023956298828
 31
0.0
  0
LINE
  5
358
330
1F
100
AcDbEntity
  8
VIEW0002
  6
Continuous
 62
     7
100
AcDbLine
 10
-5.219817161560059
 20
18.15026473999023
 30
0.0
 11
-5.219817161560059
 21
18.65026473999023
 31
0.0
  0
LINE
  5
359
330
1F
100
AcDbEntity
  8
VIEW0002
  6
Continuous
 62
     7
100
AcDbLine
 10
-1.219817519187927
 20
18.15026473999023
 30
0.0
 11
-1.219817519187927
 21
18.65026473999023
 31
0.0
  0
LINE
  5
35A
330
1F
100
AcDbEntity
  8
VIEW0002
  6
Continuous
 62
     7
100
AcDbLine
 10
-3.219825083437629
 20
19.15027290137846
 30
0.0
 11
-3.401810325060903
 21
18.65027257724871
 31
0.0
  0
LINE
  5
35B
330
1F
100
AcDbEntity
  8
VIEW0002
  6
Continuous
 62
     7
100
AcDbLine
 10
-3.219799128755305
 20
18.65026910011677
 30
0.0
 11
-3.037813887132032
 21
19.15026942424652
 31
0.0
  0
LINE
  5
35C
330
1F
100
AcDbEntity
  8
VIEW0002
  6
Continuous
 62
     7
100
AcDbLine
 10
-5.119826316833496
 20
18.65026473999023
 30
0.0
 11
-5.119826316833496
 21
19.15026473999023
 31
0.0
  0
LINE
  5
35D
330
1F
100
AcDbEntity
  8
VIEW0002
  6
Continuous
 62
     7
100
AcDbLine
 10
-1.31980836391449
 20
18.65026473999023
 30
0.0
 11
-1.31980836391449
 21
19.15026473999023
 31
0.0
  0
LINE
  5
35E
330
1F
100
AcDbEntity
  8
VIEW0002
  6
Continuous
 62
     7
100
AcDbLine
 10
-1.969817280769348
 20
20.40026473999023
 30
0.0
 11
-1.969817280769348
 21
22.15026473999023
 31
0.0
  0
LINE
  5
35F
330
1F
100
AcDbEntity
  8
VIEW0002
  6
Continuous
 62
     7
100
AcDbLine
 10
-2.369795799255371
 20
20.40026473999023
 30
0.0
 11
-2.369795799255371
 21
22.55026626586914
 31
0.0
  0
LINE
  5
360
330
1F
100
AcDbEntity
  8
VIEW0002
  6
Continuous
 62
     7
100
AcDbLine
 10
-4.069746971130371
 20
20.40026473999023
 30
0.0
 11
-4.069746971130371
 21
22.55026626586914
 31
0.0
  0
LINE
  5
361
330
1F
100
AcDbEntity
  8
VIEW0002
  6
Continuous
 62
     7
100
AcDbLine
 10
-4.469817161560059
 20
20.40026473999023
 30
0.0
 11
-4.469817161560059
 21
22.15026473999023
 31
0.0
  0
LINE
  5
362
330
1F
100
AcDbEntity
  8
VIEW0002
  6
Continuous
 62
     7
100
AcDbLine
 10
-4.469767693520978
 20
22.15022228693427
 30
0.0
 11
-4.069770498917427
 21
22.55021948153782
 31
0.0
  0
LINE
  5
363
330
1F
100
AcDbEntity
  8
VIEW0002
  6
Continuous
 62
     7
100
AcDbLine
 10
-4.469817161560059
 20
22.15026473999023
 30
0.0
 11
-1.969817280769348
 21
22.15026473999023
 31
0.0
  0
LINE
  5
364
330
1F
100
AcDbEntity
  8
VIEW0002
  6
Continuous
 62
     7
100
AcDbLine
 10
-4.069808006286621
 20
22.55026626586914
 30
0.0
 11
-2.369811058044434
 21
22.55026626586914
 31
0.0
  0
LINE
  5
365
330
1F
100
AcDbEntity
  8
VIEW0002
  6
Continuous
 62
     7
100
AcDbLine
 10
-8.198103904724121
 20
23.40026473999023
 30
0.0
 11
-6.969817161560059
 21
23.40026473999023
 31
0.0
  0
LINE
  5
366
330
1F
100
AcDbEntity
  8
VIEW0002
  6
Continuous
 62
     7
100
AcDbLine
 10
0.530182480812073
 20
23.40026473999023
 30
0.0
 11
1.758484482765198
 21
23.40026473999023
 31
0.0
  0
LINE
  5
367
330
1F
100
AcDbEntity
  8
VIEW0002
  6
Continuous
 62
     7
100
AcDbLine
 10
-6.219817161560059
 20
19.15026473999023
 30
0.0
 11
-0.219802260398865
 21
19.15026473999023
 31
0.0
  0
LINE
  5
368
330
1F
100
AcDbEntity
  8
VIEW0002
  6
Continuous
 62
     7
100
AcDbLine
 10
-1.969786575947939
 20
22.15025465571392
 30
0.0
 11
-2.369789165348099
 21
22.55025724511408
 31
0.0
  0
LINE
  5
369
330
1F
100
AcDbEntity
  8
VIEW0002
  6
Continuous
 62
     7
100
AcDbLine
 10
-4.341948509216309
 20
20.40026473999023
 30
0.0
 11
-2.097670555114746
 21
20.40026473999023
 31
0.0
  0
LINE
  5
36A
330
1F
100
AcDbEntity
  8
VIEW0002
  6
Continuous
 62
     7
100
AcDbLine
 10
-1.219817519187927
 20
18.65026473999023
 30
0.0
 11
-5.219817161560059
 21
18.65026473999023
 31
0.0
  0
LINE
  5
36B
330
1F
100
AcDbEntity
  8
VIEW0002
  6
CENTER
 62
     7
100
AcDbLine
 10
-3.219817161560059
 20
23.11964416503906
 30
0.0
 11
-3.219817161560059
 21
13.64210224151611
 31
0.0
  0
LINE
  5
36C
330
1F
100
AcDbEntity
  8
VIEW0002
  6
PHANTOM
 62
     7
100
AcDbLine
 10
11.78017461509598
 20
19.15027313571449
 30
0.0
 11
11.59818937347271
 21
18.65027281158474
 31
0.0
  0
LINE
  5
36D
330
1F
100
AcDbEntity
  8
VIEW0002
  6
PHANTOM
 62
     7
100
AcDbLine
 10
11.78020056977831
 20
18.6502693344528
 30
0.0
 11
11.96218581140158
 21
19.15026965858255
 31
0.0
  0
LINE
  5
36E
330
1F
100
AcDbEntity
  8
VIEW0002
  6
PHANTOM
 62
     7
100
AcDbLine
 10
9.880173683166504
 20
18.65026473999023
 30
0.0
 11
9.880173683166504
 21
19.15026473999023
 31
0.0
  0
LINE
  5
36F
330
1F
100
AcDbEntity
  8
VIEW0002
  6
PHANTOM
 62
     7
100
AcDbLine
 10
13.6801929473877
 20
18.65026473999023
 30
0.0
 11
13.6801929473877
 21
19.15026473999023
 31
0.0
  0
LINE
  5
370
330
1F
100
AcDbEntity
  8
VIEW0002
  6
PHANTOM
 62
     7
100
AcDbLine
 10
13.03018379211426
 20
20.40026473999023
 30
0.0
 11
13.03018379211426
 21
22.15026473999023
 31
0.0
  0
LINE
  5
371
330
1F
100
AcDbEntity
  8
VIEW0002
  6
PHANTOM
 62
     7
100
AcDbLine
 10
12.63020515441895
 20
20.40026473999023
 30
0.0
 11
12.63020515441895
 21
22.55026626586914
 31
0.0
  0
LINE
  5
372
330
1F
100
AcDbEntity
  8
VIEW0002
  6
PHANTOM
 62
     7
100
AcDbLine
 10
10.93025398254395
 20
20.40026473999023
 30
0.0
 11
10.93025398254395
 21
22.55026626586914
 31
0.0
  0
LINE
  5
373
330
1F
100
AcDbEntity
  8
VIEW0002
  6
PHANTOM
 62
     7
100
AcDbLine
 10
10.53018283843994
 20
20.40026473999023
 30
0.0
 11
10.53018283843994
 21
22.15026473999023
 31
0.0
  0
LINE
  5
374
330
1F
100
AcDbEntity
  8
VIEW0002
  6
PHANTOM
 62
     7
100
AcDbLine
 10
10.5302336513452
 20
22.15022228693427
 30
0.0
 11
10.93023084594875
 21
22.55021948153782
 31
0.0
  0
LINE
  5
375
330
1F
100
AcDbEntity
  8
VIEW0002
  6
PHANTOM
 62
     7
100
AcDbLine
 10
10.53018283843994
 20
22.15026473999023
 30
0.0
 11
13.03018379211426
 21
22.15026473999023
 31
0.0
  0
LINE
  5
376
330
1F
100
AcDbEntity
  8
VIEW0002
  6
PHANTOM
 62
     7
100
AcDbLine
 10
10.9301929473877
 20
22.55026626586914
 30
0.0
 11
12.63018989562988
 21
22.55026626586914
 31
0.0
  0
LINE
  5
377
330
1F
100
AcDbEntity
  8
VIEW0002
  6
PHANTOM
 62
     7
100
AcDbLine
 10
6.801895618438721
 20
23.40026473999023
 30
0.0
 11
8.030182838439941
 21
23.40026473999023
 31
0.0
  0
LINE
  5
378
330
1F
100
AcDbEntity
  8
VIEW0002
  6
PHANTOM
 62
     7
100
AcDbLine
 10
15.53018379211426
 20
23.40026473999023
 30
0.0
 11
16.75848579406738
 21
23.40026473999023
 31
0.0
  0
LINE
  5
379
330
1F
100
AcDbEntity
  8
VIEW0002
  6
PHANTOM
 62
     7
100
AcDbLine
 10
8.780182838439941
 20
19.15026473999023
 30
0.0
 11
14.78019905090332
 21
19.15026473999023
 31
0.0
  0
LINE
  5
37A
330
1F
100
AcDbEntity
  8
VIEW0002
  6
PHANTOM
 62
     7
100
AcDbLine
 10
13.03021476891824
 20
22.15025465571392
 30
0.0
 11
12.63021217951808
 21
22.55025724511408
 31
0.0
  0
LINE
  5
37B
330
1F
100
AcDbEntity
  8
VIEW0002
  6
PHANTOM
 62
     7
100
AcDbLine
 10
10.65805244445801
 20
20.40026473999023
 30
0.0
 11
12.90233039855957
 21
20.40026473999023
 31
0.0
  0
LINE
  5
37C
330
1F
100
AcDbEntity
  8
VIEW0002
  6
PHANTOM
 62
     7
100
AcDbLine
 10
13.78018379211426
 20
18.65026473999023
 30
0.0
 11
9.780182838439941
 21
18.65026473999023
 31
0.0
  0
LINE
  5
37D
330
1F
100
AcDbEntity
  8
VIEW0002
  6
PHANTOM
 62
     7
100
AcDbLine
 10
13.78018379211426
 20
18.15026473999023
 30
0.0
 11
13.78018379211426
 21
18.65026473999023
 31
0.0
  0
LINE
  5
37E
330
1F
100
AcDbEntity
  8
VIEW0002
  6
PHANTOM
 62
     7
100
AcDbLine
 10
9.780182838439941
 20
18.15026473999023
 30
0.0
 11
9.780182838439941
 21
18.65026473999023
 31
0.0
  0
LINE
  5
37F
330
1F
100
AcDbEntity
  8
VIEW0002
  6
CENTER
 62
     7
100
AcDbLine
 10
11.78018379211426
 20
23.11964416503906
 30
0.0
 11
11.78018379211426
 21
13.64210224151611
 31
0.0
  0
LINE
  5
380
330
1F
100
AcDbEntity
  8
VIEW0002
  6
Continuous
 62
     7
100
AcDbLine
 10
-9.231752395629883
 20
14.55026721954346
 30
0.0
 11
23.74568367004395
 21
14.55026721954346
 31
0.0
  0
LINE
  5
381
330
1F
100
AcDbEntity
  8
VIEW0002
  6
Continuous
 62
     7
100
AcDbLine
 10
-9.231752395629883
 20
17.55026626586914
 30
0.0
 11
-8.219815254211426
 21
17.55026626586914
 31
0.0
  0
LINE
  5
382
330
1F
100
AcDbEntity
  8
VIEW0002
  6
Continuous
 62
     7
100
AcDbLine
 10
5.362200260162354
 20
17.55026626586914
 30
0.0
 11
23.74568367004395
 21
17.55026626586914
 31
0.0
  0
LINE
  5
383
330
1F
100
AcDbEntity
  8
VIEW0002
  6
Continuous
 62
     7
100
AcDbLine
 10
34.24770736694336
 20
17.99543762207031
 30
0.0
 11
34.24770736694336
 21
16.99543762207031
 31
0.0
  0
LINE
  5
384
330
1F
100
AcDbEntity
  8
VIEW0002
  6
Continuous
 62
     7
100
AcDbLine
 10
22.64483890599806
 20
14.14527670695349
 30
0.0
 11
24.22907458153578
 21
14.56977138039229
 31
0.0
  0
LINE
  5
385
330
1F
100
AcDbEntity
  8
VIEW0002
  6
Continuous
 62
     7
100
AcDbLine
 10
34.88021087646484
 20
18.1649169921875
 30
0.0
 11
34.88021087646484
 21
17.47184753417969
 31
0.0
  0
LINE
  5
386
330
1F
100
AcDbEntity
  8
VIEW0002
  6
Continuous
 62
     7
100
AcDbLine
 10
22.70954366777968
 20
13.9037952505168
 30
0.0
 11
34.58373546108214
 21
17.08547537897165
 31
0.0
  0
LINE
  5
387
330
1F
100
AcDbEntity
  8
VIEW0002
  6
Continuous
 62
     7
100
AcDbLine
 10
34.24770502369421
 20
17.99543516967079
 30
0.0
 11
34.88020839414855
 21
18.16491393841448
 31
0.0
  0
LINE
  5
388
330
1F
100
AcDbEntity
  8
VIEW0002
  6
Continuous
 62
     7
100
AcDbLine
 10
26.31730183620488
 20
15.1293101915833
 30
0.0
 11
34.24770673926763
 21
17.25425579882097
 31
0.0
  0
LINE
  5
389
330
1F
100
AcDbEntity
  8
VIEW0002
  6
Continuous
 62
     7
100
AcDbLine
 10
36.78020858764648
 20
17.15562438964844
 30
0.0
 11
36.78020858764648
 21
8.150239944458008
 31
0.0
  0
LINE
  5
38A
330
1F
100
AcDbEntity
  8
VIEW0002
  6
Continuous
 62
     7
100
AcDbLine
 10
31.11594183681057
 20
29.55067027238412
 30
0.0
 11
26.4784090103382
 21
19.31244387184604
 31
0.0
  0
LINE
  5
38B
330
1F
100
AcDbEntity
  8
VIEW0002
  6
Continuous
 62
     7
100
AcDbLine
 10
40.78020858764648
 20
17.65024185180664
 30
0.0
 11
37.78020858764648
 21
17.65024185180664
 31
0.0
  0
LINE
  5
38C
330
1F
100
AcDbEntity
  8
VIEW0002
  6
Continuous
 62
     7
100
AcDbLine
 10
40.78020858764648
 20
17.15024185180664
 30
0.0
 11
38.28020858764648
 21
17.15024185180664
 31
0.0
  0
LINE
  5
38D
330
1F
100
AcDbEntity
  8
VIEW0002
  6
Continuous
 62
     7
100
AcDbLine
 10
37.78020858764648
 20
16.65024185180664
 30
0.0
 11
37.78020858764648
 21
15.15024089813232
 31
0.0
  0
LINE
  5
38E
330
1F
100
AcDbEntity
  8
VIEW0002
  6
Continuous
 62
     7
100
AcDbLine
 10
40.78020858764648
 20
18.15024185180664
 30
0.0
 11
37.78019332885742
 21
18.15024185180664
 31
0.0
  0
LINE
  5
38F
330
1F
100
AcDbEntity
  8
VIEW0002
  6
Continuous
 62
     7
100
AcDbLine
 10
37.28020858764648
 20
17.15024185180664
 30
0.0
 11
37.28020858764648
 21
8.150239944458008
 31
0.0
  0
LINE
  5
390
330
1F
100
AcDbEntity
  8
VIEW0002
  6
Continuous
 62
     7
100
AcDbLine
 10
36.78020858764648
 20
8.150239944458008
 30
0.0
 11
37.28020095825195
 21
8.150239944458008
 31
0.0
  0
LINE
  5
391
330
1F
100
AcDbEntity
  8
VIEW0002
  6
Continuous
 62
     7
100
AcDbLine
 10
33.84866847149613
 20
28.31284753059911
 30
0.0
 11
29.21113564502376
 21
18.07462113006104
 31
0.0
  0
LINE
  5
392
330
1F
100
AcDbEntity
  8
VIEW0002
  6
Continuous
 62
     7
100
AcDbLine
 10
41.28020858764648
 20
30.90023803710938
 30
0.0
 11
41.28020858764648
 21
18.65024185180664
 31
0.0
  0
LINE
  5
393
330
1F
100
AcDbEntity
  8
VIEW0002
  6
Continuous
 62
     7
100
AcDbLine
 10
41.78020858764648
 20
30.90023803710938
 30
0.0
 11
41.78020858764648
 21
18.65024185180664
 31
0.0
  0
LINE
  5
394
330
1F
100
AcDbEntity
  8
VIEW0002
  6
Continuous
 62
     7
100
AcDbLine
 10
42.28020858764648
 20
30.90023803710938
 30
0.0
 11
42.28020858764648
 21
18.65024185180664
 31
0.0
  0
LINE
  5
395
330
1F
100
AcDbEntity
  8
VIEW0002
  6
Continuous
 62
     7
100
AcDbLine
 10
22.12221176491556
 20
14.55026789844903
 30
0.0
 11
22.21964618583348
 21
14.18663769222507
 31
0.0
  0
LINE
  5
396
330
1F
100
AcDbEntity
  8
VIEW0002
  6
Continuous
 62
     7
100
AcDbLine
 10
22.38103098943797
 20
14.5502672293872
 30
0.0
 11
22.46112764227016
 21
14.2513424540067
 31
0.0
  0
LINE
  5
397
330
1F
100
AcDbEntity
  8
VIEW0002
  6
Continuous
 62
     7
100
AcDbLine
 10
34.75957870483398
 20
31.90023803710938
 30
0.0
 11
40.78020858764648
 21
31.90023803710938
 31
0.0
  0
LINE
  5
398
330
1F
100
AcDbEntity
  8
VIEW0002
  6
Continuous
 62
     7
100
AcDbLine
 10
40.61354446411133
 20
31.40023803710938
 30
0.0
 11
40.78020858764648
 21
31.40023803710938
 31
0.0
  0
LINE
  5
399
330
1F
100
AcDbEntity
  8
VIEW0002
  6
Continuous
 62
     7
100
AcDbLine
 10
36.03020858764648
 20
32.40023803710938
 30
0.0
 11
40.78020858764648
 21
32.40023803710938
 31
0.0
  0
LINE
  5
39A
330
1F
100
AcDbEntity
  8
VIEW0002
  6
Continuous
 62
     7
100
AcDbLine
 10
40.7802085754518
 20
31.90023867121315
 30
0.0
 11
40.00813316982098
 21
29.58401238155783
 31
0.0
  0
LINE
  5
39B
330
1F
100
AcDbEntity
  8
VIEW0002
  6
Continuous
 62
     7
100
AcDbLine
 10
34.75957870483398
 20
28.90024185180664
 30
0.0
 11
39.05945205688477
 21
28.90024185180664
 31
0.0
  0
ARC
  5
39C
330
1F
100
AcDbEntity
  8
VIEW0002
  6
Continuous
 62
     7
100
AcDbCircle
 10
-6.719815254211426
 20
16.15026473999023
 30
0.0
 40
1.5
100
AcDbArc
 50
179.999991348578
 51
270.0000006832453
  0
ARC
  5
39D
330
1F
100
AcDbEntity
  8
VIEW0002
  6
Continuous
 62
     7
100
AcDbCircle
 10
46.81894302368164
 20
38.13930892944336
 30
0.0
 40
1.5
100
AcDbArc
 50
280.0000023272567
 51
336.8014110406661
  0
ARC
  5
39E
330
1F
100
AcDbEntity
  8
VIEW0002
  6
Continuous
 62
     7
100
AcDbCircle
 10
46.70099258422852
 20
35.07222366333008
 30
0.0
 40
5.0
100
AcDbArc
 50
100.0000005060238
 51
135.0000003416227
  0
ARC
  5
39F
330
1F
100
AcDbEntity
  8
VIEW0002
  6
Continuous
 62
     7
100
AcDbCircle
 10
46.2168083190918
 20
36.00227737426758
 30
0.0
 40
0.5
100
AcDbArc
 50
100.0000005060238
 51
135.0000003416227
  0
ARC
  5
3A0
330
1F
100
AcDbEntity
  8
VIEW0002
  6
Continuous
 62
     7
100
AcDbCircle
 10
46.21681594848633
 20
36.00227737426758
 30
0.0
 40
0.5
100
AcDbArc
 50
100.0000005060238
 51
135.0000003416227
  0
ARC
  5
3A1
330
1F
100
AcDbEntity
  8
VIEW0002
  6
Continuous
 62
     7
100
AcDbCircle
 10
1.143099784851074
 20
19.15026473999023
 30
0.0
 40
1.0
100
AcDbArc
 50
269.9999974955218
 51
334.9999981659467
  0
ARC
  5
3A2
330
1F
100
AcDbEntity
  8
VIEW0002
  6
Continuous
 62
     7
100
AcDbCircle
 10
40.65582656860352
 20
39.6336784362793
 30
0.0
 40
2.5
100
AcDbArc
 50
275.0000033264838
 51
314.9999987477609
  0
ARC
  5
3A3
330
1F
100
AcDbEntity
  8
VIEW0002
  6
Continuous
 62
     7
100
AcDbCircle
 10
1.143099784851074
 20
19.15026473999023
 30
0.0
 40
4.5
100
AcDbArc
 50
269.9999974955218
 51
334.9999981659467
  0
ARC
  5
3A4
330
1F
100
AcDbEntity
  8
VIEW0002
  6
Continuous
 62
     7
100
AcDbCircle
 10
42.67966079711914
 20
35.29355239868164
 30
0.0
 40
1.5
100
AcDbArc
 50
275.0000033264838
 51
314.9999987477609
  0
ARC
  5
3A5
330
1F
100
AcDbEntity
  8
VIEW0002
  6
Continuous
 62
     7
100
AcDbCircle
 10
62.43501281738281
 20
23.28699493408203
 30
0.0
 40
2.099999904632568
100
AcDbArc
 50
210.963796989461
 51
270.9638054893023
  0
ARC
  5
3A6
330
1F
100
AcDbEntity
  8
VIEW0002
  6
Continuous
 62
     7
100
AcDbCircle
 10
15.9737720489502
 20
24.92653274536133
 30
0.0
 40
6.5
100
AcDbArc
 50
95.00000150525099
 51
154.9999963447139
  0
ARC
  5
3A7
330
1F
100
AcDbEntity
  8
VIEW0002
  6
Continuous
 62
     7
100
AcDbCircle
 10
15.9737720489502
 20
24.92653274536133
 30
0.0
 40
10.0
100
AcDbArc
 50
95.00000150525099
 51
154.9999963447139
  0
ARC
  5
3A8
330
1F
100
AcDbEntity
  8
VIEW0002
  6
Continuous
 62
     7
100
AcDbCircle
 10
51.18021011352539
 20
97.25382232666016
 30
0.0
 40
0.6000000238418579
100
AcDbArc
 50
286.6015509148032
 51
0.0
  0
ARC
  5
3A9
330
1F
100
AcDbEntity
  8
VIEW0002
  6
Continuous
 62
     7
100
AcDbCircle
 10
-2.094815254211426
 20
97.86636352539062
 30
0.0
 40
0.25
100
AcDbArc
 50
269.9999974955218
 51
0.0
  0
ARC
  5
3AA
330
1F
100
AcDbEntity
  8
VIEW0002
  6
Continuous
 62
     7
100
AcDbCircle
 10
51.18021011352539
 20
100.7288970947266
 30
0.0
 40
0.6000000238418579
100
AcDbArc
 50
0.0
 51
73.39844908519679
  0
ARC
  5
3AB
330
1F
100
AcDbEntity
  8
VIEW0002
  6
Continuous
 62
     7
100
AcDbCircle
 10
51.18021011352539
 20
104.7538223266602
 30
0.0
 40
0.6000000238418579
100
AcDbArc
 50
286.6015509148032
 51
0.0
  0
ARC
  5
3AC
330
1F
100
AcDbEntity
  8
VIEW0002
  6
Continuous
 62
     7
100
AcDbCircle
 10
40.64721298217773
 20
98.99136352539062
 30
0.0
 40
0.5
100
AcDbArc
 50
165.2102139085342
 51
194.7897961093785
  0
ARC
  5
3AD
330
1F
100
AcDbEntity
  8
VIEW0002
  6
Continuous
 62
     7
100
AcDbCircle
 10
-2.094815254211426
 20
100.1163635253906
 30
0.0
 40
0.25
100
AcDbArc
 50
0.0
 51
90.00000250447816
  0
ARC
  5
3AE
330
1F
100
AcDbEntity
  8
VIEW0002
  6
Continuous
 62
     7
100
AcDbCircle
 10
-4.344815254211426
 20
100.1163635253906
 30
0.0
 40
0.25
100
AcDbArc
 50
90.00000250447816
 51
180.0000050089563
  0
ARC
  5
3AF
330
1F
100
AcDbEntity
  8
VIEW0002
  6
Continuous
 62
     7
100
AcDbCircle
 10
-4.344815254211426
 20
97.86636352539062
 30
0.0
 40
0.25
100
AcDbArc
 50
179.999991348578
 51
270.0000006832453
  0
ARC
  5
3B0
330
1F
100
AcDbEntity
  8
VIEW0002
  6
Continuous
 62
     7
100
AcDbCircle
 10
51.18021011352539
 20
93.22889709472656
 30
0.0
 40
0.6000000238418579
100
AcDbArc
 50
0.0
 51
73.39844908519679
  0
ARC
  5
3B1
330
1F
100
AcDbEntity
  8
VIEW0002
  6
Continuous
 62
     7
100
AcDbCircle
 10
1.451373100280762
 20
88.24136352539062
 30
0.0
 40
5.0
100
AcDbArc
 50
82.4752787185235
 51
90.00000250447816
  0
ARC
  5
3B2
330
1F
100
AcDbEntity
  8
VIEW0002
  6
Continuous
 62
     7
100
AcDbCircle
 10
8.811578750610352
 20
87.2691421508789
 30
0.0
 40
5.0
100
AcDbArc
 50
82.4752787185235
 51
85.14866940117986
  0
ARC
  5
3B3
330
1F
100
AcDbEntity
  8
VIEW0002
  6
Continuous
 62
     7
100
AcDbCircle
 10
43.60966873168945
 20
113.6670532226562
 30
0.0
 40
5.0
100
AcDbArc
 50
274.8513305988201
 51
306.0348495375531
  0
ARC
  5
3B4
330
1F
100
AcDbEntity
  8
VIEW0002
  6
Continuous
 62
     7
100
AcDbCircle
 10
43.60962295532227
 20
84.315673828125
 30
0.0
 40
5.0
100
AcDbArc
 50
53.96515046244691
 51
85.14866940117986
  0
ARC
  5
3B5
330
1F
100
AcDbEntity
  8
VIEW0002
  6
Continuous
 62
     7
100
AcDbCircle
 10
51.78021621704102
 20
95.24136352539062
 30
0.0
 40
1.5
100
AcDbArc
 50
106.6015490935704
 51
253.3984609243423
  0
ARC
  5
3B6
330
1F
100
AcDbEntity
  8
VIEW0002
  6
Continuous
 62
     7
100
AcDbCircle
 10
47.55640029907227
 20
95.24136352539062
 30
0.0
 40
1.5
100
AcDbArc
 50
90.00000250447816
 51
270.0000006832453
  0
ARC
  5
3B7
330
1F
100
AcDbEntity
  8
VIEW0002
  6
Continuous
 62
     7
100
AcDbCircle
 10
51.78021621704102
 20
102.7413635253906
 30
0.0
 40
1.5
100
AcDbArc
 50
106.6015490935704
 51
253.3984609243423
  0
ARC
  5
3B8
330
1F
100
AcDbEntity
  8
VIEW0002
  6
Continuous
 62
     7
100
AcDbCircle
 10
47.55640029907227
 20
102.7413635253906
 30
0.0
 40
1.5
100
AcDbArc
 50
90.00000250447816
 51
270.0000006832453
  0
ARC
  5
3B9
330
1F
100
AcDbEntity
  8
VIEW0002
  6
Continuous
 62
     7
100
AcDbCircle
 10
-3.219815254211426
 20
98.99136352539062
 30
0.0
 40
3.25
100
AcDbArc
 50
25.02899940217453
 51
154.9709953614981
  0
ARC
  5
3BA
330
1F
100
AcDbEntity
  8
VIEW0002
  6
Continuous
 62
     7
100
AcDbCircle
 10
-3.219815254211426
 20
98.99136352539062
 30
0.0
 40
2.75
100
AcDbArc
 50
25.02899940217453
 51
154.9709953614981
  0
ARC
  5
3BB
330
1F
100
AcDbEntity
  8
VIEW0002
  6
Continuous
 62
     7
100
AcDbCircle
 10
-3.219815254211426
 20
98.99136352539062
 30
0.0
 40
2.75
100
AcDbArc
 50
205.029004638502
 51
334.9710005978255
  0
ARC
  5
3BC
330
1F
100
AcDbEntity
  8
VIEW0002
  6
Continuous
 62
     7
100
AcDbCircle
 10
-7.344815254211426
 20
98.99136352539062
 30
0.0
 40
1.375
100
AcDbArc
 50
90.00000250447816
 51
270.0000006832453
  0
ARC
  5
3BD
330
1F
100
AcDbEntity
  8
VIEW0002
  6
Continuous
 62
     7
100
AcDbCircle
 10
0.905184745788574
 20
98.99136352539062
 30
0.0
 40
1.375
100
AcDbArc
 50
269.9999974955218
 51
90.00000250447816
  0
ARC
  5
3BE
330
1F
100
AcDbEntity
  8
VIEW0002
  6
Continuous
 62
     7
100
AcDbCircle
 10
-3.219815254211426
 20
98.99136352539062
 30
0.0
 40
3.25
100
AcDbArc
 50
205.029004638502
 51
334.9710005978255
  0
ARC
  5
3BF
330
1F
100
AcDbEntity
  8
VIEW0002
  6
Continuous
 62
     7
100
AcDbCircle
 10
-7.344815254211426
 20
98.99136352539062
 30
0.0
 40
0.875
100
AcDbArc
 50
90.00000250447816
 51
270.0000006832453
  0
ARC
  5
3C0
330
1F
100
AcDbEntity
  8
VIEW0002
  6
Continuous
 62
     7
100
AcDbCircle
 10
0.905184745788574
 20
98.99136352539062
 30
0.0
 40
0.875
100
AcDbArc
 50
269.9999974955218
 51
90.00000250447816
  0
ARC
  5
3C1
330
1F
100
AcDbEntity
  8
VIEW0002
  6
Continuous
 62
     7
100
AcDbCircle
 10
-0.27501392364502
 20
97.61636352539062
 30
0.0
 40
0.5
100
AcDbArc
 50
90.00000250447816
 51
154.9709953614981
  0
ARC
  5
3C2
330
1F
100
AcDbEntity
  8
VIEW0002
  6
Continuous
 62
     7
100
AcDbCircle
 10
-6.164616584777832
 20
97.61636352539062
 30
0.0
 40
0.5
100
AcDbArc
 50
25.02899940217453
 51
90.00000250447816
  0
ARC
  5
3C3
330
1F
100
AcDbEntity
  8
VIEW0002
  6
Continuous
 62
     7
100
AcDbCircle
 10
-6.164616584777832
 20
100.3663635253906
 30
0.0
 40
0.5
100
AcDbArc
 50
269.9999974955218
 51
334.9710005978255
  0
CIRCLE
  5
3C4
330
1F
100
AcDbEntity
  8
VIEW0002
  6
Continuous
 62
     7
100
AcDbCircle
 10
-3.219815254211426
 20
98.99136352539062
 30
0.0
 40
1.5
  0
ARC
  5
3C5
330
1F
100
AcDbEntity
  8
VIEW0002
  6
Continuous
 62
     7
100
AcDbCircle
 10
-0.27501392364502
 20
100.3663635253906
 30
0.0
 40
0.5
100
AcDbArc
 50
205.029004638502
 51
269.9999974955218
  0
CIRCLE
  5
3C6
330
1F
100
AcDbEntity
  8
VIEW0002
  6
Continuous
 62
     7
100
AcDbCircle
 10
-3.219815254211426
 20
98.99136352539062
 30
0.0
 40
1.75
  0
ARC
  5
3C7
330
1F
100
AcDbEntity
  8
VIEW0002
  6
PHANTOM
 62
     7
100
AcDbCircle
 10
62.556396484375
 20
102.7413635253906
 30
0.0
 40
1.5
100
AcDbArc
 50
90.00000250447816
 51
270.0000006832453
  0
ARC
  5
3C8
330
1F
100
AcDbEntity
  8
VIEW0002
  6
PHANTOM
 62
     7
100
AcDbCircle
 10
66.78021240234375
 20
102.7413635253906
 30
0.0
 40
1.5
100
AcDbArc
 50
106.6015490935704
 51
253.3984609243423
  0
ARC
  5
3C9
330
1F
100
AcDbEntity
  8
VIEW0002
  6
PHANTOM
 62
     7
100
AcDbCircle
 10
62.556396484375
 20
95.24136352539062
 30
0.0
 40
1.5
100
AcDbArc
 50
90.00000250447816
 51
270.0000006832453
  0
ARC
  5
3CA
330
1F
100
AcDbEntity
  8
VIEW0002
  6
PHANTOM
 62
     7
100
AcDbCircle
 10
66.78021240234375
 20
95.24136352539062
 30
0.0
 40
1.5
100
AcDbArc
 50
106.6015490935704
 51
253.3984609243423
  0
ARC
  5
3CB
330
1F
100
AcDbEntity
  8
VIEW0002
  6
PHANTOM
 62
     7
100
AcDbCircle
 10
58.609619140625
 20
84.315673828125
 30
0.0
 40
5.0
100
AcDbArc
 50
53.96515046244691
 51
85.14866940117986
  0
ARC
  5
3CC
330
1F
100
AcDbEntity
  8
VIEW0002
  6
PHANTOM
 62
     7
100
AcDbCircle
 10
58.60966491699219
 20
113.6670532226562
 30
0.0
 40
5.0
100
AcDbArc
 50
274.8513305988201
 51
306.0348495375531
  0
ARC
  5
3CD
330
1F
100
AcDbEntity
  8
VIEW0002
  6
PHANTOM
 62
     7
100
AcDbCircle
 10
66.18020629882812
 20
93.22889709472656
 30
0.0
 40
0.6000000238418579
100
AcDbArc
 50
0.0
 51
73.39844908519679
  0
ARC
  5
3CE
330
1F
100
AcDbEntity
  8
VIEW0002
  6
PHANTOM
 62
     7
100
AcDbCircle
 10
66.18020629882812
 20
104.7538223266602
 30
0.0
 40
0.6000000238418579
100
AcDbArc
 50
286.6015509148032
 51
0.0
  0
ARC
  5
3CF
330
1F
100
AcDbEntity
  8
VIEW0002
  6
PHANTOM
 62
     7
100
AcDbCircle
 10
66.18020629882812
 20
100.7288970947266
 30
0.0
 40
0.6000000238418579
100
AcDbArc
 50
0.0
 51
73.39844908519679
  0
ARC
  5
3D0
330
1F
100
AcDbEntity
  8
VIEW0002
  6
PHANTOM
 62
     7
100
AcDbCircle
 10
66.18020629882812
 20
97.25382232666016
 30
0.0
 40
0.6000000238418579
100
AcDbArc
 50
286.6015509148032
 51
0.0
  0
ARC
  5
3D1
330
1F
100
AcDbEntity
  8
VIEW0002
  6
PHANTOM
 62
     7
100
AcDbCircle
 10
30.97377395629883
 20
24.92653274536133
 30
0.0
 40
10.0
100
AcDbArc
 50
95.00000150525099
 51
154.9999963447139
  0
ARC
  5
3D2
330
1F
100
AcDbEntity
  8
VIEW0002
  6
PHANTOM
 62
     7
100
AcDbCircle
 10
30.97377395629883
 20
24.92653274536133
 30
0.0
 40
6.5
100
AcDbArc
 50
95.00000150525099
 51
154.9999963447139
  0
ARC
  5
3D3
330
1F
100
AcDbEntity
  8
VIEW0002
  6
PHANTOM
 62
     7
100
AcDbCircle
 10
16.14309883117676
 20
19.15026473999023
 30
0.0
 40
4.5
100
AcDbArc
 50
269.9999974955218
 51
334.9999981659467
  0
ARC
  5
3D4
330
1F
100
AcDbEntity
  8
VIEW0002
  6
PHANTOM
 62
     7
100
AcDbCircle
 10
16.14309883117676
 20
19.15026473999023
 30
0.0
 40
1.0
100
AcDbArc
 50
269.9999974955218
 51
334.9999981659467
  0
ARC
  5
3D5
330
1F
100
AcDbEntity
  8
VIEW0002
  6
PHANTOM
 62
     7
100
AcDbCircle
 10
8.280183792114258
 20
16.15026473999023
 30
0.0
 40
1.5
100
AcDbArc
 50
179.999991348578
 51
270.0000006832453
  0
ARC
  5
3D6
330
1F
100
AcDbEntity
  8
VIEW0002
  6
Continuous
 62
     7
100
AcDbCircle
 10
49.596435546875
 20
39.54293441772461
 30
0.0
 40
0.5
100
AcDbArc
 50
100.0000005060238
 51
156.8014040967914
  0
ARC
  5
3D7
330
1F
100
AcDbEntity
  8
VIEW0002
  6
PHANTOM
 62
     7
100
AcDbCircle
 10
77.43501281738281
 20
23.28699493408203
 30
0.0
 40
2.099999904632568
100
AcDbArc
 50
210.963796989461
 51
270.9638054893023
  0
ARC
  5
3D8
330
1F
100
AcDbEntity
  8
VIEW0002
  6
PHANTOM
 62
     7
100
AcDbCircle
 10
57.67965698242188
 20
35.29355239868164
 30
0.0
 40
1.5
100
AcDbArc
 50
275.0000033264838
 51
314.9999987477609
  0
ARC
  5
3D9
330
1F
100
AcDbEntity
  8
VIEW0002
  6
PHANTOM
 62
     7
100
AcDbCircle
 10
64.596435546875
 20
39.54293441772461
 30
0.0
 40
0.5
100
AcDbArc
 50
99.99999367583463
 51
156.8014040967914
  0
ARC
  5
3DA
330
1F
100
AcDbEntity
  8
VIEW0002
  6
PHANTOM
 62
     7
100
AcDbCircle
 10
55.65582275390625
 20
39.6336784362793
 30
0.0
 40
2.5
100
AcDbArc
 50
275.0000033264838
 51
314.9999987477609
  0
ARC
  5
3DB
330
1F
100
AcDbEntity
  8
VIEW0002
  6
Continuous
 62
     7
100
AcDbCircle
 10
61.21681213378906
 20
36.00227737426758
 30
0.0
 40
0.5
100
AcDbArc
 50
100.0000005060238
 51
135.0000003416227
  0
ARC
  5
3DC
330
1F
100
AcDbEntity
  8
VIEW0002
  6
PHANTOM
 62
     7
100
AcDbCircle
 10
61.21680450439453
 20
36.00227737426758
 30
0.0
 40
0.5
100
AcDbArc
 50
100.0000005060238
 51
135.0000003416227
  0
ARC
  5
3DD
330
1F
100
AcDbEntity
  8
VIEW0002
  6
PHANTOM
 62
     7
100
AcDbCircle
 10
61.70098876953125
 20
35.07222366333008
 30
0.0
 40
5.0
100
AcDbArc
 50
100.0000005060238
 51
135.0000003416227
  0
ARC
  5
3DE
330
1F
100
AcDbEntity
  8
VIEW0002
  6
PHANTOM
 62
     7
100
AcDbCircle
 10
61.81893920898438
 20
38.13930892944336
 30
0.0
 40
1.5
100
AcDbArc
 50
280.0000023272567
 51
336.8014110406661
  0
ARC
  5
3DF
330
1F
100
AcDbEntity
  8
VIEW0002
  6
Continuous
 62
     7
100
AcDbCircle
 10
50.26926803588867
 20
37.73226165771484
 30
0.0
 40
3.0
100
AcDbArc
 50
30.9637985833228
 51
100.0000005060238
  0
ARC
  5
3E0
330
1F
100
AcDbEntity
  8
VIEW0002
  6
Continuous
 62
     7
100
AcDbCircle
 10
50.26922607421875
 20
37.73225402832031
 30
0.0
 40
2.400000095367432
100
AcDbArc
 50
30.9637985833228
 51
100.0000005060238
  0
ARC
  5
3E1
330
1F
100
AcDbEntity
  8
VIEW0002
  6
Continuous
 62
     7
100
AcDbCircle
 10
50.26922988891602
 20
37.73225021362305
 30
0.0
 40
0.8999999761581421
100
AcDbArc
 50
30.9637985833228
 51
100.0000005060238
  0
ARC
  5
3E2
330
1F
100
AcDbEntity
  8
VIEW0002
  6
PHANTOM
 62
     7
100
AcDbCircle
 10
65.26923370361328
 20
37.73225021362305
 30
0.0
 40
0.8999999761581421
100
AcDbArc
 50
30.9637985833228
 51
100.0000005060238
  0
ARC
  5
3E3
330
1F
100
AcDbEntity
  8
VIEW0002
  6
PHANTOM
 62
     7
100
AcDbCircle
 10
65.2692642211914
 20
37.73226165771484
 30
0.0
 40
3.0
100
AcDbArc
 50
30.9637985833228
 51
100.0000005060238
  0
ARC
  5
3E4
330
1F
100
AcDbEntity
  8
VIEW0002
  6
PHANTOM
 62
     7
100
AcDbCircle
 10
65.26922607421875
 20
37.73225402832031
 30
0.0
 40
2.400000095367432
100
AcDbArc
 50
30.9637985833228
 51
100.0000005060238
  0
ARC
  5
3E5
330
1F
100
AcDbEntity
  8
VIEW0002
  6
Continuous
 62
     7
100
AcDbCircle
 10
14.18983364105225
 20
-66.15154266357422
 30
0.0
 40
1.5
100
AcDbArc
 50
179.999991348578
 51
0.0
  0
CIRCLE
  5
3E6
330
1F
100
AcDbEntity
  8
VIEW0002
  6
Continuous
 62
     7
100
AcDbCircle
 10
21.68983459472656
 20
-55.65154266357422
 30
0.0
 40
1.075000047683716
  0
CIRCLE
  5
3E7
330
1F
100
AcDbEntity
  8
VIEW0002
  6
Continuous
 62
     7
100
AcDbCircle
 10
-0.310165643692017
 20
-60.15154266357422
 30
0.0
 40
1.625
  0
ARC
  5
3E8
330
1F
100
AcDbEntity
  8
VIEW0002
  6
Continuous
 62
     7
100
AcDbCircle
 10
-1.060165643692017
 20
-72.65154266357422
 30
0.0
 40
2.5
100
AcDbArc
 50
179.999991348578
 51
270.0000006832453
  0
CIRCLE
  5
3E9
330
1F
100
AcDbEntity
  8
VIEW0002
  6
Continuous
 62
     7
100
AcDbCircle
 10
21.18983459472656
 20
-60.15154266357422
 30
0.0
 40
1.625
  0
CIRCLE
  5
3EA
330
1F
100
AcDbEntity
  8
VIEW0002
  6
Continuous
 62
     7
100
AcDbCircle
 10
-0.810165643692017
 20
-55.65154266357422
 30
0.0
 40
1.075000047683716
  0
CIRCLE
  5
3EB
330
1F
100
AcDbEntity
  8
VIEW0002
  6
Continuous
 62
     7
100
AcDbCircle
 10
-0.810165643692017
 20
-70.65154266357422
 30
0.0
 40
1.075000047683716
  0
ARC
  5
3EC
330
1F
100
AcDbEntity
  8
VIEW0002
  6
Continuous
 62
     7
100
AcDbCircle
 10
-1.060165643692017
 20
-50.84408569335938
 30
0.0
 40
2.5
100
AcDbArc
 50
149.036243991674
 51
180.0000050089563
  0
ARC
  5
3ED
330
1F
100
AcDbEntity
  8
VIEW0002
  6
Continuous
 62
     7
100
AcDbCircle
 10
21.93983459472656
 20
-72.65154266357422
 30
0.0
 40
2.5
100
AcDbArc
 50
269.9999974955218
 51
0.0
  0
ARC
  5
3EE
330
1F
100
AcDbEntity
  8
VIEW0002
  6
Continuous
 62
     7
100
AcDbCircle
 10
20.02436828613281
 20
-47.65154266357422
 30
0.0
 40
2.5
100
AcDbArc
 50
30.96375418709319
 51
90.00000250447816
  0
ARC
  5
3EF
330
1F
100
AcDbEntity
  8
VIEW0002
  6
Continuous
 62
     7
100
AcDbCircle
 10
21.93983459472656
 20
-50.84398651123047
 30
0.0
 40
2.5
100
AcDbArc
 50
0.0
 51
30.96375418709319
  0
ARC
  5
3F0
330
1F
100
AcDbEntity
  8
VIEW0002
  6
Continuous
 62
     7
100
AcDbCircle
 10
0.855361580848694
 20
-47.65154266357422
 30
0.0
 40
2.5
100
AcDbArc
 50
90.00000250447816
 51
149.036243991674
  0
CIRCLE
  5
3F1
330
1F
100
AcDbEntity
  8
VIEW0002
  6
Continuous
 62
     7
100
AcDbCircle
 10
21.68983459472656
 20
-70.65154266357422
 30
0.0
 40
1.075000047683716
  0
ARC
  5
3F2
330
1F
100
AcDbEntity
  8
VIEW0002
  6
Continuous
 62
     7
100
AcDbCircle
 10
6.689834117889404
 20
-45.15154266357422
 30
0.0
 40
1.5
100
AcDbArc
 50
179.999991348578
 51
0.0
  0
ARC
  5
3F3
330
1F
100
AcDbEntity
  8
VIEW0002
  6
Continuous
 62
     7
100
AcDbCircle
 10
14.18983364105225
 20
-45.15154266357422
 30
0.0
 40
1.5
100
AcDbArc
 50
179.999991348578
 51
0.0
  0
ARC
  5
3F4
330
1F
100
AcDbEntity
  8
VIEW0002
  6
Continuous
 62
     7
100
AcDbCircle
 10
6.689834117889404
 20
-66.15154266357422
 30
0.0
 40
1.5
100
AcDbArc
 50
179.999991348578
 51
0.0
  0
ARC
  5
3F5
330
1F
100
AcDbEntity
  8
VIEW0002
  6
Continuous
 62
     7
100
AcDbCircle
 10
-23.83579254150391
 20
103.9913635253906
 30
0.0
 40
1.0
100
AcDbArc
 50
269.9999974955218
 51
0.0
  0
ARC
  5
3F6
330
1F
100
AcDbEntity
  8
VIEW0002
  6
Continuous
 62
     7
100
AcDbCircle
 10
-23.83579254150391
 20
93.99136352539062
 30
0.0
 40
1.0
100
AcDbArc
 50
0.0
 51
90.00000250447816
  0
ARC
  5
3F7
330
1F
100
AcDbEntity
  8
VIEW0002
  6
Continuous
 62
     7
100
AcDbCircle
 10
-25.06978988647461
 20
31.55023956298828
 30
0.0
 40
1.0
100
AcDbArc
 50
179.999991348578
 51
270.0000006832453
  0
ARC
  5
3F8
330
1F
100
AcDbEntity
  8
VIEW0002
  6
Continuous
 62
     7
100
AcDbCircle
 10
-25.06978988647461
 20
31.55023956298828
 30
0.0
 40
0.5
100
AcDbArc
 50
179.999991348578
 51
270.0000006832453
  0
ARC
  5
3F9
330
1F
100
AcDbEntity
  8
VIEW0002
  6
Continuous
 62
     7
100
AcDbCircle
 10
-9.231752395629883
 20
20.55026626586914
 30
0.0
 40
6.0
100
AcDbArc
 50
200.3231682249032
 51
269.9999974955218
  0
ARC
  5
3FA
330
1F
100
AcDbEntity
  8
VIEW0002
  6
Continuous
 62
     7
100
AcDbCircle
 10
-19.10384178161621
 20
27.05023956298828
 30
0.0
 40
4.0
100
AcDbArc
 50
20.32317323385958
 51
90.00000250447816
  0
ARC
  5
3FB
330
1F
100
AcDbEntity
  8
VIEW0002
  6
Continuous
 62
     7
100
AcDbCircle
 10
-9.231752395629883
 20
20.55026626586914
 30
0.0
 40
3.0
100
AcDbArc
 50
200.3231682249032
 51
269.9999974955218
  0
ARC
  5
3FC
330
1F
100
AcDbEntity
  8
VIEW0002
  6
Continuous
 62
     7
100
AcDbCircle
 10
-19.10384178161621
 20
27.05023956298828
 30
0.0
 40
1.0
100
AcDbArc
 50
20.323169818765
 51
90.00000250447816
  0
ARC
  5
3FD
330
1F
100
AcDbEntity
  8
VIEW0002
  6
Continuous
 62
     7
100
AcDbCircle
 10
-21.34903144836426
 20
29.05023956298828
 30
0.0
 40
1.0
100
AcDbArc
 50
198.4349487684749
 51
269.9999974955218
  0
ARC
  5
3FE
330
1F
100
AcDbEntity
  8
VIEW0002
  6
Continuous
 62
     7
100
AcDbCircle
 10
-60.70962142944336
 20
25.1502685546875
 30
0.0
 40
9.0
100
AcDbArc
 50
67.97568869555687
 51
112.0243094832103
  0
ARC
  5
3FF
330
1F
100
AcDbEntity
  8
VIEW0002
  6
Continuous
 62
     7
100
AcDbCircle
 10
-64.85962677001953
 20
30.05023956298828
 30
0.0
 40
1.0
100
AcDbArc
 50
90.00000250447816
 51
180.0000050089563
  0
ARC
  5
400
330
1F
100
AcDbEntity
  8
VIEW0002
  6
Continuous
 62
     7
100
AcDbCircle
 10
-56.55962371826172
 20
30.05023956298828
 30
0.0
 40
0.5
100
AcDbArc
 50
0.0
 51
90.00000250447816
  0
ARC
  5
401
330
1F
100
AcDbEntity
  8
VIEW0002
  6
Continuous
 62
     7
100
AcDbCircle
 10
-56.55962371826172
 20
30.05023956298828
 30
0.0
 40
1.0
100
AcDbArc
 50
0.0
 51
90.00000250447816
  0
ARC
  5
402
330
1F
100
AcDbEntity
  8
VIEW0002
  6
Continuous
 62
     7
100
AcDbCircle
 10
-56.55962371826172
 20
16.55026626586914
 30
0.0
 40
0.5
100
AcDbArc
 50
0.0
 51
90.00000250447816
  0
ARC
  5
403
330
1F
100
AcDbEntity
  8
VIEW0002
  6
Continuous
 62
     7
100
AcDbCircle
 10
-57.70962142944336
 20
32.56646347045898
 30
0.0
 40
1.0
100
AcDbArc
 50
0.0
 51
67.97568869555687
  0
ARC
  5
404
330
1F
100
AcDbEntity
  8
VIEW0002
  6
Continuous
 62
     7
100
AcDbCircle
 10
-63.70962142944336
 20
32.56646347045898
 30
0.0
 40
1.0
100
AcDbArc
 50
112.0243094832103
 51
180.0000050089563
  0
ARC
  5
405
330
1F
100
AcDbEntity
  8
VIEW0002
  6
Continuous
 62
     7
100
AcDbCircle
 10
-64.85962677001953
 20
16.55026626586914
 30
0.0
 40
0.5
100
AcDbArc
 50
90.00000250447816
 51
180.0000050089563
  0
ARC
  5
406
330
1F
100
AcDbEntity
  8
VIEW0002
  6
Continuous
 62
     7
100
AcDbCircle
 10
-64.85962677001953
 20
30.05023956298828
 30
0.0
 40
0.5
100
AcDbArc
 50
90.00000250447816
 51
180.0000050089563
  0
ARC
  5
407
330
1F
100
AcDbEntity
  8
VIEW0002
  6
PHANTOM
 62
     7
100
AcDbCircle
 10
10.65805244445801
 20
20.90026473999023
 30
0.0
 40
0.5
100
AcDbArc
 50
197.956917488844
 51
270.0000179860893
  0
ARC
  5
408
330
1F
100
AcDbEntity
  8
VIEW0002
  6
PHANTOM
 62
     7
100
AcDbCircle
 10
12.90233039855957
 20
20.90026473999023
 30
0.0
 40
0.5
100
AcDbArc
 50
270.0000179860893
 51
342.0430689644631
  0
ARC
  5
409
330
1F
100
AcDbEntity
  8
VIEW0002
  6
Continuous
 62
     7
100
AcDbCircle
 10
-2.097670555114746
 20
20.90026473999023
 30
0.0
 40
0.5
100
AcDbArc
 50
270.0000179860893
 51
342.0430689644631
  0
ARC
  5
40A
330
1F
100
AcDbEntity
  8
VIEW0002
  6
Continuous
 62
     7
100
AcDbCircle
 10
-4.341948509216309
 20
20.90026473999023
 30
0.0
 40
0.5
100
AcDbArc
 50
197.956917488844
 51
270.0000179860893
  0
ARC
  5
40B
330
1F
100
AcDbEntity
  8
VIEW0002
  6
Continuous
 62
     7
100
AcDbCircle
 10
-9.336226463317871
 20
19.28170394897461
 30
0.0
 40
4.75
100
AcDbArc
 50
17.956616846835
 51
60.1194002065331
  0
ARC
  5
40C
330
1F
100
AcDbEntity
  8
VIEW0002
  6
Continuous
 62
     7
100
AcDbCircle
 10
2.896606922149658
 20
19.28170394897461
 30
0.0
 40
4.75
100
AcDbArc
 50
119.880475028829
 51
162.0434103602361
  0
ARC
  5
40D
330
1F
100
AcDbEntity
  8
VIEW0002
  6
Continuous
 62
     7
100
AcDbCircle
 10
1.758484482765198
 20
22.90026473999023
 30
0.0
 40
0.5
100
AcDbArc
 50
354.1453445510253
 51
89.99997518372149
  0
ARC
  5
40E
330
1F
100
AcDbEntity
  8
VIEW0002
  6
Continuous
 62
     7
100
AcDbCircle
 10
-8.198103904724121
 20
22.90026473999023
 30
0.0
 40
0.5
100
AcDbArc
 50
89.99998201391067
 51
185.8546109390595
  0
ARC
  5
40F
330
1F
100
AcDbEntity
  8
VIEW0002
  6
Continuous
 62
     7
100
AcDbCircle
 10
-2.469344139099121
 20
23.33381271362305
 30
0.0
 40
4.75
100
AcDbArc
 50
298.2673910737799
 51
354.1450303623236
  0
ARC
  5
410
330
1F
100
AcDbEntity
  8
VIEW0002
  6
Continuous
 62
     7
100
AcDbCircle
 10
-3.970275163650513
 20
23.33381271362305
 30
0.0
 40
4.75
100
AcDbArc
 50
185.8549424306053
 51
241.7325834266962
  0
ARC
  5
411
330
1F
100
AcDbEntity
  8
VIEW0002
  6
PHANTOM
 62
     7
100
AcDbCircle
 10
5.663773059844971
 20
19.28170394897461
 30
0.0
 40
4.75
100
AcDbArc
 50
17.956616846835
 51
60.1194002065331
  0
ARC
  5
412
330
1F
100
AcDbEntity
  8
VIEW0002
  6
PHANTOM
 62
     7
100
AcDbCircle
 10
11.02972602844238
 20
23.33381271362305
 30
0.0
 40
4.75
100
AcDbArc
 50
185.8549424306053
 51
241.7325834266962
  0
ARC
  5
413
330
1F
100
AcDbEntity
  8
VIEW0002
  6
PHANTOM
 62
     7
100
AcDbCircle
 10
12.5306568145752
 20
23.33381271362305
 30
0.0
 40
4.75
100
AcDbArc
 50
298.2673910737799
 51
354.1450303623236
  0
ARC
  5
414
330
1F
100
AcDbEntity
  8
VIEW0002
  6
PHANTOM
 62
     7
100
AcDbCircle
 10
6.801895618438721
 20
22.90026473999023
 30
0.0
 40
0.5
100
AcDbArc
 50
89.99998201391067
 51
185.8546109390595
  0
ARC
  5
415
330
1F
100
AcDbEntity
  8
VIEW0002
  6
PHANTOM
 62
     7
100
AcDbCircle
 10
17.89660835266113
 20
19.28170394897461
 30
0.0
 40
4.75
100
AcDbArc
 50
119.880475028829
 51
162.0434103602361
  0
ARC
  5
416
330
1F
100
AcDbEntity
  8
VIEW0002
  6
PHANTOM
 62
     7
100
AcDbCircle
 10
16.75848579406738
 20
22.90026473999023
 30
0.0
 40
0.5
100
AcDbArc
 50
354.1453445510253
 51
89.99997518372149
  0
ARC
  5
417
330
1F
100
AcDbEntity
  8
VIEW0002
  6
Continuous
 62
     7
100
AcDbCircle
 10
17.66932678222656
 20
14.73776721954346
 30
0.0
 40
3.3125
100
AcDbArc
 50
58.10918674133914
 51
121.8907772864822
  0
ARC
  5
418
330
1F
100
AcDbEntity
  8
VIEW0002
  6
Continuous
 62
     7
100
AcDbCircle
 10
37.28020858764648
 20
15.15024089813232
 30
0.0
 40
0.5
100
AcDbArc
 50
269.9999974955218
 51
0.0
  0
ARC
  5
419
330
1F
100
AcDbEntity
  8
VIEW0002
  6
Continuous
 62
     7
100
AcDbCircle
 10
37.78020858764648
 20
17.15024185180664
 30
0.0
 40
0.5
100
AcDbArc
 50
90.00000250447816
 51
180.0000050089563
  0
ARC
  5
41A
330
1F
100
AcDbEntity
  8
VIEW0002
  6
Continuous
 62
     7
100
AcDbCircle
 10
38.28020858764648
 20
16.65024185180664
 30
0.0
 40
0.5
100
AcDbArc
 50
90.00000250447816
 51
180.0000050089563
  0
ARC
  5
41B
330
1F
100
AcDbEntity
  8
VIEW0002
  6
Continuous
 62
     7
100
AcDbCircle
 10
34.48020935058594
 20
17.47184753417969
 30
0.0
 40
0.4000000059604645
100
AcDbArc
 50
285.0000013280294
 51
0.0
  0
ARC
  5
41C
330
1F
100
AcDbEntity
  8
VIEW0002
  6
Continuous
 62
     7
100
AcDbCircle
 10
23.74568367004395
 20
20.55026626586914
 30
0.0
 40
3.0
100
AcDbArc
 50
269.9999974955218
 51
335.6312562018704
  0
ARC
  5
41D
330
1F
100
AcDbEntity
  8
VIEW0002
  6
Continuous
 62
     7
100
AcDbCircle
 10
23.74568367004395
 20
20.55026626586914
 30
0.0
 40
6.0
100
AcDbArc
 50
269.9999974955218
 51
335.6312544943231
  0
ARC
  5
41E
330
1F
100
AcDbEntity
  8
VIEW0002
  6
Continuous
 62
     7
100
AcDbCircle
 10
40.78020858764648
 20
18.65024185180664
 30
0.0
 40
1.5
100
AcDbArc
 50
269.9999974955218
 51
0.0
  0
ARC
  5
41F
330
1F
100
AcDbEntity
  8
VIEW0002
  6
Continuous
 62
     7
100
AcDbCircle
 10
40.78020858764648
 20
18.65024185180664
 30
0.0
 40
0.5
100
AcDbArc
 50
269.9999974955218
 51
0.0
  0
ARC
  5
420
330
1F
100
AcDbEntity
  8
VIEW0002
  6
Continuous
 62
     7
100
AcDbCircle
 10
37.78019332885742
 20
17.15024185180664
 30
0.0
 40
1.0
100
AcDbArc
 50
90.00000250447816
 51
180.3085519745225
  0
ARC
  5
421
330
1F
100
AcDbEntity
  8
VIEW0002
  6
Continuous
 62
     7
100
AcDbCircle
 10
40.78020858764648
 20
18.65024185180664
 30
0.0
 40
1.0
100
AcDbArc
 50
269.9999974955218
 51
0.0
  0
ARC
  5
422
330
1F
100
AcDbEntity
  8
VIEW0002
  6
Continuous
 62
     7
100
AcDbCircle
 10
22.60601615905762
 20
14.29016590118408
 30
0.0
 40
0.4000000059604645
100
AcDbArc
 50
195.0000056537405
 51
285.0000013280294
  0
ARC
  5
423
330
1F
100
AcDbEntity
  8
VIEW0002
  6
Continuous
 62
     7
100
AcDbCircle
 10
22.60601615905762
 20
14.29016590118408
 30
0.0
 40
0.1500000059604645
100
AcDbArc
 50
195.0000056537405
 51
285.0000013280294
  0
ARC
  5
424
330
1F
100
AcDbEntity
  8
VIEW0002
  6
Continuous
 62
     7
100
AcDbCircle
 10
40.78020858764648
 20
30.90023803710938
 30
0.0
 40
1.0
100
AcDbArc
 50
0.0
 51
90.00000250447816
  0
ARC
  5
425
330
1F
100
AcDbEntity
  8
VIEW0002
  6
Continuous
 62
     7
100
AcDbCircle
 10
40.78020858764648
 20
30.90023803710938
 30
0.0
 40
0.5
100
AcDbArc
 50
0.0
 51
90.00000250447816
  0
ARC
  5
426
330
1F
100
AcDbEntity
  8
VIEW0002
  6
Continuous
 62
     7
100
AcDbCircle
 10
39.05945205688477
 20
29.90024185180664
 30
0.0
 40
1.0
100
AcDbArc
 50
269.9999974955218
 51
341.5650513452106
  0
ARC
  5
427
330
1F
100
AcDbEntity
  8
VIEW0002
  6
Continuous
 62
     7
100
AcDbCircle
 10
34.75957870483398
 20
27.90024185180664
 30
0.0
 40
1.0
100
AcDbArc
 50
90.00000250447816
 51
155.6312560881848
  0
ARC
  5
428
330
1F
100
AcDbEntity
  8
VIEW0002
  6
Continuous
 62
     7
100
AcDbCircle
 10
34.75957870483398
 20
27.90024185180664
 30
0.0
 40
4.0
100
AcDbArc
 50
90.00000250447816
 51
155.6312560881848
  0
ARC
  5
429
330
1F
100
AcDbEntity
  8
VIEW0002
  6
Continuous
 62
     7
100
AcDbCircle
 10
36.03020858764648
 20
31.90023803710938
 30
0.0
 40
0.5
100
AcDbArc
 50
90.00000250447816
 51
180.0000050089563
  0
ARC
  5
42A
330
1F
100
AcDbEntity
  8
VIEW0002
  6
Continuous
 62
     7
100
AcDbCircle
 10
40.78020858764648
 20
30.90023803710938
 30
0.0
 40
1.5
100
AcDbArc
 50
0.0
 51
90.00000250447816
  0
SPLINE
  5
42B
330
1F
100
AcDbEntity
  8
VIEW0002
  6
Continuous
 62
     7
100
AcDbSpline
210
0.0
220
0.0
230
1.0
 70
     8
 71
     3
 72
     9
 73
     5
 74
     3
 42
0.0000000001
 43
0.0000000001
 44
0.0000000001
 12
-0.7196434528641945
 22
0.6943437914676706
 32
0.0
 13
0.7196434528641945
 23
0.6943437914676706
 33
0.0
 40
0.0
 40
0.0
 40
0.0
 40
0.0
 40
1.689445980851415
 40
3.378891961702831
 40
3.378891961702831
 40
3.378891961702831
 40
3.378891961702831
 10
4.189562797546387
 20
97.49136352539062
 30
0.0
 10
3.784296551183904
 20
97.88238230133202
 30
0.0
 10
3.040187320276057
 20
98.99136352539062
 30
0.0
 10
3.784296551183904
 20
100.1003447494492
 30
0.0
 10
4.189562797546387
 20
100.4913635253906
 30
0.0
 11
4.189562797546387
 21
97.49136352539062
 31
0.0
 11
3.41224193572998
 21
98.99136352539062
 31
0.0
 11
4.189562797546387
 21
100.4913635253906
 31
0.0
  0
ELLIPSE
  5
42C
330
1F
100
AcDbEntity
  8
VIEW0002
  6
Continuous
 62
     7
100
AcDbEllipse
 10
59.79361343383789
 20
109.9913635253906
 30
0.0
 11
-7.105427357601002E-15
 21
-1.625000067019712
 31
0.0
210
0.0
220
0.0
230
1.0
 40
0.514496181002897
 41
0.0
 42
6.283185307179586
  0
ELLIPSE
  5
42D
330
1F
100
AcDbEntity
  8
VIEW0002
  6
Continuous
 62
     7
100
AcDbEllipse
 10
59.79361343383789
 20
87.99136352539062
 30
0.0
 11
-7.105427357601002E-15
 21
1.625000067019712
 31
0.0
210
0.0
220
0.0
230
1.0
 40
0.514496181002888
 41
0.0
 42
6.283185307179586
  0
ELLIPSE
  5
42E
330
1F
100
AcDbEntity
  8
VIEW0002
  6
Continuous
 62
     7
100
AcDbEllipse
 10
65.1958236694336
 20
87.99135971069336
 30
0.0
 11
0.0
 21
-1.07499996263607
 31
0.0
210
0.0
220
0.0
230
1.0
 40
0.514495223056407
 41
0.0
 42
6.283185307179586
  0
ELLIPSE
  5
42F
330
1F
100
AcDbEntity
  8
VIEW0002
  6
Continuous
 62
     7
100
AcDbEllipse
 10
57.47838592529297
 20
87.99135971069336
 30
0.0
 11
0.0
 21
-1.07499996263607
 31
0.0
210
0.0
220
0.0
230
1.0
 40
0.514495223056421
 41
0.0
 42
6.283185307179586
  0
ELLIPSE
  5
430
330
1F
100
AcDbEntity
  8
VIEW0002
  6
Continuous
 62
     7
100
AcDbEllipse
 10
65.1958236694336
 20
109.9913597106934
 30
0.0
 11
0.0
 21
1.07499996263607
 31
0.0
210
0.0
220
0.0
230
1.0
 40
0.514495223056407
 41
0.0
 42
6.283185307179586
  0
ELLIPSE
  5
431
330
1F
100
AcDbEntity
  8
VIEW0002
  6
Continuous
 62
     7
100
AcDbEllipse
 10
57.47838592529297
 20
109.9913597106934
 30
0.0
 11
0.0
 21
1.07499996263607
 31
0.0
210
0.0
220
0.0
230
1.0
 40
0.514495223056421
 41
0.0
 42
6.283185307179586
  0
SPLINE
  5
432
330
1F
100
AcDbEntity
  8
VIEW0002
  6
Continuous
 62
     7
100
AcDbSpline
210
0.0
220
0.0
230
1.0
 70
     8
 71
     3
 72
     9
 73
     5
 74
     3
 42
0.0000000001
 43
0.0000000001
 44
0.0000000001
 12
0.9109464637221318
 22
0.4125245934876403
 32
0.0
 13
0.1460857001299413
 23
0.9892719384565322
 33
0.0
 40
0.0
 40
0.0
 40
0.0
 40
0.0
 40
1.19151156198941
 40
2.16464673488038
 40
2.16464673488038
 40
2.16464673488038
 40
2.16464673488038
 10
66.22481536865234
 20
84.99136352539062
 30
0.0
 10
66.58661644994511
 20
85.15520613297247
 30
0.0
 10
67.22113010250536
 20
85.59194960633907
 30
0.0
 10
67.46413159489133
 20
86.31038796836846
 30
0.0
 10
67.51151863924228
 20
86.63128640799049
 30
0.0
 11
66.22481536865234
 21
84.99136352539062
 31
0.0
 11
67.16651916503906
 21
85.72135925292969
 31
0.0
 11
67.51151863924228
 21
86.63128640799049
 31
0.0
  0
SPLINE
  5
433
330
1F
100
AcDbEntity
  8
VIEW0002
  6
Continuous
 62
     7
100
AcDbSpline
210
0.0
220
0.0
230
1.0
 70
     8
 71
     3
 72
     9
 73
     5
 74
     3
 42
0.0000000001
 43
0.0000000001
 44
0.0000000001
 12
0.9109464637221318
 22
-0.4125245934876403
 32
0.0
 13
0.146086580503807
 23
-0.9892718084514007
 33
0.0
 40
0.0
 40
0.0
 40
0.0
 40
0.0
 40
1.19151623625676
 40
2.164647473094911
 40
2.164647473094911
 40
2.164647473094911
 40
2.164647473094911
 10
66.22481536865234
 20
112.9913635253906
 30
0.0
 10
66.58661786928087
 20
112.8275202750587
 30
0.0
 10
67.22112624186644
 20
112.3907699206318
 30
0.0
 10
67.46413150098525
 20
111.672334322377
 30
0.0
 10
67.51151863924228
 20
111.3514372228679
 30
0.0
 11
66.22481536865234
 21
112.9913635253906
 31
0.0
 11
67.16651916503906
 21
112.261360168457
 31
0.0
 11
67.51151863924228
 21
111.3514372228679
 31
0.0
  0
ELLIPSE
  5
434
330
1F
100
AcDbEntity
  8
VIEW0002
  6
Continuous
 62
     7
100
AcDbEllipse
 10
62.88059234619141
 20
95.24136352539062
 30
0.0
 11
0.0
 21
1.499999932181737
 31
0.0
210
0.0
220
0.0
230
1.0
 40
0.514496886865045
 41
3.141592653589792
 42
6.283185307179581
  0
ELLIPSE
  5
435
330
1F
100
AcDbEntity
  8
VIEW0002
  6
Continuous
 62
     7
100
AcDbEllipse
 10
62.88059234619141
 20
102.7413635253906
 30
0.0
 11
0.0
 21
-1.499999932181737
 31
0.0
210
0.0
220
0.0
230
1.0
 40
0.514496886865045
 41
-0.0000000000000002
 42
3.141592653589794
  0
ELLIPSE
  5
436
330
1F
100
AcDbEntity
  8
VIEW0002
  6
PHANTOM
 62
     7
100
AcDbEllipse
 10
74.79361343383789
 20
109.9913635253906
 30
0.0
 11
0.0
 21
-1.625000067019712
 31
0.0
210
0.0
220
0.0
230
1.0
 40
0.514496181002892
 41
0.0
 42
6.283185307179586
  0
ELLIPSE
  5
437
330
1F
100
AcDbEntity
  8
VIEW0002
  6
PHANTOM
 62
     7
100
AcDbEllipse
 10
74.79361343383789
 20
87.99136352539062
 30
0.0
 11
0.0
 21
1.625000067019712
 31
0.0
210
0.0
220
0.0
230
1.0
 40
0.514496181002892
 41
0.0
 42
6.283185307179586
  0
ELLIPSE
  5
438
330
1F
100
AcDbEntity
  8
VIEW0002
  6
PHANTOM
 62
     7
100
AcDbEllipse
 10
80.1958236694336
 20
87.99135971069336
 30
0.0
 11
0.0
 21
-1.07499996263607
 31
0.0
210
0.0
220
0.0
230
1.0
 40
0.514495223056407
 41
0.0
 42
6.283185307179586
  0
ELLIPSE
  5
439
330
1F
100
AcDbEntity
  8
VIEW0002
  6
PHANTOM
 62
     7
100
AcDbEllipse
 10
72.47838592529297
 20
87.99135971069336
 30
0.0
 11
0.0
 21
-1.07499996263607
 31
0.0
210
0.0
220
0.0
230
1.0
 40
0.514495223056407
 41
0.0
 42
6.283185307179586
  0
ELLIPSE
  5
43A
330
1F
100
AcDbEntity
  8
VIEW0002
  6
PHANTOM
 62
     7
100
AcDbEllipse
 10
80.1958236694336
 20
109.9913597106934
 30
0.0
 11
0.0
 21
1.07499996263607
 31
0.0
210
0.0
220
0.0
230
1.0
 40
0.514495223056407
 41
0.0
 42
6.283185307179586
  0
ELLIPSE
  5
43B
330
1F
100
AcDbEntity
  8
VIEW0002
  6
PHANTOM
 62
     7
100
AcDbEllipse
 10
72.47838592529297
 20
109.9913597106934
 30
0.0
 11
0.0
 21
1.07499996263607
 31
0.0
210
0.0
220
0.0
230
1.0
 40
0.514495223056407
 41
0.0
 42
6.283185307179586
  0
SPLINE
  5
43C
330
1F
100
AcDbEntity
  8
VIEW0002
  6
PHANTOM
 62
     7
100
AcDbSpline
210
0.0
220
0.0
230
1.0
 70
     8
 71
     3
 72
     9
 73
     5
 74
     3
 42
0.0000000001
 43
0.0000000001
 44
0.0000000001
 12
0.9109464637221318
 22
0.4125245934876403
 32
0.0
 13
0.1460857001299413
 23
0.9892719384565322
 33
0.0
 40
0.0
 40
0.0
 40
0.0
 40
0.0
 40
1.19151156198941
 40
2.16464673488038
 40
2.16464673488038
 40
2.16464673488038
 40
2.16464673488038
 10
81.22481536865234
 20
84.99136352539062
 30
0.0
 10
81.58661644994511
 20
85.15520613297247
 30
0.0
 10
82.22113010250536
 20
85.59194960633907
 30
0.0
 10
82.46413159489133
 20
86.31038796836846
 30
0.0
 10
82.51151863924228
 20
86.63128640799049
 30
0.0
 11
81.22481536865234
 21
84.99136352539062
 31
0.0
 11
82.16651916503906
 21
85.72135925292969
 31
0.0
 11
82.51151863924228
 21
86.63128640799049
 31
0.0
  0
SPLINE
  5
43D
330
1F
100
AcDbEntity
  8
VIEW0002
  6
PHANTOM
 62
     7
100
AcDbSpline
210
0.0
220
0.0
230
1.0
 70
     8
 71
     3
 72
     9
 73
     5
 74
     3
 42
0.0000000001
 43
0.0000000001
 44
0.0000000001
 12
0.9109464637221318
 22
-0.4125245934876403
 32
0.0
 13
0.146086580503807
 23
-0.9892718084514007
 33
0.0
 40
0.0
 40
0.0
 40
0.0
 40
0.0
 40
1.19151623625676
 40
2.164647473094911
 40
2.164647473094911
 40
2.164647473094911
 40
2.164647473094911
 10
81.22481536865234
 20
112.9913635253906
 30
0.0
 10
81.58661786928087
 20
112.8275202750587
 30
0.0
 10
82.22112624186647
 20
112.3907699206318
 30
0.0
 10
82.46413150098525
 20
111.672334322377
 30
0.0
 10
82.51151863924228
 20
111.3514372228679
 30
0.0
 11
81.22481536865234
 21
112.9913635253906
 31
0.0
 11
82.16651916503906
 21
112.261360168457
 31
0.0
 11
82.51151863924228
 21
111.3514372228679
 31
0.0
  0
ELLIPSE
  5
43E
330
1F
100
AcDbEntity
  8
VIEW0002
  6
PHANTOM
 62
     7
100
AcDbEllipse
 10
77.8805923461914
 20
95.24136352539062
 30
0.0
 11
0.0
 21
1.499999932181737
 31
0.0
210
0.0
220
0.0
230
1.0
 40
0.514496886865045
 41
3.141592653589792
 42
6.283185307179586
  0
ELLIPSE
  5
43F
330
1F
100
AcDbEntity
  8
VIEW0002
  6
PHANTOM
 62
     7
100
AcDbEllipse
 10
77.8805923461914
 20
102.7413635253906
 30
0.0
 11
0.0
 21
-1.499999932181737
 31
0.0
210
0.0
220
0.0
230
1.0
 40
0.514496886865045
 41
-0.0000000000000002
 42
3.141592653589794
  0
MTEXT
  5
440
330
1F
100
AcDbEntity
  8
VIEW0002
 62
     1
100
AcDbMText
 10
31.0668922662735
 20
-112.0382232666016
 30
0.0
 40
4.0
 41
0.0
 71
     7
 72
     1
  1
{\W0.833333;（スライド幅30～60ｍｍ）}
 73
     1
 44
1.0
  0
DIMENSION
  5
441
330
1F
100
AcDbEntity
  8
VIEW0002
 62
     7
100
AcDbDimension
  2
*D25
 10
-0.810165643692018
 20
-88.15054266357421
 30
0.0
 11
-13.77616570651531
 21
-88.15054266357421
 31
0.0
 70
   160
  1
5.5
 71
     5
 42
2.75
  3
ISO-25
100
AcDbAlignedDimension
 13
-3.560165643692017
 23
-75.15154266357422
 33
0.0
 14
-0.810165643692017
 24
-72.4765396118164
 34
0.0
 50
180.0
100
AcDbRotatedDimension
1001
ACAD
1000
DSTYLE
1002
{
1070
   178
1070
     1
1070
   278
1070
    46
1070
   147
1040
0.800000011920929
1070
    77
1070
     1
1070
    74
1070
     0
1070
    73
1070
     0
1070
    42
1040
2.54
1070
    44
1040
2.0
1070
    76
1070
     0
1070
    75
1070
     1
1070
   279
1070
     0
1070
   271
1070
     1
1070
   173
1070
     1
1070
    41
1040
3.0
1070
   140
1040
3.200000047683716
1070
   344
1005
B8
1070
   343
1005
B8
1002
}
  0
DIMENSION
  5
457
330
1F
100
AcDbEntity
  8
VIEW0002
 62
     7
100
AcDbDimension
  2
*D26
 10
21.68983459472656
 20
-88.15054266357421
 30
0.0
 11
10.44083364105225
 21
-88.15054266357421
 31
0.0
 70
   160
  1
45
 71
     5
 42
22.50000023841858
  3
ISO-25
100
AcDbAlignedDimension
 13
-0.810165643692017
 23
-72.4765396118164
 33
0.0
 14
21.68983459472656
 24
-72.4765396118164
 34
0.0
 50
180.0
100
AcDbRotatedDimension
1001
ACAD
1000
DSTYLE
1002
{
1070
   178
1070
     1
1070
   278
1070
    46
1070
   147
1040
0.800000011920929
1070
    77
1070
     1
1070
    74
1070
     0
1070
    73
1070
     0
1070
    42
1040
2.54
1070
    44
1040
2.0
1070
    76
1070
     0
1070
    75
1070
     1
1070
   279
1070
     0
1070
   271
1070
     0
1070
   173
1070
     1
1070
    41
1040
3.0
1070
   140
1040
3.200000047683716
1070
   344
1005
B8
1070
   343
1005
B8
1002
}
  0
DIMENSION
  5
463
330
1F
100
AcDbEntity
  8
VIEW0002
 62
     7
100
AcDbDimension
  2
*D27
 10
24.43983459472656
 20
-88.15054266357421
 30
0.0
 11
34.65583465754985
 21
-88.15054266357421
 31
0.0
 70
   160
  1
5.5
 71
     5
 42
2.75
  3
ISO-25
100
AcDbAlignedDimension
 13
21.68983459472656
 23
-72.4765396118164
 33
0.0
 14
24.43983459472656
 24
-72.65154266357422
 34
0.0
 50
180.0
100
AcDbRotatedDimension
1001
ACAD
1000
DSTYLE
1002
{
1070
   178
1070
     1
1070
   278
1070
    46
1070
   147
1040
0.800000011920929
1070
    77
1070
     1
1070
    74
1070
     0
1070
    73
1070
     0
1070
    42
1040
2.54
1070
    44
1040
2.0
1070
    76
1070
     1
1070
    75
1070
     1
1070
   279
1070
     0
1070
   271
1070
     1
1070
   173
1070
     1
1070
    41
1040
3.0
1070
   140
1040
3.200000047683716
1070
   344
1005
B8
1070
   343
1005
B8
1002
}
  0
DIMENSION
  5
477
330
1F
100
AcDbEntity
  8
VIEW0002
 62
     7
100
AcDbDimension
  2
*D28
 10
-3.560165643692017
 20
-98.15054266357421
 30
0.0
 11
10.44183364105224
 21
-98.15054266357421
 31
0.0
 70
   160
  1
56
 71
     5
 42
28.00000023841858
  3
ISO-25
100
AcDbAlignedDimension
 13
24.43983459472656
 23
-72.65154266357422
 33
0.0
 14
-3.560165643692017
 24
-75.15154266357422
 34
0.0
100
AcDbRotatedDimension
1001
ACAD
1000
DSTYLE
1002
{
1070
   178
1070
     1
1070
   278
1070
    46
1070
   147
1040
0.800000011920929
1070
    77
1070
     1
1070
    74
1070
     0
1070
    73
1070
     0
1070
    42
1040
2.54
1070
    44
1040
2.0
1070
    76
1070
     0
1070
    75
1070
     0
1070
   279
1070
     0
1070
   271
1070
     0
1070
   173
1070
     1
1070
    41
1040
3.0
1070
   140
1040
3.200000047683716
1070
   344
1005
B8
1070
   343
1005
B8
1002
}
  0
DIMENSION
  5
484
330
1F
100
AcDbEntity
  8
VIEW0002
 62
     7
100
AcDbDimension
  2
*D29
 10
-13.55916635894775
 20
-70.65154266357422
 30
0.0
 11
-13.55916635894775
 21
-82.96594269061089
 31
0.0
 70
   160
  1
9
 71
     5
 42
4.5
  3
ISO-25
100
AcDbAlignedDimension
 13
-1.060165643692017
 23
-75.15154266357422
 33
0.0
 14
-2.635116815567017
 24
-70.65154266357422
 34
0.0
 50
270.0
100
AcDbRotatedDimension
1001
ACAD
1000
DSTYLE
1002
{
1070
   178
1070
     1
1070
   278
1070
    46
1070
   147
1040
0.800000011920929
1070
    77
1070
     1
1070
    74
1070
     0
1070
    73
1070
     0
1070
    42
1040
2.54
1070
    44
1040
2.0
1070
    76
1070
     0
1070
    75
1070
     1
1070
   279
1070
     0
1070
   271
1070
     0
1070
   173
1070
     1
1070
    41
1040
3.0
1070
   140
1040
3.200000047683716
1070
   344
1005
B8
1070
   343
1005
B8
1002
}
  0
DIMENSION
  5
49A
330
1F
100
AcDbEntity
  8
VIEW0002
 62
     7
100
AcDbDimension
  2
*D30
 10
-13.55916635894775
 20
-60.15154266357422
 30
0.0
 11
-13.55916635894775
 21
-65.40054266357421
 31
0.0
 70
   160
  1
21
 71
     5
 42
10.5
  3
ISO-25
100
AcDbAlignedDimension
 13
-2.635116815567017
 23
-70.65154266357422
 33
0.0
 14
-2.685165643692017
 24
-60.15154266357422
 34
0.0
 50
270.0
100
AcDbRotatedDimension
1001
ACAD
1000
DSTYLE
1002
{
1070
   178
1070
     1
1070
   278
1070
    46
1070
   147
1040
0.800000011920929
1070
    77
1070
     1
1070
    74
1070
     0
1070
    73
1070
     0
1070
    42
1040
2.54
1070
    44
1040
2.0
1070
    76
1070
     0
1070
    75
1070
     1
1070
   279
1070
     0
1070
   271
1070
     0
1070
   173
1070
     1
1070
    41
1040
3.0
1070
   140
1040
3.200000047683716
1070
   344
1005
B8
1070
   343
1005
B8
1002
}
  0
DIMENSION
  5
4A6
330
1F
100
AcDbEntity
  8
VIEW0002
 62
     7
100
AcDbDimension
  2
*D31
 10
-13.55916635894775
 20
-55.65154266357422
 30
0.0
 11
-13.55916635894775
 21
-57.90054266357422
 31
0.0
 70
   160
  1
9
 71
     5
 42
4.5
  3
ISO-25
100
AcDbAlignedDimension
 13
-2.685165643692017
 23
-60.15154266357422
 33
0.0
 14
-2.635116815567017
 24
-55.65154266357422
 34
0.0
 50
270.0
100
AcDbRotatedDimension
1001
ACAD
1000
DSTYLE
1002
{
1070
   178
1070
     1
1070
   278
1070
    46
1070
   147
1040
0.800000011920929
1070
    77
1070
     1
1070
    74
1070
     0
1070
    73
1070
     0
1070
    42
1040
2.54
1070
    44
1040
2.0
1070
    76
1070
     0
1070
    75
1070
     1
1070
   279
1070
     0
1070
   271
1070
     0
1070
   173
1070
     1
1070
    41
1040
3.0
1070
   140
1040
3.200000047683716
1070
   344
1005
B8
1070
   343
1005
B8
1002
}
  0
DIMENSION
  5
4BA
330
1F
100
AcDbEntity
  8
VIEW0002
 62
     7
100
AcDbDimension
  2
*D32
 10
-13.55916635894775
 20
-45.15154266357422
 30
0.0
 11
-13.55916635894775
 21
-50.40054266357422
 31
0.0
 70
   160
  1
21
 71
     5
 42
10.5
  3
ISO-25
100
AcDbAlignedDimension
 13
-2.635116815567017
 23
-55.65154266357422
 33
0.0
 14
0.855361580848694
 24
-45.15154266357422
 34
0.0
 50
270.0
100
AcDbRotatedDimension
1001
ACAD
1000
DSTYLE
1002
{
1070
   178
1070
     1
1070
   278
1070
    46
1070
   147
1040
0.800000011920929
1070
    77
1070
     1
1070
    74
1070
     0
1070
    73
1070
     0
1070
    42
1040
2.54
1070
    44
1040
2.0
1070
    76
1070
     1
1070
    75
1070
     1
1070
   279
1070
     0
1070
   271
1070
     0
1070
   173
1070
     1
1070
    41
1040
3.0
1070
   140
1040
3.200000047683716
1070
   344
1005
B8
1070
   343
1005
B8
1002
}
  0
DIMENSION
  5
4C5
330
1F
100
AcDbEntity
  8
VIEW0002
 62
     7
100
AcDbDimension
  2
*D33
 10
-23.55816540527343
 20
-75.15154266357423
 30
0.0
 11
-23.55816540527344
 21
-60.15054266357422
 31
0.0
 70
   160
  1
60
 71
     5
 42
30.0
  3
ISO-25
100
AcDbAlignedDimension
 13
0.855361580848694
 23
-45.15154266357422
 33
0.0
 14
-1.060165643692017
 24
-75.15154266357422
 34
0.0
 50
90.00000000000001
100
AcDbRotatedDimension
1001
ACAD
1000
DSTYLE
1002
{
1070
   178
1070
     1
1070
   278
1070
    46
1070
   147
1040
0.800000011920929
1070
    77
1070
     1
1070
    74
1070
     0
1070
    73
1070
     0
1070
    42
1040
2.54
1070
    44
1040
2.0
1070
    76
1070
     0
1070
    75
1070
     0
1070
   279
1070
     0
1070
   271
1070
     0
1070
   173
1070
     1
1070
    41
1040
3.0
1070
   140
1040
3.200000047683716
1070
   344
1005
B8
1070
   343
1005
B8
1002
}
  0
DIMENSION
  5
4D2
330
1F
100
AcDbEntity
  8
VIEW0002
 62
     7
100
AcDbDimension
  2
*D34
 10
-0.310165643692013
 20
-35.15154266357422
 30
0.0
 11
-13.70416570544243
 21
-35.15154266357422
 31
0.0
 70
   160
  1
6.5
 71
     5
 42
3.25
  3
ISO-25
100
AcDbAlignedDimension
 13
-3.560165643692017
 23
-50.84408569335938
 33
0.0
 14
-0.310165643692017
 24
-57.77654266357422
 34
0.0
 50
180.0
100
AcDbRotatedDimension
1001
ACAD
1000
DSTYLE
1002
{
1070
   178
1070
     1
1070
   278
1070
    46
1070
   147
1040
0.800000011920929
1070
    77
1070
     1
1070
    74
1070
     0
1070
    73
1070
     0
1070
    42
1040
2.54
1070
    44
1040
2.0
1070
    76
1070
     0
1070
    75
1070
     0
1070
   279
1070
     0
1070
   271
1070
     1
1070
   173
1070
     1
1070
    41
1040
3.0
1070
   140
1040
3.200000047683716
1070
   344
1005
B8
1070
   343
1005
B8
1002
}
  0
DIMENSION
  5
4EA
330
1F
100
AcDbEntity
  8
VIEW0002
 62
     7
100
AcDbDimension
  2
*D35
 10
21.18983459472657
 20
-35.15154266357422
 30
0.0
 11
10.44083364105225
 21
-35.15154266357422
 31
0.0
 70
   160
  1
43
 71
     5
 42
21.50000023841858
  3
ISO-25
100
AcDbAlignedDimension
 13
-0.310165643692017
 23
-57.77654266357422
 33
0.0
 14
21.18983459472656
 24
-57.77654266357422
 34
0.0
 50
180.0
100
AcDbRotatedDimension
1001
ACAD
1000
DSTYLE
1002
{
1070
   178
1070
     1
1070
   278
1070
    46
1070
   147
1040
0.800000011920929
1070
    77
1070
     1
1070
    74
1070
     0
1070
    73
1070
     0
1070
    42
1040
2.54
1070
    44
1040
2.0
1070
    76
1070
     0
1070
    75
1070
     1
1070
   279
1070
     0
1070
   271
1070
     0
1070
   173
1070
     1
1070
    41
1040
3.0
1070
   140
1040
3.200000047683716
1070
   344
1005
B8
1070
   343
1005
B8
1002
}
  0
DIMENSION
  5
4F6
330
1F
100
AcDbEntity
  8
VIEW0002
 62
     7
100
AcDbDimension
  2
*D36
 10
24.43983459472656
 20
-35.15154266357422
 30
0.0
 11
34.58383465647697
 21
-35.15154266357422
 31
0.0
 70
   160
  1
6.5
 71
     5
 42
3.249999999999999
  3
ISO-25
100
AcDbAlignedDimension
 13
21.18983459472656
 23
-57.77654266357422
 33
0.0
 14
24.43983459472656
 24
-50.84398651123047
 34
0.0
 50
180.0
100
AcDbRotatedDimension
1001
ACAD
1000
DSTYLE
1002
{
1070
   178
1070
     1
1070
   278
1070
    46
1070
   147
1040
0.800000011920929
1070
    77
1070
     1
1070
    74
1070
     0
1070
    73
1070
     0
1070
    42
1040
2.54
1070
    44
1040
2.0
1070
    76
1070
     0
1070
    75
1070
     1
1070
   279
1070
     0
1070
   271
1070
     1
1070
   173
1070
     1
1070
    41
1040
3.0
1070
   140
1040
3.200000047683716
1070
   344
1005
B8
1070
   343
1005
B8
1002
}
  0
INSERT
  5
512
330
1F
100
AcDbEntity
  8
VIEW0002
 62
     7
100
AcDbBlockReference
  2
SYM0001
 10
22.2685222011775
 20
-61.36688541897455
 30
0.0
  0
INSERT
  5
51B
330
1F
100
AcDbEntity
  8
VIEW0002
 62
     7
100
AcDbBlockReference
  2
SYM0002
 10
22.44001531940143
 20
-56.42151047406959
 30
0.0
  0
DIMENSION
  5
51E
330
1F
100
AcDbEntity
  8
VIEW0002
 62
     7
100
AcDbDimension
  2
*D39
 10
51.78021240234375
 20
50.46970748901367
 30
0.0
 11
21.78119905090332
 21
50.46970748901367
 31
0.0
 70
   160
  1
120
 71
     5
 42
60.00002765655518
  3
ISO-25
100
AcDbAlignedDimension
 13
-8.219815254211426
 23
18.15026473999023
 33
0.0
 14
51.78021240234375
 24
41.04496383666992
 34
0.0
 50
180.0
100
AcDbRotatedDimension
1001
ACAD
1000
DSTYLE
1002
{
1070
   178
1070
     1
1070
   278
1070
    46
1070
   147
1040
0.800000011920929
1070
    77
1070
     1
1070
    74
1070
     0
1070
    73
1070
     0
1070
    42
1040
2.54
1070
    44
1040
1.0
1070
    76
1070
     0
1070
    75
1070
     0
1070
   279
1070
     0
1070
   271
1070
     0
1070
   173
1070
     1
1070
    41
1040
3.0
1070
   140
1040
3.200000047683716
1070
   344
1005
B8
1070
   343
1005
B8
1002
}
  0
DIMENSION
  5
52B
330
1F
100
AcDbEntity
  8
VIEW0002
 62
     7
100
AcDbDimension
  2
*D40
 10
90.79047213477021
 20
20.46541523881065
 30
0.0
 11
83.07258605957031
 21
33.32853753662109
 31
0.0
 70
   161
  1
60
 71
     5
 42
30.00000059604645
  3
ISO-25
100
AcDbAlignedDimension
 13
66.78021242550253
 23
41.04496301312002
 33
0.0
 14
82.21510406526613
 24
15.32018593281196
 34
0.0
1001
ACAD
1000
DSTYLE
1002
{
1070
   178
1070
     1
1070
   278
1070
    46
1070
   147
1040
0.800000011920929
1070
    77
1070
     1
1070
    74
1070
     0
1070
    73
1070
     0
1070
    42
1040
2.54
1070
    44
1040
0.999999999999996
1070
    76
1070
     0
1070
    75
1070
     0
1070
   279
1070
     0
1070
   271
1070
     0
1070
   173
1070
     1
1070
    41
1040
3.0
1070
   140
1040
3.200000047683716
1070
   344
1005
B8
1070
   343
1005
B8
1002
}
  0
DIMENSION
  5
538
330
1F
100
AcDbEntity
  8
VIEW0002
 62
     7
100
AcDbDimension
  2
*D41
 10
-36.06781658935547
 20
93.84136199951172
 30
0.0
 11
-36.06781658935547
 21
98.99236352539063
 31
0.0
 70
   160
  1
21
 71
     5
 42
10.30000305175781
  3
ISO-25
100
AcDbAlignedDimension
 13
-22.83579254150391
 23
104.1413650512695
 33
0.0
 14
-22.83579254150391
 24
93.84136199951172
 34
0.0
 50
90.00000000000001
100
AcDbRotatedDimension
1001
ACAD
1000
DSTYLE
1002
{
1070
   178
1070
     1
1070
   278
1070
    46
1070
   147
1040
0.800000011920929
1070
    77
1070
     1
1070
    74
1070
     0
1070
    73
1070
     0
1070
    42
1040
2.54
1070
    44
1040
1.0
1070
    76
1070
     0
1070
    75
1070
     0
1070
   279
1070
     0
1070
   271
1070
     0
1070
   173
1070
     1
1070
    41
1040
3.0
1070
   140
1040
3.200000047683716
1070
   344
1005
B8
1070
   343
1005
B8
1002
}
  0
DIMENSION
  5
54C
330
1F
100
AcDbEntity
  8
VIEW0002
 62
     7
100
AcDbDimension
  2
*D42
 10
41.28020858764648
 20
59.294189453125
 30
0.0
 11
7.606210781097412
 21
59.294189453125
 31
0.0
 70
   160
  1
135
 71
     5
 42
67.3499984741211
  3
ISO-25
100
AcDbAlignedDimension
 13
-26.06978988647461
 23
34.1502685546875
 33
0.0
 14
41.28020858764648
 24
30.90024185180664
 34
0.0
 50
180.0
100
AcDbRotatedDimension
1001
ACAD
1000
DSTYLE
1002
{
1070
   178
1070
     1
1070
   278
1070
    46
1070
   147
1040
0.800000011920929
1070
    77
1070
     1
1070
    74
1070
     0
1070
    73
1070
     0
1070
    42
1040
2.54
1070
    44
1040
1.0
1070
    76
1070
     0
1070
    75
1070
     0
1070
   279
1070
     0
1070
   271
1070
     0
1070
   173
1070
     1
1070
    41
1040
3.0
1070
   140
1040
3.200000047683716
1070
   344
1005
B8
1070
   343
1005
B8
1002
}
  0
DIMENSION
  5
559
330
1F
100
AcDbEntity
  8
VIEW0002
 62
     7
100
AcDbDimension
  2
*D43
 10
36.78020858764648
 20
-11.84876100921631
 30
0.0
 11
5.356210781097412
 21
-11.84876100921631
 31
0.0
 70
   160
  1
126
 71
     5
 42
62.84999847412109
  3
ISO-25
100
AcDbAlignedDimension
 13
-26.06978988647461
 23
31.55023956298828
 33
0.0
 14
36.78020858764648
 24
8.150238990783691
 34
0.0
 50
180.0
100
AcDbRotatedDimension
1001
ACAD
1000
DSTYLE
1002
{
1070
   178
1070
     1
1070
   278
1070
    46
1070
   147
1040
0.800000011920929
1070
    77
1070
     1
1070
    74
1070
     0
1070
    73
1070
     0
1070
    42
1040
2.54
1070
    44
1040
1.0
1070
    76
1070
     1
1070
    75
1070
     0
1070
   279
1070
     0
1070
   271
1070
     0
1070
   173
1070
     1
1070
    41
1040
3.0
1070
   140
1040
3.200000047683716
1070
   344
1005
B8
1070
   343
1005
B8
1002
}
  0
DIMENSION
  5
565
330
1F
100
AcDbEntity
  8
VIEW0002
 62
     7
100
AcDbDimension
  2
*D44
 10
-36.06778988647461
 20
30.55023956298827
 30
0.0
 11
-36.06778988647461
 21
32.35125405883789
 31
0.0
 70
   160
  1
7
 71
     5
 42
3.600028991699219
  3
ISO-25
100
AcDbAlignedDimension
 13
-26.06978988647461
 23
34.1502685546875
 33
0.0
 14
-25.06978988647461
 24
30.55023956298828
 34
0.0
 50
90.00000000000001
100
AcDbRotatedDimension
1001
ACAD
1000
DSTYLE
1002
{
1070
   178
1070
     1
1070
   278
1070
    46
1070
   147
1040
0.800000011920929
1070
    77
1070
     1
1070
    74
1070
     0
1070
    73
1070
     0
1070
    42
1040
2.54
1070
    44
1040
1.0
1070
    76
1070
     0
1070
    75
1070
     0
1070
   279
1070
     0
1070
   271
1070
     0
1070
   173
1070
     1
1070
    41
1040
3.0
1070
   140
1040
3.200000047683716
1070
   344
1005
B8
1070
   343
1005
B8
1002
}
  0
DIMENSION
  5
57B
330
1F
100
AcDbEntity
  8
VIEW0002
 62
     7
100
AcDbDimension
  2
*D45
 10
51.78020858764648
 20
-1.848760413169862
 30
0.0
 11
44.28120858764648
 21
-1.848760413169861
 31
0.0
 70
   160
  1
30
 71
     5
 42
14.99999999999999
  3
ISO-25
100
AcDbAlignedDimension
 13
36.78020858764648
 23
8.150239944458008
 33
0.0
 14
51.78020858764648
 24
41.04496383666992
 34
0.0
 50
180.0
100
AcDbRotatedDimension
1001
ACAD
1000
DSTYLE
1002
{
1070
   178
1070
     1
1070
   278
1070
    46
1070
   147
1040
0.800000011920929
1070
    77
1070
     1
1070
    74
1070
     0
1070
    73
1070
     0
1070
    42
1040
2.54
1070
    44
1040
1.00000011920929
1070
    76
1070
     0
1070
    75
1070
     1
1070
   279
1070
     0
1070
   271
1070
     0
1070
   173
1070
     1
1070
    41
1040
3.0
1070
   140
1040
3.200000047683716
1070
   344
1005
B8
1070
   343
1005
B8
1002
}
  0
DIMENSION
  5
587
330
1F
100
AcDbEntity
  8
VIEW0002
 62
     7
100
AcDbDimension
  2
*D46
 10
-56.70962142944336
 20
44.15026473999023
 30
0.0
 11
-60.70862142944336
 21
44.15026473999023
 31
0.0
 70
   160
  1
16
 71
     5
 42
8.000003814697266
  3
ISO-25
100
AcDbAlignedDimension
 13
-64.70962524414062
 23
32.56646347045898
 33
0.0
 14
-56.70962142944336
 24
32.56646347045898
 34
0.0
 50
180.0
100
AcDbRotatedDimension
1001
ACAD
1000
DSTYLE
1002
{
1070
   178
1070
     1
1070
   278
1070
    46
1070
   147
1040
0.800000011920929
1070
    77
1070
     1
1070
    74
1070
     0
1070
    73
1070
     0
1070
    42
1040
2.54
1070
    44
1040
1.0
1070
    76
1070
     0
1070
    75
1070
     0
1070
   279
1070
     0
1070
   271
1070
     0
1070
   173
1070
     1
1070
    41
1040
3.0
1070
   140
1040
3.200000047683716
1070
   344
1005
B8
1070
   343
1005
B8
1002
}
  0
INSERT
  5
5A1
330
1F
100
AcDbEntity
  8
VIEW0002
 62
     7
100
AcDbBlockReference
  2
SYM0003
 10
-8.719810113597097
 20
23.40026558154732
 30
0.0
  0
INSERT
  5
5AA
330
1F
100
AcDbEntity
  8
VIEW0002
 62
     7
100
AcDbBlockReference
  2
SYM0004
 10
-3.219818900385002
 20
22.55026857480344
 30
0.0
  0
DIMENSION
  5
5AD
330
1F
100
AcDbEntity
  8
VIEW0002
 62
     7
100
AcDbDimension
  2
*D49
 10
66.78021240234375
 20
-11.84876100921631
 30
0.0
 11
51.78120858764648
 21
-11.84876100921631
 31
0.0
 70
   160
  1
60
 71
     5
 42
30.00000381469727
  3
ISO-25
100
AcDbAlignedDimension
 13
36.78020858764648
 23
8.150239944458008
 33
0.0
 14
66.78021240234375
 24
41.04496383666992
 34
0.0
 50
180.0
100
AcDbRotatedDimension
1001
ACAD
1000
DSTYLE
1002
{
1070
   178
1070
     1
1070
   278
1070
    46
1070
   147
1040
0.800000011920929
1070
    77
1070
     1
1070
    74
1070
     0
1070
    73
1070
     0
1070
    42
1040
2.54
1070
    44
1040
1.0
1070
    76
1070
     0
1070
    75
1070
     0
1070
   279
1070
     0
1070
   271
1070
     0
1070
   173
1070
     1
1070
    41
1040
3.0
1070
   140
1040
3.200000047683716
1070
   344
1005
B8
1070
   343
1005
B8
1002
}
  0
ENDSEC
  0
SECTION
  2
OBJECTS
  0
DICTIONARY
  5
C
330
0
100
AcDbDictionary
281
     1
  3
ACAD_GROUP
350
D
  3
ACAD_LAYOUT
350
1A
  3
ACAD_MATERIAL
350
3B
  3
ACAD_MLEADERSTYLE
350
5E1
  3
ACAD_MLINESTYLE
350
17
  3
ACAD_PLOTSETTINGS
350
19
  3
ACAD_PLOTSTYLENAME
350
E
  3
ACAD_TABLESTYLE
350
5E0
  3
ACAD_VISUALSTYLE
350
2A
  0
DICTIONARY
  5
D
102
{ACAD_REACTORS
330
C
102
}
330
C
100
AcDbDictionary
281
     1
  0
DICTIONARY
  5
1A
102
{ACAD_REACTORS
330
C
102
}
330
C
100
AcDbDictionary
281
     1
  3
Layout1
350
1E
  3
Layout2
350
26
  3
Model
350
22
  0
DICTIONARY
  5
3B
102
{ACAD_REACTORS
330
C
102
}
330
C
100
AcDbDictionary
281
     1
  3
ByBlock
350
3D
  3
ByLayer
350
3C
  3
Global
350
3E
  0
DICTIONARY
  5
5E1
102
{ACAD_REACTORS
330
C
102
}
330
C
100
AcDbDictionary
281
     1
  0
DICTIONARY
  5
17
102
{ACAD_REACTORS
330
C
102
}
330
C
100
AcDbDictionary
281
     1
  3
Standard
350
18
  0
DICTIONARY
  5
19
102
{ACAD_REACTORS
330
C
102
}
330
C
100
AcDbDictionary
281
     1
  0
ACDBDICTIONARYWDFLT
  5
E
102
{ACAD_REACTORS
330
C
102
}
330
C
100
AcDbDictionary
281
     1
  3
Normal
350
F
100
AcDbDictionaryWithDefault
340
F
  0
DICTIONARY
  5
5E0
102
{ACAD_REACTORS
330
C
102
}
330
C
100
AcDbDictionary
281
     1
  0
DICTIONARY
  5
2A
102
{ACAD_REACTORS
330
C
102
}
330
C
100
AcDbDictionary
281
     1
  3
2dWireframe
350
2F
  3
3D Hidden
350
31
  3
3dWireframe
350
30
  3
Basic
350
32
  3
Brighten
350
36
  3
ColorChange
350
3A
  3
Conceptual
350
34
  3
Dim
350
35
  3
Facepattern
350
39
  3
Flat
350
2B
  3
FlatWithEdges
350
2C
  3
Gouraud
350
2D
  3
GouraudWithEdges
350
2E
  3
Linepattern
350
38
  3
Realistic
350
33
  3
Thicken
350
37
  0
LAYOUT
  5
1E
102
{ACAD_REACTORS
330
1A
102
}
330
1A
100
AcDbPlotSettings
  1

  2
none_device
  4

  6

 40
0.0
 41
0.0
 42
0.0
 43
0.0
 44
0.0
 45
0.0
 46
0.0
 47
0.0
 48
0.0
 49
0.0
140
0.0
141
0.0
142
1.0
143
1.0
 70
   688
 72
     0
 73
     0
 74
     5
  7

 75
    16
 76
     0
 77
     2
 78
   300
147
1.0
148
0.0
149
0.0
100
AcDbLayout
  1
Layout1
 70
     1
 71
     1
 10
-105.0
 20
-148.5
 11
105.0
 21
148.5
 12
0.0
 22
0.0
 32
0.0
 14
1.000000000000000E+20
 24
1.000000000000000E+20
 34
1.000000000000000E+20
 15
-1.000000000000000E+20
 25
-1.000000000000000E+20
 35
-1.000000000000000E+20
146
0.0
 13
0.0
 23
0.0
 33
0.0
 16
1.0
 26
0.0
 36
0.0
 17
0.0
 27
1.0
 37
0.0
 76
     0
330
1B
  0
LAYOUT
  5
26
102
{ACAD_REACTORS
330
1A
102
}
330
1A
100
AcDbPlotSettings
  1

  2
none_device
  4

  6

 40
0.0
 41
0.0
 42
0.0
 43
0.0
 44
0.0
 45
0.0
 46
0.0
 47
0.0
 48
0.0
 49
0.0
140
0.0
141
0.0
142
1.0
143
1.0
 70
   688
 72
     0
 73
     0
 74
     5
  7

 75
    16
 76
     0
 77
     2
 78
   300
147
1.0
148
0.0
149
0.0
100
AcDbLayout
  1
Layout2
 70
     1
 71
     2
 10
0.0
 20
0.0
 11
0.0
 21
0.0
 12
0.0
 22
0.0
 32
0.0
 14
0.0
 24
0.0
 34
0.0
 15
0.0
 25
0.0
 35
0.0
146
0.0
 13
0.0
 23
0.0
 33
0.0
 16
1.0
 26
0.0
 36
0.0
 17
0.0
 27
1.0
 37
0.0
 76
     0
330
23
  0
LAYOUT
  5
22
102
{ACAD_REACTORS
330
1A
102
}
330
1A
100
AcDbPlotSettings
  1

  2
none_device
  4

  6

 40
0.0
 41
0.0
 42
0.0
 43
0.0
 44
0.0
 45
0.0
 46
0.0
 47
0.0
 48
0.0
 49
0.0
140
0.0
141
0.0
142
1.0
143
1.0
 70
  1712
 72
     0
 73
     0
 74
     0
  7

 75
     0
 76
     0
 77
     2
 78
   300
147
1.0
148
0.0
149
0.0
100
AcDbLayout
  1
Model
 70
     1
 71
     0
 10
-105.0
 20
-148.5
 11
105.0
 21
148.5
 12
0.0
 22
0.0
 32
0.0
 14
-105.0
 24
-148.5
 34
0.0
 15
105.0
 25
148.5
 35
0.0
146
0.0
 13
0.0
 23
0.0
 33
0.0
 16
1.0
 26
0.0
 36
0.0
 17
0.0
 27
1.0
 37
0.0
 76
     0
330
1F
331
29
  0
MATERIAL
  5
3D
102
{ACAD_REACTORS
330
3B
102
}
102
{ACAD_XDICTIONARY
360
5DC
102
}
330
3B
100
AcDbMaterial
  1
ByBlock
  0
MATERIAL
  5
3C
102
{ACAD_REACTORS
330
3B
102
}
102
{ACAD_XDICTIONARY
360
5DA
102
}
330
3B
100
AcDbMaterial
  1
ByLayer
  0
MATERIAL
  5
3E
102
{ACAD_REACTORS
330
3B
102
}
102
{ACAD_XDICTIONARY
360
5DE
102
}
330
3B
100
AcDbMaterial
  1
Global
  0
MLINESTYLE
  5
18
102
{ACAD_REACTORS
330
17
102
}
330
17
100
AcDbMlineStyle
  2
Standard
 70
     0
  3

 62
   256
 51
90.0
 52
90.0
 71
     2
 49
0.5
 62
   256
  6
BYLAYER
 49
-0.5
 62
   256
  6
BYLAYER
  0
ACDBPLACEHOLDER
  5
F
102
{ACAD_REACTORS
330
E
102
}
330
E
  0
VISUALSTYLE
  5
2F
102
{ACAD_REACTORS
330
2A
102
}
102
{ACAD_XDICTIONARY
360
5C2
102
}
330
2A
100
AcDbVisualStyle
  2
2dWireframe
 70
     4
 71
     0
 72
     2
 73
     0
 90
        0
 40
-0.6
 41
-30.0
 62
     5
 63
     7
421
 16777215
 74
     1
 91
        4
 64
     7
 65
   257
 75
     1
175
     1
 42
1.0
 92
        0
 66
   257
 43
1.0
 76
     1
 77
     6
 78
     2
 67
     7
 79
     5
170
     0
171
     0
290
     0
174
     0
 93
        1
 44
0.0
173
     0
291
     0
 45
0.0
1001
ACAD
1000
AcDbSavedByObjectVersion
1070
     0
  0
VISUALSTYLE
  5
31
102
{ACAD_REACTORS
330
2A
102
}
102
{ACAD_XDICTIONARY
360
5C6
102
}
330
2A
100
AcDbVisualStyle
  2
3D Hidden
 70
     6
 71
     1
 72
     2
 73
     2
 90
        0
 40
-0.6
 41
-30.0
 62
     5
 63
     7
421
 16777215
 74
     2
 91
        2
 64
     7
 65
   257
 75
     2
175
     1
 42
40.0
 92
        0
 66
   257
 43
1.0
 76
     1
 77
     6
 78
     2
 67
     7
 79
     3
170
     0
171
     0
290
     0
174
     0
 93
        1
 44
0.0
173
     0
291
     0
 45
0.0
1001
ACAD
1000
AcDbSavedByObjectVersion
1070
     0
  0
VISUALSTYLE
  5
30
102
{ACAD_REACTORS
330
2A
102
}
102
{ACAD_XDICTIONARY
360
5C4
102
}
330
2A
100
AcDbVisualStyle
  2
3dWireframe
 70
     5
 71
     0
 72
     2
 73
     0
 90
        0
 40
-0.6
 41
-30.0
 62
     5
 63
     7
421
 16777215
 74
     1
 91
        4
 64
     7
 65
   257
 75
     1
175
     1
 42
1.0
 92
        0
 66
   257
 43
1.0
 76
     1
 77
     6
 78
     2
 67
     7
 79
     5
170
     0
171
     0
290
     0
174
     0
 93
        1
 44
0.0
173
     0
291
     0
 45
0.0
1001
ACAD
1000
AcDbSavedByObjectVersion
1070
     0
  0
VISUALSTYLE
  5
32
102
{ACAD_REACTORS
330
2A
102
}
102
{ACAD_XDICTIONARY
360
5C8
102
}
330
2A
100
AcDbVisualStyle
  2
Basic
 70
     7
 71
     1
 72
     0
 73
     1
 90
        0
 40
-0.6
 41
-30.0
 62
     5
 63
     7
421
 16777215
 74
     0
 91
        4
 64
     7
 65
   257
 75
     1
175
     1
 42
1.0
 92
        8
 66
     7
 43
1.0
 76
     1
 77
     6
 78
     2
 67
     7
 79
     5
170
     0
171
     0
290
     0
174
     0
 93
        1
 44
0.0
173
     0
291
     1
 45
0.0
1001
ACAD
1000
AcDbSavedByObjectVersion
1070
     0
  0
VISUALSTYLE
  5
36
102
{ACAD_REACTORS
330
2A
102
}
102
{ACAD_XDICTIONARY
360
5D0
102
}
330
2A
100
AcDbVisualStyle
  2
Brighten
 70
    12
 71
     2
 72
     2
 73
     0
 90
        0
 40
-0.6
 41
-30.0
 62
     5
 63
     7
421
 16777215
 74
     1
 91
        4
 64
     7
 65
   257
 75
     1
175
     1
 42
1.0
 92
        8
 66
     7
 43
1.0
 76
     1
 77
     6
 78
     2
 67
     7
 79
     5
170
     0
171
     0
290
     0
174
     0
 93
        1
 44
50.0
173
     0
291
     1
 45
0.0
1001
ACAD
1000
AcDbSavedByObjectVersion
1070
     0
  0
VISUALSTYLE
  5
3A
102
{ACAD_REACTORS
330
2A
102
}
102
{ACAD_XDICTIONARY
360
5D8
102
}
330
2A
100
AcDbVisualStyle
  2
ColorChange
 70
    16
 71
     2
 72
     2
 73
     3
 90
        0
 40
-0.6
 41
-30.0
 62
     5
 63
     8
421
  8421504
 74
     1
 91
        4
 64
     7
 65
   257
 75
     1
175
     1
 42
1.0
 92
        8
 66
     8
424
  8421504
 43
1.0
 76
     1
 77
     6
 78
     2
 67
     7
 79
     5
170
     0
171
     0
290
     0
174
     0
 93
        1
 44
0.0
173
     0
291
     1
 45
0.0
1001
ACAD
1000
AcDbSavedByObjectVersion
1070
     0
  0
VISUALSTYLE
  5
34
102
{ACAD_REACTORS
330
2A
102
}
102
{ACAD_XDICTIONARY
360
5CC
102
}
330
2A
100
AcDbVisualStyle
  2
Conceptual
 70
     9
 71
     3
 72
     2
 73
     0
 90
        0
 40
-0.6
 41
-30.0
 62
     5
 63
     7
421
 16777215
 74
     2
 91
        2
 64
     7
 65
   257
 75
     1
175
     1
 42
40.0
 92
        8
 66
     7
 43
1.0
 76
     1
 77
     6
 78
     2
 67
     7
 79
     3
170
     0
171
     0
290
     0
174
     0
 93
        1
 44
0.0
173
     0
291
     0
 45
0.0
1001
ACAD
1000
AcDbSavedByObjectVersion
1070
     0
  0
VISUALSTYLE
  5
35
102
{ACAD_REACTORS
330
2A
102
}
102
{ACAD_XDICTIONARY
360
5CE
102
}
330
2A
100
AcDbVisualStyle
  2
Dim
 70
    11
 71
     2
 72
     2
 73
     0
 90
        0
 40
-0.6
 41
-30.0
 62
     5
 63
     7
421
 16777215
 74
     1
 91
        4
 64
     7
 65
   257
 75
     1
175
     1
 42
1.0
 92
        8
 66
     7
 43
1.0
 76
     1
 77
     6
 78
     2
 67
     7
 79
     5
170
     0
171
     0
290
     0
174
     0
 93
        1
 44
-50.0
173
     0
291
     1
 45
0.0
1001
ACAD
1000
AcDbSavedByObjectVersion
1070
     0
  0
VISUALSTYLE
  5
39
102
{ACAD_REACTORS
330
2A
102
}
102
{ACAD_XDICTIONARY
360
5D6
102
}
330
2A
100
AcDbVisualStyle
  2
Facepattern
 70
    15
 71
     2
 72
     2
 73
     0
 90
        0
 40
-0.6
 41
-30.0
 62
     5
 63
     7
421
 16777215
 74
     1
 91
        4
 64
     7
 65
   257
 75
     1
175
     1
 42
1.0
 92
        8
 66
     7
 43
1.0
 76
     1
 77
     6
 78
     2
 67
     7
 79
     5
170
     0
171
     0
290
     0
174
     0
 93
        1
 44
0.0
173
     0
291
     1
 45
0.0
1001
ACAD
1000
AcDbSavedByObjectVersion
1070
     0
  0
VISUALSTYLE
  5
2B
102
{ACAD_REACTORS
330
2A
102
}
102
{ACAD_XDICTIONARY
360
5BA
102
}
330
2A
100
AcDbVisualStyle
  2
Flat
 70
     0
 71
     2
 72
     1
 73
     1
 90
        2
 40
-0.6
 41
30.0
 62
     5
 63
     7
421
 16777215
 74
     0
 91
        4
 64
     7
 65
   257
 75
     1
175
     1
 42
1.0
 92
        8
 66
     7
 43
1.0
 76
     1
 77
     6
 78
     2
 67
     7
 79
     5
170
     0
171
     0
290
     0
174
     0
 93
       13
 44
0.0
173
     0
291
     1
 45
0.0
1001
ACAD
1000
AcDbSavedByObjectVersion
1070
     0
  0
VISUALSTYLE
  5
2C
102
{ACAD_REACTORS
330
2A
102
}
102
{ACAD_XDICTIONARY
360
5BC
102
}
330
2A
100
AcDbVisualStyle
  2
FlatWithEdges
 70
     1
 71
     2
 72
     1
 73
     1
 90
        2
 40
-0.6
 41
30.0
 62
     5
 63
     7
421
 16777215
 74
     1
 91
        4
 64
     7
 65
   257
 75
     1
175
     1
 42
1.0
 92
        0
 66
   257
 43
1.0
 76
     1
 77
     6
 78
     2
 67
     7
 79
     5
170
     0
171
     0
290
     0
174
     0
 93
       13
 44
0.0
173
     0
291
     1
 45
0.0
1001
ACAD
1000
AcDbSavedByObjectVersion
1070
     0
  0
VISUALSTYLE
  5
2D
102
{ACAD_REACTORS
330
2A
102
}
102
{ACAD_XDICTIONARY
360
5BE
102
}
330
2A
100
AcDbVisualStyle
  2
Gouraud
 70
     2
 71
     2
 72
     2
 73
     1
 90
        2
 40
-0.6
 41
30.0
 62
     5
 63
     7
421
 16777215
 74
     0
 91
        4
 64
     7
 65
   257
 75
     1
175
     1
 42
1.0
 92
        0
 66
     7
 43
1.0
 76
     1
 77
     6
 78
     2
 67
     7
 79
     5
170
     0
171
     0
290
     0
174
     0
 93
       13
 44
0.0
173
     0
291
     1
 45
0.0
1001
ACAD
1000
AcDbSavedByObjectVersion
1070
     0
  0
VISUALSTYLE
  5
2E
102
{ACAD_REACTORS
330
2A
102
}
102
{ACAD_XDICTIONARY
360
5C0
102
}
330
2A
100
AcDbVisualStyle
  2
GouraudWithEdges
 70
     3
 71
     2
 72
     2
 73
     1
 90
        2
 40
-0.6
 41
30.0
 62
     5
 63
     7
421
 16777215
 74
     1
 91
        4
 64
     7
 65
   257
 75
     1
175
     1
 42
1.0
 92
        0
 66
   257
 43
1.0
 76
     1
 77
     6
 78
     2
 67
     7
 79
     5
170
     0
171
     0
290
     0
174
     0
 93
       13
 44
0.0
173
     0
291
     1
 45
0.0
1001
ACAD
1000
AcDbSavedByObjectVersion
1070
     0
  0
VISUALSTYLE
  5
38
102
{ACAD_REACTORS
330
2A
102
}
102
{ACAD_XDICTIONARY
360
5D4
102
}
330
2A
100
AcDbVisualStyle
  2
Linepattern
 70
    14
 71
     2
 72
     2
 73
     0
 90
        0
 40
-0.6
 41
-30.0
 62
     5
 63
     7
421
 16777215
 74
     1
 91
        4
 64
     7
 65
   257
 75
     7
175
     7
 42
1.0
 92
        8
 66
     7
 43
1.0
 76
     1
 77
     6
 78
     2
 67
     7
 79
     5
170
     0
171
     0
290
     0
174
     0
 93
        1
 44
0.0
173
     0
291
     1
 45
0.0
1001
ACAD
1000
AcDbSavedByObjectVersion
1070
     0
  0
VISUALSTYLE
  5
33
102
{ACAD_REACTORS
330
2A
102
}
102
{ACAD_XDICTIONARY
360
5CA
102
}
330
2A
100
AcDbVisualStyle
  2
Realistic
 70
     8
 71
     2
 72
     2
 73
     0
 90
        0
 40
-0.6
 41
-30.0
 62
     5
 63
     7
421
 16777215
 74
     1
 91
        0
 64
     7
 65
   257
 75
     1
175
     1
 42
1.0
 92
        8
 66
     8
424
  7895160
 43
1.0
 76
     1
 77
     6
 78
     2
 67
     7
 79
     5
170
     0
171
     0
290
     0
174
     0
 93
       13
 44
0.0
173
     0
291
     0
 45
0.0
1001
ACAD
1000
AcDbSavedByObjectVersion
1070
     0
  0
VISUALSTYLE
  5
37
102
{ACAD_REACTORS
330
2A
102
}
102
{ACAD_XDICTIONARY
360
5D2
102
}
330
2A
100
AcDbVisualStyle
  2
Thicken
 70
    13
 71
     2
 72
     2
 73
     0
 90
        0
 40
-0.6
 41
-30.0
 62
     5
 63
     7
421
 16777215
 74
     1
 91
        4
 64
     7
 65
   257
 75
     1
175
     1
 42
1.0
 92
       12
 66
     7
 43
1.0
 76
     1
 77
     6
 78
     2
 67
     7
 79
     5
170
     0
171
     0
290
     0
174
     0
 93
        1
 44
0.0
173
     0
291
     1
 45
0.0
1001
ACAD
1000
AcDbSavedByObjectVersion
1070
     0
  0
DICTIONARY
  5
5DC
330
3D
100
AcDbDictionary
280
     1
281
     1
  3
ACAD_XREC_ROUNDTRIP
360
5DD
  0
DICTIONARY
  5
5DA
330
3C
100
AcDbDictionary
280
     1
281
     1
  3
ACAD_XREC_ROUNDTRIP
360
5DB
  0
DICTIONARY
  5
5DE
330
3E
100
AcDbDictionary
280
     1
281
     1
  3
ACAD_XREC_ROUNDTRIP
360
5DF
  0
DICTIONARY
  5
5C2
330
2F
100
AcDbDictionary
280
     1
281
     1
  3
ACAD_XREC_ROUNDTRIP
360
5C3
  0
DICTIONARY
  5
5C6
330
31
100
AcDbDictionary
280
     1
281
     1
  3
ACAD_XREC_ROUNDTRIP
360
5C7
  0
DICTIONARY
  5
5C4
330
30
100
AcDbDictionary
280
     1
281
     1
  3
ACAD_XREC_ROUNDTRIP
360
5C5
  0
DICTIONARY
  5
5C8
330
32
100
AcDbDictionary
280
     1
281
     1
  3
ACAD_XREC_ROUNDTRIP
360
5C9
  0
DICTIONARY
  5
5D0
330
36
100
AcDbDictionary
280
     1
281
     1
  3
ACAD_XREC_ROUNDTRIP
360
5D1
  0
DICTIONARY
  5
5D8
330
3A
100
AcDbDictionary
280
     1
281
     1
  3
ACAD_XREC_ROUNDTRIP
360
5D9
  0
DICTIONARY
  5
5CC
330
34
100
AcDbDictionary
280
     1
281
     1
  3
ACAD_XREC_ROUNDTRIP
360
5CD
  0
DICTIONARY
  5
5CE
330
35
100
AcDbDictionary
280
     1
281
     1
  3
ACAD_XREC_ROUNDTRIP
360
5CF
  0
DICTIONARY
  5
5D6
330
39
100
AcDbDictionary
280
     1
281
     1
  3
ACAD_XREC_ROUNDTRIP
360
5D7
  0
DICTIONARY
  5
5BA
330
2B
100
AcDbDictionary
280
     1
281
     1
  3
ACAD_XREC_ROUNDTRIP
360
5BB
  0
DICTIONARY
  5
5BC
330
2C
100
AcDbDictionary
280
     1
281
     1
  3
ACAD_XREC_ROUNDTRIP
360
5BD
  0
DICTIONARY
  5
5BE
330
2D
100
AcDbDictionary
280
     1
281
     1
  3
ACAD_XREC_ROUNDTRIP
360
5BF
  0
DICTIONARY
  5
5C0
330
2E
100
AcDbDictionary
280
     1
281
     1
  3
ACAD_XREC_ROUNDTRIP
360
5C1
  0
DICTIONARY
  5
5D4
330
38
100
AcDbDictionary
280
     1
281
     1
  3
ACAD_XREC_ROUNDTRIP
360
5D5
  0
DICTIONARY
  5
5CA
330
33
100
AcDbDictionary
280
     1
281
     1
  3
ACAD_XREC_ROUNDTRIP
360
5CB
  0
DICTIONARY
  5
5D2
330
37
100
AcDbDictionary
280
     1
281
     1
  3
ACAD_XREC_ROUNDTRIP
360
5D3
  0
XRECORD
  5
5DD
102
{ACAD_REACTORS
330
5DC
102
}
330
5DC
100
AcDbXrecord
280
     1
102
MATERIAL
148
0.0
149
0.0
149
0.0
 93
        0
 94
      127
282
     0
 72
     1
 77
     1
171
     1
175
     1
179
     1
273
     0
  0
XRECORD
  5
5DB
102
{ACAD_REACTORS
330
5DA
102
}
330
5DA
100
AcDbXrecord
280
     1
102
MATERIAL
148
0.0
149
0.0
149
0.0
 93
        0
 94
      127
282
     0
 72
     1
 77
     1
171
     1
175
     1
179
     1
273
     0
  0
XRECORD
  5
5DF
102
{ACAD_REACTORS
330
5DE
102
}
330
5DE
100
AcDbXrecord
280
     1
102
MATERIAL
148
0.0
149
0.0
149
0.0
 93
        0
 94
      127
282
     0
 72
     1
 77
     1
171
     1
175
     1
179
     1
273
     0
  0
XRECORD
  5
5C3
102
{ACAD_REACTORS
330
5C2
102
}
330
5C2
100
AcDbXrecord
280
     1
102
RTVSPropertyOp0
 70
     1
102
RTVSPropertyOp1
 70
     1
102
RTVSPropertyOp2
 70
     1
102
RTVSPropertyOp3
 70
     1
102
RTVSPropertyOp4
 70
     1
102
RTVSPropertyOp5
 70
     1
102
RTVSPropertyOp6
 70
     1
102
RTVSPropertyOp7
 70
     1
102
RTVSPropertyOp8
 70
     1
102
RTVSPropertyOp9
 70
     1
102
RTVSPropertyOp10
 70
     1
102
RTVSPropertyOp11
 70
     1
102
RTVSPropertyOp12
 70
     1
102
RTVSPropertyOp13
 70
     1
102
RTVSPropertyOp14
 70
     1
102
RTVSPropertyOp15
 70
     1
102
RTVSPropertyOp16
 70
     1
102
RTVSPropertyOp17
 70
     1
102
RTVSPropertyOp18
 70
     1
102
RTVSPropertyOp19
 70
     1
102
RTVSPropertyOp20
 70
     1
102
RTVSPropertyOp21
 70
     1
102
RTVSPropertyOp22
 70
     1
102
RTVSPropertyOp23
 70
     1
102
RTVSPropertyOp24
 70
     1
102
RTVSPropertyOp25
 70
     1
102
RTVSPropertyOp26
 70
     1
102
RTVSPropertyOp27
 70
     1
102
RTVSPropertyOp28
 70
     1
102
RTVSPropertyOp29
 70
     1
102
RTVSPropertyOp30
 70
     1
102
RTVSPropertyOp31
 70
     1
102
RTVSPropertyOp32
 70
     1
  0
XRECORD
  5
5C7
102
{ACAD_REACTORS
330
5C6
102
}
330
5C6
100
AcDbXrecord
280
     1
102
RTVSPropertyOp0
 70
     1
102
RTVSPropertyOp1
 70
     1
102
RTVSPropertyOp2
 70
     1
102
RTVSPropertyOp3
 70
     1
102
RTVSPropertyOp4
 70
     1
102
RTVSPropertyOp5
 70
     1
102
RTVSPropertyOp6
 70
     1
102
RTVSPropertyOp7
 70
     1
102
RTVSPropertyOp8
 70
     1
102
RTVSPropertyOp9
 70
     1
102
RTVSPropertyOp10
 70
     1
102
RTVSPropertyOp11
 70
     1
102
RTVSPropertyOp12
 70
     1
102
RTVSPropertyOp13
 70
     1
102
RTVSPropertyOp14
 70
     1
102
RTVSPropertyOp15
 70
     1
102
RTVSPropertyOp16
 70
     1
102
RTVSPropertyOp17
 70
     1
102
RTVSPropertyOp18
 70
     1
102
RTVSPropertyOp19
 70
     1
102
RTVSPropertyOp20
 70
     1
102
RTVSPropertyOp21
 70
     1
102
RTVSPropertyOp22
 70
     1
102
RTVSPropertyOp23
 70
     1
102
RTVSPropertyOp24
 70
     1
102
RTVSPropertyOp25
 70
     1
102
RTVSPropertyOp26
 70
     1
102
RTVSPropertyOp27
 70
     1
102
RTVSPropertyOp28
 70
     1
102
RTVSPropertyOp29
 70
     1
102
RTVSPropertyOp30
 70
     1
102
RTVSPropertyOp31
 70
     1
102
RTVSPropertyOp32
 70
     1
  0
XRECORD
  5
5C5
102
{ACAD_REACTORS
330
5C4
102
}
330
5C4
100
AcDbXrecord
280
     1
102
RTVSPropertyOp0
 70
     1
102
RTVSPropertyOp1
 70
     1
102
RTVSPropertyOp2
 70
     1
102
RTVSPropertyOp3
 70
     1
102
RTVSPropertyOp4
 70
     1
102
RTVSPropertyOp5
 70
     1
102
RTVSPropertyOp6
 70
     1
102
RTVSPropertyOp7
 70
     1
102
RTVSPropertyOp8
 70
     1
102
RTVSPropertyOp9
 70
     1
102
RTVSPropertyOp10
 70
     1
102
RTVSPropertyOp11
 70
     1
102
RTVSPropertyOp12
 70
     1
102
RTVSPropertyOp13
 70
     1
102
RTVSPropertyOp14
 70
     1
102
RTVSPropertyOp15
 70
     1
102
RTVSPropertyOp16
 70
     1
102
RTVSPropertyOp17
 70
     1
102
RTVSPropertyOp18
 70
     1
102
RTVSPropertyOp19
 70
     1
102
RTVSPropertyOp20
 70
     1
102
RTVSPropertyOp21
 70
     1
102
RTVSPropertyOp22
 70
     1
102
RTVSPropertyOp23
 70
     1
102
RTVSPropertyOp24
 70
     1
102
RTVSPropertyOp25
 70
     1
102
RTVSPropertyOp26
 70
     1
102
RTVSPropertyOp27
 70
     1
102
RTVSPropertyOp28
 70
     1
102
RTVSPropertyOp29
 70
     1
102
RTVSPropertyOp30
 70
     1
102
RTVSPropertyOp31
 70
     1
102
RTVSPropertyOp32
 70
     1
  0
XRECORD
  5
5C9
102
{ACAD_REACTORS
330
5C8
102
}
330
5C8
100
AcDbXrecord
280
     1
102
RTVSPropertyOp0
 70
     1
102
RTVSPropertyOp1
 70
     1
102
RTVSPropertyOp2
 70
     1
102
RTVSPropertyOp3
 70
     1
102
RTVSPropertyOp4
 70
     1
102
RTVSPropertyOp5
 70
     1
102
RTVSPropertyOp6
 70
     1
102
RTVSPropertyOp7
 70
     1
102
RTVSPropertyOp8
 70
     1
102
RTVSPropertyOp9
 70
     1
102
RTVSPropertyOp10
 70
     1
102
RTVSPropertyOp11
 70
     1
102
RTVSPropertyOp12
 70
     1
102
RTVSPropertyOp13
 70
     1
102
RTVSPropertyOp14
 70
     1
102
RTVSPropertyOp15
 70
     1
102
RTVSPropertyOp16
 70
     1
102
RTVSPropertyOp17
 70
     1
102
RTVSPropertyOp18
 70
     1
102
RTVSPropertyOp19
 70
     1
102
RTVSPropertyOp20
 70
     1
102
RTVSPropertyOp21
 70
     1
102
RTVSPropertyOp22
 70
     1
102
RTVSPropertyOp23
 70
     1
102
RTVSPropertyOp24
 70
     1
102
RTVSPropertyOp25
 70
     1
102
RTVSPropertyOp26
 70
     1
102
RTVSPropertyOp27
 70
     1
102
RTVSPropertyOp28
 70
     1
102
RTVSPropertyOp29
 70
     1
102
RTVSPropertyOp30
 70
     1
102
RTVSPropertyOp31
 70
     1
102
RTVSPropertyOp32
 70
     1
  0
XRECORD
  5
5D1
102
{ACAD_REACTORS
330
5D0
102
}
330
5D0
100
AcDbXrecord
280
     1
102
RTVSPropertyOp0
 70
     1
102
RTVSPropertyOp1
 70
     1
102
RTVSPropertyOp2
 70
     1
102
RTVSPropertyOp3
 70
     1
102
RTVSPropertyOp4
 70
     1
102
RTVSPropertyOp5
 70
     1
102
RTVSPropertyOp6
 70
     1
102
RTVSPropertyOp7
 70
     1
102
RTVSPropertyOp8
 70
     1
102
RTVSPropertyOp9
 70
     1
102
RTVSPropertyOp10
 70
     1
102
RTVSPropertyOp11
 70
     1
102
RTVSPropertyOp12
 70
     1
102
RTVSPropertyOp13
 70
     1
102
RTVSPropertyOp14
 70
     1
102
RTVSPropertyOp15
 70
     1
102
RTVSPropertyOp16
 70
     1
102
RTVSPropertyOp17
 70
     1
102
RTVSPropertyOp18
 70
     1
102
RTVSPropertyOp19
 70
     1
102
RTVSPropertyOp20
 70
     1
102
RTVSPropertyOp21
 70
     1
102
RTVSPropertyOp22
 70
     1
102
RTVSPropertyOp23
 70
     1
102
RTVSPropertyOp24
 70
     1
102
RTVSPropertyOp25
 70
     1
102
RTVSPropertyOp26
 70
     1
102
RTVSPropertyOp27
 70
     1
102
RTVSPropertyOp28
 70
     1
102
RTVSPropertyOp29
 70
     1
102
RTVSPropertyOp30
 70
     1
102
RTVSPropertyOp31
 70
     1
102
RTVSPropertyOp32
 70
     1
  0
XRECORD
  5
5D9
102
{ACAD_REACTORS
330
5D8
102
}
330
5D8
100
AcDbXrecord
280
     1
102
RTVSPropertyOp0
 70
     1
102
RTVSPropertyOp1
 70
     1
102
RTVSPropertyOp2
 70
     1
102
RTVSPropertyOp3
 70
     1
102
RTVSPropertyOp4
 70
     1
102
RTVSPropertyOp5
 70
     1
102
RTVSPropertyOp6
 70
     1
102
RTVSPropertyOp7
 70
     1
102
RTVSPropertyOp8
 70
     1
102
RTVSPropertyOp9
 70
     1
102
RTVSPropertyOp10
 70
     1
102
RTVSPropertyOp11
 70
     1
102
RTVSPropertyOp12
 70
     1
102
RTVSPropertyOp13
 70
     1
102
RTVSPropertyOp14
 70
     1
102
RTVSPropertyOp15
 70
     1
102
RTVSPropertyOp16
 70
     1
102
RTVSPropertyOp17
 70
     1
102
RTVSPropertyOp18
 70
     1
102
RTVSPropertyOp19
 70
     1
102
RTVSPropertyOp20
 70
     1
102
RTVSPropertyOp21
 70
     1
102
RTVSPropertyOp22
 70
     1
102
RTVSPropertyOp23
 70
     1
102
RTVSPropertyOp24
 70
     1
102
RTVSPropertyOp25
 70
     1
102
RTVSPropertyOp26
 70
     1
102
RTVSPropertyOp27
 70
     1
102
RTVSPropertyOp28
 70
     1
102
RTVSPropertyOp29
 70
     1
102
RTVSPropertyOp30
 70
     1
102
RTVSPropertyOp31
 70
     1
102
RTVSPropertyOp32
 70
     1
  0
XRECORD
  5
5CD
102
{ACAD_REACTORS
330
5CC
102
}
330
5CC
100
AcDbXrecord
280
     1
102
RTVSPropertyOp0
 70
     1
102
RTVSPropertyOp1
 70
     1
102
RTVSPropertyOp2
 70
     1
102
RTVSPropertyOp3
 70
     1
102
RTVSPropertyOp4
 70
     1
102
RTVSPropertyOp5
 70
     1
102
RTVSPropertyOp6
 70
     1
102
RTVSPropertyOp7
 70
     1
102
RTVSPropertyOp8
 70
     1
102
RTVSPropertyOp9
 70
     1
102
RTVSPropertyOp10
 70
     1
102
RTVSPropertyOp11
 70
     1
102
RTVSPropertyOp12
 70
     1
102
RTVSPropertyOp13
 70
     1
102
RTVSPropertyOp14
 70
     1
102
RTVSPropertyOp15
 70
     1
102
RTVSPropertyOp16
 70
     1
102
RTVSPropertyOp17
 70
     1
102
RTVSPropertyOp18
 70
     1
102
RTVSPropertyOp19
 70
     1
102
RTVSPropertyOp20
 70
     1
102
RTVSPropertyOp21
 70
     1
102
RTVSPropertyOp22
 70
     1
102
RTVSPropertyOp23
 70
     1
102
RTVSPropertyOp24
 70
     1
102
RTVSPropertyOp25
 70
     1
102
RTVSPropertyOp26
 70
     1
102
RTVSPropertyOp27
 70
     1
102
RTVSPropertyOp28
 70
     1
102
RTVSPropertyOp29
 70
     1
102
RTVSPropertyOp30
 70
     1
102
RTVSPropertyOp31
 70
     1
102
RTVSPropertyOp32
 70
     1
  0
XRECORD
  5
5CF
102
{ACAD_REACTORS
330
5CE
102
}
330
5CE
100
AcDbXrecord
280
     1
102
RTVSPropertyOp0
 70
     1
102
RTVSPropertyOp1
 70
     1
102
RTVSPropertyOp2
 70
     1
102
RTVSPropertyOp3
 70
     1
102
RTVSPropertyOp4
 70
     1
102
RTVSPropertyOp5
 70
     1
102
RTVSPropertyOp6
 70
     1
102
RTVSPropertyOp7
 70
     1
102
RTVSPropertyOp8
 70
     1
102
RTVSPropertyOp9
 70
     1
102
RTVSPropertyOp10
 70
     1
102
RTVSPropertyOp11
 70
     1
102
RTVSPropertyOp12
 70
     1
102
RTVSPropertyOp13
 70
     1
102
RTVSPropertyOp14
 70
     1
102
RTVSPropertyOp15
 70
     1
102
RTVSPropertyOp16
 70
     1
102
RTVSPropertyOp17
 70
     1
102
RTVSPropertyOp18
 70
     1
102
RTVSPropertyOp19
 70
     1
102
RTVSPropertyOp20
 70
     1
102
RTVSPropertyOp21
 70
     1
102
RTVSPropertyOp22
 70
     1
102
RTVSPropertyOp23
 70
     1
102
RTVSPropertyOp24
 70
     1
102
RTVSPropertyOp25
 70
     1
102
RTVSPropertyOp26
 70
     1
102
RTVSPropertyOp27
 70
     1
102
RTVSPropertyOp28
 70
     1
102
RTVSPropertyOp29
 70
     1
102
RTVSPropertyOp30
 70
     1
102
RTVSPropertyOp31
 70
     1
102
RTVSPropertyOp32
 70
     1
  0
XRECORD
  5
5D7
102
{ACAD_REACTORS
330
5D6
102
}
330
5D6
100
AcDbXrecord
280
     1
102
RTVSPropertyOp0
 70
     1
102
RTVSPropertyOp1
 70
     1
102
RTVSPropertyOp2
 70
     1
102
RTVSPropertyOp3
 70
     1
102
RTVSPropertyOp4
 70
     1
102
RTVSPropertyOp5
 70
     1
102
RTVSPropertyOp6
 70
     1
102
RTVSPropertyOp7
 70
     1
102
RTVSPropertyOp8
 70
     1
102
RTVSPropertyOp9
 70
     1
102
RTVSPropertyOp10
 70
     1
102
RTVSPropertyOp11
 70
     1
102
RTVSPropertyOp12
 70
     1
102
RTVSPropertyOp13
 70
     1
102
RTVSPropertyOp14
 70
     1
102
RTVSPropertyOp15
 70
     1
102
RTVSPropertyOp16
 70
     1
102
RTVSPropertyOp17
 70
     1
102
RTVSPropertyOp18
 70
     1
102
RTVSPropertyOp19
 70
     1
102
RTVSPropertyOp20
 70
     1
102
RTVSPropertyOp21
 70
     1
102
RTVSPropertyOp22
 70
     1
102
RTVSPropertyOp23
 70
     1
102
RTVSPropertyOp24
 70
     1
102
RTVSPropertyOp25
 70
     1
102
RTVSPropertyOp26
 70
     1
102
RTVSPropertyOp27
 70
     1
102
RTVSPropertyOp28
 70
     1
102
RTVSPropertyOp29
 70
     1
102
RTVSPropertyOp30
 70
     1
102
RTVSPropertyOp31
 70
     1
102
RTVSPropertyOp32
 70
     1
  0
XRECORD
  5
5BB
102
{ACAD_REACTORS
330
5BA
102
}
330
5BA
100
AcDbXrecord
280
     1
102
RTVSPropertyOp0
 70
     1
102
RTVSPropertyOp1
 70
     1
102
RTVSPropertyOp2
 70
     1
102
RTVSPropertyOp3
 70
     1
102
RTVSPropertyOp4
 70
     1
102
RTVSPropertyOp5
 70
     1
102
RTVSPropertyOp6
 70
     1
102
RTVSPropertyOp7
 70
     1
102
RTVSPropertyOp8
 70
     1
102
RTVSPropertyOp9
 70
     1
102
RTVSPropertyOp10
 70
     1
102
RTVSPropertyOp11
 70
     1
102
RTVSPropertyOp12
 70
     1
102
RTVSPropertyOp13
 70
     1
102
RTVSPropertyOp14
 70
     1
102
RTVSPropertyOp15
 70
     1
102
RTVSPropertyOp16
 70
     1
102
RTVSPropertyOp17
 70
     1
102
RTVSPropertyOp18
 70
     1
102
RTVSPropertyOp19
 70
     1
102
RTVSPropertyOp20
 70
     1
102
RTVSPropertyOp21
 70
     1
102
RTVSPropertyOp22
 70
     1
102
RTVSPropertyOp23
 70
     1
102
RTVSPropertyOp24
 70
     1
102
RTVSPropertyOp25
 70
     1
102
RTVSPropertyOp26
 70
     1
102
RTVSPropertyOp27
 70
     1
102
RTVSPropertyOp28
 70
     1
102
RTVSPropertyOp29
 70
     1
102
RTVSPropertyOp30
 70
     1
102
RTVSPropertyOp31
 70
     1
102
RTVSPropertyOp32
 70
     1
  0
XRECORD
  5
5BD
102
{ACAD_REACTORS
330
5BC
102
}
330
5BC
100
AcDbXrecord
280
     1
102
RTVSPropertyOp0
 70
     1
102
RTVSPropertyOp1
 70
     1
102
RTVSPropertyOp2
 70
     1
102
RTVSPropertyOp3
 70
     1
102
RTVSPropertyOp4
 70
     1
102
RTVSPropertyOp5
 70
     1
102
RTVSPropertyOp6
 70
     1
102
RTVSPropertyOp7
 70
     1
102
RTVSPropertyOp8
 70
     1
102
RTVSPropertyOp9
 70
     1
102
RTVSPropertyOp10
 70
     1
102
RTVSPropertyOp11
 70
     1
102
RTVSPropertyOp12
 70
     1
102
RTVSPropertyOp13
 70
     1
102
RTVSPropertyOp14
 70
     1
102
RTVSPropertyOp15
 70
     1
102
RTVSPropertyOp16
 70
     1
102
RTVSPropertyOp17
 70
     1
102
RTVSPropertyOp18
 70
     1
102
RTVSPropertyOp19
 70
     1
102
RTVSPropertyOp20
 70
     1
102
RTVSPropertyOp21
 70
     1
102
RTVSPropertyOp22
 70
     1
102
RTVSPropertyOp23
 70
     1
102
RTVSPropertyOp24
 70
     1
102
RTVSPropertyOp25
 70
     1
102
RTVSPropertyOp26
 70
     1
102
RTVSPropertyOp27
 70
     1
102
RTVSPropertyOp28
 70
     1
102
RTVSPropertyOp29
 70
     1
102
RTVSPropertyOp30
 70
     1
102
RTVSPropertyOp31
 70
     1
102
RTVSPropertyOp32
 70
     1
  0
XRECORD
  5
5BF
102
{ACAD_REACTORS
330
5BE
102
}
330
5BE
100
AcDbXrecord
280
     1
102
RTVSPropertyOp0
 70
     1
102
RTVSPropertyOp1
 70
     1
102
RTVSPropertyOp2
 70
     1
102
RTVSPropertyOp3
 70
     1
102
RTVSPropertyOp4
 70
     1
102
RTVSPropertyOp5
 70
     1
102
RTVSPropertyOp6
 70
     1
102
RTVSPropertyOp7
 70
     1
102
RTVSPropertyOp8
 70
     1
102
RTVSPropertyOp9
 70
     1
102
RTVSPropertyOp10
 70
     1
102
RTVSPropertyOp11
 70
     1
102
RTVSPropertyOp12
 70
     1
102
RTVSPropertyOp13
 70
     1
102
RTVSPropertyOp14
 70
     1
102
RTVSPropertyOp15
 70
     1
102
RTVSPropertyOp16
 70
     1
102
RTVSPropertyOp17
 70
     1
102
RTVSPropertyOp18
 70
     1
102
RTVSPropertyOp19
 70
     1
102
RTVSPropertyOp20
 70
     1
102
RTVSPropertyOp21
 70
     1
102
RTVSPropertyOp22
 70
     1
102
RTVSPropertyOp23
 70
     1
102
RTVSPropertyOp24
 70
     1
102
RTVSPropertyOp25
 70
     1
102
RTVSPropertyOp26
 70
     1
102
RTVSPropertyOp27
 70
     1
102
RTVSPropertyOp28
 70
     1
102
RTVSPropertyOp29
 70
     1
102
RTVSPropertyOp30
 70
     1
102
RTVSPropertyOp31
 70
     1
102
RTVSPropertyOp32
 70
     1
  0
XRECORD
  5
5C1
102
{ACAD_REACTORS
330
5C0
102
}
330
5C0
100
AcDbXrecord
280
     1
102
RTVSPropertyOp0
 70
     1
102
RTVSPropertyOp1
 70
     1
102
RTVSPropertyOp2
 70
     1
102
RTVSPropertyOp3
 70
     1
102
RTVSPropertyOp4
 70
     1
102
RTVSPropertyOp5
 70
     1
102
RTVSPropertyOp6
 70
     1
102
RTVSPropertyOp7
 70
     1
102
RTVSPropertyOp8
 70
     1
102
RTVSPropertyOp9
 70
     1
102
RTVSPropertyOp10
 70
     1
102
RTVSPropertyOp11
 70
     1
102
RTVSPropertyOp12
 70
     1
102
RTVSPropertyOp13
 70
     1
102
RTVSPropertyOp14
 70
     1
102
RTVSPropertyOp15
 70
     1
102
RTVSPropertyOp16
 70
     1
102
RTVSPropertyOp17
 70
     1
102
RTVSPropertyOp18
 70
     1
102
RTVSPropertyOp19
 70
     1
102
RTVSPropertyOp20
 70
     1
102
RTVSPropertyOp21
 70
     1
102
RTVSPropertyOp22
 70
     1
102
RTVSPropertyOp23
 70
     1
102
RTVSPropertyOp24
 70
     1
102
RTVSPropertyOp25
 70
     1
102
RTVSPropertyOp26
 70
     1
102
RTVSPropertyOp27
 70
     1
102
RTVSPropertyOp28
 70
     1
102
RTVSPropertyOp29
 70
     1
102
RTVSPropertyOp30
 70
     1
102
RTVSPropertyOp31
 70
     1
102
RTVSPropertyOp32
 70
     1
  0
XRECORD
  5
5D5
102
{ACAD_REACTORS
330
5D4
102
}
330
5D4
100
AcDbXrecord
280
     1
102
RTVSPropertyOp0
 70
     1
102
RTVSPropertyOp1
 70
     1
102
RTVSPropertyOp2
 70
     1
102
RTVSPropertyOp3
 70
     1
102
RTVSPropertyOp4
 70
     1
102
RTVSPropertyOp5
 70
     1
102
RTVSPropertyOp6
 70
     1
102
RTVSPropertyOp7
 70
     1
102
RTVSPropertyOp8
 70
     1
102
RTVSPropertyOp9
 70
     1
102
RTVSPropertyOp10
 70
     1
102
RTVSPropertyOp11
 70
     1
102
RTVSPropertyOp12
 70
     1
102
RTVSPropertyOp13
 70
     1
102
RTVSPropertyOp14
 70
     1
102
RTVSPropertyOp15
 70
     1
102
RTVSPropertyOp16
 70
     1
102
RTVSPropertyOp17
 70
     1
102
RTVSPropertyOp18
 70
     1
102
RTVSPropertyOp19
 70
     1
102
RTVSPropertyOp20
 70
     1
102
RTVSPropertyOp21
 70
     1
102
RTVSPropertyOp22
 70
     1
102
RTVSPropertyOp23
 70
     1
102
RTVSPropertyOp24
 70
     1
102
RTVSPropertyOp25
 70
     1
102
RTVSPropertyOp26
 70
     1
102
RTVSPropertyOp27
 70
     1
102
RTVSPropertyOp28
 70
     1
102
RTVSPropertyOp29
 70
     1
102
RTVSPropertyOp30
 70
     1
102
RTVSPropertyOp31
 70
     1
102
RTVSPropertyOp32
 70
     1
  0
XRECORD
  5
5CB
102
{ACAD_REACTORS
330
5CA
102
}
330
5CA
100
AcDbXrecord
280
     1
102
RTVSPropertyOp0
 70
     1
102
RTVSPropertyOp1
 70
     1
102
RTVSPropertyOp2
 70
     1
102
RTVSPropertyOp3
 70
     1
102
RTVSPropertyOp4
 70
     1
102
RTVSPropertyOp5
 70
     1
102
RTVSPropertyOp6
 70
     1
102
RTVSPropertyOp7
 70
     1
102
RTVSPropertyOp8
 70
     1
102
RTVSPropertyOp9
 70
     1
102
RTVSPropertyOp10
 70
     1
102
RTVSPropertyOp11
 70
     1
102
RTVSPropertyOp12
 70
     1
102
RTVSPropertyOp13
 70
     1
102
RTVSPropertyOp14
 70
     1
102
RTVSPropertyOp15
 70
     1
102
RTVSPropertyOp16
 70
     1
102
RTVSPropertyOp17
 70
     1
102
RTVSPropertyOp18
 70
     1
102
RTVSPropertyOp19
 70
     1
102
RTVSPropertyOp20
 70
     1
102
RTVSPropertyOp21
 70
     1
102
RTVSPropertyOp22
 70
     1
102
RTVSPropertyOp23
 70
     1
102
RTVSPropertyOp24
 70
     1
102
RTVSPropertyOp25
 70
     1
102
RTVSPropertyOp26
 70
     1
102
RTVSPropertyOp27
 70
     1
102
RTVSPropertyOp28
 70
     1
102
RTVSPropertyOp29
 70
     1
102
RTVSPropertyOp30
 70
     1
102
RTVSPropertyOp31
 70
     1
102
RTVSPropertyOp32
 70
     1
  0
XRECORD
  5
5D3
102
{ACAD_REACTORS
330
5D2
102
}
330
5D2
100
AcDbXrecord
280
     1
102
RTVSPropertyOp0
 70
     1
102
RTVSPropertyOp1
 70
     1
102
RTVSPropertyOp2
 70
     1
102
RTVSPropertyOp3
 70
     1
102
RTVSPropertyOp4
 70
     1
102
RTVSPropertyOp5
 70
     1
102
RTVSPropertyOp6
 70
     1
102
RTVSPropertyOp7
 70
     1
102
RTVSPropertyOp8
 70
     1
102
RTVSPropertyOp9
 70
     1
102
RTVSPropertyOp10
 70
     1
102
RTVSPropertyOp11
 70
     1
102
RTVSPropertyOp12
 70
     1
102
RTVSPropertyOp13
 70
     1
102
RTVSPropertyOp14
 70
     1
102
RTVSPropertyOp15
 70
     1
102
RTVSPropertyOp16
 70
     1
102
RTVSPropertyOp17
 70
     1
102
RTVSPropertyOp18
 70
     1
102
RTVSPropertyOp19
 70
     1
102
RTVSPropertyOp20
 70
     1
102
RTVSPropertyOp21
 70
     1
102
RTVSPropertyOp22
 70
     1
102
RTVSPropertyOp23
 70
     1
102
RTVSPropertyOp24
 70
     1
102
RTVSPropertyOp25
 70
     1
102
RTVSPropertyOp26
 70
     1
102
RTVSPropertyOp27
 70
     1
102
RTVSPropertyOp28
 70
     1
102
RTVSPropertyOp29
 70
     1
102
RTVSPropertyOp30
 70
     1
102
RTVSPropertyOp31
 70
     1
102
RTVSPropertyOp32
 70
     1
  0
ENDSEC
  0
EOF
