  0
SECTION
  2
HEADER
  9
$ACADVER
  1
AC1018
  9
$ACADMAINTVER
 70
     0
  9
$DWGCODEPAGE
  3
ANSI_932
  9
$INSBASE
 10
0.0
 20
0.0
 30
0.0
  9
$EXTMIN
 10
-105.0
 20
-148.5
 30
0.0
  9
$EXTMAX
 10
105.0
 20
148.5
 30
0.0
  9
$LIMMIN
 10
-105.0
 20
-148.5
  9
$LIMMAX
 10
105.0
 20
148.5
  9
$ORTHOMODE
 70
     0
  9
$REGENMODE
 70
     1
  9
$FILLMODE
 70
     1
  9
$QTEXTMODE
 70
     0
  9
$MIRRTEXT
 70
     1
  9
$LTSCALE
 40
1.0
  9
$ATTMODE
 70
     1
  9
$TEXTSIZE
 40
2.5
  9
$TRACEWID
 40
1.0
  9
$TEXTSTYLE
  7
Standard
  9
$CLAYER
  8
0
  9
$CELTYPE
  6
ByLayer
  9
$CECOLOR
 62
   256
  9
$CELTSCALE
 40
1.0
  9
$DISPSILH
 70
     0
  9
$DIMSCALE
 40
1.0
  9
$DIMASZ
 40
2.5
  9
$DIMEXO
 40
0.625
  9
$DIMDLI
 40
3.75
  9
$DIMRND
 40
0.0
  9
$DIMDLE
 40
0.0
  9
$DIMEXE
 40
1.25
  9
$DIMTP
 40
0.0
  9
$DIMTM
 40
0.0
  9
$DIMTXT
 40
2.5
  9
$DIMCEN
 40
2.5
  9
$DIMTSZ
 40
0.0
  9
$DIMTOL
 70
     0
  9
$DIMLIM
 70
     0
  9
$DIMTIH
 70
     0
  9
$DIMTOH
 70
     0
  9
$DIMSE1
 70
     0
  9
$DIMSE2
 70
     0
  9
$DIMTAD
 70
     1
  9
$DIMZIN
 70
     8
  9
$DIMBLK
  1

  9
$DIMASO
 70
     1
  9
$DIMSHO
 70
     1
  9
$DIMPOST
  1

  9
$DIMAPOST
  1

  9
$DIMALT
 70
     0
  9
$DIMALTD
 70
     3
  9
$DIMALTF
 40
0.03937007874016
  9
$DIMLFAC
 40
1.0
  9
$DIMTOFL
 70
     1
  9
$DIMTVP
 40
0.0
  9
$DIMTIX
 70
     0
  9
$DIMSOXD
 70
     0
  9
$DIMSAH
 70
     0
  9
$DIMBLK1
  1

  9
$DIMBLK2
  1

  9
$DIMSTYLE
  2
ISO-25
  9
$DIMCLRD
 70
     0
  9
$DIMCLRE
 70
     0
  9
$DIMCLRT
 70
     0
  9
$DIMTFAC
 40
1.0
  9
$DIMGAP
 40
0.625
  9
$DIMJUST
 70
     0
  9
$DIMSD1
 70
     0
  9
$DIMSD2
 70
     0
  9
$DIMTOLJ
 70
     0
  9
$DIMTZIN
 70
     8
  9
$DIMALTZ
 70
     0
  9
$DIMALTTZ
 70
     0
  9
$DIMUPT
 70
     0
  9
$DIMDEC
 70
     2
  9
$DIMTDEC
 70
     2
  9
$DIMALTU
 70
     2
  9
$DIMALTTD
 70
     3
  9
$DIMTXSTY
  7
Standard
  9
$DIMAUNIT
 70
     0
  9
$DIMADEC
 70
     0
  9
$DIMALTRND
 40
0.0
  9
$DIMAZIN
 70
     0
  9
$DIMDSEP
 70
    44
  9
$DIMATFIT
 70
     3
  9
$DIMFRAC
 70
     0
  9
$DIMLDRBLK
  1

  9
$DIMLUNIT
 70
     2
  9
$DIMLWD
 70
    -2
  9
$DIMLWE
 70
    -2
  9
$DIMTMOVE
 70
     0
  9
$LUNITS
 70
     2
  9
$LUPREC
 70
     4
  9
$SKETCHINC
 40
1.0
  9
$FILLETRAD
 40
10.0
  9
$AUNITS
 70
     0
  9
$AUPREC
 70
     0
  9
$MENU
  1
.
  9
$ELEVATION
 40
0.0
  9
$PELEVATION
 40
0.0
  9
$THICKNESS
 40
0.0
  9
$LIMCHECK
 70
     0
  9
$CHAMFERA
 40
10.0
  9
$CHAMFERB
 40
10.0
  9
$CHAMFERC
 40
20.0
  9
$CHAMFERD
 40
0.0
  9
$SKPOLY
 70
     0
  9
$TDCREATE
 40
2457290.550588577
  9
$TDUCREATE
 40
2457290.175588577
  9
$TDUPDATE
 40
2457290.550589283
  9
$TDUUPDATE
 40
2457290.175589283
  9
$TDINDWG
 40
0.0000000116
  9
$TDUSRTIMER
 40
0.0000000116
  9
$USRTIMER
 70
     1
  9
$ANGBASE
 50
0.0
  9
$ANGDIR
 70
     0
  9
$PDMODE
 70
     0
  9
$PDSIZE
 40
0.0
  9
$PLINEWID
 40
0.0
  9
$SPLFRAME
 70
     0
  9
$SPLINETYPE
 70
     6
  9
$SPLINESEGS
 70
     8
  9
$HANDSEED
  5
507
  9
$SURFTAB1
 70
     6
  9
$SURFTAB2
 70
     6
  9
$SURFTYPE
 70
     6
  9
$SURFU
 70
     6
  9
$SURFV
 70
     6
  9
$UCSBASE
  2

  9
$UCSNAME
  2

  9
$UCSORG
 10
0.0
 20
0.0
 30
0.0
  9
$UCSXDIR
 10
1.0
 20
0.0
 30
0.0
  9
$UCSYDIR
 10
0.0
 20
1.0
 30
0.0
  9
$UCSORTHOREF
  2

  9
$UCSORTHOVIEW
 70
     0
  9
$UCSORGTOP
 10
0.0
 20
0.0
 30
0.0
  9
$UCSORGBOTTOM
 10
0.0
 20
0.0
 30
0.0
  9
$UCSORGLEFT
 10
0.0
 20
0.0
 30
0.0
  9
$UCSORGRIGHT
 10
0.0
 20
0.0
 30
0.0
  9
$UCSORGFRONT
 10
0.0
 20
0.0
 30
0.0
  9
$UCSORGBACK
 10
0.0
 20
0.0
 30
0.0
  9
$PUCSBASE
  2

  9
$PUCSNAME
  2

  9
$PUCSORG
 10
0.0
 20
0.0
 30
0.0
  9
$PUCSXDIR
 10
1.0
 20
0.0
 30
0.0
  9
$PUCSYDIR
 10
0.0
 20
1.0
 30
0.0
  9
$PUCSORTHOREF
  2

  9
$PUCSORTHOVIEW
 70
     0
  9
$PUCSORGTOP
 10
0.0
 20
0.0
 30
0.0
  9
$PUCSORGBOTTOM
 10
0.0
 20
0.0
 30
0.0
  9
$PUCSORGLEFT
 10
0.0
 20
0.0
 30
0.0
  9
$PUCSORGRIGHT
 10
0.0
 20
0.0
 30
0.0
  9
$PUCSORGFRONT
 10
0.0
 20
0.0
 30
0.0
  9
$PUCSORGBACK
 10
0.0
 20
0.0
 30
0.0
  9
$USERI1
 70
     0
  9
$USERI2
 70
     0
  9
$USERI3
 70
     0
  9
$USERI4
 70
     0
  9
$USERI5
 70
     0
  9
$USERR1
 40
0.0
  9
$USERR2
 40
0.0
  9
$USERR3
 40
0.0
  9
$USERR4
 40
0.0
  9
$USERR5
 40
0.0
  9
$WORLDVIEW
 70
     1
  9
$SHADEDGE
 70
     3
  9
$SHADEDIF
 70
    70
  9
$TILEMODE
 70
     1
  9
$MAXACTVP
 70
    64
  9
$PINSBASE
 10
0.0
 20
0.0
 30
0.0
  9
$PLIMCHECK
 70
     0
  9
$PEXTMIN
 10
1.000000000000000E+20
 20
1.000000000000000E+20
 30
1.000000000000000E+20
  9
$PEXTMAX
 10
-1.000000000000000E+20
 20
-1.000000000000000E+20
 30
-1.000000000000000E+20
  9
$PLIMMIN
 10
-105.0
 20
-148.5
  9
$PLIMMAX
 10
105.0
 20
148.5
  9
$UNITMODE
 70
     0
  9
$VISRETAIN
 70
     1
  9
$PLINEGEN
 70
     0
  9
$PSLTSCALE
 70
     1
  9
$TREEDEPTH
 70
  3020
  9
$CMLSTYLE
  2
Standard
  9
$CMLJUST
 70
     0
  9
$CMLSCALE
 40
20.0
  9
$PROXYGRAPHICS
 70
     1
  9
$MEASUREMENT
 70
     1
  9
$CELWEIGHT
370
    -1
  9
$ENDCAPS
280
     0
  9
$JOINSTYLE
280
     0
  9
$LWDISPLAY
290
     0
  9
$INSUNITS
 70
     4
  9
$HYPERLINKBASE
  1

  9
$STYLESHEET
  1

  9
$XEDIT
290
     1
  9
$CEPSNTYPE
380
     0
  9
$PSTYLEMODE
290
     1
  9
$FINGERPRINTGUID
  2
{1734CE27-0A8A-4A33-81CA-41BA0868DD58}
  9
$VERSIONGUID
  2
{FAEB1C32-E019-11D5-929B-00C0DF256EC4}
  9
$EXTNAMES
290
     1
  9
$PSVPSCALE
 40
0.0
  9
$OLESTARTUP
290
     0
  9
$SORTENTS
280
   127
  9
$INDEXCTL
280
     0
  9
$HIDETEXT
280
     1
  9
$XCLIPFRAME
290
     0
  9
$HALOGAP
280
     0
  9
$OBSCOLOR
 70
   257
  9
$OBSLTYPE
280
     0
  9
$INTERSECTIONDISPLAY
280
     0
  9
$INTERSECTIONCOLOR
 70
   257
  9
$DIMASSOC
280
     2
  9
$PROJECTNAME
  1

  0
ENDSEC
  0
SECTION
  2
CLASSES
  0
CLASS
  1
ACDBDICTIONARYWDFLT
  2
AcDbDictionaryWithDefault
  3
ObjectDBX Classes
 90
        0
 91
        4
280
     0
281
     0
  0
CLASS
  1
VISUALSTYLE
  2
AcDbVisualStyle
  3
ObjectDBX Classes
 90
     4095
 91
        4
280
     0
281
     0
  0
CLASS
  1
MATERIAL
  2
AcDbMaterial
  3
ObjectDBX Classes
 90
     1153
 91
        4
280
     0
281
     0
  0
CLASS
  1
SUN
  2
AcDbSun
  3
SCENEOE
 90
     1024
 91
        4
280
     0
281
     0
  0
ENDSEC
  0
SECTION
  2
TABLES
  0
TABLE
  2
VPORT
  5
8
330
0
100
AcDbSymbolTable
 70
     1
  0
VPORT
  5
29
330
8
100
AcDbSymbolTableRecord
100
AcDbViewportTableRecord
  2
*Active
 70
     0
 10
0.0
 20
0.0
 11
1.0
 21
1.0
 12
344.1869158878504
 22
148.5
 13
0.0
 23
0.0
 14
10.0
 24
10.0
 15
10.0
 25
10.0
 16
0.0
 26
0.0
 36
1.0
 17
0.0
 27
0.0
 37
0.0
 40
297.0
 41
1.972972972850329
 42
50.0
 43
0.0
 44
0.0
 50
0.0
 51
0.0
 71
     0
 72
   100
 73
     1
 74
     3
 75
     0
 76
     0
 77
     0
 78
     0
281
     0
 65
     1
110
0.0
120
0.0
130
0.0
111
1.0
121
0.0
131
0.0
112
0.0
122
1.0
132
0.0
 79
     0
146
0.0
  0
ENDTAB
  0
TABLE
  2
LTYPE
  5
5
330
0
100
AcDbSymbolTable
 70
     5
  0
LTYPE
  5
14
330
5
100
AcDbSymbolTableRecord
100
AcDbLinetypeTableRecord
  2
ByBlock
 70
     0
  3

 72
    65
 73
     0
 40
0.0
  0
LTYPE
  5
15
330
5
100
AcDbSymbolTableRecord
100
AcDbLinetypeTableRecord
  2
ByLayer
 70
     0
  3

 72
    65
 73
     0
 40
0.0
  0
LTYPE
  5
16
330
5
100
AcDbSymbolTableRecord
100
AcDbLinetypeTableRecord
  2
Continuous
 70
     0
  3
Solid line
 72
    65
 73
     0
 40
0.0
  0
LTYPE
  5
40
330
5
100
AcDbSymbolTableRecord
100
AcDbLinetypeTableRecord
  2
CONTINOUS
 70
     0
  3
______________________________
 72
    65
 73
     0
 40
0.0
  0
LTYPE
  5
41
330
5
100
AcDbSymbolTableRecord
100
AcDbLinetypeTableRecord
  2
DASHED
 70
     0
  3
__ __ __ __ __ __ __ __ __ __ __ __ __ __ __ __
 72
    65
 73
     2
 40
4.5
 49
3.0
 74
     0
 49
-1.5
 74
     0
  0
LTYPE
  5
42
330
5
100
AcDbSymbolTableRecord
100
AcDbLinetypeTableRecord
  2
PHANTOM
 70
     0
  3
______  __  __  ______  __  __  _____
 72
    65
 73
     6
 40
15.0
 49
7.5
 74
     0
 49
-1.5
 74
     0
 49
1.5
 74
     0
 49
-1.5
 74
     0
 49
1.5
 74
     0
 49
-1.5
 74
     0
  0
LTYPE
  5
43
330
5
100
AcDbSymbolTableRecord
100
AcDbLinetypeTableRecord
  2
CENTER
 70
     0
  3
____ _ ____ _ ____ _ ____ _ ____ _ ____
 72
    65
 73
     4
 40
12.0
 49
7.5
 74
     0
 49
-1.5
 74
     0
 49
1.5
 74
     0
 49
-1.5
 74
     0
  0
ENDTAB
  0
TABLE
  2
LAYER
  5
2
330
0
100
AcDbSymbolTable
 70
     4
  0
LAYER
  5
10
330
2
100
AcDbSymbolTableRecord
100
AcDbLayerTableRecord
  2
0
 70
     0
 62
     7
  6
Continuous
370
    -3
390
F
  0
LAYER
  5
B5
330
2
100
AcDbSymbolTableRecord
100
AcDbLayerTableRecord
  2
Defpoints
 70
     0
 62
     7
  6
Continuous
290
     0
370
    -3
390
F
  0
LAYER
  5
1A1
330
2
100
AcDbSymbolTableRecord
100
AcDbLayerTableRecord
  2
VIEW0001
 70
     0
 62
     7
  6
Continuous
370
    -3
390
F
  0
LAYER
  5
1B9
330
2
100
AcDbSymbolTableRecord
100
AcDbLayerTableRecord
  2
VIEW0002
 70
     0
 62
     7
  6
Continuous
370
    -3
390
F
  0
ENDTAB
  0
TABLE
  2
STYLE
  5
3
330
0
100
AcDbSymbolTable
 70
     1
  0
STYLE
  5
11
330
3
100
AcDbSymbolTableRecord
100
AcDbTextStyleTableRecord
  2
Standard
 70
     0
 40
0.0
 41
1.0
 50
0.0
 71
     0
 42
2.5
  3
ROMANS
  4
BIGFONT
  0
ENDTAB
  0
TABLE
  2
VIEW
  5
6
330
0
100
AcDbSymbolTable
 70
     0
  0
ENDTAB
  0
TABLE
  2
UCS
  5
7
330
0
100
AcDbSymbolTable
 70
     0
  0
ENDTAB
  0
TABLE
  2
APPID
  5
9
330
0
100
AcDbSymbolTable
 70
     1
  0
APPID
  5
12
330
9
100
AcDbSymbolTableRecord
100
AcDbRegAppTableRecord
  2
ACAD
 70
     0
  0
ENDTAB
  0
TABLE
  2
DIMSTYLE
  5
A
330
0
100
AcDbSymbolTable
 70
     1
100
AcDbDimStyleTable
  0
DIMSTYLE
105
27
102
{ACAD_REACTORS
330
AE
330
C2
330
CE
330
DB
330
E7
330
15A
330
167
330
173
330
180
330
18C
330
366
330
373
330
389
330
395
330
3A9
330
3B6
330
3CC
330
3D8
330
3EC
330
3F7
330
404
330
41C
330
428
330
450
330
45D
330
471
330
47D
330
493
330
4A0
330
4C6
330
4D2
102
}
330
A
100
AcDbSymbolTableRecord
100
AcDbDimStyleTableRecord
  2
ISO-25
 70
     0
 41
2.5
 42
0.625
 43
3.75
 44
1.25
 73
     0
 74
     0
 77
     1
 78
     8
140
2.5
141
2.5
143
0.03937007874016
147
0.625
171
     3
172
     1
178
     0
271
     2
272
     2
274
     3
278
    44
283
     0
284
     8
340
11
  0
ENDTAB
  0
TABLE
  2
BLOCK_RECORD
  5
1
330
0
100
AcDbSymbolTable
 70
    41
  0
BLOCK_RECORD
  5
1F
330
1
100
AcDbSymbolTableRecord
100
AcDbBlockTableRecord
  2
*Model_Space
340
22
  0
BLOCK_RECORD
  5
1B
330
1
100
AcDbSymbolTableRecord
100
AcDbBlockTableRecord
  2
*Paper_Space
340
1E
  0
BLOCK_RECORD
  5
23
330
1
100
AcDbSymbolTableRecord
100
AcDbBlockTableRecord
  2
*Paper_Space0
340
26
  0
BLOCK_RECORD
  5
44
330
1
100
AcDbSymbolTableRecord
100
AcDbBlockTableRecord
  2
DTL0001
340
0
  0
BLOCK_RECORD
  5
47
330
1
100
AcDbSymbolTableRecord
100
AcDbBlockTableRecord
  2
DTL0002
340
0
  0
BLOCK_RECORD
  5
4A
330
1
100
AcDbSymbolTableRecord
100
AcDbBlockTableRecord
  2
DTL0003
340
0
  0
BLOCK_RECORD
  5
4D
330
1
100
AcDbSymbolTableRecord
100
AcDbBlockTableRecord
  2
DTL0004
340
0
  0
BLOCK_RECORD
  5
AF
330
1
100
AcDbSymbolTableRecord
100
AcDbBlockTableRecord
  2
_OPEN30
340
0
102
{BLKREFS
331
BD
331
BC
331
C9
331
C8
331
D6
331
D5
331
E2
331
E1
331
ED
331
EC
331
162
331
161
331
16E
331
16D
331
17B
331
17A
331
187
331
186
331
192
331
191
331
36E
331
36D
331
0
331
0
331
390
331
38F
331
0
331
0
331
3B1
331
3B0
331
0
331
0
331
3D3
331
3D2
331
0
331
0
331
3F2
331
3F1
331
3FF
331
3FE
331
0
331
0
331
423
331
422
331
0
331
0
331
458
331
457
331
0
331
0
331
478
331
477
331
0
331
0
331
49B
331
49A
331
0
331
0
331
4CD
331
4CC
331
4DA
331
4D9
102
}
  0
BLOCK_RECORD
  5
B6
330
1
100
AcDbSymbolTableRecord
100
AcDbBlockTableRecord
  2
*D6
340
0
  0
BLOCK_RECORD
  5
C3
330
1
100
AcDbSymbolTableRecord
100
AcDbBlockTableRecord
  2
*D7
340
0
  0
BLOCK_RECORD
  5
CF
330
1
100
AcDbSymbolTableRecord
100
AcDbBlockTableRecord
  2
*D8
340
0
  0
BLOCK_RECORD
  5
DC
330
1
100
AcDbSymbolTableRecord
100
AcDbBlockTableRecord
  2
*D9
340
0
  0
BLOCK_RECORD
  5
E8
330
1
100
AcDbSymbolTableRecord
100
AcDbBlockTableRecord
  2
*D10
340
0
  0
BLOCK_RECORD
  5
15B
330
1
100
AcDbSymbolTableRecord
100
AcDbBlockTableRecord
  2
*D11
340
0
  0
BLOCK_RECORD
  5
168
330
1
100
AcDbSymbolTableRecord
100
AcDbBlockTableRecord
  2
*D12
340
0
  0
BLOCK_RECORD
  5
174
330
1
100
AcDbSymbolTableRecord
100
AcDbBlockTableRecord
  2
*D13
340
0
  0
BLOCK_RECORD
  5
181
330
1
100
AcDbSymbolTableRecord
100
AcDbBlockTableRecord
  2
*D14
340
0
  0
BLOCK_RECORD
  5
18D
330
1
100
AcDbSymbolTableRecord
100
AcDbBlockTableRecord
  2
*D15
340
0
  0
BLOCK_RECORD
  5
367
330
1
100
AcDbSymbolTableRecord
100
AcDbBlockTableRecord
  2
*D16
340
0
  0
BLOCK_RECORD
  5
374
330
1
100
AcDbSymbolTableRecord
100
AcDbBlockTableRecord
  2
*D17
340
0
  0
BLOCK_RECORD
  5
38A
330
1
100
AcDbSymbolTableRecord
100
AcDbBlockTableRecord
  2
*D18
340
0
  0
BLOCK_RECORD
  5
396
330
1
100
AcDbSymbolTableRecord
100
AcDbBlockTableRecord
  2
*D19
340
0
  0
BLOCK_RECORD
  5
3AA
330
1
100
AcDbSymbolTableRecord
100
AcDbBlockTableRecord
  2
*D20
340
0
  0
BLOCK_RECORD
  5
3B7
330
1
100
AcDbSymbolTableRecord
100
AcDbBlockTableRecord
  2
*D21
340
0
  0
BLOCK_RECORD
  5
3CD
330
1
100
AcDbSymbolTableRecord
100
AcDbBlockTableRecord
  2
*D22
340
0
  0
BLOCK_RECORD
  5
3D9
330
1
100
AcDbSymbolTableRecord
100
AcDbBlockTableRecord
  2
*D23
340
0
  0
BLOCK_RECORD
  5
3ED
330
1
100
AcDbSymbolTableRecord
100
AcDbBlockTableRecord
  2
*D24
340
0
  0
BLOCK_RECORD
  5
3F8
330
1
100
AcDbSymbolTableRecord
100
AcDbBlockTableRecord
  2
*D25
340
0
  0
BLOCK_RECORD
  5
405
330
1
100
AcDbSymbolTableRecord
100
AcDbBlockTableRecord
  2
*D26
340
0
  0
BLOCK_RECORD
  5
41D
330
1
100
AcDbSymbolTableRecord
100
AcDbBlockTableRecord
  2
*D27
340
0
  0
BLOCK_RECORD
  5
429
330
1
100
AcDbSymbolTableRecord
100
AcDbBlockTableRecord
  2
*D28
340
0
  0
BLOCK_RECORD
  5
43E
330
1
100
AcDbSymbolTableRecord
100
AcDbBlockTableRecord
  2
SYM0001
340
0
102
{BLKREFS
331
444
102
}
  0
BLOCK_RECORD
  5
447
330
1
100
AcDbSymbolTableRecord
100
AcDbBlockTableRecord
  2
SYM0002
340
0
102
{BLKREFS
331
44D
102
}
  0
BLOCK_RECORD
  5
451
330
1
100
AcDbSymbolTableRecord
100
AcDbBlockTableRecord
  2
*D31
340
0
  0
BLOCK_RECORD
  5
45E
330
1
100
AcDbSymbolTableRecord
100
AcDbBlockTableRecord
  2
*D32
340
0
  0
BLOCK_RECORD
  5
472
330
1
100
AcDbSymbolTableRecord
100
AcDbBlockTableRecord
  2
*D33
340
0
  0
BLOCK_RECORD
  5
47E
330
1
100
AcDbSymbolTableRecord
100
AcDbBlockTableRecord
  2
*D34
340
0
  0
BLOCK_RECORD
  5
494
330
1
100
AcDbSymbolTableRecord
100
AcDbBlockTableRecord
  2
*D35
340
0
  0
BLOCK_RECORD
  5
4A1
330
1
100
AcDbSymbolTableRecord
100
AcDbBlockTableRecord
  2
*D36
340
0
  0
BLOCK_RECORD
  5
4B4
330
1
100
AcDbSymbolTableRecord
100
AcDbBlockTableRecord
  2
SYM0003
340
0
102
{BLKREFS
331
4BA
102
}
  0
BLOCK_RECORD
  5
4BD
330
1
100
AcDbSymbolTableRecord
100
AcDbBlockTableRecord
  2
SYM0004
340
0
102
{BLKREFS
331
4C3
102
}
  0
BLOCK_RECORD
  5
4C7
330
1
100
AcDbSymbolTableRecord
100
AcDbBlockTableRecord
  2
*D39
340
0
  0
BLOCK_RECORD
  5
4D3
330
1
100
AcDbSymbolTableRecord
100
AcDbBlockTableRecord
  2
*D40
340
0
  0
ENDTAB
  0
ENDSEC
  0
SECTION
  2
BLOCKS
  0
BLOCK
  5
20
330
1F
100
AcDbEntity
  8
0
100
AcDbBlockBegin
  2
*Model_Space
 70
     0
 10
0.0
 20
0.0
 30
0.0
  3
*Model_Space
  1

  0
ENDBLK
  5
21
330
1F
100
AcDbEntity
  8
0
100
AcDbBlockEnd
  0
BLOCK
  5
1C
330
1B
100
AcDbEntity
 67
     1
  8
0
100
AcDbBlockBegin
  2
*Paper_Space
 70
     0
 10
0.0
 20
0.0
 30
0.0
  3
*Paper_Space
  1

  0
ENDBLK
  5
1D
330
1B
100
AcDbEntity
 67
     1
  8
0
100
AcDbBlockEnd
  0
BLOCK
  5
24
330
23
100
AcDbEntity
  8
0
100
AcDbBlockBegin
  2
*Paper_Space0
 70
     0
 10
0.0
 20
0.0
 30
0.0
  3
*Paper_Space0
  1

  0
ENDBLK
  5
25
330
23
100
AcDbEntity
  8
0
100
AcDbBlockEnd
  0
BLOCK
  5
45
330
44
100
AcDbEntity
  8
0
100
AcDbBlockBegin
  2
DTL0001
 70
     0
 10
0.0
 20
0.0
 30
0.0
  3
DTL0001
  1

  0
POINT
  5
50
330
44
100
AcDbEntity
  8
0
 62
     0
100
AcDbPoint
 10
0.0
 20
0.0
 30
0.0
  0
POINT
  5
51
330
44
100
AcDbEntity
  8
0
 62
     0
100
AcDbPoint
 10
0.0
 20
0.0
 30
0.0
  0
POINT
  5
52
330
44
100
AcDbEntity
  8
0
 62
     0
100
AcDbPoint
 10
-10.0
 20
1.199996948242188
 30
0.0
  0
POINT
  5
53
330
44
100
AcDbEntity
  8
0
 62
     0
100
AcDbPoint
 10
88.0
 20
-16.51216125488281
 30
0.0
  0
POINT
  5
54
330
44
100
AcDbEntity
  8
0
 62
     0
100
AcDbPoint
 10
88.0
 20
44.06312561035156
 30
0.0
  0
POINT
  5
55
330
44
100
AcDbEntity
  8
0
 62
     0
100
AcDbPoint
 10
9.999910354614258
 20
1.199996948242188
 30
0.0
  0
POINT
  5
56
330
44
100
AcDbEntity
  8
0
 62
     0
100
AcDbPoint
 10
30.0
 20
0.0
 30
0.0
  0
POINT
  5
57
330
44
100
AcDbEntity
  8
0
 62
     0
100
AcDbPoint
 10
-5.0
 20
2.399993896484375
 30
0.0
  0
POINT
  5
58
330
44
100
AcDbEntity
  8
0
 62
     0
100
AcDbPoint
 10
-5.0
 20
2.199993848800659
 30
0.0
  0
POINT
  5
59
330
44
100
AcDbEntity
  8
0
 62
     0
100
AcDbPoint
 10
25.44891929626465
 20
31.49088668823242
 30
0.0
  0
POINT
  5
5A
330
44
100
AcDbEntity
  8
0
 62
     0
100
AcDbPoint
 10
26.64098358154297
 20
29.78828430175781
 30
0.0
  0
POINT
  5
5B
330
44
100
AcDbEntity
  8
0
 62
     0
100
AcDbPoint
 10
27.43584632873535
 20
28.65325927734375
 30
0.0
  0
POINT
  5
5C
330
44
100
AcDbEntity
  8
0
 62
     0
100
AcDbPoint
 10
28.13991165161133
 20
25.90414428710938
 30
0.0
  0
POINT
  5
5D
330
44
100
AcDbEntity
  8
0
 62
     0
100
AcDbPoint
 10
82.92625427246094
 20
41.9499626159668
 30
0.0
  0
POINT
  5
5E
330
44
100
AcDbEntity
  8
0
 62
     0
100
AcDbPoint
 10
24.65405464172363
 20
32.62591171264648
 30
0.0
  0
POINT
  5
5F
330
44
100
AcDbEntity
  8
0
 62
     0
100
AcDbPoint
 10
67.99993133544922
 20
36.41818237304688
 30
0.0
  0
POINT
  5
60
330
44
100
AcDbEntity
  8
0
 62
     0
100
AcDbPoint
 10
14.22713279724121
 20
10.26530361175537
 30
0.0
  0
POINT
  5
61
330
44
100
AcDbEntity
  8
0
 62
     0
100
AcDbPoint
 10
9.999910354614258
 20
1.199996948242188
 30
0.0
  0
POINT
  5
62
330
44
100
AcDbEntity
  8
0
 62
     0
100
AcDbPoint
 10
10.76447582244873
 20
-0.000002980232239
 30
0.0
  0
POINT
  5
63
330
44
100
AcDbEntity
  8
0
 62
     0
100
AcDbPoint
 10
24.65405464172363
 20
32.62590789794922
 30
0.0
  0
POINT
  5
64
330
44
100
AcDbEntity
  8
0
 62
     0
100
AcDbPoint
 10
28.13991165161133
 20
25.90414428710938
 30
0.0
  0
POINT
  5
65
330
44
100
AcDbEntity
  8
0
 62
     0
100
AcDbPoint
 10
27.43584632873535
 20
28.65325927734375
 30
0.0
  0
POINT
  5
66
330
44
100
AcDbEntity
  8
0
 62
     0
100
AcDbPoint
 10
26.64098358154297
 20
29.78828430175781
 30
0.0
  0
POINT
  5
67
330
44
100
AcDbEntity
  8
0
 62
     0
100
AcDbPoint
 10
25.44891929626465
 20
31.49088668823242
 30
0.0
  0
LINE
  5
68
330
44
100
AcDbEntity
  8
0
  6
Continuous
 62
     0
100
AcDbLine
 10
-10.0
 20
1.199996948242188
 30
0.0
 11
9.36284065246582
 21
1.199996948242188
 31
0.0
  0
LINE
  5
69
330
44
100
AcDbEntity
  8
0
  6
Continuous
 62
     0
100
AcDbLine
 10
-10.0
 20
1.199996948242188
 30
0.0
 11
-10.0
 21
-1.800003051757812
 31
0.0
  0
LINE
  5
6A
330
44
100
AcDbEntity
  8
0
  6
Continuous
 62
     0
100
AcDbLine
 10
83.799990630639
 20
0.219922212722857
 30
0.0
 11
86.7999990288715
 21
-1.512133474655151
 31
0.0
  0
LINE
  5
6B
330
44
100
AcDbEntity
  8
0
  6
Continuous
 62
     0
100
AcDbLine
 10
88.0
 20
40.48783874511719
 30
0.0
 11
88.0
 21
-16.51216125488281
 31
0.0
  0
LINE
  5
6C
330
44
100
AcDbEntity
  8
0
  6
Continuous
 62
     0
100
AcDbLine
 10
10.26914779743878
 20
1.777378812296899
 30
0.0
 11
19.77407907551854
 21
22.16076864481917
 31
0.0
  0
LINE
  5
6D
330
44
100
AcDbEntity
  8
0
  6
Continuous
 62
     0
100
AcDbLine
 10
36.15711985083157
 20
33.63229757213051
 30
0.0
 11
68.00002750630473
 21
36.41819099755396
 31
0.0
  0
LINE
  5
6E
330
44
100
AcDbEntity
  8
0
  6
DASHED
 62
     0
100
AcDbLine
 10
64.69979708516662
 20
33.11805081915304
 30
0.0
 11
67.99998838381114
 21
36.41824211779756
 31
0.0
  0
LINE
  5
6F
330
44
100
AcDbEntity
  8
0
  6
Continuous
 62
     0
100
AcDbLine
 10
76.10501946936915
 20
41.96571900031419
 30
0.0
 11
84.47901097322128
 21
43.44227968133016
 31
0.0
  0
LINE
  5
70
330
44
100
AcDbEntity
  8
0
  6
Continuous
 62
     0
100
AcDbLine
 10
86.7999267578125
 20
40.48783874511719
 30
0.0
 11
86.7999267578125
 21
-16.51216125488281
 31
0.0
  0
LINE
  5
71
330
44
100
AcDbEntity
  8
0
  6
Continuous
 62
     0
100
AcDbLine
 10
71.14817589318936
 20
29.6669346905641
 30
0.0
 11
76.38906974491098
 21
34.90782854228573
 31
0.0
  0
LINE
  5
72
330
44
100
AcDbEntity
  8
0
  6
Continuous
 62
     0
100
AcDbLine
 10
36.19205642523227
 20
26.60861526367648
 30
0.0
 11
71.1481523161162
 21
29.66687736632547
 31
0.0
  0
LINE
  5
73
330
44
100
AcDbEntity
  8
0
  6
Continuous
 62
     0
100
AcDbLine
 10
15.43777536185363
 20
-1.335675331407931
 30
0.0
 11
24.72392956807983
 21
18.57854558115666
 31
0.0
  0
LINE
  5
74
330
44
100
AcDbEntity
  8
0
  6
Continuous
 62
     0
100
AcDbLine
 10
-7.0
 20
-4.800003051757812
 30
0.0
 11
10.0
 21
-4.800003051757812
 31
0.0
  0
LINE
  5
75
330
44
100
AcDbEntity
  8
0
  6
Continuous
 62
     0
100
AcDbLine
 10
76.38912480573158
 20
34.90782814853252
 30
0.0
 11
80.19587801370456
 21
35.57906146739111
 31
0.0
  0
LINE
  5
76
330
44
100
AcDbEntity
  8
0
  6
Continuous
 62
     0
100
AcDbLine
 10
80.1477707713705
 20
35.4668388018426
 30
0.0
 11
82.29224941848878
 21
40.47062252810856
 31
0.0
  0
LINE
  5
77
330
44
100
AcDbEntity
  8
0
  6
DASHED
 62
     0
100
AcDbLine
 10
36.26180015048621
 20
32.43689048708294
 30
0.0
 11
68.53971834706574
 21
35.26084240325637
 31
0.0
  0
LINE
  5
78
330
44
100
AcDbEntity
  8
0
  6
DASHED
 62
     0
100
AcDbLine
 10
65.23949253797045
 20
31.96067273376
 30
0.0
 11
71.61903374125731
 21
38.34021393704685
 31
0.0
  0
LINE
  5
79
330
44
100
AcDbEntity
  8
0
  6
DASHED
 62
     0
100
AcDbLine
 10
76.31339940813753
 20
40.78393767615016
 30
0.0
 11
84.68739091198965
 21
42.26049835716614
 31
0.0
  0
LINE
  5
7A
330
44
100
AcDbEntity
  8
0
  6
DASHED
 62
     0
100
AcDbLine
 10
11.35679802107566
 20
1.270237038415292
 30
0.0
 11
20.86174219644179
 21
21.653654529256
 31
0.0
  0
LINE
  5
7B
330
44
100
AcDbEntity
  8
0
  6
DASHED
 62
     0
100
AcDbLine
 10
36.52326737797164
 20
29.44830639274142
 30
0.0
 11
65.23947335371912
 21
31.96064886776004
 31
0.0
  0
LINE
  5
7C
330
44
100
AcDbEntity
  8
0
  6
DASHED
 62
     0
100
AcDbLine
 10
15.12672826175295
 20
9.354799228235327
 30
0.0
 11
18.57765760050716
 21
9.656716423123898
 31
0.0
  0
LINE
  5
7D
330
44
100
AcDbEntity
  8
0
  6
DASHED
 62
     0
100
AcDbLine
 10
18.57761313314582
 20
9.65671750405113
 30
0.0
 11
23.58066639632787
 21
20.38579928620945
 31
0.0
  0
LINE
  5
7E
330
44
100
AcDbEntity
  8
0
  6
DASHED
 62
     0
100
AcDbLine
 10
36.418587078317
 20
30.643713477789
 30
0.0
 11
64.69978251295811
 21
33.11799746205763
 31
0.0
  0
LINE
  5
7F
330
44
100
AcDbEntity
  8
0
  6
DASHED
 62
     0
100
AcDbLine
 10
14.33196659967487
 20
10.4898626514869
 30
0.0
 11
17.78289593842908
 21
10.79177984637547
 31
0.0
  0
LINE
  5
80
330
44
100
AcDbEntity
  8
0
  6
DASHED
 62
     0
100
AcDbLine
 10
17.78277161428719
 20
10.79178953868223
 30
0.0
 11
22.49300408148502
 21
20.89291513041752
 31
0.0
  0
LINE
  5
81
330
44
100
AcDbEntity
  8
0
  6
Continuous
 62
     0
100
AcDbLine
 10
67.99998838381114
 20
36.41824211779756
 30
0.0
 11
70.77049697215888
 21
39.18875070614529
 31
0.0
  0
LINE
  5
82
330
44
100
AcDbEntity
  8
0
  6
Continuous
 62
     0
100
AcDbLine
 10
83.7999267578125
 20
37.86598205566406
 30
0.0
 11
83.7999267578125
 21
0.219924926757812
 31
0.0
  0
LINE
  5
83
330
44
100
AcDbEntity
  8
0
  6
DASHED
 62
     0
100
AcDbLine
 10
78.77895457571285
 20
38.17240174886894
 30
0.0
 11
82.62634072072538
 21
38.85079975104004
 31
0.0
  0
LINE
  5
84
330
44
100
AcDbEntity
  8
0
  6
DASHED
 62
     0
100
AcDbLine
 10
76.55232972847577
 20
40.82608329439965
 30
0.0
 11
78.77901762981793
 21
38.17242011236987
 31
0.0
  0
LINE
  5
85
330
44
100
AcDbEntity
  8
0
  6
Continuous
 62
     0
100
AcDbLine
 10
86.7999267578125
 20
-16.51216125488281
 30
0.0
 11
88.0
 21
-16.51216125488281
 31
0.0
  0
LINE
  5
86
330
44
100
AcDbEntity
  8
0
  6
CENTER
 62
     0
100
AcDbLine
 10
0.0
 20
16.49760055541992
 30
0.0
 11
0.0
 21
-29.08761978149414
 31
0.0
  0
LINE
  5
87
330
44
100
AcDbEntity
  8
0
  6
Continuous
 62
     0
100
AcDbLine
 10
-5.0
 20
1.199993848800659
 30
0.0
 11
-5.0
 21
2.199993848800659
 31
0.0
  0
LINE
  5
88
330
44
100
AcDbEntity
  8
0
  6
Continuous
 62
     0
100
AcDbLine
 10
-4.5999755859375
 20
2.199993848800659
 30
0.0
 11
-4.5999755859375
 21
3.499996900558472
 31
0.0
  0
LINE
  5
89
330
44
100
AcDbEntity
  8
0
  6
Continuous
 62
     0
100
AcDbLine
 10
5.0
 20
2.199993848800659
 30
0.0
 11
-5.0
 21
2.199993848800659
 31
0.0
  0
LINE
  5
8A
330
44
100
AcDbEntity
  8
0
  6
Continuous
 62
     0
100
AcDbLine
 10
4.60003662109375
 20
3.499996900558472
 30
0.0
 11
-4.5999755859375
 21
3.499996900558472
 31
0.0
  0
LINE
  5
8B
330
44
100
AcDbEntity
  8
0
  6
Continuous
 62
     0
100
AcDbLine
 10
-11.0
 20
11.33836078643799
 30
0.0
 11
-11.0
 21
13.49999713897705
 31
0.0
  0
LINE
  5
8C
330
44
100
AcDbEntity
  8
0
  6
Continuous
 62
     0
100
AcDbLine
 10
-9.0
 20
13.49999713897705
 30
0.0
 11
-11.0
 21
13.49999713897705
 31
0.0
  0
LINE
  5
8D
330
44
100
AcDbEntity
  8
0
  6
Continuous
 62
     0
100
AcDbLine
 10
-5.0
 20
6.499997138977051
 30
0.0
 11
-5.0
 21
9.49999713897705
 31
0.0
  0
LINE
  5
8E
330
44
100
AcDbEntity
  8
0
  6
Continuous
 62
     0
100
AcDbLine
 10
5.0
 20
6.499997138977051
 30
0.0
 11
-5.0
 21
6.499997138977051
 31
0.0
  0
LINE
  5
8F
330
44
100
AcDbEntity
  8
0
  6
Continuous
 62
     0
100
AcDbLine
 10
-2.5
 20
6.499997138977051
 30
0.0
 11
-2.5
 21
13.99999713897705
 31
0.0
  0
LINE
  5
90
330
44
100
AcDbEntity
  8
0
  6
Continuous
 62
     0
100
AcDbLine
 10
-2.0
 20
6.499997138977051
 30
0.0
 11
-2.0
 21
13.99999713897705
 31
0.0
  0
LINE
  5
91
330
44
100
AcDbEntity
  8
0
  6
Continuous
 62
     0
100
AcDbLine
 10
2.0
 20
6.499997138977051
 30
0.0
 11
2.0
 21
13.99999713897705
 31
0.0
  0
LINE
  5
92
330
44
100
AcDbEntity
  8
0
  6
Continuous
 62
     0
100
AcDbLine
 10
2.5
 20
6.499997138977051
 30
0.0
 11
2.5
 21
13.99999713897705
 31
0.0
  0
LINE
  5
93
330
44
100
AcDbEntity
  8
0
  6
Continuous
 62
     0
100
AcDbLine
 10
-2.5
 20
13.99999713897705
 30
0.0
 11
2.5
 21
13.99999713897705
 31
0.0
  0
LINE
  5
94
330
44
100
AcDbEntity
  8
0
  6
Continuous
 62
     0
100
AcDbLine
 10
5.0
 20
6.499997138977051
 30
0.0
 11
5.0
 21
9.49999713897705
 31
0.0
  0
LINE
  5
95
330
44
100
AcDbEntity
  8
0
  6
Continuous
 62
     0
100
AcDbLine
 10
9.0
 20
13.49999713897705
 30
0.0
 11
11.0
 21
13.49999713897705
 31
0.0
  0
LINE
  5
96
330
44
100
AcDbEntity
  8
0
  6
Continuous
 62
     0
100
AcDbLine
 10
11.0
 20
11.33836078643799
 30
0.0
 11
11.0
 21
13.49999713897705
 31
0.0
  0
LINE
  5
97
330
44
100
AcDbEntity
  8
0
  6
Continuous
 62
     0
100
AcDbLine
 10
4.60003662109375
 20
2.199993848800659
 30
0.0
 11
4.60003662109375
 21
3.499996900558472
 31
0.0
  0
LINE
  5
98
330
44
100
AcDbEntity
  8
0
  6
Continuous
 62
     0
100
AcDbLine
 10
5.0
 20
1.199993848800659
 30
0.0
 11
5.0
 21
2.199993848800659
 31
0.0
  0
LINE
  5
99
330
44
100
AcDbEntity
  8
0
  6
Continuous
 62
     0
100
AcDbLine
 10
0.7505764456015
 20
3.500002948091361
 30
0.0
 11
0.402243389844193
 21
2.200006147254101
 31
0.0
  0
LINE
  5
9A
330
44
100
AcDbEntity
  8
0
  6
Continuous
 62
     0
100
AcDbLine
 10
-0.750533937837359
 20
2.199996265881218
 30
0.0
 11
-0.402200912933684
 21
3.499992951571145
 31
0.0
  0
ARC
  5
9B
330
44
100
AcDbEntity
  8
0
  6
Continuous
 62
     0
100
AcDbCircle
 10
10.0
 20
1.199996948242188
 30
0.0
 40
6.0
100
AcDbArc
 50
269.9999974955218
 51
334.9999981659467
  0
ARC
  5
9C
330
44
100
AcDbEntity
  8
0
  6
DASHED
 62
     0
100
AcDbCircle
 10
77.841552734375
 20
32.11763000488281
 30
0.0
 40
8.800000190734863
100
AcDbArc
 50
100.0000005060238
 51
135.0000003416227
  0
ARC
  5
9D
330
44
100
AcDbEntity
  8
0
  6
Continuous
 62
     0
100
AcDbCircle
 10
85.0
 20
40.48783874511719
 30
0.0
 40
3.0
100
AcDbArc
 50
0.0
 51
100.0000005060238
  0
ARC
  5
9E
330
44
100
AcDbEntity
  8
0
  6
Continuous
 62
     0
100
AcDbCircle
 10
77.841552734375
 20
32.11763000488281
 30
0.0
 40
10.0
100
AcDbArc
 50
100.0000005060238
 51
135.0000003416227
  0
ARC
  5
9F
330
44
100
AcDbEntity
  8
0
  6
Continuous
 62
     0
100
AcDbCircle
 10
-7.0
 20
-1.800003051757812
 30
0.0
 40
3.0
100
AcDbArc
 50
179.999991348578
 51
270.0000006832453
  0
ARC
  5
A0
330
44
100
AcDbEntity
  8
0
  6
Continuous
 62
     0
100
AcDbCircle
 10
85.0
 20
40.48783874511719
 30
0.0
 40
1.799999952316284
100
AcDbArc
 50
0.0
 51
100.0000005060238
  0
ARC
  5
A1
330
44
100
AcDbEntity
  8
0
  6
Continuous
 62
     0
100
AcDbCircle
 10
82.7999267578125
 20
37.86598205566406
 30
0.0
 40
1.0
100
AcDbArc
 50
0.0
 51
100.0000005060238
  0
ARC
  5
A2
330
44
100
AcDbEntity
  8
0
  6
Continuous
 62
     0
100
AcDbCircle
 10
85.0496826171875
 20
39.28886413574219
 30
0.0
 40
3.0
100
AcDbArc
 50
92.37285120327562
 51
156.8014040967914
  0
ARC
  5
A3
330
44
100
AcDbEntity
  8
0
  6
Continuous
 62
     0
100
AcDbCircle
 10
-3.0
 20
11.33836078643799
 30
0.0
 40
8.0
100
AcDbArc
 50
179.999991348578
 51
258.4630461939067
  0
ARC
  5
A4
330
44
100
AcDbEntity
  8
0
  6
Continuous
 62
     0
100
AcDbCircle
 10
-9.0
 20
9.49999713897705
 30
0.0
 40
4.0
100
AcDbArc
 50
0.0
 51
90.00000250447816
  0
ARC
  5
A5
330
44
100
AcDbEntity
  8
0
  6
Continuous
 62
     0
100
AcDbCircle
 10
9.0
 20
9.49999713897705
 30
0.0
 40
4.0
100
AcDbArc
 50
90.00000250447816
 51
180.0000050089563
  0
ARC
  5
A6
330
44
100
AcDbEntity
  8
0
  6
Continuous
 62
     0
100
AcDbCircle
 10
3.0
 20
11.33836078643799
 30
0.0
 40
8.0
100
AcDbArc
 50
281.5369588150496
 51
359.9999999999999
  0
ARC
  5
A7
330
44
100
AcDbEntity
  8
0
  6
Continuous
 62
     0
100
AcDbCircle
 10
9.36284065246582
 20
2.199996948242188
 30
0.0
 40
1.0
100
AcDbArc
 50
269.9999974955218
 51
334.9999981659467
  0
ARC
  5
A8
330
44
100
AcDbEntity
  8
0
  6
DASHED
 62
     0
100
AcDbCircle
 10
9.362920761108398
 20
2.199996948242188
 30
0.0
 40
2.200000047683716
100
AcDbArc
 50
269.9999974955218
 51
334.9999981659467
  0
ARC
  5
A9
330
44
100
AcDbEntity
  8
0
  6
Continuous
 62
     0
100
AcDbCircle
 10
37.90023422241211
 20
13.70840358734131
 30
0.0
 40
20.0
100
AcDbArc
 50
95.00000150525099
 51
154.9999963447139
  0
ARC
  5
AA
330
44
100
AcDbEntity
  8
0
  6
Continuous
 62
     0
100
AcDbCircle
 10
37.41223907470703
 20
12.66189002990723
 30
0.0
 40
14.0
100
AcDbArc
 50
95.00000150525099
 51
154.9999963447139
  0
ARC
  5
AB
330
44
100
AcDbEntity
  8
0
  6
DASHED
 62
     0
100
AcDbCircle
 10
37.90032958984375
 20
13.70843029022217
 30
0.0
 40
15.80000019073486
100
AcDbArc
 50
95.00000150525099
 51
154.9999963447139
  0
ARC
  5
AC
330
44
100
AcDbEntity
  8
0
  6
DASHED
 62
     0
100
AcDbCircle
 10
37.90023422241211
 20
13.70840358734131
 30
0.0
 40
17.0
100
AcDbArc
 50
95.00000150525099
 51
154.9999963447139
  0
ARC
  5
AD
330
44
100
AcDbEntity
  8
0
  6
DASHED
 62
     0
100
AcDbCircle
 10
37.90032958984375
 20
13.70843029022217
 30
0.0
 40
18.79999923706055
100
AcDbArc
 50
95.00000150525099
 51
154.9999963447139
  0
DIMENSION
  5
AE
330
44
100
AcDbEntity
  8
0
 62
     0
100
AcDbDimension
  2
*D6
 10
88.0
 20
70.09814453124999
 30
0.0
 11
36.98334939575195
 21
70.09814453125
 31
0.0
 70
   160
 71
     5
 42
97.99999999999999
  3
ISO-25
100
AcDbAlignedDimension
 13
-10.0
 23
1.199996948242188
 33
0.0
 14
88.0
 24
40.48783874511719
 34
0.0
 50
180.0
100
AcDbRotatedDimension
1001
ACAD
1000
DSTYLE
1002
{
1070
   178
1070
     1
1070
   147
1040
0.800000011920929
1070
    77
1070
     1
1070
    74
1070
     0
1070
    73
1070
     0
1070
    42
1040
2.54
1070
    44
1040
1.0
1070
    76
1070
     0
1070
    75
1070
     0
1070
   279
1070
     0
1070
   271
1070
     0
1070
   144
1040
1.0
1070
   278
1070
    46
1070
   173
1070
     1
1070
    41
1040
3.0
1070
   140
1040
3.200000047683716
1070
   344
1005
AF
1070
   343
1005
AF
1002
}
  0
DIMENSION
  5
C2
330
44
100
AcDbEntity
  8
0
 62
     0
100
AcDbDimension
  2
*D7
 10
88.0
 20
61.51486587524413
 30
0.0
 11
45.98875482177734
 21
61.51486587524414
 31
0.0
 70
   160
 71
     5
 42
78.00009155273433
  3
ISO-25
100
AcDbAlignedDimension
 13
9.999910354614258
 23
1.199996948242188
 33
0.0
 14
88.0
 24
44.06312561035156
 34
0.0
 50
180.0
100
AcDbRotatedDimension
1001
ACAD
1000
DSTYLE
1002
{
1070
   178
1070
     1
1070
   147
1040
0.800000011920929
1070
    77
1070
     1
1070
    74
1070
     0
1070
    73
1070
     0
1070
    42
1040
2.54
1070
    44
1040
1.0
1070
    76
1070
     1
1070
    75
1070
     0
1070
   279
1070
     0
1070
   271
1070
     0
1070
   144
1040
1.000000024453159
1070
   278
1070
    46
1070
   173
1070
     1
1070
    41
1040
3.0
1070
   140
1040
3.200000047683716
1070
   344
1005
AF
1070
   343
1005
AF
1002
}
  0
DIMENSION
  5
CE
330
44
100
AcDbEntity
  8
0
 62
     0
100
AcDbDimension
  2
*D8
 10
112.3307958374024
 20
-16.5121612548828
 30
0.0
 11
112.3307958374023
 21
16.44135720825195
 31
0.0
 70
   160
 71
     5
 42
60.0
  3
ISO-25
100
AcDbAlignedDimension
 13
85.0
 23
43.48783874511719
 33
0.0
 14
86.7999267578125
 24
-16.51216125488281
 34
0.0
 50
90.00000000000001
100
AcDbRotatedDimension
1001
ACAD
1000
DSTYLE
1002
{
1070
   178
1070
     1
1070
   147
1040
0.800000011920929
1070
    77
1070
     1
1070
    74
1070
     0
1070
    73
1070
     0
1070
    42
1040
2.54
1070
    44
1040
1.0
1070
    76
1070
     0
1070
    75
1070
     0
1070
   279
1070
     0
1070
   271
1070
     0
1070
   144
1040
1.0
1070
   278
1070
    46
1070
   173
1070
     1
1070
    41
1040
3.0
1070
   140
1040
3.200000047683716
1070
   344
1005
AF
1070
   343
1005
AF
1002
}
  0
DIMENSION
  5
DB
330
44
100
AcDbEntity
  8
0
 62
     0
100
AcDbDimension
  2
*D9
 10
88.0
 20
53.91655349731445
 30
0.0
 11
54.1499028930664
 21
53.91655349731445
 31
0.0
 70
   160
 71
     5
 42
63.34594345092773
  3
ISO-25
100
AcDbAlignedDimension
 13
24.65405464172363
 23
32.62591171264648
 33
0.0
 14
88.0
 24
40.48783874511719
 34
0.0
 50
180.0
100
AcDbRotatedDimension
1001
ACAD
1000
DSTYLE
1002
{
1070
   178
1070
     1
1070
   147
1040
0.800000011920929
1070
    77
1070
     1
1070
    74
1070
     0
1070
    73
1070
     0
1070
    42
1040
2.54
1070
    44
1040
1.0
1070
    76
1070
     1
1070
    75
1070
     0
1070
   279
1070
     0
1070
   271
1070
     1
1070
   144
1040
0.999999969889965
1070
   278
1070
    46
1070
   173
1070
     1
1070
    41
1040
3.0
1070
   140
1040
3.200000047683716
1070
   344
1005
AF
1070
   343
1005
AF
1002
}
  0
DIMENSION
  5
E7
330
44
100
AcDbEntity
  8
0
 62
     0
100
AcDbDimension
  2
*D10
 10
9.999910354614265
 20
61.51486587524414
 30
0.0
 11
1.500955177307129
 21
61.51486587524414
 31
0.0
 70
   160
 71
     5
 42
19.99991035461426
  3
ISO-25
100
AcDbAlignedDimension
 13
-10.0
 23
1.199996948242188
 33
0.0
 14
9.999910354614258
 24
1.199996948242188
 34
0.0
 50
180.0
100
AcDbRotatedDimension
1001
ACAD
1000
DSTYLE
1002
{
1070
   178
1070
     1
1070
   147
1040
0.800000011920929
1070
    77
1070
     1
1070
    74
1070
     0
1070
    73
1070
     0
1070
    42
1040
2.54
1070
    44
1040
1.0
1070
    76
1070
     1
1070
    75
1070
     1
1070
   279
1070
     0
1070
   271
1070
     0
1070
   144
1040
1.0
1070
   278
1070
    46
1070
   173
1070
     1
1070
    41
1040
3.0
1070
   140
1040
3.200000047683716
1070
   344
1005
AF
1070
   343
1005
AF
1002
}
  0
ENDBLK
  5
46
330
44
100
AcDbEntity
  8
0
100
AcDbBlockEnd
  0
BLOCK
  5
48
330
47
100
AcDbEntity
  8
0
100
AcDbBlockBegin
  2
DTL0002
 70
     0
 10
0.0
 20
0.0
 30
0.0
  3
DTL0002
  1

  0
POINT
  5
F2
330
47
100
AcDbEntity
  8
0
 62
     0
100
AcDbPoint
 10
0.0
 20
0.0
 30
0.0
  0
POINT
  5
F3
330
47
100
AcDbEntity
  8
0
 62
     0
100
AcDbPoint
 10
0.0
 20
0.0
 30
0.0
  0
POINT
  5
F4
330
47
100
AcDbEntity
  8
0
 62
     0
100
AcDbPoint
 10
0.0
 20
-2.5
 30
0.0
  0
POINT
  5
F5
330
47
100
AcDbEntity
  8
0
 62
     0
100
AcDbPoint
 10
0.0
 20
-4.5
 30
0.0
  0
LINE
  5
F6
330
47
100
AcDbEntity
  8
0
  6
Continuous
 62
     0
100
AcDbLine
 10
-13.0
 20
-2.5
 30
0.0
 11
-13.0
 21
-4.5
 31
0.0
  0
LINE
  5
F7
330
47
100
AcDbEntity
  8
0
  6
Continuous
 62
     0
100
AcDbLine
 10
-10.0
 20
-2.5
 30
0.0
 11
-10.0
 21
-4.0
 31
0.0
  0
LINE
  5
F8
330
47
100
AcDbEntity
  8
0
  6
Continuous
 62
     0
100
AcDbLine
 10
-5.0
 20
-2.5
 30
0.0
 11
-5.0
 21
-4.0
 31
0.0
  0
LINE
  5
F9
330
47
100
AcDbEntity
  8
0
  6
Continuous
 62
     0
100
AcDbLine
 10
0.0
 20
-2.5
 30
0.0
 11
0.0
 21
-4.5
 31
0.0
  0
MTEXT
  5
FA
330
47
100
AcDbEntity
  8
0
 62
     1
100
AcDbMText
 10
-1.536675304174423
 20
-6.831439018249512
 30
0.0
 40
2.0
 41
0.0
 71
     7
 72
     1
  1
{\W1;30}
 73
     1
 44
1.0
  0
MTEXT
  5
FB
330
47
100
AcDbEntity
  8
0
 62
     1
100
AcDbMText
 10
-14.53667506575584
 20
-6.831439018249512
 30
0.0
 40
2.0
 41
0.0
 71
     7
 72
     1
  1
{\W1;17}
 73
     1
 44
1.0
  0
ENDBLK
  5
49
330
47
100
AcDbEntity
  8
0
100
AcDbBlockEnd
  0
BLOCK
  5
4B
330
4A
100
AcDbEntity
  8
0
100
AcDbBlockBegin
  2
DTL0003
 70
     0
 10
0.0
 20
0.0
 30
0.0
  3
DTL0003
  1

  0
POINT
  5
FC
330
4A
100
AcDbEntity
  8
0
 62
     0
100
AcDbPoint
 10
0.0
 20
0.0
 30
0.0
  0
POINT
  5
FD
330
4A
100
AcDbEntity
  8
0
 62
     0
100
AcDbPoint
 10
0.0
 20
0.0
 30
0.0
  0
POINT
  5
FE
330
4A
100
AcDbEntity
  8
0
 62
     0
100
AcDbPoint
 10
-10.0
 20
1.199996948242188
 30
0.0
  0
POINT
  5
FF
330
4A
100
AcDbEntity
  8
0
 62
     0
100
AcDbPoint
 10
88.0
 20
-16.51216125488281
 30
0.0
  0
POINT
  5
100
330
4A
100
AcDbEntity
  8
0
 62
     0
100
AcDbPoint
 10
88.0
 20
44.06312561035156
 30
0.0
  0
POINT
  5
101
330
4A
100
AcDbEntity
  8
0
 62
     0
100
AcDbPoint
 10
9.999910354614258
 20
1.199996948242188
 30
0.0
  0
POINT
  5
102
330
4A
100
AcDbEntity
  8
0
 62
     0
100
AcDbPoint
 10
30.0
 20
0.0
 30
0.0
  0
POINT
  5
103
330
4A
100
AcDbEntity
  8
0
 62
     0
100
AcDbPoint
 10
-5.0
 20
2.399993896484375
 30
0.0
  0
POINT
  5
104
330
4A
100
AcDbEntity
  8
0
 62
     0
100
AcDbPoint
 10
-5.0
 20
2.199993848800659
 30
0.0
  0
POINT
  5
105
330
4A
100
AcDbEntity
  8
0
 62
     0
100
AcDbPoint
 10
25.44891929626465
 20
31.49088668823242
 30
0.0
  0
POINT
  5
106
330
4A
100
AcDbEntity
  8
0
 62
     0
100
AcDbPoint
 10
26.64098358154297
 20
29.78828430175781
 30
0.0
  0
POINT
  5
107
330
4A
100
AcDbEntity
  8
0
 62
     0
100
AcDbPoint
 10
27.43584632873535
 20
28.65325927734375
 30
0.0
  0
POINT
  5
108
330
4A
100
AcDbEntity
  8
0
 62
     0
100
AcDbPoint
 10
28.13991165161133
 20
25.90414428710938
 30
0.0
  0
POINT
  5
109
330
4A
100
AcDbEntity
  8
0
 62
     0
100
AcDbPoint
 10
82.92625427246094
 20
41.9499626159668
 30
0.0
  0
POINT
  5
10A
330
4A
100
AcDbEntity
  8
0
 62
     0
100
AcDbPoint
 10
24.65405464172363
 20
32.62591171264648
 30
0.0
  0
POINT
  5
10B
330
4A
100
AcDbEntity
  8
0
 62
     0
100
AcDbPoint
 10
67.99993133544922
 20
36.41818237304688
 30
0.0
  0
POINT
  5
10C
330
4A
100
AcDbEntity
  8
0
 62
     0
100
AcDbPoint
 10
14.22713279724121
 20
10.26530361175537
 30
0.0
  0
POINT
  5
10D
330
4A
100
AcDbEntity
  8
0
 62
     0
100
AcDbPoint
 10
9.999910354614258
 20
1.199996948242188
 30
0.0
  0
POINT
  5
10E
330
4A
100
AcDbEntity
  8
0
 62
     0
100
AcDbPoint
 10
10.76447582244873
 20
-0.000002980232239
 30
0.0
  0
POINT
  5
10F
330
4A
100
AcDbEntity
  8
0
 62
     0
100
AcDbPoint
 10
24.65405464172363
 20
32.62590789794922
 30
0.0
  0
POINT
  5
110
330
4A
100
AcDbEntity
  8
0
 62
     0
100
AcDbPoint
 10
28.13991165161133
 20
25.90414428710938
 30
0.0
  0
POINT
  5
111
330
4A
100
AcDbEntity
  8
0
 62
     0
100
AcDbPoint
 10
27.43584632873535
 20
28.65325927734375
 30
0.0
  0
POINT
  5
112
330
4A
100
AcDbEntity
  8
0
 62
     0
100
AcDbPoint
 10
26.64098358154297
 20
29.78828430175781
 30
0.0
  0
POINT
  5
113
330
4A
100
AcDbEntity
  8
0
 62
     0
100
AcDbPoint
 10
25.44891929626465
 20
31.49088668823242
 30
0.0
  0
LINE
  5
114
330
4A
100
AcDbEntity
  8
0
  6
Continuous
 62
     0
100
AcDbLine
 10
-10.0
 20
1.199996948242188
 30
0.0
 11
9.36284065246582
 21
1.199996948242188
 31
0.0
  0
LINE
  5
115
330
4A
100
AcDbEntity
  8
0
  6
Continuous
 62
     0
100
AcDbLine
 10
-10.0
 20
1.199996948242188
 30
0.0
 11
-10.0
 21
-1.800003051757812
 31
0.0
  0
LINE
  5
116
330
4A
100
AcDbEntity
  8
0
  6
Continuous
 62
     0
100
AcDbLine
 10
83.799990630639
 20
0.219922212722857
 30
0.0
 11
86.7999990288715
 21
-1.512133474655151
 31
0.0
  0
LINE
  5
117
330
4A
100
AcDbEntity
  8
0
  6
Continuous
 62
     0
100
AcDbLine
 10
88.0
 20
40.48783874511719
 30
0.0
 11
88.0
 21
-16.51216125488281
 31
0.0
  0
LINE
  5
118
330
4A
100
AcDbEntity
  8
0
  6
Continuous
 62
     0
100
AcDbLine
 10
10.26914779743878
 20
1.777378812296899
 30
0.0
 11
19.77407907551854
 21
22.16076864481917
 31
0.0
  0
LINE
  5
119
330
4A
100
AcDbEntity
  8
0
  6
Continuous
 62
     0
100
AcDbLine
 10
36.15711985083157
 20
33.63229757213051
 30
0.0
 11
68.00002750630473
 21
36.41819099755396
 31
0.0
  0
LINE
  5
11A
330
4A
100
AcDbEntity
  8
0
  6
DASHED
 62
     0
100
AcDbLine
 10
64.69979708516662
 20
33.11805081915304
 30
0.0
 11
67.99998838381114
 21
36.41824211779756
 31
0.0
  0
LINE
  5
11B
330
4A
100
AcDbEntity
  8
0
  6
Continuous
 62
     0
100
AcDbLine
 10
76.10501946936915
 20
41.96571900031419
 30
0.0
 11
84.47901097322128
 21
43.44227968133016
 31
0.0
  0
LINE
  5
11C
330
4A
100
AcDbEntity
  8
0
  6
Continuous
 62
     0
100
AcDbLine
 10
86.7999267578125
 20
40.48783874511719
 30
0.0
 11
86.7999267578125
 21
-16.51216125488281
 31
0.0
  0
LINE
  5
11D
330
4A
100
AcDbEntity
  8
0
  6
Continuous
 62
     0
100
AcDbLine
 10
71.14817589318936
 20
29.6669346905641
 30
0.0
 11
76.38906974491098
 21
34.90782854228573
 31
0.0
  0
LINE
  5
11E
330
4A
100
AcDbEntity
  8
0
  6
Continuous
 62
     0
100
AcDbLine
 10
36.19205642523227
 20
26.60861526367648
 30
0.0
 11
71.1481523161162
 21
29.66687736632547
 31
0.0
  0
LINE
  5
11F
330
4A
100
AcDbEntity
  8
0
  6
Continuous
 62
     0
100
AcDbLine
 10
15.43777536185363
 20
-1.335675331407931
 30
0.0
 11
24.72392956807983
 21
18.57854558115666
 31
0.0
  0
LINE
  5
120
330
4A
100
AcDbEntity
  8
0
  6
Continuous
 62
     0
100
AcDbLine
 10
-7.0
 20
-4.800003051757812
 30
0.0
 11
10.0
 21
-4.800003051757812
 31
0.0
  0
LINE
  5
121
330
4A
100
AcDbEntity
  8
0
  6
Continuous
 62
     0
100
AcDbLine
 10
76.38912480573158
 20
34.90782814853252
 30
0.0
 11
80.19587801370456
 21
35.57906146739111
 31
0.0
  0
LINE
  5
122
330
4A
100
AcDbEntity
  8
0
  6
Continuous
 62
     0
100
AcDbLine
 10
80.1477707713705
 20
35.4668388018426
 30
0.0
 11
82.29224941848878
 21
40.47062252810856
 31
0.0
  0
LINE
  5
123
330
4A
100
AcDbEntity
  8
0
  6
DASHED
 62
     0
100
AcDbLine
 10
36.26180015048621
 20
32.43689048708294
 30
0.0
 11
68.53971834706574
 21
35.26084240325637
 31
0.0
  0
LINE
  5
124
330
4A
100
AcDbEntity
  8
0
  6
DASHED
 62
     0
100
AcDbLine
 10
65.23949253797045
 20
31.96067273376
 30
0.0
 11
71.61903374125731
 21
38.34021393704685
 31
0.0
  0
LINE
  5
125
330
4A
100
AcDbEntity
  8
0
  6
DASHED
 62
     0
100
AcDbLine
 10
76.31339940813753
 20
40.78393767615016
 30
0.0
 11
84.68739091198965
 21
42.26049835716614
 31
0.0
  0
LINE
  5
126
330
4A
100
AcDbEntity
  8
0
  6
DASHED
 62
     0
100
AcDbLine
 10
11.35679802107566
 20
1.270237038415292
 30
0.0
 11
20.86174219644179
 21
21.653654529256
 31
0.0
  0
LINE
  5
127
330
4A
100
AcDbEntity
  8
0
  6
DASHED
 62
     0
100
AcDbLine
 10
36.52326737797164
 20
29.44830639274142
 30
0.0
 11
65.23947335371912
 21
31.96064886776004
 31
0.0
  0
LINE
  5
128
330
4A
100
AcDbEntity
  8
0
  6
DASHED
 62
     0
100
AcDbLine
 10
15.12672826175295
 20
9.354799228235327
 30
0.0
 11
18.57765760050716
 21
9.656716423123898
 31
0.0
  0
LINE
  5
129
330
4A
100
AcDbEntity
  8
0
  6
DASHED
 62
     0
100
AcDbLine
 10
18.57761313314582
 20
9.65671750405113
 30
0.0
 11
23.58066639632787
 21
20.38579928620945
 31
0.0
  0
LINE
  5
12A
330
4A
100
AcDbEntity
  8
0
  6
DASHED
 62
     0
100
AcDbLine
 10
36.418587078317
 20
30.643713477789
 30
0.0
 11
64.69978251295811
 21
33.11799746205763
 31
0.0
  0
LINE
  5
12B
330
4A
100
AcDbEntity
  8
0
  6
DASHED
 62
     0
100
AcDbLine
 10
14.33196659967487
 20
10.4898626514869
 30
0.0
 11
17.78289593842908
 21
10.79177984637547
 31
0.0
  0
LINE
  5
12C
330
4A
100
AcDbEntity
  8
0
  6
DASHED
 62
     0
100
AcDbLine
 10
17.78277161428719
 20
10.79178953868223
 30
0.0
 11
22.49300408148502
 21
20.89291513041752
 31
0.0
  0
LINE
  5
12D
330
4A
100
AcDbEntity
  8
0
  6
Continuous
 62
     0
100
AcDbLine
 10
67.99998838381114
 20
36.41824211779756
 30
0.0
 11
70.77049697215888
 21
39.18875070614529
 31
0.0
  0
LINE
  5
12E
330
4A
100
AcDbEntity
  8
0
  6
Continuous
 62
     0
100
AcDbLine
 10
83.7999267578125
 20
37.86598205566406
 30
0.0
 11
83.7999267578125
 21
0.219924926757812
 31
0.0
  0
LINE
  5
12F
330
4A
100
AcDbEntity
  8
0
  6
DASHED
 62
     0
100
AcDbLine
 10
78.77895457571285
 20
38.17240174886894
 30
0.0
 11
82.62634072072538
 21
38.85079975104004
 31
0.0
  0
LINE
  5
130
330
4A
100
AcDbEntity
  8
0
  6
DASHED
 62
     0
100
AcDbLine
 10
76.55232972847577
 20
40.82608329439965
 30
0.0
 11
78.77901762981793
 21
38.17242011236987
 31
0.0
  0
LINE
  5
131
330
4A
100
AcDbEntity
  8
0
  6
Continuous
 62
     0
100
AcDbLine
 10
86.7999267578125
 20
-16.51216125488281
 30
0.0
 11
88.0
 21
-16.51216125488281
 31
0.0
  0
LINE
  5
132
330
4A
100
AcDbEntity
  8
0
  6
CENTER
 62
     0
100
AcDbLine
 10
0.0
 20
16.49760055541992
 30
0.0
 11
0.0
 21
-29.08761978149414
 31
0.0
  0
LINE
  5
133
330
4A
100
AcDbEntity
  8
0
  6
Continuous
 62
     0
100
AcDbLine
 10
-5.0
 20
1.199993848800659
 30
0.0
 11
-5.0
 21
2.199993848800659
 31
0.0
  0
LINE
  5
134
330
4A
100
AcDbEntity
  8
0
  6
Continuous
 62
     0
100
AcDbLine
 10
-4.5999755859375
 20
2.199993848800659
 30
0.0
 11
-4.5999755859375
 21
3.499996900558472
 31
0.0
  0
LINE
  5
135
330
4A
100
AcDbEntity
  8
0
  6
Continuous
 62
     0
100
AcDbLine
 10
5.0
 20
2.199993848800659
 30
0.0
 11
-5.0
 21
2.199993848800659
 31
0.0
  0
LINE
  5
136
330
4A
100
AcDbEntity
  8
0
  6
Continuous
 62
     0
100
AcDbLine
 10
4.60003662109375
 20
3.499996900558472
 30
0.0
 11
-4.5999755859375
 21
3.499996900558472
 31
0.0
  0
LINE
  5
137
330
4A
100
AcDbEntity
  8
0
  6
Continuous
 62
     0
100
AcDbLine
 10
-11.0
 20
11.33836078643799
 30
0.0
 11
-11.0
 21
13.49999713897705
 31
0.0
  0
LINE
  5
138
330
4A
100
AcDbEntity
  8
0
  6
Continuous
 62
     0
100
AcDbLine
 10
-9.0
 20
13.49999713897705
 30
0.0
 11
-11.0
 21
13.49999713897705
 31
0.0
  0
LINE
  5
139
330
4A
100
AcDbEntity
  8
0
  6
Continuous
 62
     0
100
AcDbLine
 10
-5.0
 20
6.499997138977051
 30
0.0
 11
-5.0
 21
9.49999713897705
 31
0.0
  0
LINE
  5
13A
330
4A
100
AcDbEntity
  8
0
  6
Continuous
 62
     0
100
AcDbLine
 10
5.0
 20
6.499997138977051
 30
0.0
 11
-5.0
 21
6.499997138977051
 31
0.0
  0
LINE
  5
13B
330
4A
100
AcDbEntity
  8
0
  6
Continuous
 62
     0
100
AcDbLine
 10
-2.5
 20
6.499997138977051
 30
0.0
 11
-2.5
 21
13.99999713897705
 31
0.0
  0
LINE
  5
13C
330
4A
100
AcDbEntity
  8
0
  6
Continuous
 62
     0
100
AcDbLine
 10
-2.0
 20
6.499997138977051
 30
0.0
 11
-2.0
 21
13.99999713897705
 31
0.0
  0
LINE
  5
13D
330
4A
100
AcDbEntity
  8
0
  6
Continuous
 62
     0
100
AcDbLine
 10
2.0
 20
6.499997138977051
 30
0.0
 11
2.0
 21
13.99999713897705
 31
0.0
  0
LINE
  5
13E
330
4A
100
AcDbEntity
  8
0
  6
Continuous
 62
     0
100
AcDbLine
 10
2.5
 20
6.499997138977051
 30
0.0
 11
2.5
 21
13.99999713897705
 31
0.0
  0
LINE
  5
13F
330
4A
100
AcDbEntity
  8
0
  6
Continuous
 62
     0
100
AcDbLine
 10
-2.5
 20
13.99999713897705
 30
0.0
 11
2.5
 21
13.99999713897705
 31
0.0
  0
LINE
  5
140
330
4A
100
AcDbEntity
  8
0
  6
Continuous
 62
     0
100
AcDbLine
 10
5.0
 20
6.499997138977051
 30
0.0
 11
5.0
 21
9.49999713897705
 31
0.0
  0
LINE
  5
141
330
4A
100
AcDbEntity
  8
0
  6
Continuous
 62
     0
100
AcDbLine
 10
9.0
 20
13.49999713897705
 30
0.0
 11
11.0
 21
13.49999713897705
 31
0.0
  0
LINE
  5
142
330
4A
100
AcDbEntity
  8
0
  6
Continuous
 62
     0
100
AcDbLine
 10
11.0
 20
11.33836078643799
 30
0.0
 11
11.0
 21
13.49999713897705
 31
0.0
  0
LINE
  5
143
330
4A
100
AcDbEntity
  8
0
  6
Continuous
 62
     0
100
AcDbLine
 10
4.60003662109375
 20
2.199993848800659
 30
0.0
 11
4.60003662109375
 21
3.499996900558472
 31
0.0
  0
LINE
  5
144
330
4A
100
AcDbEntity
  8
0
  6
Continuous
 62
     0
100
AcDbLine
 10
5.0
 20
1.199993848800659
 30
0.0
 11
5.0
 21
2.199993848800659
 31
0.0
  0
LINE
  5
145
330
4A
100
AcDbEntity
  8
0
  6
Continuous
 62
     0
100
AcDbLine
 10
0.7505764456015
 20
3.500002948091361
 30
0.0
 11
0.402243389844193
 21
2.200006147254101
 31
0.0
  0
LINE
  5
146
330
4A
100
AcDbEntity
  8
0
  6
Continuous
 62
     0
100
AcDbLine
 10
-0.750533937837359
 20
2.199996265881218
 30
0.0
 11
-0.402200912933684
 21
3.499992951571145
 31
0.0
  0
ARC
  5
147
330
4A
100
AcDbEntity
  8
0
  6
Continuous
 62
     0
100
AcDbCircle
 10
10.0
 20
1.199996948242188
 30
0.0
 40
6.0
100
AcDbArc
 50
269.9999974955218
 51
334.9999981659467
  0
ARC
  5
148
330
4A
100
AcDbEntity
  8
0
  6
DASHED
 62
     0
100
AcDbCircle
 10
77.841552734375
 20
32.11763000488281
 30
0.0
 40
8.800000190734863
100
AcDbArc
 50
100.0000005060238
 51
135.0000003416227
  0
ARC
  5
149
330
4A
100
AcDbEntity
  8
0
  6
Continuous
 62
     0
100
AcDbCircle
 10
85.0
 20
40.48783874511719
 30
0.0
 40
3.0
100
AcDbArc
 50
0.0
 51
100.0000005060238
  0
ARC
  5
14A
330
4A
100
AcDbEntity
  8
0
  6
Continuous
 62
     0
100
AcDbCircle
 10
77.841552734375
 20
32.11763000488281
 30
0.0
 40
10.0
100
AcDbArc
 50
100.0000005060238
 51
135.0000003416227
  0
ARC
  5
14B
330
4A
100
AcDbEntity
  8
0
  6
Continuous
 62
     0
100
AcDbCircle
 10
-7.0
 20
-1.800003051757812
 30
0.0
 40
3.0
100
AcDbArc
 50
179.999991348578
 51
270.0000006832453
  0
ARC
  5
14C
330
4A
100
AcDbEntity
  8
0
  6
Continuous
 62
     0
100
AcDbCircle
 10
85.0
 20
40.48783874511719
 30
0.0
 40
1.799999952316284
100
AcDbArc
 50
0.0
 51
100.0000005060238
  0
ARC
  5
14D
330
4A
100
AcDbEntity
  8
0
  6
Continuous
 62
     0
100
AcDbCircle
 10
82.7999267578125
 20
37.86598205566406
 30
0.0
 40
1.0
100
AcDbArc
 50
0.0
 51
100.0000005060238
  0
ARC
  5
14E
330
4A
100
AcDbEntity
  8
0
  6
Continuous
 62
     0
100
AcDbCircle
 10
85.0496826171875
 20
39.28886413574219
 30
0.0
 40
3.0
100
AcDbArc
 50
92.37285120327562
 51
156.8014040967914
  0
ARC
  5
14F
330
4A
100
AcDbEntity
  8
0
  6
Continuous
 62
     0
100
AcDbCircle
 10
-3.0
 20
11.33836078643799
 30
0.0
 40
8.0
100
AcDbArc
 50
179.999991348578
 51
258.4630461939067
  0
ARC
  5
150
330
4A
100
AcDbEntity
  8
0
  6
Continuous
 62
     0
100
AcDbCircle
 10
-9.0
 20
9.49999713897705
 30
0.0
 40
4.0
100
AcDbArc
 50
0.0
 51
90.00000250447816
  0
ARC
  5
151
330
4A
100
AcDbEntity
  8
0
  6
Continuous
 62
     0
100
AcDbCircle
 10
9.0
 20
9.49999713897705
 30
0.0
 40
4.0
100
AcDbArc
 50
90.00000250447816
 51
180.0000050089563
  0
ARC
  5
152
330
4A
100
AcDbEntity
  8
0
  6
Continuous
 62
     0
100
AcDbCircle
 10
3.0
 20
11.33836078643799
 30
0.0
 40
8.0
100
AcDbArc
 50
281.5369588150496
 51
359.9999999999999
  0
ARC
  5
153
330
4A
100
AcDbEntity
  8
0
  6
Continuous
 62
     0
100
AcDbCircle
 10
9.36284065246582
 20
2.199996948242188
 30
0.0
 40
1.0
100
AcDbArc
 50
269.9999974955218
 51
334.9999981659467
  0
ARC
  5
154
330
4A
100
AcDbEntity
  8
0
  6
DASHED
 62
     0
100
AcDbCircle
 10
9.362920761108398
 20
2.199996948242188
 30
0.0
 40
2.200000047683716
100
AcDbArc
 50
269.9999974955218
 51
334.9999981659467
  0
ARC
  5
155
330
4A
100
AcDbEntity
  8
0
  6
Continuous
 62
     0
100
AcDbCircle
 10
37.90023422241211
 20
13.70840358734131
 30
0.0
 40
20.0
100
AcDbArc
 50
95.00000150525099
 51
154.9999963447139
  0
ARC
  5
156
330
4A
100
AcDbEntity
  8
0
  6
Continuous
 62
     0
100
AcDbCircle
 10
37.41223907470703
 20
12.66189002990723
 30
0.0
 40
14.0
100
AcDbArc
 50
95.00000150525099
 51
154.9999963447139
  0
ARC
  5
157
330
4A
100
AcDbEntity
  8
0
  6
DASHED
 62
     0
100
AcDbCircle
 10
37.90032958984375
 20
13.70843029022217
 30
0.0
 40
15.80000019073486
100
AcDbArc
 50
95.00000150525099
 51
154.9999963447139
  0
ARC
  5
158
330
4A
100
AcDbEntity
  8
0
  6
DASHED
 62
     0
100
AcDbCircle
 10
37.90023422241211
 20
13.70840358734131
 30
0.0
 40
17.0
100
AcDbArc
 50
95.00000150525099
 51
154.9999963447139
  0
ARC
  5
159
330
4A
100
AcDbEntity
  8
0
  6
DASHED
 62
     0
100
AcDbCircle
 10
37.90032958984375
 20
13.70843029022217
 30
0.0
 40
18.79999923706055
100
AcDbArc
 50
95.00000150525099
 51
154.9999963447139
  0
DIMENSION
  5
15A
330
4A
100
AcDbEntity
  8
0
 62
     0
100
AcDbDimension
  2
*D11
 10
88.0
 20
70.09814453124999
 30
0.0
 11
36.98334939575195
 21
70.09814453125
 31
0.0
 70
   160
 71
     5
 42
97.99999999999999
  3
ISO-25
100
AcDbAlignedDimension
 13
-10.0
 23
1.199996948242188
 33
0.0
 14
88.0
 24
40.48783874511719
 34
0.0
 50
180.0
100
AcDbRotatedDimension
1001
ACAD
1000
DSTYLE
1002
{
1070
   178
1070
     1
1070
   147
1040
0.800000011920929
1070
    77
1070
     1
1070
    74
1070
     0
1070
    73
1070
     0
1070
    42
1040
2.54
1070
    44
1040
1.0
1070
    76
1070
     0
1070
    75
1070
     0
1070
   279
1070
     0
1070
   271
1070
     0
1070
   144
1040
1.0
1070
   278
1070
    46
1070
   173
1070
     1
1070
    41
1040
3.0
1070
   140
1040
3.200000047683716
1070
   344
1005
AF
1070
   343
1005
AF
1002
}
  0
DIMENSION
  5
167
330
4A
100
AcDbEntity
  8
0
 62
     0
100
AcDbDimension
  2
*D12
 10
88.0
 20
61.51486587524413
 30
0.0
 11
45.98875482177734
 21
61.51486587524414
 31
0.0
 70
   160
 71
     5
 42
78.00009155273433
  3
ISO-25
100
AcDbAlignedDimension
 13
9.999910354614258
 23
1.199996948242188
 33
0.0
 14
88.0
 24
44.06312561035156
 34
0.0
 50
180.0
100
AcDbRotatedDimension
1001
ACAD
1000
DSTYLE
1002
{
1070
   178
1070
     1
1070
   147
1040
0.800000011920929
1070
    77
1070
     1
1070
    74
1070
     0
1070
    73
1070
     0
1070
    42
1040
2.54
1070
    44
1040
1.0
1070
    76
1070
     1
1070
    75
1070
     0
1070
   279
1070
     0
1070
   271
1070
     0
1070
   144
1040
1.000000024453159
1070
   278
1070
    46
1070
   173
1070
     1
1070
    41
1040
3.0
1070
   140
1040
3.200000047683716
1070
   344
1005
AF
1070
   343
1005
AF
1002
}
  0
DIMENSION
  5
173
330
4A
100
AcDbEntity
  8
0
 62
     0
100
AcDbDimension
  2
*D13
 10
112.3307958374024
 20
-16.5121612548828
 30
0.0
 11
112.3307958374023
 21
16.44135720825195
 31
0.0
 70
   160
 71
     5
 42
60.0
  3
ISO-25
100
AcDbAlignedDimension
 13
85.0
 23
43.48783874511719
 33
0.0
 14
86.7999267578125
 24
-16.51216125488281
 34
0.0
 50
90.00000000000001
100
AcDbRotatedDimension
1001
ACAD
1000
DSTYLE
1002
{
1070
   178
1070
     1
1070
   147
1040
0.800000011920929
1070
    77
1070
     1
1070
    74
1070
     0
1070
    73
1070
     0
1070
    42
1040
2.54
1070
    44
1040
1.0
1070
    76
1070
     0
1070
    75
1070
     0
1070
   279
1070
     0
1070
   271
1070
     0
1070
   144
1040
1.0
1070
   278
1070
    46
1070
   173
1070
     1
1070
    41
1040
3.0
1070
   140
1040
3.200000047683716
1070
   344
1005
AF
1070
   343
1005
AF
1002
}
  0
DIMENSION
  5
180
330
4A
100
AcDbEntity
  8
0
 62
     0
100
AcDbDimension
  2
*D14
 10
88.0
 20
53.91655349731445
 30
0.0
 11
54.1499028930664
 21
53.91655349731445
 31
0.0
 70
   160
 71
     5
 42
63.34594345092773
  3
ISO-25
100
AcDbAlignedDimension
 13
24.65405464172363
 23
32.62591171264648
 33
0.0
 14
88.0
 24
40.48783874511719
 34
0.0
 50
180.0
100
AcDbRotatedDimension
1001
ACAD
1000
DSTYLE
1002
{
1070
   178
1070
     1
1070
   147
1040
0.800000011920929
1070
    77
1070
     1
1070
    74
1070
     0
1070
    73
1070
     0
1070
    42
1040
2.54
1070
    44
1040
1.0
1070
    76
1070
     1
1070
    75
1070
     0
1070
   279
1070
     0
1070
   271
1070
     1
1070
   144
1040
0.999999969889965
1070
   278
1070
    46
1070
   173
1070
     1
1070
    41
1040
3.0
1070
   140
1040
3.200000047683716
1070
   344
1005
AF
1070
   343
1005
AF
1002
}
  0
DIMENSION
  5
18C
330
4A
100
AcDbEntity
  8
0
 62
     0
100
AcDbDimension
  2
*D15
 10
9.999910354614265
 20
61.51486587524414
 30
0.0
 11
1.500955177307129
 21
61.51486587524414
 31
0.0
 70
   160
 71
     5
 42
19.99991035461426
  3
ISO-25
100
AcDbAlignedDimension
 13
-10.0
 23
1.199996948242188
 33
0.0
 14
9.999910354614258
 24
1.199996948242188
 34
0.0
 50
180.0
100
AcDbRotatedDimension
1001
ACAD
1000
DSTYLE
1002
{
1070
   178
1070
     1
1070
   147
1040
0.800000011920929
1070
    77
1070
     1
1070
    74
1070
     0
1070
    73
1070
     0
1070
    42
1040
2.54
1070
    44
1040
1.0
1070
    76
1070
     1
1070
    75
1070
     1
1070
   279
1070
     0
1070
   271
1070
     0
1070
   144
1040
1.0
1070
   278
1070
    46
1070
   173
1070
     1
1070
    41
1040
3.0
1070
   140
1040
3.200000047683716
1070
   344
1005
AF
1070
   343
1005
AF
1002
}
  0
ENDBLK
  5
4C
330
4A
100
AcDbEntity
  8
0
100
AcDbBlockEnd
  0
BLOCK
  5
4E
330
4D
100
AcDbEntity
  8
0
100
AcDbBlockBegin
  2
DTL0004
 70
     0
 10
0.0
 20
0.0
 30
0.0
  3
DTL0004
  1

  0
POINT
  5
197
330
4D
100
AcDbEntity
  8
0
 62
     0
100
AcDbPoint
 10
0.0
 20
0.0
 30
0.0
  0
POINT
  5
198
330
4D
100
AcDbEntity
  8
0
 62
     0
100
AcDbPoint
 10
0.0
 20
0.0
 30
0.0
  0
POINT
  5
199
330
4D
100
AcDbEntity
  8
0
 62
     0
100
AcDbPoint
 10
0.0
 20
-2.5
 30
0.0
  0
POINT
  5
19A
330
4D
100
AcDbEntity
  8
0
 62
     0
100
AcDbPoint
 10
0.0
 20
-4.5
 30
0.0
  0
LINE
  5
19B
330
4D
100
AcDbEntity
  8
0
  6
Continuous
 62
     0
100
AcDbLine
 10
-13.0
 20
-2.5
 30
0.0
 11
-13.0
 21
-4.5
 31
0.0
  0
LINE
  5
19C
330
4D
100
AcDbEntity
  8
0
  6
Continuous
 62
     0
100
AcDbLine
 10
-10.0
 20
-2.5
 30
0.0
 11
-10.0
 21
-4.0
 31
0.0
  0
LINE
  5
19D
330
4D
100
AcDbEntity
  8
0
  6
Continuous
 62
     0
100
AcDbLine
 10
-5.0
 20
-2.5
 30
0.0
 11
-5.0
 21
-4.0
 31
0.0
  0
LINE
  5
19E
330
4D
100
AcDbEntity
  8
0
  6
Continuous
 62
     0
100
AcDbLine
 10
0.0
 20
-2.5
 30
0.0
 11
0.0
 21
-4.5
 31
0.0
  0
MTEXT
  5
19F
330
4D
100
AcDbEntity
  8
0
 62
     1
100
AcDbMText
 10
-1.536675304174423
 20
-6.831439018249512
 30
0.0
 40
2.0
 41
0.0
 71
     7
 72
     1
  1
{\W1;30}
 73
     1
 44
1.0
  0
MTEXT
  5
1A0
330
4D
100
AcDbEntity
  8
0
 62
     1
100
AcDbMText
 10
-14.53667506575584
 20
-6.831439018249512
 30
0.0
 40
2.0
 41
0.0
 71
     7
 72
     1
  1
{\W1;17}
 73
     1
 44
1.0
  0
ENDBLK
  5
4F
330
4D
100
AcDbEntity
  8
0
100
AcDbBlockEnd
  0
BLOCK
  5
B0
330
AF
100
AcDbEntity
  8
0
100
AcDbBlockBegin
  2
_OPEN30
 70
     0
 10
0.0
 20
0.0
 30
0.0
  3
_OPEN30
  1

  0
LINE
  5
B2
330
AF
100
AcDbEntity
  8
0
  6
ByBlock
 62
     0
370
    -2
100
AcDbLine
 10
-1.0
 20
0.267949
 30
0.0
 11
0.0
 21
0.0
 31
0.0
  0
LINE
  5
B3
330
AF
100
AcDbEntity
  8
0
  6
ByBlock
 62
     0
370
    -2
100
AcDbLine
 10
0.0
 20
0.0
 30
0.0
 11
-1.0
 21
-0.267949
 31
0.0
  0
LINE
  5
B4
330
AF
100
AcDbEntity
  8
0
  6
ByBlock
 62
     0
370
    -2
100
AcDbLine
 10
0.0
 20
0.0
 30
0.0
 11
-1.0
 21
0.0
 31
0.0
  0
ENDBLK
  5
B1
330
AF
100
AcDbEntity
  8
0
100
AcDbBlockEnd
  0
BLOCK
  5
B7
330
B6
100
AcDbEntity
  8
0
100
AcDbBlockBegin
  2
*D6
 70
     1
 10
0.0
 20
0.0
 30
0.0
  3
*D6
  1

  0
LINE
  5
B9
330
B6
100
AcDbEntity
  8
0
 62
     0
370
    -2
100
AcDbLine
 10
-10.0
 20
3.739996948242188
 30
0.0
 11
-9.999999999999986
 21
71.09814453125
 31
0.0
  0
LINE
  5
BA
330
B6
100
AcDbEntity
  8
0
 62
     0
370
    -2
100
AcDbLine
 10
88.0
 20
43.02783874511719
 30
0.0
 11
88.0
 21
71.09814453124999
 31
0.0
  0
LINE
  5
BB
330
B6
100
AcDbEntity
  8
0
 62
     0
370
    -2
100
AcDbLine
 10
-6.999999999999986
 20
70.09814453125
 30
0.0
 11
85.0
 21
70.09814453124999
 31
0.0
  0
INSERT
  5
BC
330
B6
100
AcDbEntity
  8
0
 62
     0
370
    -2
100
AcDbBlockReference
  2
_OPEN30
 10
-9.999999999999986
 20
70.09814453125
 30
0.0
 41
3.0
 42
3.0
 43
3.0
 50
180.0
  0
INSERT
  5
BD
330
B6
100
AcDbEntity
  8
0
 62
     0
370
    -2
100
AcDbBlockReference
  2
_OPEN30
 10
88.0
 20
70.09814453124999
 30
0.0
 41
3.0
 42
3.0
 43
3.0
 50
360.0
  0
MTEXT
  5
BE
330
B6
100
AcDbEntity
  8
0
 62
     1
100
AcDbMText
 10
36.98334939575195
 20
72.51254456722737
 30
0.0
 40
3.200000047683716
 41
0.0
 71
     5
 72
     1
  1
98
 73
     1
 44
1.0
  0
POINT
  5
BF
330
B6
100
AcDbEntity
  8
Defpoints
 62
     0
100
AcDbPoint
 10
-10.0
 20
1.199996948242188
 30
0.0
  0
POINT
  5
C0
330
B6
100
AcDbEntity
  8
Defpoints
 62
     0
100
AcDbPoint
 10
88.0
 20
40.48783874511719
 30
0.0
  0
POINT
  5
C1
330
B6
100
AcDbEntity
  8
Defpoints
 62
     0
100
AcDbPoint
 10
88.00000000000001
 20
70.09814453125
 30
0.0
  0
ENDBLK
  5
B8
330
B6
100
AcDbEntity
  8
0
100
AcDbBlockEnd
  0
BLOCK
  5
C4
330
C3
100
AcDbEntity
  8
0
100
AcDbBlockBegin
  2
*D7
 70
     1
 10
0.0
 20
0.0
 30
0.0
  3
*D7
  1

  0
LINE
  5
C6
330
C3
100
AcDbEntity
  8
0
 62
     0
370
    -2
100
AcDbLine
 10
9.999910354614258
 20
3.739996948242188
 30
0.0
 11
9.999910354614272
 21
62.51486587524414
 31
0.0
  0
LINE
  5
C7
330
C3
100
AcDbEntity
  8
0
 62
     0
370
    -2
100
AcDbLine
 10
12.99991035461427
 20
61.51486587524414
 30
0.0
 11
85.0
 21
61.51486587524413
 31
0.0
  0
INSERT
  5
C8
330
C3
100
AcDbEntity
  8
0
 62
     0
370
    -2
100
AcDbBlockReference
  2
_OPEN30
 10
9.999910354614272
 20
61.51486587524414
 30
0.0
 41
3.0
 42
3.0
 43
3.0
 50
180.0
  0
INSERT
  5
C9
330
C3
100
AcDbEntity
  8
0
 62
     0
370
    -2
100
AcDbBlockReference
  2
_OPEN30
 10
88.0
 20
61.51486587524413
 30
0.0
 41
3.0
 42
3.0
 43
3.0
 50
360.0
  0
MTEXT
  5
CA
330
C3
100
AcDbEntity
  8
0
 62
     1
100
AcDbMText
 10
45.98875482177734
 20
63.92926591122151
 30
0.0
 40
3.200000047683716
 41
0.0
 71
     5
 72
     1
  1
78
 73
     1
 44
1.0
  0
POINT
  5
CB
330
C3
100
AcDbEntity
  8
Defpoints
 62
     0
100
AcDbPoint
 10
9.999910354614258
 20
1.199996948242188
 30
0.0
  0
POINT
  5
CC
330
C3
100
AcDbEntity
  8
Defpoints
 62
     0
100
AcDbPoint
 10
88.0
 20
44.06312561035156
 30
0.0
  0
POINT
  5
CD
330
C3
100
AcDbEntity
  8
Defpoints
 62
     0
100
AcDbPoint
 10
88.00000000000001
 20
61.51486587524414
 30
0.0
  0
ENDBLK
  5
C5
330
C3
100
AcDbEntity
  8
0
100
AcDbBlockEnd
  0
BLOCK
  5
D0
330
CF
100
AcDbEntity
  8
0
100
AcDbBlockBegin
  2
*D8
 70
     1
 10
0.0
 20
0.0
 30
0.0
  3
*D8
  1

  0
LINE
  5
D2
330
CF
100
AcDbEntity
  8
0
 62
     0
370
    -2
100
AcDbLine
 10
87.54
 20
43.48783874511719
 30
0.0
 11
113.3307958374023
 21
43.4878387451172
 31
0.0
  0
LINE
  5
D3
330
CF
100
AcDbEntity
  8
0
 62
     0
370
    -2
100
AcDbLine
 10
89.3399267578125
 20
-16.51216125488281
 30
0.0
 11
113.3307958374024
 21
-16.5121612548828
 31
0.0
  0
LINE
  5
D4
330
CF
100
AcDbEntity
  8
0
 62
     0
370
    -2
100
AcDbLine
 10
112.3307958374023
 20
40.4878387451172
 30
0.0
 11
112.3307958374024
 21
-13.5121612548828
 31
0.0
  0
INSERT
  5
D5
330
CF
100
AcDbEntity
  8
0
 62
     0
370
    -2
100
AcDbBlockReference
  2
_OPEN30
 10
112.3307958374023
 20
43.4878387451172
 30
0.0
 41
3.0
 42
3.0
 43
3.0
 50
90.00000000000001
  0
INSERT
  5
D6
330
CF
100
AcDbEntity
  8
0
 62
     0
370
    -2
100
AcDbBlockReference
  2
_OPEN30
 10
112.3307958374024
 20
-16.5121612548828
 30
0.0
 41
3.0
 42
3.0
 43
3.0
 50
270.0
  0
MTEXT
  5
D7
330
CF
100
AcDbEntity
  8
0
 62
     1
100
AcDbMText
 10
109.916395801425
 20
16.44135720825195
 30
0.0
 40
3.200000047683716
 41
0.0
 71
     5
 72
     1
  1
60
 11
-4.736951571734001E-16
 21
1.0
 31
0.0
 73
     1
 44
1.0
  0
POINT
  5
D8
330
CF
100
AcDbEntity
  8
Defpoints
 62
     0
100
AcDbPoint
 10
85.0
 20
43.48783874511719
 30
0.0
  0
POINT
  5
D9
330
CF
100
AcDbEntity
  8
Defpoints
 62
     0
100
AcDbPoint
 10
86.7999267578125
 20
-16.51216125488281
 30
0.0
  0
POINT
  5
DA
330
CF
100
AcDbEntity
  8
Defpoints
 62
     0
100
AcDbPoint
 10
112.3297958374023
 20
-16.5121612548828
 30
0.0
  0
ENDBLK
  5
D1
330
CF
100
AcDbEntity
  8
0
100
AcDbBlockEnd
  0
BLOCK
  5
DD
330
DC
100
AcDbEntity
  8
0
100
AcDbBlockBegin
  2
*D9
 70
     1
 10
0.0
 20
0.0
 30
0.0
  3
*D9
  1

  0
LINE
  5
DF
330
DC
100
AcDbEntity
  8
0
 62
     0
370
    -2
100
AcDbLine
 10
24.65405464172363
 20
35.16591171264648
 30
0.0
 11
24.65405464172363
 21
54.91655349731445
 31
0.0
  0
LINE
  5
E0
330
DC
100
AcDbEntity
  8
0
 62
     0
370
    -2
100
AcDbLine
 10
27.65405464172363
 20
53.91655349731445
 30
0.0
 11
85.0
 21
53.91655349731445
 31
0.0
  0
INSERT
  5
E1
330
DC
100
AcDbEntity
  8
0
 62
     0
370
    -2
100
AcDbBlockReference
  2
_OPEN30
 10
24.65405464172363
 20
53.91655349731445
 30
0.0
 41
3.0
 42
3.0
 43
3.0
 50
180.0
  0
INSERT
  5
E2
330
DC
100
AcDbEntity
  8
0
 62
     0
370
    -2
100
AcDbBlockReference
  2
_OPEN30
 10
88.0
 20
53.91655349731445
 30
0.0
 41
3.0
 42
3.0
 43
3.0
 50
360.0
  0
MTEXT
  5
E3
330
DC
100
AcDbEntity
  8
0
 62
     1
100
AcDbMText
 10
54.1499028930664
 20
56.33735353338719
 30
0.0
 40
3.200000047683716
 41
0.0
 71
     5
 72
     1
  1
63.3
 73
     1
 44
1.0
  0
POINT
  5
E4
330
DC
100
AcDbEntity
  8
Defpoints
 62
     0
100
AcDbPoint
 10
24.65405464172363
 20
32.62591171264648
 30
0.0
  0
POINT
  5
E5
330
DC
100
AcDbEntity
  8
Defpoints
 62
     0
100
AcDbPoint
 10
88.0
 20
40.48783874511719
 30
0.0
  0
POINT
  5
E6
330
DC
100
AcDbEntity
  8
Defpoints
 62
     0
100
AcDbPoint
 10
88.0
 20
53.91655349731445
 30
0.0
  0
ENDBLK
  5
DE
330
DC
100
AcDbEntity
  8
0
100
AcDbBlockEnd
  0
BLOCK
  5
E9
330
E8
100
AcDbEntity
  8
0
100
AcDbBlockBegin
  2
*D10
 70
     1
 10
0.0
 20
0.0
 30
0.0
  3
*D10
  1

  0
LINE
  5
EB
330
E8
100
AcDbEntity
  8
0
 62
     0
370
    -2
100
AcDbLine
 10
-6.999999999999993
 20
61.51486587524414
 30
0.0
 11
6.999910354614265
 21
61.51486587524414
 31
0.0
  0
INSERT
  5
EC
330
E8
100
AcDbEntity
  8
0
 62
     0
370
    -2
100
AcDbBlockReference
  2
_OPEN30
 10
-9.999999999999993
 20
61.51486587524414
 30
0.0
 41
3.0
 42
3.0
 43
3.0
 50
180.0
  0
INSERT
  5
ED
330
E8
100
AcDbEntity
  8
0
 62
     0
370
    -2
100
AcDbBlockReference
  2
_OPEN30
 10
9.999910354614265
 20
61.51486587524414
 30
0.0
 41
3.0
 42
3.0
 43
3.0
  0
MTEXT
  5
EE
330
E8
100
AcDbEntity
  8
0
 62
     1
100
AcDbMText
 10
1.500955177307129
 20
63.92926591122151
 30
0.0
 40
3.200000047683716
 41
0.0
 71
     5
 72
     1
  1
20
 73
     1
 44
1.0
  0
POINT
  5
EF
330
E8
100
AcDbEntity
  8
Defpoints
 62
     0
100
AcDbPoint
 10
-10.0
 20
1.199996948242188
 30
0.0
  0
POINT
  5
F0
330
E8
100
AcDbEntity
  8
Defpoints
 62
     0
100
AcDbPoint
 10
9.999910354614258
 20
1.199996948242188
 30
0.0
  0
POINT
  5
F1
330
E8
100
AcDbEntity
  8
Defpoints
 62
     0
100
AcDbPoint
 10
9.999910354614265
 20
61.51486587524414
 30
0.0
  0
ENDBLK
  5
EA
330
E8
100
AcDbEntity
  8
0
100
AcDbBlockEnd
  0
BLOCK
  5
15C
330
15B
100
AcDbEntity
  8
0
100
AcDbBlockBegin
  2
*D11
 70
     1
 10
0.0
 20
0.0
 30
0.0
  3
*D11
  1

  0
LINE
  5
15E
330
15B
100
AcDbEntity
  8
0
 62
     0
370
    -2
100
AcDbLine
 10
-10.0
 20
3.739996948242188
 30
0.0
 11
-9.999999999999986
 21
71.09814453125
 31
0.0
  0
LINE
  5
15F
330
15B
100
AcDbEntity
  8
0
 62
     0
370
    -2
100
AcDbLine
 10
88.0
 20
43.02783874511719
 30
0.0
 11
88.0
 21
71.09814453124999
 31
0.0
  0
LINE
  5
160
330
15B
100
AcDbEntity
  8
0
 62
     0
370
    -2
100
AcDbLine
 10
-6.999999999999986
 20
70.09814453125
 30
0.0
 11
85.0
 21
70.09814453124999
 31
0.0
  0
INSERT
  5
161
330
15B
100
AcDbEntity
  8
0
 62
     0
370
    -2
100
AcDbBlockReference
  2
_OPEN30
 10
-9.999999999999986
 20
70.09814453125
 30
0.0
 41
3.0
 42
3.0
 43
3.0
 50
180.0
  0
INSERT
  5
162
330
15B
100
AcDbEntity
  8
0
 62
     0
370
    -2
100
AcDbBlockReference
  2
_OPEN30
 10
88.0
 20
70.09814453124999
 30
0.0
 41
3.0
 42
3.0
 43
3.0
 50
360.0
  0
MTEXT
  5
163
330
15B
100
AcDbEntity
  8
0
 62
     1
100
AcDbMText
 10
36.98334939575195
 20
72.51254456722737
 30
0.0
 40
3.200000047683716
 41
0.0
 71
     5
 72
     1
  1
98
 73
     1
 44
1.0
  0
POINT
  5
164
330
15B
100
AcDbEntity
  8
Defpoints
 62
     0
100
AcDbPoint
 10
-10.0
 20
1.199996948242188
 30
0.0
  0
POINT
  5
165
330
15B
100
AcDbEntity
  8
Defpoints
 62
     0
100
AcDbPoint
 10
88.0
 20
40.48783874511719
 30
0.0
  0
POINT
  5
166
330
15B
100
AcDbEntity
  8
Defpoints
 62
     0
100
AcDbPoint
 10
88.00000000000001
 20
70.09814453125
 30
0.0
  0
ENDBLK
  5
15D
330
15B
100
AcDbEntity
  8
0
100
AcDbBlockEnd
  0
BLOCK
  5
169
330
168
100
AcDbEntity
  8
0
100
AcDbBlockBegin
  2
*D12
 70
     1
 10
0.0
 20
0.0
 30
0.0
  3
*D12
  1

  0
LINE
  5
16B
330
168
100
AcDbEntity
  8
0
 62
     0
370
    -2
100
AcDbLine
 10
9.999910354614258
 20
3.739996948242188
 30
0.0
 11
9.999910354614272
 21
62.51486587524414
 31
0.0
  0
LINE
  5
16C
330
168
100
AcDbEntity
  8
0
 62
     0
370
    -2
100
AcDbLine
 10
12.99991035461427
 20
61.51486587524414
 30
0.0
 11
85.0
 21
61.51486587524413
 31
0.0
  0
INSERT
  5
16D
330
168
100
AcDbEntity
  8
0
 62
     0
370
    -2
100
AcDbBlockReference
  2
_OPEN30
 10
9.999910354614272
 20
61.51486587524414
 30
0.0
 41
3.0
 42
3.0
 43
3.0
 50
180.0
  0
INSERT
  5
16E
330
168
100
AcDbEntity
  8
0
 62
     0
370
    -2
100
AcDbBlockReference
  2
_OPEN30
 10
88.0
 20
61.51486587524413
 30
0.0
 41
3.0
 42
3.0
 43
3.0
 50
360.0
  0
MTEXT
  5
16F
330
168
100
AcDbEntity
  8
0
 62
     1
100
AcDbMText
 10
45.98875482177734
 20
63.92926591122151
 30
0.0
 40
3.200000047683716
 41
0.0
 71
     5
 72
     1
  1
78
 73
     1
 44
1.0
  0
POINT
  5
170
330
168
100
AcDbEntity
  8
Defpoints
 62
     0
100
AcDbPoint
 10
9.999910354614258
 20
1.199996948242188
 30
0.0
  0
POINT
  5
171
330
168
100
AcDbEntity
  8
Defpoints
 62
     0
100
AcDbPoint
 10
88.0
 20
44.06312561035156
 30
0.0
  0
POINT
  5
172
330
168
100
AcDbEntity
  8
Defpoints
 62
     0
100
AcDbPoint
 10
88.00000000000001
 20
61.51486587524414
 30
0.0
  0
ENDBLK
  5
16A
330
168
100
AcDbEntity
  8
0
100
AcDbBlockEnd
  0
BLOCK
  5
175
330
174
100
AcDbEntity
  8
0
100
AcDbBlockBegin
  2
*D13
 70
     1
 10
0.0
 20
0.0
 30
0.0
  3
*D13
  1

  0
LINE
  5
177
330
174
100
AcDbEntity
  8
0
 62
     0
370
    -2
100
AcDbLine
 10
87.54
 20
43.48783874511719
 30
0.0
 11
113.3307958374023
 21
43.4878387451172
 31
0.0
  0
LINE
  5
178
330
174
100
AcDbEntity
  8
0
 62
     0
370
    -2
100
AcDbLine
 10
89.3399267578125
 20
-16.51216125488281
 30
0.0
 11
113.3307958374024
 21
-16.5121612548828
 31
0.0
  0
LINE
  5
179
330
174
100
AcDbEntity
  8
0
 62
     0
370
    -2
100
AcDbLine
 10
112.3307958374023
 20
40.4878387451172
 30
0.0
 11
112.3307958374024
 21
-13.5121612548828
 31
0.0
  0
INSERT
  5
17A
330
174
100
AcDbEntity
  8
0
 62
     0
370
    -2
100
AcDbBlockReference
  2
_OPEN30
 10
112.3307958374023
 20
43.4878387451172
 30
0.0
 41
3.0
 42
3.0
 43
3.0
 50
90.00000000000001
  0
INSERT
  5
17B
330
174
100
AcDbEntity
  8
0
 62
     0
370
    -2
100
AcDbBlockReference
  2
_OPEN30
 10
112.3307958374024
 20
-16.5121612548828
 30
0.0
 41
3.0
 42
3.0
 43
3.0
 50
270.0
  0
MTEXT
  5
17C
330
174
100
AcDbEntity
  8
0
 62
     1
100
AcDbMText
 10
109.916395801425
 20
16.44135720825195
 30
0.0
 40
3.200000047683716
 41
0.0
 71
     5
 72
     1
  1
60
 11
-4.736951571734001E-16
 21
1.0
 31
0.0
 73
     1
 44
1.0
  0
POINT
  5
17D
330
174
100
AcDbEntity
  8
Defpoints
 62
     0
100
AcDbPoint
 10
85.0
 20
43.48783874511719
 30
0.0
  0
POINT
  5
17E
330
174
100
AcDbEntity
  8
Defpoints
 62
     0
100
AcDbPoint
 10
86.7999267578125
 20
-16.51216125488281
 30
0.0
  0
POINT
  5
17F
330
174
100
AcDbEntity
  8
Defpoints
 62
     0
100
AcDbPoint
 10
112.3297958374023
 20
-16.5121612548828
 30
0.0
  0
ENDBLK
  5
176
330
174
100
AcDbEntity
  8
0
100
AcDbBlockEnd
  0
BLOCK
  5
182
330
181
100
AcDbEntity
  8
0
100
AcDbBlockBegin
  2
*D14
 70
     1
 10
0.0
 20
0.0
 30
0.0
  3
*D14
  1

  0
LINE
  5
184
330
181
100
AcDbEntity
  8
0
 62
     0
370
    -2
100
AcDbLine
 10
24.65405464172363
 20
35.16591171264648
 30
0.0
 11
24.65405464172363
 21
54.91655349731445
 31
0.0
  0
LINE
  5
185
330
181
100
AcDbEntity
  8
0
 62
     0
370
    -2
100
AcDbLine
 10
27.65405464172363
 20
53.91655349731445
 30
0.0
 11
85.0
 21
53.91655349731445
 31
0.0
  0
INSERT
  5
186
330
181
100
AcDbEntity
  8
0
 62
     0
370
    -2
100
AcDbBlockReference
  2
_OPEN30
 10
24.65405464172363
 20
53.91655349731445
 30
0.0
 41
3.0
 42
3.0
 43
3.0
 50
180.0
  0
INSERT
  5
187
330
181
100
AcDbEntity
  8
0
 62
     0
370
    -2
100
AcDbBlockReference
  2
_OPEN30
 10
88.0
 20
53.91655349731445
 30
0.0
 41
3.0
 42
3.0
 43
3.0
 50
360.0
  0
MTEXT
  5
188
330
181
100
AcDbEntity
  8
0
 62
     1
100
AcDbMText
 10
54.1499028930664
 20
56.33735353338719
 30
0.0
 40
3.200000047683716
 41
0.0
 71
     5
 72
     1
  1
63.3
 73
     1
 44
1.0
  0
POINT
  5
189
330
181
100
AcDbEntity
  8
Defpoints
 62
     0
100
AcDbPoint
 10
24.65405464172363
 20
32.62591171264648
 30
0.0
  0
POINT
  5
18A
330
181
100
AcDbEntity
  8
Defpoints
 62
     0
100
AcDbPoint
 10
88.0
 20
40.48783874511719
 30
0.0
  0
POINT
  5
18B
330
181
100
AcDbEntity
  8
Defpoints
 62
     0
100
AcDbPoint
 10
88.0
 20
53.91655349731445
 30
0.0
  0
ENDBLK
  5
183
330
181
100
AcDbEntity
  8
0
100
AcDbBlockEnd
  0
BLOCK
  5
18E
330
18D
100
AcDbEntity
  8
0
100
AcDbBlockBegin
  2
*D15
 70
     1
 10
0.0
 20
0.0
 30
0.0
  3
*D15
  1

  0
LINE
  5
190
330
18D
100
AcDbEntity
  8
0
 62
     0
370
    -2
100
AcDbLine
 10
-6.999999999999993
 20
61.51486587524414
 30
0.0
 11
6.999910354614265
 21
61.51486587524414
 31
0.0
  0
INSERT
  5
191
330
18D
100
AcDbEntity
  8
0
 62
     0
370
    -2
100
AcDbBlockReference
  2
_OPEN30
 10
-9.999999999999993
 20
61.51486587524414
 30
0.0
 41
3.0
 42
3.0
 43
3.0
 50
180.0
  0
INSERT
  5
192
330
18D
100
AcDbEntity
  8
0
 62
     0
370
    -2
100
AcDbBlockReference
  2
_OPEN30
 10
9.999910354614265
 20
61.51486587524414
 30
0.0
 41
3.0
 42
3.0
 43
3.0
  0
MTEXT
  5
193
330
18D
100
AcDbEntity
  8
0
 62
     1
100
AcDbMText
 10
1.500955177307129
 20
63.92926591122151
 30
0.0
 40
3.200000047683716
 41
0.0
 71
     5
 72
     1
  1
20
 73
     1
 44
1.0
  0
POINT
  5
194
330
18D
100
AcDbEntity
  8
Defpoints
 62
     0
100
AcDbPoint
 10
-10.0
 20
1.199996948242188
 30
0.0
  0
POINT
  5
195
330
18D
100
AcDbEntity
  8
Defpoints
 62
     0
100
AcDbPoint
 10
9.999910354614258
 20
1.199996948242188
 30
0.0
  0
POINT
  5
196
330
18D
100
AcDbEntity
  8
Defpoints
 62
     0
100
AcDbPoint
 10
9.999910354614265
 20
61.51486587524414
 30
0.0
  0
ENDBLK
  5
18F
330
18D
100
AcDbEntity
  8
0
100
AcDbBlockEnd
  0
BLOCK
  5
368
330
367
100
AcDbEntity
  8
0
100
AcDbBlockBegin
  2
*D16
 70
     1
 10
0.0
 20
0.0
 30
0.0
  3
*D16
  1

  0
LINE
  5
36A
330
367
100
AcDbEntity
  8
0
 62
     0
370
    -2
100
AcDbLine
 10
55.942626953125
 20
40.65344909667969
 30
0.0
 11
55.942626953125
 21
49.82580947875977
 31
0.0
  0
LINE
  5
36B
330
367
100
AcDbEntity
  8
0
 62
     0
370
    -2
100
AcDbLine
 10
6.942630767822266
 20
19.22188858032226
 30
0.0
 11
6.942630767822266
 21
49.82580947875977
 31
0.0
  0
LINE
  5
36C
330
367
100
AcDbEntity
  8
0
 62
     0
370
    -2
100
AcDbLine
 10
52.942626953125
 20
47.82580947875977
 30
0.0
 11
9.942630767822266
 21
47.82580947875977
 31
0.0
  0
INSERT
  5
36D
330
367
100
AcDbEntity
  8
0
 62
     0
370
    -2
100
AcDbBlockReference
  2
_OPEN30
 10
55.942626953125
 20
47.82580947875977
 30
0.0
 41
3.0
 42
3.0
 43
3.0
  0
INSERT
  5
36E
330
367
100
AcDbEntity
  8
0
 62
     0
370
    -2
100
AcDbBlockReference
  2
_OPEN30
 10
6.942630767822266
 20
47.82580947875977
 30
0.0
 41
3.0
 42
3.0
 43
3.0
 50
180.0
  0
MTEXT
  5
36F
330
367
100
AcDbEntity
  8
0
 62
     1
100
AcDbMText
 10
31.44463076782227
 20
50.24020951473713
 30
0.0
 40
3.200000047683716
 41
0.0
 71
     5
 72
     1
  1
98
 73
     1
 44
1.0
  0
POINT
  5
370
330
367
100
AcDbEntity
  8
Defpoints
 62
     0
100
AcDbPoint
 10
55.942626953125
 20
38.11344909667969
 30
0.0
  0
POINT
  5
371
330
367
100
AcDbEntity
  8
Defpoints
 62
     0
100
AcDbPoint
 10
6.942630767822266
 20
16.68188858032227
 30
0.0
  0
POINT
  5
372
330
367
100
AcDbEntity
  8
Defpoints
 62
     0
100
AcDbPoint
 10
6.942630767822266
 20
47.82580947875977
 30
0.0
  0
ENDBLK
  5
369
330
367
100
AcDbEntity
  8
0
100
AcDbBlockEnd
  0
BLOCK
  5
375
330
374
100
AcDbEntity
  8
0
100
AcDbBlockBegin
  2
*D17
 70
     1
 10
0.0
 20
0.0
 30
0.0
  3
*D17
  1

  0
MTEXT
  5
37E
330
374
100
AcDbEntity
  8
0
 62
     1
100
AcDbMText
 10
-11.91573534667492
 20
-82.35233936822414
 30
0.0
 40
3.200000047683716
 41
0.0
 71
     5
 72
     1
  1
5.5
 73
     1
 44
1.0
  0
POINT
  5
37F
330
374
100
AcDbEntity
  8
Defpoints
 62
     0
100
AcDbPoint
 10
-1.699735283851624
 20
-71.77413940429688
 30
0.0
  0
POINT
  5
380
330
374
100
AcDbEntity
  8
Defpoints
 62
     0
100
AcDbPoint
 10
1.050264716148376
 20
-69.09913635253906
 30
0.0
  0
POINT
  5
381
330
374
100
AcDbEntity
  8
Defpoints
 62
     0
100
AcDbPoint
 10
1.050264716148374
 20
-84.77413940429688
 30
0.0
  0
LINE
  5
382
330
374
100
AcDbEntity
  8
0
  6
Continuous
 62
     7
100
AcDbLine
 10
1.050264716148376
 20
-71.63913635253907
 30
0.0
 11
1.050264716148376
 21
-86.77413940429688
 31
0.0
  0
LINE
  5
383
330
374
100
AcDbEntity
  8
0
  6
Continuous
 62
     7
100
AcDbLine
 10
-8.049735283851623
 20
-84.77413940429688
 30
0.0
 11
7.400264716148376
 21
-84.77413940429688
 31
0.0
  0
LINE
  5
384
330
374
100
AcDbEntity
  8
0
  6
Continuous
 62
     7
100
AcDbLine
 10
-1.699735283851624
 20
-84.77413940429688
 30
0.0
 11
-4.754260945857247
 21
-85.59259708859688
 31
0.0
  0
LINE
  5
385
330
374
100
AcDbEntity
  8
0
  6
Continuous
 62
     7
100
AcDbLine
 10
-1.699735283851624
 20
-84.77413940429688
 30
0.0
 11
-4.754260945857247
 21
-83.95568171999687
 31
0.0
  0
LINE
  5
386
330
374
100
AcDbEntity
  8
0
  6
Continuous
 62
     7
100
AcDbLine
 10
1.050264716148376
 20
-84.77413940429688
 30
0.0
 11
4.104790378154
 21
-83.95568171999687
 31
0.0
  0
LINE
  5
387
330
374
100
AcDbEntity
  8
0
  6
Continuous
 62
     7
100
AcDbLine
 10
1.050264716148376
 20
-84.77413940429688
 30
0.0
 11
4.104790378154
 21
-85.59259708859688
 31
0.0
  0
LINE
  5
388
330
374
100
AcDbEntity
  8
0
  6
Continuous
 62
     7
100
AcDbLine
 10
-1.699735283851624
 20
-84.77413940429688
 30
0.0
 11
-14.45152854919434
 21
-84.77413940429688
 31
0.0
  0
ENDBLK
  5
376
330
374
100
AcDbEntity
  8
0
100
AcDbBlockEnd
  0
BLOCK
  5
38B
330
38A
100
AcDbEntity
  8
0
100
AcDbBlockBegin
  2
*D18
 70
     1
 10
0.0
 20
0.0
 30
0.0
  3
*D18
  1

  0
LINE
  5
38D
330
38A
100
AcDbEntity
  8
0
 62
     0
370
    -2
100
AcDbLine
 10
23.55026435852051
 20
-71.63913635253907
 30
0.0
 11
23.5502643585205
 21
-86.77313940429687
 31
0.0
  0
LINE
  5
38E
330
38A
100
AcDbEntity
  8
0
 62
     0
370
    -2
100
AcDbLine
 10
4.050264716148373
 20
-84.77313940429687
 30
0.0
 11
20.5502643585205
 21
-84.77313940429687
 31
0.0
  0
INSERT
  5
38F
330
38A
100
AcDbEntity
  8
0
 62
     0
370
    -2
100
AcDbBlockReference
  2
_OPEN30
 10
1.050264716148373
 20
-84.77313940429687
 30
0.0
 41
3.0
 42
3.0
 43
3.0
 50
180.0
  0
INSERT
  5
390
330
38A
100
AcDbEntity
  8
0
 62
     0
370
    -2
100
AcDbBlockReference
  2
_OPEN30
 10
23.5502643585205
 20
-84.77313940429687
 30
0.0
 41
3.0
 42
3.0
 43
3.0
  0
MTEXT
  5
391
330
38A
100
AcDbEntity
  8
0
 62
     1
100
AcDbMText
 10
12.30126435852051
 20
-82.3587393683195
 30
0.0
 40
3.200000047683716
 41
0.0
 71
     5
 72
     1
  1
45
 73
     1
 44
1.0
  0
POINT
  5
392
330
38A
100
AcDbEntity
  8
Defpoints
 62
     0
100
AcDbPoint
 10
1.050264716148376
 20
-69.09913635253906
 30
0.0
  0
POINT
  5
393
330
38A
100
AcDbEntity
  8
Defpoints
 62
     0
100
AcDbPoint
 10
23.55026435852051
 20
-69.09913635253906
 30
0.0
  0
POINT
  5
394
330
38A
100
AcDbEntity
  8
Defpoints
 62
     0
100
AcDbPoint
 10
23.5502643585205
 20
-84.77413940429688
 30
0.0
  0
ENDBLK
  5
38C
330
38A
100
AcDbEntity
  8
0
100
AcDbBlockEnd
  0
BLOCK
  5
397
330
396
100
AcDbEntity
  8
0
100
AcDbBlockBegin
  2
*D19
 70
     1
 10
0.0
 20
0.0
 30
0.0
  3
*D19
  1

  0
MTEXT
  5
39F
330
396
100
AcDbEntity
  8
0
 62
     1
100
AcDbMText
 10
36.5162644213438
 20
-82.35233936822414
 30
0.0
 40
3.200000047683716
 41
0.0
 71
     5
 72
     1
  1
5.5
 73
     1
 44
1.0
  0
POINT
  5
3A0
330
396
100
AcDbEntity
  8
Defpoints
 62
     0
100
AcDbPoint
 10
23.55026435852051
 20
-69.09913635253906
 30
0.0
  0
POINT
  5
3A1
330
396
100
AcDbEntity
  8
Defpoints
 62
     0
100
AcDbPoint
 10
26.30026435852051
 20
-69.27413940429688
 30
0.0
  0
POINT
  5
3A2
330
396
100
AcDbEntity
  8
Defpoints
 62
     0
100
AcDbPoint
 10
26.3002643585205
 20
-84.77413940429688
 30
0.0
  0
LINE
  5
3A3
330
396
100
AcDbEntity
  8
0
  6
Continuous
 62
     7
100
AcDbLine
 10
17.20026435852051
 20
-84.77413940429688
 30
0.0
 11
32.65026435852051
 21
-84.77413940429688
 31
0.0
  0
LINE
  5
3A4
330
396
100
AcDbEntity
  8
0
  6
Continuous
 62
     7
100
AcDbLine
 10
23.55026435852051
 20
-84.77413940429688
 30
0.0
 11
20.49573869651488
 21
-85.59259708859688
 31
0.0
  0
LINE
  5
3A5
330
396
100
AcDbEntity
  8
0
  6
Continuous
 62
     7
100
AcDbLine
 10
23.55026435852051
 20
-84.77413940429688
 30
0.0
 11
20.49573869651488
 21
-83.95568171999687
 31
0.0
  0
LINE
  5
3A6
330
396
100
AcDbEntity
  8
0
  6
Continuous
 62
     7
100
AcDbLine
 10
26.30026435852051
 20
-84.77413940429688
 30
0.0
 11
29.35479002052613
 21
-83.95568171999687
 31
0.0
  0
LINE
  5
3A7
330
396
100
AcDbEntity
  8
0
  6
Continuous
 62
     7
100
AcDbLine
 10
26.30026435852051
 20
-84.77413940429688
 30
0.0
 11
29.35479002052613
 21
-85.59259708859688
 31
0.0
  0
LINE
  5
3A8
330
396
100
AcDbEntity
  8
0
  6
Continuous
 62
     7
100
AcDbLine
 10
26.30026435852051
 20
-84.77413940429688
 30
0.0
 11
38.37921905517578
 21
-84.77413940429688
 31
0.0
  0
ENDBLK
  5
398
330
396
100
AcDbEntity
  8
0
100
AcDbBlockEnd
  0
BLOCK
  5
3AB
330
3AA
100
AcDbEntity
  8
0
100
AcDbBlockBegin
  2
*D20
 70
     1
 10
0.0
 20
0.0
 30
0.0
  3
*D20
  1

  0
LINE
  5
3AD
330
3AA
100
AcDbEntity
  8
0
 62
     0
370
    -2
100
AcDbLine
 10
26.30026435852051
 20
-71.81413940429688
 30
0.0
 11
26.30026435852051
 21
-96.77313940429687
 31
0.0
  0
LINE
  5
3AE
330
3AA
100
AcDbEntity
  8
0
 62
     0
370
    -2
100
AcDbLine
 10
-1.699735283851624
 20
-74.31413940429688
 30
0.0
 11
-1.699735283851624
 21
-96.77313940429687
 31
0.0
  0
LINE
  5
3AF
330
3AA
100
AcDbEntity
  8
0
 62
     0
370
    -2
100
AcDbLine
 10
23.30026435852051
 20
-94.77313940429687
 30
0.0
 11
1.300264716148376
 21
-94.77313940429687
 31
0.0
  0
INSERT
  5
3B0
330
3AA
100
AcDbEntity
  8
0
 62
     0
370
    -2
100
AcDbBlockReference
  2
_OPEN30
 10
26.30026435852051
 20
-94.77313940429687
 30
0.0
 41
3.0
 42
3.0
 43
3.0
  0
INSERT
  5
3B1
330
3AA
100
AcDbEntity
  8
0
 62
     0
370
    -2
100
AcDbBlockReference
  2
_OPEN30
 10
-1.699735283851624
 20
-94.77313940429687
 30
0.0
 41
3.0
 42
3.0
 43
3.0
 50
180.0
  0
MTEXT
  5
3B2
330
3AA
100
AcDbEntity
  8
0
 62
     1
100
AcDbMText
 10
12.30226435852051
 20
-92.3587393683195
 30
0.0
 40
3.200000047683716
 41
0.0
 71
     5
 72
     1
  1
56
 73
     1
 44
1.0
  0
POINT
  5
3B3
330
3AA
100
AcDbEntity
  8
Defpoints
 62
     0
100
AcDbPoint
 10
26.30026435852051
 20
-69.27413940429688
 30
0.0
  0
POINT
  5
3B4
330
3AA
100
AcDbEntity
  8
Defpoints
 62
     0
100
AcDbPoint
 10
-1.699735283851624
 20
-71.77413940429688
 30
0.0
  0
POINT
  5
3B5
330
3AA
100
AcDbEntity
  8
Defpoints
 62
     0
100
AcDbPoint
 10
-1.699735283851624
 20
-94.77413940429688
 30
0.0
  0
ENDBLK
  5
3AC
330
3AA
100
AcDbEntity
  8
0
100
AcDbBlockEnd
  0
BLOCK
  5
3B8
330
3B7
100
AcDbEntity
  8
0
100
AcDbBlockBegin
  2
*D21
 70
     1
 10
0.0
 20
0.0
 30
0.0
  3
*D21
  1

  0
MTEXT
  5
3C1
330
3B7
100
AcDbEntity
  8
0
 62
     1
100
AcDbMText
 10
-14.11313567745686
 20
-79.58853943133354
 30
0.0
 40
3.200000047683716
 41
0.0
 71
     5
 72
     1
  1
9
 11
0.0
 21
1.0
 31
0.0
 73
     1
 44
1.0
  0
POINT
  5
3C2
330
3B7
100
AcDbEntity
  8
Defpoints
 62
     0
100
AcDbPoint
 10
0.800264656543732
 20
-71.77413940429688
 30
0.0
  0
POINT
  5
3C3
330
3B7
100
AcDbEntity
  8
Defpoints
 62
     0
100
AcDbPoint
 10
-0.774686515331268
 20
-67.27413940429688
 30
0.0
  0
POINT
  5
3C4
330
3B7
100
AcDbEntity
  8
Defpoints
 62
     0
100
AcDbPoint
 10
-11.69973564147949
 20
-67.27413940429688
 30
0.0
  0
LINE
  5
3C5
330
3B7
100
AcDbEntity
  8
0
  6
Continuous
 62
     7
100
AcDbLine
 10
-3.314686515331268
 20
-67.27413940429688
 30
0.0
 11
-13.69973564147949
 21
-67.27413940429688
 31
0.0
  0
LINE
  5
3C6
330
3B7
100
AcDbEntity
  8
0
  6
Continuous
 62
     7
100
AcDbLine
 10
-11.69973564147949
 20
-78.12413940429687
 30
0.0
 11
-11.69973564147949
 21
-60.92413940429687
 31
0.0
  0
LINE
  5
3C7
330
3B7
100
AcDbEntity
  8
0
  6
Continuous
 62
     7
100
AcDbLine
 10
-11.69973564147949
 20
-71.77413940429688
 30
0.0
 11
-10.88127795717949
 21
-74.8286650663025
 31
0.0
  0
LINE
  5
3C8
330
3B7
100
AcDbEntity
  8
0
  6
Continuous
 62
     7
100
AcDbLine
 10
-11.69973564147949
 20
-71.77413940429688
 30
0.0
 11
-12.51819332577949
 21
-74.8286650663025
 31
0.0
  0
LINE
  5
3C9
330
3B7
100
AcDbEntity
  8
0
  6
Continuous
 62
     7
100
AcDbLine
 10
-11.69973564147949
 20
-67.27413940429688
 30
0.0
 11
-12.51819332577949
 21
-64.21961374229124
 31
0.0
  0
LINE
  5
3CA
330
3B7
100
AcDbEntity
  8
0
  6
Continuous
 62
     7
100
AcDbLine
 10
-11.69973564147949
 20
-67.27413940429688
 30
0.0
 11
-10.88127795717949
 21
-64.21961374229124
 31
0.0
  0
LINE
  5
3CB
330
3B7
100
AcDbEntity
  8
0
  6
Continuous
 62
     7
100
AcDbLine
 10
-11.69973564147949
 20
-71.77413940429688
 30
0.0
 11
-11.69973564147949
 21
-78.16726684570312
 31
0.0
  0
ENDBLK
  5
3B9
330
3B7
100
AcDbEntity
  8
0
100
AcDbBlockEnd
  0
BLOCK
  5
3CE
330
3CD
100
AcDbEntity
  8
0
100
AcDbBlockBegin
  2
*D22
 70
     1
 10
0.0
 20
0.0
 30
0.0
  3
*D22
  1

  0
LINE
  5
3D0
330
3CD
100
AcDbEntity
  8
0
 62
     0
370
    -2
100
AcDbLine
 10
-3.364735343456268
 20
-56.77413940429688
 30
0.0
 11
-13.69873564147949
 21
-56.77413940429688
 31
0.0
  0
LINE
  5
3D1
330
3CD
100
AcDbEntity
  8
0
 62
     0
370
    -2
100
AcDbLine
 10
-11.69873564147949
 20
-64.27413940429688
 30
0.0
 11
-11.69873564147949
 21
-59.77413940429688
 31
0.0
  0
INSERT
  5
3D2
330
3CD
100
AcDbEntity
  8
0
 62
     0
370
    -2
100
AcDbBlockReference
  2
_OPEN30
 10
-11.69873564147949
 20
-67.27413940429688
 30
0.0
 41
3.0
 42
3.0
 43
3.0
 50
270.0
  0
INSERT
  5
3D3
330
3CD
100
AcDbEntity
  8
0
 62
     0
370
    -2
100
AcDbBlockReference
  2
_OPEN30
 10
-11.69873564147949
 20
-56.77413940429688
 30
0.0
 41
3.0
 42
3.0
 43
3.0
 50
90.0
  0
MTEXT
  5
3D4
330
3CD
100
AcDbEntity
  8
0
 62
     1
100
AcDbMText
 10
-14.11313567745686
 20
-62.02313940429688
 30
0.0
 40
3.200000047683716
 41
0.0
 71
     5
 72
     1
  1
21
 11
1.691768418476429E-16
 21
1.0
 31
0.0
 73
     1
 44
1.0
  0
POINT
  5
3D5
330
3CD
100
AcDbEntity
  8
Defpoints
 62
     0
100
AcDbPoint
 10
-0.774686515331268
 20
-67.27413940429688
 30
0.0
  0
POINT
  5
3D6
330
3CD
100
AcDbEntity
  8
Defpoints
 62
     0
100
AcDbPoint
 10
-0.824735343456268
 20
-56.77413940429688
 30
0.0
  0
POINT
  5
3D7
330
3CD
100
AcDbEntity
  8
Defpoints
 62
     0
100
AcDbPoint
 10
-11.69973564147949
 20
-56.77413940429688
 30
0.0
  0
ENDBLK
  5
3CF
330
3CD
100
AcDbEntity
  8
0
100
AcDbBlockEnd
  0
BLOCK
  5
3DA
330
3D9
100
AcDbEntity
  8
0
100
AcDbBlockBegin
  2
*D23
 70
     1
 10
0.0
 20
0.0
 30
0.0
  3
*D23
  1

  0
MTEXT
  5
3E2
330
3D9
100
AcDbEntity
  8
0
 62
     1
100
AcDbMText
 10
-14.11313567745686
 20
-54.52313940429688
 30
0.0
 40
3.200000047683716
 41
0.0
 71
     5
 72
     1
  1
9
 11
0.0
 21
1.0
 31
0.0
 73
     1
 44
1.0
  0
POINT
  5
3E3
330
3D9
100
AcDbEntity
  8
Defpoints
 62
     0
100
AcDbPoint
 10
-0.824735343456268
 20
-56.77413940429688
 30
0.0
  0
POINT
  5
3E4
330
3D9
100
AcDbEntity
  8
Defpoints
 62
     0
100
AcDbPoint
 10
-0.774686515331268
 20
-52.27413940429688
 30
0.0
  0
POINT
  5
3E5
330
3D9
100
AcDbEntity
  8
Defpoints
 62
     0
100
AcDbPoint
 10
-11.69973564147949
 20
-52.27413940429688
 30
0.0
  0
LINE
  5
3E6
330
3D9
100
AcDbEntity
  8
0
  6
Continuous
 62
     7
100
AcDbLine
 10
-3.314686515331268
 20
-52.27413940429688
 30
0.0
 11
-13.69973564147949
 21
-52.27413940429688
 31
0.0
  0
LINE
  5
3E7
330
3D9
100
AcDbEntity
  8
0
  6
Continuous
 62
     7
100
AcDbLine
 10
-11.69973564147949
 20
-63.12413940429688
 30
0.0
 11
-11.69973564147949
 21
-45.92413940429687
 31
0.0
  0
LINE
  5
3E8
330
3D9
100
AcDbEntity
  8
0
  6
Continuous
 62
     7
100
AcDbLine
 10
-11.69973564147949
 20
-56.77413940429688
 30
0.0
 11
-10.88127795717949
 21
-59.8286650663025
 31
0.0
  0
LINE
  5
3E9
330
3D9
100
AcDbEntity
  8
0
  6
Continuous
 62
     7
100
AcDbLine
 10
-11.69973564147949
 20
-56.77413940429688
 30
0.0
 11
-12.51819332577949
 21
-59.8286650663025
 31
0.0
  0
LINE
  5
3EA
330
3D9
100
AcDbEntity
  8
0
  6
Continuous
 62
     7
100
AcDbLine
 10
-11.69973564147949
 20
-52.27413940429688
 30
0.0
 11
-12.51819332577949
 21
-49.21961374229125
 31
0.0
  0
LINE
  5
3EB
330
3D9
100
AcDbEntity
  8
0
  6
Continuous
 62
     7
100
AcDbLine
 10
-11.69973564147949
 20
-52.27413940429688
 30
0.0
 11
-10.88127795717949
 21
-49.21961374229125
 31
0.0
  0
ENDBLK
  5
3DB
330
3D9
100
AcDbEntity
  8
0
100
AcDbBlockEnd
  0
BLOCK
  5
3EE
330
3ED
100
AcDbEntity
  8
0
100
AcDbBlockBegin
  2
*D24
 70
     1
 10
0.0
 20
0.0
 30
0.0
  3
*D24
  1

  0
LINE
  5
3F0
330
3ED
100
AcDbEntity
  8
0
 62
     0
370
    -2
100
AcDbLine
 10
-11.69873564147949
 20
-49.27413940429688
 30
0.0
 11
-11.69873564147949
 21
-44.77413940429688
 31
0.0
  0
INSERT
  5
3F1
330
3ED
100
AcDbEntity
  8
0
 62
     0
370
    -2
100
AcDbBlockReference
  2
_OPEN30
 10
-11.69873564147949
 20
-52.27413940429688
 30
0.0
 41
3.0
 42
3.0
 43
3.0
 50
270.0
  0
INSERT
  5
3F2
330
3ED
100
AcDbEntity
  8
0
 62
     0
370
    -2
100
AcDbBlockReference
  2
_OPEN30
 10
-11.69873564147949
 20
-41.77413940429688
 30
0.0
 41
3.0
 42
3.0
 43
3.0
 50
90.0
  0
MTEXT
  5
3F3
330
3ED
100
AcDbEntity
  8
0
 62
     1
100
AcDbMText
 10
-14.11313567745686
 20
-47.02313940429688
 30
0.0
 40
3.200000047683716
 41
0.0
 71
     5
 72
     1
  1
21
 11
1.691768418476429E-16
 21
1.0
 31
0.0
 73
     1
 44
1.0
  0
POINT
  5
3F4
330
3ED
100
AcDbEntity
  8
Defpoints
 62
     0
100
AcDbPoint
 10
-0.774686515331268
 20
-52.27413940429688
 30
0.0
  0
POINT
  5
3F5
330
3ED
100
AcDbEntity
  8
Defpoints
 62
     0
100
AcDbPoint
 10
2.715791940689087
 20
-41.77413940429688
 30
0.0
  0
POINT
  5
3F6
330
3ED
100
AcDbEntity
  8
Defpoints
 62
     0
100
AcDbPoint
 10
-11.69973564147949
 20
-41.77413940429688
 30
0.0
  0
ENDBLK
  5
3EF
330
3ED
100
AcDbEntity
  8
0
100
AcDbBlockEnd
  0
BLOCK
  5
3F9
330
3F8
100
AcDbEntity
  8
0
100
AcDbBlockBegin
  2
*D25
 70
     1
 10
0.0
 20
0.0
 30
0.0
  3
*D25
  1

  0
LINE
  5
3FB
330
3F8
100
AcDbEntity
  8
0
 62
     0
370
    -2
100
AcDbLine
 10
0.175791940689087
 20
-41.77413940429688
 30
0.0
 11
-23.69773564147949
 21
-41.77413940429689
 31
0.0
  0
LINE
  5
3FC
330
3F8
100
AcDbEntity
  8
0
 62
     0
370
    -2
100
AcDbLine
 10
-1.739735343456268
 20
-71.77413940429688
 30
0.0
 11
-23.69773564147948
 21
-71.77413940429689
 31
0.0
  0
LINE
  5
3FD
330
3F8
100
AcDbEntity
  8
0
 62
     0
370
    -2
100
AcDbLine
 10
-21.69773564147949
 20
-44.77413940429689
 30
0.0
 11
-21.69773564147948
 21
-68.77413940429689
 31
0.0
  0
INSERT
  5
3FE
330
3F8
100
AcDbEntity
  8
0
 62
     0
370
    -2
100
AcDbBlockReference
  2
_OPEN30
 10
-21.69773564147949
 20
-41.77413940429689
 30
0.0
 41
3.0
 42
3.0
 43
3.0
 50
90.00000000000001
  0
INSERT
  5
3FF
330
3F8
100
AcDbEntity
  8
0
 62
     0
370
    -2
100
AcDbBlockReference
  2
_OPEN30
 10
-21.69773564147948
 20
-71.77413940429689
 30
0.0
 41
3.0
 42
3.0
 43
3.0
 50
270.0
  0
MTEXT
  5
400
330
3F8
100
AcDbEntity
  8
0
 62
     1
100
AcDbMText
 10
-24.11213567745686
 20
-56.77313940429688
 30
0.0
 40
3.200000047683716
 41
0.0
 71
     5
 72
     1
  1
60
 11
-3.552713678800501E-16
 21
1.0
 31
0.0
 73
     1
 44
1.0
  0
POINT
  5
401
330
3F8
100
AcDbEntity
  8
Defpoints
 62
     0
100
AcDbPoint
 10
2.715791940689087
 20
-41.77413940429688
 30
0.0
  0
POINT
  5
402
330
3F8
100
AcDbEntity
  8
Defpoints
 62
     0
100
AcDbPoint
 10
0.800264656543732
 20
-71.77413940429688
 30
0.0
  0
POINT
  5
403
330
3F8
100
AcDbEntity
  8
Defpoints
 62
     0
100
AcDbPoint
 10
-21.69973564147949
 20
-71.77413940429689
 30
0.0
  0
ENDBLK
  5
3FA
330
3F8
100
AcDbEntity
  8
0
100
AcDbBlockEnd
  0
BLOCK
  5
406
330
405
100
AcDbEntity
  8
0
100
AcDbBlockBegin
  2
*D26
 70
     1
 10
0.0
 20
0.0
 30
0.0
  3
*D26
  1

  0
MTEXT
  5
410
330
405
100
AcDbEntity
  8
0
 62
     1
100
AcDbMText
 10
-11.84373534560203
 20
-29.35333936822414
 30
0.0
 40
3.200000047683716
 41
0.0
 71
     5
 72
     1
  1
6.5
 73
     1
 44
1.0
  0
POINT
  5
411
330
405
100
AcDbEntity
  8
Defpoints
 62
     0
100
AcDbPoint
 10
-1.699735283851624
 20
-47.46668243408203
 30
0.0
  0
POINT
  5
412
330
405
100
AcDbEntity
  8
Defpoints
 62
     0
100
AcDbPoint
 10
1.550264716148376
 20
-54.39913940429688
 30
0.0
  0
POINT
  5
413
330
405
100
AcDbEntity
  8
Defpoints
 62
     0
100
AcDbPoint
 10
1.550264716148379
 20
-31.77413940429688
 30
0.0
  0
LINE
  5
414
330
405
100
AcDbEntity
  8
0
  6
Continuous
 62
     7
100
AcDbLine
 10
-1.699735283851624
 20
-44.92668243408203
 30
0.0
 11
-1.699735283851624
 21
-29.77413940429688
 31
0.0
  0
LINE
  5
415
330
405
100
AcDbEntity
  8
0
  6
Continuous
 62
     7
100
AcDbLine
 10
1.550264716148376
 20
-51.85913940429688
 30
0.0
 11
1.550264716148376
 21
-29.77413940429688
 31
0.0
  0
LINE
  5
416
330
405
100
AcDbEntity
  8
0
  6
Continuous
 62
     7
100
AcDbLine
 10
-8.049735283851623
 20
-31.77413940429688
 30
0.0
 11
7.900264716148376
 21
-31.77413940429688
 31
0.0
  0
LINE
  5
417
330
405
100
AcDbEntity
  8
0
  6
Continuous
 62
     7
100
AcDbLine
 10
-1.699735283851624
 20
-31.77413940429688
 30
0.0
 11
-4.754260945857247
 21
-32.59259708859688
 31
0.0
  0
LINE
  5
418
330
405
100
AcDbEntity
  8
0
  6
Continuous
 62
     7
100
AcDbLine
 10
-1.699735283851624
 20
-31.77413940429688
 30
0.0
 11
-4.754260945857247
 21
-30.95568171999687
 31
0.0
  0
LINE
  5
419
330
405
100
AcDbEntity
  8
0
  6
Continuous
 62
     7
100
AcDbLine
 10
1.550264716148376
 20
-31.77413940429688
 30
0.0
 11
4.604790378154
 21
-30.95568171999687
 31
0.0
  0
LINE
  5
41A
330
405
100
AcDbEntity
  8
0
  6
Continuous
 62
     7
100
AcDbLine
 10
1.550264716148376
 20
-31.77413940429688
 30
0.0
 11
4.604790378154
 21
-32.59259708859688
 31
0.0
  0
LINE
  5
41B
330
405
100
AcDbEntity
  8
0
  6
Continuous
 62
     7
100
AcDbLine
 10
-1.699735283851624
 20
-31.77413940429688
 30
0.0
 11
-13.59054946899414
 21
-31.77413940429688
 31
0.0
  0
ENDBLK
  5
407
330
405
100
AcDbEntity
  8
0
100
AcDbBlockEnd
  0
BLOCK
  5
41E
330
41D
100
AcDbEntity
  8
0
100
AcDbBlockBegin
  2
*D27
 70
     1
 10
0.0
 20
0.0
 30
0.0
  3
*D27
  1

  0
LINE
  5
420
330
41D
100
AcDbEntity
  8
0
 62
     0
370
    -2
100
AcDbLine
 10
23.05026435852051
 20
-51.85913940429688
 30
0.0
 11
23.05026435852051
 21
-29.77413940429688
 31
0.0
  0
LINE
  5
421
330
41D
100
AcDbEntity
  8
0
 62
     0
370
    -2
100
AcDbLine
 10
4.55026471614838
 20
-31.77413940429687
 30
0.0
 11
20.05026435852051
 21
-31.77413940429688
 31
0.0
  0
INSERT
  5
422
330
41D
100
AcDbEntity
  8
0
 62
     0
370
    -2
100
AcDbBlockReference
  2
_OPEN30
 10
1.55026471614838
 20
-31.77413940429687
 30
0.0
 41
3.0
 42
3.0
 43
3.0
 50
180.0
  0
INSERT
  5
423
330
41D
100
AcDbEntity
  8
0
 62
     0
370
    -2
100
AcDbBlockReference
  2
_OPEN30
 10
23.05026435852051
 20
-31.77413940429688
 30
0.0
 41
3.0
 42
3.0
 43
3.0
 50
360.0
  0
MTEXT
  5
424
330
41D
100
AcDbEntity
  8
0
 62
     1
100
AcDbMText
 10
12.30126435852051
 20
-29.35973936831951
 30
0.0
 40
3.200000047683716
 41
0.0
 71
     5
 72
     1
  1
43
 73
     1
 44
1.0
  0
POINT
  5
425
330
41D
100
AcDbEntity
  8
Defpoints
 62
     0
100
AcDbPoint
 10
1.550264716148376
 20
-54.39913940429688
 30
0.0
  0
POINT
  5
426
330
41D
100
AcDbEntity
  8
Defpoints
 62
     0
100
AcDbPoint
 10
23.05026435852051
 20
-54.39913940429688
 30
0.0
  0
POINT
  5
427
330
41D
100
AcDbEntity
  8
Defpoints
 62
     0
100
AcDbPoint
 10
23.05026435852051
 20
-31.77413940429688
 30
0.0
  0
ENDBLK
  5
41F
330
41D
100
AcDbEntity
  8
0
100
AcDbBlockEnd
  0
BLOCK
  5
42A
330
429
100
AcDbEntity
  8
0
100
AcDbBlockBegin
  2
*D28
 70
     1
 10
0.0
 20
0.0
 30
0.0
  3
*D28
  1

  0
MTEXT
  5
433
330
429
100
AcDbEntity
  8
0
 62
     1
100
AcDbMText
 10
36.44426442027092
 20
-29.35333936822414
 30
0.0
 40
3.200000047683716
 41
0.0
 71
     5
 72
     1
  1
6.5
 73
     1
 44
1.0
  0
POINT
  5
434
330
429
100
AcDbEntity
  8
Defpoints
 62
     0
100
AcDbPoint
 10
23.05026435852051
 20
-54.39913940429688
 30
0.0
  0
POINT
  5
435
330
429
100
AcDbEntity
  8
Defpoints
 62
     0
100
AcDbPoint
 10
26.30026435852051
 20
-47.46658325195312
 30
0.0
  0
POINT
  5
436
330
429
100
AcDbEntity
  8
Defpoints
 62
     0
100
AcDbPoint
 10
26.30026435852051
 20
-31.77413940429688
 30
0.0
  0
LINE
  5
437
330
429
100
AcDbEntity
  8
0
  6
Continuous
 62
     7
100
AcDbLine
 10
26.30026435852051
 20
-44.92658325195313
 30
0.0
 11
26.30026435852051
 21
-29.77413940429688
 31
0.0
  0
LINE
  5
438
330
429
100
AcDbEntity
  8
0
  6
Continuous
 62
     7
100
AcDbLine
 10
16.70026435852051
 20
-31.77413940429688
 30
0.0
 11
32.65026435852051
 21
-31.77413940429688
 31
0.0
  0
LINE
  5
439
330
429
100
AcDbEntity
  8
0
  6
Continuous
 62
     7
100
AcDbLine
 10
23.05026435852051
 20
-31.77413940429688
 30
0.0
 11
19.99573869651488
 21
-32.59259708859688
 31
0.0
  0
LINE
  5
43A
330
429
100
AcDbEntity
  8
0
  6
Continuous
 62
     7
100
AcDbLine
 10
23.05026435852051
 20
-31.77413940429688
 30
0.0
 11
19.99573869651488
 21
-30.95568171999687
 31
0.0
  0
LINE
  5
43B
330
429
100
AcDbEntity
  8
0
  6
Continuous
 62
     7
100
AcDbLine
 10
26.30026435852051
 20
-31.77413940429688
 30
0.0
 11
29.35479002052613
 21
-30.95568171999687
 31
0.0
  0
LINE
  5
43C
330
429
100
AcDbEntity
  8
0
  6
Continuous
 62
     7
100
AcDbLine
 10
26.30026435852051
 20
-31.77413940429688
 30
0.0
 11
29.35479002052613
 21
-32.59259708859688
 31
0.0
  0
LINE
  5
43D
330
429
100
AcDbEntity
  8
0
  6
Continuous
 62
     7
100
AcDbLine
 10
26.30026435852051
 20
-31.77413940429688
 30
0.0
 11
38.45748901367188
 21
-31.77413940429688
 31
0.0
  0
ENDBLK
  5
42B
330
429
100
AcDbEntity
  8
0
100
AcDbBlockEnd
  0
BLOCK
  5
445
330
43E
100
AcDbEntity
  8
0
100
AcDbBlockBegin
  2
SYM0001
 70
     0
 10
0.0
 20
0.0
 30
0.0
  3
SYM0001
  1

  0
LINE
  5
43F
330
43E
100
AcDbEntity
  8
0
  6
Continuous
 62
     7
100
AcDbLine
 10
0.0
 20
0.0
 30
0.0
 11
7.793951802443715
 21
-8.781311093573414
 31
0.0
  0
LINE
  5
440
330
43E
100
AcDbEntity
  8
0
  6
Continuous
 62
     7
100
AcDbLine
 10
0.0
 20
0.0
 30
0.0
 11
2.639747864055934
 21
-1.741186726072982
 31
0.0
  0
LINE
  5
441
330
43E
100
AcDbEntity
  8
0
  6
Continuous
 62
     7
100
AcDbLine
 10
0.0
 20
0.0
 30
0.0
 11
1.41549534698499
 21
-2.827785869457671
 31
0.0
  0
LINE
  5
442
330
43E
100
AcDbEntity
  8
0
  6
Continuous
 62
     7
100
AcDbLine
 10
7.793951656241944
 20
-8.781308353726835
 30
0.0
 11
29.39509835423999
 21
-8.781308353726835
 31
0.0
  0
MTEXT
  5
443
330
43E
100
AcDbEntity
  8
0
 62
     1
100
AcDbMText
 10
10.19509991588168
 20
-7.981308341805907
 30
0.0
 40
3.200000047683716
 41
0.0
 71
     7
 72
     1
  1
{\W0.833333;2-\U+2205６．５}
 73
     1
 44
1.0
  0
ENDBLK
  5
446
330
43E
100
AcDbEntity
  8
0
100
AcDbBlockEnd
  0
BLOCK
  5
44E
330
447
100
AcDbEntity
  8
0
100
AcDbBlockBegin
  2
SYM0002
 70
     0
 10
0.0
 20
0.0
 30
0.0
  3
SYM0002
  1

  0
LINE
  5
448
330
447
100
AcDbEntity
  8
0
  6
Continuous
 62
     7
100
AcDbLine
 10
0.0
 20
0.0
 30
0.0
 11
5.900503041488982
 21
-6.056142420573039
 31
0.0
  0
LINE
  5
449
330
447
100
AcDbEntity
  8
0
  6
Continuous
 62
     7
100
AcDbLine
 10
0.0
 20
0.0
 30
0.0
 11
2.717800895158039
 21
-1.616650331741155
 31
0.0
  0
LINE
  5
44A
330
447
100
AcDbEntity
  8
0
  6
Continuous
 62
     7
100
AcDbLine
 10
0.0
 20
0.0
 30
0.0
 11
1.545359451923726
 21
-2.758960703814139
 31
0.0
  0
LINE
  5
44B
330
447
100
AcDbEntity
  8
0
  6
Continuous
 62
     7
100
AcDbLine
 10
5.90050257225392
 20
-6.056142333074412
 30
0.0
 11
27.03202379722951
 21
-6.056142333074412
 31
0.0
  0
MTEXT
  5
44C
330
447
100
AcDbEntity
  8
0
 62
     1
100
AcDbMText
 10
7.832023451522566
 20
-5.256142321153483
 30
0.0
 40
3.200000047683716
 41
0.0
 71
     7
 72
     1
  1
{\W0.833333;４－\U+2205４．３}
 73
     1
 44
1.0
  0
ENDBLK
  5
44F
330
447
100
AcDbEntity
  8
0
100
AcDbBlockEnd
  0
BLOCK
  5
452
330
451
100
AcDbEntity
  8
0
100
AcDbBlockBegin
  2
*D31
 70
     1
 10
0.0
 20
0.0
 30
0.0
  3
*D31
  1

  0
LINE
  5
454
330
451
100
AcDbEntity
  8
0
 62
     0
370
    -2
100
AcDbLine
 10
58.12024886939854
 20
39.42095464173227
 30
0.0
 11
70.15131572908408
 21
46.64474891263242
 31
0.0
  0
LINE
  5
455
330
451
100
AcDbEntity
  8
0
 62
     0
370
    -2
100
AcDbLine
 10
73.5632224928846
 20
13.7010294598971
 30
0.0
 11
85.59428935257014
 21
20.92482373079724
 31
0.0
  0
LINE
  5
456
330
451
100
AcDbEntity
  8
0
 62
     0
370
    -2
100
AcDbLine
 10
70.83828225749768
 20
43.55799058246801
 30
0.0
 11
83.19266113174059
 21
22.98205047788059
 31
0.0
  0
INSERT
  5
457
330
451
100
AcDbEntity
  8
0
 62
     0
370
    -2
100
AcDbBlockReference
  2
_OPEN30
 10
69.2939848828761
 20
46.12998312109188
 30
0.0
 41
3.0
 42
3.0
 43
3.0
 50
120.9818014527429
  0
INSERT
  5
458
330
451
100
AcDbEntity
  8
0
 62
     0
370
    -2
100
AcDbBlockReference
  2
_OPEN30
 10
84.73695850636217
 20
20.41005793925671
 30
0.0
 41
3.0
 42
3.0
 43
3.0
 50
300.981801452743
  0
MTEXT
  5
459
330
451
100
AcDbEntity
  8
0
 62
     1
100
AcDbMText
 10
79.08496953315556
 20
34.51360686275403
 30
0.0
 40
3.200000047683716
 41
0.0
 71
     5
 72
     1
  1
60
 11
0.5147657915405267
 21
-0.857330846207959
 31
0.0
 73
     1
 44
1.0
  0
POINT
  5
45A
330
451
100
AcDbEntity
  8
Defpoints
 62
     0
100
AcDbPoint
 10
55.94262852003032
 20
38.11344953121934
 30
0.0
  0
POINT
  5
45B
330
451
100
AcDbEntity
  8
Defpoints
 62
     0
100
AcDbPoint
 10
71.3856021435164
 20
12.39352434938417
 30
0.0
  0
POINT
  5
45C
330
451
100
AcDbEntity
  8
Defpoints
 62
     0
100
AcDbPoint
 10
84.73651939585149
 20
20.40979428483368
 30
0.0
  0
ENDBLK
  5
453
330
451
100
AcDbEntity
  8
0
100
AcDbBlockEnd
  0
BLOCK
  5
45F
330
45E
100
AcDbEntity
  8
0
100
AcDbBlockBegin
  2
*D32
 70
     1
 10
0.0
 20
0.0
 30
0.0
  3
*D32
  1

  0
MTEXT
  5
466
330
45E
100
AcDbEntity
  8
0
 62
     1
100
AcDbMText
 10
-27.81980016720295
 20
92.52397973632813
 30
0.0
 40
3.200000047683716
 41
0.0
 71
     5
 72
     1
  1
21
 11
-3.449238114307190E-16
 21
1.0
 31
0.0
 73
     1
 44
1.0
  0
POINT
  5
467
330
45E
100
AcDbEntity
  8
Defpoints
 62
     0
100
AcDbPoint
 10
-12.17337417602539
 20
97.67298126220703
 30
0.0
  0
POINT
  5
468
330
45E
100
AcDbEntity
  8
Defpoints
 62
     0
100
AcDbPoint
 10
-12.17337417602539
 20
87.37298583984375
 30
0.0
  0
POINT
  5
469
330
45E
100
AcDbEntity
  8
Defpoints
 62
     0
100
AcDbPoint
 10
-25.40740013122559
 20
87.37298583984374
 30
0.0
  0
LINE
  5
46A
330
45E
100
AcDbEntity
  8
0
  6
Continuous
 62
     7
100
AcDbLine
 10
-14.71337417602539
 20
97.67298126220703
 30
0.0
 11
-26.40740013122559
 21
97.67298126220703
 31
0.0
  0
LINE
  5
46B
330
45E
100
AcDbEntity
  8
0
  6
Continuous
 62
     7
100
AcDbLine
 10
-14.71337417602539
 20
87.37298583984375
 30
0.0
 11
-26.40740013122559
 21
87.37298583984375
 31
0.0
  0
LINE
  5
46C
330
45E
100
AcDbEntity
  8
0
  6
Continuous
 62
     7
100
AcDbLine
 10
-25.40740013122559
 20
104.022981262207
 30
0.0
 11
-25.40740013122559
 21
81.02298583984376
 31
0.0
  0
LINE
  5
46D
330
45E
100
AcDbEntity
  8
0
  6
Continuous
 62
     7
100
AcDbLine
 10
-25.40740013122559
 20
97.67298126220703
 30
0.0
 11
-26.22585781552559
 21
100.7275069242127
 31
0.0
  0
LINE
  5
46E
330
45E
100
AcDbEntity
  8
0
  6
Continuous
 62
     7
100
AcDbLine
 10
-25.40740013122559
 20
97.67298126220703
 30
0.0
 11
-24.58894244692559
 21
100.7275069242127
 31
0.0
  0
LINE
  5
46F
330
45E
100
AcDbEntity
  8
0
  6
Continuous
 62
     7
100
AcDbLine
 10
-25.40740013122559
 20
87.37298583984375
 30
0.0
 11
-24.58894244692559
 21
84.31846017783812
 31
0.0
  0
LINE
  5
470
330
45E
100
AcDbEntity
  8
0
  6
Continuous
 62
     7
100
AcDbLine
 10
-25.40740013122559
 20
87.37298583984375
 30
0.0
 11
-26.22585781552559
 21
84.31846017783812
 31
0.0
  0
ENDBLK
  5
460
330
45E
100
AcDbEntity
  8
0
100
AcDbBlockEnd
  0
BLOCK
  5
473
330
472
100
AcDbEntity
  8
0
100
AcDbBlockBegin
  2
*D33
 70
     1
 10
0.0
 20
0.0
 30
0.0
  3
*D33
  1

  0
LINE
  5
475
330
472
100
AcDbEntity
  8
0
 62
     0
370
    -2
100
AcDbLine
 10
-15.40736961364746
 20
27.54185958862305
 30
0.0
 11
-15.40736961364746
 21
-14.31713907623291
 31
0.0
  0
LINE
  5
476
330
472
100
AcDbEntity
  8
0
 62
     0
370
    -2
100
AcDbLine
 10
-12.40736961364746
 20
-13.31713907623291
 30
0.0
 11
44.44263076782227
 21
-13.31713907623291
 31
0.0
  0
INSERT
  5
477
330
472
100
AcDbEntity
  8
0
 62
     0
370
    -2
100
AcDbBlockReference
  2
_OPEN30
 10
-15.40736961364746
 20
-13.31713907623291
 30
0.0
 41
3.0
 42
3.0
 43
3.0
 50
180.0
  0
INSERT
  5
478
330
472
100
AcDbEntity
  8
0
 62
     0
370
    -2
100
AcDbBlockReference
  2
_OPEN30
 10
47.44263076782227
 20
-13.31713907623291
 30
0.0
 41
3.0
 42
3.0
 43
3.0
 50
360.0
  0
MTEXT
  5
479
330
472
100
AcDbEntity
  8
0
 62
     1
100
AcDbMText
 10
16.01863153076172
 20
-10.90273904025555
 30
0.0
 40
3.200000047683716
 41
0.0
 71
     5
 72
     1
  1
126
 73
     1
 44
1.0
  0
POINT
  5
47A
330
472
100
AcDbEntity
  8
Defpoints
 62
     0
100
AcDbPoint
 10
-15.40736961364746
 20
30.08185958862305
 30
0.0
  0
POINT
  5
47B
330
472
100
AcDbEntity
  8
Defpoints
 62
     0
100
AcDbPoint
 10
47.44263076782227
 20
6.68186092376709
 30
0.0
  0
POINT
  5
47C
330
472
100
AcDbEntity
  8
Defpoints
 62
     0
100
AcDbPoint
 10
47.44263076782227
 20
-13.31813907623291
 30
0.0
  0
ENDBLK
  5
474
330
472
100
AcDbEntity
  8
0
100
AcDbBlockEnd
  0
BLOCK
  5
47F
330
47E
100
AcDbEntity
  8
0
100
AcDbBlockBegin
  2
*D34
 70
     1
 10
0.0
 20
0.0
 30
0.0
  3
*D34
  1

  0
MTEXT
  5
488
330
47E
100
AcDbEntity
  8
0
 62
     1
100
AcDbMText
 10
-27.81016964948177
 20
30.88287408447266
 30
0.0
 40
3.200000047683716
 41
0.0
 71
     5
 72
     1
  1
7
 11
0.0
 21
1.0
 31
0.0
 73
     1
 44
1.0
  0
POINT
  5
489
330
47E
100
AcDbEntity
  8
Defpoints
 62
     0
100
AcDbPoint
 10
-15.40736961364746
 20
32.68188858032227
 30
0.0
  0
POINT
  5
48A
330
47E
100
AcDbEntity
  8
Defpoints
 62
     0
100
AcDbPoint
 10
-14.40736961364746
 20
29.08186340332031
 30
0.0
  0
POINT
  5
48B
330
47E
100
AcDbEntity
  8
Defpoints
 62
     0
100
AcDbPoint
 10
-25.40736961364746
 20
29.08186340332031
 30
0.0
  0
LINE
  5
48C
330
47E
100
AcDbEntity
  8
0
  6
Continuous
 62
     7
100
AcDbLine
 10
-17.94736961364746
 20
32.68188858032227
 30
0.0
 11
-26.40736961364746
 21
32.68188858032227
 31
0.0
  0
LINE
  5
48D
330
47E
100
AcDbEntity
  8
0
  6
Continuous
 62
     7
100
AcDbLine
 10
-16.94736961364746
 20
29.08186340332031
 30
0.0
 11
-26.40736961364746
 21
29.08186340332031
 31
0.0
  0
LINE
  5
48E
330
47E
100
AcDbEntity
  8
0
  6
Continuous
 62
     7
100
AcDbLine
 10
-25.40736961364746
 20
39.03188858032227
 30
0.0
 11
-25.40736961364746
 21
22.73186340332031
 31
0.0
  0
LINE
  5
48F
330
47E
100
AcDbEntity
  8
0
  6
Continuous
 62
     7
100
AcDbLine
 10
-25.40736961364746
 20
32.68188858032227
 30
0.0
 11
-26.22582729794746
 21
35.73641424232789
 31
0.0
  0
LINE
  5
490
330
47E
100
AcDbEntity
  8
0
  6
Continuous
 62
     7
100
AcDbLine
 10
-25.40736961364746
 20
32.68188858032227
 30
0.0
 11
-24.58891192934746
 21
35.73641424232789
 31
0.0
  0
LINE
  5
491
330
47E
100
AcDbEntity
  8
0
  6
Continuous
 62
     7
100
AcDbLine
 10
-25.40736961364746
 20
29.08186340332031
 30
0.0
 11
-24.58891192934746
 21
26.02733774131469
 31
0.0
  0
LINE
  5
492
330
47E
100
AcDbEntity
  8
0
  6
Continuous
 62
     7
100
AcDbLine
 10
-25.40736961364746
 20
29.08186340332031
 30
0.0
 11
-26.22582729794746
 21
26.02733774131469
 31
0.0
  0
ENDBLK
  5
480
330
47E
100
AcDbEntity
  8
0
100
AcDbBlockEnd
  0
BLOCK
  5
495
330
494
100
AcDbEntity
  8
0
100
AcDbBlockBegin
  2
*D35
 70
     1
 10
0.0
 20
0.0
 30
0.0
  3
*D35
  1

  0
LINE
  5
497
330
494
100
AcDbEntity
  8
0
 62
     0
370
    -2
100
AcDbLine
 10
-15.40736961364746
 20
35.22188858032226
 30
0.0
 11
-15.40736961364746
 21
58.82580947875977
 31
0.0
  0
LINE
  5
498
330
494
100
AcDbEntity
  8
0
 62
     0
370
    -2
100
AcDbLine
 10
51.94263076782227
 20
31.97186187744141
 30
0.0
 11
51.94263076782227
 21
58.82580947875977
 31
0.0
  0
LINE
  5
499
330
494
100
AcDbEntity
  8
0
 62
     0
370
    -2
100
AcDbLine
 10
-12.40736961364746
 20
57.82580947875977
 30
0.0
 11
48.94263076782227
 21
57.82580947875977
 31
0.0
  0
INSERT
  5
49A
330
494
100
AcDbEntity
  8
0
 62
     0
370
    -2
100
AcDbBlockReference
  2
_OPEN30
 10
-15.40736961364746
 20
57.82580947875977
 30
0.0
 41
3.0
 42
3.0
 43
3.0
 50
180.0
  0
INSERT
  5
49B
330
494
100
AcDbEntity
  8
0
 62
     0
370
    -2
100
AcDbBlockReference
  2
_OPEN30
 10
51.94263076782227
 20
57.82580947875977
 30
0.0
 41
3.0
 42
3.0
 43
3.0
 50
360.0
  0
MTEXT
  5
49C
330
494
100
AcDbEntity
  8
0
 62
     1
100
AcDbMText
 10
18.26863153076172
 20
60.24020951473713
 30
0.0
 40
3.200000047683716
 41
0.0
 71
     5
 72
     1
  1
135
 73
     1
 44
1.0
  0
POINT
  5
49D
330
494
100
AcDbEntity
  8
Defpoints
 62
     0
100
AcDbPoint
 10
-15.40736961364746
 20
32.68188858032227
 30
0.0
  0
POINT
  5
49E
330
494
100
AcDbEntity
  8
Defpoints
 62
     0
100
AcDbPoint
 10
51.94263076782227
 20
29.43186187744141
 30
0.0
  0
POINT
  5
49F
330
494
100
AcDbEntity
  8
Defpoints
 62
     0
100
AcDbPoint
 10
51.94263076782227
 20
57.82580947875977
 30
0.0
  0
ENDBLK
  5
496
330
494
100
AcDbEntity
  8
0
100
AcDbBlockEnd
  0
BLOCK
  5
4A2
330
4A1
100
AcDbEntity
  8
0
100
AcDbBlockBegin
  2
*D36
 70
     1
 10
0.0
 20
0.0
 30
0.0
  3
*D36
  1

  0
MTEXT
  5
4A9
330
4A1
100
AcDbEntity
  8
0
 62
     1
100
AcDbMText
 10
-50.04620306396485
 20
45.09628861629963
 30
0.0
 40
3.200000047683716
 41
0.0
 71
     5
 72
     1
  1
16
 73
     1
 44
1.0
  0
POINT
  5
4AA
330
4A1
100
AcDbEntity
  8
Defpoints
 62
     0
100
AcDbPoint
 10
-54.04720306396484
 20
31.09808731079102
 30
0.0
  0
POINT
  5
4AB
330
4A1
100
AcDbEntity
  8
Defpoints
 62
     0
100
AcDbPoint
 10
-46.04720306396484
 20
31.09808731079102
 30
0.0
  0
POINT
  5
4AC
330
4A1
100
AcDbEntity
  8
Defpoints
 62
     0
100
AcDbPoint
 10
-46.04720306396484
 20
42.68188858032227
 30
0.0
  0
LINE
  5
4AD
330
4A1
100
AcDbEntity
  8
0
  6
Continuous
 62
     7
100
AcDbLine
 10
-54.04720306396484
 20
33.63808731079101
 30
0.0
 11
-54.04720306396484
 21
43.68188858032227
 31
0.0
  0
LINE
  5
4AE
330
4A1
100
AcDbEntity
  8
0
  6
Continuous
 62
     7
100
AcDbLine
 10
-46.04720306396484
 20
33.63808731079101
 30
0.0
 11
-46.04720306396484
 21
43.68188858032227
 31
0.0
  0
LINE
  5
4AF
330
4A1
100
AcDbEntity
  8
0
  6
Continuous
 62
     7
100
AcDbLine
 10
-60.39720306396485
 20
42.68188858032227
 30
0.0
 11
-39.69720306396484
 21
42.68188858032227
 31
0.0
  0
LINE
  5
4B0
330
4A1
100
AcDbEntity
  8
0
  6
Continuous
 62
     7
100
AcDbLine
 10
-54.04720306396484
 20
42.68188858032227
 30
0.0
 11
-57.10172872597047
 21
41.86343089602227
 31
0.0
  0
LINE
  5
4B1
330
4A1
100
AcDbEntity
  8
0
  6
Continuous
 62
     7
100
AcDbLine
 10
-54.04720306396484
 20
42.68188858032227
 30
0.0
 11
-57.10172872597047
 21
43.50034626462227
 31
0.0
  0
LINE
  5
4B2
330
4A1
100
AcDbEntity
  8
0
  6
Continuous
 62
     7
100
AcDbLine
 10
-46.04720306396484
 20
42.68188858032227
 30
0.0
 11
-42.99267740195922
 21
43.50034626462227
 31
0.0
  0
LINE
  5
4B3
330
4A1
100
AcDbEntity
  8
0
  6
Continuous
 62
     7
100
AcDbLine
 10
-46.04720306396484
 20
42.68188858032227
 30
0.0
 11
-42.99267740195922
 21
41.86343089602227
 31
0.0
  0
ENDBLK
  5
4A3
330
4A1
100
AcDbEntity
  8
0
100
AcDbBlockEnd
  0
BLOCK
  5
4BB
330
4B4
100
AcDbEntity
  8
0
100
AcDbBlockBegin
  2
SYM0003
 70
     0
 10
0.0
 20
0.0
 30
0.0
  3
SYM0003
  1

  0
LINE
  5
4B5
330
4B4
100
AcDbEntity
  8
0
  6
Continuous
 62
     7
100
AcDbLine
 10
0.0
 20
0.0
 30
0.0
 11
-29.00608497498238
 21
25.74454908933772
 31
0.0
  0
LINE
  5
4B6
330
4B4
100
AcDbEntity
  8
0
  6
Continuous
 62
     7
100
AcDbLine
 10
0.0
 20
0.0
 30
0.0
 11
-2.82778939372429
 21
1.415488306409145
 31
0.0
  0
LINE
  5
4B7
330
4B4
100
AcDbEntity
  8
0
  6
Continuous
 62
     7
100
AcDbLine
 10
0.0
 20
0.0
 30
0.0
 11
-1.741193298465329
 21
2.639743528871705
 31
0.0
  0
LINE
  5
4B8
330
4B4
100
AcDbEntity
  8
0
  6
Continuous
 62
     7
100
AcDbLine
 10
-29.00608447042026
 20
25.74455087154215
 30
0.0
 11
-53.23575404134311
 21
25.74455087154215
 31
0.0
  0
MTEXT
  5
4B9
330
4B4
100
AcDbEntity
  8
0
 62
     1
100
AcDbMText
 10
-52.11674573865452
 20
26.54455088346308
 30
0.0
 40
3.200000047683716
 41
0.0
 71
     7
 72
     1
  1
{\W0.833333;蝶ナット　Ｍ５}
 73
     1
 44
1.0
  0
ENDBLK
  5
4BC
330
4B4
100
AcDbEntity
  8
0
100
AcDbBlockEnd
  0
BLOCK
  5
4C4
330
4BD
100
AcDbEntity
  8
0
100
AcDbBlockBegin
  2
SYM0004
 70
     0
 10
0.0
 20
0.0
 30
0.0
  3
SYM0004
  1

  0
LINE
  5
4BE
330
4BD
100
AcDbEntity
  8
0
  6
Continuous
 62
     7
100
AcDbLine
 10
0.0
 20
0.0
 30
0.0
 11
-38.77004237501146
 21
36.78068361827542
 31
0.0
  0
LINE
  5
4BF
330
4BD
100
AcDbEntity
  8
0
  6
Continuous
 62
     7
100
AcDbLine
 10
0.0
 20
0.0
 30
0.0
 11
-2.779283103128897
 21
1.508504369732758
 31
0.0
  0
LINE
  5
4C0
330
4BD
100
AcDbEntity
  8
0
  6
Continuous
 62
     7
100
AcDbLine
 10
0.0
 20
0.0
 30
0.0
 11
-1.652677586907814
 21
2.696044657377396
 31
0.0
  0
LINE
  5
4C1
330
4BD
100
AcDbEntity
  8
0
  6
Continuous
 62
     7
100
AcDbLine
 10
-38.7700420483289
 20
36.78068345217558
 30
0.0
 11
-82.19971047484256
 21
36.78068345217558
 31
0.0
  0
MTEXT
  5
4C2
330
4BD
100
AcDbEntity
  8
0
 62
     1
100
AcDbMText
 10
-81.15966592871524
 20
37.58068346409651
 30
0.0
 40
3.200000047683716
 41
0.0
 71
     7
 72
     1
  1
{\W0.833333;角根丸頭ボルト　Ｍ５×12}
 73
     1
 44
1.0
  0
ENDBLK
  5
4C5
330
4BD
100
AcDbEntity
  8
0
100
AcDbBlockEnd
  0
BLOCK
  5
4C8
330
4C7
100
AcDbEntity
  8
0
100
AcDbBlockBegin
  2
*D39
 70
     1
 10
0.0
 20
0.0
 30
0.0
  3
*D39
  1

  0
LINE
  5
4CA
330
4C7
100
AcDbEntity
  8
0
 62
     0
370
    -2
100
AcDbLine
 10
55.94263076782227
 20
35.57344909667969
 30
0.0
 11
55.94263076782227
 21
-4.317138599395753
 31
0.0
  0
LINE
  5
4CB
330
4C7
100
AcDbEntity
  8
0
 62
     0
370
    -2
100
AcDbLine
 10
50.44263076782227
 20
-3.317138599395752
 30
0.0
 11
52.94263076782227
 21
-3.317138599395752
 31
0.0
  0
INSERT
  5
4CC
330
4C7
100
AcDbEntity
  8
0
 62
     0
370
    -2
100
AcDbBlockReference
  2
_OPEN30
 10
47.44263076782227
 20
-3.317138599395752
 30
0.0
 41
3.0
 42
3.0
 43
3.0
 50
180.0
  0
INSERT
  5
4CD
330
4C7
100
AcDbEntity
  8
0
 62
     0
370
    -2
100
AcDbBlockReference
  2
_OPEN30
 10
55.94263076782227
 20
-3.317138599395753
 30
0.0
 41
3.0
 42
3.0
 43
3.0
 50
360.0
  0
MTEXT
  5
4CE
330
4C7
100
AcDbEntity
  8
0
 62
     1
100
AcDbMText
 10
51.69363076782226
 20
-0.912338563561439
 30
0.0
 40
3.200000047683716
 41
0.0
 71
     5
 72
     1
  1
17
 73
     1
 44
1.0
  0
POINT
  5
4CF
330
4C7
100
AcDbEntity
  8
Defpoints
 62
     0
100
AcDbPoint
 10
47.44263076782227
 20
6.68186092376709
 30
0.0
  0
POINT
  5
4D0
330
4C7
100
AcDbEntity
  8
Defpoints
 62
     0
100
AcDbPoint
 10
55.94263076782227
 20
38.11344909667969
 30
0.0
  0
POINT
  5
4D1
330
4C7
100
AcDbEntity
  8
Defpoints
 62
     0
100
AcDbPoint
 10
55.94263076782226
 20
-3.318138599395752
 30
0.0
  0
ENDBLK
  5
4C9
330
4C7
100
AcDbEntity
  8
0
100
AcDbBlockEnd
  0
BLOCK
  5
4D4
330
4D3
100
AcDbEntity
  8
0
100
AcDbBlockBegin
  2
*D40
 70
     1
 10
0.0
 20
0.0
 30
0.0
  3
*D40
  1

  0
LINE
  5
4D6
330
4D3
100
AcDbEntity
  8
0
 62
     0
370
    -2
100
AcDbLine
 10
47.44263076782227
 20
4.14186092376709
 30
0.0
 11
47.44263076782227
 21
-14.31713907623291
 31
0.0
  0
LINE
  5
4D7
330
4D3
100
AcDbEntity
  8
0
 62
     0
370
    -2
100
AcDbLine
 10
62.44263076782227
 20
35.57344909667969
 30
0.0
 11
62.44263076782227
 21
-14.31713907623291
 31
0.0
  0
LINE
  5
4D8
330
4D3
100
AcDbEntity
  8
0
 62
     0
370
    -2
100
AcDbLine
 10
50.44263076782227
 20
-13.31713907623291
 30
0.0
 11
59.44263076782227
 21
-13.31713907623291
 31
0.0
  0
INSERT
  5
4D9
330
4D3
100
AcDbEntity
  8
0
 62
     0
370
    -2
100
AcDbBlockReference
  2
_OPEN30
 10
47.44263076782227
 20
-13.31713907623291
 30
0.0
 41
3.0
 42
3.0
 43
3.0
 50
180.0
  0
INSERT
  5
4DA
330
4D3
100
AcDbEntity
  8
0
 62
     0
370
    -2
100
AcDbBlockReference
  2
_OPEN30
 10
62.44263076782227
 20
-13.31713907623291
 30
0.0
 41
3.0
 42
3.0
 43
3.0
 50
360.0
  0
MTEXT
  5
4DB
330
4D3
100
AcDbEntity
  8
0
 62
     1
100
AcDbMText
 10
54.94363076782226
 20
-10.90273904025555
 30
0.0
 40
3.200000047683716
 41
0.0
 71
     5
 72
     1
  1
30
 73
     1
 44
1.0
  0
POINT
  5
4DC
330
4D3
100
AcDbEntity
  8
Defpoints
 62
     0
100
AcDbPoint
 10
47.44263076782227
 20
6.68186092376709
 30
0.0
  0
POINT
  5
4DD
330
4D3
100
AcDbEntity
  8
Defpoints
 62
     0
100
AcDbPoint
 10
62.44263076782227
 20
38.11344909667969
 30
0.0
  0
POINT
  5
4DE
330
4D3
100
AcDbEntity
  8
Defpoints
 62
     0
100
AcDbPoint
 10
62.44263076782226
 20
-13.31813907623291
 30
0.0
  0
ENDBLK
  5
4D5
330
4D3
100
AcDbEntity
  8
0
100
AcDbBlockEnd
  0
ENDSEC
  0
SECTION
  2
ENTITIES
  0
POINT
  5
1A2
330
1F
100
AcDbEntity
  8
VIEW0001
 62
     7
100
AcDbPoint
 10
105.0
 20
-148.5
 30
0.0
  0
LINE
  5
1A3
330
1F
100
AcDbEntity
  8
VIEW0001
  6
Continuous
 62
     7
370
    20
100
AcDbLine
 10
41.0
 20
138.0
 30
0.0
 11
41.0
 21
128.0
 31
0.0
  0
LINE
  5
1A4
330
1F
100
AcDbEntity
  8
VIEW0001
  6
Continuous
 62
     7
370
    20
100
AcDbLine
 10
41.0
 20
128.0
 30
0.0
 11
96.0
 21
128.0
 31
0.0
  0
LINE
  5
1A5
330
1F
100
AcDbEntity
  8
VIEW0001
  6
Continuous
 62
     7
370
    20
100
AcDbLine
 10
-84.5
 20
-120.0
 30
0.0
 11
96.0
 21
-120.0
 31
0.0
  0
LINE
  5
1A6
330
1F
100
AcDbEntity
  8
VIEW0001
  6
Continuous
 62
     7
370
    50
100
AcDbLine
 10
-84.5
 20
138.0
 30
0.0
 11
96.0
 21
138.0
 31
0.0
  0
LINE
  5
1A7
330
1F
100
AcDbEntity
  8
VIEW0001
  6
Continuous
 62
     7
370
    50
100
AcDbLine
 10
-84.5
 20
-138.0
 30
0.0
 11
96.0
 21
-138.0
 31
0.0
  0
LINE
  5
1A8
330
1F
100
AcDbEntity
  8
VIEW0001
  6
Continuous
 62
     7
370
    50
100
AcDbLine
 10
96.0
 20
138.0
 30
0.0
 11
96.0
 21
-138.0
 31
0.0
  0
LINE
  5
1A9
330
1F
100
AcDbEntity
  8
VIEW0001
  6
Continuous
 62
     7
370
    50
100
AcDbLine
 10
-84.5
 20
138.0
 30
0.0
 11
-84.5
 21
-138.0
 31
0.0
  0
LWPOLYLINE
  5
1AA
330
1F
100
AcDbEntity
  8
VIEW0001
  6
Continuous
 62
     7
100
AcDbPolyline
 90
        2
 70
     0
 10
25.75
 20
-129.0
 40
0.001000000047497
 41
0.001000000047497
 10
25.75
 20
-120.0
 40
0.001000000047497
 41
0.001000000047497
  0
LWPOLYLINE
  5
1AB
330
1F
100
AcDbEntity
  8
VIEW0001
  6
Continuous
 62
     7
100
AcDbPolyline
 90
        2
 70
     0
 10
-64.5
 20
-138.0
 40
0.001000000047497
 41
0.001000000047497
 10
-64.5
 20
-120.0
 40
0.001000000047497
 41
0.001000000047497
  0
LWPOLYLINE
  5
1AC
330
1F
100
AcDbEntity
  8
VIEW0001
  6
Continuous
 62
     7
100
AcDbPolyline
 90
        2
 70
     0
 10
96.0
 20
-129.0
 40
0.001000000047497
 41
0.001000000047497
 10
-84.5
 20
-129.0
 40
0.001000000047497
 41
0.001000000047497
  0
LWPOLYLINE
  5
1AD
330
1F
100
AcDbEntity
  8
VIEW0001
  6
Continuous
 62
     7
100
AcDbPolyline
 90
        2
 70
     0
 10
5.75
 20
-138.0
 40
0.001000000047497
 41
0.001000000047497
 10
5.75
 20
-120.0
 40
0.001000000047497
 41
0.001000000047497
  0
LWPOLYLINE
  5
1AE
330
1F
100
AcDbEntity
  8
VIEW0001
  6
Continuous
 62
     7
100
AcDbPolyline
 90
        2
 70
     0
 10
66.0
 20
-129.0
 40
0.001000000047497
 41
0.001000000047497
 10
66.0
 20
-120.0
 40
0.001000000047497
 41
0.001000000047497
  0
LWPOLYLINE
  5
1AF
330
1F
100
AcDbEntity
  8
VIEW0001
  6
Continuous
 62
     7
100
AcDbPolyline
 90
        2
 70
     0
 10
81.0
 20
-129.0
 40
0.001000000047497
 41
0.001000000047497
 10
81.0
 20
-120.0
 40
0.001000000047497
 41
0.001000000047497
  0
MTEXT
  5
1B0
330
1F
100
AcDbEntity
  8
VIEW0001
 62
     1
100
AcDbMText
 10
12.32124996185303
 20
-126.5
 30
0.0
 40
4.0
 41
0.0
 71
     7
 72
     1
  1
{\W0.833333;材質}
 73
     1
 44
1.0
  0
MTEXT
  5
1B1
330
1F
100
AcDbEntity
  8
VIEW0001
 62
     1
100
AcDbMText
 10
-77.92875003814697
 20
-135.5
 30
0.0
 40
4.0
 41
0.0
 71
     7
 72
     1
  1
{\W0.833333;規格}
 73
     1
 44
1.0
  0
MTEXT
  5
1B2
330
1F
100
AcDbEntity
  8
VIEW0001
 62
     1
100
AcDbMText
 10
-77.92875003814697
 20
-126.5
 30
0.0
 40
4.0
 41
0.0
 71
     7
 72
     1
  1
{\W0.833333;品名}
 73
     1
 44
1.0
  0
MTEXT
  5
1B3
330
1F
100
AcDbEntity
  8
VIEW0001
 62
     1
100
AcDbMText
 10
70.07124996185303
 20
-126.5
 30
0.0
 40
4.0
 41
0.0
 71
     7
 72
     1
  1
{\W0.833333;尺度}
 73
     1
 44
1.0
  0
MTEXT
  5
1B4
330
1F
100
AcDbEntity
  8
VIEW0001
 62
     1
100
AcDbMText
 10
-48.80375057458878
 20
-135.5
 30
0.0
 40
4.0
 41
0.0
 71
     7
 72
     1
  1
{\W0.833333;ＣＲ１０５-5～10}
 73
     1
 44
1.0
  0
MTEXT
  5
1B5
330
1F
100
AcDbEntity
  8
VIEW0001
 62
     1
100
AcDbMText
 10
-60.80375093221664
 20
-126.5
 30
0.0
 40
4.0
 41
0.0
 71
     7
 72
     1
  1
{\W0.833333;ｽﾃﾝ内吊り面打ちｽﾗｲﾄﾞ6寸}
 73
     1
 44
1.0
  0
MTEXT
  5
1B6
330
1F
100
AcDbEntity
  8
VIEW0001
 62
     1
100
AcDbMText
 10
83.07124984264374
 20
-126.5
 30
0.0
 40
4.0
 41
0.0
 71
     7
 72
     1
  1
{\W0.833333;1/2}
 73
     1
 44
1.0
  0
MTEXT
  5
1B7
330
1F
100
AcDbEntity
  8
VIEW0001
 62
     1
100
AcDbMText
 10
26.46785604953766
 20
-135.75
 30
0.0
 40
4.5
 41
0.0
 71
     7
 72
     1
  1
{\W1.40741;デンカ株式会社}
 73
     1
 44
1.0
  0
MTEXT
  5
1B8
330
1F
100
AcDbEntity
  8
VIEW0001
 62
     1
100
AcDbMText
 10
34.4462496638298
 20
-126.5
 30
0.0
 40
4.0
 41
0.0
 71
     7
 72
     1
  1
{\W0.833333;SUS304}
 73
     1
 44
1.0
  0
LINE
  5
1BA
330
1F
100
AcDbEntity
  8
VIEW0002
  6
Continuous
 62
     7
100
AcDbLine
 10
31.02750968933105
 20
-113.2365493774414
 30
0.0
 11
86.33969116210938
 21
-113.2365493774414
 31
0.0
  0
LINE
  5
1BB
330
1F
100
AcDbEntity
  8
VIEW0002
  6
Continuous
 62
     7
100
AcDbLine
 10
22.98590469360352
 20
98.37828826904297
 30
0.0
 11
22.98590469360352
 21
95.41098022460938
 31
0.0
  0
LINE
  5
1BC
330
1F
100
AcDbEntity
  8
VIEW0002
  6
Continuous
 62
     7
100
AcDbLine
 10
16.94258486204158
 20
98.27298038396901
 30
0.0
 11
24.26965389318649
 21
99.2729977657183
 31
0.0
  0
LINE
  5
1BD
330
1F
100
AcDbEntity
  8
VIEW0002
  6
Continuous
 62
     7
100
AcDbLine
 10
55.34261607376472
 20
78.52297616542424
 30
0.0
 11
50.63602123873918
 21
81.94689335391067
 31
0.0
  0
LINE
  5
1BE
330
1F
100
AcDbEntity
  8
VIEW0002
  6
Continuous
 62
     7
100
AcDbLine
 10
24.26965300325725
 20
99.273005637101
 30
0.0
 11
48.29500288129321
 21
102.1785471100801
 31
0.0
  0
LINE
  5
1BF
330
1F
100
AcDbEntity
  8
VIEW0002
  6
Continuous
 62
     7
100
AcDbLine
 10
27.08166885375977
 20
99.08023071289062
 30
0.0
 11
27.08166885375977
 21
96.36817932128906
 31
0.0
  0
LINE
  5
1C0
330
1F
100
AcDbEntity
  8
VIEW0002
  6
Continuous
 62
     7
100
AcDbLine
 10
19.35199215108153
 20
91.02298676242195
 30
0.0
 11
24.26965820439894
 21
89.47971579643786
 31
0.0
  0
LINE
  5
1C1
330
1F
100
AcDbEntity
  8
VIEW0002
  6
Continuous
 62
     7
100
AcDbLine
 10
19.35199356079102
 20
94.02297973632812
 30
0.0
 11
19.35199356079102
 21
91.02297973632812
 31
0.0
  0
LINE
  5
1C2
330
1F
100
AcDbEntity
  8
VIEW0002
  6
Continuous
 62
     7
100
AcDbLine
 10
55.942626953125
 20
94.2605209350586
 30
0.0
 11
55.942626953125
 21
90.78544616699219
 31
0.0
  0
LINE
  5
1C3
330
1F
100
AcDbEntity
  8
VIEW0002
  6
Continuous
 62
     7
100
AcDbLine
 10
55.942626953125
 20
106.5229797363281
 30
0.0
 11
55.942626953125
 21
98.28544616699219
 31
0.0
  0
LINE
  5
1C4
330
1F
100
AcDbEntity
  8
VIEW0002
  6
Continuous
 62
     7
100
AcDbLine
 10
55.34265381990073
 20
106.5229846590831
 30
0.0
 11
50.63608433388535
 21
103.0990853120179
 31
0.0
  0
LINE
  5
1C5
330
1F
100
AcDbEntity
  8
VIEW0002
  6
Continuous
 62
     7
100
AcDbLine
 10
6.942600250244141
 20
98.27297973632812
 30
0.0
 11
16.94258499145508
 21
98.27297973632812
 31
0.0
  0
LINE
  5
1C6
330
1F
100
AcDbEntity
  8
VIEW0002
  6
Continuous
 62
     7
100
AcDbLine
 10
51.71881484985352
 20
87.27297973632812
 30
0.0
 11
67.04300689697266
 21
87.27297973632812
 31
0.0
  0
LINE
  5
1C7
330
1F
100
AcDbEntity
  8
VIEW0002
  6
Continuous
 62
     7
100
AcDbLine
 10
19.35199271283162
 20
94.02297971094934
 30
0.0
 11
24.26965458867164
 21
95.56625124842486
 31
0.0
  0
LINE
  5
1C8
330
1F
100
AcDbEntity
  8
VIEW0002
  6
Continuous
 62
     7
100
AcDbLine
 10
49.99513419313338
 20
37.06474652925772
 30
0.0
 11
53.91141901282285
 21
37.75529322706045
 31
0.0
  0
LINE
  5
1C9
330
1F
100
AcDbEntity
  8
VIEW0002
  6
Continuous
 62
     7
100
AcDbLine
 10
6.942600250244141
 20
98.27297973632812
 30
0.0
 11
6.942600250244141
 21
93.5836181640625
 31
0.0
  0
LINE
  5
1CA
330
1F
100
AcDbEntity
  8
VIEW0002
  6
Continuous
 62
     7
100
AcDbLine
 10
16.94260041885254
 20
86.77298567512001
 30
0.0
 11
24.2317472072553
 21
85.77814401939922
 31
0.0
  0
LINE
  5
1CB
330
1F
100
AcDbEntity
  8
VIEW0002
  6
Continuous
 62
     7
100
AcDbLine
 10
51.71881484985352
 20
97.77297973632812
 30
0.0
 11
67.04300689697266
 21
97.77297973632812
 31
0.0
  0
LINE
  5
1CC
330
1F
100
AcDbEntity
  8
VIEW0002
  6
Continuous
 62
     7
100
AcDbLine
 10
51.71881484985352
 20
94.77297973632812
 30
0.0
 11
67.04300689697266
 21
94.77297973632812
 31
0.0
  0
LINE
  5
1CD
330
1F
100
AcDbEntity
  8
VIEW0002
  6
Continuous
 62
     7
100
AcDbLine
 10
18.52566909790039
 20
92.52297973632812
 30
0.0
 11
44.29254531860352
 21
92.52297973632812
 31
0.0
  0
LINE
  5
1CE
330
1F
100
AcDbEntity
  8
VIEW0002
  6
Continuous
 62
     7
100
AcDbLine
 10
24.26965471952251
 20
95.56625093172453
 30
0.0
 11
45.94262605212094
 21
98.77297851698489
 31
0.0
  0
LINE
  5
1CF
330
1F
100
AcDbEntity
  8
VIEW0002
  6
Continuous
 62
     7
100
AcDbLine
 10
55.942626953125
 20
86.7605209350586
 30
0.0
 11
55.942626953125
 21
78.52297973632812
 31
0.0
  0
LINE
  5
1D0
330
1F
100
AcDbEntity
  8
VIEW0002
  6
Continuous
 62
     7
100
AcDbLine
 10
51.71881484985352
 20
90.27297973632812
 30
0.0
 11
67.04300689697266
 21
90.27297973632812
 31
0.0
  0
LINE
  5
1D1
330
1F
100
AcDbEntity
  8
VIEW0002
  6
Continuous
 62
     7
100
AcDbLine
 10
24.26965713500977
 20
95.56625366210938
 30
0.0
 11
24.26965713500977
 21
89.4797134399414
 31
0.0
  0
LINE
  5
1D2
330
1F
100
AcDbEntity
  8
VIEW0002
  6
Continuous
 62
     7
100
AcDbLine
 10
44.32624069087385
 20
92.65061081286433
 30
0.0
 11
45.94263273072045
 21
98.77299099270576
 31
0.0
  0
LINE
  5
1D3
330
1F
100
AcDbEntity
  8
VIEW0002
  6
Continuous
 62
     7
100
AcDbLine
 10
44.32623812526744
 20
92.39534134358615
 30
0.0
 11
45.94262432251496
 21
86.27298329365624
 31
0.0
  0
LINE
  5
1D4
330
1F
100
AcDbEntity
  8
VIEW0002
  6
Continuous
 62
     7
100
AcDbLine
 10
24.26966026708053
 20
89.47971609515756
 30
0.0
 11
45.94263159967898
 21
86.27298850989717
 31
0.0
  0
LINE
  5
1D5
330
1F
100
AcDbEntity
  8
VIEW0002
  6
Continuous
 62
     7
100
AcDbLine
 10
45.94263076782227
 20
85.37939453125
 30
0.0
 11
45.94263076782227
 21
83.337158203125
 31
0.0
  0
LINE
  5
1D6
330
1F
100
AcDbEntity
  8
VIEW0002
  6
CENTER
 62
     7
100
AcDbLine
 10
44.29254531860352
 20
92.52297973632812
 30
0.0
 11
78.45357513427734
 21
92.52297973632812
 31
0.0
  0
LINE
  5
1D7
330
1F
100
AcDbEntity
  8
VIEW0002
  6
Continuous
 62
     7
100
AcDbLine
 10
6.942600250244141
 20
91.46234893798828
 30
0.0
 11
6.942600250244141
 21
86.77297973632812
 31
0.0
  0
LINE
  5
1D8
330
1F
100
AcDbEntity
  8
VIEW0002
  6
Continuous
 62
     7
100
AcDbLine
 10
55.34259033203125
 20
106.5229797363281
 30
0.0
 11
70.3872299194336
 21
106.5229797363281
 31
0.0
  0
LINE
  5
1D9
330
1F
100
AcDbEntity
  8
VIEW0002
  6
Continuous
 62
     7
100
AcDbLine
 10
16.94258499145508
 20
91.4622802734375
 30
0.0
 11
16.94258499145508
 21
86.77297973632812
 31
0.0
  0
LINE
  5
1DA
330
1F
100
AcDbEntity
  8
VIEW0002
  6
Continuous
 62
     7
100
AcDbLine
 10
55.34259033203125
 20
78.52297973632812
 30
0.0
 11
70.3872299194336
 21
78.52297973632812
 31
0.0
  0
LINE
  5
1DB
330
1F
100
AcDbEntity
  8
VIEW0002
  6
Continuous
 62
     7
100
AcDbLine
 10
56.48991754307256
 20
36.03630221507974
 30
0.0
 11
70.87117223939832
 21
12.08464602317353
 31
0.0
  0
LINE
  5
1DC
330
1F
100
AcDbEntity
  8
VIEW0002
  6
Continuous
 62
     7
100
AcDbLine
 10
45.94263076782227
 20
101.7810897827148
 30
0.0
 11
45.94263076782227
 21
99.41975402832031
 31
0.0
  0
LINE
  5
1DD
330
1F
100
AcDbEntity
  8
VIEW0002
  6
CENTER
 62
     7
100
AcDbLine
 10
11.94263076782227
 20
95.52297973632812
 30
0.0
 11
11.94263076782227
 21
89.52297973632812
 31
0.0
  0
LINE
  5
1DE
330
1F
100
AcDbEntity
  8
VIEW0002
  6
Continuous
 62
     7
100
AcDbLine
 10
24.30758187950147
 20
85.76837771152135
 30
0.0
 11
48.2949433233441
 21
82.86743042641477
 31
0.0
  0
LINE
  5
1DF
330
1F
100
AcDbEntity
  8
VIEW0002
  6
Continuous
 62
     7
100
AcDbLine
 10
22.98590469360352
 20
86.66767120361328
 30
0.0
 11
22.98590469360352
 21
89.63497924804688
 31
0.0
  0
LINE
  5
1E0
330
1F
100
AcDbEntity
  8
VIEW0002
  6
Continuous
 62
     7
100
AcDbLine
 10
6.942600250244141
 20
86.77297973632812
 30
0.0
 11
16.94258499145508
 21
86.77297973632812
 31
0.0
  0
LINE
  5
1E1
330
1F
100
AcDbEntity
  8
VIEW0002
  6
Continuous
 62
     7
100
AcDbLine
 10
16.94258499145508
 20
98.27297973632812
 30
0.0
 11
16.94258499145508
 21
93.58367919921875
 31
0.0
  0
LINE
  5
1E2
330
1F
100
AcDbEntity
  8
VIEW0002
  6
Continuous
 62
     7
100
AcDbLine
 10
27.08166885375977
 20
85.96572875976562
 30
0.0
 11
27.08166885375977
 21
88.67778015136719
 31
0.0
  0
LINE
  5
1E3
330
1F
100
AcDbEntity
  8
VIEW0002
  6
Continuous
 62
     7
100
AcDbLine
 10
47.90273773914338
 20
31.30137868622336
 30
0.0
 11
50.02568461388075
 21
33.42432556096073
 31
0.0
  0
LINE
  5
1E4
330
1F
100
AcDbEntity
  8
VIEW0002
  6
Continuous
 62
     7
100
AcDbLine
 10
30.32622850347146
 20
29.41135606700501
 30
0.0
 11
46.9728082048826
 21
30.86774307310738
 31
0.0
  0
LINE
  5
1E5
330
1F
100
AcDbEntity
  8
VIEW0002
  6
Continuous
 62
     7
100
AcDbLine
 10
8.442630767822266
 20
13.18188762664795
 30
0.0
 11
16.30551528930664
 21
13.18188762664795
 31
0.0
  0
LINE
  5
1E6
330
1F
100
AcDbEntity
  8
VIEW0002
  6
Continuous
 62
     7
100
AcDbLine
 10
50.29240798673996
 20
33.56317077654612
 30
0.0
 11
51.2418121887221
 21
33.73057635779053
 31
0.0
  0
LINE
  5
1E7
330
1F
100
AcDbEntity
  8
VIEW0002
  6
Continuous
 62
     7
100
AcDbLine
 10
6.942630767822266
 20
16.68188858032227
 30
0.0
 11
16.30550956726074
 21
16.68188858032227
 31
0.0
  0
LINE
  5
1E8
330
1F
100
AcDbEntity
  8
VIEW0002
  6
Continuous
 62
     7
100
AcDbLine
 10
30.02118340473846
 20
32.89803751040344
 30
0.0
 11
45.03612491037644
 21
34.21167467181652
 31
0.0
  0
LINE
  5
1E9
330
1F
100
AcDbEntity
  8
VIEW0002
  6
Continuous
 62
     7
100
AcDbLine
 10
52.3600624584586
 20
34.61691041617101
 30
0.0
 11
53.2992632615609
 21
36.80837905148447
 31
0.0
  0
LINE
  5
1EA
330
1F
100
AcDbEntity
  8
VIEW0002
  6
Continuous
 62
     7
100
AcDbLine
 10
46.58600815150204
 20
34.93439656688785
 30
0.0
 11
47.32787900203952
 21
35.67626741742534
 31
0.0
  0
LINE
  5
1EB
330
1F
100
AcDbEntity
  8
VIEW0002
  6
Continuous
 62
     7
100
AcDbLine
 10
66.638994172236
 20
18.25915029503842
 30
0.0
 11
67.15852543186699
 21
18.26805366468823
 31
0.0
  0
LINE
  5
1EC
330
1F
100
AcDbEntity
  8
VIEW0002
  6
CENTER
 62
     7
100
AcDbLine
 10
11.94263076782227
 20
95.52298736572266
 30
0.0
 11
11.94263076782227
 21
89.52297973632812
 31
0.0
  0
LINE
  5
1ED
330
1F
100
AcDbEntity
  8
VIEW0002
  6
Continuous
 62
     7
100
AcDbLine
 10
55.20392471019303
 20
35.26414780446808
 30
0.0
 11
64.80257125042375
 21
19.27781791226653
 31
0.0
  0
LINE
  5
1EE
330
1F
100
AcDbEntity
  8
VIEW0002
  6
Continuous
 62
     7
100
AcDbLine
 10
55.94262852003032
 20
38.11344953121934
 30
0.0
 11
56.45545027266999
 21
37.25935643806979
 31
0.0
  0
LINE
  5
1EF
330
1F
100
AcDbEntity
  8
VIEW0002
  6
Continuous
 62
     7
100
AcDbLine
 10
6.942630767822266
 20
16.68188858032227
 30
0.0
 11
6.942630767822266
 21
14.56108379364014
 31
0.0
  0
LINE
  5
1F0
330
1F
100
AcDbEntity
  8
VIEW0002
  6
Continuous
 62
     7
100
AcDbLine
 10
17.21181837157933
 20
17.2592710632538
 30
0.0
 11
21.82966596429779
 21
27.16227666273995
 31
0.0
  0
LINE
  5
1F1
330
1F
100
AcDbEntity
  8
VIEW0002
  6
Continuous
 62
     7
100
AcDbLine
 10
20.38389559640357
 20
15.78010708324638
 30
0.0
 11
25.00174318912202
 21
25.68311268273253
 31
0.0
  0
LINE
  5
1F2
330
1F
100
AcDbEntity
  8
VIEW0002
  6
Continuous
 62
     7
100
AcDbLine
 10
52.69961646610869
 20
35.40921765211957
 30
0.0
 11
54.27605120205899
 21
35.68718563742517
 31
0.0
  0
LINE
  5
1F3
330
1F
100
AcDbEntity
  8
VIEW0002
  6
CENTER
 62
     7
100
AcDbLine
 10
-17.90740013122559
 20
92.52297973632812
 30
0.0
 11
18.52566909790039
 21
92.52297973632812
 31
0.0
  0
LINE
  5
1F4
330
1F
100
AcDbEntity
  8
VIEW0002
  6
Continuous
 62
     7
100
AcDbLine
 10
7.817630767822266
 20
93.89798736572266
 30
0.0
 11
8.99782943725586
 21
93.89798736572266
 31
0.0
  0
LINE
  5
1F5
330
1F
100
AcDbEntity
  8
VIEW0002
  6
Continuous
 62
     7
100
AcDbLine
 10
7.817630767822266
 20
91.14797973632812
 30
0.0
 11
8.99782943725586
 21
91.14797973632812
 31
0.0
  0
LINE
  5
1F6
330
1F
100
AcDbEntity
  8
VIEW0002
  6
Continuous
 62
     7
100
AcDbLine
 10
7.817630767822266
 20
91.64797973632812
 30
0.0
 11
8.99782943725586
 21
91.64797973632812
 31
0.0
  0
LINE
  5
1F7
330
1F
100
AcDbEntity
  8
VIEW0002
  6
Continuous
 62
     7
100
AcDbLine
 10
7.817630767822266
 20
93.39798736572266
 30
0.0
 11
8.99782943725586
 21
93.39798736572266
 31
0.0
  0
LINE
  5
1F8
330
1F
100
AcDbEntity
  8
VIEW0002
  6
Continuous
 62
     7
100
AcDbLine
 10
14.88743209838867
 20
93.89798736572266
 30
0.0
 11
16.06763076782227
 21
93.89798736572266
 31
0.0
  0
LINE
  5
1F9
330
1F
100
AcDbEntity
  8
VIEW0002
  6
Continuous
 62
     7
100
AcDbLine
 10
14.88743209838867
 20
93.39798736572266
 30
0.0
 11
16.06763076782227
 21
93.39798736572266
 31
0.0
  0
LINE
  5
1FA
330
1F
100
AcDbEntity
  8
VIEW0002
  6
Continuous
 62
     7
100
AcDbLine
 10
14.88743209838867
 20
91.64797973632812
 30
0.0
 11
16.06763076782227
 21
91.64797973632812
 31
0.0
  0
LINE
  5
1FB
330
1F
100
AcDbEntity
  8
VIEW0002
  6
Continuous
 62
     7
100
AcDbLine
 10
14.88743209838867
 20
91.14797973632812
 30
0.0
 11
16.06763076782227
 21
91.14797973632812
 31
0.0
  0
LINE
  5
1FC
330
1F
100
AcDbEntity
  8
VIEW0002
  6
PHANTOM
 62
     7
100
AcDbLine
 10
23.44258499145508
 20
98.27298736572266
 30
0.0
 11
23.44258499145508
 21
95.44388580322266
 31
0.0
  0
LINE
  5
1FD
330
1F
100
AcDbEntity
  8
VIEW0002
  6
PHANTOM
 62
     7
100
AcDbLine
 10
30.80758227094567
 20
85.76837984952438
 30
0.0
 11
54.79494560833999
 21
82.86743233541831
 31
0.0
  0
LINE
  5
1FE
330
1F
100
AcDbEntity
  8
VIEW0002
  6
PHANTOM
 62
     7
100
AcDbLine
 10
23.44258499145508
 20
89.60208129882812
 30
0.0
 11
23.44258499145508
 21
86.77297973632812
 31
0.0
  0
LINE
  5
1FF
330
1F
100
AcDbEntity
  8
VIEW0002
  6
PHANTOM
 62
     7
100
AcDbLine
 10
13.44260025024414
 20
89.63982391357422
 30
0.0
 11
13.44260025024414
 21
86.77297973632812
 31
0.0
  0
LINE
  5
200
330
1F
100
AcDbEntity
  8
VIEW0002
  6
PHANTOM
 62
     7
100
AcDbLine
 10
23.44258439699874
 20
86.77298239994295
 30
0.0
 11
30.73174630402917
 21
85.77813868079264
 31
0.0
  0
LINE
  5
201
330
1F
100
AcDbEntity
  8
VIEW0002
  6
PHANTOM
 62
     7
100
AcDbLine
 10
13.44260025024414
 20
98.27297973632812
 30
0.0
 11
13.44260025024414
 21
95.40613555908203
 31
0.0
  0
LINE
  5
202
330
1F
100
AcDbEntity
  8
VIEW0002
  6
PHANTOM
 62
     7
100
AcDbLine
 10
30.76965528825314
 20
99.27300372809746
 30
0.0
 11
54.79588756138102
 21
102.1786519148413
 31
0.0
  0
LINE
  5
203
330
1F
100
AcDbEntity
  8
VIEW0002
  6
PHANTOM
 62
     7
100
AcDbLine
 10
23.44258782527289
 20
98.2729785501548
 30
0.0
 11
30.7696568564178
 21
99.27299593190409
 31
0.0
  0
LINE
  5
204
330
1F
100
AcDbEntity
  8
VIEW0002
  6
PHANTOM
 62
     7
100
AcDbLine
 10
16.94258499145508
 20
98.27297973632812
 30
0.0
 11
23.44258499145508
 21
98.27297973632812
 31
0.0
  0
LINE
  5
205
330
1F
100
AcDbEntity
  8
VIEW0002
  6
PHANTOM
 62
     7
100
AcDbLine
 10
16.94258499145508
 20
86.77297973632812
 30
0.0
 11
23.44258499145508
 21
86.77297973632812
 31
0.0
  0
LINE
  5
206
330
1F
100
AcDbEntity
  8
VIEW0002
  6
PHANTOM
 62
     7
100
AcDbLine
 10
26.88389662796614
 20
15.78010659568126
 30
0.0
 11
31.5017434146042
 21
25.68311046652252
 31
0.0
  0
LINE
  5
207
330
1F
100
AcDbEntity
  8
VIEW0002
  6
PHANTOM
 62
     7
100
AcDbLine
 10
23.71181853881945
 20
17.25927097872888
 30
0.0
 11
28.32966532545751
 21
27.16227484957013
 31
0.0
  0
LINE
  5
208
330
1F
100
AcDbEntity
  8
VIEW0002
  6
PHANTOM
 62
     7
100
AcDbLine
 10
13.44263076782227
 20
16.68188858032227
 30
0.0
 11
13.44263076782227
 21
14.56108379364014
 31
0.0
  0
LINE
  5
209
330
1F
100
AcDbEntity
  8
VIEW0002
  6
PHANTOM
 62
     7
100
AcDbLine
 10
53.08600841958091
 20
34.93439791558701
 30
0.0
 11
53.82787927011839
 21
35.67626876612449
 31
0.0
  0
LINE
  5
20A
330
1F
100
AcDbEntity
  8
VIEW0002
  6
PHANTOM
 62
     7
100
AcDbLine
 10
36.52118326791033
 20
32.89803867495317
 30
0.0
 11
51.53612477354831
 21
34.21167583636625
 31
0.0
  0
LINE
  5
20B
330
1F
100
AcDbEntity
  8
VIEW0002
  6
PHANTOM
 62
     7
100
AcDbLine
 10
16.30551528930664
 20
16.68188858032227
 30
0.0
 11
22.80551528930664
 21
16.68188858032227
 31
0.0
  0
LINE
  5
20C
330
1F
100
AcDbEntity
  8
VIEW0002
  6
PHANTOM
 62
     7
100
AcDbLine
 10
56.79241038166491
 20
33.56317077101275
 30
0.0
 11
57.74181458364704
 21
33.73057635225717
 31
0.0
  0
LINE
  5
20D
330
1F
100
AcDbEntity
  8
VIEW0002
  6
PHANTOM
 62
     7
100
AcDbLine
 10
16.30551528930664
 20
13.18188762664795
 30
0.0
 11
22.80551528930664
 21
13.18188762664795
 31
0.0
  0
LINE
  5
20E
330
1F
100
AcDbEntity
  8
VIEW0002
  6
PHANTOM
 62
     7
100
AcDbLine
 10
36.82622836664333
 20
29.41135723155474
 30
0.0
 11
53.47281186823567
 21
30.86774457012988
 31
0.0
  0
LINE
  5
20F
330
1F
100
AcDbEntity
  8
VIEW0002
  6
PHANTOM
 62
     7
100
AcDbLine
 10
54.40273800722225
 20
31.30138003492251
 30
0.0
 11
56.52568218456132
 21
33.42432421226158
 31
0.0
  0
LINE
  5
210
330
1F
100
AcDbEntity
  8
VIEW0002
  6
Continuous
 62
     7
100
AcDbLine
 10
53.67200872013809
 20
37.10382237676431
 30
0.0
 11
54.01557042114977
 21
37.16440157594112
 31
0.0
  0
LINE
  5
211
330
1F
100
AcDbEntity
  8
VIEW0002
  6
PHANTOM
 62
     7
100
AcDbLine
 10
60.17201078385541
 20
37.10382424960265
 30
0.0
 11
60.51557248486708
 21
37.16440344877947
 31
0.0
  0
LINE
  5
212
330
1F
100
AcDbEntity
  8
VIEW0002
  6
PHANTOM
 62
     7
100
AcDbLine
 10
59.19961886103363
 20
35.40921764658619
 30
0.0
 11
60.77604608349706
 21
35.6871843070613
 31
0.0
  0
LINE
  5
213
330
1F
100
AcDbEntity
  8
VIEW0002
  6
Continuous
 62
     7
100
AcDbLine
 10
62.44263291802935
 20
38.1134504116763
 30
0.0
 11
62.96265990291626
 21
37.24735716629995
 31
0.0
  0
LINE
  5
214
330
1F
100
AcDbEntity
  8
VIEW0002
  6
PHANTOM
 62
     7
100
AcDbLine
 10
61.70392840249612
 20
35.26414986024577
 30
0.0
 11
71.30257494272685
 21
19.27781996804422
 31
0.0
  0
LINE
  5
215
330
1F
100
AcDbEntity
  8
VIEW0002
  6
PHANTOM
 62
     7
100
AcDbLine
 10
73.13898713735755
 20
18.25915054462474
 30
0.0
 11
73.65851839698853
 21
18.26805391427455
 31
0.0
  0
LINE
  5
216
330
1F
100
AcDbEntity
  8
VIEW0002
  6
PHANTOM
 62
     7
100
AcDbLine
 10
58.86006097435224
 20
34.61691001702084
 30
0.0
 11
59.79926177745453
 21
36.80837865233431
 31
0.0
  0
LINE
  5
217
330
1F
100
AcDbEntity
  8
VIEW0002
  6
PHANTOM
 62
     7
100
AcDbLine
 10
62.98992123537565
 20
36.03630427085742
 30
0.0
 11
77.37117593170142
 21
12.08464807895122
 31
0.0
  0
LINE
  5
218
330
1F
100
AcDbEntity
  8
VIEW0002
  6
PHANTOM
 62
     7
100
AcDbLine
 10
56.49513658805833
 20
37.06474652372435
 30
0.0
 11
60.4114214077478
 21
37.75529322152708
 31
0.0
  0
LINE
  5
219
330
1F
100
AcDbEntity
  8
VIEW0002
  6
PHANTOM
 62
     7
100
AcDbLine
 10
70.3872299194336
 20
78.52297973632812
 30
0.0
 11
76.8872299194336
 21
78.52297973632812
 31
0.0
  0
LINE
  5
21A
330
1F
100
AcDbEntity
  8
VIEW0002
  6
PHANTOM
 62
     7
100
AcDbLine
 10
70.3872299194336
 20
106.5229797363281
 30
0.0
 11
76.8872299194336
 21
106.5229797363281
 31
0.0
  0
LINE
  5
21B
330
1F
100
AcDbEntity
  8
VIEW0002
  6
PHANTOM
 62
     7
100
AcDbLine
 10
67.04300689697266
 20
90.27297973632812
 30
0.0
 11
73.54300689697266
 21
90.27297973632812
 31
0.0
  0
LINE
  5
21C
330
1F
100
AcDbEntity
  8
VIEW0002
  6
PHANTOM
 62
     7
100
AcDbLine
 10
62.442626953125
 20
86.7605209350586
 30
0.0
 11
62.442626953125
 21
78.52297973632812
 31
0.0
  0
LINE
  5
21D
330
1F
100
AcDbEntity
  8
VIEW0002
  6
PHANTOM
 62
     7
100
AcDbLine
 10
67.04300689697266
 20
94.77297973632812
 30
0.0
 11
73.54300689697266
 21
94.77297973632812
 31
0.0
  0
LINE
  5
21E
330
1F
100
AcDbEntity
  8
VIEW0002
  6
PHANTOM
 62
     7
100
AcDbLine
 10
67.04300689697266
 20
97.77297973632812
 30
0.0
 11
73.54300689697266
 21
97.77297973632812
 31
0.0
  0
LINE
  5
21F
330
1F
100
AcDbEntity
  8
VIEW0002
  6
PHANTOM
 62
     7
100
AcDbLine
 10
67.04300689697266
 20
87.27297973632812
 30
0.0
 11
73.54300689697266
 21
87.27297973632812
 31
0.0
  0
LINE
  5
220
330
1F
100
AcDbEntity
  8
VIEW0002
  6
PHANTOM
 62
     7
100
AcDbLine
 10
61.84264903710513
 20
106.5229805238545
 30
0.0
 11
57.13607955108974
 21
103.0990811767894
 31
0.0
  0
LINE
  5
221
330
1F
100
AcDbEntity
  8
VIEW0002
  6
PHANTOM
 62
     7
100
AcDbLine
 10
62.442626953125
 20
106.5229797363281
 30
0.0
 11
62.442626953125
 21
98.28544616699219
 31
0.0
  0
LINE
  5
222
330
1F
100
AcDbEntity
  8
VIEW0002
  6
PHANTOM
 62
     7
100
AcDbLine
 10
62.442626953125
 20
94.2605209350586
 30
0.0
 11
62.442626953125
 21
90.78544616699219
 31
0.0
  0
LINE
  5
223
330
1F
100
AcDbEntity
  8
VIEW0002
  6
PHANTOM
 62
     7
100
AcDbLine
 10
61.84261893345167
 20
78.52297999948414
 30
0.0
 11
57.13602448402494
 21
81.94689690745811
 31
0.0
  0
LINE
  5
224
330
1F
100
AcDbEntity
  8
VIEW0002
  6
CENTER
 62
     7
100
AcDbLine
 10
61.64080047607422
 20
102.2615585327148
 30
0.0
 11
61.64080047607422
 21
104.838508605957
 31
0.0
  0
LINE
  5
225
330
1F
100
AcDbEntity
  8
VIEW0002
  6
CENTER
 62
     7
100
AcDbLine
 10
60.96017456054688
 20
103.5229797363281
 30
0.0
 11
62.45682525634766
 21
103.5229797363281
 31
0.0
  0
LINE
  5
226
330
1F
100
AcDbEntity
  8
VIEW0002
  6
CENTER
 62
     7
100
AcDbLine
 10
62.82341766357422
 20
103.5229797363281
 30
0.0
 11
65.29259490966797
 21
103.5229797363281
 31
0.0
  0
LINE
  5
227
330
1F
100
AcDbEntity
  8
VIEW0002
  6
CENTER
 62
     7
100
AcDbLine
 10
63.95603179931641
 20
101.3835906982422
 30
0.0
 11
63.95603179931641
 21
105.3342514038086
 31
0.0
  0
LINE
  5
228
330
1F
100
AcDbEntity
  8
VIEW0002
  6
CENTER
 62
     7
100
AcDbLine
 10
69.35823822021484
 20
102.2141647338867
 30
0.0
 11
69.35823822021484
 21
104.8125762939453
 31
0.0
  0
LINE
  5
229
330
1F
100
AcDbEntity
  8
VIEW0002
  6
CENTER
 62
     7
100
AcDbLine
 10
68.56098937988281
 20
103.5229797363281
 30
0.0
 11
70.33174133300781
 21
103.5229797363281
 31
0.0
  0
LINE
  5
22A
330
1F
100
AcDbEntity
  8
VIEW0002
  6
CENTER
 62
     7
100
AcDbLine
 10
60.96017456054688
 20
81.52297973632812
 30
0.0
 11
62.45682525634766
 21
81.52297973632812
 31
0.0
  0
LINE
  5
22B
330
1F
100
AcDbEntity
  8
VIEW0002
  6
CENTER
 62
     7
100
AcDbLine
 10
62.82341766357422
 20
81.52297973632812
 30
0.0
 11
65.29259490966797
 21
81.52297973632812
 31
0.0
  0
LINE
  5
22C
330
1F
100
AcDbEntity
  8
VIEW0002
  6
CENTER
 62
     7
100
AcDbLine
 10
68.56098937988281
 20
81.52297973632812
 30
0.0
 11
70.33174133300781
 21
81.52297973632812
 31
0.0
  0
LINE
  5
22D
330
1F
100
AcDbEntity
  8
VIEW0002
  6
Continuous
 62
     7
100
AcDbLine
 10
71.67346954345703
 20
104.8833312988281
 30
0.0
 11
71.67346954345703
 21
80.16262817382812
 31
0.0
  0
LINE
  5
22E
330
1F
100
AcDbEntity
  8
VIEW0002
  6
CENTER
 62
     7
100
AcDbLine
 10
61.64080047607422
 20
82.7844009399414
 30
0.0
 11
61.64080047607422
 21
80.20745086669922
 31
0.0
  0
LINE
  5
22F
330
1F
100
AcDbEntity
  8
VIEW0002
  6
CENTER
 62
     7
100
AcDbLine
 10
63.95603179931641
 20
83.66236877441406
 30
0.0
 11
63.95603179931641
 21
79.71170806884766
 31
0.0
  0
LINE
  5
230
330
1F
100
AcDbEntity
  8
VIEW0002
  6
CENTER
 62
     7
100
AcDbLine
 10
69.35823822021484
 20
82.83179473876953
 30
0.0
 11
69.35823822021484
 21
80.23338317871094
 31
0.0
  0
LINE
  5
231
330
1F
100
AcDbEntity
  8
VIEW0002
  6
CENTER
 62
     7
100
AcDbLine
 10
68.14080047607422
 20
102.2615585327148
 30
0.0
 11
68.14080047607422
 21
104.838508605957
 31
0.0
  0
LINE
  5
232
330
1F
100
AcDbEntity
  8
VIEW0002
  6
CENTER
 62
     7
100
AcDbLine
 10
67.46017456054688
 20
103.5229797363281
 30
0.0
 11
68.95682525634766
 21
103.5229797363281
 31
0.0
  0
LINE
  5
233
330
1F
100
AcDbEntity
  8
VIEW0002
  6
CENTER
 62
     7
100
AcDbLine
 10
69.32341766357422
 20
103.5229797363281
 30
0.0
 11
71.79259490966797
 21
103.5229797363281
 31
0.0
  0
LINE
  5
234
330
1F
100
AcDbEntity
  8
VIEW0002
  6
CENTER
 62
     7
100
AcDbLine
 10
70.4560317993164
 20
101.3835906982422
 30
0.0
 11
70.4560317993164
 21
105.3342514038086
 31
0.0
  0
LINE
  5
235
330
1F
100
AcDbEntity
  8
VIEW0002
  6
CENTER
 62
     7
100
AcDbLine
 10
75.85823822021484
 20
102.2141647338867
 30
0.0
 11
75.85823822021484
 21
104.8125762939453
 31
0.0
  0
LINE
  5
236
330
1F
100
AcDbEntity
  8
VIEW0002
  6
CENTER
 62
     7
100
AcDbLine
 10
75.06098937988281
 20
103.5229797363281
 30
0.0
 11
76.83174133300781
 21
103.5229797363281
 31
0.0
  0
LINE
  5
237
330
1F
100
AcDbEntity
  8
VIEW0002
  6
CENTER
 62
     7
100
AcDbLine
 10
67.46017456054688
 20
81.52297973632812
 30
0.0
 11
68.95682525634766
 21
81.52297973632812
 31
0.0
  0
LINE
  5
238
330
1F
100
AcDbEntity
  8
VIEW0002
  6
CENTER
 62
     7
100
AcDbLine
 10
69.32341766357422
 20
81.52297973632812
 30
0.0
 11
71.79259490966797
 21
81.52297973632812
 31
0.0
  0
LINE
  5
239
330
1F
100
AcDbEntity
  8
VIEW0002
  6
CENTER
 62
     7
100
AcDbLine
 10
75.06098937988281
 20
81.52297973632812
 30
0.0
 11
76.83174133300781
 21
81.52297973632812
 31
0.0
  0
LINE
  5
23A
330
1F
100
AcDbEntity
  8
VIEW0002
  6
PHANTOM
 62
     7
100
AcDbLine
 10
78.17346954345703
 20
104.8833312988281
 30
0.0
 11
78.17346954345703
 21
80.16262817382812
 31
0.0
  0
LINE
  5
23B
330
1F
100
AcDbEntity
  8
VIEW0002
  6
CENTER
 62
     7
100
AcDbLine
 10
68.14080047607422
 20
82.7844009399414
 30
0.0
 11
68.14080047607422
 21
80.20745086669922
 31
0.0
  0
LINE
  5
23C
330
1F
100
AcDbEntity
  8
VIEW0002
  6
CENTER
 62
     7
100
AcDbLine
 10
70.4560317993164
 20
83.66236877441406
 30
0.0
 11
70.4560317993164
 21
79.71170806884766
 31
0.0
  0
LINE
  5
23D
330
1F
100
AcDbEntity
  8
VIEW0002
  6
CENTER
 62
     7
100
AcDbLine
 10
75.85823822021484
 20
82.83179473876953
 30
0.0
 11
75.85823822021484
 21
80.23338317871094
 31
0.0
  0
LINE
  5
23E
330
1F
100
AcDbEntity
  8
VIEW0002
  6
Continuous
 62
     7
100
AcDbLine
 10
-1.343477039306592
 20
-46.18044535719745
 30
0.0
 11
0.572047289785761
 21
-42.98790466076709
 31
0.0
  0
LINE
  5
23F
330
1F
100
AcDbEntity
  8
VIEW0002
  6
Continuous
 62
     7
100
AcDbLine
 10
0.800264656543732
 20
-71.77413940429688
 30
0.0
 11
24.05026435852051
 21
-71.77413940429688
 31
0.0
  0
LINE
  5
240
330
1F
100
AcDbEntity
  8
VIEW0002
  6
CENTER
 62
     7
100
AcDbLine
 10
23.05026435852051
 20
-54.39913940429688
 30
0.0
 11
23.05026435852051
 21
-59.14913940429688
 31
0.0
  0
LINE
  5
241
330
1F
100
AcDbEntity
  8
VIEW0002
  6
Continuous
 62
     7
100
AcDbLine
 10
17.55026435852051
 20
-41.77413940429688
 30
0.0
 11
21.88479804992676
 21
-41.77413940429688
 31
0.0
  0
LINE
  5
242
330
1F
100
AcDbEntity
  8
VIEW0002
  6
CENTER
 62
     7
100
AcDbLine
 10
25.37521553039551
 20
-67.27413940429688
 30
0.0
 11
21.72525215148926
 21
-67.27413940429688
 31
0.0
  0
LINE
  5
243
330
1F
100
AcDbEntity
  8
VIEW0002
  6
Continuous
 62
     7
100
AcDbLine
 10
25.94399382978972
 20
-46.18034668520292
 30
0.0
 11
24.02853034270739
 21
-42.98790739212729
 31
0.0
  0
LINE
  5
244
330
1F
100
AcDbEntity
  8
VIEW0002
  6
CENTER
 62
     7
100
AcDbLine
 10
25.42526435852051
 20
-56.77413940429688
 30
0.0
 11
20.67526435852051
 21
-56.77413940429688
 31
0.0
  0
LINE
  5
245
330
1F
100
AcDbEntity
  8
VIEW0002
  6
Continuous
 62
     7
100
AcDbLine
 10
17.55026435852051
 20
-41.77413940429688
 30
0.0
 11
17.55026435852051
 21
-62.77413940429688
 31
0.0
  0
LINE
  5
246
330
1F
100
AcDbEntity
  8
VIEW0002
  6
CENTER
 62
     7
100
AcDbLine
 10
25.37521553039551
 20
-52.27413940429688
 30
0.0
 11
21.72525215148926
 21
-52.27413940429688
 31
0.0
  0
LINE
  5
247
330
1F
100
AcDbEntity
  8
VIEW0002
  6
CENTER
 62
     7
100
AcDbLine
 10
1.550264716148376
 20
-54.39913940429688
 30
0.0
 11
1.550264716148376
 21
-59.14913940429688
 31
0.0
  0
LINE
  5
248
330
1F
100
AcDbEntity
  8
VIEW0002
  6
CENTER
 62
     7
100
AcDbLine
 10
-0.774686515331268
 20
-52.27413940429688
 30
0.0
 11
2.875276803970337
 21
-52.27413940429688
 31
0.0
  0
LINE
  5
249
330
1F
100
AcDbEntity
  8
VIEW0002
  6
CENTER
 62
     7
100
AcDbLine
 10
-0.774686515331268
 20
-67.27413940429688
 30
0.0
 11
2.875276803970337
 21
-67.27413940429688
 31
0.0
  0
LINE
  5
24A
330
1F
100
AcDbEntity
  8
VIEW0002
  6
CENTER
 62
     7
100
AcDbLine
 10
1.050264716148376
 20
-65.44914245605469
 30
0.0
 11
1.050264716148376
 21
-69.09913635253906
 31
0.0
  0
LINE
  5
24B
330
1F
100
AcDbEntity
  8
VIEW0002
  6
CENTER
 62
     7
100
AcDbLine
 10
-0.824735343456268
 20
-56.77413940429688
 30
0.0
 11
3.925264596939087
 21
-56.77413940429688
 31
0.0
  0
LINE
  5
24C
330
1F
100
AcDbEntity
  8
VIEW0002
  6
CENTER
 62
     7
100
AcDbLine
 10
1.050264716148376
 20
-50.34689331054688
 30
0.0
 11
1.050264716148376
 21
-54.09914398193359
 31
0.0
  0
LINE
  5
24D
330
1F
100
AcDbEntity
  8
VIEW0002
  6
Continuous
 62
     7
100
AcDbLine
 10
-1.699735283851624
 20
-47.46668243408203
 30
0.0
 11
-1.699735283851624
 21
-69.27413940429688
 31
0.0
  0
LINE
  5
24E
330
1F
100
AcDbEntity
  8
VIEW0002
  6
CENTER
 62
     7
100
AcDbLine
 10
12.30026435852051
 20
-38.55940246582031
 30
0.0
 11
12.30026435852051
 21
-74.93292236328125
 31
0.0
  0
LINE
  5
24F
330
1F
100
AcDbEntity
  8
VIEW0002
  6
Continuous
 62
     7
100
AcDbLine
 10
14.55026435852051
 20
-41.77413940429688
 30
0.0
 11
14.55026435852051
 21
-62.77413940429688
 31
0.0
  0
LINE
  5
250
330
1F
100
AcDbEntity
  8
VIEW0002
  6
CENTER
 62
     7
100
AcDbLine
 10
23.55026435852051
 20
-50.63497161865234
 30
0.0
 11
23.55026435852051
 21
-54.09914398193359
 31
0.0
  0
LINE
  5
251
330
1F
100
AcDbEntity
  8
VIEW0002
  6
Continuous
 62
     7
100
AcDbLine
 10
7.050264835357666
 20
-41.77413940429688
 30
0.0
 11
7.050264835357666
 21
-62.77413940429688
 31
0.0
  0
LINE
  5
252
330
1F
100
AcDbEntity
  8
VIEW0002
  6
Continuous
 62
     7
100
AcDbLine
 10
10.05026435852051
 20
-41.77413940429688
 30
0.0
 11
10.05026435852051
 21
-62.77413940429688
 31
0.0
  0
LINE
  5
253
330
1F
100
AcDbEntity
  8
VIEW0002
  6
CENTER
 62
     7
100
AcDbLine
 10
23.55026435852051
 20
-65.44914245605469
 30
0.0
 11
23.55026435852051
 21
-69.09913635253906
 31
0.0
  0
LINE
  5
254
330
1F
100
AcDbEntity
  8
VIEW0002
  6
Continuous
 62
     7
100
AcDbLine
 10
2.715791940689087
 20
-41.77413940429688
 30
0.0
 11
7.050264835357666
 21
-41.77413940429688
 31
0.0
  0
LINE
  5
255
330
1F
100
AcDbEntity
  8
VIEW0002
  6
Continuous
 62
     7
100
AcDbLine
 10
10.05026435852051
 20
-41.77413940429688
 30
0.0
 11
14.55026435852051
 21
-41.77413940429688
 31
0.0
  0
LINE
  5
256
330
1F
100
AcDbEntity
  8
VIEW0002
  6
Continuous
 62
     7
100
AcDbLine
 10
26.30026435852051
 20
-47.46658325195312
 30
0.0
 11
26.30026435852051
 21
-69.27413940429688
 31
0.0
  0
LINE
  5
257
330
1F
100
AcDbEntity
  8
VIEW0002
  6
Continuous
 62
     7
100
AcDbLine
 10
54.98332310487397
 20
37.94429884468195
 30
0.0
 11
55.94263008256213
 21
38.1134505525177
 31
0.0
  0
LINE
  5
258
330
1F
100
AcDbEntity
  8
VIEW0002
  6
Continuous
 62
     7
100
AcDbLine
 10
57.00435554735272
 20
36.34516705065262
 30
0.0
 11
71.3856021435164
 21
12.39352434938417
 31
0.0
  0
LINE
  5
259
330
1F
100
AcDbEntity
  8
VIEW0002
  6
Continuous
 62
     7
100
AcDbLine
 10
61.43114433342691
 20
37.93509789136652
 30
0.0
 11
62.44263247748708
 21
38.11345054698433
 31
0.0
  0
LINE
  5
25A
330
1F
100
AcDbEntity
  8
VIEW0002
  6
PHANTOM
 62
     7
100
AcDbLine
 10
63.50435948511527
 20
36.34516869762309
 30
0.0
 11
77.88560583581949
 21
12.39352640516184
 31
0.0
  0
LINE
  5
25B
330
1F
100
AcDbEntity
  8
VIEW0002
  6
PHANTOM
 62
     7
100
AcDbLine
 10
77.88560583581949
 20
12.39352640516184
 30
0.0
 11
77.37117593170142
 21
12.08464807895122
 31
0.0
  0
LINE
  5
25C
330
1F
100
AcDbEntity
  8
VIEW0002
  6
Continuous
 62
     7
100
AcDbLine
 10
71.3856021435164
 20
12.39352434938417
 30
0.0
 11
70.87117223939832
 21
12.08464602317353
 31
0.0
  0
LINE
  5
25D
330
1F
100
AcDbEntity
  8
VIEW0002
  6
Continuous
 62
     7
100
AcDbLine
 10
-12.17337417602539
 20
97.67298126220703
 30
0.0
 11
6.942600250244141
 21
97.67298126220703
 31
0.0
  0
LINE
  5
25E
330
1F
100
AcDbEntity
  8
VIEW0002
  6
Continuous
 62
     7
100
AcDbLine
 10
-12.17337417602539
 20
87.37298583984375
 30
0.0
 11
6.942600250244141
 21
87.37298583984375
 31
0.0
  0
LINE
  5
25F
330
1F
100
AcDbEntity
  8
VIEW0002
  6
Continuous
 62
     7
100
AcDbLine
 10
-14.90740013122559
 20
96.52297973632812
 30
0.0
 11
-14.90740013122559
 21
88.52297973632812
 31
0.0
  0
LINE
  5
260
330
1F
100
AcDbEntity
  8
VIEW0002
  6
Continuous
 62
     7
100
AcDbLine
 10
-12.17337417602539
 20
97.67298126220703
 30
0.0
 11
-12.17337417602539
 21
97.52297973632812
 31
0.0
  0
LINE
  5
261
330
1F
100
AcDbEntity
  8
VIEW0002
  6
Continuous
 62
     7
100
AcDbLine
 10
-15.40740013122559
 20
88.52297973632812
 30
0.0
 11
-13.17337417602539
 21
88.52297973632812
 31
0.0
  0
LINE
  5
262
330
1F
100
AcDbEntity
  8
VIEW0002
  6
Continuous
 62
     7
100
AcDbLine
 10
-15.40740013122559
 20
96.52297973632812
 30
0.0
 11
-15.40740013122559
 21
88.52297973632812
 31
0.0
  0
LINE
  5
263
330
1F
100
AcDbEntity
  8
VIEW0002
  6
Continuous
 62
     7
100
AcDbLine
 10
-12.17337417602539
 20
87.52297973632812
 30
0.0
 11
-12.17337417602539
 21
87.37298583984375
 31
0.0
  0
LINE
  5
264
330
1F
100
AcDbEntity
  8
VIEW0002
  6
Continuous
 62
     7
100
AcDbLine
 10
-15.40740013122559
 20
96.52297973632812
 30
0.0
 11
-13.17337417602539
 21
96.52297973632812
 31
0.0
  0
LINE
  5
265
330
1F
100
AcDbEntity
  8
VIEW0002
  6
Continuous
 62
     7
100
AcDbLine
 10
-0.657398223876953
 20
97.67298126220703
 30
0.0
 11
-0.657398223876953
 21
87.37298583984375
 31
0.0
  0
LINE
  5
266
330
1F
100
AcDbEntity
  8
VIEW0002
  6
Continuous
 62
     7
100
AcDbLine
 10
-5.657398700714111
 20
97.67298126220703
 30
0.0
 11
-5.657398700714111
 21
87.37298583984375
 31
0.0
  0
LINE
  5
267
330
1F
100
AcDbEntity
  8
VIEW0002
  6
Continuous
 62
     7
100
AcDbLine
 10
3.69257640838623
 20
93.89797973632812
 30
0.0
 11
6.942600250244141
 21
93.89797973632812
 31
0.0
  0
LINE
  5
268
330
1F
100
AcDbEntity
  8
VIEW0002
  6
Continuous
 62
     7
100
AcDbLine
 10
3.69257640838623
 20
91.14797973632812
 30
0.0
 11
6.942600250244141
 21
91.14797973632812
 31
0.0
  0
LINE
  5
269
330
1F
100
AcDbEntity
  8
VIEW0002
  6
Continuous
 62
     7
100
AcDbLine
 10
2.94257640838623
 20
93.14797973632812
 30
0.0
 11
2.94257640838623
 21
91.89797973632812
 31
0.0
  0
LINE
  5
26A
330
1F
100
AcDbEntity
  8
VIEW0002
  6
Continuous
 62
     7
100
AcDbLine
 10
1.43066930770874
 20
16.08189010620117
 30
0.0
 11
6.942630767822266
 21
16.08189010620117
 31
0.0
  0
LINE
  5
26B
330
1F
100
AcDbEntity
  8
VIEW0002
  6
Continuous
 62
     7
100
AcDbLine
 10
-1.382575576567173
 20
18.03994314106436
 30
0.0
 11
-4.690425740622436
 21
26.97112121305129
 31
0.0
  0
LINE
  5
26C
330
1F
100
AcDbEntity
  8
VIEW0002
  6
Continuous
 62
     7
100
AcDbLine
 10
-14.90736961364746
 20
32.68188858032227
 30
0.0
 11
-14.90736961364746
 21
30.08185958862305
 31
0.0
  0
LINE
  5
26D
330
1F
100
AcDbEntity
  8
VIEW0002
  6
Continuous
 62
     7
100
AcDbLine
 10
-14.40736961364746
 20
29.58185958862305
 30
0.0
 11
-8.441421508789062
 21
29.58185958862305
 31
0.0
  0
LINE
  5
26E
330
1F
100
AcDbEntity
  8
VIEW0002
  6
Continuous
 62
     7
100
AcDbLine
 10
-4.195821422277443
 20
16.99799820868768
 30
0.0
 11
-7.503671586332706
 21
25.92917628067461
 31
0.0
  0
LINE
  5
26F
330
1F
100
AcDbEntity
  8
VIEW0002
  6
Continuous
 62
     7
100
AcDbLine
 10
-14.40736961364746
 20
29.08186340332031
 30
0.0
 11
-12.24070167541504
 21
29.08186340332031
 31
0.0
  0
LINE
  5
270
330
1F
100
AcDbEntity
  8
VIEW0002
  6
Continuous
 62
     7
100
AcDbLine
 10
-15.40736961364746
 20
32.68188858032227
 30
0.0
 11
-15.40736961364746
 21
30.08185958862305
 31
0.0
  0
LINE
  5
271
330
1F
100
AcDbEntity
  8
VIEW0002
  6
Continuous
 62
     7
100
AcDbLine
 10
-15.40736961364746
 20
32.68188858032227
 30
0.0
 11
-14.90736961364746
 21
32.68188858032227
 31
0.0
  0
LINE
  5
272
330
1F
100
AcDbEntity
  8
VIEW0002
  6
Continuous
 62
     7
100
AcDbLine
 10
-10.68660926818848
 20
26.58186340332031
 30
0.0
 11
-8.441421508789062
 21
26.58186340332031
 31
0.0
  0
LINE
  5
273
330
1F
100
AcDbEntity
  8
VIEW0002
  6
Continuous
 62
     7
100
AcDbLine
 10
1.43066930770874
 20
13.08188915252686
 30
0.0
 11
34.40810394287109
 21
13.08188915252686
 31
0.0
  0
LINE
  5
274
330
1F
100
AcDbEntity
  8
VIEW0002
  6
Continuous
 62
     7
100
AcDbLine
 10
-12.40736904286228
 20
29.58186239593245
 30
0.0
 11
-11.63529363723146
 21
27.26563610627712
 31
0.0
  0
LINE
  5
275
330
1F
100
AcDbEntity
  8
VIEW0002
  6
Continuous
 62
     7
100
AcDbLine
 10
-54.04720306396484
 20
31.09808731079102
 30
0.0
 11
-54.04720306396484
 21
29.08186340332031
 31
0.0
  0
LINE
  5
276
330
1F
100
AcDbEntity
  8
VIEW0002
  6
Continuous
 62
     7
100
AcDbLine
 10
-45.39720153808594
 20
13.08188915252686
 30
0.0
 11
-44.89720153808594
 21
13.08188915252686
 31
0.0
  0
LINE
  5
277
330
1F
100
AcDbEntity
  8
VIEW0002
  6
Continuous
 62
     7
100
AcDbLine
 10
-45.39720153808594
 20
26.93188858032227
 30
0.0
 11
-44.89720153808594
 21
26.93188858032227
 31
0.0
  0
LINE
  5
278
330
1F
100
AcDbEntity
  8
VIEW0002
  6
Continuous
 62
     7
100
AcDbLine
 10
-55.19720077514648
 20
26.93188858032227
 30
0.0
 11
-54.69720077514648
 21
26.93188858032227
 31
0.0
  0
LINE
  5
279
330
1F
100
AcDbEntity
  8
VIEW0002
  6
Continuous
 62
     7
100
AcDbLine
 10
-54.69720077514648
 20
28.58186340332031
 30
0.0
 11
-54.69720077514648
 21
13.08188915252686
 31
0.0
  0
LINE
  5
27A
330
1F
100
AcDbEntity
  8
VIEW0002
  6
CENTER
 62
     7
100
AcDbLine
 10
-50.04720306396484
 20
35.18188858032227
 30
0.0
 11
-50.04720306396484
 21
10.58188915252686
 31
0.0
  0
LINE
  5
27B
330
1F
100
AcDbEntity
  8
VIEW0002
  6
Continuous
 62
     7
100
AcDbLine
 10
-45.39720153808594
 20
28.58186340332031
 30
0.0
 11
-45.39720153808594
 21
13.08188915252686
 31
0.0
  0
LINE
  5
27C
330
1F
100
AcDbEntity
  8
VIEW0002
  6
Continuous
 62
     7
100
AcDbLine
 10
-46.04720306396484
 20
29.58185958862305
 30
0.0
 11
-45.89720153808594
 21
29.58185958862305
 31
0.0
  0
LINE
  5
27D
330
1F
100
AcDbEntity
  8
VIEW0002
  6
Continuous
 62
     7
100
AcDbLine
 10
-55.19720077514648
 20
28.58186340332031
 30
0.0
 11
-55.19720077514648
 21
13.08188915252686
 31
0.0
  0
LINE
  5
27E
330
1F
100
AcDbEntity
  8
VIEW0002
  6
Continuous
 62
     7
100
AcDbLine
 10
-54.19720077514648
 20
15.58188915252686
 30
0.0
 11
-45.89720153808594
 21
15.58188915252686
 31
0.0
  0
LINE
  5
27F
330
1F
100
AcDbEntity
  8
VIEW0002
  6
Continuous
 62
     7
100
AcDbLine
 10
-55.19720077514648
 20
13.08188915252686
 30
0.0
 11
-54.69720077514648
 21
13.08188915252686
 31
0.0
  0
LINE
  5
280
330
1F
100
AcDbEntity
  8
VIEW0002
  6
Continuous
 62
     7
100
AcDbLine
 10
-44.89720153808594
 20
28.58186340332031
 30
0.0
 11
-44.89720153808594
 21
13.08188915252686
 31
0.0
  0
LINE
  5
281
330
1F
100
AcDbEntity
  8
VIEW0002
  6
Continuous
 62
     7
100
AcDbLine
 10
-54.19720077514648
 20
29.08186340332031
 30
0.0
 11
-45.89720153808594
 21
29.08186340332031
 31
0.0
  0
LINE
  5
282
330
1F
100
AcDbEntity
  8
VIEW0002
  6
Continuous
 62
     7
100
AcDbLine
 10
-54.19720077514648
 20
29.58185958862305
 30
0.0
 11
-54.04720306396484
 21
29.58185958862305
 31
0.0
  0
LINE
  5
283
330
1F
100
AcDbEntity
  8
VIEW0002
  6
Continuous
 62
     7
100
AcDbLine
 10
-46.04720306396484
 20
31.09808731079102
 30
0.0
 11
-46.04720306396484
 21
29.08186340332031
 31
0.0
  0
LINE
  5
284
330
1F
100
AcDbEntity
  8
VIEW0002
  6
Continuous
 62
     7
100
AcDbLine
 10
9.942630767822266
 20
16.68188858032227
 30
0.0
 11
9.942630767822266
 21
17.18188858032227
 31
0.0
  0
LINE
  5
285
330
1F
100
AcDbEntity
  8
VIEW0002
  6
Continuous
 62
     7
100
AcDbLine
 10
13.94263076782227
 20
16.68188858032227
 30
0.0
 11
13.94263076782227
 21
17.18188858032227
 31
0.0
  0
LINE
  5
286
330
1F
100
AcDbEntity
  8
VIEW0002
  6
Continuous
 62
     7
100
AcDbLine
 10
11.94262306062878
 20
17.68189588483719
 30
0.0
 11
11.7606378190055
 21
17.18189556070744
 31
0.0
  0
LINE
  5
287
330
1F
100
AcDbEntity
  8
VIEW0002
  6
Continuous
 62
     7
100
AcDbLine
 10
11.9426490153111
 20
17.1818920835755
 30
0.0
 11
12.12463425693437
 21
17.68189240770525
 31
0.0
  0
LINE
  5
288
330
1F
100
AcDbEntity
  8
VIEW0002
  6
Continuous
 62
     7
100
AcDbLine
 10
10.04262161254883
 20
17.18188858032227
 30
0.0
 11
10.04262161254883
 21
17.68188858032227
 31
0.0
  0
LINE
  5
289
330
1F
100
AcDbEntity
  8
VIEW0002
  6
Continuous
 62
     7
100
AcDbLine
 10
13.8426399230957
 20
17.18188858032227
 30
0.0
 11
13.8426399230957
 21
17.68188858032227
 31
0.0
  0
LINE
  5
28A
330
1F
100
AcDbEntity
  8
VIEW0002
  6
Continuous
 62
     7
100
AcDbLine
 10
13.19263076782227
 20
18.93188858032227
 30
0.0
 11
13.19263076782227
 21
20.68188858032227
 31
0.0
  0
LINE
  5
28B
330
1F
100
AcDbEntity
  8
VIEW0002
  6
Continuous
 62
     7
100
AcDbLine
 10
12.79265213012695
 20
18.93188858032227
 30
0.0
 11
12.79265213012695
 21
21.08189010620117
 31
0.0
  0
LINE
  5
28C
330
1F
100
AcDbEntity
  8
VIEW0002
  6
Continuous
 62
     7
100
AcDbLine
 10
11.09270095825195
 20
18.93188858032227
 30
0.0
 11
11.09270095825195
 21
21.08189010620117
 31
0.0
  0
LINE
  5
28D
330
1F
100
AcDbEntity
  8
VIEW0002
  6
Continuous
 62
     7
100
AcDbLine
 10
10.69263076782227
 20
18.93188858032227
 30
0.0
 11
10.69263076782227
 21
20.68188858032227
 31
0.0
  0
LINE
  5
28E
330
1F
100
AcDbEntity
  8
VIEW0002
  6
Continuous
 62
     7
100
AcDbLine
 10
10.69268109249771
 20
20.68184294355412
 30
0.0
 11
11.09267828710126
 21
21.08184013815767
 31
0.0
  0
LINE
  5
28F
330
1F
100
AcDbEntity
  8
VIEW0002
  6
Continuous
 62
     7
100
AcDbLine
 10
10.69263076782227
 20
20.68188858032227
 30
0.0
 11
13.19263076782227
 21
20.68188858032227
 31
0.0
  0
LINE
  5
290
330
1F
100
AcDbEntity
  8
VIEW0002
  6
Continuous
 62
     7
100
AcDbLine
 10
11.0926399230957
 20
21.08189010620117
 30
0.0
 11
12.79263687133789
 21
21.08189010620117
 31
0.0
  0
LINE
  5
291
330
1F
100
AcDbEntity
  8
VIEW0002
  6
Continuous
 62
     7
100
AcDbLine
 10
6.964344024658203
 20
21.93188858032227
 30
0.0
 11
8.192630767822266
 21
21.93188858032227
 31
0.0
  0
LINE
  5
292
330
1F
100
AcDbEntity
  8
VIEW0002
  6
Continuous
 62
     7
100
AcDbLine
 10
15.69263076782227
 20
21.93188858032227
 30
0.0
 11
16.92093276977539
 21
21.93188858032227
 31
0.0
  0
LINE
  5
293
330
1F
100
AcDbEntity
  8
VIEW0002
  6
Continuous
 62
     7
100
AcDbLine
 10
8.942630767822266
 20
17.68188858032227
 30
0.0
 11
14.94264602661133
 21
17.68188858032227
 31
0.0
  0
LINE
  5
294
330
1F
100
AcDbEntity
  8
VIEW0002
  6
Continuous
 62
     7
100
AcDbLine
 10
13.19266221007075
 20
20.68187531233378
 30
0.0
 11
12.79265962067059
 21
21.08187790173394
 31
0.0
  0
LINE
  5
295
330
1F
100
AcDbEntity
  8
VIEW0002
  6
Continuous
 62
     7
100
AcDbLine
 10
10.82049942016602
 20
18.93188858032227
 30
0.0
 11
13.06477737426758
 21
18.93188858032227
 31
0.0
  0
LINE
  5
296
330
1F
100
AcDbEntity
  8
VIEW0002
  6
CENTER
 62
     7
100
AcDbLine
 10
11.94263076782227
 20
11.11072731018066
 30
0.0
 11
11.94263076782227
 21
22.19533157348633
 31
0.0
  0
LINE
  5
297
330
1F
100
AcDbEntity
  8
VIEW0002
  6
Continuous
 62
     7
100
AcDbLine
 10
13.94263076782227
 20
17.18188858032227
 30
0.0
 11
9.942630767822266
 21
17.18188858032227
 31
0.0
  0
LINE
  5
298
330
1F
100
AcDbEntity
  8
VIEW0002
  6
PHANTOM
 62
     7
100
AcDbLine
 10
18.4426232871397
 20
17.68189599170936
 30
0.0
 11
18.26063804551643
 21
17.18189566757961
 31
0.0
  0
LINE
  5
299
330
1F
100
AcDbEntity
  8
VIEW0002
  6
PHANTOM
 62
     7
100
AcDbLine
 10
18.44264924182203
 20
17.18189219044767
 30
0.0
 11
18.6246344834453
 21
17.68189251457742
 31
0.0
  0
LINE
  5
29A
330
1F
100
AcDbEntity
  8
VIEW0002
  6
PHANTOM
 62
     7
100
AcDbLine
 10
16.54262161254883
 20
17.18188858032227
 30
0.0
 11
16.54262161254883
 21
17.68188858032227
 31
0.0
  0
LINE
  5
29B
330
1F
100
AcDbEntity
  8
VIEW0002
  6
PHANTOM
 62
     7
100
AcDbLine
 10
20.3426399230957
 20
17.18188858032227
 30
0.0
 11
20.3426399230957
 21
17.68188858032227
 31
0.0
  0
LINE
  5
29C
330
1F
100
AcDbEntity
  8
VIEW0002
  6
PHANTOM
 62
     7
100
AcDbLine
 10
19.69263076782227
 20
18.93188858032227
 30
0.0
 11
19.69263076782227
 21
20.68188858032227
 31
0.0
  0
LINE
  5
29D
330
1F
100
AcDbEntity
  8
VIEW0002
  6
PHANTOM
 62
     7
100
AcDbLine
 10
19.29265213012695
 20
18.93188858032227
 30
0.0
 11
19.29265213012695
 21
21.08189010620117
 31
0.0
  0
LINE
  5
29E
330
1F
100
AcDbEntity
  8
VIEW0002
  6
PHANTOM
 62
     7
100
AcDbLine
 10
17.59270095825195
 20
18.93188858032227
 30
0.0
 11
17.59270095825195
 21
21.08189010620117
 31
0.0
  0
LINE
  5
29F
330
1F
100
AcDbEntity
  8
VIEW0002
  6
PHANTOM
 62
     7
100
AcDbLine
 10
17.19263076782227
 20
18.93188858032227
 30
0.0
 11
17.19263076782227
 21
20.68188858032227
 31
0.0
  0
LINE
  5
2A0
330
1F
100
AcDbEntity
  8
VIEW0002
  6
DASHED
 62
     7
100
AcDbLine
 10
17.19268034905222
 20
20.68184260637933
 30
0.0
 11
17.59267754365577
 21
21.08183980098288
 31
0.0
  0
LINE
  5
2A1
330
1F
100
AcDbEntity
  8
VIEW0002
  6
PHANTOM
 62
     7
100
AcDbLine
 10
17.19263076782227
 20
20.68188858032227
 30
0.0
 11
19.69263076782227
 21
20.68188858032227
 31
0.0
  0
LINE
  5
2A2
330
1F
100
AcDbEntity
  8
VIEW0002
  6
PHANTOM
 62
     7
100
AcDbLine
 10
17.5926399230957
 20
21.08189010620117
 30
0.0
 11
19.29263687133789
 21
21.08189010620117
 31
0.0
  0
LINE
  5
2A3
330
1F
100
AcDbEntity
  8
VIEW0002
  6
PHANTOM
 62
     7
100
AcDbLine
 10
13.4643440246582
 20
21.93188858032227
 30
0.0
 11
14.69263076782227
 21
21.93188858032227
 31
0.0
  0
LINE
  5
2A4
330
1F
100
AcDbEntity
  8
VIEW0002
  6
PHANTOM
 62
     7
100
AcDbLine
 10
22.19263076782227
 20
21.93188858032227
 30
0.0
 11
23.42093276977539
 21
21.93188858032227
 31
0.0
  0
LINE
  5
2A5
330
1F
100
AcDbEntity
  8
VIEW0002
  6
PHANTOM
 62
     7
100
AcDbLine
 10
15.44263076782227
 20
17.68188858032227
 30
0.0
 11
21.44264602661133
 21
17.68188858032227
 31
0.0
  0
LINE
  5
2A6
330
1F
100
AcDbEntity
  8
VIEW0002
  6
PHANTOM
 62
     7
100
AcDbLine
 10
19.69266150877211
 20
20.68187493301214
 30
0.0
 11
19.2926589615188
 21
21.08187748026545
 31
0.0
  0
LINE
  5
2A7
330
1F
100
AcDbEntity
  8
VIEW0002
  6
PHANTOM
 62
     7
100
AcDbLine
 10
17.32049942016602
 20
18.93188858032227
 30
0.0
 11
19.56477737426758
 21
18.93188858032227
 31
0.0
  0
LINE
  5
2A8
330
1F
100
AcDbEntity
  8
VIEW0002
  6
CENTER
 62
     7
100
AcDbLine
 10
18.44263076782227
 20
11.11072731018066
 30
0.0
 11
18.44263076782227
 21
22.19533157348633
 31
0.0
  0
LINE
  5
2A9
330
1F
100
AcDbEntity
  8
VIEW0002
  6
PHANTOM
 62
     7
100
AcDbLine
 10
20.44263076782227
 20
17.18188858032227
 30
0.0
 11
16.44263076782227
 21
17.18188858032227
 31
0.0
  0
LINE
  5
2AA
330
1F
100
AcDbEntity
  8
VIEW0002
  6
PHANTOM
 62
     7
100
AcDbLine
 10
20.44263076782227
 20
16.68188858032227
 30
0.0
 11
20.44263076782227
 21
17.18188858032227
 31
0.0
  0
LINE
  5
2AB
330
1F
100
AcDbEntity
  8
VIEW0002
  6
PHANTOM
 62
     7
100
AcDbLine
 10
16.44263076782227
 20
16.68188858032227
 30
0.0
 11
16.44263076782227
 21
17.18188858032227
 31
0.0
  0
LINE
  5
2AC
330
1F
100
AcDbEntity
  8
VIEW0002
  6
Continuous
 62
     7
100
AcDbLine
 10
44.91012954711914
 20
16.52705764770508
 30
0.0
 11
44.91012954711914
 21
15.52705669403076
 31
0.0
  0
LINE
  5
2AD
330
1F
100
AcDbEntity
  8
VIEW0002
  6
Continuous
 62
     7
100
AcDbLine
 10
33.30726010272411
 20
12.67689779507901
 30
0.0
 11
34.89149946297644
 21
13.10139345583412
 31
0.0
  0
LINE
  5
2AE
330
1F
100
AcDbEntity
  8
VIEW0002
  6
Continuous
 62
     7
100
AcDbLine
 10
45.54263305664062
 20
16.69653701782227
 30
0.0
 11
45.54263305664062
 21
16.00346755981445
 31
0.0
  0
LINE
  5
2AF
330
1F
100
AcDbEntity
  8
VIEW0002
  6
Continuous
 62
     7
100
AcDbLine
 10
32.78463492741345
 20
13.08188901964337
 30
0.0
 11
32.88206922491683
 21
12.71825927400875
 31
0.0
  0
LINE
  5
2B0
330
1F
100
AcDbEntity
  8
VIEW0002
  6
Continuous
 62
     7
100
AcDbLine
 10
33.04345390510679
 20
13.0818892717602
 30
0.0
 11
33.12355068135351
 21
12.78296403579037
 31
0.0
  0
LINE
  5
2B1
330
1F
100
AcDbEntity
  8
VIEW0002
  6
Continuous
 62
     7
100
AcDbLine
 10
33.37196486450573
 20
12.43541633864232
 30
0.0
 11
45.2461603425228
 21
15.61709745441348
 31
0.0
  0
LINE
  5
2B2
330
1F
100
AcDbEntity
  8
VIEW0002
  6
Continuous
 62
     7
100
AcDbLine
 10
44.91012978172032
 20
16.52705770570194
 30
0.0
 11
45.54262946746006
 21
16.69653548712932
 31
0.0
  0
LINE
  5
2B3
330
1F
100
AcDbEntity
  8
VIEW0002
  6
Continuous
 62
     7
100
AcDbLine
 10
36.97972303293093
 20
13.66093127970882
 30
0.0
 11
44.91012793599369
 21
15.78587688694649
 31
0.0
  0
LINE
  5
2B4
330
1F
100
AcDbEntity
  8
VIEW0002
  6
Continuous
 62
     7
100
AcDbLine
 10
47.44263076782227
 20
15.68724727630615
 30
0.0
 11
47.44263076782227
 21
6.68186092376709
 31
0.0
  0
LINE
  5
2B5
330
1F
100
AcDbEntity
  8
VIEW0002
  6
Continuous
 62
     7
100
AcDbLine
 10
51.44263076782227
 20
16.18186187744141
 30
0.0
 11
48.44263076782227
 21
16.18186187744141
 31
0.0
  0
LINE
  5
2B6
330
1F
100
AcDbEntity
  8
VIEW0002
  6
Continuous
 62
     7
100
AcDbLine
 10
51.44263076782227
 20
15.68186092376709
 30
0.0
 11
48.94263076782227
 21
15.68186092376709
 31
0.0
  0
LINE
  5
2B7
330
1F
100
AcDbEntity
  8
VIEW0002
  6
Continuous
 62
     7
100
AcDbLine
 10
48.44263076782227
 20
15.18186092376709
 30
0.0
 11
48.44263076782227
 21
13.68186092376709
 31
0.0
  0
LINE
  5
2B8
330
1F
100
AcDbEntity
  8
VIEW0002
  6
Continuous
 62
     7
100
AcDbLine
 10
51.44263076782227
 20
16.68186187744141
 30
0.0
 11
48.4426155090332
 21
16.68186187744141
 31
0.0
  0
LINE
  5
2B9
330
1F
100
AcDbEntity
  8
VIEW0002
  6
Continuous
 62
     7
100
AcDbLine
 10
47.94263076782227
 20
15.68186092376709
 30
0.0
 11
47.94263076782227
 21
6.68186092376709
 31
0.0
  0
LINE
  5
2BA
330
1F
100
AcDbEntity
  8
VIEW0002
  6
Continuous
 62
     7
100
AcDbLine
 10
47.44263076782227
 20
6.68186092376709
 30
0.0
 11
47.94262313842773
 21
6.68186092376709
 31
0.0
  0
LINE
  5
2BB
330
1F
100
AcDbEntity
  8
VIEW0002
  6
Continuous
 62
     7
100
AcDbLine
 10
44.51108874178384
 20
26.84446883729234
 30
0.0
 11
39.87355748928449
 21
16.60624591159587
 31
0.0
  0
LINE
  5
2BC
330
1F
100
AcDbEntity
  8
VIEW0002
  6
Continuous
 62
     7
100
AcDbLine
 10
20.52462196350098
 20
16.08189010620117
 30
0.0
 11
34.40810394287109
 21
16.08189010620117
 31
0.0
  0
LINE
  5
2BD
330
1F
100
AcDbEntity
  8
VIEW0002
  6
Continuous
 62
     7
100
AcDbLine
 10
51.94263076782227
 20
29.43186187744141
 30
0.0
 11
51.94263076782227
 21
17.18186187744141
 31
0.0
  0
LINE
  5
2BE
330
1F
100
AcDbEntity
  8
VIEW0002
  6
Continuous
 62
     7
100
AcDbLine
 10
52.44263076782227
 20
29.43186187744141
 30
0.0
 11
52.44263076782227
 21
17.18186187744141
 31
0.0
  0
LINE
  5
2BF
330
1F
100
AcDbEntity
  8
VIEW0002
  6
Continuous
 62
     7
100
AcDbLine
 10
52.94263076782227
 20
29.43186187744141
 30
0.0
 11
52.94263076782227
 21
17.18186187744141
 31
0.0
  0
LINE
  5
2C0
330
1F
100
AcDbEntity
  8
VIEW0002
  6
Continuous
 62
     7
100
AcDbLine
 10
46.69263076782227
 20
30.93186187744141
 30
0.0
 11
51.44263076782227
 21
30.93186187744141
 31
0.0
  0
LINE
  5
2C1
330
1F
100
AcDbEntity
  8
VIEW0002
  6
Continuous
 62
     7
100
AcDbLine
 10
45.42200088500977
 20
30.43186187744141
 30
0.0
 11
51.44263076782227
 21
30.43186187744141
 31
0.0
  0
LINE
  5
2C2
330
1F
100
AcDbEntity
  8
VIEW0002
  6
Continuous
 62
     7
100
AcDbLine
 10
45.42200088500977
 20
27.43186187744141
 30
0.0
 11
49.72187042236328
 21
27.43186187744141
 31
0.0
  0
LINE
  5
2C3
330
1F
100
AcDbEntity
  8
VIEW0002
  6
Continuous
 62
     7
100
AcDbLine
 10
41.77836210709829
 20
28.08229157907734
 30
0.0
 11
37.14083085459892
 21
17.84406865338087
 31
0.0
  0
LINE
  5
2C4
330
1F
100
AcDbEntity
  8
VIEW0002
  6
Continuous
 62
     7
100
AcDbLine
 10
51.27596282958984
 20
29.93186187744141
 30
0.0
 11
51.44263076782227
 21
29.93186187744141
 31
0.0
  0
LINE
  5
2C5
330
1F
100
AcDbEntity
  8
VIEW0002
  6
Continuous
 62
     7
100
AcDbLine
 10
51.44262876076152
 20
30.43186248008228
 30
0.0
 11
50.67055335513069
 21
28.11563619042695
 31
0.0
  0
ARC
  5
2C6
330
1F
100
AcDbEntity
  8
VIEW0002
  6
Continuous
 62
     7
100
AcDbCircle
 10
55.942626953125
 20
96.27297973632812
 30
0.0
 40
1.5
100
AcDbArc
 50
106.6015490935704
 51
253.3984609243423
  0
ARC
  5
2C7
330
1F
100
AcDbEntity
  8
VIEW0002
  6
Continuous
 62
     7
100
AcDbCircle
 10
44.8096809387207
 20
92.5229721069336
 30
0.0
 40
0.5
100
AcDbArc
 50
165.2105963991277
 51
194.7894136187849
  0
ARC
  5
2C8
330
1F
100
AcDbEntity
  8
VIEW0002
  6
Continuous
 62
     7
100
AcDbCircle
 10
55.34262847900391
 20
94.2605209350586
 30
0.0
 40
0.6000000238418579
100
AcDbArc
 50
0.0
 51
73.39844908519679
  0
ARC
  5
2C9
330
1F
100
AcDbEntity
  8
VIEW0002
  6
Continuous
 62
     7
100
AcDbCircle
 10
24.90789413452148
 20
90.73220825195312
 30
0.0
 40
5.0
100
AcDbArc
 50
262.2281438050178
 51
263.1043341321254
  0
ARC
  5
2CA
330
1F
100
AcDbEntity
  8
VIEW0002
  6
Continuous
 62
     7
100
AcDbCircle
 10
47.6946907043457
 20
107.1423721313477
 30
0.0
 40
5.0
100
AcDbArc
 50
276.8956608589183
 51
306.0348563677422
  0
ARC
  5
2CB
330
1F
100
AcDbEntity
  8
VIEW0002
  6
Continuous
 62
     7
100
AcDbCircle
 10
55.34262847900391
 20
90.78544616699219
 30
0.0
 40
0.6000000238418579
100
AcDbArc
 50
286.6015509148032
 51
0.0
  0
ARC
  5
2CC
330
1F
100
AcDbEntity
  8
VIEW0002
  6
Continuous
 62
     7
100
AcDbCircle
 10
51.71881484985352
 20
96.27297973632812
 30
0.0
 40
1.5
100
AcDbArc
 50
90.00000250447816
 51
270.0000006832453
  0
ARC
  5
2CD
330
1F
100
AcDbEntity
  8
VIEW0002
  6
Continuous
 62
     7
100
AcDbCircle
 10
51.71881484985352
 20
88.77297973632812
 30
0.0
 40
1.5
100
AcDbArc
 50
90.00000250447816
 51
270.0000006832453
  0
ARC
  5
2CE
330
1F
100
AcDbEntity
  8
VIEW0002
  6
Continuous
 62
     7
100
AcDbCircle
 10
24.90789413452148
 20
90.73220825195312
 30
0.0
 40
5.0
100
AcDbArc
 50
262.2281438050178
 51
263.1043341321254
  0
ARC
  5
2CF
330
1F
100
AcDbEntity
  8
VIEW0002
  6
Continuous
 62
     7
100
AcDbCircle
 10
55.942626953125
 20
88.77297973632812
 30
0.0
 40
1.5
100
AcDbArc
 50
106.6015490935704
 51
253.3984609243423
  0
ARC
  5
2D0
330
1F
100
AcDbEntity
  8
VIEW0002
  6
Continuous
 62
     7
100
AcDbCircle
 10
55.34262847900391
 20
86.7605209350586
 30
0.0
 40
0.6000000238418579
100
AcDbArc
 50
0.0
 51
73.39844908519679
  0
ARC
  5
2D1
330
1F
100
AcDbEntity
  8
VIEW0002
  6
Continuous
 62
     7
100
AcDbCircle
 10
55.34262847900391
 20
98.28544616699219
 30
0.0
 40
0.6000000238418579
100
AcDbArc
 50
286.6015509148032
 51
0.0
  0
ARC
  5
2D2
330
1F
100
AcDbEntity
  8
VIEW0002
  6
Continuous
 62
     7
100
AcDbCircle
 10
23.63136672973633
 20
80.81372833251953
 30
0.0
 40
5.0
100
AcDbArc
 50
82.22814198378494
 51
83.10433914108168
  0
ARC
  5
2D3
330
1F
100
AcDbEntity
  8
VIEW0002
  6
Continuous
 62
     7
100
AcDbCircle
 10
47.69463729858398
 20
77.90359497070312
 30
0.0
 40
5.0
100
AcDbArc
 50
53.96515046244691
 51
83.10433914108168
  0
ARC
  5
2D4
330
1F
100
AcDbEntity
  8
VIEW0002
  6
Continuous
 62
     7
100
AcDbCircle
 10
50.37923812866211
 20
33.07076644897461
 30
0.0
 40
0.5
100
AcDbArc
 50
100.0000005060238
 51
135.0000003416227
  0
ARC
  5
2D5
330
1F
100
AcDbEntity
  8
VIEW0002
  6
Continuous
 62
     7
100
AcDbCircle
 10
46.84207534790039
 20
32.36204147338867
 30
0.0
 40
1.5
100
AcDbArc
 50
275.0000033264838
 51
314.9999987477609
  0
ARC
  5
2D6
330
1F
100
AcDbEntity
  8
VIEW0002
  6
Continuous
 62
     7
100
AcDbCircle
 10
30.89274215698242
 20
22.93609237670898
 30
0.0
 40
10.0
100
AcDbArc
 50
95.00000150525099
 51
154.9999963447139
  0
ARC
  5
2D7
330
1F
100
AcDbEntity
  8
VIEW0002
  6
Continuous
 62
     7
100
AcDbCircle
 10
66.60299682617188
 20
20.35884475708008
 30
0.0
 40
2.099999904632568
100
AcDbArc
 50
210.9817877077348
 51
270.9818098679545
  0
ARC
  5
2D8
330
1F
100
AcDbEntity
  8
VIEW0002
  6
Continuous
 62
     7
100
AcDbCircle
 10
16.30551528930664
 20
17.68188858032227
 30
0.0
 40
4.5
100
AcDbArc
 50
269.9999974955218
 51
334.9999981659467
  0
ARC
  5
2D9
330
1F
100
AcDbEntity
  8
VIEW0002
  6
Continuous
 62
     7
100
AcDbCircle
 10
30.89274215698242
 20
22.93609237670898
 30
0.0
 40
6.5
100
AcDbArc
 50
95.00000150525099
 51
154.9999963447139
  0
ARC
  5
2DA
330
1F
100
AcDbEntity
  8
VIEW0002
  6
Continuous
 62
     7
100
AcDbCircle
 10
50.98134231567383
 20
35.20779037475586
 30
0.0
 40
1.5
100
AcDbArc
 50
280.0000023272567
 51
336.8014110406661
  0
ARC
  5
2DB
330
1F
100
AcDbEntity
  8
VIEW0002
  6
Continuous
 62
     7
100
AcDbCircle
 10
8.442630767822266
 20
14.68188762664795
 30
0.0
 40
1.5
100
AcDbArc
 50
179.999991348578
 51
270.0000006832453
  0
ARC
  5
2DC
330
1F
100
AcDbEntity
  8
VIEW0002
  6
Continuous
 62
     7
100
AcDbCircle
 10
50.86340713500977
 20
32.14070510864258
 30
0.0
 40
5.0
100
AcDbArc
 50
100.0000005060238
 51
135.0000003416227
  0
ARC
  5
2DD
330
1F
100
AcDbEntity
  8
VIEW0002
  6
Continuous
 62
     7
100
AcDbCircle
 10
44.81824111938477
 20
36.70216751098633
 30
0.0
 40
2.5
100
AcDbArc
 50
275.0000033264838
 51
314.9999987477609
  0
ARC
  5
2DE
330
1F
100
AcDbEntity
  8
VIEW0002
  6
Continuous
 62
     7
100
AcDbCircle
 10
11.94263076782227
 20
92.52297973632812
 30
0.0
 40
3.25
100
AcDbArc
 50
25.02899940217453
 51
154.9709953614981
  0
ARC
  5
2DF
330
1F
100
AcDbEntity
  8
VIEW0002
  6
Continuous
 62
     7
100
AcDbCircle
 10
11.94263076782227
 20
92.52297973632812
 30
0.0
 40
2.75
100
AcDbArc
 50
25.02899940217453
 51
154.9709953614981
  0
ARC
  5
2E0
330
1F
100
AcDbEntity
  8
VIEW0002
  6
Continuous
 62
     7
100
AcDbCircle
 10
11.94263076782227
 20
92.52297973632812
 30
0.0
 40
2.75
100
AcDbArc
 50
205.029004638502
 51
334.9710005978255
  0
ARC
  5
2E1
330
1F
100
AcDbEntity
  8
VIEW0002
  6
Continuous
 62
     7
100
AcDbCircle
 10
7.817630767822266
 20
92.52297973632812
 30
0.0
 40
1.375
100
AcDbArc
 50
90.00000250447816
 51
270.0000006832453
  0
ARC
  5
2E2
330
1F
100
AcDbEntity
  8
VIEW0002
  6
Continuous
 62
     7
100
AcDbCircle
 10
16.06763076782227
 20
92.52297973632812
 30
0.0
 40
1.375
100
AcDbArc
 50
269.9999974955218
 51
90.00000250447816
  0
ARC
  5
2E3
330
1F
100
AcDbEntity
  8
VIEW0002
  6
Continuous
 62
     7
100
AcDbCircle
 10
11.94263076782227
 20
92.52297973632812
 30
0.0
 40
3.25
100
AcDbArc
 50
205.029004638502
 51
334.9710005978255
  0
ARC
  5
2E4
330
1F
100
AcDbEntity
  8
VIEW0002
  6
Continuous
 62
     7
100
AcDbCircle
 10
7.817630767822266
 20
92.52297973632812
 30
0.0
 40
0.875
100
AcDbArc
 50
90.00000250447816
 51
270.0000006832453
  0
ARC
  5
2E5
330
1F
100
AcDbEntity
  8
VIEW0002
  6
Continuous
 62
     7
100
AcDbCircle
 10
16.06763076782227
 20
92.52297973632812
 30
0.0
 40
0.875
100
AcDbArc
 50
269.9999974955218
 51
90.00000250447816
  0
ARC
  5
2E6
330
1F
100
AcDbEntity
  8
VIEW0002
  6
Continuous
 62
     7
100
AcDbCircle
 10
14.88743209838867
 20
91.14797973632812
 30
0.0
 40
0.5
100
AcDbArc
 50
90.00000250447816
 51
154.9709953614981
  0
ARC
  5
2E7
330
1F
100
AcDbEntity
  8
VIEW0002
  6
Continuous
 62
     7
100
AcDbCircle
 10
8.99782943725586
 20
91.14797973632812
 30
0.0
 40
0.5
100
AcDbArc
 50
25.02899940217453
 51
90.00000250447816
  0
ARC
  5
2E8
330
1F
100
AcDbEntity
  8
VIEW0002
  6
Continuous
 62
     7
100
AcDbCircle
 10
8.99782943725586
 20
93.89798736572266
 30
0.0
 40
0.5
100
AcDbArc
 50
269.9999974955218
 51
334.9710005978255
  0
CIRCLE
  5
2E9
330
1F
100
AcDbEntity
  8
VIEW0002
  6
Continuous
 62
     7
100
AcDbCircle
 10
11.94263076782227
 20
92.52297973632812
 30
0.0
 40
1.5
  0
ARC
  5
2EA
330
1F
100
AcDbEntity
  8
VIEW0002
  6
Continuous
 62
     7
100
AcDbCircle
 10
14.88743209838867
 20
93.89798736572266
 30
0.0
 40
0.5
100
AcDbArc
 50
205.029004638502
 51
269.9999974955218
  0
CIRCLE
  5
2EB
330
1F
100
AcDbEntity
  8
VIEW0002
  6
Continuous
 62
     7
100
AcDbCircle
 10
11.94263076782227
 20
92.52297973632812
 30
0.0
 40
1.75
  0
ARC
  5
2EC
330
1F
100
AcDbEntity
  8
VIEW0002
  6
PHANTOM
 62
     7
100
AcDbCircle
 10
51.31824111938477
 20
36.70216751098633
 30
0.0
 40
2.5
100
AcDbArc
 50
275.0000033264838
 51
314.9999987477609
  0
ARC
  5
2ED
330
1F
100
AcDbEntity
  8
VIEW0002
  6
PHANTOM
 62
     7
100
AcDbCircle
 10
57.3634033203125
 20
32.14070510864258
 30
0.0
 40
5.0
100
AcDbArc
 50
100.0000005060238
 51
135.0000003416227
  0
ARC
  5
2EE
330
1F
100
AcDbEntity
  8
VIEW0002
  6
PHANTOM
 62
     7
100
AcDbCircle
 10
22.80551528930664
 20
17.68188858032227
 30
0.0
 40
1.0
100
AcDbArc
 50
269.9999974955218
 51
334.9999981659467
  0
ARC
  5
2EF
330
1F
100
AcDbEntity
  8
VIEW0002
  6
PHANTOM
 62
     7
100
AcDbCircle
 10
14.94263076782227
 20
14.68188762664795
 30
0.0
 40
1.5
100
AcDbArc
 50
179.999991348578
 51
270.0000006832453
  0
ARC
  5
2F0
330
1F
100
AcDbEntity
  8
VIEW0002
  6
PHANTOM
 62
     7
100
AcDbCircle
 10
57.48133850097656
 20
35.20779037475586
 30
0.0
 40
1.5
100
AcDbArc
 50
280.0000023272567
 51
336.8014110406661
  0
ARC
  5
2F1
330
1F
100
AcDbEntity
  8
VIEW0002
  6
PHANTOM
 62
     7
100
AcDbCircle
 10
37.39274215698242
 20
22.93609237670898
 30
0.0
 40
6.5
100
AcDbArc
 50
95.00000150525099
 51
154.9999963447139
  0
ARC
  5
2F2
330
1F
100
AcDbEntity
  8
VIEW0002
  6
PHANTOM
 62
     7
100
AcDbCircle
 10
22.80551528930664
 20
17.68188858032227
 30
0.0
 40
4.5
100
AcDbArc
 50
269.9999974955218
 51
334.9999981659467
  0
ARC
  5
2F3
330
1F
100
AcDbEntity
  8
VIEW0002
  6
PHANTOM
 62
     7
100
AcDbCircle
 10
37.39274215698242
 20
22.93609237670898
 30
0.0
 40
10.0
100
AcDbArc
 50
95.00000150525099
 51
154.9999963447139
  0
ARC
  5
2F4
330
1F
100
AcDbEntity
  8
VIEW0002
  6
PHANTOM
 62
     7
100
AcDbCircle
 10
53.34207534790039
 20
32.36204147338867
 30
0.0
 40
1.5
100
AcDbArc
 50
275.0000033264838
 51
314.9999987477609
  0
ARC
  5
2F5
330
1F
100
AcDbEntity
  8
VIEW0002
  6
PHANTOM
 62
     7
100
AcDbCircle
 10
56.87923431396484
 20
33.07076644897461
 30
0.0
 40
0.5
100
AcDbArc
 50
100.0000005060238
 51
135.0000003416227
  0
ARC
  5
2F6
330
1F
100
AcDbEntity
  8
VIEW0002
  6
Continuous
 62
     7
100
AcDbCircle
 10
53.75883483886719
 20
36.61141967773438
 30
0.0
 40
0.5
100
AcDbArc
 50
99.99999367583463
 51
156.8014040967914
  0
ARC
  5
2F7
330
1F
100
AcDbEntity
  8
VIEW0002
  6
PHANTOM
 62
     7
100
AcDbCircle
 10
54.19463348388672
 20
77.90359497070312
 30
0.0
 40
5.0
100
AcDbArc
 50
53.96515046244691
 51
83.10433914108168
  0
ARC
  5
2F8
330
1F
100
AcDbEntity
  8
VIEW0002
  6
PHANTOM
 62
     7
100
AcDbCircle
 10
54.19468688964844
 20
107.1423721313477
 30
0.0
 40
5.0
100
AcDbArc
 50
276.8956608589183
 51
306.0348563677422
  0
ARC
  5
2F9
330
1F
100
AcDbEntity
  8
VIEW0002
  6
PHANTOM
 62
     7
100
AcDbCircle
 10
73.10299682617188
 20
20.35884475708008
 30
0.0
 40
2.099999904632568
100
AcDbArc
 50
210.9817877077348
 51
270.9818098679545
  0
ARC
  5
2FA
330
1F
100
AcDbEntity
  8
VIEW0002
  6
PHANTOM
 62
     7
100
AcDbCircle
 10
60.25883483886719
 20
36.61141967773438
 30
0.0
 40
0.5
100
AcDbArc
 50
99.99999367583463
 51
156.8014040967914
  0
ARC
  5
2FB
330
1F
100
AcDbEntity
  8
VIEW0002
  6
PHANTOM
 62
     7
100
AcDbCircle
 10
61.84262847900391
 20
98.28544616699219
 30
0.0
 40
0.6000000238418579
100
AcDbArc
 50
286.6015509148032
 51
0.0
  0
ARC
  5
2FC
330
1F
100
AcDbEntity
  8
VIEW0002
  6
PHANTOM
 62
     7
100
AcDbCircle
 10
61.84262847900391
 20
86.7605209350586
 30
0.0
 40
0.6000000238418579
100
AcDbArc
 50
0.0
 51
73.39844908519679
  0
ARC
  5
2FD
330
1F
100
AcDbEntity
  8
VIEW0002
  6
PHANTOM
 62
     7
100
AcDbCircle
 10
62.442626953125
 20
88.77297973632812
 30
0.0
 40
1.5
100
AcDbArc
 50
106.6015490935704
 51
253.3984609243423
  0
ARC
  5
2FE
330
1F
100
AcDbEntity
  8
VIEW0002
  6
PHANTOM
 62
     7
100
AcDbCircle
 10
61.84262847900391
 20
90.78544616699219
 30
0.0
 40
0.6000000238418579
100
AcDbArc
 50
286.6015509148032
 51
0.0
  0
ARC
  5
2FF
330
1F
100
AcDbEntity
  8
VIEW0002
  6
PHANTOM
 62
     7
100
AcDbCircle
 10
61.84262847900391
 20
94.2605209350586
 30
0.0
 40
0.6000000238418579
100
AcDbArc
 50
0.0
 51
73.39844908519679
  0
ARC
  5
300
330
1F
100
AcDbEntity
  8
VIEW0002
  6
PHANTOM
 62
     7
100
AcDbCircle
 10
62.442626953125
 20
96.27297973632812
 30
0.0
 40
1.5
100
AcDbArc
 50
106.6015490935704
 51
253.3984609243423
  0
ARC
  5
301
330
1F
100
AcDbEntity
  8
VIEW0002
  6
Continuous
 62
     7
100
AcDbCircle
 10
54.43236541748047
 20
34.80087280273438
 30
0.0
 40
3.0
100
AcDbArc
 50
30.98179954688037
 51
100.0000005060238
  0
ARC
  5
302
330
1F
100
AcDbEntity
  8
VIEW0002
  6
Continuous
 62
     7
100
AcDbCircle
 10
54.43232727050781
 20
34.80086517333984
 30
0.0
 40
2.400000095367432
100
AcDbArc
 50
30.98179954688037
 51
100.0000005060238
  0
ARC
  5
303
330
1F
100
AcDbEntity
  8
VIEW0002
  6
Continuous
 62
     7
100
AcDbCircle
 10
54.43232727050781
 20
34.80085754394531
 30
0.0
 40
0.8999999761581421
100
AcDbArc
 50
30.98179954688037
 51
100.0000005060238
  0
ARC
  5
304
330
1F
100
AcDbEntity
  8
VIEW0002
  6
PHANTOM
 62
     7
100
AcDbCircle
 10
60.93236541748047
 20
34.80087280273438
 30
0.0
 40
3.0
100
AcDbArc
 50
30.98179954688037
 51
100.0000005060238
  0
ARC
  5
305
330
1F
100
AcDbEntity
  8
VIEW0002
  6
PHANTOM
 62
     7
100
AcDbCircle
 10
60.93232727050781
 20
34.80086517333984
 30
0.0
 40
2.400000095367432
100
AcDbArc
 50
30.98179954688037
 51
100.0000005060238
  0
ARC
  5
306
330
1F
100
AcDbEntity
  8
VIEW0002
  6
PHANTOM
 62
     7
100
AcDbCircle
 10
60.93232727050781
 20
34.80085754394531
 30
0.0
 40
0.8999999761581421
100
AcDbArc
 50
30.98179954688037
 51
100.0000005060238
  0
ARC
  5
307
330
1F
100
AcDbEntity
  8
VIEW0002
  6
Continuous
 62
     7
100
AcDbCircle
 10
16.05026435852051
 20
-62.77413940429688
 30
0.0
 40
1.5
100
AcDbArc
 50
179.999991348578
 51
0.0
  0
CIRCLE
  5
308
330
1F
100
AcDbEntity
  8
VIEW0002
  6
Continuous
 62
     7
100
AcDbCircle
 10
23.55026435852051
 20
-52.27413940429688
 30
0.0
 40
1.075000047683716
  0
CIRCLE
  5
309
330
1F
100
AcDbEntity
  8
VIEW0002
  6
Continuous
 62
     7
100
AcDbCircle
 10
1.550264716148376
 20
-56.77413940429688
 30
0.0
 40
1.625
  0
ARC
  5
30A
330
1F
100
AcDbEntity
  8
VIEW0002
  6
Continuous
 62
     7
100
AcDbCircle
 10
0.800264656543732
 20
-69.27413940429688
 30
0.0
 40
2.5
100
AcDbArc
 50
179.999991348578
 51
270.0000006832453
  0
CIRCLE
  5
30B
330
1F
100
AcDbEntity
  8
VIEW0002
  6
Continuous
 62
     7
100
AcDbCircle
 10
23.05026435852051
 20
-56.77413940429688
 30
0.0
 40
1.625
  0
CIRCLE
  5
30C
330
1F
100
AcDbEntity
  8
VIEW0002
  6
Continuous
 62
     7
100
AcDbCircle
 10
1.050264716148376
 20
-52.27413940429688
 30
0.0
 40
1.075000047683716
  0
CIRCLE
  5
30D
330
1F
100
AcDbEntity
  8
VIEW0002
  6
Continuous
 62
     7
100
AcDbCircle
 10
1.050264716148376
 20
-67.27413940429688
 30
0.0
 40
1.075000047683716
  0
ARC
  5
30E
330
1F
100
AcDbEntity
  8
VIEW0002
  6
Continuous
 62
     7
100
AcDbCircle
 10
0.800264656543732
 20
-47.46668243408203
 30
0.0
 40
2.5
100
AcDbArc
 50
149.036243991674
 51
180.0000050089563
  0
ARC
  5
30F
330
1F
100
AcDbEntity
  8
VIEW0002
  6
Continuous
 62
     7
100
AcDbCircle
 10
23.80026435852051
 20
-69.27413940429688
 30
0.0
 40
2.5
100
AcDbArc
 50
269.9999974955218
 51
0.0
  0
ARC
  5
310
330
1F
100
AcDbEntity
  8
VIEW0002
  6
Continuous
 62
     7
100
AcDbCircle
 10
21.88479804992676
 20
-44.27413940429688
 30
0.0
 40
2.5
100
AcDbArc
 50
30.96375418709319
 51
90.00000250447816
  0
ARC
  5
311
330
1F
100
AcDbEntity
  8
VIEW0002
  6
Continuous
 62
     7
100
AcDbCircle
 10
23.80026435852051
 20
-47.46658325195312
 30
0.0
 40
2.5
100
AcDbArc
 50
0.0
 51
30.96375418709319
  0
ARC
  5
312
330
1F
100
AcDbEntity
  8
VIEW0002
  6
Continuous
 62
     7
100
AcDbCircle
 10
2.715791940689087
 20
-44.27413940429688
 30
0.0
 40
2.5
100
AcDbArc
 50
90.00000250447816
 51
149.036243991674
  0
CIRCLE
  5
313
330
1F
100
AcDbEntity
  8
VIEW0002
  6
Continuous
 62
     7
100
AcDbCircle
 10
23.55026435852051
 20
-67.27413940429688
 30
0.0
 40
1.075000047683716
  0
ARC
  5
314
330
1F
100
AcDbEntity
  8
VIEW0002
  6
Continuous
 62
     7
100
AcDbCircle
 10
8.550264358520508
 20
-41.77413940429688
 30
0.0
 40
1.5
100
AcDbArc
 50
179.999991348578
 51
0.0
  0
ARC
  5
315
330
1F
100
AcDbEntity
  8
VIEW0002
  6
Continuous
 62
     7
100
AcDbCircle
 10
16.05026435852051
 20
-41.77413940429688
 30
0.0
 40
1.5
100
AcDbArc
 50
179.999991348578
 51
0.0
  0
ARC
  5
316
330
1F
100
AcDbEntity
  8
VIEW0002
  6
Continuous
 62
     7
100
AcDbCircle
 10
8.550264358520508
 20
-62.77413940429688
 30
0.0
 40
1.5
100
AcDbArc
 50
179.999991348578
 51
0.0
  0
ARC
  5
317
330
1F
100
AcDbEntity
  8
VIEW0002
  6
Continuous
 62
     7
100
AcDbCircle
 10
16.30550956726074
 20
17.68188858032227
 30
0.0
 40
1.0
100
AcDbArc
 50
269.9999974955218
 51
334.9999981659467
  0
ARC
  5
318
330
1F
100
AcDbEntity
  8
VIEW0002
  6
Continuous
 62
     7
100
AcDbCircle
 10
-13.17337417602539
 20
97.52297973632812
 30
0.0
 40
1.0
100
AcDbArc
 50
269.9999974955218
 51
0.0
  0
ARC
  5
319
330
1F
100
AcDbEntity
  8
VIEW0002
  6
Continuous
 62
     7
100
AcDbCircle
 10
3.69257640838623
 20
93.14797973632812
 30
0.0
 40
0.75
100
AcDbArc
 50
90.00000250447816
 51
180.0000050089563
  0
ARC
  5
31A
330
1F
100
AcDbEntity
  8
VIEW0002
  6
Continuous
 62
     7
100
AcDbCircle
 10
3.69257640838623
 20
91.89797973632812
 30
0.0
 40
0.75
100
AcDbArc
 50
179.999991348578
 51
270.0000006832453
  0
ARC
  5
31B
330
1F
100
AcDbEntity
  8
VIEW0002
  6
Continuous
 62
     7
100
AcDbCircle
 10
-13.17337417602539
 20
87.52297973632812
 30
0.0
 40
1.0
100
AcDbArc
 50
0.0
 51
90.00000250447816
  0
ARC
  5
31C
330
1F
100
AcDbEntity
  8
VIEW0002
  6
Continuous
 62
     7
100
AcDbCircle
 10
-14.40736961364746
 20
30.08185958862305
 30
0.0
 40
1.0
100
AcDbArc
 50
179.999991348578
 51
270.0000006832453
  0
ARC
  5
31D
330
1F
100
AcDbEntity
  8
VIEW0002
  6
Continuous
 62
     7
100
AcDbCircle
 10
-14.40736961364746
 20
30.08185958862305
 30
0.0
 40
0.5
100
AcDbArc
 50
179.999991348578
 51
270.0000006832453
  0
ARC
  5
31E
330
1F
100
AcDbEntity
  8
VIEW0002
  6
Continuous
 62
     7
100
AcDbCircle
 10
1.43066930770874
 20
19.08189010620117
 30
0.0
 40
6.0
100
AcDbArc
 50
200.3231682249032
 51
269.9999974955218
  0
ARC
  5
31F
330
1F
100
AcDbEntity
  8
VIEW0002
  6
Continuous
 62
     7
100
AcDbCircle
 10
-8.441421508789062
 20
25.58186340332031
 30
0.0
 40
4.0
100
AcDbArc
 50
20.32317323385958
 51
90.00000250447816
  0
ARC
  5
320
330
1F
100
AcDbEntity
  8
VIEW0002
  6
Continuous
 62
     7
100
AcDbCircle
 10
1.43066930770874
 20
19.08189010620117
 30
0.0
 40
3.0
100
AcDbArc
 50
200.3231682249032
 51
269.9999974955218
  0
ARC
  5
321
330
1F
100
AcDbEntity
  8
VIEW0002
  6
Continuous
 62
     7
100
AcDbCircle
 10
-8.441421508789062
 20
25.58186340332031
 30
0.0
 40
1.0
100
AcDbArc
 50
20.323169818765
 51
90.00000250447816
  0
ARC
  5
322
330
1F
100
AcDbEntity
  8
VIEW0002
  6
Continuous
 62
     7
100
AcDbCircle
 10
-10.68660926818848
 20
27.58186340332031
 30
0.0
 40
1.0
100
AcDbArc
 50
198.4349487684749
 51
269.9999974955218
  0
ARC
  5
323
330
1F
100
AcDbEntity
  8
VIEW0002
  6
Continuous
 62
     7
100
AcDbCircle
 10
-50.04720306396484
 20
23.68188858032227
 30
0.0
 40
9.0
100
AcDbArc
 50
67.97568869555687
 51
112.0243094832103
  0
ARC
  5
324
330
1F
100
AcDbEntity
  8
VIEW0002
  6
Continuous
 62
     7
100
AcDbCircle
 10
-54.19720077514648
 20
28.58186340332031
 30
0.0
 40
1.0
100
AcDbArc
 50
90.00000250447816
 51
180.0000050089563
  0
ARC
  5
325
330
1F
100
AcDbEntity
  8
VIEW0002
  6
Continuous
 62
     7
100
AcDbCircle
 10
-45.89720153808594
 20
28.58186340332031
 30
0.0
 40
0.5
100
AcDbArc
 50
0.0
 51
90.00000250447816
  0
ARC
  5
326
330
1F
100
AcDbEntity
  8
VIEW0002
  6
Continuous
 62
     7
100
AcDbCircle
 10
-45.89720153808594
 20
28.58186340332031
 30
0.0
 40
1.0
100
AcDbArc
 50
0.0
 51
90.00000250447816
  0
ARC
  5
327
330
1F
100
AcDbEntity
  8
VIEW0002
  6
Continuous
 62
     7
100
AcDbCircle
 10
-45.89720153808594
 20
15.08188915252686
 30
0.0
 40
0.5
100
AcDbArc
 50
0.0
 51
90.00000250447816
  0
ARC
  5
328
330
1F
100
AcDbEntity
  8
VIEW0002
  6
Continuous
 62
     7
100
AcDbCircle
 10
-47.04720306396484
 20
31.09808731079102
 30
0.0
 40
1.0
100
AcDbArc
 50
0.0
 51
67.97568869555687
  0
ARC
  5
329
330
1F
100
AcDbEntity
  8
VIEW0002
  6
Continuous
 62
     7
100
AcDbCircle
 10
-53.04720306396484
 20
31.09808731079102
 30
0.0
 40
1.0
100
AcDbArc
 50
112.0243094832103
 51
180.0000050089563
  0
ARC
  5
32A
330
1F
100
AcDbEntity
  8
VIEW0002
  6
Continuous
 62
     7
100
AcDbCircle
 10
-54.19720077514648
 20
15.08188915252686
 30
0.0
 40
0.5
100
AcDbArc
 50
90.00000250447816
 51
180.0000050089563
  0
ARC
  5
32B
330
1F
100
AcDbEntity
  8
VIEW0002
  6
Continuous
 62
     7
100
AcDbCircle
 10
-54.19720077514648
 20
28.58186340332031
 30
0.0
 40
0.5
100
AcDbArc
 50
90.00000250447816
 51
180.0000050089563
  0
ARC
  5
32C
330
1F
100
AcDbEntity
  8
VIEW0002
  6
PHANTOM
 62
     7
100
AcDbCircle
 10
12.32622146606445
 20
17.81332778930664
 30
0.0
 40
4.75
100
AcDbArc
 50
17.956616846835
 51
60.1194002065331
  0
ARC
  5
32D
330
1F
100
AcDbEntity
  8
VIEW0002
  6
PHANTOM
 62
     7
100
AcDbCircle
 10
17.32049942016602
 20
19.43188858032227
 30
0.0
 40
0.5
100
AcDbArc
 50
197.956917488844
 51
270.0000179860893
  0
ARC
  5
32E
330
1F
100
AcDbEntity
  8
VIEW0002
  6
PHANTOM
 62
     7
100
AcDbCircle
 10
23.42093276977539
 20
21.43188858032227
 30
0.0
 40
0.5
100
AcDbArc
 50
354.1453445510253
 51
89.99997518372149
  0
ARC
  5
32F
330
1F
100
AcDbEntity
  8
VIEW0002
  6
Continuous
 62
     7
100
AcDbCircle
 10
34.40810394287109
 20
19.08189010620117
 30
0.0
 40
3.0
100
AcDbArc
 50
269.9999974955218
 51
335.6312562018704
  0
ARC
  5
330
330
1F
100
AcDbEntity
  8
VIEW0002
  6
Continuous
 62
     7
100
AcDbCircle
 10
13.06477737426758
 20
19.43188858032227
 30
0.0
 40
0.5
100
AcDbArc
 50
270.0000179860893
 51
342.0430689644631
  0
ARC
  5
331
330
1F
100
AcDbEntity
  8
VIEW0002
  6
Continuous
 62
     7
100
AcDbCircle
 10
10.82049942016602
 20
19.43188858032227
 30
0.0
 40
0.5
100
AcDbArc
 50
197.956917488844
 51
270.0000179860893
  0
ARC
  5
332
330
1F
100
AcDbEntity
  8
VIEW0002
  6
Continuous
 62
     7
100
AcDbCircle
 10
5.826221466064453
 20
17.81332778930664
 30
0.0
 40
4.75
100
AcDbArc
 50
17.956616846835
 51
60.1194002065331
  0
ARC
  5
333
330
1F
100
AcDbEntity
  8
VIEW0002
  6
Continuous
 62
     7
100
AcDbCircle
 10
18.05905532836914
 20
17.81332778930664
 30
0.0
 40
4.75
100
AcDbArc
 50
119.880475028829
 51
162.0434103602361
  0
ARC
  5
334
330
1F
100
AcDbEntity
  8
VIEW0002
  6
Continuous
 62
     7
100
AcDbCircle
 10
16.92093276977539
 20
21.43188858032227
 30
0.0
 40
0.5
100
AcDbArc
 50
354.1453445510253
 51
89.99997518372149
  0
ARC
  5
335
330
1F
100
AcDbEntity
  8
VIEW0002
  6
Continuous
 62
     7
100
AcDbCircle
 10
6.964344024658203
 20
21.43188858032227
 30
0.0
 40
0.5
100
AcDbArc
 50
89.99998201391067
 51
185.8546109390595
  0
ARC
  5
336
330
1F
100
AcDbEntity
  8
VIEW0002
  6
Continuous
 62
     7
100
AcDbCircle
 10
12.6931037902832
 20
21.86543655395508
 30
0.0
 40
4.75
100
AcDbArc
 50
298.2673910737799
 51
354.1450303623236
  0
ARC
  5
337
330
1F
100
AcDbEntity
  8
VIEW0002
  6
Continuous
 62
     7
100
AcDbCircle
 10
11.19217300415039
 20
21.86543655395508
 30
0.0
 40
4.75
100
AcDbArc
 50
185.8549424306053
 51
241.7325834266962
  0
ARC
  5
338
330
1F
100
AcDbEntity
  8
VIEW0002
  6
PHANTOM
 62
     7
100
AcDbCircle
 10
19.56477737426758
 20
19.43188858032227
 30
0.0
 40
0.5
100
AcDbArc
 50
270.0000179860893
 51
342.0430689644631
  0
ARC
  5
339
330
1F
100
AcDbEntity
  8
VIEW0002
  6
PHANTOM
 62
     7
100
AcDbCircle
 10
24.55905532836914
 20
17.81332778930664
 30
0.0
 40
4.75
100
AcDbArc
 50
119.880475028829
 51
162.0434103602361
  0
ARC
  5
33A
330
1F
100
AcDbEntity
  8
VIEW0002
  6
PHANTOM
 62
     7
100
AcDbCircle
 10
17.69217300415039
 20
21.86543655395508
 30
0.0
 40
4.75
100
AcDbArc
 50
185.8549424306053
 51
241.7325834266962
  0
ARC
  5
33B
330
1F
100
AcDbEntity
  8
VIEW0002
  6
PHANTOM
 62
     7
100
AcDbCircle
 10
19.1931037902832
 20
21.86543655395508
 30
0.0
 40
4.75
100
AcDbArc
 50
298.2673910737799
 51
354.1450303623236
  0
ARC
  5
33C
330
1F
100
AcDbEntity
  8
VIEW0002
  6
PHANTOM
 62
     7
100
AcDbCircle
 10
13.4643440246582
 20
21.43188858032227
 30
0.0
 40
0.5
100
AcDbArc
 50
89.99998201391067
 51
185.8546109390595
  0
ARC
  5
33D
330
1F
100
AcDbEntity
  8
VIEW0002
  6
Continuous
 62
     7
100
AcDbCircle
 10
48.4426155090332
 20
15.68186092376709
 30
0.0
 40
1.0
100
AcDbArc
 50
90.00000250447816
 51
180.3085519745225
  0
ARC
  5
33E
330
1F
100
AcDbEntity
  8
VIEW0002
  6
Continuous
 62
     7
100
AcDbCircle
 10
34.40810394287109
 20
19.08189010620117
 30
0.0
 40
6.0
100
AcDbArc
 50
269.9999974955218
 51
335.6312544943231
  0
ARC
  5
33F
330
1F
100
AcDbEntity
  8
VIEW0002
  6
Continuous
 62
     7
100
AcDbCircle
 10
51.44263076782227
 20
17.18186187744141
 30
0.0
 40
1.0
100
AcDbArc
 50
269.9999974955218
 51
0.0
  0
ARC
  5
340
330
1F
100
AcDbEntity
  8
VIEW0002
  6
Continuous
 62
     7
100
AcDbCircle
 10
51.44263076782227
 20
17.18186187744141
 30
0.0
 40
1.5
100
AcDbArc
 50
269.9999974955218
 51
0.0
  0
ARC
  5
341
330
1F
100
AcDbEntity
  8
VIEW0002
  6
Continuous
 62
     7
100
AcDbCircle
 10
51.44263076782227
 20
17.18186187744141
 30
0.0
 40
0.5
100
AcDbArc
 50
269.9999974955218
 51
0.0
  0
ARC
  5
342
330
1F
100
AcDbEntity
  8
VIEW0002
  6
Continuous
 62
     7
100
AcDbCircle
 10
47.94263076782227
 20
13.68186092376709
 30
0.0
 40
0.5
100
AcDbArc
 50
269.9999974955218
 51
0.0
  0
ARC
  5
343
330
1F
100
AcDbEntity
  8
VIEW0002
  6
Continuous
 62
     7
100
AcDbCircle
 10
48.44263076782227
 20
15.68186092376709
 30
0.0
 40
0.5
100
AcDbArc
 50
90.00000250447816
 51
180.0000050089563
  0
ARC
  5
344
330
1F
100
AcDbEntity
  8
VIEW0002
  6
Continuous
 62
     7
100
AcDbCircle
 10
48.94263076782227
 20
15.18186092376709
 30
0.0
 40
0.5
100
AcDbArc
 50
90.00000250447816
 51
180.0000050089563
  0
ARC
  5
345
330
1F
100
AcDbEntity
  8
VIEW0002
  6
Continuous
 62
     7
100
AcDbCircle
 10
45.14263153076172
 20
16.00346755981445
 30
0.0
 40
0.4000000059604645
100
AcDbArc
 50
285.0000013280294
 51
0.0
  0
ARC
  5
346
330
1F
100
AcDbEntity
  8
VIEW0002
  6
Continuous
 62
     7
100
AcDbCircle
 10
33.26843643188477
 20
12.82178688049316
 30
0.0
 40
0.4000000059604645
100
AcDbArc
 50
195.0000056537405
 51
285.0000013280294
  0
ARC
  5
347
330
1F
100
AcDbEntity
  8
VIEW0002
  6
Continuous
 62
     7
100
AcDbCircle
 10
33.26843643188477
 20
12.82178688049316
 30
0.0
 40
0.1500000059604645
100
AcDbArc
 50
195.0000056537405
 51
285.0000013280294
  0
ARC
  5
348
330
1F
100
AcDbEntity
  8
VIEW0002
  6
Continuous
 62
     7
100
AcDbCircle
 10
28.33174705505371
 20
13.26938915252686
 30
0.0
 40
3.3125
100
AcDbArc
 50
58.10918674133914
 51
121.8907772864822
  0
ARC
  5
349
330
1F
100
AcDbEntity
  8
VIEW0002
  6
Continuous
 62
     7
100
AcDbCircle
 10
51.44263076782227
 20
29.43186187744141
 30
0.0
 40
1.0
100
AcDbArc
 50
0.0
 51
90.00000250447816
  0
ARC
  5
34A
330
1F
100
AcDbEntity
  8
VIEW0002
  6
Continuous
 62
     7
100
AcDbCircle
 10
51.44263076782227
 20
29.43186187744141
 30
0.0
 40
0.5
100
AcDbArc
 50
0.0
 51
90.00000250447816
  0
ARC
  5
34B
330
1F
100
AcDbEntity
  8
VIEW0002
  6
Continuous
 62
     7
100
AcDbCircle
 10
51.44263076782227
 20
29.43186187744141
 30
0.0
 40
1.5
100
AcDbArc
 50
0.0
 51
90.00000250447816
  0
ARC
  5
34C
330
1F
100
AcDbEntity
  8
VIEW0002
  6
Continuous
 62
     7
100
AcDbCircle
 10
46.69263076782227
 20
30.43186187744141
 30
0.0
 40
0.5
100
AcDbArc
 50
90.00000250447816
 51
180.0000050089563
  0
ARC
  5
34D
330
1F
100
AcDbEntity
  8
VIEW0002
  6
Continuous
 62
     7
100
AcDbCircle
 10
45.42200088500977
 20
26.43186187744141
 30
0.0
 40
4.0
100
AcDbArc
 50
90.00000250447816
 51
155.6312560881848
  0
ARC
  5
34E
330
1F
100
AcDbEntity
  8
VIEW0002
  6
Continuous
 62
     7
100
AcDbCircle
 10
45.42200088500977
 20
26.43186187744141
 30
0.0
 40
1.0
100
AcDbArc
 50
90.00000250447816
 51
155.6312560881848
  0
ARC
  5
34F
330
1F
100
AcDbEntity
  8
VIEW0002
  6
Continuous
 62
     7
100
AcDbCircle
 10
49.72187042236328
 20
28.43186187744141
 30
0.0
 40
1.0
100
AcDbArc
 50
269.9999974955218
 51
341.5650513452106
  0
SPLINE
  5
350
330
1F
100
AcDbEntity
  8
VIEW0002
  6
Continuous
 62
     7
100
AcDbSpline
210
0.0
220
0.0
230
1.0
 70
     8
 71
     3
 72
     9
 73
     5
 74
     3
 42
0.0000000001
 43
0.0000000001
 44
0.0000000001
 12
-0.740477683501419
 22
-0.6720809476814323
 32
0.0
 13
0.7404761058411112
 23
-0.6720826858939185
 33
0.0
 40
0.0
 40
0.0
 40
0.0
 40
0.0
 40
1.712538825792307
 40
3.425091016592132
 40
3.425091016592132
 40
3.425091016592132
 40
3.425091016592132
 10
19.35199356079102
 20
94.02297973632812
 30
0.0
 10
18.92929463324804
 20
93.63932483066822
 30
0.0
 10
18.12204476164179
 20
92.52298428978746
 30
0.0
 10
18.92929223502664
 20
91.40663862837022
 30
0.0
 10
19.35199356079102
 20
91.02297973632812
 30
0.0
 11
19.35199356079102
 21
94.02297973632812
 31
0.0
 11
18.52566909790039
 21
92.52298736572266
 31
0.0
 11
19.35199356079102
 21
91.02297973632812
 31
0.0
  0
ELLIPSE
  5
351
330
1F
100
AcDbEntity
  8
VIEW0002
  6
Continuous
 62
     7
100
AcDbEllipse
 10
63.95602798461914
 20
103.5229797363281
 30
0.0
 11
-7.105427357601002E-15
 21
-1.625000067019712
 31
0.0
210
0.0
220
0.0
230
1.0
 40
0.514496181002897
 41
0.0
 42
6.283185307179586
  0
ELLIPSE
  5
352
330
1F
100
AcDbEntity
  8
VIEW0002
  6
Continuous
 62
     7
100
AcDbEllipse
 10
63.95602798461914
 20
81.52297973632812
 30
0.0
 11
-7.105427357601002E-15
 21
1.625000067019712
 31
0.0
210
0.0
220
0.0
230
1.0
 40
0.514496181002888
 41
0.0
 42
6.283185307179586
  0
ELLIPSE
  5
353
330
1F
100
AcDbEntity
  8
VIEW0002
  6
Continuous
 62
     7
100
AcDbEllipse
 10
69.35823822021484
 20
81.52297973632812
 30
0.0
 11
-0.001527463267336771
 21
-1.074998877452217
 31
0.0
210
0.0
220
0.0
230
1.0
 40
0.514495223056395
 41
0.0
 42
6.283185307179586
  0
ELLIPSE
  5
354
330
1F
100
AcDbEntity
  8
VIEW0002
  6
Continuous
 62
     7
100
AcDbEllipse
 10
61.64080047607422
 20
81.52297973632812
 30
0.0
 11
-0.001527463267336771
 21
-1.074998877452217
 31
0.0
210
0.0
220
0.0
230
1.0
 40
0.514495223056421
 41
0.0
 42
6.283185307179586
  0
ELLIPSE
  5
355
330
1F
100
AcDbEntity
  8
VIEW0002
  6
Continuous
 62
     7
100
AcDbEllipse
 10
69.35823822021484
 20
103.5229797363281
 30
0.0
 11
-0.001527463267336771
 21
1.074998877452217
 31
0.0
210
0.0
220
0.0
230
1.0
 40
0.514495223056395
 41
0.0
 42
6.283185307179586
  0
ELLIPSE
  5
356
330
1F
100
AcDbEntity
  8
VIEW0002
  6
Continuous
 62
     7
100
AcDbEllipse
 10
61.64080047607422
 20
103.5229797363281
 30
0.0
 11
-0.001527463267336771
 21
1.074998877452217
 31
0.0
210
0.0
220
0.0
230
1.0
 40
0.514495223056421
 41
0.0
 42
6.283185307179586
  0
SPLINE
  5
357
330
1F
100
AcDbEntity
  8
VIEW0002
  6
Continuous
 62
     7
100
AcDbSpline
210
0.0
220
0.0
230
1.0
 70
     8
 71
     3
 72
     9
 73
     5
 74
     3
 42
0.0000000001
 43
0.0000000001
 44
0.0000000001
 12
0.9109464637221318
 22
0.4125245934876403
 32
0.0
 13
0.1460857001299413
 23
0.9892719384565322
 33
0.0
 40
0.0
 40
0.0
 40
0.0
 40
0.0
 40
1.19151156198941
 40
2.16464673488038
 40
2.16464673488038
 40
2.16464673488038
 40
2.16464673488038
 10
70.3872299194336
 20
78.52297973632812
 30
0.0
 10
70.74903100072636
 20
78.68682234390997
 30
0.0
 10
71.3835446532866
 20
79.12356581727661
 30
0.0
 10
71.62654614567258
 20
79.84200417930596
 30
0.0
 10
71.67393319002353
 20
80.16290261892799
 30
0.0
 11
70.3872299194336
 21
78.52297973632812
 31
0.0
 11
71.32893371582031
 21
79.25297546386719
 31
0.0
 11
71.67393319002353
 21
80.16290261892799
 31
0.0
  0
SPLINE
  5
358
330
1F
100
AcDbEntity
  8
VIEW0002
  6
Continuous
 62
     7
100
AcDbSpline
210
0.0
220
0.0
230
1.0
 70
     8
 71
     3
 72
     9
 73
     5
 74
     3
 42
0.0000000001
 43
0.0000000001
 44
0.0000000001
 12
0.9109464637221318
 22
-0.4125245934876403
 32
0.0
 13
0.146086580503807
 23
-0.9892718084514007
 33
0.0
 40
0.0
 40
0.0
 40
0.0
 40
0.0
 40
1.19151623625676
 40
2.164647473094911
 40
2.164647473094911
 40
2.164647473094911
 40
2.164647473094911
 10
70.3872299194336
 20
106.5229797363281
 30
0.0
 10
70.74903242006212
 20
106.3591364859962
 30
0.0
 10
71.3835407926477
 20
105.9223861315693
 30
0.0
 10
71.6265460517665
 20
105.2039505333145
 30
0.0
 10
71.67393319002353
 20
104.8830534338054
 30
0.0
 11
70.3872299194336
 21
106.5229797363281
 31
0.0
 11
71.32893371582031
 21
105.7929763793945
 31
0.0
 11
71.67393319002353
 21
104.8830534338054
 31
0.0
  0
ELLIPSE
  5
359
330
1F
100
AcDbEntity
  8
VIEW0002
  6
Continuous
 62
     7
100
AcDbEllipse
 10
67.04300689697266
 20
88.77297973632812
 30
0.0
 11
0.0
 21
1.499999932181737
 31
0.0
210
0.0
220
0.0
230
1.0
 40
0.514496886865045
 41
3.141592653589792
 42
6.283185307179586
  0
ELLIPSE
  5
35A
330
1F
100
AcDbEntity
  8
VIEW0002
  6
Continuous
 62
     7
100
AcDbEllipse
 10
67.04300689697266
 20
96.27297973632812
 30
0.0
 11
0.0
 21
-1.499999932181737
 31
0.0
210
0.0
220
0.0
230
1.0
 40
0.514496886865045
 41
-0.0000000000000002
 42
3.141592653589794
  0
ELLIPSE
  5
35B
330
1F
100
AcDbEntity
  8
VIEW0002
  6
PHANTOM
 62
     7
100
AcDbEllipse
 10
70.45602798461914
 20
103.5229797363281
 30
0.0
 11
0.0
 21
-1.625000067019712
 31
0.0
210
0.0
220
0.0
230
1.0
 40
0.514496181002892
 41
0.0
 42
6.283185307179586
  0
ELLIPSE
  5
35C
330
1F
100
AcDbEntity
  8
VIEW0002
  6
PHANTOM
 62
     7
100
AcDbEllipse
 10
70.45602798461914
 20
81.52297973632812
 30
0.0
 11
0.0
 21
1.625000067019712
 31
0.0
210
0.0
220
0.0
230
1.0
 40
0.514496181002892
 41
0.0
 42
6.283185307179586
  0
ELLIPSE
  5
35D
330
1F
100
AcDbEntity
  8
VIEW0002
  6
PHANTOM
 62
     7
100
AcDbEllipse
 10
75.85823822021484
 20
81.52297973632812
 30
0.0
 11
-0.001527463267336771
 21
-1.074998877452217
 31
0.0
210
0.0
220
0.0
230
1.0
 40
0.514495223056395
 41
0.0
 42
6.283185307179586
  0
ELLIPSE
  5
35E
330
1F
100
AcDbEntity
  8
VIEW0002
  6
PHANTOM
 62
     7
100
AcDbEllipse
 10
68.14080047607422
 20
81.52297973632812
 30
0.0
 11
-0.001527463267336771
 21
-1.074998877452217
 31
0.0
210
0.0
220
0.0
230
1.0
 40
0.514495223056395
 41
0.0
 42
6.283185307179586
  0
ELLIPSE
  5
35F
330
1F
100
AcDbEntity
  8
VIEW0002
  6
PHANTOM
 62
     7
100
AcDbEllipse
 10
75.85823822021484
 20
103.5229797363281
 30
0.0
 11
-0.001527463267336771
 21
1.074998877452217
 31
0.0
210
0.0
220
0.0
230
1.0
 40
0.514495223056395
 41
0.0
 42
6.283185307179586
  0
ELLIPSE
  5
360
330
1F
100
AcDbEntity
  8
VIEW0002
  6
PHANTOM
 62
     7
100
AcDbEllipse
 10
68.14080047607422
 20
103.5229797363281
 30
0.0
 11
-0.001527463267336771
 21
1.074998877452217
 31
0.0
210
0.0
220
0.0
230
1.0
 40
0.514495223056395
 41
0.0
 42
6.283185307179586
  0
SPLINE
  5
361
330
1F
100
AcDbEntity
  8
VIEW0002
  6
PHANTOM
 62
     7
100
AcDbSpline
210
0.0
220
0.0
230
1.0
 70
     8
 71
     3
 72
     9
 73
     5
 74
     3
 42
0.0000000001
 43
0.0000000001
 44
0.0000000001
 12
0.9109464637221318
 22
0.4125245934876403
 32
0.0
 13
0.1460857001299413
 23
0.9892719384565322
 33
0.0
 40
0.0
 40
0.0
 40
0.0
 40
0.0
 40
1.19151156198941
 40
2.16464673488038
 40
2.16464673488038
 40
2.16464673488038
 40
2.16464673488038
 10
76.8872299194336
 20
78.52297973632812
 30
0.0
 10
77.24903100072636
 20
78.68682234390997
 30
0.0
 10
77.8835446532866
 20
79.12356581727661
 30
0.0
 10
78.12654614567258
 20
79.84200417930596
 30
0.0
 10
78.17393319002353
 20
80.16290261892799
 30
0.0
 11
76.8872299194336
 21
78.52297973632812
 31
0.0
 11
77.82893371582031
 21
79.25297546386719
 31
0.0
 11
78.17393319002353
 21
80.16290261892799
 31
0.0
  0
SPLINE
  5
362
330
1F
100
AcDbEntity
  8
VIEW0002
  6
PHANTOM
 62
     7
100
AcDbSpline
210
0.0
220
0.0
230
1.0
 70
     8
 71
     3
 72
     9
 73
     5
 74
     3
 42
0.0000000001
 43
0.0000000001
 44
0.0000000001
 12
0.9109464637221318
 22
-0.4125245934876403
 32
0.0
 13
0.146086580503807
 23
-0.9892718084514007
 33
0.0
 40
0.0
 40
0.0
 40
0.0
 40
0.0
 40
1.19151623625676
 40
2.164647473094911
 40
2.164647473094911
 40
2.164647473094911
 40
2.164647473094911
 10
76.8872299194336
 20
106.5229797363281
 30
0.0
 10
77.24903242006212
 20
106.3591364859962
 30
0.0
 10
77.88354079264771
 20
105.9223861315693
 30
0.0
 10
78.1265460517665
 20
105.2039505333145
 30
0.0
 10
78.17393319002353
 20
104.8830534338054
 30
0.0
 11
76.8872299194336
 21
106.5229797363281
 31
0.0
 11
77.82893371582031
 21
105.7929763793945
 31
0.0
 11
78.17393319002353
 21
104.8830534338054
 31
0.0
  0
ELLIPSE
  5
363
330
1F
100
AcDbEntity
  8
VIEW0002
  6
PHANTOM
 62
     7
100
AcDbEllipse
 10
73.54300689697266
 20
88.77297973632812
 30
0.0
 11
0.0
 21
1.499999932181737
 31
0.0
210
0.0
220
0.0
230
1.0
 40
0.514496886865045
 41
3.141592653589792
 42
6.283185307179586
  0
ELLIPSE
  5
364
330
1F
100
AcDbEntity
  8
VIEW0002
  6
PHANTOM
 62
     7
100
AcDbEllipse
 10
73.54300689697266
 20
96.27297973632812
 30
0.0
 11
0.0
 21
-1.499999932181737
 31
0.0
210
0.0
220
0.0
230
1.0
 40
0.514496886865045
 41
-0.0000000000000002
 42
3.141592653589794
  0
MTEXT
  5
365
330
1F
100
AcDbEntity
  8
VIEW0002
 62
     1
100
AcDbMText
 10
31.0668922662735
 20
-112.0382232666016
 30
0.0
 40
4.0
 41
0.0
 71
     7
 72
     1
  1
{\W0.833333;（スライド幅17～３０ｍｍ）}
 73
     1
 44
1.0
  0
DIMENSION
  5
366
330
1F
100
AcDbEntity
  8
VIEW0002
 62
     7
100
AcDbDimension
  2
*D16
 10
6.942630767822266
 20
47.82580947875977
 30
0.0
 11
31.44463076782227
 21
47.82580947875977
 31
0.0
 70
   160
  1
98
 71
     5
 42
48.99999618530273
  3
ISO-25
100
AcDbAlignedDimension
 13
55.942626953125
 23
38.11344909667969
 33
0.0
 14
6.942630767822266
 24
16.68188858032227
 34
0.0
100
AcDbRotatedDimension
1001
ACAD
1000
DSTYLE
1002
{
1070
   178
1070
     1
1070
   278
1070
    46
1070
   147
1040
0.800000011920929
1070
    77
1070
     1
1070
    74
1070
     0
1070
    73
1070
     0
1070
    42
1040
2.54
1070
    44
1040
2.0
1070
    76
1070
     0
1070
    75
1070
     0
1070
   279
1070
     0
1070
   271
1070
     0
1070
   173
1070
     1
1070
    41
1040
3.0
1070
   140
1040
3.200000047683716
1070
   344
1005
AF
1070
   343
1005
AF
1002
}
  0
DIMENSION
  5
373
330
1F
100
AcDbEntity
  8
VIEW0002
 62
     7
100
AcDbDimension
  2
*D17
 10
1.050264716148375
 20
-84.77313940429687
 30
0.0
 11
-11.91573534667492
 21
-84.77313940429687
 31
0.0
 70
   160
  1
5.5
 71
     5
 42
2.75
  3
ISO-25
100
AcDbAlignedDimension
 13
-1.699735283851624
 23
-71.77413940429688
 33
0.0
 14
1.050264716148376
 24
-69.09913635253906
 34
0.0
 50
180.0
100
AcDbRotatedDimension
1001
ACAD
1000
DSTYLE
1002
{
1070
   178
1070
     1
1070
   278
1070
    46
1070
   147
1040
0.800000011920929
1070
    77
1070
     1
1070
    74
1070
     0
1070
    73
1070
     0
1070
    42
1040
2.54
1070
    44
1040
2.0
1070
    76
1070
     0
1070
    75
1070
     1
1070
   279
1070
     0
1070
   271
1070
     1
1070
   173
1070
     1
1070
    41
1040
3.0
1070
   140
1040
3.200000047683716
1070
   344
1005
AF
1070
   343
1005
AF
1002
}
  0
DIMENSION
  5
389
330
1F
100
AcDbEntity
  8
VIEW0002
 62
     7
100
AcDbDimension
  2
*D18
 10
23.5502643585205
 20
-84.77313940429687
 30
0.0
 11
12.30126435852051
 21
-84.77313940429687
 31
0.0
 70
   160
  1
45
 71
     5
 42
22.49999964237213
  3
ISO-25
100
AcDbAlignedDimension
 13
1.050264716148376
 23
-69.09913635253906
 33
0.0
 14
23.55026435852051
 24
-69.09913635253906
 34
0.0
 50
180.0
100
AcDbRotatedDimension
1001
ACAD
1000
DSTYLE
1002
{
1070
   178
1070
     1
1070
   278
1070
    46
1070
   147
1040
0.800000011920929
1070
    77
1070
     1
1070
    74
1070
     0
1070
    73
1070
     0
1070
    42
1040
2.54
1070
    44
1040
2.0
1070
    76
1070
     0
1070
    75
1070
     1
1070
   279
1070
     0
1070
   271
1070
     0
1070
   173
1070
     1
1070
    41
1040
3.0
1070
   140
1040
3.200000047683716
1070
   344
1005
AF
1070
   343
1005
AF
1002
}
  0
DIMENSION
  5
395
330
1F
100
AcDbEntity
  8
VIEW0002
 62
     7
100
AcDbDimension
  2
*D19
 10
26.3002643585205
 20
-84.77313940429687
 30
0.0
 11
36.5162644213438
 21
-84.77313940429687
 31
0.0
 70
   160
  1
5.5
 71
     5
 42
2.75
  3
ISO-25
100
AcDbAlignedDimension
 13
23.55026435852051
 23
-69.09913635253906
 33
0.0
 14
26.30026435852051
 24
-69.27413940429688
 34
0.0
 50
180.0
100
AcDbRotatedDimension
1001
ACAD
1000
DSTYLE
1002
{
1070
   178
1070
     1
1070
   278
1070
    46
1070
   147
1040
0.800000011920929
1070
    77
1070
     1
1070
    74
1070
     0
1070
    73
1070
     0
1070
    42
1040
2.54
1070
    44
1040
2.0
1070
    76
1070
     1
1070
    75
1070
     1
1070
   279
1070
     0
1070
   271
1070
     1
1070
   173
1070
     1
1070
    41
1040
3.0
1070
   140
1040
3.200000047683716
1070
   344
1005
AF
1070
   343
1005
AF
1002
}
  0
DIMENSION
  5
3A9
330
1F
100
AcDbEntity
  8
VIEW0002
 62
     7
100
AcDbDimension
  2
*D20
 10
-1.699735283851624
 20
-94.77313940429687
 30
0.0
 11
12.30226435852051
 21
-94.77313940429687
 31
0.0
 70
   160
  1
56
 71
     5
 42
27.99999964237213
  3
ISO-25
100
AcDbAlignedDimension
 13
26.30026435852051
 23
-69.27413940429688
 33
0.0
 14
-1.699735283851624
 24
-71.77413940429688
 34
0.0
100
AcDbRotatedDimension
1001
ACAD
1000
DSTYLE
1002
{
1070
   178
1070
     1
1070
   278
1070
    46
1070
   147
1040
0.800000011920929
1070
    77
1070
     1
1070
    74
1070
     0
1070
    73
1070
     0
1070
    42
1040
2.54
1070
    44
1040
2.0
1070
    76
1070
     0
1070
    75
1070
     0
1070
   279
1070
     0
1070
   271
1070
     0
1070
   173
1070
     1
1070
    41
1040
3.0
1070
   140
1040
3.200000047683716
1070
   344
1005
AF
1070
   343
1005
AF
1002
}
  0
DIMENSION
  5
3B6
330
1F
100
AcDbEntity
  8
VIEW0002
 62
     7
100
AcDbDimension
  2
*D21
 10
-11.69873564147949
 20
-67.27413940429688
 30
0.0
 11
-11.69873564147949
 21
-79.58853943133354
 31
0.0
 70
   160
  1
9
 71
     5
 42
4.5
  3
ISO-25
100
AcDbAlignedDimension
 13
0.800264656543732
 23
-71.77413940429688
 33
0.0
 14
-0.774686515331268
 24
-67.27413940429688
 34
0.0
 50
270.0
100
AcDbRotatedDimension
1001
ACAD
1000
DSTYLE
1002
{
1070
   178
1070
     1
1070
   278
1070
    46
1070
   147
1040
0.800000011920929
1070
    77
1070
     1
1070
    74
1070
     0
1070
    73
1070
     0
1070
    42
1040
2.54
1070
    44
1040
2.0
1070
    76
1070
     0
1070
    75
1070
     1
1070
   279
1070
     0
1070
   271
1070
     0
1070
   173
1070
     1
1070
    41
1040
3.0
1070
   140
1040
3.200000047683716
1070
   344
1005
AF
1070
   343
1005
AF
1002
}
  0
DIMENSION
  5
3CC
330
1F
100
AcDbEntity
  8
VIEW0002
 62
     7
100
AcDbDimension
  2
*D22
 10
-11.69873564147949
 20
-56.77413940429688
 30
0.0
 11
-11.69873564147949
 21
-62.02313940429688
 31
0.0
 70
   160
  1
21
 71
     5
 42
10.5
  3
ISO-25
100
AcDbAlignedDimension
 13
-0.774686515331268
 23
-67.27413940429688
 33
0.0
 14
-0.824735343456268
 24
-56.77413940429688
 34
0.0
 50
270.0
100
AcDbRotatedDimension
1001
ACAD
1000
DSTYLE
1002
{
1070
   178
1070
     1
1070
   278
1070
    46
1070
   147
1040
0.800000011920929
1070
    77
1070
     1
1070
    74
1070
     0
1070
    73
1070
     0
1070
    42
1040
2.54
1070
    44
1040
2.0
1070
    76
1070
     0
1070
    75
1070
     1
1070
   279
1070
     0
1070
   271
1070
     0
1070
   173
1070
     1
1070
    41
1040
3.0
1070
   140
1040
3.200000047683716
1070
   344
1005
AF
1070
   343
1005
AF
1002
}
  0
DIMENSION
  5
3D8
330
1F
100
AcDbEntity
  8
VIEW0002
 62
     7
100
AcDbDimension
  2
*D23
 10
-11.69873564147949
 20
-52.27413940429688
 30
0.0
 11
-11.69873564147949
 21
-54.52313940429688
 31
0.0
 70
   160
  1
9
 71
     5
 42
4.5
  3
ISO-25
100
AcDbAlignedDimension
 13
-0.824735343456268
 23
-56.77413940429688
 33
0.0
 14
-0.774686515331268
 24
-52.27413940429688
 34
0.0
 50
270.0
100
AcDbRotatedDimension
1001
ACAD
1000
DSTYLE
1002
{
1070
   178
1070
     1
1070
   278
1070
    46
1070
   147
1040
0.800000011920929
1070
    77
1070
     1
1070
    74
1070
     0
1070
    73
1070
     0
1070
    42
1040
2.54
1070
    44
1040
2.0
1070
    76
1070
     0
1070
    75
1070
     1
1070
   279
1070
     0
1070
   271
1070
     0
1070
   173
1070
     1
1070
    41
1040
3.0
1070
   140
1040
3.200000047683716
1070
   344
1005
AF
1070
   343
1005
AF
1002
}
  0
DIMENSION
  5
3EC
330
1F
100
AcDbEntity
  8
VIEW0002
 62
     7
100
AcDbDimension
  2
*D24
 10
-11.69873564147949
 20
-41.77413940429688
 30
0.0
 11
-11.69873564147949
 21
-47.02313940429688
 31
0.0
 70
   160
  1
21
 71
     5
 42
10.5
  3
ISO-25
100
AcDbAlignedDimension
 13
-0.774686515331268
 23
-52.27413940429688
 33
0.0
 14
2.715791940689087
 24
-41.77413940429688
 34
0.0
 50
270.0
100
AcDbRotatedDimension
1001
ACAD
1000
DSTYLE
1002
{
1070
   178
1070
     1
1070
   278
1070
    46
1070
   147
1040
0.800000011920929
1070
    77
1070
     1
1070
    74
1070
     0
1070
    73
1070
     0
1070
    42
1040
2.54
1070
    44
1040
2.0
1070
    76
1070
     1
1070
    75
1070
     1
1070
   279
1070
     0
1070
   271
1070
     0
1070
   173
1070
     1
1070
    41
1040
3.0
1070
   140
1040
3.200000047683716
1070
   344
1005
AF
1070
   343
1005
AF
1002
}
  0
DIMENSION
  5
3F7
330
1F
100
AcDbEntity
  8
VIEW0002
 62
     7
100
AcDbDimension
  2
*D25
 10
-21.69773564147948
 20
-71.77413940429689
 30
0.0
 11
-21.69773564147949
 21
-56.77313940429688
 31
0.0
 70
   160
  1
60
 71
     5
 42
30.0
  3
ISO-25
100
AcDbAlignedDimension
 13
2.715791940689087
 23
-41.77413940429688
 33
0.0
 14
0.800264656543732
 24
-71.77413940429688
 34
0.0
 50
90.00000000000001
100
AcDbRotatedDimension
1001
ACAD
1000
DSTYLE
1002
{
1070
   178
1070
     1
1070
   278
1070
    46
1070
   147
1040
0.800000011920929
1070
    77
1070
     1
1070
    74
1070
     0
1070
    73
1070
     0
1070
    42
1040
2.54
1070
    44
1040
2.0
1070
    76
1070
     0
1070
    75
1070
     0
1070
   279
1070
     0
1070
   271
1070
     0
1070
   173
1070
     1
1070
    41
1040
3.0
1070
   140
1040
3.200000047683716
1070
   344
1005
AF
1070
   343
1005
AF
1002
}
  0
DIMENSION
  5
404
330
1F
100
AcDbEntity
  8
VIEW0002
 62
     7
100
AcDbDimension
  2
*D26
 10
1.550264716148378
 20
-31.77413940429688
 30
0.0
 11
-11.84373534560203
 21
-31.77413940429688
 31
0.0
 70
   160
  1
6.5
 71
     5
 42
3.25
  3
ISO-25
100
AcDbAlignedDimension
 13
-1.699735283851624
 23
-47.46668243408203
 33
0.0
 14
1.550264716148376
 24
-54.39913940429688
 34
0.0
 50
180.0
100
AcDbRotatedDimension
1001
ACAD
1000
DSTYLE
1002
{
1070
   178
1070
     1
1070
   278
1070
    46
1070
   147
1040
0.800000011920929
1070
    77
1070
     1
1070
    74
1070
     0
1070
    73
1070
     0
1070
    42
1040
2.54
1070
    44
1040
2.0
1070
    76
1070
     0
1070
    75
1070
     0
1070
   279
1070
     0
1070
   271
1070
     1
1070
   173
1070
     1
1070
    41
1040
3.0
1070
   140
1040
3.200000047683716
1070
   344
1005
AF
1070
   343
1005
AF
1002
}
  0
DIMENSION
  5
41C
330
1F
100
AcDbEntity
  8
VIEW0002
 62
     7
100
AcDbDimension
  2
*D27
 10
23.05026435852051
 20
-31.77413940429688
 30
0.0
 11
12.30126435852051
 21
-31.77413940429688
 31
0.0
 70
   160
  1
43
 71
     5
 42
21.49999964237213
  3
ISO-25
100
AcDbAlignedDimension
 13
1.550264716148376
 23
-54.39913940429688
 33
0.0
 14
23.05026435852051
 24
-54.39913940429688
 34
0.0
 50
180.0
100
AcDbRotatedDimension
1001
ACAD
1000
DSTYLE
1002
{
1070
   178
1070
     1
1070
   278
1070
    46
1070
   147
1040
0.800000011920929
1070
    77
1070
     1
1070
    74
1070
     0
1070
    73
1070
     0
1070
    42
1040
2.54
1070
    44
1040
2.0
1070
    76
1070
     0
1070
    75
1070
     1
1070
   279
1070
     0
1070
   271
1070
     0
1070
   173
1070
     1
1070
    41
1040
3.0
1070
   140
1040
3.200000047683716
1070
   344
1005
AF
1070
   343
1005
AF
1002
}
  0
DIMENSION
  5
428
330
1F
100
AcDbEntity
  8
VIEW0002
 62
     7
100
AcDbDimension
  2
*D28
 10
26.30026435852051
 20
-31.77413940429688
 30
0.0
 11
36.44426442027092
 21
-31.77413940429688
 31
0.0
 70
   160
  1
6.5
 71
     5
 42
3.249999999999999
  3
ISO-25
100
AcDbAlignedDimension
 13
23.05026435852051
 23
-54.39913940429688
 33
0.0
 14
26.30026435852051
 24
-47.46658325195312
 34
0.0
 50
180.0
100
AcDbRotatedDimension
1001
ACAD
1000
DSTYLE
1002
{
1070
   178
1070
     1
1070
   278
1070
    46
1070
   147
1040
0.800000011920929
1070
    77
1070
     1
1070
    74
1070
     0
1070
    73
1070
     0
1070
    42
1040
2.54
1070
    44
1040
2.0
1070
    76
1070
     0
1070
    75
1070
     1
1070
   279
1070
     0
1070
   271
1070
     1
1070
   173
1070
     1
1070
    41
1040
3.0
1070
   140
1040
3.200000047683716
1070
   344
1005
AF
1070
   343
1005
AF
1002
}
  0
INSERT
  5
444
330
1F
100
AcDbEntity
  8
VIEW0002
 62
     7
100
AcDbBlockReference
  2
SYM0001
 10
24.12895331201977
 20
-57.98948174637082
 30
0.0
  0
INSERT
  5
44D
330
1F
100
AcDbEntity
  8
VIEW0002
 62
     7
100
AcDbBlockReference
  2
SYM0002
 10
24.30044614295604
 20
-53.04410791106621
 30
0.0
  0
DIMENSION
  5
450
330
1F
100
AcDbEntity
  8
VIEW0002
 62
     7
100
AcDbDimension
  2
*D31
 10
84.73695850636217
 20
20.41005793925671
 30
0.0
 11
77.01502990722656
 21
33.27075631713867
 31
0.0
 70
   161
  1
60
 71
     5
 42
29.99999976158143
  3
ISO-25
100
AcDbAlignedDimension
 13
55.94262852003032
 23
38.11344953121934
 33
0.0
 14
71.3856021435164
 24
12.39352434938417
 34
0.0
1001
ACAD
1000
DSTYLE
1002
{
1070
   178
1070
     1
1070
   278
1070
    46
1070
   147
1040
0.800000011920929
1070
    77
1070
     1
1070
    74
1070
     0
1070
    73
1070
     0
1070
    42
1040
2.54
1070
    44
1040
1.000000000000013
1070
    76
1070
     0
1070
    75
1070
     0
1070
   279
1070
     0
1070
   271
1070
     0
1070
   173
1070
     1
1070
    41
1040
3.0
1070
   140
1040
3.200000047683716
1070
   344
1005
AF
1070
   343
1005
AF
1002
}
  0
DIMENSION
  5
45D
330
1F
100
AcDbEntity
  8
VIEW0002
 62
     7
100
AcDbDimension
  2
*D32
 10
-25.40540013122558
 20
87.37298583984374
 30
0.0
 11
-25.40540013122558
 21
92.52397973632813
 31
0.0
 70
   160
  1
21
 71
     5
 42
10.29999542236328
  3
ISO-25
100
AcDbAlignedDimension
 13
-12.17337417602539
 23
97.67298126220703
 33
0.0
 14
-12.17337417602539
 24
87.37298583984375
 34
0.0
 50
90.00000000000001
100
AcDbRotatedDimension
1001
ACAD
1000
DSTYLE
1002
{
1070
   178
1070
     1
1070
   278
1070
    46
1070
   147
1040
0.800000011920929
1070
    77
1070
     1
1070
    74
1070
     0
1070
    73
1070
     0
1070
    42
1040
2.54
1070
    44
1040
1.0
1070
    76
1070
     0
1070
    75
1070
     0
1070
   279
1070
     0
1070
   271
1070
     0
1070
   173
1070
     1
1070
    41
1040
3.0
1070
   140
1040
3.200000047683716
1070
   344
1005
AF
1070
   343
1005
AF
1002
}
  0
DIMENSION
  5
471
330
1F
100
AcDbEntity
  8
VIEW0002
 62
     7
100
AcDbDimension
  2
*D33
 10
47.44263076782227
 20
-13.31713907623291
 30
0.0
 11
16.01863153076172
 21
-13.31713907623291
 31
0.0
 70
   160
  1
126
 71
     5
 42
62.85000038146973
  3
ISO-25
100
AcDbAlignedDimension
 13
-15.40736961364746
 23
30.08185958862305
 33
0.0
 14
47.44263076782227
 24
6.68186092376709
 34
0.0
 50
180.0
100
AcDbRotatedDimension
1001
ACAD
1000
DSTYLE
1002
{
1070
   178
1070
     1
1070
   278
1070
    46
1070
   147
1040
0.800000011920929
1070
    77
1070
     1
1070
    74
1070
     0
1070
    73
1070
     0
1070
    42
1040
2.54
1070
    44
1040
1.0
1070
    76
1070
     1
1070
    75
1070
     0
1070
   279
1070
     0
1070
   271
1070
     0
1070
   173
1070
     1
1070
    41
1040
3.0
1070
   140
1040
3.200000047683716
1070
   344
1005
AF
1070
   343
1005
AF
1002
}
  0
DIMENSION
  5
47D
330
1F
100
AcDbEntity
  8
VIEW0002
 62
     7
100
AcDbDimension
  2
*D34
 10
-25.40536961364746
 20
29.08186340332031
 30
0.0
 11
-25.40536961364746
 21
30.88287408447266
 31
0.0
 70
   160
  1
7
 71
     5
 42
3.600025177001953
  3
ISO-25
100
AcDbAlignedDimension
 13
-15.40736961364746
 23
32.68188858032227
 33
0.0
 14
-14.40736961364746
 24
29.08186340332031
 34
0.0
 50
90.00000000000001
100
AcDbRotatedDimension
1001
ACAD
1000
DSTYLE
1002
{
1070
   178
1070
     1
1070
   278
1070
    46
1070
   147
1040
0.800000011920929
1070
    77
1070
     1
1070
    74
1070
     0
1070
    73
1070
     0
1070
    42
1040
2.54
1070
    44
1040
1.0
1070
    76
1070
     0
1070
    75
1070
     0
1070
   279
1070
     0
1070
   271
1070
     0
1070
   173
1070
     1
1070
    41
1040
3.0
1070
   140
1040
3.200000047683716
1070
   344
1005
AF
1070
   343
1005
AF
1002
}
  0
DIMENSION
  5
493
330
1F
100
AcDbEntity
  8
VIEW0002
 62
     7
100
AcDbDimension
  2
*D35
 10
51.94263076782227
 20
57.82580947875977
 30
0.0
 11
18.26863153076172
 21
57.82580947875977
 31
0.0
 70
   160
  1
135
 71
     5
 42
67.35000038146973
  3
ISO-25
100
AcDbAlignedDimension
 13
-15.40736961364746
 23
32.68188858032227
 33
0.0
 14
51.94263076782227
 24
29.43186187744141
 34
0.0
 50
180.0
100
AcDbRotatedDimension
1001
ACAD
1000
DSTYLE
1002
{
1070
   178
1070
     1
1070
   278
1070
    46
1070
   147
1040
0.800000011920929
1070
    77
1070
     1
1070
    74
1070
     0
1070
    73
1070
     0
1070
    42
1040
2.54
1070
    44
1040
1.0
1070
    76
1070
     0
1070
    75
1070
     0
1070
   279
1070
     0
1070
   271
1070
     0
1070
   173
1070
     1
1070
    41
1040
3.0
1070
   140
1040
3.200000047683716
1070
   344
1005
AF
1070
   343
1005
AF
1002
}
  0
DIMENSION
  5
4A0
330
1F
100
AcDbEntity
  8
VIEW0002
 62
     7
100
AcDbDimension
  2
*D36
 10
-46.04720306396484
 20
42.68188858032227
 30
0.0
 11
-50.04620306396485
 21
42.68188858032227
 31
0.0
 70
   160
  1
16
 71
     5
 42
8.0
  3
ISO-25
100
AcDbAlignedDimension
 13
-54.04720306396484
 23
31.09808731079102
 33
0.0
 14
-46.04720306396484
 24
31.09808731079102
 34
0.0
 50
180.0
100
AcDbRotatedDimension
1001
ACAD
1000
DSTYLE
1002
{
1070
   178
1070
     1
1070
   278
1070
    46
1070
   147
1040
0.800000011920929
1070
    77
1070
     1
1070
    74
1070
     0
1070
    73
1070
     0
1070
    42
1040
2.54
1070
    44
1040
1.0
1070
    76
1070
     0
1070
    75
1070
     0
1070
   279
1070
     0
1070
   271
1070
     0
1070
   173
1070
     1
1070
    41
1040
3.0
1070
   140
1040
3.200000047683716
1070
   344
1005
AF
1070
   343
1005
AF
1002
}
  0
INSERT
  5
4BA
330
1F
100
AcDbEntity
  8
VIEW0002
 62
     7
100
AcDbBlockReference
  2
SYM0003
 10
6.442636518149752
 20
21.93188650638754
 30
0.0
  0
INSERT
  5
4C3
330
1F
100
AcDbEntity
  8
VIEW0002
 62
     7
100
AcDbBlockReference
  2
SYM0004
 10
11.94263039671757
 20
21.08188826413301
 30
0.0
  0
DIMENSION
  5
4C6
330
1F
100
AcDbEntity
  8
VIEW0002
 62
     7
100
AcDbDimension
  2
*D39
 10
55.94263076782227
 20
-3.317138599395753
 30
0.0
 11
51.69363076782226
 21
-3.317138599395752
 31
0.0
 70
   160
  1
17
 71
     5
 42
8.499999999999995
  3
ISO-25
100
AcDbAlignedDimension
 13
47.44263076782227
 23
6.68186092376709
 33
0.0
 14
55.94263076782227
 24
38.11344909667969
 34
0.0
 50
180.0
100
AcDbRotatedDimension
1001
ACAD
1000
DSTYLE
1002
{
1070
   178
1070
     1
1070
   278
1070
    46
1070
   147
1040
0.800000011920929
1070
    77
1070
     1
1070
    74
1070
     0
1070
    73
1070
     0
1070
    42
1040
2.54
1070
    44
1040
1.0
1070
    76
1070
     0
1070
    75
1070
     1
1070
   279
1070
     0
1070
   271
1070
     0
1070
   173
1070
     1
1070
    41
1040
3.0
1070
   140
1040
3.200000047683716
1070
   344
1005
AF
1070
   343
1005
AF
1002
}
  0
DIMENSION
  5
4D2
330
1F
100
AcDbEntity
  8
VIEW0002
 62
     7
100
AcDbDimension
  2
*D40
 10
62.44263076782227
 20
-13.31713907623291
 30
0.0
 11
54.94363076782226
 21
-13.31713907623291
 31
0.0
 70
   160
  1
30
 71
     5
 42
15.0
  3
ISO-25
100
AcDbAlignedDimension
 13
47.44263076782227
 23
6.68186092376709
 33
0.0
 14
62.44263076782227
 24
38.11344909667969
 34
0.0
 50
180.0
100
AcDbRotatedDimension
1001
ACAD
1000
DSTYLE
1002
{
1070
   178
1070
     1
1070
   278
1070
    46
1070
   147
1040
0.800000011920929
1070
    77
1070
     1
1070
    74
1070
     0
1070
    73
1070
     0
1070
    42
1040
2.54
1070
    44
1040
1.0
1070
    76
1070
     0
1070
    75
1070
     0
1070
   279
1070
     0
1070
   271
1070
     0
1070
   173
1070
     1
1070
    41
1040
3.0
1070
   140
1040
3.200000047683716
1070
   344
1005
AF
1070
   343
1005
AF
1002
}
  0
ENDSEC
  0
SECTION
  2
OBJECTS
  0
DICTIONARY
  5
C
330
0
100
AcDbDictionary
281
     1
  3
ACAD_GROUP
350
D
  3
ACAD_LAYOUT
350
1A
  3
ACAD_MATERIAL
350
3B
  3
ACAD_MLEADERSTYLE
350
506
  3
ACAD_MLINESTYLE
350
17
  3
ACAD_PLOTSETTINGS
350
19
  3
ACAD_PLOTSTYLENAME
350
E
  3
ACAD_TABLESTYLE
350
505
  3
ACAD_VISUALSTYLE
350
2A
  0
DICTIONARY
  5
D
102
{ACAD_REACTORS
330
C
102
}
330
C
100
AcDbDictionary
281
     1
  0
DICTIONARY
  5
1A
102
{ACAD_REACTORS
330
C
102
}
330
C
100
AcDbDictionary
281
     1
  3
Layout1
350
1E
  3
Layout2
350
26
  3
Model
350
22
  0
DICTIONARY
  5
3B
102
{ACAD_REACTORS
330
C
102
}
330
C
100
AcDbDictionary
281
     1
  3
ByBlock
350
3D
  3
ByLayer
350
3C
  3
Global
350
3E
  0
DICTIONARY
  5
506
102
{ACAD_REACTORS
330
C
102
}
330
C
100
AcDbDictionary
281
     1
  0
DICTIONARY
  5
17
102
{ACAD_REACTORS
330
C
102
}
330
C
100
AcDbDictionary
281
     1
  3
Standard
350
18
  0
DICTIONARY
  5
19
102
{ACAD_REACTORS
330
C
102
}
330
C
100
AcDbDictionary
281
     1
  0
ACDBDICTIONARYWDFLT
  5
E
102
{ACAD_REACTORS
330
C
102
}
330
C
100
AcDbDictionary
281
     1
  3
Normal
350
F
100
AcDbDictionaryWithDefault
340
F
  0
DICTIONARY
  5
505
102
{ACAD_REACTORS
330
C
102
}
330
C
100
AcDbDictionary
281
     1
  0
DICTIONARY
  5
2A
102
{ACAD_REACTORS
330
C
102
}
330
C
100
AcDbDictionary
281
     1
  3
2dWireframe
350
2F
  3
3D Hidden
350
31
  3
3dWireframe
350
30
  3
Basic
350
32
  3
Brighten
350
36
  3
ColorChange
350
3A
  3
Conceptual
350
34
  3
Dim
350
35
  3
Facepattern
350
39
  3
Flat
350
2B
  3
FlatWithEdges
350
2C
  3
Gouraud
350
2D
  3
GouraudWithEdges
350
2E
  3
Linepattern
350
38
  3
Realistic
350
33
  3
Thicken
350
37
  0
LAYOUT
  5
1E
102
{ACAD_REACTORS
330
1A
102
}
330
1A
100
AcDbPlotSettings
  1

  2
none_device
  4

  6

 40
0.0
 41
0.0
 42
0.0
 43
0.0
 44
0.0
 45
0.0
 46
0.0
 47
0.0
 48
0.0
 49
0.0
140
0.0
141
0.0
142
1.0
143
1.0
 70
   688
 72
     0
 73
     0
 74
     5
  7

 75
    16
 76
     0
 77
     2
 78
   300
147
1.0
148
0.0
149
0.0
100
AcDbLayout
  1
Layout1
 70
     1
 71
     1
 10
-105.0
 20
-148.5
 11
105.0
 21
148.5
 12
0.0
 22
0.0
 32
0.0
 14
1.000000000000000E+20
 24
1.000000000000000E+20
 34
1.000000000000000E+20
 15
-1.000000000000000E+20
 25
-1.000000000000000E+20
 35
-1.000000000000000E+20
146
0.0
 13
0.0
 23
0.0
 33
0.0
 16
1.0
 26
0.0
 36
0.0
 17
0.0
 27
1.0
 37
0.0
 76
     0
330
1B
  0
LAYOUT
  5
26
102
{ACAD_REACTORS
330
1A
102
}
330
1A
100
AcDbPlotSettings
  1

  2
none_device
  4

  6

 40
0.0
 41
0.0
 42
0.0
 43
0.0
 44
0.0
 45
0.0
 46
0.0
 47
0.0
 48
0.0
 49
0.0
140
0.0
141
0.0
142
1.0
143
1.0
 70
   688
 72
     0
 73
     0
 74
     5
  7

 75
    16
 76
     0
 77
     2
 78
   300
147
1.0
148
0.0
149
0.0
100
AcDbLayout
  1
Layout2
 70
     1
 71
     2
 10
0.0
 20
0.0
 11
0.0
 21
0.0
 12
0.0
 22
0.0
 32
0.0
 14
0.0
 24
0.0
 34
0.0
 15
0.0
 25
0.0
 35
0.0
146
0.0
 13
0.0
 23
0.0
 33
0.0
 16
1.0
 26
0.0
 36
0.0
 17
0.0
 27
1.0
 37
0.0
 76
     0
330
23
  0
LAYOUT
  5
22
102
{ACAD_REACTORS
330
1A
102
}
330
1A
100
AcDbPlotSettings
  1

  2
none_device
  4

  6

 40
0.0
 41
0.0
 42
0.0
 43
0.0
 44
0.0
 45
0.0
 46
0.0
 47
0.0
 48
0.0
 49
0.0
140
0.0
141
0.0
142
1.0
143
1.0
 70
  1712
 72
     0
 73
     0
 74
     0
  7

 75
     0
 76
     0
 77
     2
 78
   300
147
1.0
148
0.0
149
0.0
100
AcDbLayout
  1
Model
 70
     1
 71
     0
 10
-105.0
 20
-148.5
 11
105.0
 21
148.5
 12
0.0
 22
0.0
 32
0.0
 14
-105.0
 24
-148.5
 34
0.0
 15
105.0
 25
148.5
 35
0.0
146
0.0
 13
0.0
 23
0.0
 33
0.0
 16
1.0
 26
0.0
 36
0.0
 17
0.0
 27
1.0
 37
0.0
 76
     0
330
1F
331
29
  0
MATERIAL
  5
3D
102
{ACAD_REACTORS
330
3B
102
}
102
{ACAD_XDICTIONARY
360
501
102
}
330
3B
100
AcDbMaterial
  1
ByBlock
  0
MATERIAL
  5
3C
102
{ACAD_REACTORS
330
3B
102
}
102
{ACAD_XDICTIONARY
360
4FF
102
}
330
3B
100
AcDbMaterial
  1
ByLayer
  0
MATERIAL
  5
3E
102
{ACAD_REACTORS
330
3B
102
}
102
{ACAD_XDICTIONARY
360
503
102
}
330
3B
100
AcDbMaterial
  1
Global
  0
MLINESTYLE
  5
18
102
{ACAD_REACTORS
330
17
102
}
330
17
100
AcDbMlineStyle
  2
Standard
 70
     0
  3

 62
   256
 51
90.0
 52
90.0
 71
     2
 49
0.5
 62
   256
  6
BYLAYER
 49
-0.5
 62
   256
  6
BYLAYER
  0
ACDBPLACEHOLDER
  5
F
102
{ACAD_REACTORS
330
E
102
}
330
E
  0
VISUALSTYLE
  5
2F
102
{ACAD_REACTORS
330
2A
102
}
102
{ACAD_XDICTIONARY
360
4E7
102
}
330
2A
100
AcDbVisualStyle
  2
2dWireframe
 70
     4
 71
     0
 72
     2
 73
     0
 90
        0
 40
-0.6
 41
-30.0
 62
     5
 63
     7
421
 16777215
 74
     1
 91
        4
 64
     7
 65
   257
 75
     1
175
     1
 42
1.0
 92
        0
 66
   257
 43
1.0
 76
     1
 77
     6
 78
     2
 67
     7
 79
     5
170
     0
171
     0
290
     0
174
     0
 93
        1
 44
0.0
173
     0
291
     0
 45
0.0
1001
ACAD
1000
AcDbSavedByObjectVersion
1070
     0
  0
VISUALSTYLE
  5
31
102
{ACAD_REACTORS
330
2A
102
}
102
{ACAD_XDICTIONARY
360
4EB
102
}
330
2A
100
AcDbVisualStyle
  2
3D Hidden
 70
     6
 71
     1
 72
     2
 73
     2
 90
        0
 40
-0.6
 41
-30.0
 62
     5
 63
     7
421
 16777215
 74
     2
 91
        2
 64
     7
 65
   257
 75
     2
175
     1
 42
40.0
 92
        0
 66
   257
 43
1.0
 76
     1
 77
     6
 78
     2
 67
     7
 79
     3
170
     0
171
     0
290
     0
174
     0
 93
        1
 44
0.0
173
     0
291
     0
 45
0.0
1001
ACAD
1000
AcDbSavedByObjectVersion
1070
     0
  0
VISUALSTYLE
  5
30
102
{ACAD_REACTORS
330
2A
102
}
102
{ACAD_XDICTIONARY
360
4E9
102
}
330
2A
100
AcDbVisualStyle
  2
3dWireframe
 70
     5
 71
     0
 72
     2
 73
     0
 90
        0
 40
-0.6
 41
-30.0
 62
     5
 63
     7
421
 16777215
 74
     1
 91
        4
 64
     7
 65
   257
 75
     1
175
     1
 42
1.0
 92
        0
 66
   257
 43
1.0
 76
     1
 77
     6
 78
     2
 67
     7
 79
     5
170
     0
171
     0
290
     0
174
     0
 93
        1
 44
0.0
173
     0
291
     0
 45
0.0
1001
ACAD
1000
AcDbSavedByObjectVersion
1070
     0
  0
VISUALSTYLE
  5
32
102
{ACAD_REACTORS
330
2A
102
}
102
{ACAD_XDICTIONARY
360
4ED
102
}
330
2A
100
AcDbVisualStyle
  2
Basic
 70
     7
 71
     1
 72
     0
 73
     1
 90
        0
 40
-0.6
 41
-30.0
 62
     5
 63
     7
421
 16777215
 74
     0
 91
        4
 64
     7
 65
   257
 75
     1
175
     1
 42
1.0
 92
        8
 66
     7
 43
1.0
 76
     1
 77
     6
 78
     2
 67
     7
 79
     5
170
     0
171
     0
290
     0
174
     0
 93
        1
 44
0.0
173
     0
291
     1
 45
0.0
1001
ACAD
1000
AcDbSavedByObjectVersion
1070
     0
  0
VISUALSTYLE
  5
36
102
{ACAD_REACTORS
330
2A
102
}
102
{ACAD_XDICTIONARY
360
4F5
102
}
330
2A
100
AcDbVisualStyle
  2
Brighten
 70
    12
 71
     2
 72
     2
 73
     0
 90
        0
 40
-0.6
 41
-30.0
 62
     5
 63
     7
421
 16777215
 74
     1
 91
        4
 64
     7
 65
   257
 75
     1
175
     1
 42
1.0
 92
        8
 66
     7
 43
1.0
 76
     1
 77
     6
 78
     2
 67
     7
 79
     5
170
     0
171
     0
290
     0
174
     0
 93
        1
 44
50.0
173
     0
291
     1
 45
0.0
1001
ACAD
1000
AcDbSavedByObjectVersion
1070
     0
  0
VISUALSTYLE
  5
3A
102
{ACAD_REACTORS
330
2A
102
}
102
{ACAD_XDICTIONARY
360
4FD
102
}
330
2A
100
AcDbVisualStyle
  2
ColorChange
 70
    16
 71
     2
 72
     2
 73
     3
 90
        0
 40
-0.6
 41
-30.0
 62
     5
 63
     8
421
  8421504
 74
     1
 91
        4
 64
     7
 65
   257
 75
     1
175
     1
 42
1.0
 92
        8
 66
     8
424
  8421504
 43
1.0
 76
     1
 77
     6
 78
     2
 67
     7
 79
     5
170
     0
171
     0
290
     0
174
     0
 93
        1
 44
0.0
173
     0
291
     1
 45
0.0
1001
ACAD
1000
AcDbSavedByObjectVersion
1070
     0
  0
VISUALSTYLE
  5
34
102
{ACAD_REACTORS
330
2A
102
}
102
{ACAD_XDICTIONARY
360
4F1
102
}
330
2A
100
AcDbVisualStyle
  2
Conceptual
 70
     9
 71
     3
 72
     2
 73
     0
 90
        0
 40
-0.6
 41
-30.0
 62
     5
 63
     7
421
 16777215
 74
     2
 91
        2
 64
     7
 65
   257
 75
     1
175
     1
 42
40.0
 92
        8
 66
     7
 43
1.0
 76
     1
 77
     6
 78
     2
 67
     7
 79
     3
170
     0
171
     0
290
     0
174
     0
 93
        1
 44
0.0
173
     0
291
     0
 45
0.0
1001
ACAD
1000
AcDbSavedByObjectVersion
1070
     0
  0
VISUALSTYLE
  5
35
102
{ACAD_REACTORS
330
2A
102
}
102
{ACAD_XDICTIONARY
360
4F3
102
}
330
2A
100
AcDbVisualStyle
  2
Dim
 70
    11
 71
     2
 72
     2
 73
     0
 90
        0
 40
-0.6
 41
-30.0
 62
     5
 63
     7
421
 16777215
 74
     1
 91
        4
 64
     7
 65
   257
 75
     1
175
     1
 42
1.0
 92
        8
 66
     7
 43
1.0
 76
     1
 77
     6
 78
     2
 67
     7
 79
     5
170
     0
171
     0
290
     0
174
     0
 93
        1
 44
-50.0
173
     0
291
     1
 45
0.0
1001
ACAD
1000
AcDbSavedByObjectVersion
1070
     0
  0
VISUALSTYLE
  5
39
102
{ACAD_REACTORS
330
2A
102
}
102
{ACAD_XDICTIONARY
360
4FB
102
}
330
2A
100
AcDbVisualStyle
  2
Facepattern
 70
    15
 71
     2
 72
     2
 73
     0
 90
        0
 40
-0.6
 41
-30.0
 62
     5
 63
     7
421
 16777215
 74
     1
 91
        4
 64
     7
 65
   257
 75
     1
175
     1
 42
1.0
 92
        8
 66
     7
 43
1.0
 76
     1
 77
     6
 78
     2
 67
     7
 79
     5
170
     0
171
     0
290
     0
174
     0
 93
        1
 44
0.0
173
     0
291
     1
 45
0.0
1001
ACAD
1000
AcDbSavedByObjectVersion
1070
     0
  0
VISUALSTYLE
  5
2B
102
{ACAD_REACTORS
330
2A
102
}
102
{ACAD_XDICTIONARY
360
4DF
102
}
330
2A
100
AcDbVisualStyle
  2
Flat
 70
     0
 71
     2
 72
     1
 73
     1
 90
        2
 40
-0.6
 41
30.0
 62
     5
 63
     7
421
 16777215
 74
     0
 91
        4
 64
     7
 65
   257
 75
     1
175
     1
 42
1.0
 92
        8
 66
     7
 43
1.0
 76
     1
 77
     6
 78
     2
 67
     7
 79
     5
170
     0
171
     0
290
     0
174
     0
 93
       13
 44
0.0
173
     0
291
     1
 45
0.0
1001
ACAD
1000
AcDbSavedByObjectVersion
1070
     0
  0
VISUALSTYLE
  5
2C
102
{ACAD_REACTORS
330
2A
102
}
102
{ACAD_XDICTIONARY
360
4E1
102
}
330
2A
100
AcDbVisualStyle
  2
FlatWithEdges
 70
     1
 71
     2
 72
     1
 73
     1
 90
        2
 40
-0.6
 41
30.0
 62
     5
 63
     7
421
 16777215
 74
     1
 91
        4
 64
     7
 65
   257
 75
     1
175
     1
 42
1.0
 92
        0
 66
   257
 43
1.0
 76
     1
 77
     6
 78
     2
 67
     7
 79
     5
170
     0
171
     0
290
     0
174
     0
 93
       13
 44
0.0
173
     0
291
     1
 45
0.0
1001
ACAD
1000
AcDbSavedByObjectVersion
1070
     0
  0
VISUALSTYLE
  5
2D
102
{ACAD_REACTORS
330
2A
102
}
102
{ACAD_XDICTIONARY
360
4E3
102
}
330
2A
100
AcDbVisualStyle
  2
Gouraud
 70
     2
 71
     2
 72
     2
 73
     1
 90
        2
 40
-0.6
 41
30.0
 62
     5
 63
     7
421
 16777215
 74
     0
 91
        4
 64
     7
 65
   257
 75
     1
175
     1
 42
1.0
 92
        0
 66
     7
 43
1.0
 76
     1
 77
     6
 78
     2
 67
     7
 79
     5
170
     0
171
     0
290
     0
174
     0
 93
       13
 44
0.0
173
     0
291
     1
 45
0.0
1001
ACAD
1000
AcDbSavedByObjectVersion
1070
     0
  0
VISUALSTYLE
  5
2E
102
{ACAD_REACTORS
330
2A
102
}
102
{ACAD_XDICTIONARY
360
4E5
102
}
330
2A
100
AcDbVisualStyle
  2
GouraudWithEdges
 70
     3
 71
     2
 72
     2
 73
     1
 90
        2
 40
-0.6
 41
30.0
 62
     5
 63
     7
421
 16777215
 74
     1
 91
        4
 64
     7
 65
   257
 75
     1
175
     1
 42
1.0
 92
        0
 66
   257
 43
1.0
 76
     1
 77
     6
 78
     2
 67
     7
 79
     5
170
     0
171
     0
290
     0
174
     0
 93
       13
 44
0.0
173
     0
291
     1
 45
0.0
1001
ACAD
1000
AcDbSavedByObjectVersion
1070
     0
  0
VISUALSTYLE
  5
38
102
{ACAD_REACTORS
330
2A
102
}
102
{ACAD_XDICTIONARY
360
4F9
102
}
330
2A
100
AcDbVisualStyle
  2
Linepattern
 70
    14
 71
     2
 72
     2
 73
     0
 90
        0
 40
-0.6
 41
-30.0
 62
     5
 63
     7
421
 16777215
 74
     1
 91
        4
 64
     7
 65
   257
 75
     7
175
     7
 42
1.0
 92
        8
 66
     7
 43
1.0
 76
     1
 77
     6
 78
     2
 67
     7
 79
     5
170
     0
171
     0
290
     0
174
     0
 93
        1
 44
0.0
173
     0
291
     1
 45
0.0
1001
ACAD
1000
AcDbSavedByObjectVersion
1070
     0
  0
VISUALSTYLE
  5
33
102
{ACAD_REACTORS
330
2A
102
}
102
{ACAD_XDICTIONARY
360
4EF
102
}
330
2A
100
AcDbVisualStyle
  2
Realistic
 70
     8
 71
     2
 72
     2
 73
     0
 90
        0
 40
-0.6
 41
-30.0
 62
     5
 63
     7
421
 16777215
 74
     1
 91
        0
 64
     7
 65
   257
 75
     1
175
     1
 42
1.0
 92
        8
 66
     8
424
  7895160
 43
1.0
 76
     1
 77
     6
 78
     2
 67
     7
 79
     5
170
     0
171
     0
290
     0
174
     0
 93
       13
 44
0.0
173
     0
291
     0
 45
0.0
1001
ACAD
1000
AcDbSavedByObjectVersion
1070
     0
  0
VISUALSTYLE
  5
37
102
{ACAD_REACTORS
330
2A
102
}
102
{ACAD_XDICTIONARY
360
4F7
102
}
330
2A
100
AcDbVisualStyle
  2
Thicken
 70
    13
 71
     2
 72
     2
 73
     0
 90
        0
 40
-0.6
 41
-30.0
 62
     5
 63
     7
421
 16777215
 74
     1
 91
        4
 64
     7
 65
   257
 75
     1
175
     1
 42
1.0
 92
       12
 66
     7
 43
1.0
 76
     1
 77
     6
 78
     2
 67
     7
 79
     5
170
     0
171
     0
290
     0
174
     0
 93
        1
 44
0.0
173
     0
291
     1
 45
0.0
1001
ACAD
1000
AcDbSavedByObjectVersion
1070
     0
  0
DICTIONARY
  5
501
330
3D
100
AcDbDictionary
280
     1
281
     1
  3
ACAD_XREC_ROUNDTRIP
360
502
  0
DICTIONARY
  5
4FF
330
3C
100
AcDbDictionary
280
     1
281
     1
  3
ACAD_XREC_ROUNDTRIP
360
500
  0
DICTIONARY
  5
503
330
3E
100
AcDbDictionary
280
     1
281
     1
  3
ACAD_XREC_ROUNDTRIP
360
504
  0
DICTIONARY
  5
4E7
330
2F
100
AcDbDictionary
280
     1
281
     1
  3
ACAD_XREC_ROUNDTRIP
360
4E8
  0
DICTIONARY
  5
4EB
330
31
100
AcDbDictionary
280
     1
281
     1
  3
ACAD_XREC_ROUNDTRIP
360
4EC
  0
DICTIONARY
  5
4E9
330
30
100
AcDbDictionary
280
     1
281
     1
  3
ACAD_XREC_ROUNDTRIP
360
4EA
  0
DICTIONARY
  5
4ED
330
32
100
AcDbDictionary
280
     1
281
     1
  3
ACAD_XREC_ROUNDTRIP
360
4EE
  0
DICTIONARY
  5
4F5
330
36
100
AcDbDictionary
280
     1
281
     1
  3
ACAD_XREC_ROUNDTRIP
360
4F6
  0
DICTIONARY
  5
4FD
330
3A
100
AcDbDictionary
280
     1
281
     1
  3
ACAD_XREC_ROUNDTRIP
360
4FE
  0
DICTIONARY
  5
4F1
330
34
100
AcDbDictionary
280
     1
281
     1
  3
ACAD_XREC_ROUNDTRIP
360
4F2
  0
DICTIONARY
  5
4F3
330
35
100
AcDbDictionary
280
     1
281
     1
  3
ACAD_XREC_ROUNDTRIP
360
4F4
  0
DICTIONARY
  5
4FB
330
39
100
AcDbDictionary
280
     1
281
     1
  3
ACAD_XREC_ROUNDTRIP
360
4FC
  0
DICTIONARY
  5
4DF
330
2B
100
AcDbDictionary
280
     1
281
     1
  3
ACAD_XREC_ROUNDTRIP
360
4E0
  0
DICTIONARY
  5
4E1
330
2C
100
AcDbDictionary
280
     1
281
     1
  3
ACAD_XREC_ROUNDTRIP
360
4E2
  0
DICTIONARY
  5
4E3
330
2D
100
AcDbDictionary
280
     1
281
     1
  3
ACAD_XREC_ROUNDTRIP
360
4E4
  0
DICTIONARY
  5
4E5
330
2E
100
AcDbDictionary
280
     1
281
     1
  3
ACAD_XREC_ROUNDTRIP
360
4E6
  0
DICTIONARY
  5
4F9
330
38
100
AcDbDictionary
280
     1
281
     1
  3
ACAD_XREC_ROUNDTRIP
360
4FA
  0
DICTIONARY
  5
4EF
330
33
100
AcDbDictionary
280
     1
281
     1
  3
ACAD_XREC_ROUNDTRIP
360
4F0
  0
DICTIONARY
  5
4F7
330
37
100
AcDbDictionary
280
     1
281
     1
  3
ACAD_XREC_ROUNDTRIP
360
4F8
  0
XRECORD
  5
502
102
{ACAD_REACTORS
330
501
102
}
330
501
100
AcDbXrecord
280
     1
102
MATERIAL
148
0.0
149
0.0
149
0.0
 93
        0
 94
      127
282
     0
 72
     1
 77
     1
171
     1
175
     1
179
     1
273
     0
  0
XRECORD
  5
500
102
{ACAD_REACTORS
330
4FF
102
}
330
4FF
100
AcDbXrecord
280
     1
102
MATERIAL
148
0.0
149
0.0
149
0.0
 93
        0
 94
      127
282
     0
 72
     1
 77
     1
171
     1
175
     1
179
     1
273
     0
  0
XRECORD
  5
504
102
{ACAD_REACTORS
330
503
102
}
330
503
100
AcDbXrecord
280
     1
102
MATERIAL
148
0.0
149
0.0
149
0.0
 93
        0
 94
      127
282
     0
 72
     1
 77
     1
171
     1
175
     1
179
     1
273
     0
  0
XRECORD
  5
4E8
102
{ACAD_REACTORS
330
4E7
102
}
330
4E7
100
AcDbXrecord
280
     1
102
RTVSPropertyOp0
 70
     1
102
RTVSPropertyOp1
 70
     1
102
RTVSPropertyOp2
 70
     1
102
RTVSPropertyOp3
 70
     1
102
RTVSPropertyOp4
 70
     1
102
RTVSPropertyOp5
 70
     1
102
RTVSPropertyOp6
 70
     1
102
RTVSPropertyOp7
 70
     1
102
RTVSPropertyOp8
 70
     1
102
RTVSPropertyOp9
 70
     1
102
RTVSPropertyOp10
 70
     1
102
RTVSPropertyOp11
 70
     1
102
RTVSPropertyOp12
 70
     1
102
RTVSPropertyOp13
 70
     1
102
RTVSPropertyOp14
 70
     1
102
RTVSPropertyOp15
 70
     1
102
RTVSPropertyOp16
 70
     1
102
RTVSPropertyOp17
 70
     1
102
RTVSPropertyOp18
 70
     1
102
RTVSPropertyOp19
 70
     1
102
RTVSPropertyOp20
 70
     1
102
RTVSPropertyOp21
 70
     1
102
RTVSPropertyOp22
 70
     1
102
RTVSPropertyOp23
 70
     1
102
RTVSPropertyOp24
 70
     1
102
RTVSPropertyOp25
 70
     1
102
RTVSPropertyOp26
 70
     1
102
RTVSPropertyOp27
 70
     1
102
RTVSPropertyOp28
 70
     1
102
RTVSPropertyOp29
 70
     1
102
RTVSPropertyOp30
 70
     1
102
RTVSPropertyOp31
 70
     1
102
RTVSPropertyOp32
 70
     1
  0
XRECORD
  5
4EC
102
{ACAD_REACTORS
330
4EB
102
}
330
4EB
100
AcDbXrecord
280
     1
102
RTVSPropertyOp0
 70
     1
102
RTVSPropertyOp1
 70
     1
102
RTVSPropertyOp2
 70
     1
102
RTVSPropertyOp3
 70
     1
102
RTVSPropertyOp4
 70
     1
102
RTVSPropertyOp5
 70
     1
102
RTVSPropertyOp6
 70
     1
102
RTVSPropertyOp7
 70
     1
102
RTVSPropertyOp8
 70
     1
102
RTVSPropertyOp9
 70
     1
102
RTVSPropertyOp10
 70
     1
102
RTVSPropertyOp11
 70
     1
102
RTVSPropertyOp12
 70
     1
102
RTVSPropertyOp13
 70
     1
102
RTVSPropertyOp14
 70
     1
102
RTVSPropertyOp15
 70
     1
102
RTVSPropertyOp16
 70
     1
102
RTVSPropertyOp17
 70
     1
102
RTVSPropertyOp18
 70
     1
102
RTVSPropertyOp19
 70
     1
102
RTVSPropertyOp20
 70
     1
102
RTVSPropertyOp21
 70
     1
102
RTVSPropertyOp22
 70
     1
102
RTVSPropertyOp23
 70
     1
102
RTVSPropertyOp24
 70
     1
102
RTVSPropertyOp25
 70
     1
102
RTVSPropertyOp26
 70
     1
102
RTVSPropertyOp27
 70
     1
102
RTVSPropertyOp28
 70
     1
102
RTVSPropertyOp29
 70
     1
102
RTVSPropertyOp30
 70
     1
102
RTVSPropertyOp31
 70
     1
102
RTVSPropertyOp32
 70
     1
  0
XRECORD
  5
4EA
102
{ACAD_REACTORS
330
4E9
102
}
330
4E9
100
AcDbXrecord
280
     1
102
RTVSPropertyOp0
 70
     1
102
RTVSPropertyOp1
 70
     1
102
RTVSPropertyOp2
 70
     1
102
RTVSPropertyOp3
 70
     1
102
RTVSPropertyOp4
 70
     1
102
RTVSPropertyOp5
 70
     1
102
RTVSPropertyOp6
 70
     1
102
RTVSPropertyOp7
 70
     1
102
RTVSPropertyOp8
 70
     1
102
RTVSPropertyOp9
 70
     1
102
RTVSPropertyOp10
 70
     1
102
RTVSPropertyOp11
 70
     1
102
RTVSPropertyOp12
 70
     1
102
RTVSPropertyOp13
 70
     1
102
RTVSPropertyOp14
 70
     1
102
RTVSPropertyOp15
 70
     1
102
RTVSPropertyOp16
 70
     1
102
RTVSPropertyOp17
 70
     1
102
RTVSPropertyOp18
 70
     1
102
RTVSPropertyOp19
 70
     1
102
RTVSPropertyOp20
 70
     1
102
RTVSPropertyOp21
 70
     1
102
RTVSPropertyOp22
 70
     1
102
RTVSPropertyOp23
 70
     1
102
RTVSPropertyOp24
 70
     1
102
RTVSPropertyOp25
 70
     1
102
RTVSPropertyOp26
 70
     1
102
RTVSPropertyOp27
 70
     1
102
RTVSPropertyOp28
 70
     1
102
RTVSPropertyOp29
 70
     1
102
RTVSPropertyOp30
 70
     1
102
RTVSPropertyOp31
 70
     1
102
RTVSPropertyOp32
 70
     1
  0
XRECORD
  5
4EE
102
{ACAD_REACTORS
330
4ED
102
}
330
4ED
100
AcDbXrecord
280
     1
102
RTVSPropertyOp0
 70
     1
102
RTVSPropertyOp1
 70
     1
102
RTVSPropertyOp2
 70
     1
102
RTVSPropertyOp3
 70
     1
102
RTVSPropertyOp4
 70
     1
102
RTVSPropertyOp5
 70
     1
102
RTVSPropertyOp6
 70
     1
102
RTVSPropertyOp7
 70
     1
102
RTVSPropertyOp8
 70
     1
102
RTVSPropertyOp9
 70
     1
102
RTVSPropertyOp10
 70
     1
102
RTVSPropertyOp11
 70
     1
102
RTVSPropertyOp12
 70
     1
102
RTVSPropertyOp13
 70
     1
102
RTVSPropertyOp14
 70
     1
102
RTVSPropertyOp15
 70
     1
102
RTVSPropertyOp16
 70
     1
102
RTVSPropertyOp17
 70
     1
102
RTVSPropertyOp18
 70
     1
102
RTVSPropertyOp19
 70
     1
102
RTVSPropertyOp20
 70
     1
102
RTVSPropertyOp21
 70
     1
102
RTVSPropertyOp22
 70
     1
102
RTVSPropertyOp23
 70
     1
102
RTVSPropertyOp24
 70
     1
102
RTVSPropertyOp25
 70
     1
102
RTVSPropertyOp26
 70
     1
102
RTVSPropertyOp27
 70
     1
102
RTVSPropertyOp28
 70
     1
102
RTVSPropertyOp29
 70
     1
102
RTVSPropertyOp30
 70
     1
102
RTVSPropertyOp31
 70
     1
102
RTVSPropertyOp32
 70
     1
  0
XRECORD
  5
4F6
102
{ACAD_REACTORS
330
4F5
102
}
330
4F5
100
AcDbXrecord
280
     1
102
RTVSPropertyOp0
 70
     1
102
RTVSPropertyOp1
 70
     1
102
RTVSPropertyOp2
 70
     1
102
RTVSPropertyOp3
 70
     1
102
RTVSPropertyOp4
 70
     1
102
RTVSPropertyOp5
 70
     1
102
RTVSPropertyOp6
 70
     1
102
RTVSPropertyOp7
 70
     1
102
RTVSPropertyOp8
 70
     1
102
RTVSPropertyOp9
 70
     1
102
RTVSPropertyOp10
 70
     1
102
RTVSPropertyOp11
 70
     1
102
RTVSPropertyOp12
 70
     1
102
RTVSPropertyOp13
 70
     1
102
RTVSPropertyOp14
 70
     1
102
RTVSPropertyOp15
 70
     1
102
RTVSPropertyOp16
 70
     1
102
RTVSPropertyOp17
 70
     1
102
RTVSPropertyOp18
 70
     1
102
RTVSPropertyOp19
 70
     1
102
RTVSPropertyOp20
 70
     1
102
RTVSPropertyOp21
 70
     1
102
RTVSPropertyOp22
 70
     1
102
RTVSPropertyOp23
 70
     1
102
RTVSPropertyOp24
 70
     1
102
RTVSPropertyOp25
 70
     1
102
RTVSPropertyOp26
 70
     1
102
RTVSPropertyOp27
 70
     1
102
RTVSPropertyOp28
 70
     1
102
RTVSPropertyOp29
 70
     1
102
RTVSPropertyOp30
 70
     1
102
RTVSPropertyOp31
 70
     1
102
RTVSPropertyOp32
 70
     1
  0
XRECORD
  5
4FE
102
{ACAD_REACTORS
330
4FD
102
}
330
4FD
100
AcDbXrecord
280
     1
102
RTVSPropertyOp0
 70
     1
102
RTVSPropertyOp1
 70
     1
102
RTVSPropertyOp2
 70
     1
102
RTVSPropertyOp3
 70
     1
102
RTVSPropertyOp4
 70
     1
102
RTVSPropertyOp5
 70
     1
102
RTVSPropertyOp6
 70
     1
102
RTVSPropertyOp7
 70
     1
102
RTVSPropertyOp8
 70
     1
102
RTVSPropertyOp9
 70
     1
102
RTVSPropertyOp10
 70
     1
102
RTVSPropertyOp11
 70
     1
102
RTVSPropertyOp12
 70
     1
102
RTVSPropertyOp13
 70
     1
102
RTVSPropertyOp14
 70
     1
102
RTVSPropertyOp15
 70
     1
102
RTVSPropertyOp16
 70
     1
102
RTVSPropertyOp17
 70
     1
102
RTVSPropertyOp18
 70
     1
102
RTVSPropertyOp19
 70
     1
102
RTVSPropertyOp20
 70
     1
102
RTVSPropertyOp21
 70
     1
102
RTVSPropertyOp22
 70
     1
102
RTVSPropertyOp23
 70
     1
102
RTVSPropertyOp24
 70
     1
102
RTVSPropertyOp25
 70
     1
102
RTVSPropertyOp26
 70
     1
102
RTVSPropertyOp27
 70
     1
102
RTVSPropertyOp28
 70
     1
102
RTVSPropertyOp29
 70
     1
102
RTVSPropertyOp30
 70
     1
102
RTVSPropertyOp31
 70
     1
102
RTVSPropertyOp32
 70
     1
  0
XRECORD
  5
4F2
102
{ACAD_REACTORS
330
4F1
102
}
330
4F1
100
AcDbXrecord
280
     1
102
RTVSPropertyOp0
 70
     1
102
RTVSPropertyOp1
 70
     1
102
RTVSPropertyOp2
 70
     1
102
RTVSPropertyOp3
 70
     1
102
RTVSPropertyOp4
 70
     1
102
RTVSPropertyOp5
 70
     1
102
RTVSPropertyOp6
 70
     1
102
RTVSPropertyOp7
 70
     1
102
RTVSPropertyOp8
 70
     1
102
RTVSPropertyOp9
 70
     1
102
RTVSPropertyOp10
 70
     1
102
RTVSPropertyOp11
 70
     1
102
RTVSPropertyOp12
 70
     1
102
RTVSPropertyOp13
 70
     1
102
RTVSPropertyOp14
 70
     1
102
RTVSPropertyOp15
 70
     1
102
RTVSPropertyOp16
 70
     1
102
RTVSPropertyOp17
 70
     1
102
RTVSPropertyOp18
 70
     1
102
RTVSPropertyOp19
 70
     1
102
RTVSPropertyOp20
 70
     1
102
RTVSPropertyOp21
 70
     1
102
RTVSPropertyOp22
 70
     1
102
RTVSPropertyOp23
 70
     1
102
RTVSPropertyOp24
 70
     1
102
RTVSPropertyOp25
 70
     1
102
RTVSPropertyOp26
 70
     1
102
RTVSPropertyOp27
 70
     1
102
RTVSPropertyOp28
 70
     1
102
RTVSPropertyOp29
 70
     1
102
RTVSPropertyOp30
 70
     1
102
RTVSPropertyOp31
 70
     1
102
RTVSPropertyOp32
 70
     1
  0
XRECORD
  5
4F4
102
{ACAD_REACTORS
330
4F3
102
}
330
4F3
100
AcDbXrecord
280
     1
102
RTVSPropertyOp0
 70
     1
102
RTVSPropertyOp1
 70
     1
102
RTVSPropertyOp2
 70
     1
102
RTVSPropertyOp3
 70
     1
102
RTVSPropertyOp4
 70
     1
102
RTVSPropertyOp5
 70
     1
102
RTVSPropertyOp6
 70
     1
102
RTVSPropertyOp7
 70
     1
102
RTVSPropertyOp8
 70
     1
102
RTVSPropertyOp9
 70
     1
102
RTVSPropertyOp10
 70
     1
102
RTVSPropertyOp11
 70
     1
102
RTVSPropertyOp12
 70
     1
102
RTVSPropertyOp13
 70
     1
102
RTVSPropertyOp14
 70
     1
102
RTVSPropertyOp15
 70
     1
102
RTVSPropertyOp16
 70
     1
102
RTVSPropertyOp17
 70
     1
102
RTVSPropertyOp18
 70
     1
102
RTVSPropertyOp19
 70
     1
102
RTVSPropertyOp20
 70
     1
102
RTVSPropertyOp21
 70
     1
102
RTVSPropertyOp22
 70
     1
102
RTVSPropertyOp23
 70
     1
102
RTVSPropertyOp24
 70
     1
102
RTVSPropertyOp25
 70
     1
102
RTVSPropertyOp26
 70
     1
102
RTVSPropertyOp27
 70
     1
102
RTVSPropertyOp28
 70
     1
102
RTVSPropertyOp29
 70
     1
102
RTVSPropertyOp30
 70
     1
102
RTVSPropertyOp31
 70
     1
102
RTVSPropertyOp32
 70
     1
  0
XRECORD
  5
4FC
102
{ACAD_REACTORS
330
4FB
102
}
330
4FB
100
AcDbXrecord
280
     1
102
RTVSPropertyOp0
 70
     1
102
RTVSPropertyOp1
 70
     1
102
RTVSPropertyOp2
 70
     1
102
RTVSPropertyOp3
 70
     1
102
RTVSPropertyOp4
 70
     1
102
RTVSPropertyOp5
 70
     1
102
RTVSPropertyOp6
 70
     1
102
RTVSPropertyOp7
 70
     1
102
RTVSPropertyOp8
 70
     1
102
RTVSPropertyOp9
 70
     1
102
RTVSPropertyOp10
 70
     1
102
RTVSPropertyOp11
 70
     1
102
RTVSPropertyOp12
 70
     1
102
RTVSPropertyOp13
 70
     1
102
RTVSPropertyOp14
 70
     1
102
RTVSPropertyOp15
 70
     1
102
RTVSPropertyOp16
 70
     1
102
RTVSPropertyOp17
 70
     1
102
RTVSPropertyOp18
 70
     1
102
RTVSPropertyOp19
 70
     1
102
RTVSPropertyOp20
 70
     1
102
RTVSPropertyOp21
 70
     1
102
RTVSPropertyOp22
 70
     1
102
RTVSPropertyOp23
 70
     1
102
RTVSPropertyOp24
 70
     1
102
RTVSPropertyOp25
 70
     1
102
RTVSPropertyOp26
 70
     1
102
RTVSPropertyOp27
 70
     1
102
RTVSPropertyOp28
 70
     1
102
RTVSPropertyOp29
 70
     1
102
RTVSPropertyOp30
 70
     1
102
RTVSPropertyOp31
 70
     1
102
RTVSPropertyOp32
 70
     1
  0
XRECORD
  5
4E0
102
{ACAD_REACTORS
330
4DF
102
}
330
4DF
100
AcDbXrecord
280
     1
102
RTVSPropertyOp0
 70
     1
102
RTVSPropertyOp1
 70
     1
102
RTVSPropertyOp2
 70
     1
102
RTVSPropertyOp3
 70
     1
102
RTVSPropertyOp4
 70
     1
102
RTVSPropertyOp5
 70
     1
102
RTVSPropertyOp6
 70
     1
102
RTVSPropertyOp7
 70
     1
102
RTVSPropertyOp8
 70
     1
102
RTVSPropertyOp9
 70
     1
102
RTVSPropertyOp10
 70
     1
102
RTVSPropertyOp11
 70
     1
102
RTVSPropertyOp12
 70
     1
102
RTVSPropertyOp13
 70
     1
102
RTVSPropertyOp14
 70
     1
102
RTVSPropertyOp15
 70
     1
102
RTVSPropertyOp16
 70
     1
102
RTVSPropertyOp17
 70
     1
102
RTVSPropertyOp18
 70
     1
102
RTVSPropertyOp19
 70
     1
102
RTVSPropertyOp20
 70
     1
102
RTVSPropertyOp21
 70
     1
102
RTVSPropertyOp22
 70
     1
102
RTVSPropertyOp23
 70
     1
102
RTVSPropertyOp24
 70
     1
102
RTVSPropertyOp25
 70
     1
102
RTVSPropertyOp26
 70
     1
102
RTVSPropertyOp27
 70
     1
102
RTVSPropertyOp28
 70
     1
102
RTVSPropertyOp29
 70
     1
102
RTVSPropertyOp30
 70
     1
102
RTVSPropertyOp31
 70
     1
102
RTVSPropertyOp32
 70
     1
  0
XRECORD
  5
4E2
102
{ACAD_REACTORS
330
4E1
102
}
330
4E1
100
AcDbXrecord
280
     1
102
RTVSPropertyOp0
 70
     1
102
RTVSPropertyOp1
 70
     1
102
RTVSPropertyOp2
 70
     1
102
RTVSPropertyOp3
 70
     1
102
RTVSPropertyOp4
 70
     1
102
RTVSPropertyOp5
 70
     1
102
RTVSPropertyOp6
 70
     1
102
RTVSPropertyOp7
 70
     1
102
RTVSPropertyOp8
 70
     1
102
RTVSPropertyOp9
 70
     1
102
RTVSPropertyOp10
 70
     1
102
RTVSPropertyOp11
 70
     1
102
RTVSPropertyOp12
 70
     1
102
RTVSPropertyOp13
 70
     1
102
RTVSPropertyOp14
 70
     1
102
RTVSPropertyOp15
 70
     1
102
RTVSPropertyOp16
 70
     1
102
RTVSPropertyOp17
 70
     1
102
RTVSPropertyOp18
 70
     1
102
RTVSPropertyOp19
 70
     1
102
RTVSPropertyOp20
 70
     1
102
RTVSPropertyOp21
 70
     1
102
RTVSPropertyOp22
 70
     1
102
RTVSPropertyOp23
 70
     1
102
RTVSPropertyOp24
 70
     1
102
RTVSPropertyOp25
 70
     1
102
RTVSPropertyOp26
 70
     1
102
RTVSPropertyOp27
 70
     1
102
RTVSPropertyOp28
 70
     1
102
RTVSPropertyOp29
 70
     1
102
RTVSPropertyOp30
 70
     1
102
RTVSPropertyOp31
 70
     1
102
RTVSPropertyOp32
 70
     1
  0
XRECORD
  5
4E4
102
{ACAD_REACTORS
330
4E3
102
}
330
4E3
100
AcDbXrecord
280
     1
102
RTVSPropertyOp0
 70
     1
102
RTVSPropertyOp1
 70
     1
102
RTVSPropertyOp2
 70
     1
102
RTVSPropertyOp3
 70
     1
102
RTVSPropertyOp4
 70
     1
102
RTVSPropertyOp5
 70
     1
102
RTVSPropertyOp6
 70
     1
102
RTVSPropertyOp7
 70
     1
102
RTVSPropertyOp8
 70
     1
102
RTVSPropertyOp9
 70
     1
102
RTVSPropertyOp10
 70
     1
102
RTVSPropertyOp11
 70
     1
102
RTVSPropertyOp12
 70
     1
102
RTVSPropertyOp13
 70
     1
102
RTVSPropertyOp14
 70
     1
102
RTVSPropertyOp15
 70
     1
102
RTVSPropertyOp16
 70
     1
102
RTVSPropertyOp17
 70
     1
102
RTVSPropertyOp18
 70
     1
102
RTVSPropertyOp19
 70
     1
102
RTVSPropertyOp20
 70
     1
102
RTVSPropertyOp21
 70
     1
102
RTVSPropertyOp22
 70
     1
102
RTVSPropertyOp23
 70
     1
102
RTVSPropertyOp24
 70
     1
102
RTVSPropertyOp25
 70
     1
102
RTVSPropertyOp26
 70
     1
102
RTVSPropertyOp27
 70
     1
102
RTVSPropertyOp28
 70
     1
102
RTVSPropertyOp29
 70
     1
102
RTVSPropertyOp30
 70
     1
102
RTVSPropertyOp31
 70
     1
102
RTVSPropertyOp32
 70
     1
  0
XRECORD
  5
4E6
102
{ACAD_REACTORS
330
4E5
102
}
330
4E5
100
AcDbXrecord
280
     1
102
RTVSPropertyOp0
 70
     1
102
RTVSPropertyOp1
 70
     1
102
RTVSPropertyOp2
 70
     1
102
RTVSPropertyOp3
 70
     1
102
RTVSPropertyOp4
 70
     1
102
RTVSPropertyOp5
 70
     1
102
RTVSPropertyOp6
 70
     1
102
RTVSPropertyOp7
 70
     1
102
RTVSPropertyOp8
 70
     1
102
RTVSPropertyOp9
 70
     1
102
RTVSPropertyOp10
 70
     1
102
RTVSPropertyOp11
 70
     1
102
RTVSPropertyOp12
 70
     1
102
RTVSPropertyOp13
 70
     1
102
RTVSPropertyOp14
 70
     1
102
RTVSPropertyOp15
 70
     1
102
RTVSPropertyOp16
 70
     1
102
RTVSPropertyOp17
 70
     1
102
RTVSPropertyOp18
 70
     1
102
RTVSPropertyOp19
 70
     1
102
RTVSPropertyOp20
 70
     1
102
RTVSPropertyOp21
 70
     1
102
RTVSPropertyOp22
 70
     1
102
RTVSPropertyOp23
 70
     1
102
RTVSPropertyOp24
 70
     1
102
RTVSPropertyOp25
 70
     1
102
RTVSPropertyOp26
 70
     1
102
RTVSPropertyOp27
 70
     1
102
RTVSPropertyOp28
 70
     1
102
RTVSPropertyOp29
 70
     1
102
RTVSPropertyOp30
 70
     1
102
RTVSPropertyOp31
 70
     1
102
RTVSPropertyOp32
 70
     1
  0
XRECORD
  5
4FA
102
{ACAD_REACTORS
330
4F9
102
}
330
4F9
100
AcDbXrecord
280
     1
102
RTVSPropertyOp0
 70
     1
102
RTVSPropertyOp1
 70
     1
102
RTVSPropertyOp2
 70
     1
102
RTVSPropertyOp3
 70
     1
102
RTVSPropertyOp4
 70
     1
102
RTVSPropertyOp5
 70
     1
102
RTVSPropertyOp6
 70
     1
102
RTVSPropertyOp7
 70
     1
102
RTVSPropertyOp8
 70
     1
102
RTVSPropertyOp9
 70
     1
102
RTVSPropertyOp10
 70
     1
102
RTVSPropertyOp11
 70
     1
102
RTVSPropertyOp12
 70
     1
102
RTVSPropertyOp13
 70
     1
102
RTVSPropertyOp14
 70
     1
102
RTVSPropertyOp15
 70
     1
102
RTVSPropertyOp16
 70
     1
102
RTVSPropertyOp17
 70
     1
102
RTVSPropertyOp18
 70
     1
102
RTVSPropertyOp19
 70
     1
102
RTVSPropertyOp20
 70
     1
102
RTVSPropertyOp21
 70
     1
102
RTVSPropertyOp22
 70
     1
102
RTVSPropertyOp23
 70
     1
102
RTVSPropertyOp24
 70
     1
102
RTVSPropertyOp25
 70
     1
102
RTVSPropertyOp26
 70
     1
102
RTVSPropertyOp27
 70
     1
102
RTVSPropertyOp28
 70
     1
102
RTVSPropertyOp29
 70
     1
102
RTVSPropertyOp30
 70
     1
102
RTVSPropertyOp31
 70
     1
102
RTVSPropertyOp32
 70
     1
  0
XRECORD
  5
4F0
102
{ACAD_REACTORS
330
4EF
102
}
330
4EF
100
AcDbXrecord
280
     1
102
RTVSPropertyOp0
 70
     1
102
RTVSPropertyOp1
 70
     1
102
RTVSPropertyOp2
 70
     1
102
RTVSPropertyOp3
 70
     1
102
RTVSPropertyOp4
 70
     1
102
RTVSPropertyOp5
 70
     1
102
RTVSPropertyOp6
 70
     1
102
RTVSPropertyOp7
 70
     1
102
RTVSPropertyOp8
 70
     1
102
RTVSPropertyOp9
 70
     1
102
RTVSPropertyOp10
 70
     1
102
RTVSPropertyOp11
 70
     1
102
RTVSPropertyOp12
 70
     1
102
RTVSPropertyOp13
 70
     1
102
RTVSPropertyOp14
 70
     1
102
RTVSPropertyOp15
 70
     1
102
RTVSPropertyOp16
 70
     1
102
RTVSPropertyOp17
 70
     1
102
RTVSPropertyOp18
 70
     1
102
RTVSPropertyOp19
 70
     1
102
RTVSPropertyOp20
 70
     1
102
RTVSPropertyOp21
 70
     1
102
RTVSPropertyOp22
 70
     1
102
RTVSPropertyOp23
 70
     1
102
RTVSPropertyOp24
 70
     1
102
RTVSPropertyOp25
 70
     1
102
RTVSPropertyOp26
 70
     1
102
RTVSPropertyOp27
 70
     1
102
RTVSPropertyOp28
 70
     1
102
RTVSPropertyOp29
 70
     1
102
RTVSPropertyOp30
 70
     1
102
RTVSPropertyOp31
 70
     1
102
RTVSPropertyOp32
 70
     1
  0
XRECORD
  5
4F8
102
{ACAD_REACTORS
330
4F7
102
}
330
4F7
100
AcDbXrecord
280
     1
102
RTVSPropertyOp0
 70
     1
102
RTVSPropertyOp1
 70
     1
102
RTVSPropertyOp2
 70
     1
102
RTVSPropertyOp3
 70
     1
102
RTVSPropertyOp4
 70
     1
102
RTVSPropertyOp5
 70
     1
102
RTVSPropertyOp6
 70
     1
102
RTVSPropertyOp7
 70
     1
102
RTVSPropertyOp8
 70
     1
102
RTVSPropertyOp9
 70
     1
102
RTVSPropertyOp10
 70
     1
102
RTVSPropertyOp11
 70
     1
102
RTVSPropertyOp12
 70
     1
102
RTVSPropertyOp13
 70
     1
102
RTVSPropertyOp14
 70
     1
102
RTVSPropertyOp15
 70
     1
102
RTVSPropertyOp16
 70
     1
102
RTVSPropertyOp17
 70
     1
102
RTVSPropertyOp18
 70
     1
102
RTVSPropertyOp19
 70
     1
102
RTVSPropertyOp20
 70
     1
102
RTVSPropertyOp21
 70
     1
102
RTVSPropertyOp22
 70
     1
102
RTVSPropertyOp23
 70
     1
102
RTVSPropertyOp24
 70
     1
102
RTVSPropertyOp25
 70
     1
102
RTVSPropertyOp26
 70
     1
102
RTVSPropertyOp27
 70
     1
102
RTVSPropertyOp28
 70
     1
102
RTVSPropertyOp29
 70
     1
102
RTVSPropertyOp30
 70
     1
102
RTVSPropertyOp31
 70
     1
102
RTVSPropertyOp32
 70
     1
  0
ENDSEC
  0
EOF
