  0
SECTION
  2
HEADER
  9
$ACADVER
  1
AC1018
  9
$ACADMAINTVER
 70
     0
  9
$DWGCODEPAGE
  3
ANSI_932
  9
$INSBASE
 10
0.0
 20
0.0
 30
0.0
  9
$EXTMIN
 10
-105.0
 20
-148.5
 30
0.0
  9
$EXTMAX
 10
105.0
 20
148.5
 30
0.0
  9
$LIMMIN
 10
-105.0
 20
-148.5
  9
$LIMMAX
 10
105.0
 20
148.5
  9
$ORTHOMODE
 70
     0
  9
$REGENMODE
 70
     1
  9
$FILLMODE
 70
     1
  9
$QTEXTMODE
 70
     0
  9
$MIRRTEXT
 70
     1
  9
$LTSCALE
 40
1.0
  9
$ATTMODE
 70
     1
  9
$TEXTSIZE
 40
2.5
  9
$TRACEWID
 40
1.0
  9
$TEXTSTYLE
  7
Standard
  9
$CLAYER
  8
0
  9
$CELTYPE
  6
ByLayer
  9
$CECOLOR
 62
   256
  9
$CELTSCALE
 40
1.0
  9
$DISPSILH
 70
     0
  9
$DIMSCALE
 40
1.0
  9
$DIMASZ
 40
2.5
  9
$DIMEXO
 40
0.625
  9
$DIMDLI
 40
3.75
  9
$DIMRND
 40
0.0
  9
$DIMDLE
 40
0.0
  9
$DIMEXE
 40
1.25
  9
$DIMTP
 40
0.0
  9
$DIMTM
 40
0.0
  9
$DIMTXT
 40
2.5
  9
$DIMCEN
 40
2.5
  9
$DIMTSZ
 40
0.0
  9
$DIMTOL
 70
     0
  9
$DIMLIM
 70
     0
  9
$DIMTIH
 70
     0
  9
$DIMTOH
 70
     0
  9
$DIMSE1
 70
     0
  9
$DIMSE2
 70
     0
  9
$DIMTAD
 70
     1
  9
$DIMZIN
 70
     8
  9
$DIMBLK
  1

  9
$DIMASO
 70
     1
  9
$DIMSHO
 70
     1
  9
$DIMPOST
  1

  9
$DIMAPOST
  1

  9
$DIMALT
 70
     0
  9
$DIMALTD
 70
     3
  9
$DIMALTF
 40
0.03937007874016
  9
$DIMLFAC
 40
1.0
  9
$DIMTOFL
 70
     1
  9
$DIMTVP
 40
0.0
  9
$DIMTIX
 70
     0
  9
$DIMSOXD
 70
     0
  9
$DIMSAH
 70
     0
  9
$DIMBLK1
  1

  9
$DIMBLK2
  1

  9
$DIMSTYLE
  2
ISO-25
  9
$DIMCLRD
 70
     0
  9
$DIMCLRE
 70
     0
  9
$DIMCLRT
 70
     0
  9
$DIMTFAC
 40
1.0
  9
$DIMGAP
 40
0.625
  9
$DIMJUST
 70
     0
  9
$DIMSD1
 70
     0
  9
$DIMSD2
 70
     0
  9
$DIMTOLJ
 70
     0
  9
$DIMTZIN
 70
     8
  9
$DIMALTZ
 70
     0
  9
$DIMALTTZ
 70
     0
  9
$DIMUPT
 70
     0
  9
$DIMDEC
 70
     2
  9
$DIMTDEC
 70
     2
  9
$DIMALTU
 70
     2
  9
$DIMALTTD
 70
     3
  9
$DIMTXSTY
  7
Standard
  9
$DIMAUNIT
 70
     0
  9
$DIMADEC
 70
     0
  9
$DIMALTRND
 40
0.0
  9
$DIMAZIN
 70
     0
  9
$DIMDSEP
 70
    44
  9
$DIMATFIT
 70
     3
  9
$DIMFRAC
 70
     0
  9
$DIMLDRBLK
  1

  9
$DIMLUNIT
 70
     2
  9
$DIMLWD
 70
    -2
  9
$DIMLWE
 70
    -2
  9
$DIMTMOVE
 70
     0
  9
$LUNITS
 70
     2
  9
$LUPREC
 70
     4
  9
$SKETCHINC
 40
1.0
  9
$FILLETRAD
 40
10.0
  9
$AUNITS
 70
     0
  9
$AUPREC
 70
     0
  9
$MENU
  1
.
  9
$ELEVATION
 40
0.0
  9
$PELEVATION
 40
0.0
  9
$THICKNESS
 40
0.0
  9
$LIMCHECK
 70
     0
  9
$CHAMFERA
 40
10.0
  9
$CHAMFERB
 40
10.0
  9
$CHAMFERC
 40
20.0
  9
$CHAMFERD
 40
0.0
  9
$SKPOLY
 70
     0
  9
$TDCREATE
 40
2457290.550547431
  9
$TDUCREATE
 40
2457290.175547431
  9
$TDUPDATE
 40
2457290.55054809
  9
$TDUUPDATE
 40
2457290.17554809
  9
$TDINDWG
 40
0.0000000116
  9
$TDUSRTIMER
 40
0.0000000116
  9
$USRTIMER
 70
     1
  9
$ANGBASE
 50
0.0
  9
$ANGDIR
 70
     0
  9
$PDMODE
 70
     0
  9
$PDSIZE
 40
0.0
  9
$PLINEWID
 40
0.0
  9
$SPLFRAME
 70
     0
  9
$SPLINETYPE
 70
     6
  9
$SPLINESEGS
 70
     8
  9
$HANDSEED
  5
611
  9
$SURFTAB1
 70
     6
  9
$SURFTAB2
 70
     6
  9
$SURFTYPE
 70
     6
  9
$SURFU
 70
     6
  9
$SURFV
 70
     6
  9
$UCSBASE
  2

  9
$UCSNAME
  2

  9
$UCSORG
 10
0.0
 20
0.0
 30
0.0
  9
$UCSXDIR
 10
1.0
 20
0.0
 30
0.0
  9
$UCSYDIR
 10
0.0
 20
1.0
 30
0.0
  9
$UCSORTHOREF
  2

  9
$UCSORTHOVIEW
 70
     0
  9
$UCSORGTOP
 10
0.0
 20
0.0
 30
0.0
  9
$UCSORGBOTTOM
 10
0.0
 20
0.0
 30
0.0
  9
$UCSORGLEFT
 10
0.0
 20
0.0
 30
0.0
  9
$UCSORGRIGHT
 10
0.0
 20
0.0
 30
0.0
  9
$UCSORGFRONT
 10
0.0
 20
0.0
 30
0.0
  9
$UCSORGBACK
 10
0.0
 20
0.0
 30
0.0
  9
$PUCSBASE
  2

  9
$PUCSNAME
  2

  9
$PUCSORG
 10
0.0
 20
0.0
 30
0.0
  9
$PUCSXDIR
 10
1.0
 20
0.0
 30
0.0
  9
$PUCSYDIR
 10
0.0
 20
1.0
 30
0.0
  9
$PUCSORTHOREF
  2

  9
$PUCSORTHOVIEW
 70
     0
  9
$PUCSORGTOP
 10
0.0
 20
0.0
 30
0.0
  9
$PUCSORGBOTTOM
 10
0.0
 20
0.0
 30
0.0
  9
$PUCSORGLEFT
 10
0.0
 20
0.0
 30
0.0
  9
$PUCSORGRIGHT
 10
0.0
 20
0.0
 30
0.0
  9
$PUCSORGFRONT
 10
0.0
 20
0.0
 30
0.0
  9
$PUCSORGBACK
 10
0.0
 20
0.0
 30
0.0
  9
$USERI1
 70
     0
  9
$USERI2
 70
     0
  9
$USERI3
 70
     0
  9
$USERI4
 70
     0
  9
$USERI5
 70
     0
  9
$USERR1
 40
0.0
  9
$USERR2
 40
0.0
  9
$USERR3
 40
0.0
  9
$USERR4
 40
0.0
  9
$USERR5
 40
0.0
  9
$WORLDVIEW
 70
     1
  9
$SHADEDGE
 70
     3
  9
$SHADEDIF
 70
    70
  9
$TILEMODE
 70
     1
  9
$MAXACTVP
 70
    64
  9
$PINSBASE
 10
0.0
 20
0.0
 30
0.0
  9
$PLIMCHECK
 70
     0
  9
$PEXTMIN
 10
1.000000000000000E+20
 20
1.000000000000000E+20
 30
1.000000000000000E+20
  9
$PEXTMAX
 10
-1.000000000000000E+20
 20
-1.000000000000000E+20
 30
-1.000000000000000E+20
  9
$PLIMMIN
 10
-105.0
 20
-148.5
  9
$PLIMMAX
 10
105.0
 20
148.5
  9
$UNITMODE
 70
     0
  9
$VISRETAIN
 70
     1
  9
$PLINEGEN
 70
     0
  9
$PSLTSCALE
 70
     1
  9
$TREEDEPTH
 70
  3020
  9
$CMLSTYLE
  2
Standard
  9
$CMLJUST
 70
     0
  9
$CMLSCALE
 40
20.0
  9
$PROXYGRAPHICS
 70
     1
  9
$MEASUREMENT
 70
     1
  9
$CELWEIGHT
370
    -1
  9
$ENDCAPS
280
     0
  9
$JOINSTYLE
280
     0
  9
$LWDISPLAY
290
     0
  9
$INSUNITS
 70
     4
  9
$HYPERLINKBASE
  1

  9
$STYLESHEET
  1

  9
$XEDIT
290
     1
  9
$CEPSNTYPE
380
     0
  9
$PSTYLEMODE
290
     1
  9
$FINGERPRINTGUID
  2
{16805228-4B01-4917-A0F0-5DB161F64899}
  9
$VERSIONGUID
  2
{FAEB1C32-E019-11D5-929B-00C0DF256EC4}
  9
$EXTNAMES
290
     1
  9
$PSVPSCALE
 40
0.0
  9
$OLESTARTUP
290
     0
  9
$SORTENTS
280
   127
  9
$INDEXCTL
280
     0
  9
$HIDETEXT
280
     1
  9
$XCLIPFRAME
290
     0
  9
$HALOGAP
280
     0
  9
$OBSCOLOR
 70
   257
  9
$OBSLTYPE
280
     0
  9
$INTERSECTIONDISPLAY
280
     0
  9
$INTERSECTIONCOLOR
 70
   257
  9
$DIMASSOC
280
     2
  9
$PROJECTNAME
  1

  0
ENDSEC
  0
SECTION
  2
CLASSES
  0
CLASS
  1
ACDBDICTIONARYWDFLT
  2
AcDbDictionaryWithDefault
  3
ObjectDBX Classes
 90
        0
 91
        4
280
     0
281
     0
  0
CLASS
  1
VISUALSTYLE
  2
AcDbVisualStyle
  3
ObjectDBX Classes
 90
     4095
 91
        4
280
     0
281
     0
  0
CLASS
  1
MATERIAL
  2
AcDbMaterial
  3
ObjectDBX Classes
 90
     1153
 91
        4
280
     0
281
     0
  0
CLASS
  1
SUN
  2
AcDbSun
  3
SCENEOE
 90
     1024
 91
        4
280
     0
281
     0
  0
ENDSEC
  0
SECTION
  2
TABLES
  0
TABLE
  2
VPORT
  5
8
330
0
100
AcDbSymbolTable
 70
     1
  0
VPORT
  5
29
330
8
100
AcDbSymbolTableRecord
100
AcDbViewportTableRecord
  2
*Active
 70
     0
 10
0.0
 20
0.0
 11
1.0
 21
1.0
 12
344.1869158878504
 22
148.5
 13
0.0
 23
0.0
 14
10.0
 24
10.0
 15
10.0
 25
10.0
 16
0.0
 26
0.0
 36
1.0
 17
0.0
 27
0.0
 37
0.0
 40
297.0
 41
1.972972972850329
 42
50.0
 43
0.0
 44
0.0
 50
0.0
 51
0.0
 71
     0
 72
   100
 73
     1
 74
     3
 75
     0
 76
     0
 77
     0
 78
     0
281
     0
 65
     1
110
0.0
120
0.0
130
0.0
111
1.0
121
0.0
131
0.0
112
0.0
122
1.0
132
0.0
 79
     0
146
0.0
  0
ENDTAB
  0
TABLE
  2
LTYPE
  5
5
330
0
100
AcDbSymbolTable
 70
     5
  0
LTYPE
  5
14
330
5
100
AcDbSymbolTableRecord
100
AcDbLinetypeTableRecord
  2
ByBlock
 70
     0
  3

 72
    65
 73
     0
 40
0.0
  0
LTYPE
  5
15
330
5
100
AcDbSymbolTableRecord
100
AcDbLinetypeTableRecord
  2
ByLayer
 70
     0
  3

 72
    65
 73
     0
 40
0.0
  0
LTYPE
  5
16
330
5
100
AcDbSymbolTableRecord
100
AcDbLinetypeTableRecord
  2
Continuous
 70
     0
  3
Solid line
 72
    65
 73
     0
 40
0.0
  0
LTYPE
  5
40
330
5
100
AcDbSymbolTableRecord
100
AcDbLinetypeTableRecord
  2
CONTINOUS
 70
     0
  3
______________________________
 72
    65
 73
     0
 40
0.0
  0
LTYPE
  5
41
330
5
100
AcDbSymbolTableRecord
100
AcDbLinetypeTableRecord
  2
DASHED
 70
     0
  3
__ __ __ __ __ __ __ __ __ __ __ __ __ __ __ __
 72
    65
 73
     2
 40
4.5
 49
3.0
 74
     0
 49
-1.5
 74
     0
  0
LTYPE
  5
42
330
5
100
AcDbSymbolTableRecord
100
AcDbLinetypeTableRecord
  2
PHANTOM
 70
     0
  3
______  __  __  ______  __  __  _____
 72
    65
 73
     6
 40
15.0
 49
7.5
 74
     0
 49
-1.5
 74
     0
 49
1.5
 74
     0
 49
-1.5
 74
     0
 49
1.5
 74
     0
 49
-1.5
 74
     0
  0
LTYPE
  5
43
330
5
100
AcDbSymbolTableRecord
100
AcDbLinetypeTableRecord
  2
CENTER
 70
     0
  3
____ _ ____ _ ____ _ ____ _ ____ _ ____
 72
    65
 73
     4
 40
12.0
 49
7.5
 74
     0
 49
-1.5
 74
     0
 49
1.5
 74
     0
 49
-1.5
 74
     0
  0
ENDTAB
  0
TABLE
  2
LAYER
  5
2
330
0
100
AcDbSymbolTable
 70
     4
  0
LAYER
  5
10
330
2
100
AcDbSymbolTableRecord
100
AcDbLayerTableRecord
  2
0
 70
     0
 62
     7
  6
Continuous
370
    -3
390
F
  0
LAYER
  5
BE
330
2
100
AcDbSymbolTableRecord
100
AcDbLayerTableRecord
  2
Defpoints
 70
     0
 62
     7
  6
Continuous
290
     0
370
    -3
390
F
  0
LAYER
  5
267
330
2
100
AcDbSymbolTableRecord
100
AcDbLayerTableRecord
  2
VIEW0001
 70
     0
 62
     7
  6
Continuous
370
    -3
390
F
  0
LAYER
  5
27F
330
2
100
AcDbSymbolTableRecord
100
AcDbLayerTableRecord
  2
VIEW0002
 70
     0
 62
     7
  6
Continuous
370
    -3
390
F
  0
ENDTAB
  0
TABLE
  2
STYLE
  5
3
330
0
100
AcDbSymbolTable
 70
     1
  0
STYLE
  5
11
330
3
100
AcDbSymbolTableRecord
100
AcDbTextStyleTableRecord
  2
Standard
 70
     0
 40
0.0
 41
1.0
 50
0.0
 71
     0
 42
2.5
  3
ROMANS
  4
BIGFONT
  0
ENDTAB
  0
TABLE
  2
VIEW
  5
6
330
0
100
AcDbSymbolTable
 70
     0
  0
ENDTAB
  0
TABLE
  2
UCS
  5
7
330
0
100
AcDbSymbolTable
 70
     0
  0
ENDTAB
  0
TABLE
  2
APPID
  5
9
330
0
100
AcDbSymbolTable
 70
     1
  0
APPID
  5
12
330
9
100
AcDbSymbolTableRecord
100
AcDbRegAppTableRecord
  2
ACAD
 70
     0
  0
ENDTAB
  0
TABLE
  2
DIMSTYLE
  5
A
330
0
100
AcDbSymbolTable
 70
     1
100
AcDbDimStyleTable
  0
DIMSTYLE
105
27
102
{ACAD_REACTORS
330
B7
330
CB
330
D7
330
E4
330
F0
330
163
330
170
330
17C
330
189
330
195
330
1E6
330
1F2
330
1FF
330
215
330
227
330
233
330
458
330
464
330
47C
330
489
330
496
330
4A3
330
4B0
330
4C6
330
4DC
330
4E8
330
4FC
330
507
330
514
330
52A
330
536
330
54A
330
557
330
56F
330
57B
330
5B5
330
5C2
330
5CE
330
5DB
102
}
330
A
100
AcDbSymbolTableRecord
100
AcDbDimStyleTableRecord
  2
ISO-25
 70
     0
 41
2.5
 42
0.625
 43
3.75
 44
1.25
 73
     0
 74
     0
 77
     1
 78
     8
140
2.5
141
2.5
143
0.03937007874016
147
0.625
171
     3
172
     1
178
     0
271
     2
272
     2
274
     3
278
    44
283
     0
284
     8
340
11
  0
ENDTAB
  0
TABLE
  2
BLOCK_RECORD
  5
1
330
0
100
AcDbSymbolTable
 70
    52
  0
BLOCK_RECORD
  5
1F
330
1
100
AcDbSymbolTableRecord
100
AcDbBlockTableRecord
  2
*Model_Space
340
22
  0
BLOCK_RECORD
  5
1B
330
1
100
AcDbSymbolTableRecord
100
AcDbBlockTableRecord
  2
*Paper_Space
340
1E
  0
BLOCK_RECORD
  5
23
330
1
100
AcDbSymbolTableRecord
100
AcDbBlockTableRecord
  2
*Paper_Space0
340
26
  0
BLOCK_RECORD
  5
44
330
1
100
AcDbSymbolTableRecord
100
AcDbBlockTableRecord
  2
DTL0001
340
0
  0
BLOCK_RECORD
  5
47
330
1
100
AcDbSymbolTableRecord
100
AcDbBlockTableRecord
  2
DTL0002
340
0
  0
BLOCK_RECORD
  5
4A
330
1
100
AcDbSymbolTableRecord
100
AcDbBlockTableRecord
  2
DTL0003
340
0
  0
BLOCK_RECORD
  5
4D
330
1
100
AcDbSymbolTableRecord
100
AcDbBlockTableRecord
  2
DTL0004
340
0
  0
BLOCK_RECORD
  5
50
330
1
100
AcDbSymbolTableRecord
100
AcDbBlockTableRecord
  2
DTL0005
340
0
  0
BLOCK_RECORD
  5
53
330
1
100
AcDbSymbolTableRecord
100
AcDbBlockTableRecord
  2
DTL0006
340
0
  0
BLOCK_RECORD
  5
56
330
1
100
AcDbSymbolTableRecord
100
AcDbBlockTableRecord
  2
DTL0007
340
0
  0
BLOCK_RECORD
  5
B8
330
1
100
AcDbSymbolTableRecord
100
AcDbBlockTableRecord
  2
_OPEN30
340
0
102
{BLKREFS
331
C6
331
C5
331
D2
331
D1
331
DF
331
DE
331
EB
331
EA
331
F6
331
F5
331
16B
331
16A
331
177
331
176
331
184
331
183
331
190
331
18F
331
19B
331
19A
331
1ED
331
1EC
331
1FA
331
1F9
331
0
331
0
331
0
331
0
331
22E
331
22D
331
23B
331
23A
331
45F
331
45E
331
0
331
0
331
484
331
483
331
491
331
490
331
49E
331
49D
331
4AB
331
4AA
331
0
331
0
331
0
331
0
331
4E3
331
4E2
331
0
331
0
331
502
331
501
331
50F
331
50E
331
0
331
0
331
531
331
530
331
0
331
0
331
552
331
551
331
0
331
0
331
576
331
575
331
0
331
0
331
5BD
331
5BC
331
5C9
331
5C8
331
5D6
331
5D5
331
5E2
331
5E1
102
}
  0
BLOCK_RECORD
  5
BF
330
1
100
AcDbSymbolTableRecord
100
AcDbBlockTableRecord
  2
*D9
340
0
  0
BLOCK_RECORD
  5
CC
330
1
100
AcDbSymbolTableRecord
100
AcDbBlockTableRecord
  2
*D10
340
0
  0
BLOCK_RECORD
  5
D8
330
1
100
AcDbSymbolTableRecord
100
AcDbBlockTableRecord
  2
*D11
340
0
  0
BLOCK_RECORD
  5
E5
330
1
100
AcDbSymbolTableRecord
100
AcDbBlockTableRecord
  2
*D12
340
0
  0
BLOCK_RECORD
  5
F1
330
1
100
AcDbSymbolTableRecord
100
AcDbBlockTableRecord
  2
*D13
340
0
  0
BLOCK_RECORD
  5
164
330
1
100
AcDbSymbolTableRecord
100
AcDbBlockTableRecord
  2
*D14
340
0
  0
BLOCK_RECORD
  5
171
330
1
100
AcDbSymbolTableRecord
100
AcDbBlockTableRecord
  2
*D15
340
0
  0
BLOCK_RECORD
  5
17D
330
1
100
AcDbSymbolTableRecord
100
AcDbBlockTableRecord
  2
*D16
340
0
  0
BLOCK_RECORD
  5
18A
330
1
100
AcDbSymbolTableRecord
100
AcDbBlockTableRecord
  2
*D17
340
0
  0
BLOCK_RECORD
  5
196
330
1
100
AcDbSymbolTableRecord
100
AcDbBlockTableRecord
  2
*D18
340
0
  0
BLOCK_RECORD
  5
1E7
330
1
100
AcDbSymbolTableRecord
100
AcDbBlockTableRecord
  2
*D19
340
0
  0
BLOCK_RECORD
  5
1F3
330
1
100
AcDbSymbolTableRecord
100
AcDbBlockTableRecord
  2
*D20
340
0
  0
BLOCK_RECORD
  5
200
330
1
100
AcDbSymbolTableRecord
100
AcDbBlockTableRecord
  2
*D21
340
0
  0
BLOCK_RECORD
  5
216
330
1
100
AcDbSymbolTableRecord
100
AcDbBlockTableRecord
  2
*D22
340
0
  0
BLOCK_RECORD
  5
228
330
1
100
AcDbSymbolTableRecord
100
AcDbBlockTableRecord
  2
*D23
340
0
  0
BLOCK_RECORD
  5
234
330
1
100
AcDbSymbolTableRecord
100
AcDbBlockTableRecord
  2
*D24
340
0
  0
BLOCK_RECORD
  5
459
330
1
100
AcDbSymbolTableRecord
100
AcDbBlockTableRecord
  2
*D25
340
0
  0
BLOCK_RECORD
  5
465
330
1
100
AcDbSymbolTableRecord
100
AcDbBlockTableRecord
  2
*D26
340
0
  0
BLOCK_RECORD
  5
47D
330
1
100
AcDbSymbolTableRecord
100
AcDbBlockTableRecord
  2
*D27
340
0
  0
BLOCK_RECORD
  5
48A
330
1
100
AcDbSymbolTableRecord
100
AcDbBlockTableRecord
  2
*D28
340
0
  0
BLOCK_RECORD
  5
497
330
1
100
AcDbSymbolTableRecord
100
AcDbBlockTableRecord
  2
*D29
340
0
  0
BLOCK_RECORD
  5
4A4
330
1
100
AcDbSymbolTableRecord
100
AcDbBlockTableRecord
  2
*D30
340
0
  0
BLOCK_RECORD
  5
4B1
330
1
100
AcDbSymbolTableRecord
100
AcDbBlockTableRecord
  2
*D31
340
0
  0
BLOCK_RECORD
  5
4C7
330
1
100
AcDbSymbolTableRecord
100
AcDbBlockTableRecord
  2
*D32
340
0
  0
BLOCK_RECORD
  5
4DD
330
1
100
AcDbSymbolTableRecord
100
AcDbBlockTableRecord
  2
*D33
340
0
  0
BLOCK_RECORD
  5
4E9
330
1
100
AcDbSymbolTableRecord
100
AcDbBlockTableRecord
  2
*D34
340
0
  0
BLOCK_RECORD
  5
4FD
330
1
100
AcDbSymbolTableRecord
100
AcDbBlockTableRecord
  2
*D35
340
0
  0
BLOCK_RECORD
  5
508
330
1
100
AcDbSymbolTableRecord
100
AcDbBlockTableRecord
  2
*D36
340
0
  0
BLOCK_RECORD
  5
515
330
1
100
AcDbSymbolTableRecord
100
AcDbBlockTableRecord
  2
*D37
340
0
  0
BLOCK_RECORD
  5
52B
330
1
100
AcDbSymbolTableRecord
100
AcDbBlockTableRecord
  2
*D38
340
0
  0
BLOCK_RECORD
  5
537
330
1
100
AcDbSymbolTableRecord
100
AcDbBlockTableRecord
  2
*D39
340
0
  0
BLOCK_RECORD
  5
54B
330
1
100
AcDbSymbolTableRecord
100
AcDbBlockTableRecord
  2
*D40
340
0
  0
BLOCK_RECORD
  5
558
330
1
100
AcDbSymbolTableRecord
100
AcDbBlockTableRecord
  2
*D41
340
0
  0
BLOCK_RECORD
  5
570
330
1
100
AcDbSymbolTableRecord
100
AcDbBlockTableRecord
  2
*D42
340
0
  0
BLOCK_RECORD
  5
57C
330
1
100
AcDbSymbolTableRecord
100
AcDbBlockTableRecord
  2
*D43
340
0
  0
BLOCK_RECORD
  5
591
330
1
100
AcDbSymbolTableRecord
100
AcDbBlockTableRecord
  2
SYM0001
340
0
102
{BLKREFS
331
597
102
}
  0
BLOCK_RECORD
  5
59A
330
1
100
AcDbSymbolTableRecord
100
AcDbBlockTableRecord
  2
SYM0002
340
0
102
{BLKREFS
331
5A0
102
}
  0
BLOCK_RECORD
  5
5A3
330
1
100
AcDbSymbolTableRecord
100
AcDbBlockTableRecord
  2
SYM0003
340
0
102
{BLKREFS
331
5A9
102
}
  0
BLOCK_RECORD
  5
5AC
330
1
100
AcDbSymbolTableRecord
100
AcDbBlockTableRecord
  2
SYM0004
340
0
102
{BLKREFS
331
5B2
102
}
  0
BLOCK_RECORD
  5
5B6
330
1
100
AcDbSymbolTableRecord
100
AcDbBlockTableRecord
  2
*D48
340
0
  0
BLOCK_RECORD
  5
5C3
330
1
100
AcDbSymbolTableRecord
100
AcDbBlockTableRecord
  2
*D49
340
0
  0
BLOCK_RECORD
  5
5CF
330
1
100
AcDbSymbolTableRecord
100
AcDbBlockTableRecord
  2
*D50
340
0
  0
BLOCK_RECORD
  5
5DC
330
1
100
AcDbSymbolTableRecord
100
AcDbBlockTableRecord
  2
*D51
340
0
  0
ENDTAB
  0
ENDSEC
  0
SECTION
  2
BLOCKS
  0
BLOCK
  5
20
330
1F
100
AcDbEntity
  8
0
100
AcDbBlockBegin
  2
*Model_Space
 70
     0
 10
0.0
 20
0.0
 30
0.0
  3
*Model_Space
  1

  0
ENDBLK
  5
21
330
1F
100
AcDbEntity
  8
0
100
AcDbBlockEnd
  0
BLOCK
  5
1C
330
1B
100
AcDbEntity
 67
     1
  8
0
100
AcDbBlockBegin
  2
*Paper_Space
 70
     0
 10
0.0
 20
0.0
 30
0.0
  3
*Paper_Space
  1

  0
ENDBLK
  5
1D
330
1B
100
AcDbEntity
 67
     1
  8
0
100
AcDbBlockEnd
  0
BLOCK
  5
24
330
23
100
AcDbEntity
  8
0
100
AcDbBlockBegin
  2
*Paper_Space0
 70
     0
 10
0.0
 20
0.0
 30
0.0
  3
*Paper_Space0
  1

  0
ENDBLK
  5
25
330
23
100
AcDbEntity
  8
0
100
AcDbBlockEnd
  0
BLOCK
  5
45
330
44
100
AcDbEntity
  8
0
100
AcDbBlockBegin
  2
DTL0001
 70
     0
 10
0.0
 20
0.0
 30
0.0
  3
DTL0001
  1

  0
POINT
  5
59
330
44
100
AcDbEntity
  8
0
 62
     0
100
AcDbPoint
 10
0.0
 20
0.0
 30
0.0
  0
POINT
  5
5A
330
44
100
AcDbEntity
  8
0
 62
     0
100
AcDbPoint
 10
0.0
 20
0.0
 30
0.0
  0
POINT
  5
5B
330
44
100
AcDbEntity
  8
0
 62
     0
100
AcDbPoint
 10
-10.0
 20
1.199996948242188
 30
0.0
  0
POINT
  5
5C
330
44
100
AcDbEntity
  8
0
 62
     0
100
AcDbPoint
 10
88.0
 20
-16.51216125488281
 30
0.0
  0
POINT
  5
5D
330
44
100
AcDbEntity
  8
0
 62
     0
100
AcDbPoint
 10
88.0
 20
44.06312561035156
 30
0.0
  0
POINT
  5
5E
330
44
100
AcDbEntity
  8
0
 62
     0
100
AcDbPoint
 10
9.999910354614258
 20
1.199996948242188
 30
0.0
  0
POINT
  5
5F
330
44
100
AcDbEntity
  8
0
 62
     0
100
AcDbPoint
 10
30.0
 20
0.0
 30
0.0
  0
POINT
  5
60
330
44
100
AcDbEntity
  8
0
 62
     0
100
AcDbPoint
 10
-5.0
 20
2.399993896484375
 30
0.0
  0
POINT
  5
61
330
44
100
AcDbEntity
  8
0
 62
     0
100
AcDbPoint
 10
-5.0
 20
2.199993848800659
 30
0.0
  0
POINT
  5
62
330
44
100
AcDbEntity
  8
0
 62
     0
100
AcDbPoint
 10
25.44891929626465
 20
31.49088668823242
 30
0.0
  0
POINT
  5
63
330
44
100
AcDbEntity
  8
0
 62
     0
100
AcDbPoint
 10
26.64098358154297
 20
29.78828430175781
 30
0.0
  0
POINT
  5
64
330
44
100
AcDbEntity
  8
0
 62
     0
100
AcDbPoint
 10
27.43584632873535
 20
28.65325927734375
 30
0.0
  0
POINT
  5
65
330
44
100
AcDbEntity
  8
0
 62
     0
100
AcDbPoint
 10
28.13991165161133
 20
25.90414428710938
 30
0.0
  0
POINT
  5
66
330
44
100
AcDbEntity
  8
0
 62
     0
100
AcDbPoint
 10
82.92625427246094
 20
41.9499626159668
 30
0.0
  0
POINT
  5
67
330
44
100
AcDbEntity
  8
0
 62
     0
100
AcDbPoint
 10
24.65405464172363
 20
32.62591171264648
 30
0.0
  0
POINT
  5
68
330
44
100
AcDbEntity
  8
0
 62
     0
100
AcDbPoint
 10
67.99993133544922
 20
36.41818237304688
 30
0.0
  0
POINT
  5
69
330
44
100
AcDbEntity
  8
0
 62
     0
100
AcDbPoint
 10
14.22713279724121
 20
10.26530361175537
 30
0.0
  0
POINT
  5
6A
330
44
100
AcDbEntity
  8
0
 62
     0
100
AcDbPoint
 10
9.999910354614258
 20
1.199996948242188
 30
0.0
  0
POINT
  5
6B
330
44
100
AcDbEntity
  8
0
 62
     0
100
AcDbPoint
 10
10.76447582244873
 20
-0.000002980232239
 30
0.0
  0
POINT
  5
6C
330
44
100
AcDbEntity
  8
0
 62
     0
100
AcDbPoint
 10
24.65405464172363
 20
32.62590789794922
 30
0.0
  0
POINT
  5
6D
330
44
100
AcDbEntity
  8
0
 62
     0
100
AcDbPoint
 10
28.13991165161133
 20
25.90414428710938
 30
0.0
  0
POINT
  5
6E
330
44
100
AcDbEntity
  8
0
 62
     0
100
AcDbPoint
 10
27.43584632873535
 20
28.65325927734375
 30
0.0
  0
POINT
  5
6F
330
44
100
AcDbEntity
  8
0
 62
     0
100
AcDbPoint
 10
26.64098358154297
 20
29.78828430175781
 30
0.0
  0
POINT
  5
70
330
44
100
AcDbEntity
  8
0
 62
     0
100
AcDbPoint
 10
25.44891929626465
 20
31.49088668823242
 30
0.0
  0
LINE
  5
71
330
44
100
AcDbEntity
  8
0
  6
Continuous
 62
     0
100
AcDbLine
 10
-10.0
 20
1.199996948242188
 30
0.0
 11
9.36284065246582
 21
1.199996948242188
 31
0.0
  0
LINE
  5
72
330
44
100
AcDbEntity
  8
0
  6
Continuous
 62
     0
100
AcDbLine
 10
-10.0
 20
1.199996948242188
 30
0.0
 11
-10.0
 21
-1.800003051757812
 31
0.0
  0
LINE
  5
73
330
44
100
AcDbEntity
  8
0
  6
Continuous
 62
     0
100
AcDbLine
 10
83.799990630639
 20
0.219922212722857
 30
0.0
 11
86.7999990288715
 21
-1.512133474655151
 31
0.0
  0
LINE
  5
74
330
44
100
AcDbEntity
  8
0
  6
Continuous
 62
     0
100
AcDbLine
 10
88.0
 20
40.48783874511719
 30
0.0
 11
88.0
 21
-16.51216125488281
 31
0.0
  0
LINE
  5
75
330
44
100
AcDbEntity
  8
0
  6
Continuous
 62
     0
100
AcDbLine
 10
10.26914779743878
 20
1.777378812296899
 30
0.0
 11
19.77407907551854
 21
22.16076864481917
 31
0.0
  0
LINE
  5
76
330
44
100
AcDbEntity
  8
0
  6
Continuous
 62
     0
100
AcDbLine
 10
36.15711985083157
 20
33.63229757213051
 30
0.0
 11
68.00002750630473
 21
36.41819099755396
 31
0.0
  0
LINE
  5
77
330
44
100
AcDbEntity
  8
0
  6
DASHED
 62
     0
100
AcDbLine
 10
64.69979708516662
 20
33.11805081915304
 30
0.0
 11
67.99998838381114
 21
36.41824211779756
 31
0.0
  0
LINE
  5
78
330
44
100
AcDbEntity
  8
0
  6
Continuous
 62
     0
100
AcDbLine
 10
76.10501946936915
 20
41.96571900031419
 30
0.0
 11
84.47901097322128
 21
43.44227968133016
 31
0.0
  0
LINE
  5
79
330
44
100
AcDbEntity
  8
0
  6
Continuous
 62
     0
100
AcDbLine
 10
86.7999267578125
 20
40.48783874511719
 30
0.0
 11
86.7999267578125
 21
-16.51216125488281
 31
0.0
  0
LINE
  5
7A
330
44
100
AcDbEntity
  8
0
  6
Continuous
 62
     0
100
AcDbLine
 10
71.14817589318936
 20
29.6669346905641
 30
0.0
 11
76.38906974491098
 21
34.90782854228573
 31
0.0
  0
LINE
  5
7B
330
44
100
AcDbEntity
  8
0
  6
Continuous
 62
     0
100
AcDbLine
 10
36.19205642523227
 20
26.60861526367648
 30
0.0
 11
71.1481523161162
 21
29.66687736632547
 31
0.0
  0
LINE
  5
7C
330
44
100
AcDbEntity
  8
0
  6
Continuous
 62
     0
100
AcDbLine
 10
15.43777536185363
 20
-1.335675331407931
 30
0.0
 11
24.72392956807983
 21
18.57854558115666
 31
0.0
  0
LINE
  5
7D
330
44
100
AcDbEntity
  8
0
  6
Continuous
 62
     0
100
AcDbLine
 10
-7.0
 20
-4.800003051757812
 30
0.0
 11
10.0
 21
-4.800003051757812
 31
0.0
  0
LINE
  5
7E
330
44
100
AcDbEntity
  8
0
  6
Continuous
 62
     0
100
AcDbLine
 10
76.38912480573158
 20
34.90782814853252
 30
0.0
 11
80.19587801370456
 21
35.57906146739111
 31
0.0
  0
LINE
  5
7F
330
44
100
AcDbEntity
  8
0
  6
Continuous
 62
     0
100
AcDbLine
 10
80.1477707713705
 20
35.4668388018426
 30
0.0
 11
82.29224941848878
 21
40.47062252810856
 31
0.0
  0
LINE
  5
80
330
44
100
AcDbEntity
  8
0
  6
DASHED
 62
     0
100
AcDbLine
 10
36.26180015048621
 20
32.43689048708294
 30
0.0
 11
68.53971834706574
 21
35.26084240325637
 31
0.0
  0
LINE
  5
81
330
44
100
AcDbEntity
  8
0
  6
DASHED
 62
     0
100
AcDbLine
 10
65.23949253797045
 20
31.96067273376
 30
0.0
 11
71.61903374125731
 21
38.34021393704685
 31
0.0
  0
LINE
  5
82
330
44
100
AcDbEntity
  8
0
  6
DASHED
 62
     0
100
AcDbLine
 10
76.31339940813753
 20
40.78393767615016
 30
0.0
 11
84.68739091198965
 21
42.26049835716614
 31
0.0
  0
LINE
  5
83
330
44
100
AcDbEntity
  8
0
  6
DASHED
 62
     0
100
AcDbLine
 10
11.35679802107566
 20
1.270237038415292
 30
0.0
 11
20.86174219644179
 21
21.653654529256
 31
0.0
  0
LINE
  5
84
330
44
100
AcDbEntity
  8
0
  6
DASHED
 62
     0
100
AcDbLine
 10
36.52326737797164
 20
29.44830639274142
 30
0.0
 11
65.23947335371912
 21
31.96064886776004
 31
0.0
  0
LINE
  5
85
330
44
100
AcDbEntity
  8
0
  6
DASHED
 62
     0
100
AcDbLine
 10
15.12672826175295
 20
9.354799228235327
 30
0.0
 11
18.57765760050716
 21
9.656716423123898
 31
0.0
  0
LINE
  5
86
330
44
100
AcDbEntity
  8
0
  6
DASHED
 62
     0
100
AcDbLine
 10
18.57761313314582
 20
9.65671750405113
 30
0.0
 11
23.58066639632787
 21
20.38579928620945
 31
0.0
  0
LINE
  5
87
330
44
100
AcDbEntity
  8
0
  6
DASHED
 62
     0
100
AcDbLine
 10
36.418587078317
 20
30.643713477789
 30
0.0
 11
64.69978251295811
 21
33.11799746205763
 31
0.0
  0
LINE
  5
88
330
44
100
AcDbEntity
  8
0
  6
DASHED
 62
     0
100
AcDbLine
 10
14.33196659967487
 20
10.4898626514869
 30
0.0
 11
17.78289593842908
 21
10.79177984637547
 31
0.0
  0
LINE
  5
89
330
44
100
AcDbEntity
  8
0
  6
DASHED
 62
     0
100
AcDbLine
 10
17.78277161428719
 20
10.79178953868223
 30
0.0
 11
22.49300408148502
 21
20.89291513041752
 31
0.0
  0
LINE
  5
8A
330
44
100
AcDbEntity
  8
0
  6
Continuous
 62
     0
100
AcDbLine
 10
67.99998838381114
 20
36.41824211779756
 30
0.0
 11
70.77049697215888
 21
39.18875070614529
 31
0.0
  0
LINE
  5
8B
330
44
100
AcDbEntity
  8
0
  6
Continuous
 62
     0
100
AcDbLine
 10
83.7999267578125
 20
37.86598205566406
 30
0.0
 11
83.7999267578125
 21
0.219924926757812
 31
0.0
  0
LINE
  5
8C
330
44
100
AcDbEntity
  8
0
  6
DASHED
 62
     0
100
AcDbLine
 10
78.77895457571285
 20
38.17240174886894
 30
0.0
 11
82.62634072072538
 21
38.85079975104004
 31
0.0
  0
LINE
  5
8D
330
44
100
AcDbEntity
  8
0
  6
DASHED
 62
     0
100
AcDbLine
 10
76.55232972847577
 20
40.82608329439965
 30
0.0
 11
78.77901762981793
 21
38.17242011236987
 31
0.0
  0
LINE
  5
8E
330
44
100
AcDbEntity
  8
0
  6
Continuous
 62
     0
100
AcDbLine
 10
86.7999267578125
 20
-16.51216125488281
 30
0.0
 11
88.0
 21
-16.51216125488281
 31
0.0
  0
LINE
  5
8F
330
44
100
AcDbEntity
  8
0
  6
CENTER
 62
     0
100
AcDbLine
 10
0.0
 20
16.49760055541992
 30
0.0
 11
0.0
 21
-29.08761978149414
 31
0.0
  0
LINE
  5
90
330
44
100
AcDbEntity
  8
0
  6
Continuous
 62
     0
100
AcDbLine
 10
-5.0
 20
1.199993848800659
 30
0.0
 11
-5.0
 21
2.199993848800659
 31
0.0
  0
LINE
  5
91
330
44
100
AcDbEntity
  8
0
  6
Continuous
 62
     0
100
AcDbLine
 10
-4.5999755859375
 20
2.199993848800659
 30
0.0
 11
-4.5999755859375
 21
3.499996900558472
 31
0.0
  0
LINE
  5
92
330
44
100
AcDbEntity
  8
0
  6
Continuous
 62
     0
100
AcDbLine
 10
5.0
 20
2.199993848800659
 30
0.0
 11
-5.0
 21
2.199993848800659
 31
0.0
  0
LINE
  5
93
330
44
100
AcDbEntity
  8
0
  6
Continuous
 62
     0
100
AcDbLine
 10
4.60003662109375
 20
3.499996900558472
 30
0.0
 11
-4.5999755859375
 21
3.499996900558472
 31
0.0
  0
LINE
  5
94
330
44
100
AcDbEntity
  8
0
  6
Continuous
 62
     0
100
AcDbLine
 10
-11.0
 20
11.33836078643799
 30
0.0
 11
-11.0
 21
13.49999713897705
 31
0.0
  0
LINE
  5
95
330
44
100
AcDbEntity
  8
0
  6
Continuous
 62
     0
100
AcDbLine
 10
-9.0
 20
13.49999713897705
 30
0.0
 11
-11.0
 21
13.49999713897705
 31
0.0
  0
LINE
  5
96
330
44
100
AcDbEntity
  8
0
  6
Continuous
 62
     0
100
AcDbLine
 10
-5.0
 20
6.499997138977051
 30
0.0
 11
-5.0
 21
9.49999713897705
 31
0.0
  0
LINE
  5
97
330
44
100
AcDbEntity
  8
0
  6
Continuous
 62
     0
100
AcDbLine
 10
5.0
 20
6.499997138977051
 30
0.0
 11
-5.0
 21
6.499997138977051
 31
0.0
  0
LINE
  5
98
330
44
100
AcDbEntity
  8
0
  6
Continuous
 62
     0
100
AcDbLine
 10
-2.5
 20
6.499997138977051
 30
0.0
 11
-2.5
 21
13.99999713897705
 31
0.0
  0
LINE
  5
99
330
44
100
AcDbEntity
  8
0
  6
Continuous
 62
     0
100
AcDbLine
 10
-2.0
 20
6.499997138977051
 30
0.0
 11
-2.0
 21
13.99999713897705
 31
0.0
  0
LINE
  5
9A
330
44
100
AcDbEntity
  8
0
  6
Continuous
 62
     0
100
AcDbLine
 10
2.0
 20
6.499997138977051
 30
0.0
 11
2.0
 21
13.99999713897705
 31
0.0
  0
LINE
  5
9B
330
44
100
AcDbEntity
  8
0
  6
Continuous
 62
     0
100
AcDbLine
 10
2.5
 20
6.499997138977051
 30
0.0
 11
2.5
 21
13.99999713897705
 31
0.0
  0
LINE
  5
9C
330
44
100
AcDbEntity
  8
0
  6
Continuous
 62
     0
100
AcDbLine
 10
-2.5
 20
13.99999713897705
 30
0.0
 11
2.5
 21
13.99999713897705
 31
0.0
  0
LINE
  5
9D
330
44
100
AcDbEntity
  8
0
  6
Continuous
 62
     0
100
AcDbLine
 10
5.0
 20
6.499997138977051
 30
0.0
 11
5.0
 21
9.49999713897705
 31
0.0
  0
LINE
  5
9E
330
44
100
AcDbEntity
  8
0
  6
Continuous
 62
     0
100
AcDbLine
 10
9.0
 20
13.49999713897705
 30
0.0
 11
11.0
 21
13.49999713897705
 31
0.0
  0
LINE
  5
9F
330
44
100
AcDbEntity
  8
0
  6
Continuous
 62
     0
100
AcDbLine
 10
11.0
 20
11.33836078643799
 30
0.0
 11
11.0
 21
13.49999713897705
 31
0.0
  0
LINE
  5
A0
330
44
100
AcDbEntity
  8
0
  6
Continuous
 62
     0
100
AcDbLine
 10
4.60003662109375
 20
2.199993848800659
 30
0.0
 11
4.60003662109375
 21
3.499996900558472
 31
0.0
  0
LINE
  5
A1
330
44
100
AcDbEntity
  8
0
  6
Continuous
 62
     0
100
AcDbLine
 10
5.0
 20
1.199993848800659
 30
0.0
 11
5.0
 21
2.199993848800659
 31
0.0
  0
LINE
  5
A2
330
44
100
AcDbEntity
  8
0
  6
Continuous
 62
     0
100
AcDbLine
 10
0.7505764456015
 20
3.500002948091361
 30
0.0
 11
0.402243389844193
 21
2.200006147254101
 31
0.0
  0
LINE
  5
A3
330
44
100
AcDbEntity
  8
0
  6
Continuous
 62
     0
100
AcDbLine
 10
-0.750533937837359
 20
2.199996265881218
 30
0.0
 11
-0.402200912933684
 21
3.499992951571145
 31
0.0
  0
ARC
  5
A4
330
44
100
AcDbEntity
  8
0
  6
Continuous
 62
     0
100
AcDbCircle
 10
10.0
 20
1.199996948242188
 30
0.0
 40
6.0
100
AcDbArc
 50
269.9999974955218
 51
334.9999981659467
  0
ARC
  5
A5
330
44
100
AcDbEntity
  8
0
  6
DASHED
 62
     0
100
AcDbCircle
 10
77.841552734375
 20
32.11763000488281
 30
0.0
 40
8.800000190734863
100
AcDbArc
 50
100.0000005060238
 51
135.0000003416227
  0
ARC
  5
A6
330
44
100
AcDbEntity
  8
0
  6
Continuous
 62
     0
100
AcDbCircle
 10
85.0
 20
40.48783874511719
 30
0.0
 40
3.0
100
AcDbArc
 50
0.0
 51
100.0000005060238
  0
ARC
  5
A7
330
44
100
AcDbEntity
  8
0
  6
Continuous
 62
     0
100
AcDbCircle
 10
77.841552734375
 20
32.11763000488281
 30
0.0
 40
10.0
100
AcDbArc
 50
100.0000005060238
 51
135.0000003416227
  0
ARC
  5
A8
330
44
100
AcDbEntity
  8
0
  6
Continuous
 62
     0
100
AcDbCircle
 10
-7.0
 20
-1.800003051757812
 30
0.0
 40
3.0
100
AcDbArc
 50
179.999991348578
 51
270.0000006832453
  0
ARC
  5
A9
330
44
100
AcDbEntity
  8
0
  6
Continuous
 62
     0
100
AcDbCircle
 10
85.0
 20
40.48783874511719
 30
0.0
 40
1.799999952316284
100
AcDbArc
 50
0.0
 51
100.0000005060238
  0
ARC
  5
AA
330
44
100
AcDbEntity
  8
0
  6
Continuous
 62
     0
100
AcDbCircle
 10
82.7999267578125
 20
37.86598205566406
 30
0.0
 40
1.0
100
AcDbArc
 50
0.0
 51
100.0000005060238
  0
ARC
  5
AB
330
44
100
AcDbEntity
  8
0
  6
Continuous
 62
     0
100
AcDbCircle
 10
85.0496826171875
 20
39.28886413574219
 30
0.0
 40
3.0
100
AcDbArc
 50
92.37285120327562
 51
156.8014040967914
  0
ARC
  5
AC
330
44
100
AcDbEntity
  8
0
  6
Continuous
 62
     0
100
AcDbCircle
 10
-3.0
 20
11.33836078643799
 30
0.0
 40
8.0
100
AcDbArc
 50
179.999991348578
 51
258.4630461939067
  0
ARC
  5
AD
330
44
100
AcDbEntity
  8
0
  6
Continuous
 62
     0
100
AcDbCircle
 10
-9.0
 20
9.49999713897705
 30
0.0
 40
4.0
100
AcDbArc
 50
0.0
 51
90.00000250447816
  0
ARC
  5
AE
330
44
100
AcDbEntity
  8
0
  6
Continuous
 62
     0
100
AcDbCircle
 10
9.0
 20
9.49999713897705
 30
0.0
 40
4.0
100
AcDbArc
 50
90.00000250447816
 51
180.0000050089563
  0
ARC
  5
AF
330
44
100
AcDbEntity
  8
0
  6
Continuous
 62
     0
100
AcDbCircle
 10
3.0
 20
11.33836078643799
 30
0.0
 40
8.0
100
AcDbArc
 50
281.5369588150496
 51
359.9999999999999
  0
ARC
  5
B0
330
44
100
AcDbEntity
  8
0
  6
Continuous
 62
     0
100
AcDbCircle
 10
9.36284065246582
 20
2.199996948242188
 30
0.0
 40
1.0
100
AcDbArc
 50
269.9999974955218
 51
334.9999981659467
  0
ARC
  5
B1
330
44
100
AcDbEntity
  8
0
  6
DASHED
 62
     0
100
AcDbCircle
 10
9.362920761108398
 20
2.199996948242188
 30
0.0
 40
2.200000047683716
100
AcDbArc
 50
269.9999974955218
 51
334.9999981659467
  0
ARC
  5
B2
330
44
100
AcDbEntity
  8
0
  6
Continuous
 62
     0
100
AcDbCircle
 10
37.90023422241211
 20
13.70840358734131
 30
0.0
 40
20.0
100
AcDbArc
 50
95.00000150525099
 51
154.9999963447139
  0
ARC
  5
B3
330
44
100
AcDbEntity
  8
0
  6
Continuous
 62
     0
100
AcDbCircle
 10
37.41223907470703
 20
12.66189002990723
 30
0.0
 40
14.0
100
AcDbArc
 50
95.00000150525099
 51
154.9999963447139
  0
ARC
  5
B4
330
44
100
AcDbEntity
  8
0
  6
DASHED
 62
     0
100
AcDbCircle
 10
37.90032958984375
 20
13.70843029022217
 30
0.0
 40
15.80000019073486
100
AcDbArc
 50
95.00000150525099
 51
154.9999963447139
  0
ARC
  5
B5
330
44
100
AcDbEntity
  8
0
  6
DASHED
 62
     0
100
AcDbCircle
 10
37.90023422241211
 20
13.70840358734131
 30
0.0
 40
17.0
100
AcDbArc
 50
95.00000150525099
 51
154.9999963447139
  0
ARC
  5
B6
330
44
100
AcDbEntity
  8
0
  6
DASHED
 62
     0
100
AcDbCircle
 10
37.90032958984375
 20
13.70843029022217
 30
0.0
 40
18.79999923706055
100
AcDbArc
 50
95.00000150525099
 51
154.9999963447139
  0
DIMENSION
  5
B7
330
44
100
AcDbEntity
  8
0
 62
     0
100
AcDbDimension
  2
*D9
 10
88.0
 20
70.09814453124999
 30
0.0
 11
36.98334939575195
 21
70.09814453125
 31
0.0
 70
   160
 71
     5
 42
97.99999999999999
  3
ISO-25
100
AcDbAlignedDimension
 13
-10.0
 23
1.199996948242188
 33
0.0
 14
88.0
 24
40.48783874511719
 34
0.0
 50
180.0
100
AcDbRotatedDimension
1001
ACAD
1000
DSTYLE
1002
{
1070
   178
1070
     1
1070
   147
1040
0.800000011920929
1070
    77
1070
     1
1070
    74
1070
     0
1070
    73
1070
     0
1070
    42
1040
2.54
1070
    44
1040
1.0
1070
    76
1070
     0
1070
    75
1070
     0
1070
   279
1070
     0
1070
   271
1070
     0
1070
   144
1040
1.0
1070
   278
1070
    46
1070
   173
1070
     1
1070
    41
1040
3.0
1070
   140
1040
3.200000047683716
1070
   344
1005
B8
1070
   343
1005
B8
1002
}
  0
DIMENSION
  5
CB
330
44
100
AcDbEntity
  8
0
 62
     0
100
AcDbDimension
  2
*D10
 10
88.0
 20
61.51486587524413
 30
0.0
 11
45.98875482177734
 21
61.51486587524414
 31
0.0
 70
   160
 71
     5
 42
78.00009155273433
  3
ISO-25
100
AcDbAlignedDimension
 13
9.999910354614258
 23
1.199996948242188
 33
0.0
 14
88.0
 24
44.06312561035156
 34
0.0
 50
180.0
100
AcDbRotatedDimension
1001
ACAD
1000
DSTYLE
1002
{
1070
   178
1070
     1
1070
   147
1040
0.800000011920929
1070
    77
1070
     1
1070
    74
1070
     0
1070
    73
1070
     0
1070
    42
1040
2.54
1070
    44
1040
1.0
1070
    76
1070
     1
1070
    75
1070
     0
1070
   279
1070
     0
1070
   271
1070
     0
1070
   144
1040
1.000000024453159
1070
   278
1070
    46
1070
   173
1070
     1
1070
    41
1040
3.0
1070
   140
1040
3.200000047683716
1070
   344
1005
B8
1070
   343
1005
B8
1002
}
  0
DIMENSION
  5
D7
330
44
100
AcDbEntity
  8
0
 62
     0
100
AcDbDimension
  2
*D11
 10
112.3307958374024
 20
-16.5121612548828
 30
0.0
 11
112.3307958374023
 21
16.44135720825195
 31
0.0
 70
   160
 71
     5
 42
60.0
  3
ISO-25
100
AcDbAlignedDimension
 13
85.0
 23
43.48783874511719
 33
0.0
 14
86.7999267578125
 24
-16.51216125488281
 34
0.0
 50
90.00000000000001
100
AcDbRotatedDimension
1001
ACAD
1000
DSTYLE
1002
{
1070
   178
1070
     1
1070
   147
1040
0.800000011920929
1070
    77
1070
     1
1070
    74
1070
     0
1070
    73
1070
     0
1070
    42
1040
2.54
1070
    44
1040
1.0
1070
    76
1070
     0
1070
    75
1070
     0
1070
   279
1070
     0
1070
   271
1070
     0
1070
   144
1040
1.0
1070
   278
1070
    46
1070
   173
1070
     1
1070
    41
1040
3.0
1070
   140
1040
3.200000047683716
1070
   344
1005
B8
1070
   343
1005
B8
1002
}
  0
DIMENSION
  5
E4
330
44
100
AcDbEntity
  8
0
 62
     0
100
AcDbDimension
  2
*D12
 10
88.0
 20
53.91655349731445
 30
0.0
 11
54.1499028930664
 21
53.91655349731445
 31
0.0
 70
   160
 71
     5
 42
63.34594345092773
  3
ISO-25
100
AcDbAlignedDimension
 13
24.65405464172363
 23
32.62591171264648
 33
0.0
 14
88.0
 24
40.48783874511719
 34
0.0
 50
180.0
100
AcDbRotatedDimension
1001
ACAD
1000
DSTYLE
1002
{
1070
   178
1070
     1
1070
   147
1040
0.800000011920929
1070
    77
1070
     1
1070
    74
1070
     0
1070
    73
1070
     0
1070
    42
1040
2.54
1070
    44
1040
1.0
1070
    76
1070
     1
1070
    75
1070
     0
1070
   279
1070
     0
1070
   271
1070
     1
1070
   144
1040
0.999999969889965
1070
   278
1070
    46
1070
   173
1070
     1
1070
    41
1040
3.0
1070
   140
1040
3.200000047683716
1070
   344
1005
B8
1070
   343
1005
B8
1002
}
  0
DIMENSION
  5
F0
330
44
100
AcDbEntity
  8
0
 62
     0
100
AcDbDimension
  2
*D13
 10
9.999910354614265
 20
61.51486587524414
 30
0.0
 11
1.500955177307129
 21
61.51486587524414
 31
0.0
 70
   160
 71
     5
 42
19.99991035461426
  3
ISO-25
100
AcDbAlignedDimension
 13
-10.0
 23
1.199996948242188
 33
0.0
 14
9.999910354614258
 24
1.199996948242188
 34
0.0
 50
180.0
100
AcDbRotatedDimension
1001
ACAD
1000
DSTYLE
1002
{
1070
   178
1070
     1
1070
   147
1040
0.800000011920929
1070
    77
1070
     1
1070
    74
1070
     0
1070
    73
1070
     0
1070
    42
1040
2.54
1070
    44
1040
1.0
1070
    76
1070
     1
1070
    75
1070
     1
1070
   279
1070
     0
1070
   271
1070
     0
1070
   144
1040
1.0
1070
   278
1070
    46
1070
   173
1070
     1
1070
    41
1040
3.0
1070
   140
1040
3.200000047683716
1070
   344
1005
B8
1070
   343
1005
B8
1002
}
  0
ENDBLK
  5
46
330
44
100
AcDbEntity
  8
0
100
AcDbBlockEnd
  0
BLOCK
  5
48
330
47
100
AcDbEntity
  8
0
100
AcDbBlockBegin
  2
DTL0002
 70
     0
 10
0.0
 20
0.0
 30
0.0
  3
DTL0002
  1

  0
POINT
  5
FB
330
47
100
AcDbEntity
  8
0
 62
     0
100
AcDbPoint
 10
0.0
 20
0.0
 30
0.0
  0
POINT
  5
FC
330
47
100
AcDbEntity
  8
0
 62
     0
100
AcDbPoint
 10
0.0
 20
0.0
 30
0.0
  0
POINT
  5
FD
330
47
100
AcDbEntity
  8
0
 62
     0
100
AcDbPoint
 10
0.0
 20
-2.5
 30
0.0
  0
POINT
  5
FE
330
47
100
AcDbEntity
  8
0
 62
     0
100
AcDbPoint
 10
0.0
 20
-4.5
 30
0.0
  0
LINE
  5
FF
330
47
100
AcDbEntity
  8
0
  6
Continuous
 62
     0
100
AcDbLine
 10
-13.0
 20
-2.5
 30
0.0
 11
-13.0
 21
-4.5
 31
0.0
  0
LINE
  5
100
330
47
100
AcDbEntity
  8
0
  6
Continuous
 62
     0
100
AcDbLine
 10
-10.0
 20
-2.5
 30
0.0
 11
-10.0
 21
-4.0
 31
0.0
  0
LINE
  5
101
330
47
100
AcDbEntity
  8
0
  6
Continuous
 62
     0
100
AcDbLine
 10
-5.0
 20
-2.5
 30
0.0
 11
-5.0
 21
-4.0
 31
0.0
  0
LINE
  5
102
330
47
100
AcDbEntity
  8
0
  6
Continuous
 62
     0
100
AcDbLine
 10
0.0
 20
-2.5
 30
0.0
 11
0.0
 21
-4.5
 31
0.0
  0
MTEXT
  5
103
330
47
100
AcDbEntity
  8
0
 62
     1
100
AcDbMText
 10
-1.536675304174423
 20
-6.831439018249512
 30
0.0
 40
2.0
 41
0.0
 71
     7
 72
     1
  1
{\W1;30}
 73
     1
 44
1.0
  0
MTEXT
  5
104
330
47
100
AcDbEntity
  8
0
 62
     1
100
AcDbMText
 10
-14.53667506575584
 20
-6.831439018249512
 30
0.0
 40
2.0
 41
0.0
 71
     7
 72
     1
  1
{\W1;17}
 73
     1
 44
1.0
  0
ENDBLK
  5
49
330
47
100
AcDbEntity
  8
0
100
AcDbBlockEnd
  0
BLOCK
  5
4B
330
4A
100
AcDbEntity
  8
0
100
AcDbBlockBegin
  2
DTL0003
 70
     0
 10
0.0
 20
0.0
 30
0.0
  3
DTL0003
  1

  0
POINT
  5
105
330
4A
100
AcDbEntity
  8
0
 62
     0
100
AcDbPoint
 10
0.0
 20
0.0
 30
0.0
  0
POINT
  5
106
330
4A
100
AcDbEntity
  8
0
 62
     0
100
AcDbPoint
 10
0.0
 20
0.0
 30
0.0
  0
POINT
  5
107
330
4A
100
AcDbEntity
  8
0
 62
     0
100
AcDbPoint
 10
-10.0
 20
1.199996948242188
 30
0.0
  0
POINT
  5
108
330
4A
100
AcDbEntity
  8
0
 62
     0
100
AcDbPoint
 10
88.0
 20
-16.51216125488281
 30
0.0
  0
POINT
  5
109
330
4A
100
AcDbEntity
  8
0
 62
     0
100
AcDbPoint
 10
88.0
 20
44.06312561035156
 30
0.0
  0
POINT
  5
10A
330
4A
100
AcDbEntity
  8
0
 62
     0
100
AcDbPoint
 10
9.999910354614258
 20
1.199996948242188
 30
0.0
  0
POINT
  5
10B
330
4A
100
AcDbEntity
  8
0
 62
     0
100
AcDbPoint
 10
30.0
 20
0.0
 30
0.0
  0
POINT
  5
10C
330
4A
100
AcDbEntity
  8
0
 62
     0
100
AcDbPoint
 10
-5.0
 20
2.399993896484375
 30
0.0
  0
POINT
  5
10D
330
4A
100
AcDbEntity
  8
0
 62
     0
100
AcDbPoint
 10
-5.0
 20
2.199993848800659
 30
0.0
  0
POINT
  5
10E
330
4A
100
AcDbEntity
  8
0
 62
     0
100
AcDbPoint
 10
25.44891929626465
 20
31.49088668823242
 30
0.0
  0
POINT
  5
10F
330
4A
100
AcDbEntity
  8
0
 62
     0
100
AcDbPoint
 10
26.64098358154297
 20
29.78828430175781
 30
0.0
  0
POINT
  5
110
330
4A
100
AcDbEntity
  8
0
 62
     0
100
AcDbPoint
 10
27.43584632873535
 20
28.65325927734375
 30
0.0
  0
POINT
  5
111
330
4A
100
AcDbEntity
  8
0
 62
     0
100
AcDbPoint
 10
28.13991165161133
 20
25.90414428710938
 30
0.0
  0
POINT
  5
112
330
4A
100
AcDbEntity
  8
0
 62
     0
100
AcDbPoint
 10
82.92625427246094
 20
41.9499626159668
 30
0.0
  0
POINT
  5
113
330
4A
100
AcDbEntity
  8
0
 62
     0
100
AcDbPoint
 10
24.65405464172363
 20
32.62591171264648
 30
0.0
  0
POINT
  5
114
330
4A
100
AcDbEntity
  8
0
 62
     0
100
AcDbPoint
 10
67.99993133544922
 20
36.41818237304688
 30
0.0
  0
POINT
  5
115
330
4A
100
AcDbEntity
  8
0
 62
     0
100
AcDbPoint
 10
14.22713279724121
 20
10.26530361175537
 30
0.0
  0
POINT
  5
116
330
4A
100
AcDbEntity
  8
0
 62
     0
100
AcDbPoint
 10
9.999910354614258
 20
1.199996948242188
 30
0.0
  0
POINT
  5
117
330
4A
100
AcDbEntity
  8
0
 62
     0
100
AcDbPoint
 10
10.76447582244873
 20
-0.000002980232239
 30
0.0
  0
POINT
  5
118
330
4A
100
AcDbEntity
  8
0
 62
     0
100
AcDbPoint
 10
24.65405464172363
 20
32.62590789794922
 30
0.0
  0
POINT
  5
119
330
4A
100
AcDbEntity
  8
0
 62
     0
100
AcDbPoint
 10
28.13991165161133
 20
25.90414428710938
 30
0.0
  0
POINT
  5
11A
330
4A
100
AcDbEntity
  8
0
 62
     0
100
AcDbPoint
 10
27.43584632873535
 20
28.65325927734375
 30
0.0
  0
POINT
  5
11B
330
4A
100
AcDbEntity
  8
0
 62
     0
100
AcDbPoint
 10
26.64098358154297
 20
29.78828430175781
 30
0.0
  0
POINT
  5
11C
330
4A
100
AcDbEntity
  8
0
 62
     0
100
AcDbPoint
 10
25.44891929626465
 20
31.49088668823242
 30
0.0
  0
LINE
  5
11D
330
4A
100
AcDbEntity
  8
0
  6
Continuous
 62
     0
100
AcDbLine
 10
-10.0
 20
1.199996948242188
 30
0.0
 11
9.36284065246582
 21
1.199996948242188
 31
0.0
  0
LINE
  5
11E
330
4A
100
AcDbEntity
  8
0
  6
Continuous
 62
     0
100
AcDbLine
 10
-10.0
 20
1.199996948242188
 30
0.0
 11
-10.0
 21
-1.800003051757812
 31
0.0
  0
LINE
  5
11F
330
4A
100
AcDbEntity
  8
0
  6
Continuous
 62
     0
100
AcDbLine
 10
83.799990630639
 20
0.219922212722857
 30
0.0
 11
86.7999990288715
 21
-1.512133474655151
 31
0.0
  0
LINE
  5
120
330
4A
100
AcDbEntity
  8
0
  6
Continuous
 62
     0
100
AcDbLine
 10
88.0
 20
40.48783874511719
 30
0.0
 11
88.0
 21
-16.51216125488281
 31
0.0
  0
LINE
  5
121
330
4A
100
AcDbEntity
  8
0
  6
Continuous
 62
     0
100
AcDbLine
 10
10.26914779743878
 20
1.777378812296899
 30
0.0
 11
19.77407907551854
 21
22.16076864481917
 31
0.0
  0
LINE
  5
122
330
4A
100
AcDbEntity
  8
0
  6
Continuous
 62
     0
100
AcDbLine
 10
36.15711985083157
 20
33.63229757213051
 30
0.0
 11
68.00002750630473
 21
36.41819099755396
 31
0.0
  0
LINE
  5
123
330
4A
100
AcDbEntity
  8
0
  6
DASHED
 62
     0
100
AcDbLine
 10
64.69979708516662
 20
33.11805081915304
 30
0.0
 11
67.99998838381114
 21
36.41824211779756
 31
0.0
  0
LINE
  5
124
330
4A
100
AcDbEntity
  8
0
  6
Continuous
 62
     0
100
AcDbLine
 10
76.10501946936915
 20
41.96571900031419
 30
0.0
 11
84.47901097322128
 21
43.44227968133016
 31
0.0
  0
LINE
  5
125
330
4A
100
AcDbEntity
  8
0
  6
Continuous
 62
     0
100
AcDbLine
 10
86.7999267578125
 20
40.48783874511719
 30
0.0
 11
86.7999267578125
 21
-16.51216125488281
 31
0.0
  0
LINE
  5
126
330
4A
100
AcDbEntity
  8
0
  6
Continuous
 62
     0
100
AcDbLine
 10
71.14817589318936
 20
29.6669346905641
 30
0.0
 11
76.38906974491098
 21
34.90782854228573
 31
0.0
  0
LINE
  5
127
330
4A
100
AcDbEntity
  8
0
  6
Continuous
 62
     0
100
AcDbLine
 10
36.19205642523227
 20
26.60861526367648
 30
0.0
 11
71.1481523161162
 21
29.66687736632547
 31
0.0
  0
LINE
  5
128
330
4A
100
AcDbEntity
  8
0
  6
Continuous
 62
     0
100
AcDbLine
 10
15.43777536185363
 20
-1.335675331407931
 30
0.0
 11
24.72392956807983
 21
18.57854558115666
 31
0.0
  0
LINE
  5
129
330
4A
100
AcDbEntity
  8
0
  6
Continuous
 62
     0
100
AcDbLine
 10
-7.0
 20
-4.800003051757812
 30
0.0
 11
10.0
 21
-4.800003051757812
 31
0.0
  0
LINE
  5
12A
330
4A
100
AcDbEntity
  8
0
  6
Continuous
 62
     0
100
AcDbLine
 10
76.38912480573158
 20
34.90782814853252
 30
0.0
 11
80.19587801370456
 21
35.57906146739111
 31
0.0
  0
LINE
  5
12B
330
4A
100
AcDbEntity
  8
0
  6
Continuous
 62
     0
100
AcDbLine
 10
80.1477707713705
 20
35.4668388018426
 30
0.0
 11
82.29224941848878
 21
40.47062252810856
 31
0.0
  0
LINE
  5
12C
330
4A
100
AcDbEntity
  8
0
  6
DASHED
 62
     0
100
AcDbLine
 10
36.26180015048621
 20
32.43689048708294
 30
0.0
 11
68.53971834706574
 21
35.26084240325637
 31
0.0
  0
LINE
  5
12D
330
4A
100
AcDbEntity
  8
0
  6
DASHED
 62
     0
100
AcDbLine
 10
65.23949253797045
 20
31.96067273376
 30
0.0
 11
71.61903374125731
 21
38.34021393704685
 31
0.0
  0
LINE
  5
12E
330
4A
100
AcDbEntity
  8
0
  6
DASHED
 62
     0
100
AcDbLine
 10
76.31339940813753
 20
40.78393767615016
 30
0.0
 11
84.68739091198965
 21
42.26049835716614
 31
0.0
  0
LINE
  5
12F
330
4A
100
AcDbEntity
  8
0
  6
DASHED
 62
     0
100
AcDbLine
 10
11.35679802107566
 20
1.270237038415292
 30
0.0
 11
20.86174219644179
 21
21.653654529256
 31
0.0
  0
LINE
  5
130
330
4A
100
AcDbEntity
  8
0
  6
DASHED
 62
     0
100
AcDbLine
 10
36.52326737797164
 20
29.44830639274142
 30
0.0
 11
65.23947335371912
 21
31.96064886776004
 31
0.0
  0
LINE
  5
131
330
4A
100
AcDbEntity
  8
0
  6
DASHED
 62
     0
100
AcDbLine
 10
15.12672826175295
 20
9.354799228235327
 30
0.0
 11
18.57765760050716
 21
9.656716423123898
 31
0.0
  0
LINE
  5
132
330
4A
100
AcDbEntity
  8
0
  6
DASHED
 62
     0
100
AcDbLine
 10
18.57761313314582
 20
9.65671750405113
 30
0.0
 11
23.58066639632787
 21
20.38579928620945
 31
0.0
  0
LINE
  5
133
330
4A
100
AcDbEntity
  8
0
  6
DASHED
 62
     0
100
AcDbLine
 10
36.418587078317
 20
30.643713477789
 30
0.0
 11
64.69978251295811
 21
33.11799746205763
 31
0.0
  0
LINE
  5
134
330
4A
100
AcDbEntity
  8
0
  6
DASHED
 62
     0
100
AcDbLine
 10
14.33196659967487
 20
10.4898626514869
 30
0.0
 11
17.78289593842908
 21
10.79177984637547
 31
0.0
  0
LINE
  5
135
330
4A
100
AcDbEntity
  8
0
  6
DASHED
 62
     0
100
AcDbLine
 10
17.78277161428719
 20
10.79178953868223
 30
0.0
 11
22.49300408148502
 21
20.89291513041752
 31
0.0
  0
LINE
  5
136
330
4A
100
AcDbEntity
  8
0
  6
Continuous
 62
     0
100
AcDbLine
 10
67.99998838381114
 20
36.41824211779756
 30
0.0
 11
70.77049697215888
 21
39.18875070614529
 31
0.0
  0
LINE
  5
137
330
4A
100
AcDbEntity
  8
0
  6
Continuous
 62
     0
100
AcDbLine
 10
83.7999267578125
 20
37.86598205566406
 30
0.0
 11
83.7999267578125
 21
0.219924926757812
 31
0.0
  0
LINE
  5
138
330
4A
100
AcDbEntity
  8
0
  6
DASHED
 62
     0
100
AcDbLine
 10
78.77895457571285
 20
38.17240174886894
 30
0.0
 11
82.62634072072538
 21
38.85079975104004
 31
0.0
  0
LINE
  5
139
330
4A
100
AcDbEntity
  8
0
  6
DASHED
 62
     0
100
AcDbLine
 10
76.55232972847577
 20
40.82608329439965
 30
0.0
 11
78.77901762981793
 21
38.17242011236987
 31
0.0
  0
LINE
  5
13A
330
4A
100
AcDbEntity
  8
0
  6
Continuous
 62
     0
100
AcDbLine
 10
86.7999267578125
 20
-16.51216125488281
 30
0.0
 11
88.0
 21
-16.51216125488281
 31
0.0
  0
LINE
  5
13B
330
4A
100
AcDbEntity
  8
0
  6
CENTER
 62
     0
100
AcDbLine
 10
0.0
 20
16.49760055541992
 30
0.0
 11
0.0
 21
-29.08761978149414
 31
0.0
  0
LINE
  5
13C
330
4A
100
AcDbEntity
  8
0
  6
Continuous
 62
     0
100
AcDbLine
 10
-5.0
 20
1.199993848800659
 30
0.0
 11
-5.0
 21
2.199993848800659
 31
0.0
  0
LINE
  5
13D
330
4A
100
AcDbEntity
  8
0
  6
Continuous
 62
     0
100
AcDbLine
 10
-4.5999755859375
 20
2.199993848800659
 30
0.0
 11
-4.5999755859375
 21
3.499996900558472
 31
0.0
  0
LINE
  5
13E
330
4A
100
AcDbEntity
  8
0
  6
Continuous
 62
     0
100
AcDbLine
 10
5.0
 20
2.199993848800659
 30
0.0
 11
-5.0
 21
2.199993848800659
 31
0.0
  0
LINE
  5
13F
330
4A
100
AcDbEntity
  8
0
  6
Continuous
 62
     0
100
AcDbLine
 10
4.60003662109375
 20
3.499996900558472
 30
0.0
 11
-4.5999755859375
 21
3.499996900558472
 31
0.0
  0
LINE
  5
140
330
4A
100
AcDbEntity
  8
0
  6
Continuous
 62
     0
100
AcDbLine
 10
-11.0
 20
11.33836078643799
 30
0.0
 11
-11.0
 21
13.49999713897705
 31
0.0
  0
LINE
  5
141
330
4A
100
AcDbEntity
  8
0
  6
Continuous
 62
     0
100
AcDbLine
 10
-9.0
 20
13.49999713897705
 30
0.0
 11
-11.0
 21
13.49999713897705
 31
0.0
  0
LINE
  5
142
330
4A
100
AcDbEntity
  8
0
  6
Continuous
 62
     0
100
AcDbLine
 10
-5.0
 20
6.499997138977051
 30
0.0
 11
-5.0
 21
9.49999713897705
 31
0.0
  0
LINE
  5
143
330
4A
100
AcDbEntity
  8
0
  6
Continuous
 62
     0
100
AcDbLine
 10
5.0
 20
6.499997138977051
 30
0.0
 11
-5.0
 21
6.499997138977051
 31
0.0
  0
LINE
  5
144
330
4A
100
AcDbEntity
  8
0
  6
Continuous
 62
     0
100
AcDbLine
 10
-2.5
 20
6.499997138977051
 30
0.0
 11
-2.5
 21
13.99999713897705
 31
0.0
  0
LINE
  5
145
330
4A
100
AcDbEntity
  8
0
  6
Continuous
 62
     0
100
AcDbLine
 10
-2.0
 20
6.499997138977051
 30
0.0
 11
-2.0
 21
13.99999713897705
 31
0.0
  0
LINE
  5
146
330
4A
100
AcDbEntity
  8
0
  6
Continuous
 62
     0
100
AcDbLine
 10
2.0
 20
6.499997138977051
 30
0.0
 11
2.0
 21
13.99999713897705
 31
0.0
  0
LINE
  5
147
330
4A
100
AcDbEntity
  8
0
  6
Continuous
 62
     0
100
AcDbLine
 10
2.5
 20
6.499997138977051
 30
0.0
 11
2.5
 21
13.99999713897705
 31
0.0
  0
LINE
  5
148
330
4A
100
AcDbEntity
  8
0
  6
Continuous
 62
     0
100
AcDbLine
 10
-2.5
 20
13.99999713897705
 30
0.0
 11
2.5
 21
13.99999713897705
 31
0.0
  0
LINE
  5
149
330
4A
100
AcDbEntity
  8
0
  6
Continuous
 62
     0
100
AcDbLine
 10
5.0
 20
6.499997138977051
 30
0.0
 11
5.0
 21
9.49999713897705
 31
0.0
  0
LINE
  5
14A
330
4A
100
AcDbEntity
  8
0
  6
Continuous
 62
     0
100
AcDbLine
 10
9.0
 20
13.49999713897705
 30
0.0
 11
11.0
 21
13.49999713897705
 31
0.0
  0
LINE
  5
14B
330
4A
100
AcDbEntity
  8
0
  6
Continuous
 62
     0
100
AcDbLine
 10
11.0
 20
11.33836078643799
 30
0.0
 11
11.0
 21
13.49999713897705
 31
0.0
  0
LINE
  5
14C
330
4A
100
AcDbEntity
  8
0
  6
Continuous
 62
     0
100
AcDbLine
 10
4.60003662109375
 20
2.199993848800659
 30
0.0
 11
4.60003662109375
 21
3.499996900558472
 31
0.0
  0
LINE
  5
14D
330
4A
100
AcDbEntity
  8
0
  6
Continuous
 62
     0
100
AcDbLine
 10
5.0
 20
1.199993848800659
 30
0.0
 11
5.0
 21
2.199993848800659
 31
0.0
  0
LINE
  5
14E
330
4A
100
AcDbEntity
  8
0
  6
Continuous
 62
     0
100
AcDbLine
 10
0.7505764456015
 20
3.500002948091361
 30
0.0
 11
0.402243389844193
 21
2.200006147254101
 31
0.0
  0
LINE
  5
14F
330
4A
100
AcDbEntity
  8
0
  6
Continuous
 62
     0
100
AcDbLine
 10
-0.750533937837359
 20
2.199996265881218
 30
0.0
 11
-0.402200912933684
 21
3.499992951571145
 31
0.0
  0
ARC
  5
150
330
4A
100
AcDbEntity
  8
0
  6
Continuous
 62
     0
100
AcDbCircle
 10
10.0
 20
1.199996948242188
 30
0.0
 40
6.0
100
AcDbArc
 50
269.9999974955218
 51
334.9999981659467
  0
ARC
  5
151
330
4A
100
AcDbEntity
  8
0
  6
DASHED
 62
     0
100
AcDbCircle
 10
77.841552734375
 20
32.11763000488281
 30
0.0
 40
8.800000190734863
100
AcDbArc
 50
100.0000005060238
 51
135.0000003416227
  0
ARC
  5
152
330
4A
100
AcDbEntity
  8
0
  6
Continuous
 62
     0
100
AcDbCircle
 10
85.0
 20
40.48783874511719
 30
0.0
 40
3.0
100
AcDbArc
 50
0.0
 51
100.0000005060238
  0
ARC
  5
153
330
4A
100
AcDbEntity
  8
0
  6
Continuous
 62
     0
100
AcDbCircle
 10
77.841552734375
 20
32.11763000488281
 30
0.0
 40
10.0
100
AcDbArc
 50
100.0000005060238
 51
135.0000003416227
  0
ARC
  5
154
330
4A
100
AcDbEntity
  8
0
  6
Continuous
 62
     0
100
AcDbCircle
 10
-7.0
 20
-1.800003051757812
 30
0.0
 40
3.0
100
AcDbArc
 50
179.999991348578
 51
270.0000006832453
  0
ARC
  5
155
330
4A
100
AcDbEntity
  8
0
  6
Continuous
 62
     0
100
AcDbCircle
 10
85.0
 20
40.48783874511719
 30
0.0
 40
1.799999952316284
100
AcDbArc
 50
0.0
 51
100.0000005060238
  0
ARC
  5
156
330
4A
100
AcDbEntity
  8
0
  6
Continuous
 62
     0
100
AcDbCircle
 10
82.7999267578125
 20
37.86598205566406
 30
0.0
 40
1.0
100
AcDbArc
 50
0.0
 51
100.0000005060238
  0
ARC
  5
157
330
4A
100
AcDbEntity
  8
0
  6
Continuous
 62
     0
100
AcDbCircle
 10
85.0496826171875
 20
39.28886413574219
 30
0.0
 40
3.0
100
AcDbArc
 50
92.37285120327562
 51
156.8014040967914
  0
ARC
  5
158
330
4A
100
AcDbEntity
  8
0
  6
Continuous
 62
     0
100
AcDbCircle
 10
-3.0
 20
11.33836078643799
 30
0.0
 40
8.0
100
AcDbArc
 50
179.999991348578
 51
258.4630461939067
  0
ARC
  5
159
330
4A
100
AcDbEntity
  8
0
  6
Continuous
 62
     0
100
AcDbCircle
 10
-9.0
 20
9.49999713897705
 30
0.0
 40
4.0
100
AcDbArc
 50
0.0
 51
90.00000250447816
  0
ARC
  5
15A
330
4A
100
AcDbEntity
  8
0
  6
Continuous
 62
     0
100
AcDbCircle
 10
9.0
 20
9.49999713897705
 30
0.0
 40
4.0
100
AcDbArc
 50
90.00000250447816
 51
180.0000050089563
  0
ARC
  5
15B
330
4A
100
AcDbEntity
  8
0
  6
Continuous
 62
     0
100
AcDbCircle
 10
3.0
 20
11.33836078643799
 30
0.0
 40
8.0
100
AcDbArc
 50
281.5369588150496
 51
359.9999999999999
  0
ARC
  5
15C
330
4A
100
AcDbEntity
  8
0
  6
Continuous
 62
     0
100
AcDbCircle
 10
9.36284065246582
 20
2.199996948242188
 30
0.0
 40
1.0
100
AcDbArc
 50
269.9999974955218
 51
334.9999981659467
  0
ARC
  5
15D
330
4A
100
AcDbEntity
  8
0
  6
DASHED
 62
     0
100
AcDbCircle
 10
9.362920761108398
 20
2.199996948242188
 30
0.0
 40
2.200000047683716
100
AcDbArc
 50
269.9999974955218
 51
334.9999981659467
  0
ARC
  5
15E
330
4A
100
AcDbEntity
  8
0
  6
Continuous
 62
     0
100
AcDbCircle
 10
37.90023422241211
 20
13.70840358734131
 30
0.0
 40
20.0
100
AcDbArc
 50
95.00000150525099
 51
154.9999963447139
  0
ARC
  5
15F
330
4A
100
AcDbEntity
  8
0
  6
Continuous
 62
     0
100
AcDbCircle
 10
37.41223907470703
 20
12.66189002990723
 30
0.0
 40
14.0
100
AcDbArc
 50
95.00000150525099
 51
154.9999963447139
  0
ARC
  5
160
330
4A
100
AcDbEntity
  8
0
  6
DASHED
 62
     0
100
AcDbCircle
 10
37.90032958984375
 20
13.70843029022217
 30
0.0
 40
15.80000019073486
100
AcDbArc
 50
95.00000150525099
 51
154.9999963447139
  0
ARC
  5
161
330
4A
100
AcDbEntity
  8
0
  6
DASHED
 62
     0
100
AcDbCircle
 10
37.90023422241211
 20
13.70840358734131
 30
0.0
 40
17.0
100
AcDbArc
 50
95.00000150525099
 51
154.9999963447139
  0
ARC
  5
162
330
4A
100
AcDbEntity
  8
0
  6
DASHED
 62
     0
100
AcDbCircle
 10
37.90032958984375
 20
13.70843029022217
 30
0.0
 40
18.79999923706055
100
AcDbArc
 50
95.00000150525099
 51
154.9999963447139
  0
DIMENSION
  5
163
330
4A
100
AcDbEntity
  8
0
 62
     0
100
AcDbDimension
  2
*D14
 10
88.0
 20
70.09814453124999
 30
0.0
 11
36.98334939575195
 21
70.09814453125
 31
0.0
 70
   160
 71
     5
 42
97.99999999999999
  3
ISO-25
100
AcDbAlignedDimension
 13
-10.0
 23
1.199996948242188
 33
0.0
 14
88.0
 24
40.48783874511719
 34
0.0
 50
180.0
100
AcDbRotatedDimension
1001
ACAD
1000
DSTYLE
1002
{
1070
   178
1070
     1
1070
   147
1040
0.800000011920929
1070
    77
1070
     1
1070
    74
1070
     0
1070
    73
1070
     0
1070
    42
1040
2.54
1070
    44
1040
1.0
1070
    76
1070
     0
1070
    75
1070
     0
1070
   279
1070
     0
1070
   271
1070
     0
1070
   144
1040
1.0
1070
   278
1070
    46
1070
   173
1070
     1
1070
    41
1040
3.0
1070
   140
1040
3.200000047683716
1070
   344
1005
B8
1070
   343
1005
B8
1002
}
  0
DIMENSION
  5
170
330
4A
100
AcDbEntity
  8
0
 62
     0
100
AcDbDimension
  2
*D15
 10
88.0
 20
61.51486587524413
 30
0.0
 11
45.98875482177734
 21
61.51486587524414
 31
0.0
 70
   160
 71
     5
 42
78.00009155273433
  3
ISO-25
100
AcDbAlignedDimension
 13
9.999910354614258
 23
1.199996948242188
 33
0.0
 14
88.0
 24
44.06312561035156
 34
0.0
 50
180.0
100
AcDbRotatedDimension
1001
ACAD
1000
DSTYLE
1002
{
1070
   178
1070
     1
1070
   147
1040
0.800000011920929
1070
    77
1070
     1
1070
    74
1070
     0
1070
    73
1070
     0
1070
    42
1040
2.54
1070
    44
1040
1.0
1070
    76
1070
     1
1070
    75
1070
     0
1070
   279
1070
     0
1070
   271
1070
     0
1070
   144
1040
1.000000024453159
1070
   278
1070
    46
1070
   173
1070
     1
1070
    41
1040
3.0
1070
   140
1040
3.200000047683716
1070
   344
1005
B8
1070
   343
1005
B8
1002
}
  0
DIMENSION
  5
17C
330
4A
100
AcDbEntity
  8
0
 62
     0
100
AcDbDimension
  2
*D16
 10
112.3307958374024
 20
-16.5121612548828
 30
0.0
 11
112.3307958374023
 21
16.44135720825195
 31
0.0
 70
   160
 71
     5
 42
60.0
  3
ISO-25
100
AcDbAlignedDimension
 13
85.0
 23
43.48783874511719
 33
0.0
 14
86.7999267578125
 24
-16.51216125488281
 34
0.0
 50
90.00000000000001
100
AcDbRotatedDimension
1001
ACAD
1000
DSTYLE
1002
{
1070
   178
1070
     1
1070
   147
1040
0.800000011920929
1070
    77
1070
     1
1070
    74
1070
     0
1070
    73
1070
     0
1070
    42
1040
2.54
1070
    44
1040
1.0
1070
    76
1070
     0
1070
    75
1070
     0
1070
   279
1070
     0
1070
   271
1070
     0
1070
   144
1040
1.0
1070
   278
1070
    46
1070
   173
1070
     1
1070
    41
1040
3.0
1070
   140
1040
3.200000047683716
1070
   344
1005
B8
1070
   343
1005
B8
1002
}
  0
DIMENSION
  5
189
330
4A
100
AcDbEntity
  8
0
 62
     0
100
AcDbDimension
  2
*D17
 10
88.0
 20
53.91655349731445
 30
0.0
 11
54.1499028930664
 21
53.91655349731445
 31
0.0
 70
   160
 71
     5
 42
63.34594345092773
  3
ISO-25
100
AcDbAlignedDimension
 13
24.65405464172363
 23
32.62591171264648
 33
0.0
 14
88.0
 24
40.48783874511719
 34
0.0
 50
180.0
100
AcDbRotatedDimension
1001
ACAD
1000
DSTYLE
1002
{
1070
   178
1070
     1
1070
   147
1040
0.800000011920929
1070
    77
1070
     1
1070
    74
1070
     0
1070
    73
1070
     0
1070
    42
1040
2.54
1070
    44
1040
1.0
1070
    76
1070
     1
1070
    75
1070
     0
1070
   279
1070
     0
1070
   271
1070
     1
1070
   144
1040
0.999999969889965
1070
   278
1070
    46
1070
   173
1070
     1
1070
    41
1040
3.0
1070
   140
1040
3.200000047683716
1070
   344
1005
B8
1070
   343
1005
B8
1002
}
  0
DIMENSION
  5
195
330
4A
100
AcDbEntity
  8
0
 62
     0
100
AcDbDimension
  2
*D18
 10
9.999910354614265
 20
61.51486587524414
 30
0.0
 11
1.500955177307129
 21
61.51486587524414
 31
0.0
 70
   160
 71
     5
 42
19.99991035461426
  3
ISO-25
100
AcDbAlignedDimension
 13
-10.0
 23
1.199996948242188
 33
0.0
 14
9.999910354614258
 24
1.199996948242188
 34
0.0
 50
180.0
100
AcDbRotatedDimension
1001
ACAD
1000
DSTYLE
1002
{
1070
   178
1070
     1
1070
   147
1040
0.800000011920929
1070
    77
1070
     1
1070
    74
1070
     0
1070
    73
1070
     0
1070
    42
1040
2.54
1070
    44
1040
1.0
1070
    76
1070
     1
1070
    75
1070
     1
1070
   279
1070
     0
1070
   271
1070
     0
1070
   144
1040
1.0
1070
   278
1070
    46
1070
   173
1070
     1
1070
    41
1040
3.0
1070
   140
1040
3.200000047683716
1070
   344
1005
B8
1070
   343
1005
B8
1002
}
  0
ENDBLK
  5
4C
330
4A
100
AcDbEntity
  8
0
100
AcDbBlockEnd
  0
BLOCK
  5
4E
330
4D
100
AcDbEntity
  8
0
100
AcDbBlockBegin
  2
DTL0004
 70
     0
 10
0.0
 20
0.0
 30
0.0
  3
DTL0004
  1

  0
POINT
  5
1A0
330
4D
100
AcDbEntity
  8
0
 62
     0
100
AcDbPoint
 10
0.0
 20
0.0
 30
0.0
  0
POINT
  5
1A1
330
4D
100
AcDbEntity
  8
0
 62
     0
100
AcDbPoint
 10
0.0
 20
0.0
 30
0.0
  0
POINT
  5
1A2
330
4D
100
AcDbEntity
  8
0
 62
     0
100
AcDbPoint
 10
0.0
 20
-2.5
 30
0.0
  0
POINT
  5
1A3
330
4D
100
AcDbEntity
  8
0
 62
     0
100
AcDbPoint
 10
0.0
 20
-4.5
 30
0.0
  0
LINE
  5
1A4
330
4D
100
AcDbEntity
  8
0
  6
Continuous
 62
     0
100
AcDbLine
 10
-13.0
 20
-2.5
 30
0.0
 11
-13.0
 21
-4.5
 31
0.0
  0
LINE
  5
1A5
330
4D
100
AcDbEntity
  8
0
  6
Continuous
 62
     0
100
AcDbLine
 10
-10.0
 20
-2.5
 30
0.0
 11
-10.0
 21
-4.0
 31
0.0
  0
LINE
  5
1A6
330
4D
100
AcDbEntity
  8
0
  6
Continuous
 62
     0
100
AcDbLine
 10
-5.0
 20
-2.5
 30
0.0
 11
-5.0
 21
-4.0
 31
0.0
  0
LINE
  5
1A7
330
4D
100
AcDbEntity
  8
0
  6
Continuous
 62
     0
100
AcDbLine
 10
0.0
 20
-2.5
 30
0.0
 11
0.0
 21
-4.5
 31
0.0
  0
MTEXT
  5
1A8
330
4D
100
AcDbEntity
  8
0
 62
     1
100
AcDbMText
 10
-1.536675304174423
 20
-6.831439018249512
 30
0.0
 40
2.0
 41
0.0
 71
     7
 72
     1
  1
{\W1;30}
 73
     1
 44
1.0
  0
MTEXT
  5
1A9
330
4D
100
AcDbEntity
  8
0
 62
     1
100
AcDbMText
 10
-14.53667506575584
 20
-6.831439018249512
 30
0.0
 40
2.0
 41
0.0
 71
     7
 72
     1
  1
{\W1;17}
 73
     1
 44
1.0
  0
ENDBLK
  5
4F
330
4D
100
AcDbEntity
  8
0
100
AcDbBlockEnd
  0
BLOCK
  5
51
330
50
100
AcDbEntity
  8
0
100
AcDbBlockBegin
  2
DTL0005
 70
     0
 10
0.0
 20
0.0
 30
0.0
  3
DTL0005
  1

  0
POINT
  5
1AA
330
50
100
AcDbEntity
  8
0
 62
     0
100
AcDbPoint
 10
0.0
 20
0.0
 30
0.0
  0
POINT
  5
1AB
330
50
100
AcDbEntity
  8
0
 62
     0
100
AcDbPoint
 10
0.0
 20
0.0
 30
0.0
  0
POINT
  5
1AC
330
50
100
AcDbEntity
  8
0
 62
     0
100
AcDbPoint
 10
27.12799453735352
 20
30.83241844177246
 30
0.0
  0
POINT
  5
1AD
330
50
100
AcDbEntity
  8
0
 62
     0
100
AcDbPoint
 10
27.9227180480957
 20
29.6973819732666
 30
0.0
  0
POINT
  5
1AE
330
50
100
AcDbEntity
  8
0
 62
     0
100
AcDbPoint
 10
28.62692451477051
 20
26.94827842712402
 30
0.0
  0
POINT
  5
1AF
330
50
100
AcDbEntity
  8
0
 62
     0
100
AcDbPoint
 10
-2.75
 20
1.199996948242188
 30
0.0
  0
POINT
  5
1B0
330
50
100
AcDbEntity
  8
0
 62
     0
100
AcDbPoint
 10
9.999968528747559
 20
1.199996948242188
 30
0.0
  0
POINT
  5
1B1
330
50
100
AcDbEntity
  8
0
 62
     0
100
AcDbPoint
 10
9.999968528747559
 20
1.199996948242188
 30
0.0
  0
POINT
  5
1B2
330
50
100
AcDbEntity
  8
0
 62
     0
100
AcDbPoint
 10
10.76446628570557
 20
-0.000002980232239
 30
0.0
  0
POINT
  5
1B3
330
50
100
AcDbEntity
  8
0
 62
     0
100
AcDbPoint
 10
-10.0
 20
-4.800003051757812
 30
0.0
  0
POINT
  5
1B4
330
50
100
AcDbEntity
  8
0
 62
     0
100
AcDbPoint
 10
27.9227180480957
 20
29.6973819732666
 30
0.0
  0
POINT
  5
1B5
330
50
100
AcDbEntity
  8
0
 62
     0
100
AcDbPoint
 10
27.12799453735352
 20
30.83241844177246
 30
0.0
  0
POINT
  5
1B6
330
50
100
AcDbEntity
  8
0
 62
     0
100
AcDbPoint
 10
25.935791015625
 20
32.53500747680664
 30
0.0
  0
LINE
  5
1B7
330
50
100
AcDbEntity
  8
0
  6
Continuous
 62
     0
100
AcDbLine
 10
-10.0
 20
1.199996948242188
 30
0.0
 11
9.362897872924805
 21
1.199996948242188
 31
0.0
  0
LINE
  5
1B8
330
50
100
AcDbEntity
  8
0
  6
Continuous
 62
     0
100
AcDbLine
 10
-10.0
 20
1.199996948242188
 30
0.0
 11
-10.0
 21
-1.800003051757812
 31
0.0
  0
LINE
  5
1B9
330
50
100
AcDbEntity
  8
0
  6
CENTER
 62
     0
100
AcDbLine
 10
0.0
 20
7.347137451171875
 30
0.0
 11
0.0
 21
-9.3109130859375
 31
0.0
  0
LINE
  5
1BA
330
50
100
AcDbEntity
  8
0
  6
Continuous
 62
     0
100
AcDbLine
 10
110.0000534057617
 20
43.41412353515625
 30
0.0
 11
110.0000534057617
 21
-13.58587646484375
 31
0.0
  0
LINE
  5
1BB
330
50
100
AcDbEntity
  8
0
  6
Continuous
 62
     0
100
AcDbLine
 10
10.26920561269868
 20
1.777378685308443
 30
0.0
 11
20.26102255031733
 21
23.20489812928132
 31
0.0
  0
LINE
  5
1BC
330
50
100
AcDbEntity
  8
0
  6
Continuous
 62
     0
100
AcDbLine
 10
36.6440628227995
 20
34.6764256673532
 30
0.0
 11
90.00008881405067
 21
39.34447305875405
 31
0.0
  0
LINE
  5
1BD
330
50
100
AcDbEntity
  8
0
  6
DASHED
 62
     0
100
AcDbLine
 10
86.69985723152713
 20
36.04433550829619
 30
0.0
 11
90.00004853017165
 21
39.34452680694071
 31
0.0
  0
LINE
  5
1BE
330
50
100
AcDbEntity
  8
0
  6
Continuous
 62
     0
100
AcDbLine
 10
98.10507398191929
 20
44.89198759072037
 30
0.0
 11
106.4790654857714
 21
46.36854827173634
 31
0.0
  0
LINE
  5
1BF
330
50
100
AcDbEntity
  8
0
  6
Continuous
 62
     0
100
AcDbLine
 10
108.7999801635742
 20
-13.58587646484375
 30
0.0
 11
110.0000534057617
 21
-13.58587646484375
 31
0.0
  0
LINE
  5
1C0
330
50
100
AcDbEntity
  8
0
  6
Continuous
 62
     0
100
AcDbLine
 10
108.7999801635742
 20
43.41412353515625
 30
0.0
 11
108.7999801635742
 21
-13.58587646484375
 31
0.0
  0
LINE
  5
1C1
330
50
100
AcDbEntity
  8
0
  6
Continuous
 62
     0
100
AcDbLine
 10
93.14823603954986
 20
32.59321937970726
 30
0.0
 11
98.3891298912715
 21
37.83411323142889
 31
0.0
  0
LINE
  5
1C2
330
50
100
AcDbEntity
  8
0
  6
Continuous
 62
     0
100
AcDbLine
 10
36.67907160064283
 20
27.65274967588185
 30
0.0
 11
93.14821362386213
 21
32.59315942752556
 31
0.0
  0
LINE
  5
1C3
330
50
100
AcDbEntity
  8
0
  6
Continuous
 62
     0
100
AcDbLine
 10
15.43787614278227
 20
-1.335725483118801
 30
0.0
 11
25.21094119855982
 21
19.62267906104959
 31
0.0
  0
LINE
  5
1C4
330
50
100
AcDbEntity
  8
0
  6
Continuous
 62
     0
100
AcDbLine
 10
-7.0
 20
-4.800003051757812
 30
0.0
 11
10.0
 21
-4.800003051757812
 31
0.0
  0
LINE
  5
1C5
330
50
100
AcDbEntity
  8
0
  6
Continuous
 62
     0
100
AcDbLine
 10
98.38917931828172
 20
37.83409673893868
 30
0.0
 11
102.1959325262547
 21
38.50533005779728
 31
0.0
  0
LINE
  5
1C6
330
50
100
AcDbEntity
  8
0
  6
Continuous
 62
     0
100
AcDbLine
 10
102.1478418768989
 20
38.39311718634988
 30
0.0
 11
104.2923205240171
 21
43.39690091261584
 31
0.0
  0
LINE
  5
1C7
330
50
100
AcDbEntity
  8
0
  6
Continuous
 62
     0
100
AcDbLine
 10
105.7999801635742
 20
40.79226684570312
 30
0.0
 11
105.7999801635742
 21
3.146163940429688
 31
0.0
  0
LINE
  5
1C8
330
50
100
AcDbEntity
  8
0
  6
DASHED
 62
     0
100
AcDbLine
 10
98.55239555395927
 20
43.75235821198824
 30
0.0
 11
100.7790822292813
 21
41.09869649107225
 31
0.0
  0
LINE
  5
1C9
330
50
100
AcDbEntity
  8
0
  6
DASHED
 62
     0
100
AcDbLine
 10
36.74867091901152
 20
33.48101226532295
 30
0.0
 11
90.5397796548117
 21
38.18712446445645
 31
0.0
  0
LINE
  5
1CA
330
50
100
AcDbEntity
  8
0
  6
DASHED
 62
     0
100
AcDbLine
 10
87.23955268433095
 20
34.88695742290315
 30
0.0
 11
93.61909388761781
 21
41.26649862619
 31
0.0
  0
LINE
  5
1CB
330
50
100
AcDbEntity
  8
0
  6
DASHED
 62
     0
100
AcDbLine
 10
98.31345392068766
 20
43.71020626655633
 30
0.0
 11
106.6874454245398
 21
45.18676694757231
 31
0.0
  0
LINE
  5
1CC
330
50
100
AcDbEntity
  8
0
  6
Continuous
 62
     0
100
AcDbLine
 10
105.8000283736371
 20
3.14618058111067
 30
0.0
 11
108.8000367718696
 21
1.414124893732669
 31
0.0
  0
LINE
  5
1CD
330
50
100
AcDbEntity
  8
0
  6
DASHED
 62
     0
100
AcDbLine
 10
100.779009088263
 20
41.09867033927511
 30
0.0
 11
103.5140385278699
 21
41.58092983644406
 31
0.0
  0
LINE
  5
1CE
330
50
100
AcDbEntity
  8
0
  6
DASHED
 62
     0
100
AcDbLine
 10
11.3567884284927
 20
1.270236776326056
 30
0.0
 11
21.34861423299574
 21
22.69777523539285
 31
0.0
  0
LINE
  5
1CF
330
50
100
AcDbEntity
  8
0
  6
DASHED
 62
     0
100
AcDbLine
 10
37.01013814649694
 20
30.49242817098144
 30
0.0
 11
87.23953466146507
 21
34.88693092896013
 31
0.0
  0
LINE
  5
1D0
330
50
100
AcDbEntity
  8
0
  6
DASHED
 62
     0
100
AcDbLine
 10
15.61363124870018
 20
10.39892478253921
 30
0.0
 11
19.06456248754499
 21
10.70084214366416
 31
0.0
  0
LINE
  5
1D1
330
50
100
AcDbEntity
  8
0
  6
DASHED
 62
     0
100
AcDbLine
 10
19.06448269321653
 20
10.70083515593838
 30
0.0
 11
24.06753756855937
 21
21.4299203953865
 31
0.0
  0
LINE
  5
1D2
330
50
100
AcDbEntity
  8
0
  6
DASHED
 62
     0
100
AcDbLine
 10
36.90559845354638
 20
31.6878475575216
 30
0.0
 11
86.69984382070406
 21
36.04427952325772
 31
0.0
  0
LINE
  5
1D3
330
50
100
AcDbEntity
  8
0
  6
DASHED
 62
     0
100
AcDbLine
 10
14.8188705366674
 20
11.53398828890897
 30
0.0
 11
18.26980082546691
 21
11.83590556691574
 31
0.0
  0
LINE
  5
1D4
330
50
100
AcDbEntity
  8
0
  6
DASHED
 62
     0
100
AcDbLine
 10
18.26975825627482
 20
11.83586943058318
 30
0.0
 11
22.98001571196501
 21
21.93704861031045
 31
0.0
  0
LINE
  5
1D5
330
50
100
AcDbEntity
  8
0
  6
Continuous
 62
     0
100
AcDbLine
 10
103.5140385278699
 20
41.58092983644406
 30
0.0
 11
104.6263952332755
 21
41.77706834144622
 31
0.0
  0
LINE
  5
1D6
330
50
100
AcDbEntity
  8
0
  6
Continuous
 62
     0
100
AcDbLine
 10
90.00004853017165
 20
39.34452680694071
 30
0.0
 11
92.77055711851938
 21
42.11503539528843
 31
0.0
  0
ARC
  5
1D7
330
50
100
AcDbEntity
  8
0
  6
Continuous
 62
     0
100
AcDbCircle
 10
-7.0
 20
-1.800003051757812
 30
0.0
 40
3.0
100
AcDbArc
 50
179.999991348578
 51
270.0000006832453
  0
ARC
  5
1D8
330
50
100
AcDbEntity
  8
0
  6
Continuous
 62
     0
100
AcDbCircle
 10
107.0497360229492
 20
42.21514892578125
 30
0.0
 40
3.0
100
AcDbArc
 50
92.37285120327562
 51
156.8014040967914
  0
ARC
  5
1D9
330
50
100
AcDbEntity
  8
0
  6
Continuous
 62
     0
100
AcDbCircle
 10
107.0000534057617
 20
43.41412353515625
 30
0.0
 40
3.0
100
AcDbArc
 50
0.0
 51
100.0000005060238
  0
ARC
  5
1DA
330
50
100
AcDbEntity
  8
0
  6
Continuous
 62
     0
100
AcDbCircle
 10
104.7999801635742
 20
40.79226684570312
 30
0.0
 40
1.0
100
AcDbArc
 50
0.0
 51
100.0000005060238
  0
ARC
  5
1DB
330
50
100
AcDbEntity
  8
0
  6
DASHED
 62
     0
100
AcDbCircle
 10
99.84160614013672
 20
35.04391479492188
 30
0.0
 40
8.800000190734863
100
AcDbArc
 50
100.0000005060238
 51
135.0000003416227
  0
ARC
  5
1DC
330
50
100
AcDbEntity
  8
0
  6
Continuous
 62
     0
100
AcDbCircle
 10
10.0
 20
1.199996948242188
 30
0.0
 40
5.999999523162842
100
AcDbArc
 50
273.7307902541554
 51
334.9999998734941
  0
ARC
  5
1DD
330
50
100
AcDbEntity
  8
0
  6
Continuous
 62
     0
100
AcDbCircle
 10
107.0000534057617
 20
43.41412353515625
 30
0.0
 40
1.799999952316284
100
AcDbArc
 50
0.0
 51
100.0000005060238
  0
ARC
  5
1DE
330
50
100
AcDbEntity
  8
0
  6
Continuous
 62
     0
100
AcDbCircle
 10
99.84160614013672
 20
35.04391479492188
 30
0.0
 40
10.0
100
AcDbArc
 50
100.0000005060238
 51
135.0000003416227
  0
ARC
  5
1DF
330
50
100
AcDbEntity
  8
0
  6
Continuous
 62
     0
100
AcDbCircle
 10
9.362897872924805
 20
2.199996948242188
 30
0.0
 40
1.0
100
AcDbArc
 50
269.9999974955218
 51
334.9999981659467
  0
ARC
  5
1E0
330
50
100
AcDbEntity
  8
0
  6
DASHED
 62
     0
100
AcDbCircle
 10
9.362911224365234
 20
2.199996948242188
 30
0.0
 40
2.200000047683716
100
AcDbArc
 50
269.9999974955218
 51
334.9999981659467
  0
ARC
  5
1E1
330
50
100
AcDbEntity
  8
0
  6
Continuous
 62
     0
100
AcDbCircle
 10
38.38717651367188
 20
14.75253200531006
 30
0.0
 40
20.0
100
AcDbArc
 50
95.00000150525099
 51
154.9999963447139
  0
ARC
  5
1E2
330
50
100
AcDbEntity
  8
0
  6
Continuous
 62
     0
100
AcDbCircle
 10
37.89925003051758
 20
13.70602416992188
 30
0.0
 40
14.0
100
AcDbArc
 50
95.00000150525099
 51
154.9999963447139
  0
ARC
  5
1E3
330
50
100
AcDbEntity
  8
0
  6
DASHED
 62
     0
100
AcDbCircle
 10
38.38719940185547
 20
14.7525520324707
 30
0.0
 40
15.80000019073486
100
AcDbArc
 50
95.00000150525099
 51
154.9999963447139
  0
ARC
  5
1E4
330
50
100
AcDbEntity
  8
0
  6
DASHED
 62
     0
100
AcDbCircle
 10
38.38724899291992
 20
14.75253772735596
 30
0.0
 40
17.0
100
AcDbArc
 50
95.00000150525099
 51
154.9999963447139
  0
ARC
  5
1E5
330
50
100
AcDbEntity
  8
0
  6
DASHED
 62
     0
100
AcDbCircle
 10
38.38719940185547
 20
14.7525520324707
 30
0.0
 40
18.79999923706055
100
AcDbArc
 50
95.00000150525099
 51
154.9999963447139
  0
DIMENSION
  5
1E6
330
50
100
AcDbEntity
  8
0
 62
     0
100
AcDbDimension
  2
*D19
 10
110.0000534057617
 20
67.12509918212889
 30
0.0
 11
49.16592080688476
 21
67.1250991821289
 31
0.0
 70
   160
 71
     5
 42
110.0000534057617
  3
ISO-25
100
AcDbAlignedDimension
 13
0.0
 23
7.347137451171875
 33
0.0
 14
110.0000534057617
 24
43.41412353515625
 34
0.0
 50
180.0
100
AcDbRotatedDimension
1001
ACAD
1000
DSTYLE
1002
{
1070
   178
1070
     1
1070
   147
1040
0.800000011920929
1070
    77
1070
     1
1070
    74
1070
     0
1070
    73
1070
     0
1070
    42
1040
2.54
1070
    44
1040
1.0
1070
    76
1070
     1
1070
    75
1070
     0
1070
   279
1070
     0
1070
   271
1070
     0
1070
   144
1040
1.0
1070
   278
1070
    46
1070
   173
1070
     1
1070
    41
1040
3.0
1070
   140
1040
3.200000047683716
1070
   344
1005
B8
1070
   343
1005
B8
1002
}
  0
DIMENSION
  5
1F2
330
50
100
AcDbEntity
  8
0
 62
     0
100
AcDbDimension
  2
*D20
 10
110.0000534057617
 20
73.74277496337889
 30
0.0
 11
48.59869058227539
 21
73.7427749633789
 31
0.0
 70
   160
 71
     5
 42
120.0000534057617
  3
ISO-25
100
AcDbAlignedDimension
 13
-10.0
 23
1.199996948242188
 33
0.0
 14
110.0000534057617
 24
43.41412353515625
 34
0.0
 50
180.0
100
AcDbRotatedDimension
1001
ACAD
1000
DSTYLE
1002
{
1070
   178
1070
     1
1070
   147
1040
0.800000011920929
1070
    77
1070
     1
1070
    74
1070
     0
1070
    73
1070
     0
1070
    42
1040
2.54
1070
    44
1040
1.0
1070
    76
1070
     0
1070
    75
1070
     0
1070
   279
1070
     0
1070
   271
1070
     0
1070
   144
1040
1.0
1070
   278
1070
    46
1070
   173
1070
     1
1070
    41
1040
3.0
1070
   140
1040
3.200000047683716
1070
   344
1005
B8
1070
   343
1005
B8
1002
}
  0
DIMENSION
  5
1FF
330
50
100
AcDbEntity
  8
0
 62
     0
100
AcDbDimension
  2
*D21
 10
-2.749999999999993
 20
61.37936401367188
 30
0.0
 11
-21.74240008556842
 21
61.37936401367188
 31
0.0
 70
   160
 71
     5
 42
7.25
  3
ISO-25
100
AcDbAlignedDimension
 13
-10.0
 23
1.199996948242188
 33
0.0
 14
-2.75
 24
1.199996948242188
 34
0.0
 50
180.0
100
AcDbRotatedDimension
1001
ACAD
1000
DSTYLE
1002
{
1070
   178
1070
     1
1070
   147
1040
0.800000011920929
1070
    77
1070
     1
1070
    74
1070
     0
1070
    73
1070
     0
1070
    42
1040
2.54
1070
    44
1040
1.0
1070
    76
1070
     0
1070
    75
1070
     1
1070
   279
1070
     0
1070
   271
1070
     2
1070
   144
1040
1.0
1070
   278
1070
    46
1070
   173
1070
     1
1070
    41
1040
3.0
1070
   140
1040
3.200000047683716
1070
   344
1005
B8
1070
   343
1005
B8
1002
}
  0
DIMENSION
  5
215
330
50
100
AcDbEntity
  8
0
 62
     0
100
AcDbDimension
  2
*D22
 10
9.999968528747564
 20
50.67544555664062
 30
0.0
 11
4.922027660369873
 21
50.67544555664062
 31
0.0
 70
   160
 71
     5
 42
19.99996948242188
  3
ISO-25
100
AcDbAlignedDimension
 13
-10.0
 23
1.199996948242188
 33
0.0
 14
9.999968528747559
 24
1.199996948242188
 34
0.0
 50
180.0
100
AcDbRotatedDimension
1001
ACAD
1000
DSTYLE
1002
{
1070
   178
1070
     1
1070
   147
1040
0.800000011920929
1070
    77
1070
     1
1070
    74
1070
     0
1070
    73
1070
     0
1070
    42
1040
2.54
1070
    44
1040
1.0
1070
    76
1070
     0
1070
    75
1070
     1
1070
   279
1070
     0
1070
   271
1070
     0
1070
   144
1040
1.000000047683791
1070
   278
1070
    46
1070
   173
1070
     1
1070
    41
1040
3.0
1070
   140
1040
3.200000047683716
1070
   344
1005
B8
1070
   343
1005
B8
1002
}
  0
DIMENSION
  5
227
330
50
100
AcDbEntity
  8
0
 62
     0
100
AcDbDimension
  2
*D23
 10
110.0000534057617
 20
60.5074234008789
 30
0.0
 11
63.91388375854492
 21
60.50742340087891
 31
0.0
 70
   160
 71
     5
 42
84.0642623901367
  3
ISO-25
100
AcDbAlignedDimension
 13
25.935791015625
 23
32.53500747680664
 33
0.0
 14
110.0000534057617
 24
43.41412353515625
 34
0.0
 50
180.0
100
AcDbRotatedDimension
1001
ACAD
1000
DSTYLE
1002
{
1070
   178
1070
     1
1070
   147
1040
0.800000011920929
1070
    77
1070
     1
1070
    74
1070
     0
1070
    73
1070
     0
1070
    42
1040
2.54
1070
    44
1040
1.0
1070
    76
1070
     1
1070
    75
1070
     0
1070
   279
1070
     0
1070
   271
1070
     1
1070
   144
1040
1.0
1070
   278
1070
    46
1070
   173
1070
     1
1070
    41
1040
3.0
1070
   140
1040
3.200000047683716
1070
   344
1005
B8
1070
   343
1005
B8
1002
}
  0
DIMENSION
  5
233
330
50
100
AcDbEntity
  8
0
 62
     0
100
AcDbDimension
  2
*D24
 10
110.0000534057617
 20
-46.19900076293946
 30
0.0
 11
53.0260015258789
 21
-46.19900076293946
 31
0.0
 70
   160
 71
     5
 42
110.0000534057617
  3
ISO-25
100
AcDbAlignedDimension
 13
0.0
 23
-9.3109130859375
 33
0.0
 14
110.0000534057617
 24
-13.58587646484375
 34
0.0
 50
180.0
100
AcDbRotatedDimension
1001
ACAD
1000
DSTYLE
1002
{
1070
   178
1070
     1
1070
   147
1040
0.800000011920929
1070
    77
1070
     1
1070
    74
1070
     0
1070
    73
1070
     0
1070
    42
1040
2.54
1070
    44
1040
1.0
1070
    76
1070
     0
1070
    75
1070
     0
1070
   279
1070
     0
1070
   271
1070
     0
1070
   144
1040
1.0
1070
   278
1070
    46
1070
   173
1070
     1
1070
    41
1040
3.0
1070
   140
1040
3.200000047683716
1070
   344
1005
B8
1070
   343
1005
B8
1002
}
  0
ENDBLK
  5
52
330
50
100
AcDbEntity
  8
0
100
AcDbBlockEnd
  0
BLOCK
  5
54
330
53
100
AcDbEntity
  8
0
100
AcDbBlockBegin
  2
DTL0006
 70
     0
 10
0.0
 20
0.0
 30
0.0
  3
DTL0006
  1

  0
POINT
  5
240
330
53
100
AcDbEntity
  8
0
 62
     0
100
AcDbPoint
 10
0.0
 20
0.0
 30
0.0
  0
POINT
  5
241
330
53
100
AcDbEntity
  8
0
 62
     0
100
AcDbPoint
 10
-5.0
 20
2.399993896484375
 30
0.0
  0
POINT
  5
242
330
53
100
AcDbEntity
  8
0
 62
     0
100
AcDbPoint
 10
-5.0
 20
2.199993848800659
 30
0.0
  0
LINE
  5
243
330
53
100
AcDbEntity
  8
0
  6
Continuous
 62
     0
100
AcDbLine
 10
-5.0
 20
1.199993848800659
 30
0.0
 11
-5.0
 21
2.199993848800659
 31
0.0
  0
LINE
  5
244
330
53
100
AcDbEntity
  8
0
  6
Continuous
 62
     0
100
AcDbLine
 10
-4.5999755859375
 20
2.199993848800659
 30
0.0
 11
-4.5999755859375
 21
3.499996900558472
 31
0.0
  0
LINE
  5
245
330
53
100
AcDbEntity
  8
0
  6
Continuous
 62
     0
100
AcDbLine
 10
5.0
 20
2.199993848800659
 30
0.0
 11
-5.0
 21
2.199993848800659
 31
0.0
  0
LINE
  5
246
330
53
100
AcDbEntity
  8
0
  6
Continuous
 62
     0
100
AcDbLine
 10
4.60003662109375
 20
3.499996900558472
 30
0.0
 11
-4.5999755859375
 21
3.499996900558472
 31
0.0
  0
LINE
  5
247
330
53
100
AcDbEntity
  8
0
  6
Continuous
 62
     0
100
AcDbLine
 10
-11.0
 20
11.33836078643799
 30
0.0
 11
-11.0
 21
13.49999713897705
 31
0.0
  0
LINE
  5
248
330
53
100
AcDbEntity
  8
0
  6
Continuous
 62
     0
100
AcDbLine
 10
-9.0
 20
13.49999713897705
 30
0.0
 11
-11.0
 21
13.49999713897705
 31
0.0
  0
LINE
  5
249
330
53
100
AcDbEntity
  8
0
  6
Continuous
 62
     0
100
AcDbLine
 10
-5.0
 20
6.499997138977051
 30
0.0
 11
-5.0
 21
9.49999713897705
 31
0.0
  0
LINE
  5
24A
330
53
100
AcDbEntity
  8
0
  6
Continuous
 62
     0
100
AcDbLine
 10
5.0
 20
6.499997138977051
 30
0.0
 11
-5.0
 21
6.499997138977051
 31
0.0
  0
LINE
  5
24B
330
53
100
AcDbEntity
  8
0
  6
Continuous
 62
     0
100
AcDbLine
 10
-2.5
 20
6.499997138977051
 30
0.0
 11
-2.5
 21
13.99999713897705
 31
0.0
  0
LINE
  5
24C
330
53
100
AcDbEntity
  8
0
  6
Continuous
 62
     0
100
AcDbLine
 10
-2.0
 20
6.499997138977051
 30
0.0
 11
-2.0
 21
13.99999713897705
 31
0.0
  0
LINE
  5
24D
330
53
100
AcDbEntity
  8
0
  6
Continuous
 62
     0
100
AcDbLine
 10
2.0
 20
6.499997138977051
 30
0.0
 11
2.0
 21
13.99999713897705
 31
0.0
  0
LINE
  5
24E
330
53
100
AcDbEntity
  8
0
  6
Continuous
 62
     0
100
AcDbLine
 10
2.5
 20
6.499997138977051
 30
0.0
 11
2.5
 21
13.99999713897705
 31
0.0
  0
LINE
  5
24F
330
53
100
AcDbEntity
  8
0
  6
Continuous
 62
     0
100
AcDbLine
 10
-2.5
 20
13.99999713897705
 30
0.0
 11
2.5
 21
13.99999713897705
 31
0.0
  0
LINE
  5
250
330
53
100
AcDbEntity
  8
0
  6
Continuous
 62
     0
100
AcDbLine
 10
5.0
 20
6.499997138977051
 30
0.0
 11
5.0
 21
9.49999713897705
 31
0.0
  0
LINE
  5
251
330
53
100
AcDbEntity
  8
0
  6
Continuous
 62
     0
100
AcDbLine
 10
9.0
 20
13.49999713897705
 30
0.0
 11
11.0
 21
13.49999713897705
 31
0.0
  0
LINE
  5
252
330
53
100
AcDbEntity
  8
0
  6
Continuous
 62
     0
100
AcDbLine
 10
11.0
 20
11.33836078643799
 30
0.0
 11
11.0
 21
13.49999713897705
 31
0.0
  0
LINE
  5
253
330
53
100
AcDbEntity
  8
0
  6
Continuous
 62
     0
100
AcDbLine
 10
4.60003662109375
 20
2.199993848800659
 30
0.0
 11
4.60003662109375
 21
3.499996900558472
 31
0.0
  0
LINE
  5
254
330
53
100
AcDbEntity
  8
0
  6
Continuous
 62
     0
100
AcDbLine
 10
5.0
 20
1.199993848800659
 30
0.0
 11
5.0
 21
2.199993848800659
 31
0.0
  0
LINE
  5
255
330
53
100
AcDbEntity
  8
0
  6
Continuous
 62
     0
100
AcDbLine
 10
0.7505764456015
 20
3.500002948091361
 30
0.0
 11
0.402243389844193
 21
2.200006147254101
 31
0.0
  0
LINE
  5
256
330
53
100
AcDbEntity
  8
0
  6
Continuous
 62
     0
100
AcDbLine
 10
-0.750533937837359
 20
2.199996265881218
 30
0.0
 11
-0.402200912933684
 21
3.499992951571145
 31
0.0
  0
ARC
  5
257
330
53
100
AcDbEntity
  8
0
  6
Continuous
 62
     0
100
AcDbCircle
 10
-3.0
 20
11.33836078643799
 30
0.0
 40
8.0
100
AcDbArc
 50
179.999991348578
 51
258.4630461939067
  0
ARC
  5
258
330
53
100
AcDbEntity
  8
0
  6
Continuous
 62
     0
100
AcDbCircle
 10
-9.0
 20
9.49999713897705
 30
0.0
 40
4.0
100
AcDbArc
 50
0.0
 51
90.00000250447816
  0
ARC
  5
259
330
53
100
AcDbEntity
  8
0
  6
Continuous
 62
     0
100
AcDbCircle
 10
3.0
 20
11.33836078643799
 30
0.0
 40
8.0
100
AcDbArc
 50
281.5369588150496
 51
359.9999999999999
  0
ARC
  5
25A
330
53
100
AcDbEntity
  8
0
  6
Continuous
 62
     0
100
AcDbCircle
 10
9.0
 20
9.49999713897705
 30
0.0
 40
4.0
100
AcDbArc
 50
90.00000250447816
 51
180.0000050089563
  0
ENDBLK
  5
55
330
53
100
AcDbEntity
  8
0
100
AcDbBlockEnd
  0
BLOCK
  5
57
330
56
100
AcDbEntity
  8
0
100
AcDbBlockBegin
  2
DTL0007
 70
     0
 10
0.0
 20
0.0
 30
0.0
  3
DTL0007
  1

  0
POINT
  5
25B
330
56
100
AcDbEntity
  8
0
 62
     0
100
AcDbPoint
 10
0.0
 20
0.0
 30
0.0
  0
POINT
  5
25C
330
56
100
AcDbEntity
  8
0
 62
     0
100
AcDbPoint
 10
0.0
 20
0.0
 30
0.0
  0
LINE
  5
25D
330
56
100
AcDbEntity
  8
0
  6
Continuous
 62
     0
100
AcDbLine
 10
-21.99997711181641
 20
-2.5
 30
0.0
 11
-21.99997711181641
 21
-4.5
 31
0.0
  0
LINE
  5
25E
330
56
100
AcDbEntity
  8
0
  6
Continuous
 62
     0
100
AcDbLine
 10
-16.99997711181641
 20
-2.5
 30
0.0
 11
-16.99997711181641
 21
-4.0
 31
0.0
  0
LINE
  5
25F
330
56
100
AcDbEntity
  8
0
  6
Continuous
 62
     0
100
AcDbLine
 10
-11.99997711181641
 20
-2.5
 30
0.0
 11
-11.99997711181641
 21
-4.0
 31
0.0
  0
LINE
  5
260
330
56
100
AcDbEntity
  8
0
  6
Continuous
 62
     0
100
AcDbLine
 10
-6.999977111816406
 20
-2.5
 30
0.0
 11
-6.999977111816406
 21
-4.5
 31
0.0
  0
LINE
  5
261
330
56
100
AcDbEntity
  8
0
  6
Continuous
 62
     0
100
AcDbLine
 10
-1.999977111816406
 20
-2.5
 30
0.0
 11
-1.999977111816406
 21
-4.0
 31
0.0
  0
LINE
  5
262
330
56
100
AcDbEntity
  8
0
  6
Continuous
 62
     0
100
AcDbLine
 10
3.000022888183594
 20
-2.5
 30
0.0
 11
3.000022888183594
 21
-4.0
 31
0.0
  0
LINE
  5
263
330
56
100
AcDbEntity
  8
0
  6
Continuous
 62
     0
100
AcDbLine
 10
8.000022888183594
 20
-2.5
 30
0.0
 11
8.000022888183594
 21
-4.5
 31
0.0
  0
MTEXT
  5
264
330
56
100
AcDbEntity
  8
0
 62
     1
100
AcDbMText
 10
-23.29893264174461
 20
-6.823459625244141
 30
0.0
 40
2.0
 41
0.0
 71
     7
 72
     1
  1
{\W1;30}
 73
     1
 44
1.0
  0
MTEXT
  5
265
330
56
100
AcDbEntity
  8
0
 62
     1
100
AcDbMText
 10
-8.298932164907455
 20
-6.823459625244141
 30
0.0
 40
2.0
 41
0.0
 71
     7
 72
     1
  1
{\W1;45}
 73
     1
 44
1.0
  0
MTEXT
  5
266
330
56
100
AcDbEntity
  8
0
 62
     1
100
AcDbMText
 10
6.701067835092545
 20
-6.823459625244141
 30
0.0
 40
2.0
 41
0.0
 71
     7
 72
     1
  1
{\W1;60}
 73
     1
 44
1.0
  0
ENDBLK
  5
58
330
56
100
AcDbEntity
  8
0
100
AcDbBlockEnd
  0
BLOCK
  5
B9
330
B8
100
AcDbEntity
  8
0
100
AcDbBlockBegin
  2
_OPEN30
 70
     0
 10
0.0
 20
0.0
 30
0.0
  3
_OPEN30
  1

  0
LINE
  5
BB
330
B8
100
AcDbEntity
  8
0
  6
ByBlock
 62
     0
370
    -2
100
AcDbLine
 10
-1.0
 20
0.267949
 30
0.0
 11
0.0
 21
0.0
 31
0.0
  0
LINE
  5
BC
330
B8
100
AcDbEntity
  8
0
  6
ByBlock
 62
     0
370
    -2
100
AcDbLine
 10
0.0
 20
0.0
 30
0.0
 11
-1.0
 21
-0.267949
 31
0.0
  0
LINE
  5
BD
330
B8
100
AcDbEntity
  8
0
  6
ByBlock
 62
     0
370
    -2
100
AcDbLine
 10
0.0
 20
0.0
 30
0.0
 11
-1.0
 21
0.0
 31
0.0
  0
ENDBLK
  5
BA
330
B8
100
AcDbEntity
  8
0
100
AcDbBlockEnd
  0
BLOCK
  5
C0
330
BF
100
AcDbEntity
  8
0
100
AcDbBlockBegin
  2
*D9
 70
     1
 10
0.0
 20
0.0
 30
0.0
  3
*D9
  1

  0
LINE
  5
C2
330
BF
100
AcDbEntity
  8
0
 62
     0
370
    -2
100
AcDbLine
 10
-10.0
 20
3.739996948242188
 30
0.0
 11
-9.999999999999986
 21
71.09814453125
 31
0.0
  0
LINE
  5
C3
330
BF
100
AcDbEntity
  8
0
 62
     0
370
    -2
100
AcDbLine
 10
88.0
 20
43.02783874511719
 30
0.0
 11
88.0
 21
71.09814453124999
 31
0.0
  0
LINE
  5
C4
330
BF
100
AcDbEntity
  8
0
 62
     0
370
    -2
100
AcDbLine
 10
-6.999999999999986
 20
70.09814453125
 30
0.0
 11
85.0
 21
70.09814453124999
 31
0.0
  0
INSERT
  5
C5
330
BF
100
AcDbEntity
  8
0
 62
     0
370
    -2
100
AcDbBlockReference
  2
_OPEN30
 10
-9.999999999999986
 20
70.09814453125
 30
0.0
 41
3.0
 42
3.0
 43
3.0
 50
180.0
  0
INSERT
  5
C6
330
BF
100
AcDbEntity
  8
0
 62
     0
370
    -2
100
AcDbBlockReference
  2
_OPEN30
 10
88.0
 20
70.09814453124999
 30
0.0
 41
3.0
 42
3.0
 43
3.0
 50
360.0
  0
MTEXT
  5
C7
330
BF
100
AcDbEntity
  8
0
 62
     1
100
AcDbMText
 10
36.98334939575195
 20
72.51254456722737
 30
0.0
 40
3.200000047683716
 41
0.0
 71
     5
 72
     1
  1
98
 73
     1
 44
1.0
  0
POINT
  5
C8
330
BF
100
AcDbEntity
  8
Defpoints
 62
     0
100
AcDbPoint
 10
-10.0
 20
1.199996948242188
 30
0.0
  0
POINT
  5
C9
330
BF
100
AcDbEntity
  8
Defpoints
 62
     0
100
AcDbPoint
 10
88.0
 20
40.48783874511719
 30
0.0
  0
POINT
  5
CA
330
BF
100
AcDbEntity
  8
Defpoints
 62
     0
100
AcDbPoint
 10
88.00000000000001
 20
70.09814453125
 30
0.0
  0
ENDBLK
  5
C1
330
BF
100
AcDbEntity
  8
0
100
AcDbBlockEnd
  0
BLOCK
  5
CD
330
CC
100
AcDbEntity
  8
0
100
AcDbBlockBegin
  2
*D10
 70
     1
 10
0.0
 20
0.0
 30
0.0
  3
*D10
  1

  0
LINE
  5
CF
330
CC
100
AcDbEntity
  8
0
 62
     0
370
    -2
100
AcDbLine
 10
9.999910354614258
 20
3.739996948242188
 30
0.0
 11
9.999910354614272
 21
62.51486587524414
 31
0.0
  0
LINE
  5
D0
330
CC
100
AcDbEntity
  8
0
 62
     0
370
    -2
100
AcDbLine
 10
12.99991035461427
 20
61.51486587524414
 30
0.0
 11
85.0
 21
61.51486587524413
 31
0.0
  0
INSERT
  5
D1
330
CC
100
AcDbEntity
  8
0
 62
     0
370
    -2
100
AcDbBlockReference
  2
_OPEN30
 10
9.999910354614272
 20
61.51486587524414
 30
0.0
 41
3.0
 42
3.0
 43
3.0
 50
180.0
  0
INSERT
  5
D2
330
CC
100
AcDbEntity
  8
0
 62
     0
370
    -2
100
AcDbBlockReference
  2
_OPEN30
 10
88.0
 20
61.51486587524413
 30
0.0
 41
3.0
 42
3.0
 43
3.0
 50
360.0
  0
MTEXT
  5
D3
330
CC
100
AcDbEntity
  8
0
 62
     1
100
AcDbMText
 10
45.98875482177734
 20
63.92926591122151
 30
0.0
 40
3.200000047683716
 41
0.0
 71
     5
 72
     1
  1
78
 73
     1
 44
1.0
  0
POINT
  5
D4
330
CC
100
AcDbEntity
  8
Defpoints
 62
     0
100
AcDbPoint
 10
9.999910354614258
 20
1.199996948242188
 30
0.0
  0
POINT
  5
D5
330
CC
100
AcDbEntity
  8
Defpoints
 62
     0
100
AcDbPoint
 10
88.0
 20
44.06312561035156
 30
0.0
  0
POINT
  5
D6
330
CC
100
AcDbEntity
  8
Defpoints
 62
     0
100
AcDbPoint
 10
88.00000000000001
 20
61.51486587524414
 30
0.0
  0
ENDBLK
  5
CE
330
CC
100
AcDbEntity
  8
0
100
AcDbBlockEnd
  0
BLOCK
  5
D9
330
D8
100
AcDbEntity
  8
0
100
AcDbBlockBegin
  2
*D11
 70
     1
 10
0.0
 20
0.0
 30
0.0
  3
*D11
  1

  0
LINE
  5
DB
330
D8
100
AcDbEntity
  8
0
 62
     0
370
    -2
100
AcDbLine
 10
87.54
 20
43.48783874511719
 30
0.0
 11
113.3307958374023
 21
43.4878387451172
 31
0.0
  0
LINE
  5
DC
330
D8
100
AcDbEntity
  8
0
 62
     0
370
    -2
100
AcDbLine
 10
89.3399267578125
 20
-16.51216125488281
 30
0.0
 11
113.3307958374024
 21
-16.5121612548828
 31
0.0
  0
LINE
  5
DD
330
D8
100
AcDbEntity
  8
0
 62
     0
370
    -2
100
AcDbLine
 10
112.3307958374023
 20
40.4878387451172
 30
0.0
 11
112.3307958374024
 21
-13.5121612548828
 31
0.0
  0
INSERT
  5
DE
330
D8
100
AcDbEntity
  8
0
 62
     0
370
    -2
100
AcDbBlockReference
  2
_OPEN30
 10
112.3307958374023
 20
43.4878387451172
 30
0.0
 41
3.0
 42
3.0
 43
3.0
 50
90.00000000000001
  0
INSERT
  5
DF
330
D8
100
AcDbEntity
  8
0
 62
     0
370
    -2
100
AcDbBlockReference
  2
_OPEN30
 10
112.3307958374024
 20
-16.5121612548828
 30
0.0
 41
3.0
 42
3.0
 43
3.0
 50
270.0
  0
MTEXT
  5
E0
330
D8
100
AcDbEntity
  8
0
 62
     1
100
AcDbMText
 10
109.916395801425
 20
16.44135720825195
 30
0.0
 40
3.200000047683716
 41
0.0
 71
     5
 72
     1
  1
60
 11
-4.736951571734001E-16
 21
1.0
 31
0.0
 73
     1
 44
1.0
  0
POINT
  5
E1
330
D8
100
AcDbEntity
  8
Defpoints
 62
     0
100
AcDbPoint
 10
85.0
 20
43.48783874511719
 30
0.0
  0
POINT
  5
E2
330
D8
100
AcDbEntity
  8
Defpoints
 62
     0
100
AcDbPoint
 10
86.7999267578125
 20
-16.51216125488281
 30
0.0
  0
POINT
  5
E3
330
D8
100
AcDbEntity
  8
Defpoints
 62
     0
100
AcDbPoint
 10
112.3297958374023
 20
-16.5121612548828
 30
0.0
  0
ENDBLK
  5
DA
330
D8
100
AcDbEntity
  8
0
100
AcDbBlockEnd
  0
BLOCK
  5
E6
330
E5
100
AcDbEntity
  8
0
100
AcDbBlockBegin
  2
*D12
 70
     1
 10
0.0
 20
0.0
 30
0.0
  3
*D12
  1

  0
LINE
  5
E8
330
E5
100
AcDbEntity
  8
0
 62
     0
370
    -2
100
AcDbLine
 10
24.65405464172363
 20
35.16591171264648
 30
0.0
 11
24.65405464172363
 21
54.91655349731445
 31
0.0
  0
LINE
  5
E9
330
E5
100
AcDbEntity
  8
0
 62
     0
370
    -2
100
AcDbLine
 10
27.65405464172363
 20
53.91655349731445
 30
0.0
 11
85.0
 21
53.91655349731445
 31
0.0
  0
INSERT
  5
EA
330
E5
100
AcDbEntity
  8
0
 62
     0
370
    -2
100
AcDbBlockReference
  2
_OPEN30
 10
24.65405464172363
 20
53.91655349731445
 30
0.0
 41
3.0
 42
3.0
 43
3.0
 50
180.0
  0
INSERT
  5
EB
330
E5
100
AcDbEntity
  8
0
 62
     0
370
    -2
100
AcDbBlockReference
  2
_OPEN30
 10
88.0
 20
53.91655349731445
 30
0.0
 41
3.0
 42
3.0
 43
3.0
 50
360.0
  0
MTEXT
  5
EC
330
E5
100
AcDbEntity
  8
0
 62
     1
100
AcDbMText
 10
54.1499028930664
 20
56.33735353338719
 30
0.0
 40
3.200000047683716
 41
0.0
 71
     5
 72
     1
  1
63.3
 73
     1
 44
1.0
  0
POINT
  5
ED
330
E5
100
AcDbEntity
  8
Defpoints
 62
     0
100
AcDbPoint
 10
24.65405464172363
 20
32.62591171264648
 30
0.0
  0
POINT
  5
EE
330
E5
100
AcDbEntity
  8
Defpoints
 62
     0
100
AcDbPoint
 10
88.0
 20
40.48783874511719
 30
0.0
  0
POINT
  5
EF
330
E5
100
AcDbEntity
  8
Defpoints
 62
     0
100
AcDbPoint
 10
88.0
 20
53.91655349731445
 30
0.0
  0
ENDBLK
  5
E7
330
E5
100
AcDbEntity
  8
0
100
AcDbBlockEnd
  0
BLOCK
  5
F2
330
F1
100
AcDbEntity
  8
0
100
AcDbBlockBegin
  2
*D13
 70
     1
 10
0.0
 20
0.0
 30
0.0
  3
*D13
  1

  0
LINE
  5
F4
330
F1
100
AcDbEntity
  8
0
 62
     0
370
    -2
100
AcDbLine
 10
-6.999999999999993
 20
61.51486587524414
 30
0.0
 11
6.999910354614265
 21
61.51486587524414
 31
0.0
  0
INSERT
  5
F5
330
F1
100
AcDbEntity
  8
0
 62
     0
370
    -2
100
AcDbBlockReference
  2
_OPEN30
 10
-9.999999999999993
 20
61.51486587524414
 30
0.0
 41
3.0
 42
3.0
 43
3.0
 50
180.0
  0
INSERT
  5
F6
330
F1
100
AcDbEntity
  8
0
 62
     0
370
    -2
100
AcDbBlockReference
  2
_OPEN30
 10
9.999910354614265
 20
61.51486587524414
 30
0.0
 41
3.0
 42
3.0
 43
3.0
  0
MTEXT
  5
F7
330
F1
100
AcDbEntity
  8
0
 62
     1
100
AcDbMText
 10
1.500955177307129
 20
63.92926591122151
 30
0.0
 40
3.200000047683716
 41
0.0
 71
     5
 72
     1
  1
20
 73
     1
 44
1.0
  0
POINT
  5
F8
330
F1
100
AcDbEntity
  8
Defpoints
 62
     0
100
AcDbPoint
 10
-10.0
 20
1.199996948242188
 30
0.0
  0
POINT
  5
F9
330
F1
100
AcDbEntity
  8
Defpoints
 62
     0
100
AcDbPoint
 10
9.999910354614258
 20
1.199996948242188
 30
0.0
  0
POINT
  5
FA
330
F1
100
AcDbEntity
  8
Defpoints
 62
     0
100
AcDbPoint
 10
9.999910354614265
 20
61.51486587524414
 30
0.0
  0
ENDBLK
  5
F3
330
F1
100
AcDbEntity
  8
0
100
AcDbBlockEnd
  0
BLOCK
  5
165
330
164
100
AcDbEntity
  8
0
100
AcDbBlockBegin
  2
*D14
 70
     1
 10
0.0
 20
0.0
 30
0.0
  3
*D14
  1

  0
LINE
  5
167
330
164
100
AcDbEntity
  8
0
 62
     0
370
    -2
100
AcDbLine
 10
-10.0
 20
3.739996948242188
 30
0.0
 11
-9.999999999999986
 21
71.09814453125
 31
0.0
  0
LINE
  5
168
330
164
100
AcDbEntity
  8
0
 62
     0
370
    -2
100
AcDbLine
 10
88.0
 20
43.02783874511719
 30
0.0
 11
88.0
 21
71.09814453124999
 31
0.0
  0
LINE
  5
169
330
164
100
AcDbEntity
  8
0
 62
     0
370
    -2
100
AcDbLine
 10
-6.999999999999986
 20
70.09814453125
 30
0.0
 11
85.0
 21
70.09814453124999
 31
0.0
  0
INSERT
  5
16A
330
164
100
AcDbEntity
  8
0
 62
     0
370
    -2
100
AcDbBlockReference
  2
_OPEN30
 10
-9.999999999999986
 20
70.09814453125
 30
0.0
 41
3.0
 42
3.0
 43
3.0
 50
180.0
  0
INSERT
  5
16B
330
164
100
AcDbEntity
  8
0
 62
     0
370
    -2
100
AcDbBlockReference
  2
_OPEN30
 10
88.0
 20
70.09814453124999
 30
0.0
 41
3.0
 42
3.0
 43
3.0
 50
360.0
  0
MTEXT
  5
16C
330
164
100
AcDbEntity
  8
0
 62
     1
100
AcDbMText
 10
36.98334939575195
 20
72.51254456722737
 30
0.0
 40
3.200000047683716
 41
0.0
 71
     5
 72
     1
  1
98
 73
     1
 44
1.0
  0
POINT
  5
16D
330
164
100
AcDbEntity
  8
Defpoints
 62
     0
100
AcDbPoint
 10
-10.0
 20
1.199996948242188
 30
0.0
  0
POINT
  5
16E
330
164
100
AcDbEntity
  8
Defpoints
 62
     0
100
AcDbPoint
 10
88.0
 20
40.48783874511719
 30
0.0
  0
POINT
  5
16F
330
164
100
AcDbEntity
  8
Defpoints
 62
     0
100
AcDbPoint
 10
88.00000000000001
 20
70.09814453125
 30
0.0
  0
ENDBLK
  5
166
330
164
100
AcDbEntity
  8
0
100
AcDbBlockEnd
  0
BLOCK
  5
172
330
171
100
AcDbEntity
  8
0
100
AcDbBlockBegin
  2
*D15
 70
     1
 10
0.0
 20
0.0
 30
0.0
  3
*D15
  1

  0
LINE
  5
174
330
171
100
AcDbEntity
  8
0
 62
     0
370
    -2
100
AcDbLine
 10
9.999910354614258
 20
3.739996948242188
 30
0.0
 11
9.999910354614272
 21
62.51486587524414
 31
0.0
  0
LINE
  5
175
330
171
100
AcDbEntity
  8
0
 62
     0
370
    -2
100
AcDbLine
 10
12.99991035461427
 20
61.51486587524414
 30
0.0
 11
85.0
 21
61.51486587524413
 31
0.0
  0
INSERT
  5
176
330
171
100
AcDbEntity
  8
0
 62
     0
370
    -2
100
AcDbBlockReference
  2
_OPEN30
 10
9.999910354614272
 20
61.51486587524414
 30
0.0
 41
3.0
 42
3.0
 43
3.0
 50
180.0
  0
INSERT
  5
177
330
171
100
AcDbEntity
  8
0
 62
     0
370
    -2
100
AcDbBlockReference
  2
_OPEN30
 10
88.0
 20
61.51486587524413
 30
0.0
 41
3.0
 42
3.0
 43
3.0
 50
360.0
  0
MTEXT
  5
178
330
171
100
AcDbEntity
  8
0
 62
     1
100
AcDbMText
 10
45.98875482177734
 20
63.92926591122151
 30
0.0
 40
3.200000047683716
 41
0.0
 71
     5
 72
     1
  1
78
 73
     1
 44
1.0
  0
POINT
  5
179
330
171
100
AcDbEntity
  8
Defpoints
 62
     0
100
AcDbPoint
 10
9.999910354614258
 20
1.199996948242188
 30
0.0
  0
POINT
  5
17A
330
171
100
AcDbEntity
  8
Defpoints
 62
     0
100
AcDbPoint
 10
88.0
 20
44.06312561035156
 30
0.0
  0
POINT
  5
17B
330
171
100
AcDbEntity
  8
Defpoints
 62
     0
100
AcDbPoint
 10
88.00000000000001
 20
61.51486587524414
 30
0.0
  0
ENDBLK
  5
173
330
171
100
AcDbEntity
  8
0
100
AcDbBlockEnd
  0
BLOCK
  5
17E
330
17D
100
AcDbEntity
  8
0
100
AcDbBlockBegin
  2
*D16
 70
     1
 10
0.0
 20
0.0
 30
0.0
  3
*D16
  1

  0
LINE
  5
180
330
17D
100
AcDbEntity
  8
0
 62
     0
370
    -2
100
AcDbLine
 10
87.54
 20
43.48783874511719
 30
0.0
 11
113.3307958374023
 21
43.4878387451172
 31
0.0
  0
LINE
  5
181
330
17D
100
AcDbEntity
  8
0
 62
     0
370
    -2
100
AcDbLine
 10
89.3399267578125
 20
-16.51216125488281
 30
0.0
 11
113.3307958374024
 21
-16.5121612548828
 31
0.0
  0
LINE
  5
182
330
17D
100
AcDbEntity
  8
0
 62
     0
370
    -2
100
AcDbLine
 10
112.3307958374023
 20
40.4878387451172
 30
0.0
 11
112.3307958374024
 21
-13.5121612548828
 31
0.0
  0
INSERT
  5
183
330
17D
100
AcDbEntity
  8
0
 62
     0
370
    -2
100
AcDbBlockReference
  2
_OPEN30
 10
112.3307958374023
 20
43.4878387451172
 30
0.0
 41
3.0
 42
3.0
 43
3.0
 50
90.00000000000001
  0
INSERT
  5
184
330
17D
100
AcDbEntity
  8
0
 62
     0
370
    -2
100
AcDbBlockReference
  2
_OPEN30
 10
112.3307958374024
 20
-16.5121612548828
 30
0.0
 41
3.0
 42
3.0
 43
3.0
 50
270.0
  0
MTEXT
  5
185
330
17D
100
AcDbEntity
  8
0
 62
     1
100
AcDbMText
 10
109.916395801425
 20
16.44135720825195
 30
0.0
 40
3.200000047683716
 41
0.0
 71
     5
 72
     1
  1
60
 11
-4.736951571734001E-16
 21
1.0
 31
0.0
 73
     1
 44
1.0
  0
POINT
  5
186
330
17D
100
AcDbEntity
  8
Defpoints
 62
     0
100
AcDbPoint
 10
85.0
 20
43.48783874511719
 30
0.0
  0
POINT
  5
187
330
17D
100
AcDbEntity
  8
Defpoints
 62
     0
100
AcDbPoint
 10
86.7999267578125
 20
-16.51216125488281
 30
0.0
  0
POINT
  5
188
330
17D
100
AcDbEntity
  8
Defpoints
 62
     0
100
AcDbPoint
 10
112.3297958374023
 20
-16.5121612548828
 30
0.0
  0
ENDBLK
  5
17F
330
17D
100
AcDbEntity
  8
0
100
AcDbBlockEnd
  0
BLOCK
  5
18B
330
18A
100
AcDbEntity
  8
0
100
AcDbBlockBegin
  2
*D17
 70
     1
 10
0.0
 20
0.0
 30
0.0
  3
*D17
  1

  0
LINE
  5
18D
330
18A
100
AcDbEntity
  8
0
 62
     0
370
    -2
100
AcDbLine
 10
24.65405464172363
 20
35.16591171264648
 30
0.0
 11
24.65405464172363
 21
54.91655349731445
 31
0.0
  0
LINE
  5
18E
330
18A
100
AcDbEntity
  8
0
 62
     0
370
    -2
100
AcDbLine
 10
27.65405464172363
 20
53.91655349731445
 30
0.0
 11
85.0
 21
53.91655349731445
 31
0.0
  0
INSERT
  5
18F
330
18A
100
AcDbEntity
  8
0
 62
     0
370
    -2
100
AcDbBlockReference
  2
_OPEN30
 10
24.65405464172363
 20
53.91655349731445
 30
0.0
 41
3.0
 42
3.0
 43
3.0
 50
180.0
  0
INSERT
  5
190
330
18A
100
AcDbEntity
  8
0
 62
     0
370
    -2
100
AcDbBlockReference
  2
_OPEN30
 10
88.0
 20
53.91655349731445
 30
0.0
 41
3.0
 42
3.0
 43
3.0
 50
360.0
  0
MTEXT
  5
191
330
18A
100
AcDbEntity
  8
0
 62
     1
100
AcDbMText
 10
54.1499028930664
 20
56.33735353338719
 30
0.0
 40
3.200000047683716
 41
0.0
 71
     5
 72
     1
  1
63.3
 73
     1
 44
1.0
  0
POINT
  5
192
330
18A
100
AcDbEntity
  8
Defpoints
 62
     0
100
AcDbPoint
 10
24.65405464172363
 20
32.62591171264648
 30
0.0
  0
POINT
  5
193
330
18A
100
AcDbEntity
  8
Defpoints
 62
     0
100
AcDbPoint
 10
88.0
 20
40.48783874511719
 30
0.0
  0
POINT
  5
194
330
18A
100
AcDbEntity
  8
Defpoints
 62
     0
100
AcDbPoint
 10
88.0
 20
53.91655349731445
 30
0.0
  0
ENDBLK
  5
18C
330
18A
100
AcDbEntity
  8
0
100
AcDbBlockEnd
  0
BLOCK
  5
197
330
196
100
AcDbEntity
  8
0
100
AcDbBlockBegin
  2
*D18
 70
     1
 10
0.0
 20
0.0
 30
0.0
  3
*D18
  1

  0
LINE
  5
199
330
196
100
AcDbEntity
  8
0
 62
     0
370
    -2
100
AcDbLine
 10
-6.999999999999993
 20
61.51486587524414
 30
0.0
 11
6.999910354614265
 21
61.51486587524414
 31
0.0
  0
INSERT
  5
19A
330
196
100
AcDbEntity
  8
0
 62
     0
370
    -2
100
AcDbBlockReference
  2
_OPEN30
 10
-9.999999999999993
 20
61.51486587524414
 30
0.0
 41
3.0
 42
3.0
 43
3.0
 50
180.0
  0
INSERT
  5
19B
330
196
100
AcDbEntity
  8
0
 62
     0
370
    -2
100
AcDbBlockReference
  2
_OPEN30
 10
9.999910354614265
 20
61.51486587524414
 30
0.0
 41
3.0
 42
3.0
 43
3.0
  0
MTEXT
  5
19C
330
196
100
AcDbEntity
  8
0
 62
     1
100
AcDbMText
 10
1.500955177307129
 20
63.92926591122151
 30
0.0
 40
3.200000047683716
 41
0.0
 71
     5
 72
     1
  1
20
 73
     1
 44
1.0
  0
POINT
  5
19D
330
196
100
AcDbEntity
  8
Defpoints
 62
     0
100
AcDbPoint
 10
-10.0
 20
1.199996948242188
 30
0.0
  0
POINT
  5
19E
330
196
100
AcDbEntity
  8
Defpoints
 62
     0
100
AcDbPoint
 10
9.999910354614258
 20
1.199996948242188
 30
0.0
  0
POINT
  5
19F
330
196
100
AcDbEntity
  8
Defpoints
 62
     0
100
AcDbPoint
 10
9.999910354614265
 20
61.51486587524414
 30
0.0
  0
ENDBLK
  5
198
330
196
100
AcDbEntity
  8
0
100
AcDbBlockEnd
  0
BLOCK
  5
1E8
330
1E7
100
AcDbEntity
  8
0
100
AcDbBlockBegin
  2
*D19
 70
     1
 10
0.0
 20
0.0
 30
0.0
  3
*D19
  1

  0
LINE
  5
1EA
330
1E7
100
AcDbEntity
  8
0
 62
     0
370
    -2
100
AcDbLine
 10
0.000000000000001
 20
9.887137451171874
 30
0.0
 11
0.000000000000014
 21
68.1250991821289
 31
0.0
  0
LINE
  5
1EB
330
1E7
100
AcDbEntity
  8
0
 62
     0
370
    -2
100
AcDbLine
 10
3.000000000000014
 20
67.1250991821289
 30
0.0
 11
107.0000534057617
 21
67.12509918212889
 31
0.0
  0
INSERT
  5
1EC
330
1E7
100
AcDbEntity
  8
0
 62
     0
370
    -2
100
AcDbBlockReference
  2
_OPEN30
 10
0.000000000000014
 20
67.1250991821289
 30
0.0
 41
3.0
 42
3.0
 43
3.0
 50
180.0
  0
INSERT
  5
1ED
330
1E7
100
AcDbEntity
  8
0
 62
     0
370
    -2
100
AcDbBlockReference
  2
_OPEN30
 10
110.0000534057617
 20
67.12509918212889
 30
0.0
 41
3.0
 42
3.0
 43
3.0
 50
360.0
  0
MTEXT
  5
1EE
330
1E7
100
AcDbEntity
  8
0
 62
     1
100
AcDbMText
 10
49.16592080688476
 20
69.53949921810627
 30
0.0
 40
3.200000047683716
 41
0.0
 71
     5
 72
     1
  1
110
 73
     1
 44
1.0
  0
POINT
  5
1EF
330
1E7
100
AcDbEntity
  8
Defpoints
 62
     0
100
AcDbPoint
 10
0.0
 20
7.347137451171875
 30
0.0
  0
POINT
  5
1F0
330
1E7
100
AcDbEntity
  8
Defpoints
 62
     0
100
AcDbPoint
 10
110.0000534057617
 20
43.41412353515625
 30
0.0
  0
POINT
  5
1F1
330
1E7
100
AcDbEntity
  8
Defpoints
 62
     0
100
AcDbPoint
 10
110.0000534057617
 20
67.1250991821289
 30
0.0
  0
ENDBLK
  5
1E9
330
1E7
100
AcDbEntity
  8
0
100
AcDbBlockEnd
  0
BLOCK
  5
1F4
330
1F3
100
AcDbEntity
  8
0
100
AcDbBlockBegin
  2
*D20
 70
     1
 10
0.0
 20
0.0
 30
0.0
  3
*D20
  1

  0
LINE
  5
1F6
330
1F3
100
AcDbEntity
  8
0
 62
     0
370
    -2
100
AcDbLine
 10
-10.0
 20
3.739996948242188
 30
0.0
 11
-9.999999999999986
 21
74.7427749633789
 31
0.0
  0
LINE
  5
1F7
330
1F3
100
AcDbEntity
  8
0
 62
     0
370
    -2
100
AcDbLine
 10
110.0000534057617
 20
45.95412353515625
 30
0.0
 11
110.0000534057617
 21
74.74277496337889
 31
0.0
  0
LINE
  5
1F8
330
1F3
100
AcDbEntity
  8
0
 62
     0
370
    -2
100
AcDbLine
 10
-6.999999999999986
 20
73.7427749633789
 30
0.0
 11
107.0000534057617
 21
73.74277496337889
 31
0.0
  0
INSERT
  5
1F9
330
1F3
100
AcDbEntity
  8
0
 62
     0
370
    -2
100
AcDbBlockReference
  2
_OPEN30
 10
-9.999999999999986
 20
73.7427749633789
 30
0.0
 41
3.0
 42
3.0
 43
3.0
 50
180.0
  0
INSERT
  5
1FA
330
1F3
100
AcDbEntity
  8
0
 62
     0
370
    -2
100
AcDbBlockReference
  2
_OPEN30
 10
110.0000534057617
 20
73.74277496337889
 30
0.0
 41
3.0
 42
3.0
 43
3.0
 50
360.0
  0
MTEXT
  5
1FB
330
1F3
100
AcDbEntity
  8
0
 62
     1
100
AcDbMText
 10
48.59869058227539
 20
76.15717499935627
 30
0.0
 40
3.200000047683716
 41
0.0
 71
     5
 72
     1
  1
120
 73
     1
 44
1.0
  0
POINT
  5
1FC
330
1F3
100
AcDbEntity
  8
Defpoints
 62
     0
100
AcDbPoint
 10
-10.0
 20
1.199996948242188
 30
0.0
  0
POINT
  5
1FD
330
1F3
100
AcDbEntity
  8
Defpoints
 62
     0
100
AcDbPoint
 10
110.0000534057617
 20
43.41412353515625
 30
0.0
  0
POINT
  5
1FE
330
1F3
100
AcDbEntity
  8
Defpoints
 62
     0
100
AcDbPoint
 10
110.0000534057617
 20
73.7427749633789
 30
0.0
  0
ENDBLK
  5
1F5
330
1F3
100
AcDbEntity
  8
0
100
AcDbBlockEnd
  0
BLOCK
  5
201
330
200
100
AcDbEntity
  8
0
100
AcDbBlockBegin
  2
*D21
 70
     1
 10
0.0
 20
0.0
 30
0.0
  3
*D21
  1

  0
MTEXT
  5
20A
330
200
100
AcDbEntity
  8
0
 62
     1
100
AcDbMText
 10
-21.74240008556842
 20
63.80016404974461
 30
0.0
 40
3.200000047683716
 41
0.0
 71
     5
 72
     1
  1
7.25
 73
     1
 44
1.0
  0
POINT
  5
20B
330
200
100
AcDbEntity
  8
Defpoints
 62
     0
100
AcDbPoint
 10
-10.0
 20
1.199996948242188
 30
0.0
  0
POINT
  5
20C
330
200
100
AcDbEntity
  8
Defpoints
 62
     0
100
AcDbPoint
 10
-2.75
 20
1.199996948242188
 30
0.0
  0
POINT
  5
20D
330
200
100
AcDbEntity
  8
Defpoints
 62
     0
100
AcDbPoint
 10
-2.749999999999992
 20
61.37936401367188
 30
0.0
  0
LINE
  5
20E
330
200
100
AcDbEntity
  8
0
  6
Continuous
 62
     0
100
AcDbLine
 10
-2.75
 20
3.739996948242188
 30
0.0
 11
-2.75
 21
62.37936401367188
 31
0.0
  0
LINE
  5
20F
330
200
100
AcDbEntity
  8
0
  6
Continuous
 62
     0
100
AcDbLine
 10
-16.35
 20
61.37936401367188
 30
0.0
 11
3.6
 21
61.37936401367188
 31
0.0
  0
LINE
  5
210
330
200
100
AcDbEntity
  8
0
  6
Continuous
 62
     0
100
AcDbLine
 10
-10.0
 20
61.37936401367188
 30
0.0
 11
-13.05452566200562
 21
60.56090632937187
 31
0.0
  0
LINE
  5
211
330
200
100
AcDbEntity
  8
0
  6
Continuous
 62
     0
100
AcDbLine
 10
-10.0
 20
61.37936401367188
 30
0.0
 11
-13.05452566200562
 21
62.19782169797188
 31
0.0
  0
LINE
  5
212
330
200
100
AcDbEntity
  8
0
  6
Continuous
 62
     0
100
AcDbLine
 10
-2.75
 20
61.37936401367188
 30
0.0
 11
0.304525662005624
 21
62.19782169797188
 31
0.0
  0
LINE
  5
213
330
200
100
AcDbEntity
  8
0
  6
Continuous
 62
     0
100
AcDbLine
 10
-2.75
 20
61.37936401367188
 30
0.0
 11
0.304525662005624
 21
60.56090632937187
 31
0.0
  0
LINE
  5
214
330
200
100
AcDbEntity
  8
0
  6
Continuous
 62
     0
100
AcDbLine
 10
-10.0
 20
61.37936401367188
 30
0.0
 11
-22.02435111999512
 21
61.37936401367188
 31
0.0
  0
ENDBLK
  5
202
330
200
100
AcDbEntity
  8
0
100
AcDbBlockEnd
  0
BLOCK
  5
217
330
216
100
AcDbEntity
  8
0
100
AcDbBlockBegin
  2
*D22
 70
     1
 10
0.0
 20
0.0
 30
0.0
  3
*D22
  1

  0
MTEXT
  5
21D
330
216
100
AcDbEntity
  8
0
 62
     1
100
AcDbMText
 10
4.922027660369873
 20
53.08984559261799
 30
0.0
 40
3.200000047683716
 41
0.0
 71
     5
 72
     1
  1
20
 73
     1
 44
1.0
  0
POINT
  5
21E
330
216
100
AcDbEntity
  8
Defpoints
 62
     0
100
AcDbPoint
 10
-10.0
 20
1.199996948242188
 30
0.0
  0
POINT
  5
21F
330
216
100
AcDbEntity
  8
Defpoints
 62
     0
100
AcDbPoint
 10
9.999968528747559
 20
1.199996948242188
 30
0.0
  0
POINT
  5
220
330
216
100
AcDbEntity
  8
Defpoints
 62
     0
100
AcDbPoint
 10
9.999968528747564
 20
50.67544555664062
 30
0.0
  0
LINE
  5
221
330
216
100
AcDbEntity
  8
0
  6
Continuous
 62
     0
100
AcDbLine
 10
9.999968528747559
 20
3.739996948242188
 30
0.0
 11
9.999968528747559
 21
51.67544555664062
 31
0.0
  0
LINE
  5
222
330
216
100
AcDbEntity
  8
0
  6
Continuous
 62
     0
100
AcDbLine
 10
-16.35
 20
50.67544555664062
 30
0.0
 11
16.34996852874756
 21
50.67544555664062
 31
0.0
  0
LINE
  5
223
330
216
100
AcDbEntity
  8
0
  6
Continuous
 62
     0
100
AcDbLine
 10
-10.0
 20
50.67544555664062
 30
0.0
 11
-13.05452566200562
 21
49.85698787234062
 31
0.0
  0
LINE
  5
224
330
216
100
AcDbEntity
  8
0
  6
Continuous
 62
     0
100
AcDbLine
 10
-10.0
 20
50.67544555664062
 30
0.0
 11
-13.05452566200562
 21
51.49390324094063
 31
0.0
  0
LINE
  5
225
330
216
100
AcDbEntity
  8
0
  6
Continuous
 62
     0
100
AcDbLine
 10
9.999968528747559
 20
50.67544555664062
 30
0.0
 11
13.05449419075318
 21
51.49390324094063
 31
0.0
  0
LINE
  5
226
330
216
100
AcDbEntity
  8
0
  6
Continuous
 62
     0
100
AcDbLine
 10
9.999968528747559
 20
50.67544555664062
 30
0.0
 11
13.05449419075318
 21
49.85698787234062
 31
0.0
  0
ENDBLK
  5
218
330
216
100
AcDbEntity
  8
0
100
AcDbBlockEnd
  0
BLOCK
  5
229
330
228
100
AcDbEntity
  8
0
100
AcDbBlockBegin
  2
*D23
 70
     1
 10
0.0
 20
0.0
 30
0.0
  3
*D23
  1

  0
LINE
  5
22B
330
228
100
AcDbEntity
  8
0
 62
     0
370
    -2
100
AcDbLine
 10
25.935791015625
 20
35.07500747680664
 30
0.0
 11
25.93579101562501
 21
61.50742340087891
 31
0.0
  0
LINE
  5
22C
330
228
100
AcDbEntity
  8
0
 62
     0
370
    -2
100
AcDbLine
 10
28.93579101562501
 20
60.50742340087891
 30
0.0
 11
107.0000534057617
 21
60.5074234008789
 31
0.0
  0
INSERT
  5
22D
330
228
100
AcDbEntity
  8
0
 62
     0
370
    -2
100
AcDbBlockReference
  2
_OPEN30
 10
25.93579101562501
 20
60.50742340087891
 30
0.0
 41
3.0
 42
3.0
 43
3.0
 50
180.0
  0
INSERT
  5
22E
330
228
100
AcDbEntity
  8
0
 62
     0
370
    -2
100
AcDbBlockReference
  2
_OPEN30
 10
110.0000534057617
 20
60.5074234008789
 30
0.0
 41
3.0
 42
3.0
 43
3.0
 50
360.0
  0
MTEXT
  5
22F
330
228
100
AcDbEntity
  8
0
 62
     1
100
AcDbMText
 10
63.91388375854492
 20
62.92822343695164
 30
0.0
 40
3.200000047683716
 41
0.0
 71
     5
 72
     1
  1
84.1
 73
     1
 44
1.0
  0
POINT
  5
230
330
228
100
AcDbEntity
  8
Defpoints
 62
     0
100
AcDbPoint
 10
25.935791015625
 20
32.53500747680664
 30
0.0
  0
POINT
  5
231
330
228
100
AcDbEntity
  8
Defpoints
 62
     0
100
AcDbPoint
 10
110.0000534057617
 20
43.41412353515625
 30
0.0
  0
POINT
  5
232
330
228
100
AcDbEntity
  8
Defpoints
 62
     0
100
AcDbPoint
 10
110.0000534057617
 20
60.50742340087891
 30
0.0
  0
ENDBLK
  5
22A
330
228
100
AcDbEntity
  8
0
100
AcDbBlockEnd
  0
BLOCK
  5
235
330
234
100
AcDbEntity
  8
0
100
AcDbBlockBegin
  2
*D24
 70
     1
 10
0.0
 20
0.0
 30
0.0
  3
*D24
  1

  0
LINE
  5
237
330
234
100
AcDbEntity
  8
0
 62
     0
370
    -2
100
AcDbLine
 10
0.0
 20
-11.8509130859375
 30
0.0
 11
0.0
 21
-47.19900076293945
 31
0.0
  0
LINE
  5
238
330
234
100
AcDbEntity
  8
0
 62
     0
370
    -2
100
AcDbLine
 10
110.0000534057617
 20
-16.12587646484375
 30
0.0
 11
110.0000534057617
 21
-47.19900076293946
 31
0.0
  0
LINE
  5
239
330
234
100
AcDbEntity
  8
0
 62
     0
370
    -2
100
AcDbLine
 10
3.0
 20
-46.19900076293945
 30
0.0
 11
107.0000534057617
 21
-46.19900076293946
 31
0.0
  0
INSERT
  5
23A
330
234
100
AcDbEntity
  8
0
 62
     0
370
    -2
100
AcDbBlockReference
  2
_OPEN30
 10
0.0
 20
-46.19900076293945
 30
0.0
 41
3.0
 42
3.0
 43
3.0
 50
180.0
  0
INSERT
  5
23B
330
234
100
AcDbEntity
  8
0
 62
     0
370
    -2
100
AcDbBlockReference
  2
_OPEN30
 10
110.0000534057617
 20
-46.19900076293946
 30
0.0
 41
3.0
 42
3.0
 43
3.0
 50
360.0
  0
MTEXT
  5
23C
330
234
100
AcDbEntity
  8
0
 62
     1
100
AcDbMText
 10
53.0260015258789
 20
-43.78460072696209
 30
0.0
 40
3.200000047683716
 41
0.0
 71
     5
 72
     1
  1
110
 73
     1
 44
1.0
  0
POINT
  5
23D
330
234
100
AcDbEntity
  8
Defpoints
 62
     0
100
AcDbPoint
 10
0.0
 20
-9.3109130859375
 30
0.0
  0
POINT
  5
23E
330
234
100
AcDbEntity
  8
Defpoints
 62
     0
100
AcDbPoint
 10
110.0000534057617
 20
-13.58587646484375
 30
0.0
  0
POINT
  5
23F
330
234
100
AcDbEntity
  8
Defpoints
 62
     0
100
AcDbPoint
 10
110.0000534057617
 20
-46.20000076293945
 30
0.0
  0
ENDBLK
  5
236
330
234
100
AcDbEntity
  8
0
100
AcDbBlockEnd
  0
BLOCK
  5
45A
330
459
100
AcDbEntity
  8
0
100
AcDbBlockBegin
  2
*D25
 70
     1
 10
0.0
 20
0.0
 30
0.0
  3
*D25
  1

  0
LINE
  5
45C
330
459
100
AcDbEntity
  8
0
 62
     0
370
    -2
100
AcDbLine
 10
-26.71985816955566
 20
15.26026626586914
 30
0.0
 11
-26.71985816955566
 21
-13.5880474319458
 31
0.0
  0
LINE
  5
45D
330
459
100
AcDbEntity
  8
0
 62
     0
370
    -2
100
AcDbLine
 10
-23.71985816955566
 20
-11.5880474319458
 30
0.0
 11
33.78018569946289
 21
-11.5880474319458
 31
0.0
  0
INSERT
  5
45E
330
459
100
AcDbEntity
  8
0
 62
     0
370
    -2
100
AcDbBlockReference
  2
_OPEN30
 10
-26.71985816955566
 20
-11.5880474319458
 30
0.0
 41
3.0
 42
3.0
 43
3.0
 50
180.0
  0
INSERT
  5
45F
330
459
100
AcDbEntity
  8
0
 62
     0
370
    -2
100
AcDbBlockReference
  2
_OPEN30
 10
36.78018569946289
 20
-11.5880474319458
 30
0.0
 41
3.0
 42
3.0
 43
3.0
 50
360.0
  0
MTEXT
  5
460
330
459
100
AcDbEntity
  8
0
 62
     1
100
AcDbMText
 10
5.031163764953614
 20
-9.173647395968437
 30
0.0
 40
3.200000047683716
 41
0.0
 71
     5
 72
     1
  1
127
 73
     1
 44
1.0
  0
POINT
  5
461
330
459
100
AcDbEntity
  8
Defpoints
 62
     0
100
AcDbPoint
 10
-26.71985816955566
 20
17.80026626586914
 30
0.0
  0
POINT
  5
462
330
459
100
AcDbEntity
  8
Defpoints
 62
     0
100
AcDbPoint
 10
36.78018569946289
 20
3.450901746749878
 30
0.0
  0
POINT
  5
463
330
459
100
AcDbEntity
  8
Defpoints
 62
     0
100
AcDbPoint
 10
36.78018569946289
 20
-11.5890474319458
 30
0.0
  0
ENDBLK
  5
45B
330
459
100
AcDbEntity
  8
0
100
AcDbBlockEnd
  0
BLOCK
  5
466
330
465
100
AcDbEntity
  8
0
100
AcDbBlockBegin
  2
*D26
 70
     1
 10
0.0
 20
0.0
 30
0.0
  3
*D26
  1

  0
MTEXT
  5
470
330
465
100
AcDbEntity
  8
0
 62
     1
100
AcDbMText
 10
-39.1396582056284
 20
6.406266204118726
 30
0.0
 40
3.200000047683716
 41
0.0
 71
     5
 72
     1
  1
6.5
 11
0.0
 21
1.0
 31
0.0
 73
     1
 44
1.0
  0
POINT
  5
471
330
465
100
AcDbEntity
  8
Defpoints
 62
     0
100
AcDbPoint
 10
-26.09485816955566
 20
19.80026626586914
 30
0.0
  0
POINT
  5
472
330
465
100
AcDbEntity
  8
Defpoints
 62
     0
100
AcDbPoint
 10
-25.46985721588135
 20
16.55026626586914
 30
0.0
  0
POINT
  5
473
330
465
100
AcDbEntity
  8
Defpoints
 62
     0
100
AcDbPoint
 10
-36.71985816955566
 20
16.55026626586914
 30
0.0
  0
LINE
  5
474
330
465
100
AcDbEntity
  8
0
  6
Continuous
 62
     7
100
AcDbLine
 10
-28.63485816955566
 20
19.80026626586914
 30
0.0
 11
-38.71985816955566
 21
19.80026626586914
 31
0.0
  0
LINE
  5
475
330
465
100
AcDbEntity
  8
0
  6
Continuous
 62
     7
100
AcDbLine
 10
-28.00985721588135
 20
16.55026626586914
 30
0.0
 11
-38.71985816955566
 21
16.55026626586914
 31
0.0
  0
LINE
  5
476
330
465
100
AcDbEntity
  8
0
  6
Continuous
 62
     7
100
AcDbLine
 10
-36.71985816955566
 20
26.15026626586914
 30
0.0
 11
-36.71985816955566
 21
10.20026626586914
 31
0.0
  0
LINE
  5
477
330
465
100
AcDbEntity
  8
0
  6
Continuous
 62
     7
100
AcDbLine
 10
-36.71985816955566
 20
19.80026626586914
 30
0.0
 11
-37.53831585385566
 21
22.85479192787476
 31
0.0
  0
LINE
  5
478
330
465
100
AcDbEntity
  8
0
  6
Continuous
 62
     7
100
AcDbLine
 10
-36.71985816955566
 20
19.80026626586914
 30
0.0
 11
-35.90140048525566
 21
22.85479192787476
 31
0.0
  0
LINE
  5
479
330
465
100
AcDbEntity
  8
0
  6
Continuous
 62
     7
100
AcDbLine
 10
-36.71985816955566
 20
16.55026626586914
 30
0.0
 11
-35.90140048525566
 21
13.49574060386352
 31
0.0
  0
LINE
  5
47A
330
465
100
AcDbEntity
  8
0
  6
Continuous
 62
     7
100
AcDbLine
 10
-36.71985816955566
 20
16.55026626586914
 30
0.0
 11
-37.53831585385566
 21
13.49574060386352
 31
0.0
  0
LINE
  5
47B
330
465
100
AcDbEntity
  8
0
  6
Continuous
 62
     7
100
AcDbLine
 10
-36.71985816955566
 20
16.55026626586914
 30
0.0
 11
-36.71985816955566
 21
3.465651035308838
 31
0.0
  0
ENDBLK
  5
467
330
465
100
AcDbEntity
  8
0
100
AcDbBlockEnd
  0
BLOCK
  5
47E
330
47D
100
AcDbEntity
  8
0
100
AcDbBlockBegin
  2
*D27
 70
     1
 10
0.0
 20
0.0
 30
0.0
  3
*D27
  1

  0
LINE
  5
480
330
47D
100
AcDbEntity
  8
0
 62
     0
370
    -2
100
AcDbLine
 10
41.53017044067383
 20
21.24158767700195
 30
0.0
 11
41.53017044067383
 21
50.46970748901367
 31
0.0
  0
LINE
  5
481
330
47D
100
AcDbEntity
  8
0
 62
     0
370
    -2
100
AcDbLine
 10
-26.71985816955566
 20
21.71526626586914
 30
0.0
 11
-26.71985816955566
 21
50.46970748901367
 31
0.0
  0
LINE
  5
482
330
47D
100
AcDbEntity
  8
0
 62
     0
370
    -2
100
AcDbLine
 10
38.53017044067383
 20
48.46970748901367
 30
0.0
 11
-23.71985816955566
 21
48.46970748901367
 31
0.0
  0
INSERT
  5
483
330
47D
100
AcDbEntity
  8
0
 62
     0
370
    -2
100
AcDbBlockReference
  2
_OPEN30
 10
41.53017044067383
 20
48.46970748901367
 30
0.0
 41
3.0
 42
3.0
 43
3.0
  0
INSERT
  5
484
330
47D
100
AcDbEntity
  8
0
 62
     0
370
    -2
100
AcDbBlockReference
  2
_OPEN30
 10
-26.71985816955566
 20
48.46970748901367
 30
0.0
 41
3.0
 42
3.0
 43
3.0
 50
180.0
  0
MTEXT
  5
485
330
47D
100
AcDbEntity
  8
0
 62
     1
100
AcDbMText
 10
7.407155181884766
 20
50.89050752508641
 30
0.0
 40
3.200000047683716
 41
0.0
 71
     5
 72
     1
  1
136.5
 73
     1
 44
1.0
  0
POINT
  5
486
330
47D
100
AcDbEntity
  8
Defpoints
 62
     0
100
AcDbPoint
 10
41.53017044067383
 20
18.70158767700195
 30
0.0
  0
POINT
  5
487
330
47D
100
AcDbEntity
  8
Defpoints
 62
     0
100
AcDbPoint
 10
-26.71985816955566
 20
19.17526626586914
 30
0.0
  0
POINT
  5
488
330
47D
100
AcDbEntity
  8
Defpoints
 62
     0
100
AcDbPoint
 10
-26.71985816955566
 20
48.46970748901367
 30
0.0
  0
ENDBLK
  5
47F
330
47D
100
AcDbEntity
  8
0
100
AcDbBlockEnd
  0
BLOCK
  5
48B
330
48A
100
AcDbEntity
  8
0
100
AcDbBlockBegin
  2
*D28
 70
     1
 10
0.0
 20
0.0
 30
0.0
  3
*D28
  1

  0
LINE
  5
48D
330
48A
100
AcDbEntity
  8
0
 62
     0
370
    -2
100
AcDbLine
 10
51.78021621704102
 20
33.58495725299721
 30
0.0
 11
51.78021621704102
 21
42.46970748901367
 31
0.0
  0
LINE
  5
48E
330
48A
100
AcDbEntity
  8
0
 62
     0
370
    -2
100
AcDbLine
 10
-8.219815373420715
 20
10.69026569366455
 30
0.0
 11
-8.219815373420715
 21
42.46970748901367
 31
0.0
  0
LINE
  5
48F
330
48A
100
AcDbEntity
  8
0
 62
     0
370
    -2
100
AcDbLine
 10
48.78021621704102
 20
40.46970748901367
 30
0.0
 11
-5.219815373420715
 21
40.46970748901367
 31
0.0
  0
INSERT
  5
490
330
48A
100
AcDbEntity
  8
0
 62
     0
370
    -2
100
AcDbBlockReference
  2
_OPEN30
 10
51.78021621704102
 20
40.46970748901367
 30
0.0
 41
3.0
 42
3.0
 43
3.0
  0
INSERT
  5
491
330
48A
100
AcDbEntity
  8
0
 62
     0
370
    -2
100
AcDbBlockReference
  2
_OPEN30
 10
-8.219815373420715
 20
40.46970748901367
 30
0.0
 41
3.0
 42
3.0
 43
3.0
 50
180.0
  0
MTEXT
  5
492
330
48A
100
AcDbEntity
  8
0
 62
     1
100
AcDbMText
 10
21.78219905090332
 20
42.88410752499104
 30
0.0
 40
3.200000047683716
 41
0.0
 71
     5
 72
     1
  1
120
 73
     1
 44
1.0
  0
POINT
  5
493
330
48A
100
AcDbEntity
  8
Defpoints
 62
     0
100
AcDbPoint
 10
51.78021621704102
 20
31.04495725299721
 30
0.0
  0
POINT
  5
494
330
48A
100
AcDbEntity
  8
Defpoints
 62
     0
100
AcDbPoint
 10
-8.219815373420715
 20
8.15026569366455
 30
0.0
  0
POINT
  5
495
330
48A
100
AcDbEntity
  8
Defpoints
 62
     0
100
AcDbPoint
 10
-8.219815373420715
 20
40.46970748901367
 30
0.0
  0
ENDBLK
  5
48C
330
48A
100
AcDbEntity
  8
0
100
AcDbBlockEnd
  0
BLOCK
  5
498
330
497
100
AcDbEntity
  8
0
100
AcDbBlockBegin
  2
*D29
 70
     1
 10
0.0
 20
0.0
 30
0.0
  3
*D29
  1

  0
LINE
  5
49A
330
497
100
AcDbEntity
  8
0
 62
     0
370
    -2
100
AcDbLine
 10
-61.80657104492187
 20
19.8002758026123
 30
0.0
 11
-76.26457104492187
 21
19.8002758026123
 31
0.0
  0
LINE
  5
49B
330
497
100
AcDbEntity
  8
0
 62
     0
370
    -2
100
AcDbLine
 10
-61.80657104492187
 20
-1.949729800224305
 30
0.0
 11
-76.26457104492185
 21
-1.949729800224312
 31
0.0
  0
LINE
  5
49C
330
497
100
AcDbEntity
  8
0
 62
     0
370
    -2
100
AcDbLine
 10
-74.26457104492187
 20
16.8002758026123
 30
0.0
 11
-74.26457104492185
 21
1.050270199775689
 31
0.0
  0
INSERT
  5
49D
330
497
100
AcDbEntity
  8
0
 62
     0
370
    -2
100
AcDbBlockReference
  2
_OPEN30
 10
-74.26457104492187
 20
19.8002758026123
 30
0.0
 41
3.0
 42
3.0
 43
3.0
 50
90.00000000000004
  0
INSERT
  5
49E
330
497
100
AcDbEntity
  8
0
 62
     0
370
    -2
100
AcDbBlockReference
  2
_OPEN30
 10
-74.26457104492185
 20
-1.949729800224311
 30
0.0
 41
3.0
 42
3.0
 43
3.0
 50
270.0000000000001
  0
MTEXT
  5
49F
330
497
100
AcDbEntity
  8
0
 62
     1
100
AcDbMText
 10
-76.6853710809946
 20
8.926272941589353
 30
0.0
 40
3.200000047683716
 41
0.0
 71
     5
 72
     1
  1
43.5
 11
-6.533724622741541E-16
 21
1.0
 31
0.0
 73
     1
 44
1.0
  0
POINT
  5
4A0
330
497
100
AcDbEntity
  8
Defpoints
 62
     0
100
AcDbPoint
 10
-59.26657104492188
 20
19.8002758026123
 30
0.0
  0
POINT
  5
4A1
330
497
100
AcDbEntity
  8
Defpoints
 62
     0
100
AcDbPoint
 10
-59.26657104492188
 20
-1.949729800224304
 30
0.0
  0
POINT
  5
4A2
330
497
100
AcDbEntity
  8
Defpoints
 62
     0
100
AcDbPoint
 10
-74.26657104492188
 20
-1.94972980022431
 30
0.0
  0
ENDBLK
  5
499
330
497
100
AcDbEntity
  8
0
100
AcDbBlockEnd
  0
BLOCK
  5
4A5
330
4A4
100
AcDbEntity
  8
0
100
AcDbBlockBegin
  2
*D30
 70
     1
 10
0.0
 20
0.0
 30
0.0
  3
*D30
  1

  0
LINE
  5
4A7
330
4A4
100
AcDbEntity
  8
0
 62
     0
370
    -2
100
AcDbLine
 10
-64.26657104492188
 20
21.68282608032226
 30
0.0
 11
-64.26657104492188
 21
31.8002758026123
 31
0.0
  0
LINE
  5
4A8
330
4A4
100
AcDbEntity
  8
0
 62
     0
370
    -2
100
AcDbLine
 10
-54.26657104492188
 20
21.68282608032226
 30
0.0
 11
-54.26657104492188
 21
31.8002758026123
 31
0.0
  0
LINE
  5
4A9
330
4A4
100
AcDbEntity
  8
0
 62
     0
370
    -2
100
AcDbLine
 10
-61.26657104492188
 20
29.8002758026123
 30
0.0
 11
-57.26657104492188
 21
29.8002758026123
 31
0.0
  0
INSERT
  5
4AA
330
4A4
100
AcDbEntity
  8
0
 62
     0
370
    -2
100
AcDbBlockReference
  2
_OPEN30
 10
-64.26657104492188
 20
29.8002758026123
 30
0.0
 41
3.0
 42
3.0
 43
3.0
 50
180.0
  0
INSERT
  5
4AB
330
4A4
100
AcDbEntity
  8
0
 62
     0
370
    -2
100
AcDbBlockReference
  2
_OPEN30
 10
-54.26657104492188
 20
29.8002758026123
 30
0.0
 41
3.0
 42
3.0
 43
3.0
  0
MTEXT
  5
4AC
330
4A4
100
AcDbEntity
  8
0
 62
     1
100
AcDbMText
 10
-59.26557104492188
 20
32.21467583858967
 30
0.0
 40
3.200000047683716
 41
0.0
 71
     5
 72
     1
  1
20
 73
     1
 44
1.0
  0
POINT
  5
4AD
330
4A4
100
AcDbEntity
  8
Defpoints
 62
     0
100
AcDbPoint
 10
-64.26657104492188
 20
19.14282608032227
 30
0.0
  0
POINT
  5
4AE
330
4A4
100
AcDbEntity
  8
Defpoints
 62
     0
100
AcDbPoint
 10
-54.26657104492188
 20
19.14282608032227
 30
0.0
  0
POINT
  5
4AF
330
4A4
100
AcDbEntity
  8
Defpoints
 62
     0
100
AcDbPoint
 10
-54.26657104492187
 20
29.8002758026123
 30
0.0
  0
ENDBLK
  5
4A6
330
4A4
100
AcDbEntity
  8
0
100
AcDbBlockEnd
  0
BLOCK
  5
4B2
330
4B1
100
AcDbEntity
  8
0
100
AcDbBlockBegin
  2
*D31
 70
     1
 10
0.0
 20
0.0
 30
0.0
  3
*D31
  1

  0
MTEXT
  5
4BB
330
4B1
100
AcDbEntity
  8
0
 62
     1
100
AcDbMText
 10
-59.26557104492188
 20
-9.53432988345623
 30
0.0
 40
3.200000047683716
 41
0.0
 71
     5
 72
     1
  1
15
 73
     1
 44
1.0
  0
POINT
  5
4BC
330
4B1
100
AcDbEntity
  8
Defpoints
 62
     0
100
AcDbPoint
 10
-63.01657104492188
 20
2.181217908859253
 30
0.0
  0
POINT
  5
4BD
330
4B1
100
AcDbEntity
  8
Defpoints
 62
     0
100
AcDbPoint
 10
-55.51657104492188
 20
2.181217908859253
 30
0.0
  0
POINT
  5
4BE
330
4B1
100
AcDbEntity
  8
Defpoints
 62
     0
100
AcDbPoint
 10
-55.51657104492188
 20
-11.94972991943359
 30
0.0
  0
LINE
  5
4BF
330
4B1
100
AcDbEntity
  8
0
  6
Continuous
 62
     7
100
AcDbLine
 10
-63.01657104492188
 20
-0.358782091140747
 30
0.0
 11
-63.01657104492188
 21
-13.94972991943359
 31
0.0
  0
LINE
  5
4C0
330
4B1
100
AcDbEntity
  8
0
  6
Continuous
 62
     7
100
AcDbLine
 10
-55.51657104492188
 20
-0.358782091140747
 30
0.0
 11
-55.51657104492188
 21
-13.94972991943359
 31
0.0
  0
LINE
  5
4C1
330
4B1
100
AcDbEntity
  8
0
  6
Continuous
 62
     7
100
AcDbLine
 10
-69.36657104492187
 20
-11.94972991943359
 30
0.0
 11
-49.16657104492187
 21
-11.94972991943359
 31
0.0
  0
LINE
  5
4C2
330
4B1
100
AcDbEntity
  8
0
  6
Continuous
 62
     7
100
AcDbLine
 10
-63.01657104492188
 20
-11.94972991943359
 30
0.0
 11
-66.0710967069275
 21
-12.76818760373359
 31
0.0
  0
LINE
  5
4C3
330
4B1
100
AcDbEntity
  8
0
  6
Continuous
 62
     7
100
AcDbLine
 10
-63.01657104492188
 20
-11.94972991943359
 30
0.0
 11
-66.0710967069275
 21
-11.13127223513359
 31
0.0
  0
LINE
  5
4C4
330
4B1
100
AcDbEntity
  8
0
  6
Continuous
 62
     7
100
AcDbLine
 10
-55.51657104492188
 20
-11.94972991943359
 30
0.0
 11
-52.46204538291625
 21
-11.13127223513359
 31
0.0
  0
LINE
  5
4C5
330
4B1
100
AcDbEntity
  8
0
  6
Continuous
 62
     7
100
AcDbLine
 10
-55.51657104492188
 20
-11.94972991943359
 30
0.0
 11
-52.46204538291625
 21
-12.76818760373359
 31
0.0
  0
ENDBLK
  5
4B3
330
4B1
100
AcDbEntity
  8
0
100
AcDbBlockEnd
  0
BLOCK
  5
4C8
330
4C7
100
AcDbEntity
  8
0
100
AcDbBlockBegin
  2
*D32
 70
     1
 10
0.0
 20
0.0
 30
0.0
  3
*D32
  1

  0
MTEXT
  5
4D1
330
4C7
100
AcDbEntity
  8
0
 62
     1
100
AcDbMText
 10
-25.9735654412508
 20
-82.96594269061089
 30
0.0
 40
3.200000047683716
 41
0.0
 71
     5
 72
     1
  1
9
 11
0.0
 21
1.0
 31
0.0
 73
     1
 44
1.0
  0
POINT
  5
4D2
330
4C7
100
AcDbEntity
  8
Defpoints
 62
     0
100
AcDbPoint
 10
-11.06016564369202
 20
-75.15154266357422
 30
0.0
  0
POINT
  5
4D3
330
4C7
100
AcDbEntity
  8
Defpoints
 62
     0
100
AcDbPoint
 10
-12.63511681556702
 20
-70.65154266357422
 30
0.0
  0
POINT
  5
4D4
330
4C7
100
AcDbEntity
  8
Defpoints
 62
     0
100
AcDbPoint
 10
-23.56016540527344
 20
-70.65154266357422
 30
0.0
  0
LINE
  5
4D5
330
4C7
100
AcDbEntity
  8
0
  6
Continuous
 62
     7
100
AcDbLine
 10
-15.17511681556702
 20
-70.65154266357422
 30
0.0
 11
-25.56016540527344
 21
-70.65154266357422
 31
0.0
  0
LINE
  5
4D6
330
4C7
100
AcDbEntity
  8
0
  6
Continuous
 62
     7
100
AcDbLine
 10
-23.56016540527344
 20
-81.50154266357421
 30
0.0
 11
-23.56016540527344
 21
-64.30154266357422
 31
0.0
  0
LINE
  5
4D7
330
4C7
100
AcDbEntity
  8
0
  6
Continuous
 62
     7
100
AcDbLine
 10
-23.56016540527344
 20
-75.15154266357422
 30
0.0
 11
-22.74170772097344
 21
-78.20606832557985
 31
0.0
  0
LINE
  5
4D8
330
4C7
100
AcDbEntity
  8
0
  6
Continuous
 62
     7
100
AcDbLine
 10
-23.56016540527344
 20
-75.15154266357422
 30
0.0
 11
-24.37862308957344
 21
-78.20606832557985
 31
0.0
  0
LINE
  5
4D9
330
4C7
100
AcDbEntity
  8
0
  6
Continuous
 62
     7
100
AcDbLine
 10
-23.56016540527344
 20
-70.65154266357422
 30
0.0
 11
-24.37862308957344
 21
-67.59701700156859
 31
0.0
  0
LINE
  5
4DA
330
4C7
100
AcDbEntity
  8
0
  6
Continuous
 62
     7
100
AcDbLine
 10
-23.56016540527344
 20
-70.65154266357422
 30
0.0
 11
-22.74170772097344
 21
-67.59701700156859
 31
0.0
  0
LINE
  5
4DB
330
4C7
100
AcDbEntity
  8
0
  6
Continuous
 62
     7
100
AcDbLine
 10
-23.56016540527344
 20
-75.15154266357422
 30
0.0
 11
-23.56016540527344
 21
-80.87158966064453
 31
0.0
  0
ENDBLK
  5
4C9
330
4C7
100
AcDbEntity
  8
0
100
AcDbBlockEnd
  0
BLOCK
  5
4DE
330
4DD
100
AcDbEntity
  8
0
100
AcDbBlockBegin
  2
*D33
 70
     1
 10
0.0
 20
0.0
 30
0.0
  3
*D33
  1

  0
LINE
  5
4E0
330
4DD
100
AcDbEntity
  8
0
 62
     0
370
    -2
100
AcDbLine
 10
-15.22516564369202
 20
-60.15154266357422
 30
0.0
 11
-25.55916540527344
 21
-60.15154266357422
 31
0.0
  0
LINE
  5
4E1
330
4DD
100
AcDbEntity
  8
0
 62
     0
370
    -2
100
AcDbLine
 10
-23.55916540527344
 20
-67.65154266357422
 30
0.0
 11
-23.55916540527344
 21
-63.15154266357422
 31
0.0
  0
INSERT
  5
4E2
330
4DD
100
AcDbEntity
  8
0
 62
     0
370
    -2
100
AcDbBlockReference
  2
_OPEN30
 10
-23.55916540527344
 20
-70.65154266357422
 30
0.0
 41
3.0
 42
3.0
 43
3.0
 50
270.0
  0
INSERT
  5
4E3
330
4DD
100
AcDbEntity
  8
0
 62
     0
370
    -2
100
AcDbBlockReference
  2
_OPEN30
 10
-23.55916540527344
 20
-60.15154266357422
 30
0.0
 41
3.0
 42
3.0
 43
3.0
 50
89.99999999999999
  0
MTEXT
  5
4E4
330
4DD
100
AcDbEntity
  8
0
 62
     1
100
AcDbMText
 10
-25.9735654412508
 20
-65.40054266357421
 30
0.0
 40
3.200000047683716
 41
0.0
 71
     5
 72
     1
  1
21
 11
3.383536836952856E-16
 21
1.0
 31
0.0
 73
     1
 44
1.0
  0
POINT
  5
4E5
330
4DD
100
AcDbEntity
  8
Defpoints
 62
     0
100
AcDbPoint
 10
-12.63511681556702
 20
-70.65154266357422
 30
0.0
  0
POINT
  5
4E6
330
4DD
100
AcDbEntity
  8
Defpoints
 62
     0
100
AcDbPoint
 10
-12.68516564369202
 20
-60.15154266357422
 30
0.0
  0
POINT
  5
4E7
330
4DD
100
AcDbEntity
  8
Defpoints
 62
     0
100
AcDbPoint
 10
-23.56016540527344
 20
-60.15154266357421
 30
0.0
  0
ENDBLK
  5
4DF
330
4DD
100
AcDbEntity
  8
0
100
AcDbBlockEnd
  0
BLOCK
  5
4EA
330
4E9
100
AcDbEntity
  8
0
100
AcDbBlockBegin
  2
*D34
 70
     1
 10
0.0
 20
0.0
 30
0.0
  3
*D34
  1

  0
MTEXT
  5
4F2
330
4E9
100
AcDbEntity
  8
0
 62
     1
100
AcDbMText
 10
-25.9735654412508
 20
-57.90054266357422
 30
0.0
 40
3.200000047683716
 41
0.0
 71
     5
 72
     1
  1
9
 11
0.0
 21
1.0
 31
0.0
 73
     1
 44
1.0
  0
POINT
  5
4F3
330
4E9
100
AcDbEntity
  8
Defpoints
 62
     0
100
AcDbPoint
 10
-12.68516564369202
 20
-60.15154266357422
 30
0.0
  0
POINT
  5
4F4
330
4E9
100
AcDbEntity
  8
Defpoints
 62
     0
100
AcDbPoint
 10
-12.63511681556702
 20
-55.65154266357422
 30
0.0
  0
POINT
  5
4F5
330
4E9
100
AcDbEntity
  8
Defpoints
 62
     0
100
AcDbPoint
 10
-23.56016540527344
 20
-55.65154266357421
 30
0.0
  0
LINE
  5
4F6
330
4E9
100
AcDbEntity
  8
0
  6
Continuous
 62
     7
100
AcDbLine
 10
-15.17511681556702
 20
-55.65154266357422
 30
0.0
 11
-25.56016540527344
 21
-55.65154266357422
 31
0.0
  0
LINE
  5
4F7
330
4E9
100
AcDbEntity
  8
0
  6
Continuous
 62
     7
100
AcDbLine
 10
-23.56016540527344
 20
-66.50154266357421
 30
0.0
 11
-23.56016540527344
 21
-49.30154266357422
 31
0.0
  0
LINE
  5
4F8
330
4E9
100
AcDbEntity
  8
0
  6
Continuous
 62
     7
100
AcDbLine
 10
-23.56016540527344
 20
-60.15154266357422
 30
0.0
 11
-22.74170772097344
 21
-63.20606832557984
 31
0.0
  0
LINE
  5
4F9
330
4E9
100
AcDbEntity
  8
0
  6
Continuous
 62
     7
100
AcDbLine
 10
-23.56016540527344
 20
-60.15154266357422
 30
0.0
 11
-24.37862308957344
 21
-63.20606832557984
 31
0.0
  0
LINE
  5
4FA
330
4E9
100
AcDbEntity
  8
0
  6
Continuous
 62
     7
100
AcDbLine
 10
-23.56016540527344
 20
-55.65154266357422
 30
0.0
 11
-24.37862308957344
 21
-52.5970170015686
 31
0.0
  0
LINE
  5
4FB
330
4E9
100
AcDbEntity
  8
0
  6
Continuous
 62
     7
100
AcDbLine
 10
-23.56016540527344
 20
-55.65154266357422
 30
0.0
 11
-22.74170772097344
 21
-52.5970170015686
 31
0.0
  0
ENDBLK
  5
4EB
330
4E9
100
AcDbEntity
  8
0
100
AcDbBlockEnd
  0
BLOCK
  5
4FE
330
4FD
100
AcDbEntity
  8
0
100
AcDbBlockBegin
  2
*D35
 70
     1
 10
0.0
 20
0.0
 30
0.0
  3
*D35
  1

  0
LINE
  5
500
330
4FD
100
AcDbEntity
  8
0
 62
     0
370
    -2
100
AcDbLine
 10
-23.55916540527344
 20
-52.65154266357421
 30
0.0
 11
-23.55916540527344
 21
-48.15154266357421
 31
0.0
  0
INSERT
  5
501
330
4FD
100
AcDbEntity
  8
0
 62
     0
370
    -2
100
AcDbBlockReference
  2
_OPEN30
 10
-23.55916540527344
 20
-55.65154266357421
 30
0.0
 41
3.0
 42
3.0
 43
3.0
 50
270.0
  0
INSERT
  5
502
330
4FD
100
AcDbEntity
  8
0
 62
     0
370
    -2
100
AcDbBlockReference
  2
_OPEN30
 10
-23.55916540527344
 20
-45.15154266357421
 30
0.0
 41
3.0
 42
3.0
 43
3.0
 50
89.99999999999999
  0
MTEXT
  5
503
330
4FD
100
AcDbEntity
  8
0
 62
     1
100
AcDbMText
 10
-25.9735654412508
 20
-50.40054266357422
 30
0.0
 40
3.200000047683716
 41
0.0
 71
     5
 72
     1
  1
21
 11
3.383536836952858E-16
 21
1.0
 31
0.0
 73
     1
 44
1.0
  0
POINT
  5
504
330
4FD
100
AcDbEntity
  8
Defpoints
 62
     0
100
AcDbPoint
 10
-12.63511681556702
 20
-55.65154266357422
 30
0.0
  0
POINT
  5
505
330
4FD
100
AcDbEntity
  8
Defpoints
 62
     0
100
AcDbPoint
 10
-9.144638359546661
 20
-45.15154266357422
 30
0.0
  0
POINT
  5
506
330
4FD
100
AcDbEntity
  8
Defpoints
 62
     0
100
AcDbPoint
 10
-23.56016540527344
 20
-45.15154266357421
 30
0.0
  0
ENDBLK
  5
4FF
330
4FD
100
AcDbEntity
  8
0
100
AcDbBlockEnd
  0
BLOCK
  5
509
330
508
100
AcDbEntity
  8
0
100
AcDbBlockBegin
  2
*D36
 70
     1
 10
0.0
 20
0.0
 30
0.0
  3
*D36
  1

  0
LINE
  5
50B
330
508
100
AcDbEntity
  8
0
 62
     0
370
    -2
100
AcDbLine
 10
-11.68463835954666
 20
-45.15154266357422
 30
0.0
 11
-33.55816540527344
 21
-45.15154266357423
 31
0.0
  0
LINE
  5
50C
330
508
100
AcDbEntity
  8
0
 62
     0
370
    -2
100
AcDbLine
 10
-13.60016564369202
 20
-75.15154266357422
 30
0.0
 11
-33.55816540527343
 21
-75.15154266357425
 31
0.0
  0
LINE
  5
50D
330
508
100
AcDbEntity
  8
0
 62
     0
370
    -2
100
AcDbLine
 10
-31.55816540527344
 20
-48.15154266357423
 30
0.0
 11
-31.55816540527343
 21
-72.15154266357425
 31
0.0
  0
INSERT
  5
50E
330
508
100
AcDbEntity
  8
0
 62
     0
370
    -2
100
AcDbBlockReference
  2
_OPEN30
 10
-31.55816540527344
 20
-45.15154266357423
 30
0.0
 41
3.0
 42
3.0
 43
3.0
 50
90.00000000000001
  0
INSERT
  5
50F
330
508
100
AcDbEntity
  8
0
 62
     0
370
    -2
100
AcDbBlockReference
  2
_OPEN30
 10
-31.55816540527343
 20
-75.15154266357425
 30
0.0
 41
3.0
 42
3.0
 43
3.0
 50
270.0
  0
MTEXT
  5
510
330
508
100
AcDbEntity
  8
0
 62
     1
100
AcDbMText
 10
-33.9725654412508
 20
-60.15054266357422
 30
0.0
 40
3.200000047683716
 41
0.0
 71
     5
 72
     1
  1
60
 11
-3.552713678800501E-16
 21
1.0
 31
0.0
 73
     1
 44
1.0
  0
POINT
  5
511
330
508
100
AcDbEntity
  8
Defpoints
 62
     0
100
AcDbPoint
 10
-9.144638359546661
 20
-45.15154266357422
 30
0.0
  0
POINT
  5
512
330
508
100
AcDbEntity
  8
Defpoints
 62
     0
100
AcDbPoint
 10
-11.06016564369202
 20
-75.15154266357422
 30
0.0
  0
POINT
  5
513
330
508
100
AcDbEntity
  8
Defpoints
 62
     0
100
AcDbPoint
 10
-31.56016540527344
 20
-75.15154266357423
 30
0.0
  0
ENDBLK
  5
50A
330
508
100
AcDbEntity
  8
0
100
AcDbBlockEnd
  0
BLOCK
  5
516
330
515
100
AcDbEntity
  8
0
100
AcDbBlockBegin
  2
*D37
 70
     1
 10
0.0
 20
0.0
 30
0.0
  3
*D37
  1

  0
MTEXT
  5
51F
330
515
100
AcDbEntity
  8
0
 62
     1
100
AcDbMText
 10
-23.77616570651531
 20
-84.72974262750148
 30
0.0
 40
3.200000047683716
 41
0.0
 71
     5
 72
     1
  1
5.5
 73
     1
 44
1.0
  0
POINT
  5
520
330
515
100
AcDbEntity
  8
Defpoints
 62
     0
100
AcDbPoint
 10
-13.56016564369202
 20
-72.65154266357422
 30
0.0
  0
POINT
  5
521
330
515
100
AcDbEntity
  8
Defpoints
 62
     0
100
AcDbPoint
 10
-10.81016570329666
 20
-72.4765396118164
 30
0.0
  0
POINT
  5
522
330
515
100
AcDbEntity
  8
Defpoints
 62
     0
100
AcDbPoint
 10
-10.81016570329666
 20
-87.15154266357422
 30
0.0
  0
LINE
  5
523
330
515
100
AcDbEntity
  8
0
  6
Continuous
 62
     7
100
AcDbLine
 10
-10.81016570329666
 20
-75.01653961181641
 30
0.0
 11
-10.81016570329666
 21
-89.15154266357422
 31
0.0
  0
LINE
  5
524
330
515
100
AcDbEntity
  8
0
  6
Continuous
 62
     7
100
AcDbLine
 10
-19.91016564369202
 20
-87.15154266357422
 30
0.0
 11
-4.460165703296662
 21
-87.15154266357422
 31
0.0
  0
LINE
  5
525
330
515
100
AcDbEntity
  8
0
  6
Continuous
 62
     7
100
AcDbLine
 10
-13.56016564369202
 20
-87.15154266357422
 30
0.0
 11
-16.61469130569764
 21
-87.97000034787422
 31
0.0
  0
LINE
  5
526
330
515
100
AcDbEntity
  8
0
  6
Continuous
 62
     7
100
AcDbLine
 10
-13.56016564369202
 20
-87.15154266357422
 30
0.0
 11
-16.61469130569764
 21
-86.33308497927422
 31
0.0
  0
LINE
  5
527
330
515
100
AcDbEntity
  8
0
  6
Continuous
 62
     7
100
AcDbLine
 10
-10.81016570329666
 20
-87.15154266357422
 30
0.0
 11
-7.755640041291038
 21
-86.33308497927422
 31
0.0
  0
LINE
  5
528
330
515
100
AcDbEntity
  8
0
  6
Continuous
 62
     7
100
AcDbLine
 10
-10.81016570329666
 20
-87.15154266357422
 30
0.0
 11
-7.755640041291038
 21
-87.97000034787422
 31
0.0
  0
LINE
  5
529
330
515
100
AcDbEntity
  8
0
  6
Continuous
 62
     7
100
AcDbLine
 10
-13.56016564369202
 20
-87.15154266357422
 30
0.0
 11
-25.37158107757568
 21
-87.15154266357422
 31
0.0
  0
ENDBLK
  5
517
330
515
100
AcDbEntity
  8
0
100
AcDbBlockEnd
  0
BLOCK
  5
52C
330
52B
100
AcDbEntity
  8
0
100
AcDbBlockBegin
  2
*D38
 70
     1
 10
0.0
 20
0.0
 30
0.0
  3
*D38
  1

  0
LINE
  5
52E
330
52B
100
AcDbEntity
  8
0
 62
     0
370
    -2
100
AcDbLine
 10
11.68983459472656
 20
-75.01653961181641
 30
0.0
 11
11.68983459472656
 21
-89.15054266357421
 31
0.0
  0
LINE
  5
52F
330
52B
100
AcDbEntity
  8
0
 62
     0
370
    -2
100
AcDbLine
 10
-7.810165703296663
 20
-87.15054266357421
 30
0.0
 11
8.68983459472656
 21
-87.15054266357421
 31
0.0
  0
INSERT
  5
530
330
52B
100
AcDbEntity
  8
0
 62
     0
370
    -2
100
AcDbBlockReference
  2
_OPEN30
 10
-10.81016570329666
 20
-87.15054266357421
 30
0.0
 41
3.0
 42
3.0
 43
3.0
 50
180.0
  0
INSERT
  5
531
330
52B
100
AcDbEntity
  8
0
 62
     0
370
    -2
100
AcDbBlockReference
  2
_OPEN30
 10
11.68983459472656
 20
-87.15054266357421
 30
0.0
 41
3.0
 42
3.0
 43
3.0
  0
MTEXT
  5
532
330
52B
100
AcDbEntity
  8
0
 62
     1
100
AcDbMText
 10
0.440834594726563
 20
-84.73614262759685
 30
0.0
 40
3.200000047683716
 41
0.0
 71
     5
 72
     1
  1
45
 73
     1
 44
1.0
  0
POINT
  5
533
330
52B
100
AcDbEntity
  8
Defpoints
 62
     0
100
AcDbPoint
 10
-10.81016570329666
 20
-72.4765396118164
 30
0.0
  0
POINT
  5
534
330
52B
100
AcDbEntity
  8
Defpoints
 62
     0
100
AcDbPoint
 10
11.68983459472656
 20
-72.4765396118164
 30
0.0
  0
POINT
  5
535
330
52B
100
AcDbEntity
  8
Defpoints
 62
     0
100
AcDbPoint
 10
11.68983459472656
 20
-87.15154266357422
 30
0.0
  0
ENDBLK
  5
52D
330
52B
100
AcDbEntity
  8
0
100
AcDbBlockEnd
  0
BLOCK
  5
538
330
537
100
AcDbEntity
  8
0
100
AcDbBlockBegin
  2
*D39
 70
     1
 10
0.0
 20
0.0
 30
0.0
  3
*D39
  1

  0
MTEXT
  5
540
330
537
100
AcDbEntity
  8
0
 62
     1
100
AcDbMText
 10
24.65583465754985
 20
-84.72974262750148
 30
0.0
 40
3.200000047683716
 41
0.0
 71
     5
 72
     1
  1
5.5
 73
     1
 44
1.0
  0
POINT
  5
541
330
537
100
AcDbEntity
  8
Defpoints
 62
     0
100
AcDbPoint
 10
11.68983459472656
 20
-72.4765396118164
 30
0.0
  0
POINT
  5
542
330
537
100
AcDbEntity
  8
Defpoints
 62
     0
100
AcDbPoint
 10
14.43983459472656
 20
-72.65154266357422
 30
0.0
  0
POINT
  5
543
330
537
100
AcDbEntity
  8
Defpoints
 62
     0
100
AcDbPoint
 10
14.43983459472656
 20
-87.15154266357422
 30
0.0
  0
LINE
  5
544
330
537
100
AcDbEntity
  8
0
  6
Continuous
 62
     7
100
AcDbLine
 10
5.339834594726563
 20
-87.15154266357422
 30
0.0
 11
20.78983459472656
 21
-87.15154266357422
 31
0.0
  0
LINE
  5
545
330
537
100
AcDbEntity
  8
0
  6
Continuous
 62
     7
100
AcDbLine
 10
11.68983459472656
 20
-87.15154266357422
 30
0.0
 11
8.635308932720939
 21
-87.97000034787422
 31
0.0
  0
LINE
  5
546
330
537
100
AcDbEntity
  8
0
  6
Continuous
 62
     7
100
AcDbLine
 10
11.68983459472656
 20
-87.15154266357422
 30
0.0
 11
8.635308932720939
 21
-86.33308497927422
 31
0.0
  0
LINE
  5
547
330
537
100
AcDbEntity
  8
0
  6
Continuous
 62
     7
100
AcDbLine
 10
14.43983459472656
 20
-87.15154266357422
 30
0.0
 11
17.49436025673219
 21
-86.33308497927422
 31
0.0
  0
LINE
  5
548
330
537
100
AcDbEntity
  8
0
  6
Continuous
 62
     7
100
AcDbLine
 10
14.43983459472656
 20
-87.15154266357422
 30
0.0
 11
17.49436025673219
 21
-87.97000034787422
 31
0.0
  0
LINE
  5
549
330
537
100
AcDbEntity
  8
0
  6
Continuous
 62
     7
100
AcDbLine
 10
14.43983459472656
 20
-87.15154266357422
 30
0.0
 11
26.44850158691406
 21
-87.15154266357422
 31
0.0
  0
ENDBLK
  5
539
330
537
100
AcDbEntity
  8
0
100
AcDbBlockEnd
  0
BLOCK
  5
54C
330
54B
100
AcDbEntity
  8
0
100
AcDbBlockBegin
  2
*D40
 70
     1
 10
0.0
 20
0.0
 30
0.0
  3
*D40
  1

  0
LINE
  5
54E
330
54B
100
AcDbEntity
  8
0
 62
     0
370
    -2
100
AcDbLine
 10
14.43983459472656
 20
-75.19154266357423
 30
0.0
 11
14.43983459472656
 21
-97.15054266357421
 31
0.0
  0
LINE
  5
54F
330
54B
100
AcDbEntity
  8
0
 62
     0
370
    -2
100
AcDbLine
 10
-13.56016564369202
 20
-75.19154266357423
 30
0.0
 11
-13.56016564369202
 21
-97.15054266357421
 31
0.0
  0
LINE
  5
550
330
54B
100
AcDbEntity
  8
0
 62
     0
370
    -2
100
AcDbLine
 10
11.43983459472656
 20
-95.15054266357421
 30
0.0
 11
-10.56016564369202
 21
-95.15054266357421
 31
0.0
  0
INSERT
  5
551
330
54B
100
AcDbEntity
  8
0
 62
     0
370
    -2
100
AcDbBlockReference
  2
_OPEN30
 10
14.43983459472656
 20
-95.15054266357421
 30
0.0
 41
3.0
 42
3.0
 43
3.0
  0
INSERT
  5
552
330
54B
100
AcDbEntity
  8
0
 62
     0
370
    -2
100
AcDbBlockReference
  2
_OPEN30
 10
-13.56016564369202
 20
-95.15054266357421
 30
0.0
 41
3.0
 42
3.0
 43
3.0
 50
180.0
  0
MTEXT
  5
553
330
54B
100
AcDbEntity
  8
0
 62
     1
100
AcDbMText
 10
0.441834594726563
 20
-92.73614262759685
 30
0.0
 40
3.200000047683716
 41
0.0
 71
     5
 72
     1
  1
56
 73
     1
 44
1.0
  0
POINT
  5
554
330
54B
100
AcDbEntity
  8
Defpoints
 62
     0
100
AcDbPoint
 10
14.43983459472656
 20
-72.65154266357422
 30
0.0
  0
POINT
  5
555
330
54B
100
AcDbEntity
  8
Defpoints
 62
     0
100
AcDbPoint
 10
-13.56016564369202
 20
-72.65154266357422
 30
0.0
  0
POINT
  5
556
330
54B
100
AcDbEntity
  8
Defpoints
 62
     0
100
AcDbPoint
 10
-13.56016564369202
 20
-95.15154266357422
 30
0.0
  0
ENDBLK
  5
54D
330
54B
100
AcDbEntity
  8
0
100
AcDbBlockEnd
  0
BLOCK
  5
559
330
558
100
AcDbEntity
  8
0
100
AcDbBlockBegin
  2
*D41
 70
     1
 10
0.0
 20
0.0
 30
0.0
  3
*D41
  1

  0
MTEXT
  5
563
330
558
100
AcDbEntity
  8
0
 62
     1
100
AcDbMText
 10
-23.70416570544242
 20
-32.73074262750148
 30
0.0
 40
3.200000047683716
 41
0.0
 71
     5
 72
     1
  1
6.5
 73
     1
 44
1.0
  0
POINT
  5
564
330
558
100
AcDbEntity
  8
Defpoints
 62
     0
100
AcDbPoint
 10
-13.56016564369202
 20
-50.84408569335938
 30
0.0
  0
POINT
  5
565
330
558
100
AcDbEntity
  8
Defpoints
 62
     0
100
AcDbPoint
 10
-10.31016570329666
 20
-57.77654266357422
 30
0.0
  0
POINT
  5
566
330
558
100
AcDbEntity
  8
Defpoints
 62
     0
100
AcDbPoint
 10
-10.31016570329666
 20
-35.15154266357422
 30
0.0
  0
LINE
  5
567
330
558
100
AcDbEntity
  8
0
  6
Continuous
 62
     7
100
AcDbLine
 10
-13.56016564369202
 20
-48.30408569335938
 30
0.0
 11
-13.56016564369202
 21
-33.15154266357422
 31
0.0
  0
LINE
  5
568
330
558
100
AcDbEntity
  8
0
  6
Continuous
 62
     7
100
AcDbLine
 10
-10.31016570329666
 20
-55.23654266357422
 30
0.0
 11
-10.31016570329666
 21
-33.15154266357422
 31
0.0
  0
LINE
  5
569
330
558
100
AcDbEntity
  8
0
  6
Continuous
 62
     7
100
AcDbLine
 10
-19.91016564369202
 20
-35.15154266357422
 30
0.0
 11
-3.960165703296662
 21
-35.15154266357422
 31
0.0
  0
LINE
  5
56A
330
558
100
AcDbEntity
  8
0
  6
Continuous
 62
     7
100
AcDbLine
 10
-13.56016564369202
 20
-35.15154266357422
 30
0.0
 11
-16.61469130569764
 21
-35.97000034787422
 31
0.0
  0
LINE
  5
56B
330
558
100
AcDbEntity
  8
0
  6
Continuous
 62
     7
100
AcDbLine
 10
-13.56016564369202
 20
-35.15154266357422
 30
0.0
 11
-16.61469130569764
 21
-34.33308497927422
 31
0.0
  0
LINE
  5
56C
330
558
100
AcDbEntity
  8
0
  6
Continuous
 62
     7
100
AcDbLine
 10
-10.31016570329666
 20
-35.15154266357422
 30
0.0
 11
-7.255640041291038
 21
-34.33308497927422
 31
0.0
  0
LINE
  5
56D
330
558
100
AcDbEntity
  8
0
  6
Continuous
 62
     7
100
AcDbLine
 10
-10.31016570329666
 20
-35.15154266357422
 30
0.0
 11
-7.255640041291038
 21
-35.97000034787422
 31
0.0
  0
LINE
  5
56E
330
558
100
AcDbEntity
  8
0
  6
Continuous
 62
     7
100
AcDbLine
 10
-13.56016564369202
 20
-35.15154266357422
 30
0.0
 11
-25.75185680389404
 21
-35.15154266357422
 31
0.0
  0
ENDBLK
  5
55A
330
558
100
AcDbEntity
  8
0
100
AcDbBlockEnd
  0
BLOCK
  5
571
330
570
100
AcDbEntity
  8
0
100
AcDbBlockBegin
  2
*D42
 70
     1
 10
0.0
 20
0.0
 30
0.0
  3
*D42
  1

  0
LINE
  5
573
330
570
100
AcDbEntity
  8
0
 62
     0
370
    -2
100
AcDbLine
 10
11.18983459472656
 20
-55.23654266357422
 30
0.0
 11
11.18983459472657
 21
-33.15154266357422
 31
0.0
  0
LINE
  5
574
330
570
100
AcDbEntity
  8
0
 62
     0
370
    -2
100
AcDbLine
 10
-7.310165703296658
 20
-35.15154266357422
 30
0.0
 11
8.189834594726566
 21
-35.15154266357422
 31
0.0
  0
INSERT
  5
575
330
570
100
AcDbEntity
  8
0
 62
     0
370
    -2
100
AcDbBlockReference
  2
_OPEN30
 10
-10.31016570329666
 20
-35.15154266357422
 30
0.0
 41
3.0
 42
3.0
 43
3.0
 50
180.0
  0
INSERT
  5
576
330
570
100
AcDbEntity
  8
0
 62
     0
370
    -2
100
AcDbBlockReference
  2
_OPEN30
 10
11.18983459472657
 20
-35.15154266357422
 30
0.0
 41
3.0
 42
3.0
 43
3.0
  0
MTEXT
  5
577
330
570
100
AcDbEntity
  8
0
 62
     1
100
AcDbMText
 10
0.440834594726563
 20
-32.73714262759685
 30
0.0
 40
3.200000047683716
 41
0.0
 71
     5
 72
     1
  1
43
 73
     1
 44
1.0
  0
POINT
  5
578
330
570
100
AcDbEntity
  8
Defpoints
 62
     0
100
AcDbPoint
 10
-10.31016570329666
 20
-57.77654266357422
 30
0.0
  0
POINT
  5
579
330
570
100
AcDbEntity
  8
Defpoints
 62
     0
100
AcDbPoint
 10
11.18983459472656
 20
-57.77654266357422
 30
0.0
  0
POINT
  5
57A
330
570
100
AcDbEntity
  8
Defpoints
 62
     0
100
AcDbPoint
 10
11.18983459472657
 20
-35.15154266357422
 30
0.0
  0
ENDBLK
  5
572
330
570
100
AcDbEntity
  8
0
100
AcDbBlockEnd
  0
BLOCK
  5
57D
330
57C
100
AcDbEntity
  8
0
100
AcDbBlockBegin
  2
*D43
 70
     1
 10
0.0
 20
0.0
 30
0.0
  3
*D43
  1

  0
MTEXT
  5
586
330
57C
100
AcDbEntity
  8
0
 62
     1
100
AcDbMText
 10
24.58383465647697
 20
-32.73074262750148
 30
0.0
 40
3.200000047683716
 41
0.0
 71
     5
 72
     1
  1
6.5
 73
     1
 44
1.0
  0
POINT
  5
587
330
57C
100
AcDbEntity
  8
Defpoints
 62
     0
100
AcDbPoint
 10
11.18983459472656
 20
-57.77654266357422
 30
0.0
  0
POINT
  5
588
330
57C
100
AcDbEntity
  8
Defpoints
 62
     0
100
AcDbPoint
 10
14.43983459472656
 20
-50.84398651123047
 30
0.0
  0
POINT
  5
589
330
57C
100
AcDbEntity
  8
Defpoints
 62
     0
100
AcDbPoint
 10
14.43983459472657
 20
-35.15154266357422
 30
0.0
  0
LINE
  5
58A
330
57C
100
AcDbEntity
  8
0
  6
Continuous
 62
     7
100
AcDbLine
 10
14.43983459472656
 20
-48.30398651123047
 30
0.0
 11
14.43983459472656
 21
-33.15154266357422
 31
0.0
  0
LINE
  5
58B
330
57C
100
AcDbEntity
  8
0
  6
Continuous
 62
     7
100
AcDbLine
 10
4.839834594726563
 20
-35.15154266357422
 30
0.0
 11
20.78983459472656
 21
-35.15154266357422
 31
0.0
  0
LINE
  5
58C
330
57C
100
AcDbEntity
  8
0
  6
Continuous
 62
     7
100
AcDbLine
 10
11.18983459472656
 20
-35.15154266357422
 30
0.0
 11
8.135308932720939
 21
-35.97000034787422
 31
0.0
  0
LINE
  5
58D
330
57C
100
AcDbEntity
  8
0
  6
Continuous
 62
     7
100
AcDbLine
 10
11.18983459472656
 20
-35.15154266357422
 30
0.0
 11
8.135308932720939
 21
-34.33308497927422
 31
0.0
  0
LINE
  5
58E
330
57C
100
AcDbEntity
  8
0
  6
Continuous
 62
     7
100
AcDbLine
 10
14.43983459472656
 20
-35.15154266357422
 30
0.0
 11
17.49436025673219
 21
-34.33308497927422
 31
0.0
  0
LINE
  5
58F
330
57C
100
AcDbEntity
  8
0
  6
Continuous
 62
     7
100
AcDbLine
 10
14.43983459472656
 20
-35.15154266357422
 30
0.0
 11
17.49436025673219
 21
-35.97000034787422
 31
0.0
  0
LINE
  5
590
330
57C
100
AcDbEntity
  8
0
  6
Continuous
 62
     7
100
AcDbLine
 10
14.43983459472656
 20
-35.15154266357422
 30
0.0
 11
26.28552627563477
 21
-35.15154266357422
 31
0.0
  0
ENDBLK
  5
57E
330
57C
100
AcDbEntity
  8
0
100
AcDbBlockEnd
  0
BLOCK
  5
598
330
591
100
AcDbEntity
  8
0
100
AcDbBlockBegin
  2
SYM0001
 70
     0
 10
0.0
 20
0.0
 30
0.0
  3
SYM0001
  1

  0
LINE
  5
592
330
591
100
AcDbEntity
  8
0
  6
Continuous
 62
     7
100
AcDbLine
 10
0.0
 20
0.0
 30
0.0
 11
6.649331157316453
 21
-8.136330705573016
 31
0.0
  0
LINE
  5
593
330
591
100
AcDbEntity
  8
0
  6
Continuous
 62
     7
100
AcDbLine
 10
0.0
 20
0.0
 30
0.0
 11
2.566649659109396
 21
-1.847243765244386
 31
0.0
  0
LINE
  5
594
330
591
100
AcDbEntity
  8
0
  6
Continuous
 62
     7
100
AcDbLine
 10
0.0
 20
0.0
 30
0.0
 11
1.299161924947741
 21
-2.883084857163709
 31
0.0
  0
LINE
  5
595
330
591
100
AcDbEntity
  8
0
  6
Continuous
 62
     7
100
AcDbLine
 10
6.649331157316446
 20
-8.136330705573016
 30
0.0
 11
28.83784339954952
 21
-8.136330705573016
 31
0.0
  0
MTEXT
  5
596
330
591
100
AcDbEntity
  8
0
 62
     1
100
AcDbMText
 10
8.72384349634746
 20
-7.336330693652087
 30
0.0
 40
3.200000047683716
 41
0.0
 71
     7
 72
     1
  1
{\W0.833333;２－\U+2205６．５}
 73
     1
 44
1.0
  0
ENDBLK
  5
599
330
591
100
AcDbEntity
  8
0
100
AcDbBlockEnd
  0
BLOCK
  5
5A1
330
59A
100
AcDbEntity
  8
0
100
AcDbBlockBegin
  2
SYM0002
 70
     0
 10
0.0
 20
0.0
 30
0.0
  3
SYM0002
  1

  0
LINE
  5
59B
330
59A
100
AcDbEntity
  8
0
  6
Continuous
 62
     7
100
AcDbLine
 10
0.0
 20
0.0
 30
0.0
 11
5.604677809932141
 21
-6.137699467949837
 31
0.0
  0
LINE
  5
59C
330
59A
100
AcDbEntity
  8
0
  6
Continuous
 62
     7
100
AcDbLine
 10
0.0
 20
0.0
 30
0.0
 11
2.664096857445438
 21
-1.70369831102515
 31
0.0
  0
LINE
  5
59D
330
59A
100
AcDbEntity
  8
0
  6
Continuous
 62
     7
100
AcDbLine
 10
0.0
 20
0.0
 30
0.0
 11
1.455326401339624
 21
-2.807494446371081
 31
0.0
  0
LINE
  5
59E
330
59A
100
AcDbEntity
  8
0
  6
Continuous
 62
     7
100
AcDbLine
 10
5.604677809932138
 20
-6.13769946794983
 30
0.0
 11
28.50734749824345
 21
-6.13769946794983
 31
0.0
  0
MTEXT
  5
59F
330
59A
100
AcDbEntity
  8
0
 62
     1
100
AcDbMText
 10
8.393347595041394
 20
-5.337699456028901
 30
0.0
 40
3.200000047683716
 41
0.0
 71
     7
 72
     1
  1
{\W0.833333;４－\U+2205４．３}
 73
     1
 44
1.0
  0
ENDBLK
  5
5A2
330
59A
100
AcDbEntity
  8
0
100
AcDbBlockEnd
  0
BLOCK
  5
5AA
330
5A3
100
AcDbEntity
  8
0
100
AcDbBlockBegin
  2
SYM0003
 70
     0
 10
0.0
 20
0.0
 30
0.0
  3
SYM0003
  1

  0
LINE
  5
5A4
330
5A3
100
AcDbEntity
  8
0
  6
Continuous
 62
     7
100
AcDbLine
 10
0.0
 20
0.0
 30
0.0
 11
-24.53987705194533
 21
34.28047640210921
 31
0.0
  0
LINE
  5
5A5
330
5A3
100
AcDbEntity
  8
0
  6
Continuous
 62
     7
100
AcDbLine
 10
0.0
 20
0.0
 30
0.0
 11
-2.4435000347277
 21
2.007313523375544
 31
0.0
  0
LINE
  5
5A6
330
5A3
100
AcDbEntity
  8
0
  6
Continuous
 62
     7
100
AcDbLine
 10
0.0
 20
0.0
 30
0.0
 11
-1.11247634270555
 21
2.960134521902866
 31
0.0
  0
LINE
  5
5A7
330
5A3
100
AcDbEntity
  8
0
  6
Continuous
 62
     7
100
AcDbLine
 10
-24.53987705194533
 20
34.28047640210922
 30
0.0
 11
-50.1854898053069
 21
34.28047640210922
 31
0.0
  0
MTEXT
  5
5A8
330
5A3
100
AcDbEntity
  8
0
 62
     1
100
AcDbMText
 10
-48.35748985585164
 20
35.08047641403015
 30
0.0
 40
3.200000047683716
 41
0.0
 71
     7
 72
     1
  1
{\W0.833333;蝶ナット　Ｍ５}
 73
     1
 44
1.0
  0
ENDBLK
  5
5AB
330
5A3
100
AcDbEntity
  8
0
100
AcDbBlockEnd
  0
BLOCK
  5
5B3
330
5AC
100
AcDbEntity
  8
0
100
AcDbBlockBegin
  2
SYM0004
 70
     0
 10
0.0
 20
0.0
 30
0.0
  3
SYM0004
  1

  0
LINE
  5
5AD
330
5AC
100
AcDbEntity
  8
0
  6
Continuous
 62
     7
100
AcDbLine
 10
0.0
 20
0.0
 30
0.0
 11
-10.96053526891046
 21
-22.34025240021537
 31
0.0
  0
LINE
  5
5AE
330
5AC
100
AcDbEntity
  8
0
  6
Continuous
 62
     7
100
AcDbLine
 10
0.0
 20
0.0
 30
0.0
 11
-0.610617349588442
 21
-3.10276432447297
 31
0.0
  0
LINE
  5
5AF
330
5AC
100
AcDbEntity
  8
0
  6
Continuous
 62
     7
100
AcDbLine
 10
0.0
 20
0.0
 30
0.0
 11
-2.080192298834029
 21
-2.381764052275584
 31
0.0
  0
LINE
  5
5B0
330
5AC
100
AcDbEntity
  8
0
  6
Continuous
 62
     7
100
AcDbLine
 10
-10.96053526891046
 20
-22.34025240021537
 30
0.0
 11
-55.806148784671
 21
-22.34025240021537
 31
0.0
  0
MTEXT
  5
5B1
330
5AC
100
AcDbEntity
  8
0
 62
     1
100
AcDbMText
 10
-53.97814883521574
 20
-21.54025238829444
 30
0.0
 40
3.200000047683716
 41
0.0
 71
     7
 72
     1
  1
{\W0.833333;角根丸頭ボルト　Ｍ５×２３}
 73
     1
 44
1.0
  0
ENDBLK
  5
5B4
330
5AC
100
AcDbEntity
  8
0
100
AcDbBlockEnd
  0
BLOCK
  5
5B7
330
5B6
100
AcDbEntity
  8
0
100
AcDbBlockBegin
  2
*D48
 70
     1
 10
0.0
 20
0.0
 30
0.0
  3
*D48
  1

  0
LINE
  5
5B9
330
5B6
100
AcDbEntity
  8
0
 62
     0
370
    -2
100
AcDbLine
 10
69.30932056133351
 20
31.66635650355695
 30
0.0
 11
74.3195189954731
 21
34.17145004467413
 31
0.0
  0
LINE
  5
5BA
330
5B6
100
AcDbEntity
  8
0
 62
     0
370
    -2
100
AcDbLine
 10
82.72570384107212
 20
4.833529147343371
 30
0.0
 11
87.73590227521171
 21
7.338622688460551
 31
0.0
  0
LINE
  5
5BB
330
5B6
100
AcDbEntity
  8
0
 62
     0
370
    -2
100
AcDbLine
 10
73.87230215748066
 20
30.59374168598752
 30
0.0
 11
84.60540872795963
 21
9.127479907640735
 31
0.0
  0
INSERT
  5
5BC
330
5B6
100
AcDbEntity
  8
0
 62
     0
370
    -2
100
AcDbBlockReference
  2
_OPEN30
 10
72.53066380285084
 20
33.27702447492092
 30
0.0
 41
3.0
 42
3.0
 43
3.0
 50
116.5649992496693
  0
INSERT
  5
5BD
330
5B6
100
AcDbEntity
  8
0
 62
     0
370
    -2
100
AcDbBlockReference
  2
_OPEN30
 10
85.94704708258945
 20
6.444197118707338
 30
0.0
 41
3.0
 42
3.0
 43
3.0
 50
296.5649992496693
  0
MTEXT
  5
5BE
330
5B6
100
AcDbEntity
  8
0
 62
     1
100
AcDbMText
 10
81.3981607077346
 20
20.94076287301602
 30
0.0
 40
3.200000047683716
 41
0.0
 71
     5
 72
     1
  1
60
 11
0.4472127848766067
 21
-0.8944275963111322
 31
0.0
 73
     1
 44
1.0
  0
POINT
  5
5BF
330
5B6
100
AcDbEntity
  8
Defpoints
 62
     0
100
AcDbPoint
 10
67.03747446670323
 20
30.53043602997037
 30
0.0
  0
POINT
  5
5C0
330
5B6
100
AcDbEntity
  8
Defpoints
 62
     0
100
AcDbPoint
 10
80.45385774644184
 20
3.69760867375679
 30
0.0
  0
POINT
  5
5C1
330
5B6
100
AcDbEntity
  8
Defpoints
 62
     0
100
AcDbPoint
 10
85.94584736010727
 20
6.443597258825392
 30
0.0
  0
ENDBLK
  5
5B8
330
5B6
100
AcDbEntity
  8
0
100
AcDbBlockEnd
  0
BLOCK
  5
5C4
330
5C3
100
AcDbEntity
  8
0
100
AcDbBlockBegin
  2
*D49
 70
     1
 10
0.0
 20
0.0
 30
0.0
  3
*D49
  1

  0
LINE
  5
5C6
330
5C3
100
AcDbEntity
  8
0
 62
     0
370
    -2
100
AcDbLine
 10
51.78021621704102
 20
28.50495725299722
 30
0.0
 11
51.78021621704102
 21
-13.8740474319458
 31
0.0
  0
LINE
  5
5C7
330
5C3
100
AcDbEntity
  8
0
 62
     0
370
    -2
100
AcDbLine
 10
39.78018569946289
 20
-11.5880474319458
 30
0.0
 11
48.78021621704102
 21
-11.5880474319458
 31
0.0
  0
INSERT
  5
5C8
330
5C3
100
AcDbEntity
  8
0
 62
     0
370
    -2
100
AcDbBlockReference
  2
_OPEN30
 10
36.78018569946289
 20
-11.5880474319458
 30
0.0
 41
3.0
 42
3.0
 43
3.0
 50
180.0
  0
INSERT
  5
5C9
330
5C3
100
AcDbEntity
  8
0
 62
     0
370
    -2
100
AcDbBlockReference
  2
_OPEN30
 10
51.78021621704102
 20
-11.5880474319458
 30
0.0
 41
3.0
 42
3.0
 43
3.0
 50
360.0
  0
MTEXT
  5
5CA
330
5C3
100
AcDbEntity
  8
0
 62
     1
100
AcDbMText
 10
44.28120095825195
 20
-9.173647395968437
 30
0.0
 40
3.200000047683716
 41
0.0
 71
     5
 72
     1
  1
30
 73
     1
 44
1.0
  0
POINT
  5
5CB
330
5C3
100
AcDbEntity
  8
Defpoints
 62
     0
100
AcDbPoint
 10
36.78018569946289
 20
3.450901746749878
 30
0.0
  0
POINT
  5
5CC
330
5C3
100
AcDbEntity
  8
Defpoints
 62
     0
100
AcDbPoint
 10
51.78021621704102
 20
31.04495725299721
 30
0.0
  0
POINT
  5
5CD
330
5C3
100
AcDbEntity
  8
Defpoints
 62
     0
100
AcDbPoint
 10
51.78021621704101
 20
-11.5890474319458
 30
0.0
  0
ENDBLK
  5
5C5
330
5C3
100
AcDbEntity
  8
0
100
AcDbBlockEnd
  0
BLOCK
  5
5D0
330
5CF
100
AcDbEntity
  8
0
100
AcDbBlockBegin
  2
*D50
 70
     1
 10
0.0
 20
0.0
 30
0.0
  3
*D50
  1

  0
LINE
  5
5D2
330
5CF
100
AcDbEntity
  8
0
 62
     0
370
    -2
100
AcDbLine
 10
36.78018569946289
 20
0.910901746749878
 30
0.0
 11
36.78018569946289
 21
-23.8740474319458
 31
0.0
  0
LINE
  5
5D3
330
5CF
100
AcDbEntity
  8
0
 62
     0
370
    -2
100
AcDbLine
 10
66.78021621704102
 20
28.50495369506816
 30
0.0
 11
66.78021621704102
 21
-23.8740474319458
 31
0.0
  0
LINE
  5
5D4
330
5CF
100
AcDbEntity
  8
0
 62
     0
370
    -2
100
AcDbLine
 10
39.78018569946289
 20
-21.5880474319458
 30
0.0
 11
63.78021621704102
 21
-21.5880474319458
 31
0.0
  0
INSERT
  5
5D5
330
5CF
100
AcDbEntity
  8
0
 62
     0
370
    -2
100
AcDbBlockReference
  2
_OPEN30
 10
36.78018569946289
 20
-21.5880474319458
 30
0.0
 41
3.0
 42
3.0
 43
3.0
 50
180.0
  0
INSERT
  5
5D6
330
5CF
100
AcDbEntity
  8
0
 62
     0
370
    -2
100
AcDbBlockReference
  2
_OPEN30
 10
66.78021621704102
 20
-21.5880474319458
 30
0.0
 41
3.0
 42
3.0
 43
3.0
 50
360.0
  0
MTEXT
  5
5D7
330
5CF
100
AcDbEntity
  8
0
 62
     1
100
AcDbMText
 10
51.78120095825195
 20
-19.17364739596844
 30
0.0
 40
3.200000047683716
 41
0.0
 71
     5
 72
     1
  1
60
 73
     1
 44
1.0
  0
POINT
  5
5D8
330
5CF
100
AcDbEntity
  8
Defpoints
 62
     0
100
AcDbPoint
 10
36.78018569946289
 20
3.450901746749878
 30
0.0
  0
POINT
  5
5D9
330
5CF
100
AcDbEntity
  8
Defpoints
 62
     0
100
AcDbPoint
 10
66.78021621704102
 20
31.04495369506816
 30
0.0
  0
POINT
  5
5DA
330
5CF
100
AcDbEntity
  8
Defpoints
 62
     0
100
AcDbPoint
 10
66.78021621704102
 20
-21.5890474319458
 30
0.0
  0
ENDBLK
  5
5D1
330
5CF
100
AcDbEntity
  8
0
100
AcDbBlockEnd
  0
BLOCK
  5
5DD
330
5DC
100
AcDbEntity
  8
0
100
AcDbBlockBegin
  2
*D51
 70
     1
 10
0.0
 20
0.0
 30
0.0
  3
*D51
  1

  0
LINE
  5
5DF
330
5DC
100
AcDbEntity
  8
0
 62
     0
370
    -2
100
AcDbLine
 10
81.58977822002845
 20
1.425762579126515
 30
0.0
 11
91.34091313365478
 21
-18.07655143568138
 31
0.0
  0
ARC
  5
5E0
330
5DC
100
AcDbEntity
  8
0
 62
     0
370
    -2
100
AcDbCircle
 10
66.78021621704067
 20
31.04495369506879
 30
0.0
 40
52.63348742787111
100
AcDbArc
 50
273.266183242065
 51
293.2988160076048
  0
INSERT
  5
5E1
330
5DC
100
AcDbEntity
  8
0
 62
     0
370
    -2
100
AcDbBlockReference
  2
_OPEN30
 10
66.780216217041
 20
-21.58853373280232
 30
0.0
 41
3.0
 42
3.0
 43
3.0
 50
181.6330916210327
  0
INSERT
  5
5E2
330
5DC
100
AcDbEntity
  8
0
 62
     0
370
    -2
100
AcDbBlockReference
  2
_OPEN30
 10
90.31858470742685
 20
-16.03188995051413
 30
0.0
 41
3.0
 42
3.0
 43
3.0
 50
24.93190762863707
  0
MTEXT
  5
5E3
330
5DC
100
AcDbEntity
  8
0
 62
     1
 60
     1
100
AcDbMText
 10
78.31872625680447
 20
-17.82402175120733
 30
0.0
 40
3.200000047683716
 41
0.0
 71
     5
 72
     1
  1
26.6°
 11
0.9732395931124425
 21
0.2297927205076952
 31
0.0
 73
     1
 44
1.0
  0
POINT
  5
5E4
330
5DC
100
AcDbEntity
  8
Defpoints
 62
     0
100
AcDbPoint
 10
66.78021621704067
 20
31.04495369506879
 30
0.0
  0
POINT
  5
5E5
330
5DC
100
AcDbEntity
  8
Defpoints
 62
     0
100
AcDbPoint
 10
66.78021621704102
 20
-23.8750474319458
 30
0.0
  0
POINT
  5
5E6
330
5DC
100
AcDbEntity
  8
Defpoints
 62
     0
100
AcDbPoint
 10
80.45385774644187
 20
3.69760867375679
 30
0.0
  0
POINT
  5
5E7
330
5DC
100
AcDbEntity
  8
Defpoints
 62
     0
100
AcDbPoint
 10
74.88232012863651
 20
-20.96119893157309
 30
0.0
  0
MTEXT
  5
5E8
330
5DC
100
AcDbEntity
  8
0
 62
     1
100
AcDbMText
 10
71.348280469754
 20
-21.13776224715928
 30
0.0
 40
3.200000047683716
 41
0.0
 71
     7
 72
     1
  1
\W1;26.6°
 11
0.9731788727770883
 21
0.2300497371881044
 31
0.0
 73
     1
 44
1.0
  0
ENDBLK
  5
5DE
330
5DC
100
AcDbEntity
  8
0
100
AcDbBlockEnd
  0
ENDSEC
  0
SECTION
  2
ENTITIES
  0
POINT
  5
268
330
1F
100
AcDbEntity
  8
VIEW0001
 62
     7
100
AcDbPoint
 10
105.0
 20
-148.5
 30
0.0
  0
LINE
  5
269
330
1F
100
AcDbEntity
  8
VIEW0001
  6
Continuous
 62
     7
370
    20
100
AcDbLine
 10
41.0
 20
138.0
 30
0.0
 11
41.0
 21
128.0
 31
0.0
  0
LINE
  5
26A
330
1F
100
AcDbEntity
  8
VIEW0001
  6
Continuous
 62
     7
370
    20
100
AcDbLine
 10
41.0
 20
128.0
 30
0.0
 11
96.0
 21
128.0
 31
0.0
  0
LINE
  5
26B
330
1F
100
AcDbEntity
  8
VIEW0001
  6
Continuous
 62
     7
370
    20
100
AcDbLine
 10
-84.5
 20
-120.0
 30
0.0
 11
96.0
 21
-120.0
 31
0.0
  0
LINE
  5
26C
330
1F
100
AcDbEntity
  8
VIEW0001
  6
Continuous
 62
     7
370
    50
100
AcDbLine
 10
-84.5
 20
138.0
 30
0.0
 11
96.0
 21
138.0
 31
0.0
  0
LINE
  5
26D
330
1F
100
AcDbEntity
  8
VIEW0001
  6
Continuous
 62
     7
370
    50
100
AcDbLine
 10
-84.5
 20
-138.0
 30
0.0
 11
96.0
 21
-138.0
 31
0.0
  0
LINE
  5
26E
330
1F
100
AcDbEntity
  8
VIEW0001
  6
Continuous
 62
     7
370
    50
100
AcDbLine
 10
96.0
 20
138.0
 30
0.0
 11
96.0
 21
-138.0
 31
0.0
  0
LINE
  5
26F
330
1F
100
AcDbEntity
  8
VIEW0001
  6
Continuous
 62
     7
370
    50
100
AcDbLine
 10
-84.5
 20
138.0
 30
0.0
 11
-84.5
 21
-138.0
 31
0.0
  0
LWPOLYLINE
  5
270
330
1F
100
AcDbEntity
  8
VIEW0001
  6
Continuous
 62
     7
100
AcDbPolyline
 90
        2
 70
     0
 10
25.75
 20
-129.0
 40
0.001000000047497
 41
0.001000000047497
 10
25.75
 20
-120.0
 40
0.001000000047497
 41
0.001000000047497
  0
LWPOLYLINE
  5
271
330
1F
100
AcDbEntity
  8
VIEW0001
  6
Continuous
 62
     7
100
AcDbPolyline
 90
        2
 70
     0
 10
-64.5
 20
-138.0
 40
0.001000000047497
 41
0.001000000047497
 10
-64.5
 20
-120.0
 40
0.001000000047497
 41
0.001000000047497
  0
LWPOLYLINE
  5
272
330
1F
100
AcDbEntity
  8
VIEW0001
  6
Continuous
 62
     7
100
AcDbPolyline
 90
        2
 70
     0
 10
96.0
 20
-129.0
 40
0.001000000047497
 41
0.001000000047497
 10
-84.5
 20
-129.0
 40
0.001000000047497
 41
0.001000000047497
  0
LWPOLYLINE
  5
273
330
1F
100
AcDbEntity
  8
VIEW0001
  6
Continuous
 62
     7
100
AcDbPolyline
 90
        2
 70
     0
 10
5.75
 20
-138.0
 40
0.001000000047497
 41
0.001000000047497
 10
5.75
 20
-120.0
 40
0.001000000047497
 41
0.001000000047497
  0
LWPOLYLINE
  5
274
330
1F
100
AcDbEntity
  8
VIEW0001
  6
Continuous
 62
     7
100
AcDbPolyline
 90
        2
 70
     0
 10
66.0
 20
-129.0
 40
0.001000000047497
 41
0.001000000047497
 10
66.0
 20
-120.0
 40
0.001000000047497
 41
0.001000000047497
  0
LWPOLYLINE
  5
275
330
1F
100
AcDbEntity
  8
VIEW0001
  6
Continuous
 62
     7
100
AcDbPolyline
 90
        2
 70
     0
 10
81.0
 20
-129.0
 40
0.001000000047497
 41
0.001000000047497
 10
81.0
 20
-120.0
 40
0.001000000047497
 41
0.001000000047497
  0
MTEXT
  5
276
330
1F
100
AcDbEntity
  8
VIEW0001
 62
     1
100
AcDbMText
 10
12.32124996185303
 20
-126.5
 30
0.0
 40
4.0
 41
0.0
 71
     7
 72
     1
  1
{\W0.833333;材質}
 73
     1
 44
1.0
  0
MTEXT
  5
277
330
1F
100
AcDbEntity
  8
VIEW0001
 62
     1
100
AcDbMText
 10
-77.92875003814697
 20
-126.5
 30
0.0
 40
4.0
 41
0.0
 71
     7
 72
     1
  1
{\W0.833333;品名}
 73
     1
 44
1.0
  0
MTEXT
  5
278
330
1F
100
AcDbEntity
  8
VIEW0001
 62
     1
100
AcDbMText
 10
70.07124996185303
 20
-126.5
 30
0.0
 40
4.0
 41
0.0
 71
     7
 72
     1
  1
{\W0.833333;尺度}
 73
     1
 44
1.0
  0
MTEXT
  5
279
330
1F
100
AcDbEntity
  8
VIEW0001
 62
     1
100
AcDbMText
 10
-77.92875003814697
 20
-135.5
 30
0.0
 40
4.0
 41
0.0
 71
     7
 72
     1
  1
{\W0.833333;規格}
 73
     1
 44
1.0
  0
MTEXT
  5
27A
330
1F
100
AcDbEntity
  8
VIEW0001
 62
     1
100
AcDbMText
 10
28.44624948501587
 20
-126.5
 30
0.0
 40
4.0
 41
0.0
 71
     7
 72
     1
  1
{\W0.833333;PC/ＳＵＳ３０４}
 73
     1
 44
1.0
  0
MTEXT
  5
27B
330
1F
100
AcDbEntity
  8
VIEW0001
 62
     1
100
AcDbMText
 10
-50.80375063419342
 20
-135.5
 30
0.0
 40
4.0
 41
0.0
 71
     7
 72
     1
  1
{\W0.833333;ＣＲ１０５-10～20}
 73
     1
 44
1.0
  0
MTEXT
  5
27C
330
1F
100
AcDbEntity
  8
VIEW0001
 62
     1
100
AcDbMText
 10
26.46785604953766
 20
-135.75
 30
0.0
 40
4.5
 41
0.0
 71
     7
 72
     1
  1
{\W1.40741;デンカ株式会社}
 73
     1
 44
1.0
  0
MTEXT
  5
27D
330
1F
100
AcDbEntity
  8
VIEW0001
 62
     1
100
AcDbMText
 10
-60.80375093221664
 20
-126.5
 30
0.0
 40
4.0
 41
0.0
 71
     7
 72
     1
  1
{\W0.833333;ﾎﾟﾘｶ内吊り面打ちスライド5寸}
 73
     1
 44
1.0
  0
MTEXT
  5
27E
330
1F
100
AcDbEntity
  8
VIEW0001
 62
     1
100
AcDbMText
 10
83.07124984264374
 20
-126.5
 30
0.0
 40
4.0
 41
0.0
 71
     7
 72
     1
  1
{\W0.833333;1/2}
 73
     1
 44
1.0
  0
LINE
  5
280
330
1F
100
AcDbEntity
  8
VIEW0002
  6
Continuous
 62
     7
100
AcDbLine
 10
31.02750968933105
 20
-113.2365493774414
 30
0.0
 11
86.33969116210938
 21
-113.2365493774414
 31
0.0
  0
LINE
  5
281
330
1F
100
AcDbEntity
  8
VIEW0002
  6
Continuous
 62
     7
100
AcDbLine
 10
40.32307412567278
 20
14.75737306475697
 30
0.0
 11
41.23727635910075
 21
13.84317083132899
 31
0.0
  0
LINE
  5
282
330
1F
100
AcDbEntity
  8
VIEW0002
  6
Continuous
 62
     7
100
AcDbLine
 10
50.89891608526361
 20
28.1117283584759
 30
0.0
 11
59.16329373768873
 21
11.58293560335469
 31
0.0
  0
LINE
  5
283
330
1F
100
AcDbEntity
  8
VIEW0002
  6
Continuous
 62
     7
100
AcDbLine
 10
5.362200736999512
 20
7.550267219543457
 30
0.0
 11
16.6356372833252
 21
7.550267219543457
 31
0.0
  0
LINE
  5
284
330
1F
100
AcDbEntity
  8
VIEW0002
  6
Continuous
 62
     7
100
AcDbLine
 10
-2.844525878529069
 20
9.300266538321349
 30
0.0
 11
-3.018692406407723
 21
8.650268137902719
 31
0.0
  0
LINE
  5
285
330
1F
100
AcDbEntity
  8
VIEW0002
  6
Continuous
 62
     7
100
AcDbLine
 10
48.19766094408438
 20
27.5484235194589
 30
0.0
 11
49.13686324986948
 21
29.73989566103243
 31
0.0
  0
LINE
  5
286
330
1F
100
AcDbEntity
  8
VIEW0002
  6
Continuous
 62
     7
100
AcDbLine
 10
-17.99320170126374
 20
16.1930616122581
 30
0.0
 11
-10.66630511660056
 21
7.461206692877195
 31
0.0
  0
LINE
  5
287
330
1F
100
AcDbEntity
  8
VIEW0002
  6
Continuous
 62
     7
100
AcDbLine
 10
-0.719815254211426
 20
10.80026721954346
 30
0.0
 11
-0.719815254211426
 21
12.30026721954346
 31
0.0
  0
LINE
  5
288
330
1F
100
AcDbEntity
  8
VIEW0002
  6
Continuous
 62
     7
100
AcDbLine
 10
-19.47177982330322
 20
-0.449732929468155
 30
0.0
 11
-17.4790735244751
 21
-0.449732929468155
 31
0.0
  0
LINE
  5
289
330
1F
100
AcDbEntity
  8
VIEW0002
  6
Continuous
 62
     7
100
AcDbLine
 10
-17.47022615533374
 20
17.51445838593544
 30
0.0
 11
-9.70874958118633
 21
8.264691227014337
 31
0.0
  0
LINE
  5
28A
330
1F
100
AcDbEntity
  8
VIEW0002
  6
Continuous
 62
     7
100
AcDbLine
 10
38.03018569946289
 20
3.675266981124878
 30
0.0
 11
38.03018569946289
 21
3.479077100753784
 31
0.0
  0
LINE
  5
28B
330
1F
100
AcDbEntity
  8
VIEW0002
  6
Continuous
 62
     7
100
AcDbLine
 10
37.40518569946289
 20
4.300267219543457
 30
0.0
 11
37.40518569946289
 21
4.300267219543457
 31
0.0
  0
LINE
  5
28C
330
1F
100
AcDbEntity
  8
VIEW0002
  6
Continuous
 62
     7
100
AcDbLine
 10
-64.26657104492188
 20
-0.362620502710342
 30
0.0
 11
-60.01657104492188
 21
-0.362620502710342
 31
0.0
  0
LINE
  5
28D
330
1F
100
AcDbEntity
  8
VIEW0002
  6
Continuous
 62
     7
100
AcDbLine
 10
34.8771858215332
 20
4.620724678039551
 30
0.0
 11
34.8771858215332
 21
4.576535224914551
 31
0.0
  0
LINE
  5
28E
330
1F
100
AcDbEntity
  8
VIEW0002
  6
Continuous
 62
     7
100
AcDbLine
 10
37.11556210025774
 20
22.24976490607454
 30
0.0
 11
38.61276429769996
 21
22.34133771849278
 31
0.0
  0
LINE
  5
28F
330
1F
100
AcDbEntity
  8
VIEW0002
  6
Continuous
 62
     7
100
AcDbLine
 10
44.03017044067383
 20
18.51228713989258
 30
0.0
 11
44.03017044067383
 21
2.13737940788269
 31
0.0
  0
LINE
  5
290
330
1F
100
AcDbEntity
  8
VIEW0002
  6
Continuous
 62
     7
100
AcDbLine
 10
-54.26657104492188
 20
19.14282608032227
 30
0.0
 11
-54.26657104492188
 21
-0.362620502710342
 31
0.0
  0
LINE
  5
291
330
1F
100
AcDbEntity
  8
VIEW0002
  6
Continuous
 62
     7
100
AcDbLine
 10
-63.01657072153489
 20
2.181214863603559
 30
0.0
 11
-60.01657592579516
 21
2.076452741764895
 31
0.0
  0
LINE
  5
292
330
1F
100
AcDbEntity
  8
VIEW0002
  6
Continuous
 62
     7
100
AcDbLine
 10
-64.26657104492188
 20
19.14282608032227
 30
0.0
 11
-64.26657104492188
 21
-0.362620502710342
 31
0.0
  0
LINE
  5
293
330
1F
100
AcDbEntity
  8
VIEW0002
  6
Continuous
 62
     7
100
AcDbLine
 10
-64.26657184944372
 20
6.47486831498798
 30
0.0
 11
-63.01657084090762
 21
6.43121731994603
 31
0.0
  0
LINE
  5
294
330
1F
100
AcDbEntity
  8
VIEW0002
  6
Continuous
 62
     7
100
AcDbLine
 10
-25.31984806060791
 20
18.05026626586914
 30
0.0
 11
-18.61930179595947
 21
18.05026626586914
 31
0.0
  0
LINE
  5
295
330
1F
100
AcDbEntity
  8
VIEW0002
  6
Continuous
 62
     7
100
AcDbLine
 10
-59.26657813440129
 20
-1.949730065590954
 30
0.0
 11
-58.51658515402654
 21
-1.923539734827801
 31
0.0
  0
LINE
  5
296
330
1F
100
AcDbEntity
  8
VIEW0002
  6
Continuous
 62
     7
100
AcDbLine
 10
-58.51657104492188
 20
16.33504104614258
 30
0.0
 11
-58.51657104492188
 21
-1.923541188240051
 31
0.0
  0
LINE
  5
297
330
1F
100
AcDbEntity
  8
VIEW0002
  6
Continuous
 62
     7
100
AcDbLine
 10
-55.51657776975393
 20
6.43122050730851
 30
0.0
 11
-54.26658438596473
 21
6.474871236088443
 31
0.0
  0
LINE
  5
298
330
1F
100
AcDbEntity
  8
VIEW0002
  6
Continuous
 62
     7
100
AcDbLine
 10
-63.01657104492188
 20
16.68121719360352
 30
0.0
 11
-63.01657104492188
 21
2.181217908859253
 31
0.0
  0
LINE
  5
299
330
1F
100
AcDbEntity
  8
VIEW0002
  6
Continuous
 62
     7
100
AcDbLine
 10
-60.01657104492188
 20
16.33504104614258
 30
0.0
 11
-60.01657104492188
 21
-1.923541188240051
 31
0.0
  0
LINE
  5
29A
330
1F
100
AcDbEntity
  8
VIEW0002
  6
Continuous
 62
     7
100
AcDbLine
 10
-55.51657104492188
 20
16.68121719360352
 30
0.0
 11
-55.51657104492188
 21
2.181217908859253
 31
0.0
  0
LINE
  5
29B
330
1F
100
AcDbEntity
  8
VIEW0002
  6
Continuous
 62
     7
100
AcDbLine
 10
-58.51658030369781
 20
2.076455493467905
 30
0.0
 11
-55.51657788321117
 21
2.181217881568586
 31
0.0
  0
LINE
  5
29C
330
1F
100
AcDbEntity
  8
VIEW0002
  6
Continuous
 62
     7
100
AcDbLine
 10
-26.71985816955566
 20
19.17526626586914
 30
0.0
 11
-26.71985816955566
 21
17.80026626586914
 31
0.0
  0
LINE
  5
29D
330
1F
100
AcDbEntity
  8
VIEW0002
  6
Continuous
 62
     7
100
AcDbLine
 10
1.280184745788574
 20
14.30026721954346
 30
0.0
 11
2.280184745788574
 21
14.30026721954346
 31
0.0
  0
LINE
  5
29E
330
1F
100
AcDbEntity
  8
VIEW0002
  6
Continuous
 62
     7
100
AcDbLine
 10
2.280184745788574
 20
13.21944904327393
 30
0.0
 11
2.280184745788574
 21
14.30026721954346
 31
0.0
  0
LINE
  5
29F
330
1F
100
AcDbEntity
  8
VIEW0002
  6
Continuous
 62
     7
100
AcDbLine
 10
-0.919796943664551
 20
8.65026569366455
 30
0.0
 11
-0.919796943664551
 21
9.300267219543457
 31
0.0
  0
LINE
  5
2A0
330
1F
100
AcDbEntity
  8
VIEW0002
  6
Continuous
 62
     7
100
AcDbLine
 10
25.03433403295205
 20
2.103629308631196
 30
0.0
 11
34.47994770611448
 21
4.087205033198988
 31
0.0
  0
LINE
  5
2A1
330
1F
100
AcDbEntity
  8
VIEW0002
  6
Continuous
 62
     7
100
AcDbLine
 10
-1.969815254211426
 20
10.80026721954346
 30
0.0
 11
-1.969815254211426
 21
13.55026721954346
 31
0.0
  0
LINE
  5
2A2
330
1F
100
AcDbEntity
  8
VIEW0002
  6
Continuous
 62
     7
100
AcDbLine
 10
23.62454642400318
 20
4.234921302158069
 30
0.0
 11
29.54800857336397
 21
13.86052700075539
 31
0.0
  0
LINE
  5
2A3
330
1F
100
AcDbEntity
  8
VIEW0002
  6
Continuous
 62
     7
100
AcDbLine
 10
19.82933007967408
 20
8.084913925772032
 30
0.0
 11
25.29238294051742
 21
16.96235610791658
 31
0.0
  0
LINE
  5
2A4
330
1F
100
AcDbEntity
  8
VIEW0002
  6
Continuous
 62
     7
100
AcDbLine
 10
42.42358673870998
 20
27.86591421129744
 30
0.0
 11
43.16545758924746
 21
28.60778506183492
 31
0.0
  0
LINE
  5
2A5
330
1F
100
AcDbEntity
  8
VIEW0002
  6
Continuous
 62
     7
100
AcDbLine
 10
-60.01657108918257
 20
-1.923542879309521
 30
0.0
 11
-59.26657429643436
 21
-1.949733343203683
 31
0.0
  0
LINE
  5
2A6
330
1F
100
AcDbEntity
  8
VIEW0002
  6
Continuous
 62
     7
100
AcDbLine
 10
18.7647837908396
 20
8.740020715474873
 30
0.0
 11
24.22783665168295
 21
17.61746289761942
 31
0.0
  0
LINE
  5
2A7
330
1F
100
AcDbEntity
  8
VIEW0002
  6
Continuous
 62
     7
100
AcDbLine
 10
-58.51657104492188
 20
-0.362620502710342
 30
0.0
 11
-54.26657104492188
 21
-0.362620502710342
 31
0.0
  0
LINE
  5
2A8
330
1F
100
AcDbEntity
  8
VIEW0002
  6
Continuous
 62
     7
100
AcDbLine
 10
-13.20390139919417
 20
-49.55785221649446
 30
0.0
 11
-11.28837707010182
 21
-46.3653115200641
 31
0.0
  0
LINE
  5
2A9
330
1F
100
AcDbEntity
  8
VIEW0002
  6
Continuous
 62
     7
100
AcDbLine
 10
38.61276429769996
 20
22.34133771849277
 30
0.0
 11
38.7043371101182
 21
20.84413552105055
 31
0.0
  0
LINE
  5
2AA
330
1F
100
AcDbEntity
  8
VIEW0002
  6
CENTER
 62
     7
100
AcDbLine
 10
-3.219815254211426
 20
14.65858936309814
 30
0.0
 11
-3.219815254211426
 21
-1.035831093788147
 31
0.0
  0
LINE
  5
2AB
330
1F
100
AcDbEntity
  8
VIEW0002
  6
Continuous
 62
     7
100
AcDbLine
 10
-11.06016564369202
 20
-75.15154266357422
 30
0.0
 11
12.18983459472656
 21
-75.15154266357422
 31
0.0
  0
LINE
  5
2AC
330
1F
100
AcDbEntity
  8
VIEW0002
  6
Continuous
 62
     7
100
AcDbLine
 10
28.65247943895757
 20
18.97700168852495
 30
0.0
 11
40.46914290856522
 21
19.69973981244733
 31
0.0
  0
LINE
  5
2AD
330
1F
100
AcDbEntity
  8
VIEW0002
  6
Continuous
 62
     7
100
AcDbLine
 10
-8.961529850959778
 20
3.300266981124878
 30
0.0
 11
20.28453254699707
 21
3.300266981124878
 31
0.0
  0
LINE
  5
2AE
330
1F
100
AcDbEntity
  8
VIEW0002
  6
Continuous
 62
     7
100
AcDbLine
 10
36.78018569946289
 20
3.52525782585144
 30
0.0
 11
36.78018569946289
 21
3.450901746749878
 31
0.0
  0
LINE
  5
2AF
330
1F
100
AcDbEntity
  8
VIEW0002
  6
Continuous
 62
     7
100
AcDbLine
 10
-19.06983280181885
 20
0.800267100334167
 30
0.0
 11
-17.16062259674072
 21
0.800267100334167
 31
0.0
  0
LINE
  5
2B0
330
1F
100
AcDbEntity
  8
VIEW0002
  6
Continuous
 62
     7
100
AcDbLine
 10
-25.46985721588135
 20
19.17526626586914
 30
0.0
 11
-25.46985721588135
 21
18.20026779174805
 31
0.0
  0
LINE
  5
2B1
330
1F
100
AcDbEntity
  8
VIEW0002
  6
Continuous
 62
     7
100
AcDbLine
 10
21.72739606529694
 20
4.014117377725359
 30
0.0
 11
22.66530445421194
 21
5.538215296385429
 31
0.0
  0
LINE
  5
2B2
330
1F
100
AcDbEntity
  8
VIEW0002
  6
Continuous
 62
     7
100
AcDbLine
 10
-8.219815373420715
 20
8.15026569366455
 30
0.0
 11
-8.219815373420715
 21
6.150265693664551
 31
0.0
  0
LINE
  5
2B3
330
1F
100
AcDbEntity
  8
VIEW0002
  6
Continuous
 62
     7
100
AcDbLine
 10
-0.719815254211426
 20
10.80026721954346
 30
0.0
 11
-5.719815254211426
 21
10.80026721954346
 31
0.0
  0
LINE
  5
2B4
330
1F
100
AcDbEntity
  8
VIEW0002
  6
Continuous
 62
     7
100
AcDbLine
 10
-3.595081330363396
 20
8.65026320520658
 30
0.0
 11
-3.420914802484742
 21
9.30026160562521
 31
0.0
  0
LINE
  5
2B5
330
1F
100
AcDbEntity
  8
VIEW0002
  6
Continuous
 62
     7
100
AcDbLine
 10
-23.11985111236572
 20
16.05026626586914
 30
0.0
 11
-23.11985111236572
 21
12.85025501251221
 31
0.0
  0
LINE
  5
2B6
330
1F
100
AcDbEntity
  8
VIEW0002
  6
Continuous
 62
     7
100
AcDbLine
 10
28.57616876194237
 20
20.22467018639347
 30
0.0
 11
41.37756434090289
 21
21.00763710832726
 31
0.0
  0
LINE
  5
2B7
330
1F
100
AcDbEntity
  8
VIEW0002
  6
Continuous
 62
     7
100
AcDbLine
 10
36.78018569946289
 20
3.675266981124878
 30
0.0
 11
36.78018569946289
 21
3.450901746749878
 31
0.0
  0
LINE
  5
2B8
330
1F
100
AcDbEntity
  8
VIEW0002
  6
Continuous
 62
     7
100
AcDbLine
 10
43.7403082341564
 20
24.23289902803125
 30
0.0
 11
45.86324971409718
 21
26.35584050797202
 31
0.0
  0
LINE
  5
2B9
330
1F
100
AcDbEntity
  8
VIEW0002
  6
Continuous
 62
     7
100
AcDbLine
 10
60.91579623538466
 20
10.42587279737408
 30
0.0
 11
61.43447025912203
 21
10.39473990761148
 31
0.0
  0
LINE
  5
2BA
330
1F
100
AcDbEntity
  8
VIEW0002
  6
Continuous
 62
     7
100
AcDbLine
 10
-0.719815254211426
 20
8.15026569366455
 30
0.0
 11
-0.719815254211426
 21
8.65026569366455
 31
0.0
  0
LINE
  5
2BB
330
1F
100
AcDbEntity
  8
VIEW0002
  6
Continuous
 62
     7
100
AcDbLine
 10
37.40518569946289
 20
4.287381172180176
 30
0.0
 11
37.40518569946289
 21
4.287381172180176
 31
0.0
  0
LINE
  5
2BC
330
1F
100
AcDbEntity
  8
VIEW0002
  6
Continuous
 62
     7
100
AcDbLine
 10
52.23825909630582
 20
28.78714431305495
 30
0.0
 11
64.91716938636486
 21
3.429266278081084
 31
0.0
  0
LINE
  5
2BD
330
1F
100
AcDbEntity
  8
VIEW0002
  6
Continuous
 62
     7
100
AcDbLine
 10
37.11778666613294
 20
2.701752646944829
 30
0.0
 11
39.87418502768644
 21
0.264516023184516
 31
0.0
  0
LINE
  5
2BE
330
1F
100
AcDbEntity
  8
VIEW0002
  6
Continuous
 62
     7
100
AcDbLine
 10
-4.219815254211426
 20
10.80026721954346
 30
0.0
 11
-4.219815254211426
 21
13.55026721954346
 31
0.0
  0
LINE
  5
2BF
330
1F
100
AcDbEntity
  8
VIEW0002
  6
Continuous
 62
     7
100
AcDbLine
 10
45.83272677007881
 20
29.99626092702587
 30
0.0
 11
49.57665220077278
 21
30.65641601329214
 31
0.0
  0
LINE
  5
2C0
330
1F
100
AcDbEntity
  8
VIEW0002
  6
Continuous
 62
     7
100
AcDbLine
 10
-5.519803047180176
 20
8.65026569366455
 30
0.0
 11
-5.519803047180176
 21
9.300267219543457
 31
0.0
  0
LINE
  5
2C1
330
1F
100
AcDbEntity
  8
VIEW0002
  6
Continuous
 62
     7
100
AcDbLine
 10
-0.719815254211426
 20
8.65026569366455
 30
0.0
 11
-5.719815254211426
 21
8.65026569366455
 31
0.0
  0
LINE
  5
2C2
330
1F
100
AcDbEntity
  8
VIEW0002
  6
Continuous
 62
     7
100
AcDbLine
 10
-5.719815254211426
 20
10.80026721954346
 30
0.0
 11
-5.719815254211426
 21
12.30026721954346
 31
0.0
  0
LINE
  5
2C3
330
1F
100
AcDbEntity
  8
VIEW0002
  6
Continuous
 62
     7
100
AcDbLine
 10
-7.719815254211426
 20
14.30026721954346
 30
0.0
 11
-8.719815373420715
 21
14.30026721954346
 31
0.0
  0
LINE
  5
2C4
330
1F
100
AcDbEntity
  8
VIEW0002
  6
Continuous
 62
     7
100
AcDbLine
 10
-0.919796943664551
 20
9.300267219543457
 30
0.0
 11
-5.519803047180176
 21
9.300267219543457
 31
0.0
  0
LINE
  5
2C5
330
1F
100
AcDbEntity
  8
VIEW0002
  6
Continuous
 62
     7
100
AcDbLine
 10
-4.469815254211426
 20
13.55026721954346
 30
0.0
 11
-1.969815254211426
 21
13.55026721954346
 31
0.0
  0
LINE
  5
2C6
330
1F
100
AcDbEntity
  8
VIEW0002
  6
Continuous
 62
     7
100
AcDbLine
 10
-8.719815373420715
 20
13.21944904327393
 30
0.0
 11
-8.719815373420715
 21
14.30026721954346
 31
0.0
  0
LINE
  5
2C7
330
1F
100
AcDbEntity
  8
VIEW0002
  6
Continuous
 62
     7
100
AcDbLine
 10
-9.219830632209778
 20
6.472233772277832
 30
0.0
 11
-9.219830632209778
 21
3.309170484542847
 31
0.0
  0
LINE
  5
2C8
330
1F
100
AcDbEntity
  8
VIEW0002
  6
Continuous
 62
     7
100
AcDbLine
 10
-4.469815254211426
 20
10.80026721954346
 30
0.0
 11
-4.469815254211426
 21
13.55026721954346
 31
0.0
  0
LINE
  5
2C9
330
1F
100
AcDbEntity
  8
VIEW0002
  6
Continuous
 62
     7
100
AcDbLine
 10
-2.219815254211426
 20
10.80026721954346
 30
0.0
 11
-2.219815254211426
 21
13.55026721954346
 31
0.0
  0
LINE
  5
2CA
330
1F
100
AcDbEntity
  8
VIEW0002
  6
Continuous
 62
     7
100
AcDbLine
 10
-5.719815254211426
 20
8.15026569366455
 30
0.0
 11
-5.719815254211426
 21
8.65026569366455
 31
0.0
  0
LINE
  5
2CB
330
1F
100
AcDbEntity
  8
VIEW0002
  6
Continuous
 62
     7
100
AcDbLine
 10
-16.25443854250391
 20
0.223128409763572
 30
0.0
 11
-15.65543251129629
 21
-1.060455882518192
 31
0.0
  0
LINE
  5
2CC
330
1F
100
AcDbEntity
  8
VIEW0002
  6
Continuous
 62
     7
100
AcDbLine
 10
38.09414636199227
 20
3.356197925813685
 30
0.0
 11
39.95659982285125
 21
2.052093961639887
 31
0.0
  0
LINE
  5
2CD
330
1F
100
AcDbEntity
  8
VIEW0002
  6
Continuous
 62
     7
100
AcDbLine
 10
39.34621047973633
 20
2.700268507003784
 30
0.0
 11
40.53017044067383
 21
2.700268507003784
 31
0.0
  0
LINE
  5
2CE
330
1F
100
AcDbEntity
  8
VIEW0002
  6
Continuous
 62
     7
100
AcDbLine
 10
24.41258143325429
 20
3.106849938069404
 30
0.0
 11
34.27764531566346
 21
5.110722942937723
 31
0.0
  0
LINE
  5
2CF
330
1F
100
AcDbEntity
  8
VIEW0002
  6
Continuous
 62
     7
100
AcDbLine
 10
-8.961529850959778
 20
2.050266981124878
 30
0.0
 11
24.52054214477539
 21
2.050266981124878
 31
0.0
  0
LINE
  5
2D0
330
1F
100
AcDbEntity
  8
VIEW0002
  6
Continuous
 62
     7
100
AcDbLine
 10
15.28018379211426
 20
6.300267219543457
 30
0.0
 11
15.28018379211426
 21
3.300266981124878
 31
0.0
  0
LINE
  5
2D1
330
1F
100
AcDbEntity
  8
VIEW0002
  6
Continuous
 62
     7
100
AcDbLine
 10
2.049401028993988
 20
8.727649210101875
 30
0.0
 11
7.022607553258419
 21
19.39272445746385
 31
0.0
  0
LINE
  5
2D2
330
1F
100
AcDbEntity
  8
VIEW0002
  6
Continuous
 62
     7
100
AcDbLine
 10
20.39509773254395
 20
7.550267219543457
 30
0.0
 11
23.34469985961914
 21
7.550267219543457
 31
0.0
  0
LINE
  5
2D3
330
1F
100
AcDbEntity
  8
VIEW0002
  6
Continuous
 62
     7
100
AcDbLine
 10
24.19635906838401
 20
8.02617379893596
 30
0.0
 11
28.27051384101732
 21
14.64666134618204
 31
0.0
  0
LINE
  5
2D4
330
1F
100
AcDbEntity
  8
VIEW0002
  6
Continuous
 62
     7
100
AcDbLine
 10
52.78087765394587
 20
29.04362984466065
 30
0.0
 11
65.4538586990684
 21
3.697610326428368
 31
0.0
  0
LINE
  5
2D5
330
1F
100
AcDbEntity
  8
VIEW0002
  6
Continuous
 62
     7
100
AcDbLine
 10
46.12999305019851
 20
26.49468384948377
 30
0.0
 11
47.07941227915441
 21
26.66209208038918
 31
0.0
  0
LINE
  5
2D6
330
1F
100
AcDbEntity
  8
VIEW0002
  6
Continuous
 62
     7
100
AcDbLine
 10
-13.29162339129265
 20
4.550248472171093
 30
0.0
 11
-19.93115008627455
 21
16.05024583968499
 31
0.0
  0
LINE
  5
2D7
330
1F
100
AcDbEntity
  8
VIEW0002
  6
Continuous
 62
     7
100
AcDbLine
 10
-17.25251122526232
 20
-0.594025243688839
 30
0.0
 11
-16.78816056256963
 21
-1.589062331281
 31
0.0
  0
LINE
  5
2D8
330
1F
100
AcDbEntity
  8
VIEW0002
  6
Continuous
 62
     7
100
AcDbLine
 10
-19.31983280181885
 20
11.25937366485596
 30
0.0
 11
-19.31983280181885
 21
1.050267100334167
 31
0.0
  0
LINE
  5
2D9
330
1F
100
AcDbEntity
  8
VIEW0002
  6
Continuous
 62
     7
100
AcDbLine
 10
-12.20909164141948
 20
5.175248480584321
 30
0.0
 11
-16.98545913163357
 21
13.44815950077124
 31
0.0
  0
LINE
  5
2DA
330
1F
100
AcDbEntity
  8
VIEW0002
  6
Continuous
 62
     7
100
AcDbLine
 10
-25.46985721588135
 20
16.55026626586914
 30
0.0
 11
-18.75925540924072
 21
16.55026626586914
 31
0.0
  0
LINE
  5
2DB
330
1F
100
AcDbEntity
  8
VIEW0002
  6
Continuous
 62
     7
100
AcDbLine
 10
38.03018569946289
 20
3.52525782585144
 30
0.0
 11
38.03018569946289
 21
3.504124402999878
 31
0.0
  0
LINE
  5
2DC
330
1F
100
AcDbEntity
  8
VIEW0002
  6
Continuous
 62
     7
100
AcDbLine
 10
31.67714309692383
 20
16.55026626586914
 30
0.0
 11
40.53017044067383
 21
16.55026626586914
 31
0.0
  0
LINE
  5
2DD
330
1F
100
AcDbEntity
  8
VIEW0002
  6
Continuous
 62
     7
100
AcDbLine
 10
41.53017044067383
 20
18.70158767700195
 30
0.0
 11
41.53017044067383
 21
2.896305799484253
 31
0.0
  0
LINE
  5
2DE
330
1F
100
AcDbEntity
  8
VIEW0002
  6
Continuous
 62
     7
100
AcDbLine
 10
31.67715835571289
 20
15.05026721954346
 30
0.0
 11
40.53017044067383
 21
15.05026721954346
 31
0.0
  0
LINE
  5
2DF
330
1F
100
AcDbEntity
  8
VIEW0002
  6
Continuous
 62
     7
100
AcDbLine
 10
43.53017044067383
 20
20.01228713989258
 30
0.0
 11
43.53017044067383
 21
0.63737952709198
 31
0.0
  0
LINE
  5
2E0
330
1F
100
AcDbEntity
  8
VIEW0002
  6
Continuous
 62
     7
100
AcDbLine
 10
37.11556210025773
 20
22.24976490607454
 30
0.0
 11
37.20713491267598
 21
20.75256270863232
 31
0.0
  0
LINE
  5
2E1
330
1F
100
AcDbEntity
  8
VIEW0002
  6
CENTER
 62
     7
100
AcDbLine
 10
11.18983459472656
 20
-57.77654266357422
 30
0.0
 11
11.18983459472656
 21
-62.52654266357422
 31
0.0
  0
LINE
  5
2E2
330
1F
100
AcDbEntity
  8
VIEW0002
  6
Continuous
 62
     7
100
AcDbLine
 10
5.689834594726562
 20
-45.15154266357422
 30
0.0
 11
10.02436828613281
 21
-45.15154266357422
 31
0.0
  0
LINE
  5
2E3
330
1F
100
AcDbEntity
  8
VIEW0002
  6
CENTER
 62
     7
100
AcDbLine
 10
13.51478576660156
 20
-70.65154266357422
 30
0.0
 11
9.864822387695312
 21
-70.65154266357422
 31
0.0
  0
LINE
  5
2E4
330
1F
100
AcDbEntity
  8
VIEW0002
  6
Continuous
 62
     7
100
AcDbLine
 10
14.08356342342434
 20
-49.55775361153951
 30
0.0
 11
12.16809993634201
 21
-46.36531431846389
 31
0.0
  0
LINE
  5
2E5
330
1F
100
AcDbEntity
  8
VIEW0002
  6
CENTER
 62
     7
100
AcDbLine
 10
13.56483459472656
 20
-60.15154266357422
 30
0.0
 11
8.814834594726562
 21
-60.15154266357422
 31
0.0
  0
LINE
  5
2E6
330
1F
100
AcDbEntity
  8
VIEW0002
  6
Continuous
 62
     7
100
AcDbLine
 10
48.53720904305412
 20
28.34073204988771
 30
0.0
 11
49.94457905400521
 21
28.58888936182856
 31
0.0
  0
LINE
  5
2E7
330
1F
100
AcDbEntity
  8
VIEW0002
  6
Continuous
 62
     7
100
AcDbLine
 10
-8.219815373420715
 20
8.15026569366455
 30
0.0
 11
1.143099784851074
 21
8.15026569366455
 31
0.0
  0
LINE
  5
2E8
330
1F
100
AcDbEntity
  8
VIEW0002
  6
CENTER
 62
     7
100
AcDbLine
 10
-59.26657104492188
 20
20.77483749389648
 30
0.0
 11
-59.26657104492188
 21
-3.038295030593872
 31
0.0
  0
LINE
  5
2E9
330
1F
100
AcDbEntity
  8
VIEW0002
  6
Continuous
 62
     7
100
AcDbLine
 10
5.689834594726562
 20
-45.15154266357422
 30
0.0
 11
5.689834594726562
 21
-66.15154266357422
 31
0.0
  0
LINE
  5
2EA
330
1F
100
AcDbEntity
  8
VIEW0002
  6
CENTER
 62
     7
100
AcDbLine
 10
13.51478576660156
 20
-55.65154266357422
 30
0.0
 11
9.864822387695312
 21
-55.65154266357422
 31
0.0
  0
LINE
  5
2EB
330
1F
100
AcDbEntity
  8
VIEW0002
  6
Continuous
 62
     7
100
AcDbLine
 10
-63.7840276455847
 20
19.64252179022904
 30
0.0
 11
-59.26657859392311
 21
19.80027457987461
 31
0.0
  0
LINE
  5
2EC
330
1F
100
AcDbEntity
  8
VIEW0002
  6
Continuous
 62
     7
100
AcDbLine
 10
-59.2665813091218
 20
16.55027068392292
 30
0.0
 11
-54.2665848997243
 21
16.72487439782871
 31
0.0
  0
LINE
  5
2ED
330
1F
100
AcDbEntity
  8
VIEW0002
  6
Continuous
 62
     7
100
AcDbLine
 10
-59.26657787446461
 20
19.8002649871206
 30
0.0
 11
-54.74911738568265
 21
19.64251179808201
 31
0.0
  0
LINE
  5
2EE
330
1F
100
AcDbEntity
  8
VIEW0002
  6
CENTER
 62
     7
100
AcDbLine
 10
-10.31016570329666
 20
-57.77654266357422
 30
0.0
 11
-10.31016570329666
 21
-62.52654266357422
 31
0.0
  0
LINE
  5
2EF
330
1F
100
AcDbEntity
  8
VIEW0002
  6
CENTER
 62
     7
100
AcDbLine
 10
-12.63511681556702
 20
-55.65154266357422
 30
0.0
 11
-8.985153436660767
 21
-55.65154266357422
 31
0.0
  0
LINE
  5
2F0
330
1F
100
AcDbEntity
  8
VIEW0002
  6
CENTER
 62
     7
100
AcDbLine
 10
-12.63511681556702
 20
-70.65154266357422
 30
0.0
 11
-8.985153436660767
 21
-70.65154266357422
 31
0.0
  0
LINE
  5
2F1
330
1F
100
AcDbEntity
  8
VIEW0002
  6
Continuous
 62
     7
100
AcDbLine
 10
-64.26657133568415
 20
16.72487147672824
 30
0.0
 11
-59.26657111391321
 21
16.55026762969145
 31
0.0
  0
LINE
  5
2F2
330
1F
100
AcDbEntity
  8
VIEW0002
  6
Continuous
 62
     7
100
AcDbLine
 10
15.11971515764211
 20
21.37664238611293
 30
0.0
 11
42.81039473675359
 21
23.79926292754124
 31
0.0
  0
LINE
  5
2F3
330
1F
100
AcDbEntity
  8
VIEW0002
  6
CENTER
 62
     7
100
AcDbLine
 10
-10.81016570329666
 20
-68.82654571533203
 30
0.0
 11
-10.81016570329666
 21
-72.4765396118164
 31
0.0
  0
LINE
  5
2F4
330
1F
100
AcDbEntity
  8
VIEW0002
  6
CENTER
 62
     7
100
AcDbLine
 10
-12.68516564369202
 20
-60.15154266357422
 30
0.0
 11
-7.935165643692017
 21
-60.15154266357422
 31
0.0
  0
LINE
  5
2F5
330
1F
100
AcDbEntity
  8
VIEW0002
  6
CENTER
 62
     7
100
AcDbLine
 10
-10.81016570329666
 20
-53.72429656982422
 30
0.0
 11
-10.81016570329666
 21
-57.47654724121094
 31
0.0
  0
LINE
  5
2F6
330
1F
100
AcDbEntity
  8
VIEW0002
  6
Continuous
 62
     7
100
AcDbLine
 10
-13.56016564369202
 20
-50.84408569335938
 30
0.0
 11
-13.56016564369202
 21
-72.65154266357422
 31
0.0
  0
LINE
  5
2F7
330
1F
100
AcDbEntity
  8
VIEW0002
  6
CENTER
 62
     7
100
AcDbLine
 10
0.439834594726562
 20
-41.93680572509766
 30
0.0
 11
0.439834594726562
 21
-78.2641830444336
 31
0.0
  0
LINE
  5
2F8
330
1F
100
AcDbEntity
  8
VIEW0002
  6
Continuous
 62
     7
100
AcDbLine
 10
2.689834594726562
 20
-45.15154266357422
 30
0.0
 11
2.689834594726562
 21
-66.15154266357422
 31
0.0
  0
LINE
  5
2F9
330
1F
100
AcDbEntity
  8
VIEW0002
  6
CENTER
 62
     7
100
AcDbLine
 10
11.68983459472656
 20
-54.01237487792969
 30
0.0
 11
11.68983459472656
 21
-57.47654724121094
 31
0.0
  0
LINE
  5
2FA
330
1F
100
AcDbEntity
  8
VIEW0002
  6
Continuous
 62
     7
100
AcDbLine
 10
-4.810165882110596
 20
-45.15154266357422
 30
0.0
 11
-4.810165882110596
 21
-66.15154266357422
 31
0.0
  0
LINE
  5
2FB
330
1F
100
AcDbEntity
  8
VIEW0002
  6
Continuous
 62
     7
100
AcDbLine
 10
-1.810165405273438
 20
-45.15154266357422
 30
0.0
 11
-1.810165405273438
 21
-66.15154266357422
 31
0.0
  0
LINE
  5
2FC
330
1F
100
AcDbEntity
  8
VIEW0002
  6
Continuous
 62
     7
100
AcDbLine
 10
-6.719815254211426
 20
4.650265693664551
 30
0.0
 11
1.143099784851074
 21
4.650265693664551
 31
0.0
  0
LINE
  5
2FD
330
1F
100
AcDbEntity
  8
VIEW0002
  6
Continuous
 62
     7
100
AcDbLine
 10
5.221477821656999
 20
7.248485431614564
 30
0.0
 11
10.08276814338486
 21
17.6735556207454
 31
0.0
  0
LINE
  5
2FE
330
1F
100
AcDbEntity
  8
VIEW0002
  6
Continuous
 62
     7
100
AcDbLine
 10
15.10221456890164
 20
24.88848071432139
 30
0.0
 11
40.87371144224743
 21
27.14319452625039
 31
0.0
  0
LINE
  5
2FF
330
1F
100
AcDbEntity
  8
VIEW0002
  6
Continuous
 62
     7
100
AcDbLine
 10
64.91716938636488
 20
3.429266278081084
 30
0.0
 11
65.45385869906842
 21
3.697610326428368
 31
0.0
  0
LINE
  5
300
330
1F
100
AcDbEntity
  8
VIEW0002
  6
CENTER
 62
     7
100
AcDbLine
 10
11.68983459472656
 20
-68.82654571533203
 30
0.0
 11
11.68983459472656
 21
-72.4765396118164
 31
0.0
  0
LINE
  5
301
330
1F
100
AcDbEntity
  8
VIEW0002
  6
Continuous
 62
     7
100
AcDbLine
 10
-9.144638359546661
 20
-45.15154266357422
 30
0.0
 11
-4.810165882110596
 21
-45.15154266357422
 31
0.0
  0
LINE
  5
302
330
1F
100
AcDbEntity
  8
VIEW0002
  6
Continuous
 62
     7
100
AcDbLine
 10
-1.810165405273438
 20
-45.15154266357422
 30
0.0
 11
2.689834594726562
 21
-45.15154266357422
 31
0.0
  0
LINE
  5
303
330
1F
100
AcDbEntity
  8
VIEW0002
  6
Continuous
 62
     7
100
AcDbLine
 10
14.43983459472656
 20
-50.84398651123047
 30
0.0
 11
14.43983459472656
 21
-72.65154266357422
 31
0.0
  0
LINE
  5
304
330
1F
100
AcDbEntity
  8
VIEW0002
  6
Continuous
 62
     7
100
AcDbLine
 10
10.66266059875488
 20
82.62067413330078
 30
0.0
 11
10.66266059875488
 21
85.24736785888672
 31
0.0
  0
LINE
  5
305
330
1F
100
AcDbEntity
  8
VIEW0002
  6
Continuous
 62
     7
100
AcDbLine
 10
10.66266059875488
 20
95.36204528808594
 30
0.0
 11
10.66266059875488
 21
92.7353515625
 31
0.0
  0
LINE
  5
306
330
1F
100
AcDbEntity
  8
VIEW0002
  6
Continuous
 62
     7
100
AcDbLine
 10
47.55640029907227
 20
86.74136352539062
 30
0.0
 11
62.11133575439453
 21
86.74136352539062
 31
0.0
  0
LINE
  5
307
330
1F
100
AcDbEntity
  8
VIEW0002
  6
Continuous
 62
     7
100
AcDbLine
 10
51.78021621704102
 20
83.22889709472656
 30
0.0
 11
51.78021621704102
 21
74.99136352539062
 31
0.0
  0
LINE
  5
308
330
1F
100
AcDbEntity
  8
VIEW0002
  6
Continuous
 62
     7
100
AcDbLine
 10
47.55640029907227
 20
83.74136352539062
 30
0.0
 11
62.11133575439453
 21
83.74136352539062
 31
0.0
  0
LINE
  5
309
330
1F
100
AcDbEntity
  8
VIEW0002
  6
Continuous
 62
     7
100
AcDbLine
 10
6.566896438598633
 20
94.9680404663086
 30
0.0
 11
6.566896438598633
 21
91.94734954833984
 31
0.0
  0
LINE
  5
30A
330
1F
100
AcDbEntity
  8
VIEW0002
  6
Continuous
 62
     7
100
AcDbLine
 10
51.18022577961674
 20
102.9913471769174
 30
0.0
 11
46.5510534025271
 21
99.62375267899463
 31
0.0
  0
LINE
  5
30B
330
1F
100
AcDbEntity
  8
VIEW0002
  6
Continuous
 62
     7
100
AcDbLine
 10
-8.219815373420715
 20
94.74136352539062
 30
0.0
 11
1.780169486999512
 21
94.74136352539062
 31
0.0
  0
LINE
  5
30C
330
1F
100
AcDbEntity
  8
VIEW0002
  6
Continuous
 62
     7
100
AcDbLine
 10
51.78021621704102
 20
102.9913635253906
 30
0.0
 11
51.78021621704102
 21
94.75382232666016
 31
0.0
  0
LINE
  5
30D
330
1F
100
AcDbEntity
  8
VIEW0002
  6
Continuous
 62
     7
100
AcDbLine
 10
-8.219815373420715
 20
94.74136352539062
 30
0.0
 11
-8.219815373420715
 21
90.0520248413086
 31
0.0
  0
LINE
  5
30E
330
1F
100
AcDbEntity
  8
VIEW0002
  6
Continuous
 62
     7
100
AcDbLine
 10
51.18017959594727
 20
102.9913635253906
 30
0.0
 11
64.52537536621094
 21
102.9913635253906
 31
0.0
  0
LINE
  5
30F
330
1F
100
AcDbEntity
  8
VIEW0002
  6
Continuous
 62
     7
100
AcDbLine
 10
-8.219815373420715
 20
83.24136352539062
 30
0.0
 11
1.451373100280762
 21
83.24136352539062
 31
0.0
  0
LINE
  5
310
330
1F
100
AcDbEntity
  8
VIEW0002
  6
Continuous
 62
     7
100
AcDbLine
 10
47.55640029907227
 20
91.24136352539062
 30
0.0
 11
62.11221313476562
 21
91.24136352539062
 31
0.0
  0
LINE
  5
311
330
1F
100
AcDbEntity
  8
VIEW0002
  6
Continuous
 62
     7
100
AcDbLine
 10
47.55640029907227
 20
94.24136352539062
 30
0.0
 11
62.11133575439453
 21
94.24136352539062
 31
0.0
  0
LINE
  5
312
330
1F
100
AcDbEntity
  8
VIEW0002
  6
Continuous
 62
     7
100
AcDbLine
 10
51.78021621704102
 20
90.72889709472656
 30
0.0
 11
51.78021621704102
 21
87.25382232666016
 31
0.0
  0
LINE
  5
313
330
1F
100
AcDbEntity
  8
VIEW0002
  6
Continuous
 62
     7
100
AcDbLine
 10
6.566896438598633
 20
83.01467895507812
 30
0.0
 11
6.566896438598633
 21
86.0353775024414
 31
0.0
  0
LINE
  5
314
330
1F
100
AcDbEntity
  8
VIEW0002
  6
CENTER
 62
     7
100
AcDbLine
 10
40.13013076782227
 20
88.99136352539062
 30
0.0
 11
51.78021621704102
 21
88.99136352539062
 31
0.0
  0
LINE
  5
315
330
1F
100
AcDbEntity
  8
VIEW0002
  6
Continuous
 62
     7
100
AcDbLine
 10
3.41224193572998
 20
88.99136352539062
 30
0.0
 11
40.13013076782227
 21
88.99136352539062
 31
0.0
  0
LINE
  5
316
330
1F
100
AcDbEntity
  8
VIEW0002
  6
Continuous
 62
     7
100
AcDbLine
 10
-2.094815254211426
 20
90.36636352539062
 30
0.0
 11
-2.137280464172363
 21
90.36636352539062
 31
0.0
  0
LINE
  5
317
330
1F
100
AcDbEntity
  8
VIEW0002
  6
Continuous
 62
     7
100
AcDbLine
 10
-4.594815254211426
 20
90.11636352539062
 30
0.0
 11
-4.594815254211426
 21
90.07389068603516
 31
0.0
  0
LINE
  5
318
330
1F
100
AcDbEntity
  8
VIEW0002
  6
Continuous
 62
     7
100
AcDbLine
 10
-2.094815254211426
 20
87.61636352539062
 30
0.0
 11
-2.137280464172363
 21
87.61636352539062
 31
0.0
  0
LINE
  5
319
330
1F
100
AcDbEntity
  8
VIEW0002
  6
Continuous
 62
     7
100
AcDbLine
 10
-1.844815254211426
 20
90.11636352539062
 30
0.0
 11
-1.844815254211426
 21
90.07389068603516
 31
0.0
  0
LINE
  5
31A
330
1F
100
AcDbEntity
  8
VIEW0002
  6
CENTER
 62
     7
100
AcDbLine
 10
-3.219815254211426
 20
91.99136352539062
 30
0.0
 11
-3.219815254211426
 21
85.99136352539062
 31
0.0
  0
LINE
  5
31B
330
1F
100
AcDbEntity
  8
VIEW0002
  6
Continuous
 62
     7
100
AcDbLine
 10
9.350679397583008
 20
91.83287811279297
 30
0.0
 11
9.350679397583008
 21
86.14984130859375
 31
0.0
  0
LINE
  5
31C
330
1F
100
AcDbEntity
  8
VIEW0002
  6
Continuous
 62
     7
100
AcDbLine
 10
44.03247954016462
 20
79.29775915157425
 30
0.0
 11
9.234434156576619
 21
82.2512284097425
 31
0.0
  0
LINE
  5
31D
330
1F
100
AcDbEntity
  8
VIEW0002
  6
Continuous
 62
     7
100
AcDbLine
 10
44.03252889814355
 20
98.68496903815681
 30
0.0
 11
9.350689587669525
 21
95.7413627208742
 31
0.0
  0
LINE
  5
31E
330
1F
100
AcDbEntity
  8
VIEW0002
  6
Continuous
 62
     7
100
AcDbLine
 10
1.780169486999512
 20
94.74136352539062
 30
0.0
 11
1.780169486999512
 21
90.05203247070312
 31
0.0
  0
LINE
  5
31F
330
1F
100
AcDbEntity
  8
VIEW0002
  6
Continuous
 62
     7
100
AcDbLine
 10
1.780169285409901
 20
94.74136391428392
 30
0.0
 11
9.350677848359044
 21
95.74136314917591
 31
0.0
  0
LINE
  5
320
330
1F
100
AcDbEntity
  8
VIEW0002
  6
Continuous
 62
     7
100
AcDbLine
 10
2.10613554940451
 20
83.19830440585531
 30
0.0
 11
9.466350973474498
 21
82.22608309053551
 31
0.0
  0
LINE
  5
321
330
1F
100
AcDbEntity
  8
VIEW0002
  6
Continuous
 62
     7
100
AcDbLine
 10
41.7802110412452
 20
82.74135558306071
 30
0.0
 11
40.16377837049878
 21
88.86372503564507
 31
0.0
  0
LINE
  5
322
330
1F
100
AcDbEntity
  8
VIEW0002
  6
Continuous
 62
     7
100
AcDbLine
 10
40.16378204255643
 20
89.11899895159806
 30
0.0
 11
41.78021276572086
 21
95.24136102755818
 31
0.0
  0
LINE
  5
323
330
1F
100
AcDbEntity
  8
VIEW0002
  6
Continuous
 62
     7
100
AcDbLine
 10
9.350679360533926
 20
86.1498407459744
 30
0.0
 11
41.78020183143255
 21
82.74136062087892
 31
0.0
  0
LINE
  5
324
330
1F
100
AcDbEntity
  8
VIEW0002
  6
Continuous
 62
     7
100
AcDbLine
 10
9.350679646087627
 20
91.83288055222826
 30
0.0
 11
41.78020875613617
 21
95.24136137512649
 31
0.0
  0
LINE
  5
325
330
1F
100
AcDbEntity
  8
VIEW0002
  6
Continuous
 62
     7
100
AcDbLine
 10
41.78021621704102
 20
98.49380493164062
 30
0.0
 11
41.78021621704102
 21
96.03470611572266
 31
0.0
  0
LINE
  5
326
330
1F
100
AcDbEntity
  8
VIEW0002
  6
Continuous
 62
     7
100
AcDbLine
 10
41.78021621704102
 20
81.96781921386719
 30
0.0
 11
41.78021621704102
 21
79.48892211914062
 31
0.0
  0
LINE
  5
327
330
1F
100
AcDbEntity
  8
VIEW0002
  6
Continuous
 62
     7
100
AcDbLine
 10
51.18017959594727
 20
74.99136352539062
 30
0.0
 11
64.52537536621094
 21
74.99136352539062
 31
0.0
  0
LINE
  5
328
330
1F
100
AcDbEntity
  8
VIEW0002
  6
Continuous
 62
     7
100
AcDbLine
 10
4.189562797546387
 20
90.49136352539062
 30
0.0
 11
4.189562797546387
 21
87.49136352539062
 31
0.0
  0
LINE
  5
329
330
1F
100
AcDbEntity
  8
VIEW0002
  6
Continuous
 62
     7
100
AcDbLine
 10
51.1802236092902
 20
74.99134743147337
 30
0.0
 11
46.55101411831467
 21
78.35896892871865
 31
0.0
  0
LINE
  5
32A
330
1F
100
AcDbEntity
  8
VIEW0002
  6
Continuous
 62
     7
100
AcDbLine
 10
4.189567127554266
 20
90.49136187835359
 30
0.0
 11
9.35068248092145
 21
91.83287966313279
 31
0.0
  0
LINE
  5
32B
330
1F
100
AcDbEntity
  8
VIEW0002
  6
Continuous
 62
     7
100
AcDbLine
 10
4.18956637666178
 20
87.49136399607401
 30
0.0
 11
9.350685191292754
 21
86.14984531161583
 31
0.0
  0
LINE
  5
32C
330
1F
100
AcDbEntity
  8
VIEW0002
  6
CENTER
 62
     7
100
AcDbLine
 10
-28.66782569885254
 20
88.99136352539062
 30
0.0
 11
8.689592361450195
 21
88.99136352539062
 31
0.0
  0
LINE
  5
32D
330
1F
100
AcDbEntity
  8
VIEW0002
  6
Continuous
 62
     7
100
AcDbLine
 10
-25.46983639640112
 20
88.99136437929535
 30
0.0
 11
-25.55711173905246
 21
83.99136308017823
 31
0.0
  0
LINE
  5
32E
330
1F
100
AcDbEntity
  8
VIEW0002
  6
Continuous
 62
     7
100
AcDbLine
 10
-26.71985391717748
 20
88.99135968707706
 30
0.0
 11
-26.63257857452614
 21
83.99135838795993
 31
0.0
  0
LINE
  5
32F
330
1F
100
AcDbEntity
  8
VIEW0002
  6
Continuous
 62
     7
100
AcDbLine
 10
-25.55712243836789
 20
93.99138706531647
 30
0.0
 11
-25.46984709571655
 21
88.99138576619934
 31
0.0
  0
LINE
  5
330
330
1F
100
AcDbEntity
  8
VIEW0002
  6
Continuous
 62
     7
100
AcDbLine
 10
-17.91984272003174
 20
93.99136352539062
 30
0.0
 11
-17.91984272003174
 21
83.99136352539062
 31
0.0
  0
LINE
  5
331
330
1F
100
AcDbEntity
  8
VIEW0002
  6
Continuous
 62
     7
100
AcDbLine
 10
-26.63256840781586
 20
93.99136124460462
 30
0.0
 11
-26.7198437504672
 21
88.9913599454875
 31
0.0
  0
LINE
  5
332
330
1F
100
AcDbEntity
  8
VIEW0002
  6
Continuous
 62
     7
100
AcDbLine
 10
-26.63258171081543
 20
93.99136352539062
 30
0.0
 11
-8.519948124885559
 21
93.99136352539062
 31
0.0
  0
LINE
  5
333
330
1F
100
AcDbEntity
  8
VIEW0002
  6
Continuous
 62
     7
100
AcDbLine
 10
-26.63258171081543
 20
83.99136352539062
 30
0.0
 11
-8.562169194221497
 21
83.99136352539062
 31
0.0
  0
LINE
  5
334
330
1F
100
AcDbEntity
  8
VIEW0002
  6
Continuous
 62
     7
100
AcDbLine
 10
-9.109295964241028
 20
93.99136352539062
 30
0.0
 11
-9.109295964241028
 21
83.99136352539062
 31
0.0
  0
LINE
  5
335
330
1F
100
AcDbEntity
  8
VIEW0002
  6
Continuous
 62
     7
100
AcDbLine
 10
-7.344815254211426
 20
90.36636352539062
 30
0.0
 11
-6.164616584777832
 21
90.36636352539062
 31
0.0
  0
LINE
  5
336
330
1F
100
AcDbEntity
  8
VIEW0002
  6
Continuous
 62
     7
100
AcDbLine
 10
-7.344815254211426
 20
87.61636352539062
 30
0.0
 11
-6.164616584777832
 21
87.61636352539062
 31
0.0
  0
LINE
  5
337
330
1F
100
AcDbEntity
  8
VIEW0002
  6
Continuous
 62
     7
100
AcDbLine
 10
-7.344815254211426
 20
88.11636352539062
 30
0.0
 11
-6.164616584777832
 21
88.11636352539062
 31
0.0
  0
LINE
  5
338
330
1F
100
AcDbEntity
  8
VIEW0002
  6
Continuous
 62
     7
100
AcDbLine
 10
-7.344815254211426
 20
89.86636352539062
 30
0.0
 11
-6.164616584777832
 21
89.86636352539062
 31
0.0
  0
LINE
  5
339
330
1F
100
AcDbEntity
  8
VIEW0002
  6
Continuous
 62
     7
100
AcDbLine
 10
-0.27501392364502
 20
90.36636352539062
 30
0.0
 11
0.905184745788574
 21
90.36636352539062
 31
0.0
  0
LINE
  5
33A
330
1F
100
AcDbEntity
  8
VIEW0002
  6
Continuous
 62
     7
100
AcDbLine
 10
-0.27501392364502
 20
89.86636352539062
 30
0.0
 11
0.905184745788574
 21
89.86636352539062
 31
0.0
  0
LINE
  5
33B
330
1F
100
AcDbEntity
  8
VIEW0002
  6
Continuous
 62
     7
100
AcDbLine
 10
-0.27501392364502
 20
88.11636352539062
 30
0.0
 11
0.905184745788574
 21
88.11636352539062
 31
0.0
  0
LINE
  5
33C
330
1F
100
AcDbEntity
  8
VIEW0002
  6
Continuous
 62
     7
100
AcDbLine
 10
-0.27501392364502
 20
87.61636352539062
 30
0.0
 11
0.905184745788574
 21
87.61636352539062
 31
0.0
  0
LINE
  5
33D
330
1F
100
AcDbEntity
  8
VIEW0002
  6
Continuous
 62
     7
100
AcDbLine
 10
-8.219815373420715
 20
87.93070220947266
 30
0.0
 11
-8.219815373420715
 21
83.24136352539062
 31
0.0
  0
LINE
  5
33E
330
1F
100
AcDbEntity
  8
VIEW0002
  6
Continuous
 62
     7
100
AcDbLine
 10
-1.844815254211426
 20
87.90882873535156
 30
0.0
 11
-1.844815254211426
 21
87.86636352539062
 31
0.0
  0
LINE
  5
33F
330
1F
100
AcDbEntity
  8
VIEW0002
  6
Continuous
 62
     7
100
AcDbLine
 10
-4.594815254211426
 20
87.90882873535156
 30
0.0
 11
-4.594815254211426
 21
87.86636352539062
 31
0.0
  0
LINE
  5
340
330
1F
100
AcDbEntity
  8
VIEW0002
  6
Continuous
 62
     7
100
AcDbLine
 10
-4.302350044250488
 20
87.61636352539062
 30
0.0
 11
-4.344815254211426
 21
87.61636352539062
 31
0.0
  0
LINE
  5
341
330
1F
100
AcDbEntity
  8
VIEW0002
  6
Continuous
 62
     7
100
AcDbLine
 10
-4.302350044250488
 20
90.36636352539062
 30
0.0
 11
-4.344815254211426
 21
90.36636352539062
 31
0.0
  0
LINE
  5
342
330
1F
100
AcDbEntity
  8
VIEW0002
  6
Continuous
 62
     7
100
AcDbLine
 10
1.780169486999512
 20
87.9306869506836
 30
0.0
 11
1.780169486999512
 21
83.24136352539062
 31
0.0
  0
LINE
  5
343
330
1F
100
AcDbEntity
  8
VIEW0002
  6
Continuous
 62
     7
100
AcDbLine
 10
4.625552177429199
 20
6.300267219543457
 30
0.0
 11
22.23947525024414
 21
6.300267219543457
 31
0.0
  0
LINE
  5
344
330
1F
100
AcDbEntity
  8
VIEW0002
  6
PHANTOM
 62
     7
100
AcDbLine
 10
66.18022288838588
 20
74.99134708973106
 30
0.0
 11
61.55101349381006
 21
78.35896851684824
 31
0.0
  0
LINE
  5
345
330
1F
100
AcDbEntity
  8
VIEW0002
  6
PHANTOM
 62
     7
100
AcDbLine
 10
59.03252854873478
 20
98.6849719822338
 30
0.0
 11
51.78021442018849
 21
98.06943491418507
 31
0.0
  0
LINE
  5
346
330
1F
100
AcDbEntity
  8
VIEW0002
  6
PHANTOM
 62
     7
100
AcDbLine
 10
59.03247919075586
 20
79.29775620749729
 30
0.0
 11
51.7802144756139
 21
79.91328908160442
 31
0.0
  0
LINE
  5
347
330
1F
100
AcDbEntity
  8
VIEW0002
  6
PHANTOM
 62
     7
100
AcDbLine
 10
66.78021240234375
 20
90.72889709472656
 30
0.0
 11
66.78021240234375
 21
87.25382232666016
 31
0.0
  0
LINE
  5
348
330
1F
100
AcDbEntity
  8
VIEW0002
  6
PHANTOM
 62
     7
100
AcDbLine
 10
62.556396484375
 20
94.24136352539062
 30
0.0
 11
77.11133575439453
 21
94.24136352539062
 31
0.0
  0
LINE
  5
349
330
1F
100
AcDbEntity
  8
VIEW0002
  6
PHANTOM
 62
     7
100
AcDbLine
 10
62.556396484375
 20
91.24136352539062
 30
0.0
 11
77.11221313476562
 21
91.24136352539062
 31
0.0
  0
LINE
  5
34A
330
1F
100
AcDbEntity
  8
VIEW0002
  6
PHANTOM
 62
     7
100
AcDbLine
 10
66.18017578125
 20
102.9913635253906
 30
0.0
 11
79.52537536621094
 21
102.9913635253906
 31
0.0
  0
LINE
  5
34B
330
1F
100
AcDbEntity
  8
VIEW0002
  6
PHANTOM
 62
     7
100
AcDbLine
 10
66.78021240234375
 20
102.9913635253906
 30
0.0
 11
66.78021240234375
 21
94.75382232666016
 31
0.0
  0
LINE
  5
34C
330
1F
100
AcDbEntity
  8
VIEW0002
  6
PHANTOM
 62
     7
100
AcDbLine
 10
66.18022582991009
 20
102.9913480796846
 30
0.0
 11
61.55105345282043
 21
99.6237535817618
 31
0.0
  0
LINE
  5
34D
330
1F
100
AcDbEntity
  8
VIEW0002
  6
PHANTOM
 62
     7
100
AcDbLine
 10
62.556396484375
 20
83.74136352539062
 30
0.0
 11
77.11133575439453
 21
83.74136352539062
 31
0.0
  0
LINE
  5
34E
330
1F
100
AcDbEntity
  8
VIEW0002
  6
PHANTOM
 62
     7
100
AcDbLine
 10
66.78021240234375
 20
83.22889709472656
 30
0.0
 11
66.78021240234375
 21
74.99136352539062
 31
0.0
  0
LINE
  5
34F
330
1F
100
AcDbEntity
  8
VIEW0002
  6
PHANTOM
 62
     7
100
AcDbLine
 10
62.556396484375
 20
86.74136352539062
 30
0.0
 11
77.11133575439453
 21
86.74136352539062
 31
0.0
  0
LINE
  5
350
330
1F
100
AcDbEntity
  8
VIEW0002
  6
Continuous
 62
     7
100
AcDbLine
 10
56.78021240234375
 20
81.96781921386719
 30
0.0
 11
56.78021240234375
 21
79.48892211914062
 31
0.0
  0
LINE
  5
351
330
1F
100
AcDbEntity
  8
VIEW0002
  6
Continuous
 62
     7
100
AcDbLine
 10
56.78021240234375
 20
98.49380493164062
 30
0.0
 11
56.78021240234375
 21
96.03470611572266
 31
0.0
  0
LINE
  5
352
330
1F
100
AcDbEntity
  8
VIEW0002
  6
PHANTOM
 62
     7
100
AcDbLine
 10
51.78021455482181
 20
94.71584326087508
 30
0.0
 11
56.78020768028618
 21
95.24136370938162
 31
0.0
  0
LINE
  5
353
330
1F
100
AcDbEntity
  8
VIEW0002
  6
PHANTOM
 62
     7
100
AcDbLine
 10
51.78021521771809
 20
83.2668779376414
 30
0.0
 11
56.78020454938252
 21
82.7413578878793
 31
0.0
  0
LINE
  5
354
330
1F
100
AcDbEntity
  8
VIEW0002
  6
PHANTOM
 62
     7
100
AcDbLine
 10
55.13008406961519
 20
88.99136051124034
 30
0.0
 11
56.78021380382934
 21
95.2413603166073
 31
0.0
  0
LINE
  5
355
330
1F
100
AcDbEntity
  8
VIEW0002
  6
PHANTOM
 62
     7
100
AcDbLine
 10
56.78021294971876
 20
82.74136046921922
 30
0.0
 11
55.16378125276334
 21
88.86372623349146
 31
0.0
  0
LINE
  5
356
330
1F
100
AcDbEntity
  8
VIEW0002
  6
PHANTOM
 62
     7
100
AcDbLine
 10
16.7801685333252
 20
85.36897277832031
 30
0.0
 11
16.7801685333252
 21
83.24136352539062
 31
0.0
  0
LINE
  5
357
330
1F
100
AcDbEntity
  8
VIEW0002
  6
PHANTOM
 62
     7
100
AcDbLine
 10
6.780183792114258
 20
86.81798553466797
 30
0.0
 11
6.780183792114258
 21
83.24136352539062
 31
0.0
  0
LINE
  5
358
330
1F
100
AcDbEntity
  8
VIEW0002
  6
PHANTOM
 62
     7
100
AcDbLine
 10
16.78016989566894
 20
83.2413627200688
 30
0.0
 11
24.46635002598907
 21
82.22608426345639
 31
0.0
  0
LINE
  5
359
330
1F
100
AcDbEntity
  8
VIEW0002
  6
PHANTOM
 62
     7
100
AcDbLine
 10
16.78016928338617
 20
94.74136286625043
 30
0.0
 11
24.35067784633531
 21
95.74136210114241
 31
0.0
  0
LINE
  5
35A
330
1F
100
AcDbEntity
  8
VIEW0002
  6
PHANTOM
 62
     7
100
AcDbLine
 10
16.7801685333252
 20
94.74136352539062
 30
0.0
 11
16.7801685333252
 21
92.61375427246094
 31
0.0
  0
LINE
  5
35B
330
1F
100
AcDbEntity
  8
VIEW0002
  6
PHANTOM
 62
     7
100
AcDbLine
 10
51.78021442018849
 20
98.06943491418507
 30
0.0
 11
24.35068923826077
 21
95.7413656649512
 31
0.0
  0
LINE
  5
35C
330
1F
100
AcDbEntity
  8
VIEW0002
  6
PHANTOM
 62
     7
100
AcDbLine
 10
51.7802144756139
 20
79.91328908160442
 30
0.0
 11
24.23443475742564
 21
82.25122538501282
 31
0.0
  0
LINE
  5
35D
330
1F
100
AcDbEntity
  8
VIEW0002
  6
PHANTOM
 62
     7
100
AcDbLine
 10
6.780183792114258
 20
94.74136352539062
 30
0.0
 11
6.780183792114258
 21
91.16473388671875
 31
0.0
  0
LINE
  5
35E
330
1F
100
AcDbEntity
  8
VIEW0002
  6
PHANTOM
 62
     7
100
AcDbLine
 10
6.780183792114258
 20
83.24136352539062
 30
0.0
 11
16.7801685333252
 21
83.24136352539062
 31
0.0
  0
LINE
  5
35F
330
1F
100
AcDbEntity
  8
VIEW0002
  6
PHANTOM
 62
     7
100
AcDbLine
 10
6.780183792114258
 20
94.74136352539062
 30
0.0
 11
16.7801685333252
 21
94.74136352539062
 31
0.0
  0
LINE
  5
360
330
1F
100
AcDbEntity
  8
VIEW0002
  6
PHANTOM
 62
     7
100
AcDbLine
 10
51.78021621704102
 20
88.99136352539062
 30
0.0
 11
55.13008117675781
 21
88.99136352539062
 31
0.0
  0
LINE
  5
361
330
1F
100
AcDbEntity
  8
VIEW0002
  6
CENTER
 62
     7
100
AcDbLine
 10
55.13008117675781
 20
88.99136352539062
 30
0.0
 11
80.203857421875
 21
88.99136352539062
 31
0.0
  0
LINE
  5
362
330
1F
100
AcDbEntity
  8
VIEW0002
  6
PHANTOM
 62
     7
100
AcDbLine
 10
30.10221293948598
 20
24.88847989938354
 30
0.0
 11
55.87371551310356
 21
27.1431942100217
 31
0.0
  0
LINE
  5
363
330
1F
100
AcDbEntity
  8
VIEW0002
  6
PHANTOM
 62
     7
100
AcDbLine
 10
20.22147769810579
 20
7.248484664702917
 30
0.0
 11
25.08276801983365
 21
17.67355485383376
 31
0.0
  0
LINE
  5
364
330
1F
100
AcDbEntity
  8
VIEW0002
  6
PHANTOM
 62
     7
100
AcDbLine
 10
8.280183792114258
 20
4.650265693664551
 30
0.0
 11
16.14309883117676
 21
4.650265693664551
 31
0.0
  0
LINE
  5
365
330
1F
100
AcDbEntity
  8
VIEW0002
  6
PHANTOM
 62
     7
100
AcDbLine
 10
30.11971352822646
 20
21.37664157117509
 30
0.0
 11
57.81039880760974
 21
23.79926261131256
 31
0.0
  0
LINE
  5
366
330
1F
100
AcDbEntity
  8
VIEW0002
  6
PHANTOM
 62
     7
100
AcDbLine
 10
6.780183792114258
 20
8.15026569366455
 30
0.0
 11
16.14309883117676
 21
8.15026569366455
 31
0.0
  0
LINE
  5
367
330
1F
100
AcDbEntity
  8
VIEW0002
  6
PHANTOM
 62
     7
100
AcDbLine
 10
17.04940047328156
 20
8.727648644710339
 30
0.0
 11
22.02260699754599
 21
19.39272389207231
 31
0.0
  0
LINE
  5
368
330
1F
100
AcDbEntity
  8
VIEW0002
  6
PHANTOM
 62
     7
100
AcDbLine
 10
9.280183792114258
 20
8.15026569366455
 30
0.0
 11
9.280183792114258
 21
8.65026569366455
 31
0.0
  0
LINE
  5
369
330
1F
100
AcDbEntity
  8
VIEW0002
  6
PHANTOM
 62
     7
100
AcDbLine
 10
12.78018379211426
 20
10.80026721954346
 30
0.0
 11
12.78018379211426
 21
13.55026721954346
 31
0.0
  0
LINE
  5
36A
330
1F
100
AcDbEntity
  8
VIEW0002
  6
PHANTOM
 62
     7
100
AcDbLine
 10
10.53018379211426
 20
10.80026721954346
 30
0.0
 11
10.53018379211426
 21
13.55026721954346
 31
0.0
  0
LINE
  5
36B
330
1F
100
AcDbEntity
  8
VIEW0002
  6
PHANTOM
 62
     7
100
AcDbLine
 10
6.280183792114258
 20
13.21944904327393
 30
0.0
 11
6.280183792114258
 21
14.30026721954346
 31
0.0
  0
LINE
  5
36C
330
1F
100
AcDbEntity
  8
VIEW0002
  6
PHANTOM
 62
     7
100
AcDbLine
 10
10.53018379211426
 20
13.55026721954346
 30
0.0
 11
13.03018379211426
 21
13.55026721954346
 31
0.0
  0
LINE
  5
36D
330
1F
100
AcDbEntity
  8
VIEW0002
  6
PHANTOM
 62
     7
100
AcDbLine
 10
14.08020210266113
 20
9.300267219543457
 30
0.0
 11
9.480195999145508
 21
9.300267219543457
 31
0.0
  0
LINE
  5
36E
330
1F
100
AcDbEntity
  8
VIEW0002
  6
PHANTOM
 62
     7
100
AcDbLine
 10
7.280183792114258
 20
14.30026721954346
 30
0.0
 11
6.280183792114258
 21
14.30026721954346
 31
0.0
  0
LINE
  5
36F
330
1F
100
AcDbEntity
  8
VIEW0002
  6
PHANTOM
 62
     7
100
AcDbLine
 10
9.280183792114258
 20
10.80026721954346
 30
0.0
 11
9.280183792114258
 21
12.30026721954346
 31
0.0
  0
LINE
  5
370
330
1F
100
AcDbEntity
  8
VIEW0002
  6
PHANTOM
 62
     7
100
AcDbLine
 10
14.28018379211426
 20
8.65026569366455
 30
0.0
 11
9.280183792114258
 21
8.65026569366455
 31
0.0
  0
LINE
  5
371
330
1F
100
AcDbEntity
  8
VIEW0002
  6
PHANTOM
 62
     7
100
AcDbLine
 10
9.480195999145508
 20
8.65026569366455
 30
0.0
 11
9.480195999145508
 21
9.300267219543457
 31
0.0
  0
LINE
  5
372
330
1F
100
AcDbEntity
  8
VIEW0002
  6
PHANTOM
 62
     7
100
AcDbLine
 10
10.78018379211426
 20
10.80026721954346
 30
0.0
 11
10.78018379211426
 21
13.55026721954346
 31
0.0
  0
LINE
  5
373
330
1F
100
AcDbEntity
  8
VIEW0002
  6
PHANTOM
 62
     7
100
AcDbLine
 10
14.28018379211426
 20
8.15026569366455
 30
0.0
 11
14.28018379211426
 21
8.65026569366455
 31
0.0
  0
LINE
  5
374
330
1F
100
AcDbEntity
  8
VIEW0002
  6
PHANTOM
 62
     7
100
AcDbLine
 10
11.40491959514116
 20
8.650262779456135
 30
0.0
 11
11.57908612301981
 21
9.300261179874763
 31
0.0
  0
LINE
  5
375
330
1F
100
AcDbEntity
  8
VIEW0002
  6
PHANTOM
 62
     7
100
AcDbLine
 10
14.28018379211426
 20
10.80026721954346
 30
0.0
 11
9.280183792114258
 21
10.80026721954346
 31
0.0
  0
LINE
  5
376
330
1F
100
AcDbEntity
  8
VIEW0002
  6
PHANTOM
 62
     7
100
AcDbLine
 10
6.780183792114258
 20
8.15026569366455
 30
0.0
 11
6.780183792114258
 21
6.150265693664551
 31
0.0
  0
LINE
  5
377
330
1F
100
AcDbEntity
  8
VIEW0002
  6
CENTER
 62
     7
100
AcDbLine
 10
11.78018379211426
 20
14.65858936309814
 30
0.0
 11
11.78018379211426
 21
-0.594437003135681
 31
0.0
  0
LINE
  5
378
330
1F
100
AcDbEntity
  8
VIEW0002
  6
PHANTOM
 62
     7
100
AcDbLine
 10
13.03018379211426
 20
10.80026721954346
 30
0.0
 11
13.03018379211426
 21
13.55026721954346
 31
0.0
  0
LINE
  5
379
330
1F
100
AcDbEntity
  8
VIEW0002
  6
PHANTOM
 62
     7
100
AcDbLine
 10
14.08020210266113
 20
8.65026569366455
 30
0.0
 11
14.08020210266113
 21
9.300267219543457
 31
0.0
  0
LINE
  5
37A
330
1F
100
AcDbEntity
  8
VIEW0002
  6
PHANTOM
 62
     7
100
AcDbLine
 10
17.28018379211426
 20
13.21944904327393
 30
0.0
 11
17.28018379211426
 21
14.30026721954346
 31
0.0
  0
LINE
  5
37B
330
1F
100
AcDbEntity
  8
VIEW0002
  6
PHANTOM
 62
     7
100
AcDbLine
 10
16.28018379211426
 20
14.30026721954346
 30
0.0
 11
17.28018379211426
 21
14.30026721954346
 31
0.0
  0
LINE
  5
37C
330
1F
100
AcDbEntity
  8
VIEW0002
  6
PHANTOM
 62
     7
100
AcDbLine
 10
14.28018379211426
 20
10.80026721954346
 30
0.0
 11
14.28018379211426
 21
12.30026721954346
 31
0.0
  0
LINE
  5
37D
330
1F
100
AcDbEntity
  8
VIEW0002
  6
PHANTOM
 62
     7
100
AcDbLine
 10
12.15547481668082
 20
9.300266174278171
 30
0.0
 11
11.98130828880216
 21
8.650267773859541
 31
0.0
  0
LINE
  5
37E
330
1F
100
AcDbEntity
  8
VIEW0002
  6
Continuous
 62
     7
100
AcDbLine
 10
49.4834318222853
 20
30.03072238992122
 30
0.0
 11
49.50960881057041
 21
30.03533809936295
 31
0.0
  0
LINE
  5
37F
330
1F
100
AcDbEntity
  8
VIEW0002
  6
PHANTOM
 62
     7
100
AcDbLine
 10
79.9171684337383
 20
3.429264625409509
 30
0.0
 11
80.45385774644184
 21
3.69760867375679
 31
0.0
  0
LINE
  5
380
330
1F
100
AcDbEntity
  8
VIEW0002
  6
PHANTOM
 62
     7
100
AcDbLine
 10
63.53721023108893
 20
28.34073298538465
 30
0.0
 11
64.94457648529658
 21
28.58888963491025
 31
0.0
  0
LINE
  5
381
330
1F
100
AcDbEntity
  8
VIEW0002
  6
PHANTOM
 62
     7
100
AcDbLine
 10
61.12999423823332
 20
26.49468478498071
 30
0.0
 11
62.07941346718921
 21
26.66209301588612
 31
0.0
  0
LINE
  5
382
330
1F
100
AcDbEntity
  8
VIEW0002
  6
PHANTOM
 62
     7
100
AcDbLine
 10
67.78087648807163
 20
29.04362861848539
 30
0.0
 11
80.45385774644183
 21
3.69760867375679
 31
0.0
  0
LINE
  5
383
330
1F
100
AcDbEntity
  8
VIEW0002
  6
PHANTOM
 62
     7
100
AcDbLine
 10
60.83272812371742
 20
29.99626092333695
 30
0.0
 11
64.57665355441141
 21
30.65641600960323
 31
0.0
  0
LINE
  5
384
330
1F
100
AcDbEntity
  8
VIEW0002
  6
PHANTOM
 62
     7
100
AcDbLine
 10
67.23825761056007
 20
28.78714372662415
 30
0.0
 11
79.9171684337383
 21
3.429264625409509
 31
0.0
  0
LINE
  5
385
330
1F
100
AcDbEntity
  8
VIEW0002
  6
PHANTOM
 62
     7
100
AcDbLine
 10
64.48343284471629
 20
30.03072426460404
 30
0.0
 11
64.50960983300139
 21
30.03533997404575
 31
0.0
  0
LINE
  5
386
330
1F
100
AcDbEntity
  8
VIEW0002
  6
PHANTOM
 62
     7
100
AcDbLine
 10
75.91579803187476
 20
10.42587293625233
 30
0.0
 11
76.43447205561212
 21
10.39474004648973
 31
0.0
  0
LINE
  5
387
330
1F
100
AcDbEntity
  8
VIEW0002
  6
PHANTOM
 62
     7
100
AcDbLine
 10
58.74030553292513
 20
24.23289633063293
 30
0.0
 11
60.8632497102642
 21
26.355840507972
 31
0.0
  0
LINE
  5
388
330
1F
100
AcDbEntity
  8
VIEW0002
  6
PHANTOM
 62
     7
100
AcDbLine
 10
57.42358673487701
 20
27.86591421129742
 30
0.0
 11
58.16545758541449
 21
28.60778506183491
 31
0.0
  0
LINE
  5
389
330
1F
100
AcDbEntity
  8
VIEW0002
  6
PHANTOM
 62
     7
100
AcDbLine
 10
63.19765875219412
 20
27.54842175067592
 30
0.0
 11
64.13686105797923
 21
29.73989389224944
 31
0.0
  0
LINE
  5
38A
330
1F
100
AcDbEntity
  8
VIEW0002
  6
PHANTOM
 62
     7
100
AcDbLine
 10
65.89891459951784
 20
28.11172777204511
 30
0.0
 11
74.16329278506213
 21
11.58293395068311
 31
0.0
  0
LINE
  5
38B
330
1F
100
AcDbEntity
  8
VIEW0002
  6
Continuous
 62
     7
100
AcDbLine
 10
49.50960881057041
 20
30.03533809936295
 30
0.0
 11
49.6808411765341
 21
30.06553098632528
 31
0.0
  0
LINE
  5
38C
330
1F
100
AcDbEntity
  8
VIEW0002
  6
PHANTOM
 62
     7
100
AcDbLine
 10
64.50960983300139
 20
30.03533997404575
 30
0.0
 11
64.6808421989651
 21
30.06553286100809
 31
0.0
  0
LINE
  5
38D
330
1F
100
AcDbEntity
  8
VIEW0002
  6
CENTER
 62
     7
100
AcDbLine
 10
56.92609405517578
 20
99.99136352539062
 30
0.0
 11
58.92735290527344
 21
99.99136352539062
 31
0.0
  0
LINE
  5
38E
330
1F
100
AcDbEntity
  8
VIEW0002
  6
CENTER
 62
     7
100
AcDbLine
 10
58.21173858642578
 20
98.33041381835938
 30
0.0
 11
58.21173858642578
 21
101.2947998046875
 31
0.0
  0
LINE
  5
38F
330
1F
100
AcDbEntity
  8
VIEW0002
  6
CENTER
 62
     7
100
AcDbLine
 10
59.88299560546875
 20
98.06600189208984
 30
0.0
 11
59.88299560546875
 21
101.9011383056641
 31
0.0
  0
LINE
  5
390
330
1F
100
AcDbEntity
  8
VIEW0002
  6
CENTER
 62
     7
100
AcDbLine
 10
63.78260040283203
 20
97.88092041015625
 30
0.0
 11
63.78260040283203
 21
101.3182525634766
 31
0.0
  0
LINE
  5
391
330
1F
100
AcDbEntity
  8
VIEW0002
  6
CENTER
 62
     7
100
AcDbLine
 10
63.083740234375
 20
99.99136352539062
 30
0.0
 11
64.52537536621094
 21
99.99136352539062
 31
0.0
  0
LINE
  5
392
330
1F
100
AcDbEntity
  8
VIEW0002
  6
CENTER
 62
     7
100
AcDbLine
 10
59.15161895751953
 20
99.99136352539062
 30
0.0
 11
61.06535339355469
 21
99.99136352539062
 31
0.0
  0
LINE
  5
393
330
1F
100
AcDbEntity
  8
VIEW0002
  6
Continuous
 62
     7
100
AcDbLine
 10
65.453857421875
 20
101.5758895874023
 30
0.0
 11
65.453857421875
 21
76.40682983398438
 31
0.0
  0
LINE
  5
394
330
1F
100
AcDbEntity
  8
VIEW0002
  6
CENTER
 62
     7
100
AcDbLine
 10
56.92609405517578
 20
77.99136352539062
 30
0.0
 11
58.92735290527344
 21
77.99136352539062
 31
0.0
  0
LINE
  5
395
330
1F
100
AcDbEntity
  8
VIEW0002
  6
CENTER
 62
     7
100
AcDbLine
 10
58.21173858642578
 20
79.65230560302734
 30
0.0
 11
58.21173858642578
 21
76.68791961669922
 31
0.0
  0
LINE
  5
396
330
1F
100
AcDbEntity
  8
VIEW0002
  6
CENTER
 62
     7
100
AcDbLine
 10
59.15161895751953
 20
77.99136352539062
 30
0.0
 11
61.06535339355469
 21
77.99136352539062
 31
0.0
  0
LINE
  5
397
330
1F
100
AcDbEntity
  8
VIEW0002
  6
CENTER
 62
     7
100
AcDbLine
 10
59.88299560546875
 20
79.91671752929688
 30
0.0
 11
59.88299560546875
 21
76.08158111572266
 31
0.0
  0
LINE
  5
398
330
1F
100
AcDbEntity
  8
VIEW0002
  6
CENTER
 62
     7
100
AcDbLine
 10
63.083740234375
 20
77.99136352539062
 30
0.0
 11
64.52537536621094
 21
77.99136352539062
 31
0.0
  0
LINE
  5
399
330
1F
100
AcDbEntity
  8
VIEW0002
  6
CENTER
 62
     7
100
AcDbLine
 10
63.78260040283203
 20
80.101806640625
 30
0.0
 11
63.78260040283203
 21
76.66446685791016
 31
0.0
  0
LINE
  5
39A
330
1F
100
AcDbEntity
  8
VIEW0002
  6
CENTER
 62
     7
100
AcDbLine
 10
71.92609405517578
 20
99.99136352539062
 30
0.0
 11
73.92735290527344
 21
99.99136352539062
 31
0.0
  0
LINE
  5
39B
330
1F
100
AcDbEntity
  8
VIEW0002
  6
CENTER
 62
     7
100
AcDbLine
 10
73.21173858642578
 20
98.33041381835938
 30
0.0
 11
73.21173858642578
 21
101.2947998046875
 31
0.0
  0
LINE
  5
39C
330
1F
100
AcDbEntity
  8
VIEW0002
  6
CENTER
 62
     7
100
AcDbLine
 10
74.88299560546875
 20
98.06600189208984
 30
0.0
 11
74.88299560546875
 21
101.9011383056641
 31
0.0
  0
LINE
  5
39D
330
1F
100
AcDbEntity
  8
VIEW0002
  6
CENTER
 62
     7
100
AcDbLine
 10
78.78260040283203
 20
97.88092041015625
 30
0.0
 11
78.78260040283203
 21
101.3182525634766
 31
0.0
  0
LINE
  5
39E
330
1F
100
AcDbEntity
  8
VIEW0002
  6
CENTER
 62
     7
100
AcDbLine
 10
78.083740234375
 20
99.99136352539062
 30
0.0
 11
79.52537536621094
 21
99.99136352539062
 31
0.0
  0
LINE
  5
39F
330
1F
100
AcDbEntity
  8
VIEW0002
  6
CENTER
 62
     7
100
AcDbLine
 10
74.15161895751953
 20
99.99136352539062
 30
0.0
 11
76.06535339355469
 21
99.99136352539062
 31
0.0
  0
LINE
  5
3A0
330
1F
100
AcDbEntity
  8
VIEW0002
  6
PHANTOM
 62
     7
100
AcDbLine
 10
80.453857421875
 20
101.5758895874023
 30
0.0
 11
80.453857421875
 21
76.40682983398438
 31
0.0
  0
LINE
  5
3A1
330
1F
100
AcDbEntity
  8
VIEW0002
  6
CENTER
 62
     7
100
AcDbLine
 10
71.92609405517578
 20
77.99136352539062
 30
0.0
 11
73.92735290527344
 21
77.99136352539062
 31
0.0
  0
LINE
  5
3A2
330
1F
100
AcDbEntity
  8
VIEW0002
  6
CENTER
 62
     7
100
AcDbLine
 10
73.21173858642578
 20
79.65230560302734
 30
0.0
 11
73.21173858642578
 21
76.68791961669922
 31
0.0
  0
LINE
  5
3A3
330
1F
100
AcDbEntity
  8
VIEW0002
  6
CENTER
 62
     7
100
AcDbLine
 10
74.15161895751953
 20
77.99136352539062
 30
0.0
 11
76.06535339355469
 21
77.99136352539062
 31
0.0
  0
LINE
  5
3A4
330
1F
100
AcDbEntity
  8
VIEW0002
  6
CENTER
 62
     7
100
AcDbLine
 10
74.88299560546875
 20
79.91671752929688
 30
0.0
 11
74.88299560546875
 21
76.08158111572266
 31
0.0
  0
LINE
  5
3A5
330
1F
100
AcDbEntity
  8
VIEW0002
  6
CENTER
 62
     7
100
AcDbLine
 10
78.083740234375
 20
77.99136352539062
 30
0.0
 11
79.52537536621094
 21
77.99136352539062
 31
0.0
  0
LINE
  5
3A6
330
1F
100
AcDbEntity
  8
VIEW0002
  6
CENTER
 62
     7
100
AcDbLine
 10
78.78260040283203
 20
80.101806640625
 30
0.0
 11
78.78260040283203
 21
76.66446685791016
 31
0.0
  0
LINE
  5
3A7
330
1F
100
AcDbEntity
  8
VIEW0002
  6
PHANTOM
 62
     7
100
AcDbLine
 10
66.18020629882812
 20
74.99136352539062
 30
0.0
 11
79.52537536621094
 21
74.99136352539062
 31
0.0
  0
ARC
  5
3A8
330
1F
100
AcDbEntity
  8
VIEW0002
  6
Continuous
 62
     7
100
AcDbCircle
 10
-6.719815254211426
 20
6.150265693664551
 30
0.0
 40
1.5
100
AcDbArc
 50
179.999991348578
 51
270.0000006832453
  0
ARC
  5
3A9
330
1F
100
AcDbEntity
  8
VIEW0002
  6
Continuous
 62
     7
100
AcDbCircle
 10
-1.719815254211426
 20
13.21944904327393
 30
0.0
 40
4.0
100
AcDbArc
 50
281.5369588150496
 51
359.9999999999999
  0
ARC
  5
3AA
330
1F
100
AcDbEntity
  8
VIEW0002
  6
Continuous
 62
     7
100
AcDbCircle
 10
40.53017044067383
 20
13.13605213165283
 30
0.0
 40
1.0
100
AcDbArc
 50
0.0
 51
45.00000125223908
  0
ARC
  5
3AB
330
1F
100
AcDbEntity
  8
VIEW0002
  6
Continuous
 62
     7
100
AcDbCircle
 10
4.189834594726562
 20
-66.15154266357422
 30
0.0
 40
1.5
100
AcDbArc
 50
179.999991348578
 51
0.0
  0
ARC
  5
3AC
330
1F
100
AcDbEntity
  8
VIEW0002
  6
Continuous
 62
     7
100
AcDbCircle
 10
1.280184745788574
 20
12.30026721954346
 30
0.0
 40
2.0
100
AcDbArc
 50
90.00000250447816
 51
180.0000050089563
  0
ARC
  5
3AD
330
1F
100
AcDbEntity
  8
VIEW0002
  6
Continuous
 62
     7
100
AcDbCircle
 10
-63.76657104492188
 20
19.14282608032227
 30
0.0
 40
0.5
100
AcDbArc
 50
91.99999800667379
 51
180.0000050089563
  0
ARC
  5
3AE
330
1F
100
AcDbEntity
  8
VIEW0002
  6
PHANTOM
 62
     7
100
AcDbCircle
 10
-58.26657104492188
 20
16.33504104614258
 30
0.0
 40
0.25
100
AcDbArc
 50
91.99999800667379
 51
180.0000050089563
  0
ARC
  5
3AF
330
1F
100
AcDbEntity
  8
VIEW0002
  6
PHANTOM
 62
     7
100
AcDbCircle
 10
-60.26657104492188
 20
16.33504104614258
 30
0.0
 40
0.25
100
AcDbArc
 50
0.0
 51
88.00000017209338
  0
ARC
  5
3B0
330
1F
100
AcDbEntity
  8
VIEW0002
  6
Continuous
 62
     7
100
AcDbCircle
 10
-19.47177982330322
 20
0.550267100334167
 30
0.0
 40
1.0
100
AcDbArc
 50
199.746331428739
 51
269.9999974955218
  0
CIRCLE
  5
3B1
330
1F
100
AcDbEntity
  8
VIEW0002
  6
Continuous
 62
     7
100
AcDbCircle
 10
11.68983459472656
 20
-55.65154266357422
 30
0.0
 40
1.075000047683716
  0
ARC
  5
3B2
330
1F
100
AcDbEntity
  8
VIEW0002
  6
Continuous
 62
     7
100
AcDbCircle
 10
37.40518569946289
 20
3.675266981124878
 30
0.0
 40
0.625
100
AcDbArc
 50
0.0
 51
90.00000250447816
  0
ARC
  5
3B3
330
1F
100
AcDbEntity
  8
VIEW0002
  6
Continuous
 62
     7
100
AcDbCircle
 10
-19.06983280181885
 20
1.050267100334167
 30
0.0
 40
0.25
100
AcDbArc
 50
179.999991348578
 51
270.0000006832453
  0
ARC
  5
3B4
330
1F
100
AcDbEntity
  8
VIEW0002
  6
Continuous
 62
     7
100
AcDbCircle
 10
40.53017044067383
 20
17.55026626586914
 30
0.0
 40
1.0
100
AcDbArc
 50
269.9999974955218
 51
0.0
  0
ARC
  5
3B5
330
1F
100
AcDbEntity
  8
VIEW0002
  6
Continuous
 62
     7
100
AcDbCircle
 10
-8.961529850959778
 20
7.050267219543457
 30
0.0
 40
3.75
100
AcDbArc
 50
210.0000026560589
 51
269.9999974955218
  0
ARC
  5
3B6
330
1F
100
AcDbEntity
  8
VIEW0002
  6
Continuous
 62
     7
100
AcDbCircle
 10
37.78018569946289
 20
3.450901746749878
 30
0.0
 40
1.0
100
AcDbArc
 50
179.999991348578
 51
228.5165462308494
  0
ARC
  5
3B7
330
1F
100
AcDbEntity
  8
VIEW0002
  6
Continuous
 62
     7
100
AcDbCircle
 10
34.3771858215332
 20
4.620724678039551
 30
0.0
 40
0.5
100
AcDbArc
 50
0.0
 51
101.4821720464841
  0
ARC
  5
3B8
330
1F
100
AcDbEntity
  8
VIEW0002
  6
Continuous
 62
     7
100
AcDbCircle
 10
-54.76657104492188
 20
19.14282608032227
 30
0.0
 40
0.5
100
AcDbArc
 50
0.0
 51
88.00000017209338
  0
CIRCLE
  5
3B9
330
1F
100
AcDbEntity
  8
VIEW0002
  6
Continuous
 62
     7
100
AcDbCircle
 10
-10.31016570329666
 20
-60.15154266357422
 30
0.0
 40
1.625
  0
ARC
  5
3BA
330
1F
100
AcDbEntity
  8
VIEW0002
  6
Continuous
 62
     7
100
AcDbCircle
 10
40.53017044067383
 20
3.700268507003784
 30
0.0
 40
1.0
100
AcDbArc
 50
269.9999974955218
 51
0.0
  0
ARC
  5
3BB
330
1F
100
AcDbEntity
  8
VIEW0002
  6
Continuous
 62
     7
100
AcDbCircle
 10
34.3771858215332
 20
4.576535224914551
 30
0.0
 40
0.5
100
AcDbArc
 50
281.8597603854136
 51
0.0
  0
ARC
  5
3BC
330
1F
100
AcDbEntity
  8
VIEW0002
  6
Continuous
 62
     7
100
AcDbCircle
 10
-7.719815254211426
 20
12.30026721954346
 30
0.0
 40
2.0
100
AcDbArc
 50
0.0
 51
90.00000250447816
  0
ARC
  5
3BD
330
1F
100
AcDbEntity
  8
VIEW0002
  6
Continuous
 62
     7
100
AcDbCircle
 10
-4.719815254211426
 20
13.21944904327393
 30
0.0
 40
4.0
100
AcDbArc
 50
179.999991348578
 51
258.4630461939067
  0
ARC
  5
3BE
330
1F
100
AcDbEntity
  8
VIEW0002
  6
Continuous
 62
     7
100
AcDbCircle
 10
40.53017044067383
 20
18.70158767700195
 30
0.0
 40
1.0
100
AcDbArc
 50
0.0
 51
93.50000317105696
  0
ARC
  5
3BF
330
1F
100
AcDbEntity
  8
VIEW0002
  6
Continuous
 62
     7
100
AcDbCircle
 10
24.26333999633789
 20
3.841831922531128
 30
0.0
 40
0.75
100
AcDbArc
 50
148.3924440208869
 51
281.4821770554404
  0
ARC
  5
3C0
330
1F
100
AcDbEntity
  8
VIEW0002
  6
Continuous
 62
     7
100
AcDbCircle
 10
24.52054214477539
 20
4.550267219543457
 30
0.0
 40
2.5
100
AcDbArc
 50
269.9999974955218
 51
281.8597603854136
  0
ARC
  5
3C1
330
1F
100
AcDbEntity
  8
VIEW0002
  6
Continuous
 62
     7
100
AcDbCircle
 10
-25.46985721588135
 20
17.80026626586914
 30
0.0
 40
1.25
100
AcDbArc
 50
179.999991348578
 51
270.0000006832453
  0
ARC
  5
3C2
330
1F
100
AcDbEntity
  8
VIEW0002
  6
Continuous
 62
     7
100
AcDbCircle
 10
28.91196060180664
 20
14.73491382598877
 30
0.0
 40
5.5
100
AcDbArc
 50
93.50000317105696
 51
148.3924440208869
  0
ARC
  5
3C3
330
1F
100
AcDbEntity
  8
VIEW0002
  6
Continuous
 62
     7
100
AcDbCircle
 10
31.67715835571289
 20
12.55026721954346
 30
0.0
 40
2.5
100
AcDbArc
 50
90.00000250447816
 51
148.3924440208869
  0
ARC
  5
3C4
330
1F
100
AcDbEntity
  8
VIEW0002
  6
Continuous
 62
     7
100
AcDbCircle
 10
37.40518569946289
 20
3.675266981124878
 30
0.0
 40
0.625
100
AcDbArc
 50
90.00000250447816
 51
180.0000050089563
  0
ARC
  5
3C5
330
1F
100
AcDbEntity
  8
VIEW0002
  6
Continuous
 62
     7
100
AcDbCircle
 10
-18.75925540924072
 20
15.55026721954346
 30
0.0
 40
1.0
100
AcDbArc
 50
40.00000225146627
 51
90.00000250447816
  0
ARC
  5
3C6
330
1F
100
AcDbEntity
  8
VIEW0002
  6
Continuous
 62
     7
100
AcDbCircle
 10
46.81894302368164
 20
28.13930892944336
 30
0.0
 40
1.5
100
AcDbArc
 50
280.0000023272567
 51
336.8014110406661
  0
ARC
  5
3C7
330
1F
100
AcDbEntity
  8
VIEW0002
  6
Continuous
 62
     7
100
AcDbCircle
 10
-18.31983280181885
 20
11.25937366485596
 30
0.0
 40
1.0
100
AcDbArc
 50
30.00000083482606
 51
180.0000050089563
  0
ARC
  5
3C8
330
1F
100
AcDbEntity
  8
VIEW0002
  6
Continuous
 62
     7
100
AcDbCircle
 10
39.34621047973633
 20
3.700268507003784
 30
0.0
 40
1.0
100
AcDbArc
 50
234.9999976599229
 51
269.9999974955218
  0
ARC
  5
3C9
330
1F
100
AcDbEntity
  8
VIEW0002
  6
Continuous
 62
     7
100
AcDbCircle
 10
-8.961529850959778
 20
7.050267219543457
 30
0.0
 40
5.0
100
AcDbArc
 50
210.0000026560589
 51
269.9999974955218
  0
ARC
  5
3CA
330
1F
100
AcDbEntity
  8
VIEW0002
  6
Continuous
 62
     7
100
AcDbCircle
 10
20.44990730285645
 20
4.800267219543457
 30
0.0
 40
1.5
100
AcDbArc
 50
269.9999974955218
 51
328.3924424270251
  0
ARC
  5
3CB
330
1F
100
AcDbEntity
  8
VIEW0002
  6
Continuous
 62
     7
100
AcDbCircle
 10
28.91196060180664
 20
14.73491382598877
 30
0.0
 40
4.25
100
AcDbArc
 50
93.50000317105696
 51
148.3924440208869
  0
ARC
  5
3CC
330
1F
100
AcDbEntity
  8
VIEW0002
  6
Continuous
 62
     7
100
AcDbCircle
 10
-16.55246829986572
 20
13.69815540313721
 30
0.0
 40
0.5
100
AcDbArc
 50
40.00000225146627
 51
209.9999990135932
  0
ARC
  5
3CD
330
1F
100
AcDbEntity
  8
VIEW0002
  6
Continuous
 62
     7
100
AcDbCircle
 10
39.6159553527832
 20
14.05026721954346
 30
0.0
 40
1.0
100
AcDbArc
 50
45.00000125223908
 51
90.00000250447816
  0
ARC
  5
3CE
330
1F
100
AcDbEntity
  8
VIEW0002
  6
Continuous
 62
     7
100
AcDbCircle
 10
31.67714309692383
 20
12.55026721954346
 30
0.0
 40
4.0
100
AcDbArc
 50
90.00000250447816
 51
148.3924440208869
  0
ARC
  5
3CF
330
1F
100
AcDbEntity
  8
VIEW0002
  6
Continuous
 62
     7
100
AcDbCircle
 10
22.23947525024414
 20
5.800267219543457
 30
0.0
 40
0.5
100
AcDbArc
 50
328.3924424270251
 51
90.00000250447816
  0
ARC
  5
3D0
330
1F
100
AcDbEntity
  8
VIEW0002
  6
Continuous
 62
     7
100
AcDbCircle
 10
16.6356372833252
 20
10.05026721954346
 30
0.0
 40
2.5
100
AcDbArc
 50
269.9999974955218
 51
328.3924424270251
  0
ARC
  5
3D1
330
1F
100
AcDbEntity
  8
VIEW0002
  6
Continuous
 62
     7
100
AcDbCircle
 10
-25.31984806060791
 20
18.20026779174805
 30
0.0
 40
0.1500000059604645
100
AcDbArc
 50
179.999991348578
 51
270.0000006832453
  0
ARC
  5
3D2
330
1F
100
AcDbEntity
  8
VIEW0002
  6
Continuous
 62
     7
100
AcDbCircle
 10
-17.16062259674072
 20
-0.199732929468155
 30
0.0
 40
1.0
100
AcDbArc
 50
25.01689289187068
 51
90.00000250447816
  0
ARC
  5
3D3
330
1F
100
AcDbEntity
  8
VIEW0002
  6
Continuous
 62
     7
100
AcDbCircle
 10
-17.4790735244751
 20
-0.699732899665833
 30
0.0
 40
0.25
100
AcDbArc
 50
25.01689289187068
 51
90.00000250447816
  0
ARC
  5
3D4
330
1F
100
AcDbEntity
  8
VIEW0002
  6
Continuous
 62
     7
100
AcDbCircle
 10
-20.7971887588501
 20
15.55026721954346
 30
0.0
 40
1.0
100
AcDbArc
 50
30.00000083482606
 51
90.00000250447816
  0
ARC
  5
3D5
330
1F
100
AcDbEntity
  8
VIEW0002
  6
Continuous
 62
     7
100
AcDbCircle
 10
40.53017044067383
 20
14.05026721954346
 30
0.0
 40
1.0
100
AcDbArc
 50
0.0
 51
90.00000250447816
  0
ARC
  5
3D6
330
1F
100
AcDbEntity
  8
VIEW0002
  6
Continuous
 62
     7
100
AcDbCircle
 10
23.34469985961914
 20
8.550267219543457
 30
0.0
 40
1.0
100
AcDbArc
 50
269.9999974955218
 51
328.3924424270251
  0
ARC
  5
3D7
330
1F
100
AcDbEntity
  8
VIEW0002
  6
Continuous
 62
     7
100
AcDbCircle
 10
-8.176663517951965
 20
9.550267219543457
 30
0.0
 40
3.25
100
AcDbArc
 50
220.0000006576045
 51
269.9999974955218
  0
ARC
  5
3D8
330
1F
100
AcDbEntity
  8
VIEW0002
  6
Continuous
 62
     7
100
AcDbCircle
 10
41.53017044067383
 20
18.51228713989258
 30
0.0
 40
2.5
100
AcDbArc
 50
0.0
 51
93.50000317105696
  0
ARC
  5
3D9
330
1F
100
AcDbEntity
  8
VIEW0002
  6
Continuous
 62
     7
100
AcDbCircle
 10
40.53017044067383
 20
2.871250867843628
 30
0.0
 40
1.0
100
AcDbArc
 50
234.9999976599229
 51
0.0
  0
CIRCLE
  5
3DA
330
1F
100
AcDbEntity
  8
VIEW0002
  6
Continuous
 62
     7
100
AcDbCircle
 10
-20.86985111236572
 20
13.65025806427002
 30
0.0
 40
1.0
  0
ARC
  5
3DB
330
1F
100
AcDbEntity
  8
VIEW0002
  6
Continuous
 62
     7
100
AcDbCircle
 10
25.23514175415039
 20
16.59843826293945
 30
0.0
 40
48.5
100
AcDbArc
 50
184.4323642906534
 51
199.746331428739
  0
ARC
  5
3DC
330
1F
100
AcDbEntity
  8
VIEW0002
  6
Continuous
 62
     7
100
AcDbCircle
 10
-16.22177982330322
 20
-1.324732899665833
 30
0.0
 40
0.625
100
AcDbArc
 50
205.0168878829144
 51
25.01689289187068
  0
ARC
  5
3DD
330
1F
100
AcDbEntity
  8
VIEW0002
  6
Continuous
 62
     7
100
AcDbCircle
 10
-18.61930179595947
 20
16.55026626586914
 30
0.0
 40
1.5
100
AcDbArc
 50
40.00000225146627
 51
90.00000250447816
  0
ARC
  5
3DE
330
1F
100
AcDbEntity
  8
VIEW0002
  6
Continuous
 62
     7
100
AcDbCircle
 10
-3.219815254211426
 20
4.517521858215332
 30
0.0
 40
3.81725001335144
100
AcDbArc
 50
220.2664053559917
 51
319.7335964652411
  0
ARC
  5
3DF
330
1F
100
AcDbEntity
  8
VIEW0002
  6
Continuous
 62
     7
100
AcDbCircle
 10
16.6356372833252
 20
10.05026721954346
 30
0.0
 40
3.75
100
AcDbArc
 50
269.9999974955218
 51
328.3924424270251
  0
ARC
  5
3E0
330
1F
100
AcDbEntity
  8
VIEW0002
  6
Continuous
 62
     7
100
AcDbCircle
 10
-23.61985111236572
 20
16.05026626586914
 30
0.0
 40
0.5
100
AcDbArc
 50
0.0
 51
90.00000250447816
  0
ARC
  5
3E1
330
1F
100
AcDbEntity
  8
VIEW0002
  6
Continuous
 62
     7
100
AcDbCircle
 10
38.18021011352539
 20
3.504124402999878
 30
0.0
 40
0.1500000059604645
100
AcDbArc
 50
179.999991348578
 51
235.0000076778356
  0
ARC
  5
3E2
330
1F
100
AcDbEntity
  8
VIEW0002
  6
Continuous
 62
     7
100
AcDbCircle
 10
38.18017959594727
 20
3.479077100753784
 30
0.0
 40
0.1500000059604645
100
AcDbArc
 50
179.999991348578
 51
235.0000076778356
  0
ARC
  5
3E3
330
1F
100
AcDbEntity
  8
VIEW0002
  6
Continuous
 62
     7
100
AcDbCircle
 10
-11.06016564369202
 20
-72.65154266357422
 30
0.0
 40
2.5
100
AcDbArc
 50
179.999991348578
 51
270.0000006832453
  0
ARC
  5
3E4
330
1F
100
AcDbEntity
  8
VIEW0002
  6
Continuous
 62
     7
100
AcDbCircle
 10
20.39509773254395
 20
8.050267219543457
 30
0.0
 40
0.5
100
AcDbArc
 50
148.3924440208869
 51
270.0000006832453
  0
ARC
  5
3E5
330
1F
100
AcDbEntity
  8
VIEW0002
  6
Continuous
 62
     7
100
AcDbCircle
 10
-8.176663517951965
 20
9.550267219543457
 30
0.0
 40
2.0
100
AcDbArc
 50
220.0000006576045
 51
269.9999974955218
  0
CIRCLE
  5
3E6
330
1F
100
AcDbEntity
  8
VIEW0002
  6
Continuous
 62
     7
100
AcDbCircle
 10
11.18983459472656
 20
-60.15154266357422
 30
0.0
 40
1.625
  0
CIRCLE
  5
3E7
330
1F
100
AcDbEntity
  8
VIEW0002
  6
Continuous
 62
     7
100
AcDbCircle
 10
-10.81016570329666
 20
-55.65154266357422
 30
0.0
 40
1.075000047683716
  0
ARC
  5
3E8
330
1F
100
AcDbEntity
  8
VIEW0002
  6
Continuous
 62
     7
100
AcDbCircle
 10
-26.09485816955566
 20
19.17526626586914
 30
0.0
 40
0.625
100
AcDbArc
 50
0.0
 51
180.0000050089563
  0
ARC
  5
3E9
330
1F
100
AcDbEntity
  8
VIEW0002
  6
Continuous
 62
     7
100
AcDbCircle
 10
46.70099258422852
 20
25.07222366333008
 30
0.0
 40
5.0
100
AcDbArc
 50
100.0000005060238
 51
135.0000003416227
  0
ARC
  5
3EA
330
1F
100
AcDbEntity
  8
VIEW0002
  6
Continuous
 62
     7
100
AcDbCircle
 10
46.2168083190918
 20
26.00227737426758
 30
0.0
 40
0.5
100
AcDbArc
 50
100.0000005060238
 51
135.0000003416227
  0
ARC
  5
3EB
330
1F
100
AcDbEntity
  8
VIEW0002
  6
Continuous
 62
     7
100
AcDbCircle
 10
41.53017044067383
 20
2.13737940788269
 30
0.0
 40
2.5
100
AcDbArc
 50
228.5165498733151
 51
0.0
  0
CIRCLE
  5
3EC
330
1F
100
AcDbEntity
  8
VIEW0002
  6
Continuous
 62
     7
100
AcDbCircle
 10
-10.81016570329666
 20
-70.65154266357422
 30
0.0
 40
1.075000047683716
  0
ARC
  5
3ED
330
1F
100
AcDbEntity
  8
VIEW0002
  6
Continuous
 62
     7
100
AcDbCircle
 10
-11.06016564369202
 20
-50.84408569335938
 30
0.0
 40
2.5
100
AcDbArc
 50
149.036243991674
 51
180.0000050089563
  0
ARC
  5
3EE
330
1F
100
AcDbEntity
  8
VIEW0002
  6
Continuous
 62
     7
100
AcDbCircle
 10
11.93983459472656
 20
-72.65154266357422
 30
0.0
 40
2.5
100
AcDbArc
 50
269.9999974955218
 51
0.0
  0
ARC
  5
3EF
330
1F
100
AcDbEntity
  8
VIEW0002
  6
Continuous
 62
     7
100
AcDbCircle
 10
10.02436828613281
 20
-47.65154266357422
 30
0.0
 40
2.5
100
AcDbArc
 50
30.96375418709319
 51
90.00000250447816
  0
ARC
  5
3F0
330
1F
100
AcDbEntity
  8
VIEW0002
  6
Continuous
 62
     7
100
AcDbCircle
 10
11.93983459472656
 20
-50.84398651123047
 30
0.0
 40
2.5
100
AcDbArc
 50
0.0
 51
30.96375418709319
  0
ARC
  5
3F1
330
1F
100
AcDbEntity
  8
VIEW0002
  6
Continuous
 62
     7
100
AcDbCircle
 10
-9.144638359546661
 20
-47.65154266357422
 30
0.0
 40
2.5
100
AcDbArc
 50
90.00000250447816
 51
149.036243991674
  0
CIRCLE
  5
3F2
330
1F
100
AcDbEntity
  8
VIEW0002
  6
Continuous
 62
     7
100
AcDbCircle
 10
11.68983459472656
 20
-70.65154266357422
 30
0.0
 40
1.075000047683716
  0
ARC
  5
3F3
330
1F
100
AcDbEntity
  8
VIEW0002
  6
Continuous
 62
     7
100
AcDbCircle
 10
-3.310165882110596
 20
-45.15154266357422
 30
0.0
 40
1.5
100
AcDbArc
 50
179.999991348578
 51
0.0
  0
ARC
  5
3F4
330
1F
100
AcDbEntity
  8
VIEW0002
  6
Continuous
 62
     7
100
AcDbCircle
 10
4.189834594726562
 20
-45.15154266357422
 30
0.0
 40
1.5
100
AcDbArc
 50
179.999991348578
 51
0.0
  0
ARC
  5
3F5
330
1F
100
AcDbEntity
  8
VIEW0002
  6
Continuous
 62
     7
100
AcDbCircle
 10
-3.310165882110596
 20
-66.15154266357422
 30
0.0
 40
1.5
100
AcDbArc
 50
179.999991348578
 51
0.0
  0
ARC
  5
3F6
330
1F
100
AcDbEntity
  8
VIEW0002
  6
Continuous
 62
     7
100
AcDbCircle
 10
46.21681594848633
 20
26.00227737426758
 30
0.0
 40
0.5
100
AcDbArc
 50
100.0000005060238
 51
135.0000003416227
  0
ARC
  5
3F7
330
1F
100
AcDbEntity
  8
VIEW0002
  6
Continuous
 62
     7
100
AcDbCircle
 10
1.143099784851074
 20
9.15026569366455
 30
0.0
 40
1.0
100
AcDbArc
 50
269.9999974955218
 51
334.9999981659467
  0
ARC
  5
3F8
330
1F
100
AcDbEntity
  8
VIEW0002
  6
Continuous
 62
     7
100
AcDbCircle
 10
40.65582656860352
 20
29.6336784362793
 30
0.0
 40
2.5
100
AcDbArc
 50
275.0000033264838
 51
314.9999987477609
  0
ARC
  5
3F9
330
1F
100
AcDbEntity
  8
VIEW0002
  6
Continuous
 62
     7
100
AcDbCircle
 10
1.143099784851074
 20
9.15026569366455
 30
0.0
 40
4.5
100
AcDbArc
 50
269.9999974955218
 51
334.9999981659467
  0
ARC
  5
3FA
330
1F
100
AcDbEntity
  8
VIEW0002
  6
Continuous
 62
     7
100
AcDbCircle
 10
42.67966079711914
 20
25.29355239868164
 30
0.0
 40
1.5
100
AcDbArc
 50
275.0000033264838
 51
314.9999987477609
  0
ARC
  5
3FB
330
1F
100
AcDbEntity
  8
VIEW0002
  6
Continuous
 62
     7
100
AcDbCircle
 10
61.0416259765625
 20
12.5221004486084
 30
0.0
 40
2.099999904632568
100
AcDbArc
 50
206.5649912394327
 51
266.5650065694632
  0
ARC
  5
3FC
330
1F
100
AcDbEntity
  8
VIEW0002
  6
Continuous
 62
     7
100
AcDbCircle
 10
15.9737720489502
 20
14.92653369903564
 30
0.0
 40
6.5
100
AcDbArc
 50
95.00000150525099
 51
154.9999963447139
  0
ARC
  5
3FD
330
1F
100
AcDbEntity
  8
VIEW0002
  6
Continuous
 62
     7
100
AcDbCircle
 10
15.9737720489502
 20
14.92653369903564
 30
0.0
 40
10.0
100
AcDbArc
 50
95.00000150525099
 51
154.9999963447139
  0
ARC
  5
3FE
330
1F
100
AcDbEntity
  8
VIEW0002
  6
Continuous
 62
     7
100
AcDbCircle
 10
51.18021011352539
 20
87.25382232666016
 30
0.0
 40
0.6000000238418579
100
AcDbArc
 50
286.6015509148032
 51
0.0
  0
ARC
  5
3FF
330
1F
100
AcDbEntity
  8
VIEW0002
  6
Continuous
 62
     7
100
AcDbCircle
 10
-2.094815254211426
 20
87.86636352539062
 30
0.0
 40
0.25
100
AcDbArc
 50
269.9999974955218
 51
0.0
  0
ARC
  5
400
330
1F
100
AcDbEntity
  8
VIEW0002
  6
Continuous
 62
     7
100
AcDbCircle
 10
51.18021011352539
 20
90.72889709472656
 30
0.0
 40
0.6000000238418579
100
AcDbArc
 50
0.0
 51
73.39844908519679
  0
ARC
  5
401
330
1F
100
AcDbEntity
  8
VIEW0002
  6
Continuous
 62
     7
100
AcDbCircle
 10
51.18021011352539
 20
94.75382232666016
 30
0.0
 40
0.6000000238418579
100
AcDbArc
 50
286.6015509148032
 51
0.0
  0
ARC
  5
402
330
1F
100
AcDbEntity
  8
VIEW0002
  6
Continuous
 62
     7
100
AcDbCircle
 10
40.64721298217773
 20
88.99136352539062
 30
0.0
 40
0.5
100
AcDbArc
 50
165.2102139085342
 51
194.7897961093785
  0
ARC
  5
403
330
1F
100
AcDbEntity
  8
VIEW0002
  6
Continuous
 62
     7
100
AcDbCircle
 10
-2.094815254211426
 20
90.11636352539062
 30
0.0
 40
0.25
100
AcDbArc
 50
0.0
 51
90.00000250447816
  0
ARC
  5
404
330
1F
100
AcDbEntity
  8
VIEW0002
  6
Continuous
 62
     7
100
AcDbCircle
 10
-4.344815254211426
 20
90.11636352539062
 30
0.0
 40
0.25
100
AcDbArc
 50
90.00000250447816
 51
180.0000050089563
  0
ARC
  5
405
330
1F
100
AcDbEntity
  8
VIEW0002
  6
Continuous
 62
     7
100
AcDbCircle
 10
-4.344815254211426
 20
87.86636352539062
 30
0.0
 40
0.25
100
AcDbArc
 50
179.999991348578
 51
270.0000006832453
  0
ARC
  5
406
330
1F
100
AcDbEntity
  8
VIEW0002
  6
Continuous
 62
     7
100
AcDbCircle
 10
51.18021011352539
 20
83.22889709472656
 30
0.0
 40
0.6000000238418579
100
AcDbArc
 50
0.0
 51
73.39844908519679
  0
ARC
  5
407
330
1F
100
AcDbEntity
  8
VIEW0002
  6
Continuous
 62
     7
100
AcDbCircle
 10
1.451373100280762
 20
78.24136352539062
 30
0.0
 40
5.0
100
AcDbArc
 50
82.4752787185235
 51
90.00000250447816
  0
ARC
  5
408
330
1F
100
AcDbEntity
  8
VIEW0002
  6
Continuous
 62
     7
100
AcDbCircle
 10
8.811578750610352
 20
77.2691421508789
 30
0.0
 40
5.0
100
AcDbArc
 50
82.4752787185235
 51
85.14866940117986
  0
ARC
  5
409
330
1F
100
AcDbEntity
  8
VIEW0002
  6
Continuous
 62
     7
100
AcDbCircle
 10
43.60966873168945
 20
103.6670532226562
 30
0.0
 40
5.0
100
AcDbArc
 50
274.8513305988201
 51
306.0348495375531
  0
ARC
  5
40A
330
1F
100
AcDbEntity
  8
VIEW0002
  6
Continuous
 62
     7
100
AcDbCircle
 10
43.60962295532227
 20
74.315673828125
 30
0.0
 40
5.0
100
AcDbArc
 50
53.96515046244691
 51
85.14866940117986
  0
ARC
  5
40B
330
1F
100
AcDbEntity
  8
VIEW0002
  6
Continuous
 62
     7
100
AcDbCircle
 10
51.78021621704102
 20
85.24136352539062
 30
0.0
 40
1.5
100
AcDbArc
 50
106.6015490935704
 51
253.3984609243423
  0
ARC
  5
40C
330
1F
100
AcDbEntity
  8
VIEW0002
  6
Continuous
 62
     7
100
AcDbCircle
 10
47.55640029907227
 20
85.24136352539062
 30
0.0
 40
1.5
100
AcDbArc
 50
90.00000250447816
 51
270.0000006832453
  0
ARC
  5
40D
330
1F
100
AcDbEntity
  8
VIEW0002
  6
Continuous
 62
     7
100
AcDbCircle
 10
51.78021621704102
 20
92.74136352539062
 30
0.0
 40
1.5
100
AcDbArc
 50
106.6015490935704
 51
253.3984609243423
  0
ARC
  5
40E
330
1F
100
AcDbEntity
  8
VIEW0002
  6
Continuous
 62
     7
100
AcDbCircle
 10
47.55640029907227
 20
92.74136352539062
 30
0.0
 40
1.5
100
AcDbArc
 50
90.00000250447816
 51
270.0000006832453
  0
ARC
  5
40F
330
1F
100
AcDbEntity
  8
VIEW0002
  6
Continuous
 62
     7
100
AcDbCircle
 10
-3.219815254211426
 20
88.99136352539062
 30
0.0
 40
3.25
100
AcDbArc
 50
25.02899940217453
 51
154.9709953614981
  0
ARC
  5
410
330
1F
100
AcDbEntity
  8
VIEW0002
  6
Continuous
 62
     7
100
AcDbCircle
 10
-3.219815254211426
 20
88.99136352539062
 30
0.0
 40
2.75
100
AcDbArc
 50
25.02899940217453
 51
154.9709953614981
  0
ARC
  5
411
330
1F
100
AcDbEntity
  8
VIEW0002
  6
Continuous
 62
     7
100
AcDbCircle
 10
-3.219815254211426
 20
88.99136352539062
 30
0.0
 40
2.75
100
AcDbArc
 50
205.029004638502
 51
334.9710005978255
  0
ARC
  5
412
330
1F
100
AcDbEntity
  8
VIEW0002
  6
Continuous
 62
     7
100
AcDbCircle
 10
-7.344815254211426
 20
88.99136352539062
 30
0.0
 40
1.375
100
AcDbArc
 50
90.00000250447816
 51
270.0000006832453
  0
ARC
  5
413
330
1F
100
AcDbEntity
  8
VIEW0002
  6
Continuous
 62
     7
100
AcDbCircle
 10
0.905184745788574
 20
88.99136352539062
 30
0.0
 40
1.375
100
AcDbArc
 50
269.9999974955218
 51
90.00000250447816
  0
ARC
  5
414
330
1F
100
AcDbEntity
  8
VIEW0002
  6
Continuous
 62
     7
100
AcDbCircle
 10
-3.219815254211426
 20
88.99136352539062
 30
0.0
 40
3.25
100
AcDbArc
 50
205.029004638502
 51
334.9710005978255
  0
ARC
  5
415
330
1F
100
AcDbEntity
  8
VIEW0002
  6
Continuous
 62
     7
100
AcDbCircle
 10
-7.344815254211426
 20
88.99136352539062
 30
0.0
 40
0.875
100
AcDbArc
 50
90.00000250447816
 51
270.0000006832453
  0
ARC
  5
416
330
1F
100
AcDbEntity
  8
VIEW0002
  6
Continuous
 62
     7
100
AcDbCircle
 10
0.905184745788574
 20
88.99136352539062
 30
0.0
 40
0.875
100
AcDbArc
 50
269.9999974955218
 51
90.00000250447816
  0
ARC
  5
417
330
1F
100
AcDbEntity
  8
VIEW0002
  6
Continuous
 62
     7
100
AcDbCircle
 10
-0.27501392364502
 20
87.61636352539062
 30
0.0
 40
0.5
100
AcDbArc
 50
90.00000250447816
 51
154.9709953614981
  0
ARC
  5
418
330
1F
100
AcDbEntity
  8
VIEW0002
  6
Continuous
 62
     7
100
AcDbCircle
 10
-6.164616584777832
 20
87.61636352539062
 30
0.0
 40
0.5
100
AcDbArc
 50
25.02899940217453
 51
90.00000250447816
  0
ARC
  5
419
330
1F
100
AcDbEntity
  8
VIEW0002
  6
Continuous
 62
     7
100
AcDbCircle
 10
-6.164616584777832
 20
90.36636352539062
 30
0.0
 40
0.5
100
AcDbArc
 50
269.9999974955218
 51
334.9710005978255
  0
CIRCLE
  5
41A
330
1F
100
AcDbEntity
  8
VIEW0002
  6
Continuous
 62
     7
100
AcDbCircle
 10
-3.219815254211426
 20
88.99136352539062
 30
0.0
 40
1.5
  0
ARC
  5
41B
330
1F
100
AcDbEntity
  8
VIEW0002
  6
Continuous
 62
     7
100
AcDbCircle
 10
-0.27501392364502
 20
90.36636352539062
 30
0.0
 40
0.5
100
AcDbArc
 50
205.029004638502
 51
269.9999974955218
  0
CIRCLE
  5
41C
330
1F
100
AcDbEntity
  8
VIEW0002
  6
Continuous
 62
     7
100
AcDbCircle
 10
-3.219815254211426
 20
88.99136352539062
 30
0.0
 40
1.75
  0
ARC
  5
41D
330
1F
100
AcDbEntity
  8
VIEW0002
  6
PHANTOM
 62
     7
100
AcDbCircle
 10
62.556396484375
 20
92.74136352539062
 30
0.0
 40
1.5
100
AcDbArc
 50
90.00000250447816
 51
270.0000006832453
  0
ARC
  5
41E
330
1F
100
AcDbEntity
  8
VIEW0002
  6
PHANTOM
 62
     7
100
AcDbCircle
 10
66.78021240234375
 20
92.74136352539062
 30
0.0
 40
1.5
100
AcDbArc
 50
106.6015490935704
 51
253.3984609243423
  0
ARC
  5
41F
330
1F
100
AcDbEntity
  8
VIEW0002
  6
PHANTOM
 62
     7
100
AcDbCircle
 10
62.556396484375
 20
85.24136352539062
 30
0.0
 40
1.5
100
AcDbArc
 50
90.00000250447816
 51
270.0000006832453
  0
ARC
  5
420
330
1F
100
AcDbEntity
  8
VIEW0002
  6
PHANTOM
 62
     7
100
AcDbCircle
 10
66.78021240234375
 20
85.24136352539062
 30
0.0
 40
1.5
100
AcDbArc
 50
106.6015490935704
 51
253.3984609243423
  0
ARC
  5
421
330
1F
100
AcDbEntity
  8
VIEW0002
  6
PHANTOM
 62
     7
100
AcDbCircle
 10
58.609619140625
 20
74.315673828125
 30
0.0
 40
5.0
100
AcDbArc
 50
53.96515046244691
 51
85.14866940117986
  0
ARC
  5
422
330
1F
100
AcDbEntity
  8
VIEW0002
  6
PHANTOM
 62
     7
100
AcDbCircle
 10
58.60966491699219
 20
103.6670532226562
 30
0.0
 40
5.0
100
AcDbArc
 50
274.8513305988201
 51
306.0348495375531
  0
ARC
  5
423
330
1F
100
AcDbEntity
  8
VIEW0002
  6
PHANTOM
 62
     7
100
AcDbCircle
 10
66.18020629882812
 20
83.22889709472656
 30
0.0
 40
0.6000000238418579
100
AcDbArc
 50
0.0
 51
73.39844908519679
  0
ARC
  5
424
330
1F
100
AcDbEntity
  8
VIEW0002
  6
PHANTOM
 62
     7
100
AcDbCircle
 10
66.18020629882812
 20
94.75382232666016
 30
0.0
 40
0.6000000238418579
100
AcDbArc
 50
286.6015509148032
 51
0.0
  0
ARC
  5
425
330
1F
100
AcDbEntity
  8
VIEW0002
  6
PHANTOM
 62
     7
100
AcDbCircle
 10
66.18020629882812
 20
90.72889709472656
 30
0.0
 40
0.6000000238418579
100
AcDbArc
 50
0.0
 51
73.39844908519679
  0
ARC
  5
426
330
1F
100
AcDbEntity
  8
VIEW0002
  6
PHANTOM
 62
     7
100
AcDbCircle
 10
66.18020629882812
 20
87.25382232666016
 30
0.0
 40
0.6000000238418579
100
AcDbArc
 50
286.6015509148032
 51
0.0
  0
ARC
  5
427
330
1F
100
AcDbEntity
  8
VIEW0002
  6
PHANTOM
 62
     7
100
AcDbCircle
 10
30.97377395629883
 20
14.92653369903564
 30
0.0
 40
10.0
100
AcDbArc
 50
95.00000150525099
 51
154.9999963447139
  0
ARC
  5
428
330
1F
100
AcDbEntity
  8
VIEW0002
  6
PHANTOM
 62
     7
100
AcDbCircle
 10
30.97377395629883
 20
14.92653369903564
 30
0.0
 40
6.5
100
AcDbArc
 50
95.00000150525099
 51
154.9999963447139
  0
ARC
  5
429
330
1F
100
AcDbEntity
  8
VIEW0002
  6
PHANTOM
 62
     7
100
AcDbCircle
 10
16.14309883117676
 20
9.15026569366455
 30
0.0
 40
4.5
100
AcDbArc
 50
269.9999974955218
 51
334.9999981659467
  0
ARC
  5
42A
330
1F
100
AcDbEntity
  8
VIEW0002
  6
PHANTOM
 62
     7
100
AcDbCircle
 10
16.14309883117676
 20
9.15026569366455
 30
0.0
 40
1.0
100
AcDbArc
 50
269.9999974955218
 51
334.9999981659467
  0
ARC
  5
42B
330
1F
100
AcDbEntity
  8
VIEW0002
  6
PHANTOM
 62
     7
100
AcDbCircle
 10
10.28018379211426
 20
13.21944904327393
 30
0.0
 40
4.0
100
AcDbArc
 50
179.999991348578
 51
258.4630461939067
  0
ARC
  5
42C
330
1F
100
AcDbEntity
  8
VIEW0002
  6
PHANTOM
 62
     7
100
AcDbCircle
 10
7.280183792114258
 20
12.30026721954346
 30
0.0
 40
2.0
100
AcDbArc
 50
0.0
 51
90.00000250447816
  0
ARC
  5
42D
330
1F
100
AcDbEntity
  8
VIEW0002
  6
PHANTOM
 62
     7
100
AcDbCircle
 10
16.28018379211426
 20
12.30026721954346
 30
0.0
 40
2.0
100
AcDbArc
 50
90.00000250447816
 51
180.0000050089563
  0
ARC
  5
42E
330
1F
100
AcDbEntity
  8
VIEW0002
  6
PHANTOM
 62
     7
100
AcDbCircle
 10
13.28018379211426
 20
13.21944904327393
 30
0.0
 40
4.0
100
AcDbArc
 50
281.5369588150496
 51
359.9999999999999
  0
ARC
  5
42F
330
1F
100
AcDbEntity
  8
VIEW0002
  6
PHANTOM
 62
     7
100
AcDbCircle
 10
8.280183792114258
 20
6.150265693664551
 30
0.0
 40
1.5
100
AcDbArc
 50
179.999991348578
 51
270.0000006832453
  0
ARC
  5
430
330
1F
100
AcDbEntity
  8
VIEW0002
  6
Continuous
 62
     7
100
AcDbCircle
 10
49.596435546875
 20
29.54293441772461
 30
0.0
 40
0.5
100
AcDbArc
 50
100.0000005060238
 51
156.8014040967914
  0
ARC
  5
431
330
1F
100
AcDbEntity
  8
VIEW0002
  6
PHANTOM
 62
     7
100
AcDbCircle
 10
76.0416259765625
 20
12.5221004486084
 30
0.0
 40
2.099999904632568
100
AcDbArc
 50
206.5649912394327
 51
266.5650065694632
  0
ARC
  5
432
330
1F
100
AcDbEntity
  8
VIEW0002
  6
PHANTOM
 62
     7
100
AcDbCircle
 10
57.67965698242188
 20
25.29355239868164
 30
0.0
 40
1.5
100
AcDbArc
 50
275.0000033264838
 51
314.9999987477609
  0
ARC
  5
433
330
1F
100
AcDbEntity
  8
VIEW0002
  6
PHANTOM
 62
     7
100
AcDbCircle
 10
64.596435546875
 20
29.54293441772461
 30
0.0
 40
0.5
100
AcDbArc
 50
99.99999367583463
 51
156.8014040967914
  0
ARC
  5
434
330
1F
100
AcDbEntity
  8
VIEW0002
  6
PHANTOM
 62
     7
100
AcDbCircle
 10
55.65582275390625
 20
29.6336784362793
 30
0.0
 40
2.5
100
AcDbArc
 50
275.0000033264838
 51
314.9999987477609
  0
ARC
  5
435
330
1F
100
AcDbEntity
  8
VIEW0002
  6
PHANTOM
 62
     7
100
AcDbCircle
 10
61.21681213378906
 20
26.00227737426758
 30
0.0
 40
0.5
100
AcDbArc
 50
100.0000005060238
 51
135.0000003416227
  0
ARC
  5
436
330
1F
100
AcDbEntity
  8
VIEW0002
  6
PHANTOM
 62
     7
100
AcDbCircle
 10
61.70098876953125
 20
25.07222366333008
 30
0.0
 40
5.0
100
AcDbArc
 50
100.0000005060238
 51
135.0000003416227
  0
ARC
  5
437
330
1F
100
AcDbEntity
  8
VIEW0002
  6
PHANTOM
 62
     7
100
AcDbCircle
 10
61.81893920898438
 20
28.13930892944336
 30
0.0
 40
1.5
100
AcDbArc
 50
280.0000023272567
 51
336.8014110406661
  0
ARC
  5
438
330
1F
100
AcDbEntity
  8
VIEW0002
  6
Continuous
 62
     7
100
AcDbCircle
 10
50.09759521484375
 20
27.70199394226074
 30
0.0
 40
3.0
100
AcDbArc
 50
26.56499966348368
 51
100.0000005060238
  0
ARC
  5
439
330
1F
100
AcDbEntity
  8
VIEW0002
  6
Continuous
 62
     7
100
AcDbCircle
 10
50.09759521484375
 20
27.70199394226074
 30
0.0
 40
2.400000095367432
100
AcDbArc
 50
26.56499966348368
 51
100.0000005060238
  0
ARC
  5
43A
330
1F
100
AcDbEntity
  8
VIEW0002
  6
Continuous
 62
     7
100
AcDbCircle
 10
50.09759521484375
 20
27.70199394226074
 30
0.0
 40
0.8999999761581421
100
AcDbArc
 50
26.56499966348368
 51
100.0000005060238
  0
ARC
  5
43B
330
1F
100
AcDbEntity
  8
VIEW0002
  6
PHANTOM
 62
     7
100
AcDbCircle
 10
65.09759521484375
 20
27.70199394226074
 30
0.0
 40
3.0
100
AcDbArc
 50
26.56499966348368
 51
100.0000005060238
  0
ARC
  5
43C
330
1F
100
AcDbEntity
  8
VIEW0002
  6
PHANTOM
 62
     7
100
AcDbCircle
 10
65.09759521484375
 20
27.70199394226074
 30
0.0
 40
2.400000095367432
100
AcDbArc
 50
26.56499966348368
 51
100.0000005060238
  0
ARC
  5
43D
330
1F
100
AcDbEntity
  8
VIEW0002
  6
PHANTOM
 62
     7
100
AcDbCircle
 10
65.09759521484375
 20
27.70199394226074
 30
0.0
 40
0.8999999761581421
100
AcDbArc
 50
26.56499966348368
 51
100.0000005060238
  0
ARC
  5
43E
330
1F
100
AcDbEntity
  8
VIEW0002
  6
PHANTOM
 62
     7
100
AcDbCircle
 10
11.78018379211426
 20
4.517521858215332
 30
0.0
 40
3.81725001335144
100
AcDbArc
 50
220.2664053559917
 51
319.7335964652411
  0
SPLINE
  5
43F
330
1F
100
AcDbEntity
  8
VIEW0002
  6
Continuous
 62
     7
100
AcDbSpline
210
0.0
220
0.0
230
1.0
 70
     8
 71
     3
 72
     9
 73
     5
 74
     3
 42
0.0000000001
 43
0.0000000001
 44
0.0000000001
 12
-0.7196434528641945
 22
0.6943437914676706
 32
0.0
 13
0.7196434528641945
 23
0.6943437914676706
 33
0.0
 40
0.0
 40
0.0
 40
0.0
 40
0.0
 40
1.689445980851415
 40
3.378891961702831
 40
3.378891961702831
 40
3.378891961702831
 40
3.378891961702831
 10
4.189562797546387
 20
87.49136352539062
 30
0.0
 10
3.784296551183904
 20
87.88238230133202
 30
0.0
 10
3.040187320276057
 20
88.99136352539062
 30
0.0
 10
3.784296551183904
 20
90.10034474944923
 30
0.0
 10
4.189562797546387
 20
90.49136352539062
 30
0.0
 11
4.189562797546387
 21
87.49136352539062
 31
0.0
 11
3.41224193572998
 21
88.99136352539062
 31
0.0
 11
4.189562797546387
 21
90.49136352539062
 31
0.0
  0
SPLINE
  5
440
330
1F
100
AcDbEntity
  8
VIEW0002
  6
Continuous
 62
     7
100
AcDbSpline
210
0.0
220
0.0
230
1.0
 70
     8
 71
     3
 72
     9
 73
     5
 74
     3
 42
0.0000000001
 43
0.0000000001
 44
0.0000000001
 12
0.8076975292221018
 22
0.5895970668927315
 32
0.0
 13
0.1893802158419692
 23
0.9819038312623336
 33
0.0
 40
0.0
 40
0.0
 40
0.0
 40
0.0
 40
0.9974935201602712
 40
1.726304441024188
 40
1.726304441024188
 40
1.726304441024188
 40
1.726304441024188
 10
64.52537536621094
 20
74.99136352539062
 30
0.0
 10
64.79393305009377
 20
75.1874032766343
 30
0.0
 10
65.21651885325915
 20
75.61091143921738
 30
0.0
 10
65.40807338676163
 20
76.16780098466641
 30
0.0
 10
65.45408084326202
 20
76.40634172982045
 30
0.0
 11
64.52537536621094
 21
74.99136352539062
 31
0.0
 11
65.20515441894531
 21
75.72135925292969
 31
0.0
 11
65.45408084326202
 21
76.40634172982045
 31
0.0
  0
SPLINE
  5
441
330
1F
100
AcDbEntity
  8
VIEW0002
  6
Continuous
 62
     7
100
AcDbSpline
210
0.0
220
0.0
230
1.0
 70
     8
 71
     3
 72
     9
 73
     5
 74
     3
 42
0.0000000001
 43
0.0000000001
 44
0.0000000001
 12
0.8076975292221018
 22
-0.5895970668927315
 32
0.0
 13
0.189381333404558
 23
-0.9819036157168949
 33
0.0
 40
0.0
 40
0.0
 40
0.0
 40
0.0
 40
0.9974991035939632
 40
1.726307462646671
 40
1.726307462646671
 40
1.726307462646671
 40
1.726307462646671
 10
64.52537536621094
 20
102.9913635253906
 30
0.0
 10
64.79393455333565
 20
102.7953226768216
 30
0.0
 10
65.21651574487612
 20
102.3718089017461
 30
0.0
 10
65.40807327698408
 20
101.8149202716012
 30
0.0
 10
65.45408084326202
 20
101.576380417295
 30
0.0
 11
64.52537536621094
 21
102.9913635253906
 31
0.0
 11
65.20515441894531
 21
102.261360168457
 31
0.0
 11
65.45408084326202
 21
101.576380417295
 31
0.0
  0
ELLIPSE
  5
442
330
1F
100
AcDbEntity
  8
VIEW0002
  6
Continuous
 62
     7
100
AcDbEllipse
 10
58.21173858642578
 20
99.99136352539062
 30
0.0
 11
0.0
 21
-1.07499996263607
 31
0.0
210
0.0
220
0.0
230
1.0
 40
0.371390710395164
 41
0.0
 42
6.283185307179586
  0
ELLIPSE
  5
443
330
1F
100
AcDbEntity
  8
VIEW0002
  6
Continuous
 62
     7
100
AcDbEllipse
 10
63.78259658813477
 20
99.99136352539062
 30
0.0
 11
0.0
 21
-1.07499996263607
 31
0.0
210
0.0
220
0.0
230
1.0
 40
0.371390710395151
 41
0.0
 42
6.283185307179586
  0
ELLIPSE
  5
444
330
1F
100
AcDbEntity
  8
VIEW0002
  6
Continuous
 62
     7
100
AcDbEllipse
 10
58.21173858642578
 20
77.99136352539062
 30
0.0
 11
0.0
 21
1.07499996263607
 31
0.0
210
0.0
220
0.0
230
1.0
 40
0.371390710395164
 41
0.0
 42
6.283185307179586
  0
ELLIPSE
  5
445
330
1F
100
AcDbEntity
  8
VIEW0002
  6
Continuous
 62
     7
100
AcDbEllipse
 10
59.88299560546875
 20
99.99136352539062
 30
0.0
 11
-1.421085471520200E-14
 21
1.625000067019712
 31
0.0
210
0.0
220
0.0
230
1.0
 40
0.371390673724997
 41
0.0
 42
6.283185307179586
  0
ELLIPSE
  5
446
330
1F
100
AcDbEntity
  8
VIEW0002
  6
Continuous
 62
     7
100
AcDbEllipse
 10
62.11133575439453
 20
92.74136352539062
 30
0.0
 11
0.0
 21
1.499999932181737
 31
0.0
210
0.0
220
0.0
230
1.0
 40
0.371390347045035
 41
3.141592653589792
 42
6.283185307179586
  0
ELLIPSE
  5
447
330
1F
100
AcDbEntity
  8
VIEW0002
  6
Continuous
 62
     7
100
AcDbEllipse
 10
62.11133575439453
 20
85.24136352539062
 30
0.0
 11
0.0
 21
-1.499999932181737
 31
0.0
210
0.0
220
0.0
230
1.0
 40
0.371390347045035
 41
-0.0000000000000002
 42
3.141592653589798
  0
ELLIPSE
  5
448
330
1F
100
AcDbEntity
  8
VIEW0002
  6
Continuous
 62
     7
100
AcDbEllipse
 10
59.88299560546875
 20
77.99136352539062
 30
0.0
 11
-1.421085471520200E-14
 21
-1.625000067019712
 31
0.0
210
0.0
220
0.0
230
1.0
 40
0.371390673724997
 41
0.0
 42
6.283185307179586
  0
ELLIPSE
  5
449
330
1F
100
AcDbEntity
  8
VIEW0002
  6
Continuous
 62
     7
100
AcDbEllipse
 10
63.78259658813477
 20
77.99136352539062
 30
0.0
 11
0.0
 21
1.07499996263607
 31
0.0
210
0.0
220
0.0
230
1.0
 40
0.371390710395164
 41
0.0
 42
6.283185307179586
  0
SPLINE
  5
44A
330
1F
100
AcDbEntity
  8
VIEW0002
  6
PHANTOM
 62
     7
100
AcDbSpline
210
0.0
220
0.0
230
1.0
 70
     8
 71
     3
 72
     9
 73
     5
 74
     3
 42
0.0000000001
 43
0.0000000001
 44
0.0000000001
 12
0.8076975292221018
 22
0.5895970668927315
 32
0.0
 13
0.1893802158419692
 23
0.9819038312623336
 33
0.0
 40
0.0
 40
0.0
 40
0.0
 40
0.0
 40
0.9974935201602712
 40
1.726304441024188
 40
1.726304441024188
 40
1.726304441024188
 40
1.726304441024188
 10
79.52537536621094
 20
74.99136352539062
 30
0.0
 10
79.79393305009377
 20
75.1874032766343
 30
0.0
 10
80.21651885325915
 20
75.61091143921738
 30
0.0
 10
80.40807338676163
 20
76.16780098466641
 30
0.0
 10
80.45408084326202
 20
76.40634172982045
 30
0.0
 11
79.52537536621094
 21
74.99136352539062
 31
0.0
 11
80.20515441894531
 21
75.72135925292969
 31
0.0
 11
80.45408084326202
 21
76.40634172982045
 31
0.0
  0
SPLINE
  5
44B
330
1F
100
AcDbEntity
  8
VIEW0002
  6
PHANTOM
 62
     7
100
AcDbSpline
210
0.0
220
0.0
230
1.0
 70
     8
 71
     3
 72
     9
 73
     5
 74
     3
 42
0.0000000001
 43
0.0000000001
 44
0.0000000001
 12
0.8076975292221018
 22
-0.5895970668927315
 32
0.0
 13
0.189381333404558
 23
-0.9819036157168949
 33
0.0
 40
0.0
 40
0.0
 40
0.0
 40
0.0
 40
0.9974991035939632
 40
1.726307462646671
 40
1.726307462646671
 40
1.726307462646671
 40
1.726307462646671
 10
79.52537536621094
 20
102.9913635253906
 30
0.0
 10
79.79393455333565
 20
102.7953226768216
 30
0.0
 10
80.21651574487612
 20
102.3718089017461
 30
0.0
 10
80.40807327698408
 20
101.8149202716012
 30
0.0
 10
80.45408084326202
 20
101.576380417295
 30
0.0
 11
79.52537536621094
 21
102.9913635253906
 31
0.0
 11
80.20515441894531
 21
102.261360168457
 31
0.0
 11
80.45408084326202
 21
101.576380417295
 31
0.0
  0
ELLIPSE
  5
44C
330
1F
100
AcDbEntity
  8
VIEW0002
  6
PHANTOM
 62
     7
100
AcDbEllipse
 10
73.21173858642578
 20
99.99136352539062
 30
0.0
 11
0.0
 21
-1.07499996263607
 31
0.0
210
0.0
220
0.0
230
1.0
 40
0.371390710395138
 41
0.0
 42
6.283185307179586
  0
ELLIPSE
  5
44D
330
1F
100
AcDbEntity
  8
VIEW0002
  6
PHANTOM
 62
     7
100
AcDbEllipse
 10
78.78259658813477
 20
99.99136352539062
 30
0.0
 11
0.0
 21
-1.07499996263607
 31
0.0
210
0.0
220
0.0
230
1.0
 40
0.371390710395138
 41
0.0
 42
6.283185307179586
  0
ELLIPSE
  5
44E
330
1F
100
AcDbEntity
  8
VIEW0002
  6
PHANTOM
 62
     7
100
AcDbEllipse
 10
73.21173858642578
 20
77.99136352539062
 30
0.0
 11
0.0
 21
1.07499996263607
 31
0.0
210
0.0
220
0.0
230
1.0
 40
0.371390710395138
 41
0.0
 42
6.283185307179586
  0
ELLIPSE
  5
44F
330
1F
100
AcDbEntity
  8
VIEW0002
  6
PHANTOM
 62
     7
100
AcDbEllipse
 10
74.88299560546875
 20
99.99136352539062
 30
0.0
 11
-1.421085471520200E-14
 21
1.625000067019712
 31
0.0
210
0.0
220
0.0
230
1.0
 40
0.371390673724997
 41
0.0
 42
6.283185307179586
  0
ELLIPSE
  5
450
330
1F
100
AcDbEntity
  8
VIEW0002
  6
PHANTOM
 62
     7
100
AcDbEllipse
 10
77.11133575439453
 20
92.74136352539062
 30
0.0
 11
0.0
 21
1.499999932181737
 31
0.0
210
0.0
220
0.0
230
1.0
 40
0.371390347045035
 41
3.141592653589792
 42
6.283185307179586
  0
ELLIPSE
  5
451
330
1F
100
AcDbEntity
  8
VIEW0002
  6
PHANTOM
 62
     7
100
AcDbEllipse
 10
77.11133575439453
 20
85.24136352539062
 30
0.0
 11
0.0
 21
-1.499999932181737
 31
0.0
210
0.0
220
0.0
230
1.0
 40
0.371390347045035
 41
-0.0000000000000002
 42
3.141592653589794
  0
ELLIPSE
  5
452
330
1F
100
AcDbEntity
  8
VIEW0002
  6
PHANTOM
 62
     7
100
AcDbEllipse
 10
74.88299560546875
 20
77.99136352539062
 30
0.0
 11
-1.421085471520200E-14
 21
-1.625000067019712
 31
0.0
210
0.0
220
0.0
230
1.0
 40
0.371390673724997
 41
0.0
 42
6.283185307179586
  0
ELLIPSE
  5
453
330
1F
100
AcDbEntity
  8
VIEW0002
  6
PHANTOM
 62
     7
100
AcDbEllipse
 10
78.78259658813477
 20
77.99136352539062
 30
0.0
 11
0.0
 21
1.07499996263607
 31
0.0
210
0.0
220
0.0
230
1.0
 40
0.371390710395138
 41
0.0
 42
6.283185307179586
  0
MTEXT
  5
454
330
1F
100
AcDbEntity
  8
VIEW0002
 62
     1
100
AcDbMText
 10
31.0668922662735
 20
-112.0382232666016
 30
0.0
 40
4.0
 41
0.0
 71
     7
 72
     1
  1
{\W0.833333;（スライド幅30～60ｍｍ）}
 73
     1
 44
1.0
  0
MTEXT
  5
455
330
1F
100
AcDbEntity
  8
VIEW0002
 62
     1
100
AcDbMText
 10
-8.490881323814392
 20
3.873730659484863
 30
0.0
 40
1.25
 41
0.0
 71
     7
 72
     1
  1
{\W1;30}
 73
     1
 44
1.0
  0
MTEXT
  5
456
330
1F
100
AcDbEntity
  8
VIEW0002
 62
     1
100
AcDbMText
 10
6.454766035079956
 20
3.858784675598145
 30
0.0
 40
1.25
 41
0.0
 71
     7
 72
     1
  1
{\W1;60}
 73
     1
 44
1.0
  0
MTEXT
  5
457
330
1F
100
AcDbEntity
  8
VIEW0002
 62
     1
100
AcDbMText
 10
-0.948766946792603
 20
3.940739631652832
 30
0.0
 40
1.25
 41
0.0
 71
     7
 72
     1
  1
{\W1;45}
 73
     1
 44
1.0
  0
DIMENSION
  5
458
330
1F
100
AcDbEntity
  8
VIEW0002
 62
     7
100
AcDbDimension
  2
*D25
 10
36.78018569946289
 20
-11.5880474319458
 30
0.0
 11
5.031163764953614
 21
-11.5880474319458
 31
0.0
 70
   160
  1
127
 71
     5
 42
63.50004386901855
  3
ISO-25
100
AcDbAlignedDimension
 13
-26.71985816955566
 23
17.80026626586914
 33
0.0
 14
36.78018569946289
 24
3.450901746749878
 34
0.0
 50
180.0
100
AcDbRotatedDimension
1001
ACAD
1000
DSTYLE
1002
{
1070
   178
1070
     1
1070
   278
1070
    46
1070
   147
1040
0.800000011920929
1070
    77
1070
     1
1070
    74
1070
     0
1070
    73
1070
     0
1070
    42
1040
2.54
1070
    44
1040
2.0
1070
    76
1070
     1
1070
    75
1070
     0
1070
   279
1070
     0
1070
   271
1070
     0
1070
   173
1070
     1
1070
    41
1040
3.0
1070
   140
1040
3.200000047683716
1070
   344
1005
B8
1070
   343
1005
B8
1002
}
  0
DIMENSION
  5
464
330
1F
100
AcDbEntity
  8
VIEW0002
 62
     7
100
AcDbDimension
  2
*D26
 10
-36.71885816955567
 20
16.55026626586914
 30
0.0
 11
-36.71885816955567
 21
6.406266204118726
 31
0.0
 70
   160
  1
6.5
 71
     5
 42
3.25
  3
ISO-25
100
AcDbAlignedDimension
 13
-26.09485816955566
 23
19.80026626586914
 33
0.0
 14
-25.46985721588135
 24
16.55026626586914
 34
0.0
 50
90.00000000000001
100
AcDbRotatedDimension
1001
ACAD
1000
DSTYLE
1002
{
1070
   178
1070
     1
1070
   278
1070
    46
1070
   147
1040
0.800000011920929
1070
    77
1070
     1
1070
    74
1070
     0
1070
    73
1070
     0
1070
    42
1040
2.54
1070
    44
1040
2.0
1070
    76
1070
     0
1070
    75
1070
     0
1070
   279
1070
     0
1070
   271
1070
     1
1070
   173
1070
     1
1070
    41
1040
3.0
1070
   140
1040
3.200000047683716
1070
   344
1005
B8
1070
   343
1005
B8
1002
}
  0
DIMENSION
  5
47C
330
1F
100
AcDbEntity
  8
VIEW0002
 62
     7
100
AcDbDimension
  2
*D27
 10
-26.71985816955566
 20
48.46970748901367
 30
0.0
 11
7.407155181884766
 21
48.46970748901367
 31
0.0
 70
   160
  1
136.5
 71
     5
 42
68.25002861022949
  3
ISO-25
100
AcDbAlignedDimension
 13
41.53017044067383
 23
18.70158767700195
 33
0.0
 14
-26.71985816955566
 24
19.17526626586914
 34
0.0
100
AcDbRotatedDimension
1001
ACAD
1000
DSTYLE
1002
{
1070
   178
1070
     1
1070
   278
1070
    46
1070
   147
1040
0.800000011920929
1070
    77
1070
     1
1070
    74
1070
     0
1070
    73
1070
     0
1070
    42
1040
2.54
1070
    44
1040
2.0
1070
    76
1070
     0
1070
    75
1070
     0
1070
   279
1070
     0
1070
   271
1070
     1
1070
   173
1070
     1
1070
    41
1040
3.0
1070
   140
1040
3.200000047683716
1070
   344
1005
B8
1070
   343
1005
B8
1002
}
  0
DIMENSION
  5
489
330
1F
100
AcDbEntity
  8
VIEW0002
 62
     7
100
AcDbDimension
  2
*D28
 10
-8.219815373420715
 20
40.46970748901367
 30
0.0
 11
21.78219905090332
 21
40.46970748901367
 31
0.0
 70
   160
  1
120
 71
     5
 42
60.00003159046173
  3
ISO-25
100
AcDbAlignedDimension
 13
51.78021621704102
 23
31.04495725299721
 33
0.0
 14
-8.219815373420715
 24
8.15026569366455
 34
0.0
100
AcDbRotatedDimension
1001
ACAD
1000
DSTYLE
1002
{
1070
   178
1070
     1
1070
   278
1070
    46
1070
   147
1040
0.800000011920929
1070
    77
1070
     1
1070
    74
1070
     0
1070
    73
1070
     0
1070
    42
1040
2.54
1070
    44
1040
2.0
1070
    76
1070
     0
1070
    75
1070
     0
1070
   279
1070
     0
1070
   271
1070
     0
1070
   173
1070
     1
1070
    41
1040
3.0
1070
   140
1040
3.200000047683716
1070
   344
1005
B8
1070
   343
1005
B8
1002
}
  0
DIMENSION
  5
496
330
1F
100
AcDbEntity
  8
VIEW0002
 62
     7
100
AcDbDimension
  2
*D29
 10
-74.26457104492185
 20
-1.949729800224311
 30
0.0
 11
-74.26457104492187
 21
8.926272941589355
 31
0.0
 70
   160
  1
43.5
 71
     5
 42
21.75000560283661
  3
ISO-25
100
AcDbAlignedDimension
 13
-59.26657104492188
 23
19.8002758026123
 33
0.0
 14
-59.26657104492188
 24
-1.949729800224304
 34
0.0
 50
90.00000000000001
100
AcDbRotatedDimension
1001
ACAD
1000
DSTYLE
1002
{
1070
   178
1070
     1
1070
   278
1070
    46
1070
   147
1040
0.800000011920929
1070
    77
1070
     1
1070
    74
1070
     0
1070
    73
1070
     0
1070
    42
1040
2.54
1070
    44
1040
2.0
1070
    76
1070
     0
1070
    75
1070
     0
1070
   279
1070
     0
1070
   271
1070
     1
1070
   173
1070
     1
1070
    41
1040
3.0
1070
   140
1040
3.200000047683716
1070
   344
1005
B8
1070
   343
1005
B8
1002
}
  0
DIMENSION
  5
4A3
330
1F
100
AcDbEntity
  8
VIEW0002
 62
     7
100
AcDbDimension
  2
*D30
 10
-54.26657104492188
 20
29.8002758026123
 30
0.0
 11
-59.26557104492188
 21
29.8002758026123
 31
0.0
 70
   160
  1
20
 71
     5
 42
10.0
  3
ISO-25
100
AcDbAlignedDimension
 13
-64.26657104492188
 23
19.14282608032227
 33
0.0
 14
-54.26657104492188
 24
19.14282608032227
 34
0.0
 50
180.0
100
AcDbRotatedDimension
1001
ACAD
1000
DSTYLE
1002
{
1070
   178
1070
     1
1070
   278
1070
    46
1070
   147
1040
0.800000011920929
1070
    77
1070
     1
1070
    74
1070
     0
1070
    73
1070
     0
1070
    42
1040
2.54
1070
    44
1040
2.0
1070
    76
1070
     0
1070
    75
1070
     0
1070
   279
1070
     0
1070
   271
1070
     0
1070
   173
1070
     1
1070
    41
1040
3.0
1070
   140
1040
3.200000047683716
1070
   344
1005
B8
1070
   343
1005
B8
1002
}
  0
DIMENSION
  5
4B0
330
1F
100
AcDbEntity
  8
VIEW0002
 62
     7
100
AcDbDimension
  2
*D31
 10
-55.51657104492188
 20
-11.94872991943359
 30
0.0
 11
-59.26557104492188
 21
-11.94872991943359
 31
0.0
 70
   160
  1
15
 71
     5
 42
7.5
  3
ISO-25
100
AcDbAlignedDimension
 13
-63.01657104492188
 23
2.181217908859253
 33
0.0
 14
-55.51657104492188
 24
2.181217908859253
 34
0.0
 50
180.0
100
AcDbRotatedDimension
1001
ACAD
1000
DSTYLE
1002
{
1070
   178
1070
     1
1070
   278
1070
    46
1070
   147
1040
0.800000011920929
1070
    77
1070
     1
1070
    74
1070
     0
1070
    73
1070
     0
1070
    42
1040
2.54
1070
    44
1040
2.0
1070
    76
1070
     0
1070
    75
1070
     0
1070
   279
1070
     0
1070
   271
1070
     0
1070
   173
1070
     1
1070
    41
1040
3.0
1070
   140
1040
3.200000047683716
1070
   344
1005
B8
1070
   343
1005
B8
1002
}
  0
DIMENSION
  5
4C6
330
1F
100
AcDbEntity
  8
VIEW0002
 62
     7
100
AcDbDimension
  2
*D32
 10
-23.55916540527344
 20
-70.65154266357422
 30
0.0
 11
-23.55916540527344
 21
-82.96594269061089
 31
0.0
 70
   160
  1
9
 71
     5
 42
4.5
  3
ISO-25
100
AcDbAlignedDimension
 13
-11.06016564369202
 23
-75.15154266357422
 33
0.0
 14
-12.63511681556702
 24
-70.65154266357422
 34
0.0
 50
270.0
100
AcDbRotatedDimension
1001
ACAD
1000
DSTYLE
1002
{
1070
   178
1070
     1
1070
   278
1070
    46
1070
   147
1040
0.800000011920929
1070
    77
1070
     1
1070
    74
1070
     0
1070
    73
1070
     0
1070
    42
1040
2.54
1070
    44
1040
2.0
1070
    76
1070
     0
1070
    75
1070
     1
1070
   279
1070
     0
1070
   271
1070
     0
1070
   173
1070
     1
1070
    41
1040
3.0
1070
   140
1040
3.200000047683716
1070
   344
1005
B8
1070
   343
1005
B8
1002
}
  0
DIMENSION
  5
4DC
330
1F
100
AcDbEntity
  8
VIEW0002
 62
     7
100
AcDbDimension
  2
*D33
 10
-23.55916540527344
 20
-60.15154266357422
 30
0.0
 11
-23.55916540527344
 21
-65.40054266357421
 31
0.0
 70
   160
  1
21
 71
     5
 42
10.5
  3
ISO-25
100
AcDbAlignedDimension
 13
-12.63511681556702
 23
-70.65154266357422
 33
0.0
 14
-12.68516564369202
 24
-60.15154266357422
 34
0.0
 50
270.0
100
AcDbRotatedDimension
1001
ACAD
1000
DSTYLE
1002
{
1070
   178
1070
     1
1070
   278
1070
    46
1070
   147
1040
0.800000011920929
1070
    77
1070
     1
1070
    74
1070
     0
1070
    73
1070
     0
1070
    42
1040
2.54
1070
    44
1040
2.0
1070
    76
1070
     0
1070
    75
1070
     1
1070
   279
1070
     0
1070
   271
1070
     0
1070
   173
1070
     1
1070
    41
1040
3.0
1070
   140
1040
3.200000047683716
1070
   344
1005
B8
1070
   343
1005
B8
1002
}
  0
DIMENSION
  5
4E8
330
1F
100
AcDbEntity
  8
VIEW0002
 62
     7
100
AcDbDimension
  2
*D34
 10
-23.55916540527344
 20
-55.65154266357421
 30
0.0
 11
-23.55916540527344
 21
-57.90054266357422
 31
0.0
 70
   160
  1
9
 71
     5
 42
4.5
  3
ISO-25
100
AcDbAlignedDimension
 13
-12.68516564369202
 23
-60.15154266357422
 33
0.0
 14
-12.63511681556702
 24
-55.65154266357422
 34
0.0
 50
270.0
100
AcDbRotatedDimension
1001
ACAD
1000
DSTYLE
1002
{
1070
   178
1070
     1
1070
   278
1070
    46
1070
   147
1040
0.800000011920929
1070
    77
1070
     1
1070
    74
1070
     0
1070
    73
1070
     0
1070
    42
1040
2.54
1070
    44
1040
2.0
1070
    76
1070
     0
1070
    75
1070
     1
1070
   279
1070
     0
1070
   271
1070
     0
1070
   173
1070
     1
1070
    41
1040
3.0
1070
   140
1040
3.200000047683716
1070
   344
1005
B8
1070
   343
1005
B8
1002
}
  0
DIMENSION
  5
4FC
330
1F
100
AcDbEntity
  8
VIEW0002
 62
     7
100
AcDbDimension
  2
*D35
 10
-23.55916540527344
 20
-45.15154266357421
 30
0.0
 11
-23.55916540527344
 21
-50.40054266357422
 31
0.0
 70
   160
  1
21
 71
     5
 42
10.5
  3
ISO-25
100
AcDbAlignedDimension
 13
-12.63511681556702
 23
-55.65154266357422
 33
0.0
 14
-9.144638359546661
 24
-45.15154266357422
 34
0.0
 50
270.0
100
AcDbRotatedDimension
1001
ACAD
1000
DSTYLE
1002
{
1070
   178
1070
     1
1070
   278
1070
    46
1070
   147
1040
0.800000011920929
1070
    77
1070
     1
1070
    74
1070
     0
1070
    73
1070
     0
1070
    42
1040
2.54
1070
    44
1040
2.0
1070
    76
1070
     1
1070
    75
1070
     1
1070
   279
1070
     0
1070
   271
1070
     0
1070
   173
1070
     1
1070
    41
1040
3.0
1070
   140
1040
3.200000047683716
1070
   344
1005
B8
1070
   343
1005
B8
1002
}
  0
DIMENSION
  5
507
330
1F
100
AcDbEntity
  8
VIEW0002
 62
     7
100
AcDbDimension
  2
*D36
 10
-31.55816540527343
 20
-75.15154266357425
 30
0.0
 11
-31.55816540527344
 21
-60.15054266357422
 31
0.0
 70
   160
  1
60
 71
     5
 42
30.0
  3
ISO-25
100
AcDbAlignedDimension
 13
-9.144638359546661
 23
-45.15154266357422
 33
0.0
 14
-11.06016564369202
 24
-75.15154266357422
 34
0.0
 50
90.00000000000001
100
AcDbRotatedDimension
1001
ACAD
1000
DSTYLE
1002
{
1070
   178
1070
     1
1070
   278
1070
    46
1070
   147
1040
0.800000011920929
1070
    77
1070
     1
1070
    74
1070
     0
1070
    73
1070
     0
1070
    42
1040
2.54
1070
    44
1040
2.0
1070
    76
1070
     0
1070
    75
1070
     0
1070
   279
1070
     0
1070
   271
1070
     0
1070
   173
1070
     1
1070
    41
1040
3.0
1070
   140
1040
3.200000047683716
1070
   344
1005
B8
1070
   343
1005
B8
1002
}
  0
DIMENSION
  5
514
330
1F
100
AcDbEntity
  8
VIEW0002
 62
     7
100
AcDbDimension
  2
*D37
 10
-10.81016570329666
 20
-87.15054266357421
 30
0.0
 11
-23.77616570651531
 21
-87.15054266357421
 31
0.0
 70
   160
  1
5.5
 71
     5
 42
2.749999940395355
  3
ISO-25
100
AcDbAlignedDimension
 13
-13.56016564369202
 23
-72.65154266357422
 33
0.0
 14
-10.81016570329666
 24
-72.4765396118164
 34
0.0
 50
180.0
100
AcDbRotatedDimension
1001
ACAD
1000
DSTYLE
1002
{
1070
   178
1070
     1
1070
   278
1070
    46
1070
   147
1040
0.800000011920929
1070
    77
1070
     1
1070
    74
1070
     0
1070
    73
1070
     0
1070
    42
1040
2.54
1070
    44
1040
2.0
1070
    76
1070
     0
1070
    75
1070
     1
1070
   279
1070
     0
1070
   271
1070
     1
1070
   173
1070
     1
1070
    41
1040
3.0
1070
   140
1040
3.200000047683716
1070
   344
1005
B8
1070
   343
1005
B8
1002
}
  0
DIMENSION
  5
52A
330
1F
100
AcDbEntity
  8
VIEW0002
 62
     7
100
AcDbDimension
  2
*D38
 10
11.68983459472656
 20
-87.15054266357421
 30
0.0
 11
0.440834594726563
 21
-87.15054266357421
 31
0.0
 70
   160
  1
45
 71
     5
 42
22.50000029802322
  3
ISO-25
100
AcDbAlignedDimension
 13
-10.81016570329666
 23
-72.4765396118164
 33
0.0
 14
11.68983459472656
 24
-72.4765396118164
 34
0.0
 50
180.0
100
AcDbRotatedDimension
1001
ACAD
1000
DSTYLE
1002
{
1070
   178
1070
     1
1070
   278
1070
    46
1070
   147
1040
0.800000011920929
1070
    77
1070
     1
1070
    74
1070
     0
1070
    73
1070
     0
1070
    42
1040
2.54
1070
    44
1040
2.0
1070
    76
1070
     0
1070
    75
1070
     1
1070
   279
1070
     0
1070
   271
1070
     0
1070
   173
1070
     1
1070
    41
1040
3.0
1070
   140
1040
3.200000047683716
1070
   344
1005
B8
1070
   343
1005
B8
1002
}
  0
DIMENSION
  5
536
330
1F
100
AcDbEntity
  8
VIEW0002
 62
     7
100
AcDbDimension
  2
*D39
 10
14.43983459472656
 20
-87.15054266357421
 30
0.0
 11
24.65583465754985
 21
-87.15054266357421
 31
0.0
 70
   160
  1
5.5
 71
     5
 42
2.75
  3
ISO-25
100
AcDbAlignedDimension
 13
11.68983459472656
 23
-72.4765396118164
 33
0.0
 14
14.43983459472656
 24
-72.65154266357422
 34
0.0
 50
180.0
100
AcDbRotatedDimension
1001
ACAD
1000
DSTYLE
1002
{
1070
   178
1070
     1
1070
   278
1070
    46
1070
   147
1040
0.800000011920929
1070
    77
1070
     1
1070
    74
1070
     0
1070
    73
1070
     0
1070
    42
1040
2.54
1070
    44
1040
2.0
1070
    76
1070
     1
1070
    75
1070
     1
1070
   279
1070
     0
1070
   271
1070
     1
1070
   173
1070
     1
1070
    41
1040
3.0
1070
   140
1040
3.200000047683716
1070
   344
1005
B8
1070
   343
1005
B8
1002
}
  0
DIMENSION
  5
54A
330
1F
100
AcDbEntity
  8
VIEW0002
 62
     7
100
AcDbDimension
  2
*D40
 10
-13.56016564369202
 20
-95.15054266357421
 30
0.0
 11
0.441834594726563
 21
-95.15054266357421
 31
0.0
 70
   160
  1
56
 71
     5
 42
28.00000023841858
  3
ISO-25
100
AcDbAlignedDimension
 13
14.43983459472656
 23
-72.65154266357422
 33
0.0
 14
-13.56016564369202
 24
-72.65154266357422
 34
0.0
100
AcDbRotatedDimension
1001
ACAD
1000
DSTYLE
1002
{
1070
   178
1070
     1
1070
   278
1070
    46
1070
   147
1040
0.800000011920929
1070
    77
1070
     1
1070
    74
1070
     0
1070
    73
1070
     0
1070
    42
1040
2.54
1070
    44
1040
2.0
1070
    76
1070
     0
1070
    75
1070
     0
1070
   279
1070
     0
1070
   271
1070
     0
1070
   173
1070
     1
1070
    41
1040
3.0
1070
   140
1040
3.200000047683716
1070
   344
1005
B8
1070
   343
1005
B8
1002
}
  0
DIMENSION
  5
557
330
1F
100
AcDbEntity
  8
VIEW0002
 62
     7
100
AcDbDimension
  2
*D41
 10
-10.31016570329666
 20
-35.15154266357422
 30
0.0
 11
-23.70416570544242
 21
-35.15154266357422
 31
0.0
 70
   160
  1
6.5
 71
     5
 42
3.249999940395357
  3
ISO-25
100
AcDbAlignedDimension
 13
-13.56016564369202
 23
-50.84408569335938
 33
0.0
 14
-10.31016570329666
 24
-57.77654266357422
 34
0.0
 50
180.0
100
AcDbRotatedDimension
1001
ACAD
1000
DSTYLE
1002
{
1070
   178
1070
     1
1070
   278
1070
    46
1070
   147
1040
0.800000011920929
1070
    77
1070
     1
1070
    74
1070
     0
1070
    73
1070
     0
1070
    42
1040
2.54
1070
    44
1040
2.0
1070
    76
1070
     0
1070
    75
1070
     0
1070
   279
1070
     0
1070
   271
1070
     1
1070
   173
1070
     1
1070
    41
1040
3.0
1070
   140
1040
3.200000047683716
1070
   344
1005
B8
1070
   343
1005
B8
1002
}
  0
DIMENSION
  5
56F
330
1F
100
AcDbEntity
  8
VIEW0002
 62
     7
100
AcDbDimension
  2
*D42
 10
11.18983459472657
 20
-35.15154266357422
 30
0.0
 11
0.440834594726563
 21
-35.15154266357422
 31
0.0
 70
   160
  1
43
 71
     5
 42
21.50000029802322
  3
ISO-25
100
AcDbAlignedDimension
 13
-10.31016570329666
 23
-57.77654266357422
 33
0.0
 14
11.18983459472656
 24
-57.77654266357422
 34
0.0
 50
180.0
100
AcDbRotatedDimension
1001
ACAD
1000
DSTYLE
1002
{
1070
   178
1070
     1
1070
   278
1070
    46
1070
   147
1040
0.800000011920929
1070
    77
1070
     1
1070
    74
1070
     0
1070
    73
1070
     0
1070
    42
1040
2.54
1070
    44
1040
2.0
1070
    76
1070
     0
1070
    75
1070
     1
1070
   279
1070
     0
1070
   271
1070
     0
1070
   173
1070
     1
1070
    41
1040
3.0
1070
   140
1040
3.200000047683716
1070
   344
1005
B8
1070
   343
1005
B8
1002
}
  0
DIMENSION
  5
57B
330
1F
100
AcDbEntity
  8
VIEW0002
 62
     7
100
AcDbDimension
  2
*D43
 10
14.43983459472656
 20
-35.15154266357422
 30
0.0
 11
24.58383465647697
 21
-35.15154266357422
 31
0.0
 70
   160
  1
6.5
 71
     5
 42
3.249999999999999
  3
ISO-25
100
AcDbAlignedDimension
 13
11.18983459472656
 23
-57.77654266357422
 33
0.0
 14
14.43983459472656
 24
-50.84398651123047
 34
0.0
 50
180.0
100
AcDbRotatedDimension
1001
ACAD
1000
DSTYLE
1002
{
1070
   178
1070
     1
1070
   278
1070
    46
1070
   147
1040
0.800000011920929
1070
    77
1070
     1
1070
    74
1070
     0
1070
    73
1070
     0
1070
    42
1040
2.54
1070
    44
1040
2.0
1070
    76
1070
     0
1070
    75
1070
     1
1070
   279
1070
     0
1070
   271
1070
     1
1070
   173
1070
     1
1070
    41
1040
3.0
1070
   140
1040
3.200000047683716
1070
   344
1005
B8
1070
   343
1005
B8
1002
}
  0
INSERT
  5
597
330
1F
100
AcDbEntity
  8
VIEW0002
 62
     7
100
AcDbBlockReference
  2
SYM0001
 10
12.21813346812626
 20
-61.40980609078537
 30
0.0
  0
INSERT
  5
5A0
330
1F
100
AcDbEntity
  8
VIEW0002
 62
     7
100
AcDbBlockReference
  2
SYM0002
 10
12.41472395866571
 20
-56.44537274281983
 30
0.0
  0
INSERT
  5
5A9
330
1F
100
AcDbEntity
  8
VIEW0002
 62
     7
100
AcDbBlockReference
  2
SYM0003
 10
-8.719815282259471
 20
14.19059416129096
 30
0.0
  0
INSERT
  5
5B2
330
1F
100
AcDbEntity
  8
VIEW0002
 62
     7
100
AcDbBlockReference
  2
SYM0004
 10
-4.901171726670091
 20
1.090505731523706
 30
0.0
  0
DIMENSION
  5
5B5
330
1F
100
AcDbEntity
  8
VIEW0002
 62
     7
100
AcDbDimension
  2
*D48
 10
85.94704708258945
 20
6.444197118707338
 30
0.0
 11
79.23865468702186
 21
19.86101230912041
 31
0.0
 70
   161
  1
60
 71
     5
 42
29.99999940395355
  3
ISO-25
100
AcDbAlignedDimension
 13
67.03747446670323
 23
30.53043602997037
 33
0.0
 14
80.45385774644184
 24
3.69760867375679
 34
0.0
1001
ACAD
1000
DSTYLE
1002
{
1070
   178
1070
     1
1070
   278
1070
    46
1070
   147
1040
0.800000011920929
1070
    77
1070
     1
1070
    74
1070
     0
1070
    73
1070
     0
1070
    42
1040
2.54
1070
    44
1040
1.999999999999998
1070
    76
1070
     0
1070
    75
1070
     0
1070
   279
1070
     0
1070
   271
1070
     0
1070
   173
1070
     1
1070
    41
1040
3.0
1070
   140
1040
3.200000047683716
1070
   344
1005
B8
1070
   343
1005
B8
1002
}
  0
DIMENSION
  5
5C2
330
1F
100
AcDbEntity
  8
VIEW0002
 62
     7
100
AcDbDimension
  2
*D49
 10
51.78021621704102
 20
-11.5880474319458
 30
0.0
 11
44.28120095825195
 21
-11.5880474319458
 31
0.0
 70
   160
  1
30
 71
     5
 42
15.00003051757812
  3
ISO-25
100
AcDbAlignedDimension
 13
36.78018569946289
 23
3.450901746749878
 33
0.0
 14
51.78021621704102
 24
31.04495725299721
 34
0.0
 50
180.0
100
AcDbRotatedDimension
1001
ACAD
1000
DSTYLE
1002
{
1070
   178
1070
     1
1070
   278
1070
    46
1070
   147
1040
0.800000011920929
1070
    77
1070
     1
1070
    74
1070
     0
1070
    73
1070
     0
1070
    42
1040
2.54
1070
    44
1040
2.286
1070
    76
1070
     0
1070
    75
1070
     1
1070
   279
1070
     0
1070
   271
1070
     0
1070
   173
1070
     1
1070
    41
1040
3.0
1070
   140
1040
3.200000047683716
1070
   344
1005
B8
1070
   343
1005
B8
1002
}
  0
DIMENSION
  5
5CE
330
1F
100
AcDbEntity
  8
VIEW0002
 62
     7
100
AcDbDimension
  2
*D50
 10
66.78021621704102
 20
-21.5880474319458
 30
0.0
 11
51.78120095825195
 21
-21.5880474319458
 31
0.0
 70
   160
  1
60
 71
     5
 42
30.00003051757812
  3
ISO-25
100
AcDbAlignedDimension
 13
36.78018569946289
 23
3.450901746749878
 33
0.0
 14
66.78021621704102
 24
31.04495369506816
 34
0.0
 50
180.0
100
AcDbRotatedDimension
1001
ACAD
1000
DSTYLE
1002
{
1070
   178
1070
     1
1070
   278
1070
    46
1070
   147
1040
0.800000011920929
1070
    77
1070
     1
1070
    74
1070
     0
1070
    73
1070
     0
1070
    42
1040
2.54
1070
    44
1040
2.286000000000001
1070
    76
1070
     0
1070
    75
1070
     0
1070
   279
1070
     0
1070
   271
1070
     0
1070
   173
1070
     1
1070
    41
1040
3.0
1070
   140
1040
3.200000047683716
1070
   344
1005
B8
1070
   343
1005
B8
1002
}
  0
DIMENSION
  5
5DB
330
1F
100
AcDbEntity
  8
VIEW0002
 62
     7
100
AcDbDimension
  2
*D51
 10
74.88232012863651
 20
-20.96119893157309
 30
0.0
 11
78.87500848289875
 21
-20.18004019332134
 31
0.0
 70
   165
  1
26.6°
 71
     5
 42
0.463646702696548
  3
ISO-25
100
AcDb3PointAngularDimension
 13
66.78021621704102
 23
-23.8750474319458
 33
0.0
 14
80.45385774644187
 24
3.69760867375679
 34
0.0
 15
66.78021621704067
 25
31.04495369506879
 35
0.0
1001
ACAD
1000
DSTYLE
1002
{
1070
   178
1070
     1
1070
   278
1070
    46
1070
   275
1070
     0
1070
   147
1040
0.800000011920929
1070
    77
1070
     1
1070
    74
1070
     0
1070
    73
1070
     0
1070
    42
1040
2.54
1070
    44
1040
2.286000000000004
1070
    76
1070
     0
1070
    75
1070
     1
1070
   279
1070
     0
1070
   179
1070
     1
1070
   173
1070
     1
1070
    41
1040
3.0
1070
   140
1040
3.200000047683716
1070
   344
1005
B8
1070
   343
1005
B8
1002
}
  0
ENDSEC
  0
SECTION
  2
OBJECTS
  0
DICTIONARY
  5
C
330
0
100
AcDbDictionary
281
     1
  3
ACAD_GROUP
350
D
  3
ACAD_LAYOUT
350
1A
  3
ACAD_MATERIAL
350
3B
  3
ACAD_MLEADERSTYLE
350
610
  3
ACAD_MLINESTYLE
350
17
  3
ACAD_PLOTSETTINGS
350
19
  3
ACAD_PLOTSTYLENAME
350
E
  3
ACAD_TABLESTYLE
350
60F
  3
ACAD_VISUALSTYLE
350
2A
  0
DICTIONARY
  5
D
102
{ACAD_REACTORS
330
C
102
}
330
C
100
AcDbDictionary
281
     1
  0
DICTIONARY
  5
1A
102
{ACAD_REACTORS
330
C
102
}
330
C
100
AcDbDictionary
281
     1
  3
Layout1
350
1E
  3
Layout2
350
26
  3
Model
350
22
  0
DICTIONARY
  5
3B
102
{ACAD_REACTORS
330
C
102
}
330
C
100
AcDbDictionary
281
     1
  3
ByBlock
350
3D
  3
ByLayer
350
3C
  3
Global
350
3E
  0
DICTIONARY
  5
610
102
{ACAD_REACTORS
330
C
102
}
330
C
100
AcDbDictionary
281
     1
  0
DICTIONARY
  5
17
102
{ACAD_REACTORS
330
C
102
}
330
C
100
AcDbDictionary
281
     1
  3
Standard
350
18
  0
DICTIONARY
  5
19
102
{ACAD_REACTORS
330
C
102
}
330
C
100
AcDbDictionary
281
     1
  0
ACDBDICTIONARYWDFLT
  5
E
102
{ACAD_REACTORS
330
C
102
}
330
C
100
AcDbDictionary
281
     1
  3
Normal
350
F
100
AcDbDictionaryWithDefault
340
F
  0
DICTIONARY
  5
60F
102
{ACAD_REACTORS
330
C
102
}
330
C
100
AcDbDictionary
281
     1
  0
DICTIONARY
  5
2A
102
{ACAD_REACTORS
330
C
102
}
330
C
100
AcDbDictionary
281
     1
  3
2dWireframe
350
2F
  3
3D Hidden
350
31
  3
3dWireframe
350
30
  3
Basic
350
32
  3
Brighten
350
36
  3
ColorChange
350
3A
  3
Conceptual
350
34
  3
Dim
350
35
  3
Facepattern
350
39
  3
Flat
350
2B
  3
FlatWithEdges
350
2C
  3
Gouraud
350
2D
  3
GouraudWithEdges
350
2E
  3
Linepattern
350
38
  3
Realistic
350
33
  3
Thicken
350
37
  0
LAYOUT
  5
1E
102
{ACAD_REACTORS
330
1A
102
}
330
1A
100
AcDbPlotSettings
  1

  2
none_device
  4

  6

 40
0.0
 41
0.0
 42
0.0
 43
0.0
 44
0.0
 45
0.0
 46
0.0
 47
0.0
 48
0.0
 49
0.0
140
0.0
141
0.0
142
1.0
143
1.0
 70
   688
 72
     0
 73
     0
 74
     5
  7

 75
    16
 76
     0
 77
     2
 78
   300
147
1.0
148
0.0
149
0.0
100
AcDbLayout
  1
Layout1
 70
     1
 71
     1
 10
-105.0
 20
-148.5
 11
105.0
 21
148.5
 12
0.0
 22
0.0
 32
0.0
 14
1.000000000000000E+20
 24
1.000000000000000E+20
 34
1.000000000000000E+20
 15
-1.000000000000000E+20
 25
-1.000000000000000E+20
 35
-1.000000000000000E+20
146
0.0
 13
0.0
 23
0.0
 33
0.0
 16
1.0
 26
0.0
 36
0.0
 17
0.0
 27
1.0
 37
0.0
 76
     0
330
1B
  0
LAYOUT
  5
26
102
{ACAD_REACTORS
330
1A
102
}
330
1A
100
AcDbPlotSettings
  1

  2
none_device
  4

  6

 40
0.0
 41
0.0
 42
0.0
 43
0.0
 44
0.0
 45
0.0
 46
0.0
 47
0.0
 48
0.0
 49
0.0
140
0.0
141
0.0
142
1.0
143
1.0
 70
   688
 72
     0
 73
     0
 74
     5
  7

 75
    16
 76
     0
 77
     2
 78
   300
147
1.0
148
0.0
149
0.0
100
AcDbLayout
  1
Layout2
 70
     1
 71
     2
 10
0.0
 20
0.0
 11
0.0
 21
0.0
 12
0.0
 22
0.0
 32
0.0
 14
0.0
 24
0.0
 34
0.0
 15
0.0
 25
0.0
 35
0.0
146
0.0
 13
0.0
 23
0.0
 33
0.0
 16
1.0
 26
0.0
 36
0.0
 17
0.0
 27
1.0
 37
0.0
 76
     0
330
23
  0
LAYOUT
  5
22
102
{ACAD_REACTORS
330
1A
102
}
330
1A
100
AcDbPlotSettings
  1

  2
none_device
  4

  6

 40
0.0
 41
0.0
 42
0.0
 43
0.0
 44
0.0
 45
0.0
 46
0.0
 47
0.0
 48
0.0
 49
0.0
140
0.0
141
0.0
142
1.0
143
1.0
 70
  1712
 72
     0
 73
     0
 74
     0
  7

 75
     0
 76
     0
 77
     2
 78
   300
147
1.0
148
0.0
149
0.0
100
AcDbLayout
  1
Model
 70
     1
 71
     0
 10
-105.0
 20
-148.5
 11
105.0
 21
148.5
 12
0.0
 22
0.0
 32
0.0
 14
-105.0
 24
-148.5
 34
0.0
 15
105.0
 25
148.5
 35
0.0
146
0.0
 13
0.0
 23
0.0
 33
0.0
 16
1.0
 26
0.0
 36
0.0
 17
0.0
 27
1.0
 37
0.0
 76
     0
330
1F
331
29
  0
MATERIAL
  5
3D
102
{ACAD_REACTORS
330
3B
102
}
102
{ACAD_XDICTIONARY
360
60B
102
}
330
3B
100
AcDbMaterial
  1
ByBlock
  0
MATERIAL
  5
3C
102
{ACAD_REACTORS
330
3B
102
}
102
{ACAD_XDICTIONARY
360
609
102
}
330
3B
100
AcDbMaterial
  1
ByLayer
  0
MATERIAL
  5
3E
102
{ACAD_REACTORS
330
3B
102
}
102
{ACAD_XDICTIONARY
360
60D
102
}
330
3B
100
AcDbMaterial
  1
Global
  0
MLINESTYLE
  5
18
102
{ACAD_REACTORS
330
17
102
}
330
17
100
AcDbMlineStyle
  2
Standard
 70
     0
  3

 62
   256
 51
90.0
 52
90.0
 71
     2
 49
0.5
 62
   256
  6
BYLAYER
 49
-0.5
 62
   256
  6
BYLAYER
  0
ACDBPLACEHOLDER
  5
F
102
{ACAD_REACTORS
330
E
102
}
330
E
  0
VISUALSTYLE
  5
2F
102
{ACAD_REACTORS
330
2A
102
}
102
{ACAD_XDICTIONARY
360
5F1
102
}
330
2A
100
AcDbVisualStyle
  2
2dWireframe
 70
     4
 71
     0
 72
     2
 73
     0
 90
        0
 40
-0.6
 41
-30.0
 62
     5
 63
     7
421
 16777215
 74
     1
 91
        4
 64
     7
 65
   257
 75
     1
175
     1
 42
1.0
 92
        0
 66
   257
 43
1.0
 76
     1
 77
     6
 78
     2
 67
     7
 79
     5
170
     0
171
     0
290
     0
174
     0
 93
        1
 44
0.0
173
     0
291
     0
 45
0.0
1001
ACAD
1000
AcDbSavedByObjectVersion
1070
     0
  0
VISUALSTYLE
  5
31
102
{ACAD_REACTORS
330
2A
102
}
102
{ACAD_XDICTIONARY
360
5F5
102
}
330
2A
100
AcDbVisualStyle
  2
3D Hidden
 70
     6
 71
     1
 72
     2
 73
     2
 90
        0
 40
-0.6
 41
-30.0
 62
     5
 63
     7
421
 16777215
 74
     2
 91
        2
 64
     7
 65
   257
 75
     2
175
     1
 42
40.0
 92
        0
 66
   257
 43
1.0
 76
     1
 77
     6
 78
     2
 67
     7
 79
     3
170
     0
171
     0
290
     0
174
     0
 93
        1
 44
0.0
173
     0
291
     0
 45
0.0
1001
ACAD
1000
AcDbSavedByObjectVersion
1070
     0
  0
VISUALSTYLE
  5
30
102
{ACAD_REACTORS
330
2A
102
}
102
{ACAD_XDICTIONARY
360
5F3
102
}
330
2A
100
AcDbVisualStyle
  2
3dWireframe
 70
     5
 71
     0
 72
     2
 73
     0
 90
        0
 40
-0.6
 41
-30.0
 62
     5
 63
     7
421
 16777215
 74
     1
 91
        4
 64
     7
 65
   257
 75
     1
175
     1
 42
1.0
 92
        0
 66
   257
 43
1.0
 76
     1
 77
     6
 78
     2
 67
     7
 79
     5
170
     0
171
     0
290
     0
174
     0
 93
        1
 44
0.0
173
     0
291
     0
 45
0.0
1001
ACAD
1000
AcDbSavedByObjectVersion
1070
     0
  0
VISUALSTYLE
  5
32
102
{ACAD_REACTORS
330
2A
102
}
102
{ACAD_XDICTIONARY
360
5F7
102
}
330
2A
100
AcDbVisualStyle
  2
Basic
 70
     7
 71
     1
 72
     0
 73
     1
 90
        0
 40
-0.6
 41
-30.0
 62
     5
 63
     7
421
 16777215
 74
     0
 91
        4
 64
     7
 65
   257
 75
     1
175
     1
 42
1.0
 92
        8
 66
     7
 43
1.0
 76
     1
 77
     6
 78
     2
 67
     7
 79
     5
170
     0
171
     0
290
     0
174
     0
 93
        1
 44
0.0
173
     0
291
     1
 45
0.0
1001
ACAD
1000
AcDbSavedByObjectVersion
1070
     0
  0
VISUALSTYLE
  5
36
102
{ACAD_REACTORS
330
2A
102
}
102
{ACAD_XDICTIONARY
360
5FF
102
}
330
2A
100
AcDbVisualStyle
  2
Brighten
 70
    12
 71
     2
 72
     2
 73
     0
 90
        0
 40
-0.6
 41
-30.0
 62
     5
 63
     7
421
 16777215
 74
     1
 91
        4
 64
     7
 65
   257
 75
     1
175
     1
 42
1.0
 92
        8
 66
     7
 43
1.0
 76
     1
 77
     6
 78
     2
 67
     7
 79
     5
170
     0
171
     0
290
     0
174
     0
 93
        1
 44
50.0
173
     0
291
     1
 45
0.0
1001
ACAD
1000
AcDbSavedByObjectVersion
1070
     0
  0
VISUALSTYLE
  5
3A
102
{ACAD_REACTORS
330
2A
102
}
102
{ACAD_XDICTIONARY
360
607
102
}
330
2A
100
AcDbVisualStyle
  2
ColorChange
 70
    16
 71
     2
 72
     2
 73
     3
 90
        0
 40
-0.6
 41
-30.0
 62
     5
 63
     8
421
  8421504
 74
     1
 91
        4
 64
     7
 65
   257
 75
     1
175
     1
 42
1.0
 92
        8
 66
     8
424
  8421504
 43
1.0
 76
     1
 77
     6
 78
     2
 67
     7
 79
     5
170
     0
171
     0
290
     0
174
     0
 93
        1
 44
0.0
173
     0
291
     1
 45
0.0
1001
ACAD
1000
AcDbSavedByObjectVersion
1070
     0
  0
VISUALSTYLE
  5
34
102
{ACAD_REACTORS
330
2A
102
}
102
{ACAD_XDICTIONARY
360
5FB
102
}
330
2A
100
AcDbVisualStyle
  2
Conceptual
 70
     9
 71
     3
 72
     2
 73
     0
 90
        0
 40
-0.6
 41
-30.0
 62
     5
 63
     7
421
 16777215
 74
     2
 91
        2
 64
     7
 65
   257
 75
     1
175
     1
 42
40.0
 92
        8
 66
     7
 43
1.0
 76
     1
 77
     6
 78
     2
 67
     7
 79
     3
170
     0
171
     0
290
     0
174
     0
 93
        1
 44
0.0
173
     0
291
     0
 45
0.0
1001
ACAD
1000
AcDbSavedByObjectVersion
1070
     0
  0
VISUALSTYLE
  5
35
102
{ACAD_REACTORS
330
2A
102
}
102
{ACAD_XDICTIONARY
360
5FD
102
}
330
2A
100
AcDbVisualStyle
  2
Dim
 70
    11
 71
     2
 72
     2
 73
     0
 90
        0
 40
-0.6
 41
-30.0
 62
     5
 63
     7
421
 16777215
 74
     1
 91
        4
 64
     7
 65
   257
 75
     1
175
     1
 42
1.0
 92
        8
 66
     7
 43
1.0
 76
     1
 77
     6
 78
     2
 67
     7
 79
     5
170
     0
171
     0
290
     0
174
     0
 93
        1
 44
-50.0
173
     0
291
     1
 45
0.0
1001
ACAD
1000
AcDbSavedByObjectVersion
1070
     0
  0
VISUALSTYLE
  5
39
102
{ACAD_REACTORS
330
2A
102
}
102
{ACAD_XDICTIONARY
360
605
102
}
330
2A
100
AcDbVisualStyle
  2
Facepattern
 70
    15
 71
     2
 72
     2
 73
     0
 90
        0
 40
-0.6
 41
-30.0
 62
     5
 63
     7
421
 16777215
 74
     1
 91
        4
 64
     7
 65
   257
 75
     1
175
     1
 42
1.0
 92
        8
 66
     7
 43
1.0
 76
     1
 77
     6
 78
     2
 67
     7
 79
     5
170
     0
171
     0
290
     0
174
     0
 93
        1
 44
0.0
173
     0
291
     1
 45
0.0
1001
ACAD
1000
AcDbSavedByObjectVersion
1070
     0
  0
VISUALSTYLE
  5
2B
102
{ACAD_REACTORS
330
2A
102
}
102
{ACAD_XDICTIONARY
360
5E9
102
}
330
2A
100
AcDbVisualStyle
  2
Flat
 70
     0
 71
     2
 72
     1
 73
     1
 90
        2
 40
-0.6
 41
30.0
 62
     5
 63
     7
421
 16777215
 74
     0
 91
        4
 64
     7
 65
   257
 75
     1
175
     1
 42
1.0
 92
        8
 66
     7
 43
1.0
 76
     1
 77
     6
 78
     2
 67
     7
 79
     5
170
     0
171
     0
290
     0
174
     0
 93
       13
 44
0.0
173
     0
291
     1
 45
0.0
1001
ACAD
1000
AcDbSavedByObjectVersion
1070
     0
  0
VISUALSTYLE
  5
2C
102
{ACAD_REACTORS
330
2A
102
}
102
{ACAD_XDICTIONARY
360
5EB
102
}
330
2A
100
AcDbVisualStyle
  2
FlatWithEdges
 70
     1
 71
     2
 72
     1
 73
     1
 90
        2
 40
-0.6
 41
30.0
 62
     5
 63
     7
421
 16777215
 74
     1
 91
        4
 64
     7
 65
   257
 75
     1
175
     1
 42
1.0
 92
        0
 66
   257
 43
1.0
 76
     1
 77
     6
 78
     2
 67
     7
 79
     5
170
     0
171
     0
290
     0
174
     0
 93
       13
 44
0.0
173
     0
291
     1
 45
0.0
1001
ACAD
1000
AcDbSavedByObjectVersion
1070
     0
  0
VISUALSTYLE
  5
2D
102
{ACAD_REACTORS
330
2A
102
}
102
{ACAD_XDICTIONARY
360
5ED
102
}
330
2A
100
AcDbVisualStyle
  2
Gouraud
 70
     2
 71
     2
 72
     2
 73
     1
 90
        2
 40
-0.6
 41
30.0
 62
     5
 63
     7
421
 16777215
 74
     0
 91
        4
 64
     7
 65
   257
 75
     1
175
     1
 42
1.0
 92
        0
 66
     7
 43
1.0
 76
     1
 77
     6
 78
     2
 67
     7
 79
     5
170
     0
171
     0
290
     0
174
     0
 93
       13
 44
0.0
173
     0
291
     1
 45
0.0
1001
ACAD
1000
AcDbSavedByObjectVersion
1070
     0
  0
VISUALSTYLE
  5
2E
102
{ACAD_REACTORS
330
2A
102
}
102
{ACAD_XDICTIONARY
360
5EF
102
}
330
2A
100
AcDbVisualStyle
  2
GouraudWithEdges
 70
     3
 71
     2
 72
     2
 73
     1
 90
        2
 40
-0.6
 41
30.0
 62
     5
 63
     7
421
 16777215
 74
     1
 91
        4
 64
     7
 65
   257
 75
     1
175
     1
 42
1.0
 92
        0
 66
   257
 43
1.0
 76
     1
 77
     6
 78
     2
 67
     7
 79
     5
170
     0
171
     0
290
     0
174
     0
 93
       13
 44
0.0
173
     0
291
     1
 45
0.0
1001
ACAD
1000
AcDbSavedByObjectVersion
1070
     0
  0
VISUALSTYLE
  5
38
102
{ACAD_REACTORS
330
2A
102
}
102
{ACAD_XDICTIONARY
360
603
102
}
330
2A
100
AcDbVisualStyle
  2
Linepattern
 70
    14
 71
     2
 72
     2
 73
     0
 90
        0
 40
-0.6
 41
-30.0
 62
     5
 63
     7
421
 16777215
 74
     1
 91
        4
 64
     7
 65
   257
 75
     7
175
     7
 42
1.0
 92
        8
 66
     7
 43
1.0
 76
     1
 77
     6
 78
     2
 67
     7
 79
     5
170
     0
171
     0
290
     0
174
     0
 93
        1
 44
0.0
173
     0
291
     1
 45
0.0
1001
ACAD
1000
AcDbSavedByObjectVersion
1070
     0
  0
VISUALSTYLE
  5
33
102
{ACAD_REACTORS
330
2A
102
}
102
{ACAD_XDICTIONARY
360
5F9
102
}
330
2A
100
AcDbVisualStyle
  2
Realistic
 70
     8
 71
     2
 72
     2
 73
     0
 90
        0
 40
-0.6
 41
-30.0
 62
     5
 63
     7
421
 16777215
 74
     1
 91
        0
 64
     7
 65
   257
 75
     1
175
     1
 42
1.0
 92
        8
 66
     8
424
  7895160
 43
1.0
 76
     1
 77
     6
 78
     2
 67
     7
 79
     5
170
     0
171
     0
290
     0
174
     0
 93
       13
 44
0.0
173
     0
291
     0
 45
0.0
1001
ACAD
1000
AcDbSavedByObjectVersion
1070
     0
  0
VISUALSTYLE
  5
37
102
{ACAD_REACTORS
330
2A
102
}
102
{ACAD_XDICTIONARY
360
601
102
}
330
2A
100
AcDbVisualStyle
  2
Thicken
 70
    13
 71
     2
 72
     2
 73
     0
 90
        0
 40
-0.6
 41
-30.0
 62
     5
 63
     7
421
 16777215
 74
     1
 91
        4
 64
     7
 65
   257
 75
     1
175
     1
 42
1.0
 92
       12
 66
     7
 43
1.0
 76
     1
 77
     6
 78
     2
 67
     7
 79
     5
170
     0
171
     0
290
     0
174
     0
 93
        1
 44
0.0
173
     0
291
     1
 45
0.0
1001
ACAD
1000
AcDbSavedByObjectVersion
1070
     0
  0
DICTIONARY
  5
60B
330
3D
100
AcDbDictionary
280
     1
281
     1
  3
ACAD_XREC_ROUNDTRIP
360
60C
  0
DICTIONARY
  5
609
330
3C
100
AcDbDictionary
280
     1
281
     1
  3
ACAD_XREC_ROUNDTRIP
360
60A
  0
DICTIONARY
  5
60D
330
3E
100
AcDbDictionary
280
     1
281
     1
  3
ACAD_XREC_ROUNDTRIP
360
60E
  0
DICTIONARY
  5
5F1
330
2F
100
AcDbDictionary
280
     1
281
     1
  3
ACAD_XREC_ROUNDTRIP
360
5F2
  0
DICTIONARY
  5
5F5
330
31
100
AcDbDictionary
280
     1
281
     1
  3
ACAD_XREC_ROUNDTRIP
360
5F6
  0
DICTIONARY
  5
5F3
330
30
100
AcDbDictionary
280
     1
281
     1
  3
ACAD_XREC_ROUNDTRIP
360
5F4
  0
DICTIONARY
  5
5F7
330
32
100
AcDbDictionary
280
     1
281
     1
  3
ACAD_XREC_ROUNDTRIP
360
5F8
  0
DICTIONARY
  5
5FF
330
36
100
AcDbDictionary
280
     1
281
     1
  3
ACAD_XREC_ROUNDTRIP
360
600
  0
DICTIONARY
  5
607
330
3A
100
AcDbDictionary
280
     1
281
     1
  3
ACAD_XREC_ROUNDTRIP
360
608
  0
DICTIONARY
  5
5FB
330
34
100
AcDbDictionary
280
     1
281
     1
  3
ACAD_XREC_ROUNDTRIP
360
5FC
  0
DICTIONARY
  5
5FD
330
35
100
AcDbDictionary
280
     1
281
     1
  3
ACAD_XREC_ROUNDTRIP
360
5FE
  0
DICTIONARY
  5
605
330
39
100
AcDbDictionary
280
     1
281
     1
  3
ACAD_XREC_ROUNDTRIP
360
606
  0
DICTIONARY
  5
5E9
330
2B
100
AcDbDictionary
280
     1
281
     1
  3
ACAD_XREC_ROUNDTRIP
360
5EA
  0
DICTIONARY
  5
5EB
330
2C
100
AcDbDictionary
280
     1
281
     1
  3
ACAD_XREC_ROUNDTRIP
360
5EC
  0
DICTIONARY
  5
5ED
330
2D
100
AcDbDictionary
280
     1
281
     1
  3
ACAD_XREC_ROUNDTRIP
360
5EE
  0
DICTIONARY
  5
5EF
330
2E
100
AcDbDictionary
280
     1
281
     1
  3
ACAD_XREC_ROUNDTRIP
360
5F0
  0
DICTIONARY
  5
603
330
38
100
AcDbDictionary
280
     1
281
     1
  3
ACAD_XREC_ROUNDTRIP
360
604
  0
DICTIONARY
  5
5F9
330
33
100
AcDbDictionary
280
     1
281
     1
  3
ACAD_XREC_ROUNDTRIP
360
5FA
  0
DICTIONARY
  5
601
330
37
100
AcDbDictionary
280
     1
281
     1
  3
ACAD_XREC_ROUNDTRIP
360
602
  0
XRECORD
  5
60C
102
{ACAD_REACTORS
330
60B
102
}
330
60B
100
AcDbXrecord
280
     1
102
MATERIAL
148
0.0
149
0.0
149
0.0
 93
        0
 94
      127
282
     0
 72
     1
 77
     1
171
     1
175
     1
179
     1
273
     0
  0
XRECORD
  5
60A
102
{ACAD_REACTORS
330
609
102
}
330
609
100
AcDbXrecord
280
     1
102
MATERIAL
148
0.0
149
0.0
149
0.0
 93
        0
 94
      127
282
     0
 72
     1
 77
     1
171
     1
175
     1
179
     1
273
     0
  0
XRECORD
  5
60E
102
{ACAD_REACTORS
330
60D
102
}
330
60D
100
AcDbXrecord
280
     1
102
MATERIAL
148
0.0
149
0.0
149
0.0
 93
        0
 94
      127
282
     0
 72
     1
 77
     1
171
     1
175
     1
179
     1
273
     0
  0
XRECORD
  5
5F2
102
{ACAD_REACTORS
330
5F1
102
}
330
5F1
100
AcDbXrecord
280
     1
102
RTVSPropertyOp0
 70
     1
102
RTVSPropertyOp1
 70
     1
102
RTVSPropertyOp2
 70
     1
102
RTVSPropertyOp3
 70
     1
102
RTVSPropertyOp4
 70
     1
102
RTVSPropertyOp5
 70
     1
102
RTVSPropertyOp6
 70
     1
102
RTVSPropertyOp7
 70
     1
102
RTVSPropertyOp8
 70
     1
102
RTVSPropertyOp9
 70
     1
102
RTVSPropertyOp10
 70
     1
102
RTVSPropertyOp11
 70
     1
102
RTVSPropertyOp12
 70
     1
102
RTVSPropertyOp13
 70
     1
102
RTVSPropertyOp14
 70
     1
102
RTVSPropertyOp15
 70
     1
102
RTVSPropertyOp16
 70
     1
102
RTVSPropertyOp17
 70
     1
102
RTVSPropertyOp18
 70
     1
102
RTVSPropertyOp19
 70
     1
102
RTVSPropertyOp20
 70
     1
102
RTVSPropertyOp21
 70
     1
102
RTVSPropertyOp22
 70
     1
102
RTVSPropertyOp23
 70
     1
102
RTVSPropertyOp24
 70
     1
102
RTVSPropertyOp25
 70
     1
102
RTVSPropertyOp26
 70
     1
102
RTVSPropertyOp27
 70
     1
102
RTVSPropertyOp28
 70
     1
102
RTVSPropertyOp29
 70
     1
102
RTVSPropertyOp30
 70
     1
102
RTVSPropertyOp31
 70
     1
102
RTVSPropertyOp32
 70
     1
  0
XRECORD
  5
5F6
102
{ACAD_REACTORS
330
5F5
102
}
330
5F5
100
AcDbXrecord
280
     1
102
RTVSPropertyOp0
 70
     1
102
RTVSPropertyOp1
 70
     1
102
RTVSPropertyOp2
 70
     1
102
RTVSPropertyOp3
 70
     1
102
RTVSPropertyOp4
 70
     1
102
RTVSPropertyOp5
 70
     1
102
RTVSPropertyOp6
 70
     1
102
RTVSPropertyOp7
 70
     1
102
RTVSPropertyOp8
 70
     1
102
RTVSPropertyOp9
 70
     1
102
RTVSPropertyOp10
 70
     1
102
RTVSPropertyOp11
 70
     1
102
RTVSPropertyOp12
 70
     1
102
RTVSPropertyOp13
 70
     1
102
RTVSPropertyOp14
 70
     1
102
RTVSPropertyOp15
 70
     1
102
RTVSPropertyOp16
 70
     1
102
RTVSPropertyOp17
 70
     1
102
RTVSPropertyOp18
 70
     1
102
RTVSPropertyOp19
 70
     1
102
RTVSPropertyOp20
 70
     1
102
RTVSPropertyOp21
 70
     1
102
RTVSPropertyOp22
 70
     1
102
RTVSPropertyOp23
 70
     1
102
RTVSPropertyOp24
 70
     1
102
RTVSPropertyOp25
 70
     1
102
RTVSPropertyOp26
 70
     1
102
RTVSPropertyOp27
 70
     1
102
RTVSPropertyOp28
 70
     1
102
RTVSPropertyOp29
 70
     1
102
RTVSPropertyOp30
 70
     1
102
RTVSPropertyOp31
 70
     1
102
RTVSPropertyOp32
 70
     1
  0
XRECORD
  5
5F4
102
{ACAD_REACTORS
330
5F3
102
}
330
5F3
100
AcDbXrecord
280
     1
102
RTVSPropertyOp0
 70
     1
102
RTVSPropertyOp1
 70
     1
102
RTVSPropertyOp2
 70
     1
102
RTVSPropertyOp3
 70
     1
102
RTVSPropertyOp4
 70
     1
102
RTVSPropertyOp5
 70
     1
102
RTVSPropertyOp6
 70
     1
102
RTVSPropertyOp7
 70
     1
102
RTVSPropertyOp8
 70
     1
102
RTVSPropertyOp9
 70
     1
102
RTVSPropertyOp10
 70
     1
102
RTVSPropertyOp11
 70
     1
102
RTVSPropertyOp12
 70
     1
102
RTVSPropertyOp13
 70
     1
102
RTVSPropertyOp14
 70
     1
102
RTVSPropertyOp15
 70
     1
102
RTVSPropertyOp16
 70
     1
102
RTVSPropertyOp17
 70
     1
102
RTVSPropertyOp18
 70
     1
102
RTVSPropertyOp19
 70
     1
102
RTVSPropertyOp20
 70
     1
102
RTVSPropertyOp21
 70
     1
102
RTVSPropertyOp22
 70
     1
102
RTVSPropertyOp23
 70
     1
102
RTVSPropertyOp24
 70
     1
102
RTVSPropertyOp25
 70
     1
102
RTVSPropertyOp26
 70
     1
102
RTVSPropertyOp27
 70
     1
102
RTVSPropertyOp28
 70
     1
102
RTVSPropertyOp29
 70
     1
102
RTVSPropertyOp30
 70
     1
102
RTVSPropertyOp31
 70
     1
102
RTVSPropertyOp32
 70
     1
  0
XRECORD
  5
5F8
102
{ACAD_REACTORS
330
5F7
102
}
330
5F7
100
AcDbXrecord
280
     1
102
RTVSPropertyOp0
 70
     1
102
RTVSPropertyOp1
 70
     1
102
RTVSPropertyOp2
 70
     1
102
RTVSPropertyOp3
 70
     1
102
RTVSPropertyOp4
 70
     1
102
RTVSPropertyOp5
 70
     1
102
RTVSPropertyOp6
 70
     1
102
RTVSPropertyOp7
 70
     1
102
RTVSPropertyOp8
 70
     1
102
RTVSPropertyOp9
 70
     1
102
RTVSPropertyOp10
 70
     1
102
RTVSPropertyOp11
 70
     1
102
RTVSPropertyOp12
 70
     1
102
RTVSPropertyOp13
 70
     1
102
RTVSPropertyOp14
 70
     1
102
RTVSPropertyOp15
 70
     1
102
RTVSPropertyOp16
 70
     1
102
RTVSPropertyOp17
 70
     1
102
RTVSPropertyOp18
 70
     1
102
RTVSPropertyOp19
 70
     1
102
RTVSPropertyOp20
 70
     1
102
RTVSPropertyOp21
 70
     1
102
RTVSPropertyOp22
 70
     1
102
RTVSPropertyOp23
 70
     1
102
RTVSPropertyOp24
 70
     1
102
RTVSPropertyOp25
 70
     1
102
RTVSPropertyOp26
 70
     1
102
RTVSPropertyOp27
 70
     1
102
RTVSPropertyOp28
 70
     1
102
RTVSPropertyOp29
 70
     1
102
RTVSPropertyOp30
 70
     1
102
RTVSPropertyOp31
 70
     1
102
RTVSPropertyOp32
 70
     1
  0
XRECORD
  5
600
102
{ACAD_REACTORS
330
5FF
102
}
330
5FF
100
AcDbXrecord
280
     1
102
RTVSPropertyOp0
 70
     1
102
RTVSPropertyOp1
 70
     1
102
RTVSPropertyOp2
 70
     1
102
RTVSPropertyOp3
 70
     1
102
RTVSPropertyOp4
 70
     1
102
RTVSPropertyOp5
 70
     1
102
RTVSPropertyOp6
 70
     1
102
RTVSPropertyOp7
 70
     1
102
RTVSPropertyOp8
 70
     1
102
RTVSPropertyOp9
 70
     1
102
RTVSPropertyOp10
 70
     1
102
RTVSPropertyOp11
 70
     1
102
RTVSPropertyOp12
 70
     1
102
RTVSPropertyOp13
 70
     1
102
RTVSPropertyOp14
 70
     1
102
RTVSPropertyOp15
 70
     1
102
RTVSPropertyOp16
 70
     1
102
RTVSPropertyOp17
 70
     1
102
RTVSPropertyOp18
 70
     1
102
RTVSPropertyOp19
 70
     1
102
RTVSPropertyOp20
 70
     1
102
RTVSPropertyOp21
 70
     1
102
RTVSPropertyOp22
 70
     1
102
RTVSPropertyOp23
 70
     1
102
RTVSPropertyOp24
 70
     1
102
RTVSPropertyOp25
 70
     1
102
RTVSPropertyOp26
 70
     1
102
RTVSPropertyOp27
 70
     1
102
RTVSPropertyOp28
 70
     1
102
RTVSPropertyOp29
 70
     1
102
RTVSPropertyOp30
 70
     1
102
RTVSPropertyOp31
 70
     1
102
RTVSPropertyOp32
 70
     1
  0
XRECORD
  5
608
102
{ACAD_REACTORS
330
607
102
}
330
607
100
AcDbXrecord
280
     1
102
RTVSPropertyOp0
 70
     1
102
RTVSPropertyOp1
 70
     1
102
RTVSPropertyOp2
 70
     1
102
RTVSPropertyOp3
 70
     1
102
RTVSPropertyOp4
 70
     1
102
RTVSPropertyOp5
 70
     1
102
RTVSPropertyOp6
 70
     1
102
RTVSPropertyOp7
 70
     1
102
RTVSPropertyOp8
 70
     1
102
RTVSPropertyOp9
 70
     1
102
RTVSPropertyOp10
 70
     1
102
RTVSPropertyOp11
 70
     1
102
RTVSPropertyOp12
 70
     1
102
RTVSPropertyOp13
 70
     1
102
RTVSPropertyOp14
 70
     1
102
RTVSPropertyOp15
 70
     1
102
RTVSPropertyOp16
 70
     1
102
RTVSPropertyOp17
 70
     1
102
RTVSPropertyOp18
 70
     1
102
RTVSPropertyOp19
 70
     1
102
RTVSPropertyOp20
 70
     1
102
RTVSPropertyOp21
 70
     1
102
RTVSPropertyOp22
 70
     1
102
RTVSPropertyOp23
 70
     1
102
RTVSPropertyOp24
 70
     1
102
RTVSPropertyOp25
 70
     1
102
RTVSPropertyOp26
 70
     1
102
RTVSPropertyOp27
 70
     1
102
RTVSPropertyOp28
 70
     1
102
RTVSPropertyOp29
 70
     1
102
RTVSPropertyOp30
 70
     1
102
RTVSPropertyOp31
 70
     1
102
RTVSPropertyOp32
 70
     1
  0
XRECORD
  5
5FC
102
{ACAD_REACTORS
330
5FB
102
}
330
5FB
100
AcDbXrecord
280
     1
102
RTVSPropertyOp0
 70
     1
102
RTVSPropertyOp1
 70
     1
102
RTVSPropertyOp2
 70
     1
102
RTVSPropertyOp3
 70
     1
102
RTVSPropertyOp4
 70
     1
102
RTVSPropertyOp5
 70
     1
102
RTVSPropertyOp6
 70
     1
102
RTVSPropertyOp7
 70
     1
102
RTVSPropertyOp8
 70
     1
102
RTVSPropertyOp9
 70
     1
102
RTVSPropertyOp10
 70
     1
102
RTVSPropertyOp11
 70
     1
102
RTVSPropertyOp12
 70
     1
102
RTVSPropertyOp13
 70
     1
102
RTVSPropertyOp14
 70
     1
102
RTVSPropertyOp15
 70
     1
102
RTVSPropertyOp16
 70
     1
102
RTVSPropertyOp17
 70
     1
102
RTVSPropertyOp18
 70
     1
102
RTVSPropertyOp19
 70
     1
102
RTVSPropertyOp20
 70
     1
102
RTVSPropertyOp21
 70
     1
102
RTVSPropertyOp22
 70
     1
102
RTVSPropertyOp23
 70
     1
102
RTVSPropertyOp24
 70
     1
102
RTVSPropertyOp25
 70
     1
102
RTVSPropertyOp26
 70
     1
102
RTVSPropertyOp27
 70
     1
102
RTVSPropertyOp28
 70
     1
102
RTVSPropertyOp29
 70
     1
102
RTVSPropertyOp30
 70
     1
102
RTVSPropertyOp31
 70
     1
102
RTVSPropertyOp32
 70
     1
  0
XRECORD
  5
5FE
102
{ACAD_REACTORS
330
5FD
102
}
330
5FD
100
AcDbXrecord
280
     1
102
RTVSPropertyOp0
 70
     1
102
RTVSPropertyOp1
 70
     1
102
RTVSPropertyOp2
 70
     1
102
RTVSPropertyOp3
 70
     1
102
RTVSPropertyOp4
 70
     1
102
RTVSPropertyOp5
 70
     1
102
RTVSPropertyOp6
 70
     1
102
RTVSPropertyOp7
 70
     1
102
RTVSPropertyOp8
 70
     1
102
RTVSPropertyOp9
 70
     1
102
RTVSPropertyOp10
 70
     1
102
RTVSPropertyOp11
 70
     1
102
RTVSPropertyOp12
 70
     1
102
RTVSPropertyOp13
 70
     1
102
RTVSPropertyOp14
 70
     1
102
RTVSPropertyOp15
 70
     1
102
RTVSPropertyOp16
 70
     1
102
RTVSPropertyOp17
 70
     1
102
RTVSPropertyOp18
 70
     1
102
RTVSPropertyOp19
 70
     1
102
RTVSPropertyOp20
 70
     1
102
RTVSPropertyOp21
 70
     1
102
RTVSPropertyOp22
 70
     1
102
RTVSPropertyOp23
 70
     1
102
RTVSPropertyOp24
 70
     1
102
RTVSPropertyOp25
 70
     1
102
RTVSPropertyOp26
 70
     1
102
RTVSPropertyOp27
 70
     1
102
RTVSPropertyOp28
 70
     1
102
RTVSPropertyOp29
 70
     1
102
RTVSPropertyOp30
 70
     1
102
RTVSPropertyOp31
 70
     1
102
RTVSPropertyOp32
 70
     1
  0
XRECORD
  5
606
102
{ACAD_REACTORS
330
605
102
}
330
605
100
AcDbXrecord
280
     1
102
RTVSPropertyOp0
 70
     1
102
RTVSPropertyOp1
 70
     1
102
RTVSPropertyOp2
 70
     1
102
RTVSPropertyOp3
 70
     1
102
RTVSPropertyOp4
 70
     1
102
RTVSPropertyOp5
 70
     1
102
RTVSPropertyOp6
 70
     1
102
RTVSPropertyOp7
 70
     1
102
RTVSPropertyOp8
 70
     1
102
RTVSPropertyOp9
 70
     1
102
RTVSPropertyOp10
 70
     1
102
RTVSPropertyOp11
 70
     1
102
RTVSPropertyOp12
 70
     1
102
RTVSPropertyOp13
 70
     1
102
RTVSPropertyOp14
 70
     1
102
RTVSPropertyOp15
 70
     1
102
RTVSPropertyOp16
 70
     1
102
RTVSPropertyOp17
 70
     1
102
RTVSPropertyOp18
 70
     1
102
RTVSPropertyOp19
 70
     1
102
RTVSPropertyOp20
 70
     1
102
RTVSPropertyOp21
 70
     1
102
RTVSPropertyOp22
 70
     1
102
RTVSPropertyOp23
 70
     1
102
RTVSPropertyOp24
 70
     1
102
RTVSPropertyOp25
 70
     1
102
RTVSPropertyOp26
 70
     1
102
RTVSPropertyOp27
 70
     1
102
RTVSPropertyOp28
 70
     1
102
RTVSPropertyOp29
 70
     1
102
RTVSPropertyOp30
 70
     1
102
RTVSPropertyOp31
 70
     1
102
RTVSPropertyOp32
 70
     1
  0
XRECORD
  5
5EA
102
{ACAD_REACTORS
330
5E9
102
}
330
5E9
100
AcDbXrecord
280
     1
102
RTVSPropertyOp0
 70
     1
102
RTVSPropertyOp1
 70
     1
102
RTVSPropertyOp2
 70
     1
102
RTVSPropertyOp3
 70
     1
102
RTVSPropertyOp4
 70
     1
102
RTVSPropertyOp5
 70
     1
102
RTVSPropertyOp6
 70
     1
102
RTVSPropertyOp7
 70
     1
102
RTVSPropertyOp8
 70
     1
102
RTVSPropertyOp9
 70
     1
102
RTVSPropertyOp10
 70
     1
102
RTVSPropertyOp11
 70
     1
102
RTVSPropertyOp12
 70
     1
102
RTVSPropertyOp13
 70
     1
102
RTVSPropertyOp14
 70
     1
102
RTVSPropertyOp15
 70
     1
102
RTVSPropertyOp16
 70
     1
102
RTVSPropertyOp17
 70
     1
102
RTVSPropertyOp18
 70
     1
102
RTVSPropertyOp19
 70
     1
102
RTVSPropertyOp20
 70
     1
102
RTVSPropertyOp21
 70
     1
102
RTVSPropertyOp22
 70
     1
102
RTVSPropertyOp23
 70
     1
102
RTVSPropertyOp24
 70
     1
102
RTVSPropertyOp25
 70
     1
102
RTVSPropertyOp26
 70
     1
102
RTVSPropertyOp27
 70
     1
102
RTVSPropertyOp28
 70
     1
102
RTVSPropertyOp29
 70
     1
102
RTVSPropertyOp30
 70
     1
102
RTVSPropertyOp31
 70
     1
102
RTVSPropertyOp32
 70
     1
  0
XRECORD
  5
5EC
102
{ACAD_REACTORS
330
5EB
102
}
330
5EB
100
AcDbXrecord
280
     1
102
RTVSPropertyOp0
 70
     1
102
RTVSPropertyOp1
 70
     1
102
RTVSPropertyOp2
 70
     1
102
RTVSPropertyOp3
 70
     1
102
RTVSPropertyOp4
 70
     1
102
RTVSPropertyOp5
 70
     1
102
RTVSPropertyOp6
 70
     1
102
RTVSPropertyOp7
 70
     1
102
RTVSPropertyOp8
 70
     1
102
RTVSPropertyOp9
 70
     1
102
RTVSPropertyOp10
 70
     1
102
RTVSPropertyOp11
 70
     1
102
RTVSPropertyOp12
 70
     1
102
RTVSPropertyOp13
 70
     1
102
RTVSPropertyOp14
 70
     1
102
RTVSPropertyOp15
 70
     1
102
RTVSPropertyOp16
 70
     1
102
RTVSPropertyOp17
 70
     1
102
RTVSPropertyOp18
 70
     1
102
RTVSPropertyOp19
 70
     1
102
RTVSPropertyOp20
 70
     1
102
RTVSPropertyOp21
 70
     1
102
RTVSPropertyOp22
 70
     1
102
RTVSPropertyOp23
 70
     1
102
RTVSPropertyOp24
 70
     1
102
RTVSPropertyOp25
 70
     1
102
RTVSPropertyOp26
 70
     1
102
RTVSPropertyOp27
 70
     1
102
RTVSPropertyOp28
 70
     1
102
RTVSPropertyOp29
 70
     1
102
RTVSPropertyOp30
 70
     1
102
RTVSPropertyOp31
 70
     1
102
RTVSPropertyOp32
 70
     1
  0
XRECORD
  5
5EE
102
{ACAD_REACTORS
330
5ED
102
}
330
5ED
100
AcDbXrecord
280
     1
102
RTVSPropertyOp0
 70
     1
102
RTVSPropertyOp1
 70
     1
102
RTVSPropertyOp2
 70
     1
102
RTVSPropertyOp3
 70
     1
102
RTVSPropertyOp4
 70
     1
102
RTVSPropertyOp5
 70
     1
102
RTVSPropertyOp6
 70
     1
102
RTVSPropertyOp7
 70
     1
102
RTVSPropertyOp8
 70
     1
102
RTVSPropertyOp9
 70
     1
102
RTVSPropertyOp10
 70
     1
102
RTVSPropertyOp11
 70
     1
102
RTVSPropertyOp12
 70
     1
102
RTVSPropertyOp13
 70
     1
102
RTVSPropertyOp14
 70
     1
102
RTVSPropertyOp15
 70
     1
102
RTVSPropertyOp16
 70
     1
102
RTVSPropertyOp17
 70
     1
102
RTVSPropertyOp18
 70
     1
102
RTVSPropertyOp19
 70
     1
102
RTVSPropertyOp20
 70
     1
102
RTVSPropertyOp21
 70
     1
102
RTVSPropertyOp22
 70
     1
102
RTVSPropertyOp23
 70
     1
102
RTVSPropertyOp24
 70
     1
102
RTVSPropertyOp25
 70
     1
102
RTVSPropertyOp26
 70
     1
102
RTVSPropertyOp27
 70
     1
102
RTVSPropertyOp28
 70
     1
102
RTVSPropertyOp29
 70
     1
102
RTVSPropertyOp30
 70
     1
102
RTVSPropertyOp31
 70
     1
102
RTVSPropertyOp32
 70
     1
  0
XRECORD
  5
5F0
102
{ACAD_REACTORS
330
5EF
102
}
330
5EF
100
AcDbXrecord
280
     1
102
RTVSPropertyOp0
 70
     1
102
RTVSPropertyOp1
 70
     1
102
RTVSPropertyOp2
 70
     1
102
RTVSPropertyOp3
 70
     1
102
RTVSPropertyOp4
 70
     1
102
RTVSPropertyOp5
 70
     1
102
RTVSPropertyOp6
 70
     1
102
RTVSPropertyOp7
 70
     1
102
RTVSPropertyOp8
 70
     1
102
RTVSPropertyOp9
 70
     1
102
RTVSPropertyOp10
 70
     1
102
RTVSPropertyOp11
 70
     1
102
RTVSPropertyOp12
 70
     1
102
RTVSPropertyOp13
 70
     1
102
RTVSPropertyOp14
 70
     1
102
RTVSPropertyOp15
 70
     1
102
RTVSPropertyOp16
 70
     1
102
RTVSPropertyOp17
 70
     1
102
RTVSPropertyOp18
 70
     1
102
RTVSPropertyOp19
 70
     1
102
RTVSPropertyOp20
 70
     1
102
RTVSPropertyOp21
 70
     1
102
RTVSPropertyOp22
 70
     1
102
RTVSPropertyOp23
 70
     1
102
RTVSPropertyOp24
 70
     1
102
RTVSPropertyOp25
 70
     1
102
RTVSPropertyOp26
 70
     1
102
RTVSPropertyOp27
 70
     1
102
RTVSPropertyOp28
 70
     1
102
RTVSPropertyOp29
 70
     1
102
RTVSPropertyOp30
 70
     1
102
RTVSPropertyOp31
 70
     1
102
RTVSPropertyOp32
 70
     1
  0
XRECORD
  5
604
102
{ACAD_REACTORS
330
603
102
}
330
603
100
AcDbXrecord
280
     1
102
RTVSPropertyOp0
 70
     1
102
RTVSPropertyOp1
 70
     1
102
RTVSPropertyOp2
 70
     1
102
RTVSPropertyOp3
 70
     1
102
RTVSPropertyOp4
 70
     1
102
RTVSPropertyOp5
 70
     1
102
RTVSPropertyOp6
 70
     1
102
RTVSPropertyOp7
 70
     1
102
RTVSPropertyOp8
 70
     1
102
RTVSPropertyOp9
 70
     1
102
RTVSPropertyOp10
 70
     1
102
RTVSPropertyOp11
 70
     1
102
RTVSPropertyOp12
 70
     1
102
RTVSPropertyOp13
 70
     1
102
RTVSPropertyOp14
 70
     1
102
RTVSPropertyOp15
 70
     1
102
RTVSPropertyOp16
 70
     1
102
RTVSPropertyOp17
 70
     1
102
RTVSPropertyOp18
 70
     1
102
RTVSPropertyOp19
 70
     1
102
RTVSPropertyOp20
 70
     1
102
RTVSPropertyOp21
 70
     1
102
RTVSPropertyOp22
 70
     1
102
RTVSPropertyOp23
 70
     1
102
RTVSPropertyOp24
 70
     1
102
RTVSPropertyOp25
 70
     1
102
RTVSPropertyOp26
 70
     1
102
RTVSPropertyOp27
 70
     1
102
RTVSPropertyOp28
 70
     1
102
RTVSPropertyOp29
 70
     1
102
RTVSPropertyOp30
 70
     1
102
RTVSPropertyOp31
 70
     1
102
RTVSPropertyOp32
 70
     1
  0
XRECORD
  5
5FA
102
{ACAD_REACTORS
330
5F9
102
}
330
5F9
100
AcDbXrecord
280
     1
102
RTVSPropertyOp0
 70
     1
102
RTVSPropertyOp1
 70
     1
102
RTVSPropertyOp2
 70
     1
102
RTVSPropertyOp3
 70
     1
102
RTVSPropertyOp4
 70
     1
102
RTVSPropertyOp5
 70
     1
102
RTVSPropertyOp6
 70
     1
102
RTVSPropertyOp7
 70
     1
102
RTVSPropertyOp8
 70
     1
102
RTVSPropertyOp9
 70
     1
102
RTVSPropertyOp10
 70
     1
102
RTVSPropertyOp11
 70
     1
102
RTVSPropertyOp12
 70
     1
102
RTVSPropertyOp13
 70
     1
102
RTVSPropertyOp14
 70
     1
102
RTVSPropertyOp15
 70
     1
102
RTVSPropertyOp16
 70
     1
102
RTVSPropertyOp17
 70
     1
102
RTVSPropertyOp18
 70
     1
102
RTVSPropertyOp19
 70
     1
102
RTVSPropertyOp20
 70
     1
102
RTVSPropertyOp21
 70
     1
102
RTVSPropertyOp22
 70
     1
102
RTVSPropertyOp23
 70
     1
102
RTVSPropertyOp24
 70
     1
102
RTVSPropertyOp25
 70
     1
102
RTVSPropertyOp26
 70
     1
102
RTVSPropertyOp27
 70
     1
102
RTVSPropertyOp28
 70
     1
102
RTVSPropertyOp29
 70
     1
102
RTVSPropertyOp30
 70
     1
102
RTVSPropertyOp31
 70
     1
102
RTVSPropertyOp32
 70
     1
  0
XRECORD
  5
602
102
{ACAD_REACTORS
330
601
102
}
330
601
100
AcDbXrecord
280
     1
102
RTVSPropertyOp0
 70
     1
102
RTVSPropertyOp1
 70
     1
102
RTVSPropertyOp2
 70
     1
102
RTVSPropertyOp3
 70
     1
102
RTVSPropertyOp4
 70
     1
102
RTVSPropertyOp5
 70
     1
102
RTVSPropertyOp6
 70
     1
102
RTVSPropertyOp7
 70
     1
102
RTVSPropertyOp8
 70
     1
102
RTVSPropertyOp9
 70
     1
102
RTVSPropertyOp10
 70
     1
102
RTVSPropertyOp11
 70
     1
102
RTVSPropertyOp12
 70
     1
102
RTVSPropertyOp13
 70
     1
102
RTVSPropertyOp14
 70
     1
102
RTVSPropertyOp15
 70
     1
102
RTVSPropertyOp16
 70
     1
102
RTVSPropertyOp17
 70
     1
102
RTVSPropertyOp18
 70
     1
102
RTVSPropertyOp19
 70
     1
102
RTVSPropertyOp20
 70
     1
102
RTVSPropertyOp21
 70
     1
102
RTVSPropertyOp22
 70
     1
102
RTVSPropertyOp23
 70
     1
102
RTVSPropertyOp24
 70
     1
102
RTVSPropertyOp25
 70
     1
102
RTVSPropertyOp26
 70
     1
102
RTVSPropertyOp27
 70
     1
102
RTVSPropertyOp28
 70
     1
102
RTVSPropertyOp29
 70
     1
102
RTVSPropertyOp30
 70
     1
102
RTVSPropertyOp31
 70
     1
102
RTVSPropertyOp32
 70
     1
  0
ENDSEC
  0
EOF
