  0
SECTION
  2
HEADER
  9
$ACADVER
  1
AC1018
  9
$ACADMAINTVER
 70
     0
  9
$DWGCODEPAGE
  3
ANSI_932
  9
$INSBASE
 10
0.0
 20
0.0
 30
0.0
  9
$EXTMIN
 10
-105.0
 20
-148.5
 30
0.0
  9
$EXTMAX
 10
105.0
 20
148.5
 30
0.0
  9
$LIMMIN
 10
-105.0
 20
-148.5
  9
$LIMMAX
 10
105.0
 20
148.5
  9
$ORTHOMODE
 70
     0
  9
$REGENMODE
 70
     1
  9
$FILLMODE
 70
     1
  9
$QTEXTMODE
 70
     0
  9
$MIRRTEXT
 70
     1
  9
$LTSCALE
 40
1.0
  9
$ATTMODE
 70
     1
  9
$TEXTSIZE
 40
2.5
  9
$TRACEWID
 40
1.0
  9
$TEXTSTYLE
  7
Standard
  9
$CLAYER
  8
0
  9
$CELTYPE
  6
ByLayer
  9
$CECOLOR
 62
   256
  9
$CELTSCALE
 40
1.0
  9
$DISPSILH
 70
     0
  9
$DIMSCALE
 40
1.0
  9
$DIMASZ
 40
2.5
  9
$DIMEXO
 40
0.625
  9
$DIMDLI
 40
3.75
  9
$DIMRND
 40
0.0
  9
$DIMDLE
 40
0.0
  9
$DIMEXE
 40
1.25
  9
$DIMTP
 40
0.0
  9
$DIMTM
 40
0.0
  9
$DIMTXT
 40
2.5
  9
$DIMCEN
 40
2.5
  9
$DIMTSZ
 40
0.0
  9
$DIMTOL
 70
     0
  9
$DIMLIM
 70
     0
  9
$DIMTIH
 70
     0
  9
$DIMTOH
 70
     0
  9
$DIMSE1
 70
     0
  9
$DIMSE2
 70
     0
  9
$DIMTAD
 70
     1
  9
$DIMZIN
 70
     8
  9
$DIMBLK
  1

  9
$DIMASO
 70
     1
  9
$DIMSHO
 70
     1
  9
$DIMPOST
  1

  9
$DIMAPOST
  1

  9
$DIMALT
 70
     0
  9
$DIMALTD
 70
     3
  9
$DIMALTF
 40
0.03937007874016
  9
$DIMLFAC
 40
1.0
  9
$DIMTOFL
 70
     1
  9
$DIMTVP
 40
0.0
  9
$DIMTIX
 70
     0
  9
$DIMSOXD
 70
     0
  9
$DIMSAH
 70
     0
  9
$DIMBLK1
  1

  9
$DIMBLK2
  1

  9
$DIMSTYLE
  2
ISO-25
  9
$DIMCLRD
 70
     0
  9
$DIMCLRE
 70
     0
  9
$DIMCLRT
 70
     0
  9
$DIMTFAC
 40
1.0
  9
$DIMGAP
 40
0.625
  9
$DIMJUST
 70
     0
  9
$DIMSD1
 70
     0
  9
$DIMSD2
 70
     0
  9
$DIMTOLJ
 70
     0
  9
$DIMTZIN
 70
     8
  9
$DIMALTZ
 70
     0
  9
$DIMALTTZ
 70
     0
  9
$DIMUPT
 70
     0
  9
$DIMDEC
 70
     2
  9
$DIMTDEC
 70
     2
  9
$DIMALTU
 70
     2
  9
$DIMALTTD
 70
     3
  9
$DIMTXSTY
  7
Standard
  9
$DIMAUNIT
 70
     0
  9
$DIMADEC
 70
     0
  9
$DIMALTRND
 40
0.0
  9
$DIMAZIN
 70
     0
  9
$DIMDSEP
 70
    44
  9
$DIMATFIT
 70
     3
  9
$DIMFRAC
 70
     0
  9
$DIMLDRBLK
  1

  9
$DIMLUNIT
 70
     2
  9
$DIMLWD
 70
    -2
  9
$DIMLWE
 70
    -2
  9
$DIMTMOVE
 70
     0
  9
$LUNITS
 70
     2
  9
$LUPREC
 70
     4
  9
$SKETCHINC
 40
1.0
  9
$FILLETRAD
 40
10.0
  9
$AUNITS
 70
     0
  9
$AUPREC
 70
     0
  9
$MENU
  1
.
  9
$ELEVATION
 40
0.0
  9
$PELEVATION
 40
0.0
  9
$THICKNESS
 40
0.0
  9
$LIMCHECK
 70
     0
  9
$CHAMFERA
 40
10.0
  9
$CHAMFERB
 40
10.0
  9
$CHAMFERC
 40
20.0
  9
$CHAMFERD
 40
0.0
  9
$SKPOLY
 70
     0
  9
$TDCREATE
 40
2457290.550528113
  9
$TDUCREATE
 40
2457290.175528113
  9
$TDUPDATE
 40
2457290.550528611
  9
$TDUUPDATE
 40
2457290.175528611
  9
$TDINDWG
 40
0.0000000116
  9
$TDUSRTIMER
 40
0.0000000116
  9
$USRTIMER
 70
     1
  9
$ANGBASE
 50
0.0
  9
$ANGDIR
 70
     0
  9
$PDMODE
 70
     0
  9
$PDSIZE
 40
0.0
  9
$PLINEWID
 40
0.0
  9
$SPLFRAME
 70
     0
  9
$SPLINETYPE
 70
     6
  9
$SPLINESEGS
 70
     8
  9
$HANDSEED
  5
3ED
  9
$SURFTAB1
 70
     6
  9
$SURFTAB2
 70
     6
  9
$SURFTYPE
 70
     6
  9
$SURFU
 70
     6
  9
$SURFV
 70
     6
  9
$UCSBASE
  2

  9
$UCSNAME
  2

  9
$UCSORG
 10
0.0
 20
0.0
 30
0.0
  9
$UCSXDIR
 10
1.0
 20
0.0
 30
0.0
  9
$UCSYDIR
 10
0.0
 20
1.0
 30
0.0
  9
$UCSORTHOREF
  2

  9
$UCSORTHOVIEW
 70
     0
  9
$UCSORGTOP
 10
0.0
 20
0.0
 30
0.0
  9
$UCSORGBOTTOM
 10
0.0
 20
0.0
 30
0.0
  9
$UCSORGLEFT
 10
0.0
 20
0.0
 30
0.0
  9
$UCSORGRIGHT
 10
0.0
 20
0.0
 30
0.0
  9
$UCSORGFRONT
 10
0.0
 20
0.0
 30
0.0
  9
$UCSORGBACK
 10
0.0
 20
0.0
 30
0.0
  9
$PUCSBASE
  2

  9
$PUCSNAME
  2

  9
$PUCSORG
 10
0.0
 20
0.0
 30
0.0
  9
$PUCSXDIR
 10
1.0
 20
0.0
 30
0.0
  9
$PUCSYDIR
 10
0.0
 20
1.0
 30
0.0
  9
$PUCSORTHOREF
  2

  9
$PUCSORTHOVIEW
 70
     0
  9
$PUCSORGTOP
 10
0.0
 20
0.0
 30
0.0
  9
$PUCSORGBOTTOM
 10
0.0
 20
0.0
 30
0.0
  9
$PUCSORGLEFT
 10
0.0
 20
0.0
 30
0.0
  9
$PUCSORGRIGHT
 10
0.0
 20
0.0
 30
0.0
  9
$PUCSORGFRONT
 10
0.0
 20
0.0
 30
0.0
  9
$PUCSORGBACK
 10
0.0
 20
0.0
 30
0.0
  9
$USERI1
 70
     0
  9
$USERI2
 70
     0
  9
$USERI3
 70
     0
  9
$USERI4
 70
     0
  9
$USERI5
 70
     0
  9
$USERR1
 40
0.0
  9
$USERR2
 40
0.0
  9
$USERR3
 40
0.0
  9
$USERR4
 40
0.0
  9
$USERR5
 40
0.0
  9
$WORLDVIEW
 70
     1
  9
$SHADEDGE
 70
     3
  9
$SHADEDIF
 70
    70
  9
$TILEMODE
 70
     1
  9
$MAXACTVP
 70
    64
  9
$PINSBASE
 10
0.0
 20
0.0
 30
0.0
  9
$PLIMCHECK
 70
     0
  9
$PEXTMIN
 10
1.000000000000000E+20
 20
1.000000000000000E+20
 30
1.000000000000000E+20
  9
$PEXTMAX
 10
-1.000000000000000E+20
 20
-1.000000000000000E+20
 30
-1.000000000000000E+20
  9
$PLIMMIN
 10
-105.0
 20
-148.5
  9
$PLIMMAX
 10
105.0
 20
148.5
  9
$UNITMODE
 70
     0
  9
$VISRETAIN
 70
     1
  9
$PLINEGEN
 70
     0
  9
$PSLTSCALE
 70
     1
  9
$TREEDEPTH
 70
  3020
  9
$CMLSTYLE
  2
Standard
  9
$CMLJUST
 70
     0
  9
$CMLSCALE
 40
20.0
  9
$PROXYGRAPHICS
 70
     1
  9
$MEASUREMENT
 70
     1
  9
$CELWEIGHT
370
    -1
  9
$ENDCAPS
280
     0
  9
$JOINSTYLE
280
     0
  9
$LWDISPLAY
290
     0
  9
$INSUNITS
 70
     4
  9
$HYPERLINKBASE
  1

  9
$STYLESHEET
  1

  9
$XEDIT
290
     1
  9
$CEPSNTYPE
380
     0
  9
$PSTYLEMODE
290
     1
  9
$FINGERPRINTGUID
  2
{FD5F2661-D49C-48ED-870C-34B4C33EDE3F}
  9
$VERSIONGUID
  2
{FAEB1C32-E019-11D5-929B-00C0DF256EC4}
  9
$EXTNAMES
290
     1
  9
$PSVPSCALE
 40
0.0
  9
$OLESTARTUP
290
     0
  9
$SORTENTS
280
   127
  9
$INDEXCTL
280
     0
  9
$HIDETEXT
280
     1
  9
$XCLIPFRAME
290
     0
  9
$HALOGAP
280
     0
  9
$OBSCOLOR
 70
   257
  9
$OBSLTYPE
280
     0
  9
$INTERSECTIONDISPLAY
280
     0
  9
$INTERSECTIONCOLOR
 70
   257
  9
$DIMASSOC
280
     2
  9
$PROJECTNAME
  1

  0
ENDSEC
  0
SECTION
  2
CLASSES
  0
CLASS
  1
ACDBDICTIONARYWDFLT
  2
AcDbDictionaryWithDefault
  3
ObjectDBX Classes
 90
        0
 91
        4
280
     0
281
     0
  0
CLASS
  1
VISUALSTYLE
  2
AcDbVisualStyle
  3
ObjectDBX Classes
 90
     4095
 91
        4
280
     0
281
     0
  0
CLASS
  1
MATERIAL
  2
AcDbMaterial
  3
ObjectDBX Classes
 90
     1153
 91
        4
280
     0
281
     0
  0
CLASS
  1
SUN
  2
AcDbSun
  3
SCENEOE
 90
     1024
 91
        4
280
     0
281
     0
  0
ENDSEC
  0
SECTION
  2
TABLES
  0
TABLE
  2
VPORT
  5
8
330
0
100
AcDbSymbolTable
 70
     1
  0
VPORT
  5
29
330
8
100
AcDbSymbolTableRecord
100
AcDbViewportTableRecord
  2
*Active
 70
     0
 10
0.0
 20
0.0
 11
1.0
 21
1.0
 12
344.1869158878504
 22
148.5
 13
0.0
 23
0.0
 14
10.0
 24
10.0
 15
10.0
 25
10.0
 16
0.0
 26
0.0
 36
1.0
 17
0.0
 27
0.0
 37
0.0
 40
297.0
 41
1.972972972850329
 42
50.0
 43
0.0
 44
0.0
 50
0.0
 51
0.0
 71
     0
 72
   100
 73
     1
 74
     3
 75
     0
 76
     0
 77
     0
 78
     0
281
     0
 65
     1
110
0.0
120
0.0
130
0.0
111
1.0
121
0.0
131
0.0
112
0.0
122
1.0
132
0.0
 79
     0
146
0.0
  0
ENDTAB
  0
TABLE
  2
LTYPE
  5
5
330
0
100
AcDbSymbolTable
 70
     5
  0
LTYPE
  5
14
330
5
100
AcDbSymbolTableRecord
100
AcDbLinetypeTableRecord
  2
ByBlock
 70
     0
  3

 72
    65
 73
     0
 40
0.0
  0
LTYPE
  5
15
330
5
100
AcDbSymbolTableRecord
100
AcDbLinetypeTableRecord
  2
ByLayer
 70
     0
  3

 72
    65
 73
     0
 40
0.0
  0
LTYPE
  5
16
330
5
100
AcDbSymbolTableRecord
100
AcDbLinetypeTableRecord
  2
Continuous
 70
     0
  3
Solid line
 72
    65
 73
     0
 40
0.0
  0
LTYPE
  5
40
330
5
100
AcDbSymbolTableRecord
100
AcDbLinetypeTableRecord
  2
CONTINOUS
 70
     0
  3
______________________________
 72
    65
 73
     0
 40
0.0
  0
LTYPE
  5
41
330
5
100
AcDbSymbolTableRecord
100
AcDbLinetypeTableRecord
  2
DASHED
 70
     0
  3
__ __ __ __ __ __ __ __ __ __ __ __ __ __ __ __
 72
    65
 73
     2
 40
4.5
 49
3.0
 74
     0
 49
-1.5
 74
     0
  0
LTYPE
  5
42
330
5
100
AcDbSymbolTableRecord
100
AcDbLinetypeTableRecord
  2
PHANTOM
 70
     0
  3
______  __  __  ______  __  __  _____
 72
    65
 73
     6
 40
15.0
 49
7.5
 74
     0
 49
-1.5
 74
     0
 49
1.5
 74
     0
 49
-1.5
 74
     0
 49
1.5
 74
     0
 49
-1.5
 74
     0
  0
LTYPE
  5
43
330
5
100
AcDbSymbolTableRecord
100
AcDbLinetypeTableRecord
  2
CENTER
 70
     0
  3
____ _ ____ _ ____ _ ____ _ ____ _ ____
 72
    65
 73
     4
 40
12.0
 49
7.5
 74
     0
 49
-1.5
 74
     0
 49
1.5
 74
     0
 49
-1.5
 74
     0
  0
ENDTAB
  0
TABLE
  2
LAYER
  5
2
330
0
100
AcDbSymbolTable
 70
     4
  0
LAYER
  5
10
330
2
100
AcDbSymbolTableRecord
100
AcDbLayerTableRecord
  2
0
 70
     0
 62
     7
  6
Continuous
370
    -3
390
F
  0
LAYER
  5
44
330
2
100
AcDbSymbolTableRecord
100
AcDbLayerTableRecord
  2
VIEW0001
 70
     0
 62
     7
  6
Continuous
370
    -3
390
F
  0
LAYER
  5
5C
330
2
100
AcDbSymbolTableRecord
100
AcDbLayerTableRecord
  2
VIEW0002
 70
     0
 62
     7
  6
Continuous
370
    -3
390
F
  0
LAYER
  5
2FC
330
2
100
AcDbSymbolTableRecord
100
AcDbLayerTableRecord
  2
Defpoints
 70
     0
 62
     7
  6
Continuous
290
     0
370
    -3
390
F
  0
ENDTAB
  0
TABLE
  2
STYLE
  5
3
330
0
100
AcDbSymbolTable
 70
     1
  0
STYLE
  5
11
330
3
100
AcDbSymbolTableRecord
100
AcDbTextStyleTableRecord
  2
Standard
 70
     0
 40
0.0
 41
1.0
 50
0.0
 71
     0
 42
2.5
  3
ROMANS
  4
BIGFONT
  0
ENDTAB
  0
TABLE
  2
VIEW
  5
6
330
0
100
AcDbSymbolTable
 70
     0
  0
ENDTAB
  0
TABLE
  2
UCS
  5
7
330
0
100
AcDbSymbolTable
 70
     0
  0
ENDTAB
  0
TABLE
  2
APPID
  5
9
330
0
100
AcDbSymbolTable
 70
     1
  0
APPID
  5
12
330
9
100
AcDbSymbolTableRecord
100
AcDbRegAppTableRecord
  2
ACAD
 70
     0
  0
ENDTAB
  0
TABLE
  2
DIMSTYLE
  5
A
330
0
100
AcDbSymbolTable
 70
     1
100
AcDbDimStyleTable
  0
DIMSTYLE
105
27
102
{ACAD_REACTORS
330
2F5
330
309
330
316
330
32A
330
337
330
344
330
350
330
35B
330
368
330
375
330
382
330
38F
330
39C
330
3A9
330
3B6
102
}
330
A
100
AcDbSymbolTableRecord
100
AcDbDimStyleTableRecord
  2
ISO-25
 70
     0
 41
2.5
 42
0.625
 43
3.75
 44
1.25
 73
     0
 74
     0
 77
     1
 78
     8
140
2.5
141
2.5
143
0.03937007874016
147
0.625
171
     3
172
     1
178
     0
271
     2
272
     2
274
     3
278
    44
283
     0
284
     8
340
11
  0
ENDTAB
  0
TABLE
  2
BLOCK_RECORD
  5
1
330
0
100
AcDbSymbolTable
 70
    17
  0
BLOCK_RECORD
  5
1F
330
1
100
AcDbSymbolTableRecord
100
AcDbBlockTableRecord
  2
*Model_Space
340
22
  0
BLOCK_RECORD
  5
1B
330
1
100
AcDbSymbolTableRecord
100
AcDbBlockTableRecord
  2
*Paper_Space
340
1E
  0
BLOCK_RECORD
  5
23
330
1
100
AcDbSymbolTableRecord
100
AcDbBlockTableRecord
  2
*Paper_Space0
340
26
  0
BLOCK_RECORD
  5
2F6
330
1
100
AcDbSymbolTableRecord
100
AcDbBlockTableRecord
  2
_OPEN30
340
0
102
{BLKREFS
331
304
331
303
331
311
331
310
331
0
331
0
331
332
331
331
331
33F
331
33E
331
34B
331
34A
331
356
331
355
331
363
331
362
331
370
331
36F
331
37D
331
37C
331
38A
331
389
331
397
331
396
331
3A4
331
3A3
331
3B1
331
3B0
331
3C0
331
3BF
102
}
  0
BLOCK_RECORD
  5
2FD
330
1
100
AcDbSymbolTableRecord
100
AcDbBlockTableRecord
  2
*D2
340
0
  0
BLOCK_RECORD
  5
30A
330
1
100
AcDbSymbolTableRecord
100
AcDbBlockTableRecord
  2
*D3
340
0
  0
BLOCK_RECORD
  5
317
330
1
100
AcDbSymbolTableRecord
100
AcDbBlockTableRecord
  2
*D4
340
0
  0
BLOCK_RECORD
  5
32B
330
1
100
AcDbSymbolTableRecord
100
AcDbBlockTableRecord
  2
*D5
340
0
  0
BLOCK_RECORD
  5
338
330
1
100
AcDbSymbolTableRecord
100
AcDbBlockTableRecord
  2
*D6
340
0
  0
BLOCK_RECORD
  5
345
330
1
100
AcDbSymbolTableRecord
100
AcDbBlockTableRecord
  2
*D7
340
0
  0
BLOCK_RECORD
  5
351
330
1
100
AcDbSymbolTableRecord
100
AcDbBlockTableRecord
  2
*D8
340
0
  0
BLOCK_RECORD
  5
35C
330
1
100
AcDbSymbolTableRecord
100
AcDbBlockTableRecord
  2
*D9
340
0
  0
BLOCK_RECORD
  5
369
330
1
100
AcDbSymbolTableRecord
100
AcDbBlockTableRecord
  2
*D10
340
0
  0
BLOCK_RECORD
  5
376
330
1
100
AcDbSymbolTableRecord
100
AcDbBlockTableRecord
  2
*D11
340
0
  0
BLOCK_RECORD
  5
383
330
1
100
AcDbSymbolTableRecord
100
AcDbBlockTableRecord
  2
*D12
340
0
  0
BLOCK_RECORD
  5
390
330
1
100
AcDbSymbolTableRecord
100
AcDbBlockTableRecord
  2
*D13
340
0
  0
BLOCK_RECORD
  5
39D
330
1
100
AcDbSymbolTableRecord
100
AcDbBlockTableRecord
  2
*D14
340
0
  0
BLOCK_RECORD
  5
3AA
330
1
100
AcDbSymbolTableRecord
100
AcDbBlockTableRecord
  2
*D15
340
0
  0
BLOCK_RECORD
  5
3B7
330
1
100
AcDbSymbolTableRecord
100
AcDbBlockTableRecord
  2
*D16
340
0
  0
ENDTAB
  0
ENDSEC
  0
SECTION
  2
BLOCKS
  0
BLOCK
  5
20
330
1F
100
AcDbEntity
  8
0
100
AcDbBlockBegin
  2
*Model_Space
 70
     0
 10
0.0
 20
0.0
 30
0.0
  3
*Model_Space
  1

  0
ENDBLK
  5
21
330
1F
100
AcDbEntity
  8
0
100
AcDbBlockEnd
  0
BLOCK
  5
1C
330
1B
100
AcDbEntity
 67
     1
  8
0
100
AcDbBlockBegin
  2
*Paper_Space
 70
     0
 10
0.0
 20
0.0
 30
0.0
  3
*Paper_Space
  1

  0
ENDBLK
  5
1D
330
1B
100
AcDbEntity
 67
     1
  8
0
100
AcDbBlockEnd
  0
BLOCK
  5
24
330
23
100
AcDbEntity
  8
0
100
AcDbBlockBegin
  2
*Paper_Space0
 70
     0
 10
0.0
 20
0.0
 30
0.0
  3
*Paper_Space0
  1

  0
ENDBLK
  5
25
330
23
100
AcDbEntity
  8
0
100
AcDbBlockEnd
  0
BLOCK
  5
2F7
330
2F6
100
AcDbEntity
  8
0
100
AcDbBlockBegin
  2
_OPEN30
 70
     0
 10
0.0
 20
0.0
 30
0.0
  3
_OPEN30
  1

  0
LINE
  5
2F9
330
2F6
100
AcDbEntity
  8
0
  6
ByBlock
 62
     0
370
    -2
100
AcDbLine
 10
-1.0
 20
0.267949
 30
0.0
 11
0.0
 21
0.0
 31
0.0
  0
LINE
  5
2FA
330
2F6
100
AcDbEntity
  8
0
  6
ByBlock
 62
     0
370
    -2
100
AcDbLine
 10
0.0
 20
0.0
 30
0.0
 11
-1.0
 21
-0.267949
 31
0.0
  0
LINE
  5
2FB
330
2F6
100
AcDbEntity
  8
0
  6
ByBlock
 62
     0
370
    -2
100
AcDbLine
 10
0.0
 20
0.0
 30
0.0
 11
-1.0
 21
0.0
 31
0.0
  0
ENDBLK
  5
2F8
330
2F6
100
AcDbEntity
  8
0
100
AcDbBlockEnd
  0
BLOCK
  5
2FE
330
2FD
100
AcDbEntity
  8
0
100
AcDbBlockBegin
  2
*D2
 70
     1
 10
0.0
 20
0.0
 30
0.0
  3
*D2
  1

  0
LINE
  5
300
330
2FD
100
AcDbEntity
  8
0
 62
     0
370
    -2
100
AcDbLine
 10
-62.56327438354492
 20
-6.14231201171875
 30
0.0
 11
-62.56327438354492
 21
2.31758832931519
 31
0.0
  0
LINE
  5
301
330
2FD
100
AcDbEntity
  8
0
 62
     0
370
    -2
100
AcDbLine
 10
0.436095178127289
 20
-6.14231201171875
 30
0.0
 11
0.436095178127289
 21
2.317588329315182
 31
0.0
  0
LINE
  5
302
330
2FD
100
AcDbEntity
  8
0
 62
     0
370
    -2
100
AcDbLine
 10
-59.56327438354492
 20
1.3175882101059
 30
0.0
 11
-2.563904821872711
 21
1.317588210105893
 31
0.0
  0
INSERT
  5
303
330
2FD
100
AcDbEntity
  8
0
 62
     0
370
    -2
100
AcDbBlockReference
  2
_OPEN30
 10
-62.56327438354492
 20
1.3175882101059
 30
0.0
 41
3.0
 42
3.0
 43
3.0
 50
180.0
  0
INSERT
  5
304
330
2FD
100
AcDbEntity
  8
0
 62
     0
370
    -2
100
AcDbBlockReference
  2
_OPEN30
 10
0.436095178127289
 20
1.317588210105892
 30
0.0
 41
3.0
 42
3.0
 43
3.0
 50
360.0
  0
MTEXT
  5
305
330
2FD
100
AcDbEntity
  8
0
 62
     1
100
AcDbMText
 10
-31.06258909606933
 20
3.73198824608326
 30
0.0
 40
3.200000047683716
 41
0.0
 71
     5
 72
     1
  1
189
 73
     1
 44
1.0
  0
POINT
  5
306
330
2FD
100
AcDbEntity
  8
Defpoints
 62
     0
100
AcDbPoint
 10
-62.56327438354492
 20
-8.68231201171875
 30
0.0
  0
POINT
  5
307
330
2FD
100
AcDbEntity
  8
Defpoints
 62
     0
100
AcDbPoint
 10
0.436095178127289
 20
-8.68231201171875
 30
0.0
  0
POINT
  5
308
330
2FD
100
AcDbEntity
  8
Defpoints
 62
     0
100
AcDbPoint
 10
0.43609517812729
 20
1.317588210105896
 30
0.0
  0
ENDBLK
  5
2FF
330
2FD
100
AcDbEntity
  8
0
100
AcDbBlockEnd
  0
BLOCK
  5
30B
330
30A
100
AcDbEntity
  8
0
100
AcDbBlockBegin
  2
*D3
 70
     1
 10
0.0
 20
0.0
 30
0.0
  3
*D3
  1

  0
LINE
  5
30D
330
30A
100
AcDbEntity
  8
0
 62
     0
370
    -2
100
AcDbLine
 10
42.43567276000977
 20
-50.32192138671875
 30
0.0
 11
42.43567276000977
 21
-58.78082220458984
 31
0.0
  0
LINE
  5
30E
330
30A
100
AcDbEntity
  8
0
 62
     0
370
    -2
100
AcDbLine
 10
73.10204315185547
 20
-50.32192138671875
 30
0.0
 11
73.10204315185548
 21
-58.78082220458985
 31
0.0
  0
LINE
  5
30F
330
30A
100
AcDbEntity
  8
0
 62
     0
370
    -2
100
AcDbLine
 10
45.43567276000977
 20
-57.78082220458984
 30
0.0
 11
70.10204315185548
 21
-57.78082220458985
 31
0.0
  0
INSERT
  5
310
330
30A
100
AcDbEntity
  8
0
 62
     0
370
    -2
100
AcDbBlockReference
  2
_OPEN30
 10
42.43567276000977
 20
-57.78082220458984
 30
0.0
 41
3.0
 42
3.0
 43
3.0
 50
180.0
  0
INSERT
  5
311
330
30A
100
AcDbEntity
  8
0
 62
     0
370
    -2
100
AcDbBlockReference
  2
_OPEN30
 10
73.10204315185548
 20
-57.78082220458985
 30
0.0
 41
3.0
 42
3.0
 43
3.0
 50
360.0
  0
MTEXT
  5
312
330
30A
100
AcDbEntity
  8
0
 62
     1
100
AcDbMText
 10
57.76985604858398
 20
-55.36642216861248
 30
0.0
 40
3.200000047683716
 41
0.0
 71
     5
 72
     1
  1
92
 73
     1
 44
1.0
  0
POINT
  5
313
330
30A
100
AcDbEntity
  8
Defpoints
 62
     0
100
AcDbPoint
 10
42.43567276000977
 20
-47.78192138671875
 30
0.0
  0
POINT
  5
314
330
30A
100
AcDbEntity
  8
Defpoints
 62
     0
100
AcDbPoint
 10
73.10204315185547
 20
-47.78192138671875
 30
0.0
  0
POINT
  5
315
330
30A
100
AcDbEntity
  8
Defpoints
 62
     0
100
AcDbPoint
 10
73.10204315185547
 20
-57.78182220458984
 30
0.0
  0
ENDBLK
  5
30C
330
30A
100
AcDbEntity
  8
0
100
AcDbBlockEnd
  0
BLOCK
  5
318
330
317
100
AcDbEntity
  8
0
100
AcDbBlockBegin
  2
*D4
 70
     1
 10
0.0
 20
0.0
 30
0.0
  3
*D4
  1

  0
MTEXT
  5
320
330
317
100
AcDbEntity
  8
0
 62
     1
100
AcDbMText
 10
65.65525607669353
 20
-62.03302525699138
 30
0.0
 40
3.200000047683716
 41
0.0
 71
     5
 72
     1
  1
5
 73
     1
 44
1.0
  0
POINT
  5
321
330
317
100
AcDbEntity
  8
Defpoints
 62
     0
100
AcDbPoint
 10
56.10220336914062
 20
-63.59124755859375
 30
0.0
  0
POINT
  5
322
330
317
100
AcDbEntity
  8
Defpoints
 62
     0
100
AcDbPoint
 10
57.76885604858398
 20
-66.9911880493164
 30
0.0
  0
POINT
  5
323
330
317
100
AcDbEntity
  8
Defpoints
 62
     0
100
AcDbPoint
 10
57.76885604858398
 20
-64.44842529296875
 30
0.0
  0
LINE
  5
324
330
317
100
AcDbEntity
  8
0
  6
Continuous
 62
     7
100
AcDbLine
 10
49.75220336914062
 20
-64.44842529296875
 30
0.0
 11
64.11885604858398
 21
-64.44842529296875
 31
0.0
  0
LINE
  5
325
330
317
100
AcDbEntity
  8
0
  6
Continuous
 62
     7
100
AcDbLine
 10
56.10220336914062
 20
-64.44842529296875
 30
0.0
 11
53.047677707135
 21
-65.26688297726875
 31
0.0
  0
LINE
  5
326
330
317
100
AcDbEntity
  8
0
  6
Continuous
 62
     7
100
AcDbLine
 10
56.10220336914062
 20
-64.44842529296875
 30
0.0
 11
53.047677707135
 21
-63.62996760866875
 31
0.0
  0
LINE
  5
327
330
317
100
AcDbEntity
  8
0
  6
Continuous
 62
     7
100
AcDbLine
 10
57.76885604858398
 20
-64.44842529296875
 30
0.0
 11
60.82338171058961
 21
-63.62996760866875
 31
0.0
  0
LINE
  5
328
330
317
100
AcDbEntity
  8
0
  6
Continuous
 62
     7
100
AcDbLine
 10
57.76885604858398
 20
-64.44842529296875
 30
0.0
 11
60.82338171058961
 21
-65.26688297726875
 31
0.0
  0
LINE
  5
329
330
317
100
AcDbEntity
  8
0
  6
Continuous
 62
     7
100
AcDbLine
 10
57.76885604858398
 20
-64.44842529296875
 30
0.0
 11
63.64474487304688
 21
-64.44842529296875
 31
0.0
  0
ENDBLK
  5
319
330
317
100
AcDbEntity
  8
0
100
AcDbBlockEnd
  0
BLOCK
  5
32C
330
32B
100
AcDbEntity
  8
0
100
AcDbBlockBegin
  2
*D5
 70
     1
 10
0.0
 20
0.0
 30
0.0
  3
*D5
  1

  0
LINE
  5
32E
330
32B
100
AcDbEntity
  8
0
 62
     0
370
    -2
100
AcDbLine
 10
81.30864624023438
 20
-25.44881248474121
 30
0.0
 11
90.10287530517579
 21
-25.4488124847412
 31
0.0
  0
LINE
  5
32F
330
32B
100
AcDbEntity
  8
0
 62
     0
370
    -2
100
AcDbLine
 10
75.64204315185548
 20
-47.78192138671875
 30
0.0
 11
90.1028753051758
 21
-47.78192138671874
 31
0.0
  0
LINE
  5
330
330
32B
100
AcDbEntity
  8
0
 62
     0
370
    -2
100
AcDbLine
 10
89.10287530517579
 20
-28.4488124847412
 30
0.0
 11
89.1028753051758
 21
-44.78192138671874
 31
0.0
  0
INSERT
  5
331
330
32B
100
AcDbEntity
  8
0
 62
     0
370
    -2
100
AcDbBlockReference
  2
_OPEN30
 10
89.10287530517579
 20
-25.4488124847412
 30
0.0
 41
3.0
 42
3.0
 43
3.0
 50
90.00000000000004
  0
INSERT
  5
332
330
32B
100
AcDbEntity
  8
0
 62
     0
370
    -2
100
AcDbBlockReference
  2
_OPEN30
 10
89.1028753051758
 20
-47.78192138671874
 30
0.0
 41
3.0
 42
3.0
 43
3.0
 50
270.0000000000001
  0
MTEXT
  5
333
330
32B
100
AcDbEntity
  8
0
 62
     1
100
AcDbMText
 10
86.68847526919842
 20
-36.6143678894043
 30
0.0
 40
3.200000047683716
 41
0.0
 71
     5
 72
     1
  1
67
 11
-6.363133219640401E-16
 21
1.0
 31
0.0
 73
     1
 44
1.0
  0
POINT
  5
334
330
32B
100
AcDbEntity
  8
Defpoints
 62
     0
100
AcDbPoint
 10
78.76864624023438
 20
-25.44881248474121
 30
0.0
  0
POINT
  5
335
330
32B
100
AcDbEntity
  8
Defpoints
 62
     0
100
AcDbPoint
 10
73.10204315185547
 20
-47.78192138671875
 30
0.0
  0
POINT
  5
336
330
32B
100
AcDbEntity
  8
Defpoints
 62
     0
100
AcDbPoint
 10
89.10187530517578
 20
-47.78192138671874
 30
0.0
  0
ENDBLK
  5
32D
330
32B
100
AcDbEntity
  8
0
100
AcDbBlockEnd
  0
BLOCK
  5
339
330
338
100
AcDbEntity
  8
0
100
AcDbBlockBegin
  2
*D6
 70
     1
 10
0.0
 20
0.0
 30
0.0
  3
*D6
  1

  0
LINE
  5
33B
330
338
100
AcDbEntity
  8
0
 62
     0
370
    -2
100
AcDbLine
 10
17.36720558166504
 20
-19.3488712310791
 30
0.0
 11
6.104694988250728
 21
-19.34887123107911
 31
0.0
  0
LINE
  5
33C
330
338
100
AcDbEntity
  8
0
 62
     0
370
    -2
100
AcDbLine
 10
39.89567276000977
 20
-47.78192138671875
 30
0.0
 11
6.104694988250738
 21
-47.78192138671876
 31
0.0
  0
LINE
  5
33D
330
338
100
AcDbEntity
  8
0
 62
     0
370
    -2
100
AcDbLine
 10
7.104694988250729
 20
-22.34887123107911
 30
0.0
 11
7.104694988250738
 21
-44.78192138671876
 31
0.0
  0
INSERT
  5
33E
330
338
100
AcDbEntity
  8
0
 62
     0
370
    -2
100
AcDbBlockReference
  2
_OPEN30
 10
7.104694988250728
 20
-19.34887123107911
 30
0.0
 41
3.0
 42
3.0
 43
3.0
 50
90.00000000000001
  0
INSERT
  5
33F
330
338
100
AcDbEntity
  8
0
 62
     0
370
    -2
100
AcDbBlockReference
  2
_OPEN30
 10
7.104694988250738
 20
-47.78192138671876
 30
0.0
 41
3.0
 42
3.0
 43
3.0
 50
270.0
  0
MTEXT
  5
340
330
338
100
AcDbEntity
  8
0
 62
     1
100
AcDbMText
 10
4.690294952273369
 20
-33.56439535522461
 30
0.0
 40
3.200000047683716
 41
0.0
 71
     5
 72
     1
  1
85
 11
-3.748504285702699E-16
 21
1.0
 31
0.0
 73
     1
 44
1.0
  0
POINT
  5
341
330
338
100
AcDbEntity
  8
Defpoints
 62
     0
100
AcDbPoint
 10
19.90720558166504
 20
-19.3488712310791
 30
0.0
  0
POINT
  5
342
330
338
100
AcDbEntity
  8
Defpoints
 62
     0
100
AcDbPoint
 10
42.43567276000977
 20
-47.78192138671875
 30
0.0
  0
POINT
  5
343
330
338
100
AcDbEntity
  8
Defpoints
 62
     0
100
AcDbPoint
 10
7.102694988250732
 20
-47.78192138671876
 30
0.0
  0
ENDBLK
  5
33A
330
338
100
AcDbEntity
  8
0
100
AcDbBlockEnd
  0
BLOCK
  5
346
330
345
100
AcDbEntity
  8
0
100
AcDbBlockBegin
  2
*D7
 70
     1
 10
0.0
 20
0.0
 30
0.0
  3
*D7
  1

  0
LINE
  5
348
330
345
100
AcDbEntity
  8
0
 62
     0
370
    -2
100
AcDbLine
 10
57.76885604858398
 20
-31.8961686706543
 30
0.0
 11
57.76885604858398
 21
2.317588329315183
 31
0.0
  0
LINE
  5
349
330
345
100
AcDbEntity
  8
0
 62
     0
370
    -2
100
AcDbLine
 10
20.10259437561035
 20
1.317588210105898
 30
0.0
 11
54.76885604858398
 21
1.317588210105894
 31
0.0
  0
INSERT
  5
34A
330
345
100
AcDbEntity
  8
0
 62
     0
370
    -2
100
AcDbBlockReference
  2
_OPEN30
 10
17.10259437561035
 20
1.317588210105898
 30
0.0
 41
3.0
 42
3.0
 43
3.0
 50
180.0
  0
INSERT
  5
34B
330
345
100
AcDbEntity
  8
0
 62
     0
370
    -2
100
AcDbBlockReference
  2
_OPEN30
 10
57.76885604858398
 20
1.317588210105894
 30
0.0
 41
3.0
 42
3.0
 43
3.0
 50
360.0
  0
MTEXT
  5
34C
330
345
100
AcDbEntity
  8
0
 62
     1
100
AcDbMText
 10
37.43672616577148
 20
3.73198824608326
 30
0.0
 40
3.200000047683716
 41
0.0
 71
     5
 72
     1
  1
122
 73
     1
 44
1.0
  0
POINT
  5
34D
330
345
100
AcDbEntity
  8
Defpoints
 62
     0
100
AcDbPoint
 10
17.10259437561035
 20
-8.68231201171875
 30
0.0
  0
POINT
  5
34E
330
345
100
AcDbEntity
  8
Defpoints
 62
     0
100
AcDbPoint
 10
57.76885604858398
 20
-34.4361686706543
 30
0.0
  0
POINT
  5
34F
330
345
100
AcDbEntity
  8
Defpoints
 62
     0
100
AcDbPoint
 10
57.76885604858399
 20
1.317588210105896
 30
0.0
  0
ENDBLK
  5
347
330
345
100
AcDbEntity
  8
0
100
AcDbBlockEnd
  0
BLOCK
  5
352
330
351
100
AcDbEntity
  8
0
100
AcDbBlockBegin
  2
*D8
 70
     1
 10
0.0
 20
0.0
 30
0.0
  3
*D8
  1

  0
LINE
  5
354
330
351
100
AcDbEntity
  8
0
 62
     0
370
    -2
100
AcDbLine
 10
60.76885604858399
 20
1.317588210105897
 30
0.0
 11
76.10197448730469
 21
1.317588210105895
 31
0.0
  0
INSERT
  5
355
330
351
100
AcDbEntity
  8
0
 62
     0
370
    -2
100
AcDbBlockReference
  2
_OPEN30
 10
57.76885604858399
 20
1.317588210105897
 30
0.0
 41
3.0
 42
3.0
 43
3.0
 50
180.0
  0
INSERT
  5
356
330
351
100
AcDbEntity
  8
0
 62
     0
370
    -2
100
AcDbBlockReference
  2
_OPEN30
 10
79.10197448730469
 20
1.317588210105895
 30
0.0
 41
3.0
 42
3.0
 43
3.0
 50
360.0
  0
MTEXT
  5
357
330
351
100
AcDbEntity
  8
0
 62
     1
100
AcDbMText
 10
68.43641717529297
 20
3.73198824608326
 30
0.0
 40
3.200000047683716
 41
0.0
 71
     5
 72
     1
  1
64
 73
     1
 44
1.0
  0
POINT
  5
358
330
351
100
AcDbEntity
  8
Defpoints
 62
     0
100
AcDbPoint
 10
57.76885604858398
 20
-34.4361686706543
 30
0.0
  0
POINT
  5
359
330
351
100
AcDbEntity
  8
Defpoints
 62
     0
100
AcDbPoint
 10
79.10197448730469
 20
-20.78219223022461
 30
0.0
  0
POINT
  5
35A
330
351
100
AcDbEntity
  8
Defpoints
 62
     0
100
AcDbPoint
 10
79.10197448730469
 20
1.317588210105896
 30
0.0
  0
ENDBLK
  5
353
330
351
100
AcDbEntity
  8
0
100
AcDbBlockEnd
  0
BLOCK
  5
35D
330
35C
100
AcDbEntity
  8
0
100
AcDbBlockBegin
  2
*D9
 70
     1
 10
0.0
 20
0.0
 30
0.0
  3
*D9
  1

  0
LINE
  5
35F
330
35C
100
AcDbEntity
  8
0
 62
     0
370
    -2
100
AcDbLine
 10
79.10197448730469
 20
-18.24219223022461
 30
0.0
 11
79.10197448730469
 21
12.31748867034912
 31
0.0
  0
LINE
  5
360
330
35C
100
AcDbEntity
  8
0
 62
     0
370
    -2
100
AcDbLine
 10
17.10259437561035
 20
-6.14231201171875
 30
0.0
 11
17.10259437561035
 21
12.31748867034912
 31
0.0
  0
LINE
  5
361
330
35C
100
AcDbEntity
  8
0
 62
     0
370
    -2
100
AcDbLine
 10
76.10197448730469
 20
11.31748867034912
 30
0.0
 11
20.10259437561035
 21
11.31748867034912
 31
0.0
  0
INSERT
  5
362
330
35C
100
AcDbEntity
  8
0
 62
     0
370
    -2
100
AcDbBlockReference
  2
_OPEN30
 10
79.10197448730469
 20
11.31748867034912
 30
0.0
 41
3.0
 42
3.0
 43
3.0
  0
INSERT
  5
363
330
35C
100
AcDbEntity
  8
0
 62
     0
370
    -2
100
AcDbBlockReference
  2
_OPEN30
 10
17.10259437561035
 20
11.31748867034912
 30
0.0
 41
3.0
 42
3.0
 43
3.0
 50
180.0
  0
MTEXT
  5
364
330
35C
100
AcDbEntity
  8
0
 62
     1
100
AcDbMText
 10
48.10428729248046
 20
13.73188870632648
 30
0.0
 40
3.200000047683716
 41
0.0
 71
     5
 72
     1
  1
186
 73
     1
 44
1.0
  0
POINT
  5
365
330
35C
100
AcDbEntity
  8
Defpoints
 62
     0
100
AcDbPoint
 10
79.10197448730469
 20
-20.78219223022461
 30
0.0
  0
POINT
  5
366
330
35C
100
AcDbEntity
  8
Defpoints
 62
     0
100
AcDbPoint
 10
17.10259437561035
 20
-8.68231201171875
 30
0.0
  0
POINT
  5
367
330
35C
100
AcDbEntity
  8
Defpoints
 62
     0
100
AcDbPoint
 10
17.10259437561035
 20
11.31748867034912
 30
0.0
  0
ENDBLK
  5
35E
330
35C
100
AcDbEntity
  8
0
100
AcDbBlockEnd
  0
BLOCK
  5
36A
330
369
100
AcDbEntity
  8
0
100
AcDbBlockBegin
  2
*D10
 70
     1
 10
0.0
 20
0.0
 30
0.0
  3
*D10
  1

  0
LINE
  5
36C
330
369
100
AcDbEntity
  8
0
 62
     0
370
    -2
100
AcDbLine
 10
-43.3201513671875
 20
-84.014892578125
 30
0.0
 11
-73.56217138671876
 21
-84.014892578125
 31
0.0
  0
LINE
  5
36D
330
369
100
AcDbEntity
  8
0
 62
     0
370
    -2
100
AcDbLine
 10
-65.10327056884766
 20
-8.68231201171875
 30
0.0
 11
-73.56217138671875
 21
-8.68231201171875
 31
0.0
  0
LINE
  5
36E
330
369
100
AcDbEntity
  8
0
 62
     0
370
    -2
100
AcDbLine
 10
-72.56217138671876
 20
-81.014892578125
 30
0.0
 11
-72.56217138671875
 21
-11.68231201171875
 31
0.0
  0
INSERT
  5
36F
330
369
100
AcDbEntity
  8
0
 62
     0
370
    -2
100
AcDbBlockReference
  2
_OPEN30
 10
-72.56217138671876
 20
-84.014892578125
 30
0.0
 41
3.0
 42
3.0
 43
3.0
 50
270.0
  0
INSERT
  5
370
330
369
100
AcDbEntity
  8
0
 62
     0
370
    -2
100
AcDbBlockReference
  2
_OPEN30
 10
-72.56217138671875
 20
-8.68231201171875
 30
0.0
 41
3.0
 42
3.0
 43
3.0
 50
89.99999999999999
  0
MTEXT
  5
371
330
369
100
AcDbEntity
  8
0
 62
     1
100
AcDbMText
 10
-74.97657142269611
 20
-46.34760229492188
 30
0.0
 40
3.200000047683716
 41
0.0
 71
     5
 72
     1
  1
226
 11
1.886415493582491E-16
 21
1.0
 31
0.0
 73
     1
 44
1.0
  0
POINT
  5
372
330
369
100
AcDbEntity
  8
Defpoints
 62
     0
100
AcDbPoint
 10
-40.7801513671875
 20
-84.014892578125
 30
0.0
  0
POINT
  5
373
330
369
100
AcDbEntity
  8
Defpoints
 62
     0
100
AcDbPoint
 10
-62.56327056884766
 20
-8.68231201171875
 30
0.0
  0
POINT
  5
374
330
369
100
AcDbEntity
  8
Defpoints
 62
     0
100
AcDbPoint
 10
-72.56317138671875
 20
-8.682312011718746
 30
0.0
  0
ENDBLK
  5
36B
330
369
100
AcDbEntity
  8
0
100
AcDbBlockEnd
  0
BLOCK
  5
377
330
376
100
AcDbEntity
  8
0
100
AcDbBlockBegin
  2
*D11
 70
     1
 10
0.0
 20
0.0
 30
0.0
  3
*D11
  1

  0
LINE
  5
379
330
376
100
AcDbEntity
  8
0
 62
     0
370
    -2
100
AcDbLine
 10
-62.56327056884766
 20
36.41709609985352
 30
0.0
 11
-62.56327056884766
 21
22.72012574768067
 31
0.0
  0
LINE
  5
37A
330
376
100
AcDbEntity
  8
0
 62
     0
370
    -2
100
AcDbLine
 10
0.436097800731659
 20
36.41709609985352
 30
0.0
 11
0.436097800731659
 21
22.72012574768066
 31
0.0
  0
LINE
  5
37B
330
376
100
AcDbEntity
  8
0
 62
     0
370
    -2
100
AcDbLine
 10
-59.56327056884766
 20
23.72012574768067
 30
0.0
 11
-2.563902199268341
 21
23.72012574768066
 31
0.0
  0
INSERT
  5
37C
330
376
100
AcDbEntity
  8
0
 62
     0
370
    -2
100
AcDbBlockReference
  2
_OPEN30
 10
-62.56327056884766
 20
23.72012574768067
 30
0.0
 41
3.0
 42
3.0
 43
3.0
 50
180.0
  0
INSERT
  5
37D
330
376
100
AcDbEntity
  8
0
 62
     0
370
    -2
100
AcDbBlockReference
  2
_OPEN30
 10
0.436097800731659
 20
23.72012574768066
 30
0.0
 41
3.0
 42
3.0
 43
3.0
 50
360.0
  0
MTEXT
  5
37E
330
376
100
AcDbEntity
  8
0
 62
     1
100
AcDbMText
 10
-31.0625871887207
 20
26.13452578365803
 30
0.0
 40
3.200000047683716
 41
0.0
 71
     5
 72
     1
  1
189
 73
     1
 44
1.0
  0
POINT
  5
37F
330
376
100
AcDbEntity
  8
Defpoints
 62
     0
100
AcDbPoint
 10
-62.56327056884766
 20
38.95709609985352
 30
0.0
  0
POINT
  5
380
330
376
100
AcDbEntity
  8
Defpoints
 62
     0
100
AcDbPoint
 10
0.436097800731659
 20
38.95709609985352
 30
0.0
  0
POINT
  5
381
330
376
100
AcDbEntity
  8
Defpoints
 62
     0
100
AcDbPoint
 10
0.436097800731657
 20
23.71912574768066
 30
0.0
  0
ENDBLK
  5
378
330
376
100
AcDbEntity
  8
0
100
AcDbBlockEnd
  0
BLOCK
  5
384
330
383
100
AcDbEntity
  8
0
100
AcDbBlockBegin
  2
*D12
 70
     1
 10
0.0
 20
0.0
 30
0.0
  3
*D12
  1

  0
LINE
  5
386
330
383
100
AcDbEntity
  8
0
 62
     0
370
    -2
100
AcDbLine
 10
-59.06330871582031
 20
98.25841430664063
 30
0.0
 11
-59.06330871582031
 21
106.7183151245117
 31
0.0
  0
LINE
  5
387
330
383
100
AcDbEntity
  8
0
 62
     0
370
    -2
100
AcDbLine
 10
-3.063868522644043
 20
98.25841430664063
 30
0.0
 11
-3.063868522644043
 21
106.7183151245117
 31
0.0
  0
LINE
  5
388
330
383
100
AcDbEntity
  8
0
 62
     0
370
    -2
100
AcDbLine
 10
-56.06330871582031
 20
105.7183151245117
 30
0.0
 11
-6.063868522644043
 21
105.7183151245117
 31
0.0
  0
INSERT
  5
389
330
383
100
AcDbEntity
  8
0
 62
     0
370
    -2
100
AcDbBlockReference
  2
_OPEN30
 10
-59.06330871582031
 20
105.7183151245117
 30
0.0
 41
3.0
 42
3.0
 43
3.0
 50
180.0
  0
INSERT
  5
38A
330
383
100
AcDbEntity
  8
0
 62
     0
370
    -2
100
AcDbBlockReference
  2
_OPEN30
 10
-3.063868522644043
 20
105.7183151245117
 30
0.0
 41
3.0
 42
3.0
 43
3.0
  0
MTEXT
  5
38B
330
383
100
AcDbEntity
  8
0
 62
     1
100
AcDbMText
 10
-31.0625871887207
 20
108.1327151604891
 30
0.0
 40
3.200000047683716
 41
0.0
 71
     5
 72
     1
  1
168
 73
     1
 44
1.0
  0
POINT
  5
38C
330
383
100
AcDbEntity
  8
Defpoints
 62
     0
100
AcDbPoint
 10
-59.06330871582031
 20
95.71841430664062
 30
0.0
  0
POINT
  5
38D
330
383
100
AcDbEntity
  8
Defpoints
 62
     0
100
AcDbPoint
 10
-3.063868522644043
 20
95.71841430664062
 30
0.0
  0
POINT
  5
38E
330
383
100
AcDbEntity
  8
Defpoints
 62
     0
100
AcDbPoint
 10
-3.063868522644042
 20
105.7183151245117
 30
0.0
  0
ENDBLK
  5
385
330
383
100
AcDbEntity
  8
0
100
AcDbBlockEnd
  0
BLOCK
  5
391
330
390
100
AcDbEntity
  8
0
100
AcDbBlockBegin
  2
*D13
 70
     1
 10
0.0
 20
0.0
 30
0.0
  3
*D13
  1

  0
LINE
  5
393
330
390
100
AcDbEntity
  8
0
 62
     0
370
    -2
100
AcDbLine
 10
-61.60330871582031
 20
95.71841430664062
 30
0.0
 11
-73.56117138671875
 21
95.71841430664062
 31
0.0
  0
LINE
  5
394
330
390
100
AcDbEntity
  8
0
 62
     0
370
    -2
100
AcDbLine
 10
-33.6035871887207
 20
33.71902465820312
 30
0.0
 11
-73.56117138671873
 21
33.71902465820312
 31
0.0
  0
LINE
  5
395
330
390
100
AcDbEntity
  8
0
 62
     0
370
    -2
100
AcDbLine
 10
-72.56117138671875
 20
92.71841430664062
 30
0.0
 11
-72.56117138671873
 21
36.71902465820312
 31
0.0
  0
INSERT
  5
396
330
390
100
AcDbEntity
  8
0
 62
     0
370
    -2
100
AcDbBlockReference
  2
_OPEN30
 10
-72.56117138671875
 20
95.71841430664062
 30
0.0
 41
3.0
 42
3.0
 43
3.0
 50
90.00000000000001
  0
INSERT
  5
397
330
390
100
AcDbEntity
  8
0
 62
     0
370
    -2
100
AcDbBlockReference
  2
_OPEN30
 10
-72.56117138671873
 20
33.71902465820312
 30
0.0
 41
3.0
 42
3.0
 43
3.0
 50
270.0
  0
MTEXT
  5
398
330
390
100
AcDbEntity
  8
0
 62
     1
100
AcDbMText
 10
-74.9755714226961
 20
64.71971948242188
 30
0.0
 40
3.200000047683716
 41
0.0
 71
     5
 72
     1
  1
186
 11
-4.584191810849590E-16
 21
1.0
 31
0.0
 73
     1
 44
1.0
  0
POINT
  5
399
330
390
100
AcDbEntity
  8
Defpoints
 62
     0
100
AcDbPoint
 10
-59.06330871582031
 20
95.71841430664062
 30
0.0
  0
POINT
  5
39A
330
390
100
AcDbEntity
  8
Defpoints
 62
     0
100
AcDbPoint
 10
-31.0635871887207
 20
33.71902465820312
 30
0.0
  0
POINT
  5
39B
330
390
100
AcDbEntity
  8
Defpoints
 62
     0
100
AcDbPoint
 10
-72.56317138671875
 20
33.71902465820311
 30
0.0
  0
ENDBLK
  5
392
330
390
100
AcDbEntity
  8
0
100
AcDbBlockEnd
  0
BLOCK
  5
39E
330
39D
100
AcDbEntity
  8
0
100
AcDbBlockBegin
  2
*D14
 70
     1
 10
0.0
 20
0.0
 30
0.0
  3
*D14
  1

  0
LINE
  5
3A0
330
39D
100
AcDbEntity
  8
0
 62
     0
370
    -2
100
AcDbLine
 10
-40.84682464599609
 20
-86.554892578125
 30
0.0
 11
-40.84682464599609
 21
-95.01379339599609
 31
0.0
  0
LINE
  5
3A1
330
39D
100
AcDbEntity
  8
0
 62
     0
370
    -2
100
AcDbLine
 10
-21.28035163879395
 20
-86.554892578125
 30
0.0
 11
-21.28035163879395
 21
-95.01379339599609
 31
0.0
  0
LINE
  5
3A2
330
39D
100
AcDbEntity
  8
0
 62
     0
370
    -2
100
AcDbLine
 10
-37.84682464599609
 20
-94.01379339599609
 30
0.0
 11
-24.28035163879395
 21
-94.01379339599609
 31
0.0
  0
INSERT
  5
3A3
330
39D
100
AcDbEntity
  8
0
 62
     0
370
    -2
100
AcDbBlockReference
  2
_OPEN30
 10
-40.84682464599609
 20
-94.01379339599609
 30
0.0
 41
3.0
 42
3.0
 43
3.0
 50
180.0
  0
INSERT
  5
3A4
330
39D
100
AcDbEntity
  8
0
 62
     0
370
    -2
100
AcDbBlockReference
  2
_OPEN30
 10
-21.28035163879395
 20
-94.01379339599609
 30
0.0
 41
3.0
 42
3.0
 43
3.0
  0
MTEXT
  5
3A5
330
39D
100
AcDbEntity
  8
0
 62
     1
100
AcDbMText
 10
-31.0625871887207
 20
-91.59939336001872
 30
0.0
 40
3.200000047683716
 41
0.0
 71
     5
 72
     1
  1
59
 73
     1
 44
1.0
  0
POINT
  5
3A6
330
39D
100
AcDbEntity
  8
Defpoints
 62
     0
100
AcDbPoint
 10
-40.84682464599609
 20
-84.014892578125
 30
0.0
  0
POINT
  5
3A7
330
39D
100
AcDbEntity
  8
Defpoints
 62
     0
100
AcDbPoint
 10
-21.28035163879395
 20
-84.014892578125
 30
0.0
  0
POINT
  5
3A8
330
39D
100
AcDbEntity
  8
Defpoints
 62
     0
100
AcDbPoint
 10
-21.28035163879395
 20
-94.0147933959961
 30
0.0
  0
ENDBLK
  5
39F
330
39D
100
AcDbEntity
  8
0
100
AcDbBlockEnd
  0
BLOCK
  5
3AB
330
3AA
100
AcDbEntity
  8
0
100
AcDbBlockBegin
  2
*D15
 70
     1
 10
0.0
 20
0.0
 30
0.0
  3
*D15
  1

  0
LINE
  5
3AD
330
3AA
100
AcDbEntity
  8
0
 62
     0
370
    -2
100
AcDbLine
 10
-43.23012542724609
 20
-83.97158721923829
 30
0.0
 11
-43.23012542724609
 21
-105.0136942138672
 31
0.0
  0
LINE
  5
3AE
330
3AA
100
AcDbEntity
  8
0
 62
     0
370
    -2
100
AcDbLine
 10
-18.89705085754395
 20
-83.97158721923829
 30
0.0
 11
-18.89705085754395
 21
-105.0136942138672
 31
0.0
  0
LINE
  5
3AF
330
3AA
100
AcDbEntity
  8
0
 62
     0
370
    -2
100
AcDbLine
 10
-40.23012542724609
 20
-104.0136942138672
 30
0.0
 11
-21.89705085754395
 21
-104.0136942138672
 31
0.0
  0
INSERT
  5
3B0
330
3AA
100
AcDbEntity
  8
0
 62
     0
370
    -2
100
AcDbBlockReference
  2
_OPEN30
 10
-43.23012542724609
 20
-104.0136942138672
 30
0.0
 41
3.0
 42
3.0
 43
3.0
 50
180.0
  0
INSERT
  5
3B1
330
3AA
100
AcDbEntity
  8
0
 62
     0
370
    -2
100
AcDbBlockReference
  2
_OPEN30
 10
-18.89705085754395
 20
-104.0136942138672
 30
0.0
 41
3.0
 42
3.0
 43
3.0
  0
MTEXT
  5
3B2
330
3AA
100
AcDbEntity
  8
0
 62
     1
100
AcDbMText
 10
-31.0625871887207
 20
-101.5992941778898
 30
0.0
 40
3.200000047683716
 41
0.0
 71
     5
 72
     1
  1
73
 73
     1
 44
1.0
  0
POINT
  5
3B3
330
3AA
100
AcDbEntity
  8
Defpoints
 62
     0
100
AcDbPoint
 10
-43.23012542724609
 20
-81.43158721923828
 30
0.0
  0
POINT
  5
3B4
330
3AA
100
AcDbEntity
  8
Defpoints
 62
     0
100
AcDbPoint
 10
-18.89705085754395
 20
-81.43158721923828
 30
0.0
  0
POINT
  5
3B5
330
3AA
100
AcDbEntity
  8
Defpoints
 62
     0
100
AcDbPoint
 10
-18.89705085754395
 20
-104.0146942138672
 30
0.0
  0
ENDBLK
  5
3AC
330
3AA
100
AcDbEntity
  8
0
100
AcDbBlockEnd
  0
BLOCK
  5
3B8
330
3B7
100
AcDbEntity
  8
0
100
AcDbBlockBegin
  2
*D16
 70
     1
 10
0.0
 20
0.0
 30
0.0
  3
*D16
  1

  0
LINE
  5
3BA
330
3B7
100
AcDbEntity
  8
0
 62
     0
370
    -2
100
AcDbLine
 10
-45.93679718017578
 20
-75.43164825439453
 30
0.0
 11
-63.56127438354493
 21
-75.43164825439455
 31
0.0
  0
LINE
  5
3BB
330
3B7
100
AcDbEntity
  8
0
 62
     0
370
    -2
100
AcDbLine
 10
-45.77012542724609
 20
-81.43158721923828
 30
0.0
 11
-63.56127438354493
 21
-81.4315872192383
 31
0.0
  0
LINE
  5
3BC
330
3B7
100
AcDbEntity
  8
0
 62
     0
370
    -2
100
AcDbLine
 10
-62.56127438354493
 20
-75.43164825439455
 30
0.0
 11
-62.56127438354493
 21
-81.4315872192383
 31
0.0
  0
LINE
  5
3BD
330
3B7
100
AcDbEntity
  8
0
 62
     0
370
    -2
100
AcDbLine
 10
-62.56127438354493
 20
-72.43164825439455
 30
0.0
 11
-62.56127438354493
 21
-69.43164825439455
 31
0.0
  0
LINE
  5
3BE
330
3B7
100
AcDbEntity
  8
0
 62
     0
370
    -2
100
AcDbLine
 10
-62.56127438354493
 20
-84.4315872192383
 30
0.0
 11
-62.56127438354493
 21
-87.4315872192383
 31
0.0
  0
INSERT
  5
3BF
330
3B7
100
AcDbEntity
  8
0
 62
     0
370
    -2
100
AcDbBlockReference
  2
_OPEN30
 10
-62.56127438354493
 20
-75.43164825439455
 30
0.0
 41
3.0
 42
3.0
 43
3.0
 50
270.0
  0
INSERT
  5
3C0
330
3B7
100
AcDbEntity
  8
0
 62
     0
370
    -2
100
AcDbBlockReference
  2
_OPEN30
 10
-62.56127438354493
 20
-81.4315872192383
 30
0.0
 41
3.0
 42
3.0
 43
3.0
 50
90.0
  0
MTEXT
  5
3C1
330
3B7
100
AcDbEntity
  8
0
 62
     1
100
AcDbMText
 10
-64.97567441952229
 20
-78.4306177368164
 30
0.0
 40
3.200000047683716
 41
0.0
 71
     5
 72
     1
  1
18
 11
0.0
 21
1.0
 31
0.0
 73
     1
 44
1.0
  0
POINT
  5
3C2
330
3B7
100
AcDbEntity
  8
Defpoints
 62
     0
100
AcDbPoint
 10
-43.39679718017578
 20
-75.43164825439453
 30
0.0
  0
POINT
  5
3C3
330
3B7
100
AcDbEntity
  8
Defpoints
 62
     0
100
AcDbPoint
 10
-43.23012542724609
 20
-81.43158721923828
 30
0.0
  0
POINT
  5
3C4
330
3B7
100
AcDbEntity
  8
Defpoints
 62
     0
100
AcDbPoint
 10
-62.56327438354492
 20
-81.4315872192383
 30
0.0
  0
ENDBLK
  5
3B9
330
3B7
100
AcDbEntity
  8
0
100
AcDbBlockEnd
  0
ENDSEC
  0
SECTION
  2
ENTITIES
  0
POINT
  5
45
330
1F
100
AcDbEntity
  8
VIEW0001
 62
     7
100
AcDbPoint
 10
105.0
 20
-148.5
 30
0.0
  0
LWPOLYLINE
  5
46
330
1F
100
AcDbEntity
  8
VIEW0001
  6
Continuous
 62
     7
100
AcDbPolyline
 90
        2
 70
     0
 10
81.0
 20
-129.0
 40
0.001000000047497
 41
0.001000000047497
 10
81.0
 20
-120.0
 40
0.001000000047497
 41
0.001000000047497
  0
LWPOLYLINE
  5
47
330
1F
100
AcDbEntity
  8
VIEW0001
  6
Continuous
 62
     7
100
AcDbPolyline
 90
        2
 70
     0
 10
66.0
 20
-129.0
 40
0.001000000047497
 41
0.001000000047497
 10
66.0
 20
-120.0
 40
0.001000000047497
 41
0.001000000047497
  0
LWPOLYLINE
  5
48
330
1F
100
AcDbEntity
  8
VIEW0001
  6
Continuous
 62
     7
100
AcDbPolyline
 90
        2
 70
     0
 10
5.75
 20
-138.0
 40
0.001000000047497
 41
0.001000000047497
 10
5.75
 20
-120.0
 40
0.001000000047497
 41
0.001000000047497
  0
LINE
  5
49
330
1F
100
AcDbEntity
  8
VIEW0001
  6
Continuous
 62
     7
370
    20
100
AcDbLine
 10
41.0
 20
138.0
 30
0.0
 11
41.0
 21
128.0
 31
0.0
  0
LINE
  5
4A
330
1F
100
AcDbEntity
  8
VIEW0001
  6
Continuous
 62
     7
370
    20
100
AcDbLine
 10
41.0
 20
128.0
 30
0.0
 11
96.0
 21
128.0
 31
0.0
  0
LWPOLYLINE
  5
4B
330
1F
100
AcDbEntity
  8
VIEW0001
  6
Continuous
 62
     7
100
AcDbPolyline
 90
        2
 70
     0
 10
96.0
 20
-129.0
 40
0.001000000047497
 41
0.001000000047497
 10
-84.5
 20
-129.0
 40
0.001000000047497
 41
0.001000000047497
  0
LINE
  5
4C
330
1F
100
AcDbEntity
  8
VIEW0001
  6
Continuous
 62
     7
370
    20
100
AcDbLine
 10
-84.5
 20
-120.0
 30
0.0
 11
96.0
 21
-120.0
 31
0.0
  0
LINE
  5
4D
330
1F
100
AcDbEntity
  8
VIEW0001
  6
Continuous
 62
     7
370
    50
100
AcDbLine
 10
-84.5
 20
138.0
 30
0.0
 11
96.0
 21
138.0
 31
0.0
  0
LINE
  5
4E
330
1F
100
AcDbEntity
  8
VIEW0001
  6
Continuous
 62
     7
370
    50
100
AcDbLine
 10
-84.5
 20
-138.0
 30
0.0
 11
96.0
 21
-138.0
 31
0.0
  0
LINE
  5
4F
330
1F
100
AcDbEntity
  8
VIEW0001
  6
Continuous
 62
     7
370
    50
100
AcDbLine
 10
96.0
 20
138.0
 30
0.0
 11
96.0
 21
-138.0
 31
0.0
  0
LINE
  5
50
330
1F
100
AcDbEntity
  8
VIEW0001
  6
Continuous
 62
     7
370
    50
100
AcDbLine
 10
-84.5
 20
138.0
 30
0.0
 11
-84.5
 21
-138.0
 31
0.0
  0
LWPOLYLINE
  5
51
330
1F
100
AcDbEntity
  8
VIEW0001
  6
Continuous
 62
     7
100
AcDbPolyline
 90
        2
 70
     0
 10
-64.5
 20
-138.0
 40
0.001000000047497
 41
0.001000000047497
 10
-64.5
 20
-120.0
 40
0.001000000047497
 41
0.001000000047497
  0
LWPOLYLINE
  5
52
330
1F
100
AcDbEntity
  8
VIEW0001
  6
Continuous
 62
     7
100
AcDbPolyline
 90
        2
 70
     0
 10
25.75
 20
-129.0
 40
0.001000000047497
 41
0.001000000047497
 10
25.75
 20
-120.0
 40
0.001000000047497
 41
0.001000000047497
  0
MTEXT
  5
53
330
1F
100
AcDbEntity
  8
VIEW0001
 62
     1
100
AcDbMText
 10
-77.92875003814697
 20
-135.5
 30
0.0
 40
4.0
 41
0.0
 71
     7
 72
     1
  1
{\W0.833333;規格}
 73
     1
 44
1.0
  0
MTEXT
  5
54
330
1F
100
AcDbEntity
  8
VIEW0001
 62
     1
100
AcDbMText
 10
12.32124996185303
 20
-126.5
 30
0.0
 40
4.0
 41
0.0
 71
     7
 72
     1
  1
{\W0.833333;材質}
 73
     1
 44
1.0
  0
MTEXT
  5
55
330
1F
100
AcDbEntity
  8
VIEW0001
 62
     1
100
AcDbMText
 10
-77.92875003814697
 20
-126.5
 30
0.0
 40
4.0
 41
0.0
 71
     7
 72
     1
  1
{\W0.833333;品名}
 73
     1
 44
1.0
  0
MTEXT
  5
56
330
1F
100
AcDbEntity
  8
VIEW0001
 62
     1
100
AcDbMText
 10
70.07124996185303
 20
-126.5
 30
0.0
 40
4.0
 41
0.0
 71
     7
 72
     1
  1
{\W0.833333;尺度}
 73
     1
 44
1.0
  0
MTEXT
  5
57
330
1F
100
AcDbEntity
  8
VIEW0001
 62
     1
100
AcDbMText
 10
-46.80375051498413
 20
-135.5
 30
0.0
 40
4.0
 41
0.0
 71
     7
 72
     1
  1
{\W0.833333;ＣＲ105-Ｋ35}
 73
     1
 44
1.0
  0
MTEXT
  5
58
330
1F
100
AcDbEntity
  8
VIEW0001
 62
     1
100
AcDbMText
 10
83.07124984264374
 20
-126.5
 30
0.0
 40
4.0
 41
0.0
 71
     7
 72
     1
  1
{\W0.833333;1/3}
 73
     1
 44
1.0
  0
MTEXT
  5
59
330
1F
100
AcDbEntity
  8
VIEW0001
 62
     1
100
AcDbMText
 10
-40.8037503361702
 20
-126.5
 30
0.0
 40
4.0
 41
0.0
 71
     7
 72
     1
  1
{\W0.833333;ＣＲじょうご}
 73
     1
 44
1.0
  0
MTEXT
  5
5A
330
1F
100
AcDbEntity
  8
VIEW0001
 62
     1
100
AcDbMText
 10
26.46785604953766
 20
-135.75
 30
0.0
 40
4.5
 41
0.0
 71
     7
 72
     1
  1
{\W1.40741;デンカ株式会社}
 73
     1
 44
1.0
  0
MTEXT
  5
5B
330
1F
100
AcDbEntity
  8
VIEW0001
 62
     1
100
AcDbMText
 10
36.44624972343445
 20
-126.5
 30
0.0
 40
4.0
 41
0.0
 71
     7
 72
     1
  1
{\W0.833333;硬質ＰＶＣ}
 73
     1
 44
1.0
  0
LINE
  5
5D
330
1F
100
AcDbEntity
  8
VIEW0002
  6
Continuous
 62
     7
100
AcDbLine
 10
-36.23020172119141
 20
-35.68204116821289
 30
0.0
 11
-31.0635871887207
 21
-35.68204116821289
 31
0.0
  0
LINE
  5
5E
330
1F
100
AcDbEntity
  8
VIEW0002
  6
Continuous
 62
     7
100
AcDbLine
 10
-56.88583148081671
 20
-27.50369443264102
 30
0.0
 11
-54.37236217000111
 21
-63.44798277968317
 31
0.0
  0
LINE
  5
5F
330
1F
100
AcDbEntity
  8
VIEW0002
  6
Continuous
 62
     7
100
AcDbLine
 10
-45.56344223022461
 20
-40.68199157714844
 30
0.0
 11
-36.56353378295898
 21
-40.68199157714844
 31
0.0
  0
LINE
  5
60
330
1F
100
AcDbEntity
  8
VIEW0002
  6
Continuous
 62
     7
100
AcDbLine
 10
-31.0635871887207
 20
-39.01534271240234
 30
0.0
 11
-31.0635871887207
 21
-66.29631042480469
 31
0.0
  0
LINE
  5
61
330
1F
100
AcDbEntity
  8
VIEW0002
  6
Continuous
 62
     7
100
AcDbLine
 10
-36.39686584472656
 20
-35.84870529174805
 30
0.0
 11
-36.39686584472656
 21
-65.89952087402344
 31
0.0
  0
LINE
  5
62
330
1F
100
AcDbEntity
  8
VIEW0002
  6
Continuous
 62
     7
100
AcDbLine
 10
-45.73010635375977
 20
-40.84865570068359
 30
0.0
 11
-45.73010635375977
 21
-66.22663879394531
 31
0.0
  0
LINE
  5
63
330
1F
100
AcDbEntity
  8
VIEW0002
  6
Continuous
 62
     7
100
AcDbLine
 10
-41.0634880065918
 20
-44.01528930664062
 30
0.0
 11
-41.0634880065918
 21
-66.3532943725586
 31
0.0
  0
LINE
  5
64
330
1F
100
AcDbEntity
  8
VIEW0002
  6
Continuous
 62
     7
100
AcDbLine
 10
-45.67282108300469
 20
-40.722906901879
 30
0.0
 11
-41.06348214817181
 21
-44.01529142123983
 31
0.0
  0
LINE
  5
65
330
1F
100
AcDbEntity
  8
VIEW0002
  6
Continuous
 62
     7
100
AcDbLine
 10
-36.3361128390344
 20
-35.72001316866184
 30
0.0
 11
-31.06359174125129
 21
-39.01534047614413
 31
0.0
  0
LINE
  5
66
330
1F
100
AcDbEntity
  8
VIEW0002
  6
Continuous
 62
     7
100
AcDbLine
 10
-36.45414814862257
 20
-40.72291197977328
 30
0.0
 11
-41.06348359129009
 21
-44.01529400473061
 31
0.0
  0
LINE
  5
67
330
1F
100
AcDbEntity
  8
VIEW0002
  6
Continuous
 62
     7
100
AcDbLine
 10
-25.89697265625
 20
-35.68204116821289
 30
0.0
 11
-31.0635871887207
 21
-35.68204116821289
 31
0.0
  0
LINE
  5
68
330
1F
100
AcDbEntity
  8
VIEW0002
  6
Continuous
 62
     7
100
AcDbLine
 10
-5.241337393641794
 20
-27.50369326771272
 30
0.0
 11
-7.754806704457401
 21
-63.44798161475488
 31
0.0
  0
LINE
  5
69
330
1F
100
AcDbEntity
  8
VIEW0002
  6
Continuous
 62
     7
100
AcDbLine
 10
-5.097401142120361
 20
-27.34879302978516
 30
0.0
 11
-31.0635871887207
 21
-27.34879302978516
 31
0.0
  0
LINE
  5
6A
330
1F
100
AcDbEntity
  8
VIEW0002
  6
Continuous
 62
     7
100
AcDbLine
 10
-31.0635871887207
 20
-19.3488712310791
 30
0.0
 11
-2.081602573394775
 21
-19.3488712310791
 31
0.0
  0
LINE
  5
6B
330
1F
100
AcDbEntity
  8
VIEW0002
  6
Continuous
 62
     7
100
AcDbLine
 10
-31.0635871887207
 20
-8.68231201171875
 30
0.0
 11
0.436097800731659
 21
-8.68231201171875
 31
0.0
  0
LINE
  5
6C
330
1F
100
AcDbEntity
  8
VIEW0002
  6
Continuous
 62
     7
100
AcDbLine
 10
-16.5637321472168
 20
-40.68199157714844
 30
0.0
 11
-25.56364250183105
 21
-40.68199157714844
 31
0.0
  0
LINE
  5
6D
330
1F
100
AcDbEntity
  8
VIEW0002
  6
Continuous
 62
     7
100
AcDbLine
 10
-2.730537176132202
 20
-19.84886741638184
 30
0.0
 11
-1.563882231712341
 21
-19.84886741638184
 31
0.0
  0
LINE
  5
6E
330
1F
100
AcDbEntity
  8
VIEW0002
  6
Continuous
 62
     7
100
AcDbLine
 10
0.43609517045489
 20
-8.682312040025321
 30
0.0
 11
-0.422230779314034
 21
-17.83778847215929
 31
0.0
  0
LINE
  5
6F
330
1F
100
AcDbEntity
  8
VIEW0002
  6
Continuous
 62
     7
100
AcDbLine
 10
-1.563882231712341
 20
-19.26641845703125
 30
0.0
 11
-1.563882231712341
 21
-19.84886741638184
 31
0.0
  0
LINE
  5
70
330
1F
100
AcDbEntity
  8
VIEW0002
  6
Continuous
 62
     7
100
AcDbLine
 10
-14.227858543396
 20
-68.68170928955078
 30
0.0
 11
-47.84064102172852
 21
-68.68170928955078
 31
0.0
  0
LINE
  5
71
330
1F
100
AcDbEntity
  8
VIEW0002
  6
Continuous
 62
     7
100
AcDbLine
 10
-25.73030853271484
 20
-35.84870529174805
 30
0.0
 11
-25.73030853271484
 21
-65.89952087402344
 31
0.0
  0
LINE
  5
72
330
1F
100
AcDbEntity
  8
VIEW0002
  6
Continuous
 62
     7
100
AcDbLine
 10
-16.39706802368164
 20
-40.84865570068359
 30
0.0
 11
-16.39706802368164
 21
-66.22663879394531
 31
0.0
  0
LINE
  5
73
330
1F
100
AcDbEntity
  8
VIEW0002
  6
Continuous
 62
     7
100
AcDbLine
 10
-21.06368637084961
 20
-44.01528930664062
 30
0.0
 11
-21.06368637084961
 21
-66.3532943725586
 31
0.0
  0
LINE
  5
74
330
1F
100
AcDbEntity
  8
VIEW0002
  6
Continuous
 62
     7
100
AcDbLine
 10
-16.45434730007347
 20
-40.72290967936631
 30
0.0
 11
-21.06368895103495
 21
-44.01529613881874
 31
0.0
  0
LINE
  5
75
330
1F
100
AcDbEntity
  8
VIEW0002
  6
Continuous
 62
     7
100
AcDbLine
 10
-25.79106410378887
 20
-35.72001598937582
 30
0.0
 11
-31.06358560592903
 21
-39.01534354958139
 31
0.0
  0
LINE
  5
76
330
1F
100
AcDbEntity
  8
VIEW0002
  6
Continuous
 62
     7
100
AcDbLine
 10
-25.6730243086485
 20
-40.72290629214856
 30
0.0
 11
-21.06368556782481
 21
-44.01529067293141
 31
0.0
  0
LINE
  5
77
330
1F
100
AcDbEntity
  8
VIEW0002
  6
Continuous
 62
     7
100
AcDbLine
 10
-3.436507865464155
 20
-25.82054857964513
 30
0.0
 11
-2.909936595759095
 21
-19.50169372112301
 31
0.0
  0
LINE
  5
78
330
1F
100
AcDbEntity
  8
VIEW0002
  6
Continuous
 62
     7
100
AcDbLine
 10
-31.0635871887207
 20
-19.3488712310791
 30
0.0
 11
-60.04557800292969
 21
-19.3488712310791
 31
0.0
  0
LINE
  5
79
330
1F
100
AcDbEntity
  8
VIEW0002
  6
Continuous
 62
     7
100
AcDbLine
 10
-31.0635871887207
 20
-8.68231201171875
 30
0.0
 11
-62.56327056884766
 21
-8.68231201171875
 31
0.0
  0
LINE
  5
7A
330
1F
100
AcDbEntity
  8
VIEW0002
  6
Continuous
 62
     7
100
AcDbLine
 10
-62.56327532964632
 20
-8.68231443281915
 30
0.0
 11
-61.70494984721475
 21
-17.83778588002147
 31
0.0
  0
LINE
  5
7B
330
1F
100
AcDbEntity
  8
VIEW0002
  6
Continuous
 62
     7
100
AcDbLine
 10
-60.56329345703125
 20
-19.26641845703125
 30
0.0
 11
-60.56329345703125
 21
-19.68220138549805
 31
0.0
  0
LINE
  5
7C
330
1F
100
AcDbEntity
  8
VIEW0002
  6
Continuous
 62
     7
100
AcDbLine
 10
-57.02976989746094
 20
-27.34879302978516
 30
0.0
 11
-31.0635871887207
 21
-27.34879302978516
 31
0.0
  0
LINE
  5
7D
330
1F
100
AcDbEntity
  8
VIEW0002
  6
Continuous
 62
     7
100
AcDbLine
 10
-58.69066512620608
 20
-25.82055173830849
 30
0.0
 11
-59.21723631671279
 21
-19.50169783016646
 31
0.0
  0
LINE
  5
7E
330
1F
100
AcDbEntity
  8
VIEW0002
  6
Continuous
 62
     7
100
AcDbLine
 10
-36.38201944944351
 20
-65.9000153948321
 30
0.0
 11
-31.58436425031081
 21
-66.27594186209474
 31
0.0
  0
LINE
  5
7F
330
1F
100
AcDbEntity
  8
VIEW0002
  6
Continuous
 62
     7
100
AcDbLine
 10
-30.54281525023295
 20
-66.27594536106577
 30
0.0
 11
-25.74516005110024
 21
-65.90001889380312
 31
0.0
  0
LINE
  5
80
330
1F
100
AcDbEntity
  8
VIEW0002
  6
Continuous
 62
     7
100
AcDbLine
 10
-25.71548188612809
 20
-65.9003461856886
 30
0.0
 11
-21.49629141309115
 21
-66.32402938965305
 31
0.0
  0
LINE
  5
81
330
1F
100
AcDbEntity
  8
VIEW0002
  6
Continuous
 62
     7
100
AcDbLine
 10
-20.62910474359379
 20
-66.35434824713856
 30
0.0
 11
-16.39706644308135
 21
-66.22663463330449
 31
0.0
  0
LINE
  5
82
330
1F
100
AcDbEntity
  8
VIEW0002
  6
Continuous
 62
     7
100
AcDbLine
 10
-41.49807682362286
 20
-66.35434777768693
 30
0.0
 11
-45.73010559173172
 21
-66.22663445151984
 31
0.0
  0
LINE
  5
83
330
1F
100
AcDbEntity
  8
VIEW0002
  6
Continuous
 62
     7
100
AcDbLine
 10
-36.41169074477142
 20
-65.90034010425234
 30
0.0
 11
-40.63088880902474
 21
-66.32402407051251
 31
0.0
  0
LINE
  5
84
330
1F
100
AcDbEntity
  8
VIEW0002
  6
Continuous
 62
     7
100
AcDbLine
 10
-59.39663696289062
 20
-19.3488712310791
 30
0.0
 11
-59.39663696289062
 21
-19.68220138549805
 31
0.0
  0
LINE
  5
85
330
1F
100
AcDbEntity
  8
VIEW0002
  6
Continuous
 62
     7
100
AcDbLine
 10
-2.730537176132202
 20
-19.3488712310791
 30
0.0
 11
-2.730537176132202
 21
-19.84886741638184
 31
0.0
  0
LINE
  5
86
330
1F
100
AcDbEntity
  8
VIEW0002
  6
Continuous
 62
     7
100
AcDbLine
 10
-59.39663696289062
 20
-19.68220138549805
 30
0.0
 11
-60.56329345703125
 21
-19.68220138549805
 31
0.0
  0
LINE
  5
87
330
1F
100
AcDbEntity
  8
VIEW0002
  6
Continuous
 62
     7
100
AcDbLine
 10
-47.96234536307744
 20
-68.64942632185385
 30
0.0
 11
-50.66669576749889
 21
-67.93198009942282
 31
0.0
  0
LINE
  5
88
330
1F
100
AcDbEntity
  8
VIEW0002
  6
Continuous
 62
     7
100
AcDbLine
 10
-14.16483108372739
 20
-68.64942734584372
 30
0.0
 11
-11.46047883573024
 21
-67.93198063432428
 31
0.0
  0
LINE
  5
89
330
1F
100
AcDbEntity
  8
VIEW0002
  6
Continuous
 62
     7
100
AcDbLine
 10
0.436097800731659
 20
38.95709609985352
 30
0.0
 11
0.436097800731659
 21
40.82857894897461
 31
0.0
  0
LINE
  5
8A
330
1F
100
AcDbEntity
  8
VIEW0002
  6
Continuous
 62
     7
100
AcDbLine
 10
-0.397227197885513
 20
51.38551330566406
 30
0.0
 11
0.436097800731659
 21
51.38551330566406
 31
0.0
  0
LINE
  5
8B
330
1F
100
AcDbEntity
  8
VIEW0002
  6
Continuous
 62
     7
100
AcDbLine
 10
-1.170982480049133
 20
43.58229827880859
 30
0.0
 11
-1.170982480049133
 21
49.52442932128906
 31
0.0
  0
LINE
  5
8C
330
1F
100
AcDbEntity
  8
VIEW0002
  6
Continuous
 62
     7
100
AcDbLine
 10
-3.510619640350342
 20
45.35436630249023
 30
0.0
 11
-3.510619640350342
 21
45.38558578491211
 31
0.0
  0
LINE
  5
8D
330
1F
100
AcDbEntity
  8
VIEW0002
  6
Continuous
 62
     7
100
AcDbLine
 10
-2.730537176132202
 20
45.38558578491211
 30
0.0
 11
-2.730537176132202
 21
49.52442932128906
 31
0.0
  0
LINE
  5
8E
330
1F
100
AcDbEntity
  8
VIEW0002
  6
Continuous
 62
     7
100
AcDbLine
 10
-2.730537176132202
 20
49.52442932128906
 30
0.0
 11
-0.397227197885513
 21
49.52442932128906
 31
0.0
  0
LINE
  5
8F
330
1F
100
AcDbEntity
  8
VIEW0002
  6
Continuous
 62
     7
100
AcDbLine
 10
-5.852189540863037
 20
46.16762924194336
 30
0.0
 11
-5.852189540863037
 21
49.07864379882812
 31
0.0
  0
LINE
  5
90
330
1F
100
AcDbEntity
  8
VIEW0002
  6
Continuous
 62
     7
100
AcDbLine
 10
-8.639942169189453
 20
51.10910797119141
 30
0.0
 11
-8.639942169189453
 21
91.80391693115234
 31
0.0
  0
LINE
  5
91
330
1F
100
AcDbEntity
  8
VIEW0002
  6
Continuous
 62
     7
100
AcDbLine
 10
-31.0635871887207
 20
92.80390930175781
 30
0.0
 11
-22.92206192016602
 21
92.80390930175781
 31
0.0
  0
LINE
  5
92
330
1F
100
AcDbEntity
  8
VIEW0002
  6
Continuous
 62
     7
100
AcDbLine
 10
-7.293718814849854
 20
59.05210494995117
 30
0.0
 11
-6.696638107299805
 21
59.05210494995117
 31
0.0
  0
LINE
  5
93
330
1F
100
AcDbEntity
  8
VIEW0002
  6
Continuous
 62
     7
100
AcDbLine
 10
-7.274722099304199
 20
89.71847534179688
 30
0.0
 11
-6.69379997253418
 21
89.71847534179688
 31
0.0
  0
LINE
  5
94
330
1F
100
AcDbEntity
  8
VIEW0002
  6
Continuous
 62
     7
100
AcDbLine
 10
-7.327618598937988
 20
59.06246948242188
 30
0.0
 11
-7.327618598937988
 21
89.68513488769531
 31
0.0
  0
LINE
  5
95
330
1F
100
AcDbEntity
  8
VIEW0002
  6
Continuous
 62
     7
100
AcDbLine
 10
-6.65933084487915
 20
59.06246948242188
 30
0.0
 11
-6.65933084487915
 21
89.68512725830078
 31
0.0
  0
LINE
  5
96
330
1F
100
AcDbEntity
  8
VIEW0002
  6
Continuous
 62
     7
100
AcDbLine
 10
-6.240552425384521
 20
90.50458526611328
 30
0.0
 11
-5.6596360206604
 21
90.50458526611328
 31
0.0
  0
LINE
  5
97
330
1F
100
AcDbEntity
  8
VIEW0002
  6
Continuous
 62
     7
100
AcDbLine
 10
-6.212074756622314
 20
92.71843719482422
 30
0.0
 11
-5.031071662902832
 21
92.71843719482422
 31
0.0
  0
LINE
  5
98
330
1F
100
AcDbEntity
  8
VIEW0002
  6
Continuous
 62
     7
100
AcDbLine
 10
-6.278739929199219
 20
90.53792572021484
 30
0.0
 11
-6.278739929199219
 21
92.65177154541016
 31
0.0
  0
LINE
  5
99
330
1F
100
AcDbEntity
  8
VIEW0002
  6
Continuous
 62
     7
100
AcDbLine
 10
-5.610452175140381
 20
90.53792572021484
 30
0.0
 11
-5.610452175140381
 21
92.71843719482422
 31
0.0
  0
LINE
  5
9A
330
1F
100
AcDbEntity
  8
VIEW0002
  6
Continuous
 62
     7
100
AcDbLine
 10
-7.300934552818482
 20
89.73848172970412
 30
0.0
 11
-6.305428086888782
 21
90.48458020584161
 31
0.0
  0
LINE
  5
9B
330
1F
100
AcDbEntity
  8
VIEW0002
  6
Continuous
 62
     7
100
AcDbLine
 10
-6.632646857278694
 20
89.73847539017672
 30
0.0
 11
-5.637137338809261
 21
90.48457615408965
 31
0.0
  0
LINE
  5
9C
330
1F
100
AcDbEntity
  8
VIEW0002
  6
Continuous
 62
     7
100
AcDbLine
 10
-31.0635871887207
 20
95.71841430664062
 30
0.0
 11
-4.730517387390137
 21
95.71841430664062
 31
0.0
  0
LINE
  5
9D
330
1F
100
AcDbEntity
  8
VIEW0002
  6
Continuous
 62
     7
100
AcDbLine
 10
-31.0635871887207
 20
94.88508605957031
 30
0.0
 11
-5.009485721588135
 21
94.88508605957031
 31
0.0
  0
LINE
  5
9E
330
1F
100
AcDbEntity
  8
VIEW0002
  6
Continuous
 62
     7
100
AcDbLine
 10
-4.009495735168457
 20
87.05182647705078
 30
0.0
 11
-3.431010246276855
 21
87.05182647705078
 31
0.0
  0
LINE
  5
9F
330
1F
100
AcDbEntity
  8
VIEW0002
  6
Continuous
 62
     7
100
AcDbLine
 10
-3.063867092132568
 20
87.09416961669922
 30
0.0
 11
-3.063867092132568
 21
94.05176544189453
 31
0.0
  0
LINE
  5
A0
330
1F
100
AcDbEntity
  8
VIEW0002
  6
Continuous
 62
     7
100
AcDbLine
 10
-4.009495735168457
 20
87.05182647705078
 30
0.0
 11
-4.009495735168457
 21
93.88509368896484
 31
0.0
  0
LINE
  5
A1
330
1F
100
AcDbEntity
  8
VIEW0002
  6
Continuous
 62
     7
100
AcDbLine
 10
-31.0635871887207
 20
93.9023208618164
 30
0.0
 11
-17.73038673400879
 21
93.9023208618164
 31
0.0
  0
LINE
  5
A2
330
1F
100
AcDbEntity
  8
VIEW0002
  6
Continuous
 62
     7
100
AcDbLine
 10
-4.373139381408691
 20
87.75602722167969
 30
0.0
 11
-4.373139381408691
 21
93.88509368896484
 31
0.0
  0
LINE
  5
A3
330
1F
100
AcDbEntity
  8
VIEW0002
  6
Continuous
 62
     7
100
AcDbLine
 10
-3.431010246276855
 20
87.05182647705078
 30
0.0
 11
-3.431010246276855
 21
87.09416961669922
 31
0.0
  0
LINE
  5
A4
330
1F
100
AcDbEntity
  8
VIEW0002
  6
Continuous
 62
     7
100
AcDbLine
 10
-3.431010246276855
 20
87.09416961669922
 30
0.0
 11
-3.063867092132568
 21
87.09416961669922
 31
0.0
  0
LINE
  5
A5
330
1F
100
AcDbEntity
  8
VIEW0002
  6
Continuous
 62
     7
100
AcDbLine
 10
-4.931076526641846
 20
87.75602722167969
 30
0.0
 11
-4.009495735168457
 21
87.75602722167969
 31
0.0
  0
LINE
  5
A6
330
1F
100
AcDbEntity
  8
VIEW0002
  6
Continuous
 62
     7
100
AcDbLine
 10
-5.051030158996582
 20
92.71843719482422
 30
0.0
 11
-5.051030158996582
 21
93.88509368896484
 31
0.0
  0
LINE
  5
A7
330
1F
100
AcDbEntity
  8
VIEW0002
  6
Continuous
 62
     7
100
AcDbLine
 10
-5.719317436218262
 20
92.71843719482422
 30
0.0
 11
-5.719317436218262
 21
92.90232849121094
 31
0.0
  0
LINE
  5
A8
330
1F
100
AcDbEntity
  8
VIEW0002
  6
Continuous
 62
     7
100
AcDbLine
 10
-4.931076526641846
 20
87.75602722167969
 30
0.0
 11
-4.931076526641846
 21
92.61843872070312
 31
0.0
  0
LINE
  5
A9
330
1F
100
AcDbEntity
  8
VIEW0002
  6
Continuous
 62
     7
100
AcDbLine
 10
-6.943034648895264
 20
54.21872711181641
 30
0.0
 11
-6.274747371673584
 21
54.21872711181641
 31
0.0
  0
LINE
  5
AA
330
1F
100
AcDbEntity
  8
VIEW0002
  6
Continuous
 62
     7
100
AcDbLine
 10
-5.836239337921143
 20
49.1174201965332
 30
0.0
 11
-5.230517387390137
 21
49.1174201965332
 31
0.0
  0
LINE
  5
AB
330
1F
100
AcDbEntity
  8
VIEW0002
  6
Continuous
 62
     7
100
AcDbLine
 10
-3.876399755477905
 20
45.38558578491211
 30
0.0
 11
-2.730537176132202
 21
45.38558578491211
 31
0.0
  0
LINE
  5
AC
330
1F
100
AcDbEntity
  8
VIEW0002
  6
Continuous
 62
     7
100
AcDbLine
 10
-4.177279949188232
 20
46.17906188964844
 30
0.0
 11
-4.177279949188232
 21
47.20094299316406
 31
0.0
  0
LINE
  5
AD
330
1F
100
AcDbEntity
  8
VIEW0002
  6
Continuous
 62
     7
100
AcDbLine
 10
-25.73030853271484
 20
42.01678085327148
 30
0.0
 11
-25.73030853271484
 21
47.22785949707031
 31
0.0
  0
LINE
  5
AE
330
1F
100
AcDbEntity
  8
VIEW0002
  6
Continuous
 62
     7
100
AcDbLine
 10
-16.39706802368164
 20
43.76235961914062
 30
0.0
 11
-16.39706802368164
 21
47.41524887084961
 31
0.0
  0
LINE
  5
AF
330
1F
100
AcDbEntity
  8
VIEW0002
  6
Continuous
 62
     7
100
AcDbLine
 10
-25.73030755442539
 20
42.01678707279186
 30
0.0
 11
-29.41838409116755
 21
42.95598862083143
 31
0.0
  0
LINE
  5
B0
330
1F
100
AcDbEntity
  8
VIEW0002
  6
Continuous
 62
     7
100
AcDbLine
 10
-21.06368637084961
 20
45.45890808105469
 30
0.0
 11
-21.06368637084961
 21
47.65690231323242
 31
0.0
  0
LINE
  5
B1
330
1F
100
AcDbEntity
  8
VIEW0002
  6
Continuous
 62
     7
100
AcDbLine
 10
-25.73030655930688
 20
42.74804340127241
 30
0.0
 11
-22.96362414206803
 21
44.02359196413461
 31
0.0
  0
LINE
  5
B2
330
1F
100
AcDbEntity
  8
VIEW0002
  6
Continuous
 62
     7
100
AcDbLine
 10
-19.03102982294335
 20
44.40421676743409
 30
0.0
 11
-16.39706950974119
 21
43.76236556947268
 31
0.0
  0
LINE
  5
B3
330
1F
100
AcDbEntity
  8
VIEW0002
  6
Continuous
 62
     7
100
AcDbLine
 10
-30.3198086129452
 20
47.74122605408466
 30
0.0
 11
-25.75534105456676
 21
47.22877822118029
 31
0.0
  0
LINE
  5
B4
330
1F
100
AcDbEntity
  8
VIEW0002
  6
Continuous
 62
     7
100
AcDbLine
 10
-16.39706823960514
 20
47.41524722360455
 30
0.0
 11
-20.0542673739643
 21
47.96348410653266
 31
0.0
  0
LINE
  5
B5
330
1F
100
AcDbEntity
  8
VIEW0002
  6
Continuous
 62
     7
100
AcDbLine
 10
-22.06636321033654
 20
47.92383121473841
 30
0.0
 11
-25.70556492274077
 21
47.23068535561068
 31
0.0
  0
LINE
  5
B6
330
1F
100
AcDbEntity
  8
VIEW0002
  6
Continuous
 62
     7
100
AcDbLine
 10
-31.0635871887207
 20
43.83858108520508
 30
0.0
 11
-31.0635871887207
 21
47.22596740722656
 31
0.0
  0
LINE
  5
B7
330
1F
100
AcDbEntity
  8
VIEW0002
  6
Continuous
 62
     7
100
AcDbLine
 10
-9.080281754930535
 20
49.19207213671143
 30
0.0
 11
-6.532396074237777
 21
44.7481839122636
 31
0.0
  0
LINE
  5
B8
330
1F
100
AcDbEntity
  8
VIEW0002
  6
Continuous
 62
     7
100
AcDbLine
 10
-1.820801004151093
 20
40.7542852137483
 30
0.0
 11
-1.299151214456487
 21
40.22991983466403
 31
0.0
  0
LINE
  5
B9
330
1F
100
AcDbEntity
  8
VIEW0002
  6
Continuous
 62
     7
100
AcDbLine
 10
-14.23084634389535
 20
87.7670023170345
 30
0.0
 11
-9.241388308282978
 21
92.23472151596269
 31
0.0
  0
LINE
  5
BA
330
1F
100
AcDbEntity
  8
VIEW0002
  6
Continuous
 62
     7
100
AcDbLine
 10
-8.520888037499667
 20
92.66594657509148
 30
0.0
 11
-6.245305214257979
 21
93.52176697989242
 31
0.0
  0
LINE
  5
BB
330
1F
100
AcDbEntity
  8
VIEW0002
  6
Continuous
 62
     7
100
AcDbLine
 10
-17.73038673400879
 20
93.8674087524414
 30
0.0
 11
-17.73038673400879
 21
94.88508605957031
 31
0.0
  0
LINE
  5
BC
330
1F
100
AcDbEntity
  8
VIEW0002
  6
Continuous
 62
     7
100
AcDbLine
 10
-16.0637378692627
 20
93.8674087524414
 30
0.0
 11
-16.0637378692627
 21
94.88508605957031
 31
0.0
  0
LINE
  5
BD
330
1F
100
AcDbEntity
  8
VIEW0002
  6
Continuous
 62
     7
100
AcDbLine
 10
-62.56327056884766
 20
38.95709609985352
 30
0.0
 11
-62.56327056884766
 21
40.50427627563477
 31
0.0
  0
LINE
  5
BE
330
1F
100
AcDbEntity
  8
VIEW0002
  6
Continuous
 62
     7
100
AcDbLine
 10
-61.72994613647461
 20
51.38551330566406
 30
0.0
 11
-62.56327056884766
 21
51.38551330566406
 31
0.0
  0
LINE
  5
BF
330
1F
100
AcDbEntity
  8
VIEW0002
  6
Continuous
 62
     7
100
AcDbLine
 10
-60.95619201660156
 20
43.58229827880859
 30
0.0
 11
-60.95619201660156
 21
49.52442932128906
 31
0.0
  0
LINE
  5
C0
330
1F
100
AcDbEntity
  8
VIEW0002
  6
Continuous
 62
     7
100
AcDbLine
 10
-58.61655426025391
 20
45.35436630249023
 30
0.0
 11
-58.61655426025391
 21
45.38558578491211
 31
0.0
  0
LINE
  5
C1
330
1F
100
AcDbEntity
  8
VIEW0002
  6
Continuous
 62
     7
100
AcDbLine
 10
-59.39663696289062
 20
45.38558578491211
 30
0.0
 11
-59.39663696289062
 21
49.52442932128906
 31
0.0
  0
LINE
  5
C2
330
1F
100
AcDbEntity
  8
VIEW0002
  6
Continuous
 62
     7
100
AcDbLine
 10
-59.39663696289062
 20
49.52442932128906
 30
0.0
 11
-61.72994613647461
 21
49.52442932128906
 31
0.0
  0
LINE
  5
C3
330
1F
100
AcDbEntity
  8
VIEW0002
  6
Continuous
 62
     7
100
AcDbLine
 10
-56.27498626708984
 20
46.16762924194336
 30
0.0
 11
-56.27498626708984
 21
49.07864379882812
 31
0.0
  0
LINE
  5
C4
330
1F
100
AcDbEntity
  8
VIEW0002
  6
Continuous
 62
     7
100
AcDbLine
 10
-53.48723220825195
 20
51.10910797119141
 30
0.0
 11
-53.48723220825195
 21
91.80391693115234
 31
0.0
  0
LINE
  5
C5
330
1F
100
AcDbEntity
  8
VIEW0002
  6
Continuous
 62
     7
100
AcDbLine
 10
-54.83345794677734
 20
59.05210494995117
 30
0.0
 11
-55.43053817749023
 21
59.05210494995117
 31
0.0
  0
LINE
  5
C6
330
1F
100
AcDbEntity
  8
VIEW0002
  6
Continuous
 62
     7
100
AcDbLine
 10
-54.79955673217773
 20
59.06246948242188
 30
0.0
 11
-54.79955673217773
 21
89.68513488769531
 31
0.0
  0
LINE
  5
C7
330
1F
100
AcDbEntity
  8
VIEW0002
  6
Continuous
 62
     7
100
AcDbLine
 10
-55.46784210205078
 20
59.06246948242188
 30
0.0
 11
-55.46784210205078
 21
89.68512725830078
 31
0.0
  0
LINE
  5
C8
330
1F
100
AcDbEntity
  8
VIEW0002
  6
Continuous
 62
     7
100
AcDbLine
 10
-55.18413543701172
 20
54.21872711181641
 30
0.0
 11
-55.85242462158203
 21
54.21872711181641
 31
0.0
  0
LINE
  5
C9
330
1F
100
AcDbEntity
  8
VIEW0002
  6
Continuous
 62
     7
100
AcDbLine
 10
-56.29093551635742
 20
49.1174201965332
 30
0.0
 11
-56.89665603637695
 21
49.1174201965332
 31
0.0
  0
LINE
  5
CA
330
1F
100
AcDbEntity
  8
VIEW0002
  6
Continuous
 62
     7
100
AcDbLine
 10
-58.25077819824219
 20
45.38558578491211
 30
0.0
 11
-59.39663696289062
 21
45.38558578491211
 31
0.0
  0
LINE
  5
CB
330
1F
100
AcDbEntity
  8
VIEW0002
  6
Continuous
 62
     7
100
AcDbLine
 10
-57.94989395141602
 20
46.17906188964844
 30
0.0
 11
-57.94989395141602
 21
47.20094299316406
 31
0.0
  0
LINE
  5
CC
330
1F
100
AcDbEntity
  8
VIEW0002
  6
Continuous
 62
     7
100
AcDbLine
 10
-36.39686584472656
 20
42.01678085327148
 30
0.0
 11
-36.39686584472656
 21
47.22785949707031
 31
0.0
  0
LINE
  5
CD
330
1F
100
AcDbEntity
  8
VIEW0002
  6
Continuous
 62
     7
100
AcDbLine
 10
-45.73010635375977
 20
43.76235961914062
 30
0.0
 11
-45.73010635375977
 21
47.41524887084961
 31
0.0
  0
LINE
  5
CE
330
1F
100
AcDbEntity
  8
VIEW0002
  6
Continuous
 62
     7
100
AcDbLine
 10
-36.3968688000955
 20
42.01678262178221
 30
0.0
 11
-32.70878856664129
 21
42.95598511122244
 31
0.0
  0
LINE
  5
CF
330
1F
100
AcDbEntity
  8
VIEW0002
  6
Continuous
 62
     7
100
AcDbLine
 10
-41.0634880065918
 20
45.45890808105469
 30
0.0
 11
-41.0634880065918
 21
47.65690231323242
 31
0.0
  0
LINE
  5
D0
330
1F
100
AcDbEntity
  8
VIEW0002
  6
Continuous
 62
     7
100
AcDbLine
 10
-36.39687162067098
 20
42.74804446450045
 30
0.0
 11
-39.16355187275471
 21
44.02359202914165
 31
0.0
  0
LINE
  5
D1
330
1F
100
AcDbEntity
  8
VIEW0002
  6
Continuous
 62
     7
100
AcDbLine
 10
-43.09614584872745
 20
44.40421191959363
 30
0.0
 11
-45.73010986817278
 21
43.76235981848397
 31
0.0
  0
LINE
  5
D2
330
1F
100
AcDbEntity
  8
VIEW0002
  6
Continuous
 62
     7
100
AcDbLine
 10
-31.80736863872963
 20
47.74122137160379
 30
0.0
 11
-36.37183430166739
 21
47.22877375149849
 31
0.0
  0
LINE
  5
D3
330
1F
100
AcDbEntity
  8
VIEW0002
  6
Continuous
 62
     7
100
AcDbLine
 10
-45.73010994102651
 20
47.41524747091685
 30
0.0
 11
-42.07290703412266
 21
47.96348491937286
 31
0.0
  0
LINE
  5
D4
330
1F
100
AcDbEntity
  8
VIEW0002
  6
Continuous
 62
     7
100
AcDbLine
 10
-40.0608130729301
 20
47.9238249820495
 30
0.0
 11
-36.42161136052586
 21
47.23067912292178
 31
0.0
  0
LINE
  5
D5
330
1F
100
AcDbEntity
  8
VIEW0002
  6
Continuous
 62
     7
100
AcDbLine
 10
-53.04689579793565
 20
49.19206732083502
 30
0.0
 11
-55.59478147862841
 21
44.74817909638718
 31
0.0
  0
LINE
  5
D6
330
1F
100
AcDbEntity
  8
VIEW0002
  6
Continuous
 62
     7
100
AcDbLine
 10
-60.30637095511907
 20
40.75427917314214
 30
0.0
 11
-60.79187338511256
 21
40.26624932863877
 31
0.0
  0
LINE
  5
D7
330
1F
100
AcDbEntity
  8
VIEW0002
  6
Continuous
 62
     7
100
AcDbLine
 10
-54.85245132446289
 20
89.71847534179688
 30
0.0
 11
-55.43337249755859
 21
89.71847534179688
 31
0.0
  0
LINE
  5
D8
330
1F
100
AcDbEntity
  8
VIEW0002
  6
Continuous
 62
     7
100
AcDbLine
 10
-55.88661956787109
 20
90.50458526611328
 30
0.0
 11
-56.4675407409668
 21
90.50458526611328
 31
0.0
  0
LINE
  5
D9
330
1F
100
AcDbEntity
  8
VIEW0002
  6
Continuous
 62
     7
100
AcDbLine
 10
-55.91510009765625
 20
92.71843719482422
 30
0.0
 11
-57.09610366821289
 21
92.71843719482422
 31
0.0
  0
LINE
  5
DA
330
1F
100
AcDbEntity
  8
VIEW0002
  6
Continuous
 62
     7
100
AcDbLine
 10
-55.84843444824219
 20
90.53792572021484
 30
0.0
 11
-55.84843444824219
 21
92.65177154541016
 31
0.0
  0
LINE
  5
DB
330
1F
100
AcDbEntity
  8
VIEW0002
  6
Continuous
 62
     7
100
AcDbLine
 10
-56.5167236328125
 20
90.53792572021484
 30
0.0
 11
-56.5167236328125
 21
92.71843719482422
 31
0.0
  0
LINE
  5
DC
330
1F
100
AcDbEntity
  8
VIEW0002
  6
Continuous
 62
     7
100
AcDbLine
 10
-54.82623887208916
 20
89.7384762310707
 30
0.0
 11
-55.82175144309832
 21
90.48457928275909
 31
0.0
  0
LINE
  5
DD
330
1F
100
AcDbEntity
  8
VIEW0002
  6
Continuous
 62
     7
100
AcDbLine
 10
-55.49452733239325
 20
89.73847523185847
 30
0.0
 11
-56.49003379832294
 21
90.48457370799598
 31
0.0
  0
LINE
  5
DE
330
1F
100
AcDbEntity
  8
VIEW0002
  6
Continuous
 62
     7
100
AcDbLine
 10
-31.0635871887207
 20
95.71841430664062
 30
0.0
 11
-57.39665603637695
 21
95.71841430664062
 31
0.0
  0
LINE
  5
DF
330
1F
100
AcDbEntity
  8
VIEW0002
  6
Continuous
 62
     7
100
AcDbLine
 10
-31.0635871887207
 20
94.88508605957031
 30
0.0
 11
-57.1176872253418
 21
94.88508605957031
 31
0.0
  0
LINE
  5
E0
330
1F
100
AcDbEntity
  8
VIEW0002
  6
Continuous
 62
     7
100
AcDbLine
 10
-58.11767959594727
 20
87.05182647705078
 30
0.0
 11
-58.69616317749023
 21
87.05182647705078
 31
0.0
  0
LINE
  5
E1
330
1F
100
AcDbEntity
  8
VIEW0002
  6
Continuous
 62
     7
100
AcDbLine
 10
-59.06330871582031
 20
87.09416961669922
 30
0.0
 11
-59.06330871582031
 21
94.05176544189453
 31
0.0
  0
LINE
  5
E2
330
1F
100
AcDbEntity
  8
VIEW0002
  6
Continuous
 62
     7
100
AcDbLine
 10
-58.11767959594727
 20
87.05182647705078
 30
0.0
 11
-58.11767959594727
 21
93.88509368896484
 31
0.0
  0
LINE
  5
E3
330
1F
100
AcDbEntity
  8
VIEW0002
  6
Continuous
 62
     7
100
AcDbLine
 10
-57.75403594970703
 20
87.75602722167969
 30
0.0
 11
-57.75403594970703
 21
93.88509368896484
 31
0.0
  0
LINE
  5
E4
330
1F
100
AcDbEntity
  8
VIEW0002
  6
Continuous
 62
     7
100
AcDbLine
 10
-58.69616317749023
 20
87.05182647705078
 30
0.0
 11
-58.69616317749023
 21
87.09416961669922
 31
0.0
  0
LINE
  5
E5
330
1F
100
AcDbEntity
  8
VIEW0002
  6
Continuous
 62
     7
100
AcDbLine
 10
-58.69616317749023
 20
87.09416961669922
 30
0.0
 11
-59.06330871582031
 21
87.09416961669922
 31
0.0
  0
LINE
  5
E6
330
1F
100
AcDbEntity
  8
VIEW0002
  6
Continuous
 62
     7
100
AcDbLine
 10
-57.19609832763672
 20
87.75602722167969
 30
0.0
 11
-58.11767959594727
 21
87.75602722167969
 31
0.0
  0
LINE
  5
E7
330
1F
100
AcDbEntity
  8
VIEW0002
  6
Continuous
 62
     7
100
AcDbLine
 10
-57.07614517211914
 20
92.71843719482422
 30
0.0
 11
-57.07614517211914
 21
93.88509368896484
 31
0.0
  0
LINE
  5
E8
330
1F
100
AcDbEntity
  8
VIEW0002
  6
Continuous
 62
     7
100
AcDbLine
 10
-56.40785598754883
 20
92.71843719482422
 30
0.0
 11
-56.40785598754883
 21
92.90232849121094
 31
0.0
  0
LINE
  5
E9
330
1F
100
AcDbEntity
  8
VIEW0002
  6
Continuous
 62
     7
100
AcDbLine
 10
-57.19609832763672
 20
87.75602722167969
 30
0.0
 11
-57.19609832763672
 21
92.61843872070312
 31
0.0
  0
LINE
  5
EA
330
1F
100
AcDbEntity
  8
VIEW0002
  6
Continuous
 62
     7
100
AcDbLine
 10
-47.59009244863108
 20
87.49279614265777
 30
0.0
 11
-52.88578101324835
 21
92.23472388366964
 31
0.0
  0
LINE
  5
EB
330
1F
100
AcDbEntity
  8
VIEW0002
  6
Continuous
 62
     7
100
AcDbLine
 10
-53.60628616646508
 20
92.66594508031054
 30
0.0
 11
-55.88186541917374
 21
93.52176414227526
 31
0.0
  0
LINE
  5
EC
330
1F
100
AcDbEntity
  8
VIEW0002
  6
Continuous
 62
     7
100
AcDbLine
 10
-51.98142026743222
 20
50.56459791657231
 30
0.0
 11
-47.07440255780081
 21
56.53602377187692
 31
0.0
  0
LINE
  5
ED
330
1F
100
AcDbEntity
  8
VIEW0002
  6
Continuous
 62
     7
100
AcDbLine
 10
-14.99767517806479
 20
56.46896616261938
 30
0.0
 11
-10.1145332027223
 21
50.52659505818053
 31
0.0
  0
LINE
  5
EE
330
1F
100
AcDbEntity
  8
VIEW0002
  6
Continuous
 62
     7
100
AcDbLine
 10
-31.0635871887207
 20
92.80390930175781
 30
0.0
 11
-39.20511627197266
 21
92.80390930175781
 31
0.0
  0
LINE
  5
EF
330
1F
100
AcDbEntity
  8
VIEW0002
  6
Continuous
 62
     7
100
AcDbLine
 10
-31.0635871887207
 20
93.9023208618164
 30
0.0
 11
-44.39678955078125
 21
93.9023208618164
 31
0.0
  0
LINE
  5
F0
330
1F
100
AcDbEntity
  8
VIEW0002
  6
Continuous
 62
     7
100
AcDbLine
 10
-17.73038673400879
 20
94.55175018310547
 30
0.0
 11
-16.0637378692627
 21
94.55175018310547
 31
0.0
  0
LINE
  5
F1
330
1F
100
AcDbEntity
  8
VIEW0002
  6
Continuous
 62
     7
100
AcDbLine
 10
-17.73038673400879
 20
93.8674087524414
 30
0.0
 11
-16.0637378692627
 21
93.8674087524414
 31
0.0
  0
LINE
  5
F2
330
1F
100
AcDbEntity
  8
VIEW0002
  6
Continuous
 62
     7
100
AcDbLine
 10
-16.0637378692627
 20
93.9023208618164
 30
0.0
 11
-6.719307422637939
 21
93.9023208618164
 31
0.0
  0
LINE
  5
F3
330
1F
100
AcDbEntity
  8
VIEW0002
  6
Continuous
 62
     7
100
AcDbLine
 10
-44.39678955078125
 20
93.8674087524414
 30
0.0
 11
-46.06343841552734
 21
93.8674087524414
 31
0.0
  0
LINE
  5
F4
330
1F
100
AcDbEntity
  8
VIEW0002
  6
Continuous
 62
     7
100
AcDbLine
 10
-44.39678955078125
 20
94.55175018310547
 30
0.0
 11
-46.06343841552734
 21
94.55175018310547
 31
0.0
  0
LINE
  5
F5
330
1F
100
AcDbEntity
  8
VIEW0002
  6
Continuous
 62
     7
100
AcDbLine
 10
-44.39678955078125
 20
93.8674087524414
 30
0.0
 11
-44.39678955078125
 21
94.88508605957031
 31
0.0
  0
LINE
  5
F6
330
1F
100
AcDbEntity
  8
VIEW0002
  6
Continuous
 62
     7
100
AcDbLine
 10
-46.06343841552734
 20
93.8674087524414
 30
0.0
 11
-46.06343841552734
 21
94.88508605957031
 31
0.0
  0
LINE
  5
F7
330
1F
100
AcDbEntity
  8
VIEW0002
  6
Continuous
 62
     7
100
AcDbLine
 10
-46.06343841552734
 20
93.9023208618164
 30
0.0
 11
-55.40786743164062
 21
93.9023208618164
 31
0.0
  0
LINE
  5
F8
330
1F
100
AcDbEntity
  8
VIEW0002
  6
Continuous
 62
     7
100
AcDbLine
 10
-22.92206192016602
 20
91.0316162109375
 30
0.0
 11
-22.92206192016602
 21
93.08183288574219
 31
0.0
  0
LINE
  5
F9
330
1F
100
AcDbEntity
  8
VIEW0002
  6
Continuous
 62
     7
100
AcDbLine
 10
-21.93862342834473
 20
91.0316162109375
 30
0.0
 11
-21.93862342834473
 21
93.08183288574219
 31
0.0
  0
LINE
  5
FA
330
1F
100
AcDbEntity
  8
VIEW0002
  6
Continuous
 62
     7
100
AcDbLine
 10
-22.92206192016602
 20
93.08183288574219
 30
0.0
 11
-21.93862342834473
 21
93.08183288574219
 31
0.0
  0
LINE
  5
FB
330
1F
100
AcDbEntity
  8
VIEW0002
  6
Continuous
 62
     7
100
AcDbLine
 10
-22.92206192016602
 20
91.0316162109375
 30
0.0
 11
-21.93862342834473
 21
91.0316162109375
 31
0.0
  0
LINE
  5
FC
330
1F
100
AcDbEntity
  8
VIEW0002
  6
Continuous
 62
     7
100
AcDbLine
 10
-21.93862342834473
 20
92.80390930175781
 30
0.0
 11
-9.639932632446289
 21
92.80390930175781
 31
0.0
  0
LINE
  5
FD
330
1F
100
AcDbEntity
  8
VIEW0002
  6
Continuous
 62
     7
100
AcDbLine
 10
-40.18855667114258
 20
92.80390930175781
 30
0.0
 11
-52.48724365234375
 21
92.80390930175781
 31
0.0
  0
LINE
  5
FE
330
1F
100
AcDbEntity
  8
VIEW0002
  6
Continuous
 62
     7
100
AcDbLine
 10
-22.68033981323242
 20
91.4151840209961
 30
0.0
 11
-22.18034553527832
 21
91.4151840209961
 31
0.0
  0
LINE
  5
FF
330
1F
100
AcDbEntity
  8
VIEW0002
  6
Continuous
 62
     7
100
AcDbLine
 10
-22.68034047219515
 20
91.41518881822209
 30
0.0
 11
-22.73033987339038
 21
93.08183554129386
 31
0.0
  0
LINE
  5
100
330
1F
100
AcDbEntity
  8
VIEW0002
  6
Continuous
 62
     7
100
AcDbLine
 10
-22.18034094278784
 20
91.41518156019313
 30
0.0
 11
-22.13034131281371
 21
93.08183590922852
 31
0.0
  0
LINE
  5
101
330
1F
100
AcDbEntity
  8
VIEW0002
  6
Continuous
 62
     7
100
AcDbLine
 10
-22.1803440261677
 20
91.41518756183441
 30
0.0
 11
-21.93862408303177
 21
91.03162275025271
 31
0.0
  0
LINE
  5
102
330
1F
100
AcDbEntity
  8
VIEW0002
  6
Continuous
 62
     7
100
AcDbLine
 10
-22.68034293475047
 20
91.41518564968796
 30
0.0
 11
-22.9220628778864
 21
91.03162083810625
 31
0.0
  0
LINE
  5
103
330
1F
100
AcDbEntity
  8
VIEW0002
  6
Continuous
 62
     7
100
AcDbLine
 10
-39.44683639234191
 20
91.41518790433751
 30
0.0
 11
-39.20511238155865
 21
91.03161663815233
 31
0.0
  0
LINE
  5
104
330
1F
100
AcDbEntity
  8
VIEW0002
  6
Continuous
 62
     7
100
AcDbLine
 10
-39.20511627197266
 20
91.0316162109375
 30
0.0
 11
-39.20511627197266
 21
93.08183288574219
 31
0.0
  0
LINE
  5
105
330
1F
100
AcDbEntity
  8
VIEW0002
  6
Continuous
 62
     7
100
AcDbLine
 10
-40.18855667114258
 20
91.0316162109375
 30
0.0
 11
-40.18855667114258
 21
93.08183288574219
 31
0.0
  0
LINE
  5
106
330
1F
100
AcDbEntity
  8
VIEW0002
  6
Continuous
 62
     7
100
AcDbLine
 10
-39.20511627197266
 20
93.08183288574219
 30
0.0
 11
-40.18855667114258
 21
93.08183288574219
 31
0.0
  0
LINE
  5
107
330
1F
100
AcDbEntity
  8
VIEW0002
  6
Continuous
 62
     7
100
AcDbLine
 10
-39.20511627197266
 20
91.0316162109375
 30
0.0
 11
-40.18855667114258
 21
91.0316162109375
 31
0.0
  0
LINE
  5
108
330
1F
100
AcDbEntity
  8
VIEW0002
  6
Continuous
 62
     7
100
AcDbLine
 10
-39.94683368727382
 20
91.41518429027303
 30
0.0
 11
-40.18855566423342
 21
91.0316162513896
 31
0.0
  0
LINE
  5
109
330
1F
100
AcDbEntity
  8
VIEW0002
  6
Continuous
 62
     7
100
AcDbLine
 10
-39.44683837890625
 20
91.4151840209961
 30
0.0
 11
-39.94683456420898
 21
91.4151840209961
 31
0.0
  0
LINE
  5
10A
330
1F
100
AcDbEntity
  8
VIEW0002
  6
Continuous
 62
     7
100
AcDbLine
 10
-39.446839352254
 20
91.4151823367109
 30
0.0
 11
-39.39683972227986
 21
93.08183668574628
 31
0.0
  0
LINE
  5
10B
330
1F
100
AcDbEntity
  8
VIEW0002
  6
Continuous
 62
     7
100
AcDbLine
 10
-39.94683506867949
 20
91.41518815609378
 30
0.0
 11
-39.99683446987472
 21
93.08183487916554
 31
0.0
  0
LINE
  5
10C
330
1F
100
AcDbEntity
  8
VIEW0002
  6
Continuous
 62
     7
100
AcDbLine
 10
-61.72994613647461
 20
42.60344696044922
 30
0.0
 11
-61.72994613647461
 21
51.38551330566406
 31
0.0
  0
LINE
  5
10D
330
1F
100
AcDbEntity
  8
VIEW0002
  6
Continuous
 62
     7
100
AcDbLine
 10
-0.397227197885513
 20
42.60344696044922
 30
0.0
 11
-0.397227197885513
 21
51.38551330566406
 31
0.0
  0
LINE
  5
10E
330
1F
100
AcDbEntity
  8
VIEW0002
  6
Continuous
 62
     7
100
AcDbLine
 10
-58.31642532348633
 20
95.71841430664062
 30
0.0
 11
-59.06330871582031
 21
95.71841430664062
 31
0.0
  0
LINE
  5
10F
330
1F
100
AcDbEntity
  8
VIEW0002
  6
Continuous
 62
     7
100
AcDbLine
 10
-59.06330871582031
 20
95.06095123291016
 30
0.0
 11
-59.06330871582031
 21
95.71841430664062
 31
0.0
  0
LINE
  5
110
330
1F
100
AcDbEntity
  8
VIEW0002
  6
Continuous
 62
     7
100
AcDbLine
 10
73.10203552246094
 20
-25.44881248474121
 30
0.0
 11
78.76864624023438
 21
-25.44881248474121
 31
0.0
  0
LINE
  5
111
330
1F
100
AcDbEntity
  8
VIEW0002
  6
Continuous
 62
     7
100
AcDbLine
 10
37.87839508056641
 20
-42.28197860717773
 30
0.0
 11
38.43571090698242
 21
-42.28197860717773
 31
0.0
  0
LINE
  5
112
330
1F
100
AcDbEntity
  8
VIEW0002
  6
Continuous
 62
     7
100
AcDbLine
 10
73.10204241062756
 20
-47.78192036611615
 30
0.0
 11
73.16770871917957
 21
-46.52893256250359
 31
0.0
  0
LINE
  5
113
330
1F
100
AcDbEntity
  8
VIEW0002
  6
Continuous
 62
     7
100
AcDbLine
 10
42.43567276000977
 20
-47.78192138671875
 30
0.0
 11
43.1074104309082
 21
-47.78192138671875
 31
0.0
  0
LINE
  5
114
330
1F
100
AcDbEntity
  8
VIEW0002
  6
Continuous
 62
     7
100
AcDbLine
 10
70.47772979736328
 20
-21.78218269348145
 30
0.0
 11
78.98844146728516
 21
-21.78218269348145
 31
0.0
  0
LINE
  5
115
330
1F
100
AcDbEntity
  8
VIEW0002
  6
CENTER
 62
     7
100
AcDbLine
 10
57.76885604858398
 20
-34.4361686706543
 30
0.0
 11
57.76885604858398
 21
-65.80589294433594
 31
0.0
  0
LINE
  5
116
330
1F
100
AcDbEntity
  8
VIEW0002
  6
Continuous
 62
     7
100
AcDbLine
 10
78.93531036376953
 20
-21.90419006347656
 30
0.0
 11
78.93531036376953
 21
-25.28214645385742
 31
0.0
  0
LINE
  5
117
330
1F
100
AcDbEntity
  8
VIEW0002
  6
Continuous
 62
     7
100
AcDbLine
 10
78.59795256336996
 20
-25.61111452580715
 30
0.0
 11
78.55692636072956
 21
-27.17784202028859
 31
0.0
  0
LINE
  5
118
330
1F
100
AcDbEntity
  8
VIEW0002
  6
Continuous
 62
     7
100
AcDbLine
 10
78.05963729611204
 20
-27.92631782898489
 30
0.0
 11
78.35569003768173
 21
-27.63791601299489
 31
0.0
  0
LINE
  5
119
330
1F
100
AcDbEntity
  8
VIEW0002
  6
Continuous
 62
     7
100
AcDbLine
 10
77.85839414546152
 20
-28.38639970700523
 30
0.0
 11
76.9419968612234
 21
-63.38220065082101
 31
0.0
  0
LINE
  5
11A
330
1F
100
AcDbEntity
  8
VIEW0002
  6
Continuous
 62
     7
100
AcDbLine
 10
31.45997619628906
 20
-19.3488712310791
 30
0.0
 11
19.90720558166504
 21
-19.3488712310791
 31
0.0
  0
LINE
  5
11B
330
1F
100
AcDbEntity
  8
VIEW0002
  6
Continuous
 62
     7
100
AcDbLine
 10
34.62046343704473
 20
-12.93822047193693
 30
0.0
 11
34.74499028824223
 21
-9.37223785373768
 31
0.0
  0
LINE
  5
11C
330
1F
100
AcDbEntity
  8
VIEW0002
  6
Continuous
 62
     7
100
AcDbLine
 10
29.17568851102246
 20
-66.89369529060805
 30
0.0
 11
24.80933984221839
 21
-35.82551169426535
 31
0.0
  0
LINE
  5
11D
330
1F
100
AcDbEntity
  8
VIEW0002
  6
Continuous
 62
     7
100
AcDbLine
 10
24.61129379272461
 20
-35.68204116821289
 30
0.0
 11
24.64429664611816
 21
-35.68204116821289
 31
0.0
  0
LINE
  5
11E
330
1F
100
AcDbEntity
  8
VIEW0002
  6
Continuous
 62
     7
100
AcDbLine
 10
25.51178044358696
 20
-40.71283427202462
 30
0.0
 11
26.99679832061783
 21
-43.01356583556245
 31
0.0
  0
LINE
  5
11F
330
1F
100
AcDbEntity
  8
VIEW0002
  6
Continuous
 62
     7
100
AcDbLine
 10
25.49614143371582
 20
-40.68199157714844
 30
0.0
 11
26.52423667907715
 21
-40.68199157714844
 31
0.0
  0
LINE
  5
120
330
1F
100
AcDbEntity
  8
VIEW0002
  6
Continuous
 62
     7
100
AcDbLine
 10
30.3807908105825
 20
-67.09192024222642
 30
0.0
 11
26.68928019400409
 21
-40.825458655429
 31
0.0
  0
LINE
  5
121
330
1F
100
AcDbEntity
  8
VIEW0002
  6
Continuous
 62
     7
100
AcDbLine
 10
24.83987525782931
 20
-36.04279717637755
 30
0.0
 11
24.62693014120255
 21
-35.71288225838076
 31
0.0
  0
LINE
  5
122
330
1F
100
AcDbEntity
  8
VIEW0002
  6
Continuous
 62
     7
100
AcDbLine
 10
24.60191739823392
 20
-35.64569345894535
 30
0.0
 11
23.45593029807029
 21
-27.4915719428834
 31
0.0
  0
LINE
  5
123
330
1F
100
AcDbEntity
  8
VIEW0002
  6
Continuous
 62
     7
100
AcDbLine
 10
17.10259553062837
 20
-8.682314670257503
 30
0.0
 11
18.25342444160712
 21
-17.88894595808749
 31
0.0
  0
LINE
  5
124
330
1F
100
AcDbEntity
  8
VIEW0002
  6
Continuous
 62
     7
100
AcDbLine
 10
23.19666777246162
 20
-17.83737621519938
 30
0.0
 11
22.3406650311494
 21
-8.682310618466527
 31
0.0
  0
LINE
  5
125
330
1F
100
AcDbEntity
  8
VIEW0002
  6
Continuous
 62
     7
100
AcDbLine
 10
25.68714608357025
 20
-25.84710134539214
 30
0.0
 11
25.04080592545138
 21
-19.34887161798641
 31
0.0
  0
LINE
  5
126
330
1F
100
AcDbEntity
  8
VIEW0002
  6
Continuous
 62
     7
100
AcDbLine
 10
27.09966047187775
 20
-27.49580931134258
 30
0.0
 11
31.40015836897925
 21
-63.71720152624579
 31
0.0
  0
LINE
  5
127
330
1F
100
AcDbEntity
  8
VIEW0002
  6
Continuous
 62
     7
100
AcDbLine
 10
73.06715731307176
 20
-26.11433923929319
 30
0.0
 11
73.1020361383456
 21
-25.44881160973523
 31
0.0
  0
LINE
  5
128
330
1F
100
AcDbEntity
  8
VIEW0002
  6
Continuous
 62
     7
100
AcDbLine
 10
79.10197448730469
 20
-20.78219223022461
 30
0.0
 11
79.10197448730469
 21
-21.61551666259766
 31
0.0
  0
LINE
  5
129
330
1F
100
AcDbEntity
  8
VIEW0002
  6
Continuous
 62
     7
100
AcDbLine
 10
28.76914596557617
 20
-19.3488712310791
 30
0.0
 11
28.76914596557617
 21
-23.0716438293457
 31
0.0
  0
LINE
  5
12A
330
1F
100
AcDbEntity
  8
VIEW0002
  6
Continuous
 62
     7
100
AcDbLine
 10
23.24050521850586
 20
-27.34879112243652
 30
0.0
 11
32.33881378173828
 21
-27.34879112243652
 31
0.0
  0
LINE
  5
12B
330
1F
100
AcDbEntity
  8
VIEW0002
  6
Continuous
 62
     7
100
AcDbLine
 10
21.58672592345745
 20
-25.88886636804779
 30
0.0
 11
20.78747563566785
 21
-19.49486406573101
 31
0.0
  0
LINE
  5
12C
330
1F
100
AcDbEntity
  8
VIEW0002
  6
Continuous
 62
     7
100
AcDbLine
 10
31.82167053222656
 20
-19.68220138549805
 30
0.0
 11
31.30245018005371
 21
-19.68220138549805
 31
0.0
  0
LINE
  5
12D
330
1F
100
AcDbEntity
  8
VIEW0002
  6
Continuous
 62
     7
100
AcDbLine
 10
34.0787353515625
 20
-8.68231201171875
 30
0.0
 11
17.10259437561035
 21
-8.68231201171875
 31
0.0
  0
LINE
  5
12E
330
1F
100
AcDbEntity
  8
VIEW0002
  6
Continuous
 62
     7
100
AcDbLine
 10
44.10232162475586
 20
-74.5149917602539
 30
0.0
 11
44.10232162475586
 21
-74.5149917602539
 31
0.0
  0
LINE
  5
12F
330
1F
100
AcDbEntity
  8
VIEW0002
  6
Continuous
 62
     7
100
AcDbLine
 10
68.10208129882812
 20
-74.5149917602539
 30
0.0
 11
68.10208129882812
 21
-74.5149917602539
 31
0.0
  0
LINE
  5
130
330
1F
100
AcDbEntity
  8
VIEW0002
  6
CENTER
 62
     7
100
AcDbLine
 10
56.10220336914062
 20
-63.27177429199219
 30
0.0
 11
56.10220336914062
 21
-87.34819030761719
 31
0.0
  0
LINE
  5
131
330
1F
100
AcDbEntity
  8
VIEW0002
  6
Continuous
 62
     7
100
AcDbLine
 10
76.10200500488281
 20
-25.44881248474121
 30
0.0
 11
76.10200500488281
 21
-32.61540603637695
 31
0.0
  0
LINE
  5
132
330
1F
100
AcDbEntity
  8
VIEW0002
  6
Continuous
 62
     7
100
AcDbLine
 10
74.18699645996094
 20
-33.11540222167969
 30
0.0
 11
75.60200500488281
 21
-33.11540222167969
 31
0.0
  0
LINE
  5
133
330
1F
100
AcDbEntity
  8
VIEW0002
  6
Continuous
 62
     7
100
AcDbLine
 10
31.30245018005371
 20
-19.3488712310791
 30
0.0
 11
31.30245018005371
 21
-19.68220138549805
 31
0.0
  0
LINE
  5
134
330
1F
100
AcDbEntity
  8
VIEW0002
  6
Continuous
 62
     7
100
AcDbLine
 10
71.76871490478516
 20
-20.78219223022461
 30
0.0
 11
79.10197448730469
 21
-20.78219223022461
 31
0.0
  0
LINE
  5
135
330
1F
100
AcDbEntity
  8
VIEW0002
  6
Continuous
 62
     7
100
AcDbLine
 10
70.43539428710938
 20
-22.11551094055176
 30
0.0
 11
70.43539428710938
 21
-22.51551246643066
 31
0.0
  0
LINE
  5
136
330
1F
100
AcDbEntity
  8
VIEW0002
  6
Continuous
 62
     7
100
AcDbLine
 10
71.26702880859375
 20
-68.68171691894531
 30
0.0
 11
39.24836730957031
 21
-68.68171691894531
 31
0.0
  0
LINE
  5
137
330
1F
100
AcDbEntity
  8
VIEW0002
  6
Continuous
 62
     7
100
AcDbLine
 10
71.32983188533657
 20
-68.64703790927044
 30
0.0
 11
73.36202984262805
 21
-68.0459014929461
 31
0.0
  0
LINE
  5
138
330
1F
100
AcDbEntity
  8
VIEW0002
  6
Continuous
 62
     7
100
AcDbLine
 10
29.31368129406723
 20
-67.03495566976977
 30
0.0
 11
39.18799316572766
 21
-68.65915191727407
 31
0.0
  0
LINE
  5
139
330
1F
100
AcDbEntity
  8
VIEW0002
  6
Continuous
 62
     7
100
AcDbLine
 10
34.35285734357957
 20
-14.3864470638278
 30
0.0
 11
32.76753088283267
 21
-19.00675538421412
 31
0.0
  0
LINE
  5
13A
330
1F
100
AcDbEntity
  8
VIEW0002
  6
Continuous
 62
     7
100
AcDbLine
 10
42.43567276000977
 20
-47.04495239257812
 30
0.0
 11
42.43567276000977
 21
-47.78192138671875
 31
0.0
  0
LINE
  5
13B
330
1F
100
AcDbEntity
  8
VIEW0002
  6
Continuous
 62
     7
100
AcDbLine
 10
71.8907241821289
 20
-47.78192138671875
 30
0.0
 11
73.10204315185547
 21
-47.78192138671875
 31
0.0
  0
LINE
  5
13C
330
1F
100
AcDbEntity
  8
VIEW0002
  6
Continuous
 62
     7
100
AcDbLine
 10
73.21792603410901
 20
-45.57072911656248
 30
0.0
 11
73.85412741850513
 21
-33.43128359468756
 31
0.0
  0
LINE
  5
13D
330
1F
100
AcDbEntity
  8
VIEW0002
  6
Continuous
 62
     7
100
AcDbLine
 10
43.9356575012207
 20
-47.78192138671875
 30
0.0
 11
70.88780975341797
 21
-47.78192138671875
 31
0.0
  0
LINE
  5
13E
330
1F
100
AcDbEntity
  8
VIEW0002
  6
Continuous
 62
     7
100
AcDbLine
 10
0.436097800731659
 20
42.60344696044922
 30
0.0
 11
0.436097800731659
 21
51.38551330566406
 31
0.0
  0
LINE
  5
13F
330
1F
100
AcDbEntity
  8
VIEW0002
  6
Continuous
 62
     7
100
AcDbLine
 10
-62.56327056884766
 20
42.60344696044922
 30
0.0
 11
-62.56327056884766
 21
51.38551330566406
 31
0.0
  0
LINE
  5
140
330
1F
100
AcDbEntity
  8
VIEW0002
  6
Continuous
 62
     7
100
AcDbLine
 10
-3.810750722885132
 20
95.71841430664062
 30
0.0
 11
-3.063868522644043
 21
95.71841430664062
 31
0.0
  0
LINE
  5
141
330
1F
100
AcDbEntity
  8
VIEW0002
  6
Continuous
 62
     7
100
AcDbLine
 10
-3.063868522644043
 20
95.06095123291016
 30
0.0
 11
-3.063868522644043
 21
95.71841430664062
 31
0.0
  0
LINE
  5
142
330
1F
100
AcDbEntity
  8
VIEW0002
  6
Continuous
 62
     7
100
AcDbLine
 10
-46.06342315673828
 20
87.7184829711914
 30
0.0
 11
-16.06372261047363
 21
87.7184829711914
 31
0.0
  0
LINE
  5
143
330
1F
100
AcDbEntity
  8
VIEW0002
  6
Continuous
 62
     7
100
AcDbLine
 10
-44.39677429199219
 20
56.0521354675293
 30
0.0
 11
-17.73037147521973
 21
56.0521354675293
 31
0.0
  0
LINE
  5
144
330
1F
100
AcDbEntity
  8
VIEW0002
  6
Continuous
 62
     7
100
AcDbLine
 10
-47.73007202148438
 20
59.38543701171875
 30
0.0
 11
-47.73007202148438
 21
86.05183410644531
 31
0.0
  0
LINE
  5
145
330
1F
100
AcDbEntity
  8
VIEW0002
  6
Continuous
 62
     7
100
AcDbLine
 10
-14.39707183837891
 20
59.38543701171875
 30
0.0
 11
-14.39707183837891
 21
86.05183410644531
 31
0.0
  0
LINE
  5
146
330
1F
100
AcDbEntity
  8
VIEW0002
  6
Continuous
 62
     7
100
AcDbLine
 10
-41.04680633544922
 20
67.67182159423828
 30
0.0
 11
-41.04680633544922
 21
72.71863555908203
 31
0.0
  0
LINE
  5
147
330
1F
100
AcDbEntity
  8
VIEW0002
  6
Continuous
 62
     7
100
AcDbLine
 10
-39.88014984130859
 20
65.73536682128906
 30
0.0
 11
-39.88014984130859
 21
66.80580139160156
 31
0.0
  0
LINE
  5
148
330
1F
100
AcDbEntity
  8
VIEW0002
  6
Continuous
 62
     7
100
AcDbLine
 10
-38.04683685302734
 20
63.90205383300781
 30
0.0
 11
-36.97640609741211
 21
63.90205383300781
 31
0.0
  0
LINE
  5
149
330
1F
100
AcDbEntity
  8
VIEW0002
  6
Continuous
 62
     7
100
AcDbLine
 10
-39.96347954031911
 20
66.95013719321108
 30
0.0
 11
-40.96347353006402
 21
67.52748400274065
 31
0.0
  0
LINE
  5
14A
330
1F
100
AcDbEntity
  8
VIEW0002
  6
Continuous
 62
     7
100
AcDbLine
 10
-36.28028731955349
 20
62.86301094133717
 30
0.0
 11
-36.83206421296739
 21
63.81871653801932
 31
0.0
  0
LINE
  5
14B
330
1F
100
AcDbEntity
  8
VIEW0002
  6
Continuous
 62
     7
100
AcDbLine
 10
-36.16423077913603
 20
63.06198501425487
 30
0.0
 11
-36.71660276533137
 21
64.0187213418512
 31
0.0
  0
LINE
  5
14C
330
1F
100
AcDbEntity
  8
VIEW0002
  6
Continuous
 62
     7
100
AcDbLine
 10
-38.04683685302734
 20
64.10205078125
 30
0.0
 11
-36.86093521118164
 21
64.10205078125
 31
0.0
  0
LINE
  5
14D
330
1F
100
AcDbEntity
  8
VIEW0002
  6
Continuous
 62
     7
100
AcDbLine
 10
-39.68015670776367
 20
65.73536682128906
 30
0.0
 11
-39.68015670776367
 21
66.92127227783203
 31
0.0
  0
LINE
  5
14E
330
1F
100
AcDbEntity
  8
VIEW0002
  6
Continuous
 62
     7
100
AcDbLine
 10
-39.76348504432833
 20
67.06561130472062
 30
0.0
 11
-40.76347903407324
 21
67.64295811425019
 31
0.0
  0
LINE
  5
14F
330
1F
100
AcDbEntity
  8
VIEW0002
  6
Continuous
 62
     7
100
AcDbLine
 10
-40.84680938720703
 20
67.78728485107422
 30
0.0
 11
-40.84680938720703
 21
72.71863555908203
 31
0.0
  0
LINE
  5
150
330
1F
100
AcDbEntity
  8
VIEW0002
  6
Continuous
 62
     7
100
AcDbLine
 10
-35.777274489604
 20
63.7254635825016
 30
0.0
 11
-36.13914812118423
 21
64.35224708706836
 31
0.0
  0
LINE
  5
151
330
1F
100
AcDbEntity
  8
VIEW0002
  6
Continuous
 62
     7
100
AcDbLine
 10
-38.0466423034668
 20
64.76890563964844
 30
0.0
 11
-36.8608283996582
 21
64.76890563964844
 31
0.0
  0
LINE
  5
152
330
1F
100
AcDbEntity
  8
VIEW0002
  6
Continuous
 62
     7
100
AcDbLine
 10
-39.01330184936523
 20
65.7355728149414
 30
0.0
 11
-39.01330184936523
 21
66.92137908935547
 31
0.0
  0
LINE
  5
153
330
1F
100
AcDbEntity
  8
VIEW0002
  6
Continuous
 62
     7
100
AcDbLine
 10
-39.42996040924771
 20
67.64306402605493
 30
0.0
 11
-40.09662527149412
 21
68.02796317064042
 31
0.0
  0
LINE
  5
154
330
1F
100
AcDbEntity
  8
VIEW0002
  6
Continuous
 62
     7
100
AcDbLine
 10
-40.17995834350586
 20
68.17229461669922
 30
0.0
 11
-40.17995834350586
 21
72.71863555908203
 31
0.0
  0
LINE
  5
155
330
1F
100
AcDbEntity
  8
VIEW0002
  6
Continuous
 62
     7
100
AcDbLine
 10
-21.0803394317627
 20
67.67182159423828
 30
0.0
 11
-21.0803394317627
 21
72.71863555908203
 31
0.0
  0
LINE
  5
156
330
1F
100
AcDbEntity
  8
VIEW0002
  6
Continuous
 62
     7
100
AcDbLine
 10
-24.08030891418457
 20
63.90205383300781
 30
0.0
 11
-25.1507396697998
 21
63.90205383300781
 31
0.0
  0
LINE
  5
157
330
1F
100
AcDbEntity
  8
VIEW0002
  6
Continuous
 62
     7
100
AcDbLine
 10
-22.24699401855469
 20
65.73536682128906
 30
0.0
 11
-22.24699401855469
 21
66.80580139160156
 31
0.0
  0
LINE
  5
158
330
1F
100
AcDbEntity
  8
VIEW0002
  6
Continuous
 62
     7
100
AcDbLine
 10
-25.29508235898139
 20
63.81872739634915
 30
0.0
 11
-25.84686497444125
 21
62.86301188879283
 31
0.0
  0
LINE
  5
159
330
1F
100
AcDbEntity
  8
VIEW0002
  6
Continuous
 62
     7
100
AcDbLine
 10
-21.16367036964817
 20
67.52747909206036
 30
0.0
 11
-22.16365940395598
 21
66.95013514355378
 31
0.0
  0
LINE
  5
15A
330
1F
100
AcDbEntity
  8
VIEW0002
  6
Continuous
 62
     7
100
AcDbLine
 10
-21.28033447265625
 20
67.78728485107422
 30
0.0
 11
-21.28033447265625
 21
72.71863555908203
 31
0.0
  0
LINE
  5
15B
330
1F
100
AcDbEntity
  8
VIEW0002
  6
Continuous
 62
     7
100
AcDbLine
 10
-21.36366626191501
 20
67.64294799259653
 30
0.0
 11
-22.36365942575372
 21
67.06560165990412
 31
0.0
  0
LINE
  5
15C
330
1F
100
AcDbEntity
  8
VIEW0002
  6
Continuous
 62
     7
100
AcDbLine
 10
-22.44698905944824
 20
65.73536682128906
 30
0.0
 11
-22.44698905944824
 21
66.92127227783203
 31
0.0
  0
LINE
  5
15D
330
1F
100
AcDbEntity
  8
VIEW0002
  6
Continuous
 62
     7
100
AcDbLine
 10
-24.08030891418457
 20
64.10205078125
 30
0.0
 11
-25.26621055603027
 21
64.10205078125
 31
0.0
  0
LINE
  5
15E
330
1F
100
AcDbEntity
  8
VIEW0002
  6
Continuous
 62
     7
100
AcDbLine
 10
-25.4105446522681
 20
64.01871947391868
 30
0.0
 11
-25.96291282376612
 21
63.06198975357179
 31
0.0
  0
LINE
  5
15F
330
1F
100
AcDbEntity
  8
VIEW0002
  6
Continuous
 62
     7
100
AcDbLine
 10
-21.94718742370605
 20
68.17230224609375
 30
0.0
 11
-21.94718742370605
 21
72.71863555908203
 31
0.0
  0
LINE
  5
160
330
1F
100
AcDbEntity
  8
VIEW0002
  6
Continuous
 62
     7
100
AcDbLine
 10
-22.03051862821806
 20
68.02795825996013
 30
0.0
 11
-22.69718349046448
 21
67.64305911537464
 31
0.0
  0
LINE
  5
161
330
1F
100
AcDbEntity
  8
VIEW0002
  6
Continuous
 62
     7
100
AcDbLine
 10
-23.11384391784668
 20
65.7355728149414
 30
0.0
 11
-23.11384391784668
 21
66.92137908935547
 31
0.0
  0
LINE
  5
162
330
1F
100
AcDbEntity
  8
VIEW0002
  6
Continuous
 62
     7
100
AcDbLine
 10
-24.08050346374512
 20
64.76890563964844
 30
0.0
 11
-25.26631736755371
 21
64.76890563964844
 31
0.0
  0
LINE
  5
163
330
1F
100
AcDbEntity
  8
VIEW0002
  6
Continuous
 62
     7
100
AcDbLine
 10
-25.98800067722713
 20
64.35224601634798
 30
0.0
 11
-26.34987049411004
 21
63.72546911903066
 31
0.0
  0
LINE
  5
164
330
1F
100
AcDbEntity
  8
VIEW0002
  6
Continuous
 62
     7
100
AcDbLine
 10
-18.8084790850932
 20
81.66964245847373
 30
0.0
 11
-18.73036483505482
 21
72.71863594727488
 31
0.0
  0
LINE
  5
165
330
1F
100
AcDbEntity
  8
VIEW0002
  6
Continuous
 62
     7
100
AcDbLine
 10
-18.7303587518173
 20
72.71863398291441
 30
0.0
 11
-18.80847306843386
 21
63.76761984261152
 31
0.0
  0
LINE
  5
166
330
1F
100
AcDbEntity
  8
VIEW0002
  6
Continuous
 62
     7
100
AcDbLine
 10
-31.06357189012845
 20
62.73540689891047
 30
0.0
 11
-36.13740670182792
 21
62.77968558428945
 31
0.0
  0
LINE
  5
167
330
1F
100
AcDbEntity
  8
VIEW0002
  6
Continuous
 62
     7
100
AcDbLine
 10
-31.06357193366021
 20
62.9353923888808
 30
0.0
 11
-36.02134709306858
 21
62.9786582370233
 31
0.0
  0
LINE
  5
168
330
1F
100
AcDbEntity
  8
VIEW0002
  6
Continuous
 62
     7
100
AcDbLine
 10
-31.06357186663664
 20
63.602253565238
 30
0.0
 11
-35.634393147953
 21
63.64214251806167
 31
0.0
  0
LINE
  5
169
330
1F
100
AcDbEntity
  8
VIEW0002
  6
Continuous
 62
     7
100
AcDbLine
 10
-26.49274928332174
 20
63.64214021155072
 30
0.0
 11
-31.06357056463809
 21
63.60225125872706
 31
0.0
  0
LINE
  5
16A
330
1F
100
AcDbEntity
  8
VIEW0002
  6
Continuous
 62
     7
100
AcDbLine
 10
-26.10578971624541
 20
62.97866742410203
 30
0.0
 11
-31.06356869020578
 21
62.93540154267044
 31
0.0
  0
LINE
  5
16B
330
1F
100
AcDbEntity
  8
VIEW0002
  6
Continuous
 62
     7
100
AcDbLine
 10
-25.98974717310286
 20
62.77968317791122
 30
0.0
 11
-31.0635743556983
 21
62.73540455911044
 31
0.0
  0
LINE
  5
16C
330
1F
100
AcDbEntity
  8
VIEW0002
  6
Continuous
 62
     7
100
AcDbLine
 10
-21.0803394317627
 20
77.76544952392578
 30
0.0
 11
-21.0803394317627
 21
72.71863555908203
 31
0.0
  0
LINE
  5
16D
330
1F
100
AcDbEntity
  8
VIEW0002
  6
Continuous
 62
     7
100
AcDbLine
 10
-24.08030891418457
 20
81.53520965576172
 30
0.0
 11
-25.1507396697998
 21
81.53520965576172
 31
0.0
  0
LINE
  5
16E
330
1F
100
AcDbEntity
  8
VIEW0002
  6
Continuous
 62
     7
100
AcDbLine
 10
-22.24699401855469
 20
79.70189666748047
 30
0.0
 11
-22.24699401855469
 21
78.6314697265625
 31
0.0
  0
LINE
  5
16F
330
1F
100
AcDbEntity
  8
VIEW0002
  6
Continuous
 62
     7
100
AcDbLine
 10
-25.29508121527973
 20
81.61854741250364
 30
0.0
 11
-25.84686573808825
 21
82.5742662236847
 31
0.0
  0
LINE
  5
170
330
1F
100
AcDbEntity
  8
VIEW0002
  6
Continuous
 62
     7
100
AcDbLine
 10
-21.16367424660466
 20
77.90979289000487
 30
0.0
 11
-22.16365832547538
 21
78.48713397748847
 31
0.0
  0
LINE
  5
171
330
1F
100
AcDbEntity
  8
VIEW0002
  6
Continuous
 62
     7
100
AcDbLine
 10
-21.28033447265625
 20
77.64998626708984
 30
0.0
 11
-21.28033447265625
 21
72.71863555908203
 31
0.0
  0
LINE
  5
172
330
1F
100
AcDbEntity
  8
VIEW0002
  6
Continuous
 62
     7
100
AcDbLine
 10
-21.36367013887151
 20
77.7943239894687
 30
0.0
 11
-22.36366082499168
 21
78.37166889164962
 31
0.0
  0
LINE
  5
173
330
1F
100
AcDbEntity
  8
VIEW0002
  6
Continuous
 62
     7
100
AcDbLine
 10
-22.44698905944824
 20
79.70189666748047
 30
0.0
 11
-22.44698905944824
 21
78.51599884033203
 31
0.0
  0
LINE
  5
174
330
1F
100
AcDbEntity
  8
VIEW0002
  6
Continuous
 62
     7
100
AcDbLine
 10
-24.08030891418457
 20
81.33522033691406
 30
0.0
 11
-25.26621055603027
 21
81.33522033691406
 31
0.0
  0
LINE
  5
175
330
1F
100
AcDbEntity
  8
VIEW0002
  6
Continuous
 62
     7
100
AcDbLine
 10
-25.41054706772747
 20
81.4185576848845
 30
0.0
 11
-25.96291523922549
 21
82.37528740523139
 31
0.0
  0
LINE
  5
176
330
1F
100
AcDbEntity
  8
VIEW0002
  6
Continuous
 62
     7
100
AcDbLine
 10
-21.94718742370605
 20
77.26496887207031
 30
0.0
 11
-21.94718742370605
 21
72.71863555908203
 31
0.0
  0
LINE
  5
177
330
1F
100
AcDbEntity
  8
VIEW0002
  6
Continuous
 62
     7
100
AcDbLine
 10
-22.03052250517456
 20
77.4093137221051
 30
0.0
 11
-22.69718736742097
 21
77.79421286669059
 31
0.0
  0
LINE
  5
178
330
1F
100
AcDbEntity
  8
VIEW0002
  6
Continuous
 62
     7
100
AcDbLine
 10
-23.11384391784668
 20
79.70170593261719
 30
0.0
 11
-23.11384391784668
 21
78.5158920288086
 31
0.0
  0
LINE
  5
179
330
1F
100
AcDbEntity
  8
VIEW0002
  6
Continuous
 62
     7
100
AcDbLine
 10
-24.08050346374512
 20
80.66836547851562
 30
0.0
 11
-25.26631736755371
 21
80.66836547851562
 31
0.0
  0
LINE
  5
17A
330
1F
100
AcDbEntity
  8
VIEW0002
  6
Continuous
 62
     7
100
AcDbLine
 10
-25.98800144087413
 20
81.08503209612954
 30
0.0
 11
-26.34987125775704
 21
81.71180899344685
 31
0.0
  0
LINE
  5
17B
330
1F
100
AcDbEntity
  8
VIEW0002
  6
Continuous
 62
     7
100
AcDbLine
 10
-43.31866906800956
 20
81.66964481491831
 30
0.0
 11
-43.39678331804794
 21
72.71863830371946
 31
0.0
  0
LINE
  5
17C
330
1F
100
AcDbEntity
  8
VIEW0002
  6
Continuous
 62
     7
100
AcDbLine
 10
-26.49274895520134
 20
81.7951259540202
 30
0.0
 11
-31.0635740510697
 21
81.83501494013295
 31
0.0
  0
LINE
  5
17D
330
1F
100
AcDbEntity
  8
VIEW0002
  6
Continuous
 62
     7
100
AcDbLine
 10
-26.10578932154683
 20
82.4586063705729
 30
0.0
 11
-31.06357401733522
 21
82.50187230193814
 31
0.0
  0
LINE
  5
17E
330
1F
100
AcDbEntity
  8
VIEW0002
  6
Continuous
 62
     7
100
AcDbLine
 10
-25.98974487112827
 20
82.65759060011918
 30
0.0
 11
-31.06357205372371
 21
82.70186921891997
 31
0.0
  0
LINE
  5
17F
330
1F
100
AcDbEntity
  8
VIEW0002
  6
Continuous
 62
     7
100
AcDbLine
 10
-41.04680633544922
 20
77.76544952392578
 30
0.0
 11
-41.04680633544922
 21
72.71863555908203
 31
0.0
  0
LINE
  5
180
330
1F
100
AcDbEntity
  8
VIEW0002
  6
Continuous
 62
     7
100
AcDbLine
 10
-39.88014984130859
 20
79.70189666748047
 30
0.0
 11
-39.88014984130859
 21
78.6314697265625
 31
0.0
  0
LINE
  5
181
330
1F
100
AcDbEntity
  8
VIEW0002
  6
Continuous
 62
     7
100
AcDbLine
 10
-38.04683685302734
 20
81.53520965576172
 30
0.0
 11
-36.97640609741211
 21
81.53520965576172
 31
0.0
  0
LINE
  5
182
330
1F
100
AcDbEntity
  8
VIEW0002
  6
Continuous
 62
     7
100
AcDbLine
 10
-39.96348649826248
 20
78.48713734298772
 30
0.0
 11
-40.96347945562465
 21
77.9097911295046
 31
0.0
  0
LINE
  5
183
330
1F
100
AcDbEntity
  8
VIEW0002
  6
Continuous
 62
     7
100
AcDbLine
 10
-36.28028470957608
 20
82.57426170032797
 30
0.0
 11
-36.83206541768729
 21
81.61854949639635
 31
0.0
  0
LINE
  5
184
330
1F
100
AcDbEntity
  8
VIEW0002
  6
Continuous
 62
     7
100
AcDbLine
 10
-36.16423495290255
 20
82.37528713917374
 30
0.0
 11
-36.71660503174924
 21
81.41855411520211
 31
0.0
  0
LINE
  5
185
330
1F
100
AcDbEntity
  8
VIEW0002
  6
Continuous
 62
     7
100
AcDbLine
 10
-38.04683685302734
 20
81.33522033691406
 30
0.0
 11
-36.86093521118164
 21
81.33522033691406
 31
0.0
  0
LINE
  5
186
330
1F
100
AcDbEntity
  8
VIEW0002
  6
Continuous
 62
     7
100
AcDbLine
 10
-39.68015670776367
 20
79.70189666748047
 30
0.0
 11
-39.68015670776367
 21
78.51599884033203
 31
0.0
  0
LINE
  5
187
330
1F
100
AcDbEntity
  8
VIEW0002
  6
Continuous
 62
     7
100
AcDbLine
 10
-39.76348679129832
 20
78.37166183520209
 30
0.0
 11
-40.76347520617649
 21
77.79431824432338
 31
0.0
  0
LINE
  5
188
330
1F
100
AcDbEntity
  8
VIEW0002
  6
Continuous
 62
     7
100
AcDbLine
 10
-40.84680938720703
 20
77.64998626708984
 30
0.0
 11
-40.84680938720703
 21
72.71863555908203
 31
0.0
  0
LINE
  5
189
330
1F
100
AcDbEntity
  8
VIEW0002
  6
Continuous
 62
     7
100
AcDbLine
 10
-35.77727728255864
 20
81.71180777371485
 30
0.0
 11
-36.13914709944154
 21
81.08503087639754
 31
0.0
  0
LINE
  5
18A
330
1F
100
AcDbEntity
  8
VIEW0002
  6
Continuous
 62
     7
100
AcDbLine
 10
-38.0466423034668
 20
80.66836547851562
 30
0.0
 11
-36.8608283996582
 21
80.66836547851562
 31
0.0
  0
LINE
  5
18B
330
1F
100
AcDbEntity
  8
VIEW0002
  6
Continuous
 62
     7
100
AcDbLine
 10
-39.01330184936523
 20
79.70170593261719
 30
0.0
 11
-39.01330184936523
 21
78.5158920288086
 31
0.0
  0
LINE
  5
18C
330
1F
100
AcDbEntity
  8
VIEW0002
  6
Continuous
 62
     7
100
AcDbLine
 10
-39.42996612833179
 20
77.79421122539961
 30
0.0
 11
-40.09662665457076
 21
77.40931458420924
 31
0.0
  0
LINE
  5
18D
330
1F
100
AcDbEntity
  8
VIEW0002
  6
Continuous
 62
     7
100
AcDbLine
 10
-40.17995834350586
 20
77.26497650146484
 30
0.0
 11
-40.17995834350586
 21
72.71863555908203
 31
0.0
  0
LINE
  5
18E
330
1F
100
AcDbEntity
  8
VIEW0002
  6
Continuous
 62
     7
100
AcDbLine
 10
-43.39678177218143
 20
72.71863169304801
 30
0.0
 11
-43.31866752214304
 21
63.76762518184916
 31
0.0
  0
LINE
  5
18F
330
1F
100
AcDbEntity
  8
VIEW0002
  6
Continuous
 62
     7
100
AcDbLine
 10
-31.06357419210304
 20
82.70186687911992
 30
0.0
 11
-36.13740137469848
 21
82.65758826031913
 31
0.0
  0
LINE
  5
190
330
1F
100
AcDbEntity
  8
VIEW0002
  6
Continuous
 62
     7
100
AcDbLine
 10
-31.06357229506971
 20
82.50187759124212
 30
0.0
 11
-36.02134554720206
 21
82.45861175974416
 31
0.0
  0
LINE
  5
191
330
1F
100
AcDbEntity
  8
VIEW0002
  6
Continuous
 62
     7
100
AcDbLine
 10
-31.06357226133523
 20
81.83502022943694
 30
0.0
 11
-35.63439163537557
 21
81.79513129325781
 31
0.0
  0
LINE
  5
192
330
1F
100
AcDbEntity
  8
VIEW0002
  6
Continuous
 62
     7
100
AcDbLine
 10
-31.06357009753058
 20
61.47031736121626
 30
0.0
 11
-35.89421005287623
 21
61.51247371724674
 31
0.0
  0
LINE
  5
193
330
1F
100
AcDbEntity
  8
VIEW0002
  6
Continuous
 62
     7
100
AcDbLine
 10
-31.06357199458922
 20
61.08541884139968
 30
0.0
 11
-35.51167723035065
 21
61.12423686752318
 31
0.0
  0
LINE
  5
194
330
1F
100
AcDbEntity
  8
VIEW0002
  6
Continuous
 62
     7
100
AcDbLine
 10
-31.06357127141459
 20
60.38542575083308
 30
0.0
 11
-40.01458159716546
 21
60.46354003416054
 31
0.0
  0
LINE
  5
195
330
1F
100
AcDbEntity
  8
VIEW0002
  6
Continuous
 62
     7
100
AcDbLine
 10
-22.11256234668669
 20
84.97373608366988
 30
0.0
 11
-31.06357267243757
 21
85.05185036699736
 31
0.0
  0
LINE
  5
196
330
1F
100
AcDbEntity
  8
VIEW0002
  6
Continuous
 62
     7
100
AcDbLine
 10
-31.06357357338918
 20
85.05184802719731
 30
0.0
 11
-40.01458389914006
 21
84.97373374386984
 31
0.0
  0
LINE
  5
197
330
1F
100
AcDbEntity
  8
VIEW0002
  6
Continuous
 62
     7
100
AcDbLine
 10
-22.11256274138528
 20
60.46353771100505
 30
0.0
 11
-31.06357497441216
 21
60.38542341103304
 31
0.0
  0
LINE
  5
198
330
1F
100
AcDbEntity
  8
VIEW0002
  6
Continuous
 62
     7
100
AcDbLine
 10
-42.31192398071289
 20
67.8922348022461
 30
0.0
 11
-42.31192398071289
 21
77.54503631591797
 31
0.0
  0
LINE
  5
199
330
1F
100
AcDbEntity
  8
VIEW0002
  6
Continuous
 62
     7
100
AcDbLine
 10
-42.69679260253906
 20
68.27454376220703
 30
0.0
 11
-42.69679260253906
 21
77.16272735595703
 31
0.0
  0
LINE
  5
19A
330
1F
100
AcDbEntity
  8
VIEW0002
  6
Continuous
 62
     7
100
AcDbLine
 10
-42.49127216799018
 20
77.47058389174106
 30
0.0
 11
-42.05132969759882
 21
77.65323050102998
 31
0.0
  0
LINE
  5
19B
330
1F
100
AcDbEntity
  8
VIEW0002
  6
Continuous
 62
     7
100
AcDbLine
 10
-42.49127152011349
 20
67.96669104169622
 30
0.0
 11
-42.05132993050724
 21
67.78404479807422
 31
0.0
  0
LINE
  5
19C
330
1F
100
AcDbEntity
  8
VIEW0002
  6
Continuous
 62
     7
100
AcDbLine
 10
-19.63587163649504
 20
67.96669194214705
 30
0.0
 11
-20.07581366649384
 21
67.78404551569159
 31
0.0
  0
LINE
  5
19D
330
1F
100
AcDbEntity
  8
VIEW0002
  6
Continuous
 62
     7
100
AcDbLine
 10
-19.81521987915039
 20
67.8922348022461
 30
0.0
 11
-19.81521987915039
 21
77.54503631591797
 31
0.0
  0
LINE
  5
19E
330
1F
100
AcDbEntity
  8
VIEW0002
  6
Continuous
 62
     7
100
AcDbLine
 10
-19.43034744262695
 20
68.27454376220703
 30
0.0
 11
-19.43034744262695
 21
77.16272735595703
 31
0.0
  0
LINE
  5
19F
330
1F
100
AcDbEntity
  8
VIEW0002
  6
Continuous
 62
     7
100
AcDbLine
 10
-19.63587157050096
 20
77.47057910248289
 30
0.0
 11
-20.07581668324763
 21
77.65322680877262
 31
0.0
  0
LINE
  5
1A0
330
1F
100
AcDbEntity
  8
VIEW0002
  6
Continuous
 62
     7
100
AcDbLine
 10
-35.81559058800698
 20
61.32728786882871
 30
0.0
 11
-35.99723707648864
 21
61.75513818641272
 31
0.0
  0
LINE
  5
1A1
330
1F
100
AcDbEntity
  8
VIEW0002
  6
Continuous
 62
     7
100
AcDbLine
 10
-31.06357042646815
 20
61.47031507134986
 30
0.0
 11
-26.23293237839851
 21
61.5124714107358
 31
0.0
  0
LINE
  5
1A2
330
1F
100
AcDbEntity
  8
VIEW0002
  6
Continuous
 62
     7
100
AcDbLine
 10
-31.06356852940951
 20
61.08541655153328
 30
0.0
 11
-26.61546901547609
 21
61.12423452772314
 31
0.0
  0
LINE
  5
1A3
330
1F
100
AcDbEntity
  8
VIEW0002
  6
Continuous
 62
     7
100
AcDbLine
 10
-26.31155153315124
 20
61.32728809879568
 30
0.0
 11
-26.12990653543256
 21
61.75513490503511
 31
0.0
  0
LINE
  5
1A4
330
1F
100
AcDbEntity
  8
VIEW0002
  6
Continuous
 62
     7
100
AcDbLine
 10
-31.06357045894008
 20
83.96695261890666
 30
0.0
 11
-35.89421232156172
 21
83.92479624623164
 31
0.0
  0
LINE
  5
1A5
330
1F
100
AcDbEntity
  8
VIEW0002
  6
Continuous
 62
     7
100
AcDbLine
 10
-31.06357238928781
 20
84.35185495327526
 30
0.0
 11
-35.51167953232525
 21
84.31303691050722
 31
0.0
  0
LINE
  5
1A6
330
1F
100
AcDbEntity
  8
VIEW0002
  6
Continuous
 62
     7
100
AcDbLine
 10
-35.81558719537541
 20
84.10998048078349
 30
0.0
 11
-35.99723070233111
 21
83.68213718588868
 31
0.0
  0
LINE
  5
1A7
330
1F
100
AcDbEntity
  8
VIEW0002
  6
Continuous
 62
     7
100
AcDbLine
 10
-31.06357578688667
 20
83.96695495870671
 30
0.0
 11
-26.23293010971301
 21
83.92479855274259
 31
0.0
  0
LINE
  5
1A8
330
1F
100
AcDbEntity
  8
VIEW0002
  6
Continuous
 62
     7
100
AcDbLine
 10
-31.06357385653894
 20
84.3518572930753
 30
0.0
 11
-26.61546862077751
 21
84.3130392669518
 31
0.0
  0
LINE
  5
1A9
330
1F
100
AcDbEntity
  8
VIEW0002
  6
Continuous
 62
     7
100
AcDbLine
 10
-26.31155553870963
 20
84.10998413485186
 30
0.0
 11
-26.12990905022796
 21
83.68213381726783
 31
0.0
  0
LINE
  5
1AA
330
1F
100
AcDbEntity
  8
VIEW0002
  6
Continuous
 62
     7
100
AcDbLine
 10
39.32758274713014
 20
-68.8206952043394
 30
0.0
 11
39.41855410320917
 21
-74.03244098223615
 31
0.0
  0
LINE
  5
1AB
330
1F
100
AcDbEntity
  8
VIEW0002
  6
Continuous
 62
     7
100
AcDbLine
 10
71.21046481830051
 20
-68.80394751999782
 30
0.0
 11
71.11920106199497
 21
-74.03244489654722
 31
0.0
  0
LINE
  5
1AC
330
1F
100
AcDbEntity
  8
VIEW0002
  6
Continuous
 62
     7
100
AcDbLine
 10
68.43541717529297
 20
-75.34831237792969
 30
0.0
 11
56.10220336914062
 21
-75.34831237792969
 31
0.0
  0
LINE
  5
1AD
330
1F
100
AcDbEntity
  8
VIEW0002
  6
Continuous
 62
     7
100
AcDbLine
 10
68.43541717529297
 20
-75.01498413085938
 30
0.0
 11
68.43541717529297
 21
-75.34831237792969
 31
0.0
  0
LINE
  5
1AE
330
1F
100
AcDbEntity
  8
VIEW0002
  6
Continuous
 62
     7
100
AcDbLine
 10
43.76899337768555
 20
-75.34831237792969
 30
0.0
 11
56.10220336914062
 21
-75.34831237792969
 31
0.0
  0
LINE
  5
1AF
330
1F
100
AcDbEntity
  8
VIEW0002
  6
Continuous
 62
     7
100
AcDbLine
 10
43.76899337768555
 20
-75.01498413085938
 30
0.0
 11
43.76899337768555
 21
-75.34831237792969
 31
0.0
  0
LINE
  5
1B0
330
1F
100
AcDbEntity
  8
VIEW0002
  6
Continuous
 62
     7
100
AcDbLine
 10
65.55210876464844
 20
-84.014892578125
 30
0.0
 11
56.10220336914062
 21
-84.014892578125
 31
0.0
  0
LINE
  5
1B1
330
1F
100
AcDbEntity
  8
VIEW0002
  6
Continuous
 62
     7
100
AcDbLine
 10
65.89353942871094
 20
-83.68156433105469
 30
0.0
 11
56.10220336914062
 21
-83.68156433105469
 31
0.0
  0
LINE
  5
1B2
330
1F
100
AcDbEntity
  8
VIEW0002
  6
Continuous
 62
     7
100
AcDbLine
 10
65.8957462929843
 20
-83.67125622427378
 30
0.0
 11
65.96293636997859
 21
-81.43158696887134
 31
0.0
  0
LINE
  5
1B3
330
1F
100
AcDbEntity
  8
VIEW0002
  6
Continuous
 62
     7
100
AcDbLine
 10
64.79628175734788
 20
-81.4315838425738
 30
0.0
 11
64.72909168035358
 21
-83.67125309797622
 31
0.0
  0
LINE
  5
1B4
330
1F
100
AcDbEntity
  8
VIEW0002
  6
Continuous
 62
     7
100
AcDbLine
 10
61.80921625936121
 20
-83.67568261665026
 30
0.0
 11
61.84808510488444
 21
-81.43158866347561
 31
0.0
  0
LINE
  5
1B5
330
1F
100
AcDbEntity
  8
VIEW0002
  6
Continuous
 62
     7
100
AcDbLine
 10
61.17451848599692
 20
-81.43158161135821
 30
0.0
 11
61.13554684709471
 21
-83.6816103433282
 31
0.0
  0
LINE
  5
1B6
330
1F
100
AcDbEntity
  8
VIEW0002
  6
Continuous
 62
     7
100
AcDbLine
 10
61.13554423171698
 20
-83.68160995180088
 30
0.0
 11
60.79051549978747
 21
-84.01488998979055
 31
0.0
  0
LINE
  5
1B7
330
1F
100
AcDbEntity
  8
VIEW0002
  6
Continuous
 62
     7
100
AcDbLine
 10
61.47000940018889
 20
-84.0148920165971
 30
0.0
 11
61.80921464055346
 21
-83.67568674763966
 31
0.0
  0
LINE
  5
1B8
330
1F
100
AcDbEntity
  8
VIEW0002
  6
Continuous
 62
     7
100
AcDbLine
 10
64.38545257119596
 20
-84.0148939167691
 30
0.0
 11
64.7290943572352
 21
-83.67125210176302
 31
0.0
  0
LINE
  5
1B9
330
1F
100
AcDbEntity
  8
VIEW0002
  6
Continuous
 62
     7
100
AcDbLine
 10
65.55211105545625
 20
-84.01489251889898
 30
0.0
 11
65.8957487953982
 21
-83.67125474999051
 31
0.0
  0
LINE
  5
1BA
330
1F
100
AcDbEntity
  8
VIEW0002
  6
Continuous
 62
     7
100
AcDbLine
 10
56.10220336914062
 20
-75.01498413085938
 30
0.0
 11
70.11936950683594
 21
-75.01498413085938
 31
0.0
  0
LINE
  5
1BB
330
1F
100
AcDbEntity
  8
VIEW0002
  6
Continuous
 62
     7
100
AcDbLine
 10
46.65229415893555
 20
-84.014892578125
 30
0.0
 11
56.10220336914062
 21
-84.014892578125
 31
0.0
  0
LINE
  5
1BC
330
1F
100
AcDbEntity
  8
VIEW0002
  6
Continuous
 62
     7
100
AcDbLine
 10
46.31086730957031
 20
-83.68156433105469
 30
0.0
 11
56.10220336914062
 21
-83.68156433105469
 31
0.0
  0
LINE
  5
1BD
330
1F
100
AcDbEntity
  8
VIEW0002
  6
Continuous
 62
     7
100
AcDbLine
 10
46.30866512153379
 20
-83.67125404616881
 30
0.0
 11
46.24147504453948
 21
-81.43158479076638
 31
0.0
  0
LINE
  5
1BE
330
1F
100
AcDbEntity
  8
VIEW0002
  6
Continuous
 62
     7
100
AcDbLine
 10
47.40812203120658
 20
-81.43158189324774
 30
0.0
 11
47.47531210820088
 21
-83.67125114865017
 31
0.0
  0
LINE
  5
1BF
330
1F
100
AcDbEntity
  8
VIEW0002
  6
Continuous
 62
     7
100
AcDbLine
 10
50.39519072203337
 20
-83.67568257709803
 30
0.0
 11
50.35632187651014
 21
-81.43158862392337
 31
0.0
  0
LINE
  5
1C0
330
1F
100
AcDbEntity
  8
VIEW0002
  6
Continuous
 62
     7
100
AcDbLine
 10
51.02988849539766
 20
-81.43158157180599
 30
0.0
 11
51.06886013429988
 21
-83.68161030377598
 31
0.0
  0
LINE
  5
1C1
330
1F
100
AcDbEntity
  8
VIEW0002
  6
Continuous
 62
     7
100
AcDbLine
 10
51.06886474357792
 20
-83.6816143689311
 30
0.0
 11
51.413891417727
 21
-84.01489241921053
 31
0.0
  0
LINE
  5
1C2
330
1F
100
AcDbEntity
  8
VIEW0002
  6
Continuous
 62
     7
100
AcDbLine
 10
50.73439415479494
 20
-84.01489202521196
 30
0.0
 11
50.395190937479
 21
-83.67568877930333
 31
0.0
  0
LINE
  5
1C3
330
1F
100
AcDbEntity
  8
VIEW0002
  6
Continuous
 62
     7
100
AcDbLine
 10
47.81895570423482
 20
-84.01489594843288
 30
0.0
 11
47.47531256949647
 21
-83.67125278472759
 31
0.0
  0
LINE
  5
1C4
330
1F
100
AcDbEntity
  8
VIEW0002
  6
Continuous
 62
     7
100
AcDbLine
 10
46.65229587127565
 20
-84.01488780706693
 30
0.0
 11
46.3086581313337
 21
-83.67125003815848
 31
0.0
  0
LINE
  5
1C5
330
1F
100
AcDbEntity
  8
VIEW0002
  6
Continuous
 62
     7
100
AcDbLine
 10
56.10220336914062
 20
-75.01498413085938
 30
0.0
 11
40.41839218139648
 21
-75.01498413085938
 31
0.0
  0
LINE
  5
1C6
330
1F
100
AcDbEntity
  8
VIEW0002
  6
Continuous
 62
     7
100
AcDbLine
 10
-14.28873264966004
 20
-68.80760813419604
 30
0.0
 11
-14.37993249334776
 21
-74.03244395912736
 31
0.0
  0
LINE
  5
1C7
330
1F
100
AcDbEntity
  8
VIEW0002
  6
Continuous
 62
     7
100
AcDbLine
 10
-15.37977123260498
 20
-75.01498413085938
 30
0.0
 11
-31.0635871887207
 21
-75.01498413085938
 31
0.0
  0
LINE
  5
1C8
330
1F
100
AcDbEntity
  8
VIEW0002
  6
Continuous
 62
     7
100
AcDbLine
 10
-18.73037338256836
 20
-75.34831237792969
 30
0.0
 11
-31.0635871887207
 21
-75.34831237792969
 31
0.0
  0
LINE
  5
1C9
330
1F
100
AcDbEntity
  8
VIEW0002
  6
Continuous
 62
     7
100
AcDbLine
 10
-18.73037338256836
 20
-75.01498413085938
 30
0.0
 11
-18.73037338256836
 21
-75.34831237792969
 31
0.0
  0
LINE
  5
1CA
330
1F
100
AcDbEntity
  8
VIEW0002
  6
Continuous
 62
     7
100
AcDbLine
 10
-21.61367607116699
 20
-84.014892578125
 30
0.0
 11
-31.0635871887207
 21
-84.014892578125
 31
0.0
  0
LINE
  5
1CB
330
1F
100
AcDbEntity
  8
VIEW0002
  6
Continuous
 62
     7
100
AcDbLine
 10
-21.27004265378115
 20
-83.67125857615842
 30
0.0
 11
-21.20285234800795
 21
-81.43158169479237
 31
0.0
  0
LINE
  5
1CC
330
1F
100
AcDbEntity
  8
VIEW0002
  6
Continuous
 62
     7
100
AcDbLine
 10
-22.36950337643576
 20
-81.43158630884791
 30
0.0
 11
-22.43669345343006
 21
-83.67125556425033
 31
0.0
  0
LINE
  5
1CD
330
1F
100
AcDbEntity
  8
VIEW0002
  6
Continuous
 62
     7
100
AcDbLine
 10
-25.35657134715479
 20
-83.67568248901873
 30
0.0
 11
-25.31770250163157
 21
-81.43158853584407
 31
0.0
  0
LINE
  5
1CE
330
1F
100
AcDbEntity
  8
VIEW0002
  6
Continuous
 62
     7
100
AcDbLine
 10
-25.99126912051909
 20
-81.43158148372667
 30
0.0
 11
-26.0302407594213
 21
-83.68161021569667
 31
0.0
  0
LINE
  5
1CF
330
1F
100
AcDbEntity
  8
VIEW0002
  6
Continuous
 62
     7
100
AcDbLine
 10
-26.03024179592746
 20
-83.68161091658467
 30
0.0
 11
-26.37526847007654
 21
-84.0148889668641
 31
0.0
  0
LINE
  5
1D0
330
1F
100
AcDbEntity
  8
VIEW0002
  6
Continuous
 62
     7
100
AcDbLine
 10
-25.69577416095581
 20
-84.01488962121391
 30
0.0
 11
-25.35657094363987
 21
-83.67568637530528
 31
0.0
  0
LINE
  5
1D1
330
1F
100
AcDbEntity
  8
VIEW0002
  6
Continuous
 62
     7
100
AcDbLine
 10
-22.78033436169648
 20
-84.01489489313391
 30
0.0
 11
-22.43669122695814
 21
-83.67125172942863
 31
0.0
  0
LINE
  5
1D2
330
1F
100
AcDbEntity
  8
VIEW0002
  6
Continuous
 62
     7
100
AcDbLine
 10
-21.61367992353369
 20
-84.0148921465648
 30
0.0
 11
-21.27003678879536
 21
-83.67124898285951
 31
0.0
  0
LINE
  5
1D3
330
1F
100
AcDbEntity
  8
VIEW0002
  6
Continuous
 62
     7
100
AcDbLine
 10
-47.8384406517523
 20
-68.80761009320297
 30
0.0
 11
-47.74724080806458
 21
-74.0324459181343
 31
0.0
  0
LINE
  5
1D4
330
1F
100
AcDbEntity
  8
VIEW0002
  6
Continuous
 62
     7
100
AcDbLine
 10
-46.74740219116211
 20
-75.01498413085938
 30
0.0
 11
-31.0635871887207
 21
-75.01498413085938
 31
0.0
  0
LINE
  5
1D5
330
1F
100
AcDbEntity
  8
VIEW0002
  6
Continuous
 62
     7
100
AcDbLine
 10
-43.39680099487305
 20
-75.34831237792969
 30
0.0
 11
-31.0635871887207
 21
-75.34831237792969
 31
0.0
  0
LINE
  5
1D6
330
1F
100
AcDbEntity
  8
VIEW0002
  6
Continuous
 62
     7
100
AcDbLine
 10
-43.39680099487305
 20
-75.01498413085938
 30
0.0
 11
-43.39680099487305
 21
-75.34831237792969
 31
0.0
  0
LINE
  5
1D7
330
1F
100
AcDbEntity
  8
VIEW0002
  6
Continuous
 62
     7
100
AcDbLine
 10
-40.51349639892578
 20
-84.014892578125
 30
0.0
 11
-31.0635871887207
 21
-84.014892578125
 31
0.0
  0
LINE
  5
1D8
330
1F
100
AcDbEntity
  8
VIEW0002
  6
Continuous
 62
     7
100
AcDbLine
 10
-40.85713145119527
 20
-83.67125192306307
 30
0.0
 11
-40.92432152818957
 21
-81.43158266766063
 31
0.0
  0
LINE
  5
1D9
330
1F
100
AcDbEntity
  8
VIEW0002
  6
Continuous
 62
     7
100
AcDbLine
 10
-39.75767049976177
 20
-81.43158728171616
 30
0.0
 11
-39.69048042276746
 21
-83.6712565371186
 31
0.0
  0
LINE
  5
1DA
330
1F
100
AcDbEntity
  8
VIEW0002
  6
Continuous
 62
     7
100
AcDbLine
 10
-36.77060260567042
 20
-83.67568280382345
 30
0.0
 11
-36.80947158331881
 21
-81.43158122239842
 31
0.0
  0
LINE
  5
1DB
330
1F
100
AcDbEntity
  8
VIEW0002
  6
Continuous
 62
     7
100
AcDbLine
 10
-36.13590483230612
 20
-81.43158179853141
 30
0.0
 11
-36.09693319340391
 21
-83.6816105305014
 31
0.0
  0
LINE
  5
1DC
330
1F
100
AcDbEntity
  8
VIEW0002
  6
Continuous
 62
     7
100
AcDbLine
 10
-36.09693476903543
 20
-83.68161363771465
 30
0.0
 11
-35.7519053511791
 21
-84.01489433827439
 31
0.0
  0
LINE
  5
1DD
330
1F
100
AcDbEntity
  8
VIEW0002
  6
Continuous
 62
     7
100
AcDbLine
 10
-36.4313995215933
 20
-84.01489239754599
 30
0.0
 11
-36.77060543630743
 21
-83.67568645423896
 31
0.0
  0
LINE
  5
1DE
330
1F
100
AcDbEntity
  8
VIEW0002
  6
Continuous
 62
     7
100
AcDbLine
 10
-39.34684201825083
 20
-84.0148949720676
 30
0.0
 11
-39.69048380429007
 21
-83.67125315706151
 31
0.0
  0
LINE
  5
1DF
330
1F
100
AcDbEntity
  8
VIEW0002
  6
Continuous
 62
     7
100
AcDbLine
 10
-40.51349510771429
 20
-84.01488817940108
 30
0.0
 11
-40.85713284765625
 21
-83.67125041049263
 31
0.0
  0
LINE
  5
1E0
330
1F
100
AcDbEntity
  8
VIEW0002
  6
Continuous
 62
     7
100
AcDbLine
 10
-19.16380310058594
 20
-81.43158721923828
 30
0.0
 11
-42.96335983276367
 21
-81.43158721923828
 31
0.0
  0
LINE
  5
1E1
330
1F
100
AcDbEntity
  8
VIEW0002
  6
Continuous
 62
     7
100
AcDbLine
 10
-18.87213583751229
 20
-80.53503627895624
 30
0.0
 11
-18.73037490611289
 21
-75.43164286269155
 31
0.0
  0
LINE
  5
1E2
330
1F
100
AcDbEntity
  8
VIEW0002
  6
Continuous
 62
     7
100
AcDbLine
 10
-43.39679718017578
 20
-75.43164825439453
 30
0.0
 11
-18.73037528991699
 21
-75.43164825439453
 31
0.0
  0
LINE
  5
1E3
330
1F
100
AcDbEntity
  8
VIEW0002
  6
Continuous
 62
     7
100
AcDbLine
 10
-43.23012349835933
 20
-81.43158595474513
 30
0.0
 11
-43.24016626583833
 21
-81.07004633358542
 31
0.0
  0
LINE
  5
1E4
330
1F
100
AcDbEntity
  8
VIEW0002
  6
Continuous
 62
     7
100
AcDbLine
 10
-43.38753128051758
 20
-76.09830474853516
 30
0.0
 11
-37.50325393676758
 21
-76.09830474853516
 31
0.0
  0
LINE
  5
1E5
330
1F
100
AcDbEntity
  8
VIEW0002
  6
Continuous
 62
     7
100
AcDbLine
 10
-43.25502768051551
 20
-80.53503541716987
 30
0.0
 11
-43.39678861191491
 21
-75.43164200090516
 31
0.0
  0
LINE
  5
1E6
330
1F
100
AcDbEntity
  8
VIEW0002
  6
Continuous
 62
     7
100
AcDbLine
 10
-43.09514236450195
 20
-81.43158721923828
 30
0.0
 11
-43.23012542724609
 21
-81.43158721923828
 31
0.0
  0
LINE
  5
1E7
330
1F
100
AcDbEntity
  8
VIEW0002
  6
Continuous
 62
     7
100
AcDbLine
 10
-41.93014568316777
 20
-81.43158404732512
 30
0.0
 11
-42.07829228600369
 21
-76.0983064644862
 31
0.0
  0
LINE
  5
1E8
330
1F
100
AcDbEntity
  8
VIEW0002
  6
Continuous
 62
     7
100
AcDbLine
 10
-38.24904895473019
 20
-76.09830651313023
 30
0.0
 11
-38.16351650924442
 21
-81.43158218044857
 31
0.0
  0
LINE
  5
1E9
330
1F
100
AcDbEntity
  8
VIEW0002
  6
Continuous
 62
     7
100
AcDbLine
 10
-37.41296472518172
 20
-81.4315811146943
 30
0.0
 11
-37.5032513727431
 21
-76.09830750762465
 31
0.0
  0
LINE
  5
1EA
330
1F
100
AcDbEntity
  8
VIEW0002
  6
Continuous
 62
     7
100
AcDbLine
 10
-18.73964309692383
 20
-76.09830474853516
 30
0.0
 11
-24.6239185333252
 21
-76.09830474853516
 31
0.0
  0
LINE
  5
1EB
330
1F
100
AcDbEntity
  8
VIEW0002
  6
Continuous
 62
     7
100
AcDbLine
 10
-20.19702736792603
 20
-81.43158464430411
 30
0.0
 11
-20.04888076509011
 21
-76.09830706146518
 31
0.0
  0
LINE
  5
1EC
330
1F
100
AcDbEntity
  8
VIEW0002
  6
Continuous
 62
     7
100
AcDbLine
 10
-23.87812554026922
 20
-76.0983083388591
 30
0.0
 11
-23.96365798575499
 21
-81.43158400617743
 31
0.0
  0
LINE
  5
1ED
330
1F
100
AcDbEntity
  8
VIEW0002
  6
Continuous
 62
     7
100
AcDbLine
 10
-24.71420482983997
 20
-81.43158250997874
 30
0.0
 11
-24.62391805313956
 21
-76.09830127460759
 31
0.0
  0
LINE
  5
1EE
330
1F
100
AcDbEntity
  8
VIEW0002
  6
Continuous
 62
     7
100
AcDbLine
 10
68.00199127197266
 20
-81.43158721923828
 30
0.0
 11
44.20243072509766
 21
-81.43158721923828
 31
0.0
  0
LINE
  5
1EF
330
1F
100
AcDbEntity
  8
VIEW0002
  6
Continuous
 62
     7
100
AcDbLine
 10
68.29365072042074
 20
-80.53504072885768
 30
0.0
 11
68.43541165182013
 21
-75.43164731259297
 31
0.0
  0
LINE
  5
1F0
330
1F
100
AcDbEntity
  8
VIEW0002
  6
Continuous
 62
     7
100
AcDbLine
 10
43.76899337768555
 20
-75.43164825439453
 30
0.0
 11
68.43541717529297
 21
-75.43164825439453
 31
0.0
  0
LINE
  5
1F1
330
1F
100
AcDbEntity
  8
VIEW0002
  6
Continuous
 62
     7
100
AcDbLine
 10
43.77825927734375
 20
-76.09830474853516
 30
0.0
 11
49.66253662109375
 21
-76.09830474853516
 31
0.0
  0
LINE
  5
1F2
330
1F
100
AcDbEntity
  8
VIEW0002
  6
Continuous
 62
     7
100
AcDbLine
 10
43.91076099587663
 20
-80.53503854075974
 30
0.0
 11
43.76900006447723
 21
-75.43164512449505
 31
0.0
  0
LINE
  5
1F3
330
1F
100
AcDbEntity
  8
VIEW0002
  6
Continuous
 62
     7
100
AcDbLine
 10
45.23564680645076
 20
-81.43158706499204
 30
0.0
 11
45.08749999176893
 21
-76.09830185570034
 31
0.0
  0
LINE
  5
1F4
330
1F
100
AcDbEntity
  8
VIEW0002
  6
Continuous
 62
     7
100
AcDbLine
 10
48.91674146828777
 20
-76.09830750943134
 30
0.0
 11
49.00227391377355
 21
-81.43158317674968
 31
0.0
  0
LINE
  5
1F5
330
1F
100
AcDbEntity
  8
VIEW0002
  6
Continuous
 62
     7
100
AcDbLine
 10
49.75282429436971
 20
-81.43158654592455
 30
0.0
 11
49.6625375176693
 21
-76.09830531055339
 31
0.0
  0
LINE
  5
1F6
330
1F
100
AcDbEntity
  8
VIEW0002
  6
Continuous
 62
     7
100
AcDbLine
 10
68.4261474609375
 20
-76.09830474853516
 30
0.0
 11
62.5418701171875
 21
-76.09830474853516
 31
0.0
  0
LINE
  5
1F7
330
1F
100
AcDbEntity
  8
VIEW0002
  6
Continuous
 62
     7
100
AcDbLine
 10
66.96876130846611
 20
-81.43158152071422
 30
0.0
 11
67.11690791130204
 21
-76.0983039378753
 31
0.0
  0
LINE
  5
1F8
330
1F
100
AcDbEntity
  8
VIEW0002
  6
Continuous
 62
     7
100
AcDbLine
 10
63.28766869695554
 20
-76.09830740372836
 30
0.0
 11
63.20213625146977
 21
-81.43158307104669
 31
0.0
  0
LINE
  5
1F9
330
1F
100
AcDbEntity
  8
VIEW0002
  6
Continuous
 62
     7
100
AcDbLine
 10
62.45158596764782
 20
-81.43158473933477
 30
0.0
 11
62.54187274434823
 21
-76.09830350396362
 31
0.0
  0
LINE
  5
1FA
330
1F
100
AcDbEntity
  8
VIEW0002
  6
Continuous
 62
     7
100
AcDbLine
 10
-19.03203201293945
 20
-81.43158721923828
 30
0.0
 11
-18.89704895019531
 21
-81.43158721923828
 31
0.0
  0
LINE
  5
1FB
330
1F
100
AcDbEntity
  8
VIEW0002
  6
Continuous
 62
     7
100
AcDbLine
 10
-18.89704955273447
 20
-81.43158655172412
 30
0.0
 11
-18.88700678525547
 21
-81.07004693056442
 31
0.0
  0
ARC
  5
1FC
330
1F
100
AcDbEntity
  8
VIEW0002
  6
Continuous
 62
     7
100
AcDbCircle
 10
-2.081602573394775
 20
-17.68222236633301
 30
0.0
 40
1.666650056838989
100
AcDbArc
 50
269.9999974955218
 51
354.6441750373394
  0
ARC
  5
1FD
330
1F
100
AcDbEntity
  8
VIEW0002
  6
Continuous
 62
     7
100
AcDbCircle
 10
-5.097401142120361
 20
-25.68214225769043
 30
0.0
 40
1.666650056838989
100
AcDbArc
 50
269.9999974955218
 51
355.236358414795
  0
ARC
  5
1FE
330
1F
100
AcDbEntity
  8
VIEW0002
  6
Continuous
 62
     7
100
AcDbCircle
 10
-5.075082778930664
 20
-27.51531982421875
 30
0.0
 40
0.1666650027036667
100
AcDbArc
 50
90.69755606403322
 51
176.0000003441868
  0
ARC
  5
1FF
330
1F
100
AcDbEntity
  8
VIEW0002
  6
Continuous
 62
     7
100
AcDbCircle
 10
-2.743847846984863
 20
-19.51553726196289
 30
0.0
 40
0.1666650027036667
100
AcDbArc
 50
90.00000250447816
 51
175.2363578742226
  0
ARC
  5
200
330
1F
100
AcDbEntity
  8
VIEW0002
  6
Continuous
 62
     7
100
AcDbCircle
 10
-60.04557800292969
 20
-17.68222236633301
 30
0.0
 40
1.666650056838989
100
AcDbArc
 50
185.3558195268175
 51
269.9999974955218
  0
ARC
  5
201
330
1F
100
AcDbEntity
  8
VIEW0002
  6
Continuous
 62
     7
100
AcDbCircle
 10
-59.38331985473633
 20
-19.51553726196289
 30
0.0
 40
0.1666650027036667
100
AcDbArc
 50
4.763642012091815
 51
90.00000250447816
  0
ARC
  5
202
330
1F
100
AcDbEntity
  8
VIEW0002
  6
Continuous
 62
     7
100
AcDbCircle
 10
-45.56344223022461
 20
-40.84865570068359
 30
0.0
 40
0.1666650027036667
100
AcDbArc
 50
90.00000250447816
 51
180.0000050089563
  0
ARC
  5
203
330
1F
100
AcDbEntity
  8
VIEW0002
  6
Continuous
 62
     7
100
AcDbCircle
 10
-36.23020172119141
 20
-35.84870529174805
 30
0.0
 40
0.1666650027036667
100
AcDbArc
 50
90.00000250447816
 51
180.0000050089563
  0
ARC
  5
204
330
1F
100
AcDbEntity
  8
VIEW0002
  6
Continuous
 62
     7
100
AcDbCircle
 10
-25.89697265625
 20
-35.84870529174805
 30
0.0
 40
0.1666650027036667
100
AcDbArc
 50
0.0
 51
90.00000250447816
  0
ARC
  5
205
330
1F
100
AcDbEntity
  8
VIEW0002
  6
Continuous
 62
     7
100
AcDbCircle
 10
-16.5637321472168
 20
-40.84865570068359
 30
0.0
 40
0.1666650027036667
100
AcDbArc
 50
0.0
 51
90.00000250447816
  0
ARC
  5
206
330
1F
100
AcDbEntity
  8
VIEW0002
  6
Continuous
 62
     7
100
AcDbCircle
 10
-25.56364250183105
 20
-40.84865570068359
 30
0.0
 40
0.1666650027036667
100
AcDbArc
 50
90.00000250447816
 51
180.0000050089563
  0
ARC
  5
207
330
1F
100
AcDbEntity
  8
VIEW0002
  6
Continuous
 62
     7
100
AcDbCircle
 10
-36.56353378295898
 20
-40.84865570068359
 30
0.0
 40
0.1666650027036667
100
AcDbArc
 50
0.0
 51
90.00000250447816
  0
ARC
  5
208
330
1F
100
AcDbEntity
  8
VIEW0002
  6
Continuous
 62
     7
100
AcDbCircle
 10
-31.0635871887207
 20
-59.62971115112305
 30
0.0
 40
6.666600227355957
100
AcDbArc
 50
265.5196666075602
 51
274.4803283834834
  0
ARC
  5
209
330
1F
100
AcDbEntity
  8
VIEW0002
  6
Continuous
 62
     7
100
AcDbCircle
 10
-20.8301944732666
 20
-59.6907844543457
 30
0.0
 40
6.666600227355957
100
AcDbArc
 50
264.2656848570809
 51
271.7285339593445
  0
ARC
  5
20A
330
1F
100
AcDbEntity
  8
VIEW0002
  6
Continuous
 62
     7
100
AcDbCircle
 10
-25.73213958740234
 20
-66.06616973876953
 30
0.0
 40
0.1666650027036667
100
AcDbArc
 50
84.26568986603728
 51
94.48033339243973
  0
ARC
  5
20B
330
1F
100
AcDbEntity
  8
VIEW0002
  6
Continuous
 62
     7
100
AcDbCircle
 10
-41.29697418212891
 20
-59.6907844543457
 30
0.0
 40
6.666600227355957
100
AcDbArc
 50
268.2714610316992
 51
275.7343101339627
  0
ARC
  5
20C
330
1F
100
AcDbEntity
  8
VIEW0002
  6
Continuous
 62
     7
100
AcDbCircle
 10
-36.39503479003906
 20
-66.06616973876953
 30
0.0
 40
0.1666650027036667
100
AcDbArc
 50
85.5196716165166
 51
95.73431514291906
  0
ARC
  5
20D
330
1F
100
AcDbEntity
  8
VIEW0002
  6
Continuous
 62
     7
100
AcDbCircle
 10
-57.02976989746094
 20
-25.68214225769043
 30
0.0
 40
1.666650056838989
100
AcDbArc
 50
184.7636421257774
 51
269.9999974955218
  0
ARC
  5
20E
330
1F
100
AcDbEntity
  8
VIEW0002
  6
Continuous
 62
     7
100
AcDbCircle
 10
-57.05208587646484
 20
-27.51531982421875
 30
0.0
 40
0.1666650027036667
100
AcDbArc
 50
3.99999954212771
 51
89.30245577511228
  0
ARC
  5
20F
330
1F
100
AcDbEntity
  8
VIEW0002
  6
Continuous
 62
     7
100
AcDbCircle
 10
-49.38459014892578
 20
-63.09920120239258
 30
0.0
 40
4.999949932098389
100
AcDbArc
 50
183.9999996558133
 51
255.1420684279396
  0
ARC
  5
210
330
1F
100
AcDbEntity
  8
VIEW0002
  6
Continuous
 62
     7
100
AcDbCircle
 10
-48.00507736206055
 20
-68.81051635742188
 30
0.0
 40
0.1666650027036667
100
AcDbArc
 50
0.999999992253633
 51
75.14206660670682
  0
ARC
  5
211
330
1F
100
AcDbEntity
  8
VIEW0002
  6
Continuous
 62
     7
100
AcDbCircle
 10
-12.74258327484131
 20
-63.09920120239258
 30
0.0
 40
4.999949932098389
100
AcDbArc
 50
284.8579333932932
 51
356.0000004578723
  0
ARC
  5
212
330
1F
100
AcDbEntity
  8
VIEW0002
  6
Continuous
 62
     7
100
AcDbCircle
 10
-14.12209606170654
 20
-68.81051635742188
 30
0.0
 40
0.1666650027036667
100
AcDbArc
 50
104.8579315720603
 51
178.9999970125748
  0
ARC
  5
213
330
1F
100
AcDbEntity
  8
VIEW0002
  6
Continuous
 62
     7
100
AcDbCircle
 10
-31.0635871887207
 20
131.0513763427734
 30
0.0
 40
97.33235931396484
100
AcDbArc
 50
269.9999906653327
 51
286.6786500901543
  0
ARC
  5
214
330
1F
100
AcDbEntity
  8
VIEW0002
  6
Continuous
 62
     7
100
AcDbCircle
 10
-4.563852310180664
 20
42.60344696044922
 30
0.0
 40
4.999949932098389
100
AcDbArc
 50
286.6786500901543
 51
359.9999974955223
  0
ARC
  5
215
330
1F
100
AcDbEntity
  8
VIEW0002
  6
Continuous
 62
     7
100
AcDbCircle
 10
-31.0635871887207
 20
132.3065643310547
 30
0.0
 40
96.66570281982422
100
AcDbArc
 50
269.9999906653327
 51
286.0704149143755
  0
ARC
  5
216
330
1F
100
AcDbEntity
  8
VIEW0002
  6
Continuous
 62
     7
100
AcDbCircle
 10
-5.5042724609375
 20
43.58229827880859
 30
0.0
 40
4.333290100097656
100
AcDbArc
 50
286.0704217445647
 51
359.9999974955223
  0
ARC
  5
217
330
1F
100
AcDbEntity
  8
VIEW0002
  6
Continuous
 62
     7
100
AcDbCircle
 10
-31.0635871887207
 20
133.3065490722656
 30
0.0
 40
94.33238983154297
100
AcDbArc
 50
269.9999906653327
 51
284.5125170665873
  0
ARC
  5
218
330
1F
100
AcDbEntity
  8
VIEW0002
  6
Continuous
 62
     7
100
AcDbCircle
 10
-31.0635871887207
 20
132.3065643310547
 30
0.0
 40
94.33238983154297
100
AcDbArc
 50
269.9999906653327
 51
285.3926279222785
  0
ARC
  5
219
330
1F
100
AcDbEntity
  8
VIEW0002
  6
Continuous
 62
     7
100
AcDbCircle
 10
-8.51056957244873
 20
46.17906188964844
 30
0.0
 40
4.333290100097656
100
AcDbArc
 50
284.5125238967765
 51
359.9999974955223
  0
ARC
  5
21A
330
1F
100
AcDbEntity
  8
VIEW0002
  6
Continuous
 62
     7
100
AcDbCircle
 10
-8.518829345703125
 20
46.16762924194336
 30
0.0
 40
2.666640043258667
100
AcDbArc
 50
284.5056254057147
 51
359.9999974955223
  0
ARC
  5
21B
330
1F
100
AcDbEntity
  8
VIEW0002
  6
Continuous
 62
     7
100
AcDbCircle
 10
-9.639932632446289
 20
91.80391693115234
 30
0.0
 40
0.9999899864196777
100
AcDbArc
 50
359.9999974955223
 51
90.00000250447816
  0
ARC
  5
21C
330
1F
100
AcDbEntity
  8
VIEW0002
  6
Continuous
 62
     7
100
AcDbCircle
 10
-4.730517387390137
 20
94.05176544189453
 30
0.0
 40
1.666650056838989
100
AcDbArc
 50
359.9999974955223
 51
90.00000250447816
  0
ARC
  5
21D
330
1F
100
AcDbEntity
  8
VIEW0002
  6
Continuous
 62
     7
100
AcDbCircle
 10
-5.009485721588135
 20
93.88509368896484
 30
0.0
 40
0.9999899864196777
100
AcDbArc
 50
359.9999974955223
 51
90.00000250447816
  0
ARC
  5
21E
330
1F
100
AcDbEntity
  8
VIEW0002
  6
Continuous
 62
     7
100
AcDbCircle
 10
-6.719307422637939
 20
92.90232849121094
 30
0.0
 40
0.9999899864196777
100
AcDbArc
 50
359.9999974955223
 51
90.00000250447816
  0
ARC
  5
21F
330
1F
100
AcDbEntity
  8
VIEW0002
  6
Continuous
 62
     7
100
AcDbCircle
 10
-5.031071662902832
 20
92.61843872070312
 30
0.0
 40
0.0999990031123161
100
AcDbArc
 50
359.9999974955223
 51
90.00000250447816
  0
ARC
  5
220
330
1F
100
AcDbEntity
  8
VIEW0002
  6
Continuous
 62
     7
100
AcDbCircle
 10
-5.373129367828369
 20
93.88509368896484
 30
0.0
 40
0.9999899864196777
100
AcDbArc
 50
359.9999974955223
 51
90.00000250447816
  0
ARC
  5
221
330
1F
100
AcDbEntity
  8
VIEW0002
  6
Continuous
 62
     7
100
AcDbCircle
 10
-7.174930572509766
 20
45.53577041625977
 30
0.0
 40
4.333290100097656
100
AcDbArc
 50
285.3926347524676
 51
357.8320612451711
  0
ARC
  5
222
330
1F
100
AcDbEntity
  8
VIEW0002
  6
Continuous
 62
     7
100
AcDbCircle
 10
-31.0635871887207
 20
133.3065490722656
 30
0.0
 40
92.67474365234375
100
AcDbArc
 50
269.9999906653327
 51
284.5056185755256
  0
ARC
  5
223
330
1F
100
AcDbEntity
  8
VIEW0002
  6
Continuous
 62
     7
100
AcDbCircle
 10
-31.0635871887207
 20
134.5379486083984
 30
0.0
 40
92.67474365234375
100
AcDbArc
 50
269.9999906653327
 51
273.2990949778539
  0
ARC
  5
224
330
1F
100
AcDbEntity
  8
VIEW0002
  6
Continuous
 62
     7
100
AcDbCircle
 10
-25.73674774169922
 20
47.39440536499023
 30
0.0
 40
0.1666650027036667
100
AcDbArc
 50
263.5942840918579
 51
280.7837528741372
  0
ARC
  5
225
330
1F
100
AcDbEntity
  8
VIEW0002
  6
Continuous
 62
     7
100
AcDbCircle
 10
-21.06035614013672
 20
47.94577789306641
 30
0.0
 40
0.1666650027036667
100
AcDbArc
 50
81.47449208057655
 51
100.7837578830936
  0
ARC
  5
226
330
1F
100
AcDbEntity
  8
VIEW0002
  6
Continuous
 62
     7
100
AcDbCircle
 10
-20.45154571533203
 20
38.57485961914062
 30
0.0
 40
5.999939918518066
100
AcDbArc
 50
76.3049063129015
 51
114.751549377283
  0
ARC
  5
227
330
1F
100
AcDbEntity
  8
VIEW0002
  6
Continuous
 62
     7
100
AcDbCircle
 10
-20.94375419616699
 20
42.02984237670898
 30
0.0
 40
5.999939918518066
100
AcDbArc
 50
81.47449208057655
 51
100.7837578830936
  0
ARC
  5
228
330
1F
100
AcDbEntity
  8
VIEW0002
  6
Continuous
 62
     7
100
AcDbCircle
 10
-31.0635871887207
 20
138.9220886230469
 30
0.0
 40
92.67474365234375
100
AcDbArc
 50
279.1058007913077
 51
282.6798202179219
  0
ARC
  5
229
330
1F
100
AcDbEntity
  8
VIEW0002
  6
Continuous
 62
     7
100
AcDbCircle
 10
-31.0635871887207
 20
135.2691955566406
 30
0.0
 40
92.67474365234375
100
AcDbArc
 50
273.2991018080431
 51
279.1058007913077
  0
ARC
  5
22A
330
1F
100
AcDbEntity
  8
VIEW0002
  6
Continuous
 62
     7
100
AcDbCircle
 10
-11.3065824508667
 20
51.10910797119141
 30
0.0
 40
2.666640043258667
100
AcDbArc
 50
282.6798202179219
 51
359.9999974955223
  0
ARC
  5
22B
330
1F
100
AcDbEntity
  8
VIEW0002
  6
Continuous
 62
     7
100
AcDbCircle
 10
-6.05102014541626
 20
93.88509368896484
 30
0.0
 40
0.9999899864196777
100
AcDbArc
 50
359.9999974955223
 51
90.00000250447816
  0
ARC
  5
22C
330
1F
100
AcDbEntity
  8
VIEW0002
  6
Continuous
 62
     7
100
AcDbCircle
 10
-6.212074756622314
 20
92.65177154541016
 30
0.0
 40
0.0666659995913506
100
AcDbArc
 50
90.00000250447816
 51
180.0000050089563
  0
ARC
  5
22D
330
1F
100
AcDbEntity
  8
VIEW0002
  6
Continuous
 62
     7
100
AcDbCircle
 10
-6.345404624938965
 20
90.53792572021484
 30
0.0
 40
0.0666659995913506
100
AcDbArc
 50
306.8503126527501
 51
359.9999974955223
  0
ARC
  5
22E
330
1F
100
AcDbEntity
  8
VIEW0002
  6
Continuous
 62
     7
100
AcDbCircle
 10
-5.677117347717285
 20
90.53792572021484
 30
0.0
 40
0.0666659995913506
100
AcDbArc
 50
306.8503126527501
 51
359.9999974955223
  0
ARC
  5
22F
330
1F
100
AcDbEntity
  8
VIEW0002
  6
Continuous
 62
     7
100
AcDbCircle
 10
-6.592666149139404
 20
89.68512725830078
 30
0.0
 40
0.0666659995913506
100
AcDbArc
 50
126.8503142466118
 51
180.0000050089563
  0
ARC
  5
230
330
1F
100
AcDbEntity
  8
VIEW0002
  6
Continuous
 62
     7
100
AcDbCircle
 10
-7.260953426361084
 20
89.68513488769531
 30
0.0
 40
0.0666659995913506
100
AcDbArc
 50
126.8503142466118
 51
180.0000050089563
  0
ARC
  5
231
330
1F
100
AcDbEntity
  8
VIEW0002
  6
Continuous
 62
     7
100
AcDbCircle
 10
-7.260948657989502
 20
59.06246948242188
 30
0.0
 40
0.0666659995913506
100
AcDbArc
 50
180.000008651422
 51
197.656812637092
  0
ARC
  5
232
330
1F
100
AcDbEntity
  8
VIEW0002
  6
Continuous
 62
     7
100
AcDbCircle
 10
-6.592660903930664
 20
59.06246948242188
 30
0.0
 40
0.0666659995913506
100
AcDbArc
 50
180.000008651422
 51
197.6568399578487
  0
ARC
  5
233
330
1F
100
AcDbEntity
  8
VIEW0002
  6
Continuous
 62
     7
100
AcDbCircle
 10
-5.842886924743652
 20
49.15763092041016
 30
0.0
 40
0.0666659995913506
100
AcDbArc
 50
201.2886564452195
 51
230.1999319565348
  0
ARC
  5
234
330
1F
100
AcDbEntity
  8
VIEW0002
  6
Continuous
 62
     7
100
AcDbCircle
 10
-31.0635871887207
 20
131.0513763427734
 30
0.0
 40
97.33235931396484
100
AcDbArc
 50
251.1173999500772
 51
252.1382536838056
  0
ARC
  5
235
330
1F
100
AcDbEntity
  8
VIEW0002
  6
Continuous
 62
     7
100
AcDbCircle
 10
-57.56332397460938
 20
42.60344696044922
 30
0.0
 40
4.999949932098389
100
AcDbArc
 50
180.000008651422
 51
253.3213517310785
  0
ARC
  5
236
330
1F
100
AcDbEntity
  8
VIEW0002
  6
Continuous
 62
     7
100
AcDbCircle
 10
-31.0635871887207
 20
132.3065643310547
 30
0.0
 40
96.66570281982422
100
AcDbArc
 50
253.9295800766682
 51
270.000004325711
  0
ARC
  5
237
330
1F
100
AcDbEntity
  8
VIEW0002
  6
Continuous
 62
     7
100
AcDbCircle
 10
-56.62290191650391
 20
43.58229827880859
 30
0.0
 40
4.333290100097656
100
AcDbArc
 50
180.000008651422
 51
253.9295800766682
  0
ARC
  5
238
330
1F
100
AcDbEntity
  8
VIEW0002
  6
Continuous
 62
     7
100
AcDbCircle
 10
-31.0635871887207
 20
133.3065490722656
 30
0.0
 40
94.33238983154297
100
AcDbArc
 50
255.4874779244564
 51
270.000004325711
  0
ARC
  5
239
330
1F
100
AcDbEntity
  8
VIEW0002
  6
Continuous
 62
     7
100
AcDbCircle
 10
-31.0635871887207
 20
132.3065643310547
 30
0.0
 40
94.33238983154297
100
AcDbArc
 50
254.6073670687652
 51
270.000004325711
  0
ARC
  5
23A
330
1F
100
AcDbEntity
  8
VIEW0002
  6
Continuous
 62
     7
100
AcDbCircle
 10
-53.61660385131836
 20
46.17906188964844
 30
0.0
 40
4.333290100097656
100
AcDbArc
 50
180.000008651422
 51
255.4874779244564
  0
ARC
  5
23B
330
1F
100
AcDbEntity
  8
VIEW0002
  6
Continuous
 62
     7
100
AcDbCircle
 10
-53.60834503173828
 20
46.16762924194336
 30
0.0
 40
2.666640043258667
100
AcDbArc
 50
180.000008651422
 51
255.4943764155181
  0
ARC
  5
23C
330
1F
100
AcDbEntity
  8
VIEW0002
  6
Continuous
 62
     7
100
AcDbCircle
 10
-54.95224380493164
 20
45.53577041625977
 30
0.0
 40
4.333290100097656
100
AcDbArc
 50
182.1679380147407
 51
254.6073670687652
  0
ARC
  5
23D
330
1F
100
AcDbEntity
  8
VIEW0002
  6
Continuous
 62
     7
100
AcDbCircle
 10
-31.0635871887207
 20
133.3065490722656
 30
0.0
 40
92.67474365234375
100
AcDbArc
 50
255.4943764155181
 51
270.000004325711
  0
ARC
  5
23E
330
1F
100
AcDbEntity
  8
VIEW0002
  6
Continuous
 62
     7
100
AcDbCircle
 10
-31.0635871887207
 20
134.5379486083984
 30
0.0
 40
92.67474365234375
100
AcDbArc
 50
266.7009000131898
 51
270.000004325711
  0
ARC
  5
23F
330
1F
100
AcDbEntity
  8
VIEW0002
  6
Continuous
 62
     7
100
AcDbCircle
 10
-36.39042663574219
 20
47.39440536499023
 30
0.0
 40
0.1666650027036667
100
AcDbArc
 50
259.2162421169064
 51
276.4057108991858
  0
ARC
  5
240
330
1F
100
AcDbEntity
  8
VIEW0002
  6
Continuous
 62
     7
100
AcDbCircle
 10
-41.06681823730469
 20
47.94577789306641
 30
0.0
 40
0.1666650027036667
100
AcDbArc
 50
79.21624029567357
 51
98.52551292837978
  0
ARC
  5
241
330
1F
100
AcDbEntity
  8
VIEW0002
  6
Continuous
 62
     7
100
AcDbCircle
 10
-41.67563247680664
 20
38.57485961914062
 30
0.0
 40
5.999939918518066
100
AcDbArc
 50
65.24845563167331
 51
103.6950918658657
  0
ARC
  5
242
330
1F
100
AcDbEntity
  8
VIEW0002
  6
Continuous
 62
     7
100
AcDbCircle
 10
-41.18342208862305
 20
42.02984237670898
 30
0.0
 40
5.999939918518066
100
AcDbArc
 50
79.21624029567357
 51
98.52551292837978
  0
ARC
  5
243
330
1F
100
AcDbEntity
  8
VIEW0002
  6
Continuous
 62
     7
100
AcDbCircle
 10
-31.0635871887207
 20
138.9220886230469
 30
0.0
 40
92.67474365234375
100
AcDbArc
 50
257.3201816033109
 51
260.8942010299251
  0
ARC
  5
244
330
1F
100
AcDbEntity
  8
VIEW0002
  6
Continuous
 62
     7
100
AcDbCircle
 10
-31.0635871887207
 20
135.2691955566406
 30
0.0
 40
92.67474365234375
100
AcDbArc
 50
260.8942010299251
 51
266.7009000131898
  0
ARC
  5
245
330
1F
100
AcDbEntity
  8
VIEW0002
  6
Continuous
 62
     7
100
AcDbCircle
 10
-50.82059097290039
 20
51.10910797119141
 30
0.0
 40
2.666640043258667
100
AcDbArc
 50
180.000008651422
 51
257.3201816033109
  0
ARC
  5
246
330
1F
100
AcDbEntity
  8
VIEW0002
  6
Continuous
 62
     7
100
AcDbCircle
 10
-54.8662223815918
 20
59.06246948242188
 30
0.0
 40
0.0666659995913506
100
AcDbArc
 50
342.3431874765935
 51
359.9999974955223
  0
ARC
  5
247
330
1F
100
AcDbEntity
  8
VIEW0002
  6
Continuous
 62
     7
100
AcDbCircle
 10
-55.53451156616211
 20
59.06246948242188
 30
0.0
 40
0.0666659995913506
100
AcDbArc
 50
342.3431669860261
 51
359.9999974955223
  0
ARC
  5
248
330
1F
100
AcDbEntity
  8
VIEW0002
  6
Continuous
 62
     7
100
AcDbCircle
 10
-56.28428649902344
 20
49.15763092041016
 30
0.0
 40
0.0666659995913506
100
AcDbArc
 50
309.8000664496035
 51
338.711343668466
  0
ARC
  5
249
330
1F
100
AcDbEntity
  8
VIEW0002
  6
Continuous
 62
     7
100
AcDbCircle
 10
-52.48724365234375
 20
91.80391693115234
 30
0.0
 40
0.9999899864196777
100
AcDbArc
 50
90.00000250447816
 51
180.0000050089563
  0
ARC
  5
24A
330
1F
100
AcDbEntity
  8
VIEW0002
  6
Continuous
 62
     7
100
AcDbCircle
 10
-57.39665603637695
 20
94.05176544189453
 30
0.0
 40
1.666650056838989
100
AcDbArc
 50
90.00000250447816
 51
180.0000050089563
  0
ARC
  5
24B
330
1F
100
AcDbEntity
  8
VIEW0002
  6
Continuous
 62
     7
100
AcDbCircle
 10
-57.1176872253418
 20
93.88509368896484
 30
0.0
 40
0.9999899864196777
100
AcDbArc
 50
90.00000250447816
 51
180.0000050089563
  0
ARC
  5
24C
330
1F
100
AcDbEntity
  8
VIEW0002
  6
Continuous
 62
     7
100
AcDbCircle
 10
-55.40786743164062
 20
92.90232849121094
 30
0.0
 40
0.9999899864196777
100
AcDbArc
 50
90.00000250447816
 51
180.0000050089563
  0
ARC
  5
24D
330
1F
100
AcDbEntity
  8
VIEW0002
  6
Continuous
 62
     7
100
AcDbCircle
 10
-57.09610366821289
 20
92.61843872070312
 30
0.0
 40
0.0999990031123161
100
AcDbArc
 50
90.00000250447816
 51
180.0000050089563
  0
ARC
  5
24E
330
1F
100
AcDbEntity
  8
VIEW0002
  6
Continuous
 62
     7
100
AcDbCircle
 10
-56.75404357910156
 20
93.88509368896484
 30
0.0
 40
0.9999899864196777
100
AcDbArc
 50
90.00000250447816
 51
180.0000050089563
  0
ARC
  5
24F
330
1F
100
AcDbEntity
  8
VIEW0002
  6
Continuous
 62
     7
100
AcDbCircle
 10
-56.07615280151367
 20
93.88509368896484
 30
0.0
 40
0.9999899864196777
100
AcDbArc
 50
90.00000250447816
 51
180.0000050089563
  0
ARC
  5
250
330
1F
100
AcDbEntity
  8
VIEW0002
  6
Continuous
 62
     7
100
AcDbCircle
 10
-55.91510009765625
 20
92.65177154541016
 30
0.0
 40
0.0666659995913506
100
AcDbArc
 50
359.9999974955223
 51
90.00000250447816
  0
ARC
  5
251
330
1F
100
AcDbEntity
  8
VIEW0002
  6
Continuous
 62
     7
100
AcDbCircle
 10
-55.78176879882812
 20
90.53792572021484
 30
0.0
 40
0.0666659995913506
100
AcDbArc
 50
180.000008651422
 51
233.1496857533882
  0
ARC
  5
252
330
1F
100
AcDbEntity
  8
VIEW0002
  6
Continuous
 62
     7
100
AcDbCircle
 10
-56.45005798339844
 20
90.53792572021484
 30
0.0
 40
0.0666659995913506
100
AcDbArc
 50
180.000008651422
 51
233.1496857533882
  0
ARC
  5
253
330
1F
100
AcDbEntity
  8
VIEW0002
  6
Continuous
 62
     7
100
AcDbCircle
 10
-55.53450775146484
 20
89.68512725830078
 30
0.0
 40
0.0666659995913506
100
AcDbArc
 50
359.9999974955223
 51
53.14968051706075
  0
ARC
  5
254
330
1F
100
AcDbEntity
  8
VIEW0002
  6
Continuous
 62
     7
100
AcDbCircle
 10
-54.8662223815918
 20
89.68513488769531
 30
0.0
 40
0.0666659995913506
100
AcDbArc
 50
359.9999974955223
 51
53.14968051706075
  0
ARC
  5
255
330
1F
100
AcDbEntity
  8
VIEW0002
  6
Continuous
 62
     7
100
AcDbCircle
 10
-31.0635871887207
 20
36.49557495117188
 30
0.0
 40
6.666600227355957
100
AcDbArc
 50
75.71279721375308
 51
104.2872009650141
  0
ARC
  5
256
330
1F
100
AcDbEntity
  8
VIEW0002
  6
Continuous
 62
     7
100
AcDbCircle
 10
-31.0635871887207
 20
41.11624908447266
 30
0.0
 40
6.666600227355957
100
AcDbArc
 50
83.5942891008142
 51
96.40570907795296
  0
ARC
  5
257
330
1F
100
AcDbEntity
  8
VIEW0002
  6
Continuous
 62
     7
100
AcDbCircle
 10
-31.0635871887207
 20
131.0513763427734
 30
0.0
 40
96.49903869628906
100
AcDbArc
 50
253.3213517310785
 51
286.6786569203435
  0
ARC
  5
258
330
1F
100
AcDbEntity
  8
VIEW0002
  6
Continuous
 62
     7
100
AcDbCircle
 10
-57.56332397460938
 20
42.60344696044922
 30
0.0
 40
4.166625022888184
100
AcDbArc
 50
180.000008651422
 51
253.3213517310785
  0
ARC
  5
259
330
1F
100
AcDbEntity
  8
VIEW0002
  6
Continuous
 62
     7
100
AcDbCircle
 10
-4.563852310180664
 20
42.60344696044922
 30
0.0
 40
4.166625022888184
100
AcDbArc
 50
286.6786500901543
 51
359.9999974955223
  0
ARC
  5
25A
330
1F
100
AcDbEntity
  8
VIEW0002
  6
Continuous
 62
     7
100
AcDbCircle
 10
66.021484375
 20
-24.23284149169922
 30
0.0
 40
33.66632843017578
100
AcDbArc
 50
185.7665324619887
 51
211.9463606827024
  0
ARC
  5
25B
330
1F
100
AcDbEntity
  8
VIEW0002
  6
Continuous
 62
     7
100
AcDbCircle
 10
37.87839508056641
 20
-41.781982421875
 30
0.0
 40
0.499993622303009
100
AcDbArc
 50
211.9463606827024
 51
269.9999906653327
  0
ARC
  5
25C
330
1F
100
AcDbEntity
  8
VIEW0002
  6
Continuous
 62
     7
100
AcDbCircle
 10
70.88780975341797
 20
-45.44861221313477
 30
0.0
 40
2.333309888839722
100
AcDbArc
 50
269.9999974955218
 51
356.9999999165174
  0
ARC
  5
25D
330
1F
100
AcDbEntity
  8
VIEW0002
  6
Continuous
 62
     7
100
AcDbCircle
 10
43.9356575012207
 20
-46.28193664550781
 30
0.0
 40
1.499984979629517
100
AcDbArc
 50
179.999991348578
 51
270.0000006832453
  0
ARC
  5
25E
330
1F
100
AcDbEntity
  8
VIEW0002
  6
Continuous
 62
     7
100
AcDbCircle
 10
38.43571090698242
 20
-46.28193664550781
 30
0.0
 40
3.999959945678711
100
AcDbArc
 50
359.9999974955209
 51
90.00000250447816
  0
ARC
  5
25F
330
1F
100
AcDbEntity
  8
VIEW0002
  6
Continuous
 62
     7
100
AcDbCircle
 10
71.76871490478516
 20
-22.11551094055176
 30
0.0
 40
1.333320021629333
100
AcDbArc
 50
90.00000250447816
 51
180.0000050089563
  0
ARC
  5
260
330
1F
100
AcDbEntity
  8
VIEW0002
  6
Continuous
 62
     7
100
AcDbCircle
 10
74.43535614013672
 20
-22.51551246643066
 30
0.0
 40
3.999959945678711
100
AcDbArc
 50
179.999991348578
 51
235.9535020859694
  0
ARC
  5
261
330
1F
100
AcDbEntity
  8
VIEW0002
  6
Continuous
 62
     7
100
AcDbCircle
 10
73.12901306152344
 20
-24.44884300231934
 30
0.0
 40
1.666650056838989
100
AcDbArc
 50
235.9535057284351
 51
267.8730287766557
  0
ARC
  5
262
330
1F
100
AcDbEntity
  8
VIEW0002
  6
Continuous
 62
     7
100
AcDbCircle
 10
72.7686996459961
 20
-68.68171691894531
 30
0.0
 40
0.0000012715530602
100
AcDbArc
 50
90.00000250447816
 51
180.0000050089563
  0
ARC
  5
263
330
1F
100
AcDbEntity
  8
VIEW0002
  6
Continuous
 62
     7
100
AcDbCircle
 10
77.89049530029297
 20
-27.16039276123047
 30
0.0
 40
0.6666600108146667
100
AcDbArc
 50
314.2499995806639
 51
358.5000000649804
  0
ARC
  5
264
330
1F
100
AcDbEntity
  8
VIEW0002
  6
Continuous
 62
     7
100
AcDbCircle
 10
78.52482604980469
 20
-28.40385055541992
 30
0.0
 40
0.6666600108146667
100
AcDbArc
 50
134.2500045896202
 51
178.4999998445732
  0
ARC
  5
265
330
1F
100
AcDbEntity
  8
VIEW0002
  6
Continuous
 62
     7
100
AcDbCircle
 10
23.29088592529297
 20
-27.5147647857666
 30
0.0
 40
0.1666650027036667
100
AcDbArc
 50
8.000000791802712
 51
91.57474359875962
  0
ARC
  5
266
330
1F
100
AcDbEntity
  8
VIEW0002
  6
Continuous
 62
     7
100
AcDbCircle
 10
20.62209701538086
 20
-19.51553726196289
 30
0.0
 40
0.1666650027036667
100
AcDbArc
 50
7.125016419970467
 51
90.00000250447816
  0
ARC
  5
267
330
1F
100
AcDbEntity
  8
VIEW0002
  6
Continuous
 62
     7
100
AcDbCircle
 10
23.24050521850586
 20
-25.68214225769043
 30
0.0
 40
1.666650056838989
100
AcDbArc
 50
187.1250161067692
 51
269.9999974955218
  0
ARC
  5
268
330
1F
100
AcDbEntity
  8
VIEW0002
  6
Continuous
 62
     7
100
AcDbCircle
 10
19.90720558166504
 20
-17.68222236633301
 30
0.0
 40
1.666650056838989
100
AcDbArc
 50
187.1250161067692
 51
269.9999974955218
  0
ARC
  5
269
330
1F
100
AcDbEntity
  8
VIEW0002
  6
Continuous
 62
     7
100
AcDbCircle
 10
24.85608100891113
 20
-17.68222236633301
 30
0.0
 40
1.666650056838989
100
AcDbArc
 50
185.3416537144788
 51
269.9999974955218
  0
ARC
  5
26A
330
1F
100
AcDbEntity
  8
VIEW0002
  6
Continuous
 62
     7
100
AcDbCircle
 10
27.34561157226562
 20
-25.68214225769043
 30
0.0
 40
1.666650056838989
100
AcDbArc
 50
185.6801852105014
 51
269.9999974955218
  0
ARC
  5
26B
330
1F
100
AcDbEntity
  8
VIEW0002
  6
Continuous
 62
     7
100
AcDbCircle
 10
78.93531036376953
 20
-21.61551666259766
 30
0.0
 40
0.1666650027036667
100
AcDbArc
 50
299.9994655755926
 51
0.0
  0
ARC
  5
26C
330
1F
100
AcDbEntity
  8
VIEW0002
  6
Continuous
 62
     7
100
AcDbCircle
 10
33.10243606567383
 20
-23.0716438293457
 30
0.0
 40
4.333290100097656
100
AcDbArc
 50
179.999991348578
 51
258.7732187444954
  0
ARC
  5
26D
330
1F
100
AcDbEntity
  8
VIEW0002
  6
Continuous
 62
     7
100
AcDbCircle
 10
32.19387817382812
 20
-27.64896392822266
 30
0.0
 40
0.3333300054073334
100
AcDbArc
 50
5.766533628963597
 51
78.77322056572821
  0
ARC
  5
26E
330
1F
100
AcDbEntity
  8
VIEW0002
  6
Continuous
 62
     7
100
AcDbCircle
 10
79.10197448730469
 20
-21.90419006347656
 30
0.0
 40
0.1666650027036667
100
AcDbArc
 50
119.999470584549
 51
180.0000050089563
  0
ARC
  5
26F
330
1F
100
AcDbEntity
  8
VIEW0002
  6
Continuous
 62
     7
100
AcDbCircle
 10
24.64429664611816
 20
-35.84870529174805
 30
0.0
 40
0.1666650027036667
100
AcDbArc
 50
8.000000791802712
 51
90.00000250447816
  0
ARC
  5
270
330
1F
100
AcDbEntity
  8
VIEW0002
  6
Continuous
 62
     7
100
AcDbCircle
 10
24.76696014404297
 20
-35.62249755859375
 30
0.0
 40
0.1666650027036667
100
AcDbArc
 50
188.0000043205828
 51
212.8404051243004
  0
ARC
  5
271
330
1F
100
AcDbEntity
  8
VIEW0002
  6
Continuous
 62
     7
100
AcDbCircle
 10
26.52423667907715
 20
-40.84865570068359
 30
0.0
 40
0.1666650027036667
100
AcDbArc
 50
8.000000791802712
 51
90.00000250447816
  0
ARC
  5
272
330
1F
100
AcDbEntity
  8
VIEW0002
  6
Continuous
 62
     7
100
AcDbCircle
 10
25.65180778503418
 20
-40.62245178222656
 30
0.0
 40
0.1666650027036667
100
AcDbArc
 50
188.0000043205828
 51
200.9310687214127
  0
ARC
  5
273
330
1F
100
AcDbEntity
  8
VIEW0002
  6
Continuous
 62
     7
100
AcDbCircle
 10
25.65180778503418
 20
-40.62245178222656
 30
0.0
 40
0.1666650027036667
100
AcDbArc
 50
200.9310687214127
 51
212.8404051243004
  0
ARC
  5
274
330
1F
100
AcDbEntity
  8
VIEW0002
  6
Continuous
 62
     7
100
AcDbCircle
 10
78.76864624023438
 20
-25.28214645385742
 30
0.0
 40
0.1666650027036667
100
AcDbArc
 50
269.2989946904359
 51
0.0
  0
ARC
  5
275
330
1F
100
AcDbEntity
  8
VIEW0002
  6
Continuous
 62
     7
100
AcDbCircle
 10
78.76456451416016
 20
-25.61547660827637
 30
0.0
 40
0.1666650027036667
100
AcDbArc
 50
89.29899286920308
 51
178.4999998445732
  0
ARC
  5
276
330
1F
100
AcDbEntity
  8
VIEW0002
  6
Continuous
 62
     7
100
AcDbCircle
 10
26.93415832519531
 20
-27.51545715332031
 30
0.0
 40
0.1666650027036667
100
AcDbArc
 50
6.770924045471373
 51
90.00000250447816
  0
ARC
  5
277
330
1F
100
AcDbEntity
  8
VIEW0002
  6
Continuous
 62
     7
100
AcDbCircle
 10
74.18699645996094
 20
-33.44873046875
 30
0.0
 40
0.3333300054073334
100
AcDbArc
 50
90.00000250447816
 51
176.99999468019
  0
ARC
  5
278
330
1F
100
AcDbEntity
  8
VIEW0002
  6
Continuous
 62
     7
100
AcDbCircle
 10
75.60200500488281
 20
-32.61540603637695
 30
0.0
 40
0.4999949932098389
100
AcDbArc
 50
269.9999974955218
 51
0.0
  0
ARC
  5
279
330
1F
100
AcDbEntity
  8
VIEW0002
  6
Continuous
 62
     7
100
AcDbCircle
 10
71.94375610351562
 20
-63.25131988525391
 30
0.0
 40
4.999949932098389
100
AcDbArc
 50
286.4785323776621
 51
358.5000000649804
  0
ARC
  5
27A
330
1F
100
AcDbEntity
  8
VIEW0002
  6
Continuous
 62
     7
100
AcDbCircle
 10
71.37710571289062
 20
-68.80685424804688
 30
0.0
 40
0.1666650027036667
100
AcDbArc
 50
106.4785373866184
 51
178.9999970125748
  0
ARC
  5
27B
330
1F
100
AcDbEntity
  8
VIEW0002
  6
Continuous
 62
     7
100
AcDbCircle
 10
29.34073257446289
 20
-66.87049865722656
 30
0.0
 40
0.1666650027036667
100
AcDbArc
 50
188.0000043205828
 51
260.6592288620983
  0
ARC
  5
27C
330
1F
100
AcDbEntity
  8
VIEW0002
  6
Continuous
 62
     7
100
AcDbCircle
 10
36.365234375
 20
-63.12770843505859
 30
0.0
 40
4.999949932098389
100
AcDbArc
 50
186.7709254398174
 51
260.6592288620983
  0
ARC
  5
27D
330
1F
100
AcDbEntity
  8
VIEW0002
  6
Continuous
 62
     7
100
AcDbCircle
 10
39.16094207763672
 20
-68.8236083984375
 30
0.0
 40
0.1666650027036667
100
AcDbArc
 50
0.999999992253633
 51
80.65922704086549
  0
ARC
  5
27E
330
1F
100
AcDbEntity
  8
VIEW0002
  6
Continuous
 62
     7
100
AcDbCircle
 10
30.54583358764648
 20
-67.0687255859375
 30
0.0
 40
0.1666650027036667
100
AcDbArc
 50
188.0000043205828
 51
260.6592288620983
  0
ARC
  5
27F
330
1F
100
AcDbEntity
  8
VIEW0002
  6
Continuous
 62
     7
100
AcDbCircle
 10
29.62355804443359
 20
-12.76372241973877
 30
0.0
 40
4.999949932098389
100
AcDbArc
 50
341.0618098373533
 51
358.0000000154927
  0
ARC
  5
280
330
1F
100
AcDbEntity
  8
VIEW0002
  6
Continuous
 62
     7
100
AcDbCircle
 10
34.0787353515625
 20
-9.348971366882324
 30
0.0
 40
0.6666600108146667
100
AcDbArc
 50
358.0000000154927
 51
90.00000250447816
  0
ARC
  5
281
330
1F
100
AcDbEntity
  8
VIEW0002
  6
Continuous
 62
     7
100
AcDbCircle
 10
31.45997619628906
 20
-17.68222236633301
 30
0.0
 40
1.666650056838989
100
AcDbArc
 50
269.9999974955218
 51
341.0618098373533
  0
ARC
  5
282
330
1F
100
AcDbEntity
  8
VIEW0002
  6
Continuous
 62
     7
100
AcDbCircle
 10
31.82167053222656
 20
-18.68221092224121
 30
0.0
 40
0.9999899864196777
100
AcDbArc
 50
269.9999974955218
 51
341.0618098373533
  0
ARC
  5
283
330
1F
100
AcDbEntity
  8
VIEW0002
  6
Continuous
 62
     7
100
AcDbCircle
 10
-31.0635871887207
 20
131.0513763427734
 30
0.0
 40
97.33235931396484
100
AcDbArc
 50
287.7582639413124
 51
288.8826018711557
  0
ARC
  5
284
330
1F
100
AcDbEntity
  8
VIEW0002
  6
Continuous
 62
     7
100
AcDbCircle
 10
-31.0635871887207
 20
131.0513763427734
 30
0.0
 40
97.33235931396484
100
AcDbArc
 50
253.3213517310785
 51
270.000004325711
  0
ARC
  5
285
330
1F
100
AcDbEntity
  8
VIEW0002
  6
Continuous
 62
     7
100
AcDbCircle
 10
-16.06372261047363
 20
86.05183410644531
 30
0.0
 40
1.666650056838989
100
AcDbArc
 50
359.9999974955223
 51
90.00000250447816
  0
ARC
  5
286
330
1F
100
AcDbEntity
  8
VIEW0002
  6
Continuous
 62
     7
100
AcDbCircle
 10
-46.06342315673828
 20
86.05183410644531
 30
0.0
 40
1.666650056838989
100
AcDbArc
 50
90.00000250447816
 51
180.0000050089563
  0
ARC
  5
287
330
1F
100
AcDbEntity
  8
VIEW0002
  6
Continuous
 62
     7
100
AcDbCircle
 10
-17.73037147521973
 20
59.38543701171875
 30
0.0
 40
3.333300113677979
100
AcDbArc
 50
269.9999906653327
 51
0.000000683245128
  0
ARC
  5
288
330
1F
100
AcDbEntity
  8
VIEW0002
  6
Continuous
 62
     7
100
AcDbCircle
 10
-44.39677429199219
 20
59.38543701171875
 30
0.0
 40
3.333300113677979
100
AcDbArc
 50
180.000008651422
 51
270.000004325711
  0
ARC
  5
289
330
1F
100
AcDbEntity
  8
VIEW0002
  6
Continuous
 62
     7
100
AcDbCircle
 10
-40.8801383972168
 20
67.67182159423828
 30
0.0
 40
0.1666650027036667
100
AcDbArc
 50
180.000008651422
 51
239.9999966606958
  0
ARC
  5
28A
330
1F
100
AcDbEntity
  8
VIEW0002
  6
Continuous
 62
     7
100
AcDbCircle
 10
-40.04681396484375
 20
66.80580139160156
 30
0.0
 40
0.1666650027036667
100
AcDbArc
 50
359.9999974955223
 51
60.00000166965211
  0
ARC
  5
28B
330
1F
100
AcDbEntity
  8
VIEW0002
  6
Continuous
 62
     7
100
AcDbCircle
 10
-36.97640609741211
 20
63.73538970947266
 30
0.0
 40
0.1666650027036667
100
AcDbArc
 50
29.99999741973147
 51
90.00000250447816
  0
ARC
  5
28C
330
1F
100
AcDbEntity
  8
VIEW0002
  6
Continuous
 62
     7
100
AcDbCircle
 10
-40.68014526367188
 20
67.78728485107422
 30
0.0
 40
0.1666650027036667
100
AcDbArc
 50
180.000008651422
 51
239.9999966606958
  0
ARC
  5
28D
330
1F
100
AcDbEntity
  8
VIEW0002
  6
Continuous
 62
     7
100
AcDbCircle
 10
-39.84682083129883
 20
66.92127227783203
 30
0.0
 40
0.1666650027036667
100
AcDbArc
 50
359.9999974955223
 51
60.00000166965211
  0
ARC
  5
28E
330
1F
100
AcDbEntity
  8
VIEW0002
  6
Continuous
 62
     7
100
AcDbCircle
 10
-36.86093521118164
 20
63.93538665771484
 30
0.0
 40
0.1666650027036667
100
AcDbArc
 50
29.99999741973147
 51
90.00000250447816
  0
ARC
  5
28F
330
1F
100
AcDbEntity
  8
VIEW0002
  6
Continuous
 62
     7
100
AcDbCircle
 10
-40.01329040527344
 20
68.17229461669922
 30
0.0
 40
0.1666650027036667
100
AcDbArc
 50
180.000008651422
 51
239.9999966606958
  0
ARC
  5
290
330
1F
100
AcDbEntity
  8
VIEW0002
  6
Continuous
 62
     7
100
AcDbCircle
 10
-36.8608283996582
 20
63.93558120727539
 30
0.0
 40
0.8333250284194946
100
AcDbArc
 50
29.99999741973147
 51
90.00000250447816
  0
ARC
  5
291
330
1F
100
AcDbEntity
  8
VIEW0002
  6
Continuous
 62
     7
100
AcDbCircle
 10
-39.84662628173828
 20
66.92137908935547
 30
0.0
 40
0.8333250284194946
100
AcDbArc
 50
359.9999974955223
 51
60.00000166965211
  0
ARC
  5
292
330
1F
100
AcDbEntity
  8
VIEW0002
  6
Continuous
 62
     7
100
AcDbCircle
 10
-38.04683685302734
 20
65.73536682128906
 30
0.0
 40
1.833315014839172
100
AcDbArc
 50
180.000008651422
 51
270.000004325711
  0
ARC
  5
293
330
1F
100
AcDbEntity
  8
VIEW0002
  6
Continuous
 62
     7
100
AcDbCircle
 10
-38.04683685302734
 20
65.73536682128906
 30
0.0
 40
1.633317112922668
100
AcDbArc
 50
180.000008651422
 51
270.000004325711
  0
ARC
  5
294
330
1F
100
AcDbEntity
  8
VIEW0002
  6
Continuous
 62
     7
100
AcDbCircle
 10
-38.0466423034668
 20
65.7355728149414
 30
0.0
 40
0.9666570425033569
100
AcDbArc
 50
180.000008651422
 51
270.000004325711
  0
ARC
  5
295
330
1F
100
AcDbEntity
  8
VIEW0002
  6
Continuous
 62
     7
100
AcDbCircle
 10
-25.1507396697998
 20
63.73538970947266
 30
0.0
 40
0.1666650027036667
100
AcDbArc
 50
90.00000250447816
 51
149.9999973439411
  0
ARC
  5
296
330
1F
100
AcDbEntity
  8
VIEW0002
  6
Continuous
 62
     7
100
AcDbCircle
 10
-21.24700546264648
 20
67.67182159423828
 30
0.0
 40
0.1666650027036667
100
AcDbArc
 50
300.0000051605371
 51
359.9999974955223
  0
ARC
  5
297
330
1F
100
AcDbEntity
  8
VIEW0002
  6
Continuous
 62
     7
100
AcDbCircle
 10
-22.08032989501953
 20
66.80580139160156
 30
0.0
 40
0.1666650027036667
100
AcDbArc
 50
120.0000033393042
 51
180.0000050089563
  0
ARC
  5
298
330
1F
100
AcDbEntity
  8
VIEW0002
  6
Continuous
 62
     7
100
AcDbCircle
 10
-25.26621055603027
 20
63.93538665771484
 30
0.0
 40
0.1666650027036667
100
AcDbArc
 50
90.00000250447816
 51
149.9999973439411
  0
ARC
  5
299
330
1F
100
AcDbEntity
  8
VIEW0002
  6
Continuous
 62
     7
100
AcDbCircle
 10
-22.28032493591309
 20
66.92127227783203
 30
0.0
 40
0.1666650027036667
100
AcDbArc
 50
120.0000033393042
 51
180.0000050089563
  0
ARC
  5
29A
330
1F
100
AcDbEntity
  8
VIEW0002
  6
Continuous
 62
     7
100
AcDbCircle
 10
-21.44700050354004
 20
67.78728485107422
 30
0.0
 40
0.1666650027036667
100
AcDbArc
 50
300.0000051605371
 51
359.9999974955223
  0
ARC
  5
29B
330
1F
100
AcDbEntity
  8
VIEW0002
  6
Continuous
 62
     7
100
AcDbCircle
 10
-22.11385345458984
 20
68.17230224609375
 30
0.0
 40
0.1666650027036667
100
AcDbArc
 50
300.0000051605371
 51
359.9999974955223
  0
ARC
  5
29C
330
1F
100
AcDbEntity
  8
VIEW0002
  6
Continuous
 62
     7
100
AcDbCircle
 10
-22.280517578125
 20
66.92137908935547
 30
0.0
 40
0.8333250284194946
100
AcDbArc
 50
120.0000033393042
 51
180.0000050089563
  0
ARC
  5
29D
330
1F
100
AcDbEntity
  8
VIEW0002
  6
Continuous
 62
     7
100
AcDbCircle
 10
-25.26631736755371
 20
63.93558120727539
 30
0.0
 40
0.8333250284194946
100
AcDbArc
 50
90.00000250447816
 51
149.9999973439411
  0
ARC
  5
29E
330
1F
100
AcDbEntity
  8
VIEW0002
  6
Continuous
 62
     7
100
AcDbCircle
 10
-24.08030891418457
 20
65.73536682128906
 30
0.0
 40
1.833315014839172
100
AcDbArc
 50
269.9999906653327
 51
0.000000683245128
  0
ARC
  5
29F
330
1F
100
AcDbEntity
  8
VIEW0002
  6
Continuous
 62
     7
100
AcDbCircle
 10
-24.08030891418457
 20
65.73536682128906
 30
0.0
 40
1.633317112922668
100
AcDbArc
 50
269.9999906653327
 51
0.000000683245128
  0
ARC
  5
2A0
330
1F
100
AcDbEntity
  8
VIEW0002
  6
Continuous
 62
     7
100
AcDbCircle
 10
-24.08050346374512
 20
65.7355728149414
 30
0.0
 40
0.9666570425033569
100
AcDbArc
 50
269.9999906653327
 51
0.000000683245128
  0
ARC
  5
2A1
330
1F
100
AcDbEntity
  8
VIEW0002
  6
Continuous
 62
     7
100
AcDbCircle
 10
-35.63293838500977
 20
63.80880355834961
 30
0.0
 40
0.1666650027036667
100
AcDbArc
 50
210.0000026560589
 51
269.499993497331
  0
ARC
  5
2A2
330
1F
100
AcDbEntity
  8
VIEW0002
  6
Continuous
 62
     7
100
AcDbCircle
 10
-36.01989364624023
 20
63.14532470703125
 30
0.0
 40
0.1666650027036667
100
AcDbArc
 50
210.0000026560589
 51
269.499993497331
  0
ARC
  5
2A3
330
1F
100
AcDbEntity
  8
VIEW0002
  6
Continuous
 62
     7
100
AcDbCircle
 10
-36.13595199584961
 20
62.94634246826172
 30
0.0
 40
0.1666650027036667
100
AcDbArc
 50
210.0000026560589
 51
269.499993497331
  0
ARC
  5
2A4
330
1F
100
AcDbEntity
  8
VIEW0002
  6
Continuous
 62
     7
100
AcDbCircle
 10
-26.49420166015625
 20
63.80880355834961
 30
0.0
 40
0.1666650027036667
100
AcDbArc
 50
270.5000083239018
 51
329.9999957500794
  0
ARC
  5
2A5
330
1F
100
AcDbEntity
  8
VIEW0002
  6
Continuous
 62
     7
100
AcDbCircle
 10
-26.10724639892578
 20
63.14532470703125
 30
0.0
 40
0.1666650027036667
100
AcDbArc
 50
270.5000083239018
 51
329.9999957500794
  0
ARC
  5
2A6
330
1F
100
AcDbEntity
  8
VIEW0002
  6
Continuous
 62
     7
100
AcDbCircle
 10
-25.9911994934082
 20
62.94634246826172
 30
0.0
 40
0.1666650027036667
100
AcDbArc
 50
270.5000083239018
 51
329.9999957500794
  0
ARC
  5
2A7
330
1F
100
AcDbEntity
  8
VIEW0002
  6
Continuous
 62
     7
100
AcDbCircle
 10
-36.13595199584961
 20
82.49093627929688
 30
0.0
 40
0.1666650027036667
100
AcDbArc
 50
90.49999967247979
 51
149.9999973439411
  0
ARC
  5
2A8
330
1F
100
AcDbEntity
  8
VIEW0002
  6
Continuous
 62
     7
100
AcDbCircle
 10
-25.1507396697998
 20
81.7018814086914
 30
0.0
 40
0.1666650027036667
100
AcDbArc
 50
210.0000026560589
 51
270.000004325711
  0
ARC
  5
2A9
330
1F
100
AcDbEntity
  8
VIEW0002
  6
Continuous
 62
     7
100
AcDbCircle
 10
-21.24700546264648
 20
77.76544952392578
 30
0.0
 40
0.1666650027036667
100
AcDbArc
 50
0.000004325711512
 51
59.99999483946294
  0
ARC
  5
2AA
330
1F
100
AcDbEntity
  8
VIEW0002
  6
Continuous
 62
     7
100
AcDbCircle
 10
-22.08032989501953
 20
78.6314697265625
 30
0.0
 40
0.1666650027036667
100
AcDbArc
 50
179.999991348578
 51
240.0000066786085
  0
ARC
  5
2AB
330
1F
100
AcDbEntity
  8
VIEW0002
  6
Continuous
 62
     7
100
AcDbCircle
 10
-25.26621055603027
 20
81.50188446044922
 30
0.0
 40
0.1666650027036667
100
AcDbArc
 50
210.0000026560589
 51
270.000004325711
  0
ARC
  5
2AC
330
1F
100
AcDbEntity
  8
VIEW0002
  6
Continuous
 62
     7
100
AcDbCircle
 10
-22.28032493591309
 20
78.51599884033203
 30
0.0
 40
0.1666650027036667
100
AcDbArc
 50
179.999991348578
 51
240.0000066786085
  0
ARC
  5
2AD
330
1F
100
AcDbEntity
  8
VIEW0002
  6
Continuous
 62
     7
100
AcDbCircle
 10
-21.44700050354004
 20
77.64998626708984
 30
0.0
 40
0.1666650027036667
100
AcDbArc
 50
0.000004325711512
 51
59.99999483946294
  0
ARC
  5
2AE
330
1F
100
AcDbEntity
  8
VIEW0002
  6
Continuous
 62
     7
100
AcDbCircle
 10
-22.11385345458984
 20
77.26496887207031
 30
0.0
 40
0.1666650027036667
100
AcDbArc
 50
0.000004325711512
 51
59.99999483946294
  0
ARC
  5
2AF
330
1F
100
AcDbEntity
  8
VIEW0002
  6
Continuous
 62
     7
100
AcDbCircle
 10
-22.280517578125
 20
78.5158920288086
 30
0.0
 40
0.8333250284194946
100
AcDbArc
 50
179.999991348578
 51
240.0000066786085
  0
ARC
  5
2B0
330
1F
100
AcDbEntity
  8
VIEW0002
  6
Continuous
 62
     7
100
AcDbCircle
 10
-25.26631736755371
 20
81.50169372558594
 30
0.0
 40
0.8333250284194946
100
AcDbArc
 50
210.0000026560589
 51
270.000004325711
  0
ARC
  5
2B1
330
1F
100
AcDbEntity
  8
VIEW0002
  6
Continuous
 62
     7
100
AcDbCircle
 10
-24.08030891418457
 20
79.70189666748047
 30
0.0
 40
1.833315014839172
100
AcDbArc
 50
0.000004325711512
 51
90.00000250447816
  0
ARC
  5
2B2
330
1F
100
AcDbEntity
  8
VIEW0002
  6
Continuous
 62
     7
100
AcDbCircle
 10
-24.08030891418457
 20
79.70189666748047
 30
0.0
 40
1.633317112922668
100
AcDbArc
 50
0.000004325711512
 51
90.00000250447816
  0
ARC
  5
2B3
330
1F
100
AcDbEntity
  8
VIEW0002
  6
Continuous
 62
     7
100
AcDbCircle
 10
-24.08050346374512
 20
79.70170593261719
 30
0.0
 40
0.9666570425033569
100
AcDbArc
 50
0.000004325711512
 51
90.00000250447816
  0
ARC
  5
2B4
330
1F
100
AcDbEntity
  8
VIEW0002
  6
Continuous
 62
     7
100
AcDbCircle
 10
-26.49420166015625
 20
81.62847137451172
 30
0.0
 40
0.1666650027036667
100
AcDbArc
 50
29.99999741973147
 51
89.49999850628738
  0
ARC
  5
2B5
330
1F
100
AcDbEntity
  8
VIEW0002
  6
Continuous
 62
     7
100
AcDbCircle
 10
-26.10724639892578
 20
82.29194641113281
 30
0.0
 40
0.1666650027036667
100
AcDbArc
 50
29.99999741973147
 51
89.49999850628738
  0
ARC
  5
2B6
330
1F
100
AcDbEntity
  8
VIEW0002
  6
Continuous
 62
     7
100
AcDbCircle
 10
-25.9911994934082
 20
82.49093627929688
 30
0.0
 40
0.1666650027036667
100
AcDbArc
 50
29.99999741973147
 51
89.49999850628738
  0
ARC
  5
2B7
330
1F
100
AcDbEntity
  8
VIEW0002
  6
Continuous
 62
     7
100
AcDbCircle
 10
-36.01989364624023
 20
82.29194641113281
 30
0.0
 40
0.1666650027036667
100
AcDbArc
 50
90.49999967247979
 51
149.9999973439411
  0
ARC
  5
2B8
330
1F
100
AcDbEntity
  8
VIEW0002
  6
Continuous
 62
     7
100
AcDbCircle
 10
-40.8801383972168
 20
77.76544952392578
 30
0.0
 40
0.1666650027036667
100
AcDbArc
 50
120.0000033393042
 51
179.999991348578
  0
ARC
  5
2B9
330
1F
100
AcDbEntity
  8
VIEW0002
  6
Continuous
 62
     7
100
AcDbCircle
 10
-40.04681396484375
 20
78.6314697265625
 30
0.0
 40
0.1666650027036667
100
AcDbArc
 50
300.0000051605371
 51
0.000004325711512
  0
ARC
  5
2BA
330
1F
100
AcDbEntity
  8
VIEW0002
  6
Continuous
 62
     7
100
AcDbCircle
 10
-36.97640609741211
 20
81.7018814086914
 30
0.0
 40
0.1666650027036667
100
AcDbArc
 50
269.9999906653327
 51
330.0000059953631
  0
ARC
  5
2BB
330
1F
100
AcDbEntity
  8
VIEW0002
  6
Continuous
 62
     7
100
AcDbCircle
 10
-40.68014526367188
 20
77.64998626708984
 30
0.0
 40
0.1666650027036667
100
AcDbArc
 50
120.0000033393042
 51
179.999991348578
  0
ARC
  5
2BC
330
1F
100
AcDbEntity
  8
VIEW0002
  6
Continuous
 62
     7
100
AcDbCircle
 10
-39.84682083129883
 20
78.51599884033203
 30
0.0
 40
0.1666650027036667
100
AcDbArc
 50
300.0000051605371
 51
0.000004325711512
  0
ARC
  5
2BD
330
1F
100
AcDbEntity
  8
VIEW0002
  6
Continuous
 62
     7
100
AcDbCircle
 10
-36.86093521118164
 20
81.50188446044922
 30
0.0
 40
0.1666650027036667
100
AcDbArc
 50
269.9999906653327
 51
330.0000059953631
  0
ARC
  5
2BE
330
1F
100
AcDbEntity
  8
VIEW0002
  6
Continuous
 62
     7
100
AcDbCircle
 10
-40.01329040527344
 20
77.26497650146484
 30
0.0
 40
0.1666650027036667
100
AcDbArc
 50
120.0000033393042
 51
179.999991348578
  0
ARC
  5
2BF
330
1F
100
AcDbEntity
  8
VIEW0002
  6
Continuous
 62
     7
100
AcDbCircle
 10
-36.8608283996582
 20
81.50169372558594
 30
0.0
 40
0.8333250284194946
100
AcDbArc
 50
269.9999906653327
 51
330.0000059953631
  0
ARC
  5
2C0
330
1F
100
AcDbEntity
  8
VIEW0002
  6
Continuous
 62
     7
100
AcDbCircle
 10
-39.84662628173828
 20
78.5158920288086
 30
0.0
 40
0.8333250284194946
100
AcDbArc
 50
300.0000051605371
 51
0.000004325711512
  0
ARC
  5
2C1
330
1F
100
AcDbEntity
  8
VIEW0002
  6
Continuous
 62
     7
100
AcDbCircle
 10
-38.04683685302734
 20
79.70189666748047
 30
0.0
 40
1.833315014839172
100
AcDbArc
 50
89.999995674289
 51
179.999991348578
  0
ARC
  5
2C2
330
1F
100
AcDbEntity
  8
VIEW0002
  6
Continuous
 62
     7
100
AcDbCircle
 10
-38.04683685302734
 20
79.70189666748047
 30
0.0
 40
1.633317112922668
100
AcDbArc
 50
89.999995674289
 51
179.999991348578
  0
ARC
  5
2C3
330
1F
100
AcDbEntity
  8
VIEW0002
  6
Continuous
 62
     7
100
AcDbCircle
 10
-38.0466423034668
 20
79.70170593261719
 30
0.0
 40
0.9666570425033569
100
AcDbArc
 50
89.999995674289
 51
179.999991348578
  0
ARC
  5
2C4
330
1F
100
AcDbEntity
  8
VIEW0002
  6
Continuous
 62
     7
100
AcDbCircle
 10
-35.63293838500977
 20
81.62847137451172
 30
0.0
 40
0.1666650027036667
100
AcDbArc
 50
90.49999967247979
 51
149.9999973439411
  0
ARC
  5
2C5
330
1F
100
AcDbEntity
  8
VIEW0002
  6
Continuous
 62
     7
100
AcDbCircle
 10
-39.98549652099609
 20
63.79671859741211
 30
0.0
 40
3.333300113677979
100
AcDbArc
 50
180.5000058194236
 51
269.499993497331
  0
ARC
  5
2C6
330
1F
100
AcDbEntity
  8
VIEW0002
  6
Continuous
 62
     7
100
AcDbCircle
 10
-22.14164924621582
 20
81.64055633544922
 30
0.0
 40
3.333300113677979
100
AcDbArc
 50
0.500001490230698
 51
89.49999850628738
  0
ARC
  5
2C7
330
1F
100
AcDbEntity
  8
VIEW0002
  6
Continuous
 62
     7
100
AcDbCircle
 10
-22.14164924621582
 20
63.79670715332031
 30
0.0
 40
3.333300113677979
100
AcDbArc
 50
270.5000083239018
 51
359.5000003240383
  0
ARC
  5
2C8
330
1F
100
AcDbEntity
  8
VIEW0002
  6
Continuous
 62
     7
100
AcDbCircle
 10
-42.36346435546875
 20
77.16272735595703
 30
0.0
 40
0.3333300054073334
100
AcDbArc
 50
112.5462793697718
 51
180.0000050089563
  0
ARC
  5
2C9
330
1F
100
AcDbEntity
  8
VIEW0002
  6
Continuous
 62
     7
100
AcDbCircle
 10
-42.17913818359375
 20
77.9610824584961
 30
0.0
 40
0.3333300054073334
100
AcDbArc
 50
292.5462880211938
 51
346.0984861001954
  0
ARC
  5
2CA
330
1F
100
AcDbEntity
  8
VIEW0002
  6
Continuous
 62
     7
100
AcDbCircle
 10
-42.36346435546875
 20
68.27454376220703
 30
0.0
 40
0.3333300054073334
100
AcDbArc
 50
180.000008651422
 51
247.453713800039
  0
ARC
  5
2CB
330
1F
100
AcDbEntity
  8
VIEW0002
  6
Continuous
 62
     7
100
AcDbCircle
 10
-42.17913818359375
 20
67.4761962890625
 30
0.0
 40
0.3333300054073334
100
AcDbArc
 50
13.90151560735186
 51
67.45371880899533
  0
ARC
  5
2CC
330
1F
100
AcDbEntity
  8
VIEW0002
  6
Continuous
 62
     7
100
AcDbCircle
 10
-34.41353607177734
 20
69.39820098876953
 30
0.0
 40
7.666590213775635
100
AcDbArc
 50
193.9015063295273
 51
256.3306920982511
  0
ARC
  5
2CD
330
1F
100
AcDbEntity
  8
VIEW0002
  6
Continuous
 62
     7
100
AcDbCircle
 10
-19.7636775970459
 20
68.27454376220703
 30
0.0
 40
0.3333300054073334
100
AcDbArc
 50
292.5462880211938
 51
359.9999974955223
  0
ARC
  5
2CE
330
1F
100
AcDbEntity
  8
VIEW0002
  6
Continuous
 62
     7
100
AcDbCircle
 10
-19.94800567626953
 20
77.9610824584961
 30
0.0
 40
0.3333300054073334
100
AcDbArc
 50
193.9015199899056
 51
247.453713800039
  0
ARC
  5
2CF
330
1F
100
AcDbEntity
  8
VIEW0002
  6
Continuous
 62
     7
100
AcDbCircle
 10
-19.7636775970459
 20
77.16272735595703
 30
0.0
 40
0.3333300054073334
100
AcDbArc
 50
359.9999974955223
 51
67.45371880899533
  0
ARC
  5
2D0
330
1F
100
AcDbEntity
  8
VIEW0002
  6
Continuous
 62
     7
100
AcDbCircle
 10
-19.94800567626953
 20
67.4761962890625
 30
0.0
 40
0.3333300054073334
100
AcDbArc
 50
112.5462793697718
 51
166.0984800100944
  0
ARC
  5
2D1
330
1F
100
AcDbEntity
  8
VIEW0002
  6
Continuous
 62
     7
100
AcDbCircle
 10
-35.50876998901367
 20
61.45754623413086
 30
0.0
 40
0.3333300054073334
100
AcDbArc
 50
203.0039491722415
 51
269.499993497331
  0
ARC
  5
2D2
330
1F
100
AcDbEntity
  8
VIEW0002
  6
Continuous
 62
     7
100
AcDbCircle
 10
-36.30405807495117
 20
61.62487411499023
 30
0.0
 40
0.3333300054073334
100
AcDbArc
 50
23.00395247365059
 51
76.33069027701829
  0
ARC
  5
2D3
330
1F
100
AcDbEntity
  8
VIEW0002
  6
Continuous
 62
     7
100
AcDbCircle
 10
-27.71360969543457
 20
69.39820098876953
 30
0.0
 40
7.666590213775635
100
AcDbArc
 50
283.6693097229817
 51
346.0984997605738
  0
ARC
  5
2D4
330
1F
100
AcDbEntity
  8
VIEW0002
  6
Continuous
 62
     7
100
AcDbCircle
 10
-25.82308578491211
 20
61.62487411499023
 30
0.0
 40
0.3333300054073334
100
AcDbArc
 50
103.6693079017489
 51
156.9960508277585
  0
ARC
  5
2D5
330
1F
100
AcDbEntity
  8
VIEW0002
  6
Continuous
 62
     7
100
AcDbCircle
 10
-26.61837577819824
 20
61.45754623413086
 30
0.0
 40
0.3333300054073334
100
AcDbArc
 50
270.5000083239018
 51
336.996050941444
  0
ARC
  5
2D6
330
1F
100
AcDbEntity
  8
VIEW0002
  6
Continuous
 62
     7
100
AcDbCircle
 10
-26.61837577819824
 20
83.97972106933594
 30
0.0
 40
0.3333300054073334
100
AcDbArc
 50
23.00395247365059
 51
89.49999850628738
  0
ARC
  5
2D7
330
1F
100
AcDbEntity
  8
VIEW0002
  6
Continuous
 62
     7
100
AcDbCircle
 10
-27.71360969543457
 20
76.03907012939453
 30
0.0
 40
7.666590213775635
100
AcDbArc
 50
13.90150194697353
 51
76.33069027701829
  0
ARC
  5
2D8
330
1F
100
AcDbEntity
  8
VIEW0002
  6
Continuous
 62
     7
100
AcDbCircle
 10
-25.82308578491211
 20
83.8124008178711
 30
0.0
 40
0.3333300054073334
100
AcDbArc
 50
203.0039491722415
 51
256.3306920982511
  0
ARC
  5
2D9
330
1F
100
AcDbEntity
  8
VIEW0002
  6
Continuous
 62
     7
100
AcDbCircle
 10
-34.41353607177734
 20
76.03907012939453
 30
0.0
 40
7.666590213775635
100
AcDbArc
 50
103.6693079017489
 51
166.0984936704727
  0
ARC
  5
2DA
330
1F
100
AcDbEntity
  8
VIEW0002
  6
Continuous
 62
     7
100
AcDbCircle
 10
-35.50876998901367
 20
83.97972106933594
 30
0.0
 40
0.3333300054073334
100
AcDbArc
 50
90.49999967247979
 51
156.9960508277585
  0
ARC
  5
2DB
330
1F
100
AcDbEntity
  8
VIEW0002
  6
Continuous
 62
     7
100
AcDbCircle
 10
-36.30405807495117
 20
83.8124008178711
 30
0.0
 40
0.3333300054073334
100
AcDbArc
 50
283.6693097229817
 51
336.996050941444
  0
ARC
  5
2DC
330
1F
100
AcDbEntity
  8
VIEW0002
  6
Continuous
 62
     7
100
AcDbCircle
 10
-39.98549652099609
 20
81.64056396484375
 30
0.0
 40
3.333300113677979
100
AcDbArc
 50
90.49999967247979
 51
179.4999941805764
  0
ARC
  5
2DD
330
1F
100
AcDbEntity
  8
VIEW0002
  6
Continuous
 62
     7
100
AcDbCircle
 10
40.41839218139648
 20
-74.0149917602539
 30
0.0
 40
0.9999899864196777
100
AcDbArc
 50
181.0000029874252
 51
269.9999974955218
  0
ARC
  5
2DE
330
1F
100
AcDbEntity
  8
VIEW0002
  6
Continuous
 62
     7
100
AcDbCircle
 10
70.11936950683594
 20
-74.0149917602539
 30
0.0
 40
0.9999899864196777
100
AcDbArc
 50
269.9999974955218
 51
359.0000000077464
  0
ARC
  5
2DF
330
1F
100
AcDbEntity
  8
VIEW0002
  6
Continuous
 62
     7
100
AcDbCircle
 10
67.2187728881836
 20
-75.44831085205078
 30
0.0
 40
0.0999990031123161
100
AcDbArc
 50
89.999995674289
 51
170.4068130743767
  0
ARC
  5
2E0
330
1F
100
AcDbEntity
  8
VIEW0002
  6
Continuous
 62
     7
100
AcDbCircle
 10
44.98563766479492
 20
-75.44831085205078
 30
0.0
 40
0.0999990031123161
100
AcDbArc
 50
9.593180835522267
 51
90.00000250447816
  0
ARC
  5
2E1
330
1F
100
AcDbEntity
  8
VIEW0002
  6
Continuous
 62
     7
100
AcDbCircle
 10
-15.37977123260498
 20
-74.0149917602539
 30
0.0
 40
0.9999899864196777
100
AcDbArc
 50
269.9999974955218
 51
359.0000000077464
  0
ARC
  5
2E2
330
1F
100
AcDbEntity
  8
VIEW0002
  6
Continuous
 62
     7
100
AcDbCircle
 10
-19.9470157623291
 20
-75.44831085205078
 30
0.0
 40
0.0999990031123161
100
AcDbArc
 50
89.999995674289
 51
170.4068130743767
  0
ARC
  5
2E3
330
1F
100
AcDbEntity
  8
VIEW0002
  6
Continuous
 62
     7
100
AcDbCircle
 10
-46.74740219116211
 20
-74.0149917602539
 30
0.0
 40
0.9999899864196777
100
AcDbArc
 50
181.0000029874252
 51
270.000004325711
  0
ARC
  5
2E4
330
1F
100
AcDbEntity
  8
VIEW0002
  6
Continuous
 62
     7
100
AcDbCircle
 10
-42.18015670776367
 20
-75.44831085205078
 30
0.0
 40
0.0999990031123161
100
AcDbArc
 50
9.593180835522267
 51
90.00000250447816
  0
ARC
  5
2E5
330
1F
100
AcDbEntity
  8
VIEW0002
  6
Continuous
 62
     7
100
AcDbCircle
 10
-20.53813743591309
 20
-80.48876190185547
 30
0.0
 40
1.666650056838989
100
AcDbArc
 50
325.5489800340355
 51
358.4088578072523
  0
ARC
  5
2E6
330
1F
100
AcDbEntity
  8
VIEW0002
  6
Continuous
 62
     7
100
AcDbCircle
 10
-41.58902359008789
 20
-80.48876190185547
 30
0.0
 40
1.666650056838989
100
AcDbArc
 50
181.5911421997115
 51
214.4510183721028
  0
ARC
  5
2E7
330
1F
100
AcDbEntity
  8
VIEW0002
  6
Continuous
 62
     7
100
AcDbCircle
 10
66.62765502929688
 20
-80.48876190185547
 30
0.0
 40
1.666650056838989
100
AcDbArc
 50
325.5489800340355
 51
358.4088578072523
  0
ARC
  5
2E8
330
1F
100
AcDbEntity
  8
VIEW0002
  6
Continuous
 62
     7
100
AcDbCircle
 10
45.57676696777344
 20
-80.48876190185547
 30
0.0
 40
1.666650056838989
100
AcDbArc
 50
181.5911421997115
 51
214.4510183721028
  0
SPLINE
  5
2E9
330
1F
100
AcDbEntity
  8
VIEW0002
  6
Continuous
 62
     7
100
AcDbSpline
210
0.0
220
0.0
230
1.0
 70
     8
 71
     3
 72
     9
 73
     5
 74
     3
 42
0.0000000001
 43
0.0000000001
 44
0.0000000001
 12
0.3033374689294566
 22
-0.9528831932317157
 32
0.0
 13
-0.1439099228653017
 23
-0.9895907912369148
 33
0.0
 40
0.0
 40
0.0
 40
0.0
 40
0.0
 40
1.199953290075803
 40
4.862689054301135
 40
4.862689054301135
 40
4.862689054301135
 40
4.862689054301135
 10
-7.324555359311764
 20
59.04249738052403
 30
0.0
 10
-7.203225094696707
 20
58.66135893959858
 30
0.0
 10
-6.795088893868027
 20
57.0907873652863
 30
0.0
 10
-6.767333308460048
 20
55.42693030615357
 30
0.0
 10
-6.943034648895264
 20
54.21872711181641
 30
0.0
 11
-7.324555359311764
 21
59.04249738052403
 31
0.0
 11
-7.024958610534668
 21
57.88054656982422
 31
0.0
 11
-6.943034648895264
 21
54.21872711181641
 31
0.0
  0
SPLINE
  5
2EA
330
1F
100
AcDbEntity
  8
VIEW0002
  6
Continuous
 62
     7
100
AcDbSpline
210
0.0
220
0.0
230
1.0
 70
     8
 71
     3
 72
     9
 73
     5
 74
     3
 42
0.0000000001
 43
0.0000000001
 44
0.0000000001
 12
0.303337774611102
 22
-0.9528830959220466
 32
0.0
 13
-0.1439101007677876
 23
-0.9895907653656663
 33
0.0
 40
0.0
 40
0.0
 40
0.0
 40
0.0
 40
1.199953290233185
 40
4.862689043793189
 40
4.862689043793189
 40
4.862689043793189
 40
4.862689043793189
 10
-6.656267602094167
 20
59.04249738150101
 30
0.0
 10
-6.534937215195299
 20
58.66135897944793
 30
0.0
 10
-6.126801289602587
 20
57.09078731506791
 30
0.0
 10
-6.099045814546717
 20
55.42693027104895
 30
0.0
 10
-6.274747371673584
 20
54.21872711181641
 30
0.0
 11
-6.656267602094167
 21
59.04249738150101
 31
0.0
 11
-6.35667085647583
 21
57.88054656982422
 31
0.0
 11
-6.274747371673584
 21
54.21872711181641
 31
0.0
  0
SPLINE
  5
2EB
330
1F
100
AcDbEntity
  8
VIEW0002
  6
Continuous
 62
     7
100
AcDbSpline
210
0.0
220
0.0
230
1.0
 70
     8
 71
     3
 72
     9
 73
     5
 74
     3
 42
0.0000000001
 43
0.0000000001
 44
0.0000000001
 12
0.03281708314674894
 22
-0.9994613744681379
 32
0.0
 13
0.3630180089277804
 23
-0.9317821232423973
 33
0.0
 40
0.0
 40
0.0
 40
0.0
 40
0.0
 40
3.476639438037997
 40
5.20668062056403
 40
5.20668062056403
 40
5.20668062056403
 40
5.20668062056403
 10
-6.943034648895264
 20
54.21872711181641
 30
0.0
 10
-6.905003593725477
 20
53.06047150139254
 30
0.0
 10
-6.655376191882029
 20
51.32328380523882
 30
0.0
 10
-6.114503221105294
 20
49.67104097909176
 30
0.0
 10
-5.905157852624073
 20
49.13370049697479
 30
0.0
 11
-6.943034648895264
 21
54.21872711181641
 31
0.0
 11
-6.441783428192139
 21
50.77841186523438
 31
0.0
 11
-5.905157852624073
 21
49.13370049697479
 31
0.0
  0
SPLINE
  5
2EC
330
1F
100
AcDbEntity
  8
VIEW0002
  6
Continuous
 62
     7
100
AcDbSpline
210
0.0
220
0.0
230
1.0
 70
     8
 71
     3
 72
     9
 73
     5
 74
     3
 42
0.0000000001
 43
0.0000000001
 44
0.0000000001
 12
0.03281708314674894
 22
-0.9994613744681379
 32
0.0
 13
0.3640568391790309
 23
-0.9313767325024678
 33
0.0
 40
0.0
 40
0.0
 40
0.0
 40
0.0
 40
3.476639506786949
 40
5.224128775243051
 40
5.224128775243051
 40
5.224128775243051
 40
5.224128775243051
 10
-6.274747371673584
 20
54.21872711181641
 30
0.0
 10
-6.23671631575175
 20
53.06047147848857
 30
0.0
 10
-5.986259727950237
 20
51.31748670667459
 30
0.0
 10
-5.442579193914606
 20
49.65994381151246
 30
0.0
 10
-5.230517387390137
 20
49.1174201965332
 30
0.0
 11
-6.274747371673584
 21
54.21872711181641
 31
0.0
 11
-5.773495674133301
 21
50.77841186523438
 31
0.0
 11
-5.230517387390137
 21
49.1174201965332
 31
0.0
  0
SPLINE
  5
2ED
330
1F
100
AcDbEntity
  8
VIEW0002
  6
Continuous
 62
     7
100
AcDbSpline
210
0.0
220
0.0
230
1.0
 70
     8
 71
     3
 72
    11
 73
     7
 74
     5
 42
0.0000000001
 43
0.0000000001
 44
0.0000000001
 12
0.7682687910008412
 22
-0.6401273816781359
 32
0.0
 13
0.1611559059365966
 23
-0.986928960960086
 33
0.0
 40
0.0
 40
0.0
 40
0.0
 40
0.0
 40
0.9953624742574042
 40
2.253333328705255
 40
3.265178450874546
 40
4.430056213100275
 40
4.430056213100275
 40
4.430056213100275
 40
4.430056213100275
 10
-5.885464855069964
 20
49.1063398402673
 30
0.0
 10
-5.630562880168183
 20
48.89395358211161
 30
0.0
 10
-5.108669561863838
 20
48.37433225319275
 30
0.0
 10
-4.167121101238561
 20
47.67178051130524
 30
0.0
 10
-4.105342586062593
 20
46.46306545076176
 30
0.0
 10
-3.9389753991702
 20
45.76880298475176
 30
0.0
 10
-3.876399755477905
 20
45.38558578491211
 30
0.0
 11
-5.885464855069964
 21
49.1063398402673
 31
0.0
 11
-5.144539833068848
 21
48.44167709350586
 31
0.0
 11
-4.284649848937988
 21
47.52348327636719
 31
0.0
 11
-4.080605983734131
 21
46.53242492675781
 31
0.0
 11
-3.876399755477905
 21
45.38558578491211
 31
0.0
  0
SPLINE
  5
2EE
330
1F
100
AcDbEntity
  8
VIEW0002
  6
Continuous
 62
     7
100
AcDbSpline
210
0.0
220
0.0
230
1.0
 70
     8
 71
     3
 72
    12
 73
     8
 74
     6
 42
0.0000000001
 43
0.0000000001
 44
0.0000000001
 12
0.8701349148244304
 22
-0.492813585449388
 32
0.0
 13
0.7536896506141624
 23
-0.6572304851093732
 33
0.0
 40
0.0
 40
0.0
 40
0.0
 40
0.0
 40
0.9810072463661822
 40
1.927661086715485
 40
2.925518316557624
 40
3.708306629578985
 40
4.605213478746993
 40
4.605213478746993
 40
4.605213478746993
 40
4.605213478746993
 10
-5.230517387390137
 20
49.1174201965332
 30
0.0
 10
-4.945981168470475
 20
48.95626896372202
 30
0.0
 10
-4.43842307355955
 20
48.55134120048967
 30
0.0
 10
-3.849369261740234
 20
47.73590773701221
 30
0.0
 10
-3.747123859489323
 20
46.81002364403195
 30
0.0
 10
-3.328706699031367
 20
46.00863437535398
 30
0.0
 10
-2.955866979393164
 20
45.58207729277098
 30
0.0
 10
-2.730537176132202
 20
45.38558578491211
 30
0.0
 11
-5.230517387390137
 21
49.1174201965332
 31
0.0
 11
-4.460307121276855
 21
48.50984191894531
 31
0.0
 11
-3.935196399688721
 21
47.7221794128418
 31
0.0
 11
-3.672641038894653
 21
46.75948333740234
 31
0.0
 11
-3.322572231292725
 21
46.05933380126953
 31
0.0
 11
-2.730537176132202
 21
45.38558578491211
 31
0.0
  0
SPLINE
  5
2EF
330
1F
100
AcDbEntity
  8
VIEW0002
  6
Continuous
 62
     7
100
AcDbSpline
210
0.0
220
0.0
230
1.0
 70
     8
 71
     3
 72
     9
 73
     5
 74
     3
 42
0.0000000001
 43
0.0000000001
 44
0.0000000001
 12
-0.3033373979588869
 22
-0.9528832158242331
 32
0.0
 13
0.1439099228653017
 23
-0.9895907912369148
 33
0.0
 40
0.0
 40
0.0
 40
0.0
 40
0.0
 40
1.199952813961151
 40
4.862688503530494
 40
4.862688503530494
 40
4.862688503530494
 40
4.862688503530494
 10
-54.80261997140876
 20
59.04249738052403
 30
0.0
 10
-54.92395015949557
 20
58.66135908178914
 30
0.0
 10
-55.33208240194095
 20
57.09078655248887
 30
0.0
 10
-55.35983677386569
 20
55.42693028152728
 30
0.0
 10
-55.18413543701172
 20
54.21872711181641
 30
0.0
 11
-54.80261997140876
 21
59.04249738052403
 31
0.0
 11
-55.10221481323242
 21
57.88054656982422
 31
0.0
 11
-55.18413543701172
 21
54.21872711181641
 31
0.0
  0
SPLINE
  5
2F0
330
1F
100
AcDbEntity
  8
VIEW0002
  6
Continuous
 62
     7
100
AcDbSpline
210
0.0
220
0.0
230
1.0
 70
     8
 71
     3
 72
     9
 73
     5
 74
     3
 42
0.0000000001
 43
0.0000000001
 44
0.0000000001
 12
-0.303337845581652
 22
-0.9528830733295046
 32
0.0
 13
0.1439101007677876
 23
-0.9895907653656663
 33
0.0
 40
0.0
 40
0.0
 40
0.0
 40
0.0
 40
1.199953766350673
 40
4.862689455920018
 40
4.862689455920018
 40
4.862689455920018
 40
4.862689455920018
 10
-55.47090534523097
 20
59.04249738150101
 30
0.0
 10
-55.59223580865844
 20
58.66135883725649
 30
0.0
 10
-56.00037669723583
 20
57.09078819568416
 30
0.0
 10
-56.02812617563927
 20
55.42693024994076
 30
0.0
 10
-55.85242462158203
 20
54.21872711181641
 30
0.0
 11
-55.47090534523097
 21
59.04249738150101
 31
0.0
 11
-55.77050399780273
 21
57.88054656982422
 31
0.0
 11
-55.85242462158203
 21
54.21872711181641
 31
0.0
  0
SPLINE
  5
2F1
330
1F
100
AcDbEntity
  8
VIEW0002
  6
Continuous
 62
     7
100
AcDbSpline
210
0.0
220
0.0
230
1.0
 70
     8
 71
     3
 72
     9
 73
     5
 74
     3
 42
0.0000000001
 43
0.0000000001
 44
0.0000000001
 12
-0.03281708314674894
 22
-0.9994613744681379
 32
0.0
 13
-0.3630180511473569
 23
-0.9317821067938443
 33
0.0
 40
0.0
 40
0.0
 40
0.0
 40
0.0
 40
3.476639438037997
 40
5.20668106414953
 40
5.20668106414953
 40
5.20668106414953
 40
5.20668106414953
 10
-55.18413543701172
 20
54.21872711181641
 30
0.0
 10
-55.22216649218151
 20
53.06047150139254
 30
0.0
 10
-55.47179264936197
 20
51.32328324546081
 30
0.0
 10
-56.0126682168631
 20
49.67104110738121
 30
0.0
 10
-56.22201366336805
 20
49.13370049697479
 30
0.0
 11
-55.18413543701172
 21
54.21872711181641
 31
0.0
 11
-55.68538665771484
 21
50.77841186523438
 31
0.0
 11
-56.22201366336805
 21
49.13370049697479
 31
0.0
  0
SPLINE
  5
2F2
330
1F
100
AcDbEntity
  8
VIEW0002
  6
Continuous
 62
     7
100
AcDbSpline
210
0.0
220
0.0
230
1.0
 70
     8
 71
     3
 72
     9
 73
     5
 74
     3
 42
0.0000000001
 43
0.0000000001
 44
0.0000000001
 12
-0.03281708314674894
 22
-0.9994613744681379
 32
0.0
 13
-0.3640568391790309
 23
-0.9313767325024678
 33
0.0
 40
0.0
 40
0.0
 40
0.0
 40
0.0
 40
3.476639438037997
 40
5.224129299144684
 40
5.224129299144684
 40
5.224129299144684
 40
5.224129299144684
 10
-55.85242462158203
 20
54.21872711181641
 30
0.0
 10
-55.89045567675182
 20
53.06047150139254
 30
0.0
 10
-56.14091000295424
 20
51.31748591270933
 30
0.0
 10
-56.68459415793298
 20
49.65994399550612
 30
0.0
 10
-56.89665603637695
 20
49.1174201965332
 30
0.0
 11
-55.85242462158203
 21
54.21872711181641
 31
0.0
 11
-56.35367584228516
 21
50.77841186523438
 31
0.0
 11
-56.89665603637695
 21
49.1174201965332
 31
0.0
  0
SPLINE
  5
2F3
330
1F
100
AcDbEntity
  8
VIEW0002
  6
Continuous
 62
     7
100
AcDbSpline
210
0.0
220
0.0
230
1.0
 70
     8
 71
     3
 72
    11
 73
     7
 74
     5
 42
0.0000000001
 43
0.0000000001
 44
0.0000000001
 12
-0.7682687910008412
 22
-0.6401273816781359
 32
0.0
 13
-0.1611559059365966
 23
-0.986928960960086
 33
0.0
 40
0.0
 40
0.0
 40
0.0
 40
0.0
 40
0.9953624742574029
 40
2.2533359362568
 40
3.265181154582908
 40
4.430059292969359
 40
4.430059292969359
 40
4.430059292969359
 40
4.430059292969359
 10
-56.24170666134849
 20
49.1063398402673
 30
0.0
 10
-56.49660863625027
 20
48.89395358211161
 30
0.0
 10
-57.01850189783258
 20
48.3743310377551
 30
0.0
 10
-57.96005472963513
 20
47.67178191174209
 30
0.0
 10
-58.02183245840889
 20
46.46306509408092
 30
0.0
 10
-58.18820253434306
 20
45.76880310849973
 30
0.0
 10
-58.25077819824219
 20
45.38558578491211
 30
0.0
 11
-56.24170666134849
 21
49.1063398402673
 31
0.0
 11
-56.98263168334961
 21
48.44167709350586
 31
0.0
 11
-57.84252548217773
 21
47.52348327636719
 31
0.0
 11
-58.04656982421875
 21
46.53242492675781
 31
0.0
 11
-58.25077819824219
 21
45.38558578491211
 31
0.0
  0
SPLINE
  5
2F4
330
1F
100
AcDbEntity
  8
VIEW0002
  6
Continuous
 62
     7
100
AcDbSpline
210
0.0
220
0.0
230
1.0
 70
     8
 71
     3
 72
    12
 73
     8
 74
     6
 42
0.0000000001
 43
0.0000000001
 44
0.0000000001
 12
-0.8701349148244304
 22
-0.492813585449388
 32
0.0
 13
-0.7536896506141624
 23
-0.6572304851093732
 33
0.0
 40
0.0
 40
0.0
 40
0.0
 40
0.0
 40
0.9810102413713648
 40
1.927662759210262
 40
2.925519675390578
 40
3.708308948017491
 40
4.605214695550127
 40
4.605214695550127
 40
4.605214695550127
 40
4.605214695550127
 10
-56.89665603637695
 20
49.1174201965332
 30
0.0
 10
-57.18119312398281
 20
48.95626847172894
 30
0.0
 10
-57.68875434071105
 20
48.55134349811628
 30
0.0
 10
-58.27780547322008
 20
47.73590699785328
 30
0.0
 10
-58.38004882698618
 20
46.81002276788405
 30
0.0
 10
-58.79846990977076
 20
46.00863564620935
 30
0.0
 10
-59.17130743639339
 20
45.58207705142819
 30
0.0
 10
-59.39663696289062
 20
45.38558578491211
 30
0.0
 11
-56.89665603637695
 21
49.1174201965332
 31
0.0
 11
-57.6668701171875
 21
48.50984191894531
 31
0.0
 11
-58.19197845458984
 21
47.7221794128418
 31
0.0
 11
-58.45453262329102
 21
46.75948333740234
 31
0.0
 11
-58.80460357666016
 21
46.05933380126953
 31
0.0
 11
-59.39663696289062
 21
45.38558578491211
 31
0.0
  0
DIMENSION
  5
2F5
330
1F
100
AcDbEntity
  8
VIEW0002
 62
     7
100
AcDbDimension
  2
*D2
 10
0.436095178127289
 20
1.317588210105892
 30
0.0
 11
-31.06258909606933
 21
1.317588210105896
 31
0.0
 70
   160
  1
189
 71
     5
 42
62.9993695616722
  3
ISO-25
100
AcDbAlignedDimension
 13
-62.56327438354492
 23
-8.68231201171875
 33
0.0
 14
0.436095178127289
 24
-8.68231201171875
 34
0.0
 50
180.0
100
AcDbRotatedDimension
1001
ACAD
1000
DSTYLE
1002
{
1070
   178
1070
     1
1070
   278
1070
    46
1070
   147
1040
0.800000011920929
1070
    77
1070
     1
1070
    74
1070
     0
1070
    73
1070
     0
1070
    42
1040
2.54
1070
    44
1040
1.00000011920929
1070
    76
1070
     0
1070
    75
1070
     0
1070
   279
1070
     0
1070
   271
1070
     0
1070
   173
1070
     1
1070
    41
1040
3.0
1070
   140
1040
3.200000047683716
1070
   344
1005
2F6
1070
   343
1005
2F6
1002
}
  0
DIMENSION
  5
309
330
1F
100
AcDbEntity
  8
VIEW0002
 62
     7
100
AcDbDimension
  2
*D3
 10
73.10204315185548
 20
-57.78082220458985
 30
0.0
 11
57.76985604858398
 21
-57.78082220458985
 31
0.0
 70
   160
  1
92
 71
     5
 42
30.6663703918457
  3
ISO-25
100
AcDbAlignedDimension
 13
42.43567276000977
 23
-47.78192138671875
 33
0.0
 14
73.10204315185547
 24
-47.78192138671875
 34
0.0
 50
180.0
100
AcDbRotatedDimension
1001
ACAD
1000
DSTYLE
1002
{
1070
   178
1070
     1
1070
   278
1070
    46
1070
   147
1040
0.800000011920929
1070
    77
1070
     1
1070
    74
1070
     0
1070
    73
1070
     0
1070
    42
1040
2.54
1070
    44
1040
1.0
1070
    76
1070
     0
1070
    75
1070
     0
1070
   279
1070
     0
1070
   271
1070
     0
1070
   173
1070
     1
1070
    41
1040
3.0
1070
   140
1040
3.200000047683716
1070
   344
1005
2F6
1070
   343
1005
2F6
1002
}
  0
DIMENSION
  5
316
330
1F
100
AcDbEntity
  8
VIEW0002
 62
     7
100
AcDbDimension
  2
*D4
 10
57.76885604858398
 20
-64.44742529296875
 30
0.0
 11
65.65525607669353
 21
-64.44742529296875
 31
0.0
 70
   160
  1
5
 71
     5
 42
1.666652679443359
  3
ISO-25
100
AcDbAlignedDimension
 13
56.10220336914062
 23
-63.59124755859375
 33
0.0
 14
57.76885604858398
 24
-66.9911880493164
 34
0.0
 50
180.0
100
AcDbRotatedDimension
1001
ACAD
1000
DSTYLE
1002
{
1070
   178
1070
     1
1070
   278
1070
    46
1070
   147
1040
0.800000011920929
1070
    77
1070
     1
1070
    74
1070
     0
1070
    73
1070
     0
1070
    42
1040
2.54
1070
    44
1040
1.000003814697266
1070
    76
1070
     1
1070
    75
1070
     1
1070
   279
1070
     0
1070
   271
1070
     0
1070
   173
1070
     1
1070
    41
1040
3.0
1070
   140
1040
3.200000047683716
1070
   344
1005
2F6
1070
   343
1005
2F6
1002
}
  0
DIMENSION
  5
32A
330
1F
100
AcDbEntity
  8
VIEW0002
 62
     7
100
AcDbDimension
  2
*D5
 10
89.1028753051758
 20
-47.78192138671874
 30
0.0
 11
89.10287530517579
 21
-36.6143678894043
 31
0.0
 70
   160
  1
67
 71
     5
 42
22.33310890197754
  3
ISO-25
100
AcDbAlignedDimension
 13
78.76864624023438
 23
-25.44881248474121
 33
0.0
 14
73.10204315185547
 24
-47.78192138671875
 34
0.0
 50
90.00000000000001
100
AcDbRotatedDimension
1001
ACAD
1000
DSTYLE
1002
{
1070
   178
1070
     1
1070
   278
1070
    46
1070
   147
1040
0.800000011920929
1070
    77
1070
     1
1070
    74
1070
     0
1070
    73
1070
     0
1070
    42
1040
2.54
1070
    44
1040
1.0
1070
    76
1070
     0
1070
    75
1070
     0
1070
   279
1070
     0
1070
   271
1070
     0
1070
   173
1070
     1
1070
    41
1040
3.0
1070
   140
1040
3.200000047683716
1070
   344
1005
2F6
1070
   343
1005
2F6
1002
}
  0
DIMENSION
  5
337
330
1F
100
AcDbEntity
  8
VIEW0002
 62
     7
100
AcDbDimension
  2
*D6
 10
7.104694988250738
 20
-47.78192138671876
 30
0.0
 11
7.104694988250733
 21
-33.56439535522461
 31
0.0
 70
   160
  1
85
 71
     5
 42
28.43305015563966
  3
ISO-25
100
AcDbAlignedDimension
 13
19.90720558166504
 23
-19.3488712310791
 33
0.0
 14
42.43567276000977
 24
-47.78192138671875
 34
0.0
 50
90.00000000000001
100
AcDbRotatedDimension
1001
ACAD
1000
DSTYLE
1002
{
1070
   178
1070
     1
1070
   278
1070
    46
1070
   147
1040
0.800000011920929
1070
    77
1070
     1
1070
    74
1070
     0
1070
    73
1070
     0
1070
    42
1040
2.54
1070
    44
1040
1.0
1070
    76
1070
     0
1070
    75
1070
     0
1070
   279
1070
     0
1070
   271
1070
     0
1070
   173
1070
     1
1070
    41
1040
3.0
1070
   140
1040
3.200000047683716
1070
   344
1005
2F6
1070
   343
1005
2F6
1002
}
  0
DIMENSION
  5
344
330
1F
100
AcDbEntity
  8
VIEW0002
 62
     7
100
AcDbDimension
  2
*D7
 10
57.76885604858398
 20
1.317588210105894
 30
0.0
 11
37.43672616577148
 21
1.317588210105896
 31
0.0
 70
   160
  1
122
 71
     5
 42
40.66626167297364
  3
ISO-25
100
AcDbAlignedDimension
 13
17.10259437561035
 23
-8.68231201171875
 33
0.0
 14
57.76885604858398
 24
-34.4361686706543
 34
0.0
 50
180.0
100
AcDbRotatedDimension
1001
ACAD
1000
DSTYLE
1002
{
1070
   178
1070
     1
1070
   278
1070
    46
1070
   147
1040
0.800000011920929
1070
    77
1070
     1
1070
    74
1070
     0
1070
    73
1070
     0
1070
    42
1040
2.54
1070
    44
1040
1.00000011920929
1070
    76
1070
     0
1070
    75
1070
     1
1070
   279
1070
     0
1070
   271
1070
     0
1070
   173
1070
     1
1070
    41
1040
3.0
1070
   140
1040
3.200000047683716
1070
   344
1005
2F6
1070
   343
1005
2F6
1002
}
  0
DIMENSION
  5
350
330
1F
100
AcDbEntity
  8
VIEW0002
 62
     7
100
AcDbDimension
  2
*D8
 10
79.10197448730469
 20
1.317588210105895
 30
0.0
 11
68.43641717529297
 21
1.317588210105896
 31
0.0
 70
   160
  1
64
 71
     5
 42
21.3331184387207
  3
ISO-25
100
AcDbAlignedDimension
 13
57.76885604858398
 23
-34.4361686706543
 33
0.0
 14
79.10197448730469
 24
-20.78219223022461
 34
0.0
 50
180.0
100
AcDbRotatedDimension
1001
ACAD
1000
DSTYLE
1002
{
1070
   178
1070
     1
1070
   278
1070
    46
1070
   147
1040
0.800000011920929
1070
    77
1070
     1
1070
    74
1070
     0
1070
    73
1070
     0
1070
    42
1040
2.54
1070
    44
1040
1.00000011920929
1070
    76
1070
     1
1070
    75
1070
     1
1070
   279
1070
     0
1070
   271
1070
     0
1070
   173
1070
     1
1070
    41
1040
3.0
1070
   140
1040
3.200000047683716
1070
   344
1005
2F6
1070
   343
1005
2F6
1002
}
  0
DIMENSION
  5
35B
330
1F
100
AcDbEntity
  8
VIEW0002
 62
     7
100
AcDbDimension
  2
*D9
 10
17.10259437561035
 20
11.31748867034912
 30
0.0
 11
48.10428729248046
 21
11.31748867034912
 31
0.0
 70
   160
  1
186
 71
     5
 42
61.99938011169434
  3
ISO-25
100
AcDbAlignedDimension
 13
79.10197448730469
 23
-20.78219223022461
 33
0.0
 14
17.10259437561035
 24
-8.68231201171875
 34
0.0
100
AcDbRotatedDimension
1001
ACAD
1000
DSTYLE
1002
{
1070
   178
1070
     1
1070
   278
1070
    46
1070
   147
1040
0.800000011920929
1070
    77
1070
     1
1070
    74
1070
     0
1070
    73
1070
     0
1070
    42
1040
2.54
1070
    44
1040
1.0
1070
    76
1070
     0
1070
    75
1070
     0
1070
   279
1070
     0
1070
   271
1070
     0
1070
   173
1070
     1
1070
    41
1040
3.0
1070
   140
1040
3.200000047683716
1070
   344
1005
2F6
1070
   343
1005
2F6
1002
}
  0
DIMENSION
  5
368
330
1F
100
AcDbEntity
  8
VIEW0002
 62
     7
100
AcDbDimension
  2
*D10
 10
-72.56217138671875
 20
-8.68231201171875
 30
0.0
 11
-72.56217138671875
 21
-46.34760229492188
 31
0.0
 70
   160
  1
226
 71
     5
 42
75.33258056640624
  3
ISO-25
100
AcDbAlignedDimension
 13
-40.7801513671875
 23
-84.014892578125
 33
0.0
 14
-62.56327056884766
 24
-8.68231201171875
 34
0.0
 50
270.0
100
AcDbRotatedDimension
1001
ACAD
1000
DSTYLE
1002
{
1070
   178
1070
     1
1070
   278
1070
    46
1070
   147
1040
0.800000011920929
1070
    77
1070
     1
1070
    74
1070
     0
1070
    73
1070
     0
1070
    42
1040
2.54
1070
    44
1040
1.0
1070
    76
1070
     0
1070
    75
1070
     0
1070
   279
1070
     0
1070
   271
1070
     0
1070
   173
1070
     1
1070
    41
1040
3.0
1070
   140
1040
3.200000047683716
1070
   344
1005
2F6
1070
   343
1005
2F6
1002
}
  0
DIMENSION
  5
375
330
1F
100
AcDbEntity
  8
VIEW0002
 62
     7
100
AcDbDimension
  2
*D11
 10
0.436097800731659
 20
23.72012574768066
 30
0.0
 11
-31.0625871887207
 21
23.72012574768067
 31
0.0
 70
   160
  1
189
 71
     5
 42
62.99936836957932
  3
ISO-25
100
AcDbAlignedDimension
 13
-62.56327056884766
 23
38.95709609985352
 33
0.0
 14
0.436097800731659
 24
38.95709609985352
 34
0.0
 50
180.0
100
AcDbRotatedDimension
1001
ACAD
1000
DSTYLE
1002
{
1070
   178
1070
     1
1070
   278
1070
    46
1070
   147
1040
0.800000011920929
1070
    77
1070
     1
1070
    74
1070
     0
1070
    73
1070
     0
1070
    42
1040
2.54
1070
    44
1040
1.0
1070
    76
1070
     0
1070
    75
1070
     0
1070
   279
1070
     0
1070
   271
1070
     0
1070
   173
1070
     1
1070
    41
1040
3.0
1070
   140
1040
3.200000047683716
1070
   344
1005
2F6
1070
   343
1005
2F6
1002
}
  0
DIMENSION
  5
382
330
1F
100
AcDbEntity
  8
VIEW0002
 62
     7
100
AcDbDimension
  2
*D12
 10
-3.063868522644043
 20
105.7183151245117
 30
0.0
 11
-31.0625871887207
 21
105.7183151245117
 31
0.0
 70
   160
  1
168
 71
     5
 42
55.99944019317627
  3
ISO-25
100
AcDbAlignedDimension
 13
-59.06330871582031
 23
95.71841430664062
 33
0.0
 14
-3.063868522644043
 24
95.71841430664062
 34
0.0
 50
180.0
100
AcDbRotatedDimension
1001
ACAD
1000
DSTYLE
1002
{
1070
   178
1070
     1
1070
   278
1070
    46
1070
   147
1040
0.800000011920929
1070
    77
1070
     1
1070
    74
1070
     0
1070
    73
1070
     0
1070
    42
1040
2.54
1070
    44
1040
1.0
1070
    76
1070
     0
1070
    75
1070
     0
1070
   279
1070
     0
1070
   271
1070
     0
1070
   173
1070
     1
1070
    41
1040
3.0
1070
   140
1040
3.200000047683716
1070
   344
1005
2F6
1070
   343
1005
2F6
1002
}
  0
DIMENSION
  5
38F
330
1F
100
AcDbEntity
  8
VIEW0002
 62
     7
100
AcDbDimension
  2
*D13
 10
-72.56117138671873
 20
33.71902465820312
 30
0.0
 11
-72.56117138671874
 21
64.71971948242188
 31
0.0
 70
   160
  1
186
 71
     5
 42
61.99938964843751
  3
ISO-25
100
AcDbAlignedDimension
 13
-59.06330871582031
 23
95.71841430664062
 33
0.0
 14
-31.0635871887207
 24
33.71902465820312
 34
0.0
 50
90.00000000000001
100
AcDbRotatedDimension
1001
ACAD
1000
DSTYLE
1002
{
1070
   178
1070
     1
1070
   278
1070
    46
1070
   147
1040
0.800000011920929
1070
    77
1070
     1
1070
    74
1070
     0
1070
    73
1070
     0
1070
    42
1040
2.54
1070
    44
1040
1.0
1070
    76
1070
     0
1070
    75
1070
     0
1070
   279
1070
     0
1070
   271
1070
     0
1070
   173
1070
     1
1070
    41
1040
3.0
1070
   140
1040
3.200000047683716
1070
   344
1005
2F6
1070
   343
1005
2F6
1002
}
  0
DIMENSION
  5
39C
330
1F
100
AcDbEntity
  8
VIEW0002
 62
     7
100
AcDbDimension
  2
*D14
 10
-21.28035163879395
 20
-94.01379339599609
 30
0.0
 11
-31.0625871887207
 21
-94.01379339599609
 31
0.0
 70
   160
  1
59
 71
     5
 42
19.56647300720215
  3
ISO-25
100
AcDbAlignedDimension
 13
-40.84682464599609
 23
-84.014892578125
 33
0.0
 14
-21.28035163879395
 24
-84.014892578125
 34
0.0
 50
180.0
100
AcDbRotatedDimension
1001
ACAD
1000
DSTYLE
1002
{
1070
   178
1070
     1
1070
   278
1070
    46
1070
   147
1040
0.800000011920929
1070
    77
1070
     1
1070
    74
1070
     0
1070
    73
1070
     0
1070
    42
1040
2.54
1070
    44
1040
1.0
1070
    76
1070
     0
1070
    75
1070
     0
1070
   279
1070
     0
1070
   271
1070
     0
1070
   173
1070
     1
1070
    41
1040
3.0
1070
   140
1040
3.200000047683716
1070
   344
1005
2F6
1070
   343
1005
2F6
1002
}
  0
DIMENSION
  5
3A9
330
1F
100
AcDbEntity
  8
VIEW0002
 62
     7
100
AcDbDimension
  2
*D15
 10
-18.89705085754395
 20
-104.0136942138672
 30
0.0
 11
-31.0625871887207
 21
-104.0136942138672
 31
0.0
 70
   160
  1
73
 71
     5
 42
24.33307456970215
  3
ISO-25
100
AcDbAlignedDimension
 13
-43.23012542724609
 23
-81.43158721923828
 33
0.0
 14
-18.89705085754395
 24
-81.43158721923828
 34
0.0
 50
180.0
100
AcDbRotatedDimension
1001
ACAD
1000
DSTYLE
1002
{
1070
   178
1070
     1
1070
   278
1070
    46
1070
   147
1040
0.800000011920929
1070
    77
1070
     1
1070
    74
1070
     0
1070
    73
1070
     0
1070
    42
1040
2.54
1070
    44
1040
1.0
1070
    76
1070
     0
1070
    75
1070
     0
1070
   279
1070
     0
1070
   271
1070
     0
1070
   173
1070
     1
1070
    41
1040
3.0
1070
   140
1040
3.200000047683716
1070
   344
1005
2F6
1070
   343
1005
2F6
1002
}
  0
DIMENSION
  5
3B6
330
1F
100
AcDbEntity
  8
VIEW0002
 62
     7
100
AcDbDimension
  2
*D16
 10
-62.56127438354493
 20
-81.4315872192383
 30
0.0
 11
-62.56127438354493
 21
-78.4306177368164
 31
0.0
 70
   160
  1
18
 71
     5
 42
5.99993896484375
  3
ISO-25
100
AcDbAlignedDimension
 13
-43.39679718017578
 23
-75.43164825439453
 33
0.0
 14
-43.23012542724609
 24
-81.43158721923828
 34
0.0
 50
90.00000000000001
100
AcDbRotatedDimension
1001
ACAD
1000
DSTYLE
1002
{
1070
   178
1070
     1
1070
   278
1070
    46
1070
   147
1040
0.800000011920929
1070
    77
1070
     1
1070
    74
1070
     0
1070
    73
1070
     0
1070
    42
1040
2.54
1070
    44
1040
1.0
1070
    76
1070
     0
1070
    75
1070
     0
1070
   279
1070
     0
1070
   271
1070
     0
1070
   173
1070
     1
1070
    41
1040
3.0
1070
   140
1040
3.200000047683716
1070
   344
1005
2F6
1070
   343
1005
2F6
1002
}
  0
ENDSEC
  0
SECTION
  2
OBJECTS
  0
DICTIONARY
  5
C
330
0
100
AcDbDictionary
281
     1
  3
ACAD_GROUP
350
D
  3
ACAD_LAYOUT
350
1A
  3
ACAD_MATERIAL
350
3B
  3
ACAD_MLEADERSTYLE
350
3EC
  3
ACAD_MLINESTYLE
350
17
  3
ACAD_PLOTSETTINGS
350
19
  3
ACAD_PLOTSTYLENAME
350
E
  3
ACAD_TABLESTYLE
350
3EB
  3
ACAD_VISUALSTYLE
350
2A
  0
DICTIONARY
  5
D
102
{ACAD_REACTORS
330
C
102
}
330
C
100
AcDbDictionary
281
     1
  0
DICTIONARY
  5
1A
102
{ACAD_REACTORS
330
C
102
}
330
C
100
AcDbDictionary
281
     1
  3
Layout1
350
1E
  3
Layout2
350
26
  3
Model
350
22
  0
DICTIONARY
  5
3B
102
{ACAD_REACTORS
330
C
102
}
330
C
100
AcDbDictionary
281
     1
  3
ByBlock
350
3D
  3
ByLayer
350
3C
  3
Global
350
3E
  0
DICTIONARY
  5
3EC
102
{ACAD_REACTORS
330
C
102
}
330
C
100
AcDbDictionary
281
     1
  0
DICTIONARY
  5
17
102
{ACAD_REACTORS
330
C
102
}
330
C
100
AcDbDictionary
281
     1
  3
Standard
350
18
  0
DICTIONARY
  5
19
102
{ACAD_REACTORS
330
C
102
}
330
C
100
AcDbDictionary
281
     1
  0
ACDBDICTIONARYWDFLT
  5
E
102
{ACAD_REACTORS
330
C
102
}
330
C
100
AcDbDictionary
281
     1
  3
Normal
350
F
100
AcDbDictionaryWithDefault
340
F
  0
DICTIONARY
  5
3EB
102
{ACAD_REACTORS
330
C
102
}
330
C
100
AcDbDictionary
281
     1
  0
DICTIONARY
  5
2A
102
{ACAD_REACTORS
330
C
102
}
330
C
100
AcDbDictionary
281
     1
  3
2dWireframe
350
2F
  3
3D Hidden
350
31
  3
3dWireframe
350
30
  3
Basic
350
32
  3
Brighten
350
36
  3
ColorChange
350
3A
  3
Conceptual
350
34
  3
Dim
350
35
  3
Facepattern
350
39
  3
Flat
350
2B
  3
FlatWithEdges
350
2C
  3
Gouraud
350
2D
  3
GouraudWithEdges
350
2E
  3
Linepattern
350
38
  3
Realistic
350
33
  3
Thicken
350
37
  0
LAYOUT
  5
1E
102
{ACAD_REACTORS
330
1A
102
}
330
1A
100
AcDbPlotSettings
  1

  2
none_device
  4

  6

 40
0.0
 41
0.0
 42
0.0
 43
0.0
 44
0.0
 45
0.0
 46
0.0
 47
0.0
 48
0.0
 49
0.0
140
0.0
141
0.0
142
1.0
143
1.0
 70
   688
 72
     0
 73
     0
 74
     5
  7

 75
    16
 76
     0
 77
     2
 78
   300
147
1.0
148
0.0
149
0.0
100
AcDbLayout
  1
Layout1
 70
     1
 71
     1
 10
-105.0
 20
-148.5
 11
105.0
 21
148.5
 12
0.0
 22
0.0
 32
0.0
 14
1.000000000000000E+20
 24
1.000000000000000E+20
 34
1.000000000000000E+20
 15
-1.000000000000000E+20
 25
-1.000000000000000E+20
 35
-1.000000000000000E+20
146
0.0
 13
0.0
 23
0.0
 33
0.0
 16
1.0
 26
0.0
 36
0.0
 17
0.0
 27
1.0
 37
0.0
 76
     0
330
1B
  0
LAYOUT
  5
26
102
{ACAD_REACTORS
330
1A
102
}
330
1A
100
AcDbPlotSettings
  1

  2
none_device
  4

  6

 40
0.0
 41
0.0
 42
0.0
 43
0.0
 44
0.0
 45
0.0
 46
0.0
 47
0.0
 48
0.0
 49
0.0
140
0.0
141
0.0
142
1.0
143
1.0
 70
   688
 72
     0
 73
     0
 74
     5
  7

 75
    16
 76
     0
 77
     2
 78
   300
147
1.0
148
0.0
149
0.0
100
AcDbLayout
  1
Layout2
 70
     1
 71
     2
 10
0.0
 20
0.0
 11
0.0
 21
0.0
 12
0.0
 22
0.0
 32
0.0
 14
0.0
 24
0.0
 34
0.0
 15
0.0
 25
0.0
 35
0.0
146
0.0
 13
0.0
 23
0.0
 33
0.0
 16
1.0
 26
0.0
 36
0.0
 17
0.0
 27
1.0
 37
0.0
 76
     0
330
23
  0
LAYOUT
  5
22
102
{ACAD_REACTORS
330
1A
102
}
330
1A
100
AcDbPlotSettings
  1

  2
none_device
  4

  6

 40
0.0
 41
0.0
 42
0.0
 43
0.0
 44
0.0
 45
0.0
 46
0.0
 47
0.0
 48
0.0
 49
0.0
140
0.0
141
0.0
142
1.0
143
1.0
 70
  1712
 72
     0
 73
     0
 74
     0
  7

 75
     0
 76
     0
 77
     2
 78
   300
147
1.0
148
0.0
149
0.0
100
AcDbLayout
  1
Model
 70
     1
 71
     0
 10
-105.0
 20
-148.5
 11
105.0
 21
148.5
 12
0.0
 22
0.0
 32
0.0
 14
-105.0
 24
-148.5
 34
0.0
 15
105.0
 25
148.5
 35
0.0
146
0.0
 13
0.0
 23
0.0
 33
0.0
 16
1.0
 26
0.0
 36
0.0
 17
0.0
 27
1.0
 37
0.0
 76
     0
330
1F
331
29
  0
MATERIAL
  5
3D
102
{ACAD_REACTORS
330
3B
102
}
102
{ACAD_XDICTIONARY
360
3E7
102
}
330
3B
100
AcDbMaterial
  1
ByBlock
  0
MATERIAL
  5
3C
102
{ACAD_REACTORS
330
3B
102
}
102
{ACAD_XDICTIONARY
360
3E5
102
}
330
3B
100
AcDbMaterial
  1
ByLayer
  0
MATERIAL
  5
3E
102
{ACAD_REACTORS
330
3B
102
}
102
{ACAD_XDICTIONARY
360
3E9
102
}
330
3B
100
AcDbMaterial
  1
Global
  0
MLINESTYLE
  5
18
102
{ACAD_REACTORS
330
17
102
}
330
17
100
AcDbMlineStyle
  2
Standard
 70
     0
  3

 62
   256
 51
90.0
 52
90.0
 71
     2
 49
0.5
 62
   256
  6
BYLAYER
 49
-0.5
 62
   256
  6
BYLAYER
  0
ACDBPLACEHOLDER
  5
F
102
{ACAD_REACTORS
330
E
102
}
330
E
  0
VISUALSTYLE
  5
2F
102
{ACAD_REACTORS
330
2A
102
}
102
{ACAD_XDICTIONARY
360
3CD
102
}
330
2A
100
AcDbVisualStyle
  2
2dWireframe
 70
     4
 71
     0
 72
     2
 73
     0
 90
        0
 40
-0.6
 41
-30.0
 62
     5
 63
     7
421
 16777215
 74
     1
 91
        4
 64
     7
 65
   257
 75
     1
175
     1
 42
1.0
 92
        0
 66
   257
 43
1.0
 76
     1
 77
     6
 78
     2
 67
     7
 79
     5
170
     0
171
     0
290
     0
174
     0
 93
        1
 44
0.0
173
     0
291
     0
 45
0.0
1001
ACAD
1000
AcDbSavedByObjectVersion
1070
     0
  0
VISUALSTYLE
  5
31
102
{ACAD_REACTORS
330
2A
102
}
102
{ACAD_XDICTIONARY
360
3D1
102
}
330
2A
100
AcDbVisualStyle
  2
3D Hidden
 70
     6
 71
     1
 72
     2
 73
     2
 90
        0
 40
-0.6
 41
-30.0
 62
     5
 63
     7
421
 16777215
 74
     2
 91
        2
 64
     7
 65
   257
 75
     2
175
     1
 42
40.0
 92
        0
 66
   257
 43
1.0
 76
     1
 77
     6
 78
     2
 67
     7
 79
     3
170
     0
171
     0
290
     0
174
     0
 93
        1
 44
0.0
173
     0
291
     0
 45
0.0
1001
ACAD
1000
AcDbSavedByObjectVersion
1070
     0
  0
VISUALSTYLE
  5
30
102
{ACAD_REACTORS
330
2A
102
}
102
{ACAD_XDICTIONARY
360
3CF
102
}
330
2A
100
AcDbVisualStyle
  2
3dWireframe
 70
     5
 71
     0
 72
     2
 73
     0
 90
        0
 40
-0.6
 41
-30.0
 62
     5
 63
     7
421
 16777215
 74
     1
 91
        4
 64
     7
 65
   257
 75
     1
175
     1
 42
1.0
 92
        0
 66
   257
 43
1.0
 76
     1
 77
     6
 78
     2
 67
     7
 79
     5
170
     0
171
     0
290
     0
174
     0
 93
        1
 44
0.0
173
     0
291
     0
 45
0.0
1001
ACAD
1000
AcDbSavedByObjectVersion
1070
     0
  0
VISUALSTYLE
  5
32
102
{ACAD_REACTORS
330
2A
102
}
102
{ACAD_XDICTIONARY
360
3D3
102
}
330
2A
100
AcDbVisualStyle
  2
Basic
 70
     7
 71
     1
 72
     0
 73
     1
 90
        0
 40
-0.6
 41
-30.0
 62
     5
 63
     7
421
 16777215
 74
     0
 91
        4
 64
     7
 65
   257
 75
     1
175
     1
 42
1.0
 92
        8
 66
     7
 43
1.0
 76
     1
 77
     6
 78
     2
 67
     7
 79
     5
170
     0
171
     0
290
     0
174
     0
 93
        1
 44
0.0
173
     0
291
     1
 45
0.0
1001
ACAD
1000
AcDbSavedByObjectVersion
1070
     0
  0
VISUALSTYLE
  5
36
102
{ACAD_REACTORS
330
2A
102
}
102
{ACAD_XDICTIONARY
360
3DB
102
}
330
2A
100
AcDbVisualStyle
  2
Brighten
 70
    12
 71
     2
 72
     2
 73
     0
 90
        0
 40
-0.6
 41
-30.0
 62
     5
 63
     7
421
 16777215
 74
     1
 91
        4
 64
     7
 65
   257
 75
     1
175
     1
 42
1.0
 92
        8
 66
     7
 43
1.0
 76
     1
 77
     6
 78
     2
 67
     7
 79
     5
170
     0
171
     0
290
     0
174
     0
 93
        1
 44
50.0
173
     0
291
     1
 45
0.0
1001
ACAD
1000
AcDbSavedByObjectVersion
1070
     0
  0
VISUALSTYLE
  5
3A
102
{ACAD_REACTORS
330
2A
102
}
102
{ACAD_XDICTIONARY
360
3E3
102
}
330
2A
100
AcDbVisualStyle
  2
ColorChange
 70
    16
 71
     2
 72
     2
 73
     3
 90
        0
 40
-0.6
 41
-30.0
 62
     5
 63
     8
421
  8421504
 74
     1
 91
        4
 64
     7
 65
   257
 75
     1
175
     1
 42
1.0
 92
        8
 66
     8
424
  8421504
 43
1.0
 76
     1
 77
     6
 78
     2
 67
     7
 79
     5
170
     0
171
     0
290
     0
174
     0
 93
        1
 44
0.0
173
     0
291
     1
 45
0.0
1001
ACAD
1000
AcDbSavedByObjectVersion
1070
     0
  0
VISUALSTYLE
  5
34
102
{ACAD_REACTORS
330
2A
102
}
102
{ACAD_XDICTIONARY
360
3D7
102
}
330
2A
100
AcDbVisualStyle
  2
Conceptual
 70
     9
 71
     3
 72
     2
 73
     0
 90
        0
 40
-0.6
 41
-30.0
 62
     5
 63
     7
421
 16777215
 74
     2
 91
        2
 64
     7
 65
   257
 75
     1
175
     1
 42
40.0
 92
        8
 66
     7
 43
1.0
 76
     1
 77
     6
 78
     2
 67
     7
 79
     3
170
     0
171
     0
290
     0
174
     0
 93
        1
 44
0.0
173
     0
291
     0
 45
0.0
1001
ACAD
1000
AcDbSavedByObjectVersion
1070
     0
  0
VISUALSTYLE
  5
35
102
{ACAD_REACTORS
330
2A
102
}
102
{ACAD_XDICTIONARY
360
3D9
102
}
330
2A
100
AcDbVisualStyle
  2
Dim
 70
    11
 71
     2
 72
     2
 73
     0
 90
        0
 40
-0.6
 41
-30.0
 62
     5
 63
     7
421
 16777215
 74
     1
 91
        4
 64
     7
 65
   257
 75
     1
175
     1
 42
1.0
 92
        8
 66
     7
 43
1.0
 76
     1
 77
     6
 78
     2
 67
     7
 79
     5
170
     0
171
     0
290
     0
174
     0
 93
        1
 44
-50.0
173
     0
291
     1
 45
0.0
1001
ACAD
1000
AcDbSavedByObjectVersion
1070
     0
  0
VISUALSTYLE
  5
39
102
{ACAD_REACTORS
330
2A
102
}
102
{ACAD_XDICTIONARY
360
3E1
102
}
330
2A
100
AcDbVisualStyle
  2
Facepattern
 70
    15
 71
     2
 72
     2
 73
     0
 90
        0
 40
-0.6
 41
-30.0
 62
     5
 63
     7
421
 16777215
 74
     1
 91
        4
 64
     7
 65
   257
 75
     1
175
     1
 42
1.0
 92
        8
 66
     7
 43
1.0
 76
     1
 77
     6
 78
     2
 67
     7
 79
     5
170
     0
171
     0
290
     0
174
     0
 93
        1
 44
0.0
173
     0
291
     1
 45
0.0
1001
ACAD
1000
AcDbSavedByObjectVersion
1070
     0
  0
VISUALSTYLE
  5
2B
102
{ACAD_REACTORS
330
2A
102
}
102
{ACAD_XDICTIONARY
360
3C5
102
}
330
2A
100
AcDbVisualStyle
  2
Flat
 70
     0
 71
     2
 72
     1
 73
     1
 90
        2
 40
-0.6
 41
30.0
 62
     5
 63
     7
421
 16777215
 74
     0
 91
        4
 64
     7
 65
   257
 75
     1
175
     1
 42
1.0
 92
        8
 66
     7
 43
1.0
 76
     1
 77
     6
 78
     2
 67
     7
 79
     5
170
     0
171
     0
290
     0
174
     0
 93
       13
 44
0.0
173
     0
291
     1
 45
0.0
1001
ACAD
1000
AcDbSavedByObjectVersion
1070
     0
  0
VISUALSTYLE
  5
2C
102
{ACAD_REACTORS
330
2A
102
}
102
{ACAD_XDICTIONARY
360
3C7
102
}
330
2A
100
AcDbVisualStyle
  2
FlatWithEdges
 70
     1
 71
     2
 72
     1
 73
     1
 90
        2
 40
-0.6
 41
30.0
 62
     5
 63
     7
421
 16777215
 74
     1
 91
        4
 64
     7
 65
   257
 75
     1
175
     1
 42
1.0
 92
        0
 66
   257
 43
1.0
 76
     1
 77
     6
 78
     2
 67
     7
 79
     5
170
     0
171
     0
290
     0
174
     0
 93
       13
 44
0.0
173
     0
291
     1
 45
0.0
1001
ACAD
1000
AcDbSavedByObjectVersion
1070
     0
  0
VISUALSTYLE
  5
2D
102
{ACAD_REACTORS
330
2A
102
}
102
{ACAD_XDICTIONARY
360
3C9
102
}
330
2A
100
AcDbVisualStyle
  2
Gouraud
 70
     2
 71
     2
 72
     2
 73
     1
 90
        2
 40
-0.6
 41
30.0
 62
     5
 63
     7
421
 16777215
 74
     0
 91
        4
 64
     7
 65
   257
 75
     1
175
     1
 42
1.0
 92
        0
 66
     7
 43
1.0
 76
     1
 77
     6
 78
     2
 67
     7
 79
     5
170
     0
171
     0
290
     0
174
     0
 93
       13
 44
0.0
173
     0
291
     1
 45
0.0
1001
ACAD
1000
AcDbSavedByObjectVersion
1070
     0
  0
VISUALSTYLE
  5
2E
102
{ACAD_REACTORS
330
2A
102
}
102
{ACAD_XDICTIONARY
360
3CB
102
}
330
2A
100
AcDbVisualStyle
  2
GouraudWithEdges
 70
     3
 71
     2
 72
     2
 73
     1
 90
        2
 40
-0.6
 41
30.0
 62
     5
 63
     7
421
 16777215
 74
     1
 91
        4
 64
     7
 65
   257
 75
     1
175
     1
 42
1.0
 92
        0
 66
   257
 43
1.0
 76
     1
 77
     6
 78
     2
 67
     7
 79
     5
170
     0
171
     0
290
     0
174
     0
 93
       13
 44
0.0
173
     0
291
     1
 45
0.0
1001
ACAD
1000
AcDbSavedByObjectVersion
1070
     0
  0
VISUALSTYLE
  5
38
102
{ACAD_REACTORS
330
2A
102
}
102
{ACAD_XDICTIONARY
360
3DF
102
}
330
2A
100
AcDbVisualStyle
  2
Linepattern
 70
    14
 71
     2
 72
     2
 73
     0
 90
        0
 40
-0.6
 41
-30.0
 62
     5
 63
     7
421
 16777215
 74
     1
 91
        4
 64
     7
 65
   257
 75
     7
175
     7
 42
1.0
 92
        8
 66
     7
 43
1.0
 76
     1
 77
     6
 78
     2
 67
     7
 79
     5
170
     0
171
     0
290
     0
174
     0
 93
        1
 44
0.0
173
     0
291
     1
 45
0.0
1001
ACAD
1000
AcDbSavedByObjectVersion
1070
     0
  0
VISUALSTYLE
  5
33
102
{ACAD_REACTORS
330
2A
102
}
102
{ACAD_XDICTIONARY
360
3D5
102
}
330
2A
100
AcDbVisualStyle
  2
Realistic
 70
     8
 71
     2
 72
     2
 73
     0
 90
        0
 40
-0.6
 41
-30.0
 62
     5
 63
     7
421
 16777215
 74
     1
 91
        0
 64
     7
 65
   257
 75
     1
175
     1
 42
1.0
 92
        8
 66
     8
424
  7895160
 43
1.0
 76
     1
 77
     6
 78
     2
 67
     7
 79
     5
170
     0
171
     0
290
     0
174
     0
 93
       13
 44
0.0
173
     0
291
     0
 45
0.0
1001
ACAD
1000
AcDbSavedByObjectVersion
1070
     0
  0
VISUALSTYLE
  5
37
102
{ACAD_REACTORS
330
2A
102
}
102
{ACAD_XDICTIONARY
360
3DD
102
}
330
2A
100
AcDbVisualStyle
  2
Thicken
 70
    13
 71
     2
 72
     2
 73
     0
 90
        0
 40
-0.6
 41
-30.0
 62
     5
 63
     7
421
 16777215
 74
     1
 91
        4
 64
     7
 65
   257
 75
     1
175
     1
 42
1.0
 92
       12
 66
     7
 43
1.0
 76
     1
 77
     6
 78
     2
 67
     7
 79
     5
170
     0
171
     0
290
     0
174
     0
 93
        1
 44
0.0
173
     0
291
     1
 45
0.0
1001
ACAD
1000
AcDbSavedByObjectVersion
1070
     0
  0
DICTIONARY
  5
3E7
330
3D
100
AcDbDictionary
280
     1
281
     1
  3
ACAD_XREC_ROUNDTRIP
360
3E8
  0
DICTIONARY
  5
3E5
330
3C
100
AcDbDictionary
280
     1
281
     1
  3
ACAD_XREC_ROUNDTRIP
360
3E6
  0
DICTIONARY
  5
3E9
330
3E
100
AcDbDictionary
280
     1
281
     1
  3
ACAD_XREC_ROUNDTRIP
360
3EA
  0
DICTIONARY
  5
3CD
330
2F
100
AcDbDictionary
280
     1
281
     1
  3
ACAD_XREC_ROUNDTRIP
360
3CE
  0
DICTIONARY
  5
3D1
330
31
100
AcDbDictionary
280
     1
281
     1
  3
ACAD_XREC_ROUNDTRIP
360
3D2
  0
DICTIONARY
  5
3CF
330
30
100
AcDbDictionary
280
     1
281
     1
  3
ACAD_XREC_ROUNDTRIP
360
3D0
  0
DICTIONARY
  5
3D3
330
32
100
AcDbDictionary
280
     1
281
     1
  3
ACAD_XREC_ROUNDTRIP
360
3D4
  0
DICTIONARY
  5
3DB
330
36
100
AcDbDictionary
280
     1
281
     1
  3
ACAD_XREC_ROUNDTRIP
360
3DC
  0
DICTIONARY
  5
3E3
330
3A
100
AcDbDictionary
280
     1
281
     1
  3
ACAD_XREC_ROUNDTRIP
360
3E4
  0
DICTIONARY
  5
3D7
330
34
100
AcDbDictionary
280
     1
281
     1
  3
ACAD_XREC_ROUNDTRIP
360
3D8
  0
DICTIONARY
  5
3D9
330
35
100
AcDbDictionary
280
     1
281
     1
  3
ACAD_XREC_ROUNDTRIP
360
3DA
  0
DICTIONARY
  5
3E1
330
39
100
AcDbDictionary
280
     1
281
     1
  3
ACAD_XREC_ROUNDTRIP
360
3E2
  0
DICTIONARY
  5
3C5
330
2B
100
AcDbDictionary
280
     1
281
     1
  3
ACAD_XREC_ROUNDTRIP
360
3C6
  0
DICTIONARY
  5
3C7
330
2C
100
AcDbDictionary
280
     1
281
     1
  3
ACAD_XREC_ROUNDTRIP
360
3C8
  0
DICTIONARY
  5
3C9
330
2D
100
AcDbDictionary
280
     1
281
     1
  3
ACAD_XREC_ROUNDTRIP
360
3CA
  0
DICTIONARY
  5
3CB
330
2E
100
AcDbDictionary
280
     1
281
     1
  3
ACAD_XREC_ROUNDTRIP
360
3CC
  0
DICTIONARY
  5
3DF
330
38
100
AcDbDictionary
280
     1
281
     1
  3
ACAD_XREC_ROUNDTRIP
360
3E0
  0
DICTIONARY
  5
3D5
330
33
100
AcDbDictionary
280
     1
281
     1
  3
ACAD_XREC_ROUNDTRIP
360
3D6
  0
DICTIONARY
  5
3DD
330
37
100
AcDbDictionary
280
     1
281
     1
  3
ACAD_XREC_ROUNDTRIP
360
3DE
  0
XRECORD
  5
3E8
102
{ACAD_REACTORS
330
3E7
102
}
330
3E7
100
AcDbXrecord
280
     1
102
MATERIAL
148
0.0
149
0.0
149
0.0
 93
        0
 94
      127
282
     0
 72
     1
 77
     1
171
     1
175
     1
179
     1
273
     0
  0
XRECORD
  5
3E6
102
{ACAD_REACTORS
330
3E5
102
}
330
3E5
100
AcDbXrecord
280
     1
102
MATERIAL
148
0.0
149
0.0
149
0.0
 93
        0
 94
      127
282
     0
 72
     1
 77
     1
171
     1
175
     1
179
     1
273
     0
  0
XRECORD
  5
3EA
102
{ACAD_REACTORS
330
3E9
102
}
330
3E9
100
AcDbXrecord
280
     1
102
MATERIAL
148
0.0
149
0.0
149
0.0
 93
        0
 94
      127
282
     0
 72
     1
 77
     1
171
     1
175
     1
179
     1
273
     0
  0
XRECORD
  5
3CE
102
{ACAD_REACTORS
330
3CD
102
}
330
3CD
100
AcDbXrecord
280
     1
102
RTVSPropertyOp0
 70
     1
102
RTVSPropertyOp1
 70
     1
102
RTVSPropertyOp2
 70
     1
102
RTVSPropertyOp3
 70
     1
102
RTVSPropertyOp4
 70
     1
102
RTVSPropertyOp5
 70
     1
102
RTVSPropertyOp6
 70
     1
102
RTVSPropertyOp7
 70
     1
102
RTVSPropertyOp8
 70
     1
102
RTVSPropertyOp9
 70
     1
102
RTVSPropertyOp10
 70
     1
102
RTVSPropertyOp11
 70
     1
102
RTVSPropertyOp12
 70
     1
102
RTVSPropertyOp13
 70
     1
102
RTVSPropertyOp14
 70
     1
102
RTVSPropertyOp15
 70
     1
102
RTVSPropertyOp16
 70
     1
102
RTVSPropertyOp17
 70
     1
102
RTVSPropertyOp18
 70
     1
102
RTVSPropertyOp19
 70
     1
102
RTVSPropertyOp20
 70
     1
102
RTVSPropertyOp21
 70
     1
102
RTVSPropertyOp22
 70
     1
102
RTVSPropertyOp23
 70
     1
102
RTVSPropertyOp24
 70
     1
102
RTVSPropertyOp25
 70
     1
102
RTVSPropertyOp26
 70
     1
102
RTVSPropertyOp27
 70
     1
102
RTVSPropertyOp28
 70
     1
102
RTVSPropertyOp29
 70
     1
102
RTVSPropertyOp30
 70
     1
102
RTVSPropertyOp31
 70
     1
102
RTVSPropertyOp32
 70
     1
  0
XRECORD
  5
3D2
102
{ACAD_REACTORS
330
3D1
102
}
330
3D1
100
AcDbXrecord
280
     1
102
RTVSPropertyOp0
 70
     1
102
RTVSPropertyOp1
 70
     1
102
RTVSPropertyOp2
 70
     1
102
RTVSPropertyOp3
 70
     1
102
RTVSPropertyOp4
 70
     1
102
RTVSPropertyOp5
 70
     1
102
RTVSPropertyOp6
 70
     1
102
RTVSPropertyOp7
 70
     1
102
RTVSPropertyOp8
 70
     1
102
RTVSPropertyOp9
 70
     1
102
RTVSPropertyOp10
 70
     1
102
RTVSPropertyOp11
 70
     1
102
RTVSPropertyOp12
 70
     1
102
RTVSPropertyOp13
 70
     1
102
RTVSPropertyOp14
 70
     1
102
RTVSPropertyOp15
 70
     1
102
RTVSPropertyOp16
 70
     1
102
RTVSPropertyOp17
 70
     1
102
RTVSPropertyOp18
 70
     1
102
RTVSPropertyOp19
 70
     1
102
RTVSPropertyOp20
 70
     1
102
RTVSPropertyOp21
 70
     1
102
RTVSPropertyOp22
 70
     1
102
RTVSPropertyOp23
 70
     1
102
RTVSPropertyOp24
 70
     1
102
RTVSPropertyOp25
 70
     1
102
RTVSPropertyOp26
 70
     1
102
RTVSPropertyOp27
 70
     1
102
RTVSPropertyOp28
 70
     1
102
RTVSPropertyOp29
 70
     1
102
RTVSPropertyOp30
 70
     1
102
RTVSPropertyOp31
 70
     1
102
RTVSPropertyOp32
 70
     1
  0
XRECORD
  5
3D0
102
{ACAD_REACTORS
330
3CF
102
}
330
3CF
100
AcDbXrecord
280
     1
102
RTVSPropertyOp0
 70
     1
102
RTVSPropertyOp1
 70
     1
102
RTVSPropertyOp2
 70
     1
102
RTVSPropertyOp3
 70
     1
102
RTVSPropertyOp4
 70
     1
102
RTVSPropertyOp5
 70
     1
102
RTVSPropertyOp6
 70
     1
102
RTVSPropertyOp7
 70
     1
102
RTVSPropertyOp8
 70
     1
102
RTVSPropertyOp9
 70
     1
102
RTVSPropertyOp10
 70
     1
102
RTVSPropertyOp11
 70
     1
102
RTVSPropertyOp12
 70
     1
102
RTVSPropertyOp13
 70
     1
102
RTVSPropertyOp14
 70
     1
102
RTVSPropertyOp15
 70
     1
102
RTVSPropertyOp16
 70
     1
102
RTVSPropertyOp17
 70
     1
102
RTVSPropertyOp18
 70
     1
102
RTVSPropertyOp19
 70
     1
102
RTVSPropertyOp20
 70
     1
102
RTVSPropertyOp21
 70
     1
102
RTVSPropertyOp22
 70
     1
102
RTVSPropertyOp23
 70
     1
102
RTVSPropertyOp24
 70
     1
102
RTVSPropertyOp25
 70
     1
102
RTVSPropertyOp26
 70
     1
102
RTVSPropertyOp27
 70
     1
102
RTVSPropertyOp28
 70
     1
102
RTVSPropertyOp29
 70
     1
102
RTVSPropertyOp30
 70
     1
102
RTVSPropertyOp31
 70
     1
102
RTVSPropertyOp32
 70
     1
  0
XRECORD
  5
3D4
102
{ACAD_REACTORS
330
3D3
102
}
330
3D3
100
AcDbXrecord
280
     1
102
RTVSPropertyOp0
 70
     1
102
RTVSPropertyOp1
 70
     1
102
RTVSPropertyOp2
 70
     1
102
RTVSPropertyOp3
 70
     1
102
RTVSPropertyOp4
 70
     1
102
RTVSPropertyOp5
 70
     1
102
RTVSPropertyOp6
 70
     1
102
RTVSPropertyOp7
 70
     1
102
RTVSPropertyOp8
 70
     1
102
RTVSPropertyOp9
 70
     1
102
RTVSPropertyOp10
 70
     1
102
RTVSPropertyOp11
 70
     1
102
RTVSPropertyOp12
 70
     1
102
RTVSPropertyOp13
 70
     1
102
RTVSPropertyOp14
 70
     1
102
RTVSPropertyOp15
 70
     1
102
RTVSPropertyOp16
 70
     1
102
RTVSPropertyOp17
 70
     1
102
RTVSPropertyOp18
 70
     1
102
RTVSPropertyOp19
 70
     1
102
RTVSPropertyOp20
 70
     1
102
RTVSPropertyOp21
 70
     1
102
RTVSPropertyOp22
 70
     1
102
RTVSPropertyOp23
 70
     1
102
RTVSPropertyOp24
 70
     1
102
RTVSPropertyOp25
 70
     1
102
RTVSPropertyOp26
 70
     1
102
RTVSPropertyOp27
 70
     1
102
RTVSPropertyOp28
 70
     1
102
RTVSPropertyOp29
 70
     1
102
RTVSPropertyOp30
 70
     1
102
RTVSPropertyOp31
 70
     1
102
RTVSPropertyOp32
 70
     1
  0
XRECORD
  5
3DC
102
{ACAD_REACTORS
330
3DB
102
}
330
3DB
100
AcDbXrecord
280
     1
102
RTVSPropertyOp0
 70
     1
102
RTVSPropertyOp1
 70
     1
102
RTVSPropertyOp2
 70
     1
102
RTVSPropertyOp3
 70
     1
102
RTVSPropertyOp4
 70
     1
102
RTVSPropertyOp5
 70
     1
102
RTVSPropertyOp6
 70
     1
102
RTVSPropertyOp7
 70
     1
102
RTVSPropertyOp8
 70
     1
102
RTVSPropertyOp9
 70
     1
102
RTVSPropertyOp10
 70
     1
102
RTVSPropertyOp11
 70
     1
102
RTVSPropertyOp12
 70
     1
102
RTVSPropertyOp13
 70
     1
102
RTVSPropertyOp14
 70
     1
102
RTVSPropertyOp15
 70
     1
102
RTVSPropertyOp16
 70
     1
102
RTVSPropertyOp17
 70
     1
102
RTVSPropertyOp18
 70
     1
102
RTVSPropertyOp19
 70
     1
102
RTVSPropertyOp20
 70
     1
102
RTVSPropertyOp21
 70
     1
102
RTVSPropertyOp22
 70
     1
102
RTVSPropertyOp23
 70
     1
102
RTVSPropertyOp24
 70
     1
102
RTVSPropertyOp25
 70
     1
102
RTVSPropertyOp26
 70
     1
102
RTVSPropertyOp27
 70
     1
102
RTVSPropertyOp28
 70
     1
102
RTVSPropertyOp29
 70
     1
102
RTVSPropertyOp30
 70
     1
102
RTVSPropertyOp31
 70
     1
102
RTVSPropertyOp32
 70
     1
  0
XRECORD
  5
3E4
102
{ACAD_REACTORS
330
3E3
102
}
330
3E3
100
AcDbXrecord
280
     1
102
RTVSPropertyOp0
 70
     1
102
RTVSPropertyOp1
 70
     1
102
RTVSPropertyOp2
 70
     1
102
RTVSPropertyOp3
 70
     1
102
RTVSPropertyOp4
 70
     1
102
RTVSPropertyOp5
 70
     1
102
RTVSPropertyOp6
 70
     1
102
RTVSPropertyOp7
 70
     1
102
RTVSPropertyOp8
 70
     1
102
RTVSPropertyOp9
 70
     1
102
RTVSPropertyOp10
 70
     1
102
RTVSPropertyOp11
 70
     1
102
RTVSPropertyOp12
 70
     1
102
RTVSPropertyOp13
 70
     1
102
RTVSPropertyOp14
 70
     1
102
RTVSPropertyOp15
 70
     1
102
RTVSPropertyOp16
 70
     1
102
RTVSPropertyOp17
 70
     1
102
RTVSPropertyOp18
 70
     1
102
RTVSPropertyOp19
 70
     1
102
RTVSPropertyOp20
 70
     1
102
RTVSPropertyOp21
 70
     1
102
RTVSPropertyOp22
 70
     1
102
RTVSPropertyOp23
 70
     1
102
RTVSPropertyOp24
 70
     1
102
RTVSPropertyOp25
 70
     1
102
RTVSPropertyOp26
 70
     1
102
RTVSPropertyOp27
 70
     1
102
RTVSPropertyOp28
 70
     1
102
RTVSPropertyOp29
 70
     1
102
RTVSPropertyOp30
 70
     1
102
RTVSPropertyOp31
 70
     1
102
RTVSPropertyOp32
 70
     1
  0
XRECORD
  5
3D8
102
{ACAD_REACTORS
330
3D7
102
}
330
3D7
100
AcDbXrecord
280
     1
102
RTVSPropertyOp0
 70
     1
102
RTVSPropertyOp1
 70
     1
102
RTVSPropertyOp2
 70
     1
102
RTVSPropertyOp3
 70
     1
102
RTVSPropertyOp4
 70
     1
102
RTVSPropertyOp5
 70
     1
102
RTVSPropertyOp6
 70
     1
102
RTVSPropertyOp7
 70
     1
102
RTVSPropertyOp8
 70
     1
102
RTVSPropertyOp9
 70
     1
102
RTVSPropertyOp10
 70
     1
102
RTVSPropertyOp11
 70
     1
102
RTVSPropertyOp12
 70
     1
102
RTVSPropertyOp13
 70
     1
102
RTVSPropertyOp14
 70
     1
102
RTVSPropertyOp15
 70
     1
102
RTVSPropertyOp16
 70
     1
102
RTVSPropertyOp17
 70
     1
102
RTVSPropertyOp18
 70
     1
102
RTVSPropertyOp19
 70
     1
102
RTVSPropertyOp20
 70
     1
102
RTVSPropertyOp21
 70
     1
102
RTVSPropertyOp22
 70
     1
102
RTVSPropertyOp23
 70
     1
102
RTVSPropertyOp24
 70
     1
102
RTVSPropertyOp25
 70
     1
102
RTVSPropertyOp26
 70
     1
102
RTVSPropertyOp27
 70
     1
102
RTVSPropertyOp28
 70
     1
102
RTVSPropertyOp29
 70
     1
102
RTVSPropertyOp30
 70
     1
102
RTVSPropertyOp31
 70
     1
102
RTVSPropertyOp32
 70
     1
  0
XRECORD
  5
3DA
102
{ACAD_REACTORS
330
3D9
102
}
330
3D9
100
AcDbXrecord
280
     1
102
RTVSPropertyOp0
 70
     1
102
RTVSPropertyOp1
 70
     1
102
RTVSPropertyOp2
 70
     1
102
RTVSPropertyOp3
 70
     1
102
RTVSPropertyOp4
 70
     1
102
RTVSPropertyOp5
 70
     1
102
RTVSPropertyOp6
 70
     1
102
RTVSPropertyOp7
 70
     1
102
RTVSPropertyOp8
 70
     1
102
RTVSPropertyOp9
 70
     1
102
RTVSPropertyOp10
 70
     1
102
RTVSPropertyOp11
 70
     1
102
RTVSPropertyOp12
 70
     1
102
RTVSPropertyOp13
 70
     1
102
RTVSPropertyOp14
 70
     1
102
RTVSPropertyOp15
 70
     1
102
RTVSPropertyOp16
 70
     1
102
RTVSPropertyOp17
 70
     1
102
RTVSPropertyOp18
 70
     1
102
RTVSPropertyOp19
 70
     1
102
RTVSPropertyOp20
 70
     1
102
RTVSPropertyOp21
 70
     1
102
RTVSPropertyOp22
 70
     1
102
RTVSPropertyOp23
 70
     1
102
RTVSPropertyOp24
 70
     1
102
RTVSPropertyOp25
 70
     1
102
RTVSPropertyOp26
 70
     1
102
RTVSPropertyOp27
 70
     1
102
RTVSPropertyOp28
 70
     1
102
RTVSPropertyOp29
 70
     1
102
RTVSPropertyOp30
 70
     1
102
RTVSPropertyOp31
 70
     1
102
RTVSPropertyOp32
 70
     1
  0
XRECORD
  5
3E2
102
{ACAD_REACTORS
330
3E1
102
}
330
3E1
100
AcDbXrecord
280
     1
102
RTVSPropertyOp0
 70
     1
102
RTVSPropertyOp1
 70
     1
102
RTVSPropertyOp2
 70
     1
102
RTVSPropertyOp3
 70
     1
102
RTVSPropertyOp4
 70
     1
102
RTVSPropertyOp5
 70
     1
102
RTVSPropertyOp6
 70
     1
102
RTVSPropertyOp7
 70
     1
102
RTVSPropertyOp8
 70
     1
102
RTVSPropertyOp9
 70
     1
102
RTVSPropertyOp10
 70
     1
102
RTVSPropertyOp11
 70
     1
102
RTVSPropertyOp12
 70
     1
102
RTVSPropertyOp13
 70
     1
102
RTVSPropertyOp14
 70
     1
102
RTVSPropertyOp15
 70
     1
102
RTVSPropertyOp16
 70
     1
102
RTVSPropertyOp17
 70
     1
102
RTVSPropertyOp18
 70
     1
102
RTVSPropertyOp19
 70
     1
102
RTVSPropertyOp20
 70
     1
102
RTVSPropertyOp21
 70
     1
102
RTVSPropertyOp22
 70
     1
102
RTVSPropertyOp23
 70
     1
102
RTVSPropertyOp24
 70
     1
102
RTVSPropertyOp25
 70
     1
102
RTVSPropertyOp26
 70
     1
102
RTVSPropertyOp27
 70
     1
102
RTVSPropertyOp28
 70
     1
102
RTVSPropertyOp29
 70
     1
102
RTVSPropertyOp30
 70
     1
102
RTVSPropertyOp31
 70
     1
102
RTVSPropertyOp32
 70
     1
  0
XRECORD
  5
3C6
102
{ACAD_REACTORS
330
3C5
102
}
330
3C5
100
AcDbXrecord
280
     1
102
RTVSPropertyOp0
 70
     1
102
RTVSPropertyOp1
 70
     1
102
RTVSPropertyOp2
 70
     1
102
RTVSPropertyOp3
 70
     1
102
RTVSPropertyOp4
 70
     1
102
RTVSPropertyOp5
 70
     1
102
RTVSPropertyOp6
 70
     1
102
RTVSPropertyOp7
 70
     1
102
RTVSPropertyOp8
 70
     1
102
RTVSPropertyOp9
 70
     1
102
RTVSPropertyOp10
 70
     1
102
RTVSPropertyOp11
 70
     1
102
RTVSPropertyOp12
 70
     1
102
RTVSPropertyOp13
 70
     1
102
RTVSPropertyOp14
 70
     1
102
RTVSPropertyOp15
 70
     1
102
RTVSPropertyOp16
 70
     1
102
RTVSPropertyOp17
 70
     1
102
RTVSPropertyOp18
 70
     1
102
RTVSPropertyOp19
 70
     1
102
RTVSPropertyOp20
 70
     1
102
RTVSPropertyOp21
 70
     1
102
RTVSPropertyOp22
 70
     1
102
RTVSPropertyOp23
 70
     1
102
RTVSPropertyOp24
 70
     1
102
RTVSPropertyOp25
 70
     1
102
RTVSPropertyOp26
 70
     1
102
RTVSPropertyOp27
 70
     1
102
RTVSPropertyOp28
 70
     1
102
RTVSPropertyOp29
 70
     1
102
RTVSPropertyOp30
 70
     1
102
RTVSPropertyOp31
 70
     1
102
RTVSPropertyOp32
 70
     1
  0
XRECORD
  5
3C8
102
{ACAD_REACTORS
330
3C7
102
}
330
3C7
100
AcDbXrecord
280
     1
102
RTVSPropertyOp0
 70
     1
102
RTVSPropertyOp1
 70
     1
102
RTVSPropertyOp2
 70
     1
102
RTVSPropertyOp3
 70
     1
102
RTVSPropertyOp4
 70
     1
102
RTVSPropertyOp5
 70
     1
102
RTVSPropertyOp6
 70
     1
102
RTVSPropertyOp7
 70
     1
102
RTVSPropertyOp8
 70
     1
102
RTVSPropertyOp9
 70
     1
102
RTVSPropertyOp10
 70
     1
102
RTVSPropertyOp11
 70
     1
102
RTVSPropertyOp12
 70
     1
102
RTVSPropertyOp13
 70
     1
102
RTVSPropertyOp14
 70
     1
102
RTVSPropertyOp15
 70
     1
102
RTVSPropertyOp16
 70
     1
102
RTVSPropertyOp17
 70
     1
102
RTVSPropertyOp18
 70
     1
102
RTVSPropertyOp19
 70
     1
102
RTVSPropertyOp20
 70
     1
102
RTVSPropertyOp21
 70
     1
102
RTVSPropertyOp22
 70
     1
102
RTVSPropertyOp23
 70
     1
102
RTVSPropertyOp24
 70
     1
102
RTVSPropertyOp25
 70
     1
102
RTVSPropertyOp26
 70
     1
102
RTVSPropertyOp27
 70
     1
102
RTVSPropertyOp28
 70
     1
102
RTVSPropertyOp29
 70
     1
102
RTVSPropertyOp30
 70
     1
102
RTVSPropertyOp31
 70
     1
102
RTVSPropertyOp32
 70
     1
  0
XRECORD
  5
3CA
102
{ACAD_REACTORS
330
3C9
102
}
330
3C9
100
AcDbXrecord
280
     1
102
RTVSPropertyOp0
 70
     1
102
RTVSPropertyOp1
 70
     1
102
RTVSPropertyOp2
 70
     1
102
RTVSPropertyOp3
 70
     1
102
RTVSPropertyOp4
 70
     1
102
RTVSPropertyOp5
 70
     1
102
RTVSPropertyOp6
 70
     1
102
RTVSPropertyOp7
 70
     1
102
RTVSPropertyOp8
 70
     1
102
RTVSPropertyOp9
 70
     1
102
RTVSPropertyOp10
 70
     1
102
RTVSPropertyOp11
 70
     1
102
RTVSPropertyOp12
 70
     1
102
RTVSPropertyOp13
 70
     1
102
RTVSPropertyOp14
 70
     1
102
RTVSPropertyOp15
 70
     1
102
RTVSPropertyOp16
 70
     1
102
RTVSPropertyOp17
 70
     1
102
RTVSPropertyOp18
 70
     1
102
RTVSPropertyOp19
 70
     1
102
RTVSPropertyOp20
 70
     1
102
RTVSPropertyOp21
 70
     1
102
RTVSPropertyOp22
 70
     1
102
RTVSPropertyOp23
 70
     1
102
RTVSPropertyOp24
 70
     1
102
RTVSPropertyOp25
 70
     1
102
RTVSPropertyOp26
 70
     1
102
RTVSPropertyOp27
 70
     1
102
RTVSPropertyOp28
 70
     1
102
RTVSPropertyOp29
 70
     1
102
RTVSPropertyOp30
 70
     1
102
RTVSPropertyOp31
 70
     1
102
RTVSPropertyOp32
 70
     1
  0
XRECORD
  5
3CC
102
{ACAD_REACTORS
330
3CB
102
}
330
3CB
100
AcDbXrecord
280
     1
102
RTVSPropertyOp0
 70
     1
102
RTVSPropertyOp1
 70
     1
102
RTVSPropertyOp2
 70
     1
102
RTVSPropertyOp3
 70
     1
102
RTVSPropertyOp4
 70
     1
102
RTVSPropertyOp5
 70
     1
102
RTVSPropertyOp6
 70
     1
102
RTVSPropertyOp7
 70
     1
102
RTVSPropertyOp8
 70
     1
102
RTVSPropertyOp9
 70
     1
102
RTVSPropertyOp10
 70
     1
102
RTVSPropertyOp11
 70
     1
102
RTVSPropertyOp12
 70
     1
102
RTVSPropertyOp13
 70
     1
102
RTVSPropertyOp14
 70
     1
102
RTVSPropertyOp15
 70
     1
102
RTVSPropertyOp16
 70
     1
102
RTVSPropertyOp17
 70
     1
102
RTVSPropertyOp18
 70
     1
102
RTVSPropertyOp19
 70
     1
102
RTVSPropertyOp20
 70
     1
102
RTVSPropertyOp21
 70
     1
102
RTVSPropertyOp22
 70
     1
102
RTVSPropertyOp23
 70
     1
102
RTVSPropertyOp24
 70
     1
102
RTVSPropertyOp25
 70
     1
102
RTVSPropertyOp26
 70
     1
102
RTVSPropertyOp27
 70
     1
102
RTVSPropertyOp28
 70
     1
102
RTVSPropertyOp29
 70
     1
102
RTVSPropertyOp30
 70
     1
102
RTVSPropertyOp31
 70
     1
102
RTVSPropertyOp32
 70
     1
  0
XRECORD
  5
3E0
102
{ACAD_REACTORS
330
3DF
102
}
330
3DF
100
AcDbXrecord
280
     1
102
RTVSPropertyOp0
 70
     1
102
RTVSPropertyOp1
 70
     1
102
RTVSPropertyOp2
 70
     1
102
RTVSPropertyOp3
 70
     1
102
RTVSPropertyOp4
 70
     1
102
RTVSPropertyOp5
 70
     1
102
RTVSPropertyOp6
 70
     1
102
RTVSPropertyOp7
 70
     1
102
RTVSPropertyOp8
 70
     1
102
RTVSPropertyOp9
 70
     1
102
RTVSPropertyOp10
 70
     1
102
RTVSPropertyOp11
 70
     1
102
RTVSPropertyOp12
 70
     1
102
RTVSPropertyOp13
 70
     1
102
RTVSPropertyOp14
 70
     1
102
RTVSPropertyOp15
 70
     1
102
RTVSPropertyOp16
 70
     1
102
RTVSPropertyOp17
 70
     1
102
RTVSPropertyOp18
 70
     1
102
RTVSPropertyOp19
 70
     1
102
RTVSPropertyOp20
 70
     1
102
RTVSPropertyOp21
 70
     1
102
RTVSPropertyOp22
 70
     1
102
RTVSPropertyOp23
 70
     1
102
RTVSPropertyOp24
 70
     1
102
RTVSPropertyOp25
 70
     1
102
RTVSPropertyOp26
 70
     1
102
RTVSPropertyOp27
 70
     1
102
RTVSPropertyOp28
 70
     1
102
RTVSPropertyOp29
 70
     1
102
RTVSPropertyOp30
 70
     1
102
RTVSPropertyOp31
 70
     1
102
RTVSPropertyOp32
 70
     1
  0
XRECORD
  5
3D6
102
{ACAD_REACTORS
330
3D5
102
}
330
3D5
100
AcDbXrecord
280
     1
102
RTVSPropertyOp0
 70
     1
102
RTVSPropertyOp1
 70
     1
102
RTVSPropertyOp2
 70
     1
102
RTVSPropertyOp3
 70
     1
102
RTVSPropertyOp4
 70
     1
102
RTVSPropertyOp5
 70
     1
102
RTVSPropertyOp6
 70
     1
102
RTVSPropertyOp7
 70
     1
102
RTVSPropertyOp8
 70
     1
102
RTVSPropertyOp9
 70
     1
102
RTVSPropertyOp10
 70
     1
102
RTVSPropertyOp11
 70
     1
102
RTVSPropertyOp12
 70
     1
102
RTVSPropertyOp13
 70
     1
102
RTVSPropertyOp14
 70
     1
102
RTVSPropertyOp15
 70
     1
102
RTVSPropertyOp16
 70
     1
102
RTVSPropertyOp17
 70
     1
102
RTVSPropertyOp18
 70
     1
102
RTVSPropertyOp19
 70
     1
102
RTVSPropertyOp20
 70
     1
102
RTVSPropertyOp21
 70
     1
102
RTVSPropertyOp22
 70
     1
102
RTVSPropertyOp23
 70
     1
102
RTVSPropertyOp24
 70
     1
102
RTVSPropertyOp25
 70
     1
102
RTVSPropertyOp26
 70
     1
102
RTVSPropertyOp27
 70
     1
102
RTVSPropertyOp28
 70
     1
102
RTVSPropertyOp29
 70
     1
102
RTVSPropertyOp30
 70
     1
102
RTVSPropertyOp31
 70
     1
102
RTVSPropertyOp32
 70
     1
  0
XRECORD
  5
3DE
102
{ACAD_REACTORS
330
3DD
102
}
330
3DD
100
AcDbXrecord
280
     1
102
RTVSPropertyOp0
 70
     1
102
RTVSPropertyOp1
 70
     1
102
RTVSPropertyOp2
 70
     1
102
RTVSPropertyOp3
 70
     1
102
RTVSPropertyOp4
 70
     1
102
RTVSPropertyOp5
 70
     1
102
RTVSPropertyOp6
 70
     1
102
RTVSPropertyOp7
 70
     1
102
RTVSPropertyOp8
 70
     1
102
RTVSPropertyOp9
 70
     1
102
RTVSPropertyOp10
 70
     1
102
RTVSPropertyOp11
 70
     1
102
RTVSPropertyOp12
 70
     1
102
RTVSPropertyOp13
 70
     1
102
RTVSPropertyOp14
 70
     1
102
RTVSPropertyOp15
 70
     1
102
RTVSPropertyOp16
 70
     1
102
RTVSPropertyOp17
 70
     1
102
RTVSPropertyOp18
 70
     1
102
RTVSPropertyOp19
 70
     1
102
RTVSPropertyOp20
 70
     1
102
RTVSPropertyOp21
 70
     1
102
RTVSPropertyOp22
 70
     1
102
RTVSPropertyOp23
 70
     1
102
RTVSPropertyOp24
 70
     1
102
RTVSPropertyOp25
 70
     1
102
RTVSPropertyOp26
 70
     1
102
RTVSPropertyOp27
 70
     1
102
RTVSPropertyOp28
 70
     1
102
RTVSPropertyOp29
 70
     1
102
RTVSPropertyOp30
 70
     1
102
RTVSPropertyOp31
 70
     1
102
RTVSPropertyOp32
 70
     1
  0
ENDSEC
  0
EOF
