  0
SECTION
  2
HEADER
  9
$ACADVER
  1
AC1018
  9
$ACADMAINTVER
 70
     0
  9
$DWGCODEPAGE
  3
ANSI_932
  9
$INSBASE
 10
0.0
 20
0.0
 30
0.0
  9
$EXTMIN
 10
-105.0
 20
-148.5
 30
0.0
  9
$EXTMAX
 10
105.0
 20
148.5
 30
0.0
  9
$LIMMIN
 10
-105.0
 20
-148.5
  9
$LIMMAX
 10
105.0
 20
148.5
  9
$ORTHOMODE
 70
     0
  9
$REGENMODE
 70
     1
  9
$FILLMODE
 70
     1
  9
$QTEXTMODE
 70
     0
  9
$MIRRTEXT
 70
     1
  9
$LTSCALE
 40
1.0
  9
$ATTMODE
 70
     1
  9
$TEXTSIZE
 40
2.5
  9
$TRACEWID
 40
1.0
  9
$TEXTSTYLE
  7
Standard
  9
$CLAYER
  8
0
  9
$CELTYPE
  6
ByLayer
  9
$CECOLOR
 62
   256
  9
$CELTSCALE
 40
1.0
  9
$DISPSILH
 70
     0
  9
$DIMSCALE
 40
1.0
  9
$DIMASZ
 40
2.5
  9
$DIMEXO
 40
0.625
  9
$DIMDLI
 40
3.75
  9
$DIMRND
 40
0.0
  9
$DIMDLE
 40
0.0
  9
$DIMEXE
 40
1.25
  9
$DIMTP
 40
0.0
  9
$DIMTM
 40
0.0
  9
$DIMTXT
 40
2.5
  9
$DIMCEN
 40
2.5
  9
$DIMTSZ
 40
0.0
  9
$DIMTOL
 70
     0
  9
$DIMLIM
 70
     0
  9
$DIMTIH
 70
     0
  9
$DIMTOH
 70
     0
  9
$DIMSE1
 70
     0
  9
$DIMSE2
 70
     0
  9
$DIMTAD
 70
     1
  9
$DIMZIN
 70
     8
  9
$DIMBLK
  1

  9
$DIMASO
 70
     1
  9
$DIMSHO
 70
     1
  9
$DIMPOST
  1

  9
$DIMAPOST
  1

  9
$DIMALT
 70
     0
  9
$DIMALTD
 70
     3
  9
$DIMALTF
 40
0.03937007874016
  9
$DIMLFAC
 40
1.0
  9
$DIMTOFL
 70
     1
  9
$DIMTVP
 40
0.0
  9
$DIMTIX
 70
     0
  9
$DIMSOXD
 70
     0
  9
$DIMSAH
 70
     0
  9
$DIMBLK1
  1

  9
$DIMBLK2
  1

  9
$DIMSTYLE
  2
ISO-25
  9
$DIMCLRD
 70
     0
  9
$DIMCLRE
 70
     0
  9
$DIMCLRT
 70
     0
  9
$DIMTFAC
 40
1.0
  9
$DIMGAP
 40
0.625
  9
$DIMJUST
 70
     0
  9
$DIMSD1
 70
     0
  9
$DIMSD2
 70
     0
  9
$DIMTOLJ
 70
     0
  9
$DIMTZIN
 70
     8
  9
$DIMALTZ
 70
     0
  9
$DIMALTTZ
 70
     0
  9
$DIMUPT
 70
     0
  9
$DIMDEC
 70
     2
  9
$DIMTDEC
 70
     2
  9
$DIMALTU
 70
     2
  9
$DIMALTTD
 70
     3
  9
$DIMTXSTY
  7
Standard
  9
$DIMAUNIT
 70
     0
  9
$DIMADEC
 70
     0
  9
$DIMALTRND
 40
0.0
  9
$DIMAZIN
 70
     0
  9
$DIMDSEP
 70
    44
  9
$DIMATFIT
 70
     3
  9
$DIMFRAC
 70
     0
  9
$DIMLDRBLK
  1

  9
$DIMLUNIT
 70
     2
  9
$DIMLWD
 70
    -2
  9
$DIMLWE
 70
    -2
  9
$DIMTMOVE
 70
     0
  9
$LUNITS
 70
     2
  9
$LUPREC
 70
     4
  9
$SKETCHINC
 40
1.0
  9
$FILLETRAD
 40
10.0
  9
$AUNITS
 70
     0
  9
$AUPREC
 70
     0
  9
$MENU
  1
.
  9
$ELEVATION
 40
0.0
  9
$PELEVATION
 40
0.0
  9
$THICKNESS
 40
0.0
  9
$LIMCHECK
 70
     0
  9
$CHAMFERA
 40
10.0
  9
$CHAMFERB
 40
10.0
  9
$CHAMFERC
 40
20.0
  9
$CHAMFERD
 40
0.0
  9
$SKPOLY
 70
     0
  9
$TDCREATE
 40
2457290.550508762
  9
$TDUCREATE
 40
2457290.175508762
  9
$TDUPDATE
 40
2457290.550509005
  9
$TDUUPDATE
 40
2457290.175509005
  9
$TDINDWG
 40
0.0000000116
  9
$TDUSRTIMER
 40
0.0000000116
  9
$USRTIMER
 70
     1
  9
$ANGBASE
 50
0.0
  9
$ANGDIR
 70
     0
  9
$PDMODE
 70
     0
  9
$PDSIZE
 40
0.0
  9
$PLINEWID
 40
0.0
  9
$SPLFRAME
 70
     0
  9
$SPLINETYPE
 70
     6
  9
$SPLINESEGS
 70
     8
  9
$HANDSEED
  5
1D2
  9
$SURFTAB1
 70
     6
  9
$SURFTAB2
 70
     6
  9
$SURFTYPE
 70
     6
  9
$SURFU
 70
     6
  9
$SURFV
 70
     6
  9
$UCSBASE
  2

  9
$UCSNAME
  2

  9
$UCSORG
 10
0.0
 20
0.0
 30
0.0
  9
$UCSXDIR
 10
1.0
 20
0.0
 30
0.0
  9
$UCSYDIR
 10
0.0
 20
1.0
 30
0.0
  9
$UCSORTHOREF
  2

  9
$UCSORTHOVIEW
 70
     0
  9
$UCSORGTOP
 10
0.0
 20
0.0
 30
0.0
  9
$UCSORGBOTTOM
 10
0.0
 20
0.0
 30
0.0
  9
$UCSORGLEFT
 10
0.0
 20
0.0
 30
0.0
  9
$UCSORGRIGHT
 10
0.0
 20
0.0
 30
0.0
  9
$UCSORGFRONT
 10
0.0
 20
0.0
 30
0.0
  9
$UCSORGBACK
 10
0.0
 20
0.0
 30
0.0
  9
$PUCSBASE
  2

  9
$PUCSNAME
  2

  9
$PUCSORG
 10
0.0
 20
0.0
 30
0.0
  9
$PUCSXDIR
 10
1.0
 20
0.0
 30
0.0
  9
$PUCSYDIR
 10
0.0
 20
1.0
 30
0.0
  9
$PUCSORTHOREF
  2

  9
$PUCSORTHOVIEW
 70
     0
  9
$PUCSORGTOP
 10
0.0
 20
0.0
 30
0.0
  9
$PUCSORGBOTTOM
 10
0.0
 20
0.0
 30
0.0
  9
$PUCSORGLEFT
 10
0.0
 20
0.0
 30
0.0
  9
$PUCSORGRIGHT
 10
0.0
 20
0.0
 30
0.0
  9
$PUCSORGFRONT
 10
0.0
 20
0.0
 30
0.0
  9
$PUCSORGBACK
 10
0.0
 20
0.0
 30
0.0
  9
$USERI1
 70
     0
  9
$USERI2
 70
     0
  9
$USERI3
 70
     0
  9
$USERI4
 70
     0
  9
$USERI5
 70
     0
  9
$USERR1
 40
0.0
  9
$USERR2
 40
0.0
  9
$USERR3
 40
0.0
  9
$USERR4
 40
0.0
  9
$USERR5
 40
0.0
  9
$WORLDVIEW
 70
     1
  9
$SHADEDGE
 70
     3
  9
$SHADEDIF
 70
    70
  9
$TILEMODE
 70
     1
  9
$MAXACTVP
 70
    64
  9
$PINSBASE
 10
0.0
 20
0.0
 30
0.0
  9
$PLIMCHECK
 70
     0
  9
$PEXTMIN
 10
1.000000000000000E+20
 20
1.000000000000000E+20
 30
1.000000000000000E+20
  9
$PEXTMAX
 10
-1.000000000000000E+20
 20
-1.000000000000000E+20
 30
-1.000000000000000E+20
  9
$PLIMMIN
 10
-105.0
 20
-148.5
  9
$PLIMMAX
 10
105.0
 20
148.5
  9
$UNITMODE
 70
     0
  9
$VISRETAIN
 70
     1
  9
$PLINEGEN
 70
     0
  9
$PSLTSCALE
 70
     1
  9
$TREEDEPTH
 70
  3020
  9
$CMLSTYLE
  2
Standard
  9
$CMLJUST
 70
     0
  9
$CMLSCALE
 40
20.0
  9
$PROXYGRAPHICS
 70
     1
  9
$MEASUREMENT
 70
     1
  9
$CELWEIGHT
370
    -1
  9
$ENDCAPS
280
     0
  9
$JOINSTYLE
280
     0
  9
$LWDISPLAY
290
     0
  9
$INSUNITS
 70
     4
  9
$HYPERLINKBASE
  1

  9
$STYLESHEET
  1

  9
$XEDIT
290
     1
  9
$CEPSNTYPE
380
     0
  9
$PSTYLEMODE
290
     1
  9
$FINGERPRINTGUID
  2
{DC7B4324-E98F-4110-AA07-F4B3A561588D}
  9
$VERSIONGUID
  2
{FAEB1C32-E019-11D5-929B-00C0DF256EC4}
  9
$EXTNAMES
290
     1
  9
$PSVPSCALE
 40
0.0
  9
$OLESTARTUP
290
     0
  9
$SORTENTS
280
   127
  9
$INDEXCTL
280
     0
  9
$HIDETEXT
280
     1
  9
$XCLIPFRAME
290
     0
  9
$HALOGAP
280
     0
  9
$OBSCOLOR
 70
   257
  9
$OBSLTYPE
280
     0
  9
$INTERSECTIONDISPLAY
280
     0
  9
$INTERSECTIONCOLOR
 70
   257
  9
$DIMASSOC
280
     2
  9
$PROJECTNAME
  1

  0
ENDSEC
  0
SECTION
  2
CLASSES
  0
CLASS
  1
ACDBDICTIONARYWDFLT
  2
AcDbDictionaryWithDefault
  3
ObjectDBX Classes
 90
        0
 91
        4
280
     0
281
     0
  0
CLASS
  1
VISUALSTYLE
  2
AcDbVisualStyle
  3
ObjectDBX Classes
 90
     4095
 91
        4
280
     0
281
     0
  0
CLASS
  1
MATERIAL
  2
AcDbMaterial
  3
ObjectDBX Classes
 90
     1153
 91
        4
280
     0
281
     0
  0
CLASS
  1
SUN
  2
AcDbSun
  3
SCENEOE
 90
     1024
 91
        4
280
     0
281
     0
  0
ENDSEC
  0
SECTION
  2
TABLES
  0
TABLE
  2
VPORT
  5
8
330
0
100
AcDbSymbolTable
 70
     1
  0
VPORT
  5
29
330
8
100
AcDbSymbolTableRecord
100
AcDbViewportTableRecord
  2
*Active
 70
     0
 10
0.0
 20
0.0
 11
1.0
 21
1.0
 12
344.1869158878504
 22
148.5
 13
0.0
 23
0.0
 14
10.0
 24
10.0
 15
10.0
 25
10.0
 16
0.0
 26
0.0
 36
1.0
 17
0.0
 27
0.0
 37
0.0
 40
297.0
 41
1.972972972850329
 42
50.0
 43
0.0
 44
0.0
 50
0.0
 51
0.0
 71
     0
 72
   100
 73
     1
 74
     3
 75
     0
 76
     0
 77
     0
 78
     0
281
     0
 65
     1
110
0.0
120
0.0
130
0.0
111
1.0
121
0.0
131
0.0
112
0.0
122
1.0
132
0.0
 79
     0
146
0.0
  0
ENDTAB
  0
TABLE
  2
LTYPE
  5
5
330
0
100
AcDbSymbolTable
 70
     5
  0
LTYPE
  5
14
330
5
100
AcDbSymbolTableRecord
100
AcDbLinetypeTableRecord
  2
ByBlock
 70
     0
  3

 72
    65
 73
     0
 40
0.0
  0
LTYPE
  5
15
330
5
100
AcDbSymbolTableRecord
100
AcDbLinetypeTableRecord
  2
ByLayer
 70
     0
  3

 72
    65
 73
     0
 40
0.0
  0
LTYPE
  5
16
330
5
100
AcDbSymbolTableRecord
100
AcDbLinetypeTableRecord
  2
Continuous
 70
     0
  3
Solid line
 72
    65
 73
     0
 40
0.0
  0
LTYPE
  5
40
330
5
100
AcDbSymbolTableRecord
100
AcDbLinetypeTableRecord
  2
CONTINOUS
 70
     0
  3
______________________________
 72
    65
 73
     0
 40
0.0
  0
LTYPE
  5
41
330
5
100
AcDbSymbolTableRecord
100
AcDbLinetypeTableRecord
  2
DASHED
 70
     0
  3
__ __ __ __ __ __ __ __ __ __ __ __ __ __ __ __
 72
    65
 73
     2
 40
4.5
 49
3.0
 74
     0
 49
-1.5
 74
     0
  0
LTYPE
  5
42
330
5
100
AcDbSymbolTableRecord
100
AcDbLinetypeTableRecord
  2
PHANTOM
 70
     0
  3
______  __  __  ______  __  __  _____
 72
    65
 73
     6
 40
15.0
 49
7.5
 74
     0
 49
-1.5
 74
     0
 49
1.5
 74
     0
 49
-1.5
 74
     0
 49
1.5
 74
     0
 49
-1.5
 74
     0
  0
LTYPE
  5
43
330
5
100
AcDbSymbolTableRecord
100
AcDbLinetypeTableRecord
  2
CENTER
 70
     0
  3
____ _ ____ _ ____ _ ____ _ ____ _ ____
 72
    65
 73
     4
 40
12.0
 49
7.5
 74
     0
 49
-1.5
 74
     0
 49
1.5
 74
     0
 49
-1.5
 74
     0
  0
ENDTAB
  0
TABLE
  2
LAYER
  5
2
330
0
100
AcDbSymbolTable
 70
     4
  0
LAYER
  5
10
330
2
100
AcDbSymbolTableRecord
100
AcDbLayerTableRecord
  2
0
 70
     0
 62
     7
  6
Continuous
370
    -3
390
F
  0
LAYER
  5
44
330
2
100
AcDbSymbolTableRecord
100
AcDbLayerTableRecord
  2
VIEW0001
 70
     0
 62
     7
  6
Continuous
370
    -3
390
F
  0
LAYER
  5
5C
330
2
100
AcDbSymbolTableRecord
100
AcDbLayerTableRecord
  2
VIEW0002
 70
     0
 62
     7
  6
Continuous
370
    -3
390
F
  0
LAYER
  5
152
330
2
100
AcDbSymbolTableRecord
100
AcDbLayerTableRecord
  2
Defpoints
 70
     0
 62
     7
  6
Continuous
290
     0
370
    -3
390
F
  0
ENDTAB
  0
TABLE
  2
STYLE
  5
3
330
0
100
AcDbSymbolTable
 70
     1
  0
STYLE
  5
11
330
3
100
AcDbSymbolTableRecord
100
AcDbTextStyleTableRecord
  2
Standard
 70
     0
 40
0.0
 41
1.0
 50
0.0
 71
     0
 42
2.5
  3
ROMANS
  4
BIGFONT
  0
ENDTAB
  0
TABLE
  2
VIEW
  5
6
330
0
100
AcDbSymbolTable
 70
     0
  0
ENDTAB
  0
TABLE
  2
UCS
  5
7
330
0
100
AcDbSymbolTable
 70
     0
  0
ENDTAB
  0
TABLE
  2
APPID
  5
9
330
0
100
AcDbSymbolTable
 70
     1
  0
APPID
  5
12
330
9
100
AcDbSymbolTableRecord
100
AcDbRegAppTableRecord
  2
ACAD
 70
     0
  0
ENDTAB
  0
TABLE
  2
DIMSTYLE
  5
A
330
0
100
AcDbSymbolTable
 70
     1
100
AcDbDimStyleTable
  0
DIMSTYLE
105
27
102
{ACAD_REACTORS
330
14B
330
15F
330
16C
330
177
330
183
330
190
330
19D
102
}
330
A
100
AcDbSymbolTableRecord
100
AcDbDimStyleTableRecord
  2
ISO-25
 70
     0
 41
2.5
 42
0.625
 43
3.75
 44
1.25
 73
     0
 74
     0
 77
     1
 78
     8
140
2.5
141
2.5
143
0.03937007874016
147
0.625
171
     3
172
     1
178
     0
271
     2
272
     2
274
     3
278
    44
283
     0
284
     8
340
11
  0
ENDTAB
  0
TABLE
  2
BLOCK_RECORD
  5
1
330
0
100
AcDbSymbolTable
 70
     9
  0
BLOCK_RECORD
  5
1F
330
1
100
AcDbSymbolTableRecord
100
AcDbBlockTableRecord
  2
*Model_Space
340
22
  0
BLOCK_RECORD
  5
1B
330
1
100
AcDbSymbolTableRecord
100
AcDbBlockTableRecord
  2
*Paper_Space
340
1E
  0
BLOCK_RECORD
  5
23
330
1
100
AcDbSymbolTableRecord
100
AcDbBlockTableRecord
  2
*Paper_Space0
340
26
  0
BLOCK_RECORD
  5
14C
330
1
100
AcDbSymbolTableRecord
100
AcDbBlockTableRecord
  2
_OPEN30
340
0
102
{BLKREFS
331
15A
331
159
331
167
331
166
331
172
331
171
331
17D
331
17C
331
18B
331
18A
331
198
331
197
331
1A5
331
1A4
102
}
  0
BLOCK_RECORD
  5
153
330
1
100
AcDbSymbolTableRecord
100
AcDbBlockTableRecord
  2
*D2
340
0
  0
BLOCK_RECORD
  5
160
330
1
100
AcDbSymbolTableRecord
100
AcDbBlockTableRecord
  2
*D3
340
0
  0
BLOCK_RECORD
  5
16D
330
1
100
AcDbSymbolTableRecord
100
AcDbBlockTableRecord
  2
*D4
340
0
  0
BLOCK_RECORD
  5
178
330
1
100
AcDbSymbolTableRecord
100
AcDbBlockTableRecord
  2
*D5
340
0
  0
BLOCK_RECORD
  5
184
330
1
100
AcDbSymbolTableRecord
100
AcDbBlockTableRecord
  2
*D6
340
0
  0
BLOCK_RECORD
  5
191
330
1
100
AcDbSymbolTableRecord
100
AcDbBlockTableRecord
  2
*D7
340
0
  0
BLOCK_RECORD
  5
19E
330
1
100
AcDbSymbolTableRecord
100
AcDbBlockTableRecord
  2
*D8
340
0
  0
ENDTAB
  0
ENDSEC
  0
SECTION
  2
BLOCKS
  0
BLOCK
  5
20
330
1F
100
AcDbEntity
  8
0
100
AcDbBlockBegin
  2
*Model_Space
 70
     0
 10
0.0
 20
0.0
 30
0.0
  3
*Model_Space
  1

  0
ENDBLK
  5
21
330
1F
100
AcDbEntity
  8
0
100
AcDbBlockEnd
  0
BLOCK
  5
1C
330
1B
100
AcDbEntity
 67
     1
  8
0
100
AcDbBlockBegin
  2
*Paper_Space
 70
     0
 10
0.0
 20
0.0
 30
0.0
  3
*Paper_Space
  1

  0
ENDBLK
  5
1D
330
1B
100
AcDbEntity
 67
     1
  8
0
100
AcDbBlockEnd
  0
BLOCK
  5
24
330
23
100
AcDbEntity
  8
0
100
AcDbBlockBegin
  2
*Paper_Space0
 70
     0
 10
0.0
 20
0.0
 30
0.0
  3
*Paper_Space0
  1

  0
ENDBLK
  5
25
330
23
100
AcDbEntity
  8
0
100
AcDbBlockEnd
  0
BLOCK
  5
14D
330
14C
100
AcDbEntity
  8
0
100
AcDbBlockBegin
  2
_OPEN30
 70
     0
 10
0.0
 20
0.0
 30
0.0
  3
_OPEN30
  1

  0
LINE
  5
14F
330
14C
100
AcDbEntity
  8
0
  6
ByBlock
 62
     0
370
    -2
100
AcDbLine
 10
-1.0
 20
0.267949
 30
0.0
 11
0.0
 21
0.0
 31
0.0
  0
LINE
  5
150
330
14C
100
AcDbEntity
  8
0
  6
ByBlock
 62
     0
370
    -2
100
AcDbLine
 10
0.0
 20
0.0
 30
0.0
 11
-1.0
 21
-0.267949
 31
0.0
  0
LINE
  5
151
330
14C
100
AcDbEntity
  8
0
  6
ByBlock
 62
     0
370
    -2
100
AcDbLine
 10
0.0
 20
0.0
 30
0.0
 11
-1.0
 21
0.0
 31
0.0
  0
ENDBLK
  5
14E
330
14C
100
AcDbEntity
  8
0
100
AcDbBlockEnd
  0
BLOCK
  5
154
330
153
100
AcDbEntity
  8
0
100
AcDbBlockBegin
  2
*D2
 70
     1
 10
0.0
 20
0.0
 30
0.0
  3
*D2
  1

  0
LINE
  5
156
330
153
100
AcDbEntity
  8
0
 62
     0
370
    -2
100
AcDbLine
 10
-13.0324955368042
 20
-9.579997062683105
 30
0.0
 11
-21.49149649047853
 21
-9.579997062683105
 31
0.0
  0
LINE
  5
157
330
153
100
AcDbEntity
  8
0
 62
     0
370
    -2
100
AcDbLine
 10
-12.5324955368042
 20
83.07000732421875
 30
0.0
 11
-21.49149649047851
 21
83.07000732421875
 31
0.0
  0
LINE
  5
158
330
153
100
AcDbEntity
  8
0
 62
     0
370
    -2
100
AcDbLine
 10
-20.49149649047853
 20
-6.579997062683105
 30
0.0
 11
-20.49149649047851
 21
80.07000732421875
 31
0.0
  0
INSERT
  5
159
330
153
100
AcDbEntity
  8
0
 62
     0
370
    -2
100
AcDbBlockReference
  2
_OPEN30
 10
-20.49149649047853
 20
-9.579997062683105
 30
0.0
 41
3.0
 42
3.0
 43
3.0
 50
270.0
  0
INSERT
  5
15A
330
153
100
AcDbEntity
  8
0
 62
     0
370
    -2
100
AcDbBlockReference
  2
_OPEN30
 10
-20.49149649047851
 20
83.07000732421875
 30
0.0
 41
3.0
 42
3.0
 43
3.0
 50
89.99999999999999
  0
MTEXT
  5
15B
330
153
100
AcDbEntity
  8
0
 62
     1
100
AcDbMText
 10
-22.90589652645588
 20
36.74600656127929
 30
0.0
 40
3.200000047683716
 41
0.0
 71
     5
 72
     1
  1
185
 11
1.917276584232281E-16
 21
1.0
 31
0.0
 73
     1
 44
1.0
  0
POINT
  5
15C
330
153
100
AcDbEntity
  8
Defpoints
 62
     0
100
AcDbPoint
 10
-10.4924955368042
 20
-9.579997062683105
 30
0.0
  0
POINT
  5
15D
330
153
100
AcDbEntity
  8
Defpoints
 62
     0
100
AcDbPoint
 10
-9.9924955368042
 20
83.07000732421875
 30
0.0
  0
POINT
  5
15E
330
153
100
AcDbEntity
  8
Defpoints
 62
     0
100
AcDbPoint
 10
-20.49249649047852
 20
83.07000732421875
 30
0.0
  0
ENDBLK
  5
155
330
153
100
AcDbEntity
  8
0
100
AcDbBlockEnd
  0
BLOCK
  5
161
330
160
100
AcDbEntity
  8
0
100
AcDbBlockBegin
  2
*D3
 70
     1
 10
0.0
 20
0.0
 30
0.0
  3
*D3
  1

  0
LINE
  5
163
330
160
100
AcDbEntity
  8
0
 62
     0
370
    -2
100
AcDbLine
 10
-10.4924955368042
 20
85.11000732421876
 30
0.0
 11
-10.4924955368042
 21
94.07000732421876
 31
0.0
  0
LINE
  5
164
330
160
100
AcDbEntity
  8
0
 62
     0
370
    -2
100
AcDbLine
 10
82.15750122070312
 20
85.61000732421876
 30
0.0
 11
82.15750122070312
 21
94.07000732421875
 31
0.0
  0
LINE
  5
165
330
160
100
AcDbEntity
  8
0
 62
     0
370
    -2
100
AcDbLine
 10
-7.492495536804199
 20
93.07000732421876
 30
0.0
 11
79.15750122070312
 21
93.07000732421875
 31
0.0
  0
INSERT
  5
166
330
160
100
AcDbEntity
  8
0
 62
     0
370
    -2
100
AcDbBlockReference
  2
_OPEN30
 10
-10.4924955368042
 20
93.07000732421876
 30
0.0
 41
3.0
 42
3.0
 43
3.0
 50
180.0
  0
INSERT
  5
167
330
160
100
AcDbEntity
  8
0
 62
     0
370
    -2
100
AcDbBlockReference
  2
_OPEN30
 10
82.15750122070312
 20
93.07000732421875
 30
0.0
 41
3.0
 42
3.0
 43
3.0
 50
360.0
  0
MTEXT
  5
168
330
160
100
AcDbEntity
  8
0
 62
     1
100
AcDbMText
 10
35.83350427246094
 20
95.48440736019612
 30
0.0
 40
3.200000047683716
 41
0.0
 71
     5
 72
     1
  1
185
 73
     1
 44
1.0
  0
POINT
  5
169
330
160
100
AcDbEntity
  8
Defpoints
 62
     0
100
AcDbPoint
 10
-10.4924955368042
 20
82.57000732421875
 30
0.0
  0
POINT
  5
16A
330
160
100
AcDbEntity
  8
Defpoints
 62
     0
100
AcDbPoint
 10
82.15750122070312
 20
83.07000732421875
 30
0.0
  0
POINT
  5
16B
330
160
100
AcDbEntity
  8
Defpoints
 62
     0
100
AcDbPoint
 10
82.15750122070312
 20
93.07000732421875
 30
0.0
  0
ENDBLK
  5
162
330
160
100
AcDbEntity
  8
0
100
AcDbBlockEnd
  0
BLOCK
  5
16E
330
16D
100
AcDbEntity
  8
0
100
AcDbBlockBegin
  2
*D4
 70
     1
 10
0.0
 20
0.0
 30
0.0
  3
*D4
  1

  0
LINE
  5
170
330
16D
100
AcDbEntity
  8
0
 62
     0
370
    -2
100
AcDbLine
 10
31.40950122070313
 20
4.920000076293946
 30
0.0
 11
31.40950122070313
 21
-6.579997062683105
 31
0.0
  0
INSERT
  5
171
330
16D
100
AcDbEntity
  8
0
 62
     0
370
    -2
100
AcDbBlockReference
  2
_OPEN30
 10
31.40950122070313
 20
7.920000076293946
 30
0.0
 41
3.0
 42
3.0
 43
3.0
 50
90.0
  0
INSERT
  5
172
330
16D
100
AcDbEntity
  8
0
 62
     0
370
    -2
100
AcDbBlockReference
  2
_OPEN30
 10
31.40950122070313
 20
-9.579997062683105
 30
0.0
 41
3.0
 42
3.0
 43
3.0
 50
270.0
  0
MTEXT
  5
173
330
16D
100
AcDbEntity
  8
0
 62
     1
100
AcDbMText
 10
28.99510118472576
 20
-0.828999029636383
 30
0.0
 40
3.200000047683716
 41
0.0
 71
     5
 72
     1
  1
35
 11
0.0
 21
1.0
 31
0.0
 73
     1
 44
1.0
  0
POINT
  5
174
330
16D
100
AcDbEntity
  8
Defpoints
 62
     0
100
AcDbPoint
 10
41.40750122070312
 20
7.920000076293945
 30
0.0
  0
POINT
  5
175
330
16D
100
AcDbEntity
  8
Defpoints
 62
     0
100
AcDbPoint
 10
41.40750122070312
 20
-9.579997062683105
 30
0.0
  0
POINT
  5
176
330
16D
100
AcDbEntity
  8
Defpoints
 62
     0
100
AcDbPoint
 10
31.40750122070312
 20
-9.579997062683105
 30
0.0
  0
ENDBLK
  5
16F
330
16D
100
AcDbEntity
  8
0
100
AcDbBlockEnd
  0
BLOCK
  5
179
330
178
100
AcDbEntity
  8
0
100
AcDbBlockBegin
  2
*D5
 70
     1
 10
0.0
 20
0.0
 30
0.0
  3
*D5
  1

  0
LINE
  5
17B
330
178
100
AcDbEntity
  8
0
 62
     0
370
    -2
100
AcDbLine
 10
67.65750122070328
 20
41.1710019836426
 30
0.0
 11
79.15750122070328
 21
41.17100198364256
 31
0.0
  0
INSERT
  5
17C
330
178
100
AcDbEntity
  8
0
 62
     0
370
    -2
100
AcDbBlockReference
  2
_OPEN30
 10
64.65750122070328
 20
41.17100198364261
 30
0.0
 41
3.0
 42
3.0
 43
3.0
 50
179.9999999999998
  0
INSERT
  5
17D
330
178
100
AcDbEntity
  8
0
 62
     0
370
    -2
100
AcDbBlockReference
  2
_OPEN30
 10
82.15750122070328
 20
41.17100198364255
 30
0.0
 41
3.0
 42
3.0
 43
3.0
 50
359.9999999999998
  0
MTEXT
  5
17E
330
178
100
AcDbEntity
  8
0
 62
     1
 60
     1
100
AcDbMText
 10
73.40850122070314
 20
43.58540201961994
 30
0.0
 40
3.200000047683716
 41
0.0
 71
     5
 72
     1
  1
35
 73
     1
 44
1.0
  0
POINT
  5
17F
330
178
100
AcDbEntity
  8
Defpoints
 62
     0
100
AcDbPoint
 10
64.65750122070332
 20
51.17000198364234
 30
0.0
  0
POINT
  5
180
330
178
100
AcDbEntity
  8
Defpoints
 62
     0
100
AcDbPoint
 10
82.15750122070332
 20
51.17000198364228
 30
0.0
  0
POINT
  5
181
330
178
100
AcDbEntity
  8
Defpoints
 62
     0
100
AcDbPoint
 10
82.15750122070328
 20
41.17000198364228
 30
0.0
  0
MTEXT
  5
182
330
178
100
AcDbEntity
  8
0
 62
     1
100
AcDbMText
 10
70.66464352607727
 20
41.97000199556351
 30
0.0
 40
3.200000047683716
 41
0.0
 71
     7
 72
     1
  1
\W1;35
 73
     1
 44
1.0
  0
ENDBLK
  5
17A
330
178
100
AcDbEntity
  8
0
100
AcDbBlockEnd
  0
BLOCK
  5
185
330
184
100
AcDbEntity
  8
0
100
AcDbBlockBegin
  2
*D6
 70
     1
 10
0.0
 20
0.0
 30
0.0
  3
*D6
  1

  0
LINE
  5
187
330
184
100
AcDbEntity
  8
0
 62
     0
370
    -2
100
AcDbLine
 10
11.40749835968018
 20
-93.6378012084961
 30
0.0
 11
11.40749835968018
 21
-103.246802734375
 31
0.0
  0
LINE
  5
188
330
184
100
AcDbEntity
  8
0
 62
     0
370
    -2
100
AcDbLine
 10
56.40750885009766
 20
-93.6378012084961
 30
0.0
 11
56.40750885009766
 21
-103.246802734375
 31
0.0
  0
LINE
  5
189
330
184
100
AcDbEntity
  8
0
 62
     0
370
    -2
100
AcDbLine
 10
14.40749835968018
 20
-102.246802734375
 30
0.0
 11
53.40750885009766
 21
-102.246802734375
 31
0.0
  0
INSERT
  5
18A
330
184
100
AcDbEntity
  8
0
 62
     0
370
    -2
100
AcDbBlockReference
  2
_OPEN30
 10
11.40749835968018
 20
-102.246802734375
 30
0.0
 41
3.0
 42
3.0
 43
3.0
 50
180.0
  0
INSERT
  5
18B
330
184
100
AcDbEntity
  8
0
 62
     0
370
    -2
100
AcDbBlockReference
  2
_OPEN30
 10
56.40750885009766
 20
-102.246802734375
 30
0.0
 41
3.0
 42
3.0
 43
3.0
  0
MTEXT
  5
18C
330
184
100
AcDbEntity
  8
0
 62
     1
100
AcDbMText
 10
33.90850503540039
 20
-99.83240269839763
 30
0.0
 40
3.200000047683716
 41
0.0
 71
     5
 72
     1
  1
90
 73
     1
 44
1.0
  0
POINT
  5
18D
330
184
100
AcDbEntity
  8
Defpoints
 62
     0
100
AcDbPoint
 10
11.40749835968018
 20
-91.0978012084961
 30
0.0
  0
POINT
  5
18E
330
184
100
AcDbEntity
  8
Defpoints
 62
     0
100
AcDbPoint
 10
56.40750885009766
 20
-91.0978012084961
 30
0.0
  0
POINT
  5
18F
330
184
100
AcDbEntity
  8
Defpoints
 62
     0
100
AcDbPoint
 10
56.40750885009766
 20
-102.247802734375
 30
0.0
  0
ENDBLK
  5
186
330
184
100
AcDbEntity
  8
0
100
AcDbBlockEnd
  0
BLOCK
  5
192
330
191
100
AcDbEntity
  8
0
100
AcDbBlockBegin
  2
*D7
 70
     1
 10
0.0
 20
0.0
 30
0.0
  3
*D7
  1

  0
LINE
  5
194
330
191
100
AcDbEntity
  8
0
 62
     0
370
    -2
100
AcDbLine
 10
58.94750885009766
 20
-91.0978012084961
 30
0.0
 11
93.15750122070312
 21
-91.0978012084961
 31
0.0
  0
LINE
  5
195
330
191
100
AcDbEntity
  8
0
 62
     0
370
    -2
100
AcDbLine
 10
63.46358016967773
 20
-58.09780502319336
 30
0.0
 11
93.15750122070312
 21
-58.09780502319336
 31
0.0
  0
LINE
  5
196
330
191
100
AcDbEntity
  8
0
 62
     0
370
    -2
100
AcDbLine
 10
92.15750122070312
 20
-88.0978012084961
 30
0.0
 11
92.15750122070312
 21
-61.09780502319336
 31
0.0
  0
INSERT
  5
197
330
191
100
AcDbEntity
  8
0
 62
     0
370
    -2
100
AcDbBlockReference
  2
_OPEN30
 10
92.15750122070312
 20
-91.0978012084961
 30
0.0
 41
3.0
 42
3.0
 43
3.0
 50
270.0
  0
INSERT
  5
198
330
191
100
AcDbEntity
  8
0
 62
     0
370
    -2
100
AcDbBlockReference
  2
_OPEN30
 10
92.15750122070312
 20
-58.09780502319336
 30
0.0
 41
3.0
 42
3.0
 43
3.0
 50
90.0
  0
MTEXT
  5
199
330
191
100
AcDbEntity
  8
0
 62
     1
100
AcDbMText
 10
89.74310118472576
 20
-74.59680120849609
 30
0.0
 40
3.200000047683716
 41
0.0
 71
     5
 72
     1
  1
66
 11
0.0
 21
1.0
 31
0.0
 73
     1
 44
1.0
  0
POINT
  5
19A
330
191
100
AcDbEntity
  8
Defpoints
 62
     0
100
AcDbPoint
 10
56.40750885009766
 20
-91.0978012084961
 30
0.0
  0
POINT
  5
19B
330
191
100
AcDbEntity
  8
Defpoints
 62
     0
100
AcDbPoint
 10
60.92358016967773
 20
-58.09780502319336
 30
0.0
  0
POINT
  5
19C
330
191
100
AcDbEntity
  8
Defpoints
 62
     0
100
AcDbPoint
 10
92.15750122070312
 20
-58.09780502319336
 30
0.0
  0
ENDBLK
  5
193
330
191
100
AcDbEntity
  8
0
100
AcDbBlockEnd
  0
BLOCK
  5
19F
330
19E
100
AcDbEntity
  8
0
100
AcDbBlockBegin
  2
*D8
 70
     1
 10
0.0
 20
0.0
 30
0.0
  3
*D8
  1

  0
LINE
  5
1A1
330
19E
100
AcDbEntity
  8
0
 62
     0
370
    -2
100
AcDbLine
 10
-8.734654436559943
 20
-49.10987091064453
 30
0.0
 11
-21.49049458312989
 21
-49.10987091064454
 31
0.0
  0
LINE
  5
1A2
330
19E
100
AcDbEntity
  8
0
 62
     0
370
    -2
100
AcDbLine
 10
8.867498359680177
 20
-91.0978012084961
 30
0.0
 11
-21.49049458312987
 21
-91.09780120849612
 31
0.0
  0
LINE
  5
1A3
330
19E
100
AcDbEntity
  8
0
 62
     0
370
    -2
100
AcDbLine
 10
-20.49049458312989
 20
-52.10987091064454
 30
0.0
 11
-20.49049458312987
 21
-88.09780120849612
 31
0.0
  0
INSERT
  5
1A4
330
19E
100
AcDbEntity
  8
0
 62
     0
370
    -2
100
AcDbBlockReference
  2
_OPEN30
 10
-20.49049458312989
 20
-49.10987091064454
 30
0.0
 41
3.0
 42
3.0
 43
3.0
 50
90.00000000000001
  0
INSERT
  5
1A5
330
19E
100
AcDbEntity
  8
0
 62
     0
370
    -2
100
AcDbBlockReference
  2
_OPEN30
 10
-20.49049458312987
 20
-91.09780120849612
 30
0.0
 41
3.0
 42
3.0
 43
3.0
 50
270.0
  0
MTEXT
  5
1A6
330
19E
100
AcDbEntity
  8
0
 62
     1
100
AcDbMText
 10
-22.90489461910725
 20
-70.10283605957031
 30
0.0
 40
3.200000047683716
 41
0.0
 71
     5
 72
     1
  1
84
 11
-4.230636820627339E-16
 21
1.0
 31
0.0
 73
     1
 44
1.0
  0
POINT
  5
1A7
330
19E
100
AcDbEntity
  8
Defpoints
 62
     0
100
AcDbPoint
 10
-6.194654436559942
 20
-49.10987091064453
 30
0.0
  0
POINT
  5
1A8
330
19E
100
AcDbEntity
  8
Defpoints
 62
     0
100
AcDbPoint
 10
11.40749835968018
 20
-91.0978012084961
 30
0.0
  0
POINT
  5
1A9
330
19E
100
AcDbEntity
  8
Defpoints
 62
     0
100
AcDbPoint
 10
-20.49249458312988
 20
-91.09780120849611
 30
0.0
  0
ENDBLK
  5
1A0
330
19E
100
AcDbEntity
  8
0
100
AcDbBlockEnd
  0
ENDSEC
  0
SECTION
  2
ENTITIES
  0
POINT
  5
45
330
1F
100
AcDbEntity
  8
VIEW0001
 62
     7
100
AcDbPoint
 10
105.0
 20
-148.5
 30
0.0
  0
LWPOLYLINE
  5
46
330
1F
100
AcDbEntity
  8
VIEW0001
  6
Continuous
 62
     7
100
AcDbPolyline
 90
        2
 70
     0
 10
81.0
 20
-129.0
 40
0.001000000047497
 41
0.001000000047497
 10
81.0
 20
-120.0
 40
0.001000000047497
 41
0.001000000047497
  0
LWPOLYLINE
  5
47
330
1F
100
AcDbEntity
  8
VIEW0001
  6
Continuous
 62
     7
100
AcDbPolyline
 90
        2
 70
     0
 10
66.0
 20
-129.0
 40
0.001000000047497
 41
0.001000000047497
 10
66.0
 20
-120.0
 40
0.001000000047497
 41
0.001000000047497
  0
LWPOLYLINE
  5
48
330
1F
100
AcDbEntity
  8
VIEW0001
  6
Continuous
 62
     7
100
AcDbPolyline
 90
        2
 70
     0
 10
5.75
 20
-138.0
 40
0.001000000047497
 41
0.001000000047497
 10
5.75
 20
-120.0
 40
0.001000000047497
 41
0.001000000047497
  0
LINE
  5
49
330
1F
100
AcDbEntity
  8
VIEW0001
  6
Continuous
 62
     7
370
    20
100
AcDbLine
 10
41.0
 20
138.0
 30
0.0
 11
41.0
 21
128.0
 31
0.0
  0
LINE
  5
4A
330
1F
100
AcDbEntity
  8
VIEW0001
  6
Continuous
 62
     7
370
    20
100
AcDbLine
 10
41.0
 20
128.0
 30
0.0
 11
96.0
 21
128.0
 31
0.0
  0
LWPOLYLINE
  5
4B
330
1F
100
AcDbEntity
  8
VIEW0001
  6
Continuous
 62
     7
100
AcDbPolyline
 90
        2
 70
     0
 10
96.0
 20
-129.0
 40
0.001000000047497
 41
0.001000000047497
 10
-84.5
 20
-129.0
 40
0.001000000047497
 41
0.001000000047497
  0
LINE
  5
4C
330
1F
100
AcDbEntity
  8
VIEW0001
  6
Continuous
 62
     7
370
    20
100
AcDbLine
 10
-84.5
 20
-120.0
 30
0.0
 11
96.0
 21
-120.0
 31
0.0
  0
LINE
  5
4D
330
1F
100
AcDbEntity
  8
VIEW0001
  6
Continuous
 62
     7
370
    50
100
AcDbLine
 10
-84.5
 20
138.0
 30
0.0
 11
96.0
 21
138.0
 31
0.0
  0
LINE
  5
4E
330
1F
100
AcDbEntity
  8
VIEW0001
  6
Continuous
 62
     7
370
    50
100
AcDbLine
 10
-84.5
 20
-138.0
 30
0.0
 11
96.0
 21
-138.0
 31
0.0
  0
LINE
  5
4F
330
1F
100
AcDbEntity
  8
VIEW0001
  6
Continuous
 62
     7
370
    50
100
AcDbLine
 10
96.0
 20
138.0
 30
0.0
 11
96.0
 21
-138.0
 31
0.0
  0
LINE
  5
50
330
1F
100
AcDbEntity
  8
VIEW0001
  6
Continuous
 62
     7
370
    50
100
AcDbLine
 10
-84.5
 20
138.0
 30
0.0
 11
-84.5
 21
-138.0
 31
0.0
  0
LWPOLYLINE
  5
51
330
1F
100
AcDbEntity
  8
VIEW0001
  6
Continuous
 62
     7
100
AcDbPolyline
 90
        2
 70
     0
 10
-64.5
 20
-138.0
 40
0.001000000047497
 41
0.001000000047497
 10
-64.5
 20
-120.0
 40
0.001000000047497
 41
0.001000000047497
  0
LWPOLYLINE
  5
52
330
1F
100
AcDbEntity
  8
VIEW0001
  6
Continuous
 62
     7
100
AcDbPolyline
 90
        2
 70
     0
 10
25.75
 20
-129.0
 40
0.001000000047497
 41
0.001000000047497
 10
25.75
 20
-120.0
 40
0.001000000047497
 41
0.001000000047497
  0
MTEXT
  5
53
330
1F
100
AcDbEntity
  8
VIEW0001
 62
     1
100
AcDbMText
 10
-77.92875003814697
 20
-126.5
 30
0.0
 40
4.0
 41
0.0
 71
     7
 72
     1
  1
{\W0.833333;品名}
 73
     1
 44
1.0
  0
MTEXT
  5
54
330
1F
100
AcDbEntity
  8
VIEW0001
 62
     1
100
AcDbMText
 10
-77.92875003814697
 20
-135.5
 30
0.0
 40
4.0
 41
0.0
 71
     7
 72
     1
  1
{\W0.833333;規格}
 73
     1
 44
1.0
  0
MTEXT
  5
55
330
1F
100
AcDbEntity
  8
VIEW0001
 62
     1
100
AcDbMText
 10
12.32124996185303
 20
-126.5
 30
0.0
 40
4.0
 41
0.0
 71
     7
 72
     1
  1
{\W0.833333;材質}
 73
     1
 44
1.0
  0
MTEXT
  5
56
330
1F
100
AcDbEntity
  8
VIEW0001
 62
     1
100
AcDbMText
 10
70.07124996185303
 20
-126.5
 30
0.0
 40
4.0
 41
0.0
 71
     7
 72
     1
  1
{\W0.833333;尺度}
 73
     1
 44
1.0
  0
MTEXT
  5
57
330
1F
100
AcDbEntity
  8
VIEW0001
 62
     1
100
AcDbMText
 10
83.07124984264374
 20
-126.5
 30
0.0
 40
4.0
 41
0.0
 71
     7
 72
     1
  1
{\W0.833333;1/2}
 73
     1
 44
1.0
  0
MTEXT
  5
58
330
1F
100
AcDbEntity
  8
VIEW0001
 62
     1
100
AcDbMText
 10
-38.80375027656555
 20
-135.5
 30
0.0
 40
4.0
 41
0.0
 71
     7
 72
     1
  1
{\W0.833333;ＣＲ105}
 73
     1
 44
1.0
  0
MTEXT
  5
59
330
1F
100
AcDbEntity
  8
VIEW0001
 62
     1
100
AcDbMText
 10
-40.8037503361702
 20
-126.5
 30
0.0
 40
4.0
 41
0.0
 71
     7
 72
     1
  1
{\W0.833333;曲り（出隅）}
 73
     1
 44
1.0
  0
MTEXT
  5
5A
330
1F
100
AcDbEntity
  8
VIEW0001
 62
     1
100
AcDbMText
 10
40.44624984264374
 20
-126.5
 30
0.0
 40
4.0
 41
0.0
 71
     7
 72
     1
  1
{\W0.833333;ＡＳＡ}
 73
     1
 44
1.0
  0
MTEXT
  5
5B
330
1F
100
AcDbEntity
  8
VIEW0001
 62
     1
100
AcDbMText
 10
26.46785604953766
 20
-135.75
 30
0.0
 40
4.5
 41
0.0
 71
     7
 72
     1
  1
{\W1.40741;デンカ株式会社}
 73
     1
 44
1.0
  0
LINE
  5
5D
330
1F
100
AcDbEntity
  8
VIEW0002
  6
Continuous
 62
     7
100
AcDbLine
 10
55.65436232492306
 20
8.788088775045816
 30
0.0
 11
57.48257504782241
 21
8.82000034512056
 31
0.0
  0
LINE
  5
5E
330
1F
100
AcDbEntity
  8
VIEW0002
  6
Continuous
 62
     7
100
AcDbLine
 10
-3.022856950759888
 20
-60.76987075805664
 30
0.0
 11
60.62068939208984
 21
-60.76987075805664
 31
0.0
  0
LINE
  5
5F
330
1F
100
AcDbEntity
  8
VIEW0002
  6
Continuous
 62
     7
100
AcDbLine
 10
38.90750122070312
 20
-89.2728042602539
 30
0.0
 11
53.252197265625
 21
-89.2728042602539
 31
0.0
  0
LINE
  5
60
330
1F
100
AcDbEntity
  8
VIEW0002
  6
Continuous
 62
     7
100
AcDbLine
 10
29.40750122070312
 20
-90.2728042602539
 30
0.0
 11
38.40750122070312
 21
-90.2728042602539
 31
0.0
  0
LINE
  5
61
330
1F
100
AcDbEntity
  8
VIEW0002
  6
Continuous
 62
     7
100
AcDbLine
 10
28.90750122070312
 20
-89.2728042602539
 30
0.0
 11
28.90750122070312
 21
-89.7728042602539
 31
0.0
  0
LINE
  5
62
330
1F
100
AcDbEntity
  8
VIEW0002
  6
Continuous
 62
     7
100
AcDbLine
 10
82.15750122070312
 20
-47.95986938476562
 30
0.0
 11
82.15750122070312
 21
-91.5978012084961
 31
0.0
  0
LINE
  5
63
330
1F
100
AcDbEntity
  8
VIEW0002
  6
Continuous
 62
     7
100
AcDbLine
 10
-4.41475248336792
 20
-48.45986938476562
 30
0.0
 11
-3.594653367996216
 21
-48.45986938476562
 31
0.0
  0
LINE
  5
64
330
1F
100
AcDbEntity
  8
VIEW0002
  6
Continuous
 62
     7
100
AcDbLine
 10
13.47634601593018
 20
-90.2728042602539
 30
0.0
 11
28.40750122070312
 21
-90.2728042602539
 31
0.0
  0
LINE
  5
65
330
1F
100
AcDbEntity
  8
VIEW0002
  6
Continuous
 62
     7
100
AcDbLine
 10
13.47634601593018
 20
-89.2728042602539
 30
0.0
 11
28.90750122070312
 21
-89.2728042602539
 31
0.0
  0
LINE
  5
66
330
1F
100
AcDbEntity
  8
VIEW0002
  6
Continuous
 62
     7
100
AcDbLine
 10
-3.378112077713013
 20
-62.26987075805664
 30
0.0
 11
-1.539336562156677
 21
-62.26987075805664
 31
0.0
  0
LINE
  5
67
330
1F
100
AcDbEntity
  8
VIEW0002
  6
Continuous
 62
     7
100
AcDbLine
 10
69.65750122070312
 20
-50.75863647460938
 30
0.0
 11
82.15750122070312
 21
-50.75863647460938
 31
0.0
  0
LINE
  5
68
330
1F
100
AcDbEntity
  8
VIEW0002
  6
Continuous
 62
     7
100
AcDbLine
 10
11.40750598907471
 20
-91.0978012084961
 30
0.0
 11
12.18227291107178
 21
-91.0978012084961
 31
0.0
  0
LINE
  5
69
330
1F
100
AcDbEntity
  8
VIEW0002
  6
Continuous
 62
     7
100
AcDbLine
 10
-2.553109747831608
 20
7.919999597249202
 30
0.0
 11
-2.513065563442554
 21
5.625869687416286
 31
0.0
  0
LINE
  5
6A
330
1F
100
AcDbEntity
  8
VIEW0002
  6
Continuous
 62
     7
100
AcDbLine
 10
-2.553107500076294
 20
7.920000076293945
 30
0.0
 11
-3.37739109992981
 21
7.920000076293945
 31
0.0
  0
LINE
  5
6B
330
1F
100
AcDbEntity
  8
VIEW0002
  6
Continuous
 62
     7
100
AcDbLine
 10
-2.087540196073541
 20
3.124798608776864
 30
0.0
 11
-2.47224469922683
 21
5.217493978652898
 31
0.0
  0
LINE
  5
6C
330
1F
100
AcDbEntity
  8
VIEW0002
  6
Continuous
 62
     7
100
AcDbLine
 10
-1.549893237246003
 20
8.788088608729716
 30
0.0
 11
-3.378109655070487
 21
8.820000243299615
 31
0.0
  0
LINE
  5
6D
330
1F
100
AcDbEntity
  8
VIEW0002
  6
Continuous
 62
     7
100
AcDbLine
 10
-1.549893237246003
 20
8.788088608729716
 30
0.0
 11
-1.652321063219562
 21
2.920002075062457
 31
0.0
  0
LINE
  5
6E
330
1F
100
AcDbEntity
  8
VIEW0002
  6
Continuous
 62
     7
100
AcDbLine
 10
13.15750598907471
 20
-92.247802734375
 30
0.0
 11
77.10008239746094
 21
-92.247802734375
 31
0.0
  0
LINE
  5
6F
330
1F
100
AcDbEntity
  8
VIEW0002
  6
Continuous
 62
     7
100
AcDbLine
 10
56.19200543990728
 20
3.124800806213328
 30
0.0
 11
56.57670989995391
 21
5.217495941600054
 31
0.0
  0
LINE
  5
70
330
1F
100
AcDbEntity
  8
VIEW0002
  6
Continuous
 62
     7
100
AcDbLine
 10
55.65436232492306
 20
8.788088775045816
 30
0.0
 11
55.75679015297711
 21
2.920002122187423
 31
0.0
  0
LINE
  5
71
330
1F
100
AcDbEntity
  8
VIEW0002
  6
Continuous
 62
     7
100
AcDbLine
 10
57.17357635498047
 20
-58.09780502319336
 30
0.0
 11
57.17357635498047
 21
-59.09780502319336
 31
0.0
  0
LINE
  5
72
330
1F
100
AcDbEntity
  8
VIEW0002
  6
Continuous
 62
     7
100
AcDbLine
 10
4.223731450059425
 20
-73.66230723041134
 30
0.0
 11
7.91216243847451
 21
-81.44205236191057
 31
0.0
  0
LINE
  5
73
330
1F
100
AcDbEntity
  8
VIEW0002
  6
Continuous
 62
     7
100
AcDbLine
 10
3.320141434697643
 20
-74.09070550788044
 30
0.0
 11
7.008572423112728
 21
-81.87045063937967
 31
0.0
  0
LINE
  5
74
330
1F
100
AcDbEntity
  8
VIEW0002
  6
Continuous
 62
     7
100
AcDbLine
 10
1.238198041915894
 20
-72.94780731201172
 30
0.0
 11
3.094246625900269
 21
-72.94780731201172
 31
0.0
  0
LINE
  5
75
330
1F
100
AcDbEntity
  8
VIEW0002
  6
Continuous
 62
     7
100
AcDbLine
 10
0.889710187911987
 20
-73.94780731201172
 30
0.0
 11
3.094242811203003
 21
-73.94780731201172
 31
0.0
  0
LINE
  5
76
330
1F
100
AcDbEntity
  8
VIEW0002
  6
Continuous
 62
     7
100
AcDbLine
 10
-10.4924955368042
 20
-9.579997062683105
 30
0.0
 11
62.41048049926758
 21
-9.579997062683105
 31
0.0
  0
LINE
  5
77
330
1F
100
AcDbEntity
  8
VIEW0002
  6
Continuous
 62
     7
100
AcDbLine
 10
3.907501935958862
 20
-82.8478012084961
 30
0.0
 11
3.981701612472534
 21
-82.8478012084961
 31
0.0
  0
LINE
  5
78
330
1F
100
AcDbEntity
  8
VIEW0002
  6
Continuous
 62
     7
100
AcDbLine
 10
3.824620008468628
 20
-83.997802734375
 30
0.0
 11
4.907505512237549
 21
-83.997802734375
 31
0.0
  0
LINE
  5
79
330
1F
100
AcDbEntity
  8
VIEW0002
  6
Continuous
 62
     7
100
AcDbLine
 10
-5.421428022856713
 20
-49.18309560804417
 30
0.0
 11
-5.06787463226344
 21
-49.53664899863745
 31
0.0
  0
LINE
  5
7A
330
1F
100
AcDbEntity
  8
VIEW0002
  6
Continuous
 62
     7
100
AcDbLine
 10
63.75751113891617
 20
43.67000579833962
 30
0.0
 11
64.65750122070328
 21
43.67000579833961
 31
0.0
  0
LINE
  5
7B
330
1F
100
AcDbEntity
  8
VIEW0002
  6
Continuous
 62
     7
100
AcDbLine
 10
69.65750122070312
 20
-47.95986938476562
 30
0.0
 11
69.65750122070312
 21
-50.75863647460938
 31
0.0
  0
LINE
  5
7C
330
1F
100
AcDbEntity
  8
VIEW0002
  6
Continuous
 62
     7
100
AcDbLine
 10
13.23216724395752
 20
8.820001602172852
 30
0.0
 11
13.23216724395752
 21
2.920000076293945
 31
0.0
  0
LINE
  5
7D
330
1F
100
AcDbEntity
  8
VIEW0002
  6
Continuous
 62
     7
100
AcDbLine
 10
56.01047515869141
 20
2.920000076293945
 30
0.0
 11
59.68482971191406
 21
2.920000076293945
 31
0.0
  0
LINE
  5
7E
330
1F
100
AcDbEntity
  8
VIEW0002
  6
Continuous
 62
     7
100
AcDbLine
 10
-1.8416588306427
 20
2.920000076293945
 30
0.0
 11
11.92006778717041
 21
2.920000076293945
 31
0.0
  0
LINE
  5
7F
330
1F
100
AcDbEntity
  8
VIEW0002
  6
Continuous
 62
     7
100
AcDbLine
 10
-3.378108263015747
 20
8.820001602172852
 30
0.0
 11
57.48257446289062
 21
8.820001602172852
 31
0.0
  0
LINE
  5
80
330
1F
100
AcDbEntity
  8
VIEW0002
  6
Continuous
 62
     7
100
AcDbLine
 10
38.90750122070312
 20
8.820001602172852
 30
0.0
 11
38.90750122070312
 21
7.920000076293945
 31
0.0
  0
LINE
  5
81
330
1F
100
AcDbEntity
  8
VIEW0002
  6
Continuous
 62
     7
100
AcDbLine
 10
28.90750122070312
 20
8.820001602172852
 30
0.0
 11
28.90750122070312
 21
7.920000076293945
 31
0.0
  0
LINE
  5
82
330
1F
100
AcDbEntity
  8
VIEW0002
  6
Continuous
 62
     7
100
AcDbLine
 10
28.90750122070312
 20
7.920000076293945
 30
0.0
 11
38.90750122070312
 21
7.920000076293945
 31
0.0
  0
LINE
  5
83
330
1F
100
AcDbEntity
  8
VIEW0002
  6
Continuous
 62
     7
100
AcDbLine
 10
28.90750456815363
 20
7.920002679524305
 30
0.0
 11
28.06828112677966
 21
3.723885408889119
 31
0.0
  0
LINE
  5
84
330
1F
100
AcDbEntity
  8
VIEW0002
  6
Continuous
 62
     7
100
AcDbLine
 10
38.90750946640451
 20
7.920004354576118
 30
0.0
 11
39.74673331983098
 21
3.72388502367844
 31
0.0
  0
LINE
  5
85
330
1F
100
AcDbEntity
  8
VIEW0002
  6
Continuous
 62
     7
100
AcDbLine
 10
40.72731018066406
 20
2.920000076293945
 30
0.0
 11
55.94612884521484
 21
2.920000076293945
 31
0.0
  0
LINE
  5
86
330
1F
100
AcDbEntity
  8
VIEW0002
  6
Continuous
 62
     7
100
AcDbLine
 10
7.994839191436768
 20
8.820001602172852
 30
0.0
 11
7.994839191436768
 21
2.920000076293945
 31
0.0
  0
LINE
  5
87
330
1F
100
AcDbEntity
  8
VIEW0002
  6
Continuous
 62
     7
100
AcDbLine
 10
-79.66451263427734
 20
-9.579997062683105
 30
0.0
 11
-36.02657699584961
 21
-9.579997062683105
 31
0.0
  0
LINE
  5
88
330
1F
100
AcDbEntity
  8
VIEW0002
  6
Continuous
 62
     7
100
AcDbLine
 10
-10.4924955368042
 20
82.57000732421875
 30
0.0
 11
-10.4924955368042
 21
-9.579997062683105
 31
0.0
  0
LINE
  5
89
330
1F
100
AcDbEntity
  8
VIEW0002
  6
Continuous
 62
     7
100
AcDbLine
 10
56.6575753789658
 20
7.919999491267279
 30
0.0
 11
56.61753119457675
 21
5.625869581434364
 31
0.0
  0
LINE
  5
8A
330
1F
100
AcDbEntity
  8
VIEW0002
  6
Continuous
 62
     7
100
AcDbLine
 10
56.65757751464844
 20
7.920000076293945
 30
0.0
 11
57.48185729980469
 21
7.920000076293945
 31
0.0
  0
LINE
  5
8B
330
1F
100
AcDbEntity
  8
VIEW0002
  6
Continuous
 62
     7
100
AcDbLine
 10
57.48257446289062
 20
8.820001602172852
 30
0.0
 11
57.48257446289062
 21
7.920000076293945
 31
0.0
  0
LINE
  5
8C
330
1F
100
AcDbEntity
  8
VIEW0002
  6
Continuous
 62
     7
100
AcDbLine
 10
4.046009540557861
 20
-82.8478012084961
 30
0.0
 11
4.907505512237549
 21
-82.8478012084961
 31
0.0
  0
LINE
  5
8D
330
1F
100
AcDbEntity
  8
VIEW0002
  6
Continuous
 62
     7
100
AcDbLine
 10
62.41469884969827
 20
-57.45653516106327
 30
0.0
 11
62.21294056299198
 21
-69.01526028310735
 31
0.0
  0
LINE
  5
8E
330
1F
100
AcDbEntity
  8
VIEW0002
  6
Continuous
 62
     7
100
AcDbLine
 10
56.01047515869141
 20
2.920000076293945
 30
0.0
 11
56.01047515869141
 21
-9.579997062683105
 31
0.0
  0
LINE
  5
8F
330
1F
100
AcDbEntity
  8
VIEW0002
  6
Continuous
 62
     7
100
AcDbLine
 10
11.40750217437744
 20
2.920000076293945
 30
0.0
 11
11.40750217437744
 21
-9.579997062683105
 31
0.0
  0
LINE
  5
90
330
1F
100
AcDbEntity
  8
VIEW0002
  6
Continuous
 62
     7
100
AcDbLine
 10
-8.665938377380371
 20
79.74344635009766
 30
0.0
 11
-8.665938377380371
 21
-9.579997062683105
 31
0.0
  0
LINE
  5
91
330
1F
100
AcDbEntity
  8
VIEW0002
  6
Continuous
 62
     7
100
AcDbLine
 10
-2.44465184211731
 20
2.920000076293945
 30
0.0
 11
-2.44465184211731
 21
-9.579997062683105
 31
0.0
  0
LINE
  5
92
330
1F
100
AcDbEntity
  8
VIEW0002
  6
Continuous
 62
     7
100
AcDbLine
 10
39.40750122070312
 20
-90.2728042602539
 30
0.0
 11
53.252197265625
 21
-90.2728042602539
 31
0.0
  0
LINE
  5
93
330
1F
100
AcDbEntity
  8
VIEW0002
  6
Continuous
 62
     7
100
AcDbLine
 10
-80.31451416015625
 20
59.42000579833984
 30
0.0
 11
-80.31451416015625
 21
-4.52257251739502
 31
0.0
  0
LINE
  5
94
330
1F
100
AcDbEntity
  8
VIEW0002
  6
Continuous
 62
     7
100
AcDbLine
 10
-72.06451416015625
 20
68.75289916992188
 30
0.0
 11
-72.06451416015625
 21
-4.52257251739502
 31
0.0
  0
LINE
  5
95
330
1F
100
AcDbEntity
  8
VIEW0002
  6
Continuous
 62
     7
100
AcDbLine
 10
-6.058835274436644
 20
-49.10987091064453
 30
0.0
 11
-5.598205089569092
 21
-49.10987091064453
 31
0.0
  0
LINE
  5
96
330
1F
100
AcDbEntity
  8
VIEW0002
  6
Continuous
 62
     7
100
AcDbLine
 10
-3.594653367996216
 20
-49.60987091064453
 30
0.0
 11
-3.594653367996216
 21
-50.60987091064453
 31
0.0
  0
LINE
  5
97
330
1F
100
AcDbEntity
  8
VIEW0002
  6
Continuous
 62
     7
100
AcDbLine
 10
-4.891097545623779
 20
-49.60987091064453
 30
0.0
 11
-3.594653367996216
 21
-49.60987091064453
 31
0.0
  0
LINE
  5
98
330
1F
100
AcDbEntity
  8
VIEW0002
  6
Continuous
 62
     7
100
AcDbLine
 10
-4.871860092257702
 20
-48.10631578399548
 30
0.0
 11
-4.591530276043738
 21
-48.38664560020945
 31
0.0
  0
LINE
  5
99
330
1F
100
AcDbEntity
  8
VIEW0002
  6
Continuous
 62
     7
100
AcDbLine
 10
-8.379569053649902
 20
-47.95986938476562
 30
0.0
 11
82.15750122070312
 21
-47.95986938476562
 31
0.0
  0
LINE
  5
9A
330
1F
100
AcDbEntity
  8
VIEW0002
  6
Continuous
 62
     7
100
AcDbLine
 10
61.16047668457031
 20
9.917028427124023
 30
0.0
 11
61.16047668457031
 21
4.15080451965332
 31
0.0
  0
LINE
  5
9B
330
1F
100
AcDbEntity
  8
VIEW0002
  6
Continuous
 62
     7
100
AcDbLine
 10
69.65750122070312
 20
61.17000579833984
 30
0.0
 11
82.15750122070312
 21
61.17000579833984
 31
0.0
  0
LINE
  5
9C
330
1F
100
AcDbEntity
  8
VIEW0002
  6
Continuous
 62
     7
100
AcDbLine
 10
62.66048049926762
 20
11.4170284271238
 30
0.0
 11
68.42669677734379
 21
11.41702842712378
 31
0.0
  0
LINE
  5
9D
330
1F
100
AcDbEntity
  8
VIEW0002
  6
Continuous
 62
     7
100
AcDbLine
 10
69.65750122070312
 20
-48.45986938476562
 30
0.0
 11
82.15750122070312
 21
-48.45986938476562
 31
0.0
  0
LINE
  5
9E
330
1F
100
AcDbEntity
  8
VIEW0002
  6
Continuous
 62
     7
100
AcDbLine
 10
63.75751113891614
 20
33.67000579833962
 30
0.0
 11
64.65750122070325
 21
33.67000579833961
 31
0.0
  0
LINE
  5
9F
330
1F
100
AcDbEntity
  8
VIEW0002
  6
Continuous
 62
     7
100
AcDbLine
 10
63.75751113891629
 20
75.95561981201149
 30
0.0
 11
63.75751113891607
 21
15.09493064880348
 31
0.0
  0
LINE
  5
A0
330
1F
100
AcDbEntity
  8
VIEW0002
  6
Continuous
 62
     7
100
AcDbLine
 10
64.6575072785244
 20
33.67000161482335
 30
0.0
 11
68.85362080854117
 21
32.83077892157304
 31
0.0
  0
LINE
  5
A1
330
1F
100
AcDbEntity
  8
VIEW0002
  6
Continuous
 62
     7
100
AcDbLine
 10
69.65750122070324
 20
31.85019683837865
 30
0.0
 11
69.65750122070318
 21
16.63138008117651
 31
0.0
  0
LINE
  5
A2
330
1F
100
AcDbEntity
  8
VIEW0002
  6
Continuous
 62
     7
100
AcDbLine
 10
64.65750122070328
 20
43.67000579833961
 30
0.0
 11
64.65750122070325
 21
33.67000579833961
 31
0.0
  0
LINE
  5
A3
330
1F
100
AcDbEntity
  8
VIEW0002
  6
Continuous
 62
     7
100
AcDbLine
 10
64.65749964924089
 20
43.66999733641666
 30
0.0
 11
68.85361317925765
 21
44.50922002966696
 31
0.0
  0
LINE
  5
A4
330
1F
100
AcDbEntity
  8
VIEW0002
  6
Continuous
 62
     7
100
AcDbLine
 10
64.41047668457036
 20
10.16702842712379
 30
0.0
 11
82.15750122070317
 21
10.16702842712373
 31
0.0
  0
LINE
  5
A5
330
1F
100
AcDbEntity
  8
VIEW0002
  6
Continuous
 62
     7
100
AcDbLine
 10
69.65750122070337
 20
68.67000579833959
 30
0.0
 11
82.15750122070337
 21
68.67000579833955
 31
0.0
  0
LINE
  5
A6
330
1F
100
AcDbEntity
  8
VIEW0002
  6
Continuous
 62
     7
100
AcDbLine
 10
-2.036383867263519
 20
76.11389160156251
 30
0.0
 11
69.6575012207034
 21
76.11389160156224
 31
0.0
  0
LINE
  5
A7
330
1F
100
AcDbEntity
  8
VIEW0002
  6
Continuous
 62
     7
100
AcDbLine
 10
-9.992495536803899
 20
83.07000732421879
 30
0.0
 11
82.15750122070342
 21
83.07000732421845
 31
0.0
  0
LINE
  5
A8
330
1F
100
AcDbEntity
  8
VIEW0002
  6
Continuous
 62
     7
100
AcDbLine
 10
5.407505512237797
 20
68.67000579833983
 30
0.0
 11
63.75751113891626
 21
68.67000579833962
 31
0.0
  0
LINE
  5
A9
330
1F
100
AcDbEntity
  8
VIEW0002
  6
Continuous
 62
     7
100
AcDbLine
 10
-7.165939086973693
 20
81.24344700250582
 30
0.0
 11
82.15750861734114
 21
81.2434388702408
 31
0.0
  0
LINE
  5
AA
330
1F
100
AcDbEntity
  8
VIEW0002
  6
Continuous
 62
     7
100
AcDbLine
 10
69.65750122070334
 20
60.65744018554663
 30
0.0
 11
69.6575012207033
 21
45.489807128906
 31
0.0
  0
LINE
  5
AB
330
1F
100
AcDbEntity
  8
VIEW0002
  6
Continuous
 62
     7
100
AcDbLine
 10
69.65750122070318
 20
16.56702995300268
 30
0.0
 11
82.15750122070318
 21
16.56702995300263
 31
0.0
  0
LINE
  5
AC
330
1F
100
AcDbEntity
  8
VIEW0002
  6
Continuous
 62
     7
100
AcDbLine
 10
63.5960197448731
 20
15.01702690124489
 30
0.0
 11
69.65750122070318
 21
15.01702690124486
 31
0.0
  0
LINE
  5
AD
330
1F
100
AcDbEntity
  8
VIEW0002
  6
Continuous
 62
     7
100
AcDbLine
 10
63.75751113891629
 20
75.95561981201149
 30
0.0
 11
64.6575012207034
 21
75.95561981201149
 31
0.0
  0
LINE
  5
AE
330
1F
100
AcDbEntity
  8
VIEW0002
  6
Continuous
 62
     7
100
AcDbLine
 10
63.75751113891608
 20
17.90105628967262
 30
0.0
 11
69.6575012207032
 21
17.9010562896726
 31
0.0
  0
LINE
  5
AF
330
1F
100
AcDbEntity
  8
VIEW0002
  6
Continuous
 62
     7
100
AcDbLine
 10
69.45271199297733
 20
16.3854978650186
 30
0.0
 11
67.3600168575906
 21
16.00079340497197
 31
0.0
  0
LINE
  5
B0
330
1F
100
AcDbEntity
  8
VIEW0002
  6
Continuous
 62
     7
100
AcDbLine
 10
63.78941654366164
 20
74.12739159997155
 30
0.0
 11
63.75750484043562
 21
75.95561195110344
 31
0.0
  0
LINE
  5
B1
330
1F
100
AcDbEntity
  8
VIEW0002
  6
Continuous
 62
     7
100
AcDbLine
 10
63.75751113891607
 20
15.09493064880348
 30
0.0
 11
64.65750122070318
 21
15.09493064880348
 31
0.0
  0
LINE
  5
B2
330
1F
100
AcDbEntity
  8
VIEW0002
  6
Continuous
 62
     7
100
AcDbLine
 10
64.6575055300533
 20
15.91993049280115
 30
0.0
 11
66.95163543988622
 21
15.95997467719021
 31
0.0
  0
LINE
  5
B3
330
1F
100
AcDbEntity
  8
VIEW0002
  6
Continuous
 62
     7
100
AcDbLine
 10
64.65750122070318
 20
15.91992759704567
 30
0.0
 11
64.65750122070318
 21
15.09564781188942
 31
0.0
  0
LINE
  5
B4
330
1F
100
AcDbEntity
  8
VIEW0002
  6
Continuous
 62
     7
100
AcDbLine
 10
63.78942097741305
 20
16.92314644393813
 30
0.0
 11
69.65750369696404
 21
16.82071868454021
 31
0.0
  0
LINE
  5
B5
330
1F
100
AcDbEntity
  8
VIEW0002
  6
Continuous
 62
     7
100
AcDbLine
 10
69.6575082852498
 20
77.59580359470274
 30
0.0
 11
82.15750828524976
 21
77.59580245666659
 31
0.0
  0
LINE
  5
B6
330
1F
100
AcDbEntity
  8
VIEW0002
  6
Continuous
 62
     7
100
AcDbLine
 10
69.65750823972836
 20
77.09580359470274
 30
0.0
 11
82.15750823972832
 21
77.09580245666659
 31
0.0
  0
LINE
  5
B7
330
1F
100
AcDbEntity
  8
VIEW0002
  6
Continuous
 62
     7
100
AcDbLine
 10
69.6575084194643
 20
79.06999335300353
 30
0.0
 11
69.6575080509369
 21
75.02214941989807
 31
0.0
  0
LINE
  5
B8
330
1F
100
AcDbEntity
  8
VIEW0002
  6
Continuous
 62
     7
100
AcDbLine
 10
63.78942097741305
 20
16.92314644393813
 30
0.0
 11
63.75750934076267
 21
15.09492990692251
 31
0.0
  0
LINE
  5
B9
330
1F
100
AcDbEntity
  8
VIEW0002
  6
Continuous
 62
     7
100
AcDbLine
 10
64.6575101468877
 20
75.13061803992827
 30
0.0
 11
66.95163624260435
 21
75.09057392211486
 31
0.0
  0
LINE
  5
BA
330
1F
100
AcDbEntity
  8
VIEW0002
  6
Continuous
 62
     7
100
AcDbLine
 10
63.78941654366164
 20
74.12739159997155
 30
0.0
 11
69.65750307732891
 21
74.22981942594511
 31
0.0
  0
LINE
  5
BB
330
1F
100
AcDbEntity
  8
VIEW0002
  6
Continuous
 62
     7
100
AcDbLine
 10
69.45270428663581
 20
74.66505076761575
 30
0.0
 11
67.36000915124909
 21
75.04975522766239
 31
0.0
  0
LINE
  5
BC
330
1F
100
AcDbEntity
  8
VIEW0002
  6
Continuous
 62
     7
100
AcDbLine
 10
63.75751113891627
 20
71.51389312744118
 30
0.0
 11
69.65750122070338
 21
71.51389312744115
 31
0.0
  0
LINE
  5
BD
330
1F
100
AcDbEntity
  8
VIEW0002
  6
Continuous
 62
     7
100
AcDbLine
 10
64.6575012207034
 20
75.13061523437477
 30
0.0
 11
64.6575012207034
 21
75.95489501953102
 31
0.0
  0
LINE
  5
BE
330
1F
100
AcDbEntity
  8
VIEW0002
  6
Continuous
 62
     7
100
AcDbLine
 10
63.75751113891625
 20
64.5826721191404
 30
0.0
 11
69.65750122070335
 21
64.58267211914037
 31
0.0
  0
LINE
  5
BF
330
1F
100
AcDbEntity
  8
VIEW0002
  6
Continuous
 62
     7
100
AcDbLine
 10
63.75751113891626
 20
68.69252777099587
 30
0.0
 11
69.65750122070337
 21
68.69252777099584
 31
0.0
  0
LINE
  5
C0
330
1F
100
AcDbEntity
  8
VIEW0002
  6
Continuous
 62
     7
100
AcDbLine
 10
63.75751113891623
 20
59.3453445434568
 30
0.0
 11
69.65750122070334
 21
59.34534454345678
 31
0.0
  0
LINE
  5
C1
330
1F
100
AcDbEntity
  8
VIEW0002
  6
Continuous
 62
     7
100
AcDbLine
 10
69.6575080509369
 20
75.02214941989807
 30
0.0
 11
82.15750805093685
 21
75.02214828186192
 31
0.0
  0
LINE
  5
C2
330
1F
100
AcDbEntity
  8
VIEW0002
  6
Continuous
 62
     7
100
AcDbLine
 10
1.063618421554565
 20
8.820001602172852
 30
0.0
 11
1.063618421554565
 21
2.920000076293945
 31
0.0
  0
LINE
  5
C3
330
1F
100
AcDbEntity
  8
VIEW0002
  6
Continuous
 62
     7
100
AcDbLine
 10
-3.536383867263794
 20
74.6138916015625
 30
0.0
 11
-3.536383867263794
 21
2.920000076293945
 31
0.0
  0
LINE
  5
C4
330
1F
100
AcDbEntity
  8
VIEW0002
  6
Continuous
 62
     7
100
AcDbLine
 10
3.907505750656128
 20
67.17000579833984
 30
0.0
 11
3.907505750656128
 21
8.820001602172852
 31
0.0
  0
LINE
  5
C5
330
1F
100
AcDbEntity
  8
VIEW0002
  6
Continuous
 62
     7
100
AcDbLine
 10
12.90750217437744
 20
61.17000579833984
 30
0.0
 11
63.75751113891602
 21
61.17000579833984
 31
0.0
  0
LINE
  5
C6
330
1F
100
AcDbEntity
  8
VIEW0002
  6
Continuous
 62
     7
100
AcDbLine
 10
11.40750217437744
 20
59.67000579833984
 30
0.0
 11
11.40750217437744
 21
8.820001602172852
 31
0.0
  0
LINE
  5
C7
330
1F
100
AcDbEntity
  8
VIEW0002
  6
Continuous
 62
     7
100
AcDbLine
 10
3.907505750656128
 20
2.920000076293945
 30
0.0
 11
3.907505750656128
 21
-9.579997062683105
 31
0.0
  0
LINE
  5
C8
330
1F
100
AcDbEntity
  8
VIEW0002
  6
Continuous
 62
     7
100
AcDbLine
 10
11.92006778717041
 20
2.920000076293945
 30
0.0
 11
27.08769989013672
 21
2.920000076293945
 31
0.0
  0
LINE
  5
C9
330
1F
100
AcDbEntity
  8
VIEW0002
  6
Continuous
 62
     7
100
AcDbLine
 10
3.884983777999878
 20
8.820001602172852
 30
0.0
 11
3.884983777999878
 21
2.920000076293945
 31
0.0
  0
LINE
  5
CA
330
1F
100
AcDbEntity
  8
VIEW0002
  6
Continuous
 62
     7
100
AcDbLine
 10
-7.992496013641357
 20
79.07000732421875
 30
0.0
 11
-7.992496013641357
 21
4.420000076293945
 31
0.0
  0
LINE
  5
CB
330
1F
100
AcDbEntity
  8
VIEW0002
  6
Continuous
 62
     7
100
AcDbLine
 10
-6.492496013641357
 20
2.920000076293945
 30
0.0
 11
-2.44465184211731
 21
2.920000076293945
 31
0.0
  0
LINE
  5
CC
330
1F
100
AcDbEntity
  8
VIEW0002
  6
Continuous
 62
     7
100
AcDbLine
 10
56.40750885009766
 20
8.984464645385742
 30
0.0
 11
56.40750885009766
 21
8.820001602172852
 31
0.0
  0
LINE
  5
CD
330
1F
100
AcDbEntity
  8
VIEW0002
  6
Continuous
 62
     7
100
AcDbLine
 10
61.82527816688892
 20
15.43776885923125
 30
0.0
 11
57.13973816512988
 21
10.75222885747221
 31
0.0
  0
LINE
  5
CE
330
1F
100
AcDbEntity
  8
VIEW0002
  6
Continuous
 62
     7
100
AcDbLine
 10
82.15750122070342
 20
83.07000732421845
 30
0.0
 11
82.15750122070317
 21
10.16702842712373
 31
0.0
  0
LINE
  5
CF
330
1F
100
AcDbEntity
  8
VIEW0002
  6
Continuous
 62
     7
100
AcDbLine
 10
63.59304428100592
 20
16.17000007629371
 30
0.0
 11
63.75751113891607
 21
16.17000007629371
 31
0.0
  0
LINE
  5
D0
330
1F
100
AcDbEntity
  8
VIEW0002
  6
Continuous
 62
     7
100
AcDbLine
 10
-6.492496307710055
 20
80.5700002859202
 30
0.0
 11
68.15750855602866
 21
80.56999348956785
 31
0.0
  0
LINE
  5
D1
330
1F
100
AcDbEntity
  8
VIEW0002
  6
Continuous
 62
     7
100
AcDbLine
 10
69.65750122070318
 20
16.56702995300268
 30
0.0
 11
69.65750122070317
 21
12.89267539978002
 31
0.0
  0
LINE
  5
D2
330
1F
100
AcDbEntity
  8
VIEW0002
  6
Continuous
 62
     7
100
AcDbLine
 10
69.6575012207034
 20
74.41916656494115
 30
0.0
 11
69.65750122070334
 21
60.65744018554663
 31
0.0
  0
LINE
  5
D3
330
1F
100
AcDbEntity
  8
VIEW0002
  6
Continuous
 62
     7
100
AcDbLine
 10
57.02357482910156
 20
-56.94780731201172
 30
0.0
 11
82.15750122070312
 21
-56.94780731201172
 31
0.0
  0
LINE
  5
D4
330
1F
100
AcDbEntity
  8
VIEW0002
  6
Continuous
 62
     7
100
AcDbLine
 10
58.04806518554688
 20
-68.8478012084961
 30
0.0
 11
60.92357635498047
 21
-68.8478012084961
 31
0.0
  0
LINE
  5
D5
330
1F
100
AcDbEntity
  8
VIEW0002
  6
Continuous
 62
     7
100
AcDbLine
 10
61.17357635498047
 20
-58.34780502319336
 30
0.0
 11
61.17357635498047
 21
-68.5978012084961
 31
0.0
  0
LINE
  5
D6
330
1F
100
AcDbEntity
  8
VIEW0002
  6
Continuous
 62
     7
100
AcDbLine
 10
-49.87274932861328
 20
77.19465637207031
 30
0.0
 11
-49.87274932861328
 21
-9.579997062683105
 31
0.0
  0
LINE
  5
D7
330
1F
100
AcDbEntity
  8
VIEW0002
  6
Continuous
 62
     7
100
AcDbLine
 10
58.90213012695312
 20
-69.997802734375
 30
0.0
 11
82.15750122070312
 21
-69.997802734375
 31
0.0
  0
LINE
  5
D8
330
1F
100
AcDbEntity
  8
VIEW0002
  6
Continuous
 62
     7
100
AcDbLine
 10
57.17357635498047
 20
-58.09780502319336
 30
0.0
 11
60.92357635498047
 21
-58.09780502319336
 31
0.0
  0
LINE
  5
D9
330
1F
100
AcDbEntity
  8
VIEW0002
  6
Continuous
 62
     7
100
AcDbLine
 10
61.17357982439092
 20
-58.34780457935303
 30
0.0
 11
60.92357955471498
 21
-58.09780430967709
 31
0.0
  0
LINE
  5
DA
330
1F
100
AcDbEntity
  8
VIEW0002
  6
Continuous
 62
     7
100
AcDbLine
 10
-38.82534408569336
 20
76.17216491699219
 30
0.0
 11
-38.82534408569336
 21
76.17216491699219
 31
0.0
  0
LINE
  5
DB
330
1F
100
AcDbEntity
  8
VIEW0002
  6
Continuous
 62
     7
100
AcDbLine
 10
57.7049271572922
 20
-88.31499486621676
 30
0.0
 11
58.65247421722592
 21
-70.23471997904954
 31
0.0
  0
LINE
  5
DC
330
1F
100
AcDbEntity
  8
VIEW0002
  6
Continuous
 62
     7
100
AcDbLine
 10
-36.02657699584961
 20
80.95708465576172
 30
0.0
 11
-36.02657699584961
 21
-9.579997062683105
 31
0.0
  0
LINE
  5
DD
330
1F
100
AcDbEntity
  8
VIEW0002
  6
Continuous
 62
     7
100
AcDbLine
 10
62.41048049926758
 20
8.167028427124023
 30
0.0
 11
62.41048049926758
 21
-9.579997062683105
 31
0.0
  0
LINE
  5
DE
330
1F
100
AcDbEntity
  8
VIEW0002
  6
Continuous
 62
     7
100
AcDbLine
 10
-5.018306255340576
 20
2.920000076293945
 30
0.0
 11
-5.018306255340576
 21
-9.579997062683105
 31
0.0
  0
LINE
  5
DF
330
1F
100
AcDbEntity
  8
VIEW0002
  6
Continuous
 62
     7
100
AcDbLine
 10
-4.518306255340576
 20
2.920000076293945
 30
0.0
 11
-4.518306255340576
 21
-9.579997062683105
 31
0.0
  0
LINE
  5
E0
330
1F
100
AcDbEntity
  8
VIEW0002
  6
Continuous
 62
     7
100
AcDbLine
 10
57.56047821044922
 20
8.98149299621582
 30
0.0
 11
57.56047821044922
 21
2.920000076293945
 31
0.0
  0
LINE
  5
E1
330
1F
100
AcDbEntity
  8
VIEW0002
  6
Continuous
 62
     7
100
AcDbLine
 10
-3.378108263015747
 20
8.820001602172852
 30
0.0
 11
-3.378108263015747
 21
7.920000076293945
 31
0.0
  0
LINE
  5
E2
330
1F
100
AcDbEntity
  8
VIEW0002
  6
Continuous
 62
     7
100
AcDbLine
 10
54.67645263671875
 20
8.820001602172852
 30
0.0
 11
54.67645263671875
 21
2.920000076293945
 31
0.0
  0
LINE
  5
E3
330
1F
100
AcDbEntity
  8
VIEW0002
  6
Continuous
 62
     7
100
AcDbLine
 10
61.8282506998207
 20
14.28479832266808
 30
0.0
 11
58.29271409648966
 21
10.74926171933704
 31
0.0
  0
LINE
  5
E4
330
1F
100
AcDbEntity
  8
VIEW0002
  6
Continuous
 62
     7
100
AcDbLine
 10
54.75014678129135
 20
-87.85130749709477
 30
0.0
 11
55.67257999296876
 21
-70.25023337910133
 31
0.0
  0
LINE
  5
E5
330
1F
100
AcDbEntity
  8
VIEW0002
  6
Continuous
 62
     7
100
AcDbLine
 10
-3.594653367996216
 20
-50.60987091064453
 30
0.0
 11
-3.44465184211731
 21
-50.60987091064453
 31
0.0
  0
LINE
  5
E6
330
1F
100
AcDbEntity
  8
VIEW0002
  6
Continuous
 62
     7
100
AcDbLine
 10
63.012444289839
 20
-69.9978046573968
 30
0.0
 11
62.62033788353019
 21
-88.31380611759887
 31
0.0
  0
LINE
  5
E7
330
1F
100
AcDbEntity
  8
VIEW0002
  6
Continuous
 62
     7
100
AcDbLine
 10
55.67257999296876
 20
-70.25023337910133
 30
0.0
 11
57.49507584629788
 21
-70.34574633995732
 31
0.0
  0
LINE
  5
E8
330
1F
100
AcDbEntity
  8
VIEW0002
  6
Continuous
 62
     7
100
AcDbLine
 10
56.40750678415213
 20
-91.09780017858078
 30
0.0
 11
56.47069468936964
 21
-89.89210312754807
 31
0.0
  0
LINE
  5
E9
330
1F
100
AcDbEntity
  8
VIEW0002
  6
Continuous
 62
     7
100
AcDbLine
 10
55.7487763160336
 20
-87.90364345357293
 30
0.0
 11
56.64504154947193
 21
-70.80188410295062
 31
0.0
  0
LINE
  5
EA
330
1F
100
AcDbEntity
  8
VIEW0002
  6
Continuous
 62
     7
100
AcDbLine
 10
38.90750122070312
 20
-89.2728042602539
 30
0.0
 11
38.90750122070312
 21
-89.7728042602539
 31
0.0
  0
LINE
  5
EB
330
1F
100
AcDbEntity
  8
VIEW0002
  6
Continuous
 62
     7
100
AcDbLine
 10
56.55650166855088
 20
-88.25480843640854
 30
0.0
 11
57.54874703408756
 21
-69.32163907416512
 31
0.0
  0
LINE
  5
EC
330
1F
100
AcDbEntity
  8
VIEW0002
  6
Continuous
 62
     7
100
AcDbLine
 10
55.15409851074219
 20
-91.0978012084961
 30
0.0
 11
56.40750885009766
 21
-91.0978012084961
 31
0.0
  0
LINE
  5
ED
330
1F
100
AcDbEntity
  8
VIEW0002
  6
Continuous
 62
     7
100
AcDbLine
 10
11.40750598907471
 20
-90.3714599609375
 30
0.0
 11
11.40750598907471
 21
-91.0978012084961
 31
0.0
  0
LINE
  5
EE
330
1F
100
AcDbEntity
  8
VIEW0002
  6
Continuous
 62
     7
100
AcDbLine
 10
13.15750598907471
 20
-91.0978012084961
 30
0.0
 11
53.56061553955078
 21
-91.0978012084961
 31
0.0
  0
LINE
  5
EF
330
1F
100
AcDbEntity
  8
VIEW0002
  6
Continuous
 62
     7
100
AcDbLine
 10
-7.553157626474182
 20
80.13066734823363
 30
0.0
 11
11.84684387911156
 21
60.73066584264788
 31
0.0
  0
ARC
  5
F0
330
1F
100
AcDbEntity
  8
VIEW0002
  6
Continuous
 62
     7
100
AcDbCircle
 10
56.14572143554688
 20
-70.77571868896484
 30
0.0
 40
0.5
100
AcDbArc
 50
356.9999999165174
 51
86.99999900590097
  0
ARC
  5
F1
330
1F
100
AcDbEntity
  8
VIEW0002
  6
Continuous
 62
     7
100
AcDbCircle
 10
-52.06451034545898
 20
-4.52257251739502
 30
0.0
 40
20.0
100
AcDbArc
 50
179.999991348578
 51
194.6474822878321
  0
ARC
  5
F2
330
1F
100
AcDbEntity
  8
VIEW0002
  6
Continuous
 62
     7
100
AcDbCircle
 10
13.15750598907471
 20
-89.3478012084961
 30
0.0
 40
2.900001525878906
100
AcDbArc
 50
179.999991348578
 51
270.0000006832453
  0
ARC
  5
F3
330
1F
100
AcDbEntity
  8
VIEW0002
  6
Continuous
 62
     7
100
AcDbCircle
 10
-0.013446121476591
 20
5.669500350952148
 30
0.0
 40
2.5
100
AcDbArc
 50
181.0000029874252
 51
190.4164979281767
  0
ARC
  5
F4
330
1F
100
AcDbEntity
  8
VIEW0002
  6
Continuous
 62
     7
100
AcDbCircle
 10
4.907505512237549
 20
-89.3478012084961
 30
0.0
 40
8.324999809265137
100
AcDbArc
 50
2.172060133662704
 51
66.9417893005137
  0
ARC
  5
F5
330
1F
100
AcDbEntity
  8
VIEW0002
  6
Continuous
 62
     7
100
AcDbCircle
 10
4.907505512237549
 20
-89.3478012084961
 30
0.0
 40
5.349999904632568
100
AcDbArc
 50
0.0
 51
90.00000250447816
  0
ARC
  5
F6
330
1F
100
AcDbEntity
  8
VIEW0002
  6
Continuous
 62
     7
100
AcDbCircle
 10
4.907505512237549
 20
-89.3478012084961
 30
0.0
 40
7.325000286102295
100
AcDbArc
 50
2.172057358898354
 51
66.94180296089205
  0
ARC
  5
F7
330
1F
100
AcDbEntity
  8
VIEW0002
  6
Continuous
 62
     7
100
AcDbCircle
 10
46.26106262207031
 20
-56.27382659912109
 30
0.0
 40
49.17499923706055
100
AcDbArc
 50
187.6694368251325
 51
200.4560290646383
  0
ARC
  5
F8
330
1F
100
AcDbEntity
  8
VIEW0002
  6
Continuous
 62
     7
100
AcDbCircle
 10
46.26106262207031
 20
-56.27382659912109
 30
0.0
 40
48.17499923706055
100
AcDbArc
 50
187.149796033078
 51
200.0415595254236
  0
ARC
  5
F9
330
1F
100
AcDbEntity
  8
VIEW0002
  6
Continuous
 62
     7
100
AcDbCircle
 10
-5.598205089569092
 20
-49.35987091064453
 30
0.0
 40
0.25
100
AcDbArc
 50
45.00000125223908
 51
90.00000250447816
  0
ARC
  5
FA
330
1F
100
AcDbEntity
  8
VIEW0002
  6
Continuous
 62
     7
100
AcDbCircle
 10
46.26105499267578
 20
-56.27383041381836
 30
0.0
 40
50.0
100
AcDbArc
 50
212.0168618953153
 51
212.105476769607
  0
ARC
  5
FB
330
1F
100
AcDbEntity
  8
VIEW0002
  6
Continuous
 62
     7
100
AcDbCircle
 10
77.10008239746094
 20
-72.247802734375
 30
0.0
 40
20.0
100
AcDbArc
 50
269.9999974955218
 51
284.6474679442084
  0
ARC
  5
FC
330
1F
100
AcDbEntity
  8
VIEW0002
  6
Continuous
 62
     7
100
AcDbCircle
 10
46.26106262207031
 20
-56.27382659912109
 30
0.0
 40
51.15000152587891
100
AcDbArc
 50
186.3827794496639
 51
212.2003071160435
  0
ARC
  5
FD
330
1F
100
AcDbEntity
  8
VIEW0002
  6
Continuous
 62
     7
100
AcDbCircle
 10
-77.41451263427734
 20
59.42000579833984
 30
0.0
 40
2.900001525878906
100
AcDbArc
 50
89.999995674289
 51
180.0000050089563
  0
ARC
  5
FE
330
1F
100
AcDbEntity
  8
VIEW0002
  6
Continuous
 62
     7
100
AcDbCircle
 10
55.94612884521484
 20
3.170000076293945
 30
0.0
 40
0.25
100
AcDbArc
 50
269.9999974955218
 51
349.5834987704143
  0
ARC
  5
FF
330
1F
100
AcDbEntity
  8
VIEW0002
  6
Continuous
 62
     7
100
AcDbCircle
 10
62.66048049926758
 20
9.917028427124023
 30
0.0
 40
1.5
100
AcDbArc
 50
90.00000250447816
 51
180.0000050089563
  0
ARC
  5
100
330
1F
100
AcDbEntity
  8
VIEW0002
  6
Continuous
 62
     7
100
AcDbCircle
 10
54.11791229248047
 20
5.669500350952148
 30
0.0
 40
2.5
100
AcDbArc
 50
349.5834987704143
 51
359.0000000077464
  0
ARC
  5
101
330
1F
100
AcDbEntity
  8
VIEW0002
  6
Continuous
 62
     7
100
AcDbCircle
 10
3.824620008468628
 20
-82.997802734375
 30
0.0
 40
1.0
100
AcDbArc
 50
212.2003071160435
 51
269.9999974955218
  0
ARC
  5
102
330
1F
100
AcDbEntity
  8
VIEW0002
  6
Continuous
 62
     7
100
AcDbCircle
 10
46.26106262207031
 20
-56.27382659912109
 30
0.0
 40
50.0
100
AcDbArc
 50
185.6264452821117
 51
211.9463606827024
  0
ARC
  5
103
330
1F
100
AcDbEntity
  8
VIEW0002
  6
Continuous
 62
     7
100
AcDbCircle
 10
-60.31451416015625
 20
-4.52257251739502
 30
0.0
 40
20.0
100
AcDbArc
 50
179.999991348578
 51
194.6474822878321
  0
ARC
  5
104
330
1F
100
AcDbEntity
  8
VIEW0002
  6
Continuous
 62
     7
100
AcDbCircle
 10
1.238198041915894
 20
-72.69780731201172
 30
0.0
 40
0.25
100
AcDbArc
 50
200.0415595254236
 51
269.9999974955218
  0
ARC
  5
105
330
1F
100
AcDbEntity
  8
VIEW0002
  6
Continuous
 62
     7
100
AcDbCircle
 10
4.046009540557861
 20
-82.5978012084961
 30
0.0
 40
0.25
100
AcDbArc
 50
211.9463606827024
 51
269.9999974955218
  0
ARC
  5
106
330
1F
100
AcDbEntity
  8
VIEW0002
  6
Continuous
 62
     7
100
AcDbCircle
 10
4.907505512237549
 20
-89.3478012084961
 30
0.0
 40
6.5
100
AcDbArc
 50
0.0
 51
90.00000250447816
  0
ARC
  5
107
330
1F
100
AcDbEntity
  8
VIEW0002
  6
Continuous
 62
     7
100
AcDbCircle
 10
13.15750598907471
 20
-89.3478012084961
 30
0.0
 40
1.75
100
AcDbArc
 50
179.999991348578
 51
270.0000006832453
  0
ARC
  5
108
330
1F
100
AcDbEntity
  8
VIEW0002
  6
Continuous
 62
     7
100
AcDbCircle
 10
-3.995639085769653
 20
-61.22496032714844
 30
0.0
 40
0.5
100
AcDbArc
 50
5.62644431465252
 51
82.31079410293125
  0
ARC
  5
109
330
1F
100
AcDbEntity
  8
VIEW0002
  6
Continuous
 62
     7
100
AcDbCircle
 10
13.47634601593018
 20
-89.0228042602539
 30
0.0
 40
0.25
100
AcDbArc
 50
182.1720634489994
 51
269.9999974955218
  0
ARC
  5
10A
330
1F
100
AcDbEntity
  8
VIEW0002
  6
Continuous
 62
     7
100
AcDbCircle
 10
-9.9924955368042
 20
82.57000732421875
 30
0.0
 40
0.5
100
AcDbArc
 50
90.00000250447816
 51
180.0000050089563
  0
ARC
  5
10B
330
1F
100
AcDbEntity
  8
VIEW0002
  6
Continuous
 62
     7
100
AcDbCircle
 10
53.252197265625
 20
-87.7728042602539
 30
0.0
 40
1.5
100
AcDbArc
 50
269.9999974955218
 51
356.9999999165174
  0
ARC
  5
10C
330
1F
100
AcDbEntity
  8
VIEW0002
  6
Continuous
 62
     7
100
AcDbCircle
 10
-2.036383867263794
 20
74.6138916015625
 30
0.0
 40
1.5
100
AcDbArc
 50
90.00000250447816
 51
180.0000050089563
  0
ARC
  5
10D
330
1F
100
AcDbEntity
  8
VIEW0002
  6
Continuous
 62
     7
100
AcDbCircle
 10
64.41047668457031
 20
8.167028427124023
 30
0.0
 40
2.0
100
AcDbArc
 50
90.00000250447816
 51
180.0000050089563
  0
ARC
  5
10E
330
1F
100
AcDbEntity
  8
VIEW0002
  6
Continuous
 62
     7
100
AcDbCircle
 10
-6.492496013641357
 20
79.07000732421875
 30
0.0
 40
1.5
100
AcDbArc
 50
89.999995674289
 51
180.0000050089563
  0
ARC
  5
10F
330
1F
100
AcDbEntity
  8
VIEW0002
  6
Continuous
 62
     7
100
AcDbCircle
 10
5.407505512237549
 20
67.17000579833984
 30
0.0
 40
1.5
100
AcDbArc
 50
90.00000250447816
 51
180.0000050089563
  0
ARC
  5
110
330
1F
100
AcDbEntity
  8
VIEW0002
  6
Continuous
 62
     7
100
AcDbCircle
 10
-36.52657699584961
 20
80.95708465576172
 30
0.0
 40
0.5
100
AcDbArc
 50
359.9999999999996
 51
60.26545697174466
  0
ARC
  5
111
330
1F
100
AcDbEntity
  8
VIEW0002
  6
Continuous
 62
     7
100
AcDbCircle
 10
40.72731018066406
 20
3.920000076293945
 30
0.0
 40
1.0
100
AcDbArc
 50
191.3099276527494
 51
269.9999974955218
  0
ARC
  5
112
330
1F
100
AcDbEntity
  8
VIEW0002
  6
Continuous
 62
     7
100
AcDbCircle
 10
27.08769989013672
 20
3.920000076293945
 30
0.0
 40
1.0
100
AcDbArc
 50
269.9999974955218
 51
348.6900673382943
  0
ARC
  5
113
330
1F
100
AcDbEntity
  8
VIEW0002
  6
Continuous
 62
     7
100
AcDbCircle
 10
58.90213012695312
 20
-70.247802734375
 30
0.0
 40
0.25
100
AcDbArc
 50
90.00000250447816
 51
176.99999468019
  0
ARC
  5
114
330
1F
100
AcDbEntity
  8
VIEW0002
  6
Continuous
 62
     7
100
AcDbCircle
 10
-1.978518724441528
 20
-62.76987075805664
 30
0.0
 40
0.5
100
AcDbArc
 50
90.00000250447816
 51
187.6694331826669
  0
ARC
  5
115
330
1F
100
AcDbEntity
  8
VIEW0002
  6
Continuous
 62
     7
100
AcDbCircle
 10
-5.225413799285889
 20
-48.45986938476562
 30
0.0
 40
0.5
100
AcDbArc
 50
45.00000125223908
 51
90.00000250447816
  0
ARC
  5
116
330
1F
100
AcDbEntity
  8
VIEW0002
  6
Continuous
 62
     7
100
AcDbCircle
 10
-1.8416588306427
 20
3.170000076293945
 30
0.0
 40
0.25
100
AcDbArc
 50
190.4164979281767
 51
269.9999974955218
  0
ARC
  5
117
330
1F
100
AcDbEntity
  8
VIEW0002
  6
Continuous
 62
     7
100
AcDbCircle
 10
-42.60235977172852
 20
75.67000579833984
 30
0.0
 40
7.400000095367432
100
AcDbArc
 50
90.00000250447816
 51
166.9464616559298
  0
ARC
  5
118
330
1F
100
AcDbEntity
  8
VIEW0002
  6
Continuous
 62
     7
100
AcDbCircle
 10
-4.891097545623779
 20
-49.35987091064453
 30
0.0
 40
0.25
100
AcDbArc
 50
224.9999996583774
 51
269.9999974955218
  0
ARC
  5
119
330
1F
100
AcDbEntity
  8
VIEW0002
  6
Continuous
 62
     7
100
AcDbCircle
 10
-4.41475248336792
 20
-48.20986938476562
 30
0.0
 40
0.25
100
AcDbArc
 50
224.9999996583774
 51
269.9999974955218
  0
ARC
  5
11A
330
1F
100
AcDbEntity
  8
VIEW0002
  6
Continuous
 62
     7
100
AcDbCircle
 10
61.21308898925781
 20
-68.997802734375
 30
0.0
 40
1.0
100
AcDbArc
 50
269.9999974955218
 51
359.0000000077464
  0
ARC
  5
11B
330
1F
100
AcDbEntity
  8
VIEW0002
  6
Continuous
 62
     7
100
AcDbCircle
 10
61.91477584838867
 20
-57.44780731201172
 30
0.0
 40
0.5
100
AcDbArc
 50
359.0000000077464
 51
90.00000250447816
  0
ARC
  5
11C
330
1F
100
AcDbEntity
  8
VIEW0002
  6
Continuous
 62
     7
100
AcDbCircle
 10
12.90750217437744
 20
59.67000579833984
 30
0.0
 40
1.5
100
AcDbArc
 50
90.00000250447816
 51
180.0000050089563
  0
ARC
  5
11D
330
1F
100
AcDbEntity
  8
VIEW0002
  6
Continuous
 62
     7
100
AcDbCircle
 10
66.90800476074219
 20
18.45959281921387
 30
0.0
 40
2.5
100
AcDbArc
 50
270.9999986617142
 51
280.4165004326549
  0
ARC
  5
11E
330
1F
100
AcDbEntity
  8
VIEW0002
  6
Continuous
 62
     7
100
AcDbCircle
 10
69.40750885009766
 20
74.4191665649414
 30
0.0
 40
0.25
100
AcDbArc
 50
0.0
 51
79.58349956734516
  0
ARC
  5
11F
330
1F
100
AcDbEntity
  8
VIEW0002
  6
Continuous
 62
     7
100
AcDbCircle
 10
66.90800476074219
 20
72.59095001220703
 30
0.0
 40
2.5
100
AcDbArc
 50
79.58349956734516
 51
89.00000133828577
  0
ARC
  5
120
330
1F
100
AcDbEntity
  8
VIEW0002
  6
Continuous
 62
     7
100
AcDbCircle
 10
69.40750122070312
 20
16.63138008117676
 30
0.0
 40
0.25
100
AcDbArc
 50
280.4165004326549
 51
0.0
  0
ARC
  5
121
330
1F
100
AcDbEntity
  8
VIEW0002
  6
Continuous
 62
     7
100
AcDbCircle
 10
68.65750885009766
 20
45.48980712890625
 30
0.0
 40
1.0
100
AcDbArc
 50
281.3099301572275
 51
0.000002504478065
  0
ARC
  5
122
330
1F
100
AcDbEntity
  8
VIEW0002
  6
Continuous
 62
     7
100
AcDbCircle
 10
63.59601974487305
 20
12.51702690124512
 30
0.0
 40
2.5
100
AcDbArc
 50
90.00000250447816
 51
135.0000003416227
  0
ARC
  5
123
330
1F
100
AcDbEntity
  8
VIEW0002
  6
Continuous
 62
     7
100
AcDbCircle
 10
68.65750122070312
 20
31.85019683837891
 30
0.0
 40
1.0
100
AcDbArc
 50
0.000002504478065
 51
78.69006984277247
  0
ARC
  5
124
330
1F
100
AcDbEntity
  8
VIEW0002
  6
Continuous
 62
     7
100
AcDbCircle
 10
63.59304428100586
 20
13.67000007629395
 30
0.0
 40
2.5
100
AcDbArc
 50
90.00000250447816
 51
135.0000003416227
  0
ARC
  5
125
330
1F
100
AcDbEntity
  8
VIEW0002
  6
Continuous
 62
     7
100
AcDbCircle
 10
68.15750885009766
 20
79.06999969482422
 30
0.0
 40
1.5
100
AcDbArc
 50
359.9999947836265
 51
89.999995674289
  0
ARC
  5
126
330
1F
100
AcDbEntity
  8
VIEW0002
  6
Continuous
 62
     7
100
AcDbCircle
 10
-44.34053421020508
 20
26.31645202636719
 30
0.0
 40
51.15000152587891
100
AcDbArc
 50
96.38277330272007
 51
122.2003077992888
  0
ARC
  5
127
330
1F
100
AcDbEntity
  8
VIEW0002
  6
Continuous
 62
     7
100
AcDbCircle
 10
-77.41451263427734
 20
67.67000579833984
 30
0.0
 40
5.349999904632568
100
AcDbArc
 50
269.9999974955218
 51
0.000002504477658
  0
ARC
  5
128
330
1F
100
AcDbEntity
  8
VIEW0002
  6
Continuous
 62
     7
100
AcDbCircle
 10
-42.60235977172852
 20
70.32000732421875
 30
0.0
 40
12.75
100
AcDbArc
 50
60.26545697174466
 51
90.00000250447816
  0
ARC
  5
129
330
1F
100
AcDbEntity
  8
VIEW0002
  6
Continuous
 62
     7
100
AcDbCircle
 10
58.90750885009766
 20
8.984464645385742
 30
0.0
 40
2.5
100
AcDbArc
 50
135.0000003416227
 51
180.0000050089563
  0
ARC
  5
12A
330
1F
100
AcDbEntity
  8
VIEW0002
  6
Continuous
 62
     7
100
AcDbCircle
 10
57.17357635498047
 20
-57.94780731201172
 30
0.0
 40
1.149999976158142
100
AcDbArc
 50
179.999991348578
 51
270.0000006832453
  0
ARC
  5
12B
330
1F
100
AcDbEntity
  8
VIEW0002
  6
Continuous
 62
     7
100
AcDbCircle
 10
-3.092494249343872
 20
-54.53565216064453
 30
0.0
 40
6.25
100
AcDbArc
 50
121.0566544448268
 51
262.3107922816984
  0
ARC
  5
12C
330
1F
100
AcDbEntity
  8
VIEW0002
  6
Continuous
 62
     7
100
AcDbCircle
 10
-3.092494249343872
 20
-54.53565216064453
 30
0.0
 40
7.400000095367432
100
AcDbArc
 50
179.999991348578
 51
256.9464983113538
  0
ARC
  5
12D
330
1F
100
AcDbEntity
  8
VIEW0002
  6
Continuous
 62
     7
100
AcDbCircle
 10
-4.82033109664917
 20
-61.98797225952148
 30
0.0
 40
0.25
100
AcDbArc
 50
6.382774640223303
 51
76.94650013258664
  0
ARC
  5
12E
330
1F
100
AcDbEntity
  8
VIEW0002
  6
Continuous
 62
     7
100
AcDbCircle
 10
13.47634601593018
 20
-89.0228042602539
 30
0.0
 40
1.25
100
AcDbArc
 50
182.1720634489994
 51
269.9999974955218
  0
ARC
  5
12F
330
1F
100
AcDbEntity
  8
VIEW0002
  6
Continuous
 62
     7
100
AcDbCircle
 10
8.363957405090332
 20
-81.22785186767578
 30
0.0
 40
1.5
100
AcDbArc
 50
205.365951530637
 51
246.9417979519357
  0
ARC
  5
130
330
1F
100
AcDbEntity
  8
VIEW0002
  6
Continuous
 62
     7
100
AcDbCircle
 10
3.094242811203003
 20
-74.19780731201172
 30
0.0
 40
0.25
100
AcDbArc
 50
25.36595312449877
 51
90.00000250447816
  0
ARC
  5
131
330
1F
100
AcDbEntity
  8
VIEW0002
  6
Continuous
 62
     7
100
AcDbCircle
 10
0.889710187911987
 20
-73.19780731201172
 30
0.0
 40
0.75
100
AcDbArc
 50
200.4560290646383
 51
269.9999974955218
  0
ARC
  5
132
330
1F
100
AcDbEntity
  8
VIEW0002
  6
Continuous
 62
     7
100
AcDbCircle
 10
-7.165938854217529
 20
79.74344635009766
 30
0.0
 40
1.5
100
AcDbArc
 50
89.999995674289
 51
180.0000050089563
  0
ARC
  5
133
330
1F
100
AcDbEntity
  8
VIEW0002
  6
Continuous
 62
     7
100
AcDbCircle
 10
60.06047821044922
 20
8.98149299621582
 30
0.0
 40
2.5
100
AcDbArc
 50
135.0000003416227
 51
180.0000050089563
  0
ARC
  5
134
330
1F
100
AcDbEntity
  8
VIEW0002
  6
Continuous
 62
     7
100
AcDbCircle
 10
-6.492496013641357
 20
4.420000076293945
 30
0.0
 40
1.5
100
AcDbArc
 50
179.999991348578
 51
270.0000006832453
  0
ARC
  5
135
330
1F
100
AcDbEntity
  8
VIEW0002
  6
Continuous
 62
     7
100
AcDbCircle
 10
53.56061553955078
 20
-88.0978012084961
 30
0.0
 40
4.150000095367432
100
AcDbArc
 50
269.9999974955218
 51
356.9999999165174
  0
ARC
  5
136
330
1F
100
AcDbEntity
  8
VIEW0002
  6
Continuous
 62
     7
100
AcDbCircle
 10
2.257504224777222
 20
-54.53565216064453
 30
0.0
 40
12.75
100
AcDbArc
 50
150.2654594762228
 51
180.0000050089563
  0
ARC
  5
137
330
1F
100
AcDbEntity
  8
VIEW0002
  6
Continuous
 62
     7
100
AcDbCircle
 10
-8.379569053649902
 20
-48.45986938476562
 30
0.0
 40
0.5
100
AcDbArc
 50
90.00000250447816
 51
150.2654594762228
  0
ARC
  5
138
330
1F
100
AcDbEntity
  8
VIEW0002
  6
Continuous
 62
     7
100
AcDbCircle
 10
-3.594653367996216
 20
-49.60987091064453
 30
0.0
 40
1.149999976158142
100
AcDbArc
 50
0.0
 51
90.00000250447816
  0
ARC
  5
139
330
1F
100
AcDbEntity
  8
VIEW0002
  6
Continuous
 62
     7
100
AcDbCircle
 10
-3.44465184211731
 20
-49.60987091064453
 30
0.0
 40
1.0
100
AcDbArc
 50
269.9999974955218
 51
0.0
  0
ARC
  5
13A
330
1F
100
AcDbEntity
  8
VIEW0002
  6
Continuous
 62
     7
100
AcDbCircle
 10
53.252197265625
 20
-87.7728042602539
 30
0.0
 40
2.5
100
AcDbArc
 50
269.9999974955218
 51
356.9999999165174
  0
ARC
  5
13B
330
1F
100
AcDbEntity
  8
VIEW0002
  6
Continuous
 62
     7
100
AcDbCircle
 10
58.04806518554688
 20
-69.3478012084961
 30
0.0
 40
0.5
100
AcDbArc
 50
90.00000250447816
 51
176.99999468019
  0
ARC
  5
13C
330
1F
100
AcDbEntity
  8
VIEW0002
  6
Continuous
 62
     7
100
AcDbCircle
 10
39.40750122070312
 20
-89.7728042602539
 30
0.0
 40
0.5
100
AcDbArc
 50
179.999991348578
 51
270.0000006832453
  0
ARC
  5
13D
330
1F
100
AcDbEntity
  8
VIEW0002
  6
Continuous
 62
     7
100
AcDbCircle
 10
28.40750122070312
 20
-89.7728042602539
 30
0.0
 40
0.5
100
AcDbArc
 50
269.9999974955218
 51
0.0
  0
ARC
  5
13E
330
1F
100
AcDbEntity
  8
VIEW0002
  6
Continuous
 62
     7
100
AcDbCircle
 10
38.40750122070312
 20
-89.7728042602539
 30
0.0
 40
0.5
100
AcDbArc
 50
269.9999974955218
 51
0.0
  0
ARC
  5
13F
330
1F
100
AcDbEntity
  8
VIEW0002
  6
Continuous
 62
     7
100
AcDbCircle
 10
3.094246625900269
 20
-74.19780731201172
 30
0.0
 40
1.25
100
AcDbArc
 50
25.36595312449877
 51
90.00000250447816
  0
ARC
  5
140
330
1F
100
AcDbEntity
  8
VIEW0002
  6
Continuous
 62
     7
100
AcDbCircle
 10
29.40750122070312
 20
-89.7728042602539
 30
0.0
 40
0.5
100
AcDbArc
 50
179.999991348578
 51
270.0000006832453
  0
ARC
  5
141
330
1F
100
AcDbEntity
  8
VIEW0002
  6
Continuous
 62
     7
100
AcDbCircle
 10
8.363961219787598
 20
-81.22785186767578
 30
0.0
 40
0.5
100
AcDbArc
 50
205.365951530637
 51
246.9417842915574
  0
ARC
  5
142
330
1F
100
AcDbEntity
  8
VIEW0002
  6
Continuous
 62
     7
100
AcDbCircle
 10
53.56061553955078
 20
-88.0978012084961
 30
0.0
 40
3.0
100
AcDbArc
 50
269.9999974955218
 51
356.9999999165174
  0
ARC
  5
143
330
1F
100
AcDbEntity
  8
VIEW0002
  6
Continuous
 62
     7
100
AcDbCircle
 10
60.92357635498047
 20
-68.5978012084961
 30
0.0
 40
0.25
100
AcDbArc
 50
269.9999974955218
 51
0.0
  0
ARC
  5
144
330
1F
100
AcDbEntity
  8
VIEW0002
  6
Continuous
 62
     7
100
AcDbCircle
 10
68.15750122070312
 20
12.89267539978027
 30
0.0
 40
1.5
100
AcDbArc
 50
269.9999974955218
 51
359.9999999999998
  0
ARC
  5
145
330
1F
100
AcDbEntity
  8
VIEW0002
  6
Continuous
 62
     7
100
AcDbCircle
 10
59.68482971191406
 20
4.420000076293945
 30
0.0
 40
1.5
100
AcDbArc
 50
269.9999974955218
 51
0.0
  0
ARC
  5
146
330
1F
100
AcDbEntity
  8
VIEW0002
  6
Continuous
 62
     7
100
AcDbCircle
 10
-71.06451416015625
 20
68.75289916992188
 30
0.0
 40
1.0
100
AcDbArc
 50
122.2003077992888
 51
180.0000050089563
  0
ARC
  5
147
330
1F
100
AcDbEntity
  8
VIEW0002
  6
Continuous
 62
     7
100
AcDbCircle
 10
-50.05467987060547
 20
77.39784240722656
 30
0.0
 40
0.25
100
AcDbArc
 50
276.3827751239529
 51
346.9464677460309
  0
ARC
  5
148
330
1F
100
AcDbEntity
  8
VIEW0002
  6
Continuous
 62
     7
100
AcDbCircle
 10
57.02357482910156
 20
-57.94780731201172
 30
0.0
 40
1.0
100
AcDbArc
 50
90.00000250447816
 51
180.0000050089563
  0
ARC
  5
149
330
1F
100
AcDbEntity
  8
VIEW0002
  6
Continuous
 62
     7
100
AcDbCircle
 10
53.56061553955078
 20
-88.0978012084961
 30
0.0
 40
9.062267303466797
100
AcDbArc
 50
332.7455490888642
 51
356.9999999165174
  0
ARC
  5
14A
330
1F
100
AcDbEntity
  8
VIEW0002
  6
Continuous
 62
     7
100
AcDbCircle
 10
-6.058835274436644
 20
-49.60987091064453
 30
0.0
 40
0.5
100
AcDbArc
 50
90.00000000000001
 51
121.0566544448267
  0
DIMENSION
  5
14B
330
1F
100
AcDbEntity
  8
VIEW0002
 62
     7
100
AcDbDimension
  2
*D2
 10
-20.49149649047851
 20
83.07000732421875
 30
0.0
 11
-20.49149649047851
 21
36.74600656127929
 31
0.0
 70
   160
  1
185
 71
     5
 42
92.65000438690186
  3
ISO-25
100
AcDbAlignedDimension
 13
-10.4924955368042
 23
-9.579997062683105
 33
0.0
 14
-9.9924955368042
 24
83.07000732421875
 34
0.0
 50
270.0
100
AcDbRotatedDimension
1001
ACAD
1000
DSTYLE
1002
{
1070
   178
1070
     1
1070
   278
1070
    46
1070
   147
1040
0.800000011920929
1070
    77
1070
     1
1070
    74
1070
     0
1070
    73
1070
     0
1070
    42
1040
2.54
1070
    44
1040
1.0
1070
    76
1070
     0
1070
    75
1070
     0
1070
   279
1070
     0
1070
   271
1070
     0
1070
   173
1070
     1
1070
    41
1040
3.0
1070
   140
1040
3.200000047683716
1070
   344
1005
14C
1070
   343
1005
14C
1002
}
  0
DIMENSION
  5
15F
330
1F
100
AcDbEntity
  8
VIEW0002
 62
     7
100
AcDbDimension
  2
*D3
 10
82.15750122070312
 20
93.07000732421875
 30
0.0
 11
35.83350427246094
 21
93.07000732421875
 31
0.0
 70
   160
  1
185
 71
     5
 42
92.64999675750732
  3
ISO-25
100
AcDbAlignedDimension
 13
-10.4924955368042
 23
82.57000732421875
 33
0.0
 14
82.15750122070312
 24
83.07000732421875
 34
0.0
 50
180.0
100
AcDbRotatedDimension
1001
ACAD
1000
DSTYLE
1002
{
1070
   178
1070
     1
1070
   278
1070
    46
1070
   147
1040
0.800000011920929
1070
    77
1070
     1
1070
    74
1070
     0
1070
    73
1070
     0
1070
    42
1040
2.54
1070
    44
1040
1.0
1070
    76
1070
     0
1070
    75
1070
     0
1070
   279
1070
     0
1070
   271
1070
     0
1070
   173
1070
     1
1070
    41
1040
3.0
1070
   140
1040
3.200000047683716
1070
   344
1005
14C
1070
   343
1005
14C
1002
}
  0
DIMENSION
  5
16C
330
1F
100
AcDbEntity
  8
VIEW0002
 62
     7
100
AcDbDimension
  2
*D4
 10
31.40950122070313
 20
-9.579997062683105
 30
0.0
 11
31.40950122070313
 21
-0.828999029636383
 31
0.0
 70
   161
  1
35
 71
     5
 42
17.49999713897705
  3
ISO-25
100
AcDbAlignedDimension
 13
41.40750122070312
 23
7.920000076293945
 33
0.0
 14
41.40750122070312
 24
-9.579997062683105
 34
0.0
1001
ACAD
1000
DSTYLE
1002
{
1070
   178
1070
     1
1070
   278
1070
    46
1070
   147
1040
0.800000011920929
1070
    77
1070
     1
1070
    74
1070
     0
1070
    73
1070
     0
1070
    42
1040
2.54
1070
    44
1040
0.0
1070
    76
1070
     1
1070
    75
1070
     1
1070
   279
1070
     0
1070
   271
1070
     0
1070
   173
1070
     1
1070
    41
1040
3.0
1070
   140
1040
3.200000047683716
1070
   344
1005
14C
1070
   343
1005
14C
1002
}
  0
DIMENSION
  5
177
330
1F
100
AcDbEntity
  8
VIEW0002
 62
     7
100
AcDbDimension
  2
*D5
 10
82.15750122070328
 20
41.17100198364255
 30
0.0
 11
73.40850122070313
 21
41.17100198364258
 31
0.0
 70
   161
  1
35
 71
     5
 42
17.5
  3
ISO-25
100
AcDbAlignedDimension
 13
64.65750122070332
 23
51.17000198364234
 33
0.0
 14
82.15750122070332
 24
51.17000198364228
 34
0.0
1001
ACAD
1000
DSTYLE
1002
{
1070
   178
1070
     1
1070
   278
1070
    46
1070
   147
1040
0.800000011920929
1070
    77
1070
     1
1070
    74
1070
     0
1070
    73
1070
     0
1070
    42
1040
2.54
1070
    44
1040
0.0
1070
    76
1070
     1
1070
    75
1070
     1
1070
   279
1070
     0
1070
   271
1070
     0
1070
   173
1070
     1
1070
    41
1040
3.0
1070
   140
1040
3.200000047683716
1070
   344
1005
14C
1070
   343
1005
14C
1002
}
  0
DIMENSION
  5
183
330
1F
100
AcDbEntity
  8
VIEW0002
 62
     7
100
AcDbDimension
  2
*D6
 10
56.40750885009766
 20
-102.246802734375
 30
0.0
 11
33.90850503540039
 21
-102.246802734375
 31
0.0
 70
   160
  1
90
 71
     5
 42
45.00001049041748
  3
ISO-25
100
AcDbAlignedDimension
 13
11.40749835968018
 23
-91.0978012084961
 33
0.0
 14
56.40750885009766
 24
-91.0978012084961
 34
0.0
 50
180.0
100
AcDbRotatedDimension
1001
ACAD
1000
DSTYLE
1002
{
1070
   178
1070
     1
1070
   278
1070
    46
1070
   147
1040
0.800000011920929
1070
    77
1070
     1
1070
    74
1070
     0
1070
    73
1070
     0
1070
    42
1040
2.54
1070
    44
1040
1.0
1070
    76
1070
     0
1070
    75
1070
     0
1070
   279
1070
     0
1070
   271
1070
     0
1070
   173
1070
     1
1070
    41
1040
3.0
1070
   140
1040
3.200000047683716
1070
   344
1005
14C
1070
   343
1005
14C
1002
}
  0
DIMENSION
  5
190
330
1F
100
AcDbEntity
  8
VIEW0002
 62
     7
100
AcDbDimension
  2
*D7
 10
92.15750122070312
 20
-58.09780502319336
 30
0.0
 11
92.15750122070312
 21
-74.59680120849609
 31
0.0
 70
   160
  1
66
 71
     5
 42
32.99999618530273
  3
ISO-25
100
AcDbAlignedDimension
 13
56.40750885009766
 23
-91.0978012084961
 33
0.0
 14
60.92358016967773
 24
-58.09780502319336
 34
0.0
 50
270.0
100
AcDbRotatedDimension
1001
ACAD
1000
DSTYLE
1002
{
1070
   178
1070
     1
1070
   278
1070
    46
1070
   147
1040
0.800000011920929
1070
    77
1070
     1
1070
    74
1070
     0
1070
    73
1070
     0
1070
    42
1040
2.54
1070
    44
1040
1.0
1070
    76
1070
     0
1070
    75
1070
     0
1070
   279
1070
     0
1070
   271
1070
     0
1070
   173
1070
     1
1070
    41
1040
3.0
1070
   140
1040
3.200000047683716
1070
   344
1005
14C
1070
   343
1005
14C
1002
}
  0
DIMENSION
  5
19D
330
1F
100
AcDbEntity
  8
VIEW0002
 62
     7
100
AcDbDimension
  2
*D8
 10
-20.49049458312987
 20
-91.09780120849612
 30
0.0
 11
-20.49049458312988
 21
-70.10283605957031
 31
0.0
 70
   160
  1
84
 71
     5
 42
41.98793029785157
  3
ISO-25
100
AcDbAlignedDimension
 13
-6.194654436559942
 23
-49.10987091064453
 33
0.0
 14
11.40749835968018
 24
-91.0978012084961
 34
0.0
 50
90.00000000000001
100
AcDbRotatedDimension
1001
ACAD
1000
DSTYLE
1002
{
1070
   178
1070
     1
1070
   278
1070
    46
1070
   147
1040
0.800000011920929
1070
    77
1070
     1
1070
    74
1070
     0
1070
    73
1070
     0
1070
    42
1040
2.54
1070
    44
1040
1.0
1070
    76
1070
     0
1070
    75
1070
     0
1070
   279
1070
     0
1070
   271
1070
     0
1070
   173
1070
     1
1070
    41
1040
3.0
1070
   140
1040
3.200000047683716
1070
   344
1005
14C
1070
   343
1005
14C
1002
}
  0
ENDSEC
  0
SECTION
  2
OBJECTS
  0
DICTIONARY
  5
C
330
0
100
AcDbDictionary
281
     1
  3
ACAD_GROUP
350
D
  3
ACAD_LAYOUT
350
1A
  3
ACAD_MATERIAL
350
3B
  3
ACAD_MLEADERSTYLE
350
1D1
  3
ACAD_MLINESTYLE
350
17
  3
ACAD_PLOTSETTINGS
350
19
  3
ACAD_PLOTSTYLENAME
350
E
  3
ACAD_TABLESTYLE
350
1D0
  3
ACAD_VISUALSTYLE
350
2A
  0
DICTIONARY
  5
D
102
{ACAD_REACTORS
330
C
102
}
330
C
100
AcDbDictionary
281
     1
  0
DICTIONARY
  5
1A
102
{ACAD_REACTORS
330
C
102
}
330
C
100
AcDbDictionary
281
     1
  3
Layout1
350
1E
  3
Layout2
350
26
  3
Model
350
22
  0
DICTIONARY
  5
3B
102
{ACAD_REACTORS
330
C
102
}
330
C
100
AcDbDictionary
281
     1
  3
ByBlock
350
3D
  3
ByLayer
350
3C
  3
Global
350
3E
  0
DICTIONARY
  5
1D1
102
{ACAD_REACTORS
330
C
102
}
330
C
100
AcDbDictionary
281
     1
  0
DICTIONARY
  5
17
102
{ACAD_REACTORS
330
C
102
}
330
C
100
AcDbDictionary
281
     1
  3
Standard
350
18
  0
DICTIONARY
  5
19
102
{ACAD_REACTORS
330
C
102
}
330
C
100
AcDbDictionary
281
     1
  0
ACDBDICTIONARYWDFLT
  5
E
102
{ACAD_REACTORS
330
C
102
}
330
C
100
AcDbDictionary
281
     1
  3
Normal
350
F
100
AcDbDictionaryWithDefault
340
F
  0
DICTIONARY
  5
1D0
102
{ACAD_REACTORS
330
C
102
}
330
C
100
AcDbDictionary
281
     1
  0
DICTIONARY
  5
2A
102
{ACAD_REACTORS
330
C
102
}
330
C
100
AcDbDictionary
281
     1
  3
2dWireframe
350
2F
  3
3D Hidden
350
31
  3
3dWireframe
350
30
  3
Basic
350
32
  3
Brighten
350
36
  3
ColorChange
350
3A
  3
Conceptual
350
34
  3
Dim
350
35
  3
Facepattern
350
39
  3
Flat
350
2B
  3
FlatWithEdges
350
2C
  3
Gouraud
350
2D
  3
GouraudWithEdges
350
2E
  3
Linepattern
350
38
  3
Realistic
350
33
  3
Thicken
350
37
  0
LAYOUT
  5
1E
102
{ACAD_REACTORS
330
1A
102
}
330
1A
100
AcDbPlotSettings
  1

  2
none_device
  4

  6

 40
0.0
 41
0.0
 42
0.0
 43
0.0
 44
0.0
 45
0.0
 46
0.0
 47
0.0
 48
0.0
 49
0.0
140
0.0
141
0.0
142
1.0
143
1.0
 70
   688
 72
     0
 73
     0
 74
     5
  7

 75
    16
 76
     0
 77
     2
 78
   300
147
1.0
148
0.0
149
0.0
100
AcDbLayout
  1
Layout1
 70
     1
 71
     1
 10
-105.0
 20
-148.5
 11
105.0
 21
148.5
 12
0.0
 22
0.0
 32
0.0
 14
1.000000000000000E+20
 24
1.000000000000000E+20
 34
1.000000000000000E+20
 15
-1.000000000000000E+20
 25
-1.000000000000000E+20
 35
-1.000000000000000E+20
146
0.0
 13
0.0
 23
0.0
 33
0.0
 16
1.0
 26
0.0
 36
0.0
 17
0.0
 27
1.0
 37
0.0
 76
     0
330
1B
  0
LAYOUT
  5
26
102
{ACAD_REACTORS
330
1A
102
}
330
1A
100
AcDbPlotSettings
  1

  2
none_device
  4

  6

 40
0.0
 41
0.0
 42
0.0
 43
0.0
 44
0.0
 45
0.0
 46
0.0
 47
0.0
 48
0.0
 49
0.0
140
0.0
141
0.0
142
1.0
143
1.0
 70
   688
 72
     0
 73
     0
 74
     5
  7

 75
    16
 76
     0
 77
     2
 78
   300
147
1.0
148
0.0
149
0.0
100
AcDbLayout
  1
Layout2
 70
     1
 71
     2
 10
0.0
 20
0.0
 11
0.0
 21
0.0
 12
0.0
 22
0.0
 32
0.0
 14
0.0
 24
0.0
 34
0.0
 15
0.0
 25
0.0
 35
0.0
146
0.0
 13
0.0
 23
0.0
 33
0.0
 16
1.0
 26
0.0
 36
0.0
 17
0.0
 27
1.0
 37
0.0
 76
     0
330
23
  0
LAYOUT
  5
22
102
{ACAD_REACTORS
330
1A
102
}
330
1A
100
AcDbPlotSettings
  1

  2
none_device
  4

  6

 40
0.0
 41
0.0
 42
0.0
 43
0.0
 44
0.0
 45
0.0
 46
0.0
 47
0.0
 48
0.0
 49
0.0
140
0.0
141
0.0
142
1.0
143
1.0
 70
  1712
 72
     0
 73
     0
 74
     0
  7

 75
     0
 76
     0
 77
     2
 78
   300
147
1.0
148
0.0
149
0.0
100
AcDbLayout
  1
Model
 70
     1
 71
     0
 10
-105.0
 20
-148.5
 11
105.0
 21
148.5
 12
0.0
 22
0.0
 32
0.0
 14
-105.0
 24
-148.5
 34
0.0
 15
105.0
 25
148.5
 35
0.0
146
0.0
 13
0.0
 23
0.0
 33
0.0
 16
1.0
 26
0.0
 36
0.0
 17
0.0
 27
1.0
 37
0.0
 76
     0
330
1F
331
29
  0
MATERIAL
  5
3D
102
{ACAD_REACTORS
330
3B
102
}
102
{ACAD_XDICTIONARY
360
1CC
102
}
330
3B
100
AcDbMaterial
  1
ByBlock
  0
MATERIAL
  5
3C
102
{ACAD_REACTORS
330
3B
102
}
102
{ACAD_XDICTIONARY
360
1CA
102
}
330
3B
100
AcDbMaterial
  1
ByLayer
  0
MATERIAL
  5
3E
102
{ACAD_REACTORS
330
3B
102
}
102
{ACAD_XDICTIONARY
360
1CE
102
}
330
3B
100
AcDbMaterial
  1
Global
  0
MLINESTYLE
  5
18
102
{ACAD_REACTORS
330
17
102
}
330
17
100
AcDbMlineStyle
  2
Standard
 70
     0
  3

 62
   256
 51
90.0
 52
90.0
 71
     2
 49
0.5
 62
   256
  6
BYLAYER
 49
-0.5
 62
   256
  6
BYLAYER
  0
ACDBPLACEHOLDER
  5
F
102
{ACAD_REACTORS
330
E
102
}
330
E
  0
VISUALSTYLE
  5
2F
102
{ACAD_REACTORS
330
2A
102
}
102
{ACAD_XDICTIONARY
360
1B2
102
}
330
2A
100
AcDbVisualStyle
  2
2dWireframe
 70
     4
 71
     0
 72
     2
 73
     0
 90
        0
 40
-0.6
 41
-30.0
 62
     5
 63
     7
421
 16777215
 74
     1
 91
        4
 64
     7
 65
   257
 75
     1
175
     1
 42
1.0
 92
        0
 66
   257
 43
1.0
 76
     1
 77
     6
 78
     2
 67
     7
 79
     5
170
     0
171
     0
290
     0
174
     0
 93
        1
 44
0.0
173
     0
291
     0
 45
0.0
1001
ACAD
1000
AcDbSavedByObjectVersion
1070
     0
  0
VISUALSTYLE
  5
31
102
{ACAD_REACTORS
330
2A
102
}
102
{ACAD_XDICTIONARY
360
1B6
102
}
330
2A
100
AcDbVisualStyle
  2
3D Hidden
 70
     6
 71
     1
 72
     2
 73
     2
 90
        0
 40
-0.6
 41
-30.0
 62
     5
 63
     7
421
 16777215
 74
     2
 91
        2
 64
     7
 65
   257
 75
     2
175
     1
 42
40.0
 92
        0
 66
   257
 43
1.0
 76
     1
 77
     6
 78
     2
 67
     7
 79
     3
170
     0
171
     0
290
     0
174
     0
 93
        1
 44
0.0
173
     0
291
     0
 45
0.0
1001
ACAD
1000
AcDbSavedByObjectVersion
1070
     0
  0
VISUALSTYLE
  5
30
102
{ACAD_REACTORS
330
2A
102
}
102
{ACAD_XDICTIONARY
360
1B4
102
}
330
2A
100
AcDbVisualStyle
  2
3dWireframe
 70
     5
 71
     0
 72
     2
 73
     0
 90
        0
 40
-0.6
 41
-30.0
 62
     5
 63
     7
421
 16777215
 74
     1
 91
        4
 64
     7
 65
   257
 75
     1
175
     1
 42
1.0
 92
        0
 66
   257
 43
1.0
 76
     1
 77
     6
 78
     2
 67
     7
 79
     5
170
     0
171
     0
290
     0
174
     0
 93
        1
 44
0.0
173
     0
291
     0
 45
0.0
1001
ACAD
1000
AcDbSavedByObjectVersion
1070
     0
  0
VISUALSTYLE
  5
32
102
{ACAD_REACTORS
330
2A
102
}
102
{ACAD_XDICTIONARY
360
1B8
102
}
330
2A
100
AcDbVisualStyle
  2
Basic
 70
     7
 71
     1
 72
     0
 73
     1
 90
        0
 40
-0.6
 41
-30.0
 62
     5
 63
     7
421
 16777215
 74
     0
 91
        4
 64
     7
 65
   257
 75
     1
175
     1
 42
1.0
 92
        8
 66
     7
 43
1.0
 76
     1
 77
     6
 78
     2
 67
     7
 79
     5
170
     0
171
     0
290
     0
174
     0
 93
        1
 44
0.0
173
     0
291
     1
 45
0.0
1001
ACAD
1000
AcDbSavedByObjectVersion
1070
     0
  0
VISUALSTYLE
  5
36
102
{ACAD_REACTORS
330
2A
102
}
102
{ACAD_XDICTIONARY
360
1C0
102
}
330
2A
100
AcDbVisualStyle
  2
Brighten
 70
    12
 71
     2
 72
     2
 73
     0
 90
        0
 40
-0.6
 41
-30.0
 62
     5
 63
     7
421
 16777215
 74
     1
 91
        4
 64
     7
 65
   257
 75
     1
175
     1
 42
1.0
 92
        8
 66
     7
 43
1.0
 76
     1
 77
     6
 78
     2
 67
     7
 79
     5
170
     0
171
     0
290
     0
174
     0
 93
        1
 44
50.0
173
     0
291
     1
 45
0.0
1001
ACAD
1000
AcDbSavedByObjectVersion
1070
     0
  0
VISUALSTYLE
  5
3A
102
{ACAD_REACTORS
330
2A
102
}
102
{ACAD_XDICTIONARY
360
1C8
102
}
330
2A
100
AcDbVisualStyle
  2
ColorChange
 70
    16
 71
     2
 72
     2
 73
     3
 90
        0
 40
-0.6
 41
-30.0
 62
     5
 63
     8
421
  8421504
 74
     1
 91
        4
 64
     7
 65
   257
 75
     1
175
     1
 42
1.0
 92
        8
 66
     8
424
  8421504
 43
1.0
 76
     1
 77
     6
 78
     2
 67
     7
 79
     5
170
     0
171
     0
290
     0
174
     0
 93
        1
 44
0.0
173
     0
291
     1
 45
0.0
1001
ACAD
1000
AcDbSavedByObjectVersion
1070
     0
  0
VISUALSTYLE
  5
34
102
{ACAD_REACTORS
330
2A
102
}
102
{ACAD_XDICTIONARY
360
1BC
102
}
330
2A
100
AcDbVisualStyle
  2
Conceptual
 70
     9
 71
     3
 72
     2
 73
     0
 90
        0
 40
-0.6
 41
-30.0
 62
     5
 63
     7
421
 16777215
 74
     2
 91
        2
 64
     7
 65
   257
 75
     1
175
     1
 42
40.0
 92
        8
 66
     7
 43
1.0
 76
     1
 77
     6
 78
     2
 67
     7
 79
     3
170
     0
171
     0
290
     0
174
     0
 93
        1
 44
0.0
173
     0
291
     0
 45
0.0
1001
ACAD
1000
AcDbSavedByObjectVersion
1070
     0
  0
VISUALSTYLE
  5
35
102
{ACAD_REACTORS
330
2A
102
}
102
{ACAD_XDICTIONARY
360
1BE
102
}
330
2A
100
AcDbVisualStyle
  2
Dim
 70
    11
 71
     2
 72
     2
 73
     0
 90
        0
 40
-0.6
 41
-30.0
 62
     5
 63
     7
421
 16777215
 74
     1
 91
        4
 64
     7
 65
   257
 75
     1
175
     1
 42
1.0
 92
        8
 66
     7
 43
1.0
 76
     1
 77
     6
 78
     2
 67
     7
 79
     5
170
     0
171
     0
290
     0
174
     0
 93
        1
 44
-50.0
173
     0
291
     1
 45
0.0
1001
ACAD
1000
AcDbSavedByObjectVersion
1070
     0
  0
VISUALSTYLE
  5
39
102
{ACAD_REACTORS
330
2A
102
}
102
{ACAD_XDICTIONARY
360
1C6
102
}
330
2A
100
AcDbVisualStyle
  2
Facepattern
 70
    15
 71
     2
 72
     2
 73
     0
 90
        0
 40
-0.6
 41
-30.0
 62
     5
 63
     7
421
 16777215
 74
     1
 91
        4
 64
     7
 65
   257
 75
     1
175
     1
 42
1.0
 92
        8
 66
     7
 43
1.0
 76
     1
 77
     6
 78
     2
 67
     7
 79
     5
170
     0
171
     0
290
     0
174
     0
 93
        1
 44
0.0
173
     0
291
     1
 45
0.0
1001
ACAD
1000
AcDbSavedByObjectVersion
1070
     0
  0
VISUALSTYLE
  5
2B
102
{ACAD_REACTORS
330
2A
102
}
102
{ACAD_XDICTIONARY
360
1AA
102
}
330
2A
100
AcDbVisualStyle
  2
Flat
 70
     0
 71
     2
 72
     1
 73
     1
 90
        2
 40
-0.6
 41
30.0
 62
     5
 63
     7
421
 16777215
 74
     0
 91
        4
 64
     7
 65
   257
 75
     1
175
     1
 42
1.0
 92
        8
 66
     7
 43
1.0
 76
     1
 77
     6
 78
     2
 67
     7
 79
     5
170
     0
171
     0
290
     0
174
     0
 93
       13
 44
0.0
173
     0
291
     1
 45
0.0
1001
ACAD
1000
AcDbSavedByObjectVersion
1070
     0
  0
VISUALSTYLE
  5
2C
102
{ACAD_REACTORS
330
2A
102
}
102
{ACAD_XDICTIONARY
360
1AC
102
}
330
2A
100
AcDbVisualStyle
  2
FlatWithEdges
 70
     1
 71
     2
 72
     1
 73
     1
 90
        2
 40
-0.6
 41
30.0
 62
     5
 63
     7
421
 16777215
 74
     1
 91
        4
 64
     7
 65
   257
 75
     1
175
     1
 42
1.0
 92
        0
 66
   257
 43
1.0
 76
     1
 77
     6
 78
     2
 67
     7
 79
     5
170
     0
171
     0
290
     0
174
     0
 93
       13
 44
0.0
173
     0
291
     1
 45
0.0
1001
ACAD
1000
AcDbSavedByObjectVersion
1070
     0
  0
VISUALSTYLE
  5
2D
102
{ACAD_REACTORS
330
2A
102
}
102
{ACAD_XDICTIONARY
360
1AE
102
}
330
2A
100
AcDbVisualStyle
  2
Gouraud
 70
     2
 71
     2
 72
     2
 73
     1
 90
        2
 40
-0.6
 41
30.0
 62
     5
 63
     7
421
 16777215
 74
     0
 91
        4
 64
     7
 65
   257
 75
     1
175
     1
 42
1.0
 92
        0
 66
     7
 43
1.0
 76
     1
 77
     6
 78
     2
 67
     7
 79
     5
170
     0
171
     0
290
     0
174
     0
 93
       13
 44
0.0
173
     0
291
     1
 45
0.0
1001
ACAD
1000
AcDbSavedByObjectVersion
1070
     0
  0
VISUALSTYLE
  5
2E
102
{ACAD_REACTORS
330
2A
102
}
102
{ACAD_XDICTIONARY
360
1B0
102
}
330
2A
100
AcDbVisualStyle
  2
GouraudWithEdges
 70
     3
 71
     2
 72
     2
 73
     1
 90
        2
 40
-0.6
 41
30.0
 62
     5
 63
     7
421
 16777215
 74
     1
 91
        4
 64
     7
 65
   257
 75
     1
175
     1
 42
1.0
 92
        0
 66
   257
 43
1.0
 76
     1
 77
     6
 78
     2
 67
     7
 79
     5
170
     0
171
     0
290
     0
174
     0
 93
       13
 44
0.0
173
     0
291
     1
 45
0.0
1001
ACAD
1000
AcDbSavedByObjectVersion
1070
     0
  0
VISUALSTYLE
  5
38
102
{ACAD_REACTORS
330
2A
102
}
102
{ACAD_XDICTIONARY
360
1C4
102
}
330
2A
100
AcDbVisualStyle
  2
Linepattern
 70
    14
 71
     2
 72
     2
 73
     0
 90
        0
 40
-0.6
 41
-30.0
 62
     5
 63
     7
421
 16777215
 74
     1
 91
        4
 64
     7
 65
   257
 75
     7
175
     7
 42
1.0
 92
        8
 66
     7
 43
1.0
 76
     1
 77
     6
 78
     2
 67
     7
 79
     5
170
     0
171
     0
290
     0
174
     0
 93
        1
 44
0.0
173
     0
291
     1
 45
0.0
1001
ACAD
1000
AcDbSavedByObjectVersion
1070
     0
  0
VISUALSTYLE
  5
33
102
{ACAD_REACTORS
330
2A
102
}
102
{ACAD_XDICTIONARY
360
1BA
102
}
330
2A
100
AcDbVisualStyle
  2
Realistic
 70
     8
 71
     2
 72
     2
 73
     0
 90
        0
 40
-0.6
 41
-30.0
 62
     5
 63
     7
421
 16777215
 74
     1
 91
        0
 64
     7
 65
   257
 75
     1
175
     1
 42
1.0
 92
        8
 66
     8
424
  7895160
 43
1.0
 76
     1
 77
     6
 78
     2
 67
     7
 79
     5
170
     0
171
     0
290
     0
174
     0
 93
       13
 44
0.0
173
     0
291
     0
 45
0.0
1001
ACAD
1000
AcDbSavedByObjectVersion
1070
     0
  0
VISUALSTYLE
  5
37
102
{ACAD_REACTORS
330
2A
102
}
102
{ACAD_XDICTIONARY
360
1C2
102
}
330
2A
100
AcDbVisualStyle
  2
Thicken
 70
    13
 71
     2
 72
     2
 73
     0
 90
        0
 40
-0.6
 41
-30.0
 62
     5
 63
     7
421
 16777215
 74
     1
 91
        4
 64
     7
 65
   257
 75
     1
175
     1
 42
1.0
 92
       12
 66
     7
 43
1.0
 76
     1
 77
     6
 78
     2
 67
     7
 79
     5
170
     0
171
     0
290
     0
174
     0
 93
        1
 44
0.0
173
     0
291
     1
 45
0.0
1001
ACAD
1000
AcDbSavedByObjectVersion
1070
     0
  0
DICTIONARY
  5
1CC
330
3D
100
AcDbDictionary
280
     1
281
     1
  3
ACAD_XREC_ROUNDTRIP
360
1CD
  0
DICTIONARY
  5
1CA
330
3C
100
AcDbDictionary
280
     1
281
     1
  3
ACAD_XREC_ROUNDTRIP
360
1CB
  0
DICTIONARY
  5
1CE
330
3E
100
AcDbDictionary
280
     1
281
     1
  3
ACAD_XREC_ROUNDTRIP
360
1CF
  0
DICTIONARY
  5
1B2
330
2F
100
AcDbDictionary
280
     1
281
     1
  3
ACAD_XREC_ROUNDTRIP
360
1B3
  0
DICTIONARY
  5
1B6
330
31
100
AcDbDictionary
280
     1
281
     1
  3
ACAD_XREC_ROUNDTRIP
360
1B7
  0
DICTIONARY
  5
1B4
330
30
100
AcDbDictionary
280
     1
281
     1
  3
ACAD_XREC_ROUNDTRIP
360
1B5
  0
DICTIONARY
  5
1B8
330
32
100
AcDbDictionary
280
     1
281
     1
  3
ACAD_XREC_ROUNDTRIP
360
1B9
  0
DICTIONARY
  5
1C0
330
36
100
AcDbDictionary
280
     1
281
     1
  3
ACAD_XREC_ROUNDTRIP
360
1C1
  0
DICTIONARY
  5
1C8
330
3A
100
AcDbDictionary
280
     1
281
     1
  3
ACAD_XREC_ROUNDTRIP
360
1C9
  0
DICTIONARY
  5
1BC
330
34
100
AcDbDictionary
280
     1
281
     1
  3
ACAD_XREC_ROUNDTRIP
360
1BD
  0
DICTIONARY
  5
1BE
330
35
100
AcDbDictionary
280
     1
281
     1
  3
ACAD_XREC_ROUNDTRIP
360
1BF
  0
DICTIONARY
  5
1C6
330
39
100
AcDbDictionary
280
     1
281
     1
  3
ACAD_XREC_ROUNDTRIP
360
1C7
  0
DICTIONARY
  5
1AA
330
2B
100
AcDbDictionary
280
     1
281
     1
  3
ACAD_XREC_ROUNDTRIP
360
1AB
  0
DICTIONARY
  5
1AC
330
2C
100
AcDbDictionary
280
     1
281
     1
  3
ACAD_XREC_ROUNDTRIP
360
1AD
  0
DICTIONARY
  5
1AE
330
2D
100
AcDbDictionary
280
     1
281
     1
  3
ACAD_XREC_ROUNDTRIP
360
1AF
  0
DICTIONARY
  5
1B0
330
2E
100
AcDbDictionary
280
     1
281
     1
  3
ACAD_XREC_ROUNDTRIP
360
1B1
  0
DICTIONARY
  5
1C4
330
38
100
AcDbDictionary
280
     1
281
     1
  3
ACAD_XREC_ROUNDTRIP
360
1C5
  0
DICTIONARY
  5
1BA
330
33
100
AcDbDictionary
280
     1
281
     1
  3
ACAD_XREC_ROUNDTRIP
360
1BB
  0
DICTIONARY
  5
1C2
330
37
100
AcDbDictionary
280
     1
281
     1
  3
ACAD_XREC_ROUNDTRIP
360
1C3
  0
XRECORD
  5
1CD
102
{ACAD_REACTORS
330
1CC
102
}
330
1CC
100
AcDbXrecord
280
     1
102
MATERIAL
148
0.0
149
0.0
149
0.0
 93
        0
 94
      127
282
     0
 72
     1
 77
     1
171
     1
175
     1
179
     1
273
     0
  0
XRECORD
  5
1CB
102
{ACAD_REACTORS
330
1CA
102
}
330
1CA
100
AcDbXrecord
280
     1
102
MATERIAL
148
0.0
149
0.0
149
0.0
 93
        0
 94
      127
282
     0
 72
     1
 77
     1
171
     1
175
     1
179
     1
273
     0
  0
XRECORD
  5
1CF
102
{ACAD_REACTORS
330
1CE
102
}
330
1CE
100
AcDbXrecord
280
     1
102
MATERIAL
148
0.0
149
0.0
149
0.0
 93
        0
 94
      127
282
     0
 72
     1
 77
     1
171
     1
175
     1
179
     1
273
     0
  0
XRECORD
  5
1B3
102
{ACAD_REACTORS
330
1B2
102
}
330
1B2
100
AcDbXrecord
280
     1
102
RTVSPropertyOp0
 70
     1
102
RTVSPropertyOp1
 70
     1
102
RTVSPropertyOp2
 70
     1
102
RTVSPropertyOp3
 70
     1
102
RTVSPropertyOp4
 70
     1
102
RTVSPropertyOp5
 70
     1
102
RTVSPropertyOp6
 70
     1
102
RTVSPropertyOp7
 70
     1
102
RTVSPropertyOp8
 70
     1
102
RTVSPropertyOp9
 70
     1
102
RTVSPropertyOp10
 70
     1
102
RTVSPropertyOp11
 70
     1
102
RTVSPropertyOp12
 70
     1
102
RTVSPropertyOp13
 70
     1
102
RTVSPropertyOp14
 70
     1
102
RTVSPropertyOp15
 70
     1
102
RTVSPropertyOp16
 70
     1
102
RTVSPropertyOp17
 70
     1
102
RTVSPropertyOp18
 70
     1
102
RTVSPropertyOp19
 70
     1
102
RTVSPropertyOp20
 70
     1
102
RTVSPropertyOp21
 70
     1
102
RTVSPropertyOp22
 70
     1
102
RTVSPropertyOp23
 70
     1
102
RTVSPropertyOp24
 70
     1
102
RTVSPropertyOp25
 70
     1
102
RTVSPropertyOp26
 70
     1
102
RTVSPropertyOp27
 70
     1
102
RTVSPropertyOp28
 70
     1
102
RTVSPropertyOp29
 70
     1
102
RTVSPropertyOp30
 70
     1
102
RTVSPropertyOp31
 70
     1
102
RTVSPropertyOp32
 70
     1
  0
XRECORD
  5
1B7
102
{ACAD_REACTORS
330
1B6
102
}
330
1B6
100
AcDbXrecord
280
     1
102
RTVSPropertyOp0
 70
     1
102
RTVSPropertyOp1
 70
     1
102
RTVSPropertyOp2
 70
     1
102
RTVSPropertyOp3
 70
     1
102
RTVSPropertyOp4
 70
     1
102
RTVSPropertyOp5
 70
     1
102
RTVSPropertyOp6
 70
     1
102
RTVSPropertyOp7
 70
     1
102
RTVSPropertyOp8
 70
     1
102
RTVSPropertyOp9
 70
     1
102
RTVSPropertyOp10
 70
     1
102
RTVSPropertyOp11
 70
     1
102
RTVSPropertyOp12
 70
     1
102
RTVSPropertyOp13
 70
     1
102
RTVSPropertyOp14
 70
     1
102
RTVSPropertyOp15
 70
     1
102
RTVSPropertyOp16
 70
     1
102
RTVSPropertyOp17
 70
     1
102
RTVSPropertyOp18
 70
     1
102
RTVSPropertyOp19
 70
     1
102
RTVSPropertyOp20
 70
     1
102
RTVSPropertyOp21
 70
     1
102
RTVSPropertyOp22
 70
     1
102
RTVSPropertyOp23
 70
     1
102
RTVSPropertyOp24
 70
     1
102
RTVSPropertyOp25
 70
     1
102
RTVSPropertyOp26
 70
     1
102
RTVSPropertyOp27
 70
     1
102
RTVSPropertyOp28
 70
     1
102
RTVSPropertyOp29
 70
     1
102
RTVSPropertyOp30
 70
     1
102
RTVSPropertyOp31
 70
     1
102
RTVSPropertyOp32
 70
     1
  0
XRECORD
  5
1B5
102
{ACAD_REACTORS
330
1B4
102
}
330
1B4
100
AcDbXrecord
280
     1
102
RTVSPropertyOp0
 70
     1
102
RTVSPropertyOp1
 70
     1
102
RTVSPropertyOp2
 70
     1
102
RTVSPropertyOp3
 70
     1
102
RTVSPropertyOp4
 70
     1
102
RTVSPropertyOp5
 70
     1
102
RTVSPropertyOp6
 70
     1
102
RTVSPropertyOp7
 70
     1
102
RTVSPropertyOp8
 70
     1
102
RTVSPropertyOp9
 70
     1
102
RTVSPropertyOp10
 70
     1
102
RTVSPropertyOp11
 70
     1
102
RTVSPropertyOp12
 70
     1
102
RTVSPropertyOp13
 70
     1
102
RTVSPropertyOp14
 70
     1
102
RTVSPropertyOp15
 70
     1
102
RTVSPropertyOp16
 70
     1
102
RTVSPropertyOp17
 70
     1
102
RTVSPropertyOp18
 70
     1
102
RTVSPropertyOp19
 70
     1
102
RTVSPropertyOp20
 70
     1
102
RTVSPropertyOp21
 70
     1
102
RTVSPropertyOp22
 70
     1
102
RTVSPropertyOp23
 70
     1
102
RTVSPropertyOp24
 70
     1
102
RTVSPropertyOp25
 70
     1
102
RTVSPropertyOp26
 70
     1
102
RTVSPropertyOp27
 70
     1
102
RTVSPropertyOp28
 70
     1
102
RTVSPropertyOp29
 70
     1
102
RTVSPropertyOp30
 70
     1
102
RTVSPropertyOp31
 70
     1
102
RTVSPropertyOp32
 70
     1
  0
XRECORD
  5
1B9
102
{ACAD_REACTORS
330
1B8
102
}
330
1B8
100
AcDbXrecord
280
     1
102
RTVSPropertyOp0
 70
     1
102
RTVSPropertyOp1
 70
     1
102
RTVSPropertyOp2
 70
     1
102
RTVSPropertyOp3
 70
     1
102
RTVSPropertyOp4
 70
     1
102
RTVSPropertyOp5
 70
     1
102
RTVSPropertyOp6
 70
     1
102
RTVSPropertyOp7
 70
     1
102
RTVSPropertyOp8
 70
     1
102
RTVSPropertyOp9
 70
     1
102
RTVSPropertyOp10
 70
     1
102
RTVSPropertyOp11
 70
     1
102
RTVSPropertyOp12
 70
     1
102
RTVSPropertyOp13
 70
     1
102
RTVSPropertyOp14
 70
     1
102
RTVSPropertyOp15
 70
     1
102
RTVSPropertyOp16
 70
     1
102
RTVSPropertyOp17
 70
     1
102
RTVSPropertyOp18
 70
     1
102
RTVSPropertyOp19
 70
     1
102
RTVSPropertyOp20
 70
     1
102
RTVSPropertyOp21
 70
     1
102
RTVSPropertyOp22
 70
     1
102
RTVSPropertyOp23
 70
     1
102
RTVSPropertyOp24
 70
     1
102
RTVSPropertyOp25
 70
     1
102
RTVSPropertyOp26
 70
     1
102
RTVSPropertyOp27
 70
     1
102
RTVSPropertyOp28
 70
     1
102
RTVSPropertyOp29
 70
     1
102
RTVSPropertyOp30
 70
     1
102
RTVSPropertyOp31
 70
     1
102
RTVSPropertyOp32
 70
     1
  0
XRECORD
  5
1C1
102
{ACAD_REACTORS
330
1C0
102
}
330
1C0
100
AcDbXrecord
280
     1
102
RTVSPropertyOp0
 70
     1
102
RTVSPropertyOp1
 70
     1
102
RTVSPropertyOp2
 70
     1
102
RTVSPropertyOp3
 70
     1
102
RTVSPropertyOp4
 70
     1
102
RTVSPropertyOp5
 70
     1
102
RTVSPropertyOp6
 70
     1
102
RTVSPropertyOp7
 70
     1
102
RTVSPropertyOp8
 70
     1
102
RTVSPropertyOp9
 70
     1
102
RTVSPropertyOp10
 70
     1
102
RTVSPropertyOp11
 70
     1
102
RTVSPropertyOp12
 70
     1
102
RTVSPropertyOp13
 70
     1
102
RTVSPropertyOp14
 70
     1
102
RTVSPropertyOp15
 70
     1
102
RTVSPropertyOp16
 70
     1
102
RTVSPropertyOp17
 70
     1
102
RTVSPropertyOp18
 70
     1
102
RTVSPropertyOp19
 70
     1
102
RTVSPropertyOp20
 70
     1
102
RTVSPropertyOp21
 70
     1
102
RTVSPropertyOp22
 70
     1
102
RTVSPropertyOp23
 70
     1
102
RTVSPropertyOp24
 70
     1
102
RTVSPropertyOp25
 70
     1
102
RTVSPropertyOp26
 70
     1
102
RTVSPropertyOp27
 70
     1
102
RTVSPropertyOp28
 70
     1
102
RTVSPropertyOp29
 70
     1
102
RTVSPropertyOp30
 70
     1
102
RTVSPropertyOp31
 70
     1
102
RTVSPropertyOp32
 70
     1
  0
XRECORD
  5
1C9
102
{ACAD_REACTORS
330
1C8
102
}
330
1C8
100
AcDbXrecord
280
     1
102
RTVSPropertyOp0
 70
     1
102
RTVSPropertyOp1
 70
     1
102
RTVSPropertyOp2
 70
     1
102
RTVSPropertyOp3
 70
     1
102
RTVSPropertyOp4
 70
     1
102
RTVSPropertyOp5
 70
     1
102
RTVSPropertyOp6
 70
     1
102
RTVSPropertyOp7
 70
     1
102
RTVSPropertyOp8
 70
     1
102
RTVSPropertyOp9
 70
     1
102
RTVSPropertyOp10
 70
     1
102
RTVSPropertyOp11
 70
     1
102
RTVSPropertyOp12
 70
     1
102
RTVSPropertyOp13
 70
     1
102
RTVSPropertyOp14
 70
     1
102
RTVSPropertyOp15
 70
     1
102
RTVSPropertyOp16
 70
     1
102
RTVSPropertyOp17
 70
     1
102
RTVSPropertyOp18
 70
     1
102
RTVSPropertyOp19
 70
     1
102
RTVSPropertyOp20
 70
     1
102
RTVSPropertyOp21
 70
     1
102
RTVSPropertyOp22
 70
     1
102
RTVSPropertyOp23
 70
     1
102
RTVSPropertyOp24
 70
     1
102
RTVSPropertyOp25
 70
     1
102
RTVSPropertyOp26
 70
     1
102
RTVSPropertyOp27
 70
     1
102
RTVSPropertyOp28
 70
     1
102
RTVSPropertyOp29
 70
     1
102
RTVSPropertyOp30
 70
     1
102
RTVSPropertyOp31
 70
     1
102
RTVSPropertyOp32
 70
     1
  0
XRECORD
  5
1BD
102
{ACAD_REACTORS
330
1BC
102
}
330
1BC
100
AcDbXrecord
280
     1
102
RTVSPropertyOp0
 70
     1
102
RTVSPropertyOp1
 70
     1
102
RTVSPropertyOp2
 70
     1
102
RTVSPropertyOp3
 70
     1
102
RTVSPropertyOp4
 70
     1
102
RTVSPropertyOp5
 70
     1
102
RTVSPropertyOp6
 70
     1
102
RTVSPropertyOp7
 70
     1
102
RTVSPropertyOp8
 70
     1
102
RTVSPropertyOp9
 70
     1
102
RTVSPropertyOp10
 70
     1
102
RTVSPropertyOp11
 70
     1
102
RTVSPropertyOp12
 70
     1
102
RTVSPropertyOp13
 70
     1
102
RTVSPropertyOp14
 70
     1
102
RTVSPropertyOp15
 70
     1
102
RTVSPropertyOp16
 70
     1
102
RTVSPropertyOp17
 70
     1
102
RTVSPropertyOp18
 70
     1
102
RTVSPropertyOp19
 70
     1
102
RTVSPropertyOp20
 70
     1
102
RTVSPropertyOp21
 70
     1
102
RTVSPropertyOp22
 70
     1
102
RTVSPropertyOp23
 70
     1
102
RTVSPropertyOp24
 70
     1
102
RTVSPropertyOp25
 70
     1
102
RTVSPropertyOp26
 70
     1
102
RTVSPropertyOp27
 70
     1
102
RTVSPropertyOp28
 70
     1
102
RTVSPropertyOp29
 70
     1
102
RTVSPropertyOp30
 70
     1
102
RTVSPropertyOp31
 70
     1
102
RTVSPropertyOp32
 70
     1
  0
XRECORD
  5
1BF
102
{ACAD_REACTORS
330
1BE
102
}
330
1BE
100
AcDbXrecord
280
     1
102
RTVSPropertyOp0
 70
     1
102
RTVSPropertyOp1
 70
     1
102
RTVSPropertyOp2
 70
     1
102
RTVSPropertyOp3
 70
     1
102
RTVSPropertyOp4
 70
     1
102
RTVSPropertyOp5
 70
     1
102
RTVSPropertyOp6
 70
     1
102
RTVSPropertyOp7
 70
     1
102
RTVSPropertyOp8
 70
     1
102
RTVSPropertyOp9
 70
     1
102
RTVSPropertyOp10
 70
     1
102
RTVSPropertyOp11
 70
     1
102
RTVSPropertyOp12
 70
     1
102
RTVSPropertyOp13
 70
     1
102
RTVSPropertyOp14
 70
     1
102
RTVSPropertyOp15
 70
     1
102
RTVSPropertyOp16
 70
     1
102
RTVSPropertyOp17
 70
     1
102
RTVSPropertyOp18
 70
     1
102
RTVSPropertyOp19
 70
     1
102
RTVSPropertyOp20
 70
     1
102
RTVSPropertyOp21
 70
     1
102
RTVSPropertyOp22
 70
     1
102
RTVSPropertyOp23
 70
     1
102
RTVSPropertyOp24
 70
     1
102
RTVSPropertyOp25
 70
     1
102
RTVSPropertyOp26
 70
     1
102
RTVSPropertyOp27
 70
     1
102
RTVSPropertyOp28
 70
     1
102
RTVSPropertyOp29
 70
     1
102
RTVSPropertyOp30
 70
     1
102
RTVSPropertyOp31
 70
     1
102
RTVSPropertyOp32
 70
     1
  0
XRECORD
  5
1C7
102
{ACAD_REACTORS
330
1C6
102
}
330
1C6
100
AcDbXrecord
280
     1
102
RTVSPropertyOp0
 70
     1
102
RTVSPropertyOp1
 70
     1
102
RTVSPropertyOp2
 70
     1
102
RTVSPropertyOp3
 70
     1
102
RTVSPropertyOp4
 70
     1
102
RTVSPropertyOp5
 70
     1
102
RTVSPropertyOp6
 70
     1
102
RTVSPropertyOp7
 70
     1
102
RTVSPropertyOp8
 70
     1
102
RTVSPropertyOp9
 70
     1
102
RTVSPropertyOp10
 70
     1
102
RTVSPropertyOp11
 70
     1
102
RTVSPropertyOp12
 70
     1
102
RTVSPropertyOp13
 70
     1
102
RTVSPropertyOp14
 70
     1
102
RTVSPropertyOp15
 70
     1
102
RTVSPropertyOp16
 70
     1
102
RTVSPropertyOp17
 70
     1
102
RTVSPropertyOp18
 70
     1
102
RTVSPropertyOp19
 70
     1
102
RTVSPropertyOp20
 70
     1
102
RTVSPropertyOp21
 70
     1
102
RTVSPropertyOp22
 70
     1
102
RTVSPropertyOp23
 70
     1
102
RTVSPropertyOp24
 70
     1
102
RTVSPropertyOp25
 70
     1
102
RTVSPropertyOp26
 70
     1
102
RTVSPropertyOp27
 70
     1
102
RTVSPropertyOp28
 70
     1
102
RTVSPropertyOp29
 70
     1
102
RTVSPropertyOp30
 70
     1
102
RTVSPropertyOp31
 70
     1
102
RTVSPropertyOp32
 70
     1
  0
XRECORD
  5
1AB
102
{ACAD_REACTORS
330
1AA
102
}
330
1AA
100
AcDbXrecord
280
     1
102
RTVSPropertyOp0
 70
     1
102
RTVSPropertyOp1
 70
     1
102
RTVSPropertyOp2
 70
     1
102
RTVSPropertyOp3
 70
     1
102
RTVSPropertyOp4
 70
     1
102
RTVSPropertyOp5
 70
     1
102
RTVSPropertyOp6
 70
     1
102
RTVSPropertyOp7
 70
     1
102
RTVSPropertyOp8
 70
     1
102
RTVSPropertyOp9
 70
     1
102
RTVSPropertyOp10
 70
     1
102
RTVSPropertyOp11
 70
     1
102
RTVSPropertyOp12
 70
     1
102
RTVSPropertyOp13
 70
     1
102
RTVSPropertyOp14
 70
     1
102
RTVSPropertyOp15
 70
     1
102
RTVSPropertyOp16
 70
     1
102
RTVSPropertyOp17
 70
     1
102
RTVSPropertyOp18
 70
     1
102
RTVSPropertyOp19
 70
     1
102
RTVSPropertyOp20
 70
     1
102
RTVSPropertyOp21
 70
     1
102
RTVSPropertyOp22
 70
     1
102
RTVSPropertyOp23
 70
     1
102
RTVSPropertyOp24
 70
     1
102
RTVSPropertyOp25
 70
     1
102
RTVSPropertyOp26
 70
     1
102
RTVSPropertyOp27
 70
     1
102
RTVSPropertyOp28
 70
     1
102
RTVSPropertyOp29
 70
     1
102
RTVSPropertyOp30
 70
     1
102
RTVSPropertyOp31
 70
     1
102
RTVSPropertyOp32
 70
     1
  0
XRECORD
  5
1AD
102
{ACAD_REACTORS
330
1AC
102
}
330
1AC
100
AcDbXrecord
280
     1
102
RTVSPropertyOp0
 70
     1
102
RTVSPropertyOp1
 70
     1
102
RTVSPropertyOp2
 70
     1
102
RTVSPropertyOp3
 70
     1
102
RTVSPropertyOp4
 70
     1
102
RTVSPropertyOp5
 70
     1
102
RTVSPropertyOp6
 70
     1
102
RTVSPropertyOp7
 70
     1
102
RTVSPropertyOp8
 70
     1
102
RTVSPropertyOp9
 70
     1
102
RTVSPropertyOp10
 70
     1
102
RTVSPropertyOp11
 70
     1
102
RTVSPropertyOp12
 70
     1
102
RTVSPropertyOp13
 70
     1
102
RTVSPropertyOp14
 70
     1
102
RTVSPropertyOp15
 70
     1
102
RTVSPropertyOp16
 70
     1
102
RTVSPropertyOp17
 70
     1
102
RTVSPropertyOp18
 70
     1
102
RTVSPropertyOp19
 70
     1
102
RTVSPropertyOp20
 70
     1
102
RTVSPropertyOp21
 70
     1
102
RTVSPropertyOp22
 70
     1
102
RTVSPropertyOp23
 70
     1
102
RTVSPropertyOp24
 70
     1
102
RTVSPropertyOp25
 70
     1
102
RTVSPropertyOp26
 70
     1
102
RTVSPropertyOp27
 70
     1
102
RTVSPropertyOp28
 70
     1
102
RTVSPropertyOp29
 70
     1
102
RTVSPropertyOp30
 70
     1
102
RTVSPropertyOp31
 70
     1
102
RTVSPropertyOp32
 70
     1
  0
XRECORD
  5
1AF
102
{ACAD_REACTORS
330
1AE
102
}
330
1AE
100
AcDbXrecord
280
     1
102
RTVSPropertyOp0
 70
     1
102
RTVSPropertyOp1
 70
     1
102
RTVSPropertyOp2
 70
     1
102
RTVSPropertyOp3
 70
     1
102
RTVSPropertyOp4
 70
     1
102
RTVSPropertyOp5
 70
     1
102
RTVSPropertyOp6
 70
     1
102
RTVSPropertyOp7
 70
     1
102
RTVSPropertyOp8
 70
     1
102
RTVSPropertyOp9
 70
     1
102
RTVSPropertyOp10
 70
     1
102
RTVSPropertyOp11
 70
     1
102
RTVSPropertyOp12
 70
     1
102
RTVSPropertyOp13
 70
     1
102
RTVSPropertyOp14
 70
     1
102
RTVSPropertyOp15
 70
     1
102
RTVSPropertyOp16
 70
     1
102
RTVSPropertyOp17
 70
     1
102
RTVSPropertyOp18
 70
     1
102
RTVSPropertyOp19
 70
     1
102
RTVSPropertyOp20
 70
     1
102
RTVSPropertyOp21
 70
     1
102
RTVSPropertyOp22
 70
     1
102
RTVSPropertyOp23
 70
     1
102
RTVSPropertyOp24
 70
     1
102
RTVSPropertyOp25
 70
     1
102
RTVSPropertyOp26
 70
     1
102
RTVSPropertyOp27
 70
     1
102
RTVSPropertyOp28
 70
     1
102
RTVSPropertyOp29
 70
     1
102
RTVSPropertyOp30
 70
     1
102
RTVSPropertyOp31
 70
     1
102
RTVSPropertyOp32
 70
     1
  0
XRECORD
  5
1B1
102
{ACAD_REACTORS
330
1B0
102
}
330
1B0
100
AcDbXrecord
280
     1
102
RTVSPropertyOp0
 70
     1
102
RTVSPropertyOp1
 70
     1
102
RTVSPropertyOp2
 70
     1
102
RTVSPropertyOp3
 70
     1
102
RTVSPropertyOp4
 70
     1
102
RTVSPropertyOp5
 70
     1
102
RTVSPropertyOp6
 70
     1
102
RTVSPropertyOp7
 70
     1
102
RTVSPropertyOp8
 70
     1
102
RTVSPropertyOp9
 70
     1
102
RTVSPropertyOp10
 70
     1
102
RTVSPropertyOp11
 70
     1
102
RTVSPropertyOp12
 70
     1
102
RTVSPropertyOp13
 70
     1
102
RTVSPropertyOp14
 70
     1
102
RTVSPropertyOp15
 70
     1
102
RTVSPropertyOp16
 70
     1
102
RTVSPropertyOp17
 70
     1
102
RTVSPropertyOp18
 70
     1
102
RTVSPropertyOp19
 70
     1
102
RTVSPropertyOp20
 70
     1
102
RTVSPropertyOp21
 70
     1
102
RTVSPropertyOp22
 70
     1
102
RTVSPropertyOp23
 70
     1
102
RTVSPropertyOp24
 70
     1
102
RTVSPropertyOp25
 70
     1
102
RTVSPropertyOp26
 70
     1
102
RTVSPropertyOp27
 70
     1
102
RTVSPropertyOp28
 70
     1
102
RTVSPropertyOp29
 70
     1
102
RTVSPropertyOp30
 70
     1
102
RTVSPropertyOp31
 70
     1
102
RTVSPropertyOp32
 70
     1
  0
XRECORD
  5
1C5
102
{ACAD_REACTORS
330
1C4
102
}
330
1C4
100
AcDbXrecord
280
     1
102
RTVSPropertyOp0
 70
     1
102
RTVSPropertyOp1
 70
     1
102
RTVSPropertyOp2
 70
     1
102
RTVSPropertyOp3
 70
     1
102
RTVSPropertyOp4
 70
     1
102
RTVSPropertyOp5
 70
     1
102
RTVSPropertyOp6
 70
     1
102
RTVSPropertyOp7
 70
     1
102
RTVSPropertyOp8
 70
     1
102
RTVSPropertyOp9
 70
     1
102
RTVSPropertyOp10
 70
     1
102
RTVSPropertyOp11
 70
     1
102
RTVSPropertyOp12
 70
     1
102
RTVSPropertyOp13
 70
     1
102
RTVSPropertyOp14
 70
     1
102
RTVSPropertyOp15
 70
     1
102
RTVSPropertyOp16
 70
     1
102
RTVSPropertyOp17
 70
     1
102
RTVSPropertyOp18
 70
     1
102
RTVSPropertyOp19
 70
     1
102
RTVSPropertyOp20
 70
     1
102
RTVSPropertyOp21
 70
     1
102
RTVSPropertyOp22
 70
     1
102
RTVSPropertyOp23
 70
     1
102
RTVSPropertyOp24
 70
     1
102
RTVSPropertyOp25
 70
     1
102
RTVSPropertyOp26
 70
     1
102
RTVSPropertyOp27
 70
     1
102
RTVSPropertyOp28
 70
     1
102
RTVSPropertyOp29
 70
     1
102
RTVSPropertyOp30
 70
     1
102
RTVSPropertyOp31
 70
     1
102
RTVSPropertyOp32
 70
     1
  0
XRECORD
  5
1BB
102
{ACAD_REACTORS
330
1BA
102
}
330
1BA
100
AcDbXrecord
280
     1
102
RTVSPropertyOp0
 70
     1
102
RTVSPropertyOp1
 70
     1
102
RTVSPropertyOp2
 70
     1
102
RTVSPropertyOp3
 70
     1
102
RTVSPropertyOp4
 70
     1
102
RTVSPropertyOp5
 70
     1
102
RTVSPropertyOp6
 70
     1
102
RTVSPropertyOp7
 70
     1
102
RTVSPropertyOp8
 70
     1
102
RTVSPropertyOp9
 70
     1
102
RTVSPropertyOp10
 70
     1
102
RTVSPropertyOp11
 70
     1
102
RTVSPropertyOp12
 70
     1
102
RTVSPropertyOp13
 70
     1
102
RTVSPropertyOp14
 70
     1
102
RTVSPropertyOp15
 70
     1
102
RTVSPropertyOp16
 70
     1
102
RTVSPropertyOp17
 70
     1
102
RTVSPropertyOp18
 70
     1
102
RTVSPropertyOp19
 70
     1
102
RTVSPropertyOp20
 70
     1
102
RTVSPropertyOp21
 70
     1
102
RTVSPropertyOp22
 70
     1
102
RTVSPropertyOp23
 70
     1
102
RTVSPropertyOp24
 70
     1
102
RTVSPropertyOp25
 70
     1
102
RTVSPropertyOp26
 70
     1
102
RTVSPropertyOp27
 70
     1
102
RTVSPropertyOp28
 70
     1
102
RTVSPropertyOp29
 70
     1
102
RTVSPropertyOp30
 70
     1
102
RTVSPropertyOp31
 70
     1
102
RTVSPropertyOp32
 70
     1
  0
XRECORD
  5
1C3
102
{ACAD_REACTORS
330
1C2
102
}
330
1C2
100
AcDbXrecord
280
     1
102
RTVSPropertyOp0
 70
     1
102
RTVSPropertyOp1
 70
     1
102
RTVSPropertyOp2
 70
     1
102
RTVSPropertyOp3
 70
     1
102
RTVSPropertyOp4
 70
     1
102
RTVSPropertyOp5
 70
     1
102
RTVSPropertyOp6
 70
     1
102
RTVSPropertyOp7
 70
     1
102
RTVSPropertyOp8
 70
     1
102
RTVSPropertyOp9
 70
     1
102
RTVSPropertyOp10
 70
     1
102
RTVSPropertyOp11
 70
     1
102
RTVSPropertyOp12
 70
     1
102
RTVSPropertyOp13
 70
     1
102
RTVSPropertyOp14
 70
     1
102
RTVSPropertyOp15
 70
     1
102
RTVSPropertyOp16
 70
     1
102
RTVSPropertyOp17
 70
     1
102
RTVSPropertyOp18
 70
     1
102
RTVSPropertyOp19
 70
     1
102
RTVSPropertyOp20
 70
     1
102
RTVSPropertyOp21
 70
     1
102
RTVSPropertyOp22
 70
     1
102
RTVSPropertyOp23
 70
     1
102
RTVSPropertyOp24
 70
     1
102
RTVSPropertyOp25
 70
     1
102
RTVSPropertyOp26
 70
     1
102
RTVSPropertyOp27
 70
     1
102
RTVSPropertyOp28
 70
     1
102
RTVSPropertyOp29
 70
     1
102
RTVSPropertyOp30
 70
     1
102
RTVSPropertyOp31
 70
     1
102
RTVSPropertyOp32
 70
     1
  0
ENDSEC
  0
EOF
