  0
SECTION
  2
HEADER
  9
$ACADVER
  1
AC1018
  9
$ACADMAINTVER
 70
     0
  9
$DWGCODEPAGE
  3
ANSI_932
  9
$INSBASE
 10
0.0
 20
0.0
 30
0.0
  9
$EXTMIN
 10
-165.2521415569396
 20
-126.5112914547608
 30
0.0
  9
$EXTMAX
 10
44.74785844306035
 20
170.4887085452392
 30
0.0
  9
$LIMMIN
 10
-165.2521415569396
 20
-126.5112914547608
  9
$LIMMAX
 10
44.74785844306035
 20
170.4887085452392
  9
$ORTHOMODE
 70
     0
  9
$REGENMODE
 70
     1
  9
$FILLMODE
 70
     1
  9
$QTEXTMODE
 70
     0
  9
$MIRRTEXT
 70
     1
  9
$LTSCALE
 40
1.0
  9
$ATTMODE
 70
     1
  9
$TEXTSIZE
 40
2.5
  9
$TRACEWID
 40
1.0
  9
$TEXTSTYLE
  7
Standard
  9
$CLAYER
  8
0
  9
$CELTYPE
  6
ByLayer
  9
$CECOLOR
 62
   256
  9
$CELTSCALE
 40
1.0
  9
$DISPSILH
 70
     0
  9
$DIMSCALE
 40
1.0
  9
$DIMASZ
 40
2.5
  9
$DIMEXO
 40
0.625
  9
$DIMDLI
 40
3.75
  9
$DIMRND
 40
0.0
  9
$DIMDLE
 40
0.0
  9
$DIMEXE
 40
1.25
  9
$DIMTP
 40
0.0
  9
$DIMTM
 40
0.0
  9
$DIMTXT
 40
2.5
  9
$DIMCEN
 40
2.5
  9
$DIMTSZ
 40
0.0
  9
$DIMTOL
 70
     0
  9
$DIMLIM
 70
     0
  9
$DIMTIH
 70
     0
  9
$DIMTOH
 70
     0
  9
$DIMSE1
 70
     0
  9
$DIMSE2
 70
     0
  9
$DIMTAD
 70
     1
  9
$DIMZIN
 70
     8
  9
$DIMBLK
  1

  9
$DIMASO
 70
     1
  9
$DIMSHO
 70
     1
  9
$DIMPOST
  1

  9
$DIMAPOST
  1

  9
$DIMALT
 70
     0
  9
$DIMALTD
 70
     3
  9
$DIMALTF
 40
0.03937007874016
  9
$DIMLFAC
 40
1.0
  9
$DIMTOFL
 70
     1
  9
$DIMTVP
 40
0.0
  9
$DIMTIX
 70
     0
  9
$DIMSOXD
 70
     0
  9
$DIMSAH
 70
     0
  9
$DIMBLK1
  1

  9
$DIMBLK2
  1

  9
$DIMSTYLE
  2
ISO-25
  9
$DIMCLRD
 70
     0
  9
$DIMCLRE
 70
     0
  9
$DIMCLRT
 70
     0
  9
$DIMTFAC
 40
1.0
  9
$DIMGAP
 40
0.625
  9
$DIMJUST
 70
     0
  9
$DIMSD1
 70
     0
  9
$DIMSD2
 70
     0
  9
$DIMTOLJ
 70
     0
  9
$DIMTZIN
 70
     8
  9
$DIMALTZ
 70
     0
  9
$DIMALTTZ
 70
     0
  9
$DIMUPT
 70
     0
  9
$DIMDEC
 70
     2
  9
$DIMTDEC
 70
     2
  9
$DIMALTU
 70
     2
  9
$DIMALTTD
 70
     3
  9
$DIMTXSTY
  7
Standard
  9
$DIMAUNIT
 70
     0
  9
$DIMADEC
 70
     0
  9
$DIMALTRND
 40
0.0
  9
$DIMAZIN
 70
     0
  9
$DIMDSEP
 70
    44
  9
$DIMATFIT
 70
     3
  9
$DIMFRAC
 70
     0
  9
$DIMLDRBLK
  1

  9
$DIMLUNIT
 70
     2
  9
$DIMLWD
 70
    -2
  9
$DIMLWE
 70
    -2
  9
$DIMTMOVE
 70
     0
  9
$LUNITS
 70
     2
  9
$LUPREC
 70
     4
  9
$SKETCHINC
 40
1.0
  9
$FILLETRAD
 40
10.0
  9
$AUNITS
 70
     0
  9
$AUPREC
 70
     0
  9
$MENU
  1
.
  9
$ELEVATION
 40
0.0
  9
$PELEVATION
 40
0.0
  9
$THICKNESS
 40
0.0
  9
$LIMCHECK
 70
     0
  9
$CHAMFERA
 40
10.0
  9
$CHAMFERB
 40
10.0
  9
$CHAMFERC
 40
20.0
  9
$CHAMFERD
 40
0.0
  9
$SKPOLY
 70
     0
  9
$TDCREATE
 40
2458841.723391204
  9
$TDUCREATE
 40
2458841.348391204
  9
$TDUPDATE
 40
2458841.72339132
  9
$TDUUPDATE
 40
2458841.34839132
  9
$TDINDWG
 40
0.0000000116
  9
$TDUSRTIMER
 40
0.0000000116
  9
$USRTIMER
 70
     1
  9
$ANGBASE
 50
0.0
  9
$ANGDIR
 70
     0
  9
$PDMODE
 70
     0
  9
$PDSIZE
 40
0.0
  9
$PLINEWID
 40
0.0
  9
$SPLFRAME
 70
     0
  9
$SPLINETYPE
 70
     6
  9
$SPLINESEGS
 70
     8
  9
$HANDSEED
  5
313
  9
$SURFTAB1
 70
     6
  9
$SURFTAB2
 70
     6
  9
$SURFTYPE
 70
     6
  9
$SURFU
 70
     6
  9
$SURFV
 70
     6
  9
$UCSBASE
  2

  9
$UCSNAME
  2

  9
$UCSORG
 10
0.0
 20
0.0
 30
0.0
  9
$UCSXDIR
 10
1.0
 20
0.0
 30
0.0
  9
$UCSYDIR
 10
0.0
 20
1.0
 30
0.0
  9
$UCSORTHOREF
  2

  9
$UCSORTHOVIEW
 70
     0
  9
$UCSORGTOP
 10
0.0
 20
0.0
 30
0.0
  9
$UCSORGBOTTOM
 10
0.0
 20
0.0
 30
0.0
  9
$UCSORGLEFT
 10
0.0
 20
0.0
 30
0.0
  9
$UCSORGRIGHT
 10
0.0
 20
0.0
 30
0.0
  9
$UCSORGFRONT
 10
0.0
 20
0.0
 30
0.0
  9
$UCSORGBACK
 10
0.0
 20
0.0
 30
0.0
  9
$PUCSBASE
  2

  9
$PUCSNAME
  2

  9
$PUCSORG
 10
0.0
 20
0.0
 30
0.0
  9
$PUCSXDIR
 10
1.0
 20
0.0
 30
0.0
  9
$PUCSYDIR
 10
0.0
 20
1.0
 30
0.0
  9
$PUCSORTHOREF
  2

  9
$PUCSORTHOVIEW
 70
     0
  9
$PUCSORGTOP
 10
0.0
 20
0.0
 30
0.0
  9
$PUCSORGBOTTOM
 10
0.0
 20
0.0
 30
0.0
  9
$PUCSORGLEFT
 10
0.0
 20
0.0
 30
0.0
  9
$PUCSORGRIGHT
 10
0.0
 20
0.0
 30
0.0
  9
$PUCSORGFRONT
 10
0.0
 20
0.0
 30
0.0
  9
$PUCSORGBACK
 10
0.0
 20
0.0
 30
0.0
  9
$USERI1
 70
     0
  9
$USERI2
 70
     0
  9
$USERI3
 70
     0
  9
$USERI4
 70
     0
  9
$USERI5
 70
     0
  9
$USERR1
 40
0.0
  9
$USERR2
 40
0.0
  9
$USERR3
 40
0.0
  9
$USERR4
 40
0.0
  9
$USERR5
 40
0.0
  9
$WORLDVIEW
 70
     1
  9
$SHADEDGE
 70
     3
  9
$SHADEDIF
 70
    70
  9
$TILEMODE
 70
     1
  9
$MAXACTVP
 70
    64
  9
$PINSBASE
 10
0.0
 20
0.0
 30
0.0
  9
$PLIMCHECK
 70
     0
  9
$PEXTMIN
 10
1.000000000000000E+20
 20
1.000000000000000E+20
 30
1.000000000000000E+20
  9
$PEXTMAX
 10
-1.000000000000000E+20
 20
-1.000000000000000E+20
 30
-1.000000000000000E+20
  9
$PLIMMIN
 10
-165.2521415569396
 20
-126.5112914547608
  9
$PLIMMAX
 10
44.74785844306035
 20
170.4887085452392
  9
$UNITMODE
 70
     0
  9
$VISRETAIN
 70
     1
  9
$PLINEGEN
 70
     0
  9
$PSLTSCALE
 70
     1
  9
$TREEDEPTH
 70
  3020
  9
$CMLSTYLE
  2
Standard
  9
$CMLJUST
 70
     0
  9
$CMLSCALE
 40
20.0
  9
$PROXYGRAPHICS
 70
     1
  9
$MEASUREMENT
 70
     1
  9
$CELWEIGHT
370
    -1
  9
$ENDCAPS
280
     0
  9
$JOINSTYLE
280
     0
  9
$LWDISPLAY
290
     0
  9
$INSUNITS
 70
     4
  9
$HYPERLINKBASE
  1

  9
$STYLESHEET
  1

  9
$XEDIT
290
     1
  9
$CEPSNTYPE
380
     0
  9
$PSTYLEMODE
290
     1
  9
$FINGERPRINTGUID
  2
{428EA3AF-C5EA-428D-85D2-284E58100DA3}
  9
$VERSIONGUID
  2
{FAEB1C32-E019-11D5-929B-00C0DF256EC4}
  9
$EXTNAMES
290
     1
  9
$PSVPSCALE
 40
0.0
  9
$OLESTARTUP
290
     0
  9
$SORTENTS
280
   127
  9
$INDEXCTL
280
     0
  9
$HIDETEXT
280
     1
  9
$XCLIPFRAME
290
     0
  9
$HALOGAP
280
     0
  9
$OBSCOLOR
 70
   257
  9
$OBSLTYPE
280
     0
  9
$INTERSECTIONDISPLAY
280
     0
  9
$INTERSECTIONCOLOR
 70
   257
  9
$DIMASSOC
280
     2
  9
$PROJECTNAME
  1

  0
ENDSEC
  0
SECTION
  2
CLASSES
  0
CLASS
  1
ACDBDICTIONARYWDFLT
  2
AcDbDictionaryWithDefault
  3
ObjectDBX Classes
 90
        0
 91
        4
280
     0
281
     0
  0
CLASS
  1
VISUALSTYLE
  2
AcDbVisualStyle
  3
ObjectDBX Classes
 90
     4095
 91
        4
280
     0
281
     0
  0
CLASS
  1
MATERIAL
  2
AcDbMaterial
  3
ObjectDBX Classes
 90
     1153
 91
        4
280
     0
281
     0
  0
CLASS
  1
SUN
  2
AcDbSun
  3
SCENEOE
 90
     1024
 91
        4
280
     0
281
     0
  0
ENDSEC
  0
SECTION
  2
TABLES
  0
TABLE
  2
VPORT
  5
8
330
0
100
AcDbSymbolTable
 70
     1
  0
VPORT
  5
29
330
8
100
AcDbSymbolTableRecord
100
AcDbViewportTableRecord
  2
*Active
 70
     0
 10
0.0
 20
0.0
 11
1.0
 21
1.0
 12
344.1869158878504
 22
148.5
 13
0.0
 23
0.0
 14
10.0
 24
10.0
 15
10.0
 25
10.0
 16
0.0
 26
0.0
 36
1.0
 17
0.0
 27
0.0
 37
0.0
 40
297.0
 41
1.972972972850329
 42
50.0
 43
0.0
 44
0.0
 50
0.0
 51
0.0
 71
     0
 72
   100
 73
     1
 74
     3
 75
     0
 76
     0
 77
     0
 78
     0
281
     0
 65
     1
110
0.0
120
0.0
130
0.0
111
1.0
121
0.0
131
0.0
112
0.0
122
1.0
132
0.0
 79
     0
146
0.0
  0
ENDTAB
  0
TABLE
  2
LTYPE
  5
5
330
0
100
AcDbSymbolTable
 70
     5
  0
LTYPE
  5
14
330
5
100
AcDbSymbolTableRecord
100
AcDbLinetypeTableRecord
  2
ByBlock
 70
     0
  3

 72
    65
 73
     0
 40
0.0
  0
LTYPE
  5
15
330
5
100
AcDbSymbolTableRecord
100
AcDbLinetypeTableRecord
  2
ByLayer
 70
     0
  3

 72
    65
 73
     0
 40
0.0
  0
LTYPE
  5
16
330
5
100
AcDbSymbolTableRecord
100
AcDbLinetypeTableRecord
  2
Continuous
 70
     0
  3
Solid line
 72
    65
 73
     0
 40
0.0
  0
LTYPE
  5
40
330
5
100
AcDbSymbolTableRecord
100
AcDbLinetypeTableRecord
  2
CONTINOUS
 70
     0
  3
______________________________
 72
    65
 73
     0
 40
0.0
  0
LTYPE
  5
41
330
5
100
AcDbSymbolTableRecord
100
AcDbLinetypeTableRecord
  2
DASHED
 70
     0
  3
__ __ __ __ __ __ __ __ __ __ __ __ __ __ __ __
 72
    65
 73
     2
 40
4.5
 49
3.0
 74
     0
 49
-1.5
 74
     0
  0
LTYPE
  5
42
330
5
100
AcDbSymbolTableRecord
100
AcDbLinetypeTableRecord
  2
PHANTOM
 70
     0
  3
______  __  __  ______  __  __  _____
 72
    65
 73
     6
 40
15.0
 49
7.5
 74
     0
 49
-1.5
 74
     0
 49
1.5
 74
     0
 49
-1.5
 74
     0
 49
1.5
 74
     0
 49
-1.5
 74
     0
  0
LTYPE
  5
43
330
5
100
AcDbSymbolTableRecord
100
AcDbLinetypeTableRecord
  2
CENTER
 70
     0
  3
____ _ ____ _ ____ _ ____ _ ____ _ ____
 72
    65
 73
     4
 40
12.0
 49
7.5
 74
     0
 49
-1.5
 74
     0
 49
1.5
 74
     0
 49
-1.5
 74
     0
  0
ENDTAB
  0
TABLE
  2
LAYER
  5
2
330
0
100
AcDbSymbolTable
 70
     3
  0
LAYER
  5
10
330
2
100
AcDbSymbolTableRecord
100
AcDbLayerTableRecord
  2
0
 70
     0
 62
     7
  6
Continuous
370
    -3
390
F
  0
LAYER
  5
272
330
2
100
AcDbSymbolTableRecord
100
AcDbLayerTableRecord
  2
Defpoints
 70
     0
 62
     7
  6
Continuous
290
     0
370
    -3
390
F
  0
LAYER
  5
2D4
330
2
100
AcDbSymbolTableRecord
100
AcDbLayerTableRecord
  2
VIEW0001
 70
     0
 62
     7
  6
Continuous
370
    -3
390
F
  0
ENDTAB
  0
TABLE
  2
STYLE
  5
3
330
0
100
AcDbSymbolTable
 70
     1
  0
STYLE
  5
11
330
3
100
AcDbSymbolTableRecord
100
AcDbTextStyleTableRecord
  2
Standard
 70
     0
 40
0.0
 41
1.0
 50
0.0
 71
     0
 42
2.5
  3
ROMANS
  4
BIGFONT
  0
ENDTAB
  0
TABLE
  2
VIEW
  5
6
330
0
100
AcDbSymbolTable
 70
     0
  0
ENDTAB
  0
TABLE
  2
UCS
  5
7
330
0
100
AcDbSymbolTable
 70
     0
  0
ENDTAB
  0
TABLE
  2
APPID
  5
9
330
0
100
AcDbSymbolTable
 70
     1
  0
APPID
  5
12
330
9
100
AcDbSymbolTableRecord
100
AcDbRegAppTableRecord
  2
ACAD
 70
     0
  0
ENDTAB
  0
TABLE
  2
DIMSTYLE
  5
A
330
0
100
AcDbSymbolTable
 70
     1
100
AcDbDimStyleTable
  0
DIMSTYLE
105
27
102
{ACAD_REACTORS
330
26B
330
27F
330
28C
330
299
330
2A6
330
2B3
330
2BE
330
2C9
102
}
330
A
100
AcDbSymbolTableRecord
100
AcDbDimStyleTableRecord
  2
ISO-25
 70
     0
 41
2.5
 42
0.625
 43
3.75
 44
1.25
 73
     0
 74
     0
 77
     1
 78
     8
140
2.5
141
2.5
143
0.03937007874016
147
0.625
171
     3
172
     1
178
     0
271
     2
272
     2
274
     3
278
    44
283
     0
284
     8
340
11
  0
ENDTAB
  0
TABLE
  2
BLOCK_RECORD
  5
1
330
0
100
AcDbSymbolTable
 70
    11
  0
BLOCK_RECORD
  5
1F
330
1
100
AcDbSymbolTableRecord
100
AcDbBlockTableRecord
  2
*Model_Space
340
22
  0
BLOCK_RECORD
  5
1B
330
1
100
AcDbSymbolTableRecord
100
AcDbBlockTableRecord
  2
*Paper_Space
340
1E
  0
BLOCK_RECORD
  5
23
330
1
100
AcDbSymbolTableRecord
100
AcDbBlockTableRecord
  2
*Paper_Space0
340
26
  0
BLOCK_RECORD
  5
44
330
1
100
AcDbSymbolTableRecord
100
AcDbBlockTableRecord
  2
DTL0001
340
0
  0
BLOCK_RECORD
  5
26C
330
1
100
AcDbSymbolTableRecord
100
AcDbBlockTableRecord
  2
_OPEN30
340
0
102
{BLKREFS
331
27A
331
279
331
287
331
286
331
294
331
293
331
2A1
331
2A0
331
2AE
331
2AD
331
2B9
331
2B8
331
2C4
331
2C3
331
2CF
331
2CE
102
}
  0
BLOCK_RECORD
  5
273
330
1
100
AcDbSymbolTableRecord
100
AcDbBlockTableRecord
  2
*D3
340
0
  0
BLOCK_RECORD
  5
280
330
1
100
AcDbSymbolTableRecord
100
AcDbBlockTableRecord
  2
*D4
340
0
  0
BLOCK_RECORD
  5
28D
330
1
100
AcDbSymbolTableRecord
100
AcDbBlockTableRecord
  2
*D5
340
0
  0
BLOCK_RECORD
  5
29A
330
1
100
AcDbSymbolTableRecord
100
AcDbBlockTableRecord
  2
*D6
340
0
  0
BLOCK_RECORD
  5
2A7
330
1
100
AcDbSymbolTableRecord
100
AcDbBlockTableRecord
  2
*D7
340
0
  0
BLOCK_RECORD
  5
2B4
330
1
100
AcDbSymbolTableRecord
100
AcDbBlockTableRecord
  2
*D8
340
0
  0
BLOCK_RECORD
  5
2BF
330
1
100
AcDbSymbolTableRecord
100
AcDbBlockTableRecord
  2
*D9
340
0
  0
BLOCK_RECORD
  5
2CA
330
1
100
AcDbSymbolTableRecord
100
AcDbBlockTableRecord
  2
*D10
340
0
  0
ENDTAB
  0
ENDSEC
  0
SECTION
  2
BLOCKS
  0
BLOCK
  5
20
330
1F
100
AcDbEntity
  8
0
100
AcDbBlockBegin
  2
*Model_Space
 70
     0
 10
0.0
 20
0.0
 30
0.0
  3
*Model_Space
  1

  0
ENDBLK
  5
21
330
1F
100
AcDbEntity
  8
0
100
AcDbBlockEnd
  0
BLOCK
  5
1C
330
1B
100
AcDbEntity
 67
     1
  8
0
100
AcDbBlockBegin
  2
*Paper_Space
 70
     0
 10
0.0
 20
0.0
 30
0.0
  3
*Paper_Space
  1

  0
ENDBLK
  5
1D
330
1B
100
AcDbEntity
 67
     1
  8
0
100
AcDbBlockEnd
  0
BLOCK
  5
24
330
23
100
AcDbEntity
  8
0
100
AcDbBlockBegin
  2
*Paper_Space0
 70
     0
 10
0.0
 20
0.0
 30
0.0
  3
*Paper_Space0
  1

  0
ENDBLK
  5
25
330
23
100
AcDbEntity
  8
0
100
AcDbBlockEnd
  0
BLOCK
  5
45
330
44
100
AcDbEntity
  8
0
100
AcDbBlockBegin
  2
DTL0001
 70
     0
 10
0.0
 20
0.0
 30
0.0
  3
DTL0001
  1

  0
LWPOLYLINE
  5
47
330
44
100
AcDbEntity
  8
0
  6
Continuous
 62
     0
100
AcDbPolyline
 90
        2
 70
     0
 10
65.99999999999994
 20
-129.0
 40
0.001000000047497
 41
0.001000000047497
 10
65.99999999999994
 20
-120.0
 40
0.001000000047497
 41
0.001000000047497
  0
LINE
  5
48
330
44
100
AcDbEntity
  8
0
  6
Continuous
 62
     0
370
    50
100
AcDbLine
 10
-84.50000000000006
 20
138.0
 30
0.0
 11
-84.50000000000006
 21
-138.0
 31
0.0
  0
LINE
  5
49
330
44
100
AcDbEntity
  8
0
  6
Continuous
 62
     0
370
    50
100
AcDbLine
 10
-84.50000000000006
 20
138.0
 30
0.0
 11
95.99999999999994
 21
138.0
 31
0.0
  0
LINE
  5
4A
330
44
100
AcDbEntity
  8
0
  6
Continuous
 62
     0
370
    50
100
AcDbLine
 10
-84.50000000000006
 20
-138.0
 30
0.0
 11
95.99999999999994
 21
-138.0
 31
0.0
  0
LWPOLYLINE
  5
4B
330
44
100
AcDbEntity
  8
0
  6
Continuous
 62
     0
100
AcDbPolyline
 90
        2
 70
     0
 10
95.99999999999994
 20
-129.0
 40
0.001000000047497
 41
0.001000000047497
 10
-84.50000000000006
 20
-129.0
 40
0.001000000047497
 41
0.001000000047497
  0
LINE
  5
4C
330
44
100
AcDbEntity
  8
0
  6
Continuous
 62
     0
370
    20
100
AcDbLine
 10
-84.50000000000006
 20
-120.0
 30
0.0
 11
95.99999999999994
 21
-120.0
 31
0.0
  0
LINE
  5
4D
330
44
100
AcDbEntity
  8
0
  6
Continuous
 62
     0
370
    50
100
AcDbLine
 10
95.99999999999994
 20
138.0
 30
0.0
 11
95.99999999999994
 21
-138.0
 31
0.0
  0
LWPOLYLINE
  5
4E
330
44
100
AcDbEntity
  8
0
  6
Continuous
 62
     0
100
AcDbPolyline
 90
        2
 70
     0
 10
25.74999999999994
 20
-129.0
 40
0.001000000047497
 41
0.001000000047497
 10
25.74999999999994
 20
-120.0
 40
0.001000000047497
 41
0.001000000047497
  0
LWPOLYLINE
  5
4F
330
44
100
AcDbEntity
  8
0
  6
Continuous
 62
     0
100
AcDbPolyline
 90
        2
 70
     0
 10
-64.50000000000006
 20
-138.0
 40
0.001000000047497
 41
0.001000000047497
 10
-64.50000000000006
 20
-120.0
 40
0.001000000047497
 41
0.001000000047497
  0
LWPOLYLINE
  5
50
330
44
100
AcDbEntity
  8
0
  6
Continuous
 62
     0
100
AcDbPolyline
 90
        2
 70
     0
 10
80.99999999999994
 20
-129.0
 40
0.001000000047497
 41
0.001000000047497
 10
80.99999999999994
 20
-120.0
 40
0.001000000047497
 41
0.001000000047497
  0
LWPOLYLINE
  5
51
330
44
100
AcDbEntity
  8
0
  6
Continuous
 62
     0
100
AcDbPolyline
 90
        2
 70
     0
 10
5.749999999999943
 20
-138.0
 40
0.001000000047497
 41
0.001000000047497
 10
5.749999999999943
 20
-120.0
 40
0.001000000047497
 41
0.001000000047497
  0
MTEXT
  5
52
330
44
100
AcDbEntity
  8
0
 62
     1
100
AcDbMText
 10
-49.94401833052467
 20
-136.1779066697619
 30
0.0
 40
4.800000190734863
 41
0.0
 71
     7
 72
     1
  1
{\W0.833333;仮称「2006ＳＩ」}
 73
     1
 44
1.0
  0
MTEXT
  5
53
330
44
100
AcDbEntity
  8
0
 62
     1
100
AcDbMText
 10
-80.92857193946844
 20
-126.5
 30
0.0
 40
4.0
 41
0.0
 71
     7
 72
     1
  1
{\W2.08333;品名}
 73
     1
 44
1.0
  0
MTEXT
  5
54
330
44
100
AcDbEntity
  8
0
 62
     1
100
AcDbMText
 10
-80.92857193946844
 20
-135.5
 30
0.0
 40
4.0
 41
0.0
 71
     7
 72
     1
  1
{\W2.08333;規格}
 73
     1
 44
1.0
  0
MTEXT
  5
55
330
44
100
AcDbEntity
  8
0
 62
     1
100
AcDbMText
 10
67.57142806053156
 20
-126.5
 30
0.0
 40
4.0
 41
0.0
 71
     7
 72
     1
  1
{\W1.875;尺度}
 73
     1
 44
1.0
  0
MTEXT
  5
56
330
44
100
AcDbEntity
  8
0
 62
     1
100
AcDbMText
 10
-53.4719703699414
 20
-126.921505029578
 30
0.0
 40
4.800000190734863
 41
0.0
 71
     7
 72
     1
  1
{\W0.833333;内ソケット}
 73
     1
 44
1.0
  0
MTEXT
  5
57
330
44
100
AcDbEntity
  8
0
 62
     1
100
AcDbMText
 10
86.01577980279916
 20
-126.921505029578
 30
0.0
 40
4.800000190734863
 41
0.0
 71
     7
 72
     1
  1
{\W0.605742;１／2}
 73
     1
 44
1.0
  0
MTEXT
  5
58
330
44
100
AcDbEntity
  8
0
 62
     1
100
AcDbMText
 10
34.21923028795339
 20
-126.921505029578
 30
0.0
 40
4.800000190734863
 41
0.0
 71
     7
 72
     1
  1
{\W0.833333;硬質塩ビ}
 73
     1
 44
1.0
  0
MTEXT
  5
59
330
44
100
AcDbEntity
  8
0
 62
     1
100
AcDbMText
 10
9.32142806053156
 20
-126.5
 30
0.0
 40
4.0
 41
0.0
 71
     7
 72
     1
  1
{\W2.08333;材質}
 73
     1
 44
1.0
  0
MTEXT
  5
5A
330
44
100
AcDbEntity
  8
0
 62
     1
100
AcDbMText
 10
15.06785583496087
 20
-135.75
 30
0.0
 40
4.5
 41
0.0
 71
     7
 72
     1
  1
{\W1.40741;電気化学工業株式会社}
 73
     1
 44
1.0
  0
ENDBLK
  5
46
330
44
100
AcDbEntity
  8
0
100
AcDbBlockEnd
  0
BLOCK
  5
26D
330
26C
100
AcDbEntity
  8
0
100
AcDbBlockBegin
  2
_OPEN30
 70
     0
 10
0.0
 20
0.0
 30
0.0
  3
_OPEN30
  1

  0
LINE
  5
26F
330
26C
100
AcDbEntity
  8
0
  6
ByBlock
 62
     0
370
    -2
100
AcDbLine
 10
-1.0
 20
0.267949
 30
0.0
 11
0.0
 21
0.0
 31
0.0
  0
LINE
  5
270
330
26C
100
AcDbEntity
  8
0
  6
ByBlock
 62
     0
370
    -2
100
AcDbLine
 10
0.0
 20
0.0
 30
0.0
 11
-1.0
 21
-0.267949
 31
0.0
  0
LINE
  5
271
330
26C
100
AcDbEntity
  8
0
  6
ByBlock
 62
     0
370
    -2
100
AcDbLine
 10
0.0
 20
0.0
 30
0.0
 11
-1.0
 21
0.0
 31
0.0
  0
ENDBLK
  5
26E
330
26C
100
AcDbEntity
  8
0
100
AcDbBlockEnd
  0
BLOCK
  5
274
330
273
100
AcDbEntity
  8
0
100
AcDbBlockBegin
  2
*D3
 70
     1
 10
0.0
 20
0.0
 30
0.0
  3
*D3
  1

  0
LINE
  5
276
330
273
100
AcDbEntity
  8
0
 62
     0
370
    -2
100
AcDbLine
 10
-32.63551552936026
 20
-44.18351539355975
 30
0.0
 11
-32.63551552936026
 21
-56.07850929004411
 31
0.0
  0
LINE
  5
277
330
273
100
AcDbEntity
  8
0
 62
     0
370
    -2
100
AcDbLine
 10
12.46448719146672
 20
-44.18351539355975
 30
0.0
 11
12.46448719146672
 21
-56.07850929004412
 31
0.0
  0
LINE
  5
278
330
273
100
AcDbEntity
  8
0
 62
     0
370
    -2
100
AcDbLine
 10
-29.63551552936026
 20
-53.79250929004411
 30
0.0
 11
9.464487191466718
 21
-53.79250929004412
 31
0.0
  0
INSERT
  5
279
330
273
100
AcDbEntity
  8
0
 62
     0
370
    -2
100
AcDbBlockReference
  2
_OPEN30
 10
-32.63551552936026
 20
-53.79250929004411
 30
0.0
 41
3.0
 42
3.0
 43
3.0
 50
180.0
  0
INSERT
  5
27A
330
273
100
AcDbEntity
  8
0
 62
     0
370
    -2
100
AcDbBlockReference
  2
_OPEN30
 10
12.46448719146672
 20
-53.79250929004412
 30
0.0
 41
3.0
 42
3.0
 43
3.0
 50
360.0
  0
MTEXT
  5
27B
330
273
100
AcDbEntity
  8
0
 62
     1
100
AcDbMText
 10
-10.08451416894683
 20
-51.37810925406675
 30
0.0
 40
3.200000047683716
 41
0.0
 71
     5
 72
     1
  1
90
 73
     1
 44
1.0
  0
POINT
  5
27C
330
273
100
AcDbEntity
  8
Defpoints
 62
     0
100
AcDbPoint
 10
-32.63551552936026
 20
-41.64351539355975
 30
0.0
  0
POINT
  5
27D
330
273
100
AcDbEntity
  8
Defpoints
 62
     0
100
AcDbPoint
 10
12.46448719146672
 20
-41.64351539355975
 30
0.0
  0
POINT
  5
27E
330
273
100
AcDbEntity
  8
Defpoints
 62
     0
100
AcDbPoint
 10
12.46448719146671
 20
-53.79350929004411
 30
0.0
  0
ENDBLK
  5
275
330
273
100
AcDbEntity
  8
0
100
AcDbBlockEnd
  0
BLOCK
  5
281
330
280
100
AcDbEntity
  8
0
100
AcDbBlockBegin
  2
*D4
 70
     1
 10
0.0
 20
0.0
 30
0.0
  3
*D4
  1

  0
LINE
  5
283
330
280
100
AcDbEntity
  8
0
 62
     0
370
    -2
100
AcDbLine
 10
-35.17551552936032
 20
-41.64351539355974
 30
0.0
 11
-71.75070839526484
 21
-41.64351539355974
 31
0.0
  0
LINE
  5
284
330
280
100
AcDbEntity
  8
0
 62
     0
370
    -2
100
AcDbLine
 10
-54.08240611860975
 20
0.106488421137527
 30
0.0
 11
-71.75070839526482
 21
0.106488421137527
 31
0.0
  0
LINE
  5
285
330
280
100
AcDbEntity
  8
0
 62
     0
370
    -2
100
AcDbLine
 10
-69.46470839526484
 20
-38.64351539355974
 30
0.0
 11
-69.46470839526482
 21
-2.893511578862473
 31
0.0
  0
INSERT
  5
286
330
280
100
AcDbEntity
  8
0
 62
     0
370
    -2
100
AcDbBlockReference
  2
_OPEN30
 10
-69.46470839526484
 20
-41.64351539355974
 30
0.0
 41
3.0
 42
3.0
 43
3.0
 50
270.0
  0
INSERT
  5
287
330
280
100
AcDbEntity
  8
0
 62
     0
370
    -2
100
AcDbBlockReference
  2
_OPEN30
 10
-69.46470839526482
 20
0.106488421137527
 30
0.0
 41
3.0
 42
3.0
 43
3.0
 50
89.99999999999999
  0
MTEXT
  5
288
330
280
100
AcDbEntity
  8
0
 62
     1
100
AcDbMText
 10
-71.88550843133756
 20
-20.7675134862111
 30
0.0
 40
3.200000047683716
 41
0.0
 71
     5
 72
     1
  1
83.5
 11
3.403797225570397E-16
 21
1.0
 31
0.0
 73
     1
 44
1.0
  0
POINT
  5
289
330
280
100
AcDbEntity
  8
Defpoints
 62
     0
100
AcDbPoint
 10
-32.63551552936032
 20
-41.64351539355974
 30
0.0
  0
POINT
  5
28A
330
280
100
AcDbEntity
  8
Defpoints
 62
     0
100
AcDbPoint
 10
-51.54240611860975
 20
0.106488421137527
 30
0.0
  0
POINT
  5
28B
330
280
100
AcDbEntity
  8
Defpoints
 62
     0
100
AcDbPoint
 10
-69.46570839526483
 20
0.106488421137531
 30
0.0
  0
ENDBLK
  5
282
330
280
100
AcDbEntity
  8
0
100
AcDbBlockEnd
  0
BLOCK
  5
28E
330
28D
100
AcDbEntity
  8
0
100
AcDbBlockBegin
  2
*D5
 70
     1
 10
0.0
 20
0.0
 30
0.0
  3
*D5
  1

  0
LINE
  5
290
330
28D
100
AcDbEntity
  8
0
 62
     0
370
    -2
100
AcDbLine
 10
15.00448719146666
 20
-41.64351539355974
 30
0.0
 11
32.00425584704634
 21
-41.64351539355974
 31
0.0
  0
LINE
  5
291
330
28D
100
AcDbEntity
  8
0
 62
     0
370
    -2
100
AcDbLine
 10
19.5205558451395
 20
-8.643515393559738
 30
0.0
 11
32.00425584704634
 21
-8.643515393559738
 31
0.0
  0
LINE
  5
292
330
28D
100
AcDbEntity
  8
0
 62
     0
370
    -2
100
AcDbLine
 10
29.71825584704633
 20
-38.64351539355974
 30
0.0
 11
29.71825584704634
 21
-11.64351539355974
 31
0.0
  0
INSERT
  5
293
330
28D
100
AcDbEntity
  8
0
 62
     0
370
    -2
100
AcDbBlockReference
  2
_OPEN30
 10
29.71825584704633
 20
-41.64351539355974
 30
0.0
 41
3.0
 42
3.0
 43
3.0
 50
270.0
  0
INSERT
  5
294
330
28D
100
AcDbEntity
  8
0
 62
     0
370
    -2
100
AcDbBlockReference
  2
_OPEN30
 10
29.71825584704634
 20
-8.643515393559738
 30
0.0
 41
3.0
 42
3.0
 43
3.0
 50
89.99999999999999
  0
MTEXT
  5
295
330
28D
100
AcDbEntity
  8
0
 62
     1
100
AcDbMText
 10
27.30385581106897
 20
-25.14251539355974
 30
0.0
 40
3.200000047683716
 41
0.0
 71
     5
 72
     1
  1
66
 11
2.153159805333637E-16
 21
1.0
 31
0.0
 73
     1
 44
1.0
  0
POINT
  5
296
330
28D
100
AcDbEntity
  8
Defpoints
 62
     0
100
AcDbPoint
 10
12.46448719146666
 20
-41.64351539355974
 30
0.0
  0
POINT
  5
297
330
28D
100
AcDbEntity
  8
Defpoints
 62
     0
100
AcDbPoint
 10
16.98055584513951
 20
-8.643515393559738
 30
0.0
  0
POINT
  5
298
330
28D
100
AcDbEntity
  8
Defpoints
 62
     0
100
AcDbPoint
 10
29.71825584704634
 20
-8.64351539355974
 30
0.0
  0
ENDBLK
  5
28F
330
28D
100
AcDbEntity
  8
0
100
AcDbBlockEnd
  0
BLOCK
  5
29B
330
29A
100
AcDbEntity
  8
0
100
AcDbBlockBegin
  2
*D6
 70
     1
 10
0.0
 20
0.0
 30
0.0
  3
*D6
  1

  0
LINE
  5
29D
330
29A
100
AcDbEntity
  8
0
 62
     0
370
    -2
100
AcDbLine
 10
-58.10571801349118
 20
37.25648460644024
 30
0.0
 11
-71.75070839526484
 21
37.25648460644024
 31
0.0
  0
LINE
  5
29E
330
29A
100
AcDbEntity
  8
0
 62
     0
370
    -2
100
AcDbLine
 10
-58.10571801349118
 20
107.9564846064403
 30
0.0
 11
-71.75070839526482
 21
107.9564846064403
 31
0.0
  0
LINE
  5
29F
330
29A
100
AcDbEntity
  8
0
 62
     0
370
    -2
100
AcDbLine
 10
-69.46470839526484
 20
40.25648460644024
 30
0.0
 11
-69.46470839526482
 21
104.9564846064403
 31
0.0
  0
INSERT
  5
2A0
330
29A
100
AcDbEntity
  8
0
 62
     0
370
    -2
100
AcDbBlockReference
  2
_OPEN30
 10
-69.46470839526484
 20
37.25648460644024
 30
0.0
 41
3.0
 42
3.0
 43
3.0
 50
270.0
  0
INSERT
  5
2A1
330
29A
100
AcDbEntity
  8
0
 62
     0
370
    -2
100
AcDbBlockReference
  2
_OPEN30
 10
-69.46470839526482
 20
107.9564846064403
 30
0.0
 41
3.0
 42
3.0
 43
3.0
 50
89.99999999999999
  0
MTEXT
  5
2A2
330
29A
100
AcDbEntity
  8
0
 62
     1
100
AcDbMText
 10
-71.86470843102761
 20
72.60748460644027
 30
0.0
 40
3.200000047683716
 41
0.0
 71
     5
 72
     1
  1
141
 11
2.010021883338330E-16
 21
1.0
 31
0.0
 73
     1
 44
1.0
  0
POINT
  5
2A3
330
29A
100
AcDbEntity
  8
Defpoints
 62
     0
100
AcDbPoint
 10
-55.56571801349118
 20
37.25648460644024
 30
0.0
  0
POINT
  5
2A4
330
29A
100
AcDbEntity
  8
Defpoints
 62
     0
100
AcDbPoint
 10
-55.56571801349118
 20
107.9564846064403
 30
0.0
  0
POINT
  5
2A5
330
29A
100
AcDbEntity
  8
Defpoints
 62
     0
100
AcDbPoint
 10
-69.46570839526483
 20
107.9564846064403
 30
0.0
  0
ENDBLK
  5
29C
330
29A
100
AcDbEntity
  8
0
100
AcDbBlockEnd
  0
BLOCK
  5
2A8
330
2A7
100
AcDbEntity
  8
0
100
AcDbBlockBegin
  2
*D7
 70
     1
 10
0.0
 20
0.0
 30
0.0
  3
*D7
  1

  0
LINE
  5
2AA
330
2A7
100
AcDbEntity
  8
0
 62
     0
370
    -2
100
AcDbLine
 10
-56.90570992114379
 20
32.35648460644026
 30
0.0
 11
-81.75070839526484
 21
32.35648460644026
 31
0.0
  0
LINE
  5
2AB
330
2A7
100
AcDbEntity
  8
0
 62
     0
370
    -2
100
AcDbLine
 10
-56.90570992114379
 20
112.8564846064403
 30
0.0
 11
-81.75070839526482
 21
112.8564846064403
 31
0.0
  0
LINE
  5
2AC
330
2A7
100
AcDbEntity
  8
0
 62
     0
370
    -2
100
AcDbLine
 10
-79.46470839526484
 20
35.35648460644026
 30
0.0
 11
-79.46470839526482
 21
109.8564846064403
 31
0.0
  0
INSERT
  5
2AD
330
2A7
100
AcDbEntity
  8
0
 62
     0
370
    -2
100
AcDbBlockReference
  2
_OPEN30
 10
-79.46470839526484
 20
32.35648460644026
 30
0.0
 41
3.0
 42
3.0
 43
3.0
 50
270.0
  0
INSERT
  5
2AE
330
2A7
100
AcDbEntity
  8
0
 62
     0
370
    -2
100
AcDbBlockReference
  2
_OPEN30
 10
-79.46470839526482
 20
112.8564846064403
 30
0.0
 41
3.0
 42
3.0
 43
3.0
 50
89.99999999999999
  0
MTEXT
  5
2AF
330
2A7
100
AcDbEntity
  8
0
 62
     1
100
AcDbMText
 10
-81.87910843124219
 20
72.60748460644027
 30
0.0
 40
3.200000047683716
 41
0.0
 71
     5
 72
     1
  1
161
 11
1.765323567105839E-16
 21
1.0
 31
0.0
 73
     1
 44
1.0
  0
POINT
  5
2B0
330
2A7
100
AcDbEntity
  8
Defpoints
 62
     0
100
AcDbPoint
 10
-54.36570992114379
 20
32.35648460644026
 30
0.0
  0
POINT
  5
2B1
330
2A7
100
AcDbEntity
  8
Defpoints
 62
     0
100
AcDbPoint
 10
-54.36570992114379
 20
112.8564846064403
 30
0.0
  0
POINT
  5
2B2
330
2A7
100
AcDbEntity
  8
Defpoints
 62
     0
100
AcDbPoint
 10
-79.46570839526483
 20
112.8564846064403
 30
0.0
  0
ENDBLK
  5
2A9
330
2A7
100
AcDbEntity
  8
0
100
AcDbBlockEnd
  0
BLOCK
  5
2B5
330
2B4
100
AcDbEntity
  8
0
100
AcDbBlockBegin
  2
*D8
 70
     1
 10
0.0
 20
0.0
 30
0.0
  3
*D8
  1

  0
LINE
  5
2B7
330
2B4
100
AcDbEntity
  8
0
 62
     0
370
    -2
100
AcDbLine
 10
-10.08451919017636
 20
35.35648460644026
 30
0.0
 11
-10.08451919017635
 21
45.85648460644025
 31
0.0
  0
INSERT
  5
2B8
330
2B4
100
AcDbEntity
  8
0
 62
     0
370
    -2
100
AcDbBlockReference
  2
_OPEN30
 10
-10.08451919017636
 20
32.35648460644026
 30
0.0
 41
3.0
 42
3.0
 43
3.0
 50
270.0
  0
INSERT
  5
2B9
330
2B4
100
AcDbEntity
  8
0
 62
     0
370
    -2
100
AcDbBlockReference
  2
_OPEN30
 10
-10.08451919017635
 20
48.85648460644025
 30
0.0
 41
3.0
 42
3.0
 43
3.0
 50
89.99999999999999
  0
MTEXT
  5
2BA
330
2B4
100
AcDbEntity
  8
0
 62
     1
100
AcDbMText
 10
-12.49891922615372
 20
40.60748460644026
 30
0.0
 40
3.200000047683716
 41
0.0
 71
     5
 72
     1
  1
33
 11
2.153159805333639E-16
 21
1.0
 31
0.0
 73
     1
 44
1.0
  0
POINT
  5
2BB
330
2B4
100
AcDbEntity
  8
Defpoints
 62
     0
100
AcDbPoint
 10
18.43565268871951
 20
32.35648460644026
 30
0.0
  0
POINT
  5
2BC
330
2B4
100
AcDbEntity
  8
Defpoints
 62
     0
100
AcDbPoint
 10
14.79327704266136
 20
48.85648460644025
 30
0.0
  0
POINT
  5
2BD
330
2B4
100
AcDbEntity
  8
Defpoints
 62
     0
100
AcDbPoint
 10
-10.08551919017636
 20
48.85648460644025
 30
0.0
  0
ENDBLK
  5
2B6
330
2B4
100
AcDbEntity
  8
0
100
AcDbBlockEnd
  0
BLOCK
  5
2C0
330
2BF
100
AcDbEntity
  8
0
100
AcDbBlockBegin
  2
*D9
 70
     1
 10
0.0
 20
0.0
 30
0.0
  3
*D9
  1

  0
LINE
  5
2C2
330
2BF
100
AcDbEntity
  8
0
 62
     0
370
    -2
100
AcDbLine
 10
-10.08451919017636
 20
51.85648460644025
 30
0.0
 11
-10.08451919017635
 21
93.35648460644026
 31
0.0
  0
INSERT
  5
2C3
330
2BF
100
AcDbEntity
  8
0
 62
     0
370
    -2
100
AcDbBlockReference
  2
_OPEN30
 10
-10.08451919017636
 20
48.85648460644025
 30
0.0
 41
3.0
 42
3.0
 43
3.0
 50
270.0
  0
INSERT
  5
2C4
330
2BF
100
AcDbEntity
  8
0
 62
     0
370
    -2
100
AcDbBlockReference
  2
_OPEN30
 10
-10.08451919017635
 20
96.35648460644026
 30
0.0
 41
3.0
 42
3.0
 43
3.0
 50
89.99999999999999
  0
MTEXT
  5
2C5
330
2BF
100
AcDbEntity
  8
0
 62
     1
100
AcDbMText
 10
-12.49891922615372
 20
72.60748460644027
 30
0.0
 40
3.200000047683716
 41
0.0
 71
     5
 72
     1
  1
95
 11
1.869849304631842E-16
 21
1.0
 31
0.0
 73
     1
 44
1.0
  0
POINT
  5
2C6
330
2BF
100
AcDbEntity
  8
Defpoints
 62
     0
100
AcDbPoint
 10
14.79327704266136
 20
48.85648460644025
 30
0.0
  0
POINT
  5
2C7
330
2BF
100
AcDbEntity
  8
Defpoints
 62
     0
100
AcDbPoint
 10
14.79327704266136
 20
96.35648460644026
 30
0.0
  0
POINT
  5
2C8
330
2BF
100
AcDbEntity
  8
Defpoints
 62
     0
100
AcDbPoint
 10
-10.08551919017636
 20
96.35648460644026
 30
0.0
  0
ENDBLK
  5
2C1
330
2BF
100
AcDbEntity
  8
0
100
AcDbBlockEnd
  0
BLOCK
  5
2CB
330
2CA
100
AcDbEntity
  8
0
100
AcDbBlockBegin
  2
*D10
 70
     1
 10
0.0
 20
0.0
 30
0.0
  3
*D10
  1

  0
LINE
  5
2CD
330
2CA
100
AcDbEntity
  8
0
 62
     0
370
    -2
100
AcDbLine
 10
-10.08451919017636
 20
99.35648460644026
 30
0.0
 11
-10.08451919017635
 21
109.8564846064403
 31
0.0
  0
INSERT
  5
2CE
330
2CA
100
AcDbEntity
  8
0
 62
     0
370
    -2
100
AcDbBlockReference
  2
_OPEN30
 10
-10.08451919017636
 20
96.35648460644026
 30
0.0
 41
3.0
 42
3.0
 43
3.0
 50
270.0
  0
INSERT
  5
2CF
330
2CA
100
AcDbEntity
  8
0
 62
     0
370
    -2
100
AcDbBlockReference
  2
_OPEN30
 10
-10.08451919017635
 20
112.8564846064403
 30
0.0
 41
3.0
 42
3.0
 43
3.0
 50
89.99999999999999
  0
MTEXT
  5
2D0
330
2CA
100
AcDbEntity
  8
0
 62
     1
100
AcDbMText
 10
-12.49891922615372
 20
104.6074846064403
 30
0.0
 40
3.200000047683716
 41
0.0
 71
     5
 72
     1
  1
33
 11
2.153159805333637E-16
 21
1.0
 31
0.0
 73
     1
 44
1.0
  0
POINT
  5
2D1
330
2CA
100
AcDbEntity
  8
Defpoints
 62
     0
100
AcDbPoint
 10
14.79327704266136
 20
96.35648460644026
 30
0.0
  0
POINT
  5
2D2
330
2CA
100
AcDbEntity
  8
Defpoints
 62
     0
100
AcDbPoint
 10
18.43565268871951
 20
112.8564846064403
 30
0.0
  0
POINT
  5
2D3
330
2CA
100
AcDbEntity
  8
Defpoints
 62
     0
100
AcDbPoint
 10
-10.08551919017636
 20
112.8564846064403
 30
0.0
  0
ENDBLK
  5
2CC
330
2CA
100
AcDbEntity
  8
0
100
AcDbBlockEnd
  0
ENDSEC
  0
SECTION
  2
ENTITIES
  0
LINE
  5
5B
330
1F
100
AcDbEntity
  8
0
  6
Continuous
 62
     2
100
AcDbLine
 10
-49.70762724619613
 20
-10.66661438108131
 30
0.0
 11
-50.71617652889474
 21
-10.03160188553866
 31
0.0
  0
LINE
  5
5C
330
1F
100
AcDbEntity
  8
0
  6
Continuous
 62
     2
100
AcDbLine
 10
-50.57682379360311
 20
2.369573363931384
 30
0.0
 11
-50.51062831640711
 21
1.106488421137536
 31
0.0
  0
LINE
  5
5D
330
1F
100
AcDbEntity
  8
0
  6
Continuous
 62
     2
100
AcDbLine
 10
-49.44121773883298
 20
-10.74349765521745
 30
0.0
 11
-48.02652199908688
 21
-10.74349765521745
 31
0.0
  0
LINE
  5
5E
330
1F
100
AcDbEntity
  8
0
  6
Continuous
 62
     2
100
AcDbLine
 10
-38.93048879074004
 20
-21.17011702916165
 30
0.0
 11
-25.49312939606038
 21
-34.60747642384132
 31
0.0
  0
LINE
  5
5F
330
1F
100
AcDbEntity
  8
0
  6
Continuous
 62
     2
100
AcDbLine
 10
-46.86243088081798
 20
-13.32869289027588
 30
0.0
 11
-44.22667080896671
 21
-13.55929201566392
 31
0.0
  0
LINE
  5
60
330
1F
100
AcDbEntity
  8
0
  6
Continuous
 62
     2
100
AcDbLine
 10
-47.3149460115937
 20
-12.89304164230932
 30
0.0
 11
-47.53044478936826
 21
-11.1810532331408
 31
0.0
  0
LINE
  5
61
330
1F
100
AcDbEntity
  8
0
  6
Continuous
 62
     2
100
AcDbLine
 10
-46.47511138501496
 20
-8.45700789438506
 30
0.0
 11
-43.58201064327663
 21
-8.71012141098665
 31
0.0
  0
LINE
  5
62
330
1F
100
AcDbEntity
  8
0
  6
Continuous
 62
     2
100
AcDbLine
 10
-46.87660186263601
 20
-4.908186341992686
 30
0.0
 11
-46.70298246191046
 21
-8.221041843948266
 31
0.0
  0
LINE
  5
63
330
1F
100
AcDbEntity
  8
0
  6
Continuous
 62
     2
100
AcDbLine
 10
-50.05107779559243
 20
-3.550312109680257
 30
0.0
 11
-48.01594396132923
 21
-3.72836324841652
 31
0.0
  0
LINE
  5
64
330
1F
100
AcDbEntity
  8
0
  6
Continuous
 62
     2
100
AcDbLine
 10
-39.28404218133348
 20
-21.52367041975494
 30
0.0
 11
-25.84668278665382
 21
-34.9610298144346
 31
0.0
  0
LINE
  5
65
330
1F
100
AcDbEntity
  8
0
  6
Continuous
 62
     2
100
AcDbLine
 10
11.60368086651384
 20
-17.24351339084367
 30
0.0
 11
12.42545630291521
 21
-17.24351339084367
 31
0.0
  0
LINE
  5
66
330
1F
100
AcDbEntity
  8
0
  6
Continuous
 62
     2
100
AcDbLine
 10
-20.54337914630368
 20
-38.24351386768083
 30
0.0
 11
2.067248600278489
 21
-38.24351386768083
 31
0.0
  0
LINE
  5
67
330
1F
100
AcDbEntity
  8
0
  6
Continuous
 62
     2
100
AcDbLine
 10
-19.12916787311032
 20
-37.74351386768083
 30
0.0
 11
1.06587912396013
 21
-37.74351386768083
 31
0.0
  0
LINE
  5
68
330
1F
100
AcDbEntity
  8
0
  6
Continuous
 62
     2
100
AcDbLine
 10
8.056285555619203
 20
-31.10986543036561
 30
0.0
 11
8.609162887394415
 21
-20.56033753876028
 31
0.0
  0
LINE
  5
69
330
1F
100
AcDbEntity
  8
0
  6
Continuous
 62
     2
100
AcDbLine
 10
7.708631578894607
 20
53.85648604889867
 30
0.0
 11
7.234149104565852
 21
58.85648790576022
 31
0.0
  0
LINE
  5
6A
330
1F
100
AcDbEntity
  8
0
  6
Continuous
 62
     2
100
AcDbLine
 10
-40.67010720416489
 20
58.85648613231915
 30
0.0
 11
12.61028982952654
 21
58.85648613231915
 31
0.0
  0
LINE
  5
6B
330
1F
100
AcDbEntity
  8
0
  6
Continuous
 62
     2
100
AcDbLine
 10
12.92056586102073
 20
53.85648613231913
 30
0.0
 11
12.92056586102073
 21
91.35648308056139
 31
0.0
  0
LINE
  5
6C
330
1F
100
AcDbEntity
  8
0
  6
Continuous
 62
     2
100
AcDbLine
 10
12.61028982952659
 20
53.85648613231913
 30
0.0
 11
12.61028982952659
 21
91.35648308056139
 31
0.0
  0
LINE
  5
6D
330
1F
100
AcDbEntity
  8
0
  6
Continuous
 62
     2
100
AcDbLine
 10
-46.6666282002587
 20
53.85648613231916
 30
0.0
 11
-46.6666282002587
 21
91.35648308056136
 31
0.0
  0
LINE
  5
6E
330
1F
100
AcDbEntity
  8
0
  6
Continuous
 62
     2
100
AcDbLine
 10
-46.90115578814932
 20
53.85648613231916
 30
0.0
 11
-46.90115578814932
 21
91.35648308056136
 31
0.0
  0
LINE
  5
6F
330
1F
100
AcDbEntity
  8
0
  6
Continuous
 62
     2
100
AcDbLine
 10
-37.67339515370065
 20
53.85648629005586
 30
0.0
 11
-37.25188631688516
 21
58.85648625609628
 31
0.0
  0
LINE
  5
70
330
1F
100
AcDbEntity
  8
0
  6
Continuous
 62
     3
100
AcDbLine
 10
-30.93551858111813
 20
-43.79350929004411
 30
0.0
 11
9.668624180112474
 21
-43.79350929004411
 31
0.0
  0
LINE
  5
71
330
1F
100
AcDbEntity
  8
0
  6
Continuous
 62
     3
100
AcDbLine
 10
14.79328085735862
 20
-4.493513867680853
 30
0.0
 11
14.79328085735862
 21
-7.643515393559738
 31
0.0
  0
LINE
  5
72
330
1F
100
AcDbEntity
  8
0
  6
Continuous
 62
     3
100
AcDbLine
 10
15.93085824448712
 20
-6.380430642510705
 30
0.0
 11
15.89086658932808
 21
-7.143516877529716
 31
0.0
  0
LINE
  5
73
330
1F
100
AcDbEntity
  8
0
  6
Continuous
 62
     3
100
AcDbLine
 10
18.44756449874214
 20
-6.389150421958823
 30
0.0
 11
18.48691453218365
 21
-8.643512448514922
 31
0.0
  0
LINE
  5
74
330
1F
100
AcDbEntity
  8
0
  6
Continuous
 62
     3
100
AcDbLine
 10
19.69192091691517
 20
-5.502241085110446
 30
0.0
 11
19.41613098060334
 21
-21.30223679926478
 31
0.0
  0
LINE
  5
75
330
1F
100
AcDbEntity
  8
0
  6
Continuous
 62
     3
100
AcDbLine
 10
18.4869131199313
 20
-8.643512503907534
 30
0.0
 11
18.28173996874006
 21
-20.39787509172803
 31
0.0
  0
LINE
  5
76
330
1F
100
AcDbEntity
  8
0
  6
Continuous
 62
     3
100
AcDbLine
 10
-52.55793984576657
 20
4.006488039667786
 30
0.0
 11
-47.81570656939938
 21
4.006488039667786
 31
0.0
  0
LINE
  5
77
330
1F
100
AcDbEntity
  8
0
  6
Continuous
 62
     3
100
AcDbLine
 10
-50.46330321659356
 20
1.856488421137513
 30
0.0
 11
-49.31570656939938
 21
1.856488421137513
 31
0.0
  0
LINE
  5
78
330
1F
100
AcDbEntity
  8
0
  6
Continuous
 62
     3
100
AcDbLine
 10
-52.57000296839771
 20
2.610850782087484
 30
0.0
 11
-52.5907209092187
 21
1.423920683929354
 31
0.0
  0
LINE
  5
79
330
1F
100
AcDbEntity
  8
0
  6
Continuous
 62
     3
100
AcDbLine
 10
15.69634863520623
 20
-22.03042850041167
 30
0.0
 11
14.8115684274344
 21
-38.91304050741706
 31
0.0
  0
LINE
  5
7A
330
1F
100
AcDbEntity
  8
0
  6
Continuous
 62
     3
100
AcDbLine
 10
15.29511323237817
 20
-21.79350929004411
 30
0.0
 11
18.91620566204607
 21
-21.79350929004411
 31
0.0
  0
LINE
  5
7B
330
1F
100
AcDbEntity
  8
0
  6
Continuous
 62
     3
100
AcDbLine
 10
-49.7157119099755
 20
43.60648403423565
 30
0.0
 11
-49.7157119099755
 21
43.85648365276593
 31
0.0
  0
LINE
  5
7C
330
1F
100
AcDbEntity
  8
0
  6
Continuous
 62
     3
100
AcDbLine
 10
-52.32004006549313
 20
2.856488421137513
 30
0.0
 11
-50.75296242877438
 21
2.856488421137513
 31
0.0
  0
LINE
  5
7D
330
1F
100
AcDbEntity
  8
0
  6
Continuous
 62
     3
100
AcDbLine
 10
-50.50329472353003
 20
2.619571827889749
 30
0.0
 11
-50.46330321810537
 21
1.856488449972755
 31
0.0
  0
LINE
  5
7E
330
1F
100
AcDbEntity
  8
0
  6
Continuous
 62
     3
100
AcDbLine
 10
-47.56570656939932
 20
3.756488039667786
 30
0.0
 11
-47.56570656939932
 21
3.606488421137513
 31
0.0
  0
LINE
  5
7F
330
1F
100
AcDbEntity
  8
0
  6
Continuous
 62
     3
100
AcDbLine
 10
16.18051840618669
 20
-6.143513486211106
 30
0.0
 11
18.19760062054216
 21
-6.143513486211106
 31
0.0
  0
LINE
  5
80
330
1F
100
AcDbEntity
  8
0
  6
Continuous
 62
     3
100
AcDbLine
 10
-40.76721413775876
 20
-35.69351081592302
 30
0.0
 11
-39.03552468463376
 21
-35.69351081592302
 31
0.0
  0
LINE
  5
81
330
1F
100
AcDbEntity
  8
0
  6
Continuous
 62
     3
100
AcDbLine
 10
-47.56571038409659
 20
49.35545303611869
 30
0.0
 11
-47.56571038409659
 21
53.3564846302821
 31
0.0
  0
LINE
  5
82
330
1F
100
AcDbEntity
  8
0
  6
Continuous
 62
     3
100
AcDbLine
 10
-49.46571190997555
 20
49.35648451107281
 30
0.0
 11
-48.26570733233883
 21
49.35648451107281
 31
0.0
  0
LINE
  5
83
330
1F
100
AcDbEntity
  8
0
  6
Continuous
 62
     3
100
AcDbLine
 10
-49.56571801349112
 20
53.8564846302821
 30
0.0
 11
-49.56571801349112
 21
91.35648458259843
 31
0.0
  0
LINE
  5
84
330
1F
100
AcDbEntity
  8
0
  6
Continuous
 62
     3
100
AcDbLine
 10
-49.06571801349118
 20
53.3564846302821
 30
0.0
 11
-47.56571801349118
 21
53.3564846302821
 31
0.0
  0
LINE
  5
85
330
1F
100
AcDbEntity
  8
0
  6
Continuous
 62
     3
100
AcDbLine
 10
-52.82943566485831
 20
37.25648460644024
 30
0.0
 11
-52.82943566485831
 21
43.85648365276593
 31
0.0
  0
LINE
  5
86
330
1F
100
AcDbEntity
  8
0
  6
Continuous
 62
     3
100
AcDbLine
 10
-55.56571801349112
 20
37.25648460644024
 30
0.0
 11
-55.56571801349112
 21
43.85648365276593
 31
0.0
  0
LINE
  5
87
330
1F
100
AcDbEntity
  8
0
  6
Continuous
 62
     3
100
AcDbLine
 10
-52.91560349351847
 20
0.856488421137513
 30
0.0
 11
-52.85878340845294
 21
0.856488421137513
 31
0.0
  0
LINE
  5
88
330
1F
100
AcDbEntity
  8
0
  6
Continuous
 62
     3
100
AcDbLine
 10
18.42692776449881
 20
-8.143513486211106
 30
0.0
 11
18.47818701829941
 21
-8.143513486211106
 31
0.0
  0
LINE
  5
89
330
1F
100
AcDbEntity
  8
0
  6
Continuous
 62
     3
100
AcDbLine
 10
19.70079924419944
 20
37.25648460644024
 30
0.0
 11
19.70079924419944
 21
107.9564846064403
 31
0.0
  0
LINE
  5
8A
330
1F
100
AcDbEntity
  8
0
  6
Continuous
 62
     3
100
AcDbLine
 10
-55.56571801349118
 20
37.25648460644024
 30
0.0
 11
-47.56571038409659
 21
37.25648460644024
 31
0.0
  0
LINE
  5
8B
330
1F
100
AcDbEntity
  8
0
  6
Continuous
 62
     3
100
AcDbLine
 10
-40.54901345416501
 20
-34.54351310474138
 30
0.0
 11
-39.03552468463376
 21
-34.54351310474138
 31
0.0
  0
LINE
  5
8C
330
1F
100
AcDbEntity
  8
0
  6
Continuous
 62
     3
100
AcDbLine
 10
15.09193350628435
 20
-20.64351157886247
 30
0.0
 11
18.03177573040544
 21
-20.64351157886247
 31
0.0
  0
LINE
  5
8D
330
1F
100
AcDbEntity
  8
0
  6
Continuous
 62
     3
100
AcDbLine
 10
15.79328085735857
 20
-7.143515393559738
 30
0.0
 11
15.89086666709987
 21
-7.143515393559738
 31
0.0
  0
LINE
  5
8E
330
1F
100
AcDbEntity
  8
0
  6
Continuous
 62
     3
100
AcDbLine
 10
-30.93551858111813
 20
-42.64351539355974
 30
0.0
 11
9.668624180112474
 21
-42.64351539355974
 31
0.0
  0
LINE
  5
8F
330
1F
100
AcDbEntity
  8
0
  6
Continuous
 62
     3
100
AcDbLine
 10
14.59262165171362
 20
-21.11734378605789
 30
0.0
 11
13.663142938693
 21
-38.8528540776088
 31
0.0
  0
LINE
  5
90
330
1F
100
AcDbEntity
  8
0
  6
Continuous
 62
     3
100
AcDbLine
 10
-49.34898598834469
 20
-12.04349784595232
 30
0.0
 11
-49.01532204791501
 21
-12.04349784595232
 31
0.0
  0
LINE
  5
91
330
1F
100
AcDbEntity
  8
0
  6
Continuous
 62
     3
100
AcDbLine
 10
-47.56571038409659
 20
37.25648460644024
 30
0.0
 11
-47.56571038409659
 21
43.35751550918977
 31
0.0
  0
LINE
  5
92
330
1F
100
AcDbEntity
  8
0
  6
Continuous
 62
     3
100
AcDbLine
 10
14.79327704266136
 20
37.25648460644024
 30
0.0
 11
14.79327704266136
 21
107.9564846064403
 31
0.0
  0
LINE
  5
93
330
1F
100
AcDbEntity
  8
0
  6
Continuous
 62
     3
100
AcDbLine
 10
-49.46571190997555
 20
43.35648403423565
 30
0.0
 11
-48.26570733233883
 21
43.35648403423565
 31
0.0
  0
LINE
  5
94
330
1F
100
AcDbEntity
  8
0
  6
Continuous
 62
     3
100
AcDbLine
 10
15.29328085735857
 20
-3.993513867680846
 30
0.0
 11
19.19200064495622
 21
-3.993513867680846
 31
0.0
  0
LINE
  5
95
330
1F
100
AcDbEntity
  8
0
  6
Continuous
 62
     3
100
AcDbLine
 10
19.69200064495628
 20
-4.493513867680853
 30
0.0
 11
19.69200064495628
 21
-5.493513867680846
 31
0.0
  0
LINE
  5
96
330
1F
100
AcDbEntity
  8
0
  6
Continuous
 62
     3
100
AcDbLine
 10
14.7932770426613
 20
38.25648460644024
 30
0.0
 11
19.70079924419939
 21
38.25648460644024
 31
0.0
  0
LINE
  5
97
330
1F
100
AcDbEntity
  8
0
  6
Continuous
 62
     2
100
AcDbLine
 10
-49.56571801349112
 20
53.85648613231915
 30
0.0
 11
14.79327704266136
 21
53.85648613231915
 31
0.0
  0
LINE
  5
98
330
1F
100
AcDbEntity
  8
0
  6
Continuous
 62
     2
100
AcDbLine
 10
8.229895847593
 20
58.85648613231916
 30
0.0
 11
8.229895847593
 21
86.35648308056136
 31
0.0
  0
LINE
  5
99
330
1F
100
AcDbEntity
  8
0
  6
Continuous
 62
     2
100
AcDbLine
 10
7.234145420346906
 20
58.85648613231916
 30
0.0
 11
7.234145420346906
 21
86.35648308056136
 31
0.0
  0
LINE
  5
9A
330
1F
100
AcDbEntity
  8
0
  6
Continuous
 62
     2
100
AcDbLine
 10
-40.67010720416495
 20
58.85648613231916
 30
0.0
 11
-40.67010720416495
 21
86.35648308056136
 31
0.0
  0
LINE
  5
9B
330
1F
100
AcDbEntity
  8
0
  6
Continuous
 62
     2
100
AcDbLine
 10
14.06800963238298
 20
-19.24351315242509
 30
0.0
 11
15.82372595623552
 21
-19.24351315242509
 31
0.0
  0
LINE
  5
9C
330
1F
100
AcDbEntity
  8
0
  6
Continuous
 62
     2
100
AcDbLine
 10
9.556972642057648
 20
-31.13603392270894
 30
0.0
 11
10.10573579578566
 21
-20.66500922442599
 31
0.0
  0
LINE
  5
9D
330
1F
100
AcDbEntity
  8
0
  6
Continuous
 62
     2
100
AcDbLine
 10
16.44892050579607
 20
-6.643513486211106
 30
0.0
 11
17.90939648234648
 21
-6.643513486211106
 31
0.0
  0
LINE
  5
9E
330
1F
100
AcDbEntity
  8
0
  6
Continuous
 62
     2
100
AcDbLine
 10
-19.12916787311032
 20
-37.24351386768083
 30
0.0
 11
1.06587912396013
 21
-37.24351386768083
 31
0.0
  0
LINE
  5
9F
330
1F
100
AcDbEntity
  8
0
  6
Continuous
 62
     2
100
AcDbLine
 10
7.556970788248198
 20
-31.08369745212655
 30
0.0
 11
8.108476713823325
 21
-20.56033754956149
 31
0.0
  0
LINE
  5
A0
330
1F
100
AcDbEntity
  8
0
  6
Continuous
 62
     2
100
AcDbLine
 10
12.67511316692621
 20
-17.00659743325356
 30
0.0
 11
12.8978183149721
 21
-12.75713008148048
 31
0.0
  0
LINE
  5
A1
330
1F
100
AcDbEntity
  8
0
  6
Continuous
 62
     2
100
AcDbLine
 10
13.35355456864718
 20
-12.28520051714321
 30
0.0
 11
15.91682808437216
 21
-12.06094314365575
 31
0.0
  0
LINE
  5
A2
330
1F
100
AcDbEntity
  8
0
  6
Continuous
 62
     2
100
AcDbLine
 10
11.60368086651384
 20
-19.24351315242509
 30
0.0
 11
16.58457686260759
 21
-19.24351315242509
 31
0.0
  0
LINE
  5
A3
330
1F
100
AcDbEntity
  8
0
  6
Continuous
 62
     2
100
AcDbLine
 10
-41.17269429091051
 20
53.85648655783406
 30
0.0
 11
-40.670111181373
 21
58.85648713929599
 31
0.0
  0
LINE
  5
A4
330
1F
100
AcDbEntity
  8
0
  6
Continuous
 62
     2
100
AcDbLine
 10
16.17269950463582
 20
-8.643515393559754
 30
0.0
 11
16.14503044083841
 21
-11.81407607983247
 31
0.0
  0
LINE
  5
A5
330
1F
100
AcDbEntity
  8
0
  6
Continuous
 62
     2
100
AcDbLine
 10
17.1710749722359
 20
-8.834031720065239
 30
0.0
 11
17.08455816020156
 21
-18.74787647268177
 31
0.0
  0
LINE
  5
A6
330
1F
100
AcDbEntity
  8
0
  6
Continuous
 62
     2
100
AcDbLine
 10
-23.7070868794578
 20
58.85648613231913
 30
0.0
 11
-23.7070868794578
 21
86.35648308056139
 31
0.0
  0
LINE
  5
A7
330
1F
100
AcDbEntity
  8
0
  6
Continuous
 62
     2
100
AcDbLine
 10
-37.25187905475089
 20
58.85648613231916
 30
0.0
 11
-37.25187905475089
 21
86.35648308056136
 31
0.0
  0
LINE
  5
A8
330
1F
100
AcDbEntity
  8
0
  6
Continuous
 62
     2
100
AcDbLine
 10
-23.9141996662761
 20
53.85648629885895
 30
0.0
 11
-23.70709288277213
 21
58.85648653506223
 31
0.0
  0
LINE
  5
A9
330
1F
100
AcDbEntity
  8
0
  6
Continuous
 62
     2
100
AcDbLine
 10
8.730579232429628
 20
53.85648676242972
 30
0.0
 11
8.229893147930396
 21
58.85648597419048
 31
0.0
  0
LINE
  5
AA
330
1F
100
AcDbEntity
  8
0
  6
Continuous
 62
     2
100
AcDbLine
 10
-40.34469965571495
 20
-22.58433328893297
 30
0.0
 11
-27.61444973962014
 21
-35.31458320502778
 31
0.0
  0
LINE
  5
AB
330
1F
100
AcDbEntity
  8
0
  6
Continuous
 62
     2
100
AcDbLine
 10
-19.12916787311026
 20
53.85648613231911
 30
0.0
 11
-19.12916787311026
 21
91.35648308056142
 31
0.0
  0
LINE
  5
AC
330
1F
100
AcDbEntity
  8
0
  6
Continuous
 62
     2
100
AcDbLine
 10
1.065879123960073
 20
53.85648613231916
 30
0.0
 11
1.065879123960073
 21
91.35648308056136
 31
0.0
  0
LINE
  5
AD
330
1F
100
AcDbEntity
  8
0
  6
Continuous
 62
     7
100
AcDbLine
 10
15.04545564969855
 20
-22.03042517638316
 30
0.0
 11
14.16245807954342
 21
-38.87902243151282
 31
0.0
  0
LINE
  5
AE
330
1F
100
AcDbEntity
  8
0
  6
Continuous
 62
     7
100
AcDbLine
 10
-30.93551672434411
 20
-43.14350776416521
 30
0.0
 11
9.668625083212063
 21
-43.14350776416521
 31
0.0
  0
LINE
  5
AF
330
1F
100
AcDbEntity
  8
0
  6
Continuous
 62
     7
100
AcDbLine
 10
-40.76721228098474
 20
-35.04350929004411
 30
0.0
 11
-39.03552282785974
 21
-35.04350929004411
 31
0.0
  0
LINE
  5
B0
330
1F
100
AcDbEntity
  8
0
  6
Continuous
 62
     7
100
AcDbLine
 10
-49.63341177439294
 20
-13.1709907506154
 30
0.0
 11
-49.16283834909997
 21
-13.1709907506154
 31
0.0
  0
LINE
  5
B1
330
1F
100
AcDbEntity
  8
0
  6
Continuous
 62
     2
100
AcDbLine
 10
-51.06372231891102
 20
2.606489374811844
 30
0.0
 11
-50.82648117728822
 21
2.606489374811844
 31
0.0
  0
LINE
  5
B2
330
1F
100
AcDbEntity
  8
0
  6
Continuous
 62
     7
100
AcDbLine
 10
-50.46330321659384
 20
1.856488421137513
 30
0.0
 11
-50.46330321659384
 21
1.356488421137513
 31
0.0
  0
LINE
  5
B3
330
1F
100
AcDbEntity
  8
0
  6
Continuous
 62
   220
100
AcDbLine
 10
-39.94701291815808
 20
-33.39351634723405
 30
0.0
 11
-39.08551694647839
 21
-33.39351634723405
 31
0.0
  0
LINE
  5
B4
330
1F
100
AcDbEntity
  8
0
  6
Continuous
 62
   220
100
AcDbLine
 10
-30.88551547444065
 20
-41.64351539355974
 30
0.0
 11
9.617591215012496
 21
-41.64351539355974
 31
0.0
  0
LINE
  5
B5
330
1F
100
AcDbEntity
  8
0
  6
Continuous
 62
     4
100
AcDbLine
 10
-40.39277292771443
 20
-22.63625624970687
 30
0.0
 11
-27.7144519750825
 21
-35.3145772023388
 31
0.0
  0
LINE
  5
B6
330
1F
100
AcDbEntity
  8
0
  6
Continuous
 62
     4
100
AcDbLine
 10
-47.14781299219609
 20
-13.41100250681116
 30
0.0
 11
-44.65034911424496
 21
-13.62950228305947
 31
0.0
  0
LINE
  5
B7
330
1F
100
AcDbEntity
  8
0
  6
Continuous
 62
     4
100
AcDbLine
 10
14.31607754313744
 20
-20.39351539355974
 30
0.0
 11
17.73920757853794
 21
-20.39351539355974
 31
0.0
  0
LINE
  5
B8
330
1F
100
AcDbEntity
  8
0
  6
Continuous
 62
     4
100
AcDbLine
 10
18.43565495950526
 20
-8.64351607121543
 30
0.0
 11
18.23913318004293
 21
-19.90224187813574
 31
0.0
  0
LINE
  5
B9
330
1F
100
AcDbEntity
  8
0
  6
Continuous
 62
     4
100
AcDbLine
 10
18.40932038712659
 20
-7.134787458202194
 30
0.0
 11
18.43565531499445
 21
-8.643514545960386
 31
0.0
  0
LINE
  5
BA
330
1F
100
AcDbEntity
  8
0
  6
Continuous
 62
     4
100
AcDbLine
 10
16.98055793455306
 20
-8.643514682382415
 30
0.0
 11
17.23055820422901
 21
-8.893514952058363
 31
0.0
  0
LINE
  5
BB
330
1F
100
AcDbEntity
  8
0
  6
Continuous
 62
     4
100
AcDbLine
 10
17.23055584513945
 20
-8.893515393559746
 30
0.0
 11
17.23055584513945
 21
-19.14351539355975
 31
0.0
  0
LINE
  5
BC
330
1F
100
AcDbEntity
  8
0
  6
Continuous
 62
     4
100
AcDbLine
 10
14.8055566080789
 20
-7.64351157886248
 30
0.0
 11
14.8055566080789
 21
-8.14351157886248
 31
0.0
  0
LINE
  5
BD
330
1F
100
AcDbEntity
  8
0
  6
Continuous
 62
     4
100
AcDbLine
 10
12.1805566080789
 20
-8.14351157886248
 30
0.0
 11
12.1805566080789
 21
-10.14351157886248
 31
0.0
  0
LINE
  5
BE
330
1F
100
AcDbEntity
  8
0
  6
Continuous
 62
     4
100
AcDbLine
 10
13.1805566080789
 20
-8.89351157886248
 30
0.0
 11
13.1805566080789
 21
-9.64351157886248
 31
0.0
  0
LINE
  5
BF
330
1F
100
AcDbEntity
  8
0
  6
Continuous
 62
     4
100
AcDbLine
 10
12.68055660807885
 20
-7.643515393559738
 30
0.0
 11
16.18055661362767
 21
-7.643515393559738
 31
0.0
  0
LINE
  5
C0
330
1F
100
AcDbEntity
  8
0
  6
Continuous
 62
     4
100
AcDbLine
 10
12.18055660807885
 20
-10.14351539355974
 30
0.0
 11
12.68055660807885
 21
-10.14351539355974
 31
0.0
  0
LINE
  5
C1
330
1F
100
AcDbEntity
  8
0
  6
Continuous
 62
     4
100
AcDbLine
 10
13.43055660807885
 20
-8.643515393559738
 30
0.0
 11
16.98055584513951
 21
-8.643515393559738
 31
0.0
  0
LINE
  5
C2
330
1F
100
AcDbEntity
  8
0
  6
Continuous
 62
     4
100
AcDbLine
 10
13.11279687594575
 20
-38.82669205342469
 30
0.0
 11
14.06642255246764
 21
-20.63043025278891
 31
0.0
  0
LINE
  5
C3
330
1F
100
AcDbEntity
  8
0
  6
Continuous
 62
     4
100
AcDbLine
 10
12.61348210857451
 20
-38.80052407518566
 30
0.0
 11
13.60572787340286
 21
-19.86734709400349
 31
0.0
  0
LINE
  5
C4
330
1F
100
AcDbEntity
  8
0
  6
Continuous
 62
     4
100
AcDbLine
 10
13.61211164331709
 20
-38.85286003166379
 30
0.0
 11
14.56710868704575
 21
-20.63043098602472
 31
0.0
  0
LINE
  5
C5
330
1F
100
AcDbEntity
  8
0
  6
Continuous
 62
     4
100
AcDbLine
 10
11.64934094035424
 20
-19.39351539355974
 30
0.0
 11
16.98055584513951
 21
-19.39351539355974
 31
0.0
  0
LINE
  5
C6
330
1F
100
AcDbEntity
  8
0
  6
Continuous
 62
     4
100
AcDbLine
 10
-50.51570956623756
 20
1.106488421137527
 30
0.0
 11
-47.11570956623758
 21
1.106488421137527
 31
0.0
  0
LINE
  5
C7
330
1F
100
AcDbEntity
  8
0
  6
Continuous
 62
     4
100
AcDbLine
 10
-52.01315524494852
 20
2.356488421137527
 30
0.0
 11
-50.81845770268798
 21
2.356488421137527
 31
0.0
  0
LINE
  5
C8
330
1F
100
AcDbEntity
  8
0
  6
Continuous
 62
     4
100
AcDbLine
 10
-52.51308006751979
 20
1.865214268617601
 30
0.0
 11
-52.52650344822755
 21
1.096189261801182
 31
0.0
  0
LINE
  5
C9
330
1F
100
AcDbEntity
  8
0
  6
Continuous
 62
     4
100
AcDbLine
 10
-49.86570956623753
 20
1.10648842113752
 30
0.0
 11
-49.86570956623753
 21
0.60648842113752
 31
0.0
  0
LINE
  5
CA
330
1F
100
AcDbEntity
  8
0
  6
Continuous
 62
     4
100
AcDbLine
 10
-49.46570838095121
 20
1.506475274599245
 30
0.0
 11
-49.07727313658715
 21
1.402394363687758
 31
0.0
  0
LINE
  5
CB
330
1F
100
AcDbEntity
  8
0
  6
Continuous
 62
     4
100
AcDbLine
 10
-49.46570804035862
 20
4.260800554926583
 30
0.0
 11
-49.46570804035862
 21
4.006488039667786
 31
0.0
  0
LINE
  5
CC
330
1F
100
AcDbEntity
  8
0
  6
Continuous
 62
     4
100
AcDbLine
 10
-48.45713215798178
 20
5.115201758728766
 30
0.0
 11
-48.4377794890634
 21
4.006488039667799
 31
0.0
  0
LINE
  5
CD
330
1F
100
AcDbEntity
  8
0
  6
Continuous
 62
     4
100
AcDbLine
 10
-59.46571566975321
 20
5.606475069697098
 30
0.0
 11
-48.95705630696024
 21
5.606475069697098
 31
0.0
  0
LINE
  5
CE
330
1F
100
AcDbEntity
  8
0
  6
Continuous
 62
     4
100
AcDbLine
 10
-59.46571566975315
 20
5.60647506969709
 30
0.0
 11
-59.46571566975315
 21
5.172373964960762
 31
0.0
  0
LINE
  5
CF
330
1F
100
AcDbEntity
  8
0
  6
Continuous
 62
     4
100
AcDbLine
 10
-58.97444003867498
 20
4.672450304355111
 30
0.0
 11
-49.71134758827372
 21
4.510762432841442
 31
0.0
  0
LINE
  5
D0
330
1F
100
AcDbEntity
  8
0
  6
Continuous
 62
     4
100
AcDbLine
 10
-51.54240609133227
 20
0.106487900632473
 30
0.0
 11
-51.02259183720105
 21
-9.812158889974071
 31
0.0
  0
LINE
  5
D1
330
1F
100
AcDbEntity
  8
0
  6
Continuous
 62
     4
100
AcDbLine
 10
-52.42554690754618
 20
1.106488421137527
 30
0.0
 11
-51.46570956623761
 21
1.106488421137527
 31
0.0
  0
LINE
  5
D2
330
1F
100
AcDbEntity
  8
0
  6
Continuous
 62
     4
100
AcDbLine
 10
-46.61570956623753
 20
0.60650177257795
 30
0.0
 11
-46.61570956623753
 21
-1.643500134770683
 31
0.0
  0
LINE
  5
D3
330
1F
100
AcDbEntity
  8
0
  6
Continuous
 62
     4
100
AcDbLine
 10
-47.11570956623758
 20
-1.643500134770676
 30
0.0
 11
-46.61570956623758
 21
-1.643500134770676
 31
0.0
  0
LINE
  5
D4
330
1F
100
AcDbEntity
  8
0
  6
Continuous
 62
     4
100
AcDbLine
 10
-47.61570956623753
 20
0.10650177257795
 30
0.0
 11
-47.61570956623753
 21
-1.143500134770683
 31
0.0
  0
LINE
  5
D5
330
1F
100
AcDbEntity
  8
0
  6
Continuous
 62
     4
100
AcDbLine
 10
-51.54240611860975
 20
0.106488421137527
 30
0.0
 11
-47.61570956623758
 21
0.106488421137527
 31
0.0
  0
LINE
  5
D6
330
1F
100
AcDbEntity
  8
0
  6
Continuous
 62
     4
100
AcDbLine
 10
-51.98999017580761
 20
-10.46042156614949
 30
0.0
 11
-51.98680542552632
 21
-10.52119022130928
 31
0.0
  0
LINE
  5
D7
330
1F
100
AcDbEntity
  8
0
  6
Continuous
 62
     4
100
AcDbLine
 10
-51.98680470632821
 20
-10.52118749365977
 30
0.0
 11
-51.76197822595333
 21
-10.65898437988255
 31
0.0
  0
LINE
  5
D8
330
1F
100
AcDbEntity
  8
0
  6
Continuous
 62
     4
100
AcDbLine
 10
-49.44433810627665
 20
-10.89350013477068
 30
0.0
 11
-48.07438876545633
 21
-10.89350013477068
 31
0.0
  0
LINE
  5
D9
330
1F
100
AcDbEntity
  8
0
  6
Continuous
 62
     4
100
AcDbLine
 10
-50.90357170300263
 20
-10.01222330011487
 30
0.0
 11
-49.52582894274336
 21
-10.85664635056316
 31
0.0
  0
LINE
  5
DA
330
1F
100
AcDbEntity
  8
0
  6
Continuous
 62
     4
100
AcDbLine
 10
-49.6301672688743
 20
-11.89349632007341
 30
0.0
 11
-48.25192477619852
 21
-11.89349632007341
 31
0.0
  0
LINE
  5
DB
330
1F
100
AcDbEntity
  8
0
  6
Continuous
 62
     4
100
AcDbLine
 10
-20.64338138020243
 20
-38.24351386768083
 30
0.0
 11
2.12077267253197
 21
-38.24351386768083
 31
0.0
  0
LINE
  5
DC
330
1F
100
AcDbEntity
  8
0
  6
Continuous
 62
     4
100
AcDbLine
 10
-39.9970114461204
 20
-33.89351539355974
 30
0.0
 11
-39.1355154744406
 21
-33.89351539355974
 31
0.0
  0
LINE
  5
DD
330
1F
100
AcDbEntity
  8
0
  6
Continuous
 62
     4
100
AcDbLine
 10
-30.93551852619852
 20
-42.14351539355974
 30
0.0
 11
9.667594266770251
 21
-42.14351539355974
 31
0.0
  0
LINE
  5
DE
330
1F
100
AcDbEntity
  8
0
  6
Continuous
 62
     4
100
AcDbLine
 10
-45.50611331379618
 20
-15.89349632007341
 30
0.0
 11
-45.09468295490946
 21
-15.89349632007341
 31
0.0
  0
LINE
  5
DF
330
1F
100
AcDbEntity
  8
0
  6
Continuous
 62
     4
100
AcDbLine
 10
10.7499306925515
 20
-41.64351539355974
 30
0.0
 11
12.46448452555931
 21
-41.64351539355974
 31
0.0
  0
LINE
  5
E0
330
1F
100
AcDbEntity
  8
0
  6
Continuous
 62
     4
100
AcDbLine
 10
-30.93551852619852
 20
-42.64351539355974
 30
0.0
 11
9.66862423503197
 21
-42.64351539355974
 31
0.0
  0
LINE
  5
E1
330
1F
100
AcDbEntity
  8
0
  6
Continuous
 62
     4
100
AcDbLine
 10
-32.63551547444065
 20
-40.83045844775897
 30
0.0
 11
-32.63551547444065
 21
-41.64351539355975
 31
0.0
  0
LINE
  5
E2
330
1F
100
AcDbEntity
  8
0
  6
Continuous
 62
     4
100
AcDbLine
 10
-42.80482699787821
 20
-23.49351386768083
 30
0.0
 11
-40.9487707844993
 21
-23.49351386768083
 31
0.0
  0
LINE
  5
E3
330
1F
100
AcDbEntity
  8
0
  6
Continuous
 62
     4
100
AcDbLine
 10
-42.80482699787821
 20
-23.99351386768083
 30
0.0
 11
-40.9487707844993
 21
-23.99351386768083
 31
0.0
  0
LINE
  5
E4
330
1F
100
AcDbEntity
  8
0
  6
Continuous
 62
     4
100
AcDbLine
 10
-39.81928705248274
 20
-24.20801472692418
 30
0.0
 11
-36.13085348508041
 21
-31.98776529809776
 31
0.0
  0
LINE
  5
E5
330
1F
100
AcDbEntity
  8
0
  6
Continuous
 62
     4
100
AcDbLine
 10
-40.27108206016349
 20
-24.42221386565873
 30
0.0
 11
-36.58264849276117
 21
-32.2019644368323
 31
0.0
  0
LINE
  5
E6
330
1F
100
AcDbEntity
  8
0
  6
Continuous
 62
     4
100
AcDbLine
 10
-40.72287706784461
 20
-24.63641300439325
 30
0.0
 11
-37.03444350044228
 21
-32.41616357556683
 31
0.0
  0
LINE
  5
E7
330
1F
100
AcDbEntity
  8
0
  6
Continuous
 62
     4
100
AcDbLine
 10
-42.80482699787821
 20
-24.49351386768083
 30
0.0
 11
-40.9487707844993
 21
-24.49351386768083
 31
0.0
  0
LINE
  5
E8
330
1F
100
AcDbEntity
  8
0
  6
Continuous
 62
     4
100
AcDbLine
 10
11.86251989519281
 20
-27.81251973019801
 30
0.0
 11
12.09803169934454
 21
-23.3186868238579
 31
0.0
  0
LINE
  5
E9
330
1F
100
AcDbEntity
  8
0
  6
Continuous
 62
     4
100
AcDbLine
 10
11.0230216103599
 20
-34.27743991831462
 30
0.0
 11
11.52233637773102
 21
-34.3036078965537
 31
0.0
  0
LINE
  5
EA
330
1F
100
AcDbEntity
  8
0
  6
Continuous
 62
     4
100
AcDbLine
 10
11.28470119310493
 20
-29.28429605407269
 30
0.0
 11
11.78401596047606
 21
-29.31046403231177
 31
0.0
  0
LINE
  5
EB
330
1F
100
AcDbEntity
  8
0
  6
Continuous
 62
     4
100
AcDbLine
 10
11.33127092614427
 20
-37.94935387814387
 30
0.0
 11
11.44383244301334
 21
-35.80155219866661
 31
0.0
  0
LINE
  5
EC
330
1F
100
AcDbEntity
  8
0
  6
Continuous
 62
     4
100
AcDbLine
 10
2.464484525559371
 20
-39.81851081592303
 30
0.0
 11
2.464484525559371
 21
-40.31851081592303
 31
0.0
  0
LINE
  5
ED
330
1F
100
AcDbEntity
  8
0
  6
Continuous
 62
     4
100
AcDbLine
 10
2.464484525559314
 20
-39.81851081592302
 30
0.0
 11
8.834697080490955
 21
-39.81851081592302
 31
0.0
  0
LINE
  5
EE
330
1F
100
AcDbEntity
  8
0
  6
Continuous
 62
     4
100
AcDbLine
 10
3.964484525559314
 20
-40.31851081592302
 30
0.0
 11
8.834697080490955
 21
-40.31851081592302
 31
0.0
  0
LINE
  5
EF
330
1F
100
AcDbEntity
  8
0
  6
Continuous
 62
     4
100
AcDbLine
 10
2.964484525559314
 20
-40.81851081592302
 30
0.0
 11
8.834697080490955
 21
-40.81851081592302
 31
0.0
  0
LINE
  5
F0
330
1F
100
AcDbEntity
  8
0
  6
Continuous
 62
     4
100
AcDbLine
 10
-2.585515474440584
 20
-39.81851081592303
 30
0.0
 11
-2.585515474440584
 21
-40.31851081592303
 31
0.0
  0
LINE
  5
F1
330
1F
100
AcDbEntity
  8
0
  6
Continuous
 62
     4
100
AcDbLine
 10
-17.08551547444064
 20
-40.81851081592302
 30
0.0
 11
-3.085515474440641
 21
-40.81851081592302
 31
0.0
  0
LINE
  5
F2
330
1F
100
AcDbEntity
  8
0
  6
Continuous
 62
     4
100
AcDbLine
 10
-17.58551547444058
 20
-39.81851081592303
 30
0.0
 11
-17.58551547444058
 21
-40.31851081592303
 31
0.0
  0
LINE
  5
F3
330
1F
100
AcDbEntity
  8
0
  6
Continuous
 62
     4
100
AcDbLine
 10
-22.63551547444065
 20
-39.81851081592303
 30
0.0
 11
-22.63551547444065
 21
-40.31851081592303
 31
0.0
  0
LINE
  5
F4
330
1F
100
AcDbEntity
  8
0
  6
Continuous
 62
     4
100
AcDbLine
 10
-17.58551547444064
 20
-39.81851081592302
 30
0.0
 11
-2.585515474440641
 21
-39.81851081592302
 31
0.0
  0
LINE
  5
F5
330
1F
100
AcDbEntity
  8
0
  6
Continuous
 62
     4
100
AcDbLine
 10
-16.08551547444064
 20
-40.31851081592302
 30
0.0
 11
-4.085515474440641
 21
-40.31851081592302
 31
0.0
  0
LINE
  5
F6
330
1F
100
AcDbEntity
  8
0
  6
Continuous
 62
     4
100
AcDbLine
 10
-30.56667544758513
 20
-40.31851081592302
 30
0.0
 11
-24.1355154744406
 21
-40.31851081592302
 31
0.0
  0
LINE
  5
F7
330
1F
100
AcDbEntity
  8
0
  6
Continuous
 62
     4
100
AcDbLine
 10
10.83195615877321
 20
-37.92318589990487
 30
0.0
 11
11.02302161035952
 21
-34.27743991831423
 31
0.0
  0
LINE
  5
F8
330
1F
100
AcDbEntity
  8
0
  6
Continuous
 62
     4
100
AcDbLine
 10
11.83058569351533
 20
-37.97552185638303
 30
0.0
 11
11.99548316686257
 21
-34.82909064216351
 31
0.0
  0
LINE
  5
F9
330
1F
100
AcDbEntity
  8
0
  6
Continuous
 62
     4
100
AcDbLine
 10
-30.56667544758513
 20
-39.81851081592302
 30
0.0
 11
-22.6355154744406
 21
-39.81851081592302
 31
0.0
  0
LINE
  5
FA
330
1F
100
AcDbEntity
  8
0
  6
Continuous
 62
     4
100
AcDbLine
 10
-30.56667544758513
 20
-40.81851081592302
 30
0.0
 11
-23.1355154744406
 21
-40.81851081592302
 31
0.0
  0
LINE
  5
FB
330
1F
100
AcDbEntity
  8
0
  6
Continuous
 62
     4
100
AcDbLine
 10
-39.9970114461204
 20
-34.39351539355974
 30
0.0
 11
-39.1355154744406
 21
-34.39351539355974
 31
0.0
  0
LINE
  5
FC
330
1F
100
AcDbEntity
  8
0
  6
Continuous
 62
     4
100
AcDbLine
 10
-32.6355154744406
 20
-41.64351539355974
 30
0.0
 11
-31.80803134358122
 21
-41.64351539355974
 31
0.0
  0
LINE
  5
FD
330
1F
100
AcDbEntity
  8
0
  6
Continuous
 62
     4
100
AcDbLine
 10
12.46448722417576
 20
-41.6435158173579
 30
0.0
 11
12.55020236627517
 21
-40.00797348212193
 31
0.0
  0
LINE
  5
FE
330
1F
100
AcDbEntity
  8
0
  6
Continuous
 62
     4
100
AcDbLine
 10
-39.9970114461204
 20
-33.39351157886247
 30
0.0
 11
-39.1355154744406
 21
-33.39351157886247
 31
0.0
  0
LINE
  5
FF
330
1F
100
AcDbEntity
  8
0
  6
Continuous
 62
     4
100
AcDbLine
 10
11.67722086669115
 20
-21.79457454350583
 30
0.0
 11
12.17653563406228
 21
-21.82074252174491
 31
0.0
  0
LINE
  5
100
330
1F
100
AcDbEntity
  8
0
  6
Continuous
 62
     4
100
AcDbLine
 10
11.2847011931045
 20
-29.28429605407235
 30
0.0
 11
11.67722086669072
 21
-21.79457454350553
 31
0.0
  0
LINE
  5
101
330
1F
100
AcDbEntity
  8
0
  6
Continuous
 62
     4
100
AcDbLine
 10
9.610493734918709
 20
-31.13602971123854
 30
0.0
 11
10.15139538020536
 21
-20.815011529421
 31
0.0
  0
LINE
  5
102
330
1F
100
AcDbEntity
  8
0
  6
Continuous
 62
     4
100
AcDbLine
 10
12.30949870608571
 20
-28.83731724317938
 30
0.0
 11
12.64968242319376
 21
-22.34622526735478
 31
0.0
  0
LINE
  5
103
330
1F
100
AcDbEntity
  8
0
  6
Continuous
 62
     4
100
AcDbLine
 10
-59.46570839526483
 20
48.85648460644025
 30
0.0
 11
14.79327704266136
 21
48.85648460644025
 31
0.0
  0
LINE
  5
104
330
1F
100
AcDbEntity
  8
0
  6
Continuous
 62
     4
100
AcDbLine
 10
-52.71975197436639
 20
32.35648460644026
 30
0.0
 11
-52.71975197436639
 21
37.25648460644024
 31
0.0
  0
LINE
  5
105
330
1F
100
AcDbEntity
  8
0
  6
Continuous
 62
     4
100
AcDbLine
 10
-54.36570992114379
 20
32.35648460644026
 30
0.0
 11
18.43565268871951
 21
32.35648460644026
 31
0.0
  0
LINE
  5
106
330
1F
100
AcDbEntity
  8
0
  6
Continuous
 62
     4
100
AcDbLine
 10
12.18055625317264
 20
38.85648460644025
 30
0.0
 11
13.80555816052127
 21
38.85648460644025
 31
0.0
  0
LINE
  5
107
330
1F
100
AcDbEntity
  8
0
  6
Continuous
 62
     4
100
AcDbLine
 10
-45.40307869555785
 20
43.85648460644025
 30
0.0
 11
-24.45531715991332
 21
43.85648460644025
 31
0.0
  0
LINE
  5
108
330
1F
100
AcDbEntity
  8
0
  6
Continuous
 62
     4
100
AcDbLine
 10
-3.424743044080248
 20
44.6603707194031
 30
0.0
 11
-2.585518901340329
 21
48.85649149686805
 31
0.0
  0
LINE
  5
109
330
1F
100
AcDbEntity
  8
0
  6
Continuous
 62
     4
100
AcDbLine
 10
2.464481389271937
 20
48.85649073502946
 30
0.0
 11
3.303705578769588
 21
44.66036972377586
 31
0.0
  0
LINE
  5
10A
330
1F
100
AcDbEntity
  8
0
  6
Continuous
 62
     4
100
AcDbLine
 10
-17.58551829096086
 20
48.85648555661087
 30
0.0
 11
-16.74629559771056
 21
44.66037202659415
 31
0.0
  0
LINE
  5
10B
330
1F
100
AcDbEntity
  8
0
  6
Continuous
 62
     4
100
AcDbLine
 10
10.73261924145395
 20
43.85648460644025
 30
0.0
 11
10.73261924145395
 21
48.85648460644025
 31
0.0
  0
LINE
  5
10C
330
1F
100
AcDbEntity
  8
0
  6
Continuous
 62
     4
100
AcDbLine
 10
4.284285501219514
 20
43.85648460644025
 30
0.0
 11
12.18055625317264
 21
43.85648460644025
 31
0.0
  0
LINE
  5
10D
330
1F
100
AcDbEntity
  8
0
  6
Continuous
 62
     4
100
AcDbLine
 10
-15.76571449878044
 20
43.85648460644025
 30
0.0
 11
-4.405320974610518
 21
43.85648460644025
 31
0.0
  0
LINE
  5
10E
330
1F
100
AcDbEntity
  8
0
  6
Continuous
 62
     4
100
AcDbLine
 10
-54.36570992114373
 20
32.35648460644026
 30
0.0
 11
-54.36570992114373
 21
37.25648460644024
 31
0.0
  0
LINE
  5
10F
330
1F
100
AcDbEntity
  8
0
  6
Continuous
 62
     4
100
AcDbLine
 10
-47.61570992114373
 20
32.35648460644026
 30
0.0
 11
-47.61570992114373
 21
37.25648460644024
 31
0.0
  0
LINE
  5
110
330
1F
100
AcDbEntity
  8
0
  6
Continuous
 62
     4
100
AcDbLine
 10
-47.61570992114373
 20
48.85648460644025
 30
0.0
 11
-47.61570992114373
 21
49.17620519006739
 31
0.0
  0
LINE
  5
111
330
1F
100
AcDbEntity
  8
0
  6
Continuous
 62
     4
100
AcDbLine
 10
-40.13551582934686
 20
32.35648460644026
 30
0.0
 11
-40.13551582934686
 21
43.85648460644025
 31
0.0
  0
LINE
  5
112
330
1F
100
AcDbEntity
  8
0
  6
Continuous
 62
     4
100
AcDbLine
 10
-32.63551582934686
 20
32.35648460644026
 30
0.0
 11
-32.63551582934686
 21
43.85648460644025
 31
0.0
  0
LINE
  5
113
330
1F
100
AcDbEntity
  8
0
  6
Continuous
 62
     4
100
AcDbLine
 10
-46.1125284636242
 20
46.35648460644025
 30
0.0
 11
-46.1125284636242
 21
48.85648460644025
 31
0.0
  0
LINE
  5
114
330
1F
100
AcDbEntity
  8
0
  6
Continuous
 62
     4
100
AcDbLine
 10
-44.88941122126941
 20
43.85648454534682
 30
0.0
 11
-45.09468770964968
 21
48.85648485554824
 31
0.0
  0
LINE
  5
115
330
1F
100
AcDbEntity
  8
0
  6
Continuous
 62
     4
100
AcDbLine
 10
-46.11253321568174
 20
46.35648526367549
 30
0.0
 11
-45.40308277544177
 21
43.85648351448062
 31
0.0
  0
LINE
  5
116
330
1F
100
AcDbEntity
  8
0
  6
Continuous
 62
     4
100
AcDbLine
 10
-22.63551689829514
 20
48.85648564046242
 30
0.0
 11
-23.47473959154544
 21
44.66037211044565
 31
0.0
  0
LINE
  5
117
330
1F
100
AcDbEntity
  8
0
  6
Continuous
 62
     4
100
AcDbLine
 10
-30.81085457446405
 20
43.85648460644025
 30
0.0
 11
-30.81085457446405
 21
48.85648460644025
 31
0.0
  0
LINE
  5
118
330
1F
100
AcDbEntity
  8
0
  6
Continuous
 62
     4
100
AcDbLine
 10
-36.04817452075311
 20
43.85648460644025
 30
0.0
 11
-36.04817452075311
 21
48.85648460644025
 31
0.0
  0
LINE
  5
119
330
1F
100
AcDbEntity
  8
0
  6
Continuous
 62
     4
100
AcDbLine
 10
-42.97940315844842
 20
43.85648460644025
 30
0.0
 11
-42.97940315844842
 21
48.85648460644025
 31
0.0
  0
LINE
  5
11A
330
1F
100
AcDbEntity
  8
0
  6
Continuous
 62
     4
100
AcDbLine
 10
-42.23076119067498
 20
48.85648460644025
 30
0.0
 11
-42.23076119067498
 21
53.85648613231915
 31
0.0
  0
LINE
  5
11B
330
1F
100
AcDbEntity
  8
0
  6
Continuous
 62
     4
100
AcDbLine
 10
-59.46570839526488
 20
43.85648365276593
 30
0.0
 11
-48.36570992114379
 21
43.85648365276593
 31
0.0
  0
LINE
  5
11C
330
1F
100
AcDbEntity
  8
0
  6
Continuous
 62
     4
100
AcDbLine
 10
12.1805562531727
 20
38.85648460644025
 30
0.0
 11
12.1805562531727
 21
48.85648460644025
 31
0.0
  0
LINE
  5
11D
330
1F
100
AcDbEntity
  8
0
  6
Continuous
 62
     4
100
AcDbLine
 10
12.46448417065317
 20
32.35648460644026
 30
0.0
 11
12.46448417065317
 21
38.85648460644025
 31
0.0
  0
LINE
  5
11E
330
1F
100
AcDbEntity
  8
0
  6
Continuous
 62
     4
100
AcDbLine
 10
13.63055892346078
 20
32.35648460644026
 30
0.0
 11
13.63055892346078
 21
38.85648460644025
 31
0.0
  0
LINE
  5
11F
330
1F
100
AcDbEntity
  8
0
  6
Continuous
 62
     4
100
AcDbLine
 10
18.43565268871968
 20
32.35648460644018
 30
0.0
 11
18.43565268871968
 21
37.25648460644024
 31
0.0
  0
LINE
  5
120
330
1F
100
AcDbEntity
  8
0
  6
Continuous
 62
     4
100
AcDbLine
 10
14.80555816052133
 20
33.35648460644025
 30
0.0
 11
14.80555816052133
 21
37.25648460644024
 31
0.0
  0
LINE
  5
121
330
1F
100
AcDbEntity
  8
0
  6
Continuous
 62
     4
100
AcDbLine
 10
9.238005593993122
 20
48.85648460644016
 30
0.0
 11
9.238005593993122
 21
53.85648613231915
 31
0.0
  0
LINE
  5
122
330
1F
100
AcDbEntity
  8
0
  6
Continuous
 62
     4
100
AcDbLine
 10
10.22589393017476
 20
48.85648460644013
 30
0.0
 11
10.22589393017476
 21
53.85648613231915
 31
0.0
  0
LINE
  5
123
330
1F
100
AcDbEntity
  8
0
  6
Continuous
 62
     4
100
AcDbLine
 10
-25.63551582934686
 20
48.85648460644025
 30
0.0
 11
-25.63551582934686
 21
53.85648613231915
 31
0.0
  0
LINE
  5
124
330
1F
100
AcDbEntity
  8
0
  6
Continuous
 62
     4
100
AcDbLine
 10
-38.99843849780389
 20
48.85648460644025
 30
0.0
 11
-38.99843849780389
 21
53.85648613231915
 31
0.0
  0
LINE
  5
125
330
1F
100
AcDbEntity
  8
0
  6
Continuous
 62
     4
100
AcDbLine
 10
2.120772317625935
 20
48.85648460644023
 30
0.0
 11
2.120772317625935
 21
53.85648613231915
 31
0.0
  0
LINE
  5
126
330
1F
100
AcDbEntity
  8
0
  6
Continuous
 62
     4
100
AcDbLine
 10
-49.44433083178826
 20
48.85648460644025
 30
0.0
 11
-49.44433083178826
 21
49.35648451107281
 31
0.0
  0
LINE
  5
127
330
1F
100
AcDbEntity
  8
0
  6
Continuous
 62
     4
100
AcDbLine
 10
-48.36970772387811
 20
43.85648365276593
 30
0.0
 11
-48.36970772387811
 21
48.85648365276593
 31
0.0
  0
LINE
  5
128
330
1F
100
AcDbEntity
  8
0
  6
Continuous
 62
     4
100
AcDbLine
 10
-59.46570839526483
 20
43.85648365276593
 30
0.0
 11
-59.46570839526483
 21
48.85648365276593
 31
0.0
  0
LINE
  5
129
330
1F
100
AcDbEntity
  8
0
  6
Continuous
 62
     4
100
AcDbLine
 10
-49.86570992114373
 20
32.85648460644025
 30
0.0
 11
-49.86570992114373
 21
37.25648460644024
 31
0.0
  0
LINE
  5
12A
330
1F
100
AcDbEntity
  8
0
  6
Continuous
 62
     4
100
AcDbLine
 10
16.18055679913589
 20
32.35648460644026
 30
0.0
 11
16.18055679913589
 21
37.25648460644024
 31
0.0
  0
LINE
  5
12B
330
1F
100
AcDbEntity
  8
0
  6
Continuous
 62
     4
100
AcDbLine
 10
-50.56880296971946
 20
2.119570905615658
 30
0.0
 11
-50.51570955696201
 21
1.106488244138441
 31
0.0
  0
LINE
  5
12C
330
1F
100
AcDbEntity
  8
0
  6
Continuous
 62
     4
100
AcDbLine
 10
-51.45246595391913
 20
1.865214503308337
 30
0.0
 11
-51.46570956623813
 21
1.106488421137588
 31
0.0
  0
LINE
  5
12D
330
1F
100
AcDbEntity
  8
0
  6
Continuous
 62
     4
100
AcDbLine
 10
16.19372410313017
 20
-6.889150384834985
 30
0.0
 11
16.18055660807845
 21
-7.64351571145119
 31
0.0
  0
LINE
  5
12E
330
1F
100
AcDbEntity
  8
0
  6
Continuous
 62
     4
100
AcDbLine
 10
17.12167672081187
 20
-7.134787283458864
 30
0.0
 11
17.13055660807857
 21
-7.643515711451198
 31
0.0
  0
LINE
  5
12F
330
1F
100
AcDbEntity
  8
0
  6
Continuous
 62
     4
100
AcDbLine
 10
17.13055660253006
 20
-7.643515393559738
 30
0.0
 11
17.92685163377824
 21
-7.643515393559738
 31
0.0
  0
LINE
  5
130
330
1F
100
AcDbEntity
  8
0
  6
Continuous
 62
     4
100
AcDbLine
 10
17.13055678803828
 20
32.35648460644026
 30
0.0
 11
17.13055678803828
 21
37.25648460644024
 31
0.0
  0
LINE
  5
131
330
1F
100
AcDbEntity
  8
0
  6
Continuous
 62
     4
100
AcDbLine
 10
-51.46570938072951
 20
32.35648460644026
 30
0.0
 11
-51.46570938072951
 21
37.25648460644024
 31
0.0
  0
LINE
  5
132
330
1F
100
AcDbEntity
  8
0
  6
Continuous
 62
     4
100
AcDbLine
 10
-50.51570938072912
 20
32.35648460644026
 30
0.0
 11
-50.51570938072912
 21
37.25648460644024
 31
0.0
  0
LINE
  5
133
330
1F
100
AcDbEntity
  8
0
  6
Continuous
 62
     7
100
AcDbLine
 10
-103.5904229925713
 20
107.9564823176218
 30
0.0
 11
-103.5904229925713
 21
112.8564823176219
 31
0.0
  0
LINE
  5
134
330
1F
100
AcDbEntity
  8
0
  6
Continuous
 62
     7
100
AcDbLine
 10
-126.0904458807549
 20
107.9564823176218
 30
0.0
 11
-126.0904458807549
 21
108.4123828913523
 31
0.0
  0
LINE
  5
135
330
1F
100
AcDbEntity
  8
0
  6
Continuous
 62
     2
100
AcDbLine
 10
-134.3404458807549
 20
108.4123828913523
 30
0.0
 11
-134.3404458807549
 21
107.9564823176218
 31
0.0
  0
LINE
  5
136
330
1F
100
AcDbEntity
  8
0
  6
Continuous
 62
     7
100
AcDbLine
 10
-104.8679211611239
 20
37.25648231762186
 30
0.0
 11
-104.8679211611239
 21
107.9564823176218
 31
0.0
  0
LINE
  5
137
330
1F
100
AcDbEntity
  8
0
  6
Continuous
 62
     2
100
AcDbLine
 10
-89.84043825136042
 20
112.8564823176219
 30
0.0
 11
-133.8404458807549
 21
112.8564823176219
 31
0.0
  0
LINE
  5
138
330
1F
100
AcDbEntity
  8
0
  6
Continuous
 62
     7
100
AcDbLine
 10
-90.59043825136037
 20
37.25648231762186
 30
0.0
 11
-90.59043825136037
 21
32.35648231762185
 31
0.0
  0
LINE
  5
139
330
1F
100
AcDbEntity
  8
0
  6
Continuous
 62
     7
100
AcDbLine
 10
-86.09045351014943
 20
48.81721154572486
 30
0.0
 11
-86.09045351014943
 21
43.89575308951883
 31
0.0
  0
LINE
  5
13A
330
1F
100
AcDbEntity
  8
0
  6
Continuous
 62
     7
100
AcDbLine
 10
-89.34043825136037
 20
107.9564823176218
 30
0.0
 11
-89.34043825136037
 21
112.3564823176219
 31
0.0
  0
LINE
  5
13B
330
1F
100
AcDbEntity
  8
0
  6
Continuous
 62
     7
100
AcDbLine
 10
-87.69044816957326
 20
43.88179014766011
 30
0.0
 11
-86.09045351014927
 21
43.89575308951882
 31
0.0
  0
LINE
  5
13C
330
1F
100
AcDbEntity
  8
0
  6
Continuous
 62
     7
100
AcDbLine
 10
-87.6904481695733
 20
48.8311744875836
 30
0.0
 11
-86.09045351014933
 21
48.81721154572489
 31
0.0
  0
LINE
  5
13D
330
1F
100
AcDbEntity
  8
0
  6
Continuous
 62
     7
100
AcDbLine
 10
-87.01590288148732
 20
48.82528782003558
 30
0.0
 11
-87.01590288148732
 21
43.88767681520812
 31
0.0
  0
LINE
  5
13E
330
1F
100
AcDbEntity
  8
0
  6
Continuous
 62
     7
100
AcDbLine
 10
-89.34043825136037
 20
37.25648231762186
 30
0.0
 11
-89.34043825136037
 21
32.85648231762185
 31
0.0
  0
LINE
  5
13F
330
1F
100
AcDbEntity
  8
0
  6
Continuous
 62
     7
100
AcDbLine
 10
-90.59043825136037
 20
107.9564823176218
 30
0.0
 11
-90.59043825136037
 21
112.8564823176219
 31
0.0
  0
LINE
  5
140
330
1F
100
AcDbEntity
  8
0
  6
Continuous
 62
     7
100
AcDbLine
 10
-87.69044816957327
 20
96.38179014766013
 30
0.0
 11
-86.0904535101493
 21
96.39575308951885
 31
0.0
  0
LINE
  5
141
330
1F
100
AcDbEntity
  8
0
  6
Continuous
 62
     7
100
AcDbLine
 10
-87.6904481695733
 20
101.3311744875836
 30
0.0
 11
-86.09045351014954
 21
101.3172115457249
 31
0.0
  0
LINE
  5
142
330
1F
100
AcDbEntity
  8
0
  6
Continuous
 62
     7
100
AcDbLine
 10
-87.01590288148732
 20
96.38767681520811
 30
0.0
 11
-87.01590288148732
 21
101.3252878200356
 31
0.0
  0
LINE
  5
143
330
1F
100
AcDbEntity
  8
0
  6
Continuous
 62
     7
100
AcDbLine
 10
-86.09045351014943
 20
96.39575308951883
 30
0.0
 11
-86.09045351014943
 21
101.3172115457249
 31
0.0
  0
LINE
  5
144
330
1F
100
AcDbEntity
  8
0
  6
Continuous
 62
     7
100
AcDbLine
 10
-87.69044816957332
 20
37.25648231762186
 30
0.0
 11
-134.8404382513604
 21
37.25648231762186
 31
0.0
  0
LINE
  5
145
330
1F
100
AcDbEntity
  8
0
  6
Continuous
 62
     7
100
AcDbLine
 10
-135.4904397772393
 20
42.31390114086405
 30
0.0
 11
-135.4904397772393
 21
102.8990634943797
 31
0.0
  0
LINE
  5
146
330
1F
100
AcDbEntity
  8
0
  6
Continuous
 62
     2
100
AcDbLine
 10
-89.84043825136042
 20
32.35648231762185
 30
0.0
 11
-133.8404458807549
 21
32.35648231762185
 31
0.0
  0
LINE
  5
147
330
1F
100
AcDbEntity
  8
0
  6
Continuous
 62
     2
100
AcDbLine
 10
-134.3404458807549
 20
36.80058174389139
 30
0.0
 11
-134.3404458807549
 21
37.25648231762186
 31
0.0
  0
LINE
  5
148
330
1F
100
AcDbEntity
  8
0
  6
Continuous
 62
     7
100
AcDbLine
 10
-87.69044816957332
 20
107.9564823176218
 30
0.0
 11
-134.8404382513604
 21
107.9564823176218
 31
0.0
  0
LINE
  5
149
330
1F
100
AcDbEntity
  8
0
  6
Continuous
 62
     7
100
AcDbLine
 10
-103.5904229925713
 20
37.25648231762186
 30
0.0
 11
-103.5904229925713
 21
32.35648231762185
 31
0.0
  0
LINE
  5
14A
330
1F
100
AcDbEntity
  8
0
  6
Continuous
 62
     7
100
AcDbLine
 10
-126.0904458807549
 20
37.25648231762186
 30
0.0
 11
-126.0904458807549
 21
36.80058174389139
 31
0.0
  0
LINE
  5
14B
330
1F
100
AcDbEntity
  8
0
  6
Continuous
 62
     7
100
AcDbLine
 10
-87.69044816957326
 20
107.9564823176218
 30
0.0
 11
-87.69044816957326
 21
37.25648231762186
 31
0.0
  0
LINE
  5
14C
330
1F
100
AcDbEntity
  8
0
  6
Continuous
 62
     7
100
AcDbLine
 10
-127.3904413031182
 20
42.31390114086405
 30
0.0
 11
-127.3904413031182
 21
102.8990634943797
 31
0.0
  0
LINE
  5
14D
330
1F
100
AcDbEntity
  8
0
  6
Continuous
 62
     3
100
AcDbLine
 10
14.79327704266136
 20
37.25648460644024
 30
0.0
 11
19.70079924419939
 21
37.25648460644024
 31
0.0
  0
LINE
  5
14E
330
1F
100
AcDbEntity
  8
0
  6
Continuous
 62
     3
100
AcDbLine
 10
-49.7157119099755
 20
48.85648365276593
 30
0.0
 11
-49.7157119099755
 21
49.10648451107281
 31
0.0
  0
LINE
  5
14F
330
1F
100
AcDbEntity
  8
0
  6
Continuous
 62
     3
100
AcDbLine
 10
-55.56571801349112
 20
48.85648365276593
 30
0.0
 11
-55.56571801349112
 21
96.35648556011459
 31
0.0
  0
LINE
  5
150
330
1F
100
AcDbEntity
  8
0
  6
Continuous
 62
     3
100
AcDbLine
 10
-52.82943566485831
 20
48.85648365276593
 30
0.0
 11
-52.82943566485831
 21
96.35648556011459
 31
0.0
  0
LINE
  5
151
330
1F
100
AcDbEntity
  8
0
  6
Continuous
 62
     4
100
AcDbLine
 10
-47.56571038409659
 20
38.85647888439436
 30
0.0
 11
-46.61570992114379
 21
38.85647888439436
 31
0.0
  0
LINE
  5
152
330
1F
100
AcDbEntity
  8
0
  6
Continuous
 62
     4
100
AcDbLine
 10
-46.61570992114373
 20
38.85647888439438
 30
0.0
 11
-46.61570992114373
 21
48.85647888439438
 31
0.0
  0
LINE
  5
153
330
1F
100
AcDbEntity
  8
0
  6
Continuous
 62
     4
100
AcDbLine
 10
-49.44433083178826
 20
53.52990794124705
 30
0.0
 11
-49.44433083178826
 21
53.85648613231915
 31
0.0
  0
LINE
  5
154
330
1F
100
AcDbEntity
  8
0
  6
Continuous
 62
     4
100
AcDbLine
 10
-47.61570992114373
 20
53.3564846302821
 30
0.0
 11
-47.61570992114373
 21
53.85648613231915
 31
0.0
  0
LINE
  5
155
330
1F
100
AcDbEntity
  8
0
  6
Continuous
 62
     3
100
AcDbLine
 10
14.79327704266136
 20
107.9564846064403
 30
0.0
 11
19.70079924419939
 21
107.9564846064403
 31
0.0
  0
LINE
  5
156
330
1F
100
AcDbEntity
  8
0
  6
Continuous
 62
     4
100
AcDbLine
 10
-50.51570938072912
 20
112.8564846064403
 30
0.0
 11
-50.51570938072912
 21
107.9564846064403
 31
0.0
  0
LINE
  5
157
330
1F
100
AcDbEntity
  8
0
  6
Continuous
 62
     4
100
AcDbLine
 10
-51.46570938072951
 20
112.8564846064403
 30
0.0
 11
-51.46570938072951
 21
107.9564846064403
 31
0.0
  0
LINE
  5
158
330
1F
100
AcDbEntity
  8
0
  6
Continuous
 62
     4
100
AcDbLine
 10
17.13055678803828
 20
112.8564846064403
 30
0.0
 11
17.13055678803828
 21
107.9564846064403
 31
0.0
  0
LINE
  5
159
330
1F
100
AcDbEntity
  8
0
  6
Continuous
 62
     4
100
AcDbLine
 10
16.18055679913589
 20
112.8564846064403
 30
0.0
 11
16.18055679913589
 21
107.9564846064403
 31
0.0
  0
LINE
  5
15A
330
1F
100
AcDbEntity
  8
0
  6
Continuous
 62
     4
100
AcDbLine
 10
-47.61570992114373
 20
91.85648458259843
 30
0.0
 11
-47.61570992114373
 21
91.35648308056138
 31
0.0
  0
LINE
  5
15B
330
1F
100
AcDbEntity
  8
0
  6
Continuous
 62
     4
100
AcDbLine
 10
-49.86570992114373
 20
112.3564846064403
 30
0.0
 11
-49.86570992114373
 21
107.9564846064403
 31
0.0
  0
LINE
  5
15C
330
1F
100
AcDbEntity
  8
0
  6
Continuous
 62
     4
100
AcDbLine
 10
-59.46570839526483
 20
101.3564855601146
 30
0.0
 11
-59.46570839526483
 21
96.35648556011459
 31
0.0
  0
LINE
  5
15D
330
1F
100
AcDbEntity
  8
0
  6
Continuous
 62
     4
100
AcDbLine
 10
-48.36970772387811
 20
101.3564855601146
 30
0.0
 11
-48.36970772387811
 21
96.35648556011459
 31
0.0
  0
LINE
  5
15E
330
1F
100
AcDbEntity
  8
0
  6
Continuous
 62
     4
100
AcDbLine
 10
-49.44433083178826
 20
96.35648460644028
 30
0.0
 11
-49.44433083178826
 21
95.85648470180772
 31
0.0
  0
LINE
  5
15F
330
1F
100
AcDbEntity
  8
0
  6
Continuous
 62
     4
100
AcDbLine
 10
2.120772317625935
 20
96.35648460644029
 30
0.0
 11
2.120772317625935
 21
91.35648308056138
 31
0.0
  0
LINE
  5
160
330
1F
100
AcDbEntity
  8
0
  6
Continuous
 62
     4
100
AcDbLine
 10
-38.99843849780389
 20
96.35648460644028
 30
0.0
 11
-38.99843849780389
 21
91.35648308056138
 31
0.0
  0
LINE
  5
161
330
1F
100
AcDbEntity
  8
0
  6
Continuous
 62
     4
100
AcDbLine
 10
-25.63551582934686
 20
96.35648460644028
 30
0.0
 11
-25.63551582934686
 21
91.35648308056138
 31
0.0
  0
LINE
  5
162
330
1F
100
AcDbEntity
  8
0
  6
Continuous
 62
     4
100
AcDbLine
 10
10.22589393017476
 20
96.35648460644039
 30
0.0
 11
10.22589393017476
 21
91.35648308056138
 31
0.0
  0
LINE
  5
163
330
1F
100
AcDbEntity
  8
0
  6
Continuous
 62
     4
100
AcDbLine
 10
9.238005593993122
 20
96.35648460644036
 30
0.0
 11
9.238005593993122
 21
91.35648308056138
 31
0.0
  0
LINE
  5
164
330
1F
100
AcDbEntity
  8
0
  6
Continuous
 62
     4
100
AcDbLine
 10
14.80555816052133
 20
111.8564846064403
 30
0.0
 11
14.80555816052133
 21
107.9564846064403
 31
0.0
  0
LINE
  5
165
330
1F
100
AcDbEntity
  8
0
  6
Continuous
 62
     4
100
AcDbLine
 10
18.43565268871968
 20
112.8564846064403
 30
0.0
 11
18.43565268871968
 21
107.9564846064403
 31
0.0
  0
LINE
  5
166
330
1F
100
AcDbEntity
  8
0
  6
Continuous
 62
     4
100
AcDbLine
 10
13.63055892346078
 20
112.8564846064403
 30
0.0
 11
13.63055892346078
 21
106.3564846064403
 31
0.0
  0
LINE
  5
167
330
1F
100
AcDbEntity
  8
0
  6
Continuous
 62
     4
100
AcDbLine
 10
12.46448417065317
 20
112.8564846064403
 30
0.0
 11
12.46448417065317
 21
106.3564846064403
 31
0.0
  0
LINE
  5
168
330
1F
100
AcDbEntity
  8
0
  6
Continuous
 62
     4
100
AcDbLine
 10
12.1805562531727
 20
106.3564846064403
 30
0.0
 11
12.1805562531727
 21
96.35648460644028
 31
0.0
  0
LINE
  5
169
330
1F
100
AcDbEntity
  8
0
  6
Continuous
 62
     4
100
AcDbLine
 10
-59.46570839526488
 20
101.3564855601146
 30
0.0
 11
-48.36570992114379
 21
101.3564855601146
 31
0.0
  0
LINE
  5
16A
330
1F
100
AcDbEntity
  8
0
  6
Continuous
 62
     4
100
AcDbLine
 10
-42.23076119067498
 20
96.35648460644028
 30
0.0
 11
-42.23076119067498
 21
91.35648308056138
 31
0.0
  0
LINE
  5
16B
330
1F
100
AcDbEntity
  8
0
  6
Continuous
 62
     4
100
AcDbLine
 10
-42.97940315844842
 20
101.3564846064403
 30
0.0
 11
-42.97940315844842
 21
96.35648460644028
 31
0.0
  0
LINE
  5
16C
330
1F
100
AcDbEntity
  8
0
  6
Continuous
 62
     4
100
AcDbLine
 10
-36.04817452075311
 20
101.3564846064403
 30
0.0
 11
-36.04817452075311
 21
96.35648460644028
 31
0.0
  0
LINE
  5
16D
330
1F
100
AcDbEntity
  8
0
  6
Continuous
 62
     4
100
AcDbLine
 10
-30.81085457446405
 20
101.3564846064403
 30
0.0
 11
-30.81085457446405
 21
96.35648460644028
 31
0.0
  0
LINE
  5
16E
330
1F
100
AcDbEntity
  8
0
  6
Continuous
 62
     4
100
AcDbLine
 10
-22.6355168982951
 20
96.35648357241811
 30
0.0
 11
-23.47473959154541
 21
100.5525971024349
 31
0.0
  0
LINE
  5
16F
330
1F
100
AcDbEntity
  8
0
  6
Continuous
 62
     4
100
AcDbLine
 10
-46.11253321568175
 20
98.85648394920504
 30
0.0
 11
-45.40308277544177
 21
101.3564856983999
 31
0.0
  0
LINE
  5
170
330
1F
100
AcDbEntity
  8
0
  6
Continuous
 62
     4
100
AcDbLine
 10
-44.88941122126938
 20
101.3564846675337
 30
0.0
 11
-45.09468770964965
 21
96.35648435733232
 31
0.0
  0
LINE
  5
171
330
1F
100
AcDbEntity
  8
0
  6
Continuous
 62
     4
100
AcDbLine
 10
-46.1125284636242
 20
98.85648460644028
 30
0.0
 11
-46.1125284636242
 21
96.35648460644028
 31
0.0
  0
LINE
  5
172
330
1F
100
AcDbEntity
  8
0
  6
Continuous
 62
     4
100
AcDbLine
 10
-32.63551582934686
 20
112.8564846064403
 30
0.0
 11
-32.63551582934686
 21
101.3564846064403
 31
0.0
  0
LINE
  5
173
330
1F
100
AcDbEntity
  8
0
  6
Continuous
 62
     4
100
AcDbLine
 10
-40.13551582934686
 20
112.8564846064403
 30
0.0
 11
-40.13551582934686
 21
101.3564846064403
 31
0.0
  0
LINE
  5
174
330
1F
100
AcDbEntity
  8
0
  6
Continuous
 62
     4
100
AcDbLine
 10
-47.61570992114373
 20
96.35648460644028
 30
0.0
 11
-47.61570992114373
 21
96.03676402281313
 31
0.0
  0
LINE
  5
175
330
1F
100
AcDbEntity
  8
0
  6
Continuous
 62
     4
100
AcDbLine
 10
-47.61570992114373
 20
112.8564846064403
 30
0.0
 11
-47.61570992114373
 21
107.9564846064403
 31
0.0
  0
LINE
  5
176
330
1F
100
AcDbEntity
  8
0
  6
Continuous
 62
     4
100
AcDbLine
 10
-47.56571038409659
 20
106.3564903284862
 30
0.0
 11
-46.61570992114379
 21
106.3564903284862
 31
0.0
  0
LINE
  5
177
330
1F
100
AcDbEntity
  8
0
  6
Continuous
 62
     4
100
AcDbLine
 10
-54.36570992114373
 20
112.8564846064403
 30
0.0
 11
-54.36570992114373
 21
107.9564846064403
 31
0.0
  0
LINE
  5
178
330
1F
100
AcDbEntity
  8
0
  6
Continuous
 62
     4
100
AcDbLine
 10
-59.46570839526488
 20
96.35648556011458
 30
0.0
 11
-48.36570992114379
 21
96.35648556011458
 31
0.0
  0
LINE
  5
179
330
1F
100
AcDbEntity
  8
0
  6
Continuous
 62
     3
100
AcDbLine
 10
-49.7157119099755
 20
96.35648556011459
 30
0.0
 11
-49.7157119099755
 21
96.10648470180772
 31
0.0
  0
LINE
  5
17A
330
1F
100
AcDbEntity
  8
0
  6
Continuous
 62
     4
100
AcDbLine
 10
-15.76571449878044
 20
101.3564846064403
 30
0.0
 11
-4.405320974610518
 21
101.3564846064403
 31
0.0
  0
LINE
  5
17B
330
1F
100
AcDbEntity
  8
0
  6
Continuous
 62
     4
100
AcDbLine
 10
4.284285501219514
 20
101.3564846064403
 30
0.0
 11
12.18055625317264
 21
101.3564846064403
 31
0.0
  0
LINE
  5
17C
330
1F
100
AcDbEntity
  8
0
  6
Continuous
 62
     4
100
AcDbLine
 10
10.73261924145395
 20
101.3564846064403
 30
0.0
 11
10.73261924145395
 21
96.35648460644028
 31
0.0
  0
LINE
  5
17D
330
1F
100
AcDbEntity
  8
0
  6
Continuous
 62
     4
100
AcDbLine
 10
-17.58551829096086
 20
96.35648365626967
 30
0.0
 11
-16.74629559771057
 21
100.5525971862864
 31
0.0
  0
LINE
  5
17E
330
1F
100
AcDbEntity
  8
0
  6
Continuous
 62
     4
100
AcDbLine
 10
2.464481389271981
 20
96.35647847785104
 30
0.0
 11
3.303705578769634
 21
100.5525994891047
 31
0.0
  0
LINE
  5
17F
330
1F
100
AcDbEntity
  8
0
  6
Continuous
 62
     4
100
AcDbLine
 10
-3.42474304408023
 20
100.5525984934774
 30
0.0
 11
-2.585518901340315
 21
96.3564777160125
 31
0.0
  0
LINE
  5
180
330
1F
100
AcDbEntity
  8
0
  6
Continuous
 62
     4
100
AcDbLine
 10
-45.40307869555785
 20
101.3564846064403
 30
0.0
 11
-24.45531715991332
 21
101.3564846064403
 31
0.0
  0
LINE
  5
181
330
1F
100
AcDbEntity
  8
0
  6
Continuous
 62
     4
100
AcDbLine
 10
12.18055625317264
 20
106.3564846064403
 30
0.0
 11
13.80555816052127
 21
106.3564846064403
 31
0.0
  0
LINE
  5
182
330
1F
100
AcDbEntity
  8
0
  6
Continuous
 62
     4
100
AcDbLine
 10
-54.36570992114379
 20
112.8564846064403
 30
0.0
 11
18.43565268871951
 21
112.8564846064403
 31
0.0
  0
LINE
  5
183
330
1F
100
AcDbEntity
  8
0
  6
Continuous
 62
     4
100
AcDbLine
 10
-52.71975197436639
 20
112.8564846064403
 30
0.0
 11
-52.71975197436639
 21
107.9564846064403
 31
0.0
  0
LINE
  5
184
330
1F
100
AcDbEntity
  8
0
  6
Continuous
 62
     4
100
AcDbLine
 10
-51.5948130095227
 20
96.35648460644026
 30
0.0
 11
14.79327704266136
 21
96.35648460644026
 31
0.0
  0
LINE
  5
185
330
1F
100
AcDbEntity
  8
0
  6
Continuous
 62
     4
100
AcDbLine
 10
-46.61570992114373
 20
106.3564903284861
 30
0.0
 11
-46.61570992114373
 21
96.35649032848615
 31
0.0
  0
LINE
  5
186
330
1F
100
AcDbEntity
  8
0
  6
Continuous
 62
     4
100
AcDbLine
 10
-49.44433083178826
 20
91.68306127163348
 30
0.0
 11
-49.44433083178826
 21
91.35648308056138
 31
0.0
  0
LINE
  5
187
330
1F
100
AcDbEntity
  8
0
  6
Continuous
 62
     2
100
AcDbLine
 10
8.730579232429623
 20
91.35648245045081
 30
0.0
 11
8.229893147930392
 21
86.35648323869007
 31
0.0
  0
LINE
  5
188
330
1F
100
AcDbEntity
  8
0
  6
Continuous
 62
     2
100
AcDbLine
 10
-23.91419966627605
 20
91.35648291402157
 30
0.0
 11
-23.70709288277208
 21
86.35648267781829
 31
0.0
  0
LINE
  5
189
330
1F
100
AcDbEntity
  8
0
  6
Continuous
 62
     2
100
AcDbLine
 10
-41.17269429091046
 20
91.35648265504648
 30
0.0
 11
-40.67011118137293
 21
86.35648207358453
 31
0.0
  0
LINE
  5
18A
330
1F
100
AcDbEntity
  8
0
  6
Continuous
 62
     2
100
AcDbLine
 10
-49.56571801349112
 20
91.35648308056138
 30
0.0
 11
14.79327704266136
 21
91.35648308056138
 31
0.0
  0
LINE
  5
18B
330
1F
100
AcDbEntity
  8
0
  6
Continuous
 62
     3
100
AcDbLine
 10
14.7932770426613
 20
106.9564846064403
 30
0.0
 11
19.70079924419939
 21
106.9564846064403
 31
0.0
  0
LINE
  5
18C
330
1F
100
AcDbEntity
  8
0
  6
Continuous
 62
     3
100
AcDbLine
 10
-49.46571190997555
 20
101.8564851786449
 30
0.0
 11
-48.26570733233883
 21
101.8564851786449
 31
0.0
  0
LINE
  5
18D
330
1F
100
AcDbEntity
  8
0
  6
Continuous
 62
     3
100
AcDbLine
 10
-47.56571038409659
 20
107.9564846064403
 30
0.0
 11
-47.56571038409659
 21
101.8554537036908
 31
0.0
  0
LINE
  5
18E
330
1F
100
AcDbEntity
  8
0
  6
Continuous
 62
     3
100
AcDbLine
 10
-55.56571801349118
 20
107.9564846064403
 30
0.0
 11
-47.56571038409659
 21
107.9564846064403
 31
0.0
  0
LINE
  5
18F
330
1F
100
AcDbEntity
  8
0
  6
Continuous
 62
     3
100
AcDbLine
 10
-55.56571801349112
 20
107.9564846064403
 30
0.0
 11
-55.56571801349112
 21
101.3564855601146
 31
0.0
  0
LINE
  5
190
330
1F
100
AcDbEntity
  8
0
  6
Continuous
 62
     3
100
AcDbLine
 10
-52.82943566485831
 20
107.9564846064403
 30
0.0
 11
-52.82943566485831
 21
101.3564855601146
 31
0.0
  0
LINE
  5
191
330
1F
100
AcDbEntity
  8
0
  6
Continuous
 62
     3
100
AcDbLine
 10
-49.06571801349118
 20
91.85648458259843
 30
0.0
 11
-47.56571801349118
 21
91.85648458259843
 31
0.0
  0
LINE
  5
192
330
1F
100
AcDbEntity
  8
0
  6
Continuous
 62
     3
100
AcDbLine
 10
-49.46571190997555
 20
95.85648470180772
 30
0.0
 11
-48.26570733233883
 21
95.85648470180772
 31
0.0
  0
LINE
  5
193
330
1F
100
AcDbEntity
  8
0
  6
Continuous
 62
     3
100
AcDbLine
 10
-47.56571038409659
 20
95.85751617676183
 30
0.0
 11
-47.56571038409659
 21
91.85648458259843
 31
0.0
  0
LINE
  5
194
330
1F
100
AcDbEntity
  8
0
  6
Continuous
 62
     3
100
AcDbLine
 10
-49.7157119099755
 20
101.6064851786449
 30
0.0
 11
-49.7157119099755
 21
101.3564855601146
 31
0.0
  0
LINE
  5
195
330
1F
100
AcDbEntity
  8
0
  6
Continuous
 62
     2
100
AcDbLine
 10
-37.67339515370056
 20
91.35648292282471
 30
0.0
 11
-37.25188631688507
 21
86.35648295678429
 31
0.0
  0
LINE
  5
196
330
1F
100
AcDbEntity
  8
0
  6
Continuous
 62
     2
100
AcDbLine
 10
-40.67010720416489
 20
86.35648308056138
 30
0.0
 11
12.61028982952654
 21
86.35648308056138
 31
0.0
  0
LINE
  5
197
330
1F
100
AcDbEntity
  8
0
  6
Continuous
 62
     2
100
AcDbLine
 10
7.708631578894579
 20
91.35648316398188
 30
0.0
 11
7.234149104565823
 21
86.3564813071203
 31
0.0
  0
LINE
  5
198
330
1F
100
AcDbEntity
  8
0
  6
Continuous
 62
     4
100
AcDbLine
 10
-49.46570804035862
 20
1.856488421137513
 30
0.0
 11
-49.46570804035862
 21
1.506474688227364
 31
0.0
  0
LINE
  5
199
330
1F
100
AcDbEntity
  8
0
  6
Continuous
 62
     4
100
AcDbLine
 10
-48.40471632879165
 20
2.112300755040142
 30
0.0
 11
-48.38715982509083
 21
1.106489277877087
 31
0.0
  0
LINE
  5
19A
330
1F
100
AcDbEntity
  8
0
  6
Continuous
 62
     2
100
AcDbLine
 10
-51.45959288289817
 20
0.106488421137531
 30
0.0
 11
-50.94908123816902
 21
-9.634654008715632
 31
0.0
  0
LINE
  5
19B
330
1F
100
AcDbEntity
  8
0
  6
Continuous
 62
     2
100
AcDbLine
 10
-50.45822053688788
 20
0.106488421137532
 30
0.0
 11
-50.27894216426755
 21
-3.314346696567615
 31
0.0
  0
ARC
  5
19C
330
1F
100
AcDbEntity
  8
0
  6
Continuous
 62
     2
100
AcDbCircle
 10
-50.02929146930167
 20
-3.301263615910813
 30
0.0
 40
0.25
100
AcDbArc
 50
183.00000531981
 51
264.999998494749
  0
ARC
  5
19D
330
1F
100
AcDbEntity
  8
0
  6
Continuous
 62
     2
100
AcDbCircle
 10
-49.44121773883292
 20
-10.24349765521745
 30
0.0
 40
0.5
100
AcDbArc
 50
237.8042684274551
 51
269.9999974955218
  0
ARC
  5
19E
330
1F
100
AcDbEntity
  8
0
  6
Continuous
 62
     2
100
AcDbCircle
 10
-50.44977029010245
 20
-9.60848598224382
 30
0.0
 40
0.5
100
AcDbArc
 50
183.00000531981
 51
237.8042684274551
  0
ARC
  5
19F
330
1F
100
AcDbEntity
  8
0
  6
Continuous
 62
     2
100
AcDbCircle
 10
-20.54337914630362
 20
-28.24351339084367
 30
0.0
 40
10.0
100
AcDbArc
 50
224.9999996583774
 51
269.9999974955218
  0
ARC
  5
1A0
330
1F
100
AcDbEntity
  8
0
  6
Continuous
 62
     2
100
AcDbCircle
 10
-19.12916787311026
 20
-28.24351339084367
 30
0.0
 40
9.0
100
AcDbArc
 50
224.9999996583774
 51
269.9999974955218
  0
ARC
  5
1A1
330
1F
100
AcDbEntity
  8
0
  6
Continuous
 62
     2
100
AcDbCircle
 10
2.206288975034269
 20
-6.733866498296067
 30
0.0
 40
46.54999923706055
100
AcDbArc
 50
188.9547281627672
 51
193.8984873859141
  0
ARC
  5
1A2
330
1F
100
AcDbEntity
  8
0
  6
Continuous
 62
     2
100
AcDbCircle
 10
-48.02652199908682
 20
-11.24349765521745
 30
0.0
 40
0.5
100
AcDbArc
 50
7.174446925880672
 51
90.00000250447816
  0
ARC
  5
1A3
330
1F
100
AcDbEntity
  8
0
  6
Continuous
 62
     2
100
AcDbCircle
 10
-44.27025063678214
 20
-14.05738906604509
 30
0.0
 40
0.5
100
AcDbArc
 50
8.954730610402619
 51
84.99999667351618
  0
ARC
  5
1A4
330
1F
100
AcDbEntity
  8
0
  6
Continuous
 62
     2
100
AcDbCircle
 10
-46.81885750934073
 20
-12.8305948231862
 30
0.0
 40
0.5
100
AcDbArc
 50
187.1744530159817
 51
264.999998494749
  0
ARC
  5
1A5
330
1F
100
AcDbEntity
  8
0
  6
Continuous
 62
     2
100
AcDbCircle
 10
-33.27363045855948
 20
-15.51326255542497
 30
0.0
 40
10.0
100
AcDbArc
 50
193.8984873859141
 51
224.9999996583774
  0
ARC
  5
1A6
330
1F
100
AcDbEntity
  8
0
  6
Continuous
 62
     2
100
AcDbCircle
 10
-33.27363045855948
 20
-15.51326255542497
 30
0.0
 40
8.0
100
AcDbArc
 50
193.8984873859141
 51
224.9999996583774
  0
ARC
  5
1A7
330
1F
100
AcDbEntity
  8
0
  6
Continuous
 62
     2
100
AcDbCircle
 10
2.206288975034269
 20
-6.733866498296067
 30
0.0
 40
44.54999923706055
100
AcDbArc
 50
184.3221796789628
 51
193.8984873859141
  0
ARC
  5
1A8
330
1F
100
AcDbEntity
  8
0
  6
Continuous
 62
     2
100
AcDbCircle
 10
-43.71274789020011
 20
-10.20441322070818
 30
0.0
 40
1.5
100
AcDbArc
 50
4.322179992164035
 51
84.99999667351618
  0
ARC
  5
1A9
330
1F
100
AcDbEntity
  8
0
  6
Continuous
 62
     2
100
AcDbCircle
 10
-46.45332558795401
 20
-8.207958981816574
 30
0.0
 40
0.25
100
AcDbArc
 50
183.00000531981
 51
264.999998494749
  0
ARC
  5
1AA
330
1F
100
AcDbEntity
  8
0
  6
Continuous
 62
     2
100
AcDbCircle
 10
-48.12488778277823
 20
-4.973605916325852
 30
0.0
 40
1.25
100
AcDbArc
 50
3.000000083482606
 51
84.99999667351618
  0
ARC
  5
1AB
330
1F
100
AcDbEntity
  8
0
  6
Continuous
 62
     2
100
AcDbCircle
 10
-44.21743233844229
 20
-10.16025905353288
 30
0.0
 40
1.5
100
AcDbArc
 50
4.221171739623301
 51
84.99999667351618
  0
ARC
  5
1AC
330
1F
100
AcDbEntity
  8
0
  6
Continuous
 62
     2
100
AcDbCircle
 10
2.206288975034269
 20
-6.733866498296067
 30
0.0
 40
45.04999923706055
100
AcDbArc
 50
184.2211748415166
 51
193.8984873859141
  0
ARC
  5
1AD
330
1F
100
AcDbEntity
  8
0
  6
Continuous
 62
     2
100
AcDbCircle
 10
-33.27363045855948
 20
-15.51326255542497
 30
0.0
 40
8.5
100
AcDbArc
 50
193.8984873859141
 51
224.9999996583774
  0
ARC
  5
1AE
330
1F
100
AcDbEntity
  8
0
  6
Continuous
 62
     2
100
AcDbCircle
 10
-19.12916787311026
 20
-28.24351339084367
 30
0.0
 40
9.5
100
AcDbArc
 50
224.9999996583774
 51
269.9999974955218
  0
ARC
  5
1AF
330
1F
100
AcDbEntity
  8
0
  6
Continuous
 62
     2
100
AcDbCircle
 10
12.42545630291526
 20
-16.99351339084367
 30
0.0
 40
0.25
100
AcDbArc
 50
269.9999974955218
 51
356.9999999165174
  0
ARC
  5
1B0
330
1F
100
AcDbEntity
  8
0
  6
Continuous
 62
     2
100
AcDbCircle
 10
12.10436560467308
 20
-20.74351339084367
 30
0.0
 40
3.5
100
AcDbArc
 50
90.00000250447816
 51
176.99999468019
  0
ARC
  5
1B1
330
1F
100
AcDbEntity
  8
0
  6
Continuous
 62
     2
100
AcDbCircle
 10
11.6036808665139
 20
-20.74351339084367
 30
0.0
 40
3.5
100
AcDbArc
 50
90.00000250447816
 51
176.99999468019
  0
ARC
  5
1B2
330
1F
100
AcDbEntity
  8
0
  6
Continuous
 62
     2
100
AcDbCircle
 10
2.067248600278546
 20
-30.74351386768083
 30
0.0
 40
7.5
100
AcDbArc
 50
269.9999974955218
 51
356.9999999165174
  0
ARC
  5
1B3
330
1F
100
AcDbEntity
  8
0
  6
Continuous
 62
     2
100
AcDbCircle
 10
1.065879123960187
 20
-30.74351386768083
 30
0.0
 40
6.5
100
AcDbArc
 50
269.9999974955218
 51
356.9999999165174
  0
ARC
  5
1B4
330
1F
100
AcDbEntity
  8
0
  6
Continuous
 62
     2
100
AcDbCircle
 10
13.39713408306663
 20
-12.78329734546404
 30
0.0
 40
0.5
100
AcDbArc
 50
95.00000150525099
 51
176.99999468019
  0
ARC
  5
1B5
330
1F
100
AcDbEntity
  8
0
  6
Continuous
 62
     3
100
AcDbCircle
 10
-47.91570885821768
 20
43.35648403423565
 30
0.0
 40
0.3499999940395355
100
AcDbArc
 50
90.00000000000001
 51
180.0000025044782
  0
ARC
  5
1B6
330
1F
100
AcDbEntity
  8
0
  6
Continuous
 62
     3
100
AcDbCircle
 10
-47.91570885821768
 20
43.35648403423565
 30
0.0
 40
0.3499999940395355
100
AcDbArc
 50
359.9999974955218
 51
90.00000000000001
  0
ARC
  5
1B7
330
1F
100
AcDbEntity
  8
0
  6
Continuous
 62
     3
100
AcDbCircle
 10
-47.91570885821768
 20
49.35648451107281
 30
0.0
 40
0.3499999940395355
100
AcDbArc
 50
180.0000025044782
 51
270.0000050089564
  0
ARC
  5
1B8
330
1F
100
AcDbEntity
  8
0
  6
Continuous
 62
     3
100
AcDbCircle
 10
-47.91570885821768
 20
49.35648451107281
 30
0.0
 40
0.3499999940395355
100
AcDbArc
 50
270.0000050089564
 51
0.000000683245332
  0
ARC
  5
1B9
330
1F
100
AcDbEntity
  8
0
  6
Continuous
 62
     3
100
AcDbCircle
 10
15.79328085735862
 20
-6.143515393559738
 30
0.0
 40
1.0
100
AcDbArc
 50
179.9999949910437
 51
269.9999974955218
  0
ARC
  5
1BA
330
1F
100
AcDbEntity
  8
0
  6
Continuous
 62
     3
100
AcDbCircle
 10
16.18051840618675
 20
-6.393513486211106
 30
0.0
 40
0.25
100
AcDbArc
 50
90.00000250447816
 51
176.99999468019
  0
ARC
  5
1BB
330
1F
100
AcDbEntity
  8
0
  6
Continuous
 62
     3
100
AcDbCircle
 10
18.19760062054222
 20
-6.393513486211106
 30
0.0
 40
0.25
100
AcDbArc
 50
0.999999992253633
 51
90.00000250447816
  0
ARC
  5
1BC
330
1F
100
AcDbEntity
  8
0
  6
Continuous
 62
     3
100
AcDbCircle
 10
18.91620566204612
 20
-21.29351310474138
 30
0.0
 40
0.5
100
AcDbArc
 50
269.9999974955218
 51
359.0000000077464
  0
ARC
  5
1BD
330
1F
100
AcDbEntity
  8
0
  6
Continuous
 62
     3
100
AcDbCircle
 10
18.0317757304055
 20
-20.39351157886247
 30
0.0
 40
0.25
100
AcDbArc
 50
269.9999974955218
 51
359.0000000077464
  0
ARC
  5
1BE
330
1F
100
AcDbEntity
  8
0
  6
Continuous
 62
     3
100
AcDbCircle
 10
-52.55793984576651
 20
3.506488039667786
 30
0.0
 40
0.5
100
AcDbArc
 50
90.00000250447816
 51
147.4864467482414
  0
ARC
  5
1BF
330
1F
100
AcDbEntity
  8
0
  6
Continuous
 62
     3
100
AcDbCircle
 10
-52.32004006549307
 20
2.606488421137513
 30
0.0
 40
0.25
100
AcDbArc
 50
90.00000250447816
 51
178.9999970125748
  0
ARC
  5
1C0
330
1F
100
AcDbEntity
  8
0
  6
Continuous
 62
     3
100
AcDbCircle
 10
-50.75296242877432
 20
2.606488421137513
 30
0.0
 40
0.25
100
AcDbArc
 50
3.000000083482606
 51
90.00000250447816
  0
ARC
  5
1C1
330
1F
100
AcDbEntity
  8
0
  6
Continuous
 62
     3
100
AcDbCircle
 10
15.09193350628441
 20
-21.14351157886247
 30
0.0
 40
0.5
100
AcDbArc
 50
90.00000250447816
 51
176.99999468019
  0
ARC
  5
1C2
330
1F
100
AcDbEntity
  8
0
  6
Continuous
 62
     3
100
AcDbCircle
 10
9.66862418011253
 20
-38.64351157886247
 30
0.0
 40
4.0
100
AcDbArc
 50
269.9999974955218
 51
356.9999999165174
  0
ARC
  5
1C3
330
1F
100
AcDbEntity
  8
0
  6
Continuous
 62
     3
100
AcDbCircle
 10
9.66862418011253
 20
-38.64351157886247
 30
0.0
 40
5.150000095367432
100
AcDbArc
 50
269.9999974955218
 51
356.9999999165174
  0
ARC
  5
1C4
330
1F
100
AcDbEntity
  8
0
  6
Continuous
 62
     3
100
AcDbCircle
 10
15.94600607708519
 20
-22.04350929004411
 30
0.0
 40
0.25
100
AcDbArc
 50
90.00000250447816
 51
176.99999468019
  0
ARC
  5
1C5
330
1F
100
AcDbEntity
  8
0
  6
Continuous
 62
     3
100
AcDbCircle
 10
-39.06570656939932
 20
-5.09349899036151
 30
0.0
 40
16.5
100
AcDbArc
 50
147.4864467482414
 51
180.0000050089563
  0
ARC
  5
1C6
330
1F
100
AcDbEntity
  8
0
  6
Continuous
 62
     3
100
AcDbCircle
 10
-41.86570962115714
 20
-5.09349899036151
 30
0.0
 40
12.55000019073486
100
AcDbArc
 50
148.7136268364176
 51
180.0000050089563
  0
ARC
  5
1C7
330
1F
100
AcDbEntity
  8
0
  6
Continuous
 62
     3
100
AcDbCircle
 10
-49.82553322955557
 20
-13.36070899707536
 30
0.0
 40
0.25
100
AcDbArc
 50
7.090963231202898
 51
71.85186203067413
  0
ARC
  5
1C8
330
1F
100
AcDbEntity
  8
0
  6
Continuous
 62
     3
100
AcDbCircle
 10
-47.11570962115714
 20
-5.09349899036151
 30
0.0
 40
8.449999809265137
100
AcDbArc
 50
179.999991348578
 51
251.8519148509546
  0
ARC
  5
1C9
330
1F
100
AcDbEntity
  8
0
  6
Continuous
 62
     3
100
AcDbCircle
 10
-47.11570962115714
 20
-5.09349899036151
 30
0.0
 40
7.299999713897705
100
AcDbArc
 50
179.999991348578
 51
252.186020384395
  0
ARC
  5
1CA
330
1F
100
AcDbEntity
  8
0
  6
Continuous
 62
     3
100
AcDbCircle
 10
-49.01532204791495
 20
-12.54349784595232
 30
0.0
 40
0.5
100
AcDbArc
 50
6.30075089848062
 51
90.00000250447816
  0
ARC
  5
1CB
330
1F
100
AcDbEntity
  8
0
  6
Continuous
 62
     3
100
AcDbCircle
 10
-40.54901345416495
 20
-34.29351310474138
 30
0.0
 40
0.25
100
AcDbArc
 50
212.6507990729409
 51
269.9999974955218
  0
ARC
  5
1CC
330
1F
100
AcDbEntity
  8
0
  6
Continuous
 62
     3
100
AcDbCircle
 10
2.223294895444425
 20
-6.886023328130051
 30
0.0
 40
51.05000305175781
100
AcDbArc
 50
186.300748877732
 51
212.6507990729409
  0
ARC
  5
1CD
330
1F
100
AcDbEntity
  8
0
  6
Continuous
 62
     3
100
AcDbCircle
 10
-39.0355246846337
 20
-39.89351539355974
 30
0.0
 40
5.349999904632568
100
AcDbArc
 50
0.0
 51
90.00000250447816
  0
ARC
  5
1CE
330
1F
100
AcDbEntity
  8
0
  6
Continuous
 62
     3
100
AcDbCircle
 10
-30.93551858111807
 20
-39.89351539355974
 30
0.0
 40
2.75
100
AcDbArc
 50
179.999991348578
 51
270.0000006832453
  0
ARC
  5
1CF
330
1F
100
AcDbEntity
  8
0
  6
Continuous
 62
     3
100
AcDbCircle
 10
-39.0355246846337
 20
-39.89351539355974
 30
0.0
 40
4.200000286102295
100
AcDbArc
 50
0.0
 51
90.00000250447816
  0
ARC
  5
1D0
330
1F
100
AcDbEntity
  8
0
  6
Continuous
 62
     3
100
AcDbCircle
 10
-49.4657119099755
 20
43.60648403423565
 30
0.0
 40
0.25
100
AcDbArc
 50
180.0000025044782
 51
270.0000050089564
  0
ARC
  5
1D1
330
1F
100
AcDbEntity
  8
0
  6
Continuous
 62
     3
100
AcDbCircle
 10
-30.93551858111807
 20
-39.89351539355974
 30
0.0
 40
3.899999856948853
100
AcDbArc
 50
179.999991348578
 51
270.0000006832453
  0
ARC
  5
1D2
330
1F
100
AcDbEntity
  8
0
  6
Continuous
 62
     3
100
AcDbCircle
 10
-40.7672141377587
 20
-34.69351081592302
 30
0.0
 40
1.0
100
AcDbArc
 50
212.8959482226309
 51
269.9999974955218
  0
ARC
  5
1D3
330
1F
100
AcDbEntity
  8
0
  6
Continuous
 62
     3
100
AcDbCircle
 10
2.223294895444425
 20
-6.886023328130051
 30
0.0
 40
52.20000076293945
100
AcDbArc
 50
187.0909607835675
 51
212.8959482226309
  0
ARC
  5
1D4
330
1F
100
AcDbEntity
  8
0
  6
Continuous
 62
     3
100
AcDbCircle
 10
-49.4657119099755
 20
49.10648451107281
 30
0.0
 40
0.25
100
AcDbArc
 50
90.00000000000001
 51
180.0000025044782
  0
ARC
  5
1D5
330
1F
100
AcDbEntity
  8
0
  6
Continuous
 62
     7
100
AcDbCircle
 10
-50.96330321659384
 20
1.356488421137513
 30
0.0
 40
0.5
100
AcDbArc
 50
334.3949848565352
 51
0.0
  0
ARC
  5
1D6
330
1F
100
AcDbEntity
  8
0
  6
Continuous
 62
     3
100
AcDbCircle
 10
19.19200064495628
 20
-4.493513867680846
 30
0.0
 40
0.5
100
AcDbArc
 50
0.0
 51
90.00000000000001
  0
ARC
  5
1D7
330
1F
100
AcDbEntity
  8
0
  6
Continuous
 62
     3
100
AcDbCircle
 10
15.29328085735862
 20
-4.493513867680846
 30
0.0
 40
0.5
100
AcDbArc
 50
90.00000000000001
 51
180.0
  0
ARC
  5
1D8
330
1F
100
AcDbEntity
  8
0
  6
Continuous
 62
     2
100
AcDbCircle
 10
11.6036808665139
 20
-20.74351315242509
 30
0.0
 40
1.5
100
AcDbArc
 50
90.00000250447816
 51
176.99999468019
  0
ARC
  5
1D9
330
1F
100
AcDbEntity
  8
0
  6
Continuous
 62
     2
100
AcDbCircle
 10
16.58457686260765
 20
-18.74351315242509
 30
0.0
 40
0.5
100
AcDbArc
 50
269.9999974955218
 51
359.5000000038732
  0
ARC
  5
1DA
330
1F
100
AcDbEntity
  8
0
  6
Continuous
 62
     2
100
AcDbCircle
 10
15.8950398142678
 20
-11.81189422351579
 30
0.0
 40
0.25
100
AcDbArc
 50
275.0000033264838
 51
359.5000000038732
  0
ARC
  5
1DB
330
1F
100
AcDbEntity
  8
0
  6
Continuous
 62
     2
100
AcDbCircle
 10
1.065879123960187
 20
-30.74351386768083
 30
0.0
 40
7.0
100
AcDbArc
 50
269.9999974955218
 51
356.9999999165174
  0
ARC
  5
1DC
330
1F
100
AcDbEntity
  8
0
  6
Continuous
 62
     7
100
AcDbCircle
 10
15.29511329198287
 20
-22.04350929004411
 30
0.0
 40
0.25
100
AcDbArc
 50
90.00000250447816
 51
176.99999468019
  0
ARC
  5
1DD
330
1F
100
AcDbEntity
  8
0
  6
Continuous
 62
     7
100
AcDbCircle
 10
9.66862508321212
 20
-38.64351157886247
 30
0.0
 40
4.5
100
AcDbArc
 50
269.9999974955218
 51
356.9999999165174
  0
ARC
  5
1DE
330
1F
100
AcDbEntity
  8
0
  6
Continuous
 62
     7
100
AcDbCircle
 10
-30.93551672434405
 20
-39.89351539355974
 30
0.0
 40
3.249999761581421
100
AcDbArc
 50
179.999991348578
 51
270.0000006832453
  0
ARC
  5
1DF
330
1F
100
AcDbEntity
  8
0
  6
Continuous
 62
     7
100
AcDbCircle
 10
-39.03552282785968
 20
-39.89351539355974
 30
0.0
 40
4.850000381469727
100
AcDbArc
 50
0.0
 51
90.00000250447816
  0
ARC
  5
1E0
330
1F
100
AcDbEntity
  8
0
  6
Continuous
 62
     7
100
AcDbCircle
 10
-40.76721228098468
 20
-34.69351081592302
 30
0.0
 40
0.3499999940395355
100
AcDbArc
 50
212.8959482226309
 51
269.9999974955218
  0
ARC
  5
1E1
330
1F
100
AcDbEntity
  8
0
  6
Continuous
 62
     7
100
AcDbCircle
 10
2.223294844869812
 20
-6.886023328130051
 30
0.0
 40
51.55000305175781
100
AcDbArc
 50
187.2476180023709
 51
212.8959482226309
  0
ARC
  5
1E2
330
1F
100
AcDbEntity
  8
0
  6
Continuous
 62
     7
100
AcDbCircle
 10
-49.16283834909991
 20
-13.4209907506154
 30
0.0
 40
0.25
100
AcDbArc
 50
7.247614473590788
 51
90.00000250447816
  0
ARC
  5
1E3
330
1F
100
AcDbEntity
  8
0
  6
Continuous
 62
     2
100
AcDbCircle
 10
-50.82648117728816
 20
2.356489374811844
 30
0.0
 40
0.25
100
AcDbArc
 50
3.000000013495896
 51
90.00000000000001
  0
ARC
  5
1E4
330
1F
100
AcDbEntity
  8
0
  6
Continuous
 62
     2
100
AcDbCircle
 10
-51.06372231891096
 20
2.106489374811844
 30
0.0
 40
0.5
100
AcDbArc
 50
90.00000000000001
 51
150.0001261890889
  0
ARC
  5
1E5
330
1F
100
AcDbEntity
  8
0
  6
Continuous
 62
     3
100
AcDbCircle
 10
-49.06571801349112
 20
53.8564846302821
 30
0.0
 40
0.5
100
AcDbArc
 50
180.0
 51
270.0
  0
ARC
  5
1E6
330
1F
100
AcDbEntity
  8
0
  6
Continuous
 62
     4
100
AcDbCircle
 10
-41.91789920598872
 20
-6.187863546214686
 30
0.0
 40
11.5
100
AcDbArc
 50
146.8156289285463
 51
174.5393386953833
  0
ARC
  5
1E7
330
1F
100
AcDbEntity
  8
0
  6
Continuous
 62
     4
100
AcDbCircle
 10
2.218038297532004
 20
-6.819536969487473
 30
0.0
 40
46.60000228881836
100
AcDbArc
 50
188.5786279239605
 51
193.8247096683817
  0
ARC
  5
1E8
330
1F
100
AcDbEntity
  8
0
  6
Continuous
 62
     4
100
AcDbCircle
 10
-45.58989932453831
 20
-13.29634742480974
 30
0.0
 40
0.25
100
AcDbArc
 50
264.999998494749
 51
320.073631894001
  0
ARC
  5
1E9
330
1F
100
AcDbEntity
  8
0
  6
Continuous
 62
     4
100
AcDbCircle
 10
-33.32170321858128
 20
-15.56518821460466
 30
0.0
 40
10.0
100
AcDbArc
 50
193.8247076824997
 51
224.9999996583774
  0
ARC
  5
1EA
330
1F
100
AcDbEntity
  8
0
  6
Continuous
 62
     4
100
AcDbCircle
 10
-44.73751284992893
 20
-14.625696942632
 30
0.0
 40
1.0
100
AcDbArc
 50
9.438853564999476
 51
84.99999667351618
  0
ARC
  5
1EB
330
1F
100
AcDbEntity
  8
0
  6
Continuous
 62
     4
100
AcDbCircle
 10
-20.64338138020237
 20
-28.24351386768083
 30
0.0
 40
10.0
100
AcDbArc
 50
224.9999996583774
 51
269.9999974955218
  0
ARC
  5
1EC
330
1F
100
AcDbEntity
  8
0
  6
Continuous
 62
     4
100
AcDbCircle
 10
-47.12602450764378
 20
-13.16195564014177
 30
0.0
 40
0.25
100
AcDbArc
 50
187.3243346871285
 51
264.999998494749
  0
ARC
  5
1ED
330
1F
100
AcDbEntity
  8
0
  6
Continuous
 62
     4
100
AcDbCircle
 10
17.73920757853789
 20
-19.89351539355974
 30
0.0
 40
0.5
100
AcDbArc
 50
269.9999974955218
 51
359.0000000077464
  0
ARC
  5
1EE
330
1F
100
AcDbEntity
  8
0
  6
Continuous
 62
     4
100
AcDbCircle
 10
17.90939648234648
 20
-7.143515393559738
 30
0.0
 40
0.5
100
AcDbArc
 50
0.999999992253633
 51
90.00000250447816
  0
ARC
  5
1EF
330
1F
100
AcDbEntity
  8
0
  6
Continuous
 62
     4
100
AcDbCircle
 10
16.98055584513945
 20
-13.14351157886247
 30
0.0
 40
0.25
100
AcDbArc
 50
307.2067446389315
 51
0.0
  0
ARC
  5
1F0
330
1F
100
AcDbEntity
  8
0
  6
Continuous
 62
     4
100
AcDbCircle
 10
16.98055584513945
 20
-19.14351539355974
 30
0.0
 40
0.25
100
AcDbArc
 50
269.9999974955218
 51
0.0
  0
ARC
  5
1F1
330
1F
100
AcDbEntity
  8
0
  6
Continuous
 62
     4
100
AcDbCircle
 10
13.39331753337187
 20
-19.14351539355974
 30
0.0
 40
0.25
100
AcDbArc
 50
269.9999974955218
 51
336.4223819371211
  0
ARC
  5
1F2
330
1F
100
AcDbEntity
  8
0
  6
Continuous
 62
     4
100
AcDbCircle
 10
11.64934094035429
 20
-20.89351539355974
 30
0.0
 40
1.5
100
AcDbArc
 50
90.00000250447816
 51
176.99999468019
  0
ARC
  5
1F3
330
1F
100
AcDbEntity
  8
0
  6
Continuous
 62
     4
100
AcDbCircle
 10
15.3055566080789
 20
-8.143515393559738
 30
0.0
 40
0.5
100
AcDbArc
 50
179.999991348578
 51
270.0000006832453
  0
ARC
  5
1F4
330
1F
100
AcDbEntity
  8
0
  6
Continuous
 62
     4
100
AcDbCircle
 10
13.4305566080789
 20
-8.893515393559738
 30
0.0
 40
0.25
100
AcDbArc
 50
90.00000250447816
 51
180.0000050089563
  0
ARC
  5
1F5
330
1F
100
AcDbEntity
  8
0
  6
Continuous
 62
     4
100
AcDbCircle
 10
12.6805566080789
 20
-9.643515393559738
 30
0.0
 40
0.5
100
AcDbArc
 50
269.9999974955218
 51
0.0
  0
ARC
  5
1F6
330
1F
100
AcDbEntity
  8
0
  6
Continuous
 62
     4
100
AcDbCircle
 10
12.6805566080789
 20
-8.143515393559738
 30
0.0
 40
0.5
100
AcDbArc
 50
90.00000250447816
 51
180.0000050089563
  0
ARC
  5
1F7
330
1F
100
AcDbEntity
  8
0
  6
Continuous
 62
     4
100
AcDbCircle
 10
14.3160775431375
 20
-20.64351539355974
 30
0.0
 40
0.25
100
AcDbArc
 50
90.00000250447816
 51
176.99999468019
  0
ARC
  5
1F8
330
1F
100
AcDbEntity
  8
0
  6
Continuous
 62
     4
100
AcDbCircle
 10
15.1262353190164
 20
-19.14351539355974
 30
0.0
 40
0.25
100
AcDbArc
 50
203.5776180628789
 51
269.9999974955218
  0
ARC
  5
1F9
330
1F
100
AcDbEntity
  8
0
  6
Continuous
 62
     4
100
AcDbCircle
 10
14.81676418864531
 20
-20.64351539355974
 30
0.0
 40
0.25
100
AcDbArc
 50
90.00000250447816
 51
176.99999468019
  0
ARC
  5
1FA
330
1F
100
AcDbEntity
  8
0
  6
Continuous
 62
     4
100
AcDbCircle
 10
14.10504086100859
 20
-19.89351539355974
 30
0.0
 40
0.5
100
AcDbArc
 50
90.00000250447816
 51
176.99999468019
  0
ARC
  5
1FB
330
1F
100
AcDbEntity
  8
0
  6
Continuous
 62
     4
100
AcDbCircle
 10
-52.01315524494846
 20
1.856488421137527
 30
0.0
 40
0.5
100
AcDbArc
 50
90.00000250447816
 51
178.9999970125748
  0
ARC
  5
1FC
330
1F
100
AcDbEntity
  8
0
  6
Continuous
 62
     4
100
AcDbCircle
 10
-50.36570956623753
 20
0.606488421137527
 30
0.0
 40
0.5
100
AcDbArc
 50
269.9999974955218
 51
0.0
  0
ARC
  5
1FD
330
1F
100
AcDbEntity
  8
0
  6
Continuous
 62
     4
100
AcDbCircle
 10
-58.96571566975315
 20
5.172373964960769
 30
0.0
 40
0.5
100
AcDbArc
 50
179.9999949910437
 51
269.0000031595186
  0
ARC
  5
1FE
330
1F
100
AcDbEntity
  8
0
  6
Continuous
 62
     4
100
AcDbCircle
 10
-48.95705630696018
 20
5.106475069697098
 30
0.0
 40
0.5
100
AcDbArc
 50
0.999999992253633
 51
90.00000250447816
  0
ARC
  5
1FF
330
1F
100
AcDbEntity
  8
0
  6
Continuous
 62
     4
100
AcDbCircle
 10
-52.42554690754612
 20
0.606488421137527
 30
0.0
 40
0.5
100
AcDbArc
 50
90.00000000000001
 51
151.6407180656049
  0
ARC
  5
200
330
1F
100
AcDbEntity
  8
0
  6
Continuous
 62
     4
100
AcDbCircle
 10
-41.86570956623753
 20
-5.093497083012863
 30
0.0
 40
12.5
100
AcDbArc
 50
151.6407180656049
 51
180.0000050089563
  0
ARC
  5
201
330
1F
100
AcDbEntity
  8
0
  6
Continuous
 62
     4
100
AcDbCircle
 10
-47.11570956623753
 20
0.606501772577957
 30
0.0
 40
0.5
100
AcDbArc
 50
0.0
 51
90.00000250447816
  0
ARC
  5
202
330
1F
100
AcDbEntity
  8
0
  6
Continuous
 62
     4
100
AcDbCircle
 10
-47.11570956623753
 20
-1.143500134770676
 30
0.0
 40
0.5
100
AcDbArc
 50
179.999991348578
 51
270.0000006832453
  0
ARC
  5
203
330
1F
100
AcDbEntity
  8
0
  6
Continuous
 62
     4
100
AcDbCircle
 10
-49.71570804035862
 20
4.26080055492659
 30
0.0
 40
0.25
100
AcDbArc
 50
0.0
 51
89.00000133828577
  0
ARC
  5
204
330
1F
100
AcDbEntity
  8
0
  6
Continuous
 62
     4
100
AcDbCircle
 10
-49.11623599446018
 20
1.256999209101394
 30
0.0
 40
0.15052430331707
100
AcDbArc
 50
269.9999974955218
 51
74.99999867197056
  0
ARC
  5
205
330
1F
100
AcDbEntity
  8
0
  6
Continuous
 62
     4
100
AcDbCircle
 10
-51.04313113606175
 20
-4.643500134770676
 30
0.0
 40
0.25
100
AcDbArc
 50
183.00000531981
 51
230.995943067201
  0
ARC
  5
206
330
1F
100
AcDbEntity
  8
0
  6
Continuous
 62
     4
100
AcDbCircle
 10
-49.46570804035862
 20
-10.89350013477068
 30
0.0
 40
1.0
100
AcDbArc
 50
238.4957294582705
 51
255.7499416036925
  0
ARC
  5
207
330
1F
100
AcDbEntity
  8
0
  6
Continuous
 62
     4
100
AcDbCircle
 10
-47.11570956623753
 20
-5.093497083012863
 30
0.0
 40
7.25
100
AcDbArc
 50
179.999991348578
 51
249.7069622440038
  0
ARC
  5
208
330
1F
100
AcDbEntity
  8
0
  6
Continuous
 62
     4
100
AcDbCircle
 10
-47.11570956623753
 20
-5.093497083012863
 30
0.0
 40
6.25
100
AcDbArc
 50
179.999991348578
 51
248.1251723944989
  0
ARC
  5
209
330
1F
100
AcDbEntity
  8
0
  6
Continuous
 62
     4
100
AcDbCircle
 10
-48.25192477619846
 20
-12.14349632007341
 30
0.0
 40
0.25
100
AcDbArc
 50
6.021728706262315
 51
90.00000250447816
  0
ARC
  5
20A
330
1F
100
AcDbEntity
  8
0
  6
Continuous
 62
     4
100
AcDbCircle
 10
2.218045926926536
 20
-6.819536969487473
 30
0.0
 40
50.5
100
AcDbArc
 50
186.0217219897587
 51
211.9463606827024
  0
ARC
  5
20B
330
1F
100
AcDbEntity
  8
0
  6
Continuous
 62
     4
100
AcDbCircle
 10
2.218045926926536
 20
-6.819536969487473
 30
0.0
 40
50.0
100
AcDbArc
 50
184.7586793164663
 51
211.9463606827024
  0
ARC
  5
20C
330
1F
100
AcDbEntity
  8
0
  6
Continuous
 62
     4
100
AcDbCircle
 10
-49.11138369953831
 20
-10.64350013477068
 30
0.0
 40
0.25
100
AcDbArc
 50
269.9999974955218
 51
336.422441555635
  0
ARC
  5
20D
330
1F
100
AcDbEntity
  8
0
  6
Continuous
 62
     4
100
AcDbCircle
 10
-48.75467135822971
 20
-12.14349632007341
 30
0.0
 40
0.25
100
AcDbArc
 50
5.96276581759171
 51
90.00000250447816
  0
ARC
  5
20E
330
1F
100
AcDbEntity
  8
0
  6
Continuous
 62
     4
100
AcDbCircle
 10
-48.07438876545628
 20
-11.39349632007341
 30
0.0
 40
0.5
100
AcDbArc
 50
5.196598738955638
 51
90.00000250447816
  0
ARC
  5
20F
330
1F
100
AcDbEntity
  8
0
  6
Continuous
 62
     4
100
AcDbCircle
 10
2.218045926926536
 20
-6.819536969487473
 30
0.0
 40
51.0
100
AcDbArc
 50
185.9627637968431
 51
211.9463606827024
  0
ARC
  5
210
330
1F
100
AcDbEntity
  8
0
  6
Continuous
 62
     4
100
AcDbCircle
 10
-49.39518954670628
 20
-10.64350013477068
 30
0.0
 40
0.25
100
AcDbArc
 50
238.4957294582705
 51
269.9999974955218
  0
ARC
  5
211
330
1F
100
AcDbEntity
  8
0
  6
Continuous
 62
     4
100
AcDbCircle
 10
-50.77293612873753
 20
-9.79907493335466
 30
0.0
 40
0.25
100
AcDbArc
 50
183.00000531981
 51
238.4957294582705
  0
ARC
  5
212
330
1F
100
AcDbEntity
  8
0
  6
Continuous
 62
     4
100
AcDbCircle
 10
8.834697080491011
 20
-37.81851081592302
 30
0.0
 40
2.0
100
AcDbArc
 50
269.9999974955218
 51
356.9999999165174
  0
ARC
  5
213
330
1F
100
AcDbEntity
  8
0
  6
Continuous
 62
     4
100
AcDbCircle
 10
8.834697080491011
 20
-37.81851081592302
 30
0.0
 40
2.5
100
AcDbArc
 50
269.9999974955218
 51
356.9999999165174
  0
ARC
  5
214
330
1F
100
AcDbEntity
  8
0
  6
Continuous
 62
     4
100
AcDbCircle
 10
8.834697080491011
 20
-37.81851081592302
 30
0.0
 40
3.0
100
AcDbArc
 50
269.9999974955218
 51
356.9999999165174
  0
ARC
  5
215
330
1F
100
AcDbEntity
  8
0
  6
Continuous
 62
     4
100
AcDbCircle
 10
-39.99701144612034
 20
-33.14351157886247
 30
0.0
 40
0.75
100
AcDbArc
 50
211.9463606827024
 51
269.9999974955218
  0
ARC
  5
216
330
1F
100
AcDbEntity
  8
0
  6
Continuous
 62
     4
100
AcDbCircle
 10
-39.13551547444065
 20
-39.89351539355974
 30
0.0
 40
6.0
100
AcDbArc
 50
0.0
 51
90.00000250447816
  0
ARC
  5
217
330
1F
100
AcDbEntity
  8
0
  6
Continuous
 62
     4
100
AcDbCircle
 10
-30.88551547444065
 20
-39.89351539355974
 30
0.0
 40
2.25
100
AcDbArc
 50
179.999991348578
 51
270.0000006832453
  0
ARC
  5
218
330
1F
100
AcDbEntity
  8
0
  6
Continuous
 62
     4
100
AcDbCircle
 10
9.617591215012496
 20
-38.64351539355974
 30
0.0
 40
3.5
100
AcDbArc
 50
269.9999974955218
 51
356.9999999165174
  0
ARC
  5
219
330
1F
100
AcDbEntity
  8
0
  6
Continuous
 62
     4
100
AcDbCircle
 10
-45.50611331379612
 20
-16.39350013477068
 30
0.0
 40
0.5
100
AcDbArc
 50
90.00000250447816
 51
191.3435558617568
  0
ARC
  5
21A
330
1F
100
AcDbEntity
  8
0
  6
Continuous
 62
     4
100
AcDbCircle
 10
2.218045926926536
 20
-6.819536969487473
 30
0.0
 40
48.17499923706055
100
AcDbArc
 50
190.856744601319
 51
200.0415595254236
  0
ARC
  5
21B
330
1F
100
AcDbEntity
  8
0
  6
Continuous
 62
     4
100
AcDbCircle
 10
2.218045926926536
 20
-6.819536969487473
 30
0.0
 40
49.17499923706055
100
AcDbArc
 50
191.3435595042225
 51
200.0415595254236
  0
ARC
  5
21C
330
1F
100
AcDbEntity
  8
0
  6
Continuous
 62
     4
100
AcDbCircle
 10
-30.88551547444065
 20
-39.89351539355974
 30
0.0
 40
2.75
100
AcDbArc
 50
179.999991348578
 51
270.0000006832453
  0
ARC
  5
21D
330
1F
100
AcDbEntity
  8
0
  6
Continuous
 62
     4
100
AcDbCircle
 10
-39.13551547444065
 20
-39.89351539355974
 30
0.0
 40
6.5
100
AcDbArc
 50
0.0
 51
90.00000250447816
  0
ARC
  5
21E
330
1F
100
AcDbEntity
  8
0
  6
Continuous
 62
     4
100
AcDbCircle
 10
-44.78219058430393
 20
-17.39350013477068
 30
0.0
 40
0.5
100
AcDbArc
 50
102.3817830922556
 51
192.6791173916828
  0
ARC
  5
21F
330
1F
100
AcDbEntity
  8
0
  6
Continuous
 62
     4
100
AcDbCircle
 10
-42.80482699787815
 20
-23.24351386768083
 30
0.0
 40
1.25
100
AcDbArc
 50
200.0415595254236
 51
269.9999974955218
  0
ARC
  5
220
330
1F
100
AcDbEntity
  8
0
  6
Continuous
 62
     4
100
AcDbCircle
 10
-42.80482699787815
 20
-23.24351386768083
 30
0.0
 40
0.75
100
AcDbArc
 50
200.0415595254236
 51
269.9999974955218
  0
ARC
  5
221
330
1F
100
AcDbEntity
  8
0
  6
Continuous
 62
     4
100
AcDbCircle
 10
-30.56667544758518
 20
-39.56851081592302
 30
0.0
 40
0.25
100
AcDbArc
 50
182.1720771093778
 51
269.9999974955218
  0
ARC
  5
222
330
1F
100
AcDbEntity
  8
0
  6
Continuous
 62
     4
100
AcDbCircle
 10
-30.56667544758518
 20
-39.56851081592302
 30
0.0
 40
0.75
100
AcDbArc
 50
182.1720771093778
 51
269.9999974955218
  0
ARC
  5
223
330
1F
100
AcDbEntity
  8
0
  6
Continuous
 62
     4
100
AcDbCircle
 10
-30.56667544758518
 20
-39.56851081592302
 30
0.0
 40
1.25
100
AcDbArc
 50
182.1720771093778
 51
269.9999974955218
  0
ARC
  5
224
330
1F
100
AcDbEntity
  8
0
  6
Continuous
 62
     4
100
AcDbCircle
 10
-35.6790564290305
 20
-31.77356605273943
 30
0.0
 40
0.5
100
AcDbArc
 50
205.365951530637
 51
246.9417638009899
  0
ARC
  5
225
330
1F
100
AcDbEntity
  8
0
  6
Continuous
 62
     4
100
AcDbCircle
 10
-35.6790564290305
 20
-31.77356605273943
 30
0.0
 40
1.0
100
AcDbArc
 50
205.365951530637
 51
246.9417638009899
  0
ARC
  5
226
330
1F
100
AcDbEntity
  8
0
  6
Continuous
 62
     4
100
AcDbCircle
 10
-35.6790564290305
 20
-31.77356605273943
 30
0.0
 40
1.5
100
AcDbArc
 50
205.365951530637
 51
246.9417638009899
  0
ARC
  5
227
330
1F
100
AcDbEntity
  8
0
  6
Continuous
 62
     4
100
AcDbCircle
 10
-42.80482699787815
 20
-23.24351386768083
 30
0.0
 40
0.25
100
AcDbArc
 50
200.0415595254236
 51
269.9999974955218
  0
ARC
  5
228
330
1F
100
AcDbEntity
  8
0
  6
Continuous
 62
     4
100
AcDbCircle
 10
-40.94877078449925
 20
-24.74351386768083
 30
0.0
 40
1.25
100
AcDbArc
 50
25.36595312449877
 51
90.00000250447816
  0
ARC
  5
229
330
1F
100
AcDbEntity
  8
0
  6
Continuous
 62
     4
100
AcDbCircle
 10
-40.94877078449925
 20
-24.74351386768083
 30
0.0
 40
0.75
100
AcDbArc
 50
25.36595312449877
 51
90.00000250447816
  0
ARC
  5
22A
330
1F
100
AcDbEntity
  8
0
  6
Continuous
 62
     4
100
AcDbCircle
 10
-40.94877078449925
 20
-24.74351386768083
 30
0.0
 40
0.25
100
AcDbArc
 50
25.36595312449877
 51
90.00000250447816
  0
ARC
  5
22B
330
1F
100
AcDbEntity
  8
0
  6
Continuous
 62
     4
100
AcDbCircle
 10
11.36320431315703
 20
-27.7863529179738
 30
0.0
 40
0.5
100
AcDbArc
 50
267.0000008271338
 51
356.9999999165174
  0
ARC
  5
22C
330
1F
100
AcDbEntity
  8
0
  6
Continuous
 62
     4
100
AcDbCircle
 10
10.94451840007109
 20
-35.77538947803239
 30
0.0
 40
0.5
100
AcDbArc
 50
356.9999999165174
 51
86.99999900590097
  0
ARC
  5
22D
330
1F
100
AcDbEntity
  8
0
  6
Continuous
 62
     4
100
AcDbCircle
 10
11.49616940104765
 20
-34.80292396289568
 30
0.0
 40
0.5
100
AcDbArc
 50
356.9999999165174
 51
86.99999900590097
  0
ARC
  5
22E
330
1F
100
AcDbEntity
  8
0
  6
Continuous
 62
     4
100
AcDbCircle
 10
11.81018383586211
 20
-28.81114845020036
 30
0.0
 40
0.5
100
AcDbArc
 50
267.0000008271338
 51
356.9999999165174
  0
ARC
  5
22F
330
1F
100
AcDbEntity
  8
0
  6
Continuous
 62
     4
100
AcDbCircle
 10
2.218045926926536
 20
-6.819536969487473
 30
0.0
 40
48.67499923706055
100
AcDbArc
 50
192.6791210341485
 51
200.0415595254236
  0
ARC
  5
230
330
1F
100
AcDbEntity
  8
0
  6
Continuous
 62
     4
100
AcDbCircle
 10
-39.13551547444065
 20
-39.89351539355974
 30
0.0
 40
7.825000286102295
100
AcDbArc
 50
2.172080410786803
 51
66.94176197975702
  0
ARC
  5
231
330
1F
100
AcDbEntity
  8
0
  6
Continuous
 62
     4
100
AcDbCircle
 10
3.964484525559371
 20
-39.81851081592302
 30
0.0
 40
0.5
100
AcDbArc
 50
179.999991348578
 51
270.0000006832453
  0
ARC
  5
232
330
1F
100
AcDbEntity
  8
0
  6
Continuous
 62
     4
100
AcDbCircle
 10
2.964484525559371
 20
-40.31851081592302
 30
0.0
 40
0.5
100
AcDbArc
 50
179.999991348578
 51
270.0000006832453
  0
ARC
  5
233
330
1F
100
AcDbEntity
  8
0
  6
Continuous
 62
     4
100
AcDbCircle
 10
-3.085515474440584
 20
-40.31851081592302
 30
0.0
 40
0.5
100
AcDbArc
 50
269.9999974955218
 51
0.0
  0
ARC
  5
234
330
1F
100
AcDbEntity
  8
0
  6
Continuous
 62
     4
100
AcDbCircle
 10
-4.085515474440584
 20
-39.81851081592302
 30
0.0
 40
0.5
100
AcDbArc
 50
274.1284302072552
 51
0.0
  0
ARC
  5
235
330
1F
100
AcDbEntity
  8
0
  6
Continuous
 62
     4
100
AcDbCircle
 10
-23.13551547444065
 20
-40.31851081592302
 30
0.0
 40
0.5
100
AcDbArc
 50
269.9999974955218
 51
0.0
  0
ARC
  5
236
330
1F
100
AcDbEntity
  8
0
  6
Continuous
 62
     4
100
AcDbCircle
 10
-17.08551547444058
 20
-40.31851081592302
 30
0.0
 40
0.5
100
AcDbArc
 50
179.999991348578
 51
270.0000006832453
  0
ARC
  5
237
330
1F
100
AcDbEntity
  8
0
  6
Continuous
 62
     4
100
AcDbCircle
 10
-24.13551547444065
 20
-39.81851081592302
 30
0.0
 40
0.5
100
AcDbArc
 50
269.9999974955218
 51
0.0
  0
ARC
  5
238
330
1F
100
AcDbEntity
  8
0
  6
Continuous
 62
     4
100
AcDbCircle
 10
-16.08551547444058
 20
-39.81851081592302
 30
0.0
 40
0.5
100
AcDbArc
 50
179.999991348578
 51
265.8715611413228
  0
ARC
  5
239
330
1F
100
AcDbEntity
  8
0
  6
Continuous
 62
     4
100
AcDbCircle
 10
-39.13551547444065
 20
-39.89351539355974
 30
0.0
 40
8.324999809265137
100
AcDbArc
 50
2.172080410786803
 51
66.94176197975702
  0
ARC
  5
23A
330
1F
100
AcDbEntity
  8
0
  6
Continuous
 62
     4
100
AcDbCircle
 10
-39.13551547444065
 20
-39.89351539355974
 30
0.0
 40
7.325000286102295
100
AcDbArc
 50
2.172080410786803
 51
66.94176197975702
  0
ARC
  5
23B
330
1F
100
AcDbEntity
  8
0
  6
Continuous
 62
     4
100
AcDbCircle
 10
-39.99701144612034
 20
-33.14351157886247
 30
0.0
 40
1.25
100
AcDbArc
 50
211.9463606827024
 51
269.9999974955218
  0
ARC
  5
23C
330
1F
100
AcDbEntity
  8
0
  6
Continuous
 62
     4
100
AcDbCircle
 10
-39.13551547444065
 20
-39.89351539355974
 30
0.0
 40
5.5
100
AcDbArc
 50
0.0
 51
90.00000250447816
  0
ARC
  5
23D
330
1F
100
AcDbEntity
  8
0
  6
Continuous
 62
     4
100
AcDbCircle
 10
2.120772672532027
 20
-30.74351386768083
 30
0.0
 40
7.5
100
AcDbArc
 50
269.9999974955218
 51
356.9999999165174
  0
ARC
  5
23E
330
1F
100
AcDbEntity
  8
0
  6
Continuous
 62
     4
100
AcDbCircle
 10
9.617591215012496
 20
-38.64351539355974
 30
0.0
 40
4.0
100
AcDbArc
 50
269.9999974955218
 51
356.9999999165174
  0
ARC
  5
23F
330
1F
100
AcDbEntity
  8
0
  6
Continuous
 62
     4
100
AcDbCircle
 10
-39.99701144612034
 20
-33.14351157886247
 30
0.0
 40
0.25
100
AcDbArc
 50
211.9463606827024
 51
269.9999974955218
  0
ARC
  5
240
330
1F
100
AcDbEntity
  8
0
  6
Continuous
 62
     4
100
AcDbCircle
 10
-30.88551547444065
 20
-39.89351539355974
 30
0.0
 40
1.75
100
AcDbArc
 50
179.999991348578
 51
270.0000006832453
  0
ARC
  5
241
330
1F
100
AcDbEntity
  8
0
  6
Continuous
 62
     4
100
AcDbCircle
 10
9.617591215012496
 20
-38.64351539355974
 30
0.0
 40
3.0
100
AcDbArc
 50
269.9999974955218
 51
356.9999999165174
  0
ARC
  5
242
330
1F
100
AcDbEntity
  8
0
  6
Continuous
 62
     4
100
AcDbCircle
 10
11.59871609294218
 20
-23.29251746875505
 30
0.0
 40
0.5
100
AcDbArc
 50
356.9999999165174
 51
86.99999900590097
  0
ARC
  5
243
330
1F
100
AcDbEntity
  8
0
  6
Continuous
 62
     4
100
AcDbCircle
 10
12.15036709391875
 20
-22.3200557683156
 30
0.0
 40
0.5
100
AcDbArc
 50
356.9999999165174
 51
86.99999900590097
  0
ARC
  5
244
330
1F
100
AcDbEntity
  8
0
  6
Continuous
 62
     4
100
AcDbCircle
 10
11.58797009074492
 20
-21.80979804736833
 30
0.0
 40
0.25
100
AcDbArc
 50
181.0000029874252
 51
184.5830519241222
  0
ARC
  5
245
330
1F
100
AcDbEntity
  8
0
  6
Continuous
 62
     4
100
AcDbCircle
 10
4.284285501219571
 20
44.85648460644025
 30
0.0
 40
1.0
100
AcDbArc
 50
191.3099351661839
 51
270.0000050089564
  0
ARC
  5
246
330
1F
100
AcDbEntity
  8
0
  6
Continuous
 62
     4
100
AcDbCircle
 10
-4.405320974610461
 20
44.85648460644025
 30
0.0
 40
1.0
100
AcDbArc
 50
269.999991348578
 51
348.6900543611613
  0
ARC
  5
247
330
1F
100
AcDbEntity
  8
0
  6
Continuous
 62
     4
100
AcDbCircle
 10
-15.76571449878038
 20
44.85648460644025
 30
0.0
 40
1.0
100
AcDbArc
 50
191.3099351661839
 51
270.0000050089564
  0
ARC
  5
248
330
1F
100
AcDbEntity
  8
0
  6
Continuous
 62
     4
100
AcDbCircle
 10
-24.45531715991326
 20
44.85648460644025
 30
0.0
 40
1.0
100
AcDbArc
 50
269.999991348578
 51
348.6900543611613
  0
ARC
  5
249
330
1F
100
AcDbEntity
  8
0
  6
Continuous
 62
     4
100
AcDbCircle
 10
15.80555816052144
 20
33.35648460644025
 30
0.0
 40
1.0
100
AcDbArc
 50
180.0000025044782
 51
270.0000050089564
  0
ARC
  5
24A
330
1F
100
AcDbEntity
  8
0
  6
Continuous
 62
     4
100
AcDbCircle
 10
13.80555816052133
 20
37.85648460644025
 30
0.0
 40
1.0
100
AcDbArc
 50
8.988806932743456
 51
90.00000000000001
  0
ARC
  5
24B
330
1F
100
AcDbEntity
  8
0
  6
Continuous
 62
     4
100
AcDbCircle
 10
16.62175287322582
 20
-7.14351348621112
 30
0.0
 40
0.5
100
AcDbArc
 50
0.999999946548782
 51
90.00000000000001
  0
ARC
  5
24C
330
1F
100
AcDbEntity
  8
0
  6
Continuous
 62
     4
100
AcDbCircle
 10
16.44368602692377
 20
-6.89351348621112
 30
0.0
 40
0.25
100
AcDbArc
 50
90.00000000000001
 51
179.0000000534512
  0
ARC
  5
24D
330
1F
100
AcDbEntity
  8
0
  6
Continuous
 62
     4
100
AcDbCircle
 10
-50.95254049955118
 20
1.856488421137527
 30
0.0
 40
0.5
100
AcDbArc
 50
90.00000250447816
 51
178.9999970125748
  0
ARC
  5
24E
330
1F
100
AcDbEntity
  8
0
  6
Continuous
 62
     4
100
AcDbCircle
 10
-50.81845770268792
 20
2.106488421137527
 30
0.0
 40
0.25
100
AcDbArc
 50
3.000000083482606
 51
90.00000250447816
  0
ARC
  5
24F
330
1F
100
AcDbEntity
  8
0
  6
Continuous
 62
     4
100
AcDbCircle
 10
17.9268516337783
 20
-8.143515393559738
 30
0.0
 40
0.5
100
AcDbArc
 50
0.99999994654871
 51
90.00000000000001
  0
ARC
  5
250
330
1F
100
AcDbEntity
  8
0
  6
Continuous
 62
     4
100
AcDbCircle
 10
-50.36570992114373
 20
32.85648460644025
 30
0.0
 40
0.5
100
AcDbArc
 50
270.0
 51
0.0
  0
ARC
  5
251
330
1F
100
AcDbEntity
  8
0
  6
Continuous
 62
     3
100
AcDbCircle
 10
-49.31570656939932
 20
3.606488421137513
 30
0.0
 40
1.75
100
AcDbArc
 50
270.0
 51
0.0
  0
ARC
  5
252
330
1F
100
AcDbEntity
  8
0
  6
Continuous
 62
     3
100
AcDbCircle
 10
-47.81570656939932
 20
3.756488039667786
 30
0.0
 40
0.25
100
AcDbArc
 50
0.0
 51
90.00000000000001
  0
ARC
  5
253
330
1F
100
AcDbEntity
  8
0
  6
Continuous
 62
     7
100
AcDbCircle
 10
-107.3904397772393
 20
42.31390114086405
 30
0.0
 40
20.0
100
AcDbArc
 50
180.0000025044782
 51
194.6474661229756
  0
ARC
  5
254
330
1F
100
AcDbEntity
  8
0
  6
Continuous
 62
     7
100
AcDbCircle
 10
-107.3904397772393
 20
102.8990634943797
 30
0.0
 40
20.0
100
AcDbArc
 50
165.3525338770244
 51
179.9999974955218
  0
ARC
  5
255
330
1F
100
AcDbEntity
  8
0
  6
Continuous
 62
     2
100
AcDbCircle
 10
-114.3404458807549
 20
108.4123828913523
 30
0.0
 40
20.0
100
AcDbArc
 50
167.1614325253886
 51
179.999995674289
  0
ARC
  5
256
330
1F
100
AcDbEntity
  8
0
  6
Continuous
 62
     2
100
AcDbCircle
 10
-106.0904458807549
 20
108.4123828913523
 30
0.0
 40
20.0
100
AcDbArc
 50
167.1614325253886
 51
179.999995674289
  0
ARC
  5
257
330
1F
100
AcDbEntity
  8
0
  6
Continuous
 62
     2
100
AcDbCircle
 10
-106.0904458807549
 20
36.80058174389139
 30
0.0
 40
20.0
100
AcDbArc
 50
180.000004325711
 51
192.8385674746114
  0
ARC
  5
258
330
1F
100
AcDbEntity
  8
0
  6
Continuous
 62
     7
100
AcDbCircle
 10
-89.84043825136037
 20
32.85648231762185
 30
0.0
 40
0.5
100
AcDbArc
 50
269.9999999999999
 51
0.0
  0
ARC
  5
259
330
1F
100
AcDbEntity
  8
0
  6
Continuous
 62
     7
100
AcDbCircle
 10
-89.84043825136037
 20
112.3564823176219
 30
0.0
 40
0.5
100
AcDbArc
 50
0.0
 51
90.00000000000001
  0
ARC
  5
25A
330
1F
100
AcDbEntity
  8
0
  6
Continuous
 62
     2
100
AcDbCircle
 10
-114.3404458807549
 20
36.80058174389139
 30
0.0
 40
20.0
100
AcDbArc
 50
180.000004325711
 51
192.8385674746114
  0
ARC
  5
25B
330
1F
100
AcDbEntity
  8
0
  6
Continuous
 62
     7
100
AcDbCircle
 10
-115.4904397772393
 20
102.8990634943796
 30
0.0
 40
20.0
100
AcDbArc
 50
165.3525338770244
 51
179.9999974955218
  0
ARC
  5
25C
330
1F
100
AcDbEntity
  8
0
  6
Continuous
 62
     7
100
AcDbCircle
 10
-115.4904397772393
 20
42.31390114086405
 30
0.0
 40
20.0
100
AcDbArc
 50
180.0000025044782
 51
194.6474661229756
  0
ARC
  5
25D
330
1F
100
AcDbEntity
  8
0
  6
Continuous
 62
     4
100
AcDbCircle
 10
-50.36570992114373
 20
112.3564846064403
 30
0.0
 40
0.5
100
AcDbArc
 50
0.0
 51
89.99999999999997
  0
ARC
  5
25E
330
1F
100
AcDbEntity
  8
0
  6
Continuous
 62
     4
100
AcDbCircle
 10
13.80555816052133
 20
107.3564846064403
 30
0.0
 40
1.0
100
AcDbArc
 50
270.0
 51
351.0111930672566
  0
ARC
  5
25F
330
1F
100
AcDbEntity
  8
0
  6
Continuous
 62
     4
100
AcDbCircle
 10
15.80555816052144
 20
111.8564846064403
 30
0.0
 40
1.0
100
AcDbArc
 50
89.99999499104366
 51
179.9999974955218
  0
ARC
  5
260
330
1F
100
AcDbEntity
  8
0
  6
Continuous
 62
     4
100
AcDbCircle
 10
-24.45531715991326
 20
100.3564846064403
 30
0.0
 40
1.0
100
AcDbArc
 50
11.3099456388387
 51
90.000008651422
  0
ARC
  5
261
330
1F
100
AcDbEntity
  8
0
  6
Continuous
 62
     4
100
AcDbCircle
 10
-15.76571449878038
 20
100.3564846064403
 30
0.0
 40
1.0
100
AcDbArc
 50
89.99999499104366
 51
168.6900648338161
  0
ARC
  5
262
330
1F
100
AcDbEntity
  8
0
  6
Continuous
 62
     4
100
AcDbCircle
 10
-4.405320974610461
 20
100.3564846064403
 30
0.0
 40
1.0
100
AcDbArc
 50
11.3099456388387
 51
90.000008651422
  0
ARC
  5
263
330
1F
100
AcDbEntity
  8
0
  6
Continuous
 62
     4
100
AcDbCircle
 10
4.284285501219571
 20
100.3564846064403
 30
0.0
 40
1.0
100
AcDbArc
 50
89.99999499104366
 51
168.6900648338161
  0
ARC
  5
264
330
1F
100
AcDbEntity
  8
0
  6
Continuous
 62
     3
100
AcDbCircle
 10
-49.06571801349112
 20
91.35648458259843
 30
0.0
 40
0.5
100
AcDbArc
 50
90.0
 51
180.0
  0
ARC
  5
265
330
1F
100
AcDbEntity
  8
0
  6
Continuous
 62
     3
100
AcDbCircle
 10
-49.4657119099755
 20
96.10648470180772
 30
0.0
 40
0.25
100
AcDbArc
 50
179.9999974955218
 51
270.0
  0
ARC
  5
266
330
1F
100
AcDbEntity
  8
0
  6
Continuous
 62
     3
100
AcDbCircle
 10
-49.4657119099755
 20
101.6064851786449
 30
0.0
 40
0.25
100
AcDbArc
 50
89.99999499104366
 51
179.9999974955218
  0
ARC
  5
267
330
1F
100
AcDbEntity
  8
0
  6
Continuous
 62
     3
100
AcDbCircle
 10
-47.91570885821768
 20
95.85648470180772
 30
0.0
 40
0.3499999940395355
100
AcDbArc
 50
359.9999993167547
 51
89.99999499104366
  0
ARC
  5
268
330
1F
100
AcDbEntity
  8
0
  6
Continuous
 62
     3
100
AcDbCircle
 10
-47.91570885821768
 20
95.85648470180772
 30
0.0
 40
0.3499999940395355
100
AcDbArc
 50
89.99999499104366
 51
179.9999974955218
  0
ARC
  5
269
330
1F
100
AcDbEntity
  8
0
  6
Continuous
 62
     3
100
AcDbCircle
 10
-47.91570885821768
 20
101.8564851786449
 30
0.0
 40
0.3499999940395355
100
AcDbArc
 50
270.0
 51
0.000002504478167
  0
ARC
  5
26A
330
1F
100
AcDbEntity
  8
0
  6
Continuous
 62
     3
100
AcDbCircle
 10
-47.91570885821768
 20
101.8564851786449
 30
0.0
 40
0.3499999940395355
100
AcDbArc
 50
179.9999974955218
 51
270.0
  0
DIMENSION
  5
26B
330
1F
100
AcDbEntity
  8
0
 62
     7
100
AcDbDimension
  2
*D3
 10
12.46448719146672
 20
-53.79250929004412
 30
0.0
 11
-10.08451416894683
 21
-53.79250929004412
 31
0.0
 70
   160
  1
90
 71
     5
 42
45.10000272082698
  3
ISO-25
100
AcDbAlignedDimension
 13
-32.63551552936026
 23
-41.64351539355975
 33
0.0
 14
12.46448719146672
 24
-41.64351539355975
 34
0.0
 50
180.0
100
AcDbRotatedDimension
1001
ACAD
1000
DSTYLE
1002
{
1070
   178
1070
     1
1070
   278
1070
    46
1070
   147
1040
0.800000011920929
1070
    77
1070
     1
1070
    74
1070
     0
1070
    73
1070
     0
1070
    42
1040
2.54
1070
    44
1040
2.286000000000001
1070
    76
1070
     0
1070
    75
1070
     0
1070
   279
1070
     0
1070
   271
1070
     0
1070
   173
1070
     1
1070
    41
1040
3.0
1070
   140
1040
3.200000047683716
1070
   344
1005
26C
1070
   343
1005
26C
1002
}
  0
DIMENSION
  5
27F
330
1F
100
AcDbEntity
  8
0
 62
     7
100
AcDbDimension
  2
*D4
 10
-69.46470839526482
 20
0.106488421137527
 30
0.0
 11
-69.46470839526482
 21
-20.7675134862111
 31
0.0
 70
   160
  1
83.5
 71
     5
 42
41.75000381469726
  3
ISO-25
100
AcDbAlignedDimension
 13
-32.63551552936032
 23
-41.64351539355974
 33
0.0
 14
-51.54240611860975
 24
0.106488421137527
 34
0.0
 50
270.0
100
AcDbRotatedDimension
1001
ACAD
1000
DSTYLE
1002
{
1070
   178
1070
     1
1070
   278
1070
    46
1070
   147
1040
0.800000011920929
1070
    77
1070
     1
1070
    74
1070
     0
1070
    73
1070
     0
1070
    42
1040
2.54
1070
    44
1040
2.286000000000001
1070
    76
1070
     0
1070
    75
1070
     0
1070
   279
1070
     0
1070
   271
1070
     1
1070
   173
1070
     1
1070
    41
1040
3.0
1070
   140
1040
3.200000047683716
1070
   344
1005
26C
1070
   343
1005
26C
1002
}
  0
DIMENSION
  5
28C
330
1F
100
AcDbEntity
  8
0
 62
     7
100
AcDbDimension
  2
*D5
 10
29.71825584704634
 20
-8.643515393559738
 30
0.0
 11
29.71825584704634
 21
-25.14251539355974
 31
0.0
 70
   160
  1
66
 71
     5
 42
33.0
  3
ISO-25
100
AcDbAlignedDimension
 13
12.46448719146666
 23
-41.64351539355974
 33
0.0
 14
16.98055584513951
 24
-8.643515393559738
 34
0.0
 50
270.0
100
AcDbRotatedDimension
1001
ACAD
1000
DSTYLE
1002
{
1070
   178
1070
     1
1070
   278
1070
    46
1070
   147
1040
0.800000011920929
1070
    77
1070
     1
1070
    74
1070
     0
1070
    73
1070
     0
1070
    42
1040
2.54
1070
    44
1040
2.286000000000001
1070
    76
1070
     0
1070
    75
1070
     0
1070
   279
1070
     0
1070
   271
1070
     0
1070
   173
1070
     1
1070
    41
1040
3.0
1070
   140
1040
3.200000047683716
1070
   344
1005
26C
1070
   343
1005
26C
1002
}
  0
DIMENSION
  5
299
330
1F
100
AcDbEntity
  8
0
 62
     7
100
AcDbDimension
  2
*D6
 10
-69.46470839526482
 20
107.9564846064403
 30
0.0
 11
-69.46470839526482
 21
72.60748460644027
 31
0.0
 70
   160
  1
141
 71
     5
 42
70.70000000000005
  3
ISO-25
100
AcDbAlignedDimension
 13
-55.56571801349118
 23
37.25648460644024
 33
0.0
 14
-55.56571801349118
 24
107.9564846064403
 34
0.0
 50
270.0
100
AcDbRotatedDimension
1001
ACAD
1000
DSTYLE
1002
{
1070
   178
1070
     1
1070
   278
1070
    46
1070
   147
1040
0.800000011920929
1070
    77
1070
     1
1070
    74
1070
     0
1070
    73
1070
     0
1070
    42
1040
2.54
1070
    44
1040
2.286000000000001
1070
    76
1070
     0
1070
    75
1070
     0
1070
   279
1070
     0
1070
   271
1070
     0
1070
   173
1070
     1
1070
    41
1040
3.0
1070
   140
1040
3.200000047683716
1070
   344
1005
26C
1070
   343
1005
26C
1002
}
  0
DIMENSION
  5
2A6
330
1F
100
AcDbEntity
  8
0
 62
     7
100
AcDbDimension
  2
*D7
 10
-79.46470839526482
 20
112.8564846064403
 30
0.0
 11
-79.46470839526482
 21
72.60748460644027
 31
0.0
 70
   160
  1
161
 71
     5
 42
80.5
  3
ISO-25
100
AcDbAlignedDimension
 13
-54.36570992114379
 23
32.35648460644026
 33
0.0
 14
-54.36570992114379
 24
112.8564846064403
 34
0.0
 50
270.0
100
AcDbRotatedDimension
1001
ACAD
1000
DSTYLE
1002
{
1070
   178
1070
     1
1070
   278
1070
    46
1070
   147
1040
0.800000011920929
1070
    77
1070
     1
1070
    74
1070
     0
1070
    73
1070
     0
1070
    42
1040
2.54
1070
    44
1040
2.286000000000001
1070
    76
1070
     0
1070
    75
1070
     0
1070
   279
1070
     0
1070
   271
1070
     0
1070
   173
1070
     1
1070
    41
1040
3.0
1070
   140
1040
3.200000047683716
1070
   344
1005
26C
1070
   343
1005
26C
1002
}
  0
DIMENSION
  5
2B3
330
1F
100
AcDbEntity
  8
0
 62
     7
100
AcDbDimension
  2
*D8
 10
-10.08451919017635
 20
48.85648460644025
 30
0.0
 11
-10.08451919017636
 21
40.60748460644026
 31
0.0
 70
   160
  1
33
 71
     5
 42
16.49999999999999
  3
ISO-25
100
AcDbAlignedDimension
 13
18.43565268871951
 23
32.35648460644026
 33
0.0
 14
14.79327704266136
 24
48.85648460644025
 34
0.0
 50
270.0
100
AcDbRotatedDimension
1001
ACAD
1000
DSTYLE
1002
{
1070
   178
1070
     1
1070
   278
1070
    46
1070
   147
1040
0.800000011920929
1070
    77
1070
     1
1070
    74
1070
     0
1070
    73
1070
     0
1070
    42
1040
2.54
1070
    44
1040
2.286000000000001
1070
    76
1070
     1
1070
    75
1070
     1
1070
   279
1070
     0
1070
   271
1070
     0
1070
   173
1070
     1
1070
    41
1040
3.0
1070
   140
1040
3.200000047683716
1070
   344
1005
26C
1070
   343
1005
26C
1002
}
  0
DIMENSION
  5
2BE
330
1F
100
AcDbEntity
  8
0
 62
     7
100
AcDbDimension
  2
*D9
 10
-10.08451919017635
 20
96.35648460644026
 30
0.0
 11
-10.08451919017636
 21
72.60748460644027
 31
0.0
 70
   160
  1
95
 71
     5
 42
47.50000000000001
  3
ISO-25
100
AcDbAlignedDimension
 13
14.79327704266136
 23
48.85648460644025
 33
0.0
 14
14.79327704266136
 24
96.35648460644026
 34
0.0
 50
270.0
100
AcDbRotatedDimension
1001
ACAD
1000
DSTYLE
1002
{
1070
   178
1070
     1
1070
   278
1070
    46
1070
   147
1040
0.800000011920929
1070
    77
1070
     1
1070
    74
1070
     0
1070
    73
1070
     0
1070
    42
1040
2.54
1070
    44
1040
2.286000000000001
1070
    76
1070
     1
1070
    75
1070
     1
1070
   279
1070
     0
1070
   271
1070
     0
1070
   173
1070
     1
1070
    41
1040
3.0
1070
   140
1040
3.200000047683716
1070
   344
1005
26C
1070
   343
1005
26C
1002
}
  0
DIMENSION
  5
2C9
330
1F
100
AcDbEntity
  8
0
 62
     7
100
AcDbDimension
  2
*D10
 10
-10.08451919017635
 20
112.8564846064403
 30
0.0
 11
-10.08451919017636
 21
104.6074846064403
 31
0.0
 70
   160
  1
33
 71
     5
 42
16.5
  3
ISO-25
100
AcDbAlignedDimension
 13
14.79327704266136
 23
96.35648460644026
 33
0.0
 14
18.43565268871951
 24
112.8564846064403
 34
0.0
 50
270.0
100
AcDbRotatedDimension
1001
ACAD
1000
DSTYLE
1002
{
1070
   178
1070
     1
1070
   278
1070
    46
1070
   147
1040
0.800000011920929
1070
    77
1070
     1
1070
    74
1070
     0
1070
    73
1070
     0
1070
    42
1040
2.54
1070
    44
1040
2.286000000000001
1070
    76
1070
     1
1070
    75
1070
     1
1070
   279
1070
     0
1070
   271
1070
     0
1070
   173
1070
     1
1070
    41
1040
3.0
1070
   140
1040
3.200000047683716
1070
   344
1005
26C
1070
   343
1005
26C
1002
}
  0
LWPOLYLINE
  5
2D5
330
1F
100
AcDbEntity
  8
VIEW0001
  6
Continuous
 62
     7
100
AcDbPolyline
 90
        2
 70
     0
 10
5.747858443060352
 20
-107.0112914547608
 40
0.001000000047497
 41
0.001000000047497
 10
5.747858443060352
 20
-98.01129145476082
 40
0.001000000047497
 41
0.001000000047497
  0
LINE
  5
2D6
330
1F
100
AcDbEntity
  8
VIEW0001
  6
Continuous
 62
     7
370
    50
100
AcDbLine
 10
-144.7521415569396
 20
159.9887085452392
 30
0.0
 11
-144.7521415569396
 21
-116.0112914547608
 31
0.0
  0
LINE
  5
2D7
330
1F
100
AcDbEntity
  8
VIEW0001
  6
Continuous
 62
     7
370
    50
100
AcDbLine
 10
-144.7521415569396
 20
159.9887085452392
 30
0.0
 11
35.74785844306035
 21
159.9887085452392
 31
0.0
  0
LINE
  5
2D8
330
1F
100
AcDbEntity
  8
VIEW0001
  6
Continuous
 62
     7
370
    50
100
AcDbLine
 10
-144.7521415569396
 20
-116.0112914547608
 30
0.0
 11
35.74785844306035
 21
-116.0112914547608
 31
0.0
  0
LWPOLYLINE
  5
2D9
330
1F
100
AcDbEntity
  8
VIEW0001
  6
Continuous
 62
     7
100
AcDbPolyline
 90
        2
 70
     0
 10
35.74785844306035
 20
-107.0112914547608
 40
0.001000000047497
 41
0.001000000047497
 10
-144.7521415569396
 20
-107.0112914547608
 40
0.001000000047497
 41
0.001000000047497
  0
LINE
  5
2DA
330
1F
100
AcDbEntity
  8
VIEW0001
  6
Continuous
 62
     7
370
    20
100
AcDbLine
 10
-144.7521415569396
 20
-98.01129145476082
 30
0.0
 11
35.74785844306035
 21
-98.01129145476082
 31
0.0
  0
LINE
  5
2DB
330
1F
100
AcDbEntity
  8
VIEW0001
  6
Continuous
 62
     7
370
    50
100
AcDbLine
 10
35.74785844306035
 20
159.9887085452392
 30
0.0
 11
35.74785844306035
 21
-116.0112914547608
 31
0.0
  0
LWPOLYLINE
  5
2DC
330
1F
100
AcDbEntity
  8
VIEW0001
  6
Continuous
 62
     7
100
AcDbPolyline
 90
        2
 70
     0
 10
-34.50214155693965
 20
-107.0112914547608
 40
0.001000000047497
 41
0.001000000047497
 10
-34.50214155693965
 20
-98.01129145476082
 40
0.001000000047497
 41
0.001000000047497
  0
LWPOLYLINE
  5
2DD
330
1F
100
AcDbEntity
  8
VIEW0001
  6
Continuous
 62
     7
100
AcDbPolyline
 90
        2
 70
     0
 10
-124.7521415569396
 20
-116.0112914547608
 40
0.001000000047497
 41
0.001000000047497
 10
-124.7521415569396
 20
-98.01129145476082
 40
0.001000000047497
 41
0.001000000047497
  0
LWPOLYLINE
  5
2DE
330
1F
100
AcDbEntity
  8
VIEW0001
  6
Continuous
 62
     7
100
AcDbPolyline
 90
        2
 70
     0
 10
20.74785844306035
 20
-107.0112914547608
 40
0.001000000047497
 41
0.001000000047497
 10
20.74785844306035
 20
-98.01129145476082
 40
0.001000000047497
 41
0.001000000047497
  0
LWPOLYLINE
  5
2DF
330
1F
100
AcDbEntity
  8
VIEW0001
  6
Continuous
 62
     7
100
AcDbPolyline
 90
        2
 70
     0
 10
-54.50214155693965
 20
-116.0112914547608
 40
0.001000000047497
 41
0.001000000047497
 10
-54.50214155693965
 20
-98.01129145476082
 40
0.001000000047497
 41
0.001000000047497
  0
LINE
  5
2E0
330
1F
100
AcDbEntity
  8
VIEW0001
  6
Continuous
 62
     7
370
    20
100
AcDbLine
 10
-19.25214155693959
 20
149.9887085452392
 30
0.0
 11
35.74785844306041
 21
149.9887085452392
 31
0.0
  0
LINE
  5
2E1
330
1F
100
AcDbEntity
  8
VIEW0001
  6
Continuous
 62
     7
370
    20
100
AcDbLine
 10
-19.25214155693959
 20
159.9887085452392
 30
0.0
 11
-19.25214155693959
 21
149.9887085452392
 31
0.0
  0
MTEXT
  5
2E2
330
1F
100
AcDbEntity
  8
VIEW0001
 62
     1
100
AcDbMText
 10
-138.1808915950866
 20
-113.5112914547608
 30
0.0
 40
4.0
 41
0.0
 71
     7
 72
     1
  1
{\W0.833333;規格}
 73
     1
 44
1.0
  0
MTEXT
  5
2E3
330
1F
100
AcDbEntity
  8
VIEW0001
 62
     1
100
AcDbMText
 10
-47.93089159508656
 20
-104.5112914547608
 30
0.0
 40
4.0
 41
0.0
 71
     7
 72
     1
  1
{\W0.833333;材質}
 73
     1
 44
1.0
  0
MTEXT
  5
2E4
330
1F
100
AcDbEntity
  8
VIEW0001
 62
     1
100
AcDbMText
 10
-138.1808915950866
 20
-104.5112914547608
 30
0.0
 40
4.0
 41
0.0
 71
     7
 72
     1
  1
{\W0.833333;品名}
 73
     1
 44
1.0
  0
MTEXT
  5
2E5
330
1F
100
AcDbEntity
  8
VIEW0001
 62
     1
100
AcDbMText
 10
9.819108404913436
 20
-104.5112914547608
 30
0.0
 40
4.0
 41
0.0
 71
     7
 72
     1
  1
{\W0.833333;尺度}
 73
     1
 44
1.0
  0
MTEXT
  5
2E6
330
1F
100
AcDbEntity
  8
VIEW0001
 62
     1
100
AcDbMText
 10
-101.0558929063887
 20
-104.5112914547608
 30
0.0
 40
4.0
 41
0.0
 71
     7
 72
     1
  1
{\W0.833333;伸縮ソケット}
 73
     1
 44
1.0
  0
MTEXT
  5
2E7
330
1F
100
AcDbEntity
  8
VIEW0001
 62
     1
100
AcDbMText
 10
22.81910828570415
 20
-104.5112914547608
 30
0.0
 40
4.0
 41
0.0
 71
     7
 72
     1
  1
{\W0.833333;１／2}
 73
     1
 44
1.0
  0
MTEXT
  5
2E8
330
1F
100
AcDbEntity
  8
VIEW0001
 62
     1
100
AcDbMText
 10
-105.0558920123191
 20
-113.5112914547608
 30
0.0
 40
4.0
 41
0.0
 71
     7
 72
     1
  1
{\W0.833333;CR105（Ⅱ）}
 73
     1
 44
1.0
  0
MTEXT
  5
2E9
330
1F
100
AcDbEntity
  8
VIEW0001
 62
     1
100
AcDbMText
 10
-19.80589171429585
 20
-104.5112914547608
 30
0.0
 40
4.0
 41
0.0
 71
     7
 72
     1
  1
{\W0.833333;ASA}
 73
     1
 44
1.0
  0
MTEXT
  5
2EA
330
1F
100
AcDbEntity
  8
VIEW0001
 62
     1
100
AcDbMText
 10
-33.78428550740193
 20
-113.7612914547608
 30
0.0
 40
4.5
 41
0.0
 71
     7
 72
     1
  1
{\W1.40741;デンカ株式会社}
 73
     1
 44
1.0
  0
ENDSEC
  0
SECTION
  2
OBJECTS
  0
DICTIONARY
  5
C
330
0
100
AcDbDictionary
281
     1
  3
ACAD_GROUP
350
D
  3
ACAD_LAYOUT
350
1A
  3
ACAD_MATERIAL
350
3B
  3
ACAD_MLEADERSTYLE
350
312
  3
ACAD_MLINESTYLE
350
17
  3
ACAD_PLOTSETTINGS
350
19
  3
ACAD_PLOTSTYLENAME
350
E
  3
ACAD_TABLESTYLE
350
311
  3
ACAD_VISUALSTYLE
350
2A
  0
DICTIONARY
  5
D
102
{ACAD_REACTORS
330
C
102
}
330
C
100
AcDbDictionary
281
     1
  0
DICTIONARY
  5
1A
102
{ACAD_REACTORS
330
C
102
}
330
C
100
AcDbDictionary
281
     1
  3
Layout1
350
1E
  3
Layout2
350
26
  3
Model
350
22
  0
DICTIONARY
  5
3B
102
{ACAD_REACTORS
330
C
102
}
330
C
100
AcDbDictionary
281
     1
  3
ByBlock
350
3D
  3
ByLayer
350
3C
  3
Global
350
3E
  0
DICTIONARY
  5
312
102
{ACAD_REACTORS
330
C
102
}
330
C
100
AcDbDictionary
281
     1
  0
DICTIONARY
  5
17
102
{ACAD_REACTORS
330
C
102
}
330
C
100
AcDbDictionary
281
     1
  3
Standard
350
18
  0
DICTIONARY
  5
19
102
{ACAD_REACTORS
330
C
102
}
330
C
100
AcDbDictionary
281
     1
  0
ACDBDICTIONARYWDFLT
  5
E
102
{ACAD_REACTORS
330
C
102
}
330
C
100
AcDbDictionary
281
     1
  3
Normal
350
F
100
AcDbDictionaryWithDefault
340
F
  0
DICTIONARY
  5
311
102
{ACAD_REACTORS
330
C
102
}
330
C
100
AcDbDictionary
281
     1
  0
DICTIONARY
  5
2A
102
{ACAD_REACTORS
330
C
102
}
330
C
100
AcDbDictionary
281
     1
  3
2dWireframe
350
2F
  3
3D Hidden
350
31
  3
3dWireframe
350
30
  3
Basic
350
32
  3
Brighten
350
36
  3
ColorChange
350
3A
  3
Conceptual
350
34
  3
Dim
350
35
  3
Facepattern
350
39
  3
Flat
350
2B
  3
FlatWithEdges
350
2C
  3
Gouraud
350
2D
  3
GouraudWithEdges
350
2E
  3
Linepattern
350
38
  3
Realistic
350
33
  3
Thicken
350
37
  0
LAYOUT
  5
1E
102
{ACAD_REACTORS
330
1A
102
}
330
1A
100
AcDbPlotSettings
  1

  2
none_device
  4

  6

 40
0.0
 41
0.0
 42
0.0
 43
0.0
 44
0.0
 45
0.0
 46
0.0
 47
0.0
 48
0.0
 49
0.0
140
0.0
141
0.0
142
1.0
143
1.0
 70
   688
 72
     0
 73
     0
 74
     5
  7

 75
    16
 76
     0
 77
     2
 78
   300
147
1.0
148
0.0
149
0.0
100
AcDbLayout
  1
Layout1
 70
     1
 71
     1
 10
-165.2521415569396
 20
-126.5112914547608
 11
44.74785844306035
 21
170.4887085452392
 12
0.0
 22
0.0
 32
0.0
 14
1.000000000000000E+20
 24
1.000000000000000E+20
 34
1.000000000000000E+20
 15
-1.000000000000000E+20
 25
-1.000000000000000E+20
 35
-1.000000000000000E+20
146
0.0
 13
0.0
 23
0.0
 33
0.0
 16
1.0
 26
0.0
 36
0.0
 17
0.0
 27
1.0
 37
0.0
 76
     0
330
1B
  0
LAYOUT
  5
26
102
{ACAD_REACTORS
330
1A
102
}
330
1A
100
AcDbPlotSettings
  1

  2
none_device
  4

  6

 40
0.0
 41
0.0
 42
0.0
 43
0.0
 44
0.0
 45
0.0
 46
0.0
 47
0.0
 48
0.0
 49
0.0
140
0.0
141
0.0
142
1.0
143
1.0
 70
   688
 72
     0
 73
     0
 74
     5
  7

 75
    16
 76
     0
 77
     2
 78
   300
147
1.0
148
0.0
149
0.0
100
AcDbLayout
  1
Layout2
 70
     1
 71
     2
 10
0.0
 20
0.0
 11
0.0
 21
0.0
 12
0.0
 22
0.0
 32
0.0
 14
0.0
 24
0.0
 34
0.0
 15
0.0
 25
0.0
 35
0.0
146
0.0
 13
0.0
 23
0.0
 33
0.0
 16
1.0
 26
0.0
 36
0.0
 17
0.0
 27
1.0
 37
0.0
 76
     0
330
23
  0
LAYOUT
  5
22
102
{ACAD_REACTORS
330
1A
102
}
330
1A
100
AcDbPlotSettings
  1

  2
none_device
  4

  6

 40
0.0
 41
0.0
 42
0.0
 43
0.0
 44
0.0
 45
0.0
 46
0.0
 47
0.0
 48
0.0
 49
0.0
140
0.0
141
0.0
142
1.0
143
1.0
 70
  1712
 72
     0
 73
     0
 74
     0
  7

 75
     0
 76
     0
 77
     2
 78
   300
147
1.0
148
0.0
149
0.0
100
AcDbLayout
  1
Model
 70
     1
 71
     0
 10
-165.2521415569396
 20
-126.5112914547608
 11
44.74785844306035
 21
170.4887085452392
 12
0.0
 22
0.0
 32
0.0
 14
-165.2521415569396
 24
-126.5112914547608
 34
0.0
 15
44.74785844306035
 25
170.4887085452392
 35
0.0
146
0.0
 13
0.0
 23
0.0
 33
0.0
 16
1.0
 26
0.0
 36
0.0
 17
0.0
 27
1.0
 37
0.0
 76
     0
330
1F
331
29
  0
MATERIAL
  5
3D
102
{ACAD_REACTORS
330
3B
102
}
102
{ACAD_XDICTIONARY
360
30D
102
}
330
3B
100
AcDbMaterial
  1
ByBlock
  0
MATERIAL
  5
3C
102
{ACAD_REACTORS
330
3B
102
}
102
{ACAD_XDICTIONARY
360
30B
102
}
330
3B
100
AcDbMaterial
  1
ByLayer
  0
MATERIAL
  5
3E
102
{ACAD_REACTORS
330
3B
102
}
102
{ACAD_XDICTIONARY
360
30F
102
}
330
3B
100
AcDbMaterial
  1
Global
  0
MLINESTYLE
  5
18
102
{ACAD_REACTORS
330
17
102
}
330
17
100
AcDbMlineStyle
  2
Standard
 70
     0
  3

 62
   256
 51
90.0
 52
90.0
 71
     2
 49
0.5
 62
   256
  6
BYLAYER
 49
-0.5
 62
   256
  6
BYLAYER
  0
ACDBPLACEHOLDER
  5
F
102
{ACAD_REACTORS
330
E
102
}
330
E
  0
VISUALSTYLE
  5
2F
102
{ACAD_REACTORS
330
2A
102
}
102
{ACAD_XDICTIONARY
360
2F3
102
}
330
2A
100
AcDbVisualStyle
  2
2dWireframe
 70
     4
 71
     0
 72
     2
 73
     0
 90
        0
 40
-0.6
 41
-30.0
 62
     5
 63
     7
421
 16777215
 74
     1
 91
        4
 64
     7
 65
   257
 75
     1
175
     1
 42
1.0
 92
        0
 66
   257
 43
1.0
 76
     1
 77
     6
 78
     2
 67
     7
 79
     5
170
     0
171
     0
290
     0
174
     0
 93
        1
 44
0.0
173
     0
291
     0
 45
0.0
1001
ACAD
1000
AcDbSavedByObjectVersion
1070
     0
  0
VISUALSTYLE
  5
31
102
{ACAD_REACTORS
330
2A
102
}
102
{ACAD_XDICTIONARY
360
2F7
102
}
330
2A
100
AcDbVisualStyle
  2
3D Hidden
 70
     6
 71
     1
 72
     2
 73
     2
 90
        0
 40
-0.6
 41
-30.0
 62
     5
 63
     7
421
 16777215
 74
     2
 91
        2
 64
     7
 65
   257
 75
     2
175
     1
 42
40.0
 92
        0
 66
   257
 43
1.0
 76
     1
 77
     6
 78
     2
 67
     7
 79
     3
170
     0
171
     0
290
     0
174
     0
 93
        1
 44
0.0
173
     0
291
     0
 45
0.0
1001
ACAD
1000
AcDbSavedByObjectVersion
1070
     0
  0
VISUALSTYLE
  5
30
102
{ACAD_REACTORS
330
2A
102
}
102
{ACAD_XDICTIONARY
360
2F5
102
}
330
2A
100
AcDbVisualStyle
  2
3dWireframe
 70
     5
 71
     0
 72
     2
 73
     0
 90
        0
 40
-0.6
 41
-30.0
 62
     5
 63
     7
421
 16777215
 74
     1
 91
        4
 64
     7
 65
   257
 75
     1
175
     1
 42
1.0
 92
        0
 66
   257
 43
1.0
 76
     1
 77
     6
 78
     2
 67
     7
 79
     5
170
     0
171
     0
290
     0
174
     0
 93
        1
 44
0.0
173
     0
291
     0
 45
0.0
1001
ACAD
1000
AcDbSavedByObjectVersion
1070
     0
  0
VISUALSTYLE
  5
32
102
{ACAD_REACTORS
330
2A
102
}
102
{ACAD_XDICTIONARY
360
2F9
102
}
330
2A
100
AcDbVisualStyle
  2
Basic
 70
     7
 71
     1
 72
     0
 73
     1
 90
        0
 40
-0.6
 41
-30.0
 62
     5
 63
     7
421
 16777215
 74
     0
 91
        4
 64
     7
 65
   257
 75
     1
175
     1
 42
1.0
 92
        8
 66
     7
 43
1.0
 76
     1
 77
     6
 78
     2
 67
     7
 79
     5
170
     0
171
     0
290
     0
174
     0
 93
        1
 44
0.0
173
     0
291
     1
 45
0.0
1001
ACAD
1000
AcDbSavedByObjectVersion
1070
     0
  0
VISUALSTYLE
  5
36
102
{ACAD_REACTORS
330
2A
102
}
102
{ACAD_XDICTIONARY
360
301
102
}
330
2A
100
AcDbVisualStyle
  2
Brighten
 70
    12
 71
     2
 72
     2
 73
     0
 90
        0
 40
-0.6
 41
-30.0
 62
     5
 63
     7
421
 16777215
 74
     1
 91
        4
 64
     7
 65
   257
 75
     1
175
     1
 42
1.0
 92
        8
 66
     7
 43
1.0
 76
     1
 77
     6
 78
     2
 67
     7
 79
     5
170
     0
171
     0
290
     0
174
     0
 93
        1
 44
50.0
173
     0
291
     1
 45
0.0
1001
ACAD
1000
AcDbSavedByObjectVersion
1070
     0
  0
VISUALSTYLE
  5
3A
102
{ACAD_REACTORS
330
2A
102
}
102
{ACAD_XDICTIONARY
360
309
102
}
330
2A
100
AcDbVisualStyle
  2
ColorChange
 70
    16
 71
     2
 72
     2
 73
     3
 90
        0
 40
-0.6
 41
-30.0
 62
     5
 63
     8
421
  8421504
 74
     1
 91
        4
 64
     7
 65
   257
 75
     1
175
     1
 42
1.0
 92
        8
 66
     8
424
  8421504
 43
1.0
 76
     1
 77
     6
 78
     2
 67
     7
 79
     5
170
     0
171
     0
290
     0
174
     0
 93
        1
 44
0.0
173
     0
291
     1
 45
0.0
1001
ACAD
1000
AcDbSavedByObjectVersion
1070
     0
  0
VISUALSTYLE
  5
34
102
{ACAD_REACTORS
330
2A
102
}
102
{ACAD_XDICTIONARY
360
2FD
102
}
330
2A
100
AcDbVisualStyle
  2
Conceptual
 70
     9
 71
     3
 72
     2
 73
     0
 90
        0
 40
-0.6
 41
-30.0
 62
     5
 63
     7
421
 16777215
 74
     2
 91
        2
 64
     7
 65
   257
 75
     1
175
     1
 42
40.0
 92
        8
 66
     7
 43
1.0
 76
     1
 77
     6
 78
     2
 67
     7
 79
     3
170
     0
171
     0
290
     0
174
     0
 93
        1
 44
0.0
173
     0
291
     0
 45
0.0
1001
ACAD
1000
AcDbSavedByObjectVersion
1070
     0
  0
VISUALSTYLE
  5
35
102
{ACAD_REACTORS
330
2A
102
}
102
{ACAD_XDICTIONARY
360
2FF
102
}
330
2A
100
AcDbVisualStyle
  2
Dim
 70
    11
 71
     2
 72
     2
 73
     0
 90
        0
 40
-0.6
 41
-30.0
 62
     5
 63
     7
421
 16777215
 74
     1
 91
        4
 64
     7
 65
   257
 75
     1
175
     1
 42
1.0
 92
        8
 66
     7
 43
1.0
 76
     1
 77
     6
 78
     2
 67
     7
 79
     5
170
     0
171
     0
290
     0
174
     0
 93
        1
 44
-50.0
173
     0
291
     1
 45
0.0
1001
ACAD
1000
AcDbSavedByObjectVersion
1070
     0
  0
VISUALSTYLE
  5
39
102
{ACAD_REACTORS
330
2A
102
}
102
{ACAD_XDICTIONARY
360
307
102
}
330
2A
100
AcDbVisualStyle
  2
Facepattern
 70
    15
 71
     2
 72
     2
 73
     0
 90
        0
 40
-0.6
 41
-30.0
 62
     5
 63
     7
421
 16777215
 74
     1
 91
        4
 64
     7
 65
   257
 75
     1
175
     1
 42
1.0
 92
        8
 66
     7
 43
1.0
 76
     1
 77
     6
 78
     2
 67
     7
 79
     5
170
     0
171
     0
290
     0
174
     0
 93
        1
 44
0.0
173
     0
291
     1
 45
0.0
1001
ACAD
1000
AcDbSavedByObjectVersion
1070
     0
  0
VISUALSTYLE
  5
2B
102
{ACAD_REACTORS
330
2A
102
}
102
{ACAD_XDICTIONARY
360
2EB
102
}
330
2A
100
AcDbVisualStyle
  2
Flat
 70
     0
 71
     2
 72
     1
 73
     1
 90
        2
 40
-0.6
 41
30.0
 62
     5
 63
     7
421
 16777215
 74
     0
 91
        4
 64
     7
 65
   257
 75
     1
175
     1
 42
1.0
 92
        8
 66
     7
 43
1.0
 76
     1
 77
     6
 78
     2
 67
     7
 79
     5
170
     0
171
     0
290
     0
174
     0
 93
       13
 44
0.0
173
     0
291
     1
 45
0.0
1001
ACAD
1000
AcDbSavedByObjectVersion
1070
     0
  0
VISUALSTYLE
  5
2C
102
{ACAD_REACTORS
330
2A
102
}
102
{ACAD_XDICTIONARY
360
2ED
102
}
330
2A
100
AcDbVisualStyle
  2
FlatWithEdges
 70
     1
 71
     2
 72
     1
 73
     1
 90
        2
 40
-0.6
 41
30.0
 62
     5
 63
     7
421
 16777215
 74
     1
 91
        4
 64
     7
 65
   257
 75
     1
175
     1
 42
1.0
 92
        0
 66
   257
 43
1.0
 76
     1
 77
     6
 78
     2
 67
     7
 79
     5
170
     0
171
     0
290
     0
174
     0
 93
       13
 44
0.0
173
     0
291
     1
 45
0.0
1001
ACAD
1000
AcDbSavedByObjectVersion
1070
     0
  0
VISUALSTYLE
  5
2D
102
{ACAD_REACTORS
330
2A
102
}
102
{ACAD_XDICTIONARY
360
2EF
102
}
330
2A
100
AcDbVisualStyle
  2
Gouraud
 70
     2
 71
     2
 72
     2
 73
     1
 90
        2
 40
-0.6
 41
30.0
 62
     5
 63
     7
421
 16777215
 74
     0
 91
        4
 64
     7
 65
   257
 75
     1
175
     1
 42
1.0
 92
        0
 66
     7
 43
1.0
 76
     1
 77
     6
 78
     2
 67
     7
 79
     5
170
     0
171
     0
290
     0
174
     0
 93
       13
 44
0.0
173
     0
291
     1
 45
0.0
1001
ACAD
1000
AcDbSavedByObjectVersion
1070
     0
  0
VISUALSTYLE
  5
2E
102
{ACAD_REACTORS
330
2A
102
}
102
{ACAD_XDICTIONARY
360
2F1
102
}
330
2A
100
AcDbVisualStyle
  2
GouraudWithEdges
 70
     3
 71
     2
 72
     2
 73
     1
 90
        2
 40
-0.6
 41
30.0
 62
     5
 63
     7
421
 16777215
 74
     1
 91
        4
 64
     7
 65
   257
 75
     1
175
     1
 42
1.0
 92
        0
 66
   257
 43
1.0
 76
     1
 77
     6
 78
     2
 67
     7
 79
     5
170
     0
171
     0
290
     0
174
     0
 93
       13
 44
0.0
173
     0
291
     1
 45
0.0
1001
ACAD
1000
AcDbSavedByObjectVersion
1070
     0
  0
VISUALSTYLE
  5
38
102
{ACAD_REACTORS
330
2A
102
}
102
{ACAD_XDICTIONARY
360
305
102
}
330
2A
100
AcDbVisualStyle
  2
Linepattern
 70
    14
 71
     2
 72
     2
 73
     0
 90
        0
 40
-0.6
 41
-30.0
 62
     5
 63
     7
421
 16777215
 74
     1
 91
        4
 64
     7
 65
   257
 75
     7
175
     7
 42
1.0
 92
        8
 66
     7
 43
1.0
 76
     1
 77
     6
 78
     2
 67
     7
 79
     5
170
     0
171
     0
290
     0
174
     0
 93
        1
 44
0.0
173
     0
291
     1
 45
0.0
1001
ACAD
1000
AcDbSavedByObjectVersion
1070
     0
  0
VISUALSTYLE
  5
33
102
{ACAD_REACTORS
330
2A
102
}
102
{ACAD_XDICTIONARY
360
2FB
102
}
330
2A
100
AcDbVisualStyle
  2
Realistic
 70
     8
 71
     2
 72
     2
 73
     0
 90
        0
 40
-0.6
 41
-30.0
 62
     5
 63
     7
421
 16777215
 74
     1
 91
        0
 64
     7
 65
   257
 75
     1
175
     1
 42
1.0
 92
        8
 66
     8
424
  7895160
 43
1.0
 76
     1
 77
     6
 78
     2
 67
     7
 79
     5
170
     0
171
     0
290
     0
174
     0
 93
       13
 44
0.0
173
     0
291
     0
 45
0.0
1001
ACAD
1000
AcDbSavedByObjectVersion
1070
     0
  0
VISUALSTYLE
  5
37
102
{ACAD_REACTORS
330
2A
102
}
102
{ACAD_XDICTIONARY
360
303
102
}
330
2A
100
AcDbVisualStyle
  2
Thicken
 70
    13
 71
     2
 72
     2
 73
     0
 90
        0
 40
-0.6
 41
-30.0
 62
     5
 63
     7
421
 16777215
 74
     1
 91
        4
 64
     7
 65
   257
 75
     1
175
     1
 42
1.0
 92
       12
 66
     7
 43
1.0
 76
     1
 77
     6
 78
     2
 67
     7
 79
     5
170
     0
171
     0
290
     0
174
     0
 93
        1
 44
0.0
173
     0
291
     1
 45
0.0
1001
ACAD
1000
AcDbSavedByObjectVersion
1070
     0
  0
DICTIONARY
  5
30D
330
3D
100
AcDbDictionary
280
     1
281
     1
  3
ACAD_XREC_ROUNDTRIP
360
30E
  0
DICTIONARY
  5
30B
330
3C
100
AcDbDictionary
280
     1
281
     1
  3
ACAD_XREC_ROUNDTRIP
360
30C
  0
DICTIONARY
  5
30F
330
3E
100
AcDbDictionary
280
     1
281
     1
  3
ACAD_XREC_ROUNDTRIP
360
310
  0
DICTIONARY
  5
2F3
330
2F
100
AcDbDictionary
280
     1
281
     1
  3
ACAD_XREC_ROUNDTRIP
360
2F4
  0
DICTIONARY
  5
2F7
330
31
100
AcDbDictionary
280
     1
281
     1
  3
ACAD_XREC_ROUNDTRIP
360
2F8
  0
DICTIONARY
  5
2F5
330
30
100
AcDbDictionary
280
     1
281
     1
  3
ACAD_XREC_ROUNDTRIP
360
2F6
  0
DICTIONARY
  5
2F9
330
32
100
AcDbDictionary
280
     1
281
     1
  3
ACAD_XREC_ROUNDTRIP
360
2FA
  0
DICTIONARY
  5
301
330
36
100
AcDbDictionary
280
     1
281
     1
  3
ACAD_XREC_ROUNDTRIP
360
302
  0
DICTIONARY
  5
309
330
3A
100
AcDbDictionary
280
     1
281
     1
  3
ACAD_XREC_ROUNDTRIP
360
30A
  0
DICTIONARY
  5
2FD
330
34
100
AcDbDictionary
280
     1
281
     1
  3
ACAD_XREC_ROUNDTRIP
360
2FE
  0
DICTIONARY
  5
2FF
330
35
100
AcDbDictionary
280
     1
281
     1
  3
ACAD_XREC_ROUNDTRIP
360
300
  0
DICTIONARY
  5
307
330
39
100
AcDbDictionary
280
     1
281
     1
  3
ACAD_XREC_ROUNDTRIP
360
308
  0
DICTIONARY
  5
2EB
330
2B
100
AcDbDictionary
280
     1
281
     1
  3
ACAD_XREC_ROUNDTRIP
360
2EC
  0
DICTIONARY
  5
2ED
330
2C
100
AcDbDictionary
280
     1
281
     1
  3
ACAD_XREC_ROUNDTRIP
360
2EE
  0
DICTIONARY
  5
2EF
330
2D
100
AcDbDictionary
280
     1
281
     1
  3
ACAD_XREC_ROUNDTRIP
360
2F0
  0
DICTIONARY
  5
2F1
330
2E
100
AcDbDictionary
280
     1
281
     1
  3
ACAD_XREC_ROUNDTRIP
360
2F2
  0
DICTIONARY
  5
305
330
38
100
AcDbDictionary
280
     1
281
     1
  3
ACAD_XREC_ROUNDTRIP
360
306
  0
DICTIONARY
  5
2FB
330
33
100
AcDbDictionary
280
     1
281
     1
  3
ACAD_XREC_ROUNDTRIP
360
2FC
  0
DICTIONARY
  5
303
330
37
100
AcDbDictionary
280
     1
281
     1
  3
ACAD_XREC_ROUNDTRIP
360
304
  0
XRECORD
  5
30E
102
{ACAD_REACTORS
330
30D
102
}
330
30D
100
AcDbXrecord
280
     1
102
MATERIAL
148
0.0
149
0.0
149
0.0
 93
        0
 94
      127
282
     0
 72
     1
 77
     1
171
     1
175
     1
179
     1
273
     0
  0
XRECORD
  5
30C
102
{ACAD_REACTORS
330
30B
102
}
330
30B
100
AcDbXrecord
280
     1
102
MATERIAL
148
0.0
149
0.0
149
0.0
 93
        0
 94
      127
282
     0
 72
     1
 77
     1
171
     1
175
     1
179
     1
273
     0
  0
XRECORD
  5
310
102
{ACAD_REACTORS
330
30F
102
}
330
30F
100
AcDbXrecord
280
     1
102
MATERIAL
148
0.0
149
0.0
149
0.0
 93
        0
 94
      127
282
     0
 72
     1
 77
     1
171
     1
175
     1
179
     1
273
     0
  0
XRECORD
  5
2F4
102
{ACAD_REACTORS
330
2F3
102
}
330
2F3
100
AcDbXrecord
280
     1
102
RTVSPropertyOp0
 70
     1
102
RTVSPropertyOp1
 70
     1
102
RTVSPropertyOp2
 70
     1
102
RTVSPropertyOp3
 70
     1
102
RTVSPropertyOp4
 70
     1
102
RTVSPropertyOp5
 70
     1
102
RTVSPropertyOp6
 70
     1
102
RTVSPropertyOp7
 70
     1
102
RTVSPropertyOp8
 70
     1
102
RTVSPropertyOp9
 70
     1
102
RTVSPropertyOp10
 70
     1
102
RTVSPropertyOp11
 70
     1
102
RTVSPropertyOp12
 70
     1
102
RTVSPropertyOp13
 70
     1
102
RTVSPropertyOp14
 70
     1
102
RTVSPropertyOp15
 70
     1
102
RTVSPropertyOp16
 70
     1
102
RTVSPropertyOp17
 70
     1
102
RTVSPropertyOp18
 70
     1
102
RTVSPropertyOp19
 70
     1
102
RTVSPropertyOp20
 70
     1
102
RTVSPropertyOp21
 70
     1
102
RTVSPropertyOp22
 70
     1
102
RTVSPropertyOp23
 70
     1
102
RTVSPropertyOp24
 70
     1
102
RTVSPropertyOp25
 70
     1
102
RTVSPropertyOp26
 70
     1
102
RTVSPropertyOp27
 70
     1
102
RTVSPropertyOp28
 70
     1
102
RTVSPropertyOp29
 70
     1
102
RTVSPropertyOp30
 70
     1
102
RTVSPropertyOp31
 70
     1
102
RTVSPropertyOp32
 70
     1
  0
XRECORD
  5
2F8
102
{ACAD_REACTORS
330
2F7
102
}
330
2F7
100
AcDbXrecord
280
     1
102
RTVSPropertyOp0
 70
     1
102
RTVSPropertyOp1
 70
     1
102
RTVSPropertyOp2
 70
     1
102
RTVSPropertyOp3
 70
     1
102
RTVSPropertyOp4
 70
     1
102
RTVSPropertyOp5
 70
     1
102
RTVSPropertyOp6
 70
     1
102
RTVSPropertyOp7
 70
     1
102
RTVSPropertyOp8
 70
     1
102
RTVSPropertyOp9
 70
     1
102
RTVSPropertyOp10
 70
     1
102
RTVSPropertyOp11
 70
     1
102
RTVSPropertyOp12
 70
     1
102
RTVSPropertyOp13
 70
     1
102
RTVSPropertyOp14
 70
     1
102
RTVSPropertyOp15
 70
     1
102
RTVSPropertyOp16
 70
     1
102
RTVSPropertyOp17
 70
     1
102
RTVSPropertyOp18
 70
     1
102
RTVSPropertyOp19
 70
     1
102
RTVSPropertyOp20
 70
     1
102
RTVSPropertyOp21
 70
     1
102
RTVSPropertyOp22
 70
     1
102
RTVSPropertyOp23
 70
     1
102
RTVSPropertyOp24
 70
     1
102
RTVSPropertyOp25
 70
     1
102
RTVSPropertyOp26
 70
     1
102
RTVSPropertyOp27
 70
     1
102
RTVSPropertyOp28
 70
     1
102
RTVSPropertyOp29
 70
     1
102
RTVSPropertyOp30
 70
     1
102
RTVSPropertyOp31
 70
     1
102
RTVSPropertyOp32
 70
     1
  0
XRECORD
  5
2F6
102
{ACAD_REACTORS
330
2F5
102
}
330
2F5
100
AcDbXrecord
280
     1
102
RTVSPropertyOp0
 70
     1
102
RTVSPropertyOp1
 70
     1
102
RTVSPropertyOp2
 70
     1
102
RTVSPropertyOp3
 70
     1
102
RTVSPropertyOp4
 70
     1
102
RTVSPropertyOp5
 70
     1
102
RTVSPropertyOp6
 70
     1
102
RTVSPropertyOp7
 70
     1
102
RTVSPropertyOp8
 70
     1
102
RTVSPropertyOp9
 70
     1
102
RTVSPropertyOp10
 70
     1
102
RTVSPropertyOp11
 70
     1
102
RTVSPropertyOp12
 70
     1
102
RTVSPropertyOp13
 70
     1
102
RTVSPropertyOp14
 70
     1
102
RTVSPropertyOp15
 70
     1
102
RTVSPropertyOp16
 70
     1
102
RTVSPropertyOp17
 70
     1
102
RTVSPropertyOp18
 70
     1
102
RTVSPropertyOp19
 70
     1
102
RTVSPropertyOp20
 70
     1
102
RTVSPropertyOp21
 70
     1
102
RTVSPropertyOp22
 70
     1
102
RTVSPropertyOp23
 70
     1
102
RTVSPropertyOp24
 70
     1
102
RTVSPropertyOp25
 70
     1
102
RTVSPropertyOp26
 70
     1
102
RTVSPropertyOp27
 70
     1
102
RTVSPropertyOp28
 70
     1
102
RTVSPropertyOp29
 70
     1
102
RTVSPropertyOp30
 70
     1
102
RTVSPropertyOp31
 70
     1
102
RTVSPropertyOp32
 70
     1
  0
XRECORD
  5
2FA
102
{ACAD_REACTORS
330
2F9
102
}
330
2F9
100
AcDbXrecord
280
     1
102
RTVSPropertyOp0
 70
     1
102
RTVSPropertyOp1
 70
     1
102
RTVSPropertyOp2
 70
     1
102
RTVSPropertyOp3
 70
     1
102
RTVSPropertyOp4
 70
     1
102
RTVSPropertyOp5
 70
     1
102
RTVSPropertyOp6
 70
     1
102
RTVSPropertyOp7
 70
     1
102
RTVSPropertyOp8
 70
     1
102
RTVSPropertyOp9
 70
     1
102
RTVSPropertyOp10
 70
     1
102
RTVSPropertyOp11
 70
     1
102
RTVSPropertyOp12
 70
     1
102
RTVSPropertyOp13
 70
     1
102
RTVSPropertyOp14
 70
     1
102
RTVSPropertyOp15
 70
     1
102
RTVSPropertyOp16
 70
     1
102
RTVSPropertyOp17
 70
     1
102
RTVSPropertyOp18
 70
     1
102
RTVSPropertyOp19
 70
     1
102
RTVSPropertyOp20
 70
     1
102
RTVSPropertyOp21
 70
     1
102
RTVSPropertyOp22
 70
     1
102
RTVSPropertyOp23
 70
     1
102
RTVSPropertyOp24
 70
     1
102
RTVSPropertyOp25
 70
     1
102
RTVSPropertyOp26
 70
     1
102
RTVSPropertyOp27
 70
     1
102
RTVSPropertyOp28
 70
     1
102
RTVSPropertyOp29
 70
     1
102
RTVSPropertyOp30
 70
     1
102
RTVSPropertyOp31
 70
     1
102
RTVSPropertyOp32
 70
     1
  0
XRECORD
  5
302
102
{ACAD_REACTORS
330
301
102
}
330
301
100
AcDbXrecord
280
     1
102
RTVSPropertyOp0
 70
     1
102
RTVSPropertyOp1
 70
     1
102
RTVSPropertyOp2
 70
     1
102
RTVSPropertyOp3
 70
     1
102
RTVSPropertyOp4
 70
     1
102
RTVSPropertyOp5
 70
     1
102
RTVSPropertyOp6
 70
     1
102
RTVSPropertyOp7
 70
     1
102
RTVSPropertyOp8
 70
     1
102
RTVSPropertyOp9
 70
     1
102
RTVSPropertyOp10
 70
     1
102
RTVSPropertyOp11
 70
     1
102
RTVSPropertyOp12
 70
     1
102
RTVSPropertyOp13
 70
     1
102
RTVSPropertyOp14
 70
     1
102
RTVSPropertyOp15
 70
     1
102
RTVSPropertyOp16
 70
     1
102
RTVSPropertyOp17
 70
     1
102
RTVSPropertyOp18
 70
     1
102
RTVSPropertyOp19
 70
     1
102
RTVSPropertyOp20
 70
     1
102
RTVSPropertyOp21
 70
     1
102
RTVSPropertyOp22
 70
     1
102
RTVSPropertyOp23
 70
     1
102
RTVSPropertyOp24
 70
     1
102
RTVSPropertyOp25
 70
     1
102
RTVSPropertyOp26
 70
     1
102
RTVSPropertyOp27
 70
     1
102
RTVSPropertyOp28
 70
     1
102
RTVSPropertyOp29
 70
     1
102
RTVSPropertyOp30
 70
     1
102
RTVSPropertyOp31
 70
     1
102
RTVSPropertyOp32
 70
     1
  0
XRECORD
  5
30A
102
{ACAD_REACTORS
330
309
102
}
330
309
100
AcDbXrecord
280
     1
102
RTVSPropertyOp0
 70
     1
102
RTVSPropertyOp1
 70
     1
102
RTVSPropertyOp2
 70
     1
102
RTVSPropertyOp3
 70
     1
102
RTVSPropertyOp4
 70
     1
102
RTVSPropertyOp5
 70
     1
102
RTVSPropertyOp6
 70
     1
102
RTVSPropertyOp7
 70
     1
102
RTVSPropertyOp8
 70
     1
102
RTVSPropertyOp9
 70
     1
102
RTVSPropertyOp10
 70
     1
102
RTVSPropertyOp11
 70
     1
102
RTVSPropertyOp12
 70
     1
102
RTVSPropertyOp13
 70
     1
102
RTVSPropertyOp14
 70
     1
102
RTVSPropertyOp15
 70
     1
102
RTVSPropertyOp16
 70
     1
102
RTVSPropertyOp17
 70
     1
102
RTVSPropertyOp18
 70
     1
102
RTVSPropertyOp19
 70
     1
102
RTVSPropertyOp20
 70
     1
102
RTVSPropertyOp21
 70
     1
102
RTVSPropertyOp22
 70
     1
102
RTVSPropertyOp23
 70
     1
102
RTVSPropertyOp24
 70
     1
102
RTVSPropertyOp25
 70
     1
102
RTVSPropertyOp26
 70
     1
102
RTVSPropertyOp27
 70
     1
102
RTVSPropertyOp28
 70
     1
102
RTVSPropertyOp29
 70
     1
102
RTVSPropertyOp30
 70
     1
102
RTVSPropertyOp31
 70
     1
102
RTVSPropertyOp32
 70
     1
  0
XRECORD
  5
2FE
102
{ACAD_REACTORS
330
2FD
102
}
330
2FD
100
AcDbXrecord
280
     1
102
RTVSPropertyOp0
 70
     1
102
RTVSPropertyOp1
 70
     1
102
RTVSPropertyOp2
 70
     1
102
RTVSPropertyOp3
 70
     1
102
RTVSPropertyOp4
 70
     1
102
RTVSPropertyOp5
 70
     1
102
RTVSPropertyOp6
 70
     1
102
RTVSPropertyOp7
 70
     1
102
RTVSPropertyOp8
 70
     1
102
RTVSPropertyOp9
 70
     1
102
RTVSPropertyOp10
 70
     1
102
RTVSPropertyOp11
 70
     1
102
RTVSPropertyOp12
 70
     1
102
RTVSPropertyOp13
 70
     1
102
RTVSPropertyOp14
 70
     1
102
RTVSPropertyOp15
 70
     1
102
RTVSPropertyOp16
 70
     1
102
RTVSPropertyOp17
 70
     1
102
RTVSPropertyOp18
 70
     1
102
RTVSPropertyOp19
 70
     1
102
RTVSPropertyOp20
 70
     1
102
RTVSPropertyOp21
 70
     1
102
RTVSPropertyOp22
 70
     1
102
RTVSPropertyOp23
 70
     1
102
RTVSPropertyOp24
 70
     1
102
RTVSPropertyOp25
 70
     1
102
RTVSPropertyOp26
 70
     1
102
RTVSPropertyOp27
 70
     1
102
RTVSPropertyOp28
 70
     1
102
RTVSPropertyOp29
 70
     1
102
RTVSPropertyOp30
 70
     1
102
RTVSPropertyOp31
 70
     1
102
RTVSPropertyOp32
 70
     1
  0
XRECORD
  5
300
102
{ACAD_REACTORS
330
2FF
102
}
330
2FF
100
AcDbXrecord
280
     1
102
RTVSPropertyOp0
 70
     1
102
RTVSPropertyOp1
 70
     1
102
RTVSPropertyOp2
 70
     1
102
RTVSPropertyOp3
 70
     1
102
RTVSPropertyOp4
 70
     1
102
RTVSPropertyOp5
 70
     1
102
RTVSPropertyOp6
 70
     1
102
RTVSPropertyOp7
 70
     1
102
RTVSPropertyOp8
 70
     1
102
RTVSPropertyOp9
 70
     1
102
RTVSPropertyOp10
 70
     1
102
RTVSPropertyOp11
 70
     1
102
RTVSPropertyOp12
 70
     1
102
RTVSPropertyOp13
 70
     1
102
RTVSPropertyOp14
 70
     1
102
RTVSPropertyOp15
 70
     1
102
RTVSPropertyOp16
 70
     1
102
RTVSPropertyOp17
 70
     1
102
RTVSPropertyOp18
 70
     1
102
RTVSPropertyOp19
 70
     1
102
RTVSPropertyOp20
 70
     1
102
RTVSPropertyOp21
 70
     1
102
RTVSPropertyOp22
 70
     1
102
RTVSPropertyOp23
 70
     1
102
RTVSPropertyOp24
 70
     1
102
RTVSPropertyOp25
 70
     1
102
RTVSPropertyOp26
 70
     1
102
RTVSPropertyOp27
 70
     1
102
RTVSPropertyOp28
 70
     1
102
RTVSPropertyOp29
 70
     1
102
RTVSPropertyOp30
 70
     1
102
RTVSPropertyOp31
 70
     1
102
RTVSPropertyOp32
 70
     1
  0
XRECORD
  5
308
102
{ACAD_REACTORS
330
307
102
}
330
307
100
AcDbXrecord
280
     1
102
RTVSPropertyOp0
 70
     1
102
RTVSPropertyOp1
 70
     1
102
RTVSPropertyOp2
 70
     1
102
RTVSPropertyOp3
 70
     1
102
RTVSPropertyOp4
 70
     1
102
RTVSPropertyOp5
 70
     1
102
RTVSPropertyOp6
 70
     1
102
RTVSPropertyOp7
 70
     1
102
RTVSPropertyOp8
 70
     1
102
RTVSPropertyOp9
 70
     1
102
RTVSPropertyOp10
 70
     1
102
RTVSPropertyOp11
 70
     1
102
RTVSPropertyOp12
 70
     1
102
RTVSPropertyOp13
 70
     1
102
RTVSPropertyOp14
 70
     1
102
RTVSPropertyOp15
 70
     1
102
RTVSPropertyOp16
 70
     1
102
RTVSPropertyOp17
 70
     1
102
RTVSPropertyOp18
 70
     1
102
RTVSPropertyOp19
 70
     1
102
RTVSPropertyOp20
 70
     1
102
RTVSPropertyOp21
 70
     1
102
RTVSPropertyOp22
 70
     1
102
RTVSPropertyOp23
 70
     1
102
RTVSPropertyOp24
 70
     1
102
RTVSPropertyOp25
 70
     1
102
RTVSPropertyOp26
 70
     1
102
RTVSPropertyOp27
 70
     1
102
RTVSPropertyOp28
 70
     1
102
RTVSPropertyOp29
 70
     1
102
RTVSPropertyOp30
 70
     1
102
RTVSPropertyOp31
 70
     1
102
RTVSPropertyOp32
 70
     1
  0
XRECORD
  5
2EC
102
{ACAD_REACTORS
330
2EB
102
}
330
2EB
100
AcDbXrecord
280
     1
102
RTVSPropertyOp0
 70
     1
102
RTVSPropertyOp1
 70
     1
102
RTVSPropertyOp2
 70
     1
102
RTVSPropertyOp3
 70
     1
102
RTVSPropertyOp4
 70
     1
102
RTVSPropertyOp5
 70
     1
102
RTVSPropertyOp6
 70
     1
102
RTVSPropertyOp7
 70
     1
102
RTVSPropertyOp8
 70
     1
102
RTVSPropertyOp9
 70
     1
102
RTVSPropertyOp10
 70
     1
102
RTVSPropertyOp11
 70
     1
102
RTVSPropertyOp12
 70
     1
102
RTVSPropertyOp13
 70
     1
102
RTVSPropertyOp14
 70
     1
102
RTVSPropertyOp15
 70
     1
102
RTVSPropertyOp16
 70
     1
102
RTVSPropertyOp17
 70
     1
102
RTVSPropertyOp18
 70
     1
102
RTVSPropertyOp19
 70
     1
102
RTVSPropertyOp20
 70
     1
102
RTVSPropertyOp21
 70
     1
102
RTVSPropertyOp22
 70
     1
102
RTVSPropertyOp23
 70
     1
102
RTVSPropertyOp24
 70
     1
102
RTVSPropertyOp25
 70
     1
102
RTVSPropertyOp26
 70
     1
102
RTVSPropertyOp27
 70
     1
102
RTVSPropertyOp28
 70
     1
102
RTVSPropertyOp29
 70
     1
102
RTVSPropertyOp30
 70
     1
102
RTVSPropertyOp31
 70
     1
102
RTVSPropertyOp32
 70
     1
  0
XRECORD
  5
2EE
102
{ACAD_REACTORS
330
2ED
102
}
330
2ED
100
AcDbXrecord
280
     1
102
RTVSPropertyOp0
 70
     1
102
RTVSPropertyOp1
 70
     1
102
RTVSPropertyOp2
 70
     1
102
RTVSPropertyOp3
 70
     1
102
RTVSPropertyOp4
 70
     1
102
RTVSPropertyOp5
 70
     1
102
RTVSPropertyOp6
 70
     1
102
RTVSPropertyOp7
 70
     1
102
RTVSPropertyOp8
 70
     1
102
RTVSPropertyOp9
 70
     1
102
RTVSPropertyOp10
 70
     1
102
RTVSPropertyOp11
 70
     1
102
RTVSPropertyOp12
 70
     1
102
RTVSPropertyOp13
 70
     1
102
RTVSPropertyOp14
 70
     1
102
RTVSPropertyOp15
 70
     1
102
RTVSPropertyOp16
 70
     1
102
RTVSPropertyOp17
 70
     1
102
RTVSPropertyOp18
 70
     1
102
RTVSPropertyOp19
 70
     1
102
RTVSPropertyOp20
 70
     1
102
RTVSPropertyOp21
 70
     1
102
RTVSPropertyOp22
 70
     1
102
RTVSPropertyOp23
 70
     1
102
RTVSPropertyOp24
 70
     1
102
RTVSPropertyOp25
 70
     1
102
RTVSPropertyOp26
 70
     1
102
RTVSPropertyOp27
 70
     1
102
RTVSPropertyOp28
 70
     1
102
RTVSPropertyOp29
 70
     1
102
RTVSPropertyOp30
 70
     1
102
RTVSPropertyOp31
 70
     1
102
RTVSPropertyOp32
 70
     1
  0
XRECORD
  5
2F0
102
{ACAD_REACTORS
330
2EF
102
}
330
2EF
100
AcDbXrecord
280
     1
102
RTVSPropertyOp0
 70
     1
102
RTVSPropertyOp1
 70
     1
102
RTVSPropertyOp2
 70
     1
102
RTVSPropertyOp3
 70
     1
102
RTVSPropertyOp4
 70
     1
102
RTVSPropertyOp5
 70
     1
102
RTVSPropertyOp6
 70
     1
102
RTVSPropertyOp7
 70
     1
102
RTVSPropertyOp8
 70
     1
102
RTVSPropertyOp9
 70
     1
102
RTVSPropertyOp10
 70
     1
102
RTVSPropertyOp11
 70
     1
102
RTVSPropertyOp12
 70
     1
102
RTVSPropertyOp13
 70
     1
102
RTVSPropertyOp14
 70
     1
102
RTVSPropertyOp15
 70
     1
102
RTVSPropertyOp16
 70
     1
102
RTVSPropertyOp17
 70
     1
102
RTVSPropertyOp18
 70
     1
102
RTVSPropertyOp19
 70
     1
102
RTVSPropertyOp20
 70
     1
102
RTVSPropertyOp21
 70
     1
102
RTVSPropertyOp22
 70
     1
102
RTVSPropertyOp23
 70
     1
102
RTVSPropertyOp24
 70
     1
102
RTVSPropertyOp25
 70
     1
102
RTVSPropertyOp26
 70
     1
102
RTVSPropertyOp27
 70
     1
102
RTVSPropertyOp28
 70
     1
102
RTVSPropertyOp29
 70
     1
102
RTVSPropertyOp30
 70
     1
102
RTVSPropertyOp31
 70
     1
102
RTVSPropertyOp32
 70
     1
  0
XRECORD
  5
2F2
102
{ACAD_REACTORS
330
2F1
102
}
330
2F1
100
AcDbXrecord
280
     1
102
RTVSPropertyOp0
 70
     1
102
RTVSPropertyOp1
 70
     1
102
RTVSPropertyOp2
 70
     1
102
RTVSPropertyOp3
 70
     1
102
RTVSPropertyOp4
 70
     1
102
RTVSPropertyOp5
 70
     1
102
RTVSPropertyOp6
 70
     1
102
RTVSPropertyOp7
 70
     1
102
RTVSPropertyOp8
 70
     1
102
RTVSPropertyOp9
 70
     1
102
RTVSPropertyOp10
 70
     1
102
RTVSPropertyOp11
 70
     1
102
RTVSPropertyOp12
 70
     1
102
RTVSPropertyOp13
 70
     1
102
RTVSPropertyOp14
 70
     1
102
RTVSPropertyOp15
 70
     1
102
RTVSPropertyOp16
 70
     1
102
RTVSPropertyOp17
 70
     1
102
RTVSPropertyOp18
 70
     1
102
RTVSPropertyOp19
 70
     1
102
RTVSPropertyOp20
 70
     1
102
RTVSPropertyOp21
 70
     1
102
RTVSPropertyOp22
 70
     1
102
RTVSPropertyOp23
 70
     1
102
RTVSPropertyOp24
 70
     1
102
RTVSPropertyOp25
 70
     1
102
RTVSPropertyOp26
 70
     1
102
RTVSPropertyOp27
 70
     1
102
RTVSPropertyOp28
 70
     1
102
RTVSPropertyOp29
 70
     1
102
RTVSPropertyOp30
 70
     1
102
RTVSPropertyOp31
 70
     1
102
RTVSPropertyOp32
 70
     1
  0
XRECORD
  5
306
102
{ACAD_REACTORS
330
305
102
}
330
305
100
AcDbXrecord
280
     1
102
RTVSPropertyOp0
 70
     1
102
RTVSPropertyOp1
 70
     1
102
RTVSPropertyOp2
 70
     1
102
RTVSPropertyOp3
 70
     1
102
RTVSPropertyOp4
 70
     1
102
RTVSPropertyOp5
 70
     1
102
RTVSPropertyOp6
 70
     1
102
RTVSPropertyOp7
 70
     1
102
RTVSPropertyOp8
 70
     1
102
RTVSPropertyOp9
 70
     1
102
RTVSPropertyOp10
 70
     1
102
RTVSPropertyOp11
 70
     1
102
RTVSPropertyOp12
 70
     1
102
RTVSPropertyOp13
 70
     1
102
RTVSPropertyOp14
 70
     1
102
RTVSPropertyOp15
 70
     1
102
RTVSPropertyOp16
 70
     1
102
RTVSPropertyOp17
 70
     1
102
RTVSPropertyOp18
 70
     1
102
RTVSPropertyOp19
 70
     1
102
RTVSPropertyOp20
 70
     1
102
RTVSPropertyOp21
 70
     1
102
RTVSPropertyOp22
 70
     1
102
RTVSPropertyOp23
 70
     1
102
RTVSPropertyOp24
 70
     1
102
RTVSPropertyOp25
 70
     1
102
RTVSPropertyOp26
 70
     1
102
RTVSPropertyOp27
 70
     1
102
RTVSPropertyOp28
 70
     1
102
RTVSPropertyOp29
 70
     1
102
RTVSPropertyOp30
 70
     1
102
RTVSPropertyOp31
 70
     1
102
RTVSPropertyOp32
 70
     1
  0
XRECORD
  5
2FC
102
{ACAD_REACTORS
330
2FB
102
}
330
2FB
100
AcDbXrecord
280
     1
102
RTVSPropertyOp0
 70
     1
102
RTVSPropertyOp1
 70
     1
102
RTVSPropertyOp2
 70
     1
102
RTVSPropertyOp3
 70
     1
102
RTVSPropertyOp4
 70
     1
102
RTVSPropertyOp5
 70
     1
102
RTVSPropertyOp6
 70
     1
102
RTVSPropertyOp7
 70
     1
102
RTVSPropertyOp8
 70
     1
102
RTVSPropertyOp9
 70
     1
102
RTVSPropertyOp10
 70
     1
102
RTVSPropertyOp11
 70
     1
102
RTVSPropertyOp12
 70
     1
102
RTVSPropertyOp13
 70
     1
102
RTVSPropertyOp14
 70
     1
102
RTVSPropertyOp15
 70
     1
102
RTVSPropertyOp16
 70
     1
102
RTVSPropertyOp17
 70
     1
102
RTVSPropertyOp18
 70
     1
102
RTVSPropertyOp19
 70
     1
102
RTVSPropertyOp20
 70
     1
102
RTVSPropertyOp21
 70
     1
102
RTVSPropertyOp22
 70
     1
102
RTVSPropertyOp23
 70
     1
102
RTVSPropertyOp24
 70
     1
102
RTVSPropertyOp25
 70
     1
102
RTVSPropertyOp26
 70
     1
102
RTVSPropertyOp27
 70
     1
102
RTVSPropertyOp28
 70
     1
102
RTVSPropertyOp29
 70
     1
102
RTVSPropertyOp30
 70
     1
102
RTVSPropertyOp31
 70
     1
102
RTVSPropertyOp32
 70
     1
  0
XRECORD
  5
304
102
{ACAD_REACTORS
330
303
102
}
330
303
100
AcDbXrecord
280
     1
102
RTVSPropertyOp0
 70
     1
102
RTVSPropertyOp1
 70
     1
102
RTVSPropertyOp2
 70
     1
102
RTVSPropertyOp3
 70
     1
102
RTVSPropertyOp4
 70
     1
102
RTVSPropertyOp5
 70
     1
102
RTVSPropertyOp6
 70
     1
102
RTVSPropertyOp7
 70
     1
102
RTVSPropertyOp8
 70
     1
102
RTVSPropertyOp9
 70
     1
102
RTVSPropertyOp10
 70
     1
102
RTVSPropertyOp11
 70
     1
102
RTVSPropertyOp12
 70
     1
102
RTVSPropertyOp13
 70
     1
102
RTVSPropertyOp14
 70
     1
102
RTVSPropertyOp15
 70
     1
102
RTVSPropertyOp16
 70
     1
102
RTVSPropertyOp17
 70
     1
102
RTVSPropertyOp18
 70
     1
102
RTVSPropertyOp19
 70
     1
102
RTVSPropertyOp20
 70
     1
102
RTVSPropertyOp21
 70
     1
102
RTVSPropertyOp22
 70
     1
102
RTVSPropertyOp23
 70
     1
102
RTVSPropertyOp24
 70
     1
102
RTVSPropertyOp25
 70
     1
102
RTVSPropertyOp26
 70
     1
102
RTVSPropertyOp27
 70
     1
102
RTVSPropertyOp28
 70
     1
102
RTVSPropertyOp29
 70
     1
102
RTVSPropertyOp30
 70
     1
102
RTVSPropertyOp31
 70
     1
102
RTVSPropertyOp32
 70
     1
  0
ENDSEC
  0
EOF
