  0
SECTION
  2
HEADER
  9
$ACADVER
  1
AC1018
  9
$ACADMAINTVER
 70
   104
  9
$DWGCODEPAGE
  3
ANSI_932
  9
$LASTSAVEDBY
  1
CPTIO008
  9
$INSBASE
 10
0.0
 20
0.0
 30
0.0
  9
$EXTMIN
 10
-244.6810705767894
 20
-63.74058954320315
 30
-0.0000000000112497
  9
$EXTMAX
 10
49.79452967572967
 20
143.7374349106103
 30
0.0000000000002956
  9
$LIMMIN
 10
-247.2100037059508
 20
-63.73738705550861
  9
$LIMMAX
 10
49.78999629404917
 20
146.2626129444914
  9
$ORTHOMODE
 70
     1
  9
$REGENMODE
 70
     1
  9
$FILLMODE
 70
     1
  9
$QTEXTMODE
 70
     0
  9
$MIRRTEXT
 70
     1
  9
$LTSCALE
 40
1.0
  9
$ATTMODE
 70
     1
  9
$TEXTSIZE
 40
2.5
  9
$TRACEWID
 40
1.0
  9
$TEXTSTYLE
  7
Standard
  9
$CLAYER
  8
寸法線
  9
$CELTYPE
  6
ByLayer
  9
$CECOLOR
 62
   256
  9
$CELTSCALE
 40
1.0
  9
$DISPSILH
 70
     0
  9
$DIMSCALE
 40
1.0
  9
$DIMASZ
 40
2.5
  9
$DIMEXO
 40
0.625
  9
$DIMDLI
 40
3.75
  9
$DIMRND
 40
0.0
  9
$DIMDLE
 40
0.0
  9
$DIMEXE
 40
1.25
  9
$DIMTP
 40
0.0
  9
$DIMTM
 40
0.0
  9
$DIMTXT
 40
2.5
  9
$DIMCEN
 40
2.5
  9
$DIMTSZ
 40
0.0
  9
$DIMTOL
 70
     0
  9
$DIMLIM
 70
     0
  9
$DIMTIH
 70
     0
  9
$DIMTOH
 70
     0
  9
$DIMSE1
 70
     0
  9
$DIMSE2
 70
     0
  9
$DIMTAD
 70
     1
  9
$DIMZIN
 70
     8
  9
$DIMBLK
  1

  9
$DIMASO
 70
     1
  9
$DIMSHO
 70
     1
  9
$DIMPOST
  1

  9
$DIMAPOST
  1

  9
$DIMALT
 70
     0
  9
$DIMALTD
 70
     3
  9
$DIMALTF
 40
0.03937007874016
  9
$DIMLFAC
 40
1.0
  9
$DIMTOFL
 70
     1
  9
$DIMTVP
 40
0.0
  9
$DIMTIX
 70
     0
  9
$DIMSOXD
 70
     0
  9
$DIMSAH
 70
     0
  9
$DIMBLK1
  1

  9
$DIMBLK2
  1

  9
$DIMSTYLE
  2
ISO-25
  9
$DIMCLRD
 70
     0
  9
$DIMCLRE
 70
     0
  9
$DIMCLRT
 70
     0
  9
$DIMTFAC
 40
1.0
  9
$DIMGAP
 40
0.625
  9
$DIMJUST
 70
     0
  9
$DIMSD1
 70
     0
  9
$DIMSD2
 70
     0
  9
$DIMTOLJ
 70
     0
  9
$DIMTZIN
 70
     8
  9
$DIMALTZ
 70
     0
  9
$DIMALTTZ
 70
     0
  9
$DIMUPT
 70
     0
  9
$DIMDEC
 70
     2
  9
$DIMTDEC
 70
     2
  9
$DIMALTU
 70
     2
  9
$DIMALTTD
 70
     3
  9
$DIMTXSTY
  7
Standard
  9
$DIMAUNIT
 70
     0
  9
$DIMADEC
 70
     0
  9
$DIMALTRND
 40
0.0
  9
$DIMAZIN
 70
     0
  9
$DIMDSEP
 70
    44
  9
$DIMATFIT
 70
     3
  9
$DIMFRAC
 70
     0
  9
$DIMLDRBLK
  1

  9
$DIMLUNIT
 70
     2
  9
$DIMLWD
 70
    -2
  9
$DIMLWE
 70
    -2
  9
$DIMTMOVE
 70
     0
  9
$LUNITS
 70
     2
  9
$LUPREC
 70
     4
  9
$SKETCHINC
 40
1.0
  9
$FILLETRAD
 40
10.0
  9
$AUNITS
 70
     0
  9
$AUPREC
 70
     0
  9
$MENU
  1
.
  9
$ELEVATION
 40
0.0
  9
$PELEVATION
 40
0.0
  9
$THICKNESS
 40
0.0
  9
$LIMCHECK
 70
     0
  9
$CHAMFERA
 40
10.0
  9
$CHAMFERB
 40
10.0
  9
$CHAMFERC
 40
20.0
  9
$CHAMFERD
 40
0.0
  9
$SKPOLY
 70
     0
  9
$TDCREATE
 40
2456105.483700440
  9
$TDUCREATE
 40
2456105.108700440
  9
$TDUPDATE
 40
2457458.636952975
  9
$TDUUPDATE
 40
2457458.261952974
  9
$TDINDWG
 40
0.0114374190
  9
$TDUSRTIMER
 40
0.0114330787
  9
$USRTIMER
 70
     1
  9
$ANGBASE
 50
0.0
  9
$ANGDIR
 70
     0
  9
$PDMODE
 70
     0
  9
$PDSIZE
 40
0.0
  9
$PLINEWID
 40
0.0
  9
$SPLFRAME
 70
     0
  9
$SPLINETYPE
 70
     6
  9
$SPLINESEGS
 70
     8
  9
$HANDSEED
  5
4C8
  9
$SURFTAB1
 70
     6
  9
$SURFTAB2
 70
     6
  9
$SURFTYPE
 70
     6
  9
$SURFU
 70
     6
  9
$SURFV
 70
     6
  9
$UCSBASE
  2

  9
$UCSNAME
  2

  9
$UCSORG
 10
0.0
 20
0.0
 30
0.0
  9
$UCSXDIR
 10
1.0
 20
0.0
 30
0.0
  9
$UCSYDIR
 10
0.0
 20
1.0
 30
0.0
  9
$UCSORTHOREF
  2

  9
$UCSORTHOVIEW
 70
     0
  9
$UCSORGTOP
 10
0.0
 20
0.0
 30
0.0
  9
$UCSORGBOTTOM
 10
0.0
 20
0.0
 30
0.0
  9
$UCSORGLEFT
 10
0.0
 20
0.0
 30
0.0
  9
$UCSORGRIGHT
 10
0.0
 20
0.0
 30
0.0
  9
$UCSORGFRONT
 10
0.0
 20
0.0
 30
0.0
  9
$UCSORGBACK
 10
0.0
 20
0.0
 30
0.0
  9
$PUCSBASE
  2

  9
$PUCSNAME
  2

  9
$PUCSORG
 10
0.0
 20
0.0
 30
0.0
  9
$PUCSXDIR
 10
1.0
 20
0.0
 30
0.0
  9
$PUCSYDIR
 10
0.0
 20
1.0
 30
0.0
  9
$PUCSORTHOREF
  2

  9
$PUCSORTHOVIEW
 70
     0
  9
$PUCSORGTOP
 10
0.0
 20
0.0
 30
0.0
  9
$PUCSORGBOTTOM
 10
0.0
 20
0.0
 30
0.0
  9
$PUCSORGLEFT
 10
0.0
 20
0.0
 30
0.0
  9
$PUCSORGRIGHT
 10
0.0
 20
0.0
 30
0.0
  9
$PUCSORGFRONT
 10
0.0
 20
0.0
 30
0.0
  9
$PUCSORGBACK
 10
0.0
 20
0.0
 30
0.0
  9
$USERI1
 70
     0
  9
$USERI2
 70
     0
  9
$USERI3
 70
     0
  9
$USERI4
 70
     0
  9
$USERI5
 70
     0
  9
$USERR1
 40
0.0
  9
$USERR2
 40
0.0
  9
$USERR3
 40
0.0
  9
$USERR4
 40
0.0
  9
$USERR5
 40
0.0
  9
$WORLDVIEW
 70
     1
  9
$SHADEDGE
 70
     3
  9
$SHADEDIF
 70
    70
  9
$TILEMODE
 70
     1
  9
$MAXACTVP
 70
    64
  9
$PINSBASE
 10
0.0
 20
0.0
 30
0.0
  9
$PLIMCHECK
 70
     0
  9
$PEXTMIN
 10
1.000000000000000E+20
 20
1.000000000000000E+20
 30
1.000000000000000E+20
  9
$PEXTMAX
 10
-1.000000000000000E+20
 20
-1.000000000000000E+20
 30
-1.000000000000000E+20
  9
$PLIMMIN
 10
-247.2100037059508
 20
-63.73738705550861
  9
$PLIMMAX
 10
49.78999629404917
 20
146.2626129444914
  9
$UNITMODE
 70
     0
  9
$VISRETAIN
 70
     1
  9
$PLINEGEN
 70
     0
  9
$PSLTSCALE
 70
     1
  9
$TREEDEPTH
 70
  3020
  9
$CMLSTYLE
  2
Standard
  9
$CMLJUST
 70
     0
  9
$CMLSCALE
 40
20.0
  9
$PROXYGRAPHICS
 70
     1
  9
$MEASUREMENT
 70
     1
  9
$CELWEIGHT
370
    -1
  9
$ENDCAPS
280
     0
  9
$JOINSTYLE
280
     0
  9
$LWDISPLAY
290
     1
  9
$INSUNITS
 70
     4
  9
$HYPERLINKBASE
  1

  9
$STYLESHEET
  1
monochrome.ctb
  9
$XEDIT
290
     1
  9
$CEPSNTYPE
380
     0
  9
$PSTYLEMODE
290
     1
  9
$FINGERPRINTGUID
  2
{666B8609-4F5F-4380-85E5-3224F9C030CF}
  9
$VERSIONGUID
  2
{23A5F844-88AE-4AB9-98D4-A18720EC5C51}
  9
$EXTNAMES
290
     1
  9
$PSVPSCALE
 40
0.0
  9
$OLESTARTUP
290
     0
  9
$SORTENTS
280
   127
  9
$INDEXCTL
280
     0
  9
$HIDETEXT
280
     0
  9
$XCLIPFRAME
290
     0
  9
$HALOGAP
280
     0
  9
$OBSCOLOR
 70
   257
  9
$OBSLTYPE
280
     0
  9
$INTERSECTIONDISPLAY
280
     0
  9
$INTERSECTIONCOLOR
 70
   257
  9
$DIMASSOC
280
     1
  9
$PROJECTNAME
  1

  0
ENDSEC
  0
SECTION
  2
CLASSES
  0
CLASS
  1
ACDBDICTIONARYWDFLT
  2
AcDbDictionaryWithDefault
  3
ObjectDBX Classes
 90
        0
 91
        1
280
     0
281
     0
  0
CLASS
  1
TABLESTYLE
  2
AcDbTableStyle
  3
ObjectDBX Classes
 90
     4095
 91
        1
280
     0
281
     0
  0
CLASS
  1
DICTIONARYVAR
  2
AcDbDictionaryVar
  3
ObjectDBX Classes
 90
        0
 91
       13
280
     0
281
     0
  0
CLASS
  1
MATERIAL
  2
AcDbMaterial
  3
ObjectDBX Classes
 90
     1153
 91
        3
280
     0
281
     0
  0
CLASS
  1
VISUALSTYLE
  2
AcDbVisualStyle
  3
ObjectDBX Classes
 90
     4095
 91
       24
280
     0
281
     0
  0
CLASS
  1
SCALE
  2
AcDbScale
  3
ObjectDBX Classes
 90
     1153
 91
       17
280
     0
281
     0
  0
CLASS
  1
MLEADERSTYLE
  2
AcDbMLeaderStyle
  3
ACDB_MLEADERSTYLE_CLASS
 90
     4095
 91
        1
280
     0
281
     0
  0
CLASS
  1
ACDBSECTIONVIEWSTYLE
  2
AcDbSectionViewStyle
  3
ObjectDBX Classes
 90
     1025
 91
        1
280
     0
281
     0
  0
CLASS
  1
ACDBDETAILVIEWSTYLE
  2
AcDbDetailViewStyle
  3
ObjectDBX Classes
 90
     1025
 91
        1
280
     0
281
     0
  0
CLASS
  1
SORTENTSTABLE
  2
AcDbSortentsTable
  3
ObjectDBX Classes
 90
        0
 91
        0
280
     0
281
     0
  0
CLASS
  1
CELLSTYLEMAP
  2
AcDbCellStyleMap
  3
ObjectDBX Classes
 90
     1152
 91
        2
280
     0
281
     0
  0
CLASS
  1
PLOTSETTINGS
  2
AcDbPlotSettings
  3
ObjectDBX Classes
 90
        0
 91
        1
280
     0
281
     0
  0
ENDSEC
  0
SECTION
  2
TABLES
  0
TABLE
  2
VPORT
  5
8
330
0
100
AcDbSymbolTable
 70
     1
  0
VPORT
  5
36A
330
8
100
AcDbSymbolTableRecord
100
AcDbViewportTableRecord
  2
*Active
 70
     0
 10
0.0
 20
0.0
 11
1.0
 21
1.0
 12
-150.5769107697174
 22
38.48118554153072
 13
0.0
 23
0.0
 14
10.0
 24
10.0
 15
10.0
 25
10.0
 16
0.0
 26
0.0
 36
1.0
 17
0.0
 27
0.0
 37
0.0
 40
213.3806079860953
 41
2.047557840616966
 42
50.0
 43
0.0
 44
0.0
 50
0.0
 51
0.0
 71
     0
 72
   100
 73
     1
 74
     3
 75
     0
 76
     0
 77
     0
 78
     0
281
     0
 65
     1
110
0.0
120
0.0
130
0.0
111
1.0
121
0.0
131
0.0
112
0.0
122
1.0
132
0.0
 79
     0
146
0.0
1001
ACAD_NAV_VCDISPLAY
1070
     3
  0
ENDTAB
  0
TABLE
  2
LTYPE
  5
5
330
0
100
AcDbSymbolTable
 70
     7
  0
LTYPE
  5
14
330
5
100
AcDbSymbolTableRecord
100
AcDbLinetypeTableRecord
  2
ByBlock
 70
     0
  3

 72
    65
 73
     0
 40
0.0
  0
LTYPE
  5
15
330
5
100
AcDbSymbolTableRecord
100
AcDbLinetypeTableRecord
  2
ByLayer
 70
     0
  3

 72
    65
 73
     0
 40
0.0
  0
LTYPE
  5
16
330
5
100
AcDbSymbolTableRecord
100
AcDbLinetypeTableRecord
  2
Continuous
 70
     0
  3
Solid line
 72
    65
 73
     0
 40
0.0
  0
LTYPE
  5
2A
330
5
100
AcDbSymbolTableRecord
100
AcDbLinetypeTableRecord
  2
CONTINOUS
 70
     0
  3
______________________________
 72
    65
 73
     0
 40
0.0
  0
LTYPE
  5
2B
330
5
100
AcDbSymbolTableRecord
100
AcDbLinetypeTableRecord
  2
DASHED
 70
     0
  3
__ __ __ __ __ __ __ __ __ __ __ __ __ __ __ __
 72
    65
 73
     2
 40
4.5
 49
3.0
 74
     0
 49
-1.5
 74
     0
  0
LTYPE
  5
2C
330
5
100
AcDbSymbolTableRecord
100
AcDbLinetypeTableRecord
  2
PHANTOM
 70
     0
  3
______  __  __  ______  __  __  _____
 72
    65
 73
     6
 40
15.0
 49
7.5
 74
     0
 49
-1.5
 74
     0
 49
1.5
 74
     0
 49
-1.5
 74
     0
 49
1.5
 74
     0
 49
-1.5
 74
     0
  0
LTYPE
  5
2D
330
5
100
AcDbSymbolTableRecord
100
AcDbLinetypeTableRecord
  2
CENTER
 70
     0
  3
____ _ ____ _ ____ _ ____ _ ____ _ ____
 72
    65
 73
     4
 40
12.0
 49
7.5
 74
     0
 49
-1.5
 74
     0
 49
1.5
 74
     0
 49
-1.5
 74
     0
  0
LTYPE
  5
29B
330
5
100
AcDbSymbolTableRecord
100
AcDbLinetypeTableRecord
  2
HIDDEN2
 70
     0
  3
Hidden (.5x) _ _ _ _ _ _ _ _ _ _ _ _ _ _ _ _ _
 72
    65
 73
     2
 40
2.25
 49
1.5
 74
     0
 49
-0.75
 74
     0
  0
ENDTAB
  0
TABLE
  2
LAYER
  5
2
330
0
100
AcDbSymbolTable
 70
    12
  0
LAYER
  5
10
102
{ACAD_XDICTIONARY
360
3CA
102
}
330
2
100
AcDbSymbolTableRecord
100
AcDbLayerTableRecord
  2
0
 70
     0
 62
     7
  6
Continuous
370
    -3
390
F
  0
LAYER
  5
1F5
330
2
100
AcDbSymbolTableRecord
100
AcDbLayerTableRecord
  2
Defpoints
 70
     0
 62
     7
  6
Continuous
290
     0
370
    -3
390
F
  0
LAYER
  5
243
102
{ACAD_XDICTIONARY
360
3CC
102
}
330
2
100
AcDbSymbolTableRecord
100
AcDbLayerTableRecord
  2
VIEW0001
 70
     0
 62
     7
  6
Continuous
370
    -3
390
F
  0
LAYER
  5
252
102
{ACAD_XDICTIONARY
360
3CE
102
}
330
2
100
AcDbSymbolTableRecord
100
AcDbLayerTableRecord
  2
VIEW0002
 70
     0
 62
     7
  6
Continuous
370
    -3
390
F
  0
LAYER
  5
29C
102
{ACAD_XDICTIONARY
360
3D0
102
}
330
2
100
AcDbSymbolTableRecord
100
AcDbLayerTableRecord
  2
1
 70
     0
 62
     7
  6
Continuous
370
    -3
390
F
  0
LAYER
  5
29D
102
{ACAD_XDICTIONARY
360
3D2
102
}
330
2
100
AcDbSymbolTableRecord
100
AcDbLayerTableRecord
  2
外形線
 70
     0
 62
     7
  6
Continuous
370
    30
390
F
1001
AcAecLayerStandard
1000

1000

  0
LAYER
  5
29E
102
{ACAD_XDICTIONARY
360
3D4
102
}
330
2
100
AcDbSymbolTableRecord
100
AcDbLayerTableRecord
  2
図枠
 70
     0
 62
     7
  6
Continuous
370
    50
390
F
1001
AcAecLayerStandard
1000

1000

  0
LAYER
  5
29F
102
{ACAD_XDICTIONARY
360
3D6
102
}
330
2
100
AcDbSymbolTableRecord
100
AcDbLayerTableRecord
  2
寸法線
 70
     0
 62
     3
  6
Continuous
370
    15
390
F
1001
AcAecLayerStandard
1000

1000

  0
LAYER
  5
2A0
102
{ACAD_XDICTIONARY
360
3D8
102
}
330
2
100
AcDbSymbolTableRecord
100
AcDbLayerTableRecord
  2
中心線
 70
     0
 62
     5
  6
CENTER
370
    -3
390
F
1001
AcAecLayerStandard
1000

1000

  0
LAYER
  5
2A1
102
{ACAD_XDICTIONARY
360
3DA
102
}
330
2
100
AcDbSymbolTableRecord
100
AcDbLayerTableRecord
  2
破線
 70
     0
 62
     4
  6
DASHED
370
    -3
390
F
1001
AcAecLayerStandard
1000

1000

  0
LAYER
  5
2A2
102
{ACAD_XDICTIONARY
360
3DC
102
}
330
2
100
AcDbSymbolTableRecord
100
AcDbLayerTableRecord
  2
文字
 70
     0
 62
     2
  6
Continuous
370
    -3
390
F
1001
AcAecLayerStandard
1000

1000

  0
LAYER
  5
2A3
102
{ACAD_XDICTIONARY
360
3DE
102
}
330
2
100
AcDbSymbolTableRecord
100
AcDbLayerTableRecord
  2
補助線
 70
     0
 62
   252
  6
HIDDEN2
290
     0
370
    -3
390
F
1001
AcAecLayerStandard
1000

1000

  0
ENDTAB
  0
TABLE
  2
STYLE
  5
3
330
0
100
AcDbSymbolTable
 70
     3
  0
STYLE
  5
11
330
3
100
AcDbSymbolTableRecord
100
AcDbTextStyleTableRecord
  2
Standard
 70
     0
 40
0.0
 41
1.0
 50
0.0
 71
     0
 42
2.5
  3
txt
  4
EXTFONT
  0
ENDTAB
  0
TABLE
  2
VIEW
  5
6
330
0
100
AcDbSymbolTable
 70
     0
  0
ENDTAB
  0
TABLE
  2
UCS
  5
7
330
0
100
AcDbSymbolTable
 70
     0
  0
ENDTAB
  0
TABLE
  2
APPID
  5
9
330
0
100
AcDbSymbolTable
 70
     6
  0
APPID
  5
12
330
9
100
AcDbSymbolTableRecord
100
AcDbRegAppTableRecord
  2
ACAD
 70
     0
  0
APPID
  5
2A5
330
9
100
AcDbSymbolTableRecord
100
AcDbRegAppTableRecord
  2
AcAecLayerStandard
 70
     0
  0
APPID
  5
34C
330
9
100
AcDbSymbolTableRecord
100
AcDbRegAppTableRecord
  2
ACAD_PSEXT
 70
     0
  0
APPID
  5
3C1
330
9
100
AcDbSymbolTableRecord
100
AcDbRegAppTableRecord
  2
ACAD_NAV_VCDISPLAY
 70
     0
  0
APPID
  5
421
330
9
100
AcDbSymbolTableRecord
100
AcDbRegAppTableRecord
  2
ACAD_EXEMPT_FROM_CAD_STANDARDS
 70
     0
  0
APPID
  5
4C3
330
9
100
AcDbSymbolTableRecord
100
AcDbRegAppTableRecord
  2
ACAD_MLEADERVER
 70
     0
  0
ENDTAB
  0
TABLE
  2
DIMSTYLE
  5
A
330
0
100
AcDbSymbolTable
 70
     4
100
AcDbDimStyleTable
 71
     1
340
27
  0
DIMSTYLE
105
27
102
{ACAD_REACTORS
330
1EE
330
202
330
20F
330
21C
330
229
330
236
102
}
330
A
100
AcDbSymbolTableRecord
100
AcDbDimStyleTableRecord
  2
ISO-25
 70
     0
 41
2.5
 42
0.625
 43
3.75
 44
1.25
 73
     0
 74
     0
 77
     1
 78
     8
140
2.5
141
2.5
143
0.03937007874016
147
0.625
171
     3
172
     1
271
     2
272
     2
274
     3
278
    44
283
     0
284
     8
340
11
  0
DIMSTYLE
105
2A4
330
A
100
AcDbSymbolTableRecord
100
AcDbDimStyleTableRecord
  2
Standard
 70
     0
340
11
  0
ENDTAB
  0
TABLE
  2
BLOCK_RECORD
  5
1
330
0
100
AcDbSymbolTable
 70
    11
  0
BLOCK_RECORD
  5
1F
330
1
100
AcDbSymbolTableRecord
100
AcDbBlockTableRecord
  2
*Model_Space
340
22
  0
BLOCK_RECORD
  5
1B
330
1
100
AcDbSymbolTableRecord
100
AcDbBlockTableRecord
  2
*Paper_Space
340
1E
  0
BLOCK_RECORD
  5
23
330
1
100
AcDbSymbolTableRecord
100
AcDbBlockTableRecord
  2
*Paper_Space0
340
26
  0
BLOCK_RECORD
  5
2E
330
1
100
AcDbSymbolTableRecord
100
AcDbBlockTableRecord
  2
DTL0001
340
0
  0
BLOCK_RECORD
  5
1EF
330
1
100
AcDbSymbolTableRecord
100
AcDbBlockTableRecord
  2
_Open30
340
0
102
{BLKREFS
331
319
331
31A
331
322
331
323
331
32B
331
32C
331
334
331
335
331
33D
331
33E
331
346
331
347
102
}
  0
BLOCK_RECORD
  5
1F6
330
1
100
AcDbSymbolTableRecord
100
AcDbBlockTableRecord
  2
*D3
340
0
  0
BLOCK_RECORD
  5
203
330
1
100
AcDbSymbolTableRecord
100
AcDbBlockTableRecord
  2
*D4
340
0
  0
BLOCK_RECORD
  5
210
330
1
100
AcDbSymbolTableRecord
100
AcDbBlockTableRecord
  2
*D5
340
0
  0
BLOCK_RECORD
  5
21D
330
1
100
AcDbSymbolTableRecord
100
AcDbBlockTableRecord
  2
*D6
340
0
  0
BLOCK_RECORD
  5
22A
330
1
100
AcDbSymbolTableRecord
100
AcDbBlockTableRecord
  2
*D7
340
0
  0
BLOCK_RECORD
  5
237
330
1
100
AcDbSymbolTableRecord
100
AcDbBlockTableRecord
  2
*D8
340
0
  0
ENDTAB
  0
ENDSEC
  0
SECTION
  2
BLOCKS
  0
BLOCK
  5
20
330
1F
100
AcDbEntity
  8
0
100
AcDbBlockBegin
  2
*Model_Space
 70
     0
 10
0.0
 20
0.0
 30
0.0
  3
*Model_Space
  1

  0
ENDBLK
  5
21
330
1F
100
AcDbEntity
  8
0
100
AcDbBlockEnd
  0
BLOCK
  5
1C
330
1B
100
AcDbEntity
 67
     1
  8
0
100
AcDbBlockBegin
  2
*Paper_Space
 70
     0
 10
0.0
 20
0.0
 30
0.0
  3
*Paper_Space
  1

  0
ENDBLK
  5
1D
330
1B
100
AcDbEntity
 67
     1
  8
0
100
AcDbBlockEnd
  0
BLOCK
  5
24
330
23
100
AcDbEntity
 67
     1
  8
0
100
AcDbBlockBegin
  2
*Paper_Space0
 70
     0
 10
0.0
 20
0.0
 30
0.0
  3
*Paper_Space0
  1

  0
ENDBLK
  5
25
330
23
100
AcDbEntity
 67
     1
  8
0
100
AcDbBlockEnd
  0
BLOCK
  5
2F
330
2E
100
AcDbEntity
  8
0
100
AcDbBlockBegin
  2
DTL0001
 70
     0
 10
0.0
 20
0.0
 30
0.0
  3
DTL0001
  1

  0
POINT
  5
31
330
2E
100
AcDbEntity
  8
0
 62
     0
100
AcDbPoint
 10
-210.0
 20
148.5
 30
0.0
  0
POINT
  5
32
330
2E
100
AcDbEntity
  8
0
 62
     0
100
AcDbPoint
 10
210.0
 20
-148.5
 30
0.0
  0
POINT
  5
33
330
2E
100
AcDbEntity
  8
0
 62
     0
100
AcDbPoint
 10
0.0
 20
0.0
 30
0.0
  0
POINT
  5
34
330
2E
100
AcDbEntity
  8
0
 62
     0
100
AcDbPoint
 10
199.0
 20
-143.5
 30
0.0
  0
LINE
  5
35
330
2E
100
AcDbEntity
  8
0
  6
Continuous
 62
     3
100
AcDbLine
 10
-207.46
 20
-148.5
 30
0.0
 11
207.46
 21
-148.5
 31
0.0
  0
LINE
  5
36
330
2E
100
AcDbEntity
  8
0
  6
Continuous
 62
     3
100
AcDbLine
 10
210.0
 20
145.96
 30
0.0
 11
210.0
 21
-145.96
 31
0.0
  0
LINE
  5
37
330
2E
100
AcDbEntity
  8
0
  6
Continuous
 62
     3
100
AcDbLine
 10
-197.46
 20
-138.5
 30
0.0
 11
197.46
 21
-138.5
 31
0.0
  0
LINE
  5
38
330
2E
100
AcDbEntity
  8
0
  6
Continuous
 62
     3
100
AcDbLine
 10
200.0
 20
135.96
 30
0.0
 11
200.0
 21
-135.96
 31
0.0
  0
LINE
  5
39
330
2E
100
AcDbEntity
  8
0
  6
Continuous
 62
     3
100
AcDbLine
 10
-207.46
 20
148.5
 30
0.0
 11
207.46
 21
148.5
 31
0.0
  0
LINE
  5
3A
330
2E
100
AcDbEntity
  8
0
  6
Continuous
 62
     3
100
AcDbLine
 10
-210.0
 20
145.96
 30
0.0
 11
-210.0
 21
-145.96
 31
0.0
  0
LINE
  5
3B
330
2E
100
AcDbEntity
  8
0
  6
Continuous
 62
     3
100
AcDbLine
 10
-197.46
 20
138.5
 30
0.0
 11
197.46
 21
138.5
 31
0.0
  0
LINE
  5
3C
330
2E
100
AcDbEntity
  8
0
  6
Continuous
 62
     3
100
AcDbLine
 10
-200.0
 20
135.96
 30
0.0
 11
-200.0
 21
-135.96
 31
0.0
  0
LINE
  5
3D
330
2E
100
AcDbEntity
  8
0
  6
Continuous
 62
     3
100
AcDbLine
 10
8.0
 20
-106.04
 30
0.0
 11
8.0
 21
-135.96
 31
0.0
  0
LINE
  5
3E
330
2E
100
AcDbEntity
  8
0
  6
Continuous
 62
     3
100
AcDbLine
 10
10.54
 20
-103.5
 30
0.0
 11
197.46
 21
-103.5
 31
0.0
  0
LINE
  5
3F
330
2E
100
AcDbEntity
  8
0
  6
Continuous
 62
     3
100
AcDbLine
 10
10.54
 20
-116.5
 30
0.0
 11
197.46
 21
-116.5
 31
0.0
  0
LINE
  5
40
330
2E
100
AcDbEntity
  8
0
  6
Continuous
 62
     3
100
AcDbLine
 10
23.0
 20
-106.04
 30
0.0
 11
23.0
 21
-135.96
 31
0.0
  0
LINE
  5
41
330
2E
100
AcDbEntity
  8
0
  6
Continuous
 62
     3
100
AcDbLine
 10
113.0
 20
-106.04
 30
0.0
 11
113.0
 21
-135.96
 31
0.0
  0
LINE
  5
42
330
2E
100
AcDbEntity
  8
0
  6
Continuous
 62
     3
100
AcDbLine
 10
128.0
 20
-106.04
 30
0.0
 11
128.0
 21
-113.96
 31
0.0
  0
LINE
  5
43
330
2E
100
AcDbEntity
  8
0
  6
Continuous
 62
     3
100
AcDbLine
 10
158.0
 20
-106.04
 30
0.0
 11
158.0
 21
-113.96
 31
0.0
  0
LINE
  5
44
330
2E
100
AcDbEntity
  8
0
  6
Continuous
 62
     3
100
AcDbLine
 10
10.54
 20
-110.5
 30
0.0
 11
20.46
 21
-110.5
 31
0.0
  0
LINE
  5
45
330
2E
100
AcDbEntity
  8
0
  6
Continuous
 62
     4
100
AcDbLine
 10
-196.46
 20
123.5
 30
0.0
 11
197.46
 21
123.5
 31
0.0
  0
LINE
  5
46
330
2E
100
AcDbEntity
  8
0
  6
Continuous
 62
     4
100
AcDbLine
 10
-196.46
 20
-143.5
 30
0.0
 11
196.46
 21
-143.5
 31
0.0
  0
LINE
  5
47
330
2E
100
AcDbEntity
  8
0
  6
Continuous
 62
     3
100
AcDbLine
 10
10.54
 20
-123.5
 30
0.0
 11
110.46
 21
-123.5
 31
0.0
  0
LINE
  5
48
330
2E
100
AcDbEntity
  8
0
  6
Continuous
 62
     3
100
AcDbLine
 10
115.54
 20
-131.0
 30
0.0
 11
197.46
 21
-131.0
 31
0.0
  0
LINE
  5
49
330
2E
100
AcDbEntity
  8
0
  6
Continuous
 62
     3
100
AcDbLine
 10
21.2039466119903
 20
-125.2960495742167
 30
0.0
 11
9.796049064250935
 21
-136.7039471219561
 31
0.0
  0
LINE
  5
4A
330
2E
100
AcDbEntity
  8
0
  6
Continuous
 62
     3
100
AcDbLine
 10
25.54
 20
-110.5
 30
0.0
 11
110.46
 21
-110.5
 31
0.0
  0
LINE
  5
4B
330
2E
100
AcDbEntity
  8
0
  6
Continuous
 62
     3
100
AcDbLine
 10
115.54
 20
-110.5
 30
0.0
 11
197.46
 21
-110.5
 31
0.0
  0
LINE
  5
4C
330
2E
100
AcDbEntity
  8
0
  6
Continuous
 62
     4
100
AcDbLine
 10
-199.0
 20
120.96
 30
0.0
 11
-199.0
 21
-140.96
 31
0.0
  0
LINE
  5
4D
330
2E
100
AcDbEntity
  8
0
  6
Continuous
 62
     4
100
AcDbLine
 10
199.0
 20
120.96
 30
0.0
 11
199.0
 21
-140.96
 31
0.0
  0
LINE
  5
4E
330
2E
100
AcDbEntity
  8
0
  6
Continuous
 62
     3
100
AcDbLine
 10
10.54
 20
-103.0
 30
0.0
 11
197.46
 21
-103.0
 31
0.0
  0
MTEXT
  5
4F
330
2E
100
AcDbEntity
  8
0
 62
     3
100
AcDbMText
 10
-176.0001562833786
 20
127.0
 30
0.0
 40
7.0
 41
0.0
 71
     7
 72
     1
  1
{\W1;A3}
 73
     1
 44
1.0
  0
ENDBLK
  5
30
330
2E
100
AcDbEntity
  8
0
100
AcDbBlockEnd
  0
BLOCK
  5
1F0
330
1EF
100
AcDbEntity
  8
0
100
AcDbBlockBegin
  2
_Open30
 70
     0
 10
0.0
 20
0.0
 30
0.0
  3
_Open30
  1

  0
LINE
  5
1F2
330
1EF
100
AcDbEntity
  8
0
  6
ByBlock
 62
     0
370
    -2
100
AcDbLine
 10
-1.0
 20
0.267949
 30
0.0
 11
0.0
 21
0.0
 31
0.0
  0
LINE
  5
1F3
330
1EF
100
AcDbEntity
  8
0
  6
ByBlock
 62
     0
370
    -2
100
AcDbLine
 10
0.0
 20
0.0
 30
0.0
 11
-1.0
 21
-0.267949
 31
0.0
  0
LINE
  5
1F4
330
1EF
100
AcDbEntity
  8
0
  6
ByBlock
 62
     0
370
    -2
100
AcDbLine
 10
0.0
 20
0.0
 30
0.0
 11
-1.0
 21
0.0
 31
0.0
  0
ENDBLK
  5
1F1
330
1EF
100
AcDbEntity
  8
0
100
AcDbBlockEnd
  0
BLOCK
  5
200
330
1F6
100
AcDbEntity
  8
0
100
AcDbBlockBegin
  2
*D3
 70
     1
 10
0.0
 20
0.0
 30
0.0
  3
*D3
  1

  0
LINE
  5
31F
330
1F6
100
AcDbEntity
  8
寸法線
 62
     0
440
 16777216
370
    -2
100
AcDbLine
 10
-127.2320067416577
 20
91.83681665540936
 30
0.0
 11
-127.2320067416577
 21
115.9277942249895
 31
0.0
  0
LINE
  5
320
330
1F6
100
AcDbEntity
  8
寸法線
 62
     0
440
 16777216
370
    -2
100
AcDbLine
 10
-169.3820067416579
 20
96.44181619764571
 30
0.0
 11
-169.3820067416579
 21
115.9277942249895
 31
0.0
  0
LINE
  5
321
330
1F6
100
AcDbEntity
  8
寸法線
 62
     0
440
 16777216
370
    -2
100
AcDbLine
 10
-130.2320067416578
 20
113.6417942249895
 30
0.0
 11
-166.3820067416579
 21
113.6417942249895
 31
0.0
  0
INSERT
  5
322
330
1F6
100
AcDbEntity
  8
寸法線
 62
     0
440
 16777216
370
    -2
100
AcDbBlockReference
  2
_Open30
 10
-127.2320067416577
 20
113.6417942249895
 30
0.0
 41
3.0
 42
3.0
 43
3.0
  0
INSERT
  5
323
330
1F6
100
AcDbEntity
  8
寸法線
 62
     0
440
 16777216
370
    -2
100
AcDbBlockReference
  2
_Open30
 10
-169.3820067416579
 20
113.6417942249895
 30
0.0
 41
3.0
 42
3.0
 43
3.0
 50
180.0
  0
MTEXT
  5
324
330
1F6
100
AcDbEntity
  8
寸法線
 62
     0
440
 16777216
100
AcDbMText
 10
-148.3070067416579
 20
116.0417942607523
 30
0.0
 40
3.200000047683716
 41
0.0
 71
     5
 72
     1
  1
L
 73
     1
 44
1.0
  0
POINT
  5
325
330
1F6
100
AcDbEntity
  8
Defpoints
 62
     0
440
 16777216
100
AcDbPoint
 10
-127.2320067416577
 20
89.29681665540936
 30
0.0
  0
POINT
  5
326
330
1F6
100
AcDbEntity
  8
Defpoints
 62
     0
440
 16777216
100
AcDbPoint
 10
-169.3820067416579
 20
93.90181619764568
 30
0.0
  0
POINT
  5
327
330
1F6
100
AcDbEntity
  8
Defpoints
 62
     0
440
 16777216
100
AcDbPoint
 10
-169.3820067416579
 20
113.6417942249895
 30
0.0
  0
ENDBLK
  5
201
330
1F6
100
AcDbEntity
  8
0
100
AcDbBlockEnd
  0
BLOCK
  5
20D
330
203
100
AcDbEntity
  8
0
100
AcDbBlockBegin
  2
*D4
 70
     1
 10
0.0
 20
0.0
 30
0.0
  3
*D4
  1

  0
LINE
  5
328
330
203
100
AcDbEntity
  8
寸法線
 62
     0
440
 16777216
370
    -2
100
AcDbLine
 10
-169.8629903232009
 20
92.77681619764569
 30
0.0
 11
-183.608460045065
 21
92.77681619764569
 31
0.0
  0
LINE
  5
329
330
203
100
AcDbEntity
  8
寸法線
 62
     0
440
 16777216
370
    -2
100
AcDbLine
 10
-170.1220067416579
 20
65.47681505323652
 30
0.0
 11
-183.608460045065
 21
65.47681505323652
 31
0.0
  0
LINE
  5
32A
330
203
100
AcDbEntity
  8
寸法線
 62
     0
440
 16777216
370
    -2
100
AcDbLine
 10
-181.322460045065
 20
89.77681619764569
 30
0.0
 11
-181.322460045065
 21
68.47681505323652
 31
0.0
  0
INSERT
  5
32B
330
203
100
AcDbEntity
  8
寸法線
 62
     0
440
 16777216
370
    -2
100
AcDbBlockReference
  2
_Open30
 10
-181.322460045065
 20
92.77681619764569
 30
0.0
 41
3.0
 42
3.0
 43
3.0
 50
90.0
  0
INSERT
  5
32C
330
203
100
AcDbEntity
  8
寸法線
 62
     0
440
 16777216
370
    -2
100
AcDbBlockReference
  2
_Open30
 10
-181.322460045065
 20
65.47681505323652
 30
0.0
 41
3.0
 42
3.0
 43
3.0
 50
270.0
  0
MTEXT
  5
32D
102
{ACAD_XDICTIONARY
360
48A
102
}
330
203
100
AcDbEntity
  8
寸法線
 62
     0
440
 16777216
100
AcDbMText
 10
-183.7224600808278
 20
79.12681562544111
 30
0.0
 40
3.200000047683716
 41
0.0
 71
     5
 72
     1
  1
\U+2205A
 11
0.0000000000000001
 21
1.0
 31
0.0
 73
     1
 44
1.0
  0
POINT
  5
32E
330
203
100
AcDbEntity
  8
Defpoints
 62
     0
440
 16777216
100
AcDbPoint
 10
-167.3229903232009
 20
92.77681619764569
 30
0.0
  0
POINT
  5
32F
330
203
100
AcDbEntity
  8
Defpoints
 62
     0
440
 16777216
100
AcDbPoint
 10
-167.5820067416579
 20
65.47681505323652
 30
0.0
  0
POINT
  5
330
330
203
100
AcDbEntity
  8
Defpoints
 62
     0
440
 16777216
100
AcDbPoint
 10
-181.322460045065
 20
65.47681505323652
 30
0.0
  0
ENDBLK
  5
20E
330
203
100
AcDbEntity
  8
0
100
AcDbBlockEnd
  0
BLOCK
  5
21A
330
210
100
AcDbEntity
  8
0
100
AcDbBlockBegin
  2
*D5
 70
     1
 10
0.0
 20
0.0
 30
0.0
  3
*D5
  1

  0
LINE
  5
316
330
210
100
AcDbEntity
  8
寸法線
 62
     0
440
 16777216
370
    -2
100
AcDbLine
 10
-124.6920113192945
 20
88.47181665540935
 30
0.0
 11
-108.8354370410709
 21
88.47181665540935
 31
0.0
  0
LINE
  5
317
330
210
100
AcDbEntity
  8
寸法線
 62
     0
440
 16777216
370
    -2
100
AcDbLine
 10
-124.6920113192945
 20
69.78181802870039
 30
0.0
 11
-108.8354370410709
 21
69.78181802870039
 31
0.0
  0
LINE
  5
318
330
210
100
AcDbEntity
  8
寸法線
 62
     0
440
 16777216
370
    -2
100
AcDbLine
 10
-111.1214370410709
 20
85.47181665540938
 30
0.0
 11
-111.1214370410709
 21
72.78181802870041
 31
0.0
  0
INSERT
  5
319
330
210
100
AcDbEntity
  8
寸法線
 62
     0
440
 16777216
370
    -2
100
AcDbBlockReference
  2
_Open30
 10
-111.1214370410709
 20
88.47181665540935
 30
0.0
 41
3.0
 42
3.0
 43
3.0
 50
90.0
  0
INSERT
  5
31A
330
210
100
AcDbEntity
  8
寸法線
 62
     0
440
 16777216
370
    -2
100
AcDbBlockReference
  2
_Open30
 10
-111.1214370410709
 20
69.78181802870039
 30
0.0
 41
3.0
 42
3.0
 43
3.0
 50
270.0
  0
MTEXT
  5
31B
102
{ACAD_XDICTIONARY
360
488
102
}
330
210
100
AcDbEntity
  8
寸法線
 62
     0
440
 16777216
100
AcDbMText
 10
-113.5214370768337
 20
79.12681734205486
 30
0.0
 40
3.200000047683716
 41
0.0
 71
     5
 72
     1
  1
\U+2205B
 11
0.0000000000000001
 21
1.0
 31
0.0
 73
     1
 44
1.0
  0
POINT
  5
31C
330
210
100
AcDbEntity
  8
Defpoints
 62
     0
440
 16777216
100
AcDbPoint
 10
-127.2320113192945
 20
88.47181665540935
 30
0.0
  0
POINT
  5
31D
330
210
100
AcDbEntity
  8
Defpoints
 62
     0
440
 16777216
100
AcDbPoint
 10
-127.2320113192945
 20
69.78181802870039
 30
0.0
  0
POINT
  5
31E
330
210
100
AcDbEntity
  8
Defpoints
 62
     0
440
 16777216
100
AcDbPoint
 10
-111.1214370410709
 20
69.78181802870039
 30
0.0
  0
ENDBLK
  5
21B
330
210
100
AcDbEntity
  8
0
100
AcDbBlockEnd
  0
BLOCK
  5
227
330
21D
100
AcDbEntity
  8
0
100
AcDbBlockBegin
  2
*D6
 70
     1
 10
0.0
 20
0.0
 30
0.0
  3
*D6
  1

  0
LINE
  5
331
330
21D
100
AcDbEntity
  8
寸法線
 62
     0
440
 16777216
370
    -2
100
AcDbLine
 10
-77.76014739633855
 20
99.74181619764571
 30
0.0
 11
-77.76014739633855
 21
114.5417919361711
 31
0.0
  0
LINE
  5
332
330
21D
100
AcDbEntity
  8
寸法線
 62
     0
440
 16777216
370
    -2
100
AcDbLine
 10
-11.01014739633856
 20
91.83681665540941
 30
0.0
 11
-11.01014739633856
 21
114.5417919361711
 31
0.0
  0
LINE
  5
333
330
21D
100
AcDbEntity
  8
寸法線
 62
     0
440
 16777216
370
    -2
100
AcDbLine
 10
-74.76014739633855
 20
113.6417942249895
 30
0.0
 11
-14.01014739633856
 21
113.6417942249895
 31
0.0
  0
INSERT
  5
334
330
21D
100
AcDbEntity
  8
寸法線
 62
     0
440
 16777216
370
    -2
100
AcDbBlockReference
  2
_Open30
 10
-77.76014739633855
 20
113.6417942249895
 30
0.0
 41
3.0
 42
3.0
 43
3.0
 50
180.0
  0
INSERT
  5
335
330
21D
100
AcDbEntity
  8
寸法線
 62
     0
440
 16777216
370
    -2
100
AcDbBlockReference
  2
_Open30
 10
-11.01014739633856
 20
113.6417942249895
 30
0.0
 41
3.0
 42
3.0
 43
3.0
  0
MTEXT
  5
336
330
21D
100
AcDbEntity
  8
寸法線
 62
     0
440
 16777216
100
AcDbMText
 10
-44.38514911295231
 20
116.0417942607523
 30
0.0
 40
3.200000047683716
 41
0.0
 71
     5
 72
     1
  1
L
 73
     1
 44
1.0
  0
POINT
  5
337
330
21D
100
AcDbEntity
  8
Defpoints
 62
     0
440
 16777216
100
AcDbPoint
 10
-77.76014739633855
 20
97.2018161976457
 30
0.0
  0
POINT
  5
338
330
21D
100
AcDbEntity
  8
Defpoints
 62
     0
440
 16777216
100
AcDbPoint
 10
-11.01014739633856
 20
89.29681665540938
 30
0.0
  0
POINT
  5
339
330
21D
100
AcDbEntity
  8
Defpoints
 62
     0
440
 16777216
100
AcDbPoint
 10
-11.01014739633856
 20
113.6417942249895
 30
0.0
  0
ENDBLK
  5
228
330
21D
100
AcDbEntity
  8
0
100
AcDbBlockEnd
  0
BLOCK
  5
234
330
22A
100
AcDbEntity
  8
0
100
AcDbBlockBegin
  2
*D7
 70
     1
 10
0.0
 20
0.0
 30
0.0
  3
*D7
  1

  0
LINE
  5
33A
330
22A
100
AcDbEntity
  8
寸法線
 62
     0
440
 16777216
370
    -2
100
AcDbLine
 10
-80.30014625192942
 20
61.87682535291916
 30
0.0
 11
-87.54829596717405
 21
61.87682535291916
 31
0.0
  0
LINE
  5
33B
330
22A
100
AcDbEntity
  8
寸法線
 62
     0
440
 16777216
370
    -2
100
AcDbLine
 10
-80.30014625192942
 20
96.37681162000902
 30
0.0
 11
-87.54829596717405
 21
96.37681162000902
 31
0.0
  0
LINE
  5
33C
330
22A
100
AcDbEntity
  8
寸法線
 62
     0
440
 16777216
370
    -2
100
AcDbLine
 10
-85.26229596717406
 20
64.87682535291914
 30
0.0
 11
-85.26229596717406
 21
93.37681162000901
 31
0.0
  0
INSERT
  5
33D
330
22A
100
AcDbEntity
  8
寸法線
 62
     0
440
 16777216
370
    -2
100
AcDbBlockReference
  2
_Open30
 10
-85.26229596717406
 20
61.87682535291916
 30
0.0
 41
3.0
 42
3.0
 43
3.0
 50
270.0
  0
INSERT
  5
33E
330
22A
100
AcDbEntity
  8
寸法線
 62
     0
440
 16777216
370
    -2
100
AcDbBlockReference
  2
_Open30
 10
-85.26229596717405
 20
96.37681162000902
 30
0.0
 41
3.0
 42
3.0
 43
3.0
 50
90.0
  0
MTEXT
  5
33F
102
{ACAD_XDICTIONARY
360
48C
102
}
330
22A
100
AcDbEntity
  8
寸法線
 62
     0
440
 16777216
100
AcDbMText
 10
-87.66229600293689
 20
79.12681848646406
 30
0.0
 40
3.200000047683716
 41
0.0
 71
     5
 72
     1
  1
\U+2205A
 11
0.0000000000000001
 21
1.0
 31
0.0
 73
     1
 44
1.0
  0
POINT
  5
340
330
22A
100
AcDbEntity
  8
Defpoints
 62
     0
440
 16777216
100
AcDbPoint
 10
-77.76014625192941
 20
61.87682535291915
 30
0.0
  0
POINT
  5
341
330
22A
100
AcDbEntity
  8
Defpoints
 62
     0
440
 16777216
100
AcDbPoint
 10
-77.76014625192941
 20
96.37681162000902
 30
0.0
  0
POINT
  5
342
330
22A
100
AcDbEntity
  8
Defpoints
 62
     0
440
 16777216
100
AcDbPoint
 10
-85.26229596717405
 20
96.37681162000902
 30
0.0
  0
ENDBLK
  5
235
330
22A
100
AcDbEntity
  8
0
100
AcDbBlockEnd
  0
BLOCK
  5
241
330
237
100
AcDbEntity
  8
0
100
AcDbBlockBegin
  2
*D8
 70
     1
 10
0.0
 20
0.0
 30
0.0
  3
*D8
  1

  0
LINE
  5
343
330
237
100
AcDbEntity
  8
寸法線
 62
     0
440
 16777216
370
    -2
100
AcDbLine
 10
-8.470151973975276
 20
88.47181665540935
 30
0.0
 11
2.320727801737787
 21
88.47181665540935
 31
0.0
  0
LINE
  5
344
330
237
100
AcDbEntity
  8
寸法線
 62
     0
440
 16777216
370
    -2
100
AcDbLine
 10
-8.470151973975276
 20
69.78181802870039
 30
0.0
 11
2.320727801737783
 21
69.78181802870039
 31
0.0
  0
LINE
  5
345
330
237
100
AcDbEntity
  8
寸法線
 62
     0
440
 16777216
370
    -2
100
AcDbLine
 10
0.0347278017377871
 20
85.47181665540938
 30
0.0
 11
0.0347278017377843
 21
72.78181802870041
 31
0.0
  0
INSERT
  5
346
330
237
100
AcDbEntity
  8
寸法線
 62
     0
440
 16777216
370
    -2
100
AcDbBlockReference
  2
_Open30
 10
0.0347278017377878
 20
88.47181665540935
 30
0.0
 41
3.0
 42
3.0
 43
3.0
 50
90.0
  0
INSERT
  5
347
330
237
100
AcDbEntity
  8
寸法線
 62
     0
440
 16777216
370
    -2
100
AcDbBlockReference
  2
_Open30
 10
0.0347278017377837
 20
69.78181802870039
 30
0.0
 41
3.0
 42
3.0
 43
3.0
 50
270.0
  0
MTEXT
  5
348
102
{ACAD_XDICTIONARY
360
48E
102
}
330
237
100
AcDbEntity
  8
寸法線
 62
     0
440
 16777216
100
AcDbMText
 10
-2.365272234025014
 20
79.12681734205489
 30
0.0
 40
3.200000047683716
 41
0.0
 71
     5
 72
     1
  1
\U+2205B
 11
0.0000000000000001
 21
1.0
 31
0.0
 73
     1
 44
1.0
  0
POINT
  5
349
330
237
100
AcDbEntity
  8
Defpoints
 62
     0
440
 16777216
100
AcDbPoint
 10
-11.01015197397528
 20
88.47181665540935
 30
0.0
  0
POINT
  5
34A
330
237
100
AcDbEntity
  8
Defpoints
 62
     0
440
 16777216
100
AcDbPoint
 10
-11.01015197397528
 20
69.78181802870039
 30
0.0
  0
POINT
  5
34B
330
237
100
AcDbEntity
  8
Defpoints
 62
     0
440
 16777216
100
AcDbPoint
 10
0.0347278017377837
 20
69.78181802870039
 30
0.0
  0
ENDBLK
  5
242
330
237
100
AcDbEntity
  8
0
100
AcDbBlockEnd
  0
ENDSEC
  0
SECTION
  2
ENTITIES
  0
LINE
  5
50
330
1F
100
AcDbEntity
  8
外形線
  6
Continuous
 62
     7
100
AcDbLine
 10
-153.9154708214564
 20
93.03026868951832
 30
0.0
 11
-150.6333357982629
 21
72.70709244991714
 31
0.0
  0
LINE
  5
51
330
1F
100
AcDbEntity
  8
外形線
  6
Continuous
 62
     7
100
AcDbLine
 10
-143.4555699530829
 20
68.72069753733767
 30
0.0
 11
-144.3198511734454
 21
65.18794848469504
 31
0.0
  0
LINE
  5
52
330
1F
100
AcDbEntity
  8
中心線
  6
CENTER
100
AcDbLine
 10
-172.1335795413405
 20
79.12681619764571
 30
0.0
 11
-125.8842085849195
 21
79.12681619764571
 31
0.0
  0
LINE
  5
53
330
1F
100
AcDbEntity
  8
外形線
  6
Continuous
 62
     7
100
AcDbLine
 10
-148.0820067416579
 20
63.9768161976457
 30
0.0
 11
-148.0820067416579
 21
64.3518161976457
 31
0.0
  0
LINE
  5
54
330
1F
100
AcDbEntity
  8
外形線
  6
Continuous
 62
     7
100
AcDbLine
 10
-149.2820113192946
 20
63.9768161976457
 30
0.0
 11
-148.0820113192947
 21
63.9768161976457
 31
0.0
  0
LINE
  5
55
330
1F
100
AcDbEntity
  8
外形線
  6
Continuous
 62
     7
100
AcDbLine
 10
-127.6820113192945
 20
68.95681573988203
 30
0.0
 11
-127.2320113192945
 21
68.95681573988203
 31
0.0
  0
LINE
  5
56
330
1F
100
AcDbEntity
  8
外形線
  6
Continuous
 62
     7
100
AcDbLine
 10
-147.8655074130446
 20
63.9768161976457
 30
0.0
 11
-146.5820113192947
 21
63.9768161976457
 31
0.0
  0
LINE
  5
57
330
1F
100
AcDbEntity
  8
外形線
  6
Continuous
 62
     7
100
AcDbLine
 10
-127.2320067416577
 20
89.29681665540936
 30
0.0
 11
-127.2320067416577
 21
79.12681619764571
 31
0.0
  0
LINE
  5
58
330
1F
100
AcDbEntity
  8
外形線
  6
Continuous
 62
     7
100
AcDbLine
 10
-146.2820113192946
 20
64.5018161976457
 30
0.0
 11
-145.1940535556227
 21
64.5018161976457
 31
0.0
  0
LINE
  5
59
330
1F
100
AcDbEntity
  8
外形線
  6
Continuous
 62
     7
100
AcDbLine
 10
-146.2820067416579
 20
64.2768161976457
 30
0.0
 11
-146.2820067416579
 21
64.5018161976457
 31
0.0
  0
LINE
  5
5A
330
1F
100
AcDbEntity
  8
外形線
  6
Continuous
 62
     7
100
AcDbLine
 10
-148.0819998564941
 20
64.35180989479383
 30
0.0
 11
-147.8654959279728
 21
63.97681414199006
 31
0.0
  0
LINE
  5
5B
330
1F
100
AcDbEntity
  8
外形線
  6
Continuous
 62
     7
100
AcDbLine
 10
-148.0820067416579
 20
93.90181619764568
 30
0.0
 11
-148.0820067416579
 21
79.12681619764571
 31
0.0
  0
LINE
  5
5C
330
1F
100
AcDbEntity
  8
外形線
  6
Continuous
 62
     7
100
AcDbLine
 10
-144.4876921664626
 20
93.40954172254802
 30
0.0
 11
-144.4876921664626
 21
79.12681619764571
 31
0.0
  0
LINE
  5
5D
330
1F
100
AcDbEntity
  8
外形線
  6
Continuous
 62
     7
100
AcDbLine
 10
-143.2876921664626
 20
89.189091130507
 30
0.0
 11
-143.2876921664626
 21
79.12681619764571
 31
0.0
  0
LINE
  5
5E
330
1F
100
AcDbEntity
  8
外形線
  6
Continuous
 62
     7
100
AcDbLine
 10
-131.0866698275954
 20
79.19929735304122
 30
0.0
 11
-131.0866698275954
 21
70.2684162342668
 31
0.0
  0
LINE
  5
5F
330
1F
100
AcDbEntity
  8
外形線
  6
Continuous
 62
     7
100
AcDbLine
 10
-132.8110442736877
 20
88.59890494978252
 30
0.0
 11
-132.9094599433579
 21
88.0407625903846
 31
0.0
  0
LINE
  5
60
330
1F
100
AcDbEntity
  8
外形線
  6
Continuous
 62
     7
100
AcDbLine
 10
-133.057200528279
 20
87.91681253553631
 30
0.0
 11
-134.3866744052321
 21
87.91681253553631
 31
0.0
  0
LINE
  5
61
330
1F
100
AcDbEntity
  8
外形線
  6
Continuous
 62
     7
100
AcDbLine
 10
-148.0820067416579
 20
64.3518161976457
 30
0.0
 11
-148.0820067416579
 21
79.12681619764571
 31
0.0
  0
LINE
  5
62
330
1F
100
AcDbEntity
  8
外形線
  6
Continuous
 62
     7
100
AcDbLine
 10
-147.8655074130446
 20
94.27681619764568
 30
0.0
 11
-146.5820113192947
 21
94.27681619764568
 31
0.0
  0
LINE
  5
63
330
1F
100
AcDbEntity
  8
外形線
  6
Continuous
 62
     7
100
AcDbLine
 10
-148.0820008187186
 20
93.90181449421431
 30
0.0
 11
-147.8654968901973
 21
94.27681024701808
 31
0.0
  0
LINE
  5
64
330
1F
100
AcDbEntity
  8
外形線
  6
Continuous
 62
     7
100
AcDbLine
 10
-138.1066725741774
 20
88.84681436659102
 30
0.0
 11
-136.2577284823805
 21
88.84681436659102
 31
0.0
  0
LINE
  5
65
330
1F
100
AcDbEntity
  8
外形線
  6
Continuous
 62
     7
100
AcDbLine
 10
-135.9622405253541
 20
88.59891691565451
 30
0.0
 11
-135.8638258119803
 21
88.04077903588986
 31
0.0
  0
LINE
  5
66
330
1F
100
AcDbEntity
  8
外形線
  6
Continuous
 62
     7
100
AcDbLine
 10
-135.7161482821852
 20
87.91681253553631
 30
0.0
 11
-134.3866744052321
 21
87.91681253553631
 31
0.0
  0
LINE
  5
67
330
1F
100
AcDbEntity
  8
外形線
  6
Continuous
 62
     7
100
AcDbLine
 10
-138.1066725741774
 20
88.84681436659102
 30
0.0
 11
-139.9556258212478
 21
88.84681436659102
 31
0.0
  0
LINE
  5
68
330
1F
100
AcDbEntity
  8
外形線
  6
Continuous
 62
     7
100
AcDbLine
 10
-140.2510488999457
 20
88.59890783935481
 30
0.0
 11
-140.349464569616
 21
88.04076547995691
 31
0.0
  0
LINE
  5
69
330
1F
100
AcDbEntity
  8
外形線
  6
Continuous
 62
     7
100
AcDbLine
 10
-140.4972060214431
 20
87.91681253553631
 30
0.0
 11
-141.2961501132399
 21
87.91681253553631
 31
0.0
  0
LINE
  5
6A
330
1F
100
AcDbEntity
  8
外形線
  6
Continuous
 62
     7
100
AcDbLine
 10
-146.2820067416579
 20
93.97681619764568
 30
0.0
 11
-146.2820067416579
 21
93.75181619764568
 31
0.0
  0
LINE
  5
6B
330
1F
100
AcDbEntity
  8
外形線
  6
Continuous
 62
     7
100
AcDbLine
 10
-130.6709609042555
 20
69.4068180287004
 30
0.0
 11
-127.6820113192945
 21
69.4068180287004
 31
0.0
  0
LINE
  5
6C
330
1F
100
AcDbEntity
  8
外形線
  6
Continuous
 62
     7
100
AcDbLine
 10
-149.2820113192946
 20
94.27681619764568
 30
0.0
 11
-148.0820113192947
 21
94.27681619764568
 31
0.0
  0
LINE
  5
6D
330
1F
100
AcDbEntity
  8
外形線
  6
Continuous
 62
     7
100
AcDbLine
 10
-148.0820067416579
 20
94.27681619764568
 30
0.0
 11
-148.0820067416579
 21
93.90181619764568
 31
0.0
  0
LINE
  5
6E
330
1F
100
AcDbEntity
  8
外形線
  6
Continuous
 62
     7
100
AcDbLine
 10
-142.5813307773024
 20
69.4068180287004
 30
0.0
 11
-139.9777266513259
 21
69.4068180287004
 31
0.0
  0
LINE
  5
6F
330
1F
100
AcDbEntity
  8
外形線
  6
Continuous
 62
     7
100
AcDbLine
 10
-139.6823047136961
 20
69.65473019870643
 30
0.0
 11
-139.5838893246566
 21
70.21287144552362
 31
0.0
  0
LINE
  5
70
330
1F
100
AcDbEntity
  8
外形線
  6
Continuous
 62
     7
100
AcDbLine
 10
-139.4361464511305
 20
70.33681985975508
 30
0.0
 11
-138.1066725741774
 21
70.33681985975508
 31
0.0
  0
LINE
  5
71
330
1F
100
AcDbEntity
  8
外形線
  6
Continuous
 62
     7
100
AcDbLine
 10
-134.3866744052321
 20
69.4068180287004
 30
0.0
 11
-136.2356276523024
 21
69.4068180287004
 31
0.0
  0
LINE
  5
72
330
1F
100
AcDbEntity
  8
外形線
  6
Continuous
 62
     7
100
AcDbLine
 10
-136.5310850436779
 20
69.65471745934653
 30
0.0
 11
-136.6295002339928
 21
70.21285757914069
 31
0.0
  0
LINE
  5
73
330
1F
100
AcDbEntity
  8
外形線
  6
Continuous
 62
     7
100
AcDbLine
 10
-136.7771986972242
 20
70.33681985975508
 30
0.0
 11
-138.1066725741774
 21
70.33681985975508
 31
0.0
  0
LINE
  5
74
330
1F
100
AcDbEntity
  8
外形線
  6
Continuous
 62
     7
100
AcDbLine
 10
-134.3866744052321
 20
69.4068180287004
 30
0.0
 11
-132.5377211581617
 21
69.4068180287004
 31
0.0
  0
LINE
  5
75
330
1F
100
AcDbEntity
  8
外形線
  6
Continuous
 62
     7
100
AcDbLine
 10
-132.2423004848867
 20
69.65472614689236
 30
0.0
 11
-132.1438850958472
 21
70.21286739370953
 31
0.0
  0
LINE
  5
76
330
1F
100
AcDbEntity
  8
外形線
  6
Continuous
 62
     7
100
AcDbLine
 10
-131.9961501132399
 20
70.33681985975508
 30
0.0
 11
-131.6043410312086
 21
70.33681985975508
 31
0.0
  0
LINE
  5
77
330
1F
100
AcDbEntity
  8
外形線
  6
Continuous
 62
     7
100
AcDbLine
 10
-132.7466240241656
 20
88.73826931738369
 30
0.0
 11
-130.9073940610026
 21
79.12681072348975
 31
0.0
  0
LINE
  5
78
330
1F
100
AcDbEntity
  8
外形線
  6
Continuous
 62
     7
100
AcDbLine
 10
-132.942607138708
 20
87.97004535379782
 30
0.0
 11
-131.0866822357257
 21
79.19930509171577
 31
0.0
  0
LINE
  5
79
330
1F
100
AcDbEntity
  8
外形線
  6
Continuous
 62
     7
100
AcDbLine
 10
-140.3826011906104
 20
87.97004115474285
 30
0.0
 11
-136.7974536885055
 21
71.02733108512412
 31
0.0
  0
LINE
  5
7A
330
1F
100
AcDbEntity
  8
外形線
  6
Continuous
 62
     7
100
AcDbLine
 10
-140.1866081818151
 20
88.73827101819347
 30
0.0
 11
-136.6526159779927
 21
70.27031409138948
 31
0.0
  0
LINE
  5
7B
330
1F
100
AcDbEntity
  8
外形線
  6
Continuous
 62
     7
100
AcDbLine
 10
-135.8407837702409
 20
87.98330452244222
 30
0.0
 11
-132.3067926673229
 21
69.5153548129539
 31
0.0
  0
LINE
  5
7C
330
1F
100
AcDbEntity
  8
外形線
  6
Continuous
 62
     7
100
AcDbLine
 10
-135.6958892605094
 20
87.22632836720748
 30
0.0
 11
-132.1107375134551
 21
70.28359945630916
 31
0.0
  0
LINE
  5
7D
330
1F
100
AcDbEntity
  8
外形線
  6
Continuous
 62
     7
100
AcDbLine
 10
-130.9073546420485
 20
79.12681619764571
 30
0.0
 11
-130.9073546420485
 21
69.52211038709883
 31
0.0
  0
LINE
  5
7E
330
1F
100
AcDbEntity
  8
外形線
  6
Continuous
 62
     7
100
AcDbLine
 10
-141.5860179135332
 20
79.12681148619054
 30
0.0
 11
-139.7467869762297
 21
69.51534856365801
 31
0.0
  0
LINE
  5
7F
330
1F
100
AcDbEntity
  8
外形線
  6
Continuous
 62
     7
100
AcDbLine
 10
-141.4220036240603
 20
79.12681822439892
 30
0.0
 11
-139.5507416180326
 21
70.28359843169653
 31
0.0
  0
LINE
  5
80
330
1F
100
AcDbEntity
  8
外形線
  6
Continuous
 62
     7
100
AcDbLine
 10
-130.9664284658489
 20
69.65472266798108
 30
0.0
 11
-131.0648436561638
 21
70.2128627877752
 31
0.0
  0
LINE
  5
81
330
1F
100
AcDbEntity
  8
外形線
  6
Continuous
 62
     7
100
AcDbLine
 10
-131.2125411044508
 20
70.33681985975508
 30
0.0
 11
-131.6043410312086
 21
70.33681985975508
 31
0.0
  0
LINE
  5
82
330
1F
100
AcDbEntity
  8
外形線
  6
Continuous
 62
     7
100
AcDbLine
 10
-146.2820067416579
 20
93.75181619764568
 30
0.0
 11
-146.2820067416579
 21
79.12681619764571
 31
0.0
  0
LINE
  5
83
330
1F
100
AcDbEntity
  8
外形線
  6
Continuous
 62
     7
100
AcDbLine
 10
-132.5156203280836
 20
88.84681665540936
 30
0.0
 11
-127.6820113192945
 21
88.84681665540936
 31
0.0
  0
LINE
  5
84
330
1F
100
AcDbEntity
  8
外形線
  6
Continuous
 62
     7
100
AcDbLine
 10
-127.2320067416577
 20
68.95681573988203
 30
0.0
 11
-127.2320067416577
 21
79.12681619764571
 31
0.0
  0
LINE
  5
85
330
1F
100
AcDbEntity
  8
外形線
  6
Continuous
 62
     7
100
AcDbLine
 10
-127.6820113192945
 20
89.29681665540938
 30
0.0
 11
-127.2320113192945
 21
89.29681665540938
 31
0.0
  0
LINE
  5
86
330
1F
100
AcDbEntity
  8
外形線
  6
Continuous
 62
     7
100
AcDbLine
 10
-147.8655028354079
 20
94.27681619764568
 30
0.0
 11
-147.8655028354079
 21
79.12681619764571
 31
0.0
  0
LINE
  5
87
330
1F
100
AcDbEntity
  8
外形線
  6
Continuous
 62
     7
100
AcDbLine
 10
-127.6820067416579
 20
68.95681573988203
 30
0.0
 11
-127.6820067416579
 21
79.12681619764571
 31
0.0
  0
LINE
  5
88
330
1F
100
AcDbEntity
  8
外形線
  6
Continuous
 62
     7
100
AcDbLine
 10
-150.7669960214923
 20
73.0485590159452
 30
0.0
 11
-154.1185572182896
 21
91.98157200314913
 31
0.0
  0
LINE
  5
89
330
1F
100
AcDbEntity
  8
外形線
  6
Continuous
 62
     7
100
AcDbLine
 10
-158.638000149881
 20
66.33180855226801
 30
0.0
 11
-163.1785744257005
 21
91.98157195673788
 31
0.0
  0
LINE
  5
8A
330
1F
100
AcDbEntity
  8
外形線
  6
Continuous
 62
     7
100
AcDbLine
 10
-157.6488871118094
 20
91.95434939097241
 30
0.0
 11
-153.1455036139993
 21
66.2719533796957
 31
0.0
  0
LINE
  5
8B
330
1F
100
AcDbEntity
  8
外形線
  6
Continuous
 62
     7
100
AcDbLine
 10
-162.9754776458507
 20
93.03026566540072
 30
0.0
 11
-158.6554807703641
 21
66.28058680252056
 31
0.0
  0
LINE
  5
8C
330
1F
100
AcDbEntity
  8
外形線
  6
Continuous
 62
     7
100
AcDbLine
 10
-153.3486318097084
 20
65.2232353027075
 30
0.0
 11
-157.6860366898816
 21
91.9218155419
 31
0.0
  0
LINE
  5
8D
330
1F
100
AcDbEntity
  8
外形線
  6
Continuous
 62
     7
100
AcDbLine
 10
-127.6820067416579
 20
89.29681665540936
 30
0.0
 11
-127.6820067416579
 21
79.12681619764571
 31
0.0
  0
LINE
  5
8E
330
1F
100
AcDbEntity
  8
外形線
  6
Continuous
 62
     7
100
AcDbLine
 10
-146.2820067416579
 20
64.5018161976457
 30
0.0
 11
-146.2820067416579
 21
79.12681619764571
 31
0.0
  0
LINE
  5
8F
330
1F
100
AcDbEntity
  8
外形線
  6
Continuous
 62
     7
100
AcDbLine
 10
-144.4876921664626
 20
64.84409067274333
 30
0.0
 11
-144.4876921664626
 21
79.12681619764571
 31
0.0
  0
LINE
  5
90
330
1F
100
AcDbEntity
  8
外形線
  6
Continuous
 62
     7
100
AcDbLine
 10
-143.2876921664626
 20
69.06454126478438
 30
0.0
 11
-143.2876921664626
 21
79.12681619764571
 31
0.0
  0
LINE
  5
91
330
1F
100
AcDbEntity
  8
外形線
  6
Continuous
 62
     7
100
AcDbLine
 10
-147.8655028354079
 20
63.9768161976457
 30
0.0
 11
-147.8655028354079
 21
79.41098901869063
 31
0.0
  0
LINE
  5
92
330
1F
100
AcDbEntity
  8
外形線
  6
Continuous
 62
     7
100
AcDbLine
 10
-141.5866698275954
 20
88.71104852796795
 30
0.0
 11
-141.5866698275954
 21
79.12681619764571
 31
0.0
  0
LINE
  5
93
330
1F
100
AcDbEntity
  8
外形線
  6
Continuous
 62
     7
100
AcDbLine
 10
-149.5820067416579
 20
93.97681619764568
 30
0.0
 11
-149.5820067416579
 21
93.45181619764568
 31
0.0
  0
LINE
  5
94
330
1F
100
AcDbEntity
  8
外形線
  6
Continuous
 62
     7
100
AcDbLine
 10
-146.2820113192946
 20
93.75181619764573
 30
0.0
 11
-145.1940535556227
 21
93.75181619764573
 31
0.0
  0
LINE
  5
95
330
1F
100
AcDbEntity
  8
外形線
  6
Continuous
 62
     7
100
AcDbLine
 10
-162.4086209411623
 20
65.22323752253981
 30
0.0
 11
-164.7548756368574
 21
79.66543763646973
 31
0.0
  0
LINE
  5
96
330
1F
100
AcDbEntity
  8
外形線
  6
Continuous
 62
     7
100
AcDbLine
 10
-164.5820067416579
 20
91.92181665540935
 30
0.0
 11
-164.5820067416579
 21
79.82479135633713
 31
0.0
  0
LINE
  5
97
330
1F
100
AcDbEntity
  8
外形線
  6
Continuous
 62
     7
100
AcDbLine
 10
-142.5813307773024
 20
88.84681665540936
 30
0.0
 11
-141.8377303134352
 21
88.84681665540936
 31
0.0
  0
LINE
  5
98
330
1F
100
AcDbEntity
  8
外形線
  6
Continuous
 62
     7
100
AcDbLine
 10
-141.4220030795485
 20
87.98521844984295
 30
0.0
 11
-141.4220030795485
 21
79.12681619764571
 31
0.0
  0
LINE
  5
99
330
1F
100
AcDbEntity
  8
外形線
  6
Continuous
 62
     7
100
AcDbLine
 10
-143.4555719498434
 20
89.5329331116388
 30
0.0
 11
-144.3198537948579
 21
93.0656847175466
 31
0.0
  0
LINE
  5
9A
330
1F
100
AcDbEntity
  8
外形線
  6
Continuous
 62
     7
100
AcDbLine
 10
-141.5422807294424
 20
88.5989120471452
 30
0.0
 11
-141.4438650721925
 21
88.0407697581862
 31
0.0
  0
LINE
  5
9B
330
1F
100
AcDbEntity
  8
外形線
  6
Continuous
 62
     7
100
AcDbLine
 10
-158.7683806430251
 20
66.33181459547285
 30
0.0
 11
-160.4270049106032
 21
66.33181459547285
 31
0.0
  0
LINE
  5
9C
330
1F
100
AcDbEntity
  8
外形線
  6
Continuous
 62
     7
100
AcDbLine
 10
-158.6198319194382
 20
66.20268891547437
 30
0.0
 11
-158.5014083543731
 21
65.36006046425947
 31
0.0
  0
LINE
  5
9D
330
1F
100
AcDbEntity
  8
外形線
  6
Continuous
 62
     7
100
AcDbLine
 10
-155.8970030795486
 20
65.10181505323652
 30
0.0
 11
-153.5896727572829
 21
65.10181505323652
 31
0.0
  0
LINE
  5
9E
330
1F
100
AcDbEntity
  8
外形線
  6
Continuous
 62
     7
100
AcDbLine
 10
-167.5820067416579
 20
65.10181505323652
 30
0.0
 11
-162.6496764193923
 21
65.10181505323652
 31
0.0
  0
LINE
  5
9F
330
1F
100
AcDbEntity
  8
外形線
  6
Continuous
 62
     7
100
AcDbLine
 10
-162.0856337558181
 20
66.33181459547285
 30
0.0
 11
-160.4270049106032
 21
66.33181459547285
 31
0.0
  0
LINE
  5
A0
330
1F
100
AcDbEntity
  8
外形線
  6
Continuous
 62
     7
100
AcDbLine
 10
-153.0256346713454
 20
66.33181459547285
 30
0.0
 11
-151.9615172397048
 21
66.33181459547285
 31
0.0
  0
LINE
  5
A1
330
1F
100
AcDbEntity
  8
外形線
  6
Continuous
 62
     7
100
AcDbLine
 10
-153.1741651180625
 20
66.20269438536457
 30
0.0
 11
-153.2925889263624
 21
65.36006596833411
 31
0.0
  0
LINE
  5
A2
330
1F
100
AcDbEntity
  8
外形線
  6
Continuous
 62
     7
100
AcDbLine
 10
-162.2341661944593
 20
66.20269159933001
 30
0.0
 11
-162.3525900027591
 21
65.36006318229951
 31
0.0
  0
LINE
  5
A3
330
1F
100
AcDbEntity
  8
外形線
  6
Continuous
 62
     7
100
AcDbLine
 10
-155.8970030795486
 20
65.10181505323652
 30
0.0
 11
-158.2043334018142
 21
65.10181505323652
 31
0.0
  0
LINE
  5
A4
330
1F
100
AcDbEntity
  8
外形線
  6
Continuous
 62
     7
100
AcDbLine
 10
-164.5819910689726
 20
79.82479170642392
 30
0.0
 11
-162.2055128610722
 21
66.27194761105688
 31
0.0
  0
LINE
  5
A5
330
1F
100
AcDbEntity
  8
外形線
  6
Continuous
 62
     7
100
AcDbLine
 10
-150.7670012484938
 20
73.04856035352948
 30
0.0
 11
-150.7670012484938
 21
66.33181459547285
 31
0.0
  0
LINE
  5
A6
330
1F
100
AcDbEntity
  8
外形線
  6
Continuous
 62
     7
100
AcDbLine
 10
-149.5820067416579
 20
64.2768161976457
 30
0.0
 11
-149.5820067416579
 21
64.80181619764568
 31
0.0
  0
LINE
  5
A7
330
1F
100
AcDbEntity
  8
外形線
  6
Continuous
 62
     7
100
AcDbLine
 10
-149.8820113192947
 20
65.10181505323652
 30
0.0
 11
-150.33335714449
 21
65.10181505323652
 31
0.0
  0
LINE
  5
A8
330
1F
100
AcDbEntity
  8
外形線
  6
Continuous
 62
     7
100
AcDbLine
 10
-150.8973998080642
 20
66.33181459547285
 30
0.0
 11
-151.9615172397048
 21
66.33181459547285
 31
0.0
  0
LINE
  5
A9
330
1F
100
AcDbEntity
  8
外形線
  6
Continuous
 62
     7
100
AcDbLine
 10
-150.7488622489566
 20
66.20269037082088
 30
0.0
 11
-150.6304384406567
 21
65.36006195379042
 31
0.0
  0
LINE
  5
AA
330
1F
100
AcDbEntity
  8
外形線
  6
Continuous
 62
     7
100
AcDbLine
 10
-150.6333525668531
 20
72.70709039808515
 30
0.0
 11
-150.6333525668531
 21
65.40181390882735
 31
0.0
  0
LINE
  5
AB
330
1F
100
AcDbEntity
  8
外形線
  6
Continuous
 62
     7
100
AcDbLine
 10
-164.754872037068
 20
93.00011102796792
 30
0.0
 11
-164.754872037068
 21
79.66543581129319
 31
0.0
  0
LINE
  5
AC
330
1F
100
AcDbEntity
  8
外形線
  6
Continuous
 62
     7
100
AcDbLine
 10
-167.5820067416579
 20
93.15181619764569
 30
0.0
 11
-165.0156554232986
 21
93.15181619764569
 31
0.0
  0
LINE
  5
AD
330
1F
100
AcDbEntity
  8
外形線
  6
Continuous
 62
     7
100
AcDbLine
 10
-164.6001637477328
 20
92.05093655825839
 30
0.0
 11
-164.7185875909642
 21
92.89356612603548
 31
0.0
  0
LINE
  5
AE
330
1F
100
AcDbEntity
  8
外形線
  6
Continuous
 62
     7
100
AcDbLine
 10
-149.5820067416579
 20
93.45181619764568
 30
0.0
 11
-149.5820067416579
 21
64.80181619764568
 31
0.0
  0
LINE
  5
AF
330
1F
100
AcDbEntity
  8
外形線
  6
Continuous
 62
     7
100
AcDbLine
 10
-167.8820067416579
 20
93.90181619764568
 30
0.0
 11
-167.8820067416579
 21
79.12681619764571
 31
0.0
  0
LINE
  5
B0
330
1F
100
AcDbEntity
  8
外形線
  6
Continuous
 62
     7
100
AcDbLine
 10
-169.3820067416579
 20
94.27681619764568
 30
0.0
 11
-169.3820067416579
 21
93.90181619764568
 31
0.0
  0
LINE
  5
B1
330
1F
100
AcDbEntity
  8
外形線
  6
Continuous
 62
     7
100
AcDbLine
 10
-168.1820067416579
 20
94.27681619764568
 30
0.0
 11
-169.3820055972488
 21
94.27681619764568
 31
0.0
  0
LINE
  5
B2
330
1F
100
AcDbEntity
  8
外形線
  6
Continuous
 62
     7
100
AcDbLine
 10
-169.3820067416579
 20
93.90181619764568
 30
0.0
 11
-169.3820067416579
 21
79.12681619764571
 31
0.0
  0
LINE
  5
B3
330
1F
100
AcDbEntity
  8
外形線
  6
Continuous
 62
     7
100
AcDbLine
 10
-167.8820067416579
 20
93.97681619764568
 30
0.0
 11
-167.8820067416579
 21
93.45181619764568
 31
0.0
  0
LINE
  5
B4
330
1F
100
AcDbEntity
  8
外形線
  6
Continuous
 62
     7
100
AcDbLine
 10
-167.8820067416579
 20
93.45181619764568
 30
0.0
 11
-167.8820067416579
 21
79.12681619764571
 31
0.0
  0
LINE
  5
B5
330
1F
100
AcDbEntity
  8
外形線
  6
Continuous
 62
     7
100
AcDbLine
 10
-167.8820067416579
 20
64.3518161976457
 30
0.0
 11
-167.8820067416579
 21
79.12681619764571
 31
0.0
  0
LINE
  5
B6
330
1F
100
AcDbEntity
  8
外形線
  6
Continuous
 62
     7
100
AcDbLine
 10
-169.3820067416579
 20
63.9768161976457
 30
0.0
 11
-169.3820067416579
 21
64.3518161976457
 31
0.0
  0
LINE
  5
B7
330
1F
100
AcDbEntity
  8
外形線
  6
Continuous
 62
     7
100
AcDbLine
 10
-168.1820067416579
 20
63.9768161976457
 30
0.0
 11
-169.3820055972488
 21
63.9768161976457
 31
0.0
  0
LINE
  5
B8
330
1F
100
AcDbEntity
  8
外形線
  6
Continuous
 62
     7
100
AcDbLine
 10
-169.3820067416579
 20
64.3518161976457
 30
0.0
 11
-169.3820067416579
 21
79.12681619764571
 31
0.0
  0
LINE
  5
B9
330
1F
100
AcDbEntity
  8
外形線
  6
Continuous
 62
     7
100
AcDbLine
 10
-167.8820067416579
 20
64.2768161976457
 30
0.0
 11
-167.8820067416579
 21
64.80181619764568
 31
0.0
  0
LINE
  5
BA
330
1F
100
AcDbEntity
  8
外形線
  6
Continuous
 62
     7
100
AcDbLine
 10
-167.8820067416579
 20
64.80181619764568
 30
0.0
 11
-167.8820067416579
 21
79.12681619764571
 31
0.0
  0
LINE
  5
BB
330
1F
100
AcDbEntity
  8
外形線
  6
Continuous
 62
     7
100
AcDbLine
 10
-151.3670012484938
 20
93.15181619764569
 30
0.0
 11
-149.8820113192947
 21
93.15181619764569
 31
0.0
  0
LINE
  5
BC
330
1F
100
AcDbEntity
  8
外形線
  6
Continuous
 62
     7
100
AcDbLine
 10
-151.3670012484938
 20
93.15181619764569
 30
0.0
 11
-153.6743315707595
 21
93.15181619764569
 31
0.0
  0
LINE
  5
BD
330
1F
100
AcDbEntity
  8
外形線
  6
Continuous
 62
     7
100
AcDbLine
 10
-154.2383788119704
 20
91.92181665540935
 30
0.0
 11
-155.8970030795486
 21
91.92181665540935
 31
0.0
  0
LINE
  5
BE
330
1F
100
AcDbEntity
  8
外形線
  6
Continuous
 62
     7
100
AcDbLine
 10
-154.0898556849656
 20
92.05094147198357
 30
0.0
 11
-153.9714320010052
 21
92.89356990648876
 31
0.0
  0
LINE
  5
BF
330
1F
100
AcDbEntity
  8
外形線
  6
Continuous
 62
     7
100
AcDbLine
 10
-160.4270049106032
 20
93.15181619764569
 30
0.0
 11
-158.1196745883376
 21
93.15181619764569
 31
0.0
  0
LINE
  5
C0
330
1F
100
AcDbEntity
  8
外形線
  6
Continuous
 62
     7
100
AcDbLine
 10
-157.5556273471267
 20
91.92181665540935
 30
0.0
 11
-155.8970030795486
 21
91.92181665540935
 31
0.0
  0
LINE
  5
C1
330
1F
100
AcDbEntity
  8
外形線
  6
Continuous
 62
     7
100
AcDbLine
 10
-157.7041805657431
 20
92.05094166775451
 30
0.0
 11
-157.8226042497036
 21
92.89357010225979
 31
0.0
  0
LINE
  5
C2
330
1F
100
AcDbEntity
  8
外形線
  6
Continuous
 62
     7
100
AcDbLine
 10
-160.4270049106032
 20
93.15181619764569
 30
0.0
 11
-162.7343352328689
 21
93.15181619764569
 31
0.0
  0
LINE
  5
C3
330
1F
100
AcDbEntity
  8
外形線
  6
Continuous
 62
     7
100
AcDbLine
 10
-163.2983824740798
 20
91.92181665540935
 30
0.0
 11
-163.8749999057204
 21
91.92181665540935
 31
0.0
  0
LINE
  5
C4
330
1F
100
AcDbEntity
  8
外形線
  6
Continuous
 62
     7
100
AcDbLine
 10
-163.1498517504615
 20
92.05094011177379
 30
0.0
 11
-163.0314280665011
 21
92.89356854627909
 31
0.0
  0
LINE
  5
C5
330
1F
100
AcDbEntity
  8
外形線
  6
Continuous
 62
     7
100
AcDbLine
 10
-164.4516127597243
 20
91.92181665540935
 30
0.0
 11
-163.8749999057204
 21
91.92181665540935
 31
0.0
  0
LINE
  5
C6
330
1F
100
AcDbEntity
  8
外形線
  6
Continuous
 62
     7
100
AcDbLine
 10
-37.69361974313893
 20
93.03026948990572
 30
0.0
 11
-34.41148471994538
 21
72.70709325030456
 31
0.0
  0
LINE
  5
C7
330
1F
100
AcDbEntity
  8
外形線
  6
Continuous
 62
     7
100
AcDbLine
 10
-27.2337005899452
 20
68.72069616504465
 30
0.0
 11
-28.09798187829697
 21
65.1879468344956
 31
0.0
  0
LINE
  5
C8
330
1F
100
AcDbEntity
  8
中心線
  6
CENTER
100
AcDbLine
 10
-79.82344733835519
 20
79.12681619764571
 30
0.0
 11
-9.662349239600283
 21
79.12681619764571
 31
0.0
  0
LINE
  5
C9
330
1F
100
AcDbEntity
  8
外形線
  6
Continuous
 62
     7
100
AcDbLine
 10
-31.86014739633856
 20
63.97681619764572
 30
0.0
 11
-31.86014739633856
 21
64.35181619764572
 31
0.0
  0
LINE
  5
CA
330
1F
100
AcDbEntity
  8
外形線
  6
Continuous
 62
     7
100
AcDbLine
 10
-33.06015197397528
 20
63.97681619764572
 30
0.0
 11
-31.86015197397529
 21
63.97681619764572
 31
0.0
  0
LINE
  5
CB
330
1F
100
AcDbEntity
  8
外形線
  6
Continuous
 62
     7
100
AcDbLine
 10
-11.46015197397528
 20
68.95681573988205
 30
0.0
 11
-11.01015197397528
 21
68.95681573988205
 31
0.0
  0
LINE
  5
CC
330
1F
100
AcDbEntity
  8
外形線
  6
Continuous
 62
     7
100
AcDbLine
 10
-31.64364806772528
 20
63.97681619764572
 30
0.0
 11
-30.36015197397529
 21
63.97681619764572
 31
0.0
  0
LINE
  5
CD
330
1F
100
AcDbEntity
  8
外形線
  6
Continuous
 62
     7
100
AcDbLine
 10
-11.01014739633856
 20
89.29681665540938
 30
0.0
 11
-11.01014739633856
 21
79.12681619764571
 31
0.0
  0
LINE
  5
CE
330
1F
100
AcDbEntity
  8
外形線
  6
Continuous
 62
     7
100
AcDbLine
 10
-30.06015197397528
 20
64.5018161976457
 30
0.0
 11
-28.97219421030341
 21
64.5018161976457
 31
0.0
  0
LINE
  5
CF
330
1F
100
AcDbEntity
  8
外形線
  6
Continuous
 62
     7
100
AcDbLine
 10
-30.06014739633855
 20
64.2768161976457
 30
0.0
 11
-30.06014739633855
 21
64.5018161976457
 31
0.0
  0
LINE
  5
D0
330
1F
100
AcDbEntity
  8
外形線
  6
Continuous
 62
     7
100
AcDbLine
 10
-31.86014094541615
 20
64.35181300648612
 30
0.0
 11
-31.64363701689481
 21
63.97681725368238
 31
0.0
  0
LINE
  5
D1
330
1F
100
AcDbEntity
  8
外形線
  6
Continuous
 62
     7
100
AcDbLine
 10
-31.86014739633856
 20
93.90181619764572
 30
0.0
 11
-31.86014739633856
 21
79.12681619764571
 31
0.0
  0
LINE
  5
D2
330
1F
100
AcDbEntity
  8
外形線
  6
Continuous
 62
     7
100
AcDbLine
 10
-28.26583282114324
 20
93.40954172254804
 30
0.0
 11
-28.26583282114324
 21
79.12681619764571
 31
0.0
  0
LINE
  5
D3
330
1F
100
AcDbEntity
  8
外形線
  6
Continuous
 62
     7
100
AcDbLine
 10
-27.06583282114325
 20
89.18909113050705
 30
0.0
 11
-27.06583282114325
 21
79.12681619764571
 31
0.0
  0
LINE
  5
D4
330
1F
100
AcDbEntity
  8
外形線
  6
Continuous
 62
     7
100
AcDbLine
 10
-14.86481048227606
 20
79.19929735304122
 30
0.0
 11
-14.86481048227606
 21
70.2684162342668
 31
0.0
  0
LINE
  5
D5
330
1F
100
AcDbEntity
  8
外形線
  6
Continuous
 62
     7
100
AcDbLine
 10
-16.58919740335715
 20
88.59890749437182
 30
0.0
 11
-16.68761307302742
 21
88.0407651349739
 31
0.0
  0
LINE
  5
D6
330
1F
100
AcDbEntity
  8
外形線
  6
Continuous
 62
     7
100
AcDbLine
 10
-16.83534118295965
 20
87.91681253553631
 30
0.0
 11
-18.16481505991278
 21
87.91681253553631
 31
0.0
  0
LINE
  5
D7
330
1F
100
AcDbEntity
  8
外形線
  6
Continuous
 62
     7
100
AcDbLine
 10
-31.86014739633856
 20
64.35181619764572
 30
0.0
 11
-31.86014739633856
 21
79.12681619764571
 31
0.0
  0
LINE
  5
D8
330
1F
100
AcDbEntity
  8
外形線
  6
Continuous
 62
     7
100
AcDbLine
 10
-31.64364806772528
 20
94.27681619764571
 30
0.0
 11
-30.36015197397529
 21
94.27681619764571
 31
0.0
  0
LINE
  5
D9
330
1F
100
AcDbEntity
  8
外形線
  6
Continuous
 62
     7
100
AcDbLine
 10
-31.86014373649339
 20
93.90181508131076
 30
0.0
 11
-31.64363980797204
 21
94.27681083411451
 31
0.0
  0
LINE
  5
DA
330
1F
100
AcDbEntity
  8
外形線
  6
Continuous
 62
     7
100
AcDbLine
 10
-21.88481322885809
 20
88.84681436659105
 30
0.0
 11
-20.03586913706122
 21
88.84681436659105
 31
0.0
  0
LINE
  5
DB
330
1F
100
AcDbEntity
  8
外形線
  6
Continuous
 62
     7
100
AcDbLine
 10
-19.74040326738365
 20
88.59891265913054
 30
0.0
 11
-19.64198855400985
 21
88.04077477936589
 31
0.0
  0
LINE
  5
DC
330
1F
100
AcDbEntity
  8
外形線
  6
Continuous
 62
     7
100
AcDbLine
 10
-19.49428893686591
 20
87.91681253553631
 30
0.0
 11
-18.16481505991278
 21
87.91681253553631
 31
0.0
  0
LINE
  5
DD
330
1F
100
AcDbEntity
  8
外形線
  6
Continuous
 62
     7
100
AcDbLine
 10
-21.88481322885809
 20
88.84681436659105
 30
0.0
 11
-23.73376647592841
 21
88.84681436659105
 31
0.0
  0
LINE
  5
DE
330
1F
100
AcDbEntity
  8
外形線
  6
Continuous
 62
     7
100
AcDbLine
 10
-24.02919752152337
 20
88.59890958904488
 30
0.0
 11
-24.12761319119364
 21
88.04076722964692
 31
0.0
  0
LINE
  5
DF
330
1F
100
AcDbEntity
  8
外形線
  6
Continuous
 62
     7
100
AcDbLine
 10
-24.27534667612372
 20
87.91681253553631
 30
0.0
 11
-25.07429076792059
 21
87.91681253553631
 31
0.0
  0
LINE
  5
E0
330
1F
100
AcDbEntity
  8
外形線
  6
Continuous
 62
     7
100
AcDbLine
 10
-30.06014739633855
 20
93.9768161976457
 30
0.0
 11
-30.06014739633855
 21
93.75181619764573
 31
0.0
  0
LINE
  5
E1
330
1F
100
AcDbEntity
  8
外形線
  6
Continuous
 62
     7
100
AcDbLine
 10
-14.44910155893621
 20
69.4068180287004
 30
0.0
 11
-11.46015197397528
 21
69.4068180287004
 31
0.0
  0
LINE
  5
E2
330
1F
100
AcDbEntity
  8
外形線
  6
Continuous
 62
     7
100
AcDbLine
 10
-33.06015197397528
 20
94.27681619764571
 30
0.0
 11
-31.86015197397529
 21
94.27681619764571
 31
0.0
  0
LINE
  5
E3
330
1F
100
AcDbEntity
  8
外形線
  6
Continuous
 62
     7
100
AcDbLine
 10
-31.86014739633856
 20
94.27681619764571
 30
0.0
 11
-31.86014739633856
 21
93.90181619764572
 31
0.0
  0
LINE
  5
E4
330
1F
100
AcDbEntity
  8
外形線
  6
Continuous
 62
     7
100
AcDbLine
 10
-26.3594714319831
 20
69.4068180287004
 30
0.0
 11
-23.75586730600653
 21
69.4068180287004
 31
0.0
  0
LINE
  5
E5
330
1F
100
AcDbEntity
  8
外形線
  6
Continuous
 62
     7
100
AcDbLine
 10
-23.46043555131192
 20
69.65472913782369
 30
0.0
 11
-23.36202016227243
 21
70.21287038464087
 31
0.0
  0
LINE
  5
E6
330
1F
100
AcDbEntity
  8
外形線
  6
Continuous
 62
     7
100
AcDbLine
 10
-23.21428710581122
 20
70.33681985975508
 30
0.0
 11
-21.88481322885809
 21
70.33681985975508
 31
0.0
  0
LINE
  5
E7
330
1F
100
AcDbEntity
  8
外形線
  6
Continuous
 62
     7
100
AcDbLine
 10
-18.16481505991278
 20
69.4068180287004
 30
0.0
 11
-20.0137683069831
 21
69.4068180287004
 31
0.0
  0
LINE
  5
E8
330
1F
100
AcDbEntity
  8
外形線
  6
Continuous
 62
     7
100
AcDbLine
 10
-20.30922053842946
 20
69.65471857059798
 30
0.0
 11
-20.40763572874432
 21
70.21285869039214
 31
0.0
  0
LINE
  5
E9
330
1F
100
AcDbEntity
  8
外形線
  6
Continuous
 62
     7
100
AcDbLine
 10
-20.55533935190497
 20
70.33681985975508
 30
0.0
 11
-21.88481322885809
 21
70.33681985975508
 31
0.0
  0
LINE
  5
EA
330
1F
100
AcDbEntity
  8
外形線
  6
Continuous
 62
     7
100
AcDbLine
 10
-18.16481505991278
 20
69.4068180287004
 30
0.0
 11
-16.31586181284246
 21
69.4068180287004
 31
0.0
  0
LINE
  5
EB
330
1F
100
AcDbEntity
  8
外形線
  6
Continuous
 62
     7
100
AcDbLine
 10
-16.0204452442282
 20
69.65472521665901
 30
0.0
 11
-15.92202985518872
 21
70.21286646347618
 31
0.0
  0
LINE
  5
EC
330
1F
100
AcDbEntity
  8
外形線
  6
Continuous
 62
     7
100
AcDbLine
 10
-15.77429076792059
 20
70.33681985975508
 30
0.0
 11
-15.38248168588934
 21
70.33681985975508
 31
0.0
  0
LINE
  5
ED
330
1F
100
AcDbEntity
  8
外形線
  6
Continuous
 62
     7
100
AcDbLine
 10
-16.52475568444189
 20
88.73827294578463
 30
0.0
 11
-14.68552569439266
 21
79.12681421138886
 31
0.0
  0
LINE
  5
EE
330
1F
100
AcDbEntity
  8
外形線
  6
Continuous
 62
     7
100
AcDbLine
 10
-16.72074886402663
 20
87.97004440409109
 30
0.0
 11
-14.86482396104435
 21
79.19930414200905
 31
0.0
  0
LINE
  5
EF
330
1F
100
AcDbEntity
  8
外形線
  6
Continuous
 62
     7
100
AcDbLine
 10
-24.16074035093504
 20
87.9700391393934
 30
0.0
 11
-20.57559270075787
 21
71.0273283700137
 31
0.0
  0
LINE
  5
F0
330
1F
100
AcDbEntity
  8
外形線
  6
Continuous
 62
     7
100
AcDbLine
 10
-23.96474879387959
 20
88.73827271512761
 30
0.0
 11
-20.43075681858953
 21
70.2703169825892
 31
0.0
  0
LINE
  5
F1
330
1F
100
AcDbEntity
  8
外形線
  6
Continuous
 62
     7
100
AcDbLine
 10
-19.61891945606832
 20
87.98330500900961
 30
0.0
 11
-16.08492815150408
 21
69.51535424575755
 31
0.0
  0
LINE
  5
F2
330
1F
100
AcDbEntity
  8
外形線
  6
Continuous
 62
     7
100
AcDbLine
 10
-19.47404012045458
 20
87.22632653850011
 30
0.0
 11
-15.88888795879788
 21
70.28359566827122
 31
0.0
  0
LINE
  5
F3
330
1F
100
AcDbEntity
  8
外形線
  6
Continuous
 62
     7
100
AcDbLine
 10
-14.68549529672918
 20
79.12681619764571
 30
0.0
 11
-14.68549529672918
 21
69.52211038709883
 31
0.0
  0
LINE
  5
F4
330
1F
100
AcDbEntity
  8
外形線
  6
Continuous
 62
     7
100
AcDbLine
 10
-25.36415629101158
 20
79.12681386085964
 30
0.0
 11
-23.52492535370804
 21
69.51535093832712
 31
0.0
  0
LINE
  5
F5
330
1F
100
AcDbEntity
  8
外形線
  6
Continuous
 62
     7
100
AcDbLine
 10
-25.20015218554161
 20
79.12681658961862
 30
0.0
 11
-23.32889006105604
 21
70.2835962371075
 31
0.0
  0
LINE
  5
F6
330
1F
100
AcDbEntity
  8
外形線
  6
Continuous
 62
     7
100
AcDbLine
 10
-14.744559651233
 20
69.65472570115415
 30
0.0
 11
-14.84297484154787
 21
70.2128658209483
 31
0.0
  0
LINE
  5
F7
330
1F
100
AcDbEntity
  8
外形線
  6
Continuous
 62
     7
100
AcDbLine
 10
-14.99068175913153
 20
70.33681985975508
 30
0.0
 11
-15.38248168588934
 21
70.33681985975508
 31
0.0
  0
LINE
  5
F8
330
1F
100
AcDbEntity
  8
外形線
  6
Continuous
 62
     7
100
AcDbLine
 10
-30.06014739633855
 20
93.75181619764573
 30
0.0
 11
-30.06014739633855
 21
79.12681619764571
 31
0.0
  0
LINE
  5
F9
330
1F
100
AcDbEntity
  8
外形線
  6
Continuous
 62
     7
100
AcDbLine
 10
-16.29376098276434
 20
88.84681665540936
 30
0.0
 11
-11.46015197397528
 21
88.84681665540936
 31
0.0
  0
LINE
  5
FA
330
1F
100
AcDbEntity
  8
外形線
  6
Continuous
 62
     7
100
AcDbLine
 10
-11.01014739633856
 20
68.95681573988205
 30
0.0
 11
-11.01014739633856
 21
79.12681619764571
 31
0.0
  0
LINE
  5
FB
330
1F
100
AcDbEntity
  8
外形線
  6
Continuous
 62
     7
100
AcDbLine
 10
-11.46015197397528
 20
89.29681665540938
 30
0.0
 11
-11.01015197397528
 21
89.29681665540938
 31
0.0
  0
LINE
  5
FC
330
1F
100
AcDbEntity
  8
外形線
  6
Continuous
 62
     7
100
AcDbLine
 10
-31.64364349008855
 20
94.27681619764571
 30
0.0
 11
-31.64364349008855
 21
79.12681619764571
 31
0.0
  0
LINE
  5
FD
330
1F
100
AcDbEntity
  8
外形線
  6
Continuous
 62
     7
100
AcDbLine
 10
-11.46014739633856
 20
68.95681573988205
 30
0.0
 11
-11.46014739633856
 21
79.12681619764571
 31
0.0
  0
LINE
  5
FE
330
1F
100
AcDbEntity
  8
外形線
  6
Continuous
 62
     7
100
AcDbLine
 10
-34.54513699572401
 20
73.0485605022249
 30
0.0
 11
-37.89669834213447
 21
91.98157433459543
 31
0.0
  0
LINE
  5
FF
330
1F
100
AcDbEntity
  8
外形線
  6
Continuous
 62
     7
100
AcDbLine
 10
-42.41614357737456
 20
66.33181076646817
 30
0.0
 11
-46.95671745422557
 21
91.98157191716038
 31
0.0
  0
LINE
  5
100
330
1F
100
AcDbEntity
  8
外形線
  6
Continuous
 62
     7
100
AcDbLine
 10
-41.42703308986629
 20
91.95434955972929
 30
0.0
 11
-36.92364949322858
 21
66.27195298484704
 31
0.0
  0
LINE
  5
101
330
1F
100
AcDbEntity
  8
外形線
  6
Continuous
 62
     7
100
AcDbLine
 10
-46.75362186599396
 20
93.03026606583619
 30
0.0
 11
-42.43362480805261
 21
66.28058607318499
 31
0.0
  0
LINE
  5
102
330
1F
100
AcDbEntity
  8
外形線
  6
Continuous
 62
     7
100
AcDbLine
 10
-37.12676839074355
 20
65.22323300789229
 30
0.0
 11
-41.46417345442957
 21
91.92181437668448
 31
0.0
  0
LINE
  5
103
330
1F
100
AcDbEntity
  8
外形線
  6
Continuous
 62
     7
100
AcDbLine
 10
-11.46014739633856
 20
89.29681665540938
 30
0.0
 11
-11.46014739633856
 21
79.12681619764571
 31
0.0
  0
LINE
  5
104
330
1F
100
AcDbEntity
  8
外形線
  6
Continuous
 62
     7
100
AcDbLine
 10
-30.06014739633855
 20
64.5018161976457
 30
0.0
 11
-30.06014739633855
 21
79.12681619764571
 31
0.0
  0
LINE
  5
105
330
1F
100
AcDbEntity
  8
外形線
  6
Continuous
 62
     7
100
AcDbLine
 10
-28.26583282114324
 20
64.84409067274336
 30
0.0
 11
-28.26583282114324
 21
79.12681619764571
 31
0.0
  0
LINE
  5
106
330
1F
100
AcDbEntity
  8
外形線
  6
Continuous
 62
     7
100
AcDbLine
 10
-27.06583282114325
 20
69.06454126478438
 30
0.0
 11
-27.06583282114325
 21
79.12681619764571
 31
0.0
  0
LINE
  5
107
330
1F
100
AcDbEntity
  8
外形線
  6
Continuous
 62
     7
100
AcDbLine
 10
-31.64364349008855
 20
63.97681619764572
 30
0.0
 11
-31.64364349008855
 21
79.41098901869064
 31
0.0
  0
LINE
  5
108
330
1F
100
AcDbEntity
  8
外形線
  6
Continuous
 62
     7
100
AcDbLine
 10
-25.36481048227606
 20
88.71104852796799
 30
0.0
 11
-25.36481048227606
 21
79.12681619764571
 31
0.0
  0
LINE
  5
109
330
1F
100
AcDbEntity
  8
外形線
  6
Continuous
 62
     7
100
AcDbLine
 10
-33.36014739633856
 20
93.9768161976457
 30
0.0
 11
-33.36014739633856
 21
93.4518161976457
 31
0.0
  0
LINE
  5
10A
330
1F
100
AcDbEntity
  8
外形線
  6
Continuous
 62
     7
100
AcDbLine
 10
-74.89514991403876
 20
61.50182535291914
 30
0.0
 11
-77.31014625192938
 21
61.50182535291914
 31
0.0
  0
LINE
  5
10B
330
1F
100
AcDbEntity
  8
外形線
  6
Continuous
 62
     7
100
AcDbLine
 10
-30.06015197397528
 20
93.75181619764573
 30
0.0
 11
-28.97219421030341
 21
93.75181619764573
 31
0.0
  0
LINE
  5
10C
330
1F
100
AcDbEntity
  8
外形線
  6
Continuous
 62
     7
100
AcDbLine
 10
-46.18675921659695
 20
65.2232349524554
 30
0.0
 11
-48.53301400404845
 21
79.66543563118512
 31
0.0
  0
LINE
  5
10D
330
1F
100
AcDbEntity
  8
外形線
  6
Continuous
 62
     7
100
AcDbLine
 10
-48.36014739633856
 20
91.92181665540941
 30
0.0
 11
-48.36014739633856
 21
79.82479135633713
 31
0.0
  0
LINE
  5
10E
330
1F
100
AcDbEntity
  8
外形線
  6
Continuous
 62
     7
100
AcDbLine
 10
-26.3594714319831
 20
88.84681665540936
 30
0.0
 11
-25.61587096811591
 21
88.84681665540936
 31
0.0
  0
LINE
  5
10F
330
1F
100
AcDbEntity
  8
外形線
  6
Continuous
 62
     7
100
AcDbLine
 10
-25.20014373422918
 20
87.98521844984298
 30
0.0
 11
-25.20014373422918
 21
79.12681619764571
 31
0.0
  0
LINE
  5
110
330
1F
100
AcDbEntity
  8
外形線
  6
Continuous
 62
     7
100
AcDbLine
 10
-27.23370523064089
 20
89.53293565956311
 30
0.0
 11
-28.09798702891273
 21
93.06568707441021
 31
0.0
  0
LINE
  5
111
330
1F
100
AcDbEntity
  8
外形線
  6
Continuous
 62
     7
100
AcDbLine
 10
-25.32043194041419
 20
88.5989118018568
 30
0.0
 11
-25.22201627074392
 21
88.0407694424589
 31
0.0
  0
LINE
  5
112
330
1F
100
AcDbEntity
  8
外形線
  6
Continuous
 62
     7
100
AcDbLine
 10
-74.89514991403876
 20
61.50182535291914
 30
0.0
 11
-72.58781501413642
 21
61.50182535291914
 31
0.0
  0
LINE
  5
113
330
1F
100
AcDbEntity
  8
外形線
  6
Continuous
 62
     7
100
AcDbLine
 10
-42.54652129770575
 20
66.33181459547286
 30
0.0
 11
-44.20514556528387
 21
66.33181459547286
 31
0.0
  0
LINE
  5
114
330
1F
100
AcDbEntity
  8
外形線
  6
Continuous
 62
     7
100
AcDbLine
 10
-42.39797548629913
 20
66.20268984901265
 30
0.0
 11
-42.27955192123411
 21
65.36006139779778
 31
0.0
  0
LINE
  5
115
330
1F
100
AcDbEntity
  8
外形線
  6
Continuous
 62
     7
100
AcDbLine
 10
-39.67514373422919
 20
65.10181505323652
 30
0.0
 11
-37.36781341196357
 21
65.10181505323652
 31
0.0
  0
LINE
  5
116
330
1F
100
AcDbEntity
  8
外形線
  6
Continuous
 62
     7
100
AcDbLine
 10
-72.17231573284962
 20
62.60269917629235
 30
0.0
 11
-72.29073938187841
 21
61.76007189253372
 31
0.0
  0
LINE
  5
117
330
1F
100
AcDbEntity
  8
外形線
  6
Continuous
 62
     7
100
AcDbLine
 10
-72.0237723505622
 20
62.73182489515548
 30
0.0
 11
-70.36514808298406
 21
62.73182489515548
 31
0.0
  0
LINE
  5
118
330
1F
100
AcDbEntity
  8
外形線
  6
Continuous
 62
     7
100
AcDbLine
 10
-51.36014739633857
 20
65.10181505323652
 30
0.0
 11
-46.42781707407293
 21
65.10181505323652
 31
0.0
  0
LINE
  5
119
330
1F
100
AcDbEntity
  8
外形線
  6
Continuous
 62
     7
100
AcDbLine
 10
-65.83514625192939
 20
61.50182535291914
 30
0.0
 11
-68.14247886301337
 21
61.50182535291914
 31
0.0
  0
LINE
  5
11A
330
1F
100
AcDbEntity
  8
外形線
  6
Continuous
 62
     7
100
AcDbLine
 10
-45.86377441049871
 20
66.33181459547286
 30
0.0
 11
-44.20514556528387
 21
66.33181459547286
 31
0.0
  0
LINE
  5
11B
330
1F
100
AcDbEntity
  8
外形線
  6
Continuous
 62
     7
100
AcDbLine
 10
-36.80377532602606
 20
66.33181459547286
 30
0.0
 11
-35.73965789438544
 21
66.33181459547286
 31
0.0
  0
LINE
  5
11C
330
1F
100
AcDbEntity
  8
外形線
  6
Continuous
 62
     7
100
AcDbLine
 10
-36.95231274019773
 20
66.20269399168106
 30
0.0
 11
-37.07073654849764
 21
65.36006557465059
 31
0.0
  0
LINE
  5
11D
330
1F
100
AcDbEntity
  8
外形線
  6
Continuous
 62
     7
100
AcDbLine
 10
-68.70652381540594
 20
62.73182489515548
 30
0.0
 11
-70.36514808298406
 21
62.73182489515548
 31
0.0
  0
LINE
  5
11E
330
1F
100
AcDbEntity
  8
外形線
  6
Continuous
 62
     7
100
AcDbLine
 10
-68.55798729255511
 20
62.60269612918633
 30
0.0
 11
-68.43956356821931
 21
61.76006654469953
 31
0.0
  0
LINE
  5
11F
330
1F
100
AcDbEntity
  8
外形線
  6
Continuous
 62
     7
100
AcDbLine
 10
-46.01231381659458
 20
66.20269120564643
 30
0.0
 11
-46.13073762489445
 21
65.36006278861598
 31
0.0
  0
LINE
  5
120
330
1F
100
AcDbEntity
  8
外形線
  6
Continuous
 62
     7
100
AcDbLine
 10
-65.83514625192939
 20
61.50182535291914
 30
0.0
 11
-63.52781592966377
 21
61.50182535291914
 31
0.0
  0
LINE
  5
121
330
1F
100
AcDbEntity
  8
外形線
  6
Continuous
 62
     7
100
AcDbLine
 10
-39.67514373422919
 20
65.10181505323652
 30
0.0
 11
-41.98247405649482
 21
65.10181505323652
 31
0.0
  0
LINE
  5
122
330
1F
100
AcDbEntity
  8
外形線
  6
Continuous
 62
     7
100
AcDbLine
 10
-62.96377326608953
 20
62.73182489515548
 30
0.0
 11
-61.95215674997625
 21
62.73182489515548
 31
0.0
  0
LINE
  5
123
330
1F
100
AcDbEntity
  8
外形線
  6
Continuous
 62
     7
100
AcDbLine
 10
-63.11231483333605
 20
62.60269967587445
 30
0.0
 11
-63.23073864163595
 21
61.760071258844
 31
0.0
  0
LINE
  5
124
330
1F
100
AcDbEntity
  8
外形線
  6
Continuous
 62
     7
100
AcDbLine
 10
-48.36013812482679
 20
79.82479139572268
 30
0.0
 11
-45.98366006516788
 21
66.27194814576395
 31
0.0
  0
LINE
  5
125
330
1F
100
AcDbEntity
  8
外形線
  6
Continuous
 62
     7
100
AcDbLine
 10
-34.5451419031745
 20
73.04856035352952
 30
0.0
 11
-34.5451419031745
 21
66.33181459547286
 31
0.0
  0
LINE
  5
126
330
1F
100
AcDbEntity
  8
外形線
  6
Continuous
 62
     7
100
AcDbLine
 10
-33.36014739633856
 20
64.2768161976457
 30
0.0
 11
-33.36014739633856
 21
64.80181619764571
 31
0.0
  0
LINE
  5
127
330
1F
100
AcDbEntity
  8
外形線
  6
Continuous
 62
     7
100
AcDbLine
 10
-33.66015197397528
 20
65.10181505323652
 30
0.0
 11
-34.11149779917059
 21
65.10181505323652
 31
0.0
  0
LINE
  5
128
330
1F
100
AcDbEntity
  8
外形線
  6
Continuous
 62
     7
100
AcDbLine
 10
-34.67554046274481
 20
66.33181459547286
 30
0.0
 11
-35.73965789438544
 21
66.33181459547286
 31
0.0
  0
LINE
  5
129
330
1F
100
AcDbEntity
  8
外形線
  6
Continuous
 62
     7
100
AcDbLine
 10
-34.52700064564591
 20
66.2026909054015
 30
0.0
 11
-34.40857683734601
 21
65.36006248837103
 31
0.0
  0
LINE
  5
12A
330
1F
100
AcDbEntity
  8
外形線
  6
Continuous
 62
     7
100
AcDbLine
 10
-34.41149322153388
 20
72.70709039808515
 30
0.0
 11
-34.41149322153388
 21
65.40181390882735
 31
0.0
  0
LINE
  5
12B
330
1F
100
AcDbEntity
  8
外形線
  6
Continuous
 62
     7
100
AcDbLine
 10
-48.53301269174871
 20
93.00011102796799
 30
0.0
 11
-48.53301269174871
 21
79.66543581129319
 31
0.0
  0
LINE
  5
12C
330
1F
100
AcDbEntity
  8
外形線
  6
Continuous
 62
     7
100
AcDbLine
 10
-51.36014739633857
 20
93.15181619764571
 30
0.0
 11
-48.79379607797918
 21
93.15181619764571
 31
0.0
  0
LINE
  5
12D
330
1F
100
AcDbEntity
  8
外形線
  6
Continuous
 62
     7
100
AcDbLine
 10
-48.37830327769482
 20
92.0509351459094
 30
0.0
 11
-48.49672696165526
 21
92.89356358041464
 31
0.0
  0
LINE
  5
12E
330
1F
100
AcDbEntity
  8
外形線
  6
Continuous
 62
     7
100
AcDbLine
 10
-33.36014739633856
 20
93.4518161976457
 30
0.0
 11
-33.36014739633856
 21
64.80181619764571
 31
0.0
  0
LINE
  5
12F
330
1F
100
AcDbEntity
  8
外形線
  6
Continuous
 62
     7
100
AcDbLine
 10
-51.66014739633856
 20
93.90181619764572
 30
0.0
 11
-51.66014739633856
 21
79.12681619764571
 31
0.0
  0
LINE
  5
130
330
1F
100
AcDbEntity
  8
外形線
  6
Continuous
 62
     7
100
AcDbLine
 10
-57.81014739633857
 20
96.67112161756758
 30
0.0
 11
-57.81014739633857
 21
79.12681619764571
 31
0.0
  0
LINE
  5
131
330
1F
100
AcDbEntity
  8
外形線
  6
Continuous
 62
     7
100
AcDbLine
 10
-55.26014625192939
 20
93.75181619764573
 30
0.0
 11
-55.85555717111883
 21
93.75181619764573
 31
0.0
  0
LINE
  5
132
330
1F
100
AcDbEntity
  8
外形線
  6
Continuous
 62
     7
100
AcDbLine
 10
-53.16014739633856
 20
94.27681619764571
 30
0.0
 11
-53.16014739633856
 21
93.90181619764572
 31
0.0
  0
LINE
  5
133
330
1F
100
AcDbEntity
  8
外形線
  6
Continuous
 62
     7
100
AcDbLine
 10
-51.96014739633856
 20
94.27681619764571
 30
0.0
 11
-53.16014625192938
 21
94.27681619764571
 31
0.0
  0
LINE
  5
134
330
1F
100
AcDbEntity
  8
外形線
  6
Continuous
 62
     7
100
AcDbLine
 10
-54.96014739633856
 20
93.9768161976457
 30
0.0
 11
-54.96014739633856
 21
93.75181619764573
 31
0.0
  0
LINE
  5
135
330
1F
100
AcDbEntity
  8
外形線
  6
Continuous
 62
     7
100
AcDbLine
 10
-53.16013716412687
 20
93.90182230519684
 30
0.0
 11
-53.37664109264824
 21
94.27681805800062
 31
0.0
  0
LINE
  5
136
330
1F
100
AcDbEntity
  8
外形線
  6
Continuous
 62
     7
100
AcDbLine
 10
-53.37665015817939
 20
94.27681619764571
 30
0.0
 11
-54.6601462519294
 21
94.27681619764571
 31
0.0
  0
LINE
  5
137
330
1F
100
AcDbEntity
  8
外形線
  6
Continuous
 62
     7
100
AcDbLine
 10
-53.16014739633856
 20
93.90181619764572
 30
0.0
 11
-53.16014739633856
 21
79.12681619764571
 31
0.0
  0
LINE
  5
138
330
1F
100
AcDbEntity
  8
外形線
  6
Continuous
 62
     7
100
AcDbLine
 10
-54.96014739633856
 20
93.75181619764573
 30
0.0
 11
-54.96014739633856
 21
79.12681619764571
 31
0.0
  0
LINE
  5
139
330
1F
100
AcDbEntity
  8
外形線
  6
Continuous
 62
     7
100
AcDbLine
 10
-53.37665130258855
 20
94.27681619764571
 30
0.0
 11
-53.37665130258855
 21
79.12681619764571
 31
0.0
  0
LINE
  5
13A
330
1F
100
AcDbEntity
  8
外形線
  6
Continuous
 62
     7
100
AcDbLine
 10
-51.66014739633856
 20
93.9768161976457
 30
0.0
 11
-51.66014739633856
 21
93.4518161976457
 31
0.0
  0
LINE
  5
13B
330
1F
100
AcDbEntity
  8
外形線
  6
Continuous
 62
     7
100
AcDbLine
 10
-51.66014739633856
 20
93.4518161976457
 30
0.0
 11
-51.66014739633856
 21
79.12681619764571
 31
0.0
  0
LINE
  5
13C
330
1F
100
AcDbEntity
  8
外形線
  6
Continuous
 62
     7
100
AcDbLine
 10
-56.49409057260807
 20
94.01756631971599
 30
0.0
 11
-56.49409057260807
 21
79.12681619764571
 31
0.0
  0
LINE
  5
13D
330
1F
100
AcDbEntity
  8
外形線
  6
Continuous
 62
     7
100
AcDbLine
 10
-57.33314146442253
 20
96.14913426843235
 30
0.0
 11
-56.70502099211565
 21
94.3545043151753
 31
0.0
  0
LINE
  5
13E
330
1F
100
AcDbEntity
  8
外形線
  6
Continuous
 62
     7
100
AcDbLine
 10
-60.81014338343821
 20
72.09847085941928
 30
0.0
 11
-64.04612142973872
 21
95.52181486156603
 31
0.0
  0
LINE
  5
13F
330
1F
100
AcDbEntity
  8
外形線
  6
Continuous
 62
     7
100
AcDbLine
 10
-51.66014739633856
 20
64.35181619764572
 30
0.0
 11
-51.66014739633856
 21
79.12681619764571
 31
0.0
  0
LINE
  5
140
330
1F
100
AcDbEntity
  8
外形線
  6
Continuous
 62
     7
100
AcDbLine
 10
-55.26014625192939
 20
64.5018161976457
 30
0.0
 11
-55.85555717111883
 21
64.5018161976457
 31
0.0
  0
LINE
  5
141
330
1F
100
AcDbEntity
  8
外形線
  6
Continuous
 62
     7
100
AcDbLine
 10
-53.16014739633856
 20
63.97681619764572
 30
0.0
 11
-53.16014739633856
 21
64.35181619764572
 31
0.0
  0
LINE
  5
142
330
1F
100
AcDbEntity
  8
外形線
  6
Continuous
 62
     7
100
AcDbLine
 10
-51.96014739633856
 20
63.97681619764572
 30
0.0
 11
-53.16014625192938
 21
63.97681619764572
 31
0.0
  0
LINE
  5
143
330
1F
100
AcDbEntity
  8
外形線
  6
Continuous
 62
     7
100
AcDbLine
 10
-54.96014739633856
 20
64.2768161976457
 30
0.0
 11
-54.96014739633856
 21
64.5018161976457
 31
0.0
  0
LINE
  5
144
330
1F
100
AcDbEntity
  8
外形線
  6
Continuous
 62
     7
100
AcDbLine
 10
-53.16014339833309
 20
64.35181355183529
 30
0.0
 11
-53.37664732685443
 21
63.97681779903154
 31
0.0
  0
LINE
  5
145
330
1F
100
AcDbEntity
  8
外形線
  6
Continuous
 62
     7
100
AcDbLine
 10
-53.37665015817939
 20
63.97681619764572
 30
0.0
 11
-54.6601462519294
 21
63.97681619764572
 31
0.0
  0
LINE
  5
146
330
1F
100
AcDbEntity
  8
外形線
  6
Continuous
 62
     7
100
AcDbLine
 10
-53.16014739633856
 20
64.35181619764572
 30
0.0
 11
-53.16014739633856
 21
79.12681619764571
 31
0.0
  0
LINE
  5
147
330
1F
100
AcDbEntity
  8
外形線
  6
Continuous
 62
     7
100
AcDbLine
 10
-54.96014739633856
 20
64.5018161976457
 30
0.0
 11
-54.96014739633856
 21
79.12681619764571
 31
0.0
  0
LINE
  5
148
330
1F
100
AcDbEntity
  8
外形線
  6
Continuous
 62
     7
100
AcDbLine
 10
-53.37665130258855
 20
63.97681619764572
 30
0.0
 11
-53.37665130258855
 21
79.12681619764571
 31
0.0
  0
LINE
  5
149
330
1F
100
AcDbEntity
  8
外形線
  6
Continuous
 62
     7
100
AcDbLine
 10
-51.66014739633856
 20
64.2768161976457
 30
0.0
 11
-51.66014739633856
 21
64.80181619764571
 31
0.0
  0
LINE
  5
14A
330
1F
100
AcDbEntity
  8
外形線
  6
Continuous
 62
     7
100
AcDbLine
 10
-51.66014739633856
 20
64.80181619764571
 30
0.0
 11
-51.66014739633856
 21
79.12681619764571
 31
0.0
  0
LINE
  5
14B
330
1F
100
AcDbEntity
  8
外形線
  6
Continuous
 62
     7
100
AcDbLine
 10
-57.33313924828815
 20
62.10450081924854
 30
0.0
 11
-56.70501839792521
 21
63.89913185266578
 31
0.0
  0
LINE
  5
14C
330
1F
100
AcDbEntity
  8
外形線
  6
Continuous
 62
     7
100
AcDbLine
 10
-56.49409057260807
 20
64.23606607557539
 30
0.0
 11
-56.49409057260807
 21
79.12681619764571
 31
0.0
  0
LINE
  5
14D
330
1F
100
AcDbEntity
  8
外形線
  6
Continuous
 62
     7
100
AcDbLine
 10
-57.81014739633857
 20
61.58251077772383
 30
0.0
 11
-57.81014739633857
 21
79.12681619764571
 31
0.0
  0
LINE
  5
14E
330
1F
100
AcDbEntity
  8
外形線
  6
Continuous
 62
     7
100
AcDbLine
 10
-77.31014739633855
 20
97.2018161976457
 30
0.0
 11
-77.31014739633855
 21
79.12681619764571
 31
0.0
  0
LINE
  5
14F
330
1F
100
AcDbEntity
  8
外形線
  6
Continuous
 62
     7
100
AcDbLine
 10
-77.76014739633855
 20
97.2018161976457
 30
0.0
 11
-77.76014739633855
 21
79.12681619764571
 31
0.0
  0
LINE
  5
150
330
1F
100
AcDbEntity
  8
外形線
  6
Continuous
 62
     7
100
AcDbLine
 10
-77.76014625192941
 20
97.20181619764574
 30
0.0
 11
-77.31014625192938
 21
97.20181619764574
 31
0.0
  0
LINE
  5
151
330
1F
100
AcDbEntity
  8
外形線
  6
Continuous
 62
     7
100
AcDbLine
 10
-35.1451419031745
 20
93.15181619764571
 30
0.0
 11
-33.66015197397528
 21
93.15181619764571
 31
0.0
  0
LINE
  5
152
330
1F
100
AcDbEntity
  8
外形線
  6
Continuous
 62
     7
100
AcDbLine
 10
-35.1451419031745
 20
93.15181619764571
 30
0.0
 11
-37.45247222544013
 21
93.15181619764571
 31
0.0
  0
LINE
  5
153
330
1F
100
AcDbEntity
  8
外形線
  6
Continuous
 62
     7
100
AcDbLine
 10
-38.01651946665106
 20
91.92181665540941
 30
0.0
 11
-39.67514373422919
 21
91.92181665540941
 31
0.0
  0
LINE
  5
154
330
1F
100
AcDbEntity
  8
外形線
  6
Continuous
 62
     7
100
AcDbLine
 10
-37.86799002638121
 20
92.05093868816208
 30
0.0
 11
-37.74956634242079
 21
92.89356712266728
 31
0.0
  0
LINE
  5
155
330
1F
100
AcDbEntity
  8
外形線
  6
Continuous
 62
     7
100
AcDbLine
 10
-44.20514556528387
 20
93.15181619764571
 30
0.0
 11
-41.89781524301825
 21
93.15181619764571
 31
0.0
  0
LINE
  5
156
330
1F
100
AcDbEntity
  8
外形線
  6
Continuous
 62
     7
100
AcDbLine
 10
-41.33376800180731
 20
91.92181665540941
 30
0.0
 11
-39.67514373422919
 21
91.92181665540941
 31
0.0
  0
LINE
  5
157
330
1F
100
AcDbEntity
  8
外形線
  6
Continuous
 62
     7
100
AcDbLine
 10
-41.48232009570551
 20
92.05094025540564
 30
0.0
 11
-41.60074377966595
 21
92.89356868991085
 31
0.0
  0
LINE
  5
158
330
1F
100
AcDbEntity
  8
外形線
  6
Continuous
 62
     7
100
AcDbLine
 10
-44.20514556528387
 20
93.15181619764571
 30
0.0
 11
-46.51247588754951
 21
93.15181619764571
 31
0.0
  0
LINE
  5
159
330
1F
100
AcDbEntity
  8
外形線
  6
Continuous
 62
     7
100
AcDbLine
 10
-47.07652312876043
 20
91.92181665540941
 30
0.0
 11
-47.65314056040105
 21
91.92181665540941
 31
0.0
  0
LINE
  5
15A
330
1F
100
AcDbEntity
  8
外形線
  6
Continuous
 62
     7
100
AcDbLine
 10
-46.92799046569375
 20
92.05093909830813
 30
0.0
 11
-46.80956678173333
 21
92.89356753281337
 31
0.0
  0
LINE
  5
15B
330
1F
100
AcDbEntity
  8
外形線
  6
Continuous
 62
     7
100
AcDbLine
 10
-48.22975341440496
 20
91.92181665540941
 30
0.0
 11
-47.65314056040105
 21
91.92181665540941
 31
0.0
  0
LINE
  5
15C
330
1F
100
AcDbEntity
  8
外形線
  6
Continuous
 62
     7
100
AcDbLine
 10
-61.30514670969304
 20
96.75181162000901
 30
0.0
 11
-58.18262397409736
 21
96.75181162000901
 31
0.0
  0
LINE
  5
15D
330
1F
100
AcDbEntity
  8
外形線
  6
Continuous
 62
     7
100
AcDbLine
 10
-61.30514670969304
 20
96.75181162000901
 30
0.0
 11
-63.61247932077703
 21
96.75181162000901
 31
0.0
  0
LINE
  5
15E
330
1F
100
AcDbEntity
  8
外形線
  6
Continuous
 62
     7
100
AcDbLine
 10
-64.17652198435127
 20
95.5218120777727
 30
0.0
 11
-65.83514625192939
 21
95.5218120777727
 31
0.0
  0
LINE
  5
15F
330
1F
100
AcDbEntity
  8
外形線
  6
Continuous
 62
     7
100
AcDbLine
 10
-64.02798237797711
 20
95.65093574771072
 30
0.0
 11
-63.90955869401667
 21
96.49356418221596
 31
0.0
  0
LINE
  5
160
330
1F
100
AcDbEntity
  8
外形線
  6
Continuous
 62
     7
100
AcDbLine
 10
-70.36514808298406
 20
96.75181162000901
 30
0.0
 11
-68.05781547190008
 21
96.75181162000901
 31
0.0
  0
LINE
  5
161
330
1F
100
AcDbEntity
  8
外形線
  6
Continuous
 62
     7
100
AcDbLine
 10
-67.49377051950751
 20
95.5218120777727
 30
0.0
 11
-65.83514625192939
 21
95.5218120777727
 31
0.0
  0
LINE
  5
162
330
1F
100
AcDbEntity
  8
外形線
  6
Continuous
 62
     7
100
AcDbLine
 10
-67.64231138772834
 20
95.65093525213541
 30
0.0
 11
-67.7607350716888
 21
96.49356368664065
 31
0.0
  0
LINE
  5
163
330
1F
100
AcDbEntity
  8
外形線
  6
Continuous
 62
     7
100
AcDbLine
 10
-70.36514808298406
 20
96.75181162000901
 30
0.0
 11
-72.6724784052497
 21
96.75181162000901
 31
0.0
  0
LINE
  5
164
330
1F
100
AcDbEntity
  8
外形線
  6
Continuous
 62
     7
100
AcDbLine
 10
-73.2365210688239
 20
95.5218120777727
 30
0.0
 11
-73.81313850046453
 21
95.5218120777727
 31
0.0
  0
LINE
  5
165
330
1F
100
AcDbEntity
  8
外形線
  6
Continuous
 62
     7
100
AcDbLine
 10
-73.08798228587767
 20
95.65093377185979
 30
0.0
 11
-72.96955860191724
 21
96.493562206365
 31
0.0
  0
LINE
  5
166
330
1F
100
AcDbEntity
  8
外形線
  6
Continuous
 62
     7
100
AcDbLine
 10
-74.62975226999581
 20
95.5218120777727
 30
0.0
 11
-73.81313850046453
 21
95.5218120777727
 31
0.0
  0
LINE
  5
167
330
1F
100
AcDbEntity
  8
外形線
  6
Continuous
 62
     7
100
AcDbLine
 10
-63.85703430232861
 20
96.62556503043676
 30
0.0
 11
-60.63727849942779
 21
71.5711656626324
 31
0.0
  0
LINE
  5
168
330
1F
100
AcDbEntity
  8
外形線
  6
Continuous
 62
     7
100
AcDbLine
 10
-72.34325688296559
 20
61.62806695375557
 30
0.0
 11
-74.93300824201615
 21
81.7801122593373
 31
0.0
  0
LINE
  5
169
330
1F
100
AcDbEntity
  8
外形線
  6
Continuous
 62
     7
100
AcDbLine
 10
-72.14554607403496
 20
62.66940564449592
 30
0.0
 11
-74.76014776842162
 21
81.59497128182479
 31
0.0
  0
LINE
  5
16A
330
1F
100
AcDbEntity
  8
外形線
  6
Continuous
 62
     7
100
AcDbLine
 10
-68.57612352360127
 20
62.73181926951572
 30
0.0
 11
-73.10612120431892
 21
95.52181119349793
 31
0.0
  0
LINE
  5
16B
330
1F
100
AcDbEntity
  8
外形線
  6
Continuous
 62
     7
100
AcDbLine
 10
-72.91703918331347
 20
96.62556590022106
 30
0.0
 11
-68.43147034194657
 21
61.72129364387948
 31
0.0
  0
LINE
  5
16C
330
1F
100
AcDbEntity
  8
外形線
  6
Continuous
 62
     7
100
AcDbLine
 10
-74.76014739633855
 20
95.59766809583909
 30
0.0
 11
-74.76014739633855
 21
81.59497263075117
 31
0.0
  0
LINE
  5
16D
330
1F
100
AcDbEntity
  8
外形線
  6
Continuous
 62
     7
100
AcDbLine
 10
-63.28325693644619
 20
61.62806660366043
 30
0.0
 11
-67.76882636128961
 21
96.53234340030079
 31
0.0
  0
LINE
  5
16E
330
1F
100
AcDbEntity
  8
外形線
  6
Continuous
 62
     7
100
AcDbLine
 10
-74.77828838153988
 20
95.65093250315815
 30
0.0
 11
-74.89671206550031
 21
96.49356093766341
 31
0.0
  0
LINE
  5
16F
330
1F
100
AcDbEntity
  8
外形線
  6
Continuous
 62
     7
100
AcDbLine
 10
-77.31014625192938
 20
96.75181162000901
 30
0.0
 11
-75.19379493357002
 21
96.75181162000901
 31
0.0
  0
LINE
  5
170
330
1F
100
AcDbEntity
  8
外形線
  6
Continuous
 62
     7
100
AcDbLine
 10
-74.933008114112
 20
96.60009958387616
 30
0.0
 11
-74.933008114112
 21
81.78011285902268
 31
0.0
  0
LINE
  5
171
330
1F
100
AcDbEntity
  8
外形線
  6
Continuous
 62
     7
100
AcDbLine
 10
-63.09416378973067
 20
62.7318191889451
 30
0.0
 11
-67.64205423324796
 21
95.65132631117876
 31
0.0
  0
LINE
  5
172
330
1F
100
AcDbEntity
  8
外形線
  6
Continuous
 62
     7
100
AcDbLine
 10
-77.31014739633855
 20
61.05181619764572
 30
0.0
 11
-77.31014739633855
 21
79.12681619764571
 31
0.0
  0
LINE
  5
173
330
1F
100
AcDbEntity
  8
外形線
  6
Continuous
 62
     7
100
AcDbLine
 10
-77.76014739633855
 20
61.05181619764572
 30
0.0
 11
-77.76014739633855
 21
79.12681619764571
 31
0.0
  0
LINE
  5
174
330
1F
100
AcDbEntity
  8
外形線
  6
Continuous
 62
     7
100
AcDbLine
 10
-77.76014625192941
 20
61.05181619764572
 30
0.0
 11
-77.31014625192938
 21
61.05181619764572
 31
0.0
  0
LINE
  5
175
330
1F
100
AcDbEntity
  8
外形線
  6
Continuous
 62
     7
100
AcDbLine
 10
-60.81014739633856
 20
62.65596429945235
 30
0.0
 11
-60.81014739633856
 21
72.09846956373458
 31
0.0
  0
LINE
  5
176
330
1F
100
AcDbEntity
  8
外形線
  6
Continuous
 62
     7
100
AcDbLine
 10
-60.94054023386298
 20
62.73182489515548
 30
0.0
 11
-61.95215674997625
 21
62.73182489515548
 31
0.0
  0
LINE
  5
177
330
1F
100
AcDbEntity
  8
外形線
  6
Continuous
 62
     7
100
AcDbLine
 10
-60.79199821789047
 20
62.6026958812103
 30
0.0
 11
-60.67357440959057
 21
61.76006746417986
 31
0.0
  0
LINE
  5
178
330
1F
100
AcDbEntity
  8
外形線
  6
Continuous
 62
     7
100
AcDbLine
 10
-58.18262397409736
 20
61.50182535291914
 30
0.0
 11
-60.37649757028876
 21
61.50182535291914
 31
0.0
  0
LINE
  5
179
330
1F
100
AcDbEntity
  8
外形線
  6
Continuous
 62
     7
100
AcDbLine
 10
-60.6372821009284
 20
71.57116586805587
 30
0.0
 11
-60.6372821009284
 21
61.65352365614179
 31
0.0
  0
ARC
  5
17A
330
1F
100
AcDbEntity
  8
外形線
  6
Continuous
 62
     7
100
AcDbCircle
 10
-146.5820067416579
 20
64.2768161976457
 30
0.0
 40
0.3
100
AcDbArc
 50
269.999963344576
 51
359.9999453584866
  0
ARC
  5
17B
330
1F
100
AcDbEntity
  8
外形線
  6
Continuous
 62
     7
100
AcDbCircle
 10
-145.194048977986
 20
92.8518161976457
 30
0.0
 40
0.9000000000000001
100
AcDbArc
 50
13.74731554910236
 51
89.99998201391065
  0
ARC
  5
17C
330
1F
100
AcDbEntity
  8
外形線
  6
Continuous
 62
     7
100
AcDbCircle
 10
-133.0571959506422
 20
88.0668148243547
 30
0.0
 40
0.15
100
AcDbArc
 50
270.0000179860894
 51
350.0001659229944
  0
ARC
  5
17D
330
1F
100
AcDbEntity
  8
外形線
  6
Continuous
 62
     7
100
AcDbCircle
 10
-132.5156157504469
 20
88.54681665540937
 30
0.0
 40
0.3
100
AcDbArc
 50
90.00002299504568
 51
170.0000616489241
  0
ARC
  5
17E
330
1F
100
AcDbEntity
  8
外形線
  6
Continuous
 62
     7
100
AcDbCircle
 10
-136.2577239047438
 20
88.54681665540937
 30
0.0
 40
0.3
100
AcDbArc
 50
9.999929699653927
 51
89.99996152334317
  0
ARC
  5
17F
330
1F
100
AcDbEntity
  8
外形線
  6
Continuous
 62
     7
100
AcDbCircle
 10
-135.7161437045485
 20
88.06681711317306
 30
0.0
 40
0.15
100
AcDbArc
 50
189.9998427284275
 51
270.0000179860894
  0
ARC
  5
180
330
1F
100
AcDbEntity
  8
外形線
  6
Continuous
 62
     7
100
AcDbCircle
 10
-139.955621243611
 20
88.54681665540937
 30
0.0
 40
0.3
100
AcDbArc
 50
90.00002299504568
 51
170.0000479885457
  0
ARC
  5
181
330
1F
100
AcDbEntity
  8
外形線
  6
Continuous
 62
     7
100
AcDbCircle
 10
-140.4972014438063
 20
88.06681711317306
 30
0.0
 40
0.15
100
AcDbArc
 50
270.0000179860894
 51
350.0001659229944
  0
ARC
  5
182
330
1F
100
AcDbEntity
  8
外形線
  6
Continuous
 62
     7
100
AcDbCircle
 10
-146.5820067416579
 20
93.9768161976457
 30
0.0
 40
0.3
100
AcDbArc
 50
0.0
 51
89.99998201391065
  0
ARC
  5
183
330
1F
100
AcDbEntity
  8
外形線
  6
Continuous
 62
     7
100
AcDbCircle
 10
-131.9961455356032
 20
70.18682214857344
 30
0.0
 40
0.15
100
AcDbArc
 50
89.99998201391065
 51
170.0001436111941
  0
ARC
  5
184
330
1F
100
AcDbEntity
  8
外形線
  6
Continuous
 62
     7
100
AcDbCircle
 10
-132.537716580525
 20
69.70682031751874
 30
0.0
 40
0.3
100
AcDbArc
 50
270.0000179860894
 51
350.0000498097786
  0
ARC
  5
185
330
1F
100
AcDbEntity
  8
外形線
  6
Continuous
 62
     7
100
AcDbCircle
 10
-139.9777220736892
 20
69.70682031751874
 30
0.0
 40
0.3
100
AcDbArc
 50
270.0000179860894
 51
350.0000506635521
  0
ARC
  5
186
330
1F
100
AcDbEntity
  8
外形線
  6
Continuous
 62
     7
100
AcDbCircle
 10
-139.4361510287672
 20
70.18682214857344
 30
0.0
 40
0.15
100
AcDbArc
 50
89.99998201391065
 51
170.0001436111941
  0
ARC
  5
187
330
1F
100
AcDbEntity
  8
外形線
  6
Continuous
 62
     7
100
AcDbCircle
 10
-136.2356139193922
 20
69.70682031751874
 30
0.0
 40
0.3
100
AcDbArc
 50
189.9999246906976
 51
269.9999565143869
  0
ARC
  5
188
330
1F
100
AcDbEntity
  8
外形線
  6
Continuous
 62
     7
100
AcDbCircle
 10
-136.7771941195875
 20
70.18682214857344
 30
0.0
 40
0.15
100
AcDbArc
 50
9.999820416627207
 51
89.99998201391065
  0
ARC
  5
189
330
1F
100
AcDbEntity
  8
外形線
  6
Continuous
 62
     7
100
AcDbCircle
 10
-131.2125365268141
 20
70.18682214857344
 30
0.0
 40
0.15
100
AcDbArc
 50
9.999820416627207
 51
89.99998201391065
  0
ARC
  5
18A
330
1F
100
AcDbEntity
  8
外形線
  6
Continuous
 62
     7
100
AcDbCircle
 10
-130.6709563266188
 20
69.70682031751874
 30
0.0
 40
0.3
100
AcDbArc
 50
189.9999246906976
 51
269.9999565143869
  0
ARC
  5
18B
330
1F
100
AcDbEntity
  8
外形線
  6
Continuous
 62
     7
100
AcDbCircle
 10
-142.5813261996657
 20
68.50681573988203
 30
0.0
 40
0.9000000000000001
100
AcDbArc
 50
89.99992737239729
 51
166.2526510400399
  0
ARC
  5
18C
330
1F
100
AcDbEntity
  8
外形線
  6
Continuous
 62
     7
100
AcDbCircle
 10
-149.2820067416579
 20
93.9768161976457
 30
0.0
 40
0.3
100
AcDbArc
 50
89.99998201391065
 51
179.9999640278213
  0
ARC
  5
18D
330
1F
100
AcDbEntity
  8
外形線
  6
Continuous
 62
     7
100
AcDbCircle
 10
-145.194048977986
 20
65.4018161976457
 30
0.0
 40
0.9000000000000001
100
AcDbArc
 50
269.999963344576
 51
346.2526323707052
  0
ARC
  5
18E
330
1F
100
AcDbEntity
  8
外形線
  6
Continuous
 62
     7
100
AcDbCircle
 10
-149.8820067416579
 20
93.4518161976457
 30
0.0
 40
0.3
100
AcDbArc
 50
270.0000179860894
 51
360.0
  0
ARC
  5
18F
330
1F
100
AcDbEntity
  8
外形線
  6
Continuous
 62
     7
100
AcDbCircle
 10
-142.5813261996657
 20
89.74681665540941
 30
0.0
 40
0.9000000000000001
100
AcDbArc
 50
193.7472943184468
 51
270.0000179860894
  0
ARC
  5
190
330
1F
100
AcDbEntity
  8
外形線
  6
Continuous
 62
     7
100
AcDbCircle
 10
-141.2961455356032
 20
88.06681711317306
 30
0.0
 40
0.15
100
AcDbArc
 50
189.9998154076709
 51
269.999963344576
  0
ARC
  5
191
330
1F
100
AcDbEntity
  8
外形線
  6
Continuous
 62
     7
100
AcDbCircle
 10
-141.8377257357986
 20
88.54681665540937
 30
0.0
 40
0.3
100
AcDbArc
 50
9.999916039275587
 51
89.99994103277565
  0
ARC
  5
192
330
1F
100
AcDbEntity
  8
外形線
  6
Continuous
 62
     7
100
AcDbCircle
 10
-162.085633755818
 20
66.18181459547286
 30
0.0
 40
0.15
100
AcDbArc
 50
89.99996835353231
 51
171.999872736012
  0
ARC
  5
193
330
1F
100
AcDbEntity
  8
外形線
  6
Continuous
 62
     7
100
AcDbCircle
 10
-162.6496764193923
 20
65.40181505323653
 30
0.0
 40
0.3
100
AcDbArc
 50
270.0000179860894
 51
351.9998813874342
  0
ARC
  5
194
330
1F
100
AcDbEntity
  8
外形線
  6
Continuous
 62
     7
100
AcDbCircle
 10
-158.2043334018142
 20
65.40181390882735
 30
0.0
 40
0.3
100
AcDbArc
 50
188.0001545847446
 51
270.0000179860894
  0
ARC
  5
195
330
1F
100
AcDbEntity
  8
外形線
  6
Continuous
 62
     7
100
AcDbCircle
 10
-158.7683806430251
 20
66.18181345106368
 30
0.0
 40
0.15
100
AcDbArc
 50
8.000118612565893
 51
90.00002299504568
  0
ARC
  5
196
330
1F
100
AcDbEntity
  8
外形線
  6
Continuous
 62
     7
100
AcDbCircle
 10
-153.0256346713454
 20
66.18181345106368
 30
0.0
 40
0.15
100
AcDbArc
 50
89.99996835353231
 51
171.999872736012
  0
ARC
  5
197
330
1F
100
AcDbEntity
  8
外形線
  6
Continuous
 62
     7
100
AcDbCircle
 10
-153.5896727572828
 20
65.40181390882735
 30
0.0
 40
0.3
100
AcDbArc
 50
270.0000179860894
 51
351.9998813874342
  0
ARC
  5
198
330
1F
100
AcDbEntity
  8
外形線
  6
Continuous
 62
     7
100
AcDbCircle
 10
-149.2820067416579
 20
64.2768161976457
 30
0.0
 40
0.3
100
AcDbArc
 50
179.9999813306653
 51
269.999963344576
  0
ARC
  5
199
330
1F
100
AcDbEntity
  8
外形線
  6
Continuous
 62
     7
100
AcDbCircle
 10
-149.8820067416579
 20
64.80181619764571
 30
0.0
 40
0.3
100
AcDbArc
 50
-0.00005464151336
 51
89.99992737239729
  0
ARC
  5
19A
330
1F
100
AcDbEntity
  8
外形線
  6
Continuous
 62
     7
100
AcDbCircle
 10
-150.3333525668532
 20
65.40181390882735
 30
0.0
 40
0.3
100
AcDbArc
 50
188.0000999432312
 51
269.999963344576
  0
ARC
  5
19B
330
1F
100
AcDbEntity
  8
外形線
  6
Continuous
 62
     7
100
AcDbCircle
 10
-150.8973998080642
 20
66.18181345106368
 30
0.0
 40
0.15
100
AcDbArc
 50
8.000091291809214
 51
89.99999567428899
  0
ARC
  5
19C
330
1F
100
AcDbEntity
  8
外形線
  6
Continuous
 62
     7
100
AcDbCircle
 10
-165.0156554232984
 20
92.8518161976457
 30
0.0
 40
0.3
100
AcDbArc
 50
8.000118612565893
 51
89.99998201391065
  0
ARC
  5
19D
330
1F
100
AcDbEntity
  8
外形線
  6
Continuous
 62
     7
100
AcDbCircle
 10
-164.4516127597243
 20
92.07181665540934
 30
0.0
 40
0.15
100
AcDbArc
 50
188.0001136036096
 51
270.0000179860894
  0
ARC
  5
19E
330
1F
100
AcDbEntity
  8
外形線
  6
Continuous
 62
     7
100
AcDbCircle
 10
-167.5820067416578
 20
93.4518161976457
 30
0.0
 40
0.3
100
AcDbArc
 50
179.9999640278213
 51
269.999946041732
  0
ARC
  5
19F
330
1F
100
AcDbEntity
  8
外形線
  6
Continuous
 62
     7
100
AcDbCircle
 10
-168.1820067416579
 20
93.9768161976457
 30
0.0
 40
0.3
100
AcDbArc
 50
0.0
 51
89.99998201391065
  0
ARC
  5
1A0
330
1F
100
AcDbEntity
  8
外形線
  6
Continuous
 62
     7
100
AcDbCircle
 10
-167.5820067416578
 20
64.80181619764571
 30
0.0
 40
0.3
100
AcDbArc
 50
89.99998201391065
 51
179.9999640278213
  0
ARC
  5
1A1
330
1F
100
AcDbEntity
  8
外形線
  6
Continuous
 62
     7
100
AcDbCircle
 10
-168.1820067416579
 20
64.2768161976457
 30
0.0
 40
0.3
100
AcDbArc
 50
269.999963344576
 51
359.9999453584866
  0
ARC
  5
1A2
330
1F
100
AcDbEntity
  8
外形線
  6
Continuous
 62
     7
100
AcDbCircle
 10
-163.2983824740797
 20
92.07181665540934
 30
0.0
 40
0.15
100
AcDbArc
 50
269.999963344576
 51
351.9998677270557
  0
ARC
  5
1A3
330
1F
100
AcDbEntity
  8
外形線
  6
Continuous
 62
     7
100
AcDbCircle
 10
-162.7343352328688
 20
92.8518161976457
 30
0.0
 40
0.3
100
AcDbArc
 50
89.99998201391065
 51
171.9998454152554
  0
ARC
  5
1A4
330
1F
100
AcDbEntity
  8
外形線
  6
Continuous
 62
     7
100
AcDbCircle
 10
-157.5556273471266
 20
92.07181665540934
 30
0.0
 40
0.15
100
AcDbArc
 50
188.0001136036096
 51
270.0000179860894
  0
ARC
  5
1A5
330
1F
100
AcDbEntity
  8
外形線
  6
Continuous
 62
     7
100
AcDbCircle
 10
-158.1196745883376
 20
92.8518161976457
 30
0.0
 40
0.3
100
AcDbArc
 50
8.00012629652871
 51
89.99998201391065
  0
ARC
  5
1A6
330
1F
100
AcDbEntity
  8
外形線
  6
Continuous
 62
     7
100
AcDbCircle
 10
-153.6743315707595
 20
92.8518161976457
 30
0.0
 40
0.3
100
AcDbArc
 50
89.99998201391065
 51
171.9998454152554
  0
ARC
  5
1A7
330
1F
100
AcDbEntity
  8
外形線
  6
Continuous
 62
     7
100
AcDbCircle
 10
-154.2383788119704
 20
92.07181665540934
 30
0.0
 40
0.15
100
AcDbArc
 50
269.999963344576
 51
351.9998677270557
  0
ARC
  5
1A8
330
1F
100
AcDbEntity
  8
外形線
  6
Continuous
 62
     7
100
AcDbCircle
 10
-30.36014739633855
 20
64.2768161976457
 30
0.0
 40
0.3
100
AcDbArc
 50
269.999963344576
 51
359.9999453584866
  0
ARC
  5
1A9
330
1F
100
AcDbEntity
  8
外形線
  6
Continuous
 62
     7
100
AcDbCircle
 10
-28.97218963266668
 20
92.8518161976457
 30
0.0
 40
0.9000000000000001
100
AcDbArc
 50
13.74731554910236
 51
89.99998201391065
  0
ARC
  5
1AA
330
1F
100
AcDbEntity
  8
外形線
  6
Continuous
 62
     7
100
AcDbCircle
 10
-16.83533660532293
 20
88.0668148243547
 30
0.0
 40
0.15
100
AcDbArc
 50
270.0000179860894
 51
350.0001659229944
  0
ARC
  5
1AB
330
1F
100
AcDbEntity
  8
外形線
  6
Continuous
 62
     7
100
AcDbCircle
 10
-16.29375640512761
 20
88.54681665540939
 30
0.0
 40
0.3
100
AcDbArc
 50
90.00002299504568
 51
170.0000616489241
  0
ARC
  5
1AC
330
1F
100
AcDbEntity
  8
外形線
  6
Continuous
 62
     7
100
AcDbCircle
 10
-20.0358645594245
 20
88.54681665540939
 30
0.0
 40
0.3
100
AcDbArc
 50
9.999929699653927
 51
89.99996152334317
  0
ARC
  5
1AD
330
1F
100
AcDbEntity
  8
外形線
  6
Continuous
 62
     7
100
AcDbCircle
 10
-19.49428435922918
 20
88.06681711317306
 30
0.0
 40
0.15
100
AcDbArc
 50
189.9998427284275
 51
270.0000179860894
  0
ARC
  5
1AE
330
1F
100
AcDbEntity
  8
外形線
  6
Continuous
 62
     7
100
AcDbCircle
 10
-23.73376189829168
 20
88.54681665540939
 30
0.0
 40
0.3
100
AcDbArc
 50
90.00002299504568
 51
170.0000479885457
  0
ARC
  5
1AF
330
1F
100
AcDbEntity
  8
外形線
  6
Continuous
 62
     7
100
AcDbCircle
 10
-24.275342098487
 20
88.06681711317306
 30
0.0
 40
0.15
100
AcDbArc
 50
270.0000179860894
 51
350.0001659229944
  0
ARC
  5
1B0
330
1F
100
AcDbEntity
  8
外形線
  6
Continuous
 62
     7
100
AcDbCircle
 10
-30.36014739633855
 20
93.9768161976457
 30
0.0
 40
0.3
100
AcDbArc
 50
0.0
 51
89.99998201391065
  0
ARC
  5
1B1
330
1F
100
AcDbEntity
  8
外形線
  6
Continuous
 62
     7
100
AcDbCircle
 10
-15.77428619028387
 20
70.18682214857344
 30
0.0
 40
0.15
100
AcDbArc
 50
89.99998201391065
 51
170.0001436111941
  0
ARC
  5
1B2
330
1F
100
AcDbEntity
  8
外形線
  6
Continuous
 62
     7
100
AcDbCircle
 10
-16.31585723520575
 20
69.70682031751874
 30
0.0
 40
0.3
100
AcDbArc
 50
270.0000179860894
 51
350.0000498097786
  0
ARC
  5
1B3
330
1F
100
AcDbEntity
  8
外形線
  6
Continuous
 62
     7
100
AcDbCircle
 10
-23.75586272836981
 20
69.70682031751874
 30
0.0
 40
0.3
100
AcDbArc
 50
270.0000179860894
 51
350.0000506635521
  0
ARC
  5
1B4
330
1F
100
AcDbEntity
  8
外形線
  6
Continuous
 62
     7
100
AcDbCircle
 10
-23.21429168344793
 20
70.18682214857344
 30
0.0
 40
0.15
100
AcDbArc
 50
89.99998201391065
 51
170.0001436111941
  0
ARC
  5
1B5
330
1F
100
AcDbEntity
  8
外形線
  6
Continuous
 62
     7
100
AcDbCircle
 10
-20.01375457407293
 20
69.70682031751874
 30
0.0
 40
0.3
100
AcDbArc
 50
189.9999246906976
 51
269.9999565143869
  0
ARC
  5
1B6
330
1F
100
AcDbEntity
  8
外形線
  6
Continuous
 62
     7
100
AcDbCircle
 10
-20.55533477426825
 20
70.18682214857344
 30
0.0
 40
0.15
100
AcDbArc
 50
9.999820416627207
 51
89.99998201391065
  0
ARC
  5
1B7
330
1F
100
AcDbEntity
  8
外形線
  6
Continuous
 62
     7
100
AcDbCircle
 10
-14.99067718149481
 20
70.18682214857344
 30
0.0
 40
0.15
100
AcDbArc
 50
9.999820416627207
 51
89.99998201391065
  0
ARC
  5
1B8
330
1F
100
AcDbEntity
  8
外形線
  6
Continuous
 62
     7
100
AcDbCircle
 10
-14.4490969812995
 20
69.70682031751874
 30
0.0
 40
0.3
100
AcDbArc
 50
189.9999246906976
 51
269.9999565143869
  0
ARC
  5
1B9
330
1F
100
AcDbEntity
  8
外形線
  6
Continuous
 62
     7
100
AcDbCircle
 10
-26.35946685434637
 20
68.50681573988204
 30
0.0
 40
0.9000000000000001
100
AcDbArc
 50
89.99992737239729
 51
166.2526510400399
  0
ARC
  5
1BA
330
1F
100
AcDbEntity
  8
外形線
  6
Continuous
 62
     7
100
AcDbCircle
 10
-33.06014739633856
 20
93.9768161976457
 30
0.0
 40
0.3
100
AcDbArc
 50
89.99998201391065
 51
179.9999640278213
  0
ARC
  5
1BB
330
1F
100
AcDbEntity
  8
外形線
  6
Continuous
 62
     7
100
AcDbCircle
 10
-28.97218963266668
 20
65.4018161976457
 30
0.0
 40
0.9000000000000001
100
AcDbArc
 50
269.999963344576
 51
346.2526323707052
  0
ARC
  5
1BC
330
1F
100
AcDbEntity
  8
外形線
  6
Continuous
 62
     7
100
AcDbCircle
 10
-33.66014739633856
 20
93.4518161976457
 30
0.0
 40
0.3
100
AcDbArc
 50
270.0000179860894
 51
360.0
  0
ARC
  5
1BD
330
1F
100
AcDbEntity
  8
外形線
  6
Continuous
 62
     7
100
AcDbCircle
 10
-26.35946685434637
 20
89.74681665540938
 30
0.0
 40
0.9000000000000001
100
AcDbArc
 50
193.7472943184468
 51
270.0000179860894
  0
ARC
  5
1BE
330
1F
100
AcDbEntity
  8
外形線
  6
Continuous
 62
     7
100
AcDbCircle
 10
-25.07428619028387
 20
88.06681711317306
 30
0.0
 40
0.15
100
AcDbArc
 50
189.9998154076709
 51
269.999963344576
  0
ARC
  5
1BF
330
1F
100
AcDbEntity
  8
外形線
  6
Continuous
 62
     7
100
AcDbCircle
 10
-25.61586639047918
 20
88.54681665540939
 30
0.0
 40
0.3
100
AcDbArc
 50
9.999916039275587
 51
89.99994103277565
  0
ARC
  5
1C0
330
1F
100
AcDbEntity
  8
外形線
  6
Continuous
 62
     7
100
AcDbCircle
 10
-72.58781615854559
 20
61.80182306410078
 30
0.0
 40
0.3
100
AcDbArc
 50
270.0000179860894
 51
351.9998813874342
  0
ARC
  5
1C1
330
1F
100
AcDbEntity
  8
外形線
  6
Continuous
 62
     7
100
AcDbCircle
 10
-45.86377441049871
 20
66.18181459547286
 30
0.0
 40
0.15
100
AcDbArc
 50
89.99996835353231
 51
171.999872736012
  0
ARC
  5
1C2
330
1F
100
AcDbEntity
  8
外形線
  6
Continuous
 62
     7
100
AcDbCircle
 10
-46.42781707407293
 20
65.40181505323653
 30
0.0
 40
0.3
100
AcDbArc
 50
270.0000179860894
 51
351.9998813874342
  0
ARC
  5
1C3
330
1F
100
AcDbEntity
  8
外形線
  6
Continuous
 62
     7
100
AcDbCircle
 10
-41.98247405649481
 20
65.40181390882735
 30
0.0
 40
0.3
100
AcDbArc
 50
188.0001545847446
 51
270.0000179860894
  0
ARC
  5
1C4
330
1F
100
AcDbEntity
  8
外形線
  6
Continuous
 62
     7
100
AcDbCircle
 10
-42.54652129770575
 20
66.18181345106368
 30
0.0
 40
0.15
100
AcDbArc
 50
8.000118612565893
 51
90.00002299504568
  0
ARC
  5
1C5
330
1F
100
AcDbEntity
  8
外形線
  6
Continuous
 62
     7
100
AcDbCircle
 10
-36.80377532602606
 20
66.18181345106368
 30
0.0
 40
0.15
100
AcDbArc
 50
89.99996835353231
 51
171.999872736012
  0
ARC
  5
1C6
330
1F
100
AcDbEntity
  8
外形線
  6
Continuous
 62
     7
100
AcDbCircle
 10
-37.36781341196356
 20
65.40181390882735
 30
0.0
 40
0.3
100
AcDbArc
 50
270.0000179860894
 51
351.9998813874342
  0
ARC
  5
1C7
330
1F
100
AcDbEntity
  8
外形線
  6
Continuous
 62
     7
100
AcDbCircle
 10
-72.02377349497137
 20
62.58182146192794
 30
0.0
 40
0.15
100
AcDbArc
 50
89.99996835353231
 51
171.999872736012
  0
ARC
  5
1C8
330
1F
100
AcDbEntity
  8
外形線
  6
Continuous
 62
     7
100
AcDbCircle
 10
-62.96377441049871
 20
62.58182031751876
 30
0.0
 40
0.15
100
AcDbArc
 50
89.99996835353231
 51
171.999872736012
  0
ARC
  5
1C9
330
1F
100
AcDbEntity
  8
外形線
  6
Continuous
 62
     7
100
AcDbCircle
 10
-63.52781707407293
 20
61.80182077528243
 30
0.0
 40
0.3
100
AcDbArc
 50
270.0000179860894
 51
351.9998813874342
  0
ARC
  5
1CA
330
1F
100
AcDbEntity
  8
外形線
  6
Continuous
 62
     7
100
AcDbCircle
 10
-68.14247771860419
 20
61.80182077528243
 30
0.0
 40
0.3
100
AcDbArc
 50
188.0001545847446
 51
270.0000179860894
  0
ARC
  5
1CB
330
1F
100
AcDbEntity
  8
外形線
  6
Continuous
 62
     7
100
AcDbCircle
 10
-68.70652495981511
 20
62.58182031751876
 30
0.0
 40
0.15
100
AcDbArc
 50
8.000118612565893
 51
90.00002299504568
  0
ARC
  5
1CC
330
1F
100
AcDbEntity
  8
外形線
  6
Continuous
 62
     7
100
AcDbCircle
 10
-33.06014739633856
 20
64.2768161976457
 30
0.0
 40
0.3
100
AcDbArc
 50
179.9999813306653
 51
269.999963344576
  0
ARC
  5
1CD
330
1F
100
AcDbEntity
  8
外形線
  6
Continuous
 62
     7
100
AcDbCircle
 10
-33.66014739633856
 20
64.80181619764571
 30
0.0
 40
0.3
100
AcDbArc
 50
-0.00005464151336
 51
89.99992737239729
  0
ARC
  5
1CE
330
1F
100
AcDbEntity
  8
外形線
  6
Continuous
 62
     7
100
AcDbCircle
 10
-34.11149322153388
 20
65.40181390882735
 30
0.0
 40
0.3
100
AcDbArc
 50
188.0000999432312
 51
269.999963344576
  0
ARC
  5
1CF
330
1F
100
AcDbEntity
  8
外形線
  6
Continuous
 62
     7
100
AcDbCircle
 10
-34.67554046274481
 20
66.18181345106368
 30
0.0
 40
0.15
100
AcDbArc
 50
8.000091291809214
 51
89.99999567428899
  0
ARC
  5
1D0
330
1F
100
AcDbEntity
  8
外形線
  6
Continuous
 62
     7
100
AcDbCircle
 10
-48.79379607797918
 20
92.8518161976457
 30
0.0
 40
0.3
100
AcDbArc
 50
8.000118612565893
 51
89.99998201391065
  0
ARC
  5
1D1
330
1F
100
AcDbEntity
  8
外形線
  6
Continuous
 62
     7
100
AcDbCircle
 10
-48.22975341440496
 20
92.07181665540941
 30
0.0
 40
0.15
100
AcDbArc
 50
188.0001136036096
 51
270.0000179860894
  0
ARC
  5
1D2
330
1F
100
AcDbEntity
  8
外形線
  6
Continuous
 62
     7
100
AcDbCircle
 10
-51.36014739633856
 20
93.4518161976457
 30
0.0
 40
0.3
100
AcDbArc
 50
179.9999640278213
 51
269.999946041732
  0
ARC
  5
1D3
330
1F
100
AcDbEntity
  8
外形線
  6
Continuous
 62
     7
100
AcDbCircle
 10
-54.66014739633855
 20
93.9768161976457
 30
0.0
 40
0.3
100
AcDbArc
 50
89.99998201391065
 51
179.9999640278213
  0
ARC
  5
1D4
330
1F
100
AcDbEntity
  8
外形線
  6
Continuous
 62
     7
100
AcDbCircle
 10
-51.96014739633856
 20
93.9768161976457
 30
0.0
 40
0.3
100
AcDbArc
 50
0.0
 51
89.99998201391065
  0
ARC
  5
1D5
330
1F
100
AcDbEntity
  8
外形線
  6
Continuous
 62
     7
100
AcDbCircle
 10
-55.26014739633856
 20
94.05181619764572
 30
0.0
 40
0.3
100
AcDbArc
 50
270.0000179860894
 51
360.0
  0
ARC
  5
1D6
330
1F
100
AcDbEntity
  8
外形線
  6
Continuous
 62
     7
100
AcDbCircle
 10
-55.85555602670964
 20
94.65181619764571
 30
0.0
 40
0.9000000000000001
100
AcDbArc
 50
199.2899791695338
 51
270.0000179860894
  0
ARC
  5
1D7
330
1F
100
AcDbEntity
  8
外形線
  6
Continuous
 62
     7
100
AcDbCircle
 10
-58.18262511850653
 20
95.8518161976457
 30
0.0
 40
0.9000000000000001
100
AcDbArc
 50
19.29004565019262
 51
89.99998201391065
  0
ARC
  5
1D8
330
1F
100
AcDbEntity
  8
外形線
  6
Continuous
 62
     7
100
AcDbCircle
 10
-58.18262511850653
 20
62.40181619764571
 30
0.0
 40
0.9000000000000001
100
AcDbArc
 50
269.999963344576
 51
340.709899708294
  0
ARC
  5
1D9
330
1F
100
AcDbEntity
  8
外形線
  6
Continuous
 62
     7
100
AcDbCircle
 10
-51.36014739633856
 20
64.80181619764571
 30
0.0
 40
0.3
100
AcDbArc
 50
89.99998201391065
 51
179.9999640278213
  0
ARC
  5
1DA
330
1F
100
AcDbEntity
  8
外形線
  6
Continuous
 62
     7
100
AcDbCircle
 10
-54.66014739633855
 20
64.2768161976457
 30
0.0
 40
0.3
100
AcDbArc
 50
179.9999813306653
 51
269.999963344576
  0
ARC
  5
1DB
330
1F
100
AcDbEntity
  8
外形線
  6
Continuous
 62
     7
100
AcDbCircle
 10
-51.96014739633856
 20
64.2768161976457
 30
0.0
 40
0.3
100
AcDbArc
 50
269.999963344576
 51
359.9999453584866
  0
ARC
  5
1DC
330
1F
100
AcDbEntity
  8
外形線
  6
Continuous
 62
     7
100
AcDbCircle
 10
-55.85555602670964
 20
63.60181619764571
 30
0.0
 40
0.9000000000000001
100
AcDbArc
 50
89.99992737239729
 51
160.7099661889529
  0
ARC
  5
1DD
330
1F
100
AcDbEntity
  8
外形線
  6
Continuous
 62
     7
100
AcDbCircle
 10
-55.26014739633856
 20
64.20181619764571
 30
0.0
 40
0.3
100
AcDbArc
 50
-0.00005464151336
 51
89.99992737239729
  0
ARC
  5
1DE
330
1F
100
AcDbEntity
  8
外形線
  6
Continuous
 62
     7
100
AcDbCircle
 10
-47.07652312876043
 20
92.07181665540941
 30
0.0
 40
0.15
100
AcDbArc
 50
269.999963344576
 51
351.9998677270557
  0
ARC
  5
1DF
330
1F
100
AcDbEntity
  8
外形線
  6
Continuous
 62
     7
100
AcDbCircle
 10
-46.5124758875495
 20
92.8518161976457
 30
0.0
 40
0.3
100
AcDbArc
 50
89.99998201391065
 51
171.9998454152554
  0
ARC
  5
1E0
330
1F
100
AcDbEntity
  8
外形線
  6
Continuous
 62
     7
100
AcDbCircle
 10
-41.33376800180731
 20
92.07181665540941
 30
0.0
 40
0.15
100
AcDbArc
 50
188.0001136036096
 51
270.0000179860894
  0
ARC
  5
1E1
330
1F
100
AcDbEntity
  8
外形線
  6
Continuous
 62
     7
100
AcDbCircle
 10
-41.89781524301825
 20
92.8518161976457
 30
0.0
 40
0.3
100
AcDbArc
 50
8.00012629652871
 51
89.99998201391065
  0
ARC
  5
1E2
330
1F
100
AcDbEntity
  8
外形線
  6
Continuous
 62
     7
100
AcDbCircle
 10
-37.45247222544013
 20
92.8518161976457
 30
0.0
 40
0.3
100
AcDbArc
 50
89.99998201391065
 51
171.9998454152554
  0
ARC
  5
1E3
330
1F
100
AcDbEntity
  8
外形線
  6
Continuous
 62
     7
100
AcDbCircle
 10
-38.01651946665106
 20
92.07181665540941
 30
0.0
 40
0.15
100
AcDbArc
 50
269.999963344576
 51
351.9998677270557
  0
ARC
  5
1E4
330
1F
100
AcDbEntity
  8
外形線
  6
Continuous
 62
     7
100
AcDbCircle
 10
-73.23652221323309
 20
95.67181207777265
 30
0.0
 40
0.15
100
AcDbArc
 50
269.999963344576
 51
351.9998677270557
  0
ARC
  5
1E5
330
1F
100
AcDbEntity
  8
外形線
  6
Continuous
 62
     7
100
AcDbCircle
 10
-72.67247954965887
 20
96.451811620009
 30
0.0
 40
0.3
100
AcDbArc
 50
89.99998201391065
 51
171.9998454152554
  0
ARC
  5
1E6
330
1F
100
AcDbEntity
  8
外形線
  6
Continuous
 62
     7
100
AcDbCircle
 10
-67.49377166391669
 20
95.67181207777265
 30
0.0
 40
0.15
100
AcDbArc
 50
188.0001136036096
 51
270.0000179860894
  0
ARC
  5
1E7
330
1F
100
AcDbEntity
  8
外形線
  6
Continuous
 62
     7
100
AcDbCircle
 10
-68.05781432749092
 20
96.451811620009
 30
0.0
 40
0.3
100
AcDbArc
 50
8.00012629652871
 51
89.99998201391065
  0
ARC
  5
1E8
330
1F
100
AcDbEntity
  8
外形線
  6
Continuous
 62
     7
100
AcDbCircle
 10
-63.61248046518621
 20
96.451811620009
 30
0.0
 40
0.3
100
AcDbArc
 50
89.99998201391065
 51
171.9998454152554
  0
ARC
  5
1E9
330
1F
100
AcDbEntity
  8
外形線
  6
Continuous
 62
     7
100
AcDbCircle
 10
-64.17652312876043
 20
95.67181207777265
 30
0.0
 40
0.15
100
AcDbArc
 50
269.999963344576
 51
351.9998677270557
  0
ARC
  5
1EA
330
1F
100
AcDbEntity
  8
外形線
  6
Continuous
 62
     7
100
AcDbCircle
 10
-75.19379607797922
 20
96.451811620009
 30
0.0
 40
0.3
100
AcDbArc
 50
8.000118612565893
 51
89.99998201391065
  0
ARC
  5
1EB
330
1F
100
AcDbEntity
  8
外形線
  6
Continuous
 62
     7
100
AcDbCircle
 10
-74.62975341440496
 20
95.67181207777265
 30
0.0
 40
0.15
100
AcDbArc
 50
188.0001136036096
 51
270.0000179860894
  0
ARC
  5
1EC
330
1F
100
AcDbEntity
  8
外形線
  6
Continuous
 62
     7
100
AcDbCircle
 10
-60.94054137827217
 20
62.58182031751876
 30
0.0
 40
0.15
100
AcDbArc
 50
8.000091291809214
 51
89.99999567428899
  0
ARC
  5
1ED
330
1F
100
AcDbEntity
  8
外形線
  6
Continuous
 62
     7
100
AcDbCircle
 10
-60.37649871469792
 20
61.80182077528243
 30
0.0
 40
0.3
100
AcDbArc
 50
188.0000999432312
 51
269.999963344576
  0
DIMENSION
  5
1EE
330
1F
100
AcDbEntity
  8
寸法線
100
AcDbDimension
  2
*D3
 10
-169.3820067416579
 20
113.6417942249895
 30
0.0
 11
-148.3070067416579
 21
113.6417942249895
 31
0.0
 70
   160
  1
L
 71
     5
 42
42.15000000000012
  3
ISO-25
100
AcDbAlignedDimension
 13
-127.2320067416577
 23
89.29681665540936
 33
0.0
 14
-169.3820067416579
 24
93.90181619764568
 34
0.0
100
AcDbRotatedDimension
1001
ACAD
1000
DSTYLE
1002
{
1070
   278
1070
    46
1070
   147
1040
0.8000000119209291
1070
    77
1070
     1
1070
    74
1070
     0
1070
    73
1070
     0
1070
    42
1040
2.54
1070
    44
1040
2.286
1070
    76
1070
     0
1070
    75
1070
     0
1070
   279
1070
     0
1070
   271
1070
     0
1070
   173
1070
     1
1070
    41
1040
3.0
1070
   140
1040
3.200000047683716
1070
   344
1005
1EF
1070
   343
1005
1EF
1002
}
  0
DIMENSION
  5
202
330
1F
100
AcDbEntity
  8
寸法線
100
AcDbDimension
  2
*D4
 10
-181.322460045065
 20
65.47681505323652
 30
0.0
 11
-181.322460045065
 21
79.12681562544111
 31
0.0
 70
   160
  1
\U+2205A
 71
     5
 42
27.30000114440917
  3
ISO-25
100
AcDbAlignedDimension
 13
-167.3229903232009
 23
92.77681619764569
 33
0.0
 14
-167.5820067416579
 24
65.47681505323652
 34
0.0
 50
90.00000000000005
100
AcDbRotatedDimension
1001
ACAD
1000
DSTYLE
1002
{
1070
   278
1070
    46
1070
   147
1040
0.8000000119209291
1070
    77
1070
     1
1070
    74
1070
     0
1070
    73
1070
     0
1070
    42
1040
2.54
1070
    44
1040
2.286
1070
    76
1070
     0
1070
    75
1070
     0
1070
   279
1070
     0
1070
   271
1070
     0
1070
   173
1070
     1
1070
    41
1040
3.0
1070
   140
1040
3.200000047683716
1070
   344
1005
1EF
1070
   343
1005
1EF
1002
}
  0
DIMENSION
  5
20F
330
1F
100
AcDbEntity
  8
寸法線
100
AcDbDimension
  2
*D5
 10
-111.1214370410709
 20
69.78181802870039
 30
0.0
 11
-111.1214370410709
 21
79.12681734205486
 31
0.0
 70
   160
  1
\U+2205B
 71
     5
 42
18.68999862670897
  3
ISO-25
100
AcDbAlignedDimension
 13
-127.2320113192945
 23
88.47181665540935
 33
0.0
 14
-127.2320113192945
 24
69.78181802870039
 34
0.0
 50
90.00000000000005
100
AcDbRotatedDimension
1001
ACAD
1000
DSTYLE
1002
{
1070
   278
1070
    46
1070
   147
1040
0.8000000119209291
1070
    77
1070
     1
1070
    74
1070
     0
1070
    73
1070
     0
1070
    42
1040
2.54
1070
    44
1040
2.286
1070
    76
1070
     0
1070
    75
1070
     0
1070
   279
1070
     0
1070
   271
1070
     0
1070
   173
1070
     1
1070
    41
1040
3.0
1070
   140
1040
3.200000047683716
1070
   344
1005
1EF
1070
   343
1005
1EF
1002
}
  0
DIMENSION
  5
21C
330
1F
100
AcDbEntity
  8
寸法線
100
AcDbDimension
  2
*D6
 10
-11.01014739633856
 20
113.6417942249895
 30
0.0
 11
-44.38514911295231
 21
113.6417942249895
 31
0.0
 70
   160
  1
L
 71
     5
 42
66.75
  3
ISO-25
100
AcDbAlignedDimension
 13
-77.76014739633855
 23
97.2018161976457
 33
0.0
 14
-11.01014739633856
 24
89.29681665540938
 34
0.0
 50
180.0
100
AcDbRotatedDimension
1001
ACAD
1000
DSTYLE
1002
{
1070
   278
1070
    46
1070
   147
1040
0.8000000119209291
1070
    77
1070
     1
1070
    74
1070
     0
1070
    73
1070
     0
1070
    42
1040
2.54
1070
    44
1040
0.8999977111816408
1070
    76
1070
     0
1070
    75
1070
     0
1070
   279
1070
     0
1070
   271
1070
     0
1070
   173
1070
     1
1070
    41
1040
3.0
1070
   140
1040
3.200000047683716
1070
   344
1005
1EF
1070
   343
1005
1EF
1002
}
  0
DIMENSION
  5
229
330
1F
100
AcDbEntity
  8
寸法線
100
AcDbDimension
  2
*D7
 10
-85.26229596717405
 20
96.37681162000902
 30
0.0
 11
-85.26229596717408
 21
79.12681848646406
 31
0.0
 70
   160
  1
\U+2205A
 71
     5
 42
34.49998626708986
  3
ISO-25
100
AcDbAlignedDimension
 13
-77.76014625192941
 23
61.87682535291915
 33
0.0
 14
-77.76014625192941
 24
96.37681162000902
 34
0.0
 50
270.0
100
AcDbRotatedDimension
1001
ACAD
1000
DSTYLE
1002
{
1070
   278
1070
    46
1070
   147
1040
0.8000000119209291
1070
    77
1070
     1
1070
    74
1070
     0
1070
    73
1070
     0
1070
    42
1040
2.54
1070
    44
1040
2.286
1070
    76
1070
     0
1070
    75
1070
     0
1070
   279
1070
     0
1070
   271
1070
     0
1070
   173
1070
     1
1070
    41
1040
3.0
1070
   140
1040
3.200000047683716
1070
   344
1005
1EF
1070
   343
1005
1EF
1002
}
  0
DIMENSION
  5
236
330
1F
100
AcDbEntity
  8
寸法線
100
AcDbDimension
  2
*D8
 10
0.0347278017377837
 20
69.78181802870039
 30
0.0
 11
0.034727801737773
 21
79.12681734205489
 31
0.0
 70
   160
  1
\U+2205B
 71
     5
 42
18.68999862670897
  3
ISO-25
100
AcDbAlignedDimension
 13
-11.01015197397528
 23
88.47181665540935
 33
0.0
 14
-11.01015197397528
 24
69.78181802870039
 34
0.0
 50
90.00000000000005
100
AcDbRotatedDimension
1001
ACAD
1000
DSTYLE
1002
{
1070
   278
1070
    46
1070
   147
1040
0.8000000119209291
1070
    77
1070
     1
1070
    74
1070
     0
1070
    73
1070
     0
1070
    42
1040
2.54
1070
    44
1040
2.286
1070
    76
1070
     0
1070
    75
1070
     0
1070
   279
1070
     0
1070
   271
1070
     0
1070
   173
1070
     1
1070
    41
1040
3.0
1070
   140
1040
3.200000047683716
1070
   344
1005
1EF
1070
   343
1005
1EF
1002
}
  0
POINT
  5
244
330
1F
100
AcDbEntity
  8
VIEW0001
 62
     7
100
AcDbPoint
 10
39.28999629404918
 20
-46.23738705550861
 30
0.0
  0
POINT
  5
245
330
1F
100
AcDbEntity
  8
VIEW0001
 62
     7
100
AcDbPoint
 10
49.78999629404917
 20
-63.73738705550861
 30
0.0
  0
POINT
  5
246
330
1F
100
AcDbEntity
  8
VIEW0001
 62
     7
100
AcDbPoint
 10
-149.7850044688903
 20
-46.23738705550861
 30
0.0
  0
LINE
  5
247
330
1F
100
AcDbEntity
  8
VIEW0001
  6
Continuous
 62
     7
100
AcDbLine
 10
-149.7850044688903
 20
-46.23738705550861
 30
0.0
 11
-149.7850044688903
 21
-53.73738705550861
 31
0.0
  0
LINE
  5
248
330
1F
100
AcDbEntity
  8
VIEW0001
  6
Continuous
 62
     7
100
AcDbLine
 10
49.78999629404917
 20
143.7226129444914
 30
0.0
 11
49.78999629404917
 21
-61.19738705550862
 31
0.0
  0
LINE
  5
249
330
1F
100
AcDbEntity
  8
VIEW0001
  6
Continuous
 62
     7
100
AcDbLine
 10
-244.6700037059509
 20
-63.73738705550861
 30
0.0
 11
47.24999629404916
 21
-63.73738705550861
 31
0.0
  0
LINE
  5
24A
330
1F
100
AcDbEntity
  8
VIEW0001
  6
Continuous
 62
     7
370
    30
100
AcDbLine
 10
-237.2100037059508
 20
135.7626129444914
 30
0.0
 11
-237.2100037059508
 21
-53.73738705550861
 31
0.0
  0
LINE
  5
24B
330
1F
100
AcDbEntity
  8
VIEW0001
  6
Continuous
 62
     7
370
    30
100
AcDbLine
 10
-237.2100037059508
 20
-53.73738705550861
 30
0.0
 11
39.28999629404916
 21
-53.73738705550861
 31
0.0
  0
LINE
  5
24C
330
1F
100
AcDbEntity
  8
VIEW0001
  6
Continuous
 62
     7
370
    30
100
AcDbLine
 10
39.28999629404918
 20
135.7626129444914
 30
0.0
 11
39.28999629404918
 21
-53.73738705550861
 31
0.0
  0
LINE
  5
24D
330
1F
100
AcDbEntity
  8
VIEW0001
  6
Continuous
 62
     7
370
    30
100
AcDbLine
 10
-237.2100037059508
 20
135.7626129444914
 30
0.0
 11
39.28999629404916
 21
135.7626129444914
 31
0.0
  0
LWPOLYLINE
  5
24E
330
1F
100
AcDbEntity
  8
VIEW0001
  6
Continuous
 62
     7
100
AcDbPolyline
 90
        2
 70
     0
 43
0.001000000047497
 10
-47.21000370595083
 20
-53.73738705550861
 10
-47.21000370595083
 20
-46.23738705550861
  0
LWPOLYLINE
  5
24F
330
1F
100
AcDbEntity
  8
VIEW0001
  6
Continuous
 62
     7
100
AcDbPolyline
 90
        2
 70
     0
 43
0.001000000047497
 10
39.28999629404916
 20
-46.23738705550861
 10
-149.7850044688903
 20
-46.23738705550861
  0
MTEXT
  5
251
330
1F
100
AcDbEntity
  8
VIEW0001
 62
     7
100
AcDbMText
 10
-121.1768209815702
 20
-51.60171086903087
 30
0.0
 40
3.200000047683716
 41
0.0
 71
     7
 72
     1
  1
{\W0.833333;片落管（トヨドレンＺ用）}
 73
     1
 44
1.0
  0
LINE
  5
253
330
1F
100
AcDbEntity
  8
VIEW0002
  6
Continuous
 62
     7
100
AcDbLine
 10
-110.867898442793
 20
36.34156031291246
 30
0.0
 11
-110.867898442793
 21
-11.65843968708755
 31
0.0
  0
LINE
  5
254
330
1F
100
AcDbEntity
  8
VIEW0002
  6
Continuous
 62
     7
100
AcDbLine
 10
-86.86789844279299
 20
36.34156031291246
 30
0.0
 11
-86.86789844279299
 21
-11.65843968708755
 31
0.0
  0
LINE
  5
255
330
1F
100
AcDbEntity
  8
VIEW0002
  6
Continuous
 62
     7
100
AcDbLine
 10
-62.86789844279297
 20
36.34156031291246
 30
0.0
 11
-62.86789844279297
 21
-11.65843968708755
 31
0.0
  0
LINE
  5
256
330
1F
100
AcDbEntity
  8
VIEW0002
  6
Continuous
 62
     7
100
AcDbLine
 10
-154.867898442793
 20
30.34156031291245
 30
0.0
 11
-38.86789844279299
 21
30.34156031291245
 31
0.0
  0
LINE
  5
257
330
1F
100
AcDbEntity
  8
VIEW0002
  6
Continuous
 62
     7
100
AcDbLine
 10
-154.867898442793
 20
0.3415603129124489
 30
0.0
 11
-38.86789844279299
 21
0.3415603129124489
 31
0.0
  0
LINE
  5
258
330
1F
100
AcDbEntity
  8
VIEW0002
  6
Continuous
 62
     7
100
AcDbLine
 10
-154.867898442793
 20
-5.658439687087551
 30
0.0
 11
-38.86789844279299
 21
-5.658439687087551
 31
0.0
  0
LINE
  5
259
330
1F
100
AcDbEntity
  8
VIEW0002
  6
Continuous
 62
     7
100
AcDbLine
 10
-154.867898442793
 20
12.34156031291245
 30
0.0
 11
-38.86789844279299
 21
12.34156031291245
 31
0.0
  0
LINE
  5
25A
330
1F
100
AcDbEntity
  8
VIEW0002
  6
Continuous
 62
     7
100
AcDbLine
 10
-154.867898442793
 20
18.34156031291245
 30
0.0
 11
-38.86789844279299
 21
18.34156031291245
 31
0.0
  0
LINE
  5
25B
330
1F
100
AcDbEntity
  8
VIEW0002
  6
Continuous
 62
     7
100
AcDbLine
 10
-154.867898442793
 20
24.34156031291245
 30
0.0
 11
-38.86789844279299
 21
24.34156031291245
 31
0.0
  0
LINE
  5
25C
330
1F
100
AcDbEntity
  8
VIEW0002
  6
Continuous
 62
     7
100
AcDbLine
 10
-154.867898442793
 20
36.34156031291246
 30
0.0
 11
-38.86789844279299
 21
36.34156031291246
 31
0.0
  0
LINE
  5
25D
330
1F
100
AcDbEntity
  8
VIEW0002
  6
Continuous
 62
     7
100
AcDbLine
 10
-38.86789844279299
 20
36.34156031291246
 30
0.0
 11
-38.86789844279299
 21
-11.65843968708755
 31
0.0
  0
LINE
  5
25E
330
1F
100
AcDbEntity
  8
VIEW0002
  6
Continuous
 62
     7
100
AcDbLine
 10
-154.867898442793
 20
-11.65843968708755
 30
0.0
 11
-38.86789844279299
 21
-11.65843968708755
 31
0.0
  0
LINE
  5
260
330
1F
100
AcDbEntity
  8
VIEW0002
  6
Continuous
 62
     7
100
AcDbLine
 10
-154.867898442793
 20
36.34156031291246
 30
0.0
 11
-154.867898442793
 21
-11.65843968708755
 31
0.0
  0
LINE
  5
261
330
1F
100
AcDbEntity
  8
VIEW0002
  6
Continuous
 62
     7
100
AcDbLine
 10
-154.867898442793
 20
6.341560312912447
 30
0.0
 11
-38.86789844279299
 21
6.341560312912447
 31
0.0
  0
MTEXT
  5
262
330
1F
100
AcDbEntity
  8
VIEW0002
 62
     7
100
AcDbMText
 10
-77.43946097140322
 20
13.84156031291245
 30
0.0
 40
3.0
 41
0.0
 71
     7
 72
     1
  1
{\W1;93}
 73
     1
 44
1.0
  0
MTEXT
  5
263
330
1F
100
AcDbEntity
  8
VIEW0002
 62
     7
100
AcDbMText
 10
-102.9394609714032
 20
13.84156031291245
 30
0.0
 40
3.0
 41
0.0
 71
     7
 72
     1
  1
{\W1;118}
 73
     1
 44
1.0
  0
MTEXT
  5
264
330
1F
100
AcDbEntity
  8
VIEW0002
 62
     7
100
AcDbMText
 10
-145.9394609714031
 20
13.84156031291245
 30
0.0
 40
3.0
 41
0.0
 71
     7
 72
     1
  1
{\W1;TDZ100-75}
 73
     1
 44
1.0
  0
MTEXT
  5
265
330
1F
100
AcDbEntity
  8
VIEW0002
 62
     7
100
AcDbMText
 10
-147.4394609714032
 20
1.841560312912449
 30
0.0
 40
3.0
 41
0.0
 71
     7
 72
     1
  1
{\W1;TDZ150-100}
 73
     1
 44
1.0
  0
MTEXT
  5
266
330
1F
100
AcDbEntity
  8
VIEW0002
 62
     7
100
AcDbMText
 10
-102.9394609714032
 20
1.841560312912444
 30
0.0
 40
3.0
 41
0.0
 71
     7
 72
     1
  1
{\W1;167}
 73
     1
 44
1.0
  0
MTEXT
  5
267
330
1F
100
AcDbEntity
  8
VIEW0002
 62
     7
100
AcDbMText
 10
-78.93946097140322
 20
1.841560312912444
 30
0.0
 40
3.0
 41
0.0
 71
     7
 72
     1
  1
{\W1;118}
 73
     1
 44
1.0
  0
MTEXT
  5
268
330
1F
100
AcDbEntity
  8
VIEW0002
 62
     7
100
AcDbMText
 10
-167.1824749890562
 20
-32.54957710581171
 30
0.0
 40
3.200000047683716
 41
0.0
 71
     7
 72
     1
  1
{\W0.833333;＊形状、ストッパ－の位置及び数は、規格毎に異なります。}
 73
     1
 44
1.0
  0
MTEXT
  5
269
330
1F
100
AcDbEntity
  8
VIEW0002
 62
     7
100
AcDbMText
 10
-167.2119491832689
 20
-38.26232649013468
 30
0.0
 40
3.200000047683716
 41
0.0
 71
     7
 72
     1
  1
{\W0.833333;＊寸法、仕様等は製品改良の為、予告無く変更する場合があります。（Ｈ２４．６）}
 73
     1
 44
1.0
  0
MTEXT
  5
26A
102
{ACAD_XDICTIONARY
360
483
102
}
330
1F
100
AcDbEntity
  8
VIEW0002
 62
     7
100
AcDbMText
 10
-77.43946097140322
 20
31.84156031291245
 30
0.0
 40
3.0
 41
0.0
 71
     7
 72
     1
  1
{\W1;\U+2205B}
 73
     1
 44
1.0
  0
MTEXT
  5
26B
102
{ACAD_XDICTIONARY
360
485
102
}
330
1F
100
AcDbEntity
  8
VIEW0002
 62
     7
100
AcDbMText
 10
-101.4394609714032
 20
31.84156031291245
 30
0.0
 40
3.0
 41
0.0
 71
     7
 72
     1
  1
{\W1;\U+2205A}
 73
     1
 44
1.0
  0
MTEXT
  5
26C
330
1F
100
AcDbEntity
  8
VIEW0002
 62
     7
100
AcDbMText
 10
-140.2341128778409
 20
32.05065978402015
 30
0.0
 40
3.0
 41
0.0
 71
     7
 72
     1
  1
{\W0.833333;規　　格}
 73
     1
 44
1.0
  0
MTEXT
  5
26D
330
1F
100
AcDbEntity
  8
VIEW0002
 62
     7
100
AcDbMText
 10
-77.43946097140322
 20
7.84156031291245
 30
0.0
 40
3.0
 41
0.0
 71
     7
 72
     1
  1
{\W1;93}
 73
     1
 44
1.0
  0
MTEXT
  5
26E
330
1F
100
AcDbEntity
  8
VIEW0002
 62
     7
100
AcDbMText
 10
-102.9394609714032
 20
7.84156031291245
 30
0.0
 40
3.0
 41
0.0
 71
     7
 72
     1
  1
{\W1;167}
 73
     1
 44
1.0
  0
MTEXT
  5
26F
330
1F
100
AcDbEntity
  8
VIEW0002
 62
     7
100
AcDbMText
 10
-151.9394609714032
 20
7.84156031291245
 30
0.0
 40
3.0
 41
0.0
 71
     7
 72
     1
  1
{\W1;TDZ150-100-75}
 73
     1
 44
1.0
  0
MTEXT
  5
270
330
1F
100
AcDbEntity
  8
VIEW0002
 62
     7
100
AcDbMText
 10
-35.24321477019538
 20
-21.27499989032521
 30
0.0
 40
3.200000047683716
 41
0.0
 71
     7
 72
     1
  1
{\W1;(mm)}
 73
     1
 44
1.0
  0
MTEXT
  5
271
330
1F
100
AcDbEntity
  8
VIEW0002
 62
     7
100
AcDbMText
 10
-150.4394609714031
 20
19.84156031291245
 30
0.0
 40
3.0
 41
0.0
 71
     7
 72
     1
  1
{\W1;TDZ100-75-50}
 73
     1
 44
1.0
  0
MTEXT
  5
272
330
1F
100
AcDbEntity
  8
VIEW0002
 62
     7
100
AcDbMText
 10
-102.9394609714032
 20
19.84156031291245
 30
0.0
 40
3.0
 41
0.0
 71
     7
 72
     1
  1
{\W1;118}
 73
     1
 44
1.0
  0
MTEXT
  5
273
330
1F
100
AcDbEntity
  8
VIEW0002
 62
     7
100
AcDbMText
 10
-77.43946097140322
 20
19.84156031291245
 30
0.0
 40
3.0
 41
0.0
 71
     7
 72
     1
  1
{\W1;62}
 73
     1
 44
1.0
  0
MTEXT
  5
274
330
1F
100
AcDbEntity
  8
VIEW0002
 62
     7
100
AcDbMText
 10
-77.43946097140322
 20
25.84156031291245
 30
0.0
 40
3.0
 41
0.0
 71
     7
 72
     1
  1
{\W1;62}
 73
     1
 44
1.0
  0
MTEXT
  5
275
330
1F
100
AcDbEntity
  8
VIEW0002
 62
     7
100
AcDbMText
 10
-101.4394609714032
 20
25.84156031291245
 30
0.0
 40
3.0
 41
0.0
 71
     7
 72
     1
  1
{\W1;93}
 73
     1
 44
1.0
  0
MTEXT
  5
276
330
1F
100
AcDbEntity
  8
VIEW0002
 62
     7
100
AcDbMText
 10
-144.4394609714032
 20
25.84156031291245
 30
0.0
 40
3.0
 41
0.0
 71
     7
 72
     1
  1
{\W1;TDZ75-50}
 73
     1
 44
1.0
  0
MTEXT
  5
277
330
1F
100
AcDbEntity
  8
VIEW0002
 62
     7
100
AcDbMText
 10
-54.9394609714032
 20
13.84156031291245
 30
0.0
 40
3.0
 41
0.0
 71
     7
 72
     1
  1
{\W1;146}
 73
     1
 44
1.0
  0
MTEXT
  5
278
330
1F
100
AcDbEntity
  8
VIEW0002
 62
     7
100
AcDbMText
 10
-54.9394609714032
 20
1.841560312912444
 30
0.0
 40
3.0
 41
0.0
 71
     7
 72
     1
  1
{\W1;160}
 73
     1
 44
1.0
  0
MTEXT
  5
279
330
1F
100
AcDbEntity
  8
VIEW0002
 62
     7
100
AcDbMText
 10
-54.9394609714032
 20
19.84156031291245
 30
0.0
 40
3.0
 41
0.0
 71
     7
 72
     1
  1
{\W1;215}
 73
     1
 44
1.0
  0
MTEXT
  5
27A
330
1F
100
AcDbEntity
  8
VIEW0002
 62
     7
100
AcDbMText
 10
-54.9394609714032
 20
25.84156031291245
 30
0.0
 40
3.0
 41
0.0
 71
     7
 72
     1
  1
{\W1;136}
 73
     1
 44
1.0
  0
MTEXT
  5
27B
330
1F
100
AcDbEntity
  8
VIEW0002
 62
     7
100
AcDbMText
 10
-54.9394609714032
 20
7.84156031291245
 30
0.0
 40
3.0
 41
0.0
 71
     7
 72
     1
  1
{\W1;241}
 73
     1
 44
1.0
  0
MTEXT
  5
27C
330
1F
100
AcDbEntity
  8
VIEW0002
 62
     7
100
AcDbMText
 10
-51.93946097140321
 20
31.84156031291245
 30
0.0
 40
3.0
 41
0.0
 71
     7
 72
     1
  1
{\W1;L}
 73
     1
 44
1.0
  0
MTEXT
  5
27D
330
1F
100
AcDbEntity
  8
VIEW0002
 62
     7
100
AcDbMText
 10
-78.93946097140322
 20
-4.158439687087549
 30
0.0
 40
3.0
 41
0.0
 71
     7
 72
     1
  1
{\W1;118}
 73
     1
 44
1.0
  0
MTEXT
  5
27E
330
1F
100
AcDbEntity
  8
VIEW0002
 62
     7
100
AcDbMText
 10
-102.9394609714032
 20
-4.158439687087549
 30
0.0
 40
3.0
 41
0.0
 71
     7
 72
     1
  1
{\W1;226}
 73
     1
 44
1.0
  0
MTEXT
  5
27F
330
1F
100
AcDbEntity
  8
VIEW0002
 62
     7
100
AcDbMText
 10
-153.4394609714031
 20
-4.158439687087549
 30
0.0
 40
3.0
 41
0.0
 71
     7
 72
     1
  1
{\W1;TDZ200-150-100}
 73
     1
 44
1.0
  0
MTEXT
  5
280
330
1F
100
AcDbEntity
  8
VIEW0002
 62
     7
100
AcDbMText
 10
-54.9394609714032
 20
-4.158439687087549
 30
0.0
 40
3.0
 41
0.0
 71
     7
 72
     1
  1
{\W1;253}
 73
     1
 44
1.0
  0
MTEXT
  5
281
330
1F
100
AcDbEntity
  8
VIEW0002
 62
     7
100
AcDbMText
 10
-54.9394609714032
 20
-10.15843968708755
 30
0.0
 40
3.0
 41
0.0
 71
     7
 72
     1
  1
{\W1;171}
 73
     1
 44
1.0
  0
MTEXT
  5
282
330
1F
100
AcDbEntity
  8
VIEW0002
 62
     7
100
AcDbMText
 10
-102.9394609714032
 20
-10.15843968708755
 30
0.0
 40
3.0
 41
0.0
 71
     7
 72
     1
  1
{\W1;226}
 73
     1
 44
1.0
  0
MTEXT
  5
283
330
1F
100
AcDbEntity
  8
VIEW0002
 62
     7
100
AcDbMText
 10
-147.4394609714032
 20
-10.15843968708755
 30
0.0
 40
3.0
 41
0.0
 71
     7
 72
     1
  1
{\W1;TDZ200-150}
 73
     1
 44
1.0
  0
MTEXT
  5
284
330
1F
100
AcDbEntity
  8
VIEW0002
 62
     7
100
AcDbMText
 10
-78.93946097140322
 20
-10.15843968708755
 30
0.0
 40
3.0
 41
0.0
 71
     7
 72
     1
  1
{\W1;167}
 73
     1
 44
1.0
  0
MTEXT
  5
285
330
1F
100
AcDbEntity
  8
VIEW0002
 62
     7
100
AcDbMText
 10
-190.4000400140416
 20
50.03323374194621
 30
0.0
 40
3.0
 41
0.0
 71
     7
 72
     1
  1
(TDZ75-50,100-75,150-100,200-150)
 73
     1
 44
1.0
  0
MTEXT
  5
286
330
1F
100
AcDbEntity
  8
VIEW0002
 62
     7
100
AcDbMText
 10
-81.59583691109935
 20
50.03323374194621
 30
0.0
 40
3.0
 41
0.0
 71
     7
 72
     1
  1
{\W1;(TDZ100-75-50,150-100-75,200-150-100)}
 73
     1
 44
1.0
  0
MTEXT
  5
3C9
330
1F
100
AcDbEntity
  8
VIEW0001
 62
     7
100
AcDbMText
 10
-39.31714830014332
 20
-52.23738705550861
 30
0.0
 40
4.5
 41
0.0
 71
     7
 72
     1
  1
{\W1.3889;　デンカ株式会社}
 73
     1
 44
1.0
  0
ENDSEC
  0
SECTION
  2
OBJECTS
  0
DICTIONARY
  5
C
330
0
100
AcDbDictionary
281
     1
  3
ACAD_CIP_PREVIOUS_PRODUCT_INFO
350
3C0
  3
ACAD_COLOR
350
28E
  3
ACAD_DETAILVIEWSTYLE
350
3BB
  3
ACAD_GROUP
350
D
  3
ACAD_LAYOUT
350
1A
  3
ACAD_MATERIAL
350
28D
  3
ACAD_MLEADERSTYLE
350
3B7
  3
ACAD_MLINESTYLE
350
17
  3
ACAD_PLOTSETTINGS
350
19
  3
ACAD_PLOTSTYLENAME
350
E
  3
ACAD_SCALELIST
350
3A5
  3
ACAD_SECTIONVIEWSTYLE
350
3B9
  3
ACAD_TABLESTYLE
350
28F
  3
ACAD_VISUALSTYLE
350
38C
  3
ACDB_RECOMPOSE_DATA
350
482
  3
AcDbVariableDictionary
350
356
  0
DICTIONARY
  5
3CA
330
10
100
AcDbDictionary
280
     1
281
     1
  3
ADSK_XREC_LAYER_RECONCILED
360
3CB
  0
DICTIONARY
  5
3CC
330
243
100
AcDbDictionary
280
     1
281
     1
  3
ADSK_XREC_LAYER_RECONCILED
360
3CD
  0
DICTIONARY
  5
3CE
330
252
100
AcDbDictionary
280
     1
281
     1
  3
ADSK_XREC_LAYER_RECONCILED
360
3CF
  0
DICTIONARY
  5
3D0
330
29C
100
AcDbDictionary
280
     1
281
     1
  3
ADSK_XREC_LAYER_RECONCILED
360
3D1
  0
DICTIONARY
  5
3D2
330
29D
100
AcDbDictionary
280
     1
281
     1
  3
ADSK_XREC_LAYER_RECONCILED
360
3D3
  0
DICTIONARY
  5
3D4
330
29E
100
AcDbDictionary
280
     1
281
     1
  3
ADSK_XREC_LAYER_RECONCILED
360
3D5
  0
DICTIONARY
  5
3D6
330
29F
100
AcDbDictionary
280
     1
281
     1
  3
ADSK_XREC_LAYER_RECONCILED
360
3D7
  0
DICTIONARY
  5
3D8
330
2A0
100
AcDbDictionary
280
     1
281
     1
  3
ADSK_XREC_LAYER_RECONCILED
360
3D9
  0
DICTIONARY
  5
3DA
330
2A1
100
AcDbDictionary
280
     1
281
     1
  3
ADSK_XREC_LAYER_RECONCILED
360
3DB
  0
DICTIONARY
  5
3DC
330
2A2
100
AcDbDictionary
280
     1
281
     1
  3
ADSK_XREC_LAYER_RECONCILED
360
3DD
  0
DICTIONARY
  5
3DE
330
2A3
100
AcDbDictionary
280
     1
281
     1
  3
ADSK_XREC_LAYER_RECONCILED
360
3DF
  0
DICTIONARY
  5
48A
330
32D
100
AcDbDictionary
280
     1
281
     1
  3
ACAD_MTEXT_2008_RT
360
48B
  0
DICTIONARY
  5
488
330
31B
100
AcDbDictionary
280
     1
281
     1
  3
ACAD_MTEXT_2008_RT
360
489
  0
DICTIONARY
  5
48C
330
33F
100
AcDbDictionary
280
     1
281
     1
  3
ACAD_MTEXT_2008_RT
360
48D
  0
DICTIONARY
  5
48E
330
348
100
AcDbDictionary
280
     1
281
     1
  3
ACAD_MTEXT_2008_RT
360
48F
  0
DICTIONARY
  5
483
330
26A
100
AcDbDictionary
280
     1
281
     1
  3
ACAD_MTEXT_2008_RT
360
484
  0
DICTIONARY
  5
485
330
26B
100
AcDbDictionary
280
     1
281
     1
  3
ACAD_MTEXT_2008_RT
360
486
  0
XRECORD
  5
3C0
102
{ACAD_REACTORS
330
C
102
}
330
C
100
AcDbXrecord
280
     1
300
ACDLT
300
2014
300
INVLTS_F_S
  0
DICTIONARY
  5
28E
102
{ACAD_REACTORS
330
C
102
}
330
C
100
AcDbDictionary
281
     1
  0
DICTIONARY
  5
3BB
102
{ACAD_REACTORS
330
C
102
}
330
C
100
AcDbDictionary
281
     1
  3
Metric50
350
3BC
  0
DICTIONARY
  5
D
102
{ACAD_REACTORS
330
C
102
}
330
C
100
AcDbDictionary
281
     1
  0
DICTIONARY
  5
1A
102
{ACAD_REACTORS
330
C
102
}
330
C
100
AcDbDictionary
281
     1
  3
Layout1
350
1E
  3
Layout2
350
26
  3
Model
350
22
  0
DICTIONARY
  5
28D
102
{ACAD_REACTORS
330
C
102
}
330
C
100
AcDbDictionary
281
     1
  3
ByBlock
350
37C
  3
ByLayer
350
374
  3
Global
350
384
  0
DICTIONARY
  5
3B7
102
{ACAD_REACTORS
330
C
102
}
330
C
100
AcDbDictionary
281
     1
  3
Standard
350
3B8
  0
DICTIONARY
  5
17
102
{ACAD_REACTORS
330
C
102
}
330
C
100
AcDbDictionary
281
     1
  3
Standard
350
18
  0
DICTIONARY
  5
19
102
{ACAD_REACTORS
330
C
102
}
330
C
100
AcDbDictionary
281
     1
  3
セットアップ1
350
476
  0
ACDBDICTIONARYWDFLT
  5
E
102
{ACAD_REACTORS
330
C
102
}
330
C
100
AcDbDictionary
281
     1
  3
Normal
350
F
100
AcDbDictionaryWithDefault
340
F
  0
DICTIONARY
  5
3A5
102
{ACAD_REACTORS
330
C
102
}
330
C
100
AcDbDictionary
281
     1
  3
A0
350
3A6
  3
A1
350
3A7
  3
A2
350
3A8
  3
A3
350
3A9
  3
A4
350
3AA
  3
A5
350
3AB
  3
A6
350
3AC
  3
A7
350
3AD
  3
A8
350
3AE
  3
A9
350
3AF
  3
B0
350
3B0
  3
B1
350
3B1
  3
B2
350
3B2
  3
B3
350
3B3
  3
B4
350
3B4
  3
B5
350
3B5
  3
B6
350
3B6
  0
DICTIONARY
  5
3B9
102
{ACAD_REACTORS
330
C
102
}
330
C
100
AcDbDictionary
281
     1
  3
Metric50
350
3BA
  0
DICTIONARY
  5
28F
102
{ACAD_REACTORS
330
C
102
}
330
C
100
AcDbDictionary
281
     1
  3
Standard
350
290
  0
DICTIONARY
  5
38C
102
{ACAD_REACTORS
330
C
102
}
330
C
100
AcDbDictionary
281
     1
  3
2dWireframe
350
392
  3
Basic
350
391
  3
Brighten
350
398
  3
ColorChange
350
39C
  3
Conceptual
350
395
  3
Dim
350
397
  3
EdgeColorOff
350
3A4
  3
Facepattern
350
39B
  3
Flat
350
38D
  3
FlatWithEdges
350
38E
  3
Gouraud
350
38F
  3
GouraudWithEdges
350
390
  3
Hidden
350
394
  3
JitterOff
350
3A2
  3
Linepattern
350
39A
  3
OverhangOff
350
3A3
  3
Realistic
350
396
  3
Shaded
350
3A1
  3
Shaded with edges
350
3A0
  3
Shades of Gray
350
39D
  3
Sketchy
350
39E
  3
Thicken
350
399
  3
Wireframe
350
393
  3
X-Ray
350
39F
  0
XRECORD
  5
482
102
{ACAD_REACTORS
330
C
102
}
330
C
100
AcDbXrecord
280
     1
 90
        1
330
290
  0
DICTIONARY
  5
356
102
{ACAD_REACTORS
330
C
102
}
330
C
100
AcDbDictionary
281
     1
  3
CANNOSCALE
350
418
  3
CMLEADERSTYLE
350
414
  3
CTABLESTYLE
350
357
  3
CVIEWDETAILSTYLE
350
415
  3
CVIEWSECTIONSTYLE
350
416
  3
DIMASSOC
350
368
  3
LAYEREVAL
350
41A
  3
LAYERNOTIFY
350
41B
  3
LIGHTINGUNITS
350
419
  3
MSLTSCALE
350
417
  3
PROJECTNAME
350
369
  3
XCLIPFRAME
350
47F
  0
XRECORD
  5
3CB
102
{ACAD_REACTORS
330
3CA
102
}
330
3CA
100
AcDbXrecord
280
     1
290
     1
  0
XRECORD
  5
3CD
102
{ACAD_REACTORS
330
3CC
102
}
330
3CC
100
AcDbXrecord
280
     1
290
     1
  0
XRECORD
  5
3CF
102
{ACAD_REACTORS
330
3CE
102
}
330
3CE
100
AcDbXrecord
280
     1
290
     1
  0
XRECORD
  5
3D1
102
{ACAD_REACTORS
330
3D0
102
}
330
3D0
100
AcDbXrecord
280
     1
290
     1
  0
XRECORD
  5
3D3
102
{ACAD_REACTORS
330
3D2
102
}
330
3D2
100
AcDbXrecord
280
     1
290
     1
  0
XRECORD
  5
3D5
102
{ACAD_REACTORS
330
3D4
102
}
330
3D4
100
AcDbXrecord
280
     1
290
     1
  0
XRECORD
  5
3D7
102
{ACAD_REACTORS
330
3D6
102
}
330
3D6
100
AcDbXrecord
280
     1
290
     1
  0
XRECORD
  5
3D9
102
{ACAD_REACTORS
330
3D8
102
}
330
3D8
100
AcDbXrecord
280
     1
290
     1
  0
XRECORD
  5
3DB
102
{ACAD_REACTORS
330
3DA
102
}
330
3DA
100
AcDbXrecord
280
     1
290
     1
  0
XRECORD
  5
3DD
102
{ACAD_REACTORS
330
3DC
102
}
330
3DC
100
AcDbXrecord
280
     1
290
     1
  0
XRECORD
  5
3DF
102
{ACAD_REACTORS
330
3DE
102
}
330
3DE
100
AcDbXrecord
280
     1
290
     1
  0
XRECORD
  5
48B
102
{ACAD_REACTORS
330
48A
102
}
330
48A
100
AcDbXrecord
280
     1
 40
2020.0
  1
\U+2205A
  0
XRECORD
  5
489
102
{ACAD_REACTORS
330
488
102
}
330
488
100
AcDbXrecord
280
     1
 40
2028.0
  1
\U+2205B
  0
XRECORD
  5
48D
102
{ACAD_REACTORS
330
48C
102
}
330
48C
100
AcDbXrecord
280
     1
 40
2020.0
  1
\U+2205A
  0
XRECORD
  5
48F
102
{ACAD_REACTORS
330
48E
102
}
330
48E
100
AcDbXrecord
280
     1
 40
2028.0
  1
\U+2205B
  0
XRECORD
  5
484
102
{ACAD_REACTORS
330
483
102
}
330
483
100
AcDbXrecord
280
     1
 40
7272.0
  1
{\W1;\U+2205B}
  0
XRECORD
  5
486
102
{ACAD_REACTORS
330
485
102
}
330
485
100
AcDbXrecord
280
     1
 40
7259.0
  1
{\W1;\U+2205A}
  0
ACDBDETAILVIEWSTYLE
  5
3BC
102
{ACAD_XDICTIONARY
360
4C6
102
}
102
{ACAD_REACTORS
330
3BB
102
}
330
3BB
100
AcDbModelDocViewStyle
 70
     0
  3
Metric50
290
     0
100
AcDbDetailViewStyle
 70
     0
 71
     0
 90
        3
 71
     1
340
11
 62
   256
 40
5.0
340
0
 62
   256
 40
5.0
300

 40
0.0
280
     1
 71
     2
340
16
 90
       25
 62
   256
 71
     3
340
11
 62
   256
 40
5.0
 90
        0
 40
15.0
 90
        1
300
%<\AcVar ViewDetailId>% (%<\AcVar ViewScale \f "%sn">%)
 71
     4
340
16
 90
       25
 62
   256
340
16
 90
       25
 62
   256
280
     0
  0
LAYOUT
  5
1E
102
{ACAD_REACTORS
330
1A
102
}
330
1A
100
AcDbPlotSettings
  1

  2

  4

  6

 40
0.0
 41
0.0
 42
0.0
 43
0.0
 44
0.0
 45
0.0
 46
0.0
 47
0.0
 48
0.0
 49
0.0
140
0.0
141
0.0
142
1.0
143
1.0
 70
   688
 72
     0
 73
     0
 74
     5
  7
monochrome.ctb
 75
    16
147
1.0
 76
     0
 77
     2
 78
   300
148
0.0
149
0.0
100
AcDbLayout
  1
Layout1
 70
     1
 71
     1
 10
-247.2100037059508
 20
-63.73738705550861
 11
49.78999629404917
 21
146.2626129444914
 12
0.0
 22
0.0
 32
0.0
 14
1.000000000000000E+20
 24
1.000000000000000E+20
 34
1.000000000000000E+20
 15
-1.000000000000000E+20
 25
-1.000000000000000E+20
 35
-1.000000000000000E+20
146
0.0
 13
0.0
 23
0.0
 33
0.0
 16
1.0
 26
0.0
 36
0.0
 17
0.0
 27
1.0
 37
0.0
 76
     0
330
1B
  0
LAYOUT
  5
26
102
{ACAD_REACTORS
330
1A
102
}
330
1A
100
AcDbPlotSettings
  1

  2

  4

  6

 40
0.0
 41
0.0
 42
0.0
 43
0.0
 44
0.0
 45
0.0
 46
0.0
 47
0.0
 48
0.0
 49
0.0
140
0.0
141
0.0
142
1.0
143
1.0
 70
   688
 72
     0
 73
     0
 74
     5
  7
monochrome.ctb
 75
    16
147
1.0
 76
     0
 77
     2
 78
   300
148
0.0
149
0.0
100
AcDbLayout
  1
Layout2
 70
     1
 71
     2
 10
0.0
 20
0.0
 11
0.0
 21
0.0
 12
0.0
 22
0.0
 32
0.0
 14
0.0
 24
0.0
 34
0.0
 15
0.0
 25
0.0
 35
0.0
146
0.0
 13
0.0
 23
0.0
 33
0.0
 16
1.0
 26
0.0
 36
0.0
 17
0.0
 27
1.0
 37
0.0
 76
     0
330
23
  0
LAYOUT
  5
22
102
{ACAD_REACTORS
330
1A
102
}
330
1A
100
AcDbPlotSettings
  1

  2
Adobe PDF
  4
A4
  6

 40
3.174999952316283
 41
3.174999952316283
 42
3.175003051757812
 43
3.17498779296875
 44
209.9733276367186
 45
297.0318298339844
 46
-1.929029820883527
 47
-1.899221776449279
 48
0.0
 49
0.0
140
0.0
141
0.0
142
1.0
143
1.0
 70
 11956
 72
     1
 73
     1
 74
     1
  7
monochrome.ctb
 75
    16
147
1.0
 76
     0
 77
     2
 78
   300
148
244.681224935328
149
63.74379525797797
100
AcDbLayout
  1
Model
 70
     1
 71
     0
 10
-247.2100037059508
 20
-63.73738705550861
 11
49.78999629404917
 21
146.2626129444914
 12
0.0
 22
0.0
 32
0.0
 14
-247.2100037059508
 24
-63.73738705550861
 34
0.0
 15
49.78999629404917
 25
146.2626129444914
 35
0.0
146
0.0
 13
0.0
 23
0.0
 33
0.0
 16
1.0
 26
0.0
 36
0.0
 17
0.0
 27
1.0
 37
0.0
 76
     0
330
1F
331
36A
1001
ACAD_PSEXT
1000
Adobe PDF
1000
Adobe PDF Converter
1000
My Documents
1000

1070
     0
  0
MATERIAL
  5
37C
102
{ACAD_XDICTIONARY
360
37D
102
}
102
{ACAD_REACTORS
330
28D
102
}
330
28D
100
AcDbMaterial
  1
ByBlock
 72
     0
 43
0.0008202099737533
 43
0.0
 43
0.0
 43
0.0
 43
0.0
 43
0.0008202099737533
 43
0.0
 43
0.0
 43
0.0
 43
0.0
 43
1.0
 43
0.0
 43
0.0
 43
0.0
 43
0.0
 43
1.0
 77
     0
 47
0.0008202099737533
 47
0.0
 47
0.0
 47
0.0
 47
0.0
 47
0.0008202099737533
 47
0.0
 47
0.0
 47
0.0
 47
0.0
 47
1.0
 47
0.0
 47
0.0
 47
0.0
 47
0.0
 47
1.0
171
     0
 49
0.0008202099737533
 49
0.0
 49
0.0
 49
0.0
 49
0.0
 49
0.0008202099737533
 49
0.0
 49
0.0
 49
0.0
 49
0.0
 49
1.0
 49
0.0
 49
0.0
 49
0.0
 49
0.0
 49
1.0
175
     0
142
0.0008202099737533
142
0.0
142
0.0
142
0.0
142
0.0
142
0.0008202099737533
142
0.0
142
0.0
142
0.0
142
0.0
142
1.0
142
0.0
142
0.0
142
0.0
142
0.0
142
1.0
179
     0
144
0.0008202099737533
144
0.0
144
0.0
144
0.0
144
0.0
144
0.0008202099737533
144
0.0
144
0.0
144
0.0
144
0.0
144
1.0
144
0.0
144
0.0
144
0.0
144
0.0
144
1.0
147
0.0008202099737533
147
0.0
147
0.0
147
0.0
147
0.0
147
0.0008202099737533
147
0.0
147
0.0
147
0.0
147
0.0
147
1.0
147
0.0
147
0.0
147
0.0
147
0.0
147
1.0
  0
MATERIAL
  5
374
102
{ACAD_XDICTIONARY
360
375
102
}
102
{ACAD_REACTORS
330
28D
102
}
330
28D
100
AcDbMaterial
  1
ByLayer
 72
     0
 43
0.0008202099737533
 43
0.0
 43
0.0
 43
0.0
 43
0.0
 43
0.0008202099737533
 43
0.0
 43
0.0
 43
0.0
 43
0.0
 43
1.0
 43
0.0
 43
0.0
 43
0.0
 43
0.0
 43
1.0
 77
     0
 47
0.0008202099737533
 47
0.0
 47
0.0
 47
0.0
 47
0.0
 47
0.0008202099737533
 47
0.0
 47
0.0
 47
0.0
 47
0.0
 47
1.0
 47
0.0
 47
0.0
 47
0.0
 47
0.0
 47
1.0
171
     0
 49
0.0008202099737533
 49
0.0
 49
0.0
 49
0.0
 49
0.0
 49
0.0008202099737533
 49
0.0
 49
0.0
 49
0.0
 49
0.0
 49
1.0
 49
0.0
 49
0.0
 49
0.0
 49
0.0
 49
1.0
175
     0
142
0.0008202099737533
142
0.0
142
0.0
142
0.0
142
0.0
142
0.0008202099737533
142
0.0
142
0.0
142
0.0
142
0.0
142
1.0
142
0.0
142
0.0
142
0.0
142
0.0
142
1.0
179
     0
144
0.0008202099737533
144
0.0
144
0.0
144
0.0
144
0.0
144
0.0008202099737533
144
0.0
144
0.0
144
0.0
144
0.0
144
1.0
144
0.0
144
0.0
144
0.0
144
0.0
144
1.0
147
0.0008202099737533
147
0.0
147
0.0
147
0.0
147
0.0
147
0.0008202099737533
147
0.0
147
0.0
147
0.0
147
0.0
147
1.0
147
0.0
147
0.0
147
0.0
147
0.0
147
1.0
  0
MATERIAL
  5
384
102
{ACAD_XDICTIONARY
360
385
102
}
102
{ACAD_REACTORS
330
28D
102
}
330
28D
100
AcDbMaterial
  1
Global
 72
     0
 43
0.0008202099737533
 43
0.0
 43
0.0
 43
0.0
 43
0.0
 43
0.0008202099737533
 43
0.0
 43
0.0
 43
0.0
 43
0.0
 43
1.0
 43
0.0
 43
0.0
 43
0.0
 43
0.0
 43
1.0
 77
     0
 47
0.0008202099737533
 47
0.0
 47
0.0
 47
0.0
 47
0.0
 47
0.0008202099737533
 47
0.0
 47
0.0
 47
0.0
 47
0.0
 47
1.0
 47
0.0
 47
0.0
 47
0.0
 47
0.0
 47
1.0
171
     0
 49
0.0008202099737533
 49
0.0
 49
0.0
 49
0.0
 49
0.0
 49
0.0008202099737533
 49
0.0
 49
0.0
 49
0.0
 49
0.0
 49
1.0
 49
0.0
 49
0.0
 49
0.0
 49
0.0
 49
1.0
175
     0
142
0.0008202099737533
142
0.0
142
0.0
142
0.0
142
0.0
142
0.0008202099737533
142
0.0
142
0.0
142
0.0
142
0.0
142
1.0
142
0.0
142
0.0
142
0.0
142
0.0
142
1.0
179
     0
144
0.0008202099737533
144
0.0
144
0.0
144
0.0
144
0.0
144
0.0008202099737533
144
0.0
144
0.0
144
0.0
144
0.0
144
1.0
144
0.0
144
0.0
144
0.0
144
0.0
144
1.0
147
0.0008202099737533
147
0.0
147
0.0
147
0.0
147
0.0
147
0.0008202099737533
147
0.0
147
0.0
147
0.0
147
0.0
147
1.0
147
0.0
147
0.0
147
0.0
147
0.0
147
1.0
  0
MLEADERSTYLE
  5
3B8
102
{ACAD_REACTORS
330
3B7
102
}
330
3B7
100
AcDbMLeaderStyle
170
     2
171
     1
172
     0
 90
        2
 40
0.0
 41
0.0
173
     1
 91
-1056964608
340
14
 92
       -2
290
     1
 42
2.0
291
     1
 43
0.36
  3
Standard
 44
4.0
300

342
11
174
     1
178
     6
175
     1
176
     0
 93
-1056964608
 45
4.0
292
     0
297
     0
 46
4.0
 94
-1056964608
 47
1.0
 49
1.0
140
1.0
293
     1
141
0.0
294
     1
177
     0
142
1.0
295
     0
296
     0
143
0.125
1001
ACAD_MLEADERVER
1070
     2
  0
MLINESTYLE
  5
18
102
{ACAD_REACTORS
330
17
102
}
330
17
100
AcDbMlineStyle
  2
STANDARD
 70
     0
  3

 62
   256
 51
90.0
 52
90.0
 71
     2
 49
0.5
 62
   256
  6
BYLAYER
 49
-0.5
 62
   256
  6
BYLAYER
  0
PLOTSETTINGS
  5
476
102
{ACAD_REACTORS
330
19
102
}
330
19
100
AcDbPlotSettings
  1
セットアップ1
  2
DWG To PDF.pc3
  4
ISO_expand_A4_(297.00_x_210.00_MM)
  6

 40
5.793749809265136
 41
10.79374980926513
 42
5.79376220703125
 43
10.79374694824219
 44
297.0
 45
210.0
 46
5.249628829452802
 47
0.0
 48
-237.2100037059508
 49
-53.73738705550861
140
39.28999629404918
141
135.7626129444914
142
1.0
143
1.005771892728943
 70
 11956
 72
     1
 73
     0
 74
     4
  7
monochrome.ctb
 75
     0
147
0.9942612308310959
 76
     0
 77
     2
 78
   300
148
237.2100037059508
149
53.73738705550861
1001
ACAD_PSEXT
1000
DWG To PDF.pc3
1000
DWG To PDF
1000
ファイル
1000

1070
     0
  0
ACDBPLACEHOLDER
  5
F
102
{ACAD_REACTORS
330
E
102
}
330
E
  0
SCALE
  5
3A6
102
{ACAD_REACTORS
330
3A5
102
}
330
3A5
100
AcDbScale
 70
     0
300
1:1
140
1.0
141
1.0
290
     1
  0
SCALE
  5
3A7
102
{ACAD_REACTORS
330
3A5
102
}
330
3A5
100
AcDbScale
 70
     0
300
1:2
140
1.0
141
2.0
290
     0
  0
SCALE
  5
3A8
102
{ACAD_REACTORS
330
3A5
102
}
330
3A5
100
AcDbScale
 70
     0
300
1:4
140
1.0
141
4.0
290
     0
  0
SCALE
  5
3A9
102
{ACAD_REACTORS
330
3A5
102
}
330
3A5
100
AcDbScale
 70
     0
300
1:5
140
1.0
141
5.0
290
     0
  0
SCALE
  5
3AA
102
{ACAD_REACTORS
330
3A5
102
}
330
3A5
100
AcDbScale
 70
     0
300
1:8
140
1.0
141
8.0
290
     0
  0
SCALE
  5
3AB
102
{ACAD_REACTORS
330
3A5
102
}
330
3A5
100
AcDbScale
 70
     0
300
1:10
140
1.0
141
10.0
290
     0
  0
SCALE
  5
3AC
102
{ACAD_REACTORS
330
3A5
102
}
330
3A5
100
AcDbScale
 70
     0
300
1:16
140
1.0
141
16.0
290
     0
  0
SCALE
  5
3AD
102
{ACAD_REACTORS
330
3A5
102
}
330
3A5
100
AcDbScale
 70
     0
300
1:20
140
1.0
141
20.0
290
     0
  0
SCALE
  5
3AE
102
{ACAD_REACTORS
330
3A5
102
}
330
3A5
100
AcDbScale
 70
     0
300
1:30
140
1.0
141
30.0
290
     0
  0
SCALE
  5
3AF
102
{ACAD_REACTORS
330
3A5
102
}
330
3A5
100
AcDbScale
 70
     0
300
1:40
140
1.0
141
40.0
290
     0
  0
SCALE
  5
3B0
102
{ACAD_REACTORS
330
3A5
102
}
330
3A5
100
AcDbScale
 70
     0
300
1:50
140
1.0
141
50.0
290
     0
  0
SCALE
  5
3B1
102
{ACAD_REACTORS
330
3A5
102
}
330
3A5
100
AcDbScale
 70
     0
300
1:100
140
1.0
141
100.0
290
     0
  0
SCALE
  5
3B2
102
{ACAD_REACTORS
330
3A5
102
}
330
3A5
100
AcDbScale
 70
     0
300
2:1
140
2.0
141
1.0
290
     0
  0
SCALE
  5
3B3
102
{ACAD_REACTORS
330
3A5
102
}
330
3A5
100
AcDbScale
 70
     0
300
4:1
140
4.0
141
1.0
290
     0
  0
SCALE
  5
3B4
102
{ACAD_REACTORS
330
3A5
102
}
330
3A5
100
AcDbScale
 70
     0
300
8:1
140
8.0
141
1.0
290
     0
  0
SCALE
  5
3B5
102
{ACAD_REACTORS
330
3A5
102
}
330
3A5
100
AcDbScale
 70
     0
300
10:1
140
10.0
141
1.0
290
     0
  0
SCALE
  5
3B6
102
{ACAD_REACTORS
330
3A5
102
}
330
3A5
100
AcDbScale
 70
     0
300
100:1
140
100.0
141
1.0
290
     0
  0
ACDBSECTIONVIEWSTYLE
  5
3BA
102
{ACAD_XDICTIONARY
360
4C4
102
}
102
{ACAD_REACTORS
330
3B9
102
}
330
3B9
100
AcDbModelDocViewStyle
 70
     0
  3
Metric50
290
     0
100
AcDbSectionViewStyle
 70
     0
 71
     0
 90
      102
 71
     1
340
11
 62
   256
 40
5.0
340
0
340
0
 62
   256
 40
5.0
300
I, O, Q, S, X, Z
 40
10.0
 90
        0
 40
2.5
 90
        0
 71
     2
340
16
 90
       25
 62
   256
340
16
 90
       50
 62
   256
 40
5.0
 40
2.5
 40
5.0
 71
     3
340
11
 62
   256
 40
5.0
 90
        0
 40
15.0
 90
        1
300
%<\AcVar ViewSectionStartId>%-%<\AcVar ViewSectionEndId>% (%<\AcVar ViewScale \f "%sn">%)
 71
     4
 62
   256
 62
   257
300
ANSI31
 40
1.0
 90
        0
290
     0
290
     0
 90
        6
 40
0.0
 40
1.570796326794896
 40
0.2617993877991494
 40
1.308996938995747
 40
-0.2617993877991494
 40
1.832595714594046
  0
TABLESTYLE
  5
290
102
{ACAD_XDICTIONARY
360
480
102
}
102
{ACAD_REACTORS
330
28F
102
}
330
28F
100
AcDbTableStyle
  3
Standard
 70
     0
 71
     0
 40
1.5
 41
1.5
280
     0
281
     0
  7
Standard
140
4.5
170
     2
 62
     0
 63
     7
283
     0
274
    -2
284
     1
 64
     0
275
    -2
285
     1
 65
     0
276
    -2
286
     1
 66
     0
277
    -2
287
     1
 67
     0
278
    -2
288
     1
 68
     0
279
    -2
289
     1
 69
     0
  7
Standard
140
6.0
170
     5
 62
     0
 63
     7
283
     0
274
    -2
284
     1
 64
     0
275
    -2
285
     1
 65
     0
276
    -2
286
     1
 66
     0
277
    -2
287
     1
 67
     0
278
    -2
288
     1
 68
     0
279
    -2
289
     1
 69
     0
  7
Standard
140
4.5
170
     5
 62
     0
 63
     7
283
     0
274
    -2
284
     1
 64
     0
275
    -2
285
     1
 65
     0
276
    -2
286
     1
 66
     0
277
    -2
287
     1
 67
     0
278
    -2
288
     1
 68
     0
279
    -2
289
     1
 69
     0
  0
VISUALSTYLE
  5
392
102
{ACAD_XDICTIONARY
360
49D
102
}
102
{ACAD_REACTORS
330
38C
102
}
330
38C
100
AcDbVisualStyle
  2
2dWireframe
 70
     4
 71
     0
 72
     2
 73
     0
 90
        0
 40
-0.6
 41
-30.0
 62
     5
 63
     7
421
 16777215
 74
     1
 91
        4
 64
     7
 65
   257
 75
     1
175
     1
 42
1.0
 92
        0
 66
   257
 43
1.0
 76
     1
 77
     6
 78
     2
 67
     7
 79
     5
170
     0
171
     0
290
     0
174
     0
 93
        1
 44
0.0
173
     0
291
     0
 45
0.0
1001
ACAD
1000
AcDbSavedByObjectVersion
1070
     0
  0
VISUALSTYLE
  5
391
102
{ACAD_XDICTIONARY
360
49B
102
}
102
{ACAD_REACTORS
330
38C
102
}
330
38C
100
AcDbVisualStyle
  2
Basic
 70
     7
 71
     1
 72
     0
 73
     1
 90
        0
 40
-0.6
 41
-30.0
 62
     5
 63
     7
421
 16777215
 74
     0
 91
        4
 64
     7
 65
   257
 75
     1
175
     1
 42
1.0
 92
        8
 66
     7
 43
1.0
 76
     1
 77
     6
 78
     2
 67
     7
 79
     5
170
     0
171
     0
290
     0
174
     0
 93
        1
 44
0.0
173
     0
291
     1
 45
0.0
1001
ACAD
1000
AcDbSavedByObjectVersion
1070
     0
  0
VISUALSTYLE
  5
398
102
{ACAD_XDICTIONARY
360
4A9
102
}
102
{ACAD_REACTORS
330
38C
102
}
330
38C
100
AcDbVisualStyle
  2
Brighten
 70
    12
 71
     2
 72
     2
 73
     0
 90
        0
 40
-0.6
 41
-30.0
 62
     5
 63
     7
421
 16777215
 74
     1
 91
        4
 64
     7
 65
   257
 75
     1
175
     1
 42
1.0
 92
        8
 66
     7
 43
1.0
 76
     1
 77
     6
 78
     2
 67
     7
 79
     5
170
     0
171
     0
290
     0
174
     0
 93
        1
 44
50.0
173
     0
291
     1
 45
0.0
1001
ACAD
1000
AcDbSavedByObjectVersion
1070
     0
  0
VISUALSTYLE
  5
39C
102
{ACAD_XDICTIONARY
360
4B1
102
}
102
{ACAD_REACTORS
330
38C
102
}
330
38C
100
AcDbVisualStyle
  2
ColorChange
 70
    16
 71
     2
 72
     2
 73
     3
 90
        0
 40
-0.6
 41
-30.0
 62
     5
 63
     8
421
  8421504
 74
     1
 91
        4
 64
     7
 65
   257
 75
     1
175
     1
 42
1.0
 92
        8
 66
     8
424
  8421504
 43
1.0
 76
     1
 77
     6
 78
     2
 67
     7
 79
     5
170
     0
171
     0
290
     0
174
     0
 93
        1
 44
0.0
173
     0
291
     1
 45
0.0
1001
ACAD
1000
AcDbSavedByObjectVersion
1070
     0
  0
VISUALSTYLE
  5
395
102
{ACAD_XDICTIONARY
360
4A3
102
}
102
{ACAD_REACTORS
330
38C
102
}
330
38C
100
AcDbVisualStyle
  2
Conceptual
 70
     9
 71
     3
 72
     2
 73
     0
 90
        0
 40
-0.6
 41
-30.0
 62
     5
 63
     7
421
 16777215
 74
     2
 91
        2
 64
     7
 65
   257
 75
     1
175
     1
 42
179.0
 92
        8
 66
     7
 43
1.0
 76
     1
 77
     6
 78
     2
 67
     7
 79
     3
170
     0
171
     0
290
     0
174
     0
 93
        1
 44
0.0
173
     0
291
     0
 45
0.0
1001
ACAD
1000
AcDbSavedByObjectVersion
1070
     0
  0
VISUALSTYLE
  5
397
102
{ACAD_XDICTIONARY
360
4A7
102
}
102
{ACAD_REACTORS
330
38C
102
}
330
38C
100
AcDbVisualStyle
  2
Dim
 70
    11
 71
     2
 72
     2
 73
     0
 90
        0
 40
-0.6
 41
-30.0
 62
     5
 63
     7
421
 16777215
 74
     1
 91
        4
 64
     7
 65
   257
 75
     1
175
     1
 42
1.0
 92
        8
 66
     7
 43
1.0
 76
     1
 77
     6
 78
     2
 67
     7
 79
     5
170
     0
171
     0
290
     0
174
     0
 93
        1
 44
-50.0
173
     0
291
     1
 45
0.0
1001
ACAD
1000
AcDbSavedByObjectVersion
1070
     0
  0
VISUALSTYLE
  5
3A4
102
{ACAD_XDICTIONARY
360
4C1
102
}
102
{ACAD_REACTORS
330
38C
102
}
330
38C
100
AcDbVisualStyle
  2
EdgeColorOff
 70
    22
 71
     2
 72
     2
 73
     0
 90
        0
 40
-0.6
 41
-30.0
 62
     5
 63
     7
421
 16777215
 74
     1
 91
        4
 64
     7
 65
   257
 75
     1
175
     1
 42
1.0
 92
        8
 66
     7
 43
1.0
 76
     1
 77
     6
 78
     2
 67
     7
 79
     5
170
     0
171
     0
290
     0
174
     0
 93
        1
 44
0.0
173
     0
291
     1
 45
0.0
1001
ACAD
1000
AcDbSavedByObjectVersion
1070
     0
  0
VISUALSTYLE
  5
39B
102
{ACAD_XDICTIONARY
360
4AF
102
}
102
{ACAD_REACTORS
330
38C
102
}
330
38C
100
AcDbVisualStyle
  2
Facepattern
 70
    15
 71
     2
 72
     2
 73
     0
 90
        0
 40
-0.6
 41
-30.0
 62
     5
 63
     7
421
 16777215
 74
     1
 91
        4
 64
     7
 65
   257
 75
     1
175
     1
 42
1.0
 92
        8
 66
     7
 43
1.0
 76
     1
 77
     6
 78
     2
 67
     7
 79
     5
170
     0
171
     0
290
     0
174
     0
 93
        1
 44
0.0
173
     0
291
     1
 45
0.0
1001
ACAD
1000
AcDbSavedByObjectVersion
1070
     0
  0
VISUALSTYLE
  5
38D
102
{ACAD_XDICTIONARY
360
493
102
}
102
{ACAD_REACTORS
330
38C
102
}
330
38C
100
AcDbVisualStyle
  2
Flat
 70
     0
 71
     2
 72
     1
 73
     1
 90
        2
 40
-0.6
 41
30.0
 62
     5
 63
     7
421
 16777215
 74
     0
 91
        0
 64
     7
 65
   257
 75
     1
175
     1
 42
1.0
 92
        8
 66
     7
 43
1.0
 76
     1
 77
     6
 78
     2
 67
     7
 79
     5
170
     0
171
     0
290
     0
174
     0
 93
       13
 44
0.0
173
     0
291
     1
 45
0.0
1001
ACAD
1000
AcDbSavedByObjectVersion
1070
     0
  0
VISUALSTYLE
  5
38E
102
{ACAD_XDICTIONARY
360
495
102
}
102
{ACAD_REACTORS
330
38C
102
}
330
38C
100
AcDbVisualStyle
  2
FlatWithEdges
 70
     1
 71
     2
 72
     1
 73
     1
 90
        2
 40
-0.6
 41
30.0
 62
     5
 63
     7
421
 16777215
 74
     1
 91
        0
 64
     7
 65
   257
 75
     1
175
     1
 42
1.0
 92
        0
 66
   257
 43
1.0
 76
     1
 77
     6
 78
     2
 67
     7
 79
     5
170
     0
171
     0
290
     0
174
     0
 93
       13
 44
0.0
173
     0
291
     1
 45
0.0
1001
ACAD
1000
AcDbSavedByObjectVersion
1070
     0
  0
VISUALSTYLE
  5
38F
102
{ACAD_XDICTIONARY
360
497
102
}
102
{ACAD_REACTORS
330
38C
102
}
330
38C
100
AcDbVisualStyle
  2
Gouraud
 70
     2
 71
     2
 72
     2
 73
     1
 90
        2
 40
-0.6
 41
30.0
 62
     5
 63
     7
421
 16777215
 74
     0
 91
        0
 64
     7
 65
   257
 75
     1
175
     1
 42
1.0
 92
        0
 66
     7
 43
1.0
 76
     1
 77
     6
 78
     2
 67
     7
 79
     5
170
     0
171
     0
290
     0
174
     0
 93
       13
 44
0.0
173
     0
291
     1
 45
0.0
1001
ACAD
1000
AcDbSavedByObjectVersion
1070
     0
  0
VISUALSTYLE
  5
390
102
{ACAD_XDICTIONARY
360
499
102
}
102
{ACAD_REACTORS
330
38C
102
}
330
38C
100
AcDbVisualStyle
  2
GouraudWithEdges
 70
     3
 71
     2
 72
     2
 73
     1
 90
        2
 40
-0.6
 41
30.0
 62
     5
 63
     7
421
 16777215
 74
     1
 91
        0
 64
     7
 65
   257
 75
     1
175
     1
 42
1.0
 92
        0
 66
   257
 43
1.0
 76
     1
 77
     6
 78
     2
 67
     7
 79
     5
170
     0
171
     0
290
     0
174
     0
 93
       13
 44
0.0
173
     0
291
     1
 45
0.0
1001
ACAD
1000
AcDbSavedByObjectVersion
1070
     0
  0
VISUALSTYLE
  5
394
102
{ACAD_XDICTIONARY
360
4A1
102
}
102
{ACAD_REACTORS
330
38C
102
}
330
38C
100
AcDbVisualStyle
  2
Hidden
 70
     6
 71
     1
 72
     2
 73
     2
 90
        0
 40
-0.6
 41
-30.0
 62
     5
 63
     7
421
 16777215
 74
     2
 91
        2
 64
     7
 65
   257
 75
     2
175
     1
 42
40.0
 92
        0
 66
   257
 43
1.0
 76
     1
 77
     6
 78
     2
 67
     7
 79
     3
170
     0
171
     0
290
     0
174
     0
 93
        1
 44
0.0
173
     0
291
     0
 45
0.0
1001
ACAD
1000
AcDbSavedByObjectVersion
1070
     0
  0
VISUALSTYLE
  5
3A2
102
{ACAD_XDICTIONARY
360
4BD
102
}
102
{ACAD_REACTORS
330
38C
102
}
330
38C
100
AcDbVisualStyle
  2
JitterOff
 70
    20
 71
     2
 72
     2
 73
     0
 90
        0
 40
-0.6
 41
-30.0
 62
     5
 63
     7
421
 16777215
 74
     1
 91
        4
 64
     7
 65
   257
 75
     1
175
     1
 42
1.0
 92
       10
 66
     7
 43
1.0
 76
     1
 77
     6
 78
     2
 67
     7
 79
     5
170
     0
171
     0
290
     0
174
     0
 93
        1
 44
0.0
173
     0
291
     1
 45
0.0
1001
ACAD
1000
AcDbSavedByObjectVersion
1070
     0
  0
VISUALSTYLE
  5
39A
102
{ACAD_XDICTIONARY
360
4AD
102
}
102
{ACAD_REACTORS
330
38C
102
}
330
38C
100
AcDbVisualStyle
  2
Linepattern
 70
    14
 71
     2
 72
     2
 73
     0
 90
        0
 40
-0.6
 41
-30.0
 62
     5
 63
     7
421
 16777215
 74
     1
 91
        4
 64
     7
 65
   257
 75
     7
175
     7
 42
1.0
 92
        8
 66
     7
 43
1.0
 76
     1
 77
     6
 78
     2
 67
     7
 79
     5
170
     0
171
     0
290
     0
174
     0
 93
        1
 44
0.0
173
     0
291
     1
 45
0.0
1001
ACAD
1000
AcDbSavedByObjectVersion
1070
     0
  0
VISUALSTYLE
  5
3A3
102
{ACAD_XDICTIONARY
360
4BF
102
}
102
{ACAD_REACTORS
330
38C
102
}
330
38C
100
AcDbVisualStyle
  2
OverhangOff
 70
    21
 71
     2
 72
     2
 73
     0
 90
        0
 40
-0.6
 41
-30.0
 62
     5
 63
     7
421
 16777215
 74
     1
 91
        4
 64
     7
 65
   257
 75
     1
175
     1
 42
1.0
 92
        9
 66
     7
 43
1.0
 76
     1
 77
     6
 78
     2
 67
     7
 79
     5
170
     0
171
     0
290
     0
174
     0
 93
        1
 44
0.0
173
     0
291
     1
 45
0.0
1001
ACAD
1000
AcDbSavedByObjectVersion
1070
     0
  0
VISUALSTYLE
  5
396
102
{ACAD_XDICTIONARY
360
4A5
102
}
102
{ACAD_REACTORS
330
38C
102
}
330
38C
100
AcDbVisualStyle
  2
Realistic
 70
     8
 71
     2
 72
     3
 73
     0
 90
        2
 40
-0.6
 41
30.0
 62
     5
 63
     7
421
 16777215
 74
     0
 91
        0
 64
     7
 65
   257
 75
     1
175
     1
 42
1.0
 92
        8
 66
   257
 43
1.0
 76
     1
 77
     6
 78
     2
 67
     7
 79
     3
170
     0
171
     0
290
     0
174
     0
 93
       13
 44
0.0
173
     0
291
     0
 45
0.0
1001
ACAD
1000
AcDbSavedByObjectVersion
1070
     0
  0
VISUALSTYLE
  5
3A1
102
{ACAD_XDICTIONARY
360
4BB
102
}
102
{ACAD_REACTORS
330
38C
102
}
330
38C
100
AcDbVisualStyle
  2
Shaded
 70
    27
 71
     2
 72
     2
 73
     1
 90
        2
 40
-0.6
 41
30.0
 62
     5
 63
     7
421
 16777215
 74
     0
 91
        4
 64
     7
 65
   257
 75
     1
175
     1
 42
1.0
 92
        8
 66
   257
 43
1.0
 76
     1
 77
     6
 78
     2
 67
     8
425
  7895160
 79
     3
170
     0
171
     0
290
     0
174
     0
 93
        5
 44
0.0
173
     0
291
     0
 45
0.0
1001
ACAD
1000
AcDbSavedByObjectVersion
1070
     0
  0
VISUALSTYLE
  5
3A0
102
{ACAD_XDICTIONARY
360
4B9
102
}
102
{ACAD_REACTORS
330
38C
102
}
330
38C
100
AcDbVisualStyle
  2
Shaded with edges
 70
    26
 71
     2
 72
     2
 73
     1
 90
        2
 40
-0.6
 41
30.0
 62
     5
 63
     7
421
 16777215
 74
     1
 91
       10
 64
     7
 65
   257
 75
     2
175
     1
 42
1.0
 92
        8
 66
   257
 43
1.0
 76
     1
 77
     6
 78
     2
 67
     7
 79
     3
170
     0
171
     0
290
     0
174
     0
 93
        5
 44
0.0
173
     0
291
     0
 45
0.0
1001
ACAD
1000
AcDbSavedByObjectVersion
1070
     0
  0
VISUALSTYLE
  5
39D
102
{ACAD_XDICTIONARY
360
4B3
102
}
102
{ACAD_REACTORS
330
38C
102
}
330
38C
100
AcDbVisualStyle
  2
Shades of Gray
 70
    23
 71
     2
 72
     2
 73
     3
 90
        0
 40
-0.6
 41
-30.0
 62
     5
 63
     7
421
 16777215
 74
     2
 91
        2
 64
     7
 65
     7
 75
     1
175
     1
 42
40.0
 92
        8
 66
     7
 43
1.0
 76
     1
 77
     6
 78
     2
 67
     7
 79
     3
170
     0
171
     0
290
     0
174
     0
 93
        1
 44
0.0
173
     0
291
     0
 45
0.0
1001
ACAD
1000
AcDbSavedByObjectVersion
1070
     0
  0
VISUALSTYLE
  5
39E
102
{ACAD_XDICTIONARY
360
4B5
102
}
102
{ACAD_REACTORS
330
38C
102
}
330
38C
100
AcDbVisualStyle
  2
Sketchy
 70
    24
 71
     1
 72
     2
 73
     2
 90
        0
 40
-0.6
 41
-30.0
 62
     5
 63
     7
421
 16777215
 74
     2
 91
        2
 64
     7
 65
     7
 75
     1
175
     1
 42
40.0
 92
       11
 66
     7
 43
1.0
 76
     1
 77
     6
 78
     2
 67
     7
 79
     6
170
     0
171
     0
290
     0
174
     0
 93
        1
 44
0.0
173
     0
291
     0
 45
0.0
1001
ACAD
1000
AcDbSavedByObjectVersion
1070
     0
  0
VISUALSTYLE
  5
399
102
{ACAD_XDICTIONARY
360
4AB
102
}
102
{ACAD_REACTORS
330
38C
102
}
330
38C
100
AcDbVisualStyle
  2
Thicken
 70
    13
 71
     2
 72
     2
 73
     0
 90
        0
 40
-0.6
 41
-30.0
 62
     5
 63
     7
421
 16777215
 74
     1
 91
        4
 64
     7
 65
   257
 75
     1
175
     1
 42
1.0
 92
       12
 66
     7
 43
1.0
 76
     1
 77
     6
 78
     2
 67
     7
 79
     5
170
     0
171
     0
290
     0
174
     0
 93
        1
 44
0.0
173
     0
291
     1
 45
0.0
1001
ACAD
1000
AcDbSavedByObjectVersion
1070
     0
  0
VISUALSTYLE
  5
393
102
{ACAD_XDICTIONARY
360
49F
102
}
102
{ACAD_REACTORS
330
38C
102
}
330
38C
100
AcDbVisualStyle
  2
Wireframe
 70
     5
 71
     0
 72
     2
 73
     0
 90
        0
 40
-0.6
 41
-30.0
 62
     5
 63
     7
421
 16777215
 74
     1
 91
        4
 64
     7
 65
   257
 75
     1
175
     1
 42
1.0
 92
        0
 66
   257
 43
1.0
 76
     1
 77
     6
 78
     2
 67
     7
 79
     3
170
     0
171
     0
290
     0
174
     0
 93
        1
 44
0.0
173
     0
291
     0
 45
0.0
1001
ACAD
1000
AcDbSavedByObjectVersion
1070
     0
  0
VISUALSTYLE
  5
39F
102
{ACAD_XDICTIONARY
360
4B7
102
}
102
{ACAD_REACTORS
330
38C
102
}
330
38C
100
AcDbVisualStyle
  2
X-Ray
 70
    25
 71
     2
 72
     2
 73
     1
 90
        1
 40
0.5
 41
-30.0
 62
     5
 63
     7
421
 16777215
 74
     1
 91
        0
 64
     7
 65
   257
 75
     1
175
     1
 42
1.0
 92
        8
 66
     7
 43
1.0
 76
     1
 77
     6
 78
     2
 67
     7
 79
     3
170
     0
171
     0
290
     0
174
     0
 93
       13
 44
0.0
173
     0
291
     0
 45
0.0
1001
ACAD
1000
AcDbSavedByObjectVersion
1070
     0
  0
DICTIONARYVAR
  5
418
102
{ACAD_REACTORS
330
356
102
}
330
356
100
DictionaryVariables
280
     0
  1
1:1
  0
DICTIONARYVAR
  5
414
102
{ACAD_REACTORS
330
356
102
}
330
356
100
DictionaryVariables
280
     0
  1
STANDARD
  0
DICTIONARYVAR
  5
357
102
{ACAD_REACTORS
330
356
102
}
330
356
100
DictionaryVariables
280
     0
  1
STANDARD
  0
DICTIONARYVAR
  5
415
102
{ACAD_REACTORS
330
356
102
}
330
356
100
DictionaryVariables
280
     0
  1
Metric50
  0
DICTIONARYVAR
  5
416
102
{ACAD_REACTORS
330
356
102
}
330
356
100
DictionaryVariables
280
     0
  1
Metric50
  0
DICTIONARYVAR
  5
368
102
{ACAD_REACTORS
330
356
102
}
330
356
100
DictionaryVariables
280
     0
  1
1
  0
DICTIONARYVAR
  5
41A
102
{ACAD_REACTORS
330
356
102
}
330
356
100
DictionaryVariables
280
     0
  1
1
  0
DICTIONARYVAR
  5
41B
102
{ACAD_REACTORS
330
356
102
}
330
356
100
DictionaryVariables
280
     0
  1
15
  0
DICTIONARYVAR
  5
419
102
{ACAD_REACTORS
330
356
102
}
330
356
100
DictionaryVariables
280
     0
  1
0
  0
DICTIONARYVAR
  5
417
102
{ACAD_REACTORS
330
356
102
}
330
356
100
DictionaryVariables
280
     0
  1
0
  0
DICTIONARYVAR
  5
369
102
{ACAD_REACTORS
330
356
102
}
330
356
100
DictionaryVariables
280
     0
  1

  0
DICTIONARYVAR
  5
47F
102
{ACAD_REACTORS
330
356
102
}
330
356
100
DictionaryVariables
280
     0
  1
2
  0
DICTIONARY
  5
4C6
330
3BC
100
AcDbDictionary
280
     1
281
     1
  3
ACAD_XREC_ROUNDTRIP
360
4C7
  0
DICTIONARY
  5
37D
330
37C
100
AcDbDictionary
280
     1
281
     1
  3
ACAD_XREC_ROUNDTRIP
360
491
  3
BUMPTILE
360
37F
  3
DIFFUSETILE
360
37E
  3
OPACITYTILE
360
382
  3
REFLECTIONTILE
360
381
  3
REFRACTIONTILE
360
383
  3
SPECULARTILE
360
380
  0
DICTIONARY
  5
375
330
374
100
AcDbDictionary
280
     1
281
     1
  3
ACAD_XREC_ROUNDTRIP
360
490
  3
BUMPTILE
360
377
  3
DIFFUSETILE
360
376
  3
OPACITYTILE
360
37A
  3
REFLECTIONTILE
360
379
  3
REFRACTIONTILE
360
37B
  3
SPECULARTILE
360
378
  0
DICTIONARY
  5
385
330
384
100
AcDbDictionary
280
     1
281
     1
  3
ACAD_XREC_ROUNDTRIP
360
492
  3
BUMPTILE
360
387
  3
DIFFUSETILE
360
386
  3
OPACITYTILE
360
38A
  3
REFLECTIONTILE
360
389
  3
REFRACTIONTILE
360
38B
  3
SPECULARTILE
360
388
  0
DICTIONARY
  5
4C4
330
3BA
100
AcDbDictionary
280
     1
281
     1
  3
ACAD_XREC_ROUNDTRIP
360
4C5
  0
DICTIONARY
  5
480
330
290
100
AcDbDictionary
280
     1
281
     1
  3
ACAD_ROUNDTRIP_2008_TABLESTYLE_CELLSTYLEMAP
360
481
  3
ACAD_XREC_ROUNDTRIP
360
487
  0
DICTIONARY
  5
49D
330
392
100
AcDbDictionary
280
     1
281
     1
  3
ACAD_XREC_ROUNDTRIP
360
49E
  0
DICTIONARY
  5
49B
330
391
100
AcDbDictionary
280
     1
281
     1
  3
ACAD_XREC_ROUNDTRIP
360
49C
  0
DICTIONARY
  5
4A9
330
398
100
AcDbDictionary
280
     1
281
     1
  3
ACAD_XREC_ROUNDTRIP
360
4AA
  0
DICTIONARY
  5
4B1
330
39C
100
AcDbDictionary
280
     1
281
     1
  3
ACAD_XREC_ROUNDTRIP
360
4B2
  0
DICTIONARY
  5
4A3
330
395
100
AcDbDictionary
280
     1
281
     1
  3
ACAD_XREC_ROUNDTRIP
360
4A4
  0
DICTIONARY
  5
4A7
330
397
100
AcDbDictionary
280
     1
281
     1
  3
ACAD_XREC_ROUNDTRIP
360
4A8
  0
DICTIONARY
  5
4C1
330
3A4
100
AcDbDictionary
280
     1
281
     1
  3
ACAD_XREC_ROUNDTRIP
360
4C2
  0
DICTIONARY
  5
4AF
330
39B
100
AcDbDictionary
280
     1
281
     1
  3
ACAD_XREC_ROUNDTRIP
360
4B0
  0
DICTIONARY
  5
493
330
38D
100
AcDbDictionary
280
     1
281
     1
  3
ACAD_XREC_ROUNDTRIP
360
494
  0
DICTIONARY
  5
495
330
38E
100
AcDbDictionary
280
     1
281
     1
  3
ACAD_XREC_ROUNDTRIP
360
496
  0
DICTIONARY
  5
497
330
38F
100
AcDbDictionary
280
     1
281
     1
  3
ACAD_XREC_ROUNDTRIP
360
498
  0
DICTIONARY
  5
499
330
390
100
AcDbDictionary
280
     1
281
     1
  3
ACAD_XREC_ROUNDTRIP
360
49A
  0
DICTIONARY
  5
4A1
330
394
100
AcDbDictionary
280
     1
281
     1
  3
ACAD_XREC_ROUNDTRIP
360
4A2
  0
DICTIONARY
  5
4BD
330
3A2
100
AcDbDictionary
280
     1
281
     1
  3
ACAD_XREC_ROUNDTRIP
360
4BE
  0
DICTIONARY
  5
4AD
330
39A
100
AcDbDictionary
280
     1
281
     1
  3
ACAD_XREC_ROUNDTRIP
360
4AE
  0
DICTIONARY
  5
4BF
330
3A3
100
AcDbDictionary
280
     1
281
     1
  3
ACAD_XREC_ROUNDTRIP
360
4C0
  0
DICTIONARY
  5
4A5
330
396
100
AcDbDictionary
280
     1
281
     1
  3
ACAD_XREC_ROUNDTRIP
360
4A6
  0
DICTIONARY
  5
4BB
330
3A1
100
AcDbDictionary
280
     1
281
     1
  3
ACAD_XREC_ROUNDTRIP
360
4BC
  0
DICTIONARY
  5
4B9
330
3A0
100
AcDbDictionary
280
     1
281
     1
  3
ACAD_XREC_ROUNDTRIP
360
4BA
  0
DICTIONARY
  5
4B3
330
39D
100
AcDbDictionary
280
     1
281
     1
  3
ACAD_XREC_ROUNDTRIP
360
4B4
  0
DICTIONARY
  5
4B5
330
39E
100
AcDbDictionary
280
     1
281
     1
  3
ACAD_XREC_ROUNDTRIP
360
4B6
  0
DICTIONARY
  5
4AB
330
399
100
AcDbDictionary
280
     1
281
     1
  3
ACAD_XREC_ROUNDTRIP
360
4AC
  0
DICTIONARY
  5
49F
330
393
100
AcDbDictionary
280
     1
281
     1
  3
ACAD_XREC_ROUNDTRIP
360
4A0
  0
DICTIONARY
  5
4B7
330
39F
100
AcDbDictionary
280
     1
281
     1
  3
ACAD_XREC_ROUNDTRIP
360
4B8
  0
XRECORD
  5
4C7
102
{ACAD_REACTORS
330
4C6
102
}
330
4C6
100
AcDbXrecord
280
     1
102
DISPLAYNAME
  1
Metric50
102
FLAGS
 90
        0
  0
XRECORD
  5
491
102
{ACAD_REACTORS
330
37D
102
}
330
37D
100
AcDbXrecord
280
     1
102
MATERIAL
148
0.0
149
0.0
149
0.0
 93
        0
 94
      127
282
     0
 72
     0
 77
     0
171
     0
175
     0
179
     0
273
     0
  0
XRECORD
  5
37F
102
{ACAD_REACTORS
330
37D
102
}
330
37D
100
AcDbXrecord
280
     1
270
     1
271
     1
  0
XRECORD
  5
37E
102
{ACAD_REACTORS
330
37D
102
}
330
37D
100
AcDbXrecord
280
     1
270
     1
271
     1
  0
XRECORD
  5
382
102
{ACAD_REACTORS
330
37D
102
}
330
37D
100
AcDbXrecord
280
     1
270
     1
271
     1
  0
XRECORD
  5
381
102
{ACAD_REACTORS
330
37D
102
}
330
37D
100
AcDbXrecord
280
     1
270
     1
271
     1
  0
XRECORD
  5
383
102
{ACAD_REACTORS
330
37D
102
}
330
37D
100
AcDbXrecord
280
     1
270
     1
271
     1
  0
XRECORD
  5
380
102
{ACAD_REACTORS
330
37D
102
}
330
37D
100
AcDbXrecord
280
     1
270
     1
271
     1
  0
XRECORD
  5
490
102
{ACAD_REACTORS
330
375
102
}
330
375
100
AcDbXrecord
280
     1
102
MATERIAL
148
0.0
149
0.0
149
0.0
 93
        0
 94
      127
282
     0
 72
     0
 77
     0
171
     0
175
     0
179
     0
273
     0
  0
XRECORD
  5
377
102
{ACAD_REACTORS
330
375
102
}
330
375
100
AcDbXrecord
280
     1
270
     1
271
     1
  0
XRECORD
  5
376
102
{ACAD_REACTORS
330
375
102
}
330
375
100
AcDbXrecord
280
     1
270
     1
271
     1
  0
XRECORD
  5
37A
102
{ACAD_REACTORS
330
375
102
}
330
375
100
AcDbXrecord
280
     1
270
     1
271
     1
  0
XRECORD
  5
379
102
{ACAD_REACTORS
330
375
102
}
330
375
100
AcDbXrecord
280
     1
270
     1
271
     1
  0
XRECORD
  5
37B
102
{ACAD_REACTORS
330
375
102
}
330
375
100
AcDbXrecord
280
     1
270
     1
271
     1
  0
XRECORD
  5
378
102
{ACAD_REACTORS
330
375
102
}
330
375
100
AcDbXrecord
280
     1
270
     1
271
     1
  0
XRECORD
  5
492
102
{ACAD_REACTORS
330
385
102
}
330
385
100
AcDbXrecord
280
     1
102
MATERIAL
148
0.0
149
0.0
149
0.0
 93
        0
 94
      127
282
     0
 72
     0
 77
     0
171
     0
175
     0
179
     0
273
     0
  0
XRECORD
  5
387
102
{ACAD_REACTORS
330
385
102
}
330
385
100
AcDbXrecord
280
     1
270
     1
271
     1
  0
XRECORD
  5
386
102
{ACAD_REACTORS
330
385
102
}
330
385
100
AcDbXrecord
280
     1
270
     1
271
     1
  0
XRECORD
  5
38A
102
{ACAD_REACTORS
330
385
102
}
330
385
100
AcDbXrecord
280
     1
270
     1
271
     1
  0
XRECORD
  5
389
102
{ACAD_REACTORS
330
385
102
}
330
385
100
AcDbXrecord
280
     1
270
     1
271
     1
  0
XRECORD
  5
38B
102
{ACAD_REACTORS
330
385
102
}
330
385
100
AcDbXrecord
280
     1
270
     1
271
     1
  0
XRECORD
  5
388
102
{ACAD_REACTORS
330
385
102
}
330
385
100
AcDbXrecord
280
     1
270
     1
271
     1
  0
XRECORD
  5
4C5
102
{ACAD_REACTORS
330
4C4
102
}
330
4C4
100
AcDbXrecord
280
     1
102
DISPLAYNAME
  1
Metric50
102
FLAGS
 90
        0
  0
CELLSTYLEMAP
  5
481
102
{ACAD_REACTORS
330
480
102
}
330
480
100
AcDbCellStyleMap
 90
        3
300
CELLSTYLE
  1
TABLEFORMAT_BEGIN
 90
        5
170
     1
 91
        0
 92
    32768
 62
   257
 93
        1
300
CONTENTFORMAT
  1
CONTENTFORMAT_BEGIN
 90
        0
 91
        0
 92
        4
 93
        0
300

 40
0.0
140
1.0
 94
        5
 62
     0
340
11
144
6.0
309
CONTENTFORMAT_END
171
     1
301
MARGIN
  1
CELLMARGIN_BEGIN
 40
1.5
 40
1.5
 40
1.5
 40
1.5
 40
0.18
 40
0.18
309
CELLMARGIN_END
 94
        6
 95
        1
302
GRIDFORMAT
  1
GRIDFORMAT_BEGIN
 90
        0
 91
        1
 62
     0
 92
       -2
340
0
 93
        0
 40
0.045
309
GRIDFORMAT_END
 95
        2
302
GRIDFORMAT
  1
GRIDFORMAT_BEGIN
 90
        0
 91
        1
 62
     0
 92
       -2
340
0
 93
        0
 40
0.045
309
GRIDFORMAT_END
 95
        4
302
GRIDFORMAT
  1
GRIDFORMAT_BEGIN
 90
        0
 91
        1
 62
     0
 92
       -2
340
0
 93
        0
 40
0.045
309
GRIDFORMAT_END
 95
        8
302
GRIDFORMAT
  1
GRIDFORMAT_BEGIN
 90
        0
 91
        1
 62
     0
 92
       -2
340
0
 93
        0
 40
0.045
309
GRIDFORMAT_END
 95
       16
302
GRIDFORMAT
  1
GRIDFORMAT_BEGIN
 90
        0
 91
        1
 62
     0
 92
       -2
340
0
 93
        0
 40
0.045
309
GRIDFORMAT_END
 95
       32
302
GRIDFORMAT
  1
GRIDFORMAT_BEGIN
 90
        0
 91
        1
 62
     0
 92
       -2
340
0
 93
        0
 40
0.045
309
GRIDFORMAT_END
309
TABLEFORMAT_END
  1
CELLSTYLE_BEGIN
 90
        1
 91
        1
300
_TITLE
309
CELLSTYLE_END
300
CELLSTYLE
  1
TABLEFORMAT_BEGIN
 90
        5
170
     1
 91
        0
 92
        0
 62
   257
 93
        1
300
CONTENTFORMAT
  1
CONTENTFORMAT_BEGIN
 90
        0
 91
        0
 92
        4
 93
        0
300

 40
0.0
140
1.0
 94
        5
 62
     0
340
11
144
4.5
309
CONTENTFORMAT_END
171
     1
301
MARGIN
  1
CELLMARGIN_BEGIN
 40
1.5
 40
1.5
 40
1.5
 40
1.5
 40
0.18
 40
0.18
309
CELLMARGIN_END
 94
        6
 95
        1
302
GRIDFORMAT
  1
GRIDFORMAT_BEGIN
 90
        0
 91
        1
 62
     0
 92
       -2
340
0
 93
        0
 40
0.045
309
GRIDFORMAT_END
 95
        2
302
GRIDFORMAT
  1
GRIDFORMAT_BEGIN
 90
        0
 91
        1
 62
     0
 92
       -2
340
0
 93
        0
 40
0.045
309
GRIDFORMAT_END
 95
        4
302
GRIDFORMAT
  1
GRIDFORMAT_BEGIN
 90
        0
 91
        1
 62
     0
 92
       -2
340
0
 93
        0
 40
0.045
309
GRIDFORMAT_END
 95
        8
302
GRIDFORMAT
  1
GRIDFORMAT_BEGIN
 90
        0
 91
        1
 62
     0
 92
       -2
340
0
 93
        0
 40
0.045
309
GRIDFORMAT_END
 95
       16
302
GRIDFORMAT
  1
GRIDFORMAT_BEGIN
 90
        0
 91
        1
 62
     0
 92
       -2
340
0
 93
        0
 40
0.045
309
GRIDFORMAT_END
 95
       32
302
GRIDFORMAT
  1
GRIDFORMAT_BEGIN
 90
        0
 91
        1
 62
     0
 92
       -2
340
0
 93
        0
 40
0.045
309
GRIDFORMAT_END
309
TABLEFORMAT_END
  1
CELLSTYLE_BEGIN
 90
        2
 91
        1
300
_HEADER
309
CELLSTYLE_END
300
CELLSTYLE
  1
TABLEFORMAT_BEGIN
 90
        5
170
     1
 91
        0
 92
        0
 62
   257
 93
        1
300
CONTENTFORMAT
  1
CONTENTFORMAT_BEGIN
 90
        0
 91
        0
 92
        4
 93
        0
300

 40
0.0
140
1.0
 94
        2
 62
     0
340
11
144
4.5
309
CONTENTFORMAT_END
171
     1
301
MARGIN
  1
CELLMARGIN_BEGIN
 40
1.5
 40
1.5
 40
1.5
 40
1.5
 40
0.18
 40
0.18
309
CELLMARGIN_END
 94
        6
 95
        1
302
GRIDFORMAT
  1
GRIDFORMAT_BEGIN
 90
        0
 91
        1
 62
     0
 92
       -2
340
0
 93
        0
 40
0.045
309
GRIDFORMAT_END
 95
        2
302
GRIDFORMAT
  1
GRIDFORMAT_BEGIN
 90
        0
 91
        1
 62
     0
 92
       -2
340
0
 93
        0
 40
0.045
309
GRIDFORMAT_END
 95
        4
302
GRIDFORMAT
  1
GRIDFORMAT_BEGIN
 90
        0
 91
        1
 62
     0
 92
       -2
340
0
 93
        0
 40
0.045
309
GRIDFORMAT_END
 95
        8
302
GRIDFORMAT
  1
GRIDFORMAT_BEGIN
 90
        0
 91
        1
 62
     0
 92
       -2
340
0
 93
        0
 40
0.045
309
GRIDFORMAT_END
 95
       16
302
GRIDFORMAT
  1
GRIDFORMAT_BEGIN
 90
        0
 91
        1
 62
     0
 92
       -2
340
0
 93
        0
 40
0.045
309
GRIDFORMAT_END
 95
       32
302
GRIDFORMAT
  1
GRIDFORMAT_BEGIN
 90
        0
 91
        1
 62
     0
 92
       -2
340
0
 93
        0
 40
0.045
309
GRIDFORMAT_END
309
TABLEFORMAT_END
  1
CELLSTYLE_BEGIN
 90
        3
 91
        2
300
_DATA
309
CELLSTYLE_END
  0
XRECORD
  5
487
102
{ACAD_REACTORS
330
480
102
}
330
480
100
AcDbXrecord
280
     1
102
ACAD_ROUNDTRIP_PRE2007_TABLESTYLE
 90
        4
 91
        0
  1

 92
        4
 93
        0
  2

 94
        4
 95
        0
  3

  0
XRECORD
  5
49E
102
{ACAD_REACTORS
330
49D
102
}
330
49D
100
AcDbXrecord
280
     1
102
RTVSPost2010Prop28
280
     1
102
RTVSPost2010PropOp28
 70
     1
102
RTVSPost2010Prop29
280
     1
102
RTVSPost2010PropOp29
 70
     1
102
RTVSPost2010Prop30
280
     0
102
RTVSPost2010PropOp30
 70
     1
102
RTVSPost2010Prop31
280
     0
102
RTVSPost2010PropOp31
 70
     1
102
RTVSPost2010Prop32
280
     0
102
RTVSPost2010PropOp32
 70
     1
102
RTVSPost2010Prop33
280
     0
102
RTVSPost2010PropOp33
 70
     1
102
RTVSPost2010Prop34
280
     0
102
RTVSPost2010PropOp34
 70
     1
102
RTVSPost2010Prop35
280
     0
102
RTVSPost2010PropOp35
 70
     1
102
RTVSPost2010Prop36
280
     0
102
RTVSPost2010PropOp36
 70
     1
102
RTVSPost2010Prop37
 90
       50
102
RTVSPost2010PropOp37
 70
     1
102
RTVSPost2010Prop38
140
0.0
102
RTVSPost2010PropOp38
 70
     1
102
RTVSPost2010Prop39
140
1.0
102
RTVSPost2010PropOp39
 70
     1
102
RTVSPost2010Prop40
 90
        0
102
RTVSPost2010PropOp40
 70
     1
102
RTVSPost2010Prop41ColorIndex
 90
       18
102
RTVSPost2010Prop41ColorRGB
 90
        0
102
RTVSPost2010PropOp41
 70
     1
102
RTVSPost2010Prop42
 90
       50
102
RTVSPost2010PropOp42
 70
     1
102
RTVSPost2010Prop43
 90
        3
102
RTVSPost2010PropOp43
 70
     1
102
RTVSPost2010Prop44ColorIndex
 90
        5
102
RTVSPost2010Prop44ColorRGB
 90
      255
102
RTVSPost2010PropOp44
 70
     1
102
RTVSPost2010Prop45
280
     0
102
RTVSPost2010PropOp45
 70
     1
102
RTVSPost2010Prop46
 90
       50
102
RTVSPost2010PropOp46
 70
     1
102
RTVSPost2010Prop47
 90
       50
102
RTVSPost2010PropOp47
 70
     1
102
RTVSPost2010Prop48
 90
       50
102
RTVSPost2010PropOp48
 70
     1
102
RTVSPost2010Prop49
280
     0
102
RTVSPost2010PropOp49
 70
     1
102
RTVSPost2010Prop50
 90
       50
102
RTVSPost2010PropOp50
 70
     1
102
RTVSPost2010Prop51ColorIndex
 90
      256
102
RTVSPost2010Prop51ColorRGB
 90
-16777216
102
RTVSPost2010PropOp51
 70
     0
102
RTVSPost2010Prop52
140
1.0
102
RTVSPost2010PropOp52
 70
     0
102
RTVSPost2010Prop53
 90
        2
102
RTVSPost2010PropOp53
 70
     1
102
RTVSPost2010Prop54
  1
strokes_ogs.tif
102
RTVSPost2010PropOp54
 70
     1
102
RTVSPost2010Prop55
280
     0
102
RTVSPost2010PropOp55
 70
     1
102
RTVSPost2010Prop56
140
1.0
102
RTVSPost2010PropOp56
 70
     1
102
RTVSPost2010Prop57
140
1.0
102
RTVSPost2010PropOp57
 70
     1
102
RTVSPropertyOp0
 70
     1
102
RTVSPropertyOp1
 70
     1
102
RTVSPropertyOp2
 70
     1
102
RTVSPropertyOp3
 70
     1
102
RTVSPropertyOp4
 70
     1
102
RTVSPropertyOp5
 70
     1
102
RTVSPropertyOp6
 70
     1
102
RTVSPropertyOp7
 70
     1
102
RTVSPropertyOp8
 70
     1
102
RTVSPropertyOp9
 70
     1
102
RTVSPropertyOp10
 70
     1
102
RTVSPropertyOp11
 70
     1
102
RTVSPropertyOp12
 70
     1
102
RTVSPropertyOp13
 70
     1
102
RTVSPropertyOp14
 70
     1
102
RTVSPropertyOp15
 70
     1
102
RTVSPropertyOp16
 70
     1
102
RTVSPropertyOp17
 70
     1
102
RTVSPropertyOp18
 70
     1
102
RTVSPropertyOp19
 70
     1
102
RTVSPropertyOp20
 70
     1
102
RTVSPropertyOp21
 70
     1
102
RTVSPropertyOp22
 70
     1
102
RTVSPropertyOp23
 70
     1
102
RTVSPropertyOp24
 70
     1
102
RTVSPropertyOp25
 70
     1
102
RTVSPropertyOp26
 70
     1
102
RTVSPropertyOp27
 70
     1
102
RTVSPropertyOp28
 70
     1
102
RTVSPropertyOp29
 70
     1
102
RTVSPropertyOp30
 70
     1
102
RTVSPropertyOp31
 70
     1
102
RTVSPropertyOp32
 70
     1
102
RTVSPropertyOp33
 70
     1
102
RTVSPropertyOp34
 70
     1
102
RTVSPropertyOp35
 70
     1
102
RTVSPropertyOp36
 70
     1
102
RTVSPropertyOp37
 70
     1
102
RTVSPropertyOp38
 70
     1
102
RTVSPropertyOp39
 70
     1
102
RTVSPropertyOp40
 70
     1
102
RTVSPropertyOp41
 70
     1
102
RTVSPropertyOp42
 70
     1
102
RTVSPropertyOp43
 70
     1
102
RTVSPropertyOp44
 70
     1
102
RTVSPropertyOp45
 70
     1
102
RTVSPropertyOp46
 70
     1
102
RTVSPropertyOp47
 70
     1
102
RTVSPropertyOp48
 70
     1
102
RTVSPropertyOp49
 70
     1
102
RTVSPropertyOp50
 70
     1
102
RTVSPropertyOp51
 70
     0
102
RTVSPropertyOp52
 70
     0
102
RTVSPropertyOp53
 70
     1
102
RTVSPropertyOp54
 70
     1
102
RTVSPropertyOp55
 70
     1
102
RTVSPropertyOp56
 70
     1
102
RTVSPropertyOp57
 70
     1
102
RTVSPropertyOp58
 70
     1
102
RTVSPropertyOp59
 70
     1
102
RTVSPropertyOp60
 70
     1
102
RTVSPropertyOp61
 70
     1
102
RTVSPropertyOp62
 70
     1
  0
XRECORD
  5
49C
102
{ACAD_REACTORS
330
49B
102
}
330
49B
100
AcDbXrecord
280
     1
102
RTVSPost2010Prop28
280
     0
102
RTVSPost2010PropOp28
 70
     1
102
RTVSPost2010Prop29
280
     1
102
RTVSPost2010PropOp29
 70
     1
102
RTVSPost2010Prop30
280
     1
102
RTVSPost2010PropOp30
 70
     1
102
RTVSPost2010Prop31
280
     0
102
RTVSPost2010PropOp31
 70
     1
102
RTVSPost2010Prop32
280
     0
102
RTVSPost2010PropOp32
 70
     1
102
RTVSPost2010Prop33
280
     0
102
RTVSPost2010PropOp33
 70
     1
102
RTVSPost2010Prop34
280
     0
102
RTVSPost2010PropOp34
 70
     1
102
RTVSPost2010Prop35
280
     0
102
RTVSPost2010PropOp35
 70
     1
102
RTVSPost2010Prop36
280
     0
102
RTVSPost2010PropOp36
 70
     1
102
RTVSPost2010Prop37
 90
       50
102
RTVSPost2010PropOp37
 70
     1
102
RTVSPost2010Prop38
140
0.0
102
RTVSPost2010PropOp38
 70
     1
102
RTVSPost2010Prop39
140
1.0
102
RTVSPost2010PropOp39
 70
     1
102
RTVSPost2010Prop40
 90
        0
102
RTVSPost2010PropOp40
 70
     1
102
RTVSPost2010Prop41ColorIndex
 90
       18
102
RTVSPost2010Prop41ColorRGB
 90
        0
102
RTVSPost2010PropOp41
 70
     1
102
RTVSPost2010Prop42
 90
       50
102
RTVSPost2010PropOp42
 70
     1
102
RTVSPost2010Prop43
 90
        3
102
RTVSPost2010PropOp43
 70
     1
102
RTVSPost2010Prop44ColorIndex
 90
        5
102
RTVSPost2010Prop44ColorRGB
 90
      255
102
RTVSPost2010PropOp44
 70
     1
102
RTVSPost2010Prop45
280
     0
102
RTVSPost2010PropOp45
 70
     1
102
RTVSPost2010Prop46
 90
       50
102
RTVSPost2010PropOp46
 70
     1
102
RTVSPost2010Prop47
 90
       50
102
RTVSPost2010PropOp47
 70
     1
102
RTVSPost2010Prop48
 90
       50
102
RTVSPost2010PropOp48
 70
     1
102
RTVSPost2010Prop49
280
     0
102
RTVSPost2010PropOp49
 70
     1
102
RTVSPost2010Prop50
 90
       50
102
RTVSPost2010PropOp50
 70
     1
102
RTVSPost2010Prop51ColorIndex
 90
      256
102
RTVSPost2010Prop51ColorRGB
 90
-16777216
102
RTVSPost2010PropOp51
 70
     0
102
RTVSPost2010Prop52
140
1.0
102
RTVSPost2010PropOp52
 70
     0
102
RTVSPost2010Prop53
 90
        2
102
RTVSPost2010PropOp53
 70
     1
102
RTVSPost2010Prop54
  1
strokes_ogs.tif
102
RTVSPost2010PropOp54
 70
     1
102
RTVSPost2010Prop55
280
     0
102
RTVSPost2010PropOp55
 70
     1
102
RTVSPost2010Prop56
140
1.0
102
RTVSPost2010PropOp56
 70
     1
102
RTVSPost2010Prop57
140
1.0
102
RTVSPost2010PropOp57
 70
     1
102
RTVSPropertyOp0
 70
     1
102
RTVSPropertyOp1
 70
     1
102
RTVSPropertyOp2
 70
     1
102
RTVSPropertyOp3
 70
     1
102
RTVSPropertyOp4
 70
     1
102
RTVSPropertyOp5
 70
     1
102
RTVSPropertyOp6
 70
     1
102
RTVSPropertyOp7
 70
     1
102
RTVSPropertyOp8
 70
     1
102
RTVSPropertyOp9
 70
     1
102
RTVSPropertyOp10
 70
     1
102
RTVSPropertyOp11
 70
     1
102
RTVSPropertyOp12
 70
     1
102
RTVSPropertyOp13
 70
     1
102
RTVSPropertyOp14
 70
     1
102
RTVSPropertyOp15
 70
     1
102
RTVSPropertyOp16
 70
     1
102
RTVSPropertyOp17
 70
     1
102
RTVSPropertyOp18
 70
     1
102
RTVSPropertyOp19
 70
     1
102
RTVSPropertyOp20
 70
     1
102
RTVSPropertyOp21
 70
     1
102
RTVSPropertyOp22
 70
     1
102
RTVSPropertyOp23
 70
     1
102
RTVSPropertyOp24
 70
     1
102
RTVSPropertyOp25
 70
     1
102
RTVSPropertyOp26
 70
     1
102
RTVSPropertyOp27
 70
     1
102
RTVSPropertyOp28
 70
     1
102
RTVSPropertyOp29
 70
     1
102
RTVSPropertyOp30
 70
     1
102
RTVSPropertyOp31
 70
     1
102
RTVSPropertyOp32
 70
     1
102
RTVSPropertyOp33
 70
     1
102
RTVSPropertyOp34
 70
     1
102
RTVSPropertyOp35
 70
     1
102
RTVSPropertyOp36
 70
     1
102
RTVSPropertyOp37
 70
     1
102
RTVSPropertyOp38
 70
     1
102
RTVSPropertyOp39
 70
     1
102
RTVSPropertyOp40
 70
     1
102
RTVSPropertyOp41
 70
     1
102
RTVSPropertyOp42
 70
     1
102
RTVSPropertyOp43
 70
     1
102
RTVSPropertyOp44
 70
     1
102
RTVSPropertyOp45
 70
     1
102
RTVSPropertyOp46
 70
     1
102
RTVSPropertyOp47
 70
     1
102
RTVSPropertyOp48
 70
     1
102
RTVSPropertyOp49
 70
     1
102
RTVSPropertyOp50
 70
     1
102
RTVSPropertyOp51
 70
     0
102
RTVSPropertyOp52
 70
     0
102
RTVSPropertyOp53
 70
     1
102
RTVSPropertyOp54
 70
     1
102
RTVSPropertyOp55
 70
     1
102
RTVSPropertyOp56
 70
     1
102
RTVSPropertyOp57
 70
     1
102
RTVSPropertyOp58
 70
     1
102
RTVSPropertyOp59
 70
     1
102
RTVSPropertyOp60
 70
     1
102
RTVSPropertyOp61
 70
     1
102
RTVSPropertyOp62
 70
     1
  0
XRECORD
  5
4AA
102
{ACAD_REACTORS
330
4A9
102
}
330
4A9
100
AcDbXrecord
280
     1
102
RTVSPost2010Prop28
280
     0
102
RTVSPost2010PropOp28
 70
     1
102
RTVSPost2010Prop29
280
     1
102
RTVSPost2010PropOp29
 70
     1
102
RTVSPost2010Prop30
280
     1
102
RTVSPost2010PropOp30
 70
     1
102
RTVSPost2010Prop31
280
     0
102
RTVSPost2010PropOp31
 70
     1
102
RTVSPost2010Prop32
280
     0
102
RTVSPost2010PropOp32
 70
     1
102
RTVSPost2010Prop33
280
     0
102
RTVSPost2010PropOp33
 70
     1
102
RTVSPost2010Prop34
280
     0
102
RTVSPost2010PropOp34
 70
     1
102
RTVSPost2010Prop35
280
     0
102
RTVSPost2010PropOp35
 70
     1
102
RTVSPost2010Prop36
280
     0
102
RTVSPost2010PropOp36
 70
     1
102
RTVSPost2010Prop37
 90
       50
102
RTVSPost2010PropOp37
 70
     1
102
RTVSPost2010Prop38
140
0.0
102
RTVSPost2010PropOp38
 70
     1
102
RTVSPost2010Prop39
140
1.0
102
RTVSPost2010PropOp39
 70
     1
102
RTVSPost2010Prop40
 90
        0
102
RTVSPost2010PropOp40
 70
     1
102
RTVSPost2010Prop41ColorIndex
 90
       18
102
RTVSPost2010Prop41ColorRGB
 90
        0
102
RTVSPost2010PropOp41
 70
     1
102
RTVSPost2010Prop42
 90
       50
102
RTVSPost2010PropOp42
 70
     1
102
RTVSPost2010Prop43
 90
        3
102
RTVSPost2010PropOp43
 70
     1
102
RTVSPost2010Prop44ColorIndex
 90
        5
102
RTVSPost2010Prop44ColorRGB
 90
      255
102
RTVSPost2010PropOp44
 70
     1
102
RTVSPost2010Prop45
280
     0
102
RTVSPost2010PropOp45
 70
     1
102
RTVSPost2010Prop46
 90
       50
102
RTVSPost2010PropOp46
 70
     1
102
RTVSPost2010Prop47
 90
       50
102
RTVSPost2010PropOp47
 70
     1
102
RTVSPost2010Prop48
 90
       50
102
RTVSPost2010PropOp48
 70
     1
102
RTVSPost2010Prop49
280
     0
102
RTVSPost2010PropOp49
 70
     1
102
RTVSPost2010Prop50
 90
       50
102
RTVSPost2010PropOp50
 70
     1
102
RTVSPost2010Prop51ColorIndex
 90
      256
102
RTVSPost2010Prop51ColorRGB
 90
-16777216
102
RTVSPost2010PropOp51
 70
     0
102
RTVSPost2010Prop52
140
1.0
102
RTVSPost2010PropOp52
 70
     0
102
RTVSPost2010Prop53
 90
        2
102
RTVSPost2010PropOp53
 70
     1
102
RTVSPost2010Prop54
  1
strokes_ogs.tif
102
RTVSPost2010PropOp54
 70
     1
102
RTVSPost2010Prop55
280
     0
102
RTVSPost2010PropOp55
 70
     1
102
RTVSPost2010Prop56
140
1.0
102
RTVSPost2010PropOp56
 70
     1
102
RTVSPost2010Prop57
140
1.0
102
RTVSPost2010PropOp57
 70
     1
102
RTVSPropertyOp0
 70
     1
102
RTVSPropertyOp1
 70
     1
102
RTVSPropertyOp2
 70
     1
102
RTVSPropertyOp3
 70
     1
102
RTVSPropertyOp4
 70
     1
102
RTVSPropertyOp5
 70
     1
102
RTVSPropertyOp6
 70
     1
102
RTVSPropertyOp7
 70
     1
102
RTVSPropertyOp8
 70
     1
102
RTVSPropertyOp9
 70
     1
102
RTVSPropertyOp10
 70
     1
102
RTVSPropertyOp11
 70
     1
102
RTVSPropertyOp12
 70
     1
102
RTVSPropertyOp13
 70
     1
102
RTVSPropertyOp14
 70
     1
102
RTVSPropertyOp15
 70
     1
102
RTVSPropertyOp16
 70
     1
102
RTVSPropertyOp17
 70
     1
102
RTVSPropertyOp18
 70
     1
102
RTVSPropertyOp19
 70
     1
102
RTVSPropertyOp20
 70
     1
102
RTVSPropertyOp21
 70
     1
102
RTVSPropertyOp22
 70
     1
102
RTVSPropertyOp23
 70
     1
102
RTVSPropertyOp24
 70
     1
102
RTVSPropertyOp25
 70
     1
102
RTVSPropertyOp26
 70
     1
102
RTVSPropertyOp27
 70
     1
102
RTVSPropertyOp28
 70
     1
102
RTVSPropertyOp29
 70
     1
102
RTVSPropertyOp30
 70
     1
102
RTVSPropertyOp31
 70
     1
102
RTVSPropertyOp32
 70
     1
102
RTVSPropertyOp33
 70
     1
102
RTVSPropertyOp34
 70
     1
102
RTVSPropertyOp35
 70
     1
102
RTVSPropertyOp36
 70
     1
102
RTVSPropertyOp37
 70
     1
102
RTVSPropertyOp38
 70
     1
102
RTVSPropertyOp39
 70
     1
102
RTVSPropertyOp40
 70
     1
102
RTVSPropertyOp41
 70
     1
102
RTVSPropertyOp42
 70
     1
102
RTVSPropertyOp43
 70
     1
102
RTVSPropertyOp44
 70
     1
102
RTVSPropertyOp45
 70
     1
102
RTVSPropertyOp46
 70
     1
102
RTVSPropertyOp47
 70
     1
102
RTVSPropertyOp48
 70
     1
102
RTVSPropertyOp49
 70
     1
102
RTVSPropertyOp50
 70
     1
102
RTVSPropertyOp51
 70
     0
102
RTVSPropertyOp52
 70
     0
102
RTVSPropertyOp53
 70
     1
102
RTVSPropertyOp54
 70
     1
102
RTVSPropertyOp55
 70
     1
102
RTVSPropertyOp56
 70
     1
102
RTVSPropertyOp57
 70
     1
102
RTVSPropertyOp58
 70
     1
102
RTVSPropertyOp59
 70
     1
102
RTVSPropertyOp60
 70
     1
102
RTVSPropertyOp61
 70
     1
102
RTVSPropertyOp62
 70
     1
  0
XRECORD
  5
4B2
102
{ACAD_REACTORS
330
4B1
102
}
330
4B1
100
AcDbXrecord
280
     1
102
RTVSPost2010Prop28
280
     0
102
RTVSPost2010PropOp28
 70
     1
102
RTVSPost2010Prop29
280
     1
102
RTVSPost2010PropOp29
 70
     1
102
RTVSPost2010Prop30
280
     1
102
RTVSPost2010PropOp30
 70
     1
102
RTVSPost2010Prop31
280
     0
102
RTVSPost2010PropOp31
 70
     1
102
RTVSPost2010Prop32
280
     0
102
RTVSPost2010PropOp32
 70
     1
102
RTVSPost2010Prop33
280
     0
102
RTVSPost2010PropOp33
 70
     1
102
RTVSPost2010Prop34
280
     0
102
RTVSPost2010PropOp34
 70
     1
102
RTVSPost2010Prop35
280
     0
102
RTVSPost2010PropOp35
 70
     1
102
RTVSPost2010Prop36
280
     0
102
RTVSPost2010PropOp36
 70
     1
102
RTVSPost2010Prop37
 90
       50
102
RTVSPost2010PropOp37
 70
     1
102
RTVSPost2010Prop38
140
0.0
102
RTVSPost2010PropOp38
 70
     1
102
RTVSPost2010Prop39
140
1.0
102
RTVSPost2010PropOp39
 70
     1
102
RTVSPost2010Prop40
 90
        0
102
RTVSPost2010PropOp40
 70
     1
102
RTVSPost2010Prop41ColorIndex
 90
       18
102
RTVSPost2010Prop41ColorRGB
 90
        0
102
RTVSPost2010PropOp41
 70
     1
102
RTVSPost2010Prop42
 90
       50
102
RTVSPost2010PropOp42
 70
     1
102
RTVSPost2010Prop43
 90
        3
102
RTVSPost2010PropOp43
 70
     1
102
RTVSPost2010Prop44ColorIndex
 90
        5
102
RTVSPost2010Prop44ColorRGB
 90
      255
102
RTVSPost2010PropOp44
 70
     1
102
RTVSPost2010Prop45
280
     0
102
RTVSPost2010PropOp45
 70
     1
102
RTVSPost2010Prop46
 90
       50
102
RTVSPost2010PropOp46
 70
     1
102
RTVSPost2010Prop47
 90
       50
102
RTVSPost2010PropOp47
 70
     1
102
RTVSPost2010Prop48
 90
       50
102
RTVSPost2010PropOp48
 70
     1
102
RTVSPost2010Prop49
280
     0
102
RTVSPost2010PropOp49
 70
     1
102
RTVSPost2010Prop50
 90
       50
102
RTVSPost2010PropOp50
 70
     1
102
RTVSPost2010Prop51ColorIndex
 90
      256
102
RTVSPost2010Prop51ColorRGB
 90
-16777216
102
RTVSPost2010PropOp51
 70
     0
102
RTVSPost2010Prop52
140
1.0
102
RTVSPost2010PropOp52
 70
     0
102
RTVSPost2010Prop53
 90
        2
102
RTVSPost2010PropOp53
 70
     1
102
RTVSPost2010Prop54
  1
strokes_ogs.tif
102
RTVSPost2010PropOp54
 70
     1
102
RTVSPost2010Prop55
280
     0
102
RTVSPost2010PropOp55
 70
     1
102
RTVSPost2010Prop56
140
1.0
102
RTVSPost2010PropOp56
 70
     1
102
RTVSPost2010Prop57
140
1.0
102
RTVSPost2010PropOp57
 70
     1
102
RTVSPropertyOp0
 70
     1
102
RTVSPropertyOp1
 70
     1
102
RTVSPropertyOp2
 70
     1
102
RTVSPropertyOp3
 70
     1
102
RTVSPropertyOp4
 70
     1
102
RTVSPropertyOp5
 70
     1
102
RTVSPropertyOp6
 70
     1
102
RTVSPropertyOp7
 70
     1
102
RTVSPropertyOp8
 70
     1
102
RTVSPropertyOp9
 70
     1
102
RTVSPropertyOp10
 70
     1
102
RTVSPropertyOp11
 70
     1
102
RTVSPropertyOp12
 70
     1
102
RTVSPropertyOp13
 70
     1
102
RTVSPropertyOp14
 70
     1
102
RTVSPropertyOp15
 70
     1
102
RTVSPropertyOp16
 70
     1
102
RTVSPropertyOp17
 70
     1
102
RTVSPropertyOp18
 70
     1
102
RTVSPropertyOp19
 70
     1
102
RTVSPropertyOp20
 70
     1
102
RTVSPropertyOp21
 70
     1
102
RTVSPropertyOp22
 70
     1
102
RTVSPropertyOp23
 70
     1
102
RTVSPropertyOp24
 70
     1
102
RTVSPropertyOp25
 70
     1
102
RTVSPropertyOp26
 70
     1
102
RTVSPropertyOp27
 70
     1
102
RTVSPropertyOp28
 70
     1
102
RTVSPropertyOp29
 70
     1
102
RTVSPropertyOp30
 70
     1
102
RTVSPropertyOp31
 70
     1
102
RTVSPropertyOp32
 70
     1
102
RTVSPropertyOp33
 70
     1
102
RTVSPropertyOp34
 70
     1
102
RTVSPropertyOp35
 70
     1
102
RTVSPropertyOp36
 70
     1
102
RTVSPropertyOp37
 70
     1
102
RTVSPropertyOp38
 70
     1
102
RTVSPropertyOp39
 70
     1
102
RTVSPropertyOp40
 70
     1
102
RTVSPropertyOp41
 70
     1
102
RTVSPropertyOp42
 70
     1
102
RTVSPropertyOp43
 70
     1
102
RTVSPropertyOp44
 70
     1
102
RTVSPropertyOp45
 70
     1
102
RTVSPropertyOp46
 70
     1
102
RTVSPropertyOp47
 70
     1
102
RTVSPropertyOp48
 70
     1
102
RTVSPropertyOp49
 70
     1
102
RTVSPropertyOp50
 70
     1
102
RTVSPropertyOp51
 70
     0
102
RTVSPropertyOp52
 70
     0
102
RTVSPropertyOp53
 70
     1
102
RTVSPropertyOp54
 70
     1
102
RTVSPropertyOp55
 70
     1
102
RTVSPropertyOp56
 70
     1
102
RTVSPropertyOp57
 70
     1
102
RTVSPropertyOp58
 70
     1
102
RTVSPropertyOp59
 70
     1
102
RTVSPropertyOp60
 70
     1
102
RTVSPropertyOp61
 70
     1
102
RTVSPropertyOp62
 70
     1
  0
XRECORD
  5
4A4
102
{ACAD_REACTORS
330
4A3
102
}
330
4A3
100
AcDbXrecord
280
     1
102
RTVSPost2010Prop28
280
     0
102
RTVSPost2010PropOp28
 70
     1
102
RTVSPost2010Prop29
280
     1
102
RTVSPost2010PropOp29
 70
     1
102
RTVSPost2010Prop30
280
     1
102
RTVSPost2010PropOp30
 70
     1
102
RTVSPost2010Prop31
280
     0
102
RTVSPost2010PropOp31
 70
     1
102
RTVSPost2010Prop32
280
     0
102
RTVSPost2010PropOp32
 70
     1
102
RTVSPost2010Prop33
280
     0
102
RTVSPost2010PropOp33
 70
     1
102
RTVSPost2010Prop34
280
     0
102
RTVSPost2010PropOp34
 70
     1
102
RTVSPost2010Prop35
280
     0
102
RTVSPost2010PropOp35
 70
     1
102
RTVSPost2010Prop36
280
     0
102
RTVSPost2010PropOp36
 70
     1
102
RTVSPost2010Prop37
 90
       50
102
RTVSPost2010PropOp37
 70
     1
102
RTVSPost2010Prop38
140
0.0
102
RTVSPost2010PropOp38
 70
     1
102
RTVSPost2010Prop39
140
1.0
102
RTVSPost2010PropOp39
 70
     1
102
RTVSPost2010Prop40
 90
        0
102
RTVSPost2010PropOp40
 70
     1
102
RTVSPost2010Prop41ColorIndex
 90
       18
102
RTVSPost2010Prop41ColorRGB
 90
        0
102
RTVSPost2010PropOp41
 70
     1
102
RTVSPost2010Prop42
 90
       50
102
RTVSPost2010PropOp42
 70
     1
102
RTVSPost2010Prop43
 90
        3
102
RTVSPost2010PropOp43
 70
     1
102
RTVSPost2010Prop44ColorIndex
 90
        5
102
RTVSPost2010Prop44ColorRGB
 90
      255
102
RTVSPost2010PropOp44
 70
     1
102
RTVSPost2010Prop45
280
     0
102
RTVSPost2010PropOp45
 70
     1
102
RTVSPost2010Prop46
 90
       50
102
RTVSPost2010PropOp46
 70
     1
102
RTVSPost2010Prop47
 90
       50
102
RTVSPost2010PropOp47
 70
     1
102
RTVSPost2010Prop48
 90
       50
102
RTVSPost2010PropOp48
 70
     1
102
RTVSPost2010Prop49
280
     0
102
RTVSPost2010PropOp49
 70
     1
102
RTVSPost2010Prop50
 90
       50
102
RTVSPost2010PropOp50
 70
     1
102
RTVSPost2010Prop51ColorIndex
 90
      256
102
RTVSPost2010Prop51ColorRGB
 90
-16777216
102
RTVSPost2010PropOp51
 70
     0
102
RTVSPost2010Prop52
140
1.0
102
RTVSPost2010PropOp52
 70
     0
102
RTVSPost2010Prop53
 90
        2
102
RTVSPost2010PropOp53
 70
     1
102
RTVSPost2010Prop54
  1
strokes_ogs.tif
102
RTVSPost2010PropOp54
 70
     1
102
RTVSPost2010Prop55
280
     0
102
RTVSPost2010PropOp55
 70
     1
102
RTVSPost2010Prop56
140
1.0
102
RTVSPost2010PropOp56
 70
     1
102
RTVSPost2010Prop57
140
1.0
102
RTVSPost2010PropOp57
 70
     1
102
RTVSPropertyOp0
 70
     1
102
RTVSPropertyOp1
 70
     1
102
RTVSPropertyOp2
 70
     1
102
RTVSPropertyOp3
 70
     1
102
RTVSPropertyOp4
 70
     1
102
RTVSPropertyOp5
 70
     1
102
RTVSPropertyOp6
 70
     1
102
RTVSPropertyOp7
 70
     1
102
RTVSPropertyOp8
 70
     1
102
RTVSPropertyOp9
 70
     1
102
RTVSPropertyOp10
 70
     1
102
RTVSPropertyOp11
 70
     1
102
RTVSPropertyOp12
 70
     1
102
RTVSPropertyOp13
 70
     1
102
RTVSPropertyOp14
 70
     1
102
RTVSPropertyOp15
 70
     1
102
RTVSPropertyOp16
 70
     1
102
RTVSPropertyOp17
 70
     1
102
RTVSPropertyOp18
 70
     1
102
RTVSPropertyOp19
 70
     1
102
RTVSPropertyOp20
 70
     1
102
RTVSPropertyOp21
 70
     1
102
RTVSPropertyOp22
 70
     1
102
RTVSPropertyOp23
 70
     1
102
RTVSPropertyOp24
 70
     1
102
RTVSPropertyOp25
 70
     1
102
RTVSPropertyOp26
 70
     1
102
RTVSPropertyOp27
 70
     1
102
RTVSPropertyOp28
 70
     1
102
RTVSPropertyOp29
 70
     1
102
RTVSPropertyOp30
 70
     1
102
RTVSPropertyOp31
 70
     1
102
RTVSPropertyOp32
 70
     1
102
RTVSPropertyOp33
 70
     1
102
RTVSPropertyOp34
 70
     1
102
RTVSPropertyOp35
 70
     1
102
RTVSPropertyOp36
 70
     1
102
RTVSPropertyOp37
 70
     1
102
RTVSPropertyOp38
 70
     1
102
RTVSPropertyOp39
 70
     1
102
RTVSPropertyOp40
 70
     1
102
RTVSPropertyOp41
 70
     1
102
RTVSPropertyOp42
 70
     1
102
RTVSPropertyOp43
 70
     1
102
RTVSPropertyOp44
 70
     1
102
RTVSPropertyOp45
 70
     1
102
RTVSPropertyOp46
 70
     1
102
RTVSPropertyOp47
 70
     1
102
RTVSPropertyOp48
 70
     1
102
RTVSPropertyOp49
 70
     1
102
RTVSPropertyOp50
 70
     1
102
RTVSPropertyOp51
 70
     0
102
RTVSPropertyOp52
 70
     0
102
RTVSPropertyOp53
 70
     1
102
RTVSPropertyOp54
 70
     1
102
RTVSPropertyOp55
 70
     1
102
RTVSPropertyOp56
 70
     1
102
RTVSPropertyOp57
 70
     1
102
RTVSPropertyOp58
 70
     1
102
RTVSPropertyOp59
 70
     1
102
RTVSPropertyOp60
 70
     1
102
RTVSPropertyOp61
 70
     1
102
RTVSPropertyOp62
 70
     1
  0
XRECORD
  5
4A8
102
{ACAD_REACTORS
330
4A7
102
}
330
4A7
100
AcDbXrecord
280
     1
102
RTVSPost2010Prop28
280
     0
102
RTVSPost2010PropOp28
 70
     1
102
RTVSPost2010Prop29
280
     1
102
RTVSPost2010PropOp29
 70
     1
102
RTVSPost2010Prop30
280
     1
102
RTVSPost2010PropOp30
 70
     1
102
RTVSPost2010Prop31
280
     0
102
RTVSPost2010PropOp31
 70
     1
102
RTVSPost2010Prop32
280
     0
102
RTVSPost2010PropOp32
 70
     1
102
RTVSPost2010Prop33
280
     0
102
RTVSPost2010PropOp33
 70
     1
102
RTVSPost2010Prop34
280
     0
102
RTVSPost2010PropOp34
 70
     1
102
RTVSPost2010Prop35
280
     0
102
RTVSPost2010PropOp35
 70
     1
102
RTVSPost2010Prop36
280
     0
102
RTVSPost2010PropOp36
 70
     1
102
RTVSPost2010Prop37
 90
       50
102
RTVSPost2010PropOp37
 70
     1
102
RTVSPost2010Prop38
140
0.0
102
RTVSPost2010PropOp38
 70
     1
102
RTVSPost2010Prop39
140
1.0
102
RTVSPost2010PropOp39
 70
     1
102
RTVSPost2010Prop40
 90
        0
102
RTVSPost2010PropOp40
 70
     1
102
RTVSPost2010Prop41ColorIndex
 90
       18
102
RTVSPost2010Prop41ColorRGB
 90
        0
102
RTVSPost2010PropOp41
 70
     1
102
RTVSPost2010Prop42
 90
       50
102
RTVSPost2010PropOp42
 70
     1
102
RTVSPost2010Prop43
 90
        3
102
RTVSPost2010PropOp43
 70
     1
102
RTVSPost2010Prop44ColorIndex
 90
        5
102
RTVSPost2010Prop44ColorRGB
 90
      255
102
RTVSPost2010PropOp44
 70
     1
102
RTVSPost2010Prop45
280
     0
102
RTVSPost2010PropOp45
 70
     1
102
RTVSPost2010Prop46
 90
       50
102
RTVSPost2010PropOp46
 70
     1
102
RTVSPost2010Prop47
 90
       50
102
RTVSPost2010PropOp47
 70
     1
102
RTVSPost2010Prop48
 90
       50
102
RTVSPost2010PropOp48
 70
     1
102
RTVSPost2010Prop49
280
     0
102
RTVSPost2010PropOp49
 70
     1
102
RTVSPost2010Prop50
 90
       50
102
RTVSPost2010PropOp50
 70
     1
102
RTVSPost2010Prop51ColorIndex
 90
      256
102
RTVSPost2010Prop51ColorRGB
 90
-16777216
102
RTVSPost2010PropOp51
 70
     0
102
RTVSPost2010Prop52
140
1.0
102
RTVSPost2010PropOp52
 70
     0
102
RTVSPost2010Prop53
 90
        2
102
RTVSPost2010PropOp53
 70
     1
102
RTVSPost2010Prop54
  1
strokes_ogs.tif
102
RTVSPost2010PropOp54
 70
     1
102
RTVSPost2010Prop55
280
     0
102
RTVSPost2010PropOp55
 70
     1
102
RTVSPost2010Prop56
140
1.0
102
RTVSPost2010PropOp56
 70
     1
102
RTVSPost2010Prop57
140
1.0
102
RTVSPost2010PropOp57
 70
     1
102
RTVSPropertyOp0
 70
     1
102
RTVSPropertyOp1
 70
     1
102
RTVSPropertyOp2
 70
     1
102
RTVSPropertyOp3
 70
     1
102
RTVSPropertyOp4
 70
     1
102
RTVSPropertyOp5
 70
     1
102
RTVSPropertyOp6
 70
     1
102
RTVSPropertyOp7
 70
     1
102
RTVSPropertyOp8
 70
     1
102
RTVSPropertyOp9
 70
     1
102
RTVSPropertyOp10
 70
     1
102
RTVSPropertyOp11
 70
     1
102
RTVSPropertyOp12
 70
     1
102
RTVSPropertyOp13
 70
     1
102
RTVSPropertyOp14
 70
     1
102
RTVSPropertyOp15
 70
     1
102
RTVSPropertyOp16
 70
     1
102
RTVSPropertyOp17
 70
     1
102
RTVSPropertyOp18
 70
     1
102
RTVSPropertyOp19
 70
     1
102
RTVSPropertyOp20
 70
     1
102
RTVSPropertyOp21
 70
     1
102
RTVSPropertyOp22
 70
     1
102
RTVSPropertyOp23
 70
     1
102
RTVSPropertyOp24
 70
     1
102
RTVSPropertyOp25
 70
     1
102
RTVSPropertyOp26
 70
     1
102
RTVSPropertyOp27
 70
     1
102
RTVSPropertyOp28
 70
     1
102
RTVSPropertyOp29
 70
     1
102
RTVSPropertyOp30
 70
     1
102
RTVSPropertyOp31
 70
     1
102
RTVSPropertyOp32
 70
     1
102
RTVSPropertyOp33
 70
     1
102
RTVSPropertyOp34
 70
     1
102
RTVSPropertyOp35
 70
     1
102
RTVSPropertyOp36
 70
     1
102
RTVSPropertyOp37
 70
     1
102
RTVSPropertyOp38
 70
     1
102
RTVSPropertyOp39
 70
     1
102
RTVSPropertyOp40
 70
     1
102
RTVSPropertyOp41
 70
     1
102
RTVSPropertyOp42
 70
     1
102
RTVSPropertyOp43
 70
     1
102
RTVSPropertyOp44
 70
     1
102
RTVSPropertyOp45
 70
     1
102
RTVSPropertyOp46
 70
     1
102
RTVSPropertyOp47
 70
     1
102
RTVSPropertyOp48
 70
     1
102
RTVSPropertyOp49
 70
     1
102
RTVSPropertyOp50
 70
     1
102
RTVSPropertyOp51
 70
     0
102
RTVSPropertyOp52
 70
     0
102
RTVSPropertyOp53
 70
     1
102
RTVSPropertyOp54
 70
     1
102
RTVSPropertyOp55
 70
     1
102
RTVSPropertyOp56
 70
     1
102
RTVSPropertyOp57
 70
     1
102
RTVSPropertyOp58
 70
     1
102
RTVSPropertyOp59
 70
     1
102
RTVSPropertyOp60
 70
     1
102
RTVSPropertyOp61
 70
     1
102
RTVSPropertyOp62
 70
     1
  0
XRECORD
  5
4C2
102
{ACAD_REACTORS
330
4C1
102
}
330
4C1
100
AcDbXrecord
280
     1
102
RTVSPost2010Prop28
280
     0
102
RTVSPost2010PropOp28
 70
     1
102
RTVSPost2010Prop29
280
     1
102
RTVSPost2010PropOp29
 70
     1
102
RTVSPost2010Prop30
280
     1
102
RTVSPost2010PropOp30
 70
     1
102
RTVSPost2010Prop31
280
     0
102
RTVSPost2010PropOp31
 70
     1
102
RTVSPost2010Prop32
280
     0
102
RTVSPost2010PropOp32
 70
     1
102
RTVSPost2010Prop33
280
     0
102
RTVSPost2010PropOp33
 70
     1
102
RTVSPost2010Prop34
280
     0
102
RTVSPost2010PropOp34
 70
     1
102
RTVSPost2010Prop35
280
     0
102
RTVSPost2010PropOp35
 70
     1
102
RTVSPost2010Prop36
280
     0
102
RTVSPost2010PropOp36
 70
     1
102
RTVSPost2010Prop37
 90
       50
102
RTVSPost2010PropOp37
 70
     0
102
RTVSPost2010Prop38
140
0.0
102
RTVSPost2010PropOp38
 70
     0
102
RTVSPost2010Prop39
140
1.0
102
RTVSPost2010PropOp39
 70
     0
102
RTVSPost2010Prop40
 90
        0
102
RTVSPost2010PropOp40
 70
     0
102
RTVSPost2010Prop41ColorIndex
 90
       18
102
RTVSPost2010Prop41ColorRGB
 90
        0
102
RTVSPost2010PropOp41
 70
     0
102
RTVSPost2010Prop42
 90
       50
102
RTVSPost2010PropOp42
 70
     0
102
RTVSPost2010Prop43
 90
        3
102
RTVSPost2010PropOp43
 70
     0
102
RTVSPost2010Prop44ColorIndex
 90
        5
102
RTVSPost2010Prop44ColorRGB
 90
      255
102
RTVSPost2010PropOp44
 70
     0
102
RTVSPost2010Prop45
280
     0
102
RTVSPost2010PropOp45
 70
     1
102
RTVSPost2010Prop46
 90
       50
102
RTVSPost2010PropOp46
 70
     0
102
RTVSPost2010Prop47
 90
       50
102
RTVSPost2010PropOp47
 70
     0
102
RTVSPost2010Prop48
 90
       50
102
RTVSPost2010PropOp48
 70
     0
102
RTVSPost2010Prop49
280
     0
102
RTVSPost2010PropOp49
 70
     1
102
RTVSPost2010Prop50
 90
       50
102
RTVSPost2010PropOp50
 70
     0
102
RTVSPost2010Prop51ColorIndex
 90
      256
102
RTVSPost2010Prop51ColorRGB
 90
-16777216
102
RTVSPost2010PropOp51
 70
     0
102
RTVSPost2010Prop52
140
1.0
102
RTVSPost2010PropOp52
 70
     0
102
RTVSPost2010Prop53
 90
        2
102
RTVSPost2010PropOp53
 70
     0
102
RTVSPost2010Prop54
  1
strokes_ogs.tif
102
RTVSPost2010PropOp54
 70
     0
102
RTVSPost2010Prop55
280
     0
102
RTVSPost2010PropOp55
 70
     1
102
RTVSPost2010Prop56
140
1.0
102
RTVSPost2010PropOp56
 70
     0
102
RTVSPost2010Prop57
140
1.0
102
RTVSPost2010PropOp57
 70
     0
102
RTVSPropertyOp0
 70
     0
102
RTVSPropertyOp1
 70
     0
102
RTVSPropertyOp2
 70
     0
102
RTVSPropertyOp3
 70
     0
102
RTVSPropertyOp4
 70
     0
102
RTVSPropertyOp5
 70
     0
102
RTVSPropertyOp6
 70
     0
102
RTVSPropertyOp7
 70
     0
102
RTVSPropertyOp8
 70
     0
102
RTVSPropertyOp9
 70
     0
102
RTVSPropertyOp10
 70
     0
102
RTVSPropertyOp11
 70
     0
102
RTVSPropertyOp12
 70
     0
102
RTVSPropertyOp13
 70
     0
102
RTVSPropertyOp14
 70
     2
102
RTVSPropertyOp15
 70
     0
102
RTVSPropertyOp16
 70
     0
102
RTVSPropertyOp17
 70
     0
102
RTVSPropertyOp18
 70
     0
102
RTVSPropertyOp19
 70
     0
102
RTVSPropertyOp20
 70
     0
102
RTVSPropertyOp21
 70
     0
102
RTVSPropertyOp22
 70
     0
102
RTVSPropertyOp23
 70
     0
102
RTVSPropertyOp24
 70
     0
102
RTVSPropertyOp25
 70
     0
102
RTVSPropertyOp26
 70
     0
102
RTVSPropertyOp27
 70
     0
102
RTVSPropertyOp28
 70
     1
102
RTVSPropertyOp29
 70
     1
102
RTVSPropertyOp30
 70
     1
102
RTVSPropertyOp31
 70
     1
102
RTVSPropertyOp32
 70
     1
102
RTVSPropertyOp33
 70
     1
102
RTVSPropertyOp34
 70
     1
102
RTVSPropertyOp35
 70
     1
102
RTVSPropertyOp36
 70
     1
102
RTVSPropertyOp37
 70
     0
102
RTVSPropertyOp38
 70
     0
102
RTVSPropertyOp39
 70
     0
102
RTVSPropertyOp40
 70
     0
102
RTVSPropertyOp41
 70
     0
102
RTVSPropertyOp42
 70
     0
102
RTVSPropertyOp43
 70
     0
102
RTVSPropertyOp44
 70
     0
102
RTVSPropertyOp45
 70
     1
102
RTVSPropertyOp46
 70
     0
102
RTVSPropertyOp47
 70
     0
102
RTVSPropertyOp48
 70
     0
102
RTVSPropertyOp49
 70
     1
102
RTVSPropertyOp50
 70
     0
102
RTVSPropertyOp51
 70
     0
102
RTVSPropertyOp52
 70
     0
102
RTVSPropertyOp53
 70
     0
102
RTVSPropertyOp54
 70
     0
102
RTVSPropertyOp55
 70
     1
102
RTVSPropertyOp56
 70
     0
102
RTVSPropertyOp57
 70
     0
102
RTVSPropertyOp58
 70
     1
102
RTVSPropertyOp59
 70
     1
102
RTVSPropertyOp60
 70
     1
102
RTVSPropertyOp61
 70
     1
102
RTVSPropertyOp62
 70
     1
  0
XRECORD
  5
4B0
102
{ACAD_REACTORS
330
4AF
102
}
330
4AF
100
AcDbXrecord
280
     1
102
RTVSPost2010Prop28
280
     0
102
RTVSPost2010PropOp28
 70
     1
102
RTVSPost2010Prop29
280
     1
102
RTVSPost2010PropOp29
 70
     1
102
RTVSPost2010Prop30
280
     1
102
RTVSPost2010PropOp30
 70
     1
102
RTVSPost2010Prop31
280
     0
102
RTVSPost2010PropOp31
 70
     1
102
RTVSPost2010Prop32
280
     0
102
RTVSPost2010PropOp32
 70
     1
102
RTVSPost2010Prop33
280
     0
102
RTVSPost2010PropOp33
 70
     1
102
RTVSPost2010Prop34
280
     0
102
RTVSPost2010PropOp34
 70
     1
102
RTVSPost2010Prop35
280
     0
102
RTVSPost2010PropOp35
 70
     1
102
RTVSPost2010Prop36
280
     0
102
RTVSPost2010PropOp36
 70
     1
102
RTVSPost2010Prop37
 90
       50
102
RTVSPost2010PropOp37
 70
     1
102
RTVSPost2010Prop38
140
0.0
102
RTVSPost2010PropOp38
 70
     1
102
RTVSPost2010Prop39
140
1.0
102
RTVSPost2010PropOp39
 70
     1
102
RTVSPost2010Prop40
 90
        0
102
RTVSPost2010PropOp40
 70
     1
102
RTVSPost2010Prop41ColorIndex
 90
       18
102
RTVSPost2010Prop41ColorRGB
 90
        0
102
RTVSPost2010PropOp41
 70
     1
102
RTVSPost2010Prop42
 90
       50
102
RTVSPost2010PropOp42
 70
     1
102
RTVSPost2010Prop43
 90
        3
102
RTVSPost2010PropOp43
 70
     1
102
RTVSPost2010Prop44ColorIndex
 90
        5
102
RTVSPost2010Prop44ColorRGB
 90
      255
102
RTVSPost2010PropOp44
 70
     1
102
RTVSPost2010Prop45
280
     0
102
RTVSPost2010PropOp45
 70
     1
102
RTVSPost2010Prop46
 90
       50
102
RTVSPost2010PropOp46
 70
     1
102
RTVSPost2010Prop47
 90
       50
102
RTVSPost2010PropOp47
 70
     1
102
RTVSPost2010Prop48
 90
       50
102
RTVSPost2010PropOp48
 70
     1
102
RTVSPost2010Prop49
280
     0
102
RTVSPost2010PropOp49
 70
     1
102
RTVSPost2010Prop50
 90
       50
102
RTVSPost2010PropOp50
 70
     1
102
RTVSPost2010Prop51ColorIndex
 90
      256
102
RTVSPost2010Prop51ColorRGB
 90
-16777216
102
RTVSPost2010PropOp51
 70
     0
102
RTVSPost2010Prop52
140
1.0
102
RTVSPost2010PropOp52
 70
     0
102
RTVSPost2010Prop53
 90
        2
102
RTVSPost2010PropOp53
 70
     1
102
RTVSPost2010Prop54
  1
strokes_ogs.tif
102
RTVSPost2010PropOp54
 70
     1
102
RTVSPost2010Prop55
280
     0
102
RTVSPost2010PropOp55
 70
     1
102
RTVSPost2010Prop56
140
1.0
102
RTVSPost2010PropOp56
 70
     1
102
RTVSPost2010Prop57
140
1.0
102
RTVSPost2010PropOp57
 70
     1
102
RTVSPropertyOp0
 70
     1
102
RTVSPropertyOp1
 70
     1
102
RTVSPropertyOp2
 70
     1
102
RTVSPropertyOp3
 70
     1
102
RTVSPropertyOp4
 70
     1
102
RTVSPropertyOp5
 70
     1
102
RTVSPropertyOp6
 70
     1
102
RTVSPropertyOp7
 70
     1
102
RTVSPropertyOp8
 70
     1
102
RTVSPropertyOp9
 70
     1
102
RTVSPropertyOp10
 70
     1
102
RTVSPropertyOp11
 70
     1
102
RTVSPropertyOp12
 70
     1
102
RTVSPropertyOp13
 70
     1
102
RTVSPropertyOp14
 70
     1
102
RTVSPropertyOp15
 70
     1
102
RTVSPropertyOp16
 70
     1
102
RTVSPropertyOp17
 70
     1
102
RTVSPropertyOp18
 70
     1
102
RTVSPropertyOp19
 70
     1
102
RTVSPropertyOp20
 70
     1
102
RTVSPropertyOp21
 70
     1
102
RTVSPropertyOp22
 70
     1
102
RTVSPropertyOp23
 70
     1
102
RTVSPropertyOp24
 70
     1
102
RTVSPropertyOp25
 70
     1
102
RTVSPropertyOp26
 70
     1
102
RTVSPropertyOp27
 70
     1
102
RTVSPropertyOp28
 70
     1
102
RTVSPropertyOp29
 70
     1
102
RTVSPropertyOp30
 70
     1
102
RTVSPropertyOp31
 70
     1
102
RTVSPropertyOp32
 70
     1
102
RTVSPropertyOp33
 70
     1
102
RTVSPropertyOp34
 70
     1
102
RTVSPropertyOp35
 70
     1
102
RTVSPropertyOp36
 70
     1
102
RTVSPropertyOp37
 70
     1
102
RTVSPropertyOp38
 70
     1
102
RTVSPropertyOp39
 70
     1
102
RTVSPropertyOp40
 70
     1
102
RTVSPropertyOp41
 70
     1
102
RTVSPropertyOp42
 70
     1
102
RTVSPropertyOp43
 70
     1
102
RTVSPropertyOp44
 70
     1
102
RTVSPropertyOp45
 70
     1
102
RTVSPropertyOp46
 70
     1
102
RTVSPropertyOp47
 70
     1
102
RTVSPropertyOp48
 70
     1
102
RTVSPropertyOp49
 70
     1
102
RTVSPropertyOp50
 70
     1
102
RTVSPropertyOp51
 70
     0
102
RTVSPropertyOp52
 70
     0
102
RTVSPropertyOp53
 70
     1
102
RTVSPropertyOp54
 70
     1
102
RTVSPropertyOp55
 70
     1
102
RTVSPropertyOp56
 70
     1
102
RTVSPropertyOp57
 70
     1
102
RTVSPropertyOp58
 70
     1
102
RTVSPropertyOp59
 70
     1
102
RTVSPropertyOp60
 70
     1
102
RTVSPropertyOp61
 70
     1
102
RTVSPropertyOp62
 70
     1
  0
XRECORD
  5
494
102
{ACAD_REACTORS
330
493
102
}
330
493
100
AcDbXrecord
280
     1
102
RTVSPost2010Prop28
280
     0
102
RTVSPost2010PropOp28
 70
     1
102
RTVSPost2010Prop29
280
     1
102
RTVSPost2010PropOp29
 70
     1
102
RTVSPost2010Prop30
280
     1
102
RTVSPost2010PropOp30
 70
     1
102
RTVSPost2010Prop31
280
     0
102
RTVSPost2010PropOp31
 70
     1
102
RTVSPost2010Prop32
280
     0
102
RTVSPost2010PropOp32
 70
     1
102
RTVSPost2010Prop33
280
     0
102
RTVSPost2010PropOp33
 70
     1
102
RTVSPost2010Prop34
280
     0
102
RTVSPost2010PropOp34
 70
     1
102
RTVSPost2010Prop35
280
     0
102
RTVSPost2010PropOp35
 70
     1
102
RTVSPost2010Prop36
280
     0
102
RTVSPost2010PropOp36
 70
     1
102
RTVSPost2010Prop37
 90
       50
102
RTVSPost2010PropOp37
 70
     1
102
RTVSPost2010Prop38
140
0.0
102
RTVSPost2010PropOp38
 70
     1
102
RTVSPost2010Prop39
140
1.0
102
RTVSPost2010PropOp39
 70
     1
102
RTVSPost2010Prop40
 90
        0
102
RTVSPost2010PropOp40
 70
     1
102
RTVSPost2010Prop41ColorIndex
 90
       18
102
RTVSPost2010Prop41ColorRGB
 90
        0
102
RTVSPost2010PropOp41
 70
     1
102
RTVSPost2010Prop42
 90
       50
102
RTVSPost2010PropOp42
 70
     1
102
RTVSPost2010Prop43
 90
        3
102
RTVSPost2010PropOp43
 70
     1
102
RTVSPost2010Prop44ColorIndex
 90
        5
102
RTVSPost2010Prop44ColorRGB
 90
      255
102
RTVSPost2010PropOp44
 70
     1
102
RTVSPost2010Prop45
280
     0
102
RTVSPost2010PropOp45
 70
     1
102
RTVSPost2010Prop46
 90
       50
102
RTVSPost2010PropOp46
 70
     1
102
RTVSPost2010Prop47
 90
       50
102
RTVSPost2010PropOp47
 70
     1
102
RTVSPost2010Prop48
 90
       50
102
RTVSPost2010PropOp48
 70
     1
102
RTVSPost2010Prop49
280
     0
102
RTVSPost2010PropOp49
 70
     1
102
RTVSPost2010Prop50
 90
       50
102
RTVSPost2010PropOp50
 70
     1
102
RTVSPost2010Prop51ColorIndex
 90
      256
102
RTVSPost2010Prop51ColorRGB
 90
-16777216
102
RTVSPost2010PropOp51
 70
     0
102
RTVSPost2010Prop52
140
1.0
102
RTVSPost2010PropOp52
 70
     0
102
RTVSPost2010Prop53
 90
        2
102
RTVSPost2010PropOp53
 70
     1
102
RTVSPost2010Prop54
  1
strokes_ogs.tif
102
RTVSPost2010PropOp54
 70
     1
102
RTVSPost2010Prop55
280
     0
102
RTVSPost2010PropOp55
 70
     1
102
RTVSPost2010Prop56
140
1.0
102
RTVSPost2010PropOp56
 70
     1
102
RTVSPost2010Prop57
140
1.0
102
RTVSPost2010PropOp57
 70
     1
102
RTVSPropertyOp0
 70
     1
102
RTVSPropertyOp1
 70
     1
102
RTVSPropertyOp2
 70
     1
102
RTVSPropertyOp3
 70
     1
102
RTVSPropertyOp4
 70
     1
102
RTVSPropertyOp5
 70
     1
102
RTVSPropertyOp6
 70
     1
102
RTVSPropertyOp7
 70
     1
102
RTVSPropertyOp8
 70
     1
102
RTVSPropertyOp9
 70
     1
102
RTVSPropertyOp10
 70
     1
102
RTVSPropertyOp11
 70
     1
102
RTVSPropertyOp12
 70
     1
102
RTVSPropertyOp13
 70
     1
102
RTVSPropertyOp14
 70
     1
102
RTVSPropertyOp15
 70
     1
102
RTVSPropertyOp16
 70
     1
102
RTVSPropertyOp17
 70
     1
102
RTVSPropertyOp18
 70
     1
102
RTVSPropertyOp19
 70
     1
102
RTVSPropertyOp20
 70
     1
102
RTVSPropertyOp21
 70
     1
102
RTVSPropertyOp22
 70
     1
102
RTVSPropertyOp23
 70
     1
102
RTVSPropertyOp24
 70
     1
102
RTVSPropertyOp25
 70
     1
102
RTVSPropertyOp26
 70
     1
102
RTVSPropertyOp27
 70
     1
102
RTVSPropertyOp28
 70
     1
102
RTVSPropertyOp29
 70
     1
102
RTVSPropertyOp30
 70
     1
102
RTVSPropertyOp31
 70
     1
102
RTVSPropertyOp32
 70
     1
102
RTVSPropertyOp33
 70
     1
102
RTVSPropertyOp34
 70
     1
102
RTVSPropertyOp35
 70
     1
102
RTVSPropertyOp36
 70
     1
102
RTVSPropertyOp37
 70
     1
102
RTVSPropertyOp38
 70
     1
102
RTVSPropertyOp39
 70
     1
102
RTVSPropertyOp40
 70
     1
102
RTVSPropertyOp41
 70
     1
102
RTVSPropertyOp42
 70
     1
102
RTVSPropertyOp43
 70
     1
102
RTVSPropertyOp44
 70
     1
102
RTVSPropertyOp45
 70
     1
102
RTVSPropertyOp46
 70
     1
102
RTVSPropertyOp47
 70
     1
102
RTVSPropertyOp48
 70
     1
102
RTVSPropertyOp49
 70
     1
102
RTVSPropertyOp50
 70
     1
102
RTVSPropertyOp51
 70
     0
102
RTVSPropertyOp52
 70
     0
102
RTVSPropertyOp53
 70
     1
102
RTVSPropertyOp54
 70
     1
102
RTVSPropertyOp55
 70
     1
102
RTVSPropertyOp56
 70
     1
102
RTVSPropertyOp57
 70
     1
102
RTVSPropertyOp58
 70
     1
102
RTVSPropertyOp59
 70
     1
102
RTVSPropertyOp60
 70
     1
102
RTVSPropertyOp61
 70
     1
102
RTVSPropertyOp62
 70
     1
  0
XRECORD
  5
496
102
{ACAD_REACTORS
330
495
102
}
330
495
100
AcDbXrecord
280
     1
102
RTVSPost2010Prop28
280
     0
102
RTVSPost2010PropOp28
 70
     1
102
RTVSPost2010Prop29
280
     1
102
RTVSPost2010PropOp29
 70
     1
102
RTVSPost2010Prop30
280
     1
102
RTVSPost2010PropOp30
 70
     1
102
RTVSPost2010Prop31
280
     0
102
RTVSPost2010PropOp31
 70
     1
102
RTVSPost2010Prop32
280
     0
102
RTVSPost2010PropOp32
 70
     1
102
RTVSPost2010Prop33
280
     0
102
RTVSPost2010PropOp33
 70
     1
102
RTVSPost2010Prop34
280
     0
102
RTVSPost2010PropOp34
 70
     1
102
RTVSPost2010Prop35
280
     0
102
RTVSPost2010PropOp35
 70
     1
102
RTVSPost2010Prop36
280
     0
102
RTVSPost2010PropOp36
 70
     1
102
RTVSPost2010Prop37
 90
       50
102
RTVSPost2010PropOp37
 70
     1
102
RTVSPost2010Prop38
140
0.0
102
RTVSPost2010PropOp38
 70
     1
102
RTVSPost2010Prop39
140
1.0
102
RTVSPost2010PropOp39
 70
     1
102
RTVSPost2010Prop40
 90
        0
102
RTVSPost2010PropOp40
 70
     1
102
RTVSPost2010Prop41ColorIndex
 90
       18
102
RTVSPost2010Prop41ColorRGB
 90
        0
102
RTVSPost2010PropOp41
 70
     1
102
RTVSPost2010Prop42
 90
       50
102
RTVSPost2010PropOp42
 70
     1
102
RTVSPost2010Prop43
 90
        3
102
RTVSPost2010PropOp43
 70
     1
102
RTVSPost2010Prop44ColorIndex
 90
        5
102
RTVSPost2010Prop44ColorRGB
 90
      255
102
RTVSPost2010PropOp44
 70
     1
102
RTVSPost2010Prop45
280
     0
102
RTVSPost2010PropOp45
 70
     1
102
RTVSPost2010Prop46
 90
       50
102
RTVSPost2010PropOp46
 70
     1
102
RTVSPost2010Prop47
 90
       50
102
RTVSPost2010PropOp47
 70
     1
102
RTVSPost2010Prop48
 90
       50
102
RTVSPost2010PropOp48
 70
     1
102
RTVSPost2010Prop49
280
     0
102
RTVSPost2010PropOp49
 70
     1
102
RTVSPost2010Prop50
 90
       50
102
RTVSPost2010PropOp50
 70
     1
102
RTVSPost2010Prop51ColorIndex
 90
      256
102
RTVSPost2010Prop51ColorRGB
 90
-16777216
102
RTVSPost2010PropOp51
 70
     0
102
RTVSPost2010Prop52
140
1.0
102
RTVSPost2010PropOp52
 70
     0
102
RTVSPost2010Prop53
 90
        2
102
RTVSPost2010PropOp53
 70
     1
102
RTVSPost2010Prop54
  1
strokes_ogs.tif
102
RTVSPost2010PropOp54
 70
     1
102
RTVSPost2010Prop55
280
     0
102
RTVSPost2010PropOp55
 70
     1
102
RTVSPost2010Prop56
140
1.0
102
RTVSPost2010PropOp56
 70
     1
102
RTVSPost2010Prop57
140
1.0
102
RTVSPost2010PropOp57
 70
     1
102
RTVSPropertyOp0
 70
     1
102
RTVSPropertyOp1
 70
     1
102
RTVSPropertyOp2
 70
     1
102
RTVSPropertyOp3
 70
     1
102
RTVSPropertyOp4
 70
     1
102
RTVSPropertyOp5
 70
     1
102
RTVSPropertyOp6
 70
     1
102
RTVSPropertyOp7
 70
     1
102
RTVSPropertyOp8
 70
     1
102
RTVSPropertyOp9
 70
     1
102
RTVSPropertyOp10
 70
     1
102
RTVSPropertyOp11
 70
     1
102
RTVSPropertyOp12
 70
     1
102
RTVSPropertyOp13
 70
     1
102
RTVSPropertyOp14
 70
     1
102
RTVSPropertyOp15
 70
     1
102
RTVSPropertyOp16
 70
     1
102
RTVSPropertyOp17
 70
     1
102
RTVSPropertyOp18
 70
     1
102
RTVSPropertyOp19
 70
     1
102
RTVSPropertyOp20
 70
     1
102
RTVSPropertyOp21
 70
     1
102
RTVSPropertyOp22
 70
     1
102
RTVSPropertyOp23
 70
     1
102
RTVSPropertyOp24
 70
     1
102
RTVSPropertyOp25
 70
     1
102
RTVSPropertyOp26
 70
     1
102
RTVSPropertyOp27
 70
     1
102
RTVSPropertyOp28
 70
     1
102
RTVSPropertyOp29
 70
     1
102
RTVSPropertyOp30
 70
     1
102
RTVSPropertyOp31
 70
     1
102
RTVSPropertyOp32
 70
     1
102
RTVSPropertyOp33
 70
     1
102
RTVSPropertyOp34
 70
     1
102
RTVSPropertyOp35
 70
     1
102
RTVSPropertyOp36
 70
     1
102
RTVSPropertyOp37
 70
     1
102
RTVSPropertyOp38
 70
     1
102
RTVSPropertyOp39
 70
     1
102
RTVSPropertyOp40
 70
     1
102
RTVSPropertyOp41
 70
     1
102
RTVSPropertyOp42
 70
     1
102
RTVSPropertyOp43
 70
     1
102
RTVSPropertyOp44
 70
     1
102
RTVSPropertyOp45
 70
     1
102
RTVSPropertyOp46
 70
     1
102
RTVSPropertyOp47
 70
     1
102
RTVSPropertyOp48
 70
     1
102
RTVSPropertyOp49
 70
     1
102
RTVSPropertyOp50
 70
     1
102
RTVSPropertyOp51
 70
     0
102
RTVSPropertyOp52
 70
     0
102
RTVSPropertyOp53
 70
     1
102
RTVSPropertyOp54
 70
     1
102
RTVSPropertyOp55
 70
     1
102
RTVSPropertyOp56
 70
     1
102
RTVSPropertyOp57
 70
     1
102
RTVSPropertyOp58
 70
     1
102
RTVSPropertyOp59
 70
     1
102
RTVSPropertyOp60
 70
     1
102
RTVSPropertyOp61
 70
     1
102
RTVSPropertyOp62
 70
     1
  0
XRECORD
  5
498
102
{ACAD_REACTORS
330
497
102
}
330
497
100
AcDbXrecord
280
     1
102
RTVSPost2010Prop28
280
     0
102
RTVSPost2010PropOp28
 70
     1
102
RTVSPost2010Prop29
280
     1
102
RTVSPost2010PropOp29
 70
     1
102
RTVSPost2010Prop30
280
     1
102
RTVSPost2010PropOp30
 70
     1
102
RTVSPost2010Prop31
280
     0
102
RTVSPost2010PropOp31
 70
     1
102
RTVSPost2010Prop32
280
     0
102
RTVSPost2010PropOp32
 70
     1
102
RTVSPost2010Prop33
280
     0
102
RTVSPost2010PropOp33
 70
     1
102
RTVSPost2010Prop34
280
     0
102
RTVSPost2010PropOp34
 70
     1
102
RTVSPost2010Prop35
280
     0
102
RTVSPost2010PropOp35
 70
     1
102
RTVSPost2010Prop36
280
     0
102
RTVSPost2010PropOp36
 70
     1
102
RTVSPost2010Prop37
 90
       50
102
RTVSPost2010PropOp37
 70
     1
102
RTVSPost2010Prop38
140
0.0
102
RTVSPost2010PropOp38
 70
     1
102
RTVSPost2010Prop39
140
1.0
102
RTVSPost2010PropOp39
 70
     1
102
RTVSPost2010Prop40
 90
        0
102
RTVSPost2010PropOp40
 70
     1
102
RTVSPost2010Prop41ColorIndex
 90
       18
102
RTVSPost2010Prop41ColorRGB
 90
        0
102
RTVSPost2010PropOp41
 70
     1
102
RTVSPost2010Prop42
 90
       50
102
RTVSPost2010PropOp42
 70
     1
102
RTVSPost2010Prop43
 90
        3
102
RTVSPost2010PropOp43
 70
     1
102
RTVSPost2010Prop44ColorIndex
 90
        5
102
RTVSPost2010Prop44ColorRGB
 90
      255
102
RTVSPost2010PropOp44
 70
     1
102
RTVSPost2010Prop45
280
     0
102
RTVSPost2010PropOp45
 70
     1
102
RTVSPost2010Prop46
 90
       50
102
RTVSPost2010PropOp46
 70
     1
102
RTVSPost2010Prop47
 90
       50
102
RTVSPost2010PropOp47
 70
     1
102
RTVSPost2010Prop48
 90
       50
102
RTVSPost2010PropOp48
 70
     1
102
RTVSPost2010Prop49
280
     0
102
RTVSPost2010PropOp49
 70
     1
102
RTVSPost2010Prop50
 90
       50
102
RTVSPost2010PropOp50
 70
     1
102
RTVSPost2010Prop51ColorIndex
 90
      256
102
RTVSPost2010Prop51ColorRGB
 90
-16777216
102
RTVSPost2010PropOp51
 70
     0
102
RTVSPost2010Prop52
140
1.0
102
RTVSPost2010PropOp52
 70
     0
102
RTVSPost2010Prop53
 90
        2
102
RTVSPost2010PropOp53
 70
     1
102
RTVSPost2010Prop54
  1
strokes_ogs.tif
102
RTVSPost2010PropOp54
 70
     1
102
RTVSPost2010Prop55
280
     0
102
RTVSPost2010PropOp55
 70
     1
102
RTVSPost2010Prop56
140
1.0
102
RTVSPost2010PropOp56
 70
     1
102
RTVSPost2010Prop57
140
1.0
102
RTVSPost2010PropOp57
 70
     1
102
RTVSPropertyOp0
 70
     1
102
RTVSPropertyOp1
 70
     1
102
RTVSPropertyOp2
 70
     1
102
RTVSPropertyOp3
 70
     1
102
RTVSPropertyOp4
 70
     1
102
RTVSPropertyOp5
 70
     1
102
RTVSPropertyOp6
 70
     1
102
RTVSPropertyOp7
 70
     1
102
RTVSPropertyOp8
 70
     1
102
RTVSPropertyOp9
 70
     1
102
RTVSPropertyOp10
 70
     1
102
RTVSPropertyOp11
 70
     1
102
RTVSPropertyOp12
 70
     1
102
RTVSPropertyOp13
 70
     1
102
RTVSPropertyOp14
 70
     1
102
RTVSPropertyOp15
 70
     1
102
RTVSPropertyOp16
 70
     1
102
RTVSPropertyOp17
 70
     1
102
RTVSPropertyOp18
 70
     1
102
RTVSPropertyOp19
 70
     1
102
RTVSPropertyOp20
 70
     1
102
RTVSPropertyOp21
 70
     1
102
RTVSPropertyOp22
 70
     1
102
RTVSPropertyOp23
 70
     1
102
RTVSPropertyOp24
 70
     1
102
RTVSPropertyOp25
 70
     1
102
RTVSPropertyOp26
 70
     1
102
RTVSPropertyOp27
 70
     1
102
RTVSPropertyOp28
 70
     1
102
RTVSPropertyOp29
 70
     1
102
RTVSPropertyOp30
 70
     1
102
RTVSPropertyOp31
 70
     1
102
RTVSPropertyOp32
 70
     1
102
RTVSPropertyOp33
 70
     1
102
RTVSPropertyOp34
 70
     1
102
RTVSPropertyOp35
 70
     1
102
RTVSPropertyOp36
 70
     1
102
RTVSPropertyOp37
 70
     1
102
RTVSPropertyOp38
 70
     1
102
RTVSPropertyOp39
 70
     1
102
RTVSPropertyOp40
 70
     1
102
RTVSPropertyOp41
 70
     1
102
RTVSPropertyOp42
 70
     1
102
RTVSPropertyOp43
 70
     1
102
RTVSPropertyOp44
 70
     1
102
RTVSPropertyOp45
 70
     1
102
RTVSPropertyOp46
 70
     1
102
RTVSPropertyOp47
 70
     1
102
RTVSPropertyOp48
 70
     1
102
RTVSPropertyOp49
 70
     1
102
RTVSPropertyOp50
 70
     1
102
RTVSPropertyOp51
 70
     0
102
RTVSPropertyOp52
 70
     0
102
RTVSPropertyOp53
 70
     1
102
RTVSPropertyOp54
 70
     1
102
RTVSPropertyOp55
 70
     1
102
RTVSPropertyOp56
 70
     1
102
RTVSPropertyOp57
 70
     1
102
RTVSPropertyOp58
 70
     1
102
RTVSPropertyOp59
 70
     1
102
RTVSPropertyOp60
 70
     1
102
RTVSPropertyOp61
 70
     1
102
RTVSPropertyOp62
 70
     1
  0
XRECORD
  5
49A
102
{ACAD_REACTORS
330
499
102
}
330
499
100
AcDbXrecord
280
     1
102
RTVSPost2010Prop28
280
     0
102
RTVSPost2010PropOp28
 70
     1
102
RTVSPost2010Prop29
280
     1
102
RTVSPost2010PropOp29
 70
     1
102
RTVSPost2010Prop30
280
     1
102
RTVSPost2010PropOp30
 70
     1
102
RTVSPost2010Prop31
280
     0
102
RTVSPost2010PropOp31
 70
     1
102
RTVSPost2010Prop32
280
     0
102
RTVSPost2010PropOp32
 70
     1
102
RTVSPost2010Prop33
280
     0
102
RTVSPost2010PropOp33
 70
     1
102
RTVSPost2010Prop34
280
     0
102
RTVSPost2010PropOp34
 70
     1
102
RTVSPost2010Prop35
280
     0
102
RTVSPost2010PropOp35
 70
     1
102
RTVSPost2010Prop36
280
     0
102
RTVSPost2010PropOp36
 70
     1
102
RTVSPost2010Prop37
 90
       50
102
RTVSPost2010PropOp37
 70
     1
102
RTVSPost2010Prop38
140
0.0
102
RTVSPost2010PropOp38
 70
     1
102
RTVSPost2010Prop39
140
1.0
102
RTVSPost2010PropOp39
 70
     1
102
RTVSPost2010Prop40
 90
        0
102
RTVSPost2010PropOp40
 70
     1
102
RTVSPost2010Prop41ColorIndex
 90
       18
102
RTVSPost2010Prop41ColorRGB
 90
        0
102
RTVSPost2010PropOp41
 70
     1
102
RTVSPost2010Prop42
 90
       50
102
RTVSPost2010PropOp42
 70
     1
102
RTVSPost2010Prop43
 90
        3
102
RTVSPost2010PropOp43
 70
     1
102
RTVSPost2010Prop44ColorIndex
 90
        5
102
RTVSPost2010Prop44ColorRGB
 90
      255
102
RTVSPost2010PropOp44
 70
     1
102
RTVSPost2010Prop45
280
     0
102
RTVSPost2010PropOp45
 70
     1
102
RTVSPost2010Prop46
 90
       50
102
RTVSPost2010PropOp46
 70
     1
102
RTVSPost2010Prop47
 90
       50
102
RTVSPost2010PropOp47
 70
     1
102
RTVSPost2010Prop48
 90
       50
102
RTVSPost2010PropOp48
 70
     1
102
RTVSPost2010Prop49
280
     0
102
RTVSPost2010PropOp49
 70
     1
102
RTVSPost2010Prop50
 90
       50
102
RTVSPost2010PropOp50
 70
     1
102
RTVSPost2010Prop51ColorIndex
 90
      256
102
RTVSPost2010Prop51ColorRGB
 90
-16777216
102
RTVSPost2010PropOp51
 70
     0
102
RTVSPost2010Prop52
140
1.0
102
RTVSPost2010PropOp52
 70
     0
102
RTVSPost2010Prop53
 90
        2
102
RTVSPost2010PropOp53
 70
     1
102
RTVSPost2010Prop54
  1
strokes_ogs.tif
102
RTVSPost2010PropOp54
 70
     1
102
RTVSPost2010Prop55
280
     0
102
RTVSPost2010PropOp55
 70
     1
102
RTVSPost2010Prop56
140
1.0
102
RTVSPost2010PropOp56
 70
     1
102
RTVSPost2010Prop57
140
1.0
102
RTVSPost2010PropOp57
 70
     1
102
RTVSPropertyOp0
 70
     1
102
RTVSPropertyOp1
 70
     1
102
RTVSPropertyOp2
 70
     1
102
RTVSPropertyOp3
 70
     1
102
RTVSPropertyOp4
 70
     1
102
RTVSPropertyOp5
 70
     1
102
RTVSPropertyOp6
 70
     1
102
RTVSPropertyOp7
 70
     1
102
RTVSPropertyOp8
 70
     1
102
RTVSPropertyOp9
 70
     1
102
RTVSPropertyOp10
 70
     1
102
RTVSPropertyOp11
 70
     1
102
RTVSPropertyOp12
 70
     1
102
RTVSPropertyOp13
 70
     1
102
RTVSPropertyOp14
 70
     1
102
RTVSPropertyOp15
 70
     1
102
RTVSPropertyOp16
 70
     1
102
RTVSPropertyOp17
 70
     1
102
RTVSPropertyOp18
 70
     1
102
RTVSPropertyOp19
 70
     1
102
RTVSPropertyOp20
 70
     1
102
RTVSPropertyOp21
 70
     1
102
RTVSPropertyOp22
 70
     1
102
RTVSPropertyOp23
 70
     1
102
RTVSPropertyOp24
 70
     1
102
RTVSPropertyOp25
 70
     1
102
RTVSPropertyOp26
 70
     1
102
RTVSPropertyOp27
 70
     1
102
RTVSPropertyOp28
 70
     1
102
RTVSPropertyOp29
 70
     1
102
RTVSPropertyOp30
 70
     1
102
RTVSPropertyOp31
 70
     1
102
RTVSPropertyOp32
 70
     1
102
RTVSPropertyOp33
 70
     1
102
RTVSPropertyOp34
 70
     1
102
RTVSPropertyOp35
 70
     1
102
RTVSPropertyOp36
 70
     1
102
RTVSPropertyOp37
 70
     1
102
RTVSPropertyOp38
 70
     1
102
RTVSPropertyOp39
 70
     1
102
RTVSPropertyOp40
 70
     1
102
RTVSPropertyOp41
 70
     1
102
RTVSPropertyOp42
 70
     1
102
RTVSPropertyOp43
 70
     1
102
RTVSPropertyOp44
 70
     1
102
RTVSPropertyOp45
 70
     1
102
RTVSPropertyOp46
 70
     1
102
RTVSPropertyOp47
 70
     1
102
RTVSPropertyOp48
 70
     1
102
RTVSPropertyOp49
 70
     1
102
RTVSPropertyOp50
 70
     1
102
RTVSPropertyOp51
 70
     0
102
RTVSPropertyOp52
 70
     0
102
RTVSPropertyOp53
 70
     1
102
RTVSPropertyOp54
 70
     1
102
RTVSPropertyOp55
 70
     1
102
RTVSPropertyOp56
 70
     1
102
RTVSPropertyOp57
 70
     1
102
RTVSPropertyOp58
 70
     1
102
RTVSPropertyOp59
 70
     1
102
RTVSPropertyOp60
 70
     1
102
RTVSPropertyOp61
 70
     1
102
RTVSPropertyOp62
 70
     1
  0
XRECORD
  5
4A2
102
{ACAD_REACTORS
330
4A1
102
}
330
4A1
100
AcDbXrecord
280
     1
102
RTVSPost2010Prop28
280
     0
102
RTVSPost2010PropOp28
 70
     1
102
RTVSPost2010Prop29
280
     1
102
RTVSPost2010PropOp29
 70
     1
102
RTVSPost2010Prop30
280
     1
102
RTVSPost2010PropOp30
 70
     1
102
RTVSPost2010Prop31
280
     0
102
RTVSPost2010PropOp31
 70
     1
102
RTVSPost2010Prop32
280
     0
102
RTVSPost2010PropOp32
 70
     1
102
RTVSPost2010Prop33
280
     0
102
RTVSPost2010PropOp33
 70
     1
102
RTVSPost2010Prop34
280
     0
102
RTVSPost2010PropOp34
 70
     1
102
RTVSPost2010Prop35
280
     0
102
RTVSPost2010PropOp35
 70
     1
102
RTVSPost2010Prop36
280
     0
102
RTVSPost2010PropOp36
 70
     1
102
RTVSPost2010Prop37
 90
       50
102
RTVSPost2010PropOp37
 70
     1
102
RTVSPost2010Prop38
140
0.0
102
RTVSPost2010PropOp38
 70
     1
102
RTVSPost2010Prop39
140
1.0
102
RTVSPost2010PropOp39
 70
     1
102
RTVSPost2010Prop40
 90
        0
102
RTVSPost2010PropOp40
 70
     1
102
RTVSPost2010Prop41ColorIndex
 90
       18
102
RTVSPost2010Prop41ColorRGB
 90
        0
102
RTVSPost2010PropOp41
 70
     1
102
RTVSPost2010Prop42
 90
       50
102
RTVSPost2010PropOp42
 70
     1
102
RTVSPost2010Prop43
 90
        3
102
RTVSPost2010PropOp43
 70
     1
102
RTVSPost2010Prop44ColorIndex
 90
        5
102
RTVSPost2010Prop44ColorRGB
 90
      255
102
RTVSPost2010PropOp44
 70
     1
102
RTVSPost2010Prop45
280
     0
102
RTVSPost2010PropOp45
 70
     1
102
RTVSPost2010Prop46
 90
       50
102
RTVSPost2010PropOp46
 70
     1
102
RTVSPost2010Prop47
 90
       50
102
RTVSPost2010PropOp47
 70
     1
102
RTVSPost2010Prop48
 90
       50
102
RTVSPost2010PropOp48
 70
     1
102
RTVSPost2010Prop49
280
     0
102
RTVSPost2010PropOp49
 70
     1
102
RTVSPost2010Prop50
 90
       50
102
RTVSPost2010PropOp50
 70
     1
102
RTVSPost2010Prop51ColorIndex
 90
      256
102
RTVSPost2010Prop51ColorRGB
 90
-16777216
102
RTVSPost2010PropOp51
 70
     0
102
RTVSPost2010Prop52
140
1.0
102
RTVSPost2010PropOp52
 70
     0
102
RTVSPost2010Prop53
 90
        2
102
RTVSPost2010PropOp53
 70
     1
102
RTVSPost2010Prop54
  1
strokes_ogs.tif
102
RTVSPost2010PropOp54
 70
     1
102
RTVSPost2010Prop55
280
     0
102
RTVSPost2010PropOp55
 70
     1
102
RTVSPost2010Prop56
140
1.0
102
RTVSPost2010PropOp56
 70
     1
102
RTVSPost2010Prop57
140
1.0
102
RTVSPost2010PropOp57
 70
     1
102
RTVSPropertyOp0
 70
     1
102
RTVSPropertyOp1
 70
     1
102
RTVSPropertyOp2
 70
     1
102
RTVSPropertyOp3
 70
     1
102
RTVSPropertyOp4
 70
     1
102
RTVSPropertyOp5
 70
     1
102
RTVSPropertyOp6
 70
     1
102
RTVSPropertyOp7
 70
     1
102
RTVSPropertyOp8
 70
     1
102
RTVSPropertyOp9
 70
     1
102
RTVSPropertyOp10
 70
     1
102
RTVSPropertyOp11
 70
     1
102
RTVSPropertyOp12
 70
     1
102
RTVSPropertyOp13
 70
     1
102
RTVSPropertyOp14
 70
     1
102
RTVSPropertyOp15
 70
     1
102
RTVSPropertyOp16
 70
     1
102
RTVSPropertyOp17
 70
     1
102
RTVSPropertyOp18
 70
     1
102
RTVSPropertyOp19
 70
     1
102
RTVSPropertyOp20
 70
     1
102
RTVSPropertyOp21
 70
     1
102
RTVSPropertyOp22
 70
     1
102
RTVSPropertyOp23
 70
     1
102
RTVSPropertyOp24
 70
     1
102
RTVSPropertyOp25
 70
     1
102
RTVSPropertyOp26
 70
     1
102
RTVSPropertyOp27
 70
     1
102
RTVSPropertyOp28
 70
     1
102
RTVSPropertyOp29
 70
     1
102
RTVSPropertyOp30
 70
     1
102
RTVSPropertyOp31
 70
     1
102
RTVSPropertyOp32
 70
     1
102
RTVSPropertyOp33
 70
     1
102
RTVSPropertyOp34
 70
     1
102
RTVSPropertyOp35
 70
     1
102
RTVSPropertyOp36
 70
     1
102
RTVSPropertyOp37
 70
     1
102
RTVSPropertyOp38
 70
     1
102
RTVSPropertyOp39
 70
     1
102
RTVSPropertyOp40
 70
     1
102
RTVSPropertyOp41
 70
     1
102
RTVSPropertyOp42
 70
     1
102
RTVSPropertyOp43
 70
     1
102
RTVSPropertyOp44
 70
     1
102
RTVSPropertyOp45
 70
     1
102
RTVSPropertyOp46
 70
     1
102
RTVSPropertyOp47
 70
     1
102
RTVSPropertyOp48
 70
     1
102
RTVSPropertyOp49
 70
     1
102
RTVSPropertyOp50
 70
     1
102
RTVSPropertyOp51
 70
     0
102
RTVSPropertyOp52
 70
     0
102
RTVSPropertyOp53
 70
     1
102
RTVSPropertyOp54
 70
     1
102
RTVSPropertyOp55
 70
     1
102
RTVSPropertyOp56
 70
     1
102
RTVSPropertyOp57
 70
     1
102
RTVSPropertyOp58
 70
     1
102
RTVSPropertyOp59
 70
     1
102
RTVSPropertyOp60
 70
     1
102
RTVSPropertyOp61
 70
     1
102
RTVSPropertyOp62
 70
     1
  0
XRECORD
  5
4BE
102
{ACAD_REACTORS
330
4BD
102
}
330
4BD
100
AcDbXrecord
280
     1
102
RTVSPost2010Prop28
280
     0
102
RTVSPost2010PropOp28
 70
     1
102
RTVSPost2010Prop29
280
     1
102
RTVSPost2010PropOp29
 70
     1
102
RTVSPost2010Prop30
280
     1
102
RTVSPost2010PropOp30
 70
     1
102
RTVSPost2010Prop31
280
     0
102
RTVSPost2010PropOp31
 70
     1
102
RTVSPost2010Prop32
280
     0
102
RTVSPost2010PropOp32
 70
     1
102
RTVSPost2010Prop33
280
     0
102
RTVSPost2010PropOp33
 70
     1
102
RTVSPost2010Prop34
280
     0
102
RTVSPost2010PropOp34
 70
     1
102
RTVSPost2010Prop35
280
     0
102
RTVSPost2010PropOp35
 70
     1
102
RTVSPost2010Prop36
280
     0
102
RTVSPost2010PropOp36
 70
     1
102
RTVSPost2010Prop37
 90
       50
102
RTVSPost2010PropOp37
 70
     0
102
RTVSPost2010Prop38
140
0.0
102
RTVSPost2010PropOp38
 70
     0
102
RTVSPost2010Prop39
140
1.0
102
RTVSPost2010PropOp39
 70
     0
102
RTVSPost2010Prop40
 90
        0
102
RTVSPost2010PropOp40
 70
     0
102
RTVSPost2010Prop41ColorIndex
 90
       18
102
RTVSPost2010Prop41ColorRGB
 90
        0
102
RTVSPost2010PropOp41
 70
     0
102
RTVSPost2010Prop42
 90
       50
102
RTVSPost2010PropOp42
 70
     0
102
RTVSPost2010Prop43
 90
        3
102
RTVSPost2010PropOp43
 70
     0
102
RTVSPost2010Prop44ColorIndex
 90
        5
102
RTVSPost2010Prop44ColorRGB
 90
      255
102
RTVSPost2010PropOp44
 70
     0
102
RTVSPost2010Prop45
280
     0
102
RTVSPost2010PropOp45
 70
     1
102
RTVSPost2010Prop46
 90
       50
102
RTVSPost2010PropOp46
 70
     0
102
RTVSPost2010Prop47
 90
       50
102
RTVSPost2010PropOp47
 70
     0
102
RTVSPost2010Prop48
 90
       50
102
RTVSPost2010PropOp48
 70
     0
102
RTVSPost2010Prop49
280
     0
102
RTVSPost2010PropOp49
 70
     1
102
RTVSPost2010Prop50
 90
       50
102
RTVSPost2010PropOp50
 70
     0
102
RTVSPost2010Prop51ColorIndex
 90
      256
102
RTVSPost2010Prop51ColorRGB
 90
-16777216
102
RTVSPost2010PropOp51
 70
     0
102
RTVSPost2010Prop52
140
1.0
102
RTVSPost2010PropOp52
 70
     0
102
RTVSPost2010Prop53
 90
        2
102
RTVSPost2010PropOp53
 70
     0
102
RTVSPost2010Prop54
  1
strokes_ogs.tif
102
RTVSPost2010PropOp54
 70
     0
102
RTVSPost2010Prop55
280
     0
102
RTVSPost2010PropOp55
 70
     1
102
RTVSPost2010Prop56
140
1.0
102
RTVSPost2010PropOp56
 70
     0
102
RTVSPost2010Prop57
140
1.0
102
RTVSPost2010PropOp57
 70
     0
102
RTVSPropertyOp0
 70
     0
102
RTVSPropertyOp1
 70
     0
102
RTVSPropertyOp2
 70
     0
102
RTVSPropertyOp3
 70
     0
102
RTVSPropertyOp4
 70
     0
102
RTVSPropertyOp5
 70
     0
102
RTVSPropertyOp6
 70
     0
102
RTVSPropertyOp7
 70
     0
102
RTVSPropertyOp8
 70
     0
102
RTVSPropertyOp9
 70
     0
102
RTVSPropertyOp10
 70
     0
102
RTVSPropertyOp11
 70
     0
102
RTVSPropertyOp12
 70
     0
102
RTVSPropertyOp13
 70
     0
102
RTVSPropertyOp14
 70
     2
102
RTVSPropertyOp15
 70
     0
102
RTVSPropertyOp16
 70
     0
102
RTVSPropertyOp17
 70
     0
102
RTVSPropertyOp18
 70
     0
102
RTVSPropertyOp19
 70
     0
102
RTVSPropertyOp20
 70
     0
102
RTVSPropertyOp21
 70
     0
102
RTVSPropertyOp22
 70
     0
102
RTVSPropertyOp23
 70
     0
102
RTVSPropertyOp24
 70
     0
102
RTVSPropertyOp25
 70
     0
102
RTVSPropertyOp26
 70
     0
102
RTVSPropertyOp27
 70
     0
102
RTVSPropertyOp28
 70
     1
102
RTVSPropertyOp29
 70
     1
102
RTVSPropertyOp30
 70
     1
102
RTVSPropertyOp31
 70
     1
102
RTVSPropertyOp32
 70
     1
102
RTVSPropertyOp33
 70
     1
102
RTVSPropertyOp34
 70
     1
102
RTVSPropertyOp35
 70
     1
102
RTVSPropertyOp36
 70
     1
102
RTVSPropertyOp37
 70
     0
102
RTVSPropertyOp38
 70
     0
102
RTVSPropertyOp39
 70
     0
102
RTVSPropertyOp40
 70
     0
102
RTVSPropertyOp41
 70
     0
102
RTVSPropertyOp42
 70
     0
102
RTVSPropertyOp43
 70
     0
102
RTVSPropertyOp44
 70
     0
102
RTVSPropertyOp45
 70
     1
102
RTVSPropertyOp46
 70
     0
102
RTVSPropertyOp47
 70
     0
102
RTVSPropertyOp48
 70
     0
102
RTVSPropertyOp49
 70
     1
102
RTVSPropertyOp50
 70
     0
102
RTVSPropertyOp51
 70
     0
102
RTVSPropertyOp52
 70
     0
102
RTVSPropertyOp53
 70
     0
102
RTVSPropertyOp54
 70
     0
102
RTVSPropertyOp55
 70
     1
102
RTVSPropertyOp56
 70
     0
102
RTVSPropertyOp57
 70
     0
102
RTVSPropertyOp58
 70
     1
102
RTVSPropertyOp59
 70
     1
102
RTVSPropertyOp60
 70
     1
102
RTVSPropertyOp61
 70
     1
102
RTVSPropertyOp62
 70
     1
  0
XRECORD
  5
4AE
102
{ACAD_REACTORS
330
4AD
102
}
330
4AD
100
AcDbXrecord
280
     1
102
RTVSPost2010Prop28
280
     0
102
RTVSPost2010PropOp28
 70
     1
102
RTVSPost2010Prop29
280
     1
102
RTVSPost2010PropOp29
 70
     1
102
RTVSPost2010Prop30
280
     1
102
RTVSPost2010PropOp30
 70
     1
102
RTVSPost2010Prop31
280
     0
102
RTVSPost2010PropOp31
 70
     1
102
RTVSPost2010Prop32
280
     0
102
RTVSPost2010PropOp32
 70
     1
102
RTVSPost2010Prop33
280
     0
102
RTVSPost2010PropOp33
 70
     1
102
RTVSPost2010Prop34
280
     0
102
RTVSPost2010PropOp34
 70
     1
102
RTVSPost2010Prop35
280
     0
102
RTVSPost2010PropOp35
 70
     1
102
RTVSPost2010Prop36
280
     0
102
RTVSPost2010PropOp36
 70
     1
102
RTVSPost2010Prop37
 90
       50
102
RTVSPost2010PropOp37
 70
     1
102
RTVSPost2010Prop38
140
0.0
102
RTVSPost2010PropOp38
 70
     1
102
RTVSPost2010Prop39
140
1.0
102
RTVSPost2010PropOp39
 70
     1
102
RTVSPost2010Prop40
 90
        0
102
RTVSPost2010PropOp40
 70
     1
102
RTVSPost2010Prop41ColorIndex
 90
       18
102
RTVSPost2010Prop41ColorRGB
 90
        0
102
RTVSPost2010PropOp41
 70
     1
102
RTVSPost2010Prop42
 90
       50
102
RTVSPost2010PropOp42
 70
     1
102
RTVSPost2010Prop43
 90
        3
102
RTVSPost2010PropOp43
 70
     1
102
RTVSPost2010Prop44ColorIndex
 90
        5
102
RTVSPost2010Prop44ColorRGB
 90
      255
102
RTVSPost2010PropOp44
 70
     1
102
RTVSPost2010Prop45
280
     0
102
RTVSPost2010PropOp45
 70
     1
102
RTVSPost2010Prop46
 90
       50
102
RTVSPost2010PropOp46
 70
     1
102
RTVSPost2010Prop47
 90
       50
102
RTVSPost2010PropOp47
 70
     1
102
RTVSPost2010Prop48
 90
       50
102
RTVSPost2010PropOp48
 70
     1
102
RTVSPost2010Prop49
280
     0
102
RTVSPost2010PropOp49
 70
     1
102
RTVSPost2010Prop50
 90
       50
102
RTVSPost2010PropOp50
 70
     1
102
RTVSPost2010Prop51ColorIndex
 90
      256
102
RTVSPost2010Prop51ColorRGB
 90
-16777216
102
RTVSPost2010PropOp51
 70
     0
102
RTVSPost2010Prop52
140
1.0
102
RTVSPost2010PropOp52
 70
     0
102
RTVSPost2010Prop53
 90
        2
102
RTVSPost2010PropOp53
 70
     1
102
RTVSPost2010Prop54
  1
strokes_ogs.tif
102
RTVSPost2010PropOp54
 70
     1
102
RTVSPost2010Prop55
280
     0
102
RTVSPost2010PropOp55
 70
     1
102
RTVSPost2010Prop56
140
1.0
102
RTVSPost2010PropOp56
 70
     1
102
RTVSPost2010Prop57
140
1.0
102
RTVSPost2010PropOp57
 70
     1
102
RTVSPropertyOp0
 70
     1
102
RTVSPropertyOp1
 70
     1
102
RTVSPropertyOp2
 70
     1
102
RTVSPropertyOp3
 70
     1
102
RTVSPropertyOp4
 70
     1
102
RTVSPropertyOp5
 70
     1
102
RTVSPropertyOp6
 70
     1
102
RTVSPropertyOp7
 70
     1
102
RTVSPropertyOp8
 70
     1
102
RTVSPropertyOp9
 70
     1
102
RTVSPropertyOp10
 70
     1
102
RTVSPropertyOp11
 70
     1
102
RTVSPropertyOp12
 70
     1
102
RTVSPropertyOp13
 70
     1
102
RTVSPropertyOp14
 70
     1
102
RTVSPropertyOp15
 70
     1
102
RTVSPropertyOp16
 70
     1
102
RTVSPropertyOp17
 70
     1
102
RTVSPropertyOp18
 70
     1
102
RTVSPropertyOp19
 70
     1
102
RTVSPropertyOp20
 70
     1
102
RTVSPropertyOp21
 70
     1
102
RTVSPropertyOp22
 70
     1
102
RTVSPropertyOp23
 70
     1
102
RTVSPropertyOp24
 70
     1
102
RTVSPropertyOp25
 70
     1
102
RTVSPropertyOp26
 70
     1
102
RTVSPropertyOp27
 70
     1
102
RTVSPropertyOp28
 70
     1
102
RTVSPropertyOp29
 70
     1
102
RTVSPropertyOp30
 70
     1
102
RTVSPropertyOp31
 70
     1
102
RTVSPropertyOp32
 70
     1
102
RTVSPropertyOp33
 70
     1
102
RTVSPropertyOp34
 70
     1
102
RTVSPropertyOp35
 70
     1
102
RTVSPropertyOp36
 70
     1
102
RTVSPropertyOp37
 70
     1
102
RTVSPropertyOp38
 70
     1
102
RTVSPropertyOp39
 70
     1
102
RTVSPropertyOp40
 70
     1
102
RTVSPropertyOp41
 70
     1
102
RTVSPropertyOp42
 70
     1
102
RTVSPropertyOp43
 70
     1
102
RTVSPropertyOp44
 70
     1
102
RTVSPropertyOp45
 70
     1
102
RTVSPropertyOp46
 70
     1
102
RTVSPropertyOp47
 70
     1
102
RTVSPropertyOp48
 70
     1
102
RTVSPropertyOp49
 70
     1
102
RTVSPropertyOp50
 70
     1
102
RTVSPropertyOp51
 70
     0
102
RTVSPropertyOp52
 70
     0
102
RTVSPropertyOp53
 70
     1
102
RTVSPropertyOp54
 70
     1
102
RTVSPropertyOp55
 70
     1
102
RTVSPropertyOp56
 70
     1
102
RTVSPropertyOp57
 70
     1
102
RTVSPropertyOp58
 70
     1
102
RTVSPropertyOp59
 70
     1
102
RTVSPropertyOp60
 70
     1
102
RTVSPropertyOp61
 70
     1
102
RTVSPropertyOp62
 70
     1
  0
XRECORD
  5
4C0
102
{ACAD_REACTORS
330
4BF
102
}
330
4BF
100
AcDbXrecord
280
     1
102
RTVSPost2010Prop28
280
     0
102
RTVSPost2010PropOp28
 70
     1
102
RTVSPost2010Prop29
280
     1
102
RTVSPost2010PropOp29
 70
     1
102
RTVSPost2010Prop30
280
     1
102
RTVSPost2010PropOp30
 70
     1
102
RTVSPost2010Prop31
280
     0
102
RTVSPost2010PropOp31
 70
     1
102
RTVSPost2010Prop32
280
     0
102
RTVSPost2010PropOp32
 70
     1
102
RTVSPost2010Prop33
280
     0
102
RTVSPost2010PropOp33
 70
     1
102
RTVSPost2010Prop34
280
     0
102
RTVSPost2010PropOp34
 70
     1
102
RTVSPost2010Prop35
280
     0
102
RTVSPost2010PropOp35
 70
     1
102
RTVSPost2010Prop36
280
     0
102
RTVSPost2010PropOp36
 70
     1
102
RTVSPost2010Prop37
 90
       50
102
RTVSPost2010PropOp37
 70
     0
102
RTVSPost2010Prop38
140
0.0
102
RTVSPost2010PropOp38
 70
     0
102
RTVSPost2010Prop39
140
1.0
102
RTVSPost2010PropOp39
 70
     0
102
RTVSPost2010Prop40
 90
        0
102
RTVSPost2010PropOp40
 70
     0
102
RTVSPost2010Prop41ColorIndex
 90
       18
102
RTVSPost2010Prop41ColorRGB
 90
        0
102
RTVSPost2010PropOp41
 70
     0
102
RTVSPost2010Prop42
 90
       50
102
RTVSPost2010PropOp42
 70
     0
102
RTVSPost2010Prop43
 90
        3
102
RTVSPost2010PropOp43
 70
     0
102
RTVSPost2010Prop44ColorIndex
 90
        5
102
RTVSPost2010Prop44ColorRGB
 90
      255
102
RTVSPost2010PropOp44
 70
     0
102
RTVSPost2010Prop45
280
     0
102
RTVSPost2010PropOp45
 70
     1
102
RTVSPost2010Prop46
 90
       50
102
RTVSPost2010PropOp46
 70
     0
102
RTVSPost2010Prop47
 90
       50
102
RTVSPost2010PropOp47
 70
     0
102
RTVSPost2010Prop48
 90
       50
102
RTVSPost2010PropOp48
 70
     0
102
RTVSPost2010Prop49
280
     0
102
RTVSPost2010PropOp49
 70
     1
102
RTVSPost2010Prop50
 90
       50
102
RTVSPost2010PropOp50
 70
     0
102
RTVSPost2010Prop51ColorIndex
 90
      256
102
RTVSPost2010Prop51ColorRGB
 90
-16777216
102
RTVSPost2010PropOp51
 70
     0
102
RTVSPost2010Prop52
140
1.0
102
RTVSPost2010PropOp52
 70
     0
102
RTVSPost2010Prop53
 90
        2
102
RTVSPost2010PropOp53
 70
     0
102
RTVSPost2010Prop54
  1
strokes_ogs.tif
102
RTVSPost2010PropOp54
 70
     0
102
RTVSPost2010Prop55
280
     0
102
RTVSPost2010PropOp55
 70
     1
102
RTVSPost2010Prop56
140
1.0
102
RTVSPost2010PropOp56
 70
     0
102
RTVSPost2010Prop57
140
1.0
102
RTVSPost2010PropOp57
 70
     0
102
RTVSPropertyOp0
 70
     0
102
RTVSPropertyOp1
 70
     0
102
RTVSPropertyOp2
 70
     0
102
RTVSPropertyOp3
 70
     0
102
RTVSPropertyOp4
 70
     0
102
RTVSPropertyOp5
 70
     0
102
RTVSPropertyOp6
 70
     0
102
RTVSPropertyOp7
 70
     0
102
RTVSPropertyOp8
 70
     0
102
RTVSPropertyOp9
 70
     0
102
RTVSPropertyOp10
 70
     0
102
RTVSPropertyOp11
 70
     0
102
RTVSPropertyOp12
 70
     0
102
RTVSPropertyOp13
 70
     0
102
RTVSPropertyOp14
 70
     2
102
RTVSPropertyOp15
 70
     0
102
RTVSPropertyOp16
 70
     0
102
RTVSPropertyOp17
 70
     0
102
RTVSPropertyOp18
 70
     0
102
RTVSPropertyOp19
 70
     0
102
RTVSPropertyOp20
 70
     0
102
RTVSPropertyOp21
 70
     0
102
RTVSPropertyOp22
 70
     0
102
RTVSPropertyOp23
 70
     0
102
RTVSPropertyOp24
 70
     0
102
RTVSPropertyOp25
 70
     0
102
RTVSPropertyOp26
 70
     0
102
RTVSPropertyOp27
 70
     0
102
RTVSPropertyOp28
 70
     1
102
RTVSPropertyOp29
 70
     1
102
RTVSPropertyOp30
 70
     1
102
RTVSPropertyOp31
 70
     1
102
RTVSPropertyOp32
 70
     1
102
RTVSPropertyOp33
 70
     1
102
RTVSPropertyOp34
 70
     1
102
RTVSPropertyOp35
 70
     1
102
RTVSPropertyOp36
 70
     1
102
RTVSPropertyOp37
 70
     0
102
RTVSPropertyOp38
 70
     0
102
RTVSPropertyOp39
 70
     0
102
RTVSPropertyOp40
 70
     0
102
RTVSPropertyOp41
 70
     0
102
RTVSPropertyOp42
 70
     0
102
RTVSPropertyOp43
 70
     0
102
RTVSPropertyOp44
 70
     0
102
RTVSPropertyOp45
 70
     1
102
RTVSPropertyOp46
 70
     0
102
RTVSPropertyOp47
 70
     0
102
RTVSPropertyOp48
 70
     0
102
RTVSPropertyOp49
 70
     1
102
RTVSPropertyOp50
 70
     0
102
RTVSPropertyOp51
 70
     0
102
RTVSPropertyOp52
 70
     0
102
RTVSPropertyOp53
 70
     0
102
RTVSPropertyOp54
 70
     0
102
RTVSPropertyOp55
 70
     1
102
RTVSPropertyOp56
 70
     0
102
RTVSPropertyOp57
 70
     0
102
RTVSPropertyOp58
 70
     1
102
RTVSPropertyOp59
 70
     1
102
RTVSPropertyOp60
 70
     1
102
RTVSPropertyOp61
 70
     1
102
RTVSPropertyOp62
 70
     1
  0
XRECORD
  5
4A6
102
{ACAD_REACTORS
330
4A5
102
}
330
4A5
100
AcDbXrecord
280
     1
102
RTVSPost2010Prop28
280
     0
102
RTVSPost2010PropOp28
 70
     1
102
RTVSPost2010Prop29
280
     1
102
RTVSPost2010PropOp29
 70
     1
102
RTVSPost2010Prop30
280
     1
102
RTVSPost2010PropOp30
 70
     1
102
RTVSPost2010Prop31
280
     0
102
RTVSPost2010PropOp31
 70
     1
102
RTVSPost2010Prop32
280
     0
102
RTVSPost2010PropOp32
 70
     1
102
RTVSPost2010Prop33
280
     0
102
RTVSPost2010PropOp33
 70
     1
102
RTVSPost2010Prop34
280
     0
102
RTVSPost2010PropOp34
 70
     1
102
RTVSPost2010Prop35
280
     0
102
RTVSPost2010PropOp35
 70
     1
102
RTVSPost2010Prop36
280
     0
102
RTVSPost2010PropOp36
 70
     1
102
RTVSPost2010Prop37
 90
       50
102
RTVSPost2010PropOp37
 70
     1
102
RTVSPost2010Prop38
140
0.0
102
RTVSPost2010PropOp38
 70
     1
102
RTVSPost2010Prop39
140
1.0
102
RTVSPost2010PropOp39
 70
     1
102
RTVSPost2010Prop40
 90
        0
102
RTVSPost2010PropOp40
 70
     1
102
RTVSPost2010Prop41ColorIndex
 90
       18
102
RTVSPost2010Prop41ColorRGB
 90
        0
102
RTVSPost2010PropOp41
 70
     1
102
RTVSPost2010Prop42
 90
       50
102
RTVSPost2010PropOp42
 70
     1
102
RTVSPost2010Prop43
 90
        3
102
RTVSPost2010PropOp43
 70
     1
102
RTVSPost2010Prop44ColorIndex
 90
        5
102
RTVSPost2010Prop44ColorRGB
 90
      255
102
RTVSPost2010PropOp44
 70
     1
102
RTVSPost2010Prop45
280
     0
102
RTVSPost2010PropOp45
 70
     1
102
RTVSPost2010Prop46
 90
       50
102
RTVSPost2010PropOp46
 70
     1
102
RTVSPost2010Prop47
 90
       50
102
RTVSPost2010PropOp47
 70
     1
102
RTVSPost2010Prop48
 90
       50
102
RTVSPost2010PropOp48
 70
     1
102
RTVSPost2010Prop49
280
     0
102
RTVSPost2010PropOp49
 70
     1
102
RTVSPost2010Prop50
 90
       50
102
RTVSPost2010PropOp50
 70
     1
102
RTVSPost2010Prop51ColorIndex
 90
      256
102
RTVSPost2010Prop51ColorRGB
 90
-16777216
102
RTVSPost2010PropOp51
 70
     0
102
RTVSPost2010Prop52
140
1.0
102
RTVSPost2010PropOp52
 70
     0
102
RTVSPost2010Prop53
 90
        2
102
RTVSPost2010PropOp53
 70
     1
102
RTVSPost2010Prop54
  1
strokes_ogs.tif
102
RTVSPost2010PropOp54
 70
     1
102
RTVSPost2010Prop55
280
     0
102
RTVSPost2010PropOp55
 70
     1
102
RTVSPost2010Prop56
140
1.0
102
RTVSPost2010PropOp56
 70
     1
102
RTVSPost2010Prop57
140
1.0
102
RTVSPost2010PropOp57
 70
     1
102
RTVSPropertyOp0
 70
     1
102
RTVSPropertyOp1
 70
     1
102
RTVSPropertyOp2
 70
     1
102
RTVSPropertyOp3
 70
     1
102
RTVSPropertyOp4
 70
     1
102
RTVSPropertyOp5
 70
     1
102
RTVSPropertyOp6
 70
     1
102
RTVSPropertyOp7
 70
     1
102
RTVSPropertyOp8
 70
     1
102
RTVSPropertyOp9
 70
     1
102
RTVSPropertyOp10
 70
     1
102
RTVSPropertyOp11
 70
     1
102
RTVSPropertyOp12
 70
     1
102
RTVSPropertyOp13
 70
     1
102
RTVSPropertyOp14
 70
     1
102
RTVSPropertyOp15
 70
     1
102
RTVSPropertyOp16
 70
     1
102
RTVSPropertyOp17
 70
     1
102
RTVSPropertyOp18
 70
     1
102
RTVSPropertyOp19
 70
     1
102
RTVSPropertyOp20
 70
     1
102
RTVSPropertyOp21
 70
     1
102
RTVSPropertyOp22
 70
     1
102
RTVSPropertyOp23
 70
     1
102
RTVSPropertyOp24
 70
     1
102
RTVSPropertyOp25
 70
     1
102
RTVSPropertyOp26
 70
     1
102
RTVSPropertyOp27
 70
     1
102
RTVSPropertyOp28
 70
     1
102
RTVSPropertyOp29
 70
     1
102
RTVSPropertyOp30
 70
     1
102
RTVSPropertyOp31
 70
     1
102
RTVSPropertyOp32
 70
     1
102
RTVSPropertyOp33
 70
     1
102
RTVSPropertyOp34
 70
     1
102
RTVSPropertyOp35
 70
     1
102
RTVSPropertyOp36
 70
     1
102
RTVSPropertyOp37
 70
     1
102
RTVSPropertyOp38
 70
     1
102
RTVSPropertyOp39
 70
     1
102
RTVSPropertyOp40
 70
     1
102
RTVSPropertyOp41
 70
     1
102
RTVSPropertyOp42
 70
     1
102
RTVSPropertyOp43
 70
     1
102
RTVSPropertyOp44
 70
     1
102
RTVSPropertyOp45
 70
     1
102
RTVSPropertyOp46
 70
     1
102
RTVSPropertyOp47
 70
     1
102
RTVSPropertyOp48
 70
     1
102
RTVSPropertyOp49
 70
     1
102
RTVSPropertyOp50
 70
     1
102
RTVSPropertyOp51
 70
     0
102
RTVSPropertyOp52
 70
     0
102
RTVSPropertyOp53
 70
     1
102
RTVSPropertyOp54
 70
     1
102
RTVSPropertyOp55
 70
     1
102
RTVSPropertyOp56
 70
     1
102
RTVSPropertyOp57
 70
     1
102
RTVSPropertyOp58
 70
     1
102
RTVSPropertyOp59
 70
     1
102
RTVSPropertyOp60
 70
     1
102
RTVSPropertyOp61
 70
     1
102
RTVSPropertyOp62
 70
     1
  0
XRECORD
  5
4BC
102
{ACAD_REACTORS
330
4BB
102
}
330
4BB
100
AcDbXrecord
280
     1
102
RTVSPost2010Prop28
280
     0
102
RTVSPost2010PropOp28
 70
     1
102
RTVSPost2010Prop29
280
     1
102
RTVSPost2010PropOp29
 70
     1
102
RTVSPost2010Prop30
280
     1
102
RTVSPost2010PropOp30
 70
     1
102
RTVSPost2010Prop31
280
     0
102
RTVSPost2010PropOp31
 70
     1
102
RTVSPost2010Prop32
280
     0
102
RTVSPost2010PropOp32
 70
     1
102
RTVSPost2010Prop33
280
     0
102
RTVSPost2010PropOp33
 70
     1
102
RTVSPost2010Prop34
280
     0
102
RTVSPost2010PropOp34
 70
     1
102
RTVSPost2010Prop35
280
     0
102
RTVSPost2010PropOp35
 70
     1
102
RTVSPost2010Prop36
280
     0
102
RTVSPost2010PropOp36
 70
     1
102
RTVSPost2010Prop37
 90
       50
102
RTVSPost2010PropOp37
 70
     1
102
RTVSPost2010Prop38
140
0.0
102
RTVSPost2010PropOp38
 70
     1
102
RTVSPost2010Prop39
140
1.0
102
RTVSPost2010PropOp39
 70
     1
102
RTVSPost2010Prop40
 90
        0
102
RTVSPost2010PropOp40
 70
     1
102
RTVSPost2010Prop41ColorIndex
 90
       18
102
RTVSPost2010Prop41ColorRGB
 90
        0
102
RTVSPost2010PropOp41
 70
     1
102
RTVSPost2010Prop42
 90
       50
102
RTVSPost2010PropOp42
 70
     1
102
RTVSPost2010Prop43
 90
        3
102
RTVSPost2010PropOp43
 70
     1
102
RTVSPost2010Prop44ColorIndex
 90
        5
102
RTVSPost2010Prop44ColorRGB
 90
      255
102
RTVSPost2010PropOp44
 70
     1
102
RTVSPost2010Prop45
280
     0
102
RTVSPost2010PropOp45
 70
     1
102
RTVSPost2010Prop46
 90
       50
102
RTVSPost2010PropOp46
 70
     1
102
RTVSPost2010Prop47
 90
       50
102
RTVSPost2010PropOp47
 70
     1
102
RTVSPost2010Prop48
 90
       50
102
RTVSPost2010PropOp48
 70
     1
102
RTVSPost2010Prop49
280
     0
102
RTVSPost2010PropOp49
 70
     1
102
RTVSPost2010Prop50
 90
       50
102
RTVSPost2010PropOp50
 70
     1
102
RTVSPost2010Prop51ColorIndex
 90
      256
102
RTVSPost2010Prop51ColorRGB
 90
-16777216
102
RTVSPost2010PropOp51
 70
     0
102
RTVSPost2010Prop52
140
1.0
102
RTVSPost2010PropOp52
 70
     0
102
RTVSPost2010Prop53
 90
        2
102
RTVSPost2010PropOp53
 70
     1
102
RTVSPost2010Prop54
  1
strokes_ogs.tif
102
RTVSPost2010PropOp54
 70
     1
102
RTVSPost2010Prop55
280
     0
102
RTVSPost2010PropOp55
 70
     1
102
RTVSPost2010Prop56
140
1.0
102
RTVSPost2010PropOp56
 70
     1
102
RTVSPost2010Prop57
140
1.0
102
RTVSPost2010PropOp57
 70
     1
102
RTVSPropertyOp0
 70
     1
102
RTVSPropertyOp1
 70
     1
102
RTVSPropertyOp2
 70
     1
102
RTVSPropertyOp3
 70
     1
102
RTVSPropertyOp4
 70
     1
102
RTVSPropertyOp5
 70
     1
102
RTVSPropertyOp6
 70
     1
102
RTVSPropertyOp7
 70
     1
102
RTVSPropertyOp8
 70
     1
102
RTVSPropertyOp9
 70
     1
102
RTVSPropertyOp10
 70
     1
102
RTVSPropertyOp11
 70
     1
102
RTVSPropertyOp12
 70
     1
102
RTVSPropertyOp13
 70
     1
102
RTVSPropertyOp14
 70
     1
102
RTVSPropertyOp15
 70
     1
102
RTVSPropertyOp16
 70
     1
102
RTVSPropertyOp17
 70
     1
102
RTVSPropertyOp18
 70
     1
102
RTVSPropertyOp19
 70
     1
102
RTVSPropertyOp20
 70
     1
102
RTVSPropertyOp21
 70
     1
102
RTVSPropertyOp22
 70
     1
102
RTVSPropertyOp23
 70
     1
102
RTVSPropertyOp24
 70
     1
102
RTVSPropertyOp25
 70
     1
102
RTVSPropertyOp26
 70
     1
102
RTVSPropertyOp27
 70
     1
102
RTVSPropertyOp28
 70
     1
102
RTVSPropertyOp29
 70
     1
102
RTVSPropertyOp30
 70
     1
102
RTVSPropertyOp31
 70
     1
102
RTVSPropertyOp32
 70
     1
102
RTVSPropertyOp33
 70
     1
102
RTVSPropertyOp34
 70
     1
102
RTVSPropertyOp35
 70
     1
102
RTVSPropertyOp36
 70
     1
102
RTVSPropertyOp37
 70
     1
102
RTVSPropertyOp38
 70
     1
102
RTVSPropertyOp39
 70
     1
102
RTVSPropertyOp40
 70
     1
102
RTVSPropertyOp41
 70
     1
102
RTVSPropertyOp42
 70
     1
102
RTVSPropertyOp43
 70
     1
102
RTVSPropertyOp44
 70
     1
102
RTVSPropertyOp45
 70
     1
102
RTVSPropertyOp46
 70
     1
102
RTVSPropertyOp47
 70
     1
102
RTVSPropertyOp48
 70
     1
102
RTVSPropertyOp49
 70
     1
102
RTVSPropertyOp50
 70
     1
102
RTVSPropertyOp51
 70
     0
102
RTVSPropertyOp52
 70
     0
102
RTVSPropertyOp53
 70
     1
102
RTVSPropertyOp54
 70
     1
102
RTVSPropertyOp55
 70
     1
102
RTVSPropertyOp56
 70
     1
102
RTVSPropertyOp57
 70
     1
102
RTVSPropertyOp58
 70
     1
102
RTVSPropertyOp59
 70
     1
102
RTVSPropertyOp60
 70
     1
102
RTVSPropertyOp61
 70
     1
102
RTVSPropertyOp62
 70
     1
  0
XRECORD
  5
4BA
102
{ACAD_REACTORS
330
4B9
102
}
330
4B9
100
AcDbXrecord
280
     1
102
RTVSPost2010Prop28
280
     0
102
RTVSPost2010PropOp28
 70
     1
102
RTVSPost2010Prop29
280
     1
102
RTVSPost2010PropOp29
 70
     1
102
RTVSPost2010Prop30
280
     1
102
RTVSPost2010PropOp30
 70
     1
102
RTVSPost2010Prop31
280
     0
102
RTVSPost2010PropOp31
 70
     1
102
RTVSPost2010Prop32
280
     0
102
RTVSPost2010PropOp32
 70
     1
102
RTVSPost2010Prop33
280
     0
102
RTVSPost2010PropOp33
 70
     1
102
RTVSPost2010Prop34
280
     0
102
RTVSPost2010PropOp34
 70
     1
102
RTVSPost2010Prop35
280
     0
102
RTVSPost2010PropOp35
 70
     1
102
RTVSPost2010Prop36
280
     0
102
RTVSPost2010PropOp36
 70
     1
102
RTVSPost2010Prop37
 90
       50
102
RTVSPost2010PropOp37
 70
     1
102
RTVSPost2010Prop38
140
0.0
102
RTVSPost2010PropOp38
 70
     1
102
RTVSPost2010Prop39
140
1.0
102
RTVSPost2010PropOp39
 70
     1
102
RTVSPost2010Prop40
 90
        0
102
RTVSPost2010PropOp40
 70
     1
102
RTVSPost2010Prop41ColorIndex
 90
       18
102
RTVSPost2010Prop41ColorRGB
 90
        0
102
RTVSPost2010PropOp41
 70
     1
102
RTVSPost2010Prop42
 90
       50
102
RTVSPost2010PropOp42
 70
     1
102
RTVSPost2010Prop43
 90
        3
102
RTVSPost2010PropOp43
 70
     1
102
RTVSPost2010Prop44ColorIndex
 90
        5
102
RTVSPost2010Prop44ColorRGB
 90
      255
102
RTVSPost2010PropOp44
 70
     1
102
RTVSPost2010Prop45
280
     0
102
RTVSPost2010PropOp45
 70
     1
102
RTVSPost2010Prop46
 90
       50
102
RTVSPost2010PropOp46
 70
     1
102
RTVSPost2010Prop47
 90
       50
102
RTVSPost2010PropOp47
 70
     1
102
RTVSPost2010Prop48
 90
       50
102
RTVSPost2010PropOp48
 70
     1
102
RTVSPost2010Prop49
280
     0
102
RTVSPost2010PropOp49
 70
     1
102
RTVSPost2010Prop50
 90
       50
102
RTVSPost2010PropOp50
 70
     1
102
RTVSPost2010Prop51ColorIndex
 90
      256
102
RTVSPost2010Prop51ColorRGB
 90
-16777216
102
RTVSPost2010PropOp51
 70
     0
102
RTVSPost2010Prop52
140
1.0
102
RTVSPost2010PropOp52
 70
     0
102
RTVSPost2010Prop53
 90
        2
102
RTVSPost2010PropOp53
 70
     1
102
RTVSPost2010Prop54
  1
strokes_ogs.tif
102
RTVSPost2010PropOp54
 70
     1
102
RTVSPost2010Prop55
280
     0
102
RTVSPost2010PropOp55
 70
     1
102
RTVSPost2010Prop56
140
1.0
102
RTVSPost2010PropOp56
 70
     1
102
RTVSPost2010Prop57
140
1.0
102
RTVSPost2010PropOp57
 70
     1
102
RTVSPropertyOp0
 70
     1
102
RTVSPropertyOp1
 70
     1
102
RTVSPropertyOp2
 70
     1
102
RTVSPropertyOp3
 70
     1
102
RTVSPropertyOp4
 70
     1
102
RTVSPropertyOp5
 70
     1
102
RTVSPropertyOp6
 70
     1
102
RTVSPropertyOp7
 70
     1
102
RTVSPropertyOp8
 70
     1
102
RTVSPropertyOp9
 70
     1
102
RTVSPropertyOp10
 70
     1
102
RTVSPropertyOp11
 70
     1
102
RTVSPropertyOp12
 70
     1
102
RTVSPropertyOp13
 70
     1
102
RTVSPropertyOp14
 70
     1
102
RTVSPropertyOp15
 70
     1
102
RTVSPropertyOp16
 70
     1
102
RTVSPropertyOp17
 70
     1
102
RTVSPropertyOp18
 70
     1
102
RTVSPropertyOp19
 70
     1
102
RTVSPropertyOp20
 70
     1
102
RTVSPropertyOp21
 70
     1
102
RTVSPropertyOp22
 70
     1
102
RTVSPropertyOp23
 70
     1
102
RTVSPropertyOp24
 70
     1
102
RTVSPropertyOp25
 70
     1
102
RTVSPropertyOp26
 70
     1
102
RTVSPropertyOp27
 70
     1
102
RTVSPropertyOp28
 70
     1
102
RTVSPropertyOp29
 70
     1
102
RTVSPropertyOp30
 70
     1
102
RTVSPropertyOp31
 70
     1
102
RTVSPropertyOp32
 70
     1
102
RTVSPropertyOp33
 70
     1
102
RTVSPropertyOp34
 70
     1
102
RTVSPropertyOp35
 70
     1
102
RTVSPropertyOp36
 70
     1
102
RTVSPropertyOp37
 70
     1
102
RTVSPropertyOp38
 70
     1
102
RTVSPropertyOp39
 70
     1
102
RTVSPropertyOp40
 70
     1
102
RTVSPropertyOp41
 70
     1
102
RTVSPropertyOp42
 70
     1
102
RTVSPropertyOp43
 70
     1
102
RTVSPropertyOp44
 70
     1
102
RTVSPropertyOp45
 70
     1
102
RTVSPropertyOp46
 70
     1
102
RTVSPropertyOp47
 70
     1
102
RTVSPropertyOp48
 70
     1
102
RTVSPropertyOp49
 70
     1
102
RTVSPropertyOp50
 70
     1
102
RTVSPropertyOp51
 70
     0
102
RTVSPropertyOp52
 70
     0
102
RTVSPropertyOp53
 70
     1
102
RTVSPropertyOp54
 70
     1
102
RTVSPropertyOp55
 70
     1
102
RTVSPropertyOp56
 70
     1
102
RTVSPropertyOp57
 70
     1
102
RTVSPropertyOp58
 70
     1
102
RTVSPropertyOp59
 70
     1
102
RTVSPropertyOp60
 70
     1
102
RTVSPropertyOp61
 70
     1
102
RTVSPropertyOp62
 70
     1
  0
XRECORD
  5
4B4
102
{ACAD_REACTORS
330
4B3
102
}
330
4B3
100
AcDbXrecord
280
     1
102
RTVSPost2010Prop28
280
     0
102
RTVSPost2010PropOp28
 70
     1
102
RTVSPost2010Prop29
280
     1
102
RTVSPost2010PropOp29
 70
     1
102
RTVSPost2010Prop30
280
     1
102
RTVSPost2010PropOp30
 70
     1
102
RTVSPost2010Prop31
280
     0
102
RTVSPost2010PropOp31
 70
     1
102
RTVSPost2010Prop32
280
     0
102
RTVSPost2010PropOp32
 70
     1
102
RTVSPost2010Prop33
280
     0
102
RTVSPost2010PropOp33
 70
     1
102
RTVSPost2010Prop34
280
     0
102
RTVSPost2010PropOp34
 70
     1
102
RTVSPost2010Prop35
280
     0
102
RTVSPost2010PropOp35
 70
     1
102
RTVSPost2010Prop36
280
     0
102
RTVSPost2010PropOp36
 70
     1
102
RTVSPost2010Prop37
 90
       50
102
RTVSPost2010PropOp37
 70
     1
102
RTVSPost2010Prop38
140
0.0
102
RTVSPost2010PropOp38
 70
     1
102
RTVSPost2010Prop39
140
1.0
102
RTVSPost2010PropOp39
 70
     1
102
RTVSPost2010Prop40
 90
        0
102
RTVSPost2010PropOp40
 70
     1
102
RTVSPost2010Prop41ColorIndex
 90
       18
102
RTVSPost2010Prop41ColorRGB
 90
        0
102
RTVSPost2010PropOp41
 70
     1
102
RTVSPost2010Prop42
 90
       50
102
RTVSPost2010PropOp42
 70
     1
102
RTVSPost2010Prop43
 90
        3
102
RTVSPost2010PropOp43
 70
     1
102
RTVSPost2010Prop44ColorIndex
 90
        5
102
RTVSPost2010Prop44ColorRGB
 90
      255
102
RTVSPost2010PropOp44
 70
     1
102
RTVSPost2010Prop45
280
     0
102
RTVSPost2010PropOp45
 70
     1
102
RTVSPost2010Prop46
 90
       50
102
RTVSPost2010PropOp46
 70
     1
102
RTVSPost2010Prop47
 90
       50
102
RTVSPost2010PropOp47
 70
     1
102
RTVSPost2010Prop48
 90
       50
102
RTVSPost2010PropOp48
 70
     1
102
RTVSPost2010Prop49
280
     0
102
RTVSPost2010PropOp49
 70
     1
102
RTVSPost2010Prop50
 90
       50
102
RTVSPost2010PropOp50
 70
     1
102
RTVSPost2010Prop51ColorIndex
 90
      256
102
RTVSPost2010Prop51ColorRGB
 90
-16777216
102
RTVSPost2010PropOp51
 70
     0
102
RTVSPost2010Prop52
140
1.0
102
RTVSPost2010PropOp52
 70
     0
102
RTVSPost2010Prop53
 90
        2
102
RTVSPost2010PropOp53
 70
     1
102
RTVSPost2010Prop54
  1
strokes_ogs.tif
102
RTVSPost2010PropOp54
 70
     1
102
RTVSPost2010Prop55
280
     0
102
RTVSPost2010PropOp55
 70
     1
102
RTVSPost2010Prop56
140
1.0
102
RTVSPost2010PropOp56
 70
     1
102
RTVSPost2010Prop57
140
1.0
102
RTVSPost2010PropOp57
 70
     1
102
RTVSPropertyOp0
 70
     1
102
RTVSPropertyOp1
 70
     1
102
RTVSPropertyOp2
 70
     1
102
RTVSPropertyOp3
 70
     1
102
RTVSPropertyOp4
 70
     1
102
RTVSPropertyOp5
 70
     1
102
RTVSPropertyOp6
 70
     1
102
RTVSPropertyOp7
 70
     1
102
RTVSPropertyOp8
 70
     1
102
RTVSPropertyOp9
 70
     1
102
RTVSPropertyOp10
 70
     1
102
RTVSPropertyOp11
 70
     1
102
RTVSPropertyOp12
 70
     1
102
RTVSPropertyOp13
 70
     1
102
RTVSPropertyOp14
 70
     1
102
RTVSPropertyOp15
 70
     1
102
RTVSPropertyOp16
 70
     1
102
RTVSPropertyOp17
 70
     1
102
RTVSPropertyOp18
 70
     1
102
RTVSPropertyOp19
 70
     1
102
RTVSPropertyOp20
 70
     1
102
RTVSPropertyOp21
 70
     1
102
RTVSPropertyOp22
 70
     1
102
RTVSPropertyOp23
 70
     1
102
RTVSPropertyOp24
 70
     1
102
RTVSPropertyOp25
 70
     1
102
RTVSPropertyOp26
 70
     1
102
RTVSPropertyOp27
 70
     1
102
RTVSPropertyOp28
 70
     1
102
RTVSPropertyOp29
 70
     1
102
RTVSPropertyOp30
 70
     1
102
RTVSPropertyOp31
 70
     1
102
RTVSPropertyOp32
 70
     1
102
RTVSPropertyOp33
 70
     1
102
RTVSPropertyOp34
 70
     1
102
RTVSPropertyOp35
 70
     1
102
RTVSPropertyOp36
 70
     1
102
RTVSPropertyOp37
 70
     1
102
RTVSPropertyOp38
 70
     1
102
RTVSPropertyOp39
 70
     1
102
RTVSPropertyOp40
 70
     1
102
RTVSPropertyOp41
 70
     1
102
RTVSPropertyOp42
 70
     1
102
RTVSPropertyOp43
 70
     1
102
RTVSPropertyOp44
 70
     1
102
RTVSPropertyOp45
 70
     1
102
RTVSPropertyOp46
 70
     1
102
RTVSPropertyOp47
 70
     1
102
RTVSPropertyOp48
 70
     1
102
RTVSPropertyOp49
 70
     1
102
RTVSPropertyOp50
 70
     1
102
RTVSPropertyOp51
 70
     0
102
RTVSPropertyOp52
 70
     0
102
RTVSPropertyOp53
 70
     1
102
RTVSPropertyOp54
 70
     1
102
RTVSPropertyOp55
 70
     1
102
RTVSPropertyOp56
 70
     1
102
RTVSPropertyOp57
 70
     1
102
RTVSPropertyOp58
 70
     1
102
RTVSPropertyOp59
 70
     1
102
RTVSPropertyOp60
 70
     1
102
RTVSPropertyOp61
 70
     1
102
RTVSPropertyOp62
 70
     1
  0
XRECORD
  5
4B6
102
{ACAD_REACTORS
330
4B5
102
}
330
4B5
100
AcDbXrecord
280
     1
102
RTVSPost2010Prop28
280
     0
102
RTVSPost2010PropOp28
 70
     1
102
RTVSPost2010Prop29
280
     1
102
RTVSPost2010PropOp29
 70
     1
102
RTVSPost2010Prop30
280
     1
102
RTVSPost2010PropOp30
 70
     1
102
RTVSPost2010Prop31
280
     0
102
RTVSPost2010PropOp31
 70
     1
102
RTVSPost2010Prop32
280
     0
102
RTVSPost2010PropOp32
 70
     1
102
RTVSPost2010Prop33
280
     0
102
RTVSPost2010PropOp33
 70
     1
102
RTVSPost2010Prop34
280
     0
102
RTVSPost2010PropOp34
 70
     1
102
RTVSPost2010Prop35
280
     0
102
RTVSPost2010PropOp35
 70
     1
102
RTVSPost2010Prop36
280
     0
102
RTVSPost2010PropOp36
 70
     1
102
RTVSPost2010Prop37
 90
       50
102
RTVSPost2010PropOp37
 70
     1
102
RTVSPost2010Prop38
140
0.0
102
RTVSPost2010PropOp38
 70
     1
102
RTVSPost2010Prop39
140
1.0
102
RTVSPost2010PropOp39
 70
     1
102
RTVSPost2010Prop40
 90
        0
102
RTVSPost2010PropOp40
 70
     1
102
RTVSPost2010Prop41ColorIndex
 90
       18
102
RTVSPost2010Prop41ColorRGB
 90
        0
102
RTVSPost2010PropOp41
 70
     1
102
RTVSPost2010Prop42
 90
       50
102
RTVSPost2010PropOp42
 70
     1
102
RTVSPost2010Prop43
 90
        3
102
RTVSPost2010PropOp43
 70
     1
102
RTVSPost2010Prop44ColorIndex
 90
        5
102
RTVSPost2010Prop44ColorRGB
 90
      255
102
RTVSPost2010PropOp44
 70
     1
102
RTVSPost2010Prop45
280
     0
102
RTVSPost2010PropOp45
 70
     1
102
RTVSPost2010Prop46
 90
       50
102
RTVSPost2010PropOp46
 70
     1
102
RTVSPost2010Prop47
 90
       50
102
RTVSPost2010PropOp47
 70
     1
102
RTVSPost2010Prop48
 90
       50
102
RTVSPost2010PropOp48
 70
     1
102
RTVSPost2010Prop49
280
     0
102
RTVSPost2010PropOp49
 70
     1
102
RTVSPost2010Prop50
 90
       50
102
RTVSPost2010PropOp50
 70
     1
102
RTVSPost2010Prop51ColorIndex
 90
      256
102
RTVSPost2010Prop51ColorRGB
 90
-16777216
102
RTVSPost2010PropOp51
 70
     0
102
RTVSPost2010Prop52
140
1.0
102
RTVSPost2010PropOp52
 70
     0
102
RTVSPost2010Prop53
 90
        2
102
RTVSPost2010PropOp53
 70
     1
102
RTVSPost2010Prop54
  1
strokes_ogs.tif
102
RTVSPost2010PropOp54
 70
     1
102
RTVSPost2010Prop55
280
     0
102
RTVSPost2010PropOp55
 70
     1
102
RTVSPost2010Prop56
140
1.0
102
RTVSPost2010PropOp56
 70
     1
102
RTVSPost2010Prop57
140
1.0
102
RTVSPost2010PropOp57
 70
     1
102
RTVSPropertyOp0
 70
     1
102
RTVSPropertyOp1
 70
     1
102
RTVSPropertyOp2
 70
     1
102
RTVSPropertyOp3
 70
     1
102
RTVSPropertyOp4
 70
     1
102
RTVSPropertyOp5
 70
     1
102
RTVSPropertyOp6
 70
     1
102
RTVSPropertyOp7
 70
     1
102
RTVSPropertyOp8
 70
     1
102
RTVSPropertyOp9
 70
     1
102
RTVSPropertyOp10
 70
     1
102
RTVSPropertyOp11
 70
     1
102
RTVSPropertyOp12
 70
     1
102
RTVSPropertyOp13
 70
     1
102
RTVSPropertyOp14
 70
     1
102
RTVSPropertyOp15
 70
     1
102
RTVSPropertyOp16
 70
     1
102
RTVSPropertyOp17
 70
     1
102
RTVSPropertyOp18
 70
     1
102
RTVSPropertyOp19
 70
     1
102
RTVSPropertyOp20
 70
     1
102
RTVSPropertyOp21
 70
     1
102
RTVSPropertyOp22
 70
     1
102
RTVSPropertyOp23
 70
     1
102
RTVSPropertyOp24
 70
     1
102
RTVSPropertyOp25
 70
     1
102
RTVSPropertyOp26
 70
     1
102
RTVSPropertyOp27
 70
     1
102
RTVSPropertyOp28
 70
     1
102
RTVSPropertyOp29
 70
     1
102
RTVSPropertyOp30
 70
     1
102
RTVSPropertyOp31
 70
     1
102
RTVSPropertyOp32
 70
     1
102
RTVSPropertyOp33
 70
     1
102
RTVSPropertyOp34
 70
     1
102
RTVSPropertyOp35
 70
     1
102
RTVSPropertyOp36
 70
     1
102
RTVSPropertyOp37
 70
     1
102
RTVSPropertyOp38
 70
     1
102
RTVSPropertyOp39
 70
     1
102
RTVSPropertyOp40
 70
     1
102
RTVSPropertyOp41
 70
     1
102
RTVSPropertyOp42
 70
     1
102
RTVSPropertyOp43
 70
     1
102
RTVSPropertyOp44
 70
     1
102
RTVSPropertyOp45
 70
     1
102
RTVSPropertyOp46
 70
     1
102
RTVSPropertyOp47
 70
     1
102
RTVSPropertyOp48
 70
     1
102
RTVSPropertyOp49
 70
     1
102
RTVSPropertyOp50
 70
     1
102
RTVSPropertyOp51
 70
     0
102
RTVSPropertyOp52
 70
     0
102
RTVSPropertyOp53
 70
     1
102
RTVSPropertyOp54
 70
     1
102
RTVSPropertyOp55
 70
     1
102
RTVSPropertyOp56
 70
     1
102
RTVSPropertyOp57
 70
     1
102
RTVSPropertyOp58
 70
     1
102
RTVSPropertyOp59
 70
     1
102
RTVSPropertyOp60
 70
     1
102
RTVSPropertyOp61
 70
     1
102
RTVSPropertyOp62
 70
     1
  0
XRECORD
  5
4AC
102
{ACAD_REACTORS
330
4AB
102
}
330
4AB
100
AcDbXrecord
280
     1
102
RTVSPost2010Prop28
280
     0
102
RTVSPost2010PropOp28
 70
     1
102
RTVSPost2010Prop29
280
     1
102
RTVSPost2010PropOp29
 70
     1
102
RTVSPost2010Prop30
280
     1
102
RTVSPost2010PropOp30
 70
     1
102
RTVSPost2010Prop31
280
     0
102
RTVSPost2010PropOp31
 70
     1
102
RTVSPost2010Prop32
280
     0
102
RTVSPost2010PropOp32
 70
     1
102
RTVSPost2010Prop33
280
     0
102
RTVSPost2010PropOp33
 70
     1
102
RTVSPost2010Prop34
280
     0
102
RTVSPost2010PropOp34
 70
     1
102
RTVSPost2010Prop35
280
     0
102
RTVSPost2010PropOp35
 70
     1
102
RTVSPost2010Prop36
280
     0
102
RTVSPost2010PropOp36
 70
     1
102
RTVSPost2010Prop37
 90
       50
102
RTVSPost2010PropOp37
 70
     1
102
RTVSPost2010Prop38
140
0.0
102
RTVSPost2010PropOp38
 70
     1
102
RTVSPost2010Prop39
140
1.0
102
RTVSPost2010PropOp39
 70
     1
102
RTVSPost2010Prop40
 90
        0
102
RTVSPost2010PropOp40
 70
     1
102
RTVSPost2010Prop41ColorIndex
 90
       18
102
RTVSPost2010Prop41ColorRGB
 90
        0
102
RTVSPost2010PropOp41
 70
     1
102
RTVSPost2010Prop42
 90
       50
102
RTVSPost2010PropOp42
 70
     1
102
RTVSPost2010Prop43
 90
        3
102
RTVSPost2010PropOp43
 70
     1
102
RTVSPost2010Prop44ColorIndex
 90
        5
102
RTVSPost2010Prop44ColorRGB
 90
      255
102
RTVSPost2010PropOp44
 70
     1
102
RTVSPost2010Prop45
280
     0
102
RTVSPost2010PropOp45
 70
     1
102
RTVSPost2010Prop46
 90
       50
102
RTVSPost2010PropOp46
 70
     1
102
RTVSPost2010Prop47
 90
       50
102
RTVSPost2010PropOp47
 70
     1
102
RTVSPost2010Prop48
 90
       50
102
RTVSPost2010PropOp48
 70
     1
102
RTVSPost2010Prop49
280
     0
102
RTVSPost2010PropOp49
 70
     1
102
RTVSPost2010Prop50
 90
       50
102
RTVSPost2010PropOp50
 70
     1
102
RTVSPost2010Prop51ColorIndex
 90
      256
102
RTVSPost2010Prop51ColorRGB
 90
-16777216
102
RTVSPost2010PropOp51
 70
     0
102
RTVSPost2010Prop52
140
1.0
102
RTVSPost2010PropOp52
 70
     0
102
RTVSPost2010Prop53
 90
        2
102
RTVSPost2010PropOp53
 70
     1
102
RTVSPost2010Prop54
  1
strokes_ogs.tif
102
RTVSPost2010PropOp54
 70
     1
102
RTVSPost2010Prop55
280
     0
102
RTVSPost2010PropOp55
 70
     1
102
RTVSPost2010Prop56
140
1.0
102
RTVSPost2010PropOp56
 70
     1
102
RTVSPost2010Prop57
140
1.0
102
RTVSPost2010PropOp57
 70
     1
102
RTVSPropertyOp0
 70
     1
102
RTVSPropertyOp1
 70
     1
102
RTVSPropertyOp2
 70
     1
102
RTVSPropertyOp3
 70
     1
102
RTVSPropertyOp4
 70
     1
102
RTVSPropertyOp5
 70
     1
102
RTVSPropertyOp6
 70
     1
102
RTVSPropertyOp7
 70
     1
102
RTVSPropertyOp8
 70
     1
102
RTVSPropertyOp9
 70
     1
102
RTVSPropertyOp10
 70
     1
102
RTVSPropertyOp11
 70
     1
102
RTVSPropertyOp12
 70
     1
102
RTVSPropertyOp13
 70
     1
102
RTVSPropertyOp14
 70
     1
102
RTVSPropertyOp15
 70
     1
102
RTVSPropertyOp16
 70
     1
102
RTVSPropertyOp17
 70
     1
102
RTVSPropertyOp18
 70
     1
102
RTVSPropertyOp19
 70
     1
102
RTVSPropertyOp20
 70
     1
102
RTVSPropertyOp21
 70
     1
102
RTVSPropertyOp22
 70
     1
102
RTVSPropertyOp23
 70
     1
102
RTVSPropertyOp24
 70
     1
102
RTVSPropertyOp25
 70
     1
102
RTVSPropertyOp26
 70
     1
102
RTVSPropertyOp27
 70
     1
102
RTVSPropertyOp28
 70
     1
102
RTVSPropertyOp29
 70
     1
102
RTVSPropertyOp30
 70
     1
102
RTVSPropertyOp31
 70
     1
102
RTVSPropertyOp32
 70
     1
102
RTVSPropertyOp33
 70
     1
102
RTVSPropertyOp34
 70
     1
102
RTVSPropertyOp35
 70
     1
102
RTVSPropertyOp36
 70
     1
102
RTVSPropertyOp37
 70
     1
102
RTVSPropertyOp38
 70
     1
102
RTVSPropertyOp39
 70
     1
102
RTVSPropertyOp40
 70
     1
102
RTVSPropertyOp41
 70
     1
102
RTVSPropertyOp42
 70
     1
102
RTVSPropertyOp43
 70
     1
102
RTVSPropertyOp44
 70
     1
102
RTVSPropertyOp45
 70
     1
102
RTVSPropertyOp46
 70
     1
102
RTVSPropertyOp47
 70
     1
102
RTVSPropertyOp48
 70
     1
102
RTVSPropertyOp49
 70
     1
102
RTVSPropertyOp50
 70
     1
102
RTVSPropertyOp51
 70
     0
102
RTVSPropertyOp52
 70
     0
102
RTVSPropertyOp53
 70
     1
102
RTVSPropertyOp54
 70
     1
102
RTVSPropertyOp55
 70
     1
102
RTVSPropertyOp56
 70
     1
102
RTVSPropertyOp57
 70
     1
102
RTVSPropertyOp58
 70
     1
102
RTVSPropertyOp59
 70
     1
102
RTVSPropertyOp60
 70
     1
102
RTVSPropertyOp61
 70
     1
102
RTVSPropertyOp62
 70
     1
  0
XRECORD
  5
4A0
102
{ACAD_REACTORS
330
49F
102
}
330
49F
100
AcDbXrecord
280
     1
102
RTVSPost2010Prop28
280
     0
102
RTVSPost2010PropOp28
 70
     1
102
RTVSPost2010Prop29
280
     1
102
RTVSPost2010PropOp29
 70
     1
102
RTVSPost2010Prop30
280
     1
102
RTVSPost2010PropOp30
 70
     1
102
RTVSPost2010Prop31
280
     0
102
RTVSPost2010PropOp31
 70
     1
102
RTVSPost2010Prop32
280
     0
102
RTVSPost2010PropOp32
 70
     1
102
RTVSPost2010Prop33
280
     0
102
RTVSPost2010PropOp33
 70
     1
102
RTVSPost2010Prop34
280
     0
102
RTVSPost2010PropOp34
 70
     1
102
RTVSPost2010Prop35
280
     0
102
RTVSPost2010PropOp35
 70
     1
102
RTVSPost2010Prop36
280
     0
102
RTVSPost2010PropOp36
 70
     1
102
RTVSPost2010Prop37
 90
       50
102
RTVSPost2010PropOp37
 70
     1
102
RTVSPost2010Prop38
140
0.0
102
RTVSPost2010PropOp38
 70
     1
102
RTVSPost2010Prop39
140
1.0
102
RTVSPost2010PropOp39
 70
     1
102
RTVSPost2010Prop40
 90
        0
102
RTVSPost2010PropOp40
 70
     1
102
RTVSPost2010Prop41ColorIndex
 90
       18
102
RTVSPost2010Prop41ColorRGB
 90
        0
102
RTVSPost2010PropOp41
 70
     1
102
RTVSPost2010Prop42
 90
       50
102
RTVSPost2010PropOp42
 70
     1
102
RTVSPost2010Prop43
 90
        3
102
RTVSPost2010PropOp43
 70
     1
102
RTVSPost2010Prop44ColorIndex
 90
        5
102
RTVSPost2010Prop44ColorRGB
 90
      255
102
RTVSPost2010PropOp44
 70
     1
102
RTVSPost2010Prop45
280
     0
102
RTVSPost2010PropOp45
 70
     1
102
RTVSPost2010Prop46
 90
       50
102
RTVSPost2010PropOp46
 70
     1
102
RTVSPost2010Prop47
 90
       50
102
RTVSPost2010PropOp47
 70
     1
102
RTVSPost2010Prop48
 90
       50
102
RTVSPost2010PropOp48
 70
     1
102
RTVSPost2010Prop49
280
     0
102
RTVSPost2010PropOp49
 70
     1
102
RTVSPost2010Prop50
 90
       50
102
RTVSPost2010PropOp50
 70
     1
102
RTVSPost2010Prop51ColorIndex
 90
      256
102
RTVSPost2010Prop51ColorRGB
 90
-16777216
102
RTVSPost2010PropOp51
 70
     0
102
RTVSPost2010Prop52
140
1.0
102
RTVSPost2010PropOp52
 70
     0
102
RTVSPost2010Prop53
 90
        2
102
RTVSPost2010PropOp53
 70
     1
102
RTVSPost2010Prop54
  1
strokes_ogs.tif
102
RTVSPost2010PropOp54
 70
     1
102
RTVSPost2010Prop55
280
     0
102
RTVSPost2010PropOp55
 70
     1
102
RTVSPost2010Prop56
140
1.0
102
RTVSPost2010PropOp56
 70
     1
102
RTVSPost2010Prop57
140
1.0
102
RTVSPost2010PropOp57
 70
     1
102
RTVSPropertyOp0
 70
     1
102
RTVSPropertyOp1
 70
     1
102
RTVSPropertyOp2
 70
     1
102
RTVSPropertyOp3
 70
     1
102
RTVSPropertyOp4
 70
     1
102
RTVSPropertyOp5
 70
     1
102
RTVSPropertyOp6
 70
     1
102
RTVSPropertyOp7
 70
     1
102
RTVSPropertyOp8
 70
     1
102
RTVSPropertyOp9
 70
     1
102
RTVSPropertyOp10
 70
     1
102
RTVSPropertyOp11
 70
     1
102
RTVSPropertyOp12
 70
     1
102
RTVSPropertyOp13
 70
     1
102
RTVSPropertyOp14
 70
     1
102
RTVSPropertyOp15
 70
     1
102
RTVSPropertyOp16
 70
     1
102
RTVSPropertyOp17
 70
     1
102
RTVSPropertyOp18
 70
     1
102
RTVSPropertyOp19
 70
     1
102
RTVSPropertyOp20
 70
     1
102
RTVSPropertyOp21
 70
     1
102
RTVSPropertyOp22
 70
     1
102
RTVSPropertyOp23
 70
     1
102
RTVSPropertyOp24
 70
     1
102
RTVSPropertyOp25
 70
     1
102
RTVSPropertyOp26
 70
     1
102
RTVSPropertyOp27
 70
     1
102
RTVSPropertyOp28
 70
     1
102
RTVSPropertyOp29
 70
     1
102
RTVSPropertyOp30
 70
     1
102
RTVSPropertyOp31
 70
     1
102
RTVSPropertyOp32
 70
     1
102
RTVSPropertyOp33
 70
     1
102
RTVSPropertyOp34
 70
     1
102
RTVSPropertyOp35
 70
     1
102
RTVSPropertyOp36
 70
     1
102
RTVSPropertyOp37
 70
     1
102
RTVSPropertyOp38
 70
     1
102
RTVSPropertyOp39
 70
     1
102
RTVSPropertyOp40
 70
     1
102
RTVSPropertyOp41
 70
     1
102
RTVSPropertyOp42
 70
     1
102
RTVSPropertyOp43
 70
     1
102
RTVSPropertyOp44
 70
     1
102
RTVSPropertyOp45
 70
     1
102
RTVSPropertyOp46
 70
     1
102
RTVSPropertyOp47
 70
     1
102
RTVSPropertyOp48
 70
     1
102
RTVSPropertyOp49
 70
     1
102
RTVSPropertyOp50
 70
     1
102
RTVSPropertyOp51
 70
     0
102
RTVSPropertyOp52
 70
     0
102
RTVSPropertyOp53
 70
     1
102
RTVSPropertyOp54
 70
     1
102
RTVSPropertyOp55
 70
     1
102
RTVSPropertyOp56
 70
     1
102
RTVSPropertyOp57
 70
     1
102
RTVSPropertyOp58
 70
     1
102
RTVSPropertyOp59
 70
     1
102
RTVSPropertyOp60
 70
     1
102
RTVSPropertyOp61
 70
     1
102
RTVSPropertyOp62
 70
     1
  0
XRECORD
  5
4B8
102
{ACAD_REACTORS
330
4B7
102
}
330
4B7
100
AcDbXrecord
280
     1
102
RTVSPost2010Prop28
280
     0
102
RTVSPost2010PropOp28
 70
     1
102
RTVSPost2010Prop29
280
     1
102
RTVSPost2010PropOp29
 70
     1
102
RTVSPost2010Prop30
280
     1
102
RTVSPost2010PropOp30
 70
     1
102
RTVSPost2010Prop31
280
     0
102
RTVSPost2010PropOp31
 70
     1
102
RTVSPost2010Prop32
280
     0
102
RTVSPost2010PropOp32
 70
     1
102
RTVSPost2010Prop33
280
     0
102
RTVSPost2010PropOp33
 70
     1
102
RTVSPost2010Prop34
280
     0
102
RTVSPost2010PropOp34
 70
     1
102
RTVSPost2010Prop35
280
     0
102
RTVSPost2010PropOp35
 70
     1
102
RTVSPost2010Prop36
280
     0
102
RTVSPost2010PropOp36
 70
     1
102
RTVSPost2010Prop37
 90
       50
102
RTVSPost2010PropOp37
 70
     1
102
RTVSPost2010Prop38
140
0.0
102
RTVSPost2010PropOp38
 70
     1
102
RTVSPost2010Prop39
140
1.0
102
RTVSPost2010PropOp39
 70
     1
102
RTVSPost2010Prop40
 90
        0
102
RTVSPost2010PropOp40
 70
     1
102
RTVSPost2010Prop41ColorIndex
 90
       18
102
RTVSPost2010Prop41ColorRGB
 90
        0
102
RTVSPost2010PropOp41
 70
     1
102
RTVSPost2010Prop42
 90
       50
102
RTVSPost2010PropOp42
 70
     1
102
RTVSPost2010Prop43
 90
        3
102
RTVSPost2010PropOp43
 70
     1
102
RTVSPost2010Prop44ColorIndex
 90
        5
102
RTVSPost2010Prop44ColorRGB
 90
      255
102
RTVSPost2010PropOp44
 70
     1
102
RTVSPost2010Prop45
280
     0
102
RTVSPost2010PropOp45
 70
     1
102
RTVSPost2010Prop46
 90
       50
102
RTVSPost2010PropOp46
 70
     1
102
RTVSPost2010Prop47
 90
       50
102
RTVSPost2010PropOp47
 70
     1
102
RTVSPost2010Prop48
 90
       50
102
RTVSPost2010PropOp48
 70
     1
102
RTVSPost2010Prop49
280
     0
102
RTVSPost2010PropOp49
 70
     1
102
RTVSPost2010Prop50
 90
       50
102
RTVSPost2010PropOp50
 70
     1
102
RTVSPost2010Prop51ColorIndex
 90
      256
102
RTVSPost2010Prop51ColorRGB
 90
-16777216
102
RTVSPost2010PropOp51
 70
     0
102
RTVSPost2010Prop52
140
1.0
102
RTVSPost2010PropOp52
 70
     0
102
RTVSPost2010Prop53
 90
        2
102
RTVSPost2010PropOp53
 70
     1
102
RTVSPost2010Prop54
  1
strokes_ogs.tif
102
RTVSPost2010PropOp54
 70
     1
102
RTVSPost2010Prop55
280
     0
102
RTVSPost2010PropOp55
 70
     1
102
RTVSPost2010Prop56
140
1.0
102
RTVSPost2010PropOp56
 70
     1
102
RTVSPost2010Prop57
140
1.0
102
RTVSPost2010PropOp57
 70
     1
102
RTVSPropertyOp0
 70
     1
102
RTVSPropertyOp1
 70
     1
102
RTVSPropertyOp2
 70
     1
102
RTVSPropertyOp3
 70
     1
102
RTVSPropertyOp4
 70
     1
102
RTVSPropertyOp5
 70
     1
102
RTVSPropertyOp6
 70
     1
102
RTVSPropertyOp7
 70
     1
102
RTVSPropertyOp8
 70
     1
102
RTVSPropertyOp9
 70
     1
102
RTVSPropertyOp10
 70
     1
102
RTVSPropertyOp11
 70
     1
102
RTVSPropertyOp12
 70
     1
102
RTVSPropertyOp13
 70
     1
102
RTVSPropertyOp14
 70
     1
102
RTVSPropertyOp15
 70
     1
102
RTVSPropertyOp16
 70
     1
102
RTVSPropertyOp17
 70
     1
102
RTVSPropertyOp18
 70
     1
102
RTVSPropertyOp19
 70
     1
102
RTVSPropertyOp20
 70
     1
102
RTVSPropertyOp21
 70
     1
102
RTVSPropertyOp22
 70
     1
102
RTVSPropertyOp23
 70
     1
102
RTVSPropertyOp24
 70
     1
102
RTVSPropertyOp25
 70
     1
102
RTVSPropertyOp26
 70
     1
102
RTVSPropertyOp27
 70
     1
102
RTVSPropertyOp28
 70
     1
102
RTVSPropertyOp29
 70
     1
102
RTVSPropertyOp30
 70
     1
102
RTVSPropertyOp31
 70
     1
102
RTVSPropertyOp32
 70
     1
102
RTVSPropertyOp33
 70
     1
102
RTVSPropertyOp34
 70
     1
102
RTVSPropertyOp35
 70
     1
102
RTVSPropertyOp36
 70
     1
102
RTVSPropertyOp37
 70
     1
102
RTVSPropertyOp38
 70
     1
102
RTVSPropertyOp39
 70
     1
102
RTVSPropertyOp40
 70
     1
102
RTVSPropertyOp41
 70
     1
102
RTVSPropertyOp42
 70
     1
102
RTVSPropertyOp43
 70
     1
102
RTVSPropertyOp44
 70
     1
102
RTVSPropertyOp45
 70
     1
102
RTVSPropertyOp46
 70
     1
102
RTVSPropertyOp47
 70
     1
102
RTVSPropertyOp48
 70
     1
102
RTVSPropertyOp49
 70
     1
102
RTVSPropertyOp50
 70
     1
102
RTVSPropertyOp51
 70
     0
102
RTVSPropertyOp52
 70
     0
102
RTVSPropertyOp53
 70
     1
102
RTVSPropertyOp54
 70
     1
102
RTVSPropertyOp55
 70
     1
102
RTVSPropertyOp56
 70
     1
102
RTVSPropertyOp57
 70
     1
102
RTVSPropertyOp58
 70
     1
102
RTVSPropertyOp59
 70
     1
102
RTVSPropertyOp60
 70
     1
102
RTVSPropertyOp61
 70
     1
102
RTVSPropertyOp62
 70
     1
  0
ENDSEC
  0
EOF
