  0
SECTION
  2
HEADER
  9
$ACADVER
  1
AC1024
  9
$ACADMAINTVER
 70
   181
  9
$DWGCODEPAGE
  3
ANSI_932
  9
$LASTSAVEDBY
  1
kenzai
  9
$INSBASE
 10
0.0
 20
0.0
 30
0.0
  9
$EXTMIN
 10
-138.0163109423782
 20
-94.50884959708066
 30
-0.0000000000112498
  9
$EXTMAX
 10
138.6537634968453
 20
95.01217699040683
 30
0.0000000000002956
  9
$LIMMIN
 10
-148.0
 20
-104.5
  9
$LIMMAX
 10
149.0
 20
105.5
  9
$ORTHOMODE
 70
     1
  9
$REGENMODE
 70
     1
  9
$FILLMODE
 70
     1
  9
$QTEXTMODE
 70
     0
  9
$MIRRTEXT
 70
     0
  9
$LTSCALE
 40
1.0
  9
$ATTMODE
 70
     1
  9
$TEXTSIZE
 40
0.2
  9
$TRACEWID
 40
0.05
  9
$TEXTSTYLE
  7
STANDARD
  9
$CLAYER
  8
0
  9
$CELTYPE
  6
CONTINUOUS
  9
$CECOLOR
 62
   256
  9
$CELTSCALE
 40
1.0
  9
$DISPSILH
 70
     0
  9
$DIMSCALE
 40
1.0
  9
$DIMASZ
 40
1.0
  9
$DIMEXO
 40
2.54
  9
$DIMDLI
 40
0.38
  9
$DIMRND
 40
0.0
  9
$DIMDLE
 40
0.0
  9
$DIMEXE
 40
2.54
  9
$DIMTP
 40
0.0
  9
$DIMTM
 40
0.0
  9
$DIMTXT
 40
3.200000047683716
  9
$DIMCEN
 40
0.09
  9
$DIMTSZ
 40
0.0
  9
$DIMTOL
 70
     0
  9
$DIMLIM
 70
     0
  9
$DIMTIH
 70
     0
  9
$DIMTOH
 70
     0
  9
$DIMSE1
 70
     0
  9
$DIMSE2
 70
     0
  9
$DIMTAD
 70
     1
  9
$DIMZIN
 70
     0
  9
$DIMBLK
  1

  9
$DIMASO
 70
     1
  9
$DIMSHO
 70
     0
  9
$DIMPOST
  1

  9
$DIMAPOST
  1

  9
$DIMALT
 70
     0
  9
$DIMALTD
 70
     2
  9
$DIMALTF
 40
25.4
  9
$DIMLFAC
 40
1.0
  9
$DIMTOFL
 70
     0
  9
$DIMTVP
 40
1.0
  9
$DIMTIX
 70
     0
  9
$DIMSOXD
 70
     0
  9
$DIMSAH
 70
     1
  9
$DIMBLK1
  1

  9
$DIMBLK2
  1

  9
$DIMSTYLE
  2
DIMSTYLE
  9
$DIMCLRD
 70
     0
  9
$DIMCLRE
 70
     0
  9
$DIMCLRT
 70
     0
  9
$DIMTFAC
 40
1.0
  9
$DIMGAP
 40
1.600000023841858
  9
$DIMJUST
 70
     0
  9
$DIMSD1
 70
     0
  9
$DIMSD2
 70
     0
  9
$DIMTOLJ
 70
     1
  9
$DIMTZIN
 70
     0
  9
$DIMALTZ
 70
     0
  9
$DIMALTTZ
 70
     0
  9
$DIMUPT
 70
     0
  9
$DIMDEC
 70
     2
  9
$DIMTDEC
 70
     4
  9
$DIMALTU
 70
     2
  9
$DIMALTTD
 70
     2
  9
$DIMTXSTY
  7
STANDARD
  9
$DIMAUNIT
 70
     1
  9
$DIMADEC
 70
     0
  9
$DIMALTRND
 40
0.0
  9
$DIMAZIN
 70
     0
  9
$DIMDSEP
 70
    46
  9
$DIMATFIT
 70
     3
  9
$DIMFRAC
 70
     0
  9
$DIMLDRBLK
  1

  9
$DIMLUNIT
 70
     2
  9
$DIMLWD
 70
    -2
  9
$DIMLWE
 70
    -2
  9
$DIMTMOVE
 70
     0
  9
$DIMFXL
 40
1.0
  9
$DIMFXLON
 70
     0
  9
$DIMJOGANG
 40
0.7853981633974483
  9
$DIMTFILL
 70
     0
  9
$DIMTFILLCLR
 70
     0
  9
$DIMARCSYM
 70
     0
  9
$DIMLTYPE
  6

  9
$DIMLTEX1
  6

  9
$DIMLTEX2
  6

  9
$DIMTXTDIRECTION
 70
     0
  9
$LUNITS
 70
     2
  9
$LUPREC
 70
     4
  9
$SKETCHINC
 40
0.1
  9
$FILLETRAD
 40
0.0
  9
$AUNITS
 70
     0
  9
$AUPREC
 70
     0
  9
$MENU
  1
.
  9
$ELEVATION
 40
0.0
  9
$PELEVATION
 40
0.0
  9
$THICKNESS
 40
0.0
  9
$LIMCHECK
 70
     0
  9
$CHAMFERA
 40
0.0
  9
$CHAMFERB
 40
0.0
  9
$CHAMFERC
 40
0.0
  9
$CHAMFERD
 40
0.0
  9
$SKPOLY
 70
     0
  9
$TDCREATE
 40
2455478.431902303
  9
$TDUCREATE
 40
2455478.056902304
  9
$TDUPDATE
 40
2457291.686492709
  9
$TDUUPDATE
 40
2457291.311492709
  9
$TDINDWG
 40
0.0107858449
  9
$TDUSRTIMER
 40
0.0107793519
  9
$USRTIMER
 70
     1
  9
$ANGBASE
 50
0.0
  9
$ANGDIR
 70
     0
  9
$PDMODE
 70
     0
  9
$PDSIZE
 40
0.0
  9
$PLINEWID
 40
0.0
  9
$SPLFRAME
 70
     0
  9
$SPLINETYPE
 70
     6
  9
$SPLINESEGS
 70
     8
  9
$HANDSEED
  5
52C
  9
$SURFTAB1
 70
     6
  9
$SURFTAB2
 70
     6
  9
$SURFTYPE
 70
     6
  9
$SURFU
 70
     6
  9
$SURFV
 70
     6
  9
$UCSBASE
  2

  9
$UCSNAME
  2

  9
$UCSORG
 10
0.0
 20
0.0
 30
0.0
  9
$UCSXDIR
 10
1.0
 20
0.0
 30
0.0
  9
$UCSYDIR
 10
0.0
 20
1.0
 30
0.0
  9
$UCSORTHOREF
  2

  9
$UCSORTHOVIEW
 70
     0
  9
$UCSORGTOP
 10
0.0
 20
0.0
 30
0.0
  9
$UCSORGBOTTOM
 10
0.0
 20
0.0
 30
0.0
  9
$UCSORGLEFT
 10
0.0
 20
0.0
 30
0.0
  9
$UCSORGRIGHT
 10
0.0
 20
0.0
 30
0.0
  9
$UCSORGFRONT
 10
0.0
 20
0.0
 30
0.0
  9
$UCSORGBACK
 10
0.0
 20
0.0
 30
0.0
  9
$PUCSBASE
  2

  9
$PUCSNAME
  2

  9
$PUCSORG
 10
0.0
 20
0.0
 30
0.0
  9
$PUCSXDIR
 10
1.0
 20
0.0
 30
0.0
  9
$PUCSYDIR
 10
0.0
 20
1.0
 30
0.0
  9
$PUCSORTHOREF
  2

  9
$PUCSORTHOVIEW
 70
     0
  9
$PUCSORGTOP
 10
0.0
 20
0.0
 30
0.0
  9
$PUCSORGBOTTOM
 10
0.0
 20
0.0
 30
0.0
  9
$PUCSORGLEFT
 10
0.0
 20
0.0
 30
0.0
  9
$PUCSORGRIGHT
 10
0.0
 20
0.0
 30
0.0
  9
$PUCSORGFRONT
 10
0.0
 20
0.0
 30
0.0
  9
$PUCSORGBACK
 10
0.0
 20
0.0
 30
0.0
  9
$USERI1
 70
     0
  9
$USERI2
 70
     0
  9
$USERI3
 70
     0
  9
$USERI4
 70
     0
  9
$USERI5
 70
     0
  9
$USERR1
 40
0.0
  9
$USERR2
 40
0.0
  9
$USERR3
 40
0.0
  9
$USERR4
 40
0.0
  9
$USERR5
 40
0.0
  9
$WORLDVIEW
 70
     1
  9
$SHADEDGE
 70
     3
  9
$SHADEDIF
 70
    70
  9
$TILEMODE
 70
     1
  9
$MAXACTVP
 70
    64
  9
$PINSBASE
 10
0.0
 20
0.0
 30
0.0
  9
$PLIMCHECK
 70
     0
  9
$PEXTMIN
 10
-148.0
 20
-104.5
 30
0.0
  9
$PEXTMAX
 10
149.0
 20
105.5
 30
0.0
  9
$PLIMMIN
 10
-148.0
 20
-104.5
  9
$PLIMMAX
 10
149.0
 20
105.5
  9
$UNITMODE
 70
     0
  9
$VISRETAIN
 70
     1
  9
$PLINEGEN
 70
     0
  9
$PSLTSCALE
 70
     1
  9
$TREEDEPTH
 70
  3020
  9
$CMLSTYLE
  2
STANDARD
  9
$CMLJUST
 70
     0
  9
$CMLSCALE
 40
1.0
  9
$PROXYGRAPHICS
 70
     1
  9
$MEASUREMENT
 70
     1
  9
$CELWEIGHT
370
    -1
  9
$ENDCAPS
280
     0
  9
$JOINSTYLE
280
     0
  9
$LWDISPLAY
290
     1
  9
$INSUNITS
 70
     0
  9
$HYPERLINKBASE
  1

  9
$STYLESHEET
  1
MONOCHROME.CTB
  9
$XEDIT
290
     1
  9
$CEPSNTYPE
380
     0
  9
$PSTYLEMODE
290
     1
  9
$FINGERPRINTGUID
  2
{A6241302-BB18-4908-87E8-4812262E59C8}
  9
$VERSIONGUID
  2
{42A17C1E-399F-4848-A991-EF91C7C846BA}
  9
$EXTNAMES
290
     1
  9
$PSVPSCALE
 40
0.0
  9
$OLESTARTUP
290
     0
  9
$SORTENTS
280
   127
  9
$INDEXCTL
280
     0
  9
$HIDETEXT
280
     0
  9
$XCLIPFRAME
280
     2
  9
$HALOGAP
280
     0
  9
$OBSCOLOR
 70
   257
  9
$OBSLTYPE
280
     0
  9
$INTERSECTIONDISPLAY
280
     0
  9
$INTERSECTIONCOLOR
 70
   257
  9
$DIMASSOC
280
     1
  9
$PROJECTNAME
  1

  9
$CAMERADISPLAY
290
     0
  9
$LENSLENGTH
 40
50.0
  9
$CAMERAHEIGHT
 40
0.0
  9
$STEPSPERSEC
 40
2.0
  9
$STEPSIZE
 40
6.0
  9
$3DDWFPREC
 40
2.0
  9
$PSOLWIDTH
 40
0.25
  9
$PSOLHEIGHT
 40
4.0
  9
$LOFTANG1
 40
1.570796326794896
  9
$LOFTANG2
 40
1.570796326794896
  9
$LOFTMAG1
 40
0.0
  9
$LOFTMAG2
 40
0.0
  9
$LOFTPARAM
 70
     7
  9
$LOFTNORMALS
280
     1
  9
$LATITUDE
 40
37.795
  9
$LONGITUDE
 40
-122.394
  9
$NORTHDIRECTION
 40
0.0
  9
$TIMEZONE
 70
 -8000
  9
$LIGHTGLYPHDISPLAY
280
     1
  9
$TILEMODELIGHTSYNCH
280
     1
  9
$CMATERIAL
347
442
  9
$SOLIDHIST
280
     0
  9
$SHOWHIST
280
     1
  9
$DWFFRAME
280
     2
  9
$DGNFRAME
280
     0
  9
$REALWORLDSCALE
290
     1
  9
$INTERFERECOLOR
 62
     1
  9
$INTERFEREOBJVS
345
464
  9
$INTERFEREVPVS
346
461
  9
$CSHADOW
280
     0
  9
$SHADOWPLANELOCATION
 40
0.0
  0
ENDSEC
  0
SECTION
  2
CLASSES
  0
CLASS
  1
ACDBDICTIONARYWDFLT
  2
AcDbDictionaryWithDefault
  3
ObjectDBX Classes
 90
        0
 91
        1
280
     0
281
     0
  0
CLASS
  1
TABLESTYLE
  2
AcDbTableStyle
  3
ObjectDBX Classes
 90
     4095
 91
        1
280
     0
281
     0
  0
CLASS
  1
DICTIONARYVAR
  2
AcDbDictionaryVar
  3
ObjectDBX Classes
 90
        0
 91
       19
280
     0
281
     0
  0
CLASS
  1
SORTENTSTABLE
  2
AcDbSortentsTable
  3
ObjectDBX Classes
 90
        0
 91
        2
280
     0
281
     0
  0
CLASS
  1
PLOTSETTINGS
  2
AcDbPlotSettings
  3
ObjectDBX Classes
 90
        0
 91
        1
280
     0
281
     0
  0
CLASS
  1
MATERIAL
  2
AcDbMaterial
  3
ObjectDBX Classes
 90
     1153
 91
        3
280
     0
281
     0
  0
CLASS
  1
VISUALSTYLE
  2
AcDbVisualStyle
  3
ObjectDBX Classes
 90
     4095
 91
       24
280
     0
281
     0
  0
CLASS
  1
SCALE
  2
AcDbScale
  3
ObjectDBX Classes
 90
     1153
 91
       17
280
     0
281
     0
  0
CLASS
  1
MLEADERSTYLE
  2
AcDbMLeaderStyle
  3
ACDB_MLEADERSTYLE_CLASS
 90
     4095
 91
        1
280
     0
281
     0
  0
CLASS
  1
ACDBSECTIONVIEWSTYLE
  2
AcDbSectionViewStyle
  3
ObjectDBX Classes
 90
     1025
 91
        1
280
     0
281
     0
  0
CLASS
  1
ACDBDETAILVIEWSTYLE
  2
AcDbDetailViewStyle
  3
ObjectDBX Classes
 90
     1025
 91
        1
280
     0
281
     0
  0
CLASS
  1
CELLSTYLEMAP
  2
AcDbCellStyleMap
  3
ObjectDBX Classes
 90
     1152
 91
        1
280
     0
281
     0
  0
ENDSEC
  0
SECTION
  2
TABLES
  0
TABLE
  2
VPORT
  5
DC
330
0
100
AcDbSymbolTable
 70
     1
  0
VPORT
  5
438
330
DC
100
AcDbSymbolTableRecord
100
AcDbViewportTableRecord
  2
*Active
 70
     0
 10
0.0
 20
0.0
 11
1.0
 21
1.0
 12
0.3187262772335231
 22
0.251663696663087
 13
0.0
 23
0.0
 14
1.0
 24
1.0
 15
0.0
 25
0.0
 16
0.0
 26
0.0
 36
1.0
 17
0.0
 27
0.0
 37
0.0
 40
190.9077658064203
 41
1.905982905982905
 42
50.0
 43
0.0
 44
0.0
 50
0.0
 51
0.0
 71
     0
 72
  1000
 73
     1
 74
     3
 75
     0
 76
     0
 77
     0
 78
     0
281
     0
 65
     1
110
0.0
120
0.0
130
0.0
111
1.0
121
0.0
131
0.0
112
0.0
122
1.0
132
0.0
 79
     0
146
0.0
348
460
 60
     3
 61
     5
292
     1
282
     1
141
0.0
142
0.0
 63
   250
421
  3355443
1001
ACAD_NAV_VCDISPLAY
1070
     3
  0
ENDTAB
  0
TABLE
  2
LTYPE
  5
25
330
0
100
AcDbSymbolTable
 70
     6
  0
LTYPE
  5
26
330
25
100
AcDbSymbolTableRecord
100
AcDbLinetypeTableRecord
  2
BYBLOCK
 70
     0
  3

 72
    65
 73
     0
 40
0.0
  0
LTYPE
  5
27
330
25
100
AcDbSymbolTableRecord
100
AcDbLinetypeTableRecord
  2
BYLAYER
 70
     0
  3

 72
    65
 73
     0
 40
0.0
  0
LTYPE
  5
28
330
25
100
AcDbSymbolTableRecord
100
AcDbLinetypeTableRecord
  2
CONTINUOUS
 70
     0
  3
Solid line
 72
    65
 73
     0
 40
0.0
  0
LTYPE
  5
29
330
25
100
AcDbSymbolTableRecord
100
AcDbLinetypeTableRecord
  2
DASHED
 70
     0
  3
Dashed __ __ __ __ __ __ __ __ __ __ __ __ __ _
 72
    65
 73
     2
 40
4.5
 49
3.0
 74
     0
 49
-1.5
 74
     0
  0
LTYPE
  5
2A
330
25
100
AcDbSymbolTableRecord
100
AcDbLinetypeTableRecord
  2
CENTER
 70
     0
  3
Center ____ _ ____ _ ____ _ ____ _ ____ _ ____
 72
    65
 73
     4
 40
12.0
 49
7.5
 74
     0
 49
-1.5
 74
     0
 49
1.5
 74
     0
 49
-1.5
 74
     0
  0
LTYPE
  5
2D
330
25
100
AcDbSymbolTableRecord
100
AcDbLinetypeTableRecord
  2
HIDDEN
 70
     0
  3
Hidden __ __ __ __ __ __ __ __ __ __ __ __ __ _
 72
    65
 73
     2
 40
4.5
 49
3.0
 74
     0
 49
-1.5
 74
     0
  0
LTYPE
  5
31
330
25
100
AcDbSymbolTableRecord
100
AcDbLinetypeTableRecord
  2
CENTER2
 70
     0
  3
Center (.5x) ___ _ ___ _ ___ _ ___ _ ___ _ ___
 72
    65
 73
     4
 40
6.0
 49
3.75
 74
     0
 49
-0.75
 74
     0
 49
0.75
 74
     0
 49
-0.75
 74
     0
  0
LTYPE
  5
3D
330
25
100
AcDbSymbolTableRecord
100
AcDbLinetypeTableRecord
  2
HIDDEN2
 70
     0
  3
Hidden (.5x) _ _ _ _ _ _ _ _ _ _ _ _ _ _ _ _ _
 72
    65
 73
     2
 40
2.25
 49
1.5
 74
     0
 49
-0.75
 74
     0
  0
ENDTAB
  0
TABLE
  2
LAYER
  5
C8
330
0
100
AcDbSymbolTable
 70
    12
  0
LAYER
  5
C9
102
{ACAD_XDICTIONARY
360
49C
102
}
330
C8
100
AcDbSymbolTableRecord
100
AcDbLayerTableRecord
  2
0
 70
     0
 62
     7
  6
CONTINUOUS
370
    -3
390
1FF
347
452
  0
LAYER
  5
CA
102
{ACAD_XDICTIONARY
360
49E
102
}
330
C8
100
AcDbSymbolTableRecord
100
AcDbLayerTableRecord
  2
1
 70
     0
 62
     7
  6
CONTINUOUS
370
    -3
390
1FF
347
452
  0
LAYER
  5
CB
330
C8
100
AcDbSymbolTableRecord
100
AcDbLayerTableRecord
  2
DEFPOINTS
 70
     0
 62
     7
  6
CONTINUOUS
290
     0
370
    -3
390
1FF
347
452
  0
LAYER
  5
217
102
{ACAD_XDICTIONARY
360
4A0
102
}
330
C8
100
AcDbSymbolTableRecord
100
AcDbLayerTableRecord
  2
外形線
 70
     0
 62
     7
  6
CONTINUOUS
370
    30
390
1FF
347
452
1001
AcAecLayerStandard
1000

1000

  0
LAYER
  5
218
102
{ACAD_XDICTIONARY
360
4A2
102
}
330
C8
100
AcDbSymbolTableRecord
100
AcDbLayerTableRecord
  2
図枠
 70
     0
 62
     7
  6
CONTINUOUS
370
    50
390
1FF
347
452
1001
AcAecLayerStandard
1000

1000

  0
LAYER
  5
219
102
{ACAD_XDICTIONARY
360
4A4
102
}
330
C8
100
AcDbSymbolTableRecord
100
AcDbLayerTableRecord
  2
寸法線
 70
     0
 62
     3
  6
CONTINUOUS
370
    15
390
1FF
347
452
1001
AcAecLayerStandard
1000

1000

  0
LAYER
  5
21A
102
{ACAD_XDICTIONARY
360
4A6
102
}
330
C8
100
AcDbSymbolTableRecord
100
AcDbLayerTableRecord
  2
中心線
 70
     0
 62
     5
  6
CENTER2
370
    -3
390
1FF
347
452
1001
AcAecLayerStandard
1000

1000

  0
LAYER
  5
21B
102
{ACAD_XDICTIONARY
360
4A8
102
}
330
C8
100
AcDbSymbolTableRecord
100
AcDbLayerTableRecord
  2
破線
 70
     0
 62
     4
  6
HIDDEN2
370
    -3
390
1FF
347
452
1001
AcAecLayerStandard
1000

1000

  0
LAYER
  5
21C
102
{ACAD_XDICTIONARY
360
4AA
102
}
330
C8
100
AcDbSymbolTableRecord
100
AcDbLayerTableRecord
  2
文字
 70
     0
 62
     2
  6
CONTINUOUS
370
    -3
390
1FF
347
452
1001
AcAecLayerStandard
1000

1000

  0
LAYER
  5
21D
102
{ACAD_XDICTIONARY
360
4AC
102
}
330
C8
100
AcDbSymbolTableRecord
100
AcDbLayerTableRecord
  2
補助線
 70
     0
 62
   252
  6
HIDDEN2
290
     0
370
    -3
390
1FF
347
452
1001
AcAecLayerStandard
1000

1000

  0
LAYER
  5
2D1
102
{ACAD_XDICTIONARY
360
4AE
102
}
330
C8
100
AcDbSymbolTableRecord
100
AcDbLayerTableRecord
  2
VIEW0002
 70
     0
 62
     7
  6
CONTINUOUS
370
    -3
390
1FF
347
452
  0
LAYER
  5
490
102
{ACAD_XDICTIONARY
360
491
102
}
330
C8
100
AcDbSymbolTableRecord
100
AcDbLayerTableRecord
  2
VIEW0001
 70
     0
 62
     7
  6
CONTINUOUS
370
    -3
390
1FF
347
452
  0
ENDTAB
  0
TABLE
  2
STYLE
  5
CC
330
0
100
AcDbSymbolTable
 70
     2
  0
STYLE
  5
23
330
CC
100
AcDbSymbolTableRecord
100
AcDbTextStyleTableRecord
  2
STANDARD
 70
     0
 40
0.0
 41
1.0
 50
0.0
 71
     0
 42
0.2
  3
txt
  4
BIGFONT
  0
STYLE
  5
24
330
CC
100
AcDbSymbolTableRecord
100
AcDbTextStyleTableRecord
  2

 70
     1
 40
0.0
 41
1.0
 50
0.0
 71
     0
 42
0.2
  3
ltypeshp.shx
  4

  0
ENDTAB
  0
TABLE
  2
VIEW
  5
D1
330
0
100
AcDbSymbolTable
 70
     0
  0
ENDTAB
  0
TABLE
  2
UCS
  5
D2
330
0
100
AcDbSymbolTable
 70
     0
  0
ENDTAB
  0
TABLE
  2
APPID
  5
CF
330
0
100
AcDbSymbolTable
 70
     4
  0
APPID
  5
D0
330
CF
100
AcDbSymbolTableRecord
100
AcDbRegAppTableRecord
  2
ACAD
 70
     0
  0
APPID
  5
21F
330
CF
100
AcDbSymbolTableRecord
100
AcDbRegAppTableRecord
  2
AcAecLayerStandard
 70
     0
  0
APPID
  5
3F0
330
CF
100
AcDbSymbolTableRecord
100
AcDbRegAppTableRecord
  2
ACAD_PSEXT
 70
     0
  0
APPID
  5
493
330
CF
100
AcDbSymbolTableRecord
100
AcDbRegAppTableRecord
  2
ACAD_NAV_VCDISPLAY
 70
     0
  0
ENDTAB
  0
TABLE
  2
DIMSTYLE
  5
CD
330
0
100
AcDbSymbolTable
 70
     3
100
AcDbDimStyleTable
 71
     1
340
CE
  0
DIMSTYLE
105
CE
102
{ACAD_REACTORS
330
1EB
330
1ED
102
}
330
CD
100
AcDbSymbolTableRecord
100
AcDbDimStyleTableRecord
  2
DIMSTYLE
 70
     0
 41
1.0
 42
2.539999961853026
 44
2.54
 73
     0
 74
     0
140
3.200000047683716
147
1.600000023841858
173
     1
271
     2
275
     1
340
23
341
D6
342
D6
343
D6
344
D6
  0
DIMSTYLE
105
21E
330
CD
100
AcDbSymbolTableRecord
100
AcDbDimStyleTableRecord
  2
Standard
 70
     0
340
23
  0
DIMSTYLE
105
492
330
CD
100
AcDbSymbolTableRecord
100
AcDbDimStyleTableRecord
  2
ISO-25
 70
     0
 41
2.5
 42
0.625
 43
3.75
 44
1.25
 73
     0
 74
     0
 77
     1
 78
     8
140
2.5
141
2.5
143
0.03937007874016
147
0.625
171
     3
172
     1
271
     2
272
     2
274
     3
278
    44
283
     0
284
     8
340
23
  0
ENDTAB
  0
TABLE
  2
BLOCK_RECORD
  5
D3
330
0
100
AcDbSymbolTable
 70
    12
  0
BLOCK_RECORD
  5
D4
102
{ACAD_XDICTIONARY
360
2BE
102
}
330
D3
100
AcDbSymbolTableRecord
100
AcDbBlockTableRecord
  2
*MODEL_SPACE
340
206
 70
     0
280
     1
281
     0
  0
BLOCK_RECORD
  5
D5
330
D3
100
AcDbSymbolTableRecord
100
AcDbBlockTableRecord
  2
*PAPER_SPACE
340
207
 70
     0
280
     1
281
     0
  0
BLOCK_RECORD
  5
D6
330
D3
100
AcDbSymbolTableRecord
100
AcDbBlockTableRecord
  2
_OPEN30
340
0
102
{BLKREFS
331
E8
331
E9
331
F2
331
F4
331
FD
331
FE
331
108
331
109
331
113
331
114
331
370
331
371
331
382
331
383
331
38A
331
38B
331
3C6
331
3C7
331
3CF
331
3D0
102
}
 70
     0
280
     1
281
     0
  0
BLOCK_RECORD
  5
D7
330
D3
100
AcDbSymbolTableRecord
100
AcDbBlockTableRecord
  2
*D1
340
0
 70
     0
280
     1
281
     0
  0
BLOCK_RECORD
  5
D8
330
D3
100
AcDbSymbolTableRecord
100
AcDbBlockTableRecord
  2
*D2
340
0
 70
     0
280
     1
281
     0
  0
BLOCK_RECORD
  5
D9
330
D3
100
AcDbSymbolTableRecord
100
AcDbBlockTableRecord
  2
*D3
340
0
 70
     0
280
     1
281
     0
  0
BLOCK_RECORD
  5
DA
330
D3
100
AcDbSymbolTableRecord
100
AcDbBlockTableRecord
  2
*D4
340
0
 70
     0
280
     1
281
     0
  0
BLOCK_RECORD
  5
DB
330
D3
100
AcDbSymbolTableRecord
100
AcDbBlockTableRecord
  2
*D5
340
0
 70
     0
280
     1
281
     0
  0
BLOCK_RECORD
  5
22A
330
D3
100
AcDbSymbolTableRecord
100
AcDbBlockTableRecord
  2
*D6
340
0
 70
     0
280
     1
281
     0
  0
BLOCK_RECORD
  5
236
330
D3
100
AcDbSymbolTableRecord
100
AcDbBlockTableRecord
  2
*D7
340
0
 70
     0
280
     1
281
     0
  0
BLOCK_RECORD
  5
241
330
D3
100
AcDbSymbolTableRecord
100
AcDbBlockTableRecord
  2
*D8
340
0
 70
     0
280
     1
281
     0
  0
BLOCK_RECORD
  5
24D
330
D3
100
AcDbSymbolTableRecord
100
AcDbBlockTableRecord
  2
*D9
340
0
 70
     0
280
     1
281
     0
  0
BLOCK_RECORD
  5
29F
330
D3
100
AcDbSymbolTableRecord
100
AcDbBlockTableRecord
  2
*D10
340
0
 70
     0
280
     1
281
     0
  0
ENDTAB
  0
ENDSEC
  0
SECTION
  2
BLOCKS
  0
BLOCK
  5
DD
330
D4
100
AcDbEntity
  8
0
100
AcDbBlockBegin
  2
*MODEL_SPACE
 70
     0
 10
0.0
 20
0.0
 30
0.0
  3
*MODEL_SPACE
  1

  0
ENDBLK
  5
DE
330
D4
100
AcDbEntity
  8
0
100
AcDbBlockEnd
  0
BLOCK
  5
DF
330
D5
100
AcDbEntity
 67
     1
  8
0
100
AcDbBlockBegin
  2
*PAPER_SPACE
 70
     0
 10
0.0
 20
0.0
 30
0.0
  3
*PAPER_SPACE
  1

  0
ENDBLK
  5
E0
330
D5
100
AcDbEntity
 67
     1
  8
0
100
AcDbBlockEnd
  0
BLOCK
  5
E1
330
D6
100
AcDbEntity
  8
0
100
AcDbBlockBegin
  2
_OPEN30
 70
     0
 10
0.0
 20
0.0
 30
0.0
  3
_OPEN30
  1

  0
LINE
  5
E2
330
D6
100
AcDbEntity
  8
0
  6
ByBlock
 62
     0
100
AcDbLine
 10
0.0
 20
0.0
 30
0.0
 11
-2.999999954944513
 21
-0.9999999849815248
 31
0.0
  0
LINE
  5
E3
330
D6
100
AcDbEntity
  8
0
  6
ByBlock
 62
     0
100
AcDbLine
 10
0.0
 20
0.0
 30
0.0
 11
-2.999999954944526
 21
0.9999999849814884
 31
0.0
  0
LINE
  5
E4
330
D6
100
AcDbEntity
  8
0
  6
ByBlock
 62
     0
100
AcDbLine
 10
0.0
 20
0.0
 30
0.0
 11
-2.99999995494452
 21
0.0
 31
0.0
  0
ENDBLK
  5
E5
330
D6
100
AcDbEntity
  8
0
100
AcDbBlockEnd
  0
BLOCK
  5
E6
330
D7
100
AcDbEntity
  8
0
100
AcDbBlockBegin
  2
*D1
 70
     1
 10
0.0
 20
0.0
 30
0.0
  3
*D1
  1

  0
LINE
  5
E7
330
D7
100
AcDbEntity
  8
0
  6
Continuous
 62
     7
100
AcDbLine
 10
38.2259444739875
 20
34.00543212890625
 30
0.0
 11
72.22594456409845
 21
34.00543212890623
 31
0.0
  0
INSERT
  5
E8
330
D7
100
AcDbEntity
  8
0
  6
Continuous
 62
     7
100
AcDbBlockReference
  2
_OPEN30
 10
35.22594451904297
 20
34.00543212890625
 30
0.0
 50
180.0000000000004
  0
INSERT
  5
E9
330
D7
100
AcDbEntity
  8
0
  6
Continuous
 62
     7
100
AcDbBlockReference
  2
_OPEN30
 10
75.22594451904295
 20
34.00543212890625
 30
0.0
  0
LINE
  5
EA
330
D7
100
AcDbEntity
  8
0
  6
Continuous
 62
     7
100
AcDbLine
 10
75.22593688964843
 20
26.14745613098145
 30
0.0
 11
75.22593688964843
 21
35.50543212890625
 31
0.0
  0
MTEXT
  5
EB
330
D7
100
AcDbEntity
  8
0
  6
Continuous
 62
     7
100
AcDbMText
 10
55.22594451904296
 20
34.00543212890625
 30
0.0
 40
3.200000047683716
 41
10.97200012207031
 46
0.0
 71
     8
 72
     1
  1
{\W1.1021;80}
 73
     1
 44
1.0
1001
ACAD
1000
MTEXTBEGIN
1070
    73
1070
     1
1070
    44
1040
1.0
1070
    74
1070
     0
1000
MTEXTEND
  0
POINT
  5
EC
330
D7
100
AcDbEntity
  8
DEFPOINTS
  6
Continuous
 62
     7
100
AcDbPoint
 10
35.22594451904297
 20
25.60746383666992
 30
0.0
  0
POINT
  5
ED
330
D7
100
AcDbEntity
  8
DEFPOINTS
  6
Continuous
 62
     7
100
AcDbPoint
 10
75.22593688964843
 20
23.60745620727539
 30
0.0
  0
POINT
  5
EE
330
D7
100
AcDbEntity
  8
DEFPOINTS
  6
Continuous
 62
     7
100
AcDbPoint
 10
75.22594451904295
 20
34.00543212890625
 30
0.0
  0
ENDBLK
  5
EF
330
D7
100
AcDbEntity
  8
0
100
AcDbBlockEnd
  0
BLOCK
  5
F0
330
D8
100
AcDbEntity
  8
0
100
AcDbBlockBegin
  2
*D2
 70
     1
 10
0.0
 20
0.0
 30
0.0
  3
*D2
  1

  0
LINE
  5
F1
330
D8
100
AcDbEntity
  8
0
  6
Continuous
 62
     7
100
AcDbLine
 10
75.22594451904295
 20
34.00543212890625
 30
0.0
 11
77.22594451904297
 21
34.00543212890625
 31
0.0
  0
INSERT
  5
F2
330
D8
100
AcDbEntity
  8
0
  6
Continuous
 62
     7
100
AcDbBlockReference
  2
_OPEN30
 10
75.22594451904295
 20
34.00543212890625
 30
0.0
 50
0.0000000000003562
  0
LINE
  5
F3
330
D8
100
AcDbEntity
  8
0
  6
Continuous
 62
     7
100
AcDbLine
 10
72.22594456409845
 20
34.00543212890623
 30
0.0
 11
68.8759446144104
 21
34.00543212890621
 31
0.0
  0
INSERT
  5
F4
330
D8
100
AcDbEntity
  8
0
  6
Continuous
 62
     7
100
AcDbBlockReference
  2
_OPEN30
 10
77.22594451904297
 20
34.00543212890625
 30
0.0
 50
180.0
  0
LINE
  5
F5
330
D8
100
AcDbEntity
  8
0
  6
Continuous
 62
     7
100
AcDbLine
 10
80.22594447398748
 20
34.00543212890625
 30
0.0
 11
83.57594442367554
 21
34.00543212890625
 31
0.0
  0
MTEXT
  5
F6
330
D8
100
AcDbEntity
  8
0
  6
Continuous
 62
     7
100
AcDbMText
 10
76.22593688964844
 20
34.00543212890625
 30
0.0
 40
3.200000047683716
 41
4.572000026702879
 46
0.0
 71
     8
 72
     1
  1
{\W1;4}
 73
     1
 44
1.0
1001
ACAD
1000
MTEXTBEGIN
1070
    73
1070
     1
1070
    44
1040
1.0
1070
    74
1070
     0
1000
MTEXTEND
  0
POINT
  5
F7
330
D8
100
AcDbEntity
  8
DEFPOINTS
  6
Continuous
 62
     7
100
AcDbPoint
 10
75.22593688964843
 20
23.60745620727539
 30
0.0
  0
POINT
  5
F8
330
D8
100
AcDbEntity
  8
DEFPOINTS
  6
Continuous
 62
     7
100
AcDbPoint
 10
77.22593688964844
 20
15.23246383666992
 30
0.0
  0
POINT
  5
F9
330
D8
100
AcDbEntity
  8
DEFPOINTS
  6
Continuous
 62
     7
100
AcDbPoint
 10
77.22594451904297
 20
34.00543212890625
 30
0.0
  0
ENDBLK
  5
FA
330
D8
100
AcDbEntity
  8
0
100
AcDbBlockEnd
  0
BLOCK
  5
FB
330
D9
100
AcDbEntity
  8
0
100
AcDbBlockBegin
  2
*D3
 70
     1
 10
0.0
 20
0.0
 30
0.0
  3
*D3
  1

  0
LINE
  5
FC
330
D9
100
AcDbEntity
  8
0
  6
Continuous
 62
     7
100
AcDbLine
 10
74.22594456409846
 20
41.78195571899411
 30
0.0
 11
38.2259444739875
 21
41.78195571899414
 31
0.0
  0
INSERT
  5
FD
330
D9
100
AcDbEntity
  8
0
  6
Continuous
 62
     7
100
AcDbBlockReference
  2
_OPEN30
 10
77.22594451904297
 20
41.78195571899414
 30
0.0
  0
INSERT
  5
FE
330
D9
100
AcDbEntity
  8
0
  6
Continuous
 62
     7
100
AcDbBlockReference
  2
_OPEN30
 10
35.22594451904297
 20
41.78195571899414
 30
0.0
 50
180.0000000000004
  0
LINE
  5
FF
330
D9
100
AcDbEntity
  8
0
  6
Continuous
 62
     7
100
AcDbLine
 10
77.22593688964842
 20
17.77246376037598
 30
0.0
 11
77.22593688964844
 21
43.28195571899414
 31
0.0
  0
LINE
  5
100
330
D9
100
AcDbEntity
  8
0
  6
Continuous
 62
     7
100
AcDbLine
 10
35.22594451904296
 20
28.14746376037598
 30
0.0
 11
35.22594451904297
 21
43.28195571899414
 31
0.0
  0
MTEXT
  5
101
330
D9
100
AcDbEntity
  8
0
  6
Continuous
 62
     7
100
AcDbMText
 10
56.22594451904297
 20
41.78195571899414
 30
0.0
 40
3.200000047683716
 41
10.97200012207031
 46
0.0
 71
     8
 72
     1
  1
{\W1.02862;84}
 73
     1
 44
1.0
1001
ACAD
1000
MTEXTBEGIN
1070
    73
1070
     1
1070
    44
1040
1.0
1070
    74
1070
     0
1000
MTEXTEND
  0
POINT
  5
102
330
D9
100
AcDbEntity
  8
DEFPOINTS
  6
Continuous
 62
     7
100
AcDbPoint
 10
77.22593688964844
 20
15.23246383666992
 30
0.0
  0
POINT
  5
103
330
D9
100
AcDbEntity
  8
DEFPOINTS
  6
Continuous
 62
     7
100
AcDbPoint
 10
35.22594451904297
 20
25.60746383666992
 30
0.0
  0
POINT
  5
104
330
D9
100
AcDbEntity
  8
DEFPOINTS
  6
Continuous
 62
     7
100
AcDbPoint
 10
35.22594451904297
 20
41.78195571899414
 30
0.0
  0
ENDBLK
  5
105
330
D9
100
AcDbEntity
  8
0
100
AcDbBlockEnd
  0
BLOCK
  5
106
330
DA
100
AcDbEntity
  8
0
100
AcDbBlockBegin
  2
*D4
 70
     1
 10
0.0
 20
0.0
 30
0.0
  3
*D4
  1

  0
LINE
  5
107
330
DA
100
AcDbEntity
  8
0
  6
Continuous
 62
     7
100
AcDbLine
 10
24.32661437988284
 20
19.43245701527032
 30
0.0
 11
24.3266143798828
 21
-27.96751789783868
 31
0.0
  0
INSERT
  5
108
330
DA
100
AcDbEntity
  8
0
  6
Continuous
 62
     7
100
AcDbBlockReference
  2
_OPEN30
 10
24.32661437988281
 20
22.43245697021484
 30
0.0
 50
90.00000000000019
  0
INSERT
  5
109
330
DA
100
AcDbEntity
  8
0
  6
Continuous
 62
     7
100
AcDbBlockReference
  2
_OPEN30
 10
24.32661437988281
 20
-30.9675178527832
 30
0.0
 50
270.0000000000005
  0
LINE
  5
10A
330
DA
100
AcDbEntity
  8
0
  6
Continuous
 62
     7
100
AcDbLine
 10
45.24904350280761
 20
22.43245697021483
 30
0.0
 11
22.82661437988281
 21
22.43245697021484
 31
0.0
  0
LINE
  5
10B
330
DA
100
AcDbEntity
  8
0
  6
Continuous
 62
     7
100
AcDbLine
 10
50.03466896057129
 20
-30.96751785278322
 30
0.0
 11
22.82661437988281
 21
-30.9675178527832
 31
0.0
  0
MTEXT
  5
10C
330
DA
100
AcDbEntity
  8
0
  6
Continuous
 62
     7
100
AcDbMText
 10
24.32661437988281
 20
-4.26753044128418
 30
0.0
 40
3.200000047683716
 41
76.80000114440919
 46
0.0
 71
     8
 72
     1
  1
{\W1.21842;∅109.8}
 11
0.0017453283658978
 21
0.9999984769132877
 31
0.0
 73
     1
 44
1.0
1001
ACAD
1000
MTEXTBEGIN
1070
    73
1070
     1
1070
    44
1040
1.0
1070
    74
1070
     0
1000
MTEXTEND
  0
POINT
  5
10D
330
DA
100
AcDbEntity
  8
DEFPOINTS
  6
Continuous
 62
     7
100
AcDbPoint
 10
47.78904342651367
 20
22.43245697021484
 30
0.0
  0
POINT
  5
10E
330
DA
100
AcDbEntity
  8
DEFPOINTS
  6
Continuous
 62
     7
100
AcDbPoint
 10
52.57466888427734
 20
-30.9675178527832
 30
0.0
  0
POINT
  5
10F
330
DA
100
AcDbEntity
  8
DEFPOINTS
  6
Continuous
 62
     7
100
AcDbPoint
 10
24.32661437988281
 20
-30.9675178527832
 30
0.0
  0
ENDBLK
  5
110
330
DA
100
AcDbEntity
  8
0
100
AcDbBlockEnd
  0
BLOCK
  5
111
330
DB
100
AcDbEntity
  8
0
100
AcDbBlockBegin
  2
*D5
 70
     1
 10
0.0
 20
0.0
 30
0.0
  3
*D5
  1

  0
LINE
  5
112
330
DB
100
AcDbEntity
  8
0
  6
Continuous
 62
     7
100
AcDbLine
 10
14.83483028411868
 20
21.48245625233087
 30
0.0
 11
14.83483028411864
 21
-30.01752094959651
 31
0.0
  0
INSERT
  5
113
330
DB
100
AcDbEntity
  8
0
  6
Continuous
 62
     7
100
AcDbBlockReference
  2
_OPEN30
 10
14.83483028411865
 20
24.48245620727539
 30
0.0
 50
90.00000000000019
  0
INSERT
  5
114
330
DB
100
AcDbEntity
  8
0
  6
Continuous
 62
     7
100
AcDbBlockReference
  2
_OPEN30
 10
14.83483028411865
 20
-33.01752090454102
 30
0.0
 50
270.0000000000005
  0
LINE
  5
115
330
DB
100
AcDbEntity
  8
0
  6
Continuous
 62
     7
100
AcDbLine
 10
39.18594459533691
 20
24.48245620727538
 30
0.0
 11
13.33483028411865
 21
24.48245620727539
 31
0.0
  0
LINE
  5
116
330
DB
100
AcDbEntity
  8
0
  6
Continuous
 62
     7
100
AcDbLine
 10
39.18595985412597
 20
-33.01752090454103
 30
0.0
 11
13.33483028411865
 21
-33.01752090454102
 31
0.0
  0
MTEXT
  5
117
330
DB
100
AcDbEntity
  8
0
  6
Continuous
 62
     7
100
AcDbMText
 10
14.83483028411865
 20
-4.267532348632813
 30
0.0
 40
3.200000047683716
 41
64.00000095367431
 46
0.0
 71
     8
 72
     1
  1
{\W1.16438;∅118}
 11
0.0017453283658978
 21
0.9999984769132877
 31
0.0
 73
     1
 44
1.0
1001
ACAD
1000
MTEXTBEGIN
1070
    73
1070
     1
1070
    44
1040
1.0
1070
    74
1070
     0
1000
MTEXTEND
  0
POINT
  5
118
330
DB
100
AcDbEntity
  8
DEFPOINTS
  6
Continuous
 62
     7
100
AcDbPoint
 10
41.72594451904297
 20
24.48245620727539
 30
0.0
  0
POINT
  5
119
330
DB
100
AcDbEntity
  8
DEFPOINTS
  6
Continuous
 62
     7
100
AcDbPoint
 10
41.72595977783203
 20
-33.01752090454102
 30
0.0
  0
POINT
  5
11A
330
DB
100
AcDbEntity
  8
DEFPOINTS
  6
Continuous
 62
     7
100
AcDbPoint
 10
14.83483028411865
 20
-33.01752090454102
 30
0.0
  0
ENDBLK
  5
11B
330
DB
100
AcDbEntity
  8
0
100
AcDbBlockEnd
  0
BLOCK
  5
234
330
22A
100
AcDbEntity
  8
0
100
AcDbBlockBegin
  2
*D6
 70
     1
 10
0.0
 20
0.0
 30
0.0
  3
*D6
  1

  0
LINE
  5
3C3
330
22A
100
AcDbEntity
  8
寸法線
 62
     0
440
 16777216
370
    -2
100
AcDbLine
 10
79.76775535829687
 20
54.19054949415681
 30
0.0
 11
79.76775535829687
 21
75.77531439762347
 31
0.0
  0
LINE
  5
3C4
330
22A
100
AcDbEntity
  8
寸法線
 62
     0
440
 16777216
370
    -2
100
AcDbLine
 10
37.76776298769141
 20
64.56554949415681
 30
0.0
 11
37.76776298769141
 21
75.77531439762347
 31
0.0
  0
LINE
  5
3C5
330
22A
100
AcDbEntity
  8
寸法線
 62
     0
440
 16777216
370
    -2
100
AcDbLine
 10
78.76775535829686
 20
73.23531439762348
 30
0.0
 11
38.7677629876914
 21
73.23531439762348
 31
0.0
  0
INSERT
  5
3C6
330
22A
100
AcDbEntity
  8
寸法線
 62
     0
440
 16777216
370
    -2
100
AcDbBlockReference
  2
_OPEN30
 10
79.76775535829687
 20
73.23531439762348
 30
0.0
  0
INSERT
  5
3C7
330
22A
100
AcDbEntity
  8
寸法線
 62
     0
440
 16777216
370
    -2
100
AcDbBlockReference
  2
_OPEN30
 10
37.76776298769141
 20
73.23531439762348
 30
0.0
 50
180.0
  0
MTEXT
  5
3C8
330
22A
100
AcDbEntity
  8
寸法線
 62
     0
440
 16777216
100
AcDbMText
 10
58.76775917299414
 20
75.33531442146534
 30
0.0
 40
3.200000047683716
 41
0.0
 46
0.0
 71
     5
 72
     1
  1
\A1;L
 73
     1
 44
1.0
1001
ACAD
1000
MTEXTBEGIN
1070
    73
1070
     1
1070
    44
1040
1.0
1070
    74
1070
     0
1000
MTEXTEND
  0
POINT
  5
3C9
330
22A
100
AcDbEntity
  8
DEFPOINTS
 62
     0
440
 16777216
100
AcDbPoint
 10
79.76775535829687
 20
51.65054953230378
 30
0.0
  0
POINT
  5
3CA
330
22A
100
AcDbEntity
  8
DEFPOINTS
 62
     0
440
 16777216
100
AcDbPoint
 10
37.76776298769141
 20
62.02554953230379
 30
0.0
  0
POINT
  5
3CB
330
22A
100
AcDbEntity
  8
DEFPOINTS
 62
     0
440
 16777216
100
AcDbPoint
 10
37.76776298769141
 20
73.23531439762348
 30
0.0
  0
ENDBLK
  5
235
330
22A
100
AcDbEntity
  8
0
100
AcDbBlockEnd
  0
BLOCK
  5
23F
330
236
100
AcDbEntity
  8
0
100
AcDbBlockBegin
  2
*D7
 70
     1
 10
0.0
 20
0.0
 30
0.0
  3
*D7
  1

  0
LINE
  5
388
330
236
100
AcDbEntity
  8
寸法線
 62
     0
370
    -2
100
AcDbLine
 10
77.76775535829687
 20
62.56554186476228
 30
0.0
 11
77.76775535829687
 21
72.96351782454009
 31
0.0
  0
LINE
  5
389
330
236
100
AcDbEntity
  8
寸法線
 62
     0
370
    -2
100
AcDbLine
 10
38.7677629876914
 20
70.42351782454011
 30
0.0
 11
76.76775535829687
 21
70.42351782454011
 31
0.0
  0
INSERT
  5
38A
330
236
100
AcDbEntity
  8
寸法線
 62
     0
370
    -2
100
AcDbBlockReference
  2
_OPEN30
 10
37.76776298769141
 20
70.42351782454011
 30
0.0
 50
180.0
  0
INSERT
  5
38B
330
236
100
AcDbEntity
  8
寸法線
 62
     0
370
    -2
100
AcDbBlockReference
  2
_OPEN30
 10
77.76775535829687
 20
70.42351782454011
 30
0.0
  0
MTEXT
  5
38C
330
236
100
AcDbEntity
  8
寸法線
 62
     0
100
AcDbMText
 10
57.76775917299413
 20
72.52351784838197
 30
0.0
 40
3.200000047683716
 41
0.0
 46
0.0
 71
     5
 72
     1
  1
\A1;40.00
 73
     1
 44
1.0
1001
ACAD
1000
MTEXTBEGIN
1070
    73
1070
     1
1070
    44
1040
1.0
1070
    74
1070
     0
1000
MTEXTEND
  0
POINT
  5
38D
330
236
100
AcDbEntity
  8
DEFPOINTS
 62
     0
100
AcDbPoint
 10
37.76776298769141
 20
62.02554953230379
 30
0.0
  0
POINT
  5
38E
330
236
100
AcDbEntity
  8
DEFPOINTS
 62
     0
100
AcDbPoint
 10
77.76775535829687
 20
60.02554190290926
 30
0.0
  0
POINT
  5
38F
330
236
100
AcDbEntity
  8
DEFPOINTS
 62
     0
100
AcDbPoint
 10
77.76775535829687
 20
70.42351782454011
 30
0.0
  0
ENDBLK
  5
240
330
236
100
AcDbEntity
  8
0
100
AcDbBlockEnd
  0
BLOCK
  5
24B
330
241
100
AcDbEntity
  8
0
100
AcDbBlockBegin
  2
*D8
 70
     1
 10
0.0
 20
0.0
 30
0.0
  3
*D8
  1

  0
LINE
  5
3CC
330
241
100
AcDbEntity
  8
寸法線
 62
     0
440
 16777216
370
    -2
100
AcDbLine
 10
41.72776302583836
 20
60.90054190290925
 30
0.0
 11
23.96085218666869
 21
60.90054190290925
 31
0.0
  0
LINE
  5
3CD
330
241
100
AcDbEntity
  8
寸法線
 62
     0
440
 16777216
370
    -2
100
AcDbLine
 10
41.72777828462744
 20
3.400564791092838
 30
0.0
 11
23.96085218666867
 21
3.400564791092845
 31
0.0
  0
LINE
  5
3CE
330
241
100
AcDbEntity
  8
寸法線
 62
     0
440
 16777216
370
    -2
100
AcDbLine
 10
26.50085218666869
 20
59.90054190290925
 30
0.0
 11
26.50085218666867
 21
4.400564791092842
 31
0.0
  0
INSERT
  5
3CF
330
241
100
AcDbEntity
  8
寸法線
 62
     0
440
 16777216
370
    -2
100
AcDbBlockReference
  2
_OPEN30
 10
26.50085218666869
 20
60.90054190290925
 30
0.0
 50
90.0
  0
INSERT
  5
3D0
330
241
100
AcDbEntity
  8
寸法線
 62
     0
440
 16777216
370
    -2
100
AcDbBlockReference
  2
_OPEN30
 10
26.50085218666867
 20
3.400564791092843
 30
0.0
 50
270.0
  0
MTEXT
  5
3D1
330
241
100
AcDbEntity
  8
寸法線
 62
     0
440
 16777216
100
AcDbMText
 10
24.40085216282682
 20
32.15055334700106
 30
0.0
 40
3.200000047683716
 41
0.0
 46
0.0
 71
     5
 72
     1
  1
\A1;D
 11
0.0000000000000001
 21
1.0
 31
0.0
 73
     1
 44
1.0
1001
ACAD
1000
MTEXTBEGIN
1070
    73
1070
     1
1070
    44
1040
1.0
1070
    74
1070
     0
1000
MTEXTEND
  0
POINT
  5
3D2
330
241
100
AcDbEntity
  8
DEFPOINTS
 62
     0
440
 16777216
100
AcDbPoint
 10
44.2677629876914
 20
60.90054190290925
 30
0.0
  0
POINT
  5
3D3
330
241
100
AcDbEntity
  8
DEFPOINTS
 62
     0
440
 16777216
100
AcDbPoint
 10
44.26777824648048
 20
3.400564791092838
 30
0.0
  0
POINT
  5
3D4
330
241
100
AcDbEntity
  8
DEFPOINTS
 62
     0
440
 16777216
100
AcDbPoint
 10
26.50085218666867
 20
3.400564791092843
 30
0.0
  0
ENDBLK
  5
24C
330
241
100
AcDbEntity
  8
0
100
AcDbBlockEnd
  0
BLOCK
  5
257
330
24D
100
AcDbEntity
  8
0
100
AcDbBlockBegin
  2
*D9
 70
     1
 10
0.0
 20
0.0
 30
0.0
  3
*D9
  1

  0
LINE
  5
36D
330
24D
100
AcDbEntity
  8
寸法線
 62
     0
370
    -2
100
AcDbLine
 10
47.79086193330909
 20
58.85054266584871
 30
0.0
 11
24.32843284853127
 21
58.85054266584871
 31
0.0
  0
LINE
  5
36E
330
24D
100
AcDbEntity
  8
寸法線
 62
     0
370
    -2
100
AcDbLine
 10
52.57648739107276
 20
5.450567842850663
 30
0.0
 11
24.32843284853126
 21
5.450567842850672
 31
0.0
  0
LINE
  5
36F
330
24D
100
AcDbEntity
  8
寸法線
 62
     0
370
    -2
100
AcDbLine
 10
26.86843284853127
 20
57.85054266584872
 30
0.0
 11
26.86843284853126
 21
6.450567842850668
 31
0.0
  0
INSERT
  5
370
330
24D
100
AcDbEntity
  8
寸法線
 62
     0
370
    -2
100
AcDbBlockReference
  2
_OPEN30
 10
26.86843284853127
 20
58.85054266584871
 30
0.0
 50
90.0
  0
INSERT
  5
371
330
24D
100
AcDbEntity
  8
寸法線
 62
     0
370
    -2
100
AcDbBlockReference
  2
_OPEN30
 10
26.86843284853126
 20
5.450567842850668
 30
0.0
 50
270.0
  0
MTEXT
  5
372
330
24D
100
AcDbEntity
  8
寸法線
 62
     0
100
AcDbMText
 10
24.7684328246894
 20
32.1505552543497
 30
0.0
 40
3.200000047683716
 41
0.0
 46
0.0
 71
     5
 72
     1
  1
\A1;53.40
 11
0.0000000000000001
 21
1.0
 31
0.0
 73
     1
 44
1.0
1001
ACAD
1000
MTEXTBEGIN
1070
    73
1070
     1
1070
    44
1040
1.0
1070
    74
1070
     0
1000
MTEXTEND
  0
POINT
  5
373
330
24D
100
AcDbEntity
  8
DEFPOINTS
 62
     0
100
AcDbPoint
 10
50.33086189516211
 20
58.8505426658487
 30
0.0
  0
POINT
  5
374
330
24D
100
AcDbEntity
  8
DEFPOINTS
 62
     0
100
AcDbPoint
 10
55.11648735292578
 20
5.450567842850663
 30
0.0
  0
POINT
  5
375
330
24D
100
AcDbEntity
  8
DEFPOINTS
 62
     0
100
AcDbPoint
 10
26.86843284853126
 20
5.450567842850668
 30
0.0
  0
ENDBLK
  5
258
330
24D
100
AcDbEntity
  8
0
100
AcDbBlockEnd
  0
BLOCK
  5
2A7
330
29F
100
AcDbEntity
  8
0
100
AcDbBlockBegin
  2
*D10
 70
     1
 10
0.0
 20
0.0
 30
0.0
  3
*D10
  1

  0
LINE
  5
37F
330
29F
100
AcDbEntity
  8
寸法線
 62
     0
370
    -2
100
AcDbLine
 10
76.76775535829687
 20
70.42351782454011
 30
0.0
 11
75.76775535829686
 21
70.42351782454011
 31
0.0
  0
LINE
  5
380
330
29F
100
AcDbEntity
  8
寸法線
 62
     0
370
    -2
100
AcDbLine
 10
80.76775535829687
 20
70.42351782454011
 30
0.0
 11
91.3010888187868
 21
70.42351782454011
 31
0.0
  0
LINE
  5
381
330
29F
100
AcDbEntity
  8
寸法線
 62
     0
370
    -2
100
AcDbLine
 10
77.76775535829687
 20
70.42351782454011
 30
0.0
 11
79.76775535829687
 21
70.42351782454011
 31
0.0
  0
INSERT
  5
382
330
29F
100
AcDbEntity
  8
寸法線
 62
     0
370
    -2
100
AcDbBlockReference
  2
_OPEN30
 10
77.76775535829687
 20
70.42351782454011
 30
0.0
  0
INSERT
  5
383
330
29F
100
AcDbEntity
  8
寸法線
 62
     0
370
    -2
100
AcDbBlockReference
  2
_OPEN30
 10
79.76775535829687
 20
70.42351782454011
 30
0.0
 50
180.0
  0
MTEXT
  5
384
330
29F
100
AcDbEntity
  8
寸法線
 62
     0
100
AcDbMText
 10
86.53442208854183
 20
72.52351784838197
 30
0.0
 40
3.200000047683716
 41
0.0
 46
0.0
 71
     5
 72
     1
  1
\A1;2.00
 73
     1
 44
1.0
1001
ACAD
1000
MTEXTBEGIN
1070
    73
1070
     1
1070
    44
1040
1.0
1070
    74
1070
     0
1000
MTEXTEND
  0
POINT
  5
385
330
29F
100
AcDbEntity
  8
DEFPOINTS
 62
     0
100
AcDbPoint
 10
77.76775535829687
 20
60.02554190290926
 30
0.0
  0
POINT
  5
386
330
29F
100
AcDbEntity
  8
DEFPOINTS
 62
     0
100
AcDbPoint
 10
79.76775535829687
 20
51.65054953230378
 30
0.0
  0
POINT
  5
387
330
29F
100
AcDbEntity
  8
DEFPOINTS
 62
     0
100
AcDbPoint
 10
79.76775535829687
 20
70.42351782454011
 30
0.0
  0
ENDBLK
  5
2A8
330
29F
100
AcDbEntity
  8
0
100
AcDbBlockEnd
  0
ENDSEC
  0
SECTION
  2
ENTITIES
  0
LINE
  5
11C
330
D4
100
AcDbEntity
  8
中心線
100
AcDbLine
 10
32.36538109071876
 20
32.15054953230378
 30
0.0
 11
87.42436393983984
 21
32.15054953230378
 31
0.0
  0
LINE
  5
11D
330
D4
100
AcDbEntity
  8
破線
100
AcDbLine
 10
50.33085808046485
 20
3.400564791092838
 30
0.0
 11
44.26777824648048
 21
3.400564791092838
 31
0.0
  0
LINE
  5
11E
330
D4
100
AcDbEntity
  8
外形線
100
AcDbLine
 10
50.33085808046485
 20
2.775564791092838
 30
0.0
 11
44.40041527040626
 21
2.775564791092838
 31
0.0
  0
LINE
  5
11F
330
D4
100
AcDbEntity
  8
外形線
100
AcDbLine
 10
50.33085808046485
 20
2.775564791092838
 30
0.0
 11
54.17641624696876
 21
2.775564791092838
 31
0.0
  0
LINE
  5
120
330
D4
100
AcDbEntity
  8
破線
100
AcDbLine
 10
50.33085808046485
 20
3.400564791092838
 30
0.0
 11
54.0677469659629
 21
3.400564791092838
 31
0.0
  0
LINE
  5
121
330
D4
100
AcDbEntity
  8
破線
100
AcDbLine
 10
54.25000626897002
 20
4.697344822421893
 30
0.0
 11
54.067755516671
 21
3.400564511798576
 31
0.0
  0
LINE
  5
122
330
D4
100
AcDbEntity
  8
破線
100
AcDbLine
 10
55.11648735292578
 20
5.450567842850663
 30
0.0
 11
57.88086113222266
 21
5.450567842850663
 31
0.0
  0
LINE
  5
123
330
D4
100
AcDbEntity
  8
外形線
100
AcDbLine
 10
55.11648735292578
 20
4.825567842850663
 30
0.0
 11
57.88086113222266
 21
4.825567842850663
 31
0.0
  0
LINE
  5
124
330
D4
100
AcDbEntity
  8
外形線
100
AcDbLine
 10
54.86891087564942
 20
4.610351817081284
 30
0.0
 11
54.67153839272
 21
3.20597489960334
 31
0.0
  0
LINE
  5
125
330
D4
100
AcDbEntity
  8
外形線
100
AcDbLine
 10
54.58401248426625
 20
2.985965225481533
 30
0.0
 11
50.26775956580985
 21
36.57271248563989
 31
0.0
  0
LINE
  5
126
330
D4
100
AcDbEntity
  8
外形線
100
AcDbLine
 10
54.91354458464817
 20
4.721528628662034
 30
0.0
 11
50.55587512663175
 21
36.26413778803476
 31
0.0
  0
LINE
  5
127
330
D4
100
AcDbEntity
  8
外形線
100
AcDbLine
 10
50.55586418398046
 20
59.60196936262605
 30
0.0
 11
50.55586418398046
 21
36.26414358747958
 31
0.0
  0
LINE
  5
128
330
D4
100
AcDbEntity
  8
外形線
100
AcDbLine
 10
50.52562610904998
 20
59.69074413584229
 30
0.0
 11
50.32825330244925
 21
61.09512486001769
 31
0.0
  0
LINE
  5
129
330
D4
100
AcDbEntity
  8
外形線
100
AcDbLine
 10
44.40040001161718
 20
61.52554190290925
 30
0.0
 11
49.8331163812461
 21
61.52554190290925
 31
0.0
  0
LINE
  5
12A
330
D4
100
AcDbEntity
  8
外形線
100
AcDbLine
 10
50.2677629876914
 20
61.27268850935458
 30
0.0
 11
50.2677629876914
 21
36.57271063459872
 31
0.0
  0
LINE
  5
12B
330
D4
100
AcDbEntity
  8
破線
100
AcDbLine
 10
49.90668212109522
 20
59.60375724551524
 30
0.0
 11
49.72443156015097
 21
60.9005375830317
 31
0.0
  0
LINE
  5
12C
330
D4
100
AcDbEntity
  8
破線
100
AcDbLine
 10
44.2677629876914
 20
60.90054190290925
 30
0.0
 11
49.72444328554296
 21
60.90054190290925
 31
0.0
  0
LINE
  5
12D
330
D4
100
AcDbEntity
  8
中心線
100
AcDbLine
 10
-40.4676648687539
 20
66.67495215071196
 30
0.0
 11
-40.4676648687539
 21
-2.161874173750909
 31
0.0
  0
LINE
  5
12E
330
D4
100
AcDbEntity
  8
中心線
100
AcDbLine
 10
-75.8445645879922
 20
32.15054953230378
 30
0.0
 11
-5.613577039164057
 21
32.15054953230378
 31
0.0
  0
LINE
  5
12F
330
D4
100
AcDbEntity
  8
破線
100
AcDbLine
 10
65.43086418398046
 20
3.400564791092838
 30
0.0
 11
61.69396385439063
 21
3.400564791092838
 31
0.0
  0
LINE
  5
130
330
D4
100
AcDbEntity
  8
外形線
100
AcDbLine
 10
65.43086418398046
 20
2.775564791092838
 30
0.0
 11
61.5853136468711
 21
2.775564791092838
 31
0.0
  0
LINE
  5
131
330
D4
100
AcDbEntity
  8
破線
100
AcDbLine
 10
60.64523491151954
 20
5.450567842850663
 30
0.0
 11
57.88086113222266
 21
5.450567842850663
 31
0.0
  0
LINE
  5
132
330
D4
100
AcDbEntity
  8
外形線
100
AcDbLine
 10
60.64523491151954
 20
4.825567842850663
 30
0.0
 11
57.88086113222266
 21
4.825567842850663
 31
0.0
  0
LINE
  5
133
330
D4
100
AcDbEntity
  8
外形線
100
AcDbLine
 10
60.89280660298896
 20
4.610353737369241
 30
0.0
 11
61.09017921143064
 21
3.20597298534443
 31
0.0
  0
LINE
  5
134
330
D4
100
AcDbEntity
  8
破線
100
AcDbLine
 10
61.51172091353643
 20
4.697332515568881
 30
0.0
 11
61.69396916789359
 21
3.400567262628669
 31
0.0
  0
LINE
  5
135
330
D4
100
AcDbEntity
  8
外形線
100
AcDbLine
 10
65.43086418398046
 20
2.775564791092838
 30
0.0
 11
69.27641472108985
 21
2.775564791092838
 31
0.0
  0
LINE
  5
136
330
D4
100
AcDbEntity
  8
破線
100
AcDbLine
 10
65.43086418398046
 20
3.400564791092838
 30
0.0
 11
69.16774925478126
 21
3.400564791092838
 31
0.0
  0
LINE
  5
137
330
D4
100
AcDbEntity
  8
破線
100
AcDbLine
 10
69.34998274300922
 20
4.697333763371164
 30
0.0
 11
69.16773358342135
 21
3.400564785466329
 31
0.0
  0
LINE
  5
138
330
D4
100
AcDbEntity
  8
破線
100
AcDbLine
 10
70.21648582704688
 20
5.450567842850663
 30
0.0
 11
72.0071428705039
 21
5.450567842850663
 31
0.0
  0
LINE
  5
139
330
D4
100
AcDbEntity
  8
外形線
100
AcDbLine
 10
70.21648582704688
 20
4.825567842850663
 30
0.0
 11
72.0071428705039
 21
4.825567842850663
 31
0.0
  0
LINE
  5
13A
330
D4
100
AcDbEntity
  8
外形線
100
AcDbLine
 10
69.96890889207135
 20
4.61035699137609
 30
0.0
 11
69.77153587823822
 21
3.205976296325308
 31
0.0
  0
LINE
  5
13B
330
D4
100
AcDbEntity
  8
中心線
100
AcDbLine
 10
69.20588060948317
 20
32.15054497358539
 30
0.0
 11
65.43087885200049
 21
2.775545738659949
 31
0.0
  0
LINE
  5
13C
330
D4
100
AcDbEntity
  8
中心線
100
AcDbLine
 10
65.43090370749107
 20
2.775543573989672
 30
0.0
 11
61.65590506724566
 21
32.15054945937391
 31
0.0
  0
LINE
  5
13D
330
D4
100
AcDbEntity
  8
中心線
100
AcDbLine
 10
57.88085488777933
 20
61.52555854642042
 30
0.0
 11
54.10585691610058
 21
32.1505578634619
 31
0.0
  0
LINE
  5
13E
330
D4
100
AcDbEntity
  8
中心線
100
AcDbLine
 10
61.65586743440228
 20
32.15055529790529
 30
0.0
 11
57.88086549458303
 21
61.52555595167406
 31
0.0
  0
LINE
  5
13F
330
D4
100
AcDbEntity
  8
破線
100
AcDbLine
 10
57.88086113222266
 20
60.90054190290925
 30
0.0
 11
61.61775383241796
 21
60.90054190290925
 31
0.0
  0
LINE
  5
140
330
D4
100
AcDbEntity
  8
外形線
100
AcDbLine
 10
57.88086113222266
 20
61.52554190290925
 30
0.0
 11
61.72641929872657
 21
61.52554190290925
 31
0.0
  0
LINE
  5
141
330
D4
100
AcDbEntity
  8
破線
100
AcDbLine
 10
62.6664904046836
 20
58.8505426658487
 30
0.0
 11
65.43086418398046
 21
58.8505426658487
 31
0.0
  0
LINE
  5
142
330
D4
100
AcDbEntity
  8
外形線
100
AcDbLine
 10
62.6664904046836
 20
59.4755426658487
 30
0.0
 11
65.43086418398046
 21
59.4755426658487
 31
0.0
  0
LINE
  5
143
330
D4
100
AcDbEntity
  8
外形線
100
AcDbLine
 10
62.41890845279979
 20
59.6907479032475
 30
0.0
 11
62.22153577892489
 21
61.09512768302967
 31
0.0
  0
LINE
  5
144
330
D4
100
AcDbEntity
  8
破線
100
AcDbLine
 10
61.79999614541198
 20
59.60375487182024
 30
0.0
 11
61.61774505356458
 21
60.9005389869096
 31
0.0
  0
LINE
  5
145
330
D4
100
AcDbEntity
  8
外形線
100
AcDbLine
 10
57.88086113222266
 20
61.52554190290925
 30
0.0
 11
54.03531059511329
 21
61.52554190290925
 31
0.0
  0
LINE
  5
146
330
D4
100
AcDbEntity
  8
破線
100
AcDbLine
 10
57.88086113222266
 20
60.90054190290925
 30
0.0
 11
54.14398369081641
 21
60.90054190290925
 31
0.0
  0
LINE
  5
147
330
D4
100
AcDbEntity
  8
破線
100
AcDbLine
 10
53.96172726824246
 20
59.60375674810683
 30
0.0
 11
54.14397782918669
 21
60.90053708562331
 31
0.0
  0
LINE
  5
148
330
D4
100
AcDbEntity
  8
破線
100
AcDbLine
 10
53.09523948915625
 20
58.8505426658487
 30
0.0
 11
52.13421043642188
 21
58.8505426658487
 31
0.0
  0
LINE
  5
149
330
D4
100
AcDbEntity
  8
外形線
100
AcDbLine
 10
53.09523948915625
 20
59.4755426658487
 30
0.0
 11
50.77318748720313
 21
59.4755426658487
 31
0.0
  0
LINE
  5
14A
330
D4
100
AcDbEntity
  8
外形線
100
AcDbLine
 10
53.3427986560309
 20
59.69074340360768
 30
0.0
 11
53.5401714626316
 21
61.09512412778308
 31
0.0
  0
LINE
  5
14B
330
D4
100
AcDbEntity
  8
外形線
100
AcDbLine
 10
60.86257997473616
 20
4.825547182998761
 30
0.0
 11
53.31258318764535
 21
59.47553844647742
 31
0.0
  0
LINE
  5
14C
330
D4
100
AcDbEntity
  8
外形線
100
AcDbLine
 10
53.62770786188895
 20
61.3151358040336
 30
0.0
 11
61.10365617394899
 21
3.141346818339812
 31
0.0
  0
LINE
  5
14D
330
D4
100
AcDbEntity
  8
外形線
100
AcDbLine
 10
69.68401380069258
 20
2.985968668687291
 30
0.0
 11
62.20806451617171
 21
61.15976522154571
 31
0.0
  0
LINE
  5
14E
330
D4
100
AcDbEntity
  8
外形線
100
AcDbLine
 10
69.99916939433531
 20
4.82555335014711
 30
0.0
 11
62.41935185796092
 21
59.69139949857158
 31
0.0
  0
LINE
  5
14F
330
D4
100
AcDbEntity
  8
破線
100
AcDbLine
 10
50.33086189516211
 20
58.8505426658487
 30
0.0
 11
52.13421043642188
 21
58.8505426658487
 31
0.0
  0
LINE
  5
150
330
D4
100
AcDbEntity
  8
外形線
100
AcDbLine
 10
72.25471560287897
 20
4.610348006186447
 30
0.0
 11
72.45208821132064
 21
3.205967254161635
 31
0.0
  0
LINE
  5
151
330
D4
100
AcDbEntity
  8
破線
100
AcDbLine
 10
72.87362507404816
 20
4.697333808629418
 30
0.0
 11
73.05587332840534
 21
3.400568555689203
 31
0.0
  0
LINE
  5
152
330
D4
100
AcDbEntity
  8
中心線
100
AcDbLine
 10
72.98086328514012
 20
61.52555079351621
 30
0.0
 11
69.20586537424018
 21
32.15055058350551
 31
0.0
  0
LINE
  5
153
330
D4
100
AcDbEntity
  8
破線
100
AcDbLine
 10
72.98085960634374
 20
60.90054190290925
 30
0.0
 11
76.71775230653905
 21
60.90054190290925
 31
0.0
  0
LINE
  5
154
330
D4
100
AcDbEntity
  8
外形線
100
AcDbLine
 10
72.98085960634374
 20
61.52554190290925
 30
0.0
 11
76.2677629876914
 21
61.52554190290925
 31
0.0
  0
LINE
  5
155
330
D4
100
AcDbEntity
  8
外形線
100
AcDbLine
 10
72.98085960634374
 20
61.52554190290925
 30
0.0
 11
69.13530906923438
 21
61.52554190290925
 31
0.0
  0
LINE
  5
156
330
D4
100
AcDbEntity
  8
破線
100
AcDbLine
 10
72.98085960634374
 20
60.90054190290925
 30
0.0
 11
69.24398216493749
 21
60.90054190290925
 31
0.0
  0
LINE
  5
157
330
D4
100
AcDbEntity
  8
破線
100
AcDbLine
 10
69.06170937801708
 20
59.60376060783239
 30
0.0
 11
69.2439604698645
 21
60.90054472292179
 31
0.0
  0
LINE
  5
158
330
D4
100
AcDbEntity
  8
破線
100
AcDbLine
 10
68.19524559267188
 20
58.8505426658487
 30
0.0
 11
67.23421653993749
 21
58.8505426658487
 31
0.0
  0
LINE
  5
159
330
D4
100
AcDbEntity
  8
外形線
100
AcDbLine
 10
68.19524559267188
 20
59.4755426658487
 30
0.0
 11
67.23421653993749
 21
59.4755426658487
 31
0.0
  0
LINE
  5
15A
330
D4
100
AcDbEntity
  8
外形線
100
AcDbLine
 10
68.44278427792686
 20
59.69074484364366
 30
0.0
 11
68.64015655362442
 21
61.09512179024616
 31
0.0
  0
LINE
  5
15B
330
D4
100
AcDbEntity
  8
外形線
100
AcDbLine
 10
72.22446501483766
 20
31.88356434544735
 30
0.0
 11
68.41258182997029
 21
59.47554731245914
 31
0.0
  0
LINE
  5
15C
330
D4
100
AcDbEntity
  8
外形線
100
AcDbLine
 10
68.72770636719382
 20
61.31513119384428
 30
0.0
 11
72.76775579127525
 21
29.87765023786312
 31
0.0
  0
LINE
  5
15D
330
D4
100
AcDbEntity
  8
外形線
100
AcDbLine
 10
65.43085655458593
 20
59.4755426658487
 30
0.0
 11
67.23421653993749
 21
59.4755426658487
 31
0.0
  0
LINE
  5
15E
330
D4
100
AcDbEntity
  8
破線
100
AcDbLine
 10
65.43085655458593
 20
58.8505426658487
 30
0.0
 11
67.23421653993749
 21
58.8505426658487
 31
0.0
  0
LINE
  5
15F
330
D4
100
AcDbEntity
  8
外形線
100
AcDbLine
 10
37.76776298769141
 20
62.02554953230379
 30
0.0
 11
37.76776298769141
 21
32.15054953230378
 31
0.0
  0
LINE
  5
160
330
D4
100
AcDbEntity
  8
破線
100
AcDbLine
 10
38.51776298769141
 20
61.90054953230379
 30
0.0
 11
38.51776298769141
 21
32.15054953230378
 31
0.0
  0
LINE
  5
161
330
D4
100
AcDbEntity
  8
破線
100
AcDbLine
 10
38.51776298769141
 20
61.90054953230379
 30
0.0
 11
39.01776298769141
 21
61.90054953230379
 31
0.0
  0
LINE
  5
162
330
D4
100
AcDbEntity
  8
外形線
100
AcDbLine
 10
38.26776298769141
 20
62.52554953230379
 30
0.0
 11
39.29301628358985
 21
62.52554953230379
 31
0.0
  0
LINE
  5
163
330
D4
100
AcDbEntity
  8
破線
100
AcDbLine
 10
42.01776087452496
 20
61.90053890107577
 30
0.0
 11
44.26776241738127
 21
60.90053058385709
 31
0.0
  0
LINE
  5
164
330
D4
100
AcDbEntity
  8
外形線
100
AcDbLine
 10
42.15039394176424
 20
62.52553974074768
 30
0.0
 11
44.40039548462054
 21
61.525531423529
 31
0.0
  0
LINE
  5
165
330
D4
100
AcDbEntity
  8
外形線
100
AcDbLine
 10
42.15040001161717
 20
62.52554953230379
 30
0.0
 11
41.74250969179296
 21
62.52554953230379
 31
0.0
  0
LINE
  5
166
330
D4
100
AcDbEntity
  8
外形線
100
AcDbLine
 10
39.51776298769141
 20
62.38504660261629
 30
0.0
 11
39.51776298769141
 21
32.15054953230378
 31
0.0
  0
LINE
  5
167
330
D4
100
AcDbEntity
  8
外形線
100
AcDbLine
 10
41.5177629876914
 20
62.38504660261629
 30
0.0
 11
41.5177629876914
 21
32.15054953230378
 31
0.0
  0
LINE
  5
168
330
D4
100
AcDbEntity
  8
外形線
100
AcDbLine
 10
44.40040001161718
 20
61.52554190290925
 30
0.0
 11
44.40040001161718
 21
32.15054953230378
 31
0.0
  0
LINE
  5
169
330
D4
100
AcDbEntity
  8
破線
100
AcDbLine
 10
39.07619270570899
 20
61.90054953230379
 30
0.0
 11
39.07619270570899
 21
32.15054953230378
 31
0.0
  0
LINE
  5
16A
330
D4
100
AcDbEntity
  8
外形線
100
AcDbLine
 10
37.76776298769141
 20
2.275549532303783
 30
0.0
 11
37.76776298769141
 21
32.15054953230378
 31
0.0
  0
LINE
  5
16B
330
D4
100
AcDbEntity
  8
破線
100
AcDbLine
 10
38.51776298769141
 20
2.400549532303783
 30
0.0
 11
38.51776298769141
 21
32.15054953230378
 31
0.0
  0
LINE
  5
16C
330
D4
100
AcDbEntity
  8
破線
100
AcDbLine
 10
38.51776298769141
 20
2.400549532303783
 30
0.0
 11
39.01776298769141
 21
2.400549532303783
 31
0.0
  0
LINE
  5
16D
330
D4
100
AcDbEntity
  8
外形線
100
AcDbLine
 10
38.26776298769141
 20
1.775549532303784
 30
0.0
 11
39.29301628358985
 21
1.775549532303784
 31
0.0
  0
LINE
  5
16E
330
D4
100
AcDbEntity
  8
破線
100
AcDbLine
 10
42.01775580548178
 20
2.400569740134095
 30
0.0
 11
44.26775734833809
 21
3.400578057352793
 31
0.0
  0
LINE
  5
16F
330
D4
100
AcDbEntity
  8
外形線
100
AcDbLine
 10
42.15039216498126
 20
1.775566189204744
 30
0.0
 11
44.40039022192753
 21
2.775572957118264
 31
0.0
  0
LINE
  5
170
330
D4
100
AcDbEntity
  8
外形線
100
AcDbLine
 10
42.15040001161717
 20
1.775549532303784
 30
0.0
 11
41.74250969179296
 21
1.775549532303784
 31
0.0
  0
LINE
  5
171
330
D4
100
AcDbEntity
  8
外形線
100
AcDbLine
 10
39.51776298769141
 20
1.916052461991284
 30
0.0
 11
39.51776298769141
 21
32.15054953230378
 31
0.0
  0
LINE
  5
172
330
D4
100
AcDbEntity
  8
外形線
100
AcDbLine
 10
41.5177629876914
 20
1.916052461991284
 30
0.0
 11
41.5177629876914
 21
32.15054953230378
 31
0.0
  0
LINE
  5
173
330
D4
100
AcDbEntity
  8
外形線
100
AcDbLine
 10
44.40040001161718
 20
2.775557161698309
 30
0.0
 11
44.40040001161718
 21
32.15054953230378
 31
0.0
  0
LINE
  5
174
330
D4
100
AcDbEntity
  8
破線
100
AcDbLine
 10
39.07619270570899
 20
2.400549532303783
 30
0.0
 11
39.07619270570899
 21
32.15054953230378
 31
0.0
  0
LINE
  5
175
330
D4
100
AcDbEntity
  8
外形線
100
AcDbLine
 10
79.76775535829687
 20
51.65054953230378
 30
0.0
 11
79.76775535829687
 21
32.15054953230378
 31
0.0
  0
LINE
  5
176
330
D4
100
AcDbEntity
  8
外形線
100
AcDbLine
 10
77.76775535829687
 20
60.02554190290926
 30
0.0
 11
77.76775535829687
 21
32.15054953230378
 31
0.0
  0
LINE
  5
177
330
D4
100
AcDbEntity
  8
破線
100
AcDbLine
 10
77.14275535829687
 20
60.02554190290926
 30
0.0
 11
77.14275535829687
 21
32.15054953230378
 31
0.0
  0
LINE
  5
178
330
D4
100
AcDbEntity
  8
破線
100
AcDbLine
 10
72.98085960634374
 20
3.400557161698308
 30
0.0
 11
76.2677629876914
 21
3.400557161698308
 31
0.0
  0
LINE
  5
179
330
D4
100
AcDbEntity
  8
外形線
100
AcDbLine
 10
72.98085960634374
 20
2.775557161698309
 30
0.0
 11
76.2677629876914
 21
2.775557161698309
 31
0.0
  0
LINE
  5
17A
330
D4
100
AcDbEntity
  8
外形線
100
AcDbLine
 10
77.76775535829687
 20
4.275557161698309
 30
0.0
 11
77.76775535829687
 21
32.15054953230378
 31
0.0
  0
LINE
  5
17B
330
D4
100
AcDbEntity
  8
破線
100
AcDbLine
 10
77.14275535829687
 20
4.275557161698309
 30
0.0
 11
77.14275535829687
 21
32.15054953230378
 31
0.0
  0
LINE
  5
17C
330
D4
100
AcDbEntity
  8
外形線
100
AcDbLine
 10
72.76775535829687
 20
2.808874727616283
 30
0.0
 11
72.76775535829687
 21
29.87764990461824
 31
0.0
  0
LINE
  5
17D
330
D4
100
AcDbEntity
  8
外形線
100
AcDbLine
 10
72.22445091493749
 20
31.88356316221713
 30
0.0
 11
72.22445091493749
 21
4.699146868119211
 31
0.0
  0
LINE
  5
17E
330
D4
100
AcDbEntity
  8
外形線
100
AcDbLine
 10
78.0177629876914
 20
52.15054953230378
 30
0.0
 11
79.2677629876914
 21
52.15054953230378
 31
0.0
  0
LINE
  5
17F
330
D4
100
AcDbEntity
  8
外形線
100
AcDbLine
 10
77.7677629876914
 20
34.65054953230378
 30
0.0
 11
79.2677629876914
 21
34.65054953230378
 31
0.0
  0
LINE
  5
180
330
D4
100
AcDbEntity
  8
破線
100
AcDbLine
 10
78.0177629876914
 20
51.52554953230378
 30
0.0
 11
79.1427629876914
 21
51.52554953230378
 31
0.0
  0
LINE
  5
181
330
D4
100
AcDbEntity
  8
破線
100
AcDbLine
 10
79.14275535829687
 20
51.52554953230378
 30
0.0
 11
79.14275535829687
 21
32.15054953230378
 31
0.0
  0
LINE
  5
182
330
D4
100
AcDbEntity
  8
破線
100
AcDbLine
 10
77.64276298769139
 20
34.02554953230378
 30
0.0
 11
78.89276298769139
 21
34.02554953230378
 31
0.0
  0
LINE
  5
183
330
D4
100
AcDbEntity
  8
外形線
100
AcDbLine
 10
79.76775535829687
 20
12.65054953230378
 30
0.0
 11
79.76775535829687
 21
32.15054953230378
 31
0.0
  0
LINE
  5
184
330
D4
100
AcDbEntity
  8
外形線
100
AcDbLine
 10
78.0177629876914
 20
12.15054953230378
 30
0.0
 11
79.2677629876914
 21
12.15054953230378
 31
0.0
  0
LINE
  5
185
330
D4
100
AcDbEntity
  8
外形線
100
AcDbLine
 10
77.7677629876914
 20
29.65054953230378
 30
0.0
 11
79.2677629876914
 21
29.65054953230378
 31
0.0
  0
LINE
  5
186
330
D4
100
AcDbEntity
  8
破線
100
AcDbLine
 10
78.0177629876914
 20
12.77554953230378
 30
0.0
 11
79.1427629876914
 21
12.77554953230378
 31
0.0
  0
LINE
  5
187
330
D4
100
AcDbEntity
  8
破線
100
AcDbLine
 10
79.14275535829687
 20
12.77554953230378
 30
0.0
 11
79.14275535829687
 21
32.15054953230378
 31
0.0
  0
LINE
  5
188
330
D4
100
AcDbEntity
  8
破線
100
AcDbLine
 10
77.64276298769139
 20
30.27554953230378
 30
0.0
 11
78.89276298769139
 21
30.27554953230378
 31
0.0
  0
LINE
  5
189
330
D4
100
AcDbEntity
  8
破線
100
AcDbLine
 10
-42.96767249814843
 20
49.65054953230378
 30
0.0
 11
-42.96767249814843
 21
34.65054953230378
 31
0.0
  0
LINE
  5
18A
330
D4
100
AcDbEntity
  8
破線
100
AcDbLine
 10
-42.9676648687539
 20
34.6505459560251
 30
0.0
 11
-57.9676648687539
 21
34.6505459560251
 31
0.0
  0
LINE
  5
18B
330
D4
100
AcDbEntity
  8
外形線
100
AcDbLine
 10
-42.34267249814843
 20
49.65054953230378
 30
0.0
 11
-42.34267249814843
 21
34.02554953230378
 31
0.0
  0
LINE
  5
18C
330
D4
100
AcDbEntity
  8
外形線
100
AcDbLine
 10
-42.3426648687539
 20
34.02554619444368
 30
0.0
 11
-57.9676648687539
 21
34.02554619444368
 31
0.0
  0
LINE
  5
18D
330
D4
100
AcDbEntity
  8
破線
100
AcDbLine
 10
-57.9676648687539
 20
29.65054190290926
 30
0.0
 11
-42.9676648687539
 21
29.65054190290926
 31
0.0
  0
LINE
  5
18E
330
D4
100
AcDbEntity
  8
破線
100
AcDbLine
 10
-42.96765723935936
 20
29.65054953230378
 30
0.0
 11
-42.96765723935936
 21
14.65054953230378
 31
0.0
  0
LINE
  5
18F
330
D4
100
AcDbEntity
  8
外形線
100
AcDbLine
 10
-57.9676648687539
 20
30.27554237974641
 30
0.0
 11
-42.3426648687539
 21
30.27554237974641
 31
0.0
  0
LINE
  5
190
330
D4
100
AcDbEntity
  8
外形線
100
AcDbLine
 10
-42.34265723935936
 20
30.27554953230378
 30
0.0
 11
-42.34265723935936
 21
14.65054953230378
 31
0.0
  0
LINE
  5
191
330
D4
100
AcDbEntity
  8
破線
100
AcDbLine
 10
-37.96765342466211
 20
14.65054953230378
 30
0.0
 11
-37.96765342466211
 21
29.65054953230378
 31
0.0
  0
LINE
  5
192
330
D4
100
AcDbEntity
  8
破線
100
AcDbLine
 10
-37.9676648687539
 20
29.65055716169832
 30
0.0
 11
-22.9676648687539
 21
29.65055716169832
 31
0.0
  0
LINE
  5
193
330
D4
100
AcDbEntity
  8
外形線
100
AcDbLine
 10
-38.59265342466211
 20
14.65054953230378
 30
0.0
 11
-38.59265342466211
 21
30.27554953230378
 31
0.0
  0
LINE
  5
194
330
D4
100
AcDbEntity
  8
外形線
100
AcDbLine
 10
-38.5926648687539
 20
30.27555763853547
 30
0.0
 11
-22.9676648687539
 21
30.27555763853547
 31
0.0
  0
LINE
  5
195
330
D4
100
AcDbEntity
  8
破線
100
AcDbLine
 10
-22.9676648687539
 20
34.65056121481416
 30
0.0
 11
-37.9676648687539
 21
34.65056121481416
 31
0.0
  0
LINE
  5
196
330
D4
100
AcDbEntity
  8
破線
100
AcDbLine
 10
-37.96766868345117
 20
34.65054953230378
 30
0.0
 11
-37.96766868345117
 21
49.65054953230378
 31
0.0
  0
LINE
  5
197
330
D4
100
AcDbEntity
  8
外形線
100
AcDbLine
 10
-22.9676648687539
 20
34.02556145323274
 30
0.0
 11
-38.5926648687539
 21
34.02556145323274
 31
0.0
  0
LINE
  5
198
330
D4
100
AcDbEntity
  8
外形線
100
AcDbLine
 10
-38.59266868345116
 20
34.02554953230378
 30
0.0
 11
-38.59266868345116
 21
49.65054953230378
 31
0.0
  0
ARC
  5
199
330
D4
100
AcDbEntity
  8
破線
100
AcDbCircle
 10
55.11648735292578
 20
4.575560213456132
 30
0.0
 40
0.875
100
AcDbArc
 50
89.9999683535322
 51
171.999872736012
  0
ARC
  5
19A
330
D4
100
AcDbEntity
  8
外形線
100
AcDbCircle
 10
55.11648735292578
 20
4.575560213456132
 30
0.0
 40
0.25
100
AcDbArc
 50
89.99996835353263
 51
171.9998727360123
  0
ARC
  5
19B
330
D4
100
AcDbEntity
  8
外形線
100
AcDbCircle
 10
54.17641624696876
 20
3.275564791092838
 30
0.0
 40
0.5
100
AcDbArc
 50
270.0000179860897
 51
351.9998813874348
  0
ARC
  5
19C
330
D4
100
AcDbEntity
  8
外形線
100
AcDbCircle
 10
68.19523033388283
 20
59.72554266584872
 30
0.0
 40
0.25
100
AcDbArc
 50
269.9999633445764
 51
351.9998677270566
  0
ARC
  5
19D
330
D4
100
AcDbEntity
  8
外形線
100
AcDbCircle
 10
49.8331163812461
 20
61.02554190290925
 30
0.0
 40
0.5
100
AcDbArc
 50
8.000118612565875
 51
89.99998201391097
  0
ARC
  5
19E
330
D4
100
AcDbEntity
  8
外形線
100
AcDbCircle
 10
50.77318748720313
 20
59.72554266584872
 30
0.0
 40
0.25
100
AcDbArc
 50
188.0001136036104
 51
270.0000179860897
  0
ARC
  5
19F
330
D4
100
AcDbEntity
  8
破線
100
AcDbCircle
 10
50.77318748720313
 20
59.72554266584872
 30
0.0
 40
0.875
100
AcDbArc
 50
188.0001136036103
 51
270.0000179860902
  0
CIRCLE
  5
1A0
330
D4
100
AcDbEntity
  8
外形線
100
AcDbCircle
 10
-40.4676648687539
 20
32.15054953230378
 30
0.0
 40
28.75
  0
CIRCLE
  5
1A1
330
D4
100
AcDbEntity
  8
外形線
100
AcDbCircle
 10
-40.4676648687539
 20
32.15054953230378
 30
0.0
 40
26.70000076293945
  0
CIRCLE
  5
1A2
330
D4
100
AcDbEntity
  8
破線
100
AcDbCircle
 10
-40.4676648687539
 20
32.15054953230378
 30
0.0
 40
27.32500076293945
  0
ARC
  5
1A3
330
D4
100
AcDbEntity
  8
破線
100
AcDbCircle
 10
-62.35861793271874
 20
35.99508154524325
 30
0.0
 40
7.149027824401856
100
AcDbArc
 50
132.5754061296732
 51
142.3748561168089
  0
ARC
  5
1A4
330
D4
100
AcDbEntity
  8
破線
100
AcDbCircle
 10
-73.96095863096094
 20
48.62341940535067
 30
0.0
 40
10.0
100
AcDbArc
 50
312.5753737999608
 51
333.8108417408807
  0
ARC
  5
1A5
330
D4
100
AcDbEntity
  8
外形線
100
AcDbCircle
 10
-73.96095863096094
 20
48.62341940535067
 30
0.0
 40
10.625
100
AcDbArc
 50
312.5753737999608
 51
333.8108417408807
  0
ARC
  5
1A6
330
D4
100
AcDbEntity
  8
外形線
100
AcDbCircle
 10
-62.35861793271874
 20
35.99508154524325
 30
0.0
 40
6.524027824401856
100
AcDbArc
 50
132.5754197900515
 51
170.0391986328683
  0
ARC
  5
1A7
330
D4
100
AcDbEntity
  8
破線
100
AcDbCircle
 10
53.09523948915625
 20
59.72554266584872
 30
0.0
 40
0.875
100
AcDbArc
 50
269.9999633445768
 51
351.9998677270566
  0
ARC
  5
1A8
330
D4
100
AcDbEntity
  8
破線
100
AcDbCircle
 10
70.21648582704688
 20
4.575552584061592
 30
0.0
 40
0.875
100
AcDbArc
 50
89.9999683535322
 51
171.999872736012
  0
ARC
  5
1A9
330
D4
100
AcDbEntity
  8
破線
100
AcDbCircle
 10
60.64523491151954
 20
4.575552584061592
 30
0.0
 40
0.875
100
AcDbArc
 50
8.000118612565911
 51
90.00002299504551
  0
ARC
  5
1AA
330
D4
100
AcDbEntity
  8
外形線
100
AcDbCircle
 10
70.21648582704688
 20
4.575552584061592
 30
0.0
 40
0.25
100
AcDbArc
 50
89.99996835353263
 51
171.9998727360123
  0
ARC
  5
1AB
330
D4
100
AcDbEntity
  8
外形線
100
AcDbCircle
 10
69.27640709169534
 20
3.275557161698308
 30
0.0
 40
0.5
100
AcDbArc
 50
270.0000179860897
 51
351.999881387435
  0
ARC
  5
1AC
330
D4
100
AcDbEntity
  8
外形線
100
AcDbCircle
 10
61.58530983217382
 20
3.275557161698308
 30
0.0
 40
0.5
100
AcDbArc
 50
188.0001545847451
 51
270.0000179860897
  0
ARC
  5
1AD
330
D4
100
AcDbEntity
  8
外形線
100
AcDbCircle
 10
60.64523491151954
 20
4.575552584061592
 30
0.0
 40
0.25
100
AcDbArc
 50
8.000118612565762
 51
90.00002299504599
  0
ARC
  5
1AE
330
D4
100
AcDbEntity
  8
外形線
100
AcDbCircle
 10
53.09523948915625
 20
59.72554266584872
 30
0.0
 40
0.25
100
AcDbArc
 50
269.9999633445764
 51
351.9998677270566
  0
ARC
  5
1AF
330
D4
100
AcDbEntity
  8
外形線
100
AcDbCircle
 10
54.03531059511329
 20
61.02554190290925
 30
0.0
 40
0.5
100
AcDbArc
 50
89.99998201391097
 51
171.9998454152556
  0
ARC
  5
1B0
330
D4
100
AcDbEntity
  8
外形線
100
AcDbCircle
 10
62.66648658998633
 20
59.72554266584872
 30
0.0
 40
0.25
100
AcDbArc
 50
188.0001136036104
 51
270.0000179860897
  0
ARC
  5
1B1
330
D4
100
AcDbEntity
  8
外形線
100
AcDbCircle
 10
61.72642311342382
 20
61.02554190290925
 30
0.0
 40
0.5
100
AcDbArc
 50
8.000126296528947
 51
89.99998201391097
  0
ARC
  5
1B2
330
D4
100
AcDbEntity
  8
破線
100
AcDbCircle
 10
62.66648658998633
 20
59.72554266584872
 30
0.0
 40
0.875
100
AcDbArc
 50
188.0001136036103
 51
270.0000179860902
  0
ARC
  5
1B3
330
D4
100
AcDbEntity
  8
破線
100
AcDbCircle
 10
68.19524559267188
 20
59.72554266584872
 30
0.0
 40
0.875
100
AcDbArc
 50
269.9999633445768
 51
351.9998677270566
  0
ARC
  5
1B4
330
D4
100
AcDbEntity
  8
破線
100
AcDbCircle
 10
72.00715049989843
 20
4.575552584061592
 30
0.0
 40
0.875
100
AcDbArc
 50
8.000118612565911
 51
90.00002299504551
  0
ARC
  5
1B5
330
D4
100
AcDbEntity
  8
外形線
100
AcDbCircle
 10
72.94722923524999
 20
3.275557161698308
 30
0.0
 40
0.5
100
AcDbArc
 50
188.000154584745
 51
270.0000179860897
  0
ARC
  5
1B6
330
D4
100
AcDbEntity
  8
外形線
100
AcDbCircle
 10
72.00715049989843
 20
4.575552584061592
 30
0.0
 40
0.25
100
AcDbArc
 50
8.000118612565991
 51
90.00002299504599
  0
ARC
  5
1B7
330
D4
100
AcDbEntity
  8
外形線
100
AcDbCircle
 10
68.19524559267188
 20
59.72554266584872
 30
0.0
 40
0.25
100
AcDbArc
 50
269.9999633445764
 51
351.9998677270566
  0
ARC
  5
1B8
330
D4
100
AcDbEntity
  8
外形線
100
AcDbCircle
 10
69.13530906923438
 20
61.02554190290925
 30
0.0
 40
0.5
100
AcDbArc
 50
89.99998201391097
 51
171.9998454152557
  0
ARC
  5
1B9
330
D4
100
AcDbEntity
  8
外形線
100
AcDbCircle
 10
40.5177629876914
 20
62.52554953230379
 30
0.0
 40
1.0
100
AcDbArc
 50
191.5369904615179
 51
348.4629934304696
  0
ARC
  5
1BA
330
D4
100
AcDbEntity
  8
破線
100
AcDbCircle
 10
40.5177629876914
 20
62.52554953230379
 30
0.0
 40
1.625
100
AcDbArc
 50
202.6198466540774
 51
337.3801346765893
  0
ARC
  5
1BB
330
D4
100
AcDbEntity
  8
外形線
100
AcDbCircle
 10
38.26776298769141
 20
62.02554953230379
 30
0.0
 40
0.5
100
AcDbArc
 50
89.99998201391097
 51
179.9999640278211
  0
ARC
  5
1BC
330
D4
100
AcDbEntity
  8
外形線
100
AcDbCircle
 10
39.29302009828712
 20
62.27554953230378
 30
0.0
 40
0.25
100
AcDbArc
 50
11.53677092800448
 51
89.99998201391097
  0
ARC
  5
1BD
330
D4
100
AcDbEntity
  8
外形線
100
AcDbCircle
 10
41.74250587709571
 20
62.27554953230378
 30
0.0
 40
0.25
100
AcDbArc
 50
89.99998201391097
 51
168.4632007837796
  0
ARC
  5
1BE
330
D4
100
AcDbEntity
  8
外形線
100
AcDbCircle
 10
39.29302009828712
 20
2.025549532303783
 30
0.0
 40
0.25
100
AcDbArc
 50
269.9999633445764
 51
348.4631752842567
  0
ARC
  5
1BF
330
D4
100
AcDbEntity
  8
外形線
100
AcDbCircle
 10
41.74250587709571
 20
2.025549532303783
 30
0.0
 40
0.25
100
AcDbArc
 50
191.5367445747073
 51
269.9999633445764
  0
ARC
  5
1C0
330
D4
100
AcDbEntity
  8
外形線
100
AcDbCircle
 10
40.5177629876914
 20
1.775549532303784
 30
0.0
 40
1.0
100
AcDbArc
 50
11.53695448933859
 51
168.4629548969693
  0
ARC
  5
1C1
330
D4
100
AcDbEntity
  8
破線
100
AcDbCircle
 10
40.5177629876914
 20
1.775549532303784
 30
0.0
 40
1.625
100
AcDbArc
 50
22.61981068189792
 51
157.38009870441
  0
ARC
  5
1C2
330
D4
100
AcDbEntity
  8
外形線
100
AcDbCircle
 10
38.26776298769141
 20
2.275549532303783
 30
0.0
 40
0.5
100
AcDbArc
 50
179.9999813306655
 51
269.9999633445764
  0
ARC
  5
1C3
330
D4
100
AcDbEntity
  8
外形線
100
AcDbCircle
 10
76.26775535829686
 20
60.02554190290926
 30
0.0
 40
1.5
100
AcDbArc
 50
0.0
 51
89.99998201391044
  0
ARC
  5
1C4
330
D4
100
AcDbEntity
  8
破線
100
AcDbCircle
 10
76.26775535829686
 20
60.02554190290926
 30
0.0
 40
0.875
100
AcDbArc
 50
0.0
 51
89.99998201391052
  0
ARC
  5
1C5
330
D4
100
AcDbEntity
  8
外形線
100
AcDbCircle
 10
76.26775535829686
 20
4.275557161698309
 30
0.0
 40
1.5
100
AcDbArc
 50
269.9999633445769
 51
359.9999453584875
  0
ARC
  5
1C6
330
D4
100
AcDbEntity
  8
破線
100
AcDbCircle
 10
76.26775535829686
 20
4.275557161698309
 30
0.0
 40
0.875
100
AcDbArc
 50
269.9999633445768
 51
359.9999453584875
  0
ARC
  5
1C7
330
D4
100
AcDbEntity
  8
外形線
100
AcDbCircle
 10
78.01775535829687
 20
52.40054953230378
 30
0.0
 40
0.25
100
AcDbArc
 50
179.9999813306655
 51
270.0000179860897
  0
ARC
  5
1C8
330
D4
100
AcDbEntity
  8
外形線
100
AcDbCircle
 10
79.26775535829687
 20
51.65054953230378
 30
0.0
 40
0.5
100
AcDbArc
 50
0.0
 51
89.99998201391097
  0
ARC
  5
1C9
330
D4
100
AcDbEntity
  8
外形線
100
AcDbCircle
 10
79.26775535829687
 20
34.15054953230379
 30
0.0
 40
0.5
100
AcDbArc
 50
0.0
 51
89.99998201391097
  0
ARC
  5
1CA
330
D4
100
AcDbEntity
  8
破線
100
AcDbCircle
 10
78.01775535829687
 20
52.40054953230378
 30
0.0
 40
0.875
100
AcDbArc
 50
179.9999813306653
 51
270.0000179860902
  0
ARC
  5
1CB
330
D4
100
AcDbEntity
  8
外形線
100
AcDbCircle
 10
78.01775535829687
 20
11.90054953230378
 30
0.0
 40
0.25
100
AcDbArc
 50
89.99992737239763
 51
179.9999640278211
  0
ARC
  5
1CC
330
D4
100
AcDbEntity
  8
外形線
100
AcDbCircle
 10
79.26775535829687
 20
12.65054953230378
 30
0.0
 40
0.5
100
AcDbArc
 50
269.9999633445764
 51
359.9999453584875
  0
ARC
  5
1CD
330
D4
100
AcDbEntity
  8
外形線
100
AcDbCircle
 10
79.26775535829687
 20
30.15054953230379
 30
0.0
 40
0.5
100
AcDbArc
 50
269.9999633445764
 51
359.9999453584875
  0
ARC
  5
1CE
330
D4
100
AcDbEntity
  8
破線
100
AcDbCircle
 10
78.01775535829687
 20
11.90054953230378
 30
0.0
 40
0.875
100
AcDbArc
 50
89.99992737239713
 51
179.9999640278213
  0
ARC
  5
1CF
330
D4
100
AcDbEntity
  8
破線
100
AcDbCircle
 10
77.64275535829686
 20
34.52554953230379
 30
0.0
 40
0.5
100
AcDbArc
 50
179.9999813306653
 51
270.0000179860897
  0
ARC
  5
1D0
330
D4
100
AcDbEntity
  8
破線
100
AcDbCircle
 10
77.64275535829686
 20
29.77554953230379
 30
0.0
 40
0.5
100
AcDbArc
 50
89.99998201391097
 51
179.9999640278213
  0
ARC
  5
1D1
330
D4
100
AcDbEntity
  8
破線
100
AcDbCircle
 10
78.89275535829686
 20
33.77554953230379
 30
0.0
 40
0.25
100
AcDbArc
 50
0.0
 51
89.99998201391097
  0
ARC
  5
1D2
330
D4
100
AcDbEntity
  8
破線
100
AcDbCircle
 10
78.89275535829686
 20
30.52554953230379
 30
0.0
 40
0.25
100
AcDbArc
 50
270.0000179860897
 51
0.0
  0
ARC
  5
1D3
330
D4
100
AcDbEntity
  8
破線
100
AcDbCircle
 10
-40.46766105405663
 20
49.65054953230378
 30
0.0
 40
2.5
100
AcDbArc
 50
89.99996835353231
 51
180.000005008957
  0
ARC
  5
1D4
330
D4
100
AcDbEntity
  8
外形線
100
AcDbCircle
 10
-40.46766105405663
 20
49.65054953230378
 30
0.0
 40
1.875
100
AcDbArc
 50
89.99996835353242
 51
180.000005008957
  0
ARC
  5
1D5
330
D4
100
AcDbEntity
  8
破線
100
AcDbCircle
 10
-57.9676648687539
 20
32.15054714811799
 30
0.0
 40
2.5
100
AcDbArc
 50
89.99996835353231
 51
180.000005008957
  0
ARC
  5
1D6
330
D4
100
AcDbEntity
  8
外形線
100
AcDbCircle
 10
-57.9676648687539
 20
32.15054714811799
 30
0.0
 40
1.875
100
AcDbArc
 50
89.99996835353242
 51
180.000005008957
  0
ARC
  5
1D7
330
D4
100
AcDbEntity
  8
破線
100
AcDbCircle
 10
-57.9676648687539
 20
32.15054810179231
 30
0.0
 40
2.5
100
AcDbArc
 50
179.9999813306653
 51
270.00001798609
  0
ARC
  5
1D8
330
D4
100
AcDbEntity
  8
外形線
100
AcDbCircle
 10
-57.9676648687539
 20
32.15054810179231
 30
0.0
 40
1.875
100
AcDbArc
 50
179.9999813306654
 51
270.00001798609
  0
ARC
  5
1D9
330
D4
100
AcDbEntity
  8
破線
100
AcDbCircle
 10
-40.46765723935936
 20
14.65054953230378
 30
0.0
 40
2.5
100
AcDbArc
 50
179.9999813306654
 51
270.00001798609
  0
ARC
  5
1DA
330
D4
100
AcDbEntity
  8
外形線
100
AcDbCircle
 10
-40.46765723935936
 20
14.65054953230378
 30
0.0
 40
1.875
100
AcDbArc
 50
179.9999813306654
 51
270.00001798609
  0
ARC
  5
1DB
330
D4
100
AcDbEntity
  8
破線
100
AcDbCircle
 10
-40.4676648687539
 20
14.65054953230378
 30
0.0
 40
2.5
100
AcDbArc
 50
269.999977004955
 51
0.00001366037834
  0
ARC
  5
1DC
330
D4
100
AcDbEntity
  8
外形線
100
AcDbCircle
 10
-40.4676648687539
 20
14.65054953230378
 30
0.0
 40
1.875
100
AcDbArc
 50
269.9999770049549
 51
0.00001366037834
  0
ARC
  5
1DD
330
D4
100
AcDbEntity
  8
破線
100
AcDbCircle
 10
-22.9676648687539
 20
32.15055573118684
 30
0.0
 40
2.5
100
AcDbArc
 50
269.999977004955
 51
0.00001366037834
  0
ARC
  5
1DE
330
D4
100
AcDbEntity
  8
外形線
100
AcDbCircle
 10
-22.9676648687539
 20
32.15055573118684
 30
0.0
 40
1.875
100
AcDbArc
 50
269.999977004955
 51
0.00001366037834
  0
ARC
  5
1DF
330
D4
100
AcDbEntity
  8
破線
100
AcDbCircle
 10
-22.9676648687539
 20
32.15054810179231
 30
0.0
 40
2.5
100
AcDbArc
 50
359.999972679244
 51
90.00000933466733
  0
ARC
  5
1E0
330
D4
100
AcDbEntity
  8
外形線
100
AcDbCircle
 10
-22.9676648687539
 20
32.15054810179231
 30
0.0
 40
1.875
100
AcDbArc
 50
359.999972679244
 51
90.00000933466733
  0
ARC
  5
1E1
330
D4
100
AcDbEntity
  8
破線
100
AcDbCircle
 10
-40.46766868345114
 20
49.65054953230378
 30
0.0
 40
2.5
100
AcDbArc
 50
359.999972679244
 51
90.00000933466733
  0
ARC
  5
1E2
330
D4
100
AcDbEntity
  8
外形線
100
AcDbCircle
 10
-40.46766868345114
 20
49.65054953230378
 30
0.0
 40
1.875
100
AcDbArc
 50
359.999972679244
 51
90.00000933466743
  0
CIRCLE
  5
1E3
330
D4
100
AcDbEntity
  8
破線
100
AcDbCircle
 10
-40.4676648687539
 20
32.15054953230378
 30
0.0
 40
29.75
  0
CIRCLE
  5
1E4
330
D4
100
AcDbEntity
  8
外形線
100
AcDbCircle
 10
-40.4676648687539
 20
32.15054953230378
 30
0.0
 40
30.5
  0
CIRCLE
  5
1E5
330
D4
100
AcDbEntity
  8
外形線
100
AcDbCircle
 10
-40.4676648687539
 20
32.15054953230378
 30
0.0
 40
28.75
  0
CIRCLE
  5
1E6
330
D4
100
AcDbEntity
  8
破線
100
AcDbCircle
 10
-40.4676648687539
 20
32.15054953230378
 30
0.0
 40
29.25
  0
MTEXT
  5
1E7
330
D4
100
AcDbEntity
  8
0
  6
Continuous
 62
     7
100
AcDbMText
 10
0.7124996185302736
 20
-90.75000000000001
 30
0.0
 40
3.200000047683716
 41
48.19444760218022
 46
0.0
 71
     5
 72
     1
  1
\W0.84307;トマリ 　(ﾄﾖﾄﾞﾚﾝＺ)
 73
     1
 44
1.0
1001
ACAD
1000
MTEXTBEGIN
1070
    73
1070
     1
1070
    44
1040
1.0
1070
    74
1070
     0
1000
MTEXTEND
  0
DIMENSION
  5
1EB
330
D4
100
AcDbEntity
  8
寸法線
100
AcDbDimension
280
     0
  2
*D6
 10
37.76776298769141
 20
73.23531439762348
 30
0.0
 11
58.76775917299414
 21
75.33531442146534
 31
0.0
 70
    32
  1
L
 71
     5
 42
41.99999237060546
 73
     0
 74
     0
 75
     0
  3
DIMSTYLE
100
AcDbAlignedDimension
 13
79.76775535829687
 23
51.65054953230378
 33
0.0
 14
37.76776298769141
 24
62.02554953230379
 34
0.0
100
AcDbRotatedDimension
1001
ACAD
1000
DSTYLE
1002
{
1070
    77
1070
     1
1070
   172
1070
     1
1070
   147
1040
0.5
1002
}
  0
DIMENSION
  5
1ED
330
D4
100
AcDbEntity
  8
寸法線
100
AcDbDimension
280
     0
  2
*D8
 10
26.50085218666867
 20
3.400564791092843
 30
0.0
 11
24.40085216282682
 21
32.15055334700106
 31
0.0
 70
    32
  1
D
 71
     5
 42
57.49997711181642
 73
     0
 74
     0
 75
     0
  3
DIMSTYLE
100
AcDbAlignedDimension
 13
44.2677629876914
 23
60.90054190290925
 33
0.0
 14
44.26777824648048
 24
3.400564791092838
 34
0.0
 50
90.0
100
AcDbRotatedDimension
1001
ACAD
1000
DSTYLE
1002
{
1070
    77
1070
     1
1070
   172
1070
     1
1070
   147
1040
0.5
1002
}
  0
LWPOLYLINE
  5
1F1
330
D4
100
AcDbEntity
  8
外形線
100
AcDbPolyline
 90
        2
 70
     0
 43
0.3000000119209289
 10
138.5
 20
95.0
 10
138.5
 20
-94.50000000000001
  0
LINE
  5
1F6
330
D4
100
AcDbEntity
  8
外形線
100
AcDbLine
 10
-50.57500076293945
 20
-87.0
 30
0.0
 11
-50.57500076293945
 21
-94.50000000000001
 31
0.0
  0
LINE
  5
2BD
330
D4
100
AcDbEntity
  8
外形線
100
AcDbLine
 10
-138.0
 20
95.0
 30
0.0
 11
-138.0
 21
-94.50000000000001
 31
0.0
  0
LINE
  5
2C0
330
D4
100
AcDbEntity
  8
外形線
100
AcDbLine
 10
-138.0
 20
95.0
 30
0.0
 11
138.5
 21
95.0
 31
0.0
  0
LINE
  5
2C1
330
D4
100
AcDbEntity
  8
外形線
100
AcDbLine
 10
-50.57500076293945
 20
-87.0
 30
0.0
 11
138.5
 21
-87.0
 31
0.0
  0
LINE
  5
2C2
330
D4
100
AcDbEntity
  8
外形線
100
AcDbLine
 10
52.0
 20
-87.0
 30
0.0
 11
52.0
 21
-94.50000000000001
 31
0.0
  0
LINE
  5
2C3
330
D4
100
AcDbEntity
  8
外形線
100
AcDbLine
 10
-138.0
 20
-94.50000000000001
 30
0.0
 11
138.5
 21
-94.50000000000001
 31
0.0
  0
MTEXT
  5
2DB
330
D4
100
AcDbEntity
  8
VIEW0002
 62
     7
100
AcDbMText
 10
-51.37120956580279
 20
-67.18991488589408
 30
0.0
 40
3.200000047683716
 41
0.0
 46
0.0
 71
     7
 72
     1
  1
{\W0.833333;*形状は規格毎に異なります。}
 73
     1
 44
1.0
1001
ACAD
1000
MTEXTBEGIN
1070
    73
1070
     1
1070
    44
1040
1.0
1070
    74
1070
     0
1000
MTEXTEND
  0
MTEXT
  5
2DC
330
D4
100
AcDbEntity
  8
VIEW0002
 62
     7
100
AcDbMText
 10
-51.23122170193158
 20
-72.18780441118254
 30
0.0
 40
3.200000047683716
 41
0.0
 46
0.0
 71
     7
 72
     1
  1
{\W0.833333;*ストッパ－の位置及び数は、規格毎に異なります。}
 73
     1
 44
1.0
1001
ACAD
1000
MTEXTBEGIN
1070
    73
1070
     1
1070
    44
1040
1.0
1070
    74
1070
     0
1000
MTEXTEND
  0
MTEXT
  5
2DD
330
D4
100
AcDbEntity
  8
VIEW0002
 62
     7
100
AcDbMText
 10
-51.46599924917399
 20
-77.41780070057053
 30
0.0
 40
3.200000047683716
 41
0.0
 46
0.0
 71
     7
 72
     1
  1
{\W0.8333;*寸法、仕様等は製品改良の為、予告無く変更する場合があります。（Ｈ２４．６）}
 73
     1
 44
1.0
1001
ACAD
1000
ACAD_MTEXT_DEFINED_HEIGHT_BEGIN
1070
    46
1040
0.0
1000
ACAD_MTEXT_DEFINED_HEIGHT_END
1000
MTEXTBEGIN
1070
    73
1070
     1
1070
    44
1040
1.0
1070
    74
1070
     0
1000
MTEXTEND
  0
LINE
  5
331
330
D4
100
AcDbEntity
  8
VIEW0002
  6
Continuous
 62
     7
100
AcDbLine
 10
-35.74999999999999
 20
-42.4861238806245
 30
0.0
 11
36.25
 21
-42.48612388062451
 31
0.0
  0
LINE
  5
332
330
D4
100
AcDbEntity
  8
VIEW0002
  6
Continuous
 62
     7
100
AcDbLine
 10
-35.74999999999999
 20
-24.48612388062452
 30
0.0
 11
36.25
 21
-24.48612388062452
 31
0.0
  0
LINE
  5
333
330
D4
100
AcDbEntity
  8
VIEW0002
  6
Continuous
 62
     7
100
AcDbLine
 10
-11.74999999999999
 20
-18.4861238806245
 30
0.0
 11
-11.74999999999999
 21
-54.4861238806245
 31
0.0
  0
LINE
  5
334
330
D4
100
AcDbEntity
  8
VIEW0002
  6
Continuous
 62
     7
100
AcDbLine
 10
-35.74999999999999
 20
-18.4861238806245
 30
0.0
 11
-35.74999999999999
 21
-54.4861238806245
 31
0.0
  0
LINE
  5
335
330
D4
100
AcDbEntity
  8
VIEW0002
  6
Continuous
 62
     7
100
AcDbLine
 10
12.24999999999998
 20
-18.4861238806245
 30
0.0
 11
12.24999999999998
 21
-54.4861238806245
 31
0.0
  0
LINE
  5
336
330
D4
100
AcDbEntity
  8
VIEW0002
  6
Continuous
 62
     7
100
AcDbLine
 10
36.25
 20
-18.4861238806245
 30
0.0
 11
36.25
 21
-54.4861238806245
 31
0.0
  0
LINE
  5
337
330
D4
100
AcDbEntity
  8
VIEW0002
  6
Continuous
 62
     7
100
AcDbLine
 10
-35.74999999999999
 20
-18.4861238806245
 30
0.0
 11
36.25
 21
-18.4861238806245
 31
0.0
  0
LINE
  5
338
330
D4
100
AcDbEntity
  8
VIEW0002
  6
Continuous
 62
     7
100
AcDbLine
 10
-35.74999999999999
 20
-48.48612388062449
 30
0.0
 11
36.25
 21
-48.48612388062449
 31
0.0
  0
LINE
  5
339
330
D4
100
AcDbEntity
  8
VIEW0002
  6
Continuous
 62
     7
100
AcDbLine
 10
-35.74999999999999
 20
-54.4861238806245
 30
0.0
 11
36.25
 21
-54.4861238806245
 31
0.0
  0
LINE
  5
33A
330
D4
100
AcDbEntity
  8
VIEW0002
  6
Continuous
 62
     7
100
AcDbLine
 10
-35.74999999999999
 20
-36.48612388062451
 30
0.0
 11
36.25
 21
-36.48612388062451
 31
0.0
  0
LINE
  5
33B
330
D4
100
AcDbEntity
  8
VIEW0002
  6
Continuous
 62
     7
100
AcDbLine
 10
-35.74999999999999
 20
-30.48612388062452
 30
0.0
 11
36.25
 21
-30.48612388062452
 31
0.0
  0
MTEXT
  5
33C
330
D4
100
AcDbEntity
  8
VIEW0002
 62
     7
100
AcDbMText
 10
-31.88010176030637
 20
-41.08612390446635
 30
0.0
 40
3.200000047683716
 41
0.0
 46
0.0
 71
     7
 72
     1
  1
TDZ100
 73
     1
 44
1.0
1001
ACAD
1000
MTEXTBEGIN
1070
    73
1070
     1
1070
    44
1040
1.0
1070
    74
1070
     0
1000
MTEXTEND
  0
MTEXT
  5
33D
330
D4
100
AcDbEntity
  8
VIEW0002
 62
     7
100
AcDbMText
 10
21.70597375795726
 20
-41.08612439742801
 30
0.0
 40
3.200000047683716
 41
0.0
 46
0.0
 71
     7
 72
     1
  1
84
 73
     1
 44
1.0
1001
ACAD
1000
MTEXTBEGIN
1070
    73
1070
     1
1070
    44
1040
1.0
1070
    74
1070
     0
1000
MTEXTEND
  0
MTEXT
  5
33E
330
D4
100
AcDbEntity
  8
VIEW0002
 62
     7
100
AcDbMText
 10
-3.574489517508108
 20
-41.08612390446635
 30
0.0
 40
3.200000047683716
 41
0.0
 46
0.0
 71
     7
 72
     1
  1
118
 73
     1
 44
1.0
1001
ACAD
1000
MTEXTBEGIN
1070
    73
1070
     1
1070
    44
1040
1.0
1070
    74
1070
     0
1000
MTEXTEND
  0
MTEXT
  5
33F
330
D4
100
AcDbEntity
  8
VIEW0002
 62
     7
100
AcDbMText
 10
-3.574489517508108
 20
-47.08612390446635
 30
0.0
 40
3.200000047683716
 41
0.0
 46
0.0
 71
     7
 72
     1
  1
169
 73
     1
 44
1.0
1001
ACAD
1000
MTEXTBEGIN
1070
    73
1070
     1
1070
    44
1040
1.0
1070
    74
1070
     0
1000
MTEXTEND
  0
MTEXT
  5
340
330
D4
100
AcDbEntity
  8
VIEW0002
 62
     7
100
AcDbMText
 10
21.70597375795726
 20
-47.08612439742799
 30
0.0
 40
3.200000047683716
 41
0.0
 46
0.0
 71
     7
 72
     1
  1
84
 73
     1
 44
1.0
1001
ACAD
1000
MTEXTBEGIN
1070
    73
1070
     1
1070
    44
1040
1.0
1070
    74
1070
     0
1000
MTEXTEND
  0
MTEXT
  5
341
330
D4
100
AcDbEntity
  8
VIEW0002
 62
     7
100
AcDbMText
 10
-31.88010176030637
 20
-47.08612390446635
 30
0.0
 40
3.200000047683716
 41
0.0
 46
0.0
 71
     7
 72
     1
  1
TDZ150
 73
     1
 44
1.0
1001
ACAD
1000
MTEXTBEGIN
1070
    73
1070
     1
1070
    44
1040
1.0
1070
    74
1070
     0
1000
MTEXTEND
  0
MTEXT
  5
342
330
D4
100
AcDbEntity
  8
VIEW0002
 62
     7
100
AcDbMText
 10
23.30971336922571
 20
-23.08612390446636
 30
0.0
 40
3.200000047683716
 41
0.0
 46
0.0
 71
     7
 72
     1
  1
Ｌ
 73
     1
 44
1.0
1001
ACAD
1000
MTEXTBEGIN
1070
    73
1070
     1
1070
    44
1040
1.0
1070
    74
1070
     0
1000
MTEXTEND
  0
MTEXT
  5
343
330
D4
100
AcDbEntity
  8
VIEW0002
 62
     7
100
AcDbMText
 10
-1.07012346198692
 20
-23.08612390446636
 30
0.0
 40
3.200000047683716
 41
0.0
 46
0.0
 71
     7
 72
     1
  1
Ｄ
 73
     1
 44
1.0
1001
ACAD
1000
MTEXTBEGIN
1070
    73
1070
     1
1070
    44
1040
1.0
1070
    74
1070
     0
1000
MTEXTEND
  0
MTEXT
  5
344
330
D4
100
AcDbEntity
  8
VIEW0002
 62
     7
100
AcDbMText
 10
-29.69299998879437
 20
-23.08612390446636
 30
0.0
 40
3.200000047683716
 41
0.0
 46
0.0
 71
     7
 72
     1
  1
{\W0.833333;規　　格}
 73
     1
 44
1.0
1001
ACAD
1000
MTEXTBEGIN
1070
    73
1070
     1
1070
    44
1040
1.0
1070
    74
1070
     0
1000
MTEXTEND
  0
MTEXT
  5
345
330
D4
100
AcDbEntity
  8
VIEW0002
 62
     7
100
AcDbMText
 10
-31.88010176030637
 20
-53.08612390446636
 30
0.0
 40
3.200000047683716
 41
0.0
 46
0.0
 71
     7
 72
     1
  1
TDZ200
 73
     1
 44
1.0
1001
ACAD
1000
MTEXTBEGIN
1070
    73
1070
     1
1070
    44
1040
1.0
1070
    74
1070
     0
1000
MTEXTEND
  0
MTEXT
  5
346
330
D4
100
AcDbEntity
  8
VIEW0002
 62
     7
100
AcDbMText
 10
21.70597375795726
 20
-53.08612439742801
 30
0.0
 40
3.200000047683716
 41
0.0
 46
0.0
 71
     7
 72
     1
  1
95
 73
     1
 44
1.0
1001
ACAD
1000
MTEXTBEGIN
1070
    73
1070
     1
1070
    44
1040
1.0
1070
    74
1070
     0
1000
MTEXTEND
  0
MTEXT
  5
347
330
D4
100
AcDbEntity
  8
VIEW0002
 62
     7
100
AcDbMText
 10
-4.080937821546709
 20
-53.08612390446636
 30
0.0
 40
3.200000047683716
 41
0.0
 46
0.0
 71
     7
 72
     1
  1
226
 73
     1
 44
1.0
1001
ACAD
1000
MTEXTBEGIN
1070
    73
1070
     1
1070
    44
1040
1.0
1070
    74
1070
     0
1000
MTEXTEND
  0
MTEXT
  5
348
330
D4
100
AcDbEntity
  8
VIEW0002
 62
     7
100
AcDbMText
 10
-31.29299998283388
 20
-35.08612390446636
 30
0.0
 40
3.200000047683716
 41
0.0
 46
0.0
 71
     7
 72
     1
  1
TDZ75
 73
     1
 44
1.0
1001
ACAD
1000
MTEXTBEGIN
1070
    73
1070
     1
1070
    44
1040
1.0
1070
    74
1070
     0
1000
MTEXTEND
  0
MTEXT
  5
349
330
D4
100
AcDbEntity
  8
VIEW0002
 62
     7
100
AcDbMText
 10
-31.29299998283388
 20
-29.08612390446636
 30
0.0
 40
3.200000047683716
 41
0.0
 46
0.0
 71
     7
 72
     1
  1
TDZ50
 73
     1
 44
1.0
1001
ACAD
1000
MTEXTBEGIN
1070
    73
1070
     1
1070
    44
1040
1.0
1070
    74
1070
     0
1000
MTEXTEND
  0
MTEXT
  5
34A
330
D4
100
AcDbEntity
  8
VIEW0002
 62
     7
100
AcDbMText
 10
21.66001575856522
 20
-35.08612439742801
 30
0.0
 40
3.200000047683716
 41
0.0
 46
0.0
 71
     7
 72
     1
  1
84
 73
     1
 44
1.0
1001
ACAD
1000
MTEXTBEGIN
1070
    73
1070
     1
1070
    44
1040
1.0
1070
    74
1070
     0
1000
MTEXTEND
  0
MTEXT
  5
34B
330
D4
100
AcDbEntity
  8
VIEW0002
 62
     7
100
AcDbMText
 10
21.66001575856522
 20
-29.08612439742801
 30
0.0
 40
3.200000047683716
 41
0.0
 46
0.0
 71
     7
 72
     1
  1
64
 73
     1
 44
1.0
1001
ACAD
1000
MTEXTBEGIN
1070
    73
1070
     1
1070
    44
1040
1.0
1070
    74
1070
     0
1000
MTEXTEND
  0
MTEXT
  5
34C
330
D4
100
AcDbEntity
  8
VIEW0002
 62
     7
100
AcDbMText
 10
-2.607550908822982
 20
-35.08612390446636
 30
0.0
 40
3.200000047683716
 41
0.0
 46
0.0
 71
     7
 72
     1
  1
93
 73
     1
 44
1.0
1001
ACAD
1000
MTEXTBEGIN
1070
    73
1070
     1
1070
    44
1040
1.0
1070
    74
1070
     0
1000
MTEXTEND
  0
MTEXT
  5
34D
330
D4
100
AcDbEntity
  8
VIEW0002
 62
     7
100
AcDbMText
 10
-2.607550908822982
 20
-29.08612390446636
 30
0.0
 40
3.200000047683716
 41
0.0
 46
0.0
 71
     7
 72
     1
  1
62
 73
     1
 44
1.0
1001
ACAD
1000
MTEXTBEGIN
1070
    73
1070
     1
1070
    44
1040
1.0
1070
    74
1070
     0
1000
MTEXTEND
  0
MTEXT
  5
49B
330
D4
100
AcDbEntity
  8
VIEW0001
 62
     7
100
AcDbMText
 10
59.89285540580749
 20
-93.0
 30
0.0
 40
4.5
 41
0.0
 46
0.0
 71
     7
 72
     1
  1
{\W1.3889;　デンカ株式会社}
 73
     1
 44
1.0
  0
ENDSEC
  0
SECTION
  2
OBJECTS
  0
DICTIONARY
  5
1F8
330
0
100
AcDbDictionary
281
     1
  3
ACAD_CIP_PREVIOUS_PRODUCT_INFO
350
48F
  3
ACAD_COLOR
350
201
  3
ACAD_DETAILVIEWSTYLE
350
489
  3
ACAD_GROUP
350
1F9
  3
ACAD_LAYOUT
350
204
  3
ACAD_MATERIAL
350
200
  3
ACAD_MLEADERSTYLE
350
485
  3
ACAD_MLINESTYLE
350
1FA
  3
ACAD_PLOTSETTINGS
350
205
  3
ACAD_PLOTSTYLENAME
350
1FE
  3
ACAD_SCALELIST
350
473
  3
ACAD_SECTIONVIEWSTYLE
350
487
  3
ACAD_TABLESTYLE
350
202
  3
ACAD_VISUALSTYLE
350
45A
  3
ACDB_RECOMPOSE_DATA
350
4F7
  3
AcDbVariableDictionary
350
20D
  0
DICTIONARY
  5
49C
330
C9
100
AcDbDictionary
280
     1
281
     1
  3
ADSK_XREC_LAYER_RECONCILED
360
49D
  0
DICTIONARY
  5
49E
330
CA
100
AcDbDictionary
280
     1
281
     1
  3
ADSK_XREC_LAYER_RECONCILED
360
49F
  0
DICTIONARY
  5
4A0
330
217
100
AcDbDictionary
280
     1
281
     1
  3
ADSK_XREC_LAYER_RECONCILED
360
4A1
  0
DICTIONARY
  5
4A2
330
218
100
AcDbDictionary
280
     1
281
     1
  3
ADSK_XREC_LAYER_RECONCILED
360
4A3
  0
DICTIONARY
  5
4A4
330
219
100
AcDbDictionary
280
     1
281
     1
  3
ADSK_XREC_LAYER_RECONCILED
360
4A5
  0
DICTIONARY
  5
4A6
330
21A
100
AcDbDictionary
280
     1
281
     1
  3
ADSK_XREC_LAYER_RECONCILED
360
4A7
  0
DICTIONARY
  5
4A8
330
21B
100
AcDbDictionary
280
     1
281
     1
  3
ADSK_XREC_LAYER_RECONCILED
360
4A9
  0
DICTIONARY
  5
4AA
330
21C
100
AcDbDictionary
280
     1
281
     1
  3
ADSK_XREC_LAYER_RECONCILED
360
4AB
  0
DICTIONARY
  5
4AC
330
21D
100
AcDbDictionary
280
     1
281
     1
  3
ADSK_XREC_LAYER_RECONCILED
360
4AD
  0
DICTIONARY
  5
4AE
330
2D1
100
AcDbDictionary
280
     1
281
     1
  3
ADSK_XREC_LAYER_RECONCILED
360
4AF
  0
DICTIONARY
  5
491
330
490
100
AcDbDictionary
280
     1
281
     1
  3
ADSK_XREC_LAYER_RECONCILED
360
4B0
  0
DICTIONARY
  5
2BE
330
D4
100
AcDbDictionary
280
     1
281
     1
  3
ACAD_SORTENTS
360
2BF
  0
XRECORD
  5
48F
102
{ACAD_REACTORS
330
1F8
102
}
330
1F8
100
AcDbXrecord
280
     1
300
ACDLT
300
2015
300
INVLTS_F_S
  0
DICTIONARY
  5
201
102
{ACAD_REACTORS
330
1F8
102
}
330
1F8
100
AcDbDictionary
281
     1
  0
DICTIONARY
  5
489
102
{ACAD_REACTORS
330
1F8
102
}
330
1F8
100
AcDbDictionary
281
     1
  3
Metric50
350
48A
  0
DICTIONARY
  5
1F9
102
{ACAD_REACTORS
330
1F8
102
}
330
1F8
100
AcDbDictionary
281
     1
  0
DICTIONARY
  5
204
102
{ACAD_REACTORS
330
1F8
102
}
330
1F8
100
AcDbDictionary
281
     1
  3
Model
350
206
  3
レイアウト1
350
207
  0
DICTIONARY
  5
200
102
{ACAD_REACTORS
330
1F8
102
}
330
1F8
100
AcDbDictionary
281
     1
  3
ByBlock
350
44A
  3
ByLayer
350
442
  3
Global
350
452
  0
DICTIONARY
  5
485
102
{ACAD_REACTORS
330
1F8
102
}
330
1F8
100
AcDbDictionary
281
     1
  3
Standard
350
486
  0
DICTIONARY
  5
1FA
102
{ACAD_REACTORS
330
1F8
102
}
330
1F8
100
AcDbDictionary
281
     1
  3
STANDARD
350
1FB
  0
DICTIONARY
  5
205
102
{ACAD_REACTORS
330
1F8
102
}
330
1F8
100
AcDbDictionary
281
     1
  3
111
350
3F1
  0
ACDBDICTIONARYWDFLT
  5
1FE
102
{ACAD_REACTORS
330
1F8
102
}
330
1F8
100
AcDbDictionary
281
     1
  3
Normal
350
1FF
100
AcDbDictionaryWithDefault
340
1FF
  0
DICTIONARY
  5
473
102
{ACAD_REACTORS
330
1F8
102
}
330
1F8
100
AcDbDictionary
281
     1
  3
A0
350
474
  3
A1
350
475
  3
A2
350
476
  3
A3
350
477
  3
A4
350
478
  3
A5
350
479
  3
A6
350
47A
  3
A7
350
47B
  3
A8
350
47C
  3
A9
350
47D
  3
B0
350
47E
  3
B1
350
47F
  3
B2
350
480
  3
B3
350
481
  3
B4
350
482
  3
B5
350
483
  3
B6
350
484
  0
DICTIONARY
  5
487
102
{ACAD_REACTORS
330
1F8
102
}
330
1F8
100
AcDbDictionary
281
     1
  3
Metric50
350
488
  0
DICTIONARY
  5
202
102
{ACAD_REACTORS
330
1F8
102
}
330
1F8
100
AcDbDictionary
281
     1
  3
Standard
350
203
  0
DICTIONARY
  5
45A
102
{ACAD_REACTORS
330
1F8
102
}
330
1F8
100
AcDbDictionary
281
     1
  3
2dWireframe
350
460
  3
Basic
350
45F
  3
Brighten
350
466
  3
ColorChange
350
46A
  3
Conceptual
350
463
  3
Dim
350
465
  3
EdgeColorOff
350
472
  3
Facepattern
350
469
  3
Flat
350
45B
  3
FlatWithEdges
350
45C
  3
Gouraud
350
45D
  3
GouraudWithEdges
350
45E
  3
Hidden
350
462
  3
JitterOff
350
470
  3
Linepattern
350
468
  3
OverhangOff
350
471
  3
Realistic
350
464
  3
Shaded
350
46F
  3
Shaded with edges
350
46E
  3
Shades of Gray
350
46B
  3
Sketchy
350
46C
  3
Thicken
350
467
  3
Wireframe
350
461
  3
X-Ray
350
46D
  0
XRECORD
  5
4F7
102
{ACAD_REACTORS
330
1F8
102
}
330
1F8
100
AcDbXrecord
280
     1
 90
        1
330
203
  0
DICTIONARY
  5
20D
102
{ACAD_REACTORS
330
1F8
102
}
330
1F8
100
AcDbDictionary
281
     1
  3
CANNOSCALE
350
4F1
  3
CMLEADERSTYLE
350
4ED
  3
CTABLESTYLE
350
20E
  3
CVIEWDETAILSTYLE
350
4EE
  3
CVIEWSECTIONSTYLE
350
4EF
  3
DIMASSOC
350
20F
  3
LAYEREVAL
350
4F3
  3
LAYERNOTIFY
350
4F4
  3
LIGHTINGUNITS
350
4F2
  3
MSLTSCALE
350
4F0
  3
PROJECTNAME
350
210
  0
XRECORD
  5
49D
102
{ACAD_REACTORS
330
49C
102
}
330
49C
100
AcDbXrecord
280
     1
290
     1
  0
XRECORD
  5
49F
102
{ACAD_REACTORS
330
49E
102
}
330
49E
100
AcDbXrecord
280
     1
290
     1
  0
XRECORD
  5
4A1
102
{ACAD_REACTORS
330
4A0
102
}
330
4A0
100
AcDbXrecord
280
     1
290
     1
  0
XRECORD
  5
4A3
102
{ACAD_REACTORS
330
4A2
102
}
330
4A2
100
AcDbXrecord
280
     1
290
     1
  0
XRECORD
  5
4A5
102
{ACAD_REACTORS
330
4A4
102
}
330
4A4
100
AcDbXrecord
280
     1
290
     1
  0
XRECORD
  5
4A7
102
{ACAD_REACTORS
330
4A6
102
}
330
4A6
100
AcDbXrecord
280
     1
290
     1
  0
XRECORD
  5
4A9
102
{ACAD_REACTORS
330
4A8
102
}
330
4A8
100
AcDbXrecord
280
     1
290
     1
  0
XRECORD
  5
4AB
102
{ACAD_REACTORS
330
4AA
102
}
330
4AA
100
AcDbXrecord
280
     1
290
     1
  0
XRECORD
  5
4AD
102
{ACAD_REACTORS
330
4AC
102
}
330
4AC
100
AcDbXrecord
280
     1
290
     1
  0
XRECORD
  5
4AF
102
{ACAD_REACTORS
330
4AE
102
}
330
4AE
100
AcDbXrecord
280
     1
290
     1
  0
XRECORD
  5
4B0
102
{ACAD_REACTORS
330
491
102
}
330
491
100
AcDbXrecord
280
     1
290
     1
  0
SORTENTSTABLE
  5
2BF
102
{ACAD_REACTORS
330
2BE
102
}
330
2BE
100
AcDbSortentsTable
330
D4
331
182
  5
182
331
133
  5
133
331
13B
  5
13B
331
143
  5
143
331
14B
  5
14B
331
18A
  5
18A
331
1C1
  5
1C1
331
153
  5
153
331
192
  5
192
331
1C9
  5
1C9
331
1D1
  5
1D1
331
15B
  5
15B
331
19A
  5
19A
331
1A2
  5
1A2
331
1D9
  5
1D9
331
163
  5
163
331
11D
  5
11D
331
124
  5
124
331
12C
  5
12C
331
1AA
  5
1AA
331
1E1
  5
1E1
331
16B
  5
16B
331
173
  5
173
331
1B2
  5
1B2
331
1F1
  5
1F2
331
17B
  5
17B
331
1BA
  5
1BA
331
183
  5
183
331
134
  5
134
331
13C
  5
13C
331
144
  5
144
331
1C2
  5
1C2
331
14C
  5
14C
331
18B
  5
18B
331
193
  5
193
331
1CA
  5
1CA
331
154
  5
154
331
15C
  5
15C
331
19B
  5
19B
331
1D2
  5
1D2
331
164
  5
164
331
1A3
  5
1A3
331
1DA
  5
1DA
331
125
  5
125
331
11E
  5
11E
331
12D
  5
12D
331
1E2
  5
1E2
331
16C
  5
16C
331
1AB
  5
1AB
331
1B3
  5
1B3
331
174
  5
174
331
1BB
  5
1BB
331
2C2
  5
2C0
331
17C
  5
17C
331
184
  5
184
331
135
  5
135
331
13D
  5
13D
331
145
  5
145
331
14D
  5
14D
331
18C
  5
18C
331
1C3
  5
1C3
331
1CB
  5
1CB
331
155
  5
155
331
194
  5
194
331
1D3
  5
1D3
331
15D
  5
15D
331
19C
  5
19C
331
1A4
  5
1A4
331
1DB
  5
1DB
331
165
  5
165
331
11F
  5
11F
331
126
  5
126
331
12E
  5
12E
331
16D
  5
16D
331
1AC
  5
1AC
331
1E3
  5
1E3
331
175
  5
175
331
1B4
  5
1B4
331
2C3
  5
1F5
331
17D
  5
17D
331
1BC
  5
1BC
331
185
  5
185
331
136
  5
136
331
13E
  5
13E
331
146
  5
146
331
1C4
  5
1C4
331
14E
  5
14E
331
18D
  5
18D
331
195
  5
195
331
1CC
  5
1CC
331
156
  5
156
331
15E
  5
15E
331
19D
  5
19D
331
1D4
  5
1D4
331
1DC
  5
1DC
331
166
  5
166
331
1A5
  5
1A5
331
127
  5
127
331
12F
  5
12F
331
1E4
  5
1E4
331
16E
  5
16E
331
1AD
  5
1AD
331
1B5
  5
1B5
331
176
  5
176
331
17E
  5
17E
331
1BD
  5
1BD
331
186
  5
186
331
1EB
  5
1EB
331
137
  5
137
331
13F
  5
13F
331
147
  5
147
331
14F
  5
14F
331
18E
  5
18E
331
1C5
  5
1C5
331
1CD
  5
1CD
331
157
  5
157
331
196
  5
196
331
1D5
  5
1D5
331
15F
  5
15F
331
19E
  5
19E
331
1A6
  5
1A6
331
1DD
  5
1DD
331
167
  5
167
331
120
  5
120
331
128
  5
128
331
16F
  5
16F
331
1AE
  5
1AE
331
1E5
  5
1E5
331
177
  5
177
331
1B6
  5
1B6
331
17F
  5
17F
331
1BE
  5
1BE
331
187
  5
187
331
130
  5
130
331
138
  5
138
331
140
  5
140
331
148
  5
148
331
18F
  5
18F
331
1C6
  5
1C6
331
150
  5
150
331
197
  5
197
331
1CE
  5
1CE
331
158
  5
158
331
160
  5
160
331
19F
  5
19F
331
1D6
  5
1D6
331
1DE
  5
1DE
331
1A7
  5
1A7
331
121
  5
121
331
129
  5
129
331
168
  5
168
331
1E6
  5
1E6
331
170
  5
170
331
1AF
  5
1AF
331
1B7
  5
1B7
331
1F6
  5
2C2
331
178
  5
178
331
180
  5
180
331
1BF
  5
1BF
331
131
  5
131
331
1ED
  5
1ED
331
139
  5
139
331
141
  5
141
331
188
  5
188
331
149
  5
149
331
151
  5
151
331
190
  5
190
331
1C7
  5
1C7
331
1CF
  5
1CF
331
159
  5
159
331
198
  5
198
331
1A0
  5
1A0
331
1D7
  5
1D7
331
161
  5
161
331
1DF
  5
1DF
331
122
  5
122
331
12A
  5
12A
331
1A8
  5
1A8
331
169
  5
169
331
171
  5
171
331
1B0
  5
1B0
331
1E7
  5
1E7
331
179
  5
179
331
1B8
  5
1B8
331
181
  5
181
331
132
  5
132
331
13A
  5
13A
331
142
  5
142
331
1C0
  5
1C0
331
14A
  5
14A
331
189
  5
189
331
191
  5
191
331
1C8
  5
1C8
331
152
  5
152
331
199
  5
199
331
1D0
  5
1D0
331
15A
  5
15A
331
162
  5
162
331
1A1
  5
1A1
331
1D8
  5
1D8
331
11C
  5
11C
331
123
  5
123
331
12B
  5
12B
331
1E0
  5
1E0
331
16A
  5
16A
331
1A9
  5
1A9
331
1B1
  5
1B1
331
172
  5
172
331
1B9
  5
1B9
331
2C0
  5
1F1
331
17A
  5
17A
  0
ACDBDETAILVIEWSTYLE
  5
48A
102
{ACAD_XDICTIONARY
360
52A
102
}
102
{ACAD_REACTORS
330
489
102
}
330
489
100
AcDbModelDocViewStyle
 70
     0
  3
Metric50
290
     0
100
AcDbDetailViewStyle
 70
     0
 71
     0
 90
        3
 71
     1
340
23
 62
   256
 40
5.0
340
0
 62
   256
 40
5.0
300

 40
0.0
280
     1
 71
     2
340
28
 90
       25
 62
   256
 71
     3
340
23
 62
   256
 40
5.0
 90
        0
 40
15.0
 90
        1
300
%<\AcVar ViewDetailId>% (%<\AcVar ViewScale \f "%sn">%)
 71
     4
340
28
 90
       25
 62
   256
340
28
 90
       25
 62
   256
280
     0
  0
LAYOUT
  5
206
102
{ACAD_REACTORS
330
204
102
}
330
204
100
AcDbPlotSettings
  1

  2
Adobe PDF
  4
A4
  6

 40
3.174999952316282
 41
3.174999952316282
 42
3.175003051757812
 43
3.17498779296875
 44
209.9733276367186
 45
297.0318298339844
 46
7.052324214897593
 47
7.005883824737908
 48
0.0
 49
0.0
140
0.0
141
0.0
142
1.0
143
1.0
 70
 11956
 72
     1
 73
     1
 74
     1
  7
monochrome.ctb
 75
    16
147
1.0
 76
     0
 77
     2
 78
   300
148
138.0163109423782
149
94.50938822534334
100
AcDbLayout
  1
Model
 70
     1
 71
     0
 10
0.0
 20
0.0
 11
12.0
 21
9.0
 12
0.0
 22
0.0
 32
0.0
 14
0.0
 24
0.0
 34
0.0
 15
0.0
 25
0.0
 35
0.0
146
0.0
 13
0.0
 23
0.0
 33
0.0
 16
1.0
 26
0.0
 36
0.0
 17
0.0
 27
1.0
 37
0.0
 76
     0
330
D4
331
438
1001
ACAD_PSEXT
1000
Adobe PDF
1000
Adobe PDF Converter
1000
My Documents
1000

1070
     0
  0
LAYOUT
  5
207
102
{ACAD_REACTORS
330
204
102
}
330
204
100
AcDbPlotSettings
  1

  2
Canon LASER SHOT LBP-2510
  4

  6

 40
0.0
 41
0.0
 42
0.0
 43
0.0
 44
0.0
 45
0.0
 46
0.0
 47
0.0
 48
0.0
 49
0.0
140
0.0
141
0.0
142
1.0
143
1.0
 70
   688
 72
     0
 73
     0
 74
     5
  7
Canon LASER SHOT LBP-2510
 75
    16
147
1.0
 76
     0
 77
     2
 78
   300
148
0.0
149
0.0
100
AcDbLayout
  1
レイアウト1
 70
     1
 71
     1
 10
-148.0
 20
-104.5
 11
149.0
 21
105.5
 12
0.0
 22
0.0
 32
0.0
 14
-148.0
 24
-104.5
 34
0.0
 15
149.0
 25
105.5
 35
0.0
146
0.0
 13
0.0
 23
0.0
 33
0.0
 16
1.0
 26
0.0
 36
0.0
 17
0.0
 27
1.0
 37
0.0
 76
     0
330
D5
  0
MATERIAL
  5
44A
102
{ACAD_XDICTIONARY
360
44B
102
}
102
{ACAD_REACTORS
330
200
102
}
330
200
100
AcDbMaterial
  1
ByBlock
 72
     0
 43
0.0208333333333333
 43
0.0
 43
0.0
 43
0.0
 43
0.0
 43
0.0208333333333333
 43
0.0
 43
0.0
 43
0.0
 43
0.0
 43
1.0
 43
0.0
 43
0.0
 43
0.0
 43
0.0
 43
1.0
 77
     0
 47
0.0208333333333333
 47
0.0
 47
0.0
 47
0.0
 47
0.0
 47
0.0208333333333333
 47
0.0
 47
0.0
 47
0.0
 47
0.0
 47
1.0
 47
0.0
 47
0.0
 47
0.0
 47
0.0
 47
1.0
171
     0
 49
0.0208333333333333
 49
0.0
 49
0.0
 49
0.0
 49
0.0
 49
0.0208333333333333
 49
0.0
 49
0.0
 49
0.0
 49
0.0
 49
1.0
 49
0.0
 49
0.0
 49
0.0
 49
0.0
 49
1.0
175
     0
142
0.0208333333333333
142
0.0
142
0.0
142
0.0
142
0.0
142
0.0208333333333333
142
0.0
142
0.0
142
0.0
142
0.0
142
1.0
142
0.0
142
0.0
142
0.0
142
0.0
142
1.0
179
     0
144
0.0208333333333333
144
0.0
144
0.0
144
0.0
144
0.0
144
0.0208333333333333
144
0.0
144
0.0
144
0.0
144
0.0
144
1.0
144
0.0
144
0.0
144
0.0
144
0.0
144
1.0
147
0.0208333333333333
147
0.0
147
0.0
147
0.0
147
0.0
147
0.0208333333333333
147
0.0
147
0.0
147
0.0
147
0.0
147
1.0
147
0.0
147
0.0
147
0.0
147
0.0
147
1.0
  0
MATERIAL
  5
442
102
{ACAD_XDICTIONARY
360
443
102
}
102
{ACAD_REACTORS
330
200
102
}
330
200
100
AcDbMaterial
  1
ByLayer
 72
     0
 43
0.0208333333333333
 43
0.0
 43
0.0
 43
0.0
 43
0.0
 43
0.0208333333333333
 43
0.0
 43
0.0
 43
0.0
 43
0.0
 43
1.0
 43
0.0
 43
0.0
 43
0.0
 43
0.0
 43
1.0
 77
     0
 47
0.0208333333333333
 47
0.0
 47
0.0
 47
0.0
 47
0.0
 47
0.0208333333333333
 47
0.0
 47
0.0
 47
0.0
 47
0.0
 47
1.0
 47
0.0
 47
0.0
 47
0.0
 47
0.0
 47
1.0
171
     0
 49
0.0208333333333333
 49
0.0
 49
0.0
 49
0.0
 49
0.0
 49
0.0208333333333333
 49
0.0
 49
0.0
 49
0.0
 49
0.0
 49
1.0
 49
0.0
 49
0.0
 49
0.0
 49
0.0
 49
1.0
175
     0
142
0.0208333333333333
142
0.0
142
0.0
142
0.0
142
0.0
142
0.0208333333333333
142
0.0
142
0.0
142
0.0
142
0.0
142
1.0
142
0.0
142
0.0
142
0.0
142
0.0
142
1.0
179
     0
144
0.0208333333333333
144
0.0
144
0.0
144
0.0
144
0.0
144
0.0208333333333333
144
0.0
144
0.0
144
0.0
144
0.0
144
1.0
144
0.0
144
0.0
144
0.0
144
0.0
144
1.0
147
0.0208333333333333
147
0.0
147
0.0
147
0.0
147
0.0
147
0.0208333333333333
147
0.0
147
0.0
147
0.0
147
0.0
147
1.0
147
0.0
147
0.0
147
0.0
147
0.0
147
1.0
  0
MATERIAL
  5
452
102
{ACAD_XDICTIONARY
360
453
102
}
102
{ACAD_REACTORS
330
200
102
}
330
200
100
AcDbMaterial
  1
Global
 72
     0
 43
0.0208333333333333
 43
0.0
 43
0.0
 43
0.0
 43
0.0
 43
0.0208333333333333
 43
0.0
 43
0.0
 43
0.0
 43
0.0
 43
1.0
 43
0.0
 43
0.0
 43
0.0
 43
0.0
 43
1.0
 77
     0
 47
0.0208333333333333
 47
0.0
 47
0.0
 47
0.0
 47
0.0
 47
0.0208333333333333
 47
0.0
 47
0.0
 47
0.0
 47
0.0
 47
1.0
 47
0.0
 47
0.0
 47
0.0
 47
0.0
 47
1.0
171
     0
 49
0.0208333333333333
 49
0.0
 49
0.0
 49
0.0
 49
0.0
 49
0.0208333333333333
 49
0.0
 49
0.0
 49
0.0
 49
0.0
 49
1.0
 49
0.0
 49
0.0
 49
0.0
 49
0.0
 49
1.0
175
     0
142
0.0208333333333333
142
0.0
142
0.0
142
0.0
142
0.0
142
0.0208333333333333
142
0.0
142
0.0
142
0.0
142
0.0
142
1.0
142
0.0
142
0.0
142
0.0
142
0.0
142
1.0
179
     0
144
0.0208333333333333
144
0.0
144
0.0
144
0.0
144
0.0
144
0.0208333333333333
144
0.0
144
0.0
144
0.0
144
0.0
144
1.0
144
0.0
144
0.0
144
0.0
144
0.0
144
1.0
147
0.0208333333333333
147
0.0
147
0.0
147
0.0
147
0.0
147
0.0208333333333333
147
0.0
147
0.0
147
0.0
147
0.0
147
1.0
147
0.0
147
0.0
147
0.0
147
0.0
147
1.0
  0
MLEADERSTYLE
  5
486
102
{ACAD_REACTORS
330
485
102
}
330
485
100
AcDbMLeaderStyle
179
     2
170
     2
171
     1
172
     0
 90
        2
 40
0.0
 41
0.0
173
     1
 91
-1056964608
340
26
 92
       -2
290
     1
 42
2.0
291
     1
 43
0.36
  3
Standard
 44
4.0
300

342
23
174
     1
178
     6
175
     1
176
     0
 93
-1056964608
 45
4.0
292
     0
297
     0
 46
4.0
 94
-1056964608
 47
1.0
 49
1.0
140
1.0
293
     1
141
0.0
294
     1
177
     0
142
1.0
295
     0
296
     0
143
0.125
271
     0
272
     9
273
     9
  0
MLINESTYLE
  5
1FB
102
{ACAD_REACTORS
330
1FA
102
}
330
1FA
100
AcDbMlineStyle
  2
STANDARD
 70
     0
  3

 62
     0
 51
90.0
 52
90.0
 71
     2
 49
0.5
 62
   256
  6
BYLAYER
 49
-0.5
 62
   256
  6
BYLAYER
  0
PLOTSETTINGS
  5
3F1
102
{ACAD_REACTORS
330
205
102
}
330
205
100
AcDbPlotSettings
  1
111
  2
RICOH IPSiO NX860e RPCS
  4
A4
  6

 40
5.873749732971191
 41
5.873747825622557
 42
5.873748779296875
 43
5.873748779296875
 44
209.9733276367186
 45
296.9259948730469
 46
1.382206344234629
 47
0.0
 48
0.0
 49
0.0
140
0.0
141
0.0
142
1.0
143
0.9696379639765943
 70
 11956
 72
     1
 73
     1
 74
     1
  7
monochrome.ctb
 75
     0
147
1.031312755019289
 76
     0
 77
     2
 78
   300
148
138.016006241122
149
94.51495291709916
1001
ACAD_PSEXT
1000
RICOH IPSiO NX860e RPCS
1000
RICOH IPSiO NX860e RPCS
1000
IP_192.168.110.192
1000
RPCS Driver (Windows 2000/XP/Server 2003/Vista)
1070
     0
  0
ACDBPLACEHOLDER
  5
1FF
102
{ACAD_REACTORS
330
1FE
102
}
330
1FE
  0
SCALE
  5
474
102
{ACAD_REACTORS
330
473
102
}
330
473
100
AcDbScale
 70
     0
300
1:1
140
1.0
141
1.0
290
     1
  0
SCALE
  5
475
102
{ACAD_REACTORS
330
473
102
}
330
473
100
AcDbScale
 70
     0
300
1:2
140
1.0
141
2.0
290
     0
  0
SCALE
  5
476
102
{ACAD_REACTORS
330
473
102
}
330
473
100
AcDbScale
 70
     0
300
1:4
140
1.0
141
4.0
290
     0
  0
SCALE
  5
477
102
{ACAD_REACTORS
330
473
102
}
330
473
100
AcDbScale
 70
     0
300
1:5
140
1.0
141
5.0
290
     0
  0
SCALE
  5
478
102
{ACAD_REACTORS
330
473
102
}
330
473
100
AcDbScale
 70
     0
300
1:8
140
1.0
141
8.0
290
     0
  0
SCALE
  5
479
102
{ACAD_REACTORS
330
473
102
}
330
473
100
AcDbScale
 70
     0
300
1:10
140
1.0
141
10.0
290
     0
  0
SCALE
  5
47A
102
{ACAD_REACTORS
330
473
102
}
330
473
100
AcDbScale
 70
     0
300
1:16
140
1.0
141
16.0
290
     0
  0
SCALE
  5
47B
102
{ACAD_REACTORS
330
473
102
}
330
473
100
AcDbScale
 70
     0
300
1:20
140
1.0
141
20.0
290
     0
  0
SCALE
  5
47C
102
{ACAD_REACTORS
330
473
102
}
330
473
100
AcDbScale
 70
     0
300
1:30
140
1.0
141
30.0
290
     0
  0
SCALE
  5
47D
102
{ACAD_REACTORS
330
473
102
}
330
473
100
AcDbScale
 70
     0
300
1:40
140
1.0
141
40.0
290
     0
  0
SCALE
  5
47E
102
{ACAD_REACTORS
330
473
102
}
330
473
100
AcDbScale
 70
     0
300
1:50
140
1.0
141
50.0
290
     0
  0
SCALE
  5
47F
102
{ACAD_REACTORS
330
473
102
}
330
473
100
AcDbScale
 70
     0
300
1:100
140
1.0
141
100.0
290
     0
  0
SCALE
  5
480
102
{ACAD_REACTORS
330
473
102
}
330
473
100
AcDbScale
 70
     0
300
2:1
140
2.0
141
1.0
290
     0
  0
SCALE
  5
481
102
{ACAD_REACTORS
330
473
102
}
330
473
100
AcDbScale
 70
     0
300
4:1
140
4.0
141
1.0
290
     0
  0
SCALE
  5
482
102
{ACAD_REACTORS
330
473
102
}
330
473
100
AcDbScale
 70
     0
300
8:1
140
8.0
141
1.0
290
     0
  0
SCALE
  5
483
102
{ACAD_REACTORS
330
473
102
}
330
473
100
AcDbScale
 70
     0
300
10:1
140
10.0
141
1.0
290
     0
  0
SCALE
  5
484
102
{ACAD_REACTORS
330
473
102
}
330
473
100
AcDbScale
 70
     0
300
100:1
140
100.0
141
1.0
290
     0
  0
ACDBSECTIONVIEWSTYLE
  5
488
102
{ACAD_XDICTIONARY
360
528
102
}
102
{ACAD_REACTORS
330
487
102
}
330
487
100
AcDbModelDocViewStyle
 70
     0
  3
Metric50
290
     0
100
AcDbSectionViewStyle
 70
     0
 71
     0
 90
      102
 71
     1
340
23
 62
   256
 40
5.0
340
0
340
0
 62
   256
 40
5.0
300
I, O, Q, S, X, Z
 40
10.0
 90
        0
 40
2.5
 90
        0
 71
     2
340
28
 90
       25
 62
   256
340
28
 90
       50
 62
   256
 40
5.0
 40
2.5
 40
5.0
 71
     3
340
23
 62
   256
 40
5.0
 90
        0
 40
15.0
 90
        1
300
%<\AcVar ViewSectionStartId>%-%<\AcVar ViewSectionEndId>% (%<\AcVar ViewScale \f "%sn">%)
 71
     4
 62
   256
 62
   257
300
ANSI31
 40
1.0
 90
        0
290
     0
290
     0
 90
        6
 40
0.0
 40
1.570796326794896
 40
0.2617993877991494
 40
1.308996938995747
 40
-0.2617993877991494
 40
1.832595714594046
  0
TABLESTYLE
  5
203
102
{ACAD_XDICTIONARY
360
4F5
102
}
102
{ACAD_REACTORS
330
202
102
}
330
202
100
AcDbTableStyle
280
     0
  3
Standard
 70
     0
 71
     0
 40
1.5
 41
1.5
280
     0
281
     0
  7
STANDARD
140
4.5
170
     2
 62
     0
 63
     7
283
     0
 90
        4
 91
        0
  1

274
    -2
284
     1
 64
     0
275
    -2
285
     1
 65
     0
276
    -2
286
     1
 66
     0
277
    -2
287
     1
 67
     0
278
    -2
288
     1
 68
     0
279
    -2
289
     1
 69
     0
  7
STANDARD
140
6.0
170
     5
 62
     0
 63
     7
283
     0
 90
        4
 91
        0
  1

274
    -2
284
     1
 64
     0
275
    -2
285
     1
 65
     0
276
    -2
286
     1
 66
     0
277
    -2
287
     1
 67
     0
278
    -2
288
     1
 68
     0
279
    -2
289
     1
 69
     0
  7
STANDARD
140
4.5
170
     5
 62
     0
 63
     7
283
     0
 90
        4
 91
        0
  1

274
    -2
284
     1
 64
     0
275
    -2
285
     1
 65
     0
276
    -2
286
     1
 66
     0
277
    -2
287
     1
 67
     0
278
    -2
288
     1
 68
     0
279
    -2
289
     1
 69
     0
  0
VISUALSTYLE
  5
460
102
{ACAD_XDICTIONARY
360
502
102
}
102
{ACAD_REACTORS
330
45A
102
}
330
45A
100
AcDbVisualStyle
  2
2dWireframe
 70
     4
177
     2
291
     0
 71
     0
176
     1
 72
     2
176
     1
 73
     0
176
     1
 90
        0
176
     1
 40
0.6
176
     1
 41
30.0
176
     1
 63
     7
421
 16777215
176
     1
 74
     1
176
     1
 91
        4
176
     1
 64
     7
176
     1
 65
   257
176
     1
 75
     1
176
     1
175
     1
176
     1
 42
1.0
176
     1
 92
        0
176
     1
 66
   257
176
     1
 43
1.0
176
     1
 76
     1
176
     1
 77
     6
176
     1
 78
     2
176
     1
 67
     7
176
     1
 79
     5
176
     1
170
     0
176
     1
171
     0
176
     1
290
     0
176
     1
 93
        1
176
     1
 44
0.0
176
     1
173
     0
176
     1
1001
ACAD
1000
AcDbSavedByObjectVersion
1070
     0
  0
VISUALSTYLE
  5
45F
102
{ACAD_XDICTIONARY
360
500
102
}
102
{ACAD_REACTORS
330
45A
102
}
330
45A
100
AcDbVisualStyle
  2
Basic
 70
     7
177
     2
291
     1
 71
     1
176
     1
 72
     0
176
     1
 73
     1
176
     1
 90
        0
176
     1
 40
0.6
176
     1
 41
30.0
176
     1
 63
     7
421
 16777215
176
     1
 74
     0
176
     1
 91
        4
176
     1
 64
     7
176
     1
 65
   257
176
     1
 75
     1
176
     1
175
     1
176
     1
 42
1.0
176
     1
 92
        8
176
     1
 66
     7
176
     1
 43
1.0
176
     1
 76
     1
176
     1
 77
     6
176
     1
 78
     2
176
     1
 67
     7
176
     1
 79
     5
176
     1
170
     0
176
     1
171
     0
176
     1
290
     0
176
     1
 93
        1
176
     1
 44
0.0
176
     1
173
     0
176
     1
1001
ACAD
1000
AcDbSavedByObjectVersion
1070
     0
  0
VISUALSTYLE
  5
466
102
{ACAD_XDICTIONARY
360
50E
102
}
102
{ACAD_REACTORS
330
45A
102
}
330
45A
100
AcDbVisualStyle
  2
Brighten
 70
    12
177
     2
291
     1
 71
     2
176
     1
 72
     2
176
     1
 73
     0
176
     1
 90
        0
176
     1
 40
0.6
176
     1
 41
30.0
176
     1
 63
     7
421
 16777215
176
     1
 74
     1
176
     1
 91
        4
176
     1
 64
     7
176
     1
 65
   257
176
     1
 75
     1
176
     1
175
     1
176
     1
 42
1.0
176
     1
 92
        8
176
     1
 66
     7
176
     1
 43
1.0
176
     1
 76
     1
176
     1
 77
     6
176
     1
 78
     2
176
     1
 67
     7
176
     1
 79
     5
176
     1
170
     0
176
     1
171
     0
176
     1
290
     0
176
     1
 93
        1
176
     1
 44
50.0
176
     1
173
     0
176
     1
1001
ACAD
1000
AcDbSavedByObjectVersion
1070
     0
  0
VISUALSTYLE
  5
46A
102
{ACAD_XDICTIONARY
360
516
102
}
102
{ACAD_REACTORS
330
45A
102
}
330
45A
100
AcDbVisualStyle
  2
ColorChange
 70
    16
177
     2
291
     1
 71
     2
176
     1
 72
     2
176
     1
 73
     3
176
     1
 90
        0
176
     1
 40
0.6
176
     1
 41
30.0
176
     1
 63
     8
421
  8421504
176
     1
 74
     1
176
     1
 91
        4
176
     1
 64
     7
176
     1
 65
   257
176
     1
 75
     1
176
     1
175
     1
176
     1
 42
1.0
176
     1
 92
        8
176
     1
 66
     8
424
  8421504
176
     1
 43
1.0
176
     1
 76
     1
176
     1
 77
     6
176
     1
 78
     2
176
     1
 67
     7
176
     1
 79
     5
176
     1
170
     0
176
     1
171
     0
176
     1
290
     0
176
     1
 93
        1
176
     1
 44
0.0
176
     1
173
     0
176
     1
1001
ACAD
1000
AcDbSavedByObjectVersion
1070
     0
  0
VISUALSTYLE
  5
463
102
{ACAD_XDICTIONARY
360
508
102
}
102
{ACAD_REACTORS
330
45A
102
}
330
45A
100
AcDbVisualStyle
  2
Conceptual
 70
     9
177
     2
291
     0
 71
     3
176
     1
 72
     2
176
     1
 73
     0
176
     1
 90
        0
176
     1
 40
0.6
176
     1
 41
30.0
176
     1
 63
     7
421
 16777215
176
     1
 74
     2
176
     1
 91
        2
176
     1
 64
     7
176
     1
 65
   257
176
     1
 75
     1
176
     1
175
     1
176
     1
 42
179.0
176
     1
 92
        8
176
     1
 66
     7
176
     1
 43
1.0
176
     1
 76
     1
176
     1
 77
     6
176
     1
 78
     2
176
     1
 67
     7
176
     1
 79
     3
176
     1
170
     0
176
     1
171
     0
176
     1
290
     0
176
     1
 93
        1
176
     1
 44
0.0
176
     1
173
     0
176
     1
1001
ACAD
1000
AcDbSavedByObjectVersion
1070
     0
  0
VISUALSTYLE
  5
465
102
{ACAD_XDICTIONARY
360
50C
102
}
102
{ACAD_REACTORS
330
45A
102
}
330
45A
100
AcDbVisualStyle
  2
Dim
 70
    11
177
     2
291
     1
 71
     2
176
     1
 72
     2
176
     1
 73
     0
176
     1
 90
        0
176
     1
 40
0.6
176
     1
 41
30.0
176
     1
 63
     7
421
 16777215
176
     1
 74
     1
176
     1
 91
        4
176
     1
 64
     7
176
     1
 65
   257
176
     1
 75
     1
176
     1
175
     1
176
     1
 42
1.0
176
     1
 92
        8
176
     1
 66
     7
176
     1
 43
1.0
176
     1
 76
     1
176
     1
 77
     6
176
     1
 78
     2
176
     1
 67
     7
176
     1
 79
     5
176
     1
170
     0
176
     1
171
     0
176
     1
290
     0
176
     1
 93
        1
176
     1
 44
-50.0
176
     1
173
     0
176
     1
1001
ACAD
1000
AcDbSavedByObjectVersion
1070
     0
  0
VISUALSTYLE
  5
472
102
{ACAD_XDICTIONARY
360
526
102
}
102
{ACAD_REACTORS
330
45A
102
}
330
45A
100
AcDbVisualStyle
  2
EdgeColorOff
 70
    22
177
     2
291
     1
 71
     2
176
     0
 72
     2
176
     0
 73
     0
176
     0
 90
        0
176
     0
 40
0.6
176
     0
 41
30.0
176
     0
 63
     7
421
 16777215
176
     0
 74
     1
176
     0
 91
        4
176
     0
 64
     7
176
     0
 65
   257
176
     0
 75
     1
176
     0
175
     1
176
     0
 42
1.0
176
     0
 92
        8
176
     2
 66
     7
176
     0
 43
1.0
176
     0
 76
     1
176
     0
 77
     6
176
     0
 78
     2
176
     0
 67
     7
176
     0
 79
     5
176
     0
170
     0
176
     0
171
     0
176
     0
290
     0
176
     0
 93
        1
176
     0
 44
0.0
176
     0
173
     0
176
     0
1001
ACAD
1000
AcDbSavedByObjectVersion
1070
     0
  0
VISUALSTYLE
  5
469
102
{ACAD_XDICTIONARY
360
514
102
}
102
{ACAD_REACTORS
330
45A
102
}
330
45A
100
AcDbVisualStyle
  2
Facepattern
 70
    15
177
     2
291
     1
 71
     2
176
     1
 72
     2
176
     1
 73
     0
176
     1
 90
        0
176
     1
 40
0.6
176
     1
 41
30.0
176
     1
 63
     7
421
 16777215
176
     1
 74
     1
176
     1
 91
        4
176
     1
 64
     7
176
     1
 65
   257
176
     1
 75
     1
176
     1
175
     1
176
     1
 42
1.0
176
     1
 92
        8
176
     1
 66
     7
176
     1
 43
1.0
176
     1
 76
     1
176
     1
 77
     6
176
     1
 78
     2
176
     1
 67
     7
176
     1
 79
     5
176
     1
170
     0
176
     1
171
     0
176
     1
290
     0
176
     1
 93
        1
176
     1
 44
0.0
176
     1
173
     0
176
     1
1001
ACAD
1000
AcDbSavedByObjectVersion
1070
     0
  0
VISUALSTYLE
  5
45B
102
{ACAD_XDICTIONARY
360
4F8
102
}
102
{ACAD_REACTORS
330
45A
102
}
330
45A
100
AcDbVisualStyle
  2
Flat
 70
     0
177
     2
291
     1
 71
     2
176
     1
 72
     1
176
     1
 73
     1
176
     1
 90
        2
176
     1
 40
0.6
176
     1
 41
30.0
176
     1
 63
     7
421
 16777215
176
     1
 74
     0
176
     1
 91
        0
176
     1
 64
     7
176
     1
 65
   257
176
     1
 75
     1
176
     1
175
     1
176
     1
 42
1.0
176
     1
 92
        8
176
     1
 66
     7
176
     1
 43
1.0
176
     1
 76
     1
176
     1
 77
     6
176
     1
 78
     2
176
     1
 67
     7
176
     1
 79
     5
176
     1
170
     0
176
     1
171
     0
176
     1
290
     0
176
     1
 93
       13
176
     1
 44
0.0
176
     1
173
     0
176
     1
1001
ACAD
1000
AcDbSavedByObjectVersion
1070
     0
  0
VISUALSTYLE
  5
45C
102
{ACAD_XDICTIONARY
360
4FA
102
}
102
{ACAD_REACTORS
330
45A
102
}
330
45A
100
AcDbVisualStyle
  2
FlatWithEdges
 70
     1
177
     2
291
     1
 71
     2
176
     1
 72
     1
176
     1
 73
     1
176
     1
 90
        2
176
     1
 40
0.6
176
     1
 41
30.0
176
     1
 63
     7
421
 16777215
176
     1
 74
     1
176
     1
 91
        0
176
     1
 64
     7
176
     1
 65
   257
176
     1
 75
     1
176
     1
175
     1
176
     1
 42
1.0
176
     1
 92
        0
176
     1
 66
   257
176
     1
 43
1.0
176
     1
 76
     1
176
     1
 77
     6
176
     1
 78
     2
176
     1
 67
     7
176
     1
 79
     5
176
     1
170
     0
176
     1
171
     0
176
     1
290
     0
176
     1
 93
       13
176
     1
 44
0.0
176
     1
173
     0
176
     1
1001
ACAD
1000
AcDbSavedByObjectVersion
1070
     0
  0
VISUALSTYLE
  5
45D
102
{ACAD_XDICTIONARY
360
4FC
102
}
102
{ACAD_REACTORS
330
45A
102
}
330
45A
100
AcDbVisualStyle
  2
Gouraud
 70
     2
177
     2
291
     1
 71
     2
176
     1
 72
     2
176
     1
 73
     1
176
     1
 90
        2
176
     1
 40
0.6
176
     1
 41
30.0
176
     1
 63
     7
421
 16777215
176
     1
 74
     0
176
     1
 91
        0
176
     1
 64
     7
176
     1
 65
   257
176
     1
 75
     1
176
     1
175
     1
176
     1
 42
1.0
176
     1
 92
        0
176
     1
 66
     7
176
     1
 43
1.0
176
     1
 76
     1
176
     1
 77
     6
176
     1
 78
     2
176
     1
 67
     7
176
     1
 79
     5
176
     1
170
     0
176
     1
171
     0
176
     1
290
     0
176
     1
 93
       13
176
     1
 44
0.0
176
     1
173
     0
176
     1
1001
ACAD
1000
AcDbSavedByObjectVersion
1070
     0
  0
VISUALSTYLE
  5
45E
102
{ACAD_XDICTIONARY
360
4FE
102
}
102
{ACAD_REACTORS
330
45A
102
}
330
45A
100
AcDbVisualStyle
  2
GouraudWithEdges
 70
     3
177
     2
291
     1
 71
     2
176
     1
 72
     2
176
     1
 73
     1
176
     1
 90
        2
176
     1
 40
0.6
176
     1
 41
30.0
176
     1
 63
     7
421
 16777215
176
     1
 74
     1
176
     1
 91
        0
176
     1
 64
     7
176
     1
 65
   257
176
     1
 75
     1
176
     1
175
     1
176
     1
 42
1.0
176
     1
 92
        0
176
     1
 66
   257
176
     1
 43
1.0
176
     1
 76
     1
176
     1
 77
     6
176
     1
 78
     2
176
     1
 67
     7
176
     1
 79
     5
176
     1
170
     0
176
     1
171
     0
176
     1
290
     0
176
     1
 93
       13
176
     1
 44
0.0
176
     1
173
     0
176
     1
1001
ACAD
1000
AcDbSavedByObjectVersion
1070
     0
  0
VISUALSTYLE
  5
462
102
{ACAD_XDICTIONARY
360
506
102
}
102
{ACAD_REACTORS
330
45A
102
}
330
45A
100
AcDbVisualStyle
  2
Hidden
 70
     6
177
     2
291
     0
 71
     1
176
     1
 72
     2
176
     1
 73
     2
176
     1
 90
        0
176
     1
 40
0.6
176
     1
 41
30.0
176
     1
 63
     7
421
 16777215
176
     1
 74
     2
176
     1
 91
        2
176
     1
 64
     7
176
     1
 65
   257
176
     1
 75
     2
176
     1
175
     1
176
     1
 42
40.0
176
     1
 92
        0
176
     1
 66
   257
176
     1
 43
1.0
176
     1
 76
     1
176
     1
 77
     6
176
     1
 78
     2
176
     1
 67
     7
176
     1
 79
     3
176
     1
170
     0
176
     1
171
     0
176
     1
290
     0
176
     1
 93
        1
176
     1
 44
0.0
176
     1
173
     0
176
     1
1001
ACAD
1000
AcDbSavedByObjectVersion
1070
     0
  0
VISUALSTYLE
  5
470
102
{ACAD_XDICTIONARY
360
522
102
}
102
{ACAD_REACTORS
330
45A
102
}
330
45A
100
AcDbVisualStyle
  2
JitterOff
 70
    20
177
     2
291
     1
 71
     2
176
     0
 72
     2
176
     0
 73
     0
176
     0
 90
        0
176
     0
 40
0.6
176
     0
 41
30.0
176
     0
 63
     7
421
 16777215
176
     0
 74
     1
176
     0
 91
        4
176
     0
 64
     7
176
     0
 65
   257
176
     0
 75
     1
176
     0
175
     1
176
     0
 42
1.0
176
     0
 92
       10
176
     2
 66
     7
176
     0
 43
1.0
176
     0
 76
     1
176
     0
 77
     6
176
     0
 78
     2
176
     0
 67
     7
176
     0
 79
     5
176
     0
170
     0
176
     0
171
     0
176
     0
290
     0
176
     0
 93
        1
176
     0
 44
0.0
176
     0
173
     0
176
     0
1001
ACAD
1000
AcDbSavedByObjectVersion
1070
     0
  0
VISUALSTYLE
  5
468
102
{ACAD_XDICTIONARY
360
512
102
}
102
{ACAD_REACTORS
330
45A
102
}
330
45A
100
AcDbVisualStyle
  2
Linepattern
 70
    14
177
     2
291
     1
 71
     2
176
     1
 72
     2
176
     1
 73
     0
176
     1
 90
        0
176
     1
 40
0.6
176
     1
 41
30.0
176
     1
 63
     7
421
 16777215
176
     1
 74
     1
176
     1
 91
        4
176
     1
 64
     7
176
     1
 65
   257
176
     1
 75
     7
176
     1
175
     7
176
     1
 42
1.0
176
     1
 92
        8
176
     1
 66
     7
176
     1
 43
1.0
176
     1
 76
     1
176
     1
 77
     6
176
     1
 78
     2
176
     1
 67
     7
176
     1
 79
     5
176
     1
170
     0
176
     1
171
     0
176
     1
290
     0
176
     1
 93
        1
176
     1
 44
0.0
176
     1
173
     0
176
     1
1001
ACAD
1000
AcDbSavedByObjectVersion
1070
     0
  0
VISUALSTYLE
  5
471
102
{ACAD_XDICTIONARY
360
524
102
}
102
{ACAD_REACTORS
330
45A
102
}
330
45A
100
AcDbVisualStyle
  2
OverhangOff
 70
    21
177
     2
291
     1
 71
     2
176
     0
 72
     2
176
     0
 73
     0
176
     0
 90
        0
176
     0
 40
0.6
176
     0
 41
30.0
176
     0
 63
     7
421
 16777215
176
     0
 74
     1
176
     0
 91
        4
176
     0
 64
     7
176
     0
 65
   257
176
     0
 75
     1
176
     0
175
     1
176
     0
 42
1.0
176
     0
 92
        9
176
     2
 66
     7
176
     0
 43
1.0
176
     0
 76
     1
176
     0
 77
     6
176
     0
 78
     2
176
     0
 67
     7
176
     0
 79
     5
176
     0
170
     0
176
     0
171
     0
176
     0
290
     0
176
     0
 93
        1
176
     0
 44
0.0
176
     0
173
     0
176
     0
1001
ACAD
1000
AcDbSavedByObjectVersion
1070
     0
  0
VISUALSTYLE
  5
464
102
{ACAD_XDICTIONARY
360
50A
102
}
102
{ACAD_REACTORS
330
45A
102
}
330
45A
100
AcDbVisualStyle
  2
Realistic
 70
     8
177
     2
291
     0
 71
     2
176
     1
 72
     3
176
     1
 73
     0
176
     1
 90
        2
176
     1
 40
0.6
176
     1
 41
30.0
176
     1
 63
     7
421
 16777215
176
     1
 74
     0
176
     1
 91
        0
176
     1
 64
     7
176
     1
 65
   257
176
     1
 75
     1
176
     1
175
     1
176
     1
 42
1.0
176
     1
 92
        8
176
     1
 66
   257
176
     1
 43
1.0
176
     1
 76
     1
176
     1
 77
     6
176
     1
 78
     2
176
     1
 67
     7
176
     1
 79
     3
176
     1
170
     0
176
     1
171
     0
176
     1
290
     0
176
     1
 93
       13
176
     1
 44
0.0
176
     1
173
     0
176
     1
1001
ACAD
1000
AcDbSavedByObjectVersion
1070
     0
  0
VISUALSTYLE
  5
46F
102
{ACAD_XDICTIONARY
360
520
102
}
102
{ACAD_REACTORS
330
45A
102
}
330
45A
100
AcDbVisualStyle
  2
Shaded
 70
    27
177
     2
291
     0
 71
     2
176
     1
 72
     2
176
     1
 73
     1
176
     1
 90
        2
176
     1
 40
0.6
176
     1
 41
30.0
176
     1
 63
     7
421
 16777215
176
     1
 74
     0
176
     1
 91
        4
176
     1
 64
     7
176
     1
 65
   257
176
     1
 75
     1
176
     1
175
     1
176
     1
 42
1.0
176
     1
 92
        8
176
     1
 66
   257
176
     1
 43
1.0
176
     1
 76
     1
176
     1
 77
     6
176
     1
 78
     2
176
     1
 67
     8
425
  7895160
176
     1
 79
     3
176
     1
170
     0
176
     1
171
     0
176
     1
290
     0
176
     1
 93
        5
176
     1
 44
0.0
176
     1
173
     0
176
     1
1001
ACAD
1000
AcDbSavedByObjectVersion
1070
     0
  0
VISUALSTYLE
  5
46E
102
{ACAD_XDICTIONARY
360
51E
102
}
102
{ACAD_REACTORS
330
45A
102
}
330
45A
100
AcDbVisualStyle
  2
Shaded with edges
 70
    26
177
     2
291
     0
 71
     2
176
     1
 72
     2
176
     1
 73
     1
176
     1
 90
        2
176
     1
 40
0.6
176
     1
 41
30.0
176
     1
 63
     7
421
 16777215
176
     1
 74
     1
176
     1
 91
       10
176
     1
 64
     7
176
     1
 65
   257
176
     1
 75
     2
176
     1
175
     1
176
     1
 42
1.0
176
     1
 92
        8
176
     1
 66
   257
176
     1
 43
1.0
176
     1
 76
     1
176
     1
 77
     6
176
     1
 78
     2
176
     1
 67
     7
176
     1
 79
     3
176
     1
170
     0
176
     1
171
     0
176
     1
290
     0
176
     1
 93
        5
176
     1
 44
0.0
176
     1
173
     0
176
     1
1001
ACAD
1000
AcDbSavedByObjectVersion
1070
     0
  0
VISUALSTYLE
  5
46B
102
{ACAD_XDICTIONARY
360
518
102
}
102
{ACAD_REACTORS
330
45A
102
}
330
45A
100
AcDbVisualStyle
  2
Shades of Gray
 70
    23
177
     2
291
     0
 71
     2
176
     1
 72
     2
176
     1
 73
     3
176
     1
 90
        0
176
     1
 40
0.6
176
     1
 41
30.0
176
     1
 63
     7
421
 16777215
176
     1
 74
     2
176
     1
 91
        2
176
     1
 64
     7
176
     1
 65
     7
176
     1
 75
     1
176
     1
175
     1
176
     1
 42
40.0
176
     1
 92
        8
176
     1
 66
     7
176
     1
 43
1.0
176
     1
 76
     1
176
     1
 77
     6
176
     1
 78
     2
176
     1
 67
     7
176
     1
 79
     3
176
     1
170
     0
176
     1
171
     0
176
     1
290
     0
176
     1
 93
        1
176
     1
 44
0.0
176
     1
173
     0
176
     1
1001
ACAD
1000
AcDbSavedByObjectVersion
1070
     0
  0
VISUALSTYLE
  5
46C
102
{ACAD_XDICTIONARY
360
51A
102
}
102
{ACAD_REACTORS
330
45A
102
}
330
45A
100
AcDbVisualStyle
  2
Sketchy
 70
    24
177
     2
291
     0
 71
     1
176
     1
 72
     2
176
     1
 73
     2
176
     1
 90
        0
176
     1
 40
0.6
176
     1
 41
30.0
176
     1
 63
     7
421
 16777215
176
     1
 74
     2
176
     1
 91
        2
176
     1
 64
     7
176
     1
 65
     7
176
     1
 75
     1
176
     1
175
     1
176
     1
 42
40.0
176
     1
 92
       11
176
     1
 66
     7
176
     1
 43
1.0
176
     1
 76
     1
176
     1
 77
     6
176
     1
 78
     2
176
     1
 67
     7
176
     1
 79
     6
176
     1
170
     0
176
     1
171
     0
176
     1
290
     0
176
     1
 93
        1
176
     1
 44
0.0
176
     1
173
     0
176
     1
1001
ACAD
1000
AcDbSavedByObjectVersion
1070
     0
  0
VISUALSTYLE
  5
467
102
{ACAD_XDICTIONARY
360
510
102
}
102
{ACAD_REACTORS
330
45A
102
}
330
45A
100
AcDbVisualStyle
  2
Thicken
 70
    13
177
     2
291
     1
 71
     2
176
     1
 72
     2
176
     1
 73
     0
176
     1
 90
        0
176
     1
 40
0.6
176
     1
 41
30.0
176
     1
 63
     7
421
 16777215
176
     1
 74
     1
176
     1
 91
        4
176
     1
 64
     7
176
     1
 65
   257
176
     1
 75
     1
176
     1
175
     1
176
     1
 42
1.0
176
     1
 92
       12
176
     1
 66
     7
176
     1
 43
1.0
176
     1
 76
     1
176
     1
 77
     6
176
     1
 78
     2
176
     1
 67
     7
176
     1
 79
     5
176
     1
170
     0
176
     1
171
     0
176
     1
290
     0
176
     1
 93
        1
176
     1
 44
0.0
176
     1
173
     0
176
     1
1001
ACAD
1000
AcDbSavedByObjectVersion
1070
     0
  0
VISUALSTYLE
  5
461
102
{ACAD_XDICTIONARY
360
504
102
}
102
{ACAD_REACTORS
330
45A
102
}
330
45A
100
AcDbVisualStyle
  2
Wireframe
 70
     5
177
     2
291
     0
 71
     0
176
     1
 72
     2
176
     1
 73
     0
176
     1
 90
        0
176
     1
 40
0.6
176
     1
 41
30.0
176
     1
 63
     7
421
 16777215
176
     1
 74
     1
176
     1
 91
        4
176
     1
 64
     7
176
     1
 65
   257
176
     1
 75
     1
176
     1
175
     1
176
     1
 42
1.0
176
     1
 92
        0
176
     1
 66
   257
176
     1
 43
1.0
176
     1
 76
     1
176
     1
 77
     6
176
     1
 78
     2
176
     1
 67
     7
176
     1
 79
     3
176
     1
170
     0
176
     1
171
     0
176
     1
290
     0
176
     1
 93
        1
176
     1
 44
0.0
176
     1
173
     0
176
     1
1001
ACAD
1000
AcDbSavedByObjectVersion
1070
     0
  0
VISUALSTYLE
  5
46D
102
{ACAD_XDICTIONARY
360
51C
102
}
102
{ACAD_REACTORS
330
45A
102
}
330
45A
100
AcDbVisualStyle
  2
X-Ray
 70
    25
177
     2
291
     0
 71
     2
176
     1
 72
     2
176
     1
 73
     1
176
     1
 90
        1
176
     1
 40
0.5
176
     1
 41
30.0
176
     1
 63
     7
421
 16777215
176
     1
 74
     1
176
     1
 91
        0
176
     1
 64
     7
176
     1
 65
   257
176
     1
 75
     1
176
     1
175
     1
176
     1
 42
1.0
176
     1
 92
        8
176
     1
 66
     7
176
     1
 43
1.0
176
     1
 76
     1
176
     1
 77
     6
176
     1
 78
     2
176
     1
 67
     7
176
     1
 79
     3
176
     1
170
     0
176
     1
171
     0
176
     1
290
     0
176
     1
 93
       13
176
     1
 44
0.0
176
     1
173
     0
176
     1
1001
ACAD
1000
AcDbSavedByObjectVersion
1070
     0
  0
DICTIONARYVAR
  5
4F1
102
{ACAD_REACTORS
330
20D
102
}
330
20D
100
DictionaryVariables
280
     0
  1
1:1
  0
DICTIONARYVAR
  5
4ED
102
{ACAD_REACTORS
330
20D
102
}
330
20D
100
DictionaryVariables
280
     0
  1
STANDARD
  0
DICTIONARYVAR
  5
20E
102
{ACAD_REACTORS
330
20D
102
}
330
20D
100
DictionaryVariables
280
     0
  1
STANDARD
  0
DICTIONARYVAR
  5
4EE
102
{ACAD_REACTORS
330
20D
102
}
330
20D
100
DictionaryVariables
280
     0
  1
Metric50
  0
DICTIONARYVAR
  5
4EF
102
{ACAD_REACTORS
330
20D
102
}
330
20D
100
DictionaryVariables
280
     0
  1
Metric50
  0
DICTIONARYVAR
  5
20F
102
{ACAD_REACTORS
330
20D
102
}
330
20D
100
DictionaryVariables
280
     0
  1
1
  0
DICTIONARYVAR
  5
4F3
102
{ACAD_REACTORS
330
20D
102
}
330
20D
100
DictionaryVariables
280
     0
  1
1
  0
DICTIONARYVAR
  5
4F4
102
{ACAD_REACTORS
330
20D
102
}
330
20D
100
DictionaryVariables
280
     0
  1
15
  0
DICTIONARYVAR
  5
4F2
102
{ACAD_REACTORS
330
20D
102
}
330
20D
100
DictionaryVariables
280
     0
  1
0
  0
DICTIONARYVAR
  5
4F0
102
{ACAD_REACTORS
330
20D
102
}
330
20D
100
DictionaryVariables
280
     0
  1
0
  0
DICTIONARYVAR
  5
210
102
{ACAD_REACTORS
330
20D
102
}
330
20D
100
DictionaryVariables
280
     0
  1

  0
DICTIONARY
  5
52A
330
48A
100
AcDbDictionary
280
     1
281
     1
  3
ACAD_XREC_ROUNDTRIP
360
52B
  0
DICTIONARY
  5
44B
330
44A
100
AcDbDictionary
280
     1
281
     1
  3
BUMPTILE
360
44D
  3
DIFFUSETILE
360
44C
  3
OPACITYTILE
360
450
  3
REFLECTIONTILE
360
44F
  3
REFRACTIONTILE
360
451
  3
SPECULARTILE
360
44E
  0
DICTIONARY
  5
443
330
442
100
AcDbDictionary
280
     1
281
     1
  3
BUMPTILE
360
445
  3
DIFFUSETILE
360
444
  3
OPACITYTILE
360
448
  3
REFLECTIONTILE
360
447
  3
REFRACTIONTILE
360
449
  3
SPECULARTILE
360
446
  0
DICTIONARY
  5
453
330
452
100
AcDbDictionary
280
     1
281
     1
  3
BUMPTILE
360
455
  3
DIFFUSETILE
360
454
  3
OPACITYTILE
360
458
  3
REFLECTIONTILE
360
457
  3
REFRACTIONTILE
360
459
  3
SPECULARTILE
360
456
  0
DICTIONARY
  5
528
330
488
100
AcDbDictionary
280
     1
281
     1
  3
ACAD_XREC_ROUNDTRIP
360
529
  0
DICTIONARY
  5
4F5
330
203
100
AcDbDictionary
280
     1
281
     1
  3
ACAD_ROUNDTRIP_2008_TABLESTYLE_CELLSTYLEMAP
360
4F6
  0
DICTIONARY
  5
502
330
460
100
AcDbDictionary
280
     1
281
     1
  3
ACAD_XREC_ROUNDTRIP
360
503
  0
DICTIONARY
  5
500
330
45F
100
AcDbDictionary
280
     1
281
     1
  3
ACAD_XREC_ROUNDTRIP
360
501
  0
DICTIONARY
  5
50E
330
466
100
AcDbDictionary
280
     1
281
     1
  3
ACAD_XREC_ROUNDTRIP
360
50F
  0
DICTIONARY
  5
516
330
46A
100
AcDbDictionary
280
     1
281
     1
  3
ACAD_XREC_ROUNDTRIP
360
517
  0
DICTIONARY
  5
508
330
463
100
AcDbDictionary
280
     1
281
     1
  3
ACAD_XREC_ROUNDTRIP
360
509
  0
DICTIONARY
  5
50C
330
465
100
AcDbDictionary
280
     1
281
     1
  3
ACAD_XREC_ROUNDTRIP
360
50D
  0
DICTIONARY
  5
526
330
472
100
AcDbDictionary
280
     1
281
     1
  3
ACAD_XREC_ROUNDTRIP
360
527
  0
DICTIONARY
  5
514
330
469
100
AcDbDictionary
280
     1
281
     1
  3
ACAD_XREC_ROUNDTRIP
360
515
  0
DICTIONARY
  5
4F8
330
45B
100
AcDbDictionary
280
     1
281
     1
  3
ACAD_XREC_ROUNDTRIP
360
4F9
  0
DICTIONARY
  5
4FA
330
45C
100
AcDbDictionary
280
     1
281
     1
  3
ACAD_XREC_ROUNDTRIP
360
4FB
  0
DICTIONARY
  5
4FC
330
45D
100
AcDbDictionary
280
     1
281
     1
  3
ACAD_XREC_ROUNDTRIP
360
4FD
  0
DICTIONARY
  5
4FE
330
45E
100
AcDbDictionary
280
     1
281
     1
  3
ACAD_XREC_ROUNDTRIP
360
4FF
  0
DICTIONARY
  5
506
330
462
100
AcDbDictionary
280
     1
281
     1
  3
ACAD_XREC_ROUNDTRIP
360
507
  0
DICTIONARY
  5
522
330
470
100
AcDbDictionary
280
     1
281
     1
  3
ACAD_XREC_ROUNDTRIP
360
523
  0
DICTIONARY
  5
512
330
468
100
AcDbDictionary
280
     1
281
     1
  3
ACAD_XREC_ROUNDTRIP
360
513
  0
DICTIONARY
  5
524
330
471
100
AcDbDictionary
280
     1
281
     1
  3
ACAD_XREC_ROUNDTRIP
360
525
  0
DICTIONARY
  5
50A
330
464
100
AcDbDictionary
280
     1
281
     1
  3
ACAD_XREC_ROUNDTRIP
360
50B
  0
DICTIONARY
  5
520
330
46F
100
AcDbDictionary
280
     1
281
     1
  3
ACAD_XREC_ROUNDTRIP
360
521
  0
DICTIONARY
  5
51E
330
46E
100
AcDbDictionary
280
     1
281
     1
  3
ACAD_XREC_ROUNDTRIP
360
51F
  0
DICTIONARY
  5
518
330
46B
100
AcDbDictionary
280
     1
281
     1
  3
ACAD_XREC_ROUNDTRIP
360
519
  0
DICTIONARY
  5
51A
330
46C
100
AcDbDictionary
280
     1
281
     1
  3
ACAD_XREC_ROUNDTRIP
360
51B
  0
DICTIONARY
  5
510
330
467
100
AcDbDictionary
280
     1
281
     1
  3
ACAD_XREC_ROUNDTRIP
360
511
  0
DICTIONARY
  5
504
330
461
100
AcDbDictionary
280
     1
281
     1
  3
ACAD_XREC_ROUNDTRIP
360
505
  0
DICTIONARY
  5
51C
330
46D
100
AcDbDictionary
280
     1
281
     1
  3
ACAD_XREC_ROUNDTRIP
360
51D
  0
XRECORD
  5
52B
102
{ACAD_REACTORS
330
52A
102
}
330
52A
100
AcDbXrecord
280
     1
102
DISPLAYNAME
  1
Metric50
102
FLAGS
 90
        0
  0
XRECORD
  5
44D
102
{ACAD_REACTORS
330
44B
102
}
330
44B
100
AcDbXrecord
280
     1
270
     1
271
     1
  0
XRECORD
  5
44C
102
{ACAD_REACTORS
330
44B
102
}
330
44B
100
AcDbXrecord
280
     1
270
     1
271
     1
  0
XRECORD
  5
450
102
{ACAD_REACTORS
330
44B
102
}
330
44B
100
AcDbXrecord
280
     1
270
     1
271
     1
  0
XRECORD
  5
44F
102
{ACAD_REACTORS
330
44B
102
}
330
44B
100
AcDbXrecord
280
     1
270
     1
271
     1
  0
XRECORD
  5
451
102
{ACAD_REACTORS
330
44B
102
}
330
44B
100
AcDbXrecord
280
     1
270
     1
271
     1
  0
XRECORD
  5
44E
102
{ACAD_REACTORS
330
44B
102
}
330
44B
100
AcDbXrecord
280
     1
270
     1
271
     1
  0
XRECORD
  5
445
102
{ACAD_REACTORS
330
443
102
}
330
443
100
AcDbXrecord
280
     1
270
     1
271
     1
  0
XRECORD
  5
444
102
{ACAD_REACTORS
330
443
102
}
330
443
100
AcDbXrecord
280
     1
270
     1
271
     1
  0
XRECORD
  5
448
102
{ACAD_REACTORS
330
443
102
}
330
443
100
AcDbXrecord
280
     1
270
     1
271
     1
  0
XRECORD
  5
447
102
{ACAD_REACTORS
330
443
102
}
330
443
100
AcDbXrecord
280
     1
270
     1
271
     1
  0
XRECORD
  5
449
102
{ACAD_REACTORS
330
443
102
}
330
443
100
AcDbXrecord
280
     1
270
     1
271
     1
  0
XRECORD
  5
446
102
{ACAD_REACTORS
330
443
102
}
330
443
100
AcDbXrecord
280
     1
270
     1
271
     1
  0
XRECORD
  5
455
102
{ACAD_REACTORS
330
453
102
}
330
453
100
AcDbXrecord
280
     1
270
     1
271
     1
  0
XRECORD
  5
454
102
{ACAD_REACTORS
330
453
102
}
330
453
100
AcDbXrecord
280
     1
270
     1
271
     1
  0
XRECORD
  5
458
102
{ACAD_REACTORS
330
453
102
}
330
453
100
AcDbXrecord
280
     1
270
     1
271
     1
  0
XRECORD
  5
457
102
{ACAD_REACTORS
330
453
102
}
330
453
100
AcDbXrecord
280
     1
270
     1
271
     1
  0
XRECORD
  5
459
102
{ACAD_REACTORS
330
453
102
}
330
453
100
AcDbXrecord
280
     1
270
     1
271
     1
  0
XRECORD
  5
456
102
{ACAD_REACTORS
330
453
102
}
330
453
100
AcDbXrecord
280
     1
270
     1
271
     1
  0
XRECORD
  5
529
102
{ACAD_REACTORS
330
528
102
}
330
528
100
AcDbXrecord
280
     1
102
DISPLAYNAME
  1
Metric50
102
FLAGS
 90
        0
  0
CELLSTYLEMAP
  5
4F6
102
{ACAD_REACTORS
330
4F5
102
}
330
4F5
100
AcDbCellStyleMap
 90
        3
300
CELLSTYLE
  1
TABLEFORMAT_BEGIN
 90
        5
170
     1
 91
        0
 92
    32768
 62
   257
 93
        1
300
CONTENTFORMAT
  1
CONTENTFORMAT_BEGIN
 90
        0
 91
        0
 92
        4
 93
        0
300

 40
0.0
140
1.0
 94
        5
 62
     0
340
23
144
6.0
309
CONTENTFORMAT_END
171
     1
301
MARGIN
  1
CELLMARGIN_BEGIN
 40
1.5
 40
1.5
 40
1.5
 40
1.5
 40
0.18
 40
0.18
309
CELLMARGIN_END
 94
        6
 95
        1
302
GRIDFORMAT
  1
GRIDFORMAT_BEGIN
 90
        0
 91
        1
 62
     0
 92
       -2
340
0
 93
        0
 40
0.045
309
GRIDFORMAT_END
 95
        2
302
GRIDFORMAT
  1
GRIDFORMAT_BEGIN
 90
        0
 91
        1
 62
     0
 92
       -2
340
0
 93
        0
 40
0.045
309
GRIDFORMAT_END
 95
        4
302
GRIDFORMAT
  1
GRIDFORMAT_BEGIN
 90
        0
 91
        1
 62
     0
 92
       -2
340
0
 93
        0
 40
0.045
309
GRIDFORMAT_END
 95
        8
302
GRIDFORMAT
  1
GRIDFORMAT_BEGIN
 90
        0
 91
        1
 62
     0
 92
       -2
340
0
 93
        0
 40
0.045
309
GRIDFORMAT_END
 95
       16
302
GRIDFORMAT
  1
GRIDFORMAT_BEGIN
 90
        0
 91
        1
 62
     0
 92
       -2
340
0
 93
        0
 40
0.045
309
GRIDFORMAT_END
 95
       32
302
GRIDFORMAT
  1
GRIDFORMAT_BEGIN
 90
        0
 91
        1
 62
     0
 92
       -2
340
0
 93
        0
 40
0.045
309
GRIDFORMAT_END
309
TABLEFORMAT_END
  1
CELLSTYLE_BEGIN
 90
        1
 91
        1
300
_TITLE
309
CELLSTYLE_END
300
CELLSTYLE
  1
TABLEFORMAT_BEGIN
 90
        5
170
     1
 91
        0
 92
        0
 62
   257
 93
        1
300
CONTENTFORMAT
  1
CONTENTFORMAT_BEGIN
 90
        0
 91
        0
 92
        4
 93
        0
300

 40
0.0
140
1.0
 94
        5
 62
     0
340
23
144
4.5
309
CONTENTFORMAT_END
171
     1
301
MARGIN
  1
CELLMARGIN_BEGIN
 40
1.5
 40
1.5
 40
1.5
 40
1.5
 40
0.18
 40
0.18
309
CELLMARGIN_END
 94
        6
 95
        1
302
GRIDFORMAT
  1
GRIDFORMAT_BEGIN
 90
        0
 91
        1
 62
     0
 92
       -2
340
0
 93
        0
 40
0.045
309
GRIDFORMAT_END
 95
        2
302
GRIDFORMAT
  1
GRIDFORMAT_BEGIN
 90
        0
 91
        1
 62
     0
 92
       -2
340
0
 93
        0
 40
0.045
309
GRIDFORMAT_END
 95
        4
302
GRIDFORMAT
  1
GRIDFORMAT_BEGIN
 90
        0
 91
        1
 62
     0
 92
       -2
340
0
 93
        0
 40
0.045
309
GRIDFORMAT_END
 95
        8
302
GRIDFORMAT
  1
GRIDFORMAT_BEGIN
 90
        0
 91
        1
 62
     0
 92
       -2
340
0
 93
        0
 40
0.045
309
GRIDFORMAT_END
 95
       16
302
GRIDFORMAT
  1
GRIDFORMAT_BEGIN
 90
        0
 91
        1
 62
     0
 92
       -2
340
0
 93
        0
 40
0.045
309
GRIDFORMAT_END
 95
       32
302
GRIDFORMAT
  1
GRIDFORMAT_BEGIN
 90
        0
 91
        1
 62
     0
 92
       -2
340
0
 93
        0
 40
0.045
309
GRIDFORMAT_END
309
TABLEFORMAT_END
  1
CELLSTYLE_BEGIN
 90
        2
 91
        1
300
_HEADER
309
CELLSTYLE_END
300
CELLSTYLE
  1
TABLEFORMAT_BEGIN
 90
        5
170
     1
 91
        0
 92
        0
 62
   257
 93
        1
300
CONTENTFORMAT
  1
CONTENTFORMAT_BEGIN
 90
        0
 91
        0
 92
        4
 93
        0
300

 40
0.0
140
1.0
 94
        2
 62
     0
340
23
144
4.5
309
CONTENTFORMAT_END
171
     1
301
MARGIN
  1
CELLMARGIN_BEGIN
 40
1.5
 40
1.5
 40
1.5
 40
1.5
 40
0.18
 40
0.18
309
CELLMARGIN_END
 94
        6
 95
        1
302
GRIDFORMAT
  1
GRIDFORMAT_BEGIN
 90
        0
 91
        1
 62
     0
 92
       -2
340
0
 93
        0
 40
0.045
309
GRIDFORMAT_END
 95
        2
302
GRIDFORMAT
  1
GRIDFORMAT_BEGIN
 90
        0
 91
        1
 62
     0
 92
       -2
340
0
 93
        0
 40
0.045
309
GRIDFORMAT_END
 95
        4
302
GRIDFORMAT
  1
GRIDFORMAT_BEGIN
 90
        0
 91
        1
 62
     0
 92
       -2
340
0
 93
        0
 40
0.045
309
GRIDFORMAT_END
 95
        8
302
GRIDFORMAT
  1
GRIDFORMAT_BEGIN
 90
        0
 91
        1
 62
     0
 92
       -2
340
0
 93
        0
 40
0.045
309
GRIDFORMAT_END
 95
       16
302
GRIDFORMAT
  1
GRIDFORMAT_BEGIN
 90
        0
 91
        1
 62
     0
 92
       -2
340
0
 93
        0
 40
0.045
309
GRIDFORMAT_END
 95
       32
302
GRIDFORMAT
  1
GRIDFORMAT_BEGIN
 90
        0
 91
        1
 62
     0
 92
       -2
340
0
 93
        0
 40
0.045
309
GRIDFORMAT_END
309
TABLEFORMAT_END
  1
CELLSTYLE_BEGIN
 90
        3
 91
        2
300
_DATA
309
CELLSTYLE_END
  0
XRECORD
  5
503
102
{ACAD_REACTORS
330
502
102
}
330
502
100
AcDbXrecord
280
     1
102
RTVSPost2010Prop28
280
     1
102
RTVSPost2010PropOp28
 70
     1
102
RTVSPost2010Prop29
280
     1
102
RTVSPost2010PropOp29
 70
     1
102
RTVSPost2010Prop30
280
     0
102
RTVSPost2010PropOp30
 70
     1
102
RTVSPost2010Prop31
280
     0
102
RTVSPost2010PropOp31
 70
     1
102
RTVSPost2010Prop32
280
     0
102
RTVSPost2010PropOp32
 70
     1
102
RTVSPost2010Prop33
280
     0
102
RTVSPost2010PropOp33
 70
     1
102
RTVSPost2010Prop34
280
     0
102
RTVSPost2010PropOp34
 70
     1
102
RTVSPost2010Prop35
280
     0
102
RTVSPost2010PropOp35
 70
     1
102
RTVSPost2010Prop36
280
     0
102
RTVSPost2010PropOp36
 70
     1
102
RTVSPost2010Prop37
 90
       50
102
RTVSPost2010PropOp37
 70
     1
102
RTVSPost2010Prop38
140
0.0
102
RTVSPost2010PropOp38
 70
     1
102
RTVSPost2010Prop39
140
1.0
102
RTVSPost2010PropOp39
 70
     1
102
RTVSPost2010Prop40
 90
        0
102
RTVSPost2010PropOp40
 70
     1
102
RTVSPost2010Prop41ColorIndex
 90
       18
102
RTVSPost2010Prop41ColorRGB
 90
        0
102
RTVSPost2010PropOp41
 70
     1
102
RTVSPost2010Prop42
 90
       50
102
RTVSPost2010PropOp42
 70
     1
102
RTVSPost2010Prop43
 90
        3
102
RTVSPost2010PropOp43
 70
     1
102
RTVSPost2010Prop44ColorIndex
 90
        5
102
RTVSPost2010Prop44ColorRGB
 90
      255
102
RTVSPost2010PropOp44
 70
     1
102
RTVSPost2010Prop45
280
     0
102
RTVSPost2010PropOp45
 70
     1
102
RTVSPost2010Prop46
 90
       50
102
RTVSPost2010PropOp46
 70
     1
102
RTVSPost2010Prop47
 90
       50
102
RTVSPost2010PropOp47
 70
     1
102
RTVSPost2010Prop48
 90
       50
102
RTVSPost2010PropOp48
 70
     1
102
RTVSPost2010Prop49
280
     0
102
RTVSPost2010PropOp49
 70
     1
102
RTVSPost2010Prop50
 90
       50
102
RTVSPost2010PropOp50
 70
     1
102
RTVSPost2010Prop51ColorIndex
 90
      256
102
RTVSPost2010Prop51ColorRGB
 90
-16777216
102
RTVSPost2010PropOp51
 70
     0
102
RTVSPost2010Prop52
140
1.0
102
RTVSPost2010PropOp52
 70
     0
102
RTVSPost2010Prop53
 90
        2
102
RTVSPost2010PropOp53
 70
     1
102
RTVSPost2010Prop54
  1
strokes_ogs.tif
102
RTVSPost2010PropOp54
 70
     1
102
RTVSPost2010Prop55
280
     0
102
RTVSPost2010PropOp55
 70
     1
102
RTVSPost2010Prop56
140
1.0
102
RTVSPost2010PropOp56
 70
     1
102
RTVSPost2010Prop57
140
1.0
102
RTVSPost2010PropOp57
 70
     1
  0
XRECORD
  5
501
102
{ACAD_REACTORS
330
500
102
}
330
500
100
AcDbXrecord
280
     1
102
RTVSPost2010Prop28
280
     0
102
RTVSPost2010PropOp28
 70
     1
102
RTVSPost2010Prop29
280
     1
102
RTVSPost2010PropOp29
 70
     1
102
RTVSPost2010Prop30
280
     1
102
RTVSPost2010PropOp30
 70
     1
102
RTVSPost2010Prop31
280
     0
102
RTVSPost2010PropOp31
 70
     1
102
RTVSPost2010Prop32
280
     0
102
RTVSPost2010PropOp32
 70
     1
102
RTVSPost2010Prop33
280
     0
102
RTVSPost2010PropOp33
 70
     1
102
RTVSPost2010Prop34
280
     0
102
RTVSPost2010PropOp34
 70
     1
102
RTVSPost2010Prop35
280
     0
102
RTVSPost2010PropOp35
 70
     1
102
RTVSPost2010Prop36
280
     0
102
RTVSPost2010PropOp36
 70
     1
102
RTVSPost2010Prop37
 90
       50
102
RTVSPost2010PropOp37
 70
     1
102
RTVSPost2010Prop38
140
0.0
102
RTVSPost2010PropOp38
 70
     1
102
RTVSPost2010Prop39
140
1.0
102
RTVSPost2010PropOp39
 70
     1
102
RTVSPost2010Prop40
 90
        0
102
RTVSPost2010PropOp40
 70
     1
102
RTVSPost2010Prop41ColorIndex
 90
       18
102
RTVSPost2010Prop41ColorRGB
 90
        0
102
RTVSPost2010PropOp41
 70
     1
102
RTVSPost2010Prop42
 90
       50
102
RTVSPost2010PropOp42
 70
     1
102
RTVSPost2010Prop43
 90
        3
102
RTVSPost2010PropOp43
 70
     1
102
RTVSPost2010Prop44ColorIndex
 90
        5
102
RTVSPost2010Prop44ColorRGB
 90
      255
102
RTVSPost2010PropOp44
 70
     1
102
RTVSPost2010Prop45
280
     0
102
RTVSPost2010PropOp45
 70
     1
102
RTVSPost2010Prop46
 90
       50
102
RTVSPost2010PropOp46
 70
     1
102
RTVSPost2010Prop47
 90
       50
102
RTVSPost2010PropOp47
 70
     1
102
RTVSPost2010Prop48
 90
       50
102
RTVSPost2010PropOp48
 70
     1
102
RTVSPost2010Prop49
280
     0
102
RTVSPost2010PropOp49
 70
     1
102
RTVSPost2010Prop50
 90
       50
102
RTVSPost2010PropOp50
 70
     1
102
RTVSPost2010Prop51ColorIndex
 90
      256
102
RTVSPost2010Prop51ColorRGB
 90
-16777216
102
RTVSPost2010PropOp51
 70
     0
102
RTVSPost2010Prop52
140
1.0
102
RTVSPost2010PropOp52
 70
     0
102
RTVSPost2010Prop53
 90
        2
102
RTVSPost2010PropOp53
 70
     1
102
RTVSPost2010Prop54
  1
strokes_ogs.tif
102
RTVSPost2010PropOp54
 70
     1
102
RTVSPost2010Prop55
280
     0
102
RTVSPost2010PropOp55
 70
     1
102
RTVSPost2010Prop56
140
1.0
102
RTVSPost2010PropOp56
 70
     1
102
RTVSPost2010Prop57
140
1.0
102
RTVSPost2010PropOp57
 70
     1
  0
XRECORD
  5
50F
102
{ACAD_REACTORS
330
50E
102
}
330
50E
100
AcDbXrecord
280
     1
102
RTVSPost2010Prop28
280
     0
102
RTVSPost2010PropOp28
 70
     1
102
RTVSPost2010Prop29
280
     1
102
RTVSPost2010PropOp29
 70
     1
102
RTVSPost2010Prop30
280
     1
102
RTVSPost2010PropOp30
 70
     1
102
RTVSPost2010Prop31
280
     0
102
RTVSPost2010PropOp31
 70
     1
102
RTVSPost2010Prop32
280
     0
102
RTVSPost2010PropOp32
 70
     1
102
RTVSPost2010Prop33
280
     0
102
RTVSPost2010PropOp33
 70
     1
102
RTVSPost2010Prop34
280
     0
102
RTVSPost2010PropOp34
 70
     1
102
RTVSPost2010Prop35
280
     0
102
RTVSPost2010PropOp35
 70
     1
102
RTVSPost2010Prop36
280
     0
102
RTVSPost2010PropOp36
 70
     1
102
RTVSPost2010Prop37
 90
       50
102
RTVSPost2010PropOp37
 70
     1
102
RTVSPost2010Prop38
140
0.0
102
RTVSPost2010PropOp38
 70
     1
102
RTVSPost2010Prop39
140
1.0
102
RTVSPost2010PropOp39
 70
     1
102
RTVSPost2010Prop40
 90
        0
102
RTVSPost2010PropOp40
 70
     1
102
RTVSPost2010Prop41ColorIndex
 90
       18
102
RTVSPost2010Prop41ColorRGB
 90
        0
102
RTVSPost2010PropOp41
 70
     1
102
RTVSPost2010Prop42
 90
       50
102
RTVSPost2010PropOp42
 70
     1
102
RTVSPost2010Prop43
 90
        3
102
RTVSPost2010PropOp43
 70
     1
102
RTVSPost2010Prop44ColorIndex
 90
        5
102
RTVSPost2010Prop44ColorRGB
 90
      255
102
RTVSPost2010PropOp44
 70
     1
102
RTVSPost2010Prop45
280
     0
102
RTVSPost2010PropOp45
 70
     1
102
RTVSPost2010Prop46
 90
       50
102
RTVSPost2010PropOp46
 70
     1
102
RTVSPost2010Prop47
 90
       50
102
RTVSPost2010PropOp47
 70
     1
102
RTVSPost2010Prop48
 90
       50
102
RTVSPost2010PropOp48
 70
     1
102
RTVSPost2010Prop49
280
     0
102
RTVSPost2010PropOp49
 70
     1
102
RTVSPost2010Prop50
 90
       50
102
RTVSPost2010PropOp50
 70
     1
102
RTVSPost2010Prop51ColorIndex
 90
      256
102
RTVSPost2010Prop51ColorRGB
 90
-16777216
102
RTVSPost2010PropOp51
 70
     0
102
RTVSPost2010Prop52
140
1.0
102
RTVSPost2010PropOp52
 70
     0
102
RTVSPost2010Prop53
 90
        2
102
RTVSPost2010PropOp53
 70
     1
102
RTVSPost2010Prop54
  1
strokes_ogs.tif
102
RTVSPost2010PropOp54
 70
     1
102
RTVSPost2010Prop55
280
     0
102
RTVSPost2010PropOp55
 70
     1
102
RTVSPost2010Prop56
140
1.0
102
RTVSPost2010PropOp56
 70
     1
102
RTVSPost2010Prop57
140
1.0
102
RTVSPost2010PropOp57
 70
     1
  0
XRECORD
  5
517
102
{ACAD_REACTORS
330
516
102
}
330
516
100
AcDbXrecord
280
     1
102
RTVSPost2010Prop28
280
     0
102
RTVSPost2010PropOp28
 70
     1
102
RTVSPost2010Prop29
280
     1
102
RTVSPost2010PropOp29
 70
     1
102
RTVSPost2010Prop30
280
     1
102
RTVSPost2010PropOp30
 70
     1
102
RTVSPost2010Prop31
280
     0
102
RTVSPost2010PropOp31
 70
     1
102
RTVSPost2010Prop32
280
     0
102
RTVSPost2010PropOp32
 70
     1
102
RTVSPost2010Prop33
280
     0
102
RTVSPost2010PropOp33
 70
     1
102
RTVSPost2010Prop34
280
     0
102
RTVSPost2010PropOp34
 70
     1
102
RTVSPost2010Prop35
280
     0
102
RTVSPost2010PropOp35
 70
     1
102
RTVSPost2010Prop36
280
     0
102
RTVSPost2010PropOp36
 70
     1
102
RTVSPost2010Prop37
 90
       50
102
RTVSPost2010PropOp37
 70
     1
102
RTVSPost2010Prop38
140
0.0
102
RTVSPost2010PropOp38
 70
     1
102
RTVSPost2010Prop39
140
1.0
102
RTVSPost2010PropOp39
 70
     1
102
RTVSPost2010Prop40
 90
        0
102
RTVSPost2010PropOp40
 70
     1
102
RTVSPost2010Prop41ColorIndex
 90
       18
102
RTVSPost2010Prop41ColorRGB
 90
        0
102
RTVSPost2010PropOp41
 70
     1
102
RTVSPost2010Prop42
 90
       50
102
RTVSPost2010PropOp42
 70
     1
102
RTVSPost2010Prop43
 90
        3
102
RTVSPost2010PropOp43
 70
     1
102
RTVSPost2010Prop44ColorIndex
 90
        5
102
RTVSPost2010Prop44ColorRGB
 90
      255
102
RTVSPost2010PropOp44
 70
     1
102
RTVSPost2010Prop45
280
     0
102
RTVSPost2010PropOp45
 70
     1
102
RTVSPost2010Prop46
 90
       50
102
RTVSPost2010PropOp46
 70
     1
102
RTVSPost2010Prop47
 90
       50
102
RTVSPost2010PropOp47
 70
     1
102
RTVSPost2010Prop48
 90
       50
102
RTVSPost2010PropOp48
 70
     1
102
RTVSPost2010Prop49
280
     0
102
RTVSPost2010PropOp49
 70
     1
102
RTVSPost2010Prop50
 90
       50
102
RTVSPost2010PropOp50
 70
     1
102
RTVSPost2010Prop51ColorIndex
 90
      256
102
RTVSPost2010Prop51ColorRGB
 90
-16777216
102
RTVSPost2010PropOp51
 70
     0
102
RTVSPost2010Prop52
140
1.0
102
RTVSPost2010PropOp52
 70
     0
102
RTVSPost2010Prop53
 90
        2
102
RTVSPost2010PropOp53
 70
     1
102
RTVSPost2010Prop54
  1
strokes_ogs.tif
102
RTVSPost2010PropOp54
 70
     1
102
RTVSPost2010Prop55
280
     0
102
RTVSPost2010PropOp55
 70
     1
102
RTVSPost2010Prop56
140
1.0
102
RTVSPost2010PropOp56
 70
     1
102
RTVSPost2010Prop57
140
1.0
102
RTVSPost2010PropOp57
 70
     1
  0
XRECORD
  5
509
102
{ACAD_REACTORS
330
508
102
}
330
508
100
AcDbXrecord
280
     1
102
RTVSPost2010Prop28
280
     0
102
RTVSPost2010PropOp28
 70
     1
102
RTVSPost2010Prop29
280
     1
102
RTVSPost2010PropOp29
 70
     1
102
RTVSPost2010Prop30
280
     1
102
RTVSPost2010PropOp30
 70
     1
102
RTVSPost2010Prop31
280
     0
102
RTVSPost2010PropOp31
 70
     1
102
RTVSPost2010Prop32
280
     0
102
RTVSPost2010PropOp32
 70
     1
102
RTVSPost2010Prop33
280
     0
102
RTVSPost2010PropOp33
 70
     1
102
RTVSPost2010Prop34
280
     0
102
RTVSPost2010PropOp34
 70
     1
102
RTVSPost2010Prop35
280
     0
102
RTVSPost2010PropOp35
 70
     1
102
RTVSPost2010Prop36
280
     0
102
RTVSPost2010PropOp36
 70
     1
102
RTVSPost2010Prop37
 90
       50
102
RTVSPost2010PropOp37
 70
     1
102
RTVSPost2010Prop38
140
0.0
102
RTVSPost2010PropOp38
 70
     1
102
RTVSPost2010Prop39
140
1.0
102
RTVSPost2010PropOp39
 70
     1
102
RTVSPost2010Prop40
 90
        0
102
RTVSPost2010PropOp40
 70
     1
102
RTVSPost2010Prop41ColorIndex
 90
       18
102
RTVSPost2010Prop41ColorRGB
 90
        0
102
RTVSPost2010PropOp41
 70
     1
102
RTVSPost2010Prop42
 90
       50
102
RTVSPost2010PropOp42
 70
     1
102
RTVSPost2010Prop43
 90
        3
102
RTVSPost2010PropOp43
 70
     1
102
RTVSPost2010Prop44ColorIndex
 90
        5
102
RTVSPost2010Prop44ColorRGB
 90
      255
102
RTVSPost2010PropOp44
 70
     1
102
RTVSPost2010Prop45
280
     0
102
RTVSPost2010PropOp45
 70
     1
102
RTVSPost2010Prop46
 90
       50
102
RTVSPost2010PropOp46
 70
     1
102
RTVSPost2010Prop47
 90
       50
102
RTVSPost2010PropOp47
 70
     1
102
RTVSPost2010Prop48
 90
       50
102
RTVSPost2010PropOp48
 70
     1
102
RTVSPost2010Prop49
280
     0
102
RTVSPost2010PropOp49
 70
     1
102
RTVSPost2010Prop50
 90
       50
102
RTVSPost2010PropOp50
 70
     1
102
RTVSPost2010Prop51ColorIndex
 90
      256
102
RTVSPost2010Prop51ColorRGB
 90
-16777216
102
RTVSPost2010PropOp51
 70
     0
102
RTVSPost2010Prop52
140
1.0
102
RTVSPost2010PropOp52
 70
     0
102
RTVSPost2010Prop53
 90
        2
102
RTVSPost2010PropOp53
 70
     1
102
RTVSPost2010Prop54
  1
strokes_ogs.tif
102
RTVSPost2010PropOp54
 70
     1
102
RTVSPost2010Prop55
280
     0
102
RTVSPost2010PropOp55
 70
     1
102
RTVSPost2010Prop56
140
1.0
102
RTVSPost2010PropOp56
 70
     1
102
RTVSPost2010Prop57
140
1.0
102
RTVSPost2010PropOp57
 70
     1
  0
XRECORD
  5
50D
102
{ACAD_REACTORS
330
50C
102
}
330
50C
100
AcDbXrecord
280
     1
102
RTVSPost2010Prop28
280
     0
102
RTVSPost2010PropOp28
 70
     1
102
RTVSPost2010Prop29
280
     1
102
RTVSPost2010PropOp29
 70
     1
102
RTVSPost2010Prop30
280
     1
102
RTVSPost2010PropOp30
 70
     1
102
RTVSPost2010Prop31
280
     0
102
RTVSPost2010PropOp31
 70
     1
102
RTVSPost2010Prop32
280
     0
102
RTVSPost2010PropOp32
 70
     1
102
RTVSPost2010Prop33
280
     0
102
RTVSPost2010PropOp33
 70
     1
102
RTVSPost2010Prop34
280
     0
102
RTVSPost2010PropOp34
 70
     1
102
RTVSPost2010Prop35
280
     0
102
RTVSPost2010PropOp35
 70
     1
102
RTVSPost2010Prop36
280
     0
102
RTVSPost2010PropOp36
 70
     1
102
RTVSPost2010Prop37
 90
       50
102
RTVSPost2010PropOp37
 70
     1
102
RTVSPost2010Prop38
140
0.0
102
RTVSPost2010PropOp38
 70
     1
102
RTVSPost2010Prop39
140
1.0
102
RTVSPost2010PropOp39
 70
     1
102
RTVSPost2010Prop40
 90
        0
102
RTVSPost2010PropOp40
 70
     1
102
RTVSPost2010Prop41ColorIndex
 90
       18
102
RTVSPost2010Prop41ColorRGB
 90
        0
102
RTVSPost2010PropOp41
 70
     1
102
RTVSPost2010Prop42
 90
       50
102
RTVSPost2010PropOp42
 70
     1
102
RTVSPost2010Prop43
 90
        3
102
RTVSPost2010PropOp43
 70
     1
102
RTVSPost2010Prop44ColorIndex
 90
        5
102
RTVSPost2010Prop44ColorRGB
 90
      255
102
RTVSPost2010PropOp44
 70
     1
102
RTVSPost2010Prop45
280
     0
102
RTVSPost2010PropOp45
 70
     1
102
RTVSPost2010Prop46
 90
       50
102
RTVSPost2010PropOp46
 70
     1
102
RTVSPost2010Prop47
 90
       50
102
RTVSPost2010PropOp47
 70
     1
102
RTVSPost2010Prop48
 90
       50
102
RTVSPost2010PropOp48
 70
     1
102
RTVSPost2010Prop49
280
     0
102
RTVSPost2010PropOp49
 70
     1
102
RTVSPost2010Prop50
 90
       50
102
RTVSPost2010PropOp50
 70
     1
102
RTVSPost2010Prop51ColorIndex
 90
      256
102
RTVSPost2010Prop51ColorRGB
 90
-16777216
102
RTVSPost2010PropOp51
 70
     0
102
RTVSPost2010Prop52
140
1.0
102
RTVSPost2010PropOp52
 70
     0
102
RTVSPost2010Prop53
 90
        2
102
RTVSPost2010PropOp53
 70
     1
102
RTVSPost2010Prop54
  1
strokes_ogs.tif
102
RTVSPost2010PropOp54
 70
     1
102
RTVSPost2010Prop55
280
     0
102
RTVSPost2010PropOp55
 70
     1
102
RTVSPost2010Prop56
140
1.0
102
RTVSPost2010PropOp56
 70
     1
102
RTVSPost2010Prop57
140
1.0
102
RTVSPost2010PropOp57
 70
     1
  0
XRECORD
  5
527
102
{ACAD_REACTORS
330
526
102
}
330
526
100
AcDbXrecord
280
     1
102
RTVSPost2010Prop28
280
     0
102
RTVSPost2010PropOp28
 70
     1
102
RTVSPost2010Prop29
280
     1
102
RTVSPost2010PropOp29
 70
     1
102
RTVSPost2010Prop30
280
     1
102
RTVSPost2010PropOp30
 70
     1
102
RTVSPost2010Prop31
280
     0
102
RTVSPost2010PropOp31
 70
     1
102
RTVSPost2010Prop32
280
     0
102
RTVSPost2010PropOp32
 70
     1
102
RTVSPost2010Prop33
280
     0
102
RTVSPost2010PropOp33
 70
     1
102
RTVSPost2010Prop34
280
     0
102
RTVSPost2010PropOp34
 70
     1
102
RTVSPost2010Prop35
280
     0
102
RTVSPost2010PropOp35
 70
     1
102
RTVSPost2010Prop36
280
     0
102
RTVSPost2010PropOp36
 70
     1
102
RTVSPost2010Prop37
 90
       50
102
RTVSPost2010PropOp37
 70
     0
102
RTVSPost2010Prop38
140
0.0
102
RTVSPost2010PropOp38
 70
     0
102
RTVSPost2010Prop39
140
1.0
102
RTVSPost2010PropOp39
 70
     0
102
RTVSPost2010Prop40
 90
        0
102
RTVSPost2010PropOp40
 70
     0
102
RTVSPost2010Prop41ColorIndex
 90
       18
102
RTVSPost2010Prop41ColorRGB
 90
        0
102
RTVSPost2010PropOp41
 70
     0
102
RTVSPost2010Prop42
 90
       50
102
RTVSPost2010PropOp42
 70
     0
102
RTVSPost2010Prop43
 90
        3
102
RTVSPost2010PropOp43
 70
     0
102
RTVSPost2010Prop44ColorIndex
 90
        5
102
RTVSPost2010Prop44ColorRGB
 90
      255
102
RTVSPost2010PropOp44
 70
     0
102
RTVSPost2010Prop45
280
     0
102
RTVSPost2010PropOp45
 70
     1
102
RTVSPost2010Prop46
 90
       50
102
RTVSPost2010PropOp46
 70
     0
102
RTVSPost2010Prop47
 90
       50
102
RTVSPost2010PropOp47
 70
     0
102
RTVSPost2010Prop48
 90
       50
102
RTVSPost2010PropOp48
 70
     0
102
RTVSPost2010Prop49
280
     0
102
RTVSPost2010PropOp49
 70
     1
102
RTVSPost2010Prop50
 90
       50
102
RTVSPost2010PropOp50
 70
     0
102
RTVSPost2010Prop51ColorIndex
 90
      256
102
RTVSPost2010Prop51ColorRGB
 90
-16777216
102
RTVSPost2010PropOp51
 70
     0
102
RTVSPost2010Prop52
140
1.0
102
RTVSPost2010PropOp52
 70
     0
102
RTVSPost2010Prop53
 90
        2
102
RTVSPost2010PropOp53
 70
     0
102
RTVSPost2010Prop54
  1
strokes_ogs.tif
102
RTVSPost2010PropOp54
 70
     0
102
RTVSPost2010Prop55
280
     0
102
RTVSPost2010PropOp55
 70
     1
102
RTVSPost2010Prop56
140
1.0
102
RTVSPost2010PropOp56
 70
     0
102
RTVSPost2010Prop57
140
1.0
102
RTVSPost2010PropOp57
 70
     0
  0
XRECORD
  5
515
102
{ACAD_REACTORS
330
514
102
}
330
514
100
AcDbXrecord
280
     1
102
RTVSPost2010Prop28
280
     0
102
RTVSPost2010PropOp28
 70
     1
102
RTVSPost2010Prop29
280
     1
102
RTVSPost2010PropOp29
 70
     1
102
RTVSPost2010Prop30
280
     1
102
RTVSPost2010PropOp30
 70
     1
102
RTVSPost2010Prop31
280
     0
102
RTVSPost2010PropOp31
 70
     1
102
RTVSPost2010Prop32
280
     0
102
RTVSPost2010PropOp32
 70
     1
102
RTVSPost2010Prop33
280
     0
102
RTVSPost2010PropOp33
 70
     1
102
RTVSPost2010Prop34
280
     0
102
RTVSPost2010PropOp34
 70
     1
102
RTVSPost2010Prop35
280
     0
102
RTVSPost2010PropOp35
 70
     1
102
RTVSPost2010Prop36
280
     0
102
RTVSPost2010PropOp36
 70
     1
102
RTVSPost2010Prop37
 90
       50
102
RTVSPost2010PropOp37
 70
     1
102
RTVSPost2010Prop38
140
0.0
102
RTVSPost2010PropOp38
 70
     1
102
RTVSPost2010Prop39
140
1.0
102
RTVSPost2010PropOp39
 70
     1
102
RTVSPost2010Prop40
 90
        0
102
RTVSPost2010PropOp40
 70
     1
102
RTVSPost2010Prop41ColorIndex
 90
       18
102
RTVSPost2010Prop41ColorRGB
 90
        0
102
RTVSPost2010PropOp41
 70
     1
102
RTVSPost2010Prop42
 90
       50
102
RTVSPost2010PropOp42
 70
     1
102
RTVSPost2010Prop43
 90
        3
102
RTVSPost2010PropOp43
 70
     1
102
RTVSPost2010Prop44ColorIndex
 90
        5
102
RTVSPost2010Prop44ColorRGB
 90
      255
102
RTVSPost2010PropOp44
 70
     1
102
RTVSPost2010Prop45
280
     0
102
RTVSPost2010PropOp45
 70
     1
102
RTVSPost2010Prop46
 90
       50
102
RTVSPost2010PropOp46
 70
     1
102
RTVSPost2010Prop47
 90
       50
102
RTVSPost2010PropOp47
 70
     1
102
RTVSPost2010Prop48
 90
       50
102
RTVSPost2010PropOp48
 70
     1
102
RTVSPost2010Prop49
280
     0
102
RTVSPost2010PropOp49
 70
     1
102
RTVSPost2010Prop50
 90
       50
102
RTVSPost2010PropOp50
 70
     1
102
RTVSPost2010Prop51ColorIndex
 90
      256
102
RTVSPost2010Prop51ColorRGB
 90
-16777216
102
RTVSPost2010PropOp51
 70
     0
102
RTVSPost2010Prop52
140
1.0
102
RTVSPost2010PropOp52
 70
     0
102
RTVSPost2010Prop53
 90
        2
102
RTVSPost2010PropOp53
 70
     1
102
RTVSPost2010Prop54
  1
strokes_ogs.tif
102
RTVSPost2010PropOp54
 70
     1
102
RTVSPost2010Prop55
280
     0
102
RTVSPost2010PropOp55
 70
     1
102
RTVSPost2010Prop56
140
1.0
102
RTVSPost2010PropOp56
 70
     1
102
RTVSPost2010Prop57
140
1.0
102
RTVSPost2010PropOp57
 70
     1
  0
XRECORD
  5
4F9
102
{ACAD_REACTORS
330
4F8
102
}
330
4F8
100
AcDbXrecord
280
     1
102
RTVSPost2010Prop28
280
     0
102
RTVSPost2010PropOp28
 70
     1
102
RTVSPost2010Prop29
280
     1
102
RTVSPost2010PropOp29
 70
     1
102
RTVSPost2010Prop30
280
     1
102
RTVSPost2010PropOp30
 70
     1
102
RTVSPost2010Prop31
280
     0
102
RTVSPost2010PropOp31
 70
     1
102
RTVSPost2010Prop32
280
     0
102
RTVSPost2010PropOp32
 70
     1
102
RTVSPost2010Prop33
280
     0
102
RTVSPost2010PropOp33
 70
     1
102
RTVSPost2010Prop34
280
     0
102
RTVSPost2010PropOp34
 70
     1
102
RTVSPost2010Prop35
280
     0
102
RTVSPost2010PropOp35
 70
     1
102
RTVSPost2010Prop36
280
     0
102
RTVSPost2010PropOp36
 70
     1
102
RTVSPost2010Prop37
 90
       50
102
RTVSPost2010PropOp37
 70
     1
102
RTVSPost2010Prop38
140
0.0
102
RTVSPost2010PropOp38
 70
     1
102
RTVSPost2010Prop39
140
1.0
102
RTVSPost2010PropOp39
 70
     1
102
RTVSPost2010Prop40
 90
        0
102
RTVSPost2010PropOp40
 70
     1
102
RTVSPost2010Prop41ColorIndex
 90
       18
102
RTVSPost2010Prop41ColorRGB
 90
        0
102
RTVSPost2010PropOp41
 70
     1
102
RTVSPost2010Prop42
 90
       50
102
RTVSPost2010PropOp42
 70
     1
102
RTVSPost2010Prop43
 90
        3
102
RTVSPost2010PropOp43
 70
     1
102
RTVSPost2010Prop44ColorIndex
 90
        5
102
RTVSPost2010Prop44ColorRGB
 90
      255
102
RTVSPost2010PropOp44
 70
     1
102
RTVSPost2010Prop45
280
     0
102
RTVSPost2010PropOp45
 70
     1
102
RTVSPost2010Prop46
 90
       50
102
RTVSPost2010PropOp46
 70
     1
102
RTVSPost2010Prop47
 90
       50
102
RTVSPost2010PropOp47
 70
     1
102
RTVSPost2010Prop48
 90
       50
102
RTVSPost2010PropOp48
 70
     1
102
RTVSPost2010Prop49
280
     0
102
RTVSPost2010PropOp49
 70
     1
102
RTVSPost2010Prop50
 90
       50
102
RTVSPost2010PropOp50
 70
     1
102
RTVSPost2010Prop51ColorIndex
 90
      256
102
RTVSPost2010Prop51ColorRGB
 90
-16777216
102
RTVSPost2010PropOp51
 70
     0
102
RTVSPost2010Prop52
140
1.0
102
RTVSPost2010PropOp52
 70
     0
102
RTVSPost2010Prop53
 90
        2
102
RTVSPost2010PropOp53
 70
     1
102
RTVSPost2010Prop54
  1
strokes_ogs.tif
102
RTVSPost2010PropOp54
 70
     1
102
RTVSPost2010Prop55
280
     0
102
RTVSPost2010PropOp55
 70
     1
102
RTVSPost2010Prop56
140
1.0
102
RTVSPost2010PropOp56
 70
     1
102
RTVSPost2010Prop57
140
1.0
102
RTVSPost2010PropOp57
 70
     1
  0
XRECORD
  5
4FB
102
{ACAD_REACTORS
330
4FA
102
}
330
4FA
100
AcDbXrecord
280
     1
102
RTVSPost2010Prop28
280
     0
102
RTVSPost2010PropOp28
 70
     1
102
RTVSPost2010Prop29
280
     1
102
RTVSPost2010PropOp29
 70
     1
102
RTVSPost2010Prop30
280
     1
102
RTVSPost2010PropOp30
 70
     1
102
RTVSPost2010Prop31
280
     0
102
RTVSPost2010PropOp31
 70
     1
102
RTVSPost2010Prop32
280
     0
102
RTVSPost2010PropOp32
 70
     1
102
RTVSPost2010Prop33
280
     0
102
RTVSPost2010PropOp33
 70
     1
102
RTVSPost2010Prop34
280
     0
102
RTVSPost2010PropOp34
 70
     1
102
RTVSPost2010Prop35
280
     0
102
RTVSPost2010PropOp35
 70
     1
102
RTVSPost2010Prop36
280
     0
102
RTVSPost2010PropOp36
 70
     1
102
RTVSPost2010Prop37
 90
       50
102
RTVSPost2010PropOp37
 70
     1
102
RTVSPost2010Prop38
140
0.0
102
RTVSPost2010PropOp38
 70
     1
102
RTVSPost2010Prop39
140
1.0
102
RTVSPost2010PropOp39
 70
     1
102
RTVSPost2010Prop40
 90
        0
102
RTVSPost2010PropOp40
 70
     1
102
RTVSPost2010Prop41ColorIndex
 90
       18
102
RTVSPost2010Prop41ColorRGB
 90
        0
102
RTVSPost2010PropOp41
 70
     1
102
RTVSPost2010Prop42
 90
       50
102
RTVSPost2010PropOp42
 70
     1
102
RTVSPost2010Prop43
 90
        3
102
RTVSPost2010PropOp43
 70
     1
102
RTVSPost2010Prop44ColorIndex
 90
        5
102
RTVSPost2010Prop44ColorRGB
 90
      255
102
RTVSPost2010PropOp44
 70
     1
102
RTVSPost2010Prop45
280
     0
102
RTVSPost2010PropOp45
 70
     1
102
RTVSPost2010Prop46
 90
       50
102
RTVSPost2010PropOp46
 70
     1
102
RTVSPost2010Prop47
 90
       50
102
RTVSPost2010PropOp47
 70
     1
102
RTVSPost2010Prop48
 90
       50
102
RTVSPost2010PropOp48
 70
     1
102
RTVSPost2010Prop49
280
     0
102
RTVSPost2010PropOp49
 70
     1
102
RTVSPost2010Prop50
 90
       50
102
RTVSPost2010PropOp50
 70
     1
102
RTVSPost2010Prop51ColorIndex
 90
      256
102
RTVSPost2010Prop51ColorRGB
 90
-16777216
102
RTVSPost2010PropOp51
 70
     0
102
RTVSPost2010Prop52
140
1.0
102
RTVSPost2010PropOp52
 70
     0
102
RTVSPost2010Prop53
 90
        2
102
RTVSPost2010PropOp53
 70
     1
102
RTVSPost2010Prop54
  1
strokes_ogs.tif
102
RTVSPost2010PropOp54
 70
     1
102
RTVSPost2010Prop55
280
     0
102
RTVSPost2010PropOp55
 70
     1
102
RTVSPost2010Prop56
140
1.0
102
RTVSPost2010PropOp56
 70
     1
102
RTVSPost2010Prop57
140
1.0
102
RTVSPost2010PropOp57
 70
     1
  0
XRECORD
  5
4FD
102
{ACAD_REACTORS
330
4FC
102
}
330
4FC
100
AcDbXrecord
280
     1
102
RTVSPost2010Prop28
280
     0
102
RTVSPost2010PropOp28
 70
     1
102
RTVSPost2010Prop29
280
     1
102
RTVSPost2010PropOp29
 70
     1
102
RTVSPost2010Prop30
280
     1
102
RTVSPost2010PropOp30
 70
     1
102
RTVSPost2010Prop31
280
     0
102
RTVSPost2010PropOp31
 70
     1
102
RTVSPost2010Prop32
280
     0
102
RTVSPost2010PropOp32
 70
     1
102
RTVSPost2010Prop33
280
     0
102
RTVSPost2010PropOp33
 70
     1
102
RTVSPost2010Prop34
280
     0
102
RTVSPost2010PropOp34
 70
     1
102
RTVSPost2010Prop35
280
     0
102
RTVSPost2010PropOp35
 70
     1
102
RTVSPost2010Prop36
280
     0
102
RTVSPost2010PropOp36
 70
     1
102
RTVSPost2010Prop37
 90
       50
102
RTVSPost2010PropOp37
 70
     1
102
RTVSPost2010Prop38
140
0.0
102
RTVSPost2010PropOp38
 70
     1
102
RTVSPost2010Prop39
140
1.0
102
RTVSPost2010PropOp39
 70
     1
102
RTVSPost2010Prop40
 90
        0
102
RTVSPost2010PropOp40
 70
     1
102
RTVSPost2010Prop41ColorIndex
 90
       18
102
RTVSPost2010Prop41ColorRGB
 90
        0
102
RTVSPost2010PropOp41
 70
     1
102
RTVSPost2010Prop42
 90
       50
102
RTVSPost2010PropOp42
 70
     1
102
RTVSPost2010Prop43
 90
        3
102
RTVSPost2010PropOp43
 70
     1
102
RTVSPost2010Prop44ColorIndex
 90
        5
102
RTVSPost2010Prop44ColorRGB
 90
      255
102
RTVSPost2010PropOp44
 70
     1
102
RTVSPost2010Prop45
280
     0
102
RTVSPost2010PropOp45
 70
     1
102
RTVSPost2010Prop46
 90
       50
102
RTVSPost2010PropOp46
 70
     1
102
RTVSPost2010Prop47
 90
       50
102
RTVSPost2010PropOp47
 70
     1
102
RTVSPost2010Prop48
 90
       50
102
RTVSPost2010PropOp48
 70
     1
102
RTVSPost2010Prop49
280
     0
102
RTVSPost2010PropOp49
 70
     1
102
RTVSPost2010Prop50
 90
       50
102
RTVSPost2010PropOp50
 70
     1
102
RTVSPost2010Prop51ColorIndex
 90
      256
102
RTVSPost2010Prop51ColorRGB
 90
-16777216
102
RTVSPost2010PropOp51
 70
     0
102
RTVSPost2010Prop52
140
1.0
102
RTVSPost2010PropOp52
 70
     0
102
RTVSPost2010Prop53
 90
        2
102
RTVSPost2010PropOp53
 70
     1
102
RTVSPost2010Prop54
  1
strokes_ogs.tif
102
RTVSPost2010PropOp54
 70
     1
102
RTVSPost2010Prop55
280
     0
102
RTVSPost2010PropOp55
 70
     1
102
RTVSPost2010Prop56
140
1.0
102
RTVSPost2010PropOp56
 70
     1
102
RTVSPost2010Prop57
140
1.0
102
RTVSPost2010PropOp57
 70
     1
  0
XRECORD
  5
4FF
102
{ACAD_REACTORS
330
4FE
102
}
330
4FE
100
AcDbXrecord
280
     1
102
RTVSPost2010Prop28
280
     0
102
RTVSPost2010PropOp28
 70
     1
102
RTVSPost2010Prop29
280
     1
102
RTVSPost2010PropOp29
 70
     1
102
RTVSPost2010Prop30
280
     1
102
RTVSPost2010PropOp30
 70
     1
102
RTVSPost2010Prop31
280
     0
102
RTVSPost2010PropOp31
 70
     1
102
RTVSPost2010Prop32
280
     0
102
RTVSPost2010PropOp32
 70
     1
102
RTVSPost2010Prop33
280
     0
102
RTVSPost2010PropOp33
 70
     1
102
RTVSPost2010Prop34
280
     0
102
RTVSPost2010PropOp34
 70
     1
102
RTVSPost2010Prop35
280
     0
102
RTVSPost2010PropOp35
 70
     1
102
RTVSPost2010Prop36
280
     0
102
RTVSPost2010PropOp36
 70
     1
102
RTVSPost2010Prop37
 90
       50
102
RTVSPost2010PropOp37
 70
     1
102
RTVSPost2010Prop38
140
0.0
102
RTVSPost2010PropOp38
 70
     1
102
RTVSPost2010Prop39
140
1.0
102
RTVSPost2010PropOp39
 70
     1
102
RTVSPost2010Prop40
 90
        0
102
RTVSPost2010PropOp40
 70
     1
102
RTVSPost2010Prop41ColorIndex
 90
       18
102
RTVSPost2010Prop41ColorRGB
 90
        0
102
RTVSPost2010PropOp41
 70
     1
102
RTVSPost2010Prop42
 90
       50
102
RTVSPost2010PropOp42
 70
     1
102
RTVSPost2010Prop43
 90
        3
102
RTVSPost2010PropOp43
 70
     1
102
RTVSPost2010Prop44ColorIndex
 90
        5
102
RTVSPost2010Prop44ColorRGB
 90
      255
102
RTVSPost2010PropOp44
 70
     1
102
RTVSPost2010Prop45
280
     0
102
RTVSPost2010PropOp45
 70
     1
102
RTVSPost2010Prop46
 90
       50
102
RTVSPost2010PropOp46
 70
     1
102
RTVSPost2010Prop47
 90
       50
102
RTVSPost2010PropOp47
 70
     1
102
RTVSPost2010Prop48
 90
       50
102
RTVSPost2010PropOp48
 70
     1
102
RTVSPost2010Prop49
280
     0
102
RTVSPost2010PropOp49
 70
     1
102
RTVSPost2010Prop50
 90
       50
102
RTVSPost2010PropOp50
 70
     1
102
RTVSPost2010Prop51ColorIndex
 90
      256
102
RTVSPost2010Prop51ColorRGB
 90
-16777216
102
RTVSPost2010PropOp51
 70
     0
102
RTVSPost2010Prop52
140
1.0
102
RTVSPost2010PropOp52
 70
     0
102
RTVSPost2010Prop53
 90
        2
102
RTVSPost2010PropOp53
 70
     1
102
RTVSPost2010Prop54
  1
strokes_ogs.tif
102
RTVSPost2010PropOp54
 70
     1
102
RTVSPost2010Prop55
280
     0
102
RTVSPost2010PropOp55
 70
     1
102
RTVSPost2010Prop56
140
1.0
102
RTVSPost2010PropOp56
 70
     1
102
RTVSPost2010Prop57
140
1.0
102
RTVSPost2010PropOp57
 70
     1
  0
XRECORD
  5
507
102
{ACAD_REACTORS
330
506
102
}
330
506
100
AcDbXrecord
280
     1
102
RTVSPost2010Prop28
280
     0
102
RTVSPost2010PropOp28
 70
     1
102
RTVSPost2010Prop29
280
     1
102
RTVSPost2010PropOp29
 70
     1
102
RTVSPost2010Prop30
280
     1
102
RTVSPost2010PropOp30
 70
     1
102
RTVSPost2010Prop31
280
     0
102
RTVSPost2010PropOp31
 70
     1
102
RTVSPost2010Prop32
280
     0
102
RTVSPost2010PropOp32
 70
     1
102
RTVSPost2010Prop33
280
     0
102
RTVSPost2010PropOp33
 70
     1
102
RTVSPost2010Prop34
280
     0
102
RTVSPost2010PropOp34
 70
     1
102
RTVSPost2010Prop35
280
     0
102
RTVSPost2010PropOp35
 70
     1
102
RTVSPost2010Prop36
280
     0
102
RTVSPost2010PropOp36
 70
     1
102
RTVSPost2010Prop37
 90
       50
102
RTVSPost2010PropOp37
 70
     1
102
RTVSPost2010Prop38
140
0.0
102
RTVSPost2010PropOp38
 70
     1
102
RTVSPost2010Prop39
140
1.0
102
RTVSPost2010PropOp39
 70
     1
102
RTVSPost2010Prop40
 90
        0
102
RTVSPost2010PropOp40
 70
     1
102
RTVSPost2010Prop41ColorIndex
 90
       18
102
RTVSPost2010Prop41ColorRGB
 90
        0
102
RTVSPost2010PropOp41
 70
     1
102
RTVSPost2010Prop42
 90
       50
102
RTVSPost2010PropOp42
 70
     1
102
RTVSPost2010Prop43
 90
        3
102
RTVSPost2010PropOp43
 70
     1
102
RTVSPost2010Prop44ColorIndex
 90
        5
102
RTVSPost2010Prop44ColorRGB
 90
      255
102
RTVSPost2010PropOp44
 70
     1
102
RTVSPost2010Prop45
280
     0
102
RTVSPost2010PropOp45
 70
     1
102
RTVSPost2010Prop46
 90
       50
102
RTVSPost2010PropOp46
 70
     1
102
RTVSPost2010Prop47
 90
       50
102
RTVSPost2010PropOp47
 70
     1
102
RTVSPost2010Prop48
 90
       50
102
RTVSPost2010PropOp48
 70
     1
102
RTVSPost2010Prop49
280
     0
102
RTVSPost2010PropOp49
 70
     1
102
RTVSPost2010Prop50
 90
       50
102
RTVSPost2010PropOp50
 70
     1
102
RTVSPost2010Prop51ColorIndex
 90
      256
102
RTVSPost2010Prop51ColorRGB
 90
-16777216
102
RTVSPost2010PropOp51
 70
     0
102
RTVSPost2010Prop52
140
1.0
102
RTVSPost2010PropOp52
 70
     0
102
RTVSPost2010Prop53
 90
        2
102
RTVSPost2010PropOp53
 70
     1
102
RTVSPost2010Prop54
  1
strokes_ogs.tif
102
RTVSPost2010PropOp54
 70
     1
102
RTVSPost2010Prop55
280
     0
102
RTVSPost2010PropOp55
 70
     1
102
RTVSPost2010Prop56
140
1.0
102
RTVSPost2010PropOp56
 70
     1
102
RTVSPost2010Prop57
140
1.0
102
RTVSPost2010PropOp57
 70
     1
  0
XRECORD
  5
523
102
{ACAD_REACTORS
330
522
102
}
330
522
100
AcDbXrecord
280
     1
102
RTVSPost2010Prop28
280
     0
102
RTVSPost2010PropOp28
 70
     1
102
RTVSPost2010Prop29
280
     1
102
RTVSPost2010PropOp29
 70
     1
102
RTVSPost2010Prop30
280
     1
102
RTVSPost2010PropOp30
 70
     1
102
RTVSPost2010Prop31
280
     0
102
RTVSPost2010PropOp31
 70
     1
102
RTVSPost2010Prop32
280
     0
102
RTVSPost2010PropOp32
 70
     1
102
RTVSPost2010Prop33
280
     0
102
RTVSPost2010PropOp33
 70
     1
102
RTVSPost2010Prop34
280
     0
102
RTVSPost2010PropOp34
 70
     1
102
RTVSPost2010Prop35
280
     0
102
RTVSPost2010PropOp35
 70
     1
102
RTVSPost2010Prop36
280
     0
102
RTVSPost2010PropOp36
 70
     1
102
RTVSPost2010Prop37
 90
       50
102
RTVSPost2010PropOp37
 70
     0
102
RTVSPost2010Prop38
140
0.0
102
RTVSPost2010PropOp38
 70
     0
102
RTVSPost2010Prop39
140
1.0
102
RTVSPost2010PropOp39
 70
     0
102
RTVSPost2010Prop40
 90
        0
102
RTVSPost2010PropOp40
 70
     0
102
RTVSPost2010Prop41ColorIndex
 90
       18
102
RTVSPost2010Prop41ColorRGB
 90
        0
102
RTVSPost2010PropOp41
 70
     0
102
RTVSPost2010Prop42
 90
       50
102
RTVSPost2010PropOp42
 70
     0
102
RTVSPost2010Prop43
 90
        3
102
RTVSPost2010PropOp43
 70
     0
102
RTVSPost2010Prop44ColorIndex
 90
        5
102
RTVSPost2010Prop44ColorRGB
 90
      255
102
RTVSPost2010PropOp44
 70
     0
102
RTVSPost2010Prop45
280
     0
102
RTVSPost2010PropOp45
 70
     1
102
RTVSPost2010Prop46
 90
       50
102
RTVSPost2010PropOp46
 70
     0
102
RTVSPost2010Prop47
 90
       50
102
RTVSPost2010PropOp47
 70
     0
102
RTVSPost2010Prop48
 90
       50
102
RTVSPost2010PropOp48
 70
     0
102
RTVSPost2010Prop49
280
     0
102
RTVSPost2010PropOp49
 70
     1
102
RTVSPost2010Prop50
 90
       50
102
RTVSPost2010PropOp50
 70
     0
102
RTVSPost2010Prop51ColorIndex
 90
      256
102
RTVSPost2010Prop51ColorRGB
 90
-16777216
102
RTVSPost2010PropOp51
 70
     0
102
RTVSPost2010Prop52
140
1.0
102
RTVSPost2010PropOp52
 70
     0
102
RTVSPost2010Prop53
 90
        2
102
RTVSPost2010PropOp53
 70
     0
102
RTVSPost2010Prop54
  1
strokes_ogs.tif
102
RTVSPost2010PropOp54
 70
     0
102
RTVSPost2010Prop55
280
     0
102
RTVSPost2010PropOp55
 70
     1
102
RTVSPost2010Prop56
140
1.0
102
RTVSPost2010PropOp56
 70
     0
102
RTVSPost2010Prop57
140
1.0
102
RTVSPost2010PropOp57
 70
     0
  0
XRECORD
  5
513
102
{ACAD_REACTORS
330
512
102
}
330
512
100
AcDbXrecord
280
     1
102
RTVSPost2010Prop28
280
     0
102
RTVSPost2010PropOp28
 70
     1
102
RTVSPost2010Prop29
280
     1
102
RTVSPost2010PropOp29
 70
     1
102
RTVSPost2010Prop30
280
     1
102
RTVSPost2010PropOp30
 70
     1
102
RTVSPost2010Prop31
280
     0
102
RTVSPost2010PropOp31
 70
     1
102
RTVSPost2010Prop32
280
     0
102
RTVSPost2010PropOp32
 70
     1
102
RTVSPost2010Prop33
280
     0
102
RTVSPost2010PropOp33
 70
     1
102
RTVSPost2010Prop34
280
     0
102
RTVSPost2010PropOp34
 70
     1
102
RTVSPost2010Prop35
280
     0
102
RTVSPost2010PropOp35
 70
     1
102
RTVSPost2010Prop36
280
     0
102
RTVSPost2010PropOp36
 70
     1
102
RTVSPost2010Prop37
 90
       50
102
RTVSPost2010PropOp37
 70
     1
102
RTVSPost2010Prop38
140
0.0
102
RTVSPost2010PropOp38
 70
     1
102
RTVSPost2010Prop39
140
1.0
102
RTVSPost2010PropOp39
 70
     1
102
RTVSPost2010Prop40
 90
        0
102
RTVSPost2010PropOp40
 70
     1
102
RTVSPost2010Prop41ColorIndex
 90
       18
102
RTVSPost2010Prop41ColorRGB
 90
        0
102
RTVSPost2010PropOp41
 70
     1
102
RTVSPost2010Prop42
 90
       50
102
RTVSPost2010PropOp42
 70
     1
102
RTVSPost2010Prop43
 90
        3
102
RTVSPost2010PropOp43
 70
     1
102
RTVSPost2010Prop44ColorIndex
 90
        5
102
RTVSPost2010Prop44ColorRGB
 90
      255
102
RTVSPost2010PropOp44
 70
     1
102
RTVSPost2010Prop45
280
     0
102
RTVSPost2010PropOp45
 70
     1
102
RTVSPost2010Prop46
 90
       50
102
RTVSPost2010PropOp46
 70
     1
102
RTVSPost2010Prop47
 90
       50
102
RTVSPost2010PropOp47
 70
     1
102
RTVSPost2010Prop48
 90
       50
102
RTVSPost2010PropOp48
 70
     1
102
RTVSPost2010Prop49
280
     0
102
RTVSPost2010PropOp49
 70
     1
102
RTVSPost2010Prop50
 90
       50
102
RTVSPost2010PropOp50
 70
     1
102
RTVSPost2010Prop51ColorIndex
 90
      256
102
RTVSPost2010Prop51ColorRGB
 90
-16777216
102
RTVSPost2010PropOp51
 70
     0
102
RTVSPost2010Prop52
140
1.0
102
RTVSPost2010PropOp52
 70
     0
102
RTVSPost2010Prop53
 90
        2
102
RTVSPost2010PropOp53
 70
     1
102
RTVSPost2010Prop54
  1
strokes_ogs.tif
102
RTVSPost2010PropOp54
 70
     1
102
RTVSPost2010Prop55
280
     0
102
RTVSPost2010PropOp55
 70
     1
102
RTVSPost2010Prop56
140
1.0
102
RTVSPost2010PropOp56
 70
     1
102
RTVSPost2010Prop57
140
1.0
102
RTVSPost2010PropOp57
 70
     1
  0
XRECORD
  5
525
102
{ACAD_REACTORS
330
524
102
}
330
524
100
AcDbXrecord
280
     1
102
RTVSPost2010Prop28
280
     0
102
RTVSPost2010PropOp28
 70
     1
102
RTVSPost2010Prop29
280
     1
102
RTVSPost2010PropOp29
 70
     1
102
RTVSPost2010Prop30
280
     1
102
RTVSPost2010PropOp30
 70
     1
102
RTVSPost2010Prop31
280
     0
102
RTVSPost2010PropOp31
 70
     1
102
RTVSPost2010Prop32
280
     0
102
RTVSPost2010PropOp32
 70
     1
102
RTVSPost2010Prop33
280
     0
102
RTVSPost2010PropOp33
 70
     1
102
RTVSPost2010Prop34
280
     0
102
RTVSPost2010PropOp34
 70
     1
102
RTVSPost2010Prop35
280
     0
102
RTVSPost2010PropOp35
 70
     1
102
RTVSPost2010Prop36
280
     0
102
RTVSPost2010PropOp36
 70
     1
102
RTVSPost2010Prop37
 90
       50
102
RTVSPost2010PropOp37
 70
     0
102
RTVSPost2010Prop38
140
0.0
102
RTVSPost2010PropOp38
 70
     0
102
RTVSPost2010Prop39
140
1.0
102
RTVSPost2010PropOp39
 70
     0
102
RTVSPost2010Prop40
 90
        0
102
RTVSPost2010PropOp40
 70
     0
102
RTVSPost2010Prop41ColorIndex
 90
       18
102
RTVSPost2010Prop41ColorRGB
 90
        0
102
RTVSPost2010PropOp41
 70
     0
102
RTVSPost2010Prop42
 90
       50
102
RTVSPost2010PropOp42
 70
     0
102
RTVSPost2010Prop43
 90
        3
102
RTVSPost2010PropOp43
 70
     0
102
RTVSPost2010Prop44ColorIndex
 90
        5
102
RTVSPost2010Prop44ColorRGB
 90
      255
102
RTVSPost2010PropOp44
 70
     0
102
RTVSPost2010Prop45
280
     0
102
RTVSPost2010PropOp45
 70
     1
102
RTVSPost2010Prop46
 90
       50
102
RTVSPost2010PropOp46
 70
     0
102
RTVSPost2010Prop47
 90
       50
102
RTVSPost2010PropOp47
 70
     0
102
RTVSPost2010Prop48
 90
       50
102
RTVSPost2010PropOp48
 70
     0
102
RTVSPost2010Prop49
280
     0
102
RTVSPost2010PropOp49
 70
     1
102
RTVSPost2010Prop50
 90
       50
102
RTVSPost2010PropOp50
 70
     0
102
RTVSPost2010Prop51ColorIndex
 90
      256
102
RTVSPost2010Prop51ColorRGB
 90
-16777216
102
RTVSPost2010PropOp51
 70
     0
102
RTVSPost2010Prop52
140
1.0
102
RTVSPost2010PropOp52
 70
     0
102
RTVSPost2010Prop53
 90
        2
102
RTVSPost2010PropOp53
 70
     0
102
RTVSPost2010Prop54
  1
strokes_ogs.tif
102
RTVSPost2010PropOp54
 70
     0
102
RTVSPost2010Prop55
280
     0
102
RTVSPost2010PropOp55
 70
     1
102
RTVSPost2010Prop56
140
1.0
102
RTVSPost2010PropOp56
 70
     0
102
RTVSPost2010Prop57
140
1.0
102
RTVSPost2010PropOp57
 70
     0
  0
XRECORD
  5
50B
102
{ACAD_REACTORS
330
50A
102
}
330
50A
100
AcDbXrecord
280
     1
102
RTVSPost2010Prop28
280
     0
102
RTVSPost2010PropOp28
 70
     1
102
RTVSPost2010Prop29
280
     1
102
RTVSPost2010PropOp29
 70
     1
102
RTVSPost2010Prop30
280
     1
102
RTVSPost2010PropOp30
 70
     1
102
RTVSPost2010Prop31
280
     0
102
RTVSPost2010PropOp31
 70
     1
102
RTVSPost2010Prop32
280
     0
102
RTVSPost2010PropOp32
 70
     1
102
RTVSPost2010Prop33
280
     0
102
RTVSPost2010PropOp33
 70
     1
102
RTVSPost2010Prop34
280
     0
102
RTVSPost2010PropOp34
 70
     1
102
RTVSPost2010Prop35
280
     0
102
RTVSPost2010PropOp35
 70
     1
102
RTVSPost2010Prop36
280
     0
102
RTVSPost2010PropOp36
 70
     1
102
RTVSPost2010Prop37
 90
       50
102
RTVSPost2010PropOp37
 70
     1
102
RTVSPost2010Prop38
140
0.0
102
RTVSPost2010PropOp38
 70
     1
102
RTVSPost2010Prop39
140
1.0
102
RTVSPost2010PropOp39
 70
     1
102
RTVSPost2010Prop40
 90
        0
102
RTVSPost2010PropOp40
 70
     1
102
RTVSPost2010Prop41ColorIndex
 90
       18
102
RTVSPost2010Prop41ColorRGB
 90
        0
102
RTVSPost2010PropOp41
 70
     1
102
RTVSPost2010Prop42
 90
       50
102
RTVSPost2010PropOp42
 70
     1
102
RTVSPost2010Prop43
 90
        3
102
RTVSPost2010PropOp43
 70
     1
102
RTVSPost2010Prop44ColorIndex
 90
        5
102
RTVSPost2010Prop44ColorRGB
 90
      255
102
RTVSPost2010PropOp44
 70
     1
102
RTVSPost2010Prop45
280
     0
102
RTVSPost2010PropOp45
 70
     1
102
RTVSPost2010Prop46
 90
       50
102
RTVSPost2010PropOp46
 70
     1
102
RTVSPost2010Prop47
 90
       50
102
RTVSPost2010PropOp47
 70
     1
102
RTVSPost2010Prop48
 90
       50
102
RTVSPost2010PropOp48
 70
     1
102
RTVSPost2010Prop49
280
     0
102
RTVSPost2010PropOp49
 70
     1
102
RTVSPost2010Prop50
 90
       50
102
RTVSPost2010PropOp50
 70
     1
102
RTVSPost2010Prop51ColorIndex
 90
      256
102
RTVSPost2010Prop51ColorRGB
 90
-16777216
102
RTVSPost2010PropOp51
 70
     0
102
RTVSPost2010Prop52
140
1.0
102
RTVSPost2010PropOp52
 70
     0
102
RTVSPost2010Prop53
 90
        2
102
RTVSPost2010PropOp53
 70
     1
102
RTVSPost2010Prop54
  1
strokes_ogs.tif
102
RTVSPost2010PropOp54
 70
     1
102
RTVSPost2010Prop55
280
     0
102
RTVSPost2010PropOp55
 70
     1
102
RTVSPost2010Prop56
140
1.0
102
RTVSPost2010PropOp56
 70
     1
102
RTVSPost2010Prop57
140
1.0
102
RTVSPost2010PropOp57
 70
     1
  0
XRECORD
  5
521
102
{ACAD_REACTORS
330
520
102
}
330
520
100
AcDbXrecord
280
     1
102
RTVSPost2010Prop28
280
     0
102
RTVSPost2010PropOp28
 70
     1
102
RTVSPost2010Prop29
280
     1
102
RTVSPost2010PropOp29
 70
     1
102
RTVSPost2010Prop30
280
     1
102
RTVSPost2010PropOp30
 70
     1
102
RTVSPost2010Prop31
280
     0
102
RTVSPost2010PropOp31
 70
     1
102
RTVSPost2010Prop32
280
     0
102
RTVSPost2010PropOp32
 70
     1
102
RTVSPost2010Prop33
280
     0
102
RTVSPost2010PropOp33
 70
     1
102
RTVSPost2010Prop34
280
     0
102
RTVSPost2010PropOp34
 70
     1
102
RTVSPost2010Prop35
280
     0
102
RTVSPost2010PropOp35
 70
     1
102
RTVSPost2010Prop36
280
     0
102
RTVSPost2010PropOp36
 70
     1
102
RTVSPost2010Prop37
 90
       50
102
RTVSPost2010PropOp37
 70
     1
102
RTVSPost2010Prop38
140
0.0
102
RTVSPost2010PropOp38
 70
     1
102
RTVSPost2010Prop39
140
1.0
102
RTVSPost2010PropOp39
 70
     1
102
RTVSPost2010Prop40
 90
        0
102
RTVSPost2010PropOp40
 70
     1
102
RTVSPost2010Prop41ColorIndex
 90
       18
102
RTVSPost2010Prop41ColorRGB
 90
        0
102
RTVSPost2010PropOp41
 70
     1
102
RTVSPost2010Prop42
 90
       50
102
RTVSPost2010PropOp42
 70
     1
102
RTVSPost2010Prop43
 90
        3
102
RTVSPost2010PropOp43
 70
     1
102
RTVSPost2010Prop44ColorIndex
 90
        5
102
RTVSPost2010Prop44ColorRGB
 90
      255
102
RTVSPost2010PropOp44
 70
     1
102
RTVSPost2010Prop45
280
     0
102
RTVSPost2010PropOp45
 70
     1
102
RTVSPost2010Prop46
 90
       50
102
RTVSPost2010PropOp46
 70
     1
102
RTVSPost2010Prop47
 90
       50
102
RTVSPost2010PropOp47
 70
     1
102
RTVSPost2010Prop48
 90
       50
102
RTVSPost2010PropOp48
 70
     1
102
RTVSPost2010Prop49
280
     0
102
RTVSPost2010PropOp49
 70
     1
102
RTVSPost2010Prop50
 90
       50
102
RTVSPost2010PropOp50
 70
     1
102
RTVSPost2010Prop51ColorIndex
 90
      256
102
RTVSPost2010Prop51ColorRGB
 90
-16777216
102
RTVSPost2010PropOp51
 70
     0
102
RTVSPost2010Prop52
140
1.0
102
RTVSPost2010PropOp52
 70
     0
102
RTVSPost2010Prop53
 90
        2
102
RTVSPost2010PropOp53
 70
     1
102
RTVSPost2010Prop54
  1
strokes_ogs.tif
102
RTVSPost2010PropOp54
 70
     1
102
RTVSPost2010Prop55
280
     0
102
RTVSPost2010PropOp55
 70
     1
102
RTVSPost2010Prop56
140
1.0
102
RTVSPost2010PropOp56
 70
     1
102
RTVSPost2010Prop57
140
1.0
102
RTVSPost2010PropOp57
 70
     1
  0
XRECORD
  5
51F
102
{ACAD_REACTORS
330
51E
102
}
330
51E
100
AcDbXrecord
280
     1
102
RTVSPost2010Prop28
280
     0
102
RTVSPost2010PropOp28
 70
     1
102
RTVSPost2010Prop29
280
     1
102
RTVSPost2010PropOp29
 70
     1
102
RTVSPost2010Prop30
280
     1
102
RTVSPost2010PropOp30
 70
     1
102
RTVSPost2010Prop31
280
     0
102
RTVSPost2010PropOp31
 70
     1
102
RTVSPost2010Prop32
280
     0
102
RTVSPost2010PropOp32
 70
     1
102
RTVSPost2010Prop33
280
     0
102
RTVSPost2010PropOp33
 70
     1
102
RTVSPost2010Prop34
280
     0
102
RTVSPost2010PropOp34
 70
     1
102
RTVSPost2010Prop35
280
     0
102
RTVSPost2010PropOp35
 70
     1
102
RTVSPost2010Prop36
280
     0
102
RTVSPost2010PropOp36
 70
     1
102
RTVSPost2010Prop37
 90
       50
102
RTVSPost2010PropOp37
 70
     1
102
RTVSPost2010Prop38
140
0.0
102
RTVSPost2010PropOp38
 70
     1
102
RTVSPost2010Prop39
140
1.0
102
RTVSPost2010PropOp39
 70
     1
102
RTVSPost2010Prop40
 90
        0
102
RTVSPost2010PropOp40
 70
     1
102
RTVSPost2010Prop41ColorIndex
 90
       18
102
RTVSPost2010Prop41ColorRGB
 90
        0
102
RTVSPost2010PropOp41
 70
     1
102
RTVSPost2010Prop42
 90
       50
102
RTVSPost2010PropOp42
 70
     1
102
RTVSPost2010Prop43
 90
        3
102
RTVSPost2010PropOp43
 70
     1
102
RTVSPost2010Prop44ColorIndex
 90
        5
102
RTVSPost2010Prop44ColorRGB
 90
      255
102
RTVSPost2010PropOp44
 70
     1
102
RTVSPost2010Prop45
280
     0
102
RTVSPost2010PropOp45
 70
     1
102
RTVSPost2010Prop46
 90
       50
102
RTVSPost2010PropOp46
 70
     1
102
RTVSPost2010Prop47
 90
       50
102
RTVSPost2010PropOp47
 70
     1
102
RTVSPost2010Prop48
 90
       50
102
RTVSPost2010PropOp48
 70
     1
102
RTVSPost2010Prop49
280
     0
102
RTVSPost2010PropOp49
 70
     1
102
RTVSPost2010Prop50
 90
       50
102
RTVSPost2010PropOp50
 70
     1
102
RTVSPost2010Prop51ColorIndex
 90
      256
102
RTVSPost2010Prop51ColorRGB
 90
-16777216
102
RTVSPost2010PropOp51
 70
     0
102
RTVSPost2010Prop52
140
1.0
102
RTVSPost2010PropOp52
 70
     0
102
RTVSPost2010Prop53
 90
        2
102
RTVSPost2010PropOp53
 70
     1
102
RTVSPost2010Prop54
  1
strokes_ogs.tif
102
RTVSPost2010PropOp54
 70
     1
102
RTVSPost2010Prop55
280
     0
102
RTVSPost2010PropOp55
 70
     1
102
RTVSPost2010Prop56
140
1.0
102
RTVSPost2010PropOp56
 70
     1
102
RTVSPost2010Prop57
140
1.0
102
RTVSPost2010PropOp57
 70
     1
  0
XRECORD
  5
519
102
{ACAD_REACTORS
330
518
102
}
330
518
100
AcDbXrecord
280
     1
102
RTVSPost2010Prop28
280
     0
102
RTVSPost2010PropOp28
 70
     1
102
RTVSPost2010Prop29
280
     1
102
RTVSPost2010PropOp29
 70
     1
102
RTVSPost2010Prop30
280
     1
102
RTVSPost2010PropOp30
 70
     1
102
RTVSPost2010Prop31
280
     0
102
RTVSPost2010PropOp31
 70
     1
102
RTVSPost2010Prop32
280
     0
102
RTVSPost2010PropOp32
 70
     1
102
RTVSPost2010Prop33
280
     0
102
RTVSPost2010PropOp33
 70
     1
102
RTVSPost2010Prop34
280
     0
102
RTVSPost2010PropOp34
 70
     1
102
RTVSPost2010Prop35
280
     0
102
RTVSPost2010PropOp35
 70
     1
102
RTVSPost2010Prop36
280
     0
102
RTVSPost2010PropOp36
 70
     1
102
RTVSPost2010Prop37
 90
       50
102
RTVSPost2010PropOp37
 70
     1
102
RTVSPost2010Prop38
140
0.0
102
RTVSPost2010PropOp38
 70
     1
102
RTVSPost2010Prop39
140
1.0
102
RTVSPost2010PropOp39
 70
     1
102
RTVSPost2010Prop40
 90
        0
102
RTVSPost2010PropOp40
 70
     1
102
RTVSPost2010Prop41ColorIndex
 90
       18
102
RTVSPost2010Prop41ColorRGB
 90
        0
102
RTVSPost2010PropOp41
 70
     1
102
RTVSPost2010Prop42
 90
       50
102
RTVSPost2010PropOp42
 70
     1
102
RTVSPost2010Prop43
 90
        3
102
RTVSPost2010PropOp43
 70
     1
102
RTVSPost2010Prop44ColorIndex
 90
        5
102
RTVSPost2010Prop44ColorRGB
 90
      255
102
RTVSPost2010PropOp44
 70
     1
102
RTVSPost2010Prop45
280
     0
102
RTVSPost2010PropOp45
 70
     1
102
RTVSPost2010Prop46
 90
       50
102
RTVSPost2010PropOp46
 70
     1
102
RTVSPost2010Prop47
 90
       50
102
RTVSPost2010PropOp47
 70
     1
102
RTVSPost2010Prop48
 90
       50
102
RTVSPost2010PropOp48
 70
     1
102
RTVSPost2010Prop49
280
     0
102
RTVSPost2010PropOp49
 70
     1
102
RTVSPost2010Prop50
 90
       50
102
RTVSPost2010PropOp50
 70
     1
102
RTVSPost2010Prop51ColorIndex
 90
      256
102
RTVSPost2010Prop51ColorRGB
 90
-16777216
102
RTVSPost2010PropOp51
 70
     0
102
RTVSPost2010Prop52
140
1.0
102
RTVSPost2010PropOp52
 70
     0
102
RTVSPost2010Prop53
 90
        2
102
RTVSPost2010PropOp53
 70
     1
102
RTVSPost2010Prop54
  1
strokes_ogs.tif
102
RTVSPost2010PropOp54
 70
     1
102
RTVSPost2010Prop55
280
     0
102
RTVSPost2010PropOp55
 70
     1
102
RTVSPost2010Prop56
140
1.0
102
RTVSPost2010PropOp56
 70
     1
102
RTVSPost2010Prop57
140
1.0
102
RTVSPost2010PropOp57
 70
     1
  0
XRECORD
  5
51B
102
{ACAD_REACTORS
330
51A
102
}
330
51A
100
AcDbXrecord
280
     1
102
RTVSPost2010Prop28
280
     0
102
RTVSPost2010PropOp28
 70
     1
102
RTVSPost2010Prop29
280
     1
102
RTVSPost2010PropOp29
 70
     1
102
RTVSPost2010Prop30
280
     1
102
RTVSPost2010PropOp30
 70
     1
102
RTVSPost2010Prop31
280
     0
102
RTVSPost2010PropOp31
 70
     1
102
RTVSPost2010Prop32
280
     0
102
RTVSPost2010PropOp32
 70
     1
102
RTVSPost2010Prop33
280
     0
102
RTVSPost2010PropOp33
 70
     1
102
RTVSPost2010Prop34
280
     0
102
RTVSPost2010PropOp34
 70
     1
102
RTVSPost2010Prop35
280
     0
102
RTVSPost2010PropOp35
 70
     1
102
RTVSPost2010Prop36
280
     0
102
RTVSPost2010PropOp36
 70
     1
102
RTVSPost2010Prop37
 90
       50
102
RTVSPost2010PropOp37
 70
     1
102
RTVSPost2010Prop38
140
0.0
102
RTVSPost2010PropOp38
 70
     1
102
RTVSPost2010Prop39
140
1.0
102
RTVSPost2010PropOp39
 70
     1
102
RTVSPost2010Prop40
 90
        0
102
RTVSPost2010PropOp40
 70
     1
102
RTVSPost2010Prop41ColorIndex
 90
       18
102
RTVSPost2010Prop41ColorRGB
 90
        0
102
RTVSPost2010PropOp41
 70
     1
102
RTVSPost2010Prop42
 90
       50
102
RTVSPost2010PropOp42
 70
     1
102
RTVSPost2010Prop43
 90
        3
102
RTVSPost2010PropOp43
 70
     1
102
RTVSPost2010Prop44ColorIndex
 90
        5
102
RTVSPost2010Prop44ColorRGB
 90
      255
102
RTVSPost2010PropOp44
 70
     1
102
RTVSPost2010Prop45
280
     0
102
RTVSPost2010PropOp45
 70
     1
102
RTVSPost2010Prop46
 90
       50
102
RTVSPost2010PropOp46
 70
     1
102
RTVSPost2010Prop47
 90
       50
102
RTVSPost2010PropOp47
 70
     1
102
RTVSPost2010Prop48
 90
       50
102
RTVSPost2010PropOp48
 70
     1
102
RTVSPost2010Prop49
280
     0
102
RTVSPost2010PropOp49
 70
     1
102
RTVSPost2010Prop50
 90
       50
102
RTVSPost2010PropOp50
 70
     1
102
RTVSPost2010Prop51ColorIndex
 90
      256
102
RTVSPost2010Prop51ColorRGB
 90
-16777216
102
RTVSPost2010PropOp51
 70
     0
102
RTVSPost2010Prop52
140
1.0
102
RTVSPost2010PropOp52
 70
     0
102
RTVSPost2010Prop53
 90
        2
102
RTVSPost2010PropOp53
 70
     1
102
RTVSPost2010Prop54
  1
strokes_ogs.tif
102
RTVSPost2010PropOp54
 70
     1
102
RTVSPost2010Prop55
280
     0
102
RTVSPost2010PropOp55
 70
     1
102
RTVSPost2010Prop56
140
1.0
102
RTVSPost2010PropOp56
 70
     1
102
RTVSPost2010Prop57
140
1.0
102
RTVSPost2010PropOp57
 70
     1
  0
XRECORD
  5
511
102
{ACAD_REACTORS
330
510
102
}
330
510
100
AcDbXrecord
280
     1
102
RTVSPost2010Prop28
280
     0
102
RTVSPost2010PropOp28
 70
     1
102
RTVSPost2010Prop29
280
     1
102
RTVSPost2010PropOp29
 70
     1
102
RTVSPost2010Prop30
280
     1
102
RTVSPost2010PropOp30
 70
     1
102
RTVSPost2010Prop31
280
     0
102
RTVSPost2010PropOp31
 70
     1
102
RTVSPost2010Prop32
280
     0
102
RTVSPost2010PropOp32
 70
     1
102
RTVSPost2010Prop33
280
     0
102
RTVSPost2010PropOp33
 70
     1
102
RTVSPost2010Prop34
280
     0
102
RTVSPost2010PropOp34
 70
     1
102
RTVSPost2010Prop35
280
     0
102
RTVSPost2010PropOp35
 70
     1
102
RTVSPost2010Prop36
280
     0
102
RTVSPost2010PropOp36
 70
     1
102
RTVSPost2010Prop37
 90
       50
102
RTVSPost2010PropOp37
 70
     1
102
RTVSPost2010Prop38
140
0.0
102
RTVSPost2010PropOp38
 70
     1
102
RTVSPost2010Prop39
140
1.0
102
RTVSPost2010PropOp39
 70
     1
102
RTVSPost2010Prop40
 90
        0
102
RTVSPost2010PropOp40
 70
     1
102
RTVSPost2010Prop41ColorIndex
 90
       18
102
RTVSPost2010Prop41ColorRGB
 90
        0
102
RTVSPost2010PropOp41
 70
     1
102
RTVSPost2010Prop42
 90
       50
102
RTVSPost2010PropOp42
 70
     1
102
RTVSPost2010Prop43
 90
        3
102
RTVSPost2010PropOp43
 70
     1
102
RTVSPost2010Prop44ColorIndex
 90
        5
102
RTVSPost2010Prop44ColorRGB
 90
      255
102
RTVSPost2010PropOp44
 70
     1
102
RTVSPost2010Prop45
280
     0
102
RTVSPost2010PropOp45
 70
     1
102
RTVSPost2010Prop46
 90
       50
102
RTVSPost2010PropOp46
 70
     1
102
RTVSPost2010Prop47
 90
       50
102
RTVSPost2010PropOp47
 70
     1
102
RTVSPost2010Prop48
 90
       50
102
RTVSPost2010PropOp48
 70
     1
102
RTVSPost2010Prop49
280
     0
102
RTVSPost2010PropOp49
 70
     1
102
RTVSPost2010Prop50
 90
       50
102
RTVSPost2010PropOp50
 70
     1
102
RTVSPost2010Prop51ColorIndex
 90
      256
102
RTVSPost2010Prop51ColorRGB
 90
-16777216
102
RTVSPost2010PropOp51
 70
     0
102
RTVSPost2010Prop52
140
1.0
102
RTVSPost2010PropOp52
 70
     0
102
RTVSPost2010Prop53
 90
        2
102
RTVSPost2010PropOp53
 70
     1
102
RTVSPost2010Prop54
  1
strokes_ogs.tif
102
RTVSPost2010PropOp54
 70
     1
102
RTVSPost2010Prop55
280
     0
102
RTVSPost2010PropOp55
 70
     1
102
RTVSPost2010Prop56
140
1.0
102
RTVSPost2010PropOp56
 70
     1
102
RTVSPost2010Prop57
140
1.0
102
RTVSPost2010PropOp57
 70
     1
  0
XRECORD
  5
505
102
{ACAD_REACTORS
330
504
102
}
330
504
100
AcDbXrecord
280
     1
102
RTVSPost2010Prop28
280
     0
102
RTVSPost2010PropOp28
 70
     1
102
RTVSPost2010Prop29
280
     1
102
RTVSPost2010PropOp29
 70
     1
102
RTVSPost2010Prop30
280
     1
102
RTVSPost2010PropOp30
 70
     1
102
RTVSPost2010Prop31
280
     0
102
RTVSPost2010PropOp31
 70
     1
102
RTVSPost2010Prop32
280
     0
102
RTVSPost2010PropOp32
 70
     1
102
RTVSPost2010Prop33
280
     0
102
RTVSPost2010PropOp33
 70
     1
102
RTVSPost2010Prop34
280
     0
102
RTVSPost2010PropOp34
 70
     1
102
RTVSPost2010Prop35
280
     0
102
RTVSPost2010PropOp35
 70
     1
102
RTVSPost2010Prop36
280
     0
102
RTVSPost2010PropOp36
 70
     1
102
RTVSPost2010Prop37
 90
       50
102
RTVSPost2010PropOp37
 70
     1
102
RTVSPost2010Prop38
140
0.0
102
RTVSPost2010PropOp38
 70
     1
102
RTVSPost2010Prop39
140
1.0
102
RTVSPost2010PropOp39
 70
     1
102
RTVSPost2010Prop40
 90
        0
102
RTVSPost2010PropOp40
 70
     1
102
RTVSPost2010Prop41ColorIndex
 90
       18
102
RTVSPost2010Prop41ColorRGB
 90
        0
102
RTVSPost2010PropOp41
 70
     1
102
RTVSPost2010Prop42
 90
       50
102
RTVSPost2010PropOp42
 70
     1
102
RTVSPost2010Prop43
 90
        3
102
RTVSPost2010PropOp43
 70
     1
102
RTVSPost2010Prop44ColorIndex
 90
        5
102
RTVSPost2010Prop44ColorRGB
 90
      255
102
RTVSPost2010PropOp44
 70
     1
102
RTVSPost2010Prop45
280
     0
102
RTVSPost2010PropOp45
 70
     1
102
RTVSPost2010Prop46
 90
       50
102
RTVSPost2010PropOp46
 70
     1
102
RTVSPost2010Prop47
 90
       50
102
RTVSPost2010PropOp47
 70
     1
102
RTVSPost2010Prop48
 90
       50
102
RTVSPost2010PropOp48
 70
     1
102
RTVSPost2010Prop49
280
     0
102
RTVSPost2010PropOp49
 70
     1
102
RTVSPost2010Prop50
 90
       50
102
RTVSPost2010PropOp50
 70
     1
102
RTVSPost2010Prop51ColorIndex
 90
      256
102
RTVSPost2010Prop51ColorRGB
 90
-16777216
102
RTVSPost2010PropOp51
 70
     0
102
RTVSPost2010Prop52
140
1.0
102
RTVSPost2010PropOp52
 70
     0
102
RTVSPost2010Prop53
 90
        2
102
RTVSPost2010PropOp53
 70
     1
102
RTVSPost2010Prop54
  1
strokes_ogs.tif
102
RTVSPost2010PropOp54
 70
     1
102
RTVSPost2010Prop55
280
     0
102
RTVSPost2010PropOp55
 70
     1
102
RTVSPost2010Prop56
140
1.0
102
RTVSPost2010PropOp56
 70
     1
102
RTVSPost2010Prop57
140
1.0
102
RTVSPost2010PropOp57
 70
     1
  0
XRECORD
  5
51D
102
{ACAD_REACTORS
330
51C
102
}
330
51C
100
AcDbXrecord
280
     1
102
RTVSPost2010Prop28
280
     0
102
RTVSPost2010PropOp28
 70
     1
102
RTVSPost2010Prop29
280
     1
102
RTVSPost2010PropOp29
 70
     1
102
RTVSPost2010Prop30
280
     1
102
RTVSPost2010PropOp30
 70
     1
102
RTVSPost2010Prop31
280
     0
102
RTVSPost2010PropOp31
 70
     1
102
RTVSPost2010Prop32
280
     0
102
RTVSPost2010PropOp32
 70
     1
102
RTVSPost2010Prop33
280
     0
102
RTVSPost2010PropOp33
 70
     1
102
RTVSPost2010Prop34
280
     0
102
RTVSPost2010PropOp34
 70
     1
102
RTVSPost2010Prop35
280
     0
102
RTVSPost2010PropOp35
 70
     1
102
RTVSPost2010Prop36
280
     0
102
RTVSPost2010PropOp36
 70
     1
102
RTVSPost2010Prop37
 90
       50
102
RTVSPost2010PropOp37
 70
     1
102
RTVSPost2010Prop38
140
0.0
102
RTVSPost2010PropOp38
 70
     1
102
RTVSPost2010Prop39
140
1.0
102
RTVSPost2010PropOp39
 70
     1
102
RTVSPost2010Prop40
 90
        0
102
RTVSPost2010PropOp40
 70
     1
102
RTVSPost2010Prop41ColorIndex
 90
       18
102
RTVSPost2010Prop41ColorRGB
 90
        0
102
RTVSPost2010PropOp41
 70
     1
102
RTVSPost2010Prop42
 90
       50
102
RTVSPost2010PropOp42
 70
     1
102
RTVSPost2010Prop43
 90
        3
102
RTVSPost2010PropOp43
 70
     1
102
RTVSPost2010Prop44ColorIndex
 90
        5
102
RTVSPost2010Prop44ColorRGB
 90
      255
102
RTVSPost2010PropOp44
 70
     1
102
RTVSPost2010Prop45
280
     0
102
RTVSPost2010PropOp45
 70
     1
102
RTVSPost2010Prop46
 90
       50
102
RTVSPost2010PropOp46
 70
     1
102
RTVSPost2010Prop47
 90
       50
102
RTVSPost2010PropOp47
 70
     1
102
RTVSPost2010Prop48
 90
       50
102
RTVSPost2010PropOp48
 70
     1
102
RTVSPost2010Prop49
280
     0
102
RTVSPost2010PropOp49
 70
     1
102
RTVSPost2010Prop50
 90
       50
102
RTVSPost2010PropOp50
 70
     1
102
RTVSPost2010Prop51ColorIndex
 90
      256
102
RTVSPost2010Prop51ColorRGB
 90
-16777216
102
RTVSPost2010PropOp51
 70
     0
102
RTVSPost2010Prop52
140
1.0
102
RTVSPost2010PropOp52
 70
     0
102
RTVSPost2010Prop53
 90
        2
102
RTVSPost2010PropOp53
 70
     1
102
RTVSPost2010Prop54
  1
strokes_ogs.tif
102
RTVSPost2010PropOp54
 70
     1
102
RTVSPost2010Prop55
280
     0
102
RTVSPost2010PropOp55
 70
     1
102
RTVSPost2010Prop56
140
1.0
102
RTVSPost2010PropOp56
 70
     1
102
RTVSPost2010Prop57
140
1.0
102
RTVSPost2010PropOp57
 70
     1
  0
ENDSEC
  0
EOF
