  0
SECTION
  2
HEADER
  9
$ACADVER
  1
AC1024
  9
$ACADMAINTVER
 70
   181
  9
$DWGCODEPAGE
  3
ANSI_932
  9
$LASTSAVEDBY
  1
kenzai
  9
$INSBASE
 10
0.0
 20
0.0
 30
0.0
  9
$EXTMIN
 10
-138.0163109423782
 20
-94.50884959708066
 30
-0.0000000000112498
  9
$EXTMAX
 10
138.51780768614
 20
95.01217699040683
 30
0.0000000000002956
  9
$LIMMIN
 10
-148.0
 20
-104.5
  9
$LIMMAX
 10
149.0
 20
105.5
  9
$ORTHOMODE
 70
     1
  9
$REGENMODE
 70
     1
  9
$FILLMODE
 70
     1
  9
$QTEXTMODE
 70
     0
  9
$MIRRTEXT
 70
     0
  9
$LTSCALE
 40
0.5
  9
$ATTMODE
 70
     1
  9
$TEXTSIZE
 40
0.2
  9
$TRACEWID
 40
0.05
  9
$TEXTSTYLE
  7
STANDARD
  9
$CLAYER
  8
0
  9
$CELTYPE
  6
CONTINUOUS
  9
$CECOLOR
 62
   256
  9
$CELTSCALE
 40
1.0
  9
$DISPSILH
 70
     0
  9
$DIMSCALE
 40
1.0
  9
$DIMASZ
 40
1.0
  9
$DIMEXO
 40
2.54
  9
$DIMDLI
 40
0.38
  9
$DIMRND
 40
0.0
  9
$DIMDLE
 40
0.0
  9
$DIMEXE
 40
2.54
  9
$DIMTP
 40
0.0
  9
$DIMTM
 40
0.0
  9
$DIMTXT
 40
3.200000047683716
  9
$DIMCEN
 40
0.09
  9
$DIMTSZ
 40
0.0
  9
$DIMTOL
 70
     0
  9
$DIMLIM
 70
     0
  9
$DIMTIH
 70
     0
  9
$DIMTOH
 70
     0
  9
$DIMSE1
 70
     0
  9
$DIMSE2
 70
     0
  9
$DIMTAD
 70
     1
  9
$DIMZIN
 70
     0
  9
$DIMBLK
  1

  9
$DIMASO
 70
     1
  9
$DIMSHO
 70
     0
  9
$DIMPOST
  1

  9
$DIMAPOST
  1

  9
$DIMALT
 70
     0
  9
$DIMALTD
 70
     2
  9
$DIMALTF
 40
25.4
  9
$DIMLFAC
 40
1.0
  9
$DIMTOFL
 70
     0
  9
$DIMTVP
 40
1.0
  9
$DIMTIX
 70
     0
  9
$DIMSOXD
 70
     0
  9
$DIMSAH
 70
     1
  9
$DIMBLK1
  1

  9
$DIMBLK2
  1

  9
$DIMSTYLE
  2
DIMSTYLE
  9
$DIMCLRD
 70
     0
  9
$DIMCLRE
 70
     0
  9
$DIMCLRT
 70
     0
  9
$DIMTFAC
 40
1.0
  9
$DIMGAP
 40
1.600000023841858
  9
$DIMJUST
 70
     0
  9
$DIMSD1
 70
     0
  9
$DIMSD2
 70
     0
  9
$DIMTOLJ
 70
     1
  9
$DIMTZIN
 70
     0
  9
$DIMALTZ
 70
     0
  9
$DIMALTTZ
 70
     0
  9
$DIMUPT
 70
     0
  9
$DIMDEC
 70
     2
  9
$DIMTDEC
 70
     4
  9
$DIMALTU
 70
     2
  9
$DIMALTTD
 70
     2
  9
$DIMTXSTY
  7
STANDARD
  9
$DIMAUNIT
 70
     1
  9
$DIMADEC
 70
     0
  9
$DIMALTRND
 40
0.0
  9
$DIMAZIN
 70
     0
  9
$DIMDSEP
 70
    46
  9
$DIMATFIT
 70
     3
  9
$DIMFRAC
 70
     0
  9
$DIMLDRBLK
  1

  9
$DIMLUNIT
 70
     2
  9
$DIMLWD
 70
    -2
  9
$DIMLWE
 70
    -2
  9
$DIMTMOVE
 70
     0
  9
$DIMFXL
 40
1.0
  9
$DIMFXLON
 70
     0
  9
$DIMJOGANG
 40
0.7853981633974483
  9
$DIMTFILL
 70
     0
  9
$DIMTFILLCLR
 70
     0
  9
$DIMARCSYM
 70
     0
  9
$DIMLTYPE
  6

  9
$DIMLTEX1
  6

  9
$DIMLTEX2
  6

  9
$DIMTXTDIRECTION
 70
     0
  9
$LUNITS
 70
     2
  9
$LUPREC
 70
     4
  9
$SKETCHINC
 40
0.1
  9
$FILLETRAD
 40
0.0
  9
$AUNITS
 70
     0
  9
$AUPREC
 70
     0
  9
$MENU
  1
.
  9
$ELEVATION
 40
0.0
  9
$PELEVATION
 40
0.0
  9
$THICKNESS
 40
0.0
  9
$LIMCHECK
 70
     0
  9
$CHAMFERA
 40
0.0
  9
$CHAMFERB
 40
0.0
  9
$CHAMFERC
 40
0.0
  9
$CHAMFERD
 40
0.0
  9
$SKPOLY
 70
     0
  9
$TDCREATE
 40
2455477.483548901
  9
$TDUCREATE
 40
2455477.108548901
  9
$TDUPDATE
 40
2457291.690216019
  9
$TDUUPDATE
 40
2457291.315216019
  9
$TDINDWG
 40
0.0765221065
  9
$TDUSRTIMER
 40
0.0765174190
  9
$USRTIMER
 70
     1
  9
$ANGBASE
 50
0.0
  9
$ANGDIR
 70
     0
  9
$PDMODE
 70
     0
  9
$PDSIZE
 40
0.0
  9
$PLINEWID
 40
0.0
  9
$SPLFRAME
 70
     0
  9
$SPLINETYPE
 70
     6
  9
$SPLINESEGS
 70
     8
  9
$HANDSEED
  5
AD3
  9
$SURFTAB1
 70
     6
  9
$SURFTAB2
 70
     6
  9
$SURFTYPE
 70
     6
  9
$SURFU
 70
     6
  9
$SURFV
 70
     6
  9
$UCSBASE
  2

  9
$UCSNAME
  2

  9
$UCSORG
 10
0.0
 20
0.0
 30
0.0
  9
$UCSXDIR
 10
1.0
 20
0.0
 30
0.0
  9
$UCSYDIR
 10
0.0
 20
1.0
 30
0.0
  9
$UCSORTHOREF
  2

  9
$UCSORTHOVIEW
 70
     0
  9
$UCSORGTOP
 10
0.0
 20
0.0
 30
0.0
  9
$UCSORGBOTTOM
 10
0.0
 20
0.0
 30
0.0
  9
$UCSORGLEFT
 10
0.0
 20
0.0
 30
0.0
  9
$UCSORGRIGHT
 10
0.0
 20
0.0
 30
0.0
  9
$UCSORGFRONT
 10
0.0
 20
0.0
 30
0.0
  9
$UCSORGBACK
 10
0.0
 20
0.0
 30
0.0
  9
$PUCSBASE
  2

  9
$PUCSNAME
  2

  9
$PUCSORG
 10
0.0
 20
0.0
 30
0.0
  9
$PUCSXDIR
 10
1.0
 20
0.0
 30
0.0
  9
$PUCSYDIR
 10
0.0
 20
1.0
 30
0.0
  9
$PUCSORTHOREF
  2

  9
$PUCSORTHOVIEW
 70
     0
  9
$PUCSORGTOP
 10
0.0
 20
0.0
 30
0.0
  9
$PUCSORGBOTTOM
 10
0.0
 20
0.0
 30
0.0
  9
$PUCSORGLEFT
 10
0.0
 20
0.0
 30
0.0
  9
$PUCSORGRIGHT
 10
0.0
 20
0.0
 30
0.0
  9
$PUCSORGFRONT
 10
0.0
 20
0.0
 30
0.0
  9
$PUCSORGBACK
 10
0.0
 20
0.0
 30
0.0
  9
$USERI1
 70
     0
  9
$USERI2
 70
     0
  9
$USERI3
 70
     0
  9
$USERI4
 70
     0
  9
$USERI5
 70
     0
  9
$USERR1
 40
0.0
  9
$USERR2
 40
0.0
  9
$USERR3
 40
0.0
  9
$USERR4
 40
0.0
  9
$USERR5
 40
0.0
  9
$WORLDVIEW
 70
     1
  9
$SHADEDGE
 70
     3
  9
$SHADEDIF
 70
    70
  9
$TILEMODE
 70
     1
  9
$MAXACTVP
 70
    64
  9
$PINSBASE
 10
0.0
 20
0.0
 30
0.0
  9
$PLIMCHECK
 70
     0
  9
$PEXTMIN
 10
-148.0
 20
-104.5
 30
0.0
  9
$PEXTMAX
 10
149.0
 20
105.5
 30
0.0
  9
$PLIMMIN
 10
-148.0
 20
-104.5
  9
$PLIMMAX
 10
149.0
 20
105.5
  9
$UNITMODE
 70
     0
  9
$VISRETAIN
 70
     1
  9
$PLINEGEN
 70
     0
  9
$PSLTSCALE
 70
     1
  9
$TREEDEPTH
 70
  3020
  9
$CMLSTYLE
  2
STANDARD
  9
$CMLJUST
 70
     0
  9
$CMLSCALE
 40
1.0
  9
$PROXYGRAPHICS
 70
     1
  9
$MEASUREMENT
 70
     1
  9
$CELWEIGHT
370
    -1
  9
$ENDCAPS
280
     0
  9
$JOINSTYLE
280
     0
  9
$LWDISPLAY
290
     1
  9
$INSUNITS
 70
     0
  9
$HYPERLINKBASE
  1

  9
$STYLESHEET
  1
MONOCHROME.CTB
  9
$XEDIT
290
     1
  9
$CEPSNTYPE
380
     0
  9
$PSTYLEMODE
290
     1
  9
$FINGERPRINTGUID
  2
{4D3DDC1C-82FD-4AA9-929C-6C594B2A7523}
  9
$VERSIONGUID
  2
{2353A26A-6DF8-4C0F-829D-583377781D76}
  9
$EXTNAMES
290
     1
  9
$PSVPSCALE
 40
0.0
  9
$OLESTARTUP
290
     0
  9
$SORTENTS
280
   127
  9
$INDEXCTL
280
     0
  9
$HIDETEXT
280
     0
  9
$XCLIPFRAME
280
     2
  9
$HALOGAP
280
     0
  9
$OBSCOLOR
 70
   257
  9
$OBSLTYPE
280
     0
  9
$INTERSECTIONDISPLAY
280
     0
  9
$INTERSECTIONCOLOR
 70
   257
  9
$DIMASSOC
280
     1
  9
$PROJECTNAME
  1

  9
$CAMERADISPLAY
290
     0
  9
$LENSLENGTH
 40
50.0
  9
$CAMERAHEIGHT
 40
0.0
  9
$STEPSPERSEC
 40
2.0
  9
$STEPSIZE
 40
6.0
  9
$3DDWFPREC
 40
2.0
  9
$PSOLWIDTH
 40
0.25
  9
$PSOLHEIGHT
 40
4.0
  9
$LOFTANG1
 40
1.570796326794896
  9
$LOFTANG2
 40
1.570796326794896
  9
$LOFTMAG1
 40
0.0
  9
$LOFTMAG2
 40
0.0
  9
$LOFTPARAM
 70
     7
  9
$LOFTNORMALS
280
     1
  9
$LATITUDE
 40
37.795
  9
$LONGITUDE
 40
-122.394
  9
$NORTHDIRECTION
 40
0.0
  9
$TIMEZONE
 70
 -8000
  9
$LIGHTGLYPHDISPLAY
280
     1
  9
$TILEMODELIGHTSYNCH
280
     1
  9
$CMATERIAL
347
9F0
  9
$SOLIDHIST
280
     0
  9
$SHOWHIST
280
     1
  9
$DWFFRAME
280
     2
  9
$DGNFRAME
280
     0
  9
$REALWORLDSCALE
290
     1
  9
$INTERFERECOLOR
 62
     1
  9
$INTERFEREOBJVS
345
A12
  9
$INTERFEREVPVS
346
A0F
  9
$CSHADOW
280
     0
  9
$SHADOWPLANELOCATION
 40
0.0
  0
ENDSEC
  0
SECTION
  2
CLASSES
  0
CLASS
  1
ACDBDICTIONARYWDFLT
  2
AcDbDictionaryWithDefault
  3
ObjectDBX Classes
 90
        0
 91
        1
280
     0
281
     0
  0
CLASS
  1
TABLESTYLE
  2
AcDbTableStyle
  3
ObjectDBX Classes
 90
     4095
 91
        1
280
     0
281
     0
  0
CLASS
  1
DICTIONARYVAR
  2
AcDbDictionaryVar
  3
ObjectDBX Classes
 90
        0
 91
       19
280
     0
281
     0
  0
CLASS
  1
SORTENTSTABLE
  2
AcDbSortentsTable
  3
ObjectDBX Classes
 90
        0
 91
        2
280
     0
281
     0
  0
CLASS
  1
PLOTSETTINGS
  2
AcDbPlotSettings
  3
ObjectDBX Classes
 90
        0
 91
        1
280
     0
281
     0
  0
CLASS
  1
MATERIAL
  2
AcDbMaterial
  3
ObjectDBX Classes
 90
     1153
 91
        3
280
     0
281
     0
  0
CLASS
  1
VISUALSTYLE
  2
AcDbVisualStyle
  3
ObjectDBX Classes
 90
     4095
 91
       24
280
     0
281
     0
  0
CLASS
  1
SCALE
  2
AcDbScale
  3
ObjectDBX Classes
 90
     1153
 91
       17
280
     0
281
     0
  0
CLASS
  1
MLEADERSTYLE
  2
AcDbMLeaderStyle
  3
ACDB_MLEADERSTYLE_CLASS
 90
     4095
 91
        1
280
     0
281
     0
  0
CLASS
  1
ACDBSECTIONVIEWSTYLE
  2
AcDbSectionViewStyle
  3
ObjectDBX Classes
 90
     1025
 91
        1
280
     0
281
     0
  0
CLASS
  1
ACDBDETAILVIEWSTYLE
  2
AcDbDetailViewStyle
  3
ObjectDBX Classes
 90
     1025
 91
        1
280
     0
281
     0
  0
CLASS
  1
CELLSTYLEMAP
  2
AcDbCellStyleMap
  3
ObjectDBX Classes
 90
     1152
 91
        1
280
     0
281
     0
  0
ENDSEC
  0
SECTION
  2
TABLES
  0
TABLE
  2
VPORT
  5
DD
330
0
100
AcDbSymbolTable
 70
     1
  0
VPORT
  5
9E6
330
DD
100
AcDbSymbolTableRecord
100
AcDbViewportTableRecord
  2
*Active
 70
     0
 10
0.0
 20
0.0
 11
1.0
 21
1.0
 12
0.2507483718809027
 22
0.251663696663087
 13
0.0
 23
0.0
 14
1.0
 24
1.0
 15
0.0
 25
0.0
 16
0.0
 26
0.0
 36
1.0
 17
0.0
 27
0.0
 37
0.0
 40
190.9077658064203
 41
1.905982905982905
 42
50.0
 43
0.0
 44
0.0
 50
0.0
 51
0.0
 71
     0
 72
  1000
 73
     1
 74
     3
 75
     0
 76
     0
 77
     0
 78
     0
281
     0
 65
     1
110
0.0
120
0.0
130
0.0
111
1.0
121
0.0
131
0.0
112
0.0
122
1.0
132
0.0
 79
     0
146
0.0
348
A0E
 60
     3
 61
     5
292
     1
282
     1
141
0.0
142
0.0
 63
   250
421
  3355443
1001
ACAD_NAV_VCDISPLAY
1070
     3
  0
ENDTAB
  0
TABLE
  2
LTYPE
  5
25
330
0
100
AcDbSymbolTable
 70
     6
  0
LTYPE
  5
26
330
25
100
AcDbSymbolTableRecord
100
AcDbLinetypeTableRecord
  2
BYBLOCK
 70
     0
  3

 72
    65
 73
     0
 40
0.0
  0
LTYPE
  5
27
330
25
100
AcDbSymbolTableRecord
100
AcDbLinetypeTableRecord
  2
BYLAYER
 70
     0
  3

 72
    65
 73
     0
 40
0.0
  0
LTYPE
  5
28
330
25
100
AcDbSymbolTableRecord
100
AcDbLinetypeTableRecord
  2
CONTINUOUS
 70
     0
  3
Solid line
 72
    65
 73
     0
 40
0.0
  0
LTYPE
  5
29
330
25
100
AcDbSymbolTableRecord
100
AcDbLinetypeTableRecord
  2
DASHED
 70
     0
  3
Dashed __ __ __ __ __ __ __ __ __ __ __ __ __ _
 72
    65
 73
     2
 40
4.5
 49
3.0
 74
     0
 49
-1.5
 74
     0
  0
LTYPE
  5
2A
330
25
100
AcDbSymbolTableRecord
100
AcDbLinetypeTableRecord
  2
CENTER
 70
     0
  3
Center ____ _ ____ _ ____ _ ____ _ ____ _ ____
 72
    65
 73
     4
 40
12.0
 49
7.5
 74
     0
 49
-1.5
 74
     0
 49
1.5
 74
     0
 49
-1.5
 74
     0
  0
LTYPE
  5
2D
330
25
100
AcDbSymbolTableRecord
100
AcDbLinetypeTableRecord
  2
HIDDEN
 70
     0
  3
Hidden __ __ __ __ __ __ __ __ __ __ __ __ __ _
 72
    65
 73
     2
 40
4.5
 49
3.0
 74
     0
 49
-1.5
 74
     0
  0
LTYPE
  5
31
330
25
100
AcDbSymbolTableRecord
100
AcDbLinetypeTableRecord
  2
CENTER2
 70
     0
  3
Center (.5x) ___ _ ___ _ ___ _ ___ _ ___ _ ___
 72
    65
 73
     4
 40
6.0
 49
3.75
 74
     0
 49
-0.75
 74
     0
 49
0.75
 74
     0
 49
-0.75
 74
     0
  0
LTYPE
  5
8AA
330
25
100
AcDbSymbolTableRecord
100
AcDbLinetypeTableRecord
  2
HIDDEN2
 70
     0
  3
Hidden (.5x) _ _ _ _ _ _ _ _ _ _ _ _ _ _ _ _ _
 72
    65
 73
     2
 40
4.762499999999998
 49
3.174999999999998
 74
     0
 49
-1.587499999999999
 74
     0
  0
ENDTAB
  0
TABLE
  2
LAYER
  5
C8
102
{ACAD_XDICTIONARY
360
9A7
102
}
330
0
100
AcDbSymbolTable
 70
     9
  0
LAYER
  5
C9
102
{ACAD_XDICTIONARY
360
A49
102
}
330
C8
100
AcDbSymbolTableRecord
100
AcDbLayerTableRecord
  2
0
 70
     0
 62
     7
  6
CONTINUOUS
370
    -3
390
2A1
347
A00
  0
LAYER
  5
CA
102
{ACAD_XDICTIONARY
360
A4B
102
}
330
C8
100
AcDbSymbolTableRecord
100
AcDbLayerTableRecord
  2
1
 70
     0
 62
     7
  6
CONTINUOUS
370
    -3
390
2A1
347
A00
  0
LAYER
  5
CB
330
C8
100
AcDbSymbolTableRecord
100
AcDbLayerTableRecord
  2
DEFPOINTS
 70
     0
 62
     7
  6
CONTINUOUS
290
     0
370
    -3
390
2A1
347
A00
  0
LAYER
  5
2C1
102
{ACAD_XDICTIONARY
360
A4D
102
}
330
C8
100
AcDbSymbolTableRecord
100
AcDbLayerTableRecord
  2
外形線
 70
     0
 62
     7
  6
CONTINUOUS
370
    30
390
2A1
347
A00
1001
AcAecLayerStandard
1000

1000

  0
LAYER
  5
2C3
102
{ACAD_XDICTIONARY
360
A4F
102
}
330
C8
100
AcDbSymbolTableRecord
100
AcDbLayerTableRecord
  2
寸法線
 70
     0
 62
     3
  6
CONTINUOUS
370
    15
390
2A1
347
A00
1001
AcAecLayerStandard
1000

1000

  0
LAYER
  5
2C4
102
{ACAD_XDICTIONARY
360
A51
102
}
330
C8
100
AcDbSymbolTableRecord
100
AcDbLayerTableRecord
  2
中心線
 70
     0
 62
     5
  6
CENTER
370
    -3
390
2A1
347
A00
1001
AcAecLayerStandard
1000

1000

  0
LAYER
  5
390
102
{ACAD_XDICTIONARY
360
A53
102
}
330
C8
100
AcDbSymbolTableRecord
100
AcDbLayerTableRecord
  2
VIEW0002
 70
     0
 62
     7
  6
CONTINUOUS
370
    -3
390
2A1
347
A00
  0
LAYER
  5
8AB
102
{ACAD_XDICTIONARY
360
A55
102
}
330
C8
100
AcDbSymbolTableRecord
100
AcDbLayerTableRecord
  2
破線
 70
     0
 62
     4
  6
HIDDEN2
370
    -3
390
2A1
347
A00
1001
AcAecLayerStandard
1000

1000

  0
LAYER
  5
A3D
102
{ACAD_XDICTIONARY
360
A3E
102
}
330
C8
100
AcDbSymbolTableRecord
100
AcDbLayerTableRecord
  2
VIEW0001
 70
     0
 62
     7
  6
CONTINUOUS
370
    -3
390
2A1
347
A00
  0
ENDTAB
  0
TABLE
  2
STYLE
  5
CC
330
0
100
AcDbSymbolTable
 70
     1
  0
STYLE
  5
23
330
CC
100
AcDbSymbolTableRecord
100
AcDbTextStyleTableRecord
  2
STANDARD
 70
     0
 40
0.0
 41
1.0
 50
0.0
 71
     0
 42
0.2
  3
txt
  4
BIGFONT
  0
ENDTAB
  0
TABLE
  2
VIEW
  5
D1
330
0
100
AcDbSymbolTable
 70
     0
  0
ENDTAB
  0
TABLE
  2
UCS
  5
D2
330
0
100
AcDbSymbolTable
 70
     0
  0
ENDTAB
  0
TABLE
  2
APPID
  5
CF
330
0
100
AcDbSymbolTable
 70
     4
  0
APPID
  5
D0
330
CF
100
AcDbSymbolTableRecord
100
AcDbRegAppTableRecord
  2
ACAD
 70
     0
  0
APPID
  5
2C9
330
CF
100
AcDbSymbolTableRecord
100
AcDbRegAppTableRecord
  2
AcAecLayerStandard
 70
     0
  0
APPID
  5
996
330
CF
100
AcDbSymbolTableRecord
100
AcDbRegAppTableRecord
  2
ACAD_PSEXT
 70
     0
  0
APPID
  5
A40
330
CF
100
AcDbSymbolTableRecord
100
AcDbRegAppTableRecord
  2
ACAD_NAV_VCDISPLAY
 70
     0
  0
ENDTAB
  0
TABLE
  2
DIMSTYLE
  5
CD
330
0
100
AcDbSymbolTable
 70
     3
100
AcDbDimStyleTable
 71
     1
340
CE
  0
DIMSTYLE
105
CE
102
{ACAD_REACTORS
330
8B1
330
8B2
102
}
330
CD
100
AcDbSymbolTableRecord
100
AcDbDimStyleTableRecord
  2
DIMSTYLE
 70
     0
 41
1.0
 42
2.539999961853026
 44
2.54
 73
     0
 74
     0
140
3.200000047683716
147
1.600000023841858
173
     1
271
     2
275
     1
340
23
341
D6
342
D6
343
D6
344
D6
  0
DIMSTYLE
105
2C8
330
CD
100
AcDbSymbolTableRecord
100
AcDbDimStyleTableRecord
  2
Standard
 70
     0
340
23
  0
DIMSTYLE
105
A3F
330
CD
100
AcDbSymbolTableRecord
100
AcDbDimStyleTableRecord
  2
ISO-25
 70
     0
 41
2.5
 42
0.625
 43
3.75
 44
1.25
 73
     0
 74
     0
 77
     1
 78
     8
140
2.5
141
2.5
143
0.03937007874016
147
0.625
171
     3
172
     1
271
     2
272
     2
274
     3
278
    44
283
     0
284
     8
340
23
  0
ENDTAB
  0
TABLE
  2
BLOCK_RECORD
  5
D3
330
0
100
AcDbSymbolTable
 70
    12
  0
BLOCK_RECORD
  5
D4
102
{ACAD_XDICTIONARY
360
2BA
102
}
330
D3
100
AcDbSymbolTableRecord
100
AcDbBlockTableRecord
  2
*MODEL_SPACE
340
2A8
 70
     0
280
     1
281
     0
  0
BLOCK_RECORD
  5
D5
330
D3
100
AcDbSymbolTableRecord
100
AcDbBlockTableRecord
  2
*PAPER_SPACE
340
2A9
 70
     0
280
     1
281
     0
  0
BLOCK_RECORD
  5
D6
330
D3
100
AcDbSymbolTableRecord
100
AcDbBlockTableRecord
  2
_OPEN30
340
0
102
{BLKREFS
331
511
331
512
331
51A
331
51B
331
879
331
87A
331
881
331
882
331
889
331
88A
331
892
331
893
331
89B
331
89C
331
8A4
331
8A5
331
958
331
959
331
961
331
962
102
}
 70
     0
280
     1
281
     0
  0
BLOCK_RECORD
  5
314
330
D3
100
AcDbSymbolTableRecord
100
AcDbBlockTableRecord
  2
*D1
340
0
 70
     0
280
     1
281
     0
  0
BLOCK_RECORD
  5
342
330
D3
100
AcDbSymbolTableRecord
100
AcDbBlockTableRecord
  2
*D2
340
0
 70
     0
280
     1
281
     0
  0
BLOCK_RECORD
  5
830
330
D3
100
AcDbSymbolTableRecord
100
AcDbBlockTableRecord
  2
*D3
340
0
 70
     0
280
     1
281
     0
  0
BLOCK_RECORD
  5
83C
330
D3
100
AcDbSymbolTableRecord
100
AcDbBlockTableRecord
  2
*D4
340
0
 70
     0
280
     1
281
     0
  0
BLOCK_RECORD
  5
847
330
D3
100
AcDbSymbolTableRecord
100
AcDbBlockTableRecord
  2
*D5
340
0
 70
     0
280
     1
281
     0
  0
BLOCK_RECORD
  5
852
330
D3
100
AcDbSymbolTableRecord
100
AcDbBlockTableRecord
  2
*D6
340
0
 70
     0
280
     1
281
     0
  0
BLOCK_RECORD
  5
85E
330
D3
100
AcDbSymbolTableRecord
100
AcDbBlockTableRecord
  2
*D7
340
0
 70
     0
280
     1
281
     0
  0
BLOCK_RECORD
  5
86A
330
D3
100
AcDbSymbolTableRecord
100
AcDbBlockTableRecord
  2
*D8
340
0
 70
     0
280
     1
281
     0
  0
BLOCK_RECORD
  5
8B3
330
D3
100
AcDbSymbolTableRecord
100
AcDbBlockTableRecord
  2
*D9
340
0
 70
     0
280
     1
281
     0
  0
BLOCK_RECORD
  5
8BF
330
D3
100
AcDbSymbolTableRecord
100
AcDbBlockTableRecord
  2
*D10
340
0
 70
     0
280
     1
281
     0
  0
ENDTAB
  0
ENDSEC
  0
SECTION
  2
BLOCKS
  0
BLOCK
  5
DE
330
D4
100
AcDbEntity
  8
0
100
AcDbBlockBegin
  2
*MODEL_SPACE
 70
     0
 10
0.0
 20
0.0
 30
0.0
  3
*MODEL_SPACE
  1

  0
ENDBLK
  5
DF
330
D4
100
AcDbEntity
  8
0
100
AcDbBlockEnd
  0
BLOCK
  5
E0
330
D5
100
AcDbEntity
 67
     1
  8
0
100
AcDbBlockBegin
  2
*PAPER_SPACE
 70
     0
 10
0.0
 20
0.0
 30
0.0
  3
*PAPER_SPACE
  1

  0
ENDBLK
  5
E1
330
D5
100
AcDbEntity
 67
     1
  8
0
100
AcDbBlockEnd
  0
BLOCK
  5
E2
330
D6
100
AcDbEntity
  8
0
100
AcDbBlockBegin
  2
_OPEN30
 70
     0
 10
0.0
 20
0.0
 30
0.0
  3
_OPEN30
  1

  0
LINE
  5
E3
330
D6
100
AcDbEntity
  8
0
  6
ByBlock
 62
     0
100
AcDbLine
 10
0.0
 20
0.0
 30
0.0
 11
-2.999999954944513
 21
-0.9999999849815248
 31
0.0
  0
LINE
  5
E4
330
D6
100
AcDbEntity
  8
0
  6
ByBlock
 62
     0
100
AcDbLine
 10
0.0
 20
0.0
 30
0.0
 11
-2.999999954944526
 21
0.9999999849814884
 31
0.0
  0
LINE
  5
E5
330
D6
100
AcDbEntity
  8
0
  6
ByBlock
 62
     0
100
AcDbLine
 10
0.0
 20
0.0
 30
0.0
 11
-2.99999995494452
 21
0.0
 31
0.0
  0
ENDBLK
  5
E6
330
D6
100
AcDbEntity
  8
0
100
AcDbBlockEnd
  0
BLOCK
  5
31E
330
314
100
AcDbEntity
  8
0
100
AcDbBlockBegin
  2
*D1
 70
     1
 10
0.0
 20
0.0
 30
0.0
  3
*D1
  1

  0
LINE
  5
50E
330
314
100
AcDbEntity
  8
寸法線
  6
Continuous
 62
     0
370
    -2
100
AcDbLine
 10
85.33516166148421
 20
189.2961624887765
 30
0.0
 11
85.33516166148421
 21
200.7271776315981
 31
0.0
  0
LINE
  5
50F
330
314
100
AcDbEntity
  8
寸法線
  6
Continuous
 62
     0
370
    -2
100
AcDbLine
 10
-22.16483070912125
 20
189.2961624887765
 30
0.0
 11
-22.16483070912125
 21
200.7271776315981
 31
0.0
  0
LINE
  5
510
330
314
100
AcDbEntity
  8
寸法線
  6
Continuous
 62
     0
370
    -2
100
AcDbLine
 10
84.33516166148422
 20
198.1871776315981
 30
0.0
 11
-21.16483070912125
 21
198.1871776315981
 31
0.0
  0
INSERT
  5
511
330
314
100
AcDbEntity
  8
寸法線
  6
Continuous
 62
     0
370
    -2
100
AcDbBlockReference
  2
_OPEN30
 10
85.33516166148421
 20
198.1871776315981
 30
0.0
  0
INSERT
  5
512
330
314
100
AcDbEntity
  8
寸法線
  6
Continuous
 62
     0
370
    -2
100
AcDbBlockReference
  2
_OPEN30
 10
-22.16483070912125
 20
198.1871776315981
 30
0.0
 50
180.0
  0
MTEXT
  5
513
330
314
100
AcDbEntity
  8
寸法線
  6
Continuous
 62
     0
100
AcDbMText
 10
31.58516547618149
 20
200.78717765544
 30
0.0
 40
3.200000047683716
 41
0.0
 46
0.0
 71
     5
 72
     1
  1
\A1;L
 73
     1
 44
1.0
1001
ACAD
1000
MTEXTBEGIN
1070
    73
1070
     1
1070
    44
1040
1.0
1070
    74
1070
     0
1000
MTEXTEND
  0
POINT
  5
514
330
314
100
AcDbEntity
  8
DEFPOINTS
  6
Continuous
 62
     0
100
AcDbPoint
 10
85.33516166148421
 20
186.7561625269234
 30
0.0
  0
POINT
  5
515
330
314
100
AcDbEntity
  8
DEFPOINTS
  6
Continuous
 62
     0
100
AcDbPoint
 10
-22.16483070912125
 20
186.7561625269234
 30
0.0
  0
POINT
  5
516
330
314
100
AcDbEntity
  8
DEFPOINTS
  6
Continuous
 62
     0
100
AcDbPoint
 10
-22.16483070912125
 20
198.1871776315981
 30
0.0
  0
ENDBLK
  5
31F
330
314
100
AcDbEntity
  8
0
100
AcDbBlockEnd
  0
BLOCK
  5
34C
330
342
100
AcDbEntity
  8
0
100
AcDbBlockBegin
  2
*D2
 70
     1
 10
0.0
 20
0.0
 30
0.0
  3
*D2
  1

  0
LINE
  5
517
330
342
100
AcDbEntity
  8
寸法線
  6
Continuous
 62
     0
370
    -2
100
AcDbLine
 10
87.87516925273179
 20
185.3811548975289
 30
0.0
 11
100.2867459818648
 21
185.3811548975289
 31
0.0
  0
LINE
  5
518
330
342
100
AcDbEntity
  8
寸法線
  6
Continuous
 62
     0
370
    -2
100
AcDbLine
 10
87.12516925273178
 20
127.8811930445016
 30
0.0
 11
100.2867459818648
 21
127.8811930445015
 31
0.0
  0
LINE
  5
519
330
342
100
AcDbEntity
  8
寸法線
  6
Continuous
 62
     0
370
    -2
100
AcDbLine
 10
97.74674598186486
 20
184.3811548975289
 30
0.0
 11
97.74674598186486
 21
128.8811930445015
 31
0.0
  0
INSERT
  5
51A
330
342
100
AcDbEntity
  8
寸法線
  6
Continuous
 62
     0
370
    -2
100
AcDbBlockReference
  2
_OPEN30
 10
97.74674598186486
 20
185.3811548975289
 30
0.0
 50
90.0
  0
INSERT
  5
51B
330
342
100
AcDbEntity
  8
寸法線
  6
Continuous
 62
     0
370
    -2
100
AcDbBlockReference
  2
_OPEN30
 10
97.74674598186486
 20
127.8811930445015
 30
0.0
 50
270.0
  0
MTEXT
  5
51C
330
342
100
AcDbEntity
  8
寸法線
  6
Continuous
 62
     0
100
AcDbMText
 10
95.14674595802295
 20
156.6311739710152
 30
0.0
 40
3.200000047683716
 41
0.0
 46
0.0
 71
     5
 72
     1
  1
\A1;D
 11
0.0000000000000001
 21
1.0
 31
0.0
 73
     1
 44
1.0
1001
ACAD
1000
MTEXTBEGIN
1070
    73
1070
     1
1070
    44
1040
1.0
1070
    74
1070
     0
1000
MTEXTEND
  0
POINT
  5
51D
330
342
100
AcDbEntity
  8
DEFPOINTS
  6
Continuous
 62
     0
100
AcDbPoint
 10
85.33516929087877
 20
185.3811548975289
 30
0.0
  0
POINT
  5
51E
330
342
100
AcDbEntity
  8
DEFPOINTS
  6
Continuous
 62
     0
100
AcDbPoint
 10
84.58516929087876
 20
127.8811930445016
 30
0.0
  0
POINT
  5
51F
330
342
100
AcDbEntity
  8
DEFPOINTS
  6
Continuous
 62
     0
100
AcDbPoint
 10
97.74674598186486
 20
127.8811930445015
 30
0.0
  0
ENDBLK
  5
34D
330
342
100
AcDbEntity
  8
0
100
AcDbBlockEnd
  0
BLOCK
  5
83A
330
830
100
AcDbEntity
  8
0
100
AcDbBlockBegin
  2
*D3
 70
     1
 10
0.0
 20
0.0
 30
0.0
  3
*D3
  1

  0
LINE
  5
876
330
830
100
AcDbEntity
  8
0
  6
Continuous
 62
     0
370
    -2
100
AcDbLine
 10
-5.851606544170745
 20
60.48423059758704
 30
0.0
 11
-5.851606544170745
 21
75.84064924535315
 31
0.0
  0
LINE
  5
877
330
830
100
AcDbEntity
  8
0
  6
Continuous
 62
     0
370
    -2
100
AcDbLine
 10
-9.563505347881687
 20
73.30064924535315
 30
0.0
 11
-6.851606544170745
 21
73.30064924535315
 31
0.0
  0
LINE
  5
878
330
830
100
AcDbEntity
  8
0
  6
Continuous
 62
     0
370
    -2
100
AcDbLine
 10
-5.851606544170745
 20
73.30064924535315
 30
0.0
 11
3.681726916319161
 21
73.30064924535315
 31
0.0
  0
INSERT
  5
879
330
830
100
AcDbEntity
  8
0
  6
Continuous
 62
     0
370
    -2
100
AcDbBlockReference
  2
_OPEN30
 10
-10.56350534788168
 20
73.30064924535315
 30
0.0
 50
180.0
  0
INSERT
  5
87A
330
830
100
AcDbEntity
  8
0
  6
Continuous
 62
     0
370
    -2
100
AcDbBlockReference
  2
_OPEN30
 10
-5.851606544170745
 20
73.30064924535315
 30
0.0
  0
MTEXT
  5
87B
330
830
100
AcDbEntity
  8
0
  6
Continuous
 62
     0
100
AcDbMText
 10
-0.5849398139257938
 20
74.90064926919501
 30
0.0
 40
3.200000047683716
 41
0.0
 46
0.0
 71
     5
 72
     1
  1
\A1;4.71
 73
     1
 44
1.0
1001
ACAD
1000
MTEXTBEGIN
1070
    73
1070
     1
1070
    44
1040
1.0
1070
    74
1070
     0
1000
MTEXTEND
  0
POINT
  5
87C
330
830
100
AcDbEntity
  8
DEFPOINTS
  6
Continuous
 62
     0
100
AcDbPoint
 10
-10.56350534788168
 20
58.94709165868324
 30
0.0
  0
POINT
  5
87D
330
830
100
AcDbEntity
  8
DEFPOINTS
  6
Continuous
 62
     0
100
AcDbPoint
 10
-5.851606544170745
 20
57.94423063573399
 30
0.0
  0
POINT
  5
87E
330
830
100
AcDbEntity
  8
DEFPOINTS
  6
Continuous
 62
     0
100
AcDbPoint
 10
-5.851606544170745
 20
73.30064924535315
 30
0.0
  0
ENDBLK
  5
83B
330
830
100
AcDbEntity
  8
0
100
AcDbBlockEnd
  0
BLOCK
  5
845
330
83C
100
AcDbEntity
  8
0
100
AcDbBlockBegin
  2
*D4
 70
     1
 10
0.0
 20
0.0
 30
0.0
  3
*D4
  1

  0
LINE
  5
87F
330
83C
100
AcDbEntity
  8
0
  6
Continuous
 62
     0
370
    -2
100
AcDbLine
 10
92.43648702272379
 20
25.07710226354163
 30
0.0
 11
92.43648702272379
 21
75.84064924535315
 31
0.0
  0
LINE
  5
880
330
83C
100
AcDbEntity
  8
0
  6
Continuous
 62
     0
370
    -2
100
AcDbLine
 10
-4.851606544170746
 20
73.30064924535315
 30
0.0
 11
91.43648702272377
 21
73.30064924535315
 31
0.0
  0
INSERT
  5
881
330
83C
100
AcDbEntity
  8
0
  6
Continuous
 62
     0
370
    -2
100
AcDbBlockReference
  2
_OPEN30
 10
-5.851606544170745
 20
73.30064924535315
 30
0.0
 50
180.0
  0
INSERT
  5
882
330
83C
100
AcDbEntity
  8
0
  6
Continuous
 62
     0
370
    -2
100
AcDbBlockReference
  2
_OPEN30
 10
92.43648702272379
 20
73.30064924535315
 30
0.0
  0
MTEXT
  5
883
330
83C
100
AcDbEntity
  8
0
  6
Continuous
 62
     0
100
AcDbMText
 10
43.2924402392765
 20
74.90064926919501
 30
0.0
 40
3.200000047683716
 41
0.0
 46
0.0
 71
     5
 72
     1
  1
\A1;98.29
 73
     1
 44
1.0
1001
ACAD
1000
MTEXTBEGIN
1070
    73
1070
     1
1070
    44
1040
1.0
1070
    74
1070
     0
1000
MTEXTEND
  0
POINT
  5
884
330
83C
100
AcDbEntity
  8
DEFPOINTS
  6
Continuous
 62
     0
100
AcDbPoint
 10
-5.851606544170745
 20
57.94423063573399
 30
0.0
  0
POINT
  5
885
330
83C
100
AcDbEntity
  8
DEFPOINTS
  6
Continuous
 62
     0
100
AcDbPoint
 10
92.43648702272379
 20
22.5371023016886
 30
0.0
  0
POINT
  5
886
330
83C
100
AcDbEntity
  8
DEFPOINTS
  6
Continuous
 62
     0
100
AcDbPoint
 10
92.43648702272379
 20
73.30064924535315
 30
0.0
  0
ENDBLK
  5
846
330
83C
100
AcDbEntity
  8
0
100
AcDbBlockEnd
  0
BLOCK
  5
850
330
847
100
AcDbEntity
  8
0
100
AcDbBlockBegin
  2
*D5
 70
     1
 10
0.0
 20
0.0
 30
0.0
  3
*D5
  1

  0
LINE
  5
887
330
847
100
AcDbEntity
  8
0
  6
Continuous
 62
     0
370
    -2
100
AcDbLine
 10
93.4364870227238
 20
73.30064924535315
 30
0.0
 11
95.9364870227238
 21
73.30064924535315
 31
0.0
  0
LINE
  5
888
330
847
100
AcDbEntity
  8
0
  6
Continuous
 62
     0
370
    -2
100
AcDbLine
 10
96.9364870227238
 20
73.30064924535315
 30
0.0
 11
107.0031538244943
 21
73.30064924535315
 31
0.0
  0
INSERT
  5
889
330
847
100
AcDbEntity
  8
0
  6
Continuous
 62
     0
370
    -2
100
AcDbBlockReference
  2
_OPEN30
 10
92.43648702272379
 20
73.30064924535315
 30
0.0
 50
180.0
  0
INSERT
  5
88A
330
847
100
AcDbEntity
  8
0
  6
Continuous
 62
     0
370
    -2
100
AcDbBlockReference
  2
_OPEN30
 10
96.9364870227238
 20
73.30064924535315
 30
0.0
  0
MTEXT
  5
88B
330
847
100
AcDbEntity
  8
0
  6
Continuous
 62
     0
100
AcDbMText
 10
102.469820423609
 20
74.90064926919501
 30
0.0
 40
3.200000047683716
 41
0.0
 46
0.0
 71
     5
 72
     1
  1
\A1;4.50
 73
     1
 44
1.0
1001
ACAD
1000
MTEXTBEGIN
1070
    73
1070
     1
1070
    44
1040
1.0
1070
    74
1070
     0
1000
MTEXTEND
  0
POINT
  5
88C
330
847
100
AcDbEntity
  8
DEFPOINTS
  6
Continuous
 62
     0
100
AcDbPoint
 10
92.43648702272379
 20
22.5371023016886
 30
0.0
  0
POINT
  5
88D
330
847
100
AcDbEntity
  8
DEFPOINTS
  6
Continuous
 62
     0
100
AcDbPoint
 10
96.9364870227238
 20
58.94709165868324
 30
0.0
  0
POINT
  5
88E
330
847
100
AcDbEntity
  8
DEFPOINTS
  6
Continuous
 62
     0
100
AcDbPoint
 10
96.9364870227238
 20
73.30064924535315
 30
0.0
  0
ENDBLK
  5
851
330
847
100
AcDbEntity
  8
0
100
AcDbBlockEnd
  0
BLOCK
  5
85C
330
852
100
AcDbEntity
  8
0
100
AcDbBlockBegin
  2
*D6
 70
     1
 10
0.0
 20
0.0
 30
0.0
  3
*D6
  1

  0
LINE
  5
88F
330
852
100
AcDbEntity
  8
0
  6
Continuous
 62
     0
370
    -2
100
AcDbLine
 10
96.9364870227238
 20
61.48709162053626
 30
0.0
 11
96.9364870227238
 21
84.25309049901526
 31
0.0
  0
LINE
  5
890
330
852
100
AcDbEntity
  8
0
  6
Continuous
 62
     0
370
    -2
100
AcDbLine
 10
-10.56350534788168
 20
61.48709162053626
 30
0.0
 11
-10.56350534788168
 21
84.25309049901526
 31
0.0
  0
LINE
  5
891
330
852
100
AcDbEntity
  8
0
  6
Continuous
 62
     0
370
    -2
100
AcDbLine
 10
95.9364870227238
 20
81.71309049901527
 30
0.0
 11
-9.563505347881683
 21
81.71309049901527
 31
0.0
  0
INSERT
  5
892
330
852
100
AcDbEntity
  8
0
  6
Continuous
 62
     0
370
    -2
100
AcDbBlockReference
  2
_OPEN30
 10
96.9364870227238
 20
81.71309049901527
 30
0.0
  0
INSERT
  5
893
330
852
100
AcDbEntity
  8
0
  6
Continuous
 62
     0
370
    -2
100
AcDbBlockReference
  2
_OPEN30
 10
-10.56350534788168
 20
81.71309049901527
 30
0.0
 50
180.0
  0
MTEXT
  5
894
330
852
100
AcDbEntity
  8
0
  6
Continuous
 62
     0
100
AcDbMText
 10
43.18649083742103
 20
83.31309052285712
 30
0.0
 40
3.200000047683716
 41
0.0
 46
0.0
 71
     5
 72
     1
  1
\A1;107.50
 73
     1
 44
1.0
1001
ACAD
1000
MTEXTBEGIN
1070
    73
1070
     1
1070
    44
1040
1.0
1070
    74
1070
     0
1000
MTEXTEND
  0
POINT
  5
895
330
852
100
AcDbEntity
  8
DEFPOINTS
  6
Continuous
 62
     0
100
AcDbPoint
 10
96.9364870227238
 20
58.94709165868324
 30
0.0
  0
POINT
  5
896
330
852
100
AcDbEntity
  8
DEFPOINTS
  6
Continuous
 62
     0
100
AcDbPoint
 10
-10.56350534788168
 20
58.94709165868324
 30
0.0
  0
POINT
  5
897
330
852
100
AcDbEntity
  8
DEFPOINTS
  6
Continuous
 62
     0
100
AcDbPoint
 10
-10.56350534788168
 20
81.71309049901527
 30
0.0
  0
ENDBLK
  5
85D
330
852
100
AcDbEntity
  8
0
100
AcDbBlockEnd
  0
BLOCK
  5
868
330
85E
100
AcDbEntity
  8
0
100
AcDbBlockBegin
  2
*D7
 70
     1
 10
0.0
 20
0.0
 30
0.0
  3
*D7
  1

  0
LINE
  5
898
330
85E
100
AcDbEntity
  8
0
  6
Continuous
 62
     0
370
    -2
100
AcDbLine
 10
89.15483934053385
 20
55.52208479222816
 30
0.0
 11
113.9063728869816
 21
55.52208479222813
 31
0.0
  0
LINE
  5
899
330
85E
100
AcDbEntity
  8
0
  6
Continuous
 62
     0
370
    -2
100
AcDbLine
 10
94.75916368135417
 20
2.122109969230109
 30
0.0
 11
113.9063728869816
 21
2.122109969230105
 31
0.0
  0
LINE
  5
89A
330
85E
100
AcDbEntity
  8
0
  6
Continuous
 62
     0
370
    -2
100
AcDbLine
 10
111.3663728869816
 20
54.52208479222814
 30
0.0
 11
111.3663728869816
 21
3.122109969230106
 31
0.0
  0
INSERT
  5
89B
330
85E
100
AcDbEntity
  8
0
  6
Continuous
 62
     0
370
    -2
100
AcDbBlockReference
  2
_OPEN30
 10
111.3663728869816
 20
55.52208479222816
 30
0.0
 50
90.0
  0
INSERT
  5
89C
330
85E
100
AcDbEntity
  8
0
  6
Continuous
 62
     0
370
    -2
100
AcDbBlockReference
  2
_OPEN30
 10
111.3663728869816
 20
2.122109969230105
 30
0.0
 50
270.0
  0
MTEXT
  5
89D
330
85E
100
AcDbEntity
  8
0
  6
Continuous
 62
     0
100
AcDbMText
 10
109.7663728631397
 20
28.82209738072915
 30
0.0
 40
3.200000047683716
 41
0.0
 46
0.0
 71
     5
 72
     1
  1
\A1;53.40
 11
0.0000000000000001
 21
1.0
 31
0.0
 73
     1
 44
1.0
1001
ACAD
1000
MTEXTBEGIN
1070
    73
1070
     1
1070
    44
1040
1.0
1070
    74
1070
     0
1000
MTEXTEND
  0
POINT
  5
89E
330
85E
100
AcDbEntity
  8
DEFPOINTS
  6
Continuous
 62
     0
100
AcDbPoint
 10
86.61483937868082
 20
55.52208479222816
 30
0.0
  0
POINT
  5
89F
330
85E
100
AcDbEntity
  8
DEFPOINTS
  6
Continuous
 62
     0
100
AcDbPoint
 10
92.21916371950113
 20
2.122109969230113
 30
0.0
  0
POINT
  5
8A0
330
85E
100
AcDbEntity
  8
DEFPOINTS
  6
Continuous
 62
     0
100
AcDbPoint
 10
111.3663728869816
 20
2.122109969230105
 30
0.0
  0
ENDBLK
  5
869
330
85E
100
AcDbEntity
  8
0
100
AcDbBlockEnd
  0
BLOCK
  5
874
330
86A
100
AcDbEntity
  8
0
100
AcDbBlockBegin
  2
*D8
 70
     1
 10
0.0
 20
0.0
 30
0.0
  3
*D8
  1

  0
LINE
  5
8A1
330
86A
100
AcDbEntity
  8
0
  6
Continuous
 62
     0
370
    -2
100
AcDbLine
 10
99.47649461397137
 20
57.57208402928871
 30
0.0
 11
122.0020454944034
 21
57.57208402928871
 31
0.0
  0
LINE
  5
8A2
330
86A
100
AcDbEntity
  8
0
  6
Continuous
 62
     0
370
    -2
100
AcDbLine
 10
98.72649461397138
 20
0.0721221762613659
 30
0.0
 11
122.0020454944034
 21
0.0721221762613593
 31
0.0
  0
LINE
  5
8A3
330
86A
100
AcDbEntity
  8
0
  6
Continuous
 62
     0
370
    -2
100
AcDbLine
 10
119.4620454944035
 20
56.57208402928868
 30
0.0
 11
119.4620454944034
 21
1.072122176261359
 31
0.0
  0
INSERT
  5
8A4
330
86A
100
AcDbEntity
  8
0
  6
Continuous
 62
     0
370
    -2
100
AcDbBlockReference
  2
_OPEN30
 10
119.4620454944035
 20
57.57208402928871
 30
0.0
 50
90.0
  0
INSERT
  5
8A5
330
86A
100
AcDbEntity
  8
0
  6
Continuous
 62
     0
370
    -2
100
AcDbBlockReference
  2
_OPEN30
 10
119.4620454944034
 20
0.0721221762613601
 30
0.0
 50
270.0
  0
MTEXT
  5
8A6
330
86A
100
AcDbEntity
  8
0
  6
Continuous
 62
     0
100
AcDbMText
 10
117.8620454705616
 20
28.82210310277505
 30
0.0
 40
3.200000047683716
 41
0.0
 46
0.0
 71
     5
 72
     1
  1
\A1;57.50
 11
0.0000000000000001
 21
1.0
 31
0.0
 73
     1
 44
1.0
1001
ACAD
1000
MTEXTBEGIN
1070
    73
1070
     1
1070
    44
1040
1.0
1070
    74
1070
     0
1000
MTEXTEND
  0
POINT
  5
8A7
330
86A
100
AcDbEntity
  8
DEFPOINTS
  6
Continuous
 62
     0
100
AcDbPoint
 10
96.93649465211834
 20
57.57208402928871
 30
0.0
  0
POINT
  5
8A8
330
86A
100
AcDbEntity
  8
DEFPOINTS
  6
Continuous
 62
     0
100
AcDbPoint
 10
96.18649465211833
 20
0.0721221762613666
 30
0.0
  0
POINT
  5
8A9
330
86A
100
AcDbEntity
  8
DEFPOINTS
  6
Continuous
 62
     0
100
AcDbPoint
 10
119.4620454944034
 20
0.0721221762613601
 30
0.0
  0
ENDBLK
  5
875
330
86A
100
AcDbEntity
  8
0
100
AcDbBlockEnd
  0
BLOCK
  5
8BD
330
8B3
100
AcDbEntity
  8
0
100
AcDbBlockBegin
  2
*D9
 70
     1
 10
0.0
 20
0.0
 30
0.0
  3
*D9
  1

  0
LINE
  5
955
330
8B3
100
AcDbEntity
  8
寸法線
  6
Continuous
 62
     0
440
 16777216
370
    -2
100
AcDbLine
 10
86.88459363850105
 20
61.48709162053627
 30
0.0
 11
86.88459363850105
 21
72.91810676335789
 31
0.0
  0
LINE
  5
956
330
8B3
100
AcDbEntity
  8
寸法線
  6
Continuous
 62
     0
440
 16777216
370
    -2
100
AcDbLine
 10
-20.61539873210438
 20
61.48709162053627
 30
0.0
 11
-20.61539873210438
 21
72.91810676335789
 31
0.0
  0
LINE
  5
957
330
8B3
100
AcDbEntity
  8
寸法線
  6
Continuous
 62
     0
440
 16777216
370
    -2
100
AcDbLine
 10
85.88459363850104
 20
70.37810676335789
 30
0.0
 11
-19.61539873210438
 21
70.37810676335789
 31
0.0
  0
INSERT
  5
958
330
8B3
100
AcDbEntity
  8
寸法線
  6
Continuous
 62
     0
440
 16777216
370
    -2
100
AcDbBlockReference
  2
_OPEN30
 10
86.88459363850105
 20
70.37810676335789
 30
0.0
  0
INSERT
  5
959
330
8B3
100
AcDbEntity
  8
寸法線
  6
Continuous
 62
     0
440
 16777216
370
    -2
100
AcDbBlockReference
  2
_OPEN30
 10
-20.61539873210438
 20
70.37810676335789
 30
0.0
 50
180.0
  0
MTEXT
  5
95A
330
8B3
100
AcDbEntity
  8
寸法線
  6
Continuous
 62
     0
440
 16777216
100
AcDbMText
 10
33.13459745319834
 20
72.97810678719975
 30
0.0
 40
3.200000047683716
 41
0.0
 46
0.0
 71
     5
 72
     1
  1
\A1;L
 73
     1
 44
1.0
1001
ACAD
1000
MTEXTBEGIN
1070
    73
1070
     1
1070
    44
1040
1.0
1070
    74
1070
     0
1000
MTEXTEND
  0
POINT
  5
95B
330
8B3
100
AcDbEntity
  8
DEFPOINTS
  6
Continuous
 62
     0
440
 16777216
100
AcDbPoint
 10
86.88459363850105
 20
58.94709165868324
 30
0.0
  0
POINT
  5
95C
330
8B3
100
AcDbEntity
  8
DEFPOINTS
  6
Continuous
 62
     0
440
 16777216
100
AcDbPoint
 10
-20.61539873210438
 20
58.94709165868324
 30
0.0
  0
POINT
  5
95D
330
8B3
100
AcDbEntity
  8
DEFPOINTS
  6
Continuous
 62
     0
440
 16777216
100
AcDbPoint
 10
-20.61539873210438
 20
70.37810676335789
 30
0.0
  0
ENDBLK
  5
8BE
330
8B3
100
AcDbEntity
  8
0
100
AcDbBlockEnd
  0
BLOCK
  5
8C9
330
8BF
100
AcDbEntity
  8
0
100
AcDbBlockBegin
  2
*D10
 70
     1
 10
0.0
 20
0.0
 30
0.0
  3
*D10
  1

  0
LINE
  5
95E
330
8BF
100
AcDbEntity
  8
寸法線
 62
     0
440
 16777216
370
    -2
100
AcDbLine
 10
89.42460122974869
 20
57.57208402928871
 30
0.0
 11
101.8361779588816
 21
57.57208402928871
 31
0.0
  0
LINE
  5
95F
330
8BF
100
AcDbEntity
  8
寸法線
 62
     0
440
 16777216
370
    -2
100
AcDbLine
 10
88.67460122974865
 20
0.0721221762613588
 30
0.0
 11
101.8361779588816
 21
0.0721221762613551
 31
0.0
  0
LINE
  5
960
330
8BF
100
AcDbEntity
  8
寸法線
 62
     0
440
 16777216
370
    -2
100
AcDbLine
 10
99.29617795888169
 20
56.57208402928871
 30
0.0
 11
99.29617795888164
 21
1.072122176261355
 31
0.0
  0
INSERT
  5
961
330
8BF
100
AcDbEntity
  8
寸法線
 62
     0
440
 16777216
370
    -2
100
AcDbBlockReference
  2
_OPEN30
 10
99.29617795888169
 20
57.57208402928871
 30
0.0
 50
90.0
  0
INSERT
  5
962
330
8BF
100
AcDbEntity
  8
寸法線
 62
     0
440
 16777216
370
    -2
100
AcDbBlockReference
  2
_OPEN30
 10
99.29617795888164
 20
0.0721221762613558
 30
0.0
 50
270.0
  0
MTEXT
  5
963
330
8BF
100
AcDbEntity
  8
寸法線
 62
     0
440
 16777216
100
AcDbMText
 10
96.69617793503981
 20
28.82210310277505
 30
0.0
 40
3.200000047683716
 41
0.0
 46
0.0
 71
     5
 72
     1
  1
\A1;D
 11
0.0000000000000001
 21
1.0
 31
0.0
 73
     1
 44
1.0
1001
ACAD
1000
MTEXTBEGIN
1070
    73
1070
     1
1070
    44
1040
1.0
1070
    74
1070
     0
1000
MTEXTEND
  0
POINT
  5
964
330
8BF
100
AcDbEntity
  8
DEFPOINTS
 62
     0
440
 16777216
100
AcDbPoint
 10
86.88460126789564
 20
57.57208402928871
 30
0.0
  0
POINT
  5
965
330
8BF
100
AcDbEntity
  8
DEFPOINTS
 62
     0
440
 16777216
100
AcDbPoint
 10
86.1346012678956
 20
0.0721221762613595
 30
0.0
  0
POINT
  5
966
330
8BF
100
AcDbEntity
  8
DEFPOINTS
 62
     0
440
 16777216
100
AcDbPoint
 10
99.29617795888164
 20
0.0721221762613558
 30
0.0
  0
ENDBLK
  5
8CA
330
8BF
100
AcDbEntity
  8
0
100
AcDbBlockEnd
  0
ENDSEC
  0
SECTION
  2
ENTITIES
  0
MTEXT
  5
285
330
D4
100
AcDbEntity
  8
0
  6
Continuous
 62
     7
100
AcDbMText
 10
0.7124996185302736
 20
-90.75000000000001
 30
0.0
 40
3.200000047683716
 41
65.90576239073529
 46
0.0
 71
     5
 72
     1
  1
\W0.842895;ソケット  (ﾄﾖﾄﾞﾚﾝＺ)
 73
     1
 44
1.0
1001
ACAD
1000
MTEXTBEGIN
1070
    73
1070
     1
1070
    44
1040
1.0
1070
    74
1070
     0
1000
MTEXTEND
  0
POINT
  5
28E
330
D4
100
AcDbEntity
  8
外形線
  6
Continuous
 62
     7
100
AcDbPoint
 10
-50.57500076293945
 20
-87.0
 30
0.0
  0
POINT
  5
28F
330
D4
100
AcDbEntity
  8
1
  6
Continuous
 62
     7
100
AcDbPoint
 10
138.5
 20
-87.0
 30
0.0
  0
LINE
  5
298
330
D4
100
AcDbEntity
  8
外形線
  6
Continuous
 62
     7
100
AcDbLine
 10
-50.57500076293945
 20
-87.0
 30
0.0
 11
-50.57500076293945
 21
-94.50000000000001
 31
0.0
  0
LINE
  5
2B9
330
D4
100
AcDbEntity
  8
外形線
  6
Continuous
 62
     7
100
AcDbLine
 10
-138.0
 20
-94.50000000000001
 30
0.0
 11
138.5
 21
-94.50000000000001
 31
0.0
  0
LINE
  5
2BC
330
D4
100
AcDbEntity
  8
外形線
  6
Continuous
 62
     7
100
AcDbLine
 10
-50.57500076293945
 20
-87.0
 30
0.0
 11
138.5
 21
-87.0
 31
0.0
  0
LINE
  5
2BD
330
D4
100
AcDbEntity
  8
外形線
  6
Continuous
 62
     7
100
AcDbLine
 10
52.0
 20
-87.0
 30
0.0
 11
52.0
 21
-94.50000000000001
 31
0.0
  0
LINE
  5
2BE
330
D4
100
AcDbEntity
  8
外形線
  6
Continuous
 62
     7
100
AcDbLine
 10
138.5
 20
95.0
 30
0.0
 11
138.5
 21
-94.50000000000001
 31
0.0
  0
LINE
  5
2BF
330
D4
100
AcDbEntity
  8
外形線
  6
Continuous
 62
     7
100
AcDbLine
 10
-138.0
 20
95.0
 30
0.0
 11
-138.0
 21
-94.50000000000001
 31
0.0
  0
LINE
  5
2C0
330
D4
100
AcDbEntity
  8
外形線
  6
Continuous
 62
     7
100
AcDbLine
 10
-138.0
 20
95.0
 30
0.0
 11
138.5
 21
95.0
 31
0.0
  0
MTEXT
  5
39B
330
D4
100
AcDbEntity
  8
VIEW0002
 62
     7
100
AcDbMText
 10
-46.6098471868681
 20
-64.79285744595789
 30
0.0
 40
3.200000047683716
 41
0.0
 46
0.0
 71
     7
 72
     1
  1
{\W0.833333;*形状は規格毎に異なります。}
 73
     1
 44
1.0
1001
ACAD
1000
MTEXTBEGIN
1070
    73
1070
     1
1070
    44
1040
1.0
1070
    74
1070
     0
1000
MTEXTEND
  0
MTEXT
  5
39C
330
D4
100
AcDbEntity
  8
VIEW0002
 62
     7
100
AcDbMText
 10
-46.4698593229969
 20
-69.79074697124635
 30
0.0
 40
3.200000047683716
 41
0.0
 46
0.0
 71
     7
 72
     1
  1
{\W0.833333;*ストッパ－の位置及び数は、規格毎に異なります。}
 73
     1
 44
1.0
1001
ACAD
1000
MTEXTBEGIN
1070
    73
1070
     1
1070
    44
1040
1.0
1070
    74
1070
     0
1000
MTEXTEND
  0
MTEXT
  5
39D
330
D4
100
AcDbEntity
  8
VIEW0002
 62
     7
100
AcDbMText
 10
-46.70463687023931
 20
-75.02074326063436
 30
0.0
 40
3.200000047683716
 41
0.0
 46
0.0
 71
     7
 72
     1
  1
{\W0.8333;*寸法、仕様等は製品改良の為、予告無く変更する場合があります。（Ｈ２４．６）}
 73
     1
 44
1.0
1001
ACAD
1000
ACAD_MTEXT_DEFINED_HEIGHT_BEGIN
1070
    46
1040
0.0
1000
ACAD_MTEXT_DEFINED_HEIGHT_END
1000
MTEXTBEGIN
1070
    73
1070
     1
1070
    44
1040
1.0
1070
    74
1070
     0
1000
MTEXTEND
  0
LINE
  5
43A
330
D4
100
AcDbEntity
  8
VIEW0002
  6
Continuous
 62
     7
100
AcDbLine
 10
-36.17935354869624
 20
-43.88600130686163
 30
0.0
 11
35.82064645130373
 21
-43.88600130686165
 31
0.0
  0
LINE
  5
43B
330
D4
100
AcDbEntity
  8
VIEW0002
  6
Continuous
 62
     7
100
AcDbLine
 10
-36.17935354869624
 20
-25.88600130686165
 30
0.0
 11
35.82064645130373
 21
-25.88600130686165
 31
0.0
  0
LINE
  5
43C
330
D4
100
AcDbEntity
  8
VIEW0002
  6
Continuous
 62
     7
100
AcDbLine
 10
-12.17935354869625
 20
-19.88600130686164
 30
0.0
 11
-12.17935354869625
 21
-55.88600130686163
 31
0.0
  0
LINE
  5
43D
330
D4
100
AcDbEntity
  8
VIEW0002
  6
Continuous
 62
     7
100
AcDbLine
 10
-36.17935354869624
 20
-19.88600130686164
 30
0.0
 11
-36.17935354869624
 21
-55.88600130686163
 31
0.0
  0
LINE
  5
43E
330
D4
100
AcDbEntity
  8
VIEW0002
  6
Continuous
 62
     7
100
AcDbLine
 10
11.82064645130373
 20
-19.88600130686164
 30
0.0
 11
11.82064645130373
 21
-55.88600130686163
 31
0.0
  0
LINE
  5
43F
330
D4
100
AcDbEntity
  8
VIEW0002
  6
Continuous
 62
     7
100
AcDbLine
 10
35.82064645130373
 20
-19.88600130686164
 30
0.0
 11
35.82064645130373
 21
-55.88600130686165
 31
0.0
  0
LINE
  5
441
330
D4
100
AcDbEntity
  8
VIEW0002
  6
Continuous
 62
     7
100
AcDbLine
 10
-36.17935354869624
 20
-19.88600130686164
 30
0.0
 11
35.82064645130373
 21
-19.88600130686164
 31
0.0
  0
LINE
  5
442
330
D4
100
AcDbEntity
  8
VIEW0002
  6
Continuous
 62
     7
100
AcDbLine
 10
-36.17935354869624
 20
-49.88600130686164
 30
0.0
 11
35.82064645130373
 21
-49.88600130686164
 31
0.0
  0
LINE
  5
443
330
D4
100
AcDbEntity
  8
VIEW0002
  6
Continuous
 62
     7
100
AcDbLine
 10
-36.17935354869624
 20
-55.88600130686163
 30
0.0
 11
35.82064645130373
 21
-55.88600130686165
 31
0.0
  0
LINE
  5
446
330
D4
100
AcDbEntity
  8
VIEW0002
  6
Continuous
 62
     7
100
AcDbLine
 10
-36.17935354869624
 20
-37.88600130686165
 30
0.0
 11
35.82064645130373
 21
-37.88600130686165
 31
0.0
  0
LINE
  5
447
330
D4
100
AcDbEntity
  8
VIEW0002
  6
Continuous
 62
     7
100
AcDbLine
 10
-36.17935354869624
 20
-31.88600130686165
 30
0.0
 11
35.82064645130373
 21
-31.88600130686165
 31
0.0
  0
MTEXT
  5
448
330
D4
100
AcDbEntity
  8
VIEW0002
 62
     7
100
AcDbMText
 10
-32.30945530900263
 20
-42.4860013307035
 30
0.0
 40
3.200000047683716
 41
0.0
 46
0.0
 71
     7
 72
     1
  1
TDZ100
 73
     1
 44
1.0
1001
ACAD
1000
MTEXTBEGIN
1070
    73
1070
     1
1070
    44
1040
1.0
1070
    74
1070
     0
1000
MTEXTEND
  0
MTEXT
  5
449
330
D4
100
AcDbEntity
  8
VIEW0002
 62
     7
100
AcDbMText
 10
20.34471193551582
 20
-42.48600182366515
 30
0.0
 40
3.200000047683716
 41
0.0
 46
0.0
 71
     7
 72
     1
  1
215
 73
     1
 44
1.0
1001
ACAD
1000
MTEXTBEGIN
1070
    73
1070
     1
1070
    44
1040
1.0
1070
    74
1070
     0
1000
MTEXTEND
  0
MTEXT
  5
44A
330
D4
100
AcDbEntity
  8
VIEW0002
 62
     7
100
AcDbMText
 10
-4.003843066204368
 20
-42.4860013307035
 30
0.0
 40
3.200000047683716
 41
0.0
 46
0.0
 71
     7
 72
     1
  1
118
 73
     1
 44
1.0
1001
ACAD
1000
MTEXTBEGIN
1070
    73
1070
     1
1070
    44
1040
1.0
1070
    74
1070
     0
1000
MTEXTEND
  0
MTEXT
  5
44D
330
D4
100
AcDbEntity
  8
VIEW0002
 62
     7
100
AcDbMText
 10
-4.003843066204368
 20
-48.48600133070349
 30
0.0
 40
3.200000047683716
 41
0.0
 46
0.0
 71
     7
 72
     1
  1
169
 73
     1
 44
1.0
1001
ACAD
1000
MTEXTBEGIN
1070
    73
1070
     1
1070
    44
1040
1.0
1070
    74
1070
     0
1000
MTEXTEND
  0
MTEXT
  5
44E
330
D4
100
AcDbEntity
  8
VIEW0002
 62
     7
100
AcDbMText
 10
20.34471193551582
 20
-48.48600182366515
 30
0.0
 40
3.200000047683716
 41
0.0
 46
0.0
 71
     7
 72
     1
  1
215
 73
     1
 44
1.0
1001
ACAD
1000
MTEXTBEGIN
1070
    73
1070
     1
1070
    44
1040
1.0
1070
    74
1070
     0
1000
MTEXTEND
  0
MTEXT
  5
44F
330
D4
100
AcDbEntity
  8
VIEW0002
 62
     7
100
AcDbMText
 10
-32.30945530900263
 20
-48.48600133070349
 30
0.0
 40
3.200000047683716
 41
0.0
 46
0.0
 71
     7
 72
     1
  1
TDZ150
 73
     1
 44
1.0
1001
ACAD
1000
MTEXTBEGIN
1070
    73
1070
     1
1070
    44
1040
1.0
1070
    74
1070
     0
1000
MTEXTEND
  0
MTEXT
  5
451
330
D4
100
AcDbEntity
  8
VIEW0002
 62
     7
100
AcDbMText
 10
22.88035982052946
 20
-24.4860013307035
 30
0.0
 40
3.200000047683716
 41
0.0
 46
0.0
 71
     7
 72
     1
  1
Ｌ
 73
     1
 44
1.0
1001
ACAD
1000
MTEXTBEGIN
1070
    73
1070
     1
1070
    44
1040
1.0
1070
    74
1070
     0
1000
MTEXTEND
  0
MTEXT
  5
452
330
D4
100
AcDbEntity
  8
VIEW0002
 62
     7
100
AcDbMText
 10
-1.499477010683178
 20
-24.4860013307035
 30
0.0
 40
3.200000047683716
 41
0.0
 46
0.0
 71
     7
 72
     1
  1
Ｄ
 73
     1
 44
1.0
1001
ACAD
1000
MTEXTBEGIN
1070
    73
1070
     1
1070
    44
1040
1.0
1070
    74
1070
     0
1000
MTEXTEND
  0
MTEXT
  5
453
330
D4
100
AcDbEntity
  8
VIEW0002
 62
     7
100
AcDbMText
 10
-30.12235353749062
 20
-24.4860013307035
 30
0.0
 40
3.200000047683716
 41
0.0
 46
0.0
 71
     7
 72
     1
  1
{\W0.833333;規　　格}
 73
     1
 44
1.0
1001
ACAD
1000
MTEXTBEGIN
1070
    73
1070
     1
1070
    44
1040
1.0
1070
    74
1070
     0
1000
MTEXTEND
  0
MTEXT
  5
454
330
D4
100
AcDbEntity
  8
VIEW0002
 62
     7
100
AcDbMText
 10
-32.30945530900263
 20
-54.48600133070351
 30
0.0
 40
3.200000047683716
 41
0.0
 46
0.0
 71
     7
 72
     1
  1
TDZ200
 73
     1
 44
1.0
1001
ACAD
1000
MTEXTBEGIN
1070
    73
1070
     1
1070
    44
1040
1.0
1070
    74
1070
     0
1000
MTEXTEND
  0
MTEXT
  5
455
330
D4
100
AcDbEntity
  8
VIEW0002
 62
     7
100
AcDbMText
 10
20.34471193551582
 20
-54.48600182366515
 30
0.0
 40
3.200000047683716
 41
0.0
 46
0.0
 71
     7
 72
     1
  1
215
 73
     1
 44
1.0
1001
ACAD
1000
MTEXTBEGIN
1070
    73
1070
     1
1070
    44
1040
1.0
1070
    74
1070
     0
1000
MTEXTEND
  0
MTEXT
  5
456
330
D4
100
AcDbEntity
  8
VIEW0002
 62
     7
100
AcDbMText
 10
-4.510291370242969
 20
-54.4860013307035
 30
0.0
 40
3.200000047683716
 41
0.0
 46
0.0
 71
     7
 72
     1
  1
226
 73
     1
 44
1.0
1001
ACAD
1000
MTEXTBEGIN
1070
    73
1070
     1
1070
    44
1040
1.0
1070
    74
1070
     0
1000
MTEXTEND
  0
MTEXT
  5
460
330
D4
100
AcDbEntity
  8
VIEW0002
 62
     7
100
AcDbMText
 10
-31.72235353153013
 20
-36.4860013307035
 30
0.0
 40
3.200000047683716
 41
0.0
 46
0.0
 71
     7
 72
     1
  1
TDZ75
 73
     1
 44
1.0
1001
ACAD
1000
MTEXTBEGIN
1070
    73
1070
     1
1070
    44
1040
1.0
1070
    74
1070
     0
1000
MTEXTEND
  0
MTEXT
  5
461
330
D4
100
AcDbEntity
  8
VIEW0002
 62
     7
100
AcDbMText
 10
-31.72235353153013
 20
-30.4860013307035
 30
0.0
 40
3.200000047683716
 41
0.0
 46
0.0
 71
     7
 72
     1
  1
TDZ50
 73
     1
 44
1.0
1001
ACAD
1000
MTEXTBEGIN
1070
    73
1070
     1
1070
    44
1040
1.0
1070
    74
1070
     0
1000
MTEXTEND
  0
MTEXT
  5
462
330
D4
100
AcDbEntity
  8
VIEW0002
 62
     7
100
AcDbMText
 10
20.29875393612377
 20
-36.48600182366515
 30
0.0
 40
3.200000047683716
 41
0.0
 46
0.0
 71
     7
 72
     1
  1
215
 73
     1
 44
1.0
1001
ACAD
1000
MTEXTBEGIN
1070
    73
1070
     1
1070
    44
1040
1.0
1070
    74
1070
     0
1000
MTEXTEND
  0
MTEXT
  5
463
330
D4
100
AcDbEntity
  8
VIEW0002
 62
     7
100
AcDbMText
 10
20.29875393612377
 20
-30.48600182366515
 30
0.0
 40
3.200000047683716
 41
0.0
 46
0.0
 71
     7
 72
     1
  1
180
 73
     1
 44
1.0
1001
ACAD
1000
MTEXTBEGIN
1070
    73
1070
     1
1070
    44
1040
1.0
1070
    74
1070
     0
1000
MTEXTEND
  0
MTEXT
  5
464
330
D4
100
AcDbEntity
  8
VIEW0002
 62
     7
100
AcDbMText
 10
-3.03690445751924
 20
-36.4860013307035
 30
0.0
 40
3.200000047683716
 41
0.0
 46
0.0
 71
     7
 72
     1
  1
93
 73
     1
 44
1.0
1001
ACAD
1000
MTEXTBEGIN
1070
    73
1070
     1
1070
    44
1040
1.0
1070
    74
1070
     0
1000
MTEXTEND
  0
MTEXT
  5
465
330
D4
100
AcDbEntity
  8
VIEW0002
 62
     7
100
AcDbMText
 10
-3.03690445751924
 20
-30.4860013307035
 30
0.0
 40
3.200000047683716
 41
0.0
 46
0.0
 71
     7
 72
     1
  1
62
 73
     1
 44
1.0
1001
ACAD
1000
MTEXTBEGIN
1070
    73
1070
     1
1070
    44
1040
1.0
1070
    74
1070
     0
1000
MTEXTEND
  0
LINE
  5
6CE
330
D4
100
AcDbEntity
  8
中心線
100
AcDbLine
 10
-24.05423196879872
 20
28.82209165868323
 30
0.0
 11
92.88093152912606
 21
28.82209165868323
 31
0.0
  0
LINE
  5
6CF
330
D4
100
AcDbEntity
  8
破線
100
AcDbLine
 10
-15.84040292827137
 20
0.0721069174722899
 30
0.0
 11
-20.61539682475575
 21
0.0721069174722899
 31
0.0
  0
LINE
  5
6D0
330
D4
100
AcDbEntity
  8
外形線
  6
Continuous
100
AcDbLine
 10
-15.84040292827137
 20
-0.5528930825277101
 30
0.0
 11
-19.86539682475575
 21
-0.5528930825277101
 31
0.0
  0
LINE
  5
6D1
330
D4
100
AcDbEntity
  8
外形線
  6
Continuous
100
AcDbLine
 10
-15.84040292827137
 20
-0.5528930825277101
 30
0.0
 11
-11.99484476176746
 21
-0.5528930825277101
 31
0.0
  0
LINE
  5
6D2
330
D4
100
AcDbEntity
  8
破線
100
AcDbLine
 10
-15.84040292827137
 20
0.0721069174722899
 30
0.0
 11
-12.10351499644764
 21
0.0721069174722899
 31
0.0
  0
LINE
  5
6D3
330
D4
100
AcDbEntity
  8
破線
100
AcDbLine
 10
-11.92126516625737
 20
1.368886398440528
 30
0.0
 11
-12.1035159185564
 21
0.0721060878172253
 31
0.0
  0
LINE
  5
6D4
330
D4
100
AcDbEntity
  8
破線
100
AcDbLine
 10
-11.05477365581043
 20
2.122109969230113
 30
0.0
 11
-8.290399876513561
 21
2.122109969230113
 31
0.0
  0
LINE
  5
6D5
330
D4
100
AcDbEntity
  8
外形線
  6
Continuous
100
AcDbLine
 10
-11.05477365581043
 20
1.497109969230113
 30
0.0
 11
-8.290399876513561
 21
1.497109969230113
 31
0.0
  0
LINE
  5
6D6
330
D4
100
AcDbEntity
  8
外形線
  6
Continuous
100
AcDbLine
 10
-11.30234633497274
 20
1.281895246146774
 30
0.0
 11
-11.49971881790218
 21
-0.1224816713311654
 31
0.0
  0
LINE
  5
6D7
330
D4
100
AcDbEntity
  8
外形線
  6
Continuous
100
AcDbLine
 10
-19.86539873210437
 20
58.94709165868324
 30
0.0
 11
-19.86539873210437
 21
28.82209165868323
 31
0.0
  0
LINE
  5
6D8
330
D4
100
AcDbEntity
  8
外形線
  6
Continuous
100
AcDbLine
 10
-20.61539873210438
 20
58.94709165868324
 30
0.0
 11
-20.61539873210438
 21
28.82209165868323
 31
0.0
  0
LINE
  5
6D9
330
D4
100
AcDbEntity
  8
外形線
  6
Continuous
100
AcDbLine
 10
-20.61539682475575
 20
58.94709165868324
 30
0.0
 11
-19.86539682475575
 21
58.94709165868324
 31
0.0
  0
LINE
  5
6DA
330
D4
100
AcDbEntity
  8
外形線
  6
Continuous
100
AcDbLine
 10
-11.58724909877296
 20
-0.3424924961920084
 30
0.0
 11
-15.90350145502543
 21
33.24425038919927
 31
0.0
  0
LINE
  5
6DB
330
D4
100
AcDbEntity
  8
外形線
  6
Continuous
100
AcDbLine
 10
-11.25772988486874
 20
1.393073287769289
 30
0.0
 11
-15.61539924500095
 21
32.93568173861576
 31
0.0
  0
LINE
  5
6DC
330
D4
100
AcDbEntity
  8
外形線
  6
Continuous
100
AcDbLine
 10
-15.61539873210438
 20
56.2735114890055
 30
0.0
 11
-15.61539873210438
 21
32.93568571385902
 31
0.0
  0
LINE
  5
6DD
330
D4
100
AcDbEntity
  8
外形線
  6
Continuous
100
AcDbLine
 10
-15.64563381733831
 20
56.36228572717238
 30
0.0
 11
-15.84300662393903
 21
57.76666645134779
 31
0.0
  0
LINE
  5
6DE
330
D4
100
AcDbEntity
  8
外形線
  6
Continuous
100
AcDbLine
 10
-19.86539682475575
 20
58.19708402928871
 30
0.0
 11
-16.33814462749012
 21
58.19708402928871
 31
0.0
  0
LINE
  5
6DF
330
D4
100
AcDbEntity
  8
外形線
  6
Continuous
100
AcDbLine
 10
-15.90349992839344
 20
57.94423063573399
 30
0.0
 11
-15.90349992839344
 21
33.24425276097816
 31
0.0
  0
LINE
  5
6E0
330
D4
100
AcDbEntity
  8
破線
100
AcDbLine
 10
-16.26456957120561
 20
56.27530192016386
 30
0.0
 11
-16.44682039760144
 21
57.57208414646682
 31
0.0
  0
LINE
  5
6E1
330
D4
100
AcDbEntity
  8
破線
100
AcDbLine
 10
-20.61539682475575
 20
57.57208402928871
 30
0.0
 11
-16.44681963054188
 21
57.57208402928871
 31
0.0
  0
LINE
  5
6E2
330
D4
100
AcDbEntity
  8
外形線
  6
Continuous
100
AcDbLine
 10
-19.86539873210437
 20
-1.302908341316765
 30
0.0
 11
-19.86539873210437
 21
28.82209165868323
 31
0.0
  0
LINE
  5
6E3
330
D4
100
AcDbEntity
  8
外形線
  6
Continuous
100
AcDbLine
 10
-20.61539873210438
 20
-1.302908341316765
 30
0.0
 11
-20.61539873210438
 21
28.82209165868323
 31
0.0
  0
LINE
  5
6E4
330
D4
100
AcDbEntity
  8
外形線
  6
Continuous
100
AcDbLine
 10
-20.61539682475575
 20
-1.302908341316765
 30
0.0
 11
-19.86539682475575
 21
-1.302908341316765
 31
0.0
  0
LINE
  5
6E5
330
D4
100
AcDbEntity
  8
中心線
100
AcDbLine
 10
-69.06035564609408
 20
63.34649427709144
 30
0.0
 11
-69.06035564609408
 21
-5.49033204737146
 31
0.0
  0
LINE
  5
6E6
330
D4
100
AcDbEntity
  8
中心線
100
AcDbLine
 10
-104.4372553653323
 20
28.82209165868323
 30
0.0
 11
-34.20626781650424
 21
28.82209165868323
 31
0.0
  0
LINE
  5
6E7
330
D4
100
AcDbEntity
  8
破線
100
AcDbLine
 10
-0.7403968247557488
 20
0.0721069174722899
 30
0.0
 11
-4.477297154345591
 21
0.0721069174722899
 31
0.0
  0
LINE
  5
6E8
330
D4
100
AcDbEntity
  8
外形線
  6
Continuous
100
AcDbLine
 10
-0.7403968247557488
 20
-0.5528930825277101
 30
0.0
 11
-4.585951176562388
 21
-0.5528930825277101
 31
0.0
  0
LINE
  5
6E9
330
D4
100
AcDbEntity
  8
破線
100
AcDbLine
 10
-5.526026097216686
 20
2.122109969230113
 30
0.0
 11
-8.290399876513561
 21
2.122109969230113
 31
0.0
  0
LINE
  5
6EA
330
D4
100
AcDbEntity
  8
外形線
  6
Continuous
100
AcDbLine
 10
-5.526026097216686
 20
1.497109969230113
 30
0.0
 11
-8.290399876513561
 21
1.497109969230113
 31
0.0
  0
LINE
  5
6EB
330
D4
100
AcDbEntity
  8
外形線
  6
Continuous
100
AcDbLine
 10
-5.278465689844266
 20
1.281892426283819
 30
0.0
 11
-5.081092815951278
 21
-0.1224902145274882
 31
0.0
  0
LINE
  5
6EC
330
D4
100
AcDbEntity
  8
破線
100
AcDbLine
 10
-4.659545712937358
 20
1.368872000837413
 30
0.0
 11
-4.477297724031487
 21
0.0721086366836872
 31
0.0
  0
LINE
  5
6ED
330
D4
100
AcDbEntity
  8
外形線
  6
Continuous
100
AcDbLine
 10
-0.7403968247557488
 20
-0.5528930825277101
 30
0.0
 11
3.105153712353626
 21
-0.5528930825277101
 31
0.0
  0
LINE
  5
6EE
330
D4
100
AcDbEntity
  8
破線
100
AcDbLine
 10
-0.7403968247557488
 20
0.0721069174722899
 30
0.0
 11
2.996484431347766
 21
0.0721069174722899
 31
0.0
  0
LINE
  5
6EF
330
D4
100
AcDbEntity
  8
破線
100
AcDbLine
 10
3.178734031925926
 20
1.368875997903274
 30
0.0
 11
2.996484872338058
 21
0.0721070199984482
 31
0.0
  0
LINE
  5
6F0
330
D4
100
AcDbEntity
  8
破線
100
AcDbLine
 10
4.045224818310656
 20
2.122109969230113
 30
0.0
 11
6.809601458630481
 21
2.122109969230113
 31
0.0
  0
LINE
  5
6F1
330
D4
100
AcDbEntity
  8
外形線
  6
Continuous
100
AcDbLine
 10
4.045224818310656
 20
1.497109969230113
 30
0.0
 11
6.809601458630481
 21
1.497109969230113
 31
0.0
  0
LINE
  5
6F2
330
D4
100
AcDbEntity
  8
外形線
  6
Continuous
100
AcDbLine
 10
3.797658026749786
 20
1.281897602573664
 30
0.0
 11
3.600285012916628
 21
-0.1224830924771112
 31
0.0
  0
LINE
  5
6F3
330
D4
100
AcDbEntity
  8
中心線
100
AcDbLine
 10
3.03460848675229
 20
28.82208970233541
 30
0.0
 11
-0.7403931491727179
 21
-0.5529085866944499
 31
0.0
  0
LINE
  5
6F4
330
D4
100
AcDbEntity
  8
中心線
100
AcDbLine
 10
-0.7403946472389578
 20
-0.5529170996804922
 30
0.0
 11
-4.515393469820748
 21
28.82209020454713
 31
0.0
  0
LINE
  5
6F5
330
D4
100
AcDbEntity
  8
中心線
100
AcDbLine
 10
-8.290429882984199
 20
58.19709788109817
 30
0.0
 11
-12.06542767232658
 21
28.82209861698306
 31
0.0
  0
LINE
  5
6F6
330
D4
100
AcDbEntity
  8
中心線
100
AcDbLine
 10
-4.515400415194761
 20
28.82209056347242
 30
0.0
 11
-8.290402111898615
 21
58.19708932545005
 31
0.0
  0
LINE
  5
6F7
330
D4
100
AcDbEntity
  8
破線
100
AcDbLine
 10
-8.290399876513561
 20
57.57208402928871
 30
0.0
 11
-4.553507653155405
 21
57.57208402928871
 31
0.0
  0
LINE
  5
6F8
330
D4
100
AcDbEntity
  8
外形線
  6
Continuous
100
AcDbLine
 10
-8.290399876513561
 20
58.19708402928871
 30
0.0
 11
-4.444845524706919
 21
58.19708402928871
 31
0.0
  0
LINE
  5
6F9
330
D4
100
AcDbEntity
  8
破線
100
AcDbLine
 10
-3.504770604052622
 20
55.52208479222816
 30
0.0
 11
-0.7403968247557488
 21
55.52208479222816
 31
0.0
  0
LINE
  5
6FA
330
D4
100
AcDbEntity
  8
外形線
  6
Continuous
100
AcDbLine
 10
-3.504770604052622
 20
56.14708479222816
 30
0.0
 11
-0.7403968247557488
 21
56.14708479222816
 31
0.0
  0
LINE
  5
6FB
330
D4
100
AcDbEntity
  8
外形線
  6
Continuous
100
AcDbLine
 10
-3.752338591554121
 20
56.36229034198251
 30
0.0
 11
-3.949711398154846
 21
57.76667106615793
 31
0.0
  0
LINE
  5
6FC
330
D4
100
AcDbEntity
  8
破線
100
AcDbLine
 10
-4.371256727380369
 20
56.27529938056165
 30
0.0
 11
-4.553508084679362
 21
57.57208538443752
 31
0.0
  0
LINE
  5
6FD
330
D4
100
AcDbEntity
  8
外形線
  6
Continuous
100
AcDbLine
 10
-8.290399876513561
 20
58.19708402928871
 30
0.0
 11
-12.13595041362294
 21
58.19708402928871
 31
0.0
  0
LINE
  5
6FE
330
D4
100
AcDbEntity
  8
破線
100
AcDbLine
 10
-8.290399876513561
 20
57.57208402928871
 30
0.0
 11
-12.02727922526844
 21
57.57208402928871
 31
0.0
  0
LINE
  5
6FF
330
D4
100
AcDbEntity
  8
破線
100
AcDbLine
 10
-12.20953023845622
 20
56.27530292165698
 30
0.0
 11
-12.02727967751198
 21
57.57208325917345
 31
0.0
  0
LINE
  5
700
330
D4
100
AcDbEntity
  8
破線
100
AcDbLine
 10
-13.07602151957997
 20
55.52208479222816
 30
0.0
 11
-14.03705057231434
 21
55.52208479222816
 31
0.0
  0
LINE
  5
701
330
D4
100
AcDbEntity
  8
外形線
  6
Continuous
100
AcDbLine
 10
-13.07602151957997
 20
56.14708479222816
 30
0.0
 11
-14.03705057231434
 21
56.14708479222816
 31
0.0
  0
LINE
  5
702
330
D4
100
AcDbEntity
  8
外形線
  6
Continuous
100
AcDbLine
 10
-12.82845749278449
 20
56.36228553413335
 30
0.0
 11
-12.63108468618378
 21
57.76666625830874
 31
0.0
  0
LINE
  5
703
330
D4
100
AcDbEntity
  8
外形線
  6
Continuous
100
AcDbLine
 10
-5.308692443749379
 20
1.497097901852869
 30
0.0
 11
-12.85868857827881
 21
56.14708444182316
 31
0.0
  0
LINE
  5
704
330
D4
100
AcDbEntity
  8
外形線
  6
Continuous
100
AcDbLine
 10
-12.54355110001346
 20
57.98667265010179
 30
0.0
 11
-5.067603031068641
 21
-0.1871144438008514
 31
0.0
  0
LINE
  5
705
330
D4
100
AcDbEntity
  8
外形線
  6
Continuous
100
AcDbLine
 10
3.512750798810002
 20
-0.3424892353226667
 30
0.0
 11
-3.963197999480441
 21
57.83130353395343
 31
0.0
  0
LINE
  5
706
330
D4
100
AcDbEntity
  8
外形線
  6
Continuous
100
AcDbLine
 10
3.82790675843843
 20
1.49709771862637
 30
0.0
 11
-3.75191064742368
 21
56.36294292234918
 31
0.0
  0
LINE
  5
707
330
D4
100
AcDbEntity
  8
外形線
  6
Continuous
100
AcDbLine
 10
-15.39807542888172
 20
56.14708479222816
 30
0.0
 11
-14.03705057231434
 21
56.14708479222816
 31
0.0
  0
LINE
  5
708
330
D4
100
AcDbEntity
  8
破線
100
AcDbLine
 10
-15.84040197459706
 20
55.52208479222816
 30
0.0
 11
-14.03705057231434
 21
55.52208479222816
 31
0.0
  0
LINE
  5
709
330
D4
100
AcDbEntity
  8
破線
100
AcDbLine
 10
14.35960355671397
 20
0.0721069174722899
 30
0.0
 11
10.62270322712413
 21
0.0721069174722899
 31
0.0
  0
LINE
  5
70A
330
D4
100
AcDbEntity
  8
外形線
  6
Continuous
100
AcDbLine
 10
14.35960355671397
 20
-0.5528930825277101
 30
0.0
 11
10.51404920490734
 21
-0.5528930825277101
 31
0.0
  0
LINE
  5
70B
330
D4
100
AcDbEntity
  8
破線
100
AcDbLine
 10
9.573974284253036
 20
2.122109969230113
 30
0.0
 11
6.809600504956165
 21
2.122109969230113
 31
0.0
  0
LINE
  5
70C
330
D4
100
AcDbEntity
  8
外形線
  6
Continuous
100
AcDbLine
 10
9.573974284253036
 20
1.497109969230113
 30
0.0
 11
6.809600504956165
 21
1.497109969230113
 31
0.0
  0
LINE
  5
70D
330
D4
100
AcDbEntity
  8
外形線
  6
Continuous
100
AcDbLine
 10
9.821533360302098
 20
1.281892668938503
 30
0.0
 11
10.01890596874375
 21
-0.1224880830863171
 31
0.0
  0
LINE
  5
70E
330
D4
100
AcDbEntity
  8
破線
100
AcDbLine
 10
10.44045333720901
 20
1.368872243492081
 30
0.0
 11
10.62270106066356
 21
0.0721107681248441
 31
0.0
  0
LINE
  5
70F
330
D4
100
AcDbEntity
  8
外形線
  6
Continuous
100
AcDbLine
 10
14.35960355671397
 20
-0.5528930825277101
 30
0.0
 11
18.20515409382335
 21
-0.5528930825277101
 31
0.0
  0
LINE
  5
710
330
D4
100
AcDbEntity
  8
破線
100
AcDbLine
 10
14.35960355671397
 20
0.0721069174722899
 30
0.0
 11
18.09648481281748
 21
0.0721069174722899
 31
0.0
  0
LINE
  5
711
330
D4
100
AcDbEntity
  8
破線
100
AcDbLine
 10
18.27873314077868
 20
1.368875240386989
 30
0.0
 11
18.09648398119083
 21
0.0721062624821656
 31
0.0
  0
LINE
  5
712
330
D4
100
AcDbEntity
  8
破線
100
AcDbLine
 10
19.14522519978038
 20
2.122109969230113
 30
0.0
 11
21.90960279377453
 21
2.122109969230113
 31
0.0
  0
LINE
  5
713
330
D4
100
AcDbEntity
  8
外形線
  6
Continuous
100
AcDbLine
 10
19.14522519978038
 20
1.497109969230113
 30
0.0
 11
21.90960279377453
 21
1.497109969230113
 31
0.0
  0
LINE
  5
714
330
D4
100
AcDbEntity
  8
外形線
  6
Continuous
100
AcDbLine
 10
18.89765902438898
 20
1.281896579605511
 30
0.0
 11
18.70028601055583
 21
-0.1224841154452605
 31
0.0
  0
LINE
  5
715
330
D4
100
AcDbEntity
  8
中心線
100
AcDbLine
 10
18.13460922004404
 20
28.82209138229246
 30
0.0
 11
14.35960772087145
 21
-0.5529058426048863
 31
0.0
  0
LINE
  5
716
330
D4
100
AcDbEntity
  8
中心線
100
AcDbLine
 10
14.35960938863727
 20
-0.5529137533412225
 30
0.0
 11
10.58461074839185
 21
28.822092132043
 31
0.0
  0
LINE
  5
717
330
D4
100
AcDbEntity
  8
中心線
100
AcDbLine
 10
6.809572622452972
 20
58.19709665447056
 30
0.0
 11
3.034574893889383
 21
28.8220978633032
 31
0.0
  0
LINE
  5
718
330
D4
100
AcDbEntity
  8
中心線
100
AcDbLine
 10
10.58460026919211
 20
28.82209019931649
 30
0.0
 11
6.809598633267111
 21
58.19708848834634
 31
0.0
  0
LINE
  5
719
330
D4
100
AcDbEntity
  8
破線
100
AcDbLine
 10
6.809600504956165
 20
57.57208402928871
 30
0.0
 11
10.54649320515148
 21
57.57208402928871
 31
0.0
  0
LINE
  5
71A
330
D4
100
AcDbEntity
  8
外形線
  6
Continuous
100
AcDbLine
 10
6.809600504956165
 20
58.19708402928871
 30
0.0
 11
10.65515485676279
 21
58.19708402928871
 31
0.0
  0
LINE
  5
71B
330
D4
100
AcDbEntity
  8
破線
100
AcDbLine
 10
11.5952297774171
 20
55.52208479222816
 30
0.0
 11
14.35960355671397
 21
55.52208479222816
 31
0.0
  0
LINE
  5
71C
330
D4
100
AcDbEntity
  8
外形線
  6
Continuous
100
AcDbLine
 10
11.5952297774171
 20
56.14708479222816
 30
0.0
 11
14.35960355671397
 21
56.14708479222816
 31
0.0
  0
LINE
  5
71D
330
D4
100
AcDbEntity
  8
外形線
  6
Continuous
100
AcDbLine
 10
11.34766140298526
 20
56.36229284798277
 30
0.0
 11
11.15028859638457
 21
57.76667357215817
 31
0.0
  0
LINE
  5
71E
330
D4
100
AcDbEntity
  8
破線
100
AcDbLine
 10
10.72874167317744
 20
56.27529781035597
 30
0.0
 11
10.54649058133003
 21
57.57208192544535
 31
0.0
  0
LINE
  5
71F
330
D4
100
AcDbEntity
  8
外形線
  6
Continuous
100
AcDbLine
 10
6.809600504956165
 20
58.19708402928871
 30
0.0
 11
2.96404996784679
 21
58.19708402928871
 31
0.0
  0
LINE
  5
720
330
D4
100
AcDbEntity
  8
破線
100
AcDbLine
 10
6.809600504956165
 20
57.57208402928871
 30
0.0
 11
3.072721156201281
 21
57.57208402928871
 31
0.0
  0
LINE
  5
721
330
D4
100
AcDbEntity
  8
破線
100
AcDbLine
 10
2.89046907714153
 20
56.27530243716896
 30
0.0
 11
3.072719638085786
 21
57.57208277468547
 31
0.0
  0
LINE
  5
722
330
D4
100
AcDbEntity
  8
破線
100
AcDbLine
 10
2.023978861889759
 20
55.52208479222816
 30
0.0
 11
1.062949809155383
 21
55.52208479222816
 31
0.0
  0
LINE
  5
723
330
D4
100
AcDbEntity
  8
外形線
  6
Continuous
100
AcDbLine
 10
2.023978861889759
 20
56.14708479222816
 30
0.0
 11
1.062949809155383
 21
56.14708479222816
 31
0.0
  0
LINE
  5
724
330
D4
100
AcDbEntity
  8
外形線
  6
Continuous
100
AcDbLine
 10
2.271541852166535
 20
56.36228697161325
 30
0.0
 11
2.468914658767259
 21
57.76666769578864
 31
0.0
  0
LINE
  5
725
330
D4
100
AcDbEntity
  8
外形線
  6
Continuous
100
AcDbLine
 10
9.791307112161476
 20
1.497100154922889
 30
0.0
 11
2.241310716607483
 21
56.14708858429654
 31
0.0
  0
LINE
  5
726
330
D4
100
AcDbEntity
  8
外形線
  6
Continuous
100
AcDbLine
 10
2.556450702643303
 20
57.98667230972521
 30
0.0
 11
10.0323982853577
 21
-0.1871110005950882
 31
0.0
  0
LINE
  5
727
330
D4
100
AcDbEntity
  8
外形線
  6
Continuous
100
AcDbLine
 10
18.61275450654057
 20
-0.3424931769451547
 30
0.0
 11
11.13680522201969
 21
57.83130337591328
 31
0.0
  0
LINE
  5
728
330
D4
100
AcDbEntity
  8
外形線
  6
Continuous
100
AcDbLine
 10
18.92790607817386
 20
1.497099939068323
 30
0.0
 11
11.3480889333363
 21
56.36294325338778
 31
0.0
  0
LINE
  5
729
330
D4
100
AcDbEntity
  8
外形線
  6
Continuous
100
AcDbLine
 10
-0.7404015931273307
 20
56.14708479222816
 30
0.0
 11
1.062949809155383
 21
56.14708479222816
 31
0.0
  0
LINE
  5
72A
330
D4
100
AcDbEntity
  8
破線
100
AcDbLine
 10
-0.7404015931273307
 20
55.52208479222816
 30
0.0
 11
1.062949809155383
 21
55.52208479222816
 31
0.0
  0
LINE
  5
72B
330
D4
100
AcDbEntity
  8
破線
100
AcDbLine
 10
29.45960584553234
 20
0.0721069174722899
 30
0.0
 11
25.72270551594249
 21
0.0721069174722899
 31
0.0
  0
LINE
  5
72C
330
D4
100
AcDbEntity
  8
外形線
  6
Continuous
100
AcDbLine
 10
29.45960584553234
 20
-0.5528930825277101
 30
0.0
 11
25.61404767902843
 21
-0.5528930825277101
 31
0.0
  0
LINE
  5
72D
330
D4
100
AcDbEntity
  8
破線
100
AcDbLine
 10
24.6739765730714
 20
2.122109969230113
 30
0.0
 11
21.90960088642589
 21
2.122109969230113
 31
0.0
  0
LINE
  5
72E
330
D4
100
AcDbEntity
  8
外形線
  6
Continuous
100
AcDbLine
 10
24.6739765730714
 20
1.497109969230113
 30
0.0
 11
21.90960088642589
 21
1.497109969230113
 31
0.0
  0
LINE
  5
72F
330
D4
100
AcDbEntity
  8
外形線
  6
Continuous
100
AcDbLine
 10
24.92153639476675
 20
1.281895397645122
 30
0.0
 11
25.11890900320845
 21
-0.1224853543796982
 31
0.0
  0
LINE
  5
730
330
D4
100
AcDbEntity
  8
破線
100
AcDbLine
 10
25.54045743347891
 20
1.368867417052738
 30
0.0
 11
25.72270515693347
 21
0.072105941685507
 31
0.0
  0
LINE
  5
731
330
D4
100
AcDbEntity
  8
外形線
  6
Continuous
100
AcDbLine
 10
29.45960584553234
 20
-0.5528930825277101
 30
0.0
 11
33.30515638264171
 21
-0.5528930825277101
 31
0.0
  0
LINE
  5
732
330
D4
100
AcDbEntity
  8
破線
100
AcDbLine
 10
29.45960584553234
 20
0.0721069174722899
 30
0.0
 11
33.1964832869386
 21
0.0721069174722899
 31
0.0
  0
LINE
  5
733
330
D4
100
AcDbEntity
  8
破線
100
AcDbLine
 10
33.3787322496315
 20
1.368874482870708
 30
0.0
 11
33.19648309004362
 21
0.0721055049658688
 31
0.0
  0
LINE
  5
734
330
D4
100
AcDbEntity
  8
破線
100
AcDbLine
 10
34.24522748859875
 20
2.122109969230113
 30
0.0
 11
37.00960126789562
 21
2.122109969230113
 31
0.0
  0
LINE
  5
735
330
D4
100
AcDbEntity
  8
外形線
  6
Continuous
100
AcDbLine
 10
34.24522748859875
 20
1.497109969230113
 30
0.0
 11
37.00960126789562
 21
1.497109969230113
 31
0.0
  0
LINE
  5
736
330
D4
100
AcDbEntity
  8
外形線
  6
Continuous
100
AcDbLine
 10
33.9976583986936
 20
1.281897710875639
 30
0.0
 11
33.80028538486048
 21
-0.1224829841751287
 31
0.0
  0
LINE
  5
737
330
D4
100
AcDbEntity
  8
中心線
100
AcDbLine
 10
33.23461713872087
 20
28.82209285998841
 30
0.0
 11
29.4596156851324
 21
-0.5529040101980982
 31
0.0
  0
LINE
  5
738
330
D4
100
AcDbEntity
  8
中心線
100
AcDbLine
 10
29.4596130830852
 20
-0.5529142969471863
 30
0.0
 11
25.68461444283976
 21
28.82209158843706
 31
0.0
  0
LINE
  5
739
330
D4
100
AcDbEntity
  8
中心線
100
AcDbLine
 10
21.90957726279649
 20
58.19709707651893
 30
0.0
 11
18.13457956462227
 21
28.82209852182548
 31
0.0
  0
LINE
  5
73A
330
D4
100
AcDbEntity
  8
中心線
100
AcDbLine
 10
25.68460024083655
 20
28.82209070508256
 30
0.0
 11
21.90959878724809
 21
58.19708757526908
 31
0.0
  0
LINE
  5
73B
330
D4
100
AcDbEntity
  8
破線
100
AcDbLine
 10
21.90960088642589
 20
57.57208402928871
 30
0.0
 11
25.64649549396984
 21
57.57208402928871
 31
0.0
  0
LINE
  5
73C
330
D4
100
AcDbEntity
  8
外形線
  6
Continuous
100
AcDbLine
 10
21.90960088642589
 20
58.19708402928871
 30
0.0
 11
25.7551533308839
 21
58.19708402928871
 31
0.0
  0
LINE
  5
73D
330
D4
100
AcDbEntity
  8
破線
100
AcDbLine
 10
26.69523206623547
 20
55.52208479222816
 30
0.0
 11
29.45960584553234
 21
55.52208479222816
 31
0.0
  0
LINE
  5
73E
330
D4
100
AcDbEntity
  8
外形線
  6
Continuous
100
AcDbLine
 10
26.69523206623547
 20
56.14708479222816
 30
0.0
 11
29.45960584553234
 21
56.14708479222816
 31
0.0
  0
LINE
  5
73F
330
D4
100
AcDbEntity
  8
外形線
  6
Continuous
100
AcDbLine
 10
26.44765835759998
 20
56.36229300065628
 30
0.0
 11
26.25028555099925
 21
57.76667372483167
 31
0.0
  0
LINE
  5
740
330
D4
100
AcDbEntity
  8
破線
100
AcDbLine
 10
25.82874267081661
 20
56.27529660514621
 30
0.0
 11
25.64649157896921
 21
57.57208072023558
 31
0.0
  0
LINE
  5
741
330
D4
100
AcDbEntity
  8
外形線
  6
Continuous
100
AcDbLine
 10
21.90960088642589
 20
58.19708402928871
 30
0.0
 11
18.06405034931652
 21
58.19708402928871
 31
0.0
  0
LINE
  5
742
330
D4
100
AcDbEntity
  8
破線
100
AcDbLine
 10
21.90960088642589
 20
57.57208402928871
 30
0.0
 11
18.17272153767101
 21
57.57208402928871
 31
0.0
  0
LINE
  5
743
330
D4
100
AcDbEntity
  8
破線
100
AcDbLine
 10
17.99047217031219
 20
56.27530142177781
 30
0.0
 11
18.17272273125644
 21
57.57208175929426
 31
0.0
  0
LINE
  5
744
330
D4
100
AcDbEntity
  8
破線
100
AcDbLine
 10
17.12397924335948
 20
55.52208479222816
 30
0.0
 11
16.16295019062511
 21
55.52208479222816
 31
0.0
  0
LINE
  5
745
330
D4
100
AcDbEntity
  8
外形線
  6
Continuous
100
AcDbLine
 10
17.12397924335948
 20
56.14708479222816
 30
0.0
 11
16.16295019062511
 21
56.14708479222816
 31
0.0
  0
LINE
  5
746
330
D4
100
AcDbEntity
  8
外形線
  6
Continuous
100
AcDbLine
 10
17.37153762628969
 20
56.36228698484696
 30
0.0
 11
17.56891043289042
 21
57.76666770902235
 31
0.0
  0
LINE
  5
747
330
D4
100
AcDbEntity
  8
外形線
  6
Continuous
100
AcDbLine
 10
24.89131002422644
 20
1.497099020723043
 30
0.0
 11
17.341313889697
 21
56.14708556069334
 31
0.0
  0
LINE
  5
748
330
D4
100
AcDbEntity
  8
外形線
  6
Continuous
100
AcDbLine
 10
17.6564508566241
 20
57.98666983444228
 30
0.0
 11
25.13239868245373
 21
-0.1871153676692003
 31
0.0
  0
LINE
  5
749
330
D4
100
AcDbEntity
  8
外形線
  6
Continuous
100
AcDbLine
 10
33.71275393117574
 20
-0.3424899768546297
 30
0.0
 11
26.23680488977007
 21
57.83130468421266
 31
0.0
  0
LINE
  5
74A
330
D4
100
AcDbEntity
  8
外形線
  6
Continuous
100
AcDbLine
 10
34.02791319169809
 20
1.497103236236529
 30
0.0
 11
26.44809604686054
 21
56.36294655055599
 31
0.0
  0
LINE
  5
74B
330
D4
100
AcDbEntity
  8
外形線
  6
Continuous
100
AcDbLine
 10
14.35959974201671
 20
56.14708479222816
 30
0.0
 11
16.16295019062511
 21
56.14708479222816
 31
0.0
  0
LINE
  5
74C
330
D4
100
AcDbEntity
  8
破線
100
AcDbLine
 10
14.35959974201671
 20
55.52208479222816
 30
0.0
 11
16.16295019062511
 21
55.52208479222816
 31
0.0
  0
LINE
  5
74D
330
D4
100
AcDbEntity
  8
破線
100
AcDbLine
 10
44.55960813435068
 20
0.0721069174722899
 30
0.0
 11
40.82270780476082
 21
0.0721069174722899
 31
0.0
  0
LINE
  5
74E
330
D4
100
AcDbEntity
  8
外形線
  6
Continuous
100
AcDbLine
 10
44.55960813435068
 20
-0.5528930825277101
 30
0.0
 11
40.71404996784679
 21
-0.5528930825277101
 31
0.0
  0
LINE
  5
74F
330
D4
100
AcDbEntity
  8
破線
100
AcDbLine
 10
39.77397886188976
 20
2.122109969230113
 30
0.0
 11
37.00960126789562
 21
2.122109969230113
 31
0.0
  0
LINE
  5
750
330
D4
100
AcDbEntity
  8
外形線
  6
Continuous
100
AcDbLine
 10
39.77397886188976
 20
1.497109969230113
 30
0.0
 11
37.00960126789562
 21
1.497109969230113
 31
0.0
  0
LINE
  5
751
330
D4
100
AcDbEntity
  8
外形線
  6
Continuous
100
AcDbLine
 10
40.02153901574078
 20
1.2818942160531
 30
0.0
 11
40.21891162418245
 21
-0.12248653597171
 31
0.0
  0
LINE
  5
752
330
D4
100
AcDbEntity
  8
破線
100
AcDbLine
 10
40.64046141233679
 20
1.368870278485021
 30
0.0
 11
40.82270913579137
 21
0.0721088031177786
 31
0.0
  0
LINE
  5
753
330
D4
100
AcDbEntity
  8
外形線
  6
Continuous
100
AcDbLine
 10
44.55960813435068
 20
-0.5528930825277101
 30
0.0
 11
48.40515867146006
 21
-0.5528930825277101
 31
0.0
  0
LINE
  5
754
330
D4
100
AcDbEntity
  8
破線
100
AcDbLine
 10
44.55960813435068
 20
0.0721069174722899
 30
0.0
 11
48.29648557575694
 21
0.0721069174722899
 31
0.0
  0
LINE
  5
755
330
D4
100
AcDbEntity
  8
破線
100
AcDbLine
 10
48.47872973514973
 20
1.368875879592692
 30
0.0
 11
48.29648057556184
 21
0.0721069016878602
 31
0.0
  0
LINE
  5
756
330
D4
100
AcDbEntity
  8
破線
100
AcDbLine
 10
49.3452297774171
 20
2.122109969230113
 30
0.0
 11
52.10960355671396
 21
2.122109969230113
 31
0.0
  0
LINE
  5
757
330
D4
100
AcDbEntity
  8
外形線
  6
Continuous
100
AcDbLine
 10
49.3452297774171
 20
1.497109969230113
 30
0.0
 11
52.10960355671396
 21
1.497109969230113
 31
0.0
  0
LINE
  5
758
330
D4
100
AcDbEntity
  8
外形線
  6
Continuous
100
AcDbLine
 10
49.09766695147848
 20
1.281895626100044
 30
0.0
 11
48.90029393764529
 21
-0.1224850689507164
 31
0.0
  0
LINE
  5
759
330
D4
100
AcDbEntity
  8
中心線
100
AcDbLine
 10
48.33461930605068
 20
28.82209447584584
 30
0.0
 11
44.55961797401992
 21
-0.5529014484450842
 31
0.0
  0
LINE
  5
75A
330
D4
100
AcDbEntity
  8
中心線
100
AcDbLine
 10
44.55961818309396
 20
-0.5529108138556467
 30
0.0
 11
40.78461978596368
 21
28.82209317973742
 31
0.0
  0
LINE
  5
75B
330
D4
100
AcDbEntity
  8
中心線
100
AcDbLine
 10
37.00958449771157
 20
58.19709524210338
 30
0.0
 11
33.23458695148435
 21
28.82209786977943
 31
0.0
  0
LINE
  5
75C
330
D4
100
AcDbEntity
  8
中心線
100
AcDbLine
 10
40.78460594863321
 20
28.82209146724707
 30
0.0
 11
37.00960461660248
 21
58.19708739153802
 31
0.0
  0
LINE
  5
75D
330
D4
100
AcDbEntity
  8
破線
100
AcDbLine
 10
37.00960126789562
 20
57.57208402928871
 30
0.0
 11
40.74649778278818
 21
57.57208402928871
 31
0.0
  0
LINE
  5
75E
330
D4
100
AcDbEntity
  8
外形線
  6
Continuous
100
AcDbLine
 10
37.00960126789562
 20
58.19708402928871
 30
0.0
 11
40.85515561970225
 21
58.19708402928871
 31
0.0
  0
LINE
  5
75F
330
D4
100
AcDbEntity
  8
破線
100
AcDbLine
 10
41.79523435505382
 20
55.52208479222816
 30
0.0
 11
44.55960813435068
 21
55.52208479222816
 31
0.0
  0
LINE
  5
760
330
D4
100
AcDbEntity
  8
外形線
  6
Continuous
100
AcDbLine
 10
41.79523435505382
 20
56.14708479222816
 30
0.0
 11
44.55960813435068
 21
56.14708479222816
 31
0.0
  0
LINE
  5
761
330
D4
100
AcDbEntity
  8
外形線
  6
Continuous
100
AcDbLine
 10
41.54765935523914
 20
56.36229179544653
 30
0.0
 11
41.35028654863845
 21
57.76667251962193
 31
0.0
  0
LINE
  5
762
330
D4
100
AcDbEntity
  8
破線
100
AcDbLine
 10
40.92873962543132
 20
56.27529675781973
 30
0.0
 11
40.74648853358389
 21
57.57208087290909
 31
0.0
  0
LINE
  5
763
330
D4
100
AcDbEntity
  8
外形線
  6
Continuous
100
AcDbLine
 10
37.00960126789562
 20
58.19708402928871
 30
0.0
 11
33.16405073078624
 21
58.19708402928871
 31
0.0
  0
LINE
  5
764
330
D4
100
AcDbEntity
  8
破線
100
AcDbLine
 10
37.00960126789562
 20
57.57208402928871
 30
0.0
 11
33.27272382648938
 21
57.57208402928871
 31
0.0
  0
LINE
  5
765
330
D4
100
AcDbEntity
  8
破線
100
AcDbLine
 10
33.09047101371334
 20
56.27530100365269
 30
0.0
 11
33.2727215746576
 21
57.57208134116917
 31
0.0
  0
LINE
  5
766
330
D4
100
AcDbEntity
  8
破線
100
AcDbLine
 10
32.22397962482921
 20
55.52208479222816
 30
0.0
 11
31.26295057209484
 21
55.52208479222816
 31
0.0
  0
LINE
  5
767
330
D4
100
AcDbEntity
  8
外形線
  6
Continuous
100
AcDbLine
 10
32.22397962482921
 20
56.14708479222816
 30
0.0
 11
31.26295057209484
 21
56.14708479222816
 31
0.0
  0
LINE
  5
768
330
D4
100
AcDbEntity
  8
外形線
  6
Continuous
100
AcDbLine
 10
32.47153862392889
 20
56.36228819005672
 30
0.0
 11
32.66891143052963
 21
57.76666891423213
 31
0.0
  0
LINE
  5
769
330
D4
100
AcDbEntity
  8
外形線
  6
Continuous
100
AcDbLine
 10
39.99131524834734
 20
1.497102056866705
 30
0.0
 11
32.44131911381789
 21
56.14708859683699
 31
0.0
  0
LINE
  5
76A
330
D4
100
AcDbEntity
  8
外形線
  6
Continuous
100
AcDbLine
 10
32.75645833465436
 20
57.98667022341131
 30
0.0
 11
40.23240616048396
 21
-0.1871149787001514
 31
0.0
  0
LINE
  5
76B
330
D4
100
AcDbEntity
  8
外形線
  6
Continuous
100
AcDbLine
 10
48.81275622006293
 20
-0.3424941008135178
 30
0.0
 11
41.33680693554204
 21
57.83130245204493
 31
0.0
  0
LINE
  5
76C
330
D4
100
AcDbEntity
  8
外形線
  6
Continuous
100
AcDbLine
 10
49.12791274760896
 20
1.49710548930655
 30
0.0
 11
41.54809560277135
 21
56.362948803626
 31
0.0
  0
LINE
  5
76D
330
D4
100
AcDbEntity
  8
外形線
  6
Continuous
100
AcDbLine
 10
29.45960203083507
 20
56.14708479222816
 30
0.0
 11
31.26295057209484
 21
56.14708479222816
 31
0.0
  0
LINE
  5
76E
330
D4
100
AcDbEntity
  8
破線
100
AcDbLine
 10
29.45960203083507
 20
55.52208479222816
 30
0.0
 11
31.26295057209484
 21
55.52208479222816
 31
0.0
  0
LINE
  5
76F
330
D4
100
AcDbEntity
  8
破線
100
AcDbLine
 10
59.65960279377451
 20
0.0721069174722899
 30
0.0
 11
55.9227100935792
 21
0.0721069174722899
 31
0.0
  0
LINE
  5
770
330
D4
100
AcDbEntity
  8
外形線
  6
Continuous
100
AcDbLine
 10
59.65960279377451
 20
-0.5528930825277101
 30
0.0
 11
55.81405225666514
 21
-0.5528930825277101
 31
0.0
  0
LINE
  5
771
330
D4
100
AcDbEntity
  8
破線
100
AcDbLine
 10
54.87397733601086
 20
2.122109969230113
 30
0.0
 11
52.10959974201671
 21
2.122109969230113
 31
0.0
  0
LINE
  5
772
330
D4
100
AcDbEntity
  8
外形線
  6
Continuous
100
AcDbLine
 10
54.87397733601086
 20
1.497109969230113
 30
0.0
 11
52.10959974201671
 21
1.497109969230113
 31
0.0
  0
LINE
  5
773
330
D4
100
AcDbEntity
  8
外形線
  6
Continuous
100
AcDbLine
 10
55.12153921702569
 20
1.281896546582752
 30
0.0
 11
55.31891182546739
 21
-0.1224842054420634
 31
0.0
  0
LINE
  5
774
330
D4
100
AcDbEntity
  8
破線
100
AcDbLine
 10
55.74045836695137
 20
1.368868300539057
 30
0.0
 11
55.9227055595033
 21
0.0721106027448002
 31
0.0
  0
LINE
  5
775
330
D4
100
AcDbEntity
  8
外形線
  6
Continuous
100
AcDbLine
 10
59.65960279377451
 20
-0.5528930825277101
 30
0.0
 11
63.50515333088389
 21
-0.5528930825277101
 31
0.0
  0
LINE
  5
776
330
D4
100
AcDbEntity
  8
破線
100
AcDbLine
 10
59.65960279377451
 20
0.0721069174722899
 30
0.0
 11
63.39648023518076
 21
0.0721069174722899
 31
0.0
  0
LINE
  5
777
330
D4
100
AcDbEntity
  8
破線
100
AcDbLine
 10
63.57873099824075
 20
1.368876745410954
 30
0.0
 11
63.39648183865289
 21
0.0721077675061181
 31
0.0
  0
LINE
  5
778
330
D4
100
AcDbEntity
  8
破線
100
AcDbLine
 10
64.44523206623543
 20
2.122109969230113
 30
0.0
 11
67.20960584553232
 21
2.122109969230113
 31
0.0
  0
LINE
  5
779
330
D4
100
AcDbEntity
  8
外形線
  6
Continuous
100
AcDbLine
 10
64.44523206623543
 20
1.497109969230113
 30
0.0
 11
67.20960584553232
 21
1.497109969230113
 31
0.0
  0
LINE
  5
77A
330
D4
100
AcDbEntity
  8
外形線
  6
Continuous
100
AcDbLine
 10
64.1976566163992
 20
1.281896195843061
 30
0.0
 11
64.000283602566
 21
-0.1224844992077081
 31
0.0
  0
LINE
  5
77B
330
D4
100
AcDbEntity
  8
中心線
100
AcDbLine
 10
63.43461762901938
 20
28.82209610498632
 30
0.0
 11
59.65961623620977
 21
-0.5529002922524029
 31
0.0
  0
LINE
  5
77C
330
D4
100
AcDbEntity
  8
中心線
100
AcDbLine
 10
59.65962803914568
 20
-0.5529144116984668
 30
0.0
 11
55.88462915578511
 21
28.82209336547693
 31
0.0
  0
LINE
  5
77D
330
D4
100
AcDbEntity
  8
中心線
100
AcDbLine
 10
52.109593867533
 20
58.19709505636388
 30
0.0
 11
48.33459644286337
 21
28.8220986299355
 31
0.0
  0
LINE
  5
77E
330
D4
100
AcDbEntity
  8
中心線
100
AcDbLine
 10
55.8846040892654
 20
28.82209125694996
 30
0.0
 11
52.10960239256154
 21
58.19709001892761
 31
0.0
  0
LINE
  5
77F
330
D4
100
AcDbEntity
  8
破線
100
AcDbLine
 10
52.10959974201671
 20
57.57208402928871
 30
0.0
 11
55.84649244221201
 21
57.57208402928871
 31
0.0
  0
LINE
  5
780
330
D4
100
AcDbEntity
  8
外形線
  6
Continuous
100
AcDbLine
 10
52.10959974201671
 20
58.19708402928871
 30
0.0
 11
55.95515027912608
 21
58.19708402928871
 31
0.0
  0
LINE
  5
781
330
D4
100
AcDbEntity
  8
破線
100
AcDbLine
 10
56.89522901447764
 20
55.52208479222816
 30
0.0
 11
59.65960279377451
 21
55.52208479222816
 31
0.0
  0
LINE
  5
782
330
D4
100
AcDbEntity
  8
外形線
  6
Continuous
100
AcDbLine
 10
56.89522901447764
 20
56.14708479222816
 30
0.0
 11
59.65960279377451
 21
56.14708479222816
 31
0.0
  0
LINE
  5
783
330
D4
100
AcDbEntity
  8
外形線
  6
Continuous
100
AcDbLine
 10
56.64765226682937
 20
56.36229330600335
 30
0.0
 11
56.4502794602286
 21
57.76667403017873
 31
0.0
  0
LINE
  5
784
330
D4
100
AcDbEntity
  8
破線
100
AcDbLine
 10
56.02874049034467
 20
56.27529649700318
 30
0.0
 11
55.84648939849728
 21
57.57208061209258
 31
0.0
  0
LINE
  5
785
330
D4
100
AcDbEntity
  8
外形線
  6
Continuous
100
AcDbLine
 10
52.10959974201671
 20
58.19708402928871
 30
0.0
 11
48.26404920490734
 21
58.19708402928871
 31
0.0
  0
LINE
  5
786
330
D4
100
AcDbEntity
  8
破線
100
AcDbLine
 10
52.10959974201671
 20
57.57208402928871
 30
0.0
 11
48.37272230061046
 21
57.57208402928871
 31
0.0
  0
LINE
  5
787
330
D4
100
AcDbEntity
  8
破線
100
AcDbLine
 10
48.19047201135254
 20
56.27530220886246
 30
0.0
 11
48.37272230684519
 21
57.57208065759249
 31
0.0
  0
LINE
  5
788
330
D4
100
AcDbEntity
  8
破線
100
AcDbLine
 10
47.32397809895029
 20
55.52208479222816
 30
0.0
 11
46.36294904621592
 21
55.52208479222816
 31
0.0
  0
LINE
  5
789
330
D4
100
AcDbEntity
  8
外形線
  6
Continuous
100
AcDbLine
 10
47.32397809895029
 20
56.14708479222816
 30
0.0
 11
46.36294904621592
 21
56.14708479222816
 31
0.0
  0
LINE
  5
78A
330
D4
100
AcDbEntity
  8
外形線
  6
Continuous
100
AcDbLine
 10
47.57152775794618
 20
56.36228721040305
 30
0.0
 11
47.76890056454688
 21
57.76666793457845
 31
0.0
  0
LINE
  5
78B
330
D4
100
AcDbEntity
  8
外形線
  6
Continuous
100
AcDbLine
 10
55.09132236187155
 20
1.497105354034898
 30
0.0
 11
47.54132635785438
 21
56.14709094930353
 31
0.0
  0
LINE
  5
78C
330
D4
100
AcDbEntity
  8
外形線
  6
Continuous
100
AcDbLine
 10
47.85645232703124
 20
57.98667080236508
 30
0.0
 11
55.33239990974568
 21
-0.1871125079552414
 31
0.0
  0
LINE
  5
78D
330
D4
100
AcDbEntity
  8
外形線
  6
Continuous
100
AcDbLine
 10
63.91274667197271
 20
-0.3424958998813494
 30
0.0
 11
56.43679738745183
 21
57.83130065297709
 31
0.0
  0
LINE
  5
78E
330
D4
100
AcDbEntity
  8
外形線
  6
Continuous
100
AcDbLine
 10
64.22791230351979
 20
1.497107742376577
 30
0.0
 11
56.64809515868221
 21
56.36295105669603
 31
0.0
  0
LINE
  5
78F
330
D4
100
AcDbEntity
  8
外形線
  6
Continuous
100
AcDbLine
 10
44.55960050495614
 20
56.14708479222816
 30
0.0
 11
46.36294904621592
 21
56.14708479222816
 31
0.0
  0
LINE
  5
790
330
D4
100
AcDbEntity
  8
破線
100
AcDbLine
 10
44.55960050495614
 20
55.52208479222816
 30
0.0
 11
46.36294904621592
 21
55.52208479222816
 31
0.0
  0
LINE
  5
791
330
D4
100
AcDbEntity
  8
破線
100
AcDbLine
 10
74.75960126789562
 20
0.0721069174722899
 30
0.0
 11
71.0227085677003
 21
0.0721069174722899
 31
0.0
  0
LINE
  5
792
330
D4
100
AcDbEntity
  8
外形線
  6
Continuous
100
AcDbLine
 10
74.75960126789562
 20
-0.5528930825277101
 30
0.0
 11
70.91405073078624
 21
-0.5528930825277101
 31
0.0
  0
LINE
  5
793
330
D4
100
AcDbEntity
  8
破線
100
AcDbLine
 10
69.97397962482921
 20
2.122109969230113
 30
0.0
 11
67.20959821613779
 21
2.122109969230113
 31
0.0
  0
LINE
  5
794
330
D4
100
AcDbEntity
  8
外形線
  6
Continuous
100
AcDbLine
 10
69.97397962482921
 20
1.497109969230113
 30
0.0
 11
67.20959821613779
 21
1.497109969230113
 31
0.0
  0
LINE
  5
795
330
D4
100
AcDbEntity
  8
外形線
  6
Continuous
100
AcDbLine
 10
70.22152430801867
 20
1.281896753501889
 30
0.0
 11
70.41889691646037
 21
-0.1224839985229238
 31
0.0
  0
LINE
  5
796
330
D4
100
AcDbEntity
  8
破線
100
AcDbLine
 10
70.84047420943083
 20
1.36886897710624
 30
0.0
 11
71.02272140198278
 21
0.07211127931199
 31
0.0
  0
LINE
  5
797
330
D4
100
AcDbEntity
  8
外形線
  6
Continuous
100
AcDbLine
 10
74.75960126789562
 20
-0.5528930825277101
 30
0.0
 11
78.60515180500499
 21
-0.5528930825277101
 31
0.0
  0
LINE
  5
798
330
D4
100
AcDbEntity
  8
破線
100
AcDbLine
 10
74.75960126789562
 20
0.0721069174722899
 30
0.0
 11
78.49647870930187
 21
0.0721069174722899
 31
0.0
  0
LINE
  5
799
330
D4
100
AcDbEntity
  8
破線
100
AcDbLine
 10
78.67871662013681
 20
1.368875957271268
 30
0.0
 11
78.49646746054893
 21
0.0721069793664455
 31
0.0
  0
LINE
  5
79A
330
D4
100
AcDbEntity
  8
破線
100
AcDbLine
 10
79.54523054035653
 20
2.122109969230113
 30
0.0
 11
82.16727033527844
 21
2.122109969230113
 31
0.0
  0
LINE
  5
79B
330
D4
100
AcDbEntity
  8
外形線
  6
Continuous
100
AcDbLine
 10
79.54523054035653
 20
1.497109969230113
 30
0.0
 11
82.30960431965341
 21
1.497109969230113
 31
0.0
  0
LINE
  5
79C
330
D4
100
AcDbEntity
  8
外形線
  6
Continuous
100
AcDbLine
 10
79.29765787949022
 20
1.281897061661321
 30
0.0
 11
79.10028486565706
 21
-0.1224836333894501
 31
0.0
  0
LINE
  5
79D
330
D4
100
AcDbEntity
  8
中心線
100
AcDbLine
 10
78.53461168217498
 20
28.82209443677533
 30
0.0
 11
74.75961022858655
 21
-0.552902433411184
 31
0.0
  0
LINE
  5
79E
330
D4
100
AcDbEntity
  8
中心線
100
AcDbLine
 10
74.75963313915446
 20
-0.5529109286069414
 30
0.0
 11
70.98463437735145
 21
28.82209590267289
 31
0.0
  0
LINE
  5
79F
330
D4
100
AcDbEntity
  8
中心線
100
AcDbLine
 10
67.20959945377209
 20
58.19709535685468
 30
0.0
 11
63.43460184676604
 21
28.82209751158292
 31
0.0
  0
LINE
  5
7A0
330
D4
100
AcDbEntity
  8
中心線
100
AcDbLine
 10
70.98459832475753
 20
28.82209150631761
 30
0.0
 11
67.20959674961142
 21
58.19708932239969
 31
0.0
  0
LINE
  5
7A1
330
D4
100
AcDbEntity
  8
破線
100
AcDbLine
 10
67.20959821613779
 20
57.57208402928871
 30
0.0
 11
70.94649091633312
 21
57.57208402928871
 31
0.0
  0
LINE
  5
7A2
330
D4
100
AcDbEntity
  8
外形線
  6
Continuous
100
AcDbLine
 10
67.20959821613779
 20
58.19708402928871
 30
0.0
 11
71.05514875324714
 21
58.19708402928871
 31
0.0
  0
LINE
  5
7A3
330
D4
100
AcDbEntity
  8
破線
100
AcDbLine
 10
71.99522748859874
 20
55.52208479222816
 30
0.0
 11
74.75960126789562
 21
55.52208479222816
 31
0.0
  0
LINE
  5
7A4
330
D4
100
AcDbEntity
  8
外形線
  6
Continuous
100
AcDbLine
 10
71.99522748859874
 20
56.14708479222816
 30
0.0
 11
74.75960126789562
 21
56.14708479222816
 31
0.0
  0
LINE
  5
7A5
330
D4
100
AcDbEntity
  8
外形線
  6
Continuous
100
AcDbLine
 10
71.74763033357955
 20
56.36229080416106
 30
0.0
 11
71.55025752697878
 21
57.76667152833645
 31
0.0
  0
LINE
  5
7A6
330
D4
100
AcDbEntity
  8
破線
100
AcDbLine
 10
71.12873771041098
 20
56.27529476089025
 30
0.0
 11
70.94648661856351
 21
57.57207887597965
 31
0.0
  0
LINE
  5
7A7
330
D4
100
AcDbEntity
  8
外形線
  6
Continuous
100
AcDbLine
 10
67.20959821613779
 20
58.19708402928871
 30
0.0
 11
63.36404767902842
 21
58.19708402928871
 31
0.0
  0
LINE
  5
7A8
330
D4
100
AcDbEntity
  8
破線
100
AcDbLine
 10
67.20959821613779
 20
57.57208402928871
 30
0.0
 11
63.47272077473154
 21
57.57208402928871
 31
0.0
  0
LINE
  5
7A9
330
D4
100
AcDbEntity
  8
破線
100
AcDbLine
 10
63.29046896596722
 20
56.27530205618892
 30
0.0
 11
63.47271952691148
 21
57.57208239370541
 31
0.0
  0
LINE
  5
7AA
330
D4
100
AcDbEntity
  8
破線
100
AcDbLine
 10
62.42397657307139
 20
55.52208479222816
 30
0.0
 11
61.46294752033701
 21
55.52208479222816
 31
0.0
  0
LINE
  5
7AB
330
D4
100
AcDbEntity
  8
外形線
  6
Continuous
100
AcDbLine
 10
62.42397657307139
 20
56.14708479222816
 30
0.0
 11
61.46294752033701
 21
56.14708479222816
 31
0.0
  0
LINE
  5
7AC
330
D4
100
AcDbEntity
  8
外形線
  6
Continuous
100
AcDbLine
 10
62.67152875558537
 20
56.36228841561282
 30
0.0
 11
62.86890156218607
 21
57.76666913978822
 31
0.0
  0
LINE
  5
7AD
330
D4
100
AcDbEntity
  8
外形線
  6
Continuous
100
AcDbLine
 10
70.19131005931328
 20
1.497109819764329
 30
0.0
 11
62.6413144468329
 21
56.14709258092792
 31
0.0
  0
LINE
  5
7AE
330
D4
100
AcDbEntity
  8
外形線
  6
Continuous
100
AcDbLine
 10
62.95644229271061
 20
57.98667278687955
 30
0.0
 11
70.43238987542503
 21
-0.1871105234407437
 31
0.0
  0
LINE
  5
7AF
330
D4
100
AcDbEntity
  8
外形線
  6
Continuous
100
AcDbLine
 10
79.01274420481676
 20
-0.342492942906027
 30
0.0
 11
71.53679528496865
 21
57.83130077226569
 31
0.0
  0
LINE
  5
7B0
330
D4
100
AcDbEntity
  8
外形線
  6
Continuous
100
AcDbLine
 10
79.32790860267306
 20
1.497105694590814
 30
0.0
 11
71.74809145783547
 21
56.36294900891027
 31
0.0
  0
LINE
  5
7B1
330
D4
100
AcDbEntity
  8
外形線
  6
Continuous
100
AcDbLine
 10
59.65960279377451
 20
56.14708479222816
 30
0.0
 11
61.46294752033701
 21
56.14708479222816
 31
0.0
  0
LINE
  5
7B2
330
D4
100
AcDbEntity
  8
破線
100
AcDbLine
 10
59.65960279377451
 20
55.52208479222816
 30
0.0
 11
61.46294752033701
 21
55.52208479222816
 31
0.0
  0
LINE
  5
7B3
330
D4
100
AcDbEntity
  8
破線
100
AcDbLine
 10
86.1346012678956
 20
0.0721221762613666
 30
0.0
 11
83.21600690754406
 21
0.0721221762613666
 31
0.0
  0
LINE
  5
7B4
330
D4
100
AcDbEntity
  8
外形線
  6
Continuous
100
AcDbLine
 10
86.1346012678956
 20
-0.5528778237386334
 30
0.0
 11
83.10734907062998
 21
-0.5528778237386334
 31
0.0
  0
LINE
  5
7B5
330
D4
100
AcDbEntity
  8
外形線
  6
Continuous
100
AcDbLine
 10
82.41484001328467
 20
1.281912219054945
 30
0.0
 11
82.61221262172638
 21
-0.1224685329698758
 31
0.0
  0
LINE
  5
7B6
330
D4
100
AcDbEntity
  8
破線
100
AcDbLine
 10
83.03379640803752
 20
1.368893059610508
 30
0.0
 11
83.21604360058946
 21
0.0721353618162581
 31
0.0
  0
LINE
  5
7B7
330
D4
100
AcDbEntity
  8
中心線
100
AcDbLine
 10
82.30960077019854
 20
58.19709235999345
 30
0.0
 11
78.5346032239713
 21
28.82209498766949
 31
0.0
  0
LINE
  5
7B8
330
D4
100
AcDbEntity
  8
中心線
100
AcDbLine
 10
86.08461550485882
 20
28.82209278127898
 30
0.0
 11
82.30961405127031
 21
58.19708965146549
 31
0.0
  0
LINE
  5
7B9
330
D4
100
AcDbEntity
  8
破線
100
AcDbLine
 10
82.30959669025891
 20
57.57208402928871
 30
0.0
 11
86.88460126789562
 21
57.57208402928871
 31
0.0
  0
LINE
  5
7BA
330
D4
100
AcDbEntity
  8
外形線
  6
Continuous
100
AcDbLine
 10
82.30959669025891
 20
58.19708402928871
 30
0.0
 11
86.15514722736824
 21
58.19708402928871
 31
0.0
  0
LINE
  5
7BB
330
D4
100
AcDbEntity
  8
外形線
  6
Continuous
100
AcDbLine
 10
82.30959669025891
 20
58.19708402928871
 30
0.0
 11
78.46404615314952
 21
58.19708402928871
 31
0.0
  0
LINE
  5
7BC
330
D4
100
AcDbEntity
  8
破線
100
AcDbLine
 10
82.30959669025891
 20
57.57208402928871
 30
0.0
 11
78.57271924885265
 21
57.57208402928871
 31
0.0
  0
LINE
  5
7BD
330
D4
100
AcDbEntity
  8
破線
100
AcDbLine
 10
78.39047022905799
 20
56.27530515018515
 30
0.0
 11
78.57272079000224
 21
57.57208548770164
 31
0.0
  0
LINE
  5
7BE
330
D4
100
AcDbEntity
  8
破線
100
AcDbLine
 10
77.52397504719247
 20
55.52208479222816
 30
0.0
 11
76.56294599445812
 21
55.52208479222816
 31
0.0
  0
LINE
  5
7BF
330
D4
100
AcDbEntity
  8
外形線
  6
Continuous
100
AcDbLine
 10
77.52397504719247
 20
56.14708479222816
 30
0.0
 11
76.56294599445812
 21
56.14708479222816
 31
0.0
  0
LINE
  5
7C0
330
D4
100
AcDbEntity
  8
外形線
  6
Continuous
100
AcDbLine
 10
82.384596649753
 20
22.53709959177564
 30
0.0
 11
77.74131439428059
 21
56.14709199989295
 31
0.0
  0
LINE
  5
7C1
330
D4
100
AcDbEntity
  8
外形線
  6
Continuous
100
AcDbLine
 10
78.05643640664513
 20
57.98667241993772
 30
0.0
 11
82.67269088118743
 21
22.06547520231135
 31
0.0
  0
LINE
  5
7C2
330
D4
100
AcDbEntity
  8
外形線
  6
Continuous
100
AcDbLine
 10
74.75960126789562
 20
56.14708479222816
 30
0.0
 11
76.56294599445812
 21
56.14708479222816
 31
0.0
  0
LINE
  5
7C3
330
D4
100
AcDbEntity
  8
破線
100
AcDbLine
 10
74.75960126789562
 20
55.52208479222816
 30
0.0
 11
76.56294599445812
 21
55.52208479222816
 31
0.0
  0
LINE
  5
7C4
330
D4
100
AcDbEntity
  8
外形線
  6
Continuous
100
AcDbLine
 10
86.88459363850105
 20
58.94709165868324
 30
0.0
 11
86.88459363850105
 21
28.82209165868323
 31
0.0
  0
LINE
  5
7C5
330
D4
100
AcDbEntity
  8
外形線
  6
Continuous
100
AcDbLine
 10
86.13459363850109
 20
58.94709165868324
 30
0.0
 11
86.13459363850109
 21
28.82209165868323
 31
0.0
  0
LINE
  5
7C6
330
D4
100
AcDbEntity
  8
外形線
  6
Continuous
100
AcDbLine
 10
86.15514722736824
 20
58.9470840292887
 30
0.0
 11
86.88460126789562
 21
58.9470840292887
 31
0.0
  0
LINE
  5
7C7
330
D4
100
AcDbEntity
  8
外形線
  6
Continuous
100
AcDbLine
 10
82.38459363850109
 20
22.53710230168861
 30
0.0
 11
82.38459363850109
 21
1.497109969230113
 31
0.0
  0
LINE
  5
7C8
330
D4
100
AcDbEntity
  8
外形線
  6
Continuous
100
AcDbLine
 10
82.67269483479012
 20
22.06547697362464
 30
0.0
 11
82.67269483479012
 21
-0.3000320595784913
 31
0.0
  0
LINE
  5
7C9
330
D4
100
AcDbEntity
  8
外形線
  6
Continuous
100
AcDbLine
 10
86.15514722736824
 20
-1.302900711922241
 30
0.0
 11
86.88460126789562
 21
-1.302900711922241
 31
0.0
  0
LINE
  5
7CA
330
D4
100
AcDbEntity
  8
外形線
  6
Continuous
100
AcDbLine
 10
86.13459363850109
 20
-1.302908341316765
 30
0.0
 11
86.13459363850109
 21
28.82209165868323
 31
0.0
  0
LINE
  5
7CB
330
D4
100
AcDbEntity
  8
外形線
  6
Continuous
100
AcDbLine
 10
86.88459363850105
 20
-1.302908341316765
 30
0.0
 11
86.88459363850105
 21
28.82209165868323
 31
0.0
  0
ARC
  5
7CC
330
D4
100
AcDbEntity
  8
破線
100
AcDbCircle
 10
-11.05477556315907
 20
1.24710233983558
 30
0.0
 40
0.875
100
AcDbArc
 50
89.99996835353263
 51
171.999872736012
  0
ARC
  5
7CD
330
D4
100
AcDbEntity
  8
外形線
  6
Continuous
100
AcDbCircle
 10
-11.05477556315907
 20
1.24710233983558
 30
0.0
 40
0.25
100
AcDbArc
 50
89.99996835353181
 51
171.999872736012
  0
ARC
  5
7CE
330
D4
100
AcDbEntity
  8
外形線
  6
Continuous
100
AcDbCircle
 10
-11.9948466691161
 20
-0.0528930825277101
 30
0.0
 40
0.5
100
AcDbArc
 50
270.0000179860899
 51
351.999881387435
  0
ARC
  5
7CF
330
D4
100
AcDbEntity
  8
外形線
  6
Continuous
100
AcDbCircle
 10
2.023975047192493
 20
56.39708479222814
 30
0.0
 40
0.25
100
AcDbArc
 50
269.9999633445765
 51
351.9998677270566
  0
ARC
  5
7D0
330
D4
100
AcDbEntity
  8
外形線
  6
Continuous
100
AcDbCircle
 10
-16.33814653483876
 20
57.6970840292887
 30
0.0
 40
0.5
100
AcDbArc
 50
8.000118612565927
 51
89.99998201391013
  0
ARC
  5
7D1
330
D4
100
AcDbEntity
  8
外形線
  6
Continuous
100
AcDbCircle
 10
-15.39807542888172
 20
56.39708479222814
 30
0.0
 40
0.25
100
AcDbArc
 50
188.0001136036105
 51
270.0000179860899
  0
ARC
  5
7D2
330
D4
100
AcDbEntity
  8
破線
100
AcDbCircle
 10
-15.39807542888172
 20
56.39708479222814
 30
0.0
 40
0.875
100
AcDbArc
 50
188.0001136036101
 51
270.0000179860899
  0
CIRCLE
  5
7D3
330
D4
100
AcDbEntity
  8
外形線
  6
Continuous
100
AcDbCircle
 10
-69.06035564609408
 20
28.82209165868323
 30
0.0
 40
28.75
  0
CIRCLE
  5
7D4
330
D4
100
AcDbEntity
  8
破線
100
AcDbCircle
 10
-69.06035564609408
 20
28.82209165868323
 30
0.0
 40
29.375
  0
CIRCLE
  5
7D5
330
D4
100
AcDbEntity
  8
外形線
  6
Continuous
100
AcDbCircle
 10
-69.06035564609408
 20
28.82209165868323
 30
0.0
 40
30.125
  0
CIRCLE
  5
7D6
330
D4
100
AcDbEntity
  8
外形線
  6
Continuous
100
AcDbCircle
 10
-69.06035564609408
 20
28.82209165868323
 30
0.0
 40
26.70000076293945
  0
CIRCLE
  5
7D7
330
D4
100
AcDbEntity
  8
破線
100
AcDbCircle
 10
-69.06035564609408
 20
28.82209165868323
 30
0.0
 40
27.32500076293945
  0
ARC
  5
7D8
330
D4
100
AcDbEntity
  8
破線
100
AcDbCircle
 10
-90.9513010806644
 20
32.66662367162269
 30
0.0
 40
7.149027824401856
100
AcDbArc
 50
132.5754197900518
 51
170.0391986328684
  0
ARC
  5
7D9
330
D4
100
AcDbEntity
  8
破線
100
AcDbCircle
 10
-102.5536417789065
 20
45.29496153173011
 30
0.0
 40
10.0
100
AcDbArc
 50
312.5753737999606
 51
333.8108417408806
  0
ARC
  5
7DA
330
D4
100
AcDbEntity
  8
外形線
100
AcDbCircle
 10
-102.5536417789065
 20
45.29496153173011
 30
0.0
 40
10.625
100
AcDbArc
 50
312.5753737999606
 51
333.8108417408806
  0
ARC
  5
7DB
330
D4
100
AcDbEntity
  8
外形線
100
AcDbCircle
 10
-90.9513010806644
 20
32.66662367162269
 30
0.0
 40
6.524027824401856
100
AcDbArc
 50
132.5754197900518
 51
170.0391986328684
  0
ARC
  5
7DC
330
D4
100
AcDbEntity
  8
破線
100
AcDbCircle
 10
-13.0760234269286
 20
56.39708479222814
 30
0.0
 40
0.875
100
AcDbArc
 50
269.9999633445765
 51
351.9998677270566
  0
ARC
  5
7DD
330
D4
100
AcDbEntity
  8
破線
100
AcDbCircle
 10
4.045222910962023
 20
1.247094710441043
 30
0.0
 40
0.875
100
AcDbArc
 50
89.99996835353263
 51
171.999872736012
  0
ARC
  5
7DE
330
D4
100
AcDbEntity
  8
破線
100
AcDbCircle
 10
-5.526028004565318
 20
1.247094710441043
 30
0.0
 40
0.875
100
AcDbArc
 50
8.000118612565927
 51
90.00002299504599
  0
ARC
  5
7DF
330
D4
100
AcDbEntity
  8
外形線
  6
Continuous
100
AcDbCircle
 10
4.045222910962023
 20
1.247094710441043
 30
0.0
 40
0.25
100
AcDbArc
 50
89.99996835353181
 51
171.999872736012
  0
ARC
  5
7E0
330
D4
100
AcDbEntity
  8
外形線
  6
Continuous
100
AcDbCircle
 10
3.105151805004993
 20
-0.0529007119222413
 30
0.0
 40
0.5
100
AcDbArc
 50
270.0000179860899
 51
351.999881387435
  0
ARC
  5
7E1
330
D4
100
AcDbEntity
  8
外形線
  6
Continuous
100
AcDbCircle
 10
-4.585949269213755
 20
-0.0529007119222413
 30
0.0
 40
0.5
100
AcDbArc
 50
188.0001545847451
 51
270.0000179860899
  0
ARC
  5
7E2
330
D4
100
AcDbEntity
  8
外形線
  6
Continuous
100
AcDbCircle
 10
-5.526028004565318
 20
1.247094710441043
 30
0.0
 40
0.25
100
AcDbArc
 50
8.000118612565927
 51
90.00002299504599
  0
ARC
  5
7E3
330
D4
100
AcDbEntity
  8
外形線
  6
Continuous
100
AcDbCircle
 10
-13.0760234269286
 20
56.39708479222814
 30
0.0
 40
0.25
100
AcDbArc
 50
269.9999633445765
 51
351.9998677270566
  0
ARC
  5
7E4
330
D4
100
AcDbEntity
  8
外形線
  6
Continuous
100
AcDbCircle
 10
-12.13595232097157
 20
57.6970840292887
 30
0.0
 40
0.5
100
AcDbArc
 50
89.99998201391013
 51
171.9998454152556
  0
ARC
  5
7E5
330
D4
100
AcDbEntity
  8
外形線
  6
Continuous
100
AcDbCircle
 10
-3.504772511401256
 20
56.39708479222814
 30
0.0
 40
0.25
100
AcDbArc
 50
188.0001136036105
 51
270.0000179860899
  0
ARC
  5
7E6
330
D4
100
AcDbEntity
  8
外形線
  6
Continuous
100
AcDbCircle
 10
-4.444843617358286
 20
57.6970840292887
 30
0.0
 40
0.5
100
AcDbArc
 50
8.000126296528996
 51
89.99998201391097
  0
ARC
  5
7E7
330
D4
100
AcDbEntity
  8
破線
100
AcDbCircle
 10
-3.504772511401256
 20
56.39708479222814
 30
0.0
 40
0.875
100
AcDbArc
 50
188.0001136036101
 51
270.0000179860899
  0
ARC
  5
7E8
330
D4
100
AcDbEntity
  8
破線
100
AcDbCircle
 10
2.023978861889759
 20
56.39708479222814
 30
0.0
 40
0.875
100
AcDbArc
 50
269.9999633445765
 51
351.9998677270566
  0
ARC
  5
7E9
330
D4
100
AcDbEntity
  8
破線
100
AcDbCircle
 10
19.14522519978038
 20
1.247094710441043
 30
0.0
 40
0.875
100
AcDbArc
 50
89.99996835353263
 51
171.999872736012
  0
ARC
  5
7EA
330
D4
100
AcDbEntity
  8
破線
100
AcDbCircle
 10
9.573974284253036
 20
1.247094710441043
 30
0.0
 40
0.875
100
AcDbArc
 50
8.000118612565927
 51
90.00002299504599
  0
ARC
  5
7EB
330
D4
100
AcDbEntity
  8
外形線
  6
Continuous
100
AcDbCircle
 10
19.14522519978038
 20
1.247094710441043
 30
0.0
 40
0.25
100
AcDbArc
 50
89.99996835353263
 51
171.999872736012
  0
ARC
  5
7EC
330
D4
100
AcDbEntity
  8
外形線
  6
Continuous
100
AcDbCircle
 10
18.20515409382335
 20
-0.0529007119222413
 30
0.0
 40
0.5
100
AcDbArc
 50
270.0000179860899
 51
351.999881387435
  0
ARC
  5
7ED
330
D4
100
AcDbEntity
  8
外形線
  6
Continuous
100
AcDbCircle
 10
10.5140530196046
 20
-0.0529007119222413
 30
0.0
 40
0.5
100
AcDbArc
 50
188.0001545847451
 51
270.0000179860899
  0
ARC
  5
7EE
330
D4
100
AcDbEntity
  8
外形線
  6
Continuous
100
AcDbCircle
 10
9.573974284253036
 20
1.247094710441043
 30
0.0
 40
0.25
100
AcDbArc
 50
8.000118612565927
 51
90.00002299504517
  0
ARC
  5
7EF
330
D4
100
AcDbEntity
  8
外形線
  6
Continuous
100
AcDbCircle
 10
2.023978861889759
 20
56.39708479222814
 30
0.0
 40
0.25
100
AcDbArc
 50
269.9999633445765
 51
351.9998677270566
  0
ARC
  5
7F0
330
D4
100
AcDbEntity
  8
外形線
  6
Continuous
100
AcDbCircle
 10
2.96404996784679
 20
57.6970840292887
 30
0.0
 40
0.5
100
AcDbArc
 50
89.99998201391097
 51
171.9998454152556
  0
ARC
  5
7F1
330
D4
100
AcDbEntity
  8
外形線
  6
Continuous
100
AcDbCircle
 10
11.5952297774171
 20
56.39708479222814
 30
0.0
 40
0.25
100
AcDbArc
 50
188.0001136036105
 51
270.0000179860899
  0
ARC
  5
7F2
330
D4
100
AcDbEntity
  8
外形線
  6
Continuous
100
AcDbCircle
 10
10.65515867146007
 20
57.6970840292887
 30
0.0
 40
0.5
100
AcDbArc
 50
8.000126296528996
 51
89.99998201391013
  0
ARC
  5
7F3
330
D4
100
AcDbEntity
  8
破線
100
AcDbCircle
 10
11.5952297774171
 20
56.39708479222814
 30
0.0
 40
0.875
100
AcDbArc
 50
188.0001136036101
 51
270.0000179860899
  0
ARC
  5
7F4
330
D4
100
AcDbEntity
  8
破線
100
AcDbCircle
 10
17.12397733601085
 20
56.39708479222814
 30
0.0
 40
0.875
100
AcDbArc
 50
269.9999633445765
 51
351.9998677270566
  0
ARC
  5
7F5
330
D4
100
AcDbEntity
  8
破線
100
AcDbCircle
 10
34.24522367390149
 20
1.247094710441043
 30
0.0
 40
0.875
100
AcDbArc
 50
89.99996835353181
 51
171.999872736012
  0
ARC
  5
7F6
330
D4
100
AcDbEntity
  8
破線
100
AcDbCircle
 10
24.67397275837413
 20
1.247094710441043
 30
0.0
 40
0.875
100
AcDbArc
 50
8.000118612565927
 51
90.00002299504599
  0
ARC
  5
7F7
330
D4
100
AcDbEntity
  8
外形線
  6
Continuous
100
AcDbCircle
 10
34.24522367390149
 20
1.247094710441043
 30
0.0
 40
0.25
100
AcDbArc
 50
89.99996835353263
 51
171.999872736012
  0
ARC
  5
7F8
330
D4
100
AcDbEntity
  8
外形線
  6
Continuous
100
AcDbCircle
 10
33.30515256794445
 20
-0.0529007119222413
 30
0.0
 40
0.5
100
AcDbArc
 50
270.0000179860899
 51
351.999881387435
  0
ARC
  5
7F9
330
D4
100
AcDbEntity
  8
外形線
  6
Continuous
100
AcDbCircle
 10
25.6140514937257
 20
-0.0529007119222413
 30
0.0
 40
0.5
100
AcDbArc
 50
188.0001545847451
 51
270.0000179860899
  0
ARC
  5
7FA
330
D4
100
AcDbEntity
  8
外形線
  6
Continuous
100
AcDbCircle
 10
24.67397275837413
 20
1.247094710441043
 30
0.0
 40
0.25
100
AcDbArc
 50
8.000118612565927
 51
90.00002299504599
  0
ARC
  5
7FB
330
D4
100
AcDbEntity
  8
外形線
  6
Continuous
100
AcDbCircle
 10
17.12397733601085
 20
56.39708479222814
 30
0.0
 40
0.25
100
AcDbArc
 50
269.9999633445765
 51
351.9998677270566
  0
ARC
  5
7FC
330
D4
100
AcDbEntity
  8
外形線
  6
Continuous
100
AcDbCircle
 10
18.06404844196787
 20
57.6970840292887
 30
0.0
 40
0.5
100
AcDbArc
 50
89.99998201391013
 51
171.9998454152556
  0
ARC
  5
7FD
330
D4
100
AcDbEntity
  8
外形線
  6
Continuous
100
AcDbCircle
 10
26.6952282515382
 20
56.39708479222814
 30
0.0
 40
0.25
100
AcDbArc
 50
188.0001136036105
 51
270.0000179860899
  0
ARC
  5
7FE
330
D4
100
AcDbEntity
  8
外形線
  6
Continuous
100
AcDbCircle
 10
25.75515714558117
 20
57.6970840292887
 30
0.0
 40
0.5
100
AcDbArc
 50
8.000126296528996
 51
89.99998201391013
  0
ARC
  5
7FF
330
D4
100
AcDbEntity
  8
破線
100
AcDbCircle
 10
26.6952282515382
 20
56.39708479222814
 30
0.0
 40
0.875
100
AcDbArc
 50
188.0001136036101
 51
270.0000179860899
  0
ARC
  5
800
330
D4
100
AcDbEntity
  8
破線
100
AcDbCircle
 10
32.22398343952649
 20
56.39708479222814
 30
0.0
 40
0.875
100
AcDbArc
 50
269.9999633445765
 51
351.9998677270566
  0
ARC
  5
801
330
D4
100
AcDbEntity
  8
破線
100
AcDbCircle
 10
49.3452297774171
 20
1.247094710441043
 30
0.0
 40
0.875
100
AcDbArc
 50
89.99996835353181
 51
171.999872736012
  0
ARC
  5
802
330
D4
100
AcDbEntity
  8
破線
100
AcDbCircle
 10
39.77397123249523
 20
1.247094710441043
 30
0.0
 40
0.875
100
AcDbArc
 50
8.000118612565927
 51
90.00002299504517
  0
ARC
  5
803
330
D4
100
AcDbEntity
  8
外形線
  6
Continuous
100
AcDbCircle
 10
49.3452297774171
 20
1.247094710441043
 30
0.0
 40
0.25
100
AcDbArc
 50
89.99996835353263
 51
171.999872736012
  0
ARC
  5
804
330
D4
100
AcDbEntity
  8
外形線
  6
Continuous
100
AcDbCircle
 10
48.40515104206553
 20
-0.0529007119222413
 30
0.0
 40
0.5
100
AcDbArc
 50
270.0000179860899
 51
351.999881387435
  0
ARC
  5
805
330
D4
100
AcDbEntity
  8
外形線
  6
Continuous
100
AcDbCircle
 10
40.71404996784679
 20
-0.0529007119222413
 30
0.0
 40
0.5
100
AcDbArc
 50
188.0001545847451
 51
270.0000179860899
  0
ARC
  5
806
330
D4
100
AcDbEntity
  8
外形線
  6
Continuous
100
AcDbCircle
 10
39.77397123249523
 20
1.247094710441043
 30
0.0
 40
0.25
100
AcDbArc
 50
8.000118612565927
 51
90.00002299504599
  0
ARC
  5
807
330
D4
100
AcDbEntity
  8
外形線
  6
Continuous
100
AcDbCircle
 10
32.22398343952649
 20
56.39708479222814
 30
0.0
 40
0.25
100
AcDbArc
 50
269.9999633445765
 51
351.9998677270566
  0
ARC
  5
808
330
D4
100
AcDbEntity
  8
外形線
  6
Continuous
100
AcDbCircle
 10
33.16404691608898
 20
57.6970840292887
 30
0.0
 40
0.5
100
AcDbArc
 50
89.99998201391097
 51
171.9998454152556
  0
ARC
  5
809
330
D4
100
AcDbEntity
  8
外形線
  6
Continuous
100
AcDbCircle
 10
41.79522672565929
 20
56.39708479222814
 30
0.0
 40
0.25
100
AcDbArc
 50
188.0001136036105
 51
270.0000179860899
  0
ARC
  5
80A
330
D4
100
AcDbEntity
  8
外形線
  6
Continuous
100
AcDbCircle
 10
40.85516324909678
 20
57.6970840292887
 30
0.0
 40
0.5
100
AcDbArc
 50
8.000126296528996
 51
89.99998201391097
  0
ARC
  5
80B
330
D4
100
AcDbEntity
  8
破線
100
AcDbCircle
 10
41.79522672565929
 20
56.39708479222814
 30
0.0
 40
0.875
100
AcDbArc
 50
188.0001136036101
 51
270.0000179860899
  0
ARC
  5
80C
330
D4
100
AcDbEntity
  8
破線
100
AcDbCircle
 10
47.32397428425303
 20
56.39708479222814
 30
0.0
 40
0.875
100
AcDbArc
 50
269.9999633445765
 51
351.9998677270566
  0
ARC
  5
80D
330
D4
100
AcDbEntity
  8
破線
100
AcDbCircle
 10
64.4452168074464
 20
1.247094710441043
 30
0.0
 40
0.875
100
AcDbArc
 50
89.99996835353181
 51
171.999872736012
  0
ARC
  5
80E
330
D4
100
AcDbEntity
  8
破線
100
AcDbCircle
 10
54.87397733601086
 20
1.247094710441043
 30
0.0
 40
0.875
100
AcDbArc
 50
8.000118612565927
 51
90.00002299504517
  0
ARC
  5
80F
330
D4
100
AcDbEntity
  8
外形線
  6
Continuous
100
AcDbCircle
 10
64.4452168074464
 20
1.247094710441043
 30
0.0
 40
0.25
100
AcDbArc
 50
89.99996835353263
 51
171.999872736012
  0
ARC
  5
810
330
D4
100
AcDbEntity
  8
外形線
  6
Continuous
100
AcDbCircle
 10
63.50515333088389
 20
-0.0529007119222413
 30
0.0
 40
0.5
100
AcDbArc
 50
270.0000179860899
 51
351.999881387435
  0
ARC
  5
811
330
D4
100
AcDbEntity
  8
外形線
  6
Continuous
100
AcDbCircle
 10
55.8140560713624
 20
-0.0529007119222413
 30
0.0
 40
0.5
100
AcDbArc
 50
188.0001545847451
 51
270.0000179860899
  0
ARC
  5
812
330
D4
100
AcDbEntity
  8
外形線
  6
Continuous
100
AcDbCircle
 10
54.87397733601086
 20
1.247094710441043
 30
0.0
 40
0.25
100
AcDbArc
 50
8.000118612565927
 51
90.00002299504599
  0
ARC
  5
813
330
D4
100
AcDbEntity
  8
外形線
  6
Continuous
100
AcDbCircle
 10
47.32397428425303
 20
56.39708479222814
 30
0.0
 40
0.25
100
AcDbArc
 50
269.9999633445765
 51
351.9998677270566
  0
ARC
  5
814
330
D4
100
AcDbEntity
  8
外形線
  6
Continuous
100
AcDbCircle
 10
48.26405301960459
 20
57.6970840292887
 30
0.0
 40
0.5
100
AcDbArc
 50
89.99998201391097
 51
171.9998454152556
  0
ARC
  5
815
330
D4
100
AcDbEntity
  8
外形線
  6
Continuous
100
AcDbCircle
 10
56.89523282917491
 20
56.39708479222814
 30
0.0
 40
0.25
100
AcDbArc
 50
188.0001136036105
 51
270.0000179860899
  0
ARC
  5
816
330
D4
100
AcDbEntity
  8
外形線
  6
Continuous
100
AcDbCircle
 10
55.95515409382334
 20
57.6970840292887
 30
0.0
 40
0.5
100
AcDbArc
 50
8.000126296528996
 51
89.99998201391097
  0
ARC
  5
817
330
D4
100
AcDbEntity
  8
破線
100
AcDbCircle
 10
56.89523282917491
 20
56.39708479222814
 30
0.0
 40
0.875
100
AcDbArc
 50
188.0001136036101
 51
270.0000179860899
  0
ARC
  5
818
330
D4
100
AcDbEntity
  8
破線
100
AcDbCircle
 10
62.42397657307139
 20
56.39708479222814
 30
0.0
 40
0.875
100
AcDbArc
 50
269.9999633445765
 51
351.9998677270566
  0
ARC
  5
819
330
D4
100
AcDbEntity
  8
破線
100
AcDbCircle
 10
79.54522291096203
 20
1.247094710441043
 30
0.0
 40
0.875
100
AcDbArc
 50
89.99996835353181
 51
171.999872736012
  0
ARC
  5
81A
330
D4
100
AcDbEntity
  8
破線
100
AcDbCircle
 10
69.97396436604013
 20
1.247094710441043
 30
0.0
 40
0.875
100
AcDbArc
 50
8.000118612565927
 51
90.00002299504517
  0
ARC
  5
81B
330
D4
100
AcDbEntity
  8
外形線
  6
Continuous
100
AcDbCircle
 10
79.54522291096203
 20
1.247094710441043
 30
0.0
 40
0.25
100
AcDbArc
 50
89.99996835353263
 51
171.999872736012
  0
ARC
  5
81C
330
D4
100
AcDbEntity
  8
外形線
  6
Continuous
100
AcDbCircle
 10
78.60514417561046
 20
-0.0529007119222413
 30
0.0
 40
0.5
100
AcDbArc
 50
270.0000179860899
 51
351.999881387435
  0
ARC
  5
81D
330
D4
100
AcDbEntity
  8
外形線
  6
Continuous
100
AcDbCircle
 10
70.91404310139168
 20
-0.0529007119222413
 30
0.0
 40
0.5
100
AcDbArc
 50
188.0001545847448
 51
270.0000179860899
  0
ARC
  5
81E
330
D4
100
AcDbEntity
  8
外形線
  6
Continuous
100
AcDbCircle
 10
69.97396436604013
 20
1.247094710441043
 30
0.0
 40
0.25
100
AcDbArc
 50
8.000118612565927
 51
90.00002299504599
  0
ARC
  5
81F
330
D4
100
AcDbEntity
  8
外形線
  6
Continuous
100
AcDbCircle
 10
62.42397657307139
 20
56.39708479222814
 30
0.0
 40
0.25
100
AcDbArc
 50
269.9999633445765
 51
351.9998677270566
  0
ARC
  5
820
330
D4
100
AcDbEntity
  8
外形線
  6
Continuous
100
AcDbCircle
 10
63.36404004963389
 20
57.6970840292887
 30
0.0
 40
0.5
100
AcDbArc
 50
89.99998201391097
 51
171.9998454152556
  0
ARC
  5
821
330
D4
100
AcDbEntity
  8
外形線
  6
Continuous
100
AcDbCircle
 10
71.99521985920418
 20
56.39708479222814
 30
0.0
 40
0.25
100
AcDbArc
 50
188.0001136036105
 51
270.0000179860899
  0
ARC
  5
822
330
D4
100
AcDbEntity
  8
外形線
  6
Continuous
100
AcDbCircle
 10
71.05515638264169
 20
57.6970840292887
 30
0.0
 40
0.5
100
AcDbArc
 50
8.000126296528996
 51
89.99998201391097
  0
ARC
  5
823
330
D4
100
AcDbEntity
  8
破線
100
AcDbCircle
 10
71.99521985920418
 20
56.39708479222814
 30
0.0
 40
0.875
100
AcDbArc
 50
188.0001136036101
 51
270.0000179860899
  0
ARC
  5
824
330
D4
100
AcDbEntity
  8
破線
100
AcDbCircle
 10
77.52396741779796
 20
56.39708479222814
 30
0.0
 40
0.875
100
AcDbArc
 50
269.9999633445765
 51
351.9998677270566
  0
ARC
  5
825
330
D4
100
AcDbEntity
  8
破線
100
AcDbCircle
 10
82.16726270588386
 20
1.247109969230113
 30
0.0
 40
0.875
100
AcDbArc
 50
8.000118612565927
 51
90.00002299504517
  0
ARC
  5
826
330
D4
100
AcDbEntity
  8
外形線
  6
Continuous
100
AcDbCircle
 10
83.10734144123543
 20
-0.0528854531331646
 30
0.0
 40
0.5
100
AcDbArc
 50
188.0001545847448
 51
270.0000179860899
  0
ARC
  5
827
330
D4
100
AcDbEntity
  8
外形線
  6
Continuous
100
AcDbCircle
 10
82.16726270588386
 20
1.247109969230113
 30
0.0
 40
0.25
100
AcDbArc
 50
8.000118612565927
 51
90.00002299504599
  0
ARC
  5
828
330
D4
100
AcDbEntity
  8
外形線
  6
Continuous
100
AcDbCircle
 10
77.52396741779796
 20
56.39708479222814
 30
0.0
 40
0.25
100
AcDbArc
 50
269.9999633445765
 51
351.9998677270566
  0
ARC
  5
829
330
D4
100
AcDbEntity
  8
外形線
  6
Continuous
100
AcDbCircle
 10
78.46404615314952
 20
57.6970840292887
 30
0.0
 40
0.5
100
AcDbArc
 50
89.99998201391097
 51
171.9998454152556
  0
DIMENSION
  5
8B1
330
D4
100
AcDbEntity
  8
寸法線
  6
Continuous
100
AcDbDimension
280
     0
  2
*D9
 10
-20.61539873210438
 20
70.37810676335789
 30
0.0
 11
33.13459745319834
 21
72.97810678719975
 31
0.0
 70
    32
  1
L
 71
     5
 42
107.4999923706054
 73
     0
 74
     0
 75
     0
  3
DIMSTYLE
100
AcDbAlignedDimension
 13
86.88459363850105
 23
58.94709165868324
 33
0.0
 14
-20.61539873210438
 24
58.94709165868324
 34
0.0
100
AcDbRotatedDimension
1001
ACAD
1000
DSTYLE
1002
{
1070
    77
1070
     1
1070
   172
1070
     1
1070
   147
1040
1.0
1002
}
  0
DIMENSION
  5
8B2
330
D4
100
AcDbEntity
  8
寸法線
100
AcDbDimension
280
     0
  2
*D10
 10
99.29617795888164
 20
0.0721221762613558
 30
0.0
 11
96.69617793503981
 21
28.82210310277505
 31
0.0
 70
    32
  1
D
 71
     5
 42
57.49996185302735
 73
     0
 74
     0
 75
     0
  3
DIMSTYLE
100
AcDbAlignedDimension
 13
86.88460126789564
 23
57.57208402928871
 33
0.0
 14
86.1346012678956
 24
0.0721221762613595
 34
0.0
 50
90.0
100
AcDbRotatedDimension
1001
ACAD
1000
DSTYLE
1002
{
1070
    77
1070
     1
1070
   172
1070
     1
1070
   147
1040
1.0
1002
}
  0
MTEXT
  5
A48
330
D4
100
AcDbEntity
  8
VIEW0001
 62
     7
100
AcDbMText
 10
59.89285540580749
 20
-93.0
 30
0.0
 40
4.5
 41
0.0
 46
0.0
 71
     7
 72
     1
  1
{\W1.3889;　デンカ株式会社}
 73
     1
 44
1.0
  0
ENDSEC
  0
SECTION
  2
OBJECTS
  0
DICTIONARY
  5
29A
330
0
100
AcDbDictionary
281
     1
  3
ACAD_CIP_PREVIOUS_PRODUCT_INFO
350
A3C
  3
ACAD_COLOR
350
2A3
  3
ACAD_DETAILVIEWSTYLE
350
A37
  3
ACAD_GROUP
350
29B
  3
ACAD_LAYOUT
350
2A6
  3
ACAD_MATERIAL
350
2A2
  3
ACAD_MLEADERSTYLE
350
A33
  3
ACAD_MLINESTYLE
350
29C
  3
ACAD_PLOTSETTINGS
350
2A7
  3
ACAD_PLOTSTYLENAME
350
2A0
  3
ACAD_SCALELIST
350
A21
  3
ACAD_SECTIONVIEWSTYLE
350
A35
  3
ACAD_TABLESTYLE
350
2A4
  3
ACAD_VISUALSTYLE
350
A08
  3
ACDB_RECOMPOSE_DATA
350
A9E
  3
AcDbVariableDictionary
350
2AF
  0
DICTIONARY
  5
9A7
330
C8
100
AcDbDictionary
280
     1
281
     1
  3
ACAD_LAYERFILTERS
360
9A9
  3
ACLYDICTIONARY
360
9A8
  0
DICTIONARY
  5
A49
330
C9
100
AcDbDictionary
280
     1
281
     1
  3
ADSK_XREC_LAYER_RECONCILED
360
A4A
  0
DICTIONARY
  5
A4B
330
CA
100
AcDbDictionary
280
     1
281
     1
  3
ADSK_XREC_LAYER_RECONCILED
360
A4C
  0
DICTIONARY
  5
A4D
330
2C1
100
AcDbDictionary
280
     1
281
     1
  3
ADSK_XREC_LAYER_RECONCILED
360
A4E
  0
DICTIONARY
  5
A4F
330
2C3
100
AcDbDictionary
280
     1
281
     1
  3
ADSK_XREC_LAYER_RECONCILED
360
A50
  0
DICTIONARY
  5
A51
330
2C4
100
AcDbDictionary
280
     1
281
     1
  3
ADSK_XREC_LAYER_RECONCILED
360
A52
  0
DICTIONARY
  5
A53
330
390
100
AcDbDictionary
280
     1
281
     1
  3
ADSK_XREC_LAYER_RECONCILED
360
A54
  0
DICTIONARY
  5
A55
330
8AB
100
AcDbDictionary
280
     1
281
     1
  3
ADSK_XREC_LAYER_RECONCILED
360
A56
  0
DICTIONARY
  5
A3E
330
A3D
100
AcDbDictionary
280
     1
281
     1
  3
ADSK_XREC_LAYER_RECONCILED
360
A57
  0
DICTIONARY
  5
2BA
330
D4
100
AcDbDictionary
280
     1
281
     1
  3
ACAD_SORTENTS
360
2BB
  0
XRECORD
  5
A3C
102
{ACAD_REACTORS
330
29A
102
}
330
29A
100
AcDbXrecord
280
     1
300
ACDLT
300
2015
300
INVLTS_F_S
  0
DICTIONARY
  5
2A3
102
{ACAD_REACTORS
330
29A
102
}
330
29A
100
AcDbDictionary
281
     1
  0
DICTIONARY
  5
A37
102
{ACAD_REACTORS
330
29A
102
}
330
29A
100
AcDbDictionary
281
     1
  3
Metric50
350
A38
  0
DICTIONARY
  5
29B
102
{ACAD_REACTORS
330
29A
102
}
330
29A
100
AcDbDictionary
281
     1
  0
DICTIONARY
  5
2A6
102
{ACAD_REACTORS
330
29A
102
}
330
29A
100
AcDbDictionary
281
     1
  3
Model
350
2A8
  3
レイアウト1
350
2A9
  0
DICTIONARY
  5
2A2
102
{ACAD_REACTORS
330
29A
102
}
330
29A
100
AcDbDictionary
281
     1
  3
ByBlock
350
9F8
  3
ByLayer
350
9F0
  3
Global
350
A00
  0
DICTIONARY
  5
A33
102
{ACAD_REACTORS
330
29A
102
}
330
29A
100
AcDbDictionary
281
     1
  3
Standard
350
A34
  0
DICTIONARY
  5
29C
102
{ACAD_REACTORS
330
29A
102
}
330
29A
100
AcDbDictionary
281
     1
  3
STANDARD
350
29D
  0
DICTIONARY
  5
2A7
102
{ACAD_REACTORS
330
29A
102
}
330
29A
100
AcDbDictionary
281
     1
  3
111
350
997
  0
ACDBDICTIONARYWDFLT
  5
2A0
102
{ACAD_REACTORS
330
29A
102
}
330
29A
100
AcDbDictionary
281
     1
  3
Normal
350
2A1
100
AcDbDictionaryWithDefault
340
2A1
  0
DICTIONARY
  5
A21
102
{ACAD_REACTORS
330
29A
102
}
330
29A
100
AcDbDictionary
281
     1
  3
A0
350
A22
  3
A1
350
A23
  3
A2
350
A24
  3
A3
350
A25
  3
A4
350
A26
  3
A5
350
A27
  3
A6
350
A28
  3
A7
350
A29
  3
A8
350
A2A
  3
A9
350
A2B
  3
B0
350
A2C
  3
B1
350
A2D
  3
B2
350
A2E
  3
B3
350
A2F
  3
B4
350
A30
  3
B5
350
A31
  3
B6
350
A32
  0
DICTIONARY
  5
A35
102
{ACAD_REACTORS
330
29A
102
}
330
29A
100
AcDbDictionary
281
     1
  3
Metric50
350
A36
  0
DICTIONARY
  5
2A4
102
{ACAD_REACTORS
330
29A
102
}
330
29A
100
AcDbDictionary
281
     1
  3
Standard
350
2A5
  0
DICTIONARY
  5
A08
102
{ACAD_REACTORS
330
29A
102
}
330
29A
100
AcDbDictionary
281
     1
  3
2dWireframe
350
A0E
  3
Basic
350
A0D
  3
Brighten
350
A14
  3
ColorChange
350
A18
  3
Conceptual
350
A11
  3
Dim
350
A13
  3
EdgeColorOff
350
A20
  3
Facepattern
350
A17
  3
Flat
350
A09
  3
FlatWithEdges
350
A0A
  3
Gouraud
350
A0B
  3
GouraudWithEdges
350
A0C
  3
Hidden
350
A10
  3
JitterOff
350
A1E
  3
Linepattern
350
A16
  3
OverhangOff
350
A1F
  3
Realistic
350
A12
  3
Shaded
350
A1D
  3
Shaded with edges
350
A1C
  3
Shades of Gray
350
A19
  3
Sketchy
350
A1A
  3
Thicken
350
A15
  3
Wireframe
350
A0F
  3
X-Ray
350
A1B
  0
XRECORD
  5
A9E
102
{ACAD_REACTORS
330
29A
102
}
330
29A
100
AcDbXrecord
280
     1
 90
        1
330
2A5
  0
DICTIONARY
  5
2AF
102
{ACAD_REACTORS
330
29A
102
}
330
29A
100
AcDbDictionary
281
     1
  3
CANNOSCALE
350
A98
  3
CMLEADERSTYLE
350
A94
  3
CTABLESTYLE
350
2B0
  3
CVIEWDETAILSTYLE
350
A95
  3
CVIEWSECTIONSTYLE
350
A96
  3
DIMASSOC
350
2B1
  3
LAYEREVAL
350
A9A
  3
LAYERNOTIFY
350
A9B
  3
LIGHTINGUNITS
350
A99
  3
MSLTSCALE
350
A97
  3
PROJECTNAME
350
2B2
  0
DICTIONARY
  5
9A9
102
{ACAD_REACTORS
330
9A7
102
}
330
9A7
100
AcDbDictionary
281
     1
  0
DICTIONARY
  5
9A8
102
{ACAD_REACTORS
330
9A7
102
}
330
9A7
100
AcDbDictionary
281
     1
1001
ACAD
1000
<All
  0
XRECORD
  5
A4A
102
{ACAD_REACTORS
330
A49
102
}
330
A49
100
AcDbXrecord
280
     1
290
     1
  0
XRECORD
  5
A4C
102
{ACAD_REACTORS
330
A4B
102
}
330
A4B
100
AcDbXrecord
280
     1
290
     1
  0
XRECORD
  5
A4E
102
{ACAD_REACTORS
330
A4D
102
}
330
A4D
100
AcDbXrecord
280
     1
290
     1
  0
XRECORD
  5
A50
102
{ACAD_REACTORS
330
A4F
102
}
330
A4F
100
AcDbXrecord
280
     1
290
     1
  0
XRECORD
  5
A52
102
{ACAD_REACTORS
330
A51
102
}
330
A51
100
AcDbXrecord
280
     1
290
     1
  0
XRECORD
  5
A54
102
{ACAD_REACTORS
330
A53
102
}
330
A53
100
AcDbXrecord
280
     1
290
     1
  0
XRECORD
  5
A56
102
{ACAD_REACTORS
330
A55
102
}
330
A55
100
AcDbXrecord
280
     1
290
     1
  0
XRECORD
  5
A57
102
{ACAD_REACTORS
330
A3E
102
}
330
A3E
100
AcDbXrecord
280
     1
290
     1
  0
SORTENTSTABLE
  5
2BB
102
{ACAD_REACTORS
330
2BA
102
}
330
2BA
100
AcDbSortentsTable
330
D4
331
285
  5
285
331
298
  5
2BF
331
28E
  5
28E
331
2C0
  5
295
331
2BE
  5
296
331
2BC
  5
2BE
331
28F
  5
28F
331
2BF
  5
2BC
  0
ACDBDETAILVIEWSTYLE
  5
A38
102
{ACAD_XDICTIONARY
360
AD1
102
}
102
{ACAD_REACTORS
330
A37
102
}
330
A37
100
AcDbModelDocViewStyle
 70
     0
  3
Metric50
290
     0
100
AcDbDetailViewStyle
 70
     0
 71
     0
 90
        3
 71
     1
340
23
 62
   256
 40
5.0
340
0
 62
   256
 40
5.0
300

 40
0.0
280
     1
 71
     2
340
28
 90
       25
 62
   256
 71
     3
340
23
 62
   256
 40
5.0
 90
        0
 40
15.0
 90
        1
300
%<\AcVar ViewDetailId>% (%<\AcVar ViewScale \f "%sn">%)
 71
     4
340
28
 90
       25
 62
   256
340
28
 90
       25
 62
   256
280
     0
  0
LAYOUT
  5
2A8
102
{ACAD_REACTORS
330
2A6
102
}
330
2A6
100
AcDbPlotSettings
  1

  2
Adobe PDF
  4
A4
  6

 40
3.174999952316282
 41
3.174999952316282
 42
3.175003051757812
 43
3.17498779296875
 44
209.9733276367186
 45
297.0318298339844
 46
7.051149022578584
 47
7.073861730090527
 48
0.0
 49
0.0
140
0.0
141
0.0
142
1.0
143
1.0
 70
 11956
 72
     1
 73
     1
 74
     1
  7
monochrome.ctb
 75
    16
147
1.0
 76
     0
 77
     2
 78
   300
148
138.0163109423782
149
94.50884959708066
100
AcDbLayout
  1
Model
 70
     1
 71
     0
 10
0.0
 20
0.0
 11
12.0
 21
9.0
 12
0.0
 22
0.0
 32
0.0
 14
0.0
 24
0.0
 34
0.0
 15
0.0
 25
0.0
 35
0.0
146
0.0
 13
0.0
 23
0.0
 33
0.0
 16
1.0
 26
0.0
 36
0.0
 17
0.0
 27
1.0
 37
0.0
 76
     0
330
D4
331
9E6
1001
ACAD_PSEXT
1000
Adobe PDF
1000
Adobe PDF Converter
1000
My Documents
1000

1070
     0
  0
LAYOUT
  5
2A9
102
{ACAD_REACTORS
330
2A6
102
}
330
2A6
100
AcDbPlotSettings
  1

  2
Canon LASER SHOT LBP-2510
  4

  6

 40
0.0
 41
0.0
 42
0.0
 43
0.0
 44
0.0
 45
0.0
 46
0.0
 47
0.0
 48
0.0
 49
0.0
140
0.0
141
0.0
142
1.0
143
1.0
 70
   688
 72
     0
 73
     0
 74
     5
  7
Canon LASER SHOT LBP-2510
 75
    16
147
1.0
 76
     0
 77
     2
 78
   300
148
0.0
149
0.0
100
AcDbLayout
  1
レイアウト1
 70
     1
 71
     1
 10
-148.0
 20
-104.5
 11
149.0
 21
105.5
 12
0.0
 22
0.0
 32
0.0
 14
-148.0
 24
-104.5
 34
0.0
 15
149.0
 25
105.5
 35
0.0
146
0.0
 13
0.0
 23
0.0
 33
0.0
 16
1.0
 26
0.0
 36
0.0
 17
0.0
 27
1.0
 37
0.0
 76
     0
330
D5
  0
MATERIAL
  5
9F8
102
{ACAD_XDICTIONARY
360
9F9
102
}
102
{ACAD_REACTORS
330
2A2
102
}
330
2A2
100
AcDbMaterial
  1
ByBlock
 72
     0
 43
0.0208333333333333
 43
0.0
 43
0.0
 43
0.0
 43
0.0
 43
0.0208333333333333
 43
0.0
 43
0.0
 43
0.0
 43
0.0
 43
1.0
 43
0.0
 43
0.0
 43
0.0
 43
0.0
 43
1.0
 77
     0
 47
0.0208333333333333
 47
0.0
 47
0.0
 47
0.0
 47
0.0
 47
0.0208333333333333
 47
0.0
 47
0.0
 47
0.0
 47
0.0
 47
1.0
 47
0.0
 47
0.0
 47
0.0
 47
0.0
 47
1.0
171
     0
 49
0.0208333333333333
 49
0.0
 49
0.0
 49
0.0
 49
0.0
 49
0.0208333333333333
 49
0.0
 49
0.0
 49
0.0
 49
0.0
 49
1.0
 49
0.0
 49
0.0
 49
0.0
 49
0.0
 49
1.0
175
     0
142
0.0208333333333333
142
0.0
142
0.0
142
0.0
142
0.0
142
0.0208333333333333
142
0.0
142
0.0
142
0.0
142
0.0
142
1.0
142
0.0
142
0.0
142
0.0
142
0.0
142
1.0
179
     0
144
0.0208333333333333
144
0.0
144
0.0
144
0.0
144
0.0
144
0.0208333333333333
144
0.0
144
0.0
144
0.0
144
0.0
144
1.0
144
0.0
144
0.0
144
0.0
144
0.0
144
1.0
147
0.0208333333333333
147
0.0
147
0.0
147
0.0
147
0.0
147
0.0208333333333333
147
0.0
147
0.0
147
0.0
147
0.0
147
1.0
147
0.0
147
0.0
147
0.0
147
0.0
147
1.0
  0
MATERIAL
  5
9F0
102
{ACAD_XDICTIONARY
360
9F1
102
}
102
{ACAD_REACTORS
330
2A2
102
}
330
2A2
100
AcDbMaterial
  1
ByLayer
 72
     0
 43
0.0208333333333333
 43
0.0
 43
0.0
 43
0.0
 43
0.0
 43
0.0208333333333333
 43
0.0
 43
0.0
 43
0.0
 43
0.0
 43
1.0
 43
0.0
 43
0.0
 43
0.0
 43
0.0
 43
1.0
 77
     0
 47
0.0208333333333333
 47
0.0
 47
0.0
 47
0.0
 47
0.0
 47
0.0208333333333333
 47
0.0
 47
0.0
 47
0.0
 47
0.0
 47
1.0
 47
0.0
 47
0.0
 47
0.0
 47
0.0
 47
1.0
171
     0
 49
0.0208333333333333
 49
0.0
 49
0.0
 49
0.0
 49
0.0
 49
0.0208333333333333
 49
0.0
 49
0.0
 49
0.0
 49
0.0
 49
1.0
 49
0.0
 49
0.0
 49
0.0
 49
0.0
 49
1.0
175
     0
142
0.0208333333333333
142
0.0
142
0.0
142
0.0
142
0.0
142
0.0208333333333333
142
0.0
142
0.0
142
0.0
142
0.0
142
1.0
142
0.0
142
0.0
142
0.0
142
0.0
142
1.0
179
     0
144
0.0208333333333333
144
0.0
144
0.0
144
0.0
144
0.0
144
0.0208333333333333
144
0.0
144
0.0
144
0.0
144
0.0
144
1.0
144
0.0
144
0.0
144
0.0
144
0.0
144
1.0
147
0.0208333333333333
147
0.0
147
0.0
147
0.0
147
0.0
147
0.0208333333333333
147
0.0
147
0.0
147
0.0
147
0.0
147
1.0
147
0.0
147
0.0
147
0.0
147
0.0
147
1.0
  0
MATERIAL
  5
A00
102
{ACAD_XDICTIONARY
360
A01
102
}
102
{ACAD_REACTORS
330
2A2
102
}
330
2A2
100
AcDbMaterial
  1
Global
 72
     0
 43
0.0208333333333333
 43
0.0
 43
0.0
 43
0.0
 43
0.0
 43
0.0208333333333333
 43
0.0
 43
0.0
 43
0.0
 43
0.0
 43
1.0
 43
0.0
 43
0.0
 43
0.0
 43
0.0
 43
1.0
 77
     0
 47
0.0208333333333333
 47
0.0
 47
0.0
 47
0.0
 47
0.0
 47
0.0208333333333333
 47
0.0
 47
0.0
 47
0.0
 47
0.0
 47
1.0
 47
0.0
 47
0.0
 47
0.0
 47
0.0
 47
1.0
171
     0
 49
0.0208333333333333
 49
0.0
 49
0.0
 49
0.0
 49
0.0
 49
0.0208333333333333
 49
0.0
 49
0.0
 49
0.0
 49
0.0
 49
1.0
 49
0.0
 49
0.0
 49
0.0
 49
0.0
 49
1.0
175
     0
142
0.0208333333333333
142
0.0
142
0.0
142
0.0
142
0.0
142
0.0208333333333333
142
0.0
142
0.0
142
0.0
142
0.0
142
1.0
142
0.0
142
0.0
142
0.0
142
0.0
142
1.0
179
     0
144
0.0208333333333333
144
0.0
144
0.0
144
0.0
144
0.0
144
0.0208333333333333
144
0.0
144
0.0
144
0.0
144
0.0
144
1.0
144
0.0
144
0.0
144
0.0
144
0.0
144
1.0
147
0.0208333333333333
147
0.0
147
0.0
147
0.0
147
0.0
147
0.0208333333333333
147
0.0
147
0.0
147
0.0
147
0.0
147
1.0
147
0.0
147
0.0
147
0.0
147
0.0
147
1.0
  0
MLEADERSTYLE
  5
A34
102
{ACAD_REACTORS
330
A33
102
}
330
A33
100
AcDbMLeaderStyle
179
     2
170
     2
171
     1
172
     0
 90
        2
 40
0.0
 41
0.0
173
     1
 91
-1056964608
340
26
 92
       -2
290
     1
 42
2.0
291
     1
 43
0.36
  3
Standard
 44
4.0
300

342
23
174
     1
178
     6
175
     1
176
     0
 93
-1056964608
 45
4.0
292
     0
297
     0
 46
4.0
 94
-1056964608
 47
1.0
 49
1.0
140
1.0
293
     1
141
0.0
294
     1
177
     0
142
1.0
295
     0
296
     0
143
0.125
271
     0
272
     9
273
     9
  0
MLINESTYLE
  5
29D
102
{ACAD_REACTORS
330
29C
102
}
330
29C
100
AcDbMlineStyle
  2
STANDARD
 70
     0
  3

 62
     0
 51
90.0
 52
90.0
 71
     2
 49
0.5
 62
   256
  6
BYLAYER
 49
-0.5
 62
   256
  6
BYLAYER
  0
PLOTSETTINGS
  5
997
102
{ACAD_REACTORS
330
2A7
102
}
330
2A7
100
AcDbPlotSettings
  1
111
  2
RICOH IPSiO NX860e RPCS
  4
A4
  6

 40
5.873749732971191
 41
5.873747825622557
 42
5.873748779296875
 43
5.873748779296875
 44
209.9733276367186
 45
296.9259948730469
 46
1.382206344234629
 47
0.0
 48
0.0
 49
0.0
140
0.0
141
0.0
142
1.0
143
0.9696379639765943
 70
 11956
 72
     1
 73
     1
 74
     1
  7
monochrome.ctb
 75
     0
147
1.031312755019289
 76
     0
 77
     2
 78
   300
148
138.016006241122
149
94.51495291709916
1001
ACAD_PSEXT
1000
RICOH IPSiO NX860e RPCS
1000
RICOH IPSiO NX860e RPCS
1000
IP_192.168.110.192
1000
RPCS Driver (Windows 2000/XP/Server 2003/Vista)
1070
     0
  0
ACDBPLACEHOLDER
  5
2A1
102
{ACAD_REACTORS
330
2A0
102
}
330
2A0
  0
SCALE
  5
A22
102
{ACAD_REACTORS
330
A21
102
}
330
A21
100
AcDbScale
 70
     0
300
1:1
140
1.0
141
1.0
290
     1
  0
SCALE
  5
A23
102
{ACAD_REACTORS
330
A21
102
}
330
A21
100
AcDbScale
 70
     0
300
1:2
140
1.0
141
2.0
290
     0
  0
SCALE
  5
A24
102
{ACAD_REACTORS
330
A21
102
}
330
A21
100
AcDbScale
 70
     0
300
1:4
140
1.0
141
4.0
290
     0
  0
SCALE
  5
A25
102
{ACAD_REACTORS
330
A21
102
}
330
A21
100
AcDbScale
 70
     0
300
1:5
140
1.0
141
5.0
290
     0
  0
SCALE
  5
A26
102
{ACAD_REACTORS
330
A21
102
}
330
A21
100
AcDbScale
 70
     0
300
1:8
140
1.0
141
8.0
290
     0
  0
SCALE
  5
A27
102
{ACAD_REACTORS
330
A21
102
}
330
A21
100
AcDbScale
 70
     0
300
1:10
140
1.0
141
10.0
290
     0
  0
SCALE
  5
A28
102
{ACAD_REACTORS
330
A21
102
}
330
A21
100
AcDbScale
 70
     0
300
1:16
140
1.0
141
16.0
290
     0
  0
SCALE
  5
A29
102
{ACAD_REACTORS
330
A21
102
}
330
A21
100
AcDbScale
 70
     0
300
1:20
140
1.0
141
20.0
290
     0
  0
SCALE
  5
A2A
102
{ACAD_REACTORS
330
A21
102
}
330
A21
100
AcDbScale
 70
     0
300
1:30
140
1.0
141
30.0
290
     0
  0
SCALE
  5
A2B
102
{ACAD_REACTORS
330
A21
102
}
330
A21
100
AcDbScale
 70
     0
300
1:40
140
1.0
141
40.0
290
     0
  0
SCALE
  5
A2C
102
{ACAD_REACTORS
330
A21
102
}
330
A21
100
AcDbScale
 70
     0
300
1:50
140
1.0
141
50.0
290
     0
  0
SCALE
  5
A2D
102
{ACAD_REACTORS
330
A21
102
}
330
A21
100
AcDbScale
 70
     0
300
1:100
140
1.0
141
100.0
290
     0
  0
SCALE
  5
A2E
102
{ACAD_REACTORS
330
A21
102
}
330
A21
100
AcDbScale
 70
     0
300
2:1
140
2.0
141
1.0
290
     0
  0
SCALE
  5
A2F
102
{ACAD_REACTORS
330
A21
102
}
330
A21
100
AcDbScale
 70
     0
300
4:1
140
4.0
141
1.0
290
     0
  0
SCALE
  5
A30
102
{ACAD_REACTORS
330
A21
102
}
330
A21
100
AcDbScale
 70
     0
300
8:1
140
8.0
141
1.0
290
     0
  0
SCALE
  5
A31
102
{ACAD_REACTORS
330
A21
102
}
330
A21
100
AcDbScale
 70
     0
300
10:1
140
10.0
141
1.0
290
     0
  0
SCALE
  5
A32
102
{ACAD_REACTORS
330
A21
102
}
330
A21
100
AcDbScale
 70
     0
300
100:1
140
100.0
141
1.0
290
     0
  0
ACDBSECTIONVIEWSTYLE
  5
A36
102
{ACAD_XDICTIONARY
360
ACF
102
}
102
{ACAD_REACTORS
330
A35
102
}
330
A35
100
AcDbModelDocViewStyle
 70
     0
  3
Metric50
290
     0
100
AcDbSectionViewStyle
 70
     0
 71
     0
 90
      102
 71
     1
340
23
 62
   256
 40
5.0
340
0
340
0
 62
   256
 40
5.0
300
I, O, Q, S, X, Z
 40
10.0
 90
        0
 40
2.5
 90
        0
 71
     2
340
28
 90
       25
 62
   256
340
28
 90
       50
 62
   256
 40
5.0
 40
2.5
 40
5.0
 71
     3
340
23
 62
   256
 40
5.0
 90
        0
 40
15.0
 90
        1
300
%<\AcVar ViewSectionStartId>%-%<\AcVar ViewSectionEndId>% (%<\AcVar ViewScale \f "%sn">%)
 71
     4
 62
   256
 62
   257
300
ANSI31
 40
1.0
 90
        0
290
     0
290
     0
 90
        6
 40
0.0
 40
1.570796326794896
 40
0.2617993877991494
 40
1.308996938995747
 40
-0.2617993877991494
 40
1.832595714594046
  0
TABLESTYLE
  5
2A5
102
{ACAD_XDICTIONARY
360
A9C
102
}
102
{ACAD_REACTORS
330
2A4
102
}
330
2A4
100
AcDbTableStyle
280
     0
  3
Standard
 70
     0
 71
     0
 40
1.5
 41
1.5
280
     0
281
     0
  7
STANDARD
140
4.5
170
     2
 62
     0
 63
     7
283
     0
 90
        4
 91
        0
  1

274
    -2
284
     1
 64
     0
275
    -2
285
     1
 65
     0
276
    -2
286
     1
 66
     0
277
    -2
287
     1
 67
     0
278
    -2
288
     1
 68
     0
279
    -2
289
     1
 69
     0
  7
STANDARD
140
6.0
170
     5
 62
     0
 63
     7
283
     0
 90
        4
 91
        0
  1

274
    -2
284
     1
 64
     0
275
    -2
285
     1
 65
     0
276
    -2
286
     1
 66
     0
277
    -2
287
     1
 67
     0
278
    -2
288
     1
 68
     0
279
    -2
289
     1
 69
     0
  7
STANDARD
140
4.5
170
     5
 62
     0
 63
     7
283
     0
 90
        4
 91
        0
  1

274
    -2
284
     1
 64
     0
275
    -2
285
     1
 65
     0
276
    -2
286
     1
 66
     0
277
    -2
287
     1
 67
     0
278
    -2
288
     1
 68
     0
279
    -2
289
     1
 69
     0
  0
VISUALSTYLE
  5
A0E
102
{ACAD_XDICTIONARY
360
AA9
102
}
102
{ACAD_REACTORS
330
A08
102
}
330
A08
100
AcDbVisualStyle
  2
2dWireframe
 70
     4
177
     2
291
     0
 71
     0
176
     1
 72
     2
176
     1
 73
     0
176
     1
 90
        0
176
     1
 40
0.6
176
     1
 41
30.0
176
     1
 63
     7
421
 16777215
176
     1
 74
     1
176
     1
 91
        4
176
     1
 64
     7
176
     1
 65
   257
176
     1
 75
     1
176
     1
175
     1
176
     1
 42
1.0
176
     1
 92
        0
176
     1
 66
   257
176
     1
 43
1.0
176
     1
 76
     1
176
     1
 77
     6
176
     1
 78
     2
176
     1
 67
     7
176
     1
 79
     5
176
     1
170
     0
176
     1
171
     0
176
     1
290
     0
176
     1
 93
        1
176
     1
 44
0.0
176
     1
173
     0
176
     1
1001
ACAD
1000
AcDbSavedByObjectVersion
1070
     0
  0
VISUALSTYLE
  5
A0D
102
{ACAD_XDICTIONARY
360
AA7
102
}
102
{ACAD_REACTORS
330
A08
102
}
330
A08
100
AcDbVisualStyle
  2
Basic
 70
     7
177
     2
291
     1
 71
     1
176
     1
 72
     0
176
     1
 73
     1
176
     1
 90
        0
176
     1
 40
0.6
176
     1
 41
30.0
176
     1
 63
     7
421
 16777215
176
     1
 74
     0
176
     1
 91
        4
176
     1
 64
     7
176
     1
 65
   257
176
     1
 75
     1
176
     1
175
     1
176
     1
 42
1.0
176
     1
 92
        8
176
     1
 66
     7
176
     1
 43
1.0
176
     1
 76
     1
176
     1
 77
     6
176
     1
 78
     2
176
     1
 67
     7
176
     1
 79
     5
176
     1
170
     0
176
     1
171
     0
176
     1
290
     0
176
     1
 93
        1
176
     1
 44
0.0
176
     1
173
     0
176
     1
1001
ACAD
1000
AcDbSavedByObjectVersion
1070
     0
  0
VISUALSTYLE
  5
A14
102
{ACAD_XDICTIONARY
360
AB5
102
}
102
{ACAD_REACTORS
330
A08
102
}
330
A08
100
AcDbVisualStyle
  2
Brighten
 70
    12
177
     2
291
     1
 71
     2
176
     1
 72
     2
176
     1
 73
     0
176
     1
 90
        0
176
     1
 40
0.6
176
     1
 41
30.0
176
     1
 63
     7
421
 16777215
176
     1
 74
     1
176
     1
 91
        4
176
     1
 64
     7
176
     1
 65
   257
176
     1
 75
     1
176
     1
175
     1
176
     1
 42
1.0
176
     1
 92
        8
176
     1
 66
     7
176
     1
 43
1.0
176
     1
 76
     1
176
     1
 77
     6
176
     1
 78
     2
176
     1
 67
     7
176
     1
 79
     5
176
     1
170
     0
176
     1
171
     0
176
     1
290
     0
176
     1
 93
        1
176
     1
 44
50.0
176
     1
173
     0
176
     1
1001
ACAD
1000
AcDbSavedByObjectVersion
1070
     0
  0
VISUALSTYLE
  5
A18
102
{ACAD_XDICTIONARY
360
ABD
102
}
102
{ACAD_REACTORS
330
A08
102
}
330
A08
100
AcDbVisualStyle
  2
ColorChange
 70
    16
177
     2
291
     1
 71
     2
176
     1
 72
     2
176
     1
 73
     3
176
     1
 90
        0
176
     1
 40
0.6
176
     1
 41
30.0
176
     1
 63
     8
421
  8421504
176
     1
 74
     1
176
     1
 91
        4
176
     1
 64
     7
176
     1
 65
   257
176
     1
 75
     1
176
     1
175
     1
176
     1
 42
1.0
176
     1
 92
        8
176
     1
 66
     8
424
  8421504
176
     1
 43
1.0
176
     1
 76
     1
176
     1
 77
     6
176
     1
 78
     2
176
     1
 67
     7
176
     1
 79
     5
176
     1
170
     0
176
     1
171
     0
176
     1
290
     0
176
     1
 93
        1
176
     1
 44
0.0
176
     1
173
     0
176
     1
1001
ACAD
1000
AcDbSavedByObjectVersion
1070
     0
  0
VISUALSTYLE
  5
A11
102
{ACAD_XDICTIONARY
360
AAF
102
}
102
{ACAD_REACTORS
330
A08
102
}
330
A08
100
AcDbVisualStyle
  2
Conceptual
 70
     9
177
     2
291
     0
 71
     3
176
     1
 72
     2
176
     1
 73
     0
176
     1
 90
        0
176
     1
 40
0.6
176
     1
 41
30.0
176
     1
 63
     7
421
 16777215
176
     1
 74
     2
176
     1
 91
        2
176
     1
 64
     7
176
     1
 65
   257
176
     1
 75
     1
176
     1
175
     1
176
     1
 42
179.0
176
     1
 92
        8
176
     1
 66
     7
176
     1
 43
1.0
176
     1
 76
     1
176
     1
 77
     6
176
     1
 78
     2
176
     1
 67
     7
176
     1
 79
     3
176
     1
170
     0
176
     1
171
     0
176
     1
290
     0
176
     1
 93
        1
176
     1
 44
0.0
176
     1
173
     0
176
     1
1001
ACAD
1000
AcDbSavedByObjectVersion
1070
     0
  0
VISUALSTYLE
  5
A13
102
{ACAD_XDICTIONARY
360
AB3
102
}
102
{ACAD_REACTORS
330
A08
102
}
330
A08
100
AcDbVisualStyle
  2
Dim
 70
    11
177
     2
291
     1
 71
     2
176
     1
 72
     2
176
     1
 73
     0
176
     1
 90
        0
176
     1
 40
0.6
176
     1
 41
30.0
176
     1
 63
     7
421
 16777215
176
     1
 74
     1
176
     1
 91
        4
176
     1
 64
     7
176
     1
 65
   257
176
     1
 75
     1
176
     1
175
     1
176
     1
 42
1.0
176
     1
 92
        8
176
     1
 66
     7
176
     1
 43
1.0
176
     1
 76
     1
176
     1
 77
     6
176
     1
 78
     2
176
     1
 67
     7
176
     1
 79
     5
176
     1
170
     0
176
     1
171
     0
176
     1
290
     0
176
     1
 93
        1
176
     1
 44
-50.0
176
     1
173
     0
176
     1
1001
ACAD
1000
AcDbSavedByObjectVersion
1070
     0
  0
VISUALSTYLE
  5
A20
102
{ACAD_XDICTIONARY
360
ACD
102
}
102
{ACAD_REACTORS
330
A08
102
}
330
A08
100
AcDbVisualStyle
  2
EdgeColorOff
 70
    22
177
     2
291
     1
 71
     2
176
     0
 72
     2
176
     0
 73
     0
176
     0
 90
        0
176
     0
 40
0.6
176
     0
 41
30.0
176
     0
 63
     7
421
 16777215
176
     0
 74
     1
176
     0
 91
        4
176
     0
 64
     7
176
     0
 65
   257
176
     0
 75
     1
176
     0
175
     1
176
     0
 42
1.0
176
     0
 92
        8
176
     2
 66
     7
176
     0
 43
1.0
176
     0
 76
     1
176
     0
 77
     6
176
     0
 78
     2
176
     0
 67
     7
176
     0
 79
     5
176
     0
170
     0
176
     0
171
     0
176
     0
290
     0
176
     0
 93
        1
176
     0
 44
0.0
176
     0
173
     0
176
     0
1001
ACAD
1000
AcDbSavedByObjectVersion
1070
     0
  0
VISUALSTYLE
  5
A17
102
{ACAD_XDICTIONARY
360
ABB
102
}
102
{ACAD_REACTORS
330
A08
102
}
330
A08
100
AcDbVisualStyle
  2
Facepattern
 70
    15
177
     2
291
     1
 71
     2
176
     1
 72
     2
176
     1
 73
     0
176
     1
 90
        0
176
     1
 40
0.6
176
     1
 41
30.0
176
     1
 63
     7
421
 16777215
176
     1
 74
     1
176
     1
 91
        4
176
     1
 64
     7
176
     1
 65
   257
176
     1
 75
     1
176
     1
175
     1
176
     1
 42
1.0
176
     1
 92
        8
176
     1
 66
     7
176
     1
 43
1.0
176
     1
 76
     1
176
     1
 77
     6
176
     1
 78
     2
176
     1
 67
     7
176
     1
 79
     5
176
     1
170
     0
176
     1
171
     0
176
     1
290
     0
176
     1
 93
        1
176
     1
 44
0.0
176
     1
173
     0
176
     1
1001
ACAD
1000
AcDbSavedByObjectVersion
1070
     0
  0
VISUALSTYLE
  5
A09
102
{ACAD_XDICTIONARY
360
A9F
102
}
102
{ACAD_REACTORS
330
A08
102
}
330
A08
100
AcDbVisualStyle
  2
Flat
 70
     0
177
     2
291
     1
 71
     2
176
     1
 72
     1
176
     1
 73
     1
176
     1
 90
        2
176
     1
 40
0.6
176
     1
 41
30.0
176
     1
 63
     7
421
 16777215
176
     1
 74
     0
176
     1
 91
        0
176
     1
 64
     7
176
     1
 65
   257
176
     1
 75
     1
176
     1
175
     1
176
     1
 42
1.0
176
     1
 92
        8
176
     1
 66
     7
176
     1
 43
1.0
176
     1
 76
     1
176
     1
 77
     6
176
     1
 78
     2
176
     1
 67
     7
176
     1
 79
     5
176
     1
170
     0
176
     1
171
     0
176
     1
290
     0
176
     1
 93
       13
176
     1
 44
0.0
176
     1
173
     0
176
     1
1001
ACAD
1000
AcDbSavedByObjectVersion
1070
     0
  0
VISUALSTYLE
  5
A0A
102
{ACAD_XDICTIONARY
360
AA1
102
}
102
{ACAD_REACTORS
330
A08
102
}
330
A08
100
AcDbVisualStyle
  2
FlatWithEdges
 70
     1
177
     2
291
     1
 71
     2
176
     1
 72
     1
176
     1
 73
     1
176
     1
 90
        2
176
     1
 40
0.6
176
     1
 41
30.0
176
     1
 63
     7
421
 16777215
176
     1
 74
     1
176
     1
 91
        0
176
     1
 64
     7
176
     1
 65
   257
176
     1
 75
     1
176
     1
175
     1
176
     1
 42
1.0
176
     1
 92
        0
176
     1
 66
   257
176
     1
 43
1.0
176
     1
 76
     1
176
     1
 77
     6
176
     1
 78
     2
176
     1
 67
     7
176
     1
 79
     5
176
     1
170
     0
176
     1
171
     0
176
     1
290
     0
176
     1
 93
       13
176
     1
 44
0.0
176
     1
173
     0
176
     1
1001
ACAD
1000
AcDbSavedByObjectVersion
1070
     0
  0
VISUALSTYLE
  5
A0B
102
{ACAD_XDICTIONARY
360
AA3
102
}
102
{ACAD_REACTORS
330
A08
102
}
330
A08
100
AcDbVisualStyle
  2
Gouraud
 70
     2
177
     2
291
     1
 71
     2
176
     1
 72
     2
176
     1
 73
     1
176
     1
 90
        2
176
     1
 40
0.6
176
     1
 41
30.0
176
     1
 63
     7
421
 16777215
176
     1
 74
     0
176
     1
 91
        0
176
     1
 64
     7
176
     1
 65
   257
176
     1
 75
     1
176
     1
175
     1
176
     1
 42
1.0
176
     1
 92
        0
176
     1
 66
     7
176
     1
 43
1.0
176
     1
 76
     1
176
     1
 77
     6
176
     1
 78
     2
176
     1
 67
     7
176
     1
 79
     5
176
     1
170
     0
176
     1
171
     0
176
     1
290
     0
176
     1
 93
       13
176
     1
 44
0.0
176
     1
173
     0
176
     1
1001
ACAD
1000
AcDbSavedByObjectVersion
1070
     0
  0
VISUALSTYLE
  5
A0C
102
{ACAD_XDICTIONARY
360
AA5
102
}
102
{ACAD_REACTORS
330
A08
102
}
330
A08
100
AcDbVisualStyle
  2
GouraudWithEdges
 70
     3
177
     2
291
     1
 71
     2
176
     1
 72
     2
176
     1
 73
     1
176
     1
 90
        2
176
     1
 40
0.6
176
     1
 41
30.0
176
     1
 63
     7
421
 16777215
176
     1
 74
     1
176
     1
 91
        0
176
     1
 64
     7
176
     1
 65
   257
176
     1
 75
     1
176
     1
175
     1
176
     1
 42
1.0
176
     1
 92
        0
176
     1
 66
   257
176
     1
 43
1.0
176
     1
 76
     1
176
     1
 77
     6
176
     1
 78
     2
176
     1
 67
     7
176
     1
 79
     5
176
     1
170
     0
176
     1
171
     0
176
     1
290
     0
176
     1
 93
       13
176
     1
 44
0.0
176
     1
173
     0
176
     1
1001
ACAD
1000
AcDbSavedByObjectVersion
1070
     0
  0
VISUALSTYLE
  5
A10
102
{ACAD_XDICTIONARY
360
AAD
102
}
102
{ACAD_REACTORS
330
A08
102
}
330
A08
100
AcDbVisualStyle
  2
Hidden
 70
     6
177
     2
291
     0
 71
     1
176
     1
 72
     2
176
     1
 73
     2
176
     1
 90
        0
176
     1
 40
0.6
176
     1
 41
30.0
176
     1
 63
     7
421
 16777215
176
     1
 74
     2
176
     1
 91
        2
176
     1
 64
     7
176
     1
 65
   257
176
     1
 75
     2
176
     1
175
     1
176
     1
 42
40.0
176
     1
 92
        0
176
     1
 66
   257
176
     1
 43
1.0
176
     1
 76
     1
176
     1
 77
     6
176
     1
 78
     2
176
     1
 67
     7
176
     1
 79
     3
176
     1
170
     0
176
     1
171
     0
176
     1
290
     0
176
     1
 93
        1
176
     1
 44
0.0
176
     1
173
     0
176
     1
1001
ACAD
1000
AcDbSavedByObjectVersion
1070
     0
  0
VISUALSTYLE
  5
A1E
102
{ACAD_XDICTIONARY
360
AC9
102
}
102
{ACAD_REACTORS
330
A08
102
}
330
A08
100
AcDbVisualStyle
  2
JitterOff
 70
    20
177
     2
291
     1
 71
     2
176
     0
 72
     2
176
     0
 73
     0
176
     0
 90
        0
176
     0
 40
0.6
176
     0
 41
30.0
176
     0
 63
     7
421
 16777215
176
     0
 74
     1
176
     0
 91
        4
176
     0
 64
     7
176
     0
 65
   257
176
     0
 75
     1
176
     0
175
     1
176
     0
 42
1.0
176
     0
 92
       10
176
     2
 66
     7
176
     0
 43
1.0
176
     0
 76
     1
176
     0
 77
     6
176
     0
 78
     2
176
     0
 67
     7
176
     0
 79
     5
176
     0
170
     0
176
     0
171
     0
176
     0
290
     0
176
     0
 93
        1
176
     0
 44
0.0
176
     0
173
     0
176
     0
1001
ACAD
1000
AcDbSavedByObjectVersion
1070
     0
  0
VISUALSTYLE
  5
A16
102
{ACAD_XDICTIONARY
360
AB9
102
}
102
{ACAD_REACTORS
330
A08
102
}
330
A08
100
AcDbVisualStyle
  2
Linepattern
 70
    14
177
     2
291
     1
 71
     2
176
     1
 72
     2
176
     1
 73
     0
176
     1
 90
        0
176
     1
 40
0.6
176
     1
 41
30.0
176
     1
 63
     7
421
 16777215
176
     1
 74
     1
176
     1
 91
        4
176
     1
 64
     7
176
     1
 65
   257
176
     1
 75
     7
176
     1
175
     7
176
     1
 42
1.0
176
     1
 92
        8
176
     1
 66
     7
176
     1
 43
1.0
176
     1
 76
     1
176
     1
 77
     6
176
     1
 78
     2
176
     1
 67
     7
176
     1
 79
     5
176
     1
170
     0
176
     1
171
     0
176
     1
290
     0
176
     1
 93
        1
176
     1
 44
0.0
176
     1
173
     0
176
     1
1001
ACAD
1000
AcDbSavedByObjectVersion
1070
     0
  0
VISUALSTYLE
  5
A1F
102
{ACAD_XDICTIONARY
360
ACB
102
}
102
{ACAD_REACTORS
330
A08
102
}
330
A08
100
AcDbVisualStyle
  2
OverhangOff
 70
    21
177
     2
291
     1
 71
     2
176
     0
 72
     2
176
     0
 73
     0
176
     0
 90
        0
176
     0
 40
0.6
176
     0
 41
30.0
176
     0
 63
     7
421
 16777215
176
     0
 74
     1
176
     0
 91
        4
176
     0
 64
     7
176
     0
 65
   257
176
     0
 75
     1
176
     0
175
     1
176
     0
 42
1.0
176
     0
 92
        9
176
     2
 66
     7
176
     0
 43
1.0
176
     0
 76
     1
176
     0
 77
     6
176
     0
 78
     2
176
     0
 67
     7
176
     0
 79
     5
176
     0
170
     0
176
     0
171
     0
176
     0
290
     0
176
     0
 93
        1
176
     0
 44
0.0
176
     0
173
     0
176
     0
1001
ACAD
1000
AcDbSavedByObjectVersion
1070
     0
  0
VISUALSTYLE
  5
A12
102
{ACAD_XDICTIONARY
360
AB1
102
}
102
{ACAD_REACTORS
330
A08
102
}
330
A08
100
AcDbVisualStyle
  2
Realistic
 70
     8
177
     2
291
     0
 71
     2
176
     1
 72
     3
176
     1
 73
     0
176
     1
 90
        2
176
     1
 40
0.6
176
     1
 41
30.0
176
     1
 63
     7
421
 16777215
176
     1
 74
     0
176
     1
 91
        0
176
     1
 64
     7
176
     1
 65
   257
176
     1
 75
     1
176
     1
175
     1
176
     1
 42
1.0
176
     1
 92
        8
176
     1
 66
   257
176
     1
 43
1.0
176
     1
 76
     1
176
     1
 77
     6
176
     1
 78
     2
176
     1
 67
     7
176
     1
 79
     3
176
     1
170
     0
176
     1
171
     0
176
     1
290
     0
176
     1
 93
       13
176
     1
 44
0.0
176
     1
173
     0
176
     1
1001
ACAD
1000
AcDbSavedByObjectVersion
1070
     0
  0
VISUALSTYLE
  5
A1D
102
{ACAD_XDICTIONARY
360
AC7
102
}
102
{ACAD_REACTORS
330
A08
102
}
330
A08
100
AcDbVisualStyle
  2
Shaded
 70
    27
177
     2
291
     0
 71
     2
176
     1
 72
     2
176
     1
 73
     1
176
     1
 90
        2
176
     1
 40
0.6
176
     1
 41
30.0
176
     1
 63
     7
421
 16777215
176
     1
 74
     0
176
     1
 91
        4
176
     1
 64
     7
176
     1
 65
   257
176
     1
 75
     1
176
     1
175
     1
176
     1
 42
1.0
176
     1
 92
        8
176
     1
 66
   257
176
     1
 43
1.0
176
     1
 76
     1
176
     1
 77
     6
176
     1
 78
     2
176
     1
 67
     8
425
  7895160
176
     1
 79
     3
176
     1
170
     0
176
     1
171
     0
176
     1
290
     0
176
     1
 93
        5
176
     1
 44
0.0
176
     1
173
     0
176
     1
1001
ACAD
1000
AcDbSavedByObjectVersion
1070
     0
  0
VISUALSTYLE
  5
A1C
102
{ACAD_XDICTIONARY
360
AC5
102
}
102
{ACAD_REACTORS
330
A08
102
}
330
A08
100
AcDbVisualStyle
  2
Shaded with edges
 70
    26
177
     2
291
     0
 71
     2
176
     1
 72
     2
176
     1
 73
     1
176
     1
 90
        2
176
     1
 40
0.6
176
     1
 41
30.0
176
     1
 63
     7
421
 16777215
176
     1
 74
     1
176
     1
 91
       10
176
     1
 64
     7
176
     1
 65
   257
176
     1
 75
     2
176
     1
175
     1
176
     1
 42
1.0
176
     1
 92
        8
176
     1
 66
   257
176
     1
 43
1.0
176
     1
 76
     1
176
     1
 77
     6
176
     1
 78
     2
176
     1
 67
     7
176
     1
 79
     3
176
     1
170
     0
176
     1
171
     0
176
     1
290
     0
176
     1
 93
        5
176
     1
 44
0.0
176
     1
173
     0
176
     1
1001
ACAD
1000
AcDbSavedByObjectVersion
1070
     0
  0
VISUALSTYLE
  5
A19
102
{ACAD_XDICTIONARY
360
ABF
102
}
102
{ACAD_REACTORS
330
A08
102
}
330
A08
100
AcDbVisualStyle
  2
Shades of Gray
 70
    23
177
     2
291
     0
 71
     2
176
     1
 72
     2
176
     1
 73
     3
176
     1
 90
        0
176
     1
 40
0.6
176
     1
 41
30.0
176
     1
 63
     7
421
 16777215
176
     1
 74
     2
176
     1
 91
        2
176
     1
 64
     7
176
     1
 65
     7
176
     1
 75
     1
176
     1
175
     1
176
     1
 42
40.0
176
     1
 92
        8
176
     1
 66
     7
176
     1
 43
1.0
176
     1
 76
     1
176
     1
 77
     6
176
     1
 78
     2
176
     1
 67
     7
176
     1
 79
     3
176
     1
170
     0
176
     1
171
     0
176
     1
290
     0
176
     1
 93
        1
176
     1
 44
0.0
176
     1
173
     0
176
     1
1001
ACAD
1000
AcDbSavedByObjectVersion
1070
     0
  0
VISUALSTYLE
  5
A1A
102
{ACAD_XDICTIONARY
360
AC1
102
}
102
{ACAD_REACTORS
330
A08
102
}
330
A08
100
AcDbVisualStyle
  2
Sketchy
 70
    24
177
     2
291
     0
 71
     1
176
     1
 72
     2
176
     1
 73
     2
176
     1
 90
        0
176
     1
 40
0.6
176
     1
 41
30.0
176
     1
 63
     7
421
 16777215
176
     1
 74
     2
176
     1
 91
        2
176
     1
 64
     7
176
     1
 65
     7
176
     1
 75
     1
176
     1
175
     1
176
     1
 42
40.0
176
     1
 92
       11
176
     1
 66
     7
176
     1
 43
1.0
176
     1
 76
     1
176
     1
 77
     6
176
     1
 78
     2
176
     1
 67
     7
176
     1
 79
     6
176
     1
170
     0
176
     1
171
     0
176
     1
290
     0
176
     1
 93
        1
176
     1
 44
0.0
176
     1
173
     0
176
     1
1001
ACAD
1000
AcDbSavedByObjectVersion
1070
     0
  0
VISUALSTYLE
  5
A15
102
{ACAD_XDICTIONARY
360
AB7
102
}
102
{ACAD_REACTORS
330
A08
102
}
330
A08
100
AcDbVisualStyle
  2
Thicken
 70
    13
177
     2
291
     1
 71
     2
176
     1
 72
     2
176
     1
 73
     0
176
     1
 90
        0
176
     1
 40
0.6
176
     1
 41
30.0
176
     1
 63
     7
421
 16777215
176
     1
 74
     1
176
     1
 91
        4
176
     1
 64
     7
176
     1
 65
   257
176
     1
 75
     1
176
     1
175
     1
176
     1
 42
1.0
176
     1
 92
       12
176
     1
 66
     7
176
     1
 43
1.0
176
     1
 76
     1
176
     1
 77
     6
176
     1
 78
     2
176
     1
 67
     7
176
     1
 79
     5
176
     1
170
     0
176
     1
171
     0
176
     1
290
     0
176
     1
 93
        1
176
     1
 44
0.0
176
     1
173
     0
176
     1
1001
ACAD
1000
AcDbSavedByObjectVersion
1070
     0
  0
VISUALSTYLE
  5
A0F
102
{ACAD_XDICTIONARY
360
AAB
102
}
102
{ACAD_REACTORS
330
A08
102
}
330
A08
100
AcDbVisualStyle
  2
Wireframe
 70
     5
177
     2
291
     0
 71
     0
176
     1
 72
     2
176
     1
 73
     0
176
     1
 90
        0
176
     1
 40
0.6
176
     1
 41
30.0
176
     1
 63
     7
421
 16777215
176
     1
 74
     1
176
     1
 91
        4
176
     1
 64
     7
176
     1
 65
   257
176
     1
 75
     1
176
     1
175
     1
176
     1
 42
1.0
176
     1
 92
        0
176
     1
 66
   257
176
     1
 43
1.0
176
     1
 76
     1
176
     1
 77
     6
176
     1
 78
     2
176
     1
 67
     7
176
     1
 79
     3
176
     1
170
     0
176
     1
171
     0
176
     1
290
     0
176
     1
 93
        1
176
     1
 44
0.0
176
     1
173
     0
176
     1
1001
ACAD
1000
AcDbSavedByObjectVersion
1070
     0
  0
VISUALSTYLE
  5
A1B
102
{ACAD_XDICTIONARY
360
AC3
102
}
102
{ACAD_REACTORS
330
A08
102
}
330
A08
100
AcDbVisualStyle
  2
X-Ray
 70
    25
177
     2
291
     0
 71
     2
176
     1
 72
     2
176
     1
 73
     1
176
     1
 90
        1
176
     1
 40
0.5
176
     1
 41
30.0
176
     1
 63
     7
421
 16777215
176
     1
 74
     1
176
     1
 91
        0
176
     1
 64
     7
176
     1
 65
   257
176
     1
 75
     1
176
     1
175
     1
176
     1
 42
1.0
176
     1
 92
        8
176
     1
 66
     7
176
     1
 43
1.0
176
     1
 76
     1
176
     1
 77
     6
176
     1
 78
     2
176
     1
 67
     7
176
     1
 79
     3
176
     1
170
     0
176
     1
171
     0
176
     1
290
     0
176
     1
 93
       13
176
     1
 44
0.0
176
     1
173
     0
176
     1
1001
ACAD
1000
AcDbSavedByObjectVersion
1070
     0
  0
DICTIONARYVAR
  5
A98
102
{ACAD_REACTORS
330
2AF
102
}
330
2AF
100
DictionaryVariables
280
     0
  1
1:1
  0
DICTIONARYVAR
  5
A94
102
{ACAD_REACTORS
330
2AF
102
}
330
2AF
100
DictionaryVariables
280
     0
  1
STANDARD
  0
DICTIONARYVAR
  5
2B0
102
{ACAD_REACTORS
330
2AF
102
}
330
2AF
100
DictionaryVariables
280
     0
  1
STANDARD
  0
DICTIONARYVAR
  5
A95
102
{ACAD_REACTORS
330
2AF
102
}
330
2AF
100
DictionaryVariables
280
     0
  1
Metric50
  0
DICTIONARYVAR
  5
A96
102
{ACAD_REACTORS
330
2AF
102
}
330
2AF
100
DictionaryVariables
280
     0
  1
Metric50
  0
DICTIONARYVAR
  5
2B1
102
{ACAD_REACTORS
330
2AF
102
}
330
2AF
100
DictionaryVariables
280
     0
  1
1
  0
DICTIONARYVAR
  5
A9A
102
{ACAD_REACTORS
330
2AF
102
}
330
2AF
100
DictionaryVariables
280
     0
  1
1
  0
DICTIONARYVAR
  5
A9B
102
{ACAD_REACTORS
330
2AF
102
}
330
2AF
100
DictionaryVariables
280
     0
  1
15
  0
DICTIONARYVAR
  5
A99
102
{ACAD_REACTORS
330
2AF
102
}
330
2AF
100
DictionaryVariables
280
     0
  1
0
  0
DICTIONARYVAR
  5
A97
102
{ACAD_REACTORS
330
2AF
102
}
330
2AF
100
DictionaryVariables
280
     0
  1
0
  0
DICTIONARYVAR
  5
2B2
102
{ACAD_REACTORS
330
2AF
102
}
330
2AF
100
DictionaryVariables
280
     0
  1

  0
DICTIONARY
  5
AD1
330
A38
100
AcDbDictionary
280
     1
281
     1
  3
ACAD_XREC_ROUNDTRIP
360
AD2
  0
DICTIONARY
  5
9F9
330
9F8
100
AcDbDictionary
280
     1
281
     1
  3
BUMPTILE
360
9FB
  3
DIFFUSETILE
360
9FA
  3
OPACITYTILE
360
9FE
  3
REFLECTIONTILE
360
9FD
  3
REFRACTIONTILE
360
9FF
  3
SPECULARTILE
360
9FC
  0
DICTIONARY
  5
9F1
330
9F0
100
AcDbDictionary
280
     1
281
     1
  3
BUMPTILE
360
9F3
  3
DIFFUSETILE
360
9F2
  3
OPACITYTILE
360
9F6
  3
REFLECTIONTILE
360
9F5
  3
REFRACTIONTILE
360
9F7
  3
SPECULARTILE
360
9F4
  0
DICTIONARY
  5
A01
330
A00
100
AcDbDictionary
280
     1
281
     1
  3
BUMPTILE
360
A03
  3
DIFFUSETILE
360
A02
  3
OPACITYTILE
360
A06
  3
REFLECTIONTILE
360
A05
  3
REFRACTIONTILE
360
A07
  3
SPECULARTILE
360
A04
  0
DICTIONARY
  5
ACF
330
A36
100
AcDbDictionary
280
     1
281
     1
  3
ACAD_XREC_ROUNDTRIP
360
AD0
  0
DICTIONARY
  5
A9C
330
2A5
100
AcDbDictionary
280
     1
281
     1
  3
ACAD_ROUNDTRIP_2008_TABLESTYLE_CELLSTYLEMAP
360
A9D
  0
DICTIONARY
  5
AA9
330
A0E
100
AcDbDictionary
280
     1
281
     1
  3
ACAD_XREC_ROUNDTRIP
360
AAA
  0
DICTIONARY
  5
AA7
330
A0D
100
AcDbDictionary
280
     1
281
     1
  3
ACAD_XREC_ROUNDTRIP
360
AA8
  0
DICTIONARY
  5
AB5
330
A14
100
AcDbDictionary
280
     1
281
     1
  3
ACAD_XREC_ROUNDTRIP
360
AB6
  0
DICTIONARY
  5
ABD
330
A18
100
AcDbDictionary
280
     1
281
     1
  3
ACAD_XREC_ROUNDTRIP
360
ABE
  0
DICTIONARY
  5
AAF
330
A11
100
AcDbDictionary
280
     1
281
     1
  3
ACAD_XREC_ROUNDTRIP
360
AB0
  0
DICTIONARY
  5
AB3
330
A13
100
AcDbDictionary
280
     1
281
     1
  3
ACAD_XREC_ROUNDTRIP
360
AB4
  0
DICTIONARY
  5
ACD
330
A20
100
AcDbDictionary
280
     1
281
     1
  3
ACAD_XREC_ROUNDTRIP
360
ACE
  0
DICTIONARY
  5
ABB
330
A17
100
AcDbDictionary
280
     1
281
     1
  3
ACAD_XREC_ROUNDTRIP
360
ABC
  0
DICTIONARY
  5
A9F
330
A09
100
AcDbDictionary
280
     1
281
     1
  3
ACAD_XREC_ROUNDTRIP
360
AA0
  0
DICTIONARY
  5
AA1
330
A0A
100
AcDbDictionary
280
     1
281
     1
  3
ACAD_XREC_ROUNDTRIP
360
AA2
  0
DICTIONARY
  5
AA3
330
A0B
100
AcDbDictionary
280
     1
281
     1
  3
ACAD_XREC_ROUNDTRIP
360
AA4
  0
DICTIONARY
  5
AA5
330
A0C
100
AcDbDictionary
280
     1
281
     1
  3
ACAD_XREC_ROUNDTRIP
360
AA6
  0
DICTIONARY
  5
AAD
330
A10
100
AcDbDictionary
280
     1
281
     1
  3
ACAD_XREC_ROUNDTRIP
360
AAE
  0
DICTIONARY
  5
AC9
330
A1E
100
AcDbDictionary
280
     1
281
     1
  3
ACAD_XREC_ROUNDTRIP
360
ACA
  0
DICTIONARY
  5
AB9
330
A16
100
AcDbDictionary
280
     1
281
     1
  3
ACAD_XREC_ROUNDTRIP
360
ABA
  0
DICTIONARY
  5
ACB
330
A1F
100
AcDbDictionary
280
     1
281
     1
  3
ACAD_XREC_ROUNDTRIP
360
ACC
  0
DICTIONARY
  5
AB1
330
A12
100
AcDbDictionary
280
     1
281
     1
  3
ACAD_XREC_ROUNDTRIP
360
AB2
  0
DICTIONARY
  5
AC7
330
A1D
100
AcDbDictionary
280
     1
281
     1
  3
ACAD_XREC_ROUNDTRIP
360
AC8
  0
DICTIONARY
  5
AC5
330
A1C
100
AcDbDictionary
280
     1
281
     1
  3
ACAD_XREC_ROUNDTRIP
360
AC6
  0
DICTIONARY
  5
ABF
330
A19
100
AcDbDictionary
280
     1
281
     1
  3
ACAD_XREC_ROUNDTRIP
360
AC0
  0
DICTIONARY
  5
AC1
330
A1A
100
AcDbDictionary
280
     1
281
     1
  3
ACAD_XREC_ROUNDTRIP
360
AC2
  0
DICTIONARY
  5
AB7
330
A15
100
AcDbDictionary
280
     1
281
     1
  3
ACAD_XREC_ROUNDTRIP
360
AB8
  0
DICTIONARY
  5
AAB
330
A0F
100
AcDbDictionary
280
     1
281
     1
  3
ACAD_XREC_ROUNDTRIP
360
AAC
  0
DICTIONARY
  5
AC3
330
A1B
100
AcDbDictionary
280
     1
281
     1
  3
ACAD_XREC_ROUNDTRIP
360
AC4
  0
XRECORD
  5
AD2
102
{ACAD_REACTORS
330
AD1
102
}
330
AD1
100
AcDbXrecord
280
     1
102
DISPLAYNAME
  1
Metric50
102
FLAGS
 90
        0
  0
XRECORD
  5
9FB
102
{ACAD_REACTORS
330
9F9
102
}
330
9F9
100
AcDbXrecord
280
     1
270
     1
271
     1
  0
XRECORD
  5
9FA
102
{ACAD_REACTORS
330
9F9
102
}
330
9F9
100
AcDbXrecord
280
     1
270
     1
271
     1
  0
XRECORD
  5
9FE
102
{ACAD_REACTORS
330
9F9
102
}
330
9F9
100
AcDbXrecord
280
     1
270
     1
271
     1
  0
XRECORD
  5
9FD
102
{ACAD_REACTORS
330
9F9
102
}
330
9F9
100
AcDbXrecord
280
     1
270
     1
271
     1
  0
XRECORD
  5
9FF
102
{ACAD_REACTORS
330
9F9
102
}
330
9F9
100
AcDbXrecord
280
     1
270
     1
271
     1
  0
XRECORD
  5
9FC
102
{ACAD_REACTORS
330
9F9
102
}
330
9F9
100
AcDbXrecord
280
     1
270
     1
271
     1
  0
XRECORD
  5
9F3
102
{ACAD_REACTORS
330
9F1
102
}
330
9F1
100
AcDbXrecord
280
     1
270
     1
271
     1
  0
XRECORD
  5
9F2
102
{ACAD_REACTORS
330
9F1
102
}
330
9F1
100
AcDbXrecord
280
     1
270
     1
271
     1
  0
XRECORD
  5
9F6
102
{ACAD_REACTORS
330
9F1
102
}
330
9F1
100
AcDbXrecord
280
     1
270
     1
271
     1
  0
XRECORD
  5
9F5
102
{ACAD_REACTORS
330
9F1
102
}
330
9F1
100
AcDbXrecord
280
     1
270
     1
271
     1
  0
XRECORD
  5
9F7
102
{ACAD_REACTORS
330
9F1
102
}
330
9F1
100
AcDbXrecord
280
     1
270
     1
271
     1
  0
XRECORD
  5
9F4
102
{ACAD_REACTORS
330
9F1
102
}
330
9F1
100
AcDbXrecord
280
     1
270
     1
271
     1
  0
XRECORD
  5
A03
102
{ACAD_REACTORS
330
A01
102
}
330
A01
100
AcDbXrecord
280
     1
270
     1
271
     1
  0
XRECORD
  5
A02
102
{ACAD_REACTORS
330
A01
102
}
330
A01
100
AcDbXrecord
280
     1
270
     1
271
     1
  0
XRECORD
  5
A06
102
{ACAD_REACTORS
330
A01
102
}
330
A01
100
AcDbXrecord
280
     1
270
     1
271
     1
  0
XRECORD
  5
A05
102
{ACAD_REACTORS
330
A01
102
}
330
A01
100
AcDbXrecord
280
     1
270
     1
271
     1
  0
XRECORD
  5
A07
102
{ACAD_REACTORS
330
A01
102
}
330
A01
100
AcDbXrecord
280
     1
270
     1
271
     1
  0
XRECORD
  5
A04
102
{ACAD_REACTORS
330
A01
102
}
330
A01
100
AcDbXrecord
280
     1
270
     1
271
     1
  0
XRECORD
  5
AD0
102
{ACAD_REACTORS
330
ACF
102
}
330
ACF
100
AcDbXrecord
280
     1
102
DISPLAYNAME
  1
Metric50
102
FLAGS
 90
        0
  0
CELLSTYLEMAP
  5
A9D
102
{ACAD_REACTORS
330
A9C
102
}
330
A9C
100
AcDbCellStyleMap
 90
        3
300
CELLSTYLE
  1
TABLEFORMAT_BEGIN
 90
        5
170
     1
 91
        0
 92
    32768
 62
   257
 93
        1
300
CONTENTFORMAT
  1
CONTENTFORMAT_BEGIN
 90
        0
 91
        0
 92
        4
 93
        0
300

 40
0.0
140
1.0
 94
        5
 62
     0
340
23
144
6.0
309
CONTENTFORMAT_END
171
     1
301
MARGIN
  1
CELLMARGIN_BEGIN
 40
1.5
 40
1.5
 40
1.5
 40
1.5
 40
0.18
 40
0.18
309
CELLMARGIN_END
 94
        6
 95
        1
302
GRIDFORMAT
  1
GRIDFORMAT_BEGIN
 90
        0
 91
        1
 62
     0
 92
       -2
340
0
 93
        0
 40
0.045
309
GRIDFORMAT_END
 95
        2
302
GRIDFORMAT
  1
GRIDFORMAT_BEGIN
 90
        0
 91
        1
 62
     0
 92
       -2
340
0
 93
        0
 40
0.045
309
GRIDFORMAT_END
 95
        4
302
GRIDFORMAT
  1
GRIDFORMAT_BEGIN
 90
        0
 91
        1
 62
     0
 92
       -2
340
0
 93
        0
 40
0.045
309
GRIDFORMAT_END
 95
        8
302
GRIDFORMAT
  1
GRIDFORMAT_BEGIN
 90
        0
 91
        1
 62
     0
 92
       -2
340
0
 93
        0
 40
0.045
309
GRIDFORMAT_END
 95
       16
302
GRIDFORMAT
  1
GRIDFORMAT_BEGIN
 90
        0
 91
        1
 62
     0
 92
       -2
340
0
 93
        0
 40
0.045
309
GRIDFORMAT_END
 95
       32
302
GRIDFORMAT
  1
GRIDFORMAT_BEGIN
 90
        0
 91
        1
 62
     0
 92
       -2
340
0
 93
        0
 40
0.045
309
GRIDFORMAT_END
309
TABLEFORMAT_END
  1
CELLSTYLE_BEGIN
 90
        1
 91
        1
300
_TITLE
309
CELLSTYLE_END
300
CELLSTYLE
  1
TABLEFORMAT_BEGIN
 90
        5
170
     1
 91
        0
 92
        0
 62
   257
 93
        1
300
CONTENTFORMAT
  1
CONTENTFORMAT_BEGIN
 90
        0
 91
        0
 92
        4
 93
        0
300

 40
0.0
140
1.0
 94
        5
 62
     0
340
23
144
4.5
309
CONTENTFORMAT_END
171
     1
301
MARGIN
  1
CELLMARGIN_BEGIN
 40
1.5
 40
1.5
 40
1.5
 40
1.5
 40
0.18
 40
0.18
309
CELLMARGIN_END
 94
        6
 95
        1
302
GRIDFORMAT
  1
GRIDFORMAT_BEGIN
 90
        0
 91
        1
 62
     0
 92
       -2
340
0
 93
        0
 40
0.045
309
GRIDFORMAT_END
 95
        2
302
GRIDFORMAT
  1
GRIDFORMAT_BEGIN
 90
        0
 91
        1
 62
     0
 92
       -2
340
0
 93
        0
 40
0.045
309
GRIDFORMAT_END
 95
        4
302
GRIDFORMAT
  1
GRIDFORMAT_BEGIN
 90
        0
 91
        1
 62
     0
 92
       -2
340
0
 93
        0
 40
0.045
309
GRIDFORMAT_END
 95
        8
302
GRIDFORMAT
  1
GRIDFORMAT_BEGIN
 90
        0
 91
        1
 62
     0
 92
       -2
340
0
 93
        0
 40
0.045
309
GRIDFORMAT_END
 95
       16
302
GRIDFORMAT
  1
GRIDFORMAT_BEGIN
 90
        0
 91
        1
 62
     0
 92
       -2
340
0
 93
        0
 40
0.045
309
GRIDFORMAT_END
 95
       32
302
GRIDFORMAT
  1
GRIDFORMAT_BEGIN
 90
        0
 91
        1
 62
     0
 92
       -2
340
0
 93
        0
 40
0.045
309
GRIDFORMAT_END
309
TABLEFORMAT_END
  1
CELLSTYLE_BEGIN
 90
        2
 91
        1
300
_HEADER
309
CELLSTYLE_END
300
CELLSTYLE
  1
TABLEFORMAT_BEGIN
 90
        5
170
     1
 91
        0
 92
        0
 62
   257
 93
        1
300
CONTENTFORMAT
  1
CONTENTFORMAT_BEGIN
 90
        0
 91
        0
 92
        4
 93
        0
300

 40
0.0
140
1.0
 94
        2
 62
     0
340
23
144
4.5
309
CONTENTFORMAT_END
171
     1
301
MARGIN
  1
CELLMARGIN_BEGIN
 40
1.5
 40
1.5
 40
1.5
 40
1.5
 40
0.18
 40
0.18
309
CELLMARGIN_END
 94
        6
 95
        1
302
GRIDFORMAT
  1
GRIDFORMAT_BEGIN
 90
        0
 91
        1
 62
     0
 92
       -2
340
0
 93
        0
 40
0.045
309
GRIDFORMAT_END
 95
        2
302
GRIDFORMAT
  1
GRIDFORMAT_BEGIN
 90
        0
 91
        1
 62
     0
 92
       -2
340
0
 93
        0
 40
0.045
309
GRIDFORMAT_END
 95
        4
302
GRIDFORMAT
  1
GRIDFORMAT_BEGIN
 90
        0
 91
        1
 62
     0
 92
       -2
340
0
 93
        0
 40
0.045
309
GRIDFORMAT_END
 95
        8
302
GRIDFORMAT
  1
GRIDFORMAT_BEGIN
 90
        0
 91
        1
 62
     0
 92
       -2
340
0
 93
        0
 40
0.045
309
GRIDFORMAT_END
 95
       16
302
GRIDFORMAT
  1
GRIDFORMAT_BEGIN
 90
        0
 91
        1
 62
     0
 92
       -2
340
0
 93
        0
 40
0.045
309
GRIDFORMAT_END
 95
       32
302
GRIDFORMAT
  1
GRIDFORMAT_BEGIN
 90
        0
 91
        1
 62
     0
 92
       -2
340
0
 93
        0
 40
0.045
309
GRIDFORMAT_END
309
TABLEFORMAT_END
  1
CELLSTYLE_BEGIN
 90
        3
 91
        2
300
_DATA
309
CELLSTYLE_END
  0
XRECORD
  5
AAA
102
{ACAD_REACTORS
330
AA9
102
}
330
AA9
100
AcDbXrecord
280
     1
102
RTVSPost2010Prop28
280
     1
102
RTVSPost2010PropOp28
 70
     1
102
RTVSPost2010Prop29
280
     1
102
RTVSPost2010PropOp29
 70
     1
102
RTVSPost2010Prop30
280
     0
102
RTVSPost2010PropOp30
 70
     1
102
RTVSPost2010Prop31
280
     0
102
RTVSPost2010PropOp31
 70
     1
102
RTVSPost2010Prop32
280
     0
102
RTVSPost2010PropOp32
 70
     1
102
RTVSPost2010Prop33
280
     0
102
RTVSPost2010PropOp33
 70
     1
102
RTVSPost2010Prop34
280
     0
102
RTVSPost2010PropOp34
 70
     1
102
RTVSPost2010Prop35
280
     0
102
RTVSPost2010PropOp35
 70
     1
102
RTVSPost2010Prop36
280
     0
102
RTVSPost2010PropOp36
 70
     1
102
RTVSPost2010Prop37
 90
       50
102
RTVSPost2010PropOp37
 70
     1
102
RTVSPost2010Prop38
140
0.0
102
RTVSPost2010PropOp38
 70
     1
102
RTVSPost2010Prop39
140
1.0
102
RTVSPost2010PropOp39
 70
     1
102
RTVSPost2010Prop40
 90
        0
102
RTVSPost2010PropOp40
 70
     1
102
RTVSPost2010Prop41ColorIndex
 90
       18
102
RTVSPost2010Prop41ColorRGB
 90
        0
102
RTVSPost2010PropOp41
 70
     1
102
RTVSPost2010Prop42
 90
       50
102
RTVSPost2010PropOp42
 70
     1
102
RTVSPost2010Prop43
 90
        3
102
RTVSPost2010PropOp43
 70
     1
102
RTVSPost2010Prop44ColorIndex
 90
        5
102
RTVSPost2010Prop44ColorRGB
 90
      255
102
RTVSPost2010PropOp44
 70
     1
102
RTVSPost2010Prop45
280
     0
102
RTVSPost2010PropOp45
 70
     1
102
RTVSPost2010Prop46
 90
       50
102
RTVSPost2010PropOp46
 70
     1
102
RTVSPost2010Prop47
 90
       50
102
RTVSPost2010PropOp47
 70
     1
102
RTVSPost2010Prop48
 90
       50
102
RTVSPost2010PropOp48
 70
     1
102
RTVSPost2010Prop49
280
     0
102
RTVSPost2010PropOp49
 70
     1
102
RTVSPost2010Prop50
 90
       50
102
RTVSPost2010PropOp50
 70
     1
102
RTVSPost2010Prop51ColorIndex
 90
      256
102
RTVSPost2010Prop51ColorRGB
 90
-16777216
102
RTVSPost2010PropOp51
 70
     0
102
RTVSPost2010Prop52
140
1.0
102
RTVSPost2010PropOp52
 70
     0
102
RTVSPost2010Prop53
 90
        2
102
RTVSPost2010PropOp53
 70
     1
102
RTVSPost2010Prop54
  1
strokes_ogs.tif
102
RTVSPost2010PropOp54
 70
     1
102
RTVSPost2010Prop55
280
     0
102
RTVSPost2010PropOp55
 70
     1
102
RTVSPost2010Prop56
140
1.0
102
RTVSPost2010PropOp56
 70
     1
102
RTVSPost2010Prop57
140
1.0
102
RTVSPost2010PropOp57
 70
     1
  0
XRECORD
  5
AA8
102
{ACAD_REACTORS
330
AA7
102
}
330
AA7
100
AcDbXrecord
280
     1
102
RTVSPost2010Prop28
280
     0
102
RTVSPost2010PropOp28
 70
     1
102
RTVSPost2010Prop29
280
     1
102
RTVSPost2010PropOp29
 70
     1
102
RTVSPost2010Prop30
280
     1
102
RTVSPost2010PropOp30
 70
     1
102
RTVSPost2010Prop31
280
     0
102
RTVSPost2010PropOp31
 70
     1
102
RTVSPost2010Prop32
280
     0
102
RTVSPost2010PropOp32
 70
     1
102
RTVSPost2010Prop33
280
     0
102
RTVSPost2010PropOp33
 70
     1
102
RTVSPost2010Prop34
280
     0
102
RTVSPost2010PropOp34
 70
     1
102
RTVSPost2010Prop35
280
     0
102
RTVSPost2010PropOp35
 70
     1
102
RTVSPost2010Prop36
280
     0
102
RTVSPost2010PropOp36
 70
     1
102
RTVSPost2010Prop37
 90
       50
102
RTVSPost2010PropOp37
 70
     1
102
RTVSPost2010Prop38
140
0.0
102
RTVSPost2010PropOp38
 70
     1
102
RTVSPost2010Prop39
140
1.0
102
RTVSPost2010PropOp39
 70
     1
102
RTVSPost2010Prop40
 90
        0
102
RTVSPost2010PropOp40
 70
     1
102
RTVSPost2010Prop41ColorIndex
 90
       18
102
RTVSPost2010Prop41ColorRGB
 90
        0
102
RTVSPost2010PropOp41
 70
     1
102
RTVSPost2010Prop42
 90
       50
102
RTVSPost2010PropOp42
 70
     1
102
RTVSPost2010Prop43
 90
        3
102
RTVSPost2010PropOp43
 70
     1
102
RTVSPost2010Prop44ColorIndex
 90
        5
102
RTVSPost2010Prop44ColorRGB
 90
      255
102
RTVSPost2010PropOp44
 70
     1
102
RTVSPost2010Prop45
280
     0
102
RTVSPost2010PropOp45
 70
     1
102
RTVSPost2010Prop46
 90
       50
102
RTVSPost2010PropOp46
 70
     1
102
RTVSPost2010Prop47
 90
       50
102
RTVSPost2010PropOp47
 70
     1
102
RTVSPost2010Prop48
 90
       50
102
RTVSPost2010PropOp48
 70
     1
102
RTVSPost2010Prop49
280
     0
102
RTVSPost2010PropOp49
 70
     1
102
RTVSPost2010Prop50
 90
       50
102
RTVSPost2010PropOp50
 70
     1
102
RTVSPost2010Prop51ColorIndex
 90
      256
102
RTVSPost2010Prop51ColorRGB
 90
-16777216
102
RTVSPost2010PropOp51
 70
     0
102
RTVSPost2010Prop52
140
1.0
102
RTVSPost2010PropOp52
 70
     0
102
RTVSPost2010Prop53
 90
        2
102
RTVSPost2010PropOp53
 70
     1
102
RTVSPost2010Prop54
  1
strokes_ogs.tif
102
RTVSPost2010PropOp54
 70
     1
102
RTVSPost2010Prop55
280
     0
102
RTVSPost2010PropOp55
 70
     1
102
RTVSPost2010Prop56
140
1.0
102
RTVSPost2010PropOp56
 70
     1
102
RTVSPost2010Prop57
140
1.0
102
RTVSPost2010PropOp57
 70
     1
  0
XRECORD
  5
AB6
102
{ACAD_REACTORS
330
AB5
102
}
330
AB5
100
AcDbXrecord
280
     1
102
RTVSPost2010Prop28
280
     0
102
RTVSPost2010PropOp28
 70
     1
102
RTVSPost2010Prop29
280
     1
102
RTVSPost2010PropOp29
 70
     1
102
RTVSPost2010Prop30
280
     1
102
RTVSPost2010PropOp30
 70
     1
102
RTVSPost2010Prop31
280
     0
102
RTVSPost2010PropOp31
 70
     1
102
RTVSPost2010Prop32
280
     0
102
RTVSPost2010PropOp32
 70
     1
102
RTVSPost2010Prop33
280
     0
102
RTVSPost2010PropOp33
 70
     1
102
RTVSPost2010Prop34
280
     0
102
RTVSPost2010PropOp34
 70
     1
102
RTVSPost2010Prop35
280
     0
102
RTVSPost2010PropOp35
 70
     1
102
RTVSPost2010Prop36
280
     0
102
RTVSPost2010PropOp36
 70
     1
102
RTVSPost2010Prop37
 90
       50
102
RTVSPost2010PropOp37
 70
     1
102
RTVSPost2010Prop38
140
0.0
102
RTVSPost2010PropOp38
 70
     1
102
RTVSPost2010Prop39
140
1.0
102
RTVSPost2010PropOp39
 70
     1
102
RTVSPost2010Prop40
 90
        0
102
RTVSPost2010PropOp40
 70
     1
102
RTVSPost2010Prop41ColorIndex
 90
       18
102
RTVSPost2010Prop41ColorRGB
 90
        0
102
RTVSPost2010PropOp41
 70
     1
102
RTVSPost2010Prop42
 90
       50
102
RTVSPost2010PropOp42
 70
     1
102
RTVSPost2010Prop43
 90
        3
102
RTVSPost2010PropOp43
 70
     1
102
RTVSPost2010Prop44ColorIndex
 90
        5
102
RTVSPost2010Prop44ColorRGB
 90
      255
102
RTVSPost2010PropOp44
 70
     1
102
RTVSPost2010Prop45
280
     0
102
RTVSPost2010PropOp45
 70
     1
102
RTVSPost2010Prop46
 90
       50
102
RTVSPost2010PropOp46
 70
     1
102
RTVSPost2010Prop47
 90
       50
102
RTVSPost2010PropOp47
 70
     1
102
RTVSPost2010Prop48
 90
       50
102
RTVSPost2010PropOp48
 70
     1
102
RTVSPost2010Prop49
280
     0
102
RTVSPost2010PropOp49
 70
     1
102
RTVSPost2010Prop50
 90
       50
102
RTVSPost2010PropOp50
 70
     1
102
RTVSPost2010Prop51ColorIndex
 90
      256
102
RTVSPost2010Prop51ColorRGB
 90
-16777216
102
RTVSPost2010PropOp51
 70
     0
102
RTVSPost2010Prop52
140
1.0
102
RTVSPost2010PropOp52
 70
     0
102
RTVSPost2010Prop53
 90
        2
102
RTVSPost2010PropOp53
 70
     1
102
RTVSPost2010Prop54
  1
strokes_ogs.tif
102
RTVSPost2010PropOp54
 70
     1
102
RTVSPost2010Prop55
280
     0
102
RTVSPost2010PropOp55
 70
     1
102
RTVSPost2010Prop56
140
1.0
102
RTVSPost2010PropOp56
 70
     1
102
RTVSPost2010Prop57
140
1.0
102
RTVSPost2010PropOp57
 70
     1
  0
XRECORD
  5
ABE
102
{ACAD_REACTORS
330
ABD
102
}
330
ABD
100
AcDbXrecord
280
     1
102
RTVSPost2010Prop28
280
     0
102
RTVSPost2010PropOp28
 70
     1
102
RTVSPost2010Prop29
280
     1
102
RTVSPost2010PropOp29
 70
     1
102
RTVSPost2010Prop30
280
     1
102
RTVSPost2010PropOp30
 70
     1
102
RTVSPost2010Prop31
280
     0
102
RTVSPost2010PropOp31
 70
     1
102
RTVSPost2010Prop32
280
     0
102
RTVSPost2010PropOp32
 70
     1
102
RTVSPost2010Prop33
280
     0
102
RTVSPost2010PropOp33
 70
     1
102
RTVSPost2010Prop34
280
     0
102
RTVSPost2010PropOp34
 70
     1
102
RTVSPost2010Prop35
280
     0
102
RTVSPost2010PropOp35
 70
     1
102
RTVSPost2010Prop36
280
     0
102
RTVSPost2010PropOp36
 70
     1
102
RTVSPost2010Prop37
 90
       50
102
RTVSPost2010PropOp37
 70
     1
102
RTVSPost2010Prop38
140
0.0
102
RTVSPost2010PropOp38
 70
     1
102
RTVSPost2010Prop39
140
1.0
102
RTVSPost2010PropOp39
 70
     1
102
RTVSPost2010Prop40
 90
        0
102
RTVSPost2010PropOp40
 70
     1
102
RTVSPost2010Prop41ColorIndex
 90
       18
102
RTVSPost2010Prop41ColorRGB
 90
        0
102
RTVSPost2010PropOp41
 70
     1
102
RTVSPost2010Prop42
 90
       50
102
RTVSPost2010PropOp42
 70
     1
102
RTVSPost2010Prop43
 90
        3
102
RTVSPost2010PropOp43
 70
     1
102
RTVSPost2010Prop44ColorIndex
 90
        5
102
RTVSPost2010Prop44ColorRGB
 90
      255
102
RTVSPost2010PropOp44
 70
     1
102
RTVSPost2010Prop45
280
     0
102
RTVSPost2010PropOp45
 70
     1
102
RTVSPost2010Prop46
 90
       50
102
RTVSPost2010PropOp46
 70
     1
102
RTVSPost2010Prop47
 90
       50
102
RTVSPost2010PropOp47
 70
     1
102
RTVSPost2010Prop48
 90
       50
102
RTVSPost2010PropOp48
 70
     1
102
RTVSPost2010Prop49
280
     0
102
RTVSPost2010PropOp49
 70
     1
102
RTVSPost2010Prop50
 90
       50
102
RTVSPost2010PropOp50
 70
     1
102
RTVSPost2010Prop51ColorIndex
 90
      256
102
RTVSPost2010Prop51ColorRGB
 90
-16777216
102
RTVSPost2010PropOp51
 70
     0
102
RTVSPost2010Prop52
140
1.0
102
RTVSPost2010PropOp52
 70
     0
102
RTVSPost2010Prop53
 90
        2
102
RTVSPost2010PropOp53
 70
     1
102
RTVSPost2010Prop54
  1
strokes_ogs.tif
102
RTVSPost2010PropOp54
 70
     1
102
RTVSPost2010Prop55
280
     0
102
RTVSPost2010PropOp55
 70
     1
102
RTVSPost2010Prop56
140
1.0
102
RTVSPost2010PropOp56
 70
     1
102
RTVSPost2010Prop57
140
1.0
102
RTVSPost2010PropOp57
 70
     1
  0
XRECORD
  5
AB0
102
{ACAD_REACTORS
330
AAF
102
}
330
AAF
100
AcDbXrecord
280
     1
102
RTVSPost2010Prop28
280
     0
102
RTVSPost2010PropOp28
 70
     1
102
RTVSPost2010Prop29
280
     1
102
RTVSPost2010PropOp29
 70
     1
102
RTVSPost2010Prop30
280
     1
102
RTVSPost2010PropOp30
 70
     1
102
RTVSPost2010Prop31
280
     0
102
RTVSPost2010PropOp31
 70
     1
102
RTVSPost2010Prop32
280
     0
102
RTVSPost2010PropOp32
 70
     1
102
RTVSPost2010Prop33
280
     0
102
RTVSPost2010PropOp33
 70
     1
102
RTVSPost2010Prop34
280
     0
102
RTVSPost2010PropOp34
 70
     1
102
RTVSPost2010Prop35
280
     0
102
RTVSPost2010PropOp35
 70
     1
102
RTVSPost2010Prop36
280
     0
102
RTVSPost2010PropOp36
 70
     1
102
RTVSPost2010Prop37
 90
       50
102
RTVSPost2010PropOp37
 70
     1
102
RTVSPost2010Prop38
140
0.0
102
RTVSPost2010PropOp38
 70
     1
102
RTVSPost2010Prop39
140
1.0
102
RTVSPost2010PropOp39
 70
     1
102
RTVSPost2010Prop40
 90
        0
102
RTVSPost2010PropOp40
 70
     1
102
RTVSPost2010Prop41ColorIndex
 90
       18
102
RTVSPost2010Prop41ColorRGB
 90
        0
102
RTVSPost2010PropOp41
 70
     1
102
RTVSPost2010Prop42
 90
       50
102
RTVSPost2010PropOp42
 70
     1
102
RTVSPost2010Prop43
 90
        3
102
RTVSPost2010PropOp43
 70
     1
102
RTVSPost2010Prop44ColorIndex
 90
        5
102
RTVSPost2010Prop44ColorRGB
 90
      255
102
RTVSPost2010PropOp44
 70
     1
102
RTVSPost2010Prop45
280
     0
102
RTVSPost2010PropOp45
 70
     1
102
RTVSPost2010Prop46
 90
       50
102
RTVSPost2010PropOp46
 70
     1
102
RTVSPost2010Prop47
 90
       50
102
RTVSPost2010PropOp47
 70
     1
102
RTVSPost2010Prop48
 90
       50
102
RTVSPost2010PropOp48
 70
     1
102
RTVSPost2010Prop49
280
     0
102
RTVSPost2010PropOp49
 70
     1
102
RTVSPost2010Prop50
 90
       50
102
RTVSPost2010PropOp50
 70
     1
102
RTVSPost2010Prop51ColorIndex
 90
      256
102
RTVSPost2010Prop51ColorRGB
 90
-16777216
102
RTVSPost2010PropOp51
 70
     0
102
RTVSPost2010Prop52
140
1.0
102
RTVSPost2010PropOp52
 70
     0
102
RTVSPost2010Prop53
 90
        2
102
RTVSPost2010PropOp53
 70
     1
102
RTVSPost2010Prop54
  1
strokes_ogs.tif
102
RTVSPost2010PropOp54
 70
     1
102
RTVSPost2010Prop55
280
     0
102
RTVSPost2010PropOp55
 70
     1
102
RTVSPost2010Prop56
140
1.0
102
RTVSPost2010PropOp56
 70
     1
102
RTVSPost2010Prop57
140
1.0
102
RTVSPost2010PropOp57
 70
     1
  0
XRECORD
  5
AB4
102
{ACAD_REACTORS
330
AB3
102
}
330
AB3
100
AcDbXrecord
280
     1
102
RTVSPost2010Prop28
280
     0
102
RTVSPost2010PropOp28
 70
     1
102
RTVSPost2010Prop29
280
     1
102
RTVSPost2010PropOp29
 70
     1
102
RTVSPost2010Prop30
280
     1
102
RTVSPost2010PropOp30
 70
     1
102
RTVSPost2010Prop31
280
     0
102
RTVSPost2010PropOp31
 70
     1
102
RTVSPost2010Prop32
280
     0
102
RTVSPost2010PropOp32
 70
     1
102
RTVSPost2010Prop33
280
     0
102
RTVSPost2010PropOp33
 70
     1
102
RTVSPost2010Prop34
280
     0
102
RTVSPost2010PropOp34
 70
     1
102
RTVSPost2010Prop35
280
     0
102
RTVSPost2010PropOp35
 70
     1
102
RTVSPost2010Prop36
280
     0
102
RTVSPost2010PropOp36
 70
     1
102
RTVSPost2010Prop37
 90
       50
102
RTVSPost2010PropOp37
 70
     1
102
RTVSPost2010Prop38
140
0.0
102
RTVSPost2010PropOp38
 70
     1
102
RTVSPost2010Prop39
140
1.0
102
RTVSPost2010PropOp39
 70
     1
102
RTVSPost2010Prop40
 90
        0
102
RTVSPost2010PropOp40
 70
     1
102
RTVSPost2010Prop41ColorIndex
 90
       18
102
RTVSPost2010Prop41ColorRGB
 90
        0
102
RTVSPost2010PropOp41
 70
     1
102
RTVSPost2010Prop42
 90
       50
102
RTVSPost2010PropOp42
 70
     1
102
RTVSPost2010Prop43
 90
        3
102
RTVSPost2010PropOp43
 70
     1
102
RTVSPost2010Prop44ColorIndex
 90
        5
102
RTVSPost2010Prop44ColorRGB
 90
      255
102
RTVSPost2010PropOp44
 70
     1
102
RTVSPost2010Prop45
280
     0
102
RTVSPost2010PropOp45
 70
     1
102
RTVSPost2010Prop46
 90
       50
102
RTVSPost2010PropOp46
 70
     1
102
RTVSPost2010Prop47
 90
       50
102
RTVSPost2010PropOp47
 70
     1
102
RTVSPost2010Prop48
 90
       50
102
RTVSPost2010PropOp48
 70
     1
102
RTVSPost2010Prop49
280
     0
102
RTVSPost2010PropOp49
 70
     1
102
RTVSPost2010Prop50
 90
       50
102
RTVSPost2010PropOp50
 70
     1
102
RTVSPost2010Prop51ColorIndex
 90
      256
102
RTVSPost2010Prop51ColorRGB
 90
-16777216
102
RTVSPost2010PropOp51
 70
     0
102
RTVSPost2010Prop52
140
1.0
102
RTVSPost2010PropOp52
 70
     0
102
RTVSPost2010Prop53
 90
        2
102
RTVSPost2010PropOp53
 70
     1
102
RTVSPost2010Prop54
  1
strokes_ogs.tif
102
RTVSPost2010PropOp54
 70
     1
102
RTVSPost2010Prop55
280
     0
102
RTVSPost2010PropOp55
 70
     1
102
RTVSPost2010Prop56
140
1.0
102
RTVSPost2010PropOp56
 70
     1
102
RTVSPost2010Prop57
140
1.0
102
RTVSPost2010PropOp57
 70
     1
  0
XRECORD
  5
ACE
102
{ACAD_REACTORS
330
ACD
102
}
330
ACD
100
AcDbXrecord
280
     1
102
RTVSPost2010Prop28
280
     0
102
RTVSPost2010PropOp28
 70
     1
102
RTVSPost2010Prop29
280
     1
102
RTVSPost2010PropOp29
 70
     1
102
RTVSPost2010Prop30
280
     1
102
RTVSPost2010PropOp30
 70
     1
102
RTVSPost2010Prop31
280
     0
102
RTVSPost2010PropOp31
 70
     1
102
RTVSPost2010Prop32
280
     0
102
RTVSPost2010PropOp32
 70
     1
102
RTVSPost2010Prop33
280
     0
102
RTVSPost2010PropOp33
 70
     1
102
RTVSPost2010Prop34
280
     0
102
RTVSPost2010PropOp34
 70
     1
102
RTVSPost2010Prop35
280
     0
102
RTVSPost2010PropOp35
 70
     1
102
RTVSPost2010Prop36
280
     0
102
RTVSPost2010PropOp36
 70
     1
102
RTVSPost2010Prop37
 90
       50
102
RTVSPost2010PropOp37
 70
     0
102
RTVSPost2010Prop38
140
0.0
102
RTVSPost2010PropOp38
 70
     0
102
RTVSPost2010Prop39
140
1.0
102
RTVSPost2010PropOp39
 70
     0
102
RTVSPost2010Prop40
 90
        0
102
RTVSPost2010PropOp40
 70
     0
102
RTVSPost2010Prop41ColorIndex
 90
       18
102
RTVSPost2010Prop41ColorRGB
 90
        0
102
RTVSPost2010PropOp41
 70
     0
102
RTVSPost2010Prop42
 90
       50
102
RTVSPost2010PropOp42
 70
     0
102
RTVSPost2010Prop43
 90
        3
102
RTVSPost2010PropOp43
 70
     0
102
RTVSPost2010Prop44ColorIndex
 90
        5
102
RTVSPost2010Prop44ColorRGB
 90
      255
102
RTVSPost2010PropOp44
 70
     0
102
RTVSPost2010Prop45
280
     0
102
RTVSPost2010PropOp45
 70
     1
102
RTVSPost2010Prop46
 90
       50
102
RTVSPost2010PropOp46
 70
     0
102
RTVSPost2010Prop47
 90
       50
102
RTVSPost2010PropOp47
 70
     0
102
RTVSPost2010Prop48
 90
       50
102
RTVSPost2010PropOp48
 70
     0
102
RTVSPost2010Prop49
280
     0
102
RTVSPost2010PropOp49
 70
     1
102
RTVSPost2010Prop50
 90
       50
102
RTVSPost2010PropOp50
 70
     0
102
RTVSPost2010Prop51ColorIndex
 90
      256
102
RTVSPost2010Prop51ColorRGB
 90
-16777216
102
RTVSPost2010PropOp51
 70
     0
102
RTVSPost2010Prop52
140
1.0
102
RTVSPost2010PropOp52
 70
     0
102
RTVSPost2010Prop53
 90
        2
102
RTVSPost2010PropOp53
 70
     0
102
RTVSPost2010Prop54
  1
strokes_ogs.tif
102
RTVSPost2010PropOp54
 70
     0
102
RTVSPost2010Prop55
280
     0
102
RTVSPost2010PropOp55
 70
     1
102
RTVSPost2010Prop56
140
1.0
102
RTVSPost2010PropOp56
 70
     0
102
RTVSPost2010Prop57
140
1.0
102
RTVSPost2010PropOp57
 70
     0
  0
XRECORD
  5
ABC
102
{ACAD_REACTORS
330
ABB
102
}
330
ABB
100
AcDbXrecord
280
     1
102
RTVSPost2010Prop28
280
     0
102
RTVSPost2010PropOp28
 70
     1
102
RTVSPost2010Prop29
280
     1
102
RTVSPost2010PropOp29
 70
     1
102
RTVSPost2010Prop30
280
     1
102
RTVSPost2010PropOp30
 70
     1
102
RTVSPost2010Prop31
280
     0
102
RTVSPost2010PropOp31
 70
     1
102
RTVSPost2010Prop32
280
     0
102
RTVSPost2010PropOp32
 70
     1
102
RTVSPost2010Prop33
280
     0
102
RTVSPost2010PropOp33
 70
     1
102
RTVSPost2010Prop34
280
     0
102
RTVSPost2010PropOp34
 70
     1
102
RTVSPost2010Prop35
280
     0
102
RTVSPost2010PropOp35
 70
     1
102
RTVSPost2010Prop36
280
     0
102
RTVSPost2010PropOp36
 70
     1
102
RTVSPost2010Prop37
 90
       50
102
RTVSPost2010PropOp37
 70
     1
102
RTVSPost2010Prop38
140
0.0
102
RTVSPost2010PropOp38
 70
     1
102
RTVSPost2010Prop39
140
1.0
102
RTVSPost2010PropOp39
 70
     1
102
RTVSPost2010Prop40
 90
        0
102
RTVSPost2010PropOp40
 70
     1
102
RTVSPost2010Prop41ColorIndex
 90
       18
102
RTVSPost2010Prop41ColorRGB
 90
        0
102
RTVSPost2010PropOp41
 70
     1
102
RTVSPost2010Prop42
 90
       50
102
RTVSPost2010PropOp42
 70
     1
102
RTVSPost2010Prop43
 90
        3
102
RTVSPost2010PropOp43
 70
     1
102
RTVSPost2010Prop44ColorIndex
 90
        5
102
RTVSPost2010Prop44ColorRGB
 90
      255
102
RTVSPost2010PropOp44
 70
     1
102
RTVSPost2010Prop45
280
     0
102
RTVSPost2010PropOp45
 70
     1
102
RTVSPost2010Prop46
 90
       50
102
RTVSPost2010PropOp46
 70
     1
102
RTVSPost2010Prop47
 90
       50
102
RTVSPost2010PropOp47
 70
     1
102
RTVSPost2010Prop48
 90
       50
102
RTVSPost2010PropOp48
 70
     1
102
RTVSPost2010Prop49
280
     0
102
RTVSPost2010PropOp49
 70
     1
102
RTVSPost2010Prop50
 90
       50
102
RTVSPost2010PropOp50
 70
     1
102
RTVSPost2010Prop51ColorIndex
 90
      256
102
RTVSPost2010Prop51ColorRGB
 90
-16777216
102
RTVSPost2010PropOp51
 70
     0
102
RTVSPost2010Prop52
140
1.0
102
RTVSPost2010PropOp52
 70
     0
102
RTVSPost2010Prop53
 90
        2
102
RTVSPost2010PropOp53
 70
     1
102
RTVSPost2010Prop54
  1
strokes_ogs.tif
102
RTVSPost2010PropOp54
 70
     1
102
RTVSPost2010Prop55
280
     0
102
RTVSPost2010PropOp55
 70
     1
102
RTVSPost2010Prop56
140
1.0
102
RTVSPost2010PropOp56
 70
     1
102
RTVSPost2010Prop57
140
1.0
102
RTVSPost2010PropOp57
 70
     1
  0
XRECORD
  5
AA0
102
{ACAD_REACTORS
330
A9F
102
}
330
A9F
100
AcDbXrecord
280
     1
102
RTVSPost2010Prop28
280
     0
102
RTVSPost2010PropOp28
 70
     1
102
RTVSPost2010Prop29
280
     1
102
RTVSPost2010PropOp29
 70
     1
102
RTVSPost2010Prop30
280
     1
102
RTVSPost2010PropOp30
 70
     1
102
RTVSPost2010Prop31
280
     0
102
RTVSPost2010PropOp31
 70
     1
102
RTVSPost2010Prop32
280
     0
102
RTVSPost2010PropOp32
 70
     1
102
RTVSPost2010Prop33
280
     0
102
RTVSPost2010PropOp33
 70
     1
102
RTVSPost2010Prop34
280
     0
102
RTVSPost2010PropOp34
 70
     1
102
RTVSPost2010Prop35
280
     0
102
RTVSPost2010PropOp35
 70
     1
102
RTVSPost2010Prop36
280
     0
102
RTVSPost2010PropOp36
 70
     1
102
RTVSPost2010Prop37
 90
       50
102
RTVSPost2010PropOp37
 70
     1
102
RTVSPost2010Prop38
140
0.0
102
RTVSPost2010PropOp38
 70
     1
102
RTVSPost2010Prop39
140
1.0
102
RTVSPost2010PropOp39
 70
     1
102
RTVSPost2010Prop40
 90
        0
102
RTVSPost2010PropOp40
 70
     1
102
RTVSPost2010Prop41ColorIndex
 90
       18
102
RTVSPost2010Prop41ColorRGB
 90
        0
102
RTVSPost2010PropOp41
 70
     1
102
RTVSPost2010Prop42
 90
       50
102
RTVSPost2010PropOp42
 70
     1
102
RTVSPost2010Prop43
 90
        3
102
RTVSPost2010PropOp43
 70
     1
102
RTVSPost2010Prop44ColorIndex
 90
        5
102
RTVSPost2010Prop44ColorRGB
 90
      255
102
RTVSPost2010PropOp44
 70
     1
102
RTVSPost2010Prop45
280
     0
102
RTVSPost2010PropOp45
 70
     1
102
RTVSPost2010Prop46
 90
       50
102
RTVSPost2010PropOp46
 70
     1
102
RTVSPost2010Prop47
 90
       50
102
RTVSPost2010PropOp47
 70
     1
102
RTVSPost2010Prop48
 90
       50
102
RTVSPost2010PropOp48
 70
     1
102
RTVSPost2010Prop49
280
     0
102
RTVSPost2010PropOp49
 70
     1
102
RTVSPost2010Prop50
 90
       50
102
RTVSPost2010PropOp50
 70
     1
102
RTVSPost2010Prop51ColorIndex
 90
      256
102
RTVSPost2010Prop51ColorRGB
 90
-16777216
102
RTVSPost2010PropOp51
 70
     0
102
RTVSPost2010Prop52
140
1.0
102
RTVSPost2010PropOp52
 70
     0
102
RTVSPost2010Prop53
 90
        2
102
RTVSPost2010PropOp53
 70
     1
102
RTVSPost2010Prop54
  1
strokes_ogs.tif
102
RTVSPost2010PropOp54
 70
     1
102
RTVSPost2010Prop55
280
     0
102
RTVSPost2010PropOp55
 70
     1
102
RTVSPost2010Prop56
140
1.0
102
RTVSPost2010PropOp56
 70
     1
102
RTVSPost2010Prop57
140
1.0
102
RTVSPost2010PropOp57
 70
     1
  0
XRECORD
  5
AA2
102
{ACAD_REACTORS
330
AA1
102
}
330
AA1
100
AcDbXrecord
280
     1
102
RTVSPost2010Prop28
280
     0
102
RTVSPost2010PropOp28
 70
     1
102
RTVSPost2010Prop29
280
     1
102
RTVSPost2010PropOp29
 70
     1
102
RTVSPost2010Prop30
280
     1
102
RTVSPost2010PropOp30
 70
     1
102
RTVSPost2010Prop31
280
     0
102
RTVSPost2010PropOp31
 70
     1
102
RTVSPost2010Prop32
280
     0
102
RTVSPost2010PropOp32
 70
     1
102
RTVSPost2010Prop33
280
     0
102
RTVSPost2010PropOp33
 70
     1
102
RTVSPost2010Prop34
280
     0
102
RTVSPost2010PropOp34
 70
     1
102
RTVSPost2010Prop35
280
     0
102
RTVSPost2010PropOp35
 70
     1
102
RTVSPost2010Prop36
280
     0
102
RTVSPost2010PropOp36
 70
     1
102
RTVSPost2010Prop37
 90
       50
102
RTVSPost2010PropOp37
 70
     1
102
RTVSPost2010Prop38
140
0.0
102
RTVSPost2010PropOp38
 70
     1
102
RTVSPost2010Prop39
140
1.0
102
RTVSPost2010PropOp39
 70
     1
102
RTVSPost2010Prop40
 90
        0
102
RTVSPost2010PropOp40
 70
     1
102
RTVSPost2010Prop41ColorIndex
 90
       18
102
RTVSPost2010Prop41ColorRGB
 90
        0
102
RTVSPost2010PropOp41
 70
     1
102
RTVSPost2010Prop42
 90
       50
102
RTVSPost2010PropOp42
 70
     1
102
RTVSPost2010Prop43
 90
        3
102
RTVSPost2010PropOp43
 70
     1
102
RTVSPost2010Prop44ColorIndex
 90
        5
102
RTVSPost2010Prop44ColorRGB
 90
      255
102
RTVSPost2010PropOp44
 70
     1
102
RTVSPost2010Prop45
280
     0
102
RTVSPost2010PropOp45
 70
     1
102
RTVSPost2010Prop46
 90
       50
102
RTVSPost2010PropOp46
 70
     1
102
RTVSPost2010Prop47
 90
       50
102
RTVSPost2010PropOp47
 70
     1
102
RTVSPost2010Prop48
 90
       50
102
RTVSPost2010PropOp48
 70
     1
102
RTVSPost2010Prop49
280
     0
102
RTVSPost2010PropOp49
 70
     1
102
RTVSPost2010Prop50
 90
       50
102
RTVSPost2010PropOp50
 70
     1
102
RTVSPost2010Prop51ColorIndex
 90
      256
102
RTVSPost2010Prop51ColorRGB
 90
-16777216
102
RTVSPost2010PropOp51
 70
     0
102
RTVSPost2010Prop52
140
1.0
102
RTVSPost2010PropOp52
 70
     0
102
RTVSPost2010Prop53
 90
        2
102
RTVSPost2010PropOp53
 70
     1
102
RTVSPost2010Prop54
  1
strokes_ogs.tif
102
RTVSPost2010PropOp54
 70
     1
102
RTVSPost2010Prop55
280
     0
102
RTVSPost2010PropOp55
 70
     1
102
RTVSPost2010Prop56
140
1.0
102
RTVSPost2010PropOp56
 70
     1
102
RTVSPost2010Prop57
140
1.0
102
RTVSPost2010PropOp57
 70
     1
  0
XRECORD
  5
AA4
102
{ACAD_REACTORS
330
AA3
102
}
330
AA3
100
AcDbXrecord
280
     1
102
RTVSPost2010Prop28
280
     0
102
RTVSPost2010PropOp28
 70
     1
102
RTVSPost2010Prop29
280
     1
102
RTVSPost2010PropOp29
 70
     1
102
RTVSPost2010Prop30
280
     1
102
RTVSPost2010PropOp30
 70
     1
102
RTVSPost2010Prop31
280
     0
102
RTVSPost2010PropOp31
 70
     1
102
RTVSPost2010Prop32
280
     0
102
RTVSPost2010PropOp32
 70
     1
102
RTVSPost2010Prop33
280
     0
102
RTVSPost2010PropOp33
 70
     1
102
RTVSPost2010Prop34
280
     0
102
RTVSPost2010PropOp34
 70
     1
102
RTVSPost2010Prop35
280
     0
102
RTVSPost2010PropOp35
 70
     1
102
RTVSPost2010Prop36
280
     0
102
RTVSPost2010PropOp36
 70
     1
102
RTVSPost2010Prop37
 90
       50
102
RTVSPost2010PropOp37
 70
     1
102
RTVSPost2010Prop38
140
0.0
102
RTVSPost2010PropOp38
 70
     1
102
RTVSPost2010Prop39
140
1.0
102
RTVSPost2010PropOp39
 70
     1
102
RTVSPost2010Prop40
 90
        0
102
RTVSPost2010PropOp40
 70
     1
102
RTVSPost2010Prop41ColorIndex
 90
       18
102
RTVSPost2010Prop41ColorRGB
 90
        0
102
RTVSPost2010PropOp41
 70
     1
102
RTVSPost2010Prop42
 90
       50
102
RTVSPost2010PropOp42
 70
     1
102
RTVSPost2010Prop43
 90
        3
102
RTVSPost2010PropOp43
 70
     1
102
RTVSPost2010Prop44ColorIndex
 90
        5
102
RTVSPost2010Prop44ColorRGB
 90
      255
102
RTVSPost2010PropOp44
 70
     1
102
RTVSPost2010Prop45
280
     0
102
RTVSPost2010PropOp45
 70
     1
102
RTVSPost2010Prop46
 90
       50
102
RTVSPost2010PropOp46
 70
     1
102
RTVSPost2010Prop47
 90
       50
102
RTVSPost2010PropOp47
 70
     1
102
RTVSPost2010Prop48
 90
       50
102
RTVSPost2010PropOp48
 70
     1
102
RTVSPost2010Prop49
280
     0
102
RTVSPost2010PropOp49
 70
     1
102
RTVSPost2010Prop50
 90
       50
102
RTVSPost2010PropOp50
 70
     1
102
RTVSPost2010Prop51ColorIndex
 90
      256
102
RTVSPost2010Prop51ColorRGB
 90
-16777216
102
RTVSPost2010PropOp51
 70
     0
102
RTVSPost2010Prop52
140
1.0
102
RTVSPost2010PropOp52
 70
     0
102
RTVSPost2010Prop53
 90
        2
102
RTVSPost2010PropOp53
 70
     1
102
RTVSPost2010Prop54
  1
strokes_ogs.tif
102
RTVSPost2010PropOp54
 70
     1
102
RTVSPost2010Prop55
280
     0
102
RTVSPost2010PropOp55
 70
     1
102
RTVSPost2010Prop56
140
1.0
102
RTVSPost2010PropOp56
 70
     1
102
RTVSPost2010Prop57
140
1.0
102
RTVSPost2010PropOp57
 70
     1
  0
XRECORD
  5
AA6
102
{ACAD_REACTORS
330
AA5
102
}
330
AA5
100
AcDbXrecord
280
     1
102
RTVSPost2010Prop28
280
     0
102
RTVSPost2010PropOp28
 70
     1
102
RTVSPost2010Prop29
280
     1
102
RTVSPost2010PropOp29
 70
     1
102
RTVSPost2010Prop30
280
     1
102
RTVSPost2010PropOp30
 70
     1
102
RTVSPost2010Prop31
280
     0
102
RTVSPost2010PropOp31
 70
     1
102
RTVSPost2010Prop32
280
     0
102
RTVSPost2010PropOp32
 70
     1
102
RTVSPost2010Prop33
280
     0
102
RTVSPost2010PropOp33
 70
     1
102
RTVSPost2010Prop34
280
     0
102
RTVSPost2010PropOp34
 70
     1
102
RTVSPost2010Prop35
280
     0
102
RTVSPost2010PropOp35
 70
     1
102
RTVSPost2010Prop36
280
     0
102
RTVSPost2010PropOp36
 70
     1
102
RTVSPost2010Prop37
 90
       50
102
RTVSPost2010PropOp37
 70
     1
102
RTVSPost2010Prop38
140
0.0
102
RTVSPost2010PropOp38
 70
     1
102
RTVSPost2010Prop39
140
1.0
102
RTVSPost2010PropOp39
 70
     1
102
RTVSPost2010Prop40
 90
        0
102
RTVSPost2010PropOp40
 70
     1
102
RTVSPost2010Prop41ColorIndex
 90
       18
102
RTVSPost2010Prop41ColorRGB
 90
        0
102
RTVSPost2010PropOp41
 70
     1
102
RTVSPost2010Prop42
 90
       50
102
RTVSPost2010PropOp42
 70
     1
102
RTVSPost2010Prop43
 90
        3
102
RTVSPost2010PropOp43
 70
     1
102
RTVSPost2010Prop44ColorIndex
 90
        5
102
RTVSPost2010Prop44ColorRGB
 90
      255
102
RTVSPost2010PropOp44
 70
     1
102
RTVSPost2010Prop45
280
     0
102
RTVSPost2010PropOp45
 70
     1
102
RTVSPost2010Prop46
 90
       50
102
RTVSPost2010PropOp46
 70
     1
102
RTVSPost2010Prop47
 90
       50
102
RTVSPost2010PropOp47
 70
     1
102
RTVSPost2010Prop48
 90
       50
102
RTVSPost2010PropOp48
 70
     1
102
RTVSPost2010Prop49
280
     0
102
RTVSPost2010PropOp49
 70
     1
102
RTVSPost2010Prop50
 90
       50
102
RTVSPost2010PropOp50
 70
     1
102
RTVSPost2010Prop51ColorIndex
 90
      256
102
RTVSPost2010Prop51ColorRGB
 90
-16777216
102
RTVSPost2010PropOp51
 70
     0
102
RTVSPost2010Prop52
140
1.0
102
RTVSPost2010PropOp52
 70
     0
102
RTVSPost2010Prop53
 90
        2
102
RTVSPost2010PropOp53
 70
     1
102
RTVSPost2010Prop54
  1
strokes_ogs.tif
102
RTVSPost2010PropOp54
 70
     1
102
RTVSPost2010Prop55
280
     0
102
RTVSPost2010PropOp55
 70
     1
102
RTVSPost2010Prop56
140
1.0
102
RTVSPost2010PropOp56
 70
     1
102
RTVSPost2010Prop57
140
1.0
102
RTVSPost2010PropOp57
 70
     1
  0
XRECORD
  5
AAE
102
{ACAD_REACTORS
330
AAD
102
}
330
AAD
100
AcDbXrecord
280
     1
102
RTVSPost2010Prop28
280
     0
102
RTVSPost2010PropOp28
 70
     1
102
RTVSPost2010Prop29
280
     1
102
RTVSPost2010PropOp29
 70
     1
102
RTVSPost2010Prop30
280
     1
102
RTVSPost2010PropOp30
 70
     1
102
RTVSPost2010Prop31
280
     0
102
RTVSPost2010PropOp31
 70
     1
102
RTVSPost2010Prop32
280
     0
102
RTVSPost2010PropOp32
 70
     1
102
RTVSPost2010Prop33
280
     0
102
RTVSPost2010PropOp33
 70
     1
102
RTVSPost2010Prop34
280
     0
102
RTVSPost2010PropOp34
 70
     1
102
RTVSPost2010Prop35
280
     0
102
RTVSPost2010PropOp35
 70
     1
102
RTVSPost2010Prop36
280
     0
102
RTVSPost2010PropOp36
 70
     1
102
RTVSPost2010Prop37
 90
       50
102
RTVSPost2010PropOp37
 70
     1
102
RTVSPost2010Prop38
140
0.0
102
RTVSPost2010PropOp38
 70
     1
102
RTVSPost2010Prop39
140
1.0
102
RTVSPost2010PropOp39
 70
     1
102
RTVSPost2010Prop40
 90
        0
102
RTVSPost2010PropOp40
 70
     1
102
RTVSPost2010Prop41ColorIndex
 90
       18
102
RTVSPost2010Prop41ColorRGB
 90
        0
102
RTVSPost2010PropOp41
 70
     1
102
RTVSPost2010Prop42
 90
       50
102
RTVSPost2010PropOp42
 70
     1
102
RTVSPost2010Prop43
 90
        3
102
RTVSPost2010PropOp43
 70
     1
102
RTVSPost2010Prop44ColorIndex
 90
        5
102
RTVSPost2010Prop44ColorRGB
 90
      255
102
RTVSPost2010PropOp44
 70
     1
102
RTVSPost2010Prop45
280
     0
102
RTVSPost2010PropOp45
 70
     1
102
RTVSPost2010Prop46
 90
       50
102
RTVSPost2010PropOp46
 70
     1
102
RTVSPost2010Prop47
 90
       50
102
RTVSPost2010PropOp47
 70
     1
102
RTVSPost2010Prop48
 90
       50
102
RTVSPost2010PropOp48
 70
     1
102
RTVSPost2010Prop49
280
     0
102
RTVSPost2010PropOp49
 70
     1
102
RTVSPost2010Prop50
 90
       50
102
RTVSPost2010PropOp50
 70
     1
102
RTVSPost2010Prop51ColorIndex
 90
      256
102
RTVSPost2010Prop51ColorRGB
 90
-16777216
102
RTVSPost2010PropOp51
 70
     0
102
RTVSPost2010Prop52
140
1.0
102
RTVSPost2010PropOp52
 70
     0
102
RTVSPost2010Prop53
 90
        2
102
RTVSPost2010PropOp53
 70
     1
102
RTVSPost2010Prop54
  1
strokes_ogs.tif
102
RTVSPost2010PropOp54
 70
     1
102
RTVSPost2010Prop55
280
     0
102
RTVSPost2010PropOp55
 70
     1
102
RTVSPost2010Prop56
140
1.0
102
RTVSPost2010PropOp56
 70
     1
102
RTVSPost2010Prop57
140
1.0
102
RTVSPost2010PropOp57
 70
     1
  0
XRECORD
  5
ACA
102
{ACAD_REACTORS
330
AC9
102
}
330
AC9
100
AcDbXrecord
280
     1
102
RTVSPost2010Prop28
280
     0
102
RTVSPost2010PropOp28
 70
     1
102
RTVSPost2010Prop29
280
     1
102
RTVSPost2010PropOp29
 70
     1
102
RTVSPost2010Prop30
280
     1
102
RTVSPost2010PropOp30
 70
     1
102
RTVSPost2010Prop31
280
     0
102
RTVSPost2010PropOp31
 70
     1
102
RTVSPost2010Prop32
280
     0
102
RTVSPost2010PropOp32
 70
     1
102
RTVSPost2010Prop33
280
     0
102
RTVSPost2010PropOp33
 70
     1
102
RTVSPost2010Prop34
280
     0
102
RTVSPost2010PropOp34
 70
     1
102
RTVSPost2010Prop35
280
     0
102
RTVSPost2010PropOp35
 70
     1
102
RTVSPost2010Prop36
280
     0
102
RTVSPost2010PropOp36
 70
     1
102
RTVSPost2010Prop37
 90
       50
102
RTVSPost2010PropOp37
 70
     0
102
RTVSPost2010Prop38
140
0.0
102
RTVSPost2010PropOp38
 70
     0
102
RTVSPost2010Prop39
140
1.0
102
RTVSPost2010PropOp39
 70
     0
102
RTVSPost2010Prop40
 90
        0
102
RTVSPost2010PropOp40
 70
     0
102
RTVSPost2010Prop41ColorIndex
 90
       18
102
RTVSPost2010Prop41ColorRGB
 90
        0
102
RTVSPost2010PropOp41
 70
     0
102
RTVSPost2010Prop42
 90
       50
102
RTVSPost2010PropOp42
 70
     0
102
RTVSPost2010Prop43
 90
        3
102
RTVSPost2010PropOp43
 70
     0
102
RTVSPost2010Prop44ColorIndex
 90
        5
102
RTVSPost2010Prop44ColorRGB
 90
      255
102
RTVSPost2010PropOp44
 70
     0
102
RTVSPost2010Prop45
280
     0
102
RTVSPost2010PropOp45
 70
     1
102
RTVSPost2010Prop46
 90
       50
102
RTVSPost2010PropOp46
 70
     0
102
RTVSPost2010Prop47
 90
       50
102
RTVSPost2010PropOp47
 70
     0
102
RTVSPost2010Prop48
 90
       50
102
RTVSPost2010PropOp48
 70
     0
102
RTVSPost2010Prop49
280
     0
102
RTVSPost2010PropOp49
 70
     1
102
RTVSPost2010Prop50
 90
       50
102
RTVSPost2010PropOp50
 70
     0
102
RTVSPost2010Prop51ColorIndex
 90
      256
102
RTVSPost2010Prop51ColorRGB
 90
-16777216
102
RTVSPost2010PropOp51
 70
     0
102
RTVSPost2010Prop52
140
1.0
102
RTVSPost2010PropOp52
 70
     0
102
RTVSPost2010Prop53
 90
        2
102
RTVSPost2010PropOp53
 70
     0
102
RTVSPost2010Prop54
  1
strokes_ogs.tif
102
RTVSPost2010PropOp54
 70
     0
102
RTVSPost2010Prop55
280
     0
102
RTVSPost2010PropOp55
 70
     1
102
RTVSPost2010Prop56
140
1.0
102
RTVSPost2010PropOp56
 70
     0
102
RTVSPost2010Prop57
140
1.0
102
RTVSPost2010PropOp57
 70
     0
  0
XRECORD
  5
ABA
102
{ACAD_REACTORS
330
AB9
102
}
330
AB9
100
AcDbXrecord
280
     1
102
RTVSPost2010Prop28
280
     0
102
RTVSPost2010PropOp28
 70
     1
102
RTVSPost2010Prop29
280
     1
102
RTVSPost2010PropOp29
 70
     1
102
RTVSPost2010Prop30
280
     1
102
RTVSPost2010PropOp30
 70
     1
102
RTVSPost2010Prop31
280
     0
102
RTVSPost2010PropOp31
 70
     1
102
RTVSPost2010Prop32
280
     0
102
RTVSPost2010PropOp32
 70
     1
102
RTVSPost2010Prop33
280
     0
102
RTVSPost2010PropOp33
 70
     1
102
RTVSPost2010Prop34
280
     0
102
RTVSPost2010PropOp34
 70
     1
102
RTVSPost2010Prop35
280
     0
102
RTVSPost2010PropOp35
 70
     1
102
RTVSPost2010Prop36
280
     0
102
RTVSPost2010PropOp36
 70
     1
102
RTVSPost2010Prop37
 90
       50
102
RTVSPost2010PropOp37
 70
     1
102
RTVSPost2010Prop38
140
0.0
102
RTVSPost2010PropOp38
 70
     1
102
RTVSPost2010Prop39
140
1.0
102
RTVSPost2010PropOp39
 70
     1
102
RTVSPost2010Prop40
 90
        0
102
RTVSPost2010PropOp40
 70
     1
102
RTVSPost2010Prop41ColorIndex
 90
       18
102
RTVSPost2010Prop41ColorRGB
 90
        0
102
RTVSPost2010PropOp41
 70
     1
102
RTVSPost2010Prop42
 90
       50
102
RTVSPost2010PropOp42
 70
     1
102
RTVSPost2010Prop43
 90
        3
102
RTVSPost2010PropOp43
 70
     1
102
RTVSPost2010Prop44ColorIndex
 90
        5
102
RTVSPost2010Prop44ColorRGB
 90
      255
102
RTVSPost2010PropOp44
 70
     1
102
RTVSPost2010Prop45
280
     0
102
RTVSPost2010PropOp45
 70
     1
102
RTVSPost2010Prop46
 90
       50
102
RTVSPost2010PropOp46
 70
     1
102
RTVSPost2010Prop47
 90
       50
102
RTVSPost2010PropOp47
 70
     1
102
RTVSPost2010Prop48
 90
       50
102
RTVSPost2010PropOp48
 70
     1
102
RTVSPost2010Prop49
280
     0
102
RTVSPost2010PropOp49
 70
     1
102
RTVSPost2010Prop50
 90
       50
102
RTVSPost2010PropOp50
 70
     1
102
RTVSPost2010Prop51ColorIndex
 90
      256
102
RTVSPost2010Prop51ColorRGB
 90
-16777216
102
RTVSPost2010PropOp51
 70
     0
102
RTVSPost2010Prop52
140
1.0
102
RTVSPost2010PropOp52
 70
     0
102
RTVSPost2010Prop53
 90
        2
102
RTVSPost2010PropOp53
 70
     1
102
RTVSPost2010Prop54
  1
strokes_ogs.tif
102
RTVSPost2010PropOp54
 70
     1
102
RTVSPost2010Prop55
280
     0
102
RTVSPost2010PropOp55
 70
     1
102
RTVSPost2010Prop56
140
1.0
102
RTVSPost2010PropOp56
 70
     1
102
RTVSPost2010Prop57
140
1.0
102
RTVSPost2010PropOp57
 70
     1
  0
XRECORD
  5
ACC
102
{ACAD_REACTORS
330
ACB
102
}
330
ACB
100
AcDbXrecord
280
     1
102
RTVSPost2010Prop28
280
     0
102
RTVSPost2010PropOp28
 70
     1
102
RTVSPost2010Prop29
280
     1
102
RTVSPost2010PropOp29
 70
     1
102
RTVSPost2010Prop30
280
     1
102
RTVSPost2010PropOp30
 70
     1
102
RTVSPost2010Prop31
280
     0
102
RTVSPost2010PropOp31
 70
     1
102
RTVSPost2010Prop32
280
     0
102
RTVSPost2010PropOp32
 70
     1
102
RTVSPost2010Prop33
280
     0
102
RTVSPost2010PropOp33
 70
     1
102
RTVSPost2010Prop34
280
     0
102
RTVSPost2010PropOp34
 70
     1
102
RTVSPost2010Prop35
280
     0
102
RTVSPost2010PropOp35
 70
     1
102
RTVSPost2010Prop36
280
     0
102
RTVSPost2010PropOp36
 70
     1
102
RTVSPost2010Prop37
 90
       50
102
RTVSPost2010PropOp37
 70
     0
102
RTVSPost2010Prop38
140
0.0
102
RTVSPost2010PropOp38
 70
     0
102
RTVSPost2010Prop39
140
1.0
102
RTVSPost2010PropOp39
 70
     0
102
RTVSPost2010Prop40
 90
        0
102
RTVSPost2010PropOp40
 70
     0
102
RTVSPost2010Prop41ColorIndex
 90
       18
102
RTVSPost2010Prop41ColorRGB
 90
        0
102
RTVSPost2010PropOp41
 70
     0
102
RTVSPost2010Prop42
 90
       50
102
RTVSPost2010PropOp42
 70
     0
102
RTVSPost2010Prop43
 90
        3
102
RTVSPost2010PropOp43
 70
     0
102
RTVSPost2010Prop44ColorIndex
 90
        5
102
RTVSPost2010Prop44ColorRGB
 90
      255
102
RTVSPost2010PropOp44
 70
     0
102
RTVSPost2010Prop45
280
     0
102
RTVSPost2010PropOp45
 70
     1
102
RTVSPost2010Prop46
 90
       50
102
RTVSPost2010PropOp46
 70
     0
102
RTVSPost2010Prop47
 90
       50
102
RTVSPost2010PropOp47
 70
     0
102
RTVSPost2010Prop48
 90
       50
102
RTVSPost2010PropOp48
 70
     0
102
RTVSPost2010Prop49
280
     0
102
RTVSPost2010PropOp49
 70
     1
102
RTVSPost2010Prop50
 90
       50
102
RTVSPost2010PropOp50
 70
     0
102
RTVSPost2010Prop51ColorIndex
 90
      256
102
RTVSPost2010Prop51ColorRGB
 90
-16777216
102
RTVSPost2010PropOp51
 70
     0
102
RTVSPost2010Prop52
140
1.0
102
RTVSPost2010PropOp52
 70
     0
102
RTVSPost2010Prop53
 90
        2
102
RTVSPost2010PropOp53
 70
     0
102
RTVSPost2010Prop54
  1
strokes_ogs.tif
102
RTVSPost2010PropOp54
 70
     0
102
RTVSPost2010Prop55
280
     0
102
RTVSPost2010PropOp55
 70
     1
102
RTVSPost2010Prop56
140
1.0
102
RTVSPost2010PropOp56
 70
     0
102
RTVSPost2010Prop57
140
1.0
102
RTVSPost2010PropOp57
 70
     0
  0
XRECORD
  5
AB2
102
{ACAD_REACTORS
330
AB1
102
}
330
AB1
100
AcDbXrecord
280
     1
102
RTVSPost2010Prop28
280
     0
102
RTVSPost2010PropOp28
 70
     1
102
RTVSPost2010Prop29
280
     1
102
RTVSPost2010PropOp29
 70
     1
102
RTVSPost2010Prop30
280
     1
102
RTVSPost2010PropOp30
 70
     1
102
RTVSPost2010Prop31
280
     0
102
RTVSPost2010PropOp31
 70
     1
102
RTVSPost2010Prop32
280
     0
102
RTVSPost2010PropOp32
 70
     1
102
RTVSPost2010Prop33
280
     0
102
RTVSPost2010PropOp33
 70
     1
102
RTVSPost2010Prop34
280
     0
102
RTVSPost2010PropOp34
 70
     1
102
RTVSPost2010Prop35
280
     0
102
RTVSPost2010PropOp35
 70
     1
102
RTVSPost2010Prop36
280
     0
102
RTVSPost2010PropOp36
 70
     1
102
RTVSPost2010Prop37
 90
       50
102
RTVSPost2010PropOp37
 70
     1
102
RTVSPost2010Prop38
140
0.0
102
RTVSPost2010PropOp38
 70
     1
102
RTVSPost2010Prop39
140
1.0
102
RTVSPost2010PropOp39
 70
     1
102
RTVSPost2010Prop40
 90
        0
102
RTVSPost2010PropOp40
 70
     1
102
RTVSPost2010Prop41ColorIndex
 90
       18
102
RTVSPost2010Prop41ColorRGB
 90
        0
102
RTVSPost2010PropOp41
 70
     1
102
RTVSPost2010Prop42
 90
       50
102
RTVSPost2010PropOp42
 70
     1
102
RTVSPost2010Prop43
 90
        3
102
RTVSPost2010PropOp43
 70
     1
102
RTVSPost2010Prop44ColorIndex
 90
        5
102
RTVSPost2010Prop44ColorRGB
 90
      255
102
RTVSPost2010PropOp44
 70
     1
102
RTVSPost2010Prop45
280
     0
102
RTVSPost2010PropOp45
 70
     1
102
RTVSPost2010Prop46
 90
       50
102
RTVSPost2010PropOp46
 70
     1
102
RTVSPost2010Prop47
 90
       50
102
RTVSPost2010PropOp47
 70
     1
102
RTVSPost2010Prop48
 90
       50
102
RTVSPost2010PropOp48
 70
     1
102
RTVSPost2010Prop49
280
     0
102
RTVSPost2010PropOp49
 70
     1
102
RTVSPost2010Prop50
 90
       50
102
RTVSPost2010PropOp50
 70
     1
102
RTVSPost2010Prop51ColorIndex
 90
      256
102
RTVSPost2010Prop51ColorRGB
 90
-16777216
102
RTVSPost2010PropOp51
 70
     0
102
RTVSPost2010Prop52
140
1.0
102
RTVSPost2010PropOp52
 70
     0
102
RTVSPost2010Prop53
 90
        2
102
RTVSPost2010PropOp53
 70
     1
102
RTVSPost2010Prop54
  1
strokes_ogs.tif
102
RTVSPost2010PropOp54
 70
     1
102
RTVSPost2010Prop55
280
     0
102
RTVSPost2010PropOp55
 70
     1
102
RTVSPost2010Prop56
140
1.0
102
RTVSPost2010PropOp56
 70
     1
102
RTVSPost2010Prop57
140
1.0
102
RTVSPost2010PropOp57
 70
     1
  0
XRECORD
  5
AC8
102
{ACAD_REACTORS
330
AC7
102
}
330
AC7
100
AcDbXrecord
280
     1
102
RTVSPost2010Prop28
280
     0
102
RTVSPost2010PropOp28
 70
     1
102
RTVSPost2010Prop29
280
     1
102
RTVSPost2010PropOp29
 70
     1
102
RTVSPost2010Prop30
280
     1
102
RTVSPost2010PropOp30
 70
     1
102
RTVSPost2010Prop31
280
     0
102
RTVSPost2010PropOp31
 70
     1
102
RTVSPost2010Prop32
280
     0
102
RTVSPost2010PropOp32
 70
     1
102
RTVSPost2010Prop33
280
     0
102
RTVSPost2010PropOp33
 70
     1
102
RTVSPost2010Prop34
280
     0
102
RTVSPost2010PropOp34
 70
     1
102
RTVSPost2010Prop35
280
     0
102
RTVSPost2010PropOp35
 70
     1
102
RTVSPost2010Prop36
280
     0
102
RTVSPost2010PropOp36
 70
     1
102
RTVSPost2010Prop37
 90
       50
102
RTVSPost2010PropOp37
 70
     1
102
RTVSPost2010Prop38
140
0.0
102
RTVSPost2010PropOp38
 70
     1
102
RTVSPost2010Prop39
140
1.0
102
RTVSPost2010PropOp39
 70
     1
102
RTVSPost2010Prop40
 90
        0
102
RTVSPost2010PropOp40
 70
     1
102
RTVSPost2010Prop41ColorIndex
 90
       18
102
RTVSPost2010Prop41ColorRGB
 90
        0
102
RTVSPost2010PropOp41
 70
     1
102
RTVSPost2010Prop42
 90
       50
102
RTVSPost2010PropOp42
 70
     1
102
RTVSPost2010Prop43
 90
        3
102
RTVSPost2010PropOp43
 70
     1
102
RTVSPost2010Prop44ColorIndex
 90
        5
102
RTVSPost2010Prop44ColorRGB
 90
      255
102
RTVSPost2010PropOp44
 70
     1
102
RTVSPost2010Prop45
280
     0
102
RTVSPost2010PropOp45
 70
     1
102
RTVSPost2010Prop46
 90
       50
102
RTVSPost2010PropOp46
 70
     1
102
RTVSPost2010Prop47
 90
       50
102
RTVSPost2010PropOp47
 70
     1
102
RTVSPost2010Prop48
 90
       50
102
RTVSPost2010PropOp48
 70
     1
102
RTVSPost2010Prop49
280
     0
102
RTVSPost2010PropOp49
 70
     1
102
RTVSPost2010Prop50
 90
       50
102
RTVSPost2010PropOp50
 70
     1
102
RTVSPost2010Prop51ColorIndex
 90
      256
102
RTVSPost2010Prop51ColorRGB
 90
-16777216
102
RTVSPost2010PropOp51
 70
     0
102
RTVSPost2010Prop52
140
1.0
102
RTVSPost2010PropOp52
 70
     0
102
RTVSPost2010Prop53
 90
        2
102
RTVSPost2010PropOp53
 70
     1
102
RTVSPost2010Prop54
  1
strokes_ogs.tif
102
RTVSPost2010PropOp54
 70
     1
102
RTVSPost2010Prop55
280
     0
102
RTVSPost2010PropOp55
 70
     1
102
RTVSPost2010Prop56
140
1.0
102
RTVSPost2010PropOp56
 70
     1
102
RTVSPost2010Prop57
140
1.0
102
RTVSPost2010PropOp57
 70
     1
  0
XRECORD
  5
AC6
102
{ACAD_REACTORS
330
AC5
102
}
330
AC5
100
AcDbXrecord
280
     1
102
RTVSPost2010Prop28
280
     0
102
RTVSPost2010PropOp28
 70
     1
102
RTVSPost2010Prop29
280
     1
102
RTVSPost2010PropOp29
 70
     1
102
RTVSPost2010Prop30
280
     1
102
RTVSPost2010PropOp30
 70
     1
102
RTVSPost2010Prop31
280
     0
102
RTVSPost2010PropOp31
 70
     1
102
RTVSPost2010Prop32
280
     0
102
RTVSPost2010PropOp32
 70
     1
102
RTVSPost2010Prop33
280
     0
102
RTVSPost2010PropOp33
 70
     1
102
RTVSPost2010Prop34
280
     0
102
RTVSPost2010PropOp34
 70
     1
102
RTVSPost2010Prop35
280
     0
102
RTVSPost2010PropOp35
 70
     1
102
RTVSPost2010Prop36
280
     0
102
RTVSPost2010PropOp36
 70
     1
102
RTVSPost2010Prop37
 90
       50
102
RTVSPost2010PropOp37
 70
     1
102
RTVSPost2010Prop38
140
0.0
102
RTVSPost2010PropOp38
 70
     1
102
RTVSPost2010Prop39
140
1.0
102
RTVSPost2010PropOp39
 70
     1
102
RTVSPost2010Prop40
 90
        0
102
RTVSPost2010PropOp40
 70
     1
102
RTVSPost2010Prop41ColorIndex
 90
       18
102
RTVSPost2010Prop41ColorRGB
 90
        0
102
RTVSPost2010PropOp41
 70
     1
102
RTVSPost2010Prop42
 90
       50
102
RTVSPost2010PropOp42
 70
     1
102
RTVSPost2010Prop43
 90
        3
102
RTVSPost2010PropOp43
 70
     1
102
RTVSPost2010Prop44ColorIndex
 90
        5
102
RTVSPost2010Prop44ColorRGB
 90
      255
102
RTVSPost2010PropOp44
 70
     1
102
RTVSPost2010Prop45
280
     0
102
RTVSPost2010PropOp45
 70
     1
102
RTVSPost2010Prop46
 90
       50
102
RTVSPost2010PropOp46
 70
     1
102
RTVSPost2010Prop47
 90
       50
102
RTVSPost2010PropOp47
 70
     1
102
RTVSPost2010Prop48
 90
       50
102
RTVSPost2010PropOp48
 70
     1
102
RTVSPost2010Prop49
280
     0
102
RTVSPost2010PropOp49
 70
     1
102
RTVSPost2010Prop50
 90
       50
102
RTVSPost2010PropOp50
 70
     1
102
RTVSPost2010Prop51ColorIndex
 90
      256
102
RTVSPost2010Prop51ColorRGB
 90
-16777216
102
RTVSPost2010PropOp51
 70
     0
102
RTVSPost2010Prop52
140
1.0
102
RTVSPost2010PropOp52
 70
     0
102
RTVSPost2010Prop53
 90
        2
102
RTVSPost2010PropOp53
 70
     1
102
RTVSPost2010Prop54
  1
strokes_ogs.tif
102
RTVSPost2010PropOp54
 70
     1
102
RTVSPost2010Prop55
280
     0
102
RTVSPost2010PropOp55
 70
     1
102
RTVSPost2010Prop56
140
1.0
102
RTVSPost2010PropOp56
 70
     1
102
RTVSPost2010Prop57
140
1.0
102
RTVSPost2010PropOp57
 70
     1
  0
XRECORD
  5
AC0
102
{ACAD_REACTORS
330
ABF
102
}
330
ABF
100
AcDbXrecord
280
     1
102
RTVSPost2010Prop28
280
     0
102
RTVSPost2010PropOp28
 70
     1
102
RTVSPost2010Prop29
280
     1
102
RTVSPost2010PropOp29
 70
     1
102
RTVSPost2010Prop30
280
     1
102
RTVSPost2010PropOp30
 70
     1
102
RTVSPost2010Prop31
280
     0
102
RTVSPost2010PropOp31
 70
     1
102
RTVSPost2010Prop32
280
     0
102
RTVSPost2010PropOp32
 70
     1
102
RTVSPost2010Prop33
280
     0
102
RTVSPost2010PropOp33
 70
     1
102
RTVSPost2010Prop34
280
     0
102
RTVSPost2010PropOp34
 70
     1
102
RTVSPost2010Prop35
280
     0
102
RTVSPost2010PropOp35
 70
     1
102
RTVSPost2010Prop36
280
     0
102
RTVSPost2010PropOp36
 70
     1
102
RTVSPost2010Prop37
 90
       50
102
RTVSPost2010PropOp37
 70
     1
102
RTVSPost2010Prop38
140
0.0
102
RTVSPost2010PropOp38
 70
     1
102
RTVSPost2010Prop39
140
1.0
102
RTVSPost2010PropOp39
 70
     1
102
RTVSPost2010Prop40
 90
        0
102
RTVSPost2010PropOp40
 70
     1
102
RTVSPost2010Prop41ColorIndex
 90
       18
102
RTVSPost2010Prop41ColorRGB
 90
        0
102
RTVSPost2010PropOp41
 70
     1
102
RTVSPost2010Prop42
 90
       50
102
RTVSPost2010PropOp42
 70
     1
102
RTVSPost2010Prop43
 90
        3
102
RTVSPost2010PropOp43
 70
     1
102
RTVSPost2010Prop44ColorIndex
 90
        5
102
RTVSPost2010Prop44ColorRGB
 90
      255
102
RTVSPost2010PropOp44
 70
     1
102
RTVSPost2010Prop45
280
     0
102
RTVSPost2010PropOp45
 70
     1
102
RTVSPost2010Prop46
 90
       50
102
RTVSPost2010PropOp46
 70
     1
102
RTVSPost2010Prop47
 90
       50
102
RTVSPost2010PropOp47
 70
     1
102
RTVSPost2010Prop48
 90
       50
102
RTVSPost2010PropOp48
 70
     1
102
RTVSPost2010Prop49
280
     0
102
RTVSPost2010PropOp49
 70
     1
102
RTVSPost2010Prop50
 90
       50
102
RTVSPost2010PropOp50
 70
     1
102
RTVSPost2010Prop51ColorIndex
 90
      256
102
RTVSPost2010Prop51ColorRGB
 90
-16777216
102
RTVSPost2010PropOp51
 70
     0
102
RTVSPost2010Prop52
140
1.0
102
RTVSPost2010PropOp52
 70
     0
102
RTVSPost2010Prop53
 90
        2
102
RTVSPost2010PropOp53
 70
     1
102
RTVSPost2010Prop54
  1
strokes_ogs.tif
102
RTVSPost2010PropOp54
 70
     1
102
RTVSPost2010Prop55
280
     0
102
RTVSPost2010PropOp55
 70
     1
102
RTVSPost2010Prop56
140
1.0
102
RTVSPost2010PropOp56
 70
     1
102
RTVSPost2010Prop57
140
1.0
102
RTVSPost2010PropOp57
 70
     1
  0
XRECORD
  5
AC2
102
{ACAD_REACTORS
330
AC1
102
}
330
AC1
100
AcDbXrecord
280
     1
102
RTVSPost2010Prop28
280
     0
102
RTVSPost2010PropOp28
 70
     1
102
RTVSPost2010Prop29
280
     1
102
RTVSPost2010PropOp29
 70
     1
102
RTVSPost2010Prop30
280
     1
102
RTVSPost2010PropOp30
 70
     1
102
RTVSPost2010Prop31
280
     0
102
RTVSPost2010PropOp31
 70
     1
102
RTVSPost2010Prop32
280
     0
102
RTVSPost2010PropOp32
 70
     1
102
RTVSPost2010Prop33
280
     0
102
RTVSPost2010PropOp33
 70
     1
102
RTVSPost2010Prop34
280
     0
102
RTVSPost2010PropOp34
 70
     1
102
RTVSPost2010Prop35
280
     0
102
RTVSPost2010PropOp35
 70
     1
102
RTVSPost2010Prop36
280
     0
102
RTVSPost2010PropOp36
 70
     1
102
RTVSPost2010Prop37
 90
       50
102
RTVSPost2010PropOp37
 70
     1
102
RTVSPost2010Prop38
140
0.0
102
RTVSPost2010PropOp38
 70
     1
102
RTVSPost2010Prop39
140
1.0
102
RTVSPost2010PropOp39
 70
     1
102
RTVSPost2010Prop40
 90
        0
102
RTVSPost2010PropOp40
 70
     1
102
RTVSPost2010Prop41ColorIndex
 90
       18
102
RTVSPost2010Prop41ColorRGB
 90
        0
102
RTVSPost2010PropOp41
 70
     1
102
RTVSPost2010Prop42
 90
       50
102
RTVSPost2010PropOp42
 70
     1
102
RTVSPost2010Prop43
 90
        3
102
RTVSPost2010PropOp43
 70
     1
102
RTVSPost2010Prop44ColorIndex
 90
        5
102
RTVSPost2010Prop44ColorRGB
 90
      255
102
RTVSPost2010PropOp44
 70
     1
102
RTVSPost2010Prop45
280
     0
102
RTVSPost2010PropOp45
 70
     1
102
RTVSPost2010Prop46
 90
       50
102
RTVSPost2010PropOp46
 70
     1
102
RTVSPost2010Prop47
 90
       50
102
RTVSPost2010PropOp47
 70
     1
102
RTVSPost2010Prop48
 90
       50
102
RTVSPost2010PropOp48
 70
     1
102
RTVSPost2010Prop49
280
     0
102
RTVSPost2010PropOp49
 70
     1
102
RTVSPost2010Prop50
 90
       50
102
RTVSPost2010PropOp50
 70
     1
102
RTVSPost2010Prop51ColorIndex
 90
      256
102
RTVSPost2010Prop51ColorRGB
 90
-16777216
102
RTVSPost2010PropOp51
 70
     0
102
RTVSPost2010Prop52
140
1.0
102
RTVSPost2010PropOp52
 70
     0
102
RTVSPost2010Prop53
 90
        2
102
RTVSPost2010PropOp53
 70
     1
102
RTVSPost2010Prop54
  1
strokes_ogs.tif
102
RTVSPost2010PropOp54
 70
     1
102
RTVSPost2010Prop55
280
     0
102
RTVSPost2010PropOp55
 70
     1
102
RTVSPost2010Prop56
140
1.0
102
RTVSPost2010PropOp56
 70
     1
102
RTVSPost2010Prop57
140
1.0
102
RTVSPost2010PropOp57
 70
     1
  0
XRECORD
  5
AB8
102
{ACAD_REACTORS
330
AB7
102
}
330
AB7
100
AcDbXrecord
280
     1
102
RTVSPost2010Prop28
280
     0
102
RTVSPost2010PropOp28
 70
     1
102
RTVSPost2010Prop29
280
     1
102
RTVSPost2010PropOp29
 70
     1
102
RTVSPost2010Prop30
280
     1
102
RTVSPost2010PropOp30
 70
     1
102
RTVSPost2010Prop31
280
     0
102
RTVSPost2010PropOp31
 70
     1
102
RTVSPost2010Prop32
280
     0
102
RTVSPost2010PropOp32
 70
     1
102
RTVSPost2010Prop33
280
     0
102
RTVSPost2010PropOp33
 70
     1
102
RTVSPost2010Prop34
280
     0
102
RTVSPost2010PropOp34
 70
     1
102
RTVSPost2010Prop35
280
     0
102
RTVSPost2010PropOp35
 70
     1
102
RTVSPost2010Prop36
280
     0
102
RTVSPost2010PropOp36
 70
     1
102
RTVSPost2010Prop37
 90
       50
102
RTVSPost2010PropOp37
 70
     1
102
RTVSPost2010Prop38
140
0.0
102
RTVSPost2010PropOp38
 70
     1
102
RTVSPost2010Prop39
140
1.0
102
RTVSPost2010PropOp39
 70
     1
102
RTVSPost2010Prop40
 90
        0
102
RTVSPost2010PropOp40
 70
     1
102
RTVSPost2010Prop41ColorIndex
 90
       18
102
RTVSPost2010Prop41ColorRGB
 90
        0
102
RTVSPost2010PropOp41
 70
     1
102
RTVSPost2010Prop42
 90
       50
102
RTVSPost2010PropOp42
 70
     1
102
RTVSPost2010Prop43
 90
        3
102
RTVSPost2010PropOp43
 70
     1
102
RTVSPost2010Prop44ColorIndex
 90
        5
102
RTVSPost2010Prop44ColorRGB
 90
      255
102
RTVSPost2010PropOp44
 70
     1
102
RTVSPost2010Prop45
280
     0
102
RTVSPost2010PropOp45
 70
     1
102
RTVSPost2010Prop46
 90
       50
102
RTVSPost2010PropOp46
 70
     1
102
RTVSPost2010Prop47
 90
       50
102
RTVSPost2010PropOp47
 70
     1
102
RTVSPost2010Prop48
 90
       50
102
RTVSPost2010PropOp48
 70
     1
102
RTVSPost2010Prop49
280
     0
102
RTVSPost2010PropOp49
 70
     1
102
RTVSPost2010Prop50
 90
       50
102
RTVSPost2010PropOp50
 70
     1
102
RTVSPost2010Prop51ColorIndex
 90
      256
102
RTVSPost2010Prop51ColorRGB
 90
-16777216
102
RTVSPost2010PropOp51
 70
     0
102
RTVSPost2010Prop52
140
1.0
102
RTVSPost2010PropOp52
 70
     0
102
RTVSPost2010Prop53
 90
        2
102
RTVSPost2010PropOp53
 70
     1
102
RTVSPost2010Prop54
  1
strokes_ogs.tif
102
RTVSPost2010PropOp54
 70
     1
102
RTVSPost2010Prop55
280
     0
102
RTVSPost2010PropOp55
 70
     1
102
RTVSPost2010Prop56
140
1.0
102
RTVSPost2010PropOp56
 70
     1
102
RTVSPost2010Prop57
140
1.0
102
RTVSPost2010PropOp57
 70
     1
  0
XRECORD
  5
AAC
102
{ACAD_REACTORS
330
AAB
102
}
330
AAB
100
AcDbXrecord
280
     1
102
RTVSPost2010Prop28
280
     0
102
RTVSPost2010PropOp28
 70
     1
102
RTVSPost2010Prop29
280
     1
102
RTVSPost2010PropOp29
 70
     1
102
RTVSPost2010Prop30
280
     1
102
RTVSPost2010PropOp30
 70
     1
102
RTVSPost2010Prop31
280
     0
102
RTVSPost2010PropOp31
 70
     1
102
RTVSPost2010Prop32
280
     0
102
RTVSPost2010PropOp32
 70
     1
102
RTVSPost2010Prop33
280
     0
102
RTVSPost2010PropOp33
 70
     1
102
RTVSPost2010Prop34
280
     0
102
RTVSPost2010PropOp34
 70
     1
102
RTVSPost2010Prop35
280
     0
102
RTVSPost2010PropOp35
 70
     1
102
RTVSPost2010Prop36
280
     0
102
RTVSPost2010PropOp36
 70
     1
102
RTVSPost2010Prop37
 90
       50
102
RTVSPost2010PropOp37
 70
     1
102
RTVSPost2010Prop38
140
0.0
102
RTVSPost2010PropOp38
 70
     1
102
RTVSPost2010Prop39
140
1.0
102
RTVSPost2010PropOp39
 70
     1
102
RTVSPost2010Prop40
 90
        0
102
RTVSPost2010PropOp40
 70
     1
102
RTVSPost2010Prop41ColorIndex
 90
       18
102
RTVSPost2010Prop41ColorRGB
 90
        0
102
RTVSPost2010PropOp41
 70
     1
102
RTVSPost2010Prop42
 90
       50
102
RTVSPost2010PropOp42
 70
     1
102
RTVSPost2010Prop43
 90
        3
102
RTVSPost2010PropOp43
 70
     1
102
RTVSPost2010Prop44ColorIndex
 90
        5
102
RTVSPost2010Prop44ColorRGB
 90
      255
102
RTVSPost2010PropOp44
 70
     1
102
RTVSPost2010Prop45
280
     0
102
RTVSPost2010PropOp45
 70
     1
102
RTVSPost2010Prop46
 90
       50
102
RTVSPost2010PropOp46
 70
     1
102
RTVSPost2010Prop47
 90
       50
102
RTVSPost2010PropOp47
 70
     1
102
RTVSPost2010Prop48
 90
       50
102
RTVSPost2010PropOp48
 70
     1
102
RTVSPost2010Prop49
280
     0
102
RTVSPost2010PropOp49
 70
     1
102
RTVSPost2010Prop50
 90
       50
102
RTVSPost2010PropOp50
 70
     1
102
RTVSPost2010Prop51ColorIndex
 90
      256
102
RTVSPost2010Prop51ColorRGB
 90
-16777216
102
RTVSPost2010PropOp51
 70
     0
102
RTVSPost2010Prop52
140
1.0
102
RTVSPost2010PropOp52
 70
     0
102
RTVSPost2010Prop53
 90
        2
102
RTVSPost2010PropOp53
 70
     1
102
RTVSPost2010Prop54
  1
strokes_ogs.tif
102
RTVSPost2010PropOp54
 70
     1
102
RTVSPost2010Prop55
280
     0
102
RTVSPost2010PropOp55
 70
     1
102
RTVSPost2010Prop56
140
1.0
102
RTVSPost2010PropOp56
 70
     1
102
RTVSPost2010Prop57
140
1.0
102
RTVSPost2010PropOp57
 70
     1
  0
XRECORD
  5
AC4
102
{ACAD_REACTORS
330
AC3
102
}
330
AC3
100
AcDbXrecord
280
     1
102
RTVSPost2010Prop28
280
     0
102
RTVSPost2010PropOp28
 70
     1
102
RTVSPost2010Prop29
280
     1
102
RTVSPost2010PropOp29
 70
     1
102
RTVSPost2010Prop30
280
     1
102
RTVSPost2010PropOp30
 70
     1
102
RTVSPost2010Prop31
280
     0
102
RTVSPost2010PropOp31
 70
     1
102
RTVSPost2010Prop32
280
     0
102
RTVSPost2010PropOp32
 70
     1
102
RTVSPost2010Prop33
280
     0
102
RTVSPost2010PropOp33
 70
     1
102
RTVSPost2010Prop34
280
     0
102
RTVSPost2010PropOp34
 70
     1
102
RTVSPost2010Prop35
280
     0
102
RTVSPost2010PropOp35
 70
     1
102
RTVSPost2010Prop36
280
     0
102
RTVSPost2010PropOp36
 70
     1
102
RTVSPost2010Prop37
 90
       50
102
RTVSPost2010PropOp37
 70
     1
102
RTVSPost2010Prop38
140
0.0
102
RTVSPost2010PropOp38
 70
     1
102
RTVSPost2010Prop39
140
1.0
102
RTVSPost2010PropOp39
 70
     1
102
RTVSPost2010Prop40
 90
        0
102
RTVSPost2010PropOp40
 70
     1
102
RTVSPost2010Prop41ColorIndex
 90
       18
102
RTVSPost2010Prop41ColorRGB
 90
        0
102
RTVSPost2010PropOp41
 70
     1
102
RTVSPost2010Prop42
 90
       50
102
RTVSPost2010PropOp42
 70
     1
102
RTVSPost2010Prop43
 90
        3
102
RTVSPost2010PropOp43
 70
     1
102
RTVSPost2010Prop44ColorIndex
 90
        5
102
RTVSPost2010Prop44ColorRGB
 90
      255
102
RTVSPost2010PropOp44
 70
     1
102
RTVSPost2010Prop45
280
     0
102
RTVSPost2010PropOp45
 70
     1
102
RTVSPost2010Prop46
 90
       50
102
RTVSPost2010PropOp46
 70
     1
102
RTVSPost2010Prop47
 90
       50
102
RTVSPost2010PropOp47
 70
     1
102
RTVSPost2010Prop48
 90
       50
102
RTVSPost2010PropOp48
 70
     1
102
RTVSPost2010Prop49
280
     0
102
RTVSPost2010PropOp49
 70
     1
102
RTVSPost2010Prop50
 90
       50
102
RTVSPost2010PropOp50
 70
     1
102
RTVSPost2010Prop51ColorIndex
 90
      256
102
RTVSPost2010Prop51ColorRGB
 90
-16777216
102
RTVSPost2010PropOp51
 70
     0
102
RTVSPost2010Prop52
140
1.0
102
RTVSPost2010PropOp52
 70
     0
102
RTVSPost2010Prop53
 90
        2
102
RTVSPost2010PropOp53
 70
     1
102
RTVSPost2010Prop54
  1
strokes_ogs.tif
102
RTVSPost2010PropOp54
 70
     1
102
RTVSPost2010Prop55
280
     0
102
RTVSPost2010PropOp55
 70
     1
102
RTVSPost2010Prop56
140
1.0
102
RTVSPost2010PropOp56
 70
     1
102
RTVSPost2010Prop57
140
1.0
102
RTVSPost2010PropOp57
 70
     1
  0
ENDSEC
  0
EOF
