  0
SECTION
  2
HEADER
  9
$ACADVER
  1
AC1024
  9
$ACADMAINTVER
 70
   181
  9
$DWGCODEPAGE
  3
ANSI_932
  9
$LASTSAVEDBY
  1
kenzai
  9
$INSBASE
 10
0.0
 20
0.0
 30
0.0
  9
$EXTMIN
 10
-138.0163109423782
 20
-94.50884959708066
 30
-0.0000000000000053
  9
$EXTMAX
 10
138.51780768614
 20
95.01217699040683
 30
0.0000000000000099
  9
$LIMMIN
 10
-148.0
 20
-104.5
  9
$LIMMAX
 10
149.0
 20
105.5
  9
$ORTHOMODE
 70
     1
  9
$REGENMODE
 70
     1
  9
$FILLMODE
 70
     1
  9
$QTEXTMODE
 70
     0
  9
$MIRRTEXT
 70
     0
  9
$LTSCALE
 40
1.0
  9
$ATTMODE
 70
     1
  9
$TEXTSIZE
 40
0.2
  9
$TRACEWID
 40
0.05
  9
$TEXTSTYLE
  7
STANDARD
  9
$CLAYER
  8
0
  9
$CELTYPE
  6
CONTINUOUS
  9
$CECOLOR
 62
   256
  9
$CELTSCALE
 40
1.0
  9
$DISPSILH
 70
     0
  9
$DIMSCALE
 40
1.0
  9
$DIMASZ
 40
1.0
  9
$DIMEXO
 40
2.54
  9
$DIMDLI
 40
0.38
  9
$DIMRND
 40
0.0
  9
$DIMDLE
 40
0.0
  9
$DIMEXE
 40
2.54
  9
$DIMTP
 40
0.0
  9
$DIMTM
 40
0.0
  9
$DIMTXT
 40
3.200000047683716
  9
$DIMCEN
 40
0.09
  9
$DIMTSZ
 40
0.0
  9
$DIMTOL
 70
     0
  9
$DIMLIM
 70
     0
  9
$DIMTIH
 70
     0
  9
$DIMTOH
 70
     0
  9
$DIMSE1
 70
     0
  9
$DIMSE2
 70
     0
  9
$DIMTAD
 70
     1
  9
$DIMZIN
 70
     0
  9
$DIMBLK
  1

  9
$DIMASO
 70
     1
  9
$DIMSHO
 70
     0
  9
$DIMPOST
  1

  9
$DIMAPOST
  1

  9
$DIMALT
 70
     0
  9
$DIMALTD
 70
     2
  9
$DIMALTF
 40
25.4
  9
$DIMLFAC
 40
1.0
  9
$DIMTOFL
 70
     0
  9
$DIMTVP
 40
1.0
  9
$DIMTIX
 70
     0
  9
$DIMSOXD
 70
     0
  9
$DIMSAH
 70
     1
  9
$DIMBLK1
  1

  9
$DIMBLK2
  1

  9
$DIMSTYLE
  2
DIMSTYLE
  9
$DIMCLRD
 70
     0
  9
$DIMCLRE
 70
     0
  9
$DIMCLRT
 70
     0
  9
$DIMTFAC
 40
1.0
  9
$DIMGAP
 40
1.600000023841858
  9
$DIMJUST
 70
     0
  9
$DIMSD1
 70
     0
  9
$DIMSD2
 70
     0
  9
$DIMTOLJ
 70
     1
  9
$DIMTZIN
 70
     0
  9
$DIMALTZ
 70
     0
  9
$DIMALTTZ
 70
     0
  9
$DIMUPT
 70
     0
  9
$DIMDEC
 70
     2
  9
$DIMTDEC
 70
     4
  9
$DIMALTU
 70
     2
  9
$DIMALTTD
 70
     2
  9
$DIMTXSTY
  7
STANDARD
  9
$DIMAUNIT
 70
     1
  9
$DIMADEC
 70
     0
  9
$DIMALTRND
 40
0.0
  9
$DIMAZIN
 70
     0
  9
$DIMDSEP
 70
    46
  9
$DIMATFIT
 70
     3
  9
$DIMFRAC
 70
     0
  9
$DIMLDRBLK
  1

  9
$DIMLUNIT
 70
     2
  9
$DIMLWD
 70
    -2
  9
$DIMLWE
 70
    -2
  9
$DIMTMOVE
 70
     0
  9
$DIMFXL
 40
1.0
  9
$DIMFXLON
 70
     0
  9
$DIMJOGANG
 40
0.7853981633974483
  9
$DIMTFILL
 70
     0
  9
$DIMTFILLCLR
 70
     0
  9
$DIMARCSYM
 70
     0
  9
$DIMLTYPE
  6

  9
$DIMLTEX1
  6

  9
$DIMLTEX2
  6

  9
$DIMTXTDIRECTION
 70
     0
  9
$LUNITS
 70
     2
  9
$LUPREC
 70
     4
  9
$SKETCHINC
 40
0.1
  9
$FILLETRAD
 40
0.0
  9
$AUNITS
 70
     0
  9
$AUPREC
 70
     0
  9
$MENU
  1
.
  9
$ELEVATION
 40
0.0
  9
$PELEVATION
 40
0.0
  9
$THICKNESS
 40
0.0
  9
$LIMCHECK
 70
     0
  9
$CHAMFERA
 40
0.0
  9
$CHAMFERB
 40
0.0
  9
$CHAMFERC
 40
0.0
  9
$CHAMFERD
 40
0.0
  9
$SKPOLY
 70
     0
  9
$TDCREATE
 40
2455477.454649699
  9
$TDUCREATE
 40
2455477.079649699
  9
$TDUPDATE
 40
2457294.431838808
  9
$TDUUPDATE
 40
2457294.056838808
  9
$TDINDWG
 40
0.0307414005
  9
$TDUSRTIMER
 40
0.0307110069
  9
$USRTIMER
 70
     1
  9
$ANGBASE
 50
0.0
  9
$ANGDIR
 70
     0
  9
$PDMODE
 70
     0
  9
$PDSIZE
 40
0.0
  9
$PLINEWID
 40
0.0
  9
$SPLFRAME
 70
     0
  9
$SPLINETYPE
 70
     6
  9
$SPLINESEGS
 70
     8
  9
$HANDSEED
  5
13D1
  9
$SURFTAB1
 70
     6
  9
$SURFTAB2
 70
     6
  9
$SURFTYPE
 70
     6
  9
$SURFU
 70
     6
  9
$SURFV
 70
     6
  9
$UCSBASE
  2

  9
$UCSNAME
  2

  9
$UCSORG
 10
0.0
 20
0.0
 30
0.0
  9
$UCSXDIR
 10
1.0
 20
0.0
 30
0.0
  9
$UCSYDIR
 10
0.0
 20
1.0
 30
0.0
  9
$UCSORTHOREF
  2

  9
$UCSORTHOVIEW
 70
     0
  9
$UCSORGTOP
 10
0.0
 20
0.0
 30
0.0
  9
$UCSORGBOTTOM
 10
0.0
 20
0.0
 30
0.0
  9
$UCSORGLEFT
 10
0.0
 20
0.0
 30
0.0
  9
$UCSORGRIGHT
 10
0.0
 20
0.0
 30
0.0
  9
$UCSORGFRONT
 10
0.0
 20
0.0
 30
0.0
  9
$UCSORGBACK
 10
0.0
 20
0.0
 30
0.0
  9
$PUCSBASE
  2

  9
$PUCSNAME
  2

  9
$PUCSORG
 10
0.0
 20
0.0
 30
0.0
  9
$PUCSXDIR
 10
1.0
 20
0.0
 30
0.0
  9
$PUCSYDIR
 10
0.0
 20
1.0
 30
0.0
  9
$PUCSORTHOREF
  2

  9
$PUCSORTHOVIEW
 70
     0
  9
$PUCSORGTOP
 10
0.0
 20
0.0
 30
0.0
  9
$PUCSORGBOTTOM
 10
0.0
 20
0.0
 30
0.0
  9
$PUCSORGLEFT
 10
0.0
 20
0.0
 30
0.0
  9
$PUCSORGRIGHT
 10
0.0
 20
0.0
 30
0.0
  9
$PUCSORGFRONT
 10
0.0
 20
0.0
 30
0.0
  9
$PUCSORGBACK
 10
0.0
 20
0.0
 30
0.0
  9
$USERI1
 70
     0
  9
$USERI2
 70
     0
  9
$USERI3
 70
     0
  9
$USERI4
 70
     0
  9
$USERI5
 70
     0
  9
$USERR1
 40
0.0
  9
$USERR2
 40
0.0
  9
$USERR3
 40
0.0
  9
$USERR4
 40
0.0
  9
$USERR5
 40
0.0
  9
$WORLDVIEW
 70
     1
  9
$SHADEDGE
 70
     3
  9
$SHADEDIF
 70
    70
  9
$TILEMODE
 70
     1
  9
$MAXACTVP
 70
    64
  9
$PINSBASE
 10
0.0
 20
0.0
 30
0.0
  9
$PLIMCHECK
 70
     0
  9
$PEXTMIN
 10
-148.0
 20
-104.5
 30
0.0
  9
$PEXTMAX
 10
149.0
 20
105.5
 30
0.0
  9
$PLIMMIN
 10
-148.0
 20
-104.5
  9
$PLIMMAX
 10
149.0
 20
105.5
  9
$UNITMODE
 70
     0
  9
$VISRETAIN
 70
     1
  9
$PLINEGEN
 70
     0
  9
$PSLTSCALE
 70
     1
  9
$TREEDEPTH
 70
  3020
  9
$CMLSTYLE
  2
STANDARD
  9
$CMLJUST
 70
     0
  9
$CMLSCALE
 40
1.0
  9
$PROXYGRAPHICS
 70
     1
  9
$MEASUREMENT
 70
     1
  9
$CELWEIGHT
370
    -1
  9
$ENDCAPS
280
     0
  9
$JOINSTYLE
280
     0
  9
$LWDISPLAY
290
     1
  9
$INSUNITS
 70
     0
  9
$HYPERLINKBASE
  1

  9
$STYLESHEET
  1
monochrome.ctb
  9
$XEDIT
290
     1
  9
$CEPSNTYPE
380
     0
  9
$PSTYLEMODE
290
     1
  9
$FINGERPRINTGUID
  2
{EE8C505A-8E34-4E34-90CF-10E44DB73364}
  9
$VERSIONGUID
  2
{05985142-BB26-416A-ACA3-FC47ABD6DAF6}
  9
$EXTNAMES
290
     1
  9
$PSVPSCALE
 40
0.0
  9
$OLESTARTUP
290
     0
  9
$SORTENTS
280
   127
  9
$INDEXCTL
280
     0
  9
$HIDETEXT
280
     0
  9
$XCLIPFRAME
280
     0
  9
$HALOGAP
280
     0
  9
$OBSCOLOR
 70
   257
  9
$OBSLTYPE
280
     0
  9
$INTERSECTIONDISPLAY
280
     0
  9
$INTERSECTIONCOLOR
 70
   257
  9
$DIMASSOC
280
     1
  9
$PROJECTNAME
  1

  9
$CAMERADISPLAY
290
     0
  9
$LENSLENGTH
 40
50.0
  9
$CAMERAHEIGHT
 40
0.0
  9
$STEPSPERSEC
 40
2.0
  9
$STEPSIZE
 40
6.0
  9
$3DDWFPREC
 40
2.0
  9
$PSOLWIDTH
 40
0.25
  9
$PSOLHEIGHT
 40
4.0
  9
$LOFTANG1
 40
1.570796326794896
  9
$LOFTANG2
 40
1.570796326794896
  9
$LOFTMAG1
 40
0.0
  9
$LOFTMAG2
 40
0.0
  9
$LOFTPARAM
 70
     7
  9
$LOFTNORMALS
280
     1
  9
$LATITUDE
 40
37.795
  9
$LONGITUDE
 40
-122.394
  9
$NORTHDIRECTION
 40
0.0
  9
$TIMEZONE
 70
 -8000
  9
$LIGHTGLYPHDISPLAY
280
     1
  9
$TILEMODELIGHTSYNCH
280
     1
  9
$CMATERIAL
347
12E3
  9
$SOLIDHIST
280
     0
  9
$SHOWHIST
280
     1
  9
$DWFFRAME
280
     2
  9
$DGNFRAME
280
     0
  9
$REALWORLDSCALE
290
     1
  9
$INTERFERECOLOR
 62
     1
  9
$INTERFEREOBJVS
345
1305
  9
$INTERFEREVPVS
346
1302
  9
$CSHADOW
280
     0
  9
$SHADOWPLANELOCATION
 40
0.0
  0
ENDSEC
  0
SECTION
  2
CLASSES
  0
CLASS
  1
ACDBDICTIONARYWDFLT
  2
AcDbDictionaryWithDefault
  3
ObjectDBX Classes
 90
        0
 91
        1
280
     0
281
     0
  0
CLASS
  1
TABLESTYLE
  2
AcDbTableStyle
  3
ObjectDBX Classes
 90
     4095
 91
        1
280
     0
281
     0
  0
CLASS
  1
DICTIONARYVAR
  2
AcDbDictionaryVar
  3
ObjectDBX Classes
 90
        0
 91
       19
280
     0
281
     0
  0
CLASS
  1
SORTENTSTABLE
  2
AcDbSortentsTable
  3
ObjectDBX Classes
 90
        0
 91
        2
280
     0
281
     0
  0
CLASS
  1
PLOTSETTINGS
  2
AcDbPlotSettings
  3
ObjectDBX Classes
 90
        0
 91
        1
280
     0
281
     0
  0
CLASS
  1
MATERIAL
  2
AcDbMaterial
  3
ObjectDBX Classes
 90
     1153
 91
        3
280
     0
281
     0
  0
CLASS
  1
VISUALSTYLE
  2
AcDbVisualStyle
  3
ObjectDBX Classes
 90
     4095
 91
       24
280
     0
281
     0
  0
CLASS
  1
SCALE
  2
AcDbScale
  3
ObjectDBX Classes
 90
     1153
 91
       17
280
     0
281
     0
  0
CLASS
  1
MLEADERSTYLE
  2
AcDbMLeaderStyle
  3
ACDB_MLEADERSTYLE_CLASS
 90
     4095
 91
        1
280
     0
281
     0
  0
CLASS
  1
ACDBSECTIONVIEWSTYLE
  2
AcDbSectionViewStyle
  3
ObjectDBX Classes
 90
     1025
 91
        1
280
     0
281
     0
  0
CLASS
  1
ACDBDETAILVIEWSTYLE
  2
AcDbDetailViewStyle
  3
ObjectDBX Classes
 90
     1025
 91
        1
280
     0
281
     0
  0
CLASS
  1
CELLSTYLEMAP
  2
AcDbCellStyleMap
  3
ObjectDBX Classes
 90
     1152
 91
        1
280
     0
281
     0
  0
ENDSEC
  0
SECTION
  2
TABLES
  0
TABLE
  2
VPORT
  5
DB
330
0
100
AcDbSymbolTable
 70
     1
  0
VPORT
  5
12E1
330
DB
100
AcDbSymbolTableRecord
100
AcDbViewportTableRecord
  2
*Active
 70
     0
 10
0.0
 20
0.0
 11
1.0
 21
1.0
 12
0.2507483718809027
 22
0.251663696663087
 13
0.0
 23
0.0
 14
1.0
 24
1.0
 15
0.0
 25
0.0
 16
0.0
 26
0.0
 36
1.0
 17
0.0
 27
0.0
 37
0.0
 40
190.9077658064203
 41
1.905982905982905
 42
50.0
 43
0.0
 44
0.0
 50
0.0
 51
0.0
 71
     0
 72
  1000
 73
     1
 74
     3
 75
     0
 76
     0
 77
     0
 78
     0
281
     0
 65
     1
110
0.0
120
0.0
130
0.0
111
1.0
121
0.0
131
0.0
112
0.0
122
1.0
132
0.0
 79
     0
146
0.0
348
1301
 60
     3
 61
     5
292
     1
282
     1
141
0.0
142
0.0
 63
   250
421
  3355443
1001
ACAD_NAV_VCDISPLAY
1070
     3
  0
ENDTAB
  0
TABLE
  2
LTYPE
  5
25
330
0
100
AcDbSymbolTable
 70
    46
  0
LTYPE
  5
26
330
25
100
AcDbSymbolTableRecord
100
AcDbLinetypeTableRecord
  2
BYBLOCK
 70
     0
  3

 72
    65
 73
     0
 40
0.0
  0
LTYPE
  5
27
330
25
100
AcDbSymbolTableRecord
100
AcDbLinetypeTableRecord
  2
BYLAYER
 70
     0
  3

 72
    65
 73
     0
 40
0.0
  0
LTYPE
  5
28
330
25
100
AcDbSymbolTableRecord
100
AcDbLinetypeTableRecord
  2
CONTINUOUS
 70
     0
  3
Solid line
 72
    65
 73
     0
 40
0.0
  0
LTYPE
  5
29
330
25
100
AcDbSymbolTableRecord
100
AcDbLinetypeTableRecord
  2
DASHED
 70
     0
  3
Dashed __ __ __ __ __ __ __ __ __ __ __ __ __ _
 72
    65
 73
     2
 40
4.5
 49
3.0
 74
     0
 49
-1.5
 74
     0
  0
LTYPE
  5
2A
330
25
100
AcDbSymbolTableRecord
100
AcDbLinetypeTableRecord
  2
CENTER
 70
     0
  3
Center ____ _ ____ _ ____ _ ____ _ ____ _ ____
 72
    65
 73
     4
 40
12.0
 49
7.5
 74
     0
 49
-1.5
 74
     0
 49
1.5
 74
     0
 49
-1.5
 74
     0
  0
LTYPE
  5
2B
330
25
100
AcDbSymbolTableRecord
100
AcDbLinetypeTableRecord
  2
PHANTOM
 70
     0
  3
Phantom ______  __  __  ______  __  __  ______
 72
    65
 73
     6
 40
15.0
 49
7.5
 74
     0
 49
-1.5
 74
     0
 49
1.5
 74
     0
 49
-1.5
 74
     0
 49
1.5
 74
     0
 49
-1.5
 74
     0
  0
LTYPE
  5
2C
330
25
100
AcDbSymbolTableRecord
100
AcDbLinetypeTableRecord
  2
DOT
 70
     0
  3
Dot . . . . . . . . . . . . . . . . . . . . . .
 72
    65
 73
     2
 40
1.5
 49
0.0
 74
     0
 49
-1.5
 74
     0
  0
LTYPE
  5
2D
330
25
100
AcDbSymbolTableRecord
100
AcDbLinetypeTableRecord
  2
HIDDEN
 70
     0
  3
Hidden __ __ __ __ __ __ __ __ __ __ __ __ __ _
 72
    65
 73
     2
 40
4.5
 49
3.0
 74
     0
 49
-1.5
 74
     0
  0
LTYPE
  5
2E
330
25
100
AcDbSymbolTableRecord
100
AcDbLinetypeTableRecord
  2
BORDER
 70
     0
  3
Border __ __ . __ __ . __ __ . __ __ . __ __ .
 72
    65
 73
     6
 40
3.5
 49
1.0
 74
     0
 49
-0.5
 74
     0
 49
1.0
 74
     0
 49
-0.5
 74
     0
 49
0.0
 74
     0
 49
-0.5
 74
     0
  0
LTYPE
  5
2F
330
25
100
AcDbSymbolTableRecord
100
AcDbLinetypeTableRecord
  2
BORDER2
 70
     0
  3
Border (.5x) __.__.__.__.__.__.__.__.__.__.__.
 72
    65
 73
     6
 40
1.75
 49
0.5
 74
     0
 49
-0.25
 74
     0
 49
0.5
 74
     0
 49
-0.25
 74
     0
 49
0.0
 74
     0
 49
-0.25
 74
     0
  0
LTYPE
  5
30
330
25
100
AcDbSymbolTableRecord
100
AcDbLinetypeTableRecord
  2
BORDERX2
 70
     0
  3
Border (2x) ____  ____  .  ____  ____  .  ___
 72
    65
 73
     6
 40
7.0
 49
2.0
 74
     0
 49
-1.0
 74
     0
 49
2.0
 74
     0
 49
-1.0
 74
     0
 49
0.0
 74
     0
 49
-1.0
 74
     0
  0
LTYPE
  5
31
330
25
100
AcDbSymbolTableRecord
100
AcDbLinetypeTableRecord
  2
CENTER2
 70
     0
  3
Center (.5x) ___ _ ___ _ ___ _ ___ _ ___ _ ___
 72
    65
 73
     4
 40
6.0
 49
3.75
 74
     0
 49
-0.75
 74
     0
 49
0.75
 74
     0
 49
-0.75
 74
     0
  0
LTYPE
  5
32
330
25
100
AcDbSymbolTableRecord
100
AcDbLinetypeTableRecord
  2
CENTERX2
 70
     0
  3
Center (2x) ________  __  ________  __  _____
 72
    65
 73
     4
 40
24.0
 49
15.0
 74
     0
 49
-3.0
 74
     0
 49
3.0
 74
     0
 49
-3.0
 74
     0
  0
LTYPE
  5
33
330
25
100
AcDbSymbolTableRecord
100
AcDbLinetypeTableRecord
  2
DASHDOT
 70
     0
  3
Dash dot __ . __ . __ . __ . __ . __ . __ . __
 72
    65
 73
     4
 40
6.0
 49
3.0
 74
     0
 49
-1.5
 74
     0
 49
0.0
 74
     0
 49
-1.5
 74
     0
  0
LTYPE
  5
34
330
25
100
AcDbSymbolTableRecord
100
AcDbLinetypeTableRecord
  2
DASHDOT2
 70
     0
  3
Dash dot (.5x) _._._._._._._._._._._._._._._.
 72
    65
 73
     4
 40
3.0
 49
1.5
 74
     0
 49
-0.75
 74
     0
 49
0.0
 74
     0
 49
-0.75
 74
     0
  0
LTYPE
  5
35
330
25
100
AcDbSymbolTableRecord
100
AcDbLinetypeTableRecord
  2
DASHDOTX2
 70
     0
  3
Dash dot (2x) ____  .  ____  .  ____  .  ___
 72
    65
 73
     4
 40
12.0
 49
6.0
 74
     0
 49
-3.0
 74
     0
 49
0.0
 74
     0
 49
-3.0
 74
     0
  0
LTYPE
  5
36
330
25
100
AcDbSymbolTableRecord
100
AcDbLinetypeTableRecord
  2
DASHED2
 70
     0
  3
Dashed (.5x) _ _ _ _ _ _ _ _ _ _ _ _ _ _ _ _ _
 72
    65
 73
     2
 40
2.25
 49
1.5
 74
     0
 49
-0.75
 74
     0
  0
LTYPE
  5
37
330
25
100
AcDbSymbolTableRecord
100
AcDbLinetypeTableRecord
  2
DASHEDX2
 70
     0
  3
Dashed (2x) ____  ____  ____  ____  ____  ___
 72
    65
 73
     2
 40
9.0
 49
6.0
 74
     0
 49
-3.0
 74
     0
  0
LTYPE
  5
38
330
25
100
AcDbSymbolTableRecord
100
AcDbLinetypeTableRecord
  2
DIVIDE
 70
     0
  3
Divide ____ . . ____ . . ____ . . ____ . . ____
 72
    65
 73
     6
 40
7.5
 49
3.0
 74
     0
 49
-1.5
 74
     0
 49
0.0
 74
     0
 49
-1.5
 74
     0
 49
0.0
 74
     0
 49
-1.5
 74
     0
  0
LTYPE
  5
39
330
25
100
AcDbSymbolTableRecord
100
AcDbLinetypeTableRecord
  2
DIVIDE2
 70
     0
  3
Divide (.5x) __..__..__..__..__..__..__..__.._
 72
    65
 73
     6
 40
3.75
 49
1.5
 74
     0
 49
-0.75
 74
     0
 49
0.0
 74
     0
 49
-0.75
 74
     0
 49
0.0
 74
     0
 49
-0.75
 74
     0
  0
LTYPE
  5
3A
330
25
100
AcDbSymbolTableRecord
100
AcDbLinetypeTableRecord
  2
DIVIDEX2
 70
     0
  3
Divide (2x) ________  .  .  ________  .  .  _
 72
    65
 73
     6
 40
15.0
 49
6.0
 74
     0
 49
-3.0
 74
     0
 49
0.0
 74
     0
 49
-3.0
 74
     0
 49
0.0
 74
     0
 49
-3.0
 74
     0
  0
LTYPE
  5
3B
330
25
100
AcDbSymbolTableRecord
100
AcDbLinetypeTableRecord
  2
DOT2
 70
     0
  3
Dot (.5x) .....................................
 72
    65
 73
     2
 40
0.75
 49
0.0
 74
     0
 49
-0.75
 74
     0
  0
LTYPE
  5
3C
330
25
100
AcDbSymbolTableRecord
100
AcDbLinetypeTableRecord
  2
DOTX2
 70
     0
  3
Dot (2x) .  .  .  .  .  .  .  .  .  .  .  .  . 
 72
    65
 73
     2
 40
3.0
 49
0.0
 74
     0
 49
-3.0
 74
     0
  0
LTYPE
  5
3D
330
25
100
AcDbSymbolTableRecord
100
AcDbLinetypeTableRecord
  2
HIDDEN2
 70
     0
  3
Hidden (.5x) _ _ _ _ _ _ _ _ _ _ _ _ _ _ _ _ _
 72
    65
 73
     2
 40
2.25
 49
1.5
 74
     0
 49
-0.75
 74
     0
  0
LTYPE
  5
3E
330
25
100
AcDbSymbolTableRecord
100
AcDbLinetypeTableRecord
  2
HIDDENX2
 70
     0
  3
Hidden (2x) ____ ____ ____ ____ ____ ____ ____
 72
    65
 73
     2
 40
9.0
 49
6.0
 74
     0
 49
-3.0
 74
     0
  0
LTYPE
  5
3F
330
25
100
AcDbSymbolTableRecord
100
AcDbLinetypeTableRecord
  2
PHANTOM2
 70
     0
  3
Phantom (.5x) ___ _ _ ___ _ _ ___ _ _ ___ _ _
 72
    65
 73
     6
 40
7.5
 49
3.75
 74
     0
 49
-0.75
 74
     0
 49
0.75
 74
     0
 49
-0.75
 74
     0
 49
0.75
 74
     0
 49
-0.75
 74
     0
  0
LTYPE
  5
40
330
25
100
AcDbSymbolTableRecord
100
AcDbLinetypeTableRecord
  2
PHANTOMX2
 70
     0
  3
Phantom (2x) ____________    ____    ____   _
 72
    65
 73
     6
 40
30.0
 49
15.0
 74
     0
 49
-3.0
 74
     0
 49
3.0
 74
     0
 49
-3.0
 74
     0
 49
3.0
 74
     0
 49
-3.0
 74
     0
  0
LTYPE
  5
41
330
25
100
AcDbSymbolTableRecord
100
AcDbLinetypeTableRecord
  2
ACAD_ISO02W100
 70
     0
  3
ISO dash __ __ __ __ __ __ __ __ __ __ __ __ __
 72
    65
 73
     2
 40
15.0
 49
12.0
 74
     0
 49
-3.0
 74
     0
  0
LTYPE
  5
42
330
25
100
AcDbSymbolTableRecord
100
AcDbLinetypeTableRecord
  2
ACAD_ISO03W100
 70
     0
  3
ISO dash space __    __    __    __    __    __
 72
    65
 73
     2
 40
30.0
 49
12.0
 74
     0
 49
-18.0
 74
     0
  0
LTYPE
  5
43
330
25
100
AcDbSymbolTableRecord
100
AcDbLinetypeTableRecord
  2
ACAD_ISO04W100
 70
     0
  3
ISO long-dash dot ____ . ____ . ____ . ____ . _
 72
    65
 73
     4
 40
30.0
 49
24.0
 74
     0
 49
-3.0
 74
     0
 49
0.0
 74
     0
 49
-3.0
 74
     0
  0
LTYPE
  5
44
330
25
100
AcDbSymbolTableRecord
100
AcDbLinetypeTableRecord
  2
ACAD_ISO05W100
 70
     0
  3
ISO long-dash double-dot ____ .. ____ .. ____ .
 72
    65
 73
     6
 40
33.0
 49
24.0
 74
     0
 49
-3.0
 74
     0
 49
0.0
 74
     0
 49
-3.0
 74
     0
 49
0.0
 74
     0
 49
-3.0
 74
     0
  0
LTYPE
  5
45
330
25
100
AcDbSymbolTableRecord
100
AcDbLinetypeTableRecord
  2
ACAD_ISO06W100
 70
     0
  3
ISO long-dash triple-dot ____ ... ____ ... ____
 72
    65
 73
     8
 40
36.0
 49
24.0
 74
     0
 49
-3.0
 74
     0
 49
0.0
 74
     0
 49
-3.0
 74
     0
 49
0.0
 74
     0
 49
-3.0
 74
     0
 49
0.0
 74
     0
 49
-3.0
 74
     0
  0
LTYPE
  5
46
330
25
100
AcDbSymbolTableRecord
100
AcDbLinetypeTableRecord
  2
ACAD_ISO07W100
 70
     0
  3
ISO dot . . . . . . . . . . . . . . . . . . . .
 72
    65
 73
     2
 40
3.0
 49
0.0
 74
     0
 49
-3.0
 74
     0
  0
LTYPE
  5
47
330
25
100
AcDbSymbolTableRecord
100
AcDbLinetypeTableRecord
  2
ACAD_ISO08W100
 70
     0
  3
ISO long-dash short-dash ____ __ ____ __ ____ _
 72
    65
 73
     4
 40
36.0
 49
24.0
 74
     0
 49
-3.0
 74
     0
 49
6.0
 74
     0
 49
-3.0
 74
     0
  0
LTYPE
  5
48
330
25
100
AcDbSymbolTableRecord
100
AcDbLinetypeTableRecord
  2
ACAD_ISO09W100
 70
     0
  3
ISO long-dash double-short-dash ____ __ __ ____
 72
    65
 73
     6
 40
45.0
 49
24.0
 74
     0
 49
-3.0
 74
     0
 49
6.0
 74
     0
 49
-3.0
 74
     0
 49
6.0
 74
     0
 49
-3.0
 74
     0
  0
LTYPE
  5
49
330
25
100
AcDbSymbolTableRecord
100
AcDbLinetypeTableRecord
  2
ACAD_ISO10W100
 70
     0
  3
ISO dash dot __ . __ . __ . __ . __ . __ . __ .
 72
    65
 73
     4
 40
18.0
 49
12.0
 74
     0
 49
-3.0
 74
     0
 49
0.0
 74
     0
 49
-3.0
 74
     0
  0
LTYPE
  5
4A
330
25
100
AcDbSymbolTableRecord
100
AcDbLinetypeTableRecord
  2
ACAD_ISO11W100
 70
     0
  3
ISO double-dash dot __ __ . __ __ . __ __ . __ 
 72
    65
 73
     6
 40
33.0
 49
12.0
 74
     0
 49
-3.0
 74
     0
 49
12.0
 74
     0
 49
-3.0
 74
     0
 49
0.0
 74
     0
 49
-3.0
 74
     0
  0
LTYPE
  5
4B
330
25
100
AcDbSymbolTableRecord
100
AcDbLinetypeTableRecord
  2
ACAD_ISO12W100
 70
     0
  3
ISO dash double-dot __ . . __ . . __ . . __ . .
 72
    65
 73
     6
 40
21.0
 49
12.0
 74
     0
 49
-3.0
 74
     0
 49
0.0
 74
     0
 49
-3.0
 74
     0
 49
0.0
 74
     0
 49
-3.0
 74
     0
  0
LTYPE
  5
4C
330
25
100
AcDbSymbolTableRecord
100
AcDbLinetypeTableRecord
  2
ACAD_ISO13W100
 70
     0
  3
ISO double-dash double-dot __ __ . . __ __ . . 
 72
    65
 73
     8
 40
36.0
 49
12.0
 74
     0
 49
-3.0
 74
     0
 49
12.0
 74
     0
 49
-3.0
 74
     0
 49
0.0
 74
     0
 49
-3.0
 74
     0
 49
0.0
 74
     0
 49
-3.0
 74
     0
  0
LTYPE
  5
4D
330
25
100
AcDbSymbolTableRecord
100
AcDbLinetypeTableRecord
  2
ACAD_ISO14W100
 70
     0
  3
ISO dash triple-dot __ . . . __ . . . __ . . . 
 72
    65
 73
     8
 40
24.0
 49
12.0
 74
     0
 49
-3.0
 74
     0
 49
0.0
 74
     0
 49
-3.0
 74
     0
 49
0.0
 74
     0
 49
-3.0
 74
     0
 49
0.0
 74
     0
 49
-3.0
 74
     0
  0
LTYPE
  5
4E
330
25
100
AcDbSymbolTableRecord
100
AcDbLinetypeTableRecord
  2
ACAD_ISO15W100
 70
     0
  3
ISO double-dash triple-dot __ __ . . . __ __ . 
 72
    65
 73
    10
 40
39.0
 49
12.0
 74
     0
 49
-3.0
 74
     0
 49
12.0
 74
     0
 49
-3.0
 74
     0
 49
0.0
 74
     0
 49
-3.0
 74
     0
 49
0.0
 74
     0
 49
-3.0
 74
     0
 49
0.0
 74
     0
 49
-3.0
 74
     0
  0
LTYPE
  5
4F
330
25
100
AcDbSymbolTableRecord
100
AcDbLinetypeTableRecord
  2
FENCELINE1
 70
     0
  3
Fenceline circle ----0-----0----0-----0----0---
 72
    65
 73
     4
 40
1.45
 49
0.25
 74
     0
 49
-0.1
 74
     4
 75
   133
340
24
 46
0.1
 50
0.0
 44
-0.1
 45
0.0
 49
-0.1
 74
     0
 49
1.0
 74
     0
  0
LTYPE
  5
50
330
25
100
AcDbSymbolTableRecord
100
AcDbLinetypeTableRecord
  2
FENCELINE2
 70
     0
  3
Fenceline square ----[]-----[]----[]-----[]----
 72
    65
 73
     4
 40
1.45
 49
0.25
 74
     0
 49
-0.1
 74
     4
 75
   132
340
24
 46
0.1
 50
0.0
 44
-0.1
 45
0.0
 49
-0.1
 74
     0
 49
1.0
 74
     0
  0
LTYPE
  5
51
330
25
100
AcDbSymbolTableRecord
100
AcDbLinetypeTableRecord
  2
TRACKS
 70
     0
  3
Tracks -|-|-|-|-|-|-|-|-|-|-|-|-|-|-|-|-|-|-|-|
 72
    65
 73
     2
 40
0.3
 49
0.15
 74
     4
 75
   130
340
24
 46
0.25
 50
0.0
 44
0.0
 45
0.0
 49
0.15
 74
     0
  0
LTYPE
  5
52
330
25
100
AcDbSymbolTableRecord
100
AcDbLinetypeTableRecord
  2
BATTING
 70
     0
  3
Batting SSSSSSSSSSSSSSSSSSSSSSSSSSSSSSSSSSSSSSS
 72
    65
 73
     4
 40
0.4001000000000002
 49
0.0001
 74
     0
 49
-0.1
 74
     4
 75
   134
340
24
 46
0.1
 50
0.0
 44
-0.1
 45
0.0
 49
-0.2
 74
     4
 75
   134
340
24
 46
0.1
 50
180.0
 44
0.1
 45
0.0
 49
-0.1
 74
     0
  0
LTYPE
  5
53
330
25
100
AcDbSymbolTableRecord
100
AcDbLinetypeTableRecord
  2
HOT_WATER_SUPPLY
 70
     0
  3
Hot water supply ---- HW ---- HW ---- HW ----
 72
    65
 73
     3
 40
0.9
 49
0.5
 74
     0
 49
-0.2
 74
     2
 75
     0
340
23
 46
0.1
 50
0.0
 44
-0.1
 45
-0.05
  9
HW
 49
-0.2
 74
     0
  0
LTYPE
  5
54
330
25
100
AcDbSymbolTableRecord
100
AcDbLinetypeTableRecord
  2
GAS_LINE
 70
     0
  3
Gas line ----GAS----GAS----GAS----GAS----GAS---
 72
    65
 73
     3
 40
0.95
 49
0.5
 74
     0
 49
-0.2
 74
     2
 75
     0
340
23
 46
0.1
 50
0.0
 44
-0.1
 45
-0.05
  9
GAS
 49
-0.25
 74
     0
  0
LTYPE
  5
55
330
25
100
AcDbSymbolTableRecord
100
AcDbLinetypeTableRecord
  2
ZIGZAG
 70
     0
  3
Zig zag /\/\/\/\/\/\/\/\/\/\/\/\/\/\/\/\/\/\/\/
 72
    65
 73
     4
 40
0.8001000000000001
 49
0.0001
 74
     0
 49
-0.2
 74
     4
 75
   131
340
24
 46
0.2
 50
0.0
 44
-0.2
 45
0.0
 49
-0.4
 74
     4
 75
   131
340
24
 46
0.2
 50
180.0
 44
0.2
 45
0.0
 49
-0.2
 74
     0
  0
ENDTAB
  0
TABLE
  2
LAYER
  5
C8
330
0
100
AcDbSymbolTable
 70
    12
  0
LAYER
  5
C9
102
{ACAD_XDICTIONARY
360
133D
102
}
330
C8
100
AcDbSymbolTableRecord
100
AcDbLayerTableRecord
  2
0
 70
     0
 62
     7
  6
CONTINUOUS
370
    -3
390
2F6
347
12F3
  0
LAYER
  5
CA
102
{ACAD_XDICTIONARY
360
133F
102
}
330
C8
100
AcDbSymbolTableRecord
100
AcDbLayerTableRecord
  2
1
 70
     0
 62
     7
  6
CONTINUOUS
370
    -3
390
2F6
347
12F3
  0
LAYER
  5
CB
330
C8
100
AcDbSymbolTableRecord
100
AcDbLayerTableRecord
  2
DEFPOINTS
 70
     0
 62
     7
  6
CONTINUOUS
290
     0
370
    -3
390
2F6
347
12F3
  0
LAYER
  5
346
102
{ACAD_XDICTIONARY
360
1341
102
}
330
C8
100
AcDbSymbolTableRecord
100
AcDbLayerTableRecord
  2
VIEW0002
 70
     0
 62
     7
  6
CONTINUOUS
370
    -3
390
2F6
347
12F3
  0
LAYER
  5
347
102
{ACAD_XDICTIONARY
360
1343
102
}
330
C8
100
AcDbSymbolTableRecord
100
AcDbLayerTableRecord
  2
寸法線
 70
     0
 62
     3
  6
CONTINUOUS
370
    15
390
2F6
347
12F3
1001
AcAecLayerStandard
1000

1000

  0
LAYER
  5
376
102
{ACAD_XDICTIONARY
360
1345
102
}
330
C8
100
AcDbSymbolTableRecord
100
AcDbLayerTableRecord
  2
外形線
 70
     0
 62
     7
  6
CONTINUOUS
370
    30
390
2F6
347
12F3
1001
AcAecLayerStandard
1000

1000

  0
LAYER
  5
377
102
{ACAD_XDICTIONARY
360
1347
102
}
330
C8
100
AcDbSymbolTableRecord
100
AcDbLayerTableRecord
  2
図枠
 70
     0
 62
     7
  6
CONTINUOUS
370
    50
390
2F6
347
12F3
1001
AcAecLayerStandard
1000

1000

  0
LAYER
  5
378
102
{ACAD_XDICTIONARY
360
1349
102
}
330
C8
100
AcDbSymbolTableRecord
100
AcDbLayerTableRecord
  2
中心線
 70
     0
 62
     5
  6
CENTER2
370
    -3
390
2F6
347
12F3
1001
AcAecLayerStandard
1000

1000

  0
LAYER
  5
379
102
{ACAD_XDICTIONARY
360
134B
102
}
330
C8
100
AcDbSymbolTableRecord
100
AcDbLayerTableRecord
  2
破線
 70
     0
 62
     4
  6
HIDDEN2
370
    -3
390
2F6
347
12F3
1001
AcAecLayerStandard
1000

1000

  0
LAYER
  5
37A
102
{ACAD_XDICTIONARY
360
134D
102
}
330
C8
100
AcDbSymbolTableRecord
100
AcDbLayerTableRecord
  2
文字
 70
     0
 62
     2
  6
CONTINUOUS
370
    -3
390
2F6
347
12F3
1001
AcAecLayerStandard
1000

1000

  0
LAYER
  5
37B
102
{ACAD_XDICTIONARY
360
134F
102
}
330
C8
100
AcDbSymbolTableRecord
100
AcDbLayerTableRecord
  2
補助線
 70
     0
 62
   252
  6
HIDDEN2
290
     0
370
    -3
390
2F6
347
12F3
1001
AcAecLayerStandard
1000

1000

  0
LAYER
  5
1332
102
{ACAD_XDICTIONARY
360
1333
102
}
330
C8
100
AcDbSymbolTableRecord
100
AcDbLayerTableRecord
  2
VIEW0001
 70
     0
 62
     7
  6
CONTINUOUS
370
    -3
390
2F6
347
12F3
  0
ENDTAB
  0
TABLE
  2
STYLE
  5
CC
330
0
100
AcDbSymbolTable
 70
     2
  0
STYLE
  5
23
330
CC
100
AcDbSymbolTableRecord
100
AcDbTextStyleTableRecord
  2
STANDARD
 70
     0
 40
0.0
 41
1.0
 50
0.0
 71
     0
 42
0.2
  3
txt
  4
BIGFONT
  0
STYLE
  5
24
330
CC
100
AcDbSymbolTableRecord
100
AcDbTextStyleTableRecord
  2

 70
     1
 40
0.0
 41
1.0
 50
0.0
 71
     0
 42
0.2
  3
ltypeshp.shx
  4

  0
ENDTAB
  0
TABLE
  2
VIEW
  5
D1
330
0
100
AcDbSymbolTable
 70
     0
  0
ENDTAB
  0
TABLE
  2
UCS
  5
D2
330
0
100
AcDbSymbolTable
 70
     0
  0
ENDTAB
  0
TABLE
  2
APPID
  5
CF
330
0
100
AcDbSymbolTable
 70
     5
  0
APPID
  5
D0
330
CF
100
AcDbSymbolTableRecord
100
AcDbRegAppTableRecord
  2
ACAD
 70
     0
  0
APPID
  5
349
330
CF
100
AcDbSymbolTableRecord
100
AcDbRegAppTableRecord
  2
AcAecLayerStandard
 70
     0
  0
APPID
  5
BA7
330
CF
100
AcDbSymbolTableRecord
100
AcDbRegAppTableRecord
  2
ACAD_DSTYLE_DIMTEXT_FILL
 70
     0
  0
APPID
  5
1272
330
CF
100
AcDbSymbolTableRecord
100
AcDbRegAppTableRecord
  2
ACAD_PSEXT
 70
     0
  0
APPID
  5
1334
330
CF
100
AcDbSymbolTableRecord
100
AcDbRegAppTableRecord
  2
ACAD_NAV_VCDISPLAY
 70
     0
  0
ENDTAB
  0
TABLE
  2
DIMSTYLE
  5
CD
330
0
100
AcDbSymbolTable
 70
     2
100
AcDbDimStyleTable
 71
     2
340
CE
340
371
  0
DIMSTYLE
105
CE
102
{ACAD_REACTORS
330
2E1
330
2E2
330
2E3
330
2E4
330
1164
330
1165
330
1166
330
1167
102
}
330
CD
100
AcDbSymbolTableRecord
100
AcDbDimStyleTableRecord
  2
DIMSTYLE
 70
     0
 41
1.0
 42
2.539999961853026
 44
2.54
 73
     0
 74
     0
140
3.200000047683716
147
1.600000023841858
173
     1
271
     2
275
     1
340
23
341
D6
342
D6
343
D6
344
D6
  0
DIMSTYLE
105
371
330
CD
100
AcDbSymbolTableRecord
100
AcDbDimStyleTableRecord
  2
Standard
 70
     0
340
23
  0
ENDTAB
  0
TABLE
  2
BLOCK_RECORD
  5
D3
330
0
100
AcDbSymbolTable
 70
    23
  0
BLOCK_RECORD
  5
D4
102
{ACAD_XDICTIONARY
360
36A
102
}
330
D3
100
AcDbSymbolTableRecord
100
AcDbBlockTableRecord
  2
*MODEL_SPACE
340
2FD
 70
     0
280
     1
281
     0
  0
BLOCK_RECORD
  5
D5
330
D3
100
AcDbSymbolTableRecord
100
AcDbBlockTableRecord
  2
*PAPER_SPACE
340
2FE
 70
     0
280
     1
281
     0
  0
BLOCK_RECORD
  5
D6
330
D3
100
AcDbSymbolTableRecord
100
AcDbBlockTableRecord
  2
_OPEN30
340
0
102
{BLKREFS
331
F9D
331
F9E
331
FA9
331
FAA
331
FB5
331
FB6
331
FC1
331
FC2
331
1207
331
1208
331
1216
331
1217
331
123C
331
123D
331
1280
331
1281
102
}
 70
     0
280
     1
281
     0
  0
BLOCK_RECORD
  5
310
330
D3
100
AcDbSymbolTableRecord
100
AcDbBlockTableRecord
  2
*D5
340
0
 70
     0
280
     1
281
     0
  0
BLOCK_RECORD
  5
31C
330
D3
100
AcDbSymbolTableRecord
100
AcDbBlockTableRecord
  2
*D6
340
0
 70
     0
280
     1
281
     0
  0
BLOCK_RECORD
  5
328
330
D3
100
AcDbSymbolTableRecord
100
AcDbBlockTableRecord
  2
*D7
340
0
 70
     0
280
     1
281
     0
  0
BLOCK_RECORD
  5
334
330
D3
100
AcDbSymbolTableRecord
100
AcDbBlockTableRecord
  2
*D8
340
0
 70
     0
280
     1
281
     0
  0
BLOCK_RECORD
  5
F9A
330
D3
100
AcDbSymbolTableRecord
100
AcDbBlockTableRecord
  2
*D17
340
0
 70
     0
280
     1
281
     0
  0
BLOCK_RECORD
  5
FA6
330
D3
100
AcDbSymbolTableRecord
100
AcDbBlockTableRecord
  2
*D18
340
0
 70
     0
280
     1
281
     0
  0
BLOCK_RECORD
  5
FB2
330
D3
100
AcDbSymbolTableRecord
100
AcDbBlockTableRecord
  2
*D19
340
0
 70
     0
280
     1
281
     0
  0
BLOCK_RECORD
  5
FBE
330
D3
100
AcDbSymbolTableRecord
100
AcDbBlockTableRecord
  2
*D20
340
0
 70
     0
280
     1
281
     0
  0
BLOCK_RECORD
  5
FCA
330
D3
100
AcDbSymbolTableRecord
100
AcDbBlockTableRecord
  2
A$C610F77D3
340
0
 70
     0
280
     1
281
     0
  0
ENDTAB
  0
ENDSEC
  0
SECTION
  2
BLOCKS
  0
BLOCK
  5
DC
330
D4
100
AcDbEntity
  8
0
100
AcDbBlockBegin
  2
*MODEL_SPACE
 70
     0
 10
0.0
 20
0.0
 30
0.0
  3
*MODEL_SPACE
  1

  0
ENDBLK
  5
DD
330
D4
100
AcDbEntity
  8
0
100
AcDbBlockEnd
  0
BLOCK
  5
DE
330
D5
100
AcDbEntity
 67
     1
  8
0
100
AcDbBlockBegin
  2
*PAPER_SPACE
 70
     0
 10
0.0
 20
0.0
 30
0.0
  3
*PAPER_SPACE
  1

  0
ENDBLK
  5
DF
330
D5
100
AcDbEntity
 67
     1
  8
0
100
AcDbBlockEnd
  0
BLOCK
  5
E0
330
D6
100
AcDbEntity
  8
0
100
AcDbBlockBegin
  2
_OPEN30
 70
     0
 10
0.0
 20
0.0
 30
0.0
  3
_OPEN30
  1

  0
LINE
  5
E1
330
D6
100
AcDbEntity
  8
0
  6
ByBlock
 62
     0
100
AcDbLine
 10
0.0
 20
0.0
 30
0.0
 11
-2.999999954944513
 21
-0.9999999849815248
 31
0.0
  0
LINE
  5
E2
330
D6
100
AcDbEntity
  8
0
  6
ByBlock
 62
     0
100
AcDbLine
 10
0.0
 20
0.0
 30
0.0
 11
-2.999999954944526
 21
0.9999999849814884
 31
0.0
  0
LINE
  5
E3
330
D6
100
AcDbEntity
  8
0
  6
ByBlock
 62
     0
100
AcDbLine
 10
0.0
 20
0.0
 30
0.0
 11
-2.99999995494452
 21
0.0
 31
0.0
  0
ENDBLK
  5
E4
330
D6
100
AcDbEntity
  8
0
100
AcDbBlockEnd
  0
BLOCK
  5
31A
330
310
100
AcDbEntity
  8
0
100
AcDbBlockBegin
  2
*D5
 70
     1
 10
0.0
 20
0.0
 30
0.0
  3
*D5
  1

  0
LINE
  5
1239
330
310
100
AcDbEntity
  8
寸法線
 62
     0
440
 16777216
370
    -2
100
AcDbLine
 10
-61.66715660636896
 20
23.50393253398687
 30
0.0
 11
-83.56817196434015
 21
23.50393253398687
 31
0.0
  0
LINE
  5
123A
330
310
100
AcDbEntity
  8
寸法線
 62
     0
440
 16777216
370
    -2
100
AcDbLine
 10
-66.77516594474787
 20
56.92393213344367
 30
0.0
 11
-83.56817196434015
 21
56.92393213344367
 31
0.0
  0
LINE
  5
123B
330
310
100
AcDbEntity
  8
寸法線
 62
     0
440
 16777216
370
    -2
100
AcDbLine
 10
-81.02817196434017
 20
24.50393253398687
 30
0.0
 11
-81.02817196434015
 21
55.92393213344366
 31
0.0
  0
INSERT
  5
123C
330
310
100
AcDbEntity
  8
寸法線
 62
     0
440
 16777216
370
    -2
100
AcDbBlockReference
  2
_OPEN30
 10
-81.02817196434017
 20
23.50393253398687
 30
0.0
 50
270.0
  0
INSERT
  5
123D
330
310
100
AcDbEntity
  8
寸法線
 62
     0
440
 16777216
370
    -2
100
AcDbBlockReference
  2
_OPEN30
 10
-81.02817196434015
 20
56.92393213344367
 30
0.0
 50
90.0
  0
MTEXT
  5
123E
330
310
100
AcDbEntity
  8
寸法線
 62
     0
440
 16777216
100
AcDbMText
 10
-83.12817198818203
 20
40.21393233371525
 30
0.0
 40
3.200000047683716
 41
0.0
 46
0.0
 71
     5
 72
     1
  1
\A1;D
 11
0.0000000000000001
 21
1.0
 31
0.0
 73
     1
 44
1.0
  0
POINT
  5
123F
330
310
100
AcDbEntity
  8
DEFPOINTS
 62
     0
440
 16777216
100
AcDbPoint
 10
-59.12715664451593
 20
23.50393253398687
 30
0.0
  0
POINT
  5
1240
330
310
100
AcDbEntity
  8
DEFPOINTS
 62
     0
440
 16777216
100
AcDbPoint
 10
-64.23516598289484
 20
56.92393213344367
 30
0.0
  0
POINT
  5
1241
330
310
100
AcDbEntity
  8
DEFPOINTS
 62
     0
440
 16777216
100
AcDbPoint
 10
-81.02817196434015
 20
56.92393213344367
 30
0.0
  0
ENDBLK
  5
31B
330
310
100
AcDbEntity
  8
0
100
AcDbBlockEnd
  0
BLOCK
  5
326
330
31C
100
AcDbEntity
  8
0
100
AcDbBlockBegin
  2
*D6
 70
     1
 10
0.0
 20
0.0
 30
0.0
  3
*D6
  1

  0
LINE
  5
1204
330
31C
100
AcDbEntity
  8
寸法線
 62
     0
440
 16777216
370
    -2
100
AcDbLine
 10
-67.82352867668146
 20
55.36393076015265
 30
0.0
 11
-76.05627865379323
 21
55.36393076015265
 31
0.0
  0
LINE
  5
1205
330
31C
100
AcDbEntity
  8
寸法線
 62
     0
440
 16777216
370
    -2
100
AcDbLine
 10
-67.82352867668146
 20
25.06393247676641
 30
0.0
 11
-76.05627865379327
 21
25.06393247676641
 31
0.0
  0
LINE
  5
1206
330
31C
100
AcDbEntity
  8
寸法線
 62
     0
440
 16777216
370
    -2
100
AcDbLine
 10
-73.51627865379326
 20
54.36393076015265
 30
0.0
 11
-73.51627865379326
 21
26.06393247676642
 31
0.0
  0
INSERT
  5
1207
330
31C
100
AcDbEntity
  8
寸法線
 62
     0
440
 16777216
370
    -2
100
AcDbBlockReference
  2
_OPEN30
 10
-73.51627865379326
 20
55.36393076015265
 30
0.0
 50
90.0
  0
INSERT
  5
1208
330
31C
100
AcDbEntity
  8
寸法線
 62
     0
440
 16777216
370
    -2
100
AcDbBlockReference
  2
_OPEN30
 10
-73.51627865379326
 20
25.06393247676641
 30
0.0
 50
270.0
  0
MTEXT
  5
1209
330
31C
100
AcDbEntity
  8
寸法線
 62
     0
440
 16777216
100
AcDbMText
 10
-75.61627867763515
 20
40.21393161845952
 30
0.0
 40
3.200000047683716
 41
0.0
 46
0.0
 71
     5
 72
     1
  1
\A1;d
 11
0.0000000000000001
 21
1.0
 31
0.0
 73
     1
 44
1.0
  0
POINT
  5
120A
330
31C
100
AcDbEntity
  8
DEFPOINTS
 62
     0
440
 16777216
100
AcDbPoint
 10
-65.28352871482844
 20
55.36393076015265
 30
0.0
  0
POINT
  5
120B
330
31C
100
AcDbEntity
  8
DEFPOINTS
 62
     0
440
 16777216
100
AcDbPoint
 10
-65.28352871482844
 20
25.06393247676641
 30
0.0
  0
POINT
  5
120C
330
31C
100
AcDbEntity
  8
DEFPOINTS
 62
     0
440
 16777216
100
AcDbPoint
 10
-73.51627865379326
 20
25.06393247676641
 30
0.0
  0
ENDBLK
  5
327
330
31C
100
AcDbEntity
  8
0
100
AcDbBlockEnd
  0
BLOCK
  5
332
330
328
100
AcDbEntity
  8
0
100
AcDbBlockBegin
  2
*D7
 70
     1
 10
0.0
 20
0.0
 30
0.0
  3
*D7
  1

  0
LINE
  5
1213
330
328
100
AcDbEntity
  8
寸法線
 62
     0
440
 16777216
370
    -2
100
AcDbLine
 10
-65.28352871482844
 20
22.52393251491338
 30
0.0
 11
-65.28352871482844
 21
11.64646111915495
 31
0.0
  0
LINE
  5
1214
330
328
100
AcDbEntity
  8
寸法線
 62
     0
440
 16777216
370
    -2
100
AcDbLine
 10
85.77257785255438
 20
22.52393251491338
 30
0.0
 11
85.77257785255438
 21
11.64646111915495
 31
0.0
  0
LINE
  5
1215
330
328
100
AcDbEntity
  8
寸法線
 62
     0
440
 16777216
370
    -2
100
AcDbLine
 10
-64.28352871482843
 20
14.18646111915495
 30
0.0
 11
84.77257785255437
 21
14.18646111915495
 31
0.0
  0
INSERT
  5
1216
330
328
100
AcDbEntity
  8
寸法線
 62
     0
440
 16777216
370
    -2
100
AcDbBlockReference
  2
_OPEN30
 10
-65.28352871482844
 20
14.18646111915495
 30
0.0
 50
180.0
  0
INSERT
  5
1217
330
328
100
AcDbEntity
  8
寸法線
 62
     0
440
 16777216
370
    -2
100
AcDbBlockReference
  2
_OPEN30
 10
85.77257785255438
 20
14.18646111915495
 30
0.0
  0
MTEXT
  5
1218
330
328
100
AcDbEntity
  8
寸法線
 62
     0
440
 16777216
100
AcDbMText
 10
10.24452456886297
 20
16.78646114299681
 30
0.0
 40
3.200000047683716
 41
0.0
 46
0.0
 71
     5
 72
     1
  1
\A1;L
 73
     1
 44
1.0
  0
POINT
  5
1219
330
328
100
AcDbEntity
  8
DEFPOINTS
 62
     0
440
 16777216
100
AcDbPoint
 10
-65.28352871482844
 20
25.06393247676641
 30
0.0
  0
POINT
  5
121A
330
328
100
AcDbEntity
  8
DEFPOINTS
 62
     0
440
 16777216
100
AcDbPoint
 10
85.77257785255438
 20
25.06393247676641
 30
0.0
  0
POINT
  5
121B
330
328
100
AcDbEntity
  8
DEFPOINTS
 62
     0
440
 16777216
100
AcDbPoint
 10
85.77257785255438
 20
14.18646111915495
 30
0.0
  0
ENDBLK
  5
333
330
328
100
AcDbEntity
  8
0
100
AcDbBlockEnd
  0
BLOCK
  5
33E
330
334
100
AcDbEntity
  8
0
100
AcDbBlockBegin
  2
*D8
 70
     1
 10
0.0
 20
0.0
 30
0.0
  3
*D8
  1

  0
LINE
  5
127C
330
334
100
AcDbEntity
  8
寸法線
 62
     0
440
 16777216
370
    -2
100
AcDbLine
 10
-53.2918333107757
 20
58.35393148494514
 30
0.0
 11
-53.2918333107757
 21
67.89583827377729
 31
0.0
  0
LINE
  5
127D
330
334
100
AcDbEntity
  8
寸法線
 62
     0
440
 16777216
370
    -2
100
AcDbLine
 10
-43.88383236473077
 20
58.35393148494514
 30
0.0
 11
-43.88383236473077
 21
67.89583827377729
 31
0.0
  0
LINE
  5
127E
330
334
100
AcDbEntity
  8
寸法線
 62
     0
440
 16777216
370
    -2
100
AcDbLine
 10
-52.2918333107757
 20
65.35583827377728
 30
0.0
 11
-44.88383236473078
 21
65.35583827377728
 31
0.0
  0
LINE
  5
127F
330
334
100
AcDbEntity
  8
寸法線
 62
     0
440
 16777216
370
    -2
100
AcDbLine
 10
-43.88383236473077
 20
65.35583827377728
 30
0.0
 11
-30.85716554865514
 21
65.35583827377728
 31
0.0
  0
INSERT
  5
1280
330
334
100
AcDbEntity
  8
寸法線
 62
     0
440
 16777216
370
    -2
100
AcDbBlockReference
  2
_OPEN30
 10
-53.2918333107757
 20
65.35583827377728
 30
0.0
 50
180.0
  0
INSERT
  5
1281
330
334
100
AcDbEntity
  8
寸法線
 62
     0
440
 16777216
370
    -2
100
AcDbBlockReference
  2
_OPEN30
 10
-43.88383236473077
 20
65.35583827377728
 30
0.0
  0
MTEXT
  5
1282
330
334
100
AcDbEntity
  8
寸法線
 62
     0
440
 16777216
100
AcDbMText
 10
-36.87049895669296
 20
67.95583829761915
 30
0.0
 40
3.200000047683716
 41
0.0
 46
0.0
 71
     5
 72
     1
  1
\A1;ピッチ
 73
     1
 44
1.0
  0
POINT
  5
1283
330
334
100
AcDbEntity
  8
DEFPOINTS
 62
     0
440
 16777216
100
AcDbPoint
 10
-53.2918333107757
 20
55.8139315230921
 30
0.0
  0
POINT
  5
1284
330
334
100
AcDbEntity
  8
DEFPOINTS
 62
     0
440
 16777216
100
AcDbPoint
 10
-43.88383236473077
 20
55.8139315230921
 30
0.0
  0
POINT
  5
1285
330
334
100
AcDbEntity
  8
DEFPOINTS
 62
     0
440
 16777216
100
AcDbPoint
 10
-43.88383236473077
 20
65.35583827377728
 30
0.0
  0
ENDBLK
  5
33F
330
334
100
AcDbEntity
  8
0
100
AcDbBlockEnd
  0
BLOCK
  5
F9B
330
F9A
100
AcDbEntity
  8
0
100
AcDbBlockBegin
  2
*D17
 70
     1
 10
0.0
 20
0.0
 30
0.0
  3
*D17
  1

  0
LINE
  5
F9C
330
F9A
100
AcDbEntity
  8
0
  6
Continuous
 62
     7
100
AcDbLine
 10
-78.77278137207031
 20
10.28801579738227
 30
0.0
 11
-78.77278137207028
 21
37.70801548695001
 31
0.0
  0
INSERT
  5
F9D
330
F9A
100
AcDbEntity
  8
0
  6
Continuous
 62
     7
100
AcDbBlockReference
  2
_OPEN30
 10
-78.77278137207031
 20
7.288015842437744
 30
0.0
 50
270.0000000000005
  0
INSERT
  5
F9E
330
F9A
100
AcDbEntity
  8
0
  6
Continuous
 62
     7
100
AcDbBlockReference
  2
_OPEN30
 10
-78.77278137207031
 20
40.70801544189452
 30
0.0
 50
90.00000000000019
  0
LINE
  5
F9F
330
F9A
100
AcDbEntity
  8
0
  6
Continuous
 62
     7
100
AcDbLine
 10
-61.95176597595215
 20
7.288015842437729
 30
0.0
 11
-79.77278137207031
 21
7.288015842437744
 31
0.0
  0
LINE
  5
FA0
330
F9A
100
AcDbEntity
  8
0
  6
Continuous
 62
     7
100
AcDbLine
 10
-67.05977531433105
 20
40.70801544189452
 30
0.0
 11
-79.77278137207031
 21
40.70801544189452
 31
0.0
  0
MTEXT
  5
FA1
330
F9A
100
AcDbEntity
  8
0
  6
Continuous
 62
     7
100
AcDbMText
 10
-78.77278137207031
 20
23.99801635742188
 30
0.0
 40
3.200000047683716
 41
51.20000076293945
 46
0.0
 71
     8
 72
     1
  1
{\W0.923314;∅A}
 11
0.0
 21
1.0
 31
0.0
 73
     1
 44
1.0
  0
POINT
  5
FA2
330
F9A
100
AcDbEntity
  8
DEFPOINTS
  6
Continuous
 62
     7
100
AcDbPoint
 10
-59.41176605224609
 20
7.288015842437744
 30
0.0
  0
POINT
  5
FA3
330
F9A
100
AcDbEntity
  8
DEFPOINTS
  6
Continuous
 62
     7
100
AcDbPoint
 10
-64.519775390625
 20
40.70801544189452
 30
0.0
  0
POINT
  5
FA4
330
F9A
100
AcDbEntity
  8
DEFPOINTS
  6
Continuous
 62
     7
100
AcDbPoint
 10
-78.77278137207031
 20
40.70801544189452
 30
0.0
  0
ENDBLK
  5
FA5
330
F9A
100
AcDbEntity
  8
0
100
AcDbBlockEnd
  0
BLOCK
  5
FA7
330
FA6
100
AcDbEntity
  8
0
100
AcDbBlockBegin
  2
*D18
 70
     1
 10
0.0
 20
0.0
 30
0.0
  3
*D18
  1

  0
LINE
  5
FA8
330
FA6
100
AcDbEntity
  8
0
  6
Continuous
 62
     7
100
AcDbLine
 10
-73.80088806152341
 20
36.148014113659
 30
0.0
 11
-73.80088806152345
 21
11.84801574016181
 31
0.0
  0
INSERT
  5
FA9
330
FA6
100
AcDbEntity
  8
0
  6
Continuous
 62
     7
100
AcDbBlockReference
  2
_OPEN30
 10
-73.80088806152343
 20
39.14801406860352
 30
0.0
 50
90.00000000000019
  0
INSERT
  5
FAA
330
FA6
100
AcDbEntity
  8
0
  6
Continuous
 62
     7
100
AcDbBlockReference
  2
_OPEN30
 10
-73.80088806152343
 20
8.848015785217285
 30
0.0
 50
270.0000000000005
  0
LINE
  5
FAB
330
FA6
100
AcDbEntity
  8
0
  6
Continuous
 62
     7
100
AcDbLine
 10
-68.10813804626464
 20
39.1480140686035
 30
0.0
 11
-74.80088806152344
 21
39.14801406860352
 31
0.0
  0
LINE
  5
FAC
330
FA6
100
AcDbEntity
  8
0
  6
Continuous
 62
     7
100
AcDbLine
 10
-68.10813804626464
 20
8.848015785217269
 30
0.0
 11
-74.80088806152344
 21
8.848015785217285
 31
0.0
  0
MTEXT
  5
FAD
330
FA6
100
AcDbEntity
  8
0
  6
Continuous
 62
     7
100
AcDbMText
 10
-73.80088806152343
 20
23.99801635742188
 30
0.0
 40
3.200000047683716
 41
51.20000076293945
 46
0.0
 71
     8
 72
     1
  1
{\W0.923314;∅B}
 11
0.0
 21
1.0
 31
0.0
 73
     1
 44
1.0
  0
POINT
  5
FAE
330
FA6
100
AcDbEntity
  8
DEFPOINTS
  6
Continuous
 62
     7
100
AcDbPoint
 10
-65.56813812255859
 20
39.14801406860352
 30
0.0
  0
POINT
  5
FAF
330
FA6
100
AcDbEntity
  8
DEFPOINTS
  6
Continuous
 62
     7
100
AcDbPoint
 10
-65.56813812255859
 20
8.848015785217285
 30
0.0
  0
POINT
  5
FB0
330
FA6
100
AcDbEntity
  8
DEFPOINTS
  6
Continuous
 62
     7
100
AcDbPoint
 10
-73.80088806152343
 20
8.848015785217285
 30
0.0
  0
ENDBLK
  5
FB1
330
FA6
100
AcDbEntity
  8
0
100
AcDbBlockEnd
  0
BLOCK
  5
FB3
330
FB2
100
AcDbEntity
  8
0
100
AcDbBlockBegin
  2
*D19
 70
     1
 10
0.0
 20
0.0
 30
0.0
  3
*D19
  1

  0
LINE
  5
FB4
330
FB2
100
AcDbEntity
  8
0
  6
Continuous
 62
     7
100
AcDbLine
 10
-62.56813816761407
 20
-7.446489810943602
 30
0.0
 11
82.4879684898797
 21
-7.446489810943622
 31
0.0
  0
INSERT
  5
FB5
330
FB2
100
AcDbEntity
  8
0
  6
Continuous
 62
     7
100
AcDbBlockReference
  2
_OPEN30
 10
-65.56813812255859
 20
-7.446489810943602
 30
0.0
 50
180.0000000000004
  0
INSERT
  5
FB6
330
FB2
100
AcDbEntity
  8
0
  6
Continuous
 62
     7
100
AcDbBlockReference
  2
_OPEN30
 10
85.48796844482422
 20
-7.446489810943602
 30
0.0
  0
LINE
  5
FB7
330
FB2
100
AcDbEntity
  8
0
  6
Continuous
 62
     7
100
AcDbLine
 10
-65.56813812255858
 20
6.30801586151123
 30
0.0
 11
-65.56813812255859
 21
-8.446490287780763
 31
0.0
  0
LINE
  5
FB8
330
FB2
100
AcDbEntity
  8
0
  6
Continuous
 62
     7
100
AcDbLine
 10
85.48796844482422
 20
6.30801586151123
 30
0.0
 11
85.48796844482422
 21
-8.446490287780763
 31
0.0
  0
MTEXT
  5
FB9
330
FB2
100
AcDbEntity
  8
0
  6
Continuous
 62
     7
100
AcDbMText
 10
9.959915161132812
 20
-7.446489810943602
 30
0.0
 40
3.200000047683716
 41
4.571430683135986
 46
0.0
 71
     8
 72
     1
  1
{\W1;L}
 73
     1
 44
1.0
  0
POINT
  5
FBA
330
FB2
100
AcDbEntity
  8
DEFPOINTS
  6
Continuous
 62
     7
100
AcDbPoint
 10
-65.56813812255859
 20
8.848015785217285
 30
0.0
  0
POINT
  5
FBB
330
FB2
100
AcDbEntity
  8
DEFPOINTS
  6
Continuous
 62
     7
100
AcDbPoint
 10
85.48796844482422
 20
8.848015785217285
 30
0.0
  0
POINT
  5
FBC
330
FB2
100
AcDbEntity
  8
DEFPOINTS
  6
Continuous
 62
     7
100
AcDbPoint
 10
85.48796844482422
 20
-7.446489810943602
 30
0.0
  0
ENDBLK
  5
FBD
330
FB2
100
AcDbEntity
  8
0
100
AcDbBlockEnd
  0
BLOCK
  5
FBF
330
FBE
100
AcDbEntity
  8
0
100
AcDbBlockBegin
  2
*D20
 70
     1
 10
0.0
 20
0.0
 30
0.0
  3
*D20
  1

  0
LINE
  5
FC0
330
FBE
100
AcDbEntity
  8
0
  6
Continuous
 62
     7
100
AcDbLine
 10
-50.57644276356136
 20
43.89682388305664
 30
0.0
 11
-47.16844172740546
 21
43.89682388305661
 31
0.0
  0
INSERT
  5
FC1
330
FBE
100
AcDbEntity
  8
0
  6
Continuous
 62
     7
100
AcDbBlockReference
  2
_OPEN30
 10
-53.57644271850586
 20
43.89682388305664
 30
0.0
 50
180.0000000000004
  0
INSERT
  5
FC2
330
FBE
100
AcDbEntity
  8
0
  6
Continuous
 62
     7
100
AcDbBlockReference
  2
_OPEN30
 10
-44.16844177246093
 20
43.89682388305664
 30
0.0
  0
LINE
  5
FC3
330
FBE
100
AcDbEntity
  8
0
  6
Continuous
 62
     7
100
AcDbLine
 10
-53.57644271850587
 20
42.13801475524902
 30
0.0
 11
-53.57644271850586
 21
44.89682388305664
 31
0.0
  0
LINE
  5
FC4
330
FBE
100
AcDbEntity
  8
0
  6
Continuous
 62
     7
100
AcDbLine
 10
-44.16844177246096
 20
42.13801475524902
 30
0.0
 11
-44.16844177246093
 21
44.89682388305664
 31
0.0
  0
MTEXT
  5
FC5
330
FBE
100
AcDbEntity
  8
0
  6
Continuous
 62
     7
100
AcDbMText
 10
-48.87244033813477
 20
43.89682388305664
 30
0.0
 40
3.200000047683716
 41
4.571430683135986
 46
0.0
 71
     8
 72
     1
  1
{\W1;P}
 73
     1
 44
1.0
  0
POINT
  5
FC6
330
FBE
100
AcDbEntity
  8
DEFPOINTS
  6
Continuous
 62
     7
100
AcDbPoint
 10
-53.57644271850586
 20
39.59801483154297
 30
0.0
  0
POINT
  5
FC7
330
FBE
100
AcDbEntity
  8
DEFPOINTS
  6
Continuous
 62
     7
100
AcDbPoint
 10
-44.16844177246093
 20
39.59801483154297
 30
0.0
  0
POINT
  5
FC8
330
FBE
100
AcDbEntity
  8
DEFPOINTS
  6
Continuous
 62
     7
100
AcDbPoint
 10
-44.16844177246093
 20
43.89682388305664
 30
0.0
  0
ENDBLK
  5
FC9
330
FBE
100
AcDbEntity
  8
0
100
AcDbBlockEnd
  0
BLOCK
  5
1168
330
FCA
100
AcDbEntity
  8
0
100
AcDbBlockBegin
  2
A$C610F77D3
 70
     0
 10
0.0
 20
0.0
 30
0.0
  3
A$C610F77D3
  1

  0
LINE
  5
FCB
330
FCA
100
AcDbEntity
  8
0
  6
Continuous
 62
     7
100
AcDbLine
 10
16.40464295512254
 20
47.59450439964099
 30
0.0
 11
16.93272675639207
 21
47.59450439964099
 31
0.0
  0
LINE
  5
FCC
330
FCA
100
AcDbEntity
  8
0
  6
Continuous
 62
     7
100
AcDbLine
 10
16.40464295512254
 20
17.29450611625475
 30
0.0
 11
21.56386841898973
 21
17.29450611625475
 31
0.0
  0
LINE
  5
FCD
330
FCA
100
AcDbEntity
  8
0
  6
Continuous
 62
     7
100
AcDbLine
 10
24.83714079018107
 20
15.73450496811984
 30
0.0
 11
19.72913123268245
 21
49.15450537503435
 31
0.0
  0
LINE
  5
FCE
330
FCA
100
AcDbEntity
  8
0
  6
Continuous
 62
     7
100
AcDbLine
 10
25.88142160509221
 20
16.8445049526893
 30
0.0
 11
21.11272312489306
 21
48.04450631422763
 31
0.0
  0
LINE
  5
FCF
330
FCA
100
AcDbEntity
  8
0
  6
Continuous
 62
     7
100
AcDbLine
 10
21.1815022385698
 20
47.59450439964099
 30
0.0
 11
26.34073151713425
 21
47.59450439964099
 31
0.0
  0
LINE
  5
FD0
330
FCA
100
AcDbEntity
  8
0
  6
Continuous
 62
     7
100
AcDbLine
 10
18.07788361674363
 20
48.04450516258043
 30
0.0
 11
19.8987873948198
 21
48.04450516258043
 31
0.0
  0
LINE
  5
FD1
330
FCA
100
AcDbEntity
  8
0
  6
Continuous
 62
     7
100
AcDbLine
 10
17.45300568705613
 20
49.15450577293199
 30
0.0
 11
17.90822877055223
 21
49.15450577293199
 31
0.0
  0
LINE
  5
FD2
330
FCA
100
AcDbEntity
  8
0
  6
Continuous
 62
     7
100
AcDbLine
 10
23.01623810927029
 20
15.73450479915744
 30
0.0
 11
17.9082286958607
 21
49.15450426334555
 31
0.0
  0
LINE
  5
FD3
330
FCA
100
AcDbEntity
  8
0
  6
Continuous
 62
     7
100
AcDbLine
 10
21.6326459288816
 20
16.84450574541694
 30
0.0
 11
16.86394744868248
 21
48.04450710695528
 31
0.0
  0
LINE
  5
FD4
330
FCA
100
AcDbEntity
  8
0
  6
Continuous
 62
     7
100
AcDbLine
 10
22.08787250581345
 20
16.84450616742816
 30
0.0
 11
17.31917460197043
 21
48.04450375806093
 31
0.0
  0
LINE
  5
FD5
330
FCA
100
AcDbEntity
  8
0
  6
Continuous
 62
     7
100
AcDbLine
 10
25.42619502816037
 20
16.84450453067807
 30
0.0
 11
20.65749654796124
 21
48.04450589221643
 31
0.0
  0
LINE
  5
FD6
330
FCA
100
AcDbEntity
  8
0
  6
Continuous
 62
     7
100
AcDbLine
 10
25.29236736711289
 20
15.73450539013107
 30
0.0
 11
20.18435780961428
 21
49.15450579704558
 31
0.0
  0
LINE
  5
FD7
330
FCA
100
AcDbEntity
  8
0
  6
Continuous
 62
     7
100
AcDbLine
 10
22.56101124416039
 20
15.734506262599
 30
0.0
 11
17.45300211892885
 21
49.15450384133436
 31
0.0
  0
LINE
  5
FD8
330
FCA
100
AcDbEntity
  8
0
  6
Continuous
 62
     7
100
AcDbLine
 10
17.31917380703329
 20
48.04450620271452
 30
0.0
 11
17.45300207888881
 21
49.15450591441625
 31
0.0
  0
LINE
  5
FD9
330
FCA
100
AcDbEntity
  8
0
  6
Continuous
 62
     7
100
AcDbLine
 10
20.18436049861163
 20
49.15450695583903
 30
0.0
 11
20.65749946966495
 21
48.04450822762706
 31
0.0
  0
LINE
  5
FDA
330
FCA
100
AcDbEntity
  8
0
  6
Continuous
 62
     7
100
AcDbLine
 10
19.72913254862841
 20
49.15450577293199
 30
0.0
 11
20.18435944682175
 21
49.15450577293199
 31
0.0
  0
LINE
  5
FDB
330
FCA
100
AcDbEntity
  8
0
  6
Continuous
 62
     7
100
AcDbLine
 10
16.86394776469285
 20
48.04450516258043
 30
0.0
 11
17.31917847758348
 21
48.04450516258043
 31
0.0
  0
LINE
  5
FDC
330
FCA
100
AcDbEntity
  8
0
  6
Continuous
 62
     7
100
AcDbLine
 10
20.6575001633745
 20
48.04450516258043
 30
0.0
 11
21.11272324687059
 21
48.04450516258043
 31
0.0
  0
LINE
  5
FDD
330
FCA
100
AcDbEntity
  8
0
  6
Continuous
 62
     7
100
AcDbLine
 10
18.07788361674363
 20
48.04450516258043
 30
0.0
 11
19.8987873948198
 21
48.04450516258043
 31
0.0
  0
LINE
  5
FDE
330
FCA
100
AcDbEntity
  8
0
  6
Continuous
 62
     7
100
AcDbLine
 10
25.81264390116746
 20
17.29450611625475
 30
0.0
 11
30.97186936503466
 21
17.29450611625475
 31
0.0
  0
LINE
  5
FDF
330
FCA
100
AcDbEntity
  8
0
  6
Continuous
 62
     7
100
AcDbLine
 10
22.56101502543504
 20
15.73450617347521
 30
0.0
 11
23.01623810893113
 21
15.73450617347521
 31
0.0
  0
LINE
  5
FE0
330
FCA
100
AcDbEntity
  8
0
  6
Continuous
 62
     7
100
AcDbLine
 10
21.63264741068894
 20
16.84450630698961
 30
0.0
 11
22.0878743088823
 21
16.84450630698961
 31
0.0
  0
LINE
  5
FE1
330
FCA
100
AcDbEntity
  8
0
  6
Continuous
 62
     7
100
AcDbLine
 10
22.08787361182896
 20
16.84450632271554
 30
0.0
 11
22.56101333078381
 21
15.73450583990332
 31
0.0
  0
LINE
  5
FE2
330
FCA
100
AcDbEntity
  8
0
  6
Continuous
 62
     7
100
AcDbLine
 10
25.29237025667451
 20
15.73450577762961
 30
0.0
 11
25.42619856777045
 21
16.84450581479986
 31
0.0
  0
LINE
  5
FE3
330
FCA
100
AcDbEntity
  8
0
  6
Continuous
 62
     7
100
AcDbLine
 10
24.83714188700731
 20
15.73450617347521
 30
0.0
 11
25.29236878520066
 21
15.73450617347521
 31
0.0
  0
LINE
  5
FE4
330
FCA
100
AcDbEntity
  8
0
  6
Continuous
 62
     7
100
AcDbLine
 10
22.84658326273973
 20
16.84450630698961
 30
0.0
 11
24.66748704081591
 21
16.84450630698961
 31
0.0
  0
LINE
  5
FE5
330
FCA
100
AcDbEntity
  8
0
  6
Continuous
 62
     7
100
AcDbLine
 10
25.42619599467332
 20
16.84450630698961
 30
0.0
 11
25.88142289286668
 21
16.84450630698961
 31
0.0
  0
LINE
  5
FE6
330
FCA
100
AcDbEntity
  8
0
  6
Continuous
 62
     7
100
AcDbLine
 10
34.24514500828785
 20
15.73450611213981
 30
0.0
 11
29.13713573896731
 21
49.15450463360154
 31
0.0
  0
LINE
  5
FE7
330
FCA
100
AcDbEntity
  8
0
  6
Continuous
 62
     7
100
AcDbLine
 10
35.28942205229342
 20
16.84450552035315
 30
0.0
 11
30.52072386027234
 21
48.04450499643867
 31
0.0
  0
LINE
  5
FE8
330
FCA
100
AcDbEntity
  8
0
  6
Continuous
 62
     7
100
AcDbLine
 10
30.58950699931199
 20
47.59450439964099
 30
0.0
 11
35.74873246317918
 21
47.59450439964099
 31
0.0
  0
LINE
  5
FE9
330
FCA
100
AcDbEntity
  8
0
  6
Continuous
 62
     7
100
AcDbLine
 10
27.48588837748582
 20
48.04450516258043
 30
0.0
 11
29.30678834086473
 21
48.04450516258043
 31
0.0
  0
LINE
  5
FEA
330
FCA
100
AcDbEntity
  8
0
  6
Continuous
 62
     7
100
AcDbLine
 10
26.86100663310106
 20
49.15450577293199
 30
0.0
 11
27.31622971659716
 21
49.15450577293199
 31
0.0
  0
LINE
  5
FEB
330
FCA
100
AcDbEntity
  8
0
  6
Continuous
 62
     7
100
AcDbLine
 10
32.4242385564715
 20
15.73450536682129
 30
0.0
 11
27.31622885488385
 21
49.15450671646218
 31
0.0
  0
LINE
  5
FEC
330
FCA
100
AcDbEntity
  8
0
  6
Continuous
 62
     7
100
AcDbLine
 10
31.04065029107743
 20
16.84450594671051
 30
0.0
 11
26.27195195496732
 21
48.04450636552246
 31
0.0
  0
LINE
  5
FED
330
FCA
100
AcDbEntity
  8
0
  6
Continuous
 62
     7
100
AcDbLine
 10
31.49587309710368
 20
16.84450579236562
 30
0.0
 11
26.72717476099357
 21
48.04450621117755
 31
0.0
  0
LINE
  5
FEE
330
FCA
100
AcDbEntity
  8
0
  6
Continuous
 62
     7
100
AcDbLine
 10
34.83419924626717
 20
16.84450567469804
 30
0.0
 11
30.06550105424608
 21
48.04450515078361
 31
0.0
  0
LINE
  5
FEF
330
FCA
100
AcDbEntity
  8
0
  6
Continuous
 62
     7
100
AcDbLine
 10
34.70036795840314
 20
15.73450501506853
 30
0.0
 11
29.59235854499356
 21
49.15450447925664
 31
0.0
  0
LINE
  5
FF0
330
FCA
100
AcDbEntity
  8
0
  6
Continuous
 62
     7
100
AcDbLine
 10
31.96901575044524
 20
15.73450552116618
 30
0.0
 11
26.86100604885761
 21
49.15450687080706
 31
0.0
  0
LINE
  5
FF1
330
FCA
100
AcDbEntity
  8
0
  6
Continuous
 62
     7
100
AcDbLine
 10
26.7271778146275
 20
48.04450481980918
 30
0.0
 11
26.861006086483
 21
49.15450453151088
 31
0.0
  0
LINE
  5
FF2
330
FCA
100
AcDbEntity
  8
0
  6
Continuous
 62
     7
100
AcDbLine
 10
29.59235998465771
 20
49.15450631879085
 30
0.0
 11
30.06549895571104
 21
48.04450759057889
 31
0.0
  0
LINE
  5
FF3
330
FCA
100
AcDbEntity
  8
0
  6
Continuous
 62
     7
100
AcDbLine
 10
29.13713349467332
 20
49.15450577293199
 30
0.0
 11
29.59236039286668
 21
49.15450577293199
 31
0.0
  0
LINE
  5
FF4
330
FCA
100
AcDbEntity
  8
0
  6
Continuous
 62
     7
100
AcDbLine
 10
26.27195252543504
 20
48.04450516258043
 30
0.0
 11
26.72717560893114
 21
48.04450516258043
 31
0.0
  0
LINE
  5
FF5
330
FCA
100
AcDbEntity
  8
0
  6
Continuous
 62
     7
100
AcDbLine
 10
30.06550110941943
 20
48.04450516258043
 30
0.0
 11
30.5207241929155
 21
48.04450516258043
 31
0.0
  0
LINE
  5
FF6
330
FCA
100
AcDbEntity
  8
0
  6
Continuous
 62
     7
100
AcDbLine
 10
27.48588837748582
 20
48.04450516258043
 30
0.0
 11
29.30678834086473
 21
48.04450516258043
 31
0.0
  0
LINE
  5
FF7
330
FCA
100
AcDbEntity
  8
0
  6
Continuous
 62
     7
100
AcDbLine
 10
35.22064484721239
 20
17.29450611625475
 30
0.0
 11
40.37987031107957
 21
17.29450611625475
 31
0.0
  0
LINE
  5
FF8
330
FCA
100
AcDbEntity
  8
0
  6
Continuous
 62
     7
100
AcDbLine
 10
31.96901597147996
 20
15.73450617347521
 30
0.0
 11
32.42423905497606
 21
15.73450617347521
 31
0.0
  0
LINE
  5
FF9
330
FCA
100
AcDbEntity
  8
0
  6
Continuous
 62
     7
100
AcDbLine
 10
31.04064835673386
 20
16.84450630698961
 30
0.0
 11
31.49587525492723
 21
16.84450630698961
 31
0.0
  0
LINE
  5
FFA
330
FCA
100
AcDbEntity
  8
0
  6
Continuous
 62
     7
100
AcDbLine
 10
31.49587660707559
 20
16.84450718147045
 30
0.0
 11
31.96901632603043
 21
15.73450669865822
 31
0.0
  0
LINE
  5
FFB
330
FCA
100
AcDbEntity
  8
0
  6
Continuous
 62
     7
100
AcDbLine
 10
34.70037060185432
 20
15.73450588692219
 30
0.0
 11
34.8341989165176
 21
16.84450595368049
 31
0.0
  0
LINE
  5
FFC
330
FCA
100
AcDbEntity
  8
0
  6
Continuous
 62
     7
100
AcDbLine
 10
34.24514283305223
 20
15.73450617347521
 30
0.0
 11
34.70036973124559
 21
15.73450617347521
 31
0.0
  0
LINE
  5
FFD
330
FCA
100
AcDbEntity
  8
0
  6
Continuous
 62
     7
100
AcDbLine
 10
32.25458420878466
 20
16.84450630698961
 30
0.0
 11
34.07548798686082
 21
16.84450630698961
 31
0.0
  0
LINE
  5
FFE
330
FCA
100
AcDbEntity
  8
0
  6
Continuous
 62
     7
100
AcDbLine
 10
34.83419694071824
 20
16.84450630698961
 30
0.0
 11
35.2894238389116
 21
16.84450630698961
 31
0.0
  0
LINE
  5
FFF
330
FCA
100
AcDbEntity
  8
0
  6
Continuous
 62
     7
100
AcDbLine
 10
43.65314559957809
 20
15.73450573707727
 30
0.0
 11
38.54513589799045
 21
49.15450708671817
 31
0.0
  0
LINE
  5
1000
330
FCA
100
AcDbEntity
  8
0
  6
Continuous
 62
     7
100
AcDbLine
 10
44.69742641448923
 20
16.84450572164673
 30
0.0
 11
39.92872836655718
 21
48.0445042550059
 31
0.0
  0
LINE
  5
1001
330
FCA
100
AcDbEntity
  8
0
  6
Continuous
 62
     7
100
AcDbLine
 10
39.99750794535692
 20
47.59450439964099
 30
0.0
 11
45.1567334092241
 21
47.59450439964099
 31
0.0
  0
LINE
  5
1002
330
FCA
100
AcDbEntity
  8
0
  6
Continuous
 62
     7
100
AcDbLine
 10
36.89388932353074
 20
48.04450516258043
 30
0.0
 11
38.71479310160692
 21
48.04450516258043
 31
0.0
  0
LINE
  5
1003
330
FCA
100
AcDbEntity
  8
0
  6
Continuous
 62
     7
100
AcDbLine
 10
36.26900757914598
 20
49.15450577293199
 30
0.0
 11
36.72423066264207
 21
49.15450577293199
 31
0.0
  0
LINE
  5
1004
330
FCA
100
AcDbEntity
  8
0
  6
Continuous
 62
     7
100
AcDbLine
 10
41.83224291866731
 20
15.73450556811486
 30
0.0
 11
36.72423336116871
 21
49.15450597502936
 31
0.0
  0
LINE
  5
1005
330
FCA
100
AcDbEntity
  8
0
  6
Continuous
 62
     7
100
AcDbLine
 10
40.44865088236766
 20
16.84450557164797
 30
0.0
 11
35.67995269034661
 21
48.04450504773353
 31
0.0
  0
LINE
  5
1006
330
FCA
100
AcDbEntity
  8
0
  6
Continuous
 62
     7
100
AcDbLine
 10
40.9038774592995
 20
16.8445059936592
 30
0.0
 11
36.13517926727844
 21
48.04450546974475
 31
0.0
  0
LINE
  5
1007
330
FCA
100
AcDbEntity
  8
0
  6
Continuous
 62
     7
100
AcDbLine
 10
44.24219969346838
 20
16.84450624236189
 30
0.0
 11
39.47350121326925
 21
48.04450760390022
 31
0.0
  0
LINE
  5
1008
330
FCA
100
AcDbEntity
  8
0
  6
Continuous
 62
     7
100
AcDbLine
 10
44.10837217650992
 20
15.73450615908849
 30
0.0
 11
39.00036247492229
 21
49.15450750872938
 31
0.0
  0
LINE
  5
1009
330
FCA
100
AcDbEntity
  8
0
  6
Continuous
 62
     7
100
AcDbLine
 10
41.37701619764643
 20
15.73450608883003
 30
0.0
 11
36.26900678423687
 21
49.15450555301815
 31
0.0
  0
LINE
  5
100A
330
FCA
100
AcDbEntity
  8
0
  6
Continuous
 62
     7
100
AcDbLine
 10
36.13517849156753
 20
48.04450768079039
 30
0.0
 11
36.26900676342304
 21
49.15450739249211
 31
0.0
  0
LINE
  5
100B
330
FCA
100
AcDbEntity
  8
0
  6
Continuous
 62
     7
100
AcDbLine
 10
39.00036122530406
 20
49.15450642964422
 30
0.0
 11
39.47350019635738
 21
48.04450770143223
 31
0.0
  0
LINE
  5
100C
330
FCA
100
AcDbEntity
  8
0
  6
Continuous
 62
     7
100
AcDbLine
 10
38.54513444071825
 20
49.15450577293199
 30
0.0
 11
39.0003613389116
 21
49.15450577293199
 31
0.0
  0
LINE
  5
100D
330
FCA
100
AcDbEntity
  8
0
  6
Continuous
 62
     7
100
AcDbLine
 10
35.67995347147996
 20
48.04450516258043
 30
0.0
 11
36.13517655497606
 21
48.04450516258043
 31
0.0
  0
LINE
  5
100E
330
FCA
100
AcDbEntity
  8
0
  6
Continuous
 62
     7
100
AcDbLine
 10
39.47350205546435
 20
48.04450516258043
 30
0.0
 11
39.92872895365771
 21
48.04450516258043
 31
0.0
  0
LINE
  5
100F
330
FCA
100
AcDbEntity
  8
0
  6
Continuous
 62
     7
100
AcDbLine
 10
36.89388932353074
 20
48.04450516258043
 30
0.0
 11
38.71479310160692
 21
48.04450516258043
 31
0.0
  0
LINE
  5
1010
330
FCA
100
AcDbEntity
  8
0
  6
Continuous
 62
     7
100
AcDbLine
 10
44.62864579325731
 20
17.29450611625475
 30
0.0
 11
49.78787125712449
 21
17.29450611625475
 31
0.0
  0
LINE
  5
1011
330
FCA
100
AcDbEntity
  8
0
  6
Continuous
 62
     7
100
AcDbLine
 10
41.37701691752488
 20
15.73450617347521
 30
0.0
 11
41.83224000102097
 21
15.73450617347521
 31
0.0
  0
LINE
  5
1012
330
FCA
100
AcDbEntity
  8
0
  6
Continuous
 62
     7
100
AcDbLine
 10
40.44864930277879
 20
16.84450630698961
 30
0.0
 11
40.90387620097216
 21
16.84450630698961
 31
0.0
  0
LINE
  5
1013
330
FCA
100
AcDbEntity
  8
0
  6
Continuous
 62
     7
100
AcDbLine
 10
40.90387609312164
 20
16.84450654442227
 30
0.0
 11
41.37701581207653
 21
15.73450606161005
 31
0.0
  0
LINE
  5
1014
330
FCA
100
AcDbEntity
  8
0
  6
Continuous
 62
     7
100
AcDbLine
 10
44.10837095060146
 20
15.73450602580282
 30
0.0
 11
44.24219925099546
 21
16.84450597420892
 31
0.0
  0
LINE
  5
1015
330
FCA
100
AcDbEntity
  8
0
  6
Continuous
 62
     7
100
AcDbLine
 10
43.65314377909713
 20
15.73450617347521
 30
0.0
 11
44.10837067729049
 21
15.73450617347521
 31
0.0
  0
LINE
  5
1016
330
FCA
100
AcDbEntity
  8
0
  6
Continuous
 62
     7
100
AcDbLine
 10
41.66258515482957
 20
16.84450630698961
 30
0.0
 11
43.48348893290574
 21
16.84450630698961
 31
0.0
  0
LINE
  5
1017
330
FCA
100
AcDbEntity
  8
0
  6
Continuous
 62
     7
100
AcDbLine
 10
44.24219788676317
 20
16.84450630698961
 30
0.0
 11
44.69742478495652
 21
16.84450630698961
 31
0.0
  0
LINE
  5
1018
330
FCA
100
AcDbEntity
  8
0
  6
Continuous
 62
     7
100
AcDbLine
 10
53.06114619086833
 20
15.73450536201472
 30
0.0
 11
47.95313663336972
 21
49.15450576892924
 31
0.0
  0
LINE
  5
1019
330
FCA
100
AcDbEntity
  8
0
  6
Continuous
 62
     7
100
AcDbLine
 10
54.10542686169042
 20
16.84450628931058
 30
0.0
 11
49.33672852558035
 21
48.04450670812252
 31
0.0
  0
LINE
  5
101A
330
FCA
100
AcDbEntity
  8
0
  6
Continuous
 62
     7
100
AcDbLine
 10
49.40550889140182
 20
47.59450439964099
 30
0.0
 11
54.56473435526902
 21
47.59450439964099
 31
0.0
  0
LINE
  5
101B
330
FCA
100
AcDbEntity
  8
0
  6
Continuous
 62
     7
100
AcDbLine
 10
46.30189026957565
 20
48.04450516258043
 30
0.0
 11
48.12279404765182
 21
48.04450516258043
 31
0.0
  0
LINE
  5
101C
330
FCA
100
AcDbEntity
  8
0
  6
Continuous
 62
     7
100
AcDbLine
 10
45.67700852519091
 20
49.15450577293199
 30
0.0
 11
46.13223542338424
 21
49.15450577293199
 31
0.0
  0
LINE
  5
101D
330
FCA
100
AcDbEntity
  8
0
  6
Continuous
 62
     7
100
AcDbLine
 10
51.24024336586852
 20
15.73450613577871
 30
0.0
 11
46.13223409654795
 21
49.15450465724044
 31
0.0
  0
LINE
  5
101E
330
FCA
100
AcDbEntity
  8
0
  6
Continuous
 62
     7
100
AcDbLine
 10
49.85665132956886
 20
16.84450613931182
 30
0.0
 11
45.08795284936974
 21
48.04450750085015
 31
0.0
  0
LINE
  5
101F
330
FCA
100
AcDbEntity
  8
0
  6
Continuous
 62
     7
100
AcDbLine
 10
50.31187805058974
 20
16.84450561859665
 30
0.0
 11
45.54318000265769
 21
48.04450415195582
 31
0.0
  0
LINE
  5
1020
330
FCA
100
AcDbEntity
  8
0
  6
Continuous
 62
     7
100
AcDbLine
 10
53.65020028475861
 20
16.84450586729935
 30
0.0
 11
48.8815019486485
 21
48.04450628611128
 31
0.0
  0
LINE
  5
1021
330
FCA
100
AcDbEntity
  8
0
  6
Continuous
 62
     7
100
AcDbLine
 10
53.51637276780017
 20
15.73450578402595
 30
0.0
 11
48.40836321030154
 21
49.15450619094046
 31
0.0
  0
LINE
  5
1022
330
FCA
100
AcDbEntity
  8
0
  6
Continuous
 62
     7
100
AcDbLine
 10
50.78501678893669
 20
15.73450571376748
 30
0.0
 11
45.67700751961615
 21
49.15450423522922
 31
0.0
  0
LINE
  5
1023
330
FCA
100
AcDbEntity
  8
0
  6
Continuous
 62
     7
100
AcDbLine
 10
45.54317871189137
 20
48.04450675450123
 30
0.0
 11
45.67700698374685
 21
49.15450646620293
 31
0.0
  0
LINE
  5
1024
330
FCA
100
AcDbEntity
  8
0
  6
Continuous
 62
     7
100
AcDbLine
 10
48.40836334325054
 20
49.15450691444835
 30
0.0
 11
48.88150381010692
 21
48.04450467703585
 31
0.0
  0
LINE
  5
1025
330
FCA
100
AcDbEntity
  8
0
  6
Continuous
 62
     7
100
AcDbLine
 10
47.95313538676317
 20
49.15450577293199
 30
0.0
 11
48.40836228495652
 21
49.15450577293199
 31
0.0
  0
LINE
  5
1026
330
FCA
100
AcDbEntity
  8
0
  6
Continuous
 62
     7
100
AcDbLine
 10
45.08795441752488
 20
48.04450516258043
 30
0.0
 11
45.54318131571824
 21
48.04450516258043
 31
0.0
  0
LINE
  5
1027
330
FCA
100
AcDbEntity
  8
0
  6
Continuous
 62
     7
100
AcDbLine
 10
48.88150300150924
 20
48.04450516258043
 30
0.0
 11
49.3367298997026
 21
48.04450516258043
 31
0.0
  0
LINE
  5
1028
330
FCA
100
AcDbEntity
  8
0
  6
Continuous
 62
     7
100
AcDbLine
 10
46.30189026957565
 20
48.04450516258043
 30
0.0
 11
48.12279404765182
 21
48.04450516258043
 31
0.0
  0
LINE
  5
1029
330
FCA
100
AcDbEntity
  8
0
  6
Continuous
 62
     7
100
AcDbLine
 10
54.03664673930221
 20
17.29450611625475
 30
0.0
 11
59.19587411051804
 21
17.29450611625475
 31
0.0
  0
LINE
  5
102A
330
FCA
100
AcDbEntity
  8
0
  6
Continuous
 62
     7
100
AcDbLine
 10
50.78501786356979
 20
15.73450617347521
 30
0.0
 11
51.24024285441453
 21
15.73450617347521
 31
0.0
  0
LINE
  5
102B
330
FCA
100
AcDbEntity
  8
0
  6
Continuous
 62
     7
100
AcDbLine
 10
49.85665024882371
 20
16.84450630698961
 30
0.0
 11
50.31187714701707
 21
16.84450630698961
 31
0.0
  0
LINE
  5
102C
330
FCA
100
AcDbEntity
  8
0
  6
Continuous
 62
     7
100
AcDbLine
 10
50.311877333768
 20
16.84450665527563
 30
0.0
 11
50.78501705272286
 21
15.73450617246341
 31
0.0
  0
LINE
  5
102D
330
FCA
100
AcDbEntity
  8
0
  6
Continuous
 62
     7
100
AcDbLine
 10
53.51637317871453
 20
15.73450581802316
 30
0.0
 11
53.65020147910853
 21
16.84450576642926
 31
0.0
  0
LINE
  5
102E
330
FCA
100
AcDbEntity
  8
0
  6
Continuous
 62
     7
100
AcDbLine
 10
53.0611466324907
 20
15.73450617347521
 30
0.0
 11
53.51637162333543
 21
15.73450617347521
 31
0.0
  0
LINE
  5
102F
330
FCA
100
AcDbEntity
  8
0
  6
Continuous
 62
     7
100
AcDbLine
 10
51.07058800822311
 20
16.84450630698961
 30
0.0
 11
52.8914917862993
 21
16.84450630698961
 31
0.0
  0
LINE
  5
1030
330
FCA
100
AcDbEntity
  8
0
  6
Continuous
 62
     7
100
AcDbLine
 10
53.65020074015672
 20
16.84450630698961
 30
0.0
 11
54.10542573100143
 21
16.84450630698961
 31
0.0
  0
LINE
  5
1031
330
FCA
100
AcDbEntity
  8
0
  6
Continuous
 62
     7
100
AcDbLine
 10
62.46914852352233
 20
15.73450621785663
 30
0.0
 11
57.36113925420178
 21
49.15450473931836
 31
0.0
  0
LINE
  5
1032
330
FCA
100
AcDbEntity
  8
0
  6
Continuous
 62
     7
100
AcDbLine
 10
63.51342745298069
 20
16.84450591424803
 30
0.0
 11
58.74472926095961
 21
48.04450539033357
 31
0.0
  0
LINE
  5
1033
330
FCA
100
AcDbEntity
  8
0
  6
Continuous
 62
     7
100
AcDbLine
 10
58.81350983744676
 20
47.59450439964099
 30
0.0
 11
63.97273530131393
 21
47.59450439964099
 31
0.0
  0
LINE
  5
1034
330
FCA
100
AcDbEntity
  8
0
  6
Continuous
 62
     7
100
AcDbLine
 10
55.70989121562059
 20
48.04450516258043
 30
0.0
 11
57.53079499369674
 21
48.04450516258043
 31
0.0
  0
LINE
  5
1035
330
FCA
100
AcDbEntity
  8
0
  6
Continuous
 62
     7
100
AcDbLine
 10
55.08500947123582
 20
49.15450577293199
 30
0.0
 11
55.54023446208055
 21
49.15450577293199
 31
0.0
  0
LINE
  5
1036
330
FCA
100
AcDbEntity
  8
0
  6
Continuous
 62
     7
100
AcDbLine
 10
60.64824395715874
 20
15.73450576071617
 30
0.0
 11
55.54023425557112
 21
49.15450711035707
 31
0.0
  0
LINE
  5
1037
330
FCA
100
AcDbEntity
  8
0
  6
Continuous
 62
     7
100
AcDbLine
 10
59.2646538063119
 20
16.84450605242734
 30
0.0
 11
54.4959554702018
 21
48.04450647123928
 31
0.0
  0
LINE
  5
1038
330
FCA
100
AcDbEntity
  8
0
  6
Continuous
 62
     7
100
AcDbLine
 10
59.71987849779096
 20
16.84450618626051
 30
0.0
 11
54.95118016168085
 21
48.04450660507244
 31
0.0
  0
LINE
  5
1039
330
FCA
100
AcDbEntity
  8
0
  6
Continuous
 62
     7
100
AcDbLine
 10
63.05820276150164
 20
16.84450578041486
 30
0.0
 11
58.28950456948057
 21
48.04450525650042
 31
0.0
  0
LINE
  5
103A
330
FCA
100
AcDbEntity
  8
0
  6
Continuous
 62
     7
100
AcDbLine
 10
62.92437335909039
 20
15.73450540896341
 30
0.0
 11
57.81636394568081
 21
49.15450487315153
 31
0.0
  0
LINE
  5
103B
330
FCA
100
AcDbEntity
  8
0
  6
Continuous
 62
     7
100
AcDbLine
 10
60.19301926567973
 20
15.734505626883
 30
0.0
 11
55.08500956409207
 21
49.15450697652389
 31
0.0
  0
LINE
  5
103C
330
FCA
100
AcDbEntity
  8
0
  6
Continuous
 62
     7
100
AcDbLine
 10
54.95118082585039
 20
48.04450559990396
 30
0.0
 11
55.08500909770588
 21
49.15450531160567
 31
0.0
  0
LINE
  5
103D
330
FCA
100
AcDbEntity
  8
0
  6
Continuous
 62
     7
100
AcDbLine
 10
57.81636414524682
 20
49.15450683832634
 30
0.0
 11
58.28950461210322
 21
48.04450460091384
 31
0.0
  0
LINE
  5
103E
330
FCA
100
AcDbEntity
  8
0
  6
Continuous
 62
     7
100
AcDbLine
 10
57.36113824015672
 20
49.15450577293199
 30
0.0
 11
57.81636513835008
 21
49.15450577293199
 31
0.0
  0
LINE
  5
103F
330
FCA
100
AcDbEntity
  8
0
  6
Continuous
 62
     7
100
AcDbLine
 10
54.49595536356979
 20
48.04450516258043
 30
0.0
 11
54.95118035441453
 21
48.04450516258043
 31
0.0
  0
LINE
  5
1040
330
FCA
100
AcDbEntity
  8
0
  6
Continuous
 62
     7
100
AcDbLine
 10
58.28950394755418
 20
48.04450516258043
 30
0.0
 11
58.7447289383989
 21
48.04450516258043
 31
0.0
  0
LINE
  5
1041
330
FCA
100
AcDbEntity
  8
0
  6
Continuous
 62
     7
100
AcDbLine
 10
55.70989121562059
 20
48.04450516258043
 30
0.0
 11
57.53079499369674
 21
48.04450516258043
 31
0.0
  0
LINE
  5
1042
330
FCA
100
AcDbEntity
  8
0
  6
Continuous
 62
     7
100
AcDbLine
 10
63.44464768534715
 20
17.29450611625475
 30
0.0
 11
68.60387505656297
 21
17.29450611625475
 31
0.0
  0
LINE
  5
1043
330
FCA
100
AcDbEntity
  8
0
  6
Continuous
 62
     7
100
AcDbLine
 10
60.19301880961473
 20
15.73450617347521
 30
0.0
 11
60.64824380045945
 21
15.73450617347521
 31
0.0
  0
LINE
  5
1044
330
FCA
100
AcDbEntity
  8
0
  6
Continuous
 62
     7
100
AcDbLine
 10
59.26465310221725
 20
16.84450630698961
 30
0.0
 11
59.71987809306199
 21
16.84450630698961
 31
0.0
  0
LINE
  5
1045
330
FCA
100
AcDbEntity
  8
0
  6
Continuous
 62
     7
100
AcDbLine
 10
59.71987857441435
 20
16.844506766129
 30
0.0
 11
60.19301829336921
 21
15.73450628331677
 31
0.0
  0
LINE
  5
1046
330
FCA
100
AcDbEntity
  8
0
  6
Continuous
 62
     7
100
AcDbLine
 10
62.92437354173094
 20
15.73450607525599
 30
0.0
 11
63.05820187066343
 21
16.84450626036649
 31
0.0
  0
LINE
  5
1047
330
FCA
100
AcDbEntity
  8
0
  6
Continuous
 62
     7
100
AcDbLine
 10
62.46914757853563
 20
15.73450617347521
 30
0.0
 11
62.92437447672899
 21
15.73450617347521
 31
0.0
  0
LINE
  5
1048
330
FCA
100
AcDbEntity
  8
0
  6
Continuous
 62
     7
100
AcDbLine
 10
60.47858895426805
 20
16.84450630698961
 30
0.0
 11
62.29949273234422
 21
16.84450630698961
 31
0.0
  0
LINE
  5
1049
330
FCA
100
AcDbEntity
  8
0
  6
Continuous
 62
     7
100
AcDbLine
 10
63.05820168620164
 20
16.84450630698961
 30
0.0
 11
63.513428584395
 21
16.84450630698961
 31
0.0
  0
LINE
  5
104A
330
FCA
100
AcDbEntity
  8
0
  6
Continuous
 62
     7
100
AcDbLine
 10
71.87714911481257
 20
15.73450584279409
 30
0.0
 11
66.76913941322492
 21
49.154507192435
 31
0.0
  0
LINE
  5
104B
330
FCA
100
AcDbEntity
  8
0
  6
Continuous
 62
     7
100
AcDbLine
 10
72.92142898699731
 20
16.84450568327452
 30
0.0
 11
68.15273093906528
 21
48.04450421663368
 31
0.0
  0
LINE
  5
104C
330
FCA
100
AcDbEntity
  8
0
  6
Continuous
 62
     7
100
AcDbLine
 10
68.22151078349168
 20
47.59450439964099
 30
0.0
 11
73.38073720103318
 21
47.59450439964099
 31
0.0
  0
LINE
  5
104D
330
FCA
100
AcDbEntity
  8
0
  6
Continuous
 62
     7
100
AcDbLine
 10
65.11789216166551
 20
48.04450516258043
 30
0.0
 11
66.93879498606737
 21
48.04450516258043
 31
0.0
  0
LINE
  5
104E
330
FCA
100
AcDbEntity
  8
0
  6
Continuous
 62
     7
100
AcDbLine
 10
64.49301041728074
 20
49.15450577293199
 30
0.0
 11
64.94823540812546
 21
49.15450577293199
 31
0.0
  0
LINE
  5
104F
330
FCA
100
AcDbEntity
  8
0
  6
Continuous
 62
     7
100
AcDbLine
 10
70.05624549117539
 20
15.73450552974266
 30
0.0
 11
64.94823593367677
 21
49.15450593665717
 31
0.0
  0
LINE
  5
1050
330
FCA
100
AcDbEntity
  8
0
  6
Continuous
 62
     7
100
AcDbLine
 10
68.67265439760216
 20
16.84450567736478
 30
0.0
 11
63.90395620558107
 21
48.04450515345031
 31
0.0
  0
LINE
  5
1051
330
FCA
100
AcDbEntity
  8
0
  6
Continuous
 62
     7
100
AcDbLine
 10
69.12788003180759
 20
16.84450595528699
 30
0.0
 11
64.35918183978651
 21
48.04450543137253
 31
0.0
  0
LINE
  5
1052
330
FCA
100
AcDbEntity
  8
0
  6
Continuous
 62
     7
100
AcDbLine
 10
72.46620320870284
 20
16.84450634807872
 30
0.0
 11
67.69750472850372
 21
48.04450770961704
 31
0.0
  0
LINE
  5
1053
330
FCA
100
AcDbEntity
  8
0
  6
Continuous
 62
     7
100
AcDbLine
 10
72.33237474901802
 20
15.73450612071629
 30
0.0
 11
67.22436504743038
 21
49.15450747035719
 31
0.0
  0
LINE
  5
1054
330
FCA
100
AcDbEntity
  8
0
  6
Continuous
 62
     7
100
AcDbLine
 10
69.60101971288094
 20
15.73450619454685
 30
0.0
 11
64.49301029947135
 21
49.15450565873497
 31
0.0
  0
LINE
  5
1055
330
FCA
100
AcDbEntity
  8
0
  6
Continuous
 62
     7
100
AcDbLine
 10
64.35918104617423
 20
48.04450467361482
 30
0.0
 11
64.49300931802972
 21
49.15450438531649
 31
0.0
  0
LINE
  5
1056
330
FCA
100
AcDbEntity
  8
0
  6
Continuous
 62
     7
100
AcDbLine
 10
67.22436538589318
 20
49.15450694917971
 30
0.0
 11
67.69750585274957
 21
48.0445047117672
 31
0.0
  0
LINE
  5
1057
330
FCA
100
AcDbEntity
  8
0
  6
Continuous
 62
     7
100
AcDbLine
 10
66.76914013987595
 20
49.15450577293199
 30
0.0
 11
67.224366084395
 21
49.15450577293199
 31
0.0
  0
LINE
  5
1058
330
FCA
100
AcDbEntity
  8
0
  6
Continuous
 62
     7
100
AcDbLine
 10
63.90395630961473
 20
48.04450516258043
 30
0.0
 11
64.35918130045945
 21
48.04450516258043
 31
0.0
  0
LINE
  5
1059
330
FCA
100
AcDbEntity
  8
0
  6
Continuous
 62
     7
100
AcDbLine
 10
67.6975048935991
 20
48.04450516258043
 30
0.0
 11
68.15273083811814
 21
48.04450516258043
 31
0.0
  0
LINE
  5
105A
330
FCA
100
AcDbEntity
  8
0
  6
Continuous
 62
     7
100
AcDbLine
 10
65.11789216166551
 20
48.04450516258043
 30
0.0
 11
66.93879498606737
 21
48.04450516258043
 31
0.0
  0
LINE
  5
105B
330
FCA
100
AcDbEntity
  8
0
  6
Continuous
 62
     7
100
AcDbLine
 10
72.85264958506639
 20
17.29450611625475
 30
0.0
 11
78.01187647944505
 21
17.29450611625475
 31
0.0
  0
LINE
  5
105C
330
FCA
100
AcDbEntity
  8
0
  6
Continuous
 62
     7
100
AcDbLine
 10
69.60101975565965
 20
15.73450617347521
 30
0.0
 11
70.05624570017869
 21
15.73450617347521
 31
0.0
  0
LINE
  5
105D
330
FCA
100
AcDbEntity
  8
0
  6
Continuous
 62
     7
100
AcDbLine
 10
68.67265404826219
 20
16.84450630698961
 30
0.0
 11
69.12787999278123
 21
16.84450630698961
 31
0.0
  0
LINE
  5
105E
330
FCA
100
AcDbEntity
  8
0
  6
Continuous
 62
     7
100
AcDbLine
 10
69.12788018901148
 20
16.84450599968223
 30
0.0
 11
69.60101953401554
 21
15.73450639417014
 31
0.0
  0
LINE
  5
105F
330
FCA
100
AcDbEntity
  8
0
  6
Continuous
 62
     7
100
AcDbLine
 10
72.33237482302641
 20
15.73450598163037
 30
0.0
 11
72.46620315195892
 21
16.84450616674087
 31
0.0
  0
LINE
  5
1060
330
FCA
100
AcDbEntity
  8
0
  6
Continuous
 62
     7
100
AcDbLine
 10
71.87714947825487
 20
15.73450617347521
 30
0.0
 11
72.3323754227739
 21
15.73450617347521
 31
0.0
  0
LINE
  5
1061
330
FCA
100
AcDbEntity
  8
0
  6
Continuous
 62
     7
100
AcDbLine
 10
69.88658990031296
 20
16.84450630698961
 30
0.0
 11
71.70749367838914
 21
16.84450630698961
 31
0.0
  0
LINE
  5
1062
330
FCA
100
AcDbEntity
  8
0
  6
Continuous
 62
     7
100
AcDbLine
 10
72.46620358592088
 20
16.84450630698961
 30
0.0
 11
72.92142953043992
 21
16.84450630698961
 31
0.0
  0
LINE
  5
1063
330
FCA
100
AcDbEntity
  8
0
  6
Continuous
 62
     7
100
AcDbLine
 10
81.28515037056329
 20
15.7345060516643
 30
0.0
 11
76.17714088510918
 21
49.15450598721561
 31
0.0
  0
LINE
  5
1064
330
FCA
100
AcDbEntity
  8
0
  6
Continuous
 62
     7
100
AcDbLine
 10
82.32943037692493
 20
16.8445063950274
 30
0.0
 11
77.56073204081483
 21
48.04450681383935
 31
0.0
  0
LINE
  5
1065
330
FCA
100
AcDbEntity
  8
0
  6
Continuous
 62
     7
100
AcDbLine
 10
77.62951172953659
 20
47.59450439964099
 30
0.0
 11
82.78873820668275
 21
47.59450439964099
 31
0.0
  0
LINE
  5
1066
330
FCA
100
AcDbEntity
  8
0
  6
Continuous
 62
     7
100
AcDbLine
 10
74.52589310771043
 20
48.04450516258043
 30
0.0
 11
76.34679688578659
 21
48.04450516258043
 31
0.0
  0
LINE
  5
1067
330
FCA
100
AcDbEntity
  8
0
  6
Continuous
 62
     7
100
AcDbLine
 10
73.90101136332567
 20
49.15450577293199
 30
0.0
 11
74.35623778468187
 21
49.15450577293199
 31
0.0
  0
LINE
  5
1068
330
FCA
100
AcDbEntity
  8
0
  6
Continuous
 62
     7
100
AcDbLine
 10
79.46424695314752
 20
15.73450577013234
 30
0.0
 11
74.35623761178246
 21
49.15450476295726
 31
0.0
  0
LINE
  5
1069
330
FCA
100
AcDbEntity
  8
0
  6
Continuous
 62
     7
100
AcDbLine
 10
78.08065555184815
 20
16.84450635309542
 30
0.0
 11
73.31195707164903
 21
48.04450771463375
 31
0.0
  0
LINE
  5
106A
330
FCA
100
AcDbEntity
  8
0
  6
Continuous
 62
     7
100
AcDbLine
 10
78.53588156582422
 20
16.84450572431348
 30
0.0
 11
73.76718351789219
 21
48.04450425767264
 31
0.0
  0
LINE
  5
106B
330
FCA
100
AcDbEntity
  8
0
  6
Continuous
 62
     7
100
AcDbLine
 10
81.87420450703788
 20
16.84450608108294
 30
0.0
 11
77.10550617092778
 21
48.04450649989489
 31
0.0
  0
LINE
  5
106C
330
FCA
100
AcDbEntity
  8
0
  6
Continuous
 62
     7
100
AcDbLine
 10
81.74037628303464
 20
15.73450588974277
 30
0.0
 11
76.63236672553603
 21
49.15450629665729
 31
0.0
  0
LINE
  5
106D
330
FCA
100
AcDbEntity
  8
0
  6
Continuous
 62
     7
100
AcDbLine
 10
79.00902101121598
 20
15.73450592755108
 30
0.0
 11
73.90101174189542
 21
49.15450444901281
 31
0.0
  0
LINE
  5
106E
330
FCA
100
AcDbEntity
  8
0
  6
Continuous
 62
     7
100
AcDbLine
 10
73.76718361674943
 20
48.04450730628792
 30
0.0
 11
73.90101188860494
 21
49.15450701798961
 31
0.0
  0
LINE
  5
106F
330
FCA
100
AcDbEntity
  8
0
  6
Continuous
 62
     7
100
AcDbLine
 10
76.63236706518958
 20
49.15450724700846
 30
0.0
 11
77.10550753204599
 21
48.04450500959596
 31
0.0
  0
LINE
  5
1070
330
FCA
100
AcDbEntity
  8
0
  6
Continuous
 62
     7
100
AcDbLine
 10
76.17714108592088
 20
49.15450577293199
 30
0.0
 11
76.63236703043992
 21
49.15450577293199
 31
0.0
  0
LINE
  5
1071
330
FCA
100
AcDbEntity
  8
0
  6
Continuous
 62
     7
100
AcDbLine
 10
73.31195725565965
 20
48.04450516258043
 30
0.0
 11
73.76718320017869
 21
48.04450516258043
 31
0.0
  0
LINE
  5
1072
330
FCA
100
AcDbEntity
  8
0
  6
Continuous
 62
     7
100
AcDbLine
 10
77.10550631648118
 20
48.04450516258043
 30
0.0
 11
77.56073226100022
 21
48.04450516258043
 31
0.0
  0
LINE
  5
1073
330
FCA
100
AcDbEntity
  8
0
  6
Continuous
 62
     7
100
AcDbLine
 10
74.52589310771043
 20
48.04450516258043
 30
0.0
 11
76.34679688578659
 21
48.04450516258043
 31
0.0
  0
LINE
  5
1074
330
FCA
100
AcDbEntity
  8
0
  6
Continuous
 62
     7
100
AcDbLine
 10
82.26065115696005
 20
17.29450611625475
 30
0.0
 11
87.41987790232711
 21
17.29450611625475
 31
0.0
  0
LINE
  5
1075
330
FCA
100
AcDbEntity
  8
0
  6
Continuous
 62
     7
100
AcDbLine
 10
79.00902117854172
 20
15.73450617347521
 30
0.0
 11
79.46424688464219
 21
15.73450617347521
 31
0.0
  0
LINE
  5
1076
330
FCA
100
AcDbEntity
  8
0
  6
Continuous
 62
     7
100
AcDbLine
 10
78.08065570956284
 20
16.84450630698961
 30
0.0
 11
78.53588165408189
 21
16.84450630698961
 31
0.0
  0
LINE
  5
1077
330
FCA
100
AcDbEntity
  8
0
  6
Continuous
 62
     7
100
AcDbLine
 10
78.53588153932034
 20
16.84450615727945
 30
0.0
 11
79.00902107129981
 21
15.73450611311729
 31
0.0
  0
LINE
  5
1078
330
FCA
100
AcDbEntity
  8
0
  6
Continuous
 62
     7
100
AcDbLine
 10
81.74037622267404
 20
15.7345058737355
 30
0.0
 11
81.8742045516066
 21
16.844506058846
 31
0.0
  0
LINE
  5
1079
330
FCA
100
AcDbEntity
  8
0
  6
Continuous
 62
     7
100
AcDbLine
 10
81.28515042429979
 20
15.73450617347521
 30
0.0
 11
81.74037629431301
 21
15.73450617347521
 31
0.0
  0
LINE
  5
107A
330
FCA
100
AcDbEntity
  8
0
  6
Continuous
 62
     7
100
AcDbLine
 10
79.29459132319505
 20
16.84450630698961
 30
0.0
 11
81.115494803248
 21
16.84450630698961
 31
0.0
  0
LINE
  5
107B
330
FCA
100
AcDbEntity
  8
0
  6
Continuous
 62
     7
100
AcDbLine
 10
81.87420459902103
 20
16.84450630698961
 30
0.0
 11
82.32943047648484
 21
16.84450630698961
 31
0.0
  0
LINE
  5
107C
330
FCA
100
AcDbEntity
  8
0
  6
Continuous
 62
     7
100
AcDbLine
 10
90.6931520387568
 20
15.73450632357346
 30
0.0
 11
85.58514276943625
 21
49.15450484503518
 31
0.0
  0
LINE
  5
107D
330
FCA
100
AcDbEntity
  8
0
  6
Continuous
 62
     7
100
AcDbLine
 10
91.73743191094157
 20
16.84450616405389
 30
0.0
 11
86.96873371892046
 21
48.04450564013944
 31
0.0
  0
LINE
  5
107E
330
FCA
100
AcDbEntity
  8
0
  6
Continuous
 62
     7
100
AcDbLine
 10
87.03751315241868
 20
47.59450439964099
 30
0.0
 11
92.19673909312305
 21
47.59450439964099
 31
0.0
  0
LINE
  5
107F
330
FCA
100
AcDbEntity
  8
0
  6
Continuous
 62
     7
100
AcDbLine
 10
83.93389453059251
 20
48.04450516258043
 30
0.0
 11
85.7547980702501
 21
48.04450516258043
 31
0.0
  0
LINE
  5
1080
330
FCA
100
AcDbEntity
  8
0
  6
Continuous
 62
     7
100
AcDbLine
 10
83.30901302462633
 20
49.15450577293199
 30
0.0
 11
83.76423896914536
 21
49.15450577293199
 31
0.0
  0
LINE
  5
1081
330
FCA
100
AcDbEntity
  8
0
  6
Continuous
 62
     7
100
AcDbLine
 10
88.87224841511963
 20
15.73450601052202
 30
0.0
 11
83.764238713532
 21
49.15450736016293
 31
0.0
  0
LINE
  5
1082
330
FCA
100
AcDbEntity
  8
0
  6
Continuous
 62
     7
100
AcDbLine
 10
87.48865685018316
 20
16.84450608609965
 30
0.0
 11
82.71995851407309
 21
48.04450650491157
 31
0.0
  0
LINE
  5
1083
330
FCA
100
AcDbEntity
  8
0
  6
Continuous
 62
     7
100
AcDbLine
 10
87.94388302779635
 20
16.84450596470316
 30
0.0
 11
83.17518461964173
 21
48.04450685487829
 31
0.0
  0
LINE
  5
1084
330
FCA
100
AcDbEntity
  8
0
  6
Continuous
 62
     7
100
AcDbLine
 10
91.28220620469161
 20
16.84450635749488
 30
0.0
 11
86.51350808471503
 21
48.04450536221724
 31
0.0
  0
LINE
  5
1085
330
FCA
100
AcDbEntity
  8
0
  6
Continuous
 62
     7
100
AcDbLine
 10
91.14837774500676
 20
15.73450613013246
 30
0.0
 11
86.04036840364171
 21
49.15450512295738
 31
0.0
  0
LINE
  5
1086
330
FCA
100
AcDbEntity
  8
0
  6
Continuous
 62
     7
100
AcDbLine
 10
88.41702223750649
 20
15.73450613191851
 30
0.0
 11
83.30901260796336
 21
49.15450701019622
 31
0.0
  0
LINE
  5
1087
330
FCA
100
AcDbEntity
  8
0
  6
Continuous
 62
     7
100
AcDbLine
 10
83.17518478389088
 20
48.04450626584471
 30
0.0
 11
83.30901305574634
 21
49.15450597754642
 31
0.0
  0
LINE
  5
1088
330
FCA
100
AcDbEntity
  8
0
  6
Continuous
 62
     7
100
AcDbLine
 10
86.0403674285358
 20
49.15450698391103
 30
0.0
 11
86.5135078953922
 21
48.04450474649857
 31
0.0
  0
LINE
  5
1089
330
FCA
100
AcDbEntity
  8
0
  6
Continuous
 62
     7
100
AcDbLine
 10
85.58514250880296
 20
49.15450577293199
 30
0.0
 11
86.04036845332201
 21
49.15450577293199
 31
0.0
  0
LINE
  5
108A
330
FCA
100
AcDbEntity
  8
0
  6
Continuous
 62
     7
100
AcDbLine
 10
82.71995885735567
 20
48.04450516258043
 30
0.0
 11
83.17518474227005
 21
48.04450516258043
 31
0.0
  0
LINE
  5
108B
330
FCA
100
AcDbEntity
  8
0
  6
Continuous
 62
     7
100
AcDbLine
 10
86.51350773936327
 20
48.04450516258043
 30
0.0
 11
86.9687336838823
 21
48.04450516258043
 31
0.0
  0
LINE
  5
108C
330
FCA
100
AcDbEntity
  8
0
  6
Continuous
 62
     7
100
AcDbLine
 10
83.93389453059251
 20
48.04450516258043
 30
0.0
 11
85.7547980702501
 21
48.04450516258043
 31
0.0
  0
LINE
  5
108D
330
FCA
100
AcDbEntity
  8
0
  6
Continuous
 62
     7
100
AcDbLine
 10
91.66865243083055
 20
17.29450611625475
 30
0.0
 11
96.82787884837203
 21
17.29450611625475
 31
0.0
  0
LINE
  5
108E
330
FCA
100
AcDbEntity
  8
0
  6
Continuous
 62
     7
100
AcDbLine
 10
88.41702260142382
 20
15.73450617347521
 30
0.0
 11
88.8722480691057
 21
15.73450617347521
 31
0.0
  0
LINE
  5
108F
330
FCA
100
AcDbEntity
  8
0
  6
Continuous
 62
     7
100
AcDbLine
 10
87.48865689402633
 20
16.84450630698961
 30
0.0
 11
87.94388283854539
 21
16.84450630698961
 31
0.0
  0
LINE
  5
1090
330
FCA
100
AcDbEntity
  8
0
  6
Continuous
 62
     7
100
AcDbLine
 10
87.94388285727956
 20
16.8445057827389
 30
0.0
 11
88.41702238925902
 21
15.73450573857674
 31
0.0
  0
LINE
  5
1091
330
FCA
100
AcDbEntity
  8
0
  6
Continuous
 62
     7
100
AcDbLine
 10
91.14837744269438
 20
15.73450626778794
 30
0.0
 11
91.28220571454987
 21
16.84450597948964
 31
0.0
  0
LINE
  5
1092
330
FCA
100
AcDbEntity
  8
0
  6
Continuous
 62
     7
100
AcDbLine
 10
90.6931513703447
 20
15.73450617347521
 30
0.0
 11
91.14837731486375
 21
15.73450617347521
 31
0.0
  0
LINE
  5
1093
330
FCA
100
AcDbEntity
  8
0
  6
Continuous
 62
     7
100
AcDbLine
 10
88.70259274607711
 20
16.84450630698961
 30
0.0
 11
90.52349652415328
 21
16.84450630698961
 31
0.0
  0
LINE
  5
1094
330
FCA
100
AcDbEntity
  8
0
  6
Continuous
 62
     7
100
AcDbLine
 10
91.2822054780107
 20
16.84450630698961
 30
0.0
 11
91.73743142252977
 21
16.84450630698961
 31
0.0
  0
LINE
  5
1095
330
FCA
100
AcDbEntity
  8
0
  6
Continuous
 62
     7
100
AcDbLine
 10
100.101152630047
 20
15.73450594851091
 30
0.0
 11
94.99314292845943
 21
49.15450729815182
 31
0.0
  0
LINE
  5
1096
330
FCA
100
AcDbEntity
  8
0
  6
Continuous
 62
     7
100
AcDbLine
 10
101.1454333729137
 20
16.84450640444357
 30
0.0
 11
96.37673539702616
 21
48.04450446643953
 31
0.0
  0
LINE
  5
1097
330
FCA
100
AcDbEntity
  8
0
  6
Continuous
 62
     7
100
AcDbLine
 10
96.44551457530077
 20
47.59450439964099
 30
0.0
 11
101.6047409928422
 21
47.59450439964099
 31
0.0
  0
LINE
  5
1098
330
FCA
100
AcDbEntity
  8
0
  6
Continuous
 62
     7
100
AcDbLine
 10
93.34189595347458
 20
48.04450516258043
 30
0.0
 11
95.16279973155077
 21
48.04450516258043
 31
0.0
  0
LINE
  5
1099
330
FCA
100
AcDbEntity
  8
0
  6
Continuous
 62
     7
100
AcDbLine
 10
92.7170142090898
 20
49.15450577293199
 30
0.0
 11
93.17224015360887
 21
49.15450577293199
 31
0.0
  0
LINE
  5
109A
330
FCA
100
AcDbEntity
  8
0
  6
Continuous
 62
     7
100
AcDbLine
 10
98.28024987709177
 20
15.73450625091171
 30
0.0
 11
93.17224039163765
 21
49.15450618646302
 31
0.0
  0
LINE
  5
109B
330
FCA
100
AcDbEntity
  8
0
  6
Continuous
 62
     7
100
AcDbLine
 10
96.89665784079211
 20
16.84450625444481
 30
0.0
 11
92.12795972081556
 21
48.04450525916713
 31
0.0
  0
LINE
  5
109C
330
FCA
100
AcDbEntity
  8
0
  6
Continuous
 62
     7
100
AcDbLine
 10
97.35188448976849
 20
16.84450620509285
 30
0.0
 11
92.58318629774739
 21
48.04450568117839
 31
0.0
  0
LINE
  5
109D
330
FCA
100
AcDbEntity
  8
0
  6
Continuous
 62
     7
100
AcDbLine
 10
100.6902067959818
 20
16.84450598243234
 30
0.0
 11
95.92150824373822
 21
48.04450781533387
 31
0.0
  0
LINE
  5
109E
330
FCA
100
AcDbEntity
  8
0
  6
Continuous
 62
     7
100
AcDbLine
 10
100.5563792069789
 20
15.73450637052214
 30
0.0
 11
95.44836950539126
 21
49.15450772016304
 31
0.0
  0
LINE
  5
109F
330
FCA
100
AcDbEntity
  8
0
  6
Continuous
 62
     7
100
AcDbLine
 10
97.82502330015994
 20
15.73450582890048
 30
0.0
 11
92.71701381470585
 21
49.15450576445179
 31
0.0
  0
LINE
  5
10A0
330
FCA
100
AcDbEntity
  8
0
  6
Continuous
 62
     7
100
AcDbLine
 10
92.58318595103228
 20
48.04450522540149
 30
0.0
 11
92.71701422288778
 21
49.1545049371032
 31
0.0
  0
LINE
  5
10A1
330
FCA
100
AcDbEntity
  8
0
  6
Continuous
 62
     7
100
AcDbLine
 10
95.44836866918215
 20
49.15450709476441
 30
0.0
 11
95.92150838813699
 21
48.04450661195218
 31
0.0
  0
LINE
  5
10A2
330
FCA
100
AcDbEntity
  8
0
  6
Continuous
 62
     7
100
AcDbLine
 10
94.99314393168504
 20
49.15450577293199
 30
0.0
 11
95.44836987620406
 21
49.15450577293199
 31
0.0
  0
LINE
  5
10A3
330
FCA
100
AcDbEntity
  8
0
  6
Continuous
 62
     7
100
AcDbLine
 10
92.12796010142382
 20
48.04450516258043
 30
0.0
 11
92.58318604594284
 21
48.04450516258043
 31
0.0
  0
LINE
  5
10A4
330
FCA
100
AcDbEntity
  8
0
  6
Continuous
 62
     7
100
AcDbLine
 10
95.92150868540818
 20
48.04450516258043
 30
0.0
 11
96.37673462992722
 21
48.04450516258043
 31
0.0
  0
LINE
  5
10A5
330
FCA
100
AcDbEntity
  8
0
  6
Continuous
 62
     7
100
AcDbLine
 10
93.34189595347458
 20
48.04450516258043
 30
0.0
 11
95.16279973155077
 21
48.04450516258043
 31
0.0
  0
LINE
  5
10A6
330
FCA
100
AcDbEntity
  8
0
  6
Continuous
 62
     7
100
AcDbLine
 10
101.0766533768755
 20
17.29450611625475
 30
0.0
 11
106.2358807480913
 21
17.29450611625475
 31
0.0
  0
LINE
  5
10A7
330
FCA
100
AcDbEntity
  8
0
  6
Continuous
 62
     7
100
AcDbLine
 10
97.82502354746874
 20
15.73450617347521
 30
0.0
 11
98.28024949198777
 21
15.73450617347521
 31
0.0
  0
LINE
  5
10A8
330
FCA
100
AcDbEntity
  8
0
  6
Continuous
 62
     7
100
AcDbLine
 10
96.89665784007127
 20
16.84450630698961
 30
0.0
 11
97.35188378459032
 21
16.84450630698961
 31
0.0
  0
LINE
  5
10A9
330
FCA
100
AcDbEntity
  8
0
  6
Continuous
 62
     7
100
AcDbLine
 10
97.35188409792593
 20
16.84450589359226
 30
0.0
 11
97.82502360653346
 21
15.73450590426136
 31
0.0
  0
LINE
  5
10AA
330
FCA
100
AcDbEntity
  8
0
  6
Continuous
 62
     7
100
AcDbLine
 10
100.5563787239898
 20
15.73450617416232
 30
0.0
 11
100.6902069958453
 21
16.84450588586402
 31
0.0
  0
LINE
  5
10AB
330
FCA
100
AcDbEntity
  8
0
  6
Continuous
 62
     7
100
AcDbLine
 10
100.1011532700639
 20
15.73450617347521
 30
0.0
 11
100.5563782609087
 21
15.73450617347521
 31
0.0
  0
LINE
  5
10AC
330
FCA
100
AcDbEntity
  8
0
  6
Continuous
 62
     7
100
AcDbLine
 10
98.11059464579635
 20
16.84450630698961
 30
0.0
 11
99.93149651652391
 21
16.84450630698961
 31
0.0
  0
LINE
  5
10AD
330
FCA
100
AcDbEntity
  8
0
  6
Continuous
 62
     7
100
AcDbLine
 10
100.6902073777299
 20
16.84450630698961
 30
0.0
 11
101.1454323685747
 21
16.84450630698961
 31
0.0
  0
LINE
  5
10AE
330
FCA
100
AcDbEntity
  8
0
  6
Continuous
 62
     7
100
AcDbLine
 10
109.5091550347456
 20
15.73450633298962
 30
0.0
 11
104.4011455492914
 21
49.15450626854092
 31
0.0
  0
LINE
  5
10AF
330
FCA
100
AcDbEntity
  8
0
  6
Continuous
 62
     7
100
AcDbLine
 10
110.5534339642039
 20
16.84450602938103
 30
0.0
 11
105.7847355560493
 21
48.04450691955617
 31
0.0
  0
LINE
  5
10B0
330
FCA
100
AcDbEntity
  8
0
  6
Continuous
 62
     7
100
AcDbLine
 10
105.85351647502
 20
47.59450439964099
 30
0.0
 11
108.9403809464555
 21
47.59450439964099
 31
0.0
  0
LINE
  5
10B1
330
FCA
100
AcDbEntity
  8
0
  6
Continuous
 62
     7
100
AcDbLine
 10
102.7498978531938
 20
48.04450516258043
 30
0.0
 11
104.5707997239213
 21
48.04450516258043
 31
0.0
  0
LINE
  5
10B2
330
FCA
100
AcDbEntity
  8
0
  6
Continuous
 62
     7
100
AcDbLine
 10
102.125016108809
 20
49.15450577293199
 30
0.0
 11
102.5802410996538
 21
49.15450577293199
 31
0.0
  0
LINE
  5
10B3
330
FCA
100
AcDbEntity
  8
0
  6
Continuous
 62
     7
100
AcDbLine
 10
107.6882504323597
 20
15.73450611153076
 30
0.0
 11
102.5802411270169
 21
49.1545048686741
 31
0.0
  0
LINE
  5
10B4
330
FCA
100
AcDbEntity
  8
0
  6
Continuous
 62
     7
100
AcDbLine
 10
106.3046603175351
 20
16.84450616756033
 30
0.0
 11
101.5359617652915
 21
48.04450800046185
 31
0.0
  0
LINE
  5
10B5
330
FCA
100
AcDbEntity
  8
0
  6
Continuous
 62
     7
100
AcDbLine
 10
106.7598850090142
 20
16.8445063013935
 30
0.0
 11
101.9911870331266
 21
48.04450436338946
 31
0.0
  0
LINE
  5
10B6
330
FCA
100
AcDbEntity
  8
0
  6
Continuous
 62
     7
100
AcDbLine
 10
110.0982092006803
 20
16.84450636691105
 30
0.0
 11
105.3295108645702
 21
48.04450678572298
 31
0.0
  0
LINE
  5
10B7
330
FCA
100
AcDbEntity
  8
0
  6
Continuous
 62
     7
100
AcDbLine
 10
109.9643797982691
 20
15.7345059954596
 30
0.0
 11
104.8563702407705
 21
49.1545064023741
 31
0.0
  0
LINE
  5
10B8
330
FCA
100
AcDbEntity
  8
0
  6
Continuous
 62
     7
100
AcDbLine
 10
107.2330257048584
 20
15.73450621337919
 30
0.0
 11
102.1250164355379
 21
49.15450473484092
 31
0.0
  0
LINE
  5
10B9
330
FCA
100
AcDbEntity
  8
0
  6
Continuous
 62
     7
100
AcDbLine
 10
101.9911871181737
 20
48.04450418495829
 30
0.0
 11
102.1250158466454
 21
49.15450768393037
 31
0.0
  0
LINE
  5
10BA
330
FCA
100
AcDbEntity
  8
0
  6
Continuous
 62
     7
100
AcDbLine
 10
104.85637065773
 20
49.15450545101752
 30
0.0
 11
105.3295103766849
 21
48.04450496820528
 31
0.0
  0
LINE
  5
10BB
330
FCA
100
AcDbEntity
  8
0
  6
Continuous
 62
     7
100
AcDbLine
 10
104.4011448777299
 20
49.15450577293199
 30
0.0
 11
104.8563717759233
 21
49.15450577293199
 31
0.0
  0
LINE
  5
10BC
330
FCA
100
AcDbEntity
  8
0
  6
Continuous
 62
     7
100
AcDbLine
 10
101.535962001143
 20
48.04450516258043
 30
0.0
 11
101.9911869919877
 21
48.04450516258043
 31
0.0
  0
LINE
  5
10BD
330
FCA
100
AcDbEntity
  8
0
  6
Continuous
 62
     7
100
AcDbLine
 10
105.3295105851274
 20
48.04450516258043
 30
0.0
 11
105.7847355759721
 21
48.04450516258043
 31
0.0
  0
LINE
  5
10BE
330
FCA
100
AcDbEntity
  8
0
  6
Continuous
 62
     7
100
AcDbLine
 10
102.7498978531938
 20
48.04450516258043
 30
0.0
 11
104.5707997239213
 21
48.04450516258043
 31
0.0
  0
LINE
  5
10BF
330
FCA
100
AcDbEntity
  8
0
  6
Continuous
 62
     7
100
AcDbLine
 10
110.4846543229204
 20
17.29450611625475
 30
0.0
 11
111.562838450728
 21
17.29450611625475
 31
0.0
  0
LINE
  5
10C0
330
FCA
100
AcDbEntity
  8
0
  6
Continuous
 62
     7
100
AcDbLine
 10
107.233025447188
 20
15.73450617347521
 30
0.0
 11
107.6882504380327
 21
15.73450617347521
 31
0.0
  0
LINE
  5
10C1
330
FCA
100
AcDbEntity
  8
0
  6
Continuous
 62
     7
100
AcDbLine
 10
106.3046597397905
 20
16.84450630698961
 30
0.0
 11
106.7598847306352
 21
16.84450630698961
 31
0.0
  0
LINE
  5
10C2
330
FCA
100
AcDbEntity
  8
0
  6
Continuous
 62
     7
100
AcDbLine
 10
106.7598853853161
 20
16.84450589478311
 30
0.0
 11
107.2330248705517
 21
15.73450596028347
 31
0.0
  0
LINE
  5
10C3
330
FCA
100
AcDbEntity
  8
0
  6
Continuous
 62
     7
100
AcDbLine
 10
109.9643809521029
 20
15.73450596638265
 30
0.0
 11
110.0982092239584
 21
16.84450567808435
 31
0.0
  0
LINE
  5
10C4
330
FCA
100
AcDbEntity
  8
0
  6
Continuous
 62
     7
100
AcDbLine
 10
109.5091542161088
 20
15.73450617347521
 30
0.0
 11
109.9643811143022
 21
15.73450617347521
 31
0.0
  0
LINE
  5
10C5
330
FCA
100
AcDbEntity
  8
0
  6
Continuous
 62
     7
100
AcDbLine
 10
107.5185955918413
 20
16.84450630698961
 30
0.0
 11
109.3394993699174
 21
16.84450630698961
 31
0.0
  0
LINE
  5
10C6
330
FCA
100
AcDbEntity
  8
0
  6
Continuous
 62
     7
100
AcDbLine
 10
110.0982083237749
 20
16.84450630698961
 30
0.0
 11
110.5534352219682
 21
16.84450630698961
 31
0.0
  0
LINE
  5
10C7
330
FCA
100
AcDbEntity
  8
0
  6
Continuous
 62
     7
100
AcDbLine
 10
118.9171537045607
 20
15.73450590543062
 30
0.0
 11
113.8091443992179
 21
49.15450466257394
 31
0.0
  0
LINE
  5
10C8
330
FCA
100
AcDbEntity
  8
0
  6
Continuous
 62
     7
100
AcDbLine
 10
119.9614344834496
 20
16.84450612568168
 30
0.0
 11
115.1927362914286
 21
48.04450560176722
 31
0.0
  0
LINE
  5
10C9
330
FCA
100
AcDbEntity
  8
0
  6
Continuous
 62
     7
100
AcDbLine
 10
115.2615155137163
 20
47.59450439964099
 30
0.0
 11
120.4207447922807
 21
47.59450439964099
 31
0.0
  0
LINE
  5
10CA
330
FCA
100
AcDbEntity
  8
0
  6
Continuous
 62
     7
100
AcDbLine
 10
112.1578987992387
 20
48.04450516258043
 30
0.0
 11
113.9788006699663
 21
48.04450516258043
 31
0.0
  0
LINE
  5
10CB
330
FCA
100
AcDbEntity
  8
0
  6
Continuous
 62
     7
100
AcDbLine
 10
111.533017054854
 20
49.15450577293199
 30
0.0
 11
111.9882420456987
 21
49.15450577293199
 31
0.0
  0
LINE
  5
10CC
330
FCA
100
AcDbEntity
  8
0
  6
Continuous
 62
     7
100
AcDbLine
 10
117.0962509876277
 20
15.73450597214982
 30
0.0
 11
111.9882412860401
 21
49.15450732179071
 31
0.0
  0
LINE
  5
10CD
330
FCA
100
AcDbEntity
  8
0
  6
Continuous
 62
     7
100
AcDbLine
 10
115.712658951328
 20
16.84450597568291
 30
0.0
 11
110.943960615218
 21
48.04450639449487
 31
0.0
  0
LINE
  5
10CE
330
FCA
100
AcDbEntity
  8
0
  6
Continuous
 62
     7
100
AcDbLine
 10
116.1678856003044
 20
16.84450592633095
 30
0.0
 11
111.3991871921498
 21
48.0445068165061
 31
0.0
  0
LINE
  5
10CF
330
FCA
100
AcDbEntity
  8
0
  6
Continuous
 62
     7
100
AcDbLine
 10
119.5062078704955
 20
16.84450593935205
 30
0.0
 11
114.7375097144967
 21
48.04450517975602
 31
0.0
  0
LINE
  5
10D0
330
FCA
100
AcDbEntity
  8
0
  6
Continuous
 62
     7
100
AcDbLine
 10
119.3723803175148
 20
15.73450609176025
 30
0.0
 11
114.2643709761498
 21
49.15450508458516
 31
0.0
  0
LINE
  5
10D1
330
FCA
100
AcDbEntity
  8
0
  6
Continuous
 62
     7
100
AcDbLine
 10
116.6410243566625
 20
15.73450590366098
 30
0.0
 11
111.5330147091083
 21
49.1545068997795
 31
0.0
  0
LINE
  5
10D2
330
FCA
100
AcDbEntity
  8
0
  6
Continuous
 62
     7
100
AcDbLine
 10
111.3991887419313
 20
48.04450693178544
 30
0.0
 11
111.5330170137868
 21
49.15450664348714
 31
0.0
  0
LINE
  5
10D3
330
FCA
100
AcDbEntity
  8
0
  6
Continuous
 62
     7
100
AcDbLine
 10
114.2643736529766
 20
49.15450630977243
 30
0.0
 11
114.7375133719315
 21
48.0445058269602
 31
0.0
  0
LINE
  5
10D4
330
FCA
100
AcDbEntity
  8
0
  6
Continuous
 62
     7
100
AcDbLine
 10
113.8091458237749
 20
49.15450577293199
 30
0.0
 11
114.2643727219682
 21
49.15450577293199
 31
0.0
  0
LINE
  5
10D5
330
FCA
100
AcDbEntity
  8
0
  6
Continuous
 62
     7
100
AcDbLine
 10
110.943962947188
 20
48.04450516258043
 30
0.0
 11
111.3991879380327
 21
48.04450516258043
 31
0.0
  0
LINE
  5
10D6
330
FCA
100
AcDbEntity
  8
0
  6
Continuous
 62
     7
100
AcDbLine
 10
114.737513438521
 20
48.04450516258043
 30
0.0
 11
115.192736522017
 21
48.04450516258043
 31
0.0
  0
LINE
  5
10D7
330
FCA
100
AcDbEntity
  8
0
  6
Continuous
 62
     7
100
AcDbLine
 10
112.1578987992387
 20
48.04450516258043
 30
0.0
 11
113.9788006699663
 21
48.04450516258043
 31
0.0
  0
LINE
  5
10D8
330
FCA
100
AcDbEntity
  8
0
  6
Continuous
 62
     7
100
AcDbLine
 10
119.8926571763139
 20
17.29450611625475
 30
0.0
 11
125.0518826401811
 21
17.29450611625475
 31
0.0
  0
LINE
  5
10D9
330
FCA
100
AcDbEntity
  8
0
  6
Continuous
 62
     7
100
AcDbLine
 10
116.6410244858842
 20
15.73450617347521
 30
0.0
 11
117.0962513840776
 21
15.73450617347521
 31
0.0
  0
LINE
  5
10DA
330
FCA
100
AcDbEntity
  8
0
  6
Continuous
 62
     7
100
AcDbLine
 10
115.7126606858354
 20
16.84450630698961
 30
0.0
 11
116.1678875840288
 21
16.84450630698961
 31
0.0
  0
LINE
  5
10DB
330
FCA
100
AcDbEntity
  8
0
  6
Continuous
 62
     7
100
AcDbLine
 10
116.167886766194
 20
16.84450567664893
 30
0.0
 11
116.6410262981734
 21
15.73450563248676
 31
0.0
  0
LINE
  5
10DC
330
FCA
100
AcDbEntity
  8
0
  6
Continuous
 62
     7
100
AcDbLine
 10
119.3723812865808
 20
15.73450598691109
 30
0.0
 11
119.5062095584363
 21
16.84450569861278
 31
0.0
  0
LINE
  5
10DD
330
FCA
100
AcDbEntity
  8
0
  6
Continuous
 62
     7
100
AcDbLine
 10
118.9171551621538
 20
15.73450617347521
 30
0.0
 11
119.3723820603471
 21
15.73450617347521
 31
0.0
  0
LINE
  5
10DE
330
FCA
100
AcDbEntity
  8
0
  6
Continuous
 62
     7
100
AcDbLine
 10
116.9265965378862
 20
16.84450630698961
 30
0.0
 11
118.7475003159624
 21
16.84450630698961
 31
0.0
  0
LINE
  5
10DF
330
FCA
100
AcDbEntity
  8
0
  6
Continuous
 62
     7
100
AcDbLine
 10
119.5062092698198
 20
16.84450630698961
 30
0.0
 11
119.9614361680131
 21
16.84450630698961
 31
0.0
  0
LINE
  5
10E0
330
FCA
100
AcDbEntity
  8
0
  6
Continuous
 62
     7
100
AcDbLine
 10
128.325158017226
 20
15.73450643078639
 30
0.0
 11
123.2171483291467
 21
49.15450769204669
 31
0.0
  0
LINE
  5
10E1
330
FCA
100
AcDbEntity
  8
0
  6
Continuous
 62
     7
100
AcDbLine
 10
129.3694350387176
 20
16.84450598630073
 30
0.0
 11
124.6007370268078
 21
48.04450428397829
 31
0.0
  0
LINE
  5
10E2
330
FCA
100
AcDbEntity
  8
0
  6
Continuous
 62
     7
100
AcDbLine
 10
124.6695164597612
 20
47.59450439964099
 30
0.0
 11
129.8287457383256
 21
47.59450439964099
 31
0.0
  0
LINE
  5
10E3
330
FCA
100
AcDbEntity
  8
0
  6
Continuous
 62
     7
100
AcDbLine
 10
121.565897837935
 20
48.04450516258043
 30
0.0
 11
123.3868016160112
 21
48.04450516258043
 31
0.0
  0
LINE
  5
10E4
330
FCA
100
AcDbEntity
  8
0
  6
Continuous
 62
     7
100
AcDbLine
 10
120.9410199082475
 20
49.15450577293199
 30
0.0
 11
121.3962429917436
 21
49.15450577293199
 31
0.0
  0
LINE
  5
10E5
330
FCA
100
AcDbEntity
  8
0
  6
Continuous
 62
     7
100
AcDbLine
 10
126.5042515248846
 20
15.73450595060967
 30
0.0
 11
121.3962420214193
 21
49.15450600400179
 31
0.0
  0
LINE
  5
10E6
330
FCA
100
AcDbEntity
  8
0
  6
Continuous
 62
     7
100
AcDbLine
 10
125.1206632775016
 20
16.8445064126581
 30
0.0
 11
120.3519651215028
 21
48.04450565306207
 31
0.0
  0
LINE
  5
10E7
330
FCA
100
AcDbEntity
  8
0
  6
Continuous
 62
     7
100
AcDbLine
 10
125.5758861375612
 20
16.84450590479081
 30
0.0
 11
120.8071879275291
 21
48.04450549871713
 31
0.0
  0
LINE
  5
10E8
330
FCA
100
AcDbEntity
  8
0
  6
Continuous
 62
     7
100
AcDbLine
 10
128.9142121966691
 20
16.84450637632722
 30
0.0
 11
124.1455136444254
 21
48.04450820922875
 31
0.0
  0
LINE
  5
10E9
330
FCA
100
AcDbEntity
  8
0
  6
Continuous
 62
     7
100
AcDbLine
 10
128.7803808705314
 20
15.73450596710941
 30
0.0
 11
123.6723711351729
 21
49.15450753770182
 31
0.0
  0
LINE
  5
10EA
330
FCA
100
AcDbEntity
  8
0
  6
Continuous
 62
     7
100
AcDbLine
 10
126.0490286738305
 20
15.73450639955655
 30
0.0
 11
120.9410192153931
 21
49.15450615834667
 31
0.0
  0
LINE
  5
10EB
330
FCA
100
AcDbEntity
  8
0
  6
Continuous
 62
     7
100
AcDbLine
 10
120.8071889622551
 20
48.04450600549628
 30
0.0
 11
120.9410172341106
 21
49.154505717198
 31
0.0
  0
LINE
  5
10EC
330
FCA
100
AcDbEntity
  8
0
  6
Continuous
 62
     7
100
AcDbLine
 10
123.6723731390227
 20
49.15450567272422
 30
0.0
 11
124.1455128579776
 21
48.044505189912
 31
0.0
  0
LINE
  5
10ED
330
FCA
100
AcDbEntity
  8
0
  6
Continuous
 62
     7
100
AcDbLine
 10
123.2171467698198
 20
49.15450577293199
 30
0.0
 11
123.6723736680131
 21
49.15450577293199
 31
0.0
  0
LINE
  5
10EE
330
FCA
100
AcDbEntity
  8
0
  6
Continuous
 62
     7
100
AcDbLine
 10
120.3519658005815
 20
48.04450516258043
 30
0.0
 11
120.8071888840776
 21
48.04450516258043
 31
0.0
  0
LINE
  5
10EF
330
FCA
100
AcDbEntity
  8
0
  6
Continuous
 62
     7
100
AcDbLine
 10
124.1455143845659
 20
48.04450516258043
 30
0.0
 11
124.600737468062
 21
48.04450516258043
 31
0.0
  0
LINE
  5
10F0
330
FCA
100
AcDbEntity
  8
0
  6
Continuous
 62
     7
100
AcDbLine
 10
121.565897837935
 20
48.04450516258043
 30
0.0
 11
123.3868016160112
 21
48.04450516258043
 31
0.0
  0
LINE
  5
10F1
330
FCA
100
AcDbEntity
  8
0
  6
Continuous
 62
     7
100
AcDbLine
 10
129.3006581223588
 20
17.29450611625475
 30
0.0
 11
134.459883586226
 21
17.29450611625475
 31
0.0
  0
LINE
  5
10F2
330
FCA
100
AcDbEntity
  8
0
  6
Continuous
 62
     7
100
AcDbLine
 10
126.0490292466264
 20
15.73450617347521
 30
0.0
 11
126.5042523301225
 21
15.73450617347521
 31
0.0
  0
LINE
  5
10F3
330
FCA
100
AcDbEntity
  8
0
  6
Continuous
 62
     7
100
AcDbLine
 10
125.1206616318803
 20
16.84450630698961
 30
0.0
 11
125.5758885300737
 21
16.84450630698961
 31
0.0
  0
LINE
  5
10F4
330
FCA
100
AcDbEntity
  8
0
  6
Continuous
 62
     7
100
AcDbLine
 10
125.5758897614406
 20
16.84450653540384
 30
0.0
 11
126.0490291064447
 21
15.73450692989174
 31
0.0
  0
LINE
  5
10F5
330
FCA
100
AcDbEntity
  8
0
  6
Continuous
 62
     7
100
AcDbLine
 10
128.7803816210587
 20
15.73450600743952
 30
0.0
 11
128.9142098929142
 21
16.84450571914122
 31
0.0
  0
LINE
  5
10F6
330
FCA
100
AcDbEntity
  8
0
  6
Continuous
 62
     7
100
AcDbLine
 10
128.3251561081987
 20
15.73450617347521
 30
0.0
 11
128.780383006392
 21
15.73450617347521
 31
0.0
  0
LINE
  5
10F7
330
FCA
100
AcDbEntity
  8
0
  6
Continuous
 62
     7
100
AcDbLine
 10
126.3345974839311
 20
16.84450630698961
 30
0.0
 11
128.1555012620073
 21
16.84450630698961
 31
0.0
  0
LINE
  5
10F8
330
FCA
100
AcDbEntity
  8
0
  6
Continuous
 62
     7
100
AcDbLine
 10
128.9142102158647
 20
16.84450630698961
 30
0.0
 11
129.3694371140581
 21
16.84450630698961
 31
0.0
  0
LINE
  5
10F9
330
FCA
100
AcDbEntity
  8
0
  6
Continuous
 62
     7
100
AcDbLine
 10
137.7331585679911
 20
15.73450632086565
 30
0.0
 11
132.6251490645259
 21
49.15450637425776
 31
0.0
  0
LINE
  5
10FA
330
FCA
100
AcDbEntity
  8
0
  6
Continuous
 62
     7
100
AcDbLine
 10
138.7774393558856
 20
16.84450648219631
 30
0.0
 11
134.0087409567366
 21
48.04450731345104
 31
0.0
  0
LINE
  5
10FB
330
FCA
100
AcDbEntity
  8
0
  6
Continuous
 62
     7
100
AcDbLine
 10
134.0775212205034
 20
47.59450439964099
 30
0.0
 11
139.2367466843706
 21
47.59450439964099
 31
0.0
  0
LINE
  5
10FC
330
FCA
100
AcDbEntity
  8
0
  6
Continuous
 62
     7
100
AcDbLine
 10
130.9739025986772
 20
48.04450516258043
 30
0.0
 11
132.7948063767534
 21
48.04450516258043
 31
0.0
  0
LINE
  5
10FD
330
FCA
100
AcDbEntity
  8
0
  6
Continuous
 62
     7
100
AcDbLine
 10
130.3490208542924
 20
49.15450577293199
 30
0.0
 11
130.8042439377885
 21
49.15450577293199
 31
0.0
  0
LINE
  5
10FE
330
FCA
100
AcDbEntity
  8
0
  6
Continuous
 62
     7
100
AcDbLine
 10
135.9122558420526
 20
15.73450644650524
 30
0.0
 11
130.8042465277042
 21
49.15450526256896
 31
0.0
  0
LINE
  5
10FF
330
FCA
100
AcDbEntity
  8
0
  6
Continuous
 62
     7
100
AcDbLine
 10
134.528663823764
 20
16.84450633219755
 30
0.0
 11
129.759965568704
 21
48.04450622072589
 31
0.0
  0
LINE
  5
1100
330
FCA
100
AcDbEntity
  8
0
  6
Continuous
 62
     7
100
AcDbLine
 10
134.9838904457237
 20
16.84450645960678
 30
0.0
 11
130.2151921456359
 21
48.04450664273712
 31
0.0
  0
LINE
  5
1101
330
FCA
100
AcDbEntity
  8
0
  6
Continuous
 62
     7
100
AcDbLine
 10
138.3222127316746
 20
16.84450636951718
 30
0.0
 11
133.5535143798047
 21
48.04450689143981
 31
0.0
  0
LINE
  5
1102
330
FCA
100
AcDbEntity
  8
0
  6
Continuous
 62
     7
100
AcDbLine
 10
138.1883851809453
 20
15.73450650719528
 30
0.0
 11
133.0803756414578
 21
49.15450679626899
 31
0.0
  0
LINE
  5
1103
330
FCA
100
AcDbEntity
  8
0
  6
Continuous
 62
     7
100
AcDbLine
 10
135.4570292110873
 20
15.73450637801641
 30
0.0
 11
130.3490199507723
 21
49.15450484055774
 31
0.0
  0
LINE
  5
1104
330
FCA
100
AcDbEntity
  8
0
  6
Continuous
 62
     7
100
AcDbLine
 10
130.2151929698494
 20
48.04450462259094
 30
0.0
 11
130.3490212417047
 21
49.15450433429263
 31
0.0
  0
LINE
  5
1105
330
FCA
100
AcDbEntity
  8
0
  6
Continuous
 62
     7
100
AcDbLine
 10
133.0803761342693
 20
49.15450653147916
 30
0.0
 11
133.5535158532242
 21
48.04450604866692
 31
0.0
  0
LINE
  5
1106
330
FCA
100
AcDbEntity
  8
0
  6
Continuous
 62
     7
100
AcDbLine
 10
132.6251477158647
 20
49.15450577293199
 30
0.0
 11
133.0803746140581
 21
49.15450577293199
 31
0.0
  0
LINE
  5
1107
330
FCA
100
AcDbEntity
  8
0
  6
Continuous
 62
     7
100
AcDbLine
 10
129.7599667466264
 20
48.04450516258043
 30
0.0
 11
130.2151898301225
 21
48.04450516258043
 31
0.0
  0
LINE
  5
1108
330
FCA
100
AcDbEntity
  8
0
  6
Continuous
 62
     7
100
AcDbLine
 10
133.5535153306108
 20
48.04450516258043
 30
0.0
 11
134.0087384141069
 21
48.04450516258043
 31
0.0
  0
LINE
  5
1109
330
FCA
100
AcDbEntity
  8
0
  6
Continuous
 62
     7
100
AcDbLine
 10
130.9739025986772
 20
48.04450516258043
 30
0.0
 11
132.7948063767534
 21
48.04450516258043
 31
0.0
  0
LINE
  5
110A
330
FCA
100
AcDbEntity
  8
0
  6
Continuous
 62
     7
100
AcDbLine
 10
138.7086590684038
 20
17.29450611625475
 30
0.0
 11
143.8678845322709
 21
17.29450611625475
 31
0.0
  0
LINE
  5
110B
330
FCA
100
AcDbEntity
  8
0
  6
Continuous
 62
     7
100
AcDbLine
 10
135.4570301926713
 20
15.73450617347521
 30
0.0
 11
135.9122532761674
 21
15.73450617347521
 31
0.0
  0
LINE
  5
110C
330
FCA
100
AcDbEntity
  8
0
  6
Continuous
 62
     7
100
AcDbLine
 10
134.5286625779253
 20
16.84450630698961
 30
0.0
 11
134.9838894761186
 21
16.84450630698961
 31
0.0
  0
LINE
  5
110D
330
FCA
100
AcDbEntity
  8
0
  6
Continuous
 62
     7
100
AcDbLine
 10
134.9838892474866
 20
16.84450589835565
 30
0.0
 11
135.4570289664415
 21
15.73450541554343
 31
0.0
  0
LINE
  5
110E
330
FCA
100
AcDbEntity
  8
0
  6
Continuous
 62
     7
100
AcDbLine
 10
138.1883857428069
 20
15.73450557135175
 30
0.0
 11
138.3222141288165
 21
16.84450622987104
 31
0.0
  0
LINE
  5
110F
330
FCA
100
AcDbEntity
  8
0
  6
Continuous
 62
     7
100
AcDbLine
 10
137.7331570542436
 20
15.73450617347521
 30
0.0
 11
138.188383952437
 21
15.73450617347521
 31
0.0
  0
LINE
  5
1110
330
FCA
100
AcDbEntity
  8
0
  6
Continuous
 62
     7
100
AcDbLine
 10
135.742598429976
 20
16.84450630698961
 30
0.0
 11
137.5635022080522
 21
16.84450630698961
 31
0.0
  0
LINE
  5
1111
330
FCA
100
AcDbEntity
  8
0
  6
Continuous
 62
     7
100
AcDbLine
 10
138.3222111619096
 20
16.84450630698961
 30
0.0
 11
138.777438060103
 21
16.84450630698961
 31
0.0
  0
LINE
  5
1112
330
FCA
100
AcDbEntity
  8
0
  6
Continuous
 62
     7
100
AcDbLine
 10
147.1411628761536
 20
15.73450687568162
 30
0.0
 11
142.0331532826327
 21
49.15450751827773
 31
0.0
  0
LINE
  5
1113
330
FCA
100
AcDbEntity
  8
0
  6
Continuous
 62
     7
100
AcDbLine
 10
148.185439902148
 20
16.84450640173576
 30
0.0
 11
143.4167416921158
 21
48.04450599566211
 31
0.0
  0
LINE
  5
1114
330
FCA
100
AcDbEntity
  8
0
  6
Continuous
 62
     7
100
AcDbLine
 10
143.4855221665483
 20
47.59450439964099
 30
0.0
 11
148.6447476304155
 21
47.59450439964099
 31
0.0
  0
LINE
  5
1115
330
FCA
100
AcDbEntity
  8
0
  6
Continuous
 62
     7
100
AcDbLine
 10
140.3819035447221
 20
48.04450516258043
 30
0.0
 11
142.2028073227983
 21
48.04450516258043
 31
0.0
  0
LINE
  5
1116
330
FCA
100
AcDbEntity
  8
0
  6
Continuous
 62
     7
100
AcDbLine
 10
139.7570218003373
 20
49.15450577293199
 30
0.0
 11
140.2122448838334
 21
49.15450577293199
 31
0.0
  0
LINE
  5
1117
330
FCA
100
AcDbEntity
  8
0
  6
Continuous
 62
     7
100
AcDbLine
 10
145.320256388315
 20
15.73450636604469
 30
0.0
 11
140.2122469749054
 21
49.15450583023282
 31
0.0
  0
LINE
  5
1118
330
FCA
100
AcDbEntity
  8
0
  6
Continuous
 62
     7
100
AcDbLine
 10
143.9366643700265
 20
16.84450625173701
 30
0.0
 11
139.1679660159052
 21
48.04450678838975
 31
0.0
  0
LINE
  5
1119
330
FCA
100
AcDbEntity
  8
0
  6
Continuous
 62
     7
100
AcDbLine
 10
144.3918909829805
 20
16.84450643806664
 30
0.0
 11
139.6231925928371
 21
48.04450721040097
 31
0.0
  0
LINE
  5
111A
330
FCA
100
AcDbEntity
  8
0
  6
Continuous
 62
     7
100
AcDbLine
 10
147.7302170420884
 20
16.84450690960305
 30
0.0
 11
142.9615188860896
 21
48.04450615000701
 31
0.0
  0
LINE
  5
111B
330
FCA
100
AcDbEntity
  8
0
  6
Continuous
 62
     7
100
AcDbLine
 10
147.5963857182021
 20
15.73450648565513
 30
0.0
 11
142.488376376837
 21
49.15450547848006
 31
0.0
  0
LINE
  5
111C
330
FCA
100
AcDbEntity
  8
0
  6
Continuous
 62
     7
100
AcDbLine
 10
144.8650297753609
 20
15.73450617971507
 30
0.0
 11
139.7570203979735
 21
49.1545054082216
 31
0.0
  0
LINE
  5
111D
330
FCA
100
AcDbEntity
  8
0
  6
Continuous
 62
     7
100
AcDbLine
 10
139.6231936467894
 20
48.04450748357215
 30
0.0
 11
139.7570219186449
 21
49.15450719527385
 31
0.0
  0
LINE
  5
111E
330
FCA
100
AcDbEntity
  8
0
  6
Continuous
 62
     7
100
AcDbLine
 10
142.4883791295159
 20
49.15450739023405
 30
0.0
 11
142.9615188484708
 21
48.04450690742182
 31
0.0
  0
LINE
  5
111F
330
FCA
100
AcDbEntity
  8
0
  6
Continuous
 62
     7
100
AcDbLine
 10
142.0331486619096
 20
49.15450577293199
 30
0.0
 11
142.488375560103
 21
49.15450577293199
 31
0.0
  0
LINE
  5
1120
330
FCA
100
AcDbEntity
  8
0
  6
Continuous
 62
     7
100
AcDbLine
 10
139.1679676926713
 20
48.04450516258043
 30
0.0
 11
139.6231907761674
 21
48.04450516258043
 31
0.0
  0
LINE
  5
1121
330
FCA
100
AcDbEntity
  8
0
  6
Continuous
 62
     7
100
AcDbLine
 10
142.9615162766557
 20
48.04450516258043
 30
0.0
 11
143.4167431748491
 21
48.04450516258043
 31
0.0
  0
LINE
  5
1122
330
FCA
100
AcDbEntity
  8
0
  6
Continuous
 62
     7
100
AcDbLine
 10
140.3819035447221
 20
48.04450516258043
 30
0.0
 11
142.2028073227983
 21
48.04450516258043
 31
0.0
  0
LINE
  5
1123
330
FCA
100
AcDbEntity
  8
0
  6
Continuous
 62
     7
100
AcDbLine
 10
148.116663829146
 20
17.29450611625475
 30
0.0
 11
153.2758892930131
 21
17.29450611625475
 31
0.0
  0
LINE
  5
1124
330
FCA
100
AcDbEntity
  8
0
  6
Continuous
 62
     7
100
AcDbLine
 10
144.8650311387163
 20
15.73450617347521
 30
0.0
 11
145.3202542222124
 21
15.73450617347521
 31
0.0
  0
LINE
  5
1125
330
FCA
100
AcDbEntity
  8
0
  6
Continuous
 62
     7
100
AcDbLine
 10
143.9366635239702
 20
16.84450630698961
 30
0.0
 11
144.3918904221635
 21
16.84450630698961
 31
0.0
  0
LINE
  5
1126
330
FCA
100
AcDbEntity
  8
0
  6
Continuous
 62
     7
100
AcDbLine
 10
144.3918922427332
 20
16.84450675711057
 30
0.0
 11
144.8650319616881
 21
15.73450627429834
 31
0.0
  0
LINE
  5
1127
330
FCA
100
AcDbEntity
  8
0
  6
Continuous
 62
     7
100
AcDbLine
 10
147.5963822900144
 20
15.73450604849638
 30
0.0
 11
147.730210676024
 21
16.84450670701568
 31
0.0
  0
LINE
  5
1128
330
FCA
100
AcDbEntity
  8
0
  6
Continuous
 62
     7
100
AcDbLine
 10
147.1411618149858
 20
15.73450617347521
 30
0.0
 11
147.5963848984819
 21
15.73450617347521
 31
0.0
  0
LINE
  5
1129
330
FCA
100
AcDbEntity
  8
0
  6
Continuous
 62
     7
100
AcDbLine
 10
145.1505993760209
 20
16.84450630698961
 30
0.0
 11
146.9715069687944
 21
16.84450630698961
 31
0.0
  0
LINE
  5
112A
330
FCA
100
AcDbEntity
  8
0
  6
Continuous
 62
     7
100
AcDbLine
 10
147.7302121079546
 20
16.84450630698961
 30
0.0
 11
148.1854428208452
 21
16.84450630698961
 31
0.0
  0
LINE
  5
112B
330
FCA
100
AcDbEntity
  8
0
  6
Continuous
 62
     7
100
AcDbLine
 10
156.549159660516
 20
15.73450615994456
 30
0.0
 11
151.4411502471064
 21
49.15450562413268
 31
0.0
  0
LINE
  5
112C
330
FCA
100
AcDbEntity
  8
0
  6
Continuous
 62
     7
100
AcDbLine
 10
157.5934442103104
 20
16.84450695655173
 30
0.0
 11
152.8247459102226
 21
48.04450713968208
 31
0.0
  0
LINE
  5
112D
330
FCA
100
AcDbEntity
  8
0
  6
Continuous
 62
     7
100
AcDbLine
 10
152.893519297896
 20
47.59450439964099
 30
0.0
 11
158.0527447617631
 21
47.59450439964099
 31
0.0
  0
LINE
  5
112E
330
FCA
100
AcDbEntity
  8
0
  6
Continuous
 62
     7
100
AcDbLine
 10
149.789904490767
 20
48.04450516258043
 30
0.0
 11
151.610804454146
 21
48.04450516258043
 31
0.0
  0
LINE
  5
112F
330
FCA
100
AcDbEntity
  8
0
  6
Continuous
 62
     7
100
AcDbLine
 10
149.165018931685
 20
49.15450577293199
 30
0.0
 11
149.6202496445756
 21
49.15450577293199
 31
0.0
  0
LINE
  5
1130
330
FCA
100
AcDbEntity
  8
0
  6
Continuous
 62
     7
100
AcDbLine
 10
154.7282607144885
 20
15.73450680301987
 30
0.0
 11
149.6202511930122
 21
49.15450697425279
 31
0.0
  0
LINE
  5
1131
330
FCA
100
AcDbEntity
  8
0
  6
Continuous
 62
     7
100
AcDbLine
 10
153.3446649072833
 20
16.84450623019685
 30
0.0
 11
148.5759667512845
 21
48.04450547060081
 31
0.0
  0
LINE
  5
1132
330
FCA
100
AcDbEntity
  8
0
  6
Continuous
 62
     7
100
AcDbLine
 10
153.799895291143
 20
16.84450699288261
 30
0.0
 11
149.0311970991219
 21
48.04450646896815
 31
0.0
  0
LINE
  5
1133
330
FCA
100
AcDbEntity
  8
0
  6
Continuous
 62
     7
100
AcDbLine
 10
157.1382138264508
 20
16.84450619386599
 30
0.0
 11
152.3695155623852
 21
48.04450614131472
 31
0.0
  0
LINE
  5
1134
330
FCA
100
AcDbEntity
  8
0
  6
Continuous
 62
     7
100
AcDbLine
 10
157.0043900083534
 20
15.7345071583119
 30
0.0
 11
151.8963805949438
 21
49.15450662250003
 31
0.0
  0
LINE
  5
1135
330
FCA
100
AcDbEntity
  8
0
  6
Continuous
 62
     7
100
AcDbLine
 10
154.2730302946066
 20
15.73450627601572
 30
0.0
 11
149.1650208451748
 21
49.15450597588542
 31
0.0
  0
LINE
  5
1136
330
FCA
100
AcDbEntity
  8
0
  6
Continuous
 62
     7
100
AcDbLine
 10
149.0311938671132
 20
48.04450655728299
 30
0.0
 11
149.1650221389687
 21
49.15450626898469
 31
0.0
  0
LINE
  5
1137
330
FCA
100
AcDbEntity
  8
0
  6
Continuous
 62
     7
100
AcDbLine
 10
151.8963754803123
 20
49.15450438008264
 30
0.0
 11
152.3695148253163
 21
48.04450477457057
 31
0.0
  0
LINE
  5
1138
330
FCA
100
AcDbEntity
  8
0
  6
Continuous
 62
     7
100
AcDbLine
 10
151.4411496079546
 20
49.15450577293199
 30
0.0
 11
151.8963803208452
 21
49.15450577293199
 31
0.0
  0
LINE
  5
1139
330
FCA
100
AcDbEntity
  8
0
  6
Continuous
 62
     7
100
AcDbLine
 10
148.5759686387163
 20
48.04450516258043
 30
0.0
 11
149.0311917222124
 21
48.04450516258043
 31
0.0
  0
LINE
  5
113A
330
FCA
100
AcDbEntity
  8
0
  6
Continuous
 62
     7
100
AcDbLine
 10
152.3695172227006
 20
48.04450516258043
 30
0.0
 11
152.8247403061967
 21
48.04450516258043
 31
0.0
  0
LINE
  5
113B
330
FCA
100
AcDbEntity
  8
0
  6
Continuous
 62
     7
100
AcDbLine
 10
149.789904490767
 20
48.04450516258043
 30
0.0
 11
151.610804454146
 21
48.04450516258043
 31
0.0
  0
LINE
  5
113C
330
FCA
100
AcDbEntity
  8
0
  6
Continuous
 62
     7
100
AcDbLine
 10
157.5246609604936
 20
17.29450611625475
 30
0.0
 11
162.6838864243608
 21
17.29450611625475
 31
0.0
  0
LINE
  5
113D
330
FCA
100
AcDbEntity
  8
0
  6
Continuous
 62
     7
100
AcDbLine
 10
154.2730282700639
 20
15.73450617347521
 30
0.0
 11
154.7282589829545
 21
15.73450617347521
 31
0.0
  0
LINE
  5
113E
330
FCA
100
AcDbEntity
  8
0
  6
Continuous
 62
     7
100
AcDbLine
 10
153.3446682847124
 20
16.84450630698961
 30
0.0
 11
153.7998913682085
 21
16.84450630698961
 31
0.0
  0
LINE
  5
113F
330
FCA
100
AcDbEntity
  8
0
  6
Continuous
 62
     7
100
AcDbLine
 10
153.7998952379799
 20
16.84450761586547
 30
0.0
 11
154.2730349569346
 21
15.73450713305325
 31
0.0
  0
LINE
  5
1140
330
FCA
100
AcDbEntity
  8
0
  6
Continuous
 62
     7
100
AcDbLine
 10
157.0043864117627
 20
15.73450561240862
 30
0.0
 11
157.1382146836181
 21
16.84450532411032
 31
0.0
  0
LINE
  5
1141
330
FCA
100
AcDbEntity
  8
0
  6
Continuous
 62
     7
100
AcDbLine
 10
156.5491589463334
 20
15.73450617347521
 30
0.0
 11
157.0043896592241
 21
15.73450617347521
 31
0.0
  0
LINE
  5
1142
330
FCA
100
AcDbEntity
  8
0
  6
Continuous
 62
     7
100
AcDbLine
 10
154.5586041367631
 20
16.84450630698961
 30
0.0
 11
156.379504100142
 21
16.84450630698961
 31
0.0
  0
LINE
  5
1143
330
FCA
100
AcDbEntity
  8
0
  6
Continuous
 62
     7
100
AcDbLine
 10
157.1382168686967
 20
16.84450630698961
 30
0.0
 11
157.5934399521928
 21
16.84450630698961
 31
0.0
  0
LINE
  5
1144
330
FCA
100
AcDbEntity
  8
0
  6
Continuous
 62
     7
100
AcDbLine
 10
165.9571639506673
 20
15.73450683260133
 30
0.0
 11
160.8491544652132
 21
49.15450676815265
 31
0.0
  0
LINE
  5
1145
330
FCA
100
AcDbEntity
  8
0
  6
Continuous
 62
     7
100
AcDbLine
 10
167.0014409946729
 20
16.84450624081467
 30
0.0
 11
162.2327425865182
 21
48.04450713098979
 31
0.0
  0
LINE
  5
1146
330
FCA
100
AcDbEntity
  8
0
  6
Continuous
 62
     7
100
AcDbLine
 10
162.3015240586381
 20
47.59450439964099
 30
0.0
 11
167.4607495225053
 21
47.59450439964099
 31
0.0
  0
LINE
  5
1147
330
FCA
100
AcDbEntity
  8
0
  6
Continuous
 62
     7
100
AcDbLine
 10
159.1979016221147
 20
48.04450516258043
 30
0.0
 11
161.0188092148881
 21
48.04450516258043
 31
0.0
  0
LINE
  5
1148
330
FCA
100
AcDbEntity
  8
0
  6
Continuous
 62
     7
100
AcDbLine
 10
158.5730236924272
 20
49.15450577293199
 30
0.0
 11
159.0282467759233
 21
49.15450577293199
 31
0.0
  0
LINE
  5
1149
330
FCA
100
AcDbEntity
  8
0
  6
Continuous
 62
     7
100
AcDbLine
 10
164.1362574988509
 20
15.73450608728281
 30
0.0
 11
159.0282478693078
 21
49.15450696556051
 31
0.0
  0
LINE
  5
114A
330
FCA
100
AcDbEntity
  8
0
  6
Continuous
 62
     7
100
AcDbLine
 10
162.7526692334568
 20
16.84450666717203
 30
0.0
 11
157.9839709693913
 21
48.04450661462078
 31
0.0
  0
LINE
  5
114B
330
FCA
100
AcDbEntity
  8
0
  6
Continuous
 62
     7
100
AcDbLine
 10
163.2078920755054
 20
16.84450627714555
 30
0.0
 11
158.4391937754176
 21
48.04450646027587
 31
0.0
  0
LINE
  5
114C
330
FCA
100
AcDbEntity
  8
0
  6
Continuous
 62
     7
100
AcDbLine
 10
166.5462181166021
 20
16.84450686652276
 30
0.0
 11
161.777519780492
 21
48.0445072853347
 31
0.0
  0
LINE
  5
114D
330
FCA
100
AcDbEntity
  8
0
  6
Continuous
 62
     7
100
AcDbLine
 10
166.4123868287381
 20
15.73450620689324
 30
0.0
 11
161.3043772712394
 21
49.15450661380775
 31
0.0
  0
LINE
  5
114E
330
FCA
100
AcDbEntity
  8
0
  6
Continuous
 62
     7
100
AcDbLine
 10
163.6810346207802
 20
15.7345067129909
 30
0.0
 11
158.5730250632816
 21
49.15450711990541
 31
0.0
  0
LINE
  5
114F
330
FCA
100
AcDbEntity
  8
0
  6
Continuous
 62
     7
100
AcDbLine
 10
158.4391978747074
 20
48.04450517437761
 30
0.0
 11
158.5730261465629
 21
49.15450488607933
 31
0.0
  0
LINE
  5
1150
330
FCA
100
AcDbEntity
  8
0
  6
Continuous
 62
     7
100
AcDbLine
 10
161.3043782885835
 20
49.15450567748764
 30
0.0
 11
161.777517820563
 21
48.04450563332547
 31
0.0
  0
LINE
  5
1151
330
FCA
100
AcDbEntity
  8
0
  6
Continuous
 62
     7
100
AcDbLine
 10
160.8491543686967
 20
49.15450577293199
 30
0.0
 11
161.3043774521928
 21
49.15450577293199
 31
0.0
  0
LINE
  5
1152
330
FCA
100
AcDbEntity
  8
0
  6
Continuous
 62
     7
100
AcDbLine
 10
157.9839657700639
 20
48.04450516258043
 30
0.0
 11
158.4391964829545
 21
48.04450516258043
 31
0.0
  0
LINE
  5
1153
330
FCA
100
AcDbEntity
  8
0
  6
Continuous
 62
     7
100
AcDbLine
 10
161.7775219834428
 20
48.04450516258043
 30
0.0
 11
162.2327450669389
 21
48.04450516258043
 31
0.0
  0
LINE
  5
1154
330
FCA
100
AcDbEntity
  8
0
  6
Continuous
 62
     7
100
AcDbLine
 10
159.1979016221147
 20
48.04450516258043
 30
0.0
 11
161.0188092148881
 21
48.04450516258043
 31
0.0
  0
LINE
  5
1155
330
FCA
100
AcDbEntity
  8
0
  6
Continuous
 62
     7
100
AcDbLine
 10
166.9326657212358
 20
17.29450611625475
 30
0.0
 11
167.4607495225053
 21
17.29450611625475
 31
0.0
  0
LINE
  5
1156
330
FCA
100
AcDbEntity
  8
0
  6
Continuous
 62
     7
100
AcDbLine
 10
163.6810330308061
 20
15.73450617347521
 30
0.0
 11
164.1362561143022
 21
15.73450617347521
 31
0.0
  0
LINE
  5
1157
330
FCA
100
AcDbEntity
  8
0
  6
Continuous
 62
     7
100
AcDbLine
 10
162.75266541606
 20
16.84450630698961
 30
0.0
 11
163.2078961289506
 21
16.84450630698961
 31
0.0
  0
LINE
  5
1158
330
FCA
100
AcDbEntity
  8
0
  6
Continuous
 62
     7
100
AcDbLine
 10
163.2078912148254
 20
16.8445054830142
 30
0.0
 11
163.6810309337803
 21
15.73450500020198
 31
0.0
  0
LINE
  5
1159
330
FCA
100
AcDbEntity
  8
0
  6
Continuous
 62
     7
100
AcDbLine
 10
166.412390647665
 20
15.73450612313845
 30
0.0
 11
166.5462189195205
 21
16.84450583484015
 31
0.0
  0
LINE
  5
115A
330
FCA
100
AcDbEntity
  8
0
  6
Continuous
 62
     7
100
AcDbLine
 10
165.9571637070756
 20
15.73450617347521
 30
0.0
 11
166.4123867905717
 21
15.73450617347521
 31
0.0
  0
LINE
  5
115B
330
FCA
100
AcDbEntity
  8
0
  6
Continuous
 62
     7
100
AcDbLine
 10
163.9666012681108
 20
16.84450630698961
 30
0.0
 11
165.7875088608842
 21
16.84450630698961
 31
0.0
  0
LINE
  5
115C
330
FCA
100
AcDbEntity
  8
0
  6
Continuous
 62
     7
100
AcDbLine
 10
166.5462140000444
 20
16.84450630698961
 30
0.0
 11
167.001444712935
 21
16.84450630698961
 31
0.0
  0
LINE
  5
115D
330
FCA
100
AcDbEntity
  8
0
  6
Continuous
 62
     7
100
AcDbLine
 10
16.40464295512254
 20
47.59450439964099
 30
0.0
 11
16.40464295512254
 21
17.29450611625475
 31
0.0
  0
LINE
  5
115E
330
FCA
100
AcDbEntity
  8
0
  6
Continuous
 62
     7
100
AcDbLine
 10
167.4607495225053
 20
47.59450439964099
 30
0.0
 11
167.4607495225053
 21
17.29450611625475
 31
0.0
  0
LINE
  5
115F
330
FCA
100
AcDbEntity
  8
0
  6
Continuous
 62
     7
100
AcDbLine
 10
113.0630692399126
 20
17.29450611625475
 30
0.0
 11
115.6438816941362
 21
17.29450611625475
 31
0.0
  0
LINE
  5
1160
330
FCA
100
AcDbEntity
  8
0
  6
Continuous
 62
     7
100
AcDbLine
 10
110.4530838883501
 20
47.59450439964099
 30
0.0
 11
111.0127419388872
 21
47.59450439964099
 31
0.0
  0
LINE
  5
1161
330
FCA
100
AcDbEntity
  8
0
  6
CENTER
 62
     7
100
AcDbLine
 10
11.60521210795457
 20
32.44450668845934
 30
0.0
 11
172.0410717881303
 21
32.44450668845934
 31
0.0
  0
SPLINE
  5
1162
330
FCA
100
AcDbEntity
  8
0
  6
Continuous
 62
     7
100
AcDbSpline
210
0.0
220
0.0
230
1.0
 70
  1064
 71
     3
 72
    17
 73
    13
 74
    11
 42
0.000000001
 43
0.0000000001
 44
0.0000000001
 12
-0.1816408976568605
 22
-0.9833649293616332
 32
0.0
 13
0.008474160179044
 23
-0.9999640936599973
 33
0.0
 40
0.0
 40
0.0
 40
0.0
 40
0.0
 40
3.677768270158252
 40
7.354903342072899
 40
11.03110166302312
 40
14.7084353334187
 40
18.38668940006258
 40
22.06498855182157
 40
25.74252721355549
 40
29.4204783975768
 40
33.09868702649827
 40
36.77725180446302
 40
36.77725180446302
 40
36.77725180446302
 40
36.77725180446302
 10
109.4527748978715
 20
50.83243469749255
 30
0.0
 10
109.230097187883
 20
49.62690525242834
 30
0.0
 10
108.8456805057857
 20
47.20396938786831
 30
0.0
 10
108.5414926702039
 20
43.53432167284259
 30
0.0
 10
108.644957513788
 20
39.8496559337728
 30
0.0
 10
109.170181603072
 20
36.20526249201992
 30
0.0
 10
109.8836052360413
 20
32.59738051235657
 30
0.0
 10
110.6144374717347
 20
28.99223459407325
 30
0.0
 10
111.148206375775
 20
25.35035139449431
 30
0.0
 10
111.4326746721944
 20
21.68141413059786
 30
0.0
 10
111.5630490221794
 20
18.00497525747141
 30
0.0
 10
111.5897857918447
 20
15.55275150197117
 30
0.0
 10
111.6001767075639
 20
14.32660727058214
 30
0.0
 11
109.4527748978715
 21
50.83243469749255
 31
0.0
 11
108.8910556657946
 21
47.19781629203403
 31
0.0
 11
108.6094201566581
 21
43.53148245874796
 31
0.0
 11
108.7152071405169
 21
39.85680652623319
 31
0.0
 11
109.2014784231015
 21
36.21176562616656
 31
0.0
 11
109.8865017040577
 21
32.59786246153551
 31
0.0
 11
110.5816406021958
 21
28.98584549561104
 31
0.0
 11
111.1066434545601
 21
25.34597425976258
 31
0.0
 11
111.4069842277253
 21
21.68030647175746
 31
0.0
 11
111.5480005475124
 21
18.00480200088192
 31
0.0
 11
111.6001767075639
 21
14.32660727058214
 31
0.0
  0
SPLINE
  5
1163
330
FCA
100
AcDbEntity
  8
0
  6
Continuous
 62
     7
100
AcDbSpline
210
0.0
220
0.0
230
1.0
 70
  1064
 71
     3
 72
    17
 73
    13
 74
    11
 42
0.000000001
 43
0.0000000001
 44
0.0000000001
 12
-0.1816408976568605
 22
-0.9833649293616332
 32
0.0
 13
0.008474160179044
 23
-0.9999640936599973
 33
0.0
 40
0.0
 40
0.0
 40
0.0
 40
0.0
 40
3.64925795326966
 40
7.297793248659587
 40
10.9450763299442
 40
14.59379696452538
 40
18.2434187275154
 40
21.89296899323584
 40
25.54210030039882
 40
29.19151482826081
 40
32.84111982117638
 40
36.49046913747311
 40
36.49046913747311
 40
36.49046913747311
 40
36.49046913747311
 10
110.927822291914
 20
50.55997335100725
 30
0.0
 10
110.7068707951095
 20
49.36378925452745
 30
0.0
 10
110.3264304677288
 20
46.95954439338062
 30
0.0
 10
110.032394617575
 20
43.31717870665779
 30
0.0
 10
110.1696014106266
 20
39.66175324892482
 30
0.0
 10
110.72330048472
 20
36.05115113347923
 30
0.0
 10
111.4418523001499
 20
32.47374947921866
 30
0.0
 10
112.1557335413353
 20
28.89410041207903
 30
0.0
 10
112.6618861717491
 20
25.27721617857123
 30
0.0
 10
112.9365268142427
 20
21.63643202989029
 30
0.0
 10
113.0632497737757
 20
17.9886601704696
 30
0.0
 10
113.0898144578354
 20
15.55572460469051
 30
0.0
 10
113.1001228480539
 20
14.33931851085071
 30
0.0
 11
110.927822291914
 21
50.55997335100725
 31
0.0
 11
110.3724988070754
 21
46.95321588249227
 31
0.0
 11
110.1042516881483
 21
43.31455496329502
 31
0.0
 11
110.2389588793049
 21
39.66976033977017
 31
0.0
 11
110.7507035119701
 21
36.05710484828516
 31
0.0
 11
111.441074023558
 21
32.47337389163951
 31
0.0
 11
112.1211379350826
 21
28.88774560384085
 31
0.0
 11
112.623291489739
 21
25.27332986897264
 31
0.0
 11
112.9118691030517
 21
21.63534287651859
 31
0.0
 11
113.0487722756511
 21
17.98830652824256
 31
0.0
 11
113.1001228480539
 21
14.33931851085071
 31
0.0
  0
DIMENSION
  5
1164
330
FCA
100
AcDbEntity
  8
0
  6
Continuous
 62
     7
100
AcDbDimension
280
     0
  2
*D17
 10
3.199999705610821
 20
49.15450577293199
 30
0.0
 11
3.199999705610821
 21
32.44450668845934
 31
0.0
 12
81.97278107768111
 22
8.446490331037464
 32
0.0
 71
     5
 42
-1.0
 73
     0
 74
     0
 75
     0
  3
DIMSTYLE
100
AcDbAlignedDimension
 13
22.56101502543504
 23
15.73450617347521
 33
0.0
 14
17.45300568705613
 24
49.15450577293199
 34
0.0
 50
90.0
100
AcDbRotatedDimension
1001
ACAD
1000
DSTYLE
1002
{
1070
    77
1070
     1
1070
   172
1070
     1
1070
   147
1040
0.0
1002
}
  0
DIMENSION
  5
1165
330
FCA
100
AcDbEntity
  8
0
  6
Continuous
 62
     7
100
AcDbDimension
280
     0
  2
*D18
 10
8.171893016157696
 20
17.29450611625475
 30
0.0
 11
8.171893016157696
 21
32.44450668845934
 31
0.0
 12
81.97278107768111
 22
8.446490331037464
 32
0.0
 71
     5
 42
-1.0
 73
     0
 74
     0
 75
     0
  3
DIMSTYLE
100
AcDbAlignedDimension
 13
16.40464295512254
 23
47.59450439964099
 33
0.0
 14
16.40464295512254
 24
17.29450611625475
 34
0.0
 50
90.0
100
AcDbRotatedDimension
1001
ACAD
1000
DSTYLE
1002
{
1070
    77
1070
     1
1070
   172
1070
     1
1070
   147
1040
0.0
1002
}
  0
DIMENSION
  5
1166
330
FCA
100
AcDbEntity
  8
0
  6
Continuous
 62
     7
100
AcDbDimension
280
     0
  2
*D19
 10
167.4607495225053
 20
1.000000520093862
 30
0.0
 11
91.93269623881395
 21
1.000000520093862
 31
0.0
 12
81.97278107768111
 22
8.446490331037464
 32
0.0
 71
     5
 42
-1.0
 73
     0
 74
     0
 75
     0
  3
DIMSTYLE
100
AcDbAlignedDimension
 13
16.40464295512254
 23
17.29450611625475
 33
0.0
 14
167.4607495225053
 24
17.29450611625475
 34
0.0
100
AcDbRotatedDimension
1001
ACAD
1000
DSTYLE
1002
{
1070
    77
1070
     1
1070
   172
1070
     1
1070
   147
1040
0.0
1002
}
  0
DIMENSION
  5
1167
330
FCA
100
AcDbEntity
  8
0
  6
Continuous
 62
     7
100
AcDbDimension
280
     0
  2
*D20
 10
37.80433930522021
 20
52.34331421409411
 30
0.0
 11
33.10034073954636
 21
52.34331421409411
 31
0.0
 12
81.97278107768111
 22
8.446490331037464
 32
0.0
 71
     5
 42
-1.0
 73
     0
 74
     0
 75
     0
  3
DIMSTYLE
100
AcDbAlignedDimension
 13
28.39633835917528
 23
48.04450516258043
 33
0.0
 14
37.80433930522021
 24
48.04450516258043
 34
0.0
100
AcDbRotatedDimension
1001
ACAD
1000
DSTYLE
1002
{
1070
    77
1070
     1
1070
   172
1070
     1
1070
   147
1040
0.0
1002
}
  0
ENDBLK
  5
1169
330
FCA
100
AcDbEntity
  8
0
100
AcDbBlockEnd
  0
ENDSEC
  0
SECTION
  2
ENTITIES
  0
LINE
  5
111
330
D4
100
AcDbEntity
  8
外形線
100
AcDbLine
 10
-65.28352871482844
 20
55.36393076015265
 30
0.0
 11
-64.7554449135589
 21
55.36393076015265
 31
0.0
  0
LINE
  5
112
330
D4
100
AcDbEntity
  8
外形線
100
AcDbLine
 10
-65.28352871482844
 20
25.06393247676641
 30
0.0
 11
-60.12430325096125
 21
25.06393247676641
 31
0.0
  0
LINE
  5
113
330
D4
100
AcDbEntity
  8
外形線
100
AcDbLine
 10
-56.85103087976989
 20
23.5039313286315
 30
0.0
 11
-61.95904043726852
 21
56.923931735546
 31
0.0
  0
LINE
  5
114
330
D4
100
AcDbEntity
  8
外形線
100
AcDbLine
 10
-55.80675006485876
 20
24.61393131320097
 30
0.0
 11
-60.57544854505788
 21
55.81393267473931
 31
0.0
  0
LINE
  5
115
330
D4
100
AcDbEntity
  8
外形線
100
AcDbLine
 10
-60.50666943138117
 20
55.36393076015265
 30
0.0
 11
-55.34744015281671
 21
55.36393076015265
 31
0.0
  0
LINE
  5
116
330
D4
100
AcDbEntity
  8
外形線
100
AcDbLine
 10
-63.61028805320734
 20
55.8139315230921
 30
0.0
 11
-61.78938427513116
 21
55.8139315230921
 31
0.0
  0
LINE
  5
117
330
D4
100
AcDbEntity
  8
外形線
100
AcDbLine
 10
-64.23516598289484
 20
56.92393213344367
 30
0.0
 11
-63.77994289939874
 21
56.92393213344367
 31
0.0
  0
LINE
  5
118
330
D4
100
AcDbEntity
  8
外形線
100
AcDbLine
 10
-58.67193356068067
 20
23.50393115966909
 30
0.0
 11
-63.77994297409026
 21
56.92393062385722
 31
0.0
  0
LINE
  5
119
330
D4
100
AcDbEntity
  8
外形線
100
AcDbLine
 10
-60.05552574106935
 20
24.6139321059286
 30
0.0
 11
-64.82422422126846
 21
55.81393346746692
 31
0.0
  0
LINE
  5
11A
330
D4
100
AcDbEntity
  8
外形線
100
AcDbLine
 10
-59.60029916413753
 20
24.61393252793982
 30
0.0
 11
-64.36899706798057
 21
55.81393011857258
 31
0.0
  0
LINE
  5
11B
330
D4
100
AcDbEntity
  8
外形線
100
AcDbLine
 10
-56.26197664179059
 20
24.61393089118974
 30
0.0
 11
-61.03067512198972
 21
55.81393225272808
 31
0.0
  0
LINE
  5
11C
330
D4
100
AcDbEntity
  8
外形線
100
AcDbLine
 10
-56.39580430283809
 20
23.50393175064274
 30
0.0
 11
-61.50381386033668
 21
56.92393215755723
 31
0.0
  0
LINE
  5
11D
330
D4
100
AcDbEntity
  8
外形線
100
AcDbLine
 10
-59.12716042579058
 20
23.50393262311066
 30
0.0
 11
-64.23516955102212
 21
56.92393020184599
 31
0.0
  0
LINE
  5
11E
330
D4
100
AcDbEntity
  8
外形線
100
AcDbLine
 10
-64.36899786291769
 20
55.81393256322617
 30
0.0
 11
-64.23516959106217
 21
56.92393227492789
 31
0.0
  0
LINE
  5
11F
330
D4
100
AcDbEntity
  8
外形線
100
AcDbLine
 10
-61.50381117133935
 20
56.92393331635066
 30
0.0
 11
-61.03067220028603
 21
55.81393458813874
 31
0.0
  0
LINE
  5
120
330
D4
100
AcDbEntity
  8
外形線
100
AcDbLine
 10
-61.95903912132258
 20
56.92393213344367
 30
0.0
 11
-61.50381222312922
 21
56.92393213344367
 31
0.0
  0
LINE
  5
121
330
D4
100
AcDbEntity
  8
外形線
100
AcDbLine
 10
-64.82422390525812
 20
55.8139315230921
 30
0.0
 11
-64.3689931923675
 21
55.8139315230921
 31
0.0
  0
LINE
  5
122
330
D4
100
AcDbEntity
  8
外形線
100
AcDbLine
 10
-61.03067150657648
 20
55.8139315230921
 30
0.0
 11
-60.57544842308039
 21
55.8139315230921
 31
0.0
  0
LINE
  5
123
330
D4
100
AcDbEntity
  8
外形線
100
AcDbLine
 10
-63.61028805320734
 20
55.8139315230921
 30
0.0
 11
-61.78938427513116
 21
55.8139315230921
 31
0.0
  0
LINE
  5
124
330
D4
100
AcDbEntity
  8
外形線
100
AcDbLine
 10
-55.87552776878351
 20
25.06393247676641
 30
0.0
 11
-50.71630230491632
 21
25.06393247676641
 31
0.0
  0
LINE
  5
125
330
D4
100
AcDbEntity
  8
外形線
100
AcDbLine
 10
-59.12715664451593
 20
23.50393253398687
 30
0.0
 11
-58.67193356101984
 21
23.50393253398687
 31
0.0
  0
LINE
  5
126
330
D4
100
AcDbEntity
  8
外形線
100
AcDbLine
 10
-60.05552425926203
 20
24.61393266750127
 30
0.0
 11
-59.60029736106867
 21
24.61393266750127
 31
0.0
  0
LINE
  5
127
330
D4
100
AcDbEntity
  8
外形線
100
AcDbLine
 10
-59.60029805812201
 20
24.61393268322721
 30
0.0
 11
-59.12715833916713
 21
23.50393220041498
 31
0.0
  0
LINE
  5
128
330
D4
100
AcDbEntity
  8
外形線
100
AcDbLine
 10
-56.39580141327647
 20
23.50393213814127
 30
0.0
 11
-56.26197310218052
 21
24.61393217531152
 31
0.0
  0
LINE
  5
129
330
D4
100
AcDbEntity
  8
外形線
100
AcDbLine
 10
-56.85102978294366
 20
23.50393253398687
 30
0.0
 11
-56.39580288475031
 21
23.50393253398687
 31
0.0
  0
LINE
  5
12A
330
D4
100
AcDbEntity
  8
外形線
100
AcDbLine
 10
-58.84158840721124
 20
24.61393266750127
 30
0.0
 11
-57.02068462913508
 21
24.61393266750127
 31
0.0
  0
LINE
  5
12B
330
D4
100
AcDbEntity
  8
外形線
100
AcDbLine
 10
-56.26197567527765
 20
24.61393266750127
 30
0.0
 11
-55.80674877708429
 21
24.61393266750127
 31
0.0
  0
LINE
  5
12C
330
D4
100
AcDbEntity
  8
外形線
100
AcDbLine
 10
-47.44302666166311
 20
23.50393247265147
 30
0.0
 11
-52.55103593098366
 21
56.92393099411319
 31
0.0
  0
LINE
  5
12D
330
D4
100
AcDbEntity
  8
外形線
100
AcDbLine
 10
-46.39874961765753
 20
24.61393188086481
 30
0.0
 11
-51.16744780967863
 21
55.81393135695035
 31
0.0
  0
LINE
  5
12E
330
D4
100
AcDbEntity
  8
外形線
100
AcDbLine
 10
-51.09866467063898
 20
55.36393076015265
 30
0.0
 11
-45.93943920677179
 21
55.36393076015265
 31
0.0
  0
LINE
  5
12F
330
D4
100
AcDbEntity
  8
外形線
100
AcDbLine
 10
-54.20228329246516
 20
55.8139315230921
 30
0.0
 11
-52.38138332908625
 21
55.8139315230921
 31
0.0
  0
LINE
  5
130
330
D4
100
AcDbEntity
  8
外形線
100
AcDbLine
 10
-54.82716503684992
 20
56.92393213344367
 30
0.0
 11
-54.37194195335383
 21
56.92393213344367
 31
0.0
  0
LINE
  5
131
330
D4
100
AcDbEntity
  8
外形線
100
AcDbLine
 10
-49.26393311347948
 20
23.50393172733296
 30
0.0
 11
-54.37194281506712
 21
56.92393307697384
 31
0.0
  0
LINE
  5
132
330
D4
100
AcDbEntity
  8
外形線
100
AcDbLine
 10
-50.64752137887353
 20
24.61393230722217
 30
0.0
 11
-55.41621971498365
 21
55.81393272603413
 31
0.0
  0
LINE
  5
133
330
D4
100
AcDbEntity
  8
外形線
100
AcDbLine
 10
-50.19229857284727
 20
24.61393215287728
 30
0.0
 11
-54.96099690895738
 21
55.81393257168921
 31
0.0
  0
LINE
  5
134
330
D4
100
AcDbEntity
  8
外形線
100
AcDbLine
 10
-46.85397242368381
 20
24.6139320352097
 30
0.0
 11
-51.62267061570489
 21
55.81393151129526
 31
0.0
  0
LINE
  5
135
330
D4
100
AcDbEntity
  8
外形線
100
AcDbLine
 10
-46.98780371154782
 20
23.50393137558018
 30
0.0
 11
-52.09581312495743
 21
56.92393083976829
 31
0.0
  0
LINE
  5
136
330
D4
100
AcDbEntity
  8
外形線
100
AcDbLine
 10
-49.71915591950573
 20
23.50393188167783
 30
0.0
 11
-54.82716562109337
 21
56.92393323131874
 31
0.0
  0
LINE
  5
137
330
D4
100
AcDbEntity
  8
外形線
100
AcDbLine
 10
-54.96099385532346
 20
55.81393118032085
 30
0.0
 11
-54.82716558346798
 21
56.92393089202252
 31
0.0
  0
LINE
  5
138
330
D4
100
AcDbEntity
  8
外形線
100
AcDbLine
 10
-52.09581168529324
 20
56.92393267930251
 30
0.0
 11
-51.62267271423994
 21
55.81393395109055
 31
0.0
  0
LINE
  5
139
330
D4
100
AcDbEntity
  8
外形線
100
AcDbLine
 10
-52.55103817527765
 20
56.92393213344367
 30
0.0
 11
-52.09581127708429
 21
56.92393213344367
 31
0.0
  0
LINE
  5
13A
330
D4
100
AcDbEntity
  8
外形線
100
AcDbLine
 10
-55.41621914451593
 20
55.8139315230921
 30
0.0
 11
-54.96099606101984
 21
55.8139315230921
 31
0.0
  0
LINE
  5
13B
330
D4
100
AcDbEntity
  8
外形線
100
AcDbLine
 10
-51.62267056053156
 20
55.8139315230921
 30
0.0
 11
-51.16744747703546
 21
55.8139315230921
 31
0.0
  0
LINE
  5
13C
330
D4
100
AcDbEntity
  8
外形線
100
AcDbLine
 10
-54.20228329246516
 20
55.8139315230921
 30
0.0
 11
-52.38138332908625
 21
55.8139315230921
 31
0.0
  0
LINE
  5
13D
330
D4
100
AcDbEntity
  8
外形線
100
AcDbLine
 10
-46.46752682273858
 20
25.06393247676641
 30
0.0
 11
-41.3083013588714
 21
25.06393247676641
 31
0.0
  0
LINE
  5
13E
330
D4
100
AcDbEntity
  8
外形線
100
AcDbLine
 10
-49.71915569847102
 20
23.50393253398687
 30
0.0
 11
-49.26393261497492
 21
23.50393253398687
 31
0.0
  0
LINE
  5
13F
330
D4
100
AcDbEntity
  8
外形線
100
AcDbLine
 10
-50.6475233132171
 20
24.61393266750127
 30
0.0
 11
-50.19229641502374
 21
24.61393266750127
 31
0.0
  0
LINE
  5
140
330
D4
100
AcDbEntity
  8
外形線
100
AcDbLine
 10
-50.1922950628754
 20
24.61393354198211
 30
0.0
 11
-49.71915534392053
 21
23.50393305916988
 31
0.0
  0
LINE
  5
141
330
D4
100
AcDbEntity
  8
外形線
100
AcDbLine
 10
-46.98780106809663
 20
23.50393224743385
 30
0.0
 11
-46.8539727534334
 21
24.61393231419215
 31
0.0
  0
LINE
  5
142
330
D4
100
AcDbEntity
  8
外形線
100
AcDbLine
 10
-47.44302883689875
 20
23.50393253398687
 30
0.0
 11
-46.98780193870539
 21
23.50393253398687
 31
0.0
  0
LINE
  5
143
330
D4
100
AcDbEntity
  8
外形線
100
AcDbLine
 10
-49.43358746116633
 20
24.61393266750127
 30
0.0
 11
-47.61268368309015
 21
24.61393266750127
 31
0.0
  0
LINE
  5
144
330
D4
100
AcDbEntity
  8
外形線
100
AcDbLine
 10
-46.85397472923273
 20
24.61393266750127
 30
0.0
 11
-46.39874783103937
 21
24.61393266750127
 31
0.0
  0
LINE
  5
145
330
D4
100
AcDbEntity
  8
外形線
100
AcDbLine
 10
-38.03502607037288
 20
23.50393209758893
 30
0.0
 11
-43.14303577196049
 21
56.92393344722982
 31
0.0
  0
LINE
  5
146
330
D4
100
AcDbEntity
  8
外形線
100
AcDbLine
 10
-36.99074525546175
 20
24.61393208215838
 30
0.0
 11
-41.75944330339379
 21
55.81393061551755
 31
0.0
  0
LINE
  5
147
330
D4
100
AcDbEntity
  8
外形線
100
AcDbLine
 10
-41.69066372459407
 20
55.36393076015265
 30
0.0
 11
-36.53143826072688
 21
55.36393076015265
 31
0.0
  0
LINE
  5
148
330
D4
100
AcDbEntity
  8
外形線
100
AcDbLine
 10
-44.79428234642023
 20
55.8139315230921
 30
0.0
 11
-42.97337856834404
 21
55.8139315230921
 31
0.0
  0
LINE
  5
149
330
D4
100
AcDbEntity
  8
外形線
100
AcDbLine
 10
-45.41916409080499
 20
56.92393213344367
 30
0.0
 11
-44.9639410073089
 21
56.92393213344367
 31
0.0
  0
LINE
  5
14A
330
D4
100
AcDbEntity
  8
外形線
100
AcDbLine
 10
-39.85592875128368
 20
23.50393192862653
 30
0.0
 11
-44.96393830878227
 21
56.92393233554103
 31
0.0
  0
LINE
  5
14B
330
D4
100
AcDbEntity
  8
外形線
100
AcDbLine
 10
-41.23952078758327
 20
24.61393193215963
 30
0.0
 11
-46.00821897960439
 21
55.81393140824514
 31
0.0
  0
LINE
  5
14C
330
D4
100
AcDbEntity
  8
外形線
100
AcDbLine
 10
-40.78429421065147
 20
24.61393235417086
 30
0.0
 11
-45.55299240267252
 21
55.81393183025641
 31
0.0
  0
LINE
  5
14D
330
D4
100
AcDbEntity
  8
外形線
100
AcDbLine
 10
-37.44597197648261
 20
24.61393260287355
 30
0.0
 11
-42.21467045668174
 21
55.81393396441189
 31
0.0
  0
LINE
  5
14E
330
D4
100
AcDbEntity
  8
外形線
100
AcDbLine
 10
-37.57979949344104
 20
23.50393251960015
 30
0.0
 11
-42.68780919502868
 21
56.92393386924107
 31
0.0
  0
LINE
  5
14F
330
D4
100
AcDbEntity
  8
外形線
100
AcDbLine
 10
-40.3111554723045
 20
23.50393244934169
 30
0.0
 11
-45.41916488571411
 21
56.9239319135298
 31
0.0
  0
LINE
  5
150
330
D4
100
AcDbEntity
  8
外形線
100
AcDbLine
 10
-45.55299317838342
 20
55.81393404130206
 30
0.0
 11
-45.41916490652794
 21
56.92393375300375
 31
0.0
  0
LINE
  5
151
330
D4
100
AcDbEntity
  8
外形線
100
AcDbLine
 10
-42.68781044464691
 20
56.92393279015586
 30
0.0
 11
-42.21467147359359
 21
55.8139340619439
 31
0.0
  0
LINE
  5
152
330
D4
100
AcDbEntity
  8
外形線
100
AcDbLine
 10
-43.14303722923273
 20
56.92393213344367
 30
0.0
 11
-42.68781033103937
 21
56.92393213344367
 31
0.0
  0
LINE
  5
153
330
D4
100
AcDbEntity
  8
外形線
100
AcDbLine
 10
-46.00821819847101
 20
55.8139315230921
 30
0.0
 11
-45.55299511497492
 21
55.8139315230921
 31
0.0
  0
LINE
  5
154
330
D4
100
AcDbEntity
  8
外形線
100
AcDbLine
 10
-42.21466961448665
 20
55.8139315230921
 30
0.0
 11
-41.75944271629329
 21
55.8139315230921
 31
0.0
  0
LINE
  5
155
330
D4
100
AcDbEntity
  8
外形線
100
AcDbLine
 10
-44.79428234642023
 20
55.8139315230921
 30
0.0
 11
-42.97337856834404
 21
55.8139315230921
 31
0.0
  0
LINE
  5
156
330
D4
100
AcDbEntity
  8
外形線
100
AcDbLine
 10
-37.05952587669368
 20
25.06393247676641
 30
0.0
 11
-31.90030041282648
 21
25.06393247676641
 31
0.0
  0
LINE
  5
157
330
D4
100
AcDbEntity
  8
外形線
100
AcDbLine
 10
-40.3111547524261
 20
23.50393253398687
 30
0.0
 11
-39.85593166893
 21
23.50393253398687
 31
0.0
  0
LINE
  5
158
330
D4
100
AcDbEntity
  8
外形線
100
AcDbLine
 10
-41.23952236717218
 20
24.61393266750127
 30
0.0
 11
-40.78429546897882
 21
24.61393266750127
 31
0.0
  0
LINE
  5
159
330
D4
100
AcDbEntity
  8
外形線
100
AcDbLine
 10
-40.78429557682932
 20
24.61393290493393
 30
0.0
 11
-40.31115585787444
 21
23.50393242212171
 31
0.0
  0
LINE
  5
15A
330
D4
100
AcDbEntity
  8
外形線
100
AcDbLine
 10
-37.57980071934952
 20
23.50393238631449
 30
0.0
 11
-37.44597241895551
 21
24.61393233472057
 31
0.0
  0
LINE
  5
15B
330
D4
100
AcDbEntity
  8
外形線
100
AcDbLine
 10
-38.03502789085383
 20
23.50393253398687
 30
0.0
 11
-37.57980099266048
 21
23.50393253398687
 31
0.0
  0
LINE
  5
15C
330
D4
100
AcDbEntity
  8
外形線
100
AcDbLine
 10
-40.02558651512138
 20
24.61393266750127
 30
0.0
 11
-38.20468273704523
 21
24.61393266750127
 31
0.0
  0
LINE
  5
15D
330
D4
100
AcDbEntity
  8
外形線
100
AcDbLine
 10
-37.44597378318782
 20
24.61393266750127
 30
0.0
 11
-36.99074688499446
 21
24.61393266750127
 31
0.0
  0
LINE
  5
15E
330
D4
100
AcDbEntity
  8
外形線
100
AcDbLine
 10
-28.62702547908265
 20
23.50393172252639
 30
0.0
 11
-33.73503503658125
 21
56.92393212944089
 31
0.0
  0
LINE
  5
15F
330
D4
100
AcDbEntity
  8
外形線
100
AcDbLine
 10
-27.58274480826055
 20
24.61393264982223
 30
0.0
 11
-32.35144314437062
 21
55.81393306863418
 31
0.0
  0
LINE
  5
160
330
D4
100
AcDbEntity
  8
外形線
100
AcDbLine
 10
-32.28266277854915
 20
55.36393076015265
 30
0.0
 11
-27.12343731468195
 21
55.36393076015265
 31
0.0
  0
LINE
  5
161
330
D4
100
AcDbEntity
  8
外形線
100
AcDbLine
 10
-35.38628140037532
 20
55.8139315230921
 30
0.0
 11
-33.56537762229915
 21
55.8139315230921
 31
0.0
  0
LINE
  5
162
330
D4
100
AcDbEntity
  8
外形線
100
AcDbLine
 10
-36.01116314476008
 20
56.92393213344367
 30
0.0
 11
-35.55593624656673
 21
56.92393213344367
 31
0.0
  0
LINE
  5
163
330
D4
100
AcDbEntity
  8
外形線
100
AcDbLine
 10
-30.44792830408244
 20
23.50393249629037
 30
0.0
 11
-35.55593757340302
 21
56.92393101775209
 31
0.0
  0
LINE
  5
164
330
D4
100
AcDbEntity
  8
外形線
100
AcDbLine
 10
-31.8315203403821
 20
24.61393249982348
 30
0.0
 11
-36.60021882058123
 21
55.81393386136181
 31
0.0
  0
LINE
  5
165
330
D4
100
AcDbEntity
  8
外形線
100
AcDbLine
 10
-31.37629361936124
 20
24.61393197910832
 30
0.0
 11
-36.14499166729328
 21
55.81393051246748
 31
0.0
  0
LINE
  5
166
330
D4
100
AcDbEntity
  8
外形線
100
AcDbLine
 10
-28.03797138519235
 20
24.61393222781101
 30
0.0
 11
-32.80666972130247
 21
55.81393264662295
 31
0.0
  0
LINE
  5
167
330
D4
100
AcDbEntity
  8
外形線
100
AcDbLine
 10
-28.17179890215081
 20
23.50393214453761
 30
0.0
 11
-33.27980845964942
 21
56.92393255145211
 31
0.0
  0
LINE
  5
168
330
D4
100
AcDbEntity
  8
外形線
100
AcDbLine
 10
-30.90315488101428
 20
23.50393207427915
 30
0.0
 11
-36.01116415033482
 21
56.92393059574087
 31
0.0
  0
LINE
  5
169
330
D4
100
AcDbEntity
  8
外形線
100
AcDbLine
 10
-36.14499295805962
 20
55.81393311501289
 30
0.0
 11
-36.01116468620413
 21
56.92393282671459
 31
0.0
  0
LINE
  5
16A
330
D4
100
AcDbEntity
  8
外形線
100
AcDbLine
 10
-33.27980832670045
 20
56.92393327496002
 30
0.0
 11
-32.80666785984403
 21
55.81393103754752
 31
0.0
  0
LINE
  5
16B
330
D4
100
AcDbEntity
  8
外形線
100
AcDbLine
 10
-33.73503628318781
 20
56.92393213344367
 30
0.0
 11
-33.27980938499445
 21
56.92393213344367
 31
0.0
  0
LINE
  5
16C
330
D4
100
AcDbEntity
  8
外形線
100
AcDbLine
 10
-36.6002172524261
 20
55.8139315230921
 30
0.0
 11
-36.14499035423273
 21
55.8139315230921
 31
0.0
  0
LINE
  5
16D
330
D4
100
AcDbEntity
  8
外形線
100
AcDbLine
 10
-32.80666866844172
 20
55.8139315230921
 30
0.0
 11
-32.35144177024837
 21
55.8139315230921
 31
0.0
  0
LINE
  5
16E
330
D4
100
AcDbEntity
  8
外形線
100
AcDbLine
 10
-35.38628140037532
 20
55.8139315230921
 30
0.0
 11
-33.56537762229915
 21
55.8139315230921
 31
0.0
  0
LINE
  5
16F
330
D4
100
AcDbEntity
  8
外形線
100
AcDbLine
 10
-27.65152493064875
 20
25.06393247676641
 30
0.0
 11
-22.49229755943293
 21
25.06393247676641
 31
0.0
  0
LINE
  5
170
330
D4
100
AcDbEntity
  8
外形線
100
AcDbLine
 10
-30.90315380638117
 20
23.50393253398687
 30
0.0
 11
-30.44792881553644
 21
23.50393253398687
 31
0.0
  0
LINE
  5
171
330
D4
100
AcDbEntity
  8
外形線
100
AcDbLine
 10
-31.83152142112727
 20
24.61393266750127
 30
0.0
 11
-31.37629452293391
 21
24.61393266750127
 31
0.0
  0
LINE
  5
172
330
D4
100
AcDbEntity
  8
外形線
100
AcDbLine
 10
-31.37629433618295
 20
24.6139330157873
 30
0.0
 11
-30.90315461722811
 21
23.50393253297507
 31
0.0
  0
LINE
  5
173
330
D4
100
AcDbEntity
  8
外形線
100
AcDbLine
 10
-28.17179849123645
 20
23.50393217853483
 30
0.0
 11
-28.03797019084243
 21
24.61393212694091
 31
0.0
  0
LINE
  5
174
330
D4
100
AcDbEntity
  8
外形線
100
AcDbLine
 10
-28.62702503746027
 20
23.50393253398687
 30
0.0
 11
-28.17180004661555
 21
23.50393253398687
 31
0.0
  0
LINE
  5
175
330
D4
100
AcDbEntity
  8
外形線
100
AcDbLine
 10
-30.61758366172786
 20
24.61393266750127
 30
0.0
 11
-28.79667988365168
 21
24.61393266750127
 31
0.0
  0
LINE
  5
176
330
D4
100
AcDbEntity
  8
外形線
100
AcDbLine
 10
-28.03797092979426
 20
24.61393266750127
 30
0.0
 11
-27.58274593894953
 21
24.61393266750127
 31
0.0
  0
LINE
  5
177
330
D4
100
AcDbEntity
  8
外形線
100
AcDbLine
 10
-19.21902314642864
 20
23.50393257836829
 30
0.0
 11
-24.32703241574919
 21
56.92393109983001
 31
0.0
  0
LINE
  5
178
330
D4
100
AcDbEntity
  8
外形線
100
AcDbLine
 10
-18.17474421697028
 20
24.6139322747597
 30
0.0
 11
-22.94344240899136
 21
55.81393175084524
 31
0.0
  0
LINE
  5
179
330
D4
100
AcDbEntity
  8
外形線
100
AcDbLine
 10
-22.87466183250422
 20
55.36393076015265
 30
0.0
 11
-17.71543636863703
 21
55.36393076015265
 31
0.0
  0
LINE
  5
17A
330
D4
100
AcDbEntity
  8
外形線
100
AcDbLine
 10
-25.97828045433039
 20
55.8139315230921
 30
0.0
 11
-24.15737667625422
 21
55.8139315230921
 31
0.0
  0
LINE
  5
17B
330
D4
100
AcDbEntity
  8
外形線
100
AcDbLine
 10
-26.60316219871516
 20
56.92393213344367
 30
0.0
 11
-26.14793720787043
 21
56.92393213344367
 31
0.0
  0
LINE
  5
17C
330
D4
100
AcDbEntity
  8
外形線
100
AcDbLine
 10
-21.03992771279221
 20
23.50393212122783
 30
0.0
 11
-26.14793741437984
 21
56.92393347086873
 31
0.0
  0
LINE
  5
17D
330
D4
100
AcDbEntity
  8
外形線
100
AcDbLine
 10
-22.42351786363906
 20
24.613932412939
 30
0.0
 11
-27.19221619974918
 21
55.81393283175096
 31
0.0
  0
LINE
  5
17E
330
D4
100
AcDbEntity
  8
外形線
100
AcDbLine
 10
-21.96829317216003
 20
24.61393254677216
 30
0.0
 11
-26.73699150827014
 21
55.8139329655841
 31
0.0
  0
LINE
  5
17F
330
D4
100
AcDbEntity
  8
外形線
100
AcDbLine
 10
-18.62996890844931
 20
24.61393214092652
 30
0.0
 11
-23.39866710047042
 21
55.81393161701209
 31
0.0
  0
LINE
  5
180
330
D4
100
AcDbEntity
  8
外形線
100
AcDbLine
 10
-18.76379831086055
 20
23.50393176947506
 30
0.0
 11
-23.87180772427015
 21
56.92393123366318
 31
0.0
  0
LINE
  5
181
330
D4
100
AcDbEntity
  8
外形線
100
AcDbLine
 10
-21.49515240427127
 20
23.50393198739467
 30
0.0
 11
-26.6031621058589
 21
56.92393333703556
 31
0.0
  0
LINE
  5
182
330
D4
100
AcDbEntity
  8
外形線
100
AcDbLine
 10
-26.73699084410058
 20
55.81393196041563
 30
0.0
 11
-26.60316257224508
 21
56.92393167211733
 31
0.0
  0
LINE
  5
183
330
D4
100
AcDbEntity
  8
外形線
100
AcDbLine
 10
-23.87180752470414
 20
56.92393319883799
 30
0.0
 11
-23.39866705784775
 21
55.81393096142551
 31
0.0
  0
LINE
  5
184
330
D4
100
AcDbEntity
  8
外形線
100
AcDbLine
 10
-24.32703342979426
 20
56.92393213344367
 30
0.0
 11
-23.8718065316009
 21
56.92393213344367
 31
0.0
  0
LINE
  5
185
330
D4
100
AcDbEntity
  8
外形線
100
AcDbLine
 10
-27.19221630638117
 20
55.8139315230921
 30
0.0
 11
-26.73699131553644
 21
55.8139315230921
 31
0.0
  0
LINE
  5
186
330
D4
100
AcDbEntity
  8
外形線
100
AcDbLine
 10
-23.39866772239679
 20
55.8139315230921
 30
0.0
 11
-22.94344273155207
 21
55.8139315230921
 31
0.0
  0
LINE
  5
187
330
D4
100
AcDbEntity
  8
外形線
100
AcDbLine
 10
-25.97828045433039
 20
55.8139315230921
 30
0.0
 11
-24.15737667625422
 21
55.8139315230921
 31
0.0
  0
LINE
  5
188
330
D4
100
AcDbEntity
  8
外形線
100
AcDbLine
 10
-18.24352398460382
 20
25.06393247676641
 30
0.0
 11
-13.084296613388
 21
25.06393247676641
 31
0.0
  0
LINE
  5
189
330
D4
100
AcDbEntity
  8
外形線
100
AcDbLine
 10
-21.49515286033625
 20
23.50393253398687
 30
0.0
 11
-21.03992786949152
 21
23.50393253398687
 31
0.0
  0
LINE
  5
18A
330
D4
100
AcDbEntity
  8
外形線
100
AcDbLine
 10
-22.42351856773371
 20
24.61393266750127
 30
0.0
 11
-21.96829357688898
 21
24.61393266750127
 31
0.0
  0
LINE
  5
18B
330
D4
100
AcDbEntity
  8
外形線
100
AcDbLine
 10
-21.96829309553664
 20
24.61393312664066
 30
0.0
 11
-21.49515337658176
 21
23.50393264382844
 31
0.0
  0
LINE
  5
18C
330
D4
100
AcDbEntity
  8
外形線
100
AcDbLine
 10
-18.76379812822003
 20
23.50393243576765
 30
0.0
 11
-18.62996979928752
 21
24.61393262087815
 31
0.0
  0
LINE
  5
18D
330
D4
100
AcDbEntity
  8
外形線
100
AcDbLine
 10
-19.21902409141535
 20
23.50393253398687
 30
0.0
 11
-18.76379719322199
 21
23.50393253398687
 31
0.0
  0
LINE
  5
18E
330
D4
100
AcDbEntity
  8
外形線
100
AcDbLine
 10
-21.20958271568293
 20
24.61393266750127
 30
0.0
 11
-19.38867893760675
 21
24.61393266750127
 31
0.0
  0
LINE
  5
18F
330
D4
100
AcDbEntity
  8
外形線
100
AcDbLine
 10
-18.62996998374932
 20
24.61393266750127
 30
0.0
 11
-18.17474308555597
 21
24.61393266750127
 31
0.0
  0
LINE
  5
190
330
D4
100
AcDbEntity
  8
外形線
100
AcDbLine
 10
-9.811022555138391
 20
23.50393220330575
 30
0.0
 11
-14.91903225672604
 21
56.92393355294664
 31
0.0
  0
LINE
  5
191
330
D4
100
AcDbEntity
  8
外形線
100
AcDbLine
 10
-8.766742682953662
 20
24.61393204378618
 30
0.0
 11
-13.53544073088569
 21
55.81393057714532
 31
0.0
  0
LINE
  5
192
330
D4
100
AcDbEntity
  8
外形線
100
AcDbLine
 10
-13.46666088645929
 20
55.36393076015265
 30
0.0
 11
-8.307434468917787
 21
55.36393076015265
 31
0.0
  0
LINE
  5
193
330
D4
100
AcDbEntity
  8
外形線
100
AcDbLine
 10
-16.57027950828546
 20
55.8139315230921
 30
0.0
 11
-14.74937668388361
 21
55.8139315230921
 31
0.0
  0
LINE
  5
194
330
D4
100
AcDbEntity
  8
外形線
100
AcDbLine
 10
-17.19516125267023
 20
56.92393213344367
 30
0.0
 11
-16.7399362618255
 21
56.92393213344367
 31
0.0
  0
LINE
  5
195
330
D4
100
AcDbEntity
  8
外形線
100
AcDbLine
 10
-11.63192617877557
 20
23.50393189025432
 30
0.0
 11
-16.73993573627419
 21
56.92393229716881
 31
0.0
  0
LINE
  5
196
330
D4
100
AcDbEntity
  8
外形線
100
AcDbLine
 10
-13.01551727234881
 20
24.61393203787646
 30
0.0
 11
-17.78421546436991
 21
55.81393151396198
 31
0.0
  0
LINE
  5
197
330
D4
100
AcDbEntity
  8
外形線
100
AcDbLine
 10
-12.56029163814338
 20
24.61393231579865
 30
0.0
 11
-17.32898983016446
 21
55.8139317918842
 31
0.0
  0
LINE
  5
198
330
D4
100
AcDbEntity
  8
外形線
100
AcDbLine
 10
-9.221968461248122
 20
24.61393270859037
 30
0.0
 11
-13.99066694144724
 21
55.81393407012871
 31
0.0
  0
LINE
  5
199
330
D4
100
AcDbEntity
  8
外形線
100
AcDbLine
 10
-9.355796920932959
 20
23.50393248122795
 30
0.0
 11
-14.46380662252059
 21
56.92393383086884
 31
0.0
  0
LINE
  5
19A
330
D4
100
AcDbEntity
  8
外形線
100
AcDbLine
 10
-12.08715195707003
 20
23.50393255505851
 30
0.0
 11
-17.19516137047961
 21
56.92393201924661
 31
0.0
  0
LINE
  5
19B
330
D4
100
AcDbEntity
  8
外形線
100
AcDbLine
 10
-17.32899062377675
 20
55.81393103412647
 30
0.0
 11
-17.19516235192125
 21
56.92393074582817
 31
0.0
  0
LINE
  5
19C
330
D4
100
AcDbEntity
  8
外形線
100
AcDbLine
 10
-14.46380628405779
 20
56.92393330969136
 30
0.0
 11
-13.9906658172014
 21
55.81393107227889
 31
0.0
  0
LINE
  5
19D
330
D4
100
AcDbEntity
  8
外形線
100
AcDbLine
 10
-14.91903153007501
 20
56.92393213344367
 30
0.0
 11
-14.46380558555597
 21
56.92393213344367
 31
0.0
  0
LINE
  5
19E
330
D4
100
AcDbEntity
  8
外形線
100
AcDbLine
 10
-17.78421536033625
 20
55.8139315230921
 30
0.0
 11
-17.32899036949152
 21
55.8139315230921
 31
0.0
  0
LINE
  5
19F
330
D4
100
AcDbEntity
  8
外形線
100
AcDbLine
 10
-13.99066677635187
 20
55.8139315230921
 30
0.0
 11
-13.53544083183283
 21
55.8139315230921
 31
0.0
  0
LINE
  5
1A0
330
D4
100
AcDbEntity
  8
外形線
100
AcDbLine
 10
-16.57027950828546
 20
55.8139315230921
 30
0.0
 11
-14.74937668388361
 21
55.8139315230921
 31
0.0
  0
LINE
  5
1A1
330
D4
100
AcDbEntity
  8
外形線
100
AcDbLine
 10
-8.835522084884587
 20
25.06393247676641
 30
0.0
 11
-3.676295190505923
 21
25.06393247676641
 31
0.0
  0
LINE
  5
1A2
330
D4
100
AcDbEntity
  8
外形線
100
AcDbLine
 10
-12.08715191429132
 20
23.50393253398687
 30
0.0
 11
-11.63192596977228
 21
23.50393253398687
 31
0.0
  0
LINE
  5
1A3
330
D4
100
AcDbEntity
  8
外形線
100
AcDbLine
 10
-13.01551762168879
 20
24.61393266750127
 30
0.0
 11
-12.56029167716974
 21
24.61393266750127
 31
0.0
  0
LINE
  5
1A4
330
D4
100
AcDbEntity
  8
外形線
100
AcDbLine
 10
-12.5602914809395
 20
24.6139323601939
 30
0.0
 11
-12.08715213593542
 21
23.5039327546818
 31
0.0
  0
LINE
  5
1A5
330
D4
100
AcDbEntity
  8
外形線
100
AcDbLine
 10
-9.355796846924576
 20
23.50393234214203
 30
0.0
 11
-9.221968517992053
 21
24.61393252725253
 31
0.0
  0
LINE
  5
1A6
330
D4
100
AcDbEntity
  8
外形線
100
AcDbLine
 10
-9.811022191696107
 20
23.50393253398687
 30
0.0
 11
-9.355796247177067
 21
23.50393253398687
 31
0.0
  0
LINE
  5
1A7
330
D4
100
AcDbEntity
  8
外形線
100
AcDbLine
 10
-11.801581769638
 20
24.61393266750127
 30
0.0
 11
-9.980677991561831
 21
24.61393266750127
 31
0.0
  0
LINE
  5
1A8
330
D4
100
AcDbEntity
  8
外形線
100
AcDbLine
 10
-9.221968084030095
 20
24.61393266750127
 30
0.0
 11
-8.766742139511052
 21
24.61393266750127
 31
0.0
  0
LINE
  5
1A9
330
D4
100
AcDbEntity
  8
外形線
100
AcDbLine
 10
-0.4030212993876745
 20
23.50393241217596
 30
0.0
 11
-5.511030784841778
 21
56.92393234772726
 31
0.0
  0
LINE
  5
1AA
330
D4
100
AcDbEntity
  8
外形線
100
AcDbLine
 10
0.6412587069739573
 20
24.61393275553906
 30
0.0
 11
-4.127439629136148
 21
55.81393317435099
 31
0.0
  0
LINE
  5
1AB
330
D4
100
AcDbEntity
  8
外形線
100
AcDbLine
 10
-4.058659940414368
 20
55.36393076015265
 30
0.0
 11
1.100566536731774
 21
55.36393076015265
 31
0.0
  0
LINE
  5
1AC
330
D4
100
AcDbEntity
  8
外形線
100
AcDbLine
 10
-7.162278562240543
 20
55.8139315230921
 30
0.0
 11
-5.341374784164369
 21
55.8139315230921
 31
0.0
  0
LINE
  5
1AD
330
D4
100
AcDbEntity
  8
外形線
100
AcDbLine
 10
-7.787160306625309
 20
56.92393213344367
 30
0.0
 11
-7.331933885269108
 21
56.92393213344367
 31
0.0
  0
LINE
  5
1AE
330
D4
100
AcDbEntity
  8
外形線
100
AcDbLine
 10
-2.223924716803451
 20
23.503932130644
 30
0.0
 11
-7.331934058168527
 21
56.9239311234689
 31
0.0
  0
LINE
  5
1AF
330
D4
100
AcDbEntity
  8
外形線
100
AcDbLine
 10
-3.607516118102821
 20
24.61393271360709
 30
0.0
 11
-8.376214598301942
 21
55.81393407514539
 31
0.0
  0
LINE
  5
1B0
330
D4
100
AcDbEntity
  8
外形線
100
AcDbLine
 10
-3.152290104126747
 20
24.61393208482514
 30
0.0
 11
-7.920988152058797
 21
55.81393061818427
 31
0.0
  0
LINE
  5
1B1
330
D4
100
AcDbEntity
  8
外形線
100
AcDbLine
 10
0.1860328370869126
 20
24.6139324415946
 30
0.0
 11
-4.582665499023191
 21
55.81393286040654
 31
0.0
  0
LINE
  5
1B2
330
D4
100
AcDbEntity
  8
外形線
100
AcDbLine
 10
0.0522046130836742
 20
23.50393225025444
 30
0.0
 11
-5.055804944414943
 21
56.92393265716894
 31
0.0
  0
LINE
  5
1B3
330
D4
100
AcDbEntity
  8
外形線
100
AcDbLine
 10
-2.679150658734997
 20
23.50393228806274
 30
0.0
 11
-7.787159928055558
 21
56.92393080952448
 31
0.0
  0
LINE
  5
1B4
330
D4
100
AcDbEntity
  8
外形線
100
AcDbLine
 10
-7.920988053201539
 20
55.81393366679957
 30
0.0
 11
-7.787159781346048
 21
56.92393337850129
 31
0.0
  0
LINE
  5
1B5
330
D4
100
AcDbEntity
  8
外形線
100
AcDbLine
 10
-5.055804604761392
 20
56.92393360752014
 30
0.0
 11
-4.582664137904981
 21
55.81393137010763
 31
0.0
  0
LINE
  5
1B6
330
D4
100
AcDbEntity
  8
外形線
100
AcDbLine
 10
-5.511030584030094
 20
56.92393213344367
 30
0.0
 11
-5.055804639511048
 21
56.92393213344367
 31
0.0
  0
LINE
  5
1B7
330
D4
100
AcDbEntity
  8
外形線
100
AcDbLine
 10
-8.376214414291322
 20
55.8139315230921
 30
0.0
 11
-7.920988469772281
 21
55.8139315230921
 31
0.0
  0
LINE
  5
1B8
330
D4
100
AcDbEntity
  8
外形線
100
AcDbLine
 10
-4.582665353469788
 20
55.8139315230921
 30
0.0
 11
-4.127439408950746
 21
55.8139315230921
 31
0.0
  0
LINE
  5
1B9
330
D4
100
AcDbEntity
  8
外形線
100
AcDbLine
 10
-7.162278562240543
 20
55.8139315230921
 30
0.0
 11
-5.341374784164369
 21
55.8139315230921
 31
0.0
  0
LINE
  5
1BA
330
D4
100
AcDbEntity
  8
外形線
100
AcDbLine
 10
0.5724794870091046
 20
25.06393247676641
 30
0.0
 11
5.731706232376152
 21
25.06393247676641
 31
0.0
  0
LINE
  5
1BB
330
D4
100
AcDbEntity
  8
外形線
100
AcDbLine
 10
-2.679150491409245
 20
23.50393253398687
 30
0.0
 11
-2.223924785308779
 21
23.50393253398687
 31
0.0
  0
LINE
  5
1BC
330
D4
100
AcDbEntity
  8
外形線
100
AcDbLine
 10
-3.607515960388127
 20
24.61393266750127
 30
0.0
 11
-3.152290015869084
 21
24.61393266750127
 31
0.0
  0
LINE
  5
1BD
330
D4
100
AcDbEntity
  8
外形線
100
AcDbLine
 10
-3.152290130630631
 20
24.61393251779111
 30
0.0
 11
-2.679150598651161
 21
23.50393247362895
 31
0.0
  0
LINE
  5
1BE
330
D4
100
AcDbEntity
  8
外形線
100
AcDbLine
 10
0.0522045527230972
 20
23.50393223424716
 30
0.0
 11
0.1860328816556205
 21
24.61393241935767
 31
0.0
  0
LINE
  5
1BF
330
D4
100
AcDbEntity
  8
外形線
100
AcDbLine
 10
-0.4030212456511891
 20
23.50393253398687
 30
0.0
 11
0.052204624362048
 21
23.50393253398687
 31
0.0
  0
LINE
  5
1C0
330
D4
100
AcDbEntity
  8
外形線
100
AcDbLine
 10
-2.393580346755924
 20
24.61393266750127
 30
0.0
 11
-0.5726768667029774
 21
24.61393266750127
 31
0.0
  0
LINE
  5
1C1
330
D4
100
AcDbEntity
  8
外形線
100
AcDbLine
 10
0.186032929070052
 20
24.61393266750127
 30
0.0
 11
0.6412588065338696
 21
24.61393266750127
 31
0.0
  0
LINE
  5
1C2
330
D4
100
AcDbEntity
  8
外形線
100
AcDbLine
 10
9.004980368805846
 20
23.50393268408511
 30
0.0
 11
3.896971099485283
 21
56.92393120554683
 31
0.0
  0
LINE
  5
1C3
330
D4
100
AcDbEntity
  8
外形線
100
AcDbLine
 10
10.04926024099059
 20
24.61393252456554
 30
0.0
 11
5.280562048969511
 21
55.81393200065109
 31
0.0
  0
LINE
  5
1C4
330
D4
100
AcDbEntity
  8
外形線
100
AcDbLine
 10
5.349341482467706
 20
55.36393076015265
 30
0.0
 11
10.50856742317205
 21
55.36393076015265
 31
0.0
  0
LINE
  5
1C5
330
D4
100
AcDbEntity
  8
外形線
100
AcDbLine
 10
2.245722860641535
 20
55.8139315230921
 30
0.0
 11
4.066626400299127
 21
55.8139315230921
 31
0.0
  0
LINE
  5
1C6
330
D4
100
AcDbEntity
  8
外形線
100
AcDbLine
 10
1.620841354675349
 20
56.92393213344367
 30
0.0
 11
2.076067299194392
 21
56.92393213344367
 31
0.0
  0
LINE
  5
1C7
330
D4
100
AcDbEntity
  8
外形線
100
AcDbLine
 10
7.184076745168668
 20
23.50393237103368
 30
0.0
 11
2.076067043581018
 21
56.9239337206746
 31
0.0
  0
LINE
  5
1C8
330
D4
100
AcDbEntity
  8
外形線
100
AcDbLine
 10
5.800485180232215
 20
24.6139324466113
 30
0.0
 11
1.031786844122122
 21
55.81393286542324
 31
0.0
  0
LINE
  5
1C9
330
D4
100
AcDbEntity
  8
外形線
100
AcDbLine
 10
6.255711357845369
 20
24.61393232521482
 30
0.0
 11
1.48701294969075
 21
55.81393321538996
 31
0.0
  0
LINE
  5
1CA
330
D4
100
AcDbEntity
  8
外形線
100
AcDbLine
 10
9.594034534740627
 20
24.61393271800654
 30
0.0
 11
4.825336414764066
 21
55.81393172272889
 31
0.0
  0
LINE
  5
1CB
330
D4
100
AcDbEntity
  8
外形線
100
AcDbLine
 10
9.460206075055793
 20
23.50393249064412
 30
0.0
 11
4.352196733690732
 21
56.92393148346901
 31
0.0
  0
LINE
  5
1CC
330
D4
100
AcDbEntity
  8
外形線
100
AcDbLine
 10
6.728850567555525
 20
23.50393249243017
 30
0.0
 11
1.620840938012389
 21
56.92393337070789
 31
0.0
  0
LINE
  5
1CD
330
D4
100
AcDbEntity
  8
外形線
100
AcDbLine
 10
1.487013113939894
 20
55.81393262635636
 30
0.0
 11
1.620841385795384
 21
56.92393233805808
 31
0.0
  0
LINE
  5
1CE
330
D4
100
AcDbEntity
  8
外形線
100
AcDbLine
 10
4.352195758584826
 20
56.92393334442272
 30
0.0
 11
4.825336225441215
 21
55.81393110701021
 31
0.0
  0
LINE
  5
1CF
330
D4
100
AcDbEntity
  8
外形線
100
AcDbLine
 10
3.896970838851984
 20
56.92393213344367
 30
0.0
 11
4.352196783371026
 21
56.92393213344367
 31
0.0
  0
LINE
  5
1D0
330
D4
100
AcDbEntity
  8
外形線
100
AcDbLine
 10
1.031787187404686
 20
55.8139315230921
 30
0.0
 11
1.487013072319085
 21
55.8139315230921
 31
0.0
  0
LINE
  5
1D1
330
D4
100
AcDbEntity
  8
外形線
100
AcDbLine
 10
4.825336069412286
 20
55.8139315230921
 30
0.0
 11
5.280562013931329
 21
55.8139315230921
 31
0.0
  0
LINE
  5
1D2
330
D4
100
AcDbEntity
  8
外形線
100
AcDbLine
 10
2.245722860641535
 20
55.8139315230921
 30
0.0
 11
4.066626400299127
 21
55.8139315230921
 31
0.0
  0
LINE
  5
1D3
330
D4
100
AcDbEntity
  8
外形線
100
AcDbLine
 10
9.980480760879572
 20
25.06393247676641
 30
0.0
 11
15.13970717842108
 21
25.06393247676641
 31
0.0
  0
LINE
  5
1D4
330
D4
100
AcDbEntity
  8
外形線
100
AcDbLine
 10
6.728850931472834
 20
23.50393253398687
 30
0.0
 11
7.184076399154719
 21
23.50393253398687
 31
0.0
  0
LINE
  5
1D5
330
D4
100
AcDbEntity
  8
外形線
100
AcDbLine
 10
5.800485224075372
 20
24.61393266750127
 30
0.0
 11
6.255711168594416
 21
24.61393266750127
 31
0.0
  0
LINE
  5
1D6
330
D4
100
AcDbEntity
  8
外形線
100
AcDbLine
 10
6.255711187328585
 20
24.61393214325056
 30
0.0
 11
6.728850719308058
 21
23.50393209908839
 31
0.0
  0
LINE
  5
1D7
330
D4
100
AcDbEntity
  8
外形線
100
AcDbLine
 10
9.460205772743409
 20
23.50393262829959
 30
0.0
 11
9.594034044598899
 21
24.6139323400013
 31
0.0
  0
LINE
  5
1D8
330
D4
100
AcDbEntity
  8
外形線
100
AcDbLine
 10
9.004979700393732
 20
23.50393253398687
 30
0.0
 11
9.460205644912775
 21
23.50393253398687
 31
0.0
  0
LINE
  5
1D9
330
D4
100
AcDbEntity
  8
外形線
100
AcDbLine
 10
7.014421076126152
 20
24.61393266750127
 30
0.0
 11
8.835324854202326
 21
24.61393266750127
 31
0.0
  0
LINE
  5
1DA
330
D4
100
AcDbEntity
  8
外形線
100
AcDbLine
 10
9.594033808059748
 20
24.61393266750127
 30
0.0
 11
10.04925975257879
 21
24.61393266750127
 31
0.0
  0
LINE
  5
1DB
330
D4
100
AcDbEntity
  8
外形線
100
AcDbLine
 10
18.41298096009609
 20
23.50393230902257
 30
0.0
 11
13.30497125850843
 21
56.92393365866347
 31
0.0
  0
LINE
  5
1DC
330
D4
100
AcDbEntity
  8
外形線
100
AcDbLine
 10
19.45726170296271
 20
24.61393276495523
 30
0.0
 11
14.68856372707518
 21
55.81393082695118
 31
0.0
  0
LINE
  5
1DD
330
D4
100
AcDbEntity
  8
外形線
100
AcDbLine
 10
14.75734290534979
 20
55.36393076015265
 30
0.0
 11
19.91656932289129
 21
55.36393076015265
 31
0.0
  0
LINE
  5
1DE
330
D4
100
AcDbEntity
  8
外形線
100
AcDbLine
 10
11.65372428352361
 20
55.8139315230921
 30
0.0
 11
13.47462806159979
 21
55.8139315230921
 31
0.0
  0
LINE
  5
1DF
330
D4
100
AcDbEntity
  8
外形線
100
AcDbLine
 10
11.02884253913885
 20
56.92393213344367
 30
0.0
 11
11.48406848365789
 21
56.92393213344367
 31
0.0
  0
LINE
  5
1E0
330
D4
100
AcDbEntity
  8
外形線
100
AcDbLine
 10
16.59207820714079
 20
23.50393261142337
 30
0.0
 11
11.48406872168668
 21
56.92393254697467
 31
0.0
  0
LINE
  5
1E1
330
D4
100
AcDbEntity
  8
外形線
100
AcDbLine
 10
15.20848617084115
 20
24.61393261495647
 30
0.0
 11
10.43978805086459
 21
55.81393161967881
 31
0.0
  0
LINE
  5
1E2
330
D4
100
AcDbEntity
  8
外形線
100
AcDbLine
 10
15.66371281981749
 20
24.6139325656045
 30
0.0
 11
10.89501462779641
 21
55.81393204169003
 31
0.0
  0
LINE
  5
1E3
330
D4
100
AcDbEntity
  8
外形線
100
AcDbLine
 10
19.00203512603087
 20
24.613932342944
 30
0.0
 11
14.23333657378722
 21
55.81393417584552
 31
0.0
  0
LINE
  5
1E4
330
D4
100
AcDbEntity
  8
外形線
100
AcDbLine
 10
18.86820753702792
 20
23.5039327310338
 30
0.0
 11
13.76019783544028
 21
56.9239340806747
 31
0.0
  0
LINE
  5
1E5
330
D4
100
AcDbEntity
  8
外形線
100
AcDbLine
 10
16.13685163020895
 20
23.50393218941214
 30
0.0
 11
11.02884214475486
 21
56.92393212496345
 31
0.0
  0
LINE
  5
1E6
330
D4
100
AcDbEntity
  8
外形線
100
AcDbLine
 10
10.8950142810813
 20
55.81393158591318
 30
0.0
 11
11.02884255293681
 21
56.92393129761487
 31
0.0
  0
LINE
  5
1E7
330
D4
100
AcDbEntity
  8
外形線
100
AcDbLine
 10
13.76019699923117
 20
56.9239334552761
 30
0.0
 11
14.23333671818602
 21
55.81393297246385
 31
0.0
  0
LINE
  5
1E8
330
D4
100
AcDbEntity
  8
外形線
100
AcDbLine
 10
13.30497226173406
 20
56.92393213344367
 30
0.0
 11
13.76019820625311
 21
56.92393213344367
 31
0.0
  0
LINE
  5
1E9
330
D4
100
AcDbEntity
  8
外形線
100
AcDbLine
 10
10.43978843147283
 20
55.8139315230921
 30
0.0
 11
10.89501437599188
 21
55.8139315230921
 31
0.0
  0
LINE
  5
1EA
330
D4
100
AcDbEntity
  8
外形線
100
AcDbLine
 10
14.23333701545721
 20
55.8139315230921
 30
0.0
 11
14.68856295997625
 21
55.8139315230921
 31
0.0
  0
LINE
  5
1EB
330
D4
100
AcDbEntity
  8
外形線
100
AcDbLine
 10
11.65372428352361
 20
55.8139315230921
 30
0.0
 11
13.47462806159979
 21
55.8139315230921
 31
0.0
  0
LINE
  5
1EC
330
D4
100
AcDbEntity
  8
外形線
100
AcDbLine
 10
19.38848170692448
 20
25.06393247676641
 30
0.0
 11
24.54770907814032
 21
25.06393247676641
 31
0.0
  0
LINE
  5
1ED
330
D4
100
AcDbEntity
  8
外形線
100
AcDbLine
 10
16.13685187751775
 20
23.50393253398687
 30
0.0
 11
16.5920778220368
 21
23.50393253398687
 31
0.0
  0
LINE
  5
1EE
330
D4
100
AcDbEntity
  8
外形線
100
AcDbLine
 10
15.20848617012029
 20
24.61393266750127
 30
0.0
 11
15.66371211463934
 21
24.61393266750127
 31
0.0
  0
LINE
  5
1EF
330
D4
100
AcDbEntity
  8
外形線
100
AcDbLine
 10
15.66371242797493
 20
24.61393225410393
 30
0.0
 11
16.13685193658247
 21
23.50393226477303
 31
0.0
  0
LINE
  5
1F0
330
D4
100
AcDbEntity
  8
外形線
100
AcDbLine
 10
18.86820705403887
 20
23.50393253467398
 30
0.0
 11
19.00203532589438
 21
24.61393224637568
 31
0.0
  0
LINE
  5
1F1
330
D4
100
AcDbEntity
  8
外形線
100
AcDbLine
 10
18.41298160011297
 20
23.50393253398687
 30
0.0
 11
18.8682065909577
 21
23.50393253398687
 31
0.0
  0
LINE
  5
1F2
330
D4
100
AcDbEntity
  8
外形線
100
AcDbLine
 10
16.42242297584539
 20
24.61393266750127
 30
0.0
 11
18.24332484657293
 21
24.61393266750127
 31
0.0
  0
LINE
  5
1F3
330
D4
100
AcDbEntity
  8
外形線
100
AcDbLine
 10
19.00203570777899
 20
24.61393266750127
 30
0.0
 11
19.45726069862371
 21
24.61393266750127
 31
0.0
  0
LINE
  5
1F4
330
D4
100
AcDbEntity
  8
外形線
100
AcDbLine
 10
27.82098336479461
 20
23.50393269350128
 30
0.0
 11
22.71297387934049
 21
56.92393262905259
 31
0.0
  0
LINE
  5
1F5
330
D4
100
AcDbEntity
  8
外形線
100
AcDbLine
 10
28.86526229425295
 20
24.61393238989268
 30
0.0
 11
24.09656388609832
 21
55.81393328006782
 31
0.0
  0
LINE
  5
1F6
330
D4
100
AcDbEntity
  8
外形線
100
AcDbLine
 10
24.16534480506904
 20
55.36393076015265
 30
0.0
 11
27.25220927650457
 21
55.36393076015265
 31
0.0
  0
LINE
  5
1F7
330
D4
100
AcDbEntity
  8
外形線
100
AcDbLine
 10
21.06172618324285
 20
55.8139315230921
 30
0.0
 11
22.88262805397039
 21
55.8139315230921
 31
0.0
  0
LINE
  5
1F8
330
D4
100
AcDbEntity
  8
外形線
100
AcDbLine
 10
20.43684443885809
 20
56.92393213344367
 30
0.0
 11
20.89206942970282
 21
56.92393213344367
 31
0.0
  0
LINE
  5
1F9
330
D4
100
AcDbEntity
  8
外形線
100
AcDbLine
 10
26.00007876240878
 20
23.50393247204242
 30
0.0
 11
20.89206945706596
 21
56.92393122918574
 31
0.0
  0
LINE
  5
1FA
330
D4
100
AcDbEntity
  8
外形線
100
AcDbLine
 10
24.61648864758418
 20
24.61393252807198
 30
0.0
 11
19.84779009534053
 21
55.81393436097352
 31
0.0
  0
LINE
  5
1FB
330
D4
100
AcDbEntity
  8
外形線
100
AcDbLine
 10
25.07171333906323
 20
24.61393266190516
 30
0.0
 11
20.30301536317569
 21
55.81393072390111
 31
0.0
  0
LINE
  5
1FC
330
D4
100
AcDbEntity
  8
外形線
100
AcDbLine
 10
28.41003753072938
 20
24.61393272742271
 30
0.0
 11
23.64133919461929
 21
55.81393314623465
 31
0.0
  0
LINE
  5
1FD
330
D4
100
AcDbEntity
  8
外形線
100
AcDbLine
 10
28.27620812831817
 20
23.50393235597126
 30
0.0
 11
23.16819857081956
 21
56.92393276288576
 31
0.0
  0
LINE
  5
1FE
330
D4
100
AcDbEntity
  8
外形線
100
AcDbLine
 10
25.54485403490748
 20
23.50393257389085
 30
0.0
 11
20.43684476558693
 21
56.92393109535257
 31
0.0
  0
LINE
  5
1FF
330
D4
100
AcDbEntity
  8
外形線
100
AcDbLine
 10
20.30301544822274
 20
55.81393054546996
 30
0.0
 11
20.43684417669444
 21
56.92393404444203
 31
0.0
  0
LINE
  5
200
330
D4
100
AcDbEntity
  8
外形線
100
AcDbLine
 10
23.16819898777906
 20
56.92393181152917
 30
0.0
 11
23.64133870673392
 21
55.81393132871696
 31
0.0
  0
LINE
  5
201
330
D4
100
AcDbEntity
  8
外形線
100
AcDbLine
 10
22.71297320777899
 20
56.92393213344367
 30
0.0
 11
23.16820010597234
 21
56.92393213344367
 31
0.0
  0
LINE
  5
202
330
D4
100
AcDbEntity
  8
外形線
100
AcDbLine
 10
19.84779033119207
 20
55.8139315230921
 30
0.0
 11
20.3030153220368
 21
55.8139315230921
 31
0.0
  0
LINE
  5
203
330
D4
100
AcDbEntity
  8
外形線
100
AcDbLine
 10
23.64133891517645
 20
55.8139315230921
 30
0.0
 11
24.09656390602118
 21
55.8139315230921
 31
0.0
  0
LINE
  5
204
330
D4
100
AcDbEntity
  8
外形線
100
AcDbLine
 10
21.06172618324285
 20
55.8139315230921
 30
0.0
 11
22.88262805397039
 21
55.8139315230921
 31
0.0
  0
LINE
  5
205
330
D4
100
AcDbEntity
  8
外形線
100
AcDbLine
 10
28.79648265296943
 20
25.06393247676641
 30
0.0
 11
29.87466678077704
 21
25.06393247676641
 31
0.0
  0
LINE
  5
206
330
D4
100
AcDbEntity
  8
外形線
100
AcDbLine
 10
25.54485377723699
 20
23.50393253398687
 30
0.0
 11
26.00007876808172
 21
23.50393253398687
 31
0.0
  0
LINE
  5
207
330
D4
100
AcDbEntity
  8
外形線
100
AcDbLine
 10
24.61648806983954
 20
24.61393266750127
 30
0.0
 11
25.07171306068426
 21
24.61393266750127
 31
0.0
  0
LINE
  5
208
330
D4
100
AcDbEntity
  8
外形線
100
AcDbLine
 10
25.07171371536512
 20
24.61393225529477
 30
0.0
 11
25.54485320060074
 21
23.50393232079513
 31
0.0
  0
LINE
  5
209
330
D4
100
AcDbEntity
  8
外形線
100
AcDbLine
 10
28.27620928215194
 20
23.50393232689432
 30
0.0
 11
28.41003755400745
 21
24.613932038596
 31
0.0
  0
LINE
  5
20A
330
D4
100
AcDbEntity
  8
外形線
100
AcDbLine
 10
27.82098254615789
 20
23.50393253398687
 30
0.0
 11
28.27620944435125
 21
23.50393253398687
 31
0.0
  0
LINE
  5
20B
330
D4
100
AcDbEntity
  8
外形線
100
AcDbLine
 10
25.83042392189032
 20
24.61393266750127
 30
0.0
 11
27.65132769996649
 21
24.61393266750127
 31
0.0
  0
LINE
  5
20C
330
D4
100
AcDbEntity
  8
外形線
100
AcDbLine
 10
28.41003665382391
 20
24.61393266750127
 30
0.0
 11
28.86526355201727
 21
24.61393266750127
 31
0.0
  0
LINE
  5
20D
330
D4
100
AcDbEntity
  8
外形線
100
AcDbLine
 10
37.22898203460979
 20
23.50393226594228
 30
0.0
 11
32.12097272926698
 21
56.9239310230856
 31
0.0
  0
LINE
  5
20E
330
D4
100
AcDbEntity
  8
外形線
100
AcDbLine
 10
38.27326281349869
 20
24.61393248619334
 30
0.0
 11
33.50456462147761
 21
55.81393196227887
 31
0.0
  0
LINE
  5
20F
330
D4
100
AcDbEntity
  8
外形線
100
AcDbLine
 10
33.57334384376532
 20
55.36393076015265
 30
0.0
 11
38.73257312232978
 21
55.36393076015265
 31
0.0
  0
LINE
  5
210
330
D4
100
AcDbEntity
  8
外形線
100
AcDbLine
 10
30.46972712928778
 20
55.8139315230921
 30
0.0
 11
32.29062900001532
 21
55.8139315230921
 31
0.0
  0
LINE
  5
211
330
D4
100
AcDbEntity
  8
外形線
100
AcDbLine
 10
29.84484538490301
 20
56.92393213344367
 30
0.0
 11
30.30007037574774
 21
56.92393213344367
 31
0.0
  0
LINE
  5
212
330
D4
100
AcDbEntity
  8
外形線
100
AcDbLine
 10
35.40807931767677
 20
23.50393233266148
 30
0.0
 11
30.30006961608912
 21
56.92393368230238
 31
0.0
  0
LINE
  5
213
330
D4
100
AcDbEntity
  8
外形線
100
AcDbLine
 10
34.02448728137712
 20
24.61393233619458
 30
0.0
 11
29.25578894526701
 21
55.81393275500653
 31
0.0
  0
LINE
  5
214
330
D4
100
AcDbEntity
  8
外形線
100
AcDbLine
 10
34.47971393035345
 20
24.61393228684261
 30
0.0
 11
29.71101552219884
 21
55.81393317701774
 31
0.0
  0
LINE
  5
215
330
D4
100
AcDbEntity
  8
外形線
100
AcDbLine
 10
37.81803620054458
 20
24.61393229986371
 30
0.0
 11
33.04933804454578
 21
55.81393154026766
 31
0.0
  0
LINE
  5
216
330
D4
100
AcDbEntity
  8
外形線
100
AcDbLine
 10
37.68420864756389
 20
23.50393245227191
 30
0.0
 11
32.57619930619882
 21
56.92393144509683
 31
0.0
  0
LINE
  5
217
330
D4
100
AcDbEntity
  8
外形線
100
AcDbLine
 10
34.95285268671155
 20
23.50393226417265
 30
0.0
 11
29.8448430391573
 21
56.92393326029115
 31
0.0
  0
LINE
  5
218
330
D4
100
AcDbEntity
  8
外形線
100
AcDbLine
 10
29.71101707198037
 20
55.81393329229709
 30
0.0
 11
29.84484534383586
 21
56.92393300399881
 31
0.0
  0
LINE
  5
219
330
D4
100
AcDbEntity
  8
外形線
100
AcDbLine
 10
32.57620198302567
 20
56.92393267028409
 30
0.0
 11
33.04934170198052
 21
55.81393218747185
 31
0.0
  0
LINE
  5
21A
330
D4
100
AcDbEntity
  8
外形線
100
AcDbLine
 10
32.12097415382391
 20
56.92393213344367
 30
0.0
 11
32.57620105201727
 21
56.92393213344367
 31
0.0
  0
LINE
  5
21B
330
D4
100
AcDbEntity
  8
外形線
100
AcDbLine
 10
29.25579127723699
 20
55.8139315230921
 30
0.0
 11
29.71101626808172
 21
55.8139315230921
 31
0.0
  0
LINE
  5
21C
330
D4
100
AcDbEntity
  8
外形線
100
AcDbLine
 10
33.04934176857
 20
55.8139315230921
 30
0.0
 11
33.5045648520661
 21
55.8139315230921
 31
0.0
  0
LINE
  5
21D
330
D4
100
AcDbEntity
  8
外形線
100
AcDbLine
 10
30.46972712928778
 20
55.8139315230921
 30
0.0
 11
32.29062900001532
 21
55.8139315230921
 31
0.0
  0
LINE
  5
21E
330
D4
100
AcDbEntity
  8
外形線
100
AcDbLine
 10
38.20448550636296
 20
25.06393247676641
 30
0.0
 11
43.36371097023016
 21
25.06393247676641
 31
0.0
  0
LINE
  5
21F
330
D4
100
AcDbEntity
  8
外形線
100
AcDbLine
 10
34.95285281593329
 20
23.50393253398687
 30
0.0
 11
35.40807971412665
 21
23.50393253398687
 31
0.0
  0
LINE
  5
220
330
D4
100
AcDbEntity
  8
外形線
100
AcDbLine
 10
34.02448901588446
 20
24.61393266750127
 30
0.0
 11
34.47971591407782
 21
24.61393266750127
 31
0.0
  0
LINE
  5
221
330
D4
100
AcDbEntity
  8
外形線
100
AcDbLine
 10
34.47971509624301
 20
24.6139320371606
 30
0.0
 11
34.95285462822247
 21
23.50393199299842
 31
0.0
  0
LINE
  5
222
330
D4
100
AcDbEntity
  8
外形線
100
AcDbLine
 10
37.68420961662983
 20
23.50393234742275
 30
0.0
 11
37.81803788848532
 21
24.61393205912444
 31
0.0
  0
LINE
  5
223
330
D4
100
AcDbEntity
  8
外形線
100
AcDbLine
 10
37.22898349220282
 20
23.50393253398687
 30
0.0
 11
37.68421039039618
 21
23.50393253398687
 31
0.0
  0
LINE
  5
224
330
D4
100
AcDbEntity
  8
外形線
100
AcDbLine
 10
35.23842486793525
 20
24.61393266750127
 30
0.0
 11
37.0593286460114
 21
24.61393266750127
 31
0.0
  0
LINE
  5
225
330
D4
100
AcDbEntity
  8
外形線
100
AcDbLine
 10
37.81803759986882
 20
24.61393266750127
 30
0.0
 11
38.27326449806218
 21
24.61393266750127
 31
0.0
  0
LINE
  5
226
330
D4
100
AcDbEntity
  8
外形線
100
AcDbLine
 10
46.63698634727501
 20
23.50393279129805
 30
0.0
 11
41.52897665919572
 21
56.92393405255836
 31
0.0
  0
LINE
  5
227
330
D4
100
AcDbEntity
  8
外形線
100
AcDbLine
 10
47.68126336876664
 20
24.61393234681239
 30
0.0
 11
42.91256535685685
 21
55.81393064448993
 31
0.0
  0
LINE
  5
228
330
D4
100
AcDbEntity
  8
外形線
100
AcDbLine
 10
42.98134478981022
 20
55.36393076015265
 30
0.0
 11
48.14057406837469
 21
55.36393076015265
 31
0.0
  0
LINE
  5
229
330
D4
100
AcDbEntity
  8
外形線
100
AcDbLine
 10
39.87772616798407
 20
55.8139315230921
 30
0.0
 11
41.69862994606023
 21
55.8139315230921
 31
0.0
  0
LINE
  5
22A
330
D4
100
AcDbEntity
  8
外形線
100
AcDbLine
 10
39.25284823829656
 20
56.92393213344367
 30
0.0
 11
39.70807132179265
 21
56.92393213344367
 31
0.0
  0
LINE
  5
22B
330
D4
100
AcDbEntity
  8
外形線
100
AcDbLine
 10
44.81607985493361
 20
23.50393231112133
 30
0.0
 11
39.70807035146838
 21
56.92393236451342
 31
0.0
  0
LINE
  5
22C
330
D4
100
AcDbEntity
  8
外形線
100
AcDbLine
 10
43.43249160755067
 20
24.61393277316975
 30
0.0
 11
38.66379345155187
 21
55.81393201357371
 31
0.0
  0
LINE
  5
22D
330
D4
100
AcDbEntity
  8
外形線
100
AcDbLine
 10
43.88771446761031
 20
24.61393226530247
 30
0.0
 11
39.11901625757811
 21
55.8139318592288
 31
0.0
  0
LINE
  5
22E
330
D4
100
AcDbEntity
  8
外形線
100
AcDbLine
 10
47.22604052671814
 20
24.61393273683888
 30
0.0
 11
42.4573419744745
 21
55.81393456974041
 31
0.0
  0
LINE
  5
22F
330
D4
100
AcDbEntity
  8
外形線
100
AcDbLine
 10
47.0922092005805
 20
23.50393232762107
 30
0.0
 11
41.98419946522196
 21
56.92393389821347
 31
0.0
  0
LINE
  5
230
330
D4
100
AcDbEntity
  8
外形線
100
AcDbLine
 10
44.36085700387951
 20
23.50393276006821
 30
0.0
 11
39.25284754544211
 21
56.92393251885832
 31
0.0
  0
LINE
  5
231
330
D4
100
AcDbEntity
  8
外形線
100
AcDbLine
 10
39.11901729230418
 20
55.81393236600796
 30
0.0
 11
39.25284556415969
 21
56.92393207770964
 31
0.0
  0
LINE
  5
232
330
D4
100
AcDbEntity
  8
外形線
100
AcDbLine
 10
41.98420146907176
 20
56.9239320332359
 30
0.0
 11
42.45734118802661
 21
55.81393155042366
 31
0.0
  0
LINE
  5
233
330
D4
100
AcDbEntity
  8
外形線
100
AcDbLine
 10
41.52897509986882
 20
56.92393213344367
 30
0.0
 11
41.98420199806218
 21
56.92393213344367
 31
0.0
  0
LINE
  5
234
330
D4
100
AcDbEntity
  8
外形線
100
AcDbLine
 10
38.66379413063054
 20
55.8139315230921
 30
0.0
 11
39.11901721412665
 21
55.8139315230921
 31
0.0
  0
LINE
  5
235
330
D4
100
AcDbEntity
  8
外形線
100
AcDbLine
 10
42.45734271461492
 20
55.8139315230921
 30
0.0
 11
42.91256579811101
 21
55.8139315230921
 31
0.0
  0
LINE
  5
236
330
D4
100
AcDbEntity
  8
外形線
100
AcDbLine
 10
39.87772616798407
 20
55.8139315230921
 30
0.0
 11
41.69862994606023
 21
55.8139315230921
 31
0.0
  0
LINE
  5
237
330
D4
100
AcDbEntity
  8
外形線
100
AcDbLine
 10
47.61248645240789
 20
25.06393247676641
 30
0.0
 11
52.77171191627508
 21
25.06393247676641
 31
0.0
  0
LINE
  5
238
330
D4
100
AcDbEntity
  8
外形線
100
AcDbLine
 10
44.36085757667547
 20
23.50393253398687
 30
0.0
 11
44.81608066017156
 21
23.50393253398687
 31
0.0
  0
LINE
  5
239
330
D4
100
AcDbEntity
  8
外形線
100
AcDbLine
 10
43.43248996192937
 20
24.61393266750127
 30
0.0
 11
43.88771686012272
 21
24.61393266750127
 31
0.0
  0
LINE
  5
23A
330
D4
100
AcDbEntity
  8
外形線
100
AcDbLine
 10
43.88771809148962
 20
24.6139328959155
 30
0.0
 11
44.3608574364937
 21
23.50393329040341
 31
0.0
  0
LINE
  5
23B
330
D4
100
AcDbEntity
  8
外形線
100
AcDbLine
 10
47.09220995110771
 20
23.50393236795118
 30
0.0
 11
47.22603822296321
 21
24.61393207965287
 31
0.0
  0
LINE
  5
23C
330
D4
100
AcDbEntity
  8
外形線
100
AcDbLine
 10
46.63698443824773
 20
23.50393253398687
 30
0.0
 11
47.09221133644109
 21
23.50393253398687
 31
0.0
  0
LINE
  5
23D
330
D4
100
AcDbEntity
  8
外形線
100
AcDbLine
 10
44.64642581398016
 20
24.61393266750127
 30
0.0
 11
46.46732959205633
 21
24.61393266750127
 31
0.0
  0
LINE
  5
23E
330
D4
100
AcDbEntity
  8
外形線
100
AcDbLine
 10
47.22603854591375
 20
24.61393266750127
 30
0.0
 11
47.68126544410711
 21
24.61393266750127
 31
0.0
  0
LINE
  5
23F
330
D4
100
AcDbEntity
  8
外形線
100
AcDbLine
 10
56.04498689804021
 20
23.50393268137731
 30
0.0
 11
50.93697739457496
 21
56.92393273476942
 31
0.0
  0
LINE
  5
240
330
D4
100
AcDbEntity
  8
外形線
100
AcDbLine
 10
57.08926768593466
 20
24.61393284270797
 30
0.0
 11
52.32056928678559
 21
55.81393367396271
 31
0.0
  0
LINE
  5
241
330
D4
100
AcDbEntity
  8
外形線
100
AcDbLine
 10
52.38934955055242
 20
55.36393076015265
 30
0.0
 11
57.54857501441961
 21
55.36393076015265
 31
0.0
  0
LINE
  5
242
330
D4
100
AcDbEntity
  8
外形線
100
AcDbLine
 10
49.28573092872625
 20
55.8139315230921
 30
0.0
 11
51.10663470680242
 21
55.8139315230921
 31
0.0
  0
LINE
  5
243
330
D4
100
AcDbEntity
  8
外形線
100
AcDbLine
 10
48.66084918434149
 20
56.92393213344367
 30
0.0
 11
49.11607226783758
 21
56.92393213344367
 31
0.0
  0
LINE
  5
244
330
D4
100
AcDbEntity
  8
外形線
100
AcDbLine
 10
54.22408417210161
 20
23.50393280701689
 30
0.0
 11
49.11607485775323
 21
56.92393162308061
 31
0.0
  0
LINE
  5
245
330
D4
100
AcDbEntity
  8
外形線
100
AcDbLine
 10
52.84049215381309
 20
24.61393269270921
 30
0.0
 11
48.07179389875305
 21
55.81393258123757
 31
0.0
  0
LINE
  5
246
330
D4
100
AcDbEntity
  8
外形線
100
AcDbLine
 10
53.29571877577276
 20
24.61393282011844
 30
0.0
 11
48.52702047568491
 21
55.81393300324879
 31
0.0
  0
LINE
  5
247
330
D4
100
AcDbEntity
  8
外形線
100
AcDbLine
 10
56.63404106172361
 20
24.61393273002884
 30
0.0
 11
51.86534270985377
 21
55.81393325195147
 31
0.0
  0
LINE
  5
248
330
D4
100
AcDbEntity
  8
外形線
100
AcDbLine
 10
56.50021351099431
 20
23.50393286770694
 30
0.0
 11
51.39220397150682
 21
56.92393315678065
 31
0.0
  0
LINE
  5
249
330
D4
100
AcDbEntity
  8
外形線
100
AcDbLine
 10
53.76885754113637
 20
23.50393273852808
 30
0.0
 11
48.6608482808214
 21
56.92393120106939
 31
0.0
  0
LINE
  5
24A
330
D4
100
AcDbEntity
  8
外形線
100
AcDbLine
 10
48.5270212998984
 20
55.8139309831026
 30
0.0
 11
48.6608495717539
 21
56.9239306948043
 31
0.0
  0
LINE
  5
24B
330
D4
100
AcDbEntity
  8
外形線
100
AcDbLine
 10
51.39220446431837
 20
56.92393289199081
 30
0.0
 11
51.86534418327322
 21
55.81393240917859
 31
0.0
  0
LINE
  5
24C
330
D4
100
AcDbEntity
  8
外形線
100
AcDbLine
 10
50.93697604591375
 20
56.92393213344367
 30
0.0
 11
51.39220294410711
 21
56.92393213344367
 31
0.0
  0
LINE
  5
24D
330
D4
100
AcDbEntity
  8
外形線
100
AcDbLine
 10
48.07179507667547
 20
55.8139315230921
 30
0.0
 11
48.52701816017156
 21
55.8139315230921
 31
0.0
  0
LINE
  5
24E
330
D4
100
AcDbEntity
  8
外形線
100
AcDbLine
 10
51.86534366065984
 20
55.8139315230921
 30
0.0
 11
52.32056674415594
 21
55.8139315230921
 31
0.0
  0
LINE
  5
24F
330
D4
100
AcDbEntity
  8
外形線
100
AcDbLine
 10
49.28573092872625
 20
55.8139315230921
 30
0.0
 11
51.10663470680242
 21
55.8139315230921
 31
0.0
  0
LINE
  5
250
330
D4
100
AcDbEntity
  8
外形線
100
AcDbLine
 10
57.02048739845281
 20
25.06393247676641
 30
0.0
 11
62.17971286232
 21
25.06393247676641
 31
0.0
  0
LINE
  5
251
330
D4
100
AcDbEntity
  8
外形線
100
AcDbLine
 10
53.76885852272039
 20
23.50393253398687
 30
0.0
 11
54.22408160621649
 21
23.50393253398687
 31
0.0
  0
LINE
  5
252
330
D4
100
AcDbEntity
  8
外形線
100
AcDbLine
 10
52.8404909079743
 20
24.61393266750127
 30
0.0
 11
53.29571780616766
 21
24.61393266750127
 31
0.0
  0
LINE
  5
253
330
D4
100
AcDbEntity
  8
外形線
100
AcDbLine
 10
53.2957175775357
 20
24.61393225886733
 30
0.0
 11
53.76885729649053
 21
23.50393177605508
 31
0.0
  0
LINE
  5
254
330
D4
100
AcDbEntity
  8
外形線
100
AcDbLine
 10
56.50021407285596
 20
23.50393193186341
 30
0.0
 11
56.63404245886551
 21
24.6139325903827
 31
0.0
  0
LINE
  5
255
330
D4
100
AcDbEntity
  8
外形線
100
AcDbLine
 10
56.04498538429266
 20
23.50393253398687
 30
0.0
 11
56.50021228248601
 21
23.50393253398687
 31
0.0
  0
LINE
  5
256
330
D4
100
AcDbEntity
  8
外形線
100
AcDbLine
 10
54.05442676002508
 20
24.61393266750127
 30
0.0
 11
55.87533053810125
 21
24.61393266750127
 31
0.0
  0
LINE
  5
257
330
D4
100
AcDbEntity
  8
外形線
100
AcDbLine
 10
56.63403949195867
 20
24.61393266750127
 30
0.0
 11
57.08926639015203
 21
24.61393266750127
 31
0.0
  0
LINE
  5
258
330
D4
100
AcDbEntity
  8
外形線
100
AcDbLine
 10
65.45299120620265
 20
23.50393323619328
 30
0.0
 11
60.34498161268178
 21
56.92393387878938
 31
0.0
  0
LINE
  5
259
330
D4
100
AcDbEntity
  8
外形線
100
AcDbLine
 10
66.49726823219707
 20
24.61393276224743
 30
0.0
 11
61.72857002216488
 21
55.81393235617378
 31
0.0
  0
LINE
  5
25A
330
D4
100
AcDbEntity
  8
外形線
100
AcDbLine
 10
61.79735049659734
 20
55.36393076015265
 30
0.0
 11
66.95657596046455
 21
55.36393076015265
 31
0.0
  0
LINE
  5
25B
330
D4
100
AcDbEntity
  8
外形線
100
AcDbLine
 10
58.69373187477117
 20
55.8139315230921
 30
0.0
 11
60.51463565284734
 21
55.8139315230921
 31
0.0
  0
LINE
  5
25C
330
D4
100
AcDbEntity
  8
外形線
100
AcDbLine
 10
58.06885013038641
 20
56.92393213344367
 30
0.0
 11
58.5240732138825
 21
56.92393213344367
 31
0.0
  0
LINE
  5
25D
330
D4
100
AcDbEntity
  8
外形線
100
AcDbLine
 10
63.63208471836403
 20
23.50393272655636
 30
0.0
 11
58.52407530495444
 21
56.92393219074446
 31
0.0
  0
LINE
  5
25E
330
D4
100
AcDbEntity
  8
外形線
100
AcDbLine
 10
62.24849270007551
 20
24.61393261224868
 30
0.0
 11
57.47979434595428
 21
55.8139331489014
 31
0.0
  0
LINE
  5
25F
330
D4
100
AcDbEntity
  8
外形線
100
AcDbLine
 10
62.7037193130296
 20
24.6139327985783
 30
0.0
 11
57.93502092288612
 21
55.81393357091264
 31
0.0
  0
LINE
  5
260
330
D4
100
AcDbEntity
  8
外形線
100
AcDbLine
 10
66.04204537213743
 20
24.61393327011471
 30
0.0
 11
61.27334721613862
 21
55.81393251051867
 31
0.0
  0
LINE
  5
261
330
D4
100
AcDbEntity
  8
外形線
100
AcDbLine
 10
65.90821404825115
 20
23.50393284616679
 30
0.0
 11
60.80020470688609
 21
56.92393183899172
 31
0.0
  0
LINE
  5
262
330
D4
100
AcDbEntity
  8
外形線
100
AcDbLine
 10
63.17685810540993
 20
23.50393254022673
 30
0.0
 11
58.06884872802261
 21
56.92393176873324
 31
0.0
  0
LINE
  5
263
330
D4
100
AcDbEntity
  8
外形線
100
AcDbLine
 10
57.93502197683842
 20
55.8139338440838
 30
0.0
 11
58.06885024869393
 21
56.9239335557855
 31
0.0
  0
LINE
  5
264
330
D4
100
AcDbEntity
  8
外形線
100
AcDbLine
 10
60.80020745956499
 20
56.92393375074572
 30
0.0
 11
61.27334717851984
 21
55.81393326793349
 31
0.0
  0
LINE
  5
265
330
D4
100
AcDbEntity
  8
外形線
100
AcDbLine
 10
60.34497699195867
 20
56.92393213344367
 30
0.0
 11
60.80020389015203
 21
56.92393213344367
 31
0.0
  0
LINE
  5
266
330
D4
100
AcDbEntity
  8
外形線
100
AcDbLine
 10
57.47979602272039
 20
55.8139315230921
 30
0.0
 11
57.93501910621649
 21
55.8139315230921
 31
0.0
  0
LINE
  5
267
330
D4
100
AcDbEntity
  8
外形線
100
AcDbLine
 10
61.27334460670477
 20
55.8139315230921
 30
0.0
 11
61.72857150489813
 21
55.8139315230921
 31
0.0
  0
LINE
  5
268
330
D4
100
AcDbEntity
  8
外形線
100
AcDbLine
 10
58.69373187477117
 20
55.8139315230921
 30
0.0
 11
60.51463565284734
 21
55.8139315230921
 31
0.0
  0
LINE
  5
269
330
D4
100
AcDbEntity
  8
外形線
100
AcDbLine
 10
66.428492159195
 20
25.06393247676641
 30
0.0
 11
71.58771762306219
 21
25.06393247676641
 31
0.0
  0
LINE
  5
26A
330
D4
100
AcDbEntity
  8
外形線
100
AcDbLine
 10
63.17685946876531
 20
23.50393253398687
 30
0.0
 11
63.6320825522614
 21
23.50393253398687
 31
0.0
  0
LINE
  5
26B
330
D4
100
AcDbEntity
  8
外形線
100
AcDbLine
 10
62.24849185401922
 20
24.61393266750127
 30
0.0
 11
62.70371875221258
 21
24.61393266750127
 31
0.0
  0
LINE
  5
26C
330
D4
100
AcDbEntity
  8
外形線
100
AcDbLine
 10
62.7037205727823
 20
24.61393311762222
 30
0.0
 11
63.17686029173716
 21
23.50393263481
 31
0.0
  0
LINE
  5
26D
330
D4
100
AcDbEntity
  8
外形線
100
AcDbLine
 10
65.90821062006347
 20
23.50393240900805
 30
0.0
 11
66.04203900607302
 21
24.61393306752734
 31
0.0
  0
LINE
  5
26E
330
D4
100
AcDbEntity
  8
外形線
100
AcDbLine
 10
65.45299014503484
 20
23.50393253398687
 30
0.0
 11
65.90821322853094
 21
23.50393253398687
 31
0.0
  0
LINE
  5
26F
330
D4
100
AcDbEntity
  8
外形線
100
AcDbLine
 10
63.46242770606999
 20
24.61393266750127
 30
0.0
 11
65.28333529884344
 21
24.61393266750127
 31
0.0
  0
LINE
  5
270
330
D4
100
AcDbEntity
  8
外形線
100
AcDbLine
 10
66.04204043800359
 20
24.61393266750127
 30
0.0
 11
66.49727115089422
 21
24.61393266750127
 31
0.0
  0
LINE
  5
271
330
D4
100
AcDbEntity
  8
外形線
100
AcDbLine
 10
74.86098799056506
 20
23.50393252045622
 30
0.0
 11
69.75297857715546
 21
56.92393198464436
 31
0.0
  0
LINE
  5
272
330
D4
100
AcDbEntity
  8
外形線
100
AcDbLine
 10
75.90527254035952
 20
24.61393331706339
 30
0.0
 11
71.13657424027166
 21
55.81393350019374
 31
0.0
  0
LINE
  5
273
330
D4
100
AcDbEntity
  8
外形線
100
AcDbLine
 10
71.205347627945
 20
55.36393076015265
 30
0.0
 11
76.36457309181219
 21
55.36393076015265
 31
0.0
  0
LINE
  5
274
330
D4
100
AcDbEntity
  8
外形線
100
AcDbLine
 10
68.1017328208161
 20
55.8139315230921
 30
0.0
 11
69.922632784195
 21
55.8139315230921
 31
0.0
  0
LINE
  5
275
330
D4
100
AcDbEntity
  8
外形線
100
AcDbLine
 10
67.47684726173407
 20
56.92393213344367
 30
0.0
 11
67.93207797462469
 21
56.92393213344367
 31
0.0
  0
LINE
  5
276
330
D4
100
AcDbEntity
  8
外形線
100
AcDbLine
 10
73.04008904453758
 20
23.50393316353154
 30
0.0
 11
67.93207952306123
 21
56.92393333476445
 31
0.0
  0
LINE
  5
277
330
D4
100
AcDbEntity
  8
外形線
100
AcDbLine
 10
71.65649323733234
 20
24.61393259070852
 30
0.0
 11
66.88779508133355
 21
55.81393183111247
 31
0.0
  0
LINE
  5
278
330
D4
100
AcDbEntity
  8
外形線
100
AcDbLine
 10
72.11172362119204
 20
24.61393335339427
 30
0.0
 11
67.34302542917096
 21
55.81393282947981
 31
0.0
  0
LINE
  5
279
330
D4
100
AcDbEntity
  8
外形線
100
AcDbLine
 10
75.45004215649985
 20
24.61393255437764
 30
0.0
 11
70.68134389243425
 21
55.81393250182636
 31
0.0
  0
LINE
  5
27A
330
D4
100
AcDbEntity
  8
外形線
100
AcDbLine
 10
75.31621833840245
 20
23.50393351882357
 30
0.0
 11
70.20820892499286
 21
56.92393298301168
 31
0.0
  0
LINE
  5
27B
330
D4
100
AcDbEntity
  8
外形線
100
AcDbLine
 10
72.58485862465568
 20
23.50393263652738
 30
0.0
 11
67.47684917522382
 21
56.92393233639709
 31
0.0
  0
LINE
  5
27C
330
D4
100
AcDbEntity
  8
外形線
100
AcDbLine
 10
67.34302219716227
 20
55.81393291779463
 30
0.0
 11
67.47685046901775
 21
56.92393262949636
 31
0.0
  0
LINE
  5
27D
330
D4
100
AcDbEntity
  8
外形線
100
AcDbLine
 10
70.20820381036131
 20
56.9239307405943
 30
0.0
 11
70.68134315536537
 21
55.81393113508223
 31
0.0
  0
LINE
  5
27E
330
D4
100
AcDbEntity
  8
外形線
100
AcDbLine
 10
69.75297793800359
 20
56.92393213344367
 30
0.0
 11
70.20820865089422
 21
56.92393213344367
 31
0.0
  0
LINE
  5
27F
330
D4
100
AcDbEntity
  8
外形線
100
AcDbLine
 10
66.88779696876531
 20
55.8139315230921
 30
0.0
 11
67.34302005226139
 21
55.8139315230921
 31
0.0
  0
LINE
  5
280
330
D4
100
AcDbEntity
  8
外形線
100
AcDbLine
 10
70.68134555274969
 20
55.8139315230921
 30
0.0
 11
71.13656863624578
 21
55.8139315230921
 31
0.0
  0
LINE
  5
281
330
D4
100
AcDbEntity
  8
外形線
100
AcDbLine
 10
68.1017328208161
 20
55.8139315230921
 30
0.0
 11
69.922632784195
 21
55.8139315230921
 31
0.0
  0
LINE
  5
282
330
D4
100
AcDbEntity
  8
外形線
100
AcDbLine
 10
75.83648929054266
 20
25.06393247676641
 30
0.0
 11
80.99571475440985
 21
25.06393247676641
 31
0.0
  0
LINE
  5
283
330
D4
100
AcDbEntity
  8
外形線
100
AcDbLine
 10
72.58485660011297
 20
23.50393253398687
 30
0.0
 11
73.0400873130036
 21
23.50393253398687
 31
0.0
  0
LINE
  5
284
330
D4
100
AcDbEntity
  8
外形線
100
AcDbLine
 10
71.65649661476141
 20
24.61393266750127
 30
0.0
 11
72.1117196982575
 21
24.61393266750127
 31
0.0
  0
LINE
  5
285
330
D4
100
AcDbEntity
  8
外形線
100
AcDbLine
 10
72.11172356802892
 20
24.61393397637713
 30
0.0
 11
72.58486328698379
 21
23.50393349356492
 31
0.0
  0
LINE
  5
286
330
D4
100
AcDbEntity
  8
外形線
100
AcDbLine
 10
75.31621474181173
 20
23.50393197292027
 30
0.0
 11
75.45004301366723
 21
24.61393168462198
 31
0.0
  0
LINE
  5
287
330
D4
100
AcDbEntity
  8
外形線
100
AcDbLine
 10
74.8609872763825
 20
23.50393253398687
 30
0.0
 11
75.31621798927313
 21
23.50393253398687
 31
0.0
  0
LINE
  5
288
330
D4
100
AcDbEntity
  8
外形線
100
AcDbLine
 10
72.87043246681219
 20
24.61393266750127
 30
0.0
 11
74.69133243019109
 21
24.61393266750127
 31
0.0
  0
LINE
  5
289
330
D4
100
AcDbEntity
  8
外形線
100
AcDbLine
 10
75.45004519874578
 20
24.61393266750127
 30
0.0
 11
75.90526828224188
 21
24.61393266750127
 31
0.0
  0
LINE
  5
28A
330
D4
100
AcDbEntity
  8
外形線
100
AcDbLine
 10
84.26899228071636
 20
23.503933193113
 30
0.0
 11
79.16098279526227
 21
56.92393312866429
 31
0.0
  0
LINE
  5
28B
330
D4
100
AcDbEntity
  8
外形線
100
AcDbLine
 10
85.31326932472195
 20
24.61393260132633
 30
0.0
 11
80.54457091656729
 21
55.81393349150147
 31
0.0
  0
LINE
  5
28C
330
D4
100
AcDbEntity
  8
外形線
100
AcDbLine
 10
80.6133523886872
 20
55.36393076015265
 30
0.0
 11
85.77257785255438
 21
55.36393076015265
 31
0.0
  0
LINE
  5
28D
330
D4
100
AcDbEntity
  8
外形線
100
AcDbLine
 10
77.50972995216375
 20
55.8139315230921
 30
0.0
 11
79.33063754493719
 21
55.8139315230921
 31
0.0
  0
LINE
  5
28E
330
D4
100
AcDbEntity
  8
外形線
100
AcDbLine
 10
76.88485202247625
 20
56.92393213344367
 30
0.0
 11
77.34007510597234
 21
56.92393213344367
 31
0.0
  0
LINE
  5
28F
330
D4
100
AcDbEntity
  8
外形線
100
AcDbLine
 10
82.4480858289
 20
23.50393244779447
 30
0.0
 11
77.34007619935685
 21
56.92393332607217
 31
0.0
  0
LINE
  5
290
330
D4
100
AcDbEntity
  8
外形線
100
AcDbLine
 10
81.06449756350592
 20
24.6139330276837
 30
0.0
 11
76.29579929944033
 21
55.81393297513244
 31
0.0
  0
LINE
  5
291
330
D4
100
AcDbEntity
  8
外形線
100
AcDbLine
 10
81.51972040555445
 20
24.6139326376572
 30
0.0
 11
76.75102210546661
 21
55.81393282078753
 31
0.0
  0
LINE
  5
292
330
D4
100
AcDbEntity
  8
外形線
100
AcDbLine
 10
84.85804644665114
 20
24.61393322703442
 30
0.0
 11
80.08934811054102
 21
55.81393364584634
 31
0.0
  0
LINE
  5
293
330
D4
100
AcDbEntity
  8
外形線
100
AcDbLine
 10
84.72421515878712
 20
23.5039325674049
 30
0.0
 11
79.61620560128849
 21
56.92393297431941
 31
0.0
  0
LINE
  5
294
330
D4
100
AcDbEntity
  8
外形線
100
AcDbLine
 10
81.99286295082924
 20
23.50393307350257
 30
0.0
 11
76.88485339333062
 21
56.92393348041706
 31
0.0
  0
LINE
  5
295
330
D4
100
AcDbEntity
  8
外形線
100
AcDbLine
 10
76.75102620475647
 20
55.81393153488928
 30
0.0
 11
76.88485447661197
 21
56.92393124659099
 31
0.0
  0
LINE
  5
296
330
D4
100
AcDbEntity
  8
外形線
100
AcDbLine
 10
79.61620661863253
 20
56.92393203799928
 30
0.0
 11
80.089346150612
 21
55.81393199383714
 31
0.0
  0
LINE
  5
297
330
D4
100
AcDbEntity
  8
外形線
100
AcDbLine
 10
79.16098269874578
 20
56.92393213344367
 30
0.0
 11
79.61620578224188
 21
56.92393213344367
 31
0.0
  0
LINE
  5
298
330
D4
100
AcDbEntity
  8
外形線
100
AcDbLine
 10
76.29579410011297
 20
55.8139315230921
 30
0.0
 11
76.7510248130036
 21
55.8139315230921
 31
0.0
  0
LINE
  5
299
330
D4
100
AcDbEntity
  8
外形線
100
AcDbLine
 10
80.08935031349187
 20
55.8139315230921
 30
0.0
 11
80.54457339698798
 21
55.8139315230921
 31
0.0
  0
LINE
  5
29A
330
D4
100
AcDbEntity
  8
外形線
100
AcDbLine
 10
77.50972995216375
 20
55.8139315230921
 30
0.0
 11
79.33063754493719
 21
55.8139315230921
 31
0.0
  0
LINE
  5
29B
330
D4
100
AcDbEntity
  8
外形線
100
AcDbLine
 10
85.24449405128484
 20
25.06393247676641
 30
0.0
 11
85.77257785255438
 21
25.06393247676641
 31
0.0
  0
LINE
  5
29C
330
D4
100
AcDbEntity
  8
外形線
100
AcDbLine
 10
81.99286136085516
 20
23.50393253398687
 30
0.0
 11
82.44808444435125
 21
23.50393253398687
 31
0.0
  0
LINE
  5
29D
330
D4
100
AcDbEntity
  8
外形線
100
AcDbLine
 10
81.06449374610907
 20
24.61393266750127
 30
0.0
 11
81.5197244589997
 21
24.61393266750127
 31
0.0
  0
LINE
  5
29E
330
D4
100
AcDbEntity
  8
外形線
100
AcDbLine
 10
81.51971954487445
 20
24.61393184352586
 30
0.0
 11
81.99285926382932
 21
23.50393136071364
 31
0.0
  0
LINE
  5
29F
330
D4
100
AcDbEntity
  8
外形線
100
AcDbLine
 10
84.72421897771402
 20
23.5039324836501
 30
0.0
 11
84.85804724956954
 21
24.61393219535181
 31
0.0
  0
LINE
  5
2A0
330
D4
100
AcDbEntity
  8
外形線
100
AcDbLine
 10
84.26899203712469
 20
23.50393253398687
 30
0.0
 11
84.72421512062078
 21
23.50393253398687
 31
0.0
  0
LINE
  5
2A1
330
D4
100
AcDbEntity
  8
外形線
100
AcDbLine
 10
82.27842959815985
 20
24.61393266750127
 30
0.0
 11
84.09933719093329
 21
24.61393266750127
 31
0.0
  0
LINE
  5
2A2
330
D4
100
AcDbEntity
  8
外形線
100
AcDbLine
 10
84.85804233009345
 20
24.61393266750127
 30
0.0
 11
85.31327304298406
 21
24.61393266750127
 31
0.0
  0
LINE
  5
2A3
330
D4
100
AcDbEntity
  8
外形線
100
AcDbLine
 10
-65.28352871482844
 20
55.36393076015265
 30
0.0
 11
-65.28352871482844
 21
25.06393247676641
 31
0.0
  0
LINE
  5
2A4
330
D4
100
AcDbEntity
  8
外形線
100
AcDbLine
 10
85.77257785255438
 20
55.36393076015265
 30
0.0
 11
85.77257785255438
 21
25.06393247676641
 31
0.0
  0
LINE
  5
2A5
330
D4
100
AcDbEntity
  8
外形線
100
AcDbLine
 10
31.3748975699616
 20
25.06393247676641
 30
0.0
 11
33.95571002418524
 21
25.06393247676641
 31
0.0
  0
LINE
  5
2A6
330
D4
100
AcDbEntity
  8
外形線
100
AcDbLine
 10
28.76491221839911
 20
55.36393076015265
 30
0.0
 11
29.32457026893621
 21
55.36393076015265
 31
0.0
  0
LINE
  5
2A7
330
D4
100
AcDbEntity
  8
0
100
AcDbLine
 10
-60.38709932760458
 20
-5.58094877170771
 30
0.0
 11
80.01289456887981
 21
-5.58094877170771
 31
0.0
  0
LINE
  5
2A8
330
D4
100
AcDbEntity
  8
0
100
AcDbLine
 10
-60.38709932760458
 20
-57.99695104526727
 30
0.0
 11
80.01289456887981
 21
-57.99695104526727
 31
0.0
  0
LINE
  5
2A9
330
D4
100
AcDbEntity
  8
0
100
AcDbLine
 10
-36.98710161642293
 20
-5.58094877170771
 30
0.0
 11
-36.98710161642293
 21
-57.99695104526727
 31
0.0
  0
LINE
  5
2AA
330
D4
100
AcDbEntity
  8
0
100
AcDbLine
 10
-60.38709932760458
 20
-5.58094877170771
 30
0.0
 11
-60.38709932760458
 21
-50.50895208286493
 31
0.0
  0
LINE
  5
2AB
330
D4
100
AcDbEntity
  8
0
100
AcDbLine
 10
-13.58710104421834
 20
-5.58094877170771
 30
0.0
 11
-13.58710104421834
 21
-57.99695104526727
 31
0.0
  0
LINE
  5
2AC
330
D4
100
AcDbEntity
  8
0
100
AcDbLine
 10
9.812899527986246
 20
-5.58094877170771
 30
0.0
 11
9.812899527986246
 21
-57.99695104526727
 31
0.0
  0
LINE
  5
2AD
330
D4
100
AcDbEntity
  8
0
100
AcDbLine
 10
33.21289914651652
 20
-5.58094877170771
 30
0.0
 11
33.21289914651652
 21
-57.99695104526727
 31
0.0
  0
LINE
  5
2AE
330
D4
100
AcDbEntity
  8
0
100
AcDbLine
 10
80.01289456887981
 20
-5.58094877170771
 30
0.0
 11
80.01289456887981
 21
-50.50895208286493
 31
0.0
  0
LINE
  5
2AF
330
D4
100
AcDbEntity
  8
0
100
AcDbLine
 10
-60.38709932760458
 20
-20.55694860386103
 30
0.0
 11
80.01289456887981
 21
-20.55694860386103
 31
0.0
  0
LINE
  5
2B0
330
D4
100
AcDbEntity
  8
0
100
AcDbLine
 10
-60.38709932760458
 20
-28.04494756626338
 30
0.0
 11
80.01289456887981
 21
-28.04494756626338
 31
0.0
  0
LINE
  5
2B1
330
D4
100
AcDbEntity
  8
0
100
AcDbLine
 10
-60.38709932760458
 20
-35.53295034336299
 30
0.0
 11
80.01289456887981
 21
-35.53295034336299
 31
0.0
  0
LINE
  5
2B2
330
D4
100
AcDbEntity
  8
0
100
AcDbLine
 10
-60.38709932760458
 20
-43.02094930576532
 30
0.0
 11
80.01289456887981
 21
-43.02094930576532
 31
0.0
  0
LINE
  5
2B3
330
D4
100
AcDbEntity
  8
0
100
AcDbLine
 10
-60.38709932760458
 20
-50.50895208286493
 30
0.0
 11
80.01289456887981
 21
-50.50895208286493
 31
0.0
  0
LINE
  5
2B5
330
D4
100
AcDbEntity
  8
0
100
AcDbLine
 10
-60.38709932760458
 20
-13.06894964145868
 30
0.0
 11
-60.38709932760458
 21
-57.99695104526727
 31
0.0
  0
LINE
  5
2B9
330
D4
100
AcDbEntity
  8
0
100
AcDbLine
 10
80.01289456887981
 20
-13.06894964145868
 30
0.0
 11
80.01289456887981
 21
-57.99695104526727
 31
0.0
  0
LINE
  5
2BA
330
D4
100
AcDbEntity
  8
中心線
100
AcDbLine
 10
-70.0829595619964
 20
40.213933048971
 30
0.0
 11
90.35290011817938
 21
40.213933048971
 31
0.0
  0
SPLINE
  5
2BB
330
D4
100
AcDbEntity
  8
外形線
370
    -3
100
AcDbSpline
210
0.0
220
0.0
230
1.0
 70
  1064
 71
     3
 72
    17
 73
    13
 74
    11
 42
0.000000001
 43
0.0000000001
 44
0.0000000001
 12
-0.1816408976568605
 22
-0.9833649293616332
 32
0.0
 13
0.008474160179044
 23
-0.9999640936599973
 33
0.0
 40
0.0
 40
0.0
 40
0.0
 40
0.0
 40
3.677768270158265
 40
7.354903342072879
 40
11.03110166302314
 40
14.70843533341871
 40
18.38668940006261
 40
22.0649885518216
 40
25.74252721355552
 40
29.42047839757682
 40
33.0986870264983
 40
36.77725180446304
 40
36.77725180446304
 40
36.77725180446304
 40
36.77725180446304
 10
27.76460322792059
 20
58.60186105800421
 30
0.0
 10
27.5419255179321
 20
57.39633161293999
 30
0.0
 10
27.15750883583474
 20
54.97339574838
 30
0.0
 10
26.85332100025295
 20
51.30374803335424
 30
0.0
 10
26.9567858438371
 20
47.61908229428449
 30
0.0
 10
27.48200993312103
 20
43.97468885253154
 30
0.0
 10
28.19543356609046
 20
40.36680687286825
 30
0.0
 10
28.92626580178378
 20
36.7616609545849
 30
0.0
 10
29.46003470582409
 20
33.11977775500596
 30
0.0
 10
29.74450300224347
 20
29.45084049110952
 30
0.0
 10
29.87487735222851
 20
25.77440161798306
 30
0.0
 10
29.90161412189382
 20
23.32217786248284
 30
0.0
 10
29.91200503761297
 20
22.0960336310938
 30
0.0
 11
27.76460322792059
 21
58.60186105800421
 31
0.0
 11
27.20288399584365
 21
54.96724265254569
 31
0.0
 11
26.92124848670713
 21
51.30090881925966
 31
0.0
 11
27.02703547056596
 21
47.62623288674484
 31
0.0
 11
27.51330675315052
 21
43.98119198667821
 31
0.0
 11
28.19833003410677
 21
40.36728882204717
 31
0.0
 11
28.89346893224486
 21
36.75527185612269
 31
0.0
 11
29.41847178460918
 21
33.11540062027423
 31
0.0
 11
29.71881255777435
 21
29.44973283226912
 31
0.0
 11
29.85982887756146
 21
25.77422836139358
 31
0.0
 11
29.91200503761297
 21
22.0960336310938
 31
0.0
  0
SPLINE
  5
2BC
330
D4
100
AcDbEntity
  8
外形線
370
    -3
100
AcDbSpline
210
0.0
220
0.0
230
1.0
 70
  1064
 71
     3
 72
    17
 73
    13
 74
    11
 42
0.000000001
 43
0.0000000001
 44
0.0000000001
 12
-0.1816408976568605
 22
-0.9833649293616332
 32
0.0
 13
0.008474160179044
 23
-0.9999640936599973
 33
0.0
 40
0.0
 40
0.0
 40
0.0
 40
0.0
 40
3.649257953269649
 40
7.297793248659599
 40
10.9450763299442
 40
14.59379696452538
 40
18.2434187275154
 40
21.89296899323584
 40
25.54210030039882
 40
29.1915148282608
 40
32.84111982117638
 40
36.49046913747311
 40
36.49046913747311
 40
36.49046913747311
 40
36.49046913747311
 10
29.23965062196304
 20
58.32939971151891
 30
0.0
 10
29.01869912515859
 20
57.13321561503911
 30
0.0
 10
28.63825879777787
 20
54.72897075389226
 30
0.0
 10
28.34422294762406
 20
51.08660506716946
 30
0.0
 10
28.48142974067567
 20
47.43117960943648
 30
0.0
 10
29.03512881476913
 20
43.82057749399087
 30
0.0
 10
29.75368063019899
 20
40.24317583973032
 30
0.0
 10
30.46756187138427
 20
36.66352677259067
 30
0.0
 10
30.97371450179825
 20
33.04664253908289
 30
0.0
 10
31.24835514429162
 20
29.40585839040195
 30
0.0
 10
31.37507810382495
 20
25.75808653098127
 30
0.0
 10
31.40164278788445
 20
23.32515096520217
 30
0.0
 10
31.41195117810297
 20
22.10874487136237
 30
0.0
 11
29.23965062196304
 21
58.32939971151891
 31
0.0
 11
28.68432713712445
 21
54.72264224300394
 31
0.0
 11
28.41608001819734
 21
51.08398132380667
 31
0.0
 11
28.55078720935395
 21
47.43918670028182
 31
0.0
 11
29.06253184201917
 21
43.82653120879681
 31
0.0
 11
29.75290235360704
 21
40.24280025215117
 31
0.0
 11
30.43296626513161
 21
36.6571719643525
 31
0.0
 11
30.93511981978808
 21
33.0427562294843
 31
0.0
 11
31.22369743310071
 21
29.40476923703025
 31
0.0
 11
31.3606006057002
 21
25.75773288875422
 31
0.0
 11
31.41195117810297
 21
22.10874487136237
 31
0.0
  0
MTEXT
  5
2BD
330
D4
100
AcDbEntity
  8
0
100
AcDbMText
 10
-48.68710237936239
 20
-54.34282201694696
 30
0.0
 40
2.5
 41
60.0
 46
0.0
 71
     5
 72
     1
  1
{\W0.847398;ＴＤＺ２００}
 73
     1
 44
1.0
  0
MTEXT
  5
2BE
330
D4
100
AcDbEntity
  8
0
100
AcDbMText
 10
-25.28710085348348
 20
-54.34282201694696
 30
0.0
 40
2.5
 41
30.0
 46
0.0
 71
     5
 72
     1
  1
\W0.855342;２２１
 73
     1
 44
1.0
  0
MTEXT
  5
2BF
330
D4
100
AcDbEntity
  8
0
100
AcDbMText
 10
-1.887101234953206
 20
-54.34282201694696
 30
0.0
 40
2.5
 41
30.0
 46
0.0
 71
     5
 72
     1
  1
{\W0.855342;２００}
 73
     1
 44
1.0
  0
MTEXT
  5
2C0
330
D4
100
AcDbEntity
  8
0
100
AcDbMText
 10
44.87646812886543
 20
-54.34282201694696
 30
0.0
 40
2.5
 41
20.0
 46
0.0
 71
     5
 72
     1
  1
{\W0.864346;３１}
 73
     1
 44
1.0
  0
MTEXT
  5
2C1
330
D4
100
AcDbEntity
  8
0
100
AcDbMText
 10
22.34131517032404
 20
-54.34282201694696
 30
0.0
 40
2.5
 41
50.0
 46
0.0
 71
     5
 72
     1
  1
\W0.848911;１０
 73
     1
 44
1.0
  0
MTEXT
  5
2C2
330
D4
100
AcDbEntity
  8
0
100
AcDbMText
 10
-48.68710237936239
 20
-9.414826335184272
 30
0.0
 40
3.200000047683716
 41
25.60000038146973
 46
0.0
 71
     5
 72
     1
  1
\W0.864346;規格
 73
     1
 44
1.0
  0
MTEXT
  5
2C3
330
D4
100
AcDbEntity
  8
0
100
AcDbMText
 10
-25.28710085348348
 20
-9.414826335184272
 30
0.0
 40
3.200000047683716
 41
57.60000085830689
 46
0.0
 71
     5
 72
     1
  1
\W0.864346;外径(Ｄ)
 73
     1
 44
1.0
  0
MTEXT
  5
2C4
330
D4
100
AcDbEntity
  8
0
100
AcDbMText
 10
-1.887101234953206
 20
-9.414826335184272
 30
0.0
 40
3.200000047683716
 41
57.60000085830689
 46
0.0
 71
     5
 72
     1
  1
\W0.864346;内径(ｄ)
 73
     1
 44
1.0
  0
MTEXT
  5
2C5
330
D4
100
AcDbEntity
  8
0
100
AcDbMText
 10
44.87646812886543
 20
-9.414826335184272
 30
0.0
 40
3.200000047683716
 41
12.80000019073486
 46
0.0
 71
     5
 72
     1
  1
\W0.900361;ピッチ
 73
     1
 44
1.0
  0
MTEXT
  5
2C6
330
D4
100
AcDbEntity
  8
0
100
AcDbMText
 10
22.34131517032404
 20
-11.15568444800294
 30
0.0
 40
3.200000047683716
 41
12.80000019073486
 46
0.0
 71
     5
 72
     1
  1
\W0.900361;長さ(Ｌ)
 73
     1
 44
1.0
  0
MTEXT
  5
2C7
330
D4
100
AcDbEntity
  8
0
100
AcDbMText
 10
-48.68710237936239
 20
-24.3908261673376
 30
0.0
 40
2.5
 41
50.0
 46
0.0
 71
     5
 72
     1
  1
{\W0.848911;ＴＤＺ５０}
 73
     1
 44
1.0
  0
MTEXT
  5
2C8
330
D4
100
AcDbEntity
  8
0
100
AcDbMText
 10
-25.28710085348348
 20
-24.3908261673376
 30
0.0
 40
2.5
 41
20.0
 46
0.0
 71
     5
 72
     1
  1
\W0.864346;６１
 73
     1
 44
1.0
  0
MTEXT
  5
2C9
330
D4
100
AcDbEntity
  8
0
100
AcDbMText
 10
-1.887101234953206
 20
-24.3908261673376
 30
0.0
 40
2.5
 41
20.0
 46
0.0
 71
     5
 72
     1
  1
{\W0.864346;５０}
 73
     1
 44
1.0
  0
MTEXT
  5
2CA
330
D4
100
AcDbEntity
  8
0
100
AcDbMText
 10
44.87646812886543
 20
-24.3908261673376
 30
0.0
 40
2.5
 41
20.0
 46
0.0
 71
     5
 72
     1
  1
{\W0.864346;２６}
 73
     1
 44
1.0
  0
MTEXT
  5
2CB
330
D4
100
AcDbEntity
  8
0
100
AcDbMText
 10
22.34131517032404
 20
-24.3908261673376
 30
0.0
 40
2.5
 41
50.0
 46
0.0
 71
     5
 72
     1
  1
\W0.848911;２０
 73
     1
 44
1.0
  0
MTEXT
  5
2CC
330
D4
100
AcDbEntity
  8
0
100
AcDbMText
 10
-48.68710237936239
 20
-31.87882512973994
 30
0.0
 40
2.5
 41
50.0
 46
0.0
 71
     5
 72
     1
  1
{\W0.848911;ＴＤＺ７５}
 73
     1
 44
1.0
  0
MTEXT
  5
2CD
330
D4
100
AcDbEntity
  8
0
100
AcDbMText
 10
-25.28710085348348
 20
-31.87882512973994
 30
0.0
 40
2.5
 41
20.0
 46
0.0
 71
     5
 72
     1
  1
\W0.864346;９０
 73
     1
 44
1.0
  0
MTEXT
  5
2CE
330
D4
100
AcDbEntity
  8
0
100
AcDbMText
 10
-1.887101234953206
 20
-31.87882512973994
 30
0.0
 40
2.5
 41
20.0
 46
0.0
 71
     5
 72
     1
  1
{\W0.864346;７５}
 73
     1
 44
1.0
  0
MTEXT
  5
2CF
330
D4
100
AcDbEntity
  8
0
100
AcDbMText
 10
44.87646812886543
 20
-31.87882512973994
 30
0.0
 40
2.5
 41
20.0
 46
0.0
 71
     5
 72
     1
  1
{\W0.864346;３１}
 73
     1
 44
1.0
  0
MTEXT
  5
2D0
330
D4
100
AcDbEntity
  8
0
100
AcDbMText
 10
22.34131517032404
 20
-31.87882512973994
 30
0.0
 40
2.5
 41
50.0
 46
0.0
 71
     5
 72
     1
  1
\W0.848911;２０
 73
     1
 44
1.0
  0
MTEXT
  5
2D1
330
D4
100
AcDbEntity
  8
0
100
AcDbMText
 10
-48.68710237936239
 20
-39.36682409214228
 30
0.0
 40
2.5
 41
60.0
 46
0.0
 71
     5
 72
     1
  1
{\W0.847398;ＴＤＺ１００}
 73
     1
 44
1.0
  0
MTEXT
  5
2D2
330
D4
100
AcDbEntity
  8
0
100
AcDbMText
 10
-25.28710085348348
 20
-39.36682409214228
 30
0.0
 40
2.5
 41
30.0
 46
0.0
 71
     5
 72
     1
  1
\W0.855342;１１５
 73
     1
 44
1.0
  0
MTEXT
  5
2D3
330
D4
100
AcDbEntity
  8
0
100
AcDbMText
 10
-1.887101234953206
 20
-39.36682409214228
 30
0.0
 40
2.5
 41
30.0
 46
0.0
 71
     5
 72
     1
  1
{\W0.855342;１００}
 73
     1
 44
1.0
  0
MTEXT
  5
2D4
330
D4
100
AcDbEntity
  8
0
100
AcDbMText
 10
44.87646812886543
 20
-39.36682409214228
 30
0.0
 40
2.5
 41
20.0
 46
0.0
 71
     5
 72
     1
  1
{\W0.864346;３１}
 73
     1
 44
1.0
  0
MTEXT
  5
2D5
330
D4
100
AcDbEntity
  8
0
100
AcDbMText
 10
22.34131517032404
 20
-39.36682409214228
 30
0.0
 40
2.5
 41
50.0
 46
0.0
 71
     5
 72
     1
  1
\W0.848911;２０
 73
     1
 44
1.0
  0
MTEXT
  5
2D6
330
D4
100
AcDbEntity
  8
0
100
AcDbMText
 10
-48.68710237936239
 20
-46.85482686924188
 30
0.0
 40
2.5
 41
60.0
 46
0.0
 71
     5
 72
     1
  1
{\W0.847398;ＴＤＺ１５０}
 73
     1
 44
1.0
  0
MTEXT
  5
2D7
330
D4
100
AcDbEntity
  8
0
100
AcDbMText
 10
-25.28710085348348
 20
-46.85482686924188
 30
0.0
 40
2.5
 41
30.0
 46
0.0
 71
     5
 72
     1
  1
\W0.855342;１６６
 73
     1
 44
1.0
  0
MTEXT
  5
2D8
330
D4
100
AcDbEntity
  8
0
100
AcDbMText
 10
-1.887101234953206
 20
-46.85482686924188
 30
0.0
 40
2.5
 41
30.0
 46
0.0
 71
     5
 72
     1
  1
{\W0.855342;１５０}
 73
     1
 44
1.0
  0
MTEXT
  5
2D9
330
D4
100
AcDbEntity
  8
0
100
AcDbMText
 10
44.87646812886543
 20
-46.85482686924188
 30
0.0
 40
2.5
 41
20.0
 46
0.0
 71
     5
 72
     1
  1
{\W0.864346;３１}
 73
     1
 44
1.0
  0
MTEXT
  5
2DA
330
D4
100
AcDbEntity
  8
0
100
AcDbMText
 10
22.34131517032404
 20
-46.85482686924188
 30
0.0
 40
2.5
 41
50.0
 46
0.0
 71
     5
 72
     1
  1
\W0.848911;２０
 73
     1
 44
1.0
  0
MTEXT
  5
2DB
330
D4
100
AcDbEntity
  8
0
100
AcDbMText
 10
-25.28710085348348
 20
-16.90282720493526
 30
0.0
 40
3.200000047683716
 41
51.20000076293945
 46
0.0
 71
     5
 72
     1
  1
\W0.85125;ｍｍ
 73
     1
 44
1.0
  0
MTEXT
  5
2DC
330
D4
100
AcDbEntity
  8
0
100
AcDbMText
 10
-1.887101234953206
 20
-16.90282720493526
 30
0.0
 40
3.200000047683716
 41
51.20000076293945
 46
0.0
 71
     5
 72
     1
  1
\W0.85125;ｍｍ
 73
     1
 44
1.0
  0
MTEXT
  5
2DD
330
D4
100
AcDbEntity
  8
0
100
AcDbMText
 10
44.87646812886543
 20
-16.90282720493526
 30
0.0
 40
3.200000047683716
 41
51.20000076293945
 46
0.0
 71
     5
 72
     1
  1
\W0.85125;ｍｍ
 73
     1
 44
1.0
  0
MTEXT
  5
2DE
330
D4
100
AcDbEntity
  8
0
100
AcDbMText
 10
22.34131517032404
 20
-16.90282720493526
 30
0.0
 40
3.200000047683716
 41
38.4000005722046
 46
0.0
 71
     5
 72
     1
  1
\W0.855342;ｍ
 73
     1
 44
1.0
  0
MTEXT
  5
2DF
330
D4
100
AcDbEntity
  8
0
  6
Continuous
 62
     7
100
AcDbMText
 10
-4.099675178527832
 20
-90.75406646728515
 30
0.0
 40
3.200000047683716
 41
166.4000024795532
 46
0.0
 71
     5
 72
     1
  1
{\W0.8435;トヨト゛レンＺ製品図}
 73
     1
 44
1.0
1001
ACAD
1000
ACAD_MTEXT_DEFINED_HEIGHT_BEGIN
1070
    46
1040
0.0
1000
ACAD_MTEXT_DEFINED_HEIGHT_END
  0
DIMENSION
  5
2E1
330
D4
100
AcDbEntity
  8
寸法線
100
AcDbDimension
280
     0
  2
*D5
 10
-81.02817196434015
 20
56.92393213344367
 30
0.0
 11
-83.12817198818203
 21
40.21393233371525
 31
0.0
 70
    32
  1
D
 71
     5
 42
33.41999959945679
 73
     0
 74
     0
 75
     0
  3
DIMSTYLE
100
AcDbAlignedDimension
 13
-59.12715664451593
 23
23.50393253398687
 33
0.0
 14
-64.23516598289484
 24
56.92393213344367
 34
0.0
 50
90.0
100
AcDbRotatedDimension
1001
ACAD
1000
DSTYLE
1002
{
1070
    77
1070
     1
1070
   172
1070
     1
1070
   147
1040
0.5
1002
}
  0
DIMENSION
  5
2E2
330
D4
100
AcDbEntity
  8
寸法線
100
AcDbDimension
280
     0
  2
*D6
 10
-73.51627865379326
 20
25.06393247676641
 30
0.0
 11
-75.61627867763515
 21
40.21393161845952
 31
0.0
 70
    32
  1
d
 71
     5
 42
30.29999828338624
 73
     0
 74
     0
 75
     0
  3
DIMSTYLE
100
AcDbAlignedDimension
 13
-65.28352871482844
 23
55.36393076015265
 33
0.0
 14
-65.28352871482844
 24
25.06393247676641
 34
0.0
 50
90.0
100
AcDbRotatedDimension
1001
ACAD
1000
DSTYLE
1002
{
1070
    77
1070
     1
1070
   172
1070
     1
1070
   147
1040
0.5
1002
}
  0
DIMENSION
  5
2E3
330
D4
100
AcDbEntity
  8
寸法線
100
AcDbDimension
280
     0
  2
*D7
 10
85.77257785255438
 20
14.18646111915495
 30
0.0
 11
10.24452456886297
 21
16.78646114299681
 31
0.0
 70
    32
  1
L
 71
     5
 42
151.0561065673828
 73
     0
 74
     0
 75
     0
  3
DIMSTYLE
100
AcDbAlignedDimension
 13
-65.28352871482844
 23
25.06393247676641
 33
0.0
 14
85.77257785255438
 24
25.06393247676641
 34
0.0
100
AcDbRotatedDimension
1001
ACAD
1000
DSTYLE
1002
{
1070
    77
1070
     1
1070
   172
1070
     1
1070
   147
1040
1.0
1002
}
  0
DIMENSION
  5
2E4
330
D4
100
AcDbEntity
  8
寸法線
100
AcDbDimension
280
     0
  2
*D8
 10
-43.88383236473077
 20
65.35583827377728
 30
0.0
 11
-36.87049895669296
 21
67.95583829761915
 31
0.0
 70
    32
  1
ピッチ
 71
     5
 42
9.40800094604492
 73
     0
 74
     0
 75
     0
  3
DIMSTYLE
100
AcDbAlignedDimension
 13
-53.2918333107757
 23
55.8139315230921
 33
0.0
 14
-43.88383236473077
 24
55.8139315230921
 34
0.0
100
AcDbRotatedDimension
1001
ACAD
1000
DSTYLE
1002
{
1070
    77
1070
     1
1070
   172
1070
     1
1070
   147
1040
1.0
1002
}
  0
LINE
  5
2ED
330
D4
100
AcDbEntity
  8
外形線
  6
Continuous
100
AcDbLine
 10
-50.57500076293945
 20
-87.0
 30
0.0
 11
-50.57500076293945
 21
-94.50000000000001
 31
0.0
  0
MTEXT
  5
353
330
D4
100
AcDbEntity
  8
VIEW0002
100
AcDbMText
 10
-47.79300565799267
 20
-68.75312883280384
 30
0.0
 40
3.200000047683716
 41
0.0
 46
0.0
 71
     7
 72
     1
  1
{\W0.833333;*形状は規格毎に異なります。}
 73
     1
 44
1.0
  0
MTEXT
  5
355
330
D4
100
AcDbEntity
  8
VIEW0002
100
AcDbMText
 10
-47.8877953413639
 20
-73.78755149986421
 30
0.0
 40
3.200000047683716
 41
0.0
 46
0.0
 71
     7
 72
     1
  1
{\W0.8333;*寸法、仕様等は製品改良の為、予告無く変更する場合があります。（Ｈ２４．６）}
 73
     1
 44
1.0
1001
ACAD
1000
ACAD_MTEXT_DEFINED_HEIGHT_BEGIN
1070
    46
1040
0.0
1000
ACAD_MTEXT_DEFINED_HEIGHT_END
  0
LINE
  5
369
330
D4
100
AcDbEntity
  8
外形線
  6
Continuous
100
AcDbLine
 10
-50.57500076293945
 20
-87.0
 30
0.0
 11
138.5
 21
-87.0
 31
0.0
  0
LINE
  5
36C
330
D4
100
AcDbEntity
  8
外形線
  6
Continuous
100
AcDbLine
 10
52.0
 20
-87.0
 30
0.0
 11
52.0
 21
-94.50000000000001
 31
0.0
  0
LINE
  5
36D
330
D4
100
AcDbEntity
  8
外形線
  6
Continuous
100
AcDbLine
 10
-138.0
 20
-94.50000000000001
 30
0.0
 11
138.5
 21
-94.50000000000001
 31
0.0
  0
LINE
  5
36E
330
D4
100
AcDbEntity
  8
外形線
  6
Continuous
100
AcDbLine
 10
138.5
 20
95.0
 30
0.0
 11
138.5
 21
-94.50000000000001
 31
0.0
  0
LINE
  5
36F
330
D4
100
AcDbEntity
  8
外形線
  6
Continuous
100
AcDbLine
 10
-138.0
 20
95.0
 30
0.0
 11
138.5
 21
95.0
 31
0.0
  0
LINE
  5
370
330
D4
100
AcDbEntity
  8
外形線
  6
Continuous
100
AcDbLine
 10
-138.0
 20
95.0
 30
0.0
 11
-138.0
 21
-94.50000000000001
 31
0.0
  0
LINE
  5
124A
330
D4
100
AcDbEntity
  8
0
100
AcDbLine
 10
56.61290067239541
 20
-5.58094877170771
 30
0.0
 11
56.61290067239541
 21
-57.99695104526727
 31
0.0
  0
MTEXT
  5
124C
330
D4
100
AcDbEntity
  8
0
100
AcDbMText
 10
68.27646965474433
 20
-54.34282201694696
 30
0.0
 40
2.5
 41
20.0
 46
0.0
 71
     5
 72
     1
  1
\W0.864346;１．５
 73
     1
 44
1.0
  0
MTEXT
  5
124D
330
D4
100
AcDbEntity
  8
0
100
AcDbMText
 10
68.27646965474433
 20
-9.414826335184272
 30
0.0
 40
3.200000047683716
 41
25.46695697469796
 46
0.0
 71
     5
 72
     1
  1
\W0.900361;参考質量
 73
     1
 44
1.0
  0
MTEXT
  5
124E
330
D4
100
AcDbEntity
  8
0
100
AcDbMText
 10
68.27646965474433
 20
-24.3908261673376
 30
0.0
 40
2.5
 41
20.0
 46
0.0
 71
     5
 72
     1
  1
\W0.864346;０．２
 73
     1
 44
1.0
  0
MTEXT
  5
124F
330
D4
100
AcDbEntity
  8
0
100
AcDbMText
 10
68.27646965474433
 20
-31.87882512973994
 30
0.0
 40
2.5
 41
20.0
 46
0.0
 71
     5
 72
     1
  1
\W0.864346;０．３
 73
     1
 44
1.0
  0
MTEXT
  5
1250
330
D4
100
AcDbEntity
  8
0
100
AcDbMText
 10
68.27646965474433
 20
-39.36682409214228
 30
0.0
 40
2.5
 41
20.0
 46
0.0
 71
     5
 72
     1
  1
\W0.864346;０．５
 73
     1
 44
1.0
  0
MTEXT
  5
1251
330
D4
100
AcDbEntity
  8
0
100
AcDbMText
 10
68.27646965474433
 20
-46.85482686924188
 30
0.0
 40
2.5
 41
20.0
 46
0.0
 71
     5
 72
     1
  1
\W0.864346;０．８
 73
     1
 44
1.0
  0
MTEXT
  5
1252
330
D4
100
AcDbEntity
  8
0
100
AcDbMText
 10
68.27646965474433
 20
-16.90282720493526
 30
0.0
 40
3.200000047683716
 41
51.20000076293945
 46
0.0
 71
     5
 72
     1
  1
\W0.85125;ｋｇ／ｍ
 73
     1
 44
1.0
  0
MTEXT
  5
133C
330
D4
100
AcDbEntity
  8
VIEW0001
 62
     7
100
AcDbMText
 10
59.89285540580749
 20
-93.0
 30
0.0
 40
4.5
 41
0.0
 46
0.0
 71
     7
 72
     1
  1
{\W1.3889;　デンカ株式会社}
 73
     1
 44
1.0
  0
ENDSEC
  0
SECTION
  2
OBJECTS
  0
DICTIONARY
  5
2EF
330
0
100
AcDbDictionary
281
     1
  3
ACAD_CIP_PREVIOUS_PRODUCT_INFO
350
1331
  3
ACAD_COLOR
350
2F8
  3
ACAD_DETAILVIEWSTYLE
350
132A
  3
ACAD_GROUP
350
2F0
  3
ACAD_LAYOUT
350
2FB
  3
ACAD_MATERIAL
350
2F7
  3
ACAD_MLEADERSTYLE
350
1326
  3
ACAD_MLINESTYLE
350
2F1
  3
ACAD_PLOTSETTINGS
350
2FC
  3
ACAD_PLOTSTYLENAME
350
2F5
  3
ACAD_SCALELIST
350
1314
  3
ACAD_SECTIONVIEWSTYLE
350
1328
  3
ACAD_TABLESTYLE
350
2F9
  3
ACAD_VISUALSTYLE
350
12FB
  3
ACDB_RECOMPOSE_DATA
350
139A
  3
AcDbVariableDictionary
350
306
  0
DICTIONARY
  5
133D
330
C9
100
AcDbDictionary
280
     1
281
     1
  3
ADSK_XREC_LAYER_RECONCILED
360
133E
  0
DICTIONARY
  5
133F
330
CA
100
AcDbDictionary
280
     1
281
     1
  3
ADSK_XREC_LAYER_RECONCILED
360
1340
  0
DICTIONARY
  5
1341
330
346
100
AcDbDictionary
280
     1
281
     1
  3
ADSK_XREC_LAYER_RECONCILED
360
1342
  0
DICTIONARY
  5
1343
330
347
100
AcDbDictionary
280
     1
281
     1
  3
ADSK_XREC_LAYER_RECONCILED
360
1344
  0
DICTIONARY
  5
1345
330
376
100
AcDbDictionary
280
     1
281
     1
  3
ADSK_XREC_LAYER_RECONCILED
360
1346
  0
DICTIONARY
  5
1347
330
377
100
AcDbDictionary
280
     1
281
     1
  3
ADSK_XREC_LAYER_RECONCILED
360
1348
  0
DICTIONARY
  5
1349
330
378
100
AcDbDictionary
280
     1
281
     1
  3
ADSK_XREC_LAYER_RECONCILED
360
134A
  0
DICTIONARY
  5
134B
330
379
100
AcDbDictionary
280
     1
281
     1
  3
ADSK_XREC_LAYER_RECONCILED
360
134C
  0
DICTIONARY
  5
134D
330
37A
100
AcDbDictionary
280
     1
281
     1
  3
ADSK_XREC_LAYER_RECONCILED
360
134E
  0
DICTIONARY
  5
134F
330
37B
100
AcDbDictionary
280
     1
281
     1
  3
ADSK_XREC_LAYER_RECONCILED
360
1350
  0
DICTIONARY
  5
1333
330
1332
100
AcDbDictionary
280
     1
281
     1
  3
ADSK_XREC_LAYER_RECONCILED
360
1351
  0
DICTIONARY
  5
36A
330
D4
100
AcDbDictionary
280
     1
281
     1
  3
ACAD_SORTENTS
360
36B
  0
XRECORD
  5
1331
102
{ACAD_REACTORS
330
2EF
102
}
330
2EF
100
AcDbXrecord
280
     1
300
ACDLT
300
2015
300
INVLTS_F_S
  0
DICTIONARY
  5
2F8
102
{ACAD_REACTORS
330
2EF
102
}
330
2EF
100
AcDbDictionary
281
     1
  0
DICTIONARY
  5
132A
102
{ACAD_REACTORS
330
2EF
102
}
330
2EF
100
AcDbDictionary
281
     1
  3
Metric50
350
132B
  0
DICTIONARY
  5
2F0
102
{ACAD_REACTORS
330
2EF
102
}
330
2EF
100
AcDbDictionary
281
     1
  0
DICTIONARY
  5
2FB
102
{ACAD_REACTORS
330
2EF
102
}
330
2EF
100
AcDbDictionary
281
     1
  3
Model
350
2FD
  3
レイアウト1
350
2FE
  0
DICTIONARY
  5
2F7
102
{ACAD_REACTORS
330
2EF
102
}
330
2EF
100
AcDbDictionary
281
     1
  3
ByBlock
350
12EB
  3
ByLayer
350
12E3
  3
Global
350
12F3
  0
DICTIONARY
  5
1326
102
{ACAD_REACTORS
330
2EF
102
}
330
2EF
100
AcDbDictionary
281
     1
  3
Standard
350
1327
  0
DICTIONARY
  5
2F1
102
{ACAD_REACTORS
330
2EF
102
}
330
2EF
100
AcDbDictionary
281
     1
  3
STANDARD
350
2F2
  0
DICTIONARY
  5
2FC
102
{ACAD_REACTORS
330
2EF
102
}
330
2EF
100
AcDbDictionary
281
     1
  3
111
350
1273
  0
ACDBDICTIONARYWDFLT
  5
2F5
102
{ACAD_REACTORS
330
2EF
102
}
330
2EF
100
AcDbDictionary
281
     1
  3
Normal
350
2F6
100
AcDbDictionaryWithDefault
340
2F6
  0
DICTIONARY
  5
1314
102
{ACAD_REACTORS
330
2EF
102
}
330
2EF
100
AcDbDictionary
281
     1
  3
A0
350
1315
  3
A1
350
1316
  3
A2
350
1317
  3
A3
350
1318
  3
A4
350
1319
  3
A5
350
131A
  3
A6
350
131B
  3
A7
350
131C
  3
A8
350
131D
  3
A9
350
131E
  3
B0
350
131F
  3
B1
350
1320
  3
B2
350
1321
  3
B3
350
1322
  3
B4
350
1323
  3
B5
350
1324
  3
B6
350
1325
  0
DICTIONARY
  5
1328
102
{ACAD_REACTORS
330
2EF
102
}
330
2EF
100
AcDbDictionary
281
     1
  3
Metric50
350
1329
  0
DICTIONARY
  5
2F9
102
{ACAD_REACTORS
330
2EF
102
}
330
2EF
100
AcDbDictionary
281
     1
  3
Standard
350
2FA
  0
DICTIONARY
  5
12FB
102
{ACAD_REACTORS
330
2EF
102
}
330
2EF
100
AcDbDictionary
281
     1
  3
2dWireframe
350
1301
  3
Basic
350
1300
  3
Brighten
350
1307
  3
ColorChange
350
130B
  3
Conceptual
350
1304
  3
Dim
350
1306
  3
EdgeColorOff
350
1313
  3
Facepattern
350
130A
  3
Flat
350
12FC
  3
FlatWithEdges
350
12FD
  3
Gouraud
350
12FE
  3
GouraudWithEdges
350
12FF
  3
Hidden
350
1303
  3
JitterOff
350
1311
  3
Linepattern
350
1309
  3
OverhangOff
350
1312
  3
Realistic
350
1305
  3
Shaded
350
1310
  3
Shaded with edges
350
130F
  3
Shades of Gray
350
130C
  3
Sketchy
350
130D
  3
Thicken
350
1308
  3
Wireframe
350
1302
  3
X-Ray
350
130E
  0
XRECORD
  5
139A
102
{ACAD_REACTORS
330
2EF
102
}
330
2EF
100
AcDbXrecord
280
     1
 90
        1
330
2FA
  0
DICTIONARY
  5
306
102
{ACAD_REACTORS
330
2EF
102
}
330
2EF
100
AcDbDictionary
281
     1
  3
CANNOSCALE
350
1394
  3
CMLEADERSTYLE
350
1390
  3
CTABLESTYLE
350
307
  3
CVIEWDETAILSTYLE
350
1391
  3
CVIEWSECTIONSTYLE
350
1392
  3
DIMASSOC
350
308
  3
LAYEREVAL
350
1396
  3
LAYERNOTIFY
350
1397
  3
LIGHTINGUNITS
350
1395
  3
MSLTSCALE
350
1393
  3
PROJECTNAME
350
309
  0
XRECORD
  5
133E
102
{ACAD_REACTORS
330
133D
102
}
330
133D
100
AcDbXrecord
280
     1
290
     1
  0
XRECORD
  5
1340
102
{ACAD_REACTORS
330
133F
102
}
330
133F
100
AcDbXrecord
280
     1
290
     1
  0
XRECORD
  5
1342
102
{ACAD_REACTORS
330
1341
102
}
330
1341
100
AcDbXrecord
280
     1
290
     1
  0
XRECORD
  5
1344
102
{ACAD_REACTORS
330
1343
102
}
330
1343
100
AcDbXrecord
280
     1
290
     1
  0
XRECORD
  5
1346
102
{ACAD_REACTORS
330
1345
102
}
330
1345
100
AcDbXrecord
280
     1
290
     1
  0
XRECORD
  5
1348
102
{ACAD_REACTORS
330
1347
102
}
330
1347
100
AcDbXrecord
280
     1
290
     1
  0
XRECORD
  5
134A
102
{ACAD_REACTORS
330
1349
102
}
330
1349
100
AcDbXrecord
280
     1
290
     1
  0
XRECORD
  5
134C
102
{ACAD_REACTORS
330
134B
102
}
330
134B
100
AcDbXrecord
280
     1
290
     1
  0
XRECORD
  5
134E
102
{ACAD_REACTORS
330
134D
102
}
330
134D
100
AcDbXrecord
280
     1
290
     1
  0
XRECORD
  5
1350
102
{ACAD_REACTORS
330
134F
102
}
330
134F
100
AcDbXrecord
280
     1
290
     1
  0
XRECORD
  5
1351
102
{ACAD_REACTORS
330
1333
102
}
330
1333
100
AcDbXrecord
280
     1
290
     1
  0
SORTENTSTABLE
  5
36B
102
{ACAD_REACTORS
330
36A
102
}
330
36A
100
AcDbSortentsTable
330
D4
331
169
  5
169
331
12A
  5
12A
331
1A0
  5
1A0
331
294
  5
294
331
25D
  5
25D
331
1E7
  5
1E7
331
1A8
  5
1A8
331
132
  5
132
331
171
  5
171
331
21E
  5
21E
331
2D3
  5
2D3
331
2DB
  5
2DB
331
265
  5
265
331
226
  5
226
331
1B0
  5
1B0
331
13A
  5
13A
331
179
  5
179
331
1EF
  5
1EF
331
29C
  5
29C
331
26D
  5
26D
331
22E
  5
22E
331
1B8
  5
1B8
331
142
  5
142
331
1F7
  5
1F7
331
2A4
  5
2A4
331
2E3
  5
2E3
331
236
  5
236
331
2AC
  5
2AC
331
1C0
  5
1C0
331
14A
  5
14A
331
181
  5
181
331
23E
  5
23E
331
1C8
  5
1C8
331
113
  5
113
331
152
  5
152
331
189
  5
189
331
1FF
  5
1FF
331
275
  5
275
331
2BC
  5
2BC
331
246
  5
246
331
1D0
  5
1D0
331
15A
  5
15A
331
11B
  5
11B
331
191
  5
191
331
207
  5
207
331
27D
  5
27D
331
285
  5
285
331
24E
  5
24E
331
1D8
  5
1D8
331
199
  5
199
331
123
  5
123
331
162
  5
162
331
20F
  5
20F
331
2C4
  5
2C4
331
2CC
  5
2CC
331
256
  5
256
331
217
  5
217
331
28D
  5
28D
331
1A1
  5
1A1
331
16A
  5
16A
331
12B
  5
12B
331
1E0
  5
1E0
331
2D4
  5
2D4
331
295
  5
295
331
21F
  5
21F
331
1A9
  5
1A9
331
172
  5
172
331
133
  5
133
331
1E8
  5
1E8
331
25E
  5
25E
331
2DC
  5
2DC
331
29D
  5
29D
331
1F0
  5
1F0
331
17A
  5
17A
331
13B
  5
13B
331
1B1
  5
1B1
331
227
  5
227
331
266
  5
266
331
2A5
  5
2A5
331
26E
  5
26E
331
143
  5
143
331
1B9
  5
1B9
331
22F
  5
22F
331
2E4
  5
2E4
331
237
  5
237
331
2AD
  5
2AD
331
1C1
  5
1C1
331
1F8
  5
1F8
331
14B
  5
14B
331
182
  5
182
331
2B5
  5
2B5
331
23F
  5
23F
331
276
  5
276
331
1C9
  5
1C9
331
114
  5
114
331
153
  5
153
331
18A
  5
18A
331
200
  5
200
331
2BD
  5
2BD
331
208
  5
208
331
192
  5
192
331
15B
  5
15B
331
11C
  5
11C
331
1D1
  5
1D1
331
247
  5
247
331
27E
  5
27E
331
2C5
  5
2C5
331
286
  5
286
331
210
  5
210
331
1D9
  5
1D9
331
163
  5
163
331
124
  5
124
331
19A
  5
19A
331
24F
  5
24F
331
28E
  5
28E
331
257
  5
257
331
2CD
  5
2CD
331
218
  5
218
331
1E1
  5
1E1
331
16B
  5
16B
331
12C
  5
12C
331
1A2
  5
1A2
331
296
  5
296
331
25F
  5
25F
331
1E9
  5
1E9
331
1AA
  5
1AA
331
134
  5
134
331
173
  5
173
331
220
  5
220
331
2D5
  5
2D5
331
2DD
  5
2DD
331
228
  5
228
331
1B2
  5
1B2
331
17B
  5
17B
331
13C
  5
13C
331
1F1
  5
1F1
331
267
  5
267
331
29E
  5
29E
331
2A6
  5
2A6
331
1BA
  5
1BA
331
144
  5
144
331
230
  5
230
331
26F
  5
26F
331
2AE
  5
2AE
331
353
  5
36E
331
238
  5
238
331
1C2
  5
1C2
331
14C
  5
14C
331
183
  5
183
331
1F9
  5
1F9
331
240
  5
240
331
1CA
  5
1CA
331
154
  5
154
331
18B
  5
18B
331
201
  5
201
331
277
  5
277
331
115
  5
115
331
2BE
  5
2BE
331
248
  5
248
331
1D2
  5
1D2
331
15C
  5
15C
331
11D
  5
11D
331
193
  5
193
331
209
  5
209
331
27F
  5
27F
331
287
  5
287
331
250
  5
250
331
1DA
  5
1DA
331
19B
  5
19B
331
125
  5
125
331
164
  5
164
331
211
  5
211
331
2C6
  5
2C6
331
2CE
  5
2CE
331
28F
  5
28F
331
2ED
  5
36C
331
258
  5
258
331
219
  5
219
331
1A3
  5
1A3
331
16C
  5
16C
331
12D
  5
12D
331
1E2
  5
1E2
331
2D6
  5
2D6
331
297
  5
297
331
221
  5
221
331
1EA
  5
1EA
331
174
  5
174
331
135
  5
135
331
1AB
  5
1AB
331
260
  5
260
331
229
  5
229
331
1F2
  5
1F2
331
17C
  5
17C
331
13D
  5
13D
331
1B3
  5
1B3
331
268
  5
268
331
29F
  5
29F
331
2DE
  5
2DE
331
2A7
  5
2A7
331
145
  5
145
331
1BB
  5
1BB
331
231
  5
231
331
2AF
  5
2AF
331
36C
  5
355
331
239
  5
239
331
1C3
  5
1C3
331
1FA
  5
1FA
331
14D
  5
14D
331
184
  5
184
331
270
  5
270
331
241
  5
241
331
278
  5
278
331
1CB
  5
1CB
331
155
  5
155
331
18C
  5
18C
331
202
  5
202
331
116
  5
116
331
249
  5
249
331
20A
  5
20A
331
194
  5
194
331
15D
  5
15D
331
11E
  5
11E
331
1D3
  5
1D3
331
280
  5
280
331
2BF
  5
2BF
331
2C7
  5
2C7
331
288
  5
288
331
212
  5
212
331
1DB
  5
1DB
331
165
  5
165
331
126
  5
126
331
19C
  5
19C
331
251
  5
251
331
2CF
  5
2CF
331
290
  5
290
331
259
  5
259
331
1E3
  5
1E3
331
16D
  5
16D
331
12E
  5
12E
331
1A4
  5
1A4
331
21A
  5
21A
331
298
  5
298
331
261
  5
261
331
1EB
  5
1EB
331
1AC
  5
1AC
331
136
  5
136
331
175
  5
175
331
222
  5
222
331
2D7
  5
2D7
331
269
  5
269
331
22A
  5
22A
331
1B4
  5
1B4
331
17D
  5
17D
331
13E
  5
13E
331
1F3
  5
1F3
331
2A0
  5
2A0
331
2DF
  5
2DF
331
232
  5
232
331
146
  5
146
331
1BC
  5
1BC
331
2A8
  5
2A8
331
355
  5
370
331
36D
  5
2EE
331
2B0
  5
2B0
331
23A
  5
23A
331
1C4
  5
1C4
331
14E
  5
14E
331
185
  5
185
331
1FB
  5
1FB
331
271
  5
271
331
242
  5
242
331
1CC
  5
1CC
331
156
  5
156
331
18D
  5
18D
331
203
  5
203
331
279
  5
279
331
117
  5
117
331
281
  5
281
331
24A
  5
24A
331
1D4
  5
1D4
331
195
  5
195
331
11F
  5
11F
331
15E
  5
15E
331
20B
  5
20B
331
2C0
  5
2C0
331
2C8
  5
2C8
331
252
  5
252
331
1DC
  5
1DC
331
19D
  5
19D
331
127
  5
127
331
166
  5
166
331
213
  5
213
331
289
  5
289
331
2D0
  5
2D0
331
25A
  5
25A
331
21B
  5
21B
331
1A5
  5
1A5
331
16E
  5
16E
331
12F
  5
12F
331
1E4
  5
1E4
331
291
  5
291
331
2D8
  5
2D8
331
299
  5
299
331
223
  5
223
331
1EC
  5
1EC
331
176
  5
176
331
137
  5
137
331
1AD
  5
1AD
331
262
  5
262
331
2A1
  5
2A1
331
26A
  5
26A
331
1F4
  5
1F4
331
17E
  5
17E
331
13F
  5
13F
331
1B5
  5
1B5
331
22B
  5
22B
331
2A9
  5
2A9
331
147
  5
147
331
1BD
  5
1BD
331
233
  5
233
331
36E
  5
2ED
331
2B1
  5
2B1
331
23B
  5
23B
331
1C5
  5
1C5
331
1FC
  5
1FC
331
14F
  5
14F
331
186
  5
186
331
272
  5
272
331
2B9
  5
2B9
331
243
  5
243
331
27A
  5
27A
331
1CD
  5
1CD
331
118
  5
118
331
157
  5
157
331
18E
  5
18E
331
204
  5
204
331
2C1
  5
2C1
331
24B
  5
24B
331
20C
  5
20C
331
196
  5
196
331
15F
  5
15F
331
120
  5
120
331
1D5
  5
1D5
331
282
  5
282
331
2C9
  5
2C9
331
28A
  5
28A
331
214
  5
214
331
1DD
  5
1DD
331
167
  5
167
331
19E
  5
19E
331
253
  5
253
331
128
  5
128
331
292
  5
292
331
25B
  5
25B
331
1E5
  5
1E5
331
1A6
  5
1A6
331
130
  5
130
331
16F
  5
16F
331
21C
  5
21C
331
2D1
  5
2D1
331
2D9
  5
2D9
331
263
  5
263
331
1ED
  5
1ED
331
1AE
  5
1AE
331
138
  5
138
331
177
  5
177
331
224
  5
224
331
29A
  5
29A
331
2E1
  5
2E1
331
26B
  5
26B
331
22C
  5
22C
331
1B6
  5
1B6
331
17F
  5
17F
331
140
  5
140
331
1F5
  5
1F5
331
2A2
  5
2A2
331
234
  5
234
331
1BE
  5
1BE
331
2AA
  5
2AA
331
36F
  5
2EA
331
148
  5
148
331
2B2
  5
2B2
331
23C
  5
23C
331
1C6
  5
1C6
331
111
  5
111
331
150
  5
150
331
187
  5
187
331
1FD
  5
1FD
331
273
  5
273
331
2BA
  5
2BA
331
244
  5
244
331
1CE
  5
1CE
331
158
  5
158
331
119
  5
119
331
18F
  5
18F
331
205
  5
205
331
27B
  5
27B
331
283
  5
283
331
24C
  5
24C
331
1D6
  5
1D6
331
197
  5
197
331
121
  5
121
331
160
  5
160
331
20D
  5
20D
331
2C2
  5
2C2
331
2CA
  5
2CA
331
254
  5
254
331
215
  5
215
331
19F
  5
19F
331
1DE
  5
1DE
331
28B
  5
28B
331
129
  5
129
331
168
  5
168
331
2D2
  5
2D2
331
25C
  5
25C
331
21D
  5
21D
331
1A7
  5
1A7
331
170
  5
170
331
131
  5
131
331
1E6
  5
1E6
331
293
  5
293
331
2DA
  5
2DA
331
29B
  5
29B
331
225
  5
225
331
1EE
  5
1EE
331
178
  5
178
331
139
  5
139
331
1AF
  5
1AF
331
264
  5
264
331
2E2
  5
2E2
331
2A3
  5
2A3
331
26C
  5
26C
331
1F6
  5
1F6
331
141
  5
141
331
1B7
  5
1B7
331
22D
  5
22D
331
1BF
  5
1BF
331
235
  5
235
331
2AB
  5
2AB
331
149
  5
149
331
180
  5
180
331
2B3
  5
2B3
331
23D
  5
23D
331
1C7
  5
1C7
331
1FE
  5
1FE
331
112
  5
112
331
151
  5
151
331
188
  5
188
331
274
  5
274
331
2BB
  5
2BB
331
245
  5
245
331
27C
  5
27C
331
190
  5
190
331
159
  5
159
331
11A
  5
11A
331
1CF
  5
1CF
331
206
  5
206
331
2C3
  5
2C3
331
284
  5
284
331
20E
  5
20E
331
198
  5
198
331
161
  5
161
331
122
  5
122
331
1D7
  5
1D7
331
24D
  5
24D
331
2CB
  5
2CB
331
28C
  5
28C
331
216
  5
216
331
1DF
  5
1DF
331
255
  5
255
331
370
  5
354
  0
ACDBDETAILVIEWSTYLE
  5
132B
102
{ACAD_XDICTIONARY
360
13CF
102
}
102
{ACAD_REACTORS
330
132A
102
}
330
132A
100
AcDbModelDocViewStyle
 70
     0
  3
Metric50
290
     0
100
AcDbDetailViewStyle
 70
     0
 71
     0
 90
        3
 71
     1
340
23
 62
   256
 40
5.0
340
0
 62
   256
 40
5.0
300

 40
0.0
280
     1
 71
     2
340
28
 90
       25
 62
   256
 71
     3
340
23
 62
   256
 40
5.0
 90
        0
 40
15.0
 90
        1
300
%<\AcVar ViewDetailId>% (%<\AcVar ViewScale \f "%sn">%)
 71
     4
340
28
 90
       25
 62
   256
340
28
 90
       25
 62
   256
280
     0
  0
LAYOUT
  5
2FD
102
{ACAD_REACTORS
330
2FB
102
}
330
2FB
100
AcDbPlotSettings
  1

  2
Adobe PDF
  4
A4
  6

 40
3.174999952316282
 41
3.174999952316282
 42
3.175003051757812
 43
3.17498779296875
 44
209.9733276367186
 45
297.0318298339844
 46
7.055604908455618
 47
7.079644979743647
 48
0.0
 49
0.0
140
0.0
141
0.0
142
1.0
143
1.0
 70
 11956
 72
     1
 73
     1
 74
     1
  7
monochrome.ctb
 75
    16
147
1.0
 76
     0
 77
     2
 78
   300
148
138.0105567368214
149
94.50442304870035
100
AcDbLayout
  1
Model
 70
     1
 71
     0
 10
0.0
 20
0.0
 11
12.0
 21
9.0
 12
0.0
 22
0.0
 32
0.0
 14
0.0
 24
0.0
 34
0.0
 15
0.0
 25
0.0
 35
0.0
146
0.0
 13
0.0
 23
0.0
 33
0.0
 16
1.0
 26
0.0
 36
0.0
 17
0.0
 27
1.0
 37
0.0
 76
     0
330
D4
331
12E1
1001
ACAD_PSEXT
1000
Adobe PDF
1000
Adobe PDF Converter
1000
My Documents
1000

1070
     0
  0
LAYOUT
  5
2FE
102
{ACAD_REACTORS
330
2FB
102
}
330
2FB
100
AcDbPlotSettings
  1

  2
Canon LASER SHOT LBP-2510
  4

  6

 40
0.0
 41
0.0
 42
0.0
 43
0.0
 44
0.0
 45
0.0
 46
0.0
 47
0.0
 48
0.0
 49
0.0
140
0.0
141
0.0
142
1.0
143
1.0
 70
   688
 72
     0
 73
     0
 74
     5
  7
Canon LASER SHOT LBP-2510
 75
    16
147
1.0
 76
     0
 77
     2
 78
   300
148
0.0
149
0.0
100
AcDbLayout
  1
レイアウト1
 70
     1
 71
     1
 10
-148.0
 20
-104.5
 11
149.0
 21
105.5
 12
0.0
 22
0.0
 32
0.0
 14
-148.0
 24
-104.5
 34
0.0
 15
149.0
 25
105.5
 35
0.0
146
0.0
 13
0.0
 23
0.0
 33
0.0
 16
1.0
 26
0.0
 36
0.0
 17
0.0
 27
1.0
 37
0.0
 76
     0
330
D5
  0
MATERIAL
  5
12EB
102
{ACAD_XDICTIONARY
360
12EC
102
}
102
{ACAD_REACTORS
330
2F7
102
}
330
2F7
100
AcDbMaterial
  1
ByBlock
 72
     0
 43
0.0208333333333333
 43
0.0
 43
0.0
 43
0.0
 43
0.0
 43
0.0208333333333333
 43
0.0
 43
0.0
 43
0.0
 43
0.0
 43
1.0
 43
0.0
 43
0.0
 43
0.0
 43
0.0
 43
1.0
 77
     0
 47
0.0208333333333333
 47
0.0
 47
0.0
 47
0.0
 47
0.0
 47
0.0208333333333333
 47
0.0
 47
0.0
 47
0.0
 47
0.0
 47
1.0
 47
0.0
 47
0.0
 47
0.0
 47
0.0
 47
1.0
171
     0
 49
0.0208333333333333
 49
0.0
 49
0.0
 49
0.0
 49
0.0
 49
0.0208333333333333
 49
0.0
 49
0.0
 49
0.0
 49
0.0
 49
1.0
 49
0.0
 49
0.0
 49
0.0
 49
0.0
 49
1.0
175
     0
142
0.0208333333333333
142
0.0
142
0.0
142
0.0
142
0.0
142
0.0208333333333333
142
0.0
142
0.0
142
0.0
142
0.0
142
1.0
142
0.0
142
0.0
142
0.0
142
0.0
142
1.0
179
     0
144
0.0208333333333333
144
0.0
144
0.0
144
0.0
144
0.0
144
0.0208333333333333
144
0.0
144
0.0
144
0.0
144
0.0
144
1.0
144
0.0
144
0.0
144
0.0
144
0.0
144
1.0
147
0.0208333333333333
147
0.0
147
0.0
147
0.0
147
0.0
147
0.0208333333333333
147
0.0
147
0.0
147
0.0
147
0.0
147
1.0
147
0.0
147
0.0
147
0.0
147
0.0
147
1.0
  0
MATERIAL
  5
12E3
102
{ACAD_XDICTIONARY
360
12E4
102
}
102
{ACAD_REACTORS
330
2F7
102
}
330
2F7
100
AcDbMaterial
  1
ByLayer
 72
     0
 43
0.0208333333333333
 43
0.0
 43
0.0
 43
0.0
 43
0.0
 43
0.0208333333333333
 43
0.0
 43
0.0
 43
0.0
 43
0.0
 43
1.0
 43
0.0
 43
0.0
 43
0.0
 43
0.0
 43
1.0
 77
     0
 47
0.0208333333333333
 47
0.0
 47
0.0
 47
0.0
 47
0.0
 47
0.0208333333333333
 47
0.0
 47
0.0
 47
0.0
 47
0.0
 47
1.0
 47
0.0
 47
0.0
 47
0.0
 47
0.0
 47
1.0
171
     0
 49
0.0208333333333333
 49
0.0
 49
0.0
 49
0.0
 49
0.0
 49
0.0208333333333333
 49
0.0
 49
0.0
 49
0.0
 49
0.0
 49
1.0
 49
0.0
 49
0.0
 49
0.0
 49
0.0
 49
1.0
175
     0
142
0.0208333333333333
142
0.0
142
0.0
142
0.0
142
0.0
142
0.0208333333333333
142
0.0
142
0.0
142
0.0
142
0.0
142
1.0
142
0.0
142
0.0
142
0.0
142
0.0
142
1.0
179
     0
144
0.0208333333333333
144
0.0
144
0.0
144
0.0
144
0.0
144
0.0208333333333333
144
0.0
144
0.0
144
0.0
144
0.0
144
1.0
144
0.0
144
0.0
144
0.0
144
0.0
144
1.0
147
0.0208333333333333
147
0.0
147
0.0
147
0.0
147
0.0
147
0.0208333333333333
147
0.0
147
0.0
147
0.0
147
0.0
147
1.0
147
0.0
147
0.0
147
0.0
147
0.0
147
1.0
  0
MATERIAL
  5
12F3
102
{ACAD_XDICTIONARY
360
12F4
102
}
102
{ACAD_REACTORS
330
2F7
102
}
330
2F7
100
AcDbMaterial
  1
Global
 72
     0
 43
0.0208333333333333
 43
0.0
 43
0.0
 43
0.0
 43
0.0
 43
0.0208333333333333
 43
0.0
 43
0.0
 43
0.0
 43
0.0
 43
1.0
 43
0.0
 43
0.0
 43
0.0
 43
0.0
 43
1.0
 77
     0
 47
0.0208333333333333
 47
0.0
 47
0.0
 47
0.0
 47
0.0
 47
0.0208333333333333
 47
0.0
 47
0.0
 47
0.0
 47
0.0
 47
1.0
 47
0.0
 47
0.0
 47
0.0
 47
0.0
 47
1.0
171
     0
 49
0.0208333333333333
 49
0.0
 49
0.0
 49
0.0
 49
0.0
 49
0.0208333333333333
 49
0.0
 49
0.0
 49
0.0
 49
0.0
 49
1.0
 49
0.0
 49
0.0
 49
0.0
 49
0.0
 49
1.0
175
     0
142
0.0208333333333333
142
0.0
142
0.0
142
0.0
142
0.0
142
0.0208333333333333
142
0.0
142
0.0
142
0.0
142
0.0
142
1.0
142
0.0
142
0.0
142
0.0
142
0.0
142
1.0
179
     0
144
0.0208333333333333
144
0.0
144
0.0
144
0.0
144
0.0
144
0.0208333333333333
144
0.0
144
0.0
144
0.0
144
0.0
144
1.0
144
0.0
144
0.0
144
0.0
144
0.0
144
1.0
147
0.0208333333333333
147
0.0
147
0.0
147
0.0
147
0.0
147
0.0208333333333333
147
0.0
147
0.0
147
0.0
147
0.0
147
1.0
147
0.0
147
0.0
147
0.0
147
0.0
147
1.0
  0
MLEADERSTYLE
  5
1327
102
{ACAD_XDICTIONARY
360
13CB
102
}
102
{ACAD_REACTORS
330
1326
102
}
330
1326
100
AcDbMLeaderStyle
179
     2
170
     2
171
     1
172
     0
 90
        2
 40
0.0
 41
0.0
173
     1
 91
-1056964608
340
26
 92
       -2
290
     1
 42
2.0
291
     1
 43
0.36
  3
Standard
 44
4.0
300

342
23
174
     1
178
     6
175
     1
176
     0
 93
-1056964608
 45
4.0
292
     0
297
     0
 46
4.0
 94
-1056964608
 47
1.0
 49
1.0
140
1.0
293
     1
141
0.0
294
     1
177
     0
142
1.0
295
     0
296
     0
143
0.125
271
     0
272
     9
273
     9
  0
MLINESTYLE
  5
2F2
102
{ACAD_REACTORS
330
2F1
102
}
330
2F1
100
AcDbMlineStyle
  2
STANDARD
 70
     0
  3

 62
     0
 51
90.0
 52
90.0
 71
     2
 49
0.5
 62
   256
  6
BYLAYER
 49
-0.5
 62
   256
  6
BYLAYER
  0
PLOTSETTINGS
  5
1273
102
{ACAD_REACTORS
330
2FC
102
}
330
2FC
100
AcDbPlotSettings
  1
111
  2
RICOH IPSiO NX860e RPCS
  4
A4
  6

 40
5.873749732971191
 41
5.873747825622557
 42
5.873748779296875
 43
5.873748779296875
 44
209.9733276367186
 45
296.9259948730469
 46
1.382206344234629
 47
0.0
 48
0.0
 49
0.0
140
0.0
141
0.0
142
1.0
143
0.9696379639765943
 70
 11956
 72
     1
 73
     1
 74
     1
  7
monochrome.ctb
 75
     0
147
1.031312755019289
 76
     0
 77
     2
 78
   300
148
138.016006241122
149
94.51495291709916
1001
ACAD_PSEXT
1000
RICOH IPSiO NX860e RPCS
1000
RICOH IPSiO NX860e RPCS
1000
IP_192.168.110.192
1000
RPCS Driver (Windows 2000/XP/Server 2003/Vista)
1070
     0
  0
ACDBPLACEHOLDER
  5
2F6
102
{ACAD_REACTORS
330
2F5
102
}
330
2F5
  0
SCALE
  5
1315
102
{ACAD_REACTORS
330
1314
102
}
330
1314
100
AcDbScale
 70
     0
300
1:1
140
1.0
141
1.0
290
     1
  0
SCALE
  5
1316
102
{ACAD_REACTORS
330
1314
102
}
330
1314
100
AcDbScale
 70
     0
300
1:2
140
1.0
141
2.0
290
     0
  0
SCALE
  5
1317
102
{ACAD_REACTORS
330
1314
102
}
330
1314
100
AcDbScale
 70
     0
300
1:4
140
1.0
141
4.0
290
     0
  0
SCALE
  5
1318
102
{ACAD_REACTORS
330
1314
102
}
330
1314
100
AcDbScale
 70
     0
300
1:5
140
1.0
141
5.0
290
     0
  0
SCALE
  5
1319
102
{ACAD_REACTORS
330
1314
102
}
330
1314
100
AcDbScale
 70
     0
300
1:8
140
1.0
141
8.0
290
     0
  0
SCALE
  5
131A
102
{ACAD_REACTORS
330
1314
102
}
330
1314
100
AcDbScale
 70
     0
300
1:10
140
1.0
141
10.0
290
     0
  0
SCALE
  5
131B
102
{ACAD_REACTORS
330
1314
102
}
330
1314
100
AcDbScale
 70
     0
300
1:16
140
1.0
141
16.0
290
     0
  0
SCALE
  5
131C
102
{ACAD_REACTORS
330
1314
102
}
330
1314
100
AcDbScale
 70
     0
300
1:20
140
1.0
141
20.0
290
     0
  0
SCALE
  5
131D
102
{ACAD_REACTORS
330
1314
102
}
330
1314
100
AcDbScale
 70
     0
300
1:30
140
1.0
141
30.0
290
     0
  0
SCALE
  5
131E
102
{ACAD_REACTORS
330
1314
102
}
330
1314
100
AcDbScale
 70
     0
300
1:40
140
1.0
141
40.0
290
     0
  0
SCALE
  5
131F
102
{ACAD_REACTORS
330
1314
102
}
330
1314
100
AcDbScale
 70
     0
300
1:50
140
1.0
141
50.0
290
     0
  0
SCALE
  5
1320
102
{ACAD_REACTORS
330
1314
102
}
330
1314
100
AcDbScale
 70
     0
300
1:100
140
1.0
141
100.0
290
     0
  0
SCALE
  5
1321
102
{ACAD_REACTORS
330
1314
102
}
330
1314
100
AcDbScale
 70
     0
300
2:1
140
2.0
141
1.0
290
     0
  0
SCALE
  5
1322
102
{ACAD_REACTORS
330
1314
102
}
330
1314
100
AcDbScale
 70
     0
300
4:1
140
4.0
141
1.0
290
     0
  0
SCALE
  5
1323
102
{ACAD_REACTORS
330
1314
102
}
330
1314
100
AcDbScale
 70
     0
300
8:1
140
8.0
141
1.0
290
     0
  0
SCALE
  5
1324
102
{ACAD_REACTORS
330
1314
102
}
330
1314
100
AcDbScale
 70
     0
300
10:1
140
10.0
141
1.0
290
     0
  0
SCALE
  5
1325
102
{ACAD_REACTORS
330
1314
102
}
330
1314
100
AcDbScale
 70
     0
300
100:1
140
100.0
141
1.0
290
     0
  0
ACDBSECTIONVIEWSTYLE
  5
1329
102
{ACAD_XDICTIONARY
360
13CD
102
}
102
{ACAD_REACTORS
330
1328
102
}
330
1328
100
AcDbModelDocViewStyle
 70
     0
  3
Metric50
290
     0
100
AcDbSectionViewStyle
 70
     0
 71
     0
 90
      102
 71
     1
340
23
 62
   256
 40
5.0
340
0
340
0
 62
   256
 40
5.0
300
I, O, Q, S, X, Z
 40
10.0
 90
        0
 40
2.5
 90
        0
 71
     2
340
28
 90
       25
 62
   256
340
28
 90
       50
 62
   256
 40
5.0
 40
2.5
 40
5.0
 71
     3
340
23
 62
   256
 40
5.0
 90
        0
 40
15.0
 90
        1
300
%<\AcVar ViewSectionStartId>%-%<\AcVar ViewSectionEndId>% (%<\AcVar ViewScale \f "%sn">%)
 71
     4
 62
   256
 62
   257
300
ANSI31
 40
1.0
 90
        0
290
     0
290
     0
 90
        6
 40
0.0
 40
1.570796326794896
 40
0.2617993877991494
 40
1.308996938995747
 40
-0.2617993877991494
 40
1.832595714594046
  0
TABLESTYLE
  5
2FA
102
{ACAD_XDICTIONARY
360
1398
102
}
102
{ACAD_REACTORS
330
2F9
102
}
330
2F9
100
AcDbTableStyle
280
     0
  3
Standard
 70
     0
 71
     0
 40
1.5
 41
1.5
280
     0
281
     0
  7
STANDARD
140
4.5
170
     2
 62
     0
 63
     7
283
     0
 90
        4
 91
        0
  1

274
    -2
284
     1
 64
     0
275
    -2
285
     1
 65
     0
276
    -2
286
     1
 66
     0
277
    -2
287
     1
 67
     0
278
    -2
288
     1
 68
     0
279
    -2
289
     1
 69
     0
  7
STANDARD
140
6.0
170
     5
 62
     0
 63
     7
283
     0
 90
        4
 91
        0
  1

274
    -2
284
     1
 64
     0
275
    -2
285
     1
 65
     0
276
    -2
286
     1
 66
     0
277
    -2
287
     1
 67
     0
278
    -2
288
     1
 68
     0
279
    -2
289
     1
 69
     0
  7
STANDARD
140
4.5
170
     5
 62
     0
 63
     7
283
     0
 90
        4
 91
        0
  1

274
    -2
284
     1
 64
     0
275
    -2
285
     1
 65
     0
276
    -2
286
     1
 66
     0
277
    -2
287
     1
 67
     0
278
    -2
288
     1
 68
     0
279
    -2
289
     1
 69
     0
  0
VISUALSTYLE
  5
1301
102
{ACAD_XDICTIONARY
360
13A5
102
}
102
{ACAD_REACTORS
330
12FB
102
}
330
12FB
100
AcDbVisualStyle
  2
2dWireframe
 70
     4
177
     2
291
     0
 71
     0
176
     1
 72
     2
176
     1
 73
     0
176
     1
 90
        0
176
     1
 40
0.6
176
     1
 41
30.0
176
     1
 63
     7
421
 16777215
176
     1
 74
     1
176
     1
 91
        4
176
     1
 64
     7
176
     1
 65
   257
176
     1
 75
     1
176
     1
175
     1
176
     1
 42
1.0
176
     1
 92
        0
176
     1
 66
   257
176
     1
 43
1.0
176
     1
 76
     1
176
     1
 77
     6
176
     1
 78
     2
176
     1
 67
     7
176
     1
 79
     5
176
     1
170
     0
176
     1
171
     0
176
     1
290
     0
176
     1
 93
        1
176
     1
 44
0.0
176
     1
173
     0
176
     1
1001
ACAD
1000
AcDbSavedByObjectVersion
1070
     0
  0
VISUALSTYLE
  5
1300
102
{ACAD_XDICTIONARY
360
13A3
102
}
102
{ACAD_REACTORS
330
12FB
102
}
330
12FB
100
AcDbVisualStyle
  2
Basic
 70
     7
177
     2
291
     1
 71
     1
176
     1
 72
     0
176
     1
 73
     1
176
     1
 90
        0
176
     1
 40
0.6
176
     1
 41
30.0
176
     1
 63
     7
421
 16777215
176
     1
 74
     0
176
     1
 91
        4
176
     1
 64
     7
176
     1
 65
   257
176
     1
 75
     1
176
     1
175
     1
176
     1
 42
1.0
176
     1
 92
        8
176
     1
 66
     7
176
     1
 43
1.0
176
     1
 76
     1
176
     1
 77
     6
176
     1
 78
     2
176
     1
 67
     7
176
     1
 79
     5
176
     1
170
     0
176
     1
171
     0
176
     1
290
     0
176
     1
 93
        1
176
     1
 44
0.0
176
     1
173
     0
176
     1
1001
ACAD
1000
AcDbSavedByObjectVersion
1070
     0
  0
VISUALSTYLE
  5
1307
102
{ACAD_XDICTIONARY
360
13B1
102
}
102
{ACAD_REACTORS
330
12FB
102
}
330
12FB
100
AcDbVisualStyle
  2
Brighten
 70
    12
177
     2
291
     1
 71
     2
176
     1
 72
     2
176
     1
 73
     0
176
     1
 90
        0
176
     1
 40
0.6
176
     1
 41
30.0
176
     1
 63
     7
421
 16777215
176
     1
 74
     1
176
     1
 91
        4
176
     1
 64
     7
176
     1
 65
   257
176
     1
 75
     1
176
     1
175
     1
176
     1
 42
1.0
176
     1
 92
        8
176
     1
 66
     7
176
     1
 43
1.0
176
     1
 76
     1
176
     1
 77
     6
176
     1
 78
     2
176
     1
 67
     7
176
     1
 79
     5
176
     1
170
     0
176
     1
171
     0
176
     1
290
     0
176
     1
 93
        1
176
     1
 44
50.0
176
     1
173
     0
176
     1
1001
ACAD
1000
AcDbSavedByObjectVersion
1070
     0
  0
VISUALSTYLE
  5
130B
102
{ACAD_XDICTIONARY
360
13B9
102
}
102
{ACAD_REACTORS
330
12FB
102
}
330
12FB
100
AcDbVisualStyle
  2
ColorChange
 70
    16
177
     2
291
     1
 71
     2
176
     1
 72
     2
176
     1
 73
     3
176
     1
 90
        0
176
     1
 40
0.6
176
     1
 41
30.0
176
     1
 63
     8
421
  8421504
176
     1
 74
     1
176
     1
 91
        4
176
     1
 64
     7
176
     1
 65
   257
176
     1
 75
     1
176
     1
175
     1
176
     1
 42
1.0
176
     1
 92
        8
176
     1
 66
     8
424
  8421504
176
     1
 43
1.0
176
     1
 76
     1
176
     1
 77
     6
176
     1
 78
     2
176
     1
 67
     7
176
     1
 79
     5
176
     1
170
     0
176
     1
171
     0
176
     1
290
     0
176
     1
 93
        1
176
     1
 44
0.0
176
     1
173
     0
176
     1
1001
ACAD
1000
AcDbSavedByObjectVersion
1070
     0
  0
VISUALSTYLE
  5
1304
102
{ACAD_XDICTIONARY
360
13AB
102
}
102
{ACAD_REACTORS
330
12FB
102
}
330
12FB
100
AcDbVisualStyle
  2
Conceptual
 70
     9
177
     2
291
     0
 71
     3
176
     1
 72
     2
176
     1
 73
     0
176
     1
 90
        0
176
     1
 40
0.6
176
     1
 41
30.0
176
     1
 63
     7
421
 16777215
176
     1
 74
     2
176
     1
 91
        2
176
     1
 64
     7
176
     1
 65
   257
176
     1
 75
     1
176
     1
175
     1
176
     1
 42
179.0
176
     1
 92
        8
176
     1
 66
     7
176
     1
 43
1.0
176
     1
 76
     1
176
     1
 77
     6
176
     1
 78
     2
176
     1
 67
     7
176
     1
 79
     3
176
     1
170
     0
176
     1
171
     0
176
     1
290
     0
176
     1
 93
        1
176
     1
 44
0.0
176
     1
173
     0
176
     1
1001
ACAD
1000
AcDbSavedByObjectVersion
1070
     0
  0
VISUALSTYLE
  5
1306
102
{ACAD_XDICTIONARY
360
13AF
102
}
102
{ACAD_REACTORS
330
12FB
102
}
330
12FB
100
AcDbVisualStyle
  2
Dim
 70
    11
177
     2
291
     1
 71
     2
176
     1
 72
     2
176
     1
 73
     0
176
     1
 90
        0
176
     1
 40
0.6
176
     1
 41
30.0
176
     1
 63
     7
421
 16777215
176
     1
 74
     1
176
     1
 91
        4
176
     1
 64
     7
176
     1
 65
   257
176
     1
 75
     1
176
     1
175
     1
176
     1
 42
1.0
176
     1
 92
        8
176
     1
 66
     7
176
     1
 43
1.0
176
     1
 76
     1
176
     1
 77
     6
176
     1
 78
     2
176
     1
 67
     7
176
     1
 79
     5
176
     1
170
     0
176
     1
171
     0
176
     1
290
     0
176
     1
 93
        1
176
     1
 44
-50.0
176
     1
173
     0
176
     1
1001
ACAD
1000
AcDbSavedByObjectVersion
1070
     0
  0
VISUALSTYLE
  5
1313
102
{ACAD_XDICTIONARY
360
13C9
102
}
102
{ACAD_REACTORS
330
12FB
102
}
330
12FB
100
AcDbVisualStyle
  2
EdgeColorOff
 70
    22
177
     2
291
     1
 71
     2
176
     0
 72
     2
176
     0
 73
     0
176
     0
 90
        0
176
     0
 40
0.6
176
     0
 41
30.0
176
     0
 63
     7
421
 16777215
176
     0
 74
     1
176
     0
 91
        4
176
     0
 64
     7
176
     0
 65
   257
176
     0
 75
     1
176
     0
175
     1
176
     0
 42
1.0
176
     0
 92
        8
176
     2
 66
     7
176
     0
 43
1.0
176
     0
 76
     1
176
     0
 77
     6
176
     0
 78
     2
176
     0
 67
     7
176
     0
 79
     5
176
     0
170
     0
176
     0
171
     0
176
     0
290
     0
176
     0
 93
        1
176
     0
 44
0.0
176
     0
173
     0
176
     0
1001
ACAD
1000
AcDbSavedByObjectVersion
1070
     0
  0
VISUALSTYLE
  5
130A
102
{ACAD_XDICTIONARY
360
13B7
102
}
102
{ACAD_REACTORS
330
12FB
102
}
330
12FB
100
AcDbVisualStyle
  2
Facepattern
 70
    15
177
     2
291
     1
 71
     2
176
     1
 72
     2
176
     1
 73
     0
176
     1
 90
        0
176
     1
 40
0.6
176
     1
 41
30.0
176
     1
 63
     7
421
 16777215
176
     1
 74
     1
176
     1
 91
        4
176
     1
 64
     7
176
     1
 65
   257
176
     1
 75
     1
176
     1
175
     1
176
     1
 42
1.0
176
     1
 92
        8
176
     1
 66
     7
176
     1
 43
1.0
176
     1
 76
     1
176
     1
 77
     6
176
     1
 78
     2
176
     1
 67
     7
176
     1
 79
     5
176
     1
170
     0
176
     1
171
     0
176
     1
290
     0
176
     1
 93
        1
176
     1
 44
0.0
176
     1
173
     0
176
     1
1001
ACAD
1000
AcDbSavedByObjectVersion
1070
     0
  0
VISUALSTYLE
  5
12FC
102
{ACAD_XDICTIONARY
360
139B
102
}
102
{ACAD_REACTORS
330
12FB
102
}
330
12FB
100
AcDbVisualStyle
  2
Flat
 70
     0
177
     2
291
     1
 71
     2
176
     1
 72
     1
176
     1
 73
     1
176
     1
 90
        2
176
     1
 40
0.6
176
     1
 41
30.0
176
     1
 63
     7
421
 16777215
176
     1
 74
     0
176
     1
 91
        0
176
     1
 64
     7
176
     1
 65
   257
176
     1
 75
     1
176
     1
175
     1
176
     1
 42
1.0
176
     1
 92
        8
176
     1
 66
     7
176
     1
 43
1.0
176
     1
 76
     1
176
     1
 77
     6
176
     1
 78
     2
176
     1
 67
     7
176
     1
 79
     5
176
     1
170
     0
176
     1
171
     0
176
     1
290
     0
176
     1
 93
       13
176
     1
 44
0.0
176
     1
173
     0
176
     1
1001
ACAD
1000
AcDbSavedByObjectVersion
1070
     0
  0
VISUALSTYLE
  5
12FD
102
{ACAD_XDICTIONARY
360
139D
102
}
102
{ACAD_REACTORS
330
12FB
102
}
330
12FB
100
AcDbVisualStyle
  2
FlatWithEdges
 70
     1
177
     2
291
     1
 71
     2
176
     1
 72
     1
176
     1
 73
     1
176
     1
 90
        2
176
     1
 40
0.6
176
     1
 41
30.0
176
     1
 63
     7
421
 16777215
176
     1
 74
     1
176
     1
 91
        0
176
     1
 64
     7
176
     1
 65
   257
176
     1
 75
     1
176
     1
175
     1
176
     1
 42
1.0
176
     1
 92
        0
176
     1
 66
   257
176
     1
 43
1.0
176
     1
 76
     1
176
     1
 77
     6
176
     1
 78
     2
176
     1
 67
     7
176
     1
 79
     5
176
     1
170
     0
176
     1
171
     0
176
     1
290
     0
176
     1
 93
       13
176
     1
 44
0.0
176
     1
173
     0
176
     1
1001
ACAD
1000
AcDbSavedByObjectVersion
1070
     0
  0
VISUALSTYLE
  5
12FE
102
{ACAD_XDICTIONARY
360
139F
102
}
102
{ACAD_REACTORS
330
12FB
102
}
330
12FB
100
AcDbVisualStyle
  2
Gouraud
 70
     2
177
     2
291
     1
 71
     2
176
     1
 72
     2
176
     1
 73
     1
176
     1
 90
        2
176
     1
 40
0.6
176
     1
 41
30.0
176
     1
 63
     7
421
 16777215
176
     1
 74
     0
176
     1
 91
        0
176
     1
 64
     7
176
     1
 65
   257
176
     1
 75
     1
176
     1
175
     1
176
     1
 42
1.0
176
     1
 92
        0
176
     1
 66
     7
176
     1
 43
1.0
176
     1
 76
     1
176
     1
 77
     6
176
     1
 78
     2
176
     1
 67
     7
176
     1
 79
     5
176
     1
170
     0
176
     1
171
     0
176
     1
290
     0
176
     1
 93
       13
176
     1
 44
0.0
176
     1
173
     0
176
     1
1001
ACAD
1000
AcDbSavedByObjectVersion
1070
     0
  0
VISUALSTYLE
  5
12FF
102
{ACAD_XDICTIONARY
360
13A1
102
}
102
{ACAD_REACTORS
330
12FB
102
}
330
12FB
100
AcDbVisualStyle
  2
GouraudWithEdges
 70
     3
177
     2
291
     1
 71
     2
176
     1
 72
     2
176
     1
 73
     1
176
     1
 90
        2
176
     1
 40
0.6
176
     1
 41
30.0
176
     1
 63
     7
421
 16777215
176
     1
 74
     1
176
     1
 91
        0
176
     1
 64
     7
176
     1
 65
   257
176
     1
 75
     1
176
     1
175
     1
176
     1
 42
1.0
176
     1
 92
        0
176
     1
 66
   257
176
     1
 43
1.0
176
     1
 76
     1
176
     1
 77
     6
176
     1
 78
     2
176
     1
 67
     7
176
     1
 79
     5
176
     1
170
     0
176
     1
171
     0
176
     1
290
     0
176
     1
 93
       13
176
     1
 44
0.0
176
     1
173
     0
176
     1
1001
ACAD
1000
AcDbSavedByObjectVersion
1070
     0
  0
VISUALSTYLE
  5
1303
102
{ACAD_XDICTIONARY
360
13A9
102
}
102
{ACAD_REACTORS
330
12FB
102
}
330
12FB
100
AcDbVisualStyle
  2
Hidden
 70
     6
177
     2
291
     0
 71
     1
176
     1
 72
     2
176
     1
 73
     2
176
     1
 90
        0
176
     1
 40
0.6
176
     1
 41
30.0
176
     1
 63
     7
421
 16777215
176
     1
 74
     2
176
     1
 91
        2
176
     1
 64
     7
176
     1
 65
   257
176
     1
 75
     2
176
     1
175
     1
176
     1
 42
40.0
176
     1
 92
        0
176
     1
 66
   257
176
     1
 43
1.0
176
     1
 76
     1
176
     1
 77
     6
176
     1
 78
     2
176
     1
 67
     7
176
     1
 79
     3
176
     1
170
     0
176
     1
171
     0
176
     1
290
     0
176
     1
 93
        1
176
     1
 44
0.0
176
     1
173
     0
176
     1
1001
ACAD
1000
AcDbSavedByObjectVersion
1070
     0
  0
VISUALSTYLE
  5
1311
102
{ACAD_XDICTIONARY
360
13C5
102
}
102
{ACAD_REACTORS
330
12FB
102
}
330
12FB
100
AcDbVisualStyle
  2
JitterOff
 70
    20
177
     2
291
     1
 71
     2
176
     0
 72
     2
176
     0
 73
     0
176
     0
 90
        0
176
     0
 40
0.6
176
     0
 41
30.0
176
     0
 63
     7
421
 16777215
176
     0
 74
     1
176
     0
 91
        4
176
     0
 64
     7
176
     0
 65
   257
176
     0
 75
     1
176
     0
175
     1
176
     0
 42
1.0
176
     0
 92
       10
176
     2
 66
     7
176
     0
 43
1.0
176
     0
 76
     1
176
     0
 77
     6
176
     0
 78
     2
176
     0
 67
     7
176
     0
 79
     5
176
     0
170
     0
176
     0
171
     0
176
     0
290
     0
176
     0
 93
        1
176
     0
 44
0.0
176
     0
173
     0
176
     0
1001
ACAD
1000
AcDbSavedByObjectVersion
1070
     0
  0
VISUALSTYLE
  5
1309
102
{ACAD_XDICTIONARY
360
13B5
102
}
102
{ACAD_REACTORS
330
12FB
102
}
330
12FB
100
AcDbVisualStyle
  2
Linepattern
 70
    14
177
     2
291
     1
 71
     2
176
     1
 72
     2
176
     1
 73
     0
176
     1
 90
        0
176
     1
 40
0.6
176
     1
 41
30.0
176
     1
 63
     7
421
 16777215
176
     1
 74
     1
176
     1
 91
        4
176
     1
 64
     7
176
     1
 65
   257
176
     1
 75
     7
176
     1
175
     7
176
     1
 42
1.0
176
     1
 92
        8
176
     1
 66
     7
176
     1
 43
1.0
176
     1
 76
     1
176
     1
 77
     6
176
     1
 78
     2
176
     1
 67
     7
176
     1
 79
     5
176
     1
170
     0
176
     1
171
     0
176
     1
290
     0
176
     1
 93
        1
176
     1
 44
0.0
176
     1
173
     0
176
     1
1001
ACAD
1000
AcDbSavedByObjectVersion
1070
     0
  0
VISUALSTYLE
  5
1312
102
{ACAD_XDICTIONARY
360
13C7
102
}
102
{ACAD_REACTORS
330
12FB
102
}
330
12FB
100
AcDbVisualStyle
  2
OverhangOff
 70
    21
177
     2
291
     1
 71
     2
176
     0
 72
     2
176
     0
 73
     0
176
     0
 90
        0
176
     0
 40
0.6
176
     0
 41
30.0
176
     0
 63
     7
421
 16777215
176
     0
 74
     1
176
     0
 91
        4
176
     0
 64
     7
176
     0
 65
   257
176
     0
 75
     1
176
     0
175
     1
176
     0
 42
1.0
176
     0
 92
        9
176
     2
 66
     7
176
     0
 43
1.0
176
     0
 76
     1
176
     0
 77
     6
176
     0
 78
     2
176
     0
 67
     7
176
     0
 79
     5
176
     0
170
     0
176
     0
171
     0
176
     0
290
     0
176
     0
 93
        1
176
     0
 44
0.0
176
     0
173
     0
176
     0
1001
ACAD
1000
AcDbSavedByObjectVersion
1070
     0
  0
VISUALSTYLE
  5
1305
102
{ACAD_XDICTIONARY
360
13AD
102
}
102
{ACAD_REACTORS
330
12FB
102
}
330
12FB
100
AcDbVisualStyle
  2
Realistic
 70
     8
177
     2
291
     0
 71
     2
176
     1
 72
     3
176
     1
 73
     0
176
     1
 90
        2
176
     1
 40
0.6
176
     1
 41
30.0
176
     1
 63
     7
421
 16777215
176
     1
 74
     0
176
     1
 91
        0
176
     1
 64
     7
176
     1
 65
   257
176
     1
 75
     1
176
     1
175
     1
176
     1
 42
1.0
176
     1
 92
        8
176
     1
 66
   257
176
     1
 43
1.0
176
     1
 76
     1
176
     1
 77
     6
176
     1
 78
     2
176
     1
 67
     7
176
     1
 79
     3
176
     1
170
     0
176
     1
171
     0
176
     1
290
     0
176
     1
 93
       13
176
     1
 44
0.0
176
     1
173
     0
176
     1
1001
ACAD
1000
AcDbSavedByObjectVersion
1070
     0
  0
VISUALSTYLE
  5
1310
102
{ACAD_XDICTIONARY
360
13C3
102
}
102
{ACAD_REACTORS
330
12FB
102
}
330
12FB
100
AcDbVisualStyle
  2
Shaded
 70
    27
177
     2
291
     0
 71
     2
176
     1
 72
     2
176
     1
 73
     1
176
     1
 90
        2
176
     1
 40
0.6
176
     1
 41
30.0
176
     1
 63
     7
421
 16777215
176
     1
 74
     0
176
     1
 91
        4
176
     1
 64
     7
176
     1
 65
   257
176
     1
 75
     1
176
     1
175
     1
176
     1
 42
1.0
176
     1
 92
        8
176
     1
 66
   257
176
     1
 43
1.0
176
     1
 76
     1
176
     1
 77
     6
176
     1
 78
     2
176
     1
 67
     8
425
  7895160
176
     1
 79
     3
176
     1
170
     0
176
     1
171
     0
176
     1
290
     0
176
     1
 93
        5
176
     1
 44
0.0
176
     1
173
     0
176
     1
1001
ACAD
1000
AcDbSavedByObjectVersion
1070
     0
  0
VISUALSTYLE
  5
130F
102
{ACAD_XDICTIONARY
360
13C1
102
}
102
{ACAD_REACTORS
330
12FB
102
}
330
12FB
100
AcDbVisualStyle
  2
Shaded with edges
 70
    26
177
     2
291
     0
 71
     2
176
     1
 72
     2
176
     1
 73
     1
176
     1
 90
        2
176
     1
 40
0.6
176
     1
 41
30.0
176
     1
 63
     7
421
 16777215
176
     1
 74
     1
176
     1
 91
       10
176
     1
 64
     7
176
     1
 65
   257
176
     1
 75
     2
176
     1
175
     1
176
     1
 42
1.0
176
     1
 92
        8
176
     1
 66
   257
176
     1
 43
1.0
176
     1
 76
     1
176
     1
 77
     6
176
     1
 78
     2
176
     1
 67
     7
176
     1
 79
     3
176
     1
170
     0
176
     1
171
     0
176
     1
290
     0
176
     1
 93
        5
176
     1
 44
0.0
176
     1
173
     0
176
     1
1001
ACAD
1000
AcDbSavedByObjectVersion
1070
     0
  0
VISUALSTYLE
  5
130C
102
{ACAD_XDICTIONARY
360
13BB
102
}
102
{ACAD_REACTORS
330
12FB
102
}
330
12FB
100
AcDbVisualStyle
  2
Shades of Gray
 70
    23
177
     2
291
     0
 71
     2
176
     1
 72
     2
176
     1
 73
     3
176
     1
 90
        0
176
     1
 40
0.6
176
     1
 41
30.0
176
     1
 63
     7
421
 16777215
176
     1
 74
     2
176
     1
 91
        2
176
     1
 64
     7
176
     1
 65
     7
176
     1
 75
     1
176
     1
175
     1
176
     1
 42
40.0
176
     1
 92
        8
176
     1
 66
     7
176
     1
 43
1.0
176
     1
 76
     1
176
     1
 77
     6
176
     1
 78
     2
176
     1
 67
     7
176
     1
 79
     3
176
     1
170
     0
176
     1
171
     0
176
     1
290
     0
176
     1
 93
        1
176
     1
 44
0.0
176
     1
173
     0
176
     1
1001
ACAD
1000
AcDbSavedByObjectVersion
1070
     0
  0
VISUALSTYLE
  5
130D
102
{ACAD_XDICTIONARY
360
13BD
102
}
102
{ACAD_REACTORS
330
12FB
102
}
330
12FB
100
AcDbVisualStyle
  2
Sketchy
 70
    24
177
     2
291
     0
 71
     1
176
     1
 72
     2
176
     1
 73
     2
176
     1
 90
        0
176
     1
 40
0.6
176
     1
 41
30.0
176
     1
 63
     7
421
 16777215
176
     1
 74
     2
176
     1
 91
        2
176
     1
 64
     7
176
     1
 65
     7
176
     1
 75
     1
176
     1
175
     1
176
     1
 42
40.0
176
     1
 92
       11
176
     1
 66
     7
176
     1
 43
1.0
176
     1
 76
     1
176
     1
 77
     6
176
     1
 78
     2
176
     1
 67
     7
176
     1
 79
     6
176
     1
170
     0
176
     1
171
     0
176
     1
290
     0
176
     1
 93
        1
176
     1
 44
0.0
176
     1
173
     0
176
     1
1001
ACAD
1000
AcDbSavedByObjectVersion
1070
     0
  0
VISUALSTYLE
  5
1308
102
{ACAD_XDICTIONARY
360
13B3
102
}
102
{ACAD_REACTORS
330
12FB
102
}
330
12FB
100
AcDbVisualStyle
  2
Thicken
 70
    13
177
     2
291
     1
 71
     2
176
     1
 72
     2
176
     1
 73
     0
176
     1
 90
        0
176
     1
 40
0.6
176
     1
 41
30.0
176
     1
 63
     7
421
 16777215
176
     1
 74
     1
176
     1
 91
        4
176
     1
 64
     7
176
     1
 65
   257
176
     1
 75
     1
176
     1
175
     1
176
     1
 42
1.0
176
     1
 92
       12
176
     1
 66
     7
176
     1
 43
1.0
176
     1
 76
     1
176
     1
 77
     6
176
     1
 78
     2
176
     1
 67
     7
176
     1
 79
     5
176
     1
170
     0
176
     1
171
     0
176
     1
290
     0
176
     1
 93
        1
176
     1
 44
0.0
176
     1
173
     0
176
     1
1001
ACAD
1000
AcDbSavedByObjectVersion
1070
     0
  0
VISUALSTYLE
  5
1302
102
{ACAD_XDICTIONARY
360
13A7
102
}
102
{ACAD_REACTORS
330
12FB
102
}
330
12FB
100
AcDbVisualStyle
  2
Wireframe
 70
     5
177
     2
291
     0
 71
     0
176
     1
 72
     2
176
     1
 73
     0
176
     1
 90
        0
176
     1
 40
0.6
176
     1
 41
30.0
176
     1
 63
     7
421
 16777215
176
     1
 74
     1
176
     1
 91
        4
176
     1
 64
     7
176
     1
 65
   257
176
     1
 75
     1
176
     1
175
     1
176
     1
 42
1.0
176
     1
 92
        0
176
     1
 66
   257
176
     1
 43
1.0
176
     1
 76
     1
176
     1
 77
     6
176
     1
 78
     2
176
     1
 67
     7
176
     1
 79
     3
176
     1
170
     0
176
     1
171
     0
176
     1
290
     0
176
     1
 93
        1
176
     1
 44
0.0
176
     1
173
     0
176
     1
1001
ACAD
1000
AcDbSavedByObjectVersion
1070
     0
  0
VISUALSTYLE
  5
130E
102
{ACAD_XDICTIONARY
360
13BF
102
}
102
{ACAD_REACTORS
330
12FB
102
}
330
12FB
100
AcDbVisualStyle
  2
X-Ray
 70
    25
177
     2
291
     0
 71
     2
176
     1
 72
     2
176
     1
 73
     1
176
     1
 90
        1
176
     1
 40
0.5
176
     1
 41
30.0
176
     1
 63
     7
421
 16777215
176
     1
 74
     1
176
     1
 91
        0
176
     1
 64
     7
176
     1
 65
   257
176
     1
 75
     1
176
     1
175
     1
176
     1
 42
1.0
176
     1
 92
        8
176
     1
 66
     7
176
     1
 43
1.0
176
     1
 76
     1
176
     1
 77
     6
176
     1
 78
     2
176
     1
 67
     7
176
     1
 79
     3
176
     1
170
     0
176
     1
171
     0
176
     1
290
     0
176
     1
 93
       13
176
     1
 44
0.0
176
     1
173
     0
176
     1
1001
ACAD
1000
AcDbSavedByObjectVersion
1070
     0
  0
DICTIONARYVAR
  5
1394
102
{ACAD_REACTORS
330
306
102
}
330
306
100
DictionaryVariables
280
     0
  1
1:1
  0
DICTIONARYVAR
  5
1390
102
{ACAD_REACTORS
330
306
102
}
330
306
100
DictionaryVariables
280
     0
  1
STANDARD
  0
DICTIONARYVAR
  5
307
102
{ACAD_REACTORS
330
306
102
}
330
306
100
DictionaryVariables
280
     0
  1
STANDARD
  0
DICTIONARYVAR
  5
1391
102
{ACAD_REACTORS
330
306
102
}
330
306
100
DictionaryVariables
280
     0
  1
Metric50
  0
DICTIONARYVAR
  5
1392
102
{ACAD_REACTORS
330
306
102
}
330
306
100
DictionaryVariables
280
     0
  1
Metric50
  0
DICTIONARYVAR
  5
308
102
{ACAD_REACTORS
330
306
102
}
330
306
100
DictionaryVariables
280
     0
  1
1
  0
DICTIONARYVAR
  5
1396
102
{ACAD_REACTORS
330
306
102
}
330
306
100
DictionaryVariables
280
     0
  1
1
  0
DICTIONARYVAR
  5
1397
102
{ACAD_REACTORS
330
306
102
}
330
306
100
DictionaryVariables
280
     0
  1
15
  0
DICTIONARYVAR
  5
1395
102
{ACAD_REACTORS
330
306
102
}
330
306
100
DictionaryVariables
280
     0
  1
0
  0
DICTIONARYVAR
  5
1393
102
{ACAD_REACTORS
330
306
102
}
330
306
100
DictionaryVariables
280
     0
  1
0
  0
DICTIONARYVAR
  5
309
102
{ACAD_REACTORS
330
306
102
}
330
306
100
DictionaryVariables
280
     0
  1

  0
DICTIONARY
  5
13CF
330
132B
100
AcDbDictionary
280
     1
281
     1
  3
ACAD_XREC_ROUNDTRIP
360
13D0
  0
DICTIONARY
  5
12EC
330
12EB
100
AcDbDictionary
280
     1
281
     1
  3
BUMPTILE
360
12EE
  3
DIFFUSETILE
360
12ED
  3
OPACITYTILE
360
12F1
  3
REFLECTIONTILE
360
12F0
  3
REFRACTIONTILE
360
12F2
  3
SPECULARTILE
360
12EF
  0
DICTIONARY
  5
12E4
330
12E3
100
AcDbDictionary
280
     1
281
     1
  3
BUMPTILE
360
12E6
  3
DIFFUSETILE
360
12E5
  3
OPACITYTILE
360
12E9
  3
REFLECTIONTILE
360
12E8
  3
REFRACTIONTILE
360
12EA
  3
SPECULARTILE
360
12E7
  0
DICTIONARY
  5
12F4
330
12F3
100
AcDbDictionary
280
     1
281
     1
  3
BUMPTILE
360
12F6
  3
DIFFUSETILE
360
12F5
  3
OPACITYTILE
360
12F9
  3
REFLECTIONTILE
360
12F8
  3
REFRACTIONTILE
360
12FA
  3
SPECULARTILE
360
12F7
  0
DICTIONARY
  5
13CB
330
1327
100
AcDbDictionary
280
     1
281
     1
  3
ACAD_XREC_ROUNDTRIP
360
13CC
  0
DICTIONARY
  5
13CD
330
1329
100
AcDbDictionary
280
     1
281
     1
  3
ACAD_XREC_ROUNDTRIP
360
13CE
  0
DICTIONARY
  5
1398
330
2FA
100
AcDbDictionary
280
     1
281
     1
  3
ACAD_ROUNDTRIP_2008_TABLESTYLE_CELLSTYLEMAP
360
1399
  0
DICTIONARY
  5
13A5
330
1301
100
AcDbDictionary
280
     1
281
     1
  3
ACAD_XREC_ROUNDTRIP
360
13A6
  0
DICTIONARY
  5
13A3
330
1300
100
AcDbDictionary
280
     1
281
     1
  3
ACAD_XREC_ROUNDTRIP
360
13A4
  0
DICTIONARY
  5
13B1
330
1307
100
AcDbDictionary
280
     1
281
     1
  3
ACAD_XREC_ROUNDTRIP
360
13B2
  0
DICTIONARY
  5
13B9
330
130B
100
AcDbDictionary
280
     1
281
     1
  3
ACAD_XREC_ROUNDTRIP
360
13BA
  0
DICTIONARY
  5
13AB
330
1304
100
AcDbDictionary
280
     1
281
     1
  3
ACAD_XREC_ROUNDTRIP
360
13AC
  0
DICTIONARY
  5
13AF
330
1306
100
AcDbDictionary
280
     1
281
     1
  3
ACAD_XREC_ROUNDTRIP
360
13B0
  0
DICTIONARY
  5
13C9
330
1313
100
AcDbDictionary
280
     1
281
     1
  3
ACAD_XREC_ROUNDTRIP
360
13CA
  0
DICTIONARY
  5
13B7
330
130A
100
AcDbDictionary
280
     1
281
     1
  3
ACAD_XREC_ROUNDTRIP
360
13B8
  0
DICTIONARY
  5
139B
330
12FC
100
AcDbDictionary
280
     1
281
     1
  3
ACAD_XREC_ROUNDTRIP
360
139C
  0
DICTIONARY
  5
139D
330
12FD
100
AcDbDictionary
280
     1
281
     1
  3
ACAD_XREC_ROUNDTRIP
360
139E
  0
DICTIONARY
  5
139F
330
12FE
100
AcDbDictionary
280
     1
281
     1
  3
ACAD_XREC_ROUNDTRIP
360
13A0
  0
DICTIONARY
  5
13A1
330
12FF
100
AcDbDictionary
280
     1
281
     1
  3
ACAD_XREC_ROUNDTRIP
360
13A2
  0
DICTIONARY
  5
13A9
330
1303
100
AcDbDictionary
280
     1
281
     1
  3
ACAD_XREC_ROUNDTRIP
360
13AA
  0
DICTIONARY
  5
13C5
330
1311
100
AcDbDictionary
280
     1
281
     1
  3
ACAD_XREC_ROUNDTRIP
360
13C6
  0
DICTIONARY
  5
13B5
330
1309
100
AcDbDictionary
280
     1
281
     1
  3
ACAD_XREC_ROUNDTRIP
360
13B6
  0
DICTIONARY
  5
13C7
330
1312
100
AcDbDictionary
280
     1
281
     1
  3
ACAD_XREC_ROUNDTRIP
360
13C8
  0
DICTIONARY
  5
13AD
330
1305
100
AcDbDictionary
280
     1
281
     1
  3
ACAD_XREC_ROUNDTRIP
360
13AE
  0
DICTIONARY
  5
13C3
330
1310
100
AcDbDictionary
280
     1
281
     1
  3
ACAD_XREC_ROUNDTRIP
360
13C4
  0
DICTIONARY
  5
13C1
330
130F
100
AcDbDictionary
280
     1
281
     1
  3
ACAD_XREC_ROUNDTRIP
360
13C2
  0
DICTIONARY
  5
13BB
330
130C
100
AcDbDictionary
280
     1
281
     1
  3
ACAD_XREC_ROUNDTRIP
360
13BC
  0
DICTIONARY
  5
13BD
330
130D
100
AcDbDictionary
280
     1
281
     1
  3
ACAD_XREC_ROUNDTRIP
360
13BE
  0
DICTIONARY
  5
13B3
330
1308
100
AcDbDictionary
280
     1
281
     1
  3
ACAD_XREC_ROUNDTRIP
360
13B4
  0
DICTIONARY
  5
13A7
330
1302
100
AcDbDictionary
280
     1
281
     1
  3
ACAD_XREC_ROUNDTRIP
360
13A8
  0
DICTIONARY
  5
13BF
330
130E
100
AcDbDictionary
280
     1
281
     1
  3
ACAD_XREC_ROUNDTRIP
360
13C0
  0
XRECORD
  5
13D0
102
{ACAD_REACTORS
330
13CF
102
}
330
13CF
100
AcDbXrecord
280
     1
102
DISPLAYNAME
  1
Metric50
102
FLAGS
 90
        0
  0
XRECORD
  5
12EE
102
{ACAD_REACTORS
330
12EC
102
}
330
12EC
100
AcDbXrecord
280
     1
270
     1
271
     1
  0
XRECORD
  5
12ED
102
{ACAD_REACTORS
330
12EC
102
}
330
12EC
100
AcDbXrecord
280
     1
270
     1
271
     1
  0
XRECORD
  5
12F1
102
{ACAD_REACTORS
330
12EC
102
}
330
12EC
100
AcDbXrecord
280
     1
270
     1
271
     1
  0
XRECORD
  5
12F0
102
{ACAD_REACTORS
330
12EC
102
}
330
12EC
100
AcDbXrecord
280
     1
270
     1
271
     1
  0
XRECORD
  5
12F2
102
{ACAD_REACTORS
330
12EC
102
}
330
12EC
100
AcDbXrecord
280
     1
270
     1
271
     1
  0
XRECORD
  5
12EF
102
{ACAD_REACTORS
330
12EC
102
}
330
12EC
100
AcDbXrecord
280
     1
270
     1
271
     1
  0
XRECORD
  5
12E6
102
{ACAD_REACTORS
330
12E4
102
}
330
12E4
100
AcDbXrecord
280
     1
270
     1
271
     1
  0
XRECORD
  5
12E5
102
{ACAD_REACTORS
330
12E4
102
}
330
12E4
100
AcDbXrecord
280
     1
270
     1
271
     1
  0
XRECORD
  5
12E9
102
{ACAD_REACTORS
330
12E4
102
}
330
12E4
100
AcDbXrecord
280
     1
270
     1
271
     1
  0
XRECORD
  5
12E8
102
{ACAD_REACTORS
330
12E4
102
}
330
12E4
100
AcDbXrecord
280
     1
270
     1
271
     1
  0
XRECORD
  5
12EA
102
{ACAD_REACTORS
330
12E4
102
}
330
12E4
100
AcDbXrecord
280
     1
270
     1
271
     1
  0
XRECORD
  5
12E7
102
{ACAD_REACTORS
330
12E4
102
}
330
12E4
100
AcDbXrecord
280
     1
270
     1
271
     1
  0
XRECORD
  5
12F6
102
{ACAD_REACTORS
330
12F4
102
}
330
12F4
100
AcDbXrecord
280
     1
270
     1
271
     1
  0
XRECORD
  5
12F5
102
{ACAD_REACTORS
330
12F4
102
}
330
12F4
100
AcDbXrecord
280
     1
270
     1
271
     1
  0
XRECORD
  5
12F9
102
{ACAD_REACTORS
330
12F4
102
}
330
12F4
100
AcDbXrecord
280
     1
270
     1
271
     1
  0
XRECORD
  5
12F8
102
{ACAD_REACTORS
330
12F4
102
}
330
12F4
100
AcDbXrecord
280
     1
270
     1
271
     1
  0
XRECORD
  5
12FA
102
{ACAD_REACTORS
330
12F4
102
}
330
12F4
100
AcDbXrecord
280
     1
270
     1
271
     1
  0
XRECORD
  5
12F7
102
{ACAD_REACTORS
330
12F4
102
}
330
12F4
100
AcDbXrecord
280
     1
270
     1
271
     1
  0
XRECORD
  5
13CC
102
{ACAD_REACTORS
330
13CB
102
}
330
13CB
100
AcDbXrecord
280
     1
102
ACAD_ROUNDTRIP_2012_MLEADER_STYLE
298
     1
  0
XRECORD
  5
13CE
102
{ACAD_REACTORS
330
13CD
102
}
330
13CD
100
AcDbXrecord
280
     1
102
DISPLAYNAME
  1
Metric50
102
FLAGS
 90
        0
  0
CELLSTYLEMAP
  5
1399
102
{ACAD_REACTORS
330
1398
102
}
330
1398
100
AcDbCellStyleMap
 90
        3
300
CELLSTYLE
  1
TABLEFORMAT_BEGIN
 90
        5
170
     1
 91
        0
 92
    32768
 62
   257
 93
        1
300
CONTENTFORMAT
  1
CONTENTFORMAT_BEGIN
 90
        0
 91
        0
 92
        4
 93
        0
300

 40
0.0
140
1.0
 94
        5
 62
     0
340
23
144
6.0
309
CONTENTFORMAT_END
171
     1
301
MARGIN
  1
CELLMARGIN_BEGIN
 40
1.5
 40
1.5
 40
1.5
 40
1.5
 40
0.18
 40
0.18
309
CELLMARGIN_END
 94
        6
 95
        1
302
GRIDFORMAT
  1
GRIDFORMAT_BEGIN
 90
        0
 91
        1
 62
     0
 92
       -2
340
0
 93
        0
 40
0.045
309
GRIDFORMAT_END
 95
        2
302
GRIDFORMAT
  1
GRIDFORMAT_BEGIN
 90
        0
 91
        1
 62
     0
 92
       -2
340
0
 93
        0
 40
0.045
309
GRIDFORMAT_END
 95
        4
302
GRIDFORMAT
  1
GRIDFORMAT_BEGIN
 90
        0
 91
        1
 62
     0
 92
       -2
340
0
 93
        0
 40
0.045
309
GRIDFORMAT_END
 95
        8
302
GRIDFORMAT
  1
GRIDFORMAT_BEGIN
 90
        0
 91
        1
 62
     0
 92
       -2
340
0
 93
        0
 40
0.045
309
GRIDFORMAT_END
 95
       16
302
GRIDFORMAT
  1
GRIDFORMAT_BEGIN
 90
        0
 91
        1
 62
     0
 92
       -2
340
0
 93
        0
 40
0.045
309
GRIDFORMAT_END
 95
       32
302
GRIDFORMAT
  1
GRIDFORMAT_BEGIN
 90
        0
 91
        1
 62
     0
 92
       -2
340
0
 93
        0
 40
0.045
309
GRIDFORMAT_END
309
TABLEFORMAT_END
  1
CELLSTYLE_BEGIN
 90
        1
 91
        1
300
_TITLE
309
CELLSTYLE_END
300
CELLSTYLE
  1
TABLEFORMAT_BEGIN
 90
        5
170
     1
 91
        0
 92
        0
 62
   257
 93
        1
300
CONTENTFORMAT
  1
CONTENTFORMAT_BEGIN
 90
        0
 91
        0
 92
        4
 93
        0
300

 40
0.0
140
1.0
 94
        5
 62
     0
340
23
144
4.5
309
CONTENTFORMAT_END
171
     1
301
MARGIN
  1
CELLMARGIN_BEGIN
 40
1.5
 40
1.5
 40
1.5
 40
1.5
 40
0.18
 40
0.18
309
CELLMARGIN_END
 94
        6
 95
        1
302
GRIDFORMAT
  1
GRIDFORMAT_BEGIN
 90
        0
 91
        1
 62
     0
 92
       -2
340
0
 93
        0
 40
0.045
309
GRIDFORMAT_END
 95
        2
302
GRIDFORMAT
  1
GRIDFORMAT_BEGIN
 90
        0
 91
        1
 62
     0
 92
       -2
340
0
 93
        0
 40
0.045
309
GRIDFORMAT_END
 95
        4
302
GRIDFORMAT
  1
GRIDFORMAT_BEGIN
 90
        0
 91
        1
 62
     0
 92
       -2
340
0
 93
        0
 40
0.045
309
GRIDFORMAT_END
 95
        8
302
GRIDFORMAT
  1
GRIDFORMAT_BEGIN
 90
        0
 91
        1
 62
     0
 92
       -2
340
0
 93
        0
 40
0.045
309
GRIDFORMAT_END
 95
       16
302
GRIDFORMAT
  1
GRIDFORMAT_BEGIN
 90
        0
 91
        1
 62
     0
 92
       -2
340
0
 93
        0
 40
0.045
309
GRIDFORMAT_END
 95
       32
302
GRIDFORMAT
  1
GRIDFORMAT_BEGIN
 90
        0
 91
        1
 62
     0
 92
       -2
340
0
 93
        0
 40
0.045
309
GRIDFORMAT_END
309
TABLEFORMAT_END
  1
CELLSTYLE_BEGIN
 90
        2
 91
        1
300
_HEADER
309
CELLSTYLE_END
300
CELLSTYLE
  1
TABLEFORMAT_BEGIN
 90
        5
170
     1
 91
        0
 92
        0
 62
   257
 93
        1
300
CONTENTFORMAT
  1
CONTENTFORMAT_BEGIN
 90
        0
 91
        0
 92
        4
 93
        0
300

 40
0.0
140
1.0
 94
        2
 62
     0
340
23
144
4.5
309
CONTENTFORMAT_END
171
     1
301
MARGIN
  1
CELLMARGIN_BEGIN
 40
1.5
 40
1.5
 40
1.5
 40
1.5
 40
0.18
 40
0.18
309
CELLMARGIN_END
 94
        6
 95
        1
302
GRIDFORMAT
  1
GRIDFORMAT_BEGIN
 90
        0
 91
        1
 62
     0
 92
       -2
340
0
 93
        0
 40
0.045
309
GRIDFORMAT_END
 95
        2
302
GRIDFORMAT
  1
GRIDFORMAT_BEGIN
 90
        0
 91
        1
 62
     0
 92
       -2
340
0
 93
        0
 40
0.045
309
GRIDFORMAT_END
 95
        4
302
GRIDFORMAT
  1
GRIDFORMAT_BEGIN
 90
        0
 91
        1
 62
     0
 92
       -2
340
0
 93
        0
 40
0.045
309
GRIDFORMAT_END
 95
        8
302
GRIDFORMAT
  1
GRIDFORMAT_BEGIN
 90
        0
 91
        1
 62
     0
 92
       -2
340
0
 93
        0
 40
0.045
309
GRIDFORMAT_END
 95
       16
302
GRIDFORMAT
  1
GRIDFORMAT_BEGIN
 90
        0
 91
        1
 62
     0
 92
       -2
340
0
 93
        0
 40
0.045
309
GRIDFORMAT_END
 95
       32
302
GRIDFORMAT
  1
GRIDFORMAT_BEGIN
 90
        0
 91
        1
 62
     0
 92
       -2
340
0
 93
        0
 40
0.045
309
GRIDFORMAT_END
309
TABLEFORMAT_END
  1
CELLSTYLE_BEGIN
 90
        3
 91
        2
300
_DATA
309
CELLSTYLE_END
  0
XRECORD
  5
13A6
102
{ACAD_REACTORS
330
13A5
102
}
330
13A5
100
AcDbXrecord
280
     1
102
RTVSPost2010Prop28
280
     1
102
RTVSPost2010PropOp28
 70
     1
102
RTVSPost2010Prop29
280
     1
102
RTVSPost2010PropOp29
 70
     1
102
RTVSPost2010Prop30
280
     0
102
RTVSPost2010PropOp30
 70
     1
102
RTVSPost2010Prop31
280
     0
102
RTVSPost2010PropOp31
 70
     1
102
RTVSPost2010Prop32
280
     0
102
RTVSPost2010PropOp32
 70
     1
102
RTVSPost2010Prop33
280
     0
102
RTVSPost2010PropOp33
 70
     1
102
RTVSPost2010Prop34
280
     0
102
RTVSPost2010PropOp34
 70
     1
102
RTVSPost2010Prop35
280
     0
102
RTVSPost2010PropOp35
 70
     1
102
RTVSPost2010Prop36
280
     0
102
RTVSPost2010PropOp36
 70
     1
102
RTVSPost2010Prop37
 90
       50
102
RTVSPost2010PropOp37
 70
     1
102
RTVSPost2010Prop38
140
0.0
102
RTVSPost2010PropOp38
 70
     1
102
RTVSPost2010Prop39
140
1.0
102
RTVSPost2010PropOp39
 70
     1
102
RTVSPost2010Prop40
 90
        0
102
RTVSPost2010PropOp40
 70
     1
102
RTVSPost2010Prop41ColorIndex
 90
       18
102
RTVSPost2010Prop41ColorRGB
 90
        0
102
RTVSPost2010PropOp41
 70
     1
102
RTVSPost2010Prop42
 90
       50
102
RTVSPost2010PropOp42
 70
     1
102
RTVSPost2010Prop43
 90
        3
102
RTVSPost2010PropOp43
 70
     1
102
RTVSPost2010Prop44ColorIndex
 90
        5
102
RTVSPost2010Prop44ColorRGB
 90
      255
102
RTVSPost2010PropOp44
 70
     1
102
RTVSPost2010Prop45
280
     0
102
RTVSPost2010PropOp45
 70
     1
102
RTVSPost2010Prop46
 90
       50
102
RTVSPost2010PropOp46
 70
     1
102
RTVSPost2010Prop47
 90
       50
102
RTVSPost2010PropOp47
 70
     1
102
RTVSPost2010Prop48
 90
       50
102
RTVSPost2010PropOp48
 70
     1
102
RTVSPost2010Prop49
280
     0
102
RTVSPost2010PropOp49
 70
     1
102
RTVSPost2010Prop50
 90
       50
102
RTVSPost2010PropOp50
 70
     1
102
RTVSPost2010Prop51ColorIndex
 90
      256
102
RTVSPost2010Prop51ColorRGB
 90
-16777216
102
RTVSPost2010PropOp51
 70
     0
102
RTVSPost2010Prop52
140
1.0
102
RTVSPost2010PropOp52
 70
     0
102
RTVSPost2010Prop53
 90
        2
102
RTVSPost2010PropOp53
 70
     1
102
RTVSPost2010Prop54
  1
strokes_ogs.tif
102
RTVSPost2010PropOp54
 70
     1
102
RTVSPost2010Prop55
280
     0
102
RTVSPost2010PropOp55
 70
     1
102
RTVSPost2010Prop56
140
1.0
102
RTVSPost2010PropOp56
 70
     1
102
RTVSPost2010Prop57
140
1.0
102
RTVSPost2010PropOp57
 70
     1
  0
XRECORD
  5
13A4
102
{ACAD_REACTORS
330
13A3
102
}
330
13A3
100
AcDbXrecord
280
     1
102
RTVSPost2010Prop28
280
     0
102
RTVSPost2010PropOp28
 70
     1
102
RTVSPost2010Prop29
280
     1
102
RTVSPost2010PropOp29
 70
     1
102
RTVSPost2010Prop30
280
     1
102
RTVSPost2010PropOp30
 70
     1
102
RTVSPost2010Prop31
280
     0
102
RTVSPost2010PropOp31
 70
     1
102
RTVSPost2010Prop32
280
     0
102
RTVSPost2010PropOp32
 70
     1
102
RTVSPost2010Prop33
280
     0
102
RTVSPost2010PropOp33
 70
     1
102
RTVSPost2010Prop34
280
     0
102
RTVSPost2010PropOp34
 70
     1
102
RTVSPost2010Prop35
280
     0
102
RTVSPost2010PropOp35
 70
     1
102
RTVSPost2010Prop36
280
     0
102
RTVSPost2010PropOp36
 70
     1
102
RTVSPost2010Prop37
 90
       50
102
RTVSPost2010PropOp37
 70
     1
102
RTVSPost2010Prop38
140
0.0
102
RTVSPost2010PropOp38
 70
     1
102
RTVSPost2010Prop39
140
1.0
102
RTVSPost2010PropOp39
 70
     1
102
RTVSPost2010Prop40
 90
        0
102
RTVSPost2010PropOp40
 70
     1
102
RTVSPost2010Prop41ColorIndex
 90
       18
102
RTVSPost2010Prop41ColorRGB
 90
        0
102
RTVSPost2010PropOp41
 70
     1
102
RTVSPost2010Prop42
 90
       50
102
RTVSPost2010PropOp42
 70
     1
102
RTVSPost2010Prop43
 90
        3
102
RTVSPost2010PropOp43
 70
     1
102
RTVSPost2010Prop44ColorIndex
 90
        5
102
RTVSPost2010Prop44ColorRGB
 90
      255
102
RTVSPost2010PropOp44
 70
     1
102
RTVSPost2010Prop45
280
     0
102
RTVSPost2010PropOp45
 70
     1
102
RTVSPost2010Prop46
 90
       50
102
RTVSPost2010PropOp46
 70
     1
102
RTVSPost2010Prop47
 90
       50
102
RTVSPost2010PropOp47
 70
     1
102
RTVSPost2010Prop48
 90
       50
102
RTVSPost2010PropOp48
 70
     1
102
RTVSPost2010Prop49
280
     0
102
RTVSPost2010PropOp49
 70
     1
102
RTVSPost2010Prop50
 90
       50
102
RTVSPost2010PropOp50
 70
     1
102
RTVSPost2010Prop51ColorIndex
 90
      256
102
RTVSPost2010Prop51ColorRGB
 90
-16777216
102
RTVSPost2010PropOp51
 70
     0
102
RTVSPost2010Prop52
140
1.0
102
RTVSPost2010PropOp52
 70
     0
102
RTVSPost2010Prop53
 90
        2
102
RTVSPost2010PropOp53
 70
     1
102
RTVSPost2010Prop54
  1
strokes_ogs.tif
102
RTVSPost2010PropOp54
 70
     1
102
RTVSPost2010Prop55
280
     0
102
RTVSPost2010PropOp55
 70
     1
102
RTVSPost2010Prop56
140
1.0
102
RTVSPost2010PropOp56
 70
     1
102
RTVSPost2010Prop57
140
1.0
102
RTVSPost2010PropOp57
 70
     1
  0
XRECORD
  5
13B2
102
{ACAD_REACTORS
330
13B1
102
}
330
13B1
100
AcDbXrecord
280
     1
102
RTVSPost2010Prop28
280
     0
102
RTVSPost2010PropOp28
 70
     1
102
RTVSPost2010Prop29
280
     1
102
RTVSPost2010PropOp29
 70
     1
102
RTVSPost2010Prop30
280
     1
102
RTVSPost2010PropOp30
 70
     1
102
RTVSPost2010Prop31
280
     0
102
RTVSPost2010PropOp31
 70
     1
102
RTVSPost2010Prop32
280
     0
102
RTVSPost2010PropOp32
 70
     1
102
RTVSPost2010Prop33
280
     0
102
RTVSPost2010PropOp33
 70
     1
102
RTVSPost2010Prop34
280
     0
102
RTVSPost2010PropOp34
 70
     1
102
RTVSPost2010Prop35
280
     0
102
RTVSPost2010PropOp35
 70
     1
102
RTVSPost2010Prop36
280
     0
102
RTVSPost2010PropOp36
 70
     1
102
RTVSPost2010Prop37
 90
       50
102
RTVSPost2010PropOp37
 70
     1
102
RTVSPost2010Prop38
140
0.0
102
RTVSPost2010PropOp38
 70
     1
102
RTVSPost2010Prop39
140
1.0
102
RTVSPost2010PropOp39
 70
     1
102
RTVSPost2010Prop40
 90
        0
102
RTVSPost2010PropOp40
 70
     1
102
RTVSPost2010Prop41ColorIndex
 90
       18
102
RTVSPost2010Prop41ColorRGB
 90
        0
102
RTVSPost2010PropOp41
 70
     1
102
RTVSPost2010Prop42
 90
       50
102
RTVSPost2010PropOp42
 70
     1
102
RTVSPost2010Prop43
 90
        3
102
RTVSPost2010PropOp43
 70
     1
102
RTVSPost2010Prop44ColorIndex
 90
        5
102
RTVSPost2010Prop44ColorRGB
 90
      255
102
RTVSPost2010PropOp44
 70
     1
102
RTVSPost2010Prop45
280
     0
102
RTVSPost2010PropOp45
 70
     1
102
RTVSPost2010Prop46
 90
       50
102
RTVSPost2010PropOp46
 70
     1
102
RTVSPost2010Prop47
 90
       50
102
RTVSPost2010PropOp47
 70
     1
102
RTVSPost2010Prop48
 90
       50
102
RTVSPost2010PropOp48
 70
     1
102
RTVSPost2010Prop49
280
     0
102
RTVSPost2010PropOp49
 70
     1
102
RTVSPost2010Prop50
 90
       50
102
RTVSPost2010PropOp50
 70
     1
102
RTVSPost2010Prop51ColorIndex
 90
      256
102
RTVSPost2010Prop51ColorRGB
 90
-16777216
102
RTVSPost2010PropOp51
 70
     0
102
RTVSPost2010Prop52
140
1.0
102
RTVSPost2010PropOp52
 70
     0
102
RTVSPost2010Prop53
 90
        2
102
RTVSPost2010PropOp53
 70
     1
102
RTVSPost2010Prop54
  1
strokes_ogs.tif
102
RTVSPost2010PropOp54
 70
     1
102
RTVSPost2010Prop55
280
     0
102
RTVSPost2010PropOp55
 70
     1
102
RTVSPost2010Prop56
140
1.0
102
RTVSPost2010PropOp56
 70
     1
102
RTVSPost2010Prop57
140
1.0
102
RTVSPost2010PropOp57
 70
     1
  0
XRECORD
  5
13BA
102
{ACAD_REACTORS
330
13B9
102
}
330
13B9
100
AcDbXrecord
280
     1
102
RTVSPost2010Prop28
280
     0
102
RTVSPost2010PropOp28
 70
     1
102
RTVSPost2010Prop29
280
     1
102
RTVSPost2010PropOp29
 70
     1
102
RTVSPost2010Prop30
280
     1
102
RTVSPost2010PropOp30
 70
     1
102
RTVSPost2010Prop31
280
     0
102
RTVSPost2010PropOp31
 70
     1
102
RTVSPost2010Prop32
280
     0
102
RTVSPost2010PropOp32
 70
     1
102
RTVSPost2010Prop33
280
     0
102
RTVSPost2010PropOp33
 70
     1
102
RTVSPost2010Prop34
280
     0
102
RTVSPost2010PropOp34
 70
     1
102
RTVSPost2010Prop35
280
     0
102
RTVSPost2010PropOp35
 70
     1
102
RTVSPost2010Prop36
280
     0
102
RTVSPost2010PropOp36
 70
     1
102
RTVSPost2010Prop37
 90
       50
102
RTVSPost2010PropOp37
 70
     1
102
RTVSPost2010Prop38
140
0.0
102
RTVSPost2010PropOp38
 70
     1
102
RTVSPost2010Prop39
140
1.0
102
RTVSPost2010PropOp39
 70
     1
102
RTVSPost2010Prop40
 90
        0
102
RTVSPost2010PropOp40
 70
     1
102
RTVSPost2010Prop41ColorIndex
 90
       18
102
RTVSPost2010Prop41ColorRGB
 90
        0
102
RTVSPost2010PropOp41
 70
     1
102
RTVSPost2010Prop42
 90
       50
102
RTVSPost2010PropOp42
 70
     1
102
RTVSPost2010Prop43
 90
        3
102
RTVSPost2010PropOp43
 70
     1
102
RTVSPost2010Prop44ColorIndex
 90
        5
102
RTVSPost2010Prop44ColorRGB
 90
      255
102
RTVSPost2010PropOp44
 70
     1
102
RTVSPost2010Prop45
280
     0
102
RTVSPost2010PropOp45
 70
     1
102
RTVSPost2010Prop46
 90
       50
102
RTVSPost2010PropOp46
 70
     1
102
RTVSPost2010Prop47
 90
       50
102
RTVSPost2010PropOp47
 70
     1
102
RTVSPost2010Prop48
 90
       50
102
RTVSPost2010PropOp48
 70
     1
102
RTVSPost2010Prop49
280
     0
102
RTVSPost2010PropOp49
 70
     1
102
RTVSPost2010Prop50
 90
       50
102
RTVSPost2010PropOp50
 70
     1
102
RTVSPost2010Prop51ColorIndex
 90
      256
102
RTVSPost2010Prop51ColorRGB
 90
-16777216
102
RTVSPost2010PropOp51
 70
     0
102
RTVSPost2010Prop52
140
1.0
102
RTVSPost2010PropOp52
 70
     0
102
RTVSPost2010Prop53
 90
        2
102
RTVSPost2010PropOp53
 70
     1
102
RTVSPost2010Prop54
  1
strokes_ogs.tif
102
RTVSPost2010PropOp54
 70
     1
102
RTVSPost2010Prop55
280
     0
102
RTVSPost2010PropOp55
 70
     1
102
RTVSPost2010Prop56
140
1.0
102
RTVSPost2010PropOp56
 70
     1
102
RTVSPost2010Prop57
140
1.0
102
RTVSPost2010PropOp57
 70
     1
  0
XRECORD
  5
13AC
102
{ACAD_REACTORS
330
13AB
102
}
330
13AB
100
AcDbXrecord
280
     1
102
RTVSPost2010Prop28
280
     0
102
RTVSPost2010PropOp28
 70
     1
102
RTVSPost2010Prop29
280
     1
102
RTVSPost2010PropOp29
 70
     1
102
RTVSPost2010Prop30
280
     1
102
RTVSPost2010PropOp30
 70
     1
102
RTVSPost2010Prop31
280
     0
102
RTVSPost2010PropOp31
 70
     1
102
RTVSPost2010Prop32
280
     0
102
RTVSPost2010PropOp32
 70
     1
102
RTVSPost2010Prop33
280
     0
102
RTVSPost2010PropOp33
 70
     1
102
RTVSPost2010Prop34
280
     0
102
RTVSPost2010PropOp34
 70
     1
102
RTVSPost2010Prop35
280
     0
102
RTVSPost2010PropOp35
 70
     1
102
RTVSPost2010Prop36
280
     0
102
RTVSPost2010PropOp36
 70
     1
102
RTVSPost2010Prop37
 90
       50
102
RTVSPost2010PropOp37
 70
     1
102
RTVSPost2010Prop38
140
0.0
102
RTVSPost2010PropOp38
 70
     1
102
RTVSPost2010Prop39
140
1.0
102
RTVSPost2010PropOp39
 70
     1
102
RTVSPost2010Prop40
 90
        0
102
RTVSPost2010PropOp40
 70
     1
102
RTVSPost2010Prop41ColorIndex
 90
       18
102
RTVSPost2010Prop41ColorRGB
 90
        0
102
RTVSPost2010PropOp41
 70
     1
102
RTVSPost2010Prop42
 90
       50
102
RTVSPost2010PropOp42
 70
     1
102
RTVSPost2010Prop43
 90
        3
102
RTVSPost2010PropOp43
 70
     1
102
RTVSPost2010Prop44ColorIndex
 90
        5
102
RTVSPost2010Prop44ColorRGB
 90
      255
102
RTVSPost2010PropOp44
 70
     1
102
RTVSPost2010Prop45
280
     0
102
RTVSPost2010PropOp45
 70
     1
102
RTVSPost2010Prop46
 90
       50
102
RTVSPost2010PropOp46
 70
     1
102
RTVSPost2010Prop47
 90
       50
102
RTVSPost2010PropOp47
 70
     1
102
RTVSPost2010Prop48
 90
       50
102
RTVSPost2010PropOp48
 70
     1
102
RTVSPost2010Prop49
280
     0
102
RTVSPost2010PropOp49
 70
     1
102
RTVSPost2010Prop50
 90
       50
102
RTVSPost2010PropOp50
 70
     1
102
RTVSPost2010Prop51ColorIndex
 90
      256
102
RTVSPost2010Prop51ColorRGB
 90
-16777216
102
RTVSPost2010PropOp51
 70
     0
102
RTVSPost2010Prop52
140
1.0
102
RTVSPost2010PropOp52
 70
     0
102
RTVSPost2010Prop53
 90
        2
102
RTVSPost2010PropOp53
 70
     1
102
RTVSPost2010Prop54
  1
strokes_ogs.tif
102
RTVSPost2010PropOp54
 70
     1
102
RTVSPost2010Prop55
280
     0
102
RTVSPost2010PropOp55
 70
     1
102
RTVSPost2010Prop56
140
1.0
102
RTVSPost2010PropOp56
 70
     1
102
RTVSPost2010Prop57
140
1.0
102
RTVSPost2010PropOp57
 70
     1
  0
XRECORD
  5
13B0
102
{ACAD_REACTORS
330
13AF
102
}
330
13AF
100
AcDbXrecord
280
     1
102
RTVSPost2010Prop28
280
     0
102
RTVSPost2010PropOp28
 70
     1
102
RTVSPost2010Prop29
280
     1
102
RTVSPost2010PropOp29
 70
     1
102
RTVSPost2010Prop30
280
     1
102
RTVSPost2010PropOp30
 70
     1
102
RTVSPost2010Prop31
280
     0
102
RTVSPost2010PropOp31
 70
     1
102
RTVSPost2010Prop32
280
     0
102
RTVSPost2010PropOp32
 70
     1
102
RTVSPost2010Prop33
280
     0
102
RTVSPost2010PropOp33
 70
     1
102
RTVSPost2010Prop34
280
     0
102
RTVSPost2010PropOp34
 70
     1
102
RTVSPost2010Prop35
280
     0
102
RTVSPost2010PropOp35
 70
     1
102
RTVSPost2010Prop36
280
     0
102
RTVSPost2010PropOp36
 70
     1
102
RTVSPost2010Prop37
 90
       50
102
RTVSPost2010PropOp37
 70
     1
102
RTVSPost2010Prop38
140
0.0
102
RTVSPost2010PropOp38
 70
     1
102
RTVSPost2010Prop39
140
1.0
102
RTVSPost2010PropOp39
 70
     1
102
RTVSPost2010Prop40
 90
        0
102
RTVSPost2010PropOp40
 70
     1
102
RTVSPost2010Prop41ColorIndex
 90
       18
102
RTVSPost2010Prop41ColorRGB
 90
        0
102
RTVSPost2010PropOp41
 70
     1
102
RTVSPost2010Prop42
 90
       50
102
RTVSPost2010PropOp42
 70
     1
102
RTVSPost2010Prop43
 90
        3
102
RTVSPost2010PropOp43
 70
     1
102
RTVSPost2010Prop44ColorIndex
 90
        5
102
RTVSPost2010Prop44ColorRGB
 90
      255
102
RTVSPost2010PropOp44
 70
     1
102
RTVSPost2010Prop45
280
     0
102
RTVSPost2010PropOp45
 70
     1
102
RTVSPost2010Prop46
 90
       50
102
RTVSPost2010PropOp46
 70
     1
102
RTVSPost2010Prop47
 90
       50
102
RTVSPost2010PropOp47
 70
     1
102
RTVSPost2010Prop48
 90
       50
102
RTVSPost2010PropOp48
 70
     1
102
RTVSPost2010Prop49
280
     0
102
RTVSPost2010PropOp49
 70
     1
102
RTVSPost2010Prop50
 90
       50
102
RTVSPost2010PropOp50
 70
     1
102
RTVSPost2010Prop51ColorIndex
 90
      256
102
RTVSPost2010Prop51ColorRGB
 90
-16777216
102
RTVSPost2010PropOp51
 70
     0
102
RTVSPost2010Prop52
140
1.0
102
RTVSPost2010PropOp52
 70
     0
102
RTVSPost2010Prop53
 90
        2
102
RTVSPost2010PropOp53
 70
     1
102
RTVSPost2010Prop54
  1
strokes_ogs.tif
102
RTVSPost2010PropOp54
 70
     1
102
RTVSPost2010Prop55
280
     0
102
RTVSPost2010PropOp55
 70
     1
102
RTVSPost2010Prop56
140
1.0
102
RTVSPost2010PropOp56
 70
     1
102
RTVSPost2010Prop57
140
1.0
102
RTVSPost2010PropOp57
 70
     1
  0
XRECORD
  5
13CA
102
{ACAD_REACTORS
330
13C9
102
}
330
13C9
100
AcDbXrecord
280
     1
102
RTVSPost2010Prop28
280
     0
102
RTVSPost2010PropOp28
 70
     0
102
RTVSPost2010Prop29
280
     1
102
RTVSPost2010PropOp29
 70
     0
102
RTVSPost2010Prop30
280
     1
102
RTVSPost2010PropOp30
 70
     0
102
RTVSPost2010Prop31
280
     0
102
RTVSPost2010PropOp31
 70
     0
102
RTVSPost2010Prop32
280
     0
102
RTVSPost2010PropOp32
 70
     0
102
RTVSPost2010Prop33
280
     0
102
RTVSPost2010PropOp33
 70
     0
102
RTVSPost2010Prop34
280
     0
102
RTVSPost2010PropOp34
 70
     0
102
RTVSPost2010Prop35
280
     0
102
RTVSPost2010PropOp35
 70
     0
102
RTVSPost2010Prop36
280
     0
102
RTVSPost2010PropOp36
 70
     0
102
RTVSPost2010Prop37
 90
       50
102
RTVSPost2010PropOp37
 70
     0
102
RTVSPost2010Prop38
140
0.0
102
RTVSPost2010PropOp38
 70
     0
102
RTVSPost2010Prop39
140
1.0
102
RTVSPost2010PropOp39
 70
     0
102
RTVSPost2010Prop40
 90
        0
102
RTVSPost2010PropOp40
 70
     0
102
RTVSPost2010Prop41ColorIndex
 90
       18
102
RTVSPost2010Prop41ColorRGB
 90
        0
102
RTVSPost2010PropOp41
 70
     0
102
RTVSPost2010Prop42
 90
       50
102
RTVSPost2010PropOp42
 70
     0
102
RTVSPost2010Prop43
 90
        3
102
RTVSPost2010PropOp43
 70
     0
102
RTVSPost2010Prop44ColorIndex
 90
        5
102
RTVSPost2010Prop44ColorRGB
 90
      255
102
RTVSPost2010PropOp44
 70
     0
102
RTVSPost2010Prop45
280
     0
102
RTVSPost2010PropOp45
 70
     0
102
RTVSPost2010Prop46
 90
       50
102
RTVSPost2010PropOp46
 70
     0
102
RTVSPost2010Prop47
 90
       50
102
RTVSPost2010PropOp47
 70
     0
102
RTVSPost2010Prop48
 90
       50
102
RTVSPost2010PropOp48
 70
     0
102
RTVSPost2010Prop49
280
     0
102
RTVSPost2010PropOp49
 70
     0
102
RTVSPost2010Prop50
 90
       50
102
RTVSPost2010PropOp50
 70
     0
102
RTVSPost2010Prop51ColorIndex
 90
      256
102
RTVSPost2010Prop51ColorRGB
 90
-16777216
102
RTVSPost2010PropOp51
 70
     0
102
RTVSPost2010Prop52
140
1.0
102
RTVSPost2010PropOp52
 70
     0
102
RTVSPost2010Prop53
 90
        2
102
RTVSPost2010PropOp53
 70
     0
102
RTVSPost2010Prop54
  1
strokes_ogs.tif
102
RTVSPost2010PropOp54
 70
     0
102
RTVSPost2010Prop55
280
     0
102
RTVSPost2010PropOp55
 70
     0
102
RTVSPost2010Prop56
140
1.0
102
RTVSPost2010PropOp56
 70
     0
102
RTVSPost2010Prop57
140
1.0
102
RTVSPost2010PropOp57
 70
     0
  0
XRECORD
  5
13B8
102
{ACAD_REACTORS
330
13B7
102
}
330
13B7
100
AcDbXrecord
280
     1
102
RTVSPost2010Prop28
280
     0
102
RTVSPost2010PropOp28
 70
     1
102
RTVSPost2010Prop29
280
     1
102
RTVSPost2010PropOp29
 70
     1
102
RTVSPost2010Prop30
280
     1
102
RTVSPost2010PropOp30
 70
     1
102
RTVSPost2010Prop31
280
     0
102
RTVSPost2010PropOp31
 70
     1
102
RTVSPost2010Prop32
280
     0
102
RTVSPost2010PropOp32
 70
     1
102
RTVSPost2010Prop33
280
     0
102
RTVSPost2010PropOp33
 70
     1
102
RTVSPost2010Prop34
280
     0
102
RTVSPost2010PropOp34
 70
     1
102
RTVSPost2010Prop35
280
     0
102
RTVSPost2010PropOp35
 70
     1
102
RTVSPost2010Prop36
280
     0
102
RTVSPost2010PropOp36
 70
     1
102
RTVSPost2010Prop37
 90
       50
102
RTVSPost2010PropOp37
 70
     1
102
RTVSPost2010Prop38
140
0.0
102
RTVSPost2010PropOp38
 70
     1
102
RTVSPost2010Prop39
140
1.0
102
RTVSPost2010PropOp39
 70
     1
102
RTVSPost2010Prop40
 90
        0
102
RTVSPost2010PropOp40
 70
     1
102
RTVSPost2010Prop41ColorIndex
 90
       18
102
RTVSPost2010Prop41ColorRGB
 90
        0
102
RTVSPost2010PropOp41
 70
     1
102
RTVSPost2010Prop42
 90
       50
102
RTVSPost2010PropOp42
 70
     1
102
RTVSPost2010Prop43
 90
        3
102
RTVSPost2010PropOp43
 70
     1
102
RTVSPost2010Prop44ColorIndex
 90
        5
102
RTVSPost2010Prop44ColorRGB
 90
      255
102
RTVSPost2010PropOp44
 70
     1
102
RTVSPost2010Prop45
280
     0
102
RTVSPost2010PropOp45
 70
     1
102
RTVSPost2010Prop46
 90
       50
102
RTVSPost2010PropOp46
 70
     1
102
RTVSPost2010Prop47
 90
       50
102
RTVSPost2010PropOp47
 70
     1
102
RTVSPost2010Prop48
 90
       50
102
RTVSPost2010PropOp48
 70
     1
102
RTVSPost2010Prop49
280
     0
102
RTVSPost2010PropOp49
 70
     1
102
RTVSPost2010Prop50
 90
       50
102
RTVSPost2010PropOp50
 70
     1
102
RTVSPost2010Prop51ColorIndex
 90
      256
102
RTVSPost2010Prop51ColorRGB
 90
-16777216
102
RTVSPost2010PropOp51
 70
     0
102
RTVSPost2010Prop52
140
1.0
102
RTVSPost2010PropOp52
 70
     0
102
RTVSPost2010Prop53
 90
        2
102
RTVSPost2010PropOp53
 70
     1
102
RTVSPost2010Prop54
  1
strokes_ogs.tif
102
RTVSPost2010PropOp54
 70
     1
102
RTVSPost2010Prop55
280
     0
102
RTVSPost2010PropOp55
 70
     1
102
RTVSPost2010Prop56
140
1.0
102
RTVSPost2010PropOp56
 70
     1
102
RTVSPost2010Prop57
140
1.0
102
RTVSPost2010PropOp57
 70
     1
  0
XRECORD
  5
139C
102
{ACAD_REACTORS
330
139B
102
}
330
139B
100
AcDbXrecord
280
     1
102
RTVSPost2010Prop28
280
     0
102
RTVSPost2010PropOp28
 70
     1
102
RTVSPost2010Prop29
280
     1
102
RTVSPost2010PropOp29
 70
     1
102
RTVSPost2010Prop30
280
     1
102
RTVSPost2010PropOp30
 70
     1
102
RTVSPost2010Prop31
280
     0
102
RTVSPost2010PropOp31
 70
     1
102
RTVSPost2010Prop32
280
     0
102
RTVSPost2010PropOp32
 70
     1
102
RTVSPost2010Prop33
280
     0
102
RTVSPost2010PropOp33
 70
     1
102
RTVSPost2010Prop34
280
     0
102
RTVSPost2010PropOp34
 70
     1
102
RTVSPost2010Prop35
280
     0
102
RTVSPost2010PropOp35
 70
     1
102
RTVSPost2010Prop36
280
     0
102
RTVSPost2010PropOp36
 70
     1
102
RTVSPost2010Prop37
 90
       50
102
RTVSPost2010PropOp37
 70
     1
102
RTVSPost2010Prop38
140
0.0
102
RTVSPost2010PropOp38
 70
     1
102
RTVSPost2010Prop39
140
1.0
102
RTVSPost2010PropOp39
 70
     1
102
RTVSPost2010Prop40
 90
        0
102
RTVSPost2010PropOp40
 70
     1
102
RTVSPost2010Prop41ColorIndex
 90
       18
102
RTVSPost2010Prop41ColorRGB
 90
        0
102
RTVSPost2010PropOp41
 70
     1
102
RTVSPost2010Prop42
 90
       50
102
RTVSPost2010PropOp42
 70
     1
102
RTVSPost2010Prop43
 90
        3
102
RTVSPost2010PropOp43
 70
     1
102
RTVSPost2010Prop44ColorIndex
 90
        5
102
RTVSPost2010Prop44ColorRGB
 90
      255
102
RTVSPost2010PropOp44
 70
     1
102
RTVSPost2010Prop45
280
     0
102
RTVSPost2010PropOp45
 70
     1
102
RTVSPost2010Prop46
 90
       50
102
RTVSPost2010PropOp46
 70
     1
102
RTVSPost2010Prop47
 90
       50
102
RTVSPost2010PropOp47
 70
     1
102
RTVSPost2010Prop48
 90
       50
102
RTVSPost2010PropOp48
 70
     1
102
RTVSPost2010Prop49
280
     0
102
RTVSPost2010PropOp49
 70
     1
102
RTVSPost2010Prop50
 90
       50
102
RTVSPost2010PropOp50
 70
     1
102
RTVSPost2010Prop51ColorIndex
 90
      256
102
RTVSPost2010Prop51ColorRGB
 90
-16777216
102
RTVSPost2010PropOp51
 70
     0
102
RTVSPost2010Prop52
140
1.0
102
RTVSPost2010PropOp52
 70
     0
102
RTVSPost2010Prop53
 90
        2
102
RTVSPost2010PropOp53
 70
     1
102
RTVSPost2010Prop54
  1
strokes_ogs.tif
102
RTVSPost2010PropOp54
 70
     1
102
RTVSPost2010Prop55
280
     0
102
RTVSPost2010PropOp55
 70
     1
102
RTVSPost2010Prop56
140
1.0
102
RTVSPost2010PropOp56
 70
     1
102
RTVSPost2010Prop57
140
1.0
102
RTVSPost2010PropOp57
 70
     1
  0
XRECORD
  5
139E
102
{ACAD_REACTORS
330
139D
102
}
330
139D
100
AcDbXrecord
280
     1
102
RTVSPost2010Prop28
280
     0
102
RTVSPost2010PropOp28
 70
     1
102
RTVSPost2010Prop29
280
     1
102
RTVSPost2010PropOp29
 70
     1
102
RTVSPost2010Prop30
280
     1
102
RTVSPost2010PropOp30
 70
     1
102
RTVSPost2010Prop31
280
     0
102
RTVSPost2010PropOp31
 70
     1
102
RTVSPost2010Prop32
280
     0
102
RTVSPost2010PropOp32
 70
     1
102
RTVSPost2010Prop33
280
     0
102
RTVSPost2010PropOp33
 70
     1
102
RTVSPost2010Prop34
280
     0
102
RTVSPost2010PropOp34
 70
     1
102
RTVSPost2010Prop35
280
     0
102
RTVSPost2010PropOp35
 70
     1
102
RTVSPost2010Prop36
280
     0
102
RTVSPost2010PropOp36
 70
     1
102
RTVSPost2010Prop37
 90
       50
102
RTVSPost2010PropOp37
 70
     1
102
RTVSPost2010Prop38
140
0.0
102
RTVSPost2010PropOp38
 70
     1
102
RTVSPost2010Prop39
140
1.0
102
RTVSPost2010PropOp39
 70
     1
102
RTVSPost2010Prop40
 90
        0
102
RTVSPost2010PropOp40
 70
     1
102
RTVSPost2010Prop41ColorIndex
 90
       18
102
RTVSPost2010Prop41ColorRGB
 90
        0
102
RTVSPost2010PropOp41
 70
     1
102
RTVSPost2010Prop42
 90
       50
102
RTVSPost2010PropOp42
 70
     1
102
RTVSPost2010Prop43
 90
        3
102
RTVSPost2010PropOp43
 70
     1
102
RTVSPost2010Prop44ColorIndex
 90
        5
102
RTVSPost2010Prop44ColorRGB
 90
      255
102
RTVSPost2010PropOp44
 70
     1
102
RTVSPost2010Prop45
280
     0
102
RTVSPost2010PropOp45
 70
     1
102
RTVSPost2010Prop46
 90
       50
102
RTVSPost2010PropOp46
 70
     1
102
RTVSPost2010Prop47
 90
       50
102
RTVSPost2010PropOp47
 70
     1
102
RTVSPost2010Prop48
 90
       50
102
RTVSPost2010PropOp48
 70
     1
102
RTVSPost2010Prop49
280
     0
102
RTVSPost2010PropOp49
 70
     1
102
RTVSPost2010Prop50
 90
       50
102
RTVSPost2010PropOp50
 70
     1
102
RTVSPost2010Prop51ColorIndex
 90
      256
102
RTVSPost2010Prop51ColorRGB
 90
-16777216
102
RTVSPost2010PropOp51
 70
     0
102
RTVSPost2010Prop52
140
1.0
102
RTVSPost2010PropOp52
 70
     0
102
RTVSPost2010Prop53
 90
        2
102
RTVSPost2010PropOp53
 70
     1
102
RTVSPost2010Prop54
  1
strokes_ogs.tif
102
RTVSPost2010PropOp54
 70
     1
102
RTVSPost2010Prop55
280
     0
102
RTVSPost2010PropOp55
 70
     1
102
RTVSPost2010Prop56
140
1.0
102
RTVSPost2010PropOp56
 70
     1
102
RTVSPost2010Prop57
140
1.0
102
RTVSPost2010PropOp57
 70
     1
  0
XRECORD
  5
13A0
102
{ACAD_REACTORS
330
139F
102
}
330
139F
100
AcDbXrecord
280
     1
102
RTVSPost2010Prop28
280
     0
102
RTVSPost2010PropOp28
 70
     1
102
RTVSPost2010Prop29
280
     1
102
RTVSPost2010PropOp29
 70
     1
102
RTVSPost2010Prop30
280
     1
102
RTVSPost2010PropOp30
 70
     1
102
RTVSPost2010Prop31
280
     0
102
RTVSPost2010PropOp31
 70
     1
102
RTVSPost2010Prop32
280
     0
102
RTVSPost2010PropOp32
 70
     1
102
RTVSPost2010Prop33
280
     0
102
RTVSPost2010PropOp33
 70
     1
102
RTVSPost2010Prop34
280
     0
102
RTVSPost2010PropOp34
 70
     1
102
RTVSPost2010Prop35
280
     0
102
RTVSPost2010PropOp35
 70
     1
102
RTVSPost2010Prop36
280
     0
102
RTVSPost2010PropOp36
 70
     1
102
RTVSPost2010Prop37
 90
       50
102
RTVSPost2010PropOp37
 70
     1
102
RTVSPost2010Prop38
140
0.0
102
RTVSPost2010PropOp38
 70
     1
102
RTVSPost2010Prop39
140
1.0
102
RTVSPost2010PropOp39
 70
     1
102
RTVSPost2010Prop40
 90
        0
102
RTVSPost2010PropOp40
 70
     1
102
RTVSPost2010Prop41ColorIndex
 90
       18
102
RTVSPost2010Prop41ColorRGB
 90
        0
102
RTVSPost2010PropOp41
 70
     1
102
RTVSPost2010Prop42
 90
       50
102
RTVSPost2010PropOp42
 70
     1
102
RTVSPost2010Prop43
 90
        3
102
RTVSPost2010PropOp43
 70
     1
102
RTVSPost2010Prop44ColorIndex
 90
        5
102
RTVSPost2010Prop44ColorRGB
 90
      255
102
RTVSPost2010PropOp44
 70
     1
102
RTVSPost2010Prop45
280
     0
102
RTVSPost2010PropOp45
 70
     1
102
RTVSPost2010Prop46
 90
       50
102
RTVSPost2010PropOp46
 70
     1
102
RTVSPost2010Prop47
 90
       50
102
RTVSPost2010PropOp47
 70
     1
102
RTVSPost2010Prop48
 90
       50
102
RTVSPost2010PropOp48
 70
     1
102
RTVSPost2010Prop49
280
     0
102
RTVSPost2010PropOp49
 70
     1
102
RTVSPost2010Prop50
 90
       50
102
RTVSPost2010PropOp50
 70
     1
102
RTVSPost2010Prop51ColorIndex
 90
      256
102
RTVSPost2010Prop51ColorRGB
 90
-16777216
102
RTVSPost2010PropOp51
 70
     0
102
RTVSPost2010Prop52
140
1.0
102
RTVSPost2010PropOp52
 70
     0
102
RTVSPost2010Prop53
 90
        2
102
RTVSPost2010PropOp53
 70
     1
102
RTVSPost2010Prop54
  1
strokes_ogs.tif
102
RTVSPost2010PropOp54
 70
     1
102
RTVSPost2010Prop55
280
     0
102
RTVSPost2010PropOp55
 70
     1
102
RTVSPost2010Prop56
140
1.0
102
RTVSPost2010PropOp56
 70
     1
102
RTVSPost2010Prop57
140
1.0
102
RTVSPost2010PropOp57
 70
     1
  0
XRECORD
  5
13A2
102
{ACAD_REACTORS
330
13A1
102
}
330
13A1
100
AcDbXrecord
280
     1
102
RTVSPost2010Prop28
280
     0
102
RTVSPost2010PropOp28
 70
     1
102
RTVSPost2010Prop29
280
     1
102
RTVSPost2010PropOp29
 70
     1
102
RTVSPost2010Prop30
280
     1
102
RTVSPost2010PropOp30
 70
     1
102
RTVSPost2010Prop31
280
     0
102
RTVSPost2010PropOp31
 70
     1
102
RTVSPost2010Prop32
280
     0
102
RTVSPost2010PropOp32
 70
     1
102
RTVSPost2010Prop33
280
     0
102
RTVSPost2010PropOp33
 70
     1
102
RTVSPost2010Prop34
280
     0
102
RTVSPost2010PropOp34
 70
     1
102
RTVSPost2010Prop35
280
     0
102
RTVSPost2010PropOp35
 70
     1
102
RTVSPost2010Prop36
280
     0
102
RTVSPost2010PropOp36
 70
     1
102
RTVSPost2010Prop37
 90
       50
102
RTVSPost2010PropOp37
 70
     1
102
RTVSPost2010Prop38
140
0.0
102
RTVSPost2010PropOp38
 70
     1
102
RTVSPost2010Prop39
140
1.0
102
RTVSPost2010PropOp39
 70
     1
102
RTVSPost2010Prop40
 90
        0
102
RTVSPost2010PropOp40
 70
     1
102
RTVSPost2010Prop41ColorIndex
 90
       18
102
RTVSPost2010Prop41ColorRGB
 90
        0
102
RTVSPost2010PropOp41
 70
     1
102
RTVSPost2010Prop42
 90
       50
102
RTVSPost2010PropOp42
 70
     1
102
RTVSPost2010Prop43
 90
        3
102
RTVSPost2010PropOp43
 70
     1
102
RTVSPost2010Prop44ColorIndex
 90
        5
102
RTVSPost2010Prop44ColorRGB
 90
      255
102
RTVSPost2010PropOp44
 70
     1
102
RTVSPost2010Prop45
280
     0
102
RTVSPost2010PropOp45
 70
     1
102
RTVSPost2010Prop46
 90
       50
102
RTVSPost2010PropOp46
 70
     1
102
RTVSPost2010Prop47
 90
       50
102
RTVSPost2010PropOp47
 70
     1
102
RTVSPost2010Prop48
 90
       50
102
RTVSPost2010PropOp48
 70
     1
102
RTVSPost2010Prop49
280
     0
102
RTVSPost2010PropOp49
 70
     1
102
RTVSPost2010Prop50
 90
       50
102
RTVSPost2010PropOp50
 70
     1
102
RTVSPost2010Prop51ColorIndex
 90
      256
102
RTVSPost2010Prop51ColorRGB
 90
-16777216
102
RTVSPost2010PropOp51
 70
     0
102
RTVSPost2010Prop52
140
1.0
102
RTVSPost2010PropOp52
 70
     0
102
RTVSPost2010Prop53
 90
        2
102
RTVSPost2010PropOp53
 70
     1
102
RTVSPost2010Prop54
  1
strokes_ogs.tif
102
RTVSPost2010PropOp54
 70
     1
102
RTVSPost2010Prop55
280
     0
102
RTVSPost2010PropOp55
 70
     1
102
RTVSPost2010Prop56
140
1.0
102
RTVSPost2010PropOp56
 70
     1
102
RTVSPost2010Prop57
140
1.0
102
RTVSPost2010PropOp57
 70
     1
  0
XRECORD
  5
13AA
102
{ACAD_REACTORS
330
13A9
102
}
330
13A9
100
AcDbXrecord
280
     1
102
RTVSPost2010Prop28
280
     0
102
RTVSPost2010PropOp28
 70
     1
102
RTVSPost2010Prop29
280
     1
102
RTVSPost2010PropOp29
 70
     1
102
RTVSPost2010Prop30
280
     1
102
RTVSPost2010PropOp30
 70
     1
102
RTVSPost2010Prop31
280
     0
102
RTVSPost2010PropOp31
 70
     1
102
RTVSPost2010Prop32
280
     0
102
RTVSPost2010PropOp32
 70
     1
102
RTVSPost2010Prop33
280
     0
102
RTVSPost2010PropOp33
 70
     1
102
RTVSPost2010Prop34
280
     0
102
RTVSPost2010PropOp34
 70
     1
102
RTVSPost2010Prop35
280
     0
102
RTVSPost2010PropOp35
 70
     1
102
RTVSPost2010Prop36
280
     0
102
RTVSPost2010PropOp36
 70
     1
102
RTVSPost2010Prop37
 90
       50
102
RTVSPost2010PropOp37
 70
     1
102
RTVSPost2010Prop38
140
0.0
102
RTVSPost2010PropOp38
 70
     1
102
RTVSPost2010Prop39
140
1.0
102
RTVSPost2010PropOp39
 70
     1
102
RTVSPost2010Prop40
 90
        0
102
RTVSPost2010PropOp40
 70
     1
102
RTVSPost2010Prop41ColorIndex
 90
       18
102
RTVSPost2010Prop41ColorRGB
 90
        0
102
RTVSPost2010PropOp41
 70
     1
102
RTVSPost2010Prop42
 90
       50
102
RTVSPost2010PropOp42
 70
     1
102
RTVSPost2010Prop43
 90
        3
102
RTVSPost2010PropOp43
 70
     1
102
RTVSPost2010Prop44ColorIndex
 90
        5
102
RTVSPost2010Prop44ColorRGB
 90
      255
102
RTVSPost2010PropOp44
 70
     1
102
RTVSPost2010Prop45
280
     0
102
RTVSPost2010PropOp45
 70
     1
102
RTVSPost2010Prop46
 90
       50
102
RTVSPost2010PropOp46
 70
     1
102
RTVSPost2010Prop47
 90
       50
102
RTVSPost2010PropOp47
 70
     1
102
RTVSPost2010Prop48
 90
       50
102
RTVSPost2010PropOp48
 70
     1
102
RTVSPost2010Prop49
280
     0
102
RTVSPost2010PropOp49
 70
     1
102
RTVSPost2010Prop50
 90
       50
102
RTVSPost2010PropOp50
 70
     1
102
RTVSPost2010Prop51ColorIndex
 90
      256
102
RTVSPost2010Prop51ColorRGB
 90
-16777216
102
RTVSPost2010PropOp51
 70
     0
102
RTVSPost2010Prop52
140
1.0
102
RTVSPost2010PropOp52
 70
     0
102
RTVSPost2010Prop53
 90
        2
102
RTVSPost2010PropOp53
 70
     1
102
RTVSPost2010Prop54
  1
strokes_ogs.tif
102
RTVSPost2010PropOp54
 70
     1
102
RTVSPost2010Prop55
280
     0
102
RTVSPost2010PropOp55
 70
     1
102
RTVSPost2010Prop56
140
1.0
102
RTVSPost2010PropOp56
 70
     1
102
RTVSPost2010Prop57
140
1.0
102
RTVSPost2010PropOp57
 70
     1
  0
XRECORD
  5
13C6
102
{ACAD_REACTORS
330
13C5
102
}
330
13C5
100
AcDbXrecord
280
     1
102
RTVSPost2010Prop28
280
     0
102
RTVSPost2010PropOp28
 70
     0
102
RTVSPost2010Prop29
280
     1
102
RTVSPost2010PropOp29
 70
     0
102
RTVSPost2010Prop30
280
     1
102
RTVSPost2010PropOp30
 70
     0
102
RTVSPost2010Prop31
280
     0
102
RTVSPost2010PropOp31
 70
     0
102
RTVSPost2010Prop32
280
     0
102
RTVSPost2010PropOp32
 70
     0
102
RTVSPost2010Prop33
280
     0
102
RTVSPost2010PropOp33
 70
     0
102
RTVSPost2010Prop34
280
     0
102
RTVSPost2010PropOp34
 70
     0
102
RTVSPost2010Prop35
280
     0
102
RTVSPost2010PropOp35
 70
     0
102
RTVSPost2010Prop36
280
     0
102
RTVSPost2010PropOp36
 70
     0
102
RTVSPost2010Prop37
 90
       50
102
RTVSPost2010PropOp37
 70
     0
102
RTVSPost2010Prop38
140
0.0
102
RTVSPost2010PropOp38
 70
     0
102
RTVSPost2010Prop39
140
1.0
102
RTVSPost2010PropOp39
 70
     0
102
RTVSPost2010Prop40
 90
        0
102
RTVSPost2010PropOp40
 70
     0
102
RTVSPost2010Prop41ColorIndex
 90
       18
102
RTVSPost2010Prop41ColorRGB
 90
        0
102
RTVSPost2010PropOp41
 70
     0
102
RTVSPost2010Prop42
 90
       50
102
RTVSPost2010PropOp42
 70
     0
102
RTVSPost2010Prop43
 90
        3
102
RTVSPost2010PropOp43
 70
     0
102
RTVSPost2010Prop44ColorIndex
 90
        5
102
RTVSPost2010Prop44ColorRGB
 90
      255
102
RTVSPost2010PropOp44
 70
     0
102
RTVSPost2010Prop45
280
     0
102
RTVSPost2010PropOp45
 70
     0
102
RTVSPost2010Prop46
 90
       50
102
RTVSPost2010PropOp46
 70
     0
102
RTVSPost2010Prop47
 90
       50
102
RTVSPost2010PropOp47
 70
     0
102
RTVSPost2010Prop48
 90
       50
102
RTVSPost2010PropOp48
 70
     0
102
RTVSPost2010Prop49
280
     0
102
RTVSPost2010PropOp49
 70
     0
102
RTVSPost2010Prop50
 90
       50
102
RTVSPost2010PropOp50
 70
     0
102
RTVSPost2010Prop51ColorIndex
 90
      256
102
RTVSPost2010Prop51ColorRGB
 90
-16777216
102
RTVSPost2010PropOp51
 70
     0
102
RTVSPost2010Prop52
140
1.0
102
RTVSPost2010PropOp52
 70
     0
102
RTVSPost2010Prop53
 90
        2
102
RTVSPost2010PropOp53
 70
     0
102
RTVSPost2010Prop54
  1
strokes_ogs.tif
102
RTVSPost2010PropOp54
 70
     0
102
RTVSPost2010Prop55
280
     0
102
RTVSPost2010PropOp55
 70
     0
102
RTVSPost2010Prop56
140
1.0
102
RTVSPost2010PropOp56
 70
     0
102
RTVSPost2010Prop57
140
1.0
102
RTVSPost2010PropOp57
 70
     0
  0
XRECORD
  5
13B6
102
{ACAD_REACTORS
330
13B5
102
}
330
13B5
100
AcDbXrecord
280
     1
102
RTVSPost2010Prop28
280
     0
102
RTVSPost2010PropOp28
 70
     1
102
RTVSPost2010Prop29
280
     1
102
RTVSPost2010PropOp29
 70
     1
102
RTVSPost2010Prop30
280
     1
102
RTVSPost2010PropOp30
 70
     1
102
RTVSPost2010Prop31
280
     0
102
RTVSPost2010PropOp31
 70
     1
102
RTVSPost2010Prop32
280
     0
102
RTVSPost2010PropOp32
 70
     1
102
RTVSPost2010Prop33
280
     0
102
RTVSPost2010PropOp33
 70
     1
102
RTVSPost2010Prop34
280
     0
102
RTVSPost2010PropOp34
 70
     1
102
RTVSPost2010Prop35
280
     0
102
RTVSPost2010PropOp35
 70
     1
102
RTVSPost2010Prop36
280
     0
102
RTVSPost2010PropOp36
 70
     1
102
RTVSPost2010Prop37
 90
       50
102
RTVSPost2010PropOp37
 70
     1
102
RTVSPost2010Prop38
140
0.0
102
RTVSPost2010PropOp38
 70
     1
102
RTVSPost2010Prop39
140
1.0
102
RTVSPost2010PropOp39
 70
     1
102
RTVSPost2010Prop40
 90
        0
102
RTVSPost2010PropOp40
 70
     1
102
RTVSPost2010Prop41ColorIndex
 90
       18
102
RTVSPost2010Prop41ColorRGB
 90
        0
102
RTVSPost2010PropOp41
 70
     1
102
RTVSPost2010Prop42
 90
       50
102
RTVSPost2010PropOp42
 70
     1
102
RTVSPost2010Prop43
 90
        3
102
RTVSPost2010PropOp43
 70
     1
102
RTVSPost2010Prop44ColorIndex
 90
        5
102
RTVSPost2010Prop44ColorRGB
 90
      255
102
RTVSPost2010PropOp44
 70
     1
102
RTVSPost2010Prop45
280
     0
102
RTVSPost2010PropOp45
 70
     1
102
RTVSPost2010Prop46
 90
       50
102
RTVSPost2010PropOp46
 70
     1
102
RTVSPost2010Prop47
 90
       50
102
RTVSPost2010PropOp47
 70
     1
102
RTVSPost2010Prop48
 90
       50
102
RTVSPost2010PropOp48
 70
     1
102
RTVSPost2010Prop49
280
     0
102
RTVSPost2010PropOp49
 70
     1
102
RTVSPost2010Prop50
 90
       50
102
RTVSPost2010PropOp50
 70
     1
102
RTVSPost2010Prop51ColorIndex
 90
      256
102
RTVSPost2010Prop51ColorRGB
 90
-16777216
102
RTVSPost2010PropOp51
 70
     0
102
RTVSPost2010Prop52
140
1.0
102
RTVSPost2010PropOp52
 70
     0
102
RTVSPost2010Prop53
 90
        2
102
RTVSPost2010PropOp53
 70
     1
102
RTVSPost2010Prop54
  1
strokes_ogs.tif
102
RTVSPost2010PropOp54
 70
     1
102
RTVSPost2010Prop55
280
     0
102
RTVSPost2010PropOp55
 70
     1
102
RTVSPost2010Prop56
140
1.0
102
RTVSPost2010PropOp56
 70
     1
102
RTVSPost2010Prop57
140
1.0
102
RTVSPost2010PropOp57
 70
     1
  0
XRECORD
  5
13C8
102
{ACAD_REACTORS
330
13C7
102
}
330
13C7
100
AcDbXrecord
280
     1
102
RTVSPost2010Prop28
280
     0
102
RTVSPost2010PropOp28
 70
     0
102
RTVSPost2010Prop29
280
     1
102
RTVSPost2010PropOp29
 70
     0
102
RTVSPost2010Prop30
280
     1
102
RTVSPost2010PropOp30
 70
     0
102
RTVSPost2010Prop31
280
     0
102
RTVSPost2010PropOp31
 70
     0
102
RTVSPost2010Prop32
280
     0
102
RTVSPost2010PropOp32
 70
     0
102
RTVSPost2010Prop33
280
     0
102
RTVSPost2010PropOp33
 70
     0
102
RTVSPost2010Prop34
280
     0
102
RTVSPost2010PropOp34
 70
     0
102
RTVSPost2010Prop35
280
     0
102
RTVSPost2010PropOp35
 70
     0
102
RTVSPost2010Prop36
280
     0
102
RTVSPost2010PropOp36
 70
     0
102
RTVSPost2010Prop37
 90
       50
102
RTVSPost2010PropOp37
 70
     0
102
RTVSPost2010Prop38
140
0.0
102
RTVSPost2010PropOp38
 70
     0
102
RTVSPost2010Prop39
140
1.0
102
RTVSPost2010PropOp39
 70
     0
102
RTVSPost2010Prop40
 90
        0
102
RTVSPost2010PropOp40
 70
     0
102
RTVSPost2010Prop41ColorIndex
 90
       18
102
RTVSPost2010Prop41ColorRGB
 90
        0
102
RTVSPost2010PropOp41
 70
     0
102
RTVSPost2010Prop42
 90
       50
102
RTVSPost2010PropOp42
 70
     0
102
RTVSPost2010Prop43
 90
        3
102
RTVSPost2010PropOp43
 70
     0
102
RTVSPost2010Prop44ColorIndex
 90
        5
102
RTVSPost2010Prop44ColorRGB
 90
      255
102
RTVSPost2010PropOp44
 70
     0
102
RTVSPost2010Prop45
280
     0
102
RTVSPost2010PropOp45
 70
     0
102
RTVSPost2010Prop46
 90
       50
102
RTVSPost2010PropOp46
 70
     0
102
RTVSPost2010Prop47
 90
       50
102
RTVSPost2010PropOp47
 70
     0
102
RTVSPost2010Prop48
 90
       50
102
RTVSPost2010PropOp48
 70
     0
102
RTVSPost2010Prop49
280
     0
102
RTVSPost2010PropOp49
 70
     0
102
RTVSPost2010Prop50
 90
       50
102
RTVSPost2010PropOp50
 70
     0
102
RTVSPost2010Prop51ColorIndex
 90
      256
102
RTVSPost2010Prop51ColorRGB
 90
-16777216
102
RTVSPost2010PropOp51
 70
     0
102
RTVSPost2010Prop52
140
1.0
102
RTVSPost2010PropOp52
 70
     0
102
RTVSPost2010Prop53
 90
        2
102
RTVSPost2010PropOp53
 70
     0
102
RTVSPost2010Prop54
  1
strokes_ogs.tif
102
RTVSPost2010PropOp54
 70
     0
102
RTVSPost2010Prop55
280
     0
102
RTVSPost2010PropOp55
 70
     0
102
RTVSPost2010Prop56
140
1.0
102
RTVSPost2010PropOp56
 70
     0
102
RTVSPost2010Prop57
140
1.0
102
RTVSPost2010PropOp57
 70
     0
  0
XRECORD
  5
13AE
102
{ACAD_REACTORS
330
13AD
102
}
330
13AD
100
AcDbXrecord
280
     1
102
RTVSPost2010Prop28
280
     0
102
RTVSPost2010PropOp28
 70
     1
102
RTVSPost2010Prop29
280
     1
102
RTVSPost2010PropOp29
 70
     1
102
RTVSPost2010Prop30
280
     1
102
RTVSPost2010PropOp30
 70
     1
102
RTVSPost2010Prop31
280
     0
102
RTVSPost2010PropOp31
 70
     1
102
RTVSPost2010Prop32
280
     0
102
RTVSPost2010PropOp32
 70
     1
102
RTVSPost2010Prop33
280
     0
102
RTVSPost2010PropOp33
 70
     1
102
RTVSPost2010Prop34
280
     0
102
RTVSPost2010PropOp34
 70
     1
102
RTVSPost2010Prop35
280
     0
102
RTVSPost2010PropOp35
 70
     1
102
RTVSPost2010Prop36
280
     0
102
RTVSPost2010PropOp36
 70
     1
102
RTVSPost2010Prop37
 90
       50
102
RTVSPost2010PropOp37
 70
     1
102
RTVSPost2010Prop38
140
0.0
102
RTVSPost2010PropOp38
 70
     1
102
RTVSPost2010Prop39
140
1.0
102
RTVSPost2010PropOp39
 70
     1
102
RTVSPost2010Prop40
 90
        0
102
RTVSPost2010PropOp40
 70
     1
102
RTVSPost2010Prop41ColorIndex
 90
       18
102
RTVSPost2010Prop41ColorRGB
 90
        0
102
RTVSPost2010PropOp41
 70
     1
102
RTVSPost2010Prop42
 90
       50
102
RTVSPost2010PropOp42
 70
     1
102
RTVSPost2010Prop43
 90
        3
102
RTVSPost2010PropOp43
 70
     1
102
RTVSPost2010Prop44ColorIndex
 90
        5
102
RTVSPost2010Prop44ColorRGB
 90
      255
102
RTVSPost2010PropOp44
 70
     1
102
RTVSPost2010Prop45
280
     0
102
RTVSPost2010PropOp45
 70
     1
102
RTVSPost2010Prop46
 90
       50
102
RTVSPost2010PropOp46
 70
     1
102
RTVSPost2010Prop47
 90
       50
102
RTVSPost2010PropOp47
 70
     1
102
RTVSPost2010Prop48
 90
       50
102
RTVSPost2010PropOp48
 70
     1
102
RTVSPost2010Prop49
280
     0
102
RTVSPost2010PropOp49
 70
     1
102
RTVSPost2010Prop50
 90
       50
102
RTVSPost2010PropOp50
 70
     1
102
RTVSPost2010Prop51ColorIndex
 90
      256
102
RTVSPost2010Prop51ColorRGB
 90
-16777216
102
RTVSPost2010PropOp51
 70
     0
102
RTVSPost2010Prop52
140
1.0
102
RTVSPost2010PropOp52
 70
     0
102
RTVSPost2010Prop53
 90
        2
102
RTVSPost2010PropOp53
 70
     1
102
RTVSPost2010Prop54
  1
strokes_ogs.tif
102
RTVSPost2010PropOp54
 70
     1
102
RTVSPost2010Prop55
280
     0
102
RTVSPost2010PropOp55
 70
     1
102
RTVSPost2010Prop56
140
1.0
102
RTVSPost2010PropOp56
 70
     1
102
RTVSPost2010Prop57
140
1.0
102
RTVSPost2010PropOp57
 70
     1
  0
XRECORD
  5
13C4
102
{ACAD_REACTORS
330
13C3
102
}
330
13C3
100
AcDbXrecord
280
     1
102
RTVSPost2010Prop28
280
     0
102
RTVSPost2010PropOp28
 70
     1
102
RTVSPost2010Prop29
280
     1
102
RTVSPost2010PropOp29
 70
     1
102
RTVSPost2010Prop30
280
     1
102
RTVSPost2010PropOp30
 70
     1
102
RTVSPost2010Prop31
280
     0
102
RTVSPost2010PropOp31
 70
     1
102
RTVSPost2010Prop32
280
     0
102
RTVSPost2010PropOp32
 70
     1
102
RTVSPost2010Prop33
280
     0
102
RTVSPost2010PropOp33
 70
     1
102
RTVSPost2010Prop34
280
     0
102
RTVSPost2010PropOp34
 70
     1
102
RTVSPost2010Prop35
280
     0
102
RTVSPost2010PropOp35
 70
     1
102
RTVSPost2010Prop36
280
     0
102
RTVSPost2010PropOp36
 70
     1
102
RTVSPost2010Prop37
 90
       50
102
RTVSPost2010PropOp37
 70
     1
102
RTVSPost2010Prop38
140
0.0
102
RTVSPost2010PropOp38
 70
     1
102
RTVSPost2010Prop39
140
1.0
102
RTVSPost2010PropOp39
 70
     1
102
RTVSPost2010Prop40
 90
        0
102
RTVSPost2010PropOp40
 70
     1
102
RTVSPost2010Prop41ColorIndex
 90
       18
102
RTVSPost2010Prop41ColorRGB
 90
        0
102
RTVSPost2010PropOp41
 70
     1
102
RTVSPost2010Prop42
 90
       50
102
RTVSPost2010PropOp42
 70
     1
102
RTVSPost2010Prop43
 90
        3
102
RTVSPost2010PropOp43
 70
     1
102
RTVSPost2010Prop44ColorIndex
 90
        5
102
RTVSPost2010Prop44ColorRGB
 90
      255
102
RTVSPost2010PropOp44
 70
     1
102
RTVSPost2010Prop45
280
     0
102
RTVSPost2010PropOp45
 70
     1
102
RTVSPost2010Prop46
 90
       50
102
RTVSPost2010PropOp46
 70
     1
102
RTVSPost2010Prop47
 90
       50
102
RTVSPost2010PropOp47
 70
     1
102
RTVSPost2010Prop48
 90
       50
102
RTVSPost2010PropOp48
 70
     1
102
RTVSPost2010Prop49
280
     0
102
RTVSPost2010PropOp49
 70
     1
102
RTVSPost2010Prop50
 90
       50
102
RTVSPost2010PropOp50
 70
     1
102
RTVSPost2010Prop51ColorIndex
 90
      256
102
RTVSPost2010Prop51ColorRGB
 90
-16777216
102
RTVSPost2010PropOp51
 70
     0
102
RTVSPost2010Prop52
140
1.0
102
RTVSPost2010PropOp52
 70
     0
102
RTVSPost2010Prop53
 90
        2
102
RTVSPost2010PropOp53
 70
     1
102
RTVSPost2010Prop54
  1
strokes_ogs.tif
102
RTVSPost2010PropOp54
 70
     1
102
RTVSPost2010Prop55
280
     0
102
RTVSPost2010PropOp55
 70
     1
102
RTVSPost2010Prop56
140
1.0
102
RTVSPost2010PropOp56
 70
     1
102
RTVSPost2010Prop57
140
1.0
102
RTVSPost2010PropOp57
 70
     1
  0
XRECORD
  5
13C2
102
{ACAD_REACTORS
330
13C1
102
}
330
13C1
100
AcDbXrecord
280
     1
102
RTVSPost2010Prop28
280
     0
102
RTVSPost2010PropOp28
 70
     1
102
RTVSPost2010Prop29
280
     1
102
RTVSPost2010PropOp29
 70
     1
102
RTVSPost2010Prop30
280
     1
102
RTVSPost2010PropOp30
 70
     1
102
RTVSPost2010Prop31
280
     0
102
RTVSPost2010PropOp31
 70
     1
102
RTVSPost2010Prop32
280
     0
102
RTVSPost2010PropOp32
 70
     1
102
RTVSPost2010Prop33
280
     0
102
RTVSPost2010PropOp33
 70
     1
102
RTVSPost2010Prop34
280
     0
102
RTVSPost2010PropOp34
 70
     1
102
RTVSPost2010Prop35
280
     0
102
RTVSPost2010PropOp35
 70
     1
102
RTVSPost2010Prop36
280
     0
102
RTVSPost2010PropOp36
 70
     1
102
RTVSPost2010Prop37
 90
       50
102
RTVSPost2010PropOp37
 70
     1
102
RTVSPost2010Prop38
140
0.0
102
RTVSPost2010PropOp38
 70
     1
102
RTVSPost2010Prop39
140
1.0
102
RTVSPost2010PropOp39
 70
     1
102
RTVSPost2010Prop40
 90
        0
102
RTVSPost2010PropOp40
 70
     1
102
RTVSPost2010Prop41ColorIndex
 90
       18
102
RTVSPost2010Prop41ColorRGB
 90
        0
102
RTVSPost2010PropOp41
 70
     1
102
RTVSPost2010Prop42
 90
       50
102
RTVSPost2010PropOp42
 70
     1
102
RTVSPost2010Prop43
 90
        3
102
RTVSPost2010PropOp43
 70
     1
102
RTVSPost2010Prop44ColorIndex
 90
        5
102
RTVSPost2010Prop44ColorRGB
 90
      255
102
RTVSPost2010PropOp44
 70
     1
102
RTVSPost2010Prop45
280
     0
102
RTVSPost2010PropOp45
 70
     1
102
RTVSPost2010Prop46
 90
       50
102
RTVSPost2010PropOp46
 70
     1
102
RTVSPost2010Prop47
 90
       50
102
RTVSPost2010PropOp47
 70
     1
102
RTVSPost2010Prop48
 90
       50
102
RTVSPost2010PropOp48
 70
     1
102
RTVSPost2010Prop49
280
     0
102
RTVSPost2010PropOp49
 70
     1
102
RTVSPost2010Prop50
 90
       50
102
RTVSPost2010PropOp50
 70
     1
102
RTVSPost2010Prop51ColorIndex
 90
      256
102
RTVSPost2010Prop51ColorRGB
 90
-16777216
102
RTVSPost2010PropOp51
 70
     0
102
RTVSPost2010Prop52
140
1.0
102
RTVSPost2010PropOp52
 70
     0
102
RTVSPost2010Prop53
 90
        2
102
RTVSPost2010PropOp53
 70
     1
102
RTVSPost2010Prop54
  1
strokes_ogs.tif
102
RTVSPost2010PropOp54
 70
     1
102
RTVSPost2010Prop55
280
     0
102
RTVSPost2010PropOp55
 70
     1
102
RTVSPost2010Prop56
140
1.0
102
RTVSPost2010PropOp56
 70
     1
102
RTVSPost2010Prop57
140
1.0
102
RTVSPost2010PropOp57
 70
     1
  0
XRECORD
  5
13BC
102
{ACAD_REACTORS
330
13BB
102
}
330
13BB
100
AcDbXrecord
280
     1
102
RTVSPost2010Prop28
280
     0
102
RTVSPost2010PropOp28
 70
     1
102
RTVSPost2010Prop29
280
     1
102
RTVSPost2010PropOp29
 70
     1
102
RTVSPost2010Prop30
280
     1
102
RTVSPost2010PropOp30
 70
     1
102
RTVSPost2010Prop31
280
     0
102
RTVSPost2010PropOp31
 70
     1
102
RTVSPost2010Prop32
280
     0
102
RTVSPost2010PropOp32
 70
     1
102
RTVSPost2010Prop33
280
     0
102
RTVSPost2010PropOp33
 70
     1
102
RTVSPost2010Prop34
280
     0
102
RTVSPost2010PropOp34
 70
     1
102
RTVSPost2010Prop35
280
     0
102
RTVSPost2010PropOp35
 70
     1
102
RTVSPost2010Prop36
280
     0
102
RTVSPost2010PropOp36
 70
     1
102
RTVSPost2010Prop37
 90
       50
102
RTVSPost2010PropOp37
 70
     1
102
RTVSPost2010Prop38
140
0.0
102
RTVSPost2010PropOp38
 70
     1
102
RTVSPost2010Prop39
140
1.0
102
RTVSPost2010PropOp39
 70
     1
102
RTVSPost2010Prop40
 90
        0
102
RTVSPost2010PropOp40
 70
     1
102
RTVSPost2010Prop41ColorIndex
 90
       18
102
RTVSPost2010Prop41ColorRGB
 90
        0
102
RTVSPost2010PropOp41
 70
     1
102
RTVSPost2010Prop42
 90
       50
102
RTVSPost2010PropOp42
 70
     1
102
RTVSPost2010Prop43
 90
        3
102
RTVSPost2010PropOp43
 70
     1
102
RTVSPost2010Prop44ColorIndex
 90
        5
102
RTVSPost2010Prop44ColorRGB
 90
      255
102
RTVSPost2010PropOp44
 70
     1
102
RTVSPost2010Prop45
280
     0
102
RTVSPost2010PropOp45
 70
     1
102
RTVSPost2010Prop46
 90
       50
102
RTVSPost2010PropOp46
 70
     1
102
RTVSPost2010Prop47
 90
       50
102
RTVSPost2010PropOp47
 70
     1
102
RTVSPost2010Prop48
 90
       50
102
RTVSPost2010PropOp48
 70
     1
102
RTVSPost2010Prop49
280
     0
102
RTVSPost2010PropOp49
 70
     1
102
RTVSPost2010Prop50
 90
       50
102
RTVSPost2010PropOp50
 70
     1
102
RTVSPost2010Prop51ColorIndex
 90
      256
102
RTVSPost2010Prop51ColorRGB
 90
-16777216
102
RTVSPost2010PropOp51
 70
     0
102
RTVSPost2010Prop52
140
1.0
102
RTVSPost2010PropOp52
 70
     0
102
RTVSPost2010Prop53
 90
        2
102
RTVSPost2010PropOp53
 70
     1
102
RTVSPost2010Prop54
  1
strokes_ogs.tif
102
RTVSPost2010PropOp54
 70
     1
102
RTVSPost2010Prop55
280
     0
102
RTVSPost2010PropOp55
 70
     1
102
RTVSPost2010Prop56
140
1.0
102
RTVSPost2010PropOp56
 70
     1
102
RTVSPost2010Prop57
140
1.0
102
RTVSPost2010PropOp57
 70
     1
  0
XRECORD
  5
13BE
102
{ACAD_REACTORS
330
13BD
102
}
330
13BD
100
AcDbXrecord
280
     1
102
RTVSPost2010Prop28
280
     0
102
RTVSPost2010PropOp28
 70
     1
102
RTVSPost2010Prop29
280
     1
102
RTVSPost2010PropOp29
 70
     1
102
RTVSPost2010Prop30
280
     1
102
RTVSPost2010PropOp30
 70
     1
102
RTVSPost2010Prop31
280
     0
102
RTVSPost2010PropOp31
 70
     1
102
RTVSPost2010Prop32
280
     0
102
RTVSPost2010PropOp32
 70
     1
102
RTVSPost2010Prop33
280
     0
102
RTVSPost2010PropOp33
 70
     1
102
RTVSPost2010Prop34
280
     0
102
RTVSPost2010PropOp34
 70
     1
102
RTVSPost2010Prop35
280
     0
102
RTVSPost2010PropOp35
 70
     1
102
RTVSPost2010Prop36
280
     0
102
RTVSPost2010PropOp36
 70
     1
102
RTVSPost2010Prop37
 90
       50
102
RTVSPost2010PropOp37
 70
     1
102
RTVSPost2010Prop38
140
0.0
102
RTVSPost2010PropOp38
 70
     1
102
RTVSPost2010Prop39
140
1.0
102
RTVSPost2010PropOp39
 70
     1
102
RTVSPost2010Prop40
 90
        0
102
RTVSPost2010PropOp40
 70
     1
102
RTVSPost2010Prop41ColorIndex
 90
       18
102
RTVSPost2010Prop41ColorRGB
 90
        0
102
RTVSPost2010PropOp41
 70
     1
102
RTVSPost2010Prop42
 90
       50
102
RTVSPost2010PropOp42
 70
     1
102
RTVSPost2010Prop43
 90
        3
102
RTVSPost2010PropOp43
 70
     1
102
RTVSPost2010Prop44ColorIndex
 90
        5
102
RTVSPost2010Prop44ColorRGB
 90
      255
102
RTVSPost2010PropOp44
 70
     1
102
RTVSPost2010Prop45
280
     0
102
RTVSPost2010PropOp45
 70
     1
102
RTVSPost2010Prop46
 90
       50
102
RTVSPost2010PropOp46
 70
     1
102
RTVSPost2010Prop47
 90
       50
102
RTVSPost2010PropOp47
 70
     1
102
RTVSPost2010Prop48
 90
       50
102
RTVSPost2010PropOp48
 70
     1
102
RTVSPost2010Prop49
280
     0
102
RTVSPost2010PropOp49
 70
     1
102
RTVSPost2010Prop50
 90
       50
102
RTVSPost2010PropOp50
 70
     1
102
RTVSPost2010Prop51ColorIndex
 90
      256
102
RTVSPost2010Prop51ColorRGB
 90
-16777216
102
RTVSPost2010PropOp51
 70
     0
102
RTVSPost2010Prop52
140
1.0
102
RTVSPost2010PropOp52
 70
     0
102
RTVSPost2010Prop53
 90
        2
102
RTVSPost2010PropOp53
 70
     1
102
RTVSPost2010Prop54
  1
strokes_ogs.tif
102
RTVSPost2010PropOp54
 70
     1
102
RTVSPost2010Prop55
280
     0
102
RTVSPost2010PropOp55
 70
     1
102
RTVSPost2010Prop56
140
1.0
102
RTVSPost2010PropOp56
 70
     1
102
RTVSPost2010Prop57
140
1.0
102
RTVSPost2010PropOp57
 70
     1
  0
XRECORD
  5
13B4
102
{ACAD_REACTORS
330
13B3
102
}
330
13B3
100
AcDbXrecord
280
     1
102
RTVSPost2010Prop28
280
     0
102
RTVSPost2010PropOp28
 70
     1
102
RTVSPost2010Prop29
280
     1
102
RTVSPost2010PropOp29
 70
     1
102
RTVSPost2010Prop30
280
     1
102
RTVSPost2010PropOp30
 70
     1
102
RTVSPost2010Prop31
280
     0
102
RTVSPost2010PropOp31
 70
     1
102
RTVSPost2010Prop32
280
     0
102
RTVSPost2010PropOp32
 70
     1
102
RTVSPost2010Prop33
280
     0
102
RTVSPost2010PropOp33
 70
     1
102
RTVSPost2010Prop34
280
     0
102
RTVSPost2010PropOp34
 70
     1
102
RTVSPost2010Prop35
280
     0
102
RTVSPost2010PropOp35
 70
     1
102
RTVSPost2010Prop36
280
     0
102
RTVSPost2010PropOp36
 70
     1
102
RTVSPost2010Prop37
 90
       50
102
RTVSPost2010PropOp37
 70
     1
102
RTVSPost2010Prop38
140
0.0
102
RTVSPost2010PropOp38
 70
     1
102
RTVSPost2010Prop39
140
1.0
102
RTVSPost2010PropOp39
 70
     1
102
RTVSPost2010Prop40
 90
        0
102
RTVSPost2010PropOp40
 70
     1
102
RTVSPost2010Prop41ColorIndex
 90
       18
102
RTVSPost2010Prop41ColorRGB
 90
        0
102
RTVSPost2010PropOp41
 70
     1
102
RTVSPost2010Prop42
 90
       50
102
RTVSPost2010PropOp42
 70
     1
102
RTVSPost2010Prop43
 90
        3
102
RTVSPost2010PropOp43
 70
     1
102
RTVSPost2010Prop44ColorIndex
 90
        5
102
RTVSPost2010Prop44ColorRGB
 90
      255
102
RTVSPost2010PropOp44
 70
     1
102
RTVSPost2010Prop45
280
     0
102
RTVSPost2010PropOp45
 70
     1
102
RTVSPost2010Prop46
 90
       50
102
RTVSPost2010PropOp46
 70
     1
102
RTVSPost2010Prop47
 90
       50
102
RTVSPost2010PropOp47
 70
     1
102
RTVSPost2010Prop48
 90
       50
102
RTVSPost2010PropOp48
 70
     1
102
RTVSPost2010Prop49
280
     0
102
RTVSPost2010PropOp49
 70
     1
102
RTVSPost2010Prop50
 90
       50
102
RTVSPost2010PropOp50
 70
     1
102
RTVSPost2010Prop51ColorIndex
 90
      256
102
RTVSPost2010Prop51ColorRGB
 90
-16777216
102
RTVSPost2010PropOp51
 70
     0
102
RTVSPost2010Prop52
140
1.0
102
RTVSPost2010PropOp52
 70
     0
102
RTVSPost2010Prop53
 90
        2
102
RTVSPost2010PropOp53
 70
     1
102
RTVSPost2010Prop54
  1
strokes_ogs.tif
102
RTVSPost2010PropOp54
 70
     1
102
RTVSPost2010Prop55
280
     0
102
RTVSPost2010PropOp55
 70
     1
102
RTVSPost2010Prop56
140
1.0
102
RTVSPost2010PropOp56
 70
     1
102
RTVSPost2010Prop57
140
1.0
102
RTVSPost2010PropOp57
 70
     1
  0
XRECORD
  5
13A8
102
{ACAD_REACTORS
330
13A7
102
}
330
13A7
100
AcDbXrecord
280
     1
102
RTVSPost2010Prop28
280
     0
102
RTVSPost2010PropOp28
 70
     1
102
RTVSPost2010Prop29
280
     1
102
RTVSPost2010PropOp29
 70
     1
102
RTVSPost2010Prop30
280
     1
102
RTVSPost2010PropOp30
 70
     1
102
RTVSPost2010Prop31
280
     0
102
RTVSPost2010PropOp31
 70
     1
102
RTVSPost2010Prop32
280
     0
102
RTVSPost2010PropOp32
 70
     1
102
RTVSPost2010Prop33
280
     0
102
RTVSPost2010PropOp33
 70
     1
102
RTVSPost2010Prop34
280
     0
102
RTVSPost2010PropOp34
 70
     1
102
RTVSPost2010Prop35
280
     0
102
RTVSPost2010PropOp35
 70
     1
102
RTVSPost2010Prop36
280
     0
102
RTVSPost2010PropOp36
 70
     1
102
RTVSPost2010Prop37
 90
       50
102
RTVSPost2010PropOp37
 70
     1
102
RTVSPost2010Prop38
140
0.0
102
RTVSPost2010PropOp38
 70
     1
102
RTVSPost2010Prop39
140
1.0
102
RTVSPost2010PropOp39
 70
     1
102
RTVSPost2010Prop40
 90
        0
102
RTVSPost2010PropOp40
 70
     1
102
RTVSPost2010Prop41ColorIndex
 90
       18
102
RTVSPost2010Prop41ColorRGB
 90
        0
102
RTVSPost2010PropOp41
 70
     1
102
RTVSPost2010Prop42
 90
       50
102
RTVSPost2010PropOp42
 70
     1
102
RTVSPost2010Prop43
 90
        3
102
RTVSPost2010PropOp43
 70
     1
102
RTVSPost2010Prop44ColorIndex
 90
        5
102
RTVSPost2010Prop44ColorRGB
 90
      255
102
RTVSPost2010PropOp44
 70
     1
102
RTVSPost2010Prop45
280
     0
102
RTVSPost2010PropOp45
 70
     1
102
RTVSPost2010Prop46
 90
       50
102
RTVSPost2010PropOp46
 70
     1
102
RTVSPost2010Prop47
 90
       50
102
RTVSPost2010PropOp47
 70
     1
102
RTVSPost2010Prop48
 90
       50
102
RTVSPost2010PropOp48
 70
     1
102
RTVSPost2010Prop49
280
     0
102
RTVSPost2010PropOp49
 70
     1
102
RTVSPost2010Prop50
 90
       50
102
RTVSPost2010PropOp50
 70
     1
102
RTVSPost2010Prop51ColorIndex
 90
      256
102
RTVSPost2010Prop51ColorRGB
 90
-16777216
102
RTVSPost2010PropOp51
 70
     0
102
RTVSPost2010Prop52
140
1.0
102
RTVSPost2010PropOp52
 70
     0
102
RTVSPost2010Prop53
 90
        2
102
RTVSPost2010PropOp53
 70
     1
102
RTVSPost2010Prop54
  1
strokes_ogs.tif
102
RTVSPost2010PropOp54
 70
     1
102
RTVSPost2010Prop55
280
     0
102
RTVSPost2010PropOp55
 70
     1
102
RTVSPost2010Prop56
140
1.0
102
RTVSPost2010PropOp56
 70
     1
102
RTVSPost2010Prop57
140
1.0
102
RTVSPost2010PropOp57
 70
     1
  0
XRECORD
  5
13C0
102
{ACAD_REACTORS
330
13BF
102
}
330
13BF
100
AcDbXrecord
280
     1
102
RTVSPost2010Prop28
280
     0
102
RTVSPost2010PropOp28
 70
     1
102
RTVSPost2010Prop29
280
     1
102
RTVSPost2010PropOp29
 70
     1
102
RTVSPost2010Prop30
280
     1
102
RTVSPost2010PropOp30
 70
     1
102
RTVSPost2010Prop31
280
     0
102
RTVSPost2010PropOp31
 70
     1
102
RTVSPost2010Prop32
280
     0
102
RTVSPost2010PropOp32
 70
     1
102
RTVSPost2010Prop33
280
     0
102
RTVSPost2010PropOp33
 70
     1
102
RTVSPost2010Prop34
280
     0
102
RTVSPost2010PropOp34
 70
     1
102
RTVSPost2010Prop35
280
     0
102
RTVSPost2010PropOp35
 70
     1
102
RTVSPost2010Prop36
280
     0
102
RTVSPost2010PropOp36
 70
     1
102
RTVSPost2010Prop37
 90
       50
102
RTVSPost2010PropOp37
 70
     1
102
RTVSPost2010Prop38
140
0.0
102
RTVSPost2010PropOp38
 70
     1
102
RTVSPost2010Prop39
140
1.0
102
RTVSPost2010PropOp39
 70
     1
102
RTVSPost2010Prop40
 90
        0
102
RTVSPost2010PropOp40
 70
     1
102
RTVSPost2010Prop41ColorIndex
 90
       18
102
RTVSPost2010Prop41ColorRGB
 90
        0
102
RTVSPost2010PropOp41
 70
     1
102
RTVSPost2010Prop42
 90
       50
102
RTVSPost2010PropOp42
 70
     1
102
RTVSPost2010Prop43
 90
        3
102
RTVSPost2010PropOp43
 70
     1
102
RTVSPost2010Prop44ColorIndex
 90
        5
102
RTVSPost2010Prop44ColorRGB
 90
      255
102
RTVSPost2010PropOp44
 70
     1
102
RTVSPost2010Prop45
280
     0
102
RTVSPost2010PropOp45
 70
     1
102
RTVSPost2010Prop46
 90
       50
102
RTVSPost2010PropOp46
 70
     1
102
RTVSPost2010Prop47
 90
       50
102
RTVSPost2010PropOp47
 70
     1
102
RTVSPost2010Prop48
 90
       50
102
RTVSPost2010PropOp48
 70
     1
102
RTVSPost2010Prop49
280
     0
102
RTVSPost2010PropOp49
 70
     1
102
RTVSPost2010Prop50
 90
       50
102
RTVSPost2010PropOp50
 70
     1
102
RTVSPost2010Prop51ColorIndex
 90
      256
102
RTVSPost2010Prop51ColorRGB
 90
-16777216
102
RTVSPost2010PropOp51
 70
     0
102
RTVSPost2010Prop52
140
1.0
102
RTVSPost2010PropOp52
 70
     0
102
RTVSPost2010Prop53
 90
        2
102
RTVSPost2010PropOp53
 70
     1
102
RTVSPost2010Prop54
  1
strokes_ogs.tif
102
RTVSPost2010PropOp54
 70
     1
102
RTVSPost2010Prop55
280
     0
102
RTVSPost2010PropOp55
 70
     1
102
RTVSPost2010Prop56
140
1.0
102
RTVSPost2010PropOp56
 70
     1
102
RTVSPost2010Prop57
140
1.0
102
RTVSPost2010PropOp57
 70
     1
  0
ENDSEC
  0
EOF
