  0
SECTION
  2
HEADER
  9
$ACADVER
  1
AC1018
  9
$ACADMAINTVER
 70
   104
  9
$DWGCODEPAGE
  3
ANSI_932
  9
$LASTSAVEDBY
  1
CPTIO008
  9
$INSBASE
 10
0.0
 20
0.0
 30
0.0
  9
$EXTMIN
 10
-138.013420764878
 20
-94.54730707188218
 30
-0.0000000000112497
  9
$EXTMAX
 10
138.6589857794169
 20
95.06450841423475
 30
0.0000000000002956
  9
$LIMMIN
 10
-1108.76554107666
 20
-542.8267288208006
  9
$LIMMAX
 10
1291.234855651856
 20
437.1732711791992
  9
$ORTHOMODE
 70
     1
  9
$REGENMODE
 70
     1
  9
$FILLMODE
 70
     1
  9
$QTEXTMODE
 70
     0
  9
$MIRRTEXT
 70
     1
  9
$LTSCALE
 40
0.3
  9
$ATTMODE
 70
     1
  9
$TEXTSIZE
 40
2.5
  9
$TRACEWID
 40
1.0
  9
$TEXTSTYLE
  7
Standard
  9
$CLAYER
  8
寸法線
  9
$CELTYPE
  6
ByLayer
  9
$CECOLOR
 62
   256
  9
$CELTSCALE
 40
1.0
  9
$DISPSILH
 70
     0
  9
$DIMSCALE
 40
1.0
  9
$DIMASZ
 40
2.5
  9
$DIMEXO
 40
0.625
  9
$DIMDLI
 40
3.75
  9
$DIMRND
 40
0.0
  9
$DIMDLE
 40
0.0
  9
$DIMEXE
 40
1.25
  9
$DIMTP
 40
0.0
  9
$DIMTM
 40
0.0
  9
$DIMTXT
 40
2.5
  9
$DIMCEN
 40
2.5
  9
$DIMTSZ
 40
0.0
  9
$DIMTOL
 70
     0
  9
$DIMLIM
 70
     0
  9
$DIMTIH
 70
     0
  9
$DIMTOH
 70
     0
  9
$DIMSE1
 70
     0
  9
$DIMSE2
 70
     0
  9
$DIMTAD
 70
     1
  9
$DIMZIN
 70
     8
  9
$DIMBLK
  1

  9
$DIMASO
 70
     1
  9
$DIMSHO
 70
     1
  9
$DIMPOST
  1

  9
$DIMAPOST
  1

  9
$DIMALT
 70
     0
  9
$DIMALTD
 70
     3
  9
$DIMALTF
 40
0.03937007874016
  9
$DIMLFAC
 40
1.0
  9
$DIMTOFL
 70
     1
  9
$DIMTVP
 40
0.0
  9
$DIMTIX
 70
     0
  9
$DIMSOXD
 70
     0
  9
$DIMSAH
 70
     0
  9
$DIMBLK1
  1

  9
$DIMBLK2
  1

  9
$DIMSTYLE
  2
ISO-25
  9
$DIMCLRD
 70
     0
  9
$DIMCLRE
 70
     0
  9
$DIMCLRT
 70
     0
  9
$DIMTFAC
 40
1.0
  9
$DIMGAP
 40
0.625
  9
$DIMJUST
 70
     0
  9
$DIMSD1
 70
     0
  9
$DIMSD2
 70
     0
  9
$DIMTOLJ
 70
     0
  9
$DIMTZIN
 70
     8
  9
$DIMALTZ
 70
     0
  9
$DIMALTTZ
 70
     0
  9
$DIMUPT
 70
     0
  9
$DIMDEC
 70
     2
  9
$DIMTDEC
 70
     2
  9
$DIMALTU
 70
     2
  9
$DIMALTTD
 70
     3
  9
$DIMTXSTY
  7
Standard
  9
$DIMAUNIT
 70
     0
  9
$DIMADEC
 70
     0
  9
$DIMALTRND
 40
0.0
  9
$DIMAZIN
 70
     0
  9
$DIMDSEP
 70
    44
  9
$DIMATFIT
 70
     3
  9
$DIMFRAC
 70
     0
  9
$DIMLDRBLK
  1

  9
$DIMLUNIT
 70
     2
  9
$DIMLWD
 70
    -2
  9
$DIMLWE
 70
    -2
  9
$DIMTMOVE
 70
     0
  9
$LUNITS
 70
     2
  9
$LUPREC
 70
     4
  9
$SKETCHINC
 40
1.0
  9
$FILLETRAD
 40
10.0
  9
$AUNITS
 70
     0
  9
$AUPREC
 70
     0
  9
$MENU
  1
.
  9
$ELEVATION
 40
0.0
  9
$PELEVATION
 40
0.0
  9
$THICKNESS
 40
0.0
  9
$LIMCHECK
 70
     0
  9
$CHAMFERA
 40
10.0
  9
$CHAMFERB
 40
10.0
  9
$CHAMFERC
 40
20.0
  9
$CHAMFERD
 40
0.0
  9
$SKPOLY
 70
     0
  9
$TDCREATE
 40
2454600.586746412
  9
$TDUCREATE
 40
2454600.211746412
  9
$TDUPDATE
 40
2457444.494926527
  9
$TDUUPDATE
 40
2457444.119926528
  9
$TDINDWG
 40
0.0246428241
  9
$TDUSRTIMER
 40
0.0246384491
  9
$USRTIMER
 70
     1
  9
$ANGBASE
 50
0.0
  9
$ANGDIR
 70
     0
  9
$PDMODE
 70
     0
  9
$PDSIZE
 40
0.0
  9
$PLINEWID
 40
0.0
  9
$SPLFRAME
 70
     0
  9
$SPLINETYPE
 70
     6
  9
$SPLINESEGS
 70
     8
  9
$HANDSEED
  5
AD4
  9
$SURFTAB1
 70
     6
  9
$SURFTAB2
 70
     6
  9
$SURFTYPE
 70
     6
  9
$SURFU
 70
     6
  9
$SURFV
 70
     6
  9
$UCSBASE
  2

  9
$UCSNAME
  2

  9
$UCSORG
 10
0.0
 20
0.0
 30
0.0
  9
$UCSXDIR
 10
1.0
 20
0.0
 30
0.0
  9
$UCSYDIR
 10
0.0
 20
1.0
 30
0.0
  9
$UCSORTHOREF
  2

  9
$UCSORTHOVIEW
 70
     0
  9
$UCSORGTOP
 10
0.0
 20
0.0
 30
0.0
  9
$UCSORGBOTTOM
 10
0.0
 20
0.0
 30
0.0
  9
$UCSORGLEFT
 10
0.0
 20
0.0
 30
0.0
  9
$UCSORGRIGHT
 10
0.0
 20
0.0
 30
0.0
  9
$UCSORGFRONT
 10
0.0
 20
0.0
 30
0.0
  9
$UCSORGBACK
 10
0.0
 20
0.0
 30
0.0
  9
$PUCSBASE
  2

  9
$PUCSNAME
  2

  9
$PUCSORG
 10
0.0
 20
0.0
 30
0.0
  9
$PUCSXDIR
 10
1.0
 20
0.0
 30
0.0
  9
$PUCSYDIR
 10
0.0
 20
1.0
 30
0.0
  9
$PUCSORTHOREF
  2

  9
$PUCSORTHOVIEW
 70
     0
  9
$PUCSORGTOP
 10
0.0
 20
0.0
 30
0.0
  9
$PUCSORGBOTTOM
 10
0.0
 20
0.0
 30
0.0
  9
$PUCSORGLEFT
 10
0.0
 20
0.0
 30
0.0
  9
$PUCSORGRIGHT
 10
0.0
 20
0.0
 30
0.0
  9
$PUCSORGFRONT
 10
0.0
 20
0.0
 30
0.0
  9
$PUCSORGBACK
 10
0.0
 20
0.0
 30
0.0
  9
$USERI1
 70
     0
  9
$USERI2
 70
     0
  9
$USERI3
 70
     0
  9
$USERI4
 70
     0
  9
$USERI5
 70
     0
  9
$USERR1
 40
0.0
  9
$USERR2
 40
0.0
  9
$USERR3
 40
0.0
  9
$USERR4
 40
0.0
  9
$USERR5
 40
0.0
  9
$WORLDVIEW
 70
     1
  9
$SHADEDGE
 70
     3
  9
$SHADEDIF
 70
    70
  9
$TILEMODE
 70
     1
  9
$MAXACTVP
 70
    64
  9
$PINSBASE
 10
0.0
 20
0.0
 30
0.0
  9
$PLIMCHECK
 70
     0
  9
$PEXTMIN
 10
1.000000000000000E+20
 20
1.000000000000000E+20
 30
1.000000000000000E+20
  9
$PEXTMAX
 10
-1.000000000000000E+20
 20
-1.000000000000000E+20
 30
-1.000000000000000E+20
  9
$PLIMMIN
 10
-1108.76554107666
 20
-542.8267288208006
  9
$PLIMMAX
 10
1291.234855651856
 20
437.1732711791992
  9
$UNITMODE
 70
     0
  9
$VISRETAIN
 70
     1
  9
$PLINEGEN
 70
     0
  9
$PSLTSCALE
 70
     1
  9
$TREEDEPTH
 70
  3020
  9
$CMLSTYLE
  2
Standard
  9
$CMLJUST
 70
     0
  9
$CMLSCALE
 40
20.0
  9
$PROXYGRAPHICS
 70
     1
  9
$MEASUREMENT
 70
     1
  9
$CELWEIGHT
370
    -1
  9
$ENDCAPS
280
     0
  9
$JOINSTYLE
280
     0
  9
$LWDISPLAY
290
     1
  9
$INSUNITS
 70
     4
  9
$HYPERLINKBASE
  1

  9
$STYLESHEET
  1
monochrome.ctb
  9
$XEDIT
290
     1
  9
$CEPSNTYPE
380
     0
  9
$PSTYLEMODE
290
     1
  9
$FINGERPRINTGUID
  2
{E5FB4FFA-165A-4D09-9484-A617FFF28E7D}
  9
$VERSIONGUID
  2
{B447BAA0-8547-41B6-B1CF-A021AD3E2DEF}
  9
$EXTNAMES
290
     1
  9
$PSVPSCALE
 40
0.0
  9
$OLESTARTUP
290
     0
  9
$SORTENTS
280
   127
  9
$INDEXCTL
280
     0
  9
$HIDETEXT
280
     0
  9
$XCLIPFRAME
290
     0
  9
$HALOGAP
280
     0
  9
$OBSCOLOR
 70
   257
  9
$OBSLTYPE
280
     0
  9
$INTERSECTIONDISPLAY
280
     0
  9
$INTERSECTIONCOLOR
 70
   257
  9
$DIMASSOC
280
     1
  9
$PROJECTNAME
  1

  0
ENDSEC
  0
SECTION
  2
CLASSES
  0
CLASS
  1
ACDBDICTIONARYWDFLT
  2
AcDbDictionaryWithDefault
  3
ObjectDBX Classes
 90
        0
 91
        1
280
     0
281
     0
  0
CLASS
  1
TABLESTYLE
  2
AcDbTableStyle
  3
ObjectDBX Classes
 90
     4095
 91
        1
280
     0
281
     0
  0
CLASS
  1
DICTIONARYVAR
  2
AcDbDictionaryVar
  3
ObjectDBX Classes
 90
        0
 91
       13
280
     0
281
     0
  0
CLASS
  1
SORTENTSTABLE
  2
AcDbSortentsTable
  3
ObjectDBX Classes
 90
        0
 91
        1
280
     0
281
     0
  0
CLASS
  1
PLOTSETTINGS
  2
AcDbPlotSettings
  3
ObjectDBX Classes
 90
        0
 91
        2
280
     0
281
     0
  0
CLASS
  1
MATERIAL
  2
AcDbMaterial
  3
ObjectDBX Classes
 90
     1153
 91
        3
280
     0
281
     0
  0
CLASS
  1
VISUALSTYLE
  2
AcDbVisualStyle
  3
ObjectDBX Classes
 90
     4095
 91
       24
280
     0
281
     0
  0
CLASS
  1
SCALE
  2
AcDbScale
  3
ObjectDBX Classes
 90
     1153
 91
       17
280
     0
281
     0
  0
CLASS
  1
MLEADERSTYLE
  2
AcDbMLeaderStyle
  3
ACDB_MLEADERSTYLE_CLASS
 90
     4095
 91
        1
280
     0
281
     0
  0
CLASS
  1
ACDBSECTIONVIEWSTYLE
  2
AcDbSectionViewStyle
  3
ObjectDBX Classes
 90
     1025
 91
        1
280
     0
281
     0
  0
CLASS
  1
ACDBDETAILVIEWSTYLE
  2
AcDbDetailViewStyle
  3
ObjectDBX Classes
 90
     1025
 91
        1
280
     0
281
     0
  0
CLASS
  1
CELLSTYLEMAP
  2
AcDbCellStyleMap
  3
ObjectDBX Classes
 90
     1152
 91
        2
280
     0
281
     0
  0
ENDSEC
  0
SECTION
  2
TABLES
  0
TABLE
  2
VPORT
  5
8
330
0
100
AcDbSymbolTable
 70
     1
  0
VPORT
  5
93D
330
8
100
AcDbSymbolTableRecord
100
AcDbViewportTableRecord
  2
*Active
 70
     0
 10
0.0
 20
0.0
 11
1.0
 21
1.0
 12
114.1577308290103
 22
-74.92404901776075
 13
0.0
 23
0.0
 14
10.0
 24
10.0
 15
10.0
 25
10.0
 16
0.0
 26
0.0
 36
1.0
 17
0.0
 27
0.0
 37
0.0
 40
127.4800212270855
 41
2.047557840616966
 42
50.0
 43
0.0
 44
0.0
 50
0.0
 51
0.0
 71
     0
 72
   100
 73
     1
 74
     3
 75
     0
 76
     0
 77
     0
 78
     0
281
     0
 65
     1
110
0.0
120
0.0
130
0.0
111
1.0
121
0.0
131
0.0
112
0.0
122
1.0
132
0.0
 79
     0
146
0.0
1001
ACAD_NAV_VCDISPLAY
1070
     3
  0
ENDTAB
  0
TABLE
  2
LTYPE
  5
5
330
0
100
AcDbSymbolTable
 70
     8
  0
LTYPE
  5
14
330
5
100
AcDbSymbolTableRecord
100
AcDbLinetypeTableRecord
  2
ByBlock
 70
     0
  3

 72
    65
 73
     0
 40
0.0
  0
LTYPE
  5
15
330
5
100
AcDbSymbolTableRecord
100
AcDbLinetypeTableRecord
  2
ByLayer
 70
     0
  3

 72
    65
 73
     0
 40
0.0
  0
LTYPE
  5
16
330
5
100
AcDbSymbolTableRecord
100
AcDbLinetypeTableRecord
  2
Continuous
 70
     0
  3
Solid line
 72
    65
 73
     0
 40
0.0
  0
LTYPE
  5
2A
330
5
100
AcDbSymbolTableRecord
100
AcDbLinetypeTableRecord
  2
CONTINOUS
 70
     0
  3
______________________________
 72
    65
 73
     0
 40
0.0
  0
LTYPE
  5
2B
330
5
100
AcDbSymbolTableRecord
100
AcDbLinetypeTableRecord
  2
DASHED
 70
     0
  3
__ __ __ __ __ __ __ __ __ __ __ __ __ __ __ __
 72
    65
 73
     2
 40
4.5
 49
3.0
 74
     0
 49
-1.5
 74
     0
  0
LTYPE
  5
2C
330
5
100
AcDbSymbolTableRecord
100
AcDbLinetypeTableRecord
  2
PHANTOM
 70
     0
  3
______  __  __  ______  __  __  _____
 72
    65
 73
     6
 40
15.0
 49
7.5
 74
     0
 49
-1.5
 74
     0
 49
1.5
 74
     0
 49
-1.5
 74
     0
 49
1.5
 74
     0
 49
-1.5
 74
     0
  0
LTYPE
  5
2D
330
5
100
AcDbSymbolTableRecord
100
AcDbLinetypeTableRecord
  2
CENTER
 70
     0
  3
____ _ ____ _ ____ _ ____ _ ____ _ ____
 72
    65
 73
     4
 40
12.0
 49
7.5
 74
     0
 49
-1.5
 74
     0
 49
1.5
 74
     0
 49
-1.5
 74
     0
  0
LTYPE
  5
28E
330
5
100
AcDbSymbolTableRecord
100
AcDbLinetypeTableRecord
  2
CENTER2
 70
     0
  3
Center (.5x) ___ _ ___ _ ___ _ ___ _ ___ _ ___
 72
    65
 73
     4
 40
28.575
 49
19.05
 74
     0
 49
-3.174999999999998
 74
     0
 49
3.174999999999998
 74
     0
 49
-3.174999999999998
 74
     0
  0
LTYPE
  5
28F
330
5
100
AcDbSymbolTableRecord
100
AcDbLinetypeTableRecord
  2
HIDDEN2
 70
     0
  3
Hidden (.5x) _ _ _ _ _ _ _ _ _ _ _ _ _ _ _ _ _
 72
    65
 73
     2
 40
4.762499999999998
 49
3.174999999999998
 74
     0
 49
-1.587499999999999
 74
     0
  0
ENDTAB
  0
TABLE
  2
LAYER
  5
2
330
0
100
AcDbSymbolTable
 70
    11
  0
LAYER
  5
10
102
{ACAD_XDICTIONARY
360
9B4
102
}
330
2
100
AcDbSymbolTableRecord
100
AcDbLayerTableRecord
  2
0
 70
     0
 62
     7
  6
Continuous
370
    -3
390
F
  0
LAYER
  5
1FF
330
2
100
AcDbSymbolTableRecord
100
AcDbLayerTableRecord
  2
Defpoints
 70
     0
 62
     7
  6
Continuous
290
     0
370
    -3
390
F
  0
LAYER
  5
269
102
{ACAD_XDICTIONARY
360
9B6
102
}
330
2
100
AcDbSymbolTableRecord
100
AcDbLayerTableRecord
  2
VIEW0001
 70
     0
 62
     7
  6
Continuous
370
    -3
390
F
  0
LAYER
  5
290
102
{ACAD_XDICTIONARY
360
9B8
102
}
330
2
100
AcDbSymbolTableRecord
100
AcDbLayerTableRecord
  2
外形線
 70
     0
 62
     7
  6
Continuous
370
    30
390
F
1001
AcAecLayerStandard
1000

1000

  0
LAYER
  5
291
102
{ACAD_XDICTIONARY
360
9BA
102
}
330
2
100
AcDbSymbolTableRecord
100
AcDbLayerTableRecord
  2
図枠
 70
     0
 62
     7
  6
Continuous
370
    50
390
F
1001
AcAecLayerStandard
1000

1000

  0
LAYER
  5
292
102
{ACAD_XDICTIONARY
360
9BC
102
}
330
2
100
AcDbSymbolTableRecord
100
AcDbLayerTableRecord
  2
寸法線
 70
     0
 62
     3
  6
Continuous
370
    15
390
F
1001
AcAecLayerStandard
1000

1000

  0
LAYER
  5
293
102
{ACAD_XDICTIONARY
360
9BE
102
}
330
2
100
AcDbSymbolTableRecord
100
AcDbLayerTableRecord
  2
中心線
 70
     0
 62
     5
  6
CENTER2
370
    -3
390
F
1001
AcAecLayerStandard
1000

1000

  0
LAYER
  5
294
102
{ACAD_XDICTIONARY
360
9C0
102
}
330
2
100
AcDbSymbolTableRecord
100
AcDbLayerTableRecord
  2
破線
 70
     0
 62
     4
  6
HIDDEN2
370
    -3
390
F
1001
AcAecLayerStandard
1000

1000

  0
LAYER
  5
295
102
{ACAD_XDICTIONARY
360
9C2
102
}
330
2
100
AcDbSymbolTableRecord
100
AcDbLayerTableRecord
  2
文字
 70
     0
 62
     2
  6
Continuous
370
    -3
390
F
1001
AcAecLayerStandard
1000

1000

  0
LAYER
  5
296
102
{ACAD_XDICTIONARY
360
9C4
102
}
330
2
100
AcDbSymbolTableRecord
100
AcDbLayerTableRecord
  2
補助線
 70
     0
 62
   252
  6
HIDDEN2
290
     0
370
    -3
390
F
1001
AcAecLayerStandard
1000

1000

  0
LAYER
  5
31E
102
{ACAD_XDICTIONARY
360
9C6
102
}
330
2
100
AcDbSymbolTableRecord
100
AcDbLayerTableRecord
  2
VIEW0002
 70
     0
 62
     7
  6
Continuous
370
    -3
390
F
  0
ENDTAB
  0
TABLE
  2
STYLE
  5
3
330
0
100
AcDbSymbolTable
 70
     3
  0
STYLE
  5
11
330
3
100
AcDbSymbolTableRecord
100
AcDbTextStyleTableRecord
  2
Standard
 70
     0
 40
0.0
 41
1.0
 50
0.0
 71
     0
 42
2.5
  3
txt
  4
EXTFONT
  0
ENDTAB
  0
TABLE
  2
VIEW
  5
6
330
0
100
AcDbSymbolTable
 70
     0
  0
ENDTAB
  0
TABLE
  2
UCS
  5
7
330
0
100
AcDbSymbolTable
 70
     0
  0
ENDTAB
  0
TABLE
  2
APPID
  5
9
330
0
100
AcDbSymbolTable
 70
     6
  0
APPID
  5
12
330
9
100
AcDbSymbolTableRecord
100
AcDbRegAppTableRecord
  2
ACAD
 70
     0
  0
APPID
  5
298
330
9
100
AcDbSymbolTableRecord
100
AcDbRegAppTableRecord
  2
AcAecLayerStandard
 70
     0
  0
APPID
  5
93B
330
9
100
AcDbSymbolTableRecord
100
AcDbRegAppTableRecord
  2
ACAD_PSEXT
 70
     0
  0
APPID
  5
9AB
330
9
100
AcDbSymbolTableRecord
100
AcDbRegAppTableRecord
  2
ACAD_NAV_VCDISPLAY
 70
     0
  0
APPID
  5
A11
330
9
100
AcDbSymbolTableRecord
100
AcDbRegAppTableRecord
  2
ACAD_EXEMPT_FROM_CAD_STANDARDS
 70
     0
  0
APPID
  5
ACF
330
9
100
AcDbSymbolTableRecord
100
AcDbRegAppTableRecord
  2
ACAD_MLEADERVER
 70
     0
  0
ENDTAB
  0
TABLE
  2
DIMSTYLE
  5
A
330
0
100
AcDbSymbolTable
 70
     5
100
AcDbDimStyleTable
 71
     1
340
27
  0
DIMSTYLE
105
27
102
{ACAD_REACTORS
330
764
330
765
330
766
330
767
330
768
330
769
330
8A6
102
}
330
A
100
AcDbSymbolTableRecord
100
AcDbDimStyleTableRecord
  2
ISO-25
 70
     0
 41
2.5
 42
0.625
 43
3.75
 44
1.25
 73
     0
 74
     0
 77
     1
 78
     8
140
2.5
141
2.5
143
0.03937007874016
147
0.625
171
     3
172
     1
271
     2
272
     2
274
     3
278
    44
283
     0
284
     8
340
11
  0
DIMSTYLE
105
297
330
A
100
AcDbSymbolTableRecord
100
AcDbDimStyleTableRecord
  2
Standard
 70
     0
340
11
  0
DIMSTYLE
105
9AA
330
A
100
AcDbSymbolTableRecord
100
AcDbDimStyleTableRecord
  2
DIMSTYLE
 70
     0
 41
1.0
 42
2.539999961853026
 44
2.54
 73
     0
 74
     0
140
3.200000047683716
147
1.600000023841858
173
     1
271
     2
275
     1
340
11
341
1F9
342
1F9
343
1F9
344
1F9
  0
ENDTAB
  0
TABLE
  2
BLOCK_RECORD
  5
1
330
0
100
AcDbSymbolTable
 70
    26
  0
BLOCK_RECORD
  5
1F
102
{ACAD_XDICTIONARY
360
30A
102
}
330
1
100
AcDbSymbolTableRecord
100
AcDbBlockTableRecord
  2
*Model_Space
340
22
  0
BLOCK_RECORD
  5
1B
330
1
100
AcDbSymbolTableRecord
100
AcDbBlockTableRecord
  2
*Paper_Space
340
1E
  0
BLOCK_RECORD
  5
23
330
1
100
AcDbSymbolTableRecord
100
AcDbBlockTableRecord
  2
*Paper_Space0
340
26
  0
BLOCK_RECORD
  5
1F9
330
1
100
AcDbSymbolTableRecord
100
AcDbBlockTableRecord
  2
_Open30
340
0
102
{BLKREFS
331
8E6
331
8E7
331
8EF
331
8F0
331
8F8
331
8F9
331
90B
331
90C
331
91E
331
91F
331
94E
331
94F
331
958
331
959
102
}
  0
BLOCK_RECORD
  5
76A
330
1
100
AcDbSymbolTableRecord
100
AcDbBlockTableRecord
  2
*D17
340
0
  0
BLOCK_RECORD
  5
776
330
1
100
AcDbSymbolTableRecord
100
AcDbBlockTableRecord
  2
*D18
340
0
  0
BLOCK_RECORD
  5
782
330
1
100
AcDbSymbolTableRecord
100
AcDbBlockTableRecord
  2
*D19
340
0
  0
BLOCK_RECORD
  5
78E
330
1
100
AcDbSymbolTableRecord
100
AcDbBlockTableRecord
  2
*D20
340
0
  0
BLOCK_RECORD
  5
79B
330
1
100
AcDbSymbolTableRecord
100
AcDbBlockTableRecord
  2
*D21
340
0
  0
BLOCK_RECORD
  5
7A7
330
1
100
AcDbSymbolTableRecord
100
AcDbBlockTableRecord
  2
*D22
340
0
  0
BLOCK_RECORD
  5
8A7
330
1
100
AcDbSymbolTableRecord
100
AcDbBlockTableRecord
  2
*D23
340
0
  0
ENDTAB
  0
ENDSEC
  0
SECTION
  2
BLOCKS
  0
BLOCK
  5
20
330
1F
100
AcDbEntity
  8
0
100
AcDbBlockBegin
  2
*Model_Space
 70
     0
 10
0.0
 20
0.0
 30
0.0
  3
*Model_Space
  1

  0
ENDBLK
  5
21
330
1F
100
AcDbEntity
  8
0
100
AcDbBlockEnd
  0
BLOCK
  5
1C
330
1B
100
AcDbEntity
 67
     1
  8
0
100
AcDbBlockBegin
  2
*Paper_Space
 70
     0
 10
0.0
 20
0.0
 30
0.0
  3
*Paper_Space
  1

  0
ENDBLK
  5
1D
330
1B
100
AcDbEntity
 67
     1
  8
0
100
AcDbBlockEnd
  0
BLOCK
  5
24
330
23
100
AcDbEntity
 67
     1
  8
0
100
AcDbBlockBegin
  2
*Paper_Space0
 70
     0
 10
0.0
 20
0.0
 30
0.0
  3
*Paper_Space0
  1

  0
ENDBLK
  5
25
330
23
100
AcDbEntity
 67
     1
  8
0
100
AcDbBlockEnd
  0
BLOCK
  5
1FA
330
1F9
100
AcDbEntity
  8
0
100
AcDbBlockBegin
  2
_Open30
 70
     0
 10
0.0
 20
0.0
 30
0.0
  3
_Open30
  1

  0
LINE
  5
1FC
330
1F9
100
AcDbEntity
  8
0
  6
ByBlock
 62
     0
370
    -2
100
AcDbLine
 10
-1.0
 20
0.267949
 30
0.0
 11
0.0
 21
0.0
 31
0.0
  0
LINE
  5
1FD
330
1F9
100
AcDbEntity
  8
0
  6
ByBlock
 62
     0
370
    -2
100
AcDbLine
 10
0.0
 20
0.0
 30
0.0
 11
-1.0
 21
-0.267949
 31
0.0
  0
LINE
  5
1FE
330
1F9
100
AcDbEntity
  8
0
  6
ByBlock
 62
     0
370
    -2
100
AcDbLine
 10
0.0
 20
0.0
 30
0.0
 11
-1.0
 21
0.0
 31
0.0
  0
ENDBLK
  5
1FB
330
1F9
100
AcDbEntity
  8
0
100
AcDbBlockEnd
  0
BLOCK
  5
774
330
76A
100
AcDbEntity
  8
0
100
AcDbBlockBegin
  2
*D17
 70
     1
 10
0.0
 20
0.0
 30
0.0
  3
*D17
  1

  0
LINE
  5
8E3
330
76A
100
AcDbEntity
  8
寸法線
 62
     0
440
 16777216
370
    -2
100
AcDbLine
 10
-58.40531156993925
 20
45.76870368485824
 30
0.0
 11
-15.15457398723186
 21
45.76870368485821
 31
0.0
  0
LINE
  5
8E4
330
76A
100
AcDbEntity
  8
寸法線
 62
     0
440
 16777216
370
    -2
100
AcDbLine
 10
-58.40530584789332
 20
-15.83330513472183
 30
0.0
 11
-15.15457398723187
 21
-15.83330513472184
 31
0.0
  0
LINE
  5
8E5
330
76A
100
AcDbEntity
  8
寸法線
 62
     0
440
 16777216
370
    -2
100
AcDbLine
 10
-17.44057398723186
 20
42.76870368485822
 30
0.0
 11
-17.44057398723187
 21
-12.83330513472184
 31
0.0
  0
INSERT
  5
8E6
330
76A
100
AcDbEntity
  8
寸法線
 62
     0
440
 16777216
370
    -2
100
AcDbBlockReference
  2
_Open30
 10
-17.44057398723186
 20
45.76870368485824
 30
0.0
 41
3.0
 42
3.0
 43
3.0
 50
90.0
  0
INSERT
  5
8E7
330
76A
100
AcDbEntity
  8
寸法線
 62
     0
440
 16777216
370
    -2
100
AcDbBlockReference
  2
_Open30
 10
-17.44057398723187
 20
-15.83330513472184
 30
0.0
 41
3.0
 42
3.0
 43
3.0
 50
270.0
  0
MTEXT
  5
8E8
330
76A
100
AcDbEntity
  8
寸法線
 62
     0
440
 16777216
100
AcDbMText
 10
-19.84057402299466
 20
14.96769927506821
 30
0.0
 40
3.200000047683716
 41
0.0
 71
     5
 72
     1
  1
L1
 11
0.0000000000000001
 21
1.0
 31
0.0
 73
     1
 44
1.0
  0
POINT
  5
8E9
330
76A
100
AcDbEntity
  8
Defpoints
 62
     0
440
 16777216
100
AcDbPoint
 10
-60.94531156993925
 20
45.76870368485824
 30
0.0
  0
POINT
  5
8EA
330
76A
100
AcDbEntity
  8
Defpoints
 62
     0
440
 16777216
100
AcDbPoint
 10
-60.94530584789332
 20
-15.83330513472182
 30
0.0
  0
POINT
  5
8EB
330
76A
100
AcDbEntity
  8
Defpoints
 62
     0
440
 16777216
100
AcDbPoint
 10
-17.44057398723187
 20
-15.83330513472184
 30
0.0
  0
ENDBLK
  5
775
330
76A
100
AcDbEntity
  8
0
100
AcDbBlockEnd
  0
BLOCK
  5
780
330
776
100
AcDbEntity
  8
0
100
AcDbBlockBegin
  2
*D18
 70
     1
 10
0.0
 20
0.0
 30
0.0
  3
*D18
  1

  0
LINE
  5
8EC
330
776
100
AcDbEntity
  8
寸法線
 62
     0
440
 16777216
370
    -2
100
AcDbLine
 10
-60.94530584789332
 20
-18.37331276411635
 30
0.0
 11
-60.94530584789332
 21
-35.30368062498644
 31
0.0
  0
LINE
  5
8ED
330
776
100
AcDbEntity
  8
寸法線
 62
     0
440
 16777216
370
    -2
100
AcDbLine
 10
-85.15129950023711
 20
-17.64858131880385
 30
0.0
 11
-85.15129950023711
 21
-35.30368062498644
 31
0.0
  0
LINE
  5
8EE
330
776
100
AcDbEntity
  8
寸法線
 62
     0
440
 16777216
370
    -2
100
AcDbLine
 10
-63.94530584789333
 20
-33.01768062498645
 30
0.0
 11
-82.15129950023714
 21
-33.01768062498645
 31
0.0
  0
INSERT
  5
8EF
330
776
100
AcDbEntity
  8
寸法線
 62
     0
440
 16777216
370
    -2
100
AcDbBlockReference
  2
_Open30
 10
-60.94530584789332
 20
-33.01768062498645
 30
0.0
 41
3.0
 42
3.0
 43
3.0
  0
INSERT
  5
8F0
330
776
100
AcDbEntity
  8
寸法線
 62
     0
440
 16777216
370
    -2
100
AcDbBlockReference
  2
_Open30
 10
-85.15129950023711
 20
-33.01768062498645
 30
0.0
 41
3.0
 42
3.0
 43
3.0
 50
180.0
  0
MTEXT
  5
8F1
102
{ACAD_XDICTIONARY
360
A98
102
}
330
776
100
AcDbEntity
  8
寸法線
 62
     0
440
 16777216
100
AcDbMText
 10
-73.28385571610393
 20
-30.61768058922365
 30
0.0
 40
3.200000047683716
 41
0.0
 71
     5
 72
     1
  1
\U+2205A
 73
     1
 44
1.0
  0
POINT
  5
8F2
330
776
100
AcDbEntity
  8
Defpoints
 62
     0
440
 16777216
100
AcDbPoint
 10
-60.94530584789332
 20
-15.83331276411636
 30
0.0
  0
POINT
  5
8F3
330
776
100
AcDbEntity
  8
Defpoints
 62
     0
440
 16777216
100
AcDbPoint
 10
-85.15129950023711
 20
-15.10858131880385
 30
0.0
  0
POINT
  5
8F4
330
776
100
AcDbEntity
  8
Defpoints
 62
     0
440
 16777216
100
AcDbPoint
 10
-85.15129950023711
 20
-33.01768062498645
 30
0.0
  0
ENDBLK
  5
781
330
776
100
AcDbEntity
  8
0
100
AcDbBlockEnd
  0
BLOCK
  5
78C
330
782
100
AcDbEntity
  8
0
100
AcDbBlockBegin
  2
*D19
 70
     1
 10
0.0
 20
0.0
 30
0.0
  3
*D19
  1

  0
LINE
  5
8F5
330
782
100
AcDbEntity
  8
寸法線
 62
     0
440
 16777216
370
    -2
100
AcDbLine
 10
-103.199741154488
 20
27.21842375280148
 30
0.0
 11
-121.1316614296275
 21
9.111523037643877
 31
0.0
  0
LINE
  5
8F6
330
782
100
AcDbEntity
  8
寸法線
 62
     0
440
 16777216
370
    -2
100
AcDbLine
 10
-73.87154257868495
 20
-0.8442175330768364
 30
0.0
 11
-92.29450825531014
 21
-19.4469552916136
 31
0.0
  0
LINE
  5
8F7
330
782
100
AcDbEntity
  8
寸法線
 62
     0
440
 16777216
370
    -2
100
AcDbLine
 10
-117.3914877378568
 20
8.624802629826689
 30
0.0
 11
-92.817524429207
 21
-15.71168420615783
 31
0.0
  0
INSERT
  5
8F8
330
782
100
AcDbEntity
  8
寸法線
 62
     0
440
 16777216
370
    -2
100
AcDbBlockReference
  2
_Open30
 10
-119.5230826706906
 20
10.73579837646316
 30
0.0
 41
3.0
 42
3.0
 43
3.0
 50
135.2781878444879
  0
INSERT
  5
8F9
330
782
100
AcDbEntity
  8
寸法線
 62
     0
440
 16777216
370
    -2
100
AcDbBlockReference
  2
_Open30
 10
-90.68592949637318
 20
-17.82267995279432
 30
0.0
 41
3.0
 42
3.0
 43
3.0
 50
315.278187844488
  0
MTEXT
  5
8FA
330
782
100
AcDbEntity
  8
寸法線
 62
     0
440
 16777216
100
AcDbMText
 10
-103.4157094407963
 20
-1.83816483655355
 30
0.0
 40
3.200000047683716
 41
0.0
 71
     5
 72
     1
  1
L2
 11
0.7105316442779292
 21
-0.7036652488788277
 31
0.0
 73
     1
 44
1.0
  0
POINT
  5
8FB
330
782
100
AcDbEntity
  8
Defpoints
 62
     0
440
 16777216
100
AcDbPoint
 10
-101.4124314223358
 20
29.02317412926742
 30
0.0
  0
POINT
  5
8FC
330
782
100
AcDbEntity
  8
Defpoints
 62
     0
440
 16777216
100
AcDbPoint
 10
-72.08423284653274
 20
0.9605328433891031
 30
0.0
  0
POINT
  5
8FD
330
782
100
AcDbEntity
  8
Defpoints
 62
     0
440
 16777216
100
AcDbPoint
 10
-90.68592949637318
 20
-17.82267995279432
 30
0.0
  0
ENDBLK
  5
78D
330
782
100
AcDbEntity
  8
0
100
AcDbBlockEnd
  0
BLOCK
  5
799
330
78E
100
AcDbEntity
  8
0
100
AcDbBlockBegin
  2
*D20
 70
     1
 10
0.0
 20
0.0
 30
0.0
  3
*D20
  1

  0
LINE
  5
94B
330
78E
100
AcDbEntity
  8
寸法線
 62
     0
440
 16777216
370
    -2
100
AcDbLine
 10
-73.04832943797561
 20
49.58450729499514
 30
0.0
 11
-73.04832454247216
 21
60.31959850935304
 31
0.0
  0
LINE
  5
94C
330
78E
100
AcDbEntity
  8
寸法線
 62
     0
440
 16777216
370
    -2
100
AcDbLine
 10
-106.7889372167002
 20
34.39966441957644
 30
0.0
 11
-115.2347108626792
 21
42.84544162518351
 31
0.0
  0
ARC
  5
94D
330
78E
100
AcDbEntity
  8
寸法線
 62
     0
440
 16777216
370
    -2
100
AcDbCircle
 10
-73.04835174935312
 20
0.6590647316332934
 30
0.0
 40
58.6605334964834
100
AcDbArc
 50
92.93049744098963
 51
132.0694643563414
  0
INSERT
  5
94E
330
78E
100
AcDbEntity
  8
寸法線
 62
     0
440
 16777216
370
    -2
100
AcDbBlockReference
  2
_Open30
 10
-73.04832499850042
 20
59.3195982281106
 30
0.0
 41
3.0
 42
3.0
 43
3.0
 50
1.465235656251568
  0
INSERT
  5
94F
330
78E
100
AcDbEntity
  8
寸法線
 62
     0
440
 16777216
370
    -2
100
AcDbBlockReference
  2
_Open30
 10
-114.5276040316358
 20
42.13833449611683
 30
0.0
 41
3.0
 42
3.0
 43
3.0
 50
223.5347261410796
  0
MTEXT
  5
950
330
78E
100
AcDbEntity
  8
寸法線
 62
     0
440
 16777216
100
AcDbMText
 10
-96.41518651405235
 20
57.07165010335512
 30
0.0
 40
3.200000047683716
 41
0.0
 71
     5
 72
     1
  1
45\U+00B0
 11
0.9238796667561091
 21
0.3826831082692578
 31
0.0
 73
     1
 44
1.0
  0
POINT
  5
951
330
78E
100
AcDbEntity
  8
Defpoints
 62
     0
440
 16777216
100
AcDbPoint
 10
-73.04835174935312
 20
0.6590647316332934
 30
0.0
  0
POINT
  5
952
330
78E
100
AcDbEntity
  8
Defpoints
 62
     0
440
 16777216
100
AcDbPoint
 10
-73.04833059628703
 20
47.0445072949954
 30
0.0
  0
POINT
  5
953
330
78E
100
AcDbEntity
  8
Defpoints
 62
     0
440
 16777216
100
AcDbPoint
 10
-104.9928863709759
 20
32.60361281687317
 30
0.0
  0
POINT
  5
954
330
78E
100
AcDbEntity
  8
Defpoints
 62
     0
440
 16777216
100
AcDbPoint
 10
-102.3786036382089
 20
51.46058551820345
 30
0.0
  0
ENDBLK
  5
79A
330
78E
100
AcDbEntity
  8
0
100
AcDbBlockEnd
  0
BLOCK
  5
7A5
330
79B
100
AcDbEntity
  8
0
100
AcDbBlockBegin
  2
*D21
 70
     1
 10
0.0
 20
0.0
 30
0.0
  3
*D21
  1

  0
LINE
  5
908
330
79B
100
AcDbEntity
  8
寸法線
 62
     0
440
 16777216
370
    -2
100
AcDbLine
 10
-42.89690329428932
 20
27.2184237528015
 30
0.0
 11
-24.96498301914988
 21
9.111523037643936
 31
0.0
  0
LINE
  5
909
330
79B
100
AcDbEntity
  8
寸法線
 62
     0
440
 16777216
370
    -2
100
AcDbLine
 10
-72.22510187009253
 20
-0.8442175330768435
 30
0.0
 11
-53.80213619346732
 21
-19.44695529161362
 31
0.0
  0
LINE
  5
90A
330
79B
100
AcDbEntity
  8
寸法線
 62
     0
440
 16777216
370
    -2
100
AcDbLine
 10
-28.70515671092062
 20
8.624802629826749
 30
0.0
 11
-53.27912001957049
 21
-15.71168420615784
 31
0.0
  0
INSERT
  5
90B
330
79B
100
AcDbEntity
  8
寸法線
 62
     0
440
 16777216
370
    -2
100
AcDbBlockReference
  2
_Open30
 10
-26.57356177808683
 20
10.73579837646323
 30
0.0
 41
3.0
 42
3.0
 43
3.0
 50
44.72181215551205
  0
INSERT
  5
90C
330
79B
100
AcDbEntity
  8
寸法線
 62
     0
440
 16777216
370
    -2
100
AcDbBlockReference
  2
_Open30
 10
-55.41071495240426
 20
-17.82267995279432
 30
0.0
 41
3.0
 42
3.0
 43
3.0
 50
224.7218121555121
  0
MTEXT
  5
90D
330
79B
100
AcDbEntity
  8
寸法線
 62
     0
440
 16777216
100
AcDbMText
 10
-42.6809350079811
 20
-1.838164836553463
 30
0.0
 40
3.200000047683716
 41
0.0
 71
     5
 72
     1
  1
L2
 11
0.7105316442779288
 21
0.7036652488788279
 31
0.0
 73
     1
 44
1.0
  0
POINT
  5
90E
330
79B
100
AcDbEntity
  8
Defpoints
 62
     0
440
 16777216
100
AcDbPoint
 10
-44.68421302644155
 20
29.02317412926743
 30
0.0
  0
POINT
  5
90F
330
79B
100
AcDbEntity
  8
Defpoints
 62
     0
440
 16777216
100
AcDbPoint
 10
-74.01241160224476
 20
0.9605328433890958
 30
0.0
  0
POINT
  5
910
330
79B
100
AcDbEntity
  8
Defpoints
 62
     0
440
 16777216
100
AcDbPoint
 10
-55.41071495240426
 20
-17.82267995279432
 30
0.0
  0
ENDBLK
  5
7A6
330
79B
100
AcDbEntity
  8
0
100
AcDbBlockEnd
  0
BLOCK
  5
7B2
330
7A7
100
AcDbEntity
  8
0
100
AcDbBlockBegin
  2
*D22
 70
     1
 10
0.0
 20
0.0
 30
0.0
  3
*D22
  1

  0
LINE
  5
955
330
7A7
100
AcDbEntity
  8
寸法線
 62
     0
440
 16777216
370
    -2
100
AcDbLine
 10
-39.30770723207723
 20
34.39966441957646
 30
0.0
 11
-30.86193510244191
 21
42.84544010883919
 31
0.0
  0
LINE
  5
956
330
7A7
100
AcDbEntity
  8
寸法線
 62
     0
440
 16777216
370
    -2
100
AcDbLine
 10
-73.04831501080186
 20
49.58450729499513
 30
0.0
 11
-73.04831990630434
 21
60.31959636491882
 31
0.0
  0
ARC
  5
957
330
7A7
100
AcDbEntity
  8
寸法線
 62
     0
440
 16777216
370
    -2
100
AcDbCircle
 10
-73.04829269942435
 20
0.659064731633297
 30
0.0
 40
58.66053349648341
100
AcDbArc
 50
47.93053564365851
 51
87.06950255901038
  0
INSERT
  5
958
330
7A7
100
AcDbEntity
  8
寸法線
 62
     0
440
 16777216
370
    -2
100
AcDbBlockReference
  2
_Open30
 10
-31.56904041714164
 20
42.13833449611682
 30
0.0
 41
3.0
 42
3.0
 43
3.0
 50
316.4652738589204
  0
INSERT
  5
959
330
7A7
100
AcDbEntity
  8
寸法線
 62
     0
440
 16777216
370
    -2
100
AcDbBlockReference
  2
_Open30
 10
-73.04831945027707
 20
59.31959822811061
 30
0.0
 41
3.0
 42
3.0
 43
3.0
 50
178.5347643437484
  0
MTEXT
  5
95A
330
7A7
100
AcDbEntity
  8
寸法線
 62
     0
440
 16777216
100
AcDbMText
 10
-49.6814579347251
 20
57.07165010335514
 30
0.0
 40
3.200000047683716
 41
0.0
 71
     5
 72
     1
  1
45\U+00B0
 11
0.9238796667561091
 21
-0.3826831082692582
 31
0.0
 73
     1
 44
1.0
  0
POINT
  5
95B
330
7A7
100
AcDbEntity
  8
Defpoints
 62
     0
440
 16777216
100
AcDbPoint
 10
-73.04829269942435
 20
0.659064731633297
 30
0.0
  0
POINT
  5
95C
330
7A7
100
AcDbEntity
  8
Defpoints
 62
     0
440
 16777216
100
AcDbPoint
 10
-41.10375807780154
 20
32.60361281687318
 30
0.0
  0
POINT
  5
95D
330
7A7
100
AcDbEntity
  8
Defpoints
 62
     0
440
 16777216
100
AcDbPoint
 10
-73.04831385249045
 20
47.04450729499539
 30
0.0
  0
POINT
  5
95E
330
7A7
100
AcDbEntity
  8
Defpoints
 62
     0
440
 16777216
100
AcDbPoint
 10
-43.7180408105685
 20
51.46058551820345
 30
0.0
  0
ENDBLK
  5
7B3
330
7A7
100
AcDbEntity
  8
0
100
AcDbBlockEnd
  0
BLOCK
  5
8B1
330
8A7
100
AcDbEntity
  8
0
100
AcDbBlockBegin
  2
*D23
 70
     1
 10
0.0
 20
0.0
 30
0.0
  3
*D23
  1

  0
LINE
  5
91B
330
8A7
100
AcDbEntity
  8
寸法線
 62
     0
440
 16777216
370
    -2
100
AcDbLine
 10
-83.43367945978412
 20
-15.84089771216754
 30
0.0
 11
-83.43367945978412
 21
-27.27506620530829
 31
0.0
  0
LINE
  5
91C
330
8A7
100
AcDbEntity
  8
寸法線
 62
     0
440
 16777216
370
    -2
100
AcDbLine
 10
-62.66290571666774
 20
-15.84089771216754
 30
0.0
 11
-62.66290571666774
 21
-27.27506620530829
 31
0.0
  0
LINE
  5
91D
330
8A7
100
AcDbEntity
  8
寸法線
 62
     0
440
 16777216
370
    -2
100
AcDbLine
 10
-80.4336794597841
 20
-26.39660627488837
 30
0.0
 11
-65.66290571666772
 21
-26.39660627488837
 31
0.0
  0
INSERT
  5
91E
330
8A7
100
AcDbEntity
  8
寸法線
 62
     0
440
 16777216
370
    -2
100
AcDbBlockReference
  2
_Open30
 10
-83.43367945978412
 20
-26.39660627488837
 30
0.0
 41
3.0
 42
3.0
 43
3.0
 50
180.0
  0
INSERT
  5
91F
330
8A7
100
AcDbEntity
  8
寸法線
 62
     0
440
 16777216
370
    -2
100
AcDbBlockReference
  2
_Open30
 10
-62.66290571666774
 20
-26.39660627488837
 30
0.0
 41
3.0
 42
3.0
 43
3.0
  0
MTEXT
  5
920
102
{ACAD_XDICTIONARY
360
A9A
102
}
330
8A7
100
AcDbEntity
  8
寸法線
 62
     0
440
 16777216
100
AcDbMText
 10
-73.04829258822593
 20
-23.99660623912557
 30
0.0
 40
3.200000047683716
 41
0.0
 71
     5
 72
     1
  1
\U+2205B
 73
     1
 44
1.0
  0
POINT
  5
921
330
8A7
100
AcDbEntity
  8
Defpoints
 62
     0
440
 16777216
100
AcDbPoint
 10
-83.43367945978412
 20
-13.30089771216754
 30
0.0
  0
POINT
  5
922
330
8A7
100
AcDbEntity
  8
Defpoints
 62
     0
440
 16777216
100
AcDbPoint
 10
-62.66290571666774
 20
-13.30089771216754
 30
0.0
  0
POINT
  5
923
330
8A7
100
AcDbEntity
  8
Defpoints
 62
     0
440
 16777216
100
AcDbPoint
 10
-62.66290571666774
 20
-26.39660627488837
 30
0.0
  0
ENDBLK
  5
8B2
330
8A7
100
AcDbEntity
  8
0
100
AcDbBlockEnd
  0
ENDSEC
  0
SECTION
  2
ENTITIES
  0
LINE
  5
2E
330
1F
100
AcDbEntity
  8
0
  6
Continuous
 62
     7
100
AcDbLine
 10
3.951605081558227
 20
44.36328125
 30
0.0
 11
108.9516067504883
 21
44.36328125
 31
0.0
  0
LINE
  5
2F
330
1F
100
AcDbEntity
  8
0
  6
Continuous
 62
     7
100
AcDbLine
 10
3.951605081558227
 20
-27.63671684265137
 30
0.0
 11
108.9516067504883
 21
-27.63671684265137
 31
0.0
  0
LINE
  5
30
330
1F
100
AcDbEntity
  8
0
  6
Continuous
 62
     7
100
AcDbLine
 10
3.951605081558226
 20
68.3632755279541
 30
0.0
 11
3.951605081558227
 21
-27.63671684265137
 31
0.0
  0
LINE
  5
31
330
1F
100
AcDbEntity
  8
0
  6
Continuous
 62
     7
100
AcDbLine
 10
28.95160484313965
 20
68.3632755279541
 30
0.0
 11
28.95160484313965
 21
-27.63671684265137
 31
0.0
  0
LINE
  5
32
330
1F
100
AcDbEntity
  8
0
  6
Continuous
 62
     7
100
AcDbLine
 10
48.95160675048828
 20
68.3632755279541
 30
0.0
 11
48.95160675048828
 21
-27.63671684265137
 31
0.0
  0
LINE
  5
33
330
1F
100
AcDbEntity
  8
0
  6
Continuous
 62
     7
100
AcDbLine
 10
68.95160675048828
 20
68.3632755279541
 30
0.0
 11
68.95160675048828
 21
-27.63671684265137
 31
0.0
  0
LINE
  5
34
330
1F
100
AcDbEntity
  8
0
  6
Continuous
 62
     7
100
AcDbLine
 10
88.95160675048828
 20
68.3632755279541
 30
0.0
 11
88.95160675048828
 21
-27.63671684265137
 31
0.0
  0
LINE
  5
35
330
1F
100
AcDbEntity
  8
0
  6
Continuous
 62
     7
100
AcDbLine
 10
108.9516067504883
 20
68.3632755279541
 30
0.0
 11
108.9516067504883
 21
-27.63671684265137
 31
0.0
  0
LINE
  5
38
330
1F
100
AcDbEntity
  8
0
  6
Continuous
 62
     7
100
AcDbLine
 10
3.951605081558227
 20
38.36328506469726
 30
0.0
 11
108.9516067504883
 21
38.36328506469726
 31
0.0
  0
LINE
  5
39
330
1F
100
AcDbEntity
  8
0
  6
Continuous
 62
     7
100
AcDbLine
 10
3.951605081558227
 20
32.36328411102295
 30
0.0
 11
108.9516067504883
 21
32.36328411102295
 31
0.0
  0
LINE
  5
3A
330
1F
100
AcDbEntity
  8
0
  6
Continuous
 62
     7
100
AcDbLine
 10
3.951605081558227
 20
26.36328411102295
 30
0.0
 11
108.9516067504883
 21
26.36328411102295
 31
0.0
  0
LINE
  5
3B
330
1F
100
AcDbEntity
  8
0
  6
Continuous
 62
     7
100
AcDbLine
 10
3.951605081558227
 20
20.36328411102295
 30
0.0
 11
108.9516067504883
 21
20.36328411102295
 31
0.0
  0
LINE
  5
3C
330
1F
100
AcDbEntity
  8
0
  6
Continuous
 62
     7
100
AcDbLine
 10
3.951605081558227
 20
14.36328411102294
 30
0.0
 11
108.9516067504883
 21
14.36328411102294
 31
0.0
  0
LINE
  5
3D
330
1F
100
AcDbEntity
  8
0
  6
Continuous
 62
     7
100
AcDbLine
 10
3.951605081558227
 20
8.363284111022945
 30
0.0
 11
108.9516067504883
 21
8.363284111022945
 31
0.0
  0
LINE
  5
3E
330
1F
100
AcDbEntity
  8
0
  6
Continuous
 62
     7
100
AcDbLine
 10
3.951605081558227
 20
2.36328411102295
 30
0.0
 11
108.9516067504883
 21
2.36328411102295
 31
0.0
  0
LINE
  5
3F
330
1F
100
AcDbEntity
  8
0
  6
Continuous
 62
     7
100
AcDbLine
 10
3.951605081558227
 20
-3.636714935302741
 30
0.0
 11
108.9516067504883
 21
-3.636714935302741
 31
0.0
  0
LINE
  5
40
330
1F
100
AcDbEntity
  8
0
  6
Continuous
 62
     7
100
AcDbLine
 10
3.951605081558227
 20
-9.636714935302739
 30
0.0
 11
108.9516067504883
 21
-9.636714935302739
 31
0.0
  0
LINE
  5
41
330
1F
100
AcDbEntity
  8
0
  6
Continuous
 62
     7
100
AcDbLine
 10
3.951605081558227
 20
-15.63671684265137
 30
0.0
 11
108.9516067504883
 21
-15.63671684265137
 31
0.0
  0
LINE
  5
42
330
1F
100
AcDbEntity
  8
0
  6
Continuous
 62
     7
100
AcDbLine
 10
3.951605081558227
 20
-21.63671684265137
 30
0.0
 11
108.9516067504883
 21
-21.63671684265137
 31
0.0
  0
LINE
  5
44
330
1F
100
AcDbEntity
  8
0
  6
Continuous
 62
     7
100
AcDbLine
 10
3.951605081558226
 20
68.3632755279541
 30
0.0
 11
3.951605081558227
 21
-27.63671684265137
 31
0.0
  0
LINE
  5
45
330
1F
100
AcDbEntity
  8
0
  6
Continuous
 62
     7
100
AcDbLine
 10
28.95160484313965
 20
68.3632755279541
 30
0.0
 11
28.95160484313965
 21
-27.63671684265137
 31
0.0
  0
LINE
  5
46
330
1F
100
AcDbEntity
  8
0
  6
Continuous
 62
     7
100
AcDbLine
 10
48.95160675048828
 20
68.3632755279541
 30
0.0
 11
48.95160675048828
 21
-27.63671684265137
 31
0.0
  0
LINE
  5
47
330
1F
100
AcDbEntity
  8
0
  6
Continuous
 62
     7
100
AcDbLine
 10
68.95160675048828
 20
68.3632755279541
 30
0.0
 11
68.95160675048828
 21
-27.63671684265137
 31
0.0
  0
LINE
  5
48
330
1F
100
AcDbEntity
  8
0
  6
Continuous
 62
     7
100
AcDbLine
 10
88.95160675048828
 20
68.3632755279541
 30
0.0
 11
88.95160675048828
 21
-27.63671684265137
 31
0.0
  0
LINE
  5
49
330
1F
100
AcDbEntity
  8
0
  6
Continuous
 62
     7
100
AcDbLine
 10
108.9516067504883
 20
68.3632755279541
 30
0.0
 11
108.9516067504883
 21
-27.63671684265137
 31
0.0
  0
MTEXT
  5
1AA
330
1F
100
AcDbEntity
  8
0
 62
     7
100
AcDbMText
 10
6.483332141377217
 20
-26.23671686649323
 30
0.0
 40
3.200000047683716
 41
0.0
 71
     7
 72
     1
  1
{\W1;TDW1000}
 73
     1
 44
1.0
  0
MTEXT
  5
1AB
330
1F
100
AcDbEntity
  8
0
 62
     7
100
AcDbMText
 10
38.68493817249934
 20
-24.63671684265137
 30
0.0
 40
3.200000047683716
 41
0.0
 71
     5
 72
     1
  1
{\W1;1219}
 73
     1
 44
1.0
  0
MTEXT
  5
1AC
330
1F
100
AcDbEntity
  8
0
 62
     7
100
AcDbMText
 10
59.08456668865618
 20
-24.63671684265137
 30
0.0
 40
3.200000047683716
 41
0.0
 71
     5
 72
     1
  1
{\W1;1000}
 73
     1
 44
1.0
  0
MTEXT
  5
1AD
330
1F
100
AcDbEntity
  8
0
 62
     7
100
AcDbMText
 10
11.10874712467194
 20
63.76327550411224
 30
0.0
 40
3.200000047683716
 41
0.0
 71
     7
 72
     1
  1
{\W0.833333;呼称径}
 73
     1
 44
1.0
  0
MTEXT
  5
1AE
102
{ACAD_XDICTIONARY
360
A89
102
}
330
1F
100
AcDbEntity
  8
0
 62
     7
100
AcDbMText
 10
38.95160579681397
 20
65.36327743530273
 30
0.0
 40
3.200000047683716
 41
0.0
 71
     5
 72
     1
  1
{\W1;\U+2205A}
 73
     1
 44
1.0
  0
MTEXT
  5
1AF
102
{ACAD_XDICTIONARY
360
A8B
102
}
330
1F
100
AcDbEntity
  8
0
 62
     7
100
AcDbMText
 10
58.95160675048828
 20
65.36327743530273
 30
0.0
 40
3.200000047683716
 41
0.0
 71
     5
 72
     1
  1
{\W1;\U+2205B}
 73
     1
 44
1.0
  0
MTEXT
  5
1B0
330
1F
100
AcDbEntity
  8
0
 62
     7
100
AcDbMText
 10
78.95160675048828
 20
65.36327743530273
 30
0.0
 40
3.200000047683716
 41
0.0
 71
     5
 72
     1
  1
{\W1;L1}
 73
     1
 44
1.0
  0
MTEXT
  5
1B1
330
1F
100
AcDbEntity
  8
0
 62
     7
100
AcDbMText
 10
98.95160675048828
 20
65.36327743530273
 30
0.0
 40
3.200000047683716
 41
0.0
 71
     5
 72
     1
  1
{\W1;L2}
 73
     1
 44
1.0
  0
MTEXT
  5
1B8
330
1F
100
AcDbEntity
  8
0
 62
     7
100
AcDbMText
 10
6.483332141377217
 20
33.76328504085542
 30
0.0
 40
3.200000047683716
 41
0.0
 71
     7
 72
     1
  1
{\W1;TDW250}
 73
     1
 44
1.0
  0
MTEXT
  5
1B9
330
1F
100
AcDbEntity
  8
0
 62
     7
100
AcDbMText
 10
38.68493817249934
 20
35.36328506469726
 30
0.0
 40
3.200000047683716
 41
0.0
 71
     5
 72
     1
  1
{\W1;290}
 73
     1
 44
1.0
  0
MTEXT
  5
1BA
330
1F
100
AcDbEntity
  8
0
 62
     7
100
AcDbMText
 10
58.95160484313964
 20
35.36328506469726
 30
0.0
 40
3.200000047683716
 41
0.0
 71
     5
 72
     1
  1
{\W1;250}
 73
     1
 44
1.0
  0
MTEXT
  5
1BB
330
1F
100
AcDbEntity
  8
0
 62
     7
100
AcDbMText
 10
6.483332141377217
 20
27.76328408718109
 30
0.0
 40
3.200000047683716
 41
0.0
 71
     7
 72
     1
  1
{\W1;TDW300}
 73
     1
 44
1.0
  0
MTEXT
  5
1BC
330
1F
100
AcDbEntity
  8
0
 62
     7
100
AcDbMText
 10
38.95160484313965
 20
29.36328411102295
 30
0.0
 40
3.200000047683716
 41
0.0
 71
     5
 72
     1
  1
{\W1;365}
 73
     1
 44
1.0
  0
MTEXT
  5
1BD
330
1F
100
AcDbEntity
  8
0
 62
     7
100
AcDbMText
 10
58.95160484313964
 20
29.36328411102295
 30
0.0
 40
3.200000047683716
 41
0.0
 71
     5
 72
     1
  1
{\W1;300}
 73
     1
 44
1.0
  0
MTEXT
  5
1BE
330
1F
100
AcDbEntity
  8
0
 62
     7
100
AcDbMText
 10
6.483332141377217
 20
21.76328408718109
 30
0.0
 40
3.200000047683716
 41
0.0
 71
     7
 72
     1
  1
{\W1;TDW350}
 73
     1
 44
1.0
  0
MTEXT
  5
1BF
330
1F
100
AcDbEntity
  8
0
 62
     7
100
AcDbMText
 10
38.95160484313965
 20
23.36328411102295
 30
0.0
 40
3.200000047683716
 41
0.0
 71
     5
 72
     1
  1
{\W1;426}
 73
     1
 44
1.0
  0
MTEXT
  5
1C0
330
1F
100
AcDbEntity
  8
0
 62
     7
100
AcDbMText
 10
58.95160484313964
 20
23.36328411102295
 30
0.0
 40
3.200000047683716
 41
0.0
 71
     5
 72
     1
  1
{\W1;350}
 73
     1
 44
1.0
  0
MTEXT
  5
1C1
330
1F
100
AcDbEntity
  8
0
 62
     7
100
AcDbMText
 10
6.483332141377217
 20
15.76328414678573
 30
0.0
 40
3.200000047683716
 41
0.0
 71
     7
 72
     1
  1
{\W1;TDW400}
 73
     1
 44
1.0
  0
MTEXT
  5
1C2
330
1F
100
AcDbEntity
  8
0
 62
     7
100
AcDbMText
 10
38.95160484313965
 20
17.36328417062759
 30
0.0
 40
3.200000047683716
 41
0.0
 71
     5
 72
     1
  1
{\W1;485}
 73
     1
 44
1.0
  0
MTEXT
  5
1C3
330
1F
100
AcDbEntity
  8
0
 62
     7
100
AcDbMText
 10
58.95160484313964
 20
17.36328417062759
 30
0.0
 40
3.200000047683716
 41
0.0
 71
     5
 72
     1
  1
{\W1;400}
 73
     1
 44
1.0
  0
MTEXT
  5
1C4
330
1F
100
AcDbEntity
  8
0
 62
     7
100
AcDbMText
 10
6.483332141377217
 20
9.763284087181084
 30
0.0
 40
3.200000047683716
 41
0.0
 71
     7
 72
     1
  1
{\W1;TDW450}
 73
     1
 44
1.0
  0
MTEXT
  5
1C5
330
1F
100
AcDbEntity
  8
0
 62
     7
100
AcDbMText
 10
38.95160484313965
 20
11.36328411102294
 30
0.0
 40
3.200000047683716
 41
0.0
 71
     5
 72
     1
  1
{\W1;546}
 73
     1
 44
1.0
  0
MTEXT
  5
1C6
330
1F
100
AcDbEntity
  8
0
 62
     7
100
AcDbMText
 10
58.95160484313964
 20
11.36328411102294
 30
0.0
 40
3.200000047683716
 41
0.0
 71
     5
 72
     1
  1
{\W1;450}
 73
     1
 44
1.0
  0
MTEXT
  5
1C7
330
1F
100
AcDbEntity
  8
0
 62
     7
100
AcDbMText
 10
6.483332141377217
 20
3.763284087181089
 30
0.0
 40
3.200000047683716
 41
0.0
 71
     7
 72
     1
  1
{\W1;TDW500}
 73
     1
 44
1.0
  0
MTEXT
  5
1C8
330
1F
100
AcDbEntity
  8
0
 62
     7
100
AcDbMText
 10
38.95160484313965
 20
5.363284111022947
 30
0.0
 40
3.200000047683716
 41
0.0
 71
     5
 72
     1
  1
{\W1;614}
 73
     1
 44
1.0
  0
MTEXT
  5
1C9
330
1F
100
AcDbEntity
  8
0
 62
     7
100
AcDbMText
 10
58.95160484313964
 20
5.363284111022947
 30
0.0
 40
3.200000047683716
 41
0.0
 71
     5
 72
     1
  1
{\W1;500}
 73
     1
 44
1.0
  0
MTEXT
  5
1CA
330
1F
100
AcDbEntity
  8
0
 62
     7
100
AcDbMText
 10
6.483332141377217
 20
-2.236714959144598
 30
0.0
 40
3.200000047683716
 41
0.0
 71
     7
 72
     1
  1
{\W1;TDW600}
 73
     1
 44
1.0
  0
MTEXT
  5
1CB
330
1F
100
AcDbEntity
  8
0
 62
     7
100
AcDbMText
 10
38.95160484313965
 20
-0.6367149353027399
 30
0.0
 40
3.200000047683716
 41
0.0
 71
     5
 72
     1
  1
{\W1;707}
 73
     1
 44
1.0
  0
MTEXT
  5
1CC
330
1F
100
AcDbEntity
  8
0
 62
     7
100
AcDbMText
 10
58.95160484313964
 20
-0.6367149353027399
 30
0.0
 40
3.200000047683716
 41
0.0
 71
     5
 72
     1
  1
{\W1;600}
 73
     1
 44
1.0
  0
MTEXT
  5
1CD
330
1F
100
AcDbEntity
  8
0
 62
     7
100
AcDbMText
 10
6.483332141377217
 20
-8.236714959144597
 30
0.0
 40
3.200000047683716
 41
0.0
 71
     7
 72
     1
  1
{\W1;TDW700}
 73
     1
 44
1.0
  0
MTEXT
  5
1CE
330
1F
100
AcDbEntity
  8
0
 62
     7
100
AcDbMText
 10
38.95160484313965
 20
-6.636714935302737
 30
0.0
 40
3.200000047683716
 41
0.0
 71
     5
 72
     1
  1
{\W1;858}
 73
     1
 44
1.0
  0
MTEXT
  5
1CF
330
1F
100
AcDbEntity
  8
0
 62
     7
100
AcDbMText
 10
58.95160484313964
 20
-6.636714935302737
 30
0.0
 40
3.200000047683716
 41
0.0
 71
     5
 72
     1
  1
{\W1;700}
 73
     1
 44
1.0
  0
MTEXT
  5
1D0
330
1F
100
AcDbEntity
  8
0
 62
     7
100
AcDbMText
 10
6.483332141377217
 20
-14.2367149591446
 30
0.0
 40
3.200000047683716
 41
0.0
 71
     7
 72
     1
  1
{\W1;TDW800}
 73
     1
 44
1.0
  0
MTEXT
  5
1D1
330
1F
100
AcDbEntity
  8
0
 62
     7
100
AcDbMText
 10
38.95160484313965
 20
-12.63671493530274
 30
0.0
 40
3.200000047683716
 41
0.0
 71
     5
 72
     1
  1
{\W1;973}
 73
     1
 44
1.0
  0
MTEXT
  5
1D2
330
1F
100
AcDbEntity
  8
0
 62
     7
100
AcDbMText
 10
58.95160484313964
 20
-12.63671493530274
 30
0.0
 40
3.200000047683716
 41
0.0
 71
     5
 72
     1
  1
{\W1;800}
 73
     1
 44
1.0
  0
MTEXT
  5
1D3
330
1F
100
AcDbEntity
  8
0
 62
     7
100
AcDbMText
 10
6.483332141377217
 20
-20.23671686649323
 30
0.0
 40
3.200000047683716
 41
0.0
 71
     7
 72
     1
  1
{\W1;TDW900}
 73
     1
 44
1.0
  0
MTEXT
  5
1D4
330
1F
100
AcDbEntity
  8
0
 62
     7
100
AcDbMText
 10
38.95160484313965
 20
-18.63671684265137
 30
0.0
 40
3.200000047683716
 41
0.0
 71
     5
 72
     1
  1
{\W1;1096}
 73
     1
 44
1.0
  0
MTEXT
  5
1D5
330
1F
100
AcDbEntity
  8
0
 62
     7
100
AcDbMText
 10
58.95160484313964
 20
-18.63671684265137
 30
0.0
 40
3.200000047683716
 41
0.0
 71
     5
 72
     1
  1
{\W1;900}
 73
     1
 44
1.0
  0
MTEXT
  5
1D9
330
1F
100
AcDbEntity
  8
0
 62
     7
100
AcDbMText
 10
98.95160484313965
 20
-24.63671684265137
 30
0.0
 40
3.200000047683716
 41
0.0
 71
     5
 72
     1
  1
{\W1;1990}
 73
     1
 44
1.0
  0
MTEXT
  5
1DA
330
1F
100
AcDbEntity
  8
0
 62
     7
100
AcDbMText
 10
98.95160484313965
 20
-18.63671684265137
 30
0.0
 40
3.200000047683716
 41
0.0
 71
     5
 72
     1
  1
{\W1;1820}
 73
     1
 44
1.0
  0
MTEXT
  5
1DB
330
1F
100
AcDbEntity
  8
0
 62
     7
100
AcDbMText
 10
98.95160484313965
 20
-12.63671493530274
 30
0.0
 40
3.200000047683716
 41
0.0
 71
     5
 72
     1
  1
{\W1;1650}
 73
     1
 44
1.0
  0
MTEXT
  5
1DC
330
1F
100
AcDbEntity
  8
0
 62
     7
100
AcDbMText
 10
98.95160484313965
 20
-6.636714935302737
 30
0.0
 40
3.200000047683716
 41
0.0
 71
     5
 72
     1
  1
{\W1;1480}
 73
     1
 44
1.0
  0
MTEXT
  5
1DD
330
1F
100
AcDbEntity
  8
0
 62
     7
100
AcDbMText
 10
98.95160484313965
 20
-0.6367149353027397
 30
0.0
 40
3.200000047683716
 41
0.0
 71
     5
 72
     1
  1
{\W1;1280}
 73
     1
 44
1.0
  0
MTEXT
  5
1DE
330
1F
100
AcDbEntity
  8
0
 62
     7
100
AcDbMText
 10
98.95160484313965
 20
5.363284111022947
 30
0.0
 40
3.200000047683716
 41
0.0
 71
     5
 72
     1
  1
{\W1;1100}
 73
     1
 44
1.0
  0
MTEXT
  5
1DF
330
1F
100
AcDbEntity
  8
0
 62
     7
100
AcDbMText
 10
98.95160484313965
 20
11.36328411102294
 30
0.0
 40
3.200000047683716
 41
0.0
 71
     5
 72
     1
  1
{\W1;910}
 73
     1
 44
1.0
  0
MTEXT
  5
1E0
330
1F
100
AcDbEntity
  8
0
 62
     7
100
AcDbMText
 10
98.95160484313965
 20
17.36328417062759
 30
0.0
 40
3.200000047683716
 41
0.0
 71
     5
 72
     1
  1
{\W1;820}
 73
     1
 44
1.0
  0
MTEXT
  5
1E1
330
1F
100
AcDbEntity
  8
0
 62
     7
100
AcDbMText
 10
98.95160484313965
 20
23.36328411102295
 30
0.0
 40
3.200000047683716
 41
0.0
 71
     5
 72
     1
  1
{\W1;730}
 73
     1
 44
1.0
  0
MTEXT
  5
1E2
330
1F
100
AcDbEntity
  8
0
 62
     7
100
AcDbMText
 10
98.95160484313965
 20
29.36328411102295
 30
0.0
 40
3.200000047683716
 41
0.0
 71
     5
 72
     1
  1
{\W1;670}
 73
     1
 44
1.0
  0
MTEXT
  5
1E3
330
1F
100
AcDbEntity
  8
0
 62
     7
100
AcDbMText
 10
98.95160484313965
 20
35.36328506469726
 30
0.0
 40
3.200000047683716
 41
0.0
 71
     5
 72
     1
  1
{\W1;610}
 73
     1
 44
1.0
  0
MTEXT
  5
1E8
330
1F
100
AcDbEntity
  8
0
 62
     7
100
AcDbMText
 10
94.41313782576251
 20
-33.22029560970168
 30
0.0
 40
3.200000047683716
 41
0.0
 71
     7
 72
     1
  1
{\W1;(mm)}
 73
     1
 44
1.0
  0
MTEXT
  5
1E9
330
1F
100
AcDbEntity
  8
0
 62
     7
100
AcDbMText
 10
0.7124996185302736
 20
-90.75000000000001
 30
0.0
 40
3.200000047683716
 41
0.0
 71
     5
 72
     1
  1
45\U+00B0ｸﾛｽ {\H0.875x;（ﾄﾖﾄﾞﾚﾝﾀﾞﾌﾞﾙ管用）}
 73
     1
 44
1.0
  0
MTEXT
  5
1ED
330
1F
100
AcDbEntity
  8
0
 62
     7
100
AcDbMText
 10
78.95160484313966
 20
35.36328506469726
 30
0.0
 40
3.200000047683716
 41
0.0
 71
     5
 72
     1
  1
{\W1;850}
 73
     1
 44
1.0
  0
MTEXT
  5
1EE
330
1F
100
AcDbEntity
  8
0
 62
     7
100
AcDbMText
 10
78.95160484313966
 20
29.36328411102295
 30
0.0
 40
3.200000047683716
 41
0.0
 71
     5
 72
     1
  1
{\W1;950}
 73
     1
 44
1.0
  0
MTEXT
  5
1EF
330
1F
100
AcDbEntity
  8
0
 62
     7
100
AcDbMText
 10
78.95160484313966
 20
23.36328411102295
 30
0.0
 40
3.200000047683716
 41
0.0
 71
     5
 72
     1
  1
{\W1;1120}
 73
     1
 44
1.0
  0
MTEXT
  5
1F0
330
1F
100
AcDbEntity
  8
0
 62
     7
100
AcDbMText
 10
78.95160484313966
 20
17.36328417062759
 30
0.0
 40
3.200000047683716
 41
0.0
 71
     5
 72
     1
  1
{\W1;1270}
 73
     1
 44
1.0
  0
MTEXT
  5
1F1
330
1F
100
AcDbEntity
  8
0
 62
     7
100
AcDbMText
 10
78.95160484313966
 20
11.36328411102294
 30
0.0
 40
3.200000047683716
 41
0.0
 71
     5
 72
     1
  1
{\W1;1410}
 73
     1
 44
1.0
  0
MTEXT
  5
1F2
330
1F
100
AcDbEntity
  8
0
 62
     7
100
AcDbMText
 10
78.94132828934681
 20
5.363284111022947
 30
0.0
 40
3.200000047683716
 41
0.0
 71
     5
 72
     1
  1
{\W1;1690}
 73
     1
 44
1.0
  0
MTEXT
  5
1F3
330
1F
100
AcDbEntity
  8
0
 62
     7
100
AcDbMText
 10
78.94132828934681
 20
-0.6367149353027397
 30
0.0
 40
3.200000047683716
 41
0.0
 71
     5
 72
     1
  1
{\W1;1970}
 73
     1
 44
1.0
  0
MTEXT
  5
1F4
330
1F
100
AcDbEntity
  8
0
 62
     7
100
AcDbMText
 10
78.95160484313966
 20
-6.636714935302737
 30
0.0
 40
3.200000047683716
 41
0.0
 71
     5
 72
     1
  1
{\W1;2110}
 73
     1
 44
1.0
  0
MTEXT
  5
1F5
330
1F
100
AcDbEntity
  8
0
 62
     7
100
AcDbMText
 10
78.95160484313966
 20
-12.63671493530274
 30
0.0
 40
3.200000047683716
 41
0.0
 71
     5
 72
     1
  1
{\W1;2370}
 73
     1
 44
1.0
  0
MTEXT
  5
1F6
330
1F
100
AcDbEntity
  8
0
 62
     7
100
AcDbMText
 10
78.95160484313966
 20
-18.63671684265137
 30
0.0
 40
3.200000047683716
 41
0.0
 71
     5
 72
     1
  1
{\W1;2630}
 73
     1
 44
1.0
  0
MTEXT
  5
1F7
330
1F
100
AcDbEntity
  8
0
 62
     7
100
AcDbMText
 10
78.95160484313966
 20
-24.63671684265137
 30
0.0
 40
3.200000047683716
 41
0.0
 71
     5
 72
     1
  1
{\W1;2900}
 73
     1
 44
1.0
  0
POINT
  5
26B
330
1F
100
AcDbEntity
  8
外形線
100
AcDbPoint
 10
-50.57500076293945
 20
-87.0
 30
0.0
  0
POINT
  5
26C
330
1F
100
AcDbEntity
  8
VIEW0001
 62
     7
100
AcDbPoint
 10
138.5
 20
-87.0
 30
0.0
  0
LINE
  5
26D
330
1F
100
AcDbEntity
  8
外形線
370
    30
100
AcDbLine
 10
-138.0
 20
95.0
 30
0.0
 11
138.5
 21
95.0
 31
0.0
  0
LINE
  5
26E
330
1F
100
AcDbEntity
  8
外形線
370
    30
100
AcDbLine
 10
138.5
 20
95.0
 30
0.0
 11
138.5
 21
-94.50000000000001
 31
0.0
  0
LINE
  5
26F
330
1F
100
AcDbEntity
  8
外形線
370
    30
100
AcDbLine
 10
-138.0
 20
-94.50000000000001
 30
0.0
 11
138.5
 21
-94.50000000000001
 31
0.0
  0
LINE
  5
270
330
1F
100
AcDbEntity
  8
外形線
370
    30
100
AcDbLine
 10
-138.0
 20
95.0
 30
0.0
 11
-138.0
 21
-94.50000000000001
 31
0.0
  0
LINE
  5
273
330
1F
100
AcDbEntity
  8
外形線
100
AcDbLine
 10
-50.57500076293945
 20
-87.0
 30
0.0
 11
-50.57500076293945
 21
-94.50000000000001
 31
0.0
  0
LINE
  5
309
330
1F
100
AcDbEntity
  8
外形線
100
AcDbLine
 10
138.5
 20
-87.0
 30
0.0
 11
-50.57500076293945
 21
-87.0
 31
0.0
  0
LINE
  5
30C
330
1F
100
AcDbEntity
  8
外形線
100
AcDbLine
 10
52.0
 20
-94.50000000000001
 30
0.0
 11
52.0
 21
-87.0
 31
0.0
  0
MTEXT
  5
328
330
1F
100
AcDbEntity
  8
VIEW0002
 62
     7
100
AcDbMText
 10
-45.81363571100331
 20
-70.45622627661614
 30
0.0
 40
3.200000047683716
 41
0.0
 71
     7
 72
     1
  1
{\W0.833333;*形状は規格毎に異なります。}
 73
     1
 44
1.0
  0
MTEXT
  5
329
330
1F
100
AcDbEntity
  8
VIEW0002
 62
     7
100
AcDbMText
 10
-45.67364784713202
 20
-75.45411580190453
 30
0.0
 40
3.200000047683716
 41
0.0
 71
     7
 72
     1
  1
{\W0.833333;*ストッパ－の位置及び数は、規格毎に異なります。}
 73
     1
 44
1.0
  0
MTEXT
  5
32A
330
1F
100
AcDbEntity
  8
VIEW0002
 62
     7
100
AcDbMText
 10
-45.90842539437441
 20
-80.68411209129259
 30
0.0
 40
3.200000047683716
 41
0.0
 71
     7
 72
     1
  1
\W0.833333;*寸法、仕様等は製品改良の為、予告無く変更する場合があります。（Ｈ２２．１０）
 73
     1
 44
1.0
  0
LINE
  5
61B
330
1F
100
AcDbEntity
  8
外形線
100
AcDbLine
 10
-105.4951049239985
 20
18.02842448929863
 30
0.0
 11
-106.4987396999807
 21
16.60300164721008
 31
0.0
  0
LINE
  5
61C
330
1F
100
AcDbEntity
  8
外形線
100
AcDbLine
 10
-91.11592911614113
 20
33.02352838076377
 30
0.0
 11
-90.11228933897614
 21
34.44895236694413
 31
0.0
  0
LINE
  5
61D
330
1F
100
AcDbEntity
  8
外形線
100
AcDbLine
 10
-92.72869568551753
 20
34.63624943897634
 30
0.0
 11
-91.17596005167831
 21
35.51259137894522
 31
0.0
  0
LINE
  5
61E
330
1F
100
AcDbEntity
  8
外形線
100
AcDbLine
 10
-81.41918868710273
 20
24.3677559913358
 30
0.0
 11
-97.42099672731123
 21
9.959633257474362
 31
0.0
  0
LINE
  5
61F
330
1F
100
AcDbEntity
  8
外形線
100
AcDbLine
 10
-82.17630017656452
 20
25.73407415464755
 30
0.0
 11
-98.49948001298796
 21
11.03658635207449
 31
0.0
  0
LINE
  5
620
330
1F
100
AcDbEntity
  8
外形線
100
AcDbLine
 10
-81.23227194097632
 20
24.01433271516473
 30
0.0
 11
-98.42746248069705
 21
8.531681310655072
 31
0.0
  0
LINE
  5
621
330
1F
100
AcDbEntity
  8
外形線
100
AcDbLine
 10
-109.189183292406
 20
19.29340225082131
 30
0.0
 11
-108.1218046207854
 21
18.22602348922743
 31
0.0
  0
LINE
  5
622
330
1F
100
AcDbEntity
  8
外形線
100
AcDbLine
 10
-62.66290571666774
 20
-4.872668021850103
 30
0.0
 11
-82.77418521574123
 21
-3.818702264617513
 31
0.0
  0
LINE
  5
623
330
1F
100
AcDbEntity
  8
外形線
100
AcDbLine
 10
-62.66293339965044
 20
-5.255691166186664
 30
0.0
 11
-83.43370653728744
 21
-4.167163524803868
 31
0.0
  0
LINE
  5
624
330
1F
100
AcDbEntity
  8
外形線
100
AcDbLine
 10
-91.11589687185452
 20
33.02346452143068
 30
0.0
 11
-106.5727442717045
 21
19.10602757580514
 31
0.0
  0
LINE
  5
625
330
1F
100
AcDbEntity
  8
外形線
100
AcDbLine
 10
-73.29391926610721
 20
3.569186534915643
 30
0.0
 11
-80.91011066986034
 21
-3.288477313701775
 31
0.0
  0
LINE
  5
626
330
1F
100
AcDbEntity
  8
外形線
100
AcDbLine
 10
-62.66292663589793
 20
-6.779768043611637
 30
0.0
 11
-83.43367025014572
 21
-5.691241949452203
 31
0.0
  0
LINE
  5
627
330
1F
100
AcDbEntity
  8
外形線
100
AcDbLine
 10
-108.1255067449809
 20
18.22975148645326
 30
0.0
 11
-106.5727727721999
 21
19.10609248894451
 31
0.0
  0
LINE
  5
628
330
1F
100
AcDbEntity
  8
外形線
100
AcDbLine
 10
-62.66290571666774
 20
-4.007819213892728
 30
0.0
 11
-62.66290571666774
 21
-6.779685749956199
 31
0.0
  0
LINE
  5
629
330
1F
100
AcDbEntity
  8
外形線
100
AcDbLine
 10
-70.54271044491504
 20
12.26908722010646
 30
0.0
 11
-75.68025785701073
 21
12.53832911735907
 31
0.0
  0
LINE
  5
62A
330
1F
100
AcDbEntity
  8
外形線
100
AcDbLine
 10
-82.37302961297924
 20
26.0716552270809
 30
0.0
 11
-100.0505205237472
 21
10.1547377119432
 31
0.0
  0
LINE
  5
62B
330
1F
100
AcDbEntity
  8
外形線
100
AcDbLine
 10
-100.113435750892
 20
12.64823599564852
 30
0.0
 11
-101.1933515787893
 21
13.72661860008043
 31
0.0
  0
LINE
  5
62C
330
1F
100
AcDbEntity
  8
外形線
100
AcDbLine
 10
-66.55398105092695
 20
-2.771007326385869
 30
0.0
 11
-78.21266213799623
 21
-2.160014344023295
 31
0.0
  0
LINE
  5
62D
330
1F
100
AcDbEntity
  8
外形線
100
AcDbLine
 10
-102.8046505210001
 20
15.33793574607932
 30
0.0
 11
-103.8082948638788
 21
13.91252430548843
 31
0.0
  0
LINE
  5
62E
330
1F
100
AcDbEntity
  8
外形線
100
AcDbLine
 10
-103.8823348016768
 20
16.41560374688768
 30
0.0
 11
-102.8046567894134
 21
15.33792564378279
 31
0.0
  0
LINE
  5
62F
330
1F
100
AcDbEntity
  8
外形線
100
AcDbLine
 10
-65.38137282111214
 20
-3.220710114385638
 30
0.0
 11
-78.94230569567483
 21
-2.510026396496014
 31
0.0
  0
LINE
  5
630
330
1F
100
AcDbEntity
  8
外形線
100
AcDbLine
 10
-80.34890567126572
 20
22.26657362026339
 30
0.0
 11
-95.80704602738725
 21
8.347972489153164
 31
0.0
  0
LINE
  5
631
330
1F
100
AcDbEntity
  8
外形線
100
AcDbLine
 10
-93.80633344493372
 20
35.71394662919352
 30
0.0
 11
-92.72869184754593
 21
34.63630494096725
 31
0.0
  0
LINE
  5
632
330
1F
100
AcDbEntity
  8
外形線
100
AcDbLine
 10
-105.4313589566073
 20
15.53558273360173
 30
0.0
 11
-103.8823410456753
 21
16.41561408057103
 31
0.0
  0
LINE
  5
633
330
1F
100
AcDbEntity
  8
外形線
100
AcDbLine
 10
-91.17595268395126
 20
35.51262956760806
 30
0.0
 11
-90.10857131493244
 21
34.44524810861575
 31
0.0
  0
LINE
  5
634
330
1F
100
AcDbEntity
  8
外形線
100
AcDbLine
 10
-80.52447901281485
 20
22.62320633240856
 30
0.0
 11
-97.3600966180976
 21
7.464316527721733
 31
0.0
  0
LINE
  5
635
330
1F
100
AcDbEntity
  8
外形線
100
AcDbLine
 10
-108.9511627506058
 20
21.48443212308695
 30
0.0
 11
-108.185569662945
 21
20.71883897089148
 31
0.0
  0
LINE
  5
636
330
1F
100
AcDbEntity
  8
外形線
100
AcDbLine
 10
-90.03824958392632
 20
31.94584852026651
 30
0.0
 11
-105.4950998186462
 21
18.02840902210735
 31
0.0
  0
LINE
  5
637
330
1F
100
AcDbEntity
  8
外形線
100
AcDbLine
 10
-84.65736402664623
 20
26.56498276727115
 30
0.0
 11
-83.43169247636112
 21
27.25674228062366
 31
0.0
  0
LINE
  5
638
330
1F
100
AcDbEntity
  8
外形線
100
AcDbLine
 10
-74.43656254782131
 20
9.681653054398591
 30
0.0
 11
-87.66576820864974
 21
-2.230002075681681
 31
0.0
  0
LINE
  5
639
330
1F
100
AcDbEntity
  8
外形線
100
AcDbLine
 10
-73.89364052450305
 20
8.142078499028201
 30
0.0
 11
-86.59840369660107
 21
-3.297365508065723
 31
0.0
  0
LINE
  5
63A
330
1F
100
AcDbEntity
  8
外形線
100
AcDbLine
 10
-73.77164794326214
 20
7.737216752515704
 30
0.0
 11
-85.03732630369254
 21
-2.406466766835618
 31
0.0
  0
LINE
  5
63B
330
1F
100
AcDbEntity
  8
外形線
100
AcDbLine
 10
-73.38088796151153
 20
6.041025822078607
 30
0.0
 11
-83.95883896333861
 21
-3.483423910359931
 31
0.0
  0
LINE
  5
63C
330
1F
100
AcDbEntity
  8
外形線
100
AcDbLine
 10
-73.31448594014712
 20
5.579082674175762
 30
0.0
 11
-83.68409674686565
 21
-3.757776312643386
 31
0.0
  0
LINE
  5
63D
330
1F
100
AcDbEntity
  8
外形線
100
AcDbLine
 10
-88.48553198771142
 20
32.82220864458277
 30
0.0
 11
-87.41813241125479
 21
31.75480897815112
 31
0.0
  0
LINE
  5
63E
330
1F
100
AcDbEntity
  8
外形線
100
AcDbLine
 10
-91.11590667954802
 20
33.02351963702176
 30
0.0
 11
-90.03826508216022
 21
31.94587794879556
 31
0.0
  0
LINE
  5
63F
330
1F
100
AcDbEntity
  8
外形線
100
AcDbLine
 10
-106.572790564093
 20
19.10605973609242
 30
0.0
 11
-105.4951469436566
 21
18.02841602481737
 31
0.0
  0
LINE
  5
640
330
1F
100
AcDbEntity
  8
外形線
100
AcDbLine
 10
-87.41813706465173
 20
31.75480533701875
 30
0.0
 11
-105.4313723244462
 21
15.53558162149306
 31
0.0
  0
LINE
  5
641
330
1F
100
AcDbEntity
  8
外形線
100
AcDbLine
 10
-88.48550925193263
 20
32.82219265769587
 30
0.0
 11
-106.4987119107235
 21
16.60299829630696
 31
0.0
  0
LINE
  5
642
330
1F
100
AcDbEntity
  8
外形線
100
AcDbLine
 10
-90.10852686525295
 20
34.4452546630346
 30
0.0
 11
-108.1217380286534
 21
18.22605264404481
 31
0.0
  0
LINE
  5
643
330
1F
100
AcDbEntity
  8
外形線
100
AcDbLine
 10
-91.17595731428844
 20
35.51261262382118
 30
0.0
 11
-109.1891628079491
 21
19.29341570989865
 31
0.0
  0
LINE
  5
644
330
1F
100
AcDbEntity
  8
外形線
100
AcDbLine
 10
-62.66291802463697
 20
35.07342566163652
 30
0.0
 11
-60.94530812975364
 21
34.59514521303177
 31
0.0
  0
LINE
  5
645
330
1F
100
AcDbEntity
  8
外形線
100
AcDbLine
 10
-62.66292267827913
 20
-6.779698656655511
 30
0.0
 11
-60.94530727106874
 21
-7.257980640206183
 31
0.0
  0
LINE
  5
646
330
1F
100
AcDbEntity
  8
外形線
100
AcDbLine
 10
-60.94530883277595
 20
-7.258025344028706
 30
0.0
 11
-85.15128752471454
 21
-5.989469921546486
 31
0.0
  0
LINE
  5
647
330
1F
100
AcDbEntity
  8
外形線
100
AcDbLine
 10
-74.58881324062904
 20
10.06630268326142
 30
0.0
 11
-86.65127430049855
 21
-0.7948086977971514
 31
0.0
  0
LINE
  5
648
330
1F
100
AcDbEntity
  8
外形線
100
AcDbLine
 10
-73.39653645529695
 20
2.962069421244648
 30
0.0
 11
-79.94413035075014
 21
-2.933422901880475
 31
0.0
  0
LINE
  5
649
330
1F
100
AcDbEntity
  8
外形線
100
AcDbLine
 10
-60.94530584789332
 20
-7.257972493120262
 30
0.0
 11
-60.94530584789332
 21
-8.7674787187062
 31
0.0
  0
LINE
  5
64A
330
1F
100
AcDbEntity
  8
外形線
100
AcDbLine
 10
-60.94529291405152
 20
-8.767495280753834
 30
0.0
 11
-85.15125113009112
 21
-7.49894093134587
 31
0.0
  0
LINE
  5
64B
330
1F
100
AcDbEntity
  8
外形線
100
AcDbLine
 10
-85.15129950023711
 20
-5.989417805620262
 30
0.0
 11
-85.15129950023711
 21
-7.498916401811667
 31
0.0
  0
LINE
  5
64C
330
1F
100
AcDbEntity
  8
外形線
100
AcDbLine
 10
-83.43369393639063
 20
-5.691150193767497
 30
0.0
 11
-85.151300796684
 21
-5.989400116079932
 31
0.0
  0
LINE
  5
64D
330
1F
100
AcDbEntity
  8
外形線
100
AcDbLine
 10
-92.72869708160952
 20
34.63627926119895
 30
0.0
 11
-108.1855359768498
 21
20.71884997317434
 31
0.0
  0
LINE
  5
64E
330
1F
100
AcDbEntity
  8
外形線
100
AcDbLine
 10
-93.80634190197245
 20
35.71395523251922
 30
0.0
 11
-102.9967576121938
 21
27.43885049464533
 31
0.0
  0
LINE
  5
64F
330
1F
100
AcDbEntity
  8
外形線
100
AcDbLine
 10
-108.1855510658024
 20
20.71887218438883
 30
0.0
 11
-109.1891902340882
 21
19.29344310408495
 31
0.0
  0
LINE
  5
650
330
1F
100
AcDbEntity
  8
外形線
100
AcDbLine
 10
-93.80633086802545
 20
35.71389319274107
 30
0.0
 11
-92.80269328701825
 21
37.1393140598181
 31
0.0
  0
LINE
  5
651
330
1F
100
AcDbEntity
  8
外形線
100
AcDbLine
 10
-93.04946229194625
 20
37.38613933352812
 30
0.0
 11
-92.79899268552171
 21
37.13566970599067
 31
0.0
  0
LINE
  5
652
330
1F
100
AcDbEntity
  8
外形線
100
AcDbLine
 10
-83.43369820095125
 20
-4.167129292436667
 30
0.0
 11
-83.43369820095125
 21
-5.691146626421042
 31
0.0
  0
LINE
  5
653
330
1F
100
AcDbEntity
  8
外形線
100
AcDbLine
 10
-62.66293293263371
 20
-9.060511673478217
 30
0.0
 11
-83.43370676966555
 21
-7.971983995442471
 31
0.0
  0
LINE
  5
654
330
1F
100
AcDbEntity
  8
外形線
100
AcDbLine
 10
-62.66293015706143
 20
-9.060506347964915
 30
0.0
 11
-60.94532622408245
 21
-8.762260471218013
 31
0.0
  0
LINE
  5
655
330
1F
100
AcDbEntity
  8
外形線
100
AcDbLine
 10
-83.43369820095125
 20
-15.58161903853042
 30
0.0
 11
-83.43369820095125
 21
-15.83331276411636
 31
0.0
  0
LINE
  5
656
330
1F
100
AcDbEntity
  8
外形線
100
AcDbLine
 10
-85.15127845360082
 20
-7.493689989462851
 30
0.0
 11
-83.43366212766923
 21
-7.971972228837842
 31
0.0
  0
LINE
  5
657
330
1F
100
AcDbEntity
  8
外形線
100
AcDbLine
 10
-85.73647153666744
 20
27.64409273492248
 30
0.0
 11
-101.1933501200861
 21
13.726627711427
 31
0.0
  0
LINE
  5
658
330
1F
100
AcDbEntity
  8
外形線
100
AcDbLine
 10
-79.66168750109495
 20
20.83733593126809
 30
0.0
 11
-94.72856949950564
 21
7.271026142759977
 31
0.0
  0
LINE
  5
659
330
1F
100
AcDbEntity
  8
外形線
100
AcDbLine
 10
-79.48868884953424
 20
20.4713730205375
 30
0.0
 11
-95.73703992559824
 21
5.841261476982878
 31
0.0
  0
LINE
  5
65A
330
1F
100
AcDbEntity
  8
外形線
100
AcDbLine
 10
-92.79900590805572
 20
37.13568908296878
 30
0.0
 11
-97.82869867876861
 21
32.6069239226849
 31
0.0
  0
LINE
  5
65B
330
1F
100
AcDbEntity
  8
外形線
100
AcDbLine
 10
-78.81943591846954
 20
19.04553729635373
 30
0.0
 11
-94.66967001134683
 21
4.773892642401589
 31
0.0
  0
LINE
  5
65C
330
1F
100
AcDbEntity
  8
外形線
100
AcDbLine
 10
-78.64972890056406
 20
18.68363277802768
 30
0.0
 11
-93.11461609646356
 21
5.659362675155987
 31
0.0
  0
LINE
  5
65D
330
1F
100
AcDbEntity
  8
外形線
100
AcDbLine
 10
-77.97096746775503
 20
17.24678572581126
 30
0.0
 11
-92.03614227170012
 21
4.582419028045591
 31
0.0
  0
LINE
  5
65E
330
1F
100
AcDbEntity
  8
外形線
100
AcDbLine
 10
-77.79656246920812
 20
16.88208396505007
 30
0.0
 11
-93.04661872105013
 21
3.150842993859953
 31
0.0
  0
LINE
  5
65F
330
1F
100
AcDbEntity
  8
外形線
100
AcDbLine
 10
-88.42546271301943
 20
30.33308850154231
 30
0.0
 11
-103.8823412964381
 21
16.41562347804677
 31
0.0
  0
LINE
  5
660
330
1F
100
AcDbEntity
  8
外形線
100
AcDbLine
 10
-87.34778577711074
 20
29.25539396527643
 30
0.0
 11
-102.8046643605294
 21
15.33792894178091
 31
0.0
  0
LINE
  5
661
330
1F
100
AcDbEntity
  8
外形線
100
AcDbLine
 10
-85.79508131600244
 20
30.13174943643162
 30
0.0
 11
-103.808312323492
 21
13.91252954970639
 31
0.0
  0
LINE
  5
662
330
1F
100
AcDbEntity
  8
外形線
100
AcDbLine
 10
-87.41813632961743
 20
31.75479480958308
 30
0.0
 11
-88.42546429120613
 21
30.33307801697421
 31
0.0
  0
LINE
  5
663
330
1F
100
AcDbEntity
  8
外形線
100
AcDbLine
 10
-88.42546777587044
 20
30.33308050655718
 30
0.0
 11
-87.34778841490795
 21
29.25540105475306
 31
0.0
  0
LINE
  5
664
330
1F
100
AcDbEntity
  8
外形線
100
AcDbLine
 10
-87.34777734773182
 20
29.25539971526752
 30
0.0
 11
-85.79506515557204
 21
30.1317405033885
 31
0.0
  0
LINE
  5
665
330
1F
100
AcDbEntity
  8
外形線
100
AcDbLine
 10
-85.79507285354743
 20
30.13174928363
 30
0.0
 11
-84.7277110406655
 21
29.06438738077623
 31
0.0
  0
LINE
  5
666
330
1F
100
AcDbEntity
  8
外形線
100
AcDbLine
 10
-84.72771391362213
 20
29.06437793090211
 30
0.0
 11
-85.73647492556844
 21
27.64409398992115
 31
0.0
  0
LINE
  5
667
330
1F
100
AcDbEntity
  8
外形線
100
AcDbLine
 10
-85.73647737502144
 20
27.64408987904321
 30
0.0
 11
-84.65736704431863
 21
26.56497945737817
 31
0.0
  0
LINE
  5
668
330
1F
100
AcDbEntity
  8
外形線
100
AcDbLine
 10
-84.72772189138963
 20
29.06437629010395
 30
0.0
 11
-102.7409486465744
 21
12.84516023217918
 31
0.0
  0
LINE
  5
669
330
1F
100
AcDbEntity
  8
外形線
100
AcDbLine
 10
-84.65735231836253
 20
26.56497881612847
 30
0.0
 11
-100.1134257987337
 21
12.64823871218542
 31
0.0
  0
LINE
  5
66A
330
1F
100
AcDbEntity
  8
外形線
100
AcDbLine
 10
-83.43161323951155
 20
27.14690705463863
 30
0.0
 11
-101.1178689369456
 21
11.22209767367533
 31
0.0
  0
LINE
  5
66B
330
1F
100
AcDbEntity
  8
外形線
100
AcDbLine
 10
-83.4337001082998
 20
-15.83330513472182
 30
0.0
 11
-60.94530775524193
 21
-15.83330513472182
 31
0.0
  0
LINE
  5
66C
330
1F
100
AcDbEntity
  8
外形線
100
AcDbLine
 10
-62.66290571666774
 20
-9.060500874467919
 30
0.0
 11
-62.66290571666774
 21
-10.58451820845229
 31
0.0
  0
LINE
  5
66D
330
1F
100
AcDbEntity
  8
外形線
100
AcDbLine
 10
-62.66292085396024
 20
-10.58459646930494
 30
0.0
 11
-83.43366793542053
 21
-9.496070193440344
 31
0.0
  0
LINE
  5
66E
330
1F
100
AcDbEntity
  8
外形線
100
AcDbLine
 10
-60.94530646102443
 20
-11.06284595114113
 30
0.0
 11
-85.15128443868745
 21
-9.794290566091715
 31
0.0
  0
LINE
  5
66F
330
1F
100
AcDbEntity
  8
外形線
100
AcDbLine
 10
-62.66291919184303
 20
-10.58452508894137
 30
0.0
 11
-60.94531480928693
 21
-11.06280400260021
 31
0.0
  0
LINE
  5
670
330
1F
100
AcDbEntity
  8
外形線
100
AcDbLine
 10
-60.94530584789332
 20
-11.06280495161636
 30
0.0
 11
-60.94530584789332
 21
-12.57230354780776
 31
0.0
  0
LINE
  5
671
330
1F
100
AcDbEntity
  8
外形線
100
AcDbLine
 10
-77.11032787058376
 20
15.47152836854235
 30
0.0
 11
-91.97924340459595
 21
2.083468757081448
 31
0.0
  0
LINE
  5
672
330
1F
100
AcDbEntity
  8
外形線
100
AcDbLine
 10
-76.93460537932184
 20
15.11504535124084
 30
0.0
 11
-90.42218346242185
 21
2.970750161875997
 31
0.0
  0
LINE
  5
673
330
1F
100
AcDbEntity
  8
外形線
100
AcDbLine
 10
-76.23642521200945
 20
13.69566764302433
 30
0.0
 11
-89.34370152830412
 21
1.893798416917291
 31
0.0
  0
LINE
  5
674
330
1F
100
AcDbEntity
  8
外形線
100
AcDbLine
 10
-60.94529364488514
 20
-12.57233864486284
 30
0.0
 11
-85.15125959890983
 21
-11.30378388993261
 31
0.0
  0
LINE
  5
675
330
1F
100
AcDbEntity
  8
外形線
100
AcDbLine
 10
-62.66292794926293
 20
-12.86535533704975
 30
0.0
 11
-83.43369953436205
 21
-11.77682777703035
 31
0.0
  0
LINE
  5
676
330
1F
100
AcDbEntity
  8
外形線
100
AcDbLine
 10
-62.66293237147745
 20
-12.86534248767202
 30
0.0
 11
-60.94532843849844
 21
-12.56709661092512
 31
0.0
  0
LINE
  5
677
330
1F
100
AcDbEntity
  8
外形線
100
AcDbLine
 10
-85.15129950023711
 20
-9.794242634721824
 30
0.0
 11
-85.15129950023711
 21
-11.30374886030776
 31
0.0
  0
LINE
  5
678
330
1F
100
AcDbEntity
  8
外形線
100
AcDbLine
 10
-85.15128323565544
 20
-11.29851411932978
 30
0.0
 11
-83.43366782844503
 21
-11.77679610288045
 31
0.0
  0
LINE
  5
679
330
1F
100
AcDbEntity
  8
中心線
100
AcDbLine
 10
-69.74066063573513
 20
-2.64859119102172
 30
0.0
 11
-104.9928793064689
 21
32.60362450817246
 31
0.0
  0
LINE
  5
67A
330
1F
100
AcDbEntity
  8
外形線
100
AcDbLine
 10
-76.06008665123194
 20
13.33271200633382
 30
0.0
 11
-90.35618941319793
 21
0.4604164074411587
 31
0.0
  0
LINE
  5
67B
330
1F
100
AcDbEntity
  8
外形線
100
AcDbLine
 10
-83.43369820095125
 20
-7.971961750932762
 30
0.0
 11
-83.43369820095125
 21
-9.495979084917136
 31
0.0
  0
LINE
  5
67C
330
1F
100
AcDbEntity
  8
外形線
100
AcDbLine
 10
-83.43369820095125
 20
-15.83330513472182
 30
0.0
 11
-60.94530584789332
 21
-15.83330513472182
 31
0.0
  0
LINE
  5
67D
330
1F
100
AcDbEntity
  8
外形線
100
AcDbLine
 10
-83.43370194471932
 20
-13.30082573631782
 30
0.0
 11
-85.15130880501272
 21
-13.59907565863024
 31
0.0
  0
LINE
  5
67E
330
1F
100
AcDbEntity
  8
外形線
100
AcDbLine
 10
-83.43369820095125
 20
-11.77679420942886
 30
0.0
 11
-83.43369820095125
 21
-13.3008039140187
 31
0.0
  0
LINE
  5
67F
330
1F
100
AcDbEntity
  8
中心線
100
AcDbLine
 10
-73.04832222438872
 20
-20.09471870894058
 30
0.0
 11
-73.04832222438872
 21
47.04450057511703
 31
0.0
  0
LINE
  5
680
330
1F
100
AcDbEntity
  8
外形線
100
AcDbLine
 10
-62.66292510177102
 20
-14.3893568244021
 30
0.0
 11
-60.94531704433014
 21
-14.86763676135825
 31
0.0
  0
LINE
  5
681
330
1F
100
AcDbEntity
  8
外形線
100
AcDbLine
 10
-106.4987652935644
 20
16.60298402519444
 30
0.0
 11
-105.4313792040988
 21
15.53559784575492
 31
0.0
  0
LINE
  5
682
330
1F
100
AcDbEntity
  8
外形線
100
AcDbLine
 10
-90.03826160581294
 20
31.94586035594227
 30
0.0
 11
-88.48553261620661
 21
32.82219854600052
 31
0.0
  0
LINE
  5
683
330
1F
100
AcDbEntity
  8
外形線
100
AcDbLine
 10
-75.22164847211704
 20
11.5445122255287
 30
0.0
 11
-87.72975353149815
 21
0.2821403478788511
 31
0.0
  0
LINE
  5
684
330
1F
100
AcDbEntity
  8
外形線
100
AcDbLine
 10
-62.66292840516602
 20
-14.3894241962522
 30
0.0
 11
-83.43367945978412
 21
-13.30089771216754
 31
0.0
  0
LINE
  5
685
330
1F
100
AcDbEntity
  8
外形線
100
AcDbLine
 10
-60.94530584789332
 20
-14.86762978071792
 30
0.0
 11
-60.94530584789332
 21
-15.83331276411636
 31
0.0
  0
LINE
  5
686
330
1F
100
AcDbEntity
  8
外形線
100
AcDbLine
 10
-71.32320716951586
 20
-15.83330222428886
 30
0.0
 11
-85.15126135901104
 21
-15.10861956023676
 31
0.0
  0
LINE
  5
687
330
1F
100
AcDbEntity
  8
外形線
100
AcDbLine
 10
-78.63204662898853
 20
-15.83330231475224
 30
0.0
 11
-83.43370615052561
 21
-15.5816631928444
 31
0.0
  0
LINE
  5
688
330
1F
100
AcDbEntity
  8
外形線
100
AcDbLine
 10
-85.15129950023711
 20
-13.59907509321792
 30
0.0
 11
-85.15129950023711
 21
-15.10858131880385
 31
0.0
  0
LINE
  5
689
330
1F
100
AcDbEntity
  8
外形線
100
AcDbLine
 10
-85.15127077115961
 20
-15.10335097127705
 30
0.0
 11
-83.43365536394925
 21
-15.58163295482772
 31
0.0
  0
LINE
  5
68A
330
1F
100
AcDbEntity
  8
外形線
100
AcDbLine
 10
-75.38765031457733
 20
11.90976830532901
 30
0.0
 11
-89.28883300445322
 21
-0.6069389216469859
 31
0.0
  0
LINE
  5
68B
330
1F
100
AcDbEntity
  8
外形線
100
AcDbLine
 10
-60.94530488783982
 20
-14.8676817961318
 30
0.0
 11
-85.15129000825835
 21
-13.59912603675417
 31
0.0
  0
LINE
  5
68C
330
1F
100
AcDbEntity
  8
外形線
100
AcDbLine
 10
-102.7409359328352
 20
12.84516478922936
 30
0.0
 11
-101.1933452821039
 21
13.7266327767463
 31
0.0
  0
LINE
  5
68D
330
1F
100
AcDbEntity
  8
外形線
100
AcDbLine
 10
-103.8082967185067
 20
13.91251522334721
 30
0.0
 11
-102.7409349056248
 21
12.84515332049346
 31
0.0
  0
LINE
  5
68E
330
1F
100
AcDbEntity
  8
外形線
100
AcDbLine
 10
-62.66290571666774
 20
-12.86532570356948
 30
0.0
 11
-62.66290571666774
 21
-14.38934303755386
 31
0.0
  0
LINE
  5
68F
330
1F
100
AcDbEntity
  8
外形線
100
AcDbLine
 10
-83.43370545746694
 20
-9.495989270299672
 30
0.0
 11
-85.15131231776033
 21
-9.794239192612096
 31
0.0
  0
LINE
  5
690
330
1F
100
AcDbEntity
  8
外形線
100
AcDbLine
 10
-85.15129950023711
 20
35.86371253495588
 30
0.0
 11
-85.15129950023711
 21
34.3542024946727
 31
0.0
  0
LINE
  5
691
330
1F
100
AcDbEntity
  8
外形線
100
AcDbLine
 10
-60.94530584789332
 20
34.59515021806135
 30
0.0
 11
-60.94530584789332
 21
33.08561728959458
 31
0.0
  0
LINE
  5
692
330
1F
100
AcDbEntity
  8
外形線
100
AcDbLine
 10
-62.66290571666774
 20
36.59745429520981
 30
0.0
 11
-62.66290571666774
 21
35.07344077592271
 31
0.0
  0
LINE
  5
693
330
1F
100
AcDbEntity
  8
外形線
100
AcDbLine
 10
-83.43369820095125
 20
37.68599532609361
 30
0.0
 11
-83.43369820095125
 21
36.16197989945786
 31
0.0
  0
LINE
  5
694
330
1F
100
AcDbEntity
  8
外形線
100
AcDbLine
 10
-60.94530127805683
 20
33.08561450706725
 30
0.0
 11
-85.15129996971062
 21
34.3541709776685
 31
0.0
  0
LINE
  5
695
330
1F
100
AcDbEntity
  8
外形線
100
AcDbLine
 10
-60.94528893336043
 20
34.59511352205686
 30
0.0
 11
-85.15124857795113
 21
35.86366794633051
 31
0.0
  0
LINE
  5
696
330
1F
100
AcDbEntity
  8
外形線
100
AcDbLine
 10
-62.66291486266434
 20
35.07339798786524
 30
0.0
 11
-83.43367603618593
 21
36.16192500224821
 31
0.0
  0
LINE
  5
697
330
1F
100
AcDbEntity
  8
外形線
100
AcDbLine
 10
-62.66292742416514
 20
36.59740068045449
 30
0.0
 11
-83.43368312157425
 21
37.68592740785249
 31
0.0
  0
LINE
  5
698
330
1F
100
AcDbEntity
  8
外形線
100
AcDbLine
 10
-85.15128706736772
 20
38.16429318341275
 30
0.0
 11
-83.43367120079681
 21
37.68601107194991
 31
0.0
  0
LINE
  5
699
330
1F
100
AcDbEntity
  8
外形線
100
AcDbLine
 10
-83.43365972674645
 20
36.16194355709644
 30
0.0
 11
-85.15126282858394
 21
35.8636942874125
 31
0.0
  0
LINE
  5
69A
330
1F
100
AcDbEntity
  8
外形線
100
AcDbLine
 10
-62.66291994768502
 20
36.59747802578522
 30
0.0
 11
-60.94531437038103
 21
36.89572418805382
 31
0.0
  0
LINE
  5
69B
330
1F
100
AcDbEntity
  8
外形線
100
AcDbLine
 10
-62.66295102595893
 20
38.87823853348857
 30
0.0
 11
-60.94533561874861
 21
38.39995654993791
 31
0.0
  0
LINE
  5
69C
330
1F
100
AcDbEntity
  8
外形線
100
AcDbLine
 10
-85.15129950023711
 20
39.66854308610334
 30
0.0
 11
-85.15129950023711
 21
38.15903876786606
 31
0.0
  0
LINE
  5
69D
330
1F
100
AcDbEntity
  8
外形線
100
AcDbLine
 10
-60.94530584789332
 20
38.39997886186021
 30
0.0
 11
-60.94530584789332
 21
36.8904745436229
 31
0.0
  0
LINE
  5
69E
330
1F
100
AcDbEntity
  8
外形線
100
AcDbLine
 10
-62.66290571666774
 20
40.40229056840317
 30
0.0
 11
-62.66290571666774
 21
38.87827704911607
 31
0.0
  0
LINE
  5
69F
330
1F
100
AcDbEntity
  8
外形線
100
AcDbLine
 10
-83.43369820095125
 20
41.49082587724106
 30
0.0
 11
-83.43369820095125
 21
39.96681045060532
 31
0.0
  0
LINE
  5
6A0
330
1F
100
AcDbEntity
  8
外形線
100
AcDbLine
 10
-60.94526956422392
 20
36.89042950793459
 30
0.0
 11
-85.15124397050923
 21
38.15898470581988
 31
0.0
  0
LINE
  5
6A1
330
1F
100
AcDbEntity
  8
外形線
100
AcDbLine
 10
-60.94531887792512
 20
38.39995467383008
 30
0.0
 11
-85.15128185580172
 21
39.66850927279021
 31
0.0
  0
LINE
  5
6A2
330
1F
100
AcDbEntity
  8
外形線
100
AcDbLine
 10
-62.66292897042545
 20
38.87824976948028
 30
0.0
 11
-83.43367538225242
 21
39.96677601025158
 31
0.0
  0
LINE
  5
6A3
330
1F
100
AcDbEntity
  8
外形線
100
AcDbLine
 10
-62.66291998905703
 20
40.40229908223047
 30
0.0
 11
-83.43366544851662
 21
41.49082527309135
 31
0.0
  0
LINE
  5
6A4
330
1F
100
AcDbEntity
  8
外形線
100
AcDbLine
 10
-85.15129392715984
 20
41.96909283623003
 30
0.0
 11
-83.43368437679705
 21
41.49081248355938
 31
0.0
  0
LINE
  5
6A5
330
1F
100
AcDbEntity
  8
外形線
100
AcDbLine
 10
-83.43366936080734
 20
39.96680412676415
 30
0.0
 11
-85.15127903994274
 21
39.66855371498031
 31
0.0
  0
LINE
  5
6A6
330
1F
100
AcDbEntity
  8
外形線
100
AcDbLine
 10
-62.66294058277903
 20
40.40226180065316
 30
0.0
 11
-60.94533688470363
 21
40.70050763661129
 31
0.0
  0
LINE
  5
6A7
330
1F
100
AcDbEntity
  8
外形線
100
AcDbLine
 10
-62.66291876438121
 20
42.68308669012284
 30
0.0
 11
-60.94530886949796
 21
42.20480624151806
 31
0.0
  0
LINE
  5
6A8
330
1F
100
AcDbEntity
  8
外形線
100
AcDbLine
 10
-85.15129950023711
 20
43.47337554459945
 30
0.0
 11
-85.15129950023711
 21
41.96387122636211
 31
0.0
  0
LINE
  5
6A9
330
1F
100
AcDbEntity
  8
外形線
100
AcDbLine
 10
-60.94530584789332
 20
42.20480750565903
 30
0.0
 11
-60.94530584789332
 21
40.69530318742168
 31
0.0
  0
LINE
  5
6AA
330
1F
100
AcDbEntity
  8
外形線
100
AcDbLine
 10
-62.66290571666774
 20
44.20711539750469
 30
0.0
 11
-62.66290571666774
 21
42.68310569291489
 31
0.0
  0
LINE
  5
6AB
330
1F
100
AcDbEntity
  8
外形線
100
AcDbLine
 10
-83.43369820095125
 20
45.29565452103988
 30
0.0
 11
-83.43369820095125
 21
43.77163909440414
 31
0.0
  0
LINE
  5
6AC
330
1F
100
AcDbEntity
  8
外形線
100
AcDbLine
 10
-60.94529520835313
 20
40.69531627352175
 30
0.0
 11
-85.15126294806675
 21
41.96387112203405
 31
0.0
  0
LINE
  5
6AD
330
1F
100
AcDbEntity
  8
外形線
100
AcDbLine
 10
-60.94532035128882
 20
42.20479242355554
 30
0.0
 11
-85.15129428139044
 21
43.4733475964856
 31
0.0
  0
LINE
  5
6AE
330
1F
100
AcDbEntity
  8
外形線
100
AcDbLine
 10
-62.66290911934743
 20
44.20708079608033
 30
0.0
 11
-83.43366362629733
 21
45.29560746109029
 31
0.0
  0
LINE
  5
6AF
330
1F
100
AcDbEntity
  8
外形線
100
AcDbLine
 10
-60.94530584789332
 20
45.76869796281235
 30
0.0
 11
-60.94530584789332
 21
44.50013373856914
 31
0.0
  0
LINE
  5
6B0
330
1F
100
AcDbEntity
  8
外形線
100
AcDbLine
 10
-62.66285506899925
 20
44.207114340406
 30
0.0
 11
-60.94525137092384
 21
44.50536017636411
 31
0.0
  0
LINE
  5
6B1
330
1F
100
AcDbEntity
  8
外形線
100
AcDbLine
 10
-83.43370123097383
 20
43.77161437393215
 30
0.0
 11
-85.15131091010923
 21
43.47336396214834
 31
0.0
  0
LINE
  5
6B2
330
1F
100
AcDbEntity
  8
外形線
100
AcDbLine
 10
-85.15130621218125
 20
45.77391577879985
 30
0.0
 11
-83.43369123562132
 21
45.29563391516679
 31
0.0
  0
LINE
  5
6B3
330
1F
100
AcDbEntity
  8
外形線
100
AcDbLine
 10
-62.66294198015724
 20
42.6831225031779
 30
0.0
 11
-83.43369029671903
 21
43.77164884377009
 31
0.0
  0
LINE
  5
6B4
330
1F
100
AcDbEntity
  8
外形線
100
AcDbLine
 10
-62.66290129720843
 20
32.7925960181048
 30
0.0
 11
-83.43369889878282
 21
33.88112494156175
 31
0.0
  0
LINE
  5
6B5
330
1F
100
AcDbEntity
  8
外形線
100
AcDbLine
 10
-62.66289958100181
 20
27.46370274232041
 30
0.0
 11
-83.43369789685175
 21
28.55223170321017
 31
0.0
  0
LINE
  5
6B6
330
1F
100
AcDbEntity
  8
外形線
100
AcDbLine
 10
-60.94530712416965
 20
29.2807828708296
 30
0.0
 11
-85.15130129207824
 21
30.54933910435635
 31
0.0
  0
LINE
  5
6B7
330
1F
100
AcDbEntity
  8
外形線
100
AcDbLine
 10
-60.94530129224445
 20
30.79026694740347
 30
0.0
 11
-85.15129998389824
 21
32.05882341800475
 31
0.0
  0
LINE
  5
6B8
330
1F
100
AcDbEntity
  8
外形線
100
AcDbLine
 10
-62.66290365784644
 20
31.26852725872323
 30
0.0
 11
-83.43370006896154
 21
32.35705611979216
 31
0.0
  0
LINE
  5
6B9
330
1F
100
AcDbEntity
  8
外形線
100
AcDbLine
 10
-60.94529648207513
 20
44.50015783271683
 30
0.0
 11
-85.15126136468655
 21
45.76871253149781
 31
0.0
  0
LINE
  5
6BA
330
1F
100
AcDbEntity
  8
外形線
100
AcDbLine
 10
-63.97737783403404
 20
25.63485938301153
 30
0.0
 11
-82.69944529212462
 21
26.61602112393089
 31
0.0
  0
LINE
  5
6BB
330
1F
100
AcDbEntity
  8
外形線
100
AcDbLine
 10
-65.91104605731462
 20
21.93135696773328
 30
0.0
 11
-80.56214584749723
 21
22.69917273427171
 31
0.0
  0
LINE
  5
6BC
330
1F
100
AcDbEntity
  8
外形線
100
AcDbLine
 10
-65.18065854391553
 20
23.40257179174307
 30
0.0
 11
-81.35670722290333
 21
24.25030509462749
 31
0.0
  0
LINE
  5
6BD
330
1F
100
AcDbEntity
  8
外形線
100
AcDbLine
 10
-64.98623502364182
 20
23.78062531937857
 30
0.0
 11
-81.57076757660133
 21
24.64976591340861
 31
0.0
  0
LINE
  5
6BE
330
1F
100
AcDbEntity
  8
外形線
100
AcDbLine
 10
-64.18818399962595
 20
25.26287480315793
 30
0.0
 11
-82.46112542186473
 21
26.22049933141557
 31
0.0
  0
LINE
  5
6BF
330
1F
100
AcDbEntity
  8
外形線
100
AcDbLine
 10
-63.09790135342672
 20
27.09823420697137
 30
0.0
 11
-83.43369826495733
 21
28.1639661805028
 31
0.0
  0
LINE
  5
6C0
330
1F
100
AcDbEntity
  8
外形線
100
AcDbLine
 10
-66.79655227668563
 20
20.07068140661028
 30
0.0
 11
-79.61679664505393
 21
20.74254808541789
 31
0.0
  0
LINE
  5
6C1
330
1F
100
AcDbEntity
  8
外形線
100
AcDbLine
 10
-68.55285148215006
 20
16.35789512652309
 30
0.0
 11
-77.77698958499073
 21
16.84130174920099
 31
0.0
  0
LINE
  5
6C2
330
1F
100
AcDbEntity
  8
外形線
100
AcDbLine
 10
-67.84188455956304
 20
17.84469694073681
 30
0.0
 11
-78.51849140120254
 21
18.4042226544062
 31
0.0
  0
LINE
  5
6C3
330
1F
100
AcDbEntity
  8
外形線
100
AcDbLine
 10
-67.66554359253145
 20
18.21848390792129
 30
0.0
 11
-78.70287595919094
 21
18.79691405535124
 31
0.0
  0
LINE
  5
6C4
330
1F
100
AcDbEntity
  8
外形線
100
AcDbLine
 10
-66.97438876351275
 20
19.6917471475208
 30
0.0
 11
-79.42886792352155
 21
20.34444527940349
 31
0.0
  0
LINE
  5
6C5
330
1F
100
AcDbEntity
  8
外形線
100
AcDbLine
 10
-66.09133706481593
 20
21.55777700912807
 30
0.0
 11
-80.36820887411201
 21
22.30598072277496
 31
0.0
  0
LINE
  5
6C6
330
1F
100
AcDbEntity
  8
外形線
100
AcDbLine
 10
-68.73715133668921
 20
15.97930341112749
 30
0.0
 11
-77.5852975009946
 21
16.44300553771751
 31
0.0
  0
LINE
  5
6C7
330
1F
100
AcDbEntity
  8
外形線
100
AcDbLine
 10
-69.46167366092772
 20
14.50778121191885
 30
0.0
 11
-76.82535867473034
 21
14.8936876308492
 31
0.0
  0
LINE
  5
6C8
330
1F
100
AcDbEntity
  8
外形線
100
AcDbLine
 10
-69.64543841758933
 20
14.13437948110572
 30
0.0
 11
-76.6313765782626
 21
14.50048943466851
 31
0.0
  0
LINE
  5
6C9
330
1F
100
AcDbEntity
  8
外形線
100
AcDbLine
 10
-70.36454521611943
 20
12.64800043098256
 30
0.0
 11
-75.86943940139423
 21
12.93649375975045
 31
0.0
  0
LINE
  5
6CA
330
1F
100
AcDbEntity
  8
外形線
100
AcDbLine
 10
-71.20478601096843
 20
10.79431149214213
 30
0.0
 11
-74.97717941831874
 21
10.9920101753284
 31
0.0
  0
LINE
  5
6CB
330
1F
100
AcDbEntity
  8
外形線
100
AcDbLine
 10
-71.36306980507244
 20
10.41957438821174
 30
0.0
 11
-74.80927814163003
 21
10.60017878880143
 31
0.0
  0
LINE
  5
6CC
330
1F
100
AcDbEntity
  8
外形線
100
AcDbLine
 10
-71.94102056283845
 20
8.925790176182148
 30
0.0
 11
-74.19786671772773
 21
9.044064031741923
 31
0.0
  0
LINE
  5
6CD
330
1F
100
AcDbEntity
  8
外形線
100
AcDbLine
 10
-72.07252924820235
 20
8.544431849910381
 30
0.0
 11
-74.05928872802324
 21
8.648551354573669
 31
0.0
  0
LINE
  5
6CE
330
1F
100
AcDbEntity
  8
外形線
100
AcDbLine
 10
-72.50657996010101
 20
7.057702272276285
 30
0.0
 11
-73.60423221129973
 21
7.115226602648532
 31
0.0
  0
LINE
  5
6CF
330
1F
100
AcDbEntity
  8
外形線
100
AcDbLine
 10
-72.59383020778644
 20
6.679250174573437
 30
0.0
 11
-73.51333385658032
 21
6.727438324886007
 31
0.0
  0
LINE
  5
6D0
330
1F
100
AcDbEntity
  8
外形線
100
AcDbLine
 10
-72.82417737973371
 20
5.167249206292126
 30
0.0
 11
-73.27441013304575
 21
5.190844418361933
 31
0.0
  0
LINE
  5
6D1
330
1F
100
AcDbEntity
  8
外形線
100
AcDbLine
 10
-72.84751529004745
 20
4.780214366982733
 30
0.0
 11
-73.24997580845144
 21
4.801305993950363
 31
0.0
  0
LINE
  5
6D2
330
1F
100
AcDbEntity
  8
外形線
100
AcDbLine
 10
-72.75906462680835
 20
3.266109857282143
 30
0.0
 11
-73.33259566926503
 21
3.296166725592653
 31
0.0
  0
LINE
  5
6D3
330
1F
100
AcDbEntity
  8
外形線
100
AcDbLine
 10
-72.68119315071543
 20
2.878996635353388
 30
0.0
 11
-73.40664068657045
 21
2.917014945500966
 31
0.0
  0
LINE
  5
6D4
330
1F
100
AcDbEntity
  8
外形線
100
AcDbLine
 10
-72.05653856216581
 20
1.322191667691754
 30
0.0
 11
-73.98146433848244
 21
1.42307067211041
 31
0.0
  0
LINE
  5
6D5
330
1F
100
AcDbEntity
  8
外形線
100
AcDbLine
 10
-71.79379097850343
 20
0.9201793119386252
 30
0.0
 11
-74.21484482750234
 21
1.04705875058292
 31
0.0
  0
LINE
  5
6D6
330
1F
100
AcDbEntity
  8
外形線
100
AcDbLine
 10
-70.24881074293474
 20
-0.6702800232239384
 30
0.0
 11
-75.51622279047773
 21
-0.3942323492009905
 31
0.0
  0
LINE
  5
6D7
330
1F
100
AcDbEntity
  8
外形線
100
AcDbLine
 10
-69.69766626026554
 20
-1.082195920824117
 30
0.0
 11
-75.95461935939194
 21
-0.7542896674505643
 31
0.0
  0
LINE
  5
6D8
330
1F
100
AcDbEntity
  8
外形線
100
AcDbLine
 10
-62.66290057905893
 20
28.98978478195486
 30
0.0
 11
-83.43369937109255
 21
30.07831376779984
 31
0.0
  0
LINE
  5
6D9
330
1F
100
AcDbEntity
  8
外形線
100
AcDbLine
 10
-60.94530308889043
 20
33.08561491613307
 30
0.0
 11
-62.66289804214334
 21
32.79259757786406
 31
0.0
  0
LINE
  5
6DA
330
1F
100
AcDbEntity
  8
外形線
100
AcDbLine
 10
-62.66290571666774
 20
32.7925989485301
 30
0.0
 11
-62.66290571666774
 21
31.26853202348127
 31
0.0
  0
LINE
  5
6DB
330
1F
100
AcDbEntity
  8
外形線
100
AcDbLine
 10
-62.66290285613083
 20
31.26853754864254
 30
0.0
 11
-60.94530483165875
 21
30.79027135336133
 31
0.0
  0
LINE
  5
6DC
330
1F
100
AcDbEntity
  8
外形線
100
AcDbLine
 10
-60.94530584789332
 20
30.79026435380356
 30
0.0
 11
-60.94530584789332
 21
29.28078864579575
 31
0.0
  0
LINE
  5
6DD
330
1F
100
AcDbEntity
  8
外形線
100
AcDbLine
 10
-60.94530578990175
 20
29.28078565062506
 30
0.0
 11
-62.66290181264452
 21
28.98979458485178
 31
0.0
  0
LINE
  5
6DE
330
1F
100
AcDbEntity
  8
外形線
100
AcDbLine
 10
-62.66290571666774
 20
28.98979209428208
 30
0.0
 11
-62.66290571666774
 21
27.46369956498521
 31
0.0
  0
LINE
  5
6DF
330
1F
100
AcDbEntity
  8
外形線
100
AcDbLine
 10
-62.83347106293462
 20
27.51120241473956
 30
0.0
 11
-62.66289975910854
 21
27.46370654453375
 31
0.0
  0
LINE
  5
6E0
330
1F
100
AcDbEntity
  8
外形線
100
AcDbLine
 10
-85.15129616237693
 20
45.76870368485824
 30
0.0
 11
-60.94530203319603
 21
45.76870368485824
 31
0.0
  0
LINE
  5
6E1
330
1F
100
AcDbEntity
  8
外形線
100
AcDbLine
 10
-85.15130081838123
 20
30.54934856161941
 30
0.0
 11
-83.43369926238773
 21
30.07832941386619
 31
0.0
  0
LINE
  5
6E2
330
1F
100
AcDbEntity
  8
外形線
100
AcDbLine
 10
-83.4337002642801
 20
32.35706221037034
 30
0.0
 11
-85.15130113176514
 21
32.05882794524916
 31
0.0
  0
LINE
  5
6E3
330
1F
100
AcDbEntity
  8
外形線
100
AcDbLine
 10
-83.43370344615996
 20
45.76870368485824
 30
0.0
 11
-60.94531156993925
 21
45.76870368485824
 31
0.0
  0
LINE
  5
6E4
330
1F
100
AcDbEntity
  8
外形線
100
AcDbLine
 10
-85.15129950023711
 20
32.05881904130357
 30
0.0
 11
-85.15129950023711
 21
30.54933951859846
 31
0.0
  0
LINE
  5
6E5
330
1F
100
AcDbEntity
  8
外形線
100
AcDbLine
 10
-83.43369820095125
 20
33.88112281327622
 30
0.0
 11
-83.43369820095125
 21
32.35705588822739
 31
0.0
  0
LINE
  5
6E6
330
1F
100
AcDbEntity
  8
外形線
100
AcDbLine
 10
-83.43233910530724
 20
28.16389495143307
 30
0.0
 11
-83.43369913830024
 21
30.07832634342629
 31
0.0
  0
LINE
  5
6E7
330
1F
100
AcDbEntity
  8
外形線
100
AcDbLine
 10
-85.15129531550496
 20
34.35417966804874
 30
0.0
 11
-83.43369487283522
 21
33.88113392765845
 31
0.0
  0
LINE
  5
6E8
330
1F
100
AcDbEntity
  8
外形線
100
AcDbLine
 10
-108.9511736198347
 20
21.48443905827617
 30
0.0
 11
-93.04947585028765
 21
37.38613816823622
 31
0.0
  0
LINE
  5
6E9
330
1F
100
AcDbEntity
  8
外形線
100
AcDbLine
 10
-100.1134307257752
 20
12.64824111378959
 30
0.0
 11
-101.1178743115378
 21
11.22209078828712
 31
0.0
  0
LINE
  5
6EA
330
1F
100
AcDbEntity
  8
外形線
100
AcDbLine
 10
-101.1178779976852
 20
11.2220912767321
 30
0.0
 11
-100.0505302133559
 21
10.15473692452229
 31
0.0
  0
LINE
  5
6EB
330
1F
100
AcDbEntity
  8
外形線
100
AcDbLine
 10
-100.0505175252132
 20
10.1547341987291
 30
0.0
 11
-98.49947970460995
 21
11.03657709730188
 31
0.0
  0
LINE
  5
6EC
330
1F
100
AcDbEntity
  8
外形線
100
AcDbLine
 10
-98.49947791755637
 20
11.03658425961583
 30
0.0
 11
-97.42099322524154
 21
9.959629760373443
 31
0.0
  0
LINE
  5
6ED
330
1F
100
AcDbEntity
  8
外形線
100
AcDbLine
 10
-97.42099123588713
 20
9.959624705032636
 30
0.0
 11
-98.42745541601583
 21
8.531673511169456
 31
0.0
  0
LINE
  5
6EE
330
1F
100
AcDbEntity
  8
外形線
100
AcDbLine
 10
-98.42745754855185
 20
8.531680937914472
 30
0.0
 11
-97.36009713201063
 21
7.464312243939472
 31
0.0
  0
LINE
  5
6EF
330
1F
100
AcDbEntity
  8
外形線
100
AcDbLine
 10
-97.36009497968211
 20
7.464308813967958
 30
0.0
 11
-95.80704647819457
 21
8.34796367994798
 31
0.0
  0
LINE
  5
6F0
330
1F
100
AcDbEntity
  8
外形線
100
AcDbLine
 10
-95.80704386174012
 20
8.347968454343913
 30
0.0
 11
-94.72856652908923
 21
7.271025480191722
 31
0.0
  0
LINE
  5
6F1
330
1F
100
AcDbEntity
  8
外形線
100
AcDbLine
 10
-94.72856757739792
 20
7.271023898362726
 30
0.0
 11
-95.73703738692271
 21
5.841261544764362
 31
0.0
  0
LINE
  5
6F2
330
1F
100
AcDbEntity
  8
外形線
100
AcDbLine
 10
-95.73704294429242
 20
5.841252199512553
 30
0.0
 11
-94.66967537940291
 21
4.773877166891336
 31
0.0
  0
LINE
  5
6F3
330
1F
100
AcDbEntity
  8
外形線
100
AcDbLine
 10
-94.66967756042691
 20
4.773895227506101
 30
0.0
 11
-93.11462318590862
 21
5.659362413954937
 31
0.0
  0
LINE
  5
6F4
330
1F
100
AcDbEntity
  8
外形線
100
AcDbLine
 10
-93.11462093942784
 20
5.659356070329096
 30
0.0
 11
-92.03614294726751
 21
4.582419155277506
 31
0.0
  0
LINE
  5
6F5
330
1F
100
AcDbEntity
  8
外形線
100
AcDbLine
 10
-92.03614706651446
 20
4.582428651433644
 30
0.0
 11
-93.04662665011456
 21
3.150853642048017
 31
0.0
  0
LINE
  5
6F6
330
1F
100
AcDbEntity
  8
外形線
100
AcDbLine
 10
-93.04661979662874
 20
3.150846981042092
 30
0.0
 11
-91.97924890274395
 21
2.083475277403238
 31
0.0
  0
LINE
  5
6F7
330
1F
100
AcDbEntity
  8
外形線
100
AcDbLine
 10
-91.97925144229143
 20
2.083475671376417
 30
0.0
 11
-90.42219053198463
 21
2.970753632446673
 31
0.0
  0
LINE
  5
6F8
330
1F
100
AcDbEntity
  8
外形線
100
AcDbLine
 10
-90.42219221978085
 20
2.970741958258741
 30
0.0
 11
-89.34370848991543
 21
1.893794593154154
 31
0.0
  0
LINE
  5
6F9
330
1F
100
AcDbEntity
  8
外形線
100
AcDbLine
 10
-89.34369938231624
 20
1.893802915527004
 30
0.0
 11
-90.35619047930042
 21
0.460416727664722
 31
0.0
  0
LINE
  5
6FA
330
1F
100
AcDbEntity
  8
外形線
100
AcDbLine
 10
-90.35618628178564
 20
0.4604132760320854
 30
0.0
 11
-89.28882793018614
 21
-0.6069439959089209
 31
0.0
  0
LINE
  5
6FB
330
1F
100
AcDbEntity
  8
外形線
100
AcDbLine
 10
-89.28883677824082
 20
-0.6069409780443779
 30
0.0
 11
-87.72975679346792
 21
0.2821407926784332
 31
0.0
  0
LINE
  5
6FC
330
1F
100
AcDbEntity
  8
外形線
100
AcDbLine
 10
-87.72975822283575
 20
0.2821385308183437
 30
0.0
 11
-86.6512766263313
 21
-0.794810970686399
 31
0.0
  0
LINE
  5
6FD
330
1F
100
AcDbEntity
  8
外形線
100
AcDbLine
 10
-86.65127538236195
 20
-0.7948218367995139
 30
0.0
 11
-87.66577050689623
 21
-2.230014902078238
 31
0.0
  0
LINE
  5
6FE
330
1F
100
AcDbEntity
  8
外形線
100
AcDbLine
 10
-87.66577731363176
 20
-2.230015486824726
 30
0.0
 11
-86.59842008667654
 21
-3.29737388340993
 31
0.0
  0
LINE
  5
6FF
330
1F
100
AcDbEntity
  8
外形線
100
AcDbLine
 10
-86.59841083868961
 20
-3.29738336025025
 30
0.0
 11
-85.03732485091124
 21
-2.406475236193669
 31
0.0
  0
LINE
  5
700
330
1F
100
AcDbEntity
  8
外形線
100
AcDbLine
 10
-83.37175077577274
 20
-4.069678657184366
 30
0.0
 11
-85.03732769525504
 21
-2.406467301725654
 31
0.0
  0
LINE
  5
701
330
1F
100
AcDbEntity
  8
外形線
100
AcDbLine
 10
-63.92034427221283
 20
25.73407415464752
 30
0.0
 11
-47.59716443578951
 21
11.03658635207449
 31
0.0
  0
LINE
  5
702
330
1F
100
AcDbEntity
  8
外形線
100
AcDbLine
 10
-64.67745576167472
 20
24.3677559913358
 30
0.0
 11
-48.67564772146614
 21
9.959633257474362
 31
0.0
  0
LINE
  5
703
330
1F
100
AcDbEntity
  8
外形線
100
AcDbLine
 10
-53.36794876325988
 20
34.63624943897629
 30
0.0
 11
-54.92068439709911
 21
35.51259137894522
 31
0.0
  0
LINE
  5
704
330
1F
100
AcDbEntity
  8
外形線
100
AcDbLine
 10
-54.9807153326363
 20
33.02352838076377
 30
0.0
 11
-55.98435510980138
 21
34.44895236694413
 31
0.0
  0
LINE
  5
705
330
1F
100
AcDbEntity
  8
外形線
100
AcDbLine
 10
-40.60153952477885
 20
18.02842448929863
 30
0.0
 11
-39.59790474879672
 21
16.60300164721008
 31
0.0
  0
LINE
  5
706
330
1F
100
AcDbEntity
  8
外形線
100
AcDbLine
 10
-64.86437250780102
 20
24.01433271516473
 30
0.0
 11
-47.66918196808036
 21
8.531681310655072
 31
0.0
  0
LINE
  5
707
330
1F
100
AcDbEntity
  8
外形線
100
AcDbLine
 10
-36.90746115637143
 20
19.29340225082131
 30
0.0
 11
-37.97483982799202
 21
18.22602348922743
 31
0.0
  0
LINE
  5
708
330
1F
100
AcDbEntity
  8
外形線
100
AcDbLine
 10
-54.9807475769229
 20
33.02346452143064
 30
0.0
 11
-39.52390017707289
 21
19.10602757580511
 31
0.0
  0
LINE
  5
709
330
1F
100
AcDbEntity
  8
外形線
100
AcDbLine
 10
-72.80272518267013
 20
3.569186534915671
 30
0.0
 11
-65.18653377891713
 21
-3.288477313701775
 31
0.0
  0
LINE
  5
70A
330
1F
100
AcDbEntity
  8
外形線
100
AcDbLine
 10
-37.9711377037965
 20
18.22975148645326
 30
0.0
 11
-39.52387167657749
 21
19.10609248894451
 31
0.0
  0
LINE
  5
70B
330
1F
100
AcDbEntity
  8
外形線
100
AcDbLine
 10
-63.72361483579824
 20
26.0716552270809
 30
0.0
 11
-46.04612392503017
 21
10.1547377119432
 31
0.0
  0
LINE
  5
70C
330
1F
100
AcDbEntity
  8
外形線
100
AcDbLine
 10
-45.98320869788537
 20
12.64823599564852
 30
0.0
 11
-44.90329286998814
 21
13.72661860008043
 31
0.0
  0
LINE
  5
70D
330
1F
100
AcDbEntity
  8
外形線
100
AcDbLine
 10
-43.29199392777731
 20
15.33793574607932
 30
0.0
 11
-42.28834958489857
 21
13.9125243054884
 31
0.0
  0
LINE
  5
70E
330
1F
100
AcDbEntity
  8
外形線
100
AcDbLine
 10
-42.21430964710065
 20
16.41560374688768
 30
0.0
 11
-43.29198765936406
 21
15.33792564378279
 31
0.0
  0
LINE
  5
70F
330
1F
100
AcDbEntity
  8
外形線
100
AcDbLine
 10
-65.74773877751174
 20
22.26657362026339
 30
0.0
 11
-50.28959842139018
 21
8.347972489153164
 31
0.0
  0
LINE
  5
710
330
1F
100
AcDbEntity
  8
外形線
100
AcDbLine
 10
-52.29031100384367
 20
35.71394662919352
 30
0.0
 11
-53.3679526012315
 21
34.63630494096725
 31
0.0
  0
LINE
  5
711
330
1F
100
AcDbEntity
  8
外形線
100
AcDbLine
 10
-40.6652854921701
 20
15.53558273360173
 30
0.0
 11
-42.21430340310204
 21
16.41561408057103
 31
0.0
  0
LINE
  5
712
330
1F
100
AcDbEntity
  8
外形線
100
AcDbLine
 10
-54.92069176482623
 20
35.51262956760806
 30
0.0
 11
-55.98807313384503
 21
34.44524810861575
 31
0.0
  0
LINE
  5
713
330
1F
100
AcDbEntity
  8
外形線
100
AcDbLine
 10
-65.57216543596253
 20
22.62320633240856
 30
0.0
 11
-48.73654783067975
 21
7.464316527721733
 31
0.0
  0
LINE
  5
714
330
1F
100
AcDbEntity
  8
外形線
100
AcDbLine
 10
-37.14548169817164
 20
21.48443212308695
 30
0.0
 11
-37.91107478583243
 21
20.71883897089148
 31
0.0
  0
LINE
  5
715
330
1F
100
AcDbEntity
  8
外形線
100
AcDbLine
 10
-56.05839486485111
 20
31.94584852026651
 30
0.0
 11
-40.6015446301312
 21
18.02840902210732
 31
0.0
  0
LINE
  5
716
330
1F
100
AcDbEntity
  8
外形線
100
AcDbLine
 10
-61.43928042213126
 20
26.56498276727115
 30
0.0
 11
-62.66495197241632
 21
27.25674228062366
 31
0.0
  0
LINE
  5
717
330
1F
100
AcDbEntity
  8
外形線
100
AcDbLine
 10
-71.66008190095613
 20
9.681653054398591
 30
0.0
 11
-58.43087624012771
 21
-2.230002075681681
 31
0.0
  0
LINE
  5
718
330
1F
100
AcDbEntity
  8
外形線
100
AcDbLine
 10
-72.20300392427444
 20
8.142078499028201
 30
0.0
 11
-59.49824075217643
 21
-3.297365508065723
 31
0.0
  0
LINE
  5
719
330
1F
100
AcDbEntity
  8
外形線
100
AcDbLine
 10
-72.32499650551523
 20
7.737216752515704
 30
0.0
 11
-61.05931814508494
 21
-2.406466766835618
 31
0.0
  0
LINE
  5
71A
330
1F
100
AcDbEntity
  8
外形線
100
AcDbLine
 10
-72.71575648726582
 20
6.041025822078607
 30
0.0
 11
-62.13780548543875
 21
-3.483423910359931
 31
0.0
  0
LINE
  5
71B
330
1F
100
AcDbEntity
  8
外形線
100
AcDbLine
 10
-72.78215850863031
 20
5.579082674175762
 30
0.0
 11
-62.41254770191182
 21
-3.757776312643386
 31
0.0
  0
LINE
  5
71C
330
1F
100
AcDbEntity
  8
外形線
100
AcDbLine
 10
-57.61111246106603
 20
32.82220864458277
 30
0.0
 11
-58.67851203752262
 21
31.75480897815112
 31
0.0
  0
LINE
  5
71D
330
1F
100
AcDbEntity
  8
外形線
100
AcDbLine
 10
-54.98073776922939
 20
33.02351963702176
 30
0.0
 11
-56.05837936661721
 21
31.94587794879554
 31
0.0
  0
LINE
  5
71E
330
1F
100
AcDbEntity
  8
外形線
100
AcDbLine
 10
-39.52385388468437
 20
19.10605973609242
 30
0.0
 11
-40.60149750512086
 21
18.02841602481737
 31
0.0
  0
LINE
  5
71F
330
1F
100
AcDbEntity
  8
外形線
100
AcDbLine
 10
-58.67850738412574
 20
31.75480533701872
 30
0.0
 11
-40.66527212433117
 21
15.53558162149306
 31
0.0
  0
LINE
  5
720
330
1F
100
AcDbEntity
  8
外形線
100
AcDbLine
 10
-57.61113519684474
 20
32.82219265769587
 30
0.0
 11
-39.5979325380539
 21
16.60299829630696
 31
0.0
  0
LINE
  5
721
330
1F
100
AcDbEntity
  8
外形線
100
AcDbLine
 10
-55.98811758352447
 20
34.44525466303458
 30
0.0
 11
-37.97490642012399
 21
18.22605264404481
 31
0.0
  0
LINE
  5
722
330
1F
100
AcDbEntity
  8
外形線
100
AcDbLine
 10
-54.92068713448903
 20
35.51261262382118
 30
0.0
 11
-36.90748164082827
 21
19.29341570989862
 31
0.0
  0
LINE
  5
723
330
1F
100
AcDbEntity
  8
外形線
100
AcDbLine
 10
-71.50783120814835
 20
10.06630268326145
 30
0.0
 11
-59.44537014827893
 21
-0.794808697797123
 31
0.0
  0
LINE
  5
724
330
1F
100
AcDbEntity
  8
外形線
100
AcDbLine
 10
-72.70010799348042
 20
2.962069421244648
 30
0.0
 11
-66.15251409802734
 21
-2.933422901880475
 31
0.0
  0
LINE
  5
725
330
1F
100
AcDbEntity
  8
外形線
100
AcDbLine
 10
-53.3679473671679
 20
34.63627926119895
 30
0.0
 11
-37.91110847192757
 21
20.71884997317434
 31
0.0
  0
LINE
  5
726
330
1F
100
AcDbEntity
  8
外形線
100
AcDbLine
 10
-52.29030254680498
 20
35.71395523251926
 30
0.0
 11
-43.09988683658352
 21
27.43885049464533
 31
0.0
  0
LINE
  5
727
330
1F
100
AcDbEntity
  8
外形線
100
AcDbLine
 10
-37.91109338297494
 20
20.71887218438883
 30
0.0
 11
-36.90745421468923
 21
19.29344310408495
 31
0.0
  0
LINE
  5
728
330
1F
100
AcDbEntity
  8
外形線
100
AcDbLine
 10
-52.29031358075204
 20
35.71389319274104
 30
0.0
 11
-53.29395116175922
 21
37.1393140598181
 31
0.0
  0
LINE
  5
729
330
1F
100
AcDbEntity
  8
外形線
100
AcDbLine
 10
-53.04718215683124
 20
37.38613933352812
 30
0.0
 11
-53.29765176325572
 21
37.13566970599067
 31
0.0
  0
LINE
  5
72A
330
1F
100
AcDbEntity
  8
外形線
100
AcDbLine
 10
-60.36017291211004
 20
27.64409273492248
 30
0.0
 11
-44.90329432869121
 21
13.726627711427
 31
0.0
  0
LINE
  5
72B
330
1F
100
AcDbEntity
  8
外形線
100
AcDbLine
 10
-66.43495694768252
 20
20.83733593126809
 30
0.0
 11
-51.36807494927179
 21
7.271026142759977
 31
0.0
  0
LINE
  5
72C
330
1F
100
AcDbEntity
  8
外形線
100
AcDbLine
 10
-66.60795559924324
 20
20.4713730205375
 30
0.0
 11
-50.35960452317919
 21
5.841261476982878
 31
0.0
  0
LINE
  5
72D
330
1F
100
AcDbEntity
  8
外形線
100
AcDbLine
 10
-53.29763854072164
 20
37.13568908296878
 30
0.0
 11
-48.26794577000882
 21
32.60692392268494
 31
0.0
  0
LINE
  5
72E
330
1F
100
AcDbEntity
  8
外形線
100
AcDbLine
 10
-67.27720853030786
 20
19.0455372963537
 30
0.0
 11
-51.4269744374306
 21
4.773892642401589
 31
0.0
  0
LINE
  5
72F
330
1F
100
AcDbEntity
  8
外形線
100
AcDbLine
 10
-67.44691554821333
 20
18.68363277802768
 30
0.0
 11
-52.98202835231392
 21
5.659362675155987
 31
0.0
  0
LINE
  5
730
330
1F
100
AcDbEntity
  8
外形線
100
AcDbLine
 10
-68.12567698102245
 20
17.24678572581126
 30
0.0
 11
-54.06050217707734
 21
4.582419028045563
 31
0.0
  0
LINE
  5
731
330
1F
100
AcDbEntity
  8
外形線
100
AcDbLine
 10
-68.30008197956934
 20
16.88208396505007
 30
0.0
 11
-53.05002572772732
 21
3.150842993859953
 31
0.0
  0
LINE
  5
732
330
1F
100
AcDbEntity
  8
外形線
100
AcDbLine
 10
-57.67118173575802
 20
30.33308850154225
 30
0.0
 11
-42.21430315233924
 21
16.41562347804677
 31
0.0
  0
LINE
  5
733
330
1F
100
AcDbEntity
  8
外形線
100
AcDbLine
 10
-58.74885867166675
 20
29.25539396527643
 30
0.0
 11
-43.29198008824795
 21
15.33792894178091
 31
0.0
  0
LINE
  5
734
330
1F
100
AcDbEntity
  8
外形線
100
AcDbLine
 10
-60.30156313277503
 20
30.13174943643162
 30
0.0
 11
-42.28833212528535
 21
13.91252954970639
 31
0.0
  0
LINE
  5
735
330
1F
100
AcDbEntity
  8
外形線
100
AcDbLine
 10
-58.67850811916004
 20
31.75479480958308
 30
0.0
 11
-57.67118015757131
 21
30.33307801697421
 31
0.0
  0
LINE
  5
736
330
1F
100
AcDbEntity
  8
外形線
100
AcDbLine
 10
-57.67117667290698
 20
30.33308050655711
 30
0.0
 11
-58.74885603386942
 21
29.25540105475304
 31
0.0
  0
LINE
  5
737
330
1F
100
AcDbEntity
  8
外形線
100
AcDbLine
 10
-58.74886710104553
 20
29.25539971526755
 30
0.0
 11
-60.30157929320535
 21
30.13174050338854
 31
0.0
  0
LINE
  5
738
330
1F
100
AcDbEntity
  8
外形線
100
AcDbLine
 10
-60.30157159523003
 20
30.13174928363
 30
0.0
 11
-61.36893340811194
 21
29.06438738077623
 31
0.0
  0
LINE
  5
739
330
1F
100
AcDbEntity
  8
外形線
100
AcDbLine
 10
-61.36893053515532
 20
29.06437793090211
 30
0.0
 11
-60.36016952320903
 21
27.64409398992115
 31
0.0
  0
LINE
  5
73A
330
1F
100
AcDbEntity
  8
外形線
100
AcDbLine
 10
-60.36016707375594
 20
27.64408987904318
 30
0.0
 11
-61.43927740445882
 21
26.56497945737815
 31
0.0
  0
LINE
  5
73B
330
1F
100
AcDbEntity
  8
外形線
100
AcDbLine
 10
-61.36892255738782
 20
29.06437629010395
 30
0.0
 11
-43.35569580220296
 21
12.84516023217918
 31
0.0
  0
LINE
  5
73C
330
1F
100
AcDbEntity
  8
外形線
100
AcDbLine
 10
-61.43929213041493
 20
26.56497881612847
 30
0.0
 11
-45.98321865004371
 21
12.64823871218539
 31
0.0
  0
LINE
  5
73D
330
1F
100
AcDbEntity
  8
外形線
100
AcDbLine
 10
-62.66503120926582
 20
27.14690705463863
 30
0.0
 11
-44.97877551183175
 21
11.22209767367531
 31
0.0
  0
LINE
  5
73E
330
1F
100
AcDbEntity
  8
外形線
100
AcDbLine
 10
-68.98631657819374
 20
15.47152836854235
 30
0.0
 11
-54.11740104418147
 21
2.083468757081418
 31
0.0
  0
LINE
  5
73F
330
1F
100
AcDbEntity
  8
外形線
100
AcDbLine
 10
-69.16203906945566
 20
15.11504535124084
 30
0.0
 11
-55.67446098635563
 21
2.970750161875997
 31
0.0
  0
LINE
  5
740
330
1F
100
AcDbEntity
  8
外形線
100
AcDbLine
 10
-69.86021923676803
 20
13.69566764302431
 30
0.0
 11
-56.75294292047332
 21
1.893798416917263
 31
0.0
  0
LINE
  5
741
330
1F
100
AcDbEntity
  8
中心線
100
AcDbLine
 10
-76.35598381304233
 20
-2.64859119102172
 30
0.0
 11
-41.10376514230853
 21
32.60362450817243
 31
0.0
  0
LINE
  5
742
330
1F
100
AcDbEntity
  8
外形線
100
AcDbLine
 10
-70.03655779754554
 20
13.33271200633382
 30
0.0
 11
-55.74045503557953
 21
0.4604164074411587
 31
0.0
  0
LINE
  5
743
330
1F
100
AcDbEntity
  8
外形線
100
AcDbLine
 10
-39.59787915521301
 20
16.60298402519444
 30
0.0
 11
-40.66526524467861
 21
15.53559784575489
 31
0.0
  0
LINE
  5
744
330
1F
100
AcDbEntity
  8
外形線
100
AcDbLine
 10
-56.05838284296449
 20
31.94586035594227
 30
0.0
 11
-57.61111183257085
 21
32.82219854600052
 31
0.0
  0
LINE
  5
745
330
1F
100
AcDbEntity
  8
外形線
100
AcDbLine
 10
-70.87499597666043
 20
11.5445122255287
 30
0.0
 11
-58.36689091727933
 21
0.2821403478788227
 31
0.0
  0
LINE
  5
746
330
1F
100
AcDbEntity
  8
外形線
100
AcDbLine
 10
-70.70899413420005
 20
11.90976830532901
 30
0.0
 11
-56.80781144432424
 21
-0.6069389216469859
 31
0.0
  0
LINE
  5
747
330
1F
100
AcDbEntity
  8
外形線
100
AcDbLine
 10
-43.35570851594222
 20
12.84516478922936
 30
0.0
 11
-44.90329916667352
 21
13.72663277674627
 31
0.0
  0
LINE
  5
748
330
1F
100
AcDbEntity
  8
外形線
100
AcDbLine
 10
-42.28834773027069
 20
13.91251522334721
 30
0.0
 11
-43.35570954315257
 21
12.84515332049346
 31
0.0
  0
LINE
  5
749
330
1F
100
AcDbEntity
  8
外形線
100
AcDbLine
 10
-37.14547082894272
 20
21.48443905827617
 30
0.0
 11
-53.04716859848984
 21
37.38613816823619
 31
0.0
  0
LINE
  5
74A
330
1F
100
AcDbEntity
  8
外形線
100
AcDbLine
 10
-45.98321372300217
 20
12.64824111378959
 30
0.0
 11
-44.97877013723962
 21
11.22209078828709
 31
0.0
  0
LINE
  5
74B
330
1F
100
AcDbEntity
  8
外形線
100
AcDbLine
 10
-44.97876645109221
 20
11.2220912767321
 30
0.0
 11
-46.04611423542154
 21
10.15473692452229
 31
0.0
  0
LINE
  5
74C
330
1F
100
AcDbEntity
  8
外形線
100
AcDbLine
 10
-46.04612692356417
 20
10.1547341987291
 30
0.0
 11
-47.59716474416747
 21
11.03657709730186
 31
0.0
  0
LINE
  5
74D
330
1F
100
AcDbEntity
  8
外形線
100
AcDbLine
 10
-47.59716653122113
 20
11.03658425961583
 30
0.0
 11
-48.67565122353589
 21
9.959629760373415
 31
0.0
  0
LINE
  5
74E
330
1F
100
AcDbEntity
  8
外形線
100
AcDbLine
 10
-48.67565321289025
 20
9.959624705032636
 30
0.0
 11
-47.66918903276162
 21
8.531673511169456
 31
0.0
  0
LINE
  5
74F
330
1F
100
AcDbEntity
  8
外形線
100
AcDbLine
 10
-47.66918690022555
 20
8.531680937914472
 30
0.0
 11
-48.73654731676682
 21
7.464312243939446
 31
0.0
  0
LINE
  5
750
330
1F
100
AcDbEntity
  8
外形線
100
AcDbLine
 10
-48.73654946909532
 20
7.464308813967987
 30
0.0
 11
-50.28959797058281
 21
8.34796367994798
 31
0.0
  0
LINE
  5
751
330
1F
100
AcDbEntity
  8
外形線
100
AcDbLine
 10
-50.28960058703731
 20
8.347968454343913
 30
0.0
 11
-51.36807791968823
 21
7.271025480191722
 31
0.0
  0
LINE
  5
752
330
1F
100
AcDbEntity
  8
外形線
100
AcDbLine
 10
-51.36807687137952
 20
7.271023898362699
 30
0.0
 11
-50.35960706185469
 21
5.841261544764362
 31
0.0
  0
LINE
  5
753
330
1F
100
AcDbEntity
  8
外形線
100
AcDbLine
 10
-50.35960150448497
 20
5.841252199512521
 30
0.0
 11
-51.42696906937452
 21
4.773877166891336
 31
0.0
  0
LINE
  5
754
330
1F
100
AcDbEntity
  8
外形線
100
AcDbLine
 10
-51.42696688835048
 20
4.773895227506101
 30
0.0
 11
-52.98202126286884
 21
5.659362413954937
 31
0.0
  0
LINE
  5
755
330
1F
100
AcDbEntity
  8
外形線
100
AcDbLine
 10
-52.9820235093496
 20
5.659356070329067
 30
0.0
 11
-54.06050150150996
 21
4.582419155277476
 31
0.0
  0
LINE
  5
756
330
1F
100
AcDbEntity
  8
外形線
100
AcDbLine
 10
-54.06049738226305
 20
4.582428651433644
 30
0.0
 11
-53.05001779866294
 21
3.150853642047991
 31
0.0
  0
LINE
  5
757
330
1F
100
AcDbEntity
  8
外形線
100
AcDbLine
 10
-53.05002465214868
 20
3.150846981042092
 30
0.0
 11
-54.1173955460335
 21
2.083475277403238
 31
0.0
  0
LINE
  5
758
330
1F
100
AcDbEntity
  8
外形線
100
AcDbLine
 10
-54.11739300648602
 20
2.08347567137639
 30
0.0
 11
-55.67445391679282
 21
2.970753632446673
 31
0.0
  0
LINE
  5
759
330
1F
100
AcDbEntity
  8
外形線
100
AcDbLine
 10
-55.67445222899661
 20
2.970741958258741
 30
0.0
 11
-56.75293595886198
 21
1.893794593154154
 31
0.0
  0
LINE
  5
75A
330
1F
100
AcDbEntity
  8
外形線
100
AcDbLine
 10
-56.75294506646124
 20
1.893802915527004
 30
0.0
 11
-55.74045396947704
 21
0.460416727664722
 31
0.0
  0
LINE
  5
75B
330
1F
100
AcDbEntity
  8
外形線
100
AcDbLine
 10
-55.74045816699181
 20
0.4604132760320854
 30
0.0
 11
-56.80781651859128
 21
-0.6069439959089209
 31
0.0
  0
LINE
  5
75C
330
1F
100
AcDbEntity
  8
外形線
100
AcDbLine
 10
-56.80780767053663
 20
-0.6069409780444062
 30
0.0
 11
-58.36688765530954
 21
0.2821407926784047
 31
0.0
  0
LINE
  5
75D
330
1F
100
AcDbEntity
  8
外形線
100
AcDbLine
 10
-58.36688622594163
 20
0.2821385308183721
 30
0.0
 11
-59.44536782244614
 21
-0.7948109706863704
 31
0.0
  0
LINE
  5
75E
330
1F
100
AcDbEntity
  8
外形線
100
AcDbLine
 10
-59.44536906641543
 20
-0.7948218367994855
 30
0.0
 11
-58.43087394188123
 21
-2.230014902078208
 31
0.0
  0
LINE
  5
75F
330
1F
100
AcDbEntity
  8
外形線
100
AcDbLine
 10
-58.43086713514562
 20
-2.230015486824695
 30
0.0
 11
-59.49822436210093
 21
-3.29737388340993
 31
0.0
  0
LINE
  5
760
330
1F
100
AcDbEntity
  8
外形線
100
AcDbLine
 10
-59.49823361008774
 20
-3.29738336025025
 30
0.0
 11
-61.05931959786625
 21
-2.406475236193699
 31
0.0
  0
LINE
  5
761
330
1F
100
AcDbEntity
  8
外形線
100
AcDbLine
 10
-62.72489367300474
 20
-4.069678657184397
 30
0.0
 11
-61.05931675352245
 21
-2.406467301725683
 31
0.0
  0
LWPOLYLINE
  5
762
330
1F
100
AcDbEntity
  8
外形線
100
AcDbPolyline
 90
       14
 70
     0
 43
1.750000026077032
 10
-83.43205837908014
 20
27.76873460997558
 10
-81.77734825443762
 20
25.02733771929297
 10
-80.32319861666556
 20
22.21402023167684
 10
-77.44653331590374
 20
16.15771458103907
 10
-75.31370218049535
 20
11.74793622111838
 10
-73.65493552085133
 20
7.31393925289791
 10
-73.24307411902143
 20
4.533690009478448
 10
-73.37575618610626
 20
3.060284893655193
 10
-73.93173860744631
 20
1.512736629133113
 10
-74.74198040154033
 20
0.3695192104249543
 10
-75.82830056747993
 20
-0.6546714337682717
 10
-78.58513752769933
 20
-2.343516403446813
 10
-80.65993372380424
 20
-3.201118990540151
 10
-83.43369820095125
 20
-4.007819213892702
  0
LWPOLYLINE
  5
763
330
1F
100
AcDbEntity
  8
外形線
100
AcDbPolyline
 90
       14
 70
     0
 43
1.750000026077032
 10
-62.66458606969735
 20
27.76873460997558
 10
-64.31929619433983
 20
25.02733771929297
 10
-65.77344583211194
 20
22.21402023167681
 10
-68.65011113287362
 20
16.1577145810391
 10
-70.78294226828212
 20
11.74793622111838
 10
-72.44170892792604
 20
7.31393925289791
 10
-72.85357032975601
 20
4.533690009478448
 10
-72.72088826267124
 20
3.060284893655193
 10
-72.16490584133103
 20
1.512736629133113
 10
-71.35466404723699
 20
0.3695192104249827
 10
-70.26834388129753
 20
-0.6546714337682717
 10
-67.51150692107803
 20
-2.343516403446813
 10
-65.43671072497324
 20
-3.201118990540151
 10
-62.66294624782624
 20
-4.007819213892702
  0
DIMENSION
  5
764
330
1F
100
AcDbEntity
  8
寸法線
100
AcDbDimension
  2
*D17
 10
-17.44057398723187
 20
-15.83330513472184
 30
0.0
 11
-17.44057398723187
 21
14.96769927506821
 31
0.0
 70
   160
  1
L1
 71
     5
 42
61.60200881958008
  3
ISO-25
100
AcDbAlignedDimension
 13
-60.94531156993925
 23
45.76870368485824
 33
0.0
 14
-60.94530584789332
 24
-15.83330513472182
 34
0.0
 50
90.0
100
AcDbRotatedDimension
1001
ACAD
1000
DSTYLE
1002
{
1070
   278
1070
    46
1070
   147
1040
0.8000000119209291
1070
    77
1070
     1
1070
    74
1070
     0
1070
    73
1070
     0
1070
    42
1040
2.54
1070
    44
1040
2.286
1070
    76
1070
     0
1070
    75
1070
     0
1070
   279
1070
     0
1070
   271
1070
     0
1070
   173
1070
     1
1070
    41
1040
3.0
1070
   140
1040
3.200000047683716
1070
   344
1005
1F9
1070
   343
1005
1F9
1002
}
  0
DIMENSION
  5
765
330
1F
100
AcDbEntity
  8
寸法線
100
AcDbDimension
  2
*D18
 10
-85.15129950023711
 20
-33.01768062498645
 30
0.0
 11
-73.28385571610393
 21
-33.01768062498645
 31
0.0
 70
   160
  1
\U+2205A
 71
     5
 42
24.20599365234381
  3
ISO-25
100
AcDbAlignedDimension
 13
-60.94530584789332
 23
-15.83331276411636
 33
0.0
 14
-85.15129950023711
 24
-15.10858131880385
 34
0.0
100
AcDbRotatedDimension
1001
ACAD
1000
DSTYLE
1002
{
1070
   278
1070
    46
1070
   147
1040
0.8000000119209291
1070
    77
1070
     1
1070
    74
1070
     0
1070
    73
1070
     0
1070
    42
1040
2.54
1070
    44
1040
2.286
1070
    76
1070
     0
1070
    75
1070
     0
1070
   279
1070
     0
1070
   271
1070
     0
1070
   173
1070
     1
1070
    41
1040
3.0
1070
   140
1040
3.200000047683716
1070
   344
1005
1F9
1070
   343
1005
1F9
1002
}
  0
DIMENSION
  5
766
330
1F
100
AcDbEntity
  8
寸法線
100
AcDbDimension
  2
*D19
 10
-90.68592949637318
 20
-17.82267995279432
 30
0.0
 11
-105.1045060632705
 21
-3.543440808231173
 31
0.0
 70
   160
  1
L2
 71
     5
 42
40.58531862239981
  3
ISO-25
100
AcDbAlignedDimension
 13
-101.4124314223358
 23
29.02317412926743
 33
0.0
 14
-72.08423284653274
 24
0.9605328433891031
 34
0.0
 50
135.2781878444879
100
AcDbRotatedDimension
1001
ACAD
1000
DSTYLE
1002
{
1070
   278
1070
    46
1070
   147
1040
0.8000000119209291
1070
    77
1070
     1
1070
    74
1070
     0
1070
    73
1070
     0
1070
    42
1040
2.54
1070
    44
1040
2.285999999999916
1070
    76
1070
     0
1070
    75
1070
     0
1070
   279
1070
     0
1070
   271
1070
     0
1070
   173
1070
     1
1070
    41
1040
3.0
1070
   140
1040
3.200000047683716
1070
   344
1005
1F9
1070
   343
1005
1F9
1002
}
  0
DIMENSION
  5
767
330
1F
100
AcDbEntity
  8
寸法線
100
AcDbDimension
  2
*D20
 10
-102.3786036382089
 20
51.46058551820345
 30
0.0
 11
-95.49674704052032
 21
54.85433887009995
 31
0.0
 70
   165
  1
45\U+00B0
 71
     5
 42
0.7853984086913295
  3
ISO-25
100
AcDb3PointAngularDimension
 13
-73.04833059628703
 23
47.04450729499539
 33
0.0
 14
-104.9928863709759
 24
32.60361281687318
 34
0.0
 15
-73.04835174935312
 25
0.6590647316332934
 35
0.0
1001
ACAD
1000
DSTYLE
1002
{
1070
   278
1070
    46
1070
   275
1070
     3
1070
   147
1040
0.8000000119209291
1070
    77
1070
     1
1070
    74
1070
     0
1070
    73
1070
     0
1070
    42
1040
2.54
1070
    44
1040
1.000000281242553
1070
    76
1070
     0
1070
    75
1070
     0
1070
   279
1070
     0
1070
   179
1070
     0
1070
   173
1070
     1
1070
    41
1040
3.0
1070
   140
1040
3.200000047683716
1070
   344
1005
1F9
1070
   343
1005
1F9
1002
}
  0
DIMENSION
  5
768
330
1F
100
AcDbEntity
  8
寸法線
100
AcDbDimension
  2
*D21
 10
-55.41071495240426
 20
-17.82267995279432
 30
0.0
 11
-40.99213838550689
 21
-3.54344080823108
 31
0.0
 70
   160
  1
L2
 71
     5
 42
40.58531862239989
  3
ISO-25
100
AcDbAlignedDimension
 13
-44.68421302644155
 23
29.02317412926743
 33
0.0
 14
-74.01241160224472
 24
0.9605328433891031
 34
0.0
 50
44.72181215551205
100
AcDbRotatedDimension
1001
ACAD
1000
DSTYLE
1002
{
1070
   278
1070
    46
1070
   147
1040
0.8000000119209291
1070
    77
1070
     1
1070
    74
1070
     0
1070
    73
1070
     0
1070
    42
1040
2.54
1070
    44
1040
2.285999999999928
1070
    76
1070
     0
1070
    75
1070
     0
1070
   279
1070
     0
1070
   271
1070
     0
1070
   173
1070
     1
1070
    41
1040
3.0
1070
   140
1040
3.200000047683716
1070
   344
1005
1F9
1070
   343
1005
1F9
1002
}
  0
DIMENSION
  5
769
330
1F
100
AcDbEntity
  8
寸法線
100
AcDbDimension
  2
*D22
 10
-43.7180408105685
 20
51.46058551820345
 30
0.0
 11
-50.59989740825713
 21
54.85433887009996
 31
0.0
 70
   165
  1
45\U+00B0
 71
     5
 42
0.7853984086913303
  3
ISO-25
100
AcDb3PointAngularDimension
 13
-41.10375807780154
 23
32.60361281687318
 33
0.0
 14
-73.04831385249044
 24
47.04450729499539
 34
0.0
 15
-73.04829269942434
 25
0.6590647316332934
 35
0.0
1001
ACAD
1000
DSTYLE
1002
{
1070
   278
1070
    46
1070
   275
1070
     3
1070
   147
1040
0.8000000119209291
1070
    77
1070
     1
1070
    74
1070
     0
1070
    73
1070
     0
1070
    42
1040
2.54
1070
    44
1040
0.9999981368083108
1070
    76
1070
     0
1070
    75
1070
     0
1070
   279
1070
     0
1070
   179
1070
     0
1070
   173
1070
     1
1070
    41
1040
3.0
1070
   140
1040
3.200000047683716
1070
   344
1005
1F9
1070
   343
1005
1F9
1002
}
  0
DIMENSION
  5
8A6
330
1F
100
AcDbEntity
  8
寸法線
100
AcDbDimension
  2
*D23
 10
-62.66290571666774
 20
-26.39660627488837
 30
0.0
 11
-73.04829258822593
 21
-23.99660623912557
 31
0.0
 70
    32
  1
\U+2205B
 71
     5
 42
20.77077374311638
  3
ISO-25
100
AcDbAlignedDimension
 13
-83.43367945978412
 23
-13.30089771216754
 33
0.0
 14
-62.66290571666774
 24
-13.30089771216754
 34
0.0
100
AcDbRotatedDimension
1001
ACAD
1000
DSTYLE
1002
{
1070
    41
1040
3.0
1070
    42
1040
2.54
1070
    44
1040
0.878459930419922
1070
   140
1040
3.200000047683716
1070
   147
1040
0.8000000119209291
1070
   173
1070
     1
1070
   271
1070
     0
1070
   278
1070
    46
1070
   343
1005
1F9
1070
   344
1005
1F9
1002
}
  0
MTEXT
  5
9B3
330
1F
100
AcDbEntity
  8
VIEW0001
 62
     7
100
AcDbMText
 10
59.89285540580749
 20
-93.0
 30
0.0
 40
4.5
 41
0.0
 71
     7
 72
     1
  1
{\W1.3889;　デンカ株式会社}
 73
     1
 44
1.0
  0
LINE
  5
A09
330
1F
100
AcDbEntity
  8
0
  6
Continuous
 62
     7
100
AcDbLine
 10
3.951605081558227
 20
56.36327838897705
 30
0.0
 11
108.9516067504883
 21
56.36327838897705
 31
0.0
  0
LINE
  5
A0A
330
1F
100
AcDbEntity
  8
0
  6
Continuous
 62
     7
100
AcDbLine
 10
3.951605081558227
 20
50.36328220367431
 30
0.0
 11
108.9516067504883
 21
50.36328220367431
 31
0.0
  0
LINE
  5
A0B
330
1F
100
AcDbEntity
  8
0
  6
Continuous
 62
     7
100
AcDbLine
 10
3.951605081558226
 20
68.3632755279541
 30
0.0
 11
108.9516067504883
 21
68.3632755279541
 31
0.0
  0
LINE
  5
A0C
330
1F
100
AcDbEntity
  8
0
  6
Continuous
 62
     7
100
AcDbLine
 10
3.951605081558226
 20
62.36327934265136
 30
0.0
 11
108.9516067504883
 21
62.36327934265136
 31
0.0
  0
MTEXT
  5
A0D
330
1F
100
AcDbEntity
  8
0
 62
     7
100
AcDbMText
 10
6.483332141377216
 20
39.76328599452973
 30
0.0
 40
3.200000047683716
 41
0.0
 71
     7
 72
     1
  1
TDW200
 73
     1
 44
1.0
  0
MTEXT
  5
A0E
330
1F
100
AcDbEntity
  8
0
 62
     7
100
AcDbMText
 10
6.483332141377217
 20
45.76328217983247
 30
0.0
 40
3.200000047683716
 41
0.0
 71
     7
 72
     1
  1
TDW150
 73
     1
 44
1.0
  0
MTEXT
  5
A0F
330
1F
100
AcDbEntity
  8
0
 62
     7
100
AcDbMText
 10
6.483332141377216
 20
51.76328313350679
 30
0.0
 40
3.200000047683716
 41
0.0
 71
     7
 72
     1
  1
TDW100
 73
     1
 44
1.0
  0
MTEXT
  5
A10
330
1F
100
AcDbEntity
  8
0
 62
     7
100
AcDbMText
 10
6.483332141377216
 20
57.76327931880953
 30
0.0
 40
3.200000047683716
 41
0.0
 71
     7
 72
     1
  1
TDW75
 73
     1
 44
1.0
  0
MTEXT
  5
A13
330
1F
100
AcDbEntity
  8
0
 62
     7
100
AcDbMText
 10
38.68493817249934
 20
41.36328601837156
 30
0.0
 40
3.200000047683716
 41
0.0
 71
     5
 72
     1
  1
235
 73
     1
 44
1.0
  0
MTEXT
  5
A14
330
1F
100
AcDbEntity
  8
0
 62
     7
100
AcDbMText
 10
58.95160484313964
 20
41.36328601837156
 30
0.0
 40
3.200000047683716
 41
0.0
 71
     5
 72
     1
  1
200
 73
     1
 44
1.0
  0
MTEXT
  5
A15
330
1F
100
AcDbEntity
  8
0
 62
     7
100
AcDbMText
 10
98.95160484313965
 20
41.36328601837156
 30
0.0
 40
3.200000047683716
 41
0.0
 71
     5
 72
     1
  1
600
 73
     1
 44
1.0
  0
MTEXT
  5
A16
330
1F
100
AcDbEntity
  8
0
 62
     7
100
AcDbMText
 10
78.95160484313966
 20
41.36328601837156
 30
0.0
 40
3.200000047683716
 41
0.0
 71
     5
 72
     1
  1
1000
 73
     1
 44
1.0
  0
MTEXT
  5
A17
330
1F
100
AcDbEntity
  8
0
 62
     7
100
AcDbMText
 10
38.68493817249934
 20
47.36328220367431
 30
0.0
 40
3.200000047683716
 41
0.0
 71
     5
 72
     1
  1
175
 73
     1
 44
1.0
  0
MTEXT
  5
A18
330
1F
100
AcDbEntity
  8
0
 62
     7
100
AcDbMText
 10
58.95160484313964
 20
47.36328220367431
 30
0.0
 40
3.200000047683716
 41
0.0
 71
     5
 72
     1
  1
150
 73
     1
 44
1.0
  0
MTEXT
  5
A19
330
1F
100
AcDbEntity
  8
0
 62
     7
100
AcDbMText
 10
98.95160484313965
 20
47.36328220367431
 30
0.0
 40
3.200000047683716
 41
0.0
 71
     5
 72
     1
  1
450
 73
     1
 44
1.0
  0
MTEXT
  5
A1A
330
1F
100
AcDbEntity
  8
0
 62
     7
100
AcDbMText
 10
78.95160484313966
 20
47.36328220367431
 30
0.0
 40
3.200000047683716
 41
0.0
 71
     5
 72
     1
  1
800
 73
     1
 44
1.0
  0
MTEXT
  5
A1B
330
1F
100
AcDbEntity
  8
0
 62
     7
100
AcDbMText
 10
38.68493817249934
 20
53.36328315734862
 30
0.0
 40
3.200000047683716
 41
0.0
 71
     5
 72
     1
  1
118
 73
     1
 44
1.0
  0
MTEXT
  5
A1C
330
1F
100
AcDbEntity
  8
0
 62
     7
100
AcDbMText
 10
58.95160484313964
 20
53.36328315734862
 30
0.0
 40
3.200000047683716
 41
0.0
 71
     5
 72
     1
  1
100
 73
     1
 44
1.0
  0
MTEXT
  5
A1D
330
1F
100
AcDbEntity
  8
0
 62
     7
100
AcDbMText
 10
98.95160484313965
 20
53.36328315734862
 30
0.0
 40
3.200000047683716
 41
0.0
 71
     5
 72
     1
  1
370
 73
     1
 44
1.0
  0
MTEXT
  5
A1E
330
1F
100
AcDbEntity
  8
0
 62
     7
100
AcDbMText
 10
78.95160484313966
 20
53.36328315734862
 30
0.0
 40
3.200000047683716
 41
0.0
 71
     5
 72
     1
  1
700
 73
     1
 44
1.0
  0
MTEXT
  5
A1F
330
1F
100
AcDbEntity
  8
0
 62
     7
100
AcDbMText
 10
38.68493817249934
 20
59.36327934265136
 30
0.0
 40
3.200000047683716
 41
0.0
 71
     5
 72
     1
  1
87
 73
     1
 44
1.0
  0
MTEXT
  5
A20
330
1F
100
AcDbEntity
  8
0
 62
     7
100
AcDbMText
 10
58.95160484313964
 20
59.36327934265136
 30
0.0
 40
3.200000047683716
 41
0.0
 71
     5
 72
     1
  1
75
 73
     1
 44
1.0
  0
MTEXT
  5
A21
330
1F
100
AcDbEntity
  8
0
 62
     7
100
AcDbMText
 10
98.95160484313965
 20
59.36327934265136
 30
0.0
 40
3.200000047683716
 41
0.0
 71
     5
 72
     1
  1
350
 73
     1
 44
1.0
  0
MTEXT
  5
A22
330
1F
100
AcDbEntity
  8
0
 62
     7
100
AcDbMText
 10
78.95160484313966
 20
59.36327934265136
 30
0.0
 40
3.200000047683716
 41
0.0
 71
     5
 72
     1
  1
600
 73
     1
 44
1.0
  0
ENDSEC
  0
SECTION
  2
OBJECTS
  0
DICTIONARY
  5
C
330
0
100
AcDbDictionary
281
     1
  3
ACAD_CIP_PREVIOUS_PRODUCT_INFO
350
9A9
  3
ACAD_COLOR
350
27A
  3
ACAD_DETAILVIEWSTYLE
350
9A6
  3
ACAD_GROUP
350
D
  3
ACAD_LAYOUT
350
1A
  3
ACAD_MATERIAL
350
279
  3
ACAD_MLEADERSTYLE
350
9A2
  3
ACAD_MLINESTYLE
350
17
  3
ACAD_PLOTSETTINGS
350
19
  3
ACAD_PLOTSTYLENAME
350
E
  3
ACAD_SCALELIST
350
990
  3
ACAD_SECTIONVIEWSTYLE
350
9A4
  3
ACAD_TABLESTYLE
350
27B
  3
ACAD_VISUALSTYLE
350
977
  3
ACDB_RECOMPOSE_DATA
350
A88
  3
AcDbVariableDictionary
350
281
  0
DICTIONARY
  5
9B4
330
10
100
AcDbDictionary
280
     1
281
     1
  3
ADSK_XREC_LAYER_RECONCILED
360
9B5
  0
DICTIONARY
  5
9B6
330
269
100
AcDbDictionary
280
     1
281
     1
  3
ADSK_XREC_LAYER_RECONCILED
360
9B7
  0
DICTIONARY
  5
9B8
330
290
100
AcDbDictionary
280
     1
281
     1
  3
ADSK_XREC_LAYER_RECONCILED
360
9B9
  0
DICTIONARY
  5
9BA
330
291
100
AcDbDictionary
280
     1
281
     1
  3
ADSK_XREC_LAYER_RECONCILED
360
9BB
  0
DICTIONARY
  5
9BC
330
292
100
AcDbDictionary
280
     1
281
     1
  3
ADSK_XREC_LAYER_RECONCILED
360
9BD
  0
DICTIONARY
  5
9BE
330
293
100
AcDbDictionary
280
     1
281
     1
  3
ADSK_XREC_LAYER_RECONCILED
360
9BF
  0
DICTIONARY
  5
9C0
330
294
100
AcDbDictionary
280
     1
281
     1
  3
ADSK_XREC_LAYER_RECONCILED
360
9C1
  0
DICTIONARY
  5
9C2
330
295
100
AcDbDictionary
280
     1
281
     1
  3
ADSK_XREC_LAYER_RECONCILED
360
9C3
  0
DICTIONARY
  5
9C4
330
296
100
AcDbDictionary
280
     1
281
     1
  3
ADSK_XREC_LAYER_RECONCILED
360
9C5
  0
DICTIONARY
  5
9C6
330
31E
100
AcDbDictionary
280
     1
281
     1
  3
ADSK_XREC_LAYER_RECONCILED
360
9C7
  0
DICTIONARY
  5
30A
330
1F
100
AcDbDictionary
280
     1
281
     1
  3
ACAD_SORTENTS
360
30B
  0
DICTIONARY
  5
A98
330
8F1
100
AcDbDictionary
280
     1
281
     1
  3
ACAD_MTEXT_2008_RT
360
A99
  0
DICTIONARY
  5
A9A
330
920
100
AcDbDictionary
280
     1
281
     1
  3
ACAD_MTEXT_2008_RT
360
A9B
  0
DICTIONARY
  5
A89
330
1AE
100
AcDbDictionary
280
     1
281
     1
  3
ACAD_MTEXT_2008_RT
360
A8A
  0
DICTIONARY
  5
A8B
330
1AF
100
AcDbDictionary
280
     1
281
     1
  3
ACAD_MTEXT_2008_RT
360
A8C
  0
XRECORD
  5
9A9
102
{ACAD_REACTORS
330
C
102
}
330
C
100
AcDbXrecord
280
     1
300
ACDLT
300
2014
300
INVLTS_F_S
  0
DICTIONARY
  5
27A
102
{ACAD_REACTORS
330
C
102
}
330
C
100
AcDbDictionary
281
     1
  0
DICTIONARY
  5
9A6
102
{ACAD_REACTORS
330
C
102
}
330
C
100
AcDbDictionary
281
     1
  3
Metric50
350
9A7
  0
DICTIONARY
  5
D
102
{ACAD_REACTORS
330
C
102
}
330
C
100
AcDbDictionary
281
     1
  0
DICTIONARY
  5
1A
102
{ACAD_REACTORS
330
C
102
}
330
C
100
AcDbDictionary
281
     1
  3
Layout1
350
1E
  3
Layout2
350
26
  3
Model
350
22
  0
DICTIONARY
  5
279
102
{ACAD_REACTORS
330
C
102
}
330
C
100
AcDbDictionary
281
     1
  3
ByBlock
350
967
  3
ByLayer
350
95F
  3
Global
350
96F
  0
DICTIONARY
  5
9A2
102
{ACAD_REACTORS
330
C
102
}
330
C
100
AcDbDictionary
281
     1
  3
Standard
350
9A3
  0
DICTIONARY
  5
17
102
{ACAD_REACTORS
330
C
102
}
330
C
100
AcDbDictionary
281
     1
  3
Standard
350
18
  0
DICTIONARY
  5
19
102
{ACAD_REACTORS
330
C
102
}
330
C
100
AcDbDictionary
281
     1
  3
111
350
93C
  3
セットアップ1
350
A7C
  0
ACDBDICTIONARYWDFLT
  5
E
102
{ACAD_REACTORS
330
C
102
}
330
C
100
AcDbDictionary
281
     1
  3
Normal
350
F
100
AcDbDictionaryWithDefault
340
F
  0
DICTIONARY
  5
990
102
{ACAD_REACTORS
330
C
102
}
330
C
100
AcDbDictionary
281
     1
  3
A0
350
991
  3
A1
350
992
  3
A2
350
993
  3
A3
350
994
  3
A4
350
995
  3
A5
350
996
  3
A6
350
997
  3
A7
350
998
  3
A8
350
999
  3
A9
350
99A
  3
B0
350
99B
  3
B1
350
99C
  3
B2
350
99D
  3
B3
350
99E
  3
B4
350
99F
  3
B5
350
9A0
  3
B6
350
9A1
  0
DICTIONARY
  5
9A4
102
{ACAD_REACTORS
330
C
102
}
330
C
100
AcDbDictionary
281
     1
  3
Metric50
350
9A5
  0
DICTIONARY
  5
27B
102
{ACAD_REACTORS
330
C
102
}
330
C
100
AcDbDictionary
281
     1
  3
Standard
350
27C
  0
DICTIONARY
  5
977
102
{ACAD_REACTORS
330
C
102
}
330
C
100
AcDbDictionary
281
     1
  3
2dWireframe
350
97D
  3
Basic
350
97C
  3
Brighten
350
983
  3
ColorChange
350
987
  3
Conceptual
350
980
  3
Dim
350
982
  3
EdgeColorOff
350
98F
  3
Facepattern
350
986
  3
Flat
350
978
  3
FlatWithEdges
350
979
  3
Gouraud
350
97A
  3
GouraudWithEdges
350
97B
  3
Hidden
350
97F
  3
JitterOff
350
98D
  3
Linepattern
350
985
  3
OverhangOff
350
98E
  3
Realistic
350
981
  3
Shaded
350
98C
  3
Shaded with edges
350
98B
  3
Shades of Gray
350
988
  3
Sketchy
350
989
  3
Thicken
350
984
  3
Wireframe
350
97E
  3
X-Ray
350
98A
  0
XRECORD
  5
A88
102
{ACAD_REACTORS
330
C
102
}
330
C
100
AcDbXrecord
280
     1
 90
        1
330
27C
  0
DICTIONARY
  5
281
102
{ACAD_REACTORS
330
C
102
}
330
C
100
AcDbDictionary
281
     1
  3
CANNOSCALE
350
A00
  3
CMLEADERSTYLE
350
9FC
  3
CTABLESTYLE
350
282
  3
CVIEWDETAILSTYLE
350
9FD
  3
CVIEWSECTIONSTYLE
350
9FE
  3
DIMASSOC
350
283
  3
LAYEREVAL
350
A02
  3
LAYERNOTIFY
350
A03
  3
LIGHTINGUNITS
350
A01
  3
MSLTSCALE
350
9FF
  3
PROJECTNAME
350
284
  3
XCLIPFRAME
350
A85
  0
XRECORD
  5
9B5
102
{ACAD_REACTORS
330
9B4
102
}
330
9B4
100
AcDbXrecord
280
     1
290
     1
  0
XRECORD
  5
9B7
102
{ACAD_REACTORS
330
9B6
102
}
330
9B6
100
AcDbXrecord
280
     1
290
     1
  0
XRECORD
  5
9B9
102
{ACAD_REACTORS
330
9B8
102
}
330
9B8
100
AcDbXrecord
280
     1
290
     1
  0
XRECORD
  5
9BB
102
{ACAD_REACTORS
330
9BA
102
}
330
9BA
100
AcDbXrecord
280
     1
290
     1
  0
XRECORD
  5
9BD
102
{ACAD_REACTORS
330
9BC
102
}
330
9BC
100
AcDbXrecord
280
     1
290
     1
  0
XRECORD
  5
9BF
102
{ACAD_REACTORS
330
9BE
102
}
330
9BE
100
AcDbXrecord
280
     1
290
     1
  0
XRECORD
  5
9C1
102
{ACAD_REACTORS
330
9C0
102
}
330
9C0
100
AcDbXrecord
280
     1
290
     1
  0
XRECORD
  5
9C3
102
{ACAD_REACTORS
330
9C2
102
}
330
9C2
100
AcDbXrecord
280
     1
290
     1
  0
XRECORD
  5
9C5
102
{ACAD_REACTORS
330
9C4
102
}
330
9C4
100
AcDbXrecord
280
     1
290
     1
  0
XRECORD
  5
9C7
102
{ACAD_REACTORS
330
9C6
102
}
330
9C6
100
AcDbXrecord
280
     1
290
     1
  0
SORTENTSTABLE
  5
30B
102
{ACAD_REACTORS
330
30A
102
}
330
30A
100
AcDbSortentsTable
330
1F
331
1CF
  5
1D5
331
1DC
  5
1E2
331
1F0
  5
1F6
331
1D5
  5
1DE
331
1EE
  5
1F4
331
1C8
  5
1CE
331
2F
  5
2F
331
1AD
  5
1B9
331
1C1
  5
1C7
331
3A
  5
3A
331
1E0
  5
1ED
331
1F4
  5
227
331
1BA
  5
1C0
331
1D9
  5
1DF
331
47
  5
4D
331
328
  5
42D
331
33
  5
33
331
1CC
  5
1D2
331
1D2
  5
1DB
331
40
  5
40
331
1C5
  5
1CB
331
1B1
  5
1BD
331
1BE
  5
1C4
331
26E
  5
30C
331
3E
  5
3E
331
1AA
  5
1B0
331
1DD
  5
1E3
331
1F1
  5
1F7
331
44
  5
44
331
1EF
  5
1F5
331
1C9
  5
1CF
331
30
  5
30
331
1C2
  5
1C8
331
1E8
  5
1F1
331
1AE
  5
1BA
331
1E1
  5
1EE
331
26B
  5
273
331
1F5
  5
24F
331
1BB
  5
1C1
331
30C
  5
32A
331
3B
  5
3B
331
1DA
  5
1E0
331
48
  5
4E
331
329
  5
42E
331
1CD
  5
1D3
331
34
  5
34
331
1D3
  5
1DC
331
1C6
  5
1CC
331
41
  5
41
331
1BF
  5
1C5
331
1AB
  5
1B1
331
3F
  5
3F
331
26F
  5
328
331
309
  5
347
331
38
  5
38
331
1DE
  5
1E8
331
1F2
  5
1F8
331
1B8
  5
1BE
331
31
  5
31
331
1CA
  5
1D0
331
45
  5
47
331
1D0
  5
1D9
331
273
  5
356
331
1E9
  5
1F2
331
1AF
  5
1BB
331
1C3
  5
1C9
331
1F6
  5
25C
331
3C
  5
3C
331
26C
  5
274
331
1E2
  5
1EF
331
1BC
  5
1C2
331
32A
  5
42F
331
1CE
  5
1D4
331
35
  5
35
331
1DB
  5
1E1
331
49
  5
4F
331
1D4
  5
1DD
331
42
  5
42
331
1ED
  5
1F3
331
1C7
  5
1CD
331
2E
  5
2E
331
270
  5
329
331
1AC
  5
1B8
331
1C0
  5
1C6
331
39
  5
39
331
1DF
  5
1E9
331
1F3
  5
213
331
1B9
  5
1BF
331
1CB
  5
1D1
331
32
  5
32
331
46
  5
4C
331
1D1
  5
1DA
331
1B0
  5
1BC
331
1C4
  5
1CA
331
1E3
  5
1F0
331
3D
  5
3D
331
26D
  5
309
331
1F7
  5
26B
331
1BD
  5
1C3
  0
XRECORD
  5
A99
102
{ACAD_REACTORS
330
A98
102
}
330
A98
100
AcDbXrecord
280
     1
 40
2020.0
  1
\U+2205A
  0
XRECORD
  5
A9B
102
{ACAD_REACTORS
330
A9A
102
}
330
A9A
100
AcDbXrecord
280
     1
 40
2028.0
  1
\U+2205B
  0
XRECORD
  5
A8A
102
{ACAD_REACTORS
330
A89
102
}
330
A89
100
AcDbXrecord
280
     1
 40
7259.0
  1
{\W1;\U+2205A}
  0
XRECORD
  5
A8C
102
{ACAD_REACTORS
330
A8B
102
}
330
A8B
100
AcDbXrecord
280
     1
 40
7272.0
  1
{\W1;\U+2205B}
  0
ACDBDETAILVIEWSTYLE
  5
9A7
102
{ACAD_XDICTIONARY
360
AD2
102
}
102
{ACAD_REACTORS
330
9A6
102
}
330
9A6
100
AcDbModelDocViewStyle
 70
     0
  3
Metric50
290
     0
100
AcDbDetailViewStyle
 70
     0
 71
     0
 90
        3
 71
     1
340
11
 62
   256
 40
5.0
340
0
 62
   256
 40
5.0
300

 40
0.0
280
     1
 71
     2
340
16
 90
       25
 62
   256
 71
     3
340
11
 62
   256
 40
5.0
 90
        0
 40
15.0
 90
        1
300
%<\AcVar ViewDetailId>% (%<\AcVar ViewScale \f "%sn">%)
 71
     4
340
16
 90
       25
 62
   256
340
16
 90
       25
 62
   256
280
     0
  0
LAYOUT
  5
1E
102
{ACAD_REACTORS
330
1A
102
}
330
1A
100
AcDbPlotSettings
  1

  2

  4

  6

 40
0.0
 41
0.0
 42
0.0
 43
0.0
 44
0.0
 45
0.0
 46
0.0
 47
0.0
 48
0.0
 49
0.0
140
0.0
141
0.0
142
1.0
143
1.0
 70
   688
 72
     0
 73
     0
 74
     5
  7

 75
    16
147
1.0
 76
     0
 77
     2
 78
   300
148
0.0
149
0.0
100
AcDbLayout
  1
Layout1
 70
     1
 71
     1
 10
-1108.76554107666
 20
-542.8267288208006
 11
1291.234855651856
 21
437.1732711791992
 12
0.0
 22
0.0
 32
0.0
 14
1.000000000000000E+20
 24
1.000000000000000E+20
 34
1.000000000000000E+20
 15
-1.000000000000000E+20
 25
-1.000000000000000E+20
 35
-1.000000000000000E+20
146
0.0
 13
0.0
 23
0.0
 33
0.0
 16
1.0
 26
0.0
 36
0.0
 17
0.0
 27
1.0
 37
0.0
 76
     0
330
1B
  0
LAYOUT
  5
26
102
{ACAD_REACTORS
330
1A
102
}
330
1A
100
AcDbPlotSettings
  1

  2

  4

  6

 40
0.0
 41
0.0
 42
0.0
 43
0.0
 44
0.0
 45
0.0
 46
0.0
 47
0.0
 48
0.0
 49
0.0
140
0.0
141
0.0
142
1.0
143
1.0
 70
   688
 72
     0
 73
     0
 74
     5
  7

 75
    16
147
1.0
 76
     0
 77
     2
 78
   300
148
0.0
149
0.0
100
AcDbLayout
  1
Layout2
 70
     1
 71
     2
 10
0.0
 20
0.0
 11
0.0
 21
0.0
 12
0.0
 22
0.0
 32
0.0
 14
0.0
 24
0.0
 34
0.0
 15
0.0
 25
0.0
 35
0.0
146
0.0
 13
0.0
 23
0.0
 33
0.0
 16
1.0
 26
0.0
 36
0.0
 17
0.0
 27
1.0
 37
0.0
 76
     0
330
23
  0
LAYOUT
  5
22
102
{ACAD_REACTORS
330
1A
102
}
330
1A
100
AcDbPlotSettings
  1
111
  2
RICOH IPSiO NX860e RPCS
  4
A4
  6

 40
5.873749732971191
 41
5.873747825622557
 42
5.873748779296875
 43
5.873748779296875
 44
209.9733276367186
 45
296.9259948730469
 46
1.392268203573975
 47
0.0
 48
0.0
 49
0.0
140
0.0
141
0.0
142
1.0
143
0.9701727452262723
 70
 11956
 72
     1
 73
     1
 74
     1
  7
monochrome.ctb
 75
     0
147
1.030744272007734
 76
     0
 77
     2
 78
   300
148
138.013420764878
149
94.54730707188218
100
AcDbLayout
  1
Model
 70
     1
 71
     0
 10
-1108.76554107666
 20
-542.8267288208006
 11
1291.234855651856
 21
437.1732711791992
 12
0.0
 22
0.0
 32
0.0
 14
-1108.76554107666
 24
-542.8267288208006
 34
0.0
 15
1291.234855651856
 25
437.1732711791992
 35
0.0
146
0.0
 13
0.0
 23
0.0
 33
0.0
 16
1.0
 26
0.0
 36
0.0
 17
0.0
 27
1.0
 37
0.0
 76
     0
330
1F
331
93D
1001
ACAD_PSEXT
1000
RICOH IPSiO NX860e RPCS
1000
RICOH IPSiO NX860e RPCS
1000
IP_192.168.110.192
1000
RPCS Driver (Windows 2000/XP/Server 2003/Vista)
1070
     0
  0
MATERIAL
  5
967
102
{ACAD_XDICTIONARY
360
968
102
}
102
{ACAD_REACTORS
330
279
102
}
330
279
100
AcDbMaterial
  1
ByBlock
 72
     0
 43
0.0008202099737533
 43
0.0
 43
0.0
 43
0.0
 43
0.0
 43
0.0008202099737533
 43
0.0
 43
0.0
 43
0.0
 43
0.0
 43
1.0
 43
0.0
 43
0.0
 43
0.0
 43
0.0
 43
1.0
 77
     0
 47
0.0008202099737533
 47
0.0
 47
0.0
 47
0.0
 47
0.0
 47
0.0008202099737533
 47
0.0
 47
0.0
 47
0.0
 47
0.0
 47
1.0
 47
0.0
 47
0.0
 47
0.0
 47
0.0
 47
1.0
171
     0
 49
0.0008202099737533
 49
0.0
 49
0.0
 49
0.0
 49
0.0
 49
0.0008202099737533
 49
0.0
 49
0.0
 49
0.0
 49
0.0
 49
1.0
 49
0.0
 49
0.0
 49
0.0
 49
0.0
 49
1.0
175
     0
142
0.0008202099737533
142
0.0
142
0.0
142
0.0
142
0.0
142
0.0008202099737533
142
0.0
142
0.0
142
0.0
142
0.0
142
1.0
142
0.0
142
0.0
142
0.0
142
0.0
142
1.0
179
     0
144
0.0008202099737533
144
0.0
144
0.0
144
0.0
144
0.0
144
0.0008202099737533
144
0.0
144
0.0
144
0.0
144
0.0
144
1.0
144
0.0
144
0.0
144
0.0
144
0.0
144
1.0
147
0.0008202099737533
147
0.0
147
0.0
147
0.0
147
0.0
147
0.0008202099737533
147
0.0
147
0.0
147
0.0
147
0.0
147
1.0
147
0.0
147
0.0
147
0.0
147
0.0
147
1.0
  0
MATERIAL
  5
95F
102
{ACAD_XDICTIONARY
360
960
102
}
102
{ACAD_REACTORS
330
279
102
}
330
279
100
AcDbMaterial
  1
ByLayer
 72
     0
 43
0.0008202099737533
 43
0.0
 43
0.0
 43
0.0
 43
0.0
 43
0.0008202099737533
 43
0.0
 43
0.0
 43
0.0
 43
0.0
 43
1.0
 43
0.0
 43
0.0
 43
0.0
 43
0.0
 43
1.0
 77
     0
 47
0.0008202099737533
 47
0.0
 47
0.0
 47
0.0
 47
0.0
 47
0.0008202099737533
 47
0.0
 47
0.0
 47
0.0
 47
0.0
 47
1.0
 47
0.0
 47
0.0
 47
0.0
 47
0.0
 47
1.0
171
     0
 49
0.0008202099737533
 49
0.0
 49
0.0
 49
0.0
 49
0.0
 49
0.0008202099737533
 49
0.0
 49
0.0
 49
0.0
 49
0.0
 49
1.0
 49
0.0
 49
0.0
 49
0.0
 49
0.0
 49
1.0
175
     0
142
0.0008202099737533
142
0.0
142
0.0
142
0.0
142
0.0
142
0.0008202099737533
142
0.0
142
0.0
142
0.0
142
0.0
142
1.0
142
0.0
142
0.0
142
0.0
142
0.0
142
1.0
179
     0
144
0.0008202099737533
144
0.0
144
0.0
144
0.0
144
0.0
144
0.0008202099737533
144
0.0
144
0.0
144
0.0
144
0.0
144
1.0
144
0.0
144
0.0
144
0.0
144
0.0
144
1.0
147
0.0008202099737533
147
0.0
147
0.0
147
0.0
147
0.0
147
0.0008202099737533
147
0.0
147
0.0
147
0.0
147
0.0
147
1.0
147
0.0
147
0.0
147
0.0
147
0.0
147
1.0
  0
MATERIAL
  5
96F
102
{ACAD_XDICTIONARY
360
970
102
}
102
{ACAD_REACTORS
330
279
102
}
330
279
100
AcDbMaterial
  1
Global
 72
     0
 43
0.0008202099737533
 43
0.0
 43
0.0
 43
0.0
 43
0.0
 43
0.0008202099737533
 43
0.0
 43
0.0
 43
0.0
 43
0.0
 43
1.0
 43
0.0
 43
0.0
 43
0.0
 43
0.0
 43
1.0
 77
     0
 47
0.0008202099737533
 47
0.0
 47
0.0
 47
0.0
 47
0.0
 47
0.0008202099737533
 47
0.0
 47
0.0
 47
0.0
 47
0.0
 47
1.0
 47
0.0
 47
0.0
 47
0.0
 47
0.0
 47
1.0
171
     0
 49
0.0008202099737533
 49
0.0
 49
0.0
 49
0.0
 49
0.0
 49
0.0008202099737533
 49
0.0
 49
0.0
 49
0.0
 49
0.0
 49
1.0
 49
0.0
 49
0.0
 49
0.0
 49
0.0
 49
1.0
175
     0
142
0.0008202099737533
142
0.0
142
0.0
142
0.0
142
0.0
142
0.0008202099737533
142
0.0
142
0.0
142
0.0
142
0.0
142
1.0
142
0.0
142
0.0
142
0.0
142
0.0
142
1.0
179
     0
144
0.0008202099737533
144
0.0
144
0.0
144
0.0
144
0.0
144
0.0008202099737533
144
0.0
144
0.0
144
0.0
144
0.0
144
1.0
144
0.0
144
0.0
144
0.0
144
0.0
144
1.0
147
0.0008202099737533
147
0.0
147
0.0
147
0.0
147
0.0
147
0.0008202099737533
147
0.0
147
0.0
147
0.0
147
0.0
147
1.0
147
0.0
147
0.0
147
0.0
147
0.0
147
1.0
  0
MLEADERSTYLE
  5
9A3
102
{ACAD_REACTORS
330
9A2
102
}
330
9A2
100
AcDbMLeaderStyle
170
     2
171
     1
172
     0
 90
        2
 40
0.0
 41
0.0
173
     1
 91
-1056964608
340
14
 92
       -2
290
     1
 42
2.0
291
     1
 43
0.36
  3
Standard
 44
4.0
300

342
11
174
     1
178
     6
175
     1
176
     0
 93
-1056964608
 45
4.0
292
     0
297
     0
 46
4.0
 94
-1056964608
 47
1.0
 49
1.0
140
1.0
293
     1
141
0.0
294
     1
177
     0
142
1.0
295
     0
296
     0
143
0.125
1001
ACAD_MLEADERVER
1070
     2
  0
MLINESTYLE
  5
18
102
{ACAD_REACTORS
330
17
102
}
330
17
100
AcDbMlineStyle
  2
STANDARD
 70
     0
  3

 62
   256
 51
90.0
 52
90.0
 71
     2
 49
0.5
 62
   256
  6
BYLAYER
 49
-0.5
 62
   256
  6
BYLAYER
  0
PLOTSETTINGS
  5
93C
102
{ACAD_REACTORS
330
19
102
}
330
19
100
AcDbPlotSettings
  1
111
  2
RICOH IPSiO NX860e RPCS
  4
A4
  6

 40
5.873749732971191
 41
5.873747825622557
 42
5.873748779296875
 43
5.873748779296875
 44
209.9733276367186
 45
296.9259948730469
 46
1.382206344234629
 47
0.0
 48
0.0
 49
0.0
140
0.0
141
0.0
142
1.0
143
0.9696379639765943
 70
 11956
 72
     1
 73
     1
 74
     1
  7
monochrome.ctb
 75
     0
147
1.031312755019289
 76
     0
 77
     2
 78
   300
148
138.016006241122
149
94.51495291709916
1001
ACAD_PSEXT
1000
RICOH IPSiO NX860e RPCS
1000
RICOH IPSiO NX860e RPCS
1000
IP_192.168.110.192
1000
RPCS Driver (Windows 2000/XP/Server 2003/Vista)
1070
     0
  0
PLOTSETTINGS
  5
A7C
102
{ACAD_REACTORS
330
19
102
}
330
19
100
AcDbPlotSettings
  1
セットアップ1
  2
DWG To PDF.pc3
  4
ISO_expand_A4_(297.00_x_210.00_MM)
  6

 40
5.793749809265136
 41
10.79374980926513
 42
5.79376220703125
 43
10.79374694824219
 44
297.0
 45
210.0
 46
5.249628829452802
 47
0.0
 48
-138.0
 49
-94.50000000000001
140
138.5
141
95.0
142
1.0
143
1.005771892728943
 70
 11956
 72
     1
 73
     0
 74
     4
  7
monochrome.ctb
 75
     0
147
0.9942612308310959
 76
     0
 77
     2
 78
   300
148
138.0
149
94.50000000000001
1001
ACAD_PSEXT
1000
DWG To PDF.pc3
1000
DWG To PDF
1000
ファイル
1000

1070
     0
  0
ACDBPLACEHOLDER
  5
F
102
{ACAD_REACTORS
330
E
102
}
330
E
  0
SCALE
  5
991
102
{ACAD_REACTORS
330
990
102
}
330
990
100
AcDbScale
 70
     0
300
1:1
140
1.0
141
1.0
290
     1
  0
SCALE
  5
992
102
{ACAD_REACTORS
330
990
102
}
330
990
100
AcDbScale
 70
     0
300
1:2
140
1.0
141
2.0
290
     0
  0
SCALE
  5
993
102
{ACAD_REACTORS
330
990
102
}
330
990
100
AcDbScale
 70
     0
300
1:4
140
1.0
141
4.0
290
     0
  0
SCALE
  5
994
102
{ACAD_REACTORS
330
990
102
}
330
990
100
AcDbScale
 70
     0
300
1:5
140
1.0
141
5.0
290
     0
  0
SCALE
  5
995
102
{ACAD_REACTORS
330
990
102
}
330
990
100
AcDbScale
 70
     0
300
1:8
140
1.0
141
8.0
290
     0
  0
SCALE
  5
996
102
{ACAD_REACTORS
330
990
102
}
330
990
100
AcDbScale
 70
     0
300
1:10
140
1.0
141
10.0
290
     0
  0
SCALE
  5
997
102
{ACAD_REACTORS
330
990
102
}
330
990
100
AcDbScale
 70
     0
300
1:16
140
1.0
141
16.0
290
     0
  0
SCALE
  5
998
102
{ACAD_REACTORS
330
990
102
}
330
990
100
AcDbScale
 70
     0
300
1:20
140
1.0
141
20.0
290
     0
  0
SCALE
  5
999
102
{ACAD_REACTORS
330
990
102
}
330
990
100
AcDbScale
 70
     0
300
1:30
140
1.0
141
30.0
290
     0
  0
SCALE
  5
99A
102
{ACAD_REACTORS
330
990
102
}
330
990
100
AcDbScale
 70
     0
300
1:40
140
1.0
141
40.0
290
     0
  0
SCALE
  5
99B
102
{ACAD_REACTORS
330
990
102
}
330
990
100
AcDbScale
 70
     0
300
1:50
140
1.0
141
50.0
290
     0
  0
SCALE
  5
99C
102
{ACAD_REACTORS
330
990
102
}
330
990
100
AcDbScale
 70
     0
300
1:100
140
1.0
141
100.0
290
     0
  0
SCALE
  5
99D
102
{ACAD_REACTORS
330
990
102
}
330
990
100
AcDbScale
 70
     0
300
2:1
140
2.0
141
1.0
290
     0
  0
SCALE
  5
99E
102
{ACAD_REACTORS
330
990
102
}
330
990
100
AcDbScale
 70
     0
300
4:1
140
4.0
141
1.0
290
     0
  0
SCALE
  5
99F
102
{ACAD_REACTORS
330
990
102
}
330
990
100
AcDbScale
 70
     0
300
8:1
140
8.0
141
1.0
290
     0
  0
SCALE
  5
9A0
102
{ACAD_REACTORS
330
990
102
}
330
990
100
AcDbScale
 70
     0
300
10:1
140
10.0
141
1.0
290
     0
  0
SCALE
  5
9A1
102
{ACAD_REACTORS
330
990
102
}
330
990
100
AcDbScale
 70
     0
300
100:1
140
100.0
141
1.0
290
     0
  0
ACDBSECTIONVIEWSTYLE
  5
9A5
102
{ACAD_XDICTIONARY
360
AD0
102
}
102
{ACAD_REACTORS
330
9A4
102
}
330
9A4
100
AcDbModelDocViewStyle
 70
     0
  3
Metric50
290
     0
100
AcDbSectionViewStyle
 70
     0
 71
     0
 90
      102
 71
     1
340
11
 62
   256
 40
5.0
340
0
340
0
 62
   256
 40
5.0
300
I, O, Q, S, X, Z
 40
10.0
 90
        0
 40
2.5
 90
        0
 71
     2
340
16
 90
       25
 62
   256
340
16
 90
       50
 62
   256
 40
5.0
 40
2.5
 40
5.0
 71
     3
340
11
 62
   256
 40
5.0
 90
        0
 40
15.0
 90
        1
300
%<\AcVar ViewSectionStartId>%-%<\AcVar ViewSectionEndId>% (%<\AcVar ViewScale \f "%sn">%)
 71
     4
 62
   256
 62
   257
300
ANSI31
 40
1.0
 90
        0
290
     0
290
     0
 90
        6
 40
0.0
 40
1.570796326794896
 40
0.2617993877991494
 40
1.308996938995747
 40
-0.2617993877991494
 40
1.832595714594046
  0
TABLESTYLE
  5
27C
102
{ACAD_XDICTIONARY
360
A86
102
}
102
{ACAD_REACTORS
330
27B
102
}
330
27B
100
AcDbTableStyle
  3
Standard
 70
     0
 71
     0
 40
1.5
 41
1.5
280
     0
281
     0
  7
Standard
140
4.5
170
     2
 62
     0
 63
     7
283
     0
274
    -2
284
     1
 64
     0
275
    -2
285
     1
 65
     0
276
    -2
286
     1
 66
     0
277
    -2
287
     1
 67
     0
278
    -2
288
     1
 68
     0
279
    -2
289
     1
 69
     0
  7
Standard
140
6.0
170
     5
 62
     0
 63
     7
283
     0
274
    -2
284
     1
 64
     0
275
    -2
285
     1
 65
     0
276
    -2
286
     1
 66
     0
277
    -2
287
     1
 67
     0
278
    -2
288
     1
 68
     0
279
    -2
289
     1
 69
     0
  7
Standard
140
4.5
170
     5
 62
     0
 63
     7
283
     0
274
    -2
284
     1
 64
     0
275
    -2
285
     1
 65
     0
276
    -2
286
     1
 66
     0
277
    -2
287
     1
 67
     0
278
    -2
288
     1
 68
     0
279
    -2
289
     1
 69
     0
  0
VISUALSTYLE
  5
97D
102
{ACAD_XDICTIONARY
360
AA9
102
}
102
{ACAD_REACTORS
330
977
102
}
330
977
100
AcDbVisualStyle
  2
2dWireframe
 70
     4
 71
     0
 72
     2
 73
     0
 90
        0
 40
-0.6
 41
-30.0
 62
     5
 63
     7
421
 16777215
 74
     1
 91
        4
 64
     7
 65
   257
 75
     1
175
     1
 42
1.0
 92
        0
 66
   257
 43
1.0
 76
     1
 77
     6
 78
     2
 67
     7
 79
     5
170
     0
171
     0
290
     0
174
     0
 93
        1
 44
0.0
173
     0
291
     0
 45
0.0
1001
ACAD
1000
AcDbSavedByObjectVersion
1070
     0
  0
VISUALSTYLE
  5
97C
102
{ACAD_XDICTIONARY
360
AA7
102
}
102
{ACAD_REACTORS
330
977
102
}
330
977
100
AcDbVisualStyle
  2
Basic
 70
     7
 71
     1
 72
     0
 73
     1
 90
        0
 40
-0.6
 41
-30.0
 62
     5
 63
     7
421
 16777215
 74
     0
 91
        4
 64
     7
 65
   257
 75
     1
175
     1
 42
1.0
 92
        8
 66
     7
 43
1.0
 76
     1
 77
     6
 78
     2
 67
     7
 79
     5
170
     0
171
     0
290
     0
174
     0
 93
        1
 44
0.0
173
     0
291
     1
 45
0.0
1001
ACAD
1000
AcDbSavedByObjectVersion
1070
     0
  0
VISUALSTYLE
  5
983
102
{ACAD_XDICTIONARY
360
AB5
102
}
102
{ACAD_REACTORS
330
977
102
}
330
977
100
AcDbVisualStyle
  2
Brighten
 70
    12
 71
     2
 72
     2
 73
     0
 90
        0
 40
-0.6
 41
-30.0
 62
     5
 63
     7
421
 16777215
 74
     1
 91
        4
 64
     7
 65
   257
 75
     1
175
     1
 42
1.0
 92
        8
 66
     7
 43
1.0
 76
     1
 77
     6
 78
     2
 67
     7
 79
     5
170
     0
171
     0
290
     0
174
     0
 93
        1
 44
50.0
173
     0
291
     1
 45
0.0
1001
ACAD
1000
AcDbSavedByObjectVersion
1070
     0
  0
VISUALSTYLE
  5
987
102
{ACAD_XDICTIONARY
360
ABD
102
}
102
{ACAD_REACTORS
330
977
102
}
330
977
100
AcDbVisualStyle
  2
ColorChange
 70
    16
 71
     2
 72
     2
 73
     3
 90
        0
 40
-0.6
 41
-30.0
 62
     5
 63
     8
421
  8421504
 74
     1
 91
        4
 64
     7
 65
   257
 75
     1
175
     1
 42
1.0
 92
        8
 66
     8
424
  8421504
 43
1.0
 76
     1
 77
     6
 78
     2
 67
     7
 79
     5
170
     0
171
     0
290
     0
174
     0
 93
        1
 44
0.0
173
     0
291
     1
 45
0.0
1001
ACAD
1000
AcDbSavedByObjectVersion
1070
     0
  0
VISUALSTYLE
  5
980
102
{ACAD_XDICTIONARY
360
AAF
102
}
102
{ACAD_REACTORS
330
977
102
}
330
977
100
AcDbVisualStyle
  2
Conceptual
 70
     9
 71
     3
 72
     2
 73
     0
 90
        0
 40
-0.6
 41
-30.0
 62
     5
 63
     7
421
 16777215
 74
     2
 91
        2
 64
     7
 65
   257
 75
     1
175
     1
 42
179.0
 92
        8
 66
     7
 43
1.0
 76
     1
 77
     6
 78
     2
 67
     7
 79
     3
170
     0
171
     0
290
     0
174
     0
 93
        1
 44
0.0
173
     0
291
     0
 45
0.0
1001
ACAD
1000
AcDbSavedByObjectVersion
1070
     0
  0
VISUALSTYLE
  5
982
102
{ACAD_XDICTIONARY
360
AB3
102
}
102
{ACAD_REACTORS
330
977
102
}
330
977
100
AcDbVisualStyle
  2
Dim
 70
    11
 71
     2
 72
     2
 73
     0
 90
        0
 40
-0.6
 41
-30.0
 62
     5
 63
     7
421
 16777215
 74
     1
 91
        4
 64
     7
 65
   257
 75
     1
175
     1
 42
1.0
 92
        8
 66
     7
 43
1.0
 76
     1
 77
     6
 78
     2
 67
     7
 79
     5
170
     0
171
     0
290
     0
174
     0
 93
        1
 44
-50.0
173
     0
291
     1
 45
0.0
1001
ACAD
1000
AcDbSavedByObjectVersion
1070
     0
  0
VISUALSTYLE
  5
98F
102
{ACAD_XDICTIONARY
360
ACD
102
}
102
{ACAD_REACTORS
330
977
102
}
330
977
100
AcDbVisualStyle
  2
EdgeColorOff
 70
    22
 71
     2
 72
     2
 73
     0
 90
        0
 40
-0.6
 41
-30.0
 62
     5
 63
     7
421
 16777215
 74
     1
 91
        4
 64
     7
 65
   257
 75
     1
175
     1
 42
1.0
 92
        8
 66
     7
 43
1.0
 76
     1
 77
     6
 78
     2
 67
     7
 79
     5
170
     0
171
     0
290
     0
174
     0
 93
        1
 44
0.0
173
     0
291
     1
 45
0.0
1001
ACAD
1000
AcDbSavedByObjectVersion
1070
     0
  0
VISUALSTYLE
  5
986
102
{ACAD_XDICTIONARY
360
ABB
102
}
102
{ACAD_REACTORS
330
977
102
}
330
977
100
AcDbVisualStyle
  2
Facepattern
 70
    15
 71
     2
 72
     2
 73
     0
 90
        0
 40
-0.6
 41
-30.0
 62
     5
 63
     7
421
 16777215
 74
     1
 91
        4
 64
     7
 65
   257
 75
     1
175
     1
 42
1.0
 92
        8
 66
     7
 43
1.0
 76
     1
 77
     6
 78
     2
 67
     7
 79
     5
170
     0
171
     0
290
     0
174
     0
 93
        1
 44
0.0
173
     0
291
     1
 45
0.0
1001
ACAD
1000
AcDbSavedByObjectVersion
1070
     0
  0
VISUALSTYLE
  5
978
102
{ACAD_XDICTIONARY
360
A9F
102
}
102
{ACAD_REACTORS
330
977
102
}
330
977
100
AcDbVisualStyle
  2
Flat
 70
     0
 71
     2
 72
     1
 73
     1
 90
        2
 40
-0.6
 41
30.0
 62
     5
 63
     7
421
 16777215
 74
     0
 91
        0
 64
     7
 65
   257
 75
     1
175
     1
 42
1.0
 92
        8
 66
     7
 43
1.0
 76
     1
 77
     6
 78
     2
 67
     7
 79
     5
170
     0
171
     0
290
     0
174
     0
 93
       13
 44
0.0
173
     0
291
     1
 45
0.0
1001
ACAD
1000
AcDbSavedByObjectVersion
1070
     0
  0
VISUALSTYLE
  5
979
102
{ACAD_XDICTIONARY
360
AA1
102
}
102
{ACAD_REACTORS
330
977
102
}
330
977
100
AcDbVisualStyle
  2
FlatWithEdges
 70
     1
 71
     2
 72
     1
 73
     1
 90
        2
 40
-0.6
 41
30.0
 62
     5
 63
     7
421
 16777215
 74
     1
 91
        0
 64
     7
 65
   257
 75
     1
175
     1
 42
1.0
 92
        0
 66
   257
 43
1.0
 76
     1
 77
     6
 78
     2
 67
     7
 79
     5
170
     0
171
     0
290
     0
174
     0
 93
       13
 44
0.0
173
     0
291
     1
 45
0.0
1001
ACAD
1000
AcDbSavedByObjectVersion
1070
     0
  0
VISUALSTYLE
  5
97A
102
{ACAD_XDICTIONARY
360
AA3
102
}
102
{ACAD_REACTORS
330
977
102
}
330
977
100
AcDbVisualStyle
  2
Gouraud
 70
     2
 71
     2
 72
     2
 73
     1
 90
        2
 40
-0.6
 41
30.0
 62
     5
 63
     7
421
 16777215
 74
     0
 91
        0
 64
     7
 65
   257
 75
     1
175
     1
 42
1.0
 92
        0
 66
     7
 43
1.0
 76
     1
 77
     6
 78
     2
 67
     7
 79
     5
170
     0
171
     0
290
     0
174
     0
 93
       13
 44
0.0
173
     0
291
     1
 45
0.0
1001
ACAD
1000
AcDbSavedByObjectVersion
1070
     0
  0
VISUALSTYLE
  5
97B
102
{ACAD_XDICTIONARY
360
AA5
102
}
102
{ACAD_REACTORS
330
977
102
}
330
977
100
AcDbVisualStyle
  2
GouraudWithEdges
 70
     3
 71
     2
 72
     2
 73
     1
 90
        2
 40
-0.6
 41
30.0
 62
     5
 63
     7
421
 16777215
 74
     1
 91
        0
 64
     7
 65
   257
 75
     1
175
     1
 42
1.0
 92
        0
 66
   257
 43
1.0
 76
     1
 77
     6
 78
     2
 67
     7
 79
     5
170
     0
171
     0
290
     0
174
     0
 93
       13
 44
0.0
173
     0
291
     1
 45
0.0
1001
ACAD
1000
AcDbSavedByObjectVersion
1070
     0
  0
VISUALSTYLE
  5
97F
102
{ACAD_XDICTIONARY
360
AAD
102
}
102
{ACAD_REACTORS
330
977
102
}
330
977
100
AcDbVisualStyle
  2
Hidden
 70
     6
 71
     1
 72
     2
 73
     2
 90
        0
 40
-0.6
 41
-30.0
 62
     5
 63
     7
421
 16777215
 74
     2
 91
        2
 64
     7
 65
   257
 75
     2
175
     1
 42
40.0
 92
        0
 66
   257
 43
1.0
 76
     1
 77
     6
 78
     2
 67
     7
 79
     3
170
     0
171
     0
290
     0
174
     0
 93
        1
 44
0.0
173
     0
291
     0
 45
0.0
1001
ACAD
1000
AcDbSavedByObjectVersion
1070
     0
  0
VISUALSTYLE
  5
98D
102
{ACAD_XDICTIONARY
360
AC9
102
}
102
{ACAD_REACTORS
330
977
102
}
330
977
100
AcDbVisualStyle
  2
JitterOff
 70
    20
 71
     2
 72
     2
 73
     0
 90
        0
 40
-0.6
 41
-30.0
 62
     5
 63
     7
421
 16777215
 74
     1
 91
        4
 64
     7
 65
   257
 75
     1
175
     1
 42
1.0
 92
       10
 66
     7
 43
1.0
 76
     1
 77
     6
 78
     2
 67
     7
 79
     5
170
     0
171
     0
290
     0
174
     0
 93
        1
 44
0.0
173
     0
291
     1
 45
0.0
1001
ACAD
1000
AcDbSavedByObjectVersion
1070
     0
  0
VISUALSTYLE
  5
985
102
{ACAD_XDICTIONARY
360
AB9
102
}
102
{ACAD_REACTORS
330
977
102
}
330
977
100
AcDbVisualStyle
  2
Linepattern
 70
    14
 71
     2
 72
     2
 73
     0
 90
        0
 40
-0.6
 41
-30.0
 62
     5
 63
     7
421
 16777215
 74
     1
 91
        4
 64
     7
 65
   257
 75
     7
175
     7
 42
1.0
 92
        8
 66
     7
 43
1.0
 76
     1
 77
     6
 78
     2
 67
     7
 79
     5
170
     0
171
     0
290
     0
174
     0
 93
        1
 44
0.0
173
     0
291
     1
 45
0.0
1001
ACAD
1000
AcDbSavedByObjectVersion
1070
     0
  0
VISUALSTYLE
  5
98E
102
{ACAD_XDICTIONARY
360
ACB
102
}
102
{ACAD_REACTORS
330
977
102
}
330
977
100
AcDbVisualStyle
  2
OverhangOff
 70
    21
 71
     2
 72
     2
 73
     0
 90
        0
 40
-0.6
 41
-30.0
 62
     5
 63
     7
421
 16777215
 74
     1
 91
        4
 64
     7
 65
   257
 75
     1
175
     1
 42
1.0
 92
        9
 66
     7
 43
1.0
 76
     1
 77
     6
 78
     2
 67
     7
 79
     5
170
     0
171
     0
290
     0
174
     0
 93
        1
 44
0.0
173
     0
291
     1
 45
0.0
1001
ACAD
1000
AcDbSavedByObjectVersion
1070
     0
  0
VISUALSTYLE
  5
981
102
{ACAD_XDICTIONARY
360
AB1
102
}
102
{ACAD_REACTORS
330
977
102
}
330
977
100
AcDbVisualStyle
  2
Realistic
 70
     8
 71
     2
 72
     3
 73
     0
 90
        2
 40
-0.6
 41
30.0
 62
     5
 63
     7
421
 16777215
 74
     0
 91
        0
 64
     7
 65
   257
 75
     1
175
     1
 42
1.0
 92
        8
 66
   257
 43
1.0
 76
     1
 77
     6
 78
     2
 67
     7
 79
     3
170
     0
171
     0
290
     0
174
     0
 93
       13
 44
0.0
173
     0
291
     0
 45
0.0
1001
ACAD
1000
AcDbSavedByObjectVersion
1070
     0
  0
VISUALSTYLE
  5
98C
102
{ACAD_XDICTIONARY
360
AC7
102
}
102
{ACAD_REACTORS
330
977
102
}
330
977
100
AcDbVisualStyle
  2
Shaded
 70
    27
 71
     2
 72
     2
 73
     1
 90
        2
 40
-0.6
 41
30.0
 62
     5
 63
     7
421
 16777215
 74
     0
 91
        4
 64
     7
 65
   257
 75
     1
175
     1
 42
1.0
 92
        8
 66
   257
 43
1.0
 76
     1
 77
     6
 78
     2
 67
     8
425
  7895160
 79
     3
170
     0
171
     0
290
     0
174
     0
 93
        5
 44
0.0
173
     0
291
     0
 45
0.0
1001
ACAD
1000
AcDbSavedByObjectVersion
1070
     0
  0
VISUALSTYLE
  5
98B
102
{ACAD_XDICTIONARY
360
AC5
102
}
102
{ACAD_REACTORS
330
977
102
}
330
977
100
AcDbVisualStyle
  2
Shaded with edges
 70
    26
 71
     2
 72
     2
 73
     1
 90
        2
 40
-0.6
 41
30.0
 62
     5
 63
     7
421
 16777215
 74
     1
 91
       10
 64
     7
 65
   257
 75
     2
175
     1
 42
1.0
 92
        8
 66
   257
 43
1.0
 76
     1
 77
     6
 78
     2
 67
     7
 79
     3
170
     0
171
     0
290
     0
174
     0
 93
        5
 44
0.0
173
     0
291
     0
 45
0.0
1001
ACAD
1000
AcDbSavedByObjectVersion
1070
     0
  0
VISUALSTYLE
  5
988
102
{ACAD_XDICTIONARY
360
ABF
102
}
102
{ACAD_REACTORS
330
977
102
}
330
977
100
AcDbVisualStyle
  2
Shades of Gray
 70
    23
 71
     2
 72
     2
 73
     3
 90
        0
 40
-0.6
 41
-30.0
 62
     5
 63
     7
421
 16777215
 74
     2
 91
        2
 64
     7
 65
     7
 75
     1
175
     1
 42
40.0
 92
        8
 66
     7
 43
1.0
 76
     1
 77
     6
 78
     2
 67
     7
 79
     3
170
     0
171
     0
290
     0
174
     0
 93
        1
 44
0.0
173
     0
291
     0
 45
0.0
1001
ACAD
1000
AcDbSavedByObjectVersion
1070
     0
  0
VISUALSTYLE
  5
989
102
{ACAD_XDICTIONARY
360
AC1
102
}
102
{ACAD_REACTORS
330
977
102
}
330
977
100
AcDbVisualStyle
  2
Sketchy
 70
    24
 71
     1
 72
     2
 73
     2
 90
        0
 40
-0.6
 41
-30.0
 62
     5
 63
     7
421
 16777215
 74
     2
 91
        2
 64
     7
 65
     7
 75
     1
175
     1
 42
40.0
 92
       11
 66
     7
 43
1.0
 76
     1
 77
     6
 78
     2
 67
     7
 79
     6
170
     0
171
     0
290
     0
174
     0
 93
        1
 44
0.0
173
     0
291
     0
 45
0.0
1001
ACAD
1000
AcDbSavedByObjectVersion
1070
     0
  0
VISUALSTYLE
  5
984
102
{ACAD_XDICTIONARY
360
AB7
102
}
102
{ACAD_REACTORS
330
977
102
}
330
977
100
AcDbVisualStyle
  2
Thicken
 70
    13
 71
     2
 72
     2
 73
     0
 90
        0
 40
-0.6
 41
-30.0
 62
     5
 63
     7
421
 16777215
 74
     1
 91
        4
 64
     7
 65
   257
 75
     1
175
     1
 42
1.0
 92
       12
 66
     7
 43
1.0
 76
     1
 77
     6
 78
     2
 67
     7
 79
     5
170
     0
171
     0
290
     0
174
     0
 93
        1
 44
0.0
173
     0
291
     1
 45
0.0
1001
ACAD
1000
AcDbSavedByObjectVersion
1070
     0
  0
VISUALSTYLE
  5
97E
102
{ACAD_XDICTIONARY
360
AAB
102
}
102
{ACAD_REACTORS
330
977
102
}
330
977
100
AcDbVisualStyle
  2
Wireframe
 70
     5
 71
     0
 72
     2
 73
     0
 90
        0
 40
-0.6
 41
-30.0
 62
     5
 63
     7
421
 16777215
 74
     1
 91
        4
 64
     7
 65
   257
 75
     1
175
     1
 42
1.0
 92
        0
 66
   257
 43
1.0
 76
     1
 77
     6
 78
     2
 67
     7
 79
     3
170
     0
171
     0
290
     0
174
     0
 93
        1
 44
0.0
173
     0
291
     0
 45
0.0
1001
ACAD
1000
AcDbSavedByObjectVersion
1070
     0
  0
VISUALSTYLE
  5
98A
102
{ACAD_XDICTIONARY
360
AC3
102
}
102
{ACAD_REACTORS
330
977
102
}
330
977
100
AcDbVisualStyle
  2
X-Ray
 70
    25
 71
     2
 72
     2
 73
     1
 90
        1
 40
0.5
 41
-30.0
 62
     5
 63
     7
421
 16777215
 74
     1
 91
        0
 64
     7
 65
   257
 75
     1
175
     1
 42
1.0
 92
        8
 66
     7
 43
1.0
 76
     1
 77
     6
 78
     2
 67
     7
 79
     3
170
     0
171
     0
290
     0
174
     0
 93
       13
 44
0.0
173
     0
291
     0
 45
0.0
1001
ACAD
1000
AcDbSavedByObjectVersion
1070
     0
  0
DICTIONARYVAR
  5
A00
102
{ACAD_REACTORS
330
281
102
}
330
281
100
DictionaryVariables
280
     0
  1
1:1
  0
DICTIONARYVAR
  5
9FC
102
{ACAD_REACTORS
330
281
102
}
330
281
100
DictionaryVariables
280
     0
  1
STANDARD
  0
DICTIONARYVAR
  5
282
102
{ACAD_REACTORS
330
281
102
}
330
281
100
DictionaryVariables
280
     0
  1
STANDARD
  0
DICTIONARYVAR
  5
9FD
102
{ACAD_REACTORS
330
281
102
}
330
281
100
DictionaryVariables
280
     0
  1
Metric50
  0
DICTIONARYVAR
  5
9FE
102
{ACAD_REACTORS
330
281
102
}
330
281
100
DictionaryVariables
280
     0
  1
Metric50
  0
DICTIONARYVAR
  5
283
102
{ACAD_REACTORS
330
281
102
}
330
281
100
DictionaryVariables
280
     0
  1
1
  0
DICTIONARYVAR
  5
A02
102
{ACAD_REACTORS
330
281
102
}
330
281
100
DictionaryVariables
280
     0
  1
1
  0
DICTIONARYVAR
  5
A03
102
{ACAD_REACTORS
330
281
102
}
330
281
100
DictionaryVariables
280
     0
  1
15
  0
DICTIONARYVAR
  5
A01
102
{ACAD_REACTORS
330
281
102
}
330
281
100
DictionaryVariables
280
     0
  1
0
  0
DICTIONARYVAR
  5
9FF
102
{ACAD_REACTORS
330
281
102
}
330
281
100
DictionaryVariables
280
     0
  1
0
  0
DICTIONARYVAR
  5
284
102
{ACAD_REACTORS
330
281
102
}
330
281
100
DictionaryVariables
280
     0
  1

  0
DICTIONARYVAR
  5
A85
102
{ACAD_REACTORS
330
281
102
}
330
281
100
DictionaryVariables
280
     0
  1
2
  0
DICTIONARY
  5
AD2
330
9A7
100
AcDbDictionary
280
     1
281
     1
  3
ACAD_XREC_ROUNDTRIP
360
AD3
  0
DICTIONARY
  5
968
330
967
100
AcDbDictionary
280
     1
281
     1
  3
ACAD_XREC_ROUNDTRIP
360
A9D
  3
BUMPTILE
360
96A
  3
DIFFUSETILE
360
969
  3
OPACITYTILE
360
96D
  3
REFLECTIONTILE
360
96C
  3
REFRACTIONTILE
360
96E
  3
SPECULARTILE
360
96B
  0
DICTIONARY
  5
960
330
95F
100
AcDbDictionary
280
     1
281
     1
  3
ACAD_XREC_ROUNDTRIP
360
A9C
  3
BUMPTILE
360
962
  3
DIFFUSETILE
360
961
  3
OPACITYTILE
360
965
  3
REFLECTIONTILE
360
964
  3
REFRACTIONTILE
360
966
  3
SPECULARTILE
360
963
  0
DICTIONARY
  5
970
330
96F
100
AcDbDictionary
280
     1
281
     1
  3
ACAD_XREC_ROUNDTRIP
360
A9E
  3
BUMPTILE
360
972
  3
DIFFUSETILE
360
971
  3
OPACITYTILE
360
975
  3
REFLECTIONTILE
360
974
  3
REFRACTIONTILE
360
976
  3
SPECULARTILE
360
973
  0
DICTIONARY
  5
AD0
330
9A5
100
AcDbDictionary
280
     1
281
     1
  3
ACAD_XREC_ROUNDTRIP
360
AD1
  0
DICTIONARY
  5
A86
330
27C
100
AcDbDictionary
280
     1
281
     1
  3
ACAD_ROUNDTRIP_2008_TABLESTYLE_CELLSTYLEMAP
360
A87
  3
ACAD_XREC_ROUNDTRIP
360
A8D
  0
DICTIONARY
  5
AA9
330
97D
100
AcDbDictionary
280
     1
281
     1
  3
ACAD_XREC_ROUNDTRIP
360
AAA
  0
DICTIONARY
  5
AA7
330
97C
100
AcDbDictionary
280
     1
281
     1
  3
ACAD_XREC_ROUNDTRIP
360
AA8
  0
DICTIONARY
  5
AB5
330
983
100
AcDbDictionary
280
     1
281
     1
  3
ACAD_XREC_ROUNDTRIP
360
AB6
  0
DICTIONARY
  5
ABD
330
987
100
AcDbDictionary
280
     1
281
     1
  3
ACAD_XREC_ROUNDTRIP
360
ABE
  0
DICTIONARY
  5
AAF
330
980
100
AcDbDictionary
280
     1
281
     1
  3
ACAD_XREC_ROUNDTRIP
360
AB0
  0
DICTIONARY
  5
AB3
330
982
100
AcDbDictionary
280
     1
281
     1
  3
ACAD_XREC_ROUNDTRIP
360
AB4
  0
DICTIONARY
  5
ACD
330
98F
100
AcDbDictionary
280
     1
281
     1
  3
ACAD_XREC_ROUNDTRIP
360
ACE
  0
DICTIONARY
  5
ABB
330
986
100
AcDbDictionary
280
     1
281
     1
  3
ACAD_XREC_ROUNDTRIP
360
ABC
  0
DICTIONARY
  5
A9F
330
978
100
AcDbDictionary
280
     1
281
     1
  3
ACAD_XREC_ROUNDTRIP
360
AA0
  0
DICTIONARY
  5
AA1
330
979
100
AcDbDictionary
280
     1
281
     1
  3
ACAD_XREC_ROUNDTRIP
360
AA2
  0
DICTIONARY
  5
AA3
330
97A
100
AcDbDictionary
280
     1
281
     1
  3
ACAD_XREC_ROUNDTRIP
360
AA4
  0
DICTIONARY
  5
AA5
330
97B
100
AcDbDictionary
280
     1
281
     1
  3
ACAD_XREC_ROUNDTRIP
360
AA6
  0
DICTIONARY
  5
AAD
330
97F
100
AcDbDictionary
280
     1
281
     1
  3
ACAD_XREC_ROUNDTRIP
360
AAE
  0
DICTIONARY
  5
AC9
330
98D
100
AcDbDictionary
280
     1
281
     1
  3
ACAD_XREC_ROUNDTRIP
360
ACA
  0
DICTIONARY
  5
AB9
330
985
100
AcDbDictionary
280
     1
281
     1
  3
ACAD_XREC_ROUNDTRIP
360
ABA
  0
DICTIONARY
  5
ACB
330
98E
100
AcDbDictionary
280
     1
281
     1
  3
ACAD_XREC_ROUNDTRIP
360
ACC
  0
DICTIONARY
  5
AB1
330
981
100
AcDbDictionary
280
     1
281
     1
  3
ACAD_XREC_ROUNDTRIP
360
AB2
  0
DICTIONARY
  5
AC7
330
98C
100
AcDbDictionary
280
     1
281
     1
  3
ACAD_XREC_ROUNDTRIP
360
AC8
  0
DICTIONARY
  5
AC5
330
98B
100
AcDbDictionary
280
     1
281
     1
  3
ACAD_XREC_ROUNDTRIP
360
AC6
  0
DICTIONARY
  5
ABF
330
988
100
AcDbDictionary
280
     1
281
     1
  3
ACAD_XREC_ROUNDTRIP
360
AC0
  0
DICTIONARY
  5
AC1
330
989
100
AcDbDictionary
280
     1
281
     1
  3
ACAD_XREC_ROUNDTRIP
360
AC2
  0
DICTIONARY
  5
AB7
330
984
100
AcDbDictionary
280
     1
281
     1
  3
ACAD_XREC_ROUNDTRIP
360
AB8
  0
DICTIONARY
  5
AAB
330
97E
100
AcDbDictionary
280
     1
281
     1
  3
ACAD_XREC_ROUNDTRIP
360
AAC
  0
DICTIONARY
  5
AC3
330
98A
100
AcDbDictionary
280
     1
281
     1
  3
ACAD_XREC_ROUNDTRIP
360
AC4
  0
XRECORD
  5
AD3
102
{ACAD_REACTORS
330
AD2
102
}
330
AD2
100
AcDbXrecord
280
     1
102
DISPLAYNAME
  1
Metric50
102
FLAGS
 90
        0
  0
XRECORD
  5
A9D
102
{ACAD_REACTORS
330
968
102
}
330
968
100
AcDbXrecord
280
     1
102
MATERIAL
148
0.0
149
0.0
149
0.0
 93
        0
 94
      127
282
     0
 72
     0
 77
     0
171
     0
175
     0
179
     0
273
     0
  0
XRECORD
  5
96A
102
{ACAD_REACTORS
330
968
102
}
330
968
100
AcDbXrecord
280
     1
270
     1
271
     1
  0
XRECORD
  5
969
102
{ACAD_REACTORS
330
968
102
}
330
968
100
AcDbXrecord
280
     1
270
     1
271
     1
  0
XRECORD
  5
96D
102
{ACAD_REACTORS
330
968
102
}
330
968
100
AcDbXrecord
280
     1
270
     1
271
     1
  0
XRECORD
  5
96C
102
{ACAD_REACTORS
330
968
102
}
330
968
100
AcDbXrecord
280
     1
270
     1
271
     1
  0
XRECORD
  5
96E
102
{ACAD_REACTORS
330
968
102
}
330
968
100
AcDbXrecord
280
     1
270
     1
271
     1
  0
XRECORD
  5
96B
102
{ACAD_REACTORS
330
968
102
}
330
968
100
AcDbXrecord
280
     1
270
     1
271
     1
  0
XRECORD
  5
A9C
102
{ACAD_REACTORS
330
960
102
}
330
960
100
AcDbXrecord
280
     1
102
MATERIAL
148
0.0
149
0.0
149
0.0
 93
        0
 94
      127
282
     0
 72
     0
 77
     0
171
     0
175
     0
179
     0
273
     0
  0
XRECORD
  5
962
102
{ACAD_REACTORS
330
960
102
}
330
960
100
AcDbXrecord
280
     1
270
     1
271
     1
  0
XRECORD
  5
961
102
{ACAD_REACTORS
330
960
102
}
330
960
100
AcDbXrecord
280
     1
270
     1
271
     1
  0
XRECORD
  5
965
102
{ACAD_REACTORS
330
960
102
}
330
960
100
AcDbXrecord
280
     1
270
     1
271
     1
  0
XRECORD
  5
964
102
{ACAD_REACTORS
330
960
102
}
330
960
100
AcDbXrecord
280
     1
270
     1
271
     1
  0
XRECORD
  5
966
102
{ACAD_REACTORS
330
960
102
}
330
960
100
AcDbXrecord
280
     1
270
     1
271
     1
  0
XRECORD
  5
963
102
{ACAD_REACTORS
330
960
102
}
330
960
100
AcDbXrecord
280
     1
270
     1
271
     1
  0
XRECORD
  5
A9E
102
{ACAD_REACTORS
330
970
102
}
330
970
100
AcDbXrecord
280
     1
102
MATERIAL
148
0.0
149
0.0
149
0.0
 93
        0
 94
      127
282
     0
 72
     0
 77
     0
171
     0
175
     0
179
     0
273
     0
  0
XRECORD
  5
972
102
{ACAD_REACTORS
330
970
102
}
330
970
100
AcDbXrecord
280
     1
270
     1
271
     1
  0
XRECORD
  5
971
102
{ACAD_REACTORS
330
970
102
}
330
970
100
AcDbXrecord
280
     1
270
     1
271
     1
  0
XRECORD
  5
975
102
{ACAD_REACTORS
330
970
102
}
330
970
100
AcDbXrecord
280
     1
270
     1
271
     1
  0
XRECORD
  5
974
102
{ACAD_REACTORS
330
970
102
}
330
970
100
AcDbXrecord
280
     1
270
     1
271
     1
  0
XRECORD
  5
976
102
{ACAD_REACTORS
330
970
102
}
330
970
100
AcDbXrecord
280
     1
270
     1
271
     1
  0
XRECORD
  5
973
102
{ACAD_REACTORS
330
970
102
}
330
970
100
AcDbXrecord
280
     1
270
     1
271
     1
  0
XRECORD
  5
AD1
102
{ACAD_REACTORS
330
AD0
102
}
330
AD0
100
AcDbXrecord
280
     1
102
DISPLAYNAME
  1
Metric50
102
FLAGS
 90
        0
  0
CELLSTYLEMAP
  5
A87
102
{ACAD_REACTORS
330
A86
102
}
330
A86
100
AcDbCellStyleMap
 90
        3
300
CELLSTYLE
  1
TABLEFORMAT_BEGIN
 90
        5
170
     1
 91
        0
 92
    32768
 62
   257
 93
        1
300
CONTENTFORMAT
  1
CONTENTFORMAT_BEGIN
 90
        0
 91
        0
 92
        4
 93
        0
300

 40
0.0
140
1.0
 94
        5
 62
     0
340
11
144
6.0
309
CONTENTFORMAT_END
171
     1
301
MARGIN
  1
CELLMARGIN_BEGIN
 40
1.5
 40
1.5
 40
1.5
 40
1.5
 40
0.18
 40
0.18
309
CELLMARGIN_END
 94
        6
 95
        1
302
GRIDFORMAT
  1
GRIDFORMAT_BEGIN
 90
        0
 91
        1
 62
     0
 92
       -2
340
0
 93
        0
 40
0.045
309
GRIDFORMAT_END
 95
        2
302
GRIDFORMAT
  1
GRIDFORMAT_BEGIN
 90
        0
 91
        1
 62
     0
 92
       -2
340
0
 93
        0
 40
0.045
309
GRIDFORMAT_END
 95
        4
302
GRIDFORMAT
  1
GRIDFORMAT_BEGIN
 90
        0
 91
        1
 62
     0
 92
       -2
340
0
 93
        0
 40
0.045
309
GRIDFORMAT_END
 95
        8
302
GRIDFORMAT
  1
GRIDFORMAT_BEGIN
 90
        0
 91
        1
 62
     0
 92
       -2
340
0
 93
        0
 40
0.045
309
GRIDFORMAT_END
 95
       16
302
GRIDFORMAT
  1
GRIDFORMAT_BEGIN
 90
        0
 91
        1
 62
     0
 92
       -2
340
0
 93
        0
 40
0.045
309
GRIDFORMAT_END
 95
       32
302
GRIDFORMAT
  1
GRIDFORMAT_BEGIN
 90
        0
 91
        1
 62
     0
 92
       -2
340
0
 93
        0
 40
0.045
309
GRIDFORMAT_END
309
TABLEFORMAT_END
  1
CELLSTYLE_BEGIN
 90
        1
 91
        1
300
_TITLE
309
CELLSTYLE_END
300
CELLSTYLE
  1
TABLEFORMAT_BEGIN
 90
        5
170
     1
 91
        0
 92
        0
 62
   257
 93
        1
300
CONTENTFORMAT
  1
CONTENTFORMAT_BEGIN
 90
        0
 91
        0
 92
        4
 93
        0
300

 40
0.0
140
1.0
 94
        5
 62
     0
340
11
144
4.5
309
CONTENTFORMAT_END
171
     1
301
MARGIN
  1
CELLMARGIN_BEGIN
 40
1.5
 40
1.5
 40
1.5
 40
1.5
 40
0.18
 40
0.18
309
CELLMARGIN_END
 94
        6
 95
        1
302
GRIDFORMAT
  1
GRIDFORMAT_BEGIN
 90
        0
 91
        1
 62
     0
 92
       -2
340
0
 93
        0
 40
0.045
309
GRIDFORMAT_END
 95
        2
302
GRIDFORMAT
  1
GRIDFORMAT_BEGIN
 90
        0
 91
        1
 62
     0
 92
       -2
340
0
 93
        0
 40
0.045
309
GRIDFORMAT_END
 95
        4
302
GRIDFORMAT
  1
GRIDFORMAT_BEGIN
 90
        0
 91
        1
 62
     0
 92
       -2
340
0
 93
        0
 40
0.045
309
GRIDFORMAT_END
 95
        8
302
GRIDFORMAT
  1
GRIDFORMAT_BEGIN
 90
        0
 91
        1
 62
     0
 92
       -2
340
0
 93
        0
 40
0.045
309
GRIDFORMAT_END
 95
       16
302
GRIDFORMAT
  1
GRIDFORMAT_BEGIN
 90
        0
 91
        1
 62
     0
 92
       -2
340
0
 93
        0
 40
0.045
309
GRIDFORMAT_END
 95
       32
302
GRIDFORMAT
  1
GRIDFORMAT_BEGIN
 90
        0
 91
        1
 62
     0
 92
       -2
340
0
 93
        0
 40
0.045
309
GRIDFORMAT_END
309
TABLEFORMAT_END
  1
CELLSTYLE_BEGIN
 90
        2
 91
        1
300
_HEADER
309
CELLSTYLE_END
300
CELLSTYLE
  1
TABLEFORMAT_BEGIN
 90
        5
170
     1
 91
        0
 92
        0
 62
   257
 93
        1
300
CONTENTFORMAT
  1
CONTENTFORMAT_BEGIN
 90
        0
 91
        0
 92
        4
 93
        0
300

 40
0.0
140
1.0
 94
        2
 62
     0
340
11
144
4.5
309
CONTENTFORMAT_END
171
     1
301
MARGIN
  1
CELLMARGIN_BEGIN
 40
1.5
 40
1.5
 40
1.5
 40
1.5
 40
0.18
 40
0.18
309
CELLMARGIN_END
 94
        6
 95
        1
302
GRIDFORMAT
  1
GRIDFORMAT_BEGIN
 90
        0
 91
        1
 62
     0
 92
       -2
340
0
 93
        0
 40
0.045
309
GRIDFORMAT_END
 95
        2
302
GRIDFORMAT
  1
GRIDFORMAT_BEGIN
 90
        0
 91
        1
 62
     0
 92
       -2
340
0
 93
        0
 40
0.045
309
GRIDFORMAT_END
 95
        4
302
GRIDFORMAT
  1
GRIDFORMAT_BEGIN
 90
        0
 91
        1
 62
     0
 92
       -2
340
0
 93
        0
 40
0.045
309
GRIDFORMAT_END
 95
        8
302
GRIDFORMAT
  1
GRIDFORMAT_BEGIN
 90
        0
 91
        1
 62
     0
 92
       -2
340
0
 93
        0
 40
0.045
309
GRIDFORMAT_END
 95
       16
302
GRIDFORMAT
  1
GRIDFORMAT_BEGIN
 90
        0
 91
        1
 62
     0
 92
       -2
340
0
 93
        0
 40
0.045
309
GRIDFORMAT_END
 95
       32
302
GRIDFORMAT
  1
GRIDFORMAT_BEGIN
 90
        0
 91
        1
 62
     0
 92
       -2
340
0
 93
        0
 40
0.045
309
GRIDFORMAT_END
309
TABLEFORMAT_END
  1
CELLSTYLE_BEGIN
 90
        3
 91
        2
300
_DATA
309
CELLSTYLE_END
  0
XRECORD
  5
A8D
102
{ACAD_REACTORS
330
A86
102
}
330
A86
100
AcDbXrecord
280
     1
102
ACAD_ROUNDTRIP_PRE2007_TABLESTYLE
 90
        4
 91
        0
  1

 92
        4
 93
        0
  2

 94
        4
 95
        0
  3

  0
XRECORD
  5
AAA
102
{ACAD_REACTORS
330
AA9
102
}
330
AA9
100
AcDbXrecord
280
     1
102
RTVSPost2010Prop28
280
     1
102
RTVSPost2010PropOp28
 70
     1
102
RTVSPost2010Prop29
280
     1
102
RTVSPost2010PropOp29
 70
     1
102
RTVSPost2010Prop30
280
     0
102
RTVSPost2010PropOp30
 70
     1
102
RTVSPost2010Prop31
280
     0
102
RTVSPost2010PropOp31
 70
     1
102
RTVSPost2010Prop32
280
     0
102
RTVSPost2010PropOp32
 70
     1
102
RTVSPost2010Prop33
280
     0
102
RTVSPost2010PropOp33
 70
     1
102
RTVSPost2010Prop34
280
     0
102
RTVSPost2010PropOp34
 70
     1
102
RTVSPost2010Prop35
280
     0
102
RTVSPost2010PropOp35
 70
     1
102
RTVSPost2010Prop36
280
     0
102
RTVSPost2010PropOp36
 70
     1
102
RTVSPost2010Prop37
 90
       50
102
RTVSPost2010PropOp37
 70
     1
102
RTVSPost2010Prop38
140
0.0
102
RTVSPost2010PropOp38
 70
     1
102
RTVSPost2010Prop39
140
1.0
102
RTVSPost2010PropOp39
 70
     1
102
RTVSPost2010Prop40
 90
        0
102
RTVSPost2010PropOp40
 70
     1
102
RTVSPost2010Prop41ColorIndex
 90
       18
102
RTVSPost2010Prop41ColorRGB
 90
        0
102
RTVSPost2010PropOp41
 70
     1
102
RTVSPost2010Prop42
 90
       50
102
RTVSPost2010PropOp42
 70
     1
102
RTVSPost2010Prop43
 90
        3
102
RTVSPost2010PropOp43
 70
     1
102
RTVSPost2010Prop44ColorIndex
 90
        5
102
RTVSPost2010Prop44ColorRGB
 90
      255
102
RTVSPost2010PropOp44
 70
     1
102
RTVSPost2010Prop45
280
     0
102
RTVSPost2010PropOp45
 70
     1
102
RTVSPost2010Prop46
 90
       50
102
RTVSPost2010PropOp46
 70
     1
102
RTVSPost2010Prop47
 90
       50
102
RTVSPost2010PropOp47
 70
     1
102
RTVSPost2010Prop48
 90
       50
102
RTVSPost2010PropOp48
 70
     1
102
RTVSPost2010Prop49
280
     0
102
RTVSPost2010PropOp49
 70
     1
102
RTVSPost2010Prop50
 90
       50
102
RTVSPost2010PropOp50
 70
     1
102
RTVSPost2010Prop51ColorIndex
 90
      256
102
RTVSPost2010Prop51ColorRGB
 90
-16777216
102
RTVSPost2010PropOp51
 70
     0
102
RTVSPost2010Prop52
140
1.0
102
RTVSPost2010PropOp52
 70
     0
102
RTVSPost2010Prop53
 90
        2
102
RTVSPost2010PropOp53
 70
     1
102
RTVSPost2010Prop54
  1
strokes_ogs.tif
102
RTVSPost2010PropOp54
 70
     1
102
RTVSPost2010Prop55
280
     0
102
RTVSPost2010PropOp55
 70
     1
102
RTVSPost2010Prop56
140
1.0
102
RTVSPost2010PropOp56
 70
     1
102
RTVSPost2010Prop57
140
1.0
102
RTVSPost2010PropOp57
 70
     1
102
RTVSPropertyOp0
 70
     1
102
RTVSPropertyOp1
 70
     1
102
RTVSPropertyOp2
 70
     1
102
RTVSPropertyOp3
 70
     1
102
RTVSPropertyOp4
 70
     1
102
RTVSPropertyOp5
 70
     1
102
RTVSPropertyOp6
 70
     1
102
RTVSPropertyOp7
 70
     1
102
RTVSPropertyOp8
 70
     1
102
RTVSPropertyOp9
 70
     1
102
RTVSPropertyOp10
 70
     1
102
RTVSPropertyOp11
 70
     1
102
RTVSPropertyOp12
 70
     1
102
RTVSPropertyOp13
 70
     1
102
RTVSPropertyOp14
 70
     1
102
RTVSPropertyOp15
 70
     1
102
RTVSPropertyOp16
 70
     1
102
RTVSPropertyOp17
 70
     1
102
RTVSPropertyOp18
 70
     1
102
RTVSPropertyOp19
 70
     1
102
RTVSPropertyOp20
 70
     1
102
RTVSPropertyOp21
 70
     1
102
RTVSPropertyOp22
 70
     1
102
RTVSPropertyOp23
 70
     1
102
RTVSPropertyOp24
 70
     1
102
RTVSPropertyOp25
 70
     1
102
RTVSPropertyOp26
 70
     1
102
RTVSPropertyOp27
 70
     1
102
RTVSPropertyOp28
 70
     1
102
RTVSPropertyOp29
 70
     1
102
RTVSPropertyOp30
 70
     1
102
RTVSPropertyOp31
 70
     1
102
RTVSPropertyOp32
 70
     1
102
RTVSPropertyOp33
 70
     1
102
RTVSPropertyOp34
 70
     1
102
RTVSPropertyOp35
 70
     1
102
RTVSPropertyOp36
 70
     1
102
RTVSPropertyOp37
 70
     1
102
RTVSPropertyOp38
 70
     1
102
RTVSPropertyOp39
 70
     1
102
RTVSPropertyOp40
 70
     1
102
RTVSPropertyOp41
 70
     1
102
RTVSPropertyOp42
 70
     1
102
RTVSPropertyOp43
 70
     1
102
RTVSPropertyOp44
 70
     1
102
RTVSPropertyOp45
 70
     1
102
RTVSPropertyOp46
 70
     1
102
RTVSPropertyOp47
 70
     1
102
RTVSPropertyOp48
 70
     1
102
RTVSPropertyOp49
 70
     1
102
RTVSPropertyOp50
 70
     1
102
RTVSPropertyOp51
 70
     0
102
RTVSPropertyOp52
 70
     0
102
RTVSPropertyOp53
 70
     1
102
RTVSPropertyOp54
 70
     1
102
RTVSPropertyOp55
 70
     1
102
RTVSPropertyOp56
 70
     1
102
RTVSPropertyOp57
 70
     1
102
RTVSPropertyOp58
 70
     1
102
RTVSPropertyOp59
 70
     1
102
RTVSPropertyOp60
 70
     1
102
RTVSPropertyOp61
 70
     1
102
RTVSPropertyOp62
 70
     1
  0
XRECORD
  5
AA8
102
{ACAD_REACTORS
330
AA7
102
}
330
AA7
100
AcDbXrecord
280
     1
102
RTVSPost2010Prop28
280
     0
102
RTVSPost2010PropOp28
 70
     1
102
RTVSPost2010Prop29
280
     1
102
RTVSPost2010PropOp29
 70
     1
102
RTVSPost2010Prop30
280
     1
102
RTVSPost2010PropOp30
 70
     1
102
RTVSPost2010Prop31
280
     0
102
RTVSPost2010PropOp31
 70
     1
102
RTVSPost2010Prop32
280
     0
102
RTVSPost2010PropOp32
 70
     1
102
RTVSPost2010Prop33
280
     0
102
RTVSPost2010PropOp33
 70
     1
102
RTVSPost2010Prop34
280
     0
102
RTVSPost2010PropOp34
 70
     1
102
RTVSPost2010Prop35
280
     0
102
RTVSPost2010PropOp35
 70
     1
102
RTVSPost2010Prop36
280
     0
102
RTVSPost2010PropOp36
 70
     1
102
RTVSPost2010Prop37
 90
       50
102
RTVSPost2010PropOp37
 70
     1
102
RTVSPost2010Prop38
140
0.0
102
RTVSPost2010PropOp38
 70
     1
102
RTVSPost2010Prop39
140
1.0
102
RTVSPost2010PropOp39
 70
     1
102
RTVSPost2010Prop40
 90
        0
102
RTVSPost2010PropOp40
 70
     1
102
RTVSPost2010Prop41ColorIndex
 90
       18
102
RTVSPost2010Prop41ColorRGB
 90
        0
102
RTVSPost2010PropOp41
 70
     1
102
RTVSPost2010Prop42
 90
       50
102
RTVSPost2010PropOp42
 70
     1
102
RTVSPost2010Prop43
 90
        3
102
RTVSPost2010PropOp43
 70
     1
102
RTVSPost2010Prop44ColorIndex
 90
        5
102
RTVSPost2010Prop44ColorRGB
 90
      255
102
RTVSPost2010PropOp44
 70
     1
102
RTVSPost2010Prop45
280
     0
102
RTVSPost2010PropOp45
 70
     1
102
RTVSPost2010Prop46
 90
       50
102
RTVSPost2010PropOp46
 70
     1
102
RTVSPost2010Prop47
 90
       50
102
RTVSPost2010PropOp47
 70
     1
102
RTVSPost2010Prop48
 90
       50
102
RTVSPost2010PropOp48
 70
     1
102
RTVSPost2010Prop49
280
     0
102
RTVSPost2010PropOp49
 70
     1
102
RTVSPost2010Prop50
 90
       50
102
RTVSPost2010PropOp50
 70
     1
102
RTVSPost2010Prop51ColorIndex
 90
      256
102
RTVSPost2010Prop51ColorRGB
 90
-16777216
102
RTVSPost2010PropOp51
 70
     0
102
RTVSPost2010Prop52
140
1.0
102
RTVSPost2010PropOp52
 70
     0
102
RTVSPost2010Prop53
 90
        2
102
RTVSPost2010PropOp53
 70
     1
102
RTVSPost2010Prop54
  1
strokes_ogs.tif
102
RTVSPost2010PropOp54
 70
     1
102
RTVSPost2010Prop55
280
     0
102
RTVSPost2010PropOp55
 70
     1
102
RTVSPost2010Prop56
140
1.0
102
RTVSPost2010PropOp56
 70
     1
102
RTVSPost2010Prop57
140
1.0
102
RTVSPost2010PropOp57
 70
     1
102
RTVSPropertyOp0
 70
     1
102
RTVSPropertyOp1
 70
     1
102
RTVSPropertyOp2
 70
     1
102
RTVSPropertyOp3
 70
     1
102
RTVSPropertyOp4
 70
     1
102
RTVSPropertyOp5
 70
     1
102
RTVSPropertyOp6
 70
     1
102
RTVSPropertyOp7
 70
     1
102
RTVSPropertyOp8
 70
     1
102
RTVSPropertyOp9
 70
     1
102
RTVSPropertyOp10
 70
     1
102
RTVSPropertyOp11
 70
     1
102
RTVSPropertyOp12
 70
     1
102
RTVSPropertyOp13
 70
     1
102
RTVSPropertyOp14
 70
     1
102
RTVSPropertyOp15
 70
     1
102
RTVSPropertyOp16
 70
     1
102
RTVSPropertyOp17
 70
     1
102
RTVSPropertyOp18
 70
     1
102
RTVSPropertyOp19
 70
     1
102
RTVSPropertyOp20
 70
     1
102
RTVSPropertyOp21
 70
     1
102
RTVSPropertyOp22
 70
     1
102
RTVSPropertyOp23
 70
     1
102
RTVSPropertyOp24
 70
     1
102
RTVSPropertyOp25
 70
     1
102
RTVSPropertyOp26
 70
     1
102
RTVSPropertyOp27
 70
     1
102
RTVSPropertyOp28
 70
     1
102
RTVSPropertyOp29
 70
     1
102
RTVSPropertyOp30
 70
     1
102
RTVSPropertyOp31
 70
     1
102
RTVSPropertyOp32
 70
     1
102
RTVSPropertyOp33
 70
     1
102
RTVSPropertyOp34
 70
     1
102
RTVSPropertyOp35
 70
     1
102
RTVSPropertyOp36
 70
     1
102
RTVSPropertyOp37
 70
     1
102
RTVSPropertyOp38
 70
     1
102
RTVSPropertyOp39
 70
     1
102
RTVSPropertyOp40
 70
     1
102
RTVSPropertyOp41
 70
     1
102
RTVSPropertyOp42
 70
     1
102
RTVSPropertyOp43
 70
     1
102
RTVSPropertyOp44
 70
     1
102
RTVSPropertyOp45
 70
     1
102
RTVSPropertyOp46
 70
     1
102
RTVSPropertyOp47
 70
     1
102
RTVSPropertyOp48
 70
     1
102
RTVSPropertyOp49
 70
     1
102
RTVSPropertyOp50
 70
     1
102
RTVSPropertyOp51
 70
     0
102
RTVSPropertyOp52
 70
     0
102
RTVSPropertyOp53
 70
     1
102
RTVSPropertyOp54
 70
     1
102
RTVSPropertyOp55
 70
     1
102
RTVSPropertyOp56
 70
     1
102
RTVSPropertyOp57
 70
     1
102
RTVSPropertyOp58
 70
     1
102
RTVSPropertyOp59
 70
     1
102
RTVSPropertyOp60
 70
     1
102
RTVSPropertyOp61
 70
     1
102
RTVSPropertyOp62
 70
     1
  0
XRECORD
  5
AB6
102
{ACAD_REACTORS
330
AB5
102
}
330
AB5
100
AcDbXrecord
280
     1
102
RTVSPost2010Prop28
280
     0
102
RTVSPost2010PropOp28
 70
     1
102
RTVSPost2010Prop29
280
     1
102
RTVSPost2010PropOp29
 70
     1
102
RTVSPost2010Prop30
280
     1
102
RTVSPost2010PropOp30
 70
     1
102
RTVSPost2010Prop31
280
     0
102
RTVSPost2010PropOp31
 70
     1
102
RTVSPost2010Prop32
280
     0
102
RTVSPost2010PropOp32
 70
     1
102
RTVSPost2010Prop33
280
     0
102
RTVSPost2010PropOp33
 70
     1
102
RTVSPost2010Prop34
280
     0
102
RTVSPost2010PropOp34
 70
     1
102
RTVSPost2010Prop35
280
     0
102
RTVSPost2010PropOp35
 70
     1
102
RTVSPost2010Prop36
280
     0
102
RTVSPost2010PropOp36
 70
     1
102
RTVSPost2010Prop37
 90
       50
102
RTVSPost2010PropOp37
 70
     1
102
RTVSPost2010Prop38
140
0.0
102
RTVSPost2010PropOp38
 70
     1
102
RTVSPost2010Prop39
140
1.0
102
RTVSPost2010PropOp39
 70
     1
102
RTVSPost2010Prop40
 90
        0
102
RTVSPost2010PropOp40
 70
     1
102
RTVSPost2010Prop41ColorIndex
 90
       18
102
RTVSPost2010Prop41ColorRGB
 90
        0
102
RTVSPost2010PropOp41
 70
     1
102
RTVSPost2010Prop42
 90
       50
102
RTVSPost2010PropOp42
 70
     1
102
RTVSPost2010Prop43
 90
        3
102
RTVSPost2010PropOp43
 70
     1
102
RTVSPost2010Prop44ColorIndex
 90
        5
102
RTVSPost2010Prop44ColorRGB
 90
      255
102
RTVSPost2010PropOp44
 70
     1
102
RTVSPost2010Prop45
280
     0
102
RTVSPost2010PropOp45
 70
     1
102
RTVSPost2010Prop46
 90
       50
102
RTVSPost2010PropOp46
 70
     1
102
RTVSPost2010Prop47
 90
       50
102
RTVSPost2010PropOp47
 70
     1
102
RTVSPost2010Prop48
 90
       50
102
RTVSPost2010PropOp48
 70
     1
102
RTVSPost2010Prop49
280
     0
102
RTVSPost2010PropOp49
 70
     1
102
RTVSPost2010Prop50
 90
       50
102
RTVSPost2010PropOp50
 70
     1
102
RTVSPost2010Prop51ColorIndex
 90
      256
102
RTVSPost2010Prop51ColorRGB
 90
-16777216
102
RTVSPost2010PropOp51
 70
     0
102
RTVSPost2010Prop52
140
1.0
102
RTVSPost2010PropOp52
 70
     0
102
RTVSPost2010Prop53
 90
        2
102
RTVSPost2010PropOp53
 70
     1
102
RTVSPost2010Prop54
  1
strokes_ogs.tif
102
RTVSPost2010PropOp54
 70
     1
102
RTVSPost2010Prop55
280
     0
102
RTVSPost2010PropOp55
 70
     1
102
RTVSPost2010Prop56
140
1.0
102
RTVSPost2010PropOp56
 70
     1
102
RTVSPost2010Prop57
140
1.0
102
RTVSPost2010PropOp57
 70
     1
102
RTVSPropertyOp0
 70
     1
102
RTVSPropertyOp1
 70
     1
102
RTVSPropertyOp2
 70
     1
102
RTVSPropertyOp3
 70
     1
102
RTVSPropertyOp4
 70
     1
102
RTVSPropertyOp5
 70
     1
102
RTVSPropertyOp6
 70
     1
102
RTVSPropertyOp7
 70
     1
102
RTVSPropertyOp8
 70
     1
102
RTVSPropertyOp9
 70
     1
102
RTVSPropertyOp10
 70
     1
102
RTVSPropertyOp11
 70
     1
102
RTVSPropertyOp12
 70
     1
102
RTVSPropertyOp13
 70
     1
102
RTVSPropertyOp14
 70
     1
102
RTVSPropertyOp15
 70
     1
102
RTVSPropertyOp16
 70
     1
102
RTVSPropertyOp17
 70
     1
102
RTVSPropertyOp18
 70
     1
102
RTVSPropertyOp19
 70
     1
102
RTVSPropertyOp20
 70
     1
102
RTVSPropertyOp21
 70
     1
102
RTVSPropertyOp22
 70
     1
102
RTVSPropertyOp23
 70
     1
102
RTVSPropertyOp24
 70
     1
102
RTVSPropertyOp25
 70
     1
102
RTVSPropertyOp26
 70
     1
102
RTVSPropertyOp27
 70
     1
102
RTVSPropertyOp28
 70
     1
102
RTVSPropertyOp29
 70
     1
102
RTVSPropertyOp30
 70
     1
102
RTVSPropertyOp31
 70
     1
102
RTVSPropertyOp32
 70
     1
102
RTVSPropertyOp33
 70
     1
102
RTVSPropertyOp34
 70
     1
102
RTVSPropertyOp35
 70
     1
102
RTVSPropertyOp36
 70
     1
102
RTVSPropertyOp37
 70
     1
102
RTVSPropertyOp38
 70
     1
102
RTVSPropertyOp39
 70
     1
102
RTVSPropertyOp40
 70
     1
102
RTVSPropertyOp41
 70
     1
102
RTVSPropertyOp42
 70
     1
102
RTVSPropertyOp43
 70
     1
102
RTVSPropertyOp44
 70
     1
102
RTVSPropertyOp45
 70
     1
102
RTVSPropertyOp46
 70
     1
102
RTVSPropertyOp47
 70
     1
102
RTVSPropertyOp48
 70
     1
102
RTVSPropertyOp49
 70
     1
102
RTVSPropertyOp50
 70
     1
102
RTVSPropertyOp51
 70
     0
102
RTVSPropertyOp52
 70
     0
102
RTVSPropertyOp53
 70
     1
102
RTVSPropertyOp54
 70
     1
102
RTVSPropertyOp55
 70
     1
102
RTVSPropertyOp56
 70
     1
102
RTVSPropertyOp57
 70
     1
102
RTVSPropertyOp58
 70
     1
102
RTVSPropertyOp59
 70
     1
102
RTVSPropertyOp60
 70
     1
102
RTVSPropertyOp61
 70
     1
102
RTVSPropertyOp62
 70
     1
  0
XRECORD
  5
ABE
102
{ACAD_REACTORS
330
ABD
102
}
330
ABD
100
AcDbXrecord
280
     1
102
RTVSPost2010Prop28
280
     0
102
RTVSPost2010PropOp28
 70
     1
102
RTVSPost2010Prop29
280
     1
102
RTVSPost2010PropOp29
 70
     1
102
RTVSPost2010Prop30
280
     1
102
RTVSPost2010PropOp30
 70
     1
102
RTVSPost2010Prop31
280
     0
102
RTVSPost2010PropOp31
 70
     1
102
RTVSPost2010Prop32
280
     0
102
RTVSPost2010PropOp32
 70
     1
102
RTVSPost2010Prop33
280
     0
102
RTVSPost2010PropOp33
 70
     1
102
RTVSPost2010Prop34
280
     0
102
RTVSPost2010PropOp34
 70
     1
102
RTVSPost2010Prop35
280
     0
102
RTVSPost2010PropOp35
 70
     1
102
RTVSPost2010Prop36
280
     0
102
RTVSPost2010PropOp36
 70
     1
102
RTVSPost2010Prop37
 90
       50
102
RTVSPost2010PropOp37
 70
     1
102
RTVSPost2010Prop38
140
0.0
102
RTVSPost2010PropOp38
 70
     1
102
RTVSPost2010Prop39
140
1.0
102
RTVSPost2010PropOp39
 70
     1
102
RTVSPost2010Prop40
 90
        0
102
RTVSPost2010PropOp40
 70
     1
102
RTVSPost2010Prop41ColorIndex
 90
       18
102
RTVSPost2010Prop41ColorRGB
 90
        0
102
RTVSPost2010PropOp41
 70
     1
102
RTVSPost2010Prop42
 90
       50
102
RTVSPost2010PropOp42
 70
     1
102
RTVSPost2010Prop43
 90
        3
102
RTVSPost2010PropOp43
 70
     1
102
RTVSPost2010Prop44ColorIndex
 90
        5
102
RTVSPost2010Prop44ColorRGB
 90
      255
102
RTVSPost2010PropOp44
 70
     1
102
RTVSPost2010Prop45
280
     0
102
RTVSPost2010PropOp45
 70
     1
102
RTVSPost2010Prop46
 90
       50
102
RTVSPost2010PropOp46
 70
     1
102
RTVSPost2010Prop47
 90
       50
102
RTVSPost2010PropOp47
 70
     1
102
RTVSPost2010Prop48
 90
       50
102
RTVSPost2010PropOp48
 70
     1
102
RTVSPost2010Prop49
280
     0
102
RTVSPost2010PropOp49
 70
     1
102
RTVSPost2010Prop50
 90
       50
102
RTVSPost2010PropOp50
 70
     1
102
RTVSPost2010Prop51ColorIndex
 90
      256
102
RTVSPost2010Prop51ColorRGB
 90
-16777216
102
RTVSPost2010PropOp51
 70
     0
102
RTVSPost2010Prop52
140
1.0
102
RTVSPost2010PropOp52
 70
     0
102
RTVSPost2010Prop53
 90
        2
102
RTVSPost2010PropOp53
 70
     1
102
RTVSPost2010Prop54
  1
strokes_ogs.tif
102
RTVSPost2010PropOp54
 70
     1
102
RTVSPost2010Prop55
280
     0
102
RTVSPost2010PropOp55
 70
     1
102
RTVSPost2010Prop56
140
1.0
102
RTVSPost2010PropOp56
 70
     1
102
RTVSPost2010Prop57
140
1.0
102
RTVSPost2010PropOp57
 70
     1
102
RTVSPropertyOp0
 70
     1
102
RTVSPropertyOp1
 70
     1
102
RTVSPropertyOp2
 70
     1
102
RTVSPropertyOp3
 70
     1
102
RTVSPropertyOp4
 70
     1
102
RTVSPropertyOp5
 70
     1
102
RTVSPropertyOp6
 70
     1
102
RTVSPropertyOp7
 70
     1
102
RTVSPropertyOp8
 70
     1
102
RTVSPropertyOp9
 70
     1
102
RTVSPropertyOp10
 70
     1
102
RTVSPropertyOp11
 70
     1
102
RTVSPropertyOp12
 70
     1
102
RTVSPropertyOp13
 70
     1
102
RTVSPropertyOp14
 70
     1
102
RTVSPropertyOp15
 70
     1
102
RTVSPropertyOp16
 70
     1
102
RTVSPropertyOp17
 70
     1
102
RTVSPropertyOp18
 70
     1
102
RTVSPropertyOp19
 70
     1
102
RTVSPropertyOp20
 70
     1
102
RTVSPropertyOp21
 70
     1
102
RTVSPropertyOp22
 70
     1
102
RTVSPropertyOp23
 70
     1
102
RTVSPropertyOp24
 70
     1
102
RTVSPropertyOp25
 70
     1
102
RTVSPropertyOp26
 70
     1
102
RTVSPropertyOp27
 70
     1
102
RTVSPropertyOp28
 70
     1
102
RTVSPropertyOp29
 70
     1
102
RTVSPropertyOp30
 70
     1
102
RTVSPropertyOp31
 70
     1
102
RTVSPropertyOp32
 70
     1
102
RTVSPropertyOp33
 70
     1
102
RTVSPropertyOp34
 70
     1
102
RTVSPropertyOp35
 70
     1
102
RTVSPropertyOp36
 70
     1
102
RTVSPropertyOp37
 70
     1
102
RTVSPropertyOp38
 70
     1
102
RTVSPropertyOp39
 70
     1
102
RTVSPropertyOp40
 70
     1
102
RTVSPropertyOp41
 70
     1
102
RTVSPropertyOp42
 70
     1
102
RTVSPropertyOp43
 70
     1
102
RTVSPropertyOp44
 70
     1
102
RTVSPropertyOp45
 70
     1
102
RTVSPropertyOp46
 70
     1
102
RTVSPropertyOp47
 70
     1
102
RTVSPropertyOp48
 70
     1
102
RTVSPropertyOp49
 70
     1
102
RTVSPropertyOp50
 70
     1
102
RTVSPropertyOp51
 70
     0
102
RTVSPropertyOp52
 70
     0
102
RTVSPropertyOp53
 70
     1
102
RTVSPropertyOp54
 70
     1
102
RTVSPropertyOp55
 70
     1
102
RTVSPropertyOp56
 70
     1
102
RTVSPropertyOp57
 70
     1
102
RTVSPropertyOp58
 70
     1
102
RTVSPropertyOp59
 70
     1
102
RTVSPropertyOp60
 70
     1
102
RTVSPropertyOp61
 70
     1
102
RTVSPropertyOp62
 70
     1
  0
XRECORD
  5
AB0
102
{ACAD_REACTORS
330
AAF
102
}
330
AAF
100
AcDbXrecord
280
     1
102
RTVSPost2010Prop28
280
     0
102
RTVSPost2010PropOp28
 70
     1
102
RTVSPost2010Prop29
280
     1
102
RTVSPost2010PropOp29
 70
     1
102
RTVSPost2010Prop30
280
     1
102
RTVSPost2010PropOp30
 70
     1
102
RTVSPost2010Prop31
280
     0
102
RTVSPost2010PropOp31
 70
     1
102
RTVSPost2010Prop32
280
     0
102
RTVSPost2010PropOp32
 70
     1
102
RTVSPost2010Prop33
280
     0
102
RTVSPost2010PropOp33
 70
     1
102
RTVSPost2010Prop34
280
     0
102
RTVSPost2010PropOp34
 70
     1
102
RTVSPost2010Prop35
280
     0
102
RTVSPost2010PropOp35
 70
     1
102
RTVSPost2010Prop36
280
     0
102
RTVSPost2010PropOp36
 70
     1
102
RTVSPost2010Prop37
 90
       50
102
RTVSPost2010PropOp37
 70
     1
102
RTVSPost2010Prop38
140
0.0
102
RTVSPost2010PropOp38
 70
     1
102
RTVSPost2010Prop39
140
1.0
102
RTVSPost2010PropOp39
 70
     1
102
RTVSPost2010Prop40
 90
        0
102
RTVSPost2010PropOp40
 70
     1
102
RTVSPost2010Prop41ColorIndex
 90
       18
102
RTVSPost2010Prop41ColorRGB
 90
        0
102
RTVSPost2010PropOp41
 70
     1
102
RTVSPost2010Prop42
 90
       50
102
RTVSPost2010PropOp42
 70
     1
102
RTVSPost2010Prop43
 90
        3
102
RTVSPost2010PropOp43
 70
     1
102
RTVSPost2010Prop44ColorIndex
 90
        5
102
RTVSPost2010Prop44ColorRGB
 90
      255
102
RTVSPost2010PropOp44
 70
     1
102
RTVSPost2010Prop45
280
     0
102
RTVSPost2010PropOp45
 70
     1
102
RTVSPost2010Prop46
 90
       50
102
RTVSPost2010PropOp46
 70
     1
102
RTVSPost2010Prop47
 90
       50
102
RTVSPost2010PropOp47
 70
     1
102
RTVSPost2010Prop48
 90
       50
102
RTVSPost2010PropOp48
 70
     1
102
RTVSPost2010Prop49
280
     0
102
RTVSPost2010PropOp49
 70
     1
102
RTVSPost2010Prop50
 90
       50
102
RTVSPost2010PropOp50
 70
     1
102
RTVSPost2010Prop51ColorIndex
 90
      256
102
RTVSPost2010Prop51ColorRGB
 90
-16777216
102
RTVSPost2010PropOp51
 70
     0
102
RTVSPost2010Prop52
140
1.0
102
RTVSPost2010PropOp52
 70
     0
102
RTVSPost2010Prop53
 90
        2
102
RTVSPost2010PropOp53
 70
     1
102
RTVSPost2010Prop54
  1
strokes_ogs.tif
102
RTVSPost2010PropOp54
 70
     1
102
RTVSPost2010Prop55
280
     0
102
RTVSPost2010PropOp55
 70
     1
102
RTVSPost2010Prop56
140
1.0
102
RTVSPost2010PropOp56
 70
     1
102
RTVSPost2010Prop57
140
1.0
102
RTVSPost2010PropOp57
 70
     1
102
RTVSPropertyOp0
 70
     1
102
RTVSPropertyOp1
 70
     1
102
RTVSPropertyOp2
 70
     1
102
RTVSPropertyOp3
 70
     1
102
RTVSPropertyOp4
 70
     1
102
RTVSPropertyOp5
 70
     1
102
RTVSPropertyOp6
 70
     1
102
RTVSPropertyOp7
 70
     1
102
RTVSPropertyOp8
 70
     1
102
RTVSPropertyOp9
 70
     1
102
RTVSPropertyOp10
 70
     1
102
RTVSPropertyOp11
 70
     1
102
RTVSPropertyOp12
 70
     1
102
RTVSPropertyOp13
 70
     1
102
RTVSPropertyOp14
 70
     1
102
RTVSPropertyOp15
 70
     1
102
RTVSPropertyOp16
 70
     1
102
RTVSPropertyOp17
 70
     1
102
RTVSPropertyOp18
 70
     1
102
RTVSPropertyOp19
 70
     1
102
RTVSPropertyOp20
 70
     1
102
RTVSPropertyOp21
 70
     1
102
RTVSPropertyOp22
 70
     1
102
RTVSPropertyOp23
 70
     1
102
RTVSPropertyOp24
 70
     1
102
RTVSPropertyOp25
 70
     1
102
RTVSPropertyOp26
 70
     1
102
RTVSPropertyOp27
 70
     1
102
RTVSPropertyOp28
 70
     1
102
RTVSPropertyOp29
 70
     1
102
RTVSPropertyOp30
 70
     1
102
RTVSPropertyOp31
 70
     1
102
RTVSPropertyOp32
 70
     1
102
RTVSPropertyOp33
 70
     1
102
RTVSPropertyOp34
 70
     1
102
RTVSPropertyOp35
 70
     1
102
RTVSPropertyOp36
 70
     1
102
RTVSPropertyOp37
 70
     1
102
RTVSPropertyOp38
 70
     1
102
RTVSPropertyOp39
 70
     1
102
RTVSPropertyOp40
 70
     1
102
RTVSPropertyOp41
 70
     1
102
RTVSPropertyOp42
 70
     1
102
RTVSPropertyOp43
 70
     1
102
RTVSPropertyOp44
 70
     1
102
RTVSPropertyOp45
 70
     1
102
RTVSPropertyOp46
 70
     1
102
RTVSPropertyOp47
 70
     1
102
RTVSPropertyOp48
 70
     1
102
RTVSPropertyOp49
 70
     1
102
RTVSPropertyOp50
 70
     1
102
RTVSPropertyOp51
 70
     0
102
RTVSPropertyOp52
 70
     0
102
RTVSPropertyOp53
 70
     1
102
RTVSPropertyOp54
 70
     1
102
RTVSPropertyOp55
 70
     1
102
RTVSPropertyOp56
 70
     1
102
RTVSPropertyOp57
 70
     1
102
RTVSPropertyOp58
 70
     1
102
RTVSPropertyOp59
 70
     1
102
RTVSPropertyOp60
 70
     1
102
RTVSPropertyOp61
 70
     1
102
RTVSPropertyOp62
 70
     1
  0
XRECORD
  5
AB4
102
{ACAD_REACTORS
330
AB3
102
}
330
AB3
100
AcDbXrecord
280
     1
102
RTVSPost2010Prop28
280
     0
102
RTVSPost2010PropOp28
 70
     1
102
RTVSPost2010Prop29
280
     1
102
RTVSPost2010PropOp29
 70
     1
102
RTVSPost2010Prop30
280
     1
102
RTVSPost2010PropOp30
 70
     1
102
RTVSPost2010Prop31
280
     0
102
RTVSPost2010PropOp31
 70
     1
102
RTVSPost2010Prop32
280
     0
102
RTVSPost2010PropOp32
 70
     1
102
RTVSPost2010Prop33
280
     0
102
RTVSPost2010PropOp33
 70
     1
102
RTVSPost2010Prop34
280
     0
102
RTVSPost2010PropOp34
 70
     1
102
RTVSPost2010Prop35
280
     0
102
RTVSPost2010PropOp35
 70
     1
102
RTVSPost2010Prop36
280
     0
102
RTVSPost2010PropOp36
 70
     1
102
RTVSPost2010Prop37
 90
       50
102
RTVSPost2010PropOp37
 70
     1
102
RTVSPost2010Prop38
140
0.0
102
RTVSPost2010PropOp38
 70
     1
102
RTVSPost2010Prop39
140
1.0
102
RTVSPost2010PropOp39
 70
     1
102
RTVSPost2010Prop40
 90
        0
102
RTVSPost2010PropOp40
 70
     1
102
RTVSPost2010Prop41ColorIndex
 90
       18
102
RTVSPost2010Prop41ColorRGB
 90
        0
102
RTVSPost2010PropOp41
 70
     1
102
RTVSPost2010Prop42
 90
       50
102
RTVSPost2010PropOp42
 70
     1
102
RTVSPost2010Prop43
 90
        3
102
RTVSPost2010PropOp43
 70
     1
102
RTVSPost2010Prop44ColorIndex
 90
        5
102
RTVSPost2010Prop44ColorRGB
 90
      255
102
RTVSPost2010PropOp44
 70
     1
102
RTVSPost2010Prop45
280
     0
102
RTVSPost2010PropOp45
 70
     1
102
RTVSPost2010Prop46
 90
       50
102
RTVSPost2010PropOp46
 70
     1
102
RTVSPost2010Prop47
 90
       50
102
RTVSPost2010PropOp47
 70
     1
102
RTVSPost2010Prop48
 90
       50
102
RTVSPost2010PropOp48
 70
     1
102
RTVSPost2010Prop49
280
     0
102
RTVSPost2010PropOp49
 70
     1
102
RTVSPost2010Prop50
 90
       50
102
RTVSPost2010PropOp50
 70
     1
102
RTVSPost2010Prop51ColorIndex
 90
      256
102
RTVSPost2010Prop51ColorRGB
 90
-16777216
102
RTVSPost2010PropOp51
 70
     0
102
RTVSPost2010Prop52
140
1.0
102
RTVSPost2010PropOp52
 70
     0
102
RTVSPost2010Prop53
 90
        2
102
RTVSPost2010PropOp53
 70
     1
102
RTVSPost2010Prop54
  1
strokes_ogs.tif
102
RTVSPost2010PropOp54
 70
     1
102
RTVSPost2010Prop55
280
     0
102
RTVSPost2010PropOp55
 70
     1
102
RTVSPost2010Prop56
140
1.0
102
RTVSPost2010PropOp56
 70
     1
102
RTVSPost2010Prop57
140
1.0
102
RTVSPost2010PropOp57
 70
     1
102
RTVSPropertyOp0
 70
     1
102
RTVSPropertyOp1
 70
     1
102
RTVSPropertyOp2
 70
     1
102
RTVSPropertyOp3
 70
     1
102
RTVSPropertyOp4
 70
     1
102
RTVSPropertyOp5
 70
     1
102
RTVSPropertyOp6
 70
     1
102
RTVSPropertyOp7
 70
     1
102
RTVSPropertyOp8
 70
     1
102
RTVSPropertyOp9
 70
     1
102
RTVSPropertyOp10
 70
     1
102
RTVSPropertyOp11
 70
     1
102
RTVSPropertyOp12
 70
     1
102
RTVSPropertyOp13
 70
     1
102
RTVSPropertyOp14
 70
     1
102
RTVSPropertyOp15
 70
     1
102
RTVSPropertyOp16
 70
     1
102
RTVSPropertyOp17
 70
     1
102
RTVSPropertyOp18
 70
     1
102
RTVSPropertyOp19
 70
     1
102
RTVSPropertyOp20
 70
     1
102
RTVSPropertyOp21
 70
     1
102
RTVSPropertyOp22
 70
     1
102
RTVSPropertyOp23
 70
     1
102
RTVSPropertyOp24
 70
     1
102
RTVSPropertyOp25
 70
     1
102
RTVSPropertyOp26
 70
     1
102
RTVSPropertyOp27
 70
     1
102
RTVSPropertyOp28
 70
     1
102
RTVSPropertyOp29
 70
     1
102
RTVSPropertyOp30
 70
     1
102
RTVSPropertyOp31
 70
     1
102
RTVSPropertyOp32
 70
     1
102
RTVSPropertyOp33
 70
     1
102
RTVSPropertyOp34
 70
     1
102
RTVSPropertyOp35
 70
     1
102
RTVSPropertyOp36
 70
     1
102
RTVSPropertyOp37
 70
     1
102
RTVSPropertyOp38
 70
     1
102
RTVSPropertyOp39
 70
     1
102
RTVSPropertyOp40
 70
     1
102
RTVSPropertyOp41
 70
     1
102
RTVSPropertyOp42
 70
     1
102
RTVSPropertyOp43
 70
     1
102
RTVSPropertyOp44
 70
     1
102
RTVSPropertyOp45
 70
     1
102
RTVSPropertyOp46
 70
     1
102
RTVSPropertyOp47
 70
     1
102
RTVSPropertyOp48
 70
     1
102
RTVSPropertyOp49
 70
     1
102
RTVSPropertyOp50
 70
     1
102
RTVSPropertyOp51
 70
     0
102
RTVSPropertyOp52
 70
     0
102
RTVSPropertyOp53
 70
     1
102
RTVSPropertyOp54
 70
     1
102
RTVSPropertyOp55
 70
     1
102
RTVSPropertyOp56
 70
     1
102
RTVSPropertyOp57
 70
     1
102
RTVSPropertyOp58
 70
     1
102
RTVSPropertyOp59
 70
     1
102
RTVSPropertyOp60
 70
     1
102
RTVSPropertyOp61
 70
     1
102
RTVSPropertyOp62
 70
     1
  0
XRECORD
  5
ACE
102
{ACAD_REACTORS
330
ACD
102
}
330
ACD
100
AcDbXrecord
280
     1
102
RTVSPost2010Prop28
280
     0
102
RTVSPost2010PropOp28
 70
     1
102
RTVSPost2010Prop29
280
     1
102
RTVSPost2010PropOp29
 70
     1
102
RTVSPost2010Prop30
280
     1
102
RTVSPost2010PropOp30
 70
     1
102
RTVSPost2010Prop31
280
     0
102
RTVSPost2010PropOp31
 70
     1
102
RTVSPost2010Prop32
280
     0
102
RTVSPost2010PropOp32
 70
     1
102
RTVSPost2010Prop33
280
     0
102
RTVSPost2010PropOp33
 70
     1
102
RTVSPost2010Prop34
280
     0
102
RTVSPost2010PropOp34
 70
     1
102
RTVSPost2010Prop35
280
     0
102
RTVSPost2010PropOp35
 70
     1
102
RTVSPost2010Prop36
280
     0
102
RTVSPost2010PropOp36
 70
     1
102
RTVSPost2010Prop37
 90
       50
102
RTVSPost2010PropOp37
 70
     0
102
RTVSPost2010Prop38
140
0.0
102
RTVSPost2010PropOp38
 70
     0
102
RTVSPost2010Prop39
140
1.0
102
RTVSPost2010PropOp39
 70
     0
102
RTVSPost2010Prop40
 90
        0
102
RTVSPost2010PropOp40
 70
     0
102
RTVSPost2010Prop41ColorIndex
 90
       18
102
RTVSPost2010Prop41ColorRGB
 90
        0
102
RTVSPost2010PropOp41
 70
     0
102
RTVSPost2010Prop42
 90
       50
102
RTVSPost2010PropOp42
 70
     0
102
RTVSPost2010Prop43
 90
        3
102
RTVSPost2010PropOp43
 70
     0
102
RTVSPost2010Prop44ColorIndex
 90
        5
102
RTVSPost2010Prop44ColorRGB
 90
      255
102
RTVSPost2010PropOp44
 70
     0
102
RTVSPost2010Prop45
280
     0
102
RTVSPost2010PropOp45
 70
     1
102
RTVSPost2010Prop46
 90
       50
102
RTVSPost2010PropOp46
 70
     0
102
RTVSPost2010Prop47
 90
       50
102
RTVSPost2010PropOp47
 70
     0
102
RTVSPost2010Prop48
 90
       50
102
RTVSPost2010PropOp48
 70
     0
102
RTVSPost2010Prop49
280
     0
102
RTVSPost2010PropOp49
 70
     1
102
RTVSPost2010Prop50
 90
       50
102
RTVSPost2010PropOp50
 70
     0
102
RTVSPost2010Prop51ColorIndex
 90
      256
102
RTVSPost2010Prop51ColorRGB
 90
-16777216
102
RTVSPost2010PropOp51
 70
     0
102
RTVSPost2010Prop52
140
1.0
102
RTVSPost2010PropOp52
 70
     0
102
RTVSPost2010Prop53
 90
        2
102
RTVSPost2010PropOp53
 70
     0
102
RTVSPost2010Prop54
  1
strokes_ogs.tif
102
RTVSPost2010PropOp54
 70
     0
102
RTVSPost2010Prop55
280
     0
102
RTVSPost2010PropOp55
 70
     1
102
RTVSPost2010Prop56
140
1.0
102
RTVSPost2010PropOp56
 70
     0
102
RTVSPost2010Prop57
140
1.0
102
RTVSPost2010PropOp57
 70
     0
102
RTVSPropertyOp0
 70
     0
102
RTVSPropertyOp1
 70
     0
102
RTVSPropertyOp2
 70
     0
102
RTVSPropertyOp3
 70
     0
102
RTVSPropertyOp4
 70
     0
102
RTVSPropertyOp5
 70
     0
102
RTVSPropertyOp6
 70
     0
102
RTVSPropertyOp7
 70
     0
102
RTVSPropertyOp8
 70
     0
102
RTVSPropertyOp9
 70
     0
102
RTVSPropertyOp10
 70
     0
102
RTVSPropertyOp11
 70
     0
102
RTVSPropertyOp12
 70
     0
102
RTVSPropertyOp13
 70
     0
102
RTVSPropertyOp14
 70
     2
102
RTVSPropertyOp15
 70
     0
102
RTVSPropertyOp16
 70
     0
102
RTVSPropertyOp17
 70
     0
102
RTVSPropertyOp18
 70
     0
102
RTVSPropertyOp19
 70
     0
102
RTVSPropertyOp20
 70
     0
102
RTVSPropertyOp21
 70
     0
102
RTVSPropertyOp22
 70
     0
102
RTVSPropertyOp23
 70
     0
102
RTVSPropertyOp24
 70
     0
102
RTVSPropertyOp25
 70
     0
102
RTVSPropertyOp26
 70
     0
102
RTVSPropertyOp27
 70
     0
102
RTVSPropertyOp28
 70
     1
102
RTVSPropertyOp29
 70
     1
102
RTVSPropertyOp30
 70
     1
102
RTVSPropertyOp31
 70
     1
102
RTVSPropertyOp32
 70
     1
102
RTVSPropertyOp33
 70
     1
102
RTVSPropertyOp34
 70
     1
102
RTVSPropertyOp35
 70
     1
102
RTVSPropertyOp36
 70
     1
102
RTVSPropertyOp37
 70
     0
102
RTVSPropertyOp38
 70
     0
102
RTVSPropertyOp39
 70
     0
102
RTVSPropertyOp40
 70
     0
102
RTVSPropertyOp41
 70
     0
102
RTVSPropertyOp42
 70
     0
102
RTVSPropertyOp43
 70
     0
102
RTVSPropertyOp44
 70
     0
102
RTVSPropertyOp45
 70
     1
102
RTVSPropertyOp46
 70
     0
102
RTVSPropertyOp47
 70
     0
102
RTVSPropertyOp48
 70
     0
102
RTVSPropertyOp49
 70
     1
102
RTVSPropertyOp50
 70
     0
102
RTVSPropertyOp51
 70
     0
102
RTVSPropertyOp52
 70
     0
102
RTVSPropertyOp53
 70
     0
102
RTVSPropertyOp54
 70
     0
102
RTVSPropertyOp55
 70
     1
102
RTVSPropertyOp56
 70
     0
102
RTVSPropertyOp57
 70
     0
102
RTVSPropertyOp58
 70
     1
102
RTVSPropertyOp59
 70
     1
102
RTVSPropertyOp60
 70
     1
102
RTVSPropertyOp61
 70
     1
102
RTVSPropertyOp62
 70
     1
  0
XRECORD
  5
ABC
102
{ACAD_REACTORS
330
ABB
102
}
330
ABB
100
AcDbXrecord
280
     1
102
RTVSPost2010Prop28
280
     0
102
RTVSPost2010PropOp28
 70
     1
102
RTVSPost2010Prop29
280
     1
102
RTVSPost2010PropOp29
 70
     1
102
RTVSPost2010Prop30
280
     1
102
RTVSPost2010PropOp30
 70
     1
102
RTVSPost2010Prop31
280
     0
102
RTVSPost2010PropOp31
 70
     1
102
RTVSPost2010Prop32
280
     0
102
RTVSPost2010PropOp32
 70
     1
102
RTVSPost2010Prop33
280
     0
102
RTVSPost2010PropOp33
 70
     1
102
RTVSPost2010Prop34
280
     0
102
RTVSPost2010PropOp34
 70
     1
102
RTVSPost2010Prop35
280
     0
102
RTVSPost2010PropOp35
 70
     1
102
RTVSPost2010Prop36
280
     0
102
RTVSPost2010PropOp36
 70
     1
102
RTVSPost2010Prop37
 90
       50
102
RTVSPost2010PropOp37
 70
     1
102
RTVSPost2010Prop38
140
0.0
102
RTVSPost2010PropOp38
 70
     1
102
RTVSPost2010Prop39
140
1.0
102
RTVSPost2010PropOp39
 70
     1
102
RTVSPost2010Prop40
 90
        0
102
RTVSPost2010PropOp40
 70
     1
102
RTVSPost2010Prop41ColorIndex
 90
       18
102
RTVSPost2010Prop41ColorRGB
 90
        0
102
RTVSPost2010PropOp41
 70
     1
102
RTVSPost2010Prop42
 90
       50
102
RTVSPost2010PropOp42
 70
     1
102
RTVSPost2010Prop43
 90
        3
102
RTVSPost2010PropOp43
 70
     1
102
RTVSPost2010Prop44ColorIndex
 90
        5
102
RTVSPost2010Prop44ColorRGB
 90
      255
102
RTVSPost2010PropOp44
 70
     1
102
RTVSPost2010Prop45
280
     0
102
RTVSPost2010PropOp45
 70
     1
102
RTVSPost2010Prop46
 90
       50
102
RTVSPost2010PropOp46
 70
     1
102
RTVSPost2010Prop47
 90
       50
102
RTVSPost2010PropOp47
 70
     1
102
RTVSPost2010Prop48
 90
       50
102
RTVSPost2010PropOp48
 70
     1
102
RTVSPost2010Prop49
280
     0
102
RTVSPost2010PropOp49
 70
     1
102
RTVSPost2010Prop50
 90
       50
102
RTVSPost2010PropOp50
 70
     1
102
RTVSPost2010Prop51ColorIndex
 90
      256
102
RTVSPost2010Prop51ColorRGB
 90
-16777216
102
RTVSPost2010PropOp51
 70
     0
102
RTVSPost2010Prop52
140
1.0
102
RTVSPost2010PropOp52
 70
     0
102
RTVSPost2010Prop53
 90
        2
102
RTVSPost2010PropOp53
 70
     1
102
RTVSPost2010Prop54
  1
strokes_ogs.tif
102
RTVSPost2010PropOp54
 70
     1
102
RTVSPost2010Prop55
280
     0
102
RTVSPost2010PropOp55
 70
     1
102
RTVSPost2010Prop56
140
1.0
102
RTVSPost2010PropOp56
 70
     1
102
RTVSPost2010Prop57
140
1.0
102
RTVSPost2010PropOp57
 70
     1
102
RTVSPropertyOp0
 70
     1
102
RTVSPropertyOp1
 70
     1
102
RTVSPropertyOp2
 70
     1
102
RTVSPropertyOp3
 70
     1
102
RTVSPropertyOp4
 70
     1
102
RTVSPropertyOp5
 70
     1
102
RTVSPropertyOp6
 70
     1
102
RTVSPropertyOp7
 70
     1
102
RTVSPropertyOp8
 70
     1
102
RTVSPropertyOp9
 70
     1
102
RTVSPropertyOp10
 70
     1
102
RTVSPropertyOp11
 70
     1
102
RTVSPropertyOp12
 70
     1
102
RTVSPropertyOp13
 70
     1
102
RTVSPropertyOp14
 70
     1
102
RTVSPropertyOp15
 70
     1
102
RTVSPropertyOp16
 70
     1
102
RTVSPropertyOp17
 70
     1
102
RTVSPropertyOp18
 70
     1
102
RTVSPropertyOp19
 70
     1
102
RTVSPropertyOp20
 70
     1
102
RTVSPropertyOp21
 70
     1
102
RTVSPropertyOp22
 70
     1
102
RTVSPropertyOp23
 70
     1
102
RTVSPropertyOp24
 70
     1
102
RTVSPropertyOp25
 70
     1
102
RTVSPropertyOp26
 70
     1
102
RTVSPropertyOp27
 70
     1
102
RTVSPropertyOp28
 70
     1
102
RTVSPropertyOp29
 70
     1
102
RTVSPropertyOp30
 70
     1
102
RTVSPropertyOp31
 70
     1
102
RTVSPropertyOp32
 70
     1
102
RTVSPropertyOp33
 70
     1
102
RTVSPropertyOp34
 70
     1
102
RTVSPropertyOp35
 70
     1
102
RTVSPropertyOp36
 70
     1
102
RTVSPropertyOp37
 70
     1
102
RTVSPropertyOp38
 70
     1
102
RTVSPropertyOp39
 70
     1
102
RTVSPropertyOp40
 70
     1
102
RTVSPropertyOp41
 70
     1
102
RTVSPropertyOp42
 70
     1
102
RTVSPropertyOp43
 70
     1
102
RTVSPropertyOp44
 70
     1
102
RTVSPropertyOp45
 70
     1
102
RTVSPropertyOp46
 70
     1
102
RTVSPropertyOp47
 70
     1
102
RTVSPropertyOp48
 70
     1
102
RTVSPropertyOp49
 70
     1
102
RTVSPropertyOp50
 70
     1
102
RTVSPropertyOp51
 70
     0
102
RTVSPropertyOp52
 70
     0
102
RTVSPropertyOp53
 70
     1
102
RTVSPropertyOp54
 70
     1
102
RTVSPropertyOp55
 70
     1
102
RTVSPropertyOp56
 70
     1
102
RTVSPropertyOp57
 70
     1
102
RTVSPropertyOp58
 70
     1
102
RTVSPropertyOp59
 70
     1
102
RTVSPropertyOp60
 70
     1
102
RTVSPropertyOp61
 70
     1
102
RTVSPropertyOp62
 70
     1
  0
XRECORD
  5
AA0
102
{ACAD_REACTORS
330
A9F
102
}
330
A9F
100
AcDbXrecord
280
     1
102
RTVSPost2010Prop28
280
     0
102
RTVSPost2010PropOp28
 70
     1
102
RTVSPost2010Prop29
280
     1
102
RTVSPost2010PropOp29
 70
     1
102
RTVSPost2010Prop30
280
     1
102
RTVSPost2010PropOp30
 70
     1
102
RTVSPost2010Prop31
280
     0
102
RTVSPost2010PropOp31
 70
     1
102
RTVSPost2010Prop32
280
     0
102
RTVSPost2010PropOp32
 70
     1
102
RTVSPost2010Prop33
280
     0
102
RTVSPost2010PropOp33
 70
     1
102
RTVSPost2010Prop34
280
     0
102
RTVSPost2010PropOp34
 70
     1
102
RTVSPost2010Prop35
280
     0
102
RTVSPost2010PropOp35
 70
     1
102
RTVSPost2010Prop36
280
     0
102
RTVSPost2010PropOp36
 70
     1
102
RTVSPost2010Prop37
 90
       50
102
RTVSPost2010PropOp37
 70
     1
102
RTVSPost2010Prop38
140
0.0
102
RTVSPost2010PropOp38
 70
     1
102
RTVSPost2010Prop39
140
1.0
102
RTVSPost2010PropOp39
 70
     1
102
RTVSPost2010Prop40
 90
        0
102
RTVSPost2010PropOp40
 70
     1
102
RTVSPost2010Prop41ColorIndex
 90
       18
102
RTVSPost2010Prop41ColorRGB
 90
        0
102
RTVSPost2010PropOp41
 70
     1
102
RTVSPost2010Prop42
 90
       50
102
RTVSPost2010PropOp42
 70
     1
102
RTVSPost2010Prop43
 90
        3
102
RTVSPost2010PropOp43
 70
     1
102
RTVSPost2010Prop44ColorIndex
 90
        5
102
RTVSPost2010Prop44ColorRGB
 90
      255
102
RTVSPost2010PropOp44
 70
     1
102
RTVSPost2010Prop45
280
     0
102
RTVSPost2010PropOp45
 70
     1
102
RTVSPost2010Prop46
 90
       50
102
RTVSPost2010PropOp46
 70
     1
102
RTVSPost2010Prop47
 90
       50
102
RTVSPost2010PropOp47
 70
     1
102
RTVSPost2010Prop48
 90
       50
102
RTVSPost2010PropOp48
 70
     1
102
RTVSPost2010Prop49
280
     0
102
RTVSPost2010PropOp49
 70
     1
102
RTVSPost2010Prop50
 90
       50
102
RTVSPost2010PropOp50
 70
     1
102
RTVSPost2010Prop51ColorIndex
 90
      256
102
RTVSPost2010Prop51ColorRGB
 90
-16777216
102
RTVSPost2010PropOp51
 70
     0
102
RTVSPost2010Prop52
140
1.0
102
RTVSPost2010PropOp52
 70
     0
102
RTVSPost2010Prop53
 90
        2
102
RTVSPost2010PropOp53
 70
     1
102
RTVSPost2010Prop54
  1
strokes_ogs.tif
102
RTVSPost2010PropOp54
 70
     1
102
RTVSPost2010Prop55
280
     0
102
RTVSPost2010PropOp55
 70
     1
102
RTVSPost2010Prop56
140
1.0
102
RTVSPost2010PropOp56
 70
     1
102
RTVSPost2010Prop57
140
1.0
102
RTVSPost2010PropOp57
 70
     1
102
RTVSPropertyOp0
 70
     1
102
RTVSPropertyOp1
 70
     1
102
RTVSPropertyOp2
 70
     1
102
RTVSPropertyOp3
 70
     1
102
RTVSPropertyOp4
 70
     1
102
RTVSPropertyOp5
 70
     1
102
RTVSPropertyOp6
 70
     1
102
RTVSPropertyOp7
 70
     1
102
RTVSPropertyOp8
 70
     1
102
RTVSPropertyOp9
 70
     1
102
RTVSPropertyOp10
 70
     1
102
RTVSPropertyOp11
 70
     1
102
RTVSPropertyOp12
 70
     1
102
RTVSPropertyOp13
 70
     1
102
RTVSPropertyOp14
 70
     1
102
RTVSPropertyOp15
 70
     1
102
RTVSPropertyOp16
 70
     1
102
RTVSPropertyOp17
 70
     1
102
RTVSPropertyOp18
 70
     1
102
RTVSPropertyOp19
 70
     1
102
RTVSPropertyOp20
 70
     1
102
RTVSPropertyOp21
 70
     1
102
RTVSPropertyOp22
 70
     1
102
RTVSPropertyOp23
 70
     1
102
RTVSPropertyOp24
 70
     1
102
RTVSPropertyOp25
 70
     1
102
RTVSPropertyOp26
 70
     1
102
RTVSPropertyOp27
 70
     1
102
RTVSPropertyOp28
 70
     1
102
RTVSPropertyOp29
 70
     1
102
RTVSPropertyOp30
 70
     1
102
RTVSPropertyOp31
 70
     1
102
RTVSPropertyOp32
 70
     1
102
RTVSPropertyOp33
 70
     1
102
RTVSPropertyOp34
 70
     1
102
RTVSPropertyOp35
 70
     1
102
RTVSPropertyOp36
 70
     1
102
RTVSPropertyOp37
 70
     1
102
RTVSPropertyOp38
 70
     1
102
RTVSPropertyOp39
 70
     1
102
RTVSPropertyOp40
 70
     1
102
RTVSPropertyOp41
 70
     1
102
RTVSPropertyOp42
 70
     1
102
RTVSPropertyOp43
 70
     1
102
RTVSPropertyOp44
 70
     1
102
RTVSPropertyOp45
 70
     1
102
RTVSPropertyOp46
 70
     1
102
RTVSPropertyOp47
 70
     1
102
RTVSPropertyOp48
 70
     1
102
RTVSPropertyOp49
 70
     1
102
RTVSPropertyOp50
 70
     1
102
RTVSPropertyOp51
 70
     0
102
RTVSPropertyOp52
 70
     0
102
RTVSPropertyOp53
 70
     1
102
RTVSPropertyOp54
 70
     1
102
RTVSPropertyOp55
 70
     1
102
RTVSPropertyOp56
 70
     1
102
RTVSPropertyOp57
 70
     1
102
RTVSPropertyOp58
 70
     1
102
RTVSPropertyOp59
 70
     1
102
RTVSPropertyOp60
 70
     1
102
RTVSPropertyOp61
 70
     1
102
RTVSPropertyOp62
 70
     1
  0
XRECORD
  5
AA2
102
{ACAD_REACTORS
330
AA1
102
}
330
AA1
100
AcDbXrecord
280
     1
102
RTVSPost2010Prop28
280
     0
102
RTVSPost2010PropOp28
 70
     1
102
RTVSPost2010Prop29
280
     1
102
RTVSPost2010PropOp29
 70
     1
102
RTVSPost2010Prop30
280
     1
102
RTVSPost2010PropOp30
 70
     1
102
RTVSPost2010Prop31
280
     0
102
RTVSPost2010PropOp31
 70
     1
102
RTVSPost2010Prop32
280
     0
102
RTVSPost2010PropOp32
 70
     1
102
RTVSPost2010Prop33
280
     0
102
RTVSPost2010PropOp33
 70
     1
102
RTVSPost2010Prop34
280
     0
102
RTVSPost2010PropOp34
 70
     1
102
RTVSPost2010Prop35
280
     0
102
RTVSPost2010PropOp35
 70
     1
102
RTVSPost2010Prop36
280
     0
102
RTVSPost2010PropOp36
 70
     1
102
RTVSPost2010Prop37
 90
       50
102
RTVSPost2010PropOp37
 70
     1
102
RTVSPost2010Prop38
140
0.0
102
RTVSPost2010PropOp38
 70
     1
102
RTVSPost2010Prop39
140
1.0
102
RTVSPost2010PropOp39
 70
     1
102
RTVSPost2010Prop40
 90
        0
102
RTVSPost2010PropOp40
 70
     1
102
RTVSPost2010Prop41ColorIndex
 90
       18
102
RTVSPost2010Prop41ColorRGB
 90
        0
102
RTVSPost2010PropOp41
 70
     1
102
RTVSPost2010Prop42
 90
       50
102
RTVSPost2010PropOp42
 70
     1
102
RTVSPost2010Prop43
 90
        3
102
RTVSPost2010PropOp43
 70
     1
102
RTVSPost2010Prop44ColorIndex
 90
        5
102
RTVSPost2010Prop44ColorRGB
 90
      255
102
RTVSPost2010PropOp44
 70
     1
102
RTVSPost2010Prop45
280
     0
102
RTVSPost2010PropOp45
 70
     1
102
RTVSPost2010Prop46
 90
       50
102
RTVSPost2010PropOp46
 70
     1
102
RTVSPost2010Prop47
 90
       50
102
RTVSPost2010PropOp47
 70
     1
102
RTVSPost2010Prop48
 90
       50
102
RTVSPost2010PropOp48
 70
     1
102
RTVSPost2010Prop49
280
     0
102
RTVSPost2010PropOp49
 70
     1
102
RTVSPost2010Prop50
 90
       50
102
RTVSPost2010PropOp50
 70
     1
102
RTVSPost2010Prop51ColorIndex
 90
      256
102
RTVSPost2010Prop51ColorRGB
 90
-16777216
102
RTVSPost2010PropOp51
 70
     0
102
RTVSPost2010Prop52
140
1.0
102
RTVSPost2010PropOp52
 70
     0
102
RTVSPost2010Prop53
 90
        2
102
RTVSPost2010PropOp53
 70
     1
102
RTVSPost2010Prop54
  1
strokes_ogs.tif
102
RTVSPost2010PropOp54
 70
     1
102
RTVSPost2010Prop55
280
     0
102
RTVSPost2010PropOp55
 70
     1
102
RTVSPost2010Prop56
140
1.0
102
RTVSPost2010PropOp56
 70
     1
102
RTVSPost2010Prop57
140
1.0
102
RTVSPost2010PropOp57
 70
     1
102
RTVSPropertyOp0
 70
     1
102
RTVSPropertyOp1
 70
     1
102
RTVSPropertyOp2
 70
     1
102
RTVSPropertyOp3
 70
     1
102
RTVSPropertyOp4
 70
     1
102
RTVSPropertyOp5
 70
     1
102
RTVSPropertyOp6
 70
     1
102
RTVSPropertyOp7
 70
     1
102
RTVSPropertyOp8
 70
     1
102
RTVSPropertyOp9
 70
     1
102
RTVSPropertyOp10
 70
     1
102
RTVSPropertyOp11
 70
     1
102
RTVSPropertyOp12
 70
     1
102
RTVSPropertyOp13
 70
     1
102
RTVSPropertyOp14
 70
     1
102
RTVSPropertyOp15
 70
     1
102
RTVSPropertyOp16
 70
     1
102
RTVSPropertyOp17
 70
     1
102
RTVSPropertyOp18
 70
     1
102
RTVSPropertyOp19
 70
     1
102
RTVSPropertyOp20
 70
     1
102
RTVSPropertyOp21
 70
     1
102
RTVSPropertyOp22
 70
     1
102
RTVSPropertyOp23
 70
     1
102
RTVSPropertyOp24
 70
     1
102
RTVSPropertyOp25
 70
     1
102
RTVSPropertyOp26
 70
     1
102
RTVSPropertyOp27
 70
     1
102
RTVSPropertyOp28
 70
     1
102
RTVSPropertyOp29
 70
     1
102
RTVSPropertyOp30
 70
     1
102
RTVSPropertyOp31
 70
     1
102
RTVSPropertyOp32
 70
     1
102
RTVSPropertyOp33
 70
     1
102
RTVSPropertyOp34
 70
     1
102
RTVSPropertyOp35
 70
     1
102
RTVSPropertyOp36
 70
     1
102
RTVSPropertyOp37
 70
     1
102
RTVSPropertyOp38
 70
     1
102
RTVSPropertyOp39
 70
     1
102
RTVSPropertyOp40
 70
     1
102
RTVSPropertyOp41
 70
     1
102
RTVSPropertyOp42
 70
     1
102
RTVSPropertyOp43
 70
     1
102
RTVSPropertyOp44
 70
     1
102
RTVSPropertyOp45
 70
     1
102
RTVSPropertyOp46
 70
     1
102
RTVSPropertyOp47
 70
     1
102
RTVSPropertyOp48
 70
     1
102
RTVSPropertyOp49
 70
     1
102
RTVSPropertyOp50
 70
     1
102
RTVSPropertyOp51
 70
     0
102
RTVSPropertyOp52
 70
     0
102
RTVSPropertyOp53
 70
     1
102
RTVSPropertyOp54
 70
     1
102
RTVSPropertyOp55
 70
     1
102
RTVSPropertyOp56
 70
     1
102
RTVSPropertyOp57
 70
     1
102
RTVSPropertyOp58
 70
     1
102
RTVSPropertyOp59
 70
     1
102
RTVSPropertyOp60
 70
     1
102
RTVSPropertyOp61
 70
     1
102
RTVSPropertyOp62
 70
     1
  0
XRECORD
  5
AA4
102
{ACAD_REACTORS
330
AA3
102
}
330
AA3
100
AcDbXrecord
280
     1
102
RTVSPost2010Prop28
280
     0
102
RTVSPost2010PropOp28
 70
     1
102
RTVSPost2010Prop29
280
     1
102
RTVSPost2010PropOp29
 70
     1
102
RTVSPost2010Prop30
280
     1
102
RTVSPost2010PropOp30
 70
     1
102
RTVSPost2010Prop31
280
     0
102
RTVSPost2010PropOp31
 70
     1
102
RTVSPost2010Prop32
280
     0
102
RTVSPost2010PropOp32
 70
     1
102
RTVSPost2010Prop33
280
     0
102
RTVSPost2010PropOp33
 70
     1
102
RTVSPost2010Prop34
280
     0
102
RTVSPost2010PropOp34
 70
     1
102
RTVSPost2010Prop35
280
     0
102
RTVSPost2010PropOp35
 70
     1
102
RTVSPost2010Prop36
280
     0
102
RTVSPost2010PropOp36
 70
     1
102
RTVSPost2010Prop37
 90
       50
102
RTVSPost2010PropOp37
 70
     1
102
RTVSPost2010Prop38
140
0.0
102
RTVSPost2010PropOp38
 70
     1
102
RTVSPost2010Prop39
140
1.0
102
RTVSPost2010PropOp39
 70
     1
102
RTVSPost2010Prop40
 90
        0
102
RTVSPost2010PropOp40
 70
     1
102
RTVSPost2010Prop41ColorIndex
 90
       18
102
RTVSPost2010Prop41ColorRGB
 90
        0
102
RTVSPost2010PropOp41
 70
     1
102
RTVSPost2010Prop42
 90
       50
102
RTVSPost2010PropOp42
 70
     1
102
RTVSPost2010Prop43
 90
        3
102
RTVSPost2010PropOp43
 70
     1
102
RTVSPost2010Prop44ColorIndex
 90
        5
102
RTVSPost2010Prop44ColorRGB
 90
      255
102
RTVSPost2010PropOp44
 70
     1
102
RTVSPost2010Prop45
280
     0
102
RTVSPost2010PropOp45
 70
     1
102
RTVSPost2010Prop46
 90
       50
102
RTVSPost2010PropOp46
 70
     1
102
RTVSPost2010Prop47
 90
       50
102
RTVSPost2010PropOp47
 70
     1
102
RTVSPost2010Prop48
 90
       50
102
RTVSPost2010PropOp48
 70
     1
102
RTVSPost2010Prop49
280
     0
102
RTVSPost2010PropOp49
 70
     1
102
RTVSPost2010Prop50
 90
       50
102
RTVSPost2010PropOp50
 70
     1
102
RTVSPost2010Prop51ColorIndex
 90
      256
102
RTVSPost2010Prop51ColorRGB
 90
-16777216
102
RTVSPost2010PropOp51
 70
     0
102
RTVSPost2010Prop52
140
1.0
102
RTVSPost2010PropOp52
 70
     0
102
RTVSPost2010Prop53
 90
        2
102
RTVSPost2010PropOp53
 70
     1
102
RTVSPost2010Prop54
  1
strokes_ogs.tif
102
RTVSPost2010PropOp54
 70
     1
102
RTVSPost2010Prop55
280
     0
102
RTVSPost2010PropOp55
 70
     1
102
RTVSPost2010Prop56
140
1.0
102
RTVSPost2010PropOp56
 70
     1
102
RTVSPost2010Prop57
140
1.0
102
RTVSPost2010PropOp57
 70
     1
102
RTVSPropertyOp0
 70
     1
102
RTVSPropertyOp1
 70
     1
102
RTVSPropertyOp2
 70
     1
102
RTVSPropertyOp3
 70
     1
102
RTVSPropertyOp4
 70
     1
102
RTVSPropertyOp5
 70
     1
102
RTVSPropertyOp6
 70
     1
102
RTVSPropertyOp7
 70
     1
102
RTVSPropertyOp8
 70
     1
102
RTVSPropertyOp9
 70
     1
102
RTVSPropertyOp10
 70
     1
102
RTVSPropertyOp11
 70
     1
102
RTVSPropertyOp12
 70
     1
102
RTVSPropertyOp13
 70
     1
102
RTVSPropertyOp14
 70
     1
102
RTVSPropertyOp15
 70
     1
102
RTVSPropertyOp16
 70
     1
102
RTVSPropertyOp17
 70
     1
102
RTVSPropertyOp18
 70
     1
102
RTVSPropertyOp19
 70
     1
102
RTVSPropertyOp20
 70
     1
102
RTVSPropertyOp21
 70
     1
102
RTVSPropertyOp22
 70
     1
102
RTVSPropertyOp23
 70
     1
102
RTVSPropertyOp24
 70
     1
102
RTVSPropertyOp25
 70
     1
102
RTVSPropertyOp26
 70
     1
102
RTVSPropertyOp27
 70
     1
102
RTVSPropertyOp28
 70
     1
102
RTVSPropertyOp29
 70
     1
102
RTVSPropertyOp30
 70
     1
102
RTVSPropertyOp31
 70
     1
102
RTVSPropertyOp32
 70
     1
102
RTVSPropertyOp33
 70
     1
102
RTVSPropertyOp34
 70
     1
102
RTVSPropertyOp35
 70
     1
102
RTVSPropertyOp36
 70
     1
102
RTVSPropertyOp37
 70
     1
102
RTVSPropertyOp38
 70
     1
102
RTVSPropertyOp39
 70
     1
102
RTVSPropertyOp40
 70
     1
102
RTVSPropertyOp41
 70
     1
102
RTVSPropertyOp42
 70
     1
102
RTVSPropertyOp43
 70
     1
102
RTVSPropertyOp44
 70
     1
102
RTVSPropertyOp45
 70
     1
102
RTVSPropertyOp46
 70
     1
102
RTVSPropertyOp47
 70
     1
102
RTVSPropertyOp48
 70
     1
102
RTVSPropertyOp49
 70
     1
102
RTVSPropertyOp50
 70
     1
102
RTVSPropertyOp51
 70
     0
102
RTVSPropertyOp52
 70
     0
102
RTVSPropertyOp53
 70
     1
102
RTVSPropertyOp54
 70
     1
102
RTVSPropertyOp55
 70
     1
102
RTVSPropertyOp56
 70
     1
102
RTVSPropertyOp57
 70
     1
102
RTVSPropertyOp58
 70
     1
102
RTVSPropertyOp59
 70
     1
102
RTVSPropertyOp60
 70
     1
102
RTVSPropertyOp61
 70
     1
102
RTVSPropertyOp62
 70
     1
  0
XRECORD
  5
AA6
102
{ACAD_REACTORS
330
AA5
102
}
330
AA5
100
AcDbXrecord
280
     1
102
RTVSPost2010Prop28
280
     0
102
RTVSPost2010PropOp28
 70
     1
102
RTVSPost2010Prop29
280
     1
102
RTVSPost2010PropOp29
 70
     1
102
RTVSPost2010Prop30
280
     1
102
RTVSPost2010PropOp30
 70
     1
102
RTVSPost2010Prop31
280
     0
102
RTVSPost2010PropOp31
 70
     1
102
RTVSPost2010Prop32
280
     0
102
RTVSPost2010PropOp32
 70
     1
102
RTVSPost2010Prop33
280
     0
102
RTVSPost2010PropOp33
 70
     1
102
RTVSPost2010Prop34
280
     0
102
RTVSPost2010PropOp34
 70
     1
102
RTVSPost2010Prop35
280
     0
102
RTVSPost2010PropOp35
 70
     1
102
RTVSPost2010Prop36
280
     0
102
RTVSPost2010PropOp36
 70
     1
102
RTVSPost2010Prop37
 90
       50
102
RTVSPost2010PropOp37
 70
     1
102
RTVSPost2010Prop38
140
0.0
102
RTVSPost2010PropOp38
 70
     1
102
RTVSPost2010Prop39
140
1.0
102
RTVSPost2010PropOp39
 70
     1
102
RTVSPost2010Prop40
 90
        0
102
RTVSPost2010PropOp40
 70
     1
102
RTVSPost2010Prop41ColorIndex
 90
       18
102
RTVSPost2010Prop41ColorRGB
 90
        0
102
RTVSPost2010PropOp41
 70
     1
102
RTVSPost2010Prop42
 90
       50
102
RTVSPost2010PropOp42
 70
     1
102
RTVSPost2010Prop43
 90
        3
102
RTVSPost2010PropOp43
 70
     1
102
RTVSPost2010Prop44ColorIndex
 90
        5
102
RTVSPost2010Prop44ColorRGB
 90
      255
102
RTVSPost2010PropOp44
 70
     1
102
RTVSPost2010Prop45
280
     0
102
RTVSPost2010PropOp45
 70
     1
102
RTVSPost2010Prop46
 90
       50
102
RTVSPost2010PropOp46
 70
     1
102
RTVSPost2010Prop47
 90
       50
102
RTVSPost2010PropOp47
 70
     1
102
RTVSPost2010Prop48
 90
       50
102
RTVSPost2010PropOp48
 70
     1
102
RTVSPost2010Prop49
280
     0
102
RTVSPost2010PropOp49
 70
     1
102
RTVSPost2010Prop50
 90
       50
102
RTVSPost2010PropOp50
 70
     1
102
RTVSPost2010Prop51ColorIndex
 90
      256
102
RTVSPost2010Prop51ColorRGB
 90
-16777216
102
RTVSPost2010PropOp51
 70
     0
102
RTVSPost2010Prop52
140
1.0
102
RTVSPost2010PropOp52
 70
     0
102
RTVSPost2010Prop53
 90
        2
102
RTVSPost2010PropOp53
 70
     1
102
RTVSPost2010Prop54
  1
strokes_ogs.tif
102
RTVSPost2010PropOp54
 70
     1
102
RTVSPost2010Prop55
280
     0
102
RTVSPost2010PropOp55
 70
     1
102
RTVSPost2010Prop56
140
1.0
102
RTVSPost2010PropOp56
 70
     1
102
RTVSPost2010Prop57
140
1.0
102
RTVSPost2010PropOp57
 70
     1
102
RTVSPropertyOp0
 70
     1
102
RTVSPropertyOp1
 70
     1
102
RTVSPropertyOp2
 70
     1
102
RTVSPropertyOp3
 70
     1
102
RTVSPropertyOp4
 70
     1
102
RTVSPropertyOp5
 70
     1
102
RTVSPropertyOp6
 70
     1
102
RTVSPropertyOp7
 70
     1
102
RTVSPropertyOp8
 70
     1
102
RTVSPropertyOp9
 70
     1
102
RTVSPropertyOp10
 70
     1
102
RTVSPropertyOp11
 70
     1
102
RTVSPropertyOp12
 70
     1
102
RTVSPropertyOp13
 70
     1
102
RTVSPropertyOp14
 70
     1
102
RTVSPropertyOp15
 70
     1
102
RTVSPropertyOp16
 70
     1
102
RTVSPropertyOp17
 70
     1
102
RTVSPropertyOp18
 70
     1
102
RTVSPropertyOp19
 70
     1
102
RTVSPropertyOp20
 70
     1
102
RTVSPropertyOp21
 70
     1
102
RTVSPropertyOp22
 70
     1
102
RTVSPropertyOp23
 70
     1
102
RTVSPropertyOp24
 70
     1
102
RTVSPropertyOp25
 70
     1
102
RTVSPropertyOp26
 70
     1
102
RTVSPropertyOp27
 70
     1
102
RTVSPropertyOp28
 70
     1
102
RTVSPropertyOp29
 70
     1
102
RTVSPropertyOp30
 70
     1
102
RTVSPropertyOp31
 70
     1
102
RTVSPropertyOp32
 70
     1
102
RTVSPropertyOp33
 70
     1
102
RTVSPropertyOp34
 70
     1
102
RTVSPropertyOp35
 70
     1
102
RTVSPropertyOp36
 70
     1
102
RTVSPropertyOp37
 70
     1
102
RTVSPropertyOp38
 70
     1
102
RTVSPropertyOp39
 70
     1
102
RTVSPropertyOp40
 70
     1
102
RTVSPropertyOp41
 70
     1
102
RTVSPropertyOp42
 70
     1
102
RTVSPropertyOp43
 70
     1
102
RTVSPropertyOp44
 70
     1
102
RTVSPropertyOp45
 70
     1
102
RTVSPropertyOp46
 70
     1
102
RTVSPropertyOp47
 70
     1
102
RTVSPropertyOp48
 70
     1
102
RTVSPropertyOp49
 70
     1
102
RTVSPropertyOp50
 70
     1
102
RTVSPropertyOp51
 70
     0
102
RTVSPropertyOp52
 70
     0
102
RTVSPropertyOp53
 70
     1
102
RTVSPropertyOp54
 70
     1
102
RTVSPropertyOp55
 70
     1
102
RTVSPropertyOp56
 70
     1
102
RTVSPropertyOp57
 70
     1
102
RTVSPropertyOp58
 70
     1
102
RTVSPropertyOp59
 70
     1
102
RTVSPropertyOp60
 70
     1
102
RTVSPropertyOp61
 70
     1
102
RTVSPropertyOp62
 70
     1
  0
XRECORD
  5
AAE
102
{ACAD_REACTORS
330
AAD
102
}
330
AAD
100
AcDbXrecord
280
     1
102
RTVSPost2010Prop28
280
     0
102
RTVSPost2010PropOp28
 70
     1
102
RTVSPost2010Prop29
280
     1
102
RTVSPost2010PropOp29
 70
     1
102
RTVSPost2010Prop30
280
     1
102
RTVSPost2010PropOp30
 70
     1
102
RTVSPost2010Prop31
280
     0
102
RTVSPost2010PropOp31
 70
     1
102
RTVSPost2010Prop32
280
     0
102
RTVSPost2010PropOp32
 70
     1
102
RTVSPost2010Prop33
280
     0
102
RTVSPost2010PropOp33
 70
     1
102
RTVSPost2010Prop34
280
     0
102
RTVSPost2010PropOp34
 70
     1
102
RTVSPost2010Prop35
280
     0
102
RTVSPost2010PropOp35
 70
     1
102
RTVSPost2010Prop36
280
     0
102
RTVSPost2010PropOp36
 70
     1
102
RTVSPost2010Prop37
 90
       50
102
RTVSPost2010PropOp37
 70
     1
102
RTVSPost2010Prop38
140
0.0
102
RTVSPost2010PropOp38
 70
     1
102
RTVSPost2010Prop39
140
1.0
102
RTVSPost2010PropOp39
 70
     1
102
RTVSPost2010Prop40
 90
        0
102
RTVSPost2010PropOp40
 70
     1
102
RTVSPost2010Prop41ColorIndex
 90
       18
102
RTVSPost2010Prop41ColorRGB
 90
        0
102
RTVSPost2010PropOp41
 70
     1
102
RTVSPost2010Prop42
 90
       50
102
RTVSPost2010PropOp42
 70
     1
102
RTVSPost2010Prop43
 90
        3
102
RTVSPost2010PropOp43
 70
     1
102
RTVSPost2010Prop44ColorIndex
 90
        5
102
RTVSPost2010Prop44ColorRGB
 90
      255
102
RTVSPost2010PropOp44
 70
     1
102
RTVSPost2010Prop45
280
     0
102
RTVSPost2010PropOp45
 70
     1
102
RTVSPost2010Prop46
 90
       50
102
RTVSPost2010PropOp46
 70
     1
102
RTVSPost2010Prop47
 90
       50
102
RTVSPost2010PropOp47
 70
     1
102
RTVSPost2010Prop48
 90
       50
102
RTVSPost2010PropOp48
 70
     1
102
RTVSPost2010Prop49
280
     0
102
RTVSPost2010PropOp49
 70
     1
102
RTVSPost2010Prop50
 90
       50
102
RTVSPost2010PropOp50
 70
     1
102
RTVSPost2010Prop51ColorIndex
 90
      256
102
RTVSPost2010Prop51ColorRGB
 90
-16777216
102
RTVSPost2010PropOp51
 70
     0
102
RTVSPost2010Prop52
140
1.0
102
RTVSPost2010PropOp52
 70
     0
102
RTVSPost2010Prop53
 90
        2
102
RTVSPost2010PropOp53
 70
     1
102
RTVSPost2010Prop54
  1
strokes_ogs.tif
102
RTVSPost2010PropOp54
 70
     1
102
RTVSPost2010Prop55
280
     0
102
RTVSPost2010PropOp55
 70
     1
102
RTVSPost2010Prop56
140
1.0
102
RTVSPost2010PropOp56
 70
     1
102
RTVSPost2010Prop57
140
1.0
102
RTVSPost2010PropOp57
 70
     1
102
RTVSPropertyOp0
 70
     1
102
RTVSPropertyOp1
 70
     1
102
RTVSPropertyOp2
 70
     1
102
RTVSPropertyOp3
 70
     1
102
RTVSPropertyOp4
 70
     1
102
RTVSPropertyOp5
 70
     1
102
RTVSPropertyOp6
 70
     1
102
RTVSPropertyOp7
 70
     1
102
RTVSPropertyOp8
 70
     1
102
RTVSPropertyOp9
 70
     1
102
RTVSPropertyOp10
 70
     1
102
RTVSPropertyOp11
 70
     1
102
RTVSPropertyOp12
 70
     1
102
RTVSPropertyOp13
 70
     1
102
RTVSPropertyOp14
 70
     1
102
RTVSPropertyOp15
 70
     1
102
RTVSPropertyOp16
 70
     1
102
RTVSPropertyOp17
 70
     1
102
RTVSPropertyOp18
 70
     1
102
RTVSPropertyOp19
 70
     1
102
RTVSPropertyOp20
 70
     1
102
RTVSPropertyOp21
 70
     1
102
RTVSPropertyOp22
 70
     1
102
RTVSPropertyOp23
 70
     1
102
RTVSPropertyOp24
 70
     1
102
RTVSPropertyOp25
 70
     1
102
RTVSPropertyOp26
 70
     1
102
RTVSPropertyOp27
 70
     1
102
RTVSPropertyOp28
 70
     1
102
RTVSPropertyOp29
 70
     1
102
RTVSPropertyOp30
 70
     1
102
RTVSPropertyOp31
 70
     1
102
RTVSPropertyOp32
 70
     1
102
RTVSPropertyOp33
 70
     1
102
RTVSPropertyOp34
 70
     1
102
RTVSPropertyOp35
 70
     1
102
RTVSPropertyOp36
 70
     1
102
RTVSPropertyOp37
 70
     1
102
RTVSPropertyOp38
 70
     1
102
RTVSPropertyOp39
 70
     1
102
RTVSPropertyOp40
 70
     1
102
RTVSPropertyOp41
 70
     1
102
RTVSPropertyOp42
 70
     1
102
RTVSPropertyOp43
 70
     1
102
RTVSPropertyOp44
 70
     1
102
RTVSPropertyOp45
 70
     1
102
RTVSPropertyOp46
 70
     1
102
RTVSPropertyOp47
 70
     1
102
RTVSPropertyOp48
 70
     1
102
RTVSPropertyOp49
 70
     1
102
RTVSPropertyOp50
 70
     1
102
RTVSPropertyOp51
 70
     0
102
RTVSPropertyOp52
 70
     0
102
RTVSPropertyOp53
 70
     1
102
RTVSPropertyOp54
 70
     1
102
RTVSPropertyOp55
 70
     1
102
RTVSPropertyOp56
 70
     1
102
RTVSPropertyOp57
 70
     1
102
RTVSPropertyOp58
 70
     1
102
RTVSPropertyOp59
 70
     1
102
RTVSPropertyOp60
 70
     1
102
RTVSPropertyOp61
 70
     1
102
RTVSPropertyOp62
 70
     1
  0
XRECORD
  5
ACA
102
{ACAD_REACTORS
330
AC9
102
}
330
AC9
100
AcDbXrecord
280
     1
102
RTVSPost2010Prop28
280
     0
102
RTVSPost2010PropOp28
 70
     1
102
RTVSPost2010Prop29
280
     1
102
RTVSPost2010PropOp29
 70
     1
102
RTVSPost2010Prop30
280
     1
102
RTVSPost2010PropOp30
 70
     1
102
RTVSPost2010Prop31
280
     0
102
RTVSPost2010PropOp31
 70
     1
102
RTVSPost2010Prop32
280
     0
102
RTVSPost2010PropOp32
 70
     1
102
RTVSPost2010Prop33
280
     0
102
RTVSPost2010PropOp33
 70
     1
102
RTVSPost2010Prop34
280
     0
102
RTVSPost2010PropOp34
 70
     1
102
RTVSPost2010Prop35
280
     0
102
RTVSPost2010PropOp35
 70
     1
102
RTVSPost2010Prop36
280
     0
102
RTVSPost2010PropOp36
 70
     1
102
RTVSPost2010Prop37
 90
       50
102
RTVSPost2010PropOp37
 70
     0
102
RTVSPost2010Prop38
140
0.0
102
RTVSPost2010PropOp38
 70
     0
102
RTVSPost2010Prop39
140
1.0
102
RTVSPost2010PropOp39
 70
     0
102
RTVSPost2010Prop40
 90
        0
102
RTVSPost2010PropOp40
 70
     0
102
RTVSPost2010Prop41ColorIndex
 90
       18
102
RTVSPost2010Prop41ColorRGB
 90
        0
102
RTVSPost2010PropOp41
 70
     0
102
RTVSPost2010Prop42
 90
       50
102
RTVSPost2010PropOp42
 70
     0
102
RTVSPost2010Prop43
 90
        3
102
RTVSPost2010PropOp43
 70
     0
102
RTVSPost2010Prop44ColorIndex
 90
        5
102
RTVSPost2010Prop44ColorRGB
 90
      255
102
RTVSPost2010PropOp44
 70
     0
102
RTVSPost2010Prop45
280
     0
102
RTVSPost2010PropOp45
 70
     1
102
RTVSPost2010Prop46
 90
       50
102
RTVSPost2010PropOp46
 70
     0
102
RTVSPost2010Prop47
 90
       50
102
RTVSPost2010PropOp47
 70
     0
102
RTVSPost2010Prop48
 90
       50
102
RTVSPost2010PropOp48
 70
     0
102
RTVSPost2010Prop49
280
     0
102
RTVSPost2010PropOp49
 70
     1
102
RTVSPost2010Prop50
 90
       50
102
RTVSPost2010PropOp50
 70
     0
102
RTVSPost2010Prop51ColorIndex
 90
      256
102
RTVSPost2010Prop51ColorRGB
 90
-16777216
102
RTVSPost2010PropOp51
 70
     0
102
RTVSPost2010Prop52
140
1.0
102
RTVSPost2010PropOp52
 70
     0
102
RTVSPost2010Prop53
 90
        2
102
RTVSPost2010PropOp53
 70
     0
102
RTVSPost2010Prop54
  1
strokes_ogs.tif
102
RTVSPost2010PropOp54
 70
     0
102
RTVSPost2010Prop55
280
     0
102
RTVSPost2010PropOp55
 70
     1
102
RTVSPost2010Prop56
140
1.0
102
RTVSPost2010PropOp56
 70
     0
102
RTVSPost2010Prop57
140
1.0
102
RTVSPost2010PropOp57
 70
     0
102
RTVSPropertyOp0
 70
     0
102
RTVSPropertyOp1
 70
     0
102
RTVSPropertyOp2
 70
     0
102
RTVSPropertyOp3
 70
     0
102
RTVSPropertyOp4
 70
     0
102
RTVSPropertyOp5
 70
     0
102
RTVSPropertyOp6
 70
     0
102
RTVSPropertyOp7
 70
     0
102
RTVSPropertyOp8
 70
     0
102
RTVSPropertyOp9
 70
     0
102
RTVSPropertyOp10
 70
     0
102
RTVSPropertyOp11
 70
     0
102
RTVSPropertyOp12
 70
     0
102
RTVSPropertyOp13
 70
     0
102
RTVSPropertyOp14
 70
     2
102
RTVSPropertyOp15
 70
     0
102
RTVSPropertyOp16
 70
     0
102
RTVSPropertyOp17
 70
     0
102
RTVSPropertyOp18
 70
     0
102
RTVSPropertyOp19
 70
     0
102
RTVSPropertyOp20
 70
     0
102
RTVSPropertyOp21
 70
     0
102
RTVSPropertyOp22
 70
     0
102
RTVSPropertyOp23
 70
     0
102
RTVSPropertyOp24
 70
     0
102
RTVSPropertyOp25
 70
     0
102
RTVSPropertyOp26
 70
     0
102
RTVSPropertyOp27
 70
     0
102
RTVSPropertyOp28
 70
     1
102
RTVSPropertyOp29
 70
     1
102
RTVSPropertyOp30
 70
     1
102
RTVSPropertyOp31
 70
     1
102
RTVSPropertyOp32
 70
     1
102
RTVSPropertyOp33
 70
     1
102
RTVSPropertyOp34
 70
     1
102
RTVSPropertyOp35
 70
     1
102
RTVSPropertyOp36
 70
     1
102
RTVSPropertyOp37
 70
     0
102
RTVSPropertyOp38
 70
     0
102
RTVSPropertyOp39
 70
     0
102
RTVSPropertyOp40
 70
     0
102
RTVSPropertyOp41
 70
     0
102
RTVSPropertyOp42
 70
     0
102
RTVSPropertyOp43
 70
     0
102
RTVSPropertyOp44
 70
     0
102
RTVSPropertyOp45
 70
     1
102
RTVSPropertyOp46
 70
     0
102
RTVSPropertyOp47
 70
     0
102
RTVSPropertyOp48
 70
     0
102
RTVSPropertyOp49
 70
     1
102
RTVSPropertyOp50
 70
     0
102
RTVSPropertyOp51
 70
     0
102
RTVSPropertyOp52
 70
     0
102
RTVSPropertyOp53
 70
     0
102
RTVSPropertyOp54
 70
     0
102
RTVSPropertyOp55
 70
     1
102
RTVSPropertyOp56
 70
     0
102
RTVSPropertyOp57
 70
     0
102
RTVSPropertyOp58
 70
     1
102
RTVSPropertyOp59
 70
     1
102
RTVSPropertyOp60
 70
     1
102
RTVSPropertyOp61
 70
     1
102
RTVSPropertyOp62
 70
     1
  0
XRECORD
  5
ABA
102
{ACAD_REACTORS
330
AB9
102
}
330
AB9
100
AcDbXrecord
280
     1
102
RTVSPost2010Prop28
280
     0
102
RTVSPost2010PropOp28
 70
     1
102
RTVSPost2010Prop29
280
     1
102
RTVSPost2010PropOp29
 70
     1
102
RTVSPost2010Prop30
280
     1
102
RTVSPost2010PropOp30
 70
     1
102
RTVSPost2010Prop31
280
     0
102
RTVSPost2010PropOp31
 70
     1
102
RTVSPost2010Prop32
280
     0
102
RTVSPost2010PropOp32
 70
     1
102
RTVSPost2010Prop33
280
     0
102
RTVSPost2010PropOp33
 70
     1
102
RTVSPost2010Prop34
280
     0
102
RTVSPost2010PropOp34
 70
     1
102
RTVSPost2010Prop35
280
     0
102
RTVSPost2010PropOp35
 70
     1
102
RTVSPost2010Prop36
280
     0
102
RTVSPost2010PropOp36
 70
     1
102
RTVSPost2010Prop37
 90
       50
102
RTVSPost2010PropOp37
 70
     1
102
RTVSPost2010Prop38
140
0.0
102
RTVSPost2010PropOp38
 70
     1
102
RTVSPost2010Prop39
140
1.0
102
RTVSPost2010PropOp39
 70
     1
102
RTVSPost2010Prop40
 90
        0
102
RTVSPost2010PropOp40
 70
     1
102
RTVSPost2010Prop41ColorIndex
 90
       18
102
RTVSPost2010Prop41ColorRGB
 90
        0
102
RTVSPost2010PropOp41
 70
     1
102
RTVSPost2010Prop42
 90
       50
102
RTVSPost2010PropOp42
 70
     1
102
RTVSPost2010Prop43
 90
        3
102
RTVSPost2010PropOp43
 70
     1
102
RTVSPost2010Prop44ColorIndex
 90
        5
102
RTVSPost2010Prop44ColorRGB
 90
      255
102
RTVSPost2010PropOp44
 70
     1
102
RTVSPost2010Prop45
280
     0
102
RTVSPost2010PropOp45
 70
     1
102
RTVSPost2010Prop46
 90
       50
102
RTVSPost2010PropOp46
 70
     1
102
RTVSPost2010Prop47
 90
       50
102
RTVSPost2010PropOp47
 70
     1
102
RTVSPost2010Prop48
 90
       50
102
RTVSPost2010PropOp48
 70
     1
102
RTVSPost2010Prop49
280
     0
102
RTVSPost2010PropOp49
 70
     1
102
RTVSPost2010Prop50
 90
       50
102
RTVSPost2010PropOp50
 70
     1
102
RTVSPost2010Prop51ColorIndex
 90
      256
102
RTVSPost2010Prop51ColorRGB
 90
-16777216
102
RTVSPost2010PropOp51
 70
     0
102
RTVSPost2010Prop52
140
1.0
102
RTVSPost2010PropOp52
 70
     0
102
RTVSPost2010Prop53
 90
        2
102
RTVSPost2010PropOp53
 70
     1
102
RTVSPost2010Prop54
  1
strokes_ogs.tif
102
RTVSPost2010PropOp54
 70
     1
102
RTVSPost2010Prop55
280
     0
102
RTVSPost2010PropOp55
 70
     1
102
RTVSPost2010Prop56
140
1.0
102
RTVSPost2010PropOp56
 70
     1
102
RTVSPost2010Prop57
140
1.0
102
RTVSPost2010PropOp57
 70
     1
102
RTVSPropertyOp0
 70
     1
102
RTVSPropertyOp1
 70
     1
102
RTVSPropertyOp2
 70
     1
102
RTVSPropertyOp3
 70
     1
102
RTVSPropertyOp4
 70
     1
102
RTVSPropertyOp5
 70
     1
102
RTVSPropertyOp6
 70
     1
102
RTVSPropertyOp7
 70
     1
102
RTVSPropertyOp8
 70
     1
102
RTVSPropertyOp9
 70
     1
102
RTVSPropertyOp10
 70
     1
102
RTVSPropertyOp11
 70
     1
102
RTVSPropertyOp12
 70
     1
102
RTVSPropertyOp13
 70
     1
102
RTVSPropertyOp14
 70
     1
102
RTVSPropertyOp15
 70
     1
102
RTVSPropertyOp16
 70
     1
102
RTVSPropertyOp17
 70
     1
102
RTVSPropertyOp18
 70
     1
102
RTVSPropertyOp19
 70
     1
102
RTVSPropertyOp20
 70
     1
102
RTVSPropertyOp21
 70
     1
102
RTVSPropertyOp22
 70
     1
102
RTVSPropertyOp23
 70
     1
102
RTVSPropertyOp24
 70
     1
102
RTVSPropertyOp25
 70
     1
102
RTVSPropertyOp26
 70
     1
102
RTVSPropertyOp27
 70
     1
102
RTVSPropertyOp28
 70
     1
102
RTVSPropertyOp29
 70
     1
102
RTVSPropertyOp30
 70
     1
102
RTVSPropertyOp31
 70
     1
102
RTVSPropertyOp32
 70
     1
102
RTVSPropertyOp33
 70
     1
102
RTVSPropertyOp34
 70
     1
102
RTVSPropertyOp35
 70
     1
102
RTVSPropertyOp36
 70
     1
102
RTVSPropertyOp37
 70
     1
102
RTVSPropertyOp38
 70
     1
102
RTVSPropertyOp39
 70
     1
102
RTVSPropertyOp40
 70
     1
102
RTVSPropertyOp41
 70
     1
102
RTVSPropertyOp42
 70
     1
102
RTVSPropertyOp43
 70
     1
102
RTVSPropertyOp44
 70
     1
102
RTVSPropertyOp45
 70
     1
102
RTVSPropertyOp46
 70
     1
102
RTVSPropertyOp47
 70
     1
102
RTVSPropertyOp48
 70
     1
102
RTVSPropertyOp49
 70
     1
102
RTVSPropertyOp50
 70
     1
102
RTVSPropertyOp51
 70
     0
102
RTVSPropertyOp52
 70
     0
102
RTVSPropertyOp53
 70
     1
102
RTVSPropertyOp54
 70
     1
102
RTVSPropertyOp55
 70
     1
102
RTVSPropertyOp56
 70
     1
102
RTVSPropertyOp57
 70
     1
102
RTVSPropertyOp58
 70
     1
102
RTVSPropertyOp59
 70
     1
102
RTVSPropertyOp60
 70
     1
102
RTVSPropertyOp61
 70
     1
102
RTVSPropertyOp62
 70
     1
  0
XRECORD
  5
ACC
102
{ACAD_REACTORS
330
ACB
102
}
330
ACB
100
AcDbXrecord
280
     1
102
RTVSPost2010Prop28
280
     0
102
RTVSPost2010PropOp28
 70
     1
102
RTVSPost2010Prop29
280
     1
102
RTVSPost2010PropOp29
 70
     1
102
RTVSPost2010Prop30
280
     1
102
RTVSPost2010PropOp30
 70
     1
102
RTVSPost2010Prop31
280
     0
102
RTVSPost2010PropOp31
 70
     1
102
RTVSPost2010Prop32
280
     0
102
RTVSPost2010PropOp32
 70
     1
102
RTVSPost2010Prop33
280
     0
102
RTVSPost2010PropOp33
 70
     1
102
RTVSPost2010Prop34
280
     0
102
RTVSPost2010PropOp34
 70
     1
102
RTVSPost2010Prop35
280
     0
102
RTVSPost2010PropOp35
 70
     1
102
RTVSPost2010Prop36
280
     0
102
RTVSPost2010PropOp36
 70
     1
102
RTVSPost2010Prop37
 90
       50
102
RTVSPost2010PropOp37
 70
     0
102
RTVSPost2010Prop38
140
0.0
102
RTVSPost2010PropOp38
 70
     0
102
RTVSPost2010Prop39
140
1.0
102
RTVSPost2010PropOp39
 70
     0
102
RTVSPost2010Prop40
 90
        0
102
RTVSPost2010PropOp40
 70
     0
102
RTVSPost2010Prop41ColorIndex
 90
       18
102
RTVSPost2010Prop41ColorRGB
 90
        0
102
RTVSPost2010PropOp41
 70
     0
102
RTVSPost2010Prop42
 90
       50
102
RTVSPost2010PropOp42
 70
     0
102
RTVSPost2010Prop43
 90
        3
102
RTVSPost2010PropOp43
 70
     0
102
RTVSPost2010Prop44ColorIndex
 90
        5
102
RTVSPost2010Prop44ColorRGB
 90
      255
102
RTVSPost2010PropOp44
 70
     0
102
RTVSPost2010Prop45
280
     0
102
RTVSPost2010PropOp45
 70
     1
102
RTVSPost2010Prop46
 90
       50
102
RTVSPost2010PropOp46
 70
     0
102
RTVSPost2010Prop47
 90
       50
102
RTVSPost2010PropOp47
 70
     0
102
RTVSPost2010Prop48
 90
       50
102
RTVSPost2010PropOp48
 70
     0
102
RTVSPost2010Prop49
280
     0
102
RTVSPost2010PropOp49
 70
     1
102
RTVSPost2010Prop50
 90
       50
102
RTVSPost2010PropOp50
 70
     0
102
RTVSPost2010Prop51ColorIndex
 90
      256
102
RTVSPost2010Prop51ColorRGB
 90
-16777216
102
RTVSPost2010PropOp51
 70
     0
102
RTVSPost2010Prop52
140
1.0
102
RTVSPost2010PropOp52
 70
     0
102
RTVSPost2010Prop53
 90
        2
102
RTVSPost2010PropOp53
 70
     0
102
RTVSPost2010Prop54
  1
strokes_ogs.tif
102
RTVSPost2010PropOp54
 70
     0
102
RTVSPost2010Prop55
280
     0
102
RTVSPost2010PropOp55
 70
     1
102
RTVSPost2010Prop56
140
1.0
102
RTVSPost2010PropOp56
 70
     0
102
RTVSPost2010Prop57
140
1.0
102
RTVSPost2010PropOp57
 70
     0
102
RTVSPropertyOp0
 70
     0
102
RTVSPropertyOp1
 70
     0
102
RTVSPropertyOp2
 70
     0
102
RTVSPropertyOp3
 70
     0
102
RTVSPropertyOp4
 70
     0
102
RTVSPropertyOp5
 70
     0
102
RTVSPropertyOp6
 70
     0
102
RTVSPropertyOp7
 70
     0
102
RTVSPropertyOp8
 70
     0
102
RTVSPropertyOp9
 70
     0
102
RTVSPropertyOp10
 70
     0
102
RTVSPropertyOp11
 70
     0
102
RTVSPropertyOp12
 70
     0
102
RTVSPropertyOp13
 70
     0
102
RTVSPropertyOp14
 70
     2
102
RTVSPropertyOp15
 70
     0
102
RTVSPropertyOp16
 70
     0
102
RTVSPropertyOp17
 70
     0
102
RTVSPropertyOp18
 70
     0
102
RTVSPropertyOp19
 70
     0
102
RTVSPropertyOp20
 70
     0
102
RTVSPropertyOp21
 70
     0
102
RTVSPropertyOp22
 70
     0
102
RTVSPropertyOp23
 70
     0
102
RTVSPropertyOp24
 70
     0
102
RTVSPropertyOp25
 70
     0
102
RTVSPropertyOp26
 70
     0
102
RTVSPropertyOp27
 70
     0
102
RTVSPropertyOp28
 70
     1
102
RTVSPropertyOp29
 70
     1
102
RTVSPropertyOp30
 70
     1
102
RTVSPropertyOp31
 70
     1
102
RTVSPropertyOp32
 70
     1
102
RTVSPropertyOp33
 70
     1
102
RTVSPropertyOp34
 70
     1
102
RTVSPropertyOp35
 70
     1
102
RTVSPropertyOp36
 70
     1
102
RTVSPropertyOp37
 70
     0
102
RTVSPropertyOp38
 70
     0
102
RTVSPropertyOp39
 70
     0
102
RTVSPropertyOp40
 70
     0
102
RTVSPropertyOp41
 70
     0
102
RTVSPropertyOp42
 70
     0
102
RTVSPropertyOp43
 70
     0
102
RTVSPropertyOp44
 70
     0
102
RTVSPropertyOp45
 70
     1
102
RTVSPropertyOp46
 70
     0
102
RTVSPropertyOp47
 70
     0
102
RTVSPropertyOp48
 70
     0
102
RTVSPropertyOp49
 70
     1
102
RTVSPropertyOp50
 70
     0
102
RTVSPropertyOp51
 70
     0
102
RTVSPropertyOp52
 70
     0
102
RTVSPropertyOp53
 70
     0
102
RTVSPropertyOp54
 70
     0
102
RTVSPropertyOp55
 70
     1
102
RTVSPropertyOp56
 70
     0
102
RTVSPropertyOp57
 70
     0
102
RTVSPropertyOp58
 70
     1
102
RTVSPropertyOp59
 70
     1
102
RTVSPropertyOp60
 70
     1
102
RTVSPropertyOp61
 70
     1
102
RTVSPropertyOp62
 70
     1
  0
XRECORD
  5
AB2
102
{ACAD_REACTORS
330
AB1
102
}
330
AB1
100
AcDbXrecord
280
     1
102
RTVSPost2010Prop28
280
     0
102
RTVSPost2010PropOp28
 70
     1
102
RTVSPost2010Prop29
280
     1
102
RTVSPost2010PropOp29
 70
     1
102
RTVSPost2010Prop30
280
     1
102
RTVSPost2010PropOp30
 70
     1
102
RTVSPost2010Prop31
280
     0
102
RTVSPost2010PropOp31
 70
     1
102
RTVSPost2010Prop32
280
     0
102
RTVSPost2010PropOp32
 70
     1
102
RTVSPost2010Prop33
280
     0
102
RTVSPost2010PropOp33
 70
     1
102
RTVSPost2010Prop34
280
     0
102
RTVSPost2010PropOp34
 70
     1
102
RTVSPost2010Prop35
280
     0
102
RTVSPost2010PropOp35
 70
     1
102
RTVSPost2010Prop36
280
     0
102
RTVSPost2010PropOp36
 70
     1
102
RTVSPost2010Prop37
 90
       50
102
RTVSPost2010PropOp37
 70
     1
102
RTVSPost2010Prop38
140
0.0
102
RTVSPost2010PropOp38
 70
     1
102
RTVSPost2010Prop39
140
1.0
102
RTVSPost2010PropOp39
 70
     1
102
RTVSPost2010Prop40
 90
        0
102
RTVSPost2010PropOp40
 70
     1
102
RTVSPost2010Prop41ColorIndex
 90
       18
102
RTVSPost2010Prop41ColorRGB
 90
        0
102
RTVSPost2010PropOp41
 70
     1
102
RTVSPost2010Prop42
 90
       50
102
RTVSPost2010PropOp42
 70
     1
102
RTVSPost2010Prop43
 90
        3
102
RTVSPost2010PropOp43
 70
     1
102
RTVSPost2010Prop44ColorIndex
 90
        5
102
RTVSPost2010Prop44ColorRGB
 90
      255
102
RTVSPost2010PropOp44
 70
     1
102
RTVSPost2010Prop45
280
     0
102
RTVSPost2010PropOp45
 70
     1
102
RTVSPost2010Prop46
 90
       50
102
RTVSPost2010PropOp46
 70
     1
102
RTVSPost2010Prop47
 90
       50
102
RTVSPost2010PropOp47
 70
     1
102
RTVSPost2010Prop48
 90
       50
102
RTVSPost2010PropOp48
 70
     1
102
RTVSPost2010Prop49
280
     0
102
RTVSPost2010PropOp49
 70
     1
102
RTVSPost2010Prop50
 90
       50
102
RTVSPost2010PropOp50
 70
     1
102
RTVSPost2010Prop51ColorIndex
 90
      256
102
RTVSPost2010Prop51ColorRGB
 90
-16777216
102
RTVSPost2010PropOp51
 70
     0
102
RTVSPost2010Prop52
140
1.0
102
RTVSPost2010PropOp52
 70
     0
102
RTVSPost2010Prop53
 90
        2
102
RTVSPost2010PropOp53
 70
     1
102
RTVSPost2010Prop54
  1
strokes_ogs.tif
102
RTVSPost2010PropOp54
 70
     1
102
RTVSPost2010Prop55
280
     0
102
RTVSPost2010PropOp55
 70
     1
102
RTVSPost2010Prop56
140
1.0
102
RTVSPost2010PropOp56
 70
     1
102
RTVSPost2010Prop57
140
1.0
102
RTVSPost2010PropOp57
 70
     1
102
RTVSPropertyOp0
 70
     1
102
RTVSPropertyOp1
 70
     1
102
RTVSPropertyOp2
 70
     1
102
RTVSPropertyOp3
 70
     1
102
RTVSPropertyOp4
 70
     1
102
RTVSPropertyOp5
 70
     1
102
RTVSPropertyOp6
 70
     1
102
RTVSPropertyOp7
 70
     1
102
RTVSPropertyOp8
 70
     1
102
RTVSPropertyOp9
 70
     1
102
RTVSPropertyOp10
 70
     1
102
RTVSPropertyOp11
 70
     1
102
RTVSPropertyOp12
 70
     1
102
RTVSPropertyOp13
 70
     1
102
RTVSPropertyOp14
 70
     1
102
RTVSPropertyOp15
 70
     1
102
RTVSPropertyOp16
 70
     1
102
RTVSPropertyOp17
 70
     1
102
RTVSPropertyOp18
 70
     1
102
RTVSPropertyOp19
 70
     1
102
RTVSPropertyOp20
 70
     1
102
RTVSPropertyOp21
 70
     1
102
RTVSPropertyOp22
 70
     1
102
RTVSPropertyOp23
 70
     1
102
RTVSPropertyOp24
 70
     1
102
RTVSPropertyOp25
 70
     1
102
RTVSPropertyOp26
 70
     1
102
RTVSPropertyOp27
 70
     1
102
RTVSPropertyOp28
 70
     1
102
RTVSPropertyOp29
 70
     1
102
RTVSPropertyOp30
 70
     1
102
RTVSPropertyOp31
 70
     1
102
RTVSPropertyOp32
 70
     1
102
RTVSPropertyOp33
 70
     1
102
RTVSPropertyOp34
 70
     1
102
RTVSPropertyOp35
 70
     1
102
RTVSPropertyOp36
 70
     1
102
RTVSPropertyOp37
 70
     1
102
RTVSPropertyOp38
 70
     1
102
RTVSPropertyOp39
 70
     1
102
RTVSPropertyOp40
 70
     1
102
RTVSPropertyOp41
 70
     1
102
RTVSPropertyOp42
 70
     1
102
RTVSPropertyOp43
 70
     1
102
RTVSPropertyOp44
 70
     1
102
RTVSPropertyOp45
 70
     1
102
RTVSPropertyOp46
 70
     1
102
RTVSPropertyOp47
 70
     1
102
RTVSPropertyOp48
 70
     1
102
RTVSPropertyOp49
 70
     1
102
RTVSPropertyOp50
 70
     1
102
RTVSPropertyOp51
 70
     0
102
RTVSPropertyOp52
 70
     0
102
RTVSPropertyOp53
 70
     1
102
RTVSPropertyOp54
 70
     1
102
RTVSPropertyOp55
 70
     1
102
RTVSPropertyOp56
 70
     1
102
RTVSPropertyOp57
 70
     1
102
RTVSPropertyOp58
 70
     1
102
RTVSPropertyOp59
 70
     1
102
RTVSPropertyOp60
 70
     1
102
RTVSPropertyOp61
 70
     1
102
RTVSPropertyOp62
 70
     1
  0
XRECORD
  5
AC8
102
{ACAD_REACTORS
330
AC7
102
}
330
AC7
100
AcDbXrecord
280
     1
102
RTVSPost2010Prop28
280
     0
102
RTVSPost2010PropOp28
 70
     1
102
RTVSPost2010Prop29
280
     1
102
RTVSPost2010PropOp29
 70
     1
102
RTVSPost2010Prop30
280
     1
102
RTVSPost2010PropOp30
 70
     1
102
RTVSPost2010Prop31
280
     0
102
RTVSPost2010PropOp31
 70
     1
102
RTVSPost2010Prop32
280
     0
102
RTVSPost2010PropOp32
 70
     1
102
RTVSPost2010Prop33
280
     0
102
RTVSPost2010PropOp33
 70
     1
102
RTVSPost2010Prop34
280
     0
102
RTVSPost2010PropOp34
 70
     1
102
RTVSPost2010Prop35
280
     0
102
RTVSPost2010PropOp35
 70
     1
102
RTVSPost2010Prop36
280
     0
102
RTVSPost2010PropOp36
 70
     1
102
RTVSPost2010Prop37
 90
       50
102
RTVSPost2010PropOp37
 70
     1
102
RTVSPost2010Prop38
140
0.0
102
RTVSPost2010PropOp38
 70
     1
102
RTVSPost2010Prop39
140
1.0
102
RTVSPost2010PropOp39
 70
     1
102
RTVSPost2010Prop40
 90
        0
102
RTVSPost2010PropOp40
 70
     1
102
RTVSPost2010Prop41ColorIndex
 90
       18
102
RTVSPost2010Prop41ColorRGB
 90
        0
102
RTVSPost2010PropOp41
 70
     1
102
RTVSPost2010Prop42
 90
       50
102
RTVSPost2010PropOp42
 70
     1
102
RTVSPost2010Prop43
 90
        3
102
RTVSPost2010PropOp43
 70
     1
102
RTVSPost2010Prop44ColorIndex
 90
        5
102
RTVSPost2010Prop44ColorRGB
 90
      255
102
RTVSPost2010PropOp44
 70
     1
102
RTVSPost2010Prop45
280
     0
102
RTVSPost2010PropOp45
 70
     1
102
RTVSPost2010Prop46
 90
       50
102
RTVSPost2010PropOp46
 70
     1
102
RTVSPost2010Prop47
 90
       50
102
RTVSPost2010PropOp47
 70
     1
102
RTVSPost2010Prop48
 90
       50
102
RTVSPost2010PropOp48
 70
     1
102
RTVSPost2010Prop49
280
     0
102
RTVSPost2010PropOp49
 70
     1
102
RTVSPost2010Prop50
 90
       50
102
RTVSPost2010PropOp50
 70
     1
102
RTVSPost2010Prop51ColorIndex
 90
      256
102
RTVSPost2010Prop51ColorRGB
 90
-16777216
102
RTVSPost2010PropOp51
 70
     0
102
RTVSPost2010Prop52
140
1.0
102
RTVSPost2010PropOp52
 70
     0
102
RTVSPost2010Prop53
 90
        2
102
RTVSPost2010PropOp53
 70
     1
102
RTVSPost2010Prop54
  1
strokes_ogs.tif
102
RTVSPost2010PropOp54
 70
     1
102
RTVSPost2010Prop55
280
     0
102
RTVSPost2010PropOp55
 70
     1
102
RTVSPost2010Prop56
140
1.0
102
RTVSPost2010PropOp56
 70
     1
102
RTVSPost2010Prop57
140
1.0
102
RTVSPost2010PropOp57
 70
     1
102
RTVSPropertyOp0
 70
     1
102
RTVSPropertyOp1
 70
     1
102
RTVSPropertyOp2
 70
     1
102
RTVSPropertyOp3
 70
     1
102
RTVSPropertyOp4
 70
     1
102
RTVSPropertyOp5
 70
     1
102
RTVSPropertyOp6
 70
     1
102
RTVSPropertyOp7
 70
     1
102
RTVSPropertyOp8
 70
     1
102
RTVSPropertyOp9
 70
     1
102
RTVSPropertyOp10
 70
     1
102
RTVSPropertyOp11
 70
     1
102
RTVSPropertyOp12
 70
     1
102
RTVSPropertyOp13
 70
     1
102
RTVSPropertyOp14
 70
     1
102
RTVSPropertyOp15
 70
     1
102
RTVSPropertyOp16
 70
     1
102
RTVSPropertyOp17
 70
     1
102
RTVSPropertyOp18
 70
     1
102
RTVSPropertyOp19
 70
     1
102
RTVSPropertyOp20
 70
     1
102
RTVSPropertyOp21
 70
     1
102
RTVSPropertyOp22
 70
     1
102
RTVSPropertyOp23
 70
     1
102
RTVSPropertyOp24
 70
     1
102
RTVSPropertyOp25
 70
     1
102
RTVSPropertyOp26
 70
     1
102
RTVSPropertyOp27
 70
     1
102
RTVSPropertyOp28
 70
     1
102
RTVSPropertyOp29
 70
     1
102
RTVSPropertyOp30
 70
     1
102
RTVSPropertyOp31
 70
     1
102
RTVSPropertyOp32
 70
     1
102
RTVSPropertyOp33
 70
     1
102
RTVSPropertyOp34
 70
     1
102
RTVSPropertyOp35
 70
     1
102
RTVSPropertyOp36
 70
     1
102
RTVSPropertyOp37
 70
     1
102
RTVSPropertyOp38
 70
     1
102
RTVSPropertyOp39
 70
     1
102
RTVSPropertyOp40
 70
     1
102
RTVSPropertyOp41
 70
     1
102
RTVSPropertyOp42
 70
     1
102
RTVSPropertyOp43
 70
     1
102
RTVSPropertyOp44
 70
     1
102
RTVSPropertyOp45
 70
     1
102
RTVSPropertyOp46
 70
     1
102
RTVSPropertyOp47
 70
     1
102
RTVSPropertyOp48
 70
     1
102
RTVSPropertyOp49
 70
     1
102
RTVSPropertyOp50
 70
     1
102
RTVSPropertyOp51
 70
     0
102
RTVSPropertyOp52
 70
     0
102
RTVSPropertyOp53
 70
     1
102
RTVSPropertyOp54
 70
     1
102
RTVSPropertyOp55
 70
     1
102
RTVSPropertyOp56
 70
     1
102
RTVSPropertyOp57
 70
     1
102
RTVSPropertyOp58
 70
     1
102
RTVSPropertyOp59
 70
     1
102
RTVSPropertyOp60
 70
     1
102
RTVSPropertyOp61
 70
     1
102
RTVSPropertyOp62
 70
     1
  0
XRECORD
  5
AC6
102
{ACAD_REACTORS
330
AC5
102
}
330
AC5
100
AcDbXrecord
280
     1
102
RTVSPost2010Prop28
280
     0
102
RTVSPost2010PropOp28
 70
     1
102
RTVSPost2010Prop29
280
     1
102
RTVSPost2010PropOp29
 70
     1
102
RTVSPost2010Prop30
280
     1
102
RTVSPost2010PropOp30
 70
     1
102
RTVSPost2010Prop31
280
     0
102
RTVSPost2010PropOp31
 70
     1
102
RTVSPost2010Prop32
280
     0
102
RTVSPost2010PropOp32
 70
     1
102
RTVSPost2010Prop33
280
     0
102
RTVSPost2010PropOp33
 70
     1
102
RTVSPost2010Prop34
280
     0
102
RTVSPost2010PropOp34
 70
     1
102
RTVSPost2010Prop35
280
     0
102
RTVSPost2010PropOp35
 70
     1
102
RTVSPost2010Prop36
280
     0
102
RTVSPost2010PropOp36
 70
     1
102
RTVSPost2010Prop37
 90
       50
102
RTVSPost2010PropOp37
 70
     1
102
RTVSPost2010Prop38
140
0.0
102
RTVSPost2010PropOp38
 70
     1
102
RTVSPost2010Prop39
140
1.0
102
RTVSPost2010PropOp39
 70
     1
102
RTVSPost2010Prop40
 90
        0
102
RTVSPost2010PropOp40
 70
     1
102
RTVSPost2010Prop41ColorIndex
 90
       18
102
RTVSPost2010Prop41ColorRGB
 90
        0
102
RTVSPost2010PropOp41
 70
     1
102
RTVSPost2010Prop42
 90
       50
102
RTVSPost2010PropOp42
 70
     1
102
RTVSPost2010Prop43
 90
        3
102
RTVSPost2010PropOp43
 70
     1
102
RTVSPost2010Prop44ColorIndex
 90
        5
102
RTVSPost2010Prop44ColorRGB
 90
      255
102
RTVSPost2010PropOp44
 70
     1
102
RTVSPost2010Prop45
280
     0
102
RTVSPost2010PropOp45
 70
     1
102
RTVSPost2010Prop46
 90
       50
102
RTVSPost2010PropOp46
 70
     1
102
RTVSPost2010Prop47
 90
       50
102
RTVSPost2010PropOp47
 70
     1
102
RTVSPost2010Prop48
 90
       50
102
RTVSPost2010PropOp48
 70
     1
102
RTVSPost2010Prop49
280
     0
102
RTVSPost2010PropOp49
 70
     1
102
RTVSPost2010Prop50
 90
       50
102
RTVSPost2010PropOp50
 70
     1
102
RTVSPost2010Prop51ColorIndex
 90
      256
102
RTVSPost2010Prop51ColorRGB
 90
-16777216
102
RTVSPost2010PropOp51
 70
     0
102
RTVSPost2010Prop52
140
1.0
102
RTVSPost2010PropOp52
 70
     0
102
RTVSPost2010Prop53
 90
        2
102
RTVSPost2010PropOp53
 70
     1
102
RTVSPost2010Prop54
  1
strokes_ogs.tif
102
RTVSPost2010PropOp54
 70
     1
102
RTVSPost2010Prop55
280
     0
102
RTVSPost2010PropOp55
 70
     1
102
RTVSPost2010Prop56
140
1.0
102
RTVSPost2010PropOp56
 70
     1
102
RTVSPost2010Prop57
140
1.0
102
RTVSPost2010PropOp57
 70
     1
102
RTVSPropertyOp0
 70
     1
102
RTVSPropertyOp1
 70
     1
102
RTVSPropertyOp2
 70
     1
102
RTVSPropertyOp3
 70
     1
102
RTVSPropertyOp4
 70
     1
102
RTVSPropertyOp5
 70
     1
102
RTVSPropertyOp6
 70
     1
102
RTVSPropertyOp7
 70
     1
102
RTVSPropertyOp8
 70
     1
102
RTVSPropertyOp9
 70
     1
102
RTVSPropertyOp10
 70
     1
102
RTVSPropertyOp11
 70
     1
102
RTVSPropertyOp12
 70
     1
102
RTVSPropertyOp13
 70
     1
102
RTVSPropertyOp14
 70
     1
102
RTVSPropertyOp15
 70
     1
102
RTVSPropertyOp16
 70
     1
102
RTVSPropertyOp17
 70
     1
102
RTVSPropertyOp18
 70
     1
102
RTVSPropertyOp19
 70
     1
102
RTVSPropertyOp20
 70
     1
102
RTVSPropertyOp21
 70
     1
102
RTVSPropertyOp22
 70
     1
102
RTVSPropertyOp23
 70
     1
102
RTVSPropertyOp24
 70
     1
102
RTVSPropertyOp25
 70
     1
102
RTVSPropertyOp26
 70
     1
102
RTVSPropertyOp27
 70
     1
102
RTVSPropertyOp28
 70
     1
102
RTVSPropertyOp29
 70
     1
102
RTVSPropertyOp30
 70
     1
102
RTVSPropertyOp31
 70
     1
102
RTVSPropertyOp32
 70
     1
102
RTVSPropertyOp33
 70
     1
102
RTVSPropertyOp34
 70
     1
102
RTVSPropertyOp35
 70
     1
102
RTVSPropertyOp36
 70
     1
102
RTVSPropertyOp37
 70
     1
102
RTVSPropertyOp38
 70
     1
102
RTVSPropertyOp39
 70
     1
102
RTVSPropertyOp40
 70
     1
102
RTVSPropertyOp41
 70
     1
102
RTVSPropertyOp42
 70
     1
102
RTVSPropertyOp43
 70
     1
102
RTVSPropertyOp44
 70
     1
102
RTVSPropertyOp45
 70
     1
102
RTVSPropertyOp46
 70
     1
102
RTVSPropertyOp47
 70
     1
102
RTVSPropertyOp48
 70
     1
102
RTVSPropertyOp49
 70
     1
102
RTVSPropertyOp50
 70
     1
102
RTVSPropertyOp51
 70
     0
102
RTVSPropertyOp52
 70
     0
102
RTVSPropertyOp53
 70
     1
102
RTVSPropertyOp54
 70
     1
102
RTVSPropertyOp55
 70
     1
102
RTVSPropertyOp56
 70
     1
102
RTVSPropertyOp57
 70
     1
102
RTVSPropertyOp58
 70
     1
102
RTVSPropertyOp59
 70
     1
102
RTVSPropertyOp60
 70
     1
102
RTVSPropertyOp61
 70
     1
102
RTVSPropertyOp62
 70
     1
  0
XRECORD
  5
AC0
102
{ACAD_REACTORS
330
ABF
102
}
330
ABF
100
AcDbXrecord
280
     1
102
RTVSPost2010Prop28
280
     0
102
RTVSPost2010PropOp28
 70
     1
102
RTVSPost2010Prop29
280
     1
102
RTVSPost2010PropOp29
 70
     1
102
RTVSPost2010Prop30
280
     1
102
RTVSPost2010PropOp30
 70
     1
102
RTVSPost2010Prop31
280
     0
102
RTVSPost2010PropOp31
 70
     1
102
RTVSPost2010Prop32
280
     0
102
RTVSPost2010PropOp32
 70
     1
102
RTVSPost2010Prop33
280
     0
102
RTVSPost2010PropOp33
 70
     1
102
RTVSPost2010Prop34
280
     0
102
RTVSPost2010PropOp34
 70
     1
102
RTVSPost2010Prop35
280
     0
102
RTVSPost2010PropOp35
 70
     1
102
RTVSPost2010Prop36
280
     0
102
RTVSPost2010PropOp36
 70
     1
102
RTVSPost2010Prop37
 90
       50
102
RTVSPost2010PropOp37
 70
     1
102
RTVSPost2010Prop38
140
0.0
102
RTVSPost2010PropOp38
 70
     1
102
RTVSPost2010Prop39
140
1.0
102
RTVSPost2010PropOp39
 70
     1
102
RTVSPost2010Prop40
 90
        0
102
RTVSPost2010PropOp40
 70
     1
102
RTVSPost2010Prop41ColorIndex
 90
       18
102
RTVSPost2010Prop41ColorRGB
 90
        0
102
RTVSPost2010PropOp41
 70
     1
102
RTVSPost2010Prop42
 90
       50
102
RTVSPost2010PropOp42
 70
     1
102
RTVSPost2010Prop43
 90
        3
102
RTVSPost2010PropOp43
 70
     1
102
RTVSPost2010Prop44ColorIndex
 90
        5
102
RTVSPost2010Prop44ColorRGB
 90
      255
102
RTVSPost2010PropOp44
 70
     1
102
RTVSPost2010Prop45
280
     0
102
RTVSPost2010PropOp45
 70
     1
102
RTVSPost2010Prop46
 90
       50
102
RTVSPost2010PropOp46
 70
     1
102
RTVSPost2010Prop47
 90
       50
102
RTVSPost2010PropOp47
 70
     1
102
RTVSPost2010Prop48
 90
       50
102
RTVSPost2010PropOp48
 70
     1
102
RTVSPost2010Prop49
280
     0
102
RTVSPost2010PropOp49
 70
     1
102
RTVSPost2010Prop50
 90
       50
102
RTVSPost2010PropOp50
 70
     1
102
RTVSPost2010Prop51ColorIndex
 90
      256
102
RTVSPost2010Prop51ColorRGB
 90
-16777216
102
RTVSPost2010PropOp51
 70
     0
102
RTVSPost2010Prop52
140
1.0
102
RTVSPost2010PropOp52
 70
     0
102
RTVSPost2010Prop53
 90
        2
102
RTVSPost2010PropOp53
 70
     1
102
RTVSPost2010Prop54
  1
strokes_ogs.tif
102
RTVSPost2010PropOp54
 70
     1
102
RTVSPost2010Prop55
280
     0
102
RTVSPost2010PropOp55
 70
     1
102
RTVSPost2010Prop56
140
1.0
102
RTVSPost2010PropOp56
 70
     1
102
RTVSPost2010Prop57
140
1.0
102
RTVSPost2010PropOp57
 70
     1
102
RTVSPropertyOp0
 70
     1
102
RTVSPropertyOp1
 70
     1
102
RTVSPropertyOp2
 70
     1
102
RTVSPropertyOp3
 70
     1
102
RTVSPropertyOp4
 70
     1
102
RTVSPropertyOp5
 70
     1
102
RTVSPropertyOp6
 70
     1
102
RTVSPropertyOp7
 70
     1
102
RTVSPropertyOp8
 70
     1
102
RTVSPropertyOp9
 70
     1
102
RTVSPropertyOp10
 70
     1
102
RTVSPropertyOp11
 70
     1
102
RTVSPropertyOp12
 70
     1
102
RTVSPropertyOp13
 70
     1
102
RTVSPropertyOp14
 70
     1
102
RTVSPropertyOp15
 70
     1
102
RTVSPropertyOp16
 70
     1
102
RTVSPropertyOp17
 70
     1
102
RTVSPropertyOp18
 70
     1
102
RTVSPropertyOp19
 70
     1
102
RTVSPropertyOp20
 70
     1
102
RTVSPropertyOp21
 70
     1
102
RTVSPropertyOp22
 70
     1
102
RTVSPropertyOp23
 70
     1
102
RTVSPropertyOp24
 70
     1
102
RTVSPropertyOp25
 70
     1
102
RTVSPropertyOp26
 70
     1
102
RTVSPropertyOp27
 70
     1
102
RTVSPropertyOp28
 70
     1
102
RTVSPropertyOp29
 70
     1
102
RTVSPropertyOp30
 70
     1
102
RTVSPropertyOp31
 70
     1
102
RTVSPropertyOp32
 70
     1
102
RTVSPropertyOp33
 70
     1
102
RTVSPropertyOp34
 70
     1
102
RTVSPropertyOp35
 70
     1
102
RTVSPropertyOp36
 70
     1
102
RTVSPropertyOp37
 70
     1
102
RTVSPropertyOp38
 70
     1
102
RTVSPropertyOp39
 70
     1
102
RTVSPropertyOp40
 70
     1
102
RTVSPropertyOp41
 70
     1
102
RTVSPropertyOp42
 70
     1
102
RTVSPropertyOp43
 70
     1
102
RTVSPropertyOp44
 70
     1
102
RTVSPropertyOp45
 70
     1
102
RTVSPropertyOp46
 70
     1
102
RTVSPropertyOp47
 70
     1
102
RTVSPropertyOp48
 70
     1
102
RTVSPropertyOp49
 70
     1
102
RTVSPropertyOp50
 70
     1
102
RTVSPropertyOp51
 70
     0
102
RTVSPropertyOp52
 70
     0
102
RTVSPropertyOp53
 70
     1
102
RTVSPropertyOp54
 70
     1
102
RTVSPropertyOp55
 70
     1
102
RTVSPropertyOp56
 70
     1
102
RTVSPropertyOp57
 70
     1
102
RTVSPropertyOp58
 70
     1
102
RTVSPropertyOp59
 70
     1
102
RTVSPropertyOp60
 70
     1
102
RTVSPropertyOp61
 70
     1
102
RTVSPropertyOp62
 70
     1
  0
XRECORD
  5
AC2
102
{ACAD_REACTORS
330
AC1
102
}
330
AC1
100
AcDbXrecord
280
     1
102
RTVSPost2010Prop28
280
     0
102
RTVSPost2010PropOp28
 70
     1
102
RTVSPost2010Prop29
280
     1
102
RTVSPost2010PropOp29
 70
     1
102
RTVSPost2010Prop30
280
     1
102
RTVSPost2010PropOp30
 70
     1
102
RTVSPost2010Prop31
280
     0
102
RTVSPost2010PropOp31
 70
     1
102
RTVSPost2010Prop32
280
     0
102
RTVSPost2010PropOp32
 70
     1
102
RTVSPost2010Prop33
280
     0
102
RTVSPost2010PropOp33
 70
     1
102
RTVSPost2010Prop34
280
     0
102
RTVSPost2010PropOp34
 70
     1
102
RTVSPost2010Prop35
280
     0
102
RTVSPost2010PropOp35
 70
     1
102
RTVSPost2010Prop36
280
     0
102
RTVSPost2010PropOp36
 70
     1
102
RTVSPost2010Prop37
 90
       50
102
RTVSPost2010PropOp37
 70
     1
102
RTVSPost2010Prop38
140
0.0
102
RTVSPost2010PropOp38
 70
     1
102
RTVSPost2010Prop39
140
1.0
102
RTVSPost2010PropOp39
 70
     1
102
RTVSPost2010Prop40
 90
        0
102
RTVSPost2010PropOp40
 70
     1
102
RTVSPost2010Prop41ColorIndex
 90
       18
102
RTVSPost2010Prop41ColorRGB
 90
        0
102
RTVSPost2010PropOp41
 70
     1
102
RTVSPost2010Prop42
 90
       50
102
RTVSPost2010PropOp42
 70
     1
102
RTVSPost2010Prop43
 90
        3
102
RTVSPost2010PropOp43
 70
     1
102
RTVSPost2010Prop44ColorIndex
 90
        5
102
RTVSPost2010Prop44ColorRGB
 90
      255
102
RTVSPost2010PropOp44
 70
     1
102
RTVSPost2010Prop45
280
     0
102
RTVSPost2010PropOp45
 70
     1
102
RTVSPost2010Prop46
 90
       50
102
RTVSPost2010PropOp46
 70
     1
102
RTVSPost2010Prop47
 90
       50
102
RTVSPost2010PropOp47
 70
     1
102
RTVSPost2010Prop48
 90
       50
102
RTVSPost2010PropOp48
 70
     1
102
RTVSPost2010Prop49
280
     0
102
RTVSPost2010PropOp49
 70
     1
102
RTVSPost2010Prop50
 90
       50
102
RTVSPost2010PropOp50
 70
     1
102
RTVSPost2010Prop51ColorIndex
 90
      256
102
RTVSPost2010Prop51ColorRGB
 90
-16777216
102
RTVSPost2010PropOp51
 70
     0
102
RTVSPost2010Prop52
140
1.0
102
RTVSPost2010PropOp52
 70
     0
102
RTVSPost2010Prop53
 90
        2
102
RTVSPost2010PropOp53
 70
     1
102
RTVSPost2010Prop54
  1
strokes_ogs.tif
102
RTVSPost2010PropOp54
 70
     1
102
RTVSPost2010Prop55
280
     0
102
RTVSPost2010PropOp55
 70
     1
102
RTVSPost2010Prop56
140
1.0
102
RTVSPost2010PropOp56
 70
     1
102
RTVSPost2010Prop57
140
1.0
102
RTVSPost2010PropOp57
 70
     1
102
RTVSPropertyOp0
 70
     1
102
RTVSPropertyOp1
 70
     1
102
RTVSPropertyOp2
 70
     1
102
RTVSPropertyOp3
 70
     1
102
RTVSPropertyOp4
 70
     1
102
RTVSPropertyOp5
 70
     1
102
RTVSPropertyOp6
 70
     1
102
RTVSPropertyOp7
 70
     1
102
RTVSPropertyOp8
 70
     1
102
RTVSPropertyOp9
 70
     1
102
RTVSPropertyOp10
 70
     1
102
RTVSPropertyOp11
 70
     1
102
RTVSPropertyOp12
 70
     1
102
RTVSPropertyOp13
 70
     1
102
RTVSPropertyOp14
 70
     1
102
RTVSPropertyOp15
 70
     1
102
RTVSPropertyOp16
 70
     1
102
RTVSPropertyOp17
 70
     1
102
RTVSPropertyOp18
 70
     1
102
RTVSPropertyOp19
 70
     1
102
RTVSPropertyOp20
 70
     1
102
RTVSPropertyOp21
 70
     1
102
RTVSPropertyOp22
 70
     1
102
RTVSPropertyOp23
 70
     1
102
RTVSPropertyOp24
 70
     1
102
RTVSPropertyOp25
 70
     1
102
RTVSPropertyOp26
 70
     1
102
RTVSPropertyOp27
 70
     1
102
RTVSPropertyOp28
 70
     1
102
RTVSPropertyOp29
 70
     1
102
RTVSPropertyOp30
 70
     1
102
RTVSPropertyOp31
 70
     1
102
RTVSPropertyOp32
 70
     1
102
RTVSPropertyOp33
 70
     1
102
RTVSPropertyOp34
 70
     1
102
RTVSPropertyOp35
 70
     1
102
RTVSPropertyOp36
 70
     1
102
RTVSPropertyOp37
 70
     1
102
RTVSPropertyOp38
 70
     1
102
RTVSPropertyOp39
 70
     1
102
RTVSPropertyOp40
 70
     1
102
RTVSPropertyOp41
 70
     1
102
RTVSPropertyOp42
 70
     1
102
RTVSPropertyOp43
 70
     1
102
RTVSPropertyOp44
 70
     1
102
RTVSPropertyOp45
 70
     1
102
RTVSPropertyOp46
 70
     1
102
RTVSPropertyOp47
 70
     1
102
RTVSPropertyOp48
 70
     1
102
RTVSPropertyOp49
 70
     1
102
RTVSPropertyOp50
 70
     1
102
RTVSPropertyOp51
 70
     0
102
RTVSPropertyOp52
 70
     0
102
RTVSPropertyOp53
 70
     1
102
RTVSPropertyOp54
 70
     1
102
RTVSPropertyOp55
 70
     1
102
RTVSPropertyOp56
 70
     1
102
RTVSPropertyOp57
 70
     1
102
RTVSPropertyOp58
 70
     1
102
RTVSPropertyOp59
 70
     1
102
RTVSPropertyOp60
 70
     1
102
RTVSPropertyOp61
 70
     1
102
RTVSPropertyOp62
 70
     1
  0
XRECORD
  5
AB8
102
{ACAD_REACTORS
330
AB7
102
}
330
AB7
100
AcDbXrecord
280
     1
102
RTVSPost2010Prop28
280
     0
102
RTVSPost2010PropOp28
 70
     1
102
RTVSPost2010Prop29
280
     1
102
RTVSPost2010PropOp29
 70
     1
102
RTVSPost2010Prop30
280
     1
102
RTVSPost2010PropOp30
 70
     1
102
RTVSPost2010Prop31
280
     0
102
RTVSPost2010PropOp31
 70
     1
102
RTVSPost2010Prop32
280
     0
102
RTVSPost2010PropOp32
 70
     1
102
RTVSPost2010Prop33
280
     0
102
RTVSPost2010PropOp33
 70
     1
102
RTVSPost2010Prop34
280
     0
102
RTVSPost2010PropOp34
 70
     1
102
RTVSPost2010Prop35
280
     0
102
RTVSPost2010PropOp35
 70
     1
102
RTVSPost2010Prop36
280
     0
102
RTVSPost2010PropOp36
 70
     1
102
RTVSPost2010Prop37
 90
       50
102
RTVSPost2010PropOp37
 70
     1
102
RTVSPost2010Prop38
140
0.0
102
RTVSPost2010PropOp38
 70
     1
102
RTVSPost2010Prop39
140
1.0
102
RTVSPost2010PropOp39
 70
     1
102
RTVSPost2010Prop40
 90
        0
102
RTVSPost2010PropOp40
 70
     1
102
RTVSPost2010Prop41ColorIndex
 90
       18
102
RTVSPost2010Prop41ColorRGB
 90
        0
102
RTVSPost2010PropOp41
 70
     1
102
RTVSPost2010Prop42
 90
       50
102
RTVSPost2010PropOp42
 70
     1
102
RTVSPost2010Prop43
 90
        3
102
RTVSPost2010PropOp43
 70
     1
102
RTVSPost2010Prop44ColorIndex
 90
        5
102
RTVSPost2010Prop44ColorRGB
 90
      255
102
RTVSPost2010PropOp44
 70
     1
102
RTVSPost2010Prop45
280
     0
102
RTVSPost2010PropOp45
 70
     1
102
RTVSPost2010Prop46
 90
       50
102
RTVSPost2010PropOp46
 70
     1
102
RTVSPost2010Prop47
 90
       50
102
RTVSPost2010PropOp47
 70
     1
102
RTVSPost2010Prop48
 90
       50
102
RTVSPost2010PropOp48
 70
     1
102
RTVSPost2010Prop49
280
     0
102
RTVSPost2010PropOp49
 70
     1
102
RTVSPost2010Prop50
 90
       50
102
RTVSPost2010PropOp50
 70
     1
102
RTVSPost2010Prop51ColorIndex
 90
      256
102
RTVSPost2010Prop51ColorRGB
 90
-16777216
102
RTVSPost2010PropOp51
 70
     0
102
RTVSPost2010Prop52
140
1.0
102
RTVSPost2010PropOp52
 70
     0
102
RTVSPost2010Prop53
 90
        2
102
RTVSPost2010PropOp53
 70
     1
102
RTVSPost2010Prop54
  1
strokes_ogs.tif
102
RTVSPost2010PropOp54
 70
     1
102
RTVSPost2010Prop55
280
     0
102
RTVSPost2010PropOp55
 70
     1
102
RTVSPost2010Prop56
140
1.0
102
RTVSPost2010PropOp56
 70
     1
102
RTVSPost2010Prop57
140
1.0
102
RTVSPost2010PropOp57
 70
     1
102
RTVSPropertyOp0
 70
     1
102
RTVSPropertyOp1
 70
     1
102
RTVSPropertyOp2
 70
     1
102
RTVSPropertyOp3
 70
     1
102
RTVSPropertyOp4
 70
     1
102
RTVSPropertyOp5
 70
     1
102
RTVSPropertyOp6
 70
     1
102
RTVSPropertyOp7
 70
     1
102
RTVSPropertyOp8
 70
     1
102
RTVSPropertyOp9
 70
     1
102
RTVSPropertyOp10
 70
     1
102
RTVSPropertyOp11
 70
     1
102
RTVSPropertyOp12
 70
     1
102
RTVSPropertyOp13
 70
     1
102
RTVSPropertyOp14
 70
     1
102
RTVSPropertyOp15
 70
     1
102
RTVSPropertyOp16
 70
     1
102
RTVSPropertyOp17
 70
     1
102
RTVSPropertyOp18
 70
     1
102
RTVSPropertyOp19
 70
     1
102
RTVSPropertyOp20
 70
     1
102
RTVSPropertyOp21
 70
     1
102
RTVSPropertyOp22
 70
     1
102
RTVSPropertyOp23
 70
     1
102
RTVSPropertyOp24
 70
     1
102
RTVSPropertyOp25
 70
     1
102
RTVSPropertyOp26
 70
     1
102
RTVSPropertyOp27
 70
     1
102
RTVSPropertyOp28
 70
     1
102
RTVSPropertyOp29
 70
     1
102
RTVSPropertyOp30
 70
     1
102
RTVSPropertyOp31
 70
     1
102
RTVSPropertyOp32
 70
     1
102
RTVSPropertyOp33
 70
     1
102
RTVSPropertyOp34
 70
     1
102
RTVSPropertyOp35
 70
     1
102
RTVSPropertyOp36
 70
     1
102
RTVSPropertyOp37
 70
     1
102
RTVSPropertyOp38
 70
     1
102
RTVSPropertyOp39
 70
     1
102
RTVSPropertyOp40
 70
     1
102
RTVSPropertyOp41
 70
     1
102
RTVSPropertyOp42
 70
     1
102
RTVSPropertyOp43
 70
     1
102
RTVSPropertyOp44
 70
     1
102
RTVSPropertyOp45
 70
     1
102
RTVSPropertyOp46
 70
     1
102
RTVSPropertyOp47
 70
     1
102
RTVSPropertyOp48
 70
     1
102
RTVSPropertyOp49
 70
     1
102
RTVSPropertyOp50
 70
     1
102
RTVSPropertyOp51
 70
     0
102
RTVSPropertyOp52
 70
     0
102
RTVSPropertyOp53
 70
     1
102
RTVSPropertyOp54
 70
     1
102
RTVSPropertyOp55
 70
     1
102
RTVSPropertyOp56
 70
     1
102
RTVSPropertyOp57
 70
     1
102
RTVSPropertyOp58
 70
     1
102
RTVSPropertyOp59
 70
     1
102
RTVSPropertyOp60
 70
     1
102
RTVSPropertyOp61
 70
     1
102
RTVSPropertyOp62
 70
     1
  0
XRECORD
  5
AAC
102
{ACAD_REACTORS
330
AAB
102
}
330
AAB
100
AcDbXrecord
280
     1
102
RTVSPost2010Prop28
280
     0
102
RTVSPost2010PropOp28
 70
     1
102
RTVSPost2010Prop29
280
     1
102
RTVSPost2010PropOp29
 70
     1
102
RTVSPost2010Prop30
280
     1
102
RTVSPost2010PropOp30
 70
     1
102
RTVSPost2010Prop31
280
     0
102
RTVSPost2010PropOp31
 70
     1
102
RTVSPost2010Prop32
280
     0
102
RTVSPost2010PropOp32
 70
     1
102
RTVSPost2010Prop33
280
     0
102
RTVSPost2010PropOp33
 70
     1
102
RTVSPost2010Prop34
280
     0
102
RTVSPost2010PropOp34
 70
     1
102
RTVSPost2010Prop35
280
     0
102
RTVSPost2010PropOp35
 70
     1
102
RTVSPost2010Prop36
280
     0
102
RTVSPost2010PropOp36
 70
     1
102
RTVSPost2010Prop37
 90
       50
102
RTVSPost2010PropOp37
 70
     1
102
RTVSPost2010Prop38
140
0.0
102
RTVSPost2010PropOp38
 70
     1
102
RTVSPost2010Prop39
140
1.0
102
RTVSPost2010PropOp39
 70
     1
102
RTVSPost2010Prop40
 90
        0
102
RTVSPost2010PropOp40
 70
     1
102
RTVSPost2010Prop41ColorIndex
 90
       18
102
RTVSPost2010Prop41ColorRGB
 90
        0
102
RTVSPost2010PropOp41
 70
     1
102
RTVSPost2010Prop42
 90
       50
102
RTVSPost2010PropOp42
 70
     1
102
RTVSPost2010Prop43
 90
        3
102
RTVSPost2010PropOp43
 70
     1
102
RTVSPost2010Prop44ColorIndex
 90
        5
102
RTVSPost2010Prop44ColorRGB
 90
      255
102
RTVSPost2010PropOp44
 70
     1
102
RTVSPost2010Prop45
280
     0
102
RTVSPost2010PropOp45
 70
     1
102
RTVSPost2010Prop46
 90
       50
102
RTVSPost2010PropOp46
 70
     1
102
RTVSPost2010Prop47
 90
       50
102
RTVSPost2010PropOp47
 70
     1
102
RTVSPost2010Prop48
 90
       50
102
RTVSPost2010PropOp48
 70
     1
102
RTVSPost2010Prop49
280
     0
102
RTVSPost2010PropOp49
 70
     1
102
RTVSPost2010Prop50
 90
       50
102
RTVSPost2010PropOp50
 70
     1
102
RTVSPost2010Prop51ColorIndex
 90
      256
102
RTVSPost2010Prop51ColorRGB
 90
-16777216
102
RTVSPost2010PropOp51
 70
     0
102
RTVSPost2010Prop52
140
1.0
102
RTVSPost2010PropOp52
 70
     0
102
RTVSPost2010Prop53
 90
        2
102
RTVSPost2010PropOp53
 70
     1
102
RTVSPost2010Prop54
  1
strokes_ogs.tif
102
RTVSPost2010PropOp54
 70
     1
102
RTVSPost2010Prop55
280
     0
102
RTVSPost2010PropOp55
 70
     1
102
RTVSPost2010Prop56
140
1.0
102
RTVSPost2010PropOp56
 70
     1
102
RTVSPost2010Prop57
140
1.0
102
RTVSPost2010PropOp57
 70
     1
102
RTVSPropertyOp0
 70
     1
102
RTVSPropertyOp1
 70
     1
102
RTVSPropertyOp2
 70
     1
102
RTVSPropertyOp3
 70
     1
102
RTVSPropertyOp4
 70
     1
102
RTVSPropertyOp5
 70
     1
102
RTVSPropertyOp6
 70
     1
102
RTVSPropertyOp7
 70
     1
102
RTVSPropertyOp8
 70
     1
102
RTVSPropertyOp9
 70
     1
102
RTVSPropertyOp10
 70
     1
102
RTVSPropertyOp11
 70
     1
102
RTVSPropertyOp12
 70
     1
102
RTVSPropertyOp13
 70
     1
102
RTVSPropertyOp14
 70
     1
102
RTVSPropertyOp15
 70
     1
102
RTVSPropertyOp16
 70
     1
102
RTVSPropertyOp17
 70
     1
102
RTVSPropertyOp18
 70
     1
102
RTVSPropertyOp19
 70
     1
102
RTVSPropertyOp20
 70
     1
102
RTVSPropertyOp21
 70
     1
102
RTVSPropertyOp22
 70
     1
102
RTVSPropertyOp23
 70
     1
102
RTVSPropertyOp24
 70
     1
102
RTVSPropertyOp25
 70
     1
102
RTVSPropertyOp26
 70
     1
102
RTVSPropertyOp27
 70
     1
102
RTVSPropertyOp28
 70
     1
102
RTVSPropertyOp29
 70
     1
102
RTVSPropertyOp30
 70
     1
102
RTVSPropertyOp31
 70
     1
102
RTVSPropertyOp32
 70
     1
102
RTVSPropertyOp33
 70
     1
102
RTVSPropertyOp34
 70
     1
102
RTVSPropertyOp35
 70
     1
102
RTVSPropertyOp36
 70
     1
102
RTVSPropertyOp37
 70
     1
102
RTVSPropertyOp38
 70
     1
102
RTVSPropertyOp39
 70
     1
102
RTVSPropertyOp40
 70
     1
102
RTVSPropertyOp41
 70
     1
102
RTVSPropertyOp42
 70
     1
102
RTVSPropertyOp43
 70
     1
102
RTVSPropertyOp44
 70
     1
102
RTVSPropertyOp45
 70
     1
102
RTVSPropertyOp46
 70
     1
102
RTVSPropertyOp47
 70
     1
102
RTVSPropertyOp48
 70
     1
102
RTVSPropertyOp49
 70
     1
102
RTVSPropertyOp50
 70
     1
102
RTVSPropertyOp51
 70
     0
102
RTVSPropertyOp52
 70
     0
102
RTVSPropertyOp53
 70
     1
102
RTVSPropertyOp54
 70
     1
102
RTVSPropertyOp55
 70
     1
102
RTVSPropertyOp56
 70
     1
102
RTVSPropertyOp57
 70
     1
102
RTVSPropertyOp58
 70
     1
102
RTVSPropertyOp59
 70
     1
102
RTVSPropertyOp60
 70
     1
102
RTVSPropertyOp61
 70
     1
102
RTVSPropertyOp62
 70
     1
  0
XRECORD
  5
AC4
102
{ACAD_REACTORS
330
AC3
102
}
330
AC3
100
AcDbXrecord
280
     1
102
RTVSPost2010Prop28
280
     0
102
RTVSPost2010PropOp28
 70
     1
102
RTVSPost2010Prop29
280
     1
102
RTVSPost2010PropOp29
 70
     1
102
RTVSPost2010Prop30
280
     1
102
RTVSPost2010PropOp30
 70
     1
102
RTVSPost2010Prop31
280
     0
102
RTVSPost2010PropOp31
 70
     1
102
RTVSPost2010Prop32
280
     0
102
RTVSPost2010PropOp32
 70
     1
102
RTVSPost2010Prop33
280
     0
102
RTVSPost2010PropOp33
 70
     1
102
RTVSPost2010Prop34
280
     0
102
RTVSPost2010PropOp34
 70
     1
102
RTVSPost2010Prop35
280
     0
102
RTVSPost2010PropOp35
 70
     1
102
RTVSPost2010Prop36
280
     0
102
RTVSPost2010PropOp36
 70
     1
102
RTVSPost2010Prop37
 90
       50
102
RTVSPost2010PropOp37
 70
     1
102
RTVSPost2010Prop38
140
0.0
102
RTVSPost2010PropOp38
 70
     1
102
RTVSPost2010Prop39
140
1.0
102
RTVSPost2010PropOp39
 70
     1
102
RTVSPost2010Prop40
 90
        0
102
RTVSPost2010PropOp40
 70
     1
102
RTVSPost2010Prop41ColorIndex
 90
       18
102
RTVSPost2010Prop41ColorRGB
 90
        0
102
RTVSPost2010PropOp41
 70
     1
102
RTVSPost2010Prop42
 90
       50
102
RTVSPost2010PropOp42
 70
     1
102
RTVSPost2010Prop43
 90
        3
102
RTVSPost2010PropOp43
 70
     1
102
RTVSPost2010Prop44ColorIndex
 90
        5
102
RTVSPost2010Prop44ColorRGB
 90
      255
102
RTVSPost2010PropOp44
 70
     1
102
RTVSPost2010Prop45
280
     0
102
RTVSPost2010PropOp45
 70
     1
102
RTVSPost2010Prop46
 90
       50
102
RTVSPost2010PropOp46
 70
     1
102
RTVSPost2010Prop47
 90
       50
102
RTVSPost2010PropOp47
 70
     1
102
RTVSPost2010Prop48
 90
       50
102
RTVSPost2010PropOp48
 70
     1
102
RTVSPost2010Prop49
280
     0
102
RTVSPost2010PropOp49
 70
     1
102
RTVSPost2010Prop50
 90
       50
102
RTVSPost2010PropOp50
 70
     1
102
RTVSPost2010Prop51ColorIndex
 90
      256
102
RTVSPost2010Prop51ColorRGB
 90
-16777216
102
RTVSPost2010PropOp51
 70
     0
102
RTVSPost2010Prop52
140
1.0
102
RTVSPost2010PropOp52
 70
     0
102
RTVSPost2010Prop53
 90
        2
102
RTVSPost2010PropOp53
 70
     1
102
RTVSPost2010Prop54
  1
strokes_ogs.tif
102
RTVSPost2010PropOp54
 70
     1
102
RTVSPost2010Prop55
280
     0
102
RTVSPost2010PropOp55
 70
     1
102
RTVSPost2010Prop56
140
1.0
102
RTVSPost2010PropOp56
 70
     1
102
RTVSPost2010Prop57
140
1.0
102
RTVSPost2010PropOp57
 70
     1
102
RTVSPropertyOp0
 70
     1
102
RTVSPropertyOp1
 70
     1
102
RTVSPropertyOp2
 70
     1
102
RTVSPropertyOp3
 70
     1
102
RTVSPropertyOp4
 70
     1
102
RTVSPropertyOp5
 70
     1
102
RTVSPropertyOp6
 70
     1
102
RTVSPropertyOp7
 70
     1
102
RTVSPropertyOp8
 70
     1
102
RTVSPropertyOp9
 70
     1
102
RTVSPropertyOp10
 70
     1
102
RTVSPropertyOp11
 70
     1
102
RTVSPropertyOp12
 70
     1
102
RTVSPropertyOp13
 70
     1
102
RTVSPropertyOp14
 70
     1
102
RTVSPropertyOp15
 70
     1
102
RTVSPropertyOp16
 70
     1
102
RTVSPropertyOp17
 70
     1
102
RTVSPropertyOp18
 70
     1
102
RTVSPropertyOp19
 70
     1
102
RTVSPropertyOp20
 70
     1
102
RTVSPropertyOp21
 70
     1
102
RTVSPropertyOp22
 70
     1
102
RTVSPropertyOp23
 70
     1
102
RTVSPropertyOp24
 70
     1
102
RTVSPropertyOp25
 70
     1
102
RTVSPropertyOp26
 70
     1
102
RTVSPropertyOp27
 70
     1
102
RTVSPropertyOp28
 70
     1
102
RTVSPropertyOp29
 70
     1
102
RTVSPropertyOp30
 70
     1
102
RTVSPropertyOp31
 70
     1
102
RTVSPropertyOp32
 70
     1
102
RTVSPropertyOp33
 70
     1
102
RTVSPropertyOp34
 70
     1
102
RTVSPropertyOp35
 70
     1
102
RTVSPropertyOp36
 70
     1
102
RTVSPropertyOp37
 70
     1
102
RTVSPropertyOp38
 70
     1
102
RTVSPropertyOp39
 70
     1
102
RTVSPropertyOp40
 70
     1
102
RTVSPropertyOp41
 70
     1
102
RTVSPropertyOp42
 70
     1
102
RTVSPropertyOp43
 70
     1
102
RTVSPropertyOp44
 70
     1
102
RTVSPropertyOp45
 70
     1
102
RTVSPropertyOp46
 70
     1
102
RTVSPropertyOp47
 70
     1
102
RTVSPropertyOp48
 70
     1
102
RTVSPropertyOp49
 70
     1
102
RTVSPropertyOp50
 70
     1
102
RTVSPropertyOp51
 70
     0
102
RTVSPropertyOp52
 70
     0
102
RTVSPropertyOp53
 70
     1
102
RTVSPropertyOp54
 70
     1
102
RTVSPropertyOp55
 70
     1
102
RTVSPropertyOp56
 70
     1
102
RTVSPropertyOp57
 70
     1
102
RTVSPropertyOp58
 70
     1
102
RTVSPropertyOp59
 70
     1
102
RTVSPropertyOp60
 70
     1
102
RTVSPropertyOp61
 70
     1
102
RTVSPropertyOp62
 70
     1
  0
ENDSEC
  0
EOF
