  0
SECTION
  2
HEADER
  9
$ACADVER
  1
AC1024
  9
$ACADMAINTVER
 70
   157
  9
$DWGCODEPAGE
  3
ANSI_932
  9
$LASTSAVEDBY
  1
CPTIO008
  9
$INSBASE
 10
0.0
 20
0.0
 30
0.0
  9
$EXTMIN
 10
-138.0084374665846
 20
-94.50578263984732
 30
-0.0015258207003583
  9
$EXTMAX
 10
138.5084387541382
 20
95.00578352227558
 30
0.0000000349246037
  9
$LIMMIN
 10
0.0
 20
0.0
  9
$LIMMAX
 10
138.5
 20
95.0
  9
$ORTHOMODE
 70
     0
  9
$REGENMODE
 70
     1
  9
$FILLMODE
 70
     1
  9
$QTEXTMODE
 70
     0
  9
$MIRRTEXT
 70
     1
  9
$LTSCALE
 40
0.3
  9
$ATTMODE
 70
     1
  9
$TEXTSIZE
 40
2.5
  9
$TRACEWID
 40
1.0
  9
$TEXTSTYLE
  7
Standard
  9
$CLAYER
  8
寸法線
  9
$CELTYPE
  6
ByLayer
  9
$CECOLOR
 62
   256
  9
$CELTSCALE
 40
1.0
  9
$DISPSILH
 70
     0
  9
$DIMSCALE
 40
1.0
  9
$DIMASZ
 40
2.5
  9
$DIMEXO
 40
0.625
  9
$DIMDLI
 40
3.75
  9
$DIMRND
 40
0.0
  9
$DIMDLE
 40
0.0
  9
$DIMEXE
 40
1.25
  9
$DIMTP
 40
0.0
  9
$DIMTM
 40
0.0
  9
$DIMTXT
 40
2.5
  9
$DIMCEN
 40
2.5
  9
$DIMTSZ
 40
0.0
  9
$DIMTOL
 70
     0
  9
$DIMLIM
 70
     0
  9
$DIMTIH
 70
     0
  9
$DIMTOH
 70
     0
  9
$DIMSE1
 70
     0
  9
$DIMSE2
 70
     0
  9
$DIMTAD
 70
     1
  9
$DIMZIN
 70
     8
  9
$DIMBLK
  1

  9
$DIMASO
 70
     1
  9
$DIMSHO
 70
     1
  9
$DIMPOST
  1

  9
$DIMAPOST
  1

  9
$DIMALT
 70
     0
  9
$DIMALTD
 70
     3
  9
$DIMALTF
 40
0.03937007874016
  9
$DIMLFAC
 40
1.0
  9
$DIMTOFL
 70
     1
  9
$DIMTVP
 40
0.0
  9
$DIMTIX
 70
     0
  9
$DIMSOXD
 70
     0
  9
$DIMSAH
 70
     0
  9
$DIMBLK1
  1

  9
$DIMBLK2
  1

  9
$DIMSTYLE
  2
ISO-25
  9
$DIMCLRD
 70
     0
  9
$DIMCLRE
 70
     0
  9
$DIMCLRT
 70
     0
  9
$DIMTFAC
 40
1.0
  9
$DIMGAP
 40
0.625
  9
$DIMJUST
 70
     0
  9
$DIMSD1
 70
     0
  9
$DIMSD2
 70
     0
  9
$DIMTOLJ
 70
     0
  9
$DIMTZIN
 70
     8
  9
$DIMALTZ
 70
     0
  9
$DIMALTTZ
 70
     0
  9
$DIMUPT
 70
     0
  9
$DIMDEC
 70
     2
  9
$DIMTDEC
 70
     2
  9
$DIMALTU
 70
     2
  9
$DIMALTTD
 70
     3
  9
$DIMTXSTY
  7
Standard
  9
$DIMAUNIT
 70
     0
  9
$DIMADEC
 70
     0
  9
$DIMALTRND
 40
0.0
  9
$DIMAZIN
 70
     0
  9
$DIMDSEP
 70
    44
  9
$DIMATFIT
 70
     3
  9
$DIMFRAC
 70
     0
  9
$DIMLDRBLK
  1

  9
$DIMLUNIT
 70
     2
  9
$DIMLWD
 70
    -2
  9
$DIMLWE
 70
    -2
  9
$DIMTMOVE
 70
     0
  9
$DIMFXL
 40
1.0
  9
$DIMFXLON
 70
     0
  9
$DIMJOGANG
 40
0.7853981633974483
  9
$DIMTFILL
 70
     0
  9
$DIMTFILLCLR
 70
     0
  9
$DIMARCSYM
 70
     0
  9
$DIMLTYPE
  6

  9
$DIMLTEX1
  6

  9
$DIMLTEX2
  6

  9
$DIMTXTDIRECTION
 70
     0
  9
$LUNITS
 70
     2
  9
$LUPREC
 70
     4
  9
$SKETCHINC
 40
1.0
  9
$FILLETRAD
 40
10.0
  9
$AUNITS
 70
     0
  9
$AUPREC
 70
     0
  9
$MENU
  1
.
  9
$ELEVATION
 40
0.0
  9
$PELEVATION
 40
0.0
  9
$THICKNESS
 40
0.0
  9
$LIMCHECK
 70
     0
  9
$CHAMFERA
 40
10.0
  9
$CHAMFERB
 40
10.0
  9
$CHAMFERC
 40
20.0
  9
$CHAMFERD
 40
0.0
  9
$SKPOLY
 70
     0
  9
$TDCREATE
 40
2454600.586742072
  9
$TDUCREATE
 40
2454600.211742072
  9
$TDUPDATE
 40
2457466.418063658
  9
$TDUUPDATE
 40
2457466.043063658
  9
$TDINDWG
 40
0.0722600463
  9
$TDUSRTIMER
 40
0.0722024884
  9
$USRTIMER
 70
     1
  9
$ANGBASE
 50
0.0
  9
$ANGDIR
 70
     0
  9
$PDMODE
 70
     0
  9
$PDSIZE
 40
0.0
  9
$PLINEWID
 40
0.0
  9
$SPLFRAME
 70
     0
  9
$SPLINETYPE
 70
     6
  9
$SPLINESEGS
 70
     8
  9
$HANDSEED
  5
A22
  9
$SURFTAB1
 70
     6
  9
$SURFTAB2
 70
     6
  9
$SURFTYPE
 70
     6
  9
$SURFU
 70
     6
  9
$SURFV
 70
     6
  9
$UCSBASE
  2

  9
$UCSNAME
  2

  9
$UCSORG
 10
0.0
 20
0.0
 30
0.0
  9
$UCSXDIR
 10
1.0
 20
0.0
 30
0.0
  9
$UCSYDIR
 10
0.0
 20
1.0
 30
0.0
  9
$UCSORTHOREF
  2

  9
$UCSORTHOVIEW
 70
     0
  9
$UCSORGTOP
 10
0.0
 20
0.0
 30
0.0
  9
$UCSORGBOTTOM
 10
0.0
 20
0.0
 30
0.0
  9
$UCSORGLEFT
 10
0.0
 20
0.0
 30
0.0
  9
$UCSORGRIGHT
 10
0.0
 20
0.0
 30
0.0
  9
$UCSORGFRONT
 10
0.0
 20
0.0
 30
0.0
  9
$UCSORGBACK
 10
0.0
 20
0.0
 30
0.0
  9
$PUCSBASE
  2

  9
$PUCSNAME
  2

  9
$PUCSORG
 10
0.0
 20
0.0
 30
0.0
  9
$PUCSXDIR
 10
1.0
 20
0.0
 30
0.0
  9
$PUCSYDIR
 10
0.0
 20
1.0
 30
0.0
  9
$PUCSORTHOREF
  2

  9
$PUCSORTHOVIEW
 70
     0
  9
$PUCSORGTOP
 10
0.0
 20
0.0
 30
0.0
  9
$PUCSORGBOTTOM
 10
0.0
 20
0.0
 30
0.0
  9
$PUCSORGLEFT
 10
0.0
 20
0.0
 30
0.0
  9
$PUCSORGRIGHT
 10
0.0
 20
0.0
 30
0.0
  9
$PUCSORGFRONT
 10
0.0
 20
0.0
 30
0.0
  9
$PUCSORGBACK
 10
0.0
 20
0.0
 30
0.0
  9
$USERI1
 70
     0
  9
$USERI2
 70
     0
  9
$USERI3
 70
     0
  9
$USERI4
 70
     0
  9
$USERI5
 70
     0
  9
$USERR1
 40
0.0
  9
$USERR2
 40
0.0
  9
$USERR3
 40
0.0
  9
$USERR4
 40
0.0
  9
$USERR5
 40
0.0
  9
$WORLDVIEW
 70
     1
  9
$SHADEDGE
 70
     3
  9
$SHADEDIF
 70
    70
  9
$TILEMODE
 70
     1
  9
$MAXACTVP
 70
    64
  9
$PINSBASE
 10
0.0
 20
0.0
 30
0.0
  9
$PLIMCHECK
 70
     0
  9
$PEXTMIN
 10
1.000000000000000E+20
 20
1.000000000000000E+20
 30
1.000000000000000E+20
  9
$PEXTMAX
 10
-1.000000000000000E+20
 20
-1.000000000000000E+20
 30
-1.000000000000000E+20
  9
$PLIMMIN
 10
-1108.76554107666
 20
-542.8267288208006
  9
$PLIMMAX
 10
1291.234855651856
 20
437.1732711791992
  9
$UNITMODE
 70
     0
  9
$VISRETAIN
 70
     1
  9
$PLINEGEN
 70
     0
  9
$PSLTSCALE
 70
     1
  9
$TREEDEPTH
 70
  3020
  9
$CMLSTYLE
  2
Standard
  9
$CMLJUST
 70
     0
  9
$CMLSCALE
 40
20.0
  9
$PROXYGRAPHICS
 70
     1
  9
$MEASUREMENT
 70
     1
  9
$CELWEIGHT
370
    -1
  9
$ENDCAPS
280
     0
  9
$JOINSTYLE
280
     0
  9
$LWDISPLAY
290
     1
  9
$INSUNITS
 70
     4
  9
$HYPERLINKBASE
  1

  9
$STYLESHEET
  1
monochrome.ctb
  9
$XEDIT
290
     1
  9
$CEPSNTYPE
380
     0
  9
$PSTYLEMODE
290
     1
  9
$FINGERPRINTGUID
  2
{93B0D1A6-A6D5-408F-BED3-4B2C6F4824F4}
  9
$VERSIONGUID
  2
{1EBF8A0F-735C-4FEE-BA2B-1EA21B6345BB}
  9
$EXTNAMES
290
     1
  9
$PSVPSCALE
 40
0.0
  9
$OLESTARTUP
290
     0
  9
$SORTENTS
280
   127
  9
$INDEXCTL
280
     0
  9
$HIDETEXT
280
     0
  9
$XCLIPFRAME
280
     2
  9
$HALOGAP
280
     0
  9
$OBSCOLOR
 70
   257
  9
$OBSLTYPE
280
     0
  9
$INTERSECTIONDISPLAY
280
     0
  9
$INTERSECTIONCOLOR
 70
   257
  9
$DIMASSOC
280
     1
  9
$PROJECTNAME
  1

  9
$CAMERADISPLAY
290
     0
  9
$LENSLENGTH
 40
50.0
  9
$CAMERAHEIGHT
 40
0.0
  9
$STEPSPERSEC
 40
2.0
  9
$STEPSIZE
 40
6.0
  9
$3DDWFPREC
 40
2.0
  9
$PSOLWIDTH
 40
0.25
  9
$PSOLHEIGHT
 40
4.0
  9
$LOFTANG1
 40
1.570796326794896
  9
$LOFTANG2
 40
1.570796326794896
  9
$LOFTMAG1
 40
0.0
  9
$LOFTMAG2
 40
0.0
  9
$LOFTPARAM
 70
     7
  9
$LOFTNORMALS
280
     1
  9
$LATITUDE
 40
37.795
  9
$LONGITUDE
 40
-122.394
  9
$NORTHDIRECTION
 40
0.0
  9
$TIMEZONE
 70
 -8000
  9
$LIGHTGLYPHDISPLAY
280
     1
  9
$TILEMODELIGHTSYNCH
280
     1
  9
$CMATERIAL
347
7EB
  9
$SOLIDHIST
280
     0
  9
$SHOWHIST
280
     1
  9
$DWFFRAME
280
     2
  9
$DGNFRAME
280
     0
  9
$REALWORLDSCALE
290
     1
  9
$INTERFERECOLOR
 62
     1
  9
$INTERFEREOBJVS
345
80D
  9
$INTERFEREVPVS
346
80A
  9
$CSHADOW
280
     0
  9
$SHADOWPLANELOCATION
 40
0.0
  0
ENDSEC
  0
SECTION
  2
CLASSES
  0
CLASS
  1
ACDBDICTIONARYWDFLT
  2
AcDbDictionaryWithDefault
  3
ObjectDBX Classes
 90
        0
 91
        1
280
     0
281
     0
  0
CLASS
  1
TABLESTYLE
  2
AcDbTableStyle
  3
ObjectDBX Classes
 90
     4095
 91
        1
280
     0
281
     0
  0
CLASS
  1
DICTIONARYVAR
  2
AcDbDictionaryVar
  3
ObjectDBX Classes
 90
        0
 91
       12
280
     0
281
     0
  0
CLASS
  1
SORTENTSTABLE
  2
AcDbSortentsTable
  3
ObjectDBX Classes
 90
        0
 91
        1
280
     0
281
     0
  0
CLASS
  1
PLOTSETTINGS
  2
AcDbPlotSettings
  3
ObjectDBX Classes
 90
        0
 91
        1
280
     0
281
     0
  0
CLASS
  1
MATERIAL
  2
AcDbMaterial
  3
ObjectDBX Classes
 90
     1153
 91
        3
280
     0
281
     0
  0
CLASS
  1
VISUALSTYLE
  2
AcDbVisualStyle
  3
ObjectDBX Classes
 90
     4095
 91
       24
280
     0
281
     0
  0
CLASS
  1
SCALE
  2
AcDbScale
  3
ObjectDBX Classes
 90
     1153
 91
       17
280
     0
281
     0
  0
CLASS
  1
MLEADERSTYLE
  2
AcDbMLeaderStyle
  3
ACDB_MLEADERSTYLE_CLASS
 90
     4095
 91
        1
280
     0
281
     0
  0
CLASS
  1
ACDBSECTIONVIEWSTYLE
  2
AcDbSectionViewStyle
  3
ObjectDBX Classes
 90
     1025
 91
        1
280
     0
281
     0
  0
CLASS
  1
ACDBDETAILVIEWSTYLE
  2
AcDbDetailViewStyle
  3
ObjectDBX Classes
 90
     1025
 91
        1
280
     0
281
     0
  0
CLASS
  1
CELLSTYLEMAP
  2
AcDbCellStyleMap
  3
ObjectDBX Classes
 90
     1152
 91
        3
280
     0
281
     0
  0
ENDSEC
  0
SECTION
  2
TABLES
  0
TABLE
  2
VPORT
  5
8
102
{ACAD_XDICTIONARY
360
8B9
102
}
330
0
100
AcDbSymbolTable
 70
     1
  0
VPORT
  5
7D3
330
8
100
AcDbSymbolTableRecord
100
AcDbViewportTableRecord
  2
*Active
 70
     0
 10
0.0
 20
0.0
 11
1.0
 21
1.0
 12
-9.197683947134919
 22
-16.72123151779698
 13
0.0
 23
0.0
 14
10.0
 24
10.0
 15
10.0
 25
10.0
 16
0.0
 26
0.0
 36
1.0
 17
0.0
 27
0.0
 37
0.0
 40
248.5064723553753
 41
2.398457583547557
 42
50.0
 43
0.0
 44
0.0
 50
0.0
 51
0.0
 71
     0
 72
   100
 73
     1
 74
     3
 75
     0
 76
     0
 77
     0
 78
     0
281
     0
 65
     1
110
0.0
120
0.0
130
0.0
111
1.0
121
0.0
131
0.0
112
0.0
122
1.0
132
0.0
 79
     0
146
0.0
348
809
 60
     3
 61
     5
292
     1
282
     1
141
0.0
142
0.0
 63
   250
421
  3355443
1001
ACAD_NAV_VCDISPLAY
1070
     3
  0
ENDTAB
  0
TABLE
  2
LTYPE
  5
5
330
0
100
AcDbSymbolTable
 70
     8
  0
LTYPE
  5
14
330
5
100
AcDbSymbolTableRecord
100
AcDbLinetypeTableRecord
  2
ByBlock
 70
     0
  3

 72
    65
 73
     0
 40
0.0
  0
LTYPE
  5
15
330
5
100
AcDbSymbolTableRecord
100
AcDbLinetypeTableRecord
  2
ByLayer
 70
     0
  3

 72
    65
 73
     0
 40
0.0
  0
LTYPE
  5
16
330
5
100
AcDbSymbolTableRecord
100
AcDbLinetypeTableRecord
  2
Continuous
 70
     0
  3
Solid line
 72
    65
 73
     0
 40
0.0
  0
LTYPE
  5
2A
330
5
100
AcDbSymbolTableRecord
100
AcDbLinetypeTableRecord
  2
CONTINOUS
 70
     0
  3
______________________________
 72
    65
 73
     0
 40
0.0
  0
LTYPE
  5
2B
330
5
100
AcDbSymbolTableRecord
100
AcDbLinetypeTableRecord
  2
DASHED
 70
     0
  3
__ __ __ __ __ __ __ __ __ __ __ __ __ __ __ __
 72
    65
 73
     2
 40
4.5
 49
3.0
 74
     0
 49
-1.5
 74
     0
  0
LTYPE
  5
2C
330
5
100
AcDbSymbolTableRecord
100
AcDbLinetypeTableRecord
  2
PHANTOM
 70
     0
  3
______  __  __  ______  __  __  _____
 72
    65
 73
     6
 40
15.0
 49
7.5
 74
     0
 49
-1.5
 74
     0
 49
1.5
 74
     0
 49
-1.5
 74
     0
 49
1.5
 74
     0
 49
-1.5
 74
     0
  0
LTYPE
  5
2D
330
5
100
AcDbSymbolTableRecord
100
AcDbLinetypeTableRecord
  2
CENTER
 70
     0
  3
____ _ ____ _ ____ _ ____ _ ____ _ ____
 72
    65
 73
     4
 40
12.0
 49
7.5
 74
     0
 49
-1.5
 74
     0
 49
1.5
 74
     0
 49
-1.5
 74
     0
  0
LTYPE
  5
293
330
5
100
AcDbSymbolTableRecord
100
AcDbLinetypeTableRecord
  2
CENTER2
 70
     0
  3
Center (.5x) ___ _ ___ _ ___ _ ___ _ ___ _ ___
 72
    65
 73
     4
 40
28.575
 49
19.05
 74
     0
 49
-3.174999999999998
 74
     0
 49
3.174999999999998
 74
     0
 49
-3.174999999999998
 74
     0
  0
LTYPE
  5
294
330
5
100
AcDbSymbolTableRecord
100
AcDbLinetypeTableRecord
  2
HIDDEN2
 70
     0
  3
Hidden (.5x) _ _ _ _ _ _ _ _ _ _ _ _ _ _ _ _ _
 72
    65
 73
     2
 40
4.762499999999998
 49
3.174999999999998
 74
     0
 49
-1.587499999999999
 74
     0
  0
ENDTAB
  0
TABLE
  2
LAYER
  5
2
330
0
100
AcDbSymbolTable
 70
    11
  0
LAYER
  5
10
102
{ACAD_XDICTIONARY
360
841
102
}
330
2
100
AcDbSymbolTableRecord
100
AcDbLayerTableRecord
  2
0
 70
     0
 62
     7
  6
Continuous
370
    -3
390
F
347
7FB
  0
LAYER
  5
1A9
330
2
100
AcDbSymbolTableRecord
100
AcDbLayerTableRecord
  2
Defpoints
 70
     0
 62
     7
  6
Continuous
290
     0
370
    -3
390
F
347
7FB
  0
LAYER
  5
210
102
{ACAD_XDICTIONARY
360
843
102
}
330
2
100
AcDbSymbolTableRecord
100
AcDbLayerTableRecord
  2
VIEW0001
 70
     0
 62
     7
  6
Continuous
370
    -3
390
F
347
7FB
  0
LAYER
  5
295
102
{ACAD_XDICTIONARY
360
845
102
}
330
2
100
AcDbSymbolTableRecord
100
AcDbLayerTableRecord
  2
外形線
 70
     0
 62
     7
  6
Continuous
370
    30
390
F
347
7FB
1001
AcAecLayerStandard
1000

1000

  0
LAYER
  5
296
102
{ACAD_XDICTIONARY
360
847
102
}
330
2
100
AcDbSymbolTableRecord
100
AcDbLayerTableRecord
  2
図枠
 70
     0
 62
     7
  6
Continuous
370
    50
390
F
347
7FB
1001
AcAecLayerStandard
1000

1000

  0
LAYER
  5
297
102
{ACAD_XDICTIONARY
360
849
102
}
330
2
100
AcDbSymbolTableRecord
100
AcDbLayerTableRecord
  2
寸法線
 70
     0
 62
     3
  6
Continuous
370
    15
390
F
347
7FB
1001
AcAecLayerStandard
1000

1000

  0
LAYER
  5
298
102
{ACAD_XDICTIONARY
360
84B
102
}
330
2
100
AcDbSymbolTableRecord
100
AcDbLayerTableRecord
  2
中心線
 70
     0
 62
     5
  6
CENTER2
370
    -3
390
F
347
7FB
1001
AcAecLayerStandard
1000

1000

  0
LAYER
  5
299
102
{ACAD_XDICTIONARY
360
84D
102
}
330
2
100
AcDbSymbolTableRecord
100
AcDbLayerTableRecord
  2
破線
 70
     0
 62
     4
  6
HIDDEN2
370
    -3
390
F
347
7FB
1001
AcAecLayerStandard
1000

1000

  0
LAYER
  5
29A
102
{ACAD_XDICTIONARY
360
84F
102
}
330
2
100
AcDbSymbolTableRecord
100
AcDbLayerTableRecord
  2
文字
 70
     0
 62
     2
  6
Continuous
370
    -3
390
F
347
7FB
1001
AcAecLayerStandard
1000

1000

  0
LAYER
  5
29B
102
{ACAD_XDICTIONARY
360
851
102
}
330
2
100
AcDbSymbolTableRecord
100
AcDbLayerTableRecord
  2
補助線
 70
     0
 62
   252
  6
HIDDEN2
290
     0
370
    -3
390
F
347
7FB
1001
AcAecLayerStandard
1000

1000

  0
LAYER
  5
31A
102
{ACAD_XDICTIONARY
360
853
102
}
330
2
100
AcDbSymbolTableRecord
100
AcDbLayerTableRecord
  2
VIEW0002
 70
     0
 62
     7
  6
Continuous
370
    -3
390
F
347
7FB
  0
ENDTAB
  0
TABLE
  2
STYLE
  5
3
330
0
100
AcDbSymbolTable
 70
     3
  0
STYLE
  5
11
330
3
100
AcDbSymbolTableRecord
100
AcDbTextStyleTableRecord
  2
Standard
 70
     0
 40
0.0
 41
1.0
 50
0.0
 71
     0
 42
2.5
  3
txt
  4
EXTFONT
  0
ENDTAB
  0
TABLE
  2
VIEW
  5
6
330
0
100
AcDbSymbolTable
 70
     0
  0
ENDTAB
  0
TABLE
  2
UCS
  5
7
330
0
100
AcDbSymbolTable
 70
     0
  0
ENDTAB
  0
TABLE
  2
APPID
  5
9
330
0
100
AcDbSymbolTable
 70
     6
  0
APPID
  5
12
330
9
100
AcDbSymbolTableRecord
100
AcDbRegAppTableRecord
  2
ACAD
 70
     0
  0
APPID
  5
29D
330
9
100
AcDbSymbolTableRecord
100
AcDbRegAppTableRecord
  2
AcAecLayerStandard
 70
     0
  0
APPID
  5
37E
330
9
100
AcDbSymbolTableRecord
100
AcDbRegAppTableRecord
  2
ACAD_PSEXT
 70
     0
  0
APPID
  5
838
330
9
100
AcDbSymbolTableRecord
100
AcDbRegAppTableRecord
  2
ACAD_NAV_VCDISPLAY
 70
     0
  0
APPID
  5
8A4
330
9
100
AcDbSymbolTableRecord
100
AcDbRegAppTableRecord
  2
ACAD_EXEMPT_FROM_CAD_STANDARDS
 70
     0
  0
APPID
  5
8FD
330
9
100
AcDbSymbolTableRecord
100
AcDbRegAppTableRecord
  2
ACAD_MLEADERVER
 70
     0
  0
ENDTAB
  0
TABLE
  2
DIMSTYLE
  5
A
330
0
100
AcDbSymbolTable
 70
     5
100
AcDbDimStyleTable
 71
     1
340
27
  0
DIMSTYLE
105
27
102
{ACAD_REACTORS
330
6BC
330
6BD
330
6BE
330
6BF
330
760
102
}
330
A
100
AcDbSymbolTableRecord
100
AcDbDimStyleTableRecord
  2
ISO-25
 70
     0
 41
2.5
 42
0.625
 43
3.75
 44
1.25
 73
     0
 74
     0
 77
     1
 78
     8
140
2.5
141
2.5
143
0.03937007874016
147
0.625
171
     3
172
     1
271
     2
272
     2
274
     3
278
    44
283
     0
284
     8
340
11
  0
DIMSTYLE
105
29C
330
A
100
AcDbSymbolTableRecord
100
AcDbDimStyleTableRecord
  2
Standard
 70
     0
340
11
  0
DIMSTYLE
105
837
330
A
100
AcDbSymbolTableRecord
100
AcDbDimStyleTableRecord
  2
DIMSTYLE
 70
     0
 41
1.0
 42
2.539999961853026
 44
2.54
 73
     0
 74
     0
140
3.200000047683716
147
1.600000023841858
173
     1
271
     2
275
     1
340
11
341
1A3
342
1A3
343
1A3
344
1A3
  0
ENDTAB
  0
TABLE
  2
BLOCK_RECORD
  5
1
330
0
100
AcDbSymbolTable
 70
     9
  0
BLOCK_RECORD
  5
1F
102
{ACAD_XDICTIONARY
360
307
102
}
330
1
100
AcDbSymbolTableRecord
100
AcDbBlockTableRecord
  2
*Model_Space
340
22
 70
     0
280
     1
281
     0
  0
BLOCK_RECORD
  5
1B
330
1
100
AcDbSymbolTableRecord
100
AcDbBlockTableRecord
  2
*Paper_Space
340
1E
 70
     0
280
     1
281
     0
  0
BLOCK_RECORD
  5
23
330
1
100
AcDbSymbolTableRecord
100
AcDbBlockTableRecord
  2
*Paper_Space0
340
26
 70
     0
280
     1
281
     0
  0
BLOCK_RECORD
  5
1A3
330
1
100
AcDbSymbolTableRecord
100
AcDbBlockTableRecord
  2
_Open30
340
0
102
{BLKREFS
331
7A7
331
7A8
331
7B0
331
7B1
331
7B9
331
7BA
331
7CC
331
7CD
331
7E4
331
7E5
102
}
 70
     0
280
     1
281
     0
  0
BLOCK_RECORD
  5
6C0
330
1
100
AcDbSymbolTableRecord
100
AcDbBlockTableRecord
  2
*D2
340
0
 70
     0
280
     1
281
     0
  0
BLOCK_RECORD
  5
6CC
330
1
100
AcDbSymbolTableRecord
100
AcDbBlockTableRecord
  2
*D3
340
0
 70
     0
280
     1
281
     0
  0
BLOCK_RECORD
  5
6D8
330
1
100
AcDbSymbolTableRecord
100
AcDbBlockTableRecord
  2
*D4
340
0
 70
     0
280
     1
281
     0
  0
BLOCK_RECORD
  5
6E4
330
1
100
AcDbSymbolTableRecord
100
AcDbBlockTableRecord
  2
*D5
340
0
 70
     0
280
     1
281
     0
  0
BLOCK_RECORD
  5
761
330
1
100
AcDbSymbolTableRecord
100
AcDbBlockTableRecord
  2
*D6
340
0
 70
     0
280
     1
281
     0
  0
ENDTAB
  0
ENDSEC
  0
SECTION
  2
BLOCKS
  0
BLOCK
  5
20
330
1F
100
AcDbEntity
  8
0
100
AcDbBlockBegin
  2
*Model_Space
 70
     0
 10
0.0
 20
0.0
 30
0.0
  3
*Model_Space
  1

  0
ENDBLK
  5
21
330
1F
100
AcDbEntity
  8
0
100
AcDbBlockEnd
  0
BLOCK
  5
1C
330
1B
100
AcDbEntity
 67
     1
  8
0
100
AcDbBlockBegin
  2
*Paper_Space
 70
     0
 10
0.0
 20
0.0
 30
0.0
  3
*Paper_Space
  1

  0
ENDBLK
  5
1D
330
1B
100
AcDbEntity
 67
     1
  8
0
100
AcDbBlockEnd
  0
BLOCK
  5
24
330
23
100
AcDbEntity
 67
     1
  8
0
100
AcDbBlockBegin
  2
*Paper_Space0
 70
     0
 10
0.0
 20
0.0
 30
0.0
  3
*Paper_Space0
  1

  0
ENDBLK
  5
25
330
23
100
AcDbEntity
 67
     1
  8
0
100
AcDbBlockEnd
  0
BLOCK
  5
1A4
330
1A3
100
AcDbEntity
  8
0
100
AcDbBlockBegin
  2
_Open30
 70
     0
 10
0.0
 20
0.0
 30
0.0
  3
_Open30
  1

  0
LINE
  5
1A6
330
1A3
100
AcDbEntity
  8
0
  6
ByBlock
 62
     0
370
    -2
100
AcDbLine
 10
-1.0
 20
0.267949
 30
0.0
 11
0.0
 21
0.0
 31
0.0
  0
LINE
  5
1A7
330
1A3
100
AcDbEntity
  8
0
  6
ByBlock
 62
     0
370
    -2
100
AcDbLine
 10
0.0
 20
0.0
 30
0.0
 11
-1.0
 21
-0.267949
 31
0.0
  0
LINE
  5
1A8
330
1A3
100
AcDbEntity
  8
0
  6
ByBlock
 62
     0
370
    -2
100
AcDbLine
 10
0.0
 20
0.0
 30
0.0
 11
-1.0
 21
0.0
 31
0.0
  0
ENDBLK
  5
1A5
330
1A3
100
AcDbEntity
  8
0
100
AcDbBlockEnd
  0
BLOCK
  5
6CA
330
6C0
100
AcDbEntity
  8
0
100
AcDbBlockBegin
  2
*D2
 70
     1
 10
0.0
 20
0.0
 30
0.0
  3
*D2
  1

  0
LINE
  5
7A4
330
6C0
100
AcDbEntity
  8
寸法線
 62
     0
440
 16777216
370
    -2
100
AcDbLine
 10
-48.70985389061413
 20
47.94658820783879
 30
0.0
 11
-34.1200084982031
 21
47.94658820783879
 31
0.0
  0
LINE
  5
7A5
330
6C0
100
AcDbEntity
  8
寸法線
 62
     0
440
 16777216
370
    -2
100
AcDbLine
 10
-48.70984816856821
 20
-13.65542061174128
 30
0.0
 11
-34.12000849820311
 21
-13.65542061174128
 31
0.0
  0
LINE
  5
7A6
330
6C0
100
AcDbEntity
  8
寸法線
 62
     0
440
 16777216
370
    -2
100
AcDbLine
 10
-36.40600849820314
 20
44.94658820783879
 30
0.0
 11
-36.40600849820315
 21
-10.65542061174128
 31
0.0
  0
INSERT
  5
7A7
330
6C0
100
AcDbEntity
  8
寸法線
 62
     0
440
 16777216
370
    -2
100
AcDbBlockReference
  2
_Open30
 10
-36.40600849820314
 20
47.94658820783879
 30
0.0
 41
3.0
 42
3.0
 43
3.0
 50
90.0
  0
INSERT
  5
7A8
330
6C0
100
AcDbEntity
  8
寸法線
 62
     0
440
 16777216
370
    -2
100
AcDbBlockReference
  2
_Open30
 10
-36.40600849820315
 20
-13.65542061174128
 30
0.0
 41
3.0
 42
3.0
 43
3.0
 50
270.0
  0
MTEXT
  5
7A9
330
6C0
100
AcDbEntity
  8
寸法線
 62
     0
440
 16777216
100
AcDbMText
 10
-38.80600853396592
 20
17.14558379804873
 30
0.0
 40
3.200000047683716
 41
0.0
 46
0.0
 71
     5
 72
     1
  1
L1
 11
0.0000000000000001
 21
1.0
 31
0.0
 73
     1
 44
1.0
  0
POINT
  5
7AA
330
6C0
100
AcDbEntity
  8
Defpoints
 62
     0
440
 16777216
100
AcDbPoint
 10
-51.24985389061412
 20
47.94658820783879
 30
0.0
  0
POINT
  5
7AB
330
6C0
100
AcDbEntity
  8
Defpoints
 62
     0
440
 16777216
100
AcDbPoint
 10
-51.24984816856819
 20
-13.65542061174128
 30
0.0
  0
POINT
  5
7AC
330
6C0
100
AcDbEntity
  8
Defpoints
 62
     0
440
 16777216
100
AcDbPoint
 10
-36.40600849820315
 20
-13.65542061174128
 30
0.0
  0
ENDBLK
  5
6CB
330
6C0
100
AcDbEntity
  8
0
100
AcDbBlockEnd
  0
BLOCK
  5
6D6
330
6CC
100
AcDbEntity
  8
0
100
AcDbBlockBegin
  2
*D3
 70
     1
 10
0.0
 20
0.0
 30
0.0
  3
*D3
  1

  0
LINE
  5
7AD
330
6CC
100
AcDbEntity
  8
寸法線
 62
     0
440
 16777216
370
    -2
100
AcDbLine
 10
-51.24984816856819
 20
-16.19542824113583
 30
0.0
 11
-51.24984816856819
 21
-31.72987135182803
 31
0.0
  0
LINE
  5
7AE
330
6CC
100
AcDbEntity
  8
寸法線
 62
     0
440
 16777216
370
    -2
100
AcDbLine
 10
-75.45584182091204
 20
-15.47069679582333
 30
0.0
 11
-75.45584182091204
 21
-31.72987135182803
 31
0.0
  0
LINE
  5
7AF
330
6CC
100
AcDbEntity
  8
寸法線
 62
     0
440
 16777216
370
    -2
100
AcDbLine
 10
-54.2498481685682
 20
-29.44387135182802
 30
0.0
 11
-72.45584182091204
 21
-29.44387135182802
 31
0.0
  0
INSERT
  5
7B0
330
6CC
100
AcDbEntity
  8
寸法線
 62
     0
440
 16777216
370
    -2
100
AcDbBlockReference
  2
_Open30
 10
-51.24984816856819
 20
-29.44387135182802
 30
0.0
 41
3.0
 42
3.0
 43
3.0
  0
INSERT
  5
7B1
330
6CC
100
AcDbEntity
  8
寸法線
 62
     0
440
 16777216
370
    -2
100
AcDbBlockReference
  2
_Open30
 10
-75.45584182091204
 20
-29.44387135182802
 30
0.0
 41
3.0
 42
3.0
 43
3.0
 50
180.0
  0
MTEXT
  5
7B2
102
{ACAD_XDICTIONARY
360
8C6
102
}
330
6CC
100
AcDbEntity
  8
寸法線
 62
     0
440
 16777216
100
AcDbMText
 10
-63.58839803677881
 20
-27.04387131606523
 30
0.0
 40
3.200000047683716
 41
0.0
 46
0.0
 71
     5
 72
     1
  1
∅A
 73
     1
 44
1.0
  0
POINT
  5
7B3
330
6CC
100
AcDbEntity
  8
Defpoints
 62
     0
440
 16777216
100
AcDbPoint
 10
-51.24984816856819
 20
-13.65542824113584
 30
0.0
  0
POINT
  5
7B4
330
6CC
100
AcDbEntity
  8
Defpoints
 62
     0
440
 16777216
100
AcDbPoint
 10
-75.45584182091204
 20
-12.93069679582333
 30
0.0
  0
POINT
  5
7B5
330
6CC
100
AcDbEntity
  8
Defpoints
 62
     0
440
 16777216
100
AcDbPoint
 10
-75.45584182091204
 20
-29.44387135182802
 30
0.0
  0
ENDBLK
  5
6D7
330
6CC
100
AcDbEntity
  8
0
100
AcDbBlockEnd
  0
BLOCK
  5
6E2
330
6D8
100
AcDbEntity
  8
0
100
AcDbBlockBegin
  2
*D4
 70
     1
 10
0.0
 20
0.0
 30
0.0
  3
*D4
  1

  0
LINE
  5
7B6
330
6D8
100
AcDbEntity
  8
寸法線
 62
     0
440
 16777216
370
    -2
100
AcDbLine
 10
-93.50428347516302
 20
29.39630827578204
 30
0.0
 11
-111.4362037503025
 21
11.28940756062439
 31
0.0
  0
LINE
  5
7B7
330
6D8
100
AcDbEntity
  8
寸法線
 62
     0
440
 16777216
370
    -2
100
AcDbLine
 10
-64.17608489935982
 20
1.333666989903739
 30
0.0
 11
-82.59905057598514
 21
-17.26907076863313
 31
0.0
  0
LINE
  5
7B8
330
6D8
100
AcDbEntity
  8
寸法線
 62
     0
440
 16777216
370
    -2
100
AcDbLine
 10
-107.6960300585318
 20
10.80268715280724
 30
0.0
 11
-83.12206674988194
 21
-13.53379968317731
 31
0.0
  0
INSERT
  5
7B9
330
6D8
100
AcDbEntity
  8
寸法線
 62
     0
440
 16777216
370
    -2
100
AcDbBlockReference
  2
_Open30
 10
-109.8276249913656
 20
12.91368289944373
 30
0.0
 41
3.0
 42
3.0
 43
3.0
 50
135.2781878444879
  0
INSERT
  5
7BA
330
6D8
100
AcDbEntity
  8
寸法線
 62
     0
440
 16777216
370
    -2
100
AcDbBlockReference
  2
_Open30
 10
-80.99047181704811
 20
-15.6447954298138
 30
0.0
 41
3.0
 42
3.0
 43
3.0
 50
315.278187844488
  0
MTEXT
  5
7BB
330
6D8
100
AcDbEntity
  8
寸法線
 62
     0
440
 16777216
100
AcDbMText
 10
-93.72025176147122
 20
0.3397196864269745
 30
0.0
 40
3.200000047683716
 41
0.0
 46
0.0
 71
     5
 72
     1
  1
L2
 11
0.7105316442779292
 21
-0.7036652488788278
 31
0.0
 73
     1
 44
1.0
  0
POINT
  5
7BC
330
6D8
100
AcDbEntity
  8
Defpoints
 62
     0
440
 16777216
100
AcDbPoint
 10
-91.71697374301079
 20
31.20105865224797
 30
0.0
  0
POINT
  5
7BD
330
6D8
100
AcDbEntity
  8
Defpoints
 62
     0
440
 16777216
100
AcDbPoint
 10
-62.38877516720761
 20
3.138417366369675
 30
0.0
  0
POINT
  5
7BE
330
6D8
100
AcDbEntity
  8
Defpoints
 62
     0
440
 16777216
100
AcDbPoint
 10
-80.99047181704811
 20
-15.6447954298138
 30
0.0
  0
ENDBLK
  5
6E3
330
6D8
100
AcDbEntity
  8
0
100
AcDbBlockEnd
  0
BLOCK
  5
6EF
330
6E4
100
AcDbEntity
  8
0
100
AcDbBlockBegin
  2
*D5
 70
     1
 10
0.0
 20
0.0
 30
0.0
  3
*D5
  1

  0
LINE
  5
7E1
330
6E4
100
AcDbEntity
  8
寸法線
 62
     0
440
 16777216
370
    -2
100
AcDbLine
 10
-63.35287175865054
 20
51.76239181797569
 30
0.0
 11
-63.35286686314709
 21
62.49748303233353
 31
0.0
  0
LINE
  5
7E2
330
6E4
100
AcDbEntity
  8
寸法線
 62
     0
440
 16777216
370
    -2
100
AcDbLine
 10
-97.093479537375
 20
36.57754894255702
 30
0.0
 11
-105.539253183354
 21
45.02332614816412
 31
0.0
  0
ARC
  5
7E3
330
6E4
100
AcDbEntity
  8
寸法線
 62
     0
440
 16777216
370
    -2
100
AcDbCircle
 10
-63.35289407002804
 20
2.836949254613841
 30
0.0
 40
58.66053349648335
100
AcDbArc
 50
92.93049744098967
 51
132.0694643563413
  0
INSERT
  5
7E4
330
6E4
100
AcDbEntity
  8
寸法線
 62
     0
440
 16777216
370
    -2
100
AcDbBlockReference
  2
_Open30
 10
-63.35286731917533
 20
61.49748275109108
 30
0.0
 41
3.0
 42
3.0
 43
3.0
 50
1.46523565625158
  0
INSERT
  5
7E5
330
6E4
100
AcDbEntity
  8
寸法線
 62
     0
440
 16777216
370
    -2
100
AcDbBlockReference
  2
_Open30
 10
-104.8321463523106
 20
44.31621901909742
 30
0.0
 41
3.0
 42
3.0
 43
3.0
 50
223.5347261410794
  0
MTEXT
  5
7E6
330
6E4
100
AcDbEntity
  8
寸法線
 62
     0
440
 16777216
100
AcDbMText
 10
-86.71972883472724
 20
59.24953462633563
 30
0.0
 40
3.200000047683716
 41
0.0
 46
0.0
 71
     5
 72
     1
  1
45°
 11
0.9238796667561091
 21
0.3826831082692578
 31
0.0
 73
     1
 44
1.0
  0
POINT
  5
7E7
330
6E4
100
AcDbEntity
  8
Defpoints
 62
     0
440
 16777216
100
AcDbPoint
 10
-63.35289407002804
 20
2.836949254613841
 30
0.0
  0
POINT
  5
7E8
330
6E4
100
AcDbEntity
  8
Defpoints
 62
     0
440
 16777216
100
AcDbPoint
 10
-63.35287291696196
 20
49.22239181797596
 30
0.0
  0
POINT
  5
7E9
330
6E4
100
AcDbEntity
  8
Defpoints
 62
     0
440
 16777216
100
AcDbPoint
 10
-95.29742869165069
 20
34.78149733985373
 30
0.0
  0
POINT
  5
7EA
330
6E4
100
AcDbEntity
  8
Defpoints
 62
     0
440
 16777216
100
AcDbPoint
 10
-92.68314595888377
 20
53.63847004118399
 30
0.0
  0
ENDBLK
  5
6F0
330
6E4
100
AcDbEntity
  8
0
100
AcDbBlockEnd
  0
BLOCK
  5
76B
330
761
100
AcDbEntity
  8
0
100
AcDbBlockBegin
  2
*D6
 70
     1
 10
0.0
 20
0.0
 30
0.0
  3
*D6
  1

  0
LINE
  5
7C9
330
761
100
AcDbEntity
  8
寸法線
 62
     0
440
 16777216
370
    -2
100
AcDbLine
 10
-73.73824052162615
 20
-13.66291939103818
 30
0.0
 11
-73.73824052162615
 21
-24.18138978712369
 31
0.0
  0
LINE
  5
7CA
330
761
100
AcDbEntity
  8
寸法線
 62
     0
440
 16777216
370
    -2
100
AcDbLine
 10
-52.96744803734261
 20
-13.66291939103818
 30
0.0
 11
-52.96744803734261
 21
-24.18138978712369
 31
0.0
  0
LINE
  5
7CB
330
761
100
AcDbEntity
  8
寸法線
 62
     0
440
 16777216
370
    -2
100
AcDbLine
 10
-70.73824052162615
 20
-23.18138978712369
 30
0.0
 11
-55.96744803734261
 21
-23.18138978712369
 31
0.0
  0
INSERT
  5
7CC
330
761
100
AcDbEntity
  8
寸法線
 62
     0
440
 16777216
370
    -2
100
AcDbBlockReference
  2
_Open30
 10
-73.73824052162615
 20
-23.18138978712369
 30
0.0
 41
3.0
 42
3.0
 43
3.0
 50
180.0
  0
INSERT
  5
7CD
330
761
100
AcDbEntity
  8
寸法線
 62
     0
440
 16777216
370
    -2
100
AcDbBlockReference
  2
_Open30
 10
-52.96744803734261
 20
-23.18138978712369
 30
0.0
 41
3.0
 42
3.0
 43
3.0
  0
MTEXT
  5
7CE
102
{ACAD_XDICTIONARY
360
8C8
102
}
330
761
100
AcDbEntity
  8
寸法線
 62
     0
440
 16777216
100
AcDbMText
 10
-63.35284427948439
 20
-20.78138975136091
 30
0.0
 40
3.200000047683716
 41
0.0
 46
0.0
 71
     5
 72
     1
  1
∅B
 73
     1
 44
1.0
  0
POINT
  5
7CF
330
761
100
AcDbEntity
  8
Defpoints
 62
     0
440
 16777216
100
AcDbPoint
 10
-73.73824052162615
 20
-11.12291939103818
 30
0.0
  0
POINT
  5
7D0
330
761
100
AcDbEntity
  8
Defpoints
 62
     0
440
 16777216
100
AcDbPoint
 10
-52.96744803734261
 20
-11.12291939103818
 30
0.0
  0
POINT
  5
7D1
330
761
100
AcDbEntity
  8
Defpoints
 62
     0
440
 16777216
100
AcDbPoint
 10
-52.96744803734261
 20
-23.18138978712369
 30
0.0
  0
ENDBLK
  5
76C
330
761
100
AcDbEntity
  8
0
100
AcDbBlockEnd
  0
ENDSEC
  0
SECTION
  2
ENTITIES
  0
LINE
  5
2E
330
1F
100
AcDbEntity
  8
0
  6
Continuous
 62
     7
100
AcDbLine
 10
3.951605081558227
 20
44.36328125
 30
0.0
 11
108.9516067504883
 21
44.36328125
 31
0.0
  0
LINE
  5
2F
330
1F
100
AcDbEntity
  8
0
  6
Continuous
 62
     7
100
AcDbLine
 10
3.951605081558227
 20
-27.63671684265137
 30
0.0
 11
108.9516067504883
 21
-27.63671684265137
 31
0.0
  0
LINE
  5
30
330
1F
100
AcDbEntity
  8
0
  6
Continuous
 62
     7
100
AcDbLine
 10
3.951605081558225
 20
68.3632755279541
 30
0.0
 11
3.951605081558227
 21
-27.63671684265137
 31
0.0
  0
LINE
  5
31
330
1F
100
AcDbEntity
  8
0
  6
Continuous
 62
     7
100
AcDbLine
 10
28.95160484313965
 20
68.3632755279541
 30
0.0
 11
28.95160484313965
 21
-27.63671684265137
 31
0.0
  0
LINE
  5
32
330
1F
100
AcDbEntity
  8
0
  6
Continuous
 62
     7
100
AcDbLine
 10
48.95160675048828
 20
68.3632755279541
 30
0.0
 11
48.95160675048828
 21
-27.63671684265137
 31
0.0
  0
LINE
  5
33
330
1F
100
AcDbEntity
  8
0
  6
Continuous
 62
     7
100
AcDbLine
 10
68.95160675048828
 20
68.3632755279541
 30
0.0
 11
68.95160675048828
 21
-27.63671684265137
 31
0.0
  0
LINE
  5
34
330
1F
100
AcDbEntity
  8
0
  6
Continuous
 62
     7
100
AcDbLine
 10
88.95160675048828
 20
68.3632755279541
 30
0.0
 11
88.95160675048828
 21
-27.63671684265137
 31
0.0
  0
LINE
  5
35
330
1F
100
AcDbEntity
  8
0
  6
Continuous
 62
     7
100
AcDbLine
 10
108.9516067504883
 20
68.3632755279541
 30
0.0
 11
108.9516067504883
 21
-27.63671684265137
 31
0.0
  0
LINE
  5
39
330
1F
100
AcDbEntity
  8
0
  6
Continuous
 62
     7
100
AcDbLine
 10
3.951605081558227
 20
32.36328411102295
 30
0.0
 11
108.9516067504883
 21
32.36328411102295
 31
0.0
  0
LINE
  5
3A
330
1F
100
AcDbEntity
  8
0
  6
Continuous
 62
     7
100
AcDbLine
 10
3.951605081558227
 20
26.36328411102295
 30
0.0
 11
108.9516067504883
 21
26.36328411102295
 31
0.0
  0
LINE
  5
3B
330
1F
100
AcDbEntity
  8
0
  6
Continuous
 62
     7
100
AcDbLine
 10
3.951605081558227
 20
20.36328411102295
 30
0.0
 11
108.9516067504883
 21
20.36328411102295
 31
0.0
  0
LINE
  5
3C
330
1F
100
AcDbEntity
  8
0
  6
Continuous
 62
     7
100
AcDbLine
 10
3.951605081558227
 20
14.36328411102294
 30
0.0
 11
108.9516067504883
 21
14.36328411102294
 31
0.0
  0
LINE
  5
3D
330
1F
100
AcDbEntity
  8
0
  6
Continuous
 62
     7
100
AcDbLine
 10
3.951605081558227
 20
8.363284111022945
 30
0.0
 11
108.9516067504883
 21
8.363284111022945
 31
0.0
  0
LINE
  5
3E
330
1F
100
AcDbEntity
  8
0
  6
Continuous
 62
     7
100
AcDbLine
 10
3.951605081558227
 20
2.36328411102295
 30
0.0
 11
108.9516067504883
 21
2.36328411102295
 31
0.0
  0
LINE
  5
3F
330
1F
100
AcDbEntity
  8
0
  6
Continuous
 62
     7
100
AcDbLine
 10
3.951605081558227
 20
-3.636714935302741
 30
0.0
 11
108.9516067504883
 21
-3.636714935302741
 31
0.0
  0
LINE
  5
40
330
1F
100
AcDbEntity
  8
0
  6
Continuous
 62
     7
100
AcDbLine
 10
3.951605081558227
 20
-9.636714935302739
 30
0.0
 11
108.9516067504883
 21
-9.636714935302739
 31
0.0
  0
LINE
  5
41
330
1F
100
AcDbEntity
  8
0
  6
Continuous
 62
     7
100
AcDbLine
 10
3.951605081558227
 20
-15.63671684265137
 30
0.0
 11
108.9516067504883
 21
-15.63671684265137
 31
0.0
  0
LINE
  5
42
330
1F
100
AcDbEntity
  8
0
  6
Continuous
 62
     7
100
AcDbLine
 10
3.951605081558227
 20
-21.63671684265137
 30
0.0
 11
108.9516067504883
 21
-21.63671684265137
 31
0.0
  0
LINE
  5
43
330
1F
100
AcDbEntity
  8
0
  6
Continuous
 62
     7
100
AcDbLine
 10
3.951605081558227
 20
38.36328125
 30
0.0
 11
108.9516067504883
 21
38.36328125
 31
0.0
  0
LINE
  5
44
330
1F
100
AcDbEntity
  8
0
  6
Continuous
 62
     7
100
AcDbLine
 10
3.951605081558225
 20
68.3632755279541
 30
0.0
 11
3.951605081558227
 21
-27.63671684265137
 31
0.0
  0
LINE
  5
45
330
1F
100
AcDbEntity
  8
0
  6
Continuous
 62
     7
100
AcDbLine
 10
28.95160484313965
 20
68.3632755279541
 30
0.0
 11
28.95160484313965
 21
-27.63671684265137
 31
0.0
  0
LINE
  5
46
330
1F
100
AcDbEntity
  8
0
  6
Continuous
 62
     7
100
AcDbLine
 10
48.95160675048828
 20
68.3632755279541
 30
0.0
 11
48.95160675048828
 21
-27.63671684265137
 31
0.0
  0
LINE
  5
47
330
1F
100
AcDbEntity
  8
0
  6
Continuous
 62
     7
100
AcDbLine
 10
68.95160675048828
 20
68.3632755279541
 30
0.0
 11
68.95160675048828
 21
-27.63671684265137
 31
0.0
  0
LINE
  5
48
330
1F
100
AcDbEntity
  8
0
  6
Continuous
 62
     7
100
AcDbLine
 10
88.95160675048828
 20
68.3632755279541
 30
0.0
 11
88.95160675048828
 21
-27.63671684265137
 31
0.0
  0
LINE
  5
49
330
1F
100
AcDbEntity
  8
0
  6
Continuous
 62
     7
100
AcDbLine
 10
108.9516067504883
 20
68.3632755279541
 30
0.0
 11
108.9516067504883
 21
-27.63671684265137
 31
0.0
  0
MTEXT
  5
154
330
1F
100
AcDbEntity
  8
0
 62
     7
100
AcDbMText
 10
6.199498452521652
 20
-26.23671686649323
 30
0.0
 40
3.200000047683716
 41
0.0
 46
0.0
 71
     7
 72
     1
  1
{\W1;TDW1000}
 73
     1
 44
1.0
  0
MTEXT
  5
155
330
1F
100
AcDbEntity
  8
0
 62
     7
100
AcDbMText
 10
38.95160484313965
 20
-24.63671684265137
 30
0.0
 40
3.200000047683716
 41
0.0
 46
0.0
 71
     5
 72
     1
  1
{\W1;1219}
 73
     1
 44
1.0
  0
MTEXT
  5
156
330
1F
100
AcDbEntity
  8
0
 62
     7
100
AcDbMText
 10
58.95160484313965
 20
-24.63671684265137
 30
0.0
 40
3.200000047683716
 41
0.0
 46
0.0
 71
     5
 72
     1
  1
{\W1;1000}
 73
     1
 44
1.0
  0
MTEXT
  5
157
330
1F
100
AcDbEntity
  8
0
 62
     7
100
AcDbMText
 10
16.45160496234893
 20
65.3632755279541
 30
0.0
 40
3.200000047683716
 41
0.0
 46
0.0
 71
     5
 72
     1
  1
{\W0.833333;呼称径}
 73
     1
 44
1.0
  0
MTEXT
  5
158
102
{ACAD_XDICTIONARY
360
8BB
102
}
330
1F
100
AcDbEntity
  8
0
 62
     7
100
AcDbMText
 10
38.95160484313965
 20
65.44040297087722
 30
0.0
 40
3.200000047683716
 41
0.0
 46
0.0
 71
     5
 72
     1
  1
{\W1;∅A}
 73
     1
 44
1.0
  0
MTEXT
  5
159
102
{ACAD_XDICTIONARY
360
8BD
102
}
330
1F
100
AcDbEntity
  8
0
 62
     7
100
AcDbMText
 10
58.95160484313965
 20
65.3632749557495
 30
0.0
 40
3.200000047683716
 41
0.0
 46
0.0
 71
     5
 72
     1
  1
{\W1;∅B}
 73
     1
 44
1.0
  0
MTEXT
  5
15A
330
1F
100
AcDbEntity
  8
0
 62
     7
100
AcDbMText
 10
78.95160675048828
 20
65.3632755279541
 30
0.0
 40
3.200000047683716
 41
0.0
 46
0.0
 71
     5
 72
     1
  1
{\W1;L1}
 73
     1
 44
1.0
  0
MTEXT
  5
15B
330
1F
100
AcDbEntity
  8
0
 62
     7
100
AcDbMText
 10
98.95160675048828
 20
65.3632755279541
 30
0.0
 40
3.200000047683716
 41
0.0
 46
0.0
 71
     5
 72
     1
  1
{\W1;L2}
 73
     1
 44
1.0
  0
MTEXT
  5
162
330
1F
100
AcDbEntity
  8
0
 62
     7
100
AcDbMText
 10
6.308747053146361
 20
33.76328504085542
 30
0.0
 40
3.200000047683716
 41
0.0
 46
0.0
 71
     7
 72
     1
  1
{\W1;TDW250}
 73
     1
 44
1.0
  0
MTEXT
  5
163
330
1F
100
AcDbEntity
  8
0
 62
     7
100
AcDbMText
 10
38.80268915450597
 20
35.36328506469726
 30
0.0
 40
3.200000047683716
 41
0.0
 46
0.0
 71
     5
 72
     1
  1
290
 73
     1
 44
1.0
  0
MTEXT
  5
164
330
1F
100
AcDbEntity
  8
0
 62
     7
100
AcDbMText
 10
58.95160484313965
 20
35.36328506469726
 30
0.0
 40
3.200000047683716
 41
0.0
 46
0.0
 71
     5
 72
     1
  1
{\W1;250}
 73
     1
 44
1.0
  0
MTEXT
  5
165
330
1F
100
AcDbEntity
  8
0
 62
     7
100
AcDbMText
 10
6.308747053146361
 20
27.76328408718109
 30
0.0
 40
3.200000047683716
 41
0.0
 46
0.0
 71
     7
 72
     1
  1
{\W1;TDW300}
 73
     1
 44
1.0
  0
MTEXT
  5
166
330
1F
100
AcDbEntity
  8
0
 62
     7
100
AcDbMText
 10
38.95160484313965
 20
29.36328411102295
 30
0.0
 40
3.200000047683716
 41
0.0
 46
0.0
 71
     5
 72
     1
  1
{\W1;365}
 73
     1
 44
1.0
  0
MTEXT
  5
167
330
1F
100
AcDbEntity
  8
0
 62
     7
100
AcDbMText
 10
58.95160484313965
 20
29.36328411102295
 30
0.0
 40
3.200000047683716
 41
0.0
 46
0.0
 71
     5
 72
     1
  1
{\W1;300}
 73
     1
 44
1.0
  0
MTEXT
  5
168
330
1F
100
AcDbEntity
  8
0
 62
     7
100
AcDbMText
 10
6.308747053146361
 20
21.76328408718109
 30
0.0
 40
3.200000047683716
 41
0.0
 46
0.0
 71
     7
 72
     1
  1
{\W1;TDW350}
 73
     1
 44
1.0
  0
MTEXT
  5
169
330
1F
100
AcDbEntity
  8
0
 62
     7
100
AcDbMText
 10
38.95160484313965
 20
23.36328411102295
 30
0.0
 40
3.200000047683716
 41
0.0
 46
0.0
 71
     5
 72
     1
  1
{\W1;426}
 73
     1
 44
1.0
  0
MTEXT
  5
16A
330
1F
100
AcDbEntity
  8
0
 62
     7
100
AcDbMText
 10
58.95160484313965
 20
23.36328411102295
 30
0.0
 40
3.200000047683716
 41
0.0
 46
0.0
 71
     5
 72
     1
  1
{\W1;350}
 73
     1
 44
1.0
  0
MTEXT
  5
16B
330
1F
100
AcDbEntity
  8
0
 62
     7
100
AcDbMText
 10
6.308747053146361
 20
15.76328414678573
 30
0.0
 40
3.200000047683716
 41
0.0
 46
0.0
 71
     7
 72
     1
  1
{\W1;TDW400}
 73
     1
 44
1.0
  0
MTEXT
  5
16C
330
1F
100
AcDbEntity
  8
0
 62
     7
100
AcDbMText
 10
38.95160484313965
 20
17.36328417062759
 30
0.0
 40
3.200000047683716
 41
0.0
 46
0.0
 71
     5
 72
     1
  1
{\W1;485}
 73
     1
 44
1.0
  0
MTEXT
  5
16D
330
1F
100
AcDbEntity
  8
0
 62
     7
100
AcDbMText
 10
58.95160484313965
 20
17.36328417062759
 30
0.0
 40
3.200000047683716
 41
0.0
 46
0.0
 71
     5
 72
     1
  1
{\W1;400}
 73
     1
 44
1.0
  0
MTEXT
  5
16E
330
1F
100
AcDbEntity
  8
0
 62
     7
100
AcDbMText
 10
6.308747053146361
 20
9.763284087181084
 30
0.0
 40
3.200000047683716
 41
0.0
 46
0.0
 71
     7
 72
     1
  1
{\W1;TDW450}
 73
     1
 44
1.0
  0
MTEXT
  5
16F
330
1F
100
AcDbEntity
  8
0
 62
     7
100
AcDbMText
 10
38.95160484313965
 20
11.36328411102294
 30
0.0
 40
3.200000047683716
 41
0.0
 46
0.0
 71
     5
 72
     1
  1
{\W1;546}
 73
     1
 44
1.0
  0
MTEXT
  5
170
330
1F
100
AcDbEntity
  8
0
 62
     7
100
AcDbMText
 10
58.95160484313965
 20
11.36328411102294
 30
0.0
 40
3.200000047683716
 41
0.0
 46
0.0
 71
     5
 72
     1
  1
{\W1;450}
 73
     1
 44
1.0
  0
MTEXT
  5
171
330
1F
100
AcDbEntity
  8
0
 62
     7
100
AcDbMText
 10
6.308747053146361
 20
3.763284087181089
 30
0.0
 40
3.200000047683716
 41
0.0
 46
0.0
 71
     7
 72
     1
  1
{\W1;TDW500}
 73
     1
 44
1.0
  0
MTEXT
  5
172
330
1F
100
AcDbEntity
  8
0
 62
     7
100
AcDbMText
 10
38.95160484313965
 20
5.363284111022947
 30
0.0
 40
3.200000047683716
 41
0.0
 46
0.0
 71
     5
 72
     1
  1
{\W1;614}
 73
     1
 44
1.0
  0
MTEXT
  5
173
330
1F
100
AcDbEntity
  8
0
 62
     7
100
AcDbMText
 10
58.95160484313965
 20
5.363284111022947
 30
0.0
 40
3.200000047683716
 41
0.0
 46
0.0
 71
     5
 72
     1
  1
{\W1;500}
 73
     1
 44
1.0
  0
MTEXT
  5
174
330
1F
100
AcDbEntity
  8
0
 62
     7
100
AcDbMText
 10
6.308747053146361
 20
-2.236714959144598
 30
0.0
 40
3.200000047683716
 41
0.0
 46
0.0
 71
     7
 72
     1
  1
{\W1;TDW600}
 73
     1
 44
1.0
  0
MTEXT
  5
175
330
1F
100
AcDbEntity
  8
0
 62
     7
100
AcDbMText
 10
38.95160484313965
 20
-0.6367149353027402
 30
0.0
 40
3.200000047683716
 41
0.0
 46
0.0
 71
     5
 72
     1
  1
{\W1;707}
 73
     1
 44
1.0
  0
MTEXT
  5
176
330
1F
100
AcDbEntity
  8
0
 62
     7
100
AcDbMText
 10
58.95160484313965
 20
-0.6367149353027402
 30
0.0
 40
3.200000047683716
 41
0.0
 46
0.0
 71
     5
 72
     1
  1
{\W1;600}
 73
     1
 44
1.0
  0
MTEXT
  5
177
330
1F
100
AcDbEntity
  8
0
 62
     7
100
AcDbMText
 10
6.308747053146361
 20
-8.236714959144597
 30
0.0
 40
3.200000047683716
 41
0.0
 46
0.0
 71
     7
 72
     1
  1
{\W1;TDW700}
 73
     1
 44
1.0
  0
MTEXT
  5
178
330
1F
100
AcDbEntity
  8
0
 62
     7
100
AcDbMText
 10
38.95160484313965
 20
-6.636714935302737
 30
0.0
 40
3.200000047683716
 41
0.0
 46
0.0
 71
     5
 72
     1
  1
{\W1;858}
 73
     1
 44
1.0
  0
MTEXT
  5
179
330
1F
100
AcDbEntity
  8
0
 62
     7
100
AcDbMText
 10
58.95160484313965
 20
-6.636714935302737
 30
0.0
 40
3.200000047683716
 41
0.0
 46
0.0
 71
     5
 72
     1
  1
{\W1;700}
 73
     1
 44
1.0
  0
MTEXT
  5
17A
330
1F
100
AcDbEntity
  8
0
 62
     7
100
AcDbMText
 10
6.308747053146361
 20
-14.2367149591446
 30
0.0
 40
3.200000047683716
 41
0.0
 46
0.0
 71
     7
 72
     1
  1
{\W1;TDW800}
 73
     1
 44
1.0
  0
MTEXT
  5
17B
330
1F
100
AcDbEntity
  8
0
 62
     7
100
AcDbMText
 10
39.06935582514628
 20
-12.63671493530274
 30
0.0
 40
3.200000047683716
 41
0.0
 46
0.0
 71
     5
 72
     1
  1
{\W1;973}
 73
     1
 44
1.0
  0
MTEXT
  5
17C
330
1F
100
AcDbEntity
  8
0
 62
     7
100
AcDbMText
 10
58.95160484313965
 20
-12.63671493530274
 30
0.0
 40
3.200000047683716
 41
0.0
 46
0.0
 71
     5
 72
     1
  1
{\W1;800}
 73
     1
 44
1.0
  0
MTEXT
  5
17D
330
1F
100
AcDbEntity
  8
0
 62
     7
100
AcDbMText
 10
6.308747053146361
 20
-20.23671686649323
 30
0.0
 40
3.200000047683716
 41
0.0
 46
0.0
 71
     7
 72
     1
  1
{\W1;TDW900}
 73
     1
 44
1.0
  0
MTEXT
  5
17E
330
1F
100
AcDbEntity
  8
0
 62
     7
100
AcDbMText
 10
38.95160484313965
 20
-18.63671684265137
 30
0.0
 40
3.200000047683716
 41
0.0
 46
0.0
 71
     5
 72
     1
  1
{\W1;1096}
 73
     1
 44
1.0
  0
MTEXT
  5
17F
330
1F
100
AcDbEntity
  8
0
 62
     7
100
AcDbMText
 10
58.95160484313965
 20
-18.63671684265137
 30
0.0
 40
3.200000047683716
 41
0.0
 46
0.0
 71
     5
 72
     1
  1
{\W1;900}
 73
     1
 44
1.0
  0
MTEXT
  5
183
330
1F
100
AcDbEntity
  8
0
 62
     7
100
AcDbMText
 10
98.95160484313965
 20
-24.63671684265137
 30
0.0
 40
3.200000047683716
 41
0.0
 46
0.0
 71
     5
 72
     1
  1
{\W1;1990}
 73
     1
 44
1.0
  0
MTEXT
  5
184
330
1F
100
AcDbEntity
  8
0
 62
     7
100
AcDbMText
 10
98.95160484313965
 20
-18.63671684265137
 30
0.0
 40
3.200000047683716
 41
0.0
 46
0.0
 71
     5
 72
     1
  1
{\W1;1820}
 73
     1
 44
1.0
  0
MTEXT
  5
185
330
1F
100
AcDbEntity
  8
0
 62
     7
100
AcDbMText
 10
98.95160484313965
 20
-12.63671493530274
 30
0.0
 40
3.200000047683716
 41
0.0
 46
0.0
 71
     5
 72
     1
  1
{\W1;1650}
 73
     1
 44
1.0
  0
MTEXT
  5
186
330
1F
100
AcDbEntity
  8
0
 62
     7
100
AcDbMText
 10
98.95160484313965
 20
-6.636714935302737
 30
0.0
 40
3.200000047683716
 41
0.0
 46
0.0
 71
     5
 72
     1
  1
{\W1;1480}
 73
     1
 44
1.0
  0
MTEXT
  5
187
330
1F
100
AcDbEntity
  8
0
 62
     7
100
AcDbMText
 10
98.95160484313965
 20
-0.6367149353027398
 30
0.0
 40
3.200000047683716
 41
0.0
 46
0.0
 71
     5
 72
     1
  1
{\W1;1280}
 73
     1
 44
1.0
  0
MTEXT
  5
188
330
1F
100
AcDbEntity
  8
0
 62
     7
100
AcDbMText
 10
98.95160484313965
 20
5.363284111022947
 30
0.0
 40
3.200000047683716
 41
0.0
 46
0.0
 71
     5
 72
     1
  1
{\W1;1100}
 73
     1
 44
1.0
  0
MTEXT
  5
189
330
1F
100
AcDbEntity
  8
0
 62
     7
100
AcDbMText
 10
98.95160484313965
 20
11.36328411102294
 30
0.0
 40
3.200000047683716
 41
0.0
 46
0.0
 71
     5
 72
     1
  1
{\W1;910}
 73
     1
 44
1.0
  0
MTEXT
  5
18A
330
1F
100
AcDbEntity
  8
0
 62
     7
100
AcDbMText
 10
98.95160484313965
 20
17.36328417062759
 30
0.0
 40
3.200000047683716
 41
0.0
 46
0.0
 71
     5
 72
     1
  1
{\W1;820}
 73
     1
 44
1.0
  0
MTEXT
  5
18B
330
1F
100
AcDbEntity
  8
0
 62
     7
100
AcDbMText
 10
98.95160484313965
 20
23.36328411102295
 30
0.0
 40
3.200000047683716
 41
0.0
 46
0.0
 71
     5
 72
     1
  1
{\W1;730}
 73
     1
 44
1.0
  0
MTEXT
  5
18C
330
1F
100
AcDbEntity
  8
0
 62
     7
100
AcDbMText
 10
98.95160484313965
 20
29.36328411102295
 30
0.0
 40
3.200000047683716
 41
0.0
 46
0.0
 71
     5
 72
     1
  1
{\W1;670}
 73
     1
 44
1.0
  0
MTEXT
  5
18D
330
1F
100
AcDbEntity
  8
0
 62
     7
100
AcDbMText
 10
98.95160484313965
 20
35.36328506469726
 30
0.0
 40
3.200000047683716
 41
0.0
 46
0.0
 71
     5
 72
     1
  1
{\W1;610}
 73
     1
 44
1.0
  0
MTEXT
  5
192
330
1F
100
AcDbEntity
  8
0
 62
     7
100
AcDbMText
 10
94.50600865715456
 20
-33.82115703884131
 30
0.0
 40
3.200000047683716
 41
0.0
 46
0.0
 71
     7
 72
     1
  1
{\W1;(mm)}
 73
     1
 44
1.0
  0
MTEXT
  5
193
330
1F
100
AcDbEntity
  8
0
 62
     7
100
AcDbMText
 10
0.7124996185302736
 20
-90.75000000000001
 30
0.0
 40
3.200000047683716
 41
0.0
 46
0.0
 71
     5
 72
     1
  1
45°チ－ズ（トヨドレンダブル管用）
 73
     1
 44
1.0
  0
MTEXT
  5
197
330
1F
100
AcDbEntity
  8
0
 62
     7
100
AcDbMText
 10
78.95160484313966
 20
35.36328506469726
 30
0.0
 40
3.200000047683716
 41
0.0
 46
0.0
 71
     5
 72
     1
  1
{\W1;850}
 73
     1
 44
1.0
  0
MTEXT
  5
198
330
1F
100
AcDbEntity
  8
0
 62
     7
100
AcDbMText
 10
78.95160484313966
 20
29.36328411102295
 30
0.0
 40
3.200000047683716
 41
0.0
 46
0.0
 71
     5
 72
     1
  1
{\W1;950}
 73
     1
 44
1.0
  0
MTEXT
  5
199
330
1F
100
AcDbEntity
  8
0
 62
     7
100
AcDbMText
 10
78.95160484313966
 20
23.36328411102295
 30
0.0
 40
3.200000047683716
 41
0.0
 46
0.0
 71
     5
 72
     1
  1
{\W1;1120}
 73
     1
 44
1.0
  0
MTEXT
  5
19A
330
1F
100
AcDbEntity
  8
0
 62
     7
100
AcDbMText
 10
78.95160484313966
 20
17.36328417062759
 30
0.0
 40
3.200000047683716
 41
0.0
 46
0.0
 71
     5
 72
     1
  1
{\W1;1270}
 73
     1
 44
1.0
  0
MTEXT
  5
19B
330
1F
100
AcDbEntity
  8
0
 62
     7
100
AcDbMText
 10
78.95160484313966
 20
11.36328411102294
 30
0.0
 40
3.200000047683716
 41
0.0
 46
0.0
 71
     5
 72
     1
  1
{\W1;1410}
 73
     1
 44
1.0
  0
MTEXT
  5
19C
330
1F
100
AcDbEntity
  8
0
 62
     7
100
AcDbMText
 10
78.95160484313966
 20
5.363284111022947
 30
0.0
 40
3.200000047683716
 41
0.0
 46
0.0
 71
     5
 72
     1
  1
{\W1;1690}
 73
     1
 44
1.0
  0
MTEXT
  5
19D
330
1F
100
AcDbEntity
  8
0
 62
     7
100
AcDbMText
 10
78.95160484313966
 20
-0.6367149353027398
 30
0.0
 40
3.200000047683716
 41
0.0
 46
0.0
 71
     5
 72
     1
  1
{\W1;1970}
 73
     1
 44
1.0
  0
MTEXT
  5
19E
330
1F
100
AcDbEntity
  8
0
 62
     7
100
AcDbMText
 10
78.95160484313966
 20
-6.636714935302737
 30
0.0
 40
3.200000047683716
 41
0.0
 46
0.0
 71
     5
 72
     1
  1
{\W1;2110}
 73
     1
 44
1.0
  0
MTEXT
  5
19F
330
1F
100
AcDbEntity
  8
0
 62
     7
100
AcDbMText
 10
78.95160484313966
 20
-12.63671493530274
 30
0.0
 40
3.200000047683716
 41
0.0
 46
0.0
 71
     5
 72
     1
  1
{\W1;2370}
 73
     1
 44
1.0
  0
MTEXT
  5
1A0
330
1F
100
AcDbEntity
  8
0
 62
     7
100
AcDbMText
 10
78.80268915450596
 20
-18.63671684265137
 30
0.0
 40
3.200000047683716
 41
0.0
 46
0.0
 71
     5
 72
     1
  1
{\W1;2630}
 73
     1
 44
1.0
  0
MTEXT
  5
1A1
330
1F
100
AcDbEntity
  8
0
 62
     7
100
AcDbMText
 10
78.95160484313966
 20
-24.63671684265137
 30
0.0
 40
3.200000047683716
 41
0.0
 46
0.0
 71
     5
 72
     1
  1
{\W1;2900}
 73
     1
 44
1.0
  0
POINT
  5
212
330
1F
100
AcDbEntity
  8
外形線
100
AcDbPoint
 10
-50.57500076293945
 20
-87.0
 30
0.0
  0
POINT
  5
213
330
1F
100
AcDbEntity
  8
VIEW0001
 62
     7
100
AcDbPoint
 10
138.5
 20
-87.0
 30
0.0
  0
LINE
  5
214
330
1F
100
AcDbEntity
  8
外形線
370
    30
100
AcDbLine
 10
-138.0
 20
95.0
 30
0.0
 11
138.5
 21
95.0
 31
0.0
  0
LINE
  5
215
330
1F
100
AcDbEntity
  8
外形線
370
    30
100
AcDbLine
 10
138.5
 20
95.0
 30
0.0
 11
138.5
 21
-94.50000000000001
 31
0.0
  0
LINE
  5
216
330
1F
100
AcDbEntity
  8
外形線
370
    30
100
AcDbLine
 10
-138.0
 20
-94.50000000000001
 30
0.0
 11
138.5
 21
-94.50000000000001
 31
0.0
  0
LINE
  5
217
330
1F
100
AcDbEntity
  8
外形線
370
    30
100
AcDbLine
 10
-138.0
 20
95.0
 30
0.0
 11
-138.0
 21
-94.50000000000001
 31
0.0
  0
LINE
  5
21A
330
1F
100
AcDbEntity
  8
外形線
100
AcDbLine
 10
-50.57500076293945
 20
-87.0
 30
0.0
 11
-50.57500076293945
 21
-94.50000000000001
 31
0.0
  0
LINE
  5
306
330
1F
100
AcDbEntity
  8
外形線
100
AcDbLine
 10
138.5
 20
-87.0
 30
0.0
 11
-50.57500076293945
 21
-87.0
 31
0.0
  0
LINE
  5
309
330
1F
100
AcDbEntity
  8
外形線
100
AcDbLine
 10
52.0
 20
-94.50000000000001
 30
0.0
 11
52.0
 21
-87.0
 31
0.0
  0
MTEXT
  5
324
330
1F
100
AcDbEntity
  8
VIEW0002
 62
     7
100
AcDbMText
 10
-40.46049427807345
 20
-66.92745471740291
 30
0.0
 40
3.200000047683716
 41
0.0
 46
0.0
 71
     7
 72
     1
  1
{\W0.833333;*形状は規格毎に異なります。}
 73
     1
 44
1.0
  0
MTEXT
  5
325
330
1F
100
AcDbEntity
  8
VIEW0002
 62
     7
100
AcDbMText
 10
-40.32050641420215
 20
-71.92534424269131
 30
0.0
 40
3.200000047683716
 41
0.0
 46
0.0
 71
     7
 72
     1
  1
{\W0.833333;*ストッパ－の位置及び数は、規格毎に異なります。}
 73
     1
 44
1.0
  0
MTEXT
  5
326
330
1F
100
AcDbEntity
  8
VIEW0002
 62
     7
100
AcDbMText
 10
-40.55528396144453
 20
-77.15534053207936
 30
0.0
 40
3.200000047683716
 41
0.0
 46
0.0
 71
     7
 72
     1
  1
{\W0.83333;*寸法、仕様等は製品改良の為、予告無く変更する場合があります。（H28.3）}
 73
     1
 44
1.0
  0
LINE
  5
5B3
330
1F
100
AcDbEntity
  8
外形線
100
AcDbLine
 10
-80.3428039264878
 20
34.12374487892282
 30
0.0
 11
-78.79007493688146
 21
35.00008306898104
 31
0.0
  0
LINE
  5
5B4
330
1F
100
AcDbEntity
  8
外形線
100
AcDbLine
 10
-96.80330761423931
 20
18.78086854817502
 30
0.0
 11
-95.73592152477372
 21
17.71348236873547
 31
0.0
  0
LINE
  5
5B5
330
1F
100
AcDbEntity
  8
外形線
100
AcDbLine
 10
-78.79007430838632
 20
35.00009316756331
 30
0.0
 11
-77.72267473192973
 21
33.93269350113167
 31
0.0
  0
LINE
  5
5B6
330
1F
100
AcDbEntity
  8
外形線
100
AcDbLine
 10
-81.42044900022295
 20
35.20140416000235
 30
0.0
 11
-80.34280740283517
 21
34.1237624717761
 31
0.0
  0
LINE
  5
5B7
330
1F
100
AcDbEntity
  8
外形線
100
AcDbLine
 10
-96.87733288476792
 20
21.283944259073
 30
0.0
 11
-95.79968926433144
 21
20.20630054779792
 31
0.0
  0
LINE
  5
5B8
330
1F
100
AcDbEntity
  8
外形線
100
AcDbLine
 10
-77.72267938532664
 20
33.9326898599993
 30
0.0
 11
-95.73591464512114
 21
17.71346614447361
 31
0.0
  0
LINE
  5
5B9
330
1F
100
AcDbEntity
  8
外形線
100
AcDbLine
 10
-78.79005157260762
 20
35.00007718067641
 30
0.0
 11
-96.80325423139846
 21
18.78088281928754
 31
0.0
  0
LINE
  5
5BA
330
1F
100
AcDbEntity
  8
外形線
100
AcDbLine
 10
-80.34279190460123
 20
34.12373304324706
 30
0.0
 11
-95.79964213932104
 21
20.2062935450879
 31
0.0
  0
LINE
  5
5BB
330
1F
100
AcDbEntity
  8
外形線
100
AcDbLine
 10
-81.42043919252939
 20
35.20134904441122
 30
0.0
 11
-96.87728659237942
 21
21.28391209878569
 31
0.0
  0
LINE
  5
5BC
330
1F
100
AcDbEntity
  8
外形線
100
AcDbLine
 10
-98.43004906565582
 20
20.40763600943382
 30
0.0
 11
-96.8773150928748
 21
21.28397701192506
 31
0.0
  0
LINE
  5
5BD
330
1F
100
AcDbEntity
  8
外形線
100
AcDbLine
 10
-95.79964724467343
 20
20.20630901227918
 30
0.0
 11
-96.80328202065563
 21
18.7808861701906
 31
0.0
  0
LINE
  5
5BE
330
1F
100
AcDbEntity
  8
外形線
100
AcDbLine
 10
-81.42047143681603
 20
35.20141290374429
 30
0.0
 11
-80.41683165965094
 21
36.62683688992468
 31
0.0
  0
LINE
  5
5BF
330
1F
100
AcDbEntity
  8
外形線
100
AcDbLine
 10
-83.03323800619244
 20
36.81413396195683
 30
0.0
 11
-81.48050237235315
 21
37.69047590192577
 31
0.0
  0
LINE
  5
5C0
330
1F
100
AcDbEntity
  8
外形線
100
AcDbLine
 10
-99.49372561308098
 20
21.47128677380189
 30
0.0
 11
-98.42634694146036
 21
20.40390801220801
 31
0.0
  0
LINE
  5
5C1
330
1F
100
AcDbEntity
  8
外形線
100
AcDbLine
 10
-81.48049500462612
 20
37.69051409058864
 30
0.0
 11
-80.4131136356073
 21
36.62313263159632
 31
0.0
  0
LINE
  5
5C2
330
1F
100
AcDbEntity
  8
外形線
100
AcDbLine
 10
-84.11087576560865
 20
37.8918311521741
 30
0.0
 11
-83.03323416822081
 21
36.81418946394785
 31
0.0
  0
LINE
  5
5C3
330
1F
100
AcDbEntity
  8
外形線
100
AcDbLine
 10
-99.25570507128073
 20
23.66231664606755
 30
0.0
 11
-98.49011198361996
 21
22.89672349387206
 31
0.0
  0
LINE
  5
5C4
330
1F
100
AcDbEntity
  8
外形線
100
AcDbLine
 10
-80.41306918592784
 20
36.62313918601512
 30
0.0
 11
-98.42628034932836
 21
20.40393716702533
 31
0.0
  0
LINE
  5
5C5
330
1F
100
AcDbEntity
  8
外形線
100
AcDbLine
 10
-81.48049963496331
 20
37.6904971468017
 30
0.0
 11
-99.49370512862408
 21
21.4713002328792
 31
0.0
  0
LINE
  5
5C6
330
1F
100
AcDbEntity
  8
外形線
100
AcDbLine
 10
-83.03323940228443
 20
36.81416378417953
 30
0.0
 11
-98.49007829752476
 21
22.89673449615492
 31
0.0
  0
LINE
  5
5C7
330
1F
100
AcDbEntity
  8
外形線
100
AcDbLine
 10
-84.11088422264731
 20
37.89183975549978
 30
0.0
 11
-93.30129993286872
 21
29.61673501762587
 31
0.0
  0
LINE
  5
5C8
330
1F
100
AcDbEntity
  8
外形線
100
AcDbLine
 10
-98.49009338647743
 20
22.89675670736938
 30
0.0
 11
-99.49373255476317
 21
21.47132762706551
 31
0.0
  0
LINE
  5
5C9
330
1F
100
AcDbEntity
  8
外形線
100
AcDbLine
 10
-84.11087318870031
 20
37.89177771572159
 30
0.0
 11
-83.10723560769313
 21
39.31719858279866
 31
0.0
  0
LINE
  5
5CA
330
1F
100
AcDbEntity
  8
外形線
100
AcDbLine
 10
-83.35400461262114
 20
39.5640238565087
 30
0.0
 11
-83.10353500619664
 21
39.31355422897122
 31
0.0
  0
LINE
  5
5CB
330
1F
100
AcDbEntity
  8
外形線
100
AcDbLine
 10
-83.10354822873064
 20
39.31357360594933
 30
0.0
 11
-88.13324099944351
 21
34.78480844566545
 31
0.0
  0
LINE
  5
5CC
330
1F
100
AcDbEntity
  8
外形線
100
AcDbLine
 10
-78.73000503369431
 20
32.51097302452283
 30
0.0
 11
-94.18688361711305
 21
18.5935080010273
 31
0.0
  0
LINE
  5
5CD
330
1F
100
AcDbEntity
  8
外形線
100
AcDbLine
 10
-77.65232809778561
 20
31.43327848825697
 30
0.0
 11
-93.10920668120431
 21
17.51581346476146
 31
0.0
  0
LINE
  5
5CE
330
1F
100
AcDbEntity
  8
外形線
100
AcDbLine
 10
-76.09962363667733
 20
32.30963395941218
 30
0.0
 11
-94.11285464416705
 21
16.09041407268694
 31
0.0
  0
LINE
  5
5CF
330
1F
100
AcDbEntity
  8
外形線
100
AcDbLine
 10
-75.03226421206446
 20
31.24226081308447
 30
0.0
 11
-93.04549096724931
 21
15.02304475515973
 31
0.0
  0
LINE
  5
5D0
330
1F
100
AcDbEntity
  8
外形線
100
AcDbLine
 10
-74.96189463903744
 20
28.74286333910902
 30
0.0
 11
-90.41796811940859
 21
14.82612323516593
 31
0.0
  0
LINE
  5
5D1
330
1F
100
AcDbEntity
  8
外形線
100
AcDbLine
 10
-73.73615556018643
 20
29.32479157761918
 30
0.0
 11
-91.42241125762051
 21
13.39998219665588
 31
0.0
  0
LINE
  5
5D2
330
1F
100
AcDbEntity
  8
外形線
100
AcDbLine
 10
-72.67757193365405
 20
28.24953975006144
 30
0.0
 11
-90.35506284442213
 21
12.33262223492377
 31
0.0
  0
LINE
  5
5D3
330
1F
100
AcDbEntity
  8
外形線
100
AcDbLine
 10
-72.48084249723942
 20
27.91195867762809
 30
0.0
 11
-88.80402233366281
 21
13.21447087505504
 31
0.0
  0
LINE
  5
5D4
330
1F
100
AcDbEntity
  8
外形線
100
AcDbLine
 10
-71.72373100777766
 20
26.54564051431635
 30
0.0
 11
-87.72553904798613
 21
12.13751778045488
 31
0.0
  0
LINE
  5
5D5
330
1F
100
AcDbEntity
  8
外形線
100
AcDbLine
 10
-71.5368142616512
 20
26.19221723814525
 30
0.0
 11
-88.73200480137194
 21
10.70956583363562
 31
0.0
  0
LINE
  5
5D6
330
1F
100
AcDbEntity
  8
外形線
100
AcDbLine
 10
-70.82902133348975
 20
24.80109085538911
 30
0.0
 11
-87.66463893877251
 21
9.642201050702283
 31
0.0
  0
LINE
  5
5D7
330
1F
100
AcDbEntity
  8
外形線
100
AcDbLine
 10
-70.65344799194062
 20
24.44445814324395
 30
0.0
 11
-86.11158834806216
 21
10.52585701213368
 31
0.0
  0
LINE
  5
5D8
330
1F
100
AcDbEntity
  8
外形線
100
AcDbLine
 10
-69.96622982176981
 20
23.01522045424861
 30
0.0
 11
-85.0331118201805
 21
9.448910665740498
 31
0.0
  0
LINE
  5
5D9
330
1F
100
AcDbEntity
  8
外形線
100
AcDbLine
 10
-69.79323117020904
 20
22.64925754351805
 30
0.0
 11
-86.04158224627312
 21
8.019145999963397
 31
0.0
  0
LINE
  5
5DA
330
1F
100
AcDbEntity
  8
外形線
100
AcDbLine
 10
-69.12397823914446
 20
21.22342181933425
 30
0.0
 11
-84.97421233202173
 21
6.951777165382111
 31
0.0
  0
LINE
  5
5DB
330
1F
100
AcDbEntity
  8
外形線
100
AcDbLine
 10
-68.95427122123894
 20
20.86151730100823
 30
0.0
 11
-83.41915841713845
 21
7.837247198136537
 31
0.0
  0
LINE
  5
5DC
330
1F
100
AcDbEntity
  8
外形線
100
AcDbLine
 10
-68.27550978842983
 20
19.42467024879181
 30
0.0
 11
-82.34068459237494
 21
6.760303551026138
 31
0.0
  0
LINE
  5
5DD
330
1F
100
AcDbEntity
  8
外形線
100
AcDbLine
 10
-68.10110478988301
 20
19.05996848803059
 30
0.0
 11
-83.35116104172502
 21
5.3287275168405
 31
0.0
  0
LINE
  5
5DE
330
1F
100
AcDbEntity
  8
外形線
100
AcDbLine
 10
-67.41487019125864
 20
17.6494128915229
 30
0.0
 11
-82.28378572527082
 21
4.261353280061995
 31
0.0
  0
LINE
  5
5DF
330
1F
100
AcDbEntity
  8
外形線
100
AcDbLine
 10
-67.23914769999661
 20
17.29292987422138
 30
0.0
 11
-80.72672578309664
 21
5.148634684856546
 31
0.0
  0
LINE
  5
5E0
330
1F
100
AcDbEntity
  8
外形線
100
AcDbLine
 10
-66.54096753268429
 20
15.87355216600485
 30
0.0
 11
-79.64824384897903
 21
4.071682939897839
 31
0.0
  0
LINE
  5
5E1
330
1F
100
AcDbEntity
  8
外形線
100
AcDbLine
 10
-66.36462897190671
 20
15.51059652931437
 30
0.0
 11
-80.6607317338727
 21
2.638300930421678
 31
0.0
  0
LINE
  5
5E2
330
1F
100
AcDbEntity
  8
外形線
100
AcDbLine
 10
-65.69219263525233
 20
14.08765282830958
 30
0.0
 11
-79.59337532512811
 21
1.57094560133359
 31
0.0
  0
LINE
  5
5E3
330
1F
100
AcDbEntity
  8
外形線
100
AcDbLine
 10
-65.52619079279178
 20
13.72239674850925
 30
0.0
 11
-78.03429585217301
 21
2.460024870859341
 31
0.0
  0
LINE
  5
5E4
330
1F
100
AcDbEntity
  8
外形線
100
AcDbLine
 10
-64.89335556130396
 20
12.24418720624197
 30
0.0
 11
-76.95581662117345
 21
1.383075825183424
 31
0.0
  0
LINE
  5
5E5
330
1F
100
AcDbEntity
  8
外形線
100
AcDbLine
 10
-64.74110486849622
 20
11.85953757737911
 30
0.0
 11
-77.97031052932462
 21
-0.0521175527011337
 31
0.0
  0
LINE
  5
5E6
330
1F
100
AcDbEntity
  8
外形線
100
AcDbLine
 10
-64.19818284517794
 20
10.31996302200875
 30
0.0
 11
-76.90294601727595
 21
-1.119480985085202
 31
0.0
  0
LINE
  5
5E7
330
1F
100
AcDbEntity
  8
外形線
100
AcDbLine
 10
-64.07619026393703
 20
9.915101275496256
 30
0.0
 11
-75.34186862436745
 21
-0.2285822438550724
 31
0.0
  0
LINE
  5
5E8
330
1F
100
AcDbEntity
  8
外形線
100
AcDbLine
 10
-63.68543028218645
 20
8.218910345059157
 30
0.0
 11
-74.26338128401354
 21
-1.305539387379353
 31
0.0
  0
LINE
  5
5E9
330
1F
100
AcDbEntity
  8
外形線
100
AcDbLine
 10
-63.61902826082204
 20
7.756967197156285
 30
0.0
 11
-73.98863906754043
 21
-1.579891789662838
 31
0.0
  0
LINE
  5
5EA
330
1F
100
AcDbEntity
  8
外形線
100
AcDbLine
 10
-63.59846158678212
 20
5.747071057896191
 30
0.0
 11
-71.21465299053514
 21
-1.110592790721227
 31
0.0
  0
LINE
  5
5EB
330
1F
100
AcDbEntity
  8
外形線
100
AcDbLine
 10
-63.70107877597181
 20
5.139953944225168
 30
0.0
 11
-70.24867267142503
 21
-0.7555383788999565
 31
0.0
  0
LINE
  5
5EC
330
1F
100
AcDbEntity
  8
外形線
100
AcDbLine
 10
-52.96744803734261
 20
0.7270409361102566
 30
0.0
 11
-52.96744803734261
 21
-0.7969763978740902
 31
0.0
  0
LINE
  5
5ED
330
1F
100
AcDbEntity
  8
外形線
100
AcDbLine
 10
-52.96747013047403
 20
-0.7970400567012348
 30
0.0
 11
-68.51720445867113
 21
0.0178701789572529
 31
0.0
  0
LINE
  5
5EE
330
1F
100
AcDbEntity
  8
外形線
100
AcDbLine
 10
-52.96746806708576
 20
-0.7969719785528186
 30
0.0
 11
-51.24985265987529
 21
-1.275253962103504
 31
0.0
  0
LINE
  5
5EF
330
1F
100
AcDbEntity
  8
外形線
100
AcDbLine
 10
-51.24984701243113
 20
-1.275305275520054
 30
0.0
 11
-69.24684801634973
 21
-0.332141873515468
 31
0.0
  0
LINE
  5
5F0
330
1F
100
AcDbEntity
  8
外形線
100
AcDbLine
 10
-51.24984816856819
 20
-1.27524788224909
 30
0.0
 11
-51.24984816856819
 21
-2.784761737229558
 31
0.0
  0
LINE
  5
5F1
330
1F
100
AcDbEntity
  8
外形線
100
AcDbLine
 10
-51.24983991049623
 20
-2.784797669779151
 30
0.0
 11
-73.07872753641615
 21
-1.640817741636964
 31
0.0
  0
LINE
  5
5F2
330
1F
100
AcDbEntity
  8
外形線
100
AcDbLine
 10
-52.96747572032533
 20
-3.077806643206087
 30
0.0
 11
-73.73824885796229
 21
-1.989279001823319
 31
0.0
  0
LINE
  5
5F3
330
1F
100
AcDbEntity
  8
外形線
100
AcDbLine
 10
-52.96747060240324
 20
-3.077793487713591
 30
0.0
 11
-51.24986690432783
 21
-2.779547651755477
 31
0.0
  0
LINE
  5
5F4
330
1F
100
AcDbEntity
  8
外形線
100
AcDbLine
 10
-52.96744803734261
 20
-3.077791522385808
 30
0.0
 11
-52.96744803734261
 21
-4.601801226975679
 31
0.0
  0
LINE
  5
5F5
330
1F
100
AcDbEntity
  8
外形線
100
AcDbLine
 10
-52.96746895657272
 20
-4.601883520631075
 30
0.0
 11
-73.73821257082051
 21
-3.513357426471656
 31
0.0
  0
LINE
  5
5F6
330
1F
100
AcDbEntity
  8
外形線
100
AcDbLine
 10
-52.96746499895403
 20
-4.601814133674962
 30
0.0
 11
-51.24984959174364
 21
-5.080096117225622
 31
0.0
  0
LINE
  5
5F7
330
1F
100
AcDbEntity
  8
外形線
100
AcDbLine
 10
-51.24985115345083
 20
-5.080140821048131
 30
0.0
 11
-75.45582984538945
 21
-3.81158539856591
 31
0.0
  0
LINE
  5
5F8
330
1F
100
AcDbEntity
  8
外形線
100
AcDbLine
 10
-51.24984816856819
 20
-5.080087970139743
 30
0.0
 11
-51.24984816856819
 21
-6.589594195725679
 31
0.0
  0
LINE
  5
5F9
330
1F
100
AcDbEntity
  8
外形線
100
AcDbLine
 10
-51.24983523472642
 20
-6.589610757773272
 30
0.0
 11
-75.45579345076602
 21
-5.321056408365308
 31
0.0
  0
LINE
  5
5FA
330
1F
100
AcDbEntity
  8
外形線
100
AcDbLine
 10
-75.45584182091204
 20
-3.811533282639743
 30
0.0
 11
-75.45584182091204
 21
-5.321031878831147
 31
0.0
  0
LINE
  5
5FB
330
1F
100
AcDbEntity
  8
外形線
100
AcDbLine
 10
-73.73823625706544
 20
-3.51326567078695
 30
0.0
 11
-75.45584311735893
 21
-3.811515593099386
 31
0.0
  0
LINE
  5
5FC
330
1F
100
AcDbEntity
  8
外形線
100
AcDbLine
 10
-73.73824052162615
 20
-1.989244769456148
 30
0.0
 11
-73.73824052162615
 21
-3.513262103440496
 31
0.0
  0
LINE
  5
5FD
330
1F
100
AcDbEntity
  8
外形線
100
AcDbLine
 10
-52.96747525330861
 20
-6.882627150497653
 30
0.0
 11
-73.73824909034045
 21
-5.794099472461937
 31
0.0
  0
LINE
  5
5FE
330
1F
100
AcDbEntity
  8
外形線
100
AcDbLine
 10
-52.96747247773621
 20
-6.882621824984369
 30
0.0
 11
-51.24986854475732
 21
-6.584375948237491
 31
0.0
  0
LINE
  5
5FF
330
1F
100
AcDbEntity
  8
外形線
100
AcDbLine
 10
-73.73824052162615
 20
-13.4037345155499
 30
0.0
 11
-73.73824052162615
 21
-13.65542824113584
 31
0.0
  0
LINE
  5
600
330
1F
100
AcDbEntity
  8
外形線
100
AcDbLine
 10
-75.45582077427571
 20
-5.315805466482288
 30
0.0
 11
-73.73820444834414
 21
-5.794087705857292
 31
0.0
  0
LINE
  5
601
330
1F
100
AcDbEntity
  8
外形線
100
AcDbLine
 10
-76.04101385734231
 20
29.821977257903
 30
0.0
 11
-91.49789244076105
 21
15.90451223440752
 31
0.0
  0
LINE
  5
602
330
1F
100
AcDbEntity
  8
外形線
100
AcDbLine
 10
-77.72267865029231
 20
33.93267933256363
 30
0.0
 11
-78.73000661188105
 21
32.51096253995476
 31
0.0
  0
LINE
  5
603
330
1F
100
AcDbEntity
  8
外形線
100
AcDbLine
 10
-78.73001009654529
 20
32.51096502953771
 30
0.0
 11
-77.65233073558285
 21
31.43328557773362
 31
0.0
  0
LINE
  5
604
330
1F
100
AcDbEntity
  8
外形線
100
AcDbLine
 10
-77.65231966840673
 20
31.43328423824807
 30
0.0
 11
-76.09960747624691
 21
32.30962502636902
 31
0.0
  0
LINE
  5
605
330
1F
100
AcDbEntity
  8
外形線
100
AcDbLine
 10
-76.09961517422232
 20
32.30963380661058
 30
0.0
 11
-75.03225336134045
 21
31.24227190375677
 31
0.0
  0
LINE
  5
606
330
1F
100
AcDbEntity
  8
外形線
100
AcDbLine
 10
-75.03225623429705
 20
31.24226245388263
 30
0.0
 11
-76.04101724624332
 21
29.82197851290164
 31
0.0
  0
LINE
  5
607
330
1F
100
AcDbEntity
  8
外形線
100
AcDbLine
 10
-76.04101969569644
 20
29.82197440202379
 30
0.0
 11
-74.96190936499352
 21
28.74286398035872
 31
0.0
  0
LINE
  5
608
330
1F
100
AcDbEntity
  8
外形線
100
AcDbLine
 10
-74.96190634732113
 20
28.7428672902517
 30
0.0
 11
-73.73623479703602
 21
29.43462680360421
 31
0.0
  0
LINE
  5
609
330
1F
100
AcDbEntity
  8
外形線
100
AcDbLine
 10
-73.73824242897473
 20
-13.65542061174128
 30
0.0
 11
-51.24985007591682
 21
-13.65542061174128
 31
0.0
  0
LINE
  5
60A
330
1F
100
AcDbEntity
  8
外形線
100
AcDbLine
 10
-52.96744803734261
 20
-6.882616351487397
 30
0.0
 11
-52.96744803734261
 21
-8.406633685471746
 31
0.0
  0
LINE
  5
60B
330
1F
100
AcDbEntity
  8
外形線
100
AcDbLine
 10
-52.96746317463512
 20
-8.406711946324378
 30
0.0
 11
-73.73821025609544
 21
-7.318185670459797
 31
0.0
  0
LINE
  5
60C
330
1F
100
AcDbEntity
  8
外形線
100
AcDbLine
 10
-51.24984878169931
 20
-8.884961428160577
 30
0.0
 11
-75.4558267593623
 21
-7.616406043111169
 31
0.0
  0
LINE
  5
60D
330
1F
100
AcDbEntity
  8
外形線
100
AcDbLine
 10
-52.96746151251795
 20
-8.406640565960797
 30
0.0
 11
-51.24985712996185
 21
-8.884919479619666
 31
0.0
  0
LINE
  5
60E
330
1F
100
AcDbEntity
  8
外形線
100
AcDbLine
 10
-51.24984816856819
 20
-8.884920428635806
 30
0.0
 11
-51.24984816856819
 21
-10.39441902482724
 31
0.0
  0
LINE
  5
60F
330
1F
100
AcDbEntity
  8
外形線
100
AcDbLine
 10
-51.24983596556003
 20
-10.39445412188229
 30
0.0
 11
-75.4558019195847
 21
-9.125899366952069
 31
0.0
  0
LINE
  5
610
330
1F
100
AcDbEntity
  8
外形線
100
AcDbLine
 10
-52.96747026993784
 20
-10.6874708140692
 30
0.0
 11
-73.73824185503693
 21
-9.5989432540498
 31
0.0
  0
LINE
  5
611
330
1F
100
AcDbEntity
  8
外形線
100
AcDbLine
 10
-52.9674746921523
 20
-10.68745796469147
 30
0.0
 11
-51.24987075917331
 21
-10.38921208794457
 31
0.0
  0
LINE
  5
612
330
1F
100
AcDbEntity
  8
外形線
100
AcDbLine
 10
-75.45584182091204
 20
-7.616358111741276
 30
0.0
 11
-75.45584182091204
 21
-9.125864337327243
 31
0.0
  0
LINE
  5
613
330
1F
100
AcDbEntity
  8
外形線
100
AcDbLine
 10
-75.45582555633024
 20
-9.120629596349203
 30
0.0
 11
-73.73821014911993
 21
-9.59891157989989
 31
0.0
  0
LINE
  5
614
330
1F
100
AcDbEntity
  8
外形線
100
AcDbLine
 10
-73.73824777814181
 20
-7.318104747319124
 30
0.0
 11
-75.45585463843522
 21
-7.616354669631562
 31
0.0
  0
LINE
  5
615
330
1F
100
AcDbEntity
  8
外形線
100
AcDbLine
 10
-73.73824052162615
 20
-5.794077227952241
 30
0.0
 11
-73.73824052162615
 21
-7.318094561936589
 31
0.0
  0
LINE
  5
616
330
1F
100
AcDbEntity
  8
外形線
100
AcDbLine
 10
-52.96744803734261
 20
-10.68744118058896
 30
0.0
 11
-52.96744803734261
 21
-12.21145851457334
 31
0.0
  0
LINE
  5
617
330
1F
100
AcDbEntity
  8
外形線
100
AcDbLine
 10
-52.96747072584094
 20
-12.21153967327163
 30
0.0
 11
-73.73822178045895
 21
-11.12301318918696
 31
0.0
  0
LINE
  5
618
330
1F
100
AcDbEntity
  8
外形線
100
AcDbLine
 10
-51.24984720851472
 20
-12.68979727315124
 30
0.0
 11
-75.45583232893313
 21
-11.42124151377362
 31
0.0
  0
LINE
  5
619
330
1F
100
AcDbEntity
  8
外形線
100
AcDbLine
 10
-52.96746742244597
 20
-12.21147230142156
 30
0.0
 11
-51.24985936500504
 21
-12.6897522383777
 31
0.0
  0
LINE
  5
61A
330
1F
100
AcDbEntity
  8
外形線
100
AcDbLine
 10
-51.24984816856819
 20
-12.6897452577374
 30
0.0
 11
-51.24984816856819
 21
-13.65542824113584
 31
0.0
  0
LINE
  5
61B
330
1F
100
AcDbEntity
  8
外形線
100
AcDbLine
 10
-61.62774949019071
 20
-13.65541770130829
 30
0.0
 11
-75.45580367968594
 21
-12.93073503725622
 31
0.0
  0
LINE
  5
61C
330
1F
100
AcDbEntity
  8
外形線
100
AcDbLine
 10
-68.93658894966344
 20
-13.65541779177167
 30
0.0
 11
-73.73824847120054
 21
-13.40377866986384
 31
0.0
  0
LINE
  5
61D
330
1F
100
AcDbEntity
  8
外形線
100
AcDbLine
 10
-75.45584182091204
 20
-11.4211905702374
 30
0.0
 11
-75.45584182091204
 21
-12.93069679582333
 31
0.0
  0
LINE
  5
61E
330
1F
100
AcDbEntity
  8
外形線
100
AcDbLine
 10
-75.45581309183454
 20
-12.92546644829647
 30
0.0
 11
-73.73819768462411
 21
-13.40374843184716
 31
0.0
  0
LINE
  5
61F
330
1F
100
AcDbEntity
  8
外形線
100
AcDbLine
 10
-73.73824426539423
 20
-11.1229412133373
 30
0.0
 11
-75.45585112568763
 21
-11.4211911356497
 31
0.0
  0
LINE
  5
620
330
1F
100
AcDbEntity
  8
外形線
100
AcDbLine
 10
-73.73824052162615
 20
-9.598909686448306
 30
0.0
 11
-73.73824052162615
 21
-11.12291939103818
 31
0.0
  0
LINE
  5
621
330
1F
100
AcDbEntity
  8
中心線
100
AcDbLine
 10
-63.35286454506364
 20
-17.91683418596004
 30
0.0
 11
-63.35286454506364
 21
49.22238509809756
 31
0.0
  0
LINE
  5
622
330
1F
100
AcDbEntity
  8
中心線
100
AcDbLine
 10
-60.04520295641004
 20
-0.4707066680411458
 30
0.0
 11
-95.29742162714372
 21
34.78150903115305
 31
0.0
  0
LINE
  5
623
330
1F
100
AcDbEntity
  8
外形線
100
AcDbLine
 10
-73.73824052162603
 20
-13.65542061174128
 30
0.0
 11
-51.24984816856819
 21
-13.65542061174128
 31
0.0
  0
LINE
  5
624
330
1F
100
AcDbEntity
  8
外形線
100
AcDbLine
 10
-90.41797807156696
 20
14.82612051862912
 30
0.0
 11
-91.49789389946413
 21
15.90450312306098
 31
0.0
  0
LINE
  5
625
330
1F
100
AcDbEntity
  8
外形線
100
AcDbLine
 10
-95.73590127728223
 20
17.71346725658225
 30
0.0
 11
-94.1868833663503
 21
18.59349860355155
 31
0.0
  0
LINE
  5
626
330
1F
100
AcDbEntity
  8
外形線
100
AcDbLine
 10
-94.18687712235174
 20
18.59348826986826
 30
0.0
 11
-93.10919911008822
 21
17.51581016676337
 31
0.0
  0
LINE
  5
627
330
1F
100
AcDbEntity
  8
外形線
100
AcDbLine
 10
-93.10919284167505
 20
17.51582026905981
 30
0.0
 11
-94.11283718455374
 21
16.09040882846892
 31
0.0
  0
LINE
  5
628
330
1F
100
AcDbEntity
  8
外形線
100
AcDbLine
 10
-94.11283903918164
 20
16.09039974632779
 30
0.0
 11
-93.04547722629973
 21
15.02303784347401
 31
0.0
  0
LINE
  5
629
330
1F
100
AcDbEntity
  8
外形線
100
AcDbLine
 10
-93.04547825351013
 20
15.02304931220988
 30
0.0
 11
-91.49788760277884
 21
15.90451729972682
 31
0.0
  0
LINE
  5
62A
330
1F
100
AcDbEntity
  8
外形線
100
AcDbLine
 10
-52.96746034531182
 20
37.2513101846171
 30
0.0
 11
-51.2498504504285
 21
36.77302973601236
 31
0.0
  0
LINE
  5
62B
330
1F
100
AcDbEntity
  8
外形線
100
AcDbLine
 10
-75.45584182091204
 20
38.04159705793643
 30
0.0
 11
-75.45584182091204
 21
36.53208701765322
 31
0.0
  0
LINE
  5
62C
330
1F
100
AcDbEntity
  8
外形線
100
AcDbLine
 10
-51.24984816856819
 20
36.7730347410419
 30
0.0
 11
-51.24984816856819
 21
35.2635018125751
 31
0.0
  0
LINE
  5
62D
330
1F
100
AcDbEntity
  8
外形線
100
AcDbLine
 10
-52.96744803734261
 20
38.77533881819033
 30
0.0
 11
-52.96744803734261
 21
37.25132529890323
 31
0.0
  0
LINE
  5
62E
330
1F
100
AcDbEntity
  8
外形線
100
AcDbLine
 10
-73.73824052162615
 20
39.86387984907414
 30
0.0
 11
-73.73824052162615
 21
38.33986442243838
 31
0.0
  0
LINE
  5
62F
330
1F
100
AcDbEntity
  8
外形線
100
AcDbLine
 10
-51.24984359873173
 20
35.2634990300478
 30
0.0
 11
-75.45584229038553
 21
36.53205550064904
 31
0.0
  0
LINE
  5
630
330
1F
100
AcDbEntity
  8
外形線
100
AcDbLine
 10
-51.24983125403531
 20
36.77299804503741
 30
0.0
 11
-75.45579089862605
 21
38.04155246931106
 31
0.0
  0
LINE
  5
631
330
1F
100
AcDbEntity
  8
外形線
100
AcDbLine
 10
-52.9674571833392
 20
37.25128251084579
 30
0.0
 11
-73.73821835686081
 21
38.33980952522876
 31
0.0
  0
LINE
  5
632
330
1F
100
AcDbEntity
  8
外形線
100
AcDbLine
 10
-52.96746974484014
 20
38.77528520343503
 30
0.0
 11
-73.73822544224913
 21
39.86381193083304
 31
0.0
  0
LINE
  5
633
330
1F
100
AcDbEntity
  8
外形線
100
AcDbLine
 10
-75.45582938804262
 20
40.34217770639327
 30
0.0
 11
-73.73821352147165
 21
39.86389559493046
 31
0.0
  0
LINE
  5
634
330
1F
100
AcDbEntity
  8
外形線
100
AcDbLine
 10
-73.73820204742131
 20
38.33982808007696
 30
0.0
 11
-75.45580514925873
 21
38.04157881039305
 31
0.0
  0
LINE
  5
635
330
1F
100
AcDbEntity
  8
外形線
100
AcDbLine
 10
-52.96746226835995
 20
38.77536254876578
 30
0.0
 11
-51.24985669105595
 21
39.07360871103435
 31
0.0
  0
LINE
  5
636
330
1F
100
AcDbEntity
  8
外形線
100
AcDbLine
 10
-52.96749334663379
 20
41.05612305646913
 30
0.0
 11
-51.24987793942346
 21
40.57784107291849
 31
0.0
  0
LINE
  5
637
330
1F
100
AcDbEntity
  8
外形線
100
AcDbLine
 10
-75.45584182091204
 20
41.84642760908388
 30
0.0
 11
-75.45584182091204
 21
40.33692329084657
 31
0.0
  0
LINE
  5
638
330
1F
100
AcDbEntity
  8
外形線
100
AcDbLine
 10
-51.24984816856819
 20
40.57786338484071
 30
0.0
 11
-51.24984816856819
 21
39.06835906660342
 31
0.0
  0
LINE
  5
639
330
1F
100
AcDbEntity
  8
外形線
100
AcDbLine
 10
-52.96744803734261
 20
42.58017509138368
 30
0.0
 11
-52.96744803734261
 21
41.05616157209659
 31
0.0
  0
LINE
  5
63A
330
1F
100
AcDbEntity
  8
外形線
100
AcDbLine
 10
-73.73824052162615
 20
43.66871040022157
 30
0.0
 11
-73.73824052162615
 21
42.14469497358584
 31
0.0
  0
LINE
  5
63B
330
1F
100
AcDbEntity
  8
外形線
100
AcDbLine
 10
-51.24981188489879
 20
39.06831403091513
 30
0.0
 11
-75.45578629118413
 21
40.33686922880042
 31
0.0
  0
LINE
  5
63C
330
1F
100
AcDbEntity
  8
外形線
100
AcDbLine
 10
-51.24986119859993
 20
40.57783919681059
 30
0.0
 11
-75.45582417647654
 21
41.84639379577075
 31
0.0
  0
LINE
  5
63D
330
1F
100
AcDbEntity
  8
外形線
100
AcDbLine
 10
-52.96747129110034
 20
41.05613429246083
 30
0.0
 11
-73.73821770292733
 21
42.14466053323213
 31
0.0
  0
LINE
  5
63E
330
1F
100
AcDbEntity
  8
外形線
100
AcDbLine
 10
-52.96746230973194
 20
42.58018360521102
 30
0.0
 11
-73.73820776919152
 21
43.66870979607191
 31
0.0
  0
LINE
  5
63F
330
1F
100
AcDbEntity
  8
外形線
100
AcDbLine
 10
-75.45583624783472
 20
44.1469773592106
 30
0.0
 11
-73.73822669747193
 21
43.66869700653995
 31
0.0
  0
LINE
  5
640
330
1F
100
AcDbEntity
  8
外形線
100
AcDbLine
 10
-73.73821168148221
 20
42.14468864974466
 30
0.0
 11
-75.45582136061764
 21
41.84643823796085
 31
0.0
  0
LINE
  5
641
330
1F
100
AcDbEntity
  8
外形線
100
AcDbLine
 10
-52.96748290345397
 20
42.58014632363372
 30
0.0
 11
-51.24987920537853
 21
42.87839215959182
 31
0.0
  0
LINE
  5
642
330
1F
100
AcDbEntity
  8
外形線
100
AcDbLine
 10
-52.96746108505614
 20
44.86097121310339
 30
0.0
 11
-51.24985119017281
 21
44.38269076449861
 31
0.0
  0
LINE
  5
643
330
1F
100
AcDbEntity
  8
外形線
100
AcDbLine
 10
-75.45584182091204
 20
45.65126006757997
 30
0.0
 11
-75.45584182091204
 21
44.14175574934268
 31
0.0
  0
LINE
  5
644
330
1F
100
AcDbEntity
  8
外形線
100
AcDbLine
 10
-51.24984816856819
 20
44.38269202863954
 30
0.0
 11
-51.24984816856819
 21
42.87318771040225
 31
0.0
  0
LINE
  5
645
330
1F
100
AcDbEntity
  8
外形線
100
AcDbLine
 10
-52.96744803734261
 20
46.38499992048525
 30
0.0
 11
-52.96744803734261
 21
44.86099021589541
 31
0.0
  0
LINE
  5
646
330
1F
100
AcDbEntity
  8
外形線
100
AcDbLine
 10
-73.73824052162615
 20
47.4735390440204
 30
0.0
 11
-73.73824052162615
 21
45.94952361738465
 31
0.0
  0
LINE
  5
647
330
1F
100
AcDbEntity
  8
外形線
100
AcDbLine
 10
-51.24983752902804
 20
42.87320079650231
 30
0.0
 11
-75.45580526874161
 21
44.14175564501459
 31
0.0
  0
LINE
  5
648
330
1F
100
AcDbEntity
  8
外形線
100
AcDbLine
 10
-51.24986267196371
 20
44.38267694653609
 30
0.0
 11
-75.45583660206531
 21
45.65123211946615
 31
0.0
  0
LINE
  5
649
330
1F
100
AcDbEntity
  8
外形線
100
AcDbLine
 10
-52.96748430083212
 20
44.86100702615845
 30
0.0
 11
-73.73823261739392
 21
45.94953336675064
 31
0.0
  0
LINE
  5
64A
330
1F
100
AcDbEntity
  8
外形線
100
AcDbLine
 10
-52.96745144002232
 20
46.38496531906088
 30
0.0
 11
-73.7382059469722
 21
47.47349198407085
 31
0.0
  0
LINE
  5
64B
330
1F
100
AcDbEntity
  8
外形線
100
AcDbLine
 10
-75.45584853285603
 20
47.95180030178037
 30
0.0
 11
-73.73823355629621
 21
47.47351843814731
 31
0.0
  0
LINE
  5
64C
330
1F
100
AcDbEntity
  8
外形線
100
AcDbLine
 10
-73.73824355164874
 20
45.9494988969127
 30
0.0
 11
-75.45585323078412
 21
45.65124848512889
 31
0.0
  0
LINE
  5
64D
330
1F
100
AcDbEntity
  8
外形線
100
AcDbLine
 10
-52.96739738967412
 20
46.38499886338656
 30
0.0
 11
-51.24979369159871
 21
46.68324469934467
 31
0.0
  0
LINE
  5
64E
330
1F
100
AcDbEntity
  8
外形線
100
AcDbLine
 10
-51.24984816856819
 20
47.94658248579287
 30
0.0
 11
-51.24984816856819
 21
46.6780182615497
 31
0.0
  0
LINE
  5
64F
330
1F
100
AcDbEntity
  8
外形線
100
AcDbLine
 10
-51.24983880275003
 20
46.67804235569739
 30
0.0
 11
-75.45580368536143
 21
47.94659705447836
 31
0.0
  0
LINE
  5
650
330
1F
100
AcDbEntity
  8
外形線
100
AcDbLine
 10
-52.96744361788331
 20
34.97048054108535
 30
0.0
 11
-73.7382412194577
 21
36.05900946454233
 31
0.0
  0
LINE
  5
651
330
1F
100
AcDbEntity
  8
外形線
100
AcDbLine
 10
-52.96744597852131
 20
33.44641178170377
 30
0.0
 11
-73.73824238963644
 21
34.53494064277271
 31
0.0
  0
LINE
  5
652
330
1F
100
AcDbEntity
  8
外形線
100
AcDbLine
 10
-51.24984361291932
 20
32.96815147038401
 30
0.0
 11
-75.45584230457311
 21
34.2367079409853
 31
0.0
  0
LINE
  5
653
330
1F
100
AcDbEntity
  8
外形線
100
AcDbLine
 10
-51.24984944484452
 20
31.45866739381015
 30
0.0
 11
-75.45584361275324
 21
32.72722362733686
 31
0.0
  0
LINE
  5
654
330
1F
100
AcDbEntity
  8
外形線
100
AcDbLine
 10
-52.96744190167672
 20
29.64158726530096
 30
0.0
 11
-73.73824021752665
 21
30.73011622619075
 31
0.0
  0
LINE
  5
655
330
1F
100
AcDbEntity
  8
外形線
100
AcDbLine
 10
-51.24984815322253
 20
29.16330830591681
 30
0.0
 11
-73.73824058563219
 21
30.34185070348335
 31
0.0
  0
LINE
  5
656
330
1F
100
AcDbEntity
  8
外形線
100
AcDbLine
 10
-51.24985108220423
 20
27.65384317686986
 30
0.0
 11
-73.00398761279962
 21
28.79390564691144
 31
0.0
  0
LINE
  5
657
330
1F
100
AcDbEntity
  8
外形線
100
AcDbLine
 10
-52.96744729188631
 20
27.36082448826565
 30
0.0
 11
-72.76566774253973
 21
28.39838385439609
 31
0.0
  0
LINE
  5
658
330
1F
100
AcDbEntity
  8
外形線
100
AcDbLine
 10
-52.96744223322683
 20
25.83675152013114
 30
0.0
 11
-71.87530989727619
 21
26.82765043638915
 31
0.0
  0
LINE
  5
659
330
1F
100
AcDbEntity
  8
外形線
100
AcDbLine
 10
-51.24984538218764
 20
25.35849531774352
 30
0.0
 11
-71.66124954357823
 21
26.42818961760804
 31
0.0
  0
LINE
  5
65A
330
1F
100
AcDbEntity
  8
外形線
100
AcDbLine
 10
-51.24984018498742
 20
23.84900302330527
 30
0.0
 11
-70.86668816817212
 21
24.87705725725227
 31
0.0
  0
LINE
  5
65B
330
1F
100
AcDbEntity
  8
外形線
100
AcDbLine
 10
-52.96744803734274
 20
23.55598876478731
 30
0.0
 11
-70.67275119478691
 21
24.48386524575554
 31
0.0
  0
LINE
  5
65C
330
1F
100
AcDbEntity
  8
外形線
100
AcDbLine
 10
-52.96744537603803
 20
22.03193502195086
 30
0.0
 11
-69.92133896572879
 21
22.92043260839844
 31
0.0
  0
LINE
  5
65D
330
1F
100
AcDbEntity
  8
外形線
100
AcDbLine
 10
-51.24983579078032
 20
21.55366669240851
 30
0.0
 11
-69.73341024419645
 21
22.52232980238404
 31
0.0
  0
LINE
  5
65E
330
1F
100
AcDbEntity
  8
外形線
100
AcDbLine
 10
-51.24984162270557
 20
20.04418261583461
 30
0.0
 11
-69.00741827986582
 21
20.97479857833179
 31
0.0
  0
LINE
  5
65F
330
1F
100
AcDbEntity
  8
外形線
100
AcDbLine
 10
-52.96744334695024
 20
19.75116803616254
 30
0.0
 11
-68.82303372187746
 21
20.58210717738675
 31
0.0
  0
LINE
  5
660
330
1F
100
AcDbEntity
  8
外形線
100
AcDbLine
 10
-52.96744721303952
 20
18.22710699554102
 30
0.0
 11
-68.08153190566571
 21
19.01918627218157
 31
0.0
  0
LINE
  5
661
330
1F
100
AcDbEntity
  8
外形線
100
AcDbLine
 10
-51.24985076128361
 20
17.7488431742143
 30
0.0
 11
-67.88983982166957
 21
18.62089006069806
 31
0.0
  0
LINE
  5
662
330
1F
100
AcDbEntity
  8
外形線
100
AcDbLine
 10
-51.24984556408353
 20
16.23935087977608
 30
0.0
 11
-67.12990099540522
 21
17.07157215382977
 31
0.0
  0
LINE
  5
663
330
1F
100
AcDbEntity
  8
外形線
100
AcDbLine
 10
-52.96744558323521
 20
15.94633239081361
 30
0.0
 11
-66.93591889893756
 21
16.67837395764905
 31
0.0
  0
LINE
  5
664
330
1F
100
AcDbEntity
  8
外形線
100
AcDbLine
 10
-52.96744964896612
 20
14.42226754072243
 30
0.0
 11
-66.1739817220691
 21
15.11437828273097
 31
0.0
  0
LINE
  5
665
330
1F
100
AcDbEntity
  8
外形線
100
AcDbLine
 10
-51.24984938774071
 20
13.94400351975406
 30
0.0
 11
-65.98480017768562
 21
14.71621364033962
 31
0.0
  0
LINE
  5
666
330
1F
100
AcDbEntity
  8
外形線
100
AcDbLine
 10
-51.24985271600596
 20
12.43453077176795
 30
0.0
 11
-65.28172173899361
 21
13.16989469830895
 31
0.0
  0
LINE
  5
667
330
1F
100
AcDbEntity
  8
外形線
100
AcDbLine
 10
-52.96745083042285
 20
12.14151218298463
 30
0.0
 11
-65.11382046230493
 21
12.77806331178197
 31
0.0
  0
LINE
  5
668
330
1F
100
AcDbEntity
  8
外形線
100
AcDbLine
 10
-52.96743815282415
 20
10.61743881556663
 30
0.0
 11
-64.50240903840264
 21
11.22194855472247
 31
0.0
  0
LINE
  5
669
330
1F
100
AcDbEntity
  8
外形線
100
AcDbLine
 10
-51.24985312947703
 20
10.13917559316502
 30
0.0
 11
-64.36383104869813
 21
10.82643587755419
 31
0.0
  0
LINE
  5
66A
330
1F
100
AcDbEntity
  8
外形線
100
AcDbLine
 10
-51.24984903844481
 20
8.629698636425985
 30
0.0
 11
-63.90877453197461
 21
9.29311112562908
 31
0.0
  0
LINE
  5
66B
330
1F
100
AcDbEntity
  8
外形線
100
AcDbLine
 10
-52.96744294410872
 20
8.336687466940047
 30
0.0
 11
-63.81787617725521
 21
8.905322847866557
 31
0.0
  0
LINE
  5
66C
330
1F
100
AcDbEntity
  8
外形線
100
AcDbLine
 10
-52.96743598071444
 20
6.812614398984634
 30
0.0
 11
-63.57895245372064
 21
7.368728941342509
 31
0.0
  0
LINE
  5
66D
330
1F
100
AcDbEntity
  8
外形線
100
AcDbLine
 10
-51.24984183297672
 20
6.334343058539642
 30
0.0
 11
-63.55451812912633
 21
6.979190516930883
 31
0.0
  0
LINE
  5
66E
330
1F
100
AcDbEntity
  8
外形線
100
AcDbLine
 10
-51.24984115213064
 20
4.824873920381434
 30
0.0
 11
-63.63713798994004
 21
5.474051248573204
 31
0.0
  0
LINE
  5
66F
330
1F
100
AcDbEntity
  8
外形線
100
AcDbLine
 10
-52.96744498075193
 20
4.531855631060636
 30
0.0
 11
-63.71118300724529
 21
5.094899468481513
 31
0.0
  0
LINE
  5
670
330
1F
100
AcDbEntity
  8
外形線
100
AcDbLine
 10
-52.96744803734261
 20
4.531873394606349
 30
0.0
 11
-52.96744803734261
 21
3.007856060622003
 31
0.0
  0
LINE
  5
671
330
1F
100
AcDbEntity
  8
外形線
100
AcDbLine
 10
-52.96747210294203
 20
3.007788169350305
 30
0.0
 11
-64.28600665915732
 21
3.600955195090989
 31
0.0
  0
LINE
  5
672
330
1F
100
AcDbEntity
  8
外形線
100
AcDbLine
 10
-52.96745155080781
 20
3.007840964179848
 30
0.0
 11
-51.24966342401433
 21
2.52951088565723
 31
0.0
  0
LINE
  5
673
330
1F
100
AcDbEntity
  8
外形線
100
AcDbLine
 10
-51.24984287141128
 20
2.529530270008051
 30
0.0
 11
-64.51938714817721
 21
3.224943273563495
 31
0.0
  0
LINE
  5
674
330
1F
100
AcDbEntity
  8
外形線
100
AcDbLine
 10
-51.24984816856819
 20
2.52950828230169
 30
0.0
 11
-51.24984816856819
 21
1.020070721266506
 31
0.0
  0
LINE
  5
675
330
1F
100
AcDbEntity
  8
外形線
100
AcDbLine
 10
-51.24983957894595
 20
1.020038075390687
 30
0.0
 11
-65.82076511115264
 21
1.783652173779556
 31
0.0
  0
LINE
  5
676
330
1F
100
AcDbEntity
  8
外形線
100
AcDbLine
 10
-52.96747007385423
 20
0.7270211835619877
 30
0.0
 11
-66.25916168006674
 21
1.423594855529984
 31
0.0
  0
LINE
  5
677
330
1F
100
AcDbEntity
  8
外形線
100
AcDbLine
 10
-52.96747825393754
 20
0.7270409388634107
 30
0.0
 11
-51.24987408605495
 21
1.025286856399134
 31
0.0
  0
LINE
  5
678
330
1F
100
AcDbEntity
  8
外形線
100
AcDbLine
 10
-51.24985004952865
 20
4.824871777036093
 30
0.0
 11
-52.96745001576903
 21
4.531883825172258
 31
0.0
  0
LINE
  5
679
330
1F
100
AcDbEntity
  8
外形線
100
AcDbLine
 10
-52.96744289973381
 20
31.16766930493543
 30
0.0
 11
-73.73824169176742
 21
32.25619829078042
 31
0.0
  0
LINE
  5
67A
330
1F
100
AcDbEntity
  8
外形線
100
AcDbLine
 10
-51.24984540956532
 20
35.26349943911362
 30
0.0
 11
-52.96744036281822
 21
34.97048210084461
 31
0.0
  0
LINE
  5
67B
330
1F
100
AcDbEntity
  8
外形線
100
AcDbLine
 10
-52.96744803734261
 20
34.97048347151065
 30
0.0
 11
-52.96744803734261
 21
33.44641654646182
 31
0.0
  0
LINE
  5
67C
330
1F
100
AcDbEntity
  8
外形線
100
AcDbLine
 10
-52.96744517680575
 20
33.44642207162309
 30
0.0
 11
-51.24984715233361
 21
32.96815587634188
 31
0.0
  0
LINE
  5
67D
330
1F
100
AcDbEntity
  8
外形線
100
AcDbLine
 10
-51.24984816856819
 20
32.96814887678408
 30
0.0
 11
-51.24984816856819
 21
31.45867316877627
 31
0.0
  0
LINE
  5
67E
330
1F
100
AcDbEntity
  8
外形線
100
AcDbLine
 10
-51.24984811057664
 20
31.45867017360558
 30
0.0
 11
-52.96744413331945
 21
31.16767910783233
 31
0.0
  0
LINE
  5
67F
330
1F
100
AcDbEntity
  8
外形線
100
AcDbLine
 10
-52.96744803734261
 20
31.1676766172626
 30
0.0
 11
-52.96744803734261
 21
29.64158408796573
 31
0.0
  0
LINE
  5
680
330
1F
100
AcDbEntity
  8
外形線
100
AcDbLine
 10
-52.9674420797833
 20
29.6415910675143
 30
0.0
 11
-51.24985005900601
 21
29.16332464253299
 31
0.0
  0
LINE
  5
681
330
1F
100
AcDbEntity
  8
外形線
100
AcDbLine
 10
-51.24984816856819
 20
29.16332023298526
 30
0.0
 11
-51.24984816856819
 21
27.65384452497745
 31
0.0
  0
LINE
  5
682
330
1F
100
AcDbEntity
  8
外形線
100
AcDbLine
 10
-51.24984984647813
 20
27.65384659904488
 30
0.0
 11
-52.96745138898646
 21
27.3608281885937
 31
0.0
  0
LINE
  5
683
330
1F
100
AcDbEntity
  8
外形線
100
AcDbLine
 10
-52.96744803734261
 20
27.36082236921574
 30
0.0
 11
-52.96744803734261
 21
25.8367554441669
 31
0.0
  0
LINE
  5
684
330
1F
100
AcDbEntity
  8
外形線
100
AcDbLine
 10
-52.96743959990184
 20
25.83675321794482
 30
0.0
 11
-51.24984445531922
 21
25.35849090103733
 31
0.0
  0
LINE
  5
685
330
1F
100
AcDbEntity
  8
外形線
100
AcDbLine
 10
-51.24984816856819
 20
25.35849158918643
 30
0.0
 11
-51.24984816856819
 21
23.84901206648135
 31
0.0
  0
LINE
  5
686
330
1F
100
AcDbEntity
  8
外形線
100
AcDbLine
 10
-51.24985189814554
 20
23.84902262416989
 30
0.0
 11
-52.96744967167573
 21
23.55600480476875
 31
0.0
  0
LINE
  5
687
330
1F
100
AcDbEntity
  8
外形線
100
AcDbLine
 10
-52.96744803734261
 20
23.5559937254169
 30
0.0
 11
-52.96744803734261
 21
22.03192680036807
 31
0.0
  0
LINE
  5
688
330
1F
100
AcDbEntity
  8
外形線
100
AcDbLine
 10
-52.96744784382604
 20
22.03193696384023
 30
0.0
 11
-51.24984883948854
 21
21.55366717710348
 31
0.0
  0
LINE
  5
689
330
1F
100
AcDbEntity
  8
外形線
100
AcDbLine
 10
-51.24984816856819
 20
21.55365913069033
 30
0.0
 11
-51.24984816856819
 21
20.04418342268252
 31
0.0
  0
LINE
  5
68A
330
1F
100
AcDbEntity
  8
外形線
100
AcDbLine
 10
-51.24984566722801
 20
20.04418964038146
 30
0.0
 11
-52.96744727293122
 21
19.75117160036336
 31
0.0
  0
LINE
  5
68B
330
1F
100
AcDbEntity
  8
外形線
100
AcDbLine
 10
-52.96744803734261
 20
19.75116508161807
 30
0.0
 11
-52.96744803734261
 21
18.22709434187197
 31
0.0
  0
LINE
  5
68C
330
1F
100
AcDbEntity
  8
外形線
100
AcDbLine
 10
-52.9674400483411
 20
18.22711419333538
 30
0.0
 11
-51.24984257015364
 21
17.74884603618568
 31
0.0
  0
LINE
  5
68D
330
1F
100
AcDbEntity
  8
外形線
100
AcDbLine
 10
-51.24982146568733
 20
17.74882285749697
 30
0.0
 11
-51.24982146568733
 21
16.23934714948916
 31
0.0
  0
LINE
  5
68E
330
1F
100
AcDbEntity
  8
外形線
100
AcDbLine
 10
-51.24984934701643
 20
16.2393516173455
 30
0.0
 11
-52.96745105258771
 21
15.94633699823666
 31
0.0
  0
LINE
  5
68F
330
1F
100
AcDbEntity
  8
外形線
100
AcDbLine
 10
-52.96739653892952
 20
15.94633262312197
 30
0.0
 11
-52.96739653892952
 21
14.42226569807315
 31
0.0
  0
LINE
  5
690
330
1F
100
AcDbEntity
  8
外形線
100
AcDbLine
 10
-52.96744265820123
 20
14.42227312460687
 30
0.0
 11
-51.2498443224366
 21
13.94400804727215
 31
0.0
  0
LINE
  5
691
330
1F
100
AcDbEntity
  8
外形線
100
AcDbLine
 10
-51.24982146568733
 20
13.94399421369814
 30
0.0
 11
-51.24982146568733
 21
12.43451850569033
 31
0.0
  0
LINE
  5
692
330
1F
100
AcDbEntity
  8
外形線
100
AcDbLine
 10
-51.24985177677978
 20
12.43451719292363
 30
0.0
 11
-52.96745293395743
 21
12.14149935924285
 31
0.0
  0
LINE
  5
693
330
1F
100
AcDbEntity
  8
外形線
100
AcDbLine
 10
-52.96744803734261
 20
12.14149634992861
 30
0.0
 11
-52.96744803734261
 21
10.61743705427432
 31
0.0
  0
LINE
  5
694
330
1F
100
AcDbEntity
  8
外形線
100
AcDbLine
 10
-52.96744162757504
 20
10.61743200345182
 30
0.0
 11
-51.24984194572423
 21
10.13916464985931
 31
0.0
  0
LINE
  5
695
330
1F
100
AcDbEntity
  8
外形線
100
AcDbLine
 10
-51.24984816856819
 20
10.13916556989932
 30
0.0
 11
-51.24984816856819
 21
8.629678417799709
 31
0.0
  0
LINE
  5
696
330
1F
100
AcDbEntity
  8
外形線
100
AcDbLine
 10
-51.24984734326482
 20
8.629688574518411
 30
0.0
 11
-52.96745007020724
 21
8.336677107012008
 31
0.0
  0
LINE
  5
697
330
1F
100
AcDbEntity
  8
外形線
100
AcDbLine
 10
-52.96740226097544
 20
8.336675335524319
 30
0.0
 11
-52.96740226097544
 21
6.812604595778252
 31
0.0
  0
LINE
  5
698
330
1F
100
AcDbEntity
  8
外形線
100
AcDbLine
 10
-52.96743826496643
 20
6.812606227392847
 30
0.0
 11
-51.24983782930383
 21
6.334341580970032
 31
0.0
  0
LINE
  5
699
330
1F
100
AcDbEntity
  8
外形線
100
AcDbLine
 10
-51.24987487144914
 20
6.334333111403252
 30
0.0
 11
-51.24987487144914
 21
4.824865032789971
 31
0.0
  0
LINE
  5
69A
330
1F
100
AcDbEntity
  8
外形線
100
AcDbLine
 10
-75.45583848305182
 20
47.94658820783879
 30
0.0
 11
-51.24984435387093
 21
47.94658820783879
 31
0.0
  0
LINE
  5
69B
330
1F
100
AcDbEntity
  8
外形線
100
AcDbLine
 10
-75.45584313905616
 20
32.72723308459993
 30
0.0
 11
-73.73824158306263
 21
32.25621393684671
 31
0.0
  0
LINE
  5
69C
330
1F
100
AcDbEntity
  8
外形線
100
AcDbLine
 10
-73.73824258495503
 20
34.53494673335089
 30
0.0
 11
-75.45584345243992
 21
34.23671246822971
 31
0.0
  0
LINE
  5
69D
330
1F
100
AcDbEntity
  8
外形線
100
AcDbLine
 10
-73.73824576683481
 20
47.94658820783879
 30
0.0
 11
-51.24985389061412
 21
47.94658820783879
 31
0.0
  0
LINE
  5
69E
330
1F
100
AcDbEntity
  8
外形線
100
AcDbLine
 10
-75.45584182091204
 20
34.23670356428409
 30
0.0
 11
-75.45584182091204
 21
32.72722404157902
 31
0.0
  0
LINE
  5
69F
330
1F
100
AcDbEntity
  8
外形線
100
AcDbLine
 10
-73.73824052162615
 20
36.05900733625674
 30
0.0
 11
-73.73824052162615
 21
34.53494041120791
 31
0.0
  0
LINE
  5
6A0
330
1F
100
AcDbEntity
  8
外形線
100
AcDbLine
 10
-73.73688142598223
 20
30.34177947441361
 30
0.0
 11
-73.73824145897505
 21
32.25621086640681
 31
0.0
  0
LINE
  5
6A1
330
1F
100
AcDbEntity
  8
外形線
100
AcDbLine
 10
-75.45583763617982
 20
36.53206419102929
 30
0.0
 11
-73.73823719351014
 21
36.059018450639
 31
0.0
  0
LINE
  5
6A2
330
1F
100
AcDbEntity
  8
外形線
100
AcDbLine
 10
-99.25571594050957
 20
23.66232358125671
 30
0.0
 11
-83.35401817096254
 21
39.56402269121674
 31
0.0
  0
LINE
  5
6A3
330
1F
100
AcDbEntity
  8
外形線
100
AcDbLine
 10
-90.41797304645012
 20
14.82612563677008
 30
0.0
 11
-91.42241663221261
 21
13.39997531126761
 31
0.0
  0
LINE
  5
6A4
330
1F
100
AcDbEntity
  8
外形線
100
AcDbLine
 10
-91.4224203183601
 20
13.39997579971265
 30
0.0
 11
-90.35507253403082
 21
12.33262144750284
 31
0.0
  0
LINE
  5
6A5
330
1F
100
AcDbEntity
  8
外形線
100
AcDbLine
 10
-90.35505984588812
 20
12.33261872170962
 30
0.0
 11
-88.80402202528481
 21
13.2144616202824
 31
0.0
  0
LINE
  5
6A6
330
1F
100
AcDbEntity
  8
外形線
100
AcDbLine
 10
-88.80402023823121
 20
13.21446878259644
 30
0.0
 11
-87.72553554591645
 21
12.13751428335402
 31
0.0
  0
LINE
  5
6A7
330
1F
100
AcDbEntity
  8
外形線
100
AcDbLine
 10
-87.72553355656214
 20
12.13750922801319
 30
0.0
 11
-88.73199773669071
 21
10.70955803414998
 31
0.0
  0
LINE
  5
6A8
330
1F
100
AcDbEntity
  8
外形線
100
AcDbLine
 10
-88.73199986922674
 20
10.70956546089505
 30
0.0
 11
-87.66463945268553
 21
9.642196766920053
 31
0.0
  0
LINE
  5
6A9
330
1F
100
AcDbEntity
  8
外形線
100
AcDbLine
 10
-87.66463730035706
 20
9.642193336948508
 30
0.0
 11
-86.11158879886946
 21
10.52584820292853
 31
0.0
  0
LINE
  5
6AA
330
1F
100
AcDbEntity
  8
外形線
100
AcDbLine
 10
-86.11158618241502
 20
10.52585297732452
 30
0.0
 11
-85.03310884976412
 21
9.448910003172327
 31
0.0
  0
LINE
  5
6AB
330
1F
100
AcDbEntity
  8
外形線
100
AcDbLine
 10
-85.03310989807284
 20
9.448908421343247
 30
0.0
 11
-86.0415797075977
 21
8.019146067744911
 31
0.0
  0
LINE
  5
6AC
330
1F
100
AcDbEntity
  8
外形線
100
AcDbLine
 10
-86.0415852649673
 20
8.019136722493101
 30
0.0
 11
-84.97421770007784
 21
6.951761689871887
 31
0.0
  0
LINE
  5
6AD
330
1F
100
AcDbEntity
  8
外形線
100
AcDbLine
 10
-84.97421988110181
 20
6.95177975048665
 30
0.0
 11
-83.41916550658352
 21
7.837246936935456
 31
0.0
  0
LINE
  5
6AE
330
1F
100
AcDbEntity
  8
外形線
100
AcDbLine
 10
-83.41916326010268
 20
7.837240593309672
 30
0.0
 11
-82.34068526794244
 21
6.760303678258111
 31
0.0
  0
LINE
  5
6AF
330
1F
100
AcDbEntity
  8
外形線
100
AcDbLine
 10
-82.34068938718932
 20
6.760313174414192
 30
0.0
 11
-83.3511689707894
 21
5.328738165028539
 31
0.0
  0
LINE
  5
6B0
330
1F
100
AcDbEntity
  8
外形線
100
AcDbLine
 10
-83.35116211730364
 20
5.32873150402267
 30
0.0
 11
-82.2837912234188
 21
4.261359800383814
 31
0.0
  0
LINE
  5
6B1
330
1F
100
AcDbEntity
  8
外形線
100
AcDbLine
 10
-82.28379376296633
 20
4.261360194356909
 30
0.0
 11
-80.72673285265954
 21
5.148638155427191
 31
0.0
  0
LINE
  5
6B2
330
1F
100
AcDbEntity
  8
外形線
100
AcDbLine
 10
-80.72673454045565
 20
5.14862648123929
 30
0.0
 11
-79.64825081059029
 21
4.071679116134703
 31
0.0
  0
LINE
  5
6B3
330
1F
100
AcDbEntity
  8
外形線
100
AcDbLine
 10
-79.64824170299104
 20
4.071687438507551
 30
0.0
 11
-80.66073279997533
 21
2.63830125064527
 31
0.0
  0
LINE
  5
6B4
330
1F
100
AcDbEntity
  8
外形線
100
AcDbLine
 10
-80.66072860246052
 20
2.638297799012661
 30
0.0
 11
-79.59337025086103
 21
1.570940527071627
 31
0.0
  0
LINE
  5
6B5
330
1F
100
AcDbEntity
  8
外形線
100
AcDbLine
 10
-79.59337909891573
 20
1.570943544936169
 30
0.0
 11
-78.03429911414281
 21
2.460025315658981
 31
0.0
  0
LINE
  5
6B6
330
1F
100
AcDbEntity
  8
外形線
100
AcDbLine
 10
-78.03430054351065
 20
2.460023053798863
 30
0.0
 11
-76.95581894700623
 21
1.383073552294149
 31
0.0
  0
LINE
  5
6B7
330
1F
100
AcDbEntity
  8
外形線
100
AcDbLine
 10
-76.95581770303681
 20
1.383062686181005
 30
0.0
 11
-77.97031282757103
 21
-0.0521303790976902
 31
0.0
  0
LINE
  5
6B8
330
1F
100
AcDbEntity
  8
外形線
100
AcDbLine
 10
-77.97031963430661
 20
-0.0521309638441494
 30
0.0
 11
-76.90296240735131
 21
-1.119489360429354
 31
0.0
  0
LINE
  5
6B9
330
1F
100
AcDbEntity
  8
外形線
100
AcDbLine
 10
-76.90295315936451
 20
-1.119498837269702
 30
0.0
 11
-75.34186717158611
 21
-0.2285907132131513
 31
0.0
  0
LINE
  5
6BA
330
1F
100
AcDbEntity
  8
外形線
100
AcDbLine
 10
-73.67629309644761
 20
-1.891794134203791
 30
0.0
 11
-75.34187001592997
 21
-0.2285827787450501
 31
0.0
  0
LWPOLYLINE
  5
6BB
330
1F
100
AcDbEntity
  8
外形線
100
AcDbPolyline
 90
       14
 70
     0
 43
1.750000026077032
 10
-73.73660069975503
 20
29.94661913295613
 10
-72.08189057511254
 20
27.20522224227352
 10
-70.62774093734043
 20
24.39190475465736
 10
-67.75107563657872
 20
18.33559910401962
 10
-65.61824450117021
 20
13.92582074409893
 10
-63.95947784152625
 20
9.491823775878456
 10
-63.5476164396962
 20
6.711574532458995
 10
-63.68029850678112
 20
5.238169416635741
 10
-64.23628092812122
 20
3.690621152113634
 10
-65.0465227222152
 20
2.547403733405501
 10
-66.13284288815481
 20
1.523213089212275
 10
-68.88967984837425
 20
-0.1656318804662931
 10
-70.96447604447911
 20
-1.023234467559603
 10
-73.73824052162615
 20
-1.829934690912182
  0
DIMENSION
  5
6BC
330
1F
100
AcDbEntity
  8
寸法線
100
AcDbDimension
280
     0
  2
*D2
 10
-36.40600849820315
 20
-13.65542061174128
 30
0.0
 11
-36.40600849820315
 21
17.14558379804873
 31
0.0
 70
   160
  1
L1
 71
     5
 42
61.60200881958008
 73
     0
 74
     0
 75
     0
  3
ISO-25
100
AcDbAlignedDimension
 13
-51.24985389061412
 23
47.94658820783879
 33
0.0
 14
-51.24984816856819
 24
-13.65542061174128
 34
0.0
 50
90.0
100
AcDbRotatedDimension
1001
ACAD
1000
DSTYLE
1002
{
1070
   278
1070
    46
1070
   147
1040
0.8000000119209291
1070
    77
1070
     1
1070
    74
1070
     0
1070
    73
1070
     0
1070
    42
1040
2.54
1070
    44
1040
2.286000000000029
1070
    76
1070
     0
1070
    75
1070
     0
1070
   279
1070
     0
1070
   271
1070
     0
1070
   173
1070
     1
1070
    41
1040
3.0
1070
   140
1040
3.200000047683716
1070
   344
1005
1A3
1070
   343
1005
1A3
1002
}
  0
DIMENSION
  5
6BD
330
1F
100
AcDbEntity
  8
寸法線
100
AcDbDimension
280
     0
  2
*D3
 10
-75.45584182091204
 20
-29.44387135182802
 30
0.0
 11
-63.58839803677881
 21
-29.44387135182802
 31
0.0
 70
   160
  1
∅A
 71
     5
 42
24.20599365234384
 73
     0
 74
     0
 75
     0
  3
ISO-25
100
AcDbAlignedDimension
 13
-51.24984816856819
 23
-13.65542824113584
 33
0.0
 14
-75.45584182091204
 24
-12.93069679582333
 34
0.0
100
AcDbRotatedDimension
1001
ACAD
1000
DSTYLE
1002
{
1070
   278
1070
    46
1070
   147
1040
0.8000000119209291
1070
    77
1070
     1
1070
    74
1070
     0
1070
    73
1070
     0
1070
    42
1040
2.54
1070
    44
1040
2.286
1070
    76
1070
     0
1070
    75
1070
     0
1070
   279
1070
     0
1070
   271
1070
     0
1070
   173
1070
     1
1070
    41
1040
3.0
1070
   140
1040
3.200000047683716
1070
   344
1005
1A3
1070
   343
1005
1A3
1002
}
  0
DIMENSION
  5
6BE
330
1F
100
AcDbEntity
  8
寸法線
100
AcDbDimension
280
     0
  2
*D4
 10
-80.99047181704811
 20
-15.6447954298138
 30
0.0
 11
-95.40904838394544
 21
-1.365556285250647
 31
0.0
 70
   160
  1
L2
 71
     5
 42
40.58531862239987
 73
     0
 74
     0
 75
     0
  3
ISO-25
100
AcDbAlignedDimension
 13
-91.71697374301079
 23
31.20105865224799
 33
0.0
 14
-62.38877516720761
 24
3.138417366369679
 34
0.0
 50
135.2781878444879
100
AcDbRotatedDimension
1001
ACAD
1000
DSTYLE
1002
{
1070
   278
1070
    46
1070
   147
1040
0.8000000119209291
1070
    77
1070
     1
1070
    74
1070
     0
1070
    73
1070
     0
1070
    42
1040
2.54
1070
    44
1040
2.285999999999979
1070
    76
1070
     0
1070
    75
1070
     0
1070
   279
1070
     0
1070
   271
1070
     0
1070
   173
1070
     1
1070
    41
1040
3.0
1070
   140
1040
3.200000047683716
1070
   344
1005
1A3
1070
   343
1005
1A3
1002
}
  0
DIMENSION
  5
6BF
330
1F
100
AcDbEntity
  8
寸法線
100
AcDbDimension
280
     0
  2
*D5
 10
-92.68314595888377
 20
53.63847004118399
 30
0.0
 11
-85.80128936119521
 21
57.03222339308045
 31
0.0
 70
   165
  1
45°
 71
     5
 42
0.7853984086913274
 73
     0
 74
     0
 75
     0
  3
ISO-25
100
AcDb3PointAngularDimension
 13
-63.35287291696197
 23
49.22239181797596
 33
0.0
 14
-95.29742869165071
 24
34.78149733985373
 34
0.0
 15
-63.35289407002804
 25
2.836949254613841
 35
0.0
1001
ACAD
1000
DSTYLE
1002
{
1070
   278
1070
    46
1070
   275
1070
     3
1070
   147
1040
0.8000000119209291
1070
    77
1070
     1
1070
    74
1070
     0
1070
    73
1070
     0
1070
    42
1040
2.54
1070
    44
1040
1.000000281242547
1070
    76
1070
     0
1070
    75
1070
     0
1070
   279
1070
     0
1070
   179
1070
     0
1070
   173
1070
     1
1070
    41
1040
3.0
1070
   140
1040
3.200000047683716
1070
   344
1005
1A3
1070
   343
1005
1A3
1002
}
  0
DIMENSION
  5
760
330
1F
100
AcDbEntity
  8
寸法線
100
AcDbDimension
280
     0
  2
*D6
 10
-52.96744803734261
 20
-23.18138978712369
 30
0.0
 11
-63.35284427948439
 21
-20.78138975136091
 31
0.0
 70
    32
  1
∅B
 71
     5
 42
20.77079248428353
 73
     0
 74
     0
 75
     0
  3
ISO-25
100
AcDbAlignedDimension
 13
-73.73824052162615
 23
-11.12291939103818
 33
0.0
 14
-52.96744803734261
 24
-11.12291939103818
 34
0.0
100
AcDbRotatedDimension
1001
ACAD
1000
DSTYLE
1002
{
1070
    41
1040
3.0
1070
    42
1040
2.54
1070
    44
1040
1.0
1070
   140
1040
3.200000047683716
1070
   147
1040
0.8000000119209291
1070
   173
1070
     1
1070
   271
1070
     0
1070
   278
1070
    46
1070
   343
1005
1A3
1070
   344
1005
1A3
1002
}
  0
MTEXT
  5
840
330
1F
100
AcDbEntity
  8
VIEW0001
 62
     7
100
AcDbMText
 10
59.89285540580749
 20
-93.0
 30
0.0
 40
4.5
 41
0.0
 46
0.0
 71
     7
 72
     1
  1
{\W1.3889;　デンカ株式会社}
 73
     1
 44
1.0
  0
LINE
  5
89C
330
1F
100
AcDbEntity
  8
0
  6
Continuous
 62
     7
100
AcDbLine
 10
3.951605081558226
 20
56.36327838897705
 30
0.0
 11
108.9516067504883
 21
56.36327838897705
 31
0.0
  0
LINE
  5
89D
330
1F
100
AcDbEntity
  8
0
  6
Continuous
 62
     7
100
AcDbLine
 10
3.951605081558226
 20
50.36327838897705
 30
0.0
 11
108.9516067504883
 21
50.36327838897705
 31
0.0
  0
LINE
  5
89E
330
1F
100
AcDbEntity
  8
0
  6
Continuous
 62
     7
100
AcDbLine
 10
3.951605081558226
 20
68.3632755279541
 30
0.0
 11
108.9516067504883
 21
68.3632755279541
 31
0.0
  0
LINE
  5
89F
330
1F
100
AcDbEntity
  8
0
  6
Continuous
 62
     7
100
AcDbLine
 10
3.951605081558226
 20
62.3632755279541
 30
0.0
 11
108.9516067504883
 21
62.3632755279541
 31
0.0
  0
MTEXT
  5
8A0
330
1F
100
AcDbEntity
  8
0
 62
     7
100
AcDbMText
 10
6.30874705314636
 20
39.76328217983247
 30
0.0
 40
3.200000047683716
 41
0.0
 46
0.0
 71
     7
 72
     1
  1
TDW200
 73
     1
 44
1.0
  0
MTEXT
  5
8A1
330
1F
100
AcDbEntity
  8
0
 62
     7
100
AcDbMText
 10
6.308747053146361
 20
45.76328217983247
 30
0.0
 40
3.200000047683716
 41
0.0
 46
0.0
 71
     7
 72
     1
  1
TDW150
 73
     1
 44
1.0
  0
MTEXT
  5
8A2
330
1F
100
AcDbEntity
  8
0
 62
     7
100
AcDbMText
 10
6.308747053146362
 20
51.76327931880952
 30
0.0
 40
3.200000047683716
 41
0.0
 46
0.0
 71
     7
 72
     1
  1
TDW100
 73
     1
 44
1.0
  0
MTEXT
  5
8A3
330
1F
100
AcDbEntity
  8
0
 62
     7
100
AcDbMText
 10
6.30874705314636
 20
57.76327931880953
 30
0.0
 40
3.200000047683716
 41
0.0
 46
0.0
 71
     7
 72
     1
  1
TDW75
 73
     1
 44
1.0
  0
MTEXT
  5
8A6
330
1F
100
AcDbEntity
  8
0
 62
     7
100
AcDbMText
 10
38.80268915450597
 20
41.3632822036743
 30
0.0
 40
3.200000047683716
 41
0.0
 46
0.0
 71
     5
 72
     1
  1
235
 73
     1
 44
1.0
  0
MTEXT
  5
8A7
330
1F
100
AcDbEntity
  8
0
 62
     7
100
AcDbMText
 10
58.95160484313965
 20
41.3632822036743
 30
0.0
 40
3.200000047683716
 41
0.0
 46
0.0
 71
     5
 72
     1
  1
200
 73
     1
 44
1.0
  0
MTEXT
  5
8A8
330
1F
100
AcDbEntity
  8
0
 62
     7
100
AcDbMText
 10
98.95160484313965
 20
41.3632822036743
 30
0.0
 40
3.200000047683716
 41
0.0
 46
0.0
 71
     5
 72
     1
  1
600
 73
     1
 44
1.0
  0
MTEXT
  5
8A9
330
1F
100
AcDbEntity
  8
0
 62
     7
100
AcDbMText
 10
78.95160484313966
 20
41.3632822036743
 30
0.0
 40
3.200000047683716
 41
0.0
 46
0.0
 71
     5
 72
     1
  1
1000
 73
     1
 44
1.0
  0
MTEXT
  5
8AA
330
1F
100
AcDbEntity
  8
0
 62
     7
100
AcDbMText
 10
38.80268915450597
 20
47.36328220367431
 30
0.0
 40
3.200000047683716
 41
0.0
 46
0.0
 71
     5
 72
     1
  1
175
 73
     1
 44
1.0
  0
MTEXT
  5
8AB
330
1F
100
AcDbEntity
  8
0
 62
     7
100
AcDbMText
 10
58.95160484313965
 20
47.36328220367431
 30
0.0
 40
3.200000047683716
 41
0.0
 46
0.0
 71
     5
 72
     1
  1
150
 73
     1
 44
1.0
  0
MTEXT
  5
8AC
330
1F
100
AcDbEntity
  8
0
 62
     7
100
AcDbMText
 10
98.95160484313965
 20
47.36328220367431
 30
0.0
 40
3.200000047683716
 41
0.0
 46
0.0
 71
     5
 72
     1
  1
450
 73
     1
 44
1.0
  0
MTEXT
  5
8AD
330
1F
100
AcDbEntity
  8
0
 62
     7
100
AcDbMText
 10
78.95160484313966
 20
47.36328220367431
 30
0.0
 40
3.200000047683716
 41
0.0
 46
0.0
 71
     5
 72
     1
  1
800
 73
     1
 44
1.0
  0
MTEXT
  5
8AE
330
1F
100
AcDbEntity
  8
0
 62
     7
100
AcDbMText
 10
38.80268915450597
 20
53.36327934265136
 30
0.0
 40
3.200000047683716
 41
0.0
 46
0.0
 71
     5
 72
     1
  1
118
 73
     1
 44
1.0
  0
MTEXT
  5
8AF
330
1F
100
AcDbEntity
  8
0
 62
     7
100
AcDbMText
 10
58.95160484313965
 20
53.36327934265136
 30
0.0
 40
3.200000047683716
 41
0.0
 46
0.0
 71
     5
 72
     1
  1
100
 73
     1
 44
1.0
  0
MTEXT
  5
8B0
330
1F
100
AcDbEntity
  8
0
 62
     7
100
AcDbMText
 10
98.95160484313965
 20
53.36327934265136
 30
0.0
 40
3.200000047683716
 41
0.0
 46
0.0
 71
     5
 72
     1
  1
370
 73
     1
 44
1.0
  0
MTEXT
  5
8B1
330
1F
100
AcDbEntity
  8
0
 62
     7
100
AcDbMText
 10
78.95160484313966
 20
53.36327934265136
 30
0.0
 40
3.200000047683716
 41
0.0
 46
0.0
 71
     5
 72
     1
  1
700
 73
     1
 44
1.0
  0
MTEXT
  5
8B2
330
1F
100
AcDbEntity
  8
0
 62
     7
100
AcDbMText
 10
38.80268915450597
 20
59.36327934265136
 30
0.0
 40
3.200000047683716
 41
0.0
 46
0.0
 71
     5
 72
     1
  1
87
 73
     1
 44
1.0
  0
MTEXT
  5
8B3
330
1F
100
AcDbEntity
  8
0
 62
     7
100
AcDbMText
 10
58.95160484313965
 20
59.36327934265136
 30
0.0
 40
3.200000047683716
 41
0.0
 46
0.0
 71
     5
 72
     1
  1
75
 73
     1
 44
1.0
  0
MTEXT
  5
8B4
330
1F
100
AcDbEntity
  8
0
 62
     7
100
AcDbMText
 10
98.95160484313965
 20
59.36327934265136
 30
0.0
 40
3.200000047683716
 41
0.0
 46
0.0
 71
     5
 72
     1
  1
350
 73
     1
 44
1.0
  0
MTEXT
  5
8B5
330
1F
100
AcDbEntity
  8
0
 62
     7
100
AcDbMText
 10
78.95160484313966
 20
59.36327934265136
 30
0.0
 40
3.200000047683716
 41
0.0
 46
0.0
 71
     5
 72
     1
  1
600
 73
     1
 44
1.0
  0
ENDSEC
  0
SECTION
  2
OBJECTS
  0
DICTIONARY
  5
C
330
0
100
AcDbDictionary
281
     1
  3
ACAD_CIP_PREVIOUS_PRODUCT_INFO
350
835
  3
ACAD_COLOR
350
221
  3
ACAD_DETAILVIEWSTYLE
350
832
  3
ACAD_GROUP
350
D
  3
ACAD_LAYOUT
350
1A
  3
ACAD_MATERIAL
350
220
  3
ACAD_MLEADERSTYLE
350
82E
  3
ACAD_MLINESTYLE
350
17
  3
ACAD_PLOTSETTINGS
350
19
  3
ACAD_PLOTSTYLENAME
350
E
  3
ACAD_SCALELIST
350
81C
  3
ACAD_SECTIONVIEWSTYLE
350
830
  3
ACAD_TABLESTYLE
350
222
  3
ACAD_VISUALSTYLE
350
803
  3
ACDB_RECOMPOSE_DATA
350
9ED
  3
AcDbVariableDictionary
350
287
  0
DICTIONARY
  5
8B9
330
8
100
AcDbDictionary
280
     1
281
     1
  0
DICTIONARY
  5
841
330
10
100
AcDbDictionary
280
     1
281
     1
  3
ADSK_XREC_LAYER_RECONCILED
360
842
  0
DICTIONARY
  5
843
330
210
100
AcDbDictionary
280
     1
281
     1
  3
ADSK_XREC_LAYER_RECONCILED
360
844
  0
DICTIONARY
  5
845
330
295
100
AcDbDictionary
280
     1
281
     1
  3
ADSK_XREC_LAYER_RECONCILED
360
846
  0
DICTIONARY
  5
847
330
296
100
AcDbDictionary
280
     1
281
     1
  3
ADSK_XREC_LAYER_RECONCILED
360
848
  0
DICTIONARY
  5
849
330
297
100
AcDbDictionary
280
     1
281
     1
  3
ADSK_XREC_LAYER_RECONCILED
360
84A
  0
DICTIONARY
  5
84B
330
298
100
AcDbDictionary
280
     1
281
     1
  3
ADSK_XREC_LAYER_RECONCILED
360
84C
  0
DICTIONARY
  5
84D
330
299
100
AcDbDictionary
280
     1
281
     1
  3
ADSK_XREC_LAYER_RECONCILED
360
84E
  0
DICTIONARY
  5
84F
330
29A
100
AcDbDictionary
280
     1
281
     1
  3
ADSK_XREC_LAYER_RECONCILED
360
850
  0
DICTIONARY
  5
851
330
29B
100
AcDbDictionary
280
     1
281
     1
  3
ADSK_XREC_LAYER_RECONCILED
360
852
  0
DICTIONARY
  5
853
330
31A
100
AcDbDictionary
280
     1
281
     1
  3
ADSK_XREC_LAYER_RECONCILED
360
854
  0
DICTIONARY
  5
307
330
1F
100
AcDbDictionary
280
     1
281
     1
  3
ACAD_SORTENTS
360
308
  0
DICTIONARY
  5
8C6
330
7B2
100
AcDbDictionary
280
     1
281
     1
  0
DICTIONARY
  5
8C8
330
7CE
100
AcDbDictionary
280
     1
281
     1
  0
DICTIONARY
  5
8BB
330
158
100
AcDbDictionary
280
     1
281
     1
  0
DICTIONARY
  5
8BD
330
159
100
AcDbDictionary
280
     1
281
     1
  0
XRECORD
  5
835
102
{ACAD_REACTORS
330
C
102
}
330
C
100
AcDbXrecord
280
     1
300
ACDLT
300
2014
300
INVLTS_F_S
  0
DICTIONARY
  5
221
102
{ACAD_REACTORS
330
C
102
}
330
C
100
AcDbDictionary
281
     1
  0
DICTIONARY
  5
832
102
{ACAD_REACTORS
330
C
102
}
330
C
100
AcDbDictionary
281
     1
  3
Metric50
350
833
  0
DICTIONARY
  5
D
102
{ACAD_REACTORS
330
C
102
}
330
C
100
AcDbDictionary
281
     1
  0
DICTIONARY
  5
1A
102
{ACAD_REACTORS
330
C
102
}
330
C
100
AcDbDictionary
281
     1
  3
Layout1
350
1E
  3
Layout2
350
26
  3
Model
350
22
  0
DICTIONARY
  5
220
102
{ACAD_REACTORS
330
C
102
}
330
C
100
AcDbDictionary
281
     1
  3
ByBlock
350
7F3
  3
ByLayer
350
7EB
  3
Global
350
7FB
  0
DICTIONARY
  5
82E
102
{ACAD_REACTORS
330
C
102
}
330
C
100
AcDbDictionary
281
     1
  3
Standard
350
82F
  0
DICTIONARY
  5
17
102
{ACAD_REACTORS
330
C
102
}
330
C
100
AcDbDictionary
281
     1
  3
Standard
350
18
  0
DICTIONARY
  5
19
102
{ACAD_REACTORS
330
C
102
}
330
C
100
AcDbDictionary
281
     1
  3
111
350
387
  0
ACDBDICTIONARYWDFLT
  5
E
102
{ACAD_REACTORS
330
C
102
}
330
C
100
AcDbDictionary
281
     1
  3
Normal
350
F
100
AcDbDictionaryWithDefault
340
F
  0
DICTIONARY
  5
81C
102
{ACAD_REACTORS
330
C
102
}
330
C
100
AcDbDictionary
281
     1
  3
A0
350
81D
  3
A1
350
81E
  3
A2
350
81F
  3
A3
350
820
  3
A4
350
821
  3
A5
350
822
  3
A6
350
823
  3
A7
350
824
  3
A8
350
825
  3
A9
350
826
  3
B0
350
827
  3
B1
350
828
  3
B2
350
829
  3
B3
350
82A
  3
B4
350
82B
  3
B5
350
82C
  3
B6
350
82D
  0
DICTIONARY
  5
830
102
{ACAD_REACTORS
330
C
102
}
330
C
100
AcDbDictionary
281
     1
  3
Metric50
350
831
  0
DICTIONARY
  5
222
102
{ACAD_REACTORS
330
C
102
}
330
C
100
AcDbDictionary
281
     1
  3
Standard
350
223
  0
DICTIONARY
  5
803
102
{ACAD_REACTORS
330
C
102
}
330
C
100
AcDbDictionary
281
     1
  3
2dWireframe
350
809
  3
Basic
350
808
  3
Brighten
350
80F
  3
ColorChange
350
813
  3
Conceptual
350
80C
  3
Dim
350
80E
  3
EdgeColorOff
350
81B
  3
Facepattern
350
812
  3
Flat
350
804
  3
FlatWithEdges
350
805
  3
Gouraud
350
806
  3
GouraudWithEdges
350
807
  3
Hidden
350
80B
  3
JitterOff
350
819
  3
Linepattern
350
811
  3
OverhangOff
350
81A
  3
Realistic
350
80D
  3
Shaded
350
818
  3
Shaded with edges
350
817
  3
Shades of Gray
350
814
  3
Sketchy
350
815
  3
Thicken
350
810
  3
Wireframe
350
80A
  3
X-Ray
350
816
  0
XRECORD
  5
9ED
102
{ACAD_REACTORS
330
C
102
}
330
C
100
AcDbXrecord
280
     1
 90
        1
330
223
  0
DICTIONARY
  5
287
102
{ACAD_REACTORS
330
C
102
}
330
C
100
AcDbDictionary
281
     1
  3
CANNOSCALE
350
88D
  3
CMLEADERSTYLE
350
889
  3
CTABLESTYLE
350
288
  3
CVIEWDETAILSTYLE
350
88A
  3
CVIEWSECTIONSTYLE
350
88B
  3
DIMASSOC
350
289
  3
LAYEREVAL
350
88F
  3
LAYERNOTIFY
350
890
  3
LIGHTINGUNITS
350
88E
  3
MSLTSCALE
350
88C
  3
PROJECTNAME
350
28A
  0
XRECORD
  5
842
102
{ACAD_REACTORS
330
841
102
}
330
841
100
AcDbXrecord
280
     1
290
     1
  0
XRECORD
  5
844
102
{ACAD_REACTORS
330
843
102
}
330
843
100
AcDbXrecord
280
     1
290
     1
  0
XRECORD
  5
846
102
{ACAD_REACTORS
330
845
102
}
330
845
100
AcDbXrecord
280
     1
290
     1
  0
XRECORD
  5
848
102
{ACAD_REACTORS
330
847
102
}
330
847
100
AcDbXrecord
280
     1
290
     1
  0
XRECORD
  5
84A
102
{ACAD_REACTORS
330
849
102
}
330
849
100
AcDbXrecord
280
     1
290
     1
  0
XRECORD
  5
84C
102
{ACAD_REACTORS
330
84B
102
}
330
84B
100
AcDbXrecord
280
     1
290
     1
  0
XRECORD
  5
84E
102
{ACAD_REACTORS
330
84D
102
}
330
84D
100
AcDbXrecord
280
     1
290
     1
  0
XRECORD
  5
850
102
{ACAD_REACTORS
330
84F
102
}
330
84F
100
AcDbXrecord
280
     1
290
     1
  0
XRECORD
  5
852
102
{ACAD_REACTORS
330
851
102
}
330
851
100
AcDbXrecord
280
     1
290
     1
  0
XRECORD
  5
854
102
{ACAD_REACTORS
330
853
102
}
330
853
100
AcDbXrecord
280
     1
290
     1
  0
SORTENTSTABLE
  5
308
102
{ACAD_REACTORS
330
307
102
}
330
307
100
AcDbSortentsTable
330
1F
331
306
  5
326
331
158
  5
163
331
30
  5
30
331
19E
  5
1BD
331
17E
  5
186
331
186
  5
18B
331
216
  5
21D
331
165
  5
16A
331
16D
  5
172
331
45
  5
46
331
175
  5
17A
331
155
  5
15A
331
35
  5
35
331
19B
  5
1A0
331
3D
  5
3D
331
17B
  5
183
331
213
  5
21A
331
183
  5
188
331
18B
  5
197
331
193
  5
19B
331
162
  5
167
331
16A
  5
16F
331
172
  5
177
331
42
  5
42
331
15A
  5
165
331
198
  5
19D
331
32
  5
32
331
1A0
  5
1F9
331
3A
  5
3A
331
178
  5
17D
331
188
  5
18D
331
167
  5
16C
331
16F
  5
174
331
47
  5
4C
331
177
  5
17C
331
325
  5
40A
331
157
  5
162
331
2F
  5
2F
331
19D
  5
1A2
331
3F
  5
3F
331
17D
  5
185
331
185
  5
18A
331
215
  5
21C
331
18D
  5
199
331
164
  5
169
331
16C
  5
171
331
44
  5
44
331
174
  5
179
331
21A
  5
3B0
331
154
  5
159
331
19A
  5
19F
331
34
  5
34
331
3C
  5
3C
331
17A
  5
17F
331
212
  5
217
331
18A
  5
193
331
192
  5
19A
331
169
  5
16E
331
41
  5
41
331
171
  5
176
331
49
  5
4E
331
159
  5
164
331
31
  5
31
331
19F
  5
1D1
331
39
  5
39
331
17F
  5
187
331
217
  5
324
331
187
  5
18C
331
197
  5
19C
331
166
  5
16B
331
16E
  5
173
331
176
  5
17B
331
324
  5
409
331
46
  5
4B
331
156
  5
15B
331
2E
  5
2E
331
19C
  5
1A1
331
3E
  5
3E
331
17C
  5
184
331
214
  5
21B
331
184
  5
189
331
18C
  5
198
331
163
  5
168
331
309
  5
325
331
16B
  5
170
331
43
  5
43
331
173
  5
178
331
15B
  5
166
331
199
  5
19E
331
33
  5
33
331
1A1
  5
212
331
3B
  5
3B
331
179
  5
17E
331
189
  5
192
331
168
  5
16D
331
40
  5
40
331
170
  5
175
331
48
  5
4D
331
326
  5
40B
  0
ACDBDETAILVIEWSTYLE
  5
833
102
{ACAD_XDICTIONARY
360
A20
102
}
102
{ACAD_REACTORS
330
832
102
}
330
832
100
AcDbModelDocViewStyle
 70
     0
  3
Metric50
290
     0
100
AcDbDetailViewStyle
 70
     0
 71
     0
 90
        3
 71
     1
340
11
 62
   256
 40
5.0
340
0
 62
   256
 40
5.0
300

 40
0.0
280
     1
 71
     2
340
16
 90
       25
 62
   256
 71
     3
340
11
 62
   256
 40
5.0
 90
        0
 40
15.0
 90
        1
300
%<\AcVar ViewDetailId>% (%<\AcVar ViewScale \f "%sn">%)
 71
     4
340
16
 90
       25
 62
   256
340
16
 90
       25
 62
   256
280
     0
  0
LAYOUT
  5
1E
102
{ACAD_REACTORS
330
1A
102
}
330
1A
100
AcDbPlotSettings
  1

  2

  4

  6

 40
0.0
 41
0.0
 42
0.0
 43
0.0
 44
0.0
 45
0.0
 46
0.0
 47
0.0
 48
0.0
 49
0.0
140
0.0
141
0.0
142
1.0
143
1.0
 70
   688
 72
     0
 73
     0
 74
     5
  7

 75
    16
147
1.0
 76
     0
 77
     2
 78
   300
148
0.0
149
0.0
100
AcDbLayout
  1
Layout1
 70
     1
 71
     1
 10
-1108.76554107666
 20
-542.8267288208006
 11
1291.234855651856
 21
437.1732711791992
 12
0.0
 22
0.0
 32
0.0
 14
1.000000000000000E+20
 24
1.000000000000000E+20
 34
1.000000000000000E+20
 15
-1.000000000000000E+20
 25
-1.000000000000000E+20
 35
-1.000000000000000E+20
146
0.0
 13
0.0
 23
0.0
 33
0.0
 16
1.0
 26
0.0
 36
0.0
 17
0.0
 27
1.0
 37
0.0
 76
     0
330
1B
  0
LAYOUT
  5
26
102
{ACAD_REACTORS
330
1A
102
}
330
1A
100
AcDbPlotSettings
  1

  2

  4

  6

 40
0.0
 41
0.0
 42
0.0
 43
0.0
 44
0.0
 45
0.0
 46
0.0
 47
0.0
 48
0.0
 49
0.0
140
0.0
141
0.0
142
1.0
143
1.0
 70
   688
 72
     0
 73
     0
 74
     5
  7

 75
    16
147
1.0
 76
     0
 77
     2
 78
   300
148
0.0
149
0.0
100
AcDbLayout
  1
Layout2
 70
     1
 71
     2
 10
0.0
 20
0.0
 11
0.0
 21
0.0
 12
0.0
 22
0.0
 32
0.0
 14
0.0
 24
0.0
 34
0.0
 15
0.0
 25
0.0
 35
0.0
146
0.0
 13
0.0
 23
0.0
 33
0.0
 16
1.0
 26
0.0
 36
0.0
 17
0.0
 27
1.0
 37
0.0
 76
     0
330
23
  0
LAYOUT
  5
22
102
{ACAD_REACTORS
330
1A
102
}
330
1A
100
AcDbPlotSettings
  1
111
  2
RICOH IPSiO NX860e RPCS
  4
A4
  6

 40
5.873749732971191
 41
5.873747825622557
 42
5.873748779296875
 43
5.873748779296875
 44
209.9733276367186
 45
296.9259948730469
 46
1.388998790416676
 47
0.0
 48
0.0
 49
0.0
140
0.0
141
0.0
142
1.0
143
0.9696273663687613
 70
 11956
 72
     1
 73
     1
 74
     1
  7
monochrome.ctb
 75
     0
147
1.03132402682175
 76
     0
 77
     2
 78
   300
148
138.0084374665845
149
94.50578263984731
100
AcDbLayout
  1
Model
 70
     1
 71
     0
 10
-1108.76554107666
 20
-542.8267288208006
 11
1291.234855651856
 21
437.1732711791992
 12
0.0
 22
0.0
 32
0.0
 14
-1108.76554107666
 24
-542.8267288208006
 34
0.0
 15
1291.234855651856
 25
437.1732711791992
 35
0.0
146
0.0
 13
0.0
 23
0.0
 33
0.0
 16
1.0
 26
0.0
 36
0.0
 17
0.0
 27
1.0
 37
0.0
 76
     0
330
1F
331
7D3
1001
ACAD_PSEXT
1000
RICOH IPSiO NX860e RPCS
1000
RICOH IPSiO NX860e RPCS
1000
IP_192.168.110.192
1000
RPCS Driver (Windows 2000/XP/Server 2003/Vista)
1070
     0
  0
MATERIAL
  5
7F3
102
{ACAD_XDICTIONARY
360
7F4
102
}
102
{ACAD_REACTORS
330
220
102
}
330
220
100
AcDbMaterial
  1
ByBlock
 72
     0
 43
0.0008202099737533
 43
0.0
 43
0.0
 43
0.0
 43
0.0
 43
0.0008202099737533
 43
0.0
 43
0.0
 43
0.0
 43
0.0
 43
1.0
 43
0.0
 43
0.0
 43
0.0
 43
0.0
 43
1.0
 77
     0
 47
0.0008202099737533
 47
0.0
 47
0.0
 47
0.0
 47
0.0
 47
0.0008202099737533
 47
0.0
 47
0.0
 47
0.0
 47
0.0
 47
1.0
 47
0.0
 47
0.0
 47
0.0
 47
0.0
 47
1.0
171
     0
 49
0.0008202099737533
 49
0.0
 49
0.0
 49
0.0
 49
0.0
 49
0.0008202099737533
 49
0.0
 49
0.0
 49
0.0
 49
0.0
 49
1.0
 49
0.0
 49
0.0
 49
0.0
 49
0.0
 49
1.0
175
     0
142
0.0008202099737533
142
0.0
142
0.0
142
0.0
142
0.0
142
0.0008202099737533
142
0.0
142
0.0
142
0.0
142
0.0
142
1.0
142
0.0
142
0.0
142
0.0
142
0.0
142
1.0
179
     0
144
0.0008202099737533
144
0.0
144
0.0
144
0.0
144
0.0
144
0.0008202099737533
144
0.0
144
0.0
144
0.0
144
0.0
144
1.0
144
0.0
144
0.0
144
0.0
144
0.0
144
1.0
147
0.0008202099737533
147
0.0
147
0.0
147
0.0
147
0.0
147
0.0008202099737533
147
0.0
147
0.0
147
0.0
147
0.0
147
1.0
147
0.0
147
0.0
147
0.0
147
0.0
147
1.0
  0
MATERIAL
  5
7EB
102
{ACAD_XDICTIONARY
360
7EC
102
}
102
{ACAD_REACTORS
330
220
102
}
330
220
100
AcDbMaterial
  1
ByLayer
 72
     0
 43
0.0008202099737533
 43
0.0
 43
0.0
 43
0.0
 43
0.0
 43
0.0008202099737533
 43
0.0
 43
0.0
 43
0.0
 43
0.0
 43
1.0
 43
0.0
 43
0.0
 43
0.0
 43
0.0
 43
1.0
 77
     0
 47
0.0008202099737533
 47
0.0
 47
0.0
 47
0.0
 47
0.0
 47
0.0008202099737533
 47
0.0
 47
0.0
 47
0.0
 47
0.0
 47
1.0
 47
0.0
 47
0.0
 47
0.0
 47
0.0
 47
1.0
171
     0
 49
0.0008202099737533
 49
0.0
 49
0.0
 49
0.0
 49
0.0
 49
0.0008202099737533
 49
0.0
 49
0.0
 49
0.0
 49
0.0
 49
1.0
 49
0.0
 49
0.0
 49
0.0
 49
0.0
 49
1.0
175
     0
142
0.0008202099737533
142
0.0
142
0.0
142
0.0
142
0.0
142
0.0008202099737533
142
0.0
142
0.0
142
0.0
142
0.0
142
1.0
142
0.0
142
0.0
142
0.0
142
0.0
142
1.0
179
     0
144
0.0008202099737533
144
0.0
144
0.0
144
0.0
144
0.0
144
0.0008202099737533
144
0.0
144
0.0
144
0.0
144
0.0
144
1.0
144
0.0
144
0.0
144
0.0
144
0.0
144
1.0
147
0.0008202099737533
147
0.0
147
0.0
147
0.0
147
0.0
147
0.0008202099737533
147
0.0
147
0.0
147
0.0
147
0.0
147
1.0
147
0.0
147
0.0
147
0.0
147
0.0
147
1.0
  0
MATERIAL
  5
7FB
102
{ACAD_XDICTIONARY
360
7FC
102
}
102
{ACAD_REACTORS
330
220
102
}
330
220
100
AcDbMaterial
  1
Global
 72
     0
 43
0.0008202099737533
 43
0.0
 43
0.0
 43
0.0
 43
0.0
 43
0.0008202099737533
 43
0.0
 43
0.0
 43
0.0
 43
0.0
 43
1.0
 43
0.0
 43
0.0
 43
0.0
 43
0.0
 43
1.0
 77
     0
 47
0.0008202099737533
 47
0.0
 47
0.0
 47
0.0
 47
0.0
 47
0.0008202099737533
 47
0.0
 47
0.0
 47
0.0
 47
0.0
 47
1.0
 47
0.0
 47
0.0
 47
0.0
 47
0.0
 47
1.0
171
     0
 49
0.0008202099737533
 49
0.0
 49
0.0
 49
0.0
 49
0.0
 49
0.0008202099737533
 49
0.0
 49
0.0
 49
0.0
 49
0.0
 49
1.0
 49
0.0
 49
0.0
 49
0.0
 49
0.0
 49
1.0
175
     0
142
0.0008202099737533
142
0.0
142
0.0
142
0.0
142
0.0
142
0.0008202099737533
142
0.0
142
0.0
142
0.0
142
0.0
142
1.0
142
0.0
142
0.0
142
0.0
142
0.0
142
1.0
179
     0
144
0.0008202099737533
144
0.0
144
0.0
144
0.0
144
0.0
144
0.0008202099737533
144
0.0
144
0.0
144
0.0
144
0.0
144
1.0
144
0.0
144
0.0
144
0.0
144
0.0
144
1.0
147
0.0008202099737533
147
0.0
147
0.0
147
0.0
147
0.0
147
0.0008202099737533
147
0.0
147
0.0
147
0.0
147
0.0
147
1.0
147
0.0
147
0.0
147
0.0
147
0.0
147
1.0
  0
MLEADERSTYLE
  5
82F
102
{ACAD_REACTORS
330
82E
102
}
330
82E
100
AcDbMLeaderStyle
179
     2
170
     2
171
     1
172
     0
 90
        2
 40
0.0
 41
0.0
173
     1
 91
-1056964608
340
14
 92
       -2
290
     1
 42
2.0
291
     1
 43
0.36
  3
Standard
 44
4.0
300

342
11
174
     1
178
     6
175
     1
176
     0
 93
-1056964608
 45
4.0
292
     0
297
     0
 46
4.0
 94
-1056964608
 47
1.0
 49
1.0
140
1.0
293
     1
141
0.0
294
     1
177
     0
142
1.0
295
     0
296
     0
143
0.125
271
     0
272
     9
273
     9
  0
MLINESTYLE
  5
18
102
{ACAD_REACTORS
330
17
102
}
330
17
100
AcDbMlineStyle
  2
STANDARD
 70
     0
  3

 62
   256
 51
90.0
 52
90.0
 71
     2
 49
0.5
 62
   256
  6
BYLAYER
 49
-0.5
 62
   256
  6
BYLAYER
  0
PLOTSETTINGS
  5
387
102
{ACAD_REACTORS
330
19
102
}
330
19
100
AcDbPlotSettings
  1
111
  2
RICOH IPSiO NX860e RPCS
  4
A4
  6

 40
5.873749732971191
 41
5.873747825622557
 42
5.873748779296875
 43
5.873748779296875
 44
209.9733276367186
 45
296.9259948730469
 46
1.382206344234629
 47
0.0
 48
0.0
 49
0.0
140
0.0
141
0.0
142
1.0
143
0.9696379639765943
 70
 11956
 72
     1
 73
     1
 74
     1
  7
monochrome.ctb
 75
     0
147
1.031312755019289
 76
     0
 77
     2
 78
   300
148
138.016006241122
149
94.51495291709916
1001
ACAD_PSEXT
1000
RICOH IPSiO NX860e RPCS
1000
RICOH IPSiO NX860e RPCS
1000
IP_192.168.110.192
1000
RPCS Driver (Windows 2000/XP/Server 2003/Vista)
1070
     0
  0
ACDBPLACEHOLDER
  5
F
102
{ACAD_REACTORS
330
E
102
}
330
E
  0
SCALE
  5
81D
102
{ACAD_REACTORS
330
81C
102
}
330
81C
100
AcDbScale
 70
     0
300
1:1
140
1.0
141
1.0
290
     1
  0
SCALE
  5
81E
102
{ACAD_REACTORS
330
81C
102
}
330
81C
100
AcDbScale
 70
     0
300
1:2
140
1.0
141
2.0
290
     0
  0
SCALE
  5
81F
102
{ACAD_REACTORS
330
81C
102
}
330
81C
100
AcDbScale
 70
     0
300
1:4
140
1.0
141
4.0
290
     0
  0
SCALE
  5
820
102
{ACAD_REACTORS
330
81C
102
}
330
81C
100
AcDbScale
 70
     0
300
1:5
140
1.0
141
5.0
290
     0
  0
SCALE
  5
821
102
{ACAD_REACTORS
330
81C
102
}
330
81C
100
AcDbScale
 70
     0
300
1:8
140
1.0
141
8.0
290
     0
  0
SCALE
  5
822
102
{ACAD_REACTORS
330
81C
102
}
330
81C
100
AcDbScale
 70
     0
300
1:10
140
1.0
141
10.0
290
     0
  0
SCALE
  5
823
102
{ACAD_REACTORS
330
81C
102
}
330
81C
100
AcDbScale
 70
     0
300
1:16
140
1.0
141
16.0
290
     0
  0
SCALE
  5
824
102
{ACAD_REACTORS
330
81C
102
}
330
81C
100
AcDbScale
 70
     0
300
1:20
140
1.0
141
20.0
290
     0
  0
SCALE
  5
825
102
{ACAD_REACTORS
330
81C
102
}
330
81C
100
AcDbScale
 70
     0
300
1:30
140
1.0
141
30.0
290
     0
  0
SCALE
  5
826
102
{ACAD_REACTORS
330
81C
102
}
330
81C
100
AcDbScale
 70
     0
300
1:40
140
1.0
141
40.0
290
     0
  0
SCALE
  5
827
102
{ACAD_REACTORS
330
81C
102
}
330
81C
100
AcDbScale
 70
     0
300
1:50
140
1.0
141
50.0
290
     0
  0
SCALE
  5
828
102
{ACAD_REACTORS
330
81C
102
}
330
81C
100
AcDbScale
 70
     0
300
1:100
140
1.0
141
100.0
290
     0
  0
SCALE
  5
829
102
{ACAD_REACTORS
330
81C
102
}
330
81C
100
AcDbScale
 70
     0
300
2:1
140
2.0
141
1.0
290
     0
  0
SCALE
  5
82A
102
{ACAD_REACTORS
330
81C
102
}
330
81C
100
AcDbScale
 70
     0
300
4:1
140
4.0
141
1.0
290
     0
  0
SCALE
  5
82B
102
{ACAD_REACTORS
330
81C
102
}
330
81C
100
AcDbScale
 70
     0
300
8:1
140
8.0
141
1.0
290
     0
  0
SCALE
  5
82C
102
{ACAD_REACTORS
330
81C
102
}
330
81C
100
AcDbScale
 70
     0
300
10:1
140
10.0
141
1.0
290
     0
  0
SCALE
  5
82D
102
{ACAD_REACTORS
330
81C
102
}
330
81C
100
AcDbScale
 70
     0
300
100:1
140
100.0
141
1.0
290
     0
  0
ACDBSECTIONVIEWSTYLE
  5
831
102
{ACAD_XDICTIONARY
360
A1E
102
}
102
{ACAD_REACTORS
330
830
102
}
330
830
100
AcDbModelDocViewStyle
 70
     0
  3
Metric50
290
     0
100
AcDbSectionViewStyle
 70
     0
 71
     0
 90
      102
 71
     1
340
11
 62
   256
 40
5.0
340
0
340
0
 62
   256
 40
5.0
300
I, O, Q, S, X, Z
 40
10.0
 90
        0
 40
2.5
 90
        0
 71
     2
340
16
 90
       25
 62
   256
340
16
 90
       50
 62
   256
 40
5.0
 40
2.5
 40
5.0
 71
     3
340
11
 62
   256
 40
5.0
 90
        0
 40
15.0
 90
        1
300
%<\AcVar ViewSectionStartId>%-%<\AcVar ViewSectionEndId>% (%<\AcVar ViewScale \f "%sn">%)
 71
     4
 62
   256
 62
   257
300
ANSI31
 40
1.0
 90
        0
290
     0
290
     0
 90
        6
 40
0.0
 40
1.570796326794896
 40
0.2617993877991494
 40
1.308996938995747
 40
-0.2617993877991494
 40
1.832595714594046
  0
TABLESTYLE
  5
223
102
{ACAD_XDICTIONARY
360
8B6
102
}
102
{ACAD_REACTORS
330
222
102
}
330
222
100
AcDbTableStyle
280
     0
  3
Standard
 70
     0
 71
     0
 40
1.5
 41
1.5
280
     0
281
     0
  7
Standard
140
4.5
170
     2
 62
     0
 63
     7
283
     0
 90
        4
 91
        0
  1

274
    -2
284
     1
 64
     0
275
    -2
285
     1
 65
     0
276
    -2
286
     1
 66
     0
277
    -2
287
     1
 67
     0
278
    -2
288
     1
 68
     0
279
    -2
289
     1
 69
     0
  7
Standard
140
6.0
170
     5
 62
     0
 63
     7
283
     0
 90
        4
 91
        0
  1

274
    -2
284
     1
 64
     0
275
    -2
285
     1
 65
     0
276
    -2
286
     1
 66
     0
277
    -2
287
     1
 67
     0
278
    -2
288
     1
 68
     0
279
    -2
289
     1
 69
     0
  7
Standard
140
4.5
170
     5
 62
     0
 63
     7
283
     0
 90
        4
 91
        0
  1

274
    -2
284
     1
 64
     0
275
    -2
285
     1
 65
     0
276
    -2
286
     1
 66
     0
277
    -2
287
     1
 67
     0
278
    -2
288
     1
 68
     0
279
    -2
289
     1
 69
     0
  0
VISUALSTYLE
  5
809
102
{ACAD_XDICTIONARY
360
9F8
102
}
102
{ACAD_REACTORS
330
803
102
}
330
803
100
AcDbVisualStyle
  2
2dWireframe
 70
     4
177
     2
291
     0
 71
     0
176
     1
 72
     2
176
     1
 73
     0
176
     1
 90
        0
176
     1
 40
0.6
176
     1
 41
30.0
176
     1
 63
     7
421
 16777215
176
     1
 74
     1
176
     1
 91
        4
176
     1
 64
     7
176
     1
 65
   257
176
     1
 75
     1
176
     1
175
     1
176
     1
 42
1.0
176
     1
 92
        0
176
     1
 66
   257
176
     1
 43
1.0
176
     1
 76
     1
176
     1
 77
     6
176
     1
 78
     2
176
     1
 67
     7
176
     1
 79
     5
176
     1
170
     0
176
     1
171
     0
176
     1
290
     0
176
     1
 93
        1
176
     1
 44
0.0
176
     1
173
     0
176
     1
1001
ACAD
1000
AcDbSavedByObjectVersion
1070
     0
  0
VISUALSTYLE
  5
808
102
{ACAD_XDICTIONARY
360
9F6
102
}
102
{ACAD_REACTORS
330
803
102
}
330
803
100
AcDbVisualStyle
  2
Basic
 70
     7
177
     2
291
     1
 71
     1
176
     1
 72
     0
176
     1
 73
     1
176
     1
 90
        0
176
     1
 40
0.6
176
     1
 41
30.0
176
     1
 63
     7
421
 16777215
176
     1
 74
     0
176
     1
 91
        4
176
     1
 64
     7
176
     1
 65
   257
176
     1
 75
     1
176
     1
175
     1
176
     1
 42
1.0
176
     1
 92
        8
176
     1
 66
     7
176
     1
 43
1.0
176
     1
 76
     1
176
     1
 77
     6
176
     1
 78
     2
176
     1
 67
     7
176
     1
 79
     5
176
     1
170
     0
176
     1
171
     0
176
     1
290
     0
176
     1
 93
        1
176
     1
 44
0.0
176
     1
173
     0
176
     1
1001
ACAD
1000
AcDbSavedByObjectVersion
1070
     0
  0
VISUALSTYLE
  5
80F
102
{ACAD_XDICTIONARY
360
A04
102
}
102
{ACAD_REACTORS
330
803
102
}
330
803
100
AcDbVisualStyle
  2
Brighten
 70
    12
177
     2
291
     1
 71
     2
176
     1
 72
     2
176
     1
 73
     0
176
     1
 90
        0
176
     1
 40
0.6
176
     1
 41
30.0
176
     1
 63
     7
421
 16777215
176
     1
 74
     1
176
     1
 91
        4
176
     1
 64
     7
176
     1
 65
   257
176
     1
 75
     1
176
     1
175
     1
176
     1
 42
1.0
176
     1
 92
        8
176
     1
 66
     7
176
     1
 43
1.0
176
     1
 76
     1
176
     1
 77
     6
176
     1
 78
     2
176
     1
 67
     7
176
     1
 79
     5
176
     1
170
     0
176
     1
171
     0
176
     1
290
     0
176
     1
 93
        1
176
     1
 44
50.0
176
     1
173
     0
176
     1
1001
ACAD
1000
AcDbSavedByObjectVersion
1070
     0
  0
VISUALSTYLE
  5
813
102
{ACAD_XDICTIONARY
360
A0C
102
}
102
{ACAD_REACTORS
330
803
102
}
330
803
100
AcDbVisualStyle
  2
ColorChange
 70
    16
177
     2
291
     1
 71
     2
176
     1
 72
     2
176
     1
 73
     3
176
     1
 90
        0
176
     1
 40
0.6
176
     1
 41
30.0
176
     1
 63
     8
421
  8421504
176
     1
 74
     1
176
     1
 91
        4
176
     1
 64
     7
176
     1
 65
   257
176
     1
 75
     1
176
     1
175
     1
176
     1
 42
1.0
176
     1
 92
        8
176
     1
 66
     8
424
  8421504
176
     1
 43
1.0
176
     1
 76
     1
176
     1
 77
     6
176
     1
 78
     2
176
     1
 67
     7
176
     1
 79
     5
176
     1
170
     0
176
     1
171
     0
176
     1
290
     0
176
     1
 93
        1
176
     1
 44
0.0
176
     1
173
     0
176
     1
1001
ACAD
1000
AcDbSavedByObjectVersion
1070
     0
  0
VISUALSTYLE
  5
80C
102
{ACAD_XDICTIONARY
360
9FE
102
}
102
{ACAD_REACTORS
330
803
102
}
330
803
100
AcDbVisualStyle
  2
Conceptual
 70
     9
177
     2
291
     0
 71
     3
176
     1
 72
     2
176
     1
 73
     0
176
     1
 90
        0
176
     1
 40
0.6
176
     1
 41
30.0
176
     1
 63
     7
421
 16777215
176
     1
 74
     2
176
     1
 91
        2
176
     1
 64
     7
176
     1
 65
   257
176
     1
 75
     1
176
     1
175
     1
176
     1
 42
179.0
176
     1
 92
        8
176
     1
 66
     7
176
     1
 43
1.0
176
     1
 76
     1
176
     1
 77
     6
176
     1
 78
     2
176
     1
 67
     7
176
     1
 79
     3
176
     1
170
     0
176
     1
171
     0
176
     1
290
     0
176
     1
 93
        1
176
     1
 44
0.0
176
     1
173
     0
176
     1
1001
ACAD
1000
AcDbSavedByObjectVersion
1070
     0
  0
VISUALSTYLE
  5
80E
102
{ACAD_XDICTIONARY
360
A02
102
}
102
{ACAD_REACTORS
330
803
102
}
330
803
100
AcDbVisualStyle
  2
Dim
 70
    11
177
     2
291
     1
 71
     2
176
     1
 72
     2
176
     1
 73
     0
176
     1
 90
        0
176
     1
 40
0.6
176
     1
 41
30.0
176
     1
 63
     7
421
 16777215
176
     1
 74
     1
176
     1
 91
        4
176
     1
 64
     7
176
     1
 65
   257
176
     1
 75
     1
176
     1
175
     1
176
     1
 42
1.0
176
     1
 92
        8
176
     1
 66
     7
176
     1
 43
1.0
176
     1
 76
     1
176
     1
 77
     6
176
     1
 78
     2
176
     1
 67
     7
176
     1
 79
     5
176
     1
170
     0
176
     1
171
     0
176
     1
290
     0
176
     1
 93
        1
176
     1
 44
-50.0
176
     1
173
     0
176
     1
1001
ACAD
1000
AcDbSavedByObjectVersion
1070
     0
  0
VISUALSTYLE
  5
81B
102
{ACAD_XDICTIONARY
360
A1C
102
}
102
{ACAD_REACTORS
330
803
102
}
330
803
100
AcDbVisualStyle
  2
EdgeColorOff
 70
    22
177
     2
291
     1
 71
     2
176
     0
 72
     2
176
     0
 73
     0
176
     0
 90
        0
176
     0
 40
0.6
176
     0
 41
30.0
176
     0
 63
     7
421
 16777215
176
     0
 74
     1
176
     0
 91
        4
176
     0
 64
     7
176
     0
 65
   257
176
     0
 75
     1
176
     0
175
     1
176
     0
 42
1.0
176
     0
 92
        8
176
     2
 66
     7
176
     0
 43
1.0
176
     0
 76
     1
176
     0
 77
     6
176
     0
 78
     2
176
     0
 67
     7
176
     0
 79
     5
176
     0
170
     0
176
     0
171
     0
176
     0
290
     0
176
     0
 93
        1
176
     0
 44
0.0
176
     0
173
     0
176
     0
1001
ACAD
1000
AcDbSavedByObjectVersion
1070
     0
  0
VISUALSTYLE
  5
812
102
{ACAD_XDICTIONARY
360
A0A
102
}
102
{ACAD_REACTORS
330
803
102
}
330
803
100
AcDbVisualStyle
  2
Facepattern
 70
    15
177
     2
291
     1
 71
     2
176
     1
 72
     2
176
     1
 73
     0
176
     1
 90
        0
176
     1
 40
0.6
176
     1
 41
30.0
176
     1
 63
     7
421
 16777215
176
     1
 74
     1
176
     1
 91
        4
176
     1
 64
     7
176
     1
 65
   257
176
     1
 75
     1
176
     1
175
     1
176
     1
 42
1.0
176
     1
 92
        8
176
     1
 66
     7
176
     1
 43
1.0
176
     1
 76
     1
176
     1
 77
     6
176
     1
 78
     2
176
     1
 67
     7
176
     1
 79
     5
176
     1
170
     0
176
     1
171
     0
176
     1
290
     0
176
     1
 93
        1
176
     1
 44
0.0
176
     1
173
     0
176
     1
1001
ACAD
1000
AcDbSavedByObjectVersion
1070
     0
  0
VISUALSTYLE
  5
804
102
{ACAD_XDICTIONARY
360
9EE
102
}
102
{ACAD_REACTORS
330
803
102
}
330
803
100
AcDbVisualStyle
  2
Flat
 70
     0
177
     2
291
     1
 71
     2
176
     1
 72
     1
176
     1
 73
     1
176
     1
 90
        2
176
     1
 40
0.6
176
     1
 41
30.0
176
     1
 63
     7
421
 16777215
176
     1
 74
     0
176
     1
 91
        0
176
     1
 64
     7
176
     1
 65
   257
176
     1
 75
     1
176
     1
175
     1
176
     1
 42
1.0
176
     1
 92
        8
176
     1
 66
     7
176
     1
 43
1.0
176
     1
 76
     1
176
     1
 77
     6
176
     1
 78
     2
176
     1
 67
     7
176
     1
 79
     5
176
     1
170
     0
176
     1
171
     0
176
     1
290
     0
176
     1
 93
       13
176
     1
 44
0.0
176
     1
173
     0
176
     1
1001
ACAD
1000
AcDbSavedByObjectVersion
1070
     0
  0
VISUALSTYLE
  5
805
102
{ACAD_XDICTIONARY
360
9F0
102
}
102
{ACAD_REACTORS
330
803
102
}
330
803
100
AcDbVisualStyle
  2
FlatWithEdges
 70
     1
177
     2
291
     1
 71
     2
176
     1
 72
     1
176
     1
 73
     1
176
     1
 90
        2
176
     1
 40
0.6
176
     1
 41
30.0
176
     1
 63
     7
421
 16777215
176
     1
 74
     1
176
     1
 91
        0
176
     1
 64
     7
176
     1
 65
   257
176
     1
 75
     1
176
     1
175
     1
176
     1
 42
1.0
176
     1
 92
        0
176
     1
 66
   257
176
     1
 43
1.0
176
     1
 76
     1
176
     1
 77
     6
176
     1
 78
     2
176
     1
 67
     7
176
     1
 79
     5
176
     1
170
     0
176
     1
171
     0
176
     1
290
     0
176
     1
 93
       13
176
     1
 44
0.0
176
     1
173
     0
176
     1
1001
ACAD
1000
AcDbSavedByObjectVersion
1070
     0
  0
VISUALSTYLE
  5
806
102
{ACAD_XDICTIONARY
360
9F2
102
}
102
{ACAD_REACTORS
330
803
102
}
330
803
100
AcDbVisualStyle
  2
Gouraud
 70
     2
177
     2
291
     1
 71
     2
176
     1
 72
     2
176
     1
 73
     1
176
     1
 90
        2
176
     1
 40
0.6
176
     1
 41
30.0
176
     1
 63
     7
421
 16777215
176
     1
 74
     0
176
     1
 91
        0
176
     1
 64
     7
176
     1
 65
   257
176
     1
 75
     1
176
     1
175
     1
176
     1
 42
1.0
176
     1
 92
        0
176
     1
 66
     7
176
     1
 43
1.0
176
     1
 76
     1
176
     1
 77
     6
176
     1
 78
     2
176
     1
 67
     7
176
     1
 79
     5
176
     1
170
     0
176
     1
171
     0
176
     1
290
     0
176
     1
 93
       13
176
     1
 44
0.0
176
     1
173
     0
176
     1
1001
ACAD
1000
AcDbSavedByObjectVersion
1070
     0
  0
VISUALSTYLE
  5
807
102
{ACAD_XDICTIONARY
360
9F4
102
}
102
{ACAD_REACTORS
330
803
102
}
330
803
100
AcDbVisualStyle
  2
GouraudWithEdges
 70
     3
177
     2
291
     1
 71
     2
176
     1
 72
     2
176
     1
 73
     1
176
     1
 90
        2
176
     1
 40
0.6
176
     1
 41
30.0
176
     1
 63
     7
421
 16777215
176
     1
 74
     1
176
     1
 91
        0
176
     1
 64
     7
176
     1
 65
   257
176
     1
 75
     1
176
     1
175
     1
176
     1
 42
1.0
176
     1
 92
        0
176
     1
 66
   257
176
     1
 43
1.0
176
     1
 76
     1
176
     1
 77
     6
176
     1
 78
     2
176
     1
 67
     7
176
     1
 79
     5
176
     1
170
     0
176
     1
171
     0
176
     1
290
     0
176
     1
 93
       13
176
     1
 44
0.0
176
     1
173
     0
176
     1
1001
ACAD
1000
AcDbSavedByObjectVersion
1070
     0
  0
VISUALSTYLE
  5
80B
102
{ACAD_XDICTIONARY
360
9FC
102
}
102
{ACAD_REACTORS
330
803
102
}
330
803
100
AcDbVisualStyle
  2
Hidden
 70
     6
177
     2
291
     0
 71
     1
176
     1
 72
     2
176
     1
 73
     2
176
     1
 90
        0
176
     1
 40
0.6
176
     1
 41
30.0
176
     1
 63
     7
421
 16777215
176
     1
 74
     2
176
     1
 91
        2
176
     1
 64
     7
176
     1
 65
   257
176
     1
 75
     2
176
     1
175
     1
176
     1
 42
40.0
176
     1
 92
        0
176
     1
 66
   257
176
     1
 43
1.0
176
     1
 76
     1
176
     1
 77
     6
176
     1
 78
     2
176
     1
 67
     7
176
     1
 79
     3
176
     1
170
     0
176
     1
171
     0
176
     1
290
     0
176
     1
 93
        1
176
     1
 44
0.0
176
     1
173
     0
176
     1
1001
ACAD
1000
AcDbSavedByObjectVersion
1070
     0
  0
VISUALSTYLE
  5
819
102
{ACAD_XDICTIONARY
360
A18
102
}
102
{ACAD_REACTORS
330
803
102
}
330
803
100
AcDbVisualStyle
  2
JitterOff
 70
    20
177
     2
291
     1
 71
     2
176
     0
 72
     2
176
     0
 73
     0
176
     0
 90
        0
176
     0
 40
0.6
176
     0
 41
30.0
176
     0
 63
     7
421
 16777215
176
     0
 74
     1
176
     0
 91
        4
176
     0
 64
     7
176
     0
 65
   257
176
     0
 75
     1
176
     0
175
     1
176
     0
 42
1.0
176
     0
 92
       10
176
     2
 66
     7
176
     0
 43
1.0
176
     0
 76
     1
176
     0
 77
     6
176
     0
 78
     2
176
     0
 67
     7
176
     0
 79
     5
176
     0
170
     0
176
     0
171
     0
176
     0
290
     0
176
     0
 93
        1
176
     0
 44
0.0
176
     0
173
     0
176
     0
1001
ACAD
1000
AcDbSavedByObjectVersion
1070
     0
  0
VISUALSTYLE
  5
811
102
{ACAD_XDICTIONARY
360
A08
102
}
102
{ACAD_REACTORS
330
803
102
}
330
803
100
AcDbVisualStyle
  2
Linepattern
 70
    14
177
     2
291
     1
 71
     2
176
     1
 72
     2
176
     1
 73
     0
176
     1
 90
        0
176
     1
 40
0.6
176
     1
 41
30.0
176
     1
 63
     7
421
 16777215
176
     1
 74
     1
176
     1
 91
        4
176
     1
 64
     7
176
     1
 65
   257
176
     1
 75
     7
176
     1
175
     7
176
     1
 42
1.0
176
     1
 92
        8
176
     1
 66
     7
176
     1
 43
1.0
176
     1
 76
     1
176
     1
 77
     6
176
     1
 78
     2
176
     1
 67
     7
176
     1
 79
     5
176
     1
170
     0
176
     1
171
     0
176
     1
290
     0
176
     1
 93
        1
176
     1
 44
0.0
176
     1
173
     0
176
     1
1001
ACAD
1000
AcDbSavedByObjectVersion
1070
     0
  0
VISUALSTYLE
  5
81A
102
{ACAD_XDICTIONARY
360
A1A
102
}
102
{ACAD_REACTORS
330
803
102
}
330
803
100
AcDbVisualStyle
  2
OverhangOff
 70
    21
177
     2
291
     1
 71
     2
176
     0
 72
     2
176
     0
 73
     0
176
     0
 90
        0
176
     0
 40
0.6
176
     0
 41
30.0
176
     0
 63
     7
421
 16777215
176
     0
 74
     1
176
     0
 91
        4
176
     0
 64
     7
176
     0
 65
   257
176
     0
 75
     1
176
     0
175
     1
176
     0
 42
1.0
176
     0
 92
        9
176
     2
 66
     7
176
     0
 43
1.0
176
     0
 76
     1
176
     0
 77
     6
176
     0
 78
     2
176
     0
 67
     7
176
     0
 79
     5
176
     0
170
     0
176
     0
171
     0
176
     0
290
     0
176
     0
 93
        1
176
     0
 44
0.0
176
     0
173
     0
176
     0
1001
ACAD
1000
AcDbSavedByObjectVersion
1070
     0
  0
VISUALSTYLE
  5
80D
102
{ACAD_XDICTIONARY
360
A00
102
}
102
{ACAD_REACTORS
330
803
102
}
330
803
100
AcDbVisualStyle
  2
Realistic
 70
     8
177
     2
291
     0
 71
     2
176
     1
 72
     2
176
     1
 73
     0
176
     1
 90
        2
176
     1
 40
0.6
176
     1
 41
30.0
176
     1
 63
     7
421
 16777215
176
     1
 74
     0
176
     1
 91
        0
176
     1
 64
     7
176
     1
 65
   257
176
     1
 75
     1
176
     1
175
     1
176
     1
 42
1.0
176
     1
 92
        8
176
     1
 66
   257
176
     1
 43
1.0
176
     1
 76
     1
176
     1
 77
     6
176
     1
 78
     2
176
     1
 67
     7
176
     1
 79
     3
176
     1
170
     0
176
     1
171
     0
176
     1
290
     0
176
     1
 93
       13
176
     1
 44
0.0
176
     1
173
     0
176
     1
1001
ACAD
1000
AcDbSavedByObjectVersion
1070
     0
  0
VISUALSTYLE
  5
818
102
{ACAD_XDICTIONARY
360
A16
102
}
102
{ACAD_REACTORS
330
803
102
}
330
803
100
AcDbVisualStyle
  2
Shaded
 70
    27
177
     2
291
     0
 71
     2
176
     1
 72
     2
176
     1
 73
     1
176
     1
 90
        2
176
     1
 40
0.6
176
     1
 41
30.0
176
     1
 63
     7
421
 16777215
176
     1
 74
     0
176
     1
 91
        4
176
     1
 64
     7
176
     1
 65
   257
176
     1
 75
     1
176
     1
175
     1
176
     1
 42
1.0
176
     1
 92
        8
176
     1
 66
   257
176
     1
 43
1.0
176
     1
 76
     1
176
     1
 77
     6
176
     1
 78
     2
176
     1
 67
     8
425
  7895160
176
     1
 79
     3
176
     1
170
     0
176
     1
171
     0
176
     1
290
     0
176
     1
 93
        5
176
     1
 44
0.0
176
     1
173
     0
176
     1
1001
ACAD
1000
AcDbSavedByObjectVersion
1070
     0
  0
VISUALSTYLE
  5
817
102
{ACAD_XDICTIONARY
360
A14
102
}
102
{ACAD_REACTORS
330
803
102
}
330
803
100
AcDbVisualStyle
  2
Shaded with edges
 70
    26
177
     2
291
     0
 71
     2
176
     1
 72
     2
176
     1
 73
     1
176
     1
 90
        2
176
     1
 40
0.6
176
     1
 41
30.0
176
     1
 63
     7
421
 16777215
176
     1
 74
     1
176
     1
 91
       10
176
     1
 64
     7
176
     1
 65
   257
176
     1
 75
     2
176
     1
175
     1
176
     1
 42
1.0
176
     1
 92
        8
176
     1
 66
   257
176
     1
 43
1.0
176
     1
 76
     1
176
     1
 77
     6
176
     1
 78
     2
176
     1
 67
     7
176
     1
 79
     3
176
     1
170
     0
176
     1
171
     0
176
     1
290
     0
176
     1
 93
        5
176
     1
 44
0.0
176
     1
173
     0
176
     1
1001
ACAD
1000
AcDbSavedByObjectVersion
1070
     0
  0
VISUALSTYLE
  5
814
102
{ACAD_XDICTIONARY
360
A0E
102
}
102
{ACAD_REACTORS
330
803
102
}
330
803
100
AcDbVisualStyle
  2
Shades of Gray
 70
    23
177
     2
291
     0
 71
     2
176
     1
 72
     2
176
     1
 73
     3
176
     1
 90
        0
176
     1
 40
0.6
176
     1
 41
30.0
176
     1
 63
     7
421
 16777215
176
     1
 74
     2
176
     1
 91
        2
176
     1
 64
     7
176
     1
 65
     7
176
     1
 75
     1
176
     1
175
     1
176
     1
 42
40.0
176
     1
 92
        8
176
     1
 66
     7
176
     1
 43
1.0
176
     1
 76
     1
176
     1
 77
     6
176
     1
 78
     2
176
     1
 67
     7
176
     1
 79
     3
176
     1
170
     0
176
     1
171
     0
176
     1
290
     0
176
     1
 93
        1
176
     1
 44
0.0
176
     1
173
     0
176
     1
1001
ACAD
1000
AcDbSavedByObjectVersion
1070
     0
  0
VISUALSTYLE
  5
815
102
{ACAD_XDICTIONARY
360
A10
102
}
102
{ACAD_REACTORS
330
803
102
}
330
803
100
AcDbVisualStyle
  2
Sketchy
 70
    24
177
     2
291
     0
 71
     1
176
     1
 72
     2
176
     1
 73
     2
176
     1
 90
        0
176
     1
 40
0.6
176
     1
 41
30.0
176
     1
 63
     7
421
 16777215
176
     1
 74
     2
176
     1
 91
        2
176
     1
 64
     7
176
     1
 65
     7
176
     1
 75
     1
176
     1
175
     1
176
     1
 42
40.0
176
     1
 92
       11
176
     1
 66
     7
176
     1
 43
1.0
176
     1
 76
     1
176
     1
 77
     6
176
     1
 78
     2
176
     1
 67
     7
176
     1
 79
     6
176
     1
170
     0
176
     1
171
     0
176
     1
290
     0
176
     1
 93
        1
176
     1
 44
0.0
176
     1
173
     0
176
     1
1001
ACAD
1000
AcDbSavedByObjectVersion
1070
     0
  0
VISUALSTYLE
  5
810
102
{ACAD_XDICTIONARY
360
A06
102
}
102
{ACAD_REACTORS
330
803
102
}
330
803
100
AcDbVisualStyle
  2
Thicken
 70
    13
177
     2
291
     1
 71
     2
176
     1
 72
     2
176
     1
 73
     0
176
     1
 90
        0
176
     1
 40
0.6
176
     1
 41
30.0
176
     1
 63
     7
421
 16777215
176
     1
 74
     1
176
     1
 91
        4
176
     1
 64
     7
176
     1
 65
   257
176
     1
 75
     1
176
     1
175
     1
176
     1
 42
1.0
176
     1
 92
       12
176
     1
 66
     7
176
     1
 43
1.0
176
     1
 76
     1
176
     1
 77
     6
176
     1
 78
     2
176
     1
 67
     7
176
     1
 79
     5
176
     1
170
     0
176
     1
171
     0
176
     1
290
     0
176
     1
 93
        1
176
     1
 44
0.0
176
     1
173
     0
176
     1
1001
ACAD
1000
AcDbSavedByObjectVersion
1070
     0
  0
VISUALSTYLE
  5
80A
102
{ACAD_XDICTIONARY
360
9FA
102
}
102
{ACAD_REACTORS
330
803
102
}
330
803
100
AcDbVisualStyle
  2
Wireframe
 70
     5
177
     2
291
     0
 71
     0
176
     1
 72
     2
176
     1
 73
     0
176
     1
 90
        0
176
     1
 40
0.6
176
     1
 41
30.0
176
     1
 63
     7
421
 16777215
176
     1
 74
     1
176
     1
 91
        4
176
     1
 64
     7
176
     1
 65
   257
176
     1
 75
     1
176
     1
175
     1
176
     1
 42
1.0
176
     1
 92
        0
176
     1
 66
   257
176
     1
 43
1.0
176
     1
 76
     1
176
     1
 77
     6
176
     1
 78
     2
176
     1
 67
     7
176
     1
 79
     3
176
     1
170
     0
176
     1
171
     0
176
     1
290
     0
176
     1
 93
        1
176
     1
 44
0.0
176
     1
173
     0
176
     1
1001
ACAD
1000
AcDbSavedByObjectVersion
1070
     0
  0
VISUALSTYLE
  5
816
102
{ACAD_XDICTIONARY
360
A12
102
}
102
{ACAD_REACTORS
330
803
102
}
330
803
100
AcDbVisualStyle
  2
X-Ray
 70
    25
177
     2
291
     0
 71
     2
176
     1
 72
     2
176
     1
 73
     1
176
     1
 90
        1
176
     1
 40
0.5
176
     1
 41
30.0
176
     1
 63
     7
421
 16777215
176
     1
 74
     1
176
     1
 91
        0
176
     1
 64
     7
176
     1
 65
   257
176
     1
 75
     1
176
     1
175
     1
176
     1
 42
1.0
176
     1
 92
        8
176
     1
 66
     7
176
     1
 43
1.0
176
     1
 76
     1
176
     1
 77
     6
176
     1
 78
     2
176
     1
 67
     7
176
     1
 79
     3
176
     1
170
     0
176
     1
171
     0
176
     1
290
     0
176
     1
 93
       13
176
     1
 44
0.0
176
     1
173
     0
176
     1
1001
ACAD
1000
AcDbSavedByObjectVersion
1070
     0
  0
DICTIONARYVAR
  5
88D
102
{ACAD_REACTORS
330
287
102
}
330
287
100
DictionaryVariables
280
     0
  1
1:1
  0
DICTIONARYVAR
  5
889
102
{ACAD_REACTORS
330
287
102
}
330
287
100
DictionaryVariables
280
     0
  1
STANDARD
  0
DICTIONARYVAR
  5
288
102
{ACAD_REACTORS
330
287
102
}
330
287
100
DictionaryVariables
280
     0
  1
STANDARD
  0
DICTIONARYVAR
  5
88A
102
{ACAD_REACTORS
330
287
102
}
330
287
100
DictionaryVariables
280
     0
  1
Metric50
  0
DICTIONARYVAR
  5
88B
102
{ACAD_REACTORS
330
287
102
}
330
287
100
DictionaryVariables
280
     0
  1
Metric50
  0
DICTIONARYVAR
  5
289
102
{ACAD_REACTORS
330
287
102
}
330
287
100
DictionaryVariables
280
     0
  1
1
  0
DICTIONARYVAR
  5
88F
102
{ACAD_REACTORS
330
287
102
}
330
287
100
DictionaryVariables
280
     0
  1
1
  0
DICTIONARYVAR
  5
890
102
{ACAD_REACTORS
330
287
102
}
330
287
100
DictionaryVariables
280
     0
  1
15
  0
DICTIONARYVAR
  5
88E
102
{ACAD_REACTORS
330
287
102
}
330
287
100
DictionaryVariables
280
     0
  1
0
  0
DICTIONARYVAR
  5
88C
102
{ACAD_REACTORS
330
287
102
}
330
287
100
DictionaryVariables
280
     0
  1
0
  0
DICTIONARYVAR
  5
28A
102
{ACAD_REACTORS
330
287
102
}
330
287
100
DictionaryVariables
280
     0
  1

  0
DICTIONARY
  5
A20
330
833
100
AcDbDictionary
280
     1
281
     1
  3
ACAD_XREC_ROUNDTRIP
360
A21
  0
DICTIONARY
  5
7F4
330
7F3
100
AcDbDictionary
280
     1
281
     1
  3
BUMPTILE
360
7F6
  3
DIFFUSETILE
360
7F5
  3
OPACITYTILE
360
7F9
  3
REFLECTIONTILE
360
7F8
  3
REFRACTIONTILE
360
7FA
  3
SPECULARTILE
360
7F7
  0
DICTIONARY
  5
7EC
330
7EB
100
AcDbDictionary
280
     1
281
     1
  3
BUMPTILE
360
7EE
  3
DIFFUSETILE
360
7ED
  3
OPACITYTILE
360
7F1
  3
REFLECTIONTILE
360
7F0
  3
REFRACTIONTILE
360
7F2
  3
SPECULARTILE
360
7EF
  0
DICTIONARY
  5
7FC
330
7FB
100
AcDbDictionary
280
     1
281
     1
  3
BUMPTILE
360
7FE
  3
DIFFUSETILE
360
7FD
  3
OPACITYTILE
360
801
  3
REFLECTIONTILE
360
800
  3
REFRACTIONTILE
360
802
  3
SPECULARTILE
360
7FF
  0
DICTIONARY
  5
A1E
330
831
100
AcDbDictionary
280
     1
281
     1
  3
ACAD_XREC_ROUNDTRIP
360
A1F
  0
DICTIONARY
  5
8B6
330
223
100
AcDbDictionary
280
     1
281
     1
  3
ACAD_ROUNDTRIP_2008_TABLESTYLE_CELLSTYLEMAP
360
9EC
  0
DICTIONARY
  5
9F8
330
809
100
AcDbDictionary
280
     1
281
     1
  3
ACAD_XREC_ROUNDTRIP
360
9F9
  0
DICTIONARY
  5
9F6
330
808
100
AcDbDictionary
280
     1
281
     1
  3
ACAD_XREC_ROUNDTRIP
360
9F7
  0
DICTIONARY
  5
A04
330
80F
100
AcDbDictionary
280
     1
281
     1
  3
ACAD_XREC_ROUNDTRIP
360
A05
  0
DICTIONARY
  5
A0C
330
813
100
AcDbDictionary
280
     1
281
     1
  3
ACAD_XREC_ROUNDTRIP
360
A0D
  0
DICTIONARY
  5
9FE
330
80C
100
AcDbDictionary
280
     1
281
     1
  3
ACAD_XREC_ROUNDTRIP
360
9FF
  0
DICTIONARY
  5
A02
330
80E
100
AcDbDictionary
280
     1
281
     1
  3
ACAD_XREC_ROUNDTRIP
360
A03
  0
DICTIONARY
  5
A1C
330
81B
100
AcDbDictionary
280
     1
281
     1
  3
ACAD_XREC_ROUNDTRIP
360
A1D
  0
DICTIONARY
  5
A0A
330
812
100
AcDbDictionary
280
     1
281
     1
  3
ACAD_XREC_ROUNDTRIP
360
A0B
  0
DICTIONARY
  5
9EE
330
804
100
AcDbDictionary
280
     1
281
     1
  3
ACAD_XREC_ROUNDTRIP
360
9EF
  0
DICTIONARY
  5
9F0
330
805
100
AcDbDictionary
280
     1
281
     1
  3
ACAD_XREC_ROUNDTRIP
360
9F1
  0
DICTIONARY
  5
9F2
330
806
100
AcDbDictionary
280
     1
281
     1
  3
ACAD_XREC_ROUNDTRIP
360
9F3
  0
DICTIONARY
  5
9F4
330
807
100
AcDbDictionary
280
     1
281
     1
  3
ACAD_XREC_ROUNDTRIP
360
9F5
  0
DICTIONARY
  5
9FC
330
80B
100
AcDbDictionary
280
     1
281
     1
  3
ACAD_XREC_ROUNDTRIP
360
9FD
  0
DICTIONARY
  5
A18
330
819
100
AcDbDictionary
280
     1
281
     1
  3
ACAD_XREC_ROUNDTRIP
360
A19
  0
DICTIONARY
  5
A08
330
811
100
AcDbDictionary
280
     1
281
     1
  3
ACAD_XREC_ROUNDTRIP
360
A09
  0
DICTIONARY
  5
A1A
330
81A
100
AcDbDictionary
280
     1
281
     1
  3
ACAD_XREC_ROUNDTRIP
360
A1B
  0
DICTIONARY
  5
A00
330
80D
100
AcDbDictionary
280
     1
281
     1
  3
ACAD_XREC_ROUNDTRIP
360
A01
  0
DICTIONARY
  5
A16
330
818
100
AcDbDictionary
280
     1
281
     1
  3
ACAD_XREC_ROUNDTRIP
360
A17
  0
DICTIONARY
  5
A14
330
817
100
AcDbDictionary
280
     1
281
     1
  3
ACAD_XREC_ROUNDTRIP
360
A15
  0
DICTIONARY
  5
A0E
330
814
100
AcDbDictionary
280
     1
281
     1
  3
ACAD_XREC_ROUNDTRIP
360
A0F
  0
DICTIONARY
  5
A10
330
815
100
AcDbDictionary
280
     1
281
     1
  3
ACAD_XREC_ROUNDTRIP
360
A11
  0
DICTIONARY
  5
A06
330
810
100
AcDbDictionary
280
     1
281
     1
  3
ACAD_XREC_ROUNDTRIP
360
A07
  0
DICTIONARY
  5
9FA
330
80A
100
AcDbDictionary
280
     1
281
     1
  3
ACAD_XREC_ROUNDTRIP
360
9FB
  0
DICTIONARY
  5
A12
330
816
100
AcDbDictionary
280
     1
281
     1
  3
ACAD_XREC_ROUNDTRIP
360
A13
  0
XRECORD
  5
A21
102
{ACAD_REACTORS
330
A20
102
}
330
A20
100
AcDbXrecord
280
     1
102
DISPLAYNAME
  1
Metric50
102
FLAGS
 90
        0
  0
XRECORD
  5
7F6
102
{ACAD_REACTORS
330
7F4
102
}
330
7F4
100
AcDbXrecord
280
     1
270
     1
271
     1
  0
XRECORD
  5
7F5
102
{ACAD_REACTORS
330
7F4
102
}
330
7F4
100
AcDbXrecord
280
     1
270
     1
271
     1
  0
XRECORD
  5
7F9
102
{ACAD_REACTORS
330
7F4
102
}
330
7F4
100
AcDbXrecord
280
     1
270
     1
271
     1
  0
XRECORD
  5
7F8
102
{ACAD_REACTORS
330
7F4
102
}
330
7F4
100
AcDbXrecord
280
     1
270
     1
271
     1
  0
XRECORD
  5
7FA
102
{ACAD_REACTORS
330
7F4
102
}
330
7F4
100
AcDbXrecord
280
     1
270
     1
271
     1
  0
XRECORD
  5
7F7
102
{ACAD_REACTORS
330
7F4
102
}
330
7F4
100
AcDbXrecord
280
     1
270
     1
271
     1
  0
XRECORD
  5
7EE
102
{ACAD_REACTORS
330
7EC
102
}
330
7EC
100
AcDbXrecord
280
     1
270
     1
271
     1
  0
XRECORD
  5
7ED
102
{ACAD_REACTORS
330
7EC
102
}
330
7EC
100
AcDbXrecord
280
     1
270
     1
271
     1
  0
XRECORD
  5
7F1
102
{ACAD_REACTORS
330
7EC
102
}
330
7EC
100
AcDbXrecord
280
     1
270
     1
271
     1
  0
XRECORD
  5
7F0
102
{ACAD_REACTORS
330
7EC
102
}
330
7EC
100
AcDbXrecord
280
     1
270
     1
271
     1
  0
XRECORD
  5
7F2
102
{ACAD_REACTORS
330
7EC
102
}
330
7EC
100
AcDbXrecord
280
     1
270
     1
271
     1
  0
XRECORD
  5
7EF
102
{ACAD_REACTORS
330
7EC
102
}
330
7EC
100
AcDbXrecord
280
     1
270
     1
271
     1
  0
XRECORD
  5
7FE
102
{ACAD_REACTORS
330
7FC
102
}
330
7FC
100
AcDbXrecord
280
     1
270
     1
271
     1
  0
XRECORD
  5
7FD
102
{ACAD_REACTORS
330
7FC
102
}
330
7FC
100
AcDbXrecord
280
     1
270
     1
271
     1
  0
XRECORD
  5
801
102
{ACAD_REACTORS
330
7FC
102
}
330
7FC
100
AcDbXrecord
280
     1
270
     1
271
     1
  0
XRECORD
  5
800
102
{ACAD_REACTORS
330
7FC
102
}
330
7FC
100
AcDbXrecord
280
     1
270
     1
271
     1
  0
XRECORD
  5
802
102
{ACAD_REACTORS
330
7FC
102
}
330
7FC
100
AcDbXrecord
280
     1
270
     1
271
     1
  0
XRECORD
  5
7FF
102
{ACAD_REACTORS
330
7FC
102
}
330
7FC
100
AcDbXrecord
280
     1
270
     1
271
     1
  0
XRECORD
  5
A1F
102
{ACAD_REACTORS
330
A1E
102
}
330
A1E
100
AcDbXrecord
280
     1
102
DISPLAYNAME
  1
Metric50
102
FLAGS
 90
        0
  0
CELLSTYLEMAP
  5
9EC
102
{ACAD_REACTORS
330
8B6
102
}
330
8B6
100
AcDbCellStyleMap
 90
        3
300
CELLSTYLE
  1
TABLEFORMAT_BEGIN
 90
        5
170
     1
 91
        0
 92
    32768
 62
   257
 93
        1
300
CONTENTFORMAT
  1
CONTENTFORMAT_BEGIN
 90
        0
 91
        0
 92
        4
 93
        0
300

 40
0.0
140
1.0
 94
        5
 62
     0
340
11
144
6.0
309
CONTENTFORMAT_END
171
     1
301
MARGIN
  1
CELLMARGIN_BEGIN
 40
1.5
 40
1.5
 40
1.5
 40
1.5
 40
0.18
 40
0.18
309
CELLMARGIN_END
 94
        6
 95
        1
302
GRIDFORMAT
  1
GRIDFORMAT_BEGIN
 90
        0
 91
        1
 62
     0
 92
       -2
340
0
 93
        0
 40
0.045
309
GRIDFORMAT_END
 95
        2
302
GRIDFORMAT
  1
GRIDFORMAT_BEGIN
 90
        0
 91
        1
 62
     0
 92
       -2
340
0
 93
        0
 40
0.045
309
GRIDFORMAT_END
 95
        4
302
GRIDFORMAT
  1
GRIDFORMAT_BEGIN
 90
        0
 91
        1
 62
     0
 92
       -2
340
0
 93
        0
 40
0.045
309
GRIDFORMAT_END
 95
        8
302
GRIDFORMAT
  1
GRIDFORMAT_BEGIN
 90
        0
 91
        1
 62
     0
 92
       -2
340
0
 93
        0
 40
0.045
309
GRIDFORMAT_END
 95
       16
302
GRIDFORMAT
  1
GRIDFORMAT_BEGIN
 90
        0
 91
        1
 62
     0
 92
       -2
340
0
 93
        0
 40
0.045
309
GRIDFORMAT_END
 95
       32
302
GRIDFORMAT
  1
GRIDFORMAT_BEGIN
 90
        0
 91
        1
 62
     0
 92
       -2
340
0
 93
        0
 40
0.045
309
GRIDFORMAT_END
309
TABLEFORMAT_END
  1
CELLSTYLE_BEGIN
 90
        1
 91
        1
300
_TITLE
309
CELLSTYLE_END
300
CELLSTYLE
  1
TABLEFORMAT_BEGIN
 90
        5
170
     1
 91
        0
 92
        0
 62
   257
 93
        1
300
CONTENTFORMAT
  1
CONTENTFORMAT_BEGIN
 90
        0
 91
        0
 92
        4
 93
        0
300

 40
0.0
140
1.0
 94
        5
 62
     0
340
11
144
4.5
309
CONTENTFORMAT_END
171
     1
301
MARGIN
  1
CELLMARGIN_BEGIN
 40
1.5
 40
1.5
 40
1.5
 40
1.5
 40
0.18
 40
0.18
309
CELLMARGIN_END
 94
        6
 95
        1
302
GRIDFORMAT
  1
GRIDFORMAT_BEGIN
 90
        0
 91
        1
 62
     0
 92
       -2
340
0
 93
        0
 40
0.045
309
GRIDFORMAT_END
 95
        2
302
GRIDFORMAT
  1
GRIDFORMAT_BEGIN
 90
        0
 91
        1
 62
     0
 92
       -2
340
0
 93
        0
 40
0.045
309
GRIDFORMAT_END
 95
        4
302
GRIDFORMAT
  1
GRIDFORMAT_BEGIN
 90
        0
 91
        1
 62
     0
 92
       -2
340
0
 93
        0
 40
0.045
309
GRIDFORMAT_END
 95
        8
302
GRIDFORMAT
  1
GRIDFORMAT_BEGIN
 90
        0
 91
        1
 62
     0
 92
       -2
340
0
 93
        0
 40
0.045
309
GRIDFORMAT_END
 95
       16
302
GRIDFORMAT
  1
GRIDFORMAT_BEGIN
 90
        0
 91
        1
 62
     0
 92
       -2
340
0
 93
        0
 40
0.045
309
GRIDFORMAT_END
 95
       32
302
GRIDFORMAT
  1
GRIDFORMAT_BEGIN
 90
        0
 91
        1
 62
     0
 92
       -2
340
0
 93
        0
 40
0.045
309
GRIDFORMAT_END
309
TABLEFORMAT_END
  1
CELLSTYLE_BEGIN
 90
        2
 91
        1
300
_HEADER
309
CELLSTYLE_END
300
CELLSTYLE
  1
TABLEFORMAT_BEGIN
 90
        5
170
     1
 91
        0
 92
        0
 62
   257
 93
        1
300
CONTENTFORMAT
  1
CONTENTFORMAT_BEGIN
 90
        0
 91
        0
 92
        4
 93
        0
300

 40
0.0
140
1.0
 94
        2
 62
     0
340
11
144
4.5
309
CONTENTFORMAT_END
171
     1
301
MARGIN
  1
CELLMARGIN_BEGIN
 40
1.5
 40
1.5
 40
1.5
 40
1.5
 40
0.18
 40
0.18
309
CELLMARGIN_END
 94
        6
 95
        1
302
GRIDFORMAT
  1
GRIDFORMAT_BEGIN
 90
        0
 91
        1
 62
     0
 92
       -2
340
0
 93
        0
 40
0.045
309
GRIDFORMAT_END
 95
        2
302
GRIDFORMAT
  1
GRIDFORMAT_BEGIN
 90
        0
 91
        1
 62
     0
 92
       -2
340
0
 93
        0
 40
0.045
309
GRIDFORMAT_END
 95
        4
302
GRIDFORMAT
  1
GRIDFORMAT_BEGIN
 90
        0
 91
        1
 62
     0
 92
       -2
340
0
 93
        0
 40
0.045
309
GRIDFORMAT_END
 95
        8
302
GRIDFORMAT
  1
GRIDFORMAT_BEGIN
 90
        0
 91
        1
 62
     0
 92
       -2
340
0
 93
        0
 40
0.045
309
GRIDFORMAT_END
 95
       16
302
GRIDFORMAT
  1
GRIDFORMAT_BEGIN
 90
        0
 91
        1
 62
     0
 92
       -2
340
0
 93
        0
 40
0.045
309
GRIDFORMAT_END
 95
       32
302
GRIDFORMAT
  1
GRIDFORMAT_BEGIN
 90
        0
 91
        1
 62
     0
 92
       -2
340
0
 93
        0
 40
0.045
309
GRIDFORMAT_END
309
TABLEFORMAT_END
  1
CELLSTYLE_BEGIN
 90
        3
 91
        2
300
_DATA
309
CELLSTYLE_END
  0
XRECORD
  5
9F9
102
{ACAD_REACTORS
330
9F8
102
}
330
9F8
100
AcDbXrecord
280
     1
102
RTVSPost2010Prop28
280
     1
102
RTVSPost2010PropOp28
 70
     1
102
RTVSPost2010Prop29
280
     1
102
RTVSPost2010PropOp29
 70
     1
102
RTVSPost2010Prop30
280
     0
102
RTVSPost2010PropOp30
 70
     1
102
RTVSPost2010Prop31
280
     0
102
RTVSPost2010PropOp31
 70
     1
102
RTVSPost2010Prop32
280
     0
102
RTVSPost2010PropOp32
 70
     1
102
RTVSPost2010Prop33
280
     0
102
RTVSPost2010PropOp33
 70
     1
102
RTVSPost2010Prop34
280
     0
102
RTVSPost2010PropOp34
 70
     1
102
RTVSPost2010Prop35
280
     0
102
RTVSPost2010PropOp35
 70
     1
102
RTVSPost2010Prop36
280
     0
102
RTVSPost2010PropOp36
 70
     1
102
RTVSPost2010Prop37
 90
       50
102
RTVSPost2010PropOp37
 70
     1
102
RTVSPost2010Prop38
140
0.0
102
RTVSPost2010PropOp38
 70
     1
102
RTVSPost2010Prop39
140
1.0
102
RTVSPost2010PropOp39
 70
     1
102
RTVSPost2010Prop40
 90
        0
102
RTVSPost2010PropOp40
 70
     1
102
RTVSPost2010Prop41ColorIndex
 90
       18
102
RTVSPost2010Prop41ColorRGB
 90
        0
102
RTVSPost2010PropOp41
 70
     1
102
RTVSPost2010Prop42
 90
       50
102
RTVSPost2010PropOp42
 70
     1
102
RTVSPost2010Prop43
 90
        3
102
RTVSPost2010PropOp43
 70
     1
102
RTVSPost2010Prop44ColorIndex
 90
        5
102
RTVSPost2010Prop44ColorRGB
 90
      255
102
RTVSPost2010PropOp44
 70
     1
102
RTVSPost2010Prop45
280
     0
102
RTVSPost2010PropOp45
 70
     1
102
RTVSPost2010Prop46
 90
       50
102
RTVSPost2010PropOp46
 70
     1
102
RTVSPost2010Prop47
 90
       50
102
RTVSPost2010PropOp47
 70
     1
102
RTVSPost2010Prop48
 90
       50
102
RTVSPost2010PropOp48
 70
     1
102
RTVSPost2010Prop49
280
     0
102
RTVSPost2010PropOp49
 70
     1
102
RTVSPost2010Prop50
 90
       50
102
RTVSPost2010PropOp50
 70
     1
102
RTVSPost2010Prop51ColorIndex
 90
      256
102
RTVSPost2010Prop51ColorRGB
 90
-16777216
102
RTVSPost2010PropOp51
 70
     0
102
RTVSPost2010Prop52
140
1.0
102
RTVSPost2010PropOp52
 70
     0
102
RTVSPost2010Prop53
 90
        2
102
RTVSPost2010PropOp53
 70
     1
102
RTVSPost2010Prop54
  1
strokes_ogs.tif
102
RTVSPost2010PropOp54
 70
     1
102
RTVSPost2010Prop55
280
     0
102
RTVSPost2010PropOp55
 70
     1
102
RTVSPost2010Prop56
140
1.0
102
RTVSPost2010PropOp56
 70
     1
102
RTVSPost2010Prop57
140
1.0
102
RTVSPost2010PropOp57
 70
     1
  0
XRECORD
  5
9F7
102
{ACAD_REACTORS
330
9F6
102
}
330
9F6
100
AcDbXrecord
280
     1
102
RTVSPost2010Prop28
280
     0
102
RTVSPost2010PropOp28
 70
     1
102
RTVSPost2010Prop29
280
     1
102
RTVSPost2010PropOp29
 70
     1
102
RTVSPost2010Prop30
280
     1
102
RTVSPost2010PropOp30
 70
     1
102
RTVSPost2010Prop31
280
     0
102
RTVSPost2010PropOp31
 70
     1
102
RTVSPost2010Prop32
280
     0
102
RTVSPost2010PropOp32
 70
     1
102
RTVSPost2010Prop33
280
     0
102
RTVSPost2010PropOp33
 70
     1
102
RTVSPost2010Prop34
280
     0
102
RTVSPost2010PropOp34
 70
     1
102
RTVSPost2010Prop35
280
     0
102
RTVSPost2010PropOp35
 70
     1
102
RTVSPost2010Prop36
280
     0
102
RTVSPost2010PropOp36
 70
     1
102
RTVSPost2010Prop37
 90
       50
102
RTVSPost2010PropOp37
 70
     1
102
RTVSPost2010Prop38
140
0.0
102
RTVSPost2010PropOp38
 70
     1
102
RTVSPost2010Prop39
140
1.0
102
RTVSPost2010PropOp39
 70
     1
102
RTVSPost2010Prop40
 90
        0
102
RTVSPost2010PropOp40
 70
     1
102
RTVSPost2010Prop41ColorIndex
 90
       18
102
RTVSPost2010Prop41ColorRGB
 90
        0
102
RTVSPost2010PropOp41
 70
     1
102
RTVSPost2010Prop42
 90
       50
102
RTVSPost2010PropOp42
 70
     1
102
RTVSPost2010Prop43
 90
        3
102
RTVSPost2010PropOp43
 70
     1
102
RTVSPost2010Prop44ColorIndex
 90
        5
102
RTVSPost2010Prop44ColorRGB
 90
      255
102
RTVSPost2010PropOp44
 70
     1
102
RTVSPost2010Prop45
280
     0
102
RTVSPost2010PropOp45
 70
     1
102
RTVSPost2010Prop46
 90
       50
102
RTVSPost2010PropOp46
 70
     1
102
RTVSPost2010Prop47
 90
       50
102
RTVSPost2010PropOp47
 70
     1
102
RTVSPost2010Prop48
 90
       50
102
RTVSPost2010PropOp48
 70
     1
102
RTVSPost2010Prop49
280
     0
102
RTVSPost2010PropOp49
 70
     1
102
RTVSPost2010Prop50
 90
       50
102
RTVSPost2010PropOp50
 70
     1
102
RTVSPost2010Prop51ColorIndex
 90
      256
102
RTVSPost2010Prop51ColorRGB
 90
-16777216
102
RTVSPost2010PropOp51
 70
     0
102
RTVSPost2010Prop52
140
1.0
102
RTVSPost2010PropOp52
 70
     0
102
RTVSPost2010Prop53
 90
        2
102
RTVSPost2010PropOp53
 70
     1
102
RTVSPost2010Prop54
  1
strokes_ogs.tif
102
RTVSPost2010PropOp54
 70
     1
102
RTVSPost2010Prop55
280
     0
102
RTVSPost2010PropOp55
 70
     1
102
RTVSPost2010Prop56
140
1.0
102
RTVSPost2010PropOp56
 70
     1
102
RTVSPost2010Prop57
140
1.0
102
RTVSPost2010PropOp57
 70
     1
  0
XRECORD
  5
A05
102
{ACAD_REACTORS
330
A04
102
}
330
A04
100
AcDbXrecord
280
     1
102
RTVSPost2010Prop28
280
     0
102
RTVSPost2010PropOp28
 70
     1
102
RTVSPost2010Prop29
280
     1
102
RTVSPost2010PropOp29
 70
     1
102
RTVSPost2010Prop30
280
     1
102
RTVSPost2010PropOp30
 70
     1
102
RTVSPost2010Prop31
280
     0
102
RTVSPost2010PropOp31
 70
     1
102
RTVSPost2010Prop32
280
     0
102
RTVSPost2010PropOp32
 70
     1
102
RTVSPost2010Prop33
280
     0
102
RTVSPost2010PropOp33
 70
     1
102
RTVSPost2010Prop34
280
     0
102
RTVSPost2010PropOp34
 70
     1
102
RTVSPost2010Prop35
280
     0
102
RTVSPost2010PropOp35
 70
     1
102
RTVSPost2010Prop36
280
     0
102
RTVSPost2010PropOp36
 70
     1
102
RTVSPost2010Prop37
 90
       50
102
RTVSPost2010PropOp37
 70
     1
102
RTVSPost2010Prop38
140
0.0
102
RTVSPost2010PropOp38
 70
     1
102
RTVSPost2010Prop39
140
1.0
102
RTVSPost2010PropOp39
 70
     1
102
RTVSPost2010Prop40
 90
        0
102
RTVSPost2010PropOp40
 70
     1
102
RTVSPost2010Prop41ColorIndex
 90
       18
102
RTVSPost2010Prop41ColorRGB
 90
        0
102
RTVSPost2010PropOp41
 70
     1
102
RTVSPost2010Prop42
 90
       50
102
RTVSPost2010PropOp42
 70
     1
102
RTVSPost2010Prop43
 90
        3
102
RTVSPost2010PropOp43
 70
     1
102
RTVSPost2010Prop44ColorIndex
 90
        5
102
RTVSPost2010Prop44ColorRGB
 90
      255
102
RTVSPost2010PropOp44
 70
     1
102
RTVSPost2010Prop45
280
     0
102
RTVSPost2010PropOp45
 70
     1
102
RTVSPost2010Prop46
 90
       50
102
RTVSPost2010PropOp46
 70
     1
102
RTVSPost2010Prop47
 90
       50
102
RTVSPost2010PropOp47
 70
     1
102
RTVSPost2010Prop48
 90
       50
102
RTVSPost2010PropOp48
 70
     1
102
RTVSPost2010Prop49
280
     0
102
RTVSPost2010PropOp49
 70
     1
102
RTVSPost2010Prop50
 90
       50
102
RTVSPost2010PropOp50
 70
     1
102
RTVSPost2010Prop51ColorIndex
 90
      256
102
RTVSPost2010Prop51ColorRGB
 90
-16777216
102
RTVSPost2010PropOp51
 70
     0
102
RTVSPost2010Prop52
140
1.0
102
RTVSPost2010PropOp52
 70
     0
102
RTVSPost2010Prop53
 90
        2
102
RTVSPost2010PropOp53
 70
     1
102
RTVSPost2010Prop54
  1
strokes_ogs.tif
102
RTVSPost2010PropOp54
 70
     1
102
RTVSPost2010Prop55
280
     0
102
RTVSPost2010PropOp55
 70
     1
102
RTVSPost2010Prop56
140
1.0
102
RTVSPost2010PropOp56
 70
     1
102
RTVSPost2010Prop57
140
1.0
102
RTVSPost2010PropOp57
 70
     1
  0
XRECORD
  5
A0D
102
{ACAD_REACTORS
330
A0C
102
}
330
A0C
100
AcDbXrecord
280
     1
102
RTVSPost2010Prop28
280
     0
102
RTVSPost2010PropOp28
 70
     1
102
RTVSPost2010Prop29
280
     1
102
RTVSPost2010PropOp29
 70
     1
102
RTVSPost2010Prop30
280
     1
102
RTVSPost2010PropOp30
 70
     1
102
RTVSPost2010Prop31
280
     0
102
RTVSPost2010PropOp31
 70
     1
102
RTVSPost2010Prop32
280
     0
102
RTVSPost2010PropOp32
 70
     1
102
RTVSPost2010Prop33
280
     0
102
RTVSPost2010PropOp33
 70
     1
102
RTVSPost2010Prop34
280
     0
102
RTVSPost2010PropOp34
 70
     1
102
RTVSPost2010Prop35
280
     0
102
RTVSPost2010PropOp35
 70
     1
102
RTVSPost2010Prop36
280
     0
102
RTVSPost2010PropOp36
 70
     1
102
RTVSPost2010Prop37
 90
       50
102
RTVSPost2010PropOp37
 70
     1
102
RTVSPost2010Prop38
140
0.0
102
RTVSPost2010PropOp38
 70
     1
102
RTVSPost2010Prop39
140
1.0
102
RTVSPost2010PropOp39
 70
     1
102
RTVSPost2010Prop40
 90
        0
102
RTVSPost2010PropOp40
 70
     1
102
RTVSPost2010Prop41ColorIndex
 90
       18
102
RTVSPost2010Prop41ColorRGB
 90
        0
102
RTVSPost2010PropOp41
 70
     1
102
RTVSPost2010Prop42
 90
       50
102
RTVSPost2010PropOp42
 70
     1
102
RTVSPost2010Prop43
 90
        3
102
RTVSPost2010PropOp43
 70
     1
102
RTVSPost2010Prop44ColorIndex
 90
        5
102
RTVSPost2010Prop44ColorRGB
 90
      255
102
RTVSPost2010PropOp44
 70
     1
102
RTVSPost2010Prop45
280
     0
102
RTVSPost2010PropOp45
 70
     1
102
RTVSPost2010Prop46
 90
       50
102
RTVSPost2010PropOp46
 70
     1
102
RTVSPost2010Prop47
 90
       50
102
RTVSPost2010PropOp47
 70
     1
102
RTVSPost2010Prop48
 90
       50
102
RTVSPost2010PropOp48
 70
     1
102
RTVSPost2010Prop49
280
     0
102
RTVSPost2010PropOp49
 70
     1
102
RTVSPost2010Prop50
 90
       50
102
RTVSPost2010PropOp50
 70
     1
102
RTVSPost2010Prop51ColorIndex
 90
      256
102
RTVSPost2010Prop51ColorRGB
 90
-16777216
102
RTVSPost2010PropOp51
 70
     0
102
RTVSPost2010Prop52
140
1.0
102
RTVSPost2010PropOp52
 70
     0
102
RTVSPost2010Prop53
 90
        2
102
RTVSPost2010PropOp53
 70
     1
102
RTVSPost2010Prop54
  1
strokes_ogs.tif
102
RTVSPost2010PropOp54
 70
     1
102
RTVSPost2010Prop55
280
     0
102
RTVSPost2010PropOp55
 70
     1
102
RTVSPost2010Prop56
140
1.0
102
RTVSPost2010PropOp56
 70
     1
102
RTVSPost2010Prop57
140
1.0
102
RTVSPost2010PropOp57
 70
     1
  0
XRECORD
  5
9FF
102
{ACAD_REACTORS
330
9FE
102
}
330
9FE
100
AcDbXrecord
280
     1
102
RTVSPost2010Prop28
280
     0
102
RTVSPost2010PropOp28
 70
     1
102
RTVSPost2010Prop29
280
     1
102
RTVSPost2010PropOp29
 70
     1
102
RTVSPost2010Prop30
280
     1
102
RTVSPost2010PropOp30
 70
     1
102
RTVSPost2010Prop31
280
     0
102
RTVSPost2010PropOp31
 70
     1
102
RTVSPost2010Prop32
280
     0
102
RTVSPost2010PropOp32
 70
     1
102
RTVSPost2010Prop33
280
     0
102
RTVSPost2010PropOp33
 70
     1
102
RTVSPost2010Prop34
280
     0
102
RTVSPost2010PropOp34
 70
     1
102
RTVSPost2010Prop35
280
     0
102
RTVSPost2010PropOp35
 70
     1
102
RTVSPost2010Prop36
280
     0
102
RTVSPost2010PropOp36
 70
     1
102
RTVSPost2010Prop37
 90
       50
102
RTVSPost2010PropOp37
 70
     1
102
RTVSPost2010Prop38
140
0.0
102
RTVSPost2010PropOp38
 70
     1
102
RTVSPost2010Prop39
140
1.0
102
RTVSPost2010PropOp39
 70
     1
102
RTVSPost2010Prop40
 90
        0
102
RTVSPost2010PropOp40
 70
     1
102
RTVSPost2010Prop41ColorIndex
 90
       18
102
RTVSPost2010Prop41ColorRGB
 90
        0
102
RTVSPost2010PropOp41
 70
     1
102
RTVSPost2010Prop42
 90
       50
102
RTVSPost2010PropOp42
 70
     1
102
RTVSPost2010Prop43
 90
        3
102
RTVSPost2010PropOp43
 70
     1
102
RTVSPost2010Prop44ColorIndex
 90
        5
102
RTVSPost2010Prop44ColorRGB
 90
      255
102
RTVSPost2010PropOp44
 70
     1
102
RTVSPost2010Prop45
280
     0
102
RTVSPost2010PropOp45
 70
     1
102
RTVSPost2010Prop46
 90
       50
102
RTVSPost2010PropOp46
 70
     1
102
RTVSPost2010Prop47
 90
       50
102
RTVSPost2010PropOp47
 70
     1
102
RTVSPost2010Prop48
 90
       50
102
RTVSPost2010PropOp48
 70
     1
102
RTVSPost2010Prop49
280
     0
102
RTVSPost2010PropOp49
 70
     1
102
RTVSPost2010Prop50
 90
       50
102
RTVSPost2010PropOp50
 70
     1
102
RTVSPost2010Prop51ColorIndex
 90
      256
102
RTVSPost2010Prop51ColorRGB
 90
-16777216
102
RTVSPost2010PropOp51
 70
     0
102
RTVSPost2010Prop52
140
1.0
102
RTVSPost2010PropOp52
 70
     0
102
RTVSPost2010Prop53
 90
        2
102
RTVSPost2010PropOp53
 70
     1
102
RTVSPost2010Prop54
  1
strokes_ogs.tif
102
RTVSPost2010PropOp54
 70
     1
102
RTVSPost2010Prop55
280
     0
102
RTVSPost2010PropOp55
 70
     1
102
RTVSPost2010Prop56
140
1.0
102
RTVSPost2010PropOp56
 70
     1
102
RTVSPost2010Prop57
140
1.0
102
RTVSPost2010PropOp57
 70
     1
  0
XRECORD
  5
A03
102
{ACAD_REACTORS
330
A02
102
}
330
A02
100
AcDbXrecord
280
     1
102
RTVSPost2010Prop28
280
     0
102
RTVSPost2010PropOp28
 70
     1
102
RTVSPost2010Prop29
280
     1
102
RTVSPost2010PropOp29
 70
     1
102
RTVSPost2010Prop30
280
     1
102
RTVSPost2010PropOp30
 70
     1
102
RTVSPost2010Prop31
280
     0
102
RTVSPost2010PropOp31
 70
     1
102
RTVSPost2010Prop32
280
     0
102
RTVSPost2010PropOp32
 70
     1
102
RTVSPost2010Prop33
280
     0
102
RTVSPost2010PropOp33
 70
     1
102
RTVSPost2010Prop34
280
     0
102
RTVSPost2010PropOp34
 70
     1
102
RTVSPost2010Prop35
280
     0
102
RTVSPost2010PropOp35
 70
     1
102
RTVSPost2010Prop36
280
     0
102
RTVSPost2010PropOp36
 70
     1
102
RTVSPost2010Prop37
 90
       50
102
RTVSPost2010PropOp37
 70
     1
102
RTVSPost2010Prop38
140
0.0
102
RTVSPost2010PropOp38
 70
     1
102
RTVSPost2010Prop39
140
1.0
102
RTVSPost2010PropOp39
 70
     1
102
RTVSPost2010Prop40
 90
        0
102
RTVSPost2010PropOp40
 70
     1
102
RTVSPost2010Prop41ColorIndex
 90
       18
102
RTVSPost2010Prop41ColorRGB
 90
        0
102
RTVSPost2010PropOp41
 70
     1
102
RTVSPost2010Prop42
 90
       50
102
RTVSPost2010PropOp42
 70
     1
102
RTVSPost2010Prop43
 90
        3
102
RTVSPost2010PropOp43
 70
     1
102
RTVSPost2010Prop44ColorIndex
 90
        5
102
RTVSPost2010Prop44ColorRGB
 90
      255
102
RTVSPost2010PropOp44
 70
     1
102
RTVSPost2010Prop45
280
     0
102
RTVSPost2010PropOp45
 70
     1
102
RTVSPost2010Prop46
 90
       50
102
RTVSPost2010PropOp46
 70
     1
102
RTVSPost2010Prop47
 90
       50
102
RTVSPost2010PropOp47
 70
     1
102
RTVSPost2010Prop48
 90
       50
102
RTVSPost2010PropOp48
 70
     1
102
RTVSPost2010Prop49
280
     0
102
RTVSPost2010PropOp49
 70
     1
102
RTVSPost2010Prop50
 90
       50
102
RTVSPost2010PropOp50
 70
     1
102
RTVSPost2010Prop51ColorIndex
 90
      256
102
RTVSPost2010Prop51ColorRGB
 90
-16777216
102
RTVSPost2010PropOp51
 70
     0
102
RTVSPost2010Prop52
140
1.0
102
RTVSPost2010PropOp52
 70
     0
102
RTVSPost2010Prop53
 90
        2
102
RTVSPost2010PropOp53
 70
     1
102
RTVSPost2010Prop54
  1
strokes_ogs.tif
102
RTVSPost2010PropOp54
 70
     1
102
RTVSPost2010Prop55
280
     0
102
RTVSPost2010PropOp55
 70
     1
102
RTVSPost2010Prop56
140
1.0
102
RTVSPost2010PropOp56
 70
     1
102
RTVSPost2010Prop57
140
1.0
102
RTVSPost2010PropOp57
 70
     1
  0
XRECORD
  5
A1D
102
{ACAD_REACTORS
330
A1C
102
}
330
A1C
100
AcDbXrecord
280
     1
102
RTVSPost2010Prop28
280
     0
102
RTVSPost2010PropOp28
 70
     1
102
RTVSPost2010Prop29
280
     1
102
RTVSPost2010PropOp29
 70
     1
102
RTVSPost2010Prop30
280
     1
102
RTVSPost2010PropOp30
 70
     1
102
RTVSPost2010Prop31
280
     0
102
RTVSPost2010PropOp31
 70
     1
102
RTVSPost2010Prop32
280
     0
102
RTVSPost2010PropOp32
 70
     1
102
RTVSPost2010Prop33
280
     0
102
RTVSPost2010PropOp33
 70
     1
102
RTVSPost2010Prop34
280
     0
102
RTVSPost2010PropOp34
 70
     1
102
RTVSPost2010Prop35
280
     0
102
RTVSPost2010PropOp35
 70
     1
102
RTVSPost2010Prop36
280
     0
102
RTVSPost2010PropOp36
 70
     1
102
RTVSPost2010Prop37
 90
       50
102
RTVSPost2010PropOp37
 70
     0
102
RTVSPost2010Prop38
140
0.0
102
RTVSPost2010PropOp38
 70
     0
102
RTVSPost2010Prop39
140
1.0
102
RTVSPost2010PropOp39
 70
     0
102
RTVSPost2010Prop40
 90
        0
102
RTVSPost2010PropOp40
 70
     0
102
RTVSPost2010Prop41ColorIndex
 90
       18
102
RTVSPost2010Prop41ColorRGB
 90
        0
102
RTVSPost2010PropOp41
 70
     0
102
RTVSPost2010Prop42
 90
       50
102
RTVSPost2010PropOp42
 70
     0
102
RTVSPost2010Prop43
 90
        3
102
RTVSPost2010PropOp43
 70
     0
102
RTVSPost2010Prop44ColorIndex
 90
        5
102
RTVSPost2010Prop44ColorRGB
 90
      255
102
RTVSPost2010PropOp44
 70
     0
102
RTVSPost2010Prop45
280
     0
102
RTVSPost2010PropOp45
 70
     1
102
RTVSPost2010Prop46
 90
       50
102
RTVSPost2010PropOp46
 70
     0
102
RTVSPost2010Prop47
 90
       50
102
RTVSPost2010PropOp47
 70
     0
102
RTVSPost2010Prop48
 90
       50
102
RTVSPost2010PropOp48
 70
     0
102
RTVSPost2010Prop49
280
     0
102
RTVSPost2010PropOp49
 70
     1
102
RTVSPost2010Prop50
 90
       50
102
RTVSPost2010PropOp50
 70
     0
102
RTVSPost2010Prop51ColorIndex
 90
      256
102
RTVSPost2010Prop51ColorRGB
 90
-16777216
102
RTVSPost2010PropOp51
 70
     0
102
RTVSPost2010Prop52
140
1.0
102
RTVSPost2010PropOp52
 70
     0
102
RTVSPost2010Prop53
 90
        2
102
RTVSPost2010PropOp53
 70
     0
102
RTVSPost2010Prop54
  1
strokes_ogs.tif
102
RTVSPost2010PropOp54
 70
     0
102
RTVSPost2010Prop55
280
     0
102
RTVSPost2010PropOp55
 70
     1
102
RTVSPost2010Prop56
140
1.0
102
RTVSPost2010PropOp56
 70
     0
102
RTVSPost2010Prop57
140
1.0
102
RTVSPost2010PropOp57
 70
     0
  0
XRECORD
  5
A0B
102
{ACAD_REACTORS
330
A0A
102
}
330
A0A
100
AcDbXrecord
280
     1
102
RTVSPost2010Prop28
280
     0
102
RTVSPost2010PropOp28
 70
     1
102
RTVSPost2010Prop29
280
     1
102
RTVSPost2010PropOp29
 70
     1
102
RTVSPost2010Prop30
280
     1
102
RTVSPost2010PropOp30
 70
     1
102
RTVSPost2010Prop31
280
     0
102
RTVSPost2010PropOp31
 70
     1
102
RTVSPost2010Prop32
280
     0
102
RTVSPost2010PropOp32
 70
     1
102
RTVSPost2010Prop33
280
     0
102
RTVSPost2010PropOp33
 70
     1
102
RTVSPost2010Prop34
280
     0
102
RTVSPost2010PropOp34
 70
     1
102
RTVSPost2010Prop35
280
     0
102
RTVSPost2010PropOp35
 70
     1
102
RTVSPost2010Prop36
280
     0
102
RTVSPost2010PropOp36
 70
     1
102
RTVSPost2010Prop37
 90
       50
102
RTVSPost2010PropOp37
 70
     1
102
RTVSPost2010Prop38
140
0.0
102
RTVSPost2010PropOp38
 70
     1
102
RTVSPost2010Prop39
140
1.0
102
RTVSPost2010PropOp39
 70
     1
102
RTVSPost2010Prop40
 90
        0
102
RTVSPost2010PropOp40
 70
     1
102
RTVSPost2010Prop41ColorIndex
 90
       18
102
RTVSPost2010Prop41ColorRGB
 90
        0
102
RTVSPost2010PropOp41
 70
     1
102
RTVSPost2010Prop42
 90
       50
102
RTVSPost2010PropOp42
 70
     1
102
RTVSPost2010Prop43
 90
        3
102
RTVSPost2010PropOp43
 70
     1
102
RTVSPost2010Prop44ColorIndex
 90
        5
102
RTVSPost2010Prop44ColorRGB
 90
      255
102
RTVSPost2010PropOp44
 70
     1
102
RTVSPost2010Prop45
280
     0
102
RTVSPost2010PropOp45
 70
     1
102
RTVSPost2010Prop46
 90
       50
102
RTVSPost2010PropOp46
 70
     1
102
RTVSPost2010Prop47
 90
       50
102
RTVSPost2010PropOp47
 70
     1
102
RTVSPost2010Prop48
 90
       50
102
RTVSPost2010PropOp48
 70
     1
102
RTVSPost2010Prop49
280
     0
102
RTVSPost2010PropOp49
 70
     1
102
RTVSPost2010Prop50
 90
       50
102
RTVSPost2010PropOp50
 70
     1
102
RTVSPost2010Prop51ColorIndex
 90
      256
102
RTVSPost2010Prop51ColorRGB
 90
-16777216
102
RTVSPost2010PropOp51
 70
     0
102
RTVSPost2010Prop52
140
1.0
102
RTVSPost2010PropOp52
 70
     0
102
RTVSPost2010Prop53
 90
        2
102
RTVSPost2010PropOp53
 70
     1
102
RTVSPost2010Prop54
  1
strokes_ogs.tif
102
RTVSPost2010PropOp54
 70
     1
102
RTVSPost2010Prop55
280
     0
102
RTVSPost2010PropOp55
 70
     1
102
RTVSPost2010Prop56
140
1.0
102
RTVSPost2010PropOp56
 70
     1
102
RTVSPost2010Prop57
140
1.0
102
RTVSPost2010PropOp57
 70
     1
  0
XRECORD
  5
9EF
102
{ACAD_REACTORS
330
9EE
102
}
330
9EE
100
AcDbXrecord
280
     1
102
RTVSPost2010Prop28
280
     0
102
RTVSPost2010PropOp28
 70
     1
102
RTVSPost2010Prop29
280
     1
102
RTVSPost2010PropOp29
 70
     1
102
RTVSPost2010Prop30
280
     1
102
RTVSPost2010PropOp30
 70
     1
102
RTVSPost2010Prop31
280
     0
102
RTVSPost2010PropOp31
 70
     1
102
RTVSPost2010Prop32
280
     0
102
RTVSPost2010PropOp32
 70
     1
102
RTVSPost2010Prop33
280
     0
102
RTVSPost2010PropOp33
 70
     1
102
RTVSPost2010Prop34
280
     0
102
RTVSPost2010PropOp34
 70
     1
102
RTVSPost2010Prop35
280
     0
102
RTVSPost2010PropOp35
 70
     1
102
RTVSPost2010Prop36
280
     0
102
RTVSPost2010PropOp36
 70
     1
102
RTVSPost2010Prop37
 90
       50
102
RTVSPost2010PropOp37
 70
     1
102
RTVSPost2010Prop38
140
0.0
102
RTVSPost2010PropOp38
 70
     1
102
RTVSPost2010Prop39
140
1.0
102
RTVSPost2010PropOp39
 70
     1
102
RTVSPost2010Prop40
 90
        0
102
RTVSPost2010PropOp40
 70
     1
102
RTVSPost2010Prop41ColorIndex
 90
       18
102
RTVSPost2010Prop41ColorRGB
 90
        0
102
RTVSPost2010PropOp41
 70
     1
102
RTVSPost2010Prop42
 90
       50
102
RTVSPost2010PropOp42
 70
     1
102
RTVSPost2010Prop43
 90
        3
102
RTVSPost2010PropOp43
 70
     1
102
RTVSPost2010Prop44ColorIndex
 90
        5
102
RTVSPost2010Prop44ColorRGB
 90
      255
102
RTVSPost2010PropOp44
 70
     1
102
RTVSPost2010Prop45
280
     0
102
RTVSPost2010PropOp45
 70
     1
102
RTVSPost2010Prop46
 90
       50
102
RTVSPost2010PropOp46
 70
     1
102
RTVSPost2010Prop47
 90
       50
102
RTVSPost2010PropOp47
 70
     1
102
RTVSPost2010Prop48
 90
       50
102
RTVSPost2010PropOp48
 70
     1
102
RTVSPost2010Prop49
280
     0
102
RTVSPost2010PropOp49
 70
     1
102
RTVSPost2010Prop50
 90
       50
102
RTVSPost2010PropOp50
 70
     1
102
RTVSPost2010Prop51ColorIndex
 90
      256
102
RTVSPost2010Prop51ColorRGB
 90
-16777216
102
RTVSPost2010PropOp51
 70
     0
102
RTVSPost2010Prop52
140
1.0
102
RTVSPost2010PropOp52
 70
     0
102
RTVSPost2010Prop53
 90
        2
102
RTVSPost2010PropOp53
 70
     1
102
RTVSPost2010Prop54
  1
strokes_ogs.tif
102
RTVSPost2010PropOp54
 70
     1
102
RTVSPost2010Prop55
280
     0
102
RTVSPost2010PropOp55
 70
     1
102
RTVSPost2010Prop56
140
1.0
102
RTVSPost2010PropOp56
 70
     1
102
RTVSPost2010Prop57
140
1.0
102
RTVSPost2010PropOp57
 70
     1
  0
XRECORD
  5
9F1
102
{ACAD_REACTORS
330
9F0
102
}
330
9F0
100
AcDbXrecord
280
     1
102
RTVSPost2010Prop28
280
     0
102
RTVSPost2010PropOp28
 70
     1
102
RTVSPost2010Prop29
280
     1
102
RTVSPost2010PropOp29
 70
     1
102
RTVSPost2010Prop30
280
     1
102
RTVSPost2010PropOp30
 70
     1
102
RTVSPost2010Prop31
280
     0
102
RTVSPost2010PropOp31
 70
     1
102
RTVSPost2010Prop32
280
     0
102
RTVSPost2010PropOp32
 70
     1
102
RTVSPost2010Prop33
280
     0
102
RTVSPost2010PropOp33
 70
     1
102
RTVSPost2010Prop34
280
     0
102
RTVSPost2010PropOp34
 70
     1
102
RTVSPost2010Prop35
280
     0
102
RTVSPost2010PropOp35
 70
     1
102
RTVSPost2010Prop36
280
     0
102
RTVSPost2010PropOp36
 70
     1
102
RTVSPost2010Prop37
 90
       50
102
RTVSPost2010PropOp37
 70
     1
102
RTVSPost2010Prop38
140
0.0
102
RTVSPost2010PropOp38
 70
     1
102
RTVSPost2010Prop39
140
1.0
102
RTVSPost2010PropOp39
 70
     1
102
RTVSPost2010Prop40
 90
        0
102
RTVSPost2010PropOp40
 70
     1
102
RTVSPost2010Prop41ColorIndex
 90
       18
102
RTVSPost2010Prop41ColorRGB
 90
        0
102
RTVSPost2010PropOp41
 70
     1
102
RTVSPost2010Prop42
 90
       50
102
RTVSPost2010PropOp42
 70
     1
102
RTVSPost2010Prop43
 90
        3
102
RTVSPost2010PropOp43
 70
     1
102
RTVSPost2010Prop44ColorIndex
 90
        5
102
RTVSPost2010Prop44ColorRGB
 90
      255
102
RTVSPost2010PropOp44
 70
     1
102
RTVSPost2010Prop45
280
     0
102
RTVSPost2010PropOp45
 70
     1
102
RTVSPost2010Prop46
 90
       50
102
RTVSPost2010PropOp46
 70
     1
102
RTVSPost2010Prop47
 90
       50
102
RTVSPost2010PropOp47
 70
     1
102
RTVSPost2010Prop48
 90
       50
102
RTVSPost2010PropOp48
 70
     1
102
RTVSPost2010Prop49
280
     0
102
RTVSPost2010PropOp49
 70
     1
102
RTVSPost2010Prop50
 90
       50
102
RTVSPost2010PropOp50
 70
     1
102
RTVSPost2010Prop51ColorIndex
 90
      256
102
RTVSPost2010Prop51ColorRGB
 90
-16777216
102
RTVSPost2010PropOp51
 70
     0
102
RTVSPost2010Prop52
140
1.0
102
RTVSPost2010PropOp52
 70
     0
102
RTVSPost2010Prop53
 90
        2
102
RTVSPost2010PropOp53
 70
     1
102
RTVSPost2010Prop54
  1
strokes_ogs.tif
102
RTVSPost2010PropOp54
 70
     1
102
RTVSPost2010Prop55
280
     0
102
RTVSPost2010PropOp55
 70
     1
102
RTVSPost2010Prop56
140
1.0
102
RTVSPost2010PropOp56
 70
     1
102
RTVSPost2010Prop57
140
1.0
102
RTVSPost2010PropOp57
 70
     1
  0
XRECORD
  5
9F3
102
{ACAD_REACTORS
330
9F2
102
}
330
9F2
100
AcDbXrecord
280
     1
102
RTVSPost2010Prop28
280
     0
102
RTVSPost2010PropOp28
 70
     1
102
RTVSPost2010Prop29
280
     1
102
RTVSPost2010PropOp29
 70
     1
102
RTVSPost2010Prop30
280
     1
102
RTVSPost2010PropOp30
 70
     1
102
RTVSPost2010Prop31
280
     0
102
RTVSPost2010PropOp31
 70
     1
102
RTVSPost2010Prop32
280
     0
102
RTVSPost2010PropOp32
 70
     1
102
RTVSPost2010Prop33
280
     0
102
RTVSPost2010PropOp33
 70
     1
102
RTVSPost2010Prop34
280
     0
102
RTVSPost2010PropOp34
 70
     1
102
RTVSPost2010Prop35
280
     0
102
RTVSPost2010PropOp35
 70
     1
102
RTVSPost2010Prop36
280
     0
102
RTVSPost2010PropOp36
 70
     1
102
RTVSPost2010Prop37
 90
       50
102
RTVSPost2010PropOp37
 70
     1
102
RTVSPost2010Prop38
140
0.0
102
RTVSPost2010PropOp38
 70
     1
102
RTVSPost2010Prop39
140
1.0
102
RTVSPost2010PropOp39
 70
     1
102
RTVSPost2010Prop40
 90
        0
102
RTVSPost2010PropOp40
 70
     1
102
RTVSPost2010Prop41ColorIndex
 90
       18
102
RTVSPost2010Prop41ColorRGB
 90
        0
102
RTVSPost2010PropOp41
 70
     1
102
RTVSPost2010Prop42
 90
       50
102
RTVSPost2010PropOp42
 70
     1
102
RTVSPost2010Prop43
 90
        3
102
RTVSPost2010PropOp43
 70
     1
102
RTVSPost2010Prop44ColorIndex
 90
        5
102
RTVSPost2010Prop44ColorRGB
 90
      255
102
RTVSPost2010PropOp44
 70
     1
102
RTVSPost2010Prop45
280
     0
102
RTVSPost2010PropOp45
 70
     1
102
RTVSPost2010Prop46
 90
       50
102
RTVSPost2010PropOp46
 70
     1
102
RTVSPost2010Prop47
 90
       50
102
RTVSPost2010PropOp47
 70
     1
102
RTVSPost2010Prop48
 90
       50
102
RTVSPost2010PropOp48
 70
     1
102
RTVSPost2010Prop49
280
     0
102
RTVSPost2010PropOp49
 70
     1
102
RTVSPost2010Prop50
 90
       50
102
RTVSPost2010PropOp50
 70
     1
102
RTVSPost2010Prop51ColorIndex
 90
      256
102
RTVSPost2010Prop51ColorRGB
 90
-16777216
102
RTVSPost2010PropOp51
 70
     0
102
RTVSPost2010Prop52
140
1.0
102
RTVSPost2010PropOp52
 70
     0
102
RTVSPost2010Prop53
 90
        2
102
RTVSPost2010PropOp53
 70
     1
102
RTVSPost2010Prop54
  1
strokes_ogs.tif
102
RTVSPost2010PropOp54
 70
     1
102
RTVSPost2010Prop55
280
     0
102
RTVSPost2010PropOp55
 70
     1
102
RTVSPost2010Prop56
140
1.0
102
RTVSPost2010PropOp56
 70
     1
102
RTVSPost2010Prop57
140
1.0
102
RTVSPost2010PropOp57
 70
     1
  0
XRECORD
  5
9F5
102
{ACAD_REACTORS
330
9F4
102
}
330
9F4
100
AcDbXrecord
280
     1
102
RTVSPost2010Prop28
280
     0
102
RTVSPost2010PropOp28
 70
     1
102
RTVSPost2010Prop29
280
     1
102
RTVSPost2010PropOp29
 70
     1
102
RTVSPost2010Prop30
280
     1
102
RTVSPost2010PropOp30
 70
     1
102
RTVSPost2010Prop31
280
     0
102
RTVSPost2010PropOp31
 70
     1
102
RTVSPost2010Prop32
280
     0
102
RTVSPost2010PropOp32
 70
     1
102
RTVSPost2010Prop33
280
     0
102
RTVSPost2010PropOp33
 70
     1
102
RTVSPost2010Prop34
280
     0
102
RTVSPost2010PropOp34
 70
     1
102
RTVSPost2010Prop35
280
     0
102
RTVSPost2010PropOp35
 70
     1
102
RTVSPost2010Prop36
280
     0
102
RTVSPost2010PropOp36
 70
     1
102
RTVSPost2010Prop37
 90
       50
102
RTVSPost2010PropOp37
 70
     1
102
RTVSPost2010Prop38
140
0.0
102
RTVSPost2010PropOp38
 70
     1
102
RTVSPost2010Prop39
140
1.0
102
RTVSPost2010PropOp39
 70
     1
102
RTVSPost2010Prop40
 90
        0
102
RTVSPost2010PropOp40
 70
     1
102
RTVSPost2010Prop41ColorIndex
 90
       18
102
RTVSPost2010Prop41ColorRGB
 90
        0
102
RTVSPost2010PropOp41
 70
     1
102
RTVSPost2010Prop42
 90
       50
102
RTVSPost2010PropOp42
 70
     1
102
RTVSPost2010Prop43
 90
        3
102
RTVSPost2010PropOp43
 70
     1
102
RTVSPost2010Prop44ColorIndex
 90
        5
102
RTVSPost2010Prop44ColorRGB
 90
      255
102
RTVSPost2010PropOp44
 70
     1
102
RTVSPost2010Prop45
280
     0
102
RTVSPost2010PropOp45
 70
     1
102
RTVSPost2010Prop46
 90
       50
102
RTVSPost2010PropOp46
 70
     1
102
RTVSPost2010Prop47
 90
       50
102
RTVSPost2010PropOp47
 70
     1
102
RTVSPost2010Prop48
 90
       50
102
RTVSPost2010PropOp48
 70
     1
102
RTVSPost2010Prop49
280
     0
102
RTVSPost2010PropOp49
 70
     1
102
RTVSPost2010Prop50
 90
       50
102
RTVSPost2010PropOp50
 70
     1
102
RTVSPost2010Prop51ColorIndex
 90
      256
102
RTVSPost2010Prop51ColorRGB
 90
-16777216
102
RTVSPost2010PropOp51
 70
     0
102
RTVSPost2010Prop52
140
1.0
102
RTVSPost2010PropOp52
 70
     0
102
RTVSPost2010Prop53
 90
        2
102
RTVSPost2010PropOp53
 70
     1
102
RTVSPost2010Prop54
  1
strokes_ogs.tif
102
RTVSPost2010PropOp54
 70
     1
102
RTVSPost2010Prop55
280
     0
102
RTVSPost2010PropOp55
 70
     1
102
RTVSPost2010Prop56
140
1.0
102
RTVSPost2010PropOp56
 70
     1
102
RTVSPost2010Prop57
140
1.0
102
RTVSPost2010PropOp57
 70
     1
  0
XRECORD
  5
9FD
102
{ACAD_REACTORS
330
9FC
102
}
330
9FC
100
AcDbXrecord
280
     1
102
RTVSPost2010Prop28
280
     0
102
RTVSPost2010PropOp28
 70
     1
102
RTVSPost2010Prop29
280
     1
102
RTVSPost2010PropOp29
 70
     1
102
RTVSPost2010Prop30
280
     1
102
RTVSPost2010PropOp30
 70
     1
102
RTVSPost2010Prop31
280
     0
102
RTVSPost2010PropOp31
 70
     1
102
RTVSPost2010Prop32
280
     0
102
RTVSPost2010PropOp32
 70
     1
102
RTVSPost2010Prop33
280
     0
102
RTVSPost2010PropOp33
 70
     1
102
RTVSPost2010Prop34
280
     0
102
RTVSPost2010PropOp34
 70
     1
102
RTVSPost2010Prop35
280
     0
102
RTVSPost2010PropOp35
 70
     1
102
RTVSPost2010Prop36
280
     0
102
RTVSPost2010PropOp36
 70
     1
102
RTVSPost2010Prop37
 90
       50
102
RTVSPost2010PropOp37
 70
     1
102
RTVSPost2010Prop38
140
0.0
102
RTVSPost2010PropOp38
 70
     1
102
RTVSPost2010Prop39
140
1.0
102
RTVSPost2010PropOp39
 70
     1
102
RTVSPost2010Prop40
 90
        0
102
RTVSPost2010PropOp40
 70
     1
102
RTVSPost2010Prop41ColorIndex
 90
       18
102
RTVSPost2010Prop41ColorRGB
 90
        0
102
RTVSPost2010PropOp41
 70
     1
102
RTVSPost2010Prop42
 90
       50
102
RTVSPost2010PropOp42
 70
     1
102
RTVSPost2010Prop43
 90
        3
102
RTVSPost2010PropOp43
 70
     1
102
RTVSPost2010Prop44ColorIndex
 90
        5
102
RTVSPost2010Prop44ColorRGB
 90
      255
102
RTVSPost2010PropOp44
 70
     1
102
RTVSPost2010Prop45
280
     0
102
RTVSPost2010PropOp45
 70
     1
102
RTVSPost2010Prop46
 90
       50
102
RTVSPost2010PropOp46
 70
     1
102
RTVSPost2010Prop47
 90
       50
102
RTVSPost2010PropOp47
 70
     1
102
RTVSPost2010Prop48
 90
       50
102
RTVSPost2010PropOp48
 70
     1
102
RTVSPost2010Prop49
280
     0
102
RTVSPost2010PropOp49
 70
     1
102
RTVSPost2010Prop50
 90
       50
102
RTVSPost2010PropOp50
 70
     1
102
RTVSPost2010Prop51ColorIndex
 90
      256
102
RTVSPost2010Prop51ColorRGB
 90
-16777216
102
RTVSPost2010PropOp51
 70
     0
102
RTVSPost2010Prop52
140
1.0
102
RTVSPost2010PropOp52
 70
     0
102
RTVSPost2010Prop53
 90
        2
102
RTVSPost2010PropOp53
 70
     1
102
RTVSPost2010Prop54
  1
strokes_ogs.tif
102
RTVSPost2010PropOp54
 70
     1
102
RTVSPost2010Prop55
280
     0
102
RTVSPost2010PropOp55
 70
     1
102
RTVSPost2010Prop56
140
1.0
102
RTVSPost2010PropOp56
 70
     1
102
RTVSPost2010Prop57
140
1.0
102
RTVSPost2010PropOp57
 70
     1
  0
XRECORD
  5
A19
102
{ACAD_REACTORS
330
A18
102
}
330
A18
100
AcDbXrecord
280
     1
102
RTVSPost2010Prop28
280
     0
102
RTVSPost2010PropOp28
 70
     1
102
RTVSPost2010Prop29
280
     1
102
RTVSPost2010PropOp29
 70
     1
102
RTVSPost2010Prop30
280
     1
102
RTVSPost2010PropOp30
 70
     1
102
RTVSPost2010Prop31
280
     0
102
RTVSPost2010PropOp31
 70
     1
102
RTVSPost2010Prop32
280
     0
102
RTVSPost2010PropOp32
 70
     1
102
RTVSPost2010Prop33
280
     0
102
RTVSPost2010PropOp33
 70
     1
102
RTVSPost2010Prop34
280
     0
102
RTVSPost2010PropOp34
 70
     1
102
RTVSPost2010Prop35
280
     0
102
RTVSPost2010PropOp35
 70
     1
102
RTVSPost2010Prop36
280
     0
102
RTVSPost2010PropOp36
 70
     1
102
RTVSPost2010Prop37
 90
       50
102
RTVSPost2010PropOp37
 70
     0
102
RTVSPost2010Prop38
140
0.0
102
RTVSPost2010PropOp38
 70
     0
102
RTVSPost2010Prop39
140
1.0
102
RTVSPost2010PropOp39
 70
     0
102
RTVSPost2010Prop40
 90
        0
102
RTVSPost2010PropOp40
 70
     0
102
RTVSPost2010Prop41ColorIndex
 90
       18
102
RTVSPost2010Prop41ColorRGB
 90
        0
102
RTVSPost2010PropOp41
 70
     0
102
RTVSPost2010Prop42
 90
       50
102
RTVSPost2010PropOp42
 70
     0
102
RTVSPost2010Prop43
 90
        3
102
RTVSPost2010PropOp43
 70
     0
102
RTVSPost2010Prop44ColorIndex
 90
        5
102
RTVSPost2010Prop44ColorRGB
 90
      255
102
RTVSPost2010PropOp44
 70
     0
102
RTVSPost2010Prop45
280
     0
102
RTVSPost2010PropOp45
 70
     1
102
RTVSPost2010Prop46
 90
       50
102
RTVSPost2010PropOp46
 70
     0
102
RTVSPost2010Prop47
 90
       50
102
RTVSPost2010PropOp47
 70
     0
102
RTVSPost2010Prop48
 90
       50
102
RTVSPost2010PropOp48
 70
     0
102
RTVSPost2010Prop49
280
     0
102
RTVSPost2010PropOp49
 70
     1
102
RTVSPost2010Prop50
 90
       50
102
RTVSPost2010PropOp50
 70
     0
102
RTVSPost2010Prop51ColorIndex
 90
      256
102
RTVSPost2010Prop51ColorRGB
 90
-16777216
102
RTVSPost2010PropOp51
 70
     0
102
RTVSPost2010Prop52
140
1.0
102
RTVSPost2010PropOp52
 70
     0
102
RTVSPost2010Prop53
 90
        2
102
RTVSPost2010PropOp53
 70
     0
102
RTVSPost2010Prop54
  1
strokes_ogs.tif
102
RTVSPost2010PropOp54
 70
     0
102
RTVSPost2010Prop55
280
     0
102
RTVSPost2010PropOp55
 70
     1
102
RTVSPost2010Prop56
140
1.0
102
RTVSPost2010PropOp56
 70
     0
102
RTVSPost2010Prop57
140
1.0
102
RTVSPost2010PropOp57
 70
     0
  0
XRECORD
  5
A09
102
{ACAD_REACTORS
330
A08
102
}
330
A08
100
AcDbXrecord
280
     1
102
RTVSPost2010Prop28
280
     0
102
RTVSPost2010PropOp28
 70
     1
102
RTVSPost2010Prop29
280
     1
102
RTVSPost2010PropOp29
 70
     1
102
RTVSPost2010Prop30
280
     1
102
RTVSPost2010PropOp30
 70
     1
102
RTVSPost2010Prop31
280
     0
102
RTVSPost2010PropOp31
 70
     1
102
RTVSPost2010Prop32
280
     0
102
RTVSPost2010PropOp32
 70
     1
102
RTVSPost2010Prop33
280
     0
102
RTVSPost2010PropOp33
 70
     1
102
RTVSPost2010Prop34
280
     0
102
RTVSPost2010PropOp34
 70
     1
102
RTVSPost2010Prop35
280
     0
102
RTVSPost2010PropOp35
 70
     1
102
RTVSPost2010Prop36
280
     0
102
RTVSPost2010PropOp36
 70
     1
102
RTVSPost2010Prop37
 90
       50
102
RTVSPost2010PropOp37
 70
     1
102
RTVSPost2010Prop38
140
0.0
102
RTVSPost2010PropOp38
 70
     1
102
RTVSPost2010Prop39
140
1.0
102
RTVSPost2010PropOp39
 70
     1
102
RTVSPost2010Prop40
 90
        0
102
RTVSPost2010PropOp40
 70
     1
102
RTVSPost2010Prop41ColorIndex
 90
       18
102
RTVSPost2010Prop41ColorRGB
 90
        0
102
RTVSPost2010PropOp41
 70
     1
102
RTVSPost2010Prop42
 90
       50
102
RTVSPost2010PropOp42
 70
     1
102
RTVSPost2010Prop43
 90
        3
102
RTVSPost2010PropOp43
 70
     1
102
RTVSPost2010Prop44ColorIndex
 90
        5
102
RTVSPost2010Prop44ColorRGB
 90
      255
102
RTVSPost2010PropOp44
 70
     1
102
RTVSPost2010Prop45
280
     0
102
RTVSPost2010PropOp45
 70
     1
102
RTVSPost2010Prop46
 90
       50
102
RTVSPost2010PropOp46
 70
     1
102
RTVSPost2010Prop47
 90
       50
102
RTVSPost2010PropOp47
 70
     1
102
RTVSPost2010Prop48
 90
       50
102
RTVSPost2010PropOp48
 70
     1
102
RTVSPost2010Prop49
280
     0
102
RTVSPost2010PropOp49
 70
     1
102
RTVSPost2010Prop50
 90
       50
102
RTVSPost2010PropOp50
 70
     1
102
RTVSPost2010Prop51ColorIndex
 90
      256
102
RTVSPost2010Prop51ColorRGB
 90
-16777216
102
RTVSPost2010PropOp51
 70
     0
102
RTVSPost2010Prop52
140
1.0
102
RTVSPost2010PropOp52
 70
     0
102
RTVSPost2010Prop53
 90
        2
102
RTVSPost2010PropOp53
 70
     1
102
RTVSPost2010Prop54
  1
strokes_ogs.tif
102
RTVSPost2010PropOp54
 70
     1
102
RTVSPost2010Prop55
280
     0
102
RTVSPost2010PropOp55
 70
     1
102
RTVSPost2010Prop56
140
1.0
102
RTVSPost2010PropOp56
 70
     1
102
RTVSPost2010Prop57
140
1.0
102
RTVSPost2010PropOp57
 70
     1
  0
XRECORD
  5
A1B
102
{ACAD_REACTORS
330
A1A
102
}
330
A1A
100
AcDbXrecord
280
     1
102
RTVSPost2010Prop28
280
     0
102
RTVSPost2010PropOp28
 70
     1
102
RTVSPost2010Prop29
280
     1
102
RTVSPost2010PropOp29
 70
     1
102
RTVSPost2010Prop30
280
     1
102
RTVSPost2010PropOp30
 70
     1
102
RTVSPost2010Prop31
280
     0
102
RTVSPost2010PropOp31
 70
     1
102
RTVSPost2010Prop32
280
     0
102
RTVSPost2010PropOp32
 70
     1
102
RTVSPost2010Prop33
280
     0
102
RTVSPost2010PropOp33
 70
     1
102
RTVSPost2010Prop34
280
     0
102
RTVSPost2010PropOp34
 70
     1
102
RTVSPost2010Prop35
280
     0
102
RTVSPost2010PropOp35
 70
     1
102
RTVSPost2010Prop36
280
     0
102
RTVSPost2010PropOp36
 70
     1
102
RTVSPost2010Prop37
 90
       50
102
RTVSPost2010PropOp37
 70
     0
102
RTVSPost2010Prop38
140
0.0
102
RTVSPost2010PropOp38
 70
     0
102
RTVSPost2010Prop39
140
1.0
102
RTVSPost2010PropOp39
 70
     0
102
RTVSPost2010Prop40
 90
        0
102
RTVSPost2010PropOp40
 70
     0
102
RTVSPost2010Prop41ColorIndex
 90
       18
102
RTVSPost2010Prop41ColorRGB
 90
        0
102
RTVSPost2010PropOp41
 70
     0
102
RTVSPost2010Prop42
 90
       50
102
RTVSPost2010PropOp42
 70
     0
102
RTVSPost2010Prop43
 90
        3
102
RTVSPost2010PropOp43
 70
     0
102
RTVSPost2010Prop44ColorIndex
 90
        5
102
RTVSPost2010Prop44ColorRGB
 90
      255
102
RTVSPost2010PropOp44
 70
     0
102
RTVSPost2010Prop45
280
     0
102
RTVSPost2010PropOp45
 70
     1
102
RTVSPost2010Prop46
 90
       50
102
RTVSPost2010PropOp46
 70
     0
102
RTVSPost2010Prop47
 90
       50
102
RTVSPost2010PropOp47
 70
     0
102
RTVSPost2010Prop48
 90
       50
102
RTVSPost2010PropOp48
 70
     0
102
RTVSPost2010Prop49
280
     0
102
RTVSPost2010PropOp49
 70
     1
102
RTVSPost2010Prop50
 90
       50
102
RTVSPost2010PropOp50
 70
     0
102
RTVSPost2010Prop51ColorIndex
 90
      256
102
RTVSPost2010Prop51ColorRGB
 90
-16777216
102
RTVSPost2010PropOp51
 70
     0
102
RTVSPost2010Prop52
140
1.0
102
RTVSPost2010PropOp52
 70
     0
102
RTVSPost2010Prop53
 90
        2
102
RTVSPost2010PropOp53
 70
     0
102
RTVSPost2010Prop54
  1
strokes_ogs.tif
102
RTVSPost2010PropOp54
 70
     0
102
RTVSPost2010Prop55
280
     0
102
RTVSPost2010PropOp55
 70
     1
102
RTVSPost2010Prop56
140
1.0
102
RTVSPost2010PropOp56
 70
     0
102
RTVSPost2010Prop57
140
1.0
102
RTVSPost2010PropOp57
 70
     0
  0
XRECORD
  5
A01
102
{ACAD_REACTORS
330
A00
102
}
330
A00
100
AcDbXrecord
280
     1
102
RTVSPost2010Prop28
280
     0
102
RTVSPost2010PropOp28
 70
     1
102
RTVSPost2010Prop29
280
     1
102
RTVSPost2010PropOp29
 70
     1
102
RTVSPost2010Prop30
280
     1
102
RTVSPost2010PropOp30
 70
     1
102
RTVSPost2010Prop31
280
     0
102
RTVSPost2010PropOp31
 70
     1
102
RTVSPost2010Prop32
280
     0
102
RTVSPost2010PropOp32
 70
     1
102
RTVSPost2010Prop33
280
     0
102
RTVSPost2010PropOp33
 70
     1
102
RTVSPost2010Prop34
280
     0
102
RTVSPost2010PropOp34
 70
     1
102
RTVSPost2010Prop35
280
     0
102
RTVSPost2010PropOp35
 70
     1
102
RTVSPost2010Prop36
280
     0
102
RTVSPost2010PropOp36
 70
     1
102
RTVSPost2010Prop37
 90
       50
102
RTVSPost2010PropOp37
 70
     1
102
RTVSPost2010Prop38
140
0.0
102
RTVSPost2010PropOp38
 70
     1
102
RTVSPost2010Prop39
140
1.0
102
RTVSPost2010PropOp39
 70
     1
102
RTVSPost2010Prop40
 90
        0
102
RTVSPost2010PropOp40
 70
     1
102
RTVSPost2010Prop41ColorIndex
 90
       18
102
RTVSPost2010Prop41ColorRGB
 90
        0
102
RTVSPost2010PropOp41
 70
     1
102
RTVSPost2010Prop42
 90
       50
102
RTVSPost2010PropOp42
 70
     1
102
RTVSPost2010Prop43
 90
        3
102
RTVSPost2010PropOp43
 70
     1
102
RTVSPost2010Prop44ColorIndex
 90
        5
102
RTVSPost2010Prop44ColorRGB
 90
      255
102
RTVSPost2010PropOp44
 70
     1
102
RTVSPost2010Prop45
280
     0
102
RTVSPost2010PropOp45
 70
     1
102
RTVSPost2010Prop46
 90
       50
102
RTVSPost2010PropOp46
 70
     1
102
RTVSPost2010Prop47
 90
       50
102
RTVSPost2010PropOp47
 70
     1
102
RTVSPost2010Prop48
 90
       50
102
RTVSPost2010PropOp48
 70
     1
102
RTVSPost2010Prop49
280
     0
102
RTVSPost2010PropOp49
 70
     1
102
RTVSPost2010Prop50
 90
       50
102
RTVSPost2010PropOp50
 70
     1
102
RTVSPost2010Prop51ColorIndex
 90
      256
102
RTVSPost2010Prop51ColorRGB
 90
-16777216
102
RTVSPost2010PropOp51
 70
     0
102
RTVSPost2010Prop52
140
1.0
102
RTVSPost2010PropOp52
 70
     0
102
RTVSPost2010Prop53
 90
        2
102
RTVSPost2010PropOp53
 70
     1
102
RTVSPost2010Prop54
  1
strokes_ogs.tif
102
RTVSPost2010PropOp54
 70
     1
102
RTVSPost2010Prop55
280
     0
102
RTVSPost2010PropOp55
 70
     1
102
RTVSPost2010Prop56
140
1.0
102
RTVSPost2010PropOp56
 70
     1
102
RTVSPost2010Prop57
140
1.0
102
RTVSPost2010PropOp57
 70
     1
  0
XRECORD
  5
A17
102
{ACAD_REACTORS
330
A16
102
}
330
A16
100
AcDbXrecord
280
     1
102
RTVSPost2010Prop28
280
     0
102
RTVSPost2010PropOp28
 70
     1
102
RTVSPost2010Prop29
280
     1
102
RTVSPost2010PropOp29
 70
     1
102
RTVSPost2010Prop30
280
     1
102
RTVSPost2010PropOp30
 70
     1
102
RTVSPost2010Prop31
280
     0
102
RTVSPost2010PropOp31
 70
     1
102
RTVSPost2010Prop32
280
     0
102
RTVSPost2010PropOp32
 70
     1
102
RTVSPost2010Prop33
280
     0
102
RTVSPost2010PropOp33
 70
     1
102
RTVSPost2010Prop34
280
     0
102
RTVSPost2010PropOp34
 70
     1
102
RTVSPost2010Prop35
280
     0
102
RTVSPost2010PropOp35
 70
     1
102
RTVSPost2010Prop36
280
     0
102
RTVSPost2010PropOp36
 70
     1
102
RTVSPost2010Prop37
 90
       50
102
RTVSPost2010PropOp37
 70
     1
102
RTVSPost2010Prop38
140
0.0
102
RTVSPost2010PropOp38
 70
     1
102
RTVSPost2010Prop39
140
1.0
102
RTVSPost2010PropOp39
 70
     1
102
RTVSPost2010Prop40
 90
        0
102
RTVSPost2010PropOp40
 70
     1
102
RTVSPost2010Prop41ColorIndex
 90
       18
102
RTVSPost2010Prop41ColorRGB
 90
        0
102
RTVSPost2010PropOp41
 70
     1
102
RTVSPost2010Prop42
 90
       50
102
RTVSPost2010PropOp42
 70
     1
102
RTVSPost2010Prop43
 90
        3
102
RTVSPost2010PropOp43
 70
     1
102
RTVSPost2010Prop44ColorIndex
 90
        5
102
RTVSPost2010Prop44ColorRGB
 90
      255
102
RTVSPost2010PropOp44
 70
     1
102
RTVSPost2010Prop45
280
     0
102
RTVSPost2010PropOp45
 70
     1
102
RTVSPost2010Prop46
 90
       50
102
RTVSPost2010PropOp46
 70
     1
102
RTVSPost2010Prop47
 90
       50
102
RTVSPost2010PropOp47
 70
     1
102
RTVSPost2010Prop48
 90
       50
102
RTVSPost2010PropOp48
 70
     1
102
RTVSPost2010Prop49
280
     0
102
RTVSPost2010PropOp49
 70
     1
102
RTVSPost2010Prop50
 90
       50
102
RTVSPost2010PropOp50
 70
     1
102
RTVSPost2010Prop51ColorIndex
 90
      256
102
RTVSPost2010Prop51ColorRGB
 90
-16777216
102
RTVSPost2010PropOp51
 70
     0
102
RTVSPost2010Prop52
140
1.0
102
RTVSPost2010PropOp52
 70
     0
102
RTVSPost2010Prop53
 90
        2
102
RTVSPost2010PropOp53
 70
     1
102
RTVSPost2010Prop54
  1
strokes_ogs.tif
102
RTVSPost2010PropOp54
 70
     1
102
RTVSPost2010Prop55
280
     0
102
RTVSPost2010PropOp55
 70
     1
102
RTVSPost2010Prop56
140
1.0
102
RTVSPost2010PropOp56
 70
     1
102
RTVSPost2010Prop57
140
1.0
102
RTVSPost2010PropOp57
 70
     1
  0
XRECORD
  5
A15
102
{ACAD_REACTORS
330
A14
102
}
330
A14
100
AcDbXrecord
280
     1
102
RTVSPost2010Prop28
280
     0
102
RTVSPost2010PropOp28
 70
     1
102
RTVSPost2010Prop29
280
     1
102
RTVSPost2010PropOp29
 70
     1
102
RTVSPost2010Prop30
280
     1
102
RTVSPost2010PropOp30
 70
     1
102
RTVSPost2010Prop31
280
     0
102
RTVSPost2010PropOp31
 70
     1
102
RTVSPost2010Prop32
280
     0
102
RTVSPost2010PropOp32
 70
     1
102
RTVSPost2010Prop33
280
     0
102
RTVSPost2010PropOp33
 70
     1
102
RTVSPost2010Prop34
280
     0
102
RTVSPost2010PropOp34
 70
     1
102
RTVSPost2010Prop35
280
     0
102
RTVSPost2010PropOp35
 70
     1
102
RTVSPost2010Prop36
280
     0
102
RTVSPost2010PropOp36
 70
     1
102
RTVSPost2010Prop37
 90
       50
102
RTVSPost2010PropOp37
 70
     1
102
RTVSPost2010Prop38
140
0.0
102
RTVSPost2010PropOp38
 70
     1
102
RTVSPost2010Prop39
140
1.0
102
RTVSPost2010PropOp39
 70
     1
102
RTVSPost2010Prop40
 90
        0
102
RTVSPost2010PropOp40
 70
     1
102
RTVSPost2010Prop41ColorIndex
 90
       18
102
RTVSPost2010Prop41ColorRGB
 90
        0
102
RTVSPost2010PropOp41
 70
     1
102
RTVSPost2010Prop42
 90
       50
102
RTVSPost2010PropOp42
 70
     1
102
RTVSPost2010Prop43
 90
        3
102
RTVSPost2010PropOp43
 70
     1
102
RTVSPost2010Prop44ColorIndex
 90
        5
102
RTVSPost2010Prop44ColorRGB
 90
      255
102
RTVSPost2010PropOp44
 70
     1
102
RTVSPost2010Prop45
280
     0
102
RTVSPost2010PropOp45
 70
     1
102
RTVSPost2010Prop46
 90
       50
102
RTVSPost2010PropOp46
 70
     1
102
RTVSPost2010Prop47
 90
       50
102
RTVSPost2010PropOp47
 70
     1
102
RTVSPost2010Prop48
 90
       50
102
RTVSPost2010PropOp48
 70
     1
102
RTVSPost2010Prop49
280
     0
102
RTVSPost2010PropOp49
 70
     1
102
RTVSPost2010Prop50
 90
       50
102
RTVSPost2010PropOp50
 70
     1
102
RTVSPost2010Prop51ColorIndex
 90
      256
102
RTVSPost2010Prop51ColorRGB
 90
-16777216
102
RTVSPost2010PropOp51
 70
     0
102
RTVSPost2010Prop52
140
1.0
102
RTVSPost2010PropOp52
 70
     0
102
RTVSPost2010Prop53
 90
        2
102
RTVSPost2010PropOp53
 70
     1
102
RTVSPost2010Prop54
  1
strokes_ogs.tif
102
RTVSPost2010PropOp54
 70
     1
102
RTVSPost2010Prop55
280
     0
102
RTVSPost2010PropOp55
 70
     1
102
RTVSPost2010Prop56
140
1.0
102
RTVSPost2010PropOp56
 70
     1
102
RTVSPost2010Prop57
140
1.0
102
RTVSPost2010PropOp57
 70
     1
  0
XRECORD
  5
A0F
102
{ACAD_REACTORS
330
A0E
102
}
330
A0E
100
AcDbXrecord
280
     1
102
RTVSPost2010Prop28
280
     0
102
RTVSPost2010PropOp28
 70
     1
102
RTVSPost2010Prop29
280
     1
102
RTVSPost2010PropOp29
 70
     1
102
RTVSPost2010Prop30
280
     1
102
RTVSPost2010PropOp30
 70
     1
102
RTVSPost2010Prop31
280
     0
102
RTVSPost2010PropOp31
 70
     1
102
RTVSPost2010Prop32
280
     0
102
RTVSPost2010PropOp32
 70
     1
102
RTVSPost2010Prop33
280
     0
102
RTVSPost2010PropOp33
 70
     1
102
RTVSPost2010Prop34
280
     0
102
RTVSPost2010PropOp34
 70
     1
102
RTVSPost2010Prop35
280
     0
102
RTVSPost2010PropOp35
 70
     1
102
RTVSPost2010Prop36
280
     0
102
RTVSPost2010PropOp36
 70
     1
102
RTVSPost2010Prop37
 90
       50
102
RTVSPost2010PropOp37
 70
     1
102
RTVSPost2010Prop38
140
0.0
102
RTVSPost2010PropOp38
 70
     1
102
RTVSPost2010Prop39
140
1.0
102
RTVSPost2010PropOp39
 70
     1
102
RTVSPost2010Prop40
 90
        0
102
RTVSPost2010PropOp40
 70
     1
102
RTVSPost2010Prop41ColorIndex
 90
       18
102
RTVSPost2010Prop41ColorRGB
 90
        0
102
RTVSPost2010PropOp41
 70
     1
102
RTVSPost2010Prop42
 90
       50
102
RTVSPost2010PropOp42
 70
     1
102
RTVSPost2010Prop43
 90
        3
102
RTVSPost2010PropOp43
 70
     1
102
RTVSPost2010Prop44ColorIndex
 90
        5
102
RTVSPost2010Prop44ColorRGB
 90
      255
102
RTVSPost2010PropOp44
 70
     1
102
RTVSPost2010Prop45
280
     0
102
RTVSPost2010PropOp45
 70
     1
102
RTVSPost2010Prop46
 90
       50
102
RTVSPost2010PropOp46
 70
     1
102
RTVSPost2010Prop47
 90
       50
102
RTVSPost2010PropOp47
 70
     1
102
RTVSPost2010Prop48
 90
       50
102
RTVSPost2010PropOp48
 70
     1
102
RTVSPost2010Prop49
280
     0
102
RTVSPost2010PropOp49
 70
     1
102
RTVSPost2010Prop50
 90
       50
102
RTVSPost2010PropOp50
 70
     1
102
RTVSPost2010Prop51ColorIndex
 90
      256
102
RTVSPost2010Prop51ColorRGB
 90
-16777216
102
RTVSPost2010PropOp51
 70
     0
102
RTVSPost2010Prop52
140
1.0
102
RTVSPost2010PropOp52
 70
     0
102
RTVSPost2010Prop53
 90
        2
102
RTVSPost2010PropOp53
 70
     1
102
RTVSPost2010Prop54
  1
strokes_ogs.tif
102
RTVSPost2010PropOp54
 70
     1
102
RTVSPost2010Prop55
280
     0
102
RTVSPost2010PropOp55
 70
     1
102
RTVSPost2010Prop56
140
1.0
102
RTVSPost2010PropOp56
 70
     1
102
RTVSPost2010Prop57
140
1.0
102
RTVSPost2010PropOp57
 70
     1
  0
XRECORD
  5
A11
102
{ACAD_REACTORS
330
A10
102
}
330
A10
100
AcDbXrecord
280
     1
102
RTVSPost2010Prop28
280
     0
102
RTVSPost2010PropOp28
 70
     1
102
RTVSPost2010Prop29
280
     1
102
RTVSPost2010PropOp29
 70
     1
102
RTVSPost2010Prop30
280
     1
102
RTVSPost2010PropOp30
 70
     1
102
RTVSPost2010Prop31
280
     0
102
RTVSPost2010PropOp31
 70
     1
102
RTVSPost2010Prop32
280
     0
102
RTVSPost2010PropOp32
 70
     1
102
RTVSPost2010Prop33
280
     0
102
RTVSPost2010PropOp33
 70
     1
102
RTVSPost2010Prop34
280
     0
102
RTVSPost2010PropOp34
 70
     1
102
RTVSPost2010Prop35
280
     0
102
RTVSPost2010PropOp35
 70
     1
102
RTVSPost2010Prop36
280
     0
102
RTVSPost2010PropOp36
 70
     1
102
RTVSPost2010Prop37
 90
       50
102
RTVSPost2010PropOp37
 70
     1
102
RTVSPost2010Prop38
140
0.0
102
RTVSPost2010PropOp38
 70
     1
102
RTVSPost2010Prop39
140
1.0
102
RTVSPost2010PropOp39
 70
     1
102
RTVSPost2010Prop40
 90
        0
102
RTVSPost2010PropOp40
 70
     1
102
RTVSPost2010Prop41ColorIndex
 90
       18
102
RTVSPost2010Prop41ColorRGB
 90
        0
102
RTVSPost2010PropOp41
 70
     1
102
RTVSPost2010Prop42
 90
       50
102
RTVSPost2010PropOp42
 70
     1
102
RTVSPost2010Prop43
 90
        3
102
RTVSPost2010PropOp43
 70
     1
102
RTVSPost2010Prop44ColorIndex
 90
        5
102
RTVSPost2010Prop44ColorRGB
 90
      255
102
RTVSPost2010PropOp44
 70
     1
102
RTVSPost2010Prop45
280
     0
102
RTVSPost2010PropOp45
 70
     1
102
RTVSPost2010Prop46
 90
       50
102
RTVSPost2010PropOp46
 70
     1
102
RTVSPost2010Prop47
 90
       50
102
RTVSPost2010PropOp47
 70
     1
102
RTVSPost2010Prop48
 90
       50
102
RTVSPost2010PropOp48
 70
     1
102
RTVSPost2010Prop49
280
     0
102
RTVSPost2010PropOp49
 70
     1
102
RTVSPost2010Prop50
 90
       50
102
RTVSPost2010PropOp50
 70
     1
102
RTVSPost2010Prop51ColorIndex
 90
      256
102
RTVSPost2010Prop51ColorRGB
 90
-16777216
102
RTVSPost2010PropOp51
 70
     0
102
RTVSPost2010Prop52
140
1.0
102
RTVSPost2010PropOp52
 70
     0
102
RTVSPost2010Prop53
 90
        2
102
RTVSPost2010PropOp53
 70
     1
102
RTVSPost2010Prop54
  1
strokes_ogs.tif
102
RTVSPost2010PropOp54
 70
     1
102
RTVSPost2010Prop55
280
     0
102
RTVSPost2010PropOp55
 70
     1
102
RTVSPost2010Prop56
140
1.0
102
RTVSPost2010PropOp56
 70
     1
102
RTVSPost2010Prop57
140
1.0
102
RTVSPost2010PropOp57
 70
     1
  0
XRECORD
  5
A07
102
{ACAD_REACTORS
330
A06
102
}
330
A06
100
AcDbXrecord
280
     1
102
RTVSPost2010Prop28
280
     0
102
RTVSPost2010PropOp28
 70
     1
102
RTVSPost2010Prop29
280
     1
102
RTVSPost2010PropOp29
 70
     1
102
RTVSPost2010Prop30
280
     1
102
RTVSPost2010PropOp30
 70
     1
102
RTVSPost2010Prop31
280
     0
102
RTVSPost2010PropOp31
 70
     1
102
RTVSPost2010Prop32
280
     0
102
RTVSPost2010PropOp32
 70
     1
102
RTVSPost2010Prop33
280
     0
102
RTVSPost2010PropOp33
 70
     1
102
RTVSPost2010Prop34
280
     0
102
RTVSPost2010PropOp34
 70
     1
102
RTVSPost2010Prop35
280
     0
102
RTVSPost2010PropOp35
 70
     1
102
RTVSPost2010Prop36
280
     0
102
RTVSPost2010PropOp36
 70
     1
102
RTVSPost2010Prop37
 90
       50
102
RTVSPost2010PropOp37
 70
     1
102
RTVSPost2010Prop38
140
0.0
102
RTVSPost2010PropOp38
 70
     1
102
RTVSPost2010Prop39
140
1.0
102
RTVSPost2010PropOp39
 70
     1
102
RTVSPost2010Prop40
 90
        0
102
RTVSPost2010PropOp40
 70
     1
102
RTVSPost2010Prop41ColorIndex
 90
       18
102
RTVSPost2010Prop41ColorRGB
 90
        0
102
RTVSPost2010PropOp41
 70
     1
102
RTVSPost2010Prop42
 90
       50
102
RTVSPost2010PropOp42
 70
     1
102
RTVSPost2010Prop43
 90
        3
102
RTVSPost2010PropOp43
 70
     1
102
RTVSPost2010Prop44ColorIndex
 90
        5
102
RTVSPost2010Prop44ColorRGB
 90
      255
102
RTVSPost2010PropOp44
 70
     1
102
RTVSPost2010Prop45
280
     0
102
RTVSPost2010PropOp45
 70
     1
102
RTVSPost2010Prop46
 90
       50
102
RTVSPost2010PropOp46
 70
     1
102
RTVSPost2010Prop47
 90
       50
102
RTVSPost2010PropOp47
 70
     1
102
RTVSPost2010Prop48
 90
       50
102
RTVSPost2010PropOp48
 70
     1
102
RTVSPost2010Prop49
280
     0
102
RTVSPost2010PropOp49
 70
     1
102
RTVSPost2010Prop50
 90
       50
102
RTVSPost2010PropOp50
 70
     1
102
RTVSPost2010Prop51ColorIndex
 90
      256
102
RTVSPost2010Prop51ColorRGB
 90
-16777216
102
RTVSPost2010PropOp51
 70
     0
102
RTVSPost2010Prop52
140
1.0
102
RTVSPost2010PropOp52
 70
     0
102
RTVSPost2010Prop53
 90
        2
102
RTVSPost2010PropOp53
 70
     1
102
RTVSPost2010Prop54
  1
strokes_ogs.tif
102
RTVSPost2010PropOp54
 70
     1
102
RTVSPost2010Prop55
280
     0
102
RTVSPost2010PropOp55
 70
     1
102
RTVSPost2010Prop56
140
1.0
102
RTVSPost2010PropOp56
 70
     1
102
RTVSPost2010Prop57
140
1.0
102
RTVSPost2010PropOp57
 70
     1
  0
XRECORD
  5
9FB
102
{ACAD_REACTORS
330
9FA
102
}
330
9FA
100
AcDbXrecord
280
     1
102
RTVSPost2010Prop28
280
     0
102
RTVSPost2010PropOp28
 70
     1
102
RTVSPost2010Prop29
280
     1
102
RTVSPost2010PropOp29
 70
     1
102
RTVSPost2010Prop30
280
     1
102
RTVSPost2010PropOp30
 70
     1
102
RTVSPost2010Prop31
280
     0
102
RTVSPost2010PropOp31
 70
     1
102
RTVSPost2010Prop32
280
     0
102
RTVSPost2010PropOp32
 70
     1
102
RTVSPost2010Prop33
280
     0
102
RTVSPost2010PropOp33
 70
     1
102
RTVSPost2010Prop34
280
     0
102
RTVSPost2010PropOp34
 70
     1
102
RTVSPost2010Prop35
280
     0
102
RTVSPost2010PropOp35
 70
     1
102
RTVSPost2010Prop36
280
     0
102
RTVSPost2010PropOp36
 70
     1
102
RTVSPost2010Prop37
 90
       50
102
RTVSPost2010PropOp37
 70
     1
102
RTVSPost2010Prop38
140
0.0
102
RTVSPost2010PropOp38
 70
     1
102
RTVSPost2010Prop39
140
1.0
102
RTVSPost2010PropOp39
 70
     1
102
RTVSPost2010Prop40
 90
        0
102
RTVSPost2010PropOp40
 70
     1
102
RTVSPost2010Prop41ColorIndex
 90
       18
102
RTVSPost2010Prop41ColorRGB
 90
        0
102
RTVSPost2010PropOp41
 70
     1
102
RTVSPost2010Prop42
 90
       50
102
RTVSPost2010PropOp42
 70
     1
102
RTVSPost2010Prop43
 90
        3
102
RTVSPost2010PropOp43
 70
     1
102
RTVSPost2010Prop44ColorIndex
 90
        5
102
RTVSPost2010Prop44ColorRGB
 90
      255
102
RTVSPost2010PropOp44
 70
     1
102
RTVSPost2010Prop45
280
     0
102
RTVSPost2010PropOp45
 70
     1
102
RTVSPost2010Prop46
 90
       50
102
RTVSPost2010PropOp46
 70
     1
102
RTVSPost2010Prop47
 90
       50
102
RTVSPost2010PropOp47
 70
     1
102
RTVSPost2010Prop48
 90
       50
102
RTVSPost2010PropOp48
 70
     1
102
RTVSPost2010Prop49
280
     0
102
RTVSPost2010PropOp49
 70
     1
102
RTVSPost2010Prop50
 90
       50
102
RTVSPost2010PropOp50
 70
     1
102
RTVSPost2010Prop51ColorIndex
 90
      256
102
RTVSPost2010Prop51ColorRGB
 90
-16777216
102
RTVSPost2010PropOp51
 70
     0
102
RTVSPost2010Prop52
140
1.0
102
RTVSPost2010PropOp52
 70
     0
102
RTVSPost2010Prop53
 90
        2
102
RTVSPost2010PropOp53
 70
     1
102
RTVSPost2010Prop54
  1
strokes_ogs.tif
102
RTVSPost2010PropOp54
 70
     1
102
RTVSPost2010Prop55
280
     0
102
RTVSPost2010PropOp55
 70
     1
102
RTVSPost2010Prop56
140
1.0
102
RTVSPost2010PropOp56
 70
     1
102
RTVSPost2010Prop57
140
1.0
102
RTVSPost2010PropOp57
 70
     1
  0
XRECORD
  5
A13
102
{ACAD_REACTORS
330
A12
102
}
330
A12
100
AcDbXrecord
280
     1
102
RTVSPost2010Prop28
280
     0
102
RTVSPost2010PropOp28
 70
     1
102
RTVSPost2010Prop29
280
     1
102
RTVSPost2010PropOp29
 70
     1
102
RTVSPost2010Prop30
280
     1
102
RTVSPost2010PropOp30
 70
     1
102
RTVSPost2010Prop31
280
     0
102
RTVSPost2010PropOp31
 70
     1
102
RTVSPost2010Prop32
280
     0
102
RTVSPost2010PropOp32
 70
     1
102
RTVSPost2010Prop33
280
     0
102
RTVSPost2010PropOp33
 70
     1
102
RTVSPost2010Prop34
280
     0
102
RTVSPost2010PropOp34
 70
     1
102
RTVSPost2010Prop35
280
     0
102
RTVSPost2010PropOp35
 70
     1
102
RTVSPost2010Prop36
280
     0
102
RTVSPost2010PropOp36
 70
     1
102
RTVSPost2010Prop37
 90
       50
102
RTVSPost2010PropOp37
 70
     1
102
RTVSPost2010Prop38
140
0.0
102
RTVSPost2010PropOp38
 70
     1
102
RTVSPost2010Prop39
140
1.0
102
RTVSPost2010PropOp39
 70
     1
102
RTVSPost2010Prop40
 90
        0
102
RTVSPost2010PropOp40
 70
     1
102
RTVSPost2010Prop41ColorIndex
 90
       18
102
RTVSPost2010Prop41ColorRGB
 90
        0
102
RTVSPost2010PropOp41
 70
     1
102
RTVSPost2010Prop42
 90
       50
102
RTVSPost2010PropOp42
 70
     1
102
RTVSPost2010Prop43
 90
        3
102
RTVSPost2010PropOp43
 70
     1
102
RTVSPost2010Prop44ColorIndex
 90
        5
102
RTVSPost2010Prop44ColorRGB
 90
      255
102
RTVSPost2010PropOp44
 70
     1
102
RTVSPost2010Prop45
280
     0
102
RTVSPost2010PropOp45
 70
     1
102
RTVSPost2010Prop46
 90
       50
102
RTVSPost2010PropOp46
 70
     1
102
RTVSPost2010Prop47
 90
       50
102
RTVSPost2010PropOp47
 70
     1
102
RTVSPost2010Prop48
 90
       50
102
RTVSPost2010PropOp48
 70
     1
102
RTVSPost2010Prop49
280
     0
102
RTVSPost2010PropOp49
 70
     1
102
RTVSPost2010Prop50
 90
       50
102
RTVSPost2010PropOp50
 70
     1
102
RTVSPost2010Prop51ColorIndex
 90
      256
102
RTVSPost2010Prop51ColorRGB
 90
-16777216
102
RTVSPost2010PropOp51
 70
     0
102
RTVSPost2010Prop52
140
1.0
102
RTVSPost2010PropOp52
 70
     0
102
RTVSPost2010Prop53
 90
        2
102
RTVSPost2010PropOp53
 70
     1
102
RTVSPost2010Prop54
  1
strokes_ogs.tif
102
RTVSPost2010PropOp54
 70
     1
102
RTVSPost2010Prop55
280
     0
102
RTVSPost2010PropOp55
 70
     1
102
RTVSPost2010Prop56
140
1.0
102
RTVSPost2010PropOp56
 70
     1
102
RTVSPost2010Prop57
140
1.0
102
RTVSPost2010PropOp57
 70
     1
  0
ENDSEC
  0
EOF
