  0
SECTION
  2
HEADER
  9
$ACADVER
  1
AC1024
  9
$ACADMAINTVER
 70
   181
  9
$DWGCODEPAGE
  3
ANSI_932
  9
$LASTSAVEDBY
  1
kenzai
  9
$INSBASE
 10
0.0
 20
0.0
 30
0.0
  9
$EXTMIN
 10
-138.0163109423782
 20
-94.50884959708066
 30
-0.0000000000000052
  9
$EXTMAX
 10
138.51780768614
 20
95.01217699040683
 30
0.00000000000001
  9
$LIMMIN
 10
-148.0
 20
-104.5
  9
$LIMMAX
 10
149.0
 20
105.5
  9
$ORTHOMODE
 70
     1
  9
$REGENMODE
 70
     1
  9
$FILLMODE
 70
     1
  9
$QTEXTMODE
 70
     0
  9
$MIRRTEXT
 70
     1
  9
$LTSCALE
 40
0.5
  9
$ATTMODE
 70
     1
  9
$TEXTSIZE
 40
2.5
  9
$TRACEWID
 40
1.0
  9
$TEXTSTYLE
  7
Standard
  9
$CLAYER
  8
0
  9
$CELTYPE
  6
ByLayer
  9
$CECOLOR
 62
   256
  9
$CELTSCALE
 40
1.0
  9
$DISPSILH
 70
     0
  9
$DIMSCALE
 40
1.0
  9
$DIMASZ
 40
2.5
  9
$DIMEXO
 40
0.625
  9
$DIMDLI
 40
3.75
  9
$DIMRND
 40
0.0
  9
$DIMDLE
 40
0.0
  9
$DIMEXE
 40
1.25
  9
$DIMTP
 40
0.0
  9
$DIMTM
 40
0.0
  9
$DIMTXT
 40
2.5
  9
$DIMCEN
 40
2.5
  9
$DIMTSZ
 40
0.0
  9
$DIMTOL
 70
     0
  9
$DIMLIM
 70
     0
  9
$DIMTIH
 70
     0
  9
$DIMTOH
 70
     0
  9
$DIMSE1
 70
     0
  9
$DIMSE2
 70
     0
  9
$DIMTAD
 70
     1
  9
$DIMZIN
 70
     8
  9
$DIMBLK
  1

  9
$DIMASO
 70
     1
  9
$DIMSHO
 70
     1
  9
$DIMPOST
  1

  9
$DIMAPOST
  1

  9
$DIMALT
 70
     0
  9
$DIMALTD
 70
     3
  9
$DIMALTF
 40
0.03937007874016
  9
$DIMLFAC
 40
1.0
  9
$DIMTOFL
 70
     1
  9
$DIMTVP
 40
0.0
  9
$DIMTIX
 70
     0
  9
$DIMSOXD
 70
     0
  9
$DIMSAH
 70
     0
  9
$DIMBLK1
  1

  9
$DIMBLK2
  1

  9
$DIMSTYLE
  2
ISO-25
  9
$DIMCLRD
 70
     0
  9
$DIMCLRE
 70
     0
  9
$DIMCLRT
 70
     0
  9
$DIMTFAC
 40
1.0
  9
$DIMGAP
 40
0.625
  9
$DIMJUST
 70
     0
  9
$DIMSD1
 70
     0
  9
$DIMSD2
 70
     0
  9
$DIMTOLJ
 70
     0
  9
$DIMTZIN
 70
     8
  9
$DIMALTZ
 70
     0
  9
$DIMALTTZ
 70
     0
  9
$DIMUPT
 70
     0
  9
$DIMDEC
 70
     2
  9
$DIMTDEC
 70
     2
  9
$DIMALTU
 70
     2
  9
$DIMALTTD
 70
     3
  9
$DIMTXSTY
  7
Standard
  9
$DIMAUNIT
 70
     0
  9
$DIMADEC
 70
     0
  9
$DIMALTRND
 40
0.0
  9
$DIMAZIN
 70
     0
  9
$DIMDSEP
 70
    44
  9
$DIMATFIT
 70
     3
  9
$DIMFRAC
 70
     0
  9
$DIMLDRBLK
  1

  9
$DIMLUNIT
 70
     2
  9
$DIMLWD
 70
    -2
  9
$DIMLWE
 70
    -2
  9
$DIMTMOVE
 70
     0
  9
$DIMFXL
 40
1.0
  9
$DIMFXLON
 70
     0
  9
$DIMJOGANG
 40
0.7853981633974483
  9
$DIMTFILL
 70
     0
  9
$DIMTFILLCLR
 70
     0
  9
$DIMARCSYM
 70
     0
  9
$DIMLTYPE
  6

  9
$DIMLTEX1
  6

  9
$DIMLTEX2
  6

  9
$DIMTXTDIRECTION
 70
     0
  9
$LUNITS
 70
     2
  9
$LUPREC
 70
     4
  9
$SKETCHINC
 40
1.0
  9
$FILLETRAD
 40
10.0
  9
$AUNITS
 70
     0
  9
$AUPREC
 70
     0
  9
$MENU
  1
.
  9
$ELEVATION
 40
0.0
  9
$PELEVATION
 40
0.0
  9
$THICKNESS
 40
0.0
  9
$LIMCHECK
 70
     0
  9
$CHAMFERA
 40
10.0
  9
$CHAMFERB
 40
10.0
  9
$CHAMFERC
 40
20.0
  9
$CHAMFERD
 40
0.0
  9
$SKPOLY
 70
     0
  9
$TDCREATE
 40
2454600.734594537
  9
$TDUCREATE
 40
2454600.359594537
  9
$TDUPDATE
 40
2457291.678868136
  9
$TDUUPDATE
 40
2457291.303868136
  9
$TDINDWG
 40
0.0436818519
  9
$TDUSRTIMER
 40
0.0436675810
  9
$USRTIMER
 70
     1
  9
$ANGBASE
 50
0.0
  9
$ANGDIR
 70
     0
  9
$PDMODE
 70
     0
  9
$PDSIZE
 40
0.0
  9
$PLINEWID
 40
0.0
  9
$SPLFRAME
 70
     0
  9
$SPLINETYPE
 70
     6
  9
$SPLINESEGS
 70
     8
  9
$HANDSEED
  5
487
  9
$SURFTAB1
 70
     6
  9
$SURFTAB2
 70
     6
  9
$SURFTYPE
 70
     6
  9
$SURFU
 70
     6
  9
$SURFV
 70
     6
  9
$UCSBASE
  2

  9
$UCSNAME
  2

  9
$UCSORG
 10
0.0
 20
0.0
 30
0.0
  9
$UCSXDIR
 10
1.0
 20
0.0
 30
0.0
  9
$UCSYDIR
 10
0.0
 20
1.0
 30
0.0
  9
$UCSORTHOREF
  2

  9
$UCSORTHOVIEW
 70
     0
  9
$UCSORGTOP
 10
0.0
 20
0.0
 30
0.0
  9
$UCSORGBOTTOM
 10
0.0
 20
0.0
 30
0.0
  9
$UCSORGLEFT
 10
0.0
 20
0.0
 30
0.0
  9
$UCSORGRIGHT
 10
0.0
 20
0.0
 30
0.0
  9
$UCSORGFRONT
 10
0.0
 20
0.0
 30
0.0
  9
$UCSORGBACK
 10
0.0
 20
0.0
 30
0.0
  9
$PUCSBASE
  2

  9
$PUCSNAME
  2

  9
$PUCSORG
 10
0.0
 20
0.0
 30
0.0
  9
$PUCSXDIR
 10
1.0
 20
0.0
 30
0.0
  9
$PUCSYDIR
 10
0.0
 20
1.0
 30
0.0
  9
$PUCSORTHOREF
  2

  9
$PUCSORTHOVIEW
 70
     0
  9
$PUCSORGTOP
 10
0.0
 20
0.0
 30
0.0
  9
$PUCSORGBOTTOM
 10
0.0
 20
0.0
 30
0.0
  9
$PUCSORGLEFT
 10
0.0
 20
0.0
 30
0.0
  9
$PUCSORGRIGHT
 10
0.0
 20
0.0
 30
0.0
  9
$PUCSORGFRONT
 10
0.0
 20
0.0
 30
0.0
  9
$PUCSORGBACK
 10
0.0
 20
0.0
 30
0.0
  9
$USERI1
 70
     0
  9
$USERI2
 70
     0
  9
$USERI3
 70
     0
  9
$USERI4
 70
     0
  9
$USERI5
 70
     0
  9
$USERR1
 40
0.0
  9
$USERR2
 40
0.0
  9
$USERR3
 40
0.0
  9
$USERR4
 40
0.0
  9
$USERR5
 40
0.0
  9
$WORLDVIEW
 70
     1
  9
$SHADEDGE
 70
     3
  9
$SHADEDIF
 70
    70
  9
$TILEMODE
 70
     1
  9
$MAXACTVP
 70
    64
  9
$PINSBASE
 10
0.0
 20
0.0
 30
0.0
  9
$PLIMCHECK
 70
     0
  9
$PEXTMIN
 10
1.000000000000000E+20
 20
1.000000000000000E+20
 30
1.000000000000000E+20
  9
$PEXTMAX
 10
-1.000000000000000E+20
 20
-1.000000000000000E+20
 30
-1.000000000000000E+20
  9
$PLIMMIN
 10
-148.0
 20
-104.5
  9
$PLIMMAX
 10
149.0
 20
105.5
  9
$UNITMODE
 70
     0
  9
$VISRETAIN
 70
     1
  9
$PLINEGEN
 70
     0
  9
$PSLTSCALE
 70
     1
  9
$TREEDEPTH
 70
  3020
  9
$CMLSTYLE
  2
Standard
  9
$CMLJUST
 70
     0
  9
$CMLSCALE
 40
20.0
  9
$PROXYGRAPHICS
 70
     1
  9
$MEASUREMENT
 70
     1
  9
$CELWEIGHT
370
    -1
  9
$ENDCAPS
280
     0
  9
$JOINSTYLE
280
     0
  9
$LWDISPLAY
290
     1
  9
$INSUNITS
 70
     4
  9
$HYPERLINKBASE
  1

  9
$STYLESHEET
  1
MONOCHROME.CTB
  9
$XEDIT
290
     1
  9
$CEPSNTYPE
380
     0
  9
$PSTYLEMODE
290
     1
  9
$FINGERPRINTGUID
  2
{8EA665E5-216A-4F48-B8C5-687CAC64E313}
  9
$VERSIONGUID
  2
{70222284-6147-4DAD-8474-ED5AABB3B482}
  9
$EXTNAMES
290
     1
  9
$PSVPSCALE
 40
0.0
  9
$OLESTARTUP
290
     0
  9
$SORTENTS
280
   127
  9
$INDEXCTL
280
     0
  9
$HIDETEXT
280
     0
  9
$XCLIPFRAME
280
     2
  9
$HALOGAP
280
     0
  9
$OBSCOLOR
 70
   257
  9
$OBSLTYPE
280
     0
  9
$INTERSECTIONDISPLAY
280
     0
  9
$INTERSECTIONCOLOR
 70
   257
  9
$DIMASSOC
280
     1
  9
$PROJECTNAME
  1

  9
$CAMERADISPLAY
290
     0
  9
$LENSLENGTH
 40
50.0
  9
$CAMERAHEIGHT
 40
0.0
  9
$STEPSPERSEC
 40
2.0
  9
$STEPSIZE
 40
6.0
  9
$3DDWFPREC
 40
2.0
  9
$PSOLWIDTH
 40
0.25
  9
$PSOLHEIGHT
 40
4.0
  9
$LOFTANG1
 40
1.570796326794896
  9
$LOFTANG2
 40
1.570796326794896
  9
$LOFTMAG1
 40
0.0
  9
$LOFTMAG2
 40
0.0
  9
$LOFTPARAM
 70
     7
  9
$LOFTNORMALS
280
     1
  9
$LATITUDE
 40
37.795
  9
$LONGITUDE
 40
-122.394
  9
$NORTHDIRECTION
 40
0.0
  9
$TIMEZONE
 70
 -8000
  9
$LIGHTGLYPHDISPLAY
280
     1
  9
$TILEMODELIGHTSYNCH
280
     1
  9
$CMATERIAL
347
3A2
  9
$SOLIDHIST
280
     0
  9
$SHOWHIST
280
     1
  9
$DWFFRAME
280
     2
  9
$DGNFRAME
280
     0
  9
$REALWORLDSCALE
290
     1
  9
$INTERFERECOLOR
 62
     1
  9
$INTERFEREOBJVS
345
3C4
  9
$INTERFEREVPVS
346
3C1
  9
$CSHADOW
280
     0
  9
$SHADOWPLANELOCATION
 40
0.0
  0
ENDSEC
  0
SECTION
  2
CLASSES
  0
CLASS
  1
ACDBDICTIONARYWDFLT
  2
AcDbDictionaryWithDefault
  3
ObjectDBX Classes
 90
        0
 91
        1
280
     0
281
     0
  0
CLASS
  1
TABLESTYLE
  2
AcDbTableStyle
  3
ObjectDBX Classes
 90
     4095
 91
        1
280
     0
281
     0
  0
CLASS
  1
DICTIONARYVAR
  2
AcDbDictionaryVar
  3
ObjectDBX Classes
 90
        0
 91
       19
280
     0
281
     0
  0
CLASS
  1
SORTENTSTABLE
  2
AcDbSortentsTable
  3
ObjectDBX Classes
 90
        0
 91
        2
280
     0
281
     0
  0
CLASS
  1
MATERIAL
  2
AcDbMaterial
  3
ObjectDBX Classes
 90
     1153
 91
        3
280
     0
281
     0
  0
CLASS
  1
VISUALSTYLE
  2
AcDbVisualStyle
  3
ObjectDBX Classes
 90
     4095
 91
       24
280
     0
281
     0
  0
CLASS
  1
SCALE
  2
AcDbScale
  3
ObjectDBX Classes
 90
     1153
 91
       17
280
     0
281
     0
  0
CLASS
  1
MLEADERSTYLE
  2
AcDbMLeaderStyle
  3
ACDB_MLEADERSTYLE_CLASS
 90
     4095
 91
        1
280
     0
281
     0
  0
CLASS
  1
ACDBSECTIONVIEWSTYLE
  2
AcDbSectionViewStyle
  3
ObjectDBX Classes
 90
     1025
 91
        1
280
     0
281
     0
  0
CLASS
  1
ACDBDETAILVIEWSTYLE
  2
AcDbDetailViewStyle
  3
ObjectDBX Classes
 90
     1025
 91
        1
280
     0
281
     0
  0
CLASS
  1
CELLSTYLEMAP
  2
AcDbCellStyleMap
  3
ObjectDBX Classes
 90
     1152
 91
        1
280
     0
281
     0
  0
ENDSEC
  0
SECTION
  2
TABLES
  0
TABLE
  2
VPORT
  5
8
330
0
100
AcDbSymbolTable
 70
     1
  0
VPORT
  5
398
330
8
100
AcDbSymbolTableRecord
100
AcDbViewportTableRecord
  2
*Active
 70
     0
 10
0.0
 20
0.0
 11
1.0
 21
1.0
 12
0.2507483718809027
 22
0.251663696663087
 13
0.0
 23
0.0
 14
10.0
 24
10.0
 15
10.0
 25
10.0
 16
0.0
 26
0.0
 36
1.0
 17
0.0
 27
0.0
 37
0.0
 40
190.9077658064203
 41
1.905982905982905
 42
50.0
 43
0.0
 44
0.0
 50
0.0
 51
0.0
 71
     0
 72
   100
 73
     1
 74
     3
 75
     0
 76
     0
 77
     0
 78
     0
281
     0
 65
     1
110
0.0
120
0.0
130
0.0
111
1.0
121
0.0
131
0.0
112
0.0
122
1.0
132
0.0
 79
     0
146
0.0
348
3C0
 60
     3
 61
     5
292
     1
282
     1
141
0.0
142
0.0
 63
   250
421
  3355443
1001
ACAD_NAV_VCDISPLAY
1070
     3
  0
ENDTAB
  0
TABLE
  2
LTYPE
  5
5
330
0
100
AcDbSymbolTable
 70
     7
  0
LTYPE
  5
14
330
5
100
AcDbSymbolTableRecord
100
AcDbLinetypeTableRecord
  2
ByBlock
 70
     0
  3

 72
    65
 73
     0
 40
0.0
  0
LTYPE
  5
15
330
5
100
AcDbSymbolTableRecord
100
AcDbLinetypeTableRecord
  2
ByLayer
 70
     0
  3

 72
    65
 73
     0
 40
0.0
  0
LTYPE
  5
16
330
5
100
AcDbSymbolTableRecord
100
AcDbLinetypeTableRecord
  2
Continuous
 70
     0
  3
Solid line
 72
    65
 73
     0
 40
0.0
  0
LTYPE
  5
2A
330
5
100
AcDbSymbolTableRecord
100
AcDbLinetypeTableRecord
  2
CONTINOUS
 70
     0
  3
______________________________
 72
    65
 73
     0
 40
0.0
  0
LTYPE
  5
2B
330
5
100
AcDbSymbolTableRecord
100
AcDbLinetypeTableRecord
  2
DASHED
 70
     0
  3
__ __ __ __ __ __ __ __ __ __ __ __ __ __ __ __
 72
    65
 73
     2
 40
4.5
 49
3.0
 74
     0
 49
-1.5
 74
     0
  0
LTYPE
  5
2C
330
5
100
AcDbSymbolTableRecord
100
AcDbLinetypeTableRecord
  2
PHANTOM
 70
     0
  3
______  __  __  ______  __  __  _____
 72
    65
 73
     6
 40
15.0
 49
7.5
 74
     0
 49
-1.5
 74
     0
 49
1.5
 74
     0
 49
-1.5
 74
     0
 49
1.5
 74
     0
 49
-1.5
 74
     0
  0
LTYPE
  5
2D
330
5
100
AcDbSymbolTableRecord
100
AcDbLinetypeTableRecord
  2
CENTER
 70
     0
  3
____ _ ____ _ ____ _ ____ _ ____ _ ____
 72
    65
 73
     4
 40
12.0
 49
7.5
 74
     0
 49
-1.5
 74
     0
 49
1.5
 74
     0
 49
-1.5
 74
     0
  0
LTYPE
  5
1B3
330
5
100
AcDbSymbolTableRecord
100
AcDbLinetypeTableRecord
  2
CENTER2
 70
     0
  3
Center (.5x) ___ _ ___ _ ___ _ ___ _ ___ _ ___
 72
    65
 73
     4
 40
28.575
 49
19.05
 74
     0
 49
-3.174999999999998
 74
     0
 49
3.174999999999998
 74
     0
 49
-3.174999999999998
 74
     0
  0
LTYPE
  5
1B4
330
5
100
AcDbSymbolTableRecord
100
AcDbLinetypeTableRecord
  2
HIDDEN2
 70
     0
  3
Hidden (.5x) _ _ _ _ _ _ _ _ _ _ _ _ _ _ _ _ _
 72
    65
 73
     2
 40
4.762499999999998
 49
3.174999999999998
 74
     0
 49
-1.587499999999999
 74
     0
  0
ENDTAB
  0
TABLE
  2
LAYER
  5
2
330
0
100
AcDbSymbolTable
 70
    11
  0
LAYER
  5
10
102
{ACAD_XDICTIONARY
360
3F8
102
}
330
2
100
AcDbSymbolTableRecord
100
AcDbLayerTableRecord
  2
0
 70
     0
 62
     7
  6
Continuous
370
    -3
390
F
347
3B2
  0
LAYER
  5
13F
330
2
100
AcDbSymbolTableRecord
100
AcDbLayerTableRecord
  2
Defpoints
 70
     0
 62
     7
  6
Continuous
290
     0
370
    -3
390
F
347
3B2
  0
LAYER
  5
19F
102
{ACAD_XDICTIONARY
360
3FA
102
}
330
2
100
AcDbSymbolTableRecord
100
AcDbLayerTableRecord
  2
VIEW0001
 70
     0
 62
     7
  6
Continuous
370
    -3
390
F
347
3B2
  0
LAYER
  5
1B5
102
{ACAD_XDICTIONARY
360
3FC
102
}
330
2
100
AcDbSymbolTableRecord
100
AcDbLayerTableRecord
  2
外形線
 70
     0
 62
     7
  6
Continuous
370
    30
390
F
347
3B2
1001
AcAecLayerStandard
1000

1000

  0
LAYER
  5
1B6
102
{ACAD_XDICTIONARY
360
3FE
102
}
330
2
100
AcDbSymbolTableRecord
100
AcDbLayerTableRecord
  2
図枠
 70
     0
 62
     7
  6
Continuous
370
    50
390
F
347
3B2
1001
AcAecLayerStandard
1000

1000

  0
LAYER
  5
1B7
102
{ACAD_XDICTIONARY
360
400
102
}
330
2
100
AcDbSymbolTableRecord
100
AcDbLayerTableRecord
  2
寸法線
 70
     0
 62
     3
  6
Continuous
370
    15
390
F
347
3B2
1001
AcAecLayerStandard
1000

1000

  0
LAYER
  5
1B8
102
{ACAD_XDICTIONARY
360
402
102
}
330
2
100
AcDbSymbolTableRecord
100
AcDbLayerTableRecord
  2
中心線
 70
     0
 62
     5
  6
CENTER2
370
    -3
390
F
347
3B2
1001
AcAecLayerStandard
1000

1000

  0
LAYER
  5
1B9
102
{ACAD_XDICTIONARY
360
404
102
}
330
2
100
AcDbSymbolTableRecord
100
AcDbLayerTableRecord
  2
破線
 70
     0
 62
     4
  6
HIDDEN2
370
    -3
390
F
347
3B2
1001
AcAecLayerStandard
1000

1000

  0
LAYER
  5
1BA
102
{ACAD_XDICTIONARY
360
406
102
}
330
2
100
AcDbSymbolTableRecord
100
AcDbLayerTableRecord
  2
文字
 70
     0
 62
     2
  6
Continuous
370
    -3
390
F
347
3B2
1001
AcAecLayerStandard
1000

1000

  0
LAYER
  5
1BB
102
{ACAD_XDICTIONARY
360
408
102
}
330
2
100
AcDbSymbolTableRecord
100
AcDbLayerTableRecord
  2
補助線
 70
     0
 62
   252
  6
HIDDEN2
290
     0
370
    -3
390
F
347
3B2
1001
AcAecLayerStandard
1000

1000

  0
LAYER
  5
237
102
{ACAD_XDICTIONARY
360
40A
102
}
330
2
100
AcDbSymbolTableRecord
100
AcDbLayerTableRecord
  2
VIEW0002
 70
     0
 62
     7
  6
Continuous
370
    -3
390
F
347
3B2
  0
ENDTAB
  0
TABLE
  2
STYLE
  5
3
330
0
100
AcDbSymbolTable
 70
     1
  0
STYLE
  5
11
330
3
100
AcDbSymbolTableRecord
100
AcDbTextStyleTableRecord
  2
Standard
 70
     0
 40
0.0
 41
1.0
 50
0.0
 71
     0
 42
2.5
  3
txt
  4
EXTFONT
  0
ENDTAB
  0
TABLE
  2
VIEW
  5
6
330
0
100
AcDbSymbolTable
 70
     0
  0
ENDTAB
  0
TABLE
  2
UCS
  5
7
330
0
100
AcDbSymbolTable
 70
     0
  0
ENDTAB
  0
TABLE
  2
APPID
  5
9
330
0
100
AcDbSymbolTable
 70
     4
  0
APPID
  5
12
330
9
100
AcDbSymbolTableRecord
100
AcDbRegAppTableRecord
  2
ACAD
 70
     0
  0
APPID
  5
1BD
330
9
100
AcDbSymbolTableRecord
100
AcDbRegAppTableRecord
  2
AcAecLayerStandard
 70
     0
  0
APPID
  5
30D
330
9
100
AcDbSymbolTableRecord
100
AcDbRegAppTableRecord
  2
ACAD_PSEXT
 70
     0
  0
APPID
  5
3EF
330
9
100
AcDbSymbolTableRecord
100
AcDbRegAppTableRecord
  2
ACAD_NAV_VCDISPLAY
 70
     0
  0
ENDTAB
  0
TABLE
  2
DIMSTYLE
  5
A
330
0
100
AcDbSymbolTable
 70
     2
100
AcDbDimStyleTable
 71
     1
340
27
  0
DIMSTYLE
105
27
102
{ACAD_REACTORS
330
138
330
153
330
167
330
179
330
18B
102
}
330
A
100
AcDbSymbolTableRecord
100
AcDbDimStyleTableRecord
  2
ISO-25
 70
     0
 41
2.5
 42
0.625
 43
3.75
 44
1.25
 73
     0
 74
     0
 77
     1
 78
     8
140
2.5
141
2.5
143
0.03937007874016
147
0.625
171
     3
172
     1
271
     2
272
     2
274
     3
278
    44
283
     0
284
     8
340
11
  0
DIMSTYLE
105
1BC
330
A
100
AcDbSymbolTableRecord
100
AcDbDimStyleTableRecord
  2
Standard
 70
     0
340
11
  0
ENDTAB
  0
TABLE
  2
BLOCK_RECORD
  5
1
330
0
100
AcDbSymbolTable
 70
     8
  0
BLOCK_RECORD
  5
1F
102
{ACAD_XDICTIONARY
360
225
102
}
330
1
100
AcDbSymbolTableRecord
100
AcDbBlockTableRecord
  2
*Model_Space
340
22
 70
     0
280
     1
281
     0
  0
BLOCK_RECORD
  5
1B
330
1
100
AcDbSymbolTableRecord
100
AcDbBlockTableRecord
  2
*Paper_Space
340
1E
 70
     0
280
     1
281
     0
  0
BLOCK_RECORD
  5
23
330
1
100
AcDbSymbolTableRecord
100
AcDbBlockTableRecord
  2
*Paper_Space0
340
26
 70
     0
280
     1
281
     0
  0
BLOCK_RECORD
  5
139
330
1
100
AcDbSymbolTableRecord
100
AcDbBlockTableRecord
  2
_Open30
340
0
102
{BLKREFS
331
2AE
331
2AF
331
2B7
331
2B8
331
2BF
331
2C0
331
2C7
331
2C8
331
2D0
331
2D1
102
}
 70
     0
280
     1
281
     0
  0
BLOCK_RECORD
  5
140
330
1
100
AcDbSymbolTableRecord
100
AcDbBlockTableRecord
  2
*D2
340
0
 70
     0
280
     1
281
     0
  0
BLOCK_RECORD
  5
154
330
1
100
AcDbSymbolTableRecord
100
AcDbBlockTableRecord
  2
*D3
340
0
 70
     0
280
     1
281
     0
  0
BLOCK_RECORD
  5
168
330
1
100
AcDbSymbolTableRecord
100
AcDbBlockTableRecord
  2
*D4
340
0
 70
     0
280
     1
281
     0
  0
BLOCK_RECORD
  5
17A
330
1
100
AcDbSymbolTableRecord
100
AcDbBlockTableRecord
  2
*D5
340
0
 70
     0
280
     1
281
     0
  0
BLOCK_RECORD
  5
18C
330
1
100
AcDbSymbolTableRecord
100
AcDbBlockTableRecord
  2
*D6
340
0
 70
     0
280
     1
281
     0
  0
ENDTAB
  0
ENDSEC
  0
SECTION
  2
BLOCKS
  0
BLOCK
  5
20
330
1F
100
AcDbEntity
  8
0
100
AcDbBlockBegin
  2
*Model_Space
 70
     0
 10
0.0
 20
0.0
 30
0.0
  3
*Model_Space
  1

  0
ENDBLK
  5
21
330
1F
100
AcDbEntity
  8
0
100
AcDbBlockEnd
  0
BLOCK
  5
1C
330
1B
100
AcDbEntity
 67
     1
  8
0
100
AcDbBlockBegin
  2
*Paper_Space
 70
     0
 10
0.0
 20
0.0
 30
0.0
  3
*Paper_Space
  1

  0
ENDBLK
  5
1D
330
1B
100
AcDbEntity
 67
     1
  8
0
100
AcDbBlockEnd
  0
BLOCK
  5
24
330
23
100
AcDbEntity
 67
     1
  8
0
100
AcDbBlockBegin
  2
*Paper_Space0
 70
     0
 10
0.0
 20
0.0
 30
0.0
  3
*Paper_Space0
  1

  0
ENDBLK
  5
25
330
23
100
AcDbEntity
 67
     1
  8
0
100
AcDbBlockEnd
  0
BLOCK
  5
13A
330
139
100
AcDbEntity
  8
0
100
AcDbBlockBegin
  2
_Open30
 70
     0
 10
0.0
 20
0.0
 30
0.0
  3
_Open30
  1

  0
LINE
  5
13C
330
139
100
AcDbEntity
  8
0
  6
ByBlock
 62
     0
370
    -2
100
AcDbLine
 10
-1.0
 20
0.267949
 30
0.0
 11
0.0
 21
0.0
 31
0.0
  0
LINE
  5
13D
330
139
100
AcDbEntity
  8
0
  6
ByBlock
 62
     0
370
    -2
100
AcDbLine
 10
0.0
 20
0.0
 30
0.0
 11
-1.0
 21
-0.267949
 31
0.0
  0
LINE
  5
13E
330
139
100
AcDbEntity
  8
0
  6
ByBlock
 62
     0
370
    -2
100
AcDbLine
 10
0.0
 20
0.0
 30
0.0
 11
-1.0
 21
0.0
 31
0.0
  0
ENDBLK
  5
13B
330
139
100
AcDbEntity
  8
0
100
AcDbBlockEnd
  0
BLOCK
  5
14A
330
140
100
AcDbEntity
  8
0
100
AcDbBlockBegin
  2
*D2
 70
     1
 10
0.0
 20
0.0
 30
0.0
  3
*D2
  1

  0
LINE
  5
2AB
330
140
100
AcDbEntity
  8
寸法線
 62
     0
440
 16777216
370
    -2
100
AcDbLine
 10
-54.8610302458256
 20
7.645301367622472
 30
0.0
 11
-80.35657178024942
 21
7.64530136762248
 31
0.0
  0
LINE
  5
2AC
330
140
100
AcDbEntity
  8
寸法線
 62
     0
440
 16777216
370
    -2
100
AcDbLine
 10
-54.8610302458256
 20
43.76528122602091
 30
0.0
 11
-80.35657178024941
 21
43.76528122602091
 31
0.0
  0
LINE
  5
2AD
330
140
100
AcDbEntity
  8
寸法線
 62
     0
440
 16777216
370
    -2
100
AcDbLine
 10
-79.23157178024945
 20
10.64530136762248
 30
0.0
 11
-79.23157178024943
 21
40.76528122602089
 31
0.0
  0
INSERT
  5
2AE
330
140
100
AcDbEntity
  8
寸法線
 62
     0
440
 16777216
370
    -2
100
AcDbBlockReference
  2
_Open30
 10
-79.23157178024945
 20
7.64530136762248
 30
0.0
 41
3.0
 42
3.0
 43
3.0
 50
270.0
  0
INSERT
  5
2AF
330
140
100
AcDbEntity
  8
寸法線
 62
     0
440
 16777216
370
    -2
100
AcDbBlockReference
  2
_Open30
 10
-79.23157178024943
 20
43.76528122602091
 30
0.0
 41
3.0
 42
3.0
 43
3.0
 50
90.0
  0
MTEXT
  5
2B0
330
140
100
AcDbEntity
  8
寸法線
 62
     0
440
 16777216
100
AcDbMText
 10
-81.63157181601222
 20
25.70529129682171
 30
0.0
 40
3.200000047683716
 41
0.0
 46
0.0
 71
     5
 72
     1
  1
∅A
 11
0.0000000000000001
 21
1.0
 31
0.0
 73
     1
 44
1.0
1001
ACAD
1000
MTEXTBEGIN
1070
    73
1070
     1
1070
    44
1040
1.0
1070
    74
1070
     0
1000
MTEXTEND
  0
POINT
  5
2B1
330
140
100
AcDbEntity
  8
Defpoints
 62
     0
440
 16777216
100
AcDbPoint
 10
-52.3210302458256
 20
7.645301367622472
 30
0.0
  0
POINT
  5
2B2
330
140
100
AcDbEntity
  8
Defpoints
 62
     0
440
 16777216
100
AcDbPoint
 10
-52.3210302458256
 20
43.76528122602091
 30
0.0
  0
POINT
  5
2B3
330
140
100
AcDbEntity
  8
Defpoints
 62
     0
440
 16777216
100
AcDbPoint
 10
-79.23157178024943
 20
43.76528122602091
 30
0.0
  0
ENDBLK
  5
14B
330
140
100
AcDbEntity
  8
0
100
AcDbBlockEnd
  0
BLOCK
  5
15E
330
154
100
AcDbEntity
  8
0
100
AcDbBlockBegin
  2
*D3
 70
     1
 10
0.0
 20
0.0
 30
0.0
  3
*D3
  1

  0
LINE
  5
2B4
330
154
100
AcDbEntity
  8
寸法線
 62
     0
440
 16777216
370
    -2
100
AcDbLine
 10
2.602949551537681
 20
44.30525925336467
 30
0.0
 11
14.96642435927695
 21
44.30525925336467
 31
0.0
  0
LINE
  5
2B5
330
154
100
AcDbEntity
  8
寸法線
 62
     0
440
 16777216
370
    -2
100
AcDbLine
 10
2.602949551537681
 20
7.105277563911534
 30
0.0
 11
14.96642435927694
 21
7.105277563911527
 31
0.0
  0
LINE
  5
2B6
330
154
100
AcDbEntity
  8
寸法線
 62
     0
440
 16777216
370
    -2
100
AcDbLine
 10
13.84142435927692
 20
41.30525925336466
 30
0.0
 11
13.84142435927691
 21
10.10527756391153
 31
0.0
  0
INSERT
  5
2B7
330
154
100
AcDbEntity
  8
寸法線
 62
     0
440
 16777216
370
    -2
100
AcDbBlockReference
  2
_Open30
 10
13.84142435927692
 20
44.30525925336467
 30
0.0
 41
3.0
 42
3.0
 43
3.0
 50
90.0
  0
INSERT
  5
2B8
330
154
100
AcDbEntity
  8
寸法線
 62
     0
440
 16777216
370
    -2
100
AcDbBlockReference
  2
_Open30
 10
13.84142435927691
 20
7.105277563911527
 30
0.0
 41
3.0
 42
3.0
 43
3.0
 50
270.0
  0
MTEXT
  5
2B9
330
154
100
AcDbEntity
  8
寸法線
 62
     0
440
 16777216
100
AcDbMText
 10
11.44142432351411
 20
25.70526840863812
 30
0.0
 40
3.200000047683716
 41
0.0
 46
0.0
 71
     5
 72
     1
  1
∅B
 11
0.0000000000000001
 21
1.0
 31
0.0
 73
     1
 44
1.0
1001
ACAD
1000
MTEXTBEGIN
1070
    73
1070
     1
1070
    44
1040
1.0
1070
    74
1070
     0
1000
MTEXTEND
  0
POINT
  5
2BA
330
154
100
AcDbEntity
  8
Defpoints
 62
     0
440
 16777216
100
AcDbPoint
 10
0.0629495515376828
 20
44.30525925336467
 30
0.0
  0
POINT
  5
2BB
330
154
100
AcDbEntity
  8
Defpoints
 62
     0
440
 16777216
100
AcDbPoint
 10
0.0629495515376828
 20
7.105277563911535
 30
0.0
  0
POINT
  5
2BC
330
154
100
AcDbEntity
  8
Defpoints
 62
     0
440
 16777216
100
AcDbPoint
 10
13.84142435927691
 20
7.105277563911527
 30
0.0
  0
ENDBLK
  5
15F
330
154
100
AcDbEntity
  8
0
100
AcDbBlockEnd
  0
BLOCK
  5
171
330
168
100
AcDbEntity
  8
0
100
AcDbBlockBegin
  2
*D4
 70
     1
 10
0.0
 20
0.0
 30
0.0
  3
*D4
  1

  0
LINE
  5
2BD
330
168
100
AcDbEntity
  8
寸法線
 62
     0
440
 16777216
370
    -2
100
AcDbLine
 10
-28.32103024582563
 20
46.12526566205607
 30
0.0
 11
-28.32103024582563
 21
61.63795426068887
 31
0.0
  0
LINE
  5
2BE
330
168
100
AcDbEntity
  8
寸法線
 62
     0
440
 16777216
370
    -2
100
AcDbLine
 10
-61.32103024582566
 20
60.5129542606889
 30
0.0
 11
-31.32103024582562
 21
60.5129542606889
 31
0.0
  0
INSERT
  5
2BF
330
168
100
AcDbEntity
  8
寸法線
 62
     0
440
 16777216
370
    -2
100
AcDbBlockReference
  2
_Open30
 10
-64.32103024582565
 20
60.5129542606889
 30
0.0
 41
3.0
 42
3.0
 43
3.0
 50
180.0
  0
INSERT
  5
2C0
330
168
100
AcDbEntity
  8
寸法線
 62
     0
440
 16777216
370
    -2
100
AcDbBlockReference
  2
_Open30
 10
-28.32103024582563
 20
60.5129542606889
 30
0.0
 41
3.0
 42
3.0
 43
3.0
  0
MTEXT
  5
2C1
330
168
100
AcDbEntity
  8
寸法線
 62
     0
440
 16777216
100
AcDbMText
 10
-46.32103024582563
 20
62.91295429645168
 30
0.0
 40
3.200000047683716
 41
0.0
 46
0.0
 71
     5
 72
     1
  1
L1
 73
     1
 44
1.0
1001
ACAD
1000
MTEXTBEGIN
1070
    73
1070
     1
1070
    44
1040
1.0
1070
    74
1070
     0
1000
MTEXTEND
  0
POINT
  5
2C2
330
168
100
AcDbEntity
  8
Defpoints
 62
     0
440
 16777216
100
AcDbPoint
 10
-64.32103024582565
 20
45.80525925336464
 30
0.0
  0
POINT
  5
2C3
330
168
100
AcDbEntity
  8
Defpoints
 62
     0
440
 16777216
100
AcDbPoint
 10
-28.32103024582563
 20
43.58526566205607
 30
0.0
  0
POINT
  5
2C4
330
168
100
AcDbEntity
  8
Defpoints
 62
     0
440
 16777216
100
AcDbPoint
 10
-28.32103024582563
 20
60.5129542606889
 30
0.0
  0
ENDBLK
  5
172
330
168
100
AcDbEntity
  8
0
100
AcDbBlockEnd
  0
BLOCK
  5
183
330
17A
100
AcDbEntity
  8
0
100
AcDbBlockBegin
  2
*D5
 70
     1
 10
0.0
 20
0.0
 30
0.0
  3
*D5
  1

  0
LINE
  5
2C5
330
17A
100
AcDbEntity
  8
寸法線
 62
     0
440
 16777216
370
    -2
100
AcDbLine
 10
-23.52103482346235
 20
46.84525925336465
 30
0.0
 11
-23.52103482346235
 21
61.63795426068887
 31
0.0
  0
LINE
  5
2C6
330
17A
100
AcDbEntity
  8
寸法線
 62
     0
440
 16777216
370
    -2
100
AcDbLine
 10
-20.52103482346236
 20
60.5129542606889
 30
0.0
 11
-1.321030245825624
 21
60.5129542606889
 31
0.0
  0
INSERT
  5
2C7
330
17A
100
AcDbEntity
  8
寸法線
 62
     0
440
 16777216
370
    -2
100
AcDbBlockReference
  2
_Open30
 10
-23.52103482346235
 20
60.5129542606889
 30
0.0
 41
3.0
 42
3.0
 43
3.0
 50
180.0
  0
INSERT
  5
2C8
330
17A
100
AcDbEntity
  8
寸法線
 62
     0
440
 16777216
370
    -2
100
AcDbBlockReference
  2
_Open30
 10
1.678969754174373
 20
60.5129542606889
 30
0.0
 41
3.0
 42
3.0
 43
3.0
  0
MTEXT
  5
2C9
330
17A
100
AcDbEntity
  8
寸法線
 62
     0
440
 16777216
100
AcDbMText
 10
-10.92103253464398
 20
62.91295429645168
 30
0.0
 40
3.200000047683716
 41
0.0
 46
0.0
 71
     5
 72
     1
  1
L2
 73
     1
 44
1.0
1001
ACAD
1000
MTEXTBEGIN
1070
    73
1070
     1
1070
    44
1040
1.0
1070
    74
1070
     0
1000
MTEXTEND
  0
POINT
  5
2CA
330
17A
100
AcDbEntity
  8
Defpoints
 62
     0
440
 16777216
100
AcDbPoint
 10
-23.52103482346235
 20
44.30525925336466
 30
0.0
  0
POINT
  5
2CB
330
17A
100
AcDbEntity
  8
Defpoints
 62
     0
440
 16777216
100
AcDbPoint
 10
1.678969754174373
 20
44.90526154218303
 30
0.0
  0
POINT
  5
2CC
330
17A
100
AcDbEntity
  8
Defpoints
 62
     0
440
 16777216
100
AcDbPoint
 10
1.678969754174373
 20
60.5129542606889
 30
0.0
  0
ENDBLK
  5
184
330
17A
100
AcDbEntity
  8
0
100
AcDbBlockEnd
  0
BLOCK
  5
196
330
18C
100
AcDbEntity
  8
0
100
AcDbBlockBegin
  2
*D6
 70
     1
 10
0.0
 20
0.0
 30
0.0
  3
*D6
  1

  0
LINE
  5
2CD
330
18C
100
AcDbEntity
  8
寸法線
 62
     0
440
 16777216
370
    -2
100
AcDbLine
 10
1.678969754174373
 20
47.44526154218302
 30
0.0
 11
1.678969754174373
 21
68.32275154767618
 31
0.0
  0
LINE
  5
2CE
330
18C
100
AcDbEntity
  8
寸法線
 62
     0
440
 16777216
370
    -2
100
AcDbLine
 10
-64.32103024582565
 20
48.34525925336464
 30
0.0
 11
-64.32103024582565
 21
68.32275154767618
 31
0.0
  0
LINE
  5
2CF
330
18C
100
AcDbEntity
  8
寸法線
 62
     0
440
 16777216
370
    -2
100
AcDbLine
 10
-1.321030245825622
 20
67.19775154767621
 30
0.0
 11
-61.32103024582566
 21
67.19775154767621
 31
0.0
  0
INSERT
  5
2D0
330
18C
100
AcDbEntity
  8
寸法線
 62
     0
440
 16777216
370
    -2
100
AcDbBlockReference
  2
_Open30
 10
1.678969754174373
 20
67.19775154767621
 30
0.0
 41
3.0
 42
3.0
 43
3.0
  0
INSERT
  5
2D1
330
18C
100
AcDbEntity
  8
寸法線
 62
     0
440
 16777216
370
    -2
100
AcDbBlockReference
  2
_Open30
 10
-64.32103024582565
 20
67.19775154767621
 30
0.0
 41
3.0
 42
3.0
 43
3.0
 50
180.0
  0
MTEXT
  5
2D2
330
18C
100
AcDbEntity
  8
寸法線
 62
     0
440
 16777216
100
AcDbMText
 10
-31.32103024582562
 20
69.59775158343899
 30
0.0
 40
3.200000047683716
 41
0.0
 46
0.0
 71
     5
 72
     1
  1
L
 73
     1
 44
1.0
1001
ACAD
1000
MTEXTBEGIN
1070
    73
1070
     1
1070
    44
1040
1.0
1070
    74
1070
     0
1000
MTEXTEND
  0
POINT
  5
2D3
330
18C
100
AcDbEntity
  8
Defpoints
 62
     0
440
 16777216
100
AcDbPoint
 10
1.678969754174373
 20
44.90526154218303
 30
0.0
  0
POINT
  5
2D4
330
18C
100
AcDbEntity
  8
Defpoints
 62
     0
440
 16777216
100
AcDbPoint
 10
-64.32103024582565
 20
45.80525925336464
 30
0.0
  0
POINT
  5
2D5
330
18C
100
AcDbEntity
  8
Defpoints
 62
     0
440
 16777216
100
AcDbPoint
 10
-64.32103024582565
 20
67.19775154767621
 30
0.0
  0
ENDBLK
  5
197
330
18C
100
AcDbEntity
  8
0
100
AcDbBlockEnd
  0
ENDSEC
  0
SECTION
  2
ENTITIES
  0
POINT
  5
2F
330
1F
100
AcDbEntity
  8
0
 62
     7
100
AcDbPoint
 10
-68.30077748935261
 20
-58.17684533425775
 30
0.0
  0
LINE
  5
30
330
1F
100
AcDbEntity
  8
0
  6
Continuous
 62
     7
100
AcDbLine
 10
-89.75000381469726
 20
-15.99301075879441
 30
0.0
 11
90.25000381469729
 21
-15.99301075879441
 31
0.0
  0
LINE
  5
31
330
1F
100
AcDbEntity
  8
0
  6
Continuous
 62
     7
100
AcDbLine
 10
-89.75000381469726
 20
-21.99301075879441
 30
0.0
 11
90.25000381469729
 21
-21.99301075879441
 31
0.0
  0
LINE
  5
32
330
1F
100
AcDbEntity
  8
0
  6
Continuous
 62
     7
100
AcDbLine
 10
-89.75000381469726
 20
-27.99301075879441
 30
0.0
 11
90.25000381469729
 21
-27.99301075879441
 31
0.0
  0
LINE
  5
33
330
1F
100
AcDbEntity
  8
0
  6
Continuous
 62
     7
100
AcDbLine
 10
-89.75000381469726
 20
-33.99301075879441
 30
0.0
 11
90.25000381469729
 21
-33.99301075879441
 31
0.0
  0
LINE
  5
34
330
1F
100
AcDbEntity
  8
0
  6
Continuous
 62
     7
100
AcDbLine
 10
-89.75000381469726
 20
-39.9930107587944
 30
0.0
 11
90.25000381469729
 21
-39.9930107587944
 31
0.0
  0
LINE
  5
35
330
1F
100
AcDbEntity
  8
0
  6
Continuous
 62
     7
100
AcDbLine
 10
-89.75000381469726
 20
-45.99301075879441
 30
0.0
 11
90.25000381469729
 21
-45.99301075879441
 31
0.0
  0
LINE
  5
36
330
1F
100
AcDbEntity
  8
0
  6
Continuous
 62
     7
100
AcDbLine
 10
-89.75000381469726
 20
-51.9930107587944
 30
0.0
 11
90.25000381469729
 21
-51.9930107587944
 31
0.0
  0
LINE
  5
37
330
1F
100
AcDbEntity
  8
0
  6
Continuous
 62
     7
100
AcDbLine
 10
-89.74999618530274
 20
-15.99301075879441
 30
0.0
 11
-89.74999618530274
 21
-51.9930107587944
 31
0.0
  0
LINE
  5
38
330
1F
100
AcDbEntity
  8
0
  6
Continuous
 62
     7
100
AcDbLine
 10
-39.74999618530276
 20
-15.99301075879441
 30
0.0
 11
-39.74999618530276
 21
-51.9930107587944
 31
0.0
  0
LINE
  5
39
330
1F
100
AcDbEntity
  8
0
  6
Continuous
 62
     7
100
AcDbLine
 10
-13.74998092651368
 20
-15.99301075879441
 30
0.0
 11
-13.74998092651368
 21
-51.9930107587944
 31
0.0
  0
LINE
  5
3A
330
1F
100
AcDbEntity
  8
0
  6
Continuous
 62
     7
100
AcDbLine
 10
12.25001907348631
 20
-15.99301075879441
 30
0.0
 11
12.25001907348631
 21
-51.9930107587944
 31
0.0
  0
LINE
  5
3B
330
1F
100
AcDbEntity
  8
0
  6
Continuous
 62
     7
100
AcDbLine
 10
38.25003433227538
 20
-15.99301075879441
 30
0.0
 11
38.25003433227538
 21
-51.9930107587944
 31
0.0
  0
LINE
  5
3C
330
1F
100
AcDbEntity
  8
0
  6
Continuous
 62
     7
100
AcDbLine
 10
64.25000381469725
 20
-15.99301075879441
 30
0.0
 11
64.25000381469725
 21
-51.9930107587944
 31
0.0
  0
LINE
  5
3D
330
1F
100
AcDbEntity
  8
0
  6
Continuous
 62
     7
100
AcDbLine
 10
90.25000381469729
 20
-15.99301075879441
 30
0.0
 11
90.25000381469729
 21
-51.9930107587944
 31
0.0
  0
LINE
  5
3E
330
1F
100
AcDbEntity
  8
外形線
  6
Continuous
 62
     0
100
AcDbLine
 10
-25.52097891706722
 20
42.06537963676542
 30
0.0
 11
-23.67377182033449
 21
44.60529000315303
 31
0.0
  0
LINE
  5
3F
330
1F
100
AcDbEntity
  8
外形線
  6
Continuous
 62
     0
100
AcDbLine
 10
-9.456886874243565
 20
44.60532334027873
 30
0.0
 11
-8.641037570044346
 21
44.60532334027873
 31
0.0
  0
LINE
  5
40
330
1F
100
AcDbEntity
  8
破線
  6
DASHED
100
AcDbLine
 10
-56.16145868985256
 20
45.07556850529165
 30
0.0
 11
-52.32098521351327
 21
43.76528923672745
 31
0.0
  0
LINE
  5
41
330
1F
100
AcDbEntity
  8
外形線
  6
Continuous
 62
     0
100
AcDbLine
 10
-12.36100827316937
 20
43.7052684086381
 30
0.0
 11
-12.36100827316937
 21
43.14228775678263
 31
0.0
  0
LINE
  5
42
330
1F
100
AcDbEntity
  8
外形線
  6
Continuous
 62
     0
100
AcDbLine
 10
1.678969754174373
 20
44.90526154218303
 30
0.0
 11
1.678969754174373
 21
25.7052684086381
 31
0.0
  0
LINE
  5
43
330
1F
100
AcDbEntity
  8
外形線
  6
Continuous
 62
     0
100
AcDbLine
 10
-16.9810110197514
 20
30.50526383100137
 30
0.0
 11
-16.9810110197514
 21
25.7052684086381
 31
0.0
  0
LINE
  5
44
330
1F
100
AcDbEntity
  8
外形線
  6
Continuous
 62
     0
100
AcDbLine
 10
-64.32103024582565
 20
45.80525925336464
 30
0.0
 11
-64.32103024582565
 21
25.7052684086381
 31
0.0
  0
LINE
  5
45
330
1F
100
AcDbEntity
  8
外形線
  6
Continuous
 62
     0
100
AcDbLine
 10
-7.741038028752043
 20
30.50527818896661
 30
0.0
 11
-5.457065666202676
 21
31.70527727187928
 31
0.0
  0
LINE
  5
46
330
1F
100
AcDbEntity
  8
外形線
  6
Continuous
 62
     0
100
AcDbLine
 10
-0.8370367155521876
 20
31.7052569645463
 30
0.0
 11
-0.8370367155521876
 21
25.7052569645463
 31
0.0
  0
LINE
  5
47
330
1F
100
AcDbEntity
  8
外形線
  6
Continuous
 62
     0
100
AcDbLine
 10
-52.32103024582563
 20
43.76526978192911
 30
0.0
 11
-52.32103024582563
 21
25.7052684086381
 31
0.0
  0
LINE
  5
48
330
1F
100
AcDbEntity
  8
外形線
  6
Continuous
 62
     0
100
AcDbLine
 10
-28.32103024582563
 20
43.58526566205607
 30
0.0
 11
-28.32103024582563
 21
25.7052684086381
 31
0.0
  0
LINE
  5
49
330
1F
100
AcDbEntity
  8
破線
  6
DASHED
100
AcDbLine
 10
-9.177078829809973
 20
44.30525925336467
 30
0.0
 11
-8.641037570044346
 21
44.30525925336467
 31
0.0
  0
LINE
  5
4A
330
1F
100
AcDbEntity
  8
破線
  6
DASHED
100
AcDbLine
 10
-17.28098355393109
 20
43.7052684086381
 30
0.0
 11
-17.28098355393109
 21
42.62526657758341
 31
0.0
  0
LINE
  5
4B
330
1F
100
AcDbEntity
  8
破線
  6
DASHED
100
AcDbLine
 10
-12.66100369553265
 20
43.7052684086381
 30
0.0
 11
-12.66100369553265
 21
42.62526657758341
 31
0.0
  0
LINE
  5
4C
330
1F
100
AcDbEntity
  8
外形線
  6
Continuous
 62
     0
100
AcDbLine
 10
-17.28102933029825
 20
30.50528671918499
 30
0.0
 11
-16.98104535202677
 21
30.50528671918499
 31
0.0
  0
LINE
  5
4D
330
1F
100
AcDbEntity
  8
破線
  6
DASHED
100
AcDbLine
 10
-28.32100216575756
 20
43.58530246143613
 30
0.0
 11
-52.32100237433278
 21
43.76530277325136
 31
0.0
  0
LINE
  5
4E
330
1F
100
AcDbEntity
  8
破線
  6
DASHED
100
AcDbLine
 10
-12.66103802780802
 20
42.62526657758342
 30
0.0
 11
-12.36103116135294
 21
42.62526657758342
 31
0.0
  0
LINE
  5
4F
330
1F
100
AcDbEntity
  8
外形線
  6
Continuous
 62
     0
100
AcDbLine
 10
-17.28102933029825
 20
31.70526840863812
 30
0.0
 11
-14.69706784348185
 21
31.70526840863812
 31
0.0
  0
LINE
  5
50
330
1F
100
AcDbEntity
  8
外形線
  6
Continuous
 62
     0
100
AcDbLine
 10
-16.98103400031664
 20
30.50528809328047
 30
0.0
 11
-14.69705878523321
 21
31.7052878981943
 31
0.0
  0
LINE
  5
51
330
1F
100
AcDbEntity
  8
破線
  6
DASHED
100
AcDbLine
 10
-64.32104168991739
 20
45.50528671918498
 30
0.0
 11
-63.83184681992227
 21
45.50528671918498
 31
0.0
  0
LINE
  5
52
330
1F
100
AcDbEntity
  8
外形線
  6
Continuous
 62
     0
100
AcDbLine
 10
-12.36100827316937
 20
30.50525238690958
 30
0.0
 11
-12.36100827316937
 21
25.7052569645463
 31
0.0
  0
LINE
  5
53
330
1F
100
AcDbEntity
  8
破線
  6
DASHED
100
AcDbLine
 10
-0.2112966642826279
 20
44.30525925336467
 30
0.0
 11
1.078956021264247
 21
44.30525925336467
 31
0.0
  0
LINE
  5
54
330
1F
100
AcDbEntity
  8
外形線
  6
Continuous
 62
     0
100
AcDbLine
 10
-17.28098355393109
 20
31.70526840863811
 30
0.0
 11
-17.28098355393109
 21
25.7052684086381
 31
0.0
  0
LINE
  5
55
330
1F
100
AcDbEntity
  8
破線
  6
DASHED
100
AcDbLine
 10
-17.28102933029825
 20
42.62526657758342
 30
0.0
 11
-16.98103390793497
 21
42.62526657758342
 31
0.0
  0
LINE
  5
56
330
1F
100
AcDbEntity
  8
外形線
  6
Continuous
 62
     0
100
AcDbLine
 10
-10.07706509689984
 20
31.7052569645463
 30
0.0
 11
-10.07706509689984
 21
25.7052569645463
 31
0.0
  0
LINE
  5
57
330
1F
100
AcDbEntity
  8
破線
  6
DASHED
100
AcDbLine
 10
-3.420998202368593
 20
43.7052684086381
 30
0.0
 11
-3.420998202368593
 21
42.62526657758341
 31
0.0
  0
LINE
  5
58
330
1F
100
AcDbEntity
  8
破線
  6
DASHED
100
AcDbLine
 10
-3.421043978735752
 20
42.62526657758342
 30
0.0
 11
-3.121048556372471
 21
42.62526657758342
 31
0.0
  0
LINE
  5
59
330
1F
100
AcDbEntity
  8
外形線
  6
Continuous
 62
     0
100
AcDbLine
 10
-12.66100369553265
 20
31.7052569645463
 30
0.0
 11
-12.66100369553265
 21
25.7052569645463
 31
0.0
  0
LINE
  5
5A
330
1F
100
AcDbEntity
  8
破線
  6
DASHED
100
AcDbLine
 10
-4.831299410864659
 20
44.30525925336467
 30
0.0
 11
-4.021046267554112
 21
44.30525925336467
 31
0.0
  0
LINE
  5
5B
330
1F
100
AcDbEntity
  8
破線
  6
DASHED
100
AcDbLine
 10
-8.041000948950625
 20
43.7052684086381
 30
0.0
 11
-8.041000948950625
 21
42.62526657758341
 31
0.0
  0
LINE
  5
5C
330
1F
100
AcDbEntity
  8
破線
  6
DASHED
100
AcDbLine
 10
-8.041046725317784
 20
42.62526657758342
 30
0.0
 11
-7.741039858862706
 21
42.62526657758342
 31
0.0
  0
LINE
  5
5D
330
1F
100
AcDbEntity
  8
外形線
  6
Continuous
 62
     0
100
AcDbLine
 10
-3.421032534643955
 20
30.50528671918499
 30
0.0
 11
-3.121048556372471
 21
30.50528671918499
 31
0.0
  0
LINE
  5
5E
330
1F
100
AcDbEntity
  8
外形線
  6
Continuous
 62
     0
100
AcDbLine
 10
-12.66102658371622
 20
31.70526840863812
 30
0.0
 11
-10.07706509689981
 21
31.70526840863812
 31
0.0
  0
LINE
  5
5F
330
1F
100
AcDbEntity
  8
外形線
  6
Continuous
 62
     0
100
AcDbLine
 10
-12.66102658371622
 20
30.50528671918499
 30
0.0
 11
-12.36104260544474
 21
30.50528671918499
 31
0.0
  0
LINE
  5
60
330
1F
100
AcDbEntity
  8
外形線
  6
Continuous
 62
     0
100
AcDbLine
 10
-12.36098711918004
 20
30.50528268855505
 30
0.0
 11
-10.0770118391702
 21
31.70528236989357
 31
0.0
  0
LINE
  5
61
330
1F
100
AcDbEntity
  8
外形線
  6
Continuous
 62
     0
100
AcDbLine
 10
-3.420998202368593
 20
31.7052569645463
 30
0.0
 11
-3.420998202368593
 21
25.7052569645463
 31
0.0
  0
LINE
  5
62
330
1F
100
AcDbEntity
  8
外形線
  6
Continuous
 62
     0
100
AcDbLine
 10
-3.121025668188906
 20
30.50525238690958
 30
0.0
 11
-3.121025668188906
 21
25.7052569645463
 31
0.0
  0
LINE
  5
63
330
1F
100
AcDbEntity
  8
外形線
  6
Continuous
 62
     0
100
AcDbLine
 10
-3.421032534643955
 20
31.70526840863812
 30
0.0
 11
-0.8370710478275498
 21
31.70526840863812
 31
0.0
  0
LINE
  5
64
330
1F
100
AcDbEntity
  8
外形線
  6
Continuous
 62
     0
100
AcDbLine
 10
-28.18944334099473
 20
43.88428283530939
 30
0.0
 11
-26.44554656569642
 21
42.00959286711753
 31
0.0
  0
LINE
  5
65
330
1F
100
AcDbEntity
  8
外形線
  6
Continuous
 62
     0
100
AcDbLine
 10
1.078956021264247
 20
44.90529587445839
 30
0.0
 11
1.678946865990809
 21
44.90529587445839
 31
0.0
  0
LINE
  5
66
330
1F
100
AcDbEntity
  8
外形線
  6
Continuous
 62
     0
100
AcDbLine
 10
1.079001797631405
 20
44.90526154218303
 30
0.0
 11
1.079001797631405
 21
25.7052684086381
 31
0.0
  0
LINE
  5
67
330
1F
100
AcDbEntity
  8
外形線
  6
Continuous
 62
     0
100
AcDbLine
 10
-5.457062350317811
 20
31.7052569645463
 30
0.0
 11
-5.457062350317811
 21
25.7052569645463
 31
0.0
  0
LINE
  5
68
330
1F
100
AcDbEntity
  8
外形線
  6
Continuous
 62
     0
100
AcDbLine
 10
-28.18946065394491
 20
43.88430545252496
 30
0.0
 11
-52.31878118477528
 21
44.06527566842883
 31
0.0
  0
LINE
  5
69
330
1F
100
AcDbEntity
  8
外形線
  6
Continuous
 62
     0
100
AcDbLine
 10
-56.33553966769091
 20
45.45191869498308
 30
0.0
 11
-52.22412169442675
 21
44.04919953341103
 31
0.0
  0
LINE
  5
6A
330
1F
100
AcDbEntity
  8
外形線
  6
Continuous
 62
     0
100
AcDbLine
 10
-3.121044501258154
 20
30.50528213057687
 30
0.0
 11
-0.8370721387087909
 21
31.70528121348956
 31
0.0
  0
LINE
  5
6B
330
1F
100
AcDbEntity
  8
中心線
  6
CENTER
100
AcDbLine
 10
49.85678805251421
 20
50.18349983869182
 30
0.0
 11
49.85678805251421
 21
0.4963517445145629
 31
0.0
  0
LINE
  5
6C
330
1F
100
AcDbEntity
  8
外形線
  6
Continuous
 62
     0
100
AcDbLine
 10
-64.32104168991739
 20
45.80525925336464
 30
0.0
 11
-63.60673581223185
 21
45.80525925336464
 31
0.0
  0
LINE
  5
6D
330
1F
100
AcDbEntity
  8
外形線
  6
Continuous
 62
     0
100
AcDbLine
 10
-23.52103482346235
 20
44.30525925336466
 30
0.0
 11
-23.52103482346235
 21
25.7052684086381
 31
0.0
  0
LINE
  5
6E
330
1F
100
AcDbEntity
  8
外形線
  6
Continuous
 62
     0
100
AcDbLine
 10
-25.92099820236859
 20
41.00526383100135
 30
0.0
 11
-25.92099820236859
 21
25.7052684086381
 31
0.0
  0
LINE
  5
6F
330
1F
100
AcDbEntity
  8
破線
  6
DASHED
100
AcDbLine
 10
-25.49257618396004
 20
41.59436650591974
 30
0.0
 11
-23.52100715400518
 21
44.30527457144655
 31
0.0
  0
LINE
  5
70
330
1F
100
AcDbEntity
  8
破線
  6
DASHED
100
AcDbLine
 10
-23.52104626755411
 20
44.30525925336467
 30
0.0
 11
-17.88103161911661
 21
44.30525925336467
 31
0.0
  0
LINE
  5
71
330
1F
100
AcDbEntity
  8
破線
  6
DASHED
100
AcDbLine
 10
-28.32104633024992
 20
43.58528924003588
 30
0.0
 11
-26.41717289809036
 21
41.5386242799691
 31
0.0
  0
LINE
  5
72
330
1F
100
AcDbEntity
  8
破線
  6
DASHED
100
AcDbLine
 10
-14.07128201584512
 20
44.30525925336467
 30
0.0
 11
-13.26104031662638
 21
44.30525925336467
 31
0.0
  0
LINE
  5
73
330
1F
100
AcDbEntity
  8
外形線
  6
Continuous
 62
     0
100
AcDbLine
 10
-8.041000948950625
 20
31.7052569645463
 30
0.0
 11
-8.041000948950625
 21
25.7052569645463
 31
0.0
  0
LINE
  5
74
330
1F
100
AcDbEntity
  8
外形線
  6
Continuous
 62
     0
100
AcDbLine
 10
-7.741005526587342
 20
30.50525238690958
 30
0.0
 11
-7.741005526587342
 21
25.7052569645463
 31
0.0
  0
LINE
  5
75
330
1F
100
AcDbEntity
  8
外形線
  6
Continuous
 62
     0
100
AcDbLine
 10
-8.041035281225987
 20
31.70526840863812
 30
0.0
 11
-5.457073794409581
 21
31.70526840863812
 31
0.0
  0
LINE
  5
76
330
1F
100
AcDbEntity
  8
外形線
  6
Continuous
 62
     0
100
AcDbLine
 10
-8.041035281225987
 20
30.50528671918499
 30
0.0
 11
-7.741039858862706
 21
30.50528671918499
 31
0.0
  0
LINE
  5
77
330
1F
100
AcDbEntity
  8
外形線
  6
Continuous
 62
     0
100
AcDbLine
 10
-16.9810110197514
 20
43.7052684086381
 30
0.0
 11
-16.9810110197514
 21
43.14228775678263
 31
0.0
  0
LINE
  5
78
330
1F
100
AcDbEntity
  8
外形線
  6
Continuous
 62
     0
100
AcDbLine
 10
-13.79137097458536
 20
44.60532334027873
 30
0.0
 11
-13.26104031662638
 21
44.60532334027873
 31
0.0
  0
LINE
  5
79
330
1F
100
AcDbEntity
  8
外形線
  6
Continuous
 62
     0
100
AcDbLine
 10
-14.69702206711469
 20
31.70526840863811
 30
0.0
 11
-14.69702206711469
 21
25.7052684086381
 31
0.0
  0
LINE
  5
7A
330
1F
100
AcDbEntity
  8
外形線
  6
Continuous
 62
     0
100
AcDbLine
 10
-7.741005526587342
 20
43.7052684086381
 30
0.0
 11
-7.741005526587342
 21
43.14228775678263
 31
0.0
  0
LINE
  5
7B
330
1F
100
AcDbEntity
  8
外形線
  6
Continuous
 62
     0
100
AcDbLine
 10
-3.121025668188906
 20
43.7052684086381
 30
0.0
 11
-3.121025668188906
 21
43.14228775678263
 31
0.0
  0
LINE
  5
7C
330
1F
100
AcDbEntity
  8
外形線
  6
Continuous
 62
     0
100
AcDbLine
 10
-4.831299410864659
 20
44.60532334027873
 30
0.0
 11
-4.021046267554112
 21
44.60532334027873
 31
0.0
  0
LINE
  5
7D
330
1F
100
AcDbEntity
  8
外形線
  6
Continuous
 62
     0
100
AcDbLine
 10
-23.6738134489506
 20
44.60532334027873
 30
0.0
 11
-17.88103161911661
 21
44.60532334027873
 31
0.0
  0
LINE
  5
7E
330
1F
100
AcDbEntity
  8
中心線
  6
CENTER
100
AcDbLine
 10
-71.83972989182169
 20
25.70526840863812
 30
0.0
 11
7.075147999718835
 21
25.70526840863812
 31
0.0
  0
LINE
  5
7F
330
1F
100
AcDbEntity
  8
外形線
  6
Continuous
 62
     0
100
AcDbLine
 10
-0.2168928251712998
 20
44.60532334027873
 30
0.0
 11
1.078956021264247
 21
44.60532334027873
 31
0.0
  0
LINE
  5
80
330
1F
100
AcDbEntity
  8
外形線
  6
Continuous
 62
     0
100
AcDbLine
 10
-62.50219784836469
 20
45.07434799848185
 30
0.0
 11
-62.50219784836469
 21
25.7052684086381
 31
0.0
  0
LINE
  5
81
330
1F
100
AcDbEntity
  8
外形線
  6
Continuous
 62
     0
100
AcDbLine
 10
-57.76036130051315
 20
44.91950943647013
 30
0.0
 11
-57.76036130051315
 21
25.7052684086381
 31
0.0
  0
LINE
  5
82
330
1F
100
AcDbEntity
  8
破線
  6
DASHED
100
AcDbLine
 10
-64.32104168991739
 20
5.90529587445841
 30
0.0
 11
-63.83184681992227
 21
5.90529587445841
 31
0.0
  0
LINE
  5
83
330
1F
100
AcDbEntity
  8
外形線
  6
Continuous
 62
     0
100
AcDbLine
 10
-64.32103024582565
 20
5.605266119819738
 30
0.0
 11
-64.32103024582565
 21
25.7052684086381
 31
0.0
  0
LINE
  5
84
330
1F
100
AcDbEntity
  8
外形線
  6
Continuous
 62
     0
100
AcDbLine
 10
-52.32103024582563
 20
7.645267035347082
 30
0.0
 11
-52.32103024582563
 21
25.7052684086381
 31
0.0
  0
LINE
  5
85
330
1F
100
AcDbEntity
  8
破線
  6
DASHED
100
AcDbLine
 10
-56.16150458932818
 20
6.334968222288981
 30
0.0
 11
-52.32102569745655
 21
7.645249338505507
 31
0.0
  0
LINE
  5
86
330
1F
100
AcDbEntity
  8
外形線
  6
Continuous
 62
     0
100
AcDbLine
 10
-28.32103024582563
 20
7.825259711128332
 30
0.0
 11
-28.32103024582563
 21
25.7052684086381
 31
0.0
  0
LINE
  5
87
330
1F
100
AcDbEntity
  8
破線
  6
DASHED
100
AcDbLine
 10
-28.32103343133088
 20
7.825290563283932
 30
0.0
 11
-52.32103363990612
 21
7.645290251468717
 31
0.0
  0
LINE
  5
88
330
1F
100
AcDbEntity
  8
外形線
  6
Continuous
 62
     0
100
AcDbLine
 10
-25.92099820236859
 20
10.40526154218302
 30
0.0
 11
-25.92099820236859
 21
25.7052684086381
 31
0.0
  0
LINE
  5
89
330
1F
100
AcDbEntity
  8
外形線
  6
Continuous
 62
     0
100
AcDbLine
 10
-23.52103482346235
 20
7.105266119819737
 30
0.0
 11
-23.52103482346235
 21
25.7052684086381
 31
0.0
  0
LINE
  5
8A
330
1F
100
AcDbEntity
  8
破線
  6
DASHED
100
AcDbLine
 10
-28.3210089364095
 20
7.825315075054247
 30
0.0
 11
-26.41713550424993
 21
9.87198003512103
 31
0.0
  0
LINE
  5
8B
330
1F
100
AcDbEntity
  8
破線
  6
DASHED
100
AcDbLine
 10
-23.52104626755411
 20
7.105277563911535
 30
0.0
 11
-17.88103161911661
 21
7.105277563911535
 31
0.0
  0
LINE
  5
8C
330
1F
100
AcDbEntity
  8
破線
  6
DASHED
100
AcDbLine
 10
-25.49261390804492
 20
9.816182879168287
 30
0.0
 11
-23.52104403670384
 21
7.105273656735137
 31
0.0
  0
LINE
  5
8D
330
1F
100
AcDbEntity
  8
外形線
  6
Continuous
 62
     0
100
AcDbLine
 10
1.678969754174373
 20
6.505263831001379
 30
0.0
 11
1.678969754174373
 21
25.7052684086381
 31
0.0
  0
LINE
  5
8E
330
1F
100
AcDbEntity
  8
外形線
  6
Continuous
 62
     0
100
AcDbLine
 10
1.078956021264247
 20
6.50533249555216
 30
0.0
 11
1.678946865990809
 21
6.50533249555216
 31
0.0
  0
LINE
  5
8F
330
1F
100
AcDbEntity
  8
外形線
  6
Continuous
 62
     0
100
AcDbLine
 10
1.079001797631405
 20
6.505263831001379
 30
0.0
 11
1.079001797631405
 21
25.7052684086381
 31
0.0
  0
LINE
  5
90
330
1F
100
AcDbEntity
  8
破線
  6
DASHED
100
AcDbLine
 10
-17.28098355393109
 20
7.705268408638097
 30
0.0
 11
-17.28098355393109
 21
8.785258795600988
 31
0.0
  0
LINE
  5
91
330
1F
100
AcDbEntity
  8
破線
  6
DASHED
100
AcDbLine
 10
-17.28102933029825
 20
8.785316016059972
 30
0.0
 11
-16.98103390793497
 21
8.785316016059972
 31
0.0
  0
LINE
  5
92
330
1F
100
AcDbEntity
  8
破線
  6
DASHED
100
AcDbLine
 10
-0.2112966642826279
 20
7.105277563911535
 30
0.0
 11
1.078956021264247
 21
7.105277563911535
 31
0.0
  0
LINE
  5
93
330
1F
100
AcDbEntity
  8
破線
  6
DASHED
100
AcDbLine
 10
-3.420998202368593
 20
7.705268408638097
 30
0.0
 11
-3.420998202368593
 21
8.785258795600988
 31
0.0
  0
LINE
  5
94
330
1F
100
AcDbEntity
  8
破線
  6
DASHED
100
AcDbLine
 10
-3.421043978735752
 20
8.785316016059972
 30
0.0
 11
-3.121048556372471
 21
8.785316016059972
 31
0.0
  0
LINE
  5
95
330
1F
100
AcDbEntity
  8
破線
  6
DASHED
100
AcDbLine
 10
-4.831299410864659
 20
7.105277563911535
 30
0.0
 11
-4.021046267554112
 21
7.105277563911535
 31
0.0
  0
LINE
  5
96
330
1F
100
AcDbEntity
  8
破線
  6
DASHED
100
AcDbLine
 10
-8.041000948950625
 20
7.705268408638097
 30
0.0
 11
-8.041000948950625
 21
8.785258795600988
 31
0.0
  0
LINE
  5
97
330
1F
100
AcDbEntity
  8
破線
  6
DASHED
100
AcDbLine
 10
-8.041046725317784
 20
8.785316016059972
 30
0.0
 11
-7.741039858862706
 21
8.785316016059972
 31
0.0
  0
LINE
  5
98
330
1F
100
AcDbEntity
  8
破線
  6
DASHED
100
AcDbLine
 10
-9.177078829809973
 20
7.105277563911535
 30
0.0
 11
-8.641037570044346
 21
7.105277563911535
 31
0.0
  0
LINE
  5
99
330
1F
100
AcDbEntity
  8
破線
  6
DASHED
100
AcDbLine
 10
-12.66100369553265
 20
7.705268408638097
 30
0.0
 11
-12.66100369553265
 21
8.785258795600988
 31
0.0
  0
LINE
  5
9A
330
1F
100
AcDbEntity
  8
破線
  6
DASHED
100
AcDbLine
 10
-12.66103802780802
 20
8.785316016059972
 30
0.0
 11
-12.36103116135294
 21
8.785316016059972
 31
0.0
  0
LINE
  5
9B
330
1F
100
AcDbEntity
  8
破線
  6
DASHED
100
AcDbLine
 10
-14.07128201584512
 20
7.105277563911535
 30
0.0
 11
-13.26104031662638
 21
7.105277563911535
 31
0.0
  0
LINE
  5
9C
330
1F
100
AcDbEntity
  8
外形線
  6
Continuous
 62
     0
100
AcDbLine
 10
-3.420998202368593
 20
19.7052798527299
 30
0.0
 11
-3.420998202368593
 21
25.7052798527299
 31
0.0
  0
LINE
  5
9D
330
1F
100
AcDbEntity
  8
外形線
  6
Continuous
 62
     0
100
AcDbLine
 10
-3.121025668188906
 20
20.90527298627482
 30
0.0
 11
-3.121025668188906
 21
25.7052798527299
 31
0.0
  0
LINE
  5
9E
330
1F
100
AcDbEntity
  8
外形線
  6
Continuous
 62
     0
100
AcDbLine
 10
-3.421032534643955
 20
19.70531418500529
 30
0.0
 11
-0.8370710478275498
 21
19.70531418500529
 31
0.0
  0
LINE
  5
9F
330
1F
100
AcDbEntity
  8
外形線
  6
Continuous
 62
     0
100
AcDbLine
 10
-3.421032534643955
 20
20.90529587445841
 30
0.0
 11
-3.121048556372471
 21
20.90529587445841
 31
0.0
  0
LINE
  5
A0
330
1F
100
AcDbEntity
  8
外形線
  6
Continuous
 62
     0
100
AcDbLine
 10
-17.28098355393109
 20
19.7052684086381
 30
0.0
 11
-17.28098355393109
 21
25.7052684086381
 31
0.0
  0
LINE
  5
A1
330
1F
100
AcDbEntity
  8
外形線
  6
Continuous
 62
     0
100
AcDbLine
 10
-16.9810110197514
 20
20.90526154218302
 30
0.0
 11
-16.9810110197514
 21
25.7052684086381
 31
0.0
  0
LINE
  5
A2
330
1F
100
AcDbEntity
  8
外形線
  6
Continuous
 62
     0
100
AcDbLine
 10
-17.28102933029825
 20
19.7052684086381
 30
0.0
 11
-14.69706784348185
 21
19.7052684086381
 31
0.0
  0
LINE
  5
A3
330
1F
100
AcDbEntity
  8
外形線
  6
Continuous
 62
     0
100
AcDbLine
 10
-17.28102933029825
 20
20.90529587445841
 30
0.0
 11
-16.98104535202677
 21
20.90529587445841
 31
0.0
  0
LINE
  5
A4
330
1F
100
AcDbEntity
  8
外形線
  6
Continuous
 62
     0
100
AcDbLine
 10
-12.66100369553265
 20
19.7052798527299
 30
0.0
 11
-12.66100369553265
 21
25.7052798527299
 31
0.0
  0
LINE
  5
A5
330
1F
100
AcDbEntity
  8
外形線
  6
Continuous
 62
     0
100
AcDbLine
 10
-12.36100827316937
 20
20.90527298627482
 30
0.0
 11
-12.36100827316937
 21
25.7052798527299
 31
0.0
  0
LINE
  5
A6
330
1F
100
AcDbEntity
  8
外形線
  6
Continuous
 62
     0
100
AcDbLine
 10
-12.66102658371622
 20
19.70531418500529
 30
0.0
 11
-10.07706509689981
 21
19.70531418500529
 31
0.0
  0
LINE
  5
A7
330
1F
100
AcDbEntity
  8
外形線
  6
Continuous
 62
     0
100
AcDbLine
 10
-12.66102658371622
 20
20.90529587445841
 30
0.0
 11
-12.36104260544474
 21
20.90529587445841
 31
0.0
  0
LINE
  5
A8
330
1F
100
AcDbEntity
  8
外形線
  6
Continuous
 62
     0
100
AcDbLine
 10
-8.041000948950625
 20
19.7052798527299
 30
0.0
 11
-8.041000948950625
 21
25.7052798527299
 31
0.0
  0
LINE
  5
A9
330
1F
100
AcDbEntity
  8
外形線
  6
Continuous
 62
     0
100
AcDbLine
 10
-7.741005526587342
 20
20.90527298627482
 30
0.0
 11
-7.741005526587342
 21
25.7052798527299
 31
0.0
  0
LINE
  5
AA
330
1F
100
AcDbEntity
  8
外形線
  6
Continuous
 62
     0
100
AcDbLine
 10
-8.041035281225987
 20
19.70531418500529
 30
0.0
 11
-5.457073794409581
 21
19.70531418500529
 31
0.0
  0
LINE
  5
AB
330
1F
100
AcDbEntity
  8
外形線
  6
Continuous
 62
     0
100
AcDbLine
 10
-8.041035281225987
 20
20.90529587445841
 30
0.0
 11
-7.741039858862706
 21
20.90529587445841
 31
0.0
  0
LINE
  5
AC
330
1F
100
AcDbEntity
  8
外形線
  6
Continuous
 62
     0
100
AcDbLine
 10
-14.69702206711469
 20
19.7052684086381
 30
0.0
 11
-14.69702206711469
 21
25.7052684086381
 31
0.0
  0
LINE
  5
AD
330
1F
100
AcDbEntity
  8
外形線
  6
Continuous
 62
     0
100
AcDbLine
 10
-10.07706509689984
 20
19.7052798527299
 30
0.0
 11
-10.07706509689984
 21
25.7052798527299
 31
0.0
  0
LINE
  5
AE
330
1F
100
AcDbEntity
  8
外形線
  6
Continuous
 62
     0
100
AcDbLine
 10
-5.457062350317811
 20
19.7052798527299
 30
0.0
 11
-5.457062350317811
 21
25.7052798527299
 31
0.0
  0
LINE
  5
AF
330
1F
100
AcDbEntity
  8
外形線
  6
Continuous
 62
     0
100
AcDbLine
 10
-0.8370367155521876
 20
19.7052798527299
 30
0.0
 11
-0.8370367155521876
 21
25.7052798527299
 31
0.0
  0
LINE
  5
B0
330
1F
100
AcDbEntity
  8
外形線
  6
Continuous
 62
     0
100
AcDbLine
 10
-16.9810454442847
 20
20.9052750368763
 30
0.0
 11
-14.69707276192827
 21
19.70527656265638
 31
0.0
  0
LINE
  5
B1
330
1F
100
AcDbEntity
  8
外形線
  6
Continuous
 62
     0
100
AcDbLine
 10
-12.36101596769239
 20
20.90530318193511
 30
0.0
 11
-10.07703308950134
 21
19.70529950851528
 31
0.0
  0
LINE
  5
B2
330
1F
100
AcDbEntity
  8
外形線
  6
Continuous
 62
     0
100
AcDbLine
 10
-7.741001010135432
 20
20.90530702808891
 30
0.0
 11
-5.457028647586071
 21
19.70530794517624
 31
0.0
  0
LINE
  5
B3
330
1F
100
AcDbEntity
  8
外形線
  6
Continuous
 62
     0
100
AcDbLine
 10
-3.121017538199481
 20
20.90529625014282
 30
0.0
 11
-0.837045175650118
 21
19.70529716723014
 31
0.0
  0
LINE
  5
B4
330
1F
100
AcDbEntity
  8
外形線
  6
Continuous
 62
     0
100
AcDbLine
 10
-16.9810110197514
 20
7.705268408638097
 30
0.0
 11
-16.9810110197514
 21
8.268237616401769
 31
0.0
  0
LINE
  5
B5
330
1F
100
AcDbEntity
  8
外形線
  6
Continuous
 62
     0
100
AcDbLine
 10
-13.79137097458536
 20
6.80525925336466
 30
0.0
 11
-13.26104031662638
 21
6.80525925336466
 31
0.0
  0
LINE
  5
B6
330
1F
100
AcDbEntity
  8
外形線
  6
Continuous
 62
     0
100
AcDbLine
 10
-12.36100827316937
 20
7.705268408638097
 30
0.0
 11
-12.36100827316937
 21
8.268237616401769
 31
0.0
  0
LINE
  5
B7
330
1F
100
AcDbEntity
  8
外形線
  6
Continuous
 62
     0
100
AcDbLine
 10
-9.456886874243565
 20
6.80525925336466
 30
0.0
 11
-8.641037570044346
 21
6.80525925336466
 31
0.0
  0
LINE
  5
B8
330
1F
100
AcDbEntity
  8
外形線
  6
Continuous
 62
     0
100
AcDbLine
 10
-7.741005526587342
 20
7.705268408638097
 30
0.0
 11
-7.741005526587342
 21
8.268237616401769
 31
0.0
  0
LINE
  5
B9
330
1F
100
AcDbEntity
  8
外形線
  6
Continuous
 62
     0
100
AcDbLine
 10
-4.831299410864659
 20
6.80525925336466
 30
0.0
 11
-4.021046267554112
 21
6.80525925336466
 31
0.0
  0
LINE
  5
BA
330
1F
100
AcDbEntity
  8
外形線
  6
Continuous
 62
     0
100
AcDbLine
 10
-3.121025668188906
 20
7.705268408638097
 30
0.0
 11
-3.121025668188906
 21
8.268237616401769
 31
0.0
  0
LINE
  5
BB
330
1F
100
AcDbEntity
  8
外形線
  6
Continuous
 62
     0
100
AcDbLine
 10
-23.6738134489506
 20
6.80525925336466
 30
0.0
 11
-17.88103161911661
 21
6.80525925336466
 31
0.0
  0
LINE
  5
BC
330
1F
100
AcDbEntity
  8
外形線
  6
Continuous
 62
     0
100
AcDbLine
 10
-64.32104168991739
 20
5.605277563911535
 30
0.0
 11
-63.60673581223185
 21
5.605277563911535
 31
0.0
  0
LINE
  5
BD
330
1F
100
AcDbEntity
  8
外形線
  6
Continuous
 62
     0
100
AcDbLine
 10
-56.33558725603632
 20
5.958622982732552
 30
0.0
 11
-52.22416386723985
 21
7.361343991956903
 31
0.0
  0
LINE
  5
BE
330
1F
100
AcDbEntity
  8
外形線
  6
Continuous
 62
     0
100
AcDbLine
 10
-28.18946868866465
 20
7.526241968772136
 30
0.0
 11
-52.31878921949501
 21
7.345271752868264
 31
0.0
  0
LINE
  5
BF
330
1F
100
AcDbEntity
  8
外形線
  6
Continuous
 62
     0
100
AcDbLine
 10
-28.18946496090956
 20
7.526266966170132
 30
0.0
 11
-26.44556428830427
 21
9.400961123969075
 31
0.0
  0
LINE
  5
C0
330
1F
100
AcDbEntity
  8
外形線
  6
Continuous
 62
     0
100
AcDbLine
 10
-25.52101853426844
 20
9.345196672686316
 30
0.0
 11
-23.67381227892194
 21
6.805287463205057
 31
0.0
  0
LINE
  5
C1
330
1F
100
AcDbEntity
  8
外形線
  6
Continuous
 62
     0
100
AcDbLine
 10
-0.2168928251712998
 20
6.80525925336466
 30
0.0
 11
1.078956021264247
 21
6.80525925336466
 31
0.0
  0
LINE
  5
C2
330
1F
100
AcDbEntity
  8
外形線
  6
Continuous
 62
     0
100
AcDbLine
 10
-62.50219784836469
 20
6.33617737470255
 30
0.0
 11
-62.50219784836469
 21
25.7052684086381
 31
0.0
  0
LINE
  5
C3
330
1F
100
AcDbEntity
  8
外形線
  6
Continuous
 62
     0
100
AcDbLine
 10
-57.76036130051315
 20
6.491015936714267
 30
0.0
 11
-57.76036130051315
 21
25.7052684086381
 31
0.0
  0
LINE
  5
C4
330
1F
100
AcDbEntity
  8
外形線
  6
Continuous
 62
     0
100
AcDbLine
 10
67.4624879888606
 20
31.70525154930265
 30
0.0
 11
66.36937788511963
 21
30.61214190627302
 31
0.0
  0
LINE
  5
C5
330
1F
100
AcDbEntity
  8
外形線
  6
Continuous
 62
     0
100
AcDbLine
 10
67.4624932532714
 20
19.70528917234782
 30
0.0
 11
66.36938774848033
 21
20.79839532213241
 31
0.0
  0
LINE
  5
C6
330
1F
100
AcDbEntity
  8
外形線
  6
Continuous
 62
     0
100
AcDbLine
 10
43.85680224661472
 20
43.31097942002595
 30
0.0
 11
44.94991014302235
 21
42.21787161576042
 31
0.0
  0
LINE
  5
C7
330
1F
100
AcDbEntity
  8
外形線
  6
Continuous
 62
     0
100
AcDbLine
 10
55.85679462835162
 20
43.31095661876395
 30
0.0
 11
54.76368875499279
 21
42.21785083754705
 31
0.0
  0
LINE
  5
C8
330
1F
100
AcDbEntity
  8
外形線
  6
Continuous
 62
     0
100
AcDbLine
 10
32.25110748338966
 20
19.70527146361249
 30
0.0
 11
33.3442143682729
 21
20.79837825635372
 31
0.0
  0
LINE
  5
C9
330
1F
100
AcDbEntity
  8
外形線
  6
Continuous
 62
     0
100
AcDbLine
 10
32.25110162102306
 20
31.70528230980876
 30
0.0
 11
33.34420731009803
 21
30.612176344308
 31
0.0
  0
LINE
  5
CA
330
1F
100
AcDbEntity
  8
外形線
  6
Continuous
 62
     0
100
AcDbLine
 10
55.85678782093657
 20
8.099590140462952
 30
0.0
 11
54.76367808576464
 21
9.192700152061675
 31
0.0
  0
LINE
  5
CB
330
1F
100
AcDbEntity
  8
外形線
  6
Continuous
 62
     0
100
AcDbLine
 10
43.85678674903236
 20
8.099560258531193
 30
0.0
 11
44.9498938181996
 21
9.192666866988373
 31
0.0
  0
LINE
  5
CC
330
1F
100
AcDbEntity
  8
中心線
  6
CENTER
100
AcDbLine
 10
27.08902491469686
 20
25.70526840863812
 30
0.0
 11
75.44763697524373
 21
25.70526840863812
 31
0.0
  0
ARC
  5
CD
330
1F
100
AcDbEntity
  8
破線
  6
DASHED
100
AcDbCircle
 10
-9.314087496802187
 20
40.70792343793497
 30
0.0
 40
3.599999785423278
100
AcDbArc
 50
87.81654129098681
 51
147.8182436777423
  0
ARC
  5
CE
330
1F
100
AcDbEntity
  8
外形線
  6
Continuous
 62
     0
100
AcDbCircle
 10
-9.314087496802187
 20
40.70792343793497
 30
0.0
 40
3.899999856948852
100
AcDbArc
 50
92.09771069294005
 51
141.3758999695595
  0
ARC
  5
CF
330
1F
100
AcDbEntity
  8
外形線
  6
Continuous
 62
     0
100
AcDbCircle
 10
-8.640991793677187
 20
43.7052684086381
 30
0.0
 40
0.8999999463558197
100
AcDbArc
 50
0.0
 51
89.99998201391065
  0
ARC
  5
D0
330
1F
100
AcDbEntity
  8
破線
  6
DASHED
100
AcDbCircle
 10
-60.12100278000531
 20
45.50528671918498
 30
0.0
 40
2.699999928474424
100
AcDbArc
 50
197.9198159012725
 51
336.3349910826243
  0
ARC
  5
D1
330
1F
100
AcDbEntity
  8
破線
  6
DASHED
100
AcDbCircle
 10
-17.88102017502484
 20
43.7052684086381
 30
0.0
 40
0.6000000089406968
100
AcDbArc
 50
0.0
 51
89.99998201391065
  0
ARC
  5
D2
330
1F
100
AcDbEntity
  8
破線
  6
DASHED
100
AcDbCircle
 10
-13.93411313156781
 20
40.70792343793497
 30
0.0
 40
3.599999785423278
100
AcDbArc
 50
87.81654129098681
 51
147.8182436777423
  0
ARC
  5
D3
330
1F
100
AcDbEntity
  8
破線
  6
DASHED
100
AcDbCircle
 10
-25.97782956223188
 20
41.94727280316936
 30
0.0
 40
0.6000000089406968
100
AcDbArc
 50
222.9299195851082
 51
323.9726338452991
  0
ARC
  5
D4
330
1F
100
AcDbEntity
  8
破線
  6
DASHED
100
AcDbCircle
 10
-0.0741277800053126
 20
40.70792343793497
 30
0.0
 40
3.599999785423278
100
AcDbArc
 50
87.81654129098681
 51
147.8182436777423
  0
ARC
  5
D5
330
1F
100
AcDbEntity
  8
破線
  6
DASHED
100
AcDbCircle
 10
-13.26101742844281
 20
43.7052684086381
 30
0.0
 40
0.6000000089406968
100
AcDbArc
 50
0.0
 51
89.99998201391065
  0
ARC
  5
D6
330
1F
100
AcDbEntity
  8
外形線
  6
Continuous
 62
     0
100
AcDbCircle
 10
-60.12100278000531
 20
45.50528671918498
 30
0.0
 40
2.400000035762787
100
AcDbArc
 50
194.4771136916408
 51
340.7136033783714
  0
ARC
  5
D7
330
1F
100
AcDbEntity
  8
外形線
  6
Continuous
 62
     0
100
AcDbCircle
 10
-17.88102017502484
 20
43.7052684086381
 30
0.0
 40
0.8999999463558197
100
AcDbArc
 50
0.0
 51
89.99998201391065
  0
CIRCLE
  5
D8
330
1F
100
AcDbEntity
  8
外形線
  6
Continuous
 62
     0
100
AcDbCircle
 10
49.85678805251421
 20
25.70526840863812
 30
0.0
 40
18.60001087188721
  0
ARC
  5
D9
330
1F
100
AcDbEntity
  8
外形線
  6
Continuous
 62
     0
100
AcDbCircle
 10
-13.93411313156781
 20
40.70792343793497
 30
0.0
 40
3.899999856948852
100
AcDbArc
 50
87.90230797639472
 51
141.3758999695595
  0
CIRCLE
  5
DA
330
1F
100
AcDbEntity
  8
外形線
  6
Continuous
 62
     0
100
AcDbCircle
 10
49.85678805251421
 20
25.70526840863812
 30
0.0
 40
19.20001173019409
  0
ARC
  5
DB
330
1F
100
AcDbEntity
  8
破線
  6
DASHED
100
AcDbCircle
 10
-4.021034823462342
 20
43.7052684086381
 30
0.0
 40
0.6000000089406968
100
AcDbArc
 50
0.0
 51
89.99998201391065
  0
ARC
  5
DC
330
1F
100
AcDbEntity
  8
破線
  6
DASHED
100
AcDbCircle
 10
-8.640991793677187
 20
43.7052684086381
 30
0.0
 40
0.6000000089406968
100
AcDbArc
 50
0.0
 51
89.99998201391065
  0
ARC
  5
DD
330
1F
100
AcDbEntity
  8
破線
  6
DASHED
100
AcDbCircle
 10
-4.694130526587342
 20
40.70792343793497
 30
0.0
 40
3.599999785423278
100
AcDbArc
 50
92.18347737834783
 51
147.8182436777423
  0
ARC
  5
DE
330
1F
100
AcDbEntity
  8
外形線
  6
Continuous
 62
     0
100
AcDbCircle
 10
-13.26101742844281
 20
43.7052684086381
 30
0.0
 40
0.8999999463558197
100
AcDbArc
 50
0.0
 51
89.99998201391065
  0
ARC
  5
DF
330
1F
100
AcDbEntity
  8
外形線
  6
Continuous
 62
     0
100
AcDbCircle
 10
-4.694130526587342
 20
40.70792343793497
 30
0.0
 40
3.899999856948852
100
AcDbArc
 50
92.183484208537
 51
141.3758999695595
  0
ARC
  5
E0
330
1F
100
AcDbEntity
  8
外形線
  6
Continuous
 62
     0
100
AcDbCircle
 10
-0.0741277800053126
 20
40.70792343793497
 30
0.0
 40
3.899999856948852
100
AcDbArc
 50
87.90230797639472
 51
141.3758999695595
  0
ARC
  5
E1
330
1F
100
AcDbEntity
  8
外形線
  6
Continuous
 62
     0
100
AcDbCircle
 10
-4.021034823462342
 20
43.7052684086381
 30
0.0
 40
0.8999999463558197
100
AcDbArc
 50
0.0
 51
89.99998201391065
  0
ARC
  5
E2
330
1F
100
AcDbEntity
  8
破線
  6
DASHED
100
AcDbCircle
 10
-56.54898129563031
 20
43.93982651410685
 30
0.0
 40
1.200000017881393
100
AcDbArc
 50
71.16158262258513
 51
156.3349977991279
  0
ARC
  5
E3
330
1F
100
AcDbEntity
  8
外形線
  6
Continuous
 62
     0
100
AcDbCircle
 10
-63.60669003586465
 20
44.60532334027873
 30
0.0
 40
1.200000017881393
100
AcDbArc
 50
14.4770930873879
 51
89.99998201391065
  0
ARC
  5
E4
330
1F
100
AcDbEntity
  8
破線
  6
DASHED
100
AcDbCircle
 10
-63.83181820969281
 20
44.30525925336467
 30
0.0
 40
1.200000017881393
100
AcDbArc
 50
17.91983627815449
 51
89.99998201391065
  0
ARC
  5
E5
330
1F
100
AcDbEntity
  8
外形線
  6
Continuous
 62
     0
100
AcDbCircle
 10
-56.72302304367718
 20
44.31619980512247
 30
0.0
 40
1.200000017881393
100
AcDbArc
 50
71.16156213201762
 51
160.7136408307264
  0
ARC
  5
E6
330
1F
100
AcDbEntity
  8
外形線
  6
Continuous
 62
     0
100
AcDbCircle
 10
-26.00625668625531
 20
42.41831162152872
 30
0.0
 40
0.6000000089406968
100
AcDbArc
 50
222.9299195851082
 51
323.9726338452991
  0
ARC
  5
E7
330
1F
100
AcDbEntity
  8
破線
  6
DASHED
100
AcDbCircle
 10
-60.12100278000531
 20
5.90529587445841
 30
0.0
 40
2.699999928474424
100
AcDbArc
 50
23.66496622869338
 51
162.0801431175925
  0
ARC
  5
E8
330
1F
100
AcDbEntity
  8
破線
  6
DASHED
100
AcDbCircle
 10
-13.93411313156781
 20
10.70265915570841
 30
0.0
 40
3.599999785423278
100
AcDbArc
 50
212.1817016807444
 51
272.1834040674998
  0
ARC
  5
E9
330
1F
100
AcDbEntity
  8
破線
  6
DASHED
100
AcDbCircle
 10
-0.0741277800053126
 20
10.70265915570841
 30
0.0
 40
3.599999785423278
100
AcDbArc
 50
212.1817016807444
 51
272.1834040674998
  0
ARC
  5
EA
330
1F
100
AcDbEntity
  8
破線
  6
DASHED
100
AcDbCircle
 10
-4.694130526587342
 20
10.70265915570841
 30
0.0
 40
3.599999785423278
100
AcDbArc
 50
212.1817016807444
 51
267.8164679801388
  0
ARC
  5
EB
330
1F
100
AcDbEntity
  8
破線
  6
DASHED
100
AcDbCircle
 10
-9.314087496802187
 20
10.70265915570841
 30
0.0
 40
3.599999785423278
100
AcDbArc
 50
212.1817016807444
 51
272.1834040674998
  0
ARC
  5
EC
330
1F
100
AcDbEntity
  8
破線
  6
DASHED
100
AcDbCircle
 10
-13.26101742844281
 20
7.705268408638097
 30
0.0
 40
0.6000000089406968
100
AcDbArc
 50
269.999963344576
 51
359.9999453584866
  0
ARC
  5
ED
330
1F
100
AcDbEntity
  8
破線
  6
DASHED
100
AcDbCircle
 10
-8.640991793677187
 20
7.705268408638097
 30
0.0
 40
0.6000000089406968
100
AcDbArc
 50
269.999963344576
 51
359.9999453584866
  0
ARC
  5
EE
330
1F
100
AcDbEntity
  8
破線
  6
DASHED
100
AcDbCircle
 10
-4.021034823462342
 20
7.705268408638097
 30
0.0
 40
0.6000000089406968
100
AcDbArc
 50
269.999963344576
 51
359.9999453584866
  0
ARC
  5
EF
330
1F
100
AcDbEntity
  8
破線
  6
DASHED
100
AcDbCircle
 10
-17.88102017502484
 20
7.705268408638097
 30
0.0
 40
0.6000000089406968
100
AcDbArc
 50
269.999963344576
 51
359.9999453584866
  0
ARC
  5
F0
330
1F
100
AcDbEntity
  8
外形線
  6
Continuous
 62
     0
100
AcDbCircle
 10
-17.88102017502484
 20
7.705268408638097
 30
0.0
 40
0.8999999463558197
100
AcDbArc
 50
269.999963344576
 51
359.9999453584866
  0
ARC
  5
F1
330
1F
100
AcDbEntity
  8
外形線
  6
Continuous
 62
     0
100
AcDbCircle
 10
-13.93411313156781
 20
10.70265915570841
 30
0.0
 40
3.899999856948852
100
AcDbArc
 50
218.6240453889271
 51
272.0976373820919
  0
ARC
  5
F2
330
1F
100
AcDbEntity
  8
外形線
  6
Continuous
 62
     0
100
AcDbCircle
 10
-13.26101742844281
 20
7.705268408638097
 30
0.0
 40
0.8999999463558197
100
AcDbArc
 50
269.999963344576
 51
359.9999453584866
  0
ARC
  5
F3
330
1F
100
AcDbEntity
  8
外形線
  6
Continuous
 62
     0
100
AcDbCircle
 10
-9.314087496802187
 20
10.70265915570841
 30
0.0
 40
3.899999856948852
100
AcDbArc
 50
218.6240453889271
 51
267.9022346655466
  0
ARC
  5
F4
330
1F
100
AcDbEntity
  8
外形線
  6
Continuous
 62
     0
100
AcDbCircle
 10
-8.640991793677187
 20
7.705268408638097
 30
0.0
 40
0.8999999463558197
100
AcDbArc
 50
269.999963344576
 51
359.9999453584866
  0
ARC
  5
F5
330
1F
100
AcDbEntity
  8
外形線
  6
Continuous
 62
     0
100
AcDbCircle
 10
-4.694130526587342
 20
10.70265915570841
 30
0.0
 40
3.899999856948852
100
AcDbArc
 50
218.6240453889271
 51
267.8164611499497
  0
ARC
  5
F6
330
1F
100
AcDbEntity
  8
外形線
  6
Continuous
 62
     0
100
AcDbCircle
 10
-4.021034823462342
 20
7.705268408638097
 30
0.0
 40
0.8999999463558197
100
AcDbArc
 50
269.999963344576
 51
359.9999453584866
  0
ARC
  5
F7
330
1F
100
AcDbEntity
  8
外形線
  6
Continuous
 62
     0
100
AcDbCircle
 10
-0.0741277800053126
 20
10.70265915570841
 30
0.0
 40
3.899999856948852
100
AcDbArc
 50
218.6240453889271
 51
272.0976373820919
  0
ARC
  5
F8
330
1F
100
AcDbEntity
  8
外形線
  6
Continuous
 62
     0
100
AcDbCircle
 10
-60.12100278000531
 20
5.90529587445841
 30
0.0
 40
2.400000035762787
100
AcDbArc
 50
19.28635051785165
 51
165.522845327224
  0
ARC
  5
F9
330
1F
100
AcDbEntity
  8
外形線
  6
Continuous
 62
     0
100
AcDbCircle
 10
-63.60669003586465
 20
6.80525925336466
 30
0.0
 40
1.200000017881393
100
AcDbArc
 50
269.999963344576
 51
345.522853978646
  0
ARC
  5
FA
330
1F
100
AcDbEntity
  8
破線
  6
DASHED
100
AcDbCircle
 10
-63.83181820969281
 20
7.105277563911535
 30
0.0
 40
1.200000017881393
100
AcDbArc
 50
269.999963344576
 51
342.0801107878795
  0
ARC
  5
FB
330
1F
100
AcDbEntity
  8
外形線
  6
Continuous
 62
     0
100
AcDbCircle
 10
-56.72302304367718
 20
7.09438278852091
 30
0.0
 40
1.200000017881393
100
AcDbArc
 50
199.2863045277603
 51
288.838383226469
  0
ARC
  5
FC
330
1F
100
AcDbEntity
  8
破線
  6
DASHED
100
AcDbCircle
 10
-56.54898129563031
 20
7.470710303169347
 30
0.0
 40
1.200000017881393
100
AcDbArc
 50
203.6649475593587
 51
288.8383627359015
  0
ARC
  5
FD
330
1F
100
AcDbEntity
  8
外形線
  6
Continuous
 62
     0
100
AcDbCircle
 10
-26.00625668625531
 20
8.99227097211466
 30
0.0
 40
0.6000000089406968
100
AcDbArc
 50
36.02730809809298
 51
137.0700257733784
  0
ARC
  5
FE
330
1F
100
AcDbEntity
  8
破線
  6
DASHED
100
AcDbCircle
 10
-25.97782956223188
 20
9.463309790474037
 30
0.0
 40
0.6000000089406968
100
AcDbArc
 50
36.02730809809298
 51
137.0700257733784
  0
ARC
  5
FF
330
1F
100
AcDbEntity
  8
外形線
  6
Continuous
 62
     0
100
AcDbCircle
 10
49.85678805251421
 20
25.70526840863812
 30
0.0
 40
16.92001247406006
100
AcDbArc
 50
359.9999863396217
 51
14.82442015951409
  0
CIRCLE
  5
100
330
1F
100
AcDbEntity
  8
外形線
  6
Continuous
 62
     0
100
AcDbCircle
 10
49.85678805251421
 20
25.70526840863812
 30
0.0
 40
15.30000972747803
  0
ARC
  5
101
330
1F
100
AcDbEntity
  8
外形線
  6
Continuous
 62
     0
100
AcDbCircle
 10
66.79363764663043
 20
21.22263624845133
 30
0.0
 40
0.6000000089406968
100
AcDbArc
 50
165.1755985098206
 51
224.999968695155
  0
ARC
  5
102
330
1F
100
AcDbEntity
  8
外形線
  6
Continuous
 62
     0
100
AcDbCircle
 10
66.79363764663043
 20
30.18789484677899
 30
0.0
 40
0.6000000089406968
100
AcDbArc
 50
134.999973020866
 51
194.8243432062004
  0
ARC
  5
103
330
1F
100
AcDbEntity
  8
外形線
  6
Continuous
 62
     0
100
AcDbCircle
 10
49.85678805251421
 20
25.70526840863812
 30
0.0
 40
16.92001247406006
100
AcDbArc
 50
345.1755525197293
 51
359.9999863396217
  0
ARC
  5
104
330
1F
100
AcDbEntity
  8
外形線
  6
Continuous
 62
     0
100
AcDbCircle
 10
49.85678805251421
 20
25.70526840863812
 30
0.0
 40
16.92001247406006
100
AcDbArc
 50
89.99998201391065
 51
104.8244294941814
  0
ARC
  5
105
330
1F
100
AcDbEntity
  8
外形線
  6
Continuous
 62
     0
100
AcDbCircle
 10
45.37416018386184
 20
42.64211800275432
 30
0.0
 40
0.6000000089406968
100
AcDbArc
 50
224.999985997999
 51
284.8243630135225
  0
ARC
  5
106
330
1F
100
AcDbEntity
  8
外形線
  6
Continuous
 62
     0
100
AcDbCircle
 10
49.85678805251421
 20
25.70526840863812
 30
0.0
 40
16.92001247406006
100
AcDbArc
 50
75.17553453363987
 51
89.99998201391065
  0
ARC
  5
107
330
1F
100
AcDbEntity
  8
外形線
  6
Continuous
 62
     0
100
AcDbCircle
 10
54.33941592116656
 20
42.64211800275432
 30
0.0
 40
0.6000000089406968
100
AcDbArc
 50
255.1756114869536
 51
314.9999885024772
  0
ARC
  5
108
330
1F
100
AcDbEntity
  8
外形線
  6
Continuous
 62
     0
100
AcDbCircle
 10
49.85678805251421
 20
25.70526840863812
 30
0.0
 40
16.92001247406006
100
AcDbArc
 50
179.9999776881997
 51
194.8244251684704
  0
ARC
  5
109
330
1F
100
AcDbEntity
  8
外形線
  6
Continuous
 62
     0
100
AcDbCircle
 10
32.91993845839801
 20
21.22264197049723
 30
0.0
 40
0.6000000089406968
100
AcDbArc
 50
314.999981672288
 51
14.82435868781168
  0
ARC
  5
10A
330
1F
100
AcDbEntity
  8
外形線
  6
Continuous
 62
     0
100
AcDbCircle
 10
49.85678805251421
 20
25.70526840863812
 30
0.0
 40
16.92001247406006
100
AcDbArc
 50
165.1755302079289
 51
179.9999776881997
  0
ARC
  5
10B
330
1F
100
AcDbEntity
  8
外形線
  6
Continuous
 62
     0
100
AcDbCircle
 10
32.91993845839801
 20
30.18789770780195
 30
0.0
 40
0.6000000089406968
100
AcDbArc
 50
345.1756071612426
 51
44.99998417676613
  0
ARC
  5
10C
330
1F
100
AcDbEntity
  8
外形線
  6
Continuous
 62
     0
100
AcDbCircle
 10
49.85678805251421
 20
25.70526840863812
 30
0.0
 40
16.92001247406006
100
AcDbArc
 50
269.9999906653327
 51
284.8244244852251
  0
ARC
  5
10D
330
1F
100
AcDbEntity
  8
外形線
  6
Continuous
 62
     0
100
AcDbCircle
 10
54.33941592116656
 20
8.768418814521886
 30
0.0
 40
0.6000000089406968
100
AcDbArc
 50
44.99997734657699
 51
104.8243543621006
  0
ARC
  5
10E
330
1F
100
AcDbEntity
  8
外形線
  6
Continuous
 62
     0
100
AcDbCircle
 10
49.85678805251421
 20
25.70526840863812
 30
0.0
 40
16.92001247406006
100
AcDbArc
 50
255.1755568454402
 51
269.9999906653327
  0
ARC
  5
10F
330
1F
100
AcDbEntity
  8
外形線
  6
Continuous
 62
     0
100
AcDbCircle
 10
45.37416018386184
 20
8.768418814521886
 30
0.0
 40
0.6000000089406968
100
AcDbArc
 50
75.17560283553158
 51
134.999973020866
  0
MTEXT
  5
110
330
1F
100
AcDbEntity
  8
0
 62
     7
100
AcDbMText
 10
-72.40178793668746
 20
-20.78148734513627
 30
0.0
 40
3.200000047683716
 41
0.0
 46
0.0
 71
     7
 72
     1
  1
{\W0.833333;規　　　格}
 73
     1
 44
1.0
1001
ACAD
1000
MTEXTBEGIN
1070
    73
1070
     1
1070
    44
1040
1.0
1070
    74
1070
     0
1000
MTEXTEND
  0
MTEXT
  5
111
330
1F
100
AcDbEntity
  8
0
 62
     7
100
AcDbMText
 10
-78.01672179116554
 20
-24.99301075879441
 30
0.0
 40
3.200000047683716
 41
0.0
 46
0.0
 71
     4
 72
     1
  1
\W0.833333;VU50-TDW50
 73
     1
 44
1.0
1001
ACAD
1000
MTEXTBEGIN
1070
    73
1070
     1
1070
    44
1040
1.0
1070
    74
1070
     0
1000
MTEXTEND
  0
MTEXT
  5
112
330
1F
100
AcDbEntity
  8
0
 62
     7
100
AcDbMText
 10
-78.01671416177097
 20
-30.99301075879441
 30
0.0
 40
3.200000047683716
 41
0.0
 46
0.0
 71
     4
 72
     1
  1
\W0.833333;VU65-TDW60
 73
     1
 44
1.0
1001
ACAD
1000
MTEXTBEGIN
1070
    73
1070
     1
1070
    44
1040
1.0
1070
    74
1070
     0
1000
MTEXTEND
  0
MTEXT
  5
113
330
1F
100
AcDbEntity
  8
0
 62
     7
100
AcDbMText
 10
-78.09176947753413
 20
-36.99301075879441
 30
0.0
 40
3.200000047683716
 41
0.0
 46
0.0
 71
     4
 72
     1
  1
\W0.833333;VU75-TDW65
 73
     1
 44
1.0
1001
ACAD
1000
MTEXTBEGIN
1070
    73
1070
     1
1070
    44
1040
1.0
1070
    74
1070
     0
1000
MTEXTEND
  0
MTEXT
  5
114
330
1F
100
AcDbEntity
  8
0
 62
     7
100
AcDbMText
 10
-78.09177710692869
 20
-42.99301075879439
 30
0.0
 40
3.200000047683716
 41
0.0
 46
0.0
 71
     4
 72
     1
  1
\W0.833333;VU75-TDW75
 73
     1
 44
1.0
1001
ACAD
1000
MTEXTBEGIN
1070
    73
1070
     1
1070
    44
1040
1.0
1070
    74
1070
     0
1000
MTEXTEND
  0
MTEXT
  5
115
330
1F
100
AcDbEntity
  8
0
 62
     7
100
AcDbMText
 10
-78.01672179116554
 20
-48.9930107587944
 30
0.0
 40
3.200000047683716
 41
0.0
 46
0.0
 71
     4
 72
     1
  1
\W0.833333;VU75-TDW80
 73
     1
 44
1.0
1001
ACAD
1000
MTEXTBEGIN
1070
    73
1070
     1
1070
    44
1040
1.0
1070
    74
1070
     0
1000
MTEXTEND
  0
MTEXT
  5
117
330
1F
100
AcDbEntity
  8
0
 62
     7
100
AcDbMText
 10
-26.74999618530276
 20
-24.99301075879441
 30
0.0
 40
3.200000047683716
 41
0.0
 46
0.0
 71
     5
 72
     1
  1
61
 73
     1
 44
1.0
1001
ACAD
1000
MTEXTBEGIN
1070
    73
1070
     1
1070
    44
1040
1.0
1070
    74
1070
     0
1000
MTEXTEND
  0
MTEXT
  5
118
330
1F
100
AcDbEntity
  8
0
 62
     7
100
AcDbMText
 10
-0.7499809265136827
 20
-24.99301075879441
 30
0.0
 40
3.200000047683716
 41
0.0
 46
0.0
 71
     5
 72
     1
  1
{\W1;62}
 73
     1
 44
1.0
1001
ACAD
1000
MTEXTBEGIN
1070
    73
1070
     1
1070
    44
1040
1.0
1070
    74
1070
     0
1000
MTEXTEND
  0
MTEXT
  5
119
330
1F
100
AcDbEntity
  8
0
 62
     7
100
AcDbMText
 10
24.61384320259095
 20
-24.99301075879441
 30
0.0
 40
3.200000047683716
 41
0.0
 46
0.0
 71
     5
 72
     1
  1
{\W1;60}
 73
     1
 44
1.0
1001
ACAD
1000
MTEXTBEGIN
1070
    73
1070
     1
1070
    44
1040
1.0
1070
    74
1070
     0
1000
MTEXTEND
  0
MTEXT
  5
11A
330
1F
100
AcDbEntity
  8
0
 62
     7
100
AcDbMText
 10
51.25001907348631
 20
-24.9930107587944
 30
0.0
 40
3.200000047683716
 41
0.0
 46
0.0
 71
     5
 72
     1
  1
{\W1;42}
 73
     1
 44
1.0
1001
ACAD
1000
MTEXTBEGIN
1070
    73
1070
     1
1070
    44
1040
1.0
1070
    74
1070
     0
1000
MTEXTEND
  0
MTEXT
  5
11B
330
1F
100
AcDbEntity
  8
0
 62
     7
100
AcDbMText
 10
77.25000381469725
 20
-24.9930107587944
 30
0.0
 40
3.200000047683716
 41
0.0
 46
0.0
 71
     5
 72
     1
  1
{\W1;110}
 73
     1
 44
1.0
1001
ACAD
1000
MTEXTBEGIN
1070
    73
1070
     1
1070
    44
1040
1.0
1070
    74
1070
     0
1000
MTEXTEND
  0
MTEXT
  5
11C
330
1F
100
AcDbEntity
  8
0
 62
     7
100
AcDbMText
 10
-26.74999618530276
 20
-30.99301075879441
 30
0.0
 40
3.200000047683716
 41
0.0
 46
0.0
 71
     5
 72
     1
  1
{\W1;77}
 73
     1
 44
1.0
1001
ACAD
1000
MTEXTBEGIN
1070
    73
1070
     1
1070
    44
1040
1.0
1070
    74
1070
     0
1000
MTEXTEND
  0
MTEXT
  5
11D
330
1F
100
AcDbEntity
  8
0
 62
     7
100
AcDbMText
 10
-0.7499809265136827
 20
-30.99301075879441
 30
0.0
 40
3.200000047683716
 41
0.0
 46
0.0
 71
     5
 72
     1
  1
{\W1;72}
 73
     1
 44
1.0
1001
ACAD
1000
MTEXTBEGIN
1070
    73
1070
     1
1070
    44
1040
1.0
1070
    74
1070
     0
1000
MTEXTEND
  0
MTEXT
  5
11E
330
1F
100
AcDbEntity
  8
0
 62
     7
100
AcDbMText
 10
24.88050987323125
 20
-30.99301075879441
 30
0.0
 40
3.200000047683716
 41
0.0
 46
0.0
 71
     5
 72
     1
  1
{\W1;75}
 73
     1
 44
1.0
1001
ACAD
1000
MTEXTBEGIN
1070
    73
1070
     1
1070
    44
1040
1.0
1070
    74
1070
     0
1000
MTEXTEND
  0
MTEXT
  5
11F
330
1F
100
AcDbEntity
  8
0
 62
     7
100
AcDbMText
 10
51.25001907348631
 20
-30.99301075879441
 30
0.0
 40
3.200000047683716
 41
0.0
 46
0.0
 71
     5
 72
     1
  1
{\W1;45}
 73
     1
 44
1.0
1001
ACAD
1000
MTEXTBEGIN
1070
    73
1070
     1
1070
    44
1040
1.0
1070
    74
1070
     0
1000
MTEXTEND
  0
MTEXT
  5
120
330
1F
100
AcDbEntity
  8
0
 62
     7
100
AcDbMText
 10
77.25000381469725
 20
-30.99301075879441
 30
0.0
 40
3.200000047683716
 41
0.0
 46
0.0
 71
     5
 72
     1
  1
{\W1;130}
 73
     1
 44
1.0
1001
ACAD
1000
MTEXTBEGIN
1070
    73
1070
     1
1070
    44
1040
1.0
1070
    74
1070
     0
1000
MTEXTEND
  0
MTEXT
  5
121
330
1F
100
AcDbEntity
  8
0
 62
     7
100
AcDbMText
 10
-26.74999618530276
 20
-36.9930107587944
 30
0.0
 40
3.200000047683716
 41
0.0
 46
0.0
 71
     5
 72
     1
  1
89
 73
     1
 44
1.0
1001
ACAD
1000
MTEXTBEGIN
1070
    73
1070
     1
1070
    44
1040
1.0
1070
    74
1070
     0
1000
MTEXTEND
  0
MTEXT
  5
122
330
1F
100
AcDbEntity
  8
0
 62
     7
100
AcDbMText
 10
-0.7499809265136827
 20
-36.9930107587944
 30
0.0
 40
3.200000047683716
 41
0.0
 46
0.0
 71
     5
 72
     1
  1
{\W1;78}
 73
     1
 44
1.0
1001
ACAD
1000
MTEXTBEGIN
1070
    73
1070
     1
1070
    44
1040
1.0
1070
    74
1070
     0
1000
MTEXTEND
  0
MTEXT
  5
123
330
1F
100
AcDbEntity
  8
0
 62
     7
100
AcDbMText
 10
24.61384320259095
 20
-36.9930107587944
 30
0.0
 40
3.200000047683716
 41
0.0
 46
0.0
 71
     5
 72
     1
  1
{\W1;90}
 73
     1
 44
1.0
1001
ACAD
1000
MTEXTBEGIN
1070
    73
1070
     1
1070
    44
1040
1.0
1070
    74
1070
     0
1000
MTEXTEND
  0
MTEXT
  5
124
330
1F
100
AcDbEntity
  8
0
 62
     7
100
AcDbMText
 10
51.25001907348631
 20
-36.9930107587944
 30
0.0
 40
3.200000047683716
 41
0.0
 46
0.0
 71
     5
 72
     1
  1
{\W1;54}
 73
     1
 44
1.0
1001
ACAD
1000
MTEXTBEGIN
1070
    73
1070
     1
1070
    44
1040
1.0
1070
    74
1070
     0
1000
MTEXTEND
  0
MTEXT
  5
125
330
1F
100
AcDbEntity
  8
0
 62
     7
100
AcDbMText
 10
77.25000381469725
 20
-36.9930107587944
 30
0.0
 40
3.200000047683716
 41
0.0
 46
0.0
 71
     5
 72
     1
  1
{\W1;157}
 73
     1
 44
1.0
1001
ACAD
1000
MTEXTBEGIN
1070
    73
1070
     1
1070
    44
1040
1.0
1070
    74
1070
     0
1000
MTEXTEND
  0
MTEXT
  5
126
330
1F
100
AcDbEntity
  8
0
 62
     7
100
AcDbMText
 10
-26.74999618530276
 20
-42.9930107587944
 30
0.0
 40
3.200000047683716
 41
0.0
 46
0.0
 71
     5
 72
     1
  1
89
 73
     1
 44
1.0
1001
ACAD
1000
MTEXTBEGIN
1070
    73
1070
     1
1070
    44
1040
1.0
1070
    74
1070
     0
1000
MTEXTEND
  0
MTEXT
  5
127
330
1F
100
AcDbEntity
  8
0
 62
     7
100
AcDbMText
 10
-1.164659233073177
 20
-42.89731576497294
 30
0.0
 40
3.200000047683716
 41
0.0
 46
0.0
 71
     5
 72
     1
  1
{\W1;90}
 73
     1
 44
1.0
1001
ACAD
1000
MTEXTBEGIN
1070
    73
1070
     1
1070
    44
1040
1.0
1070
    74
1070
     0
1000
MTEXTEND
  0
MTEXT
  5
128
330
1F
100
AcDbEntity
  8
0
 62
     7
100
AcDbMText
 10
24.61384320259095
 20
-42.9930107587944
 30
0.0
 40
3.200000047683716
 41
0.0
 46
0.0
 71
     5
 72
     1
  1
{\W1;90}
 73
     1
 44
1.0
1001
ACAD
1000
MTEXTBEGIN
1070
    73
1070
     1
1070
    44
1040
1.0
1070
    74
1070
     0
1000
MTEXTEND
  0
MTEXT
  5
129
330
1F
100
AcDbEntity
  8
0
 62
     7
100
AcDbMText
 10
51.25001907348631
 20
-42.9930107587944
 30
0.0
 40
3.200000047683716
 41
0.0
 46
0.0
 71
     5
 72
     1
  1
{\W1;62}
 73
     1
 44
1.0
1001
ACAD
1000
MTEXTBEGIN
1070
    73
1070
     1
1070
    44
1040
1.0
1070
    74
1070
     0
1000
MTEXTEND
  0
MTEXT
  5
12A
330
1F
100
AcDbEntity
  8
0
 62
     7
100
AcDbMText
 10
77.25000381469725
 20
-42.9930107587944
 30
0.0
 40
3.200000047683716
 41
0.0
 46
0.0
 71
     5
 72
     1
  1
{\W1;160}
 73
     1
 44
1.0
1001
ACAD
1000
MTEXTBEGIN
1070
    73
1070
     1
1070
    44
1040
1.0
1070
    74
1070
     0
1000
MTEXTEND
  0
MTEXT
  5
12B
330
1F
100
AcDbEntity
  8
0
 62
     7
100
AcDbMText
 10
-26.74999618530276
 20
-48.9930107587944
 30
0.0
 40
3.200000047683716
 41
0.0
 46
0.0
 71
     5
 72
     1
  1
89
 73
     1
 44
1.0
1001
ACAD
1000
MTEXTBEGIN
1070
    73
1070
     1
1070
    44
1040
1.0
1070
    74
1070
     0
1000
MTEXTEND
  0
MTEXT
  5
12C
330
1F
100
AcDbEntity
  8
0
 62
     7
100
AcDbMText
 10
-0.7499809265136827
 20
-48.9930107587944
 30
0.0
 40
3.200000047683716
 41
0.0
 46
0.0
 71
     5
 72
     1
  1
96
 73
     1
 44
1.0
1001
ACAD
1000
MTEXTBEGIN
1070
    73
1070
     1
1070
    44
1040
1.0
1070
    74
1070
     0
1000
MTEXTEND
  0
MTEXT
  5
12D
330
1F
100
AcDbEntity
  8
0
 62
     7
100
AcDbMText
 10
24.61384320259095
 20
-48.9930107587944
 30
0.0
 40
3.200000047683716
 41
0.0
 46
0.0
 71
     5
 72
     1
  1
{\W1;90}
 73
     1
 44
1.0
1001
ACAD
1000
MTEXTBEGIN
1070
    73
1070
     1
1070
    44
1040
1.0
1070
    74
1070
     0
1000
MTEXTEND
  0
MTEXT
  5
12E
330
1F
100
AcDbEntity
  8
0
 62
     7
100
AcDbMText
 10
51.25001907348631
 20
-48.99301075879439
 30
0.0
 40
3.200000047683716
 41
0.0
 46
0.0
 71
     5
 72
     1
  1
{\W1;66}
 73
     1
 44
1.0
1001
ACAD
1000
MTEXTBEGIN
1070
    73
1070
     1
1070
    44
1040
1.0
1070
    74
1070
     0
1000
MTEXTEND
  0
MTEXT
  5
12F
330
1F
100
AcDbEntity
  8
0
 62
     7
100
AcDbMText
 10
77.25000381469725
 20
-48.99301075879439
 30
0.0
 40
3.200000047683716
 41
0.0
 46
0.0
 71
     5
 72
     1
  1
{\W1;164}
 73
     1
 44
1.0
1001
ACAD
1000
MTEXTBEGIN
1070
    73
1070
     1
1070
    44
1040
1.0
1070
    74
1070
     0
1000
MTEXTEND
  0
MTEXT
  5
131
330
1F
100
AcDbEntity
  8
0
 62
     7
100
AcDbMText
 10
25.03167055050532
 20
-18.82720875684129
 30
0.0
 40
3.200000047683716
 41
0.0
 46
0.0
 71
     5
 72
     1
  1
{\W1;L1}
 73
     1
 44
1.0
1001
ACAD
1000
MTEXTBEGIN
1070
    73
1070
     1
1070
    44
1040
1.0
1070
    74
1070
     0
1000
MTEXTEND
  0
MTEXT
  5
132
330
1F
100
AcDbEntity
  8
0
 62
     7
100
AcDbMText
 10
51.25001907348631
 20
-18.99301075879441
 30
0.0
 40
3.200000047683716
 41
0.0
 46
0.0
 71
     5
 72
     1
  1
{\W1;L2}
 73
     1
 44
1.0
1001
ACAD
1000
MTEXTBEGIN
1070
    73
1070
     1
1070
    44
1040
1.0
1070
    74
1070
     0
1000
MTEXTEND
  0
MTEXT
  5
133
330
1F
100
AcDbEntity
  8
0
 62
     7
100
AcDbMText
 10
77.25000381469725
 20
-18.99301075879441
 30
0.0
 40
3.200000047683716
 41
0.0
 46
0.0
 71
     5
 72
     1
  1
{\W1;L}
 73
     1
 44
1.0
1001
ACAD
1000
MTEXTBEGIN
1070
    73
1070
     1
1070
    44
1040
1.0
1070
    74
1070
     0
1000
MTEXTEND
  0
MTEXT
  5
134
330
1F
100
AcDbEntity
  8
0
 62
     7
100
AcDbMText
 10
-85.33289861488166
 20
-67.93125569955915
 30
0.0
 40
2.5
 41
0.0
 46
0.0
 71
     7
 72
     1
  1
{\W0.8333;*寸法、仕様等は製品改良の為、予告無く変更する場合があります。（Ｈ２４．６）}
 73
     1
 44
1.0
1001
ACAD
1000
ACAD_MTEXT_DEFINED_HEIGHT_BEGIN
1070
    46
1040
0.0
1000
ACAD_MTEXT_DEFINED_HEIGHT_END
1000
MTEXTBEGIN
1070
    73
1070
     1
1070
    44
1040
1.0
1070
    74
1070
     0
1000
MTEXTEND
  0
MTEXT
  5
135
330
1F
100
AcDbEntity
  8
0
 62
     7
100
AcDbMText
 10
-85.44374542872944
 20
-59.42684533425775
 30
0.0
 40
2.5
 41
0.0
 46
0.0
 71
     7
 72
     1
  1
{\W0.833333;*形状は規格毎に異なります。}
 73
     1
 44
1.0
1001
ACAD
1000
MTEXTBEGIN
1070
    73
1070
     1
1070
    44
1040
1.0
1070
    74
1070
     0
1000
MTEXTEND
  0
MTEXT
  5
136
330
1F
100
AcDbEntity
  8
0
 62
     7
100
AcDbMText
 10
-85.27605924081276
 20
-63.50537933456028
 30
0.0
 40
2.5
 41
0.0
 46
0.0
 71
     7
 72
     1
  1
{\W0.833333;*ストッパ－の位置及び数は、規格毎に異なります。}
 73
     1
 44
1.0
1001
ACAD
1000
MTEXTBEGIN
1070
    73
1070
     1
1070
    44
1040
1.0
1070
    74
1070
     0
1000
MTEXTEND
  0
MTEXT
  5
137
330
1F
100
AcDbEntity
  8
0
 62
     7
100
AcDbMText
 10
77.64780459308514
 20
-58.31215767668513
 30
0.0
 40
3.200000047683716
 41
0.0
 46
0.0
 71
     7
 72
     1
  1
{\W1;(mm)}
 73
     1
 44
1.0
1001
ACAD
1000
MTEXTBEGIN
1070
    73
1070
     1
1070
    44
1040
1.0
1070
    74
1070
     0
1000
MTEXTEND
  0
DIMENSION
  5
138
330
1F
100
AcDbEntity
  8
寸法線
100
AcDbDimension
280
     0
  2
*D2
 10
-79.23157178024943
 20
43.76528122602091
 30
0.0
 11
-79.23157178024945
 21
25.70529129682171
 31
0.0
 70
   160
  1
∅A
 71
     5
 42
36.11997985839844
 73
     0
 74
     0
 75
     0
  3
ISO-25
100
AcDbAlignedDimension
 13
-52.3210302458256
 23
7.645301367622472
 33
0.0
 14
-52.3210302458256
 24
43.76528122602091
 34
0.0
 50
270.0
100
AcDbRotatedDimension
1001
ACAD
1000
DSTYLE
1002
{
1070
   278
1070
    46
1070
   147
1040
0.8000000119209291
1070
    77
1070
     1
1070
    74
1070
     0
1070
    73
1070
     0
1070
    42
1040
2.54
1070
    44
1040
1.124999999999972
1070
    76
1070
     0
1070
    75
1070
     0
1070
   279
1070
     0
1070
   271
1070
     0
1070
   173
1070
     1
1070
    41
1040
3.0
1070
   140
1040
3.200000047683716
1070
   344
1005
139
1070
   343
1005
139
1002
}
  0
DIMENSION
  5
153
330
1F
100
AcDbEntity
  8
寸法線
100
AcDbDimension
280
     0
  2
*D3
 10
13.84142435927691
 20
7.105277563911527
 30
0.0
 11
13.84142435927691
 21
25.70526840863812
 31
0.0
 70
   160
  1
∅B
 71
     5
 42
37.19998168945313
 73
     0
 74
     0
 75
     0
  3
ISO-25
100
AcDbAlignedDimension
 13
0.0629495515376828
 23
44.30525925336467
 33
0.0
 14
0.0629495515376828
 24
7.105277563911535
 34
0.0
 50
90.00000000000005
100
AcDbRotatedDimension
1001
ACAD
1000
DSTYLE
1002
{
1070
   278
1070
    46
1070
   147
1040
0.8000000119209291
1070
    77
1070
     1
1070
    74
1070
     0
1070
    73
1070
     0
1070
    42
1040
2.54
1070
    44
1040
1.125000000000027
1070
    76
1070
     0
1070
    75
1070
     0
1070
   279
1070
     0
1070
   271
1070
     0
1070
   173
1070
     1
1070
    41
1040
3.0
1070
   140
1040
3.200000047683716
1070
   344
1005
139
1070
   343
1005
139
1002
}
  0
DIMENSION
  5
167
330
1F
100
AcDbEntity
  8
寸法線
100
AcDbDimension
280
     0
  2
*D4
 10
-28.32103024582563
 20
60.5129542606889
 30
0.0
 11
-46.32103024582563
 21
60.5129542606889
 31
0.0
 70
   160
  1
L1
 71
     5
 42
36.00000000000004
 73
     0
 74
     0
 75
     0
  3
ISO-25
100
AcDbAlignedDimension
 13
-64.32103024582565
 23
45.80525925336464
 33
0.0
 14
-28.32103024582563
 24
43.58526566205607
 34
0.0
 50
180.0
100
AcDbRotatedDimension
1001
ACAD
1000
DSTYLE
1002
{
1070
   278
1070
    46
1070
   147
1040
0.8000000119209291
1070
    77
1070
     1
1070
    74
1070
     0
1070
    73
1070
     0
1070
    42
1040
2.54
1070
    44
1040
1.124999999999978
1070
    76
1070
     0
1070
    75
1070
     1
1070
   279
1070
     0
1070
   271
1070
     0
1070
   173
1070
     1
1070
    41
1040
3.0
1070
   140
1040
3.200000047683716
1070
   344
1005
139
1070
   343
1005
139
1002
}
  0
DIMENSION
  5
179
330
1F
100
AcDbEntity
  8
寸法線
100
AcDbDimension
280
     0
  2
*D5
 10
1.678969754174373
 20
60.5129542606889
 30
0.0
 11
-10.92103253464398
 21
60.5129542606889
 31
0.0
 70
   160
  1
L2
 71
     5
 42
25.20000457763672
 73
     0
 74
     0
 75
     0
  3
ISO-25
100
AcDbAlignedDimension
 13
-23.52103482346235
 23
44.30525925336466
 33
0.0
 14
1.678969754174373
 24
44.90526154218303
 34
0.0
 50
180.0
100
AcDbRotatedDimension
1001
ACAD
1000
DSTYLE
1002
{
1070
   278
1070
    46
1070
   147
1040
0.8000000119209291
1070
    77
1070
     1
1070
    74
1070
     0
1070
    73
1070
     0
1070
    42
1040
2.54
1070
    44
1040
1.124999999999978
1070
    76
1070
     1
1070
    75
1070
     0
1070
   279
1070
     0
1070
   271
1070
     0
1070
   173
1070
     1
1070
    41
1040
3.0
1070
   140
1040
3.200000047683716
1070
   344
1005
139
1070
   343
1005
139
1002
}
  0
DIMENSION
  5
18B
330
1F
100
AcDbEntity
  8
寸法線
100
AcDbDimension
280
     0
  2
*D6
 10
-64.32103024582565
 20
67.19775154767621
 30
0.0
 11
-31.32103024582562
 21
67.19775154767621
 31
0.0
 70
   160
  1
L
 71
     5
 42
66.00000000000003
 73
     0
 74
     0
 75
     0
  3
ISO-25
100
AcDbAlignedDimension
 13
1.678969754174373
 23
44.90526154218303
 33
0.0
 14
-64.32103024582565
 24
45.80525925336464
 34
0.0
100
AcDbRotatedDimension
1001
ACAD
1000
DSTYLE
1002
{
1070
   278
1070
    46
1070
   147
1040
0.8000000119209291
1070
    77
1070
     1
1070
    74
1070
     0
1070
    73
1070
     0
1070
    42
1040
2.54
1070
    44
1040
1.124999999999972
1070
    76
1070
     0
1070
    75
1070
     0
1070
   279
1070
     0
1070
   271
1070
     0
1070
   173
1070
     1
1070
    41
1040
3.0
1070
   140
1040
3.200000047683716
1070
   344
1005
139
1070
   343
1005
139
1002
}
  0
LINE
  5
1A1
330
1F
100
AcDbEntity
  8
VIEW0001
  6
Continuous
 62
     7
370
    30
100
AcDbLine
 10
-138.0
 20
95.0
 30
0.0
 11
138.5
 21
95.0
 31
0.0
  0
LINE
  5
1A2
330
1F
100
AcDbEntity
  8
VIEW0001
  6
Continuous
 62
     7
370
    30
100
AcDbLine
 10
138.5
 20
95.0
 30
0.0
 11
138.5
 21
-94.50000000000001
 31
0.0
  0
LINE
  5
1A3
330
1F
100
AcDbEntity
  8
VIEW0001
  6
Continuous
 62
     7
370
    30
100
AcDbLine
 10
-138.0
 20
-94.50000000000001
 30
0.0
 11
138.5
 21
-94.50000000000001
 31
0.0
  0
LINE
  5
1A4
330
1F
100
AcDbEntity
  8
VIEW0001
  6
Continuous
 62
     7
370
    30
100
AcDbLine
 10
-138.0
 20
95.0
 30
0.0
 11
-138.0
 21
-94.50000000000001
 31
0.0
  0
MTEXT
  5
1A9
330
1F
100
AcDbEntity
  8
VIEW0001
 62
     7
100
AcDbMText
 10
7.0
 20
-90.75000000000001
 30
0.0
 40
3.200000047683716
 41
0.0
 46
0.0
 71
     5
 72
     1
  1
{\W0.833333;ＶＵ用ｿｹｯﾄ（ﾄﾖﾄﾞﾚﾝﾀﾞﾌﾞﾙ管用）}
 73
     1
 44
1.0
1001
ACAD
1000
MTEXTBEGIN
1070
    73
1070
     1
1070
    44
1040
1.0
1070
    74
1070
     0
1000
MTEXTEND
  0
LINE
  5
224
330
1F
100
AcDbEntity
  8
外形線
  6
Continuous
100
AcDbLine
 10
138.5
 20
-87.0
 30
0.0
 11
-38.0
 21
-87.0
 31
0.0
  0
LINE
  5
227
330
1F
100
AcDbEntity
  8
外形線
  6
Continuous
100
AcDbLine
 10
52.0
 20
-94.50000000000001
 30
0.0
 11
52.0
 21
-87.0
 31
0.0
  0
LINE
  5
228
330
1F
100
AcDbEntity
  8
外形線
  6
Continuous
100
AcDbLine
 10
-38.0
 20
-94.50000000000001
 30
0.0
 11
-38.0
 21
-87.0
 31
0.0
  0
MTEXT
  5
23F
330
1F
100
AcDbEntity
  8
VIEW0002
 62
     7
100
AcDbMText
 10
-26.74999618530276
 20
-18.99301075879441
 30
0.0
 40
3.200000047683716
 41
0.0
 46
0.0
 71
     5
 72
     1
  1
{\W1;∅A}
 73
     1
 44
1.0
1001
ACAD
1000
MTEXTBEGIN
1070
    73
1070
     1
1070
    44
1040
1.0
1070
    74
1070
     0
1000
MTEXTEND
  0
MTEXT
  5
240
330
1F
100
AcDbEntity
  8
VIEW0002
 62
     7
100
AcDbMText
 10
-0.7499809265136827
 20
-18.99301075879441
 30
0.0
 40
3.200000047683716
 41
0.0
 46
0.0
 71
     5
 72
     1
  1
∅B
 73
     1
 44
1.0
1001
ACAD
1000
MTEXTBEGIN
1070
    73
1070
     1
1070
    44
1040
1.0
1070
    74
1070
     0
1000
MTEXTEND
  0
MTEXT
  5
3F7
330
1F
100
AcDbEntity
  8
VIEW0001
 62
     7
100
AcDbMText
 10
59.89285540580747
 20
-93.0
 30
0.0
 40
4.5
 41
0.0
 46
0.0
 71
     7
 72
     1
  1
{\W1.3889;　デンカ株式会社}
 73
     1
 44
1.0
  0
ENDSEC
  0
SECTION
  2
OBJECTS
  0
DICTIONARY
  5
C
330
0
100
AcDbDictionary
281
     1
  3
ACAD_CIP_PREVIOUS_PRODUCT_INFO
350
3EE
  3
ACAD_COLOR
350
1AD
  3
ACAD_DETAILVIEWSTYLE
350
3E9
  3
ACAD_GROUP
350
D
  3
ACAD_LAYOUT
350
1A
  3
ACAD_MATERIAL
350
1AC
  3
ACAD_MLEADERSTYLE
350
3E5
  3
ACAD_MLINESTYLE
350
17
  3
ACAD_PLOTSETTINGS
350
19
  3
ACAD_PLOTSTYLENAME
350
E
  3
ACAD_SCALELIST
350
3D3
  3
ACAD_SECTIONVIEWSTYLE
350
3E7
  3
ACAD_TABLESTYLE
350
1AE
  3
ACAD_VISUALSTYLE
350
3BA
  3
ACDB_RECOMPOSE_DATA
350
452
  3
AcDbVariableDictionary
350
218
  0
DICTIONARY
  5
3F8
330
10
100
AcDbDictionary
280
     1
281
     1
  3
ADSK_XREC_LAYER_RECONCILED
360
3F9
  0
DICTIONARY
  5
3FA
330
19F
100
AcDbDictionary
280
     1
281
     1
  3
ADSK_XREC_LAYER_RECONCILED
360
3FB
  0
DICTIONARY
  5
3FC
330
1B5
100
AcDbDictionary
280
     1
281
     1
  3
ADSK_XREC_LAYER_RECONCILED
360
3FD
  0
DICTIONARY
  5
3FE
330
1B6
100
AcDbDictionary
280
     1
281
     1
  3
ADSK_XREC_LAYER_RECONCILED
360
3FF
  0
DICTIONARY
  5
400
330
1B7
100
AcDbDictionary
280
     1
281
     1
  3
ADSK_XREC_LAYER_RECONCILED
360
401
  0
DICTIONARY
  5
402
330
1B8
100
AcDbDictionary
280
     1
281
     1
  3
ADSK_XREC_LAYER_RECONCILED
360
403
  0
DICTIONARY
  5
404
330
1B9
100
AcDbDictionary
280
     1
281
     1
  3
ADSK_XREC_LAYER_RECONCILED
360
405
  0
DICTIONARY
  5
406
330
1BA
100
AcDbDictionary
280
     1
281
     1
  3
ADSK_XREC_LAYER_RECONCILED
360
407
  0
DICTIONARY
  5
408
330
1BB
100
AcDbDictionary
280
     1
281
     1
  3
ADSK_XREC_LAYER_RECONCILED
360
409
  0
DICTIONARY
  5
40A
330
237
100
AcDbDictionary
280
     1
281
     1
  3
ADSK_XREC_LAYER_RECONCILED
360
40B
  0
DICTIONARY
  5
225
330
1F
100
AcDbDictionary
280
     1
281
     1
  3
ACAD_SORTENTS
360
226
  0
XRECORD
  5
3EE
102
{ACAD_REACTORS
330
C
102
}
330
C
100
AcDbXrecord
280
     1
300
ACDLT
300
2015
300
INVLTS_F_S
  0
DICTIONARY
  5
1AD
102
{ACAD_REACTORS
330
C
102
}
330
C
100
AcDbDictionary
281
     1
  0
DICTIONARY
  5
3E9
102
{ACAD_REACTORS
330
C
102
}
330
C
100
AcDbDictionary
281
     1
  3
Metric50
350
3EA
  0
DICTIONARY
  5
D
102
{ACAD_REACTORS
330
C
102
}
330
C
100
AcDbDictionary
281
     1
  0
DICTIONARY
  5
1A
102
{ACAD_REACTORS
330
C
102
}
330
C
100
AcDbDictionary
281
     1
  3
Layout1
350
1E
  3
Layout2
350
26
  3
Model
350
22
  0
DICTIONARY
  5
1AC
102
{ACAD_REACTORS
330
C
102
}
330
C
100
AcDbDictionary
281
     1
  3
ByBlock
350
3AA
  3
ByLayer
350
3A2
  3
Global
350
3B2
  0
DICTIONARY
  5
3E5
102
{ACAD_REACTORS
330
C
102
}
330
C
100
AcDbDictionary
281
     1
  3
Standard
350
3E6
  0
DICTIONARY
  5
17
102
{ACAD_REACTORS
330
C
102
}
330
C
100
AcDbDictionary
281
     1
  3
Standard
350
18
  0
DICTIONARY
  5
19
102
{ACAD_REACTORS
330
C
102
}
330
C
100
AcDbDictionary
281
     1
  0
ACDBDICTIONARYWDFLT
  5
E
102
{ACAD_REACTORS
330
C
102
}
330
C
100
AcDbDictionary
281
     1
  3
Normal
350
F
100
AcDbDictionaryWithDefault
340
F
  0
DICTIONARY
  5
3D3
102
{ACAD_REACTORS
330
C
102
}
330
C
100
AcDbDictionary
281
     1
  3
A0
350
3D4
  3
A1
350
3D5
  3
A2
350
3D6
  3
A3
350
3D7
  3
A4
350
3D8
  3
A5
350
3D9
  3
A6
350
3DA
  3
A7
350
3DB
  3
A8
350
3DC
  3
A9
350
3DD
  3
B0
350
3DE
  3
B1
350
3DF
  3
B2
350
3E0
  3
B3
350
3E1
  3
B4
350
3E2
  3
B5
350
3E3
  3
B6
350
3E4
  0
DICTIONARY
  5
3E7
102
{ACAD_REACTORS
330
C
102
}
330
C
100
AcDbDictionary
281
     1
  3
Metric50
350
3E8
  0
DICTIONARY
  5
1AE
102
{ACAD_REACTORS
330
C
102
}
330
C
100
AcDbDictionary
281
     1
  3
Standard
350
1AF
  0
DICTIONARY
  5
3BA
102
{ACAD_REACTORS
330
C
102
}
330
C
100
AcDbDictionary
281
     1
  3
2dWireframe
350
3C0
  3
Basic
350
3BF
  3
Brighten
350
3C6
  3
ColorChange
350
3CA
  3
Conceptual
350
3C3
  3
Dim
350
3C5
  3
EdgeColorOff
350
3D2
  3
Facepattern
350
3C9
  3
Flat
350
3BB
  3
FlatWithEdges
350
3BC
  3
Gouraud
350
3BD
  3
GouraudWithEdges
350
3BE
  3
Hidden
350
3C2
  3
JitterOff
350
3D0
  3
Linepattern
350
3C8
  3
OverhangOff
350
3D1
  3
Realistic
350
3C4
  3
Shaded
350
3CF
  3
Shaded with edges
350
3CE
  3
Shades of Gray
350
3CB
  3
Sketchy
350
3CC
  3
Thicken
350
3C7
  3
Wireframe
350
3C1
  3
X-Ray
350
3CD
  0
XRECORD
  5
452
102
{ACAD_REACTORS
330
C
102
}
330
C
100
AcDbXrecord
280
     1
 90
        1
330
1AF
  0
DICTIONARY
  5
218
102
{ACAD_REACTORS
330
C
102
}
330
C
100
AcDbDictionary
281
     1
  3
CANNOSCALE
350
44C
  3
CMLEADERSTYLE
350
448
  3
CTABLESTYLE
350
219
  3
CVIEWDETAILSTYLE
350
449
  3
CVIEWSECTIONSTYLE
350
44A
  3
DIMASSOC
350
21A
  3
LAYEREVAL
350
44E
  3
LAYERNOTIFY
350
44F
  3
LIGHTINGUNITS
350
44D
  3
MSLTSCALE
350
44B
  3
PROJECTNAME
350
21B
  0
XRECORD
  5
3F9
102
{ACAD_REACTORS
330
3F8
102
}
330
3F8
100
AcDbXrecord
280
     1
290
     1
  0
XRECORD
  5
3FB
102
{ACAD_REACTORS
330
3FA
102
}
330
3FA
100
AcDbXrecord
280
     1
290
     1
  0
XRECORD
  5
3FD
102
{ACAD_REACTORS
330
3FC
102
}
330
3FC
100
AcDbXrecord
280
     1
290
     1
  0
XRECORD
  5
3FF
102
{ACAD_REACTORS
330
3FE
102
}
330
3FE
100
AcDbXrecord
280
     1
290
     1
  0
XRECORD
  5
401
102
{ACAD_REACTORS
330
400
102
}
330
400
100
AcDbXrecord
280
     1
290
     1
  0
XRECORD
  5
403
102
{ACAD_REACTORS
330
402
102
}
330
402
100
AcDbXrecord
280
     1
290
     1
  0
XRECORD
  5
405
102
{ACAD_REACTORS
330
404
102
}
330
404
100
AcDbXrecord
280
     1
290
     1
  0
XRECORD
  5
407
102
{ACAD_REACTORS
330
406
102
}
330
406
100
AcDbXrecord
280
     1
290
     1
  0
XRECORD
  5
409
102
{ACAD_REACTORS
330
408
102
}
330
408
100
AcDbXrecord
280
     1
290
     1
  0
XRECORD
  5
40B
102
{ACAD_REACTORS
330
40A
102
}
330
40A
100
AcDbXrecord
280
     1
290
     1
  0
SORTENTSTABLE
  5
226
102
{ACAD_REACTORS
330
225
102
}
330
225
100
AcDbSortentsTable
330
1F
331
5E
  5
5E
331
9D
  5
9D
331
66
  5
66
331
A5
  5
A5
331
6E
  5
6E
331
CE
  5
CE
331
10D
  5
10D
331
D6
  5
D6
331
115
  5
115
331
11D
  5
11D
331
DE
  5
DE
331
E6
  5
E6
331
37
  5
37
331
76
  5
76
331
7E
  5
7E
331
3F
  5
3F
331
47
  5
47
331
86
  5
86
331
4F
  5
4F
331
8E
  5
8E
331
EE
  5
EE
331
125
  5
125
331
AF
  5
AF
331
B7
  5
B7
331
F6
  5
F6
331
12D
  5
12D
331
135
  5
135
331
BF
  5
BF
331
FE
  5
FE
331
106
  5
106
331
C7
  5
C7
331
57
  5
57
331
96
  5
96
331
9E
  5
9E
331
5F
  5
5F
331
A6
  5
A6
331
67
  5
67
331
6F
  5
6F
331
10E
  5
10E
331
CF
  5
CF
331
D7
  5
D7
331
DF
  5
DF
331
11E
  5
11E
331
E7
  5
E7
331
30
  5
30
331
38
  5
38
331
77
  5
77
331
40
  5
40
331
7F
  5
7F
331
153
  5
153
331
48
  5
48
331
87
  5
87
331
8F
  5
8F
331
A8
  5
A8
331
126
  5
126
331
B0
  5
B0
331
EF
  5
EF
331
F7
  5
F7
331
12E
  5
12E
331
B8
  5
B8
331
FF
  5
FF
331
136
  5
136
331
C0
  5
C0
331
107
  5
107
331
50
  5
50
331
58
  5
58
331
97
  5
97
331
18B
  5
18B
331
60
  5
60
331
9F
  5
9F
331
68
  5
68
331
A7
  5
A7
331
C8
  5
C8
331
D0
  5
D0
331
10F
  5
10F
331
117
  5
117
331
D8
  5
D8
331
11F
  5
11F
331
E0
  5
E0
331
31
  5
31
331
70
  5
70
331
227
  5
1A6
331
39
  5
39
331
78
  5
78
331
80
  5
80
331
41
  5
41
331
49
  5
49
331
88
  5
88
331
E8
  5
E8
331
A9
  5
A9
331
B1
  5
B1
331
F0
  5
F0
331
127
  5
127
331
B9
  5
B9
331
F8
  5
F8
331
12F
  5
12F
331
137
  5
137
331
C1
  5
C1
331
100
  5
100
331
51
  5
51
331
90
  5
90
331
59
  5
59
331
98
  5
98
331
A0
  5
A0
331
61
  5
61
331
69
  5
69
331
108
  5
108
331
C9
  5
C9
331
110
  5
110
331
D1
  5
D1
331
D9
  5
D9
331
118
  5
118
331
E1
  5
E1
331
71
  5
71
331
32
  5
32
331
3A
  5
3A
331
79
  5
79
331
42
  5
42
331
81
  5
81
331
4A
  5
4A
331
89
  5
89
331
120
  5
120
331
AA
  5
AA
331
E9
  5
E9
331
128
  5
128
331
B2
  5
B2
331
F1
  5
F1
331
F9
  5
F9
331
BA
  5
BA
331
C2
  5
C2
331
101
  5
101
331
91
  5
91
331
52
  5
52
331
5A
  5
5A
331
99
  5
99
331
62
  5
62
331
A1
  5
A1
331
6A
  5
6A
331
CA
  5
CA
331
109
  5
109
331
228
  5
1A9
331
D2
  5
D2
331
111
  5
111
331
119
  5
119
331
DA
  5
DA
331
E2
  5
E2
331
33
  5
33
331
72
  5
72
331
7A
  5
7A
331
3B
  5
3B
331
82
  5
82
331
43
  5
43
331
4B
  5
4B
331
8A
  5
8A
331
EA
  5
EA
331
121
  5
121
331
AB
  5
AB
331
B3
  5
B3
331
F2
  5
F2
331
129
  5
129
331
131
  5
131
331
BB
  5
BB
331
FA
  5
FA
331
1A1
  5
1A1
331
C3
  5
C3
331
102
  5
102
331
53
  5
53
331
92
  5
92
331
2F
  5
2F
331
5B
  5
5B
331
9A
  5
9A
331
A2
  5
A2
331
63
  5
63
331
6B
  5
6B
331
10A
  5
10A
331
1A9
  5
228
331
CB
  5
CB
331
D3
  5
D3
331
112
  5
112
331
DB
  5
DB
331
11A
  5
11A
331
E3
  5
E3
331
73
  5
73
331
34
  5
34
331
3C
  5
3C
331
7B
  5
7B
331
44
  5
44
331
83
  5
83
331
8B
  5
8B
331
4C
  5
4C
331
122
  5
122
331
AC
  5
AC
331
EB
  5
EB
331
12A
  5
12A
331
B4
  5
B4
331
F3
  5
F3
331
FB
  5
FB
331
132
  5
132
331
BC
  5
BC
331
C4
  5
C4
331
103
  5
103
331
1A2
  5
1A2
331
93
  5
93
331
167
  5
167
331
54
  5
54
331
5C
  5
5C
331
9B
  5
9B
331
64
  5
64
331
A3
  5
A3
331
138
  5
138
331
6C
  5
6C
331
CC
  5
CC
331
10B
  5
10B
331
D4
  5
D4
331
113
  5
113
331
11B
  5
11B
331
DC
  5
DC
331
E4
  5
E4
331
35
  5
35
331
74
  5
74
331
7C
  5
7C
331
3D
  5
3D
331
84
  5
84
331
45
  5
45
331
4D
  5
4D
331
8C
  5
8C
331
EC
  5
EC
331
123
  5
123
331
AD
  5
AD
331
B5
  5
B5
331
F4
  5
F4
331
12B
  5
12B
331
133
  5
133
331
BD
  5
BD
331
FC
  5
FC
331
1A3
  5
1A3
331
C5
  5
C5
331
104
  5
104
331
55
  5
55
331
94
  5
94
331
9C
  5
9C
331
5D
  5
5D
331
A4
  5
A4
331
65
  5
65
331
6D
  5
6D
331
10C
  5
10C
331
CD
  5
CD
331
D5
  5
D5
331
114
  5
114
331
DD
  5
DD
331
11C
  5
11C
331
E5
  5
E5
331
36
  5
36
331
75
  5
75
331
3E
  5
3E
331
7D
  5
7D
331
46
  5
46
331
85
  5
85
331
8D
  5
8D
331
4E
  5
4E
331
124
  5
124
331
AE
  5
AE
331
ED
  5
ED
331
F5
  5
F5
331
12C
  5
12C
331
B6
  5
B6
331
FD
  5
FD
331
134
  5
134
331
BE
  5
BE
331
C6
  5
C6
331
105
  5
105
331
1A4
  5
1A4
331
95
  5
95
331
179
  5
179
331
56
  5
56
  0
ACDBDETAILVIEWSTYLE
  5
3EA
102
{ACAD_XDICTIONARY
360
485
102
}
102
{ACAD_REACTORS
330
3E9
102
}
330
3E9
100
AcDbModelDocViewStyle
 70
     0
  3
Metric50
290
     0
100
AcDbDetailViewStyle
 70
     0
 71
     0
 90
        3
 71
     1
340
11
 62
   256
 40
5.0
340
0
 62
   256
 40
5.0
300

 40
0.0
280
     1
 71
     2
340
16
 90
       25
 62
   256
 71
     3
340
11
 62
   256
 40
5.0
 90
        0
 40
15.0
 90
        1
300
%<\AcVar ViewDetailId>% (%<\AcVar ViewScale \f "%sn">%)
 71
     4
340
16
 90
       25
 62
   256
340
16
 90
       25
 62
   256
280
     0
  0
LAYOUT
  5
1E
102
{ACAD_REACTORS
330
1A
102
}
330
1A
100
AcDbPlotSettings
  1

  2

  4

  6

 40
0.0
 41
0.0
 42
0.0
 43
0.0
 44
0.0
 45
0.0
 46
0.0
 47
0.0
 48
0.0
 49
0.0
140
0.0
141
0.0
142
1.0
143
1.0
 70
   688
 72
     0
 73
     0
 74
     5
  7
monochrome.ctb
 75
    16
147
1.0
 76
     0
 77
     2
 78
   300
148
0.0
149
0.0
100
AcDbLayout
  1
Layout1
 70
     1
 71
     1
 10
-148.0
 20
-104.5
 11
149.0
 21
105.5
 12
0.0
 22
0.0
 32
0.0
 14
1.000000000000000E+20
 24
1.000000000000000E+20
 34
1.000000000000000E+20
 15
-1.000000000000000E+20
 25
-1.000000000000000E+20
 35
-1.000000000000000E+20
146
0.0
 13
0.0
 23
0.0
 33
0.0
 16
1.0
 26
0.0
 36
0.0
 17
0.0
 27
1.0
 37
0.0
 76
     0
330
1B
  0
LAYOUT
  5
26
102
{ACAD_REACTORS
330
1A
102
}
330
1A
100
AcDbPlotSettings
  1

  2

  4

  6

 40
0.0
 41
0.0
 42
0.0
 43
0.0
 44
0.0
 45
0.0
 46
0.0
 47
0.0
 48
0.0
 49
0.0
140
0.0
141
0.0
142
1.0
143
1.0
 70
   688
 72
     0
 73
     0
 74
     5
  7
monochrome.ctb
 75
    16
147
1.0
 76
     0
 77
     2
 78
   300
148
0.0
149
0.0
100
AcDbLayout
  1
Layout2
 70
     1
 71
     2
 10
0.0
 20
0.0
 11
0.0
 21
0.0
 12
0.0
 22
0.0
 32
0.0
 14
0.0
 24
0.0
 34
0.0
 15
0.0
 25
0.0
 35
0.0
146
0.0
 13
0.0
 23
0.0
 33
0.0
 16
1.0
 26
0.0
 36
0.0
 17
0.0
 27
1.0
 37
0.0
 76
     0
330
23
  0
LAYOUT
  5
22
102
{ACAD_REACTORS
330
1A
102
}
330
1A
100
AcDbPlotSettings
  1

  2
Adobe PDF
  4
A4
  6

 40
3.174999952316282
 41
3.174999952316282
 42
3.175003051757812
 43
3.17498779296875
 44
209.9733276367186
 45
297.0318298339844
 46
7.051149022578584
 47
7.073861730090527
 48
-140.3129315826783
 49
-96.10085812139757
140
140.4838073312604
141
96.43464541177706
142
1.0
143
1.0
 70
 11956
 72
     1
 73
     1
 74
     1
  7
monochrome.ctb
 75
    16
147
1.0
 76
     0
 77
     2
 78
   300
148
138.0163109423782
149
94.50884959708066
100
AcDbLayout
  1
Model
 70
     1
 71
     0
 10
-148.0
 20
-104.5
 11
149.0
 21
105.5
 12
0.0
 22
0.0
 32
0.0
 14
-148.0
 24
-104.5
 34
0.0
 15
149.0
 25
105.5
 35
0.0
146
0.0
 13
0.0
 23
0.0
 33
0.0
 16
1.0
 26
0.0
 36
0.0
 17
0.0
 27
1.0
 37
0.0
 76
     0
330
1F
331
398
1001
ACAD_PSEXT
1000
Adobe PDF
1000
Adobe PDF Converter
1000
My Documents
1000

1070
     0
  0
MATERIAL
  5
3AA
102
{ACAD_XDICTIONARY
360
3AB
102
}
102
{ACAD_REACTORS
330
1AC
102
}
330
1AC
100
AcDbMaterial
  1
ByBlock
 72
     0
 43
0.0008202099737533
 43
0.0
 43
0.0
 43
0.0
 43
0.0
 43
0.0008202099737533
 43
0.0
 43
0.0
 43
0.0
 43
0.0
 43
1.0
 43
0.0
 43
0.0
 43
0.0
 43
0.0
 43
1.0
 77
     0
 47
0.0008202099737533
 47
0.0
 47
0.0
 47
0.0
 47
0.0
 47
0.0008202099737533
 47
0.0
 47
0.0
 47
0.0
 47
0.0
 47
1.0
 47
0.0
 47
0.0
 47
0.0
 47
0.0
 47
1.0
171
     0
 49
0.0008202099737533
 49
0.0
 49
0.0
 49
0.0
 49
0.0
 49
0.0008202099737533
 49
0.0
 49
0.0
 49
0.0
 49
0.0
 49
1.0
 49
0.0
 49
0.0
 49
0.0
 49
0.0
 49
1.0
175
     0
142
0.0008202099737533
142
0.0
142
0.0
142
0.0
142
0.0
142
0.0008202099737533
142
0.0
142
0.0
142
0.0
142
0.0
142
1.0
142
0.0
142
0.0
142
0.0
142
0.0
142
1.0
179
     0
144
0.0008202099737533
144
0.0
144
0.0
144
0.0
144
0.0
144
0.0008202099737533
144
0.0
144
0.0
144
0.0
144
0.0
144
1.0
144
0.0
144
0.0
144
0.0
144
0.0
144
1.0
147
0.0008202099737533
147
0.0
147
0.0
147
0.0
147
0.0
147
0.0008202099737533
147
0.0
147
0.0
147
0.0
147
0.0
147
1.0
147
0.0
147
0.0
147
0.0
147
0.0
147
1.0
  0
MATERIAL
  5
3A2
102
{ACAD_XDICTIONARY
360
3A3
102
}
102
{ACAD_REACTORS
330
1AC
102
}
330
1AC
100
AcDbMaterial
  1
ByLayer
 72
     0
 43
0.0008202099737533
 43
0.0
 43
0.0
 43
0.0
 43
0.0
 43
0.0008202099737533
 43
0.0
 43
0.0
 43
0.0
 43
0.0
 43
1.0
 43
0.0
 43
0.0
 43
0.0
 43
0.0
 43
1.0
 77
     0
 47
0.0008202099737533
 47
0.0
 47
0.0
 47
0.0
 47
0.0
 47
0.0008202099737533
 47
0.0
 47
0.0
 47
0.0
 47
0.0
 47
1.0
 47
0.0
 47
0.0
 47
0.0
 47
0.0
 47
1.0
171
     0
 49
0.0008202099737533
 49
0.0
 49
0.0
 49
0.0
 49
0.0
 49
0.0008202099737533
 49
0.0
 49
0.0
 49
0.0
 49
0.0
 49
1.0
 49
0.0
 49
0.0
 49
0.0
 49
0.0
 49
1.0
175
     0
142
0.0008202099737533
142
0.0
142
0.0
142
0.0
142
0.0
142
0.0008202099737533
142
0.0
142
0.0
142
0.0
142
0.0
142
1.0
142
0.0
142
0.0
142
0.0
142
0.0
142
1.0
179
     0
144
0.0008202099737533
144
0.0
144
0.0
144
0.0
144
0.0
144
0.0008202099737533
144
0.0
144
0.0
144
0.0
144
0.0
144
1.0
144
0.0
144
0.0
144
0.0
144
0.0
144
1.0
147
0.0008202099737533
147
0.0
147
0.0
147
0.0
147
0.0
147
0.0008202099737533
147
0.0
147
0.0
147
0.0
147
0.0
147
1.0
147
0.0
147
0.0
147
0.0
147
0.0
147
1.0
  0
MATERIAL
  5
3B2
102
{ACAD_XDICTIONARY
360
3B3
102
}
102
{ACAD_REACTORS
330
1AC
102
}
330
1AC
100
AcDbMaterial
  1
Global
 72
     0
 43
0.0008202099737533
 43
0.0
 43
0.0
 43
0.0
 43
0.0
 43
0.0008202099737533
 43
0.0
 43
0.0
 43
0.0
 43
0.0
 43
1.0
 43
0.0
 43
0.0
 43
0.0
 43
0.0
 43
1.0
 77
     0
 47
0.0008202099737533
 47
0.0
 47
0.0
 47
0.0
 47
0.0
 47
0.0008202099737533
 47
0.0
 47
0.0
 47
0.0
 47
0.0
 47
1.0
 47
0.0
 47
0.0
 47
0.0
 47
0.0
 47
1.0
171
     0
 49
0.0008202099737533
 49
0.0
 49
0.0
 49
0.0
 49
0.0
 49
0.0008202099737533
 49
0.0
 49
0.0
 49
0.0
 49
0.0
 49
1.0
 49
0.0
 49
0.0
 49
0.0
 49
0.0
 49
1.0
175
     0
142
0.0008202099737533
142
0.0
142
0.0
142
0.0
142
0.0
142
0.0008202099737533
142
0.0
142
0.0
142
0.0
142
0.0
142
1.0
142
0.0
142
0.0
142
0.0
142
0.0
142
1.0
179
     0
144
0.0008202099737533
144
0.0
144
0.0
144
0.0
144
0.0
144
0.0008202099737533
144
0.0
144
0.0
144
0.0
144
0.0
144
1.0
144
0.0
144
0.0
144
0.0
144
0.0
144
1.0
147
0.0008202099737533
147
0.0
147
0.0
147
0.0
147
0.0
147
0.0008202099737533
147
0.0
147
0.0
147
0.0
147
0.0
147
1.0
147
0.0
147
0.0
147
0.0
147
0.0
147
1.0
  0
MLEADERSTYLE
  5
3E6
102
{ACAD_REACTORS
330
3E5
102
}
330
3E5
100
AcDbMLeaderStyle
179
     2
170
     2
171
     1
172
     0
 90
        2
 40
0.0
 41
0.0
173
     1
 91
-1056964608
340
14
 92
       -2
290
     1
 42
2.0
291
     1
 43
0.36
  3
Standard
 44
4.0
300

342
11
174
     1
178
     6
175
     1
176
     0
 93
-1056964608
 45
4.0
292
     0
297
     0
 46
4.0
 94
-1056964608
 47
1.0
 49
1.0
140
1.0
293
     1
141
0.0
294
     1
177
     0
142
1.0
295
     0
296
     0
143
0.125
271
     0
272
     9
273
     9
  0
MLINESTYLE
  5
18
102
{ACAD_REACTORS
330
17
102
}
330
17
100
AcDbMlineStyle
  2
STANDARD
 70
     0
  3

 62
   256
 51
90.0
 52
90.0
 71
     2
 49
0.5
 62
   256
  6
BYLAYER
 49
-0.5
 62
   256
  6
BYLAYER
  0
ACDBPLACEHOLDER
  5
F
102
{ACAD_REACTORS
330
E
102
}
330
E
  0
SCALE
  5
3D4
102
{ACAD_REACTORS
330
3D3
102
}
330
3D3
100
AcDbScale
 70
     0
300
1:1
140
1.0
141
1.0
290
     1
  0
SCALE
  5
3D5
102
{ACAD_REACTORS
330
3D3
102
}
330
3D3
100
AcDbScale
 70
     0
300
1:2
140
1.0
141
2.0
290
     0
  0
SCALE
  5
3D6
102
{ACAD_REACTORS
330
3D3
102
}
330
3D3
100
AcDbScale
 70
     0
300
1:4
140
1.0
141
4.0
290
     0
  0
SCALE
  5
3D7
102
{ACAD_REACTORS
330
3D3
102
}
330
3D3
100
AcDbScale
 70
     0
300
1:5
140
1.0
141
5.0
290
     0
  0
SCALE
  5
3D8
102
{ACAD_REACTORS
330
3D3
102
}
330
3D3
100
AcDbScale
 70
     0
300
1:8
140
1.0
141
8.0
290
     0
  0
SCALE
  5
3D9
102
{ACAD_REACTORS
330
3D3
102
}
330
3D3
100
AcDbScale
 70
     0
300
1:10
140
1.0
141
10.0
290
     0
  0
SCALE
  5
3DA
102
{ACAD_REACTORS
330
3D3
102
}
330
3D3
100
AcDbScale
 70
     0
300
1:16
140
1.0
141
16.0
290
     0
  0
SCALE
  5
3DB
102
{ACAD_REACTORS
330
3D3
102
}
330
3D3
100
AcDbScale
 70
     0
300
1:20
140
1.0
141
20.0
290
     0
  0
SCALE
  5
3DC
102
{ACAD_REACTORS
330
3D3
102
}
330
3D3
100
AcDbScale
 70
     0
300
1:30
140
1.0
141
30.0
290
     0
  0
SCALE
  5
3DD
102
{ACAD_REACTORS
330
3D3
102
}
330
3D3
100
AcDbScale
 70
     0
300
1:40
140
1.0
141
40.0
290
     0
  0
SCALE
  5
3DE
102
{ACAD_REACTORS
330
3D3
102
}
330
3D3
100
AcDbScale
 70
     0
300
1:50
140
1.0
141
50.0
290
     0
  0
SCALE
  5
3DF
102
{ACAD_REACTORS
330
3D3
102
}
330
3D3
100
AcDbScale
 70
     0
300
1:100
140
1.0
141
100.0
290
     0
  0
SCALE
  5
3E0
102
{ACAD_REACTORS
330
3D3
102
}
330
3D3
100
AcDbScale
 70
     0
300
2:1
140
2.0
141
1.0
290
     0
  0
SCALE
  5
3E1
102
{ACAD_REACTORS
330
3D3
102
}
330
3D3
100
AcDbScale
 70
     0
300
4:1
140
4.0
141
1.0
290
     0
  0
SCALE
  5
3E2
102
{ACAD_REACTORS
330
3D3
102
}
330
3D3
100
AcDbScale
 70
     0
300
8:1
140
8.0
141
1.0
290
     0
  0
SCALE
  5
3E3
102
{ACAD_REACTORS
330
3D3
102
}
330
3D3
100
AcDbScale
 70
     0
300
10:1
140
10.0
141
1.0
290
     0
  0
SCALE
  5
3E4
102
{ACAD_REACTORS
330
3D3
102
}
330
3D3
100
AcDbScale
 70
     0
300
100:1
140
100.0
141
1.0
290
     0
  0
ACDBSECTIONVIEWSTYLE
  5
3E8
102
{ACAD_XDICTIONARY
360
483
102
}
102
{ACAD_REACTORS
330
3E7
102
}
330
3E7
100
AcDbModelDocViewStyle
 70
     0
  3
Metric50
290
     0
100
AcDbSectionViewStyle
 70
     0
 71
     0
 90
      102
 71
     1
340
11
 62
   256
 40
5.0
340
0
340
0
 62
   256
 40
5.0
300
I, O, Q, S, X, Z
 40
10.0
 90
        0
 40
2.5
 90
        0
 71
     2
340
16
 90
       25
 62
   256
340
16
 90
       50
 62
   256
 40
5.0
 40
2.5
 40
5.0
 71
     3
340
11
 62
   256
 40
5.0
 90
        0
 40
15.0
 90
        1
300
%<\AcVar ViewSectionStartId>%-%<\AcVar ViewSectionEndId>% (%<\AcVar ViewScale \f "%sn">%)
 71
     4
 62
   256
 62
   257
300
ANSI31
 40
1.0
 90
        0
290
     0
290
     0
 90
        6
 40
0.0
 40
1.570796326794896
 40
0.2617993877991494
 40
1.308996938995747
 40
-0.2617993877991494
 40
1.832595714594046
  0
TABLESTYLE
  5
1AF
102
{ACAD_XDICTIONARY
360
450
102
}
102
{ACAD_REACTORS
330
1AE
102
}
330
1AE
100
AcDbTableStyle
280
     0
  3
Standard
 70
     0
 71
     0
 40
1.5
 41
1.5
280
     0
281
     0
  7
Standard
140
4.5
170
     2
 62
     0
 63
     7
283
     0
 90
        4
 91
        0
  1

274
    -2
284
     1
 64
     0
275
    -2
285
     1
 65
     0
276
    -2
286
     1
 66
     0
277
    -2
287
     1
 67
     0
278
    -2
288
     1
 68
     0
279
    -2
289
     1
 69
     0
  7
Standard
140
6.0
170
     5
 62
     0
 63
     7
283
     0
 90
        4
 91
        0
  1

274
    -2
284
     1
 64
     0
275
    -2
285
     1
 65
     0
276
    -2
286
     1
 66
     0
277
    -2
287
     1
 67
     0
278
    -2
288
     1
 68
     0
279
    -2
289
     1
 69
     0
  7
Standard
140
4.5
170
     5
 62
     0
 63
     7
283
     0
 90
        4
 91
        0
  1

274
    -2
284
     1
 64
     0
275
    -2
285
     1
 65
     0
276
    -2
286
     1
 66
     0
277
    -2
287
     1
 67
     0
278
    -2
288
     1
 68
     0
279
    -2
289
     1
 69
     0
  0
VISUALSTYLE
  5
3C0
102
{ACAD_XDICTIONARY
360
45D
102
}
102
{ACAD_REACTORS
330
3BA
102
}
330
3BA
100
AcDbVisualStyle
  2
2dWireframe
 70
     4
177
     2
291
     0
 71
     0
176
     1
 72
     2
176
     1
 73
     0
176
     1
 90
        0
176
     1
 40
0.6
176
     1
 41
30.0
176
     1
 63
     7
421
 16777215
176
     1
 74
     1
176
     1
 91
        4
176
     1
 64
     7
176
     1
 65
   257
176
     1
 75
     1
176
     1
175
     1
176
     1
 42
1.0
176
     1
 92
        0
176
     1
 66
   257
176
     1
 43
1.0
176
     1
 76
     1
176
     1
 77
     6
176
     1
 78
     2
176
     1
 67
     7
176
     1
 79
     5
176
     1
170
     0
176
     1
171
     0
176
     1
290
     0
176
     1
 93
        1
176
     1
 44
0.0
176
     1
173
     0
176
     1
1001
ACAD
1000
AcDbSavedByObjectVersion
1070
     0
  0
VISUALSTYLE
  5
3BF
102
{ACAD_XDICTIONARY
360
45B
102
}
102
{ACAD_REACTORS
330
3BA
102
}
330
3BA
100
AcDbVisualStyle
  2
Basic
 70
     7
177
     2
291
     1
 71
     1
176
     1
 72
     0
176
     1
 73
     1
176
     1
 90
        0
176
     1
 40
0.6
176
     1
 41
30.0
176
     1
 63
     7
421
 16777215
176
     1
 74
     0
176
     1
 91
        4
176
     1
 64
     7
176
     1
 65
   257
176
     1
 75
     1
176
     1
175
     1
176
     1
 42
1.0
176
     1
 92
        8
176
     1
 66
     7
176
     1
 43
1.0
176
     1
 76
     1
176
     1
 77
     6
176
     1
 78
     2
176
     1
 67
     7
176
     1
 79
     5
176
     1
170
     0
176
     1
171
     0
176
     1
290
     0
176
     1
 93
        1
176
     1
 44
0.0
176
     1
173
     0
176
     1
1001
ACAD
1000
AcDbSavedByObjectVersion
1070
     0
  0
VISUALSTYLE
  5
3C6
102
{ACAD_XDICTIONARY
360
469
102
}
102
{ACAD_REACTORS
330
3BA
102
}
330
3BA
100
AcDbVisualStyle
  2
Brighten
 70
    12
177
     2
291
     1
 71
     2
176
     1
 72
     2
176
     1
 73
     0
176
     1
 90
        0
176
     1
 40
0.6
176
     1
 41
30.0
176
     1
 63
     7
421
 16777215
176
     1
 74
     1
176
     1
 91
        4
176
     1
 64
     7
176
     1
 65
   257
176
     1
 75
     1
176
     1
175
     1
176
     1
 42
1.0
176
     1
 92
        8
176
     1
 66
     7
176
     1
 43
1.0
176
     1
 76
     1
176
     1
 77
     6
176
     1
 78
     2
176
     1
 67
     7
176
     1
 79
     5
176
     1
170
     0
176
     1
171
     0
176
     1
290
     0
176
     1
 93
        1
176
     1
 44
50.0
176
     1
173
     0
176
     1
1001
ACAD
1000
AcDbSavedByObjectVersion
1070
     0
  0
VISUALSTYLE
  5
3CA
102
{ACAD_XDICTIONARY
360
471
102
}
102
{ACAD_REACTORS
330
3BA
102
}
330
3BA
100
AcDbVisualStyle
  2
ColorChange
 70
    16
177
     2
291
     1
 71
     2
176
     1
 72
     2
176
     1
 73
     3
176
     1
 90
        0
176
     1
 40
0.6
176
     1
 41
30.0
176
     1
 63
     8
421
  8421504
176
     1
 74
     1
176
     1
 91
        4
176
     1
 64
     7
176
     1
 65
   257
176
     1
 75
     1
176
     1
175
     1
176
     1
 42
1.0
176
     1
 92
        8
176
     1
 66
     8
424
  8421504
176
     1
 43
1.0
176
     1
 76
     1
176
     1
 77
     6
176
     1
 78
     2
176
     1
 67
     7
176
     1
 79
     5
176
     1
170
     0
176
     1
171
     0
176
     1
290
     0
176
     1
 93
        1
176
     1
 44
0.0
176
     1
173
     0
176
     1
1001
ACAD
1000
AcDbSavedByObjectVersion
1070
     0
  0
VISUALSTYLE
  5
3C3
102
{ACAD_XDICTIONARY
360
463
102
}
102
{ACAD_REACTORS
330
3BA
102
}
330
3BA
100
AcDbVisualStyle
  2
Conceptual
 70
     9
177
     2
291
     0
 71
     3
176
     1
 72
     2
176
     1
 73
     0
176
     1
 90
        0
176
     1
 40
0.6
176
     1
 41
30.0
176
     1
 63
     7
421
 16777215
176
     1
 74
     2
176
     1
 91
        2
176
     1
 64
     7
176
     1
 65
   257
176
     1
 75
     1
176
     1
175
     1
176
     1
 42
179.0
176
     1
 92
        8
176
     1
 66
     7
176
     1
 43
1.0
176
     1
 76
     1
176
     1
 77
     6
176
     1
 78
     2
176
     1
 67
     7
176
     1
 79
     3
176
     1
170
     0
176
     1
171
     0
176
     1
290
     0
176
     1
 93
        1
176
     1
 44
0.0
176
     1
173
     0
176
     1
1001
ACAD
1000
AcDbSavedByObjectVersion
1070
     0
  0
VISUALSTYLE
  5
3C5
102
{ACAD_XDICTIONARY
360
467
102
}
102
{ACAD_REACTORS
330
3BA
102
}
330
3BA
100
AcDbVisualStyle
  2
Dim
 70
    11
177
     2
291
     1
 71
     2
176
     1
 72
     2
176
     1
 73
     0
176
     1
 90
        0
176
     1
 40
0.6
176
     1
 41
30.0
176
     1
 63
     7
421
 16777215
176
     1
 74
     1
176
     1
 91
        4
176
     1
 64
     7
176
     1
 65
   257
176
     1
 75
     1
176
     1
175
     1
176
     1
 42
1.0
176
     1
 92
        8
176
     1
 66
     7
176
     1
 43
1.0
176
     1
 76
     1
176
     1
 77
     6
176
     1
 78
     2
176
     1
 67
     7
176
     1
 79
     5
176
     1
170
     0
176
     1
171
     0
176
     1
290
     0
176
     1
 93
        1
176
     1
 44
-50.0
176
     1
173
     0
176
     1
1001
ACAD
1000
AcDbSavedByObjectVersion
1070
     0
  0
VISUALSTYLE
  5
3D2
102
{ACAD_XDICTIONARY
360
481
102
}
102
{ACAD_REACTORS
330
3BA
102
}
330
3BA
100
AcDbVisualStyle
  2
EdgeColorOff
 70
    22
177
     2
291
     1
 71
     2
176
     0
 72
     2
176
     0
 73
     0
176
     0
 90
        0
176
     0
 40
0.6
176
     0
 41
30.0
176
     0
 63
     7
421
 16777215
176
     0
 74
     1
176
     0
 91
        4
176
     0
 64
     7
176
     0
 65
   257
176
     0
 75
     1
176
     0
175
     1
176
     0
 42
1.0
176
     0
 92
        8
176
     2
 66
     7
176
     0
 43
1.0
176
     0
 76
     1
176
     0
 77
     6
176
     0
 78
     2
176
     0
 67
     7
176
     0
 79
     5
176
     0
170
     0
176
     0
171
     0
176
     0
290
     0
176
     0
 93
        1
176
     0
 44
0.0
176
     0
173
     0
176
     0
1001
ACAD
1000
AcDbSavedByObjectVersion
1070
     0
  0
VISUALSTYLE
  5
3C9
102
{ACAD_XDICTIONARY
360
46F
102
}
102
{ACAD_REACTORS
330
3BA
102
}
330
3BA
100
AcDbVisualStyle
  2
Facepattern
 70
    15
177
     2
291
     1
 71
     2
176
     1
 72
     2
176
     1
 73
     0
176
     1
 90
        0
176
     1
 40
0.6
176
     1
 41
30.0
176
     1
 63
     7
421
 16777215
176
     1
 74
     1
176
     1
 91
        4
176
     1
 64
     7
176
     1
 65
   257
176
     1
 75
     1
176
     1
175
     1
176
     1
 42
1.0
176
     1
 92
        8
176
     1
 66
     7
176
     1
 43
1.0
176
     1
 76
     1
176
     1
 77
     6
176
     1
 78
     2
176
     1
 67
     7
176
     1
 79
     5
176
     1
170
     0
176
     1
171
     0
176
     1
290
     0
176
     1
 93
        1
176
     1
 44
0.0
176
     1
173
     0
176
     1
1001
ACAD
1000
AcDbSavedByObjectVersion
1070
     0
  0
VISUALSTYLE
  5
3BB
102
{ACAD_XDICTIONARY
360
453
102
}
102
{ACAD_REACTORS
330
3BA
102
}
330
3BA
100
AcDbVisualStyle
  2
Flat
 70
     0
177
     2
291
     1
 71
     2
176
     1
 72
     1
176
     1
 73
     1
176
     1
 90
        2
176
     1
 40
0.6
176
     1
 41
30.0
176
     1
 63
     7
421
 16777215
176
     1
 74
     0
176
     1
 91
        0
176
     1
 64
     7
176
     1
 65
   257
176
     1
 75
     1
176
     1
175
     1
176
     1
 42
1.0
176
     1
 92
        8
176
     1
 66
     7
176
     1
 43
1.0
176
     1
 76
     1
176
     1
 77
     6
176
     1
 78
     2
176
     1
 67
     7
176
     1
 79
     5
176
     1
170
     0
176
     1
171
     0
176
     1
290
     0
176
     1
 93
       13
176
     1
 44
0.0
176
     1
173
     0
176
     1
1001
ACAD
1000
AcDbSavedByObjectVersion
1070
     0
  0
VISUALSTYLE
  5
3BC
102
{ACAD_XDICTIONARY
360
455
102
}
102
{ACAD_REACTORS
330
3BA
102
}
330
3BA
100
AcDbVisualStyle
  2
FlatWithEdges
 70
     1
177
     2
291
     1
 71
     2
176
     1
 72
     1
176
     1
 73
     1
176
     1
 90
        2
176
     1
 40
0.6
176
     1
 41
30.0
176
     1
 63
     7
421
 16777215
176
     1
 74
     1
176
     1
 91
        0
176
     1
 64
     7
176
     1
 65
   257
176
     1
 75
     1
176
     1
175
     1
176
     1
 42
1.0
176
     1
 92
        0
176
     1
 66
   257
176
     1
 43
1.0
176
     1
 76
     1
176
     1
 77
     6
176
     1
 78
     2
176
     1
 67
     7
176
     1
 79
     5
176
     1
170
     0
176
     1
171
     0
176
     1
290
     0
176
     1
 93
       13
176
     1
 44
0.0
176
     1
173
     0
176
     1
1001
ACAD
1000
AcDbSavedByObjectVersion
1070
     0
  0
VISUALSTYLE
  5
3BD
102
{ACAD_XDICTIONARY
360
457
102
}
102
{ACAD_REACTORS
330
3BA
102
}
330
3BA
100
AcDbVisualStyle
  2
Gouraud
 70
     2
177
     2
291
     1
 71
     2
176
     1
 72
     2
176
     1
 73
     1
176
     1
 90
        2
176
     1
 40
0.6
176
     1
 41
30.0
176
     1
 63
     7
421
 16777215
176
     1
 74
     0
176
     1
 91
        0
176
     1
 64
     7
176
     1
 65
   257
176
     1
 75
     1
176
     1
175
     1
176
     1
 42
1.0
176
     1
 92
        0
176
     1
 66
     7
176
     1
 43
1.0
176
     1
 76
     1
176
     1
 77
     6
176
     1
 78
     2
176
     1
 67
     7
176
     1
 79
     5
176
     1
170
     0
176
     1
171
     0
176
     1
290
     0
176
     1
 93
       13
176
     1
 44
0.0
176
     1
173
     0
176
     1
1001
ACAD
1000
AcDbSavedByObjectVersion
1070
     0
  0
VISUALSTYLE
  5
3BE
102
{ACAD_XDICTIONARY
360
459
102
}
102
{ACAD_REACTORS
330
3BA
102
}
330
3BA
100
AcDbVisualStyle
  2
GouraudWithEdges
 70
     3
177
     2
291
     1
 71
     2
176
     1
 72
     2
176
     1
 73
     1
176
     1
 90
        2
176
     1
 40
0.6
176
     1
 41
30.0
176
     1
 63
     7
421
 16777215
176
     1
 74
     1
176
     1
 91
        0
176
     1
 64
     7
176
     1
 65
   257
176
     1
 75
     1
176
     1
175
     1
176
     1
 42
1.0
176
     1
 92
        0
176
     1
 66
   257
176
     1
 43
1.0
176
     1
 76
     1
176
     1
 77
     6
176
     1
 78
     2
176
     1
 67
     7
176
     1
 79
     5
176
     1
170
     0
176
     1
171
     0
176
     1
290
     0
176
     1
 93
       13
176
     1
 44
0.0
176
     1
173
     0
176
     1
1001
ACAD
1000
AcDbSavedByObjectVersion
1070
     0
  0
VISUALSTYLE
  5
3C2
102
{ACAD_XDICTIONARY
360
461
102
}
102
{ACAD_REACTORS
330
3BA
102
}
330
3BA
100
AcDbVisualStyle
  2
Hidden
 70
     6
177
     2
291
     0
 71
     1
176
     1
 72
     2
176
     1
 73
     2
176
     1
 90
        0
176
     1
 40
0.6
176
     1
 41
30.0
176
     1
 63
     7
421
 16777215
176
     1
 74
     2
176
     1
 91
        2
176
     1
 64
     7
176
     1
 65
   257
176
     1
 75
     2
176
     1
175
     1
176
     1
 42
40.0
176
     1
 92
        0
176
     1
 66
   257
176
     1
 43
1.0
176
     1
 76
     1
176
     1
 77
     6
176
     1
 78
     2
176
     1
 67
     7
176
     1
 79
     3
176
     1
170
     0
176
     1
171
     0
176
     1
290
     0
176
     1
 93
        1
176
     1
 44
0.0
176
     1
173
     0
176
     1
1001
ACAD
1000
AcDbSavedByObjectVersion
1070
     0
  0
VISUALSTYLE
  5
3D0
102
{ACAD_XDICTIONARY
360
47D
102
}
102
{ACAD_REACTORS
330
3BA
102
}
330
3BA
100
AcDbVisualStyle
  2
JitterOff
 70
    20
177
     2
291
     1
 71
     2
176
     0
 72
     2
176
     0
 73
     0
176
     0
 90
        0
176
     0
 40
0.6
176
     0
 41
30.0
176
     0
 63
     7
421
 16777215
176
     0
 74
     1
176
     0
 91
        4
176
     0
 64
     7
176
     0
 65
   257
176
     0
 75
     1
176
     0
175
     1
176
     0
 42
1.0
176
     0
 92
       10
176
     2
 66
     7
176
     0
 43
1.0
176
     0
 76
     1
176
     0
 77
     6
176
     0
 78
     2
176
     0
 67
     7
176
     0
 79
     5
176
     0
170
     0
176
     0
171
     0
176
     0
290
     0
176
     0
 93
        1
176
     0
 44
0.0
176
     0
173
     0
176
     0
1001
ACAD
1000
AcDbSavedByObjectVersion
1070
     0
  0
VISUALSTYLE
  5
3C8
102
{ACAD_XDICTIONARY
360
46D
102
}
102
{ACAD_REACTORS
330
3BA
102
}
330
3BA
100
AcDbVisualStyle
  2
Linepattern
 70
    14
177
     2
291
     1
 71
     2
176
     1
 72
     2
176
     1
 73
     0
176
     1
 90
        0
176
     1
 40
0.6
176
     1
 41
30.0
176
     1
 63
     7
421
 16777215
176
     1
 74
     1
176
     1
 91
        4
176
     1
 64
     7
176
     1
 65
   257
176
     1
 75
     7
176
     1
175
     7
176
     1
 42
1.0
176
     1
 92
        8
176
     1
 66
     7
176
     1
 43
1.0
176
     1
 76
     1
176
     1
 77
     6
176
     1
 78
     2
176
     1
 67
     7
176
     1
 79
     5
176
     1
170
     0
176
     1
171
     0
176
     1
290
     0
176
     1
 93
        1
176
     1
 44
0.0
176
     1
173
     0
176
     1
1001
ACAD
1000
AcDbSavedByObjectVersion
1070
     0
  0
VISUALSTYLE
  5
3D1
102
{ACAD_XDICTIONARY
360
47F
102
}
102
{ACAD_REACTORS
330
3BA
102
}
330
3BA
100
AcDbVisualStyle
  2
OverhangOff
 70
    21
177
     2
291
     1
 71
     2
176
     0
 72
     2
176
     0
 73
     0
176
     0
 90
        0
176
     0
 40
0.6
176
     0
 41
30.0
176
     0
 63
     7
421
 16777215
176
     0
 74
     1
176
     0
 91
        4
176
     0
 64
     7
176
     0
 65
   257
176
     0
 75
     1
176
     0
175
     1
176
     0
 42
1.0
176
     0
 92
        9
176
     2
 66
     7
176
     0
 43
1.0
176
     0
 76
     1
176
     0
 77
     6
176
     0
 78
     2
176
     0
 67
     7
176
     0
 79
     5
176
     0
170
     0
176
     0
171
     0
176
     0
290
     0
176
     0
 93
        1
176
     0
 44
0.0
176
     0
173
     0
176
     0
1001
ACAD
1000
AcDbSavedByObjectVersion
1070
     0
  0
VISUALSTYLE
  5
3C4
102
{ACAD_XDICTIONARY
360
465
102
}
102
{ACAD_REACTORS
330
3BA
102
}
330
3BA
100
AcDbVisualStyle
  2
Realistic
 70
     8
177
     2
291
     0
 71
     2
176
     1
 72
     3
176
     1
 73
     0
176
     1
 90
        2
176
     1
 40
0.6
176
     1
 41
30.0
176
     1
 63
     7
421
 16777215
176
     1
 74
     0
176
     1
 91
        0
176
     1
 64
     7
176
     1
 65
   257
176
     1
 75
     1
176
     1
175
     1
176
     1
 42
1.0
176
     1
 92
        8
176
     1
 66
   257
176
     1
 43
1.0
176
     1
 76
     1
176
     1
 77
     6
176
     1
 78
     2
176
     1
 67
     7
176
     1
 79
     3
176
     1
170
     0
176
     1
171
     0
176
     1
290
     0
176
     1
 93
       13
176
     1
 44
0.0
176
     1
173
     0
176
     1
1001
ACAD
1000
AcDbSavedByObjectVersion
1070
     0
  0
VISUALSTYLE
  5
3CF
102
{ACAD_XDICTIONARY
360
47B
102
}
102
{ACAD_REACTORS
330
3BA
102
}
330
3BA
100
AcDbVisualStyle
  2
Shaded
 70
    27
177
     2
291
     0
 71
     2
176
     1
 72
     2
176
     1
 73
     1
176
     1
 90
        2
176
     1
 40
0.6
176
     1
 41
30.0
176
     1
 63
     7
421
 16777215
176
     1
 74
     0
176
     1
 91
        4
176
     1
 64
     7
176
     1
 65
   257
176
     1
 75
     1
176
     1
175
     1
176
     1
 42
1.0
176
     1
 92
        8
176
     1
 66
   257
176
     1
 43
1.0
176
     1
 76
     1
176
     1
 77
     6
176
     1
 78
     2
176
     1
 67
     8
425
  7895160
176
     1
 79
     3
176
     1
170
     0
176
     1
171
     0
176
     1
290
     0
176
     1
 93
        5
176
     1
 44
0.0
176
     1
173
     0
176
     1
1001
ACAD
1000
AcDbSavedByObjectVersion
1070
     0
  0
VISUALSTYLE
  5
3CE
102
{ACAD_XDICTIONARY
360
479
102
}
102
{ACAD_REACTORS
330
3BA
102
}
330
3BA
100
AcDbVisualStyle
  2
Shaded with edges
 70
    26
177
     2
291
     0
 71
     2
176
     1
 72
     2
176
     1
 73
     1
176
     1
 90
        2
176
     1
 40
0.6
176
     1
 41
30.0
176
     1
 63
     7
421
 16777215
176
     1
 74
     1
176
     1
 91
       10
176
     1
 64
     7
176
     1
 65
   257
176
     1
 75
     2
176
     1
175
     1
176
     1
 42
1.0
176
     1
 92
        8
176
     1
 66
   257
176
     1
 43
1.0
176
     1
 76
     1
176
     1
 77
     6
176
     1
 78
     2
176
     1
 67
     7
176
     1
 79
     3
176
     1
170
     0
176
     1
171
     0
176
     1
290
     0
176
     1
 93
        5
176
     1
 44
0.0
176
     1
173
     0
176
     1
1001
ACAD
1000
AcDbSavedByObjectVersion
1070
     0
  0
VISUALSTYLE
  5
3CB
102
{ACAD_XDICTIONARY
360
473
102
}
102
{ACAD_REACTORS
330
3BA
102
}
330
3BA
100
AcDbVisualStyle
  2
Shades of Gray
 70
    23
177
     2
291
     0
 71
     2
176
     1
 72
     2
176
     1
 73
     3
176
     1
 90
        0
176
     1
 40
0.6
176
     1
 41
30.0
176
     1
 63
     7
421
 16777215
176
     1
 74
     2
176
     1
 91
        2
176
     1
 64
     7
176
     1
 65
     7
176
     1
 75
     1
176
     1
175
     1
176
     1
 42
40.0
176
     1
 92
        8
176
     1
 66
     7
176
     1
 43
1.0
176
     1
 76
     1
176
     1
 77
     6
176
     1
 78
     2
176
     1
 67
     7
176
     1
 79
     3
176
     1
170
     0
176
     1
171
     0
176
     1
290
     0
176
     1
 93
        1
176
     1
 44
0.0
176
     1
173
     0
176
     1
1001
ACAD
1000
AcDbSavedByObjectVersion
1070
     0
  0
VISUALSTYLE
  5
3CC
102
{ACAD_XDICTIONARY
360
475
102
}
102
{ACAD_REACTORS
330
3BA
102
}
330
3BA
100
AcDbVisualStyle
  2
Sketchy
 70
    24
177
     2
291
     0
 71
     1
176
     1
 72
     2
176
     1
 73
     2
176
     1
 90
        0
176
     1
 40
0.6
176
     1
 41
30.0
176
     1
 63
     7
421
 16777215
176
     1
 74
     2
176
     1
 91
        2
176
     1
 64
     7
176
     1
 65
     7
176
     1
 75
     1
176
     1
175
     1
176
     1
 42
40.0
176
     1
 92
       11
176
     1
 66
     7
176
     1
 43
1.0
176
     1
 76
     1
176
     1
 77
     6
176
     1
 78
     2
176
     1
 67
     7
176
     1
 79
     6
176
     1
170
     0
176
     1
171
     0
176
     1
290
     0
176
     1
 93
        1
176
     1
 44
0.0
176
     1
173
     0
176
     1
1001
ACAD
1000
AcDbSavedByObjectVersion
1070
     0
  0
VISUALSTYLE
  5
3C7
102
{ACAD_XDICTIONARY
360
46B
102
}
102
{ACAD_REACTORS
330
3BA
102
}
330
3BA
100
AcDbVisualStyle
  2
Thicken
 70
    13
177
     2
291
     1
 71
     2
176
     1
 72
     2
176
     1
 73
     0
176
     1
 90
        0
176
     1
 40
0.6
176
     1
 41
30.0
176
     1
 63
     7
421
 16777215
176
     1
 74
     1
176
     1
 91
        4
176
     1
 64
     7
176
     1
 65
   257
176
     1
 75
     1
176
     1
175
     1
176
     1
 42
1.0
176
     1
 92
       12
176
     1
 66
     7
176
     1
 43
1.0
176
     1
 76
     1
176
     1
 77
     6
176
     1
 78
     2
176
     1
 67
     7
176
     1
 79
     5
176
     1
170
     0
176
     1
171
     0
176
     1
290
     0
176
     1
 93
        1
176
     1
 44
0.0
176
     1
173
     0
176
     1
1001
ACAD
1000
AcDbSavedByObjectVersion
1070
     0
  0
VISUALSTYLE
  5
3C1
102
{ACAD_XDICTIONARY
360
45F
102
}
102
{ACAD_REACTORS
330
3BA
102
}
330
3BA
100
AcDbVisualStyle
  2
Wireframe
 70
     5
177
     2
291
     0
 71
     0
176
     1
 72
     2
176
     1
 73
     0
176
     1
 90
        0
176
     1
 40
0.6
176
     1
 41
30.0
176
     1
 63
     7
421
 16777215
176
     1
 74
     1
176
     1
 91
        4
176
     1
 64
     7
176
     1
 65
   257
176
     1
 75
     1
176
     1
175
     1
176
     1
 42
1.0
176
     1
 92
        0
176
     1
 66
   257
176
     1
 43
1.0
176
     1
 76
     1
176
     1
 77
     6
176
     1
 78
     2
176
     1
 67
     7
176
     1
 79
     3
176
     1
170
     0
176
     1
171
     0
176
     1
290
     0
176
     1
 93
        1
176
     1
 44
0.0
176
     1
173
     0
176
     1
1001
ACAD
1000
AcDbSavedByObjectVersion
1070
     0
  0
VISUALSTYLE
  5
3CD
102
{ACAD_XDICTIONARY
360
477
102
}
102
{ACAD_REACTORS
330
3BA
102
}
330
3BA
100
AcDbVisualStyle
  2
X-Ray
 70
    25
177
     2
291
     0
 71
     2
176
     1
 72
     2
176
     1
 73
     1
176
     1
 90
        1
176
     1
 40
0.5
176
     1
 41
30.0
176
     1
 63
     7
421
 16777215
176
     1
 74
     1
176
     1
 91
        0
176
     1
 64
     7
176
     1
 65
   257
176
     1
 75
     1
176
     1
175
     1
176
     1
 42
1.0
176
     1
 92
        8
176
     1
 66
     7
176
     1
 43
1.0
176
     1
 76
     1
176
     1
 77
     6
176
     1
 78
     2
176
     1
 67
     7
176
     1
 79
     3
176
     1
170
     0
176
     1
171
     0
176
     1
290
     0
176
     1
 93
       13
176
     1
 44
0.0
176
     1
173
     0
176
     1
1001
ACAD
1000
AcDbSavedByObjectVersion
1070
     0
  0
DICTIONARYVAR
  5
44C
102
{ACAD_REACTORS
330
218
102
}
330
218
100
DictionaryVariables
280
     0
  1
1:1
  0
DICTIONARYVAR
  5
448
102
{ACAD_REACTORS
330
218
102
}
330
218
100
DictionaryVariables
280
     0
  1
STANDARD
  0
DICTIONARYVAR
  5
219
102
{ACAD_REACTORS
330
218
102
}
330
218
100
DictionaryVariables
280
     0
  1
STANDARD
  0
DICTIONARYVAR
  5
449
102
{ACAD_REACTORS
330
218
102
}
330
218
100
DictionaryVariables
280
     0
  1
Metric50
  0
DICTIONARYVAR
  5
44A
102
{ACAD_REACTORS
330
218
102
}
330
218
100
DictionaryVariables
280
     0
  1
Metric50
  0
DICTIONARYVAR
  5
21A
102
{ACAD_REACTORS
330
218
102
}
330
218
100
DictionaryVariables
280
     0
  1
1
  0
DICTIONARYVAR
  5
44E
102
{ACAD_REACTORS
330
218
102
}
330
218
100
DictionaryVariables
280
     0
  1
1
  0
DICTIONARYVAR
  5
44F
102
{ACAD_REACTORS
330
218
102
}
330
218
100
DictionaryVariables
280
     0
  1
15
  0
DICTIONARYVAR
  5
44D
102
{ACAD_REACTORS
330
218
102
}
330
218
100
DictionaryVariables
280
     0
  1
0
  0
DICTIONARYVAR
  5
44B
102
{ACAD_REACTORS
330
218
102
}
330
218
100
DictionaryVariables
280
     0
  1
0
  0
DICTIONARYVAR
  5
21B
102
{ACAD_REACTORS
330
218
102
}
330
218
100
DictionaryVariables
280
     0
  1

  0
DICTIONARY
  5
485
330
3EA
100
AcDbDictionary
280
     1
281
     1
  3
ACAD_XREC_ROUNDTRIP
360
486
  0
DICTIONARY
  5
3AB
330
3AA
100
AcDbDictionary
280
     1
281
     1
  3
BUMPTILE
360
3AD
  3
DIFFUSETILE
360
3AC
  3
OPACITYTILE
360
3B0
  3
REFLECTIONTILE
360
3AF
  3
REFRACTIONTILE
360
3B1
  3
SPECULARTILE
360
3AE
  0
DICTIONARY
  5
3A3
330
3A2
100
AcDbDictionary
280
     1
281
     1
  3
BUMPTILE
360
3A5
  3
DIFFUSETILE
360
3A4
  3
OPACITYTILE
360
3A8
  3
REFLECTIONTILE
360
3A7
  3
REFRACTIONTILE
360
3A9
  3
SPECULARTILE
360
3A6
  0
DICTIONARY
  5
3B3
330
3B2
100
AcDbDictionary
280
     1
281
     1
  3
BUMPTILE
360
3B5
  3
DIFFUSETILE
360
3B4
  3
OPACITYTILE
360
3B8
  3
REFLECTIONTILE
360
3B7
  3
REFRACTIONTILE
360
3B9
  3
SPECULARTILE
360
3B6
  0
DICTIONARY
  5
483
330
3E8
100
AcDbDictionary
280
     1
281
     1
  3
ACAD_XREC_ROUNDTRIP
360
484
  0
DICTIONARY
  5
450
330
1AF
100
AcDbDictionary
280
     1
281
     1
  3
ACAD_ROUNDTRIP_2008_TABLESTYLE_CELLSTYLEMAP
360
451
  0
DICTIONARY
  5
45D
330
3C0
100
AcDbDictionary
280
     1
281
     1
  3
ACAD_XREC_ROUNDTRIP
360
45E
  0
DICTIONARY
  5
45B
330
3BF
100
AcDbDictionary
280
     1
281
     1
  3
ACAD_XREC_ROUNDTRIP
360
45C
  0
DICTIONARY
  5
469
330
3C6
100
AcDbDictionary
280
     1
281
     1
  3
ACAD_XREC_ROUNDTRIP
360
46A
  0
DICTIONARY
  5
471
330
3CA
100
AcDbDictionary
280
     1
281
     1
  3
ACAD_XREC_ROUNDTRIP
360
472
  0
DICTIONARY
  5
463
330
3C3
100
AcDbDictionary
280
     1
281
     1
  3
ACAD_XREC_ROUNDTRIP
360
464
  0
DICTIONARY
  5
467
330
3C5
100
AcDbDictionary
280
     1
281
     1
  3
ACAD_XREC_ROUNDTRIP
360
468
  0
DICTIONARY
  5
481
330
3D2
100
AcDbDictionary
280
     1
281
     1
  3
ACAD_XREC_ROUNDTRIP
360
482
  0
DICTIONARY
  5
46F
330
3C9
100
AcDbDictionary
280
     1
281
     1
  3
ACAD_XREC_ROUNDTRIP
360
470
  0
DICTIONARY
  5
453
330
3BB
100
AcDbDictionary
280
     1
281
     1
  3
ACAD_XREC_ROUNDTRIP
360
454
  0
DICTIONARY
  5
455
330
3BC
100
AcDbDictionary
280
     1
281
     1
  3
ACAD_XREC_ROUNDTRIP
360
456
  0
DICTIONARY
  5
457
330
3BD
100
AcDbDictionary
280
     1
281
     1
  3
ACAD_XREC_ROUNDTRIP
360
458
  0
DICTIONARY
  5
459
330
3BE
100
AcDbDictionary
280
     1
281
     1
  3
ACAD_XREC_ROUNDTRIP
360
45A
  0
DICTIONARY
  5
461
330
3C2
100
AcDbDictionary
280
     1
281
     1
  3
ACAD_XREC_ROUNDTRIP
360
462
  0
DICTIONARY
  5
47D
330
3D0
100
AcDbDictionary
280
     1
281
     1
  3
ACAD_XREC_ROUNDTRIP
360
47E
  0
DICTIONARY
  5
46D
330
3C8
100
AcDbDictionary
280
     1
281
     1
  3
ACAD_XREC_ROUNDTRIP
360
46E
  0
DICTIONARY
  5
47F
330
3D1
100
AcDbDictionary
280
     1
281
     1
  3
ACAD_XREC_ROUNDTRIP
360
480
  0
DICTIONARY
  5
465
330
3C4
100
AcDbDictionary
280
     1
281
     1
  3
ACAD_XREC_ROUNDTRIP
360
466
  0
DICTIONARY
  5
47B
330
3CF
100
AcDbDictionary
280
     1
281
     1
  3
ACAD_XREC_ROUNDTRIP
360
47C
  0
DICTIONARY
  5
479
330
3CE
100
AcDbDictionary
280
     1
281
     1
  3
ACAD_XREC_ROUNDTRIP
360
47A
  0
DICTIONARY
  5
473
330
3CB
100
AcDbDictionary
280
     1
281
     1
  3
ACAD_XREC_ROUNDTRIP
360
474
  0
DICTIONARY
  5
475
330
3CC
100
AcDbDictionary
280
     1
281
     1
  3
ACAD_XREC_ROUNDTRIP
360
476
  0
DICTIONARY
  5
46B
330
3C7
100
AcDbDictionary
280
     1
281
     1
  3
ACAD_XREC_ROUNDTRIP
360
46C
  0
DICTIONARY
  5
45F
330
3C1
100
AcDbDictionary
280
     1
281
     1
  3
ACAD_XREC_ROUNDTRIP
360
460
  0
DICTIONARY
  5
477
330
3CD
100
AcDbDictionary
280
     1
281
     1
  3
ACAD_XREC_ROUNDTRIP
360
478
  0
XRECORD
  5
486
102
{ACAD_REACTORS
330
485
102
}
330
485
100
AcDbXrecord
280
     1
102
DISPLAYNAME
  1
Metric50
102
FLAGS
 90
        0
  0
XRECORD
  5
3AD
102
{ACAD_REACTORS
330
3AB
102
}
330
3AB
100
AcDbXrecord
280
     1
270
     1
271
     1
  0
XRECORD
  5
3AC
102
{ACAD_REACTORS
330
3AB
102
}
330
3AB
100
AcDbXrecord
280
     1
270
     1
271
     1
  0
XRECORD
  5
3B0
102
{ACAD_REACTORS
330
3AB
102
}
330
3AB
100
AcDbXrecord
280
     1
270
     1
271
     1
  0
XRECORD
  5
3AF
102
{ACAD_REACTORS
330
3AB
102
}
330
3AB
100
AcDbXrecord
280
     1
270
     1
271
     1
  0
XRECORD
  5
3B1
102
{ACAD_REACTORS
330
3AB
102
}
330
3AB
100
AcDbXrecord
280
     1
270
     1
271
     1
  0
XRECORD
  5
3AE
102
{ACAD_REACTORS
330
3AB
102
}
330
3AB
100
AcDbXrecord
280
     1
270
     1
271
     1
  0
XRECORD
  5
3A5
102
{ACAD_REACTORS
330
3A3
102
}
330
3A3
100
AcDbXrecord
280
     1
270
     1
271
     1
  0
XRECORD
  5
3A4
102
{ACAD_REACTORS
330
3A3
102
}
330
3A3
100
AcDbXrecord
280
     1
270
     1
271
     1
  0
XRECORD
  5
3A8
102
{ACAD_REACTORS
330
3A3
102
}
330
3A3
100
AcDbXrecord
280
     1
270
     1
271
     1
  0
XRECORD
  5
3A7
102
{ACAD_REACTORS
330
3A3
102
}
330
3A3
100
AcDbXrecord
280
     1
270
     1
271
     1
  0
XRECORD
  5
3A9
102
{ACAD_REACTORS
330
3A3
102
}
330
3A3
100
AcDbXrecord
280
     1
270
     1
271
     1
  0
XRECORD
  5
3A6
102
{ACAD_REACTORS
330
3A3
102
}
330
3A3
100
AcDbXrecord
280
     1
270
     1
271
     1
  0
XRECORD
  5
3B5
102
{ACAD_REACTORS
330
3B3
102
}
330
3B3
100
AcDbXrecord
280
     1
270
     1
271
     1
  0
XRECORD
  5
3B4
102
{ACAD_REACTORS
330
3B3
102
}
330
3B3
100
AcDbXrecord
280
     1
270
     1
271
     1
  0
XRECORD
  5
3B8
102
{ACAD_REACTORS
330
3B3
102
}
330
3B3
100
AcDbXrecord
280
     1
270
     1
271
     1
  0
XRECORD
  5
3B7
102
{ACAD_REACTORS
330
3B3
102
}
330
3B3
100
AcDbXrecord
280
     1
270
     1
271
     1
  0
XRECORD
  5
3B9
102
{ACAD_REACTORS
330
3B3
102
}
330
3B3
100
AcDbXrecord
280
     1
270
     1
271
     1
  0
XRECORD
  5
3B6
102
{ACAD_REACTORS
330
3B3
102
}
330
3B3
100
AcDbXrecord
280
     1
270
     1
271
     1
  0
XRECORD
  5
484
102
{ACAD_REACTORS
330
483
102
}
330
483
100
AcDbXrecord
280
     1
102
DISPLAYNAME
  1
Metric50
102
FLAGS
 90
        0
  0
CELLSTYLEMAP
  5
451
102
{ACAD_REACTORS
330
450
102
}
330
450
100
AcDbCellStyleMap
 90
        3
300
CELLSTYLE
  1
TABLEFORMAT_BEGIN
 90
        5
170
     1
 91
        0
 92
    32768
 62
   257
 93
        1
300
CONTENTFORMAT
  1
CONTENTFORMAT_BEGIN
 90
        0
 91
        0
 92
        4
 93
        0
300

 40
0.0
140
1.0
 94
        5
 62
     0
340
11
144
6.0
309
CONTENTFORMAT_END
171
     1
301
MARGIN
  1
CELLMARGIN_BEGIN
 40
1.5
 40
1.5
 40
1.5
 40
1.5
 40
0.18
 40
0.18
309
CELLMARGIN_END
 94
        6
 95
        1
302
GRIDFORMAT
  1
GRIDFORMAT_BEGIN
 90
        0
 91
        1
 62
     0
 92
       -2
340
0
 93
        0
 40
0.045
309
GRIDFORMAT_END
 95
        2
302
GRIDFORMAT
  1
GRIDFORMAT_BEGIN
 90
        0
 91
        1
 62
     0
 92
       -2
340
0
 93
        0
 40
0.045
309
GRIDFORMAT_END
 95
        4
302
GRIDFORMAT
  1
GRIDFORMAT_BEGIN
 90
        0
 91
        1
 62
     0
 92
       -2
340
0
 93
        0
 40
0.045
309
GRIDFORMAT_END
 95
        8
302
GRIDFORMAT
  1
GRIDFORMAT_BEGIN
 90
        0
 91
        1
 62
     0
 92
       -2
340
0
 93
        0
 40
0.045
309
GRIDFORMAT_END
 95
       16
302
GRIDFORMAT
  1
GRIDFORMAT_BEGIN
 90
        0
 91
        1
 62
     0
 92
       -2
340
0
 93
        0
 40
0.045
309
GRIDFORMAT_END
 95
       32
302
GRIDFORMAT
  1
GRIDFORMAT_BEGIN
 90
        0
 91
        1
 62
     0
 92
       -2
340
0
 93
        0
 40
0.045
309
GRIDFORMAT_END
309
TABLEFORMAT_END
  1
CELLSTYLE_BEGIN
 90
        1
 91
        1
300
_TITLE
309
CELLSTYLE_END
300
CELLSTYLE
  1
TABLEFORMAT_BEGIN
 90
        5
170
     1
 91
        0
 92
        0
 62
   257
 93
        1
300
CONTENTFORMAT
  1
CONTENTFORMAT_BEGIN
 90
        0
 91
        0
 92
        4
 93
        0
300

 40
0.0
140
1.0
 94
        5
 62
     0
340
11
144
4.5
309
CONTENTFORMAT_END
171
     1
301
MARGIN
  1
CELLMARGIN_BEGIN
 40
1.5
 40
1.5
 40
1.5
 40
1.5
 40
0.18
 40
0.18
309
CELLMARGIN_END
 94
        6
 95
        1
302
GRIDFORMAT
  1
GRIDFORMAT_BEGIN
 90
        0
 91
        1
 62
     0
 92
       -2
340
0
 93
        0
 40
0.045
309
GRIDFORMAT_END
 95
        2
302
GRIDFORMAT
  1
GRIDFORMAT_BEGIN
 90
        0
 91
        1
 62
     0
 92
       -2
340
0
 93
        0
 40
0.045
309
GRIDFORMAT_END
 95
        4
302
GRIDFORMAT
  1
GRIDFORMAT_BEGIN
 90
        0
 91
        1
 62
     0
 92
       -2
340
0
 93
        0
 40
0.045
309
GRIDFORMAT_END
 95
        8
302
GRIDFORMAT
  1
GRIDFORMAT_BEGIN
 90
        0
 91
        1
 62
     0
 92
       -2
340
0
 93
        0
 40
0.045
309
GRIDFORMAT_END
 95
       16
302
GRIDFORMAT
  1
GRIDFORMAT_BEGIN
 90
        0
 91
        1
 62
     0
 92
       -2
340
0
 93
        0
 40
0.045
309
GRIDFORMAT_END
 95
       32
302
GRIDFORMAT
  1
GRIDFORMAT_BEGIN
 90
        0
 91
        1
 62
     0
 92
       -2
340
0
 93
        0
 40
0.045
309
GRIDFORMAT_END
309
TABLEFORMAT_END
  1
CELLSTYLE_BEGIN
 90
        2
 91
        1
300
_HEADER
309
CELLSTYLE_END
300
CELLSTYLE
  1
TABLEFORMAT_BEGIN
 90
        5
170
     1
 91
        0
 92
        0
 62
   257
 93
        1
300
CONTENTFORMAT
  1
CONTENTFORMAT_BEGIN
 90
        0
 91
        0
 92
        4
 93
        0
300

 40
0.0
140
1.0
 94
        2
 62
     0
340
11
144
4.5
309
CONTENTFORMAT_END
171
     1
301
MARGIN
  1
CELLMARGIN_BEGIN
 40
1.5
 40
1.5
 40
1.5
 40
1.5
 40
0.18
 40
0.18
309
CELLMARGIN_END
 94
        6
 95
        1
302
GRIDFORMAT
  1
GRIDFORMAT_BEGIN
 90
        0
 91
        1
 62
     0
 92
       -2
340
0
 93
        0
 40
0.045
309
GRIDFORMAT_END
 95
        2
302
GRIDFORMAT
  1
GRIDFORMAT_BEGIN
 90
        0
 91
        1
 62
     0
 92
       -2
340
0
 93
        0
 40
0.045
309
GRIDFORMAT_END
 95
        4
302
GRIDFORMAT
  1
GRIDFORMAT_BEGIN
 90
        0
 91
        1
 62
     0
 92
       -2
340
0
 93
        0
 40
0.045
309
GRIDFORMAT_END
 95
        8
302
GRIDFORMAT
  1
GRIDFORMAT_BEGIN
 90
        0
 91
        1
 62
     0
 92
       -2
340
0
 93
        0
 40
0.045
309
GRIDFORMAT_END
 95
       16
302
GRIDFORMAT
  1
GRIDFORMAT_BEGIN
 90
        0
 91
        1
 62
     0
 92
       -2
340
0
 93
        0
 40
0.045
309
GRIDFORMAT_END
 95
       32
302
GRIDFORMAT
  1
GRIDFORMAT_BEGIN
 90
        0
 91
        1
 62
     0
 92
       -2
340
0
 93
        0
 40
0.045
309
GRIDFORMAT_END
309
TABLEFORMAT_END
  1
CELLSTYLE_BEGIN
 90
        3
 91
        2
300
_DATA
309
CELLSTYLE_END
  0
XRECORD
  5
45E
102
{ACAD_REACTORS
330
45D
102
}
330
45D
100
AcDbXrecord
280
     1
102
RTVSPost2010Prop28
280
     1
102
RTVSPost2010PropOp28
 70
     1
102
RTVSPost2010Prop29
280
     1
102
RTVSPost2010PropOp29
 70
     1
102
RTVSPost2010Prop30
280
     0
102
RTVSPost2010PropOp30
 70
     1
102
RTVSPost2010Prop31
280
     0
102
RTVSPost2010PropOp31
 70
     1
102
RTVSPost2010Prop32
280
     0
102
RTVSPost2010PropOp32
 70
     1
102
RTVSPost2010Prop33
280
     0
102
RTVSPost2010PropOp33
 70
     1
102
RTVSPost2010Prop34
280
     0
102
RTVSPost2010PropOp34
 70
     1
102
RTVSPost2010Prop35
280
     0
102
RTVSPost2010PropOp35
 70
     1
102
RTVSPost2010Prop36
280
     0
102
RTVSPost2010PropOp36
 70
     1
102
RTVSPost2010Prop37
 90
       50
102
RTVSPost2010PropOp37
 70
     1
102
RTVSPost2010Prop38
140
0.0
102
RTVSPost2010PropOp38
 70
     1
102
RTVSPost2010Prop39
140
1.0
102
RTVSPost2010PropOp39
 70
     1
102
RTVSPost2010Prop40
 90
        0
102
RTVSPost2010PropOp40
 70
     1
102
RTVSPost2010Prop41ColorIndex
 90
       18
102
RTVSPost2010Prop41ColorRGB
 90
        0
102
RTVSPost2010PropOp41
 70
     1
102
RTVSPost2010Prop42
 90
       50
102
RTVSPost2010PropOp42
 70
     1
102
RTVSPost2010Prop43
 90
        3
102
RTVSPost2010PropOp43
 70
     1
102
RTVSPost2010Prop44ColorIndex
 90
        5
102
RTVSPost2010Prop44ColorRGB
 90
      255
102
RTVSPost2010PropOp44
 70
     1
102
RTVSPost2010Prop45
280
     0
102
RTVSPost2010PropOp45
 70
     1
102
RTVSPost2010Prop46
 90
       50
102
RTVSPost2010PropOp46
 70
     1
102
RTVSPost2010Prop47
 90
       50
102
RTVSPost2010PropOp47
 70
     1
102
RTVSPost2010Prop48
 90
       50
102
RTVSPost2010PropOp48
 70
     1
102
RTVSPost2010Prop49
280
     0
102
RTVSPost2010PropOp49
 70
     1
102
RTVSPost2010Prop50
 90
       50
102
RTVSPost2010PropOp50
 70
     1
102
RTVSPost2010Prop51ColorIndex
 90
      256
102
RTVSPost2010Prop51ColorRGB
 90
-16777216
102
RTVSPost2010PropOp51
 70
     0
102
RTVSPost2010Prop52
140
1.0
102
RTVSPost2010PropOp52
 70
     0
102
RTVSPost2010Prop53
 90
        2
102
RTVSPost2010PropOp53
 70
     1
102
RTVSPost2010Prop54
  1
strokes_ogs.tif
102
RTVSPost2010PropOp54
 70
     1
102
RTVSPost2010Prop55
280
     0
102
RTVSPost2010PropOp55
 70
     1
102
RTVSPost2010Prop56
140
1.0
102
RTVSPost2010PropOp56
 70
     1
102
RTVSPost2010Prop57
140
1.0
102
RTVSPost2010PropOp57
 70
     1
  0
XRECORD
  5
45C
102
{ACAD_REACTORS
330
45B
102
}
330
45B
100
AcDbXrecord
280
     1
102
RTVSPost2010Prop28
280
     0
102
RTVSPost2010PropOp28
 70
     1
102
RTVSPost2010Prop29
280
     1
102
RTVSPost2010PropOp29
 70
     1
102
RTVSPost2010Prop30
280
     1
102
RTVSPost2010PropOp30
 70
     1
102
RTVSPost2010Prop31
280
     0
102
RTVSPost2010PropOp31
 70
     1
102
RTVSPost2010Prop32
280
     0
102
RTVSPost2010PropOp32
 70
     1
102
RTVSPost2010Prop33
280
     0
102
RTVSPost2010PropOp33
 70
     1
102
RTVSPost2010Prop34
280
     0
102
RTVSPost2010PropOp34
 70
     1
102
RTVSPost2010Prop35
280
     0
102
RTVSPost2010PropOp35
 70
     1
102
RTVSPost2010Prop36
280
     0
102
RTVSPost2010PropOp36
 70
     1
102
RTVSPost2010Prop37
 90
       50
102
RTVSPost2010PropOp37
 70
     1
102
RTVSPost2010Prop38
140
0.0
102
RTVSPost2010PropOp38
 70
     1
102
RTVSPost2010Prop39
140
1.0
102
RTVSPost2010PropOp39
 70
     1
102
RTVSPost2010Prop40
 90
        0
102
RTVSPost2010PropOp40
 70
     1
102
RTVSPost2010Prop41ColorIndex
 90
       18
102
RTVSPost2010Prop41ColorRGB
 90
        0
102
RTVSPost2010PropOp41
 70
     1
102
RTVSPost2010Prop42
 90
       50
102
RTVSPost2010PropOp42
 70
     1
102
RTVSPost2010Prop43
 90
        3
102
RTVSPost2010PropOp43
 70
     1
102
RTVSPost2010Prop44ColorIndex
 90
        5
102
RTVSPost2010Prop44ColorRGB
 90
      255
102
RTVSPost2010PropOp44
 70
     1
102
RTVSPost2010Prop45
280
     0
102
RTVSPost2010PropOp45
 70
     1
102
RTVSPost2010Prop46
 90
       50
102
RTVSPost2010PropOp46
 70
     1
102
RTVSPost2010Prop47
 90
       50
102
RTVSPost2010PropOp47
 70
     1
102
RTVSPost2010Prop48
 90
       50
102
RTVSPost2010PropOp48
 70
     1
102
RTVSPost2010Prop49
280
     0
102
RTVSPost2010PropOp49
 70
     1
102
RTVSPost2010Prop50
 90
       50
102
RTVSPost2010PropOp50
 70
     1
102
RTVSPost2010Prop51ColorIndex
 90
      256
102
RTVSPost2010Prop51ColorRGB
 90
-16777216
102
RTVSPost2010PropOp51
 70
     0
102
RTVSPost2010Prop52
140
1.0
102
RTVSPost2010PropOp52
 70
     0
102
RTVSPost2010Prop53
 90
        2
102
RTVSPost2010PropOp53
 70
     1
102
RTVSPost2010Prop54
  1
strokes_ogs.tif
102
RTVSPost2010PropOp54
 70
     1
102
RTVSPost2010Prop55
280
     0
102
RTVSPost2010PropOp55
 70
     1
102
RTVSPost2010Prop56
140
1.0
102
RTVSPost2010PropOp56
 70
     1
102
RTVSPost2010Prop57
140
1.0
102
RTVSPost2010PropOp57
 70
     1
  0
XRECORD
  5
46A
102
{ACAD_REACTORS
330
469
102
}
330
469
100
AcDbXrecord
280
     1
102
RTVSPost2010Prop28
280
     0
102
RTVSPost2010PropOp28
 70
     1
102
RTVSPost2010Prop29
280
     1
102
RTVSPost2010PropOp29
 70
     1
102
RTVSPost2010Prop30
280
     1
102
RTVSPost2010PropOp30
 70
     1
102
RTVSPost2010Prop31
280
     0
102
RTVSPost2010PropOp31
 70
     1
102
RTVSPost2010Prop32
280
     0
102
RTVSPost2010PropOp32
 70
     1
102
RTVSPost2010Prop33
280
     0
102
RTVSPost2010PropOp33
 70
     1
102
RTVSPost2010Prop34
280
     0
102
RTVSPost2010PropOp34
 70
     1
102
RTVSPost2010Prop35
280
     0
102
RTVSPost2010PropOp35
 70
     1
102
RTVSPost2010Prop36
280
     0
102
RTVSPost2010PropOp36
 70
     1
102
RTVSPost2010Prop37
 90
       50
102
RTVSPost2010PropOp37
 70
     1
102
RTVSPost2010Prop38
140
0.0
102
RTVSPost2010PropOp38
 70
     1
102
RTVSPost2010Prop39
140
1.0
102
RTVSPost2010PropOp39
 70
     1
102
RTVSPost2010Prop40
 90
        0
102
RTVSPost2010PropOp40
 70
     1
102
RTVSPost2010Prop41ColorIndex
 90
       18
102
RTVSPost2010Prop41ColorRGB
 90
        0
102
RTVSPost2010PropOp41
 70
     1
102
RTVSPost2010Prop42
 90
       50
102
RTVSPost2010PropOp42
 70
     1
102
RTVSPost2010Prop43
 90
        3
102
RTVSPost2010PropOp43
 70
     1
102
RTVSPost2010Prop44ColorIndex
 90
        5
102
RTVSPost2010Prop44ColorRGB
 90
      255
102
RTVSPost2010PropOp44
 70
     1
102
RTVSPost2010Prop45
280
     0
102
RTVSPost2010PropOp45
 70
     1
102
RTVSPost2010Prop46
 90
       50
102
RTVSPost2010PropOp46
 70
     1
102
RTVSPost2010Prop47
 90
       50
102
RTVSPost2010PropOp47
 70
     1
102
RTVSPost2010Prop48
 90
       50
102
RTVSPost2010PropOp48
 70
     1
102
RTVSPost2010Prop49
280
     0
102
RTVSPost2010PropOp49
 70
     1
102
RTVSPost2010Prop50
 90
       50
102
RTVSPost2010PropOp50
 70
     1
102
RTVSPost2010Prop51ColorIndex
 90
      256
102
RTVSPost2010Prop51ColorRGB
 90
-16777216
102
RTVSPost2010PropOp51
 70
     0
102
RTVSPost2010Prop52
140
1.0
102
RTVSPost2010PropOp52
 70
     0
102
RTVSPost2010Prop53
 90
        2
102
RTVSPost2010PropOp53
 70
     1
102
RTVSPost2010Prop54
  1
strokes_ogs.tif
102
RTVSPost2010PropOp54
 70
     1
102
RTVSPost2010Prop55
280
     0
102
RTVSPost2010PropOp55
 70
     1
102
RTVSPost2010Prop56
140
1.0
102
RTVSPost2010PropOp56
 70
     1
102
RTVSPost2010Prop57
140
1.0
102
RTVSPost2010PropOp57
 70
     1
  0
XRECORD
  5
472
102
{ACAD_REACTORS
330
471
102
}
330
471
100
AcDbXrecord
280
     1
102
RTVSPost2010Prop28
280
     0
102
RTVSPost2010PropOp28
 70
     1
102
RTVSPost2010Prop29
280
     1
102
RTVSPost2010PropOp29
 70
     1
102
RTVSPost2010Prop30
280
     1
102
RTVSPost2010PropOp30
 70
     1
102
RTVSPost2010Prop31
280
     0
102
RTVSPost2010PropOp31
 70
     1
102
RTVSPost2010Prop32
280
     0
102
RTVSPost2010PropOp32
 70
     1
102
RTVSPost2010Prop33
280
     0
102
RTVSPost2010PropOp33
 70
     1
102
RTVSPost2010Prop34
280
     0
102
RTVSPost2010PropOp34
 70
     1
102
RTVSPost2010Prop35
280
     0
102
RTVSPost2010PropOp35
 70
     1
102
RTVSPost2010Prop36
280
     0
102
RTVSPost2010PropOp36
 70
     1
102
RTVSPost2010Prop37
 90
       50
102
RTVSPost2010PropOp37
 70
     1
102
RTVSPost2010Prop38
140
0.0
102
RTVSPost2010PropOp38
 70
     1
102
RTVSPost2010Prop39
140
1.0
102
RTVSPost2010PropOp39
 70
     1
102
RTVSPost2010Prop40
 90
        0
102
RTVSPost2010PropOp40
 70
     1
102
RTVSPost2010Prop41ColorIndex
 90
       18
102
RTVSPost2010Prop41ColorRGB
 90
        0
102
RTVSPost2010PropOp41
 70
     1
102
RTVSPost2010Prop42
 90
       50
102
RTVSPost2010PropOp42
 70
     1
102
RTVSPost2010Prop43
 90
        3
102
RTVSPost2010PropOp43
 70
     1
102
RTVSPost2010Prop44ColorIndex
 90
        5
102
RTVSPost2010Prop44ColorRGB
 90
      255
102
RTVSPost2010PropOp44
 70
     1
102
RTVSPost2010Prop45
280
     0
102
RTVSPost2010PropOp45
 70
     1
102
RTVSPost2010Prop46
 90
       50
102
RTVSPost2010PropOp46
 70
     1
102
RTVSPost2010Prop47
 90
       50
102
RTVSPost2010PropOp47
 70
     1
102
RTVSPost2010Prop48
 90
       50
102
RTVSPost2010PropOp48
 70
     1
102
RTVSPost2010Prop49
280
     0
102
RTVSPost2010PropOp49
 70
     1
102
RTVSPost2010Prop50
 90
       50
102
RTVSPost2010PropOp50
 70
     1
102
RTVSPost2010Prop51ColorIndex
 90
      256
102
RTVSPost2010Prop51ColorRGB
 90
-16777216
102
RTVSPost2010PropOp51
 70
     0
102
RTVSPost2010Prop52
140
1.0
102
RTVSPost2010PropOp52
 70
     0
102
RTVSPost2010Prop53
 90
        2
102
RTVSPost2010PropOp53
 70
     1
102
RTVSPost2010Prop54
  1
strokes_ogs.tif
102
RTVSPost2010PropOp54
 70
     1
102
RTVSPost2010Prop55
280
     0
102
RTVSPost2010PropOp55
 70
     1
102
RTVSPost2010Prop56
140
1.0
102
RTVSPost2010PropOp56
 70
     1
102
RTVSPost2010Prop57
140
1.0
102
RTVSPost2010PropOp57
 70
     1
  0
XRECORD
  5
464
102
{ACAD_REACTORS
330
463
102
}
330
463
100
AcDbXrecord
280
     1
102
RTVSPost2010Prop28
280
     0
102
RTVSPost2010PropOp28
 70
     1
102
RTVSPost2010Prop29
280
     1
102
RTVSPost2010PropOp29
 70
     1
102
RTVSPost2010Prop30
280
     1
102
RTVSPost2010PropOp30
 70
     1
102
RTVSPost2010Prop31
280
     0
102
RTVSPost2010PropOp31
 70
     1
102
RTVSPost2010Prop32
280
     0
102
RTVSPost2010PropOp32
 70
     1
102
RTVSPost2010Prop33
280
     0
102
RTVSPost2010PropOp33
 70
     1
102
RTVSPost2010Prop34
280
     0
102
RTVSPost2010PropOp34
 70
     1
102
RTVSPost2010Prop35
280
     0
102
RTVSPost2010PropOp35
 70
     1
102
RTVSPost2010Prop36
280
     0
102
RTVSPost2010PropOp36
 70
     1
102
RTVSPost2010Prop37
 90
       50
102
RTVSPost2010PropOp37
 70
     1
102
RTVSPost2010Prop38
140
0.0
102
RTVSPost2010PropOp38
 70
     1
102
RTVSPost2010Prop39
140
1.0
102
RTVSPost2010PropOp39
 70
     1
102
RTVSPost2010Prop40
 90
        0
102
RTVSPost2010PropOp40
 70
     1
102
RTVSPost2010Prop41ColorIndex
 90
       18
102
RTVSPost2010Prop41ColorRGB
 90
        0
102
RTVSPost2010PropOp41
 70
     1
102
RTVSPost2010Prop42
 90
       50
102
RTVSPost2010PropOp42
 70
     1
102
RTVSPost2010Prop43
 90
        3
102
RTVSPost2010PropOp43
 70
     1
102
RTVSPost2010Prop44ColorIndex
 90
        5
102
RTVSPost2010Prop44ColorRGB
 90
      255
102
RTVSPost2010PropOp44
 70
     1
102
RTVSPost2010Prop45
280
     0
102
RTVSPost2010PropOp45
 70
     1
102
RTVSPost2010Prop46
 90
       50
102
RTVSPost2010PropOp46
 70
     1
102
RTVSPost2010Prop47
 90
       50
102
RTVSPost2010PropOp47
 70
     1
102
RTVSPost2010Prop48
 90
       50
102
RTVSPost2010PropOp48
 70
     1
102
RTVSPost2010Prop49
280
     0
102
RTVSPost2010PropOp49
 70
     1
102
RTVSPost2010Prop50
 90
       50
102
RTVSPost2010PropOp50
 70
     1
102
RTVSPost2010Prop51ColorIndex
 90
      256
102
RTVSPost2010Prop51ColorRGB
 90
-16777216
102
RTVSPost2010PropOp51
 70
     0
102
RTVSPost2010Prop52
140
1.0
102
RTVSPost2010PropOp52
 70
     0
102
RTVSPost2010Prop53
 90
        2
102
RTVSPost2010PropOp53
 70
     1
102
RTVSPost2010Prop54
  1
strokes_ogs.tif
102
RTVSPost2010PropOp54
 70
     1
102
RTVSPost2010Prop55
280
     0
102
RTVSPost2010PropOp55
 70
     1
102
RTVSPost2010Prop56
140
1.0
102
RTVSPost2010PropOp56
 70
     1
102
RTVSPost2010Prop57
140
1.0
102
RTVSPost2010PropOp57
 70
     1
  0
XRECORD
  5
468
102
{ACAD_REACTORS
330
467
102
}
330
467
100
AcDbXrecord
280
     1
102
RTVSPost2010Prop28
280
     0
102
RTVSPost2010PropOp28
 70
     1
102
RTVSPost2010Prop29
280
     1
102
RTVSPost2010PropOp29
 70
     1
102
RTVSPost2010Prop30
280
     1
102
RTVSPost2010PropOp30
 70
     1
102
RTVSPost2010Prop31
280
     0
102
RTVSPost2010PropOp31
 70
     1
102
RTVSPost2010Prop32
280
     0
102
RTVSPost2010PropOp32
 70
     1
102
RTVSPost2010Prop33
280
     0
102
RTVSPost2010PropOp33
 70
     1
102
RTVSPost2010Prop34
280
     0
102
RTVSPost2010PropOp34
 70
     1
102
RTVSPost2010Prop35
280
     0
102
RTVSPost2010PropOp35
 70
     1
102
RTVSPost2010Prop36
280
     0
102
RTVSPost2010PropOp36
 70
     1
102
RTVSPost2010Prop37
 90
       50
102
RTVSPost2010PropOp37
 70
     1
102
RTVSPost2010Prop38
140
0.0
102
RTVSPost2010PropOp38
 70
     1
102
RTVSPost2010Prop39
140
1.0
102
RTVSPost2010PropOp39
 70
     1
102
RTVSPost2010Prop40
 90
        0
102
RTVSPost2010PropOp40
 70
     1
102
RTVSPost2010Prop41ColorIndex
 90
       18
102
RTVSPost2010Prop41ColorRGB
 90
        0
102
RTVSPost2010PropOp41
 70
     1
102
RTVSPost2010Prop42
 90
       50
102
RTVSPost2010PropOp42
 70
     1
102
RTVSPost2010Prop43
 90
        3
102
RTVSPost2010PropOp43
 70
     1
102
RTVSPost2010Prop44ColorIndex
 90
        5
102
RTVSPost2010Prop44ColorRGB
 90
      255
102
RTVSPost2010PropOp44
 70
     1
102
RTVSPost2010Prop45
280
     0
102
RTVSPost2010PropOp45
 70
     1
102
RTVSPost2010Prop46
 90
       50
102
RTVSPost2010PropOp46
 70
     1
102
RTVSPost2010Prop47
 90
       50
102
RTVSPost2010PropOp47
 70
     1
102
RTVSPost2010Prop48
 90
       50
102
RTVSPost2010PropOp48
 70
     1
102
RTVSPost2010Prop49
280
     0
102
RTVSPost2010PropOp49
 70
     1
102
RTVSPost2010Prop50
 90
       50
102
RTVSPost2010PropOp50
 70
     1
102
RTVSPost2010Prop51ColorIndex
 90
      256
102
RTVSPost2010Prop51ColorRGB
 90
-16777216
102
RTVSPost2010PropOp51
 70
     0
102
RTVSPost2010Prop52
140
1.0
102
RTVSPost2010PropOp52
 70
     0
102
RTVSPost2010Prop53
 90
        2
102
RTVSPost2010PropOp53
 70
     1
102
RTVSPost2010Prop54
  1
strokes_ogs.tif
102
RTVSPost2010PropOp54
 70
     1
102
RTVSPost2010Prop55
280
     0
102
RTVSPost2010PropOp55
 70
     1
102
RTVSPost2010Prop56
140
1.0
102
RTVSPost2010PropOp56
 70
     1
102
RTVSPost2010Prop57
140
1.0
102
RTVSPost2010PropOp57
 70
     1
  0
XRECORD
  5
482
102
{ACAD_REACTORS
330
481
102
}
330
481
100
AcDbXrecord
280
     1
102
RTVSPost2010Prop28
280
     0
102
RTVSPost2010PropOp28
 70
     1
102
RTVSPost2010Prop29
280
     1
102
RTVSPost2010PropOp29
 70
     1
102
RTVSPost2010Prop30
280
     1
102
RTVSPost2010PropOp30
 70
     1
102
RTVSPost2010Prop31
280
     0
102
RTVSPost2010PropOp31
 70
     1
102
RTVSPost2010Prop32
280
     0
102
RTVSPost2010PropOp32
 70
     1
102
RTVSPost2010Prop33
280
     0
102
RTVSPost2010PropOp33
 70
     1
102
RTVSPost2010Prop34
280
     0
102
RTVSPost2010PropOp34
 70
     1
102
RTVSPost2010Prop35
280
     0
102
RTVSPost2010PropOp35
 70
     1
102
RTVSPost2010Prop36
280
     0
102
RTVSPost2010PropOp36
 70
     1
102
RTVSPost2010Prop37
 90
       50
102
RTVSPost2010PropOp37
 70
     0
102
RTVSPost2010Prop38
140
0.0
102
RTVSPost2010PropOp38
 70
     0
102
RTVSPost2010Prop39
140
1.0
102
RTVSPost2010PropOp39
 70
     0
102
RTVSPost2010Prop40
 90
        0
102
RTVSPost2010PropOp40
 70
     0
102
RTVSPost2010Prop41ColorIndex
 90
       18
102
RTVSPost2010Prop41ColorRGB
 90
        0
102
RTVSPost2010PropOp41
 70
     0
102
RTVSPost2010Prop42
 90
       50
102
RTVSPost2010PropOp42
 70
     0
102
RTVSPost2010Prop43
 90
        3
102
RTVSPost2010PropOp43
 70
     0
102
RTVSPost2010Prop44ColorIndex
 90
        5
102
RTVSPost2010Prop44ColorRGB
 90
      255
102
RTVSPost2010PropOp44
 70
     0
102
RTVSPost2010Prop45
280
     0
102
RTVSPost2010PropOp45
 70
     1
102
RTVSPost2010Prop46
 90
       50
102
RTVSPost2010PropOp46
 70
     0
102
RTVSPost2010Prop47
 90
       50
102
RTVSPost2010PropOp47
 70
     0
102
RTVSPost2010Prop48
 90
       50
102
RTVSPost2010PropOp48
 70
     0
102
RTVSPost2010Prop49
280
     0
102
RTVSPost2010PropOp49
 70
     1
102
RTVSPost2010Prop50
 90
       50
102
RTVSPost2010PropOp50
 70
     0
102
RTVSPost2010Prop51ColorIndex
 90
      256
102
RTVSPost2010Prop51ColorRGB
 90
-16777216
102
RTVSPost2010PropOp51
 70
     0
102
RTVSPost2010Prop52
140
1.0
102
RTVSPost2010PropOp52
 70
     0
102
RTVSPost2010Prop53
 90
        2
102
RTVSPost2010PropOp53
 70
     0
102
RTVSPost2010Prop54
  1
strokes_ogs.tif
102
RTVSPost2010PropOp54
 70
     0
102
RTVSPost2010Prop55
280
     0
102
RTVSPost2010PropOp55
 70
     1
102
RTVSPost2010Prop56
140
1.0
102
RTVSPost2010PropOp56
 70
     0
102
RTVSPost2010Prop57
140
1.0
102
RTVSPost2010PropOp57
 70
     0
  0
XRECORD
  5
470
102
{ACAD_REACTORS
330
46F
102
}
330
46F
100
AcDbXrecord
280
     1
102
RTVSPost2010Prop28
280
     0
102
RTVSPost2010PropOp28
 70
     1
102
RTVSPost2010Prop29
280
     1
102
RTVSPost2010PropOp29
 70
     1
102
RTVSPost2010Prop30
280
     1
102
RTVSPost2010PropOp30
 70
     1
102
RTVSPost2010Prop31
280
     0
102
RTVSPost2010PropOp31
 70
     1
102
RTVSPost2010Prop32
280
     0
102
RTVSPost2010PropOp32
 70
     1
102
RTVSPost2010Prop33
280
     0
102
RTVSPost2010PropOp33
 70
     1
102
RTVSPost2010Prop34
280
     0
102
RTVSPost2010PropOp34
 70
     1
102
RTVSPost2010Prop35
280
     0
102
RTVSPost2010PropOp35
 70
     1
102
RTVSPost2010Prop36
280
     0
102
RTVSPost2010PropOp36
 70
     1
102
RTVSPost2010Prop37
 90
       50
102
RTVSPost2010PropOp37
 70
     1
102
RTVSPost2010Prop38
140
0.0
102
RTVSPost2010PropOp38
 70
     1
102
RTVSPost2010Prop39
140
1.0
102
RTVSPost2010PropOp39
 70
     1
102
RTVSPost2010Prop40
 90
        0
102
RTVSPost2010PropOp40
 70
     1
102
RTVSPost2010Prop41ColorIndex
 90
       18
102
RTVSPost2010Prop41ColorRGB
 90
        0
102
RTVSPost2010PropOp41
 70
     1
102
RTVSPost2010Prop42
 90
       50
102
RTVSPost2010PropOp42
 70
     1
102
RTVSPost2010Prop43
 90
        3
102
RTVSPost2010PropOp43
 70
     1
102
RTVSPost2010Prop44ColorIndex
 90
        5
102
RTVSPost2010Prop44ColorRGB
 90
      255
102
RTVSPost2010PropOp44
 70
     1
102
RTVSPost2010Prop45
280
     0
102
RTVSPost2010PropOp45
 70
     1
102
RTVSPost2010Prop46
 90
       50
102
RTVSPost2010PropOp46
 70
     1
102
RTVSPost2010Prop47
 90
       50
102
RTVSPost2010PropOp47
 70
     1
102
RTVSPost2010Prop48
 90
       50
102
RTVSPost2010PropOp48
 70
     1
102
RTVSPost2010Prop49
280
     0
102
RTVSPost2010PropOp49
 70
     1
102
RTVSPost2010Prop50
 90
       50
102
RTVSPost2010PropOp50
 70
     1
102
RTVSPost2010Prop51ColorIndex
 90
      256
102
RTVSPost2010Prop51ColorRGB
 90
-16777216
102
RTVSPost2010PropOp51
 70
     0
102
RTVSPost2010Prop52
140
1.0
102
RTVSPost2010PropOp52
 70
     0
102
RTVSPost2010Prop53
 90
        2
102
RTVSPost2010PropOp53
 70
     1
102
RTVSPost2010Prop54
  1
strokes_ogs.tif
102
RTVSPost2010PropOp54
 70
     1
102
RTVSPost2010Prop55
280
     0
102
RTVSPost2010PropOp55
 70
     1
102
RTVSPost2010Prop56
140
1.0
102
RTVSPost2010PropOp56
 70
     1
102
RTVSPost2010Prop57
140
1.0
102
RTVSPost2010PropOp57
 70
     1
  0
XRECORD
  5
454
102
{ACAD_REACTORS
330
453
102
}
330
453
100
AcDbXrecord
280
     1
102
RTVSPost2010Prop28
280
     0
102
RTVSPost2010PropOp28
 70
     1
102
RTVSPost2010Prop29
280
     1
102
RTVSPost2010PropOp29
 70
     1
102
RTVSPost2010Prop30
280
     1
102
RTVSPost2010PropOp30
 70
     1
102
RTVSPost2010Prop31
280
     0
102
RTVSPost2010PropOp31
 70
     1
102
RTVSPost2010Prop32
280
     0
102
RTVSPost2010PropOp32
 70
     1
102
RTVSPost2010Prop33
280
     0
102
RTVSPost2010PropOp33
 70
     1
102
RTVSPost2010Prop34
280
     0
102
RTVSPost2010PropOp34
 70
     1
102
RTVSPost2010Prop35
280
     0
102
RTVSPost2010PropOp35
 70
     1
102
RTVSPost2010Prop36
280
     0
102
RTVSPost2010PropOp36
 70
     1
102
RTVSPost2010Prop37
 90
       50
102
RTVSPost2010PropOp37
 70
     1
102
RTVSPost2010Prop38
140
0.0
102
RTVSPost2010PropOp38
 70
     1
102
RTVSPost2010Prop39
140
1.0
102
RTVSPost2010PropOp39
 70
     1
102
RTVSPost2010Prop40
 90
        0
102
RTVSPost2010PropOp40
 70
     1
102
RTVSPost2010Prop41ColorIndex
 90
       18
102
RTVSPost2010Prop41ColorRGB
 90
        0
102
RTVSPost2010PropOp41
 70
     1
102
RTVSPost2010Prop42
 90
       50
102
RTVSPost2010PropOp42
 70
     1
102
RTVSPost2010Prop43
 90
        3
102
RTVSPost2010PropOp43
 70
     1
102
RTVSPost2010Prop44ColorIndex
 90
        5
102
RTVSPost2010Prop44ColorRGB
 90
      255
102
RTVSPost2010PropOp44
 70
     1
102
RTVSPost2010Prop45
280
     0
102
RTVSPost2010PropOp45
 70
     1
102
RTVSPost2010Prop46
 90
       50
102
RTVSPost2010PropOp46
 70
     1
102
RTVSPost2010Prop47
 90
       50
102
RTVSPost2010PropOp47
 70
     1
102
RTVSPost2010Prop48
 90
       50
102
RTVSPost2010PropOp48
 70
     1
102
RTVSPost2010Prop49
280
     0
102
RTVSPost2010PropOp49
 70
     1
102
RTVSPost2010Prop50
 90
       50
102
RTVSPost2010PropOp50
 70
     1
102
RTVSPost2010Prop51ColorIndex
 90
      256
102
RTVSPost2010Prop51ColorRGB
 90
-16777216
102
RTVSPost2010PropOp51
 70
     0
102
RTVSPost2010Prop52
140
1.0
102
RTVSPost2010PropOp52
 70
     0
102
RTVSPost2010Prop53
 90
        2
102
RTVSPost2010PropOp53
 70
     1
102
RTVSPost2010Prop54
  1
strokes_ogs.tif
102
RTVSPost2010PropOp54
 70
     1
102
RTVSPost2010Prop55
280
     0
102
RTVSPost2010PropOp55
 70
     1
102
RTVSPost2010Prop56
140
1.0
102
RTVSPost2010PropOp56
 70
     1
102
RTVSPost2010Prop57
140
1.0
102
RTVSPost2010PropOp57
 70
     1
  0
XRECORD
  5
456
102
{ACAD_REACTORS
330
455
102
}
330
455
100
AcDbXrecord
280
     1
102
RTVSPost2010Prop28
280
     0
102
RTVSPost2010PropOp28
 70
     1
102
RTVSPost2010Prop29
280
     1
102
RTVSPost2010PropOp29
 70
     1
102
RTVSPost2010Prop30
280
     1
102
RTVSPost2010PropOp30
 70
     1
102
RTVSPost2010Prop31
280
     0
102
RTVSPost2010PropOp31
 70
     1
102
RTVSPost2010Prop32
280
     0
102
RTVSPost2010PropOp32
 70
     1
102
RTVSPost2010Prop33
280
     0
102
RTVSPost2010PropOp33
 70
     1
102
RTVSPost2010Prop34
280
     0
102
RTVSPost2010PropOp34
 70
     1
102
RTVSPost2010Prop35
280
     0
102
RTVSPost2010PropOp35
 70
     1
102
RTVSPost2010Prop36
280
     0
102
RTVSPost2010PropOp36
 70
     1
102
RTVSPost2010Prop37
 90
       50
102
RTVSPost2010PropOp37
 70
     1
102
RTVSPost2010Prop38
140
0.0
102
RTVSPost2010PropOp38
 70
     1
102
RTVSPost2010Prop39
140
1.0
102
RTVSPost2010PropOp39
 70
     1
102
RTVSPost2010Prop40
 90
        0
102
RTVSPost2010PropOp40
 70
     1
102
RTVSPost2010Prop41ColorIndex
 90
       18
102
RTVSPost2010Prop41ColorRGB
 90
        0
102
RTVSPost2010PropOp41
 70
     1
102
RTVSPost2010Prop42
 90
       50
102
RTVSPost2010PropOp42
 70
     1
102
RTVSPost2010Prop43
 90
        3
102
RTVSPost2010PropOp43
 70
     1
102
RTVSPost2010Prop44ColorIndex
 90
        5
102
RTVSPost2010Prop44ColorRGB
 90
      255
102
RTVSPost2010PropOp44
 70
     1
102
RTVSPost2010Prop45
280
     0
102
RTVSPost2010PropOp45
 70
     1
102
RTVSPost2010Prop46
 90
       50
102
RTVSPost2010PropOp46
 70
     1
102
RTVSPost2010Prop47
 90
       50
102
RTVSPost2010PropOp47
 70
     1
102
RTVSPost2010Prop48
 90
       50
102
RTVSPost2010PropOp48
 70
     1
102
RTVSPost2010Prop49
280
     0
102
RTVSPost2010PropOp49
 70
     1
102
RTVSPost2010Prop50
 90
       50
102
RTVSPost2010PropOp50
 70
     1
102
RTVSPost2010Prop51ColorIndex
 90
      256
102
RTVSPost2010Prop51ColorRGB
 90
-16777216
102
RTVSPost2010PropOp51
 70
     0
102
RTVSPost2010Prop52
140
1.0
102
RTVSPost2010PropOp52
 70
     0
102
RTVSPost2010Prop53
 90
        2
102
RTVSPost2010PropOp53
 70
     1
102
RTVSPost2010Prop54
  1
strokes_ogs.tif
102
RTVSPost2010PropOp54
 70
     1
102
RTVSPost2010Prop55
280
     0
102
RTVSPost2010PropOp55
 70
     1
102
RTVSPost2010Prop56
140
1.0
102
RTVSPost2010PropOp56
 70
     1
102
RTVSPost2010Prop57
140
1.0
102
RTVSPost2010PropOp57
 70
     1
  0
XRECORD
  5
458
102
{ACAD_REACTORS
330
457
102
}
330
457
100
AcDbXrecord
280
     1
102
RTVSPost2010Prop28
280
     0
102
RTVSPost2010PropOp28
 70
     1
102
RTVSPost2010Prop29
280
     1
102
RTVSPost2010PropOp29
 70
     1
102
RTVSPost2010Prop30
280
     1
102
RTVSPost2010PropOp30
 70
     1
102
RTVSPost2010Prop31
280
     0
102
RTVSPost2010PropOp31
 70
     1
102
RTVSPost2010Prop32
280
     0
102
RTVSPost2010PropOp32
 70
     1
102
RTVSPost2010Prop33
280
     0
102
RTVSPost2010PropOp33
 70
     1
102
RTVSPost2010Prop34
280
     0
102
RTVSPost2010PropOp34
 70
     1
102
RTVSPost2010Prop35
280
     0
102
RTVSPost2010PropOp35
 70
     1
102
RTVSPost2010Prop36
280
     0
102
RTVSPost2010PropOp36
 70
     1
102
RTVSPost2010Prop37
 90
       50
102
RTVSPost2010PropOp37
 70
     1
102
RTVSPost2010Prop38
140
0.0
102
RTVSPost2010PropOp38
 70
     1
102
RTVSPost2010Prop39
140
1.0
102
RTVSPost2010PropOp39
 70
     1
102
RTVSPost2010Prop40
 90
        0
102
RTVSPost2010PropOp40
 70
     1
102
RTVSPost2010Prop41ColorIndex
 90
       18
102
RTVSPost2010Prop41ColorRGB
 90
        0
102
RTVSPost2010PropOp41
 70
     1
102
RTVSPost2010Prop42
 90
       50
102
RTVSPost2010PropOp42
 70
     1
102
RTVSPost2010Prop43
 90
        3
102
RTVSPost2010PropOp43
 70
     1
102
RTVSPost2010Prop44ColorIndex
 90
        5
102
RTVSPost2010Prop44ColorRGB
 90
      255
102
RTVSPost2010PropOp44
 70
     1
102
RTVSPost2010Prop45
280
     0
102
RTVSPost2010PropOp45
 70
     1
102
RTVSPost2010Prop46
 90
       50
102
RTVSPost2010PropOp46
 70
     1
102
RTVSPost2010Prop47
 90
       50
102
RTVSPost2010PropOp47
 70
     1
102
RTVSPost2010Prop48
 90
       50
102
RTVSPost2010PropOp48
 70
     1
102
RTVSPost2010Prop49
280
     0
102
RTVSPost2010PropOp49
 70
     1
102
RTVSPost2010Prop50
 90
       50
102
RTVSPost2010PropOp50
 70
     1
102
RTVSPost2010Prop51ColorIndex
 90
      256
102
RTVSPost2010Prop51ColorRGB
 90
-16777216
102
RTVSPost2010PropOp51
 70
     0
102
RTVSPost2010Prop52
140
1.0
102
RTVSPost2010PropOp52
 70
     0
102
RTVSPost2010Prop53
 90
        2
102
RTVSPost2010PropOp53
 70
     1
102
RTVSPost2010Prop54
  1
strokes_ogs.tif
102
RTVSPost2010PropOp54
 70
     1
102
RTVSPost2010Prop55
280
     0
102
RTVSPost2010PropOp55
 70
     1
102
RTVSPost2010Prop56
140
1.0
102
RTVSPost2010PropOp56
 70
     1
102
RTVSPost2010Prop57
140
1.0
102
RTVSPost2010PropOp57
 70
     1
  0
XRECORD
  5
45A
102
{ACAD_REACTORS
330
459
102
}
330
459
100
AcDbXrecord
280
     1
102
RTVSPost2010Prop28
280
     0
102
RTVSPost2010PropOp28
 70
     1
102
RTVSPost2010Prop29
280
     1
102
RTVSPost2010PropOp29
 70
     1
102
RTVSPost2010Prop30
280
     1
102
RTVSPost2010PropOp30
 70
     1
102
RTVSPost2010Prop31
280
     0
102
RTVSPost2010PropOp31
 70
     1
102
RTVSPost2010Prop32
280
     0
102
RTVSPost2010PropOp32
 70
     1
102
RTVSPost2010Prop33
280
     0
102
RTVSPost2010PropOp33
 70
     1
102
RTVSPost2010Prop34
280
     0
102
RTVSPost2010PropOp34
 70
     1
102
RTVSPost2010Prop35
280
     0
102
RTVSPost2010PropOp35
 70
     1
102
RTVSPost2010Prop36
280
     0
102
RTVSPost2010PropOp36
 70
     1
102
RTVSPost2010Prop37
 90
       50
102
RTVSPost2010PropOp37
 70
     1
102
RTVSPost2010Prop38
140
0.0
102
RTVSPost2010PropOp38
 70
     1
102
RTVSPost2010Prop39
140
1.0
102
RTVSPost2010PropOp39
 70
     1
102
RTVSPost2010Prop40
 90
        0
102
RTVSPost2010PropOp40
 70
     1
102
RTVSPost2010Prop41ColorIndex
 90
       18
102
RTVSPost2010Prop41ColorRGB
 90
        0
102
RTVSPost2010PropOp41
 70
     1
102
RTVSPost2010Prop42
 90
       50
102
RTVSPost2010PropOp42
 70
     1
102
RTVSPost2010Prop43
 90
        3
102
RTVSPost2010PropOp43
 70
     1
102
RTVSPost2010Prop44ColorIndex
 90
        5
102
RTVSPost2010Prop44ColorRGB
 90
      255
102
RTVSPost2010PropOp44
 70
     1
102
RTVSPost2010Prop45
280
     0
102
RTVSPost2010PropOp45
 70
     1
102
RTVSPost2010Prop46
 90
       50
102
RTVSPost2010PropOp46
 70
     1
102
RTVSPost2010Prop47
 90
       50
102
RTVSPost2010PropOp47
 70
     1
102
RTVSPost2010Prop48
 90
       50
102
RTVSPost2010PropOp48
 70
     1
102
RTVSPost2010Prop49
280
     0
102
RTVSPost2010PropOp49
 70
     1
102
RTVSPost2010Prop50
 90
       50
102
RTVSPost2010PropOp50
 70
     1
102
RTVSPost2010Prop51ColorIndex
 90
      256
102
RTVSPost2010Prop51ColorRGB
 90
-16777216
102
RTVSPost2010PropOp51
 70
     0
102
RTVSPost2010Prop52
140
1.0
102
RTVSPost2010PropOp52
 70
     0
102
RTVSPost2010Prop53
 90
        2
102
RTVSPost2010PropOp53
 70
     1
102
RTVSPost2010Prop54
  1
strokes_ogs.tif
102
RTVSPost2010PropOp54
 70
     1
102
RTVSPost2010Prop55
280
     0
102
RTVSPost2010PropOp55
 70
     1
102
RTVSPost2010Prop56
140
1.0
102
RTVSPost2010PropOp56
 70
     1
102
RTVSPost2010Prop57
140
1.0
102
RTVSPost2010PropOp57
 70
     1
  0
XRECORD
  5
462
102
{ACAD_REACTORS
330
461
102
}
330
461
100
AcDbXrecord
280
     1
102
RTVSPost2010Prop28
280
     0
102
RTVSPost2010PropOp28
 70
     1
102
RTVSPost2010Prop29
280
     1
102
RTVSPost2010PropOp29
 70
     1
102
RTVSPost2010Prop30
280
     1
102
RTVSPost2010PropOp30
 70
     1
102
RTVSPost2010Prop31
280
     0
102
RTVSPost2010PropOp31
 70
     1
102
RTVSPost2010Prop32
280
     0
102
RTVSPost2010PropOp32
 70
     1
102
RTVSPost2010Prop33
280
     0
102
RTVSPost2010PropOp33
 70
     1
102
RTVSPost2010Prop34
280
     0
102
RTVSPost2010PropOp34
 70
     1
102
RTVSPost2010Prop35
280
     0
102
RTVSPost2010PropOp35
 70
     1
102
RTVSPost2010Prop36
280
     0
102
RTVSPost2010PropOp36
 70
     1
102
RTVSPost2010Prop37
 90
       50
102
RTVSPost2010PropOp37
 70
     1
102
RTVSPost2010Prop38
140
0.0
102
RTVSPost2010PropOp38
 70
     1
102
RTVSPost2010Prop39
140
1.0
102
RTVSPost2010PropOp39
 70
     1
102
RTVSPost2010Prop40
 90
        0
102
RTVSPost2010PropOp40
 70
     1
102
RTVSPost2010Prop41ColorIndex
 90
       18
102
RTVSPost2010Prop41ColorRGB
 90
        0
102
RTVSPost2010PropOp41
 70
     1
102
RTVSPost2010Prop42
 90
       50
102
RTVSPost2010PropOp42
 70
     1
102
RTVSPost2010Prop43
 90
        3
102
RTVSPost2010PropOp43
 70
     1
102
RTVSPost2010Prop44ColorIndex
 90
        5
102
RTVSPost2010Prop44ColorRGB
 90
      255
102
RTVSPost2010PropOp44
 70
     1
102
RTVSPost2010Prop45
280
     0
102
RTVSPost2010PropOp45
 70
     1
102
RTVSPost2010Prop46
 90
       50
102
RTVSPost2010PropOp46
 70
     1
102
RTVSPost2010Prop47
 90
       50
102
RTVSPost2010PropOp47
 70
     1
102
RTVSPost2010Prop48
 90
       50
102
RTVSPost2010PropOp48
 70
     1
102
RTVSPost2010Prop49
280
     0
102
RTVSPost2010PropOp49
 70
     1
102
RTVSPost2010Prop50
 90
       50
102
RTVSPost2010PropOp50
 70
     1
102
RTVSPost2010Prop51ColorIndex
 90
      256
102
RTVSPost2010Prop51ColorRGB
 90
-16777216
102
RTVSPost2010PropOp51
 70
     0
102
RTVSPost2010Prop52
140
1.0
102
RTVSPost2010PropOp52
 70
     0
102
RTVSPost2010Prop53
 90
        2
102
RTVSPost2010PropOp53
 70
     1
102
RTVSPost2010Prop54
  1
strokes_ogs.tif
102
RTVSPost2010PropOp54
 70
     1
102
RTVSPost2010Prop55
280
     0
102
RTVSPost2010PropOp55
 70
     1
102
RTVSPost2010Prop56
140
1.0
102
RTVSPost2010PropOp56
 70
     1
102
RTVSPost2010Prop57
140
1.0
102
RTVSPost2010PropOp57
 70
     1
  0
XRECORD
  5
47E
102
{ACAD_REACTORS
330
47D
102
}
330
47D
100
AcDbXrecord
280
     1
102
RTVSPost2010Prop28
280
     0
102
RTVSPost2010PropOp28
 70
     1
102
RTVSPost2010Prop29
280
     1
102
RTVSPost2010PropOp29
 70
     1
102
RTVSPost2010Prop30
280
     1
102
RTVSPost2010PropOp30
 70
     1
102
RTVSPost2010Prop31
280
     0
102
RTVSPost2010PropOp31
 70
     1
102
RTVSPost2010Prop32
280
     0
102
RTVSPost2010PropOp32
 70
     1
102
RTVSPost2010Prop33
280
     0
102
RTVSPost2010PropOp33
 70
     1
102
RTVSPost2010Prop34
280
     0
102
RTVSPost2010PropOp34
 70
     1
102
RTVSPost2010Prop35
280
     0
102
RTVSPost2010PropOp35
 70
     1
102
RTVSPost2010Prop36
280
     0
102
RTVSPost2010PropOp36
 70
     1
102
RTVSPost2010Prop37
 90
       50
102
RTVSPost2010PropOp37
 70
     0
102
RTVSPost2010Prop38
140
0.0
102
RTVSPost2010PropOp38
 70
     0
102
RTVSPost2010Prop39
140
1.0
102
RTVSPost2010PropOp39
 70
     0
102
RTVSPost2010Prop40
 90
        0
102
RTVSPost2010PropOp40
 70
     0
102
RTVSPost2010Prop41ColorIndex
 90
       18
102
RTVSPost2010Prop41ColorRGB
 90
        0
102
RTVSPost2010PropOp41
 70
     0
102
RTVSPost2010Prop42
 90
       50
102
RTVSPost2010PropOp42
 70
     0
102
RTVSPost2010Prop43
 90
        3
102
RTVSPost2010PropOp43
 70
     0
102
RTVSPost2010Prop44ColorIndex
 90
        5
102
RTVSPost2010Prop44ColorRGB
 90
      255
102
RTVSPost2010PropOp44
 70
     0
102
RTVSPost2010Prop45
280
     0
102
RTVSPost2010PropOp45
 70
     1
102
RTVSPost2010Prop46
 90
       50
102
RTVSPost2010PropOp46
 70
     0
102
RTVSPost2010Prop47
 90
       50
102
RTVSPost2010PropOp47
 70
     0
102
RTVSPost2010Prop48
 90
       50
102
RTVSPost2010PropOp48
 70
     0
102
RTVSPost2010Prop49
280
     0
102
RTVSPost2010PropOp49
 70
     1
102
RTVSPost2010Prop50
 90
       50
102
RTVSPost2010PropOp50
 70
     0
102
RTVSPost2010Prop51ColorIndex
 90
      256
102
RTVSPost2010Prop51ColorRGB
 90
-16777216
102
RTVSPost2010PropOp51
 70
     0
102
RTVSPost2010Prop52
140
1.0
102
RTVSPost2010PropOp52
 70
     0
102
RTVSPost2010Prop53
 90
        2
102
RTVSPost2010PropOp53
 70
     0
102
RTVSPost2010Prop54
  1
strokes_ogs.tif
102
RTVSPost2010PropOp54
 70
     0
102
RTVSPost2010Prop55
280
     0
102
RTVSPost2010PropOp55
 70
     1
102
RTVSPost2010Prop56
140
1.0
102
RTVSPost2010PropOp56
 70
     0
102
RTVSPost2010Prop57
140
1.0
102
RTVSPost2010PropOp57
 70
     0
  0
XRECORD
  5
46E
102
{ACAD_REACTORS
330
46D
102
}
330
46D
100
AcDbXrecord
280
     1
102
RTVSPost2010Prop28
280
     0
102
RTVSPost2010PropOp28
 70
     1
102
RTVSPost2010Prop29
280
     1
102
RTVSPost2010PropOp29
 70
     1
102
RTVSPost2010Prop30
280
     1
102
RTVSPost2010PropOp30
 70
     1
102
RTVSPost2010Prop31
280
     0
102
RTVSPost2010PropOp31
 70
     1
102
RTVSPost2010Prop32
280
     0
102
RTVSPost2010PropOp32
 70
     1
102
RTVSPost2010Prop33
280
     0
102
RTVSPost2010PropOp33
 70
     1
102
RTVSPost2010Prop34
280
     0
102
RTVSPost2010PropOp34
 70
     1
102
RTVSPost2010Prop35
280
     0
102
RTVSPost2010PropOp35
 70
     1
102
RTVSPost2010Prop36
280
     0
102
RTVSPost2010PropOp36
 70
     1
102
RTVSPost2010Prop37
 90
       50
102
RTVSPost2010PropOp37
 70
     1
102
RTVSPost2010Prop38
140
0.0
102
RTVSPost2010PropOp38
 70
     1
102
RTVSPost2010Prop39
140
1.0
102
RTVSPost2010PropOp39
 70
     1
102
RTVSPost2010Prop40
 90
        0
102
RTVSPost2010PropOp40
 70
     1
102
RTVSPost2010Prop41ColorIndex
 90
       18
102
RTVSPost2010Prop41ColorRGB
 90
        0
102
RTVSPost2010PropOp41
 70
     1
102
RTVSPost2010Prop42
 90
       50
102
RTVSPost2010PropOp42
 70
     1
102
RTVSPost2010Prop43
 90
        3
102
RTVSPost2010PropOp43
 70
     1
102
RTVSPost2010Prop44ColorIndex
 90
        5
102
RTVSPost2010Prop44ColorRGB
 90
      255
102
RTVSPost2010PropOp44
 70
     1
102
RTVSPost2010Prop45
280
     0
102
RTVSPost2010PropOp45
 70
     1
102
RTVSPost2010Prop46
 90
       50
102
RTVSPost2010PropOp46
 70
     1
102
RTVSPost2010Prop47
 90
       50
102
RTVSPost2010PropOp47
 70
     1
102
RTVSPost2010Prop48
 90
       50
102
RTVSPost2010PropOp48
 70
     1
102
RTVSPost2010Prop49
280
     0
102
RTVSPost2010PropOp49
 70
     1
102
RTVSPost2010Prop50
 90
       50
102
RTVSPost2010PropOp50
 70
     1
102
RTVSPost2010Prop51ColorIndex
 90
      256
102
RTVSPost2010Prop51ColorRGB
 90
-16777216
102
RTVSPost2010PropOp51
 70
     0
102
RTVSPost2010Prop52
140
1.0
102
RTVSPost2010PropOp52
 70
     0
102
RTVSPost2010Prop53
 90
        2
102
RTVSPost2010PropOp53
 70
     1
102
RTVSPost2010Prop54
  1
strokes_ogs.tif
102
RTVSPost2010PropOp54
 70
     1
102
RTVSPost2010Prop55
280
     0
102
RTVSPost2010PropOp55
 70
     1
102
RTVSPost2010Prop56
140
1.0
102
RTVSPost2010PropOp56
 70
     1
102
RTVSPost2010Prop57
140
1.0
102
RTVSPost2010PropOp57
 70
     1
  0
XRECORD
  5
480
102
{ACAD_REACTORS
330
47F
102
}
330
47F
100
AcDbXrecord
280
     1
102
RTVSPost2010Prop28
280
     0
102
RTVSPost2010PropOp28
 70
     1
102
RTVSPost2010Prop29
280
     1
102
RTVSPost2010PropOp29
 70
     1
102
RTVSPost2010Prop30
280
     1
102
RTVSPost2010PropOp30
 70
     1
102
RTVSPost2010Prop31
280
     0
102
RTVSPost2010PropOp31
 70
     1
102
RTVSPost2010Prop32
280
     0
102
RTVSPost2010PropOp32
 70
     1
102
RTVSPost2010Prop33
280
     0
102
RTVSPost2010PropOp33
 70
     1
102
RTVSPost2010Prop34
280
     0
102
RTVSPost2010PropOp34
 70
     1
102
RTVSPost2010Prop35
280
     0
102
RTVSPost2010PropOp35
 70
     1
102
RTVSPost2010Prop36
280
     0
102
RTVSPost2010PropOp36
 70
     1
102
RTVSPost2010Prop37
 90
       50
102
RTVSPost2010PropOp37
 70
     0
102
RTVSPost2010Prop38
140
0.0
102
RTVSPost2010PropOp38
 70
     0
102
RTVSPost2010Prop39
140
1.0
102
RTVSPost2010PropOp39
 70
     0
102
RTVSPost2010Prop40
 90
        0
102
RTVSPost2010PropOp40
 70
     0
102
RTVSPost2010Prop41ColorIndex
 90
       18
102
RTVSPost2010Prop41ColorRGB
 90
        0
102
RTVSPost2010PropOp41
 70
     0
102
RTVSPost2010Prop42
 90
       50
102
RTVSPost2010PropOp42
 70
     0
102
RTVSPost2010Prop43
 90
        3
102
RTVSPost2010PropOp43
 70
     0
102
RTVSPost2010Prop44ColorIndex
 90
        5
102
RTVSPost2010Prop44ColorRGB
 90
      255
102
RTVSPost2010PropOp44
 70
     0
102
RTVSPost2010Prop45
280
     0
102
RTVSPost2010PropOp45
 70
     1
102
RTVSPost2010Prop46
 90
       50
102
RTVSPost2010PropOp46
 70
     0
102
RTVSPost2010Prop47
 90
       50
102
RTVSPost2010PropOp47
 70
     0
102
RTVSPost2010Prop48
 90
       50
102
RTVSPost2010PropOp48
 70
     0
102
RTVSPost2010Prop49
280
     0
102
RTVSPost2010PropOp49
 70
     1
102
RTVSPost2010Prop50
 90
       50
102
RTVSPost2010PropOp50
 70
     0
102
RTVSPost2010Prop51ColorIndex
 90
      256
102
RTVSPost2010Prop51ColorRGB
 90
-16777216
102
RTVSPost2010PropOp51
 70
     0
102
RTVSPost2010Prop52
140
1.0
102
RTVSPost2010PropOp52
 70
     0
102
RTVSPost2010Prop53
 90
        2
102
RTVSPost2010PropOp53
 70
     0
102
RTVSPost2010Prop54
  1
strokes_ogs.tif
102
RTVSPost2010PropOp54
 70
     0
102
RTVSPost2010Prop55
280
     0
102
RTVSPost2010PropOp55
 70
     1
102
RTVSPost2010Prop56
140
1.0
102
RTVSPost2010PropOp56
 70
     0
102
RTVSPost2010Prop57
140
1.0
102
RTVSPost2010PropOp57
 70
     0
  0
XRECORD
  5
466
102
{ACAD_REACTORS
330
465
102
}
330
465
100
AcDbXrecord
280
     1
102
RTVSPost2010Prop28
280
     0
102
RTVSPost2010PropOp28
 70
     1
102
RTVSPost2010Prop29
280
     1
102
RTVSPost2010PropOp29
 70
     1
102
RTVSPost2010Prop30
280
     1
102
RTVSPost2010PropOp30
 70
     1
102
RTVSPost2010Prop31
280
     0
102
RTVSPost2010PropOp31
 70
     1
102
RTVSPost2010Prop32
280
     0
102
RTVSPost2010PropOp32
 70
     1
102
RTVSPost2010Prop33
280
     0
102
RTVSPost2010PropOp33
 70
     1
102
RTVSPost2010Prop34
280
     0
102
RTVSPost2010PropOp34
 70
     1
102
RTVSPost2010Prop35
280
     0
102
RTVSPost2010PropOp35
 70
     1
102
RTVSPost2010Prop36
280
     0
102
RTVSPost2010PropOp36
 70
     1
102
RTVSPost2010Prop37
 90
       50
102
RTVSPost2010PropOp37
 70
     1
102
RTVSPost2010Prop38
140
0.0
102
RTVSPost2010PropOp38
 70
     1
102
RTVSPost2010Prop39
140
1.0
102
RTVSPost2010PropOp39
 70
     1
102
RTVSPost2010Prop40
 90
        0
102
RTVSPost2010PropOp40
 70
     1
102
RTVSPost2010Prop41ColorIndex
 90
       18
102
RTVSPost2010Prop41ColorRGB
 90
        0
102
RTVSPost2010PropOp41
 70
     1
102
RTVSPost2010Prop42
 90
       50
102
RTVSPost2010PropOp42
 70
     1
102
RTVSPost2010Prop43
 90
        3
102
RTVSPost2010PropOp43
 70
     1
102
RTVSPost2010Prop44ColorIndex
 90
        5
102
RTVSPost2010Prop44ColorRGB
 90
      255
102
RTVSPost2010PropOp44
 70
     1
102
RTVSPost2010Prop45
280
     0
102
RTVSPost2010PropOp45
 70
     1
102
RTVSPost2010Prop46
 90
       50
102
RTVSPost2010PropOp46
 70
     1
102
RTVSPost2010Prop47
 90
       50
102
RTVSPost2010PropOp47
 70
     1
102
RTVSPost2010Prop48
 90
       50
102
RTVSPost2010PropOp48
 70
     1
102
RTVSPost2010Prop49
280
     0
102
RTVSPost2010PropOp49
 70
     1
102
RTVSPost2010Prop50
 90
       50
102
RTVSPost2010PropOp50
 70
     1
102
RTVSPost2010Prop51ColorIndex
 90
      256
102
RTVSPost2010Prop51ColorRGB
 90
-16777216
102
RTVSPost2010PropOp51
 70
     0
102
RTVSPost2010Prop52
140
1.0
102
RTVSPost2010PropOp52
 70
     0
102
RTVSPost2010Prop53
 90
        2
102
RTVSPost2010PropOp53
 70
     1
102
RTVSPost2010Prop54
  1
strokes_ogs.tif
102
RTVSPost2010PropOp54
 70
     1
102
RTVSPost2010Prop55
280
     0
102
RTVSPost2010PropOp55
 70
     1
102
RTVSPost2010Prop56
140
1.0
102
RTVSPost2010PropOp56
 70
     1
102
RTVSPost2010Prop57
140
1.0
102
RTVSPost2010PropOp57
 70
     1
  0
XRECORD
  5
47C
102
{ACAD_REACTORS
330
47B
102
}
330
47B
100
AcDbXrecord
280
     1
102
RTVSPost2010Prop28
280
     0
102
RTVSPost2010PropOp28
 70
     1
102
RTVSPost2010Prop29
280
     1
102
RTVSPost2010PropOp29
 70
     1
102
RTVSPost2010Prop30
280
     1
102
RTVSPost2010PropOp30
 70
     1
102
RTVSPost2010Prop31
280
     0
102
RTVSPost2010PropOp31
 70
     1
102
RTVSPost2010Prop32
280
     0
102
RTVSPost2010PropOp32
 70
     1
102
RTVSPost2010Prop33
280
     0
102
RTVSPost2010PropOp33
 70
     1
102
RTVSPost2010Prop34
280
     0
102
RTVSPost2010PropOp34
 70
     1
102
RTVSPost2010Prop35
280
     0
102
RTVSPost2010PropOp35
 70
     1
102
RTVSPost2010Prop36
280
     0
102
RTVSPost2010PropOp36
 70
     1
102
RTVSPost2010Prop37
 90
       50
102
RTVSPost2010PropOp37
 70
     1
102
RTVSPost2010Prop38
140
0.0
102
RTVSPost2010PropOp38
 70
     1
102
RTVSPost2010Prop39
140
1.0
102
RTVSPost2010PropOp39
 70
     1
102
RTVSPost2010Prop40
 90
        0
102
RTVSPost2010PropOp40
 70
     1
102
RTVSPost2010Prop41ColorIndex
 90
       18
102
RTVSPost2010Prop41ColorRGB
 90
        0
102
RTVSPost2010PropOp41
 70
     1
102
RTVSPost2010Prop42
 90
       50
102
RTVSPost2010PropOp42
 70
     1
102
RTVSPost2010Prop43
 90
        3
102
RTVSPost2010PropOp43
 70
     1
102
RTVSPost2010Prop44ColorIndex
 90
        5
102
RTVSPost2010Prop44ColorRGB
 90
      255
102
RTVSPost2010PropOp44
 70
     1
102
RTVSPost2010Prop45
280
     0
102
RTVSPost2010PropOp45
 70
     1
102
RTVSPost2010Prop46
 90
       50
102
RTVSPost2010PropOp46
 70
     1
102
RTVSPost2010Prop47
 90
       50
102
RTVSPost2010PropOp47
 70
     1
102
RTVSPost2010Prop48
 90
       50
102
RTVSPost2010PropOp48
 70
     1
102
RTVSPost2010Prop49
280
     0
102
RTVSPost2010PropOp49
 70
     1
102
RTVSPost2010Prop50
 90
       50
102
RTVSPost2010PropOp50
 70
     1
102
RTVSPost2010Prop51ColorIndex
 90
      256
102
RTVSPost2010Prop51ColorRGB
 90
-16777216
102
RTVSPost2010PropOp51
 70
     0
102
RTVSPost2010Prop52
140
1.0
102
RTVSPost2010PropOp52
 70
     0
102
RTVSPost2010Prop53
 90
        2
102
RTVSPost2010PropOp53
 70
     1
102
RTVSPost2010Prop54
  1
strokes_ogs.tif
102
RTVSPost2010PropOp54
 70
     1
102
RTVSPost2010Prop55
280
     0
102
RTVSPost2010PropOp55
 70
     1
102
RTVSPost2010Prop56
140
1.0
102
RTVSPost2010PropOp56
 70
     1
102
RTVSPost2010Prop57
140
1.0
102
RTVSPost2010PropOp57
 70
     1
  0
XRECORD
  5
47A
102
{ACAD_REACTORS
330
479
102
}
330
479
100
AcDbXrecord
280
     1
102
RTVSPost2010Prop28
280
     0
102
RTVSPost2010PropOp28
 70
     1
102
RTVSPost2010Prop29
280
     1
102
RTVSPost2010PropOp29
 70
     1
102
RTVSPost2010Prop30
280
     1
102
RTVSPost2010PropOp30
 70
     1
102
RTVSPost2010Prop31
280
     0
102
RTVSPost2010PropOp31
 70
     1
102
RTVSPost2010Prop32
280
     0
102
RTVSPost2010PropOp32
 70
     1
102
RTVSPost2010Prop33
280
     0
102
RTVSPost2010PropOp33
 70
     1
102
RTVSPost2010Prop34
280
     0
102
RTVSPost2010PropOp34
 70
     1
102
RTVSPost2010Prop35
280
     0
102
RTVSPost2010PropOp35
 70
     1
102
RTVSPost2010Prop36
280
     0
102
RTVSPost2010PropOp36
 70
     1
102
RTVSPost2010Prop37
 90
       50
102
RTVSPost2010PropOp37
 70
     1
102
RTVSPost2010Prop38
140
0.0
102
RTVSPost2010PropOp38
 70
     1
102
RTVSPost2010Prop39
140
1.0
102
RTVSPost2010PropOp39
 70
     1
102
RTVSPost2010Prop40
 90
        0
102
RTVSPost2010PropOp40
 70
     1
102
RTVSPost2010Prop41ColorIndex
 90
       18
102
RTVSPost2010Prop41ColorRGB
 90
        0
102
RTVSPost2010PropOp41
 70
     1
102
RTVSPost2010Prop42
 90
       50
102
RTVSPost2010PropOp42
 70
     1
102
RTVSPost2010Prop43
 90
        3
102
RTVSPost2010PropOp43
 70
     1
102
RTVSPost2010Prop44ColorIndex
 90
        5
102
RTVSPost2010Prop44ColorRGB
 90
      255
102
RTVSPost2010PropOp44
 70
     1
102
RTVSPost2010Prop45
280
     0
102
RTVSPost2010PropOp45
 70
     1
102
RTVSPost2010Prop46
 90
       50
102
RTVSPost2010PropOp46
 70
     1
102
RTVSPost2010Prop47
 90
       50
102
RTVSPost2010PropOp47
 70
     1
102
RTVSPost2010Prop48
 90
       50
102
RTVSPost2010PropOp48
 70
     1
102
RTVSPost2010Prop49
280
     0
102
RTVSPost2010PropOp49
 70
     1
102
RTVSPost2010Prop50
 90
       50
102
RTVSPost2010PropOp50
 70
     1
102
RTVSPost2010Prop51ColorIndex
 90
      256
102
RTVSPost2010Prop51ColorRGB
 90
-16777216
102
RTVSPost2010PropOp51
 70
     0
102
RTVSPost2010Prop52
140
1.0
102
RTVSPost2010PropOp52
 70
     0
102
RTVSPost2010Prop53
 90
        2
102
RTVSPost2010PropOp53
 70
     1
102
RTVSPost2010Prop54
  1
strokes_ogs.tif
102
RTVSPost2010PropOp54
 70
     1
102
RTVSPost2010Prop55
280
     0
102
RTVSPost2010PropOp55
 70
     1
102
RTVSPost2010Prop56
140
1.0
102
RTVSPost2010PropOp56
 70
     1
102
RTVSPost2010Prop57
140
1.0
102
RTVSPost2010PropOp57
 70
     1
  0
XRECORD
  5
474
102
{ACAD_REACTORS
330
473
102
}
330
473
100
AcDbXrecord
280
     1
102
RTVSPost2010Prop28
280
     0
102
RTVSPost2010PropOp28
 70
     1
102
RTVSPost2010Prop29
280
     1
102
RTVSPost2010PropOp29
 70
     1
102
RTVSPost2010Prop30
280
     1
102
RTVSPost2010PropOp30
 70
     1
102
RTVSPost2010Prop31
280
     0
102
RTVSPost2010PropOp31
 70
     1
102
RTVSPost2010Prop32
280
     0
102
RTVSPost2010PropOp32
 70
     1
102
RTVSPost2010Prop33
280
     0
102
RTVSPost2010PropOp33
 70
     1
102
RTVSPost2010Prop34
280
     0
102
RTVSPost2010PropOp34
 70
     1
102
RTVSPost2010Prop35
280
     0
102
RTVSPost2010PropOp35
 70
     1
102
RTVSPost2010Prop36
280
     0
102
RTVSPost2010PropOp36
 70
     1
102
RTVSPost2010Prop37
 90
       50
102
RTVSPost2010PropOp37
 70
     1
102
RTVSPost2010Prop38
140
0.0
102
RTVSPost2010PropOp38
 70
     1
102
RTVSPost2010Prop39
140
1.0
102
RTVSPost2010PropOp39
 70
     1
102
RTVSPost2010Prop40
 90
        0
102
RTVSPost2010PropOp40
 70
     1
102
RTVSPost2010Prop41ColorIndex
 90
       18
102
RTVSPost2010Prop41ColorRGB
 90
        0
102
RTVSPost2010PropOp41
 70
     1
102
RTVSPost2010Prop42
 90
       50
102
RTVSPost2010PropOp42
 70
     1
102
RTVSPost2010Prop43
 90
        3
102
RTVSPost2010PropOp43
 70
     1
102
RTVSPost2010Prop44ColorIndex
 90
        5
102
RTVSPost2010Prop44ColorRGB
 90
      255
102
RTVSPost2010PropOp44
 70
     1
102
RTVSPost2010Prop45
280
     0
102
RTVSPost2010PropOp45
 70
     1
102
RTVSPost2010Prop46
 90
       50
102
RTVSPost2010PropOp46
 70
     1
102
RTVSPost2010Prop47
 90
       50
102
RTVSPost2010PropOp47
 70
     1
102
RTVSPost2010Prop48
 90
       50
102
RTVSPost2010PropOp48
 70
     1
102
RTVSPost2010Prop49
280
     0
102
RTVSPost2010PropOp49
 70
     1
102
RTVSPost2010Prop50
 90
       50
102
RTVSPost2010PropOp50
 70
     1
102
RTVSPost2010Prop51ColorIndex
 90
      256
102
RTVSPost2010Prop51ColorRGB
 90
-16777216
102
RTVSPost2010PropOp51
 70
     0
102
RTVSPost2010Prop52
140
1.0
102
RTVSPost2010PropOp52
 70
     0
102
RTVSPost2010Prop53
 90
        2
102
RTVSPost2010PropOp53
 70
     1
102
RTVSPost2010Prop54
  1
strokes_ogs.tif
102
RTVSPost2010PropOp54
 70
     1
102
RTVSPost2010Prop55
280
     0
102
RTVSPost2010PropOp55
 70
     1
102
RTVSPost2010Prop56
140
1.0
102
RTVSPost2010PropOp56
 70
     1
102
RTVSPost2010Prop57
140
1.0
102
RTVSPost2010PropOp57
 70
     1
  0
XRECORD
  5
476
102
{ACAD_REACTORS
330
475
102
}
330
475
100
AcDbXrecord
280
     1
102
RTVSPost2010Prop28
280
     0
102
RTVSPost2010PropOp28
 70
     1
102
RTVSPost2010Prop29
280
     1
102
RTVSPost2010PropOp29
 70
     1
102
RTVSPost2010Prop30
280
     1
102
RTVSPost2010PropOp30
 70
     1
102
RTVSPost2010Prop31
280
     0
102
RTVSPost2010PropOp31
 70
     1
102
RTVSPost2010Prop32
280
     0
102
RTVSPost2010PropOp32
 70
     1
102
RTVSPost2010Prop33
280
     0
102
RTVSPost2010PropOp33
 70
     1
102
RTVSPost2010Prop34
280
     0
102
RTVSPost2010PropOp34
 70
     1
102
RTVSPost2010Prop35
280
     0
102
RTVSPost2010PropOp35
 70
     1
102
RTVSPost2010Prop36
280
     0
102
RTVSPost2010PropOp36
 70
     1
102
RTVSPost2010Prop37
 90
       50
102
RTVSPost2010PropOp37
 70
     1
102
RTVSPost2010Prop38
140
0.0
102
RTVSPost2010PropOp38
 70
     1
102
RTVSPost2010Prop39
140
1.0
102
RTVSPost2010PropOp39
 70
     1
102
RTVSPost2010Prop40
 90
        0
102
RTVSPost2010PropOp40
 70
     1
102
RTVSPost2010Prop41ColorIndex
 90
       18
102
RTVSPost2010Prop41ColorRGB
 90
        0
102
RTVSPost2010PropOp41
 70
     1
102
RTVSPost2010Prop42
 90
       50
102
RTVSPost2010PropOp42
 70
     1
102
RTVSPost2010Prop43
 90
        3
102
RTVSPost2010PropOp43
 70
     1
102
RTVSPost2010Prop44ColorIndex
 90
        5
102
RTVSPost2010Prop44ColorRGB
 90
      255
102
RTVSPost2010PropOp44
 70
     1
102
RTVSPost2010Prop45
280
     0
102
RTVSPost2010PropOp45
 70
     1
102
RTVSPost2010Prop46
 90
       50
102
RTVSPost2010PropOp46
 70
     1
102
RTVSPost2010Prop47
 90
       50
102
RTVSPost2010PropOp47
 70
     1
102
RTVSPost2010Prop48
 90
       50
102
RTVSPost2010PropOp48
 70
     1
102
RTVSPost2010Prop49
280
     0
102
RTVSPost2010PropOp49
 70
     1
102
RTVSPost2010Prop50
 90
       50
102
RTVSPost2010PropOp50
 70
     1
102
RTVSPost2010Prop51ColorIndex
 90
      256
102
RTVSPost2010Prop51ColorRGB
 90
-16777216
102
RTVSPost2010PropOp51
 70
     0
102
RTVSPost2010Prop52
140
1.0
102
RTVSPost2010PropOp52
 70
     0
102
RTVSPost2010Prop53
 90
        2
102
RTVSPost2010PropOp53
 70
     1
102
RTVSPost2010Prop54
  1
strokes_ogs.tif
102
RTVSPost2010PropOp54
 70
     1
102
RTVSPost2010Prop55
280
     0
102
RTVSPost2010PropOp55
 70
     1
102
RTVSPost2010Prop56
140
1.0
102
RTVSPost2010PropOp56
 70
     1
102
RTVSPost2010Prop57
140
1.0
102
RTVSPost2010PropOp57
 70
     1
  0
XRECORD
  5
46C
102
{ACAD_REACTORS
330
46B
102
}
330
46B
100
AcDbXrecord
280
     1
102
RTVSPost2010Prop28
280
     0
102
RTVSPost2010PropOp28
 70
     1
102
RTVSPost2010Prop29
280
     1
102
RTVSPost2010PropOp29
 70
     1
102
RTVSPost2010Prop30
280
     1
102
RTVSPost2010PropOp30
 70
     1
102
RTVSPost2010Prop31
280
     0
102
RTVSPost2010PropOp31
 70
     1
102
RTVSPost2010Prop32
280
     0
102
RTVSPost2010PropOp32
 70
     1
102
RTVSPost2010Prop33
280
     0
102
RTVSPost2010PropOp33
 70
     1
102
RTVSPost2010Prop34
280
     0
102
RTVSPost2010PropOp34
 70
     1
102
RTVSPost2010Prop35
280
     0
102
RTVSPost2010PropOp35
 70
     1
102
RTVSPost2010Prop36
280
     0
102
RTVSPost2010PropOp36
 70
     1
102
RTVSPost2010Prop37
 90
       50
102
RTVSPost2010PropOp37
 70
     1
102
RTVSPost2010Prop38
140
0.0
102
RTVSPost2010PropOp38
 70
     1
102
RTVSPost2010Prop39
140
1.0
102
RTVSPost2010PropOp39
 70
     1
102
RTVSPost2010Prop40
 90
        0
102
RTVSPost2010PropOp40
 70
     1
102
RTVSPost2010Prop41ColorIndex
 90
       18
102
RTVSPost2010Prop41ColorRGB
 90
        0
102
RTVSPost2010PropOp41
 70
     1
102
RTVSPost2010Prop42
 90
       50
102
RTVSPost2010PropOp42
 70
     1
102
RTVSPost2010Prop43
 90
        3
102
RTVSPost2010PropOp43
 70
     1
102
RTVSPost2010Prop44ColorIndex
 90
        5
102
RTVSPost2010Prop44ColorRGB
 90
      255
102
RTVSPost2010PropOp44
 70
     1
102
RTVSPost2010Prop45
280
     0
102
RTVSPost2010PropOp45
 70
     1
102
RTVSPost2010Prop46
 90
       50
102
RTVSPost2010PropOp46
 70
     1
102
RTVSPost2010Prop47
 90
       50
102
RTVSPost2010PropOp47
 70
     1
102
RTVSPost2010Prop48
 90
       50
102
RTVSPost2010PropOp48
 70
     1
102
RTVSPost2010Prop49
280
     0
102
RTVSPost2010PropOp49
 70
     1
102
RTVSPost2010Prop50
 90
       50
102
RTVSPost2010PropOp50
 70
     1
102
RTVSPost2010Prop51ColorIndex
 90
      256
102
RTVSPost2010Prop51ColorRGB
 90
-16777216
102
RTVSPost2010PropOp51
 70
     0
102
RTVSPost2010Prop52
140
1.0
102
RTVSPost2010PropOp52
 70
     0
102
RTVSPost2010Prop53
 90
        2
102
RTVSPost2010PropOp53
 70
     1
102
RTVSPost2010Prop54
  1
strokes_ogs.tif
102
RTVSPost2010PropOp54
 70
     1
102
RTVSPost2010Prop55
280
     0
102
RTVSPost2010PropOp55
 70
     1
102
RTVSPost2010Prop56
140
1.0
102
RTVSPost2010PropOp56
 70
     1
102
RTVSPost2010Prop57
140
1.0
102
RTVSPost2010PropOp57
 70
     1
  0
XRECORD
  5
460
102
{ACAD_REACTORS
330
45F
102
}
330
45F
100
AcDbXrecord
280
     1
102
RTVSPost2010Prop28
280
     0
102
RTVSPost2010PropOp28
 70
     1
102
RTVSPost2010Prop29
280
     1
102
RTVSPost2010PropOp29
 70
     1
102
RTVSPost2010Prop30
280
     1
102
RTVSPost2010PropOp30
 70
     1
102
RTVSPost2010Prop31
280
     0
102
RTVSPost2010PropOp31
 70
     1
102
RTVSPost2010Prop32
280
     0
102
RTVSPost2010PropOp32
 70
     1
102
RTVSPost2010Prop33
280
     0
102
RTVSPost2010PropOp33
 70
     1
102
RTVSPost2010Prop34
280
     0
102
RTVSPost2010PropOp34
 70
     1
102
RTVSPost2010Prop35
280
     0
102
RTVSPost2010PropOp35
 70
     1
102
RTVSPost2010Prop36
280
     0
102
RTVSPost2010PropOp36
 70
     1
102
RTVSPost2010Prop37
 90
       50
102
RTVSPost2010PropOp37
 70
     1
102
RTVSPost2010Prop38
140
0.0
102
RTVSPost2010PropOp38
 70
     1
102
RTVSPost2010Prop39
140
1.0
102
RTVSPost2010PropOp39
 70
     1
102
RTVSPost2010Prop40
 90
        0
102
RTVSPost2010PropOp40
 70
     1
102
RTVSPost2010Prop41ColorIndex
 90
       18
102
RTVSPost2010Prop41ColorRGB
 90
        0
102
RTVSPost2010PropOp41
 70
     1
102
RTVSPost2010Prop42
 90
       50
102
RTVSPost2010PropOp42
 70
     1
102
RTVSPost2010Prop43
 90
        3
102
RTVSPost2010PropOp43
 70
     1
102
RTVSPost2010Prop44ColorIndex
 90
        5
102
RTVSPost2010Prop44ColorRGB
 90
      255
102
RTVSPost2010PropOp44
 70
     1
102
RTVSPost2010Prop45
280
     0
102
RTVSPost2010PropOp45
 70
     1
102
RTVSPost2010Prop46
 90
       50
102
RTVSPost2010PropOp46
 70
     1
102
RTVSPost2010Prop47
 90
       50
102
RTVSPost2010PropOp47
 70
     1
102
RTVSPost2010Prop48
 90
       50
102
RTVSPost2010PropOp48
 70
     1
102
RTVSPost2010Prop49
280
     0
102
RTVSPost2010PropOp49
 70
     1
102
RTVSPost2010Prop50
 90
       50
102
RTVSPost2010PropOp50
 70
     1
102
RTVSPost2010Prop51ColorIndex
 90
      256
102
RTVSPost2010Prop51ColorRGB
 90
-16777216
102
RTVSPost2010PropOp51
 70
     0
102
RTVSPost2010Prop52
140
1.0
102
RTVSPost2010PropOp52
 70
     0
102
RTVSPost2010Prop53
 90
        2
102
RTVSPost2010PropOp53
 70
     1
102
RTVSPost2010Prop54
  1
strokes_ogs.tif
102
RTVSPost2010PropOp54
 70
     1
102
RTVSPost2010Prop55
280
     0
102
RTVSPost2010PropOp55
 70
     1
102
RTVSPost2010Prop56
140
1.0
102
RTVSPost2010PropOp56
 70
     1
102
RTVSPost2010Prop57
140
1.0
102
RTVSPost2010PropOp57
 70
     1
  0
XRECORD
  5
478
102
{ACAD_REACTORS
330
477
102
}
330
477
100
AcDbXrecord
280
     1
102
RTVSPost2010Prop28
280
     0
102
RTVSPost2010PropOp28
 70
     1
102
RTVSPost2010Prop29
280
     1
102
RTVSPost2010PropOp29
 70
     1
102
RTVSPost2010Prop30
280
     1
102
RTVSPost2010PropOp30
 70
     1
102
RTVSPost2010Prop31
280
     0
102
RTVSPost2010PropOp31
 70
     1
102
RTVSPost2010Prop32
280
     0
102
RTVSPost2010PropOp32
 70
     1
102
RTVSPost2010Prop33
280
     0
102
RTVSPost2010PropOp33
 70
     1
102
RTVSPost2010Prop34
280
     0
102
RTVSPost2010PropOp34
 70
     1
102
RTVSPost2010Prop35
280
     0
102
RTVSPost2010PropOp35
 70
     1
102
RTVSPost2010Prop36
280
     0
102
RTVSPost2010PropOp36
 70
     1
102
RTVSPost2010Prop37
 90
       50
102
RTVSPost2010PropOp37
 70
     1
102
RTVSPost2010Prop38
140
0.0
102
RTVSPost2010PropOp38
 70
     1
102
RTVSPost2010Prop39
140
1.0
102
RTVSPost2010PropOp39
 70
     1
102
RTVSPost2010Prop40
 90
        0
102
RTVSPost2010PropOp40
 70
     1
102
RTVSPost2010Prop41ColorIndex
 90
       18
102
RTVSPost2010Prop41ColorRGB
 90
        0
102
RTVSPost2010PropOp41
 70
     1
102
RTVSPost2010Prop42
 90
       50
102
RTVSPost2010PropOp42
 70
     1
102
RTVSPost2010Prop43
 90
        3
102
RTVSPost2010PropOp43
 70
     1
102
RTVSPost2010Prop44ColorIndex
 90
        5
102
RTVSPost2010Prop44ColorRGB
 90
      255
102
RTVSPost2010PropOp44
 70
     1
102
RTVSPost2010Prop45
280
     0
102
RTVSPost2010PropOp45
 70
     1
102
RTVSPost2010Prop46
 90
       50
102
RTVSPost2010PropOp46
 70
     1
102
RTVSPost2010Prop47
 90
       50
102
RTVSPost2010PropOp47
 70
     1
102
RTVSPost2010Prop48
 90
       50
102
RTVSPost2010PropOp48
 70
     1
102
RTVSPost2010Prop49
280
     0
102
RTVSPost2010PropOp49
 70
     1
102
RTVSPost2010Prop50
 90
       50
102
RTVSPost2010PropOp50
 70
     1
102
RTVSPost2010Prop51ColorIndex
 90
      256
102
RTVSPost2010Prop51ColorRGB
 90
-16777216
102
RTVSPost2010PropOp51
 70
     0
102
RTVSPost2010Prop52
140
1.0
102
RTVSPost2010PropOp52
 70
     0
102
RTVSPost2010Prop53
 90
        2
102
RTVSPost2010PropOp53
 70
     1
102
RTVSPost2010Prop54
  1
strokes_ogs.tif
102
RTVSPost2010PropOp54
 70
     1
102
RTVSPost2010Prop55
280
     0
102
RTVSPost2010PropOp55
 70
     1
102
RTVSPost2010Prop56
140
1.0
102
RTVSPost2010PropOp56
 70
     1
102
RTVSPost2010Prop57
140
1.0
102
RTVSPost2010PropOp57
 70
     1
  0
ENDSEC
  0
EOF
