  0
SECTION
  2
HEADER
  9
$ACADVER
  1
AC1018
  9
$ACADMAINTVER
 70
   104
  9
$DWGCODEPAGE
  3
ANSI_932
  9
$LASTSAVEDBY
  1
CPTIO008
  9
$INSBASE
 10
0.0
 20
0.0
 30
0.0
  9
$EXTMIN
 10
-237.2263146483291
 20
-53.74623665258929
 30
-0.0015258207003583
  9
$EXTMAX
 10
39.30780398018919
 20
135.7747899348982
 30
0.0000000349246037
  9
$LIMMIN
 10
-247.2100037059508
 20
-63.73738705550861
  9
$LIMMAX
 10
49.78999629404917
 20
146.2626129444914
  9
$ORTHOMODE
 70
     1
  9
$REGENMODE
 70
     1
  9
$FILLMODE
 70
     1
  9
$QTEXTMODE
 70
     0
  9
$MIRRTEXT
 70
     1
  9
$LTSCALE
 40
0.3
  9
$ATTMODE
 70
     1
  9
$TEXTSIZE
 40
2.5
  9
$TRACEWID
 40
1.0
  9
$TEXTSTYLE
  7
Standard
  9
$CLAYER
  8
寸法線
  9
$CELTYPE
  6
ByLayer
  9
$CECOLOR
 62
   256
  9
$CELTSCALE
 40
1.0
  9
$DISPSILH
 70
     0
  9
$DIMSCALE
 40
1.0
  9
$DIMASZ
 40
2.5
  9
$DIMEXO
 40
0.625
  9
$DIMDLI
 40
3.75
  9
$DIMRND
 40
0.0
  9
$DIMDLE
 40
0.0
  9
$DIMEXE
 40
1.25
  9
$DIMTP
 40
0.0
  9
$DIMTM
 40
0.0
  9
$DIMTXT
 40
2.5
  9
$DIMCEN
 40
2.5
  9
$DIMTSZ
 40
0.0
  9
$DIMTOL
 70
     0
  9
$DIMLIM
 70
     0
  9
$DIMTIH
 70
     0
  9
$DIMTOH
 70
     0
  9
$DIMSE1
 70
     0
  9
$DIMSE2
 70
     0
  9
$DIMTAD
 70
     1
  9
$DIMZIN
 70
     8
  9
$DIMBLK
  1

  9
$DIMASO
 70
     1
  9
$DIMSHO
 70
     1
  9
$DIMPOST
  1

  9
$DIMAPOST
  1

  9
$DIMALT
 70
     0
  9
$DIMALTD
 70
     3
  9
$DIMALTF
 40
0.03937007874016
  9
$DIMLFAC
 40
1.0
  9
$DIMTOFL
 70
     1
  9
$DIMTVP
 40
0.0
  9
$DIMTIX
 70
     0
  9
$DIMSOXD
 70
     0
  9
$DIMSAH
 70
     0
  9
$DIMBLK1
  1

  9
$DIMBLK2
  1

  9
$DIMSTYLE
  2
ISO-25
  9
$DIMCLRD
 70
     0
  9
$DIMCLRE
 70
     0
  9
$DIMCLRT
 70
     0
  9
$DIMTFAC
 40
1.0
  9
$DIMGAP
 40
0.625
  9
$DIMJUST
 70
     0
  9
$DIMSD1
 70
     0
  9
$DIMSD2
 70
     0
  9
$DIMTOLJ
 70
     0
  9
$DIMTZIN
 70
     8
  9
$DIMALTZ
 70
     0
  9
$DIMALTTZ
 70
     0
  9
$DIMUPT
 70
     0
  9
$DIMDEC
 70
     2
  9
$DIMTDEC
 70
     2
  9
$DIMALTU
 70
     2
  9
$DIMALTTD
 70
     3
  9
$DIMTXSTY
  7
Standard
  9
$DIMAUNIT
 70
     0
  9
$DIMADEC
 70
     0
  9
$DIMALTRND
 40
0.0
  9
$DIMAZIN
 70
     0
  9
$DIMDSEP
 70
    44
  9
$DIMATFIT
 70
     3
  9
$DIMFRAC
 70
     0
  9
$DIMLDRBLK
  1

  9
$DIMLUNIT
 70
     2
  9
$DIMLWD
 70
    -2
  9
$DIMLWE
 70
    -2
  9
$DIMTMOVE
 70
     0
  9
$LUNITS
 70
     2
  9
$LUPREC
 70
     4
  9
$SKETCHINC
 40
1.0
  9
$FILLETRAD
 40
0.0
  9
$AUNITS
 70
     0
  9
$AUPREC
 70
     0
  9
$MENU
  1
.
  9
$ELEVATION
 40
0.0
  9
$PELEVATION
 40
0.0
  9
$THICKNESS
 40
0.0
  9
$LIMCHECK
 70
     0
  9
$CHAMFERA
 40
10.0
  9
$CHAMFERB
 40
10.0
  9
$CHAMFERC
 40
20.0
  9
$CHAMFERD
 40
0.0
  9
$SKPOLY
 70
     0
  9
$TDCREATE
 40
2454600.757606516
  9
$TDUCREATE
 40
2454600.382606516
  9
$TDUPDATE
 40
2457458.622292419
  9
$TDUUPDATE
 40
2457458.247292419
  9
$TDINDWG
 40
0.0368907986
  9
$TDUSRTIMER
 40
0.0368823032
  9
$USRTIMER
 70
     1
  9
$ANGBASE
 50
0.0
  9
$ANGDIR
 70
     0
  9
$PDMODE
 70
     0
  9
$PDSIZE
 40
0.0
  9
$PLINEWID
 40
0.0
  9
$SPLFRAME
 70
     0
  9
$SPLINETYPE
 70
     6
  9
$SPLINESEGS
 70
     8
  9
$HANDSEED
  5
1182
  9
$SURFTAB1
 70
     6
  9
$SURFTAB2
 70
     6
  9
$SURFTYPE
 70
     6
  9
$SURFU
 70
     6
  9
$SURFV
 70
     6
  9
$UCSBASE
  2

  9
$UCSNAME
  2

  9
$UCSORG
 10
0.0
 20
0.0
 30
0.0
  9
$UCSXDIR
 10
1.0
 20
0.0
 30
0.0
  9
$UCSYDIR
 10
0.0
 20
1.0
 30
0.0
  9
$UCSORTHOREF
  2

  9
$UCSORTHOVIEW
 70
     0
  9
$UCSORGTOP
 10
0.0
 20
0.0
 30
0.0
  9
$UCSORGBOTTOM
 10
0.0
 20
0.0
 30
0.0
  9
$UCSORGLEFT
 10
0.0
 20
0.0
 30
0.0
  9
$UCSORGRIGHT
 10
0.0
 20
0.0
 30
0.0
  9
$UCSORGFRONT
 10
0.0
 20
0.0
 30
0.0
  9
$UCSORGBACK
 10
0.0
 20
0.0
 30
0.0
  9
$PUCSBASE
  2

  9
$PUCSNAME
  2

  9
$PUCSORG
 10
0.0
 20
0.0
 30
0.0
  9
$PUCSXDIR
 10
1.0
 20
0.0
 30
0.0
  9
$PUCSYDIR
 10
0.0
 20
1.0
 30
0.0
  9
$PUCSORTHOREF
  2

  9
$PUCSORTHOVIEW
 70
     0
  9
$PUCSORGTOP
 10
0.0
 20
0.0
 30
0.0
  9
$PUCSORGBOTTOM
 10
0.0
 20
0.0
 30
0.0
  9
$PUCSORGLEFT
 10
0.0
 20
0.0
 30
0.0
  9
$PUCSORGRIGHT
 10
0.0
 20
0.0
 30
0.0
  9
$PUCSORGFRONT
 10
0.0
 20
0.0
 30
0.0
  9
$PUCSORGBACK
 10
0.0
 20
0.0
 30
0.0
  9
$USERI1
 70
     0
  9
$USERI2
 70
     0
  9
$USERI3
 70
     0
  9
$USERI4
 70
     0
  9
$USERI5
 70
     0
  9
$USERR1
 40
0.0
  9
$USERR2
 40
0.0
  9
$USERR3
 40
0.0
  9
$USERR4
 40
0.0
  9
$USERR5
 40
0.0
  9
$WORLDVIEW
 70
     1
  9
$SHADEDGE
 70
     3
  9
$SHADEDIF
 70
    70
  9
$TILEMODE
 70
     1
  9
$MAXACTVP
 70
    64
  9
$PINSBASE
 10
0.0
 20
0.0
 30
0.0
  9
$PLIMCHECK
 70
     0
  9
$PEXTMIN
 10
1.000000000000000E+20
 20
1.000000000000000E+20
 30
1.000000000000000E+20
  9
$PEXTMAX
 10
-1.000000000000000E+20
 20
-1.000000000000000E+20
 30
-1.000000000000000E+20
  9
$PLIMMIN
 10
-247.2100037059508
 20
-63.73738705550861
  9
$PLIMMAX
 10
49.78999629404917
 20
146.2626129444914
  9
$UNITMODE
 70
     0
  9
$VISRETAIN
 70
     1
  9
$PLINEGEN
 70
     0
  9
$PSLTSCALE
 70
     1
  9
$TREEDEPTH
 70
  3020
  9
$CMLSTYLE
  2
Standard
  9
$CMLJUST
 70
     0
  9
$CMLSCALE
 40
20.0
  9
$PROXYGRAPHICS
 70
     1
  9
$MEASUREMENT
 70
     1
  9
$CELWEIGHT
370
    -1
  9
$ENDCAPS
280
     0
  9
$JOINSTYLE
280
     0
  9
$LWDISPLAY
290
     1
  9
$INSUNITS
 70
     4
  9
$HYPERLINKBASE
  1

  9
$STYLESHEET
  1
monochrome.ctb
  9
$XEDIT
290
     1
  9
$CEPSNTYPE
380
     0
  9
$PSTYLEMODE
290
     1
  9
$FINGERPRINTGUID
  2
{9ED336E0-91E0-4655-9E86-67914F947B34}
  9
$VERSIONGUID
  2
{74A20FA1-944A-4F78-953A-0F0FC2D3D987}
  9
$EXTNAMES
290
     1
  9
$PSVPSCALE
 40
0.0
  9
$OLESTARTUP
290
     0
  9
$SORTENTS
280
   127
  9
$INDEXCTL
280
     0
  9
$HIDETEXT
280
     0
  9
$XCLIPFRAME
290
     0
  9
$HALOGAP
280
     0
  9
$OBSCOLOR
 70
   257
  9
$OBSLTYPE
280
     0
  9
$INTERSECTIONDISPLAY
280
     0
  9
$INTERSECTIONCOLOR
 70
   257
  9
$DIMASSOC
280
     1
  9
$PROJECTNAME
  1

  0
ENDSEC
  0
SECTION
  2
CLASSES
  0
CLASS
  1
ACDBDICTIONARYWDFLT
  2
AcDbDictionaryWithDefault
  3
ObjectDBX Classes
 90
        0
 91
        1
280
     0
281
     0
  0
CLASS
  1
TABLESTYLE
  2
AcDbTableStyle
  3
ObjectDBX Classes
 90
     4095
 91
        1
280
     0
281
     0
  0
CLASS
  1
DICTIONARYVAR
  2
AcDbDictionaryVar
  3
ObjectDBX Classes
 90
        0
 91
       12
280
     0
281
     0
  0
CLASS
  1
SORTENTSTABLE
  2
AcDbSortentsTable
  3
ObjectDBX Classes
 90
        0
 91
        1
280
     0
281
     0
  0
CLASS
  1
PLOTSETTINGS
  2
AcDbPlotSettings
  3
ObjectDBX Classes
 90
        0
 91
        2
280
     0
281
     0
  0
CLASS
  1
MATERIAL
  2
AcDbMaterial
  3
ObjectDBX Classes
 90
     1153
 91
        3
280
     0
281
     0
  0
CLASS
  1
VISUALSTYLE
  2
AcDbVisualStyle
  3
ObjectDBX Classes
 90
     4095
 91
       24
280
     0
281
     0
  0
CLASS
  1
SCALE
  2
AcDbScale
  3
ObjectDBX Classes
 90
     1153
 91
       17
280
     0
281
     0
  0
CLASS
  1
MLEADERSTYLE
  2
AcDbMLeaderStyle
  3
ACDB_MLEADERSTYLE_CLASS
 90
     4095
 91
        1
280
     0
281
     0
  0
CLASS
  1
ACDBSECTIONVIEWSTYLE
  2
AcDbSectionViewStyle
  3
ObjectDBX Classes
 90
     1025
 91
        1
280
     0
281
     0
  0
CLASS
  1
ACDBDETAILVIEWSTYLE
  2
AcDbDetailViewStyle
  3
ObjectDBX Classes
 90
     1025
 91
        1
280
     0
281
     0
  0
CLASS
  1
CELLSTYLEMAP
  2
AcDbCellStyleMap
  3
ObjectDBX Classes
 90
     1152
 91
        1
280
     0
281
     0
  0
ENDSEC
  0
SECTION
  2
TABLES
  0
TABLE
  2
VPORT
  5
8
330
0
100
AcDbSymbolTable
 70
     1
  0
VPORT
  5
1056
330
8
100
AcDbSymbolTableRecord
100
AcDbViewportTableRecord
  2
*Active
 70
     0
 10
0.0
 20
0.0
 11
1.0
 21
1.0
 12
-169.3137135164877
 22
85.98545505274813
 13
0.0
 23
0.0
 14
10.0
 24
10.0
 15
10.0
 25
10.0
 16
0.0
 26
0.0
 36
1.0
 17
0.0
 27
0.0
 37
0.0
 40
327.6598356170603
 41
2.047557840616966
 42
50.0
 43
0.0
 44
0.0
 50
0.0
 51
0.0
 71
     0
 72
   100
 73
     1
 74
     3
 75
     0
 76
     0
 77
     0
 78
     0
281
     0
 65
     1
110
0.0
120
0.0
130
0.0
111
1.0
121
0.0
131
0.0
112
0.0
122
1.0
132
0.0
 79
     0
146
0.0
1001
ACAD_NAV_VCDISPLAY
1070
     3
  0
ENDTAB
  0
TABLE
  2
LTYPE
  5
5
330
0
100
AcDbSymbolTable
 70
     8
  0
LTYPE
  5
14
330
5
100
AcDbSymbolTableRecord
100
AcDbLinetypeTableRecord
  2
ByBlock
 70
     0
  3

 72
    65
 73
     0
 40
0.0
  0
LTYPE
  5
15
330
5
100
AcDbSymbolTableRecord
100
AcDbLinetypeTableRecord
  2
ByLayer
 70
     0
  3

 72
    65
 73
     0
 40
0.0
  0
LTYPE
  5
16
330
5
100
AcDbSymbolTableRecord
100
AcDbLinetypeTableRecord
  2
Continuous
 70
     0
  3
Solid line
 72
    65
 73
     0
 40
0.0
  0
LTYPE
  5
2A
330
5
100
AcDbSymbolTableRecord
100
AcDbLinetypeTableRecord
  2
CONTINOUS
 70
     0
  3
______________________________
 72
    65
 73
     0
 40
0.0
  0
LTYPE
  5
2B
330
5
100
AcDbSymbolTableRecord
100
AcDbLinetypeTableRecord
  2
DASHED
 70
     0
  3
__ __ __ __ __ __ __ __ __ __ __ __ __ __ __ __
 72
    65
 73
     2
 40
4.5
 49
3.0
 74
     0
 49
-1.5
 74
     0
  0
LTYPE
  5
2C
330
5
100
AcDbSymbolTableRecord
100
AcDbLinetypeTableRecord
  2
PHANTOM
 70
     0
  3
______  __  __  ______  __  __  _____
 72
    65
 73
     6
 40
15.0
 49
7.5
 74
     0
 49
-1.5
 74
     0
 49
1.5
 74
     0
 49
-1.5
 74
     0
 49
1.5
 74
     0
 49
-1.5
 74
     0
  0
LTYPE
  5
2D
330
5
100
AcDbSymbolTableRecord
100
AcDbLinetypeTableRecord
  2
CENTER
 70
     0
  3
____ _ ____ _ ____ _ ____ _ ____ _ ____
 72
    65
 73
     4
 40
12.0
 49
7.5
 74
     0
 49
-1.5
 74
     0
 49
1.5
 74
     0
 49
-1.5
 74
     0
  0
LTYPE
  5
16D
330
5
100
AcDbSymbolTableRecord
100
AcDbLinetypeTableRecord
  2
CENTER2
 70
     0
  3
Center (.5x) ___ _ ___ _ ___ _ ___ _ ___ _ ___
 72
    65
 73
     4
 40
28.575
 49
19.05
 74
     0
 49
-3.174999999999998
 74
     0
 49
3.174999999999998
 74
     0
 49
-3.174999999999998
 74
     0
  0
LTYPE
  5
16E
330
5
100
AcDbSymbolTableRecord
100
AcDbLinetypeTableRecord
  2
HIDDEN2
 70
     0
  3
Hidden (.5x) _ _ _ _ _ _ _ _ _ _ _ _ _ _ _ _ _
 72
    65
 73
     2
 40
4.762499999999998
 49
3.174999999999998
 74
     0
 49
-1.587499999999999
 74
     0
  0
ENDTAB
  0
TABLE
  2
LAYER
  5
2
330
0
100
AcDbSymbolTable
 70
    11
  0
LAYER
  5
10
102
{ACAD_XDICTIONARY
360
10C8
102
}
330
2
100
AcDbSymbolTableRecord
100
AcDbLayerTableRecord
  2
0
 70
     0
 62
     7
  6
Continuous
370
    -3
390
F
  0
LAYER
  5
F1
330
2
100
AcDbSymbolTableRecord
100
AcDbLayerTableRecord
  2
Defpoints
 70
     0
 62
     7
  6
Continuous
290
     0
370
    -3
390
F
  0
LAYER
  5
149
102
{ACAD_XDICTIONARY
360
10CA
102
}
330
2
100
AcDbSymbolTableRecord
100
AcDbLayerTableRecord
  2
VIEW0001
 70
     0
 62
     7
  6
Continuous
370
    -3
390
F
  0
LAYER
  5
153
102
{ACAD_XDICTIONARY
360
10CC
102
}
330
2
100
AcDbSymbolTableRecord
100
AcDbLayerTableRecord
  2
VIEW0002
 70
     0
 62
     7
  6
Continuous
370
    -3
390
F
  0
LAYER
  5
16F
102
{ACAD_XDICTIONARY
360
10CE
102
}
330
2
100
AcDbSymbolTableRecord
100
AcDbLayerTableRecord
  2
外形線
 70
     0
 62
     7
  6
Continuous
370
    30
390
F
1001
AcAecLayerStandard
1000

1000

  0
LAYER
  5
170
102
{ACAD_XDICTIONARY
360
10D0
102
}
330
2
100
AcDbSymbolTableRecord
100
AcDbLayerTableRecord
  2
図枠
 70
     0
 62
     7
  6
Continuous
370
    50
390
F
1001
AcAecLayerStandard
1000

1000

  0
LAYER
  5
171
102
{ACAD_XDICTIONARY
360
10D2
102
}
330
2
100
AcDbSymbolTableRecord
100
AcDbLayerTableRecord
  2
寸法線
 70
     0
 62
     3
  6
Continuous
370
    15
390
F
1001
AcAecLayerStandard
1000

1000

  0
LAYER
  5
172
102
{ACAD_XDICTIONARY
360
10D4
102
}
330
2
100
AcDbSymbolTableRecord
100
AcDbLayerTableRecord
  2
中心線
 70
     0
 62
     5
  6
CENTER2
370
    -3
390
F
1001
AcAecLayerStandard
1000

1000

  0
LAYER
  5
173
102
{ACAD_XDICTIONARY
360
10D6
102
}
330
2
100
AcDbSymbolTableRecord
100
AcDbLayerTableRecord
  2
破線
 70
     0
 62
     4
  6
HIDDEN2
370
    -3
390
F
1001
AcAecLayerStandard
1000

1000

  0
LAYER
  5
174
102
{ACAD_XDICTIONARY
360
10D8
102
}
330
2
100
AcDbSymbolTableRecord
100
AcDbLayerTableRecord
  2
文字
 70
     0
 62
     2
  6
Continuous
370
    -3
390
F
1001
AcAecLayerStandard
1000

1000

  0
LAYER
  5
175
102
{ACAD_XDICTIONARY
360
10DA
102
}
330
2
100
AcDbSymbolTableRecord
100
AcDbLayerTableRecord
  2
補助線
 70
     0
 62
   252
  6
HIDDEN2
290
     0
370
    -3
390
F
1001
AcAecLayerStandard
1000

1000

  0
ENDTAB
  0
TABLE
  2
STYLE
  5
3
330
0
100
AcDbSymbolTable
 70
     3
  0
STYLE
  5
11
330
3
100
AcDbSymbolTableRecord
100
AcDbTextStyleTableRecord
  2
Standard
 70
     0
 40
0.0
 41
1.0
 50
0.0
 71
     0
 42
2.5
  3
txt
  4
EXTFONT
  0
ENDTAB
  0
TABLE
  2
VIEW
  5
6
330
0
100
AcDbSymbolTable
 70
     0
  0
ENDTAB
  0
TABLE
  2
UCS
  5
7
330
0
100
AcDbSymbolTable
 70
     0
  0
ENDTAB
  0
TABLE
  2
APPID
  5
9
330
0
100
AcDbSymbolTable
 70
     6
  0
APPID
  5
12
330
9
100
AcDbSymbolTableRecord
100
AcDbRegAppTableRecord
  2
ACAD
 70
     0
  0
APPID
  5
177
330
9
100
AcDbSymbolTableRecord
100
AcDbRegAppTableRecord
  2
AcAecLayerStandard
 70
     0
  0
APPID
  5
FEC
330
9
100
AcDbSymbolTableRecord
100
AcDbRegAppTableRecord
  2
ACAD_PSEXT
 70
     0
  0
APPID
  5
10BF
330
9
100
AcDbSymbolTableRecord
100
AcDbRegAppTableRecord
  2
ACAD_NAV_VCDISPLAY
 70
     0
  0
APPID
  5
112D
330
9
100
AcDbSymbolTableRecord
100
AcDbRegAppTableRecord
  2
ACAD_EXEMPT_FROM_CAD_STANDARDS
 70
     0
  0
APPID
  5
117F
330
9
100
AcDbSymbolTableRecord
100
AcDbRegAppTableRecord
  2
ACAD_MLEADERVER
 70
     0
  0
ENDTAB
  0
TABLE
  2
DIMSTYLE
  5
A
330
0
100
AcDbSymbolTable
 70
     4
100
AcDbDimStyleTable
 71
     1
340
27
  0
DIMSTYLE
105
27
102
{ACAD_REACTORS
330
852
330
853
330
854
330
855
330
856
330
857
330
858
330
859
330
85A
330
85B
330
85C
330
85D
330
85E
330
85F
330
860
102
}
330
A
100
AcDbSymbolTableRecord
100
AcDbDimStyleTableRecord
  2
ISO-25
 70
     0
 41
2.5
 42
0.625
 43
3.75
 44
1.25
 73
     0
 74
     0
 77
     1
 78
     8
140
2.5
141
2.5
143
0.03937007874016
147
0.625
171
     3
172
     1
271
     2
272
     2
274
     3
278
    44
283
     0
284
     8
340
11
  0
DIMSTYLE
105
176
330
A
100
AcDbSymbolTableRecord
100
AcDbDimStyleTableRecord
  2
Standard
 70
     0
340
11
  0
ENDTAB
  0
TABLE
  2
BLOCK_RECORD
  5
1
330
0
100
AcDbSymbolTable
 70
    21
  0
BLOCK_RECORD
  5
1F
102
{ACAD_XDICTIONARY
360
1F5
102
}
330
1
100
AcDbSymbolTableRecord
100
AcDbBlockTableRecord
  2
*Model_Space
340
22
  0
BLOCK_RECORD
  5
1B
330
1
100
AcDbSymbolTableRecord
100
AcDbBlockTableRecord
  2
*Paper_Space
340
1E
  0
BLOCK_RECORD
  5
23
330
1
100
AcDbSymbolTableRecord
100
AcDbBlockTableRecord
  2
*Paper_Space0
340
26
  0
BLOCK_RECORD
  5
2E
330
1
100
AcDbSymbolTableRecord
100
AcDbBlockTableRecord
  2
DTL0001
340
0
  0
BLOCK_RECORD
  5
31
330
1
100
AcDbSymbolTableRecord
100
AcDbBlockTableRecord
  2
DTL0002
340
0
  0
BLOCK_RECORD
  5
EB
330
1
100
AcDbSymbolTableRecord
100
AcDbBlockTableRecord
  2
_Open30
340
0
102
{BLKREFS
331
1065
331
1066
331
106D
331
106E
331
E44
331
E45
331
E55
331
E56
331
E5E
331
E5F
331
EB6
331
EB7
331
F81
331
F82
331
F92
331
F93
331
F9B
331
F9C
331
FA4
331
FA5
331
FC7
331
FC8
331
FD0
331
FD1
331
1000
331
1001
331
1009
331
100A
331
1021
331
1022
102
}
  0
BLOCK_RECORD
  5
861
330
1
100
AcDbSymbolTableRecord
100
AcDbBlockTableRecord
  2
*D4
340
0
  0
BLOCK_RECORD
  5
86D
330
1
100
AcDbSymbolTableRecord
100
AcDbBlockTableRecord
  2
*D5
340
0
  0
BLOCK_RECORD
  5
879
330
1
100
AcDbSymbolTableRecord
100
AcDbBlockTableRecord
  2
*D6
340
0
  0
BLOCK_RECORD
  5
884
330
1
100
AcDbSymbolTableRecord
100
AcDbBlockTableRecord
  2
*D7
340
0
  0
BLOCK_RECORD
  5
890
330
1
100
AcDbSymbolTableRecord
100
AcDbBlockTableRecord
  2
*D8
340
0
  0
BLOCK_RECORD
  5
89C
330
1
100
AcDbSymbolTableRecord
100
AcDbBlockTableRecord
  2
*D9
340
0
  0
BLOCK_RECORD
  5
8A8
330
1
100
AcDbSymbolTableRecord
100
AcDbBlockTableRecord
  2
*D10
340
0
  0
BLOCK_RECORD
  5
8B3
330
1
100
AcDbSymbolTableRecord
100
AcDbBlockTableRecord
  2
*D11
340
0
  0
BLOCK_RECORD
  5
8BF
330
1
100
AcDbSymbolTableRecord
100
AcDbBlockTableRecord
  2
*D12
340
0
  0
BLOCK_RECORD
  5
8CB
330
1
100
AcDbSymbolTableRecord
100
AcDbBlockTableRecord
  2
*D13
340
0
  0
BLOCK_RECORD
  5
8D7
330
1
100
AcDbSymbolTableRecord
100
AcDbBlockTableRecord
  2
*D14
340
0
  0
BLOCK_RECORD
  5
8E3
330
1
100
AcDbSymbolTableRecord
100
AcDbBlockTableRecord
  2
*D15
340
0
  0
BLOCK_RECORD
  5
8EE
330
1
100
AcDbSymbolTableRecord
100
AcDbBlockTableRecord
  2
*D16
340
0
  0
BLOCK_RECORD
  5
8FA
330
1
100
AcDbSymbolTableRecord
100
AcDbBlockTableRecord
  2
*D17
340
0
  0
BLOCK_RECORD
  5
906
330
1
100
AcDbSymbolTableRecord
100
AcDbBlockTableRecord
  2
*D18
340
0
  0
ENDTAB
  0
ENDSEC
  0
SECTION
  2
BLOCKS
  0
BLOCK
  5
20
330
1F
100
AcDbEntity
  8
0
100
AcDbBlockBegin
  2
*Model_Space
 70
     0
 10
0.0
 20
0.0
 30
0.0
  3
*Model_Space
  1

  0
ENDBLK
  5
21
330
1F
100
AcDbEntity
  8
0
100
AcDbBlockEnd
  0
BLOCK
  5
1C
330
1B
100
AcDbEntity
 67
     1
  8
0
100
AcDbBlockBegin
  2
*Paper_Space
 70
     0
 10
0.0
 20
0.0
 30
0.0
  3
*Paper_Space
  1

  0
ENDBLK
  5
1D
330
1B
100
AcDbEntity
 67
     1
  8
0
100
AcDbBlockEnd
  0
BLOCK
  5
24
330
23
100
AcDbEntity
 67
     1
  8
0
100
AcDbBlockBegin
  2
*Paper_Space0
 70
     0
 10
0.0
 20
0.0
 30
0.0
  3
*Paper_Space0
  1

  0
ENDBLK
  5
25
330
23
100
AcDbEntity
 67
     1
  8
0
100
AcDbBlockEnd
  0
BLOCK
  5
2F
330
2E
100
AcDbEntity
  8
0
100
AcDbBlockBegin
  2
DTL0001
 70
     0
 10
0.0
 20
0.0
 30
0.0
  3
DTL0001
  1

  0
POINT
  5
34
330
2E
100
AcDbEntity
  8
0
 62
     0
100
AcDbPoint
 10
-210.0
 20
148.5
 30
0.0
  0
POINT
  5
35
330
2E
100
AcDbEntity
  8
0
 62
     0
100
AcDbPoint
 10
210.0
 20
-148.5
 30
0.0
  0
POINT
  5
36
330
2E
100
AcDbEntity
  8
0
 62
     0
100
AcDbPoint
 10
0.0
 20
0.0
 30
0.0
  0
POINT
  5
37
330
2E
100
AcDbEntity
  8
0
 62
     0
100
AcDbPoint
 10
199.0
 20
-143.5
 30
0.0
  0
MTEXT
  5
38
330
2E
100
AcDbEntity
  8
0
 62
     3
100
AcDbMText
 10
-176.0001562833786
 20
127.0
 30
0.0
 40
7.0
 41
0.0
 71
     7
 72
     1
  1
{\W1;A3}
 73
     1
 44
1.0
  0
ENDBLK
  5
30
330
2E
100
AcDbEntity
  8
0
100
AcDbBlockEnd
  0
BLOCK
  5
32
330
31
100
AcDbEntity
  8
0
100
AcDbBlockBegin
  2
DTL0002
 70
     0
 10
0.0
 20
0.0
 30
0.0
  3
DTL0002
  1

  0
POINT
  5
39
330
31
100
AcDbEntity
  8
0
 62
     0
100
AcDbPoint
 10
14.10803031921387
 20
2.600008726119995
 30
0.0
  0
POINT
  5
3A
330
31
100
AcDbEntity
  8
0
 62
     0
100
AcDbPoint
 10
-9.563276290893556
 20
-17.89998817443848
 30
0.0
  0
POINT
  5
3B
330
31
100
AcDbEntity
  8
0
 62
     0
100
AcDbPoint
 10
-14.10800933837891
 20
2.600009441375731
 30
0.0
  0
POINT
  5
3C
330
31
100
AcDbEntity
  8
0
 62
     0
100
AcDbPoint
 10
9.563283920288084
 20
-17.89999198913574
 30
0.0
  0
POINT
  5
3D
330
31
100
AcDbEntity
  8
0
 62
     0
100
AcDbPoint
 10
0.0
 20
0.0
 30
0.0
  0
LINE
  5
3E
330
31
100
AcDbEntity
  8
0
  6
Continuous
 62
     0
100
AcDbLine
 10
-9.563274477406116
 20
-17.89998877831458
 30
0.0
 11
-14.10800707515126
 21
2.60000979015135
 31
0.0
  0
LINE
  5
3F
330
31
100
AcDbEntity
  8
0
  6
Continuous
 62
     0
100
AcDbLine
 10
-9.563278198242187
 20
-17.89999198913574
 30
0.0
 11
9.563282012939453
 21
-17.89999198913574
 31
0.0
  0
LINE
  5
40
330
31
100
AcDbEntity
  8
0
  6
Continuous
 62
     0
100
AcDbLine
 10
9.563285262803855
 20
-17.89998396039341
 30
0.0
 11
14.10803051382093
 21
2.600011314495751
 31
0.0
  0
ENDBLK
  5
33
330
31
100
AcDbEntity
  8
0
100
AcDbBlockEnd
  0
BLOCK
  5
EC
330
EB
100
AcDbEntity
  8
0
100
AcDbBlockBegin
  2
_Open30
 70
     0
 10
0.0
 20
0.0
 30
0.0
  3
_Open30
  1

  0
LINE
  5
EE
330
EB
100
AcDbEntity
  8
0
  6
ByBlock
 62
     0
370
    -2
100
AcDbLine
 10
-1.0
 20
0.267949
 30
0.0
 11
0.0
 21
0.0
 31
0.0
  0
LINE
  5
EF
330
EB
100
AcDbEntity
  8
0
  6
ByBlock
 62
     0
370
    -2
100
AcDbLine
 10
0.0
 20
0.0
 30
0.0
 11
-1.0
 21
-0.267949
 31
0.0
  0
LINE
  5
F0
330
EB
100
AcDbEntity
  8
0
  6
ByBlock
 62
     0
370
    -2
100
AcDbLine
 10
0.0
 20
0.0
 30
0.0
 11
-1.0
 21
0.0
 31
0.0
  0
ENDBLK
  5
ED
330
EB
100
AcDbEntity
  8
0
100
AcDbBlockEnd
  0
BLOCK
  5
86B
330
861
100
AcDbEntity
  8
0
100
AcDbBlockBegin
  2
*D4
 70
     1
 10
0.0
 20
0.0
 30
0.0
  3
*D4
  1

  0
LINE
  5
1006
330
861
100
AcDbEntity
  8
寸法線
 62
     0
440
 16777216
370
    -2
100
AcDbLine
 10
-42.73292422096018
 20
40.91124783697771
 30
0.0
 11
-53.11984152394296
 21
40.91124783697771
 31
0.0
  0
LINE
  5
1007
330
861
100
AcDbEntity
  8
寸法線
 62
     0
440
 16777216
370
    -2
100
AcDbLine
 10
-25.13972422096014
 20
84.3272478369777
 30
0.0
 11
-53.11984152394293
 21
84.3272478369777
 31
0.0
  0
LINE
  5
1008
330
861
100
AcDbEntity
  8
寸法線
 62
     0
440
 16777216
370
    -2
100
AcDbLine
 10
-52.205441523943
 20
43.91124783697772
 30
0.0
 11
-52.205441523943
 21
81.32724783697772
 31
0.0
  0
INSERT
  5
1009
330
861
100
AcDbEntity
  8
寸法線
 62
     0
440
 16777216
370
    -2
100
AcDbBlockReference
  2
_Open30
 10
-52.205441523943
 20
40.91124783697771
 30
0.0
 41
3.0
 42
3.0
 43
3.0
 50
270.0
  0
INSERT
  5
100A
330
861
100
AcDbEntity
  8
寸法線
 62
     0
440
 16777216
370
    -2
100
AcDbBlockReference
  2
_Open30
 10
-52.205441523943
 20
84.3272478369777
 30
0.0
 41
3.0
 42
3.0
 43
3.0
 50
90.0
  0
MTEXT
  5
100B
330
861
100
AcDbEntity
  8
寸法線
 62
     0
440
 16777216
100
AcDbMText
 10
-54.60544155970579
 20
62.61924783697772
 30
0.0
 40
3.200000047683716
 41
0.0
 71
     5
 72
     1
  1
L1
 11
0.0000000000000001
 21
1.0
 31
0.0
 73
     1
 44
1.0
  0
POINT
  5
100C
330
861
100
AcDbEntity
  8
Defpoints
 62
     0
440
 16777216
100
AcDbPoint
 10
-40.19292422096017
 20
40.91124783697771
 30
0.0
  0
POINT
  5
100D
330
861
100
AcDbEntity
  8
Defpoints
 62
     0
440
 16777216
100
AcDbPoint
 10
-22.59972422096014
 20
84.3272478369777
 30
0.0
  0
POINT
  5
100E
330
861
100
AcDbEntity
  8
Defpoints
 62
     0
440
 16777216
100
AcDbPoint
 10
-52.205441523943
 20
84.3272478369777
 30
0.0
  0
ENDBLK
  5
86C
330
861
100
AcDbEntity
  8
0
100
AcDbBlockEnd
  0
BLOCK
  5
877
330
86D
100
AcDbEntity
  8
0
100
AcDbBlockBegin
  2
*D5
 70
     1
 10
0.0
 20
0.0
 30
0.0
  3
*D5
  1

  0
LINE
  5
FFD
330
86D
100
AcDbEntity
  8
寸法線
 62
     0
440
 16777216
370
    -2
100
AcDbLine
 10
20.81627577903981
 20
104.4604478369778
 30
0.0
 11
20.81627577903981
 21
114.8473651399605
 31
0.0
  0
LINE
  5
FFE
330
86D
100
AcDbEntity
  8
寸法線
 62
     0
440
 16777216
370
    -2
100
AcDbLine
 10
-22.59972422096009
 20
86.86724783697782
 30
0.0
 11
-22.59972422096009
 21
114.8473651399605
 31
0.0
  0
LINE
  5
FFF
330
86D
100
AcDbEntity
  8
寸法線
 62
     0
440
 16777216
370
    -2
100
AcDbLine
 10
17.81627577903981
 20
113.9329651399606
 30
0.0
 11
-19.59972422096008
 21
113.9329651399606
 31
0.0
  0
INSERT
  5
1000
330
86D
100
AcDbEntity
  8
寸法線
 62
     0
440
 16777216
370
    -2
100
AcDbBlockReference
  2
_Open30
 10
20.81627577903981
 20
113.9329651399606
 30
0.0
 41
3.0
 42
3.0
 43
3.0
  0
INSERT
  5
1001
330
86D
100
AcDbEntity
  8
寸法線
 62
     0
440
 16777216
370
    -2
100
AcDbBlockReference
  2
_Open30
 10
-22.59972422096009
 20
113.9329651399606
 30
0.0
 41
3.0
 42
3.0
 43
3.0
 50
180.0
  0
MTEXT
  5
1002
330
86D
100
AcDbEntity
  8
寸法線
 62
     0
440
 16777216
100
AcDbMText
 10
-0.891724220960185
 20
116.3329651757234
 30
0.0
 40
3.200000047683716
 41
0.0
 71
     5
 72
     1
  1
L1
 73
     1
 44
1.0
  0
POINT
  5
1003
330
86D
100
AcDbEntity
  8
Defpoints
 62
     0
440
 16777216
100
AcDbPoint
 10
20.81627577903981
 20
101.9204478369778
 30
0.0
  0
POINT
  5
1004
330
86D
100
AcDbEntity
  8
Defpoints
 62
     0
440
 16777216
100
AcDbPoint
 10
-22.59972422096009
 20
84.32724783697779
 30
0.0
  0
POINT
  5
1005
330
86D
100
AcDbEntity
  8
Defpoints
 62
     0
440
 16777216
100
AcDbPoint
 10
-22.59972422096009
 20
113.9329651399606
 30
0.0
  0
ENDBLK
  5
878
330
86D
100
AcDbEntity
  8
0
100
AcDbBlockEnd
  0
BLOCK
  5
882
330
879
100
AcDbEntity
  8
0
100
AcDbBlockBegin
  2
*D6
 70
     1
 10
0.0
 20
0.0
 30
0.0
  3
*D6
  1

  0
ARC
  5
1064
330
879
100
AcDbEntity
  8
寸法線
 62
     0
440
 16777216
370
    -2
100
AcDbCircle
 10
-22.59972422095865
 20
84.32724783697571
 30
0.0
 40
29.56489729929341
100
AcDbArc
 50
95.81639657405162
 51
174.1836034259475
  0
INSERT
  5
1065
330
879
100
AcDbEntity
  8
寸法線
 62
     0
440
 16777216
370
    -2
100
AcDbBlockReference
  2
_Open30
 10
-22.59972422096016
 20
113.8921451362691
 30
0.0
 41
3.0
 42
3.0
 43
3.0
 50
2.908198287027283
  0
INSERT
  5
1066
330
879
100
AcDbEntity
  8
寸法線
 62
     0
440
 16777216
370
    -2
100
AcDbBlockReference
  2
_Open30
 10
-52.16462152025207
 20
84.32724783697766
 30
0.0
 41
3.0
 42
3.0
 43
3.0
 50
267.0918017129718
  0
MTEXT
  5
1067
330
879
100
AcDbEntity
  8
寸法線
 62
     0
440
 16777216
100
AcDbMText
 10
-45.2023198865085
 20
106.9298435025259
 30
0.0
 40
3.200000047683716
 41
0.0
 71
     5
 72
     1
  1
90\U+00B0
 11
0.7071067811865535
 21
0.7071067811865416
 31
0.0
 73
     1
 44
1.0
  0
POINT
  5
1068
330
879
100
AcDbEntity
  8
Defpoints
 62
     0
440
 16777216
100
AcDbPoint
 10
-22.59972422095865
 20
84.32724783697571
 30
0.0
  0
POINT
  5
1069
330
879
100
AcDbEntity
  8
Defpoints
 62
     0
440
 16777216
100
AcDbPoint
 10
-22.59972422096021
 20
114.5784609154878
 30
0.0
  0
POINT
  5
106A
330
879
100
AcDbEntity
  8
Defpoints
 62
     0
440
 16777216
100
AcDbPoint
 10
-52.71667936719119
 20
84.3272478369777
 30
0.0
  0
POINT
  5
106B
330
879
100
AcDbEntity
  8
Defpoints
 62
     0
440
 16777216
100
AcDbPoint
 10
-37.38217287060568
 20
109.9311999584415
 30
0.0
  0
ENDBLK
  5
883
330
879
100
AcDbEntity
  8
0
100
AcDbBlockEnd
  0
BLOCK
  5
88E
330
884
100
AcDbEntity
  8
0
100
AcDbBlockBegin
  2
*D7
 70
     1
 10
0.0
 20
0.0
 30
0.0
  3
*D7
  1

  0
LINE
  5
FC4
330
884
100
AcDbEntity
  8
寸法線
 62
     0
440
 16777216
370
    -2
100
AcDbLine
 10
-42.73292422096026
 20
40.91124783697771
 30
0.0
 11
-46.77218293873646
 21
40.91124783697771
 31
0.0
  0
LINE
  5
FC5
330
884
100
AcDbEntity
  8
寸法線
 62
     0
440
 16777216
370
    -2
100
AcDbLine
 10
-39.26612422096029
 20
66.83124783697767
 30
0.0
 11
-46.77218293873646
 21
66.83124783697767
 31
0.0
  0
LINE
  5
FC6
330
884
100
AcDbEntity
  8
寸法線
 62
     0
440
 16777216
370
    -2
100
AcDbLine
 10
-44.48618293873646
 20
43.91124783697771
 30
0.0
 11
-44.48618293873646
 21
63.83124783697764
 31
0.0
  0
INSERT
  5
FC7
330
884
100
AcDbEntity
  8
寸法線
 62
     0
440
 16777216
370
    -2
100
AcDbBlockReference
  2
_Open30
 10
-44.48618293873646
 20
40.91124783697771
 30
0.0
 41
3.0
 42
3.0
 43
3.0
 50
270.0
  0
INSERT
  5
FC8
330
884
100
AcDbEntity
  8
寸法線
 62
     0
440
 16777216
370
    -2
100
AcDbBlockReference
  2
_Open30
 10
-44.48618293873646
 20
66.83124783697767
 30
0.0
 41
3.0
 42
3.0
 43
3.0
 50
90.0
  0
MTEXT
  5
FC9
330
884
100
AcDbEntity
  8
寸法線
 62
     0
440
 16777216
100
AcDbMText
 10
-46.88618297449925
 20
53.85675676670775
 30
0.0
 40
3.200000047683716
 41
0.0
 71
     5
 72
     1
  1
L2
 11
0.0000000000000001
 21
1.0
 31
0.0
 73
     1
 44
1.0
  0
POINT
  5
FCA
330
884
100
AcDbEntity
  8
Defpoints
 62
     0
440
 16777216
100
AcDbPoint
 10
-40.19292422096024
 20
40.91124783697771
 30
0.0
  0
POINT
  5
FCB
330
884
100
AcDbEntity
  8
Defpoints
 62
     0
440
 16777216
100
AcDbPoint
 10
-36.72612422096029
 20
66.83124783697767
 30
0.0
  0
POINT
  5
FCC
330
884
100
AcDbEntity
  8
Defpoints
 62
     0
440
 16777216
100
AcDbPoint
 10
-44.48618293873646
 20
66.83124783697767
 30
0.0
  0
ENDBLK
  5
88F
330
884
100
AcDbEntity
  8
0
100
AcDbBlockEnd
  0
BLOCK
  5
89A
330
890
100
AcDbEntity
  8
0
100
AcDbBlockBegin
  2
*D8
 70
     1
 10
0.0
 20
0.0
 30
0.0
  3
*D8
  1

  0
LINE
  5
FCD
330
890
100
AcDbEntity
  8
寸法線
 62
     0
440
 16777216
370
    -2
100
AcDbLine
 10
-37.98972422096016
 20
54.16724783697761
 30
0.0
 11
-37.98972422096016
 21
31.97109978426916
 31
0.0
  0
LINE
  5
FCE
330
890
100
AcDbEntity
  8
寸法線
 62
     0
440
 16777216
370
    -2
100
AcDbLine
 10
-7.20972422096014
 20
54.16724783697751
 30
0.0
 11
-7.209724220960142
 21
31.97109978426916
 31
0.0
  0
LINE
  5
FCF
330
890
100
AcDbEntity
  8
寸法線
 62
     0
440
 16777216
370
    -2
100
AcDbLine
 10
-34.98972422096016
 20
32.97109978426917
 30
0.0
 11
-10.20972422096014
 21
32.97109978426917
 31
0.0
  0
INSERT
  5
FD0
330
890
100
AcDbEntity
  8
寸法線
 62
     0
440
 16777216
370
    -2
100
AcDbBlockReference
  2
_Open30
 10
-37.98972422096016
 20
32.97109978426917
 30
0.0
 41
3.0
 42
3.0
 43
3.0
 50
180.0
  0
INSERT
  5
FD1
330
890
100
AcDbEntity
  8
寸法線
 62
     0
440
 16777216
370
    -2
100
AcDbBlockReference
  2
_Open30
 10
-7.209724220960142
 20
32.97109978426917
 30
0.0
 41
3.0
 42
3.0
 43
3.0
  0
MTEXT
  5
FD2
102
{ACAD_XDICTIONARY
360
114A
102
}
330
890
100
AcDbEntity
  8
寸法線
 62
     0
440
 16777216
100
AcDbMText
 10
-22.59972422096016
 20
35.37109982003194
 30
0.0
 40
3.200000047683716
 41
0.0
 71
     5
 72
     1
  1
\U+2205A
 73
     1
 44
1.0
  0
POINT
  5
FD3
330
890
100
AcDbEntity
  8
Defpoints
 62
     0
440
 16777216
100
AcDbPoint
 10
-37.98972422096016
 20
55.1672478369776
 30
0.0
  0
POINT
  5
FD4
330
890
100
AcDbEntity
  8
Defpoints
 62
     0
440
 16777216
100
AcDbPoint
 10
-7.20972422096014
 20
55.16724783697751
 30
0.0
  0
POINT
  5
FD5
330
890
100
AcDbEntity
  8
Defpoints
 62
     0
440
 16777216
100
AcDbPoint
 10
-7.209724220960142
 20
32.97109978426917
 30
0.0
  0
ENDBLK
  5
89B
330
890
100
AcDbEntity
  8
0
100
AcDbBlockEnd
  0
BLOCK
  5
8A6
330
89C
100
AcDbEntity
  8
0
100
AcDbBlockBegin
  2
*D9
 70
     1
 10
0.0
 20
0.0
 30
0.0
  3
*D9
  1

  0
LINE
  5
F7E
330
89C
100
AcDbEntity
  8
寸法線
 62
     0
440
 16777216
370
    -2
100
AcDbLine
 10
-116.8676830717514
 20
41.16224157418304
 30
0.0
 11
-129.182124575937
 21
41.16224157418304
 31
0.0
  0
LINE
  5
F7F
330
89C
100
AcDbEntity
  8
寸法線
 62
     0
440
 16777216
370
    -2
100
AcDbLine
 10
-105.7868830717514
 20
73.23824157418305
 30
0.0
 11
-129.182124575937
 21
73.23824157418305
 31
0.0
  0
LINE
  5
F80
330
89C
100
AcDbEntity
  8
寸法線
 62
     0
440
 16777216
370
    -2
100
AcDbLine
 10
-128.182124575937
 20
44.16224157418303
 30
0.0
 11
-128.182124575937
 21
70.23824157418303
 31
0.0
  0
INSERT
  5
F81
330
89C
100
AcDbEntity
  8
寸法線
 62
     0
440
 16777216
370
    -2
100
AcDbBlockReference
  2
_Open30
 10
-128.182124575937
 20
41.16224157418304
 30
0.0
 41
3.0
 42
3.0
 43
3.0
 50
270.0
  0
INSERT
  5
F82
330
89C
100
AcDbEntity
  8
寸法線
 62
     0
440
 16777216
370
    -2
100
AcDbBlockReference
  2
_Open30
 10
-128.182124575937
 20
73.23824157418305
 30
0.0
 41
3.0
 42
3.0
 43
3.0
 50
90.0
  0
MTEXT
  5
F83
330
89C
100
AcDbEntity
  8
寸法線
 62
     0
440
 16777216
100
AcDbMText
 10
-130.5821246116998
 20
57.20024157418302
 30
0.0
 40
3.200000047683716
 41
0.0
 71
     5
 72
     1
  1
L1
 11
0.0000000000000001
 21
1.0
 31
0.0
 73
     1
 44
1.0
  0
POINT
  5
F84
330
89C
100
AcDbEntity
  8
Defpoints
 62
     0
440
 16777216
100
AcDbPoint
 10
-115.8676830717514
 20
41.16224157418304
 30
0.0
  0
POINT
  5
F85
330
89C
100
AcDbEntity
  8
Defpoints
 62
     0
440
 16777216
100
AcDbPoint
 10
-104.7868830717514
 20
73.23824157418305
 30
0.0
  0
POINT
  5
F86
330
89C
100
AcDbEntity
  8
Defpoints
 62
     0
440
 16777216
100
AcDbPoint
 10
-128.182124575937
 20
73.23824157418305
 30
0.0
  0
ENDBLK
  5
8A7
330
89C
100
AcDbEntity
  8
0
100
AcDbBlockEnd
  0
BLOCK
  5
8B1
330
8A8
100
AcDbEntity
  8
0
100
AcDbBlockBegin
  2
*D10
 70
     1
 10
0.0
 20
0.0
 30
0.0
  3
*D10
  1

  0
ARC
  5
106C
330
8A8
100
AcDbEntity
  8
寸法線
 62
     0
440
 16777216
370
    -2
100
AcDbCircle
 10
-104.7868830717519
 20
73.23824157418265
 30
0.0
 40
23.30201355518978
100
AcDbArc
 50
97.38160546924412
 51
172.6183945306977
  0
INSERT
  5
106D
330
8A8
100
AcDbEntity
  8
寸法線
 62
     0
440
 16777216
370
    -2
100
AcDbBlockReference
  2
_Open30
 10
-104.786883071729
 20
96.54025512937243
 30
0.0
 41
3.0
 42
3.0
 43
3.0
 50
3.690802734593863
  0
INSERT
  5
106E
330
8A8
100
AcDbEntity
  8
寸法線
 62
     0
440
 16777216
370
    -2
100
AcDbBlockReference
  2
_Open30
 10
-128.0888966269417
 20
73.23824157418338
 30
0.0
 41
3.0
 42
3.0
 43
3.0
 50
266.309197265348
  0
MTEXT
  5
106F
330
8A8
100
AcDbEntity
  8
寸法線
 62
     0
440
 16777216
100
AcDbMText
 10
-122.960951172054
 20
91.41230967450326
 30
0.0
 40
3.200000047683716
 41
0.0
 71
     5
 72
     1
  1
90\U+00B0
 11
0.7071067811869096
 21
0.7071067811861855
 31
0.0
 73
     1
 44
1.0
  0
POINT
  5
1070
330
8A8
100
AcDbEntity
  8
Defpoints
 62
     0
440
 16777216
100
AcDbPoint
 10
-104.7868830717519
 20
73.23824157418265
 30
0.0
  0
POINT
  5
1071
330
8A8
100
AcDbEntity
  8
Defpoints
 62
     0
440
 16777216
100
AcDbPoint
 10
-104.7868830717514
 20
73.73824157418306
 30
0.0
  0
POINT
  5
1072
330
8A8
100
AcDbEntity
  8
Defpoints
 62
     0
440
 16777216
100
AcDbPoint
 10
-120.453293253879
 20
73.23824157418314
 30
0.0
  0
POINT
  5
1073
330
8A8
100
AcDbEntity
  8
Defpoints
 62
     0
440
 16777216
100
AcDbPoint
 10
-116.4378898493333
 20
93.41837727231411
 30
0.0
  0
ENDBLK
  5
8B2
330
8A8
100
AcDbEntity
  8
0
100
AcDbBlockEnd
  0
BLOCK
  5
8BD
330
8B3
100
AcDbEntity
  8
0
100
AcDbBlockBegin
  2
*D11
 70
     1
 10
0.0
 20
0.0
 30
0.0
  3
*D11
  1

  0
LINE
  5
F8F
330
8B3
100
AcDbEntity
  8
寸法線
 62
     0
440
 16777216
370
    -2
100
AcDbLine
 10
-116.8676830717514
 20
41.16224157418304
 30
0.0
 11
-122.0631548500293
 21
41.16224157418304
 31
0.0
  0
LINE
  5
F90
330
8B3
100
AcDbEntity
  8
寸法線
 62
     0
440
 16777216
370
    -2
100
AcDbLine
 10
-115.5002332316031
 20
55.74224157418303
 30
0.0
 11
-122.0631548500293
 21
55.74224157418303
 31
0.0
  0
LINE
  5
F91
330
8B3
100
AcDbEntity
  8
寸法線
 62
     0
440
 16777216
370
    -2
100
AcDbLine
 10
-121.0631548500293
 20
44.16224157418303
 30
0.0
 11
-121.0631548500293
 21
52.74224157418302
 31
0.0
  0
INSERT
  5
F92
330
8B3
100
AcDbEntity
  8
寸法線
 62
     0
440
 16777216
370
    -2
100
AcDbBlockReference
  2
_Open30
 10
-121.0631548500293
 20
41.16224157418304
 30
0.0
 41
3.0
 42
3.0
 43
3.0
 50
270.0
  0
INSERT
  5
F93
330
8B3
100
AcDbEntity
  8
寸法線
 62
     0
440
 16777216
370
    -2
100
AcDbBlockReference
  2
_Open30
 10
-121.0631548500293
 20
55.74224157418303
 30
0.0
 41
3.0
 42
3.0
 43
3.0
 50
90.0
  0
MTEXT
  5
F94
330
8B3
100
AcDbEntity
  8
寸法線
 62
     0
440
 16777216
100
AcDbMText
 10
-123.4631548857921
 20
48.45224157418318
 30
0.0
 40
3.200000047683716
 41
0.0
 71
     5
 72
     1
  1
L2
 11
0.0000000000000001
 21
1.0
 31
0.0
 73
     1
 44
1.0
  0
POINT
  5
F95
330
8B3
100
AcDbEntity
  8
Defpoints
 62
     0
440
 16777216
100
AcDbPoint
 10
-115.8676830717514
 20
41.16224157418304
 30
0.0
  0
POINT
  5
F96
330
8B3
100
AcDbEntity
  8
Defpoints
 62
     0
440
 16777216
100
AcDbPoint
 10
-114.5002332316031
 20
55.74224157418303
 30
0.0
  0
POINT
  5
F97
330
8B3
100
AcDbEntity
  8
Defpoints
 62
     0
440
 16777216
100
AcDbPoint
 10
-121.0631548500293
 20
55.74224157418303
 30
0.0
  0
ENDBLK
  5
8BE
330
8B3
100
AcDbEntity
  8
0
100
AcDbBlockEnd
  0
BLOCK
  5
8C9
330
8BF
100
AcDbEntity
  8
0
100
AcDbBlockBegin
  2
*D12
 70
     1
 10
0.0
 20
0.0
 30
0.0
  3
*D12
  1

  0
LINE
  5
F98
330
8BF
100
AcDbEntity
  8
寸法線
 62
     0
440
 16777216
370
    -2
100
AcDbLine
 10
-72.71088307175142
 20
84.81904157418302
 30
0.0
 11
-72.71088307175142
 21
97.5523875023375
 31
0.0
  0
LINE
  5
F99
330
8BF
100
AcDbEntity
  8
寸法線
 62
     0
440
 16777216
370
    -2
100
AcDbLine
 10
-104.7868830717514
 20
73.73824157418304
 30
0.0
 11
-104.7868830717514
 21
97.5523875023375
 31
0.0
  0
LINE
  5
F9A
330
8BF
100
AcDbEntity
  8
寸法線
 62
     0
440
 16777216
370
    -2
100
AcDbLine
 10
-75.71088307175142
 20
96.55238750233751
 30
0.0
 11
-101.7868830717514
 21
96.55238750233751
 31
0.0
  0
INSERT
  5
F9B
330
8BF
100
AcDbEntity
  8
寸法線
 62
     0
440
 16777216
370
    -2
100
AcDbBlockReference
  2
_Open30
 10
-72.71088307175142
 20
96.55238750233751
 30
0.0
 41
3.0
 42
3.0
 43
3.0
  0
INSERT
  5
F9C
330
8BF
100
AcDbEntity
  8
寸法線
 62
     0
440
 16777216
370
    -2
100
AcDbBlockReference
  2
_Open30
 10
-104.7868830717514
 20
96.55238750233751
 30
0.0
 41
3.0
 42
3.0
 43
3.0
 50
180.0
  0
MTEXT
  5
F9D
330
8BF
100
AcDbEntity
  8
寸法線
 62
     0
440
 16777216
100
AcDbMText
 10
-88.74888307175154
 20
98.95238753810033
 30
0.0
 40
3.200000047683716
 41
0.0
 71
     5
 72
     1
  1
L1
 73
     1
 44
1.0
  0
POINT
  5
F9E
330
8BF
100
AcDbEntity
  8
Defpoints
 62
     0
440
 16777216
100
AcDbPoint
 10
-72.71088307175142
 20
84.31904157418301
 30
0.0
  0
POINT
  5
F9F
330
8BF
100
AcDbEntity
  8
Defpoints
 62
     0
440
 16777216
100
AcDbPoint
 10
-104.7868830717514
 20
73.23824157418305
 30
0.0
  0
POINT
  5
FA0
330
8BF
100
AcDbEntity
  8
Defpoints
 62
     0
440
 16777216
100
AcDbPoint
 10
-104.7868830717514
 20
96.55238750233751
 30
0.0
  0
ENDBLK
  5
8CA
330
8BF
100
AcDbEntity
  8
0
100
AcDbBlockEnd
  0
BLOCK
  5
8D5
330
8CB
100
AcDbEntity
  8
0
100
AcDbBlockBegin
  2
*D13
 70
     1
 10
0.0
 20
0.0
 30
0.0
  3
*D13
  1

  0
LINE
  5
FA1
330
8CB
100
AcDbEntity
  8
寸法線
 62
     0
440
 16777216
370
    -2
100
AcDbLine
 10
-115.0978590717514
 20
43.90301092375901
 30
0.0
 11
-115.0978590717514
 21
32.13896563042363
 31
0.0
  0
LINE
  5
FA2
330
8CB
100
AcDbEntity
  8
寸法線
 62
     0
440
 16777216
370
    -2
100
AcDbLine
 10
-94.47590707175143
 20
43.90301092375901
 30
0.0
 11
-94.47590707175143
 21
32.13896563042363
 31
0.0
  0
LINE
  5
FA3
330
8CB
100
AcDbEntity
  8
寸法線
 62
     0
440
 16777216
370
    -2
100
AcDbLine
 10
-112.0978590717514
 20
33.13896563042363
 30
0.0
 11
-97.47590707175143
 21
33.13896563042363
 31
0.0
  0
INSERT
  5
FA4
330
8CB
100
AcDbEntity
  8
寸法線
 62
     0
440
 16777216
370
    -2
100
AcDbBlockReference
  2
_Open30
 10
-115.0978590717514
 20
33.13896563042363
 30
0.0
 41
3.0
 42
3.0
 43
3.0
 50
180.0
  0
INSERT
  5
FA5
330
8CB
100
AcDbEntity
  8
寸法線
 62
     0
440
 16777216
370
    -2
100
AcDbBlockReference
  2
_Open30
 10
-94.47590707175143
 20
33.13896563042363
 30
0.0
 41
3.0
 42
3.0
 43
3.0
  0
MTEXT
  5
FA6
102
{ACAD_XDICTIONARY
360
1148
102
}
330
8CB
100
AcDbEntity
  8
寸法線
 62
     0
440
 16777216
100
AcDbMText
 10
-104.7868830717514
 20
35.53896566618642
 30
0.0
 40
3.200000047683716
 41
0.0
 71
     5
 72
     1
  1
\U+2205A
 73
     1
 44
1.0
  0
POINT
  5
FA7
330
8CB
100
AcDbEntity
  8
Defpoints
 62
     0
440
 16777216
100
AcDbPoint
 10
-115.0978590717514
 20
44.90301092375901
 30
0.0
  0
POINT
  5
FA8
330
8CB
100
AcDbEntity
  8
Defpoints
 62
     0
440
 16777216
100
AcDbPoint
 10
-94.47590707175143
 20
44.90301092375901
 30
0.0
  0
POINT
  5
FA9
330
8CB
100
AcDbEntity
  8
Defpoints
 62
     0
440
 16777216
100
AcDbPoint
 10
-94.47590707175143
 20
33.13896563042363
 30
0.0
  0
ENDBLK
  5
8D6
330
8CB
100
AcDbEntity
  8
0
100
AcDbBlockEnd
  0
BLOCK
  5
8E1
330
8D7
100
AcDbEntity
  8
0
100
AcDbBlockBegin
  2
*D14
 70
     1
 10
0.0
 20
0.0
 30
0.0
  3
*D14
  1

  0
LINE
  5
E41
330
8D7
100
AcDbEntity
  8
寸法線
 62
     0
440
 16777216
370
    -2
100
AcDbLine
 10
-187.423186464686
 20
107.1830806386227
 30
0.0
 11
-187.423186464686
 21
116.4646019736432
 31
0.0
  0
LINE
  5
E42
330
8D7
100
AcDbEntity
  8
寸法線
 62
     0
440
 16777216
370
    -2
100
AcDbLine
 10
-151.9271957826799
 20
86.3207881638505
 30
0.0
 11
-151.9271957826799
 21
116.4646019736432
 31
0.0
  0
LINE
  5
E43
330
8D7
100
AcDbEntity
  8
寸法線
 62
     0
440
 16777216
370
    -2
100
AcDbLine
 10
-184.4231864646861
 20
115.4646019736432
 30
0.0
 11
-154.9271957826799
 21
115.4646019736432
 31
0.0
  0
INSERT
  5
E44
330
8D7
100
AcDbEntity
  8
寸法線
 62
     0
440
 16777216
370
    -2
100
AcDbBlockReference
  2
_Open30
 10
-187.423186464686
 20
115.4646019736432
 30
0.0
 41
3.0
 42
3.0
 43
3.0
 50
180.0
  0
INSERT
  5
E45
330
8D7
100
AcDbEntity
  8
寸法線
 62
     0
440
 16777216
370
    -2
100
AcDbBlockReference
  2
_Open30
 10
-151.9271957826799
 20
115.4646019736432
 30
0.0
 41
3.0
 42
3.0
 43
3.0
  0
MTEXT
  5
E46
330
8D7
100
AcDbEntity
  8
寸法線
 62
     0
440
 16777216
100
AcDbMText
 10
-169.675191123683
 20
117.864602009406
 30
0.0
 40
3.200000047683716
 41
0.0
 71
     5
 72
     1
  1
L1
 73
     1
 44
1.0
  0
POINT
  5
E47
330
8D7
100
AcDbEntity
  8
Defpoints
 62
     0
440
 16777216
100
AcDbPoint
 10
-187.423186464686
 20
106.1830806386227
 30
0.0
  0
POINT
  5
E48
330
8D7
100
AcDbEntity
  8
Defpoints
 62
     0
440
 16777216
100
AcDbPoint
 10
-151.9271957826799
 20
85.3207881638505
 30
0.0
  0
POINT
  5
E49
330
8D7
100
AcDbEntity
  8
Defpoints
 62
     0
440
 16777216
100
AcDbPoint
 10
-151.9271957826799
 20
115.4646019736432
 30
0.0
  0
ENDBLK
  5
8E2
330
8D7
100
AcDbEntity
  8
0
100
AcDbBlockEnd
  0
BLOCK
  5
8EC
330
8E3
100
AcDbEntity
  8
0
100
AcDbBlockBegin
  2
*D15
 70
     1
 10
0.0
 20
0.0
 30
0.0
  3
*D15
  1

  0
LINE
  5
E53
330
8E3
100
AcDbEntity
  8
寸法線
 62
     0
440
 16777216
370
    -2
100
AcDbLine
 10
-201.68203636477
 20
75.45677952177317
 30
0.0
 11
-211.942171901534
 21
75.45677952177317
 31
0.0
  0
LINE
  5
E54
330
8E3
100
AcDbEntity
  8
寸法線
 62
     0
440
 16777216
370
    -2
100
AcDbLine
 10
-210.942171901534
 20
42.96078883976717
 30
0.0
 11
-210.9421719015339
 21
72.45677952177317
 31
0.0
  0
INSERT
  5
E55
330
8E3
100
AcDbEntity
  8
寸法線
 62
     0
440
 16777216
370
    -2
100
AcDbBlockReference
  2
_Open30
 10
-210.942171901534
 20
39.96078883976717
 30
0.0
 41
3.0
 42
3.0
 43
3.0
 50
270.0
  0
INSERT
  5
E56
330
8E3
100
AcDbEntity
  8
寸法線
 62
     0
440
 16777216
370
    -2
100
AcDbBlockReference
  2
_Open30
 10
-210.9421719015339
 20
75.45677952177317
 30
0.0
 41
3.0
 42
3.0
 43
3.0
 50
90.0
  0
MTEXT
  5
E57
330
8E3
100
AcDbEntity
  8
寸法線
 62
     0
440
 16777216
100
AcDbMText
 10
-213.3421719372968
 20
57.70878418077015
 30
0.0
 40
3.200000047683716
 41
0.0
 71
     5
 72
     1
  1
L1
 11
0.0000000000000001
 21
1.0
 31
0.0
 73
     1
 44
1.0
  0
POINT
  5
E58
330
8E3
100
AcDbEntity
  8
Defpoints
 62
     0
440
 16777216
100
AcDbPoint
 10
-197.2872005999272
 20
39.96078883976716
 30
0.0
  0
POINT
  5
E59
330
8E3
100
AcDbEntity
  8
Defpoints
 62
     0
440
 16777216
100
AcDbPoint
 10
-200.6820363647699
 20
75.45677952177317
 30
0.0
  0
POINT
  5
E5A
330
8E3
100
AcDbEntity
  8
Defpoints
 62
     0
440
 16777216
100
AcDbPoint
 10
-210.9421719015339
 20
75.45677952177317
 30
0.0
  0
ENDBLK
  5
8ED
330
8E3
100
AcDbEntity
  8
0
100
AcDbBlockEnd
  0
BLOCK
  5
8F8
330
8EE
100
AcDbEntity
  8
0
100
AcDbBlockBegin
  2
*D16
 70
     1
 10
0.0
 20
0.0
 30
0.0
  3
*D16
  1

  0
LINE
  5
E5B
330
8EE
100
AcDbEntity
  8
寸法線
 62
     0
440
 16777216
370
    -2
100
AcDbLine
 10
-188.4232001975959
 20
39.96078883976716
 30
0.0
 11
-205.0548185106408
 21
39.96078883976716
 31
0.0
  0
LINE
  5
E5C
330
8EE
100
AcDbEntity
  8
寸法線
 62
     0
440
 16777216
370
    -2
100
AcDbLine
 10
-197.0343939169354
 20
56.23281496448253
 30
0.0
 11
-205.0548185106408
 21
56.23281496448253
 31
0.0
  0
LINE
  5
E5D
330
8EE
100
AcDbEntity
  8
寸法線
 62
     0
440
 16777216
370
    -2
100
AcDbLine
 10
-204.0548185106409
 20
42.96078883976716
 30
0.0
 11
-204.0548185106409
 21
53.23281496448252
 31
0.0
  0
INSERT
  5
E5E
330
8EE
100
AcDbEntity
  8
寸法線
 62
     0
440
 16777216
370
    -2
100
AcDbBlockReference
  2
_Open30
 10
-204.0548185106409
 20
39.96078883976716
 30
0.0
 41
3.0
 42
3.0
 43
3.0
 50
270.0
  0
INSERT
  5
E5F
330
8EE
100
AcDbEntity
  8
寸法線
 62
     0
440
 16777216
370
    -2
100
AcDbBlockReference
  2
_Open30
 10
-204.0548185106409
 20
56.23281496448253
 30
0.0
 41
3.0
 42
3.0
 43
3.0
 50
90.0
  0
MTEXT
  5
E60
330
8EE
100
AcDbEntity
  8
寸法線
 62
     0
440
 16777216
100
AcDbMText
 10
-206.4548185464035
 20
48.09680190212482
 30
0.0
 40
3.200000047683716
 41
0.0
 71
     5
 72
     1
  1
L2
 11
0.0000000000000001
 21
1.0
 31
0.0
 73
     1
 44
1.0
  0
POINT
  5
E61
330
8EE
100
AcDbEntity
  8
Defpoints
 62
     0
440
 16777216
100
AcDbPoint
 10
-187.4232001975959
 20
39.96078883976716
 30
0.0
  0
POINT
  5
E62
330
8EE
100
AcDbEntity
  8
Defpoints
 62
     0
440
 16777216
100
AcDbPoint
 10
-196.0343939169354
 20
56.23281496448253
 30
0.0
  0
POINT
  5
E63
330
8EE
100
AcDbEntity
  8
Defpoints
 62
     0
440
 16777216
100
AcDbPoint
 10
-204.0548185106409
 20
56.23281496448253
 30
0.0
  0
ENDBLK
  5
8F9
330
8EE
100
AcDbEntity
  8
0
100
AcDbBlockEnd
  0
BLOCK
  5
904
330
8FA
100
AcDbEntity
  8
0
100
AcDbBlockBegin
  2
*D17
 70
     1
 10
0.0
 20
0.0
 30
0.0
  3
*D17
  1

  0
LINE
  5
101E
330
8FA
100
AcDbEntity
  8
寸法線
 62
     0
440
 16777216
370
    -2
100
AcDbLine
 10
-186.769119576931
 20
39.96078883976716
 30
0.0
 11
-218.8295252924272
 21
39.96078883976716
 31
0.0
  0
LINE
  5
101F
330
8FA
100
AcDbEntity
  8
寸法線
 62
     0
440
 16777216
370
    -2
100
AcDbLine
 10
-188.423186464686
 20
103.7527971939778
 30
0.0
 11
-218.8295252924271
 21
103.7527971939778
 31
0.0
  0
LINE
  5
1020
330
8FA
100
AcDbEntity
  8
寸法線
 62
     0
440
 16777216
370
    -2
100
AcDbLine
 10
-217.8295252924272
 20
42.96078883976716
 30
0.0
 11
-217.8295252924272
 21
100.7527971939778
 31
0.0
  0
INSERT
  5
1021
330
8FA
100
AcDbEntity
  8
寸法線
 62
     0
440
 16777216
370
    -2
100
AcDbBlockReference
  2
_Open30
 10
-217.8295252924272
 20
39.96078883976716
 30
0.0
 41
3.0
 42
3.0
 43
3.0
 50
270.0
  0
INSERT
  5
1022
330
8FA
100
AcDbEntity
  8
寸法線
 62
     0
440
 16777216
370
    -2
100
AcDbBlockReference
  2
_Open30
 10
-217.8295252924272
 20
103.7527971939778
 30
0.0
 41
3.0
 42
3.0
 43
3.0
 50
90.0
  0
MTEXT
  5
1023
330
8FA
100
AcDbEntity
  8
寸法線
 62
     0
440
 16777216
100
AcDbMText
 10
-220.22952532819
 20
71.85679301687263
 30
0.0
 40
3.200000047683716
 41
0.0
 71
     5
 72
     1
  1
L3
 11
0.0000000000000001
 21
1.0
 31
0.0
 73
     1
 44
1.0
  0
POINT
  5
1024
330
8FA
100
AcDbEntity
  8
Defpoints
 62
     0
440
 16777216
100
AcDbPoint
 10
-185.769119576931
 20
39.96078883976716
 30
0.0
  0
POINT
  5
1025
330
8FA
100
AcDbEntity
  8
Defpoints
 62
     0
440
 16777216
100
AcDbPoint
 10
-187.423186464686
 20
103.7527971939778
 30
0.0
  0
POINT
  5
1026
330
8FA
100
AcDbEntity
  8
Defpoints
 62
     0
440
 16777216
100
AcDbPoint
 10
-217.8295252924272
 20
103.7527971939778
 30
0.0
  0
ENDBLK
  5
905
330
8FA
100
AcDbEntity
  8
0
100
AcDbBlockEnd
  0
BLOCK
  5
910
330
906
100
AcDbEntity
  8
0
100
AcDbBlockBegin
  2
*D18
 70
     1
 10
0.0
 20
0.0
 30
0.0
  3
*D18
  1

  0
LINE
  5
EB3
330
906
100
AcDbEntity
  8
寸法線
 62
     0
440
 16777216
370
    -2
100
AcDbLine
 10
-196.0199727092455
 20
43.63686491762335
 30
0.0
 11
-196.0199727092455
 21
31.9664679697222
 31
0.0
  0
LINE
  5
EB4
330
906
100
AcDbEntity
  8
寸法線
 62
     0
440
 16777216
370
    -2
100
AcDbLine
 10
-178.8263782474707
 20
43.63684752951709
 30
0.0
 11
-178.8263782474707
 21
31.9664679697222
 31
0.0
  0
LINE
  5
EB5
330
906
100
AcDbEntity
  8
寸法線
 62
     0
440
 16777216
370
    -2
100
AcDbLine
 10
-193.0199727092455
 20
32.96646796972221
 30
0.0
 11
-181.8263782474707
 21
32.96646796972221
 31
0.0
  0
INSERT
  5
EB6
330
906
100
AcDbEntity
  8
寸法線
 62
     0
440
 16777216
370
    -2
100
AcDbBlockReference
  2
_Open30
 10
-196.0199727092455
 20
32.96646796972221
 30
0.0
 41
3.0
 42
3.0
 43
3.0
 50
180.0
  0
INSERT
  5
EB7
330
906
100
AcDbEntity
  8
寸法線
 62
     0
440
 16777216
370
    -2
100
AcDbBlockReference
  2
_Open30
 10
-178.8263782474707
 20
32.96646796972221
 30
0.0
 41
3.0
 42
3.0
 43
3.0
  0
MTEXT
  5
EB8
330
906
100
AcDbEntity
  8
寸法線
 62
     0
440
 16777216
100
AcDbMText
 10
-187.9097091344806
 20
35.36646800548499
 30
0.0
 40
3.200000047683716
 41
0.0
 71
     5
 72
     1
  1
\U+03C6Ａ
 73
     1
 44
1.0
  0
POINT
  5
EB9
330
906
100
AcDbEntity
  8
Defpoints
 62
     0
440
 16777216
100
AcDbPoint
 10
-196.0199727092455
 20
44.63686491762334
 30
0.0
  0
POINT
  5
EBA
330
906
100
AcDbEntity
  8
Defpoints
 62
     0
440
 16777216
100
AcDbPoint
 10
-178.8263782474707
 20
44.63684752951709
 30
0.0
  0
POINT
  5
EBB
330
906
100
AcDbEntity
  8
Defpoints
 62
     0
440
 16777216
100
AcDbPoint
 10
-178.8263782474707
 20
32.96646796972221
 30
0.0
  0
ENDBLK
  5
911
330
906
100
AcDbEntity
  8
0
100
AcDbBlockEnd
  0
ENDSEC
  0
SECTION
  2
ENTITIES
  0
LINE
  5
41
330
1F
100
AcDbEntity
  8
0
  6
Continuous
 62
     7
100
AcDbLine
 10
-150.1019948782547
 20
-15.8262228440126
 30
0.0
 11
-47.26639808417716
 21
-15.8262228440126
 31
0.0
  0
LINE
  5
42
330
1F
100
AcDbEntity
  8
0
  6
Continuous
 62
     7
100
AcDbLine
 10
-150.1019948782547
 20
5.557776846043259
 30
0.0
 11
-47.26639808417716
 21
5.557776846043259
 31
0.0
  0
LINE
  5
43
330
1F
100
AcDbEntity
  8
0
  6
Continuous
 62
     7
100
AcDbLine
 10
-150.1019948782547
 20
10.90377706658043
 30
0.0
 11
-150.1019948782547
 21
-15.82622284401259
 31
0.0
  0
LINE
  5
44
330
1F
100
AcDbEntity
  8
0
  6
Continuous
 62
     7
100
AcDbLine
 10
-125.0263918852944
 20
10.90377706658043
 30
0.0
 11
-125.0263918852944
 21
-15.82622284401259
 31
0.0
  0
LINE
  5
46
330
1F
100
AcDbEntity
  8
0
  6
Continuous
 62
     7
100
AcDbLine
 10
-105.5863954615727
 20
10.90377706658042
 30
0.0
 11
-105.5863954615728
 21
-15.82622284401259
 31
0.0
  0
LINE
  5
47
330
1F
100
AcDbEntity
  8
0
  6
Continuous
 62
     7
100
AcDbLine
 10
-86.14639379264293
 20
10.90377706658042
 30
0.0
 11
-86.14639379264295
 21
-15.82622284401259
 31
0.0
  0
LINE
  5
48
330
1F
100
AcDbEntity
  8
0
  6
Continuous
 62
     7
100
AcDbLine
 10
-66.7063997531072
 20
10.90377706658042
 30
0.0
 11
-66.7063997531072
 21
-15.82622284401259
 31
0.0
  0
LINE
  5
49
330
1F
100
AcDbEntity
  8
0
  6
Continuous
 62
     7
100
AcDbLine
 10
-150.1019948782547
 20
-5.134222879775379
 30
0.0
 11
-47.26639808417716
 21
-5.134222879775379
 31
0.0
  0
LINE
  5
4A
330
1F
100
AcDbEntity
  8
0
  6
Continuous
 62
     7
100
AcDbLine
 10
-47.26639808417715
 20
10.90377706658042
 30
0.0
 11
-47.26639808417716
 21
-15.82622284401259
 31
0.0
  0
LINE
  5
4C
330
1F
100
AcDbEntity
  8
0
  6
Continuous
 62
     7
100
AcDbLine
 10
-150.1019948782547
 20
10.90377706658043
 30
0.0
 11
-47.26639808417716
 21
10.90377706658042
 31
0.0
  0
LINE
  5
4D
330
1F
100
AcDbEntity
  8
0
  6
Continuous
 62
     7
100
AcDbLine
 10
-150.1019948782547
 20
-10.48022238505685
 30
0.0
 11
-47.26639808417716
 21
-10.48022238505686
 31
0.0
  0
MTEXT
  5
CE
330
1F
100
AcDbEntity
  8
0
 62
     7
100
AcDbMText
 10
-146.1434891796971
 20
-14.75322263837659
 30
0.0
 40
3.200000047683716
 41
0.0
 71
     7
 72
     1
  1
{\W1;TDS200}
 73
     1
 44
1.0
  0
MTEXT
  5
CF
330
1F
100
AcDbEntity
  8
0
 62
     7
100
AcDbMText
 10
-59.72925661326801
 20
6.83477703975834
 30
0.0
 40
3.200000047683716
 41
0.0
 71
     7
 72
     1
  1
{\W1;L3}
 73
     1
 44
1.0
  0
MTEXT
  5
D0
330
1F
100
AcDbEntity
  8
0
 62
     7
100
AcDbMText
 10
-79.16925065280384
 20
6.83477703975834
 30
0.0
 40
3.200000047683716
 41
0.0
 71
     7
 72
     1
  1
{\W1;L2}
 73
     1
 44
1.0
  0
MTEXT
  5
D1
330
1F
100
AcDbEntity
  8
0
 62
     7
100
AcDbMText
 10
-98.60925232173377
 20
6.83477703975834
 30
0.0
 40
3.200000047683716
 41
0.0
 71
     7
 72
     1
  1
{\W1;L1}
 73
     1
 44
1.0
  0
MTEXT
  5
D2
330
1F
100
AcDbEntity
  8
0
 62
     7
100
AcDbMText
 10
-119.2629010967537
 20
-14.75322263837659
 30
0.0
 40
3.200000047683716
 41
0.0
 71
     7
 72
     1
  1
237
 73
     1
 44
1.0
  0
MTEXT
  5
D3
102
{ACAD_XDICTIONARY
360
1145
102
}
330
1F
100
AcDbEntity
  8
0
 62
     7
100
AcDbMText
 10
-118.0492501759668
 20
6.834777039758342
 30
0.0
 40
3.200000047683716
 41
0.0
 71
     7
 72
     1
  1
{\W1;\U+2205A}
 73
     1
 44
1.0
  0
MTEXT
  5
D4
330
1F
100
AcDbEntity
  8
0
 62
     7
100
AcDbMText
 10
-146.1434891796971
 20
-4.061222674139367
 30
0.0
 40
3.200000047683716
 41
0.0
 71
     7
 72
     1
  1
{\W1;TDS100}
 73
     1
 44
1.0
  0
MTEXT
  5
D7
330
1F
100
AcDbEntity
  8
0
 62
     7
100
AcDbMText
 10
-100.0304963888701
 20
-14.72221496989688
 30
0.0
 40
3.200000047683716
 41
0.0
 71
     7
 72
     1
  1
355
 73
     1
 44
1.0
  0
MTEXT
  5
D8
330
1F
100
AcDbEntity
  8
0
 62
     7
100
AcDbMText
 10
-80.27255141304733
 20
-14.62507908750774
 30
0.0
 40
3.200000047683716
 41
0.0
 71
     7
 72
     1
  1
200
 73
     1
 44
1.0
  0
MTEXT
  5
DB
330
1F
100
AcDbEntity
  8
0
 62
     7
100
AcDbMText
 10
-146.1434891796971
 20
-9.407222179420831
 30
0.0
 40
3.200000047683716
 41
0.0
 71
     7
 72
     1
  1
{\W1;TDS150}
 73
     1
 44
1.0
  0
MTEXT
  5
DC
330
1F
100
AcDbEntity
  8
0
 62
     7
100
AcDbMText
 10
-119.2629010967537
 20
-9.407222179420831
 30
0.0
 40
3.200000047683716
 41
0.0
 71
     7
 72
     1
  1
{\W1;177}
 73
     1
 44
1.0
  0
MTEXT
  5
DF
330
1F
100
AcDbEntity
  8
0
 62
     7
100
AcDbMText
 10
-100.0304963888701
 20
-9.376214510941125
 30
0.0
 40
3.200000047683716
 41
0.0
 71
     7
 72
     1
  1
275
 73
     1
 44
1.0
  0
MTEXT
  5
E0
330
1F
100
AcDbEntity
  8
0
 62
     7
100
AcDbMText
 10
-80.27255141304733
 20
-9.279078628551976
 30
0.0
 40
3.200000047683716
 41
0.0
 71
     7
 72
     1
  1
125
 73
     1
 44
1.0
  0
MTEXT
  5
E2
330
1F
100
AcDbEntity
  8
0
 62
     7
100
AcDbMText
 10
-119.2629010967537
 20
-4.061222674139369
 30
0.0
 40
3.200000047683716
 41
0.0
 71
     7
 72
     1
  1
{\W1;121}
 73
     1
 44
1.0
  0
MTEXT
  5
E5
330
1F
100
AcDbEntity
  8
0
 62
     7
100
AcDbMText
 10
-100.0304963888701
 20
-4.030215005659666
 30
0.0
 40
3.200000047683716
 41
0.0
 71
     7
 72
     1
  1
263
 73
     1
 44
1.0
  0
MTEXT
  5
E6
330
1F
100
AcDbEntity
  8
0
 62
     7
100
AcDbMText
 10
-80.27255141304733
 20
-3.933079123270515
 30
0.0
 40
3.200000047683716
 41
0.0
 71
     7
 72
     1
  1
130
 73
     1
 44
1.0
  0
MTEXT
  5
E8
330
1F
100
AcDbEntity
  8
0
 62
     7
100
AcDbMText
 10
-142.9436327692755
 20
6.630776932469982
 30
0.0
 40
3.200000047683716
 41
0.0
 71
     7
 72
     1
  1
{\W0.833333;規　　格}
 73
     1
 44
1.0
  0
MTEXT
  5
E9
330
1F
100
AcDbEntity
  8
0
 62
     7
100
AcDbMText
 10
-61.49832634816398
 20
-21.68997706100976
 30
0.0
 40
3.200000047683716
 41
0.0
 71
     7
 72
     1
  1
{\W1;(mm)}
 73
     1
 44
1.0
  0
LINE
  5
14A
330
1F
100
AcDbEntity
  8
外形線
  6
Continuous
100
AcDbLine
 10
-149.7850044688903
 20
-46.23738705550861
 30
0.0
 11
-149.7850044688903
 21
-53.73738705550861
 31
0.0
  0
LINE
  5
14B
330
1F
100
AcDbEntity
  8
VIEW0001
  6
Continuous
 62
     7
370
    30
100
AcDbLine
 10
-237.2100037059508
 20
135.7626129444914
 30
0.0
 11
-237.2100037059508
 21
-53.73738705550861
 31
0.0
  0
LINE
  5
14C
330
1F
100
AcDbEntity
  8
VIEW0001
  6
Continuous
 62
     7
370
    30
100
AcDbLine
 10
-237.2100037059508
 20
-53.73738705550861
 30
0.0
 11
39.28999629404916
 21
-53.73738705550861
 31
0.0
  0
LINE
  5
14D
330
1F
100
AcDbEntity
  8
VIEW0001
  6
Continuous
 62
     7
370
    30
100
AcDbLine
 10
39.28999629404918
 20
135.7626129444914
 30
0.0
 11
39.28999629404918
 21
-53.73738705550861
 31
0.0
  0
LINE
  5
14E
330
1F
100
AcDbEntity
  8
VIEW0001
  6
Continuous
 62
     7
370
    30
100
AcDbLine
 10
-237.2100037059508
 20
135.7626129444914
 30
0.0
 11
39.28999629404916
 21
135.7626129444914
 31
0.0
  0
MTEXT
  5
152
330
1F
100
AcDbEntity
  8
VIEW0001
 62
     7
100
AcDbMText
 10
-127.9671163444734
 20
-51.6017108690309
 30
0.0
 40
3.200000047683716
 41
0.0
 71
     7
 72
     1
  1
{\W0.833333;９０\U+00B0エルボ（トヨドレンシングル管用）}
 73
     1
 44
1.0
  0
MTEXT
  5
155
330
1F
100
AcDbEntity
  8
VIEW0002
 62
     7
100
AcDbMText
 10
-151.9514968921867
 20
-28.66159622472265
 30
0.0
 40
3.200000047683716
 41
0.0
 71
     7
 72
     1
  1
{\W0.833333;*形状は規格毎に異なります。}
 73
     1
 44
1.0
  0
MTEXT
  5
156
330
1F
100
AcDbEntity
  8
VIEW0002
 62
     7
100
AcDbMText
 10
-151.8115090283155
 20
-33.6594857500111
 30
0.0
 40
3.200000047683716
 41
0.0
 71
     7
 72
     1
  1
{\W0.833333;*ストッパ－の位置及び数は、規格毎に異なります。}
 73
     1
 44
1.0
  0
MTEXT
  5
157
330
1F
100
AcDbEntity
  8
VIEW0002
 62
     7
100
AcDbMText
 10
-152.0462865755578
 20
-38.88948203939911
 30
0.0
 40
3.200000047683716
 41
0.0
 71
     7
 72
     1
  1
{\W0.8333;*寸法、仕様等は製品改良の為、予告無く変更する場合があります。（Ｈ２４．６）}
 73
     1
 44
1.0
  0
LINE
  5
1F4
330
1F
100
AcDbEntity
  8
外形線
  6
Continuous
100
AcDbLine
 10
39.28999629404916
 20
-46.23738705550861
 30
0.0
 11
-149.7850044688903
 21
-46.23738705550861
 31
0.0
  0
LINE
  5
1F7
330
1F
100
AcDbEntity
  8
外形線
  6
Continuous
100
AcDbLine
 10
-47.21000370595083
 20
-53.73738705550861
 30
0.0
 11
-47.21000370595083
 21
-46.23738705550861
 31
0.0
  0
MTEXT
  5
224
330
1F
100
AcDbEntity
  8
0
 62
     7
100
AcDbMText
 10
-56.98639891864218
 20
-13.15322261453473
 30
0.0
 40
3.200000047683716
 41
0.0
 71
     5
 72
     1
  1
-
 73
     1
 44
1.0
  0
MTEXT
  5
225
330
1F
100
AcDbEntity
  8
0
 62
     7
100
AcDbMText
 10
-56.98639891864218
 20
-7.807222692020758
 30
0.0
 40
3.200000047683716
 41
0.0
 71
     5
 72
     1
  1
-
 73
     1
 44
1.0
  0
MTEXT
  5
226
330
1F
100
AcDbEntity
  8
0
 62
     7
100
AcDbMText
 10
-61.4764660682346
 20
-3.933079123270515
 30
0.0
 40
3.200000047683716
 41
0.0
 71
     7
 72
     1
  1
465
 73
     1
 44
1.0
  0
LINE
  5
63A
330
1F
100
AcDbEntity
  8
外形線
100
AcDbLine
 10
20.81627577903993
 20
101.9204478369778
 30
0.0
 11
19.63899971892961
 21
101.9204478369778
 31
0.0
  0
LINE
  5
63B
330
1F
100
AcDbEntity
  8
中心線
100
AcDbLine
 10
18.87227577903991
 20
102.313779981107
 30
0.0
 11
18.87227577903991
 21
99.76349744590557
 31
0.0
  0
LINE
  5
63C
330
1F
100
AcDbEntity
  8
外形線
100
AcDbLine
 10
18.10555183915019
 20
101.9204478369778
 30
0.0
 11
17.44312123177985
 21
101.9204478369778
 31
0.0
  0
LINE
  5
63D
330
1F
100
AcDbEntity
  8
破線
100
AcDbLine
 10
-5.524924220960258
 20
43.90011644115713
 30
0.0
 11
-5.524924220960258
 21
44.15124783697772
 31
0.0
  0
LINE
  5
63E
330
1F
100
AcDbEntity
  8
外形線
100
AcDbLine
 10
-5.006524220960129
 20
43.6219717768674
 30
0.0
 11
-5.006524220960129
 21
44.28440238423781
 31
0.0
  0
LINE
  5
63F
330
1F
100
AcDbEntity
  8
外形線
100
AcDbLine
 10
20.81627577903983
 20
101.9204478369778
 30
0.0
 11
20.81627577903983
 21
84.32724783697777
 31
0.0
  0
LINE
  5
640
330
1F
100
AcDbEntity
  8
外形線
100
AcDbLine
 10
-27.09757354298674
 20
88.82509715900402
 30
0.0
 11
-27.46413769835387
 21
89.19166131437114
 31
0.0
  0
LINE
  5
641
330
1F
100
AcDbEntity
  8
外形線
100
AcDbLine
 10
-7.852955386213619
 20
69.5804790022308
 30
0.0
 11
-7.486391230846492
 21
69.21391484686367
 31
0.0
  0
LINE
  5
642
330
1F
100
AcDbEntity
  8
外形線
100
AcDbLine
 10
-25.28363610758254
 20
57.27324783697764
 30
0.0
 11
-25.28363610758254
 21
55.81416823668168
 31
0.0
  0
LINE
  5
643
330
1F
100
AcDbEntity
  8
外形線
100
AcDbLine
 10
0.728275779040601
 20
68.41884783697782
 30
0.0
 11
6.552302281196602
 21
68.41884783697782
 31
0.0
  0
LINE
  5
644
330
1F
100
AcDbEntity
  8
外形線
100
AcDbLine
 10
5.913355379335882
 20
81.64333595035564
 30
0.0
 11
4.454275779039972
 21
82.38324783697791
 31
0.0
  0
LINE
  5
645
330
1F
100
AcDbEntity
  8
破線
100
AcDbLine
 10
17.57627577904
 20
67.25244783697793
 30
0.0
 11
14.98427577904002
 21
68.67804783697799
 31
0.0
  0
LINE
  5
646
330
1F
100
AcDbEntity
  8
破線
100
AcDbLine
 10
-5.524924220960258
 20
41.42964783697768
 30
0.0
 11
-5.524924220960258
 21
41.81037923279816
 31
0.0
  0
LINE
  5
647
330
1F
100
AcDbEntity
  8
破線
100
AcDbLine
 10
20.81627577903993
 20
100.8836478369778
 30
0.0
 11
20.29787577904001
 21
100.8836478369778
 31
0.0
  0
LINE
  5
648
330
1F
100
AcDbEntity
  8
外形線
100
AcDbLine
 10
-25.2836361075824
 20
55.8141682366817
 30
0.0
 11
-24.54372422096006
 21
57.27324783697764
 31
0.0
  0
LINE
  5
649
330
1F
100
AcDbEntity
  8
外形線
100
AcDbLine
 10
-37.89252422096004
 20
63.68318759435454
 30
0.0
 11
-37.89252422096004
 21
66.18324783697767
 31
0.0
  0
LINE
  5
64A
330
1F
100
AcDbEntity
  8
外形線
100
AcDbLine
 10
-5.006524220960129
 20
40.91124783697772
 30
0.0
 11
-5.006524220960129
 21
42.08852389708797
 31
0.0
  0
LINE
  5
64B
330
1F
100
AcDbEntity
  8
外形線
100
AcDbLine
 10
-1.955663978336956
 20
69.03444783697785
 30
0.0
 11
-4.455724220960106
 21
69.03444783697785
 31
0.0
  0
LINE
  5
64C
330
1F
100
AcDbEntity
  8
破線
100
AcDbLine
 10
20.29787577903992
 20
67.25244783697786
 30
0.0
 11
20.29787577903992
 21
67.77084783697785
 31
0.0
  0
LINE
  5
64D
330
1F
100
AcDbEntity
  8
破線
100
AcDbLine
 10
0.9352600331231002
 20
99.71724783697776
 30
0.0
 11
6.560275779039995
 21
99.71724783697776
 31
0.0
  0
LINE
  5
64E
330
1F
100
AcDbEntity
  8
外形線
100
AcDbLine
 10
-40.19292422096028
 20
44.28440238423767
 30
0.0
 11
-38.76324424601633
 21
46.88382052049938
 31
0.0
  0
LINE
  5
64F
330
1F
100
AcDbEntity
  8
外形線
100
AcDbLine
 10
4.454275779039875
 20
81.64333595035548
 30
0.0
 11
4.454275779039875
 21
84.32724783697777
 31
0.0
  0
LINE
  5
650
330
1F
100
AcDbEntity
  8
外形線
100
AcDbLine
 10
5.913355379335882
 20
81.64333595035556
 30
0.0
 11
5.913355379335882
 21
84.32724783697787
 31
0.0
  0
LINE
  5
651
330
1F
100
AcDbEntity
  8
外形線
100
AcDbLine
 10
20.81627577903983
 20
66.73404783697787
 30
0.0
 11
20.81627577903983
 21
84.32724783697777
 31
0.0
  0
LINE
  5
652
330
1F
100
AcDbEntity
  8
破線
100
AcDbLine
 10
20.81627577903998
 20
67.77084783697785
 30
0.0
 11
20.29787577904001
 21
67.77084783697785
 31
0.0
  0
LINE
  5
653
330
1F
100
AcDbEntity
  8
外形線
100
AcDbLine
 10
6.552302281196602
 20
100.2356478369776
 30
0.0
 11
14.84370309551831
 21
100.4907678620337
 31
0.0
  0
LINE
  5
654
330
1F
100
AcDbEntity
  8
破線
100
AcDbLine
 10
-39.67452422096042
 20
44.15124783697772
 30
0.0
 11
-38.24892422096042
 21
46.74324783697767
 31
0.0
  0
LINE
  5
655
330
1F
100
AcDbEntity
  8
外形線
100
AcDbLine
 10
-25.2836361075825
 20
57.2732478369777
 30
0.0
 11
-22.59972422096018
 21
57.2732478369777
 31
0.0
  0
LINE
  5
656
330
1F
100
AcDbEntity
  8
外形線
100
AcDbLine
 10
-25.28363610758254
 20
55.8141682366817
 30
0.0
 11
-22.59972422096024
 21
55.8141682366817
 31
0.0
  0
LINE
  5
657
330
1F
100
AcDbEntity
  8
外形線
100
AcDbLine
 10
-38.50812422096003
 20
55.17522133482103
 30
0.0
 11
-38.76324424601603
 21
46.88382052049938
 31
0.0
  0
LINE
  5
658
330
1F
100
AcDbEntity
  8
破線
100
AcDbLine
 10
-6.043324220960215
 20
40.91124783697765
 30
0.0
 11
-6.043324220960215
 21
41.42964783697768
 31
0.0
  0
LINE
  5
659
330
1F
100
AcDbEntity
  8
外形線
100
AcDbLine
 10
-5.006524220960186
 20
40.91124783697778
 30
0.0
 11
-22.59972422096018
 21
40.91124783697778
 31
0.0
  0
LINE
  5
65A
330
1F
100
AcDbEntity
  8
外形線
100
AcDbLine
 10
-19.91581233433787
 20
55.8141682366817
 30
0.0
 11
-22.59972422096024
 21
55.8141682366817
 31
0.0
  0
LINE
  5
65B
330
1F
100
AcDbEntity
  8
外形線
100
AcDbLine
 10
-19.91581233433787
 20
57.2732478369777
 30
0.0
 11
-22.59972422096018
 21
57.2732478369777
 31
0.0
  0
LINE
  5
65C
330
1F
100
AcDbEntity
  8
破線
100
AcDbLine
 10
-37.98972422096021
 20
60.82194281601459
 30
0.0
 11
-37.98972422096021
 21
55.16724783697758
 31
0.0
  0
LINE
  5
65D
330
1F
100
AcDbEntity
  8
破線
100
AcDbLine
 10
-5.524924220960198
 20
41.42964783697772
 30
0.0
 11
-6.043324220960215
 21
41.42964783697772
 31
0.0
  0
LINE
  5
65E
330
1F
100
AcDbEntity
  8
外形線
100
AcDbLine
 10
-4.571814494060006
 20
99.62004783697786
 30
0.0
 11
-0.3336927291265681
 21
99.62004783697786
 31
0.0
  0
LINE
  5
65F
330
1F
100
AcDbEntity
  8
破線
100
AcDbLine
 10
-39.15612422096025
 20
40.91124783697758
 30
0.0
 11
-39.15612422096025
 21
41.4296478369776
 31
0.0
  0
LINE
  5
660
330
1F
100
AcDbEntity
  8
外形線
100
AcDbLine
 10
-6.691324220960197
 20
60.99924783697773
 30
0.0
 11
-6.691324220960197
 21
55.17522133482103
 31
0.0
  0
LINE
  5
661
330
1F
100
AcDbEntity
  8
破線
100
AcDbLine
 10
-5.524924220960356
 20
44.15124783697756
 30
0.0
 11
-6.95052422096036
 21
46.74324783697759
 31
0.0
  0
LINE
  5
662
330
1F
100
AcDbEntity
  8
外形線
100
AcDbLine
 10
-19.91581233433803
 20
55.81416823668168
 30
0.0
 11
-20.65572422096031
 21
57.27324783697764
 31
0.0
  0
LINE
  5
663
330
1F
100
AcDbEntity
  8
外形線
100
AcDbLine
 10
-40.19292422096017
 20
40.91124783697778
 30
0.0
 11
-22.59972422096018
 21
40.91124783697778
 31
0.0
  0
LINE
  5
664
330
1F
100
AcDbEntity
  8
外形線
100
AcDbLine
 10
-40.19292422096017
 20
40.91124783697765
 30
0.0
 11
-40.19292422096017
 21
42.08852389708797
 31
0.0
  0
LINE
  5
665
330
1F
100
AcDbEntity
  8
外形線
100
AcDbLine
 10
5.913355379335882
 20
87.0111597236001
 30
0.0
 11
5.913355379335882
 21
84.32724783697787
 31
0.0
  0
LINE
  5
666
330
1F
100
AcDbEntity
  8
外形線
100
AcDbLine
 10
-2.321892757696858
 20
96.45294016610096
 30
0.0
 11
-3.163113600311118
 21
96.49749635479887
 31
0.0
  0
LINE
  5
667
330
1F
100
AcDbEntity
  8
破線
100
AcDbLine
 10
-7.209724220959955
 20
55.16724783697758
 30
0.0
 11
-6.950524220960004
 21
46.74324783697772
 31
0.0
  0
LINE
  5
668
330
1F
100
AcDbEntity
  8
外形線
100
AcDbLine
 10
4.454275779039875
 20
87.0111597236001
 30
0.0
 11
4.454275779039875
 21
84.32724783697777
 31
0.0
  0
LINE
  5
669
330
1F
100
AcDbEntity
  8
外形線
100
AcDbLine
 10
-19.91581233433787
 20
57.27324783697762
 30
0.0
 11
-19.91581233433787
 21
55.81416823668168
 31
0.0
  0
LINE
  5
66A
330
1F
100
AcDbEntity
  8
破線
100
AcDbLine
 10
-7.209724220960167
 20
60.82194281601521
 30
0.0
 11
-7.209724220960167
 21
55.16724783697751
 31
0.0
  0
LINE
  5
66B
330
1F
100
AcDbEntity
  8
外形線
100
AcDbLine
 10
-40.19292422096017
 20
43.62197177686735
 30
0.0
 11
-40.19292422096017
 21
44.28440238423774
 31
0.0
  0
LINE
  5
66C
330
1F
100
AcDbEntity
  8
外形線
100
AcDbLine
 10
4.454275779040074
 20
81.64333595035548
 30
0.0
 11
5.913355379335983
 21
81.64333595035548
 31
0.0
  0
LINE
  5
66D
330
1F
100
AcDbEntity
  8
破線
100
AcDbLine
 10
-4.463067181859424
 20
99.10164783697785
 30
0.0
 11
-0.5677242209591498
 21
99.10164783697785
 31
0.0
  0
LINE
  5
66E
330
1F
100
AcDbEntity
  8
破線
100
AcDbLine
 10
-39.67452422096015
 20
43.90011644115713
 30
0.0
 11
-39.67452422096015
 21
44.15124783697772
 31
0.0
  0
LINE
  5
66F
330
1F
100
AcDbEntity
  8
外形線
100
AcDbLine
 10
-40.11529330885932
 20
42.20724783697771
 30
0.0
 11
-5.084155133061101
 21
42.20724783697771
 31
0.0
  0
LINE
  5
670
330
1F
100
AcDbEntity
  8
中心線
100
AcDbLine
 10
-22.59972422096018
 20
84.3272478369777
 30
0.0
 11
-22.59972422096018
 21
37.98651872846985
 31
0.0
  0
LINE
  5
671
330
1F
100
AcDbEntity
  8
外形線
100
AcDbLine
 10
-6.436204195904138
 20
46.88382052049949
 30
0.0
 11
-38.76324424601623
 21
46.88382052049949
 31
0.0
  0
LINE
  5
672
330
1F
100
AcDbEntity
  8
外形線
100
AcDbLine
 10
-10.47403189183689
 20
64.04941637371433
 30
0.0
 11
-10.42947570313903
 21
64.89063721632857
 31
0.0
  0
LINE
  5
673
330
1F
100
AcDbEntity
  8
外形線
100
AcDbLine
 10
-5.084155133061101
 20
43.50324783697772
 30
0.0
 11
-40.11529330885942
 21
43.50324783697772
 31
0.0
  0
LINE
  5
674
330
1F
100
AcDbEntity
  8
外形線
100
AcDbLine
 10
-40.19292422096017
 20
44.28440238423781
 30
0.0
 11
-5.006524220960186
 21
44.28440238423781
 31
0.0
  0
LINE
  5
675
330
1F
100
AcDbEntity
  8
破線
100
AcDbLine
 10
17.57627577903992
 20
101.4020478369779
 30
0.0
 11
14.9842757790399
 21
99.97644783697795
 31
0.0
  0
LINE
  5
676
330
1F
100
AcDbEntity
  8
外形線
100
AcDbLine
 10
-5.103724220960129
 20
97.9352478369779
 30
0.0
 11
-4.668734972157806
 21
97.9352478369779
 31
0.0
  0
LINE
  5
677
330
1F
100
AcDbEntity
  8
外形線
100
AcDbLine
 10
-6.691324220959883
 20
55.17522133482109
 30
0.0
 11
-6.436204195903781
 21
46.88382052049949
 31
0.0
  0
LINE
  5
678
330
1F
100
AcDbEntity
  8
破線
100
AcDbLine
 10
-39.67452422096015
 20
41.42964783697768
 30
0.0
 11
-39.67452422096015
 21
41.81037923279825
 31
0.0
  0
LINE
  5
679
330
1F
100
AcDbEntity
  8
破線
100
AcDbLine
 10
-39.67452422096027
 20
41.42964783697772
 30
0.0
 11
-39.15612422096025
 21
41.42964783697772
 31
0.0
  0
LINE
  5
67A
330
1F
100
AcDbEntity
  8
外形線
100
AcDbLine
 10
17.44312123177991
 20
101.9204478369779
 30
0.0
 11
14.84370309551815
 21
100.4907678620339
 31
0.0
  0
LINE
  5
67B
330
1F
100
AcDbEntity
  8
外形線
100
AcDbLine
 10
20.81627577903993
 20
66.73404783697775
 30
0.0
 11
19.63899971892971
 21
66.73404783697775
 31
0.0
  0
LINE
  5
67C
330
1F
100
AcDbEntity
  8
中心線
100
AcDbLine
 10
-22.59972422096009
 20
84.3272478369777
 30
0.0
 11
22.46273663372298
 21
84.3272478369777
 31
0.0
  0
LINE
  5
67D
330
1F
100
AcDbEntity
  8
外形線
100
AcDbLine
 10
-5.006524220960287
 20
44.28440238423774
 30
0.0
 11
-6.436204195904295
 21
46.88382052049941
 31
0.0
  0
LINE
  5
67E
330
1F
100
AcDbEntity
  8
外形線
100
AcDbLine
 10
5.913355379335882
 20
87.01115972359989
 30
0.0
 11
4.454275779039972
 21
86.27124783697764
 31
0.0
  0
LINE
  5
67F
330
1F
100
AcDbEntity
  8
外形線
100
AcDbLine
 10
0.0802757790399653
 20
99.62004783697786
 30
0.0
 11
0.0802757790399653
 21
69.03444783697834
 31
0.0
  0
LINE
  5
680
330
1F
100
AcDbEntity
  8
破線
100
AcDbLine
 10
20.29787577904001
 20
67.25244783697778
 30
0.0
 11
19.91714438321952
 21
67.25244783697778
 31
0.0
  0
LINE
  5
681
330
1F
100
AcDbEntity
  8
破線
100
AcDbLine
 10
-37.9897242209599
 20
55.16724783697751
 30
0.0
 11
-38.24892422095991
 21
46.74324783697767
 31
0.0
  0
LINE
  5
682
330
1F
100
AcDbEntity
  8
外形線
100
AcDbLine
 10
-4.039784463582946
 20
69.03444783697785
 30
0.0
 11
-0.333692729125957
 21
69.03444783697785
 31
0.0
  0
LINE
  5
683
330
1F
100
AcDbEntity
  8
破線
100
AcDbLine
 10
-0.333692729125957
 20
69.55284783697784
 30
0.0
 11
-4.463067181859424
 21
69.55284783697784
 31
0.0
  0
LINE
  5
684
330
1F
100
AcDbEntity
  8
外形線
100
AcDbLine
 10
-18.71172422096013
 20
60.99924783697773
 30
0.0
 11
-26.48772422096013
 21
60.99924783697773
 31
0.0
  0
LINE
  5
685
330
1F
100
AcDbEntity
  8
破線
100
AcDbLine
 10
0.7374504340437227
 20
69.12516695610392
 30
0.0
 11
0.9352600331238107
 21
68.93724783697777
 31
0.0
  0
LINE
  5
686
330
1F
100
AcDbEntity
  8
外形線
100
AcDbLine
 10
-4.668734972157806
 20
70.71924783697777
 30
0.0
 11
-5.103724220960089
 21
70.71924783697777
 31
0.0
  0
LINE
  5
687
330
1F
100
AcDbEntity
  8
外形線
100
AcDbLine
 10
17.44312123177991
 20
66.73404783697792
 30
0.0
 11
14.84370309551815
 21
68.1637278119219
 31
0.0
  0
LINE
  5
688
330
1F
100
AcDbEntity
  8
破線
100
AcDbLine
 10
6.560275779040098
 20
99.71724783697757
 30
0.0
 11
14.9842757790399
 21
99.97644783697751
 31
0.0
  0
LINE
  5
689
330
1F
100
AcDbEntity
  8
外形線
100
AcDbLine
 10
17.4431212317798
 20
101.9204478369778
 30
0.0
 11
17.4431212317798
 21
66.73404783697775
 31
0.0
  0
LINE
  5
68A
330
1F
100
AcDbEntity
  8
破線
100
AcDbLine
 10
20.29787577903992
 20
101.4020478369777
 30
0.0
 11
19.91714438321941
 21
101.4020478369777
 31
0.0
  0
LINE
  5
68B
330
1F
100
AcDbEntity
  8
外形線
100
AcDbLine
 10
6.552302281196502
 20
68.41884783697745
 30
0.0
 11
14.84370309551815
 21
68.16372781192146
 31
0.0
  0
LINE
  5
68C
330
1F
100
AcDbEntity
  8
破線
100
AcDbLine
 10
20.29787577903992
 20
101.4020478369778
 30
0.0
 11
20.29787577903992
 21
100.8836478369778
 31
0.0
  0
LINE
  5
68D
330
1F
100
AcDbEntity
  8
破線
100
AcDbLine
 10
6.560275779039995
 20
68.93724783697759
 30
0.0
 11
14.9842757790399
 21
68.67804783697761
 31
0.0
  0
LINE
  5
68E
330
1F
100
AcDbEntity
  8
外形線
100
AcDbLine
 10
-5.103724220960129
 20
98.45364783697782
 30
0.0
 11
-4.954707748431161
 21
99.29876224845477
 31
0.0
  0
LINE
  5
68F
330
1F
100
AcDbEntity
  8
外形線
100
AcDbLine
 10
-2.476016734541857
 20
93.54307948327187
 30
0.0
 11
-3.317237577156118
 21
93.5876356719697
 31
0.0
  0
LINE
  5
690
330
1F
100
AcDbEntity
  8
外形線
100
AcDbLine
 10
18.22427577903988
 20
66.81167874907877
 30
0.0
 11
18.22427577903988
 21
101.842816924877
 31
0.0
  0
LINE
  5
691
330
1F
100
AcDbEntity
  8
外形線
100
AcDbLine
 10
14.84370309551815
 20
68.16372781192177
 30
0.0
 11
14.84370309551815
 21
100.4907678620338
 31
0.0
  0
LINE
  5
692
330
1F
100
AcDbEntity
  8
外形線
100
AcDbLine
 10
4.454275779040016
 20
87.0111597236001
 30
0.0
 11
5.913355379335983
 21
87.0111597236001
 31
0.0
  0
LINE
  5
693
330
1F
100
AcDbEntity
  8
外形線
100
AcDbLine
 10
18.10555183915019
 20
66.73404783697775
 30
0.0
 11
17.44312123177991
 21
66.73404783697775
 31
0.0
  0
LINE
  5
694
330
1F
100
AcDbEntity
  8
破線
100
AcDbLine
 10
17.82740717486049
 20
67.25244783697778
 30
0.0
 11
17.57627577903992
 21
67.25244783697778
 31
0.0
  0
LINE
  5
695
330
1F
100
AcDbEntity
  8
破線
100
AcDbLine
 10
0.9352600331239099
 20
68.93724783697777
 30
0.0
 11
6.560275779040098
 21
68.93724783697777
 31
0.0
  0
LINE
  5
696
330
1F
100
AcDbEntity
  8
外形線
100
AcDbLine
 10
19.52027577903988
 20
101.842816924877
 30
0.0
 11
19.52027577903988
 21
66.81167874907874
 31
0.0
  0
LINE
  5
697
330
1F
100
AcDbEntity
  8
破線
100
AcDbLine
 10
17.82740717486041
 20
101.4020478369777
 30
0.0
 11
17.57627577903986
 21
101.4020478369777
 31
0.0
  0
LINE
  5
698
330
1F
100
AcDbEntity
  8
外形線
100
AcDbLine
 10
-7.852955386213167
 20
69.58047900223125
 30
0.0
 11
-7.486391230846081
 21
69.21391484686416
 31
0.0
  0
LINE
  5
699
330
1F
100
AcDbEntity
  8
外形線
100
AcDbLine
 10
-27.09757354298637
 20
88.82509715900429
 30
0.0
 11
-27.46413769835351
 21
89.19166131437137
 31
0.0
  0
LINE
  5
69A
330
1F
100
AcDbEntity
  8
外形線
100
AcDbLine
 10
-1.058210864762284
 20
75.06686000198572
 30
0.0
 11
-0.2169900221479395
 21
75.02230381328789
 31
0.0
  0
LINE
  5
69B
330
1F
100
AcDbEntity
  8
破線
100
AcDbLine
 10
-1.455485487515059
 20
86.42938624681173
 30
0.0
 11
-1.237521269174577
 21
82.31422180453924
 31
0.0
  0
LINE
  5
69C
330
1F
100
AcDbEntity
  8
外形線
100
AcDbLine
 10
-1.212334841607145
 20
72.15699931915662
 30
0.0
 11
-1.058210864762187
 21
75.06686000198572
 31
0.0
  0
LINE
  5
69D
330
1F
100
AcDbEntity
  8
外形線
100
AcDbLine
 10
-3.220160205501583
 20
95.42045644880515
 30
0.0
 11
-2.321892757696915
 21
96.45294016610096
 31
0.0
  0
LINE
  5
69E
330
1F
100
AcDbEntity
  8
外形線
100
AcDbLine
 10
0.3804027129865801
 20
99.90516842422714
 30
0.0
 11
0.7282757790398762
 21
100.2356478369778
 31
0.0
  0
LINE
  5
69F
330
1F
100
AcDbEntity
  8
外形線
100
AcDbLine
 10
0.3804027129871485
 20
68.74932724972858
 30
0.0
 11
0.7282757790401888
 21
68.41884783697818
 31
0.0
  0
LINE
  5
6A0
330
1F
100
AcDbEntity
  8
破線
100
AcDbLine
 10
-4.668734972157806
 20
97.93524783697785
 30
0.0
 11
-4.463067181859486
 21
99.10164783697785
 31
0.0
  0
LINE
  5
6A1
330
1F
100
AcDbEntity
  8
外形線
100
AcDbLine
 10
0.7282757790398762
 20
100.2356478369778
 30
0.0
 11
6.552302281196502
 21
100.2356478369778
 31
0.0
  0
LINE
  5
6A2
330
1F
100
AcDbEntity
  8
破線
100
AcDbLine
 10
0.7374504340431117
 20
99.52932871785177
 30
0.0
 11
0.9352600331231002
 21
99.71724783697771
 31
0.0
  0
LINE
  5
6A3
330
1F
100
AcDbEntity
  8
外形線
100
AcDbLine
 10
6.552302281203862
 20
100.2356478369778
 30
0.0
 11
6.552302281203862
 21
68.41884783697726
 31
0.0
  0
LINE
  5
6A4
330
1F
100
AcDbEntity
  8
外形線
100
AcDbLine
 10
0.7282757790398762
 20
100.2356478369778
 30
0.0
 11
0.7282757790398762
 21
68.41884783697778
 31
0.0
  0
LINE
  5
6A5
330
1F
100
AcDbEntity
  8
外形線
100
AcDbLine
 10
-5.103724220960129
 20
98.45364783697785
 30
0.0
 11
-5.103724220960129
 21
70.20084783697777
 31
0.0
  0
LINE
  5
6A6
330
1F
100
AcDbEntity
  8
破線
100
AcDbLine
 10
-4.668734972157806
 20
70.71924783697773
 30
0.0
 11
-4.463067181859424
 21
69.55284783697784
 31
0.0
  0
LINE
  5
6A7
330
1F
100
AcDbEntity
  8
外形線
100
AcDbLine
 10
-1.15528823641672
 20
73.23403922515023
 30
0.0
 11
-0.3711139989928824
 21
72.11244313045874
 31
0.0
  0
LINE
  5
6A8
330
1F
100
AcDbEntity
  8
外形線
100
AcDbLine
 10
-1.212334841607145
 20
72.15699931915662
 30
0.0
 11
-0.371113998992783
 21
72.11244313045878
 31
0.0
  0
LINE
  5
6A9
330
1F
100
AcDbEntity
  8
外形線
100
AcDbLine
 10
-0.3711139989928824
 20
72.11244313045878
 30
0.0
 11
-0.2169900221479395
 21
75.02230381328792
 31
0.0
  0
LINE
  5
6AA
330
1F
100
AcDbEntity
  8
外形線
100
AcDbLine
 10
-1.863724220960165
 20
99.65244783697778
 30
0.0
 11
-1.863724220960165
 21
101.1358065502422
 31
0.0
  0
LINE
  5
6AB
330
1F
100
AcDbEntity
  8
外形線
100
AcDbLine
 10
-5.103724220960089
 20
70.20084783697786
 30
0.0
 11
-4.954707748431161
 21
69.35573342550092
 31
0.0
  0
LINE
  5
6AC
330
1F
100
AcDbEntity
  8
外形線
100
AcDbLine
 10
-4.571814494060006
 20
69.03444783697785
 30
0.0
 11
-3.575663978336919
 21
69.03444783697785
 31
0.0
  0
LINE
  5
6AD
330
1F
100
AcDbEntity
  8
外形線
100
AcDbLine
 10
-4.898056430661795
 20
99.44274639206115
 30
0.0
 11
-4.898056430661795
 21
69.21174928189451
 31
0.0
  0
LINE
  5
6AE
330
1F
100
AcDbEntity
  8
外形線
100
AcDbLine
 10
-37.89252422096004
 20
65.7673080796005
 30
0.0
 11
-37.89252422096004
 21
62.06121634514359
 31
0.0
  0
LINE
  5
6AF
330
1F
100
AcDbEntity
  8
外形線
100
AcDbLine
 10
-38.50812422096018
 20
60.99924783697773
 30
0.0
 11
-38.50812422096018
 21
55.17522133482103
 31
0.0
  0
LINE
  5
6B0
330
1F
100
AcDbEntity
  8
外形線
100
AcDbLine
 10
-13.38389257466593
 20
64.20354035055925
 30
0.0
 11
-13.33933638596812
 21
65.04476119317359
 31
0.0
  0
LINE
  5
6B1
330
1F
100
AcDbEntity
  8
外形線
100
AcDbLine
 10
-36.20772422096019
 20
66.3962585881753
 30
0.0
 11
-36.20772422096019
 21
66.83124783697767
 31
0.0
  0
LINE
  5
6B2
330
1F
100
AcDbEntity
  8
外形線
100
AcDbLine
 10
-7.306924220960112
 20
66.2993381100775
 30
0.0
 11
-7.306924220960112
 21
62.06121634514408
 31
0.0
  0
LINE
  5
6B3
330
1F
100
AcDbEntity
  8
外形線
100
AcDbLine
 10
-34.76997273878139
 20
62.93985845762472
 30
0.0
 11
-31.86011205595228
 21
62.7857344807798
 31
0.0
  0
LINE
  5
6B4
330
1F
100
AcDbEntity
  8
外形線
100
AcDbLine
 10
-7.021803633710745
 20
61.34712090303089
 30
0.0
 11
-6.691324220960138
 21
60.9992478369776
 31
0.0
  0
LINE
  5
6B5
330
1F
100
AcDbEntity
  8
外形線
100
AcDbLine
 10
-8.991724220960023
 20
66.83124783697767
 30
0.0
 11
-8.991724220960023
 21
66.3962585881753
 31
0.0
  0
LINE
  5
6B6
330
1F
100
AcDbEntity
  8
破線
100
AcDbLine
 10
-7.825324220960027
 20
66.190590797877
 30
0.0
 11
-7.825324220960027
 21
62.29524783697669
 31
0.0
  0
LINE
  5
6B7
330
1F
100
AcDbEntity
  8
破線
100
AcDbLine
 10
-37.80180510183413
 20
60.99007318197379
 30
0.0
 11
-37.98972422096021
 21
60.79226358289377
 31
0.0
  0
LINE
  5
6B8
330
1F
100
AcDbEntity
  8
外形線
100
AcDbLine
 10
-8.473324220960206
 20
66.83124783697767
 30
0.0
 11
-7.628209809483252
 21
66.68223136444869
 31
0.0
  0
LINE
  5
6B9
330
1F
100
AcDbEntity
  8
破線
100
AcDbLine
 10
-37.37412422096003
 20
62.06121634514359
 30
0.0
 11
-37.37412422096003
 21
66.190590797877
 31
0.0
  0
LINE
  5
6BA
330
1F
100
AcDbEntity
  8
外形線
100
AcDbLine
 10
-7.306924220960012
 20
61.6472478369776
 30
0.0
 11
-37.89252422095953
 21
61.6472478369776
 31
0.0
  0
LINE
  5
6BB
330
1F
100
AcDbEntity
  8
外形線
100
AcDbLine
 10
-37.89252422096011
 20
66.2993381100775
 30
0.0
 11
-37.89252422096011
 21
65.30318759435451
 31
0.0
  0
LINE
  5
6BC
330
1F
100
AcDbEntity
  8
破線
100
AcDbLine
 10
-7.397643340086232
 20
60.99007318197452
 30
0.0
 11
-7.209724220960267
 21
60.79226358289453
 31
0.0
  0
LINE
  5
6BD
330
1F
100
AcDbEntity
  8
外形線
100
AcDbLine
 10
-6.691324220960197
 20
60.99924783697773
 30
0.0
 11
-38.50812422096023
 21
60.99924783697773
 31
0.0
  0
LINE
  5
6BE
330
1F
100
AcDbEntity
  8
外形線
100
AcDbLine
 10
-8.473324220960165
 20
66.83124783697772
 30
0.0
 11
-36.7261242209602
 21
66.83124783697772
 31
0.0
  0
LINE
  5
6BF
330
1F
100
AcDbEntity
  8
外形線
100
AcDbLine
 10
-38.17764480820941
 20
61.34712090303036
 30
0.0
 11
-38.50812422095972
 21
60.9992478369774
 31
0.0
  0
LINE
  5
6C0
330
1F
100
AcDbEntity
  8
外形線
100
AcDbLine
 10
-31.8601120559522
 20
62.78573448077975
 30
0.0
 11
-31.90466824465004
 21
61.94451363816543
 31
0.0
  0
LINE
  5
6C1
330
1F
100
AcDbEntity
  8
破線
100
AcDbLine
 10
-21.30372422096045
 20
63.9838919047732
 30
0.0
 11
-20.49758581112623
 21
63.18300910353264
 31
0.0
  0
LINE
  5
6C2
330
1F
100
AcDbEntity
  8
破線
100
AcDbLine
 10
-24.61275025339873
 20
62.96504488519211
 30
0.0
 11
-23.89572422095998
 21
63.84660376918017
 31
0.0
  0
LINE
  5
6C3
330
1F
100
AcDbEntity
  8
破線
100
AcDbLine
 10
-24.65730644209654
 20
63.80626572780634
 30
0.0
 11
-20.54214199982403
 21
64.02422994614688
 31
0.0
  0
LINE
  5
6C4
330
1F
100
AcDbEntity
  8
外形線
100
AcDbLine
 10
-7.484225665876721
 20
66.62558004667932
 30
0.0
 11
-37.71522277604333
 21
66.62558004667932
 31
0.0
  0
LINE
  5
6C5
330
1F
100
AcDbEntity
  8
破線
100
AcDbLine
 10
-20.54214199982387
 20
64.02422994614688
 30
0.0
 11
-20.49758581112617
 21
63.18300910353264
 31
0.0
  0
LINE
  5
6C6
330
1F
100
AcDbEntity
  8
破線
100
AcDbLine
 10
-24.61275025339869
 20
62.96504488519218
 30
0.0
 11
-24.65730644209644
 21
63.80626572780642
 31
0.0
  0
LINE
  5
6C7
330
1F
100
AcDbEntity
  8
外形線
100
AcDbLine
 10
-10.47403189183689
 20
64.04941637371433
 30
0.0
 11
-13.38389257466599
 21
64.20354035055925
 31
0.0
  0
LINE
  5
6C8
330
1F
100
AcDbEntity
  8
外形線
100
AcDbLine
 10
-13.33933638596818
 20
65.04476119317359
 30
0.0
 11
-10.42947570313909
 21
64.89063721632873
 31
0.0
  0
LINE
  5
6C9
330
1F
100
AcDbEntity
  8
外形線
100
AcDbLine
 10
-34.81452892747924
 20
62.09863761501035
 30
0.0
 11
-31.9046682446501
 21
61.94451363816543
 31
0.0
  0
LINE
  5
6CA
330
1F
100
AcDbEntity
  8
破線
100
AcDbLine
 10
-20.49758581112623
 20
63.18300910353264
 30
0.0
 11
-24.61275025339873
 21
62.96504488519218
 31
0.0
  0
LINE
  5
6CB
330
1F
100
AcDbEntity
  8
破線
100
AcDbLine
 10
-8.991724220960023
 20
66.3962585881753
 30
0.0
 11
-7.825324220960084
 21
66.190590797877
 31
0.0
  0
LINE
  5
6CC
330
1F
100
AcDbEntity
  8
外形線
100
AcDbLine
 10
-36.72612422096007
 20
66.83124783697761
 30
0.0
 11
-37.57123863243696
 21
66.68223136444869
 31
0.0
  0
LINE
  5
6CD
330
1F
100
AcDbEntity
  8
外形線
100
AcDbLine
 10
-33.69293283278769
 20
62.88281185243425
 30
0.0
 11
-34.81452892747909
 21
62.09863761501035
 31
0.0
  0
LINE
  5
6CE
330
1F
100
AcDbEntity
  8
外形線
100
AcDbLine
 10
-34.76997273878124
 20
62.93985845762472
 30
0.0
 11
-34.81452892747909
 21
62.09863761501035
 31
0.0
  0
LINE
  5
6CF
330
1F
100
AcDbEntity
  8
外形線
100
AcDbLine
 10
-11.50651560913277
 20
64.94768382151915
 30
0.0
 11
-10.47403189183694
 21
64.04941637371442
 31
0.0
  0
LINE
  5
6D0
330
1F
100
AcDbEntity
  8
破線
100
AcDbLine
 10
-36.20772422096024
 20
66.3962585881754
 30
0.0
 11
-37.37412422096014
 21
66.19059079787708
 31
0.0
  0
LINE
  5
6D1
330
1F
100
AcDbEntity
  8
外形線
100
AcDbLine
 10
-38.50812422096014
 20
55.17522133482103
 30
0.0
 11
-6.691324220960138
 21
55.17522133482103
 31
0.0
  0
LINE
  5
6D2
330
1F
100
AcDbEntity
  8
外形線
100
AcDbLine
 10
-3.317237577156062
 20
93.5876356719697
 30
0.0
 11
-3.163113600311163
 21
96.49749635479887
 31
0.0
  0
LINE
  5
6D3
330
1F
100
AcDbEntity
  8
外形線
100
AcDbLine
 10
-2.321892757696858
 20
96.45294016610096
 30
0.0
 11
-2.476016734541814
 21
93.5430794832718
 31
0.0
  0
LINE
  5
6D4
330
1F
100
AcDbEntity
  8
破線
100
AcDbLine
 10
-1.237521269174634
 20
82.31422180453924
 30
0.0
 11
-2.078742111788995
 21
82.26966561584154
 31
0.0
  0
LINE
  5
6D5
330
1F
100
AcDbEntity
  8
破線
100
AcDbLine
 10
-2.29670633012931
 20
86.38483005811398
 30
0.0
 11
-1.455485487515161
 21
86.42938624681173
 31
0.0
  0
LINE
  5
6D6
330
1F
100
AcDbEntity
  8
破線
100
AcDbLine
 10
-2.078742111788898
 20
82.26966561584147
 30
0.0
 11
-2.296706330129409
 21
86.38483005811393
 31
0.0
  0
LINE
  5
6D7
330
1F
100
AcDbEntity
  8
破線
100
AcDbLine
 10
-1.237521269174577
 20
82.31422180453924
 30
0.0
 11
-2.119080153162625
 21
83.031247836978
 31
0.0
  0
LINE
  5
6D8
330
1F
100
AcDbEntity
  8
破線
100
AcDbLine
 10
-2.25636828875568
 20
85.62324783697738
 30
0.0
 11
-1.455485487515161
 21
86.42938624681162
 31
0.0
  0
LINE
  5
6D9
330
1F
100
AcDbEntity
  8
外形線
100
AcDbLine
 10
-104.7868830717514
 20
44.66144157418301
 30
0.0
 11
-115.4418422583916
 21
44.66144157418301
 31
0.0
  0
LINE
  5
6DA
330
1F
100
AcDbEntity
  8
外形線
100
AcDbLine
 10
-104.7868830717514
 20
42.21200157418301
 30
0.0
 11
-115.9129102335143
 21
42.21200157418301
 31
0.0
  0
LINE
  5
6DB
330
1F
100
AcDbEntity
  8
外形線
100
AcDbLine
 10
-104.7868830717514
 20
42.911841574183
 30
0.0
 11
-115.9129102335143
 21
42.911841574183
 31
0.0
  0
LINE
  5
6DC
330
1F
100
AcDbEntity
  8
外形線
100
AcDbLine
 10
-104.7868830717514
 20
44.0782415741831
 30
0.0
 11
-115.9202758851112
 21
44.0782415741831
 31
0.0
  0
LINE
  5
6DD
330
1F
100
AcDbEntity
  8
外形線
100
AcDbLine
 10
-104.7868830717514
 20
44.66144157418301
 30
0.0
 11
-94.13192388511118
 21
44.66144157418301
 31
0.0
  0
LINE
  5
6DE
330
1F
100
AcDbEntity
  8
外形線
100
AcDbLine
 10
-104.7868830717514
 20
44.0782415741831
 30
0.0
 11
-93.65349025839169
 21
44.0782415741831
 31
0.0
  0
LINE
  5
6DF
330
1F
100
AcDbEntity
  8
外形線
100
AcDbLine
 10
-104.7868830717514
 20
42.21200157418301
 30
0.0
 11
-93.66085590998848
 21
42.21200157418301
 31
0.0
  0
LINE
  5
6E0
330
1F
100
AcDbEntity
  8
外形線
100
AcDbLine
 10
-94.0134917465391
 20
44.49062624897151
 30
0.0
 11
-93.77192239696302
 21
44.24905689939556
 31
0.0
  0
LINE
  5
6E1
330
1F
100
AcDbEntity
  8
破線
100
AcDbLine
 10
-115.6810590717514
 20
41.453841574183
 30
0.0
 11
-115.3894590717514
 21
41.453841574183
 31
0.0
  0
LINE
  5
6E2
330
1F
100
AcDbEntity
  8
破線
100
AcDbLine
 10
-114.1180830717514
 20
56.90864157418303
 30
0.0
 11
-114.1180830717514
 21
55.57646421342957
 31
0.0
  0
LINE
  5
6E3
330
1F
100
AcDbEntity
  8
外形線
100
AcDbLine
 10
-114.4096830717514
 20
56.90864157418303
 30
0.0
 11
-114.4096830717514
 21
55.74224157418246
 31
0.0
  0
LINE
  5
6E4
330
1F
100
AcDbEntity
  8
外形線
100
AcDbLine
 10
-115.9726590717514
 20
42.11017679668134
 30
0.0
 11
-115.9726590717514
 21
41.16224157418296
 31
0.0
  0
LINE
  5
6E5
330
1F
100
AcDbEntity
  8
外形線
100
AcDbLine
 10
-115.5602743969634
 20
44.49062624897134
 30
0.0
 11
-115.8018437465395
 21
44.24905689939532
 31
0.0
  0
LINE
  5
6E6
330
1F
100
AcDbEntity
  8
破線
100
AcDbLine
 10
-115.3894590717514
 20
41.453841574183
 30
0.0
 11
-115.3894590717514
 21
41.16224157418296
 31
0.0
  0
LINE
  5
6E7
330
1F
100
AcDbEntity
  8
外形線
100
AcDbLine
 10
-104.7868830717514
 20
42.911841574183
 30
0.0
 11
-93.66085590998848
 21
42.911841574183
 31
0.0
  0
LINE
  5
6E8
330
1F
100
AcDbEntity
  8
破線
100
AcDbLine
 10
-94.18430707175145
 20
41.453841574183
 30
0.0
 11
-94.18430707175145
 21
41.16224157418296
 31
0.0
  0
LINE
  5
6E9
330
1F
100
AcDbEntity
  8
外形線
100
AcDbLine
 10
-93.60110707175143
 20
42.11017679668134
 30
0.0
 11
-93.60110707175143
 21
41.16224157418296
 31
0.0
  0
LINE
  5
6EA
330
1F
100
AcDbEntity
  8
外形線
100
AcDbLine
 10
-94.18430707175136
 20
55.15904157418254
 30
0.0
 11
-95.16408307175137
 21
55.74224157418311
 31
0.0
  0
LINE
  5
6EB
330
1F
100
AcDbEntity
  8
破線
100
AcDbLine
 10
-95.45568307175143
 20
56.90864157418303
 30
0.0
 11
-95.45568307175143
 21
55.58618199020694
 31
0.0
  0
LINE
  5
6EC
330
1F
100
AcDbEntity
  8
外形線
100
AcDbLine
 10
-95.16408307175145
 20
56.90864157418303
 30
0.0
 11
-95.16408307175145
 21
55.74224157418209
 31
0.0
  0
LINE
  5
6ED
330
1F
100
AcDbEntity
  8
破線
100
AcDbLine
 10
-115.0978590717514
 20
54.99326421342896
 30
0.0
 11
-114.1180830717514
 21
55.57646421342957
 31
0.0
  0
LINE
  5
6EE
330
1F
100
AcDbEntity
  8
破線
100
AcDbLine
 10
-94.4759070717515
 20
54.99326421342896
 30
0.0
 11
-95.45568307175143
 21
55.57646421342957
 31
0.0
  0
LINE
  5
6EF
330
1F
100
AcDbEntity
  8
破線
100
AcDbLine
 10
-115.0978590717514
 20
54.99326421342896
 30
0.0
 11
-115.0978590717514
 21
44.90301092375901
 31
0.0
  0
LINE
  5
6F0
330
1F
100
AcDbEntity
  8
破線
100
AcDbLine
 10
-93.89270707175144
 20
41.453841574183
 30
0.0
 11
-94.18430707175142
 21
41.453841574183
 31
0.0
  0
LINE
  5
6F1
330
1F
100
AcDbEntity
  8
外形線
100
AcDbLine
 10
-93.60110707175143
 20
43.83667222460696
 30
0.0
 11
-93.60110707175143
 21
43.01366635168466
 31
0.0
  0
LINE
  5
6F2
330
1F
100
AcDbEntity
  8
破線
100
AcDbLine
 10
-94.47590707175143
 20
55.00298199020694
 30
0.0
 11
-94.47590707175143
 21
44.90301092375901
 31
0.0
  0
LINE
  5
6F3
330
1F
100
AcDbEntity
  8
破線
100
AcDbLine
 10
-93.89270707175144
 20
43.83667216242383
 30
0.0
 11
-93.89270707175144
 21
43.13333854137946
 31
0.0
  0
LINE
  5
6F4
330
1F
100
AcDbEntity
  8
破線
100
AcDbLine
 10
-93.89270707175144
 20
41.99050460698652
 30
0.0
 11
-93.89270707175144
 21
41.453841574183
 31
0.0
  0
LINE
  5
6F5
330
1F
100
AcDbEntity
  8
外形線
100
AcDbLine
 10
-115.3894590717514
 20
55.15904157418237
 30
0.0
 11
-114.4096830717514
 21
55.74224157418289
 31
0.0
  0
LINE
  5
6F6
330
1F
100
AcDbEntity
  8
外形線
100
AcDbLine
 10
-94.18430707175145
 20
55.15904157418265
 30
0.0
 11
-94.18430707175145
 21
44.90301092375901
 31
0.0
  0
LINE
  5
6F7
330
1F
100
AcDbEntity
  8
外形線
100
AcDbLine
 10
-93.60110707175143
 20
41.162241574183
 30
0.0
 11
-104.7868830717514
 21
41.162241574183
 31
0.0
  0
LINE
  5
6F8
330
1F
100
AcDbEntity
  8
外形線
100
AcDbLine
 10
-115.9726590717514
 20
43.83667222460696
 30
0.0
 11
-115.9726590717514
 21
43.01366635168466
 31
0.0
  0
LINE
  5
6F9
330
1F
100
AcDbEntity
  8
中心線
100
AcDbLine
 10
-104.7868830717514
 20
73.23824157418299
 30
0.0
 11
-104.7868830717514
 21
39.46125585976547
 31
0.0
  0
LINE
  5
6FA
330
1F
100
AcDbEntity
  8
破線
100
AcDbLine
 10
-94.21968408393313
 20
44.28443391157728
 30
0.0
 11
-93.97811473435707
 21
44.04286456200122
 31
0.0
  0
LINE
  5
6FB
330
1F
100
AcDbEntity
  8
外形線
100
AcDbLine
 10
-95.16408307175145
 20
55.74224157418303
 30
0.0
 11
-114.4096830717514
 21
55.74224157418303
 31
0.0
  0
LINE
  5
6FC
330
1F
100
AcDbEntity
  8
外形線
100
AcDbLine
 10
-112.7149705018519
 20
48.07388707367032
 30
0.0
 11
-113.7566041498741
 21
48.16851726227334
 31
0.0
  0
LINE
  5
6FD
330
1F
100
AcDbEntity
  8
外形線
100
AcDbLine
 10
-113.7566041498738
 20
47.58691616393409
 30
0.0
 11
-112.7149705018517
 21
48.07388707367067
 31
0.0
  0
LINE
  5
6FE
330
1F
100
AcDbEntity
  8
外形線
100
AcDbLine
 10
-95.81716199362896
 20
47.15693205179682
 30
0.0
 11
-95.81716199362896
 21
46.57533095345729
 31
0.0
  0
LINE
  5
6FF
330
1F
100
AcDbEntity
  8
外形線
100
AcDbLine
 10
-99.33310369037901
 20
47.35519209747464
 30
0.0
 11
-99.33310369037901
 21
46.77359099913529
 31
0.0
  0
LINE
  5
700
330
1F
100
AcDbEntity
  8
外形線
100
AcDbLine
 10
-113.756604149874
 20
48.16851726227404
 30
0.0
 11
-113.756604149874
 21
47.58691616393448
 31
0.0
  0
LINE
  5
701
330
1F
100
AcDbEntity
  8
外形線
100
AcDbLine
 10
-110.2406624531238
 20
47.92167963915828
 30
0.0
 11
-112.7149705018517
 21
48.0738870736709
 31
0.0
  0
LINE
  5
702
330
1F
100
AcDbEntity
  8
外形線
100
AcDbLine
 10
-113.756604149874
 20
47.58691616393377
 30
0.0
 11
-110.2406624531239
 21
47.38865611825599
 31
0.0
  0
LINE
  5
703
330
1F
100
AcDbEntity
  8
外形線
100
AcDbLine
 10
-96.85879564165112
 20
47.09849207469509
 30
0.0
 11
-95.81716199362896
 21
47.15693205179696
 31
0.0
  0
LINE
  5
704
330
1F
100
AcDbEntity
  8
外形線
100
AcDbLine
 10
-110.2406624531239
 20
47.97025721659625
 30
0.0
 11
-110.2406624531239
 21
47.3886561182566
 31
0.0
  0
LINE
  5
705
330
1F
100
AcDbEntity
  8
外形線
100
AcDbLine
 10
-96.85879564165112
 20
47.09849207469512
 30
0.0
 11
-95.81716199362892
 21
46.57533095345764
 31
0.0
  0
LINE
  5
706
330
1F
100
AcDbEntity
  8
外形線
100
AcDbLine
 10
-113.756604149874
 20
48.1685172622735
 30
0.0
 11
-110.2406624531238
 21
47.97025721659553
 31
0.0
  0
LINE
  5
707
330
1F
100
AcDbEntity
  8
外形線
100
AcDbLine
 10
-96.85879564165121
 20
47.09849207469486
 30
0.0
 11
-99.33310369037901
 21
47.25069950920754
 31
0.0
  0
LINE
  5
708
330
1F
100
AcDbEntity
  8
外形線
100
AcDbLine
 10
-99.33310369037904
 20
46.77359099913451
 30
0.0
 11
-95.81716199362899
 21
46.57533095345661
 31
0.0
  0
LINE
  5
709
330
1F
100
AcDbEntity
  8
外形線
100
AcDbLine
 10
-99.33310369037895
 20
47.35519209747403
 30
0.0
 11
-95.81716199362888
 21
47.15693205179616
 31
0.0
  0
LINE
  5
70A
330
1F
100
AcDbEntity
  8
外形線
100
AcDbLine
 10
-115.3894590717511
 20
55.15904157418265
 30
0.0
 11
-94.18430707175145
 21
55.15904157418265
 31
0.0
  0
LINE
  5
70B
330
1F
100
AcDbEntity
  8
外形線
100
AcDbLine
 10
-115.9726590717514
 20
41.162241574183
 30
0.0
 11
-104.7868830717514
 21
41.162241574183
 31
0.0
  0
LINE
  5
70C
330
1F
100
AcDbEntity
  8
外形線
100
AcDbLine
 10
-115.3894590717514
 20
55.15904157418248
 30
0.0
 11
-115.3894590717514
 21
44.90301092375901
 31
0.0
  0
LINE
  5
70D
330
1F
100
AcDbEntity
  8
破線
100
AcDbLine
 10
-115.6810590717514
 20
43.83667216242383
 30
0.0
 11
-115.6810590717514
 21
43.13333854137946
 31
0.0
  0
LINE
  5
70E
330
1F
100
AcDbEntity
  8
破線
100
AcDbLine
 10
-115.3540820595697
 20
44.28443391157734
 30
0.0
 11
-115.5956514091456
 21
44.04286456200134
 31
0.0
  0
LINE
  5
70F
330
1F
100
AcDbEntity
  8
破線
100
AcDbLine
 10
-115.6810590717514
 20
41.99050460698652
 30
0.0
 11
-115.6810590717514
 21
41.453841574183
 31
0.0
  0
LINE
  5
710
330
1F
100
AcDbEntity
  8
破線
100
AcDbLine
 10
-73.53914610455506
 20
84.13241757418303
 30
0.0
 11
-73.00248307175157
 21
84.13241757418303
 31
0.0
  0
LINE
  5
711
330
1F
100
AcDbEntity
  8
破線
100
AcDbLine
 10
-75.83307540914574
 20
83.8054405620012
 30
0.0
 11
-75.59150605956978
 21
84.04700991157719
 31
0.0
  0
LINE
  5
712
330
1F
100
AcDbEntity
  8
破線
100
AcDbLine
 10
-75.38531365999239
 20
84.13241757418303
 30
0.0
 11
-74.68198003894801
 21
84.13241757418303
 31
0.0
  0
LINE
  5
713
330
1F
100
AcDbEntity
  8
外形線
100
AcDbLine
 10
-86.70768307175098
 20
83.84081757418313
 30
0.0
 11
-76.45165242132754
 21
83.84081757418313
 31
0.0
  0
LINE
  5
714
330
1F
100
AcDbEntity
  8
外形線
100
AcDbLine
 10
-72.71088307175142
 20
84.42401757418309
 30
0.0
 11
-72.71088307175142
 21
73.23824157418299
 31
0.0
  0
LINE
  5
715
330
1F
100
AcDbEntity
  8
外形線
100
AcDbLine
 10
-86.70768307175109
 20
83.84081757418265
 30
0.0
 11
-86.70768307175109
 21
62.63566557418299
 31
0.0
  0
LINE
  5
716
330
1F
100
AcDbEntity
  8
外形線
100
AcDbLine
 10
-78.90383359504237
 20
67.78446219281057
 30
0.0
 11
-78.70557354936448
 21
64.26852049606054
 31
0.0
  0
LINE
  5
717
330
1F
100
AcDbEntity
  8
外形線
100
AcDbLine
 10
-78.32223249670295
 20
67.78446219281065
 30
0.0
 11
-78.12397245102508
 21
64.26852049606058
 31
0.0
  0
LINE
  5
718
330
1F
100
AcDbEntity
  8
外形線
100
AcDbLine
 10
-78.64713357226349
 20
65.31015414408262
 30
0.0
 11
-78.79934100677615
 21
67.78446219281049
 31
0.0
  0
LINE
  5
719
330
1F
100
AcDbEntity
  8
外形線
100
AcDbLine
 10
-79.71715875984177
 20
82.20796265230552
 30
0.0
 11
-79.51889871416398
 21
78.69202095555545
 31
0.0
  0
LINE
  5
71A
330
1F
100
AcDbEntity
  8
外形線
100
AcDbLine
 10
-78.64713357226357
 20
65.31015414408262
 30
0.0
 11
-78.12397245102608
 21
64.26852049606043
 31
0.0
  0
LINE
  5
71B
330
1F
100
AcDbEntity
  8
外形線
100
AcDbLine
 10
-79.51889871416475
 20
78.69202095555545
 30
0.0
 11
-78.93729761582513
 21
78.69202095555545
 31
0.0
  0
LINE
  5
71C
330
1F
100
AcDbEntity
  8
外形線
100
AcDbLine
 10
-78.6471335722634
 20
65.31015414408276
 30
0.0
 11
-78.70557354936528
 21
64.26852049606058
 31
0.0
  0
LINE
  5
71D
330
1F
100
AcDbEntity
  8
外形線
100
AcDbLine
 10
-79.13555766150229
 20
82.20796265230566
 30
0.0
 11
-78.93729761582441
 21
78.69202095555555
 31
0.0
  0
LINE
  5
71E
330
1F
100
AcDbEntity
  8
外形線
100
AcDbLine
 10
-79.47032113672697
 20
78.69202095555545
 30
0.0
 11
-79.6225285712396
 21
81.1663290042834
 31
0.0
  0
LINE
  5
71F
330
1F
100
AcDbEntity
  8
外形線
100
AcDbLine
 10
-79.71715875984262
 20
82.20796265230559
 30
0.0
 11
-79.13555766150299
 21
82.20796265230559
 31
0.0
  0
LINE
  5
720
330
1F
100
AcDbEntity
  8
外形線
100
AcDbLine
 10
-78.90383359504305
 20
67.78446219281065
 30
0.0
 11
-78.32223249670362
 21
67.78446219281065
 31
0.0
  0
LINE
  5
721
330
1F
100
AcDbEntity
  8
外形線
100
AcDbLine
 10
-78.70557354936514
 20
64.26852049606058
 30
0.0
 11
-78.12397245102568
 21
64.26852049606058
 31
0.0
  0
LINE
  5
722
330
1F
100
AcDbEntity
  8
外形線
100
AcDbLine
 10
-79.13555766150263
 20
82.20796265230552
 30
0.0
 11
-79.62252857123917
 21
81.16632900428333
 31
0.0
  0
LINE
  5
723
330
1F
100
AcDbEntity
  8
外形線
100
AcDbLine
 10
-79.62252857123875
 20
81.16632900428351
 30
0.0
 11
-79.71715875984177
 21
82.20796265230566
 31
0.0
  0
LINE
  5
724
330
1F
100
AcDbEntity
  8
外形線
100
AcDbLine
 10
-87.29088307175144
 20
63.61544157418302
 30
0.0
 11
-87.29088307175144
 21
82.86104157418302
 31
0.0
  0
LINE
  5
725
330
1F
100
AcDbEntity
  8
破線
100
AcDbLine
 10
-75.83307540914574
 20
62.67104258636459
 30
0.0
 11
-75.59150605956967
 21
62.42947323678857
 31
0.0
  0
LINE
  5
726
330
1F
100
AcDbEntity
  8
中心線
100
AcDbLine
 10
-104.7868830717514
 20
73.23824157418299
 30
0.0
 11
-71.00989735733398
 21
73.23824157418299
 31
0.0
  0
LINE
  5
727
330
1F
100
AcDbEntity
  8
外形線
100
AcDbLine
 10
-75.38531372217551
 20
84.424017574183
 30
0.0
 11
-74.5623078492532
 21
84.424017574183
 31
0.0
  0
LINE
  5
728
330
1F
100
AcDbEntity
  8
外形線
100
AcDbLine
 10
-72.71088307175142
 20
62.05246557418299
 30
0.0
 11
-72.71088307175142
 21
73.23824157418299
 31
0.0
  0
LINE
  5
729
330
1F
100
AcDbEntity
  8
外形線
100
AcDbLine
 10
-86.70768307175107
 20
62.63566557418299
 30
0.0
 11
-76.45165242132742
 21
62.63566557418299
 31
0.0
  0
LINE
  5
72A
330
1F
100
AcDbEntity
  8
外形線
100
AcDbLine
 10
-86.70768307175094
 20
83.84081757418313
 30
0.0
 11
-87.29088307175151
 21
82.86104157418311
 31
0.0
  0
LINE
  5
72B
330
1F
100
AcDbEntity
  8
破線
100
AcDbLine
 10
-73.53914610455491
 20
62.34406557418303
 30
0.0
 11
-73.00248307175137
 21
62.34406557418303
 31
0.0
  0
LINE
  5
72C
330
1F
100
AcDbEntity
  8
破線
100
AcDbLine
 10
-75.38531365999216
 20
62.34406557418303
 30
0.0
 11
-74.68198003894788
 21
62.34406557418303
 31
0.0
  0
LINE
  5
72D
330
1F
100
AcDbEntity
  8
破線
100
AcDbLine
 10
-86.55162348777528
 20
62.92726557418302
 30
0.0
 11
-76.45165242132737
 21
62.92726557418302
 31
0.0
  0
LINE
  5
72E
330
1F
100
AcDbEntity
  8
外形線
100
AcDbLine
 10
-75.38531372217531
 20
62.05246557418299
 30
0.0
 11
-74.56230784925302
 21
62.05246557418299
 31
0.0
  0
LINE
  5
72F
330
1F
100
AcDbEntity
  8
破線
100
AcDbLine
 10
-73.00248307175144
 20
62.34406557418303
 30
0.0
 11
-73.00248307175144
 21
62.63566557418299
 31
0.0
  0
LINE
  5
730
330
1F
100
AcDbEntity
  8
破線
100
AcDbLine
 10
-86.54190571099752
 20
83.54921757418301
 30
0.0
 11
-76.45165242132754
 21
83.54921757418301
 31
0.0
  0
LINE
  5
731
330
1F
100
AcDbEntity
  8
破線
100
AcDbLine
 10
-86.54190571099741
 20
62.92726557418315
 30
0.0
 11
-87.12510571099794
 21
63.90704157418312
 31
0.0
  0
LINE
  5
732
330
1F
100
AcDbEntity
  8
破線
100
AcDbLine
 10
-86.54190571099752
 20
83.54921757418308
 30
0.0
 11
-87.1251057109981
 21
82.56944157418308
 31
0.0
  0
LINE
  5
733
330
1F
100
AcDbEntity
  8
外形線
100
AcDbLine
 10
-88.45728307175141
 20
63.61544157418302
 30
0.0
 11
-87.29088307175047
 21
63.61544157418302
 31
0.0
  0
LINE
  5
734
330
1F
100
AcDbEntity
  8
破線
100
AcDbLine
 10
-88.45728307175141
 20
63.90704157418303
 30
0.0
 11
-87.1348234877753
 21
63.90704157418303
 31
0.0
  0
LINE
  5
735
330
1F
100
AcDbEntity
  8
外形線
100
AcDbLine
 10
-86.70768307175078
 20
62.63566557418295
 30
0.0
 11
-87.29088307175141
 21
63.61544157418297
 31
0.0
  0
LINE
  5
736
330
1F
100
AcDbEntity
  8
外形線
100
AcDbLine
 10
-73.65881829424974
 20
62.05246557418299
 30
0.0
 11
-72.71088307175128
 21
62.05246557418299
 31
0.0
  0
LINE
  5
737
330
1F
100
AcDbEntity
  8
破線
100
AcDbLine
 10
-73.00248307175137
 20
62.63566557418299
 30
0.0
 11
-72.71088307175128
 21
62.63566557418299
 31
0.0
  0
LINE
  5
738
330
1F
100
AcDbEntity
  8
外形線
100
AcDbLine
 10
-74.46048307175144
 20
73.23824157418299
 30
0.0
 11
-74.46048307175144
 21
62.11221441242011
 31
0.0
  0
LINE
  5
739
330
1F
100
AcDbEntity
  8
破線
100
AcDbLine
 10
-73.00248307175151
 20
83.84081757418313
 30
0.0
 11
-72.71088307175152
 21
83.84081757418313
 31
0.0
  0
LINE
  5
73A
330
1F
100
AcDbEntity
  8
外形線
100
AcDbLine
 10
-76.03926774653979
 20
84.01163289939509
 30
0.0
 11
-75.79769839696377
 21
84.25320224897118
 31
0.0
  0
LINE
  5
73B
330
1F
100
AcDbEntity
  8
外形線
100
AcDbLine
 10
-73.65881829424989
 20
84.424017574183
 30
0.0
 11
-72.71088307175152
 21
84.424017574183
 31
0.0
  0
LINE
  5
73C
330
1F
100
AcDbEntity
  8
外形線
100
AcDbLine
 10
-88.45728307175155
 20
82.86104157418311
 30
0.0
 11
-87.29088307175098
 21
82.86104157418311
 31
0.0
  0
LINE
  5
73D
330
1F
100
AcDbEntity
  8
破線
100
AcDbLine
 10
-88.45728307175155
 20
82.56944157418308
 30
0.0
 11
-87.1251057109981
 21
82.56944157418308
 31
0.0
  0
LINE
  5
73E
330
1F
100
AcDbEntity
  8
破線
100
AcDbLine
 10
-73.00248307175144
 20
84.13241757418303
 30
0.0
 11
-73.00248307175144
 21
83.84081757418298
 31
0.0
  0
LINE
  5
73F
330
1F
100
AcDbEntity
  8
外形線
100
AcDbLine
 10
-76.03926774653995
 20
62.46485024897072
 30
0.0
 11
-75.79769839696386
 21
62.2232808993947
 31
0.0
  0
LINE
  5
740
330
1F
100
AcDbEntity
  8
外形線
100
AcDbLine
 10
-73.76064307175147
 20
73.23824157418299
 30
0.0
 11
-73.76064307175147
 21
62.11221441242011
 31
0.0
  0
LINE
  5
741
330
1F
100
AcDbEntity
  8
外形線
100
AcDbLine
 10
-75.62688307175155
 20
73.23824157418299
 30
0.0
 11
-75.62688307175155
 21
62.10484876082325
 31
0.0
  0
LINE
  5
742
330
1F
100
AcDbEntity
  8
外形線
100
AcDbLine
 10
-76.21008307175145
 20
73.23824157418299
 30
0.0
 11
-76.21008307175145
 21
62.5832823875428
 31
0.0
  0
LINE
  5
743
330
1F
100
AcDbEntity
  8
外形線
100
AcDbLine
 10
-75.62688307175155
 20
73.23824157418299
 30
0.0
 11
-75.62688307175155
 21
84.3716343875428
 31
0.0
  0
LINE
  5
744
330
1F
100
AcDbEntity
  8
外形線
100
AcDbLine
 10
-74.46048307175144
 20
73.23824157418299
 30
0.0
 11
-74.46048307175144
 21
84.36426873594598
 31
0.0
  0
LINE
  5
745
330
1F
100
AcDbEntity
  8
外形線
100
AcDbLine
 10
-73.76064307175147
 20
73.23824157418299
 30
0.0
 11
-73.76064307175147
 21
84.36426873594598
 31
0.0
  0
LINE
  5
746
330
1F
100
AcDbEntity
  8
外形線
100
AcDbLine
 10
-76.21008307175145
 20
73.23824157418299
 30
0.0
 11
-76.21008307175145
 21
83.89320076082325
 31
0.0
  0
LINE
  5
747
330
1F
100
AcDbEntity
  8
破線
100
AcDbLine
 10
-196.7111841204353
 20
99.14479784126044
 30
0.0
 11
-196.7111841204353
 21
99.63467496683151
 31
0.0
  0
LINE
  5
748
330
1F
100
AcDbEntity
  8
破線
100
AcDbLine
 10
-196.7111841204353
 20
99.63467496683151
 30
0.0
 11
-196.9991841204353
 21
100.1335058077859
 31
0.0
  0
LINE
  5
749
330
1F
100
AcDbEntity
  8
破線
100
AcDbLine
 10
-196.9991841204353
 20
100.1335058077859
 30
0.0
 11
-196.9991841204353
 21
101.0737809333278
 31
0.0
  0
LINE
  5
74A
330
1F
100
AcDbEntity
  8
破線
100
AcDbLine
 10
-196.9991841204353
 20
98.95877917302042
 30
0.0
 11
-196.9991841204353
 21
99.14479784126044
 31
0.0
  0
LINE
  5
74B
330
1F
100
AcDbEntity
  8
外形線
100
AcDbLine
 10
-177.5591888089367
 20
100.056337288122
 30
0.0
 11
-177.5591888089367
 21
101.0737811206171
 31
0.0
  0
LINE
  5
74C
330
1F
100
AcDbEntity
  8
外形線
100
AcDbLine
 10
-179.3411820152166
 20
56.76197636549165
 30
0.0
 11
-178.8119874116986
 21
56.23278180658157
 31
0.0
  0
LINE
  5
74D
330
1F
100
AcDbEntity
  8
外形線
100
AcDbLine
 10
-197.2872005999272
 20
39.96078883976716
 30
0.0
 11
-187.4232001975959
 21
39.96078883976716
 31
0.0
  0
LINE
  5
74E
330
1F
100
AcDbEntity
  8
外形線
100
AcDbLine
 10
-197.2872005999272
 20
40.68078882903829
 30
0.0
 11
-187.4232001975959
 21
40.68078882903829
 31
0.0
  0
LINE
  5
74F
330
1F
100
AcDbEntity
  8
外形線
100
AcDbLine
 10
-197.2871868670174
 20
42.12078880758064
 30
0.0
 11
-187.423194704432
 21
42.12078880758064
 31
0.0
  0
LINE
  5
750
330
1F
100
AcDbEntity
  8
外形線
100
AcDbLine
 10
-196.3080001750654
 20
45.43278216643119
 30
0.0
 11
-196.3080001750654
 21
44.71278217716004
 31
0.0
  0
LINE
  5
751
330
1F
100
AcDbEntity
  8
外形線
100
AcDbLine
 10
-196.0344225767398
 20
56.23278951787472
 30
0.0
 11
-196.3080217073706
 21
45.43278301921239
 31
0.0
  0
LINE
  5
752
330
1F
100
AcDbEntity
  8
外形線
100
AcDbLine
 10
-196.3080056682294
 20
45.43281512541514
 30
0.0
 11
-187.4232001975959
 21
45.43281512541514
 31
0.0
  0
LINE
  5
753
330
1F
100
AcDbEntity
  8
外形線
100
AcDbLine
 10
-196.3079991861308
 20
44.71279249673353
 30
0.0
 11
-197.2871976770025
 21
42.98479616268237
 31
0.0
  0
LINE
  5
754
330
1F
100
AcDbEntity
  8
外形線
100
AcDbLine
 10
-196.3079891887374
 20
44.71281513614392
 30
0.0
 11
-187.423186464686
 21
44.71281513614392
 31
0.0
  0
LINE
  5
755
330
1F
100
AcDbEntity
  8
外形線
100
AcDbLine
 10
-197.2872005999272
 20
42.98479758376842
 30
0.0
 11
-187.423194704432
 21
42.98479758376842
 31
0.0
  0
LINE
  5
756
330
1F
100
AcDbEntity
  8
外形線
100
AcDbLine
 10
-177.5591997952645
 20
39.96078883976716
 30
0.0
 11
-187.4232001975959
 21
39.96078883976716
 31
0.0
  0
LINE
  5
757
330
1F
100
AcDbEntity
  8
外形線
100
AcDbLine
 10
-177.5591997952645
 20
40.68078882903829
 30
0.0
 11
-187.4232001975959
 21
40.68078882903829
 31
0.0
  0
LINE
  5
758
330
1F
100
AcDbEntity
  8
外形線
100
AcDbLine
 10
-177.5591860623547
 20
42.12078880758064
 30
0.0
 11
-187.423194704432
 21
42.12078880758064
 31
0.0
  0
LINE
  5
759
330
1F
100
AcDbEntity
  8
外形線
100
AcDbLine
 10
-177.5591997952645
 20
40.68077784271031
 30
0.0
 11
-177.5591997952645
 21
39.96077785343917
 31
0.0
  0
LINE
  5
75A
330
1F
100
AcDbEntity
  8
外形線
100
AcDbLine
 10
-178.5384002201265
 20
45.4327931527592
 30
0.0
 11
-178.5384002201265
 21
44.71279316348796
 31
0.0
  0
LINE
  5
75B
330
1F
100
AcDbEntity
  8
外形線
100
AcDbLine
 10
-178.8119856373426
 20
56.23278424281442
 30
0.0
 11
-178.5383848196136
 21
45.43278328181827
 31
0.0
  0
LINE
  5
75C
330
1F
100
AcDbEntity
  8
外形線
100
AcDbLine
 10
-178.8119927453465
 20
56.23281496448253
 30
0.0
 11
-196.0343939169354
 21
56.23281496448253
 31
0.0
  0
LINE
  5
75D
330
1F
100
AcDbEntity
  8
外形線
100
AcDbLine
 10
-188.8478848480951
 20
46.42619866247854
 30
0.0
 11
-189.522032169376
 21
45.51963151145949
 31
0.0
  0
LINE
  5
75E
330
1F
100
AcDbEntity
  8
外形線
100
AcDbLine
 10
-185.9810135069765
 20
46.60043660469598
 30
0.0
 11
-185.2020375145623
 21
45.78219299699219
 31
0.0
  0
LINE
  5
75F
330
1F
100
AcDbEntity
  8
外形線
100
AcDbLine
 10
-185.2020332355474
 20
45.78218579404246
 30
0.0
 11
-189.5220321347911
 21
45.51962474824577
 31
0.0
  0
LINE
  5
760
330
1F
100
AcDbEntity
  8
外形線
100
AcDbLine
 10
-189.5220600498961
 20
45.51963130657081
 30
0.0
 11
-189.5832112003888
 21
46.5257702866113
 31
0.0
  0
LINE
  5
761
330
1F
100
AcDbEntity
  8
外形線
100
AcDbLine
 10
-188.8479053118358
 20
46.42619721672156
 30
0.0
 11
-188.8566410952637
 21
46.56992979014268
 31
0.0
  0
LINE
  5
762
330
1F
100
AcDbEntity
  8
外形線
100
AcDbLine
 10
-185.9810223428354
 20
46.60042972454596
 30
0.0
 11
-185.9897587927609
 21
46.74417326405958
 31
0.0
  0
LINE
  5
763
330
1F
100
AcDbEntity
  8
外形線
100
AcDbLine
 10
-197.2871896135993
 20
40.68077784271031
 30
0.0
 11
-197.2871896135993
 21
39.96077785343917
 31
0.0
  0
LINE
  5
764
330
1F
100
AcDbEntity
  8
外形線
100
AcDbLine
 10
-197.2871896135993
 20
42.98478659744046
 30
0.0
 11
-197.2871896135993
 21
42.12077782125263
 31
0.0
  0
LINE
  5
765
330
1F
100
AcDbEntity
  8
外形線
100
AcDbLine
 10
-177.9191887177986
 20
99.43279777207278
 30
0.0
 11
-177.5591860893679
 21
100.0563408758432
 31
0.0
  0
LINE
  5
766
330
1F
100
AcDbEntity
  8
外形線
100
AcDbLine
 10
-185.2020360630928
 20
45.78221038704142
 30
0.0
 11
-185.2631868803368
 21
46.78834388403575
 31
0.0
  0
LINE
  5
767
330
1F
100
AcDbEntity
  8
外形線
100
AcDbLine
 10
-185.2631624538551
 20
46.78832610707797
 30
0.0
 11
-189.5831586115759
 21
46.52576522790559
 31
0.0
  0
LINE
  5
768
330
1F
100
AcDbEntity
  8
外形線
100
AcDbLine
 10
-185.9809998314413
 20
46.60045035429586
 30
0.0
 11
-188.8478735988116
 21
46.42620739912756
 31
0.0
  0
LINE
  5
769
330
1F
100
AcDbEntity
  8
外形線
100
AcDbLine
 10
-197.2871841204353
 20
98.71280334515327
 30
0.0
 11
-197.2871841204353
 21
99.43279784126046
 31
0.0
  0
LINE
  5
76A
330
1F
100
AcDbEntity
  8
外形線
100
AcDbLine
 10
-196.0343777397083
 20
83.16079205241292
 30
0.0
 11
-196.3079802803999
 21
93.96078953543147
 31
0.0
  0
LINE
  5
76B
330
1F
100
AcDbEntity
  8
外形線
100
AcDbLine
 10
-178.8119487084111
 20
83.16080565284972
 30
0.0
 11
-178.5383514224703
 21
93.96081082451237
 31
0.0
  0
LINE
  5
76C
330
1F
100
AcDbEntity
  8
外形線
100
AcDbLine
 10
-178.5383672611426
 20
93.96080176801438
 30
0.0
 11
-178.5383672611426
 21
94.68080175728564
 31
0.0
  0
LINE
  5
76D
330
1F
100
AcDbEntity
  8
外形線
100
AcDbLine
 10
-177.5591778226086
 20
98.71279785198931
 30
0.0
 11
-177.5591778226086
 21
99.43279784126046
 31
0.0
  0
LINE
  5
76E
330
1F
100
AcDbEntity
  8
外形線
100
AcDbLine
 10
-177.5592107815926
 20
97.27278688711905
 30
0.0
 11
-187.4232084373419
 21
97.27278688711905
 31
0.0
  0
LINE
  5
76F
330
1F
100
AcDbEntity
  8
外形線
100
AcDbLine
 10
-177.5591997952645
 20
98.71279785198931
 30
0.0
 11
-187.4232001975959
 21
98.71279785198931
 31
0.0
  0
LINE
  5
770
330
1F
100
AcDbEntity
  8
外形線
100
AcDbLine
 10
-177.5592080350105
 20
99.43279784126046
 30
0.0
 11
-187.4232084373419
 21
99.43279784126046
 31
0.0
  0
LINE
  5
771
330
1F
100
AcDbEntity
  8
外形線
100
AcDbLine
 10
-195.5051969506756
 20
82.63158006393728
 30
0.0
 11
-196.0343983516374
 21
83.16078142029073
 31
0.0
  0
LINE
  5
772
330
1F
100
AcDbEntity
  8
外形線
100
AcDbLine
 10
-195.505185245622
 20
56.76200440972204
 30
0.0
 11
-195.505185245622
 21
82.63158776446955
 31
0.0
  0
LINE
  5
773
330
1F
100
AcDbEntity
  8
外形線
100
AcDbLine
 10
-195.5052127114419
 20
82.63157677814161
 30
0.0
 11
-179.3412151495699
 21
82.63157677814161
 31
0.0
  0
LINE
  5
774
330
1F
100
AcDbEntity
  8
外形線
100
AcDbLine
 10
-179.341182190586
 20
81.17786036913958
 30
0.0
 11
-179.341182190586
 21
82.63158501788756
 31
0.0
  0
LINE
  5
775
330
1F
100
AcDbEntity
  8
外形線
100
AcDbLine
 10
-179.3411884463878
 20
82.63157419052232
 30
0.0
 11
-178.8119938874777
 21
83.1607687940402
 31
0.0
  0
LINE
  5
776
330
1F
100
AcDbEntity
  8
外形線
100
AcDbLine
 10
-179.3411972967869
 20
56.76200440972204
 30
0.0
 11
-195.505190738786
 21
56.76200440972204
 31
0.0
  0
LINE
  5
777
330
1F
100
AcDbEntity
  8
外形線
100
AcDbLine
 10
-195.5051851786577
 20
56.76199777592263
 30
0.0
 11
-196.0343797375676
 21
56.23280317240475
 31
0.0
  0
LINE
  5
778
330
1F
100
AcDbEntity
  8
外形線
100
AcDbLine
 10
-177.5591997952645
 20
42.98478659744046
 30
0.0
 11
-177.5591997952645
 21
42.12077782125263
 31
0.0
  0
LINE
  5
779
330
1F
100
AcDbEntity
  8
外形線
100
AcDbLine
 10
-177.5591997952645
 20
42.98479758376842
 30
0.0
 11
-187.423194704432
 21
42.98479758376842
 31
0.0
  0
LINE
  5
77A
330
1F
100
AcDbEntity
  8
外形線
100
AcDbLine
 10
-178.5383892337985
 20
44.71281513614392
 30
0.0
 11
-187.423186464686
 21
44.71281513614392
 31
0.0
  0
LINE
  5
77B
330
1F
100
AcDbEntity
  8
外形線
100
AcDbLine
 10
-178.5383901452813
 20
44.71278644501622
 30
0.0
 11
-177.5591912392197
 21
42.9847903462396
 31
0.0
  0
LINE
  5
77C
330
1F
100
AcDbEntity
  8
外形線
100
AcDbLine
 10
-178.5384043399995
 20
45.43281512541514
 30
0.0
 11
-187.4232001975959
 21
45.43281512541514
 31
0.0
  0
LINE
  5
77D
330
1F
100
AcDbEntity
  8
外形線
100
AcDbLine
 10
-152.647198518533
 20
65.59279285235176
 30
0.0
 11
-151.9271957826799
 21
65.59279285235176
 31
0.0
  0
LINE
  5
77E
330
1F
100
AcDbEntity
  8
外形線
100
AcDbLine
 10
-154.9512017800991
 20
65.59279285235176
 30
0.0
 11
-154.0871984970754
 21
65.59279285235176
 31
0.0
  0
LINE
  5
77F
330
1F
100
AcDbEntity
  8
外形線
100
AcDbLine
 10
-157.399178123016
 20
66.57198778404964
 30
0.0
 11
-157.399178123016
 21
75.45678776151913
 31
0.0
  0
LINE
  5
780
330
1F
100
AcDbEntity
  8
外形線
100
AcDbLine
 10
-188.8653714846843
 20
92.79313827525184
 30
0.0
 11
-185.9984991172316
 21
92.96738162681965
 31
0.0
  0
LINE
  5
781
330
1F
100
AcDbEntity
  8
外形線
100
AcDbLine
 10
-197.2871841204353
 20
100.056337288122
 30
0.0
 11
-197.2871841204353
 21
101.0737811206171
 31
0.0
  0
LINE
  5
782
330
1F
100
AcDbEntity
  8
外形線
100
AcDbLine
 10
-196.0344076498454
 20
83.16077720970907
 30
0.0
 11
-178.8120037316744
 21
83.16077720970907
 31
0.0
  0
LINE
  5
783
330
1F
100
AcDbEntity
  8
外形線
100
AcDbLine
 10
-189.6443659659783
 20
93.61140652195921
 30
0.0
 11
-185.3243684814301
 21
93.87396820730591
 31
0.0
  0
LINE
  5
784
330
1F
100
AcDbEntity
  8
外形線
100
AcDbLine
 10
-156.6791781337449
 20
66.57198778404964
 30
0.0
 11
-156.6791781337449
 21
75.45678776151913
 31
0.0
  0
LINE
  5
785
330
1F
100
AcDbEntity
  8
外形線
100
AcDbLine
 10
-154.9512045266812
 20
65.59278735918784
 30
0.0
 11
-154.9512045266812
 21
75.45678776151913
 31
0.0
  0
LINE
  5
786
330
1F
100
AcDbEntity
  8
外形線
100
AcDbLine
 10
-151.9271957826799
 20
85.32078816385045
 30
0.0
 11
-151.9271957826799
 21
75.45678776151913
 31
0.0
  0
LINE
  5
787
330
1F
100
AcDbEntity
  8
外形線
100
AcDbLine
 10
-152.6471957719511
 20
85.32078816385045
 30
0.0
 11
-152.6471957719511
 21
75.45678776151913
 31
0.0
  0
LINE
  5
788
330
1F
100
AcDbEntity
  8
外形線
100
AcDbLine
 10
-154.0871957504934
 20
85.32078816385045
 30
0.0
 11
-154.0871957504934
 21
75.45678776151913
 31
0.0
  0
LINE
  5
789
330
1F
100
AcDbEntity
  8
外形線
100
AcDbLine
 10
-152.647198518533
 20
85.3207826706865
 30
0.0
 11
-151.9271957826799
 21
85.3207826706865
 31
0.0
  0
LINE
  5
78A
330
1F
100
AcDbEntity
  8
外形線
100
AcDbLine
 10
-157.3992000956719
 20
84.34158773898856
 30
0.0
 11
-156.6792001064008
 21
84.34158773898856
 31
0.0
  0
LINE
  5
78B
330
1F
100
AcDbEntity
  8
外形線
100
AcDbLine
 10
-168.1991904607905
 20
84.067994117751
 30
0.0
 11
-157.3991908487004
 21
84.34159395552564
 31
0.0
  0
LINE
  5
78C
330
1F
100
AcDbEntity
  8
外形線
100
AcDbLine
 10
-168.1991889484114
 20
84.0679869740226
 30
0.0
 11
-168.1991889484114
 21
66.8455858024337
 31
0.0
  0
LINE
  5
78D
330
1F
100
AcDbEntity
  8
外形線
100
AcDbLine
 10
-196.3080056682294
 20
93.96078116864954
 30
0.0
 11
-187.4232084373419
 21
93.96078116864954
 31
0.0
  0
LINE
  5
78E
330
1F
100
AcDbEntity
  8
外形線
100
AcDbLine
 10
-196.3079820404608
 20
94.68078850010284
 30
0.0
 11
-197.2871812213243
 21
96.40878444315823
 31
0.0
  0
LINE
  5
78F
330
1F
100
AcDbEntity
  8
外形線
100
AcDbLine
 10
-197.2872088396733
 20
99.43279784126046
 30
0.0
 11
-187.4232084373419
 21
99.43279784126046
 31
0.0
  0
LINE
  5
790
330
1F
100
AcDbEntity
  8
外形線
100
AcDbLine
 10
-197.2872088396733
 20
98.71279785198931
 30
0.0
 11
-187.4232001975959
 21
98.71279785198931
 31
0.0
  0
LINE
  5
791
330
1F
100
AcDbEntity
  8
外形線
100
AcDbLine
 10
-189.5832187138644
 20
92.60524391595531
 30
0.0
 11
-185.2632143755085
 21
92.86780601786407
 31
0.0
  0
LINE
  5
792
330
1F
100
AcDbEntity
  8
外形線
100
AcDbLine
 10
-196.9271840766552
 20
99.43279784126005
 30
0.0
 11
-197.2871853317952
 21
100.0563385664203
 31
0.0
  0
LINE
  5
793
330
1F
100
AcDbEntity
  8
外形線
100
AcDbLine
 10
-196.3080111613933
 20
94.68078115792057
 30
0.0
 11
-187.4232166770879
 21
94.68078115792057
 31
0.0
  0
LINE
  5
794
330
1F
100
AcDbEntity
  8
中心線
100
AcDbLine
 10
-200.6820363647699
 20
75.4567795217732
 30
0.0
 11
-149.8080217749039
 21
75.4567795217732
 31
0.0
  0
LINE
  5
795
330
1F
100
AcDbEntity
  8
外形線
100
AcDbLine
 10
-158.392604778246
 20
74.03208936030779
 30
0.0
 11
-157.4860377074265
 21
73.35794193117772
 31
0.0
  0
LINE
  5
796
330
1F
100
AcDbEntity
  8
外形線
100
AcDbLine
 10
-158.5668454897545
 20
76.89896143779162
 30
0.0
 11
-157.7485998271348
 21
77.67793925506111
 31
0.0
  0
LINE
  5
797
330
1F
100
AcDbEntity
  8
外形線
100
AcDbLine
 10
-157.7486089479858
 20
77.67794033911035
 30
0.0
 11
-157.4860481002636
 21
73.35793859018861
 31
0.0
  0
LINE
  5
798
330
1F
100
AcDbEntity
  8
外形線
100
AcDbLine
 10
-157.4860374596085
 20
73.3579446112227
 30
0.0
 11
-158.4921791864083
 21
73.29679338025773
 31
0.0
  0
LINE
  5
799
330
1F
100
AcDbEntity
  8
外形線
100
AcDbLine
 10
-158.392597309589
 20
74.03209121431577
 30
0.0
 11
-158.5363326252811
 21
74.02335527657107
 31
0.0
  0
LINE
  5
79A
330
1F
100
AcDbEntity
  8
外形線
100
AcDbLine
 10
-197.2872088396733
 20
96.40878909725916
 30
0.0
 11
-187.4232166770879
 21
96.40878909725916
 31
0.0
  0
LINE
  5
79B
330
1F
100
AcDbEntity
  8
外形線
100
AcDbLine
 10
-178.5383854523474
 20
94.68079416079376
 30
0.0
 11
-177.5591872422517
 21
96.40879065395123
 31
0.0
  0
LINE
  5
79C
330
1F
100
AcDbEntity
  8
外形線
100
AcDbLine
 10
-178.5384043399995
 20
93.96078116864954
 30
0.0
 11
-187.4232084373419
 21
93.96078116864954
 31
0.0
  0
LINE
  5
79D
330
1F
100
AcDbEntity
  8
外形線
100
AcDbLine
 10
-197.2871841204353
 20
96.40879459042313
 30
0.0
 11
-197.2871841204353
 21
97.27280336661095
 31
0.0
  0
LINE
  5
79E
330
1F
100
AcDbEntity
  8
外形線
100
AcDbLine
 10
-156.6791781337449
 20
84.34158773898856
 30
0.0
 11
-156.6791781337449
 21
75.45678776151913
 31
0.0
  0
LINE
  5
79F
330
1F
100
AcDbEntity
  8
外形線
100
AcDbLine
 10
-189.6443559226979
 20
93.61136860926761
 30
0.0
 11
-189.5832051037233
 21
92.60523786402883
 31
0.0
  0
LINE
  5
7A0
330
1F
100
AcDbEntity
  8
外形線
100
AcDbLine
 10
-188.8653634245702
 20
92.79313654307818
 30
0.0
 11
-189.6443395548882
 21
93.61138001949615
 31
0.0
  0
LINE
  5
7A1
330
1F
100
AcDbEntity
  8
外形線
100
AcDbLine
 10
-185.9984894776173
 20
92.96737792117673
 30
0.0
 11
-185.3243406797181
 21
93.87394739689616
 31
0.0
  0
LINE
  5
7A2
330
1F
100
AcDbEntity
  8
外形線
100
AcDbLine
 10
-188.8653609244462
 20
92.79314579620915
 30
0.0
 11
-188.8566244504683
 21
92.64940225815747
 31
0.0
  0
LINE
  5
7A3
330
1F
100
AcDbEntity
  8
外形線
100
AcDbLine
 10
-154.0871957504934
 20
65.59278735918784
 30
0.0
 11
-154.0871957504934
 21
75.45678776151913
 31
0.0
  0
LINE
  5
7A4
330
1F
100
AcDbEntity
  8
外形線
100
AcDbLine
 10
-157.3992000956719
 20
66.57199327721364
 30
0.0
 11
-156.6792001064008
 21
66.57199327721364
 31
0.0
  0
LINE
  5
7A5
330
1F
100
AcDbEntity
  8
外形線
100
AcDbLine
 10
-152.6471957719511
 20
65.59278735918784
 30
0.0
 11
-152.6471957719511
 21
75.45678776151913
 31
0.0
  0
LINE
  5
7A6
330
1F
100
AcDbEntity
  8
外形線
100
AcDbLine
 10
-168.7283893799789
 20
83.53878654245518
 30
0.0
 11
-168.7283893799789
 21
67.37478623400114
 31
0.0
  0
LINE
  5
7A7
330
1F
100
AcDbEntity
  8
外形線
100
AcDbLine
 10
-168.728393161581
 20
83.53879678674317
 30
0.0
 11
-168.1991956448729
 21
84.06799425884328
 31
0.0
  0
LINE
  5
7A8
330
1F
100
AcDbEntity
  8
外形線
100
AcDbLine
 10
-168.7283910211237
 20
67.37477602268336
 30
0.0
 11
-168.199194475479
 21
66.84557952164664
 31
0.0
  0
LINE
  5
7A9
330
1F
100
AcDbEntity
  8
外形線
100
AcDbLine
 10
-157.399178123016
 20
84.34158773898856
 30
0.0
 11
-157.399178123016
 21
75.45678776151913
 31
0.0
  0
LINE
  5
7AA
330
1F
100
AcDbEntity
  8
外形線
100
AcDbLine
 10
-158.5668341938707
 20
76.89895969688071
 30
0.0
 11
-158.3925914867857
 21
74.03208595742694
 31
0.0
  0
LINE
  5
7AB
330
1F
100
AcDbEntity
  8
外形線
100
AcDbLine
 10
-154.9512017800991
 20
85.3207826706865
 30
0.0
 11
-154.0871984970754
 21
85.3207826706865
 31
0.0
  0
LINE
  5
7AC
330
1F
100
AcDbEntity
  8
外形線
100
AcDbLine
 10
-178.5384112064544
 20
94.68078115792057
 30
0.0
 11
-187.4232166770879
 21
94.68078115792057
 31
0.0
  0
LINE
  5
7AD
330
1F
100
AcDbEntity
  8
外形線
100
AcDbLine
 10
-185.9984776157713
 20
92.96738155781396
 30
0.0
 11
-185.9897415583555
 21
92.82364487356998
 31
0.0
  0
LINE
  5
7AE
330
1F
100
AcDbEntity
  8
外形線
100
AcDbLine
 10
-151.9271957826799
 20
65.59278735918784
 30
0.0
 11
-151.9271957826799
 21
75.45678776151913
 31
0.0
  0
LINE
  5
7AF
330
1F
100
AcDbEntity
  8
中心線
100
AcDbLine
 10
-187.423186464686
 20
106.1830806386227
 30
0.0
 11
-187.423186464686
 21
36.9902171611958
 31
0.0
  0
LINE
  5
7B0
330
1F
100
AcDbEntity
  8
外形線
100
AcDbLine
 10
-156.679194598283
 20
66.57199008732312
 30
0.0
 11
-154.9511960049771
 21
65.59279001235381
 31
0.0
  0
LINE
  5
7B1
330
1F
100
AcDbEntity
  8
外形線
100
AcDbLine
 10
-177.5591997952645
 20
96.40878909725916
 30
0.0
 11
-187.4232166770879
 21
96.40878909725916
 31
0.0
  0
LINE
  5
7B2
330
1F
100
AcDbEntity
  8
外形線
100
AcDbLine
 10
-158.5668511220537
 20
76.89896657901481
 30
0.0
 11
-158.7105864377461
 21
76.8902306412701
 31
0.0
  0
LINE
  5
7B3
330
1F
100
AcDbEntity
  8
外形線
100
AcDbLine
 10
-157.7485901114001
 20
77.67794733121608
 30
0.0
 11
-158.7547290966767
 21
77.61679626687524
 31
0.0
  0
LINE
  5
7B4
330
1F
100
AcDbEntity
  8
外形線
100
AcDbLine
 10
-158.7547369671698
 20
77.61678994126611
 30
0.0
 11
-158.492176116844
 21
73.29678814950812
 31
0.0
  0
LINE
  5
7B5
330
1F
100
AcDbEntity
  8
外形線
100
AcDbLine
 10
-154.9512045266812
 20
85.32078816385045
 30
0.0
 11
-154.9512045266812
 21
75.45678776151913
 31
0.0
  0
LINE
  5
7B6
330
1F
100
AcDbEntity
  8
外形線
100
AcDbLine
 10
-177.5591778226086
 20
96.40878909725916
 30
0.0
 11
-177.5591778226086
 21
97.272797873447
 31
0.0
  0
LINE
  5
7B7
330
1F
100
AcDbEntity
  8
破線
100
AcDbLine
 10
-196.9991841204353
 20
96.48471796718641
 30
0.0
 11
-196.9991841204353
 21
97.02681655241587
 31
0.0
  0
LINE
  5
7B8
330
1F
100
AcDbEntity
  8
外形線
100
AcDbLine
 10
-156.6791829734569
 20
84.34158766301743
 30
0.0
 11
-154.9511843801511
 21
85.32078773798673
 31
0.0
  0
LINE
  5
7B9
330
1F
100
AcDbEntity
  8
外形線
100
AcDbLine
 10
-196.3079836955733
 20
93.96079078168645
 30
0.0
 11
-196.3079836955733
 21
94.68079077095758
 31
0.0
  0
LINE
  5
7BA
330
1F
100
AcDbEntity
  8
外形線
100
AcDbLine
 10
-168.1992076667218
 20
66.84558972897545
 30
0.0
 11
-157.3992066817809
 21
66.57198985642195
 31
0.0
  0
LINE
  5
7BB
330
1F
100
AcDbEntity
  8
外形線
100
AcDbLine
 10
-197.2872170794192
 20
97.27278688711905
 30
0.0
 11
-187.4232084373419
 21
97.27278688711905
 31
0.0
  0
LINE
  5
7BC
330
1F
100
AcDbEntity
  8
外形線
100
AcDbLine
 10
-185.3243237006257
 20
93.87395579492581
 30
0.0
 11
-185.2631723817764
 21
92.86781682511769
 31
0.0
  0
LINE
  5
7BD
330
1F
100
AcDbEntity
  8
破線
100
AcDbLine
 10
-196.0199836955733
 20
94.75671982884284
 30
0.0
 11
-196.9991841204352
 21
96.48471796718631
 31
0.0
  0
LINE
  5
7BE
330
1F
100
AcDbEntity
  8
破線
100
AcDbLine
 10
-196.0199836955734
 20
93.96457179322698
 30
0.0
 11
-196.0199836955734
 21
94.75671982884284
 31
0.0
  0
LINE
  5
7BF
330
1F
100
AcDbEntity
  8
破線
100
AcDbLine
 10
-195.7493828053971
 20
83.28305938687273
 30
0.0
 11
-196.0199836955734
 21
93.96457179322698
 31
0.0
  0
LINE
  5
7C0
330
1F
100
AcDbEntity
  8
破線
100
AcDbLine
 10
-195.2171852456219
 20
82.75086187195849
 30
0.0
 11
-195.7493828053971
 21
83.28305938687273
 31
0.0
  0
LINE
  5
7C1
330
1F
100
AcDbEntity
  8
破線
100
AcDbLine
 10
-195.2171852456219
 20
56.64270421010539
 30
0.0
 11
-195.2171852456219
 21
82.75086187195853
 31
0.0
  0
LINE
  5
7C2
330
1F
100
AcDbEntity
  8
破線
100
AcDbLine
 10
-195.2171852456219
 20
56.64270421010539
 30
0.0
 11
-195.7494291729755
 21
56.11046023788706
 31
0.0
  0
LINE
  5
7C3
330
1F
100
AcDbEntity
  8
破線
100
AcDbLine
 10
-195.7494291729755
 20
56.11046023788698
 30
0.0
 11
-196.0200001750654
 21
45.42998558074031
 31
0.0
  0
LINE
  5
7C4
330
1F
100
AcDbEntity
  8
破線
100
AcDbLine
 10
-196.0200001750654
 20
45.42998558074038
 30
0.0
 11
-196.0200001750654
 21
44.63686240509422
 31
0.0
  0
LINE
  5
7C5
330
1F
100
AcDbEntity
  8
破線
100
AcDbLine
 10
-196.0200001750654
 20
44.63686240509422
 30
0.0
 11
-196.9991896135993
 21
42.90888204574753
 31
0.0
  0
LINE
  5
7C6
330
1F
100
AcDbEntity
  8
破線
100
AcDbLine
 10
-196.9991896135993
 20
42.90888204574753
 30
0.0
 11
-196.9991896135993
 21
42.36677176633995
 31
0.0
  0
LINE
  5
7C7
330
1F
100
AcDbEntity
  8
破線
100
AcDbLine
 10
-196.9991896135993
 20
40.43480587027898
 30
0.0
 11
-196.9991896135993
 21
39.96077785343917
 31
0.0
  0
LINE
  5
7C8
330
1F
100
AcDbEntity
  8
破線
100
AcDbLine
 10
-177.8471997952646
 20
40.4348075080072
 30
0.0
 11
-177.8471997952646
 21
39.96077785343917
 31
0.0
  0
LINE
  5
7C9
330
1F
100
AcDbEntity
  8
破線
100
AcDbLine
 10
-177.8471997952646
 20
42.90887706165952
 30
0.0
 11
-177.8471997952646
 21
42.36677012861181
 31
0.0
  0
LINE
  5
7CA
330
1F
100
AcDbEntity
  8
破線
100
AcDbLine
 10
-178.8264002201264
 20
44.63687584066891
 30
0.0
 11
-177.8471997952646
 21
42.90887706165945
 31
0.0
  0
LINE
  5
7CB
330
1F
100
AcDbEntity
  8
破線
100
AcDbLine
 10
-178.8264002201264
 20
45.42974376957771
 30
0.0
 11
-178.8264002201264
 21
44.63687584066891
 31
0.0
  0
LINE
  5
7CC
330
1F
100
AcDbEntity
  8
破線
100
AcDbLine
 10
-179.0969796699028
 20
56.11048055196516
 30
0.0
 11
-178.8264002201264
 21
45.42974376957768
 31
0.0
  0
LINE
  5
7CD
330
1F
100
AcDbEntity
  8
破線
100
AcDbLine
 10
-196.9991841204353
 20
99.14479784126044
 30
0.0
 11
-196.7111841204353
 21
99.14479784126044
 31
0.0
  0
LINE
  5
7CE
330
1F
100
AcDbEntity
  8
破線
100
AcDbLine
 10
-179.6445745986537
 20
56.65807543455739
 30
0.0
 11
-179.0969796699028
 21
56.11048055196516
 31
0.0
  0
LINE
  5
7CF
330
1F
100
AcDbEntity
  8
破線
100
AcDbLine
 10
-178.1351778226087
 20
99.14479784126044
 30
0.0
 11
-178.1351778226087
 21
99.63469369284503
 31
0.0
  0
LINE
  5
7D0
330
1F
100
AcDbEntity
  8
破線
100
AcDbLine
 10
-177.8471888089366
 20
100.1335055049132
 30
0.0
 11
-177.8471888089366
 21
101.0737811206171
 31
0.0
  0
LINE
  5
7D1
330
1F
100
AcDbEntity
  8
破線
100
AcDbLine
 10
-177.8471778226086
 20
99.14479784126044
 30
0.0
 11
-178.1351778226086
 21
99.14479784126044
 31
0.0
  0
LINE
  5
7D2
330
1F
100
AcDbEntity
  8
破線
100
AcDbLine
 10
-177.8471778226086
 20
98.95879671005694
 30
0.0
 11
-177.8471778226086
 21
99.14479784126044
 31
0.0
  0
LINE
  5
7D3
330
1F
100
AcDbEntity
  8
破線
100
AcDbLine
 10
-178.1351778226087
 20
99.63469369284503
 30
0.0
 11
-177.8471888089367
 21
100.1335055049132
 31
0.0
  0
LINE
  5
7D4
330
1F
100
AcDbEntity
  8
破線
100
AcDbLine
 10
-157.3957888256011
 20
84.05358773898853
 30
0.0
 11
-156.60325447243
 21
84.05358773898853
 31
0.0
  0
LINE
  5
7D5
330
1F
100
AcDbEntity
  8
破線
100
AcDbLine
 10
-156.60325447243
 20
84.05358773898853
 30
0.0
 11
-154.8752649554772
 21
85.03278267068651
 31
0.0
  0
LINE
  5
7D6
330
1F
100
AcDbEntity
  8
破線
100
AcDbLine
 10
-178.8263672611425
 20
93.96383298422859
 30
0.0
 11
-178.8263672611425
 21
94.7567545843508
 31
0.0
  0
LINE
  5
7D7
330
1F
100
AcDbEntity
  8
破線
100
AcDbLine
 10
-177.8471778226086
 20
96.48473559828468
 30
0.0
 11
-177.8471778226086
 21
97.02682098803521
 31
0.0
  0
LINE
  5
7D8
330
1F
100
AcDbEntity
  8
破線
100
AcDbLine
 10
-154.8752649554773
 20
85.03278267068651
 30
0.0
 11
-154.3331770715246
 21
85.03278267068651
 31
0.0
  0
LINE
  5
7D9
330
1F
100
AcDbEntity
  8
破線
100
AcDbLine
 10
-178.8263672611425
 20
94.75675458435075
 30
0.0
 11
-177.8471778226086
 21
96.4847355982846
 31
0.0
  0
LINE
  5
7DA
330
1F
100
AcDbEntity
  8
破線
100
AcDbLine
 10
-179.0969426742645
 20
83.28311350636367
 30
0.0
 11
-178.8263672611425
 21
93.96383298422859
 31
0.0
  0
LINE
  5
7DB
330
1F
100
AcDbEntity
  8
破線
100
AcDbLine
 10
-154.8752726497733
 20
65.88079285235176
 30
0.0
 11
-154.3331770715246
 21
65.88079285235176
 31
0.0
  0
LINE
  5
7DC
330
1F
100
AcDbEntity
  8
破線
100
AcDbLine
 10
-168.6244884851081
 20
67.6781669842234
 30
0.0
 11
-168.0769052588358
 21
67.13058380410896
 31
0.0
  0
LINE
  5
7DD
330
1F
100
AcDbEntity
  8
破線
100
AcDbLine
 10
-168.7381855515056
 20
83.12171090884667
 30
0.0
 11
-168.0768965779604
 21
83.78299982664946
 31
0.0
  0
LINE
  5
7DE
330
1F
100
AcDbEntity
  8
破線
100
AcDbLine
 10
-179.629182190586
 20
82.75087394517761
 30
0.0
 11
-179.0969426742645
 21
83.28311350636367
 31
0.0
  0
LINE
  5
7DF
330
1F
100
AcDbEntity
  8
破線
100
AcDbLine
 10
-179.629182190586
 20
81.17786586230355
 30
0.0
 11
-179.629182190586
 21
82.75087394517766
 31
0.0
  0
LINE
  5
7E0
330
1F
100
AcDbEntity
  8
破線
100
AcDbLine
 10
-168.0768965779604
 20
83.78299982664946
 30
0.0
 11
-157.3957888256011
 21
84.05358773898853
 31
0.0
  0
LINE
  5
7E1
330
1F
100
AcDbEntity
  8
破線
100
AcDbLine
 10
-156.6032718605363
 20
66.8599932772137
 30
0.0
 11
-154.8752726497733
 21
65.88079285235176
 31
0.0
  0
LINE
  5
7E2
330
1F
100
AcDbEntity
  8
破線
100
AcDbLine
 10
-168.0769052588358
 20
67.13058380410896
 30
0.0
 11
-157.3956943002523
 21
66.85999327721365
 31
0.0
  0
LINE
  5
7E3
330
1F
100
AcDbEntity
  8
破線
100
AcDbLine
 10
-152.40121445092
 20
85.03278267068651
 30
0.0
 11
-151.9271957826799
 21
85.03278267068651
 31
0.0
  0
LINE
  5
7E4
330
1F
100
AcDbEntity
  8
破線
100
AcDbLine
 10
-157.3956943002523
 20
66.85999327721365
 30
0.0
 11
-156.6032718605361
 21
66.85999327721365
 31
0.0
  0
LINE
  5
7E5
330
1F
100
AcDbEntity
  8
破線
100
AcDbLine
 10
-152.40121445092
 20
65.88079285235176
 30
0.0
 11
-151.9271957826799
 21
65.88079285235176
 31
0.0
  0
ARC
  5
7E6
330
1F
100
AcDbEntity
  8
外形線
100
AcDbCircle
 10
-5.103724220960188
 20
66.83124783697772
 30
0.0
 40
31.62240000000001
100
AcDbArc
 50
135.0
 51
180.0
  0
ARC
  5
7E7
330
1F
100
AcDbEntity
  8
中心線
100
AcDbCircle
 10
-5.103724220960188
 20
66.83124783697772
 30
0.0
 40
17.496
100
AcDbArc
 50
90.0
 51
180.0
  0
ARC
  5
7E8
330
1F
100
AcDbEntity
  8
外形線
100
AcDbCircle
 10
18.87227577903997
 20
101.9204478369779
 30
0.0
 40
0.6480000000000004
100
AcDbArc
 50
189.5940682268616
 51
350.4059317731384
  0
ARC
  5
7E9
330
1F
100
AcDbEntity
  8
外形線
100
AcDbCircle
 10
19.63899971892961
 20
101.7908478369779
 30
0.0
 40
0.1296
100
AcDbArc
 50
90.0
 51
170.4059317731384
  0
ARC
  5
7EA
330
1F
100
AcDbEntity
  8
外形線
100
AcDbCircle
 10
18.10555183915025
 20
101.7908478369778
 30
0.0
 40
0.1296
100
AcDbArc
 50
9.594068226861596
 51
90.0
  0
ARC
  5
7EB
330
1F
100
AcDbEntity
  8
破線
100
AcDbCircle
 10
-5.103724220960129
 20
66.83124783697778
 30
0.0
 40
31.104
100
AcDbArc
 50
90.0
 51
135.0
  0
ARC
  5
7EC
330
1F
100
AcDbEntity
  8
外形線
100
AcDbCircle
 10
-5.136124220960283
 20
42.08852389708797
 30
0.0
 40
0.1296
100
AcDbArc
 50
0.0
 51
80.40593177313841
  0
ARC
  5
7ED
330
1F
100
AcDbEntity
  8
外形線
100
AcDbCircle
 10
18.87227577903997
 20
66.73404783697775
 30
0.0
 40
0.6480000000000004
100
AcDbArc
 50
9.594068226861596
 51
170.4059317731384
  0
ARC
  5
7EE
330
1F
100
AcDbEntity
  8
破線
100
AcDbCircle
 10
18.87227577903997
 20
101.9204478369779
 30
0.0
 40
1.1664
100
AcDbArc
 50
206.3877999612441
 51
333.6122000387559
  0
ARC
  5
7EF
330
1F
100
AcDbEntity
  8
破線
100
AcDbCircle
 10
-40.19292422096028
 20
42.8552478369776
 30
0.0
 40
1.1664
100
AcDbArc
 50
296.3877999612419
 51
63.61220003875806
  0
ARC
  5
7F0
330
1F
100
AcDbEntity
  8
外形線
100
AcDbCircle
 10
-5.00652422096023
 20
42.8552478369776
 30
0.0
 40
0.6480000000000004
100
AcDbArc
 50
99.59406822685998
 51
260.40593177314
  0
ARC
  5
7F1
330
1F
100
AcDbEntity
  8
外形線
100
AcDbCircle
 10
-40.06332422096021
 20
43.62197177686735
 30
0.0
 40
0.1296
100
AcDbArc
 50
180.0
 51
260.4059317731384
  0
ARC
  5
7F2
330
1F
100
AcDbEntity
  8
外形線
100
AcDbCircle
 10
-40.06332422096028
 20
42.08852389708797
 30
0.0
 40
0.1296
100
AcDbArc
 50
99.59406822686155
 51
180.0
  0
ARC
  5
7F3
330
1F
100
AcDbEntity
  8
外形線
100
AcDbCircle
 10
-40.19292422096028
 20
42.8552478369776
 30
0.0
 40
0.6480000000000004
100
AcDbArc
 50
279.59406822686
 51
80.40593177314002
  0
ARC
  5
7F4
330
1F
100
AcDbEntity
  8
外形線
100
AcDbCircle
 10
-5.136124220960283
 20
43.62197177686735
 30
0.0
 40
0.1296
100
AcDbArc
 50
279.5940682268616
 51
0.0
  0
ARC
  5
7F5
330
1F
100
AcDbEntity
  8
外形線
100
AcDbCircle
 10
-5.103724220960129
 20
66.83124783697778
 30
0.0
 40
3.3696
100
AcDbArc
 50
90.0
 51
135.0
  0
ARC
  5
7F6
330
1F
100
AcDbEntity
  8
外形線
100
AcDbCircle
 10
19.63899971892961
 20
66.86364783697785
 30
0.0
 40
0.1296
100
AcDbArc
 50
189.5940682268616
 51
270.0
  0
ARC
  5
7F7
330
1F
100
AcDbEntity
  8
破線
100
AcDbCircle
 10
-5.00652422096023
 20
42.8552478369776
 30
0.0
 40
1.1664
100
AcDbArc
 50
116.3877999612419
 51
243.612200038758
  0
ARC
  5
7F8
330
1F
100
AcDbEntity
  8
破線
100
AcDbCircle
 10
-5.103724220960188
 20
66.83124783697772
 30
0.0
 40
3.887999999999999
100
AcDbArc
 50
135.0
 51
180.0
  0
ARC
  5
7F9
330
1F
100
AcDbEntity
  8
外形線
100
AcDbCircle
 10
-4.571814494060063
 20
99.2312478369778
 30
0.0
 40
0.3888000000000002
100
AcDbArc
 50
90.0
 51
169.9999999999981
  0
ARC
  5
7FA
330
1F
100
AcDbEntity
  8
破線
100
AcDbCircle
 10
-5.103724220960129
 20
66.83124783697778
 30
0.0
 40
3.887999999999999
100
AcDbArc
 50
90.0
 51
135.0
  0
ARC
  5
7FB
330
1F
100
AcDbEntity
  8
破線
100
AcDbCircle
 10
18.87227577903997
 20
66.73404783697775
 30
0.0
 40
1.1664
100
AcDbArc
 50
26.38779996124414
 51
153.6122000387558
  0
ARC
  5
7FC
330
1F
100
AcDbEntity
  8
外形線
100
AcDbCircle
 10
-5.103724220960188
 20
66.83124783697772
 30
0.0
 40
3.3696
100
AcDbArc
 50
135.0
 51
180.0
  0
ARC
  5
7FD
330
1F
100
AcDbEntity
  8
破線
100
AcDbCircle
 10
-5.103724220960188
 20
66.83124783697772
 30
0.0
 40
31.104
100
AcDbArc
 50
135.0
 51
180.0
  0
ARC
  5
7FE
330
1F
100
AcDbEntity
  8
外形線
100
AcDbCircle
 10
-5.103724220960129
 20
66.83124783697778
 30
0.0
 40
31.62240000000001
100
AcDbArc
 50
90.0
 51
135.0
  0
ARC
  5
7FF
330
1F
100
AcDbEntity
  8
外形線
100
AcDbCircle
 10
18.10555183915025
 20
66.86364783697785
 30
0.0
 40
0.1296
100
AcDbArc
 50
270.0
 51
350.4059317731384
  0
ARC
  5
800
330
1F
100
AcDbEntity
  8
破線
100
AcDbCircle
 10
-0.3336927291265681
 20
100.6568478369779
 30
0.0
 40
1.555199999999999
100
AcDbArc
 50
270.0
 51
313.5311992856153
  0
ARC
  5
801
330
1F
100
AcDbEntity
  8
外形線
100
AcDbCircle
 10
-0.3336927291265681
 20
100.6568478369779
 30
0.0
 40
1.036799999999999
100
AcDbArc
 50
270.0
 51
313.5311992856153
  0
ARC
  5
802
330
1F
100
AcDbEntity
  8
外形線
100
AcDbCircle
 10
-0.3336927291260565
 20
67.99764783697785
 30
0.0
 40
1.036799999999999
100
AcDbArc
 50
46.46880071438475
 51
90.0
  0
ARC
  5
803
330
1F
100
AcDbEntity
  8
外形線
100
AcDbCircle
 10
-4.571814494060063
 20
69.42324783697785
 30
0.0
 40
0.3888000000000002
100
AcDbArc
 50
190.0000000000018
 51
270.0
  0
ARC
  5
804
330
1F
100
AcDbEntity
  8
破線
100
AcDbCircle
 10
-0.3336927291260565
 20
67.99764783697785
 30
0.0
 40
1.555199999999999
100
AcDbArc
 50
46.46880071438475
 51
90.0
  0
ARC
  5
805
330
1F
100
AcDbEntity
  8
外形線
100
AcDbCircle
 10
-37.50372422096008
 20
66.29933811007757
 30
0.0
 40
0.3888000000000002
100
AcDbArc
 50
100.0000000000002
 51
180.0
  0
ARC
  5
806
330
1F
100
AcDbEntity
  8
外形線
100
AcDbCircle
 10
-7.695724220960072
 20
66.29933811007757
 30
0.0
 40
0.3888000000000002
100
AcDbArc
 50
0.0
 51
79.9999999999998
  0
ARC
  5
807
330
1F
100
AcDbEntity
  8
破線
100
AcDbCircle
 10
-38.92932422096004
 20
62.06121634514359
 30
0.0
 40
1.555199999999999
100
AcDbArc
 50
316.4688007143847
 51
0.0
  0
ARC
  5
808
330
1F
100
AcDbEntity
  8
外形線
100
AcDbCircle
 10
-6.270124220960067
 20
62.06121634514419
 30
0.0
 40
1.036799999999999
100
AcDbArc
 50
180.0
 51
223.5311992856152
  0
ARC
  5
809
330
1F
100
AcDbEntity
  8
破線
100
AcDbCircle
 10
-6.270124220960067
 20
62.06121634514419
 30
0.0
 40
1.555199999999999
100
AcDbArc
 50
180.0
 51
223.5311992856152
  0
ARC
  5
80A
330
1F
100
AcDbEntity
  8
外形線
100
AcDbCircle
 10
-38.92932422096004
 20
62.06121634514359
 30
0.0
 40
1.036799999999999
100
AcDbArc
 50
316.4688007143847
 51
0.0
  0
ARC
  5
80B
330
1F
100
AcDbEntity
  8
破線
100
AcDbCircle
 10
-115.9726590717514
 20
44.9030109237591
 30
0.0
 40
0.8748000000000006
100
AcDbArc
 50
315.0
 51
0.0
  0
ARC
  5
80C
330
1F
100
AcDbEntity
  8
外形線
100
AcDbCircle
 10
-115.8560190717514
 20
42.11017679668136
 30
0.0
 40
0.1166400000000001
100
AcDbArc
 50
104.4775121859298
 51
180.0
  0
ARC
  5
80D
330
1F
100
AcDbEntity
  8
破線
100
AcDbCircle
 10
-115.9726590717514
 20
42.561921574183
 30
0.0
 40
0.6415200000000004
100
AcDbArc
 50
297.0356917894116
 51
62.96430821058843
  0
ARC
  5
80E
330
1F
100
AcDbEntity
  8
外形線
100
AcDbCircle
 10
-94.18430707175142
 20
43.836672224607
 30
0.0
 40
0.5832000000000003
100
AcDbArc
 50
0.0
 51
45.00000000000114
  0
ARC
  5
80F
330
1F
100
AcDbEntity
  8
外形線
100
AcDbCircle
 10
-93.60110707175143
 20
44.9030109237591
 30
0.0
 40
0.5832000000000003
100
AcDbArc
 50
180.0
 51
225.0000000000011
  0
ARC
  5
810
330
1F
100
AcDbEntity
  8
外形線
100
AcDbCircle
 10
-115.9726590717514
 20
44.9030109237591
 30
0.0
 40
0.5832000000000003
100
AcDbArc
 50
314.9999999999988
 51
0.0
  0
ARC
  5
811
330
1F
100
AcDbEntity
  8
外形線
100
AcDbCircle
 10
-115.9726590717514
 20
42.561921574183
 30
0.0
 40
0.3499200000000002
100
AcDbArc
 50
284.4775121859299
 51
75.52248781407016
  0
ARC
  5
812
330
1F
100
AcDbEntity
  8
外形線
100
AcDbCircle
 10
-115.3894590717515
 20
43.836672224607
 30
0.0
 40
0.5832000000000003
100
AcDbArc
 50
134.9999999999988
 51
180.0
  0
ARC
  5
813
330
1F
100
AcDbEntity
  8
外形線
100
AcDbCircle
 10
-93.71774707175147
 20
43.01366635168466
 30
0.0
 40
0.1166400000000001
100
AcDbArc
 50
284.4775121859299
 51
0.0
  0
ARC
  5
814
330
1F
100
AcDbEntity
  8
外形線
100
AcDbCircle
 10
-93.60110707175143
 20
42.561921574183
 30
0.0
 40
0.3499200000000002
100
AcDbArc
 50
104.4775121859298
 51
255.5224878140701
  0
ARC
  5
815
330
1F
100
AcDbEntity
  8
外形線
100
AcDbCircle
 10
-88.45728307175141
 20
56.90864157418303
 30
0.0
 40
6.706800000000002
100
AcDbArc
 50
135.0
 51
180.0
  0
ARC
  5
816
330
1F
100
AcDbEntity
  8
外形線
100
AcDbCircle
 10
-88.45728307175141
 20
56.90864157418303
 30
0.0
 40
25.95240000000002
100
AcDbArc
 50
135.0
 51
180.0
  0
ARC
  5
817
330
1F
100
AcDbEntity
  8
破線
100
AcDbCircle
 10
-88.45728307175141
 20
56.90864157418303
 30
0.0
 40
25.66080000000002
100
AcDbArc
 50
135.0
 51
180.0
  0
ARC
  5
818
330
1F
100
AcDbEntity
  8
破線
100
AcDbCircle
 10
-88.45728307175141
 20
56.90864157418303
 30
0.0
 40
6.998400000000001
100
AcDbArc
 50
135.0
 51
180.0
  0
ARC
  5
819
330
1F
100
AcDbEntity
  8
破線
100
AcDbCircle
 10
-115.3894590717515
 20
43.836672224607
 30
0.0
 40
0.2916000000000001
100
AcDbArc
 50
135.0000000000034
 51
180.0000122182185
  0
ARC
  5
81A
330
1F
100
AcDbEntity
  8
中心線
100
AcDbCircle
 10
-88.45728307175148
 20
56.90864157418303
 30
0.0
 40
16.32960000000001
100
AcDbArc
 50
90.0
 51
180.0000018398746
  0
ARC
  5
81B
330
1F
100
AcDbEntity
  8
破線
100
AcDbCircle
 10
-93.60110707175143
 20
42.561921574183
 30
0.0
 40
0.6415200000000004
100
AcDbArc
 50
117.0356917894116
 51
242.9643082105884
  0
ARC
  5
81C
330
1F
100
AcDbEntity
  8
外形線
100
AcDbCircle
 10
-93.71774707175147
 20
42.11017679668136
 30
0.0
 40
0.1166400000000001
100
AcDbArc
 50
0.0
 51
75.52248781407016
  0
ARC
  5
81D
330
1F
100
AcDbEntity
  8
破線
100
AcDbCircle
 10
-94.18430707175142
 20
43.836672224607
 30
0.0
 40
0.2916000000000001
100
AcDbArc
 50
359.9999877817814
 51
44.99999999999654
  0
ARC
  5
81E
330
1F
100
AcDbEntity
  8
外形線
100
AcDbCircle
 10
-115.8560190717514
 20
43.01366635168466
 30
0.0
 40
0.1166400000000001
100
AcDbArc
 50
180.0
 51
255.5224878140701
  0
ARC
  5
81F
330
1F
100
AcDbEntity
  8
破線
100
AcDbCircle
 10
-93.60110707175143
 20
44.9030109237591
 30
0.0
 40
0.8748000000000006
100
AcDbArc
 50
180.0
 51
225.0
  0
ARC
  5
820
330
1F
100
AcDbEntity
  8
破線
100
AcDbCircle
 10
-76.45165242132742
 20
62.05246557418299
 30
0.0
 40
0.8748000000000006
100
AcDbArc
 50
45.0
 51
90.0
  0
ARC
  5
821
330
1F
100
AcDbEntity
  8
外形線
100
AcDbCircle
 10
-74.56230784925306
 20
84.30737757418302
 30
0.0
 40
0.1166400000000001
100
AcDbArc
 50
14.47751218592986
 51
90.0
  0
ARC
  5
822
330
1F
100
AcDbEntity
  8
破線
100
AcDbCircle
 10
-75.38531372217541
 20
62.63566557418299
 30
0.0
 40
0.2916000000000001
100
AcDbArc
 50
225.0000000000046
 51
270.0000122182169
  0
ARC
  5
823
330
1F
100
AcDbEntity
  8
外形線
100
AcDbCircle
 10
-73.65881829424974
 20
62.16910557418303
 30
0.0
 40
0.1166400000000001
100
AcDbArc
 50
194.4775121859299
 51
270.0
  0
ARC
  5
824
330
1F
100
AcDbEntity
  8
破線
100
AcDbCircle
 10
-74.11056307175144
 20
62.05246557418299
 30
0.0
 40
0.6415200000000004
100
AcDbArc
 50
27.03569178941156
 51
152.9643082105884
  0
ARC
  5
825
330
1F
100
AcDbEntity
  8
破線
100
AcDbCircle
 10
-75.38531372217541
 20
83.84081757418298
 30
0.0
 40
0.2916000000000001
100
AcDbArc
 50
89.99998778178143
 51
134.9999999999954
  0
ARC
  5
826
330
1F
100
AcDbEntity
  8
破線
100
AcDbCircle
 10
-88.45728307175148
 20
56.90864157418303
 30
0.0
 40
6.998400000000001
100
AcDbArc
 50
90.0
 51
135.0
  0
ARC
  5
827
330
1F
100
AcDbEntity
  8
破線
100
AcDbCircle
 10
-88.45728307175148
 20
56.90864157418303
 30
0.0
 40
25.66080000000002
100
AcDbArc
 50
90.0
 51
135.0
  0
ARC
  5
828
330
1F
100
AcDbEntity
  8
外形線
100
AcDbCircle
 10
-88.45728307175148
 20
56.90864157418303
 30
0.0
 40
25.95240000000002
100
AcDbArc
 50
90.0
 51
135.0
  0
ARC
  5
829
330
1F
100
AcDbEntity
  8
外形線
100
AcDbCircle
 10
-88.45728307175148
 20
56.90864157418303
 30
0.0
 40
6.706800000000002
100
AcDbArc
 50
90.0
 51
135.0
  0
ARC
  5
82A
330
1F
100
AcDbEntity
  8
外形線
100
AcDbCircle
 10
-74.11056307175144
 20
62.05246557418299
 30
0.0
 40
0.3499200000000002
100
AcDbArc
 50
14.47751218592986
 51
165.5224878140701
  0
ARC
  5
82B
330
1F
100
AcDbEntity
  8
外形線
100
AcDbCircle
 10
-74.56230784925306
 20
62.16910557418303
 30
0.0
 40
0.1166400000000001
100
AcDbArc
 50
270.0
 51
345.5224878140701
  0
ARC
  5
82C
330
1F
100
AcDbEntity
  8
外形線
100
AcDbCircle
 10
-75.38531372217541
 20
83.84081757418298
 30
0.0
 40
0.5832000000000003
100
AcDbArc
 50
90.0
 51
135.0
  0
ARC
  5
82D
330
1F
100
AcDbEntity
  8
外形線
100
AcDbCircle
 10
-74.11056307175144
 20
84.424017574183
 30
0.0
 40
0.3499200000000002
100
AcDbArc
 50
194.4775121859299
 51
345.5224878140701
  0
ARC
  5
82E
330
1F
100
AcDbEntity
  8
外形線
100
AcDbCircle
 10
-76.45165242132742
 20
84.424017574183
 30
0.0
 40
0.5832000000000003
100
AcDbArc
 50
270.0
 51
315.0
  0
ARC
  5
82F
330
1F
100
AcDbEntity
  8
外形線
100
AcDbCircle
 10
-76.45165242132742
 20
62.05246557418299
 30
0.0
 40
0.5832000000000003
100
AcDbArc
 50
45.0
 51
90.0
  0
ARC
  5
830
330
1F
100
AcDbEntity
  8
外形線
100
AcDbCircle
 10
-75.38531372217541
 20
62.63566557418299
 30
0.0
 40
0.5832000000000003
100
AcDbArc
 50
225.0
 51
270.0
  0
ARC
  5
831
330
1F
100
AcDbEntity
  8
破線
100
AcDbCircle
 10
-74.11056307175144
 20
84.424017574183
 30
0.0
 40
0.6415200000000004
100
AcDbArc
 50
207.0356917894116
 51
332.9643082105885
  0
ARC
  5
832
330
1F
100
AcDbEntity
  8
外形線
100
AcDbCircle
 10
-73.65881829424974
 20
84.30737757418302
 30
0.0
 40
0.1166400000000001
100
AcDbArc
 50
90.0
 51
165.5224878140701
  0
ARC
  5
833
330
1F
100
AcDbEntity
  8
破線
100
AcDbCircle
 10
-76.45165242132742
 20
84.424017574183
 30
0.0
 40
0.8748000000000006
100
AcDbArc
 50
270.0
 51
315.0
  0
ARC
  5
834
330
1F
100
AcDbEntity
  8
破線
100
AcDbCircle
 10
-197.2871841204353
 20
97.9927978627181
 30
0.0
 40
1.00799994635582
100
AcDbArc
 50
286.6015505081132
 51
73.39844949188672
  0
ARC
  5
835
330
1F
100
AcDbEntity
  8
外形線
100
AcDbCircle
 10
-187.423186464686
 20
80.7127975373007
 30
0.0
 40
23.03999965667726
100
AcDbArc
 50
65.81537499316249
 51
89.99998201391097
  0
ARC
  5
836
330
1F
100
AcDbEntity
  8
外形線
100
AcDbCircle
 10
-196.5671841311641
 20
101.0737811206171
 30
0.0
 40
0.7199999892711643
100
AcDbArc
 50
114.1846231856042
 51
179.9999640278219
  0
ARC
  5
837
330
1F
100
AcDbEntity
  8
破線
100
AcDbCircle
 10
-196.5671841311641
 20
101.0737811206171
 30
0.0
 40
0.4319999892711643
100
AcDbArc
 50
114.184567235355
 51
180.0000248400112
  0
ARC
  5
838
330
1F
100
AcDbEntity
  8
外形線
100
AcDbCircle
 10
-179.0531756030808
 20
81.17786586230355
 30
0.0
 40
0.288
100
AcDbArc
 50
179.9999813306646
 51
294.4914849156784
  0
ARC
  5
839
330
1F
100
AcDbEntity
  8
外形線
100
AcDbCircle
 10
-178.2791887982078
 20
101.0737811206171
 30
0.0
 40
0.7199999892711643
100
AcDbArc
 50
0.0
 51
65.81534084221759
  0
ARC
  5
83A
330
1F
100
AcDbEntity
  8
外形線
100
AcDbCircle
 10
-167.2631867650933
 20
55.2967798221805
 30
0.0
 40
28.15199848186974
100
AcDbArc
 50
92.9833813226153
 51
114.4914079623646
  0
ARC
  5
83B
330
1F
100
AcDbEntity
  8
外形線
100
AcDbCircle
 10
-177.5591997952645
 20
97.99280884904611
 30
0.0
 40
0.7199999463558208
100
AcDbArc
 50
89.99994786296509
 51
270.000137287028
  0
ARC
  5
83C
330
1F
100
AcDbEntity
  8
外形線
100
AcDbCircle
 10
-177.5591997952645
 20
41.40078881830942
 30
0.0
 40
0.7199999463558208
100
AcDbArc
 50
89.99981125918171
 51
270.0000006832446
  0
ARC
  5
83D
330
1F
100
AcDbEntity
  8
外形線
100
AcDbCircle
 10
-197.2871841204353
 20
41.40078881830942
 30
0.0
 40
0.7199999463558208
100
AcDbArc
 50
269.9999496841974
 51
90.00013910826188
  0
ARC
  5
83E
330
1F
100
AcDbEntity
  8
外形線
100
AcDbCircle
 10
-153.3671957612223
 20
65.59279285235176
 30
0.0
 40
0.7199999463558208
100
AcDbArc
 50
359.9999453584866
 51
180.000127952362
  0
ARC
  5
83F
330
1F
100
AcDbEntity
  8
外形線
100
AcDbCircle
 10
-153.3671957612223
 20
85.3207826706865
 30
0.0
 40
0.7199999463558208
100
AcDbArc
 50
179.9998001032818
 51
0.0
  0
ARC
  5
840
330
1F
100
AcDbEntity
  8
外形線
100
AcDbCircle
 10
-197.2871841204353
 20
97.9927978627181
 30
0.0
 40
0.7199999463558208
100
AcDbArc
 50
269.9998199106031
 51
90.00002982523517
  0
ARC
  5
841
330
1F
100
AcDbEntity
  8
外形線
100
AcDbCircle
 10
-187.423186464686
 20
80.7127975373007
 30
0.0
 40
23.03999965667726
100
AcDbArc
 50
89.99998201391097
 51
114.1845890346591
  0
ARC
  5
842
330
1F
100
AcDbEntity
  8
外形線
100
AcDbCircle
 10
-167.2631867650933
 20
55.2967798221805
 30
0.0
 40
12.16799817073348
100
AcDbArc
 50
96.91601983160204
 51
173.0839330403196
  0
ARC
  5
843
330
1F
100
AcDbEntity
  8
中心線
100
AcDbCircle
 10
-167.2631867650933
 20
55.2967798221805
 30
0.0
 40
20.15999832630161
100
AcDbArc
 50
89.99998201391097
 51
179.9999640278219
  0
ARC
  5
844
330
1F
100
AcDbEntity
  8
破線
100
AcDbCircle
 10
-197.2871841204353
 20
41.40078881830942
 30
0.0
 40
1.00799994635582
100
AcDbArc
 50
286.6012246893383
 51
73.39877531066019
  0
ARC
  5
845
330
1F
100
AcDbEntity
  8
破線
100
AcDbCircle
 10
-177.5591997952645
 20
41.40078881830942
 30
0.0
 40
1.00799994635582
100
AcDbArc
 50
106.6015505081153
 51
253.3984494918847
  0
ARC
  5
846
330
1F
100
AcDbEntity
  8
破線
100
AcDbCircle
 10
-187.423186464686
 20
80.7127975373007
 30
0.0
 40
22.75199965667725
100
AcDbArc
 50
89.99998201391097
 51
114.184567235355
  0
ARC
  5
847
330
1F
100
AcDbEntity
  8
破線
100
AcDbCircle
 10
-187.423186464686
 20
80.7127975373007
 30
0.0
 40
22.75199965667725
100
AcDbArc
 50
65.81543276464492
 51
89.99998201391097
  0
ARC
  5
848
330
1F
100
AcDbEntity
  8
破線
100
AcDbCircle
 10
-178.2791887982078
 20
101.0737811206171
 30
0.0
 40
0.4319999892711643
100
AcDbArc
 50
0.0
 51
65.81543276464492
  0
ARC
  5
849
330
1F
100
AcDbEntity
  8
破線
100
AcDbCircle
 10
-177.5591997952645
 20
97.99280884904611
 30
0.0
 40
1.00799994635582
100
AcDbArc
 50
106.6002472363334
 51
253.399752763665
  0
ARC
  5
84A
330
1F
100
AcDbEntity
  8
破線
100
AcDbCircle
 10
-167.2631867650933
 20
55.2967798221805
 30
0.0
 40
27.86399848186972
100
AcDbArc
 50
93.03440744382447
 51
114.4913809246257
  0
ARC
  5
84B
330
1F
100
AcDbEntity
  8
破線
100
AcDbCircle
 10
-153.3671957612223
 20
65.59279285235176
 30
0.0
 40
1.00799994635582
100
AcDbArc
 50
16.60155050811327
 51
163.3984494918867
  0
ARC
  5
84C
330
1F
100
AcDbEntity
  8
破線
100
AcDbCircle
 10
-167.2631867650933
 20
55.2967798221805
 30
0.0
 40
12.45599817073348
100
AcDbArc
 50
96.27432254269862
 51
173.725705720843
  0
ARC
  5
84D
330
1F
100
AcDbEntity
  8
破線
100
AcDbCircle
 10
-153.3671957612223
 20
85.3207826706865
 30
0.0
 40
1.00799994635582
100
AcDbArc
 50
196.6015505081132
 51
343.3984494918868
  0
ARC
  5
84E
330
1F
100
AcDbEntity
  8
破線
100
AcDbCircle
 10
-179.0531756030808
 20
81.17786586230355
 30
0.0
 40
0.5760000000000001
100
AcDbArc
 50
180.0
 51
294.4913809246257
  0
MTEXT
  5
84F
330
1F
100
AcDbEntity
  8
0
 62
     7
100
AcDbMText
 10
-33.08568847835039
 20
25.70642054670768
 30
0.0
 40
3.0
 41
0.0
 71
     7
 72
     1
  1
{\W1;(TDS200)}
 73
     1
 44
1.0
  0
MTEXT
  5
850
330
1F
100
AcDbEntity
  8
0
 62
     7
100
AcDbMText
 10
-115.0452353123515
 20
26.10748460471592
 30
0.0
 40
3.0
 41
0.0
 71
     7
 72
     1
  1
(TDS75,150)
 73
     1
 44
1.0
  0
MTEXT
  5
851
330
1F
100
AcDbEntity
  8
0
 62
     7
100
AcDbMText
 10
-198.0933160866249
 20
26.28996003098214
 30
0.0
 40
3.0
 41
0.0
 71
     7
 72
     1
  1
{\W1;(TDS100)}
 73
     1
 44
1.0
  0
DIMENSION
  5
852
330
1F
100
AcDbEntity
  8
寸法線
100
AcDbDimension
  2
*D4
 10
-52.205441523943
 20
84.3272478369777
 30
0.0
 11
-52.205441523943
 21
62.61924783697772
 31
0.0
 70
   160
  1
L1
 71
     5
 42
43.416
  3
ISO-25
100
AcDbAlignedDimension
 13
-40.19292422096017
 23
40.91124783697771
 33
0.0
 14
-22.59972422096014
 24
84.3272478369777
 34
0.0
 50
270.0
100
AcDbRotatedDimension
1001
ACAD
1000
DSTYLE
1002
{
1070
   278
1070
    46
1070
   147
1040
0.8000000119209291
1070
    77
1070
     1
1070
    74
1070
     0
1070
    73
1070
     0
1070
    42
1040
2.54
1070
    44
1040
0.914399999999944
1070
    76
1070
     0
1070
    75
1070
     0
1070
   279
1070
     0
1070
   271
1070
     0
1070
   173
1070
     1
1070
    41
1040
3.0
1070
   140
1040
3.200000047683716
1070
   344
1005
EB
1070
   343
1005
EB
1002
}
  0
DIMENSION
  5
853
330
1F
100
AcDbEntity
  8
寸法線
100
AcDbDimension
  2
*D5
 10
-22.59972422096009
 20
113.9329651399606
 30
0.0
 11
-0.8917242209601852
 21
113.9329651399606
 31
0.0
 70
   160
  1
L1
 71
     5
 42
43.41599999999989
  3
ISO-25
100
AcDbAlignedDimension
 13
20.81627577903981
 23
101.9204478369778
 33
0.0
 14
-22.59972422096009
 24
84.32724783697779
 34
0.0
100
AcDbRotatedDimension
1001
ACAD
1000
DSTYLE
1002
{
1070
   278
1070
    46
1070
   147
1040
0.8000000119209291
1070
    77
1070
     1
1070
    74
1070
     0
1070
    73
1070
     0
1070
    42
1040
2.54
1070
    44
1040
0.914399999999944
1070
    76
1070
     0
1070
    75
1070
     0
1070
   279
1070
     0
1070
   271
1070
     0
1070
   173
1070
     1
1070
    41
1040
3.0
1070
   140
1040
3.200000047683716
1070
   344
1005
EB
1070
   343
1005
EB
1002
}
  0
DIMENSION
  5
854
330
1F
100
AcDbEntity
  8
寸法線
100
AcDbDimension
  2
*D6
 10
-37.38217287060568
 20
109.9311999584415
 30
0.0
 11
-43.50526358637269
 21
105.2327872023901
 31
0.0
 70
   165
  1
90\U+00B0
 71
     5
 42
1.570796326794778
  3
ISO-25
100
AcDb3PointAngularDimension
 13
-22.59972422096021
 23
114.5784609154878
 33
0.0
 14
-52.71667936719119
 24
84.3272478369777
 34
0.0
 15
-22.59972422095865
 25
84.32724783697571
 35
0.0
1001
ACAD
1000
DSTYLE
1002
{
1070
   278
1070
    46
1070
   275
1070
     1
1070
   147
1040
0.8000000119209291
1070
    77
1070
     1
1070
    74
1070
     0
1070
    73
1070
     0
1070
    42
1040
2.54
1070
    44
1040
2.285999999999956
1070
    76
1070
     1
1070
    75
1070
     1
1070
   279
1070
     0
1070
   179
1070
     0
1070
   173
1070
     1
1070
    41
1040
3.0
1070
   140
1040
3.200000047683716
1070
   344
1005
EB
1070
   343
1005
EB
1002
}
  0
DIMENSION
  5
855
330
1F
100
AcDbEntity
  8
寸法線
100
AcDbDimension
  2
*D7
 10
-44.48618293873646
 20
66.83124783697767
 30
0.0
 11
-44.48618293873646
 21
53.85675676670775
 31
0.0
 70
   160
  1
L2
 71
     5
 42
25.91999999999995
  3
ISO-25
100
AcDbAlignedDimension
 13
-40.19292422096024
 23
40.91124783697771
 33
0.0
 14
-36.72612422096029
 24
66.83124783697767
 34
0.0
 50
270.0
100
AcDbRotatedDimension
1001
ACAD
1000
DSTYLE
1002
{
1070
   278
1070
    46
1070
   147
1040
0.8000000119209291
1070
    77
1070
     1
1070
    74
1070
     0
1070
    73
1070
     0
1070
    42
1040
2.54
1070
    44
1040
2.286
1070
    76
1070
     0
1070
    75
1070
     0
1070
   279
1070
     0
1070
   271
1070
     0
1070
   173
1070
     1
1070
    41
1040
3.0
1070
   140
1040
3.200000047683716
1070
   344
1005
EB
1070
   343
1005
EB
1002
}
  0
DIMENSION
  5
856
330
1F
100
AcDbEntity
  8
寸法線
100
AcDbDimension
  2
*D8
 10
-7.209724220960142
 20
32.97109978426917
 30
0.0
 11
-22.59972422096016
 21
32.97109978426917
 31
0.0
 70
   160
  1
\U+2205A
 71
     5
 42
30.78000000000002
  3
ISO-25
100
AcDbAlignedDimension
 13
-37.98972422096016
 23
55.1672478369776
 33
0.0
 14
-7.20972422096014
 24
55.16724783697751
 34
0.0
 50
180.0
100
AcDbRotatedDimension
1001
ACAD
1000
DSTYLE
1002
{
1070
   278
1070
    46
1070
   147
1040
0.8000000119209291
1070
    77
1070
     1
1070
    74
1070
     0
1070
    73
1070
     0
1070
    42
1040
1.0
1070
    44
1040
1.0
1070
    76
1070
     0
1070
    75
1070
     0
1070
   279
1070
     0
1070
   271
1070
     0
1070
   173
1070
     1
1070
    41
1040
3.0
1070
   140
1040
3.200000047683716
1070
   344
1005
EB
1070
   343
1005
EB
1002
}
  0
DIMENSION
  5
857
330
1F
100
AcDbEntity
  8
寸法線
100
AcDbDimension
  2
*D9
 10
-128.182124575937
 20
73.23824157418305
 30
0.0
 11
-128.182124575937
 21
57.20024157418302
 31
0.0
 70
   160
  1
L1
 71
     5
 42
32.07599999999999
  3
ISO-25
100
AcDbAlignedDimension
 13
-115.8676830717514
 23
41.16224157418304
 33
0.0
 14
-104.7868830717514
 24
73.23824157418305
 34
0.0
 50
270.0
100
AcDbRotatedDimension
1001
ACAD
1000
DSTYLE
1002
{
1070
   278
1070
    46
1070
   147
1040
0.8000000119209291
1070
    77
1070
     1
1070
    74
1070
     0
1070
    73
1070
     0
1070
    42
1040
1.0
1070
    44
1040
1.0
1070
    76
1070
     0
1070
    75
1070
     0
1070
   279
1070
     0
1070
   271
1070
     0
1070
   173
1070
     1
1070
    41
1040
3.0
1070
   140
1040
3.200000047683716
1070
   344
1005
EB
1070
   343
1005
EB
1002
}
  0
DIMENSION
  5
858
330
1F
100
AcDbEntity
  8
寸法線
100
AcDbDimension
  2
*D10
 10
-116.4378898493333
 20
93.41837727231411
 30
0.0
 11
-122.960951172054
 21
91.41230967450326
 31
0.0
 70
    37
  1
90\U+00B0
 71
     5
 42
1.570796326795849
  3
ISO-25
100
AcDb3PointAngularDimension
 13
-104.7868830717514
 23
73.73824157418304
 33
0.0
 14
-120.453293253879
 24
73.23824157418312
 34
0.0
 15
-104.7868830717519
 25
73.23824157418265
 35
0.0
1001
ACAD
1000
DSTYLE
1002
{
1070
   278
1070
    46
1070
   275
1070
     3
1070
   147
1040
0.8000000119209291
1070
    77
1070
     1
1070
    74
1070
     0
1070
    73
1070
     0
1070
    42
1040
2.54
1070
    44
1040
3.047999999999963
1070
    76
1070
     1
1070
    75
1070
     1
1070
   279
1070
     0
1070
   179
1070
     0
1070
   173
1070
     1
1070
    41
1040
3.0
1070
   140
1040
3.200000047683716
1070
   344
1005
EB
1070
   343
1005
EB
1002
}
  0
DIMENSION
  5
859
330
1F
100
AcDbEntity
  8
寸法線
100
AcDbDimension
  2
*D11
 10
-121.0631548500293
 20
55.74224157418303
 30
0.0
 11
-121.0631548500294
 21
48.45224157418318
 31
0.0
 70
   160
  1
L2
 71
     5
 42
14.57999999999998
  3
ISO-25
100
AcDbAlignedDimension
 13
-115.8676830717514
 23
41.16224157418304
 33
0.0
 14
-114.5002332316031
 24
55.74224157418303
 34
0.0
 50
270.0
100
AcDbRotatedDimension
1001
ACAD
1000
DSTYLE
1002
{
1070
   278
1070
    46
1070
   147
1040
0.8000000119209291
1070
    77
1070
     1
1070
    74
1070
     0
1070
    73
1070
     0
1070
    42
1040
1.0
1070
    44
1040
1.0
1070
    76
1070
     0
1070
    75
1070
     0
1070
   279
1070
     0
1070
   271
1070
     0
1070
   173
1070
     1
1070
    41
1040
3.0
1070
   140
1040
3.200000047683716
1070
   344
1005
EB
1070
   343
1005
EB
1002
}
  0
DIMENSION
  5
85A
330
1F
100
AcDbEntity
  8
寸法線
100
AcDbDimension
  2
*D12
 10
-104.7868830717514
 20
96.55238750233751
 30
0.0
 11
-88.74888307175154
 21
96.55238750233751
 31
0.0
 70
   160
  1
L1
 71
     5
 42
32.07600000000002
  3
ISO-25
100
AcDbAlignedDimension
 13
-72.71088307175142
 23
84.31904157418301
 33
0.0
 14
-104.7868830717514
 24
73.23824157418305
 34
0.0
100
AcDbRotatedDimension
1001
ACAD
1000
DSTYLE
1002
{
1070
   278
1070
    46
1070
   147
1040
0.8000000119209291
1070
    77
1070
     1
1070
    74
1070
     0
1070
    73
1070
     0
1070
    42
1040
0.5
1070
    44
1040
1.0
1070
    76
1070
     0
1070
    75
1070
     0
1070
   279
1070
     0
1070
   271
1070
     0
1070
   173
1070
     1
1070
    41
1040
3.0
1070
   140
1040
3.200000047683716
1070
   344
1005
EB
1070
   343
1005
EB
1002
}
  0
DIMENSION
  5
85B
330
1F
100
AcDbEntity
  8
寸法線
100
AcDbDimension
  2
*D13
 10
-94.47590707175143
 20
33.13896563042363
 30
0.0
 11
-104.7868830717514
 21
33.13896563042363
 31
0.0
 70
   160
  1
\U+2205A
 71
     5
 42
20.62195199999999
  3
ISO-25
100
AcDbAlignedDimension
 13
-115.0978590717514
 23
44.90301092375901
 33
0.0
 14
-94.47590707175143
 24
44.90301092375901
 34
0.0
 50
180.0
100
AcDbRotatedDimension
1001
ACAD
1000
DSTYLE
1002
{
1070
   278
1070
    46
1070
   147
1040
0.8000000119209291
1070
    77
1070
     1
1070
    74
1070
     0
1070
    73
1070
     0
1070
    42
1040
1.0
1070
    44
1040
1.0
1070
    76
1070
     0
1070
    75
1070
     0
1070
   279
1070
     0
1070
   271
1070
     0
1070
   173
1070
     1
1070
    41
1040
3.0
1070
   140
1040
3.200000047683716
1070
   344
1005
EB
1070
   343
1005
EB
1002
}
  0
DIMENSION
  5
85C
330
1F
100
AcDbEntity
  8
寸法線
100
AcDbDimension
  2
*D14
 10
-151.9271957826799
 20
115.4646019736432
 30
0.0
 11
-169.675191123683
 21
115.4646019736432
 31
0.0
 70
   160
  1
L1
 71
     5
 42
35.49599068200612
  3
ISO-25
100
AcDbAlignedDimension
 13
-187.423186464686
 23
106.1830806386227
 33
0.0
 14
-151.9271957826799
 24
85.3207881638505
 34
0.0
 50
180.0
100
AcDbRotatedDimension
1001
ACAD
1000
DSTYLE
1002
{
1070
   278
1070
    46
1070
   147
1040
0.8000000119209291
1070
    77
1070
     1
1070
    74
1070
     0
1070
    73
1070
     0
1070
    42
1040
1.0
1070
    44
1040
1.0
1070
    76
1070
     0
1070
    75
1070
     0
1070
   279
1070
     0
1070
   271
1070
     0
1070
   173
1070
     1
1070
    41
1040
3.0
1070
   140
1040
3.200000047683716
1070
   344
1005
EB
1070
   343
1005
EB
1002
}
  0
DIMENSION
  5
85D
330
1F
100
AcDbEntity
  8
寸法線
100
AcDbDimension
  2
*D15
 10
-210.9421719015339
 20
75.45677952177317
 30
0.0
 11
-210.942171901534
 21
57.70878418077015
 31
0.0
 70
   160
  1
L1
 71
     5
 42
35.495990682006
  3
ISO-25
100
AcDbAlignedDimension
 13
-197.2872005999272
 23
39.96078883976716
 33
0.0
 14
-200.6820363647699
 24
75.45677952177317
 34
0.0
 50
270.0
100
AcDbRotatedDimension
1001
ACAD
1000
DSTYLE
1002
{
1070
   278
1070
    46
1070
   147
1040
0.8000000119209291
1070
    77
1070
     1
1070
    74
1070
     0
1070
    73
1070
     0
1070
    42
1040
1.0
1070
    44
1040
1.0
1070
    76
1070
     0
1070
    75
1070
     1
1070
   279
1070
     0
1070
   271
1070
     0
1070
   173
1070
     1
1070
    41
1040
3.0
1070
   140
1040
3.200000047683716
1070
   344
1005
EB
1070
   343
1005
EB
1002
}
  0
DIMENSION
  5
85E
330
1F
100
AcDbEntity
  8
寸法線
100
AcDbDimension
  2
*D16
 10
-204.0548185106409
 20
56.23281496448253
 30
0.0
 11
-204.0548185106409
 21
48.09680190212482
 31
0.0
 70
   160
  1
L2
 71
     5
 42
16.27202612471538
  3
ISO-25
100
AcDbAlignedDimension
 13
-187.4232001975959
 23
39.96078883976716
 33
0.0
 14
-196.0343939169354
 24
56.23281496448253
 34
0.0
 50
270.0
100
AcDbRotatedDimension
1001
ACAD
1000
DSTYLE
1002
{
1070
   278
1070
    46
1070
   147
1040
0.8000000119209291
1070
    77
1070
     1
1070
    74
1070
     0
1070
    73
1070
     0
1070
    42
1040
1.0
1070
    44
1040
1.0
1070
    76
1070
     0
1070
    75
1070
     0
1070
   279
1070
     0
1070
   271
1070
     0
1070
   173
1070
     1
1070
    41
1040
3.0
1070
   140
1040
3.200000047683716
1070
   344
1005
EB
1070
   343
1005
EB
1002
}
  0
DIMENSION
  5
85F
330
1F
100
AcDbEntity
  8
寸法線
100
AcDbDimension
  2
*D17
 10
-217.8295252924272
 20
103.7527971939778
 30
0.0
 11
-217.8295252924272
 21
71.85679301687263
 31
0.0
 70
   160
  1
L3
 71
     5
 42
63.79200835421064
  3
ISO-25
100
AcDbAlignedDimension
 13
-185.769119576931
 23
39.96078883976716
 33
0.0
 14
-187.423186464686
 24
103.7527971939778
 34
0.0
 50
270.0
100
AcDbRotatedDimension
1001
ACAD
1000
DSTYLE
1002
{
1070
   278
1070
    46
1070
   147
1040
0.8000000119209291
1070
    77
1070
     1
1070
    74
1070
     0
1070
    73
1070
     0
1070
    42
1040
1.0
1070
    44
1040
1.0
1070
    76
1070
     0
1070
    75
1070
     0
1070
   279
1070
     0
1070
   271
1070
     0
1070
   173
1070
     1
1070
    41
1040
3.0
1070
   140
1040
3.200000047683716
1070
   344
1005
EB
1070
   343
1005
EB
1002
}
  0
DIMENSION
  5
860
330
1F
100
AcDbEntity
  8
寸法線
100
AcDbDimension
  2
*D18
 10
-178.8263782474707
 20
32.96646796972221
 30
0.0
 11
-187.9097091344806
 21
32.96646796972221
 31
0.0
 70
   160
  1
\U+03C6Ａ
 71
     5
 42
17.19359446177486
  3
ISO-25
100
AcDbAlignedDimension
 13
-196.0199727092455
 23
44.63686491762334
 33
0.0
 14
-178.8263782474707
 24
44.63684752951709
 34
0.0
 50
180.0
100
AcDbRotatedDimension
1001
ACAD
1000
DSTYLE
1002
{
1070
   278
1070
    46
1070
   147
1040
0.8000000119209291
1070
    77
1070
     1
1070
    74
1070
     0
1070
    73
1070
     0
1070
    42
1040
1.0
1070
    44
1040
1.0
1070
    76
1070
     0
1070
    75
1070
     0
1070
   279
1070
     0
1070
   271
1070
     0
1070
   173
1070
     1
1070
    41
1040
3.0
1070
   140
1040
3.200000047683716
1070
   344
1005
EB
1070
   343
1005
EB
1002
}
  0
MTEXT
  5
10C7
330
1F
100
AcDbEntity
  8
VIEW0001
 62
     7
100
AcDbMText
 10
-39.31714830014335
 20
-52.23738705550862
 30
0.0
 40
4.5
 41
0.0
 71
     7
 72
     1
  1
{\W1.3889;　デンカ株式会社}
 73
     1
 44
1.0
  0
MTEXT
  5
1127
330
1F
100
AcDbEntity
  8
0
 62
     7
100
AcDbMText
 10
-146.1434891796971
 20
1.284776711932821
 30
0.0
 40
3.200000047683716
 41
0.0
 71
     7
 72
     1
  1
TDS75
 73
     1
 44
1.0
  0
MTEXT
  5
1128
330
1F
100
AcDbEntity
  8
0
 62
     7
100
AcDbMText
 10
-119.2629010967537
 20
1.284776711932819
 30
0.0
 40
3.200000047683716
 41
0.0
 71
     7
 72
     1
  1
91
 73
     1
 44
1.0
  0
MTEXT
  5
1129
330
1F
100
AcDbEntity
  8
0
 62
     7
100
AcDbMText
 10
-100.0304963888701
 20
1.315784380412522
 30
0.0
 40
3.200000047683716
 41
0.0
 71
     7
 72
     1
  1
155
 73
     1
 44
1.0
  0
MTEXT
  5
112A
330
1F
100
AcDbEntity
  8
0
 62
     7
100
AcDbMText
 10
-80.27255141304733
 20
1.412920262801673
 30
0.0
 40
3.200000047683716
 41
0.0
 71
     7
 72
     1
  1
90
 73
     1
 44
1.0
  0
LINE
  5
112C
330
1F
100
AcDbEntity
  8
0
  6
Continuous
 62
     7
100
AcDbLine
 10
-150.1019948782547
 20
0.2117766255060971
 30
0.0
 11
-47.26639808417716
 21
0.2117766255060971
 31
0.0
  0
MTEXT
  5
112F
330
1F
100
AcDbEntity
  8
0
 62
     7
100
AcDbMText
 10
-56.98639891864218
 20
2.884776318542197
 30
0.0
 40
3.200000047683716
 41
0.0
 71
     5
 72
     1
  1
-
 73
     1
 44
1.0
  0
ENDSEC
  0
SECTION
  2
OBJECTS
  0
DICTIONARY
  5
C
330
0
100
AcDbDictionary
281
     1
  3
ACAD_CIP_PREVIOUS_PRODUCT_INFO
350
10BE
  3
ACAD_COLOR
350
15B
  3
ACAD_DETAILVIEWSTYLE
350
10BB
  3
ACAD_GROUP
350
D
  3
ACAD_LAYOUT
350
1A
  3
ACAD_MATERIAL
350
15A
  3
ACAD_MLEADERSTYLE
350
10B7
  3
ACAD_MLINESTYLE
350
17
  3
ACAD_PLOTSETTINGS
350
19
  3
ACAD_PLOTSTYLENAME
350
E
  3
ACAD_SCALELIST
350
10A5
  3
ACAD_SECTIONVIEWSTYLE
350
10B9
  3
ACAD_TABLESTYLE
350
15C
  3
ACAD_VISUALSTYLE
350
108C
  3
ACDB_RECOMPOSE_DATA
350
1144
  3
AcDbVariableDictionary
350
161
  0
DICTIONARY
  5
10C8
330
10
100
AcDbDictionary
280
     1
281
     1
  3
ADSK_XREC_LAYER_RECONCILED
360
10C9
  0
DICTIONARY
  5
10CA
330
149
100
AcDbDictionary
280
     1
281
     1
  3
ADSK_XREC_LAYER_RECONCILED
360
10CB
  0
DICTIONARY
  5
10CC
330
153
100
AcDbDictionary
280
     1
281
     1
  3
ADSK_XREC_LAYER_RECONCILED
360
10CD
  0
DICTIONARY
  5
10CE
330
16F
100
AcDbDictionary
280
     1
281
     1
  3
ADSK_XREC_LAYER_RECONCILED
360
10CF
  0
DICTIONARY
  5
10D0
330
170
100
AcDbDictionary
280
     1
281
     1
  3
ADSK_XREC_LAYER_RECONCILED
360
10D1
  0
DICTIONARY
  5
10D2
330
171
100
AcDbDictionary
280
     1
281
     1
  3
ADSK_XREC_LAYER_RECONCILED
360
10D3
  0
DICTIONARY
  5
10D4
330
172
100
AcDbDictionary
280
     1
281
     1
  3
ADSK_XREC_LAYER_RECONCILED
360
10D5
  0
DICTIONARY
  5
10D6
330
173
100
AcDbDictionary
280
     1
281
     1
  3
ADSK_XREC_LAYER_RECONCILED
360
10D7
  0
DICTIONARY
  5
10D8
330
174
100
AcDbDictionary
280
     1
281
     1
  3
ADSK_XREC_LAYER_RECONCILED
360
10D9
  0
DICTIONARY
  5
10DA
330
175
100
AcDbDictionary
280
     1
281
     1
  3
ADSK_XREC_LAYER_RECONCILED
360
10DB
  0
DICTIONARY
  5
1F5
330
1F
100
AcDbDictionary
280
     1
281
     1
  3
ACAD_SORTENTS
360
1F6
  0
DICTIONARY
  5
114A
330
FD2
100
AcDbDictionary
280
     1
281
     1
  3
ACAD_MTEXT_2008_RT
360
114B
  0
DICTIONARY
  5
1148
330
FA6
100
AcDbDictionary
280
     1
281
     1
  3
ACAD_MTEXT_2008_RT
360
1149
  0
DICTIONARY
  5
1145
330
D3
100
AcDbDictionary
280
     1
281
     1
  3
ACAD_MTEXT_2008_RT
360
1146
  0
XRECORD
  5
10BE
102
{ACAD_REACTORS
330
C
102
}
330
C
100
AcDbXrecord
280
     1
300
ACDLT
300
2014
300
INVLTS_F_S
  0
DICTIONARY
  5
15B
102
{ACAD_REACTORS
330
C
102
}
330
C
100
AcDbDictionary
281
     1
  0
DICTIONARY
  5
10BB
102
{ACAD_REACTORS
330
C
102
}
330
C
100
AcDbDictionary
281
     1
  3
Metric50
350
10BC
  0
DICTIONARY
  5
D
102
{ACAD_REACTORS
330
C
102
}
330
C
100
AcDbDictionary
281
     1
  0
DICTIONARY
  5
1A
102
{ACAD_REACTORS
330
C
102
}
330
C
100
AcDbDictionary
281
     1
  3
Layout1
350
1E
  3
Layout2
350
26
  3
Model
350
22
  0
DICTIONARY
  5
15A
102
{ACAD_REACTORS
330
C
102
}
330
C
100
AcDbDictionary
281
     1
  3
ByBlock
350
107C
  3
ByLayer
350
1074
  3
Global
350
1084
  0
DICTIONARY
  5
10B7
102
{ACAD_REACTORS
330
C
102
}
330
C
100
AcDbDictionary
281
     1
  3
Standard
350
10B8
  0
DICTIONARY
  5
17
102
{ACAD_REACTORS
330
C
102
}
330
C
100
AcDbDictionary
281
     1
  3
Standard
350
18
  0
DICTIONARY
  5
19
102
{ACAD_REACTORS
330
C
102
}
330
C
100
AcDbDictionary
281
     1
  3
111
350
FED
  3
セットアップ1
350
1138
  0
ACDBDICTIONARYWDFLT
  5
E
102
{ACAD_REACTORS
330
C
102
}
330
C
100
AcDbDictionary
281
     1
  3
Normal
350
F
100
AcDbDictionaryWithDefault
340
F
  0
DICTIONARY
  5
10A5
102
{ACAD_REACTORS
330
C
102
}
330
C
100
AcDbDictionary
281
     1
  3
A0
350
10A6
  3
A1
350
10A7
  3
A2
350
10A8
  3
A3
350
10A9
  3
A4
350
10AA
  3
A5
350
10AB
  3
A6
350
10AC
  3
A7
350
10AD
  3
A8
350
10AE
  3
A9
350
10AF
  3
B0
350
10B0
  3
B1
350
10B1
  3
B2
350
10B2
  3
B3
350
10B3
  3
B4
350
10B4
  3
B5
350
10B5
  3
B6
350
10B6
  0
DICTIONARY
  5
10B9
102
{ACAD_REACTORS
330
C
102
}
330
C
100
AcDbDictionary
281
     1
  3
Metric50
350
10BA
  0
DICTIONARY
  5
15C
102
{ACAD_REACTORS
330
C
102
}
330
C
100
AcDbDictionary
281
     1
  3
Standard
350
15D
  0
DICTIONARY
  5
108C
102
{ACAD_REACTORS
330
C
102
}
330
C
100
AcDbDictionary
281
     1
  3
2dWireframe
350
1092
  3
Basic
350
1091
  3
Brighten
350
1098
  3
ColorChange
350
109C
  3
Conceptual
350
1095
  3
Dim
350
1097
  3
EdgeColorOff
350
10A4
  3
Facepattern
350
109B
  3
Flat
350
108D
  3
FlatWithEdges
350
108E
  3
Gouraud
350
108F
  3
GouraudWithEdges
350
1090
  3
Hidden
350
1094
  3
JitterOff
350
10A2
  3
Linepattern
350
109A
  3
OverhangOff
350
10A3
  3
Realistic
350
1096
  3
Shaded
350
10A1
  3
Shaded with edges
350
10A0
  3
Shades of Gray
350
109D
  3
Sketchy
350
109E
  3
Thicken
350
1099
  3
Wireframe
350
1093
  3
X-Ray
350
109F
  0
XRECORD
  5
1144
102
{ACAD_REACTORS
330
C
102
}
330
C
100
AcDbXrecord
280
     1
 90
        1
330
15D
  0
DICTIONARY
  5
161
102
{ACAD_REACTORS
330
C
102
}
330
C
100
AcDbDictionary
281
     1
  3
CANNOSCALE
350
1114
  3
CMLEADERSTYLE
350
1110
  3
CTABLESTYLE
350
162
  3
CVIEWDETAILSTYLE
350
1111
  3
CVIEWSECTIONSTYLE
350
1112
  3
DIMASSOC
350
163
  3
LAYEREVAL
350
1116
  3
LAYERNOTIFY
350
1117
  3
LIGHTINGUNITS
350
1115
  3
MSLTSCALE
350
1113
  3
PROJECTNAME
350
164
  3
XCLIPFRAME
350
1141
  0
XRECORD
  5
10C9
102
{ACAD_REACTORS
330
10C8
102
}
330
10C8
100
AcDbXrecord
280
     1
290
     1
  0
XRECORD
  5
10CB
102
{ACAD_REACTORS
330
10CA
102
}
330
10CA
100
AcDbXrecord
280
     1
290
     1
  0
XRECORD
  5
10CD
102
{ACAD_REACTORS
330
10CC
102
}
330
10CC
100
AcDbXrecord
280
     1
290
     1
  0
XRECORD
  5
10CF
102
{ACAD_REACTORS
330
10CE
102
}
330
10CE
100
AcDbXrecord
280
     1
290
     1
  0
XRECORD
  5
10D1
102
{ACAD_REACTORS
330
10D0
102
}
330
10D0
100
AcDbXrecord
280
     1
290
     1
  0
XRECORD
  5
10D3
102
{ACAD_REACTORS
330
10D2
102
}
330
10D2
100
AcDbXrecord
280
     1
290
     1
  0
XRECORD
  5
10D5
102
{ACAD_REACTORS
330
10D4
102
}
330
10D4
100
AcDbXrecord
280
     1
290
     1
  0
XRECORD
  5
10D7
102
{ACAD_REACTORS
330
10D6
102
}
330
10D6
100
AcDbXrecord
280
     1
290
     1
  0
XRECORD
  5
10D9
102
{ACAD_REACTORS
330
10D8
102
}
330
10D8
100
AcDbXrecord
280
     1
290
     1
  0
XRECORD
  5
10DB
102
{ACAD_REACTORS
330
10DA
102
}
330
10DA
100
AcDbXrecord
280
     1
290
     1
  0
SORTENTSTABLE
  5
1F6
102
{ACAD_REACTORS
330
1F5
102
}
330
1F5
100
AcDbSortentsTable
330
1F
331
49
  5
49
331
14A
  5
14A
331
DB
  5
DB
331
14C
  5
14C
331
4D
  5
4D
331
14E
  5
14E
331
DF
  5
DF
331
152
  5
155
331
224
  5
224
331
E5
  5
E5
331
156
  5
1F4
331
226
  5
226
331
CF
  5
CF
331
E9
  5
E9
331
D1
  5
D1
331
D3
  5
D3
331
D7
  5
D7
331
1F4
  5
152
331
42
  5
42
331
44
  5
44
331
46
  5
46
331
48
  5
48
331
D8
  5
D8
331
4A
  5
4A
331
14B
  5
14B
331
DC
  5
DC
331
4C
  5
4C
331
14D
  5
14D
331
E0
  5
E0
331
E2
  5
E2
331
155
  5
157
331
225
  5
225
331
E6
  5
E6
331
CE
  5
CE
331
157
  5
1F7
331
E8
  5
E8
331
D0
  5
D0
331
D2
  5
D2
331
D4
  5
D4
331
1F7
  5
151
331
41
  5
41
331
43
  5
43
331
47
  5
47
  0
XRECORD
  5
114B
102
{ACAD_REACTORS
330
114A
102
}
330
114A
100
AcDbXrecord
280
     1
 40
2020.0
  1
\U+2205A
  0
XRECORD
  5
1149
102
{ACAD_REACTORS
330
1148
102
}
330
1148
100
AcDbXrecord
280
     1
 40
2020.0
  1
\U+2205A
  0
XRECORD
  5
1146
102
{ACAD_REACTORS
330
1145
102
}
330
1145
100
AcDbXrecord
280
     1
 40
7259.0
  1
{\W1;\U+2205A}
  0
ACDBDETAILVIEWSTYLE
  5
10BC
102
{ACAD_XDICTIONARY
360
111F
102
}
102
{ACAD_REACTORS
330
10BB
102
}
330
10BB
100
AcDbModelDocViewStyle
 70
     0
  3
Metric50
290
     0
100
AcDbDetailViewStyle
 70
     0
 71
     0
 90
        3
 71
     1
340
11
 62
   256
 40
5.0
340
0
 62
   256
 40
5.0
300

 40
0.0
280
     1
 71
     2
340
16
 90
       25
 62
   256
 71
     3
340
11
 62
   256
 40
5.0
 90
        0
 40
15.0
 90
        1
300
%<\AcVar ViewDetailId>% (%<\AcVar ViewScale \f "%sn">%)
 71
     4
340
16
 90
       25
 62
   256
340
16
 90
       25
 62
   256
280
     0
  0
LAYOUT
  5
1E
102
{ACAD_REACTORS
330
1A
102
}
330
1A
100
AcDbPlotSettings
  1

  2

  4

  6

 40
0.0
 41
0.0
 42
0.0
 43
0.0
 44
0.0
 45
0.0
 46
0.0
 47
0.0
 48
0.0
 49
0.0
140
0.0
141
0.0
142
1.0
143
1.0
 70
   688
 72
     0
 73
     0
 74
     5
  7

 75
    16
147
1.0
 76
     0
 77
     2
 78
   300
148
0.0
149
0.0
100
AcDbLayout
  1
Layout1
 70
     1
 71
     1
 10
-247.2100037059508
 20
-63.73738705550861
 11
49.78999629404917
 21
146.2626129444914
 12
0.0
 22
0.0
 32
0.0
 14
1.000000000000000E+20
 24
1.000000000000000E+20
 34
1.000000000000000E+20
 15
-1.000000000000000E+20
 25
-1.000000000000000E+20
 35
-1.000000000000000E+20
146
0.0
 13
0.0
 23
0.0
 33
0.0
 16
1.0
 26
0.0
 36
0.0
 17
0.0
 27
1.0
 37
0.0
 76
     0
330
1B
  0
LAYOUT
  5
26
102
{ACAD_REACTORS
330
1A
102
}
330
1A
100
AcDbPlotSettings
  1

  2

  4

  6

 40
0.0
 41
0.0
 42
0.0
 43
0.0
 44
0.0
 45
0.0
 46
0.0
 47
0.0
 48
0.0
 49
0.0
140
0.0
141
0.0
142
1.0
143
1.0
 70
   688
 72
     0
 73
     0
 74
     5
  7

 75
    16
147
1.0
 76
     0
 77
     2
 78
   300
148
0.0
149
0.0
100
AcDbLayout
  1
Layout2
 70
     1
 71
     2
 10
0.0
 20
0.0
 11
0.0
 21
0.0
 12
0.0
 22
0.0
 32
0.0
 14
0.0
 24
0.0
 34
0.0
 15
0.0
 25
0.0
 35
0.0
146
0.0
 13
0.0
 23
0.0
 33
0.0
 16
1.0
 26
0.0
 36
0.0
 17
0.0
 27
1.0
 37
0.0
 76
     0
330
23
  0
LAYOUT
  5
22
102
{ACAD_REACTORS
330
1A
102
}
330
1A
100
AcDbPlotSettings
  1

  2
Adobe PDF
  4
A4
  6

 40
3.174999952316282
 41
3.174999952316282
 42
3.175003051757812
 43
3.17498779296875
 44
209.9733276367186
 45
297.0318298339844
 46
7.051149022578584
 47
7.073861730090527
 48
0.0
 49
0.0
140
0.0
141
0.0
142
1.0
143
1.0
 70
 11956
 72
     1
 73
     1
 74
     1
  7
monochrome.ctb
 75
    16
147
1.0
 76
     0
 77
     2
 78
   300
148
237.2263146483291
149
53.7462366525893
100
AcDbLayout
  1
Model
 70
     1
 71
     0
 10
-247.2100037059508
 20
-63.73738705550861
 11
49.78999629404917
 21
146.2626129444914
 12
0.0
 22
0.0
 32
0.0
 14
-247.2100037059508
 24
-63.73738705550861
 34
0.0
 15
49.78999629404917
 25
146.2626129444914
 35
0.0
146
0.0
 13
0.0
 23
0.0
 33
0.0
 16
1.0
 26
0.0
 36
0.0
 17
0.0
 27
1.0
 37
0.0
 76
     0
330
1F
331
1056
1001
ACAD_PSEXT
1000
Adobe PDF
1000
Adobe PDF Converter
1000
My Documents
1000

1070
     0
  0
MATERIAL
  5
107C
102
{ACAD_XDICTIONARY
360
107D
102
}
102
{ACAD_REACTORS
330
15A
102
}
330
15A
100
AcDbMaterial
  1
ByBlock
 72
     0
 43
0.0008202099737533
 43
0.0
 43
0.0
 43
0.0
 43
0.0
 43
0.0008202099737533
 43
0.0
 43
0.0
 43
0.0
 43
0.0
 43
1.0
 43
0.0
 43
0.0
 43
0.0
 43
0.0
 43
1.0
 77
     0
 47
0.0008202099737533
 47
0.0
 47
0.0
 47
0.0
 47
0.0
 47
0.0008202099737533
 47
0.0
 47
0.0
 47
0.0
 47
0.0
 47
1.0
 47
0.0
 47
0.0
 47
0.0
 47
0.0
 47
1.0
171
     0
 49
0.0008202099737533
 49
0.0
 49
0.0
 49
0.0
 49
0.0
 49
0.0008202099737533
 49
0.0
 49
0.0
 49
0.0
 49
0.0
 49
1.0
 49
0.0
 49
0.0
 49
0.0
 49
0.0
 49
1.0
175
     0
142
0.0008202099737533
142
0.0
142
0.0
142
0.0
142
0.0
142
0.0008202099737533
142
0.0
142
0.0
142
0.0
142
0.0
142
1.0
142
0.0
142
0.0
142
0.0
142
0.0
142
1.0
179
     0
144
0.0008202099737533
144
0.0
144
0.0
144
0.0
144
0.0
144
0.0008202099737533
144
0.0
144
0.0
144
0.0
144
0.0
144
1.0
144
0.0
144
0.0
144
0.0
144
0.0
144
1.0
147
0.0008202099737533
147
0.0
147
0.0
147
0.0
147
0.0
147
0.0008202099737533
147
0.0
147
0.0
147
0.0
147
0.0
147
1.0
147
0.0
147
0.0
147
0.0
147
0.0
147
1.0
  0
MATERIAL
  5
1074
102
{ACAD_XDICTIONARY
360
1075
102
}
102
{ACAD_REACTORS
330
15A
102
}
330
15A
100
AcDbMaterial
  1
ByLayer
 72
     0
 43
0.0008202099737533
 43
0.0
 43
0.0
 43
0.0
 43
0.0
 43
0.0008202099737533
 43
0.0
 43
0.0
 43
0.0
 43
0.0
 43
1.0
 43
0.0
 43
0.0
 43
0.0
 43
0.0
 43
1.0
 77
     0
 47
0.0008202099737533
 47
0.0
 47
0.0
 47
0.0
 47
0.0
 47
0.0008202099737533
 47
0.0
 47
0.0
 47
0.0
 47
0.0
 47
1.0
 47
0.0
 47
0.0
 47
0.0
 47
0.0
 47
1.0
171
     0
 49
0.0008202099737533
 49
0.0
 49
0.0
 49
0.0
 49
0.0
 49
0.0008202099737533
 49
0.0
 49
0.0
 49
0.0
 49
0.0
 49
1.0
 49
0.0
 49
0.0
 49
0.0
 49
0.0
 49
1.0
175
     0
142
0.0008202099737533
142
0.0
142
0.0
142
0.0
142
0.0
142
0.0008202099737533
142
0.0
142
0.0
142
0.0
142
0.0
142
1.0
142
0.0
142
0.0
142
0.0
142
0.0
142
1.0
179
     0
144
0.0008202099737533
144
0.0
144
0.0
144
0.0
144
0.0
144
0.0008202099737533
144
0.0
144
0.0
144
0.0
144
0.0
144
1.0
144
0.0
144
0.0
144
0.0
144
0.0
144
1.0
147
0.0008202099737533
147
0.0
147
0.0
147
0.0
147
0.0
147
0.0008202099737533
147
0.0
147
0.0
147
0.0
147
0.0
147
1.0
147
0.0
147
0.0
147
0.0
147
0.0
147
1.0
  0
MATERIAL
  5
1084
102
{ACAD_XDICTIONARY
360
1085
102
}
102
{ACAD_REACTORS
330
15A
102
}
330
15A
100
AcDbMaterial
  1
Global
 72
     0
 43
0.0008202099737533
 43
0.0
 43
0.0
 43
0.0
 43
0.0
 43
0.0008202099737533
 43
0.0
 43
0.0
 43
0.0
 43
0.0
 43
1.0
 43
0.0
 43
0.0
 43
0.0
 43
0.0
 43
1.0
 77
     0
 47
0.0008202099737533
 47
0.0
 47
0.0
 47
0.0
 47
0.0
 47
0.0008202099737533
 47
0.0
 47
0.0
 47
0.0
 47
0.0
 47
1.0
 47
0.0
 47
0.0
 47
0.0
 47
0.0
 47
1.0
171
     0
 49
0.0008202099737533
 49
0.0
 49
0.0
 49
0.0
 49
0.0
 49
0.0008202099737533
 49
0.0
 49
0.0
 49
0.0
 49
0.0
 49
1.0
 49
0.0
 49
0.0
 49
0.0
 49
0.0
 49
1.0
175
     0
142
0.0008202099737533
142
0.0
142
0.0
142
0.0
142
0.0
142
0.0008202099737533
142
0.0
142
0.0
142
0.0
142
0.0
142
1.0
142
0.0
142
0.0
142
0.0
142
0.0
142
1.0
179
     0
144
0.0008202099737533
144
0.0
144
0.0
144
0.0
144
0.0
144
0.0008202099737533
144
0.0
144
0.0
144
0.0
144
0.0
144
1.0
144
0.0
144
0.0
144
0.0
144
0.0
144
1.0
147
0.0008202099737533
147
0.0
147
0.0
147
0.0
147
0.0
147
0.0008202099737533
147
0.0
147
0.0
147
0.0
147
0.0
147
1.0
147
0.0
147
0.0
147
0.0
147
0.0
147
1.0
  0
MLEADERSTYLE
  5
10B8
102
{ACAD_REACTORS
330
10B7
102
}
330
10B7
100
AcDbMLeaderStyle
170
     2
171
     1
172
     0
 90
        2
 40
0.0
 41
0.0
173
     1
 91
-1056964608
340
14
 92
       -2
290
     1
 42
2.0
291
     1
 43
0.36
  3
Standard
 44
4.0
300

342
11
174
     1
178
     6
175
     1
176
     0
 93
-1056964608
 45
4.0
292
     0
297
     0
 46
4.0
 94
-1056964608
 47
1.0
 49
1.0
140
1.0
293
     1
141
0.0
294
     1
177
     0
142
1.0
295
     0
296
     0
143
0.125
1001
ACAD_MLEADERVER
1070
     2
  0
MLINESTYLE
  5
18
102
{ACAD_REACTORS
330
17
102
}
330
17
100
AcDbMlineStyle
  2
STANDARD
 70
     0
  3

 62
   256
 51
90.0
 52
90.0
 71
     2
 49
0.5
 62
   256
  6
BYLAYER
 49
-0.5
 62
   256
  6
BYLAYER
  0
PLOTSETTINGS
  5
FED
102
{ACAD_REACTORS
330
19
102
}
330
19
100
AcDbPlotSettings
  1
111
  2
RICOH IPSiO NX860e RPCS
  4
A4
  6

 40
5.873749732971191
 41
5.873747825622557
 42
5.873748779296875
 43
5.873748779296875
 44
209.9733276367186
 45
296.9259948730469
 46
1.382206344234629
 47
0.0
 48
0.0
 49
0.0
140
0.0
141
0.0
142
1.0
143
0.9696379639765943
 70
 11956
 72
     1
 73
     1
 74
     1
  7
monochrome.ctb
 75
     0
147
1.031312755019289
 76
     0
 77
     2
 78
   300
148
138.016006241122
149
94.51495291709916
1001
ACAD_PSEXT
1000
RICOH IPSiO NX860e RPCS
1000
RICOH IPSiO NX860e RPCS
1000
IP_192.168.110.192
1000
RPCS Driver (Windows 2000/XP/Server 2003/Vista)
1070
     0
  0
PLOTSETTINGS
  5
1138
102
{ACAD_REACTORS
330
19
102
}
330
19
100
AcDbPlotSettings
  1
セットアップ1
  2
DWG To PDF.pc3
  4
ISO_expand_A4_(297.00_x_210.00_MM)
  6

 40
5.793749809265136
 41
10.79374980926513
 42
5.79376220703125
 43
10.79374694824219
 44
297.0
 45
210.0
 46
5.249628829452802
 47
0.0
 48
-237.2100037059508
 49
-53.73738705550861
140
39.28999629404916
141
135.7626129444914
142
1.0
143
1.005771892728943
 70
 11956
 72
     1
 73
     0
 74
     4
  7
monochrome.ctb
 75
     0
147
0.9942612308310959
 76
     0
 77
     2
 78
   300
148
237.2100037059508
149
53.73738705550861
1001
ACAD_PSEXT
1000
DWG To PDF.pc3
1000
DWG To PDF
1000
ファイル
1000

1070
     0
  0
ACDBPLACEHOLDER
  5
F
102
{ACAD_REACTORS
330
E
102
}
330
E
  0
SCALE
  5
10A6
102
{ACAD_REACTORS
330
10A5
102
}
330
10A5
100
AcDbScale
 70
     0
300
1:1
140
1.0
141
1.0
290
     1
  0
SCALE
  5
10A7
102
{ACAD_REACTORS
330
10A5
102
}
330
10A5
100
AcDbScale
 70
     0
300
1:2
140
1.0
141
2.0
290
     0
  0
SCALE
  5
10A8
102
{ACAD_REACTORS
330
10A5
102
}
330
10A5
100
AcDbScale
 70
     0
300
1:4
140
1.0
141
4.0
290
     0
  0
SCALE
  5
10A9
102
{ACAD_REACTORS
330
10A5
102
}
330
10A5
100
AcDbScale
 70
     0
300
1:5
140
1.0
141
5.0
290
     0
  0
SCALE
  5
10AA
102
{ACAD_REACTORS
330
10A5
102
}
330
10A5
100
AcDbScale
 70
     0
300
1:8
140
1.0
141
8.0
290
     0
  0
SCALE
  5
10AB
102
{ACAD_REACTORS
330
10A5
102
}
330
10A5
100
AcDbScale
 70
     0
300
1:10
140
1.0
141
10.0
290
     0
  0
SCALE
  5
10AC
102
{ACAD_REACTORS
330
10A5
102
}
330
10A5
100
AcDbScale
 70
     0
300
1:16
140
1.0
141
16.0
290
     0
  0
SCALE
  5
10AD
102
{ACAD_REACTORS
330
10A5
102
}
330
10A5
100
AcDbScale
 70
     0
300
1:20
140
1.0
141
20.0
290
     0
  0
SCALE
  5
10AE
102
{ACAD_REACTORS
330
10A5
102
}
330
10A5
100
AcDbScale
 70
     0
300
1:30
140
1.0
141
30.0
290
     0
  0
SCALE
  5
10AF
102
{ACAD_REACTORS
330
10A5
102
}
330
10A5
100
AcDbScale
 70
     0
300
1:40
140
1.0
141
40.0
290
     0
  0
SCALE
  5
10B0
102
{ACAD_REACTORS
330
10A5
102
}
330
10A5
100
AcDbScale
 70
     0
300
1:50
140
1.0
141
50.0
290
     0
  0
SCALE
  5
10B1
102
{ACAD_REACTORS
330
10A5
102
}
330
10A5
100
AcDbScale
 70
     0
300
1:100
140
1.0
141
100.0
290
     0
  0
SCALE
  5
10B2
102
{ACAD_REACTORS
330
10A5
102
}
330
10A5
100
AcDbScale
 70
     0
300
2:1
140
2.0
141
1.0
290
     0
  0
SCALE
  5
10B3
102
{ACAD_REACTORS
330
10A5
102
}
330
10A5
100
AcDbScale
 70
     0
300
4:1
140
4.0
141
1.0
290
     0
  0
SCALE
  5
10B4
102
{ACAD_REACTORS
330
10A5
102
}
330
10A5
100
AcDbScale
 70
     0
300
8:1
140
8.0
141
1.0
290
     0
  0
SCALE
  5
10B5
102
{ACAD_REACTORS
330
10A5
102
}
330
10A5
100
AcDbScale
 70
     0
300
10:1
140
10.0
141
1.0
290
     0
  0
SCALE
  5
10B6
102
{ACAD_REACTORS
330
10A5
102
}
330
10A5
100
AcDbScale
 70
     0
300
100:1
140
100.0
141
1.0
290
     0
  0
ACDBSECTIONVIEWSTYLE
  5
10BA
102
{ACAD_XDICTIONARY
360
111D
102
}
102
{ACAD_REACTORS
330
10B9
102
}
330
10B9
100
AcDbModelDocViewStyle
 70
     0
  3
Metric50
290
     0
100
AcDbSectionViewStyle
 70
     0
 71
     0
 90
      102
 71
     1
340
11
 62
   256
 40
5.0
340
0
340
0
 62
   256
 40
5.0
300
I, O, Q, S, X, Z
 40
10.0
 90
        0
 40
2.5
 90
        0
 71
     2
340
16
 90
       25
 62
   256
340
16
 90
       50
 62
   256
 40
5.0
 40
2.5
 40
5.0
 71
     3
340
11
 62
   256
 40
5.0
 90
        0
 40
15.0
 90
        1
300
%<\AcVar ViewSectionStartId>%-%<\AcVar ViewSectionEndId>% (%<\AcVar ViewScale \f "%sn">%)
 71
     4
 62
   256
 62
   257
300
ANSI31
 40
1.0
 90
        0
290
     0
290
     0
 90
        6
 40
0.0
 40
1.570796326794896
 40
0.2617993877991494
 40
1.308996938995747
 40
-0.2617993877991494
 40
1.832595714594046
  0
TABLESTYLE
  5
15D
102
{ACAD_XDICTIONARY
360
1142
102
}
102
{ACAD_REACTORS
330
15C
102
}
330
15C
100
AcDbTableStyle
  3
Standard
 70
     0
 71
     0
 40
1.5
 41
1.5
280
     0
281
     0
  7
Standard
140
4.5
170
     2
 62
     0
 63
     7
283
     0
274
    -2
284
     1
 64
     0
275
    -2
285
     1
 65
     0
276
    -2
286
     1
 66
     0
277
    -2
287
     1
 67
     0
278
    -2
288
     1
 68
     0
279
    -2
289
     1
 69
     0
  7
Standard
140
6.0
170
     5
 62
     0
 63
     7
283
     0
274
    -2
284
     1
 64
     0
275
    -2
285
     1
 65
     0
276
    -2
286
     1
 66
     0
277
    -2
287
     1
 67
     0
278
    -2
288
     1
 68
     0
279
    -2
289
     1
 69
     0
  7
Standard
140
4.5
170
     5
 62
     0
 63
     7
283
     0
274
    -2
284
     1
 64
     0
275
    -2
285
     1
 65
     0
276
    -2
286
     1
 66
     0
277
    -2
287
     1
 67
     0
278
    -2
288
     1
 68
     0
279
    -2
289
     1
 69
     0
  0
VISUALSTYLE
  5
1092
102
{ACAD_XDICTIONARY
360
1159
102
}
102
{ACAD_REACTORS
330
108C
102
}
330
108C
100
AcDbVisualStyle
  2
2dWireframe
 70
     4
 71
     0
 72
     2
 73
     0
 90
        0
 40
-0.6
 41
-30.0
 62
     5
 63
     7
421
 16777215
 74
     1
 91
        4
 64
     7
 65
   257
 75
     1
175
     1
 42
1.0
 92
        0
 66
   257
 43
1.0
 76
     1
 77
     6
 78
     2
 67
     7
 79
     5
170
     0
171
     0
290
     0
174
     0
 93
        1
 44
0.0
173
     0
291
     0
 45
0.0
1001
ACAD
1000
AcDbSavedByObjectVersion
1070
     0
  0
VISUALSTYLE
  5
1091
102
{ACAD_XDICTIONARY
360
1157
102
}
102
{ACAD_REACTORS
330
108C
102
}
330
108C
100
AcDbVisualStyle
  2
Basic
 70
     7
 71
     1
 72
     0
 73
     1
 90
        0
 40
-0.6
 41
-30.0
 62
     5
 63
     7
421
 16777215
 74
     0
 91
        4
 64
     7
 65
   257
 75
     1
175
     1
 42
1.0
 92
        8
 66
     7
 43
1.0
 76
     1
 77
     6
 78
     2
 67
     7
 79
     5
170
     0
171
     0
290
     0
174
     0
 93
        1
 44
0.0
173
     0
291
     1
 45
0.0
1001
ACAD
1000
AcDbSavedByObjectVersion
1070
     0
  0
VISUALSTYLE
  5
1098
102
{ACAD_XDICTIONARY
360
1165
102
}
102
{ACAD_REACTORS
330
108C
102
}
330
108C
100
AcDbVisualStyle
  2
Brighten
 70
    12
 71
     2
 72
     2
 73
     0
 90
        0
 40
-0.6
 41
-30.0
 62
     5
 63
     7
421
 16777215
 74
     1
 91
        4
 64
     7
 65
   257
 75
     1
175
     1
 42
1.0
 92
        8
 66
     7
 43
1.0
 76
     1
 77
     6
 78
     2
 67
     7
 79
     5
170
     0
171
     0
290
     0
174
     0
 93
        1
 44
50.0
173
     0
291
     1
 45
0.0
1001
ACAD
1000
AcDbSavedByObjectVersion
1070
     0
  0
VISUALSTYLE
  5
109C
102
{ACAD_XDICTIONARY
360
116D
102
}
102
{ACAD_REACTORS
330
108C
102
}
330
108C
100
AcDbVisualStyle
  2
ColorChange
 70
    16
 71
     2
 72
     2
 73
     3
 90
        0
 40
-0.6
 41
-30.0
 62
     5
 63
     8
421
  8421504
 74
     1
 91
        4
 64
     7
 65
   257
 75
     1
175
     1
 42
1.0
 92
        8
 66
     8
424
  8421504
 43
1.0
 76
     1
 77
     6
 78
     2
 67
     7
 79
     5
170
     0
171
     0
290
     0
174
     0
 93
        1
 44
0.0
173
     0
291
     1
 45
0.0
1001
ACAD
1000
AcDbSavedByObjectVersion
1070
     0
  0
VISUALSTYLE
  5
1095
102
{ACAD_XDICTIONARY
360
115F
102
}
102
{ACAD_REACTORS
330
108C
102
}
330
108C
100
AcDbVisualStyle
  2
Conceptual
 70
     9
 71
     3
 72
     2
 73
     0
 90
        0
 40
-0.6
 41
-30.0
 62
     5
 63
     7
421
 16777215
 74
     2
 91
        2
 64
     7
 65
   257
 75
     1
175
     1
 42
179.0
 92
        8
 66
     7
 43
1.0
 76
     1
 77
     6
 78
     2
 67
     7
 79
     3
170
     0
171
     0
290
     0
174
     0
 93
        1
 44
0.0
173
     0
291
     0
 45
0.0
1001
ACAD
1000
AcDbSavedByObjectVersion
1070
     0
  0
VISUALSTYLE
  5
1097
102
{ACAD_XDICTIONARY
360
1163
102
}
102
{ACAD_REACTORS
330
108C
102
}
330
108C
100
AcDbVisualStyle
  2
Dim
 70
    11
 71
     2
 72
     2
 73
     0
 90
        0
 40
-0.6
 41
-30.0
 62
     5
 63
     7
421
 16777215
 74
     1
 91
        4
 64
     7
 65
   257
 75
     1
175
     1
 42
1.0
 92
        8
 66
     7
 43
1.0
 76
     1
 77
     6
 78
     2
 67
     7
 79
     5
170
     0
171
     0
290
     0
174
     0
 93
        1
 44
-50.0
173
     0
291
     1
 45
0.0
1001
ACAD
1000
AcDbSavedByObjectVersion
1070
     0
  0
VISUALSTYLE
  5
10A4
102
{ACAD_XDICTIONARY
360
117D
102
}
102
{ACAD_REACTORS
330
108C
102
}
330
108C
100
AcDbVisualStyle
  2
EdgeColorOff
 70
    22
 71
     2
 72
     2
 73
     0
 90
        0
 40
-0.6
 41
-30.0
 62
     5
 63
     7
421
 16777215
 74
     1
 91
        4
 64
     7
 65
   257
 75
     1
175
     1
 42
1.0
 92
        8
 66
     7
 43
1.0
 76
     1
 77
     6
 78
     2
 67
     7
 79
     5
170
     0
171
     0
290
     0
174
     0
 93
        1
 44
0.0
173
     0
291
     1
 45
0.0
1001
ACAD
1000
AcDbSavedByObjectVersion
1070
     0
  0
VISUALSTYLE
  5
109B
102
{ACAD_XDICTIONARY
360
116B
102
}
102
{ACAD_REACTORS
330
108C
102
}
330
108C
100
AcDbVisualStyle
  2
Facepattern
 70
    15
 71
     2
 72
     2
 73
     0
 90
        0
 40
-0.6
 41
-30.0
 62
     5
 63
     7
421
 16777215
 74
     1
 91
        4
 64
     7
 65
   257
 75
     1
175
     1
 42
1.0
 92
        8
 66
     7
 43
1.0
 76
     1
 77
     6
 78
     2
 67
     7
 79
     5
170
     0
171
     0
290
     0
174
     0
 93
        1
 44
0.0
173
     0
291
     1
 45
0.0
1001
ACAD
1000
AcDbSavedByObjectVersion
1070
     0
  0
VISUALSTYLE
  5
108D
102
{ACAD_XDICTIONARY
360
114F
102
}
102
{ACAD_REACTORS
330
108C
102
}
330
108C
100
AcDbVisualStyle
  2
Flat
 70
     0
 71
     2
 72
     1
 73
     1
 90
        2
 40
-0.6
 41
30.0
 62
     5
 63
     7
421
 16777215
 74
     0
 91
        0
 64
     7
 65
   257
 75
     1
175
     1
 42
1.0
 92
        8
 66
     7
 43
1.0
 76
     1
 77
     6
 78
     2
 67
     7
 79
     5
170
     0
171
     0
290
     0
174
     0
 93
       13
 44
0.0
173
     0
291
     1
 45
0.0
1001
ACAD
1000
AcDbSavedByObjectVersion
1070
     0
  0
VISUALSTYLE
  5
108E
102
{ACAD_XDICTIONARY
360
1151
102
}
102
{ACAD_REACTORS
330
108C
102
}
330
108C
100
AcDbVisualStyle
  2
FlatWithEdges
 70
     1
 71
     2
 72
     1
 73
     1
 90
        2
 40
-0.6
 41
30.0
 62
     5
 63
     7
421
 16777215
 74
     1
 91
        0
 64
     7
 65
   257
 75
     1
175
     1
 42
1.0
 92
        0
 66
   257
 43
1.0
 76
     1
 77
     6
 78
     2
 67
     7
 79
     5
170
     0
171
     0
290
     0
174
     0
 93
       13
 44
0.0
173
     0
291
     1
 45
0.0
1001
ACAD
1000
AcDbSavedByObjectVersion
1070
     0
  0
VISUALSTYLE
  5
108F
102
{ACAD_XDICTIONARY
360
1153
102
}
102
{ACAD_REACTORS
330
108C
102
}
330
108C
100
AcDbVisualStyle
  2
Gouraud
 70
     2
 71
     2
 72
     2
 73
     1
 90
        2
 40
-0.6
 41
30.0
 62
     5
 63
     7
421
 16777215
 74
     0
 91
        0
 64
     7
 65
   257
 75
     1
175
     1
 42
1.0
 92
        0
 66
     7
 43
1.0
 76
     1
 77
     6
 78
     2
 67
     7
 79
     5
170
     0
171
     0
290
     0
174
     0
 93
       13
 44
0.0
173
     0
291
     1
 45
0.0
1001
ACAD
1000
AcDbSavedByObjectVersion
1070
     0
  0
VISUALSTYLE
  5
1090
102
{ACAD_XDICTIONARY
360
1155
102
}
102
{ACAD_REACTORS
330
108C
102
}
330
108C
100
AcDbVisualStyle
  2
GouraudWithEdges
 70
     3
 71
     2
 72
     2
 73
     1
 90
        2
 40
-0.6
 41
30.0
 62
     5
 63
     7
421
 16777215
 74
     1
 91
        0
 64
     7
 65
   257
 75
     1
175
     1
 42
1.0
 92
        0
 66
   257
 43
1.0
 76
     1
 77
     6
 78
     2
 67
     7
 79
     5
170
     0
171
     0
290
     0
174
     0
 93
       13
 44
0.0
173
     0
291
     1
 45
0.0
1001
ACAD
1000
AcDbSavedByObjectVersion
1070
     0
  0
VISUALSTYLE
  5
1094
102
{ACAD_XDICTIONARY
360
115D
102
}
102
{ACAD_REACTORS
330
108C
102
}
330
108C
100
AcDbVisualStyle
  2
Hidden
 70
     6
 71
     1
 72
     2
 73
     2
 90
        0
 40
-0.6
 41
-30.0
 62
     5
 63
     7
421
 16777215
 74
     2
 91
        2
 64
     7
 65
   257
 75
     2
175
     1
 42
40.0
 92
        0
 66
   257
 43
1.0
 76
     1
 77
     6
 78
     2
 67
     7
 79
     3
170
     0
171
     0
290
     0
174
     0
 93
        1
 44
0.0
173
     0
291
     0
 45
0.0
1001
ACAD
1000
AcDbSavedByObjectVersion
1070
     0
  0
VISUALSTYLE
  5
10A2
102
{ACAD_XDICTIONARY
360
1179
102
}
102
{ACAD_REACTORS
330
108C
102
}
330
108C
100
AcDbVisualStyle
  2
JitterOff
 70
    20
 71
     2
 72
     2
 73
     0
 90
        0
 40
-0.6
 41
-30.0
 62
     5
 63
     7
421
 16777215
 74
     1
 91
        4
 64
     7
 65
   257
 75
     1
175
     1
 42
1.0
 92
       10
 66
     7
 43
1.0
 76
     1
 77
     6
 78
     2
 67
     7
 79
     5
170
     0
171
     0
290
     0
174
     0
 93
        1
 44
0.0
173
     0
291
     1
 45
0.0
1001
ACAD
1000
AcDbSavedByObjectVersion
1070
     0
  0
VISUALSTYLE
  5
109A
102
{ACAD_XDICTIONARY
360
1169
102
}
102
{ACAD_REACTORS
330
108C
102
}
330
108C
100
AcDbVisualStyle
  2
Linepattern
 70
    14
 71
     2
 72
     2
 73
     0
 90
        0
 40
-0.6
 41
-30.0
 62
     5
 63
     7
421
 16777215
 74
     1
 91
        4
 64
     7
 65
   257
 75
     7
175
     7
 42
1.0
 92
        8
 66
     7
 43
1.0
 76
     1
 77
     6
 78
     2
 67
     7
 79
     5
170
     0
171
     0
290
     0
174
     0
 93
        1
 44
0.0
173
     0
291
     1
 45
0.0
1001
ACAD
1000
AcDbSavedByObjectVersion
1070
     0
  0
VISUALSTYLE
  5
10A3
102
{ACAD_XDICTIONARY
360
117B
102
}
102
{ACAD_REACTORS
330
108C
102
}
330
108C
100
AcDbVisualStyle
  2
OverhangOff
 70
    21
 71
     2
 72
     2
 73
     0
 90
        0
 40
-0.6
 41
-30.0
 62
     5
 63
     7
421
 16777215
 74
     1
 91
        4
 64
     7
 65
   257
 75
     1
175
     1
 42
1.0
 92
        9
 66
     7
 43
1.0
 76
     1
 77
     6
 78
     2
 67
     7
 79
     5
170
     0
171
     0
290
     0
174
     0
 93
        1
 44
0.0
173
     0
291
     1
 45
0.0
1001
ACAD
1000
AcDbSavedByObjectVersion
1070
     0
  0
VISUALSTYLE
  5
1096
102
{ACAD_XDICTIONARY
360
1161
102
}
102
{ACAD_REACTORS
330
108C
102
}
330
108C
100
AcDbVisualStyle
  2
Realistic
 70
     8
 71
     2
 72
     3
 73
     0
 90
        2
 40
-0.6
 41
30.0
 62
     5
 63
     7
421
 16777215
 74
     0
 91
        0
 64
     7
 65
   257
 75
     1
175
     1
 42
1.0
 92
        8
 66
   257
 43
1.0
 76
     1
 77
     6
 78
     2
 67
     7
 79
     3
170
     0
171
     0
290
     0
174
     0
 93
       13
 44
0.0
173
     0
291
     0
 45
0.0
1001
ACAD
1000
AcDbSavedByObjectVersion
1070
     0
  0
VISUALSTYLE
  5
10A1
102
{ACAD_XDICTIONARY
360
1177
102
}
102
{ACAD_REACTORS
330
108C
102
}
330
108C
100
AcDbVisualStyle
  2
Shaded
 70
    27
 71
     2
 72
     2
 73
     1
 90
        2
 40
-0.6
 41
30.0
 62
     5
 63
     7
421
 16777215
 74
     0
 91
        4
 64
     7
 65
   257
 75
     1
175
     1
 42
1.0
 92
        8
 66
   257
 43
1.0
 76
     1
 77
     6
 78
     2
 67
     8
425
  7895160
 79
     3
170
     0
171
     0
290
     0
174
     0
 93
        5
 44
0.0
173
     0
291
     0
 45
0.0
1001
ACAD
1000
AcDbSavedByObjectVersion
1070
     0
  0
VISUALSTYLE
  5
10A0
102
{ACAD_XDICTIONARY
360
1175
102
}
102
{ACAD_REACTORS
330
108C
102
}
330
108C
100
AcDbVisualStyle
  2
Shaded with edges
 70
    26
 71
     2
 72
     2
 73
     1
 90
        2
 40
-0.6
 41
30.0
 62
     5
 63
     7
421
 16777215
 74
     1
 91
       10
 64
     7
 65
   257
 75
     2
175
     1
 42
1.0
 92
        8
 66
   257
 43
1.0
 76
     1
 77
     6
 78
     2
 67
     7
 79
     3
170
     0
171
     0
290
     0
174
     0
 93
        5
 44
0.0
173
     0
291
     0
 45
0.0
1001
ACAD
1000
AcDbSavedByObjectVersion
1070
     0
  0
VISUALSTYLE
  5
109D
102
{ACAD_XDICTIONARY
360
116F
102
}
102
{ACAD_REACTORS
330
108C
102
}
330
108C
100
AcDbVisualStyle
  2
Shades of Gray
 70
    23
 71
     2
 72
     2
 73
     3
 90
        0
 40
-0.6
 41
-30.0
 62
     5
 63
     7
421
 16777215
 74
     2
 91
        2
 64
     7
 65
     7
 75
     1
175
     1
 42
40.0
 92
        8
 66
     7
 43
1.0
 76
     1
 77
     6
 78
     2
 67
     7
 79
     3
170
     0
171
     0
290
     0
174
     0
 93
        1
 44
0.0
173
     0
291
     0
 45
0.0
1001
ACAD
1000
AcDbSavedByObjectVersion
1070
     0
  0
VISUALSTYLE
  5
109E
102
{ACAD_XDICTIONARY
360
1171
102
}
102
{ACAD_REACTORS
330
108C
102
}
330
108C
100
AcDbVisualStyle
  2
Sketchy
 70
    24
 71
     1
 72
     2
 73
     2
 90
        0
 40
-0.6
 41
-30.0
 62
     5
 63
     7
421
 16777215
 74
     2
 91
        2
 64
     7
 65
     7
 75
     1
175
     1
 42
40.0
 92
       11
 66
     7
 43
1.0
 76
     1
 77
     6
 78
     2
 67
     7
 79
     6
170
     0
171
     0
290
     0
174
     0
 93
        1
 44
0.0
173
     0
291
     0
 45
0.0
1001
ACAD
1000
AcDbSavedByObjectVersion
1070
     0
  0
VISUALSTYLE
  5
1099
102
{ACAD_XDICTIONARY
360
1167
102
}
102
{ACAD_REACTORS
330
108C
102
}
330
108C
100
AcDbVisualStyle
  2
Thicken
 70
    13
 71
     2
 72
     2
 73
     0
 90
        0
 40
-0.6
 41
-30.0
 62
     5
 63
     7
421
 16777215
 74
     1
 91
        4
 64
     7
 65
   257
 75
     1
175
     1
 42
1.0
 92
       12
 66
     7
 43
1.0
 76
     1
 77
     6
 78
     2
 67
     7
 79
     5
170
     0
171
     0
290
     0
174
     0
 93
        1
 44
0.0
173
     0
291
     1
 45
0.0
1001
ACAD
1000
AcDbSavedByObjectVersion
1070
     0
  0
VISUALSTYLE
  5
1093
102
{ACAD_XDICTIONARY
360
115B
102
}
102
{ACAD_REACTORS
330
108C
102
}
330
108C
100
AcDbVisualStyle
  2
Wireframe
 70
     5
 71
     0
 72
     2
 73
     0
 90
        0
 40
-0.6
 41
-30.0
 62
     5
 63
     7
421
 16777215
 74
     1
 91
        4
 64
     7
 65
   257
 75
     1
175
     1
 42
1.0
 92
        0
 66
   257
 43
1.0
 76
     1
 77
     6
 78
     2
 67
     7
 79
     3
170
     0
171
     0
290
     0
174
     0
 93
        1
 44
0.0
173
     0
291
     0
 45
0.0
1001
ACAD
1000
AcDbSavedByObjectVersion
1070
     0
  0
VISUALSTYLE
  5
109F
102
{ACAD_XDICTIONARY
360
1173
102
}
102
{ACAD_REACTORS
330
108C
102
}
330
108C
100
AcDbVisualStyle
  2
X-Ray
 70
    25
 71
     2
 72
     2
 73
     1
 90
        1
 40
0.5
 41
-30.0
 62
     5
 63
     7
421
 16777215
 74
     1
 91
        0
 64
     7
 65
   257
 75
     1
175
     1
 42
1.0
 92
        8
 66
     7
 43
1.0
 76
     1
 77
     6
 78
     2
 67
     7
 79
     3
170
     0
171
     0
290
     0
174
     0
 93
       13
 44
0.0
173
     0
291
     0
 45
0.0
1001
ACAD
1000
AcDbSavedByObjectVersion
1070
     0
  0
DICTIONARYVAR
  5
1114
102
{ACAD_REACTORS
330
161
102
}
330
161
100
DictionaryVariables
280
     0
  1
1:1
  0
DICTIONARYVAR
  5
1110
102
{ACAD_REACTORS
330
161
102
}
330
161
100
DictionaryVariables
280
     0
  1
STANDARD
  0
DICTIONARYVAR
  5
162
102
{ACAD_REACTORS
330
161
102
}
330
161
100
DictionaryVariables
280
     0
  1
STANDARD
  0
DICTIONARYVAR
  5
1111
102
{ACAD_REACTORS
330
161
102
}
330
161
100
DictionaryVariables
280
     0
  1
Metric50
  0
DICTIONARYVAR
  5
1112
102
{ACAD_REACTORS
330
161
102
}
330
161
100
DictionaryVariables
280
     0
  1
Metric50
  0
DICTIONARYVAR
  5
163
102
{ACAD_REACTORS
330
161
102
}
330
161
100
DictionaryVariables
280
     0
  1
1
  0
DICTIONARYVAR
  5
1116
102
{ACAD_REACTORS
330
161
102
}
330
161
100
DictionaryVariables
280
     0
  1
1
  0
DICTIONARYVAR
  5
1117
102
{ACAD_REACTORS
330
161
102
}
330
161
100
DictionaryVariables
280
     0
  1
15
  0
DICTIONARYVAR
  5
1115
102
{ACAD_REACTORS
330
161
102
}
330
161
100
DictionaryVariables
280
     0
  1
0
  0
DICTIONARYVAR
  5
1113
102
{ACAD_REACTORS
330
161
102
}
330
161
100
DictionaryVariables
280
     0
  1
0
  0
DICTIONARYVAR
  5
164
102
{ACAD_REACTORS
330
161
102
}
330
161
100
DictionaryVariables
280
     0
  1

  0
DICTIONARYVAR
  5
1141
102
{ACAD_REACTORS
330
161
102
}
330
161
100
DictionaryVariables
280
     0
  1
2
  0
DICTIONARY
  5
111F
330
10BC
100
AcDbDictionary
280
     1
281
     1
  3
ACAD_XREC_ROUNDTRIP
360
1181
  0
DICTIONARY
  5
107D
330
107C
100
AcDbDictionary
280
     1
281
     1
  3
ACAD_XREC_ROUNDTRIP
360
114D
  3
BUMPTILE
360
107F
  3
DIFFUSETILE
360
107E
  3
OPACITYTILE
360
1082
  3
REFLECTIONTILE
360
1081
  3
REFRACTIONTILE
360
1083
  3
SPECULARTILE
360
1080
  0
DICTIONARY
  5
1075
330
1074
100
AcDbDictionary
280
     1
281
     1
  3
ACAD_XREC_ROUNDTRIP
360
114C
  3
BUMPTILE
360
1077
  3
DIFFUSETILE
360
1076
  3
OPACITYTILE
360
107A
  3
REFLECTIONTILE
360
1079
  3
REFRACTIONTILE
360
107B
  3
SPECULARTILE
360
1078
  0
DICTIONARY
  5
1085
330
1084
100
AcDbDictionary
280
     1
281
     1
  3
ACAD_XREC_ROUNDTRIP
360
114E
  3
BUMPTILE
360
1087
  3
DIFFUSETILE
360
1086
  3
OPACITYTILE
360
108A
  3
REFLECTIONTILE
360
1089
  3
REFRACTIONTILE
360
108B
  3
SPECULARTILE
360
1088
  0
DICTIONARY
  5
111D
330
10BA
100
AcDbDictionary
280
     1
281
     1
  3
ACAD_XREC_ROUNDTRIP
360
1180
  0
DICTIONARY
  5
1142
330
15D
100
AcDbDictionary
280
     1
281
     1
  3
ACAD_ROUNDTRIP_2008_TABLESTYLE_CELLSTYLEMAP
360
1143
  3
ACAD_XREC_ROUNDTRIP
360
1147
  0
DICTIONARY
  5
1159
330
1092
100
AcDbDictionary
280
     1
281
     1
  3
ACAD_XREC_ROUNDTRIP
360
115A
  0
DICTIONARY
  5
1157
330
1091
100
AcDbDictionary
280
     1
281
     1
  3
ACAD_XREC_ROUNDTRIP
360
1158
  0
DICTIONARY
  5
1165
330
1098
100
AcDbDictionary
280
     1
281
     1
  3
ACAD_XREC_ROUNDTRIP
360
1166
  0
DICTIONARY
  5
116D
330
109C
100
AcDbDictionary
280
     1
281
     1
  3
ACAD_XREC_ROUNDTRIP
360
116E
  0
DICTIONARY
  5
115F
330
1095
100
AcDbDictionary
280
     1
281
     1
  3
ACAD_XREC_ROUNDTRIP
360
1160
  0
DICTIONARY
  5
1163
330
1097
100
AcDbDictionary
280
     1
281
     1
  3
ACAD_XREC_ROUNDTRIP
360
1164
  0
DICTIONARY
  5
117D
330
10A4
100
AcDbDictionary
280
     1
281
     1
  3
ACAD_XREC_ROUNDTRIP
360
117E
  0
DICTIONARY
  5
116B
330
109B
100
AcDbDictionary
280
     1
281
     1
  3
ACAD_XREC_ROUNDTRIP
360
116C
  0
DICTIONARY
  5
114F
330
108D
100
AcDbDictionary
280
     1
281
     1
  3
ACAD_XREC_ROUNDTRIP
360
1150
  0
DICTIONARY
  5
1151
330
108E
100
AcDbDictionary
280
     1
281
     1
  3
ACAD_XREC_ROUNDTRIP
360
1152
  0
DICTIONARY
  5
1153
330
108F
100
AcDbDictionary
280
     1
281
     1
  3
ACAD_XREC_ROUNDTRIP
360
1154
  0
DICTIONARY
  5
1155
330
1090
100
AcDbDictionary
280
     1
281
     1
  3
ACAD_XREC_ROUNDTRIP
360
1156
  0
DICTIONARY
  5
115D
330
1094
100
AcDbDictionary
280
     1
281
     1
  3
ACAD_XREC_ROUNDTRIP
360
115E
  0
DICTIONARY
  5
1179
330
10A2
100
AcDbDictionary
280
     1
281
     1
  3
ACAD_XREC_ROUNDTRIP
360
117A
  0
DICTIONARY
  5
1169
330
109A
100
AcDbDictionary
280
     1
281
     1
  3
ACAD_XREC_ROUNDTRIP
360
116A
  0
DICTIONARY
  5
117B
330
10A3
100
AcDbDictionary
280
     1
281
     1
  3
ACAD_XREC_ROUNDTRIP
360
117C
  0
DICTIONARY
  5
1161
330
1096
100
AcDbDictionary
280
     1
281
     1
  3
ACAD_XREC_ROUNDTRIP
360
1162
  0
DICTIONARY
  5
1177
330
10A1
100
AcDbDictionary
280
     1
281
     1
  3
ACAD_XREC_ROUNDTRIP
360
1178
  0
DICTIONARY
  5
1175
330
10A0
100
AcDbDictionary
280
     1
281
     1
  3
ACAD_XREC_ROUNDTRIP
360
1176
  0
DICTIONARY
  5
116F
330
109D
100
AcDbDictionary
280
     1
281
     1
  3
ACAD_XREC_ROUNDTRIP
360
1170
  0
DICTIONARY
  5
1171
330
109E
100
AcDbDictionary
280
     1
281
     1
  3
ACAD_XREC_ROUNDTRIP
360
1172
  0
DICTIONARY
  5
1167
330
1099
100
AcDbDictionary
280
     1
281
     1
  3
ACAD_XREC_ROUNDTRIP
360
1168
  0
DICTIONARY
  5
115B
330
1093
100
AcDbDictionary
280
     1
281
     1
  3
ACAD_XREC_ROUNDTRIP
360
115C
  0
DICTIONARY
  5
1173
330
109F
100
AcDbDictionary
280
     1
281
     1
  3
ACAD_XREC_ROUNDTRIP
360
1174
  0
XRECORD
  5
1181
102
{ACAD_REACTORS
330
111F
102
}
330
111F
100
AcDbXrecord
280
     1
102
DISPLAYNAME
  1
Metric50
102
FLAGS
 90
        0
  0
XRECORD
  5
114D
102
{ACAD_REACTORS
330
107D
102
}
330
107D
100
AcDbXrecord
280
     1
102
MATERIAL
148
0.0
149
0.0
149
0.0
 93
        0
 94
      127
282
     0
 72
     0
 77
     0
171
     0
175
     0
179
     0
273
     0
  0
XRECORD
  5
107F
102
{ACAD_REACTORS
330
107D
102
}
330
107D
100
AcDbXrecord
280
     1
270
     1
271
     1
  0
XRECORD
  5
107E
102
{ACAD_REACTORS
330
107D
102
}
330
107D
100
AcDbXrecord
280
     1
270
     1
271
     1
  0
XRECORD
  5
1082
102
{ACAD_REACTORS
330
107D
102
}
330
107D
100
AcDbXrecord
280
     1
270
     1
271
     1
  0
XRECORD
  5
1081
102
{ACAD_REACTORS
330
107D
102
}
330
107D
100
AcDbXrecord
280
     1
270
     1
271
     1
  0
XRECORD
  5
1083
102
{ACAD_REACTORS
330
107D
102
}
330
107D
100
AcDbXrecord
280
     1
270
     1
271
     1
  0
XRECORD
  5
1080
102
{ACAD_REACTORS
330
107D
102
}
330
107D
100
AcDbXrecord
280
     1
270
     1
271
     1
  0
XRECORD
  5
114C
102
{ACAD_REACTORS
330
1075
102
}
330
1075
100
AcDbXrecord
280
     1
102
MATERIAL
148
0.0
149
0.0
149
0.0
 93
        0
 94
      127
282
     0
 72
     0
 77
     0
171
     0
175
     0
179
     0
273
     0
  0
XRECORD
  5
1077
102
{ACAD_REACTORS
330
1075
102
}
330
1075
100
AcDbXrecord
280
     1
270
     1
271
     1
  0
XRECORD
  5
1076
102
{ACAD_REACTORS
330
1075
102
}
330
1075
100
AcDbXrecord
280
     1
270
     1
271
     1
  0
XRECORD
  5
107A
102
{ACAD_REACTORS
330
1075
102
}
330
1075
100
AcDbXrecord
280
     1
270
     1
271
     1
  0
XRECORD
  5
1079
102
{ACAD_REACTORS
330
1075
102
}
330
1075
100
AcDbXrecord
280
     1
270
     1
271
     1
  0
XRECORD
  5
107B
102
{ACAD_REACTORS
330
1075
102
}
330
1075
100
AcDbXrecord
280
     1
270
     1
271
     1
  0
XRECORD
  5
1078
102
{ACAD_REACTORS
330
1075
102
}
330
1075
100
AcDbXrecord
280
     1
270
     1
271
     1
  0
XRECORD
  5
114E
102
{ACAD_REACTORS
330
1085
102
}
330
1085
100
AcDbXrecord
280
     1
102
MATERIAL
148
0.0
149
0.0
149
0.0
 93
        0
 94
      127
282
     0
 72
     0
 77
     0
171
     0
175
     0
179
     0
273
     0
  0
XRECORD
  5
1087
102
{ACAD_REACTORS
330
1085
102
}
330
1085
100
AcDbXrecord
280
     1
270
     1
271
     1
  0
XRECORD
  5
1086
102
{ACAD_REACTORS
330
1085
102
}
330
1085
100
AcDbXrecord
280
     1
270
     1
271
     1
  0
XRECORD
  5
108A
102
{ACAD_REACTORS
330
1085
102
}
330
1085
100
AcDbXrecord
280
     1
270
     1
271
     1
  0
XRECORD
  5
1089
102
{ACAD_REACTORS
330
1085
102
}
330
1085
100
AcDbXrecord
280
     1
270
     1
271
     1
  0
XRECORD
  5
108B
102
{ACAD_REACTORS
330
1085
102
}
330
1085
100
AcDbXrecord
280
     1
270
     1
271
     1
  0
XRECORD
  5
1088
102
{ACAD_REACTORS
330
1085
102
}
330
1085
100
AcDbXrecord
280
     1
270
     1
271
     1
  0
XRECORD
  5
1180
102
{ACAD_REACTORS
330
111D
102
}
330
111D
100
AcDbXrecord
280
     1
102
DISPLAYNAME
  1
Metric50
102
FLAGS
 90
        0
  0
CELLSTYLEMAP
  5
1143
102
{ACAD_REACTORS
330
1142
102
}
330
1142
100
AcDbCellStyleMap
 90
        3
300
CELLSTYLE
  1
TABLEFORMAT_BEGIN
 90
        5
170
     1
 91
        0
 92
    32768
 62
   257
 93
        1
300
CONTENTFORMAT
  1
CONTENTFORMAT_BEGIN
 90
        0
 91
        0
 92
        4
 93
        0
300

 40
0.0
140
1.0
 94
        5
 62
     0
340
11
144
6.0
309
CONTENTFORMAT_END
171
     1
301
MARGIN
  1
CELLMARGIN_BEGIN
 40
1.5
 40
1.5
 40
1.5
 40
1.5
 40
0.18
 40
0.18
309
CELLMARGIN_END
 94
        6
 95
        1
302
GRIDFORMAT
  1
GRIDFORMAT_BEGIN
 90
        0
 91
        1
 62
     0
 92
       -2
340
0
 93
        0
 40
0.045
309
GRIDFORMAT_END
 95
        2
302
GRIDFORMAT
  1
GRIDFORMAT_BEGIN
 90
        0
 91
        1
 62
     0
 92
       -2
340
0
 93
        0
 40
0.045
309
GRIDFORMAT_END
 95
        4
302
GRIDFORMAT
  1
GRIDFORMAT_BEGIN
 90
        0
 91
        1
 62
     0
 92
       -2
340
0
 93
        0
 40
0.045
309
GRIDFORMAT_END
 95
        8
302
GRIDFORMAT
  1
GRIDFORMAT_BEGIN
 90
        0
 91
        1
 62
     0
 92
       -2
340
0
 93
        0
 40
0.045
309
GRIDFORMAT_END
 95
       16
302
GRIDFORMAT
  1
GRIDFORMAT_BEGIN
 90
        0
 91
        1
 62
     0
 92
       -2
340
0
 93
        0
 40
0.045
309
GRIDFORMAT_END
 95
       32
302
GRIDFORMAT
  1
GRIDFORMAT_BEGIN
 90
        0
 91
        1
 62
     0
 92
       -2
340
0
 93
        0
 40
0.045
309
GRIDFORMAT_END
309
TABLEFORMAT_END
  1
CELLSTYLE_BEGIN
 90
        1
 91
        1
300
_TITLE
309
CELLSTYLE_END
300
CELLSTYLE
  1
TABLEFORMAT_BEGIN
 90
        5
170
     1
 91
        0
 92
        0
 62
   257
 93
        1
300
CONTENTFORMAT
  1
CONTENTFORMAT_BEGIN
 90
        0
 91
        0
 92
        4
 93
        0
300

 40
0.0
140
1.0
 94
        5
 62
     0
340
11
144
4.5
309
CONTENTFORMAT_END
171
     1
301
MARGIN
  1
CELLMARGIN_BEGIN
 40
1.5
 40
1.5
 40
1.5
 40
1.5
 40
0.18
 40
0.18
309
CELLMARGIN_END
 94
        6
 95
        1
302
GRIDFORMAT
  1
GRIDFORMAT_BEGIN
 90
        0
 91
        1
 62
     0
 92
       -2
340
0
 93
        0
 40
0.045
309
GRIDFORMAT_END
 95
        2
302
GRIDFORMAT
  1
GRIDFORMAT_BEGIN
 90
        0
 91
        1
 62
     0
 92
       -2
340
0
 93
        0
 40
0.045
309
GRIDFORMAT_END
 95
        4
302
GRIDFORMAT
  1
GRIDFORMAT_BEGIN
 90
        0
 91
        1
 62
     0
 92
       -2
340
0
 93
        0
 40
0.045
309
GRIDFORMAT_END
 95
        8
302
GRIDFORMAT
  1
GRIDFORMAT_BEGIN
 90
        0
 91
        1
 62
     0
 92
       -2
340
0
 93
        0
 40
0.045
309
GRIDFORMAT_END
 95
       16
302
GRIDFORMAT
  1
GRIDFORMAT_BEGIN
 90
        0
 91
        1
 62
     0
 92
       -2
340
0
 93
        0
 40
0.045
309
GRIDFORMAT_END
 95
       32
302
GRIDFORMAT
  1
GRIDFORMAT_BEGIN
 90
        0
 91
        1
 62
     0
 92
       -2
340
0
 93
        0
 40
0.045
309
GRIDFORMAT_END
309
TABLEFORMAT_END
  1
CELLSTYLE_BEGIN
 90
        2
 91
        1
300
_HEADER
309
CELLSTYLE_END
300
CELLSTYLE
  1
TABLEFORMAT_BEGIN
 90
        5
170
     1
 91
        0
 92
        0
 62
   257
 93
        1
300
CONTENTFORMAT
  1
CONTENTFORMAT_BEGIN
 90
        0
 91
        0
 92
        4
 93
        0
300

 40
0.0
140
1.0
 94
        2
 62
     0
340
11
144
4.5
309
CONTENTFORMAT_END
171
     1
301
MARGIN
  1
CELLMARGIN_BEGIN
 40
1.5
 40
1.5
 40
1.5
 40
1.5
 40
0.18
 40
0.18
309
CELLMARGIN_END
 94
        6
 95
        1
302
GRIDFORMAT
  1
GRIDFORMAT_BEGIN
 90
        0
 91
        1
 62
     0
 92
       -2
340
0
 93
        0
 40
0.045
309
GRIDFORMAT_END
 95
        2
302
GRIDFORMAT
  1
GRIDFORMAT_BEGIN
 90
        0
 91
        1
 62
     0
 92
       -2
340
0
 93
        0
 40
0.045
309
GRIDFORMAT_END
 95
        4
302
GRIDFORMAT
  1
GRIDFORMAT_BEGIN
 90
        0
 91
        1
 62
     0
 92
       -2
340
0
 93
        0
 40
0.045
309
GRIDFORMAT_END
 95
        8
302
GRIDFORMAT
  1
GRIDFORMAT_BEGIN
 90
        0
 91
        1
 62
     0
 92
       -2
340
0
 93
        0
 40
0.045
309
GRIDFORMAT_END
 95
       16
302
GRIDFORMAT
  1
GRIDFORMAT_BEGIN
 90
        0
 91
        1
 62
     0
 92
       -2
340
0
 93
        0
 40
0.045
309
GRIDFORMAT_END
 95
       32
302
GRIDFORMAT
  1
GRIDFORMAT_BEGIN
 90
        0
 91
        1
 62
     0
 92
       -2
340
0
 93
        0
 40
0.045
309
GRIDFORMAT_END
309
TABLEFORMAT_END
  1
CELLSTYLE_BEGIN
 90
        3
 91
        2
300
_DATA
309
CELLSTYLE_END
  0
XRECORD
  5
1147
102
{ACAD_REACTORS
330
1142
102
}
330
1142
100
AcDbXrecord
280
     1
102
ACAD_ROUNDTRIP_PRE2007_TABLESTYLE
 90
        4
 91
        0
  1

 92
        4
 93
        0
  2

 94
        4
 95
        0
  3

  0
XRECORD
  5
115A
102
{ACAD_REACTORS
330
1159
102
}
330
1159
100
AcDbXrecord
280
     1
102
RTVSPost2010Prop28
280
     1
102
RTVSPost2010PropOp28
 70
     1
102
RTVSPost2010Prop29
280
     1
102
RTVSPost2010PropOp29
 70
     1
102
RTVSPost2010Prop30
280
     0
102
RTVSPost2010PropOp30
 70
     1
102
RTVSPost2010Prop31
280
     0
102
RTVSPost2010PropOp31
 70
     1
102
RTVSPost2010Prop32
280
     0
102
RTVSPost2010PropOp32
 70
     1
102
RTVSPost2010Prop33
280
     0
102
RTVSPost2010PropOp33
 70
     1
102
RTVSPost2010Prop34
280
     0
102
RTVSPost2010PropOp34
 70
     1
102
RTVSPost2010Prop35
280
     0
102
RTVSPost2010PropOp35
 70
     1
102
RTVSPost2010Prop36
280
     0
102
RTVSPost2010PropOp36
 70
     1
102
RTVSPost2010Prop37
 90
       50
102
RTVSPost2010PropOp37
 70
     1
102
RTVSPost2010Prop38
140
0.0
102
RTVSPost2010PropOp38
 70
     1
102
RTVSPost2010Prop39
140
1.0
102
RTVSPost2010PropOp39
 70
     1
102
RTVSPost2010Prop40
 90
        0
102
RTVSPost2010PropOp40
 70
     1
102
RTVSPost2010Prop41ColorIndex
 90
       18
102
RTVSPost2010Prop41ColorRGB
 90
        0
102
RTVSPost2010PropOp41
 70
     1
102
RTVSPost2010Prop42
 90
       50
102
RTVSPost2010PropOp42
 70
     1
102
RTVSPost2010Prop43
 90
        3
102
RTVSPost2010PropOp43
 70
     1
102
RTVSPost2010Prop44ColorIndex
 90
        5
102
RTVSPost2010Prop44ColorRGB
 90
      255
102
RTVSPost2010PropOp44
 70
     1
102
RTVSPost2010Prop45
280
     0
102
RTVSPost2010PropOp45
 70
     1
102
RTVSPost2010Prop46
 90
       50
102
RTVSPost2010PropOp46
 70
     1
102
RTVSPost2010Prop47
 90
       50
102
RTVSPost2010PropOp47
 70
     1
102
RTVSPost2010Prop48
 90
       50
102
RTVSPost2010PropOp48
 70
     1
102
RTVSPost2010Prop49
280
     0
102
RTVSPost2010PropOp49
 70
     1
102
RTVSPost2010Prop50
 90
       50
102
RTVSPost2010PropOp50
 70
     1
102
RTVSPost2010Prop51ColorIndex
 90
      256
102
RTVSPost2010Prop51ColorRGB
 90
-16777216
102
RTVSPost2010PropOp51
 70
     0
102
RTVSPost2010Prop52
140
1.0
102
RTVSPost2010PropOp52
 70
     0
102
RTVSPost2010Prop53
 90
        2
102
RTVSPost2010PropOp53
 70
     1
102
RTVSPost2010Prop54
  1
strokes_ogs.tif
102
RTVSPost2010PropOp54
 70
     1
102
RTVSPost2010Prop55
280
     0
102
RTVSPost2010PropOp55
 70
     1
102
RTVSPost2010Prop56
140
1.0
102
RTVSPost2010PropOp56
 70
     1
102
RTVSPost2010Prop57
140
1.0
102
RTVSPost2010PropOp57
 70
     1
102
RTVSPropertyOp0
 70
     1
102
RTVSPropertyOp1
 70
     1
102
RTVSPropertyOp2
 70
     1
102
RTVSPropertyOp3
 70
     1
102
RTVSPropertyOp4
 70
     1
102
RTVSPropertyOp5
 70
     1
102
RTVSPropertyOp6
 70
     1
102
RTVSPropertyOp7
 70
     1
102
RTVSPropertyOp8
 70
     1
102
RTVSPropertyOp9
 70
     1
102
RTVSPropertyOp10
 70
     1
102
RTVSPropertyOp11
 70
     1
102
RTVSPropertyOp12
 70
     1
102
RTVSPropertyOp13
 70
     1
102
RTVSPropertyOp14
 70
     1
102
RTVSPropertyOp15
 70
     1
102
RTVSPropertyOp16
 70
     1
102
RTVSPropertyOp17
 70
     1
102
RTVSPropertyOp18
 70
     1
102
RTVSPropertyOp19
 70
     1
102
RTVSPropertyOp20
 70
     1
102
RTVSPropertyOp21
 70
     1
102
RTVSPropertyOp22
 70
     1
102
RTVSPropertyOp23
 70
     1
102
RTVSPropertyOp24
 70
     1
102
RTVSPropertyOp25
 70
     1
102
RTVSPropertyOp26
 70
     1
102
RTVSPropertyOp27
 70
     1
102
RTVSPropertyOp28
 70
     1
102
RTVSPropertyOp29
 70
     1
102
RTVSPropertyOp30
 70
     1
102
RTVSPropertyOp31
 70
     1
102
RTVSPropertyOp32
 70
     1
102
RTVSPropertyOp33
 70
     1
102
RTVSPropertyOp34
 70
     1
102
RTVSPropertyOp35
 70
     1
102
RTVSPropertyOp36
 70
     1
102
RTVSPropertyOp37
 70
     1
102
RTVSPropertyOp38
 70
     1
102
RTVSPropertyOp39
 70
     1
102
RTVSPropertyOp40
 70
     1
102
RTVSPropertyOp41
 70
     1
102
RTVSPropertyOp42
 70
     1
102
RTVSPropertyOp43
 70
     1
102
RTVSPropertyOp44
 70
     1
102
RTVSPropertyOp45
 70
     1
102
RTVSPropertyOp46
 70
     1
102
RTVSPropertyOp47
 70
     1
102
RTVSPropertyOp48
 70
     1
102
RTVSPropertyOp49
 70
     1
102
RTVSPropertyOp50
 70
     1
102
RTVSPropertyOp51
 70
     0
102
RTVSPropertyOp52
 70
     0
102
RTVSPropertyOp53
 70
     1
102
RTVSPropertyOp54
 70
     1
102
RTVSPropertyOp55
 70
     1
102
RTVSPropertyOp56
 70
     1
102
RTVSPropertyOp57
 70
     1
102
RTVSPropertyOp58
 70
     1
102
RTVSPropertyOp59
 70
     1
102
RTVSPropertyOp60
 70
     1
102
RTVSPropertyOp61
 70
     1
102
RTVSPropertyOp62
 70
     1
  0
XRECORD
  5
1158
102
{ACAD_REACTORS
330
1157
102
}
330
1157
100
AcDbXrecord
280
     1
102
RTVSPost2010Prop28
280
     0
102
RTVSPost2010PropOp28
 70
     1
102
RTVSPost2010Prop29
280
     1
102
RTVSPost2010PropOp29
 70
     1
102
RTVSPost2010Prop30
280
     1
102
RTVSPost2010PropOp30
 70
     1
102
RTVSPost2010Prop31
280
     0
102
RTVSPost2010PropOp31
 70
     1
102
RTVSPost2010Prop32
280
     0
102
RTVSPost2010PropOp32
 70
     1
102
RTVSPost2010Prop33
280
     0
102
RTVSPost2010PropOp33
 70
     1
102
RTVSPost2010Prop34
280
     0
102
RTVSPost2010PropOp34
 70
     1
102
RTVSPost2010Prop35
280
     0
102
RTVSPost2010PropOp35
 70
     1
102
RTVSPost2010Prop36
280
     0
102
RTVSPost2010PropOp36
 70
     1
102
RTVSPost2010Prop37
 90
       50
102
RTVSPost2010PropOp37
 70
     1
102
RTVSPost2010Prop38
140
0.0
102
RTVSPost2010PropOp38
 70
     1
102
RTVSPost2010Prop39
140
1.0
102
RTVSPost2010PropOp39
 70
     1
102
RTVSPost2010Prop40
 90
        0
102
RTVSPost2010PropOp40
 70
     1
102
RTVSPost2010Prop41ColorIndex
 90
       18
102
RTVSPost2010Prop41ColorRGB
 90
        0
102
RTVSPost2010PropOp41
 70
     1
102
RTVSPost2010Prop42
 90
       50
102
RTVSPost2010PropOp42
 70
     1
102
RTVSPost2010Prop43
 90
        3
102
RTVSPost2010PropOp43
 70
     1
102
RTVSPost2010Prop44ColorIndex
 90
        5
102
RTVSPost2010Prop44ColorRGB
 90
      255
102
RTVSPost2010PropOp44
 70
     1
102
RTVSPost2010Prop45
280
     0
102
RTVSPost2010PropOp45
 70
     1
102
RTVSPost2010Prop46
 90
       50
102
RTVSPost2010PropOp46
 70
     1
102
RTVSPost2010Prop47
 90
       50
102
RTVSPost2010PropOp47
 70
     1
102
RTVSPost2010Prop48
 90
       50
102
RTVSPost2010PropOp48
 70
     1
102
RTVSPost2010Prop49
280
     0
102
RTVSPost2010PropOp49
 70
     1
102
RTVSPost2010Prop50
 90
       50
102
RTVSPost2010PropOp50
 70
     1
102
RTVSPost2010Prop51ColorIndex
 90
      256
102
RTVSPost2010Prop51ColorRGB
 90
-16777216
102
RTVSPost2010PropOp51
 70
     0
102
RTVSPost2010Prop52
140
1.0
102
RTVSPost2010PropOp52
 70
     0
102
RTVSPost2010Prop53
 90
        2
102
RTVSPost2010PropOp53
 70
     1
102
RTVSPost2010Prop54
  1
strokes_ogs.tif
102
RTVSPost2010PropOp54
 70
     1
102
RTVSPost2010Prop55
280
     0
102
RTVSPost2010PropOp55
 70
     1
102
RTVSPost2010Prop56
140
1.0
102
RTVSPost2010PropOp56
 70
     1
102
RTVSPost2010Prop57
140
1.0
102
RTVSPost2010PropOp57
 70
     1
102
RTVSPropertyOp0
 70
     1
102
RTVSPropertyOp1
 70
     1
102
RTVSPropertyOp2
 70
     1
102
RTVSPropertyOp3
 70
     1
102
RTVSPropertyOp4
 70
     1
102
RTVSPropertyOp5
 70
     1
102
RTVSPropertyOp6
 70
     1
102
RTVSPropertyOp7
 70
     1
102
RTVSPropertyOp8
 70
     1
102
RTVSPropertyOp9
 70
     1
102
RTVSPropertyOp10
 70
     1
102
RTVSPropertyOp11
 70
     1
102
RTVSPropertyOp12
 70
     1
102
RTVSPropertyOp13
 70
     1
102
RTVSPropertyOp14
 70
     1
102
RTVSPropertyOp15
 70
     1
102
RTVSPropertyOp16
 70
     1
102
RTVSPropertyOp17
 70
     1
102
RTVSPropertyOp18
 70
     1
102
RTVSPropertyOp19
 70
     1
102
RTVSPropertyOp20
 70
     1
102
RTVSPropertyOp21
 70
     1
102
RTVSPropertyOp22
 70
     1
102
RTVSPropertyOp23
 70
     1
102
RTVSPropertyOp24
 70
     1
102
RTVSPropertyOp25
 70
     1
102
RTVSPropertyOp26
 70
     1
102
RTVSPropertyOp27
 70
     1
102
RTVSPropertyOp28
 70
     1
102
RTVSPropertyOp29
 70
     1
102
RTVSPropertyOp30
 70
     1
102
RTVSPropertyOp31
 70
     1
102
RTVSPropertyOp32
 70
     1
102
RTVSPropertyOp33
 70
     1
102
RTVSPropertyOp34
 70
     1
102
RTVSPropertyOp35
 70
     1
102
RTVSPropertyOp36
 70
     1
102
RTVSPropertyOp37
 70
     1
102
RTVSPropertyOp38
 70
     1
102
RTVSPropertyOp39
 70
     1
102
RTVSPropertyOp40
 70
     1
102
RTVSPropertyOp41
 70
     1
102
RTVSPropertyOp42
 70
     1
102
RTVSPropertyOp43
 70
     1
102
RTVSPropertyOp44
 70
     1
102
RTVSPropertyOp45
 70
     1
102
RTVSPropertyOp46
 70
     1
102
RTVSPropertyOp47
 70
     1
102
RTVSPropertyOp48
 70
     1
102
RTVSPropertyOp49
 70
     1
102
RTVSPropertyOp50
 70
     1
102
RTVSPropertyOp51
 70
     0
102
RTVSPropertyOp52
 70
     0
102
RTVSPropertyOp53
 70
     1
102
RTVSPropertyOp54
 70
     1
102
RTVSPropertyOp55
 70
     1
102
RTVSPropertyOp56
 70
     1
102
RTVSPropertyOp57
 70
     1
102
RTVSPropertyOp58
 70
     1
102
RTVSPropertyOp59
 70
     1
102
RTVSPropertyOp60
 70
     1
102
RTVSPropertyOp61
 70
     1
102
RTVSPropertyOp62
 70
     1
  0
XRECORD
  5
1166
102
{ACAD_REACTORS
330
1165
102
}
330
1165
100
AcDbXrecord
280
     1
102
RTVSPost2010Prop28
280
     0
102
RTVSPost2010PropOp28
 70
     1
102
RTVSPost2010Prop29
280
     1
102
RTVSPost2010PropOp29
 70
     1
102
RTVSPost2010Prop30
280
     1
102
RTVSPost2010PropOp30
 70
     1
102
RTVSPost2010Prop31
280
     0
102
RTVSPost2010PropOp31
 70
     1
102
RTVSPost2010Prop32
280
     0
102
RTVSPost2010PropOp32
 70
     1
102
RTVSPost2010Prop33
280
     0
102
RTVSPost2010PropOp33
 70
     1
102
RTVSPost2010Prop34
280
     0
102
RTVSPost2010PropOp34
 70
     1
102
RTVSPost2010Prop35
280
     0
102
RTVSPost2010PropOp35
 70
     1
102
RTVSPost2010Prop36
280
     0
102
RTVSPost2010PropOp36
 70
     1
102
RTVSPost2010Prop37
 90
       50
102
RTVSPost2010PropOp37
 70
     1
102
RTVSPost2010Prop38
140
0.0
102
RTVSPost2010PropOp38
 70
     1
102
RTVSPost2010Prop39
140
1.0
102
RTVSPost2010PropOp39
 70
     1
102
RTVSPost2010Prop40
 90
        0
102
RTVSPost2010PropOp40
 70
     1
102
RTVSPost2010Prop41ColorIndex
 90
       18
102
RTVSPost2010Prop41ColorRGB
 90
        0
102
RTVSPost2010PropOp41
 70
     1
102
RTVSPost2010Prop42
 90
       50
102
RTVSPost2010PropOp42
 70
     1
102
RTVSPost2010Prop43
 90
        3
102
RTVSPost2010PropOp43
 70
     1
102
RTVSPost2010Prop44ColorIndex
 90
        5
102
RTVSPost2010Prop44ColorRGB
 90
      255
102
RTVSPost2010PropOp44
 70
     1
102
RTVSPost2010Prop45
280
     0
102
RTVSPost2010PropOp45
 70
     1
102
RTVSPost2010Prop46
 90
       50
102
RTVSPost2010PropOp46
 70
     1
102
RTVSPost2010Prop47
 90
       50
102
RTVSPost2010PropOp47
 70
     1
102
RTVSPost2010Prop48
 90
       50
102
RTVSPost2010PropOp48
 70
     1
102
RTVSPost2010Prop49
280
     0
102
RTVSPost2010PropOp49
 70
     1
102
RTVSPost2010Prop50
 90
       50
102
RTVSPost2010PropOp50
 70
     1
102
RTVSPost2010Prop51ColorIndex
 90
      256
102
RTVSPost2010Prop51ColorRGB
 90
-16777216
102
RTVSPost2010PropOp51
 70
     0
102
RTVSPost2010Prop52
140
1.0
102
RTVSPost2010PropOp52
 70
     0
102
RTVSPost2010Prop53
 90
        2
102
RTVSPost2010PropOp53
 70
     1
102
RTVSPost2010Prop54
  1
strokes_ogs.tif
102
RTVSPost2010PropOp54
 70
     1
102
RTVSPost2010Prop55
280
     0
102
RTVSPost2010PropOp55
 70
     1
102
RTVSPost2010Prop56
140
1.0
102
RTVSPost2010PropOp56
 70
     1
102
RTVSPost2010Prop57
140
1.0
102
RTVSPost2010PropOp57
 70
     1
102
RTVSPropertyOp0
 70
     1
102
RTVSPropertyOp1
 70
     1
102
RTVSPropertyOp2
 70
     1
102
RTVSPropertyOp3
 70
     1
102
RTVSPropertyOp4
 70
     1
102
RTVSPropertyOp5
 70
     1
102
RTVSPropertyOp6
 70
     1
102
RTVSPropertyOp7
 70
     1
102
RTVSPropertyOp8
 70
     1
102
RTVSPropertyOp9
 70
     1
102
RTVSPropertyOp10
 70
     1
102
RTVSPropertyOp11
 70
     1
102
RTVSPropertyOp12
 70
     1
102
RTVSPropertyOp13
 70
     1
102
RTVSPropertyOp14
 70
     1
102
RTVSPropertyOp15
 70
     1
102
RTVSPropertyOp16
 70
     1
102
RTVSPropertyOp17
 70
     1
102
RTVSPropertyOp18
 70
     1
102
RTVSPropertyOp19
 70
     1
102
RTVSPropertyOp20
 70
     1
102
RTVSPropertyOp21
 70
     1
102
RTVSPropertyOp22
 70
     1
102
RTVSPropertyOp23
 70
     1
102
RTVSPropertyOp24
 70
     1
102
RTVSPropertyOp25
 70
     1
102
RTVSPropertyOp26
 70
     1
102
RTVSPropertyOp27
 70
     1
102
RTVSPropertyOp28
 70
     1
102
RTVSPropertyOp29
 70
     1
102
RTVSPropertyOp30
 70
     1
102
RTVSPropertyOp31
 70
     1
102
RTVSPropertyOp32
 70
     1
102
RTVSPropertyOp33
 70
     1
102
RTVSPropertyOp34
 70
     1
102
RTVSPropertyOp35
 70
     1
102
RTVSPropertyOp36
 70
     1
102
RTVSPropertyOp37
 70
     1
102
RTVSPropertyOp38
 70
     1
102
RTVSPropertyOp39
 70
     1
102
RTVSPropertyOp40
 70
     1
102
RTVSPropertyOp41
 70
     1
102
RTVSPropertyOp42
 70
     1
102
RTVSPropertyOp43
 70
     1
102
RTVSPropertyOp44
 70
     1
102
RTVSPropertyOp45
 70
     1
102
RTVSPropertyOp46
 70
     1
102
RTVSPropertyOp47
 70
     1
102
RTVSPropertyOp48
 70
     1
102
RTVSPropertyOp49
 70
     1
102
RTVSPropertyOp50
 70
     1
102
RTVSPropertyOp51
 70
     0
102
RTVSPropertyOp52
 70
     0
102
RTVSPropertyOp53
 70
     1
102
RTVSPropertyOp54
 70
     1
102
RTVSPropertyOp55
 70
     1
102
RTVSPropertyOp56
 70
     1
102
RTVSPropertyOp57
 70
     1
102
RTVSPropertyOp58
 70
     1
102
RTVSPropertyOp59
 70
     1
102
RTVSPropertyOp60
 70
     1
102
RTVSPropertyOp61
 70
     1
102
RTVSPropertyOp62
 70
     1
  0
XRECORD
  5
116E
102
{ACAD_REACTORS
330
116D
102
}
330
116D
100
AcDbXrecord
280
     1
102
RTVSPost2010Prop28
280
     0
102
RTVSPost2010PropOp28
 70
     1
102
RTVSPost2010Prop29
280
     1
102
RTVSPost2010PropOp29
 70
     1
102
RTVSPost2010Prop30
280
     1
102
RTVSPost2010PropOp30
 70
     1
102
RTVSPost2010Prop31
280
     0
102
RTVSPost2010PropOp31
 70
     1
102
RTVSPost2010Prop32
280
     0
102
RTVSPost2010PropOp32
 70
     1
102
RTVSPost2010Prop33
280
     0
102
RTVSPost2010PropOp33
 70
     1
102
RTVSPost2010Prop34
280
     0
102
RTVSPost2010PropOp34
 70
     1
102
RTVSPost2010Prop35
280
     0
102
RTVSPost2010PropOp35
 70
     1
102
RTVSPost2010Prop36
280
     0
102
RTVSPost2010PropOp36
 70
     1
102
RTVSPost2010Prop37
 90
       50
102
RTVSPost2010PropOp37
 70
     1
102
RTVSPost2010Prop38
140
0.0
102
RTVSPost2010PropOp38
 70
     1
102
RTVSPost2010Prop39
140
1.0
102
RTVSPost2010PropOp39
 70
     1
102
RTVSPost2010Prop40
 90
        0
102
RTVSPost2010PropOp40
 70
     1
102
RTVSPost2010Prop41ColorIndex
 90
       18
102
RTVSPost2010Prop41ColorRGB
 90
        0
102
RTVSPost2010PropOp41
 70
     1
102
RTVSPost2010Prop42
 90
       50
102
RTVSPost2010PropOp42
 70
     1
102
RTVSPost2010Prop43
 90
        3
102
RTVSPost2010PropOp43
 70
     1
102
RTVSPost2010Prop44ColorIndex
 90
        5
102
RTVSPost2010Prop44ColorRGB
 90
      255
102
RTVSPost2010PropOp44
 70
     1
102
RTVSPost2010Prop45
280
     0
102
RTVSPost2010PropOp45
 70
     1
102
RTVSPost2010Prop46
 90
       50
102
RTVSPost2010PropOp46
 70
     1
102
RTVSPost2010Prop47
 90
       50
102
RTVSPost2010PropOp47
 70
     1
102
RTVSPost2010Prop48
 90
       50
102
RTVSPost2010PropOp48
 70
     1
102
RTVSPost2010Prop49
280
     0
102
RTVSPost2010PropOp49
 70
     1
102
RTVSPost2010Prop50
 90
       50
102
RTVSPost2010PropOp50
 70
     1
102
RTVSPost2010Prop51ColorIndex
 90
      256
102
RTVSPost2010Prop51ColorRGB
 90
-16777216
102
RTVSPost2010PropOp51
 70
     0
102
RTVSPost2010Prop52
140
1.0
102
RTVSPost2010PropOp52
 70
     0
102
RTVSPost2010Prop53
 90
        2
102
RTVSPost2010PropOp53
 70
     1
102
RTVSPost2010Prop54
  1
strokes_ogs.tif
102
RTVSPost2010PropOp54
 70
     1
102
RTVSPost2010Prop55
280
     0
102
RTVSPost2010PropOp55
 70
     1
102
RTVSPost2010Prop56
140
1.0
102
RTVSPost2010PropOp56
 70
     1
102
RTVSPost2010Prop57
140
1.0
102
RTVSPost2010PropOp57
 70
     1
102
RTVSPropertyOp0
 70
     1
102
RTVSPropertyOp1
 70
     1
102
RTVSPropertyOp2
 70
     1
102
RTVSPropertyOp3
 70
     1
102
RTVSPropertyOp4
 70
     1
102
RTVSPropertyOp5
 70
     1
102
RTVSPropertyOp6
 70
     1
102
RTVSPropertyOp7
 70
     1
102
RTVSPropertyOp8
 70
     1
102
RTVSPropertyOp9
 70
     1
102
RTVSPropertyOp10
 70
     1
102
RTVSPropertyOp11
 70
     1
102
RTVSPropertyOp12
 70
     1
102
RTVSPropertyOp13
 70
     1
102
RTVSPropertyOp14
 70
     1
102
RTVSPropertyOp15
 70
     1
102
RTVSPropertyOp16
 70
     1
102
RTVSPropertyOp17
 70
     1
102
RTVSPropertyOp18
 70
     1
102
RTVSPropertyOp19
 70
     1
102
RTVSPropertyOp20
 70
     1
102
RTVSPropertyOp21
 70
     1
102
RTVSPropertyOp22
 70
     1
102
RTVSPropertyOp23
 70
     1
102
RTVSPropertyOp24
 70
     1
102
RTVSPropertyOp25
 70
     1
102
RTVSPropertyOp26
 70
     1
102
RTVSPropertyOp27
 70
     1
102
RTVSPropertyOp28
 70
     1
102
RTVSPropertyOp29
 70
     1
102
RTVSPropertyOp30
 70
     1
102
RTVSPropertyOp31
 70
     1
102
RTVSPropertyOp32
 70
     1
102
RTVSPropertyOp33
 70
     1
102
RTVSPropertyOp34
 70
     1
102
RTVSPropertyOp35
 70
     1
102
RTVSPropertyOp36
 70
     1
102
RTVSPropertyOp37
 70
     1
102
RTVSPropertyOp38
 70
     1
102
RTVSPropertyOp39
 70
     1
102
RTVSPropertyOp40
 70
     1
102
RTVSPropertyOp41
 70
     1
102
RTVSPropertyOp42
 70
     1
102
RTVSPropertyOp43
 70
     1
102
RTVSPropertyOp44
 70
     1
102
RTVSPropertyOp45
 70
     1
102
RTVSPropertyOp46
 70
     1
102
RTVSPropertyOp47
 70
     1
102
RTVSPropertyOp48
 70
     1
102
RTVSPropertyOp49
 70
     1
102
RTVSPropertyOp50
 70
     1
102
RTVSPropertyOp51
 70
     0
102
RTVSPropertyOp52
 70
     0
102
RTVSPropertyOp53
 70
     1
102
RTVSPropertyOp54
 70
     1
102
RTVSPropertyOp55
 70
     1
102
RTVSPropertyOp56
 70
     1
102
RTVSPropertyOp57
 70
     1
102
RTVSPropertyOp58
 70
     1
102
RTVSPropertyOp59
 70
     1
102
RTVSPropertyOp60
 70
     1
102
RTVSPropertyOp61
 70
     1
102
RTVSPropertyOp62
 70
     1
  0
XRECORD
  5
1160
102
{ACAD_REACTORS
330
115F
102
}
330
115F
100
AcDbXrecord
280
     1
102
RTVSPost2010Prop28
280
     0
102
RTVSPost2010PropOp28
 70
     1
102
RTVSPost2010Prop29
280
     1
102
RTVSPost2010PropOp29
 70
     1
102
RTVSPost2010Prop30
280
     1
102
RTVSPost2010PropOp30
 70
     1
102
RTVSPost2010Prop31
280
     0
102
RTVSPost2010PropOp31
 70
     1
102
RTVSPost2010Prop32
280
     0
102
RTVSPost2010PropOp32
 70
     1
102
RTVSPost2010Prop33
280
     0
102
RTVSPost2010PropOp33
 70
     1
102
RTVSPost2010Prop34
280
     0
102
RTVSPost2010PropOp34
 70
     1
102
RTVSPost2010Prop35
280
     0
102
RTVSPost2010PropOp35
 70
     1
102
RTVSPost2010Prop36
280
     0
102
RTVSPost2010PropOp36
 70
     1
102
RTVSPost2010Prop37
 90
       50
102
RTVSPost2010PropOp37
 70
     1
102
RTVSPost2010Prop38
140
0.0
102
RTVSPost2010PropOp38
 70
     1
102
RTVSPost2010Prop39
140
1.0
102
RTVSPost2010PropOp39
 70
     1
102
RTVSPost2010Prop40
 90
        0
102
RTVSPost2010PropOp40
 70
     1
102
RTVSPost2010Prop41ColorIndex
 90
       18
102
RTVSPost2010Prop41ColorRGB
 90
        0
102
RTVSPost2010PropOp41
 70
     1
102
RTVSPost2010Prop42
 90
       50
102
RTVSPost2010PropOp42
 70
     1
102
RTVSPost2010Prop43
 90
        3
102
RTVSPost2010PropOp43
 70
     1
102
RTVSPost2010Prop44ColorIndex
 90
        5
102
RTVSPost2010Prop44ColorRGB
 90
      255
102
RTVSPost2010PropOp44
 70
     1
102
RTVSPost2010Prop45
280
     0
102
RTVSPost2010PropOp45
 70
     1
102
RTVSPost2010Prop46
 90
       50
102
RTVSPost2010PropOp46
 70
     1
102
RTVSPost2010Prop47
 90
       50
102
RTVSPost2010PropOp47
 70
     1
102
RTVSPost2010Prop48
 90
       50
102
RTVSPost2010PropOp48
 70
     1
102
RTVSPost2010Prop49
280
     0
102
RTVSPost2010PropOp49
 70
     1
102
RTVSPost2010Prop50
 90
       50
102
RTVSPost2010PropOp50
 70
     1
102
RTVSPost2010Prop51ColorIndex
 90
      256
102
RTVSPost2010Prop51ColorRGB
 90
-16777216
102
RTVSPost2010PropOp51
 70
     0
102
RTVSPost2010Prop52
140
1.0
102
RTVSPost2010PropOp52
 70
     0
102
RTVSPost2010Prop53
 90
        2
102
RTVSPost2010PropOp53
 70
     1
102
RTVSPost2010Prop54
  1
strokes_ogs.tif
102
RTVSPost2010PropOp54
 70
     1
102
RTVSPost2010Prop55
280
     0
102
RTVSPost2010PropOp55
 70
     1
102
RTVSPost2010Prop56
140
1.0
102
RTVSPost2010PropOp56
 70
     1
102
RTVSPost2010Prop57
140
1.0
102
RTVSPost2010PropOp57
 70
     1
102
RTVSPropertyOp0
 70
     1
102
RTVSPropertyOp1
 70
     1
102
RTVSPropertyOp2
 70
     1
102
RTVSPropertyOp3
 70
     1
102
RTVSPropertyOp4
 70
     1
102
RTVSPropertyOp5
 70
     1
102
RTVSPropertyOp6
 70
     1
102
RTVSPropertyOp7
 70
     1
102
RTVSPropertyOp8
 70
     1
102
RTVSPropertyOp9
 70
     1
102
RTVSPropertyOp10
 70
     1
102
RTVSPropertyOp11
 70
     1
102
RTVSPropertyOp12
 70
     1
102
RTVSPropertyOp13
 70
     1
102
RTVSPropertyOp14
 70
     1
102
RTVSPropertyOp15
 70
     1
102
RTVSPropertyOp16
 70
     1
102
RTVSPropertyOp17
 70
     1
102
RTVSPropertyOp18
 70
     1
102
RTVSPropertyOp19
 70
     1
102
RTVSPropertyOp20
 70
     1
102
RTVSPropertyOp21
 70
     1
102
RTVSPropertyOp22
 70
     1
102
RTVSPropertyOp23
 70
     1
102
RTVSPropertyOp24
 70
     1
102
RTVSPropertyOp25
 70
     1
102
RTVSPropertyOp26
 70
     1
102
RTVSPropertyOp27
 70
     1
102
RTVSPropertyOp28
 70
     1
102
RTVSPropertyOp29
 70
     1
102
RTVSPropertyOp30
 70
     1
102
RTVSPropertyOp31
 70
     1
102
RTVSPropertyOp32
 70
     1
102
RTVSPropertyOp33
 70
     1
102
RTVSPropertyOp34
 70
     1
102
RTVSPropertyOp35
 70
     1
102
RTVSPropertyOp36
 70
     1
102
RTVSPropertyOp37
 70
     1
102
RTVSPropertyOp38
 70
     1
102
RTVSPropertyOp39
 70
     1
102
RTVSPropertyOp40
 70
     1
102
RTVSPropertyOp41
 70
     1
102
RTVSPropertyOp42
 70
     1
102
RTVSPropertyOp43
 70
     1
102
RTVSPropertyOp44
 70
     1
102
RTVSPropertyOp45
 70
     1
102
RTVSPropertyOp46
 70
     1
102
RTVSPropertyOp47
 70
     1
102
RTVSPropertyOp48
 70
     1
102
RTVSPropertyOp49
 70
     1
102
RTVSPropertyOp50
 70
     1
102
RTVSPropertyOp51
 70
     0
102
RTVSPropertyOp52
 70
     0
102
RTVSPropertyOp53
 70
     1
102
RTVSPropertyOp54
 70
     1
102
RTVSPropertyOp55
 70
     1
102
RTVSPropertyOp56
 70
     1
102
RTVSPropertyOp57
 70
     1
102
RTVSPropertyOp58
 70
     1
102
RTVSPropertyOp59
 70
     1
102
RTVSPropertyOp60
 70
     1
102
RTVSPropertyOp61
 70
     1
102
RTVSPropertyOp62
 70
     1
  0
XRECORD
  5
1164
102
{ACAD_REACTORS
330
1163
102
}
330
1163
100
AcDbXrecord
280
     1
102
RTVSPost2010Prop28
280
     0
102
RTVSPost2010PropOp28
 70
     1
102
RTVSPost2010Prop29
280
     1
102
RTVSPost2010PropOp29
 70
     1
102
RTVSPost2010Prop30
280
     1
102
RTVSPost2010PropOp30
 70
     1
102
RTVSPost2010Prop31
280
     0
102
RTVSPost2010PropOp31
 70
     1
102
RTVSPost2010Prop32
280
     0
102
RTVSPost2010PropOp32
 70
     1
102
RTVSPost2010Prop33
280
     0
102
RTVSPost2010PropOp33
 70
     1
102
RTVSPost2010Prop34
280
     0
102
RTVSPost2010PropOp34
 70
     1
102
RTVSPost2010Prop35
280
     0
102
RTVSPost2010PropOp35
 70
     1
102
RTVSPost2010Prop36
280
     0
102
RTVSPost2010PropOp36
 70
     1
102
RTVSPost2010Prop37
 90
       50
102
RTVSPost2010PropOp37
 70
     1
102
RTVSPost2010Prop38
140
0.0
102
RTVSPost2010PropOp38
 70
     1
102
RTVSPost2010Prop39
140
1.0
102
RTVSPost2010PropOp39
 70
     1
102
RTVSPost2010Prop40
 90
        0
102
RTVSPost2010PropOp40
 70
     1
102
RTVSPost2010Prop41ColorIndex
 90
       18
102
RTVSPost2010Prop41ColorRGB
 90
        0
102
RTVSPost2010PropOp41
 70
     1
102
RTVSPost2010Prop42
 90
       50
102
RTVSPost2010PropOp42
 70
     1
102
RTVSPost2010Prop43
 90
        3
102
RTVSPost2010PropOp43
 70
     1
102
RTVSPost2010Prop44ColorIndex
 90
        5
102
RTVSPost2010Prop44ColorRGB
 90
      255
102
RTVSPost2010PropOp44
 70
     1
102
RTVSPost2010Prop45
280
     0
102
RTVSPost2010PropOp45
 70
     1
102
RTVSPost2010Prop46
 90
       50
102
RTVSPost2010PropOp46
 70
     1
102
RTVSPost2010Prop47
 90
       50
102
RTVSPost2010PropOp47
 70
     1
102
RTVSPost2010Prop48
 90
       50
102
RTVSPost2010PropOp48
 70
     1
102
RTVSPost2010Prop49
280
     0
102
RTVSPost2010PropOp49
 70
     1
102
RTVSPost2010Prop50
 90
       50
102
RTVSPost2010PropOp50
 70
     1
102
RTVSPost2010Prop51ColorIndex
 90
      256
102
RTVSPost2010Prop51ColorRGB
 90
-16777216
102
RTVSPost2010PropOp51
 70
     0
102
RTVSPost2010Prop52
140
1.0
102
RTVSPost2010PropOp52
 70
     0
102
RTVSPost2010Prop53
 90
        2
102
RTVSPost2010PropOp53
 70
     1
102
RTVSPost2010Prop54
  1
strokes_ogs.tif
102
RTVSPost2010PropOp54
 70
     1
102
RTVSPost2010Prop55
280
     0
102
RTVSPost2010PropOp55
 70
     1
102
RTVSPost2010Prop56
140
1.0
102
RTVSPost2010PropOp56
 70
     1
102
RTVSPost2010Prop57
140
1.0
102
RTVSPost2010PropOp57
 70
     1
102
RTVSPropertyOp0
 70
     1
102
RTVSPropertyOp1
 70
     1
102
RTVSPropertyOp2
 70
     1
102
RTVSPropertyOp3
 70
     1
102
RTVSPropertyOp4
 70
     1
102
RTVSPropertyOp5
 70
     1
102
RTVSPropertyOp6
 70
     1
102
RTVSPropertyOp7
 70
     1
102
RTVSPropertyOp8
 70
     1
102
RTVSPropertyOp9
 70
     1
102
RTVSPropertyOp10
 70
     1
102
RTVSPropertyOp11
 70
     1
102
RTVSPropertyOp12
 70
     1
102
RTVSPropertyOp13
 70
     1
102
RTVSPropertyOp14
 70
     1
102
RTVSPropertyOp15
 70
     1
102
RTVSPropertyOp16
 70
     1
102
RTVSPropertyOp17
 70
     1
102
RTVSPropertyOp18
 70
     1
102
RTVSPropertyOp19
 70
     1
102
RTVSPropertyOp20
 70
     1
102
RTVSPropertyOp21
 70
     1
102
RTVSPropertyOp22
 70
     1
102
RTVSPropertyOp23
 70
     1
102
RTVSPropertyOp24
 70
     1
102
RTVSPropertyOp25
 70
     1
102
RTVSPropertyOp26
 70
     1
102
RTVSPropertyOp27
 70
     1
102
RTVSPropertyOp28
 70
     1
102
RTVSPropertyOp29
 70
     1
102
RTVSPropertyOp30
 70
     1
102
RTVSPropertyOp31
 70
     1
102
RTVSPropertyOp32
 70
     1
102
RTVSPropertyOp33
 70
     1
102
RTVSPropertyOp34
 70
     1
102
RTVSPropertyOp35
 70
     1
102
RTVSPropertyOp36
 70
     1
102
RTVSPropertyOp37
 70
     1
102
RTVSPropertyOp38
 70
     1
102
RTVSPropertyOp39
 70
     1
102
RTVSPropertyOp40
 70
     1
102
RTVSPropertyOp41
 70
     1
102
RTVSPropertyOp42
 70
     1
102
RTVSPropertyOp43
 70
     1
102
RTVSPropertyOp44
 70
     1
102
RTVSPropertyOp45
 70
     1
102
RTVSPropertyOp46
 70
     1
102
RTVSPropertyOp47
 70
     1
102
RTVSPropertyOp48
 70
     1
102
RTVSPropertyOp49
 70
     1
102
RTVSPropertyOp50
 70
     1
102
RTVSPropertyOp51
 70
     0
102
RTVSPropertyOp52
 70
     0
102
RTVSPropertyOp53
 70
     1
102
RTVSPropertyOp54
 70
     1
102
RTVSPropertyOp55
 70
     1
102
RTVSPropertyOp56
 70
     1
102
RTVSPropertyOp57
 70
     1
102
RTVSPropertyOp58
 70
     1
102
RTVSPropertyOp59
 70
     1
102
RTVSPropertyOp60
 70
     1
102
RTVSPropertyOp61
 70
     1
102
RTVSPropertyOp62
 70
     1
  0
XRECORD
  5
117E
102
{ACAD_REACTORS
330
117D
102
}
330
117D
100
AcDbXrecord
280
     1
102
RTVSPost2010Prop28
280
     0
102
RTVSPost2010PropOp28
 70
     1
102
RTVSPost2010Prop29
280
     1
102
RTVSPost2010PropOp29
 70
     1
102
RTVSPost2010Prop30
280
     1
102
RTVSPost2010PropOp30
 70
     1
102
RTVSPost2010Prop31
280
     0
102
RTVSPost2010PropOp31
 70
     1
102
RTVSPost2010Prop32
280
     0
102
RTVSPost2010PropOp32
 70
     1
102
RTVSPost2010Prop33
280
     0
102
RTVSPost2010PropOp33
 70
     1
102
RTVSPost2010Prop34
280
     0
102
RTVSPost2010PropOp34
 70
     1
102
RTVSPost2010Prop35
280
     0
102
RTVSPost2010PropOp35
 70
     1
102
RTVSPost2010Prop36
280
     0
102
RTVSPost2010PropOp36
 70
     1
102
RTVSPost2010Prop37
 90
       50
102
RTVSPost2010PropOp37
 70
     0
102
RTVSPost2010Prop38
140
0.0
102
RTVSPost2010PropOp38
 70
     0
102
RTVSPost2010Prop39
140
1.0
102
RTVSPost2010PropOp39
 70
     0
102
RTVSPost2010Prop40
 90
        0
102
RTVSPost2010PropOp40
 70
     0
102
RTVSPost2010Prop41ColorIndex
 90
       18
102
RTVSPost2010Prop41ColorRGB
 90
        0
102
RTVSPost2010PropOp41
 70
     0
102
RTVSPost2010Prop42
 90
       50
102
RTVSPost2010PropOp42
 70
     0
102
RTVSPost2010Prop43
 90
        3
102
RTVSPost2010PropOp43
 70
     0
102
RTVSPost2010Prop44ColorIndex
 90
        5
102
RTVSPost2010Prop44ColorRGB
 90
      255
102
RTVSPost2010PropOp44
 70
     0
102
RTVSPost2010Prop45
280
     0
102
RTVSPost2010PropOp45
 70
     1
102
RTVSPost2010Prop46
 90
       50
102
RTVSPost2010PropOp46
 70
     0
102
RTVSPost2010Prop47
 90
       50
102
RTVSPost2010PropOp47
 70
     0
102
RTVSPost2010Prop48
 90
       50
102
RTVSPost2010PropOp48
 70
     0
102
RTVSPost2010Prop49
280
     0
102
RTVSPost2010PropOp49
 70
     1
102
RTVSPost2010Prop50
 90
       50
102
RTVSPost2010PropOp50
 70
     0
102
RTVSPost2010Prop51ColorIndex
 90
      256
102
RTVSPost2010Prop51ColorRGB
 90
-16777216
102
RTVSPost2010PropOp51
 70
     0
102
RTVSPost2010Prop52
140
1.0
102
RTVSPost2010PropOp52
 70
     0
102
RTVSPost2010Prop53
 90
        2
102
RTVSPost2010PropOp53
 70
     0
102
RTVSPost2010Prop54
  1
strokes_ogs.tif
102
RTVSPost2010PropOp54
 70
     0
102
RTVSPost2010Prop55
280
     0
102
RTVSPost2010PropOp55
 70
     1
102
RTVSPost2010Prop56
140
1.0
102
RTVSPost2010PropOp56
 70
     0
102
RTVSPost2010Prop57
140
1.0
102
RTVSPost2010PropOp57
 70
     0
102
RTVSPropertyOp0
 70
     0
102
RTVSPropertyOp1
 70
     0
102
RTVSPropertyOp2
 70
     0
102
RTVSPropertyOp3
 70
     0
102
RTVSPropertyOp4
 70
     0
102
RTVSPropertyOp5
 70
     0
102
RTVSPropertyOp6
 70
     0
102
RTVSPropertyOp7
 70
     0
102
RTVSPropertyOp8
 70
     0
102
RTVSPropertyOp9
 70
     0
102
RTVSPropertyOp10
 70
     0
102
RTVSPropertyOp11
 70
     0
102
RTVSPropertyOp12
 70
     0
102
RTVSPropertyOp13
 70
     0
102
RTVSPropertyOp14
 70
     2
102
RTVSPropertyOp15
 70
     0
102
RTVSPropertyOp16
 70
     0
102
RTVSPropertyOp17
 70
     0
102
RTVSPropertyOp18
 70
     0
102
RTVSPropertyOp19
 70
     0
102
RTVSPropertyOp20
 70
     0
102
RTVSPropertyOp21
 70
     0
102
RTVSPropertyOp22
 70
     0
102
RTVSPropertyOp23
 70
     0
102
RTVSPropertyOp24
 70
     0
102
RTVSPropertyOp25
 70
     0
102
RTVSPropertyOp26
 70
     0
102
RTVSPropertyOp27
 70
     0
102
RTVSPropertyOp28
 70
     1
102
RTVSPropertyOp29
 70
     1
102
RTVSPropertyOp30
 70
     1
102
RTVSPropertyOp31
 70
     1
102
RTVSPropertyOp32
 70
     1
102
RTVSPropertyOp33
 70
     1
102
RTVSPropertyOp34
 70
     1
102
RTVSPropertyOp35
 70
     1
102
RTVSPropertyOp36
 70
     1
102
RTVSPropertyOp37
 70
     0
102
RTVSPropertyOp38
 70
     0
102
RTVSPropertyOp39
 70
     0
102
RTVSPropertyOp40
 70
     0
102
RTVSPropertyOp41
 70
     0
102
RTVSPropertyOp42
 70
     0
102
RTVSPropertyOp43
 70
     0
102
RTVSPropertyOp44
 70
     0
102
RTVSPropertyOp45
 70
     1
102
RTVSPropertyOp46
 70
     0
102
RTVSPropertyOp47
 70
     0
102
RTVSPropertyOp48
 70
     0
102
RTVSPropertyOp49
 70
     1
102
RTVSPropertyOp50
 70
     0
102
RTVSPropertyOp51
 70
     0
102
RTVSPropertyOp52
 70
     0
102
RTVSPropertyOp53
 70
     0
102
RTVSPropertyOp54
 70
     0
102
RTVSPropertyOp55
 70
     1
102
RTVSPropertyOp56
 70
     0
102
RTVSPropertyOp57
 70
     0
102
RTVSPropertyOp58
 70
     1
102
RTVSPropertyOp59
 70
     1
102
RTVSPropertyOp60
 70
     1
102
RTVSPropertyOp61
 70
     1
102
RTVSPropertyOp62
 70
     1
  0
XRECORD
  5
116C
102
{ACAD_REACTORS
330
116B
102
}
330
116B
100
AcDbXrecord
280
     1
102
RTVSPost2010Prop28
280
     0
102
RTVSPost2010PropOp28
 70
     1
102
RTVSPost2010Prop29
280
     1
102
RTVSPost2010PropOp29
 70
     1
102
RTVSPost2010Prop30
280
     1
102
RTVSPost2010PropOp30
 70
     1
102
RTVSPost2010Prop31
280
     0
102
RTVSPost2010PropOp31
 70
     1
102
RTVSPost2010Prop32
280
     0
102
RTVSPost2010PropOp32
 70
     1
102
RTVSPost2010Prop33
280
     0
102
RTVSPost2010PropOp33
 70
     1
102
RTVSPost2010Prop34
280
     0
102
RTVSPost2010PropOp34
 70
     1
102
RTVSPost2010Prop35
280
     0
102
RTVSPost2010PropOp35
 70
     1
102
RTVSPost2010Prop36
280
     0
102
RTVSPost2010PropOp36
 70
     1
102
RTVSPost2010Prop37
 90
       50
102
RTVSPost2010PropOp37
 70
     1
102
RTVSPost2010Prop38
140
0.0
102
RTVSPost2010PropOp38
 70
     1
102
RTVSPost2010Prop39
140
1.0
102
RTVSPost2010PropOp39
 70
     1
102
RTVSPost2010Prop40
 90
        0
102
RTVSPost2010PropOp40
 70
     1
102
RTVSPost2010Prop41ColorIndex
 90
       18
102
RTVSPost2010Prop41ColorRGB
 90
        0
102
RTVSPost2010PropOp41
 70
     1
102
RTVSPost2010Prop42
 90
       50
102
RTVSPost2010PropOp42
 70
     1
102
RTVSPost2010Prop43
 90
        3
102
RTVSPost2010PropOp43
 70
     1
102
RTVSPost2010Prop44ColorIndex
 90
        5
102
RTVSPost2010Prop44ColorRGB
 90
      255
102
RTVSPost2010PropOp44
 70
     1
102
RTVSPost2010Prop45
280
     0
102
RTVSPost2010PropOp45
 70
     1
102
RTVSPost2010Prop46
 90
       50
102
RTVSPost2010PropOp46
 70
     1
102
RTVSPost2010Prop47
 90
       50
102
RTVSPost2010PropOp47
 70
     1
102
RTVSPost2010Prop48
 90
       50
102
RTVSPost2010PropOp48
 70
     1
102
RTVSPost2010Prop49
280
     0
102
RTVSPost2010PropOp49
 70
     1
102
RTVSPost2010Prop50
 90
       50
102
RTVSPost2010PropOp50
 70
     1
102
RTVSPost2010Prop51ColorIndex
 90
      256
102
RTVSPost2010Prop51ColorRGB
 90
-16777216
102
RTVSPost2010PropOp51
 70
     0
102
RTVSPost2010Prop52
140
1.0
102
RTVSPost2010PropOp52
 70
     0
102
RTVSPost2010Prop53
 90
        2
102
RTVSPost2010PropOp53
 70
     1
102
RTVSPost2010Prop54
  1
strokes_ogs.tif
102
RTVSPost2010PropOp54
 70
     1
102
RTVSPost2010Prop55
280
     0
102
RTVSPost2010PropOp55
 70
     1
102
RTVSPost2010Prop56
140
1.0
102
RTVSPost2010PropOp56
 70
     1
102
RTVSPost2010Prop57
140
1.0
102
RTVSPost2010PropOp57
 70
     1
102
RTVSPropertyOp0
 70
     1
102
RTVSPropertyOp1
 70
     1
102
RTVSPropertyOp2
 70
     1
102
RTVSPropertyOp3
 70
     1
102
RTVSPropertyOp4
 70
     1
102
RTVSPropertyOp5
 70
     1
102
RTVSPropertyOp6
 70
     1
102
RTVSPropertyOp7
 70
     1
102
RTVSPropertyOp8
 70
     1
102
RTVSPropertyOp9
 70
     1
102
RTVSPropertyOp10
 70
     1
102
RTVSPropertyOp11
 70
     1
102
RTVSPropertyOp12
 70
     1
102
RTVSPropertyOp13
 70
     1
102
RTVSPropertyOp14
 70
     1
102
RTVSPropertyOp15
 70
     1
102
RTVSPropertyOp16
 70
     1
102
RTVSPropertyOp17
 70
     1
102
RTVSPropertyOp18
 70
     1
102
RTVSPropertyOp19
 70
     1
102
RTVSPropertyOp20
 70
     1
102
RTVSPropertyOp21
 70
     1
102
RTVSPropertyOp22
 70
     1
102
RTVSPropertyOp23
 70
     1
102
RTVSPropertyOp24
 70
     1
102
RTVSPropertyOp25
 70
     1
102
RTVSPropertyOp26
 70
     1
102
RTVSPropertyOp27
 70
     1
102
RTVSPropertyOp28
 70
     1
102
RTVSPropertyOp29
 70
     1
102
RTVSPropertyOp30
 70
     1
102
RTVSPropertyOp31
 70
     1
102
RTVSPropertyOp32
 70
     1
102
RTVSPropertyOp33
 70
     1
102
RTVSPropertyOp34
 70
     1
102
RTVSPropertyOp35
 70
     1
102
RTVSPropertyOp36
 70
     1
102
RTVSPropertyOp37
 70
     1
102
RTVSPropertyOp38
 70
     1
102
RTVSPropertyOp39
 70
     1
102
RTVSPropertyOp40
 70
     1
102
RTVSPropertyOp41
 70
     1
102
RTVSPropertyOp42
 70
     1
102
RTVSPropertyOp43
 70
     1
102
RTVSPropertyOp44
 70
     1
102
RTVSPropertyOp45
 70
     1
102
RTVSPropertyOp46
 70
     1
102
RTVSPropertyOp47
 70
     1
102
RTVSPropertyOp48
 70
     1
102
RTVSPropertyOp49
 70
     1
102
RTVSPropertyOp50
 70
     1
102
RTVSPropertyOp51
 70
     0
102
RTVSPropertyOp52
 70
     0
102
RTVSPropertyOp53
 70
     1
102
RTVSPropertyOp54
 70
     1
102
RTVSPropertyOp55
 70
     1
102
RTVSPropertyOp56
 70
     1
102
RTVSPropertyOp57
 70
     1
102
RTVSPropertyOp58
 70
     1
102
RTVSPropertyOp59
 70
     1
102
RTVSPropertyOp60
 70
     1
102
RTVSPropertyOp61
 70
     1
102
RTVSPropertyOp62
 70
     1
  0
XRECORD
  5
1150
102
{ACAD_REACTORS
330
114F
102
}
330
114F
100
AcDbXrecord
280
     1
102
RTVSPost2010Prop28
280
     0
102
RTVSPost2010PropOp28
 70
     1
102
RTVSPost2010Prop29
280
     1
102
RTVSPost2010PropOp29
 70
     1
102
RTVSPost2010Prop30
280
     1
102
RTVSPost2010PropOp30
 70
     1
102
RTVSPost2010Prop31
280
     0
102
RTVSPost2010PropOp31
 70
     1
102
RTVSPost2010Prop32
280
     0
102
RTVSPost2010PropOp32
 70
     1
102
RTVSPost2010Prop33
280
     0
102
RTVSPost2010PropOp33
 70
     1
102
RTVSPost2010Prop34
280
     0
102
RTVSPost2010PropOp34
 70
     1
102
RTVSPost2010Prop35
280
     0
102
RTVSPost2010PropOp35
 70
     1
102
RTVSPost2010Prop36
280
     0
102
RTVSPost2010PropOp36
 70
     1
102
RTVSPost2010Prop37
 90
       50
102
RTVSPost2010PropOp37
 70
     1
102
RTVSPost2010Prop38
140
0.0
102
RTVSPost2010PropOp38
 70
     1
102
RTVSPost2010Prop39
140
1.0
102
RTVSPost2010PropOp39
 70
     1
102
RTVSPost2010Prop40
 90
        0
102
RTVSPost2010PropOp40
 70
     1
102
RTVSPost2010Prop41ColorIndex
 90
       18
102
RTVSPost2010Prop41ColorRGB
 90
        0
102
RTVSPost2010PropOp41
 70
     1
102
RTVSPost2010Prop42
 90
       50
102
RTVSPost2010PropOp42
 70
     1
102
RTVSPost2010Prop43
 90
        3
102
RTVSPost2010PropOp43
 70
     1
102
RTVSPost2010Prop44ColorIndex
 90
        5
102
RTVSPost2010Prop44ColorRGB
 90
      255
102
RTVSPost2010PropOp44
 70
     1
102
RTVSPost2010Prop45
280
     0
102
RTVSPost2010PropOp45
 70
     1
102
RTVSPost2010Prop46
 90
       50
102
RTVSPost2010PropOp46
 70
     1
102
RTVSPost2010Prop47
 90
       50
102
RTVSPost2010PropOp47
 70
     1
102
RTVSPost2010Prop48
 90
       50
102
RTVSPost2010PropOp48
 70
     1
102
RTVSPost2010Prop49
280
     0
102
RTVSPost2010PropOp49
 70
     1
102
RTVSPost2010Prop50
 90
       50
102
RTVSPost2010PropOp50
 70
     1
102
RTVSPost2010Prop51ColorIndex
 90
      256
102
RTVSPost2010Prop51ColorRGB
 90
-16777216
102
RTVSPost2010PropOp51
 70
     0
102
RTVSPost2010Prop52
140
1.0
102
RTVSPost2010PropOp52
 70
     0
102
RTVSPost2010Prop53
 90
        2
102
RTVSPost2010PropOp53
 70
     1
102
RTVSPost2010Prop54
  1
strokes_ogs.tif
102
RTVSPost2010PropOp54
 70
     1
102
RTVSPost2010Prop55
280
     0
102
RTVSPost2010PropOp55
 70
     1
102
RTVSPost2010Prop56
140
1.0
102
RTVSPost2010PropOp56
 70
     1
102
RTVSPost2010Prop57
140
1.0
102
RTVSPost2010PropOp57
 70
     1
102
RTVSPropertyOp0
 70
     1
102
RTVSPropertyOp1
 70
     1
102
RTVSPropertyOp2
 70
     1
102
RTVSPropertyOp3
 70
     1
102
RTVSPropertyOp4
 70
     1
102
RTVSPropertyOp5
 70
     1
102
RTVSPropertyOp6
 70
     1
102
RTVSPropertyOp7
 70
     1
102
RTVSPropertyOp8
 70
     1
102
RTVSPropertyOp9
 70
     1
102
RTVSPropertyOp10
 70
     1
102
RTVSPropertyOp11
 70
     1
102
RTVSPropertyOp12
 70
     1
102
RTVSPropertyOp13
 70
     1
102
RTVSPropertyOp14
 70
     1
102
RTVSPropertyOp15
 70
     1
102
RTVSPropertyOp16
 70
     1
102
RTVSPropertyOp17
 70
     1
102
RTVSPropertyOp18
 70
     1
102
RTVSPropertyOp19
 70
     1
102
RTVSPropertyOp20
 70
     1
102
RTVSPropertyOp21
 70
     1
102
RTVSPropertyOp22
 70
     1
102
RTVSPropertyOp23
 70
     1
102
RTVSPropertyOp24
 70
     1
102
RTVSPropertyOp25
 70
     1
102
RTVSPropertyOp26
 70
     1
102
RTVSPropertyOp27
 70
     1
102
RTVSPropertyOp28
 70
     1
102
RTVSPropertyOp29
 70
     1
102
RTVSPropertyOp30
 70
     1
102
RTVSPropertyOp31
 70
     1
102
RTVSPropertyOp32
 70
     1
102
RTVSPropertyOp33
 70
     1
102
RTVSPropertyOp34
 70
     1
102
RTVSPropertyOp35
 70
     1
102
RTVSPropertyOp36
 70
     1
102
RTVSPropertyOp37
 70
     1
102
RTVSPropertyOp38
 70
     1
102
RTVSPropertyOp39
 70
     1
102
RTVSPropertyOp40
 70
     1
102
RTVSPropertyOp41
 70
     1
102
RTVSPropertyOp42
 70
     1
102
RTVSPropertyOp43
 70
     1
102
RTVSPropertyOp44
 70
     1
102
RTVSPropertyOp45
 70
     1
102
RTVSPropertyOp46
 70
     1
102
RTVSPropertyOp47
 70
     1
102
RTVSPropertyOp48
 70
     1
102
RTVSPropertyOp49
 70
     1
102
RTVSPropertyOp50
 70
     1
102
RTVSPropertyOp51
 70
     0
102
RTVSPropertyOp52
 70
     0
102
RTVSPropertyOp53
 70
     1
102
RTVSPropertyOp54
 70
     1
102
RTVSPropertyOp55
 70
     1
102
RTVSPropertyOp56
 70
     1
102
RTVSPropertyOp57
 70
     1
102
RTVSPropertyOp58
 70
     1
102
RTVSPropertyOp59
 70
     1
102
RTVSPropertyOp60
 70
     1
102
RTVSPropertyOp61
 70
     1
102
RTVSPropertyOp62
 70
     1
  0
XRECORD
  5
1152
102
{ACAD_REACTORS
330
1151
102
}
330
1151
100
AcDbXrecord
280
     1
102
RTVSPost2010Prop28
280
     0
102
RTVSPost2010PropOp28
 70
     1
102
RTVSPost2010Prop29
280
     1
102
RTVSPost2010PropOp29
 70
     1
102
RTVSPost2010Prop30
280
     1
102
RTVSPost2010PropOp30
 70
     1
102
RTVSPost2010Prop31
280
     0
102
RTVSPost2010PropOp31
 70
     1
102
RTVSPost2010Prop32
280
     0
102
RTVSPost2010PropOp32
 70
     1
102
RTVSPost2010Prop33
280
     0
102
RTVSPost2010PropOp33
 70
     1
102
RTVSPost2010Prop34
280
     0
102
RTVSPost2010PropOp34
 70
     1
102
RTVSPost2010Prop35
280
     0
102
RTVSPost2010PropOp35
 70
     1
102
RTVSPost2010Prop36
280
     0
102
RTVSPost2010PropOp36
 70
     1
102
RTVSPost2010Prop37
 90
       50
102
RTVSPost2010PropOp37
 70
     1
102
RTVSPost2010Prop38
140
0.0
102
RTVSPost2010PropOp38
 70
     1
102
RTVSPost2010Prop39
140
1.0
102
RTVSPost2010PropOp39
 70
     1
102
RTVSPost2010Prop40
 90
        0
102
RTVSPost2010PropOp40
 70
     1
102
RTVSPost2010Prop41ColorIndex
 90
       18
102
RTVSPost2010Prop41ColorRGB
 90
        0
102
RTVSPost2010PropOp41
 70
     1
102
RTVSPost2010Prop42
 90
       50
102
RTVSPost2010PropOp42
 70
     1
102
RTVSPost2010Prop43
 90
        3
102
RTVSPost2010PropOp43
 70
     1
102
RTVSPost2010Prop44ColorIndex
 90
        5
102
RTVSPost2010Prop44ColorRGB
 90
      255
102
RTVSPost2010PropOp44
 70
     1
102
RTVSPost2010Prop45
280
     0
102
RTVSPost2010PropOp45
 70
     1
102
RTVSPost2010Prop46
 90
       50
102
RTVSPost2010PropOp46
 70
     1
102
RTVSPost2010Prop47
 90
       50
102
RTVSPost2010PropOp47
 70
     1
102
RTVSPost2010Prop48
 90
       50
102
RTVSPost2010PropOp48
 70
     1
102
RTVSPost2010Prop49
280
     0
102
RTVSPost2010PropOp49
 70
     1
102
RTVSPost2010Prop50
 90
       50
102
RTVSPost2010PropOp50
 70
     1
102
RTVSPost2010Prop51ColorIndex
 90
      256
102
RTVSPost2010Prop51ColorRGB
 90
-16777216
102
RTVSPost2010PropOp51
 70
     0
102
RTVSPost2010Prop52
140
1.0
102
RTVSPost2010PropOp52
 70
     0
102
RTVSPost2010Prop53
 90
        2
102
RTVSPost2010PropOp53
 70
     1
102
RTVSPost2010Prop54
  1
strokes_ogs.tif
102
RTVSPost2010PropOp54
 70
     1
102
RTVSPost2010Prop55
280
     0
102
RTVSPost2010PropOp55
 70
     1
102
RTVSPost2010Prop56
140
1.0
102
RTVSPost2010PropOp56
 70
     1
102
RTVSPost2010Prop57
140
1.0
102
RTVSPost2010PropOp57
 70
     1
102
RTVSPropertyOp0
 70
     1
102
RTVSPropertyOp1
 70
     1
102
RTVSPropertyOp2
 70
     1
102
RTVSPropertyOp3
 70
     1
102
RTVSPropertyOp4
 70
     1
102
RTVSPropertyOp5
 70
     1
102
RTVSPropertyOp6
 70
     1
102
RTVSPropertyOp7
 70
     1
102
RTVSPropertyOp8
 70
     1
102
RTVSPropertyOp9
 70
     1
102
RTVSPropertyOp10
 70
     1
102
RTVSPropertyOp11
 70
     1
102
RTVSPropertyOp12
 70
     1
102
RTVSPropertyOp13
 70
     1
102
RTVSPropertyOp14
 70
     1
102
RTVSPropertyOp15
 70
     1
102
RTVSPropertyOp16
 70
     1
102
RTVSPropertyOp17
 70
     1
102
RTVSPropertyOp18
 70
     1
102
RTVSPropertyOp19
 70
     1
102
RTVSPropertyOp20
 70
     1
102
RTVSPropertyOp21
 70
     1
102
RTVSPropertyOp22
 70
     1
102
RTVSPropertyOp23
 70
     1
102
RTVSPropertyOp24
 70
     1
102
RTVSPropertyOp25
 70
     1
102
RTVSPropertyOp26
 70
     1
102
RTVSPropertyOp27
 70
     1
102
RTVSPropertyOp28
 70
     1
102
RTVSPropertyOp29
 70
     1
102
RTVSPropertyOp30
 70
     1
102
RTVSPropertyOp31
 70
     1
102
RTVSPropertyOp32
 70
     1
102
RTVSPropertyOp33
 70
     1
102
RTVSPropertyOp34
 70
     1
102
RTVSPropertyOp35
 70
     1
102
RTVSPropertyOp36
 70
     1
102
RTVSPropertyOp37
 70
     1
102
RTVSPropertyOp38
 70
     1
102
RTVSPropertyOp39
 70
     1
102
RTVSPropertyOp40
 70
     1
102
RTVSPropertyOp41
 70
     1
102
RTVSPropertyOp42
 70
     1
102
RTVSPropertyOp43
 70
     1
102
RTVSPropertyOp44
 70
     1
102
RTVSPropertyOp45
 70
     1
102
RTVSPropertyOp46
 70
     1
102
RTVSPropertyOp47
 70
     1
102
RTVSPropertyOp48
 70
     1
102
RTVSPropertyOp49
 70
     1
102
RTVSPropertyOp50
 70
     1
102
RTVSPropertyOp51
 70
     0
102
RTVSPropertyOp52
 70
     0
102
RTVSPropertyOp53
 70
     1
102
RTVSPropertyOp54
 70
     1
102
RTVSPropertyOp55
 70
     1
102
RTVSPropertyOp56
 70
     1
102
RTVSPropertyOp57
 70
     1
102
RTVSPropertyOp58
 70
     1
102
RTVSPropertyOp59
 70
     1
102
RTVSPropertyOp60
 70
     1
102
RTVSPropertyOp61
 70
     1
102
RTVSPropertyOp62
 70
     1
  0
XRECORD
  5
1154
102
{ACAD_REACTORS
330
1153
102
}
330
1153
100
AcDbXrecord
280
     1
102
RTVSPost2010Prop28
280
     0
102
RTVSPost2010PropOp28
 70
     1
102
RTVSPost2010Prop29
280
     1
102
RTVSPost2010PropOp29
 70
     1
102
RTVSPost2010Prop30
280
     1
102
RTVSPost2010PropOp30
 70
     1
102
RTVSPost2010Prop31
280
     0
102
RTVSPost2010PropOp31
 70
     1
102
RTVSPost2010Prop32
280
     0
102
RTVSPost2010PropOp32
 70
     1
102
RTVSPost2010Prop33
280
     0
102
RTVSPost2010PropOp33
 70
     1
102
RTVSPost2010Prop34
280
     0
102
RTVSPost2010PropOp34
 70
     1
102
RTVSPost2010Prop35
280
     0
102
RTVSPost2010PropOp35
 70
     1
102
RTVSPost2010Prop36
280
     0
102
RTVSPost2010PropOp36
 70
     1
102
RTVSPost2010Prop37
 90
       50
102
RTVSPost2010PropOp37
 70
     1
102
RTVSPost2010Prop38
140
0.0
102
RTVSPost2010PropOp38
 70
     1
102
RTVSPost2010Prop39
140
1.0
102
RTVSPost2010PropOp39
 70
     1
102
RTVSPost2010Prop40
 90
        0
102
RTVSPost2010PropOp40
 70
     1
102
RTVSPost2010Prop41ColorIndex
 90
       18
102
RTVSPost2010Prop41ColorRGB
 90
        0
102
RTVSPost2010PropOp41
 70
     1
102
RTVSPost2010Prop42
 90
       50
102
RTVSPost2010PropOp42
 70
     1
102
RTVSPost2010Prop43
 90
        3
102
RTVSPost2010PropOp43
 70
     1
102
RTVSPost2010Prop44ColorIndex
 90
        5
102
RTVSPost2010Prop44ColorRGB
 90
      255
102
RTVSPost2010PropOp44
 70
     1
102
RTVSPost2010Prop45
280
     0
102
RTVSPost2010PropOp45
 70
     1
102
RTVSPost2010Prop46
 90
       50
102
RTVSPost2010PropOp46
 70
     1
102
RTVSPost2010Prop47
 90
       50
102
RTVSPost2010PropOp47
 70
     1
102
RTVSPost2010Prop48
 90
       50
102
RTVSPost2010PropOp48
 70
     1
102
RTVSPost2010Prop49
280
     0
102
RTVSPost2010PropOp49
 70
     1
102
RTVSPost2010Prop50
 90
       50
102
RTVSPost2010PropOp50
 70
     1
102
RTVSPost2010Prop51ColorIndex
 90
      256
102
RTVSPost2010Prop51ColorRGB
 90
-16777216
102
RTVSPost2010PropOp51
 70
     0
102
RTVSPost2010Prop52
140
1.0
102
RTVSPost2010PropOp52
 70
     0
102
RTVSPost2010Prop53
 90
        2
102
RTVSPost2010PropOp53
 70
     1
102
RTVSPost2010Prop54
  1
strokes_ogs.tif
102
RTVSPost2010PropOp54
 70
     1
102
RTVSPost2010Prop55
280
     0
102
RTVSPost2010PropOp55
 70
     1
102
RTVSPost2010Prop56
140
1.0
102
RTVSPost2010PropOp56
 70
     1
102
RTVSPost2010Prop57
140
1.0
102
RTVSPost2010PropOp57
 70
     1
102
RTVSPropertyOp0
 70
     1
102
RTVSPropertyOp1
 70
     1
102
RTVSPropertyOp2
 70
     1
102
RTVSPropertyOp3
 70
     1
102
RTVSPropertyOp4
 70
     1
102
RTVSPropertyOp5
 70
     1
102
RTVSPropertyOp6
 70
     1
102
RTVSPropertyOp7
 70
     1
102
RTVSPropertyOp8
 70
     1
102
RTVSPropertyOp9
 70
     1
102
RTVSPropertyOp10
 70
     1
102
RTVSPropertyOp11
 70
     1
102
RTVSPropertyOp12
 70
     1
102
RTVSPropertyOp13
 70
     1
102
RTVSPropertyOp14
 70
     1
102
RTVSPropertyOp15
 70
     1
102
RTVSPropertyOp16
 70
     1
102
RTVSPropertyOp17
 70
     1
102
RTVSPropertyOp18
 70
     1
102
RTVSPropertyOp19
 70
     1
102
RTVSPropertyOp20
 70
     1
102
RTVSPropertyOp21
 70
     1
102
RTVSPropertyOp22
 70
     1
102
RTVSPropertyOp23
 70
     1
102
RTVSPropertyOp24
 70
     1
102
RTVSPropertyOp25
 70
     1
102
RTVSPropertyOp26
 70
     1
102
RTVSPropertyOp27
 70
     1
102
RTVSPropertyOp28
 70
     1
102
RTVSPropertyOp29
 70
     1
102
RTVSPropertyOp30
 70
     1
102
RTVSPropertyOp31
 70
     1
102
RTVSPropertyOp32
 70
     1
102
RTVSPropertyOp33
 70
     1
102
RTVSPropertyOp34
 70
     1
102
RTVSPropertyOp35
 70
     1
102
RTVSPropertyOp36
 70
     1
102
RTVSPropertyOp37
 70
     1
102
RTVSPropertyOp38
 70
     1
102
RTVSPropertyOp39
 70
     1
102
RTVSPropertyOp40
 70
     1
102
RTVSPropertyOp41
 70
     1
102
RTVSPropertyOp42
 70
     1
102
RTVSPropertyOp43
 70
     1
102
RTVSPropertyOp44
 70
     1
102
RTVSPropertyOp45
 70
     1
102
RTVSPropertyOp46
 70
     1
102
RTVSPropertyOp47
 70
     1
102
RTVSPropertyOp48
 70
     1
102
RTVSPropertyOp49
 70
     1
102
RTVSPropertyOp50
 70
     1
102
RTVSPropertyOp51
 70
     0
102
RTVSPropertyOp52
 70
     0
102
RTVSPropertyOp53
 70
     1
102
RTVSPropertyOp54
 70
     1
102
RTVSPropertyOp55
 70
     1
102
RTVSPropertyOp56
 70
     1
102
RTVSPropertyOp57
 70
     1
102
RTVSPropertyOp58
 70
     1
102
RTVSPropertyOp59
 70
     1
102
RTVSPropertyOp60
 70
     1
102
RTVSPropertyOp61
 70
     1
102
RTVSPropertyOp62
 70
     1
  0
XRECORD
  5
1156
102
{ACAD_REACTORS
330
1155
102
}
330
1155
100
AcDbXrecord
280
     1
102
RTVSPost2010Prop28
280
     0
102
RTVSPost2010PropOp28
 70
     1
102
RTVSPost2010Prop29
280
     1
102
RTVSPost2010PropOp29
 70
     1
102
RTVSPost2010Prop30
280
     1
102
RTVSPost2010PropOp30
 70
     1
102
RTVSPost2010Prop31
280
     0
102
RTVSPost2010PropOp31
 70
     1
102
RTVSPost2010Prop32
280
     0
102
RTVSPost2010PropOp32
 70
     1
102
RTVSPost2010Prop33
280
     0
102
RTVSPost2010PropOp33
 70
     1
102
RTVSPost2010Prop34
280
     0
102
RTVSPost2010PropOp34
 70
     1
102
RTVSPost2010Prop35
280
     0
102
RTVSPost2010PropOp35
 70
     1
102
RTVSPost2010Prop36
280
     0
102
RTVSPost2010PropOp36
 70
     1
102
RTVSPost2010Prop37
 90
       50
102
RTVSPost2010PropOp37
 70
     1
102
RTVSPost2010Prop38
140
0.0
102
RTVSPost2010PropOp38
 70
     1
102
RTVSPost2010Prop39
140
1.0
102
RTVSPost2010PropOp39
 70
     1
102
RTVSPost2010Prop40
 90
        0
102
RTVSPost2010PropOp40
 70
     1
102
RTVSPost2010Prop41ColorIndex
 90
       18
102
RTVSPost2010Prop41ColorRGB
 90
        0
102
RTVSPost2010PropOp41
 70
     1
102
RTVSPost2010Prop42
 90
       50
102
RTVSPost2010PropOp42
 70
     1
102
RTVSPost2010Prop43
 90
        3
102
RTVSPost2010PropOp43
 70
     1
102
RTVSPost2010Prop44ColorIndex
 90
        5
102
RTVSPost2010Prop44ColorRGB
 90
      255
102
RTVSPost2010PropOp44
 70
     1
102
RTVSPost2010Prop45
280
     0
102
RTVSPost2010PropOp45
 70
     1
102
RTVSPost2010Prop46
 90
       50
102
RTVSPost2010PropOp46
 70
     1
102
RTVSPost2010Prop47
 90
       50
102
RTVSPost2010PropOp47
 70
     1
102
RTVSPost2010Prop48
 90
       50
102
RTVSPost2010PropOp48
 70
     1
102
RTVSPost2010Prop49
280
     0
102
RTVSPost2010PropOp49
 70
     1
102
RTVSPost2010Prop50
 90
       50
102
RTVSPost2010PropOp50
 70
     1
102
RTVSPost2010Prop51ColorIndex
 90
      256
102
RTVSPost2010Prop51ColorRGB
 90
-16777216
102
RTVSPost2010PropOp51
 70
     0
102
RTVSPost2010Prop52
140
1.0
102
RTVSPost2010PropOp52
 70
     0
102
RTVSPost2010Prop53
 90
        2
102
RTVSPost2010PropOp53
 70
     1
102
RTVSPost2010Prop54
  1
strokes_ogs.tif
102
RTVSPost2010PropOp54
 70
     1
102
RTVSPost2010Prop55
280
     0
102
RTVSPost2010PropOp55
 70
     1
102
RTVSPost2010Prop56
140
1.0
102
RTVSPost2010PropOp56
 70
     1
102
RTVSPost2010Prop57
140
1.0
102
RTVSPost2010PropOp57
 70
     1
102
RTVSPropertyOp0
 70
     1
102
RTVSPropertyOp1
 70
     1
102
RTVSPropertyOp2
 70
     1
102
RTVSPropertyOp3
 70
     1
102
RTVSPropertyOp4
 70
     1
102
RTVSPropertyOp5
 70
     1
102
RTVSPropertyOp6
 70
     1
102
RTVSPropertyOp7
 70
     1
102
RTVSPropertyOp8
 70
     1
102
RTVSPropertyOp9
 70
     1
102
RTVSPropertyOp10
 70
     1
102
RTVSPropertyOp11
 70
     1
102
RTVSPropertyOp12
 70
     1
102
RTVSPropertyOp13
 70
     1
102
RTVSPropertyOp14
 70
     1
102
RTVSPropertyOp15
 70
     1
102
RTVSPropertyOp16
 70
     1
102
RTVSPropertyOp17
 70
     1
102
RTVSPropertyOp18
 70
     1
102
RTVSPropertyOp19
 70
     1
102
RTVSPropertyOp20
 70
     1
102
RTVSPropertyOp21
 70
     1
102
RTVSPropertyOp22
 70
     1
102
RTVSPropertyOp23
 70
     1
102
RTVSPropertyOp24
 70
     1
102
RTVSPropertyOp25
 70
     1
102
RTVSPropertyOp26
 70
     1
102
RTVSPropertyOp27
 70
     1
102
RTVSPropertyOp28
 70
     1
102
RTVSPropertyOp29
 70
     1
102
RTVSPropertyOp30
 70
     1
102
RTVSPropertyOp31
 70
     1
102
RTVSPropertyOp32
 70
     1
102
RTVSPropertyOp33
 70
     1
102
RTVSPropertyOp34
 70
     1
102
RTVSPropertyOp35
 70
     1
102
RTVSPropertyOp36
 70
     1
102
RTVSPropertyOp37
 70
     1
102
RTVSPropertyOp38
 70
     1
102
RTVSPropertyOp39
 70
     1
102
RTVSPropertyOp40
 70
     1
102
RTVSPropertyOp41
 70
     1
102
RTVSPropertyOp42
 70
     1
102
RTVSPropertyOp43
 70
     1
102
RTVSPropertyOp44
 70
     1
102
RTVSPropertyOp45
 70
     1
102
RTVSPropertyOp46
 70
     1
102
RTVSPropertyOp47
 70
     1
102
RTVSPropertyOp48
 70
     1
102
RTVSPropertyOp49
 70
     1
102
RTVSPropertyOp50
 70
     1
102
RTVSPropertyOp51
 70
     0
102
RTVSPropertyOp52
 70
     0
102
RTVSPropertyOp53
 70
     1
102
RTVSPropertyOp54
 70
     1
102
RTVSPropertyOp55
 70
     1
102
RTVSPropertyOp56
 70
     1
102
RTVSPropertyOp57
 70
     1
102
RTVSPropertyOp58
 70
     1
102
RTVSPropertyOp59
 70
     1
102
RTVSPropertyOp60
 70
     1
102
RTVSPropertyOp61
 70
     1
102
RTVSPropertyOp62
 70
     1
  0
XRECORD
  5
115E
102
{ACAD_REACTORS
330
115D
102
}
330
115D
100
AcDbXrecord
280
     1
102
RTVSPost2010Prop28
280
     0
102
RTVSPost2010PropOp28
 70
     1
102
RTVSPost2010Prop29
280
     1
102
RTVSPost2010PropOp29
 70
     1
102
RTVSPost2010Prop30
280
     1
102
RTVSPost2010PropOp30
 70
     1
102
RTVSPost2010Prop31
280
     0
102
RTVSPost2010PropOp31
 70
     1
102
RTVSPost2010Prop32
280
     0
102
RTVSPost2010PropOp32
 70
     1
102
RTVSPost2010Prop33
280
     0
102
RTVSPost2010PropOp33
 70
     1
102
RTVSPost2010Prop34
280
     0
102
RTVSPost2010PropOp34
 70
     1
102
RTVSPost2010Prop35
280
     0
102
RTVSPost2010PropOp35
 70
     1
102
RTVSPost2010Prop36
280
     0
102
RTVSPost2010PropOp36
 70
     1
102
RTVSPost2010Prop37
 90
       50
102
RTVSPost2010PropOp37
 70
     1
102
RTVSPost2010Prop38
140
0.0
102
RTVSPost2010PropOp38
 70
     1
102
RTVSPost2010Prop39
140
1.0
102
RTVSPost2010PropOp39
 70
     1
102
RTVSPost2010Prop40
 90
        0
102
RTVSPost2010PropOp40
 70
     1
102
RTVSPost2010Prop41ColorIndex
 90
       18
102
RTVSPost2010Prop41ColorRGB
 90
        0
102
RTVSPost2010PropOp41
 70
     1
102
RTVSPost2010Prop42
 90
       50
102
RTVSPost2010PropOp42
 70
     1
102
RTVSPost2010Prop43
 90
        3
102
RTVSPost2010PropOp43
 70
     1
102
RTVSPost2010Prop44ColorIndex
 90
        5
102
RTVSPost2010Prop44ColorRGB
 90
      255
102
RTVSPost2010PropOp44
 70
     1
102
RTVSPost2010Prop45
280
     0
102
RTVSPost2010PropOp45
 70
     1
102
RTVSPost2010Prop46
 90
       50
102
RTVSPost2010PropOp46
 70
     1
102
RTVSPost2010Prop47
 90
       50
102
RTVSPost2010PropOp47
 70
     1
102
RTVSPost2010Prop48
 90
       50
102
RTVSPost2010PropOp48
 70
     1
102
RTVSPost2010Prop49
280
     0
102
RTVSPost2010PropOp49
 70
     1
102
RTVSPost2010Prop50
 90
       50
102
RTVSPost2010PropOp50
 70
     1
102
RTVSPost2010Prop51ColorIndex
 90
      256
102
RTVSPost2010Prop51ColorRGB
 90
-16777216
102
RTVSPost2010PropOp51
 70
     0
102
RTVSPost2010Prop52
140
1.0
102
RTVSPost2010PropOp52
 70
     0
102
RTVSPost2010Prop53
 90
        2
102
RTVSPost2010PropOp53
 70
     1
102
RTVSPost2010Prop54
  1
strokes_ogs.tif
102
RTVSPost2010PropOp54
 70
     1
102
RTVSPost2010Prop55
280
     0
102
RTVSPost2010PropOp55
 70
     1
102
RTVSPost2010Prop56
140
1.0
102
RTVSPost2010PropOp56
 70
     1
102
RTVSPost2010Prop57
140
1.0
102
RTVSPost2010PropOp57
 70
     1
102
RTVSPropertyOp0
 70
     1
102
RTVSPropertyOp1
 70
     1
102
RTVSPropertyOp2
 70
     1
102
RTVSPropertyOp3
 70
     1
102
RTVSPropertyOp4
 70
     1
102
RTVSPropertyOp5
 70
     1
102
RTVSPropertyOp6
 70
     1
102
RTVSPropertyOp7
 70
     1
102
RTVSPropertyOp8
 70
     1
102
RTVSPropertyOp9
 70
     1
102
RTVSPropertyOp10
 70
     1
102
RTVSPropertyOp11
 70
     1
102
RTVSPropertyOp12
 70
     1
102
RTVSPropertyOp13
 70
     1
102
RTVSPropertyOp14
 70
     1
102
RTVSPropertyOp15
 70
     1
102
RTVSPropertyOp16
 70
     1
102
RTVSPropertyOp17
 70
     1
102
RTVSPropertyOp18
 70
     1
102
RTVSPropertyOp19
 70
     1
102
RTVSPropertyOp20
 70
     1
102
RTVSPropertyOp21
 70
     1
102
RTVSPropertyOp22
 70
     1
102
RTVSPropertyOp23
 70
     1
102
RTVSPropertyOp24
 70
     1
102
RTVSPropertyOp25
 70
     1
102
RTVSPropertyOp26
 70
     1
102
RTVSPropertyOp27
 70
     1
102
RTVSPropertyOp28
 70
     1
102
RTVSPropertyOp29
 70
     1
102
RTVSPropertyOp30
 70
     1
102
RTVSPropertyOp31
 70
     1
102
RTVSPropertyOp32
 70
     1
102
RTVSPropertyOp33
 70
     1
102
RTVSPropertyOp34
 70
     1
102
RTVSPropertyOp35
 70
     1
102
RTVSPropertyOp36
 70
     1
102
RTVSPropertyOp37
 70
     1
102
RTVSPropertyOp38
 70
     1
102
RTVSPropertyOp39
 70
     1
102
RTVSPropertyOp40
 70
     1
102
RTVSPropertyOp41
 70
     1
102
RTVSPropertyOp42
 70
     1
102
RTVSPropertyOp43
 70
     1
102
RTVSPropertyOp44
 70
     1
102
RTVSPropertyOp45
 70
     1
102
RTVSPropertyOp46
 70
     1
102
RTVSPropertyOp47
 70
     1
102
RTVSPropertyOp48
 70
     1
102
RTVSPropertyOp49
 70
     1
102
RTVSPropertyOp50
 70
     1
102
RTVSPropertyOp51
 70
     0
102
RTVSPropertyOp52
 70
     0
102
RTVSPropertyOp53
 70
     1
102
RTVSPropertyOp54
 70
     1
102
RTVSPropertyOp55
 70
     1
102
RTVSPropertyOp56
 70
     1
102
RTVSPropertyOp57
 70
     1
102
RTVSPropertyOp58
 70
     1
102
RTVSPropertyOp59
 70
     1
102
RTVSPropertyOp60
 70
     1
102
RTVSPropertyOp61
 70
     1
102
RTVSPropertyOp62
 70
     1
  0
XRECORD
  5
117A
102
{ACAD_REACTORS
330
1179
102
}
330
1179
100
AcDbXrecord
280
     1
102
RTVSPost2010Prop28
280
     0
102
RTVSPost2010PropOp28
 70
     1
102
RTVSPost2010Prop29
280
     1
102
RTVSPost2010PropOp29
 70
     1
102
RTVSPost2010Prop30
280
     1
102
RTVSPost2010PropOp30
 70
     1
102
RTVSPost2010Prop31
280
     0
102
RTVSPost2010PropOp31
 70
     1
102
RTVSPost2010Prop32
280
     0
102
RTVSPost2010PropOp32
 70
     1
102
RTVSPost2010Prop33
280
     0
102
RTVSPost2010PropOp33
 70
     1
102
RTVSPost2010Prop34
280
     0
102
RTVSPost2010PropOp34
 70
     1
102
RTVSPost2010Prop35
280
     0
102
RTVSPost2010PropOp35
 70
     1
102
RTVSPost2010Prop36
280
     0
102
RTVSPost2010PropOp36
 70
     1
102
RTVSPost2010Prop37
 90
       50
102
RTVSPost2010PropOp37
 70
     0
102
RTVSPost2010Prop38
140
0.0
102
RTVSPost2010PropOp38
 70
     0
102
RTVSPost2010Prop39
140
1.0
102
RTVSPost2010PropOp39
 70
     0
102
RTVSPost2010Prop40
 90
        0
102
RTVSPost2010PropOp40
 70
     0
102
RTVSPost2010Prop41ColorIndex
 90
       18
102
RTVSPost2010Prop41ColorRGB
 90
        0
102
RTVSPost2010PropOp41
 70
     0
102
RTVSPost2010Prop42
 90
       50
102
RTVSPost2010PropOp42
 70
     0
102
RTVSPost2010Prop43
 90
        3
102
RTVSPost2010PropOp43
 70
     0
102
RTVSPost2010Prop44ColorIndex
 90
        5
102
RTVSPost2010Prop44ColorRGB
 90
      255
102
RTVSPost2010PropOp44
 70
     0
102
RTVSPost2010Prop45
280
     0
102
RTVSPost2010PropOp45
 70
     1
102
RTVSPost2010Prop46
 90
       50
102
RTVSPost2010PropOp46
 70
     0
102
RTVSPost2010Prop47
 90
       50
102
RTVSPost2010PropOp47
 70
     0
102
RTVSPost2010Prop48
 90
       50
102
RTVSPost2010PropOp48
 70
     0
102
RTVSPost2010Prop49
280
     0
102
RTVSPost2010PropOp49
 70
     1
102
RTVSPost2010Prop50
 90
       50
102
RTVSPost2010PropOp50
 70
     0
102
RTVSPost2010Prop51ColorIndex
 90
      256
102
RTVSPost2010Prop51ColorRGB
 90
-16777216
102
RTVSPost2010PropOp51
 70
     0
102
RTVSPost2010Prop52
140
1.0
102
RTVSPost2010PropOp52
 70
     0
102
RTVSPost2010Prop53
 90
        2
102
RTVSPost2010PropOp53
 70
     0
102
RTVSPost2010Prop54
  1
strokes_ogs.tif
102
RTVSPost2010PropOp54
 70
     0
102
RTVSPost2010Prop55
280
     0
102
RTVSPost2010PropOp55
 70
     1
102
RTVSPost2010Prop56
140
1.0
102
RTVSPost2010PropOp56
 70
     0
102
RTVSPost2010Prop57
140
1.0
102
RTVSPost2010PropOp57
 70
     0
102
RTVSPropertyOp0
 70
     0
102
RTVSPropertyOp1
 70
     0
102
RTVSPropertyOp2
 70
     0
102
RTVSPropertyOp3
 70
     0
102
RTVSPropertyOp4
 70
     0
102
RTVSPropertyOp5
 70
     0
102
RTVSPropertyOp6
 70
     0
102
RTVSPropertyOp7
 70
     0
102
RTVSPropertyOp8
 70
     0
102
RTVSPropertyOp9
 70
     0
102
RTVSPropertyOp10
 70
     0
102
RTVSPropertyOp11
 70
     0
102
RTVSPropertyOp12
 70
     0
102
RTVSPropertyOp13
 70
     0
102
RTVSPropertyOp14
 70
     2
102
RTVSPropertyOp15
 70
     0
102
RTVSPropertyOp16
 70
     0
102
RTVSPropertyOp17
 70
     0
102
RTVSPropertyOp18
 70
     0
102
RTVSPropertyOp19
 70
     0
102
RTVSPropertyOp20
 70
     0
102
RTVSPropertyOp21
 70
     0
102
RTVSPropertyOp22
 70
     0
102
RTVSPropertyOp23
 70
     0
102
RTVSPropertyOp24
 70
     0
102
RTVSPropertyOp25
 70
     0
102
RTVSPropertyOp26
 70
     0
102
RTVSPropertyOp27
 70
     0
102
RTVSPropertyOp28
 70
     1
102
RTVSPropertyOp29
 70
     1
102
RTVSPropertyOp30
 70
     1
102
RTVSPropertyOp31
 70
     1
102
RTVSPropertyOp32
 70
     1
102
RTVSPropertyOp33
 70
     1
102
RTVSPropertyOp34
 70
     1
102
RTVSPropertyOp35
 70
     1
102
RTVSPropertyOp36
 70
     1
102
RTVSPropertyOp37
 70
     0
102
RTVSPropertyOp38
 70
     0
102
RTVSPropertyOp39
 70
     0
102
RTVSPropertyOp40
 70
     0
102
RTVSPropertyOp41
 70
     0
102
RTVSPropertyOp42
 70
     0
102
RTVSPropertyOp43
 70
     0
102
RTVSPropertyOp44
 70
     0
102
RTVSPropertyOp45
 70
     1
102
RTVSPropertyOp46
 70
     0
102
RTVSPropertyOp47
 70
     0
102
RTVSPropertyOp48
 70
     0
102
RTVSPropertyOp49
 70
     1
102
RTVSPropertyOp50
 70
     0
102
RTVSPropertyOp51
 70
     0
102
RTVSPropertyOp52
 70
     0
102
RTVSPropertyOp53
 70
     0
102
RTVSPropertyOp54
 70
     0
102
RTVSPropertyOp55
 70
     1
102
RTVSPropertyOp56
 70
     0
102
RTVSPropertyOp57
 70
     0
102
RTVSPropertyOp58
 70
     1
102
RTVSPropertyOp59
 70
     1
102
RTVSPropertyOp60
 70
     1
102
RTVSPropertyOp61
 70
     1
102
RTVSPropertyOp62
 70
     1
  0
XRECORD
  5
116A
102
{ACAD_REACTORS
330
1169
102
}
330
1169
100
AcDbXrecord
280
     1
102
RTVSPost2010Prop28
280
     0
102
RTVSPost2010PropOp28
 70
     1
102
RTVSPost2010Prop29
280
     1
102
RTVSPost2010PropOp29
 70
     1
102
RTVSPost2010Prop30
280
     1
102
RTVSPost2010PropOp30
 70
     1
102
RTVSPost2010Prop31
280
     0
102
RTVSPost2010PropOp31
 70
     1
102
RTVSPost2010Prop32
280
     0
102
RTVSPost2010PropOp32
 70
     1
102
RTVSPost2010Prop33
280
     0
102
RTVSPost2010PropOp33
 70
     1
102
RTVSPost2010Prop34
280
     0
102
RTVSPost2010PropOp34
 70
     1
102
RTVSPost2010Prop35
280
     0
102
RTVSPost2010PropOp35
 70
     1
102
RTVSPost2010Prop36
280
     0
102
RTVSPost2010PropOp36
 70
     1
102
RTVSPost2010Prop37
 90
       50
102
RTVSPost2010PropOp37
 70
     1
102
RTVSPost2010Prop38
140
0.0
102
RTVSPost2010PropOp38
 70
     1
102
RTVSPost2010Prop39
140
1.0
102
RTVSPost2010PropOp39
 70
     1
102
RTVSPost2010Prop40
 90
        0
102
RTVSPost2010PropOp40
 70
     1
102
RTVSPost2010Prop41ColorIndex
 90
       18
102
RTVSPost2010Prop41ColorRGB
 90
        0
102
RTVSPost2010PropOp41
 70
     1
102
RTVSPost2010Prop42
 90
       50
102
RTVSPost2010PropOp42
 70
     1
102
RTVSPost2010Prop43
 90
        3
102
RTVSPost2010PropOp43
 70
     1
102
RTVSPost2010Prop44ColorIndex
 90
        5
102
RTVSPost2010Prop44ColorRGB
 90
      255
102
RTVSPost2010PropOp44
 70
     1
102
RTVSPost2010Prop45
280
     0
102
RTVSPost2010PropOp45
 70
     1
102
RTVSPost2010Prop46
 90
       50
102
RTVSPost2010PropOp46
 70
     1
102
RTVSPost2010Prop47
 90
       50
102
RTVSPost2010PropOp47
 70
     1
102
RTVSPost2010Prop48
 90
       50
102
RTVSPost2010PropOp48
 70
     1
102
RTVSPost2010Prop49
280
     0
102
RTVSPost2010PropOp49
 70
     1
102
RTVSPost2010Prop50
 90
       50
102
RTVSPost2010PropOp50
 70
     1
102
RTVSPost2010Prop51ColorIndex
 90
      256
102
RTVSPost2010Prop51ColorRGB
 90
-16777216
102
RTVSPost2010PropOp51
 70
     0
102
RTVSPost2010Prop52
140
1.0
102
RTVSPost2010PropOp52
 70
     0
102
RTVSPost2010Prop53
 90
        2
102
RTVSPost2010PropOp53
 70
     1
102
RTVSPost2010Prop54
  1
strokes_ogs.tif
102
RTVSPost2010PropOp54
 70
     1
102
RTVSPost2010Prop55
280
     0
102
RTVSPost2010PropOp55
 70
     1
102
RTVSPost2010Prop56
140
1.0
102
RTVSPost2010PropOp56
 70
     1
102
RTVSPost2010Prop57
140
1.0
102
RTVSPost2010PropOp57
 70
     1
102
RTVSPropertyOp0
 70
     1
102
RTVSPropertyOp1
 70
     1
102
RTVSPropertyOp2
 70
     1
102
RTVSPropertyOp3
 70
     1
102
RTVSPropertyOp4
 70
     1
102
RTVSPropertyOp5
 70
     1
102
RTVSPropertyOp6
 70
     1
102
RTVSPropertyOp7
 70
     1
102
RTVSPropertyOp8
 70
     1
102
RTVSPropertyOp9
 70
     1
102
RTVSPropertyOp10
 70
     1
102
RTVSPropertyOp11
 70
     1
102
RTVSPropertyOp12
 70
     1
102
RTVSPropertyOp13
 70
     1
102
RTVSPropertyOp14
 70
     1
102
RTVSPropertyOp15
 70
     1
102
RTVSPropertyOp16
 70
     1
102
RTVSPropertyOp17
 70
     1
102
RTVSPropertyOp18
 70
     1
102
RTVSPropertyOp19
 70
     1
102
RTVSPropertyOp20
 70
     1
102
RTVSPropertyOp21
 70
     1
102
RTVSPropertyOp22
 70
     1
102
RTVSPropertyOp23
 70
     1
102
RTVSPropertyOp24
 70
     1
102
RTVSPropertyOp25
 70
     1
102
RTVSPropertyOp26
 70
     1
102
RTVSPropertyOp27
 70
     1
102
RTVSPropertyOp28
 70
     1
102
RTVSPropertyOp29
 70
     1
102
RTVSPropertyOp30
 70
     1
102
RTVSPropertyOp31
 70
     1
102
RTVSPropertyOp32
 70
     1
102
RTVSPropertyOp33
 70
     1
102
RTVSPropertyOp34
 70
     1
102
RTVSPropertyOp35
 70
     1
102
RTVSPropertyOp36
 70
     1
102
RTVSPropertyOp37
 70
     1
102
RTVSPropertyOp38
 70
     1
102
RTVSPropertyOp39
 70
     1
102
RTVSPropertyOp40
 70
     1
102
RTVSPropertyOp41
 70
     1
102
RTVSPropertyOp42
 70
     1
102
RTVSPropertyOp43
 70
     1
102
RTVSPropertyOp44
 70
     1
102
RTVSPropertyOp45
 70
     1
102
RTVSPropertyOp46
 70
     1
102
RTVSPropertyOp47
 70
     1
102
RTVSPropertyOp48
 70
     1
102
RTVSPropertyOp49
 70
     1
102
RTVSPropertyOp50
 70
     1
102
RTVSPropertyOp51
 70
     0
102
RTVSPropertyOp52
 70
     0
102
RTVSPropertyOp53
 70
     1
102
RTVSPropertyOp54
 70
     1
102
RTVSPropertyOp55
 70
     1
102
RTVSPropertyOp56
 70
     1
102
RTVSPropertyOp57
 70
     1
102
RTVSPropertyOp58
 70
     1
102
RTVSPropertyOp59
 70
     1
102
RTVSPropertyOp60
 70
     1
102
RTVSPropertyOp61
 70
     1
102
RTVSPropertyOp62
 70
     1
  0
XRECORD
  5
117C
102
{ACAD_REACTORS
330
117B
102
}
330
117B
100
AcDbXrecord
280
     1
102
RTVSPost2010Prop28
280
     0
102
RTVSPost2010PropOp28
 70
     1
102
RTVSPost2010Prop29
280
     1
102
RTVSPost2010PropOp29
 70
     1
102
RTVSPost2010Prop30
280
     1
102
RTVSPost2010PropOp30
 70
     1
102
RTVSPost2010Prop31
280
     0
102
RTVSPost2010PropOp31
 70
     1
102
RTVSPost2010Prop32
280
     0
102
RTVSPost2010PropOp32
 70
     1
102
RTVSPost2010Prop33
280
     0
102
RTVSPost2010PropOp33
 70
     1
102
RTVSPost2010Prop34
280
     0
102
RTVSPost2010PropOp34
 70
     1
102
RTVSPost2010Prop35
280
     0
102
RTVSPost2010PropOp35
 70
     1
102
RTVSPost2010Prop36
280
     0
102
RTVSPost2010PropOp36
 70
     1
102
RTVSPost2010Prop37
 90
       50
102
RTVSPost2010PropOp37
 70
     0
102
RTVSPost2010Prop38
140
0.0
102
RTVSPost2010PropOp38
 70
     0
102
RTVSPost2010Prop39
140
1.0
102
RTVSPost2010PropOp39
 70
     0
102
RTVSPost2010Prop40
 90
        0
102
RTVSPost2010PropOp40
 70
     0
102
RTVSPost2010Prop41ColorIndex
 90
       18
102
RTVSPost2010Prop41ColorRGB
 90
        0
102
RTVSPost2010PropOp41
 70
     0
102
RTVSPost2010Prop42
 90
       50
102
RTVSPost2010PropOp42
 70
     0
102
RTVSPost2010Prop43
 90
        3
102
RTVSPost2010PropOp43
 70
     0
102
RTVSPost2010Prop44ColorIndex
 90
        5
102
RTVSPost2010Prop44ColorRGB
 90
      255
102
RTVSPost2010PropOp44
 70
     0
102
RTVSPost2010Prop45
280
     0
102
RTVSPost2010PropOp45
 70
     1
102
RTVSPost2010Prop46
 90
       50
102
RTVSPost2010PropOp46
 70
     0
102
RTVSPost2010Prop47
 90
       50
102
RTVSPost2010PropOp47
 70
     0
102
RTVSPost2010Prop48
 90
       50
102
RTVSPost2010PropOp48
 70
     0
102
RTVSPost2010Prop49
280
     0
102
RTVSPost2010PropOp49
 70
     1
102
RTVSPost2010Prop50
 90
       50
102
RTVSPost2010PropOp50
 70
     0
102
RTVSPost2010Prop51ColorIndex
 90
      256
102
RTVSPost2010Prop51ColorRGB
 90
-16777216
102
RTVSPost2010PropOp51
 70
     0
102
RTVSPost2010Prop52
140
1.0
102
RTVSPost2010PropOp52
 70
     0
102
RTVSPost2010Prop53
 90
        2
102
RTVSPost2010PropOp53
 70
     0
102
RTVSPost2010Prop54
  1
strokes_ogs.tif
102
RTVSPost2010PropOp54
 70
     0
102
RTVSPost2010Prop55
280
     0
102
RTVSPost2010PropOp55
 70
     1
102
RTVSPost2010Prop56
140
1.0
102
RTVSPost2010PropOp56
 70
     0
102
RTVSPost2010Prop57
140
1.0
102
RTVSPost2010PropOp57
 70
     0
102
RTVSPropertyOp0
 70
     0
102
RTVSPropertyOp1
 70
     0
102
RTVSPropertyOp2
 70
     0
102
RTVSPropertyOp3
 70
     0
102
RTVSPropertyOp4
 70
     0
102
RTVSPropertyOp5
 70
     0
102
RTVSPropertyOp6
 70
     0
102
RTVSPropertyOp7
 70
     0
102
RTVSPropertyOp8
 70
     0
102
RTVSPropertyOp9
 70
     0
102
RTVSPropertyOp10
 70
     0
102
RTVSPropertyOp11
 70
     0
102
RTVSPropertyOp12
 70
     0
102
RTVSPropertyOp13
 70
     0
102
RTVSPropertyOp14
 70
     2
102
RTVSPropertyOp15
 70
     0
102
RTVSPropertyOp16
 70
     0
102
RTVSPropertyOp17
 70
     0
102
RTVSPropertyOp18
 70
     0
102
RTVSPropertyOp19
 70
     0
102
RTVSPropertyOp20
 70
     0
102
RTVSPropertyOp21
 70
     0
102
RTVSPropertyOp22
 70
     0
102
RTVSPropertyOp23
 70
     0
102
RTVSPropertyOp24
 70
     0
102
RTVSPropertyOp25
 70
     0
102
RTVSPropertyOp26
 70
     0
102
RTVSPropertyOp27
 70
     0
102
RTVSPropertyOp28
 70
     1
102
RTVSPropertyOp29
 70
     1
102
RTVSPropertyOp30
 70
     1
102
RTVSPropertyOp31
 70
     1
102
RTVSPropertyOp32
 70
     1
102
RTVSPropertyOp33
 70
     1
102
RTVSPropertyOp34
 70
     1
102
RTVSPropertyOp35
 70
     1
102
RTVSPropertyOp36
 70
     1
102
RTVSPropertyOp37
 70
     0
102
RTVSPropertyOp38
 70
     0
102
RTVSPropertyOp39
 70
     0
102
RTVSPropertyOp40
 70
     0
102
RTVSPropertyOp41
 70
     0
102
RTVSPropertyOp42
 70
     0
102
RTVSPropertyOp43
 70
     0
102
RTVSPropertyOp44
 70
     0
102
RTVSPropertyOp45
 70
     1
102
RTVSPropertyOp46
 70
     0
102
RTVSPropertyOp47
 70
     0
102
RTVSPropertyOp48
 70
     0
102
RTVSPropertyOp49
 70
     1
102
RTVSPropertyOp50
 70
     0
102
RTVSPropertyOp51
 70
     0
102
RTVSPropertyOp52
 70
     0
102
RTVSPropertyOp53
 70
     0
102
RTVSPropertyOp54
 70
     0
102
RTVSPropertyOp55
 70
     1
102
RTVSPropertyOp56
 70
     0
102
RTVSPropertyOp57
 70
     0
102
RTVSPropertyOp58
 70
     1
102
RTVSPropertyOp59
 70
     1
102
RTVSPropertyOp60
 70
     1
102
RTVSPropertyOp61
 70
     1
102
RTVSPropertyOp62
 70
     1
  0
XRECORD
  5
1162
102
{ACAD_REACTORS
330
1161
102
}
330
1161
100
AcDbXrecord
280
     1
102
RTVSPost2010Prop28
280
     0
102
RTVSPost2010PropOp28
 70
     1
102
RTVSPost2010Prop29
280
     1
102
RTVSPost2010PropOp29
 70
     1
102
RTVSPost2010Prop30
280
     1
102
RTVSPost2010PropOp30
 70
     1
102
RTVSPost2010Prop31
280
     0
102
RTVSPost2010PropOp31
 70
     1
102
RTVSPost2010Prop32
280
     0
102
RTVSPost2010PropOp32
 70
     1
102
RTVSPost2010Prop33
280
     0
102
RTVSPost2010PropOp33
 70
     1
102
RTVSPost2010Prop34
280
     0
102
RTVSPost2010PropOp34
 70
     1
102
RTVSPost2010Prop35
280
     0
102
RTVSPost2010PropOp35
 70
     1
102
RTVSPost2010Prop36
280
     0
102
RTVSPost2010PropOp36
 70
     1
102
RTVSPost2010Prop37
 90
       50
102
RTVSPost2010PropOp37
 70
     1
102
RTVSPost2010Prop38
140
0.0
102
RTVSPost2010PropOp38
 70
     1
102
RTVSPost2010Prop39
140
1.0
102
RTVSPost2010PropOp39
 70
     1
102
RTVSPost2010Prop40
 90
        0
102
RTVSPost2010PropOp40
 70
     1
102
RTVSPost2010Prop41ColorIndex
 90
       18
102
RTVSPost2010Prop41ColorRGB
 90
        0
102
RTVSPost2010PropOp41
 70
     1
102
RTVSPost2010Prop42
 90
       50
102
RTVSPost2010PropOp42
 70
     1
102
RTVSPost2010Prop43
 90
        3
102
RTVSPost2010PropOp43
 70
     1
102
RTVSPost2010Prop44ColorIndex
 90
        5
102
RTVSPost2010Prop44ColorRGB
 90
      255
102
RTVSPost2010PropOp44
 70
     1
102
RTVSPost2010Prop45
280
     0
102
RTVSPost2010PropOp45
 70
     1
102
RTVSPost2010Prop46
 90
       50
102
RTVSPost2010PropOp46
 70
     1
102
RTVSPost2010Prop47
 90
       50
102
RTVSPost2010PropOp47
 70
     1
102
RTVSPost2010Prop48
 90
       50
102
RTVSPost2010PropOp48
 70
     1
102
RTVSPost2010Prop49
280
     0
102
RTVSPost2010PropOp49
 70
     1
102
RTVSPost2010Prop50
 90
       50
102
RTVSPost2010PropOp50
 70
     1
102
RTVSPost2010Prop51ColorIndex
 90
      256
102
RTVSPost2010Prop51ColorRGB
 90
-16777216
102
RTVSPost2010PropOp51
 70
     0
102
RTVSPost2010Prop52
140
1.0
102
RTVSPost2010PropOp52
 70
     0
102
RTVSPost2010Prop53
 90
        2
102
RTVSPost2010PropOp53
 70
     1
102
RTVSPost2010Prop54
  1
strokes_ogs.tif
102
RTVSPost2010PropOp54
 70
     1
102
RTVSPost2010Prop55
280
     0
102
RTVSPost2010PropOp55
 70
     1
102
RTVSPost2010Prop56
140
1.0
102
RTVSPost2010PropOp56
 70
     1
102
RTVSPost2010Prop57
140
1.0
102
RTVSPost2010PropOp57
 70
     1
102
RTVSPropertyOp0
 70
     1
102
RTVSPropertyOp1
 70
     1
102
RTVSPropertyOp2
 70
     1
102
RTVSPropertyOp3
 70
     1
102
RTVSPropertyOp4
 70
     1
102
RTVSPropertyOp5
 70
     1
102
RTVSPropertyOp6
 70
     1
102
RTVSPropertyOp7
 70
     1
102
RTVSPropertyOp8
 70
     1
102
RTVSPropertyOp9
 70
     1
102
RTVSPropertyOp10
 70
     1
102
RTVSPropertyOp11
 70
     1
102
RTVSPropertyOp12
 70
     1
102
RTVSPropertyOp13
 70
     1
102
RTVSPropertyOp14
 70
     1
102
RTVSPropertyOp15
 70
     1
102
RTVSPropertyOp16
 70
     1
102
RTVSPropertyOp17
 70
     1
102
RTVSPropertyOp18
 70
     1
102
RTVSPropertyOp19
 70
     1
102
RTVSPropertyOp20
 70
     1
102
RTVSPropertyOp21
 70
     1
102
RTVSPropertyOp22
 70
     1
102
RTVSPropertyOp23
 70
     1
102
RTVSPropertyOp24
 70
     1
102
RTVSPropertyOp25
 70
     1
102
RTVSPropertyOp26
 70
     1
102
RTVSPropertyOp27
 70
     1
102
RTVSPropertyOp28
 70
     1
102
RTVSPropertyOp29
 70
     1
102
RTVSPropertyOp30
 70
     1
102
RTVSPropertyOp31
 70
     1
102
RTVSPropertyOp32
 70
     1
102
RTVSPropertyOp33
 70
     1
102
RTVSPropertyOp34
 70
     1
102
RTVSPropertyOp35
 70
     1
102
RTVSPropertyOp36
 70
     1
102
RTVSPropertyOp37
 70
     1
102
RTVSPropertyOp38
 70
     1
102
RTVSPropertyOp39
 70
     1
102
RTVSPropertyOp40
 70
     1
102
RTVSPropertyOp41
 70
     1
102
RTVSPropertyOp42
 70
     1
102
RTVSPropertyOp43
 70
     1
102
RTVSPropertyOp44
 70
     1
102
RTVSPropertyOp45
 70
     1
102
RTVSPropertyOp46
 70
     1
102
RTVSPropertyOp47
 70
     1
102
RTVSPropertyOp48
 70
     1
102
RTVSPropertyOp49
 70
     1
102
RTVSPropertyOp50
 70
     1
102
RTVSPropertyOp51
 70
     0
102
RTVSPropertyOp52
 70
     0
102
RTVSPropertyOp53
 70
     1
102
RTVSPropertyOp54
 70
     1
102
RTVSPropertyOp55
 70
     1
102
RTVSPropertyOp56
 70
     1
102
RTVSPropertyOp57
 70
     1
102
RTVSPropertyOp58
 70
     1
102
RTVSPropertyOp59
 70
     1
102
RTVSPropertyOp60
 70
     1
102
RTVSPropertyOp61
 70
     1
102
RTVSPropertyOp62
 70
     1
  0
XRECORD
  5
1178
102
{ACAD_REACTORS
330
1177
102
}
330
1177
100
AcDbXrecord
280
     1
102
RTVSPost2010Prop28
280
     0
102
RTVSPost2010PropOp28
 70
     1
102
RTVSPost2010Prop29
280
     1
102
RTVSPost2010PropOp29
 70
     1
102
RTVSPost2010Prop30
280
     1
102
RTVSPost2010PropOp30
 70
     1
102
RTVSPost2010Prop31
280
     0
102
RTVSPost2010PropOp31
 70
     1
102
RTVSPost2010Prop32
280
     0
102
RTVSPost2010PropOp32
 70
     1
102
RTVSPost2010Prop33
280
     0
102
RTVSPost2010PropOp33
 70
     1
102
RTVSPost2010Prop34
280
     0
102
RTVSPost2010PropOp34
 70
     1
102
RTVSPost2010Prop35
280
     0
102
RTVSPost2010PropOp35
 70
     1
102
RTVSPost2010Prop36
280
     0
102
RTVSPost2010PropOp36
 70
     1
102
RTVSPost2010Prop37
 90
       50
102
RTVSPost2010PropOp37
 70
     1
102
RTVSPost2010Prop38
140
0.0
102
RTVSPost2010PropOp38
 70
     1
102
RTVSPost2010Prop39
140
1.0
102
RTVSPost2010PropOp39
 70
     1
102
RTVSPost2010Prop40
 90
        0
102
RTVSPost2010PropOp40
 70
     1
102
RTVSPost2010Prop41ColorIndex
 90
       18
102
RTVSPost2010Prop41ColorRGB
 90
        0
102
RTVSPost2010PropOp41
 70
     1
102
RTVSPost2010Prop42
 90
       50
102
RTVSPost2010PropOp42
 70
     1
102
RTVSPost2010Prop43
 90
        3
102
RTVSPost2010PropOp43
 70
     1
102
RTVSPost2010Prop44ColorIndex
 90
        5
102
RTVSPost2010Prop44ColorRGB
 90
      255
102
RTVSPost2010PropOp44
 70
     1
102
RTVSPost2010Prop45
280
     0
102
RTVSPost2010PropOp45
 70
     1
102
RTVSPost2010Prop46
 90
       50
102
RTVSPost2010PropOp46
 70
     1
102
RTVSPost2010Prop47
 90
       50
102
RTVSPost2010PropOp47
 70
     1
102
RTVSPost2010Prop48
 90
       50
102
RTVSPost2010PropOp48
 70
     1
102
RTVSPost2010Prop49
280
     0
102
RTVSPost2010PropOp49
 70
     1
102
RTVSPost2010Prop50
 90
       50
102
RTVSPost2010PropOp50
 70
     1
102
RTVSPost2010Prop51ColorIndex
 90
      256
102
RTVSPost2010Prop51ColorRGB
 90
-16777216
102
RTVSPost2010PropOp51
 70
     0
102
RTVSPost2010Prop52
140
1.0
102
RTVSPost2010PropOp52
 70
     0
102
RTVSPost2010Prop53
 90
        2
102
RTVSPost2010PropOp53
 70
     1
102
RTVSPost2010Prop54
  1
strokes_ogs.tif
102
RTVSPost2010PropOp54
 70
     1
102
RTVSPost2010Prop55
280
     0
102
RTVSPost2010PropOp55
 70
     1
102
RTVSPost2010Prop56
140
1.0
102
RTVSPost2010PropOp56
 70
     1
102
RTVSPost2010Prop57
140
1.0
102
RTVSPost2010PropOp57
 70
     1
102
RTVSPropertyOp0
 70
     1
102
RTVSPropertyOp1
 70
     1
102
RTVSPropertyOp2
 70
     1
102
RTVSPropertyOp3
 70
     1
102
RTVSPropertyOp4
 70
     1
102
RTVSPropertyOp5
 70
     1
102
RTVSPropertyOp6
 70
     1
102
RTVSPropertyOp7
 70
     1
102
RTVSPropertyOp8
 70
     1
102
RTVSPropertyOp9
 70
     1
102
RTVSPropertyOp10
 70
     1
102
RTVSPropertyOp11
 70
     1
102
RTVSPropertyOp12
 70
     1
102
RTVSPropertyOp13
 70
     1
102
RTVSPropertyOp14
 70
     1
102
RTVSPropertyOp15
 70
     1
102
RTVSPropertyOp16
 70
     1
102
RTVSPropertyOp17
 70
     1
102
RTVSPropertyOp18
 70
     1
102
RTVSPropertyOp19
 70
     1
102
RTVSPropertyOp20
 70
     1
102
RTVSPropertyOp21
 70
     1
102
RTVSPropertyOp22
 70
     1
102
RTVSPropertyOp23
 70
     1
102
RTVSPropertyOp24
 70
     1
102
RTVSPropertyOp25
 70
     1
102
RTVSPropertyOp26
 70
     1
102
RTVSPropertyOp27
 70
     1
102
RTVSPropertyOp28
 70
     1
102
RTVSPropertyOp29
 70
     1
102
RTVSPropertyOp30
 70
     1
102
RTVSPropertyOp31
 70
     1
102
RTVSPropertyOp32
 70
     1
102
RTVSPropertyOp33
 70
     1
102
RTVSPropertyOp34
 70
     1
102
RTVSPropertyOp35
 70
     1
102
RTVSPropertyOp36
 70
     1
102
RTVSPropertyOp37
 70
     1
102
RTVSPropertyOp38
 70
     1
102
RTVSPropertyOp39
 70
     1
102
RTVSPropertyOp40
 70
     1
102
RTVSPropertyOp41
 70
     1
102
RTVSPropertyOp42
 70
     1
102
RTVSPropertyOp43
 70
     1
102
RTVSPropertyOp44
 70
     1
102
RTVSPropertyOp45
 70
     1
102
RTVSPropertyOp46
 70
     1
102
RTVSPropertyOp47
 70
     1
102
RTVSPropertyOp48
 70
     1
102
RTVSPropertyOp49
 70
     1
102
RTVSPropertyOp50
 70
     1
102
RTVSPropertyOp51
 70
     0
102
RTVSPropertyOp52
 70
     0
102
RTVSPropertyOp53
 70
     1
102
RTVSPropertyOp54
 70
     1
102
RTVSPropertyOp55
 70
     1
102
RTVSPropertyOp56
 70
     1
102
RTVSPropertyOp57
 70
     1
102
RTVSPropertyOp58
 70
     1
102
RTVSPropertyOp59
 70
     1
102
RTVSPropertyOp60
 70
     1
102
RTVSPropertyOp61
 70
     1
102
RTVSPropertyOp62
 70
     1
  0
XRECORD
  5
1176
102
{ACAD_REACTORS
330
1175
102
}
330
1175
100
AcDbXrecord
280
     1
102
RTVSPost2010Prop28
280
     0
102
RTVSPost2010PropOp28
 70
     1
102
RTVSPost2010Prop29
280
     1
102
RTVSPost2010PropOp29
 70
     1
102
RTVSPost2010Prop30
280
     1
102
RTVSPost2010PropOp30
 70
     1
102
RTVSPost2010Prop31
280
     0
102
RTVSPost2010PropOp31
 70
     1
102
RTVSPost2010Prop32
280
     0
102
RTVSPost2010PropOp32
 70
     1
102
RTVSPost2010Prop33
280
     0
102
RTVSPost2010PropOp33
 70
     1
102
RTVSPost2010Prop34
280
     0
102
RTVSPost2010PropOp34
 70
     1
102
RTVSPost2010Prop35
280
     0
102
RTVSPost2010PropOp35
 70
     1
102
RTVSPost2010Prop36
280
     0
102
RTVSPost2010PropOp36
 70
     1
102
RTVSPost2010Prop37
 90
       50
102
RTVSPost2010PropOp37
 70
     1
102
RTVSPost2010Prop38
140
0.0
102
RTVSPost2010PropOp38
 70
     1
102
RTVSPost2010Prop39
140
1.0
102
RTVSPost2010PropOp39
 70
     1
102
RTVSPost2010Prop40
 90
        0
102
RTVSPost2010PropOp40
 70
     1
102
RTVSPost2010Prop41ColorIndex
 90
       18
102
RTVSPost2010Prop41ColorRGB
 90
        0
102
RTVSPost2010PropOp41
 70
     1
102
RTVSPost2010Prop42
 90
       50
102
RTVSPost2010PropOp42
 70
     1
102
RTVSPost2010Prop43
 90
        3
102
RTVSPost2010PropOp43
 70
     1
102
RTVSPost2010Prop44ColorIndex
 90
        5
102
RTVSPost2010Prop44ColorRGB
 90
      255
102
RTVSPost2010PropOp44
 70
     1
102
RTVSPost2010Prop45
280
     0
102
RTVSPost2010PropOp45
 70
     1
102
RTVSPost2010Prop46
 90
       50
102
RTVSPost2010PropOp46
 70
     1
102
RTVSPost2010Prop47
 90
       50
102
RTVSPost2010PropOp47
 70
     1
102
RTVSPost2010Prop48
 90
       50
102
RTVSPost2010PropOp48
 70
     1
102
RTVSPost2010Prop49
280
     0
102
RTVSPost2010PropOp49
 70
     1
102
RTVSPost2010Prop50
 90
       50
102
RTVSPost2010PropOp50
 70
     1
102
RTVSPost2010Prop51ColorIndex
 90
      256
102
RTVSPost2010Prop51ColorRGB
 90
-16777216
102
RTVSPost2010PropOp51
 70
     0
102
RTVSPost2010Prop52
140
1.0
102
RTVSPost2010PropOp52
 70
     0
102
RTVSPost2010Prop53
 90
        2
102
RTVSPost2010PropOp53
 70
     1
102
RTVSPost2010Prop54
  1
strokes_ogs.tif
102
RTVSPost2010PropOp54
 70
     1
102
RTVSPost2010Prop55
280
     0
102
RTVSPost2010PropOp55
 70
     1
102
RTVSPost2010Prop56
140
1.0
102
RTVSPost2010PropOp56
 70
     1
102
RTVSPost2010Prop57
140
1.0
102
RTVSPost2010PropOp57
 70
     1
102
RTVSPropertyOp0
 70
     1
102
RTVSPropertyOp1
 70
     1
102
RTVSPropertyOp2
 70
     1
102
RTVSPropertyOp3
 70
     1
102
RTVSPropertyOp4
 70
     1
102
RTVSPropertyOp5
 70
     1
102
RTVSPropertyOp6
 70
     1
102
RTVSPropertyOp7
 70
     1
102
RTVSPropertyOp8
 70
     1
102
RTVSPropertyOp9
 70
     1
102
RTVSPropertyOp10
 70
     1
102
RTVSPropertyOp11
 70
     1
102
RTVSPropertyOp12
 70
     1
102
RTVSPropertyOp13
 70
     1
102
RTVSPropertyOp14
 70
     1
102
RTVSPropertyOp15
 70
     1
102
RTVSPropertyOp16
 70
     1
102
RTVSPropertyOp17
 70
     1
102
RTVSPropertyOp18
 70
     1
102
RTVSPropertyOp19
 70
     1
102
RTVSPropertyOp20
 70
     1
102
RTVSPropertyOp21
 70
     1
102
RTVSPropertyOp22
 70
     1
102
RTVSPropertyOp23
 70
     1
102
RTVSPropertyOp24
 70
     1
102
RTVSPropertyOp25
 70
     1
102
RTVSPropertyOp26
 70
     1
102
RTVSPropertyOp27
 70
     1
102
RTVSPropertyOp28
 70
     1
102
RTVSPropertyOp29
 70
     1
102
RTVSPropertyOp30
 70
     1
102
RTVSPropertyOp31
 70
     1
102
RTVSPropertyOp32
 70
     1
102
RTVSPropertyOp33
 70
     1
102
RTVSPropertyOp34
 70
     1
102
RTVSPropertyOp35
 70
     1
102
RTVSPropertyOp36
 70
     1
102
RTVSPropertyOp37
 70
     1
102
RTVSPropertyOp38
 70
     1
102
RTVSPropertyOp39
 70
     1
102
RTVSPropertyOp40
 70
     1
102
RTVSPropertyOp41
 70
     1
102
RTVSPropertyOp42
 70
     1
102
RTVSPropertyOp43
 70
     1
102
RTVSPropertyOp44
 70
     1
102
RTVSPropertyOp45
 70
     1
102
RTVSPropertyOp46
 70
     1
102
RTVSPropertyOp47
 70
     1
102
RTVSPropertyOp48
 70
     1
102
RTVSPropertyOp49
 70
     1
102
RTVSPropertyOp50
 70
     1
102
RTVSPropertyOp51
 70
     0
102
RTVSPropertyOp52
 70
     0
102
RTVSPropertyOp53
 70
     1
102
RTVSPropertyOp54
 70
     1
102
RTVSPropertyOp55
 70
     1
102
RTVSPropertyOp56
 70
     1
102
RTVSPropertyOp57
 70
     1
102
RTVSPropertyOp58
 70
     1
102
RTVSPropertyOp59
 70
     1
102
RTVSPropertyOp60
 70
     1
102
RTVSPropertyOp61
 70
     1
102
RTVSPropertyOp62
 70
     1
  0
XRECORD
  5
1170
102
{ACAD_REACTORS
330
116F
102
}
330
116F
100
AcDbXrecord
280
     1
102
RTVSPost2010Prop28
280
     0
102
RTVSPost2010PropOp28
 70
     1
102
RTVSPost2010Prop29
280
     1
102
RTVSPost2010PropOp29
 70
     1
102
RTVSPost2010Prop30
280
     1
102
RTVSPost2010PropOp30
 70
     1
102
RTVSPost2010Prop31
280
     0
102
RTVSPost2010PropOp31
 70
     1
102
RTVSPost2010Prop32
280
     0
102
RTVSPost2010PropOp32
 70
     1
102
RTVSPost2010Prop33
280
     0
102
RTVSPost2010PropOp33
 70
     1
102
RTVSPost2010Prop34
280
     0
102
RTVSPost2010PropOp34
 70
     1
102
RTVSPost2010Prop35
280
     0
102
RTVSPost2010PropOp35
 70
     1
102
RTVSPost2010Prop36
280
     0
102
RTVSPost2010PropOp36
 70
     1
102
RTVSPost2010Prop37
 90
       50
102
RTVSPost2010PropOp37
 70
     1
102
RTVSPost2010Prop38
140
0.0
102
RTVSPost2010PropOp38
 70
     1
102
RTVSPost2010Prop39
140
1.0
102
RTVSPost2010PropOp39
 70
     1
102
RTVSPost2010Prop40
 90
        0
102
RTVSPost2010PropOp40
 70
     1
102
RTVSPost2010Prop41ColorIndex
 90
       18
102
RTVSPost2010Prop41ColorRGB
 90
        0
102
RTVSPost2010PropOp41
 70
     1
102
RTVSPost2010Prop42
 90
       50
102
RTVSPost2010PropOp42
 70
     1
102
RTVSPost2010Prop43
 90
        3
102
RTVSPost2010PropOp43
 70
     1
102
RTVSPost2010Prop44ColorIndex
 90
        5
102
RTVSPost2010Prop44ColorRGB
 90
      255
102
RTVSPost2010PropOp44
 70
     1
102
RTVSPost2010Prop45
280
     0
102
RTVSPost2010PropOp45
 70
     1
102
RTVSPost2010Prop46
 90
       50
102
RTVSPost2010PropOp46
 70
     1
102
RTVSPost2010Prop47
 90
       50
102
RTVSPost2010PropOp47
 70
     1
102
RTVSPost2010Prop48
 90
       50
102
RTVSPost2010PropOp48
 70
     1
102
RTVSPost2010Prop49
280
     0
102
RTVSPost2010PropOp49
 70
     1
102
RTVSPost2010Prop50
 90
       50
102
RTVSPost2010PropOp50
 70
     1
102
RTVSPost2010Prop51ColorIndex
 90
      256
102
RTVSPost2010Prop51ColorRGB
 90
-16777216
102
RTVSPost2010PropOp51
 70
     0
102
RTVSPost2010Prop52
140
1.0
102
RTVSPost2010PropOp52
 70
     0
102
RTVSPost2010Prop53
 90
        2
102
RTVSPost2010PropOp53
 70
     1
102
RTVSPost2010Prop54
  1
strokes_ogs.tif
102
RTVSPost2010PropOp54
 70
     1
102
RTVSPost2010Prop55
280
     0
102
RTVSPost2010PropOp55
 70
     1
102
RTVSPost2010Prop56
140
1.0
102
RTVSPost2010PropOp56
 70
     1
102
RTVSPost2010Prop57
140
1.0
102
RTVSPost2010PropOp57
 70
     1
102
RTVSPropertyOp0
 70
     1
102
RTVSPropertyOp1
 70
     1
102
RTVSPropertyOp2
 70
     1
102
RTVSPropertyOp3
 70
     1
102
RTVSPropertyOp4
 70
     1
102
RTVSPropertyOp5
 70
     1
102
RTVSPropertyOp6
 70
     1
102
RTVSPropertyOp7
 70
     1
102
RTVSPropertyOp8
 70
     1
102
RTVSPropertyOp9
 70
     1
102
RTVSPropertyOp10
 70
     1
102
RTVSPropertyOp11
 70
     1
102
RTVSPropertyOp12
 70
     1
102
RTVSPropertyOp13
 70
     1
102
RTVSPropertyOp14
 70
     1
102
RTVSPropertyOp15
 70
     1
102
RTVSPropertyOp16
 70
     1
102
RTVSPropertyOp17
 70
     1
102
RTVSPropertyOp18
 70
     1
102
RTVSPropertyOp19
 70
     1
102
RTVSPropertyOp20
 70
     1
102
RTVSPropertyOp21
 70
     1
102
RTVSPropertyOp22
 70
     1
102
RTVSPropertyOp23
 70
     1
102
RTVSPropertyOp24
 70
     1
102
RTVSPropertyOp25
 70
     1
102
RTVSPropertyOp26
 70
     1
102
RTVSPropertyOp27
 70
     1
102
RTVSPropertyOp28
 70
     1
102
RTVSPropertyOp29
 70
     1
102
RTVSPropertyOp30
 70
     1
102
RTVSPropertyOp31
 70
     1
102
RTVSPropertyOp32
 70
     1
102
RTVSPropertyOp33
 70
     1
102
RTVSPropertyOp34
 70
     1
102
RTVSPropertyOp35
 70
     1
102
RTVSPropertyOp36
 70
     1
102
RTVSPropertyOp37
 70
     1
102
RTVSPropertyOp38
 70
     1
102
RTVSPropertyOp39
 70
     1
102
RTVSPropertyOp40
 70
     1
102
RTVSPropertyOp41
 70
     1
102
RTVSPropertyOp42
 70
     1
102
RTVSPropertyOp43
 70
     1
102
RTVSPropertyOp44
 70
     1
102
RTVSPropertyOp45
 70
     1
102
RTVSPropertyOp46
 70
     1
102
RTVSPropertyOp47
 70
     1
102
RTVSPropertyOp48
 70
     1
102
RTVSPropertyOp49
 70
     1
102
RTVSPropertyOp50
 70
     1
102
RTVSPropertyOp51
 70
     0
102
RTVSPropertyOp52
 70
     0
102
RTVSPropertyOp53
 70
     1
102
RTVSPropertyOp54
 70
     1
102
RTVSPropertyOp55
 70
     1
102
RTVSPropertyOp56
 70
     1
102
RTVSPropertyOp57
 70
     1
102
RTVSPropertyOp58
 70
     1
102
RTVSPropertyOp59
 70
     1
102
RTVSPropertyOp60
 70
     1
102
RTVSPropertyOp61
 70
     1
102
RTVSPropertyOp62
 70
     1
  0
XRECORD
  5
1172
102
{ACAD_REACTORS
330
1171
102
}
330
1171
100
AcDbXrecord
280
     1
102
RTVSPost2010Prop28
280
     0
102
RTVSPost2010PropOp28
 70
     1
102
RTVSPost2010Prop29
280
     1
102
RTVSPost2010PropOp29
 70
     1
102
RTVSPost2010Prop30
280
     1
102
RTVSPost2010PropOp30
 70
     1
102
RTVSPost2010Prop31
280
     0
102
RTVSPost2010PropOp31
 70
     1
102
RTVSPost2010Prop32
280
     0
102
RTVSPost2010PropOp32
 70
     1
102
RTVSPost2010Prop33
280
     0
102
RTVSPost2010PropOp33
 70
     1
102
RTVSPost2010Prop34
280
     0
102
RTVSPost2010PropOp34
 70
     1
102
RTVSPost2010Prop35
280
     0
102
RTVSPost2010PropOp35
 70
     1
102
RTVSPost2010Prop36
280
     0
102
RTVSPost2010PropOp36
 70
     1
102
RTVSPost2010Prop37
 90
       50
102
RTVSPost2010PropOp37
 70
     1
102
RTVSPost2010Prop38
140
0.0
102
RTVSPost2010PropOp38
 70
     1
102
RTVSPost2010Prop39
140
1.0
102
RTVSPost2010PropOp39
 70
     1
102
RTVSPost2010Prop40
 90
        0
102
RTVSPost2010PropOp40
 70
     1
102
RTVSPost2010Prop41ColorIndex
 90
       18
102
RTVSPost2010Prop41ColorRGB
 90
        0
102
RTVSPost2010PropOp41
 70
     1
102
RTVSPost2010Prop42
 90
       50
102
RTVSPost2010PropOp42
 70
     1
102
RTVSPost2010Prop43
 90
        3
102
RTVSPost2010PropOp43
 70
     1
102
RTVSPost2010Prop44ColorIndex
 90
        5
102
RTVSPost2010Prop44ColorRGB
 90
      255
102
RTVSPost2010PropOp44
 70
     1
102
RTVSPost2010Prop45
280
     0
102
RTVSPost2010PropOp45
 70
     1
102
RTVSPost2010Prop46
 90
       50
102
RTVSPost2010PropOp46
 70
     1
102
RTVSPost2010Prop47
 90
       50
102
RTVSPost2010PropOp47
 70
     1
102
RTVSPost2010Prop48
 90
       50
102
RTVSPost2010PropOp48
 70
     1
102
RTVSPost2010Prop49
280
     0
102
RTVSPost2010PropOp49
 70
     1
102
RTVSPost2010Prop50
 90
       50
102
RTVSPost2010PropOp50
 70
     1
102
RTVSPost2010Prop51ColorIndex
 90
      256
102
RTVSPost2010Prop51ColorRGB
 90
-16777216
102
RTVSPost2010PropOp51
 70
     0
102
RTVSPost2010Prop52
140
1.0
102
RTVSPost2010PropOp52
 70
     0
102
RTVSPost2010Prop53
 90
        2
102
RTVSPost2010PropOp53
 70
     1
102
RTVSPost2010Prop54
  1
strokes_ogs.tif
102
RTVSPost2010PropOp54
 70
     1
102
RTVSPost2010Prop55
280
     0
102
RTVSPost2010PropOp55
 70
     1
102
RTVSPost2010Prop56
140
1.0
102
RTVSPost2010PropOp56
 70
     1
102
RTVSPost2010Prop57
140
1.0
102
RTVSPost2010PropOp57
 70
     1
102
RTVSPropertyOp0
 70
     1
102
RTVSPropertyOp1
 70
     1
102
RTVSPropertyOp2
 70
     1
102
RTVSPropertyOp3
 70
     1
102
RTVSPropertyOp4
 70
     1
102
RTVSPropertyOp5
 70
     1
102
RTVSPropertyOp6
 70
     1
102
RTVSPropertyOp7
 70
     1
102
RTVSPropertyOp8
 70
     1
102
RTVSPropertyOp9
 70
     1
102
RTVSPropertyOp10
 70
     1
102
RTVSPropertyOp11
 70
     1
102
RTVSPropertyOp12
 70
     1
102
RTVSPropertyOp13
 70
     1
102
RTVSPropertyOp14
 70
     1
102
RTVSPropertyOp15
 70
     1
102
RTVSPropertyOp16
 70
     1
102
RTVSPropertyOp17
 70
     1
102
RTVSPropertyOp18
 70
     1
102
RTVSPropertyOp19
 70
     1
102
RTVSPropertyOp20
 70
     1
102
RTVSPropertyOp21
 70
     1
102
RTVSPropertyOp22
 70
     1
102
RTVSPropertyOp23
 70
     1
102
RTVSPropertyOp24
 70
     1
102
RTVSPropertyOp25
 70
     1
102
RTVSPropertyOp26
 70
     1
102
RTVSPropertyOp27
 70
     1
102
RTVSPropertyOp28
 70
     1
102
RTVSPropertyOp29
 70
     1
102
RTVSPropertyOp30
 70
     1
102
RTVSPropertyOp31
 70
     1
102
RTVSPropertyOp32
 70
     1
102
RTVSPropertyOp33
 70
     1
102
RTVSPropertyOp34
 70
     1
102
RTVSPropertyOp35
 70
     1
102
RTVSPropertyOp36
 70
     1
102
RTVSPropertyOp37
 70
     1
102
RTVSPropertyOp38
 70
     1
102
RTVSPropertyOp39
 70
     1
102
RTVSPropertyOp40
 70
     1
102
RTVSPropertyOp41
 70
     1
102
RTVSPropertyOp42
 70
     1
102
RTVSPropertyOp43
 70
     1
102
RTVSPropertyOp44
 70
     1
102
RTVSPropertyOp45
 70
     1
102
RTVSPropertyOp46
 70
     1
102
RTVSPropertyOp47
 70
     1
102
RTVSPropertyOp48
 70
     1
102
RTVSPropertyOp49
 70
     1
102
RTVSPropertyOp50
 70
     1
102
RTVSPropertyOp51
 70
     0
102
RTVSPropertyOp52
 70
     0
102
RTVSPropertyOp53
 70
     1
102
RTVSPropertyOp54
 70
     1
102
RTVSPropertyOp55
 70
     1
102
RTVSPropertyOp56
 70
     1
102
RTVSPropertyOp57
 70
     1
102
RTVSPropertyOp58
 70
     1
102
RTVSPropertyOp59
 70
     1
102
RTVSPropertyOp60
 70
     1
102
RTVSPropertyOp61
 70
     1
102
RTVSPropertyOp62
 70
     1
  0
XRECORD
  5
1168
102
{ACAD_REACTORS
330
1167
102
}
330
1167
100
AcDbXrecord
280
     1
102
RTVSPost2010Prop28
280
     0
102
RTVSPost2010PropOp28
 70
     1
102
RTVSPost2010Prop29
280
     1
102
RTVSPost2010PropOp29
 70
     1
102
RTVSPost2010Prop30
280
     1
102
RTVSPost2010PropOp30
 70
     1
102
RTVSPost2010Prop31
280
     0
102
RTVSPost2010PropOp31
 70
     1
102
RTVSPost2010Prop32
280
     0
102
RTVSPost2010PropOp32
 70
     1
102
RTVSPost2010Prop33
280
     0
102
RTVSPost2010PropOp33
 70
     1
102
RTVSPost2010Prop34
280
     0
102
RTVSPost2010PropOp34
 70
     1
102
RTVSPost2010Prop35
280
     0
102
RTVSPost2010PropOp35
 70
     1
102
RTVSPost2010Prop36
280
     0
102
RTVSPost2010PropOp36
 70
     1
102
RTVSPost2010Prop37
 90
       50
102
RTVSPost2010PropOp37
 70
     1
102
RTVSPost2010Prop38
140
0.0
102
RTVSPost2010PropOp38
 70
     1
102
RTVSPost2010Prop39
140
1.0
102
RTVSPost2010PropOp39
 70
     1
102
RTVSPost2010Prop40
 90
        0
102
RTVSPost2010PropOp40
 70
     1
102
RTVSPost2010Prop41ColorIndex
 90
       18
102
RTVSPost2010Prop41ColorRGB
 90
        0
102
RTVSPost2010PropOp41
 70
     1
102
RTVSPost2010Prop42
 90
       50
102
RTVSPost2010PropOp42
 70
     1
102
RTVSPost2010Prop43
 90
        3
102
RTVSPost2010PropOp43
 70
     1
102
RTVSPost2010Prop44ColorIndex
 90
        5
102
RTVSPost2010Prop44ColorRGB
 90
      255
102
RTVSPost2010PropOp44
 70
     1
102
RTVSPost2010Prop45
280
     0
102
RTVSPost2010PropOp45
 70
     1
102
RTVSPost2010Prop46
 90
       50
102
RTVSPost2010PropOp46
 70
     1
102
RTVSPost2010Prop47
 90
       50
102
RTVSPost2010PropOp47
 70
     1
102
RTVSPost2010Prop48
 90
       50
102
RTVSPost2010PropOp48
 70
     1
102
RTVSPost2010Prop49
280
     0
102
RTVSPost2010PropOp49
 70
     1
102
RTVSPost2010Prop50
 90
       50
102
RTVSPost2010PropOp50
 70
     1
102
RTVSPost2010Prop51ColorIndex
 90
      256
102
RTVSPost2010Prop51ColorRGB
 90
-16777216
102
RTVSPost2010PropOp51
 70
     0
102
RTVSPost2010Prop52
140
1.0
102
RTVSPost2010PropOp52
 70
     0
102
RTVSPost2010Prop53
 90
        2
102
RTVSPost2010PropOp53
 70
     1
102
RTVSPost2010Prop54
  1
strokes_ogs.tif
102
RTVSPost2010PropOp54
 70
     1
102
RTVSPost2010Prop55
280
     0
102
RTVSPost2010PropOp55
 70
     1
102
RTVSPost2010Prop56
140
1.0
102
RTVSPost2010PropOp56
 70
     1
102
RTVSPost2010Prop57
140
1.0
102
RTVSPost2010PropOp57
 70
     1
102
RTVSPropertyOp0
 70
     1
102
RTVSPropertyOp1
 70
     1
102
RTVSPropertyOp2
 70
     1
102
RTVSPropertyOp3
 70
     1
102
RTVSPropertyOp4
 70
     1
102
RTVSPropertyOp5
 70
     1
102
RTVSPropertyOp6
 70
     1
102
RTVSPropertyOp7
 70
     1
102
RTVSPropertyOp8
 70
     1
102
RTVSPropertyOp9
 70
     1
102
RTVSPropertyOp10
 70
     1
102
RTVSPropertyOp11
 70
     1
102
RTVSPropertyOp12
 70
     1
102
RTVSPropertyOp13
 70
     1
102
RTVSPropertyOp14
 70
     1
102
RTVSPropertyOp15
 70
     1
102
RTVSPropertyOp16
 70
     1
102
RTVSPropertyOp17
 70
     1
102
RTVSPropertyOp18
 70
     1
102
RTVSPropertyOp19
 70
     1
102
RTVSPropertyOp20
 70
     1
102
RTVSPropertyOp21
 70
     1
102
RTVSPropertyOp22
 70
     1
102
RTVSPropertyOp23
 70
     1
102
RTVSPropertyOp24
 70
     1
102
RTVSPropertyOp25
 70
     1
102
RTVSPropertyOp26
 70
     1
102
RTVSPropertyOp27
 70
     1
102
RTVSPropertyOp28
 70
     1
102
RTVSPropertyOp29
 70
     1
102
RTVSPropertyOp30
 70
     1
102
RTVSPropertyOp31
 70
     1
102
RTVSPropertyOp32
 70
     1
102
RTVSPropertyOp33
 70
     1
102
RTVSPropertyOp34
 70
     1
102
RTVSPropertyOp35
 70
     1
102
RTVSPropertyOp36
 70
     1
102
RTVSPropertyOp37
 70
     1
102
RTVSPropertyOp38
 70
     1
102
RTVSPropertyOp39
 70
     1
102
RTVSPropertyOp40
 70
     1
102
RTVSPropertyOp41
 70
     1
102
RTVSPropertyOp42
 70
     1
102
RTVSPropertyOp43
 70
     1
102
RTVSPropertyOp44
 70
     1
102
RTVSPropertyOp45
 70
     1
102
RTVSPropertyOp46
 70
     1
102
RTVSPropertyOp47
 70
     1
102
RTVSPropertyOp48
 70
     1
102
RTVSPropertyOp49
 70
     1
102
RTVSPropertyOp50
 70
     1
102
RTVSPropertyOp51
 70
     0
102
RTVSPropertyOp52
 70
     0
102
RTVSPropertyOp53
 70
     1
102
RTVSPropertyOp54
 70
     1
102
RTVSPropertyOp55
 70
     1
102
RTVSPropertyOp56
 70
     1
102
RTVSPropertyOp57
 70
     1
102
RTVSPropertyOp58
 70
     1
102
RTVSPropertyOp59
 70
     1
102
RTVSPropertyOp60
 70
     1
102
RTVSPropertyOp61
 70
     1
102
RTVSPropertyOp62
 70
     1
  0
XRECORD
  5
115C
102
{ACAD_REACTORS
330
115B
102
}
330
115B
100
AcDbXrecord
280
     1
102
RTVSPost2010Prop28
280
     0
102
RTVSPost2010PropOp28
 70
     1
102
RTVSPost2010Prop29
280
     1
102
RTVSPost2010PropOp29
 70
     1
102
RTVSPost2010Prop30
280
     1
102
RTVSPost2010PropOp30
 70
     1
102
RTVSPost2010Prop31
280
     0
102
RTVSPost2010PropOp31
 70
     1
102
RTVSPost2010Prop32
280
     0
102
RTVSPost2010PropOp32
 70
     1
102
RTVSPost2010Prop33
280
     0
102
RTVSPost2010PropOp33
 70
     1
102
RTVSPost2010Prop34
280
     0
102
RTVSPost2010PropOp34
 70
     1
102
RTVSPost2010Prop35
280
     0
102
RTVSPost2010PropOp35
 70
     1
102
RTVSPost2010Prop36
280
     0
102
RTVSPost2010PropOp36
 70
     1
102
RTVSPost2010Prop37
 90
       50
102
RTVSPost2010PropOp37
 70
     1
102
RTVSPost2010Prop38
140
0.0
102
RTVSPost2010PropOp38
 70
     1
102
RTVSPost2010Prop39
140
1.0
102
RTVSPost2010PropOp39
 70
     1
102
RTVSPost2010Prop40
 90
        0
102
RTVSPost2010PropOp40
 70
     1
102
RTVSPost2010Prop41ColorIndex
 90
       18
102
RTVSPost2010Prop41ColorRGB
 90
        0
102
RTVSPost2010PropOp41
 70
     1
102
RTVSPost2010Prop42
 90
       50
102
RTVSPost2010PropOp42
 70
     1
102
RTVSPost2010Prop43
 90
        3
102
RTVSPost2010PropOp43
 70
     1
102
RTVSPost2010Prop44ColorIndex
 90
        5
102
RTVSPost2010Prop44ColorRGB
 90
      255
102
RTVSPost2010PropOp44
 70
     1
102
RTVSPost2010Prop45
280
     0
102
RTVSPost2010PropOp45
 70
     1
102
RTVSPost2010Prop46
 90
       50
102
RTVSPost2010PropOp46
 70
     1
102
RTVSPost2010Prop47
 90
       50
102
RTVSPost2010PropOp47
 70
     1
102
RTVSPost2010Prop48
 90
       50
102
RTVSPost2010PropOp48
 70
     1
102
RTVSPost2010Prop49
280
     0
102
RTVSPost2010PropOp49
 70
     1
102
RTVSPost2010Prop50
 90
       50
102
RTVSPost2010PropOp50
 70
     1
102
RTVSPost2010Prop51ColorIndex
 90
      256
102
RTVSPost2010Prop51ColorRGB
 90
-16777216
102
RTVSPost2010PropOp51
 70
     0
102
RTVSPost2010Prop52
140
1.0
102
RTVSPost2010PropOp52
 70
     0
102
RTVSPost2010Prop53
 90
        2
102
RTVSPost2010PropOp53
 70
     1
102
RTVSPost2010Prop54
  1
strokes_ogs.tif
102
RTVSPost2010PropOp54
 70
     1
102
RTVSPost2010Prop55
280
     0
102
RTVSPost2010PropOp55
 70
     1
102
RTVSPost2010Prop56
140
1.0
102
RTVSPost2010PropOp56
 70
     1
102
RTVSPost2010Prop57
140
1.0
102
RTVSPost2010PropOp57
 70
     1
102
RTVSPropertyOp0
 70
     1
102
RTVSPropertyOp1
 70
     1
102
RTVSPropertyOp2
 70
     1
102
RTVSPropertyOp3
 70
     1
102
RTVSPropertyOp4
 70
     1
102
RTVSPropertyOp5
 70
     1
102
RTVSPropertyOp6
 70
     1
102
RTVSPropertyOp7
 70
     1
102
RTVSPropertyOp8
 70
     1
102
RTVSPropertyOp9
 70
     1
102
RTVSPropertyOp10
 70
     1
102
RTVSPropertyOp11
 70
     1
102
RTVSPropertyOp12
 70
     1
102
RTVSPropertyOp13
 70
     1
102
RTVSPropertyOp14
 70
     1
102
RTVSPropertyOp15
 70
     1
102
RTVSPropertyOp16
 70
     1
102
RTVSPropertyOp17
 70
     1
102
RTVSPropertyOp18
 70
     1
102
RTVSPropertyOp19
 70
     1
102
RTVSPropertyOp20
 70
     1
102
RTVSPropertyOp21
 70
     1
102
RTVSPropertyOp22
 70
     1
102
RTVSPropertyOp23
 70
     1
102
RTVSPropertyOp24
 70
     1
102
RTVSPropertyOp25
 70
     1
102
RTVSPropertyOp26
 70
     1
102
RTVSPropertyOp27
 70
     1
102
RTVSPropertyOp28
 70
     1
102
RTVSPropertyOp29
 70
     1
102
RTVSPropertyOp30
 70
     1
102
RTVSPropertyOp31
 70
     1
102
RTVSPropertyOp32
 70
     1
102
RTVSPropertyOp33
 70
     1
102
RTVSPropertyOp34
 70
     1
102
RTVSPropertyOp35
 70
     1
102
RTVSPropertyOp36
 70
     1
102
RTVSPropertyOp37
 70
     1
102
RTVSPropertyOp38
 70
     1
102
RTVSPropertyOp39
 70
     1
102
RTVSPropertyOp40
 70
     1
102
RTVSPropertyOp41
 70
     1
102
RTVSPropertyOp42
 70
     1
102
RTVSPropertyOp43
 70
     1
102
RTVSPropertyOp44
 70
     1
102
RTVSPropertyOp45
 70
     1
102
RTVSPropertyOp46
 70
     1
102
RTVSPropertyOp47
 70
     1
102
RTVSPropertyOp48
 70
     1
102
RTVSPropertyOp49
 70
     1
102
RTVSPropertyOp50
 70
     1
102
RTVSPropertyOp51
 70
     0
102
RTVSPropertyOp52
 70
     0
102
RTVSPropertyOp53
 70
     1
102
RTVSPropertyOp54
 70
     1
102
RTVSPropertyOp55
 70
     1
102
RTVSPropertyOp56
 70
     1
102
RTVSPropertyOp57
 70
     1
102
RTVSPropertyOp58
 70
     1
102
RTVSPropertyOp59
 70
     1
102
RTVSPropertyOp60
 70
     1
102
RTVSPropertyOp61
 70
     1
102
RTVSPropertyOp62
 70
     1
  0
XRECORD
  5
1174
102
{ACAD_REACTORS
330
1173
102
}
330
1173
100
AcDbXrecord
280
     1
102
RTVSPost2010Prop28
280
     0
102
RTVSPost2010PropOp28
 70
     1
102
RTVSPost2010Prop29
280
     1
102
RTVSPost2010PropOp29
 70
     1
102
RTVSPost2010Prop30
280
     1
102
RTVSPost2010PropOp30
 70
     1
102
RTVSPost2010Prop31
280
     0
102
RTVSPost2010PropOp31
 70
     1
102
RTVSPost2010Prop32
280
     0
102
RTVSPost2010PropOp32
 70
     1
102
RTVSPost2010Prop33
280
     0
102
RTVSPost2010PropOp33
 70
     1
102
RTVSPost2010Prop34
280
     0
102
RTVSPost2010PropOp34
 70
     1
102
RTVSPost2010Prop35
280
     0
102
RTVSPost2010PropOp35
 70
     1
102
RTVSPost2010Prop36
280
     0
102
RTVSPost2010PropOp36
 70
     1
102
RTVSPost2010Prop37
 90
       50
102
RTVSPost2010PropOp37
 70
     1
102
RTVSPost2010Prop38
140
0.0
102
RTVSPost2010PropOp38
 70
     1
102
RTVSPost2010Prop39
140
1.0
102
RTVSPost2010PropOp39
 70
     1
102
RTVSPost2010Prop40
 90
        0
102
RTVSPost2010PropOp40
 70
     1
102
RTVSPost2010Prop41ColorIndex
 90
       18
102
RTVSPost2010Prop41ColorRGB
 90
        0
102
RTVSPost2010PropOp41
 70
     1
102
RTVSPost2010Prop42
 90
       50
102
RTVSPost2010PropOp42
 70
     1
102
RTVSPost2010Prop43
 90
        3
102
RTVSPost2010PropOp43
 70
     1
102
RTVSPost2010Prop44ColorIndex
 90
        5
102
RTVSPost2010Prop44ColorRGB
 90
      255
102
RTVSPost2010PropOp44
 70
     1
102
RTVSPost2010Prop45
280
     0
102
RTVSPost2010PropOp45
 70
     1
102
RTVSPost2010Prop46
 90
       50
102
RTVSPost2010PropOp46
 70
     1
102
RTVSPost2010Prop47
 90
       50
102
RTVSPost2010PropOp47
 70
     1
102
RTVSPost2010Prop48
 90
       50
102
RTVSPost2010PropOp48
 70
     1
102
RTVSPost2010Prop49
280
     0
102
RTVSPost2010PropOp49
 70
     1
102
RTVSPost2010Prop50
 90
       50
102
RTVSPost2010PropOp50
 70
     1
102
RTVSPost2010Prop51ColorIndex
 90
      256
102
RTVSPost2010Prop51ColorRGB
 90
-16777216
102
RTVSPost2010PropOp51
 70
     0
102
RTVSPost2010Prop52
140
1.0
102
RTVSPost2010PropOp52
 70
     0
102
RTVSPost2010Prop53
 90
        2
102
RTVSPost2010PropOp53
 70
     1
102
RTVSPost2010Prop54
  1
strokes_ogs.tif
102
RTVSPost2010PropOp54
 70
     1
102
RTVSPost2010Prop55
280
     0
102
RTVSPost2010PropOp55
 70
     1
102
RTVSPost2010Prop56
140
1.0
102
RTVSPost2010PropOp56
 70
     1
102
RTVSPost2010Prop57
140
1.0
102
RTVSPost2010PropOp57
 70
     1
102
RTVSPropertyOp0
 70
     1
102
RTVSPropertyOp1
 70
     1
102
RTVSPropertyOp2
 70
     1
102
RTVSPropertyOp3
 70
     1
102
RTVSPropertyOp4
 70
     1
102
RTVSPropertyOp5
 70
     1
102
RTVSPropertyOp6
 70
     1
102
RTVSPropertyOp7
 70
     1
102
RTVSPropertyOp8
 70
     1
102
RTVSPropertyOp9
 70
     1
102
RTVSPropertyOp10
 70
     1
102
RTVSPropertyOp11
 70
     1
102
RTVSPropertyOp12
 70
     1
102
RTVSPropertyOp13
 70
     1
102
RTVSPropertyOp14
 70
     1
102
RTVSPropertyOp15
 70
     1
102
RTVSPropertyOp16
 70
     1
102
RTVSPropertyOp17
 70
     1
102
RTVSPropertyOp18
 70
     1
102
RTVSPropertyOp19
 70
     1
102
RTVSPropertyOp20
 70
     1
102
RTVSPropertyOp21
 70
     1
102
RTVSPropertyOp22
 70
     1
102
RTVSPropertyOp23
 70
     1
102
RTVSPropertyOp24
 70
     1
102
RTVSPropertyOp25
 70
     1
102
RTVSPropertyOp26
 70
     1
102
RTVSPropertyOp27
 70
     1
102
RTVSPropertyOp28
 70
     1
102
RTVSPropertyOp29
 70
     1
102
RTVSPropertyOp30
 70
     1
102
RTVSPropertyOp31
 70
     1
102
RTVSPropertyOp32
 70
     1
102
RTVSPropertyOp33
 70
     1
102
RTVSPropertyOp34
 70
     1
102
RTVSPropertyOp35
 70
     1
102
RTVSPropertyOp36
 70
     1
102
RTVSPropertyOp37
 70
     1
102
RTVSPropertyOp38
 70
     1
102
RTVSPropertyOp39
 70
     1
102
RTVSPropertyOp40
 70
     1
102
RTVSPropertyOp41
 70
     1
102
RTVSPropertyOp42
 70
     1
102
RTVSPropertyOp43
 70
     1
102
RTVSPropertyOp44
 70
     1
102
RTVSPropertyOp45
 70
     1
102
RTVSPropertyOp46
 70
     1
102
RTVSPropertyOp47
 70
     1
102
RTVSPropertyOp48
 70
     1
102
RTVSPropertyOp49
 70
     1
102
RTVSPropertyOp50
 70
     1
102
RTVSPropertyOp51
 70
     0
102
RTVSPropertyOp52
 70
     0
102
RTVSPropertyOp53
 70
     1
102
RTVSPropertyOp54
 70
     1
102
RTVSPropertyOp55
 70
     1
102
RTVSPropertyOp56
 70
     1
102
RTVSPropertyOp57
 70
     1
102
RTVSPropertyOp58
 70
     1
102
RTVSPropertyOp59
 70
     1
102
RTVSPropertyOp60
 70
     1
102
RTVSPropertyOp61
 70
     1
102
RTVSPropertyOp62
 70
     1
  0
ENDSEC
  0
EOF
