  0
SECTION
  2
HEADER
  9
$ACADVER
  1
AC1024
  9
$ACADMAINTVER
 70
   157
  9
$DWGCODEPAGE
  3
ANSI_932
  9
$LASTSAVEDBY
  1
CPTIO008
  9
$INSBASE
 10
0.0
 20
0.0
 30
0.0
  9
$EXTMIN
 10
-261.4554879050893
 20
-244.3442906147575
 30
-0.0015258207003583
  9
$EXTMAX
 10
33.05944592433843
 20
-36.84470187484794
 30
0.0000000349246037
  9
$LIMMIN
 10
-1217.469860923123
 20
-609.2015744160847
  9
$LIMMAX
 10
33.02128105164765
 20
252.8391924679877
  9
$ORTHOMODE
 70
     0
  9
$REGENMODE
 70
     1
  9
$FILLMODE
 70
     1
  9
$QTEXTMODE
 70
     0
  9
$MIRRTEXT
 70
     1
  9
$LTSCALE
 40
1.0
  9
$ATTMODE
 70
     1
  9
$TEXTSIZE
 40
2.5
  9
$TRACEWID
 40
1.0
  9
$TEXTSTYLE
  7
Standard
  9
$CLAYER
  8
0
  9
$CELTYPE
  6
ByLayer
  9
$CECOLOR
 62
   256
  9
$CELTSCALE
 40
1.0
  9
$DISPSILH
 70
     0
  9
$DIMSCALE
 40
1.0
  9
$DIMASZ
 40
2.5
  9
$DIMEXO
 40
0.625
  9
$DIMDLI
 40
3.75
  9
$DIMRND
 40
0.0
  9
$DIMDLE
 40
0.0
  9
$DIMEXE
 40
1.25
  9
$DIMTP
 40
0.0
  9
$DIMTM
 40
0.0
  9
$DIMTXT
 40
2.5
  9
$DIMCEN
 40
2.5
  9
$DIMTSZ
 40
0.0
  9
$DIMTOL
 70
     0
  9
$DIMLIM
 70
     0
  9
$DIMTIH
 70
     0
  9
$DIMTOH
 70
     0
  9
$DIMSE1
 70
     0
  9
$DIMSE2
 70
     0
  9
$DIMTAD
 70
     1
  9
$DIMZIN
 70
     8
  9
$DIMBLK
  1

  9
$DIMASO
 70
     1
  9
$DIMSHO
 70
     1
  9
$DIMPOST
  1

  9
$DIMAPOST
  1

  9
$DIMALT
 70
     0
  9
$DIMALTD
 70
     3
  9
$DIMALTF
 40
0.03937007874016
  9
$DIMLFAC
 40
1.0
  9
$DIMTOFL
 70
     1
  9
$DIMTVP
 40
0.0
  9
$DIMTIX
 70
     0
  9
$DIMSOXD
 70
     0
  9
$DIMSAH
 70
     0
  9
$DIMBLK1
  1

  9
$DIMBLK2
  1

  9
$DIMSTYLE
  2
ISO-25
  9
$DIMCLRD
 70
     0
  9
$DIMCLRE
 70
     0
  9
$DIMCLRT
 70
     0
  9
$DIMTFAC
 40
1.0
  9
$DIMGAP
 40
0.625
  9
$DIMJUST
 70
     0
  9
$DIMSD1
 70
     0
  9
$DIMSD2
 70
     0
  9
$DIMTOLJ
 70
     0
  9
$DIMTZIN
 70
     8
  9
$DIMALTZ
 70
     0
  9
$DIMALTTZ
 70
     0
  9
$DIMUPT
 70
     0
  9
$DIMDEC
 70
     2
  9
$DIMTDEC
 70
     2
  9
$DIMALTU
 70
     2
  9
$DIMALTTD
 70
     3
  9
$DIMTXSTY
  7
Standard
  9
$DIMAUNIT
 70
     0
  9
$DIMADEC
 70
     0
  9
$DIMALTRND
 40
0.0
  9
$DIMAZIN
 70
     0
  9
$DIMDSEP
 70
    44
  9
$DIMATFIT
 70
     3
  9
$DIMFRAC
 70
     0
  9
$DIMLDRBLK
  1

  9
$DIMLUNIT
 70
     2
  9
$DIMLWD
 70
    -2
  9
$DIMLWE
 70
    -2
  9
$DIMTMOVE
 70
     0
  9
$DIMFXL
 40
1.0
  9
$DIMFXLON
 70
     0
  9
$DIMJOGANG
 40
0.7853981633974483
  9
$DIMTFILL
 70
     0
  9
$DIMTFILLCLR
 70
     0
  9
$DIMARCSYM
 70
     0
  9
$DIMLTYPE
  6

  9
$DIMLTEX1
  6

  9
$DIMLTEX2
  6

  9
$DIMTXTDIRECTION
 70
     0
  9
$LUNITS
 70
     2
  9
$LUPREC
 70
     4
  9
$SKETCHINC
 40
1.0
  9
$FILLETRAD
 40
10.0
  9
$AUNITS
 70
     0
  9
$AUPREC
 70
     0
  9
$MENU
  1
.
  9
$ELEVATION
 40
0.0
  9
$PELEVATION
 40
0.0
  9
$THICKNESS
 40
0.0
  9
$LIMCHECK
 70
     0
  9
$CHAMFERA
 40
0.0
  9
$CHAMFERB
 40
0.0
  9
$CHAMFERC
 40
0.0
  9
$CHAMFERD
 40
0.0
  9
$SKPOLY
 70
     0
  9
$TDCREATE
 40
2457458.752085347
  9
$TDUCREATE
 40
2457458.377085347
  9
$TDUPDATE
 40
2457466.581029606
  9
$TDUUPDATE
 40
2457466.206029607
  9
$TDINDWG
 40
0.0286869792
  9
$TDUSRTIMER
 40
0.0286866088
  9
$USRTIMER
 70
     1
  9
$ANGBASE
 50
0.0
  9
$ANGDIR
 70
     0
  9
$PDMODE
 70
     0
  9
$PDSIZE
 40
0.0
  9
$PLINEWID
 40
0.0
  9
$SPLFRAME
 70
     0
  9
$SPLINETYPE
 70
     6
  9
$SPLINESEGS
 70
     8
  9
$HANDSEED
  5
133F
  9
$SURFTAB1
 70
     6
  9
$SURFTAB2
 70
     6
  9
$SURFTYPE
 70
     6
  9
$SURFU
 70
     6
  9
$SURFV
 70
     6
  9
$UCSBASE
  2

  9
$UCSNAME
  2

  9
$UCSORG
 10
0.0
 20
0.0
 30
0.0
  9
$UCSXDIR
 10
1.0
 20
0.0
 30
0.0
  9
$UCSYDIR
 10
0.0
 20
1.0
 30
0.0
  9
$UCSORTHOREF
  2

  9
$UCSORTHOVIEW
 70
     0
  9
$UCSORGTOP
 10
0.0
 20
0.0
 30
0.0
  9
$UCSORGBOTTOM
 10
0.0
 20
0.0
 30
0.0
  9
$UCSORGLEFT
 10
0.0
 20
0.0
 30
0.0
  9
$UCSORGRIGHT
 10
0.0
 20
0.0
 30
0.0
  9
$UCSORGFRONT
 10
0.0
 20
0.0
 30
0.0
  9
$UCSORGBACK
 10
0.0
 20
0.0
 30
0.0
  9
$PUCSBASE
  2

  9
$PUCSNAME
  2

  9
$PUCSORG
 10
0.0
 20
0.0
 30
0.0
  9
$PUCSXDIR
 10
1.0
 20
0.0
 30
0.0
  9
$PUCSYDIR
 10
0.0
 20
1.0
 30
0.0
  9
$PUCSORTHOREF
  2

  9
$PUCSORTHOVIEW
 70
     0
  9
$PUCSORGTOP
 10
0.0
 20
0.0
 30
0.0
  9
$PUCSORGBOTTOM
 10
0.0
 20
0.0
 30
0.0
  9
$PUCSORGLEFT
 10
0.0
 20
0.0
 30
0.0
  9
$PUCSORGRIGHT
 10
0.0
 20
0.0
 30
0.0
  9
$PUCSORGFRONT
 10
0.0
 20
0.0
 30
0.0
  9
$PUCSORGBACK
 10
0.0
 20
0.0
 30
0.0
  9
$USERI1
 70
     0
  9
$USERI2
 70
     0
  9
$USERI3
 70
     0
  9
$USERI4
 70
     0
  9
$USERI5
 70
     0
  9
$USERR1
 40
0.0
  9
$USERR2
 40
0.0
  9
$USERR3
 40
0.0
  9
$USERR4
 40
0.0
  9
$USERR5
 40
0.0
  9
$WORLDVIEW
 70
     1
  9
$SHADEDGE
 70
     3
  9
$SHADEDIF
 70
    70
  9
$TILEMODE
 70
     1
  9
$MAXACTVP
 70
    64
  9
$PINSBASE
 10
0.0
 20
0.0
 30
0.0
  9
$PLIMCHECK
 70
     0
  9
$PEXTMIN
 10
1.000000000000000E+20
 20
1.000000000000000E+20
 30
1.000000000000000E+20
  9
$PEXTMAX
 10
-1.000000000000000E+20
 20
-1.000000000000000E+20
 30
-1.000000000000000E+20
  9
$PLIMMIN
 10
-1217.469860923123
 20
-609.2015744160847
  9
$PLIMMAX
 10
33.02128105164765
 20
252.8391924679877
  9
$UNITMODE
 70
     0
  9
$VISRETAIN
 70
     1
  9
$PLINEGEN
 70
     0
  9
$PSLTSCALE
 70
     1
  9
$TREEDEPTH
 70
  3020
  9
$CMLSTYLE
  2
Standard
  9
$CMLJUST
 70
     0
  9
$CMLSCALE
 40
20.0
  9
$PROXYGRAPHICS
 70
     1
  9
$MEASUREMENT
 70
     1
  9
$CELWEIGHT
370
    -1
  9
$ENDCAPS
280
     0
  9
$JOINSTYLE
280
     0
  9
$LWDISPLAY
290
     0
  9
$INSUNITS
 70
     4
  9
$HYPERLINKBASE
  1

  9
$STYLESHEET
  1
monochrome.ctb
  9
$XEDIT
290
     1
  9
$CEPSNTYPE
380
     0
  9
$PSTYLEMODE
290
     1
  9
$FINGERPRINTGUID
  2
{D335AF63-D981-40A4-A61F-46BF9AC0DB99}
  9
$VERSIONGUID
  2
{7189EF86-FD65-47D1-AA35-23B85FCD8B45}
  9
$EXTNAMES
290
     1
  9
$PSVPSCALE
 40
0.0
  9
$OLESTARTUP
290
     0
  9
$SORTENTS
280
   127
  9
$INDEXCTL
280
     0
  9
$HIDETEXT
280
     1
  9
$XCLIPFRAME
280
     2
  9
$HALOGAP
280
     0
  9
$OBSCOLOR
 70
   257
  9
$OBSLTYPE
280
     0
  9
$INTERSECTIONDISPLAY
280
     0
  9
$INTERSECTIONCOLOR
 70
   257
  9
$DIMASSOC
280
     2
  9
$PROJECTNAME
  1

  9
$CAMERADISPLAY
290
     0
  9
$LENSLENGTH
 40
50.0
  9
$CAMERAHEIGHT
 40
0.0
  9
$STEPSPERSEC
 40
2.0
  9
$STEPSIZE
 40
6.0
  9
$3DDWFPREC
 40
2.0
  9
$PSOLWIDTH
 40
5.0
  9
$PSOLHEIGHT
 40
80.0
  9
$LOFTANG1
 40
1.570796326794896
  9
$LOFTANG2
 40
1.570796326794896
  9
$LOFTMAG1
 40
0.0
  9
$LOFTMAG2
 40
0.0
  9
$LOFTPARAM
 70
     7
  9
$LOFTNORMALS
280
     1
  9
$LATITUDE
 40
37.795
  9
$LONGITUDE
 40
-122.394
  9
$NORTHDIRECTION
 40
0.0
  9
$TIMEZONE
 70
 -8000
  9
$LIGHTGLYPHDISPLAY
280
     1
  9
$TILEMODELIGHTSYNCH
280
     1
  9
$CMATERIAL
347
44
  9
$SOLIDHIST
280
     0
  9
$SHOWHIST
280
     1
  9
$DWFFRAME
280
     2
  9
$DGNFRAME
280
     0
  9
$REALWORLDSCALE
290
     1
  9
$INTERFERECOLOR
 62
     1
  9
$INTERFEREOBJVS
345
33
  9
$INTERFEREVPVS
346
30
  9
$CSHADOW
280
     0
  9
$SHADOWPLANELOCATION
 40
0.0
  0
ENDSEC
  0
SECTION
  2
CLASSES
  0
CLASS
  1
ACDBDICTIONARYWDFLT
  2
AcDbDictionaryWithDefault
  3
ObjectDBX Classes
 90
        0
 91
        1
280
     0
281
     0
  0
CLASS
  1
VISUALSTYLE
  2
AcDbVisualStyle
  3
ObjectDBX Classes
 90
     4095
 91
       24
280
     0
281
     0
  0
CLASS
  1
MATERIAL
  2
AcDbMaterial
  3
ObjectDBX Classes
 90
     1153
 91
        3
280
     0
281
     0
  0
CLASS
  1
SCALE
  2
AcDbScale
  3
ObjectDBX Classes
 90
     1153
 91
       33
280
     0
281
     0
  0
CLASS
  1
SUN
  2
AcDbSun
  3
SCENEOE
 90
     1153
 91
        0
280
     0
281
     0
  0
CLASS
  1
DICTIONARYVAR
  2
AcDbDictionaryVar
  3
ObjectDBX Classes
 90
        0
 91
       17
280
     0
281
     0
  0
CLASS
  1
TABLESTYLE
  2
AcDbTableStyle
  3
ObjectDBX Classes
 90
     4095
 91
        1
280
     0
281
     0
  0
CLASS
  1
MLEADERSTYLE
  2
AcDbMLeaderStyle
  3
ACDB_MLEADERSTYLE_CLASS
 90
     4095
 91
        1
280
     0
281
     0
  0
CLASS
  1
ACDBSECTIONVIEWSTYLE
  2
AcDbSectionViewStyle
  3
ObjectDBX Classes
 90
     1025
 91
        1
280
     0
281
     0
  0
CLASS
  1
ACDBDETAILVIEWSTYLE
  2
AcDbDetailViewStyle
  3
ObjectDBX Classes
 90
     1025
 91
        1
280
     0
281
     0
  0
CLASS
  1
CELLSTYLEMAP
  2
AcDbCellStyleMap
  3
ObjectDBX Classes
 90
     1152
 91
        3
280
     0
281
     0
  0
CLASS
  1
SORTENTSTABLE
  2
AcDbSortentsTable
  3
ObjectDBX Classes
 90
        0
 91
        0
280
     0
281
     0
  0
ENDSEC
  0
SECTION
  2
TABLES
  0
TABLE
  2
VPORT
  5
8
102
{ACAD_XDICTIONARY
360
117A
102
}
330
0
100
AcDbSymbolTable
 70
     1
  0
VPORT
  5
29
330
8
100
AcDbSymbolTableRecord
100
AcDbViewportTableRecord
  2
*Active
 70
     0
 10
0.0
 20
0.0
 11
1.0
 21
1.0
 12
-125.2923380495474
 22
-150.4464797697956
 13
0.0
 23
0.0
 14
10.0
 24
10.0
 15
10.0
 25
10.0
 16
0.0
 26
0.0
 36
1.0
 17
0.0
 27
0.0
 37
0.0
 40
244.1267533735533
 41
2.398457583547557
 42
50.0
 43
0.0
 44
0.0
 50
0.0
 51
0.0
 71
     0
 72
   100
 73
     1
 74
     3
 75
     0
 76
     0
 77
     0
 78
     0
281
     0
 65
     1
110
0.0
120
0.0
130
0.0
111
1.0
121
0.0
131
0.0
112
0.0
122
1.0
132
0.0
 79
     0
146
0.0
348
2F
 60
     3
 61
     5
292
     1
282
     1
141
0.0
142
0.0
 63
   250
421
  3355443
1001
ACAD_NAV_VCDISPLAY
1070
     3
  0
ENDTAB
  0
TABLE
  2
LTYPE
  5
5
330
0
100
AcDbSymbolTable
 70
     7
  0
LTYPE
  5
14
330
5
100
AcDbSymbolTableRecord
100
AcDbLinetypeTableRecord
  2
ByBlock
 70
     0
  3

 72
    65
 73
     0
 40
0.0
  0
LTYPE
  5
15
330
5
100
AcDbSymbolTableRecord
100
AcDbLinetypeTableRecord
  2
ByLayer
 70
     0
  3

 72
    65
 73
     0
 40
0.0
  0
LTYPE
  5
16
330
5
100
AcDbSymbolTableRecord
100
AcDbLinetypeTableRecord
  2
Continuous
 70
     0
  3
Solid line
 72
    65
 73
     0
 40
0.0
  0
LTYPE
  5
6A
330
5
100
AcDbSymbolTableRecord
100
AcDbLinetypeTableRecord
  2
CONTINOUS
 70
     0
  3
______________________________
 72
    65
 73
     0
 40
0.0
  0
LTYPE
  5
6B
330
5
100
AcDbSymbolTableRecord
100
AcDbLinetypeTableRecord
  2
DASHED
 70
     0
  3
__ __ __ __ __ __ __ __ __ __ __ __ __ __ __ __
 72
    65
 73
     2
 40
4.5
 49
3.0
 74
     0
 49
-1.5
 74
     0
  0
LTYPE
  5
6C
330
5
100
AcDbSymbolTableRecord
100
AcDbLinetypeTableRecord
  2
PHANTOM
 70
     0
  3
______  __  __  ______  __  __  _____
 72
    65
 73
     6
 40
15.0
 49
7.5
 74
     0
 49
-1.5
 74
     0
 49
1.5
 74
     0
 49
-1.5
 74
     0
 49
1.5
 74
     0
 49
-1.5
 74
     0
  0
LTYPE
  5
6D
330
5
100
AcDbSymbolTableRecord
100
AcDbLinetypeTableRecord
  2
CENTER
 70
     0
  3
____ _ ____ _ ____ _ ____ _ ____ _ ____
 72
    65
 73
     4
 40
12.0
 49
7.5
 74
     0
 49
-1.5
 74
     0
 49
1.5
 74
     0
 49
-1.5
 74
     0
  0
ENDTAB
  0
TABLE
  2
LAYER
  5
2
102
{ACAD_XDICTIONARY
360
1169
102
}
330
0
100
AcDbSymbolTable
 70
     5
  0
LAYER
  5
10
102
{ACAD_XDICTIONARY
360
10BD
102
}
330
2
100
AcDbSymbolTableRecord
100
AcDbLayerTableRecord
  2
0
 70
     0
 62
     7
  6
Continuous
370
    -3
390
F
347
46
  0
LAYER
  5
179
102
{ACAD_XDICTIONARY
360
10BF
102
}
330
2
100
AcDbSymbolTableRecord
100
AcDbLayerTableRecord
  2
VIEW0001
 70
     0
 62
     7
  6
Continuous
370
    -3
390
F
347
46
  0
LAYER
  5
17A
102
{ACAD_XDICTIONARY
360
10C1
102
}
330
2
100
AcDbSymbolTableRecord
100
AcDbLayerTableRecord
  2
VIEW0002
 70
     0
 62
     7
  6
Continuous
370
    -3
390
F
347
46
  0
LAYER
  5
E06
330
2
100
AcDbSymbolTableRecord
100
AcDbLayerTableRecord
  2
Defpoints
 70
     0
 62
     7
  6
Continuous
290
     0
370
    -3
390
F
347
46
  0
LAYER
  5
1016
102
{ACAD_XDICTIONARY
360
10C3
102
}
330
2
100
AcDbSymbolTableRecord
100
AcDbLayerTableRecord
  2
VIEW0003
 70
     0
 62
     7
  6
Continuous
370
    -3
390
F
347
46
  0
ENDTAB
  0
TABLE
  2
STYLE
  5
3
330
0
100
AcDbSymbolTable
 70
     2
  0
STYLE
  5
11
330
3
100
AcDbSymbolTableRecord
100
AcDbTextStyleTableRecord
  2
Standard
 70
     0
 40
0.0
 41
1.0
 50
0.0
 71
     0
 42
2.5
  3
ROMANS
  4
EXTFONT
  0
ENDTAB
  0
TABLE
  2
VIEW
  5
6
330
0
100
AcDbSymbolTable
 70
     0
  0
ENDTAB
  0
TABLE
  2
UCS
  5
7
330
0
100
AcDbSymbolTable
 70
     0
  0
ENDTAB
  0
TABLE
  2
APPID
  5
9
330
0
100
AcDbSymbolTable
 70
     4
  0
APPID
  5
12
330
9
100
AcDbSymbolTableRecord
100
AcDbRegAppTableRecord
  2
ACAD
 70
     0
  0
APPID
  5
10C5
330
9
100
AcDbSymbolTableRecord
100
AcDbRegAppTableRecord
  2
ACAD_NAV_VCDISPLAY
 70
     0
  0
APPID
  5
1122
330
9
100
AcDbSymbolTableRecord
100
AcDbRegAppTableRecord
  2
ACAD_EXEMPT_FROM_CAD_STANDARDS
 70
     0
  0
APPID
  5
11B7
330
9
100
AcDbSymbolTableRecord
100
AcDbRegAppTableRecord
  2
ACAD_MLEADERVER
 70
     0
  0
ENDTAB
  0
TABLE
  2
DIMSTYLE
  5
A
330
0
100
AcDbSymbolTable
 70
     3
100
AcDbDimStyleTable
 71
     1
340
27
  0
DIMSTYLE
105
27
102
{ACAD_REACTORS
330
F2C
330
F46
330
F53
330
F60
330
FCE
102
}
330
A
100
AcDbSymbolTableRecord
100
AcDbDimStyleTableRecord
  2
ISO-25
 70
     0
 41
2.5
 42
0.625
 43
3.75
 44
1.25
 73
     0
 74
     0
 77
     1
 78
     8
140
2.5
141
2.5
143
0.03937007874016
147
0.625
171
     3
172
     1
271
     2
272
     2
274
     3
278
    44
283
     0
284
     8
340
11
  0
ENDTAB
  0
TABLE
  2
BLOCK_RECORD
  5
1
330
0
100
AcDbSymbolTable
 70
    41
  0
BLOCK_RECORD
  5
1F
330
1
100
AcDbSymbolTableRecord
100
AcDbBlockTableRecord
  2
*Model_Space
340
22
 70
     0
280
     1
281
     0
  0
BLOCK_RECORD
  5
1B
330
1
100
AcDbSymbolTableRecord
100
AcDbBlockTableRecord
  2
*Paper_Space
340
1E
 70
     0
280
     1
281
     0
  0
BLOCK_RECORD
  5
23
330
1
100
AcDbSymbolTableRecord
100
AcDbBlockTableRecord
  2
*Paper_Space0
340
26
 70
     0
280
     1
281
     0
  0
BLOCK_RECORD
  5
E00
330
1
100
AcDbSymbolTableRecord
100
AcDbBlockTableRecord
  2
_OPEN30
340
0
102
{BLKREFS
331
127F
331
1280
331
1288
331
1289
331
1291
331
1292
331
129C
331
129D
331
12A8
331
12A9
331
F40
331
F41
331
F76
331
F77
331
F83
331
F84
331
F9F
331
FA0
331
FAC
331
FAD
331
FB9
331
FBA
331
10A2
331
10A3
331
10AC
331
10AD
102
}
 70
     0
280
     1
281
     0
  0
BLOCK_RECORD
  5
F2D
330
1
100
AcDbSymbolTableRecord
100
AcDbBlockTableRecord
  2
*D24
340
0
 70
     0
280
     1
281
     0
  0
BLOCK_RECORD
  5
F3A
330
1
100
AcDbSymbolTableRecord
100
AcDbBlockTableRecord
  2
*D25
340
0
 70
     0
280
     1
281
     0
  0
BLOCK_RECORD
  5
F47
330
1
100
AcDbSymbolTableRecord
100
AcDbBlockTableRecord
  2
*D26
340
0
 70
     0
280
     1
281
     0
  0
BLOCK_RECORD
  5
F54
330
1
100
AcDbSymbolTableRecord
100
AcDbBlockTableRecord
  2
*D27
340
0
 70
     0
280
     1
281
     0
  0
BLOCK_RECORD
  5
F61
330
1
100
AcDbSymbolTableRecord
100
AcDbBlockTableRecord
  2
*D28
340
0
 70
     0
280
     1
281
     0
  0
BLOCK_RECORD
  5
F70
330
1
100
AcDbSymbolTableRecord
100
AcDbBlockTableRecord
  2
*D29
340
0
 70
     0
280
     1
281
     0
  0
BLOCK_RECORD
  5
F7D
330
1
100
AcDbSymbolTableRecord
100
AcDbBlockTableRecord
  2
*D30
340
0
 70
     0
280
     1
281
     0
  0
BLOCK_RECORD
  5
F8A
330
1
100
AcDbSymbolTableRecord
100
AcDbBlockTableRecord
  2
*D31
340
0
 70
     0
280
     1
281
     0
  0
BLOCK_RECORD
  5
F99
330
1
100
AcDbSymbolTableRecord
100
AcDbBlockTableRecord
  2
*D32
340
0
 70
     0
280
     1
281
     0
  0
BLOCK_RECORD
  5
FA6
330
1
100
AcDbSymbolTableRecord
100
AcDbBlockTableRecord
  2
*D33
340
0
 70
     0
280
     1
281
     0
  0
BLOCK_RECORD
  5
FB3
330
1
100
AcDbSymbolTableRecord
100
AcDbBlockTableRecord
  2
*D34
340
0
 70
     0
280
     1
281
     0
  0
BLOCK_RECORD
  5
FC0
330
1
100
AcDbSymbolTableRecord
100
AcDbBlockTableRecord
  2
*D35
340
0
 70
     0
280
     1
281
     0
  0
BLOCK_RECORD
  5
FCF
330
1
100
AcDbSymbolTableRecord
100
AcDbBlockTableRecord
  2
*D36
340
0
 70
     0
280
     1
281
     0
  0
BLOCK_RECORD
  5
FE7
330
1
100
AcDbSymbolTableRecord
100
AcDbBlockTableRecord
  2
*D37
340
0
 70
     0
280
     1
281
     0
  0
BLOCK_RECORD
  5
FFF
330
1
100
AcDbSymbolTableRecord
100
AcDbBlockTableRecord
  2
*D38
340
0
 70
     0
280
     1
281
     0
  0
ENDTAB
  0
ENDSEC
  0
SECTION
  2
BLOCKS
  0
BLOCK
  5
20
330
1F
100
AcDbEntity
  8
0
100
AcDbBlockBegin
  2
*Model_Space
 70
     0
 10
0.0
 20
0.0
 30
0.0
  3
*Model_Space
  1
*Model_Space
  0
ENDBLK
  5
21
330
1F
100
AcDbEntity
  8
0
100
AcDbBlockEnd
  0
BLOCK
  5
1C
330
1B
100
AcDbEntity
 67
     1
  8
0
100
AcDbBlockBegin
  2
*Paper_Space
 70
     0
 10
0.0
 20
0.0
 30
0.0
  3
*Paper_Space
  1
*Paper_Space
  0
ENDBLK
  5
1D
330
1B
100
AcDbEntity
 67
     1
  8
0
100
AcDbBlockEnd
  0
BLOCK
  5
24
330
23
100
AcDbEntity
 67
     1
  8
0
100
AcDbBlockBegin
  2
*Paper_Space0
 70
     0
 10
0.0
 20
0.0
 30
0.0
  3
*Paper_Space0
  1
*Paper_Space0
  0
ENDBLK
  5
25
330
23
100
AcDbEntity
 67
     1
  8
0
100
AcDbBlockEnd
  0
BLOCK
  5
E01
330
E00
100
AcDbEntity
  8
0
100
AcDbBlockBegin
  2
_OPEN30
 70
     0
 10
0.0
 20
0.0
 30
0.0
  3
_OPEN30
  1
_OPEN30
  0
LINE
  5
E03
330
E00
100
AcDbEntity
  8
0
  6
ByBlock
 62
     0
370
    -2
100
AcDbLine
 10
-1.0
 20
0.267949
 30
0.0
 11
0.0
 21
0.0
 31
0.0
  0
LINE
  5
E04
330
E00
100
AcDbEntity
  8
0
  6
ByBlock
 62
     0
370
    -2
100
AcDbLine
 10
0.0
 20
0.0
 30
0.0
 11
-1.0
 21
-0.267949
 31
0.0
  0
LINE
  5
E05
330
E00
100
AcDbEntity
  8
0
  6
ByBlock
 62
     0
370
    -2
100
AcDbLine
 10
0.0
 20
0.0
 30
0.0
 11
-1.0
 21
0.0
 31
0.0
  0
ENDBLK
  5
E02
330
E00
100
AcDbEntity
  8
0
100
AcDbBlockEnd
  0
BLOCK
  5
F2E
330
F2D
100
AcDbEntity
  8
0
100
AcDbBlockBegin
  2
*D24
 70
     1
 10
0.0
 20
0.0
 30
0.0
  3
*D24
  1
*D24
  0
LINE
  5
127C
330
F2D
100
AcDbEntity
  8
VIEW0002
 62
     0
440
 16777216
370
    -2
100
AcDbLine
 10
-117.9783453228028
 20
-100.3853710889198
 30
0.0
 11
-128.8183922627591
 21
-100.3853710889198
 31
0.0
  0
LINE
  5
127D
330
F2D
100
AcDbEntity
  8
VIEW0002
 62
     0
440
 16777216
370
    -2
100
AcDbLine
 10
-117.9783901628083
 20
-83.18095875071453
 30
0.0
 11
-128.8183922627591
 21
-83.18095875071453
 31
0.0
  0
LINE
  5
127E
330
F2D
100
AcDbEntity
  8
VIEW0002
 62
     0
440
 16777216
370
    -2
100
AcDbLine
 10
-126.5323922627592
 20
-97.38537108891987
 30
0.0
 11
-126.5323922627591
 21
-86.18095875071452
 31
0.0
  0
INSERT
  5
127F
330
F2D
100
AcDbEntity
  8
VIEW0002
 62
     0
440
 16777216
370
    -2
100
AcDbBlockReference
  2
_OPEN30
 10
-126.5323922627592
 20
-100.3853710889198
 30
0.0
 41
3.0
 42
3.0
 43
3.0
 50
270.0
  0
INSERT
  5
1280
330
F2D
100
AcDbEntity
  8
VIEW0002
 62
     0
440
 16777216
370
    -2
100
AcDbBlockReference
  2
_OPEN30
 10
-126.5323922627591
 20
-83.18095875071453
 30
0.0
 41
3.0
 42
3.0
 43
3.0
 50
90.0
  0
MTEXT
  5
1281
330
F2D
100
AcDbEntity
  8
VIEW0002
 62
     0
440
 16777216
100
AcDbMText
 10
-128.4073922627591
 20
-91.7821649198172
 30
0.0
 40
2.5
 41
0.0
 46
0.0
 71
     5
 72
     1
  1
外径
 11
0.0000000000000001
 21
1.0
 31
0.0
 73
     1
 44
1.0
  0
POINT
  5
1282
330
F2D
100
AcDbEntity
  8
Defpoints
 62
     0
440
 16777216
100
AcDbPoint
 10
-117.9783453228028
 20
-100.3853710889198
 30
0.0
  0
POINT
  5
1283
330
F2D
100
AcDbEntity
  8
Defpoints
 62
     0
440
 16777216
100
AcDbPoint
 10
-117.9783901628083
 20
-83.18095875071453
 30
0.0
  0
POINT
  5
1284
330
F2D
100
AcDbEntity
  8
Defpoints
 62
     0
440
 16777216
100
AcDbPoint
 10
-126.5323922627591
 20
-83.18095875071453
 30
0.0
  0
ENDBLK
  5
F2F
330
F2D
100
AcDbEntity
  8
0
100
AcDbBlockEnd
  0
BLOCK
  5
F3B
330
F3A
100
AcDbEntity
  8
0
100
AcDbBlockBegin
  2
*D25
 70
     1
 10
0.0
 20
0.0
 30
0.0
  3
*D25
  1
*D25
  0
LINE
  5
F3D
330
F3A
100
AcDbEntity
  8
0
 62
     0
440
 16777216
370
    -2
100
AcDbLine
 10
-189.5738594375319
 20
-145.5564827457471
 30
0.0
 11
-189.5738594375319
 21
-153.5147616622889
 31
0.0
  0
LINE
  5
F3E
330
F3A
100
AcDbEntity
  8
0
 62
     0
440
 16777216
370
    -2
100
AcDbLine
 10
-145.1193756602461
 20
-144.2092924466959
 30
0.0
 11
-145.1193756602461
 21
-153.5147616622889
 31
0.0
  0
LINE
  5
F3F
330
F3A
100
AcDbEntity
  8
0
 62
     0
440
 16777216
370
    -2
100
AcDbLine
 10
-186.5738594375319
 20
-151.9907616622889
 30
0.0
 11
-148.1193756602461
 21
-151.9907616622889
 31
0.0
  0
INSERT
  5
F40
330
F3A
100
AcDbEntity
  8
0
 62
     0
440
 16777216
370
    -2
100
AcDbBlockReference
  2
_OPEN30
 10
-189.5738594375319
 20
-151.9907616622889
 30
0.0
 41
3.0
 42
3.0
 43
3.0
 50
180.0
  0
INSERT
  5
F41
330
F3A
100
AcDbEntity
  8
0
 62
     0
440
 16777216
370
    -2
100
AcDbBlockReference
  2
_OPEN30
 10
-145.1193756602461
 20
-151.9907616622889
 30
0.0
 41
3.0
 42
3.0
 43
3.0
  0
MTEXT
  5
F42
330
F3A
100
AcDbEntity
  8
0
 62
     0
440
 16777216
100
AcDbMText
 10
-167.345617548889
 20
-149.5170116622889
 30
0.0
 40
2.5
 41
0.0
 46
0.0
 71
     5
 72
     1
  1
長さ
 73
     1
 44
1.0
  0
POINT
  5
F43
330
F3A
100
AcDbEntity
  8
Defpoints
 62
     0
440
 16777216
100
AcDbPoint
 10
-189.5738594375319
 20
-145.5564827457471
 30
0.0
  0
POINT
  5
F44
330
F3A
100
AcDbEntity
  8
Defpoints
 62
     0
440
 16777216
100
AcDbPoint
 10
-145.1193756602461
 20
-144.2092924466959
 30
0.0
  0
POINT
  5
F45
330
F3A
100
AcDbEntity
  8
Defpoints
 62
     0
440
 16777216
100
AcDbPoint
 10
-145.1193756602461
 20
-151.9917616622889
 30
0.0
  0
ENDBLK
  5
F3C
330
F3A
100
AcDbEntity
  8
0
100
AcDbBlockEnd
  0
BLOCK
  5
F48
330
F47
100
AcDbEntity
  8
0
100
AcDbBlockBegin
  2
*D26
 70
     1
 10
0.0
 20
0.0
 30
0.0
  3
*D26
  1
*D26
  0
LINE
  5
1285
330
F47
100
AcDbEntity
  8
VIEW0002
 62
     0
440
 16777216
370
    -2
100
AcDbLine
 10
-118.9843592792806
 20
-99.36477242971776
 30
0.0
 11
-118.9843592792806
 21
-107.5519276760095
 31
0.0
  0
LINE
  5
1286
330
F47
100
AcDbEntity
  8
VIEW0002
 62
     0
440
 16777216
370
    -2
100
AcDbLine
 10
-74.52987550199484
 20
-99.36477242971776
 30
0.0
 11
-74.52987550199484
 21
-107.5519276760095
 31
0.0
  0
LINE
  5
1287
330
F47
100
AcDbEntity
  8
VIEW0002
 62
     0
440
 16777216
370
    -2
100
AcDbLine
 10
-115.9843592792806
 20
-106.0279276760095
 30
0.0
 11
-77.52987550199484
 21
-106.0279276760095
 31
0.0
  0
INSERT
  5
1288
330
F47
100
AcDbEntity
  8
VIEW0002
 62
     0
440
 16777216
370
    -2
100
AcDbBlockReference
  2
_OPEN30
 10
-118.9843592792806
 20
-106.0279276760095
 30
0.0
 41
3.0
 42
3.0
 43
3.0
 50
180.0
  0
INSERT
  5
1289
330
F47
100
AcDbEntity
  8
VIEW0002
 62
     0
440
 16777216
370
    -2
100
AcDbBlockReference
  2
_OPEN30
 10
-74.52987550199484
 20
-106.0279276760095
 30
0.0
 41
3.0
 42
3.0
 43
3.0
  0
MTEXT
  5
128A
330
F47
100
AcDbEntity
  8
VIEW0002
 62
     0
440
 16777216
100
AcDbMText
 10
-96.75611739063777
 20
-104.1529276760095
 30
0.0
 40
2.5
 41
0.0
 46
0.0
 71
     5
 72
     1
  1
長さ
 73
     1
 44
1.0
  0
POINT
  5
128B
330
F47
100
AcDbEntity
  8
Defpoints
 62
     0
440
 16777216
100
AcDbPoint
 10
-118.9843592792806
 20
-99.36477242971776
 30
0.0
  0
POINT
  5
128C
330
F47
100
AcDbEntity
  8
Defpoints
 62
     0
440
 16777216
100
AcDbPoint
 10
-74.52987550199484
 20
-99.36477242971776
 30
0.0
  0
POINT
  5
128D
330
F47
100
AcDbEntity
  8
Defpoints
 62
     0
440
 16777216
100
AcDbPoint
 10
-74.52987550199484
 20
-106.0279276760095
 30
0.0
  0
ENDBLK
  5
F49
330
F47
100
AcDbEntity
  8
0
100
AcDbBlockEnd
  0
BLOCK
  5
F55
330
F54
100
AcDbEntity
  8
0
100
AcDbBlockBegin
  2
*D27
 70
     1
 10
0.0
 20
0.0
 30
0.0
  3
*D27
  1
*D27
  0
LINE
  5
128E
330
F54
100
AcDbEntity
  8
VIEW0002
 62
     0
440
 16777216
370
    -2
100
AcDbLine
 10
-118.9843688138432
 20
-99.16477242971772
 30
0.0
 11
-123.6245407507233
 21
-99.16477242971772
 31
0.0
  0
LINE
  5
128F
330
F54
100
AcDbEntity
  8
VIEW0002
 62
     0
440
 16777216
370
    -2
100
AcDbLine
 10
-118.9844136538486
 20
-84.40155740991666
 30
0.0
 11
-123.6245407507233
 21
-84.40155740991666
 31
0.0
  0
LINE
  5
1290
330
F54
100
AcDbEntity
  8
VIEW0002
 62
     0
440
 16777216
370
    -2
100
AcDbLine
 10
-122.1005407507234
 20
-96.16477242971773
 30
0.0
 11
-122.1005407507234
 21
-87.40155740991665
 31
0.0
  0
INSERT
  5
1291
330
F54
100
AcDbEntity
  8
VIEW0002
 62
     0
440
 16777216
370
    -2
100
AcDbBlockReference
  2
_OPEN30
 10
-122.1005407507234
 20
-99.16477242971772
 30
0.0
 41
3.0
 42
3.0
 43
3.0
 50
270.0
  0
INSERT
  5
1292
330
F54
100
AcDbEntity
  8
VIEW0002
 62
     0
440
 16777216
370
    -2
100
AcDbBlockReference
  2
_OPEN30
 10
-122.1005407507234
 20
-84.40155740991666
 30
0.0
 41
3.0
 42
3.0
 43
3.0
 50
90.0
  0
MTEXT
  5
1293
330
F54
100
AcDbEntity
  8
VIEW0002
 62
     0
440
 16777216
100
AcDbMText
 10
-123.9755407507234
 20
-91.78216491981721
 30
0.0
 40
2.5
 41
0.0
 46
0.0
 71
     5
 72
     1
  1
内径
 11
0.0000000000000001
 21
1.0
 31
0.0
 73
     1
 44
1.0
  0
POINT
  5
1294
330
F54
100
AcDbEntity
  8
Defpoints
 62
     0
440
 16777216
100
AcDbPoint
 10
-118.9843688138432
 20
-99.16477242971772
 30
0.0
  0
POINT
  5
1295
330
F54
100
AcDbEntity
  8
Defpoints
 62
     0
440
 16777216
100
AcDbPoint
 10
-118.9844136538486
 20
-84.40155740991666
 30
0.0
  0
POINT
  5
1296
330
F54
100
AcDbEntity
  8
Defpoints
 62
     0
440
 16777216
100
AcDbPoint
 10
-122.1005407507234
 20
-84.40155740991666
 30
0.0
  0
ENDBLK
  5
F56
330
F54
100
AcDbEntity
  8
0
100
AcDbBlockEnd
  0
BLOCK
  5
F62
330
F61
100
AcDbEntity
  8
0
100
AcDbBlockBegin
  2
*D28
 70
     1
 10
0.0
 20
0.0
 30
0.0
  3
*D28
  1
*D28
  0
LINE
  5
1297
330
F61
100
AcDbEntity
  8
VIEW0002
 62
     0
440
 16777216
370
    -2
100
AcDbLine
 10
-141.8274482738826
 20
-83.83577765700078
 30
0.0
 11
-139.436792729258
 21
-78.0642246182053
 31
0.0
  0
LINE
  5
1298
330
F61
100
AcDbEntity
  8
VIEW0002
 62
     0
440
 16777216
370
    -2
100
AcDbLine
 10
-148.4112871556727
 20
-83.83577765700096
 30
0.0
 11
-150.8019427002976
 21
-78.06422461820549
 31
0.0
  0
ARC
  5
1299
330
F61
100
AcDbEntity
  8
VIEW0002
 62
     0
440
 16777216
370
    -2
100
AcDbCircle
 10
-145.1193677147776
 20
-91.78317421744919
 30
0.0
 40
13.32528404242609
100
AcDbArc
 50
41.646526748275
 51
54.57326337413777
  0
ARC
  5
129A
330
F61
100
AcDbEntity
  8
VIEW0002
 62
     0
440
 16777216
370
    -2
100
AcDbCircle
 10
-145.1193677147776
 20
-91.78317421744919
 30
0.0
 40
13.32528404242609
100
AcDbArc
 50
125.426736625864
 51
138.3534732517268
  0
ARC
  5
129B
330
F61
100
AcDbEntity
  8
VIEW0002
 62
     0
440
 16777216
370
    -2
100
AcDbCircle
 10
-145.1193677147776
 20
-91.78317421744919
 30
0.0
 40
13.32528404242609
100
AcDbArc
 50
67.50000000000054
 51
112.5000000000012
  0
INSERT
  5
129C
330
F61
100
AcDbEntity
  8
VIEW0002
 62
     0
440
 16777216
370
    -2
100
AcDbBlockReference
  2
_OPEN30
 10
-140.0200022801824
 20
-79.47221702575243
 30
0.0
 41
3.0
 42
3.0
 43
3.0
 50
151.0366316870692
  0
INSERT
  5
129D
330
F61
100
AcDbEntity
  8
VIEW0002
 62
     0
440
 16777216
370
    -2
100
AcDbBlockReference
  2
_OPEN30
 10
-150.2187331493732
 20
-79.47221702575259
 30
0.0
 41
3.0
 42
3.0
 43
3.0
 50
28.96336831293264
  0
MTEXT
  5
129E
330
F61
100
AcDbEntity
  8
VIEW0002
 62
     0
440
 16777216
100
AcDbMText
 10
-145.117086294885
 20
-76.58289034623296
 30
0.0
 40
2.5
 41
0.0
 46
0.0
 71
     5
 72
     1
  1
45°
 11
0.9999999887364044
 21
-0.0001500906092391
 31
0.0
 73
     1
 44
1.0
  0
POINT
  5
129F
330
F61
100
AcDbEntity
  8
Defpoints
 62
     0
440
 16777216
100
AcDbPoint
 10
-145.1193677147776
 20
-91.78317421744919
 30
0.0
  0
POINT
  5
12A0
330
F61
100
AcDbEntity
  8
Defpoints
 62
     0
440
 16777216
100
AcDbPoint
 10
-141.8274482738826
 20
-83.83577765700078
 30
0.0
  0
POINT
  5
12A1
330
F61
100
AcDbEntity
  8
Defpoints
 62
     0
440
 16777216
100
AcDbPoint
 10
-148.4112871556727
 20
-83.83577765700096
 30
0.0
  0
POINT
  5
12A2
330
F61
100
AcDbEntity
  8
Defpoints
 62
     0
440
 16777216
100
AcDbPoint
 10
-146.8586663010863
 20
-78.57188982723946
 30
0.0
  0
ENDBLK
  5
F63
330
F61
100
AcDbEntity
  8
0
100
AcDbBlockEnd
  0
BLOCK
  5
F71
330
F70
100
AcDbEntity
  8
0
100
AcDbBlockBegin
  2
*D29
 70
     1
 10
0.0
 20
0.0
 30
0.0
  3
*D29
  1
*D29
  0
LINE
  5
F73
330
F70
100
AcDbEntity
  8
0
 62
     0
440
 16777216
370
    -2
100
AcDbLine
 10
-189.5881573720683
 20
-145.556482745747
 30
0.0
 11
-199.4078924210104
 21
-145.556482745747
 31
0.0
  0
LINE
  5
F74
330
F70
100
AcDbEntity
  8
0
 62
     0
440
 16777216
370
    -2
100
AcDbLine
 10
-188.39799309464
 20
-122.8466703505348
 30
0.0
 11
-199.4078924210104
 21
-122.8466703505348
 31
0.0
  0
LINE
  5
F75
330
F70
100
AcDbEntity
  8
0
 62
     0
440
 16777216
370
    -2
100
AcDbLine
 10
-197.1218924210104
 20
-142.556482745747
 30
0.0
 11
-197.1218924210104
 21
-125.8466703505348
 31
0.0
  0
INSERT
  5
F76
330
F70
100
AcDbEntity
  8
0
 62
     0
440
 16777216
370
    -2
100
AcDbBlockReference
  2
_OPEN30
 10
-197.1218924210104
 20
-145.556482745747
 30
0.0
 41
3.0
 42
3.0
 43
3.0
 50
270.0
  0
INSERT
  5
F77
330
F70
100
AcDbEntity
  8
0
 62
     0
440
 16777216
370
    -2
100
AcDbBlockReference
  2
_OPEN30
 10
-197.1218924210104
 20
-122.8466703505348
 30
0.0
 41
3.0
 42
3.0
 43
3.0
 50
90.0
  0
MTEXT
  5
F78
330
F70
100
AcDbEntity
  8
0
 62
     0
440
 16777216
100
AcDbMText
 10
-199.5481424210104
 20
-134.2005765481409
 30
0.0
 40
2.5
 41
0.0
 46
0.0
 71
     5
 72
     1
  1
外径
 11
0.0
 21
1.0
 31
0.0
 73
     1
 44
1.0
  0
POINT
  5
F79
330
F70
100
AcDbEntity
  8
Defpoints
 62
     0
440
 16777216
100
AcDbPoint
 10
-189.5881573720683
 20
-145.556482745747
 30
0.0
  0
POINT
  5
F7A
330
F70
100
AcDbEntity
  8
Defpoints
 62
     0
440
 16777216
100
AcDbPoint
 10
-188.39799309464
 20
-122.8466703505348
 30
0.0
  0
POINT
  5
F7B
330
F70
100
AcDbEntity
  8
Defpoints
 62
     0
440
 16777216
100
AcDbPoint
 10
-197.1228924210104
 20
-122.8466703505348
 30
0.0
  0
ENDBLK
  5
F72
330
F70
100
AcDbEntity
  8
0
100
AcDbBlockEnd
  0
BLOCK
  5
F7E
330
F7D
100
AcDbEntity
  8
0
100
AcDbBlockBegin
  2
*D30
 70
     1
 10
0.0
 20
0.0
 30
0.0
  3
*D30
  1
*D30
  0
LINE
  5
F80
330
F7D
100
AcDbEntity
  8
0
 62
     0
440
 16777216
370
    -2
100
AcDbLine
 10
-189.5738594375317
 20
-144.009292463922
 30
0.0
 11
-194.2140409089745
 21
-144.009292463922
 31
0.0
  0
LINE
  5
F81
330
F7D
100
AcDbEntity
  8
0
 62
     0
440
 16777216
370
    -2
100
AcDbLine
 10
-189.5738594375317
 20
-124.2976392995688
 30
0.0
 11
-194.2140409089745
 21
-124.2976392995688
 31
0.0
  0
LINE
  5
F82
330
F7D
100
AcDbEntity
  8
0
 62
     0
440
 16777216
370
    -2
100
AcDbLine
 10
-192.6900409089746
 20
-141.009292463922
 30
0.0
 11
-192.6900409089746
 21
-127.2976392995688
 31
0.0
  0
INSERT
  5
F83
330
F7D
100
AcDbEntity
  8
0
 62
     0
440
 16777216
370
    -2
100
AcDbBlockReference
  2
_OPEN30
 10
-192.6900409089746
 20
-144.009292463922
 30
0.0
 41
3.0
 42
3.0
 43
3.0
 50
270.0
  0
INSERT
  5
F84
330
F7D
100
AcDbEntity
  8
0
 62
     0
440
 16777216
370
    -2
100
AcDbBlockReference
  2
_OPEN30
 10
-192.6900409089746
 20
-124.2976392995688
 30
0.0
 41
3.0
 42
3.0
 43
3.0
 50
90.0
  0
MTEXT
  5
F85
330
F7D
100
AcDbEntity
  8
0
 62
     0
440
 16777216
100
AcDbMText
 10
-195.1162909089746
 20
-134.1524658817454
 30
0.0
 40
2.5
 41
0.0
 46
0.0
 71
     5
 72
     1
  1
内径
 11
0.0
 21
1.0
 31
0.0
 73
     1
 44
1.0
  0
POINT
  5
F86
330
F7D
100
AcDbEntity
  8
Defpoints
 62
     0
440
 16777216
100
AcDbPoint
 10
-189.5738594375317
 20
-144.009292463922
 30
0.0
  0
POINT
  5
F87
330
F7D
100
AcDbEntity
  8
Defpoints
 62
     0
440
 16777216
100
AcDbPoint
 10
-189.5738594375317
 20
-124.2976392995688
 30
0.0
  0
POINT
  5
F88
330
F7D
100
AcDbEntity
  8
Defpoints
 62
     0
440
 16777216
100
AcDbPoint
 10
-192.6910409089746
 20
-124.2976392995688
 30
0.0
  0
ENDBLK
  5
F7F
330
F7D
100
AcDbEntity
  8
0
100
AcDbBlockEnd
  0
BLOCK
  5
F8B
330
F8A
100
AcDbEntity
  8
0
100
AcDbBlockBegin
  2
*D31
 70
     1
 10
0.0
 20
0.0
 30
0.0
  3
*D31
  1
*D31
  0
LINE
  5
109F
330
F8A
100
AcDbEntity
  8
VIEW0002
 62
     0
440
 16777216
370
    -2
100
AcDbLine
 10
-211.363534211048
 20
-123.711010956294
 30
0.0
 11
-208.6679227069737
 21
-117.2032291042685
 31
0.0
  0
LINE
  5
10A0
330
F8A
100
AcDbEntity
  8
VIEW0002
 62
     0
440
 16777216
370
    -2
100
AcDbLine
 10
-220.0542015350096
 20
-123.7110109562941
 30
0.0
 11
-222.7498130390841
 21
-117.2032291042687
 31
0.0
  0
ARC
  5
10A1
330
F8A
100
AcDbEntity
  8
VIEW0002
 62
     0
440
 16777216
370
    -2
100
AcDbCircle
 10
-215.7088678730287
 20
-134.2015744160844
 30
0.0
 40
16.8748763833862
100
AcDbArc
 50
77.69945274173153
 51
102.3005472582699
  0
INSERT
  5
10A2
330
F8A
100
AcDbEntity
  8
VIEW0002
 62
     0
440
 16777216
370
    -2
100
AcDbBlockReference
  2
_OPEN30
 10
-209.251132257898
 20
-118.6112215118157
 30
0.0
 41
3.0
 42
3.0
 43
3.0
 50
342.5997263708661
  0
INSERT
  5
10A3
330
F8A
100
AcDbEntity
  8
VIEW0002
 62
     0
440
 16777216
370
    -2
100
AcDbBlockReference
  2
_OPEN30
 10
-222.1666034881597
 20
-118.6112215118159
 30
0.0
 41
3.0
 42
3.0
 43
3.0
 50
197.4002736291353
  0
MTEXT
  5
10A4
330
F8A
100
AcDbEntity
  8
VIEW0002
 62
     0
440
 16777216
100
AcDbMText
 10
-215.7066456491784
 20
-115.4516981643865
 30
0.0
 40
2.5
 41
0.0
 46
0.0
 71
     5
 72
     1
  1
45°
 11
0.9999999929765774
 21
-0.0001185193867344
 31
0.0
 73
     1
 44
1.0
  0
POINT
  5
10A5
330
F8A
100
AcDbEntity
  8
Defpoints
 62
     0
440
 16777216
100
AcDbPoint
 10
-215.7088678730287
 20
-134.2015744160844
 30
0.0
  0
POINT
  5
10A6
330
F8A
100
AcDbEntity
  8
Defpoints
 62
     0
440
 16777216
100
AcDbPoint
 10
-211.363534211048
 20
-123.711010956294
 30
0.0
  0
POINT
  5
10A7
330
F8A
100
AcDbEntity
  8
Defpoints
 62
     0
440
 16777216
100
AcDbPoint
 10
-220.0542015350096
 20
-123.7110109562941
 30
0.0
  0
POINT
  5
10A8
330
F8A
100
AcDbEntity
  8
Defpoints
 62
     0
440
 16777216
100
AcDbPoint
 10
-217.9114812315364
 20
-117.4710649394579
 30
0.0
  0
ENDBLK
  5
F8C
330
F8A
100
AcDbEntity
  8
0
100
AcDbBlockEnd
  0
BLOCK
  5
F9A
330
F99
100
AcDbEntity
  8
0
100
AcDbBlockBegin
  2
*D32
 70
     1
 10
0.0
 20
0.0
 30
0.0
  3
*D32
  1
*D32
  0
LINE
  5
F9C
330
F99
100
AcDbEntity
  8
0
 62
     0
440
 16777216
370
    -2
100
AcDbLine
 10
-189.5738594375319
 20
-195.5564827457471
 30
0.0
 11
-189.5738594375319
 21
-203.5147616622889
 31
0.0
  0
LINE
  5
F9D
330
F99
100
AcDbEntity
  8
0
 62
     0
440
 16777216
370
    -2
100
AcDbLine
 10
-145.1193756602461
 20
-194.2092924466959
 30
0.0
 11
-145.1193756602461
 21
-203.5147616622889
 31
0.0
  0
LINE
  5
F9E
330
F99
100
AcDbEntity
  8
0
 62
     0
440
 16777216
370
    -2
100
AcDbLine
 10
-186.5738594375319
 20
-201.9907616622889
 30
0.0
 11
-148.1193756602461
 21
-201.9907616622889
 31
0.0
  0
INSERT
  5
F9F
330
F99
100
AcDbEntity
  8
0
 62
     0
440
 16777216
370
    -2
100
AcDbBlockReference
  2
_OPEN30
 10
-189.5738594375319
 20
-201.9907616622889
 30
0.0
 41
3.0
 42
3.0
 43
3.0
 50
180.0
  0
INSERT
  5
FA0
330
F99
100
AcDbEntity
  8
0
 62
     0
440
 16777216
370
    -2
100
AcDbBlockReference
  2
_OPEN30
 10
-145.1193756602461
 20
-201.9907616622889
 30
0.0
 41
3.0
 42
3.0
 43
3.0
  0
MTEXT
  5
FA1
330
F99
100
AcDbEntity
  8
0
 62
     0
440
 16777216
100
AcDbMText
 10
-167.345617548889
 20
-199.5170116622889
 30
0.0
 40
2.5
 41
0.0
 46
0.0
 71
     5
 72
     1
  1
長さ
 73
     1
 44
1.0
  0
POINT
  5
FA2
330
F99
100
AcDbEntity
  8
Defpoints
 62
     0
440
 16777216
100
AcDbPoint
 10
-189.5738594375319
 20
-195.5564827457471
 30
0.0
  0
POINT
  5
FA3
330
F99
100
AcDbEntity
  8
Defpoints
 62
     0
440
 16777216
100
AcDbPoint
 10
-145.1193756602461
 20
-194.2092924466959
 30
0.0
  0
POINT
  5
FA4
330
F99
100
AcDbEntity
  8
Defpoints
 62
     0
440
 16777216
100
AcDbPoint
 10
-145.1193756602461
 20
-201.9917616622889
 30
0.0
  0
ENDBLK
  5
F9B
330
F99
100
AcDbEntity
  8
0
100
AcDbBlockEnd
  0
BLOCK
  5
FA7
330
FA6
100
AcDbEntity
  8
0
100
AcDbBlockBegin
  2
*D33
 70
     1
 10
0.0
 20
0.0
 30
0.0
  3
*D33
  1
*D33
  0
LINE
  5
FA9
330
FA6
100
AcDbEntity
  8
0
 62
     0
440
 16777216
370
    -2
100
AcDbLine
 10
-189.5881573720683
 20
-195.556482745747
 30
0.0
 11
-199.4078924210104
 21
-195.556482745747
 31
0.0
  0
LINE
  5
FAA
330
FA6
100
AcDbEntity
  8
0
 62
     0
440
 16777216
370
    -2
100
AcDbLine
 10
-188.39799309464
 20
-172.8466703505348
 30
0.0
 11
-199.4078924210104
 21
-172.8466703505348
 31
0.0
  0
LINE
  5
FAB
330
FA6
100
AcDbEntity
  8
0
 62
     0
440
 16777216
370
    -2
100
AcDbLine
 10
-197.1218924210104
 20
-192.556482745747
 30
0.0
 11
-197.1218924210104
 21
-175.8466703505348
 31
0.0
  0
INSERT
  5
FAC
330
FA6
100
AcDbEntity
  8
0
 62
     0
440
 16777216
370
    -2
100
AcDbBlockReference
  2
_OPEN30
 10
-197.1218924210104
 20
-195.556482745747
 30
0.0
 41
3.0
 42
3.0
 43
3.0
 50
270.0
  0
INSERT
  5
FAD
330
FA6
100
AcDbEntity
  8
0
 62
     0
440
 16777216
370
    -2
100
AcDbBlockReference
  2
_OPEN30
 10
-197.1218924210104
 20
-172.8466703505348
 30
0.0
 41
3.0
 42
3.0
 43
3.0
 50
90.0
  0
MTEXT
  5
FAE
330
FA6
100
AcDbEntity
  8
0
 62
     0
440
 16777216
100
AcDbMText
 10
-199.5481424210104
 20
-184.2005765481409
 30
0.0
 40
2.5
 41
0.0
 46
0.0
 71
     5
 72
     1
  1
外径
 11
0.0
 21
1.0
 31
0.0
 73
     1
 44
1.0
  0
POINT
  5
FAF
330
FA6
100
AcDbEntity
  8
Defpoints
 62
     0
440
 16777216
100
AcDbPoint
 10
-189.5881573720683
 20
-195.556482745747
 30
0.0
  0
POINT
  5
FB0
330
FA6
100
AcDbEntity
  8
Defpoints
 62
     0
440
 16777216
100
AcDbPoint
 10
-188.39799309464
 20
-172.8466703505348
 30
0.0
  0
POINT
  5
FB1
330
FA6
100
AcDbEntity
  8
Defpoints
 62
     0
440
 16777216
100
AcDbPoint
 10
-197.1228924210104
 20
-172.8466703505348
 30
0.0
  0
ENDBLK
  5
FA8
330
FA6
100
AcDbEntity
  8
0
100
AcDbBlockEnd
  0
BLOCK
  5
FB4
330
FB3
100
AcDbEntity
  8
0
100
AcDbBlockBegin
  2
*D34
 70
     1
 10
0.0
 20
0.0
 30
0.0
  3
*D34
  1
*D34
  0
LINE
  5
FB6
330
FB3
100
AcDbEntity
  8
0
 62
     0
440
 16777216
370
    -2
100
AcDbLine
 10
-189.5738594375317
 20
-194.0092924639219
 30
0.0
 11
-194.2140409089745
 21
-194.0092924639219
 31
0.0
  0
LINE
  5
FB7
330
FB3
100
AcDbEntity
  8
0
 62
     0
440
 16777216
370
    -2
100
AcDbLine
 10
-189.5738594375317
 20
-174.2976392995688
 30
0.0
 11
-194.2140409089745
 21
-174.2976392995688
 31
0.0
  0
LINE
  5
FB8
330
FB3
100
AcDbEntity
  8
0
 62
     0
440
 16777216
370
    -2
100
AcDbLine
 10
-192.6900409089746
 20
-191.0092924639219
 30
0.0
 11
-192.6900409089746
 21
-177.2976392995688
 31
0.0
  0
INSERT
  5
FB9
330
FB3
100
AcDbEntity
  8
0
 62
     0
440
 16777216
370
    -2
100
AcDbBlockReference
  2
_OPEN30
 10
-192.6900409089746
 20
-194.0092924639219
 30
0.0
 41
3.0
 42
3.0
 43
3.0
 50
270.0
  0
INSERT
  5
FBA
330
FB3
100
AcDbEntity
  8
0
 62
     0
440
 16777216
370
    -2
100
AcDbBlockReference
  2
_OPEN30
 10
-192.6900409089746
 20
-174.2976392995688
 30
0.0
 41
3.0
 42
3.0
 43
3.0
 50
90.0
  0
MTEXT
  5
FBB
330
FB3
100
AcDbEntity
  8
0
 62
     0
440
 16777216
100
AcDbMText
 10
-195.1162909089746
 20
-184.1524658817454
 30
0.0
 40
2.5
 41
0.0
 46
0.0
 71
     5
 72
     1
  1
内径
 11
0.0
 21
1.0
 31
0.0
 73
     1
 44
1.0
  0
POINT
  5
FBC
330
FB3
100
AcDbEntity
  8
Defpoints
 62
     0
440
 16777216
100
AcDbPoint
 10
-189.5738594375317
 20
-194.0092924639219
 30
0.0
  0
POINT
  5
FBD
330
FB3
100
AcDbEntity
  8
Defpoints
 62
     0
440
 16777216
100
AcDbPoint
 10
-189.5738594375317
 20
-174.2976392995688
 30
0.0
  0
POINT
  5
FBE
330
FB3
100
AcDbEntity
  8
Defpoints
 62
     0
440
 16777216
100
AcDbPoint
 10
-192.6910409089746
 20
-174.2976392995688
 30
0.0
  0
ENDBLK
  5
FB5
330
FB3
100
AcDbEntity
  8
0
100
AcDbBlockEnd
  0
BLOCK
  5
FC1
330
FC0
100
AcDbEntity
  8
0
100
AcDbBlockBegin
  2
*D35
 70
     1
 10
0.0
 20
0.0
 30
0.0
  3
*D35
  1
*D35
  0
LINE
  5
10A9
330
FC0
100
AcDbEntity
  8
VIEW0002
 62
     0
440
 16777216
370
    -2
100
AcDbLine
 10
-211.363534211048
 20
-173.7110109562939
 30
0.0
 11
-208.6679227069737
 21
-167.2032291042685
 31
0.0
  0
LINE
  5
10AA
330
FC0
100
AcDbEntity
  8
VIEW0002
 62
     0
440
 16777216
370
    -2
100
AcDbLine
 10
-220.0542015350098
 20
-173.7110109562941
 30
0.0
 11
-222.7498130390842
 21
-167.2032291042686
 31
0.0
  0
ARC
  5
10AB
330
FC0
100
AcDbEntity
  8
VIEW0002
 62
     0
440
 16777216
370
    -2
100
AcDbCircle
 10
-215.7088678730288
 20
-184.2015744160846
 30
0.0
 40
16.87487638338647
100
AcDbArc
 50
77.69945274173135
 51
102.3005472582694
  0
INSERT
  5
10AC
330
FC0
100
AcDbEntity
  8
VIEW0002
 62
     0
440
 16777216
370
    -2
100
AcDbBlockReference
  2
_OPEN30
 10
-209.2511322578981
 20
-168.6112215118157
 30
0.0
 41
3.0
 42
3.0
 43
3.0
 50
342.599726370866
  0
INSERT
  5
10AD
330
FC0
100
AcDbEntity
  8
VIEW0002
 62
     0
440
 16777216
370
    -2
100
AcDbBlockReference
  2
_OPEN30
 10
-222.1666034881598
 20
-168.6112215118158
 30
0.0
 41
3.0
 42
3.0
 43
3.0
 50
197.4002736291348
  0
MTEXT
  5
10AE
330
FC0
100
AcDbEntity
  8
VIEW0002
 62
     0
440
 16777216
100
AcDbMText
 10
-215.7066456491784
 20
-165.4516981643865
 30
0.0
 40
2.5
 41
0.0
 46
0.0
 71
     5
 72
     1
  1
45°
 11
0.9999999929765774
 21
-0.0001185193867429
 31
0.0
 73
     1
 44
1.0
  0
POINT
  5
10AF
330
FC0
100
AcDbEntity
  8
Defpoints
 62
     0
440
 16777216
100
AcDbPoint
 10
-215.7088678730288
 20
-184.2015744160846
 30
0.0
  0
POINT
  5
10B0
330
FC0
100
AcDbEntity
  8
Defpoints
 62
     0
440
 16777216
100
AcDbPoint
 10
-211.363534211048
 20
-173.7110109562939
 30
0.0
  0
POINT
  5
10B1
330
FC0
100
AcDbEntity
  8
Defpoints
 62
     0
440
 16777216
100
AcDbPoint
 10
-220.0542015350098
 20
-173.7110109562941
 30
0.0
  0
POINT
  5
10B2
330
FC0
100
AcDbEntity
  8
Defpoints
 62
     0
440
 16777216
100
AcDbPoint
 10
-217.9114812315364
 20
-167.4710649394578
 30
0.0
  0
ENDBLK
  5
FC2
330
FC0
100
AcDbEntity
  8
0
100
AcDbBlockEnd
  0
BLOCK
  5
FD0
330
FCF
100
AcDbEntity
  8
0
100
AcDbBlockBegin
  2
*D36
 70
     1
 10
0.0
 20
0.0
 30
0.0
  3
*D36
  1
*D36
  0
LINE
  5
12A3
330
FCF
100
AcDbEntity
  8
VIEW0002
 62
     0
440
 16777216
370
    -2
100
AcDbLine
 10
-115.7913813437846
 20
-83.18096183412944
 30
0.0
 11
-115.7913813437846
 21
-76.34350505602714
 31
0.0
  0
LINE
  5
12A4
330
FCF
100
AcDbEntity
  8
VIEW0002
 62
     0
440
 16777216
370
    -2
100
AcDbLine
 10
-113.6043632409186
 20
-83.18096417983051
 30
0.0
 11
-113.6043632409186
 21
-76.34350505602714
 31
0.0
  0
LINE
  5
12A5
330
FCF
100
AcDbEntity
  8
VIEW0002
 62
     0
440
 16777216
370
    -2
100
AcDbLine
 10
-118.7913813437846
 20
-78.62950505602714
 30
0.0
 11
-121.7913813437846
 21
-78.62950505602714
 31
0.0
  0
LINE
  5
12A6
330
FCF
100
AcDbEntity
  8
VIEW0002
 62
     0
440
 16777216
370
    -2
100
AcDbLine
 10
-110.6043632409186
 20
-78.62950505602714
 30
0.0
 11
-97.8318632409187
 21
-78.62950505602714
 31
0.0
  0
LINE
  5
12A7
330
FCF
100
AcDbEntity
  8
VIEW0002
 62
     0
440
 16777216
370
    -2
100
AcDbLine
 10
-115.7913813437846
 20
-78.62950505602714
 30
0.0
 11
-113.6043632409186
 21
-78.62950505602714
 31
0.0
  0
INSERT
  5
12A8
330
FCF
100
AcDbEntity
  8
VIEW0002
 62
     0
440
 16777216
370
    -2
100
AcDbBlockReference
  2
_OPEN30
 10
-115.7913813437846
 20
-78.62950505602714
 30
0.0
 41
3.0
 42
3.0
 43
3.0
  0
INSERT
  5
12A9
330
FCF
100
AcDbEntity
  8
VIEW0002
 62
     0
440
 16777216
370
    -2
100
AcDbBlockReference
  2
_OPEN30
 10
-113.6043632409186
 20
-78.62950505602714
 30
0.0
 41
3.0
 42
3.0
 43
3.0
 50
180.0
  0
MTEXT
  5
12AA
330
FCF
100
AcDbEntity
  8
VIEW0002
 62
     0
440
 16777216
100
AcDbMText
 10
-102.2068632409187
 20
-76.75450505602714
 30
0.0
 40
2.5
 41
0.0
 46
0.0
 71
     5
 72
     1
  1
ピッチ
 73
     1
 44
1.0
  0
POINT
  5
12AB
330
FCF
100
AcDbEntity
  8
Defpoints
 62
     0
440
 16777216
100
AcDbPoint
 10
-115.7913813437846
 20
-83.18096183412944
 30
0.0
  0
POINT
  5
12AC
330
FCF
100
AcDbEntity
  8
Defpoints
 62
     0
440
 16777216
100
AcDbPoint
 10
-113.6043632409186
 20
-83.18096417983051
 30
0.0
  0
POINT
  5
12AD
330
FCF
100
AcDbEntity
  8
Defpoints
 62
     0
440
 16777216
100
AcDbPoint
 10
-113.6043632409186
 20
-78.62950505602714
 30
0.0
  0
ENDBLK
  5
FD1
330
FCF
100
AcDbEntity
  8
0
100
AcDbBlockEnd
  0
BLOCK
  5
FE8
330
FE7
100
AcDbEntity
  8
0
100
AcDbBlockBegin
  2
*D37
 70
     1
 10
0.0
 20
0.0
 30
0.0
  3
*D37
  1
*D37
  0
MTEXT
  5
FF2
330
FE7
100
AcDbEntity
  8
0
 62
     0
440
 16777216
100
AcDbMText
 10
-171.9897623293145
 20
-116.0715977064214
 30
0.0
 40
2.5
 41
0.0
 46
0.0
 71
     5
 72
     1
  1
ピッチ
 73
     1
 44
1.0
  0
POINT
  5
FF3
330
FE7
100
AcDbEntity
  8
Defpoints
 62
     0
440
 16777216
100
AcDbPoint
 10
-185.8926277119773
 20
-122.8466703505348
 30
0.0
  0
POINT
  5
FF4
330
FE7
100
AcDbEntity
  8
Defpoints
 62
     0
440
 16777216
100
AcDbPoint
 10
-183.3872623293146
 20
-122.8466703505348
 30
0.0
  0
POINT
  5
FF5
330
FE7
100
AcDbEntity
  8
Defpoints
 62
     0
440
 16777216
100
AcDbPoint
 10
-183.3872623293146
 20
-118.5215977064214
 30
0.0
  0
LINE
  5
FF6
330
FE7
100
AcDbEntity
  8
0
  6
Continuous
 62
     7
440
 16777216
100
AcDbLine
 10
-185.8926277119773
 20
-122.8466703505348
 30
0.0
 11
-185.8926277119773
 21
-116.2355977064214
 31
0.0
  0
LINE
  5
FF7
330
FE7
100
AcDbEntity
  8
0
  6
Continuous
 62
     7
440
 16777216
100
AcDbLine
 10
-183.3872623293146
 20
-122.8466703505348
 30
0.0
 11
-183.3872623293146
 21
-116.2355977064214
 31
0.0
  0
LINE
  5
FF8
330
FE7
100
AcDbEntity
  8
0
  6
Continuous
 62
     7
440
 16777216
100
AcDbLine
 10
-192.2426277119773
 20
-118.5215977064214
 30
0.0
 11
-177.0372623293146
 21
-118.5215977064214
 31
0.0
  0
LINE
  5
FF9
330
FE7
100
AcDbEntity
  8
0
  6
Continuous
 62
     7
440
 16777216
100
AcDbLine
 10
-185.8926277119773
 20
-118.5215977064214
 30
0.0
 11
-188.9471533739829
 21
-119.3400553907214
 31
0.0
  0
LINE
  5
FFA
330
FE7
100
AcDbEntity
  8
0
  6
Continuous
 62
     7
440
 16777216
100
AcDbLine
 10
-185.8926277119773
 20
-118.5215977064214
 30
0.0
 11
-188.9471533739829
 21
-117.7031400221214
 31
0.0
  0
LINE
  5
FFB
330
FE7
100
AcDbEntity
  8
0
  6
Continuous
 62
     7
440
 16777216
100
AcDbLine
 10
-183.3872623293146
 20
-118.5215977064214
 30
0.0
 11
-180.332736667309
 21
-117.7031400221214
 31
0.0
  0
LINE
  5
FFC
330
FE7
100
AcDbEntity
  8
0
  6
Continuous
 62
     7
440
 16777216
100
AcDbLine
 10
-183.3872623293146
 20
-118.5215977064214
 30
0.0
 11
-180.332736667309
 21
-119.3400553907214
 31
0.0
  0
LINE
  5
FFD
330
FE7
100
AcDbEntity
  8
0
  6
Continuous
 62
     7
440
 16777216
100
AcDbLine
 10
-183.3872623293146
 20
-118.5215977064214
 30
0.0
 11
-172.6137222451226
 21
-118.5215977064214
 31
0.0
  0
ENDBLK
  5
FE9
330
FE7
100
AcDbEntity
  8
0
100
AcDbBlockEnd
  0
BLOCK
  5
1000
330
FFF
100
AcDbEntity
  8
0
100
AcDbBlockBegin
  2
*D38
 70
     1
 10
0.0
 20
0.0
 30
0.0
  3
*D38
  1
*D38
  0
MTEXT
  5
100A
330
FFF
100
AcDbEntity
  8
0
 62
     0
440
 16777216
100
AcDbMText
 10
-171.9897623293145
 20
-165.6135279255517
 30
0.0
 40
2.5
 41
0.0
 46
0.0
 71
     5
 72
     1
  1
ピッチ
 73
     1
 44
1.0
  0
POINT
  5
100B
330
FFF
100
AcDbEntity
  8
Defpoints
 62
     0
440
 16777216
100
AcDbPoint
 10
-185.8926277119773
 20
-172.8466703505348
 30
0.0
  0
POINT
  5
100C
330
FFF
100
AcDbEntity
  8
Defpoints
 62
     0
440
 16777216
100
AcDbPoint
 10
-183.3872623293146
 20
-172.8466703505348
 30
0.0
  0
POINT
  5
100D
330
FFF
100
AcDbEntity
  8
Defpoints
 62
     0
440
 16777216
100
AcDbPoint
 10
-183.3872623293146
 20
-168.0635279255517
 30
0.0
  0
LINE
  5
100E
330
FFF
100
AcDbEntity
  8
0
  6
Continuous
 62
     7
440
 16777216
100
AcDbLine
 10
-185.8926277119773
 20
-172.8466703505348
 30
0.0
 11
-185.8926277119773
 21
-165.7775279255517
 31
0.0
  0
LINE
  5
100F
330
FFF
100
AcDbEntity
  8
0
  6
Continuous
 62
     7
440
 16777216
100
AcDbLine
 10
-183.3872623293146
 20
-172.8466703505348
 30
0.0
 11
-183.3872623293146
 21
-165.7775279255517
 31
0.0
  0
LINE
  5
1010
330
FFF
100
AcDbEntity
  8
0
  6
Continuous
 62
     7
440
 16777216
100
AcDbLine
 10
-192.2426277119773
 20
-168.0635279255517
 30
0.0
 11
-177.0372623293146
 21
-168.0635279255517
 31
0.0
  0
LINE
  5
1011
330
FFF
100
AcDbEntity
  8
0
  6
Continuous
 62
     7
440
 16777216
100
AcDbLine
 10
-185.8926277119773
 20
-168.0635279255517
 30
0.0
 11
-188.9471533739829
 21
-168.8819856098517
 31
0.0
  0
LINE
  5
1012
330
FFF
100
AcDbEntity
  8
0
  6
Continuous
 62
     7
440
 16777216
100
AcDbLine
 10
-185.8926277119773
 20
-168.0635279255517
 30
0.0
 11
-188.9471533739829
 21
-167.2450702412517
 31
0.0
  0
LINE
  5
1013
330
FFF
100
AcDbEntity
  8
0
  6
Continuous
 62
     7
440
 16777216
100
AcDbLine
 10
-183.3872623293146
 20
-168.0635279255517
 30
0.0
 11
-180.332736667309
 21
-167.2450702412517
 31
0.0
  0
LINE
  5
1014
330
FFF
100
AcDbEntity
  8
0
  6
Continuous
 62
     7
440
 16777216
100
AcDbLine
 10
-183.3872623293146
 20
-168.0635279255517
 30
0.0
 11
-180.332736667309
 21
-168.8819856098517
 31
0.0
  0
LINE
  5
1015
330
FFF
100
AcDbEntity
  8
0
  6
Continuous
 62
     7
440
 16777216
100
AcDbLine
 10
-183.3872623293146
 20
-168.0635279255517
 30
0.0
 11
-172.0231654738742
 21
-168.0635279255517
 31
0.0
  0
ENDBLK
  5
1001
330
FFF
100
AcDbEntity
  8
0
100
AcDbBlockEnd
  0
ENDSEC
  0
SECTION
  2
ENTITIES
  0
POINT
  5
6E
330
1F
100
AcDbEntity
  8
0
 62
     7
100
AcDbPoint
 10
-167.3779918510845
 20
-188.0956148845395
 30
0.0
  0
POINT
  5
6F
330
1F
100
AcDbEntity
  8
0
 62
     7
100
AcDbPoint
 10
-167.3779918510845
 20
-198.8956148845395
 30
0.0
  0
POINT
  5
70
330
1F
100
AcDbEntity
  8
0
 62
     7
100
AcDbPoint
 10
-57.87799185108463
 20
-150.2956148845395
 30
0.0
  0
POINT
  5
71
330
1F
100
AcDbEntity
  8
0
 62
     7
100
AcDbPoint
 10
-47.07799185108465
 20
-155.6956148845395
 30
0.0
  0
POINT
  5
72
330
1F
100
AcDbEntity
  8
0
 62
     7
100
AcDbPoint
 10
-47.07799185108465
 20
-150.2956148845395
 30
0.0
  0
POINT
  5
73
330
1F
100
AcDbEntity
  8
0
 62
     7
100
AcDbPoint
 10
-36.27799185108464
 20
-155.6956148845395
 30
0.0
  0
POINT
  5
74
330
1F
100
AcDbEntity
  8
0
 62
     7
100
AcDbPoint
 10
-52.47799185108464
 20
-152.9956148845395
 30
0.0
  0
POINT
  5
75
330
1F
100
AcDbEntity
  8
0
 62
     7
100
AcDbPoint
 10
-41.67799185108464
 20
-152.9956148845395
 30
0.0
  0
POINT
  5
76
330
1F
100
AcDbEntity
  8
0
 62
     7
100
AcDbPoint
 10
-57.87799185108463
 20
-155.6956148845395
 30
0.0
  0
LINE
  5
7C
330
1F
100
AcDbEntity
  8
0
  6
Continuous
 62
     7
100
AcDbLine
 10
-167.3779918510845
 20
-134.9956148845394
 30
0.0
 11
-36.27799185108463
 21
-134.9956148845394
 31
0.0
  0
LINE
  5
7D
330
1F
100
AcDbEntity
  8
0
  6
Continuous
 62
     7
100
AcDbLine
 10
-57.87799185108463
 20
-134.9956148845394
 30
0.0
 11
-57.87799185108463
 21
-198.8956148845394
 31
0.0
  0
LINE
  5
7F
330
1F
100
AcDbEntity
  8
0
  6
Continuous
 62
     7
100
AcDbLine
 10
-167.3779918510845
 20
-150.2956148845395
 30
0.0
 11
-36.27799185108463
 21
-150.2956148845395
 31
0.0
  0
LINE
  5
81
330
1F
100
AcDbEntity
  8
0
  6
Continuous
 62
     7
100
AcDbLine
 10
-122.6779918510846
 20
-134.9956148845394
 30
0.0
 11
-122.6779918510846
 21
-198.8956148845395
 31
0.0
  0
LINE
  5
82
330
1F
100
AcDbEntity
  8
0
  6
Continuous
 62
     7
100
AcDbLine
 10
-101.0779918510846
 20
-134.9956148845394
 30
0.0
 11
-101.0779918510846
 21
-198.8956148845394
 31
0.0
  0
LINE
  5
83
330
1F
100
AcDbEntity
  8
0
  6
Continuous
 62
     7
100
AcDbLine
 10
-79.47799185108464
 20
-134.9956148845394
 30
0.0
 11
-79.47799185108464
 21
-198.8956148845394
 31
0.0
  0
LINE
  5
8B
330
1F
100
AcDbEntity
  8
0
  6
Continuous
 62
     7
100
AcDbLine
 10
-167.3779918510845
 20
-134.9956148845394
 30
0.0
 11
-167.3779918510845
 21
-198.8956148845395
 31
0.0
  0
LINE
  5
8C
330
1F
100
AcDbEntity
  8
0
  6
Continuous
 62
     7
100
AcDbLine
 10
-142.7779918510846
 20
-134.9956148845394
 30
0.0
 11
-142.7779918510846
 21
-198.8956148845395
 31
0.0
  0
LINE
  5
A1
330
1F
100
AcDbEntity
  8
0
  6
Continuous
 62
     7
100
AcDbLine
 10
-167.3779918510845
 20
-155.6956148845395
 30
0.0
 11
-36.27799185108464
 21
-155.6956148845396
 31
0.0
  0
LINE
  5
A2
330
1F
100
AcDbEntity
  8
0
  6
Continuous
 62
     7
100
AcDbLine
 10
-167.3779918510845
 20
-161.0956148845395
 30
0.0
 11
-36.27799185108464
 21
-161.0956148845396
 31
0.0
  0
LINE
  5
A3
330
1F
100
AcDbEntity
  8
0
  6
Continuous
 62
     7
100
AcDbLine
 10
-167.3779918510845
 20
-166.4956148845395
 30
0.0
 11
-36.27799185108464
 21
-166.4956148845395
 31
0.0
  0
LINE
  5
A4
330
1F
100
AcDbEntity
  8
0
  6
Continuous
 62
     7
100
AcDbLine
 10
-167.3779918510845
 20
-171.8956148845395
 30
0.0
 11
-36.27799185108464
 21
-171.8956148845395
 31
0.0
  0
LINE
  5
A5
330
1F
100
AcDbEntity
  8
0
  6
Continuous
 62
     7
100
AcDbLine
 10
-167.3779918510845
 20
-177.2956148845395
 30
0.0
 11
-36.27799185108464
 21
-177.2956148845395
 31
0.0
  0
LINE
  5
A6
330
1F
100
AcDbEntity
  8
0
  6
Continuous
 62
     7
100
AcDbLine
 10
-167.3779918510845
 20
-182.6956148845395
 30
0.0
 11
-36.27799185108464
 21
-182.6956148845395
 31
0.0
  0
LINE
  5
A7
330
1F
100
AcDbEntity
  8
0
  6
Continuous
 62
     7
100
AcDbLine
 10
-167.3779918510845
 20
-188.0956148845395
 30
0.0
 11
-36.27799185108464
 21
-188.0956148845396
 31
0.0
  0
LINE
  5
A8
330
1F
100
AcDbEntity
  8
0
  6
Continuous
 62
     7
100
AcDbLine
 10
-167.3779918510846
 20
-198.8956148845395
 30
0.0
 11
-36.27799185108464
 21
-198.8956148845395
 31
0.0
  0
LINE
  5
A9
330
1F
100
AcDbEntity
  8
0
  6
Continuous
 62
     7
100
AcDbLine
 10
-57.87799185108463
 20
-145.7956148845395
 30
0.0
 11
-36.27799185108463
 21
-145.7956148845395
 31
0.0
  0
LINE
  5
AA
330
1F
100
AcDbEntity
  8
0
  6
Continuous
 62
     7
100
AcDbLine
 10
-36.27799185108464
 20
-134.9956148845394
 30
0.0
 11
-36.27799185108464
 21
-198.8956148845394
 31
0.0
  0
LINE
  5
AB
330
1F
100
AcDbEntity
  8
0
  6
Continuous
 62
     7
100
AcDbLine
 10
-47.07799185108465
 20
-145.7956148845395
 30
0.0
 11
-47.07799185108465
 21
-198.8956148845395
 31
0.0
  0
LINE
  5
AC
330
1F
100
AcDbEntity
  8
0
  6
Continuous
 62
     7
100
AcDbLine
 10
-167.3779918510845
 20
-193.4956148845395
 30
0.0
 11
-36.27799185108464
 21
-193.4956148845395
 31
0.0
  0
MTEXT
  5
B3
330
1F
100
AcDbEntity
  8
0
 62
     7
100
AcDbMText
 10
-70.82096062492644
 20
-141.9456148845395
 30
0.0
 40
2.5
 41
0.0
 46
0.0
 71
     7
 72
     1
  1
{\W0.833333;長さ}
 73
     1
 44
1.0
  0
MTEXT
  5
B4
330
1F
100
AcDbEntity
  8
0
 62
     7
100
AcDbMText
 10
-93.67096062492645
 20
-141.9456148845395
 30
0.0
 40
2.5
 41
0.0
 46
0.0
 71
     7
 72
     1
  1
{\W0.833333;ピッチ}
 73
     1
 44
1.0
  0
MTEXT
  5
B5
330
1F
100
AcDbEntity
  8
0
 62
     7
100
AcDbMText
 10
-157.2209606249265
 20
-141.9456148845395
 30
0.0
 40
2.5
 41
0.0
 46
0.0
 71
     7
 72
     1
  1
{\W0.833333;規格}
 73
     1
 44
1.0
  0
MTEXT
  5
C8
330
1F
100
AcDbEntity
  8
0
 62
     7
100
AcDbMText
 10
-135.6209606249264
 20
-141.9456148845395
 30
0.0
 40
2.5
 41
0.0
 46
0.0
 71
     7
 72
     1
  1
{\W0.833333;外径}
 73
     1
 44
1.0
  0
MTEXT
  5
C9
330
1F
100
AcDbEntity
  8
0
 62
     7
100
AcDbMText
 10
-114.0209606249265
 20
-141.9456148845395
 30
0.0
 40
2.5
 41
0.0
 46
0.0
 71
     7
 72
     1
  1
{\W0.833333;内径}
 73
     1
 44
1.0
  0
MTEXT
  5
EE
330
1F
100
AcDbEntity
  8
0
 62
     7
100
AcDbMText
 10
-116.7808656094728
 20
-146.7422048681989
 30
0.0
 40
2.5
 41
0.0
 46
0.0
 71
     7
 72
     1
  1
{\W1;(mm)}
 73
     1
 44
1.0
  0
MTEXT
  5
EF
330
1F
100
AcDbEntity
  8
0
 62
     7
100
AcDbMText
 10
-71.96232147775674
 20
-146.5454208395075
 30
0.0
 40
2.5
 41
0.0
 46
0.0
 71
     7
 72
     1
  1
{\W1;(m)}
 73
     1
 44
1.0
  0
MTEXT
  5
FF
330
1F
100
AcDbEntity
  8
0
 62
     7
100
AcDbMText
 10
-136.8808656094728
 20
-146.7422048681989
 30
0.0
 40
2.5
 41
0.0
 46
0.0
 71
     7
 72
     1
  1
{\W1;(mm)}
 73
     1
 44
1.0
  0
MTEXT
  5
100
330
1F
100
AcDbEntity
  8
0
 62
     7
100
AcDbMText
 10
-94.89159526867352
 20
-146.3486368108161
 30
0.0
 40
2.5
 41
0.0
 46
0.0
 71
     7
 72
     1
  1
{\W1;(mm)}
 73
     1
 44
1.0
  0
MTEXT
  5
127
330
1F
100
AcDbEntity
  8
0
 62
     7
100
AcDbMText
 10
-51.44911560917432
 20
-143.9926756397319
 30
0.0
 40
2.5
 41
0.0
 46
0.0
 71
     7
 72
     1
  1
{\W1;(mm)}
 73
     1
 44
1.0
  0
MTEXT
  5
128
330
1F
100
AcDbEntity
  8
0
 62
     7
100
AcDbMText
 10
-54.69083166882548
 20
-139.3164664045177
 30
0.0
 40
2.5
 41
0.0
 46
0.0
 71
     7
 72
     1
  1
{\W0.833333;孔寸法（参考）}
 73
     1
 44
1.0
  0
MTEXT
  5
133
330
1F
100
AcDbEntity
  8
0
 62
     7
100
AcDbMText
 10
-136.8709606249264
 20
-197.4456148845395
 30
0.0
 40
2.5
 41
0.0
 46
0.0
 71
     7
 72
     1
  1
235
 73
     1
 44
1.0
  0
MTEXT
  5
134
330
1F
100
AcDbEntity
  8
0
 62
     7
100
AcDbMText
 10
-136.8709606249264
 20
-186.6456148845396
 30
0.0
 40
2.5
 41
0.0
 46
0.0
 71
     7
 72
     1
  1
148
 73
     1
 44
1.0
  0
MTEXT
  5
135
330
1F
100
AcDbEntity
  8
0
 62
     7
100
AcDbMText
 10
-136.8709606249264
 20
-181.2456148845395
 30
0.0
 40
2.5
 41
0.0
 46
0.0
 71
     7
 72
     1
  1
118
 73
     1
 44
1.0
  0
MTEXT
  5
136
330
1F
100
AcDbEntity
  8
0
 62
     7
100
AcDbMText
 10
-135.6209606249264
 20
-175.8456148845396
 30
0.0
 40
2.5
 41
0.0
 46
0.0
 71
     7
 72
     1
  1
93
 73
     1
 44
1.0
  0
MTEXT
  5
137
330
1F
100
AcDbEntity
  8
0
 62
     7
100
AcDbMText
 10
-135.6209606249264
 20
-170.4456148845395
 30
0.0
 40
2.5
 41
0.0
 46
0.0
 71
     7
 72
     1
  1
87
 73
     1
 44
1.0
  0
MTEXT
  5
138
330
1F
100
AcDbEntity
  8
0
 62
     7
100
AcDbMText
 10
-135.6209606249264
 20
-165.0456148845396
 30
0.0
 40
2.5
 41
0.0
 46
0.0
 71
     7
 72
     1
  1
76
 73
     1
 44
1.0
  0
MTEXT
  5
139
330
1F
100
AcDbEntity
  8
0
 62
     7
100
AcDbMText
 10
-135.6209606249264
 20
-159.6456148845396
 30
0.0
 40
2.5
 41
0.0
 46
0.0
 71
     7
 72
     1
  1
70
 73
     1
 44
1.0
  0
MTEXT
  5
13A
330
1F
100
AcDbEntity
  8
0
 62
     7
100
AcDbMText
 10
-135.6209606249264
 20
-154.2456148845395
 30
0.0
 40
2.5
 41
0.0
 46
0.0
 71
     7
 72
     1
  1
60
 73
     1
 44
1.0
  0
MTEXT
  5
13B
330
1F
100
AcDbEntity
  8
0
 62
     7
100
AcDbMText
 10
-115.2709606249265
 20
-197.4456148845395
 30
0.0
 40
2.5
 41
0.0
 46
0.0
 71
     7
 72
     1
  1
{\W1;200}
 73
     1
 44
1.0
  0
MTEXT
  5
13C
330
1F
100
AcDbEntity
  8
0
 62
     7
100
AcDbMText
 10
-115.2709606249265
 20
-186.6456148845396
 30
0.0
 40
2.5
 41
0.0
 46
0.0
 71
     7
 72
     1
  1
125
 73
     1
 44
1.0
  0
MTEXT
  5
13D
330
1F
100
AcDbEntity
  8
0
 62
     7
100
AcDbMText
 10
-115.2709606249265
 20
-181.2456148845395
 30
0.0
 40
2.5
 41
0.0
 46
0.0
 71
     7
 72
     1
  1
100
 73
     1
 44
1.0
  0
MTEXT
  5
13E
330
1F
100
AcDbEntity
  8
0
 62
     7
100
AcDbMText
 10
-114.0209606249265
 20
-175.8456148845396
 30
0.0
 40
2.5
 41
0.0
 46
0.0
 71
     7
 72
     1
  1
80
 73
     1
 44
1.0
  0
MTEXT
  5
13F
330
1F
100
AcDbEntity
  8
0
 62
     7
100
AcDbMText
 10
-114.0209606249265
 20
-170.4456148845395
 30
0.0
 40
2.5
 41
0.0
 46
0.0
 71
     7
 72
     1
  1
75
 73
     1
 44
1.0
  0
MTEXT
  5
140
330
1F
100
AcDbEntity
  8
0
 62
     7
100
AcDbMText
 10
-114.0209606249265
 20
-165.0456148845396
 30
0.0
 40
2.5
 41
0.0
 46
0.0
 71
     7
 72
     1
  1
65
 73
     1
 44
1.0
  0
MTEXT
  5
141
330
1F
100
AcDbEntity
  8
0
 62
     7
100
AcDbMText
 10
-114.0209606249265
 20
-159.6456148845396
 30
0.0
 40
2.5
 41
0.0
 46
0.0
 71
     7
 72
     1
  1
60
 73
     1
 44
1.0
  0
MTEXT
  5
142
330
1F
100
AcDbEntity
  8
0
 62
     7
100
AcDbMText
 10
-114.0209606249265
 20
-154.2456148845395
 30
0.0
 40
2.5
 41
0.0
 46
0.0
 71
     7
 72
     1
  1
50
 73
     1
 44
1.0
  0
MTEXT
  5
143
330
1F
100
AcDbEntity
  8
0
 62
     7
100
AcDbMText
 10
-92.42096062492649
 20
-197.4456148845395
 30
0.0
 40
2.5
 41
0.0
 46
0.0
 71
     7
 72
     1
  1
{\W1;33}
 73
     1
 44
1.0
  0
MTEXT
  5
144
330
1F
100
AcDbEntity
  8
0
 62
     7
100
AcDbMText
 10
-92.42096062492647
 20
-186.6456148845396
 30
0.0
 40
2.5
 41
0.0
 46
0.0
 71
     7
 72
     1
  1
{\W1;20}
 73
     1
 44
1.0
  0
MTEXT
  5
145
330
1F
100
AcDbEntity
  8
0
 62
     7
100
AcDbMText
 10
-92.42096062492647
 20
-181.2456148845395
 30
0.0
 40
2.5
 41
0.0
 46
0.0
 71
     7
 72
     1
  1
{\W1;15}
 73
     1
 44
1.0
  0
MTEXT
  5
146
330
1F
100
AcDbEntity
  8
0
 62
     7
100
AcDbMText
 10
-92.42096062492647
 20
-175.8456148845396
 30
0.0
 40
2.5
 41
0.0
 46
0.0
 71
     7
 72
     1
  1
{\W1;12}
 73
     1
 44
1.0
  0
MTEXT
  5
147
330
1F
100
AcDbEntity
  8
0
 62
     7
100
AcDbMText
 10
-92.42096062492647
 20
-170.4456148845395
 30
0.0
 40
2.5
 41
0.0
 46
0.0
 71
     7
 72
     1
  1
{\W1;11}
 73
     1
 44
1.0
  0
MTEXT
  5
148
330
1F
100
AcDbEntity
  8
0
 62
     7
100
AcDbMText
 10
-92.42096062492647
 20
-165.0456148845396
 30
0.0
 40
2.5
 41
0.0
 46
0.0
 71
     7
 72
     1
  1
{\W1;10}
 73
     1
 44
1.0
  0
MTEXT
  5
149
330
1F
100
AcDbEntity
  8
0
 62
     7
100
AcDbMText
 10
-91.17096062492647
 20
-159.6456148845396
 30
0.0
 40
2.5
 41
0.0
 46
0.0
 71
     7
 72
     1
  1
{\W1;9}
 73
     1
 44
1.0
  0
MTEXT
  5
14A
330
1F
100
AcDbEntity
  8
0
 62
     7
100
AcDbMText
 10
-91.17096062492647
 20
-154.2456148845395
 30
0.0
 40
2.5
 41
0.0
 46
0.0
 71
     7
 72
     1
  1
8
 73
     1
 44
1.0
  0
MTEXT
  5
14D
330
1F
100
AcDbEntity
  8
0
 62
     7
100
AcDbMText
 10
-75.8209606249265
 20
-181.2456148845395
 30
0.0
 40
2.5
 41
0.0
 46
0.0
 71
     7
 72
     1
  1
　4/30
 73
     1
 44
1.0
  0
MTEXT
  5
14E
330
1F
100
AcDbEntity
  8
0
 62
     7
100
AcDbMText
 10
-73.3209606249265
 20
-175.8456148845396
 30
0.0
 40
2.5
 41
0.0
 46
0.0
 71
     7
 72
     1
  1
{\W1;4/30}
 73
     1
 44
1.0
  0
MTEXT
  5
14F
330
1F
100
AcDbEntity
  8
0
 62
     7
100
AcDbMText
 10
-75.8209606249265
 20
-171.8956148845395
 30
0.0
 40
2.5
 41
0.0
 46
0.0
 71
     7
 72
     1
  1
　4/30
 73
     1
 44
1.0
  0
MTEXT
  5
150
330
1F
100
AcDbEntity
  8
0
 62
     7
100
AcDbMText
 10
-69.5709606249265
 20
-165.0456148845396
 30
0.0
 40
2.5
 41
0.0
 46
0.0
 71
     7
 72
     1
  1
{\W1;4}
 73
     1
 44
1.0
  0
MTEXT
  5
151
330
1F
100
AcDbEntity
  8
0
 62
     7
100
AcDbMText
 10
-73.3209606249265
 20
-159.6456148845396
 30
0.0
 40
2.5
 41
0.0
 46
0.0
 71
     7
 72
     1
  1
{\W1;4/50}
 73
     1
 44
1.0
  0
MTEXT
  5
152
330
1F
100
AcDbEntity
  8
0
 62
     7
100
AcDbMText
 10
-74.5709606249265
 20
-154.2456148845395
 30
0.0
 40
2.5
 41
0.0
 46
0.0
 71
     7
 72
     1
  1
{\W1;4/100}
 73
     1
 44
1.0
  0
MTEXT
  5
153
330
1F
100
AcDbEntity
  8
0
 62
     7
100
AcDbMText
 10
-54.19236687015811
 20
-149.0456148845395
 30
0.0
 40
2.0
 41
0.0
 46
0.0
 71
     7
 72
     1
  1
{\W0.833333;長辺}
 73
     1
 44
1.0
  0
MTEXT
  5
154
330
1F
100
AcDbEntity
  8
0
 62
     7
100
AcDbMText
 10
-43.39236687015811
 20
-149.0456148845395
 30
0.0
 40
2.0
 41
0.0
 46
0.0
 71
     7
 72
     1
  1
{\W0.833333;短辺}
 73
     1
 44
1.0
  0
MTEXT
  5
156
330
1F
100
AcDbEntity
  8
0
 62
     7
100
AcDbMText
 10
-136.8709606249264
 20
-192.0456148845396
 30
0.0
 40
2.5
 41
0.0
 46
0.0
 71
     7
 72
     1
  1
{\W1;175}
 73
     1
 44
1.0
  0
MTEXT
  5
157
330
1F
100
AcDbEntity
  8
0
 62
     7
100
AcDbMText
 10
-115.2709606249265
 20
-192.0456148845396
 30
0.0
 40
2.5
 41
0.0
 46
0.0
 71
     7
 72
     1
  1
150
 73
     1
 44
1.0
  0
MTEXT
  5
158
330
1F
100
AcDbEntity
  8
0
 62
     7
100
AcDbMText
 10
-92.42096062492647
 20
-192.0456148845396
 30
0.0
 40
2.5
 41
0.0
 46
0.0
 71
     7
 72
     1
  1
{\W1;25}
 73
     1
 44
1.0
  0
MTEXT
  5
159
330
1F
100
AcDbEntity
  8
0
 62
     7
100
AcDbMText
 10
-68.9459608749265
 20
-190.7956148845396
 30
0.0
 40
2.5
 41
0.0
 46
0.0
 71
     5
 72
     1
  1
5
 73
     1
 44
1.0
  0
MTEXT
  5
15A
330
1F
100
AcDbEntity
  8
0
 62
     7
100
AcDbMText
 10
-53.3709606249265
 20
-154.2456148845395
 30
0.0
 40
2.5
 41
0.0
 46
0.0
 71
     7
 72
     1
  1
{\W1;8}
 73
     1
 44
1.0
  0
MTEXT
  5
15B
330
1F
100
AcDbEntity
  8
0
 62
     7
100
AcDbMText
 10
-42.57096062492649
 20
-154.2456148845395
 30
0.0
 40
2.5
 41
0.0
 46
0.0
 71
     7
 72
     1
  1
{\W1;1}
 73
     1
 44
1.0
  0
MTEXT
  5
15C
330
1F
100
AcDbEntity
  8
0
 62
     7
100
AcDbMText
 10
-42.57096062492649
 20
-159.6456148845395
 30
0.0
 40
2.5
 41
0.0
 46
0.0
 71
     7
 72
     1
  1
{\W1;2}
 73
     1
 44
1.0
  0
MTEXT
  5
15D
330
1F
100
AcDbEntity
  8
0
 62
     7
100
AcDbMText
 10
-53.3709606249265
 20
-159.6456148845395
 30
0.0
 40
2.5
 41
0.0
 46
0.0
 71
     7
 72
     1
  1
{\W1;8}
 73
     1
 44
1.0
  0
MTEXT
  5
15E
330
1F
100
AcDbEntity
  8
0
 62
     7
100
AcDbMText
 10
-54.6209606249265
 20
-165.0456148845394
 30
0.0
 40
2.5
 41
0.0
 46
0.0
 71
     7
 72
     1
  1
{\W1;10}
 73
     1
 44
1.0
  0
MTEXT
  5
15F
330
1F
100
AcDbEntity
  8
0
 62
     7
100
AcDbMText
 10
-42.57096062492649
 20
-165.0456148845394
 30
0.0
 40
2.5
 41
0.0
 46
0.0
 71
     7
 72
     1
  1
{\W1;2}
 73
     1
 44
1.0
  0
MTEXT
  5
160
330
1F
100
AcDbEntity
  8
0
 62
     7
100
AcDbMText
 10
-42.57096062492649
 20
-170.4456148845394
 30
0.0
 40
2.5
 41
0.0
 46
0.0
 71
     7
 72
     1
  1
{\W1;2}
 73
     1
 44
1.0
  0
MTEXT
  5
161
330
1F
100
AcDbEntity
  8
0
 62
     7
100
AcDbMText
 10
-54.6209606249265
 20
-170.4456148845394
 30
0.0
 40
2.5
 41
0.0
 46
0.0
 71
     7
 72
     1
  1
{\W1;10}
 73
     1
 44
1.0
  0
MTEXT
  5
162
330
1F
100
AcDbEntity
  8
0
 62
     7
100
AcDbMText
 10
-53.3709606249265
 20
-175.8456148845394
 30
0.0
 40
2.5
 41
0.0
 46
0.0
 71
     7
 72
     1
  1
{\W1;6}
 73
     1
 44
1.0
  0
MTEXT
  5
163
330
1F
100
AcDbEntity
  8
0
 62
     7
100
AcDbMText
 10
-42.57096062492649
 20
-175.8456148845394
 30
0.0
 40
2.5
 41
0.0
 46
0.0
 71
     7
 72
     1
  1
{\W1;2}
 73
     1
 44
1.0
  0
MTEXT
  5
164
330
1F
100
AcDbEntity
  8
0
 62
     7
100
AcDbMText
 10
-42.57096062492649
 20
-181.2456148845393
 30
0.0
 40
2.5
 41
0.0
 46
0.0
 71
     7
 72
     1
  1
{\W1;2}
 73
     1
 44
1.0
  0
MTEXT
  5
165
330
1F
100
AcDbEntity
  8
0
 62
     7
100
AcDbMText
 10
-54.6209606249265
 20
-181.2456148845393
 30
0.0
 40
2.5
 41
0.0
 46
0.0
 71
     7
 72
     1
  1
{\W1;16}
 73
     1
 44
1.0
  0
MTEXT
  5
166
330
1F
100
AcDbEntity
  8
0
 62
     7
100
AcDbMText
 10
-53.3709606249265
 20
-186.6456148845393
 30
0.0
 40
2.5
 41
0.0
 46
0.0
 71
     7
 72
     1
  1
{\W1;8}
 73
     1
 44
1.0
  0
MTEXT
  5
167
330
1F
100
AcDbEntity
  8
0
 62
     7
100
AcDbMText
 10
-42.57096062492649
 20
-186.6456148845393
 30
0.0
 40
2.5
 41
0.0
 46
0.0
 71
     7
 72
     1
  1
{\W1;3}
 73
     1
 44
1.0
  0
MTEXT
  5
168
330
1F
100
AcDbEntity
  8
0
 62
     7
100
AcDbMText
 10
-54.6209606249265
 20
-192.0456148845393
 30
0.0
 40
2.5
 41
0.0
 46
0.0
 71
     7
 72
     1
  1
{\W1;10}
 73
     1
 44
1.0
  0
MTEXT
  5
169
330
1F
100
AcDbEntity
  8
0
 62
     7
100
AcDbMText
 10
-42.57096062492649
 20
-192.0456148845393
 30
0.0
 40
2.5
 41
0.0
 46
0.0
 71
     7
 72
     1
  1
{\W1;3}
 73
     1
 44
1.0
  0
MTEXT
  5
16A
330
1F
100
AcDbEntity
  8
0
 62
     7
100
AcDbMText
 10
-54.6209606249265
 20
-197.4456148845392
 30
0.0
 40
2.5
 41
0.0
 46
0.0
 71
     7
 72
     1
  1
{\W1;17}
 73
     1
 44
1.0
  0
MTEXT
  5
16B
330
1F
100
AcDbEntity
  8
0
 62
     7
100
AcDbMText
 10
-42.57096062492649
 20
-197.4456148845392
 30
0.0
 40
2.5
 41
0.0
 46
0.0
 71
     7
 72
     1
  1
{\W1;3}
 73
     1
 44
1.0
  0
POINT
  5
17B
330
1F
100
AcDbEntity
  8
VIEW0002
 62
     7
100
AcDbPoint
 10
-115.7913813437846
 20
-83.18096183412944
 30
0.0
  0
POINT
  5
17C
330
1F
100
AcDbEntity
  8
VIEW0002
 62
     7
100
AcDbPoint
 10
-114.9020036926641
 20
-83.18096183412944
 30
0.0
  0
POINT
  5
17D
330
1F
100
AcDbEntity
  8
VIEW0002
 62
     7
100
AcDbPoint
 10
-113.8959632109721
 20
-84.20156412246752
 30
0.0
  0
POINT
  5
17E
330
1F
100
AcDbEntity
  8
VIEW0002
 62
     7
100
AcDbPoint
 10
-113.6043632409186
 20
-83.18096417983051
 30
0.0
  0
LINE
  5
90F
330
1F
100
AcDbEntity
  8
VIEW0002
  6
CENTER
 62
     7
100
AcDbLine
 10
-121.2353821436688
 20
-91.78317262835445
 30
0.0
 11
-70.62184996083235
 21
-91.78317262835445
 31
0.0
  0
LINE
  5
910
330
1F
100
AcDbEntity
  8
VIEW0002
  6
DASHED
 62
     7
100
AcDbLine
 10
-152.1673524192429
 20
-93.91348115542324
 30
0.0
 11
-151.9642716517267
 21
-93.8293623472609
 31
0.0
  0
LINE
  5
911
330
1F
100
AcDbEntity
  8
VIEW0002
  6
DASHED
 62
     7
100
AcDbLine
 10
-148.5966910111534
 20
-98.27320647752607
 30
0.0
 11
-148.512572202991
 21
-98.07012571000988
 31
0.0
  0
LINE
  5
912
330
1F
100
AcDbEntity
  8
VIEW0002
  6
DASHED
 62
     7
100
AcDbLine
 10
-142.9890607768028
 20
-98.83115892191415
 30
0.0
 11
-143.0731795849651
 21
-98.62807815439794
 31
0.0
  0
LINE
  5
913
330
1F
100
AcDbEntity
  8
VIEW0002
  6
DASHED
 62
     7
100
AcDbLine
 10
-138.6293354546997
 20
-95.26049751382426
 30
0.0
 11
-138.8324162222159
 21
-95.17637870566195
 31
0.0
  0
LINE
  5
914
330
1F
100
AcDbEntity
  8
VIEW0002
  6
DASHED
 62
     7
100
AcDbLine
 10
-147.2496746527518
 20
-84.73518951298251
 30
0.0
 11
-147.1655558445894
 21
-84.93827028049869
 31
0.0
  0
LINE
  5
915
330
1F
100
AcDbEntity
  8
VIEW0002
  6
DASHED
 62
     7
100
AcDbLine
 10
-138.0713830103113
 20
-89.65286727947324
 30
0.0
 11
-138.2744637778275
 21
-89.73698608763555
 31
0.0
  0
LINE
  5
91A
330
1F
100
AcDbEntity
  8
VIEW0002
  6
Continuous
 62
     7
100
AcDbLine
 10
-74.52987550199484
 20
-84.2015728269912
 30
0.0
 11
-74.52987550199484
 21
-99.36477242971776
 31
0.0
  0
LINE
  5
91B
330
1F
100
AcDbEntity
  8
VIEW0002
  6
Continuous
 62
     7
100
AcDbLine
 10
-75.24428995506426
 20
-84.20157282699117
 30
0.0
 11
-74.52987232380727
 21
-84.20157282699117
 31
0.0
  0
LINE
  5
920
330
1F
100
AcDbEntity
  8
VIEW0002
  6
Continuous
 62
     7
100
AcDbLine
 10
-75.24428995506426
 20
-99.36477242971776
 30
0.0
 11
-74.52987232380727
 21
-99.36477242971776
 31
0.0
  0
LINE
  5
921
330
1F
100
AcDbEntity
  8
VIEW0002
  6
Continuous
 62
     7
100
AcDbLine
 10
-76.71688256072744
 20
-84.20158270668972
 30
0.0
 11
-76.42528215411644
 21
-83.18098123610093
 31
0.0
  0
LINE
  5
922
330
1F
100
AcDbEntity
  8
VIEW0002
  6
Continuous
 62
     7
100
AcDbLine
 10
-75.53590162486376
 20
-100.3853757231198
 30
0.0
 11
-75.24430165481035
 21
-99.36477578048275
 31
0.0
  0
LINE
  5
923
330
1F
100
AcDbEntity
  8
VIEW0002
  6
Continuous
 62
     7
100
AcDbLine
 10
-76.71687138033735
 20
-99.36477481710182
 30
0.0
 11
-76.42527097372627
 21
-100.3853762876907
 31
0.0
  0
LINE
  5
924
330
1F
100
AcDbEntity
  8
VIEW0002
  6
Continuous
 62
     7
100
AcDbLine
 10
-75.24428995506437
 20
-84.2015728269912
 30
0.0
 11
-75.24428995506437
 21
-99.36477242971776
 31
0.0
  0
LINE
  5
925
330
1F
100
AcDbEntity
  8
VIEW0002
  6
Continuous
 62
     7
100
AcDbLine
 10
-75.53589502030084
 20
-83.1809725786953
 30
0.0
 11
-75.53589502030084
 21
-100.3853726780136
 31
0.0
  0
LINE
  5
926
330
1F
100
AcDbEntity
  8
VIEW0002
  6
Continuous
 62
     7
100
AcDbLine
 10
-76.42528061689046
 20
-83.1809725786953
 30
0.0
 11
-76.42528061689046
 21
-100.3853726780136
 31
0.0
  0
LINE
  5
927
330
1F
100
AcDbEntity
  8
VIEW0002
  6
Continuous
 62
     7
100
AcDbLine
 10
-76.71688409303306
 20
-84.2015728269912
 30
0.0
 11
-76.71688409303306
 21
-99.36477242971776
 31
0.0
  0
LINE
  5
928
330
1F
100
AcDbEntity
  8
VIEW0002
  6
Continuous
 62
     7
100
AcDbLine
 10
-76.42527902779659
 20
-83.18097416778902
 30
0.0
 11
-75.53589819848827
 21
-83.18097416778902
 31
0.0
  0
LINE
  5
929
330
1F
100
AcDbEntity
  8
VIEW0002
  6
Continuous
 62
     7
100
AcDbLine
 10
-77.43129854610256
 20
-84.20157282699117
 30
0.0
 11
-76.71688091484546
 21
-84.20157282699117
 31
0.0
  0
LINE
  5
92A
330
1F
100
AcDbEntity
  8
VIEW0002
  6
Continuous
 62
     7
100
AcDbLine
 10
-76.42527902779659
 20
-100.3853710889198
 30
0.0
 11
-75.53589819848827
 21
-100.3853710889198
 31
0.0
  0
LINE
  5
92B
330
1F
100
AcDbEntity
  8
VIEW0002
  6
Continuous
 62
     7
100
AcDbLine
 10
-75.53589109931007
 20
-83.1809795087444
 30
0.0
 11
-75.24429156581425
 21
-84.20157792342974
 31
0.0
  0
LINE
  5
92C
330
1F
100
AcDbEntity
  8
VIEW0002
  6
Continuous
 62
     7
100
AcDbLine
 10
-77.43129854610256
 20
-99.36477242971776
 30
0.0
 11
-76.71688091484546
 21
-99.36477242971776
 31
0.0
  0
LINE
  5
92D
330
1F
100
AcDbEntity
  8
VIEW0002
  6
Continuous
 62
     7
100
AcDbLine
 10
-78.90389115176586
 20
-84.20158270668983
 30
0.0
 11
-78.61229074515475
 21
-83.18098123610107
 31
0.0
  0
LINE
  5
92E
330
1F
100
AcDbEntity
  8
VIEW0002
  6
Continuous
 62
     7
100
AcDbLine
 10
-77.72291021590206
 20
-100.3853757231199
 30
0.0
 11
-77.43131024584866
 21
-99.36477578048288
 31
0.0
  0
LINE
  5
92F
330
1F
100
AcDbEntity
  8
VIEW0002
  6
Continuous
 62
     7
100
AcDbLine
 10
-78.90387997137557
 20
-99.36477481710191
 30
0.0
 11
-78.61227956476444
 21
-100.3853762876907
 31
0.0
  0
LINE
  5
930
330
1F
100
AcDbEntity
  8
VIEW0002
  6
Continuous
 62
     7
100
AcDbLine
 10
-77.43129854610265
 20
-84.2015728269912
 30
0.0
 11
-77.43129854610265
 21
-99.36477242971776
 31
0.0
  0
LINE
  5
931
330
1F
100
AcDbEntity
  8
VIEW0002
  6
Continuous
 62
     7
100
AcDbLine
 10
-77.72290361133909
 20
-83.1809725786953
 30
0.0
 11
-77.72290361133909
 21
-100.3853726780136
 31
0.0
  0
LINE
  5
932
330
1F
100
AcDbEntity
  8
VIEW0002
  6
Continuous
 62
     7
100
AcDbLine
 10
-78.61228920792877
 20
-83.1809725786953
 30
0.0
 11
-78.61228920792877
 21
-100.3853726780136
 31
0.0
  0
LINE
  5
933
330
1F
100
AcDbEntity
  8
VIEW0002
  6
Continuous
 62
     7
100
AcDbLine
 10
-78.90389268407137
 20
-84.2015728269912
 30
0.0
 11
-78.90389268407137
 21
-99.36477242971776
 31
0.0
  0
LINE
  5
934
330
1F
100
AcDbEntity
  8
VIEW0002
  6
Continuous
 62
     7
100
AcDbLine
 10
-78.61228761883475
 20
-83.18097416778902
 30
0.0
 11
-77.72290678952646
 21
-83.18097416778902
 31
0.0
  0
LINE
  5
935
330
1F
100
AcDbEntity
  8
VIEW0002
  6
Continuous
 62
     7
100
AcDbLine
 10
-79.61830713714068
 20
-84.20157282699117
 30
0.0
 11
-78.90388950588365
 21
-84.20157282699117
 31
0.0
  0
LINE
  5
936
330
1F
100
AcDbEntity
  8
VIEW0002
  6
Continuous
 62
     7
100
AcDbLine
 10
-78.61228761883475
 20
-100.3853710889198
 30
0.0
 11
-77.72290678952646
 21
-100.3853710889198
 31
0.0
  0
LINE
  5
937
330
1F
100
AcDbEntity
  8
VIEW0002
  6
Continuous
 62
     7
100
AcDbLine
 10
-77.72289969034836
 20
-83.18097950874443
 30
0.0
 11
-77.43130015685259
 21
-84.20157792342971
 31
0.0
  0
LINE
  5
938
330
1F
100
AcDbEntity
  8
VIEW0002
  6
Continuous
 62
     7
100
AcDbLine
 10
-79.61830713714068
 20
-99.36477242971776
 30
0.0
 11
-78.90388950588365
 21
-99.36477242971776
 31
0.0
  0
LINE
  5
939
330
1F
100
AcDbEntity
  8
VIEW0002
  6
Continuous
 62
     7
100
AcDbLine
 10
-81.09089974280385
 20
-84.20158270668981
 30
0.0
 11
-80.79929933619277
 21
-83.18098123610106
 31
0.0
  0
LINE
  5
93A
330
1F
100
AcDbEntity
  8
VIEW0002
  6
Continuous
 62
     7
100
AcDbLine
 10
-79.90991880694034
 20
-100.3853757231197
 30
0.0
 11
-79.61831883688694
 21
-99.36477578048275
 31
0.0
  0
LINE
  5
93B
330
1F
100
AcDbEntity
  8
VIEW0002
  6
Continuous
 62
     7
100
AcDbLine
 10
-81.09088856241385
 20
-99.36477481710181
 30
0.0
 11
-80.79928815580274
 21
-100.3853762876905
 31
0.0
  0
LINE
  5
93C
330
1F
100
AcDbEntity
  8
VIEW0002
  6
Continuous
 62
     7
100
AcDbLine
 10
-79.61830713714085
 20
-84.2015728269912
 30
0.0
 11
-79.61830713714085
 21
-99.36477242971776
 31
0.0
  0
LINE
  5
93D
330
1F
100
AcDbEntity
  8
VIEW0002
  6
Continuous
 62
     7
100
AcDbLine
 10
-79.90991220237726
 20
-83.1809725786953
 30
0.0
 11
-79.90991220237726
 21
-100.3853726780136
 31
0.0
  0
LINE
  5
93E
330
1F
100
AcDbEntity
  8
VIEW0002
  6
Continuous
 62
     7
100
AcDbLine
 10
-80.79929779896707
 20
-83.1809725786953
 30
0.0
 11
-80.79929779896707
 21
-100.3853726780136
 31
0.0
  0
LINE
  5
93F
330
1F
100
AcDbEntity
  8
VIEW0002
  6
Continuous
 62
     7
100
AcDbLine
 10
-81.09090127510967
 20
-84.2015728269912
 30
0.0
 11
-81.09090127510967
 21
-99.36477242971776
 31
0.0
  0
LINE
  5
940
330
1F
100
AcDbEntity
  8
VIEW0002
  6
Continuous
 62
     7
100
AcDbLine
 10
-80.79929620987318
 20
-83.18097416778902
 30
0.0
 11
-79.90991538056474
 21
-83.18097416778902
 31
0.0
  0
LINE
  5
941
330
1F
100
AcDbEntity
  8
VIEW0002
  6
Continuous
 62
     7
100
AcDbLine
 10
-81.80531572817907
 20
-84.20157282699117
 30
0.0
 11
-81.09089809692207
 21
-84.20157282699117
 31
0.0
  0
LINE
  5
942
330
1F
100
AcDbEntity
  8
VIEW0002
  6
Continuous
 62
     7
100
AcDbLine
 10
-80.79929620987318
 20
-100.3853710889198
 30
0.0
 11
-79.90991538056474
 21
-100.3853710889198
 31
0.0
  0
LINE
  5
943
330
1F
100
AcDbEntity
  8
VIEW0002
  6
Continuous
 62
     7
100
AcDbLine
 10
-79.90990828138658
 20
-83.18097950874436
 30
0.0
 11
-79.61830874789078
 21
-84.20157792342971
 31
0.0
  0
LINE
  5
944
330
1F
100
AcDbEntity
  8
VIEW0002
  6
Continuous
 62
     7
100
AcDbLine
 10
-81.80531572817907
 20
-99.36477242971776
 30
0.0
 11
-81.09089809692207
 21
-99.36477242971776
 31
0.0
  0
LINE
  5
945
330
1F
100
AcDbEntity
  8
VIEW0002
  6
Continuous
 62
     7
100
AcDbLine
 10
-83.27790833384216
 20
-84.20158270668972
 30
0.0
 11
-82.98630792723116
 21
-83.18098123610091
 31
0.0
  0
LINE
  5
946
330
1F
100
AcDbEntity
  8
VIEW0002
  6
Continuous
 62
     7
100
AcDbLine
 10
-82.09692739797844
 20
-100.3853757231196
 30
0.0
 11
-81.80532742792493
 21
-99.36477578048263
 31
0.0
  0
LINE
  5
947
330
1F
100
AcDbEntity
  8
VIEW0002
  6
Continuous
 62
     7
100
AcDbLine
 10
-83.27789715345208
 20
-99.36477481710193
 30
0.0
 11
-82.98629674684093
 21
-100.3853762876907
 31
0.0
  0
LINE
  5
948
330
1F
100
AcDbEntity
  8
VIEW0002
  6
Continuous
 62
     7
100
AcDbLine
 10
-81.80531572817915
 20
-84.2015728269912
 30
0.0
 11
-81.80531572817915
 21
-99.36477242971776
 31
0.0
  0
LINE
  5
949
330
1F
100
AcDbEntity
  8
VIEW0002
  6
Continuous
 62
     7
100
AcDbLine
 10
-82.09692079341568
 20
-83.1809725786953
 30
0.0
 11
-82.09692079341568
 21
-100.3853726780136
 31
0.0
  0
LINE
  5
94A
330
1F
100
AcDbEntity
  8
VIEW0002
  6
Continuous
 62
     7
100
AcDbLine
 10
-82.98630639000524
 20
-83.1809725786953
 30
0.0
 11
-82.98630639000524
 21
-100.3853726780136
 31
0.0
  0
LINE
  5
94B
330
1F
100
AcDbEntity
  8
VIEW0002
  6
Continuous
 62
     7
100
AcDbLine
 10
-83.27790986614784
 20
-84.2015728269912
 30
0.0
 11
-83.27790986614784
 21
-99.36477242971776
 31
0.0
  0
LINE
  5
94C
330
1F
100
AcDbEntity
  8
VIEW0002
  6
Continuous
 62
     7
100
AcDbLine
 10
-82.98630480091137
 20
-83.18097416778902
 30
0.0
 11
-82.09692397160308
 21
-83.18097416778902
 31
0.0
  0
LINE
  5
94D
330
1F
100
AcDbEntity
  8
VIEW0002
  6
Continuous
 62
     7
100
AcDbLine
 10
-83.99232431921726
 20
-84.20157282699117
 30
0.0
 11
-83.27790668796025
 21
-84.20157282699117
 31
0.0
  0
LINE
  5
94E
330
1F
100
AcDbEntity
  8
VIEW0002
  6
Continuous
 62
     7
100
AcDbLine
 10
-82.98630480091137
 20
-100.3853710889198
 30
0.0
 11
-82.09692397160308
 21
-100.3853710889198
 31
0.0
  0
LINE
  5
94F
330
1F
100
AcDbEntity
  8
VIEW0002
  6
Continuous
 62
     7
100
AcDbLine
 10
-82.09691687242477
 20
-83.18097950874436
 30
0.0
 11
-81.80531733892895
 21
-84.20157792342971
 31
0.0
  0
LINE
  5
950
330
1F
100
AcDbEntity
  8
VIEW0002
  6
Continuous
 62
     7
100
AcDbLine
 10
-83.99232431921726
 20
-99.36477242971776
 30
0.0
 11
-83.27790668796025
 21
-99.36477242971776
 31
0.0
  0
LINE
  5
951
330
1F
100
AcDbEntity
  8
VIEW0002
  6
Continuous
 62
     7
100
AcDbLine
 10
-85.46491692488066
 20
-84.20158270668983
 30
0.0
 11
-85.17331651826955
 21
-83.18098123610102
 31
0.0
  0
LINE
  5
952
330
1F
100
AcDbEntity
  8
VIEW0002
  6
Continuous
 62
     7
100
AcDbLine
 10
-84.28393598901683
 20
-100.3853757231194
 30
0.0
 11
-83.99233601896344
 21
-99.3647757804824
 31
0.0
  0
LINE
  5
953
330
1F
100
AcDbEntity
  8
VIEW0002
  6
Continuous
 62
     7
100
AcDbLine
 10
-85.46490574449036
 20
-99.36477481710198
 30
0.0
 11
-85.17330533787927
 21
-100.3853762876908
 31
0.0
  0
LINE
  5
954
330
1F
100
AcDbEntity
  8
VIEW0002
  6
Continuous
 62
     7
100
AcDbLine
 10
-83.99232431921735
 20
-84.2015728269912
 30
0.0
 11
-83.99232431921735
 21
-99.36477242971776
 31
0.0
  0
LINE
  5
955
330
1F
100
AcDbEntity
  8
VIEW0002
  6
Continuous
 62
     7
100
AcDbLine
 10
-84.28392938445387
 20
-83.1809725786953
 30
0.0
 11
-84.28392938445387
 21
-100.3853726780136
 31
0.0
  0
LINE
  5
956
330
1F
100
AcDbEntity
  8
VIEW0002
  6
Continuous
 62
     7
100
AcDbLine
 10
-85.17331498104343
 20
-83.1809725786953
 30
0.0
 11
-85.17331498104343
 21
-100.3853726780136
 31
0.0
  0
LINE
  5
957
330
1F
100
AcDbEntity
  8
VIEW0002
  6
Continuous
 62
     7
100
AcDbLine
 10
-85.46491845718618
 20
-84.2015728269912
 30
0.0
 11
-85.46491845718618
 21
-99.36477242971776
 31
0.0
  0
LINE
  5
958
330
1F
100
AcDbEntity
  8
VIEW0002
  6
Continuous
 62
     7
100
AcDbLine
 10
-85.17331339194956
 20
-83.18097416778902
 30
0.0
 11
-84.28393256264127
 21
-83.18097416778902
 31
0.0
  0
LINE
  5
959
330
1F
100
AcDbEntity
  8
VIEW0002
  6
Continuous
 62
     7
100
AcDbLine
 10
-86.17933291025556
 20
-84.20157282699117
 30
0.0
 11
-85.46491527899837
 21
-84.20157282699117
 31
0.0
  0
LINE
  5
95A
330
1F
100
AcDbEntity
  8
VIEW0002
  6
Continuous
 62
     7
100
AcDbLine
 10
-85.17331339194956
 20
-100.3853710889198
 30
0.0
 11
-84.28393256264127
 21
-100.3853710889198
 31
0.0
  0
LINE
  5
95B
330
1F
100
AcDbEntity
  8
VIEW0002
  6
Continuous
 62
     7
100
AcDbLine
 10
-84.28392546346316
 20
-83.18097950874435
 30
0.0
 11
-83.99232592996737
 21
-84.20157792342969
 31
0.0
  0
LINE
  5
95C
330
1F
100
AcDbEntity
  8
VIEW0002
  6
Continuous
 62
     7
100
AcDbLine
 10
-86.17933291025556
 20
-99.36477242971776
 30
0.0
 11
-85.46491527899837
 21
-99.36477242971776
 31
0.0
  0
LINE
  5
95D
330
1F
100
AcDbEntity
  8
VIEW0002
  6
Continuous
 62
     7
100
AcDbLine
 10
-87.65192551591857
 20
-84.20158270668967
 30
0.0
 11
-87.36032510930744
 21
-83.18098123610086
 31
0.0
  0
LINE
  5
95E
330
1F
100
AcDbEntity
  8
VIEW0002
  6
Continuous
 62
     7
100
AcDbLine
 10
-86.47094458005517
 20
-100.3853757231197
 30
0.0
 11
-86.17934461000166
 21
-99.36477578048263
 31
0.0
  0
LINE
  5
95F
330
1F
100
AcDbEntity
  8
VIEW0002
  6
Continuous
 62
     7
100
AcDbLine
 10
-87.65191433552843
 20
-99.36477481710172
 30
0.0
 11
-87.36031392891746
 21
-100.3853762876905
 31
0.0
  0
LINE
  5
960
330
1F
100
AcDbEntity
  8
VIEW0002
  6
Continuous
 62
     7
100
AcDbLine
 10
-86.17933291025568
 20
-84.2015728269912
 30
0.0
 11
-86.17933291025568
 21
-99.36477242971776
 31
0.0
  0
LINE
  5
961
330
1F
100
AcDbEntity
  8
VIEW0002
  6
Continuous
 62
     7
100
AcDbLine
 10
-86.47093797549207
 20
-83.1809725786953
 30
0.0
 11
-86.47093797549207
 21
-100.3853726780136
 31
0.0
  0
LINE
  5
962
330
1F
100
AcDbEntity
  8
VIEW0002
  6
Continuous
 62
     7
100
AcDbLine
 10
-87.36032357208177
 20
-83.1809725786953
 30
0.0
 11
-87.36032357208177
 21
-100.3853726780136
 31
0.0
  0
LINE
  5
963
330
1F
100
AcDbEntity
  8
VIEW0002
  6
Continuous
 62
     7
100
AcDbLine
 10
-87.65192704822437
 20
-84.2015728269912
 30
0.0
 11
-87.65192704822437
 21
-99.36477242971776
 31
0.0
  0
LINE
  5
964
330
1F
100
AcDbEntity
  8
VIEW0002
  6
Continuous
 62
     7
100
AcDbLine
 10
-87.36032198298785
 20
-83.18097416778902
 30
0.0
 11
-86.47094115367947
 21
-83.18097416778902
 31
0.0
  0
LINE
  5
965
330
1F
100
AcDbEntity
  8
VIEW0002
  6
Continuous
 62
     7
100
AcDbLine
 10
-88.36634150129384
 20
-84.20157282699117
 30
0.0
 11
-87.65192387003677
 21
-84.20157282699117
 31
0.0
  0
LINE
  5
966
330
1F
100
AcDbEntity
  8
VIEW0002
  6
Continuous
 62
     7
100
AcDbLine
 10
-87.36032198298785
 20
-100.3853710889198
 30
0.0
 11
-86.47094115367947
 21
-100.3853710889198
 31
0.0
  0
LINE
  5
967
330
1F
100
AcDbEntity
  8
VIEW0002
  6
Continuous
 62
     7
100
AcDbLine
 10
-86.47093405450124
 20
-83.18097950874443
 30
0.0
 11
-86.17933452100544
 21
-84.2015779234298
 31
0.0
  0
LINE
  5
968
330
1F
100
AcDbEntity
  8
VIEW0002
  6
Continuous
 62
     7
100
AcDbLine
 10
-88.36634150129384
 20
-99.36477242971776
 30
0.0
 11
-87.65192387003677
 21
-99.36477242971776
 31
0.0
  0
LINE
  5
969
330
1F
100
AcDbEntity
  8
VIEW0002
  6
Continuous
 62
     7
100
AcDbLine
 10
-89.83893410695708
 20
-84.20158270668983
 30
0.0
 11
-89.54733370034594
 21
-83.18098123610107
 31
0.0
  0
LINE
  5
96A
330
1F
100
AcDbEntity
  8
VIEW0002
  6
Continuous
 62
     7
100
AcDbLine
 10
-88.65795317109325
 20
-100.3853757231198
 30
0.0
 11
-88.36635320103985
 21
-99.3647757804827
 31
0.0
  0
LINE
  5
96B
330
1F
100
AcDbEntity
  8
VIEW0002
  6
Continuous
 62
     7
100
AcDbLine
 10
-89.83892292656666
 20
-99.36477481710193
 30
0.0
 11
-89.54732251995565
 21
-100.3853762876907
 31
0.0
  0
LINE
  5
96C
330
1F
100
AcDbEntity
  8
VIEW0002
  6
Continuous
 62
     7
100
AcDbLine
 10
-88.36634150129397
 20
-84.2015728269912
 30
0.0
 11
-88.36634150129397
 21
-99.36477242971776
 31
0.0
  0
LINE
  5
96D
330
1F
100
AcDbEntity
  8
VIEW0002
  6
Continuous
 62
     7
100
AcDbLine
 10
-88.65794656653035
 20
-83.1809725786953
 30
0.0
 11
-88.65794656653035
 21
-100.3853726780136
 31
0.0
  0
LINE
  5
96E
330
1F
100
AcDbEntity
  8
VIEW0002
  6
Continuous
 62
     7
100
AcDbLine
 10
-89.54733216312007
 20
-83.1809725786953
 30
0.0
 11
-89.54733216312007
 21
-100.3853726780136
 31
0.0
  0
LINE
  5
96F
330
1F
100
AcDbEntity
  8
VIEW0002
  6
Continuous
 62
     7
100
AcDbLine
 10
-89.83893563926267
 20
-84.2015728269912
 30
0.0
 11
-89.83893563926267
 21
-99.36477242971776
 31
0.0
  0
LINE
  5
970
330
1F
100
AcDbEntity
  8
VIEW0002
  6
Continuous
 62
     7
100
AcDbLine
 10
-89.54733057402606
 20
-83.18097416778902
 30
0.0
 11
-88.65794974471777
 21
-83.18097416778902
 31
0.0
  0
LINE
  5
971
330
1F
100
AcDbEntity
  8
VIEW0002
  6
Continuous
 62
     7
100
AcDbLine
 10
-90.55335009233207
 20
-84.20157282699117
 30
0.0
 11
-89.83893246107484
 21
-84.20157282699117
 31
0.0
  0
LINE
  5
972
330
1F
100
AcDbEntity
  8
VIEW0002
  6
Continuous
 62
     7
100
AcDbLine
 10
-89.54733057402606
 20
-100.3853710889198
 30
0.0
 11
-88.65794974471777
 21
-100.3853710889198
 31
0.0
  0
LINE
  5
973
330
1F
100
AcDbEntity
  8
VIEW0002
  6
Continuous
 62
     7
100
AcDbLine
 10
-88.65794264553958
 20
-83.18097950874442
 30
0.0
 11
-88.36634311204376
 21
-84.20157792342976
 31
0.0
  0
LINE
  5
974
330
1F
100
AcDbEntity
  8
VIEW0002
  6
Continuous
 62
     7
100
AcDbLine
 10
-90.55335009233207
 20
-99.36477242971776
 30
0.0
 11
-89.83893246107484
 21
-99.36477242971776
 31
0.0
  0
LINE
  5
975
330
1F
100
AcDbEntity
  8
VIEW0002
  6
Continuous
 62
     7
100
AcDbLine
 10
-92.02594269799517
 20
-84.20158270668983
 30
0.0
 11
-91.73434229138416
 21
-83.18098123610106
 31
0.0
  0
LINE
  5
976
330
1F
100
AcDbEntity
  8
VIEW0002
  6
Continuous
 62
     7
100
AcDbLine
 10
-90.84496176213164
 20
-100.3853757231197
 30
0.0
 11
-90.55336179207825
 21
-99.36477578048263
 31
0.0
  0
LINE
  5
977
330
1F
100
AcDbEntity
  8
VIEW0002
  6
Continuous
 62
     7
100
AcDbLine
 10
-92.02593151760515
 20
-99.36477481710193
 30
0.0
 11
-91.73433111099408
 21
-100.3853762876907
 31
0.0
  0
LINE
  5
978
330
1F
100
AcDbEntity
  8
VIEW0002
  6
Continuous
 62
     7
100
AcDbLine
 10
-90.55335009233216
 20
-84.2015728269912
 30
0.0
 11
-90.55335009233216
 21
-99.36477242971776
 31
0.0
  0
LINE
  5
979
330
1F
100
AcDbEntity
  8
VIEW0002
  6
Continuous
 62
     7
100
AcDbLine
 10
-90.84495515756868
 20
-83.1809725786953
 30
0.0
 11
-90.84495515756868
 21
-100.3853726780136
 31
0.0
  0
LINE
  5
97A
330
1F
100
AcDbEntity
  8
VIEW0002
  6
Continuous
 62
     7
100
AcDbLine
 10
-91.73434075415826
 20
-83.1809725786953
 30
0.0
 11
-91.73434075415826
 21
-100.3853726780136
 31
0.0
  0
LINE
  5
97B
330
1F
100
AcDbEntity
  8
VIEW0002
  6
Continuous
 62
     7
100
AcDbLine
 10
-92.02594423030095
 20
-84.2015728269912
 30
0.0
 11
-92.02594423030095
 21
-99.36477242971776
 31
0.0
  0
LINE
  5
97C
330
1F
100
AcDbEntity
  8
VIEW0002
  6
Continuous
 62
     7
100
AcDbLine
 10
-104.8563462166681
 20
-83.1809725786953
 30
0.0
 11
-104.8563462166681
 21
-100.3853726780136
 31
0.0
  0
LINE
  5
97D
330
1F
100
AcDbEntity
  8
VIEW0002
  6
Continuous
 62
     7
100
AcDbLine
 10
-99.59296250712734
 20
-83.1809725786953
 30
0.0
 11
-99.59296250712734
 21
-100.3853726780136
 31
0.0
  0
LINE
  5
97E
330
1F
100
AcDbEntity
  8
VIEW0002
  6
Continuous
 62
     7
100
AcDbLine
 10
-105.8623697077084
 20
-84.20157282699117
 30
0.0
 11
-105.1479449255293
 21
-84.20157282699117
 31
0.0
  0
LINE
  5
97F
330
1F
100
AcDbEntity
  8
VIEW0002
  6
Continuous
 62
     7
100
AcDbLine
 10
-105.1479475801581
 20
-84.201569635114
 30
0.0
 11
-104.8563480466621
 21
-83.18097122042869
 31
0.0
  0
LINE
  5
980
330
1F
100
AcDbEntity
  8
VIEW0002
  6
Continuous
 62
     7
100
AcDbLine
 10
-105.1479512819046
 20
-84.2015728269912
 30
0.0
 11
-105.1479512819046
 21
-99.36477242971776
 31
0.0
  0
LINE
  5
981
330
1F
100
AcDbEntity
  8
VIEW0002
  6
Continuous
 62
     7
100
AcDbLine
 10
-105.1479510244483
 20
-99.36477140862679
 30
0.0
 11
-104.8563506178373
 21
-100.3853728792155
 31
0.0
  0
LINE
  5
982
330
1F
100
AcDbEntity
  8
VIEW0002
  6
Continuous
 62
     7
100
AcDbLine
 10
-105.8623697077084
 20
-99.36477242971776
 30
0.0
 11
-105.1479449255293
 21
-99.36477242971776
 31
0.0
  0
LINE
  5
983
330
1F
100
AcDbEntity
  8
VIEW0002
  6
PHANTOM
 62
     7
100
AcDbLine
 10
-104.8563462166681
 20
-100.3853710889198
 30
0.0
 11
-99.59296886350237
 21
-100.3853710889198
 31
0.0
  0
LINE
  5
984
330
1F
100
AcDbEntity
  8
VIEW0002
  6
Continuous
 62
     7
100
AcDbLine
 10
-107.3349367539013
 20
-84.20157337271207
 30
0.0
 11
-107.0433367838478
 21
-83.18097343007499
 31
0.0
  0
LINE
  5
985
330
1F
100
AcDbEntity
  8
VIEW0002
  6
Continuous
 62
     7
100
AcDbLine
 10
-99.59295534310484
 20
-83.18097443504081
 30
0.0
 11
-99.30135580960907
 21
-84.20157284972612
 31
0.0
  0
LINE
  5
986
330
1F
100
AcDbEntity
  8
VIEW0002
  6
Continuous
 62
     7
100
AcDbLine
 10
-99.30135744189096
 20
-84.2015728269912
 30
0.0
 11
-99.30135744189096
 21
-99.36477242971776
 31
0.0
  0
LINE
  5
987
330
1F
100
AcDbEntity
  8
VIEW0002
  6
Continuous
 62
     7
100
AcDbLine
 10
-99.59296548667078
 20
-100.3853707832823
 30
0.0
 11
-99.30136508005976
 21
-99.36476931269352
 31
0.0
  0
LINE
  5
988
330
1F
100
AcDbEntity
  8
VIEW0002
  6
PHANTOM
 62
     7
100
AcDbLine
 10
-104.8563462166681
 20
-83.18097416778902
 30
0.0
 11
-99.59296886350237
 21
-83.18097416778902
 31
0.0
  0
LINE
  5
989
330
1F
100
AcDbEntity
  8
VIEW0002
  6
Continuous
 62
     7
100
AcDbLine
 10
-106.1539726255066
 20
-100.3853789401743
 30
0.0
 11
-105.8623722188955
 21
-99.36477746958557
 31
0.0
  0
LINE
  5
98A
330
1F
100
AcDbEntity
  8
VIEW0002
  6
Continuous
 62
     7
100
AcDbLine
 10
-107.3349432540952
 20
-99.36476854414367
 30
0.0
 11
-107.0433428474841
 21
-100.3853700147324
 31
0.0
  0
LINE
  5
98B
330
1F
100
AcDbEntity
  8
VIEW0002
  6
Continuous
 62
     7
100
AcDbLine
 10
-105.8623569949582
 20
-84.2015728269912
 30
0.0
 11
-105.8623569949582
 21
-99.36477242971776
 31
0.0
  0
LINE
  5
98C
330
1F
100
AcDbEntity
  8
VIEW0002
  6
Continuous
 62
     7
100
AcDbLine
 10
-106.1539493474444
 20
-83.1809725786953
 30
0.0
 11
-106.1539493474444
 21
-100.3853726780136
 31
0.0
  0
LINE
  5
98D
330
1F
100
AcDbEntity
  8
VIEW0002
  6
Continuous
 62
     7
100
AcDbLine
 10
-107.0433460676905
 20
-83.1809725786953
 30
0.0
 11
-107.0433460676905
 21
-100.3853726780136
 31
0.0
  0
LINE
  5
98E
330
1F
100
AcDbEntity
  8
VIEW0002
  6
Continuous
 62
     7
100
AcDbLine
 10
-107.3349511329271
 20
-84.2015728269912
 30
0.0
 11
-107.3349511329271
 21
-99.36477242971776
 31
0.0
  0
LINE
  5
98F
330
1F
100
AcDbEntity
  8
VIEW0002
  6
Continuous
 62
     7
100
AcDbLine
 10
-108.0493695587308
 20
-84.20157282699117
 30
0.0
 11
-107.3349447765517
 21
-84.20157282699117
 31
0.0
  0
LINE
  5
990
330
1F
100
AcDbEntity
  8
VIEW0002
  6
Continuous
 62
     7
100
AcDbLine
 10
-108.0493695587308
 20
-99.36477242971776
 30
0.0
 11
-107.3349447765517
 21
-99.36477242971776
 31
0.0
  0
LINE
  5
991
330
1F
100
AcDbEntity
  8
VIEW0002
  6
Continuous
 62
     7
100
AcDbLine
 10
-106.1539621406933
 20
-83.18097614909698
 30
0.0
 11
-105.8623625937415
 21
-84.20157461087796
 31
0.0
  0
LINE
  5
992
330
1F
100
AcDbEntity
  8
VIEW0002
  6
Continuous
 62
     7
100
AcDbLine
 10
-107.0433460676904
 20
-100.3853710889198
 30
0.0
 11
-106.1539684165696
 21
-100.3853710889198
 31
0.0
  0
LINE
  5
993
330
1F
100
AcDbEntity
  8
VIEW0002
  6
Continuous
 62
     7
100
AcDbLine
 10
-107.0433460676904
 20
-83.18097416778902
 30
0.0
 11
-106.1539684165696
 21
-83.18097416778902
 31
0.0
  0
LINE
  5
994
330
1F
100
AcDbEntity
  8
VIEW0002
  6
Continuous
 62
     7
100
AcDbLine
 10
-108.3409788249978
 20
-100.385372855226
 30
0.0
 11
-108.049379291502
 21
-99.36477444054078
 31
0.0
  0
LINE
  5
995
330
1F
100
AcDbEntity
  8
VIEW0002
  6
Continuous
 62
     7
100
AcDbLine
 10
-109.5219494535865
 20
-99.364774629092
 30
0.0
 11
-109.2303494835331
 21
-100.3853745717291
 31
0.0
  0
LINE
  5
996
330
1F
100
AcDbEntity
  8
VIEW0002
  6
Continuous
 62
     7
100
AcDbLine
 10
-108.0493568459807
 20
-84.2015728269912
 30
0.0
 11
-108.0493568459807
 21
-99.36477242971776
 31
0.0
  0
LINE
  5
997
330
1F
100
AcDbEntity
  8
VIEW0002
  6
Continuous
 62
     7
100
AcDbLine
 10
-108.3409491984668
 20
-83.1809725786953
 30
0.0
 11
-108.3409491984668
 21
-100.3853726780136
 31
0.0
  0
LINE
  5
998
330
1F
100
AcDbEntity
  8
VIEW0002
  6
Continuous
 62
     7
100
AcDbLine
 10
-109.2303490969006
 20
-90.17528463494299
 30
0.0
 11
-109.2303490969006
 21
-100.3853726780136
 31
0.0
  0
LINE
  5
999
330
1F
100
AcDbEntity
  8
VIEW0002
  6
Continuous
 62
     7
100
AcDbLine
 10
-109.5219509839495
 20
-90.95876984376189
 30
0.0
 11
-109.5219509839495
 21
-99.36477242971776
 31
0.0
  0
LINE
  5
99A
330
1F
100
AcDbEntity
  8
VIEW0002
  6
Continuous
 62
     7
100
AcDbLine
 10
-110.2363694097532
 20
-99.36477242971776
 30
0.0
 11
-109.5219446275742
 21
-99.36477242971776
 31
0.0
  0
LINE
  5
99B
330
1F
100
AcDbEntity
  8
VIEW0002
  6
Continuous
 62
     7
100
AcDbLine
 10
-108.3409709597169
 20
-83.18097306568212
 30
0.0
 11
-108.0493722993363
 21
-84.20156842446399
 31
0.0
  0
LINE
  5
99C
330
1F
100
AcDbEntity
  8
VIEW0002
  6
Continuous
 62
     7
100
AcDbLine
 10
-109.2303459187129
 20
-100.3853710889198
 30
0.0
 11
-108.3409682675922
 21
-100.3853710889198
 31
0.0
  0
LINE
  5
99D
330
1F
100
AcDbEntity
  8
VIEW0002
  6
Continuous
 62
     7
100
AcDbLine
 10
-110.5279721460387
 20
-100.3853737551997
 30
0.0
 11
-110.2363726125429
 21
-99.36477534051443
 31
0.0
  0
LINE
  5
99E
330
1F
100
AcDbEntity
  8
VIEW0002
  6
Continuous
 62
     7
100
AcDbLine
 10
-111.7089443025788
 20
-99.36477416567578
 30
0.0
 11
-111.4173447690831
 21
-100.3853725803611
 31
0.0
  0
LINE
  5
99F
330
1F
100
AcDbEntity
  8
VIEW0002
  6
Continuous
 62
     7
100
AcDbLine
 10
-110.2363566970032
 20
-92.82322020634545
 30
0.0
 11
-110.2363566970032
 21
-99.36477242971776
 31
0.0
  0
LINE
  5
9A0
330
1F
100
AcDbEntity
  8
VIEW0002
  6
Continuous
 62
     7
100
AcDbLine
 10
-110.5279490494893
 20
-93.80481296959274
 30
0.0
 11
-110.5279490494893
 21
-100.3853726780136
 31
0.0
  0
LINE
  5
9A1
330
1F
100
AcDbEntity
  8
VIEW0002
  6
Continuous
 62
     7
100
AcDbLine
 10
-111.4173457697352
 20
-100.3853710889198
 30
0.0
 11
-110.5279681186145
 21
-100.3853710889198
 31
0.0
  0
LINE
  5
9A2
330
1F
100
AcDbEntity
  8
VIEW0002
  6
Continuous
 62
     7
100
AcDbLine
 10
-111.4173489479231
 20
-98.41834790094353
 30
0.0
 11
-111.4173489479231
 21
-100.3853726780136
 31
0.0
  0
LINE
  5
9A3
330
1F
100
AcDbEntity
  8
VIEW0002
  6
Continuous
 62
     7
100
AcDbLine
 10
-94.21295128903357
 20
-84.20158270668977
 30
0.0
 11
-93.92135088242245
 21
-83.18098123610099
 31
0.0
  0
LINE
  5
9A4
330
1F
100
AcDbEntity
  8
VIEW0002
  6
Continuous
 62
     7
100
AcDbLine
 10
-93.03197035316983
 20
-100.3853757231196
 30
0.0
 11
-92.74037038311645
 21
-99.36477578048252
 31
0.0
  0
LINE
  5
9A5
330
1F
100
AcDbEntity
  8
VIEW0002
  6
Continuous
 62
     7
100
AcDbLine
 10
-94.21294010864334
 20
-99.36477481710182
 30
0.0
 11
-93.92133970203236
 21
-100.3853762876906
 31
0.0
  0
LINE
  5
9A6
330
1F
100
AcDbEntity
  8
VIEW0002
  6
Continuous
 62
     7
100
AcDbLine
 10
-92.74035868337035
 20
-84.2015728269912
 30
0.0
 11
-92.74035868337035
 21
-99.36477242971776
 31
0.0
  0
LINE
  5
9A7
330
1F
100
AcDbEntity
  8
VIEW0002
  6
Continuous
 62
     7
100
AcDbLine
 10
-93.03196374860688
 20
-83.1809725786953
 30
0.0
 11
-93.03196374860688
 21
-100.3853726780136
 31
0.0
  0
LINE
  5
9A8
330
1F
100
AcDbEntity
  8
VIEW0002
  6
Continuous
 62
     7
100
AcDbLine
 10
-93.92134934519644
 20
-83.1809725786953
 30
0.0
 11
-93.92134934519644
 21
-100.3853726780136
 31
0.0
  0
LINE
  5
9A9
330
1F
100
AcDbEntity
  8
VIEW0002
  6
Continuous
 62
     7
100
AcDbLine
 10
-94.21295282133915
 20
-84.2015728269912
 30
0.0
 11
-94.21295282133915
 21
-99.36477242971776
 31
0.0
  0
LINE
  5
9AA
330
1F
100
AcDbEntity
  8
VIEW0002
  6
Continuous
 62
     7
100
AcDbLine
 10
-94.92736727440856
 20
-84.20157282699117
 30
0.0
 11
-94.21294964315142
 21
-84.20157282699117
 31
0.0
  0
LINE
  5
9AB
330
1F
100
AcDbEntity
  8
VIEW0002
  6
Continuous
 62
     7
100
AcDbLine
 10
-94.92736727440856
 20
-99.36477242971776
 30
0.0
 11
-94.21294964315142
 21
-99.36477242971776
 31
0.0
  0
LINE
  5
9AC
330
1F
100
AcDbEntity
  8
VIEW0002
  6
Continuous
 62
     7
100
AcDbLine
 10
-93.03195982761607
 20
-83.18097950874447
 30
0.0
 11
-92.74036029412025
 21
-84.20157792342982
 31
0.0
  0
LINE
  5
9AD
330
1F
100
AcDbEntity
  8
VIEW0002
  6
Continuous
 62
     7
100
AcDbLine
 10
-93.92134775610257
 20
-100.3853710889198
 30
0.0
 11
-93.03196692679426
 21
-100.3853710889198
 31
0.0
  0
LINE
  5
9AE
330
1F
100
AcDbEntity
  8
VIEW0002
  6
Continuous
 62
     7
100
AcDbLine
 10
-93.92134775610257
 20
-83.18097416778902
 30
0.0
 11
-93.03196692679426
 21
-83.18097416778902
 31
0.0
  0
LINE
  5
9AF
330
1F
100
AcDbEntity
  8
VIEW0002
  6
Continuous
 62
     7
100
AcDbLine
 10
-96.39994319126225
 20
-84.20157574862601
 30
0.0
 11
-96.10834322120878
 21
-83.18097580598896
 31
0.0
  0
LINE
  5
9B0
330
1F
100
AcDbEntity
  8
VIEW0002
  6
Continuous
 62
     7
100
AcDbLine
 10
-95.21896673011434
 20
-100.3853757499782
 30
0.0
 11
-94.92736676006094
 21
-99.36477580734118
 31
0.0
  0
LINE
  5
9B1
330
1F
100
AcDbEntity
  8
VIEW0002
  6
Continuous
 62
     7
100
AcDbLine
 10
-96.39994761780744
 20
-99.36477631819503
 30
0.0
 11
-96.10834721119644
 21
-100.3853777887838
 31
0.0
  0
LINE
  5
9B2
330
1F
100
AcDbEntity
  8
VIEW0002
  6
Continuous
 62
     7
100
AcDbLine
 10
-94.92735773984595
 20
-84.2015728269912
 30
0.0
 11
-94.92735773984595
 21
-99.36477242971776
 31
0.0
  0
LINE
  5
9B3
330
1F
100
AcDbEntity
  8
VIEW0002
  6
Continuous
 62
     7
100
AcDbLine
 10
-95.21896280508244
 20
-83.1809725786953
 30
0.0
 11
-95.21896280508244
 21
-100.3853726780136
 31
0.0
  0
LINE
  5
9B4
330
1F
100
AcDbEntity
  8
VIEW0002
  6
Continuous
 62
     7
100
AcDbLine
 10
-96.10834522348444
 20
-83.1809725786953
 30
0.0
 11
-96.10834522348444
 21
-100.3853726780136
 31
0.0
  0
LINE
  5
9B5
330
1F
100
AcDbEntity
  8
VIEW0002
  6
Continuous
 62
     7
100
AcDbLine
 10
-96.39995187781465
 20
-84.2015728269912
 30
0.0
 11
-96.39995187781465
 21
-99.36477242971776
 31
0.0
  0
LINE
  5
9B6
330
1F
100
AcDbEntity
  8
VIEW0002
  6
Continuous
 62
     7
100
AcDbLine
 10
-97.11436394724344
 20
-84.20157282699117
 30
0.0
 11
-96.39994552143944
 21
-84.20157282699117
 31
0.0
  0
LINE
  5
9B7
330
1F
100
AcDbEntity
  8
VIEW0002
  6
Continuous
 62
     7
100
AcDbLine
 10
-97.11436394724344
 20
-99.36477242971776
 30
0.0
 11
-96.39994552143944
 21
-99.36477242971776
 31
0.0
  0
LINE
  5
9B8
330
1F
100
AcDbEntity
  8
VIEW0002
  6
Continuous
 62
     7
100
AcDbLine
 10
-95.21896629995575
 20
-83.18097885433401
 30
0.0
 11
-94.92736758500544
 21
-84.20157440410982
 31
0.0
  0
LINE
  5
9B9
330
1F
100
AcDbEntity
  8
VIEW0002
  6
Continuous
 62
     7
100
AcDbLine
 10
-96.10834681257808
 20
-100.3853710889198
 30
0.0
 11
-95.21896598326984
 21
-100.3853710889198
 31
0.0
  0
LINE
  5
9BA
330
1F
100
AcDbEntity
  8
VIEW0002
  6
Continuous
 62
     7
100
AcDbLine
 10
-96.10834681257808
 20
-83.18097416778902
 30
0.0
 11
-95.21896598326984
 21
-83.18097416778902
 31
0.0
  0
LINE
  5
9BB
330
1F
100
AcDbEntity
  8
VIEW0002
  6
Continuous
 62
     7
100
AcDbLine
 10
-98.58693356553956
 20
-84.20156922711999
 30
0.0
 11
-98.29533403204374
 21
-83.1809708124347
 31
0.0
  0
LINE
  5
9BC
330
1F
100
AcDbEntity
  8
VIEW0002
  6
Continuous
 62
     7
100
AcDbLine
 10
-97.40597314788457
 20
-100.3853762133944
 30
0.0
 11
-97.11437361438866
 21
-99.36477779870909
 31
0.0
  0
LINE
  5
9BD
330
1F
100
AcDbEntity
  8
VIEW0002
  6
Continuous
 62
     7
100
AcDbLine
 10
-98.58695425385645
 20
-99.36478087519155
 30
0.0
 11
-98.29535384724536
 21
-100.3853823457803
 31
0.0
  0
LINE
  5
9BE
330
1F
100
AcDbEntity
  8
VIEW0002
  6
Continuous
 62
     7
100
AcDbLine
 10
-97.11435759086846
 20
-84.2015728269912
 30
0.0
 11
-97.11435759086846
 21
-99.36477242971776
 31
0.0
  0
LINE
  5
9BF
330
1F
100
AcDbEntity
  8
VIEW0002
  6
Continuous
 62
     7
100
AcDbLine
 10
-97.40596265610486
 20
-83.1809725786953
 30
0.0
 11
-97.40596265610486
 21
-100.3853726780136
 31
0.0
  0
LINE
  5
9C0
330
1F
100
AcDbEntity
  8
VIEW0002
  6
Continuous
 62
     7
100
AcDbLine
 10
-98.29534666360075
 20
-83.1809725786953
 30
0.0
 11
-98.29534666360075
 21
-100.3853726780136
 31
0.0
  0
LINE
  5
9C1
330
1F
100
AcDbEntity
  8
VIEW0002
  6
Continuous
 62
     7
100
AcDbLine
 10
-98.58695172883717
 20
-84.2015728269912
 30
0.0
 11
-98.58695172883717
 21
-99.36477242971776
 31
0.0
  0
LINE
  5
9C2
330
1F
100
AcDbEntity
  8
VIEW0002
  6
Continuous
 62
     7
100
AcDbLine
 10
-99.30136379826585
 20
-84.20157282699117
 30
0.0
 11
-98.58694537246197
 21
-84.20157282699117
 31
0.0
  0
LINE
  5
9C3
330
1F
100
AcDbEntity
  8
VIEW0002
  6
Continuous
 62
     7
100
AcDbLine
 10
-99.30136379826585
 20
-99.36477242971776
 30
0.0
 11
-98.58694537246197
 21
-99.36477242971776
 31
0.0
  0
LINE
  5
9C4
330
1F
100
AcDbEntity
  8
VIEW0002
  6
Continuous
 62
     7
100
AcDbLine
 10
-97.40596114894859
 20
-83.18097839091798
 30
0.0
 11
-97.11436156088309
 21
-84.20157699659728
 31
0.0
  0
LINE
  5
9C5
330
1F
100
AcDbEntity
  8
VIEW0002
  6
Continuous
 62
     7
100
AcDbLine
 10
-98.29534666360068
 20
-100.3853710889198
 30
0.0
 11
-97.40596901247986
 21
-100.3853710889198
 31
0.0
  0
LINE
  5
9C6
330
1F
100
AcDbEntity
  8
VIEW0002
  6
Continuous
 62
     7
100
AcDbLine
 10
-98.29534666360068
 20
-83.18097416778902
 30
0.0
 11
-97.40596901247986
 21
-83.18097416778902
 31
0.0
  0
LINE
  5
9C7
330
1F
100
AcDbEntity
  8
VIEW0002
  6
CENTER
 62
     7
100
AcDbLine
 10
-135.642371538534
 20
-91.78317421744823
 30
0.0
 11
-154.5963734255829
 21
-91.78317421744823
 31
0.0
  0
LINE
  5
9CD
330
1F
100
AcDbEntity
  8
VIEW0002
  6
Continuous
 62
     7
100
AcDbLine
 10
-91.73433916506438
 20
-83.18097416778902
 30
0.0
 11
-90.84495833575592
 21
-83.18097416778902
 31
0.0
  0
LINE
  5
9CE
330
1F
100
AcDbEntity
  8
VIEW0002
  6
Continuous
 62
     7
100
AcDbLine
 10
-92.74035868337035
 20
-84.20157282699117
 30
0.0
 11
-92.02594105211323
 21
-84.20157282699117
 31
0.0
  0
LINE
  5
9CF
330
1F
100
AcDbEntity
  8
VIEW0002
  6
Continuous
 62
     7
100
AcDbLine
 10
-91.73433916506438
 20
-100.3853710889198
 30
0.0
 11
-90.84495833575592
 21
-100.3853710889198
 31
0.0
  0
LINE
  5
9D0
330
1F
100
AcDbEntity
  8
VIEW0002
  6
Continuous
 62
     7
100
AcDbLine
 10
-90.84495123657786
 20
-83.18097950874427
 30
0.0
 11
-90.55335170308209
 21
-84.20157792342962
 31
0.0
  0
LINE
  5
9D1
330
1F
100
AcDbEntity
  8
VIEW0002
  6
Continuous
 62
     7
100
AcDbLine
 10
-92.74035868337035
 20
-99.36477242971776
 30
0.0
 11
-92.02594105211323
 21
-99.36477242971776
 31
0.0
  0
LINE
  5
9D2
330
1F
100
AcDbEntity
  8
VIEW0002
  6
PHANTOM
 62
     7
100
AcDbLine
 10
-104.8563462166681
 20
-84.42027344773093
 30
0.0
 11
-99.59296886350237
 21
-84.42027344773093
 31
0.0
  0
LINE
  5
9D3
330
1F
100
AcDbEntity
  8
VIEW0002
  6
PHANTOM
 62
     7
100
AcDbLine
 10
-104.8563462166681
 20
-99.14607180897794
 30
0.0
 11
-99.59296886350237
 21
-99.14607180897794
 31
0.0
  0
LINE
  5
9D4
330
1F
100
AcDbEntity
  8
VIEW0002
  6
CENTER
 62
     7
100
AcDbLine
 10
-145.1193677147772
 20
-82.39074741222655
 30
0.0
 11
-145.1193677147772
 21
-101.2601719827851
 31
0.0
  0
LINE
  5
9D5
330
1F
100
AcDbEntity
  8
VIEW0002
  6
Continuous
 62
     7
100
AcDbLine
 10
-118.0619775541351
 20
-84.20155740991658
 30
0.0
 11
-117.8275208052634
 21
-83.38095875071443
 31
0.0
  0
LINE
  5
9D6
330
1F
100
AcDbEntity
  8
VIEW0002
  6
Continuous
 62
     7
100
AcDbLine
 10
-117.8275208052633
 20
-83.38095875071454
 30
0.0
 11
-117.2398670863769
 21
-83.38095875071454
 31
0.0
  0
LINE
  5
9D7
330
1F
100
AcDbEntity
  8
VIEW0002
  6
Continuous
 62
     7
100
AcDbLine
 10
-117.2398670863769
 20
-83.38095875071459
 30
0.0
 11
-117.0054103375053
 21
-84.20155740991674
 31
0.0
  0
LINE
  5
9D8
330
1F
100
AcDbEntity
  8
VIEW0002
  6
Continuous
 62
     7
100
AcDbLine
 10
-118.9844136538486
 20
-84.40155740991666
 30
0.0
 11
-108.7420654953218
 21
-84.40155740991666
 31
0.0
  0
LINE
  5
9D9
330
1F
100
AcDbEntity
  8
VIEW0002
  6
Continuous
 62
     7
100
AcDbLine
 10
-115.8749687351115
 20
-84.20156049333161
 30
0.0
 11
-115.6405119862399
 21
-83.38096183412949
 31
0.0
  0
LINE
  5
9DA
330
1F
100
AcDbEntity
  8
VIEW0002
  6
Continuous
 62
     7
100
AcDbLine
 10
-115.6405119862398
 20
-83.38096183412941
 30
0.0
 11
-115.0528582673533
 21
-83.38096183412941
 31
0.0
  0
LINE
  5
9DB
330
1F
100
AcDbEntity
  8
VIEW0002
  6
Continuous
 62
     7
100
AcDbLine
 10
-115.0528582673533
 20
-83.38096183412949
 30
0.0
 11
-114.8184015184817
 21
-84.20156049333163
 31
0.0
  0
LINE
  5
9DC
330
1F
100
AcDbEntity
  8
VIEW0002
  6
Continuous
 62
     7
100
AcDbLine
 10
-115.8749687351114
 20
-84.20156049333156
 30
0.0
 11
-114.8184015184817
 21
-84.20156049333156
 31
0.0
  0
LINE
  5
9DD
330
1F
100
AcDbEntity
  8
VIEW0002
  6
Continuous
 62
     7
100
AcDbLine
 10
-113.6879599160881
 20
-84.20156357674654
 30
0.0
 11
-113.4535031672165
 21
-83.38096491754438
 31
0.0
  0
LINE
  5
9DE
330
1F
100
AcDbEntity
  8
VIEW0002
  6
Continuous
 62
     7
100
AcDbLine
 10
-113.4535031672162
 20
-83.38096491754432
 30
0.0
 11
-112.8658494483297
 21
-83.38096491754432
 31
0.0
  0
LINE
  5
9DF
330
1F
100
AcDbEntity
  8
VIEW0002
  6
Continuous
 62
     7
100
AcDbLine
 10
-112.8658494483298
 20
-83.38096491754432
 30
0.0
 11
-112.6313926994582
 21
-84.20156357674645
 31
0.0
  0
LINE
  5
9E0
330
1F
100
AcDbEntity
  8
VIEW0002
  6
Continuous
 62
     7
100
AcDbLine
 10
-113.6879599160877
 20
-84.20156357674647
 30
0.0
 11
-112.6313926994581
 21
-84.20156357674647
 31
0.0
  0
LINE
  5
9E1
330
1F
100
AcDbEntity
  8
VIEW0002
  6
Continuous
 62
     7
100
AcDbLine
 10
-111.5009510970645
 20
-84.20156666016152
 30
0.0
 11
-111.2664943481928
 21
-83.38096800095939
 31
0.0
  0
LINE
  5
9E2
330
1F
100
AcDbEntity
  8
VIEW0002
  6
Continuous
 62
     7
100
AcDbLine
 10
-111.2664943481926
 20
-83.38096800095923
 30
0.0
 11
-110.6788406293062
 21
-83.38096800095923
 31
0.0
  0
LINE
  5
9E3
330
1F
100
AcDbEntity
  8
VIEW0002
  6
Continuous
 62
     7
100
AcDbLine
 10
-110.6788406293062
 20
-83.38096800095927
 30
0.0
 11
-110.4443838804347
 21
-84.2015666601614
 31
0.0
  0
LINE
  5
9E4
330
1F
100
AcDbEntity
  8
VIEW0002
  6
Continuous
 62
     7
100
AcDbLine
 10
-111.5009510970643
 20
-84.20156666016136
 30
0.0
 11
-110.4443838804347
 21
-84.20156666016136
 31
0.0
  0
LINE
  5
9E5
330
1F
100
AcDbEntity
  8
VIEW0002
  6
Continuous
 62
     7
100
AcDbLine
 10
-109.3139422780407
 20
-84.20156974357643
 30
0.0
 11
-109.0794855291691
 21
-83.38097108437432
 31
0.0
  0
LINE
  5
9E6
330
1F
100
AcDbEntity
  8
VIEW0002
  6
Continuous
 62
     7
100
AcDbLine
 10
-109.0794855291691
 20
-83.38097108437414
 30
0.0
 11
-108.8921828123657
 21
-83.38097108437414
 31
0.0
  0
LINE
  5
9E7
330
1F
100
AcDbEntity
  8
VIEW0002
  6
Continuous
 62
     7
100
AcDbLine
 10
-118.0619775541349
 20
-84.20155740991665
 30
0.0
 11
-117.0054103375053
 21
-84.20155740991665
 31
0.0
  0
LINE
  5
9E8
330
1F
100
AcDbEntity
  8
VIEW0002
  6
Continuous
 62
     7
100
AcDbLine
 10
-117.9783901628083
 20
-83.18095875071453
 30
0.0
 11
-117.0890125116876
 21
-83.18095875071453
 31
0.0
  0
LINE
  5
9E9
330
1F
100
AcDbEntity
  8
VIEW0002
  6
Continuous
 62
     7
100
AcDbLine
 10
-118.9844136538486
 20
-84.20155740991665
 30
0.0
 11
-118.2699888716695
 21
-84.20155740991665
 31
0.0
  0
LINE
  5
9EA
330
1F
100
AcDbEntity
  8
VIEW0002
  6
Continuous
 62
     7
100
AcDbLine
 10
-118.2699808490191
 20
-84.20155795563763
 30
0.0
 11
-117.9783808789657
 21
-83.18095801300058
 31
0.0
  0
LINE
  5
9EB
330
1F
100
AcDbEntity
  8
VIEW0002
  6
Continuous
 62
     7
100
AcDbLine
 10
-116.0829720299957
 20
-84.20156103905256
 30
0.0
 11
-115.7913720599422
 21
-83.18096109641553
 31
0.0
  0
LINE
  5
9EC
330
1F
100
AcDbEntity
  8
VIEW0002
  6
Continuous
 62
     7
100
AcDbLine
 10
-116.7974048348251
 20
-84.20156049333156
 30
0.0
 11
-116.0829800526461
 21
-84.20156049333156
 31
0.0
  0
LINE
  5
9ED
330
1F
100
AcDbEntity
  8
VIEW0002
  6
Continuous
 62
     7
100
AcDbLine
 10
-115.7913813437846
 20
-83.18096183412944
 30
0.0
 11
-114.9020036926641
 21
-83.18096183412944
 31
0.0
  0
LINE
  5
9EE
330
1F
100
AcDbEntity
  8
VIEW0002
  6
Continuous
 62
     7
100
AcDbLine
 10
-117.0890062358113
 20
-83.18096073202241
 30
0.0
 11
-116.7974075754308
 21
-84.20155609080428
 31
0.0
  0
LINE
  5
9EF
330
1F
100
AcDbEntity
  8
VIEW0002
  6
Continuous
 62
     7
100
AcDbLine
 10
-109.3139422780407
 20
-84.20156974357627
 30
0.0
 11
-108.7675476390238
 21
-84.20156974357627
 31
0.0
  0
LINE
  5
9F0
330
1F
100
AcDbEntity
  8
VIEW0002
  6
Continuous
 62
     7
100
AcDbLine
 10
-112.8658315197447
 20
-100.1853710889198
 30
0.0
 11
-112.6313747708731
 21
-99.36477242971776
 31
0.0
  0
LINE
  5
9F1
330
1F
100
AcDbEntity
  8
VIEW0002
  6
Continuous
 62
     7
100
AcDbLine
 10
-113.6879415106257
 20
-99.36477242971776
 30
0.0
 11
-112.631374770873
 21
-99.36477242971776
 31
0.0
  0
LINE
  5
9F2
330
1F
100
AcDbEntity
  8
VIEW0002
  6
Continuous
 62
     7
100
AcDbLine
 10
-113.453484761754
 20
-100.1853710889198
 30
0.0
 11
-112.8658315197447
 21
-100.1853710889198
 31
0.0
  0
LINE
  5
9F3
330
1F
100
AcDbEntity
  8
VIEW0002
  6
Continuous
 62
     7
100
AcDbLine
 10
-113.6879415106259
 20
-99.36477242971779
 30
0.0
 11
-113.4534847617543
 21
-100.1853710889198
 31
0.0
  0
LINE
  5
9F4
330
1F
100
AcDbEntity
  8
VIEW0002
  6
Continuous
 62
     7
100
AcDbLine
 10
-115.8749413616481
 20
-99.36477242971776
 30
0.0
 11
-115.6404846127765
 21
-100.1853710889198
 31
0.0
  0
LINE
  5
9F5
330
1F
100
AcDbEntity
  8
VIEW0002
  6
Continuous
 62
     7
100
AcDbLine
 10
-114.9019974167877
 20
-83.18096381543734
 30
0.0
 11
-114.6103987564071
 21
-84.20155917421922
 31
0.0
  0
LINE
  5
9F6
330
1F
100
AcDbEntity
  8
VIEW0002
  6
Continuous
 62
     7
100
AcDbLine
 10
-113.6043725247611
 20
-83.18096491754435
 30
0.0
 11
-112.7149948736404
 21
-83.18096491754435
 31
0.0
  0
LINE
  5
9F7
330
1F
100
AcDbEntity
  8
VIEW0002
  6
Continuous
 62
     7
100
AcDbLine
 10
-118.9843688138432
 20
-99.36477242971776
 30
0.0
 11
-118.269944031664
 21
-99.36477242971776
 31
0.0
  0
LINE
  5
9F8
330
1F
100
AcDbEntity
  8
VIEW0002
  6
Continuous
 62
     7
100
AcDbLine
 10
-114.6103960158015
 20
-84.20156357674647
 30
0.0
 11
-113.8959712336226
 21
-84.20156357674647
 31
0.0
  0
LINE
  5
9F9
330
1F
100
AcDbEntity
  8
VIEW0002
  6
Continuous
 62
     7
100
AcDbLine
 10
-113.8959632109721
 20
-84.20156412246752
 30
0.0
 11
-113.6043632409186
 21
-83.18096417983051
 31
0.0
  0
LINE
  5
9FA
330
1F
100
AcDbEntity
  8
VIEW0002
  6
Continuous
 62
     7
100
AcDbLine
 10
-111.7089543919485
 20
-84.20156720588243
 30
0.0
 11
-111.4173544218951
 21
-83.18096726324537
 31
0.0
  0
LINE
  5
9FB
330
1F
100
AcDbEntity
  8
VIEW0002
  6
Continuous
 62
     7
100
AcDbLine
 10
-115.6404846127765
 20
-100.1853710889198
 30
0.0
 11
-115.052831370767
 21
-100.1853710889198
 31
0.0
  0
LINE
  5
9FC
330
1F
100
AcDbEntity
  8
VIEW0002
  6
Continuous
 62
     7
100
AcDbLine
 10
-115.8749413616481
 20
-99.36477242971776
 30
0.0
 11
-114.8183746218956
 21
-99.36477242971776
 31
0.0
  0
LINE
  5
9FD
330
1F
100
AcDbEntity
  8
VIEW0002
  6
Continuous
 62
     7
100
AcDbLine
 10
-115.0528313707672
 20
-100.1853710889198
 30
0.0
 11
-114.8183746218956
 21
-99.36477242971779
 31
0.0
  0
LINE
  5
9FE
330
1F
100
AcDbEntity
  8
VIEW0002
  6
Continuous
 62
     7
100
AcDbLine
 10
-112.423387196778
 20
-84.20156666016136
 30
0.0
 11
-111.7089624145988
 21
-84.20156666016136
 31
0.0
  0
LINE
  5
9FF
330
1F
100
AcDbEntity
  8
VIEW0002
  6
Continuous
 62
     7
100
AcDbLine
 10
-117.9783453228028
 20
-100.3853710889198
 30
0.0
 11
-117.088967671682
 21
-100.3853710889198
 31
0.0
  0
LINE
  5
A00
330
1F
100
AcDbEntity
  8
VIEW0002
  6
Continuous
 62
     7
100
AcDbLine
 10
-111.4173637057375
 20
-83.18096800095926
 30
0.0
 11
-110.5279860546168
 21
-83.18096800095926
 31
0.0
  0
LINE
  5
A01
330
1F
100
AcDbEntity
  8
VIEW0002
  6
Continuous
 62
     7
100
AcDbLine
 10
-112.7149885977641
 20
-83.18096689885235
 30
0.0
 11
-112.4233899373836
 21
-84.20156225763426
 31
0.0
  0
LINE
  5
A02
330
1F
100
AcDbEntity
  8
VIEW0002
  6
Continuous
 62
     7
100
AcDbLine
 10
-118.2699438556465
 20
-99.36477416567592
 30
0.0
 11
-117.9783443221507
 21
-100.3853725803612
 31
0.0
  0
LINE
  5
A03
330
1F
100
AcDbEntity
  8
VIEW0002
  6
Continuous
 62
     7
100
AcDbLine
 10
-117.0889716991061
 20
-100.3853737551999
 30
0.0
 11
-116.7973721656103
 21
-99.36477534051466
 31
0.0
  0
LINE
  5
A04
330
1F
100
AcDbEntity
  8
VIEW0002
  6
Continuous
 62
     7
100
AcDbLine
 10
-116.7973689628208
 20
-99.36477242971776
 30
0.0
 11
-116.0829441806416
 21
-99.36477242971776
 31
0.0
  0
LINE
  5
A05
330
1F
100
AcDbEntity
  8
VIEW0002
  6
Continuous
 62
     7
100
AcDbLine
 10
-114.6103691117982
 20
-99.36477242971776
 30
0.0
 11
-113.8959443296192
 21
-99.36477242971776
 31
0.0
  0
LINE
  5
A06
330
1F
100
AcDbEntity
  8
VIEW0002
  6
Continuous
 62
     7
100
AcDbLine
 10
-110.5279797787404
 20
-83.18096998226732
 30
0.0
 11
-110.2363811183599
 21
-84.20156534104913
 31
0.0
  0
LINE
  5
A07
330
1F
100
AcDbEntity
  8
VIEW0002
  6
Continuous
 62
     7
100
AcDbLine
 10
-109.2303548867141
 20
-83.18097108437413
 30
0.0
 11
-108.3409772355933
 21
-83.18097108437413
 31
0.0
  0
LINE
  5
A08
330
1F
100
AcDbEntity
  8
VIEW0002
  6
Continuous
 62
     7
100
AcDbLine
 10
-114.9019718480837
 20
-100.3853737551998
 30
0.0
 11
-114.6103723145878
 21
-99.3647753405145
 31
0.0
  0
LINE
  5
A09
330
1F
100
AcDbEntity
  8
VIEW0002
  6
Continuous
 62
     7
100
AcDbLine
 10
-116.0829440046239
 20
-99.36477416567589
 30
0.0
 11
-115.7913444711281
 21
-100.3853725803611
 31
0.0
  0
LINE
  5
A0A
330
1F
100
AcDbEntity
  8
VIEW0002
  6
Continuous
 62
     7
100
AcDbLine
 10
-110.2363783777543
 20
-84.20156974357627
 30
0.0
 11
-109.5219535955753
 21
-84.20156974357627
 31
0.0
  0
LINE
  5
A0B
330
1F
100
AcDbEntity
  8
VIEW0002
  6
Continuous
 62
     7
100
AcDbLine
 10
-115.7913454717802
 20
-100.3853710889198
 30
0.0
 11
-114.9019678206596
 21
-100.3853710889198
 31
0.0
  0
LINE
  5
A0C
330
1F
100
AcDbEntity
  8
VIEW0002
  6
Continuous
 62
     7
100
AcDbLine
 10
-109.5219455729249
 20
-84.20157028929727
 30
0.0
 11
-109.2303456028716
 21
-83.18097034666024
 31
0.0
  0
LINE
  5
A0D
330
1F
100
AcDbEntity
  8
VIEW0002
  6
Continuous
 62
     7
100
AcDbLine
 10
-113.6043456207578
 20
-100.3853710889198
 30
0.0
 11
-112.7149679696372
 21
-100.3853710889198
 31
0.0
  0
LINE
  5
A0E
330
1F
100
AcDbEntity
  8
VIEW0002
  6
Continuous
 62
     7
100
AcDbLine
 10
-118.0619412126706
 20
-99.36477242971776
 30
0.0
 11
-117.0053744729181
 21
-99.36477242971776
 31
0.0
  0
LINE
  5
A0F
330
1F
100
AcDbEntity
  8
VIEW0002
  6
Continuous
 62
     7
100
AcDbLine
 10
-113.8959441536016
 20
-99.36477416567587
 30
0.0
 11
-113.6043446201058
 21
-100.3853725803612
 31
0.0
  0
LINE
  5
A10
330
1F
100
AcDbEntity
  8
VIEW0002
  6
Continuous
 62
     7
100
AcDbLine
 10
-112.7149719970613
 20
-100.3853737551999
 30
0.0
 11
-112.4233724635656
 21
-99.36477534051464
 31
0.0
  0
LINE
  5
A11
330
1F
100
AcDbEntity
  8
VIEW0002
  6
Continuous
 62
     7
100
AcDbLine
 10
-112.4233692607758
 20
-99.36477242971776
 30
0.0
 11
-111.7089444785966
 21
-99.36477242971776
 31
0.0
  0
LINE
  5
A12
330
1F
100
AcDbEntity
  8
VIEW0002
  6
Continuous
 62
     7
100
AcDbLine
 10
-117.2398312217897
 20
-100.1853710889197
 30
0.0
 11
-117.0053744729181
 21
-99.36477242971763
 31
0.0
  0
LINE
  5
A13
330
1F
100
AcDbEntity
  8
VIEW0002
  6
Continuous
 62
     7
100
AcDbLine
 10
-117.8274844637989
 20
-100.1853710889198
 30
0.0
 11
-117.2398312217896
 21
-100.1853710889198
 31
0.0
  0
LINE
  5
A14
330
1F
100
AcDbEntity
  8
VIEW0002
  6
Continuous
 62
     7
100
AcDbLine
 10
-118.0619412126705
 20
-99.3647724297177
 30
0.0
 11
-117.8274844637991
 21
-100.1853710889197
 31
0.0
  0
LINE
  5
A15
330
1F
100
AcDbEntity
  8
VIEW0002
  6
Continuous
 62
     7
100
AcDbLine
 10
-118.9843592792806
 20
-84.2015728269912
 30
0.0
 11
-118.9843592792806
 21
-99.36477242971776
 31
0.0
  0
LINE
  5
A16
330
1F
100
AcDbEntity
  8
VIEW0002
  6
Continuous
 62
     7
100
AcDbLine
 10
-118.9843688138432
 20
-99.16477242971772
 30
0.0
 11
-111.6450850181584
 21
-99.16477242971772
 31
0.0
  0
LINE
  5
A28
330
1F
100
AcDbEntity
  8
VIEW0002
  6
Continuous
 62
     7
100
AcDbLine
 10
-77.28129854610244
 20
-95.03964673670813
 30
0.0
 11
-77.28129854610244
 21
-94.12068520377031
 31
0.0
  0
LINE
  5
A2A
330
1F
100
AcDbEntity
  8
VIEW0002
  6
Continuous
 62
     7
100
AcDbLine
 10
-79.46830713714075
 20
-95.03964673670807
 30
0.0
 11
-79.46830713714075
 21
-94.1206852037703
 31
0.0
  0
LINE
  5
A2C
330
1F
100
AcDbEntity
  8
VIEW0002
  6
Continuous
 62
     7
100
AcDbLine
 10
-77.28129854610244
 20
-88.52669852000071
 30
0.0
 11
-77.28129854610244
 21
-89.44566005293852
 31
0.0
  0
LINE
  5
A2D
330
1F
100
AcDbEntity
  8
VIEW0002
  6
Continuous
 62
     7
100
AcDbLine
 10
-76.86688409303295
 20
-88.52669852000071
 30
0.0
 11
-76.86688409303295
 21
-89.44566005293852
 31
0.0
  0
LINE
  5
A2E
330
1F
100
AcDbEntity
  8
VIEW0002
  6
Continuous
 62
     7
100
AcDbLine
 10
-76.86688409303295
 20
-95.03964673670813
 30
0.0
 11
-76.86688409303295
 21
-94.12068520377031
 31
0.0
  0
LINE
  5
A2F
330
1F
100
AcDbEntity
  8
VIEW0002
  6
Continuous
 62
     7
100
AcDbLine
 10
-79.46830713714075
 20
-88.52669852000067
 30
0.0
 11
-79.46830713714075
 21
-89.44566005293848
 31
0.0
  0
LINE
  5
A30
330
1F
100
AcDbEntity
  8
VIEW0002
  6
Continuous
 62
     7
100
AcDbLine
 10
-79.05389268407126
 20
-88.52669852000067
 30
0.0
 11
-79.05389268407126
 21
-89.44566005293848
 31
0.0
  0
LINE
  5
A31
330
1F
100
AcDbEntity
  8
VIEW0002
  6
Continuous
 62
     7
100
AcDbLine
 10
-79.05389268407126
 20
-95.03964673670807
 30
0.0
 11
-79.05389268407126
 21
-94.1206852037703
 31
0.0
  0
LINE
  5
A32
330
1F
100
AcDbEntity
  8
VIEW0002
  6
Continuous
 62
     7
100
AcDbLine
 10
-81.6553157281791
 20
-95.03964673670807
 30
0.0
 11
-81.6553157281791
 21
-94.1206852037703
 31
0.0
  0
LINE
  5
A33
330
1F
100
AcDbEntity
  8
VIEW0002
  6
Continuous
 62
     7
100
AcDbLine
 10
-81.6553157281791
 20
-88.52669852000067
 30
0.0
 11
-81.6553157281791
 21
-89.44566005293848
 31
0.0
  0
LINE
  5
A34
330
1F
100
AcDbEntity
  8
VIEW0002
  6
Continuous
 62
     7
100
AcDbLine
 10
-81.24090127510944
 20
-88.52669852000067
 30
0.0
 11
-81.24090127510944
 21
-89.44566005293848
 31
0.0
  0
LINE
  5
A35
330
1F
100
AcDbEntity
  8
VIEW0002
  6
Continuous
 62
     7
100
AcDbLine
 10
-81.24090127510944
 20
-95.03964673670807
 30
0.0
 11
-81.24090127510944
 21
-94.1206852037703
 31
0.0
  0
LINE
  5
A36
330
1F
100
AcDbEntity
  8
VIEW0002
  6
Continuous
 62
     7
100
AcDbLine
 10
-83.84232431921725
 20
-95.03964673670807
 30
0.0
 11
-83.84232431921725
 21
-94.1206852037703
 31
0.0
  0
LINE
  5
A37
330
1F
100
AcDbEntity
  8
VIEW0002
  6
Continuous
 62
     7
100
AcDbLine
 10
-83.84232431921725
 20
-88.52669852000067
 30
0.0
 11
-83.84232431921725
 21
-89.44566005293848
 31
0.0
  0
LINE
  5
A38
330
1F
100
AcDbEntity
  8
VIEW0002
  6
Continuous
 62
     7
100
AcDbLine
 10
-83.42790986614776
 20
-88.52669852000067
 30
0.0
 11
-83.42790986614776
 21
-89.44566005293848
 31
0.0
  0
LINE
  5
A39
330
1F
100
AcDbEntity
  8
VIEW0002
  6
Continuous
 62
     7
100
AcDbLine
 10
-83.42790986614776
 20
-95.03964673670807
 30
0.0
 11
-83.42790986614776
 21
-94.1206852037703
 31
0.0
  0
LINE
  5
A3A
330
1F
100
AcDbEntity
  8
VIEW0002
  6
Continuous
 62
     7
100
AcDbLine
 10
-86.02933291025545
 20
-95.03964673670807
 30
0.0
 11
-86.02933291025545
 21
-94.1206852037703
 31
0.0
  0
LINE
  5
A3B
330
1F
100
AcDbEntity
  8
VIEW0002
  6
Continuous
 62
     7
100
AcDbLine
 10
-86.02933291025545
 20
-88.52669852000067
 30
0.0
 11
-86.02933291025545
 21
-89.44566005293848
 31
0.0
  0
LINE
  5
A3C
330
1F
100
AcDbEntity
  8
VIEW0002
  6
Continuous
 62
     7
100
AcDbLine
 10
-85.61491845718595
 20
-88.52669852000067
 30
0.0
 11
-85.61491845718595
 21
-89.44566005293848
 31
0.0
  0
LINE
  5
A3D
330
1F
100
AcDbEntity
  8
VIEW0002
  6
Continuous
 62
     7
100
AcDbLine
 10
-85.61491845718595
 20
-95.03964673670807
 30
0.0
 11
-85.61491845718595
 21
-94.1206852037703
 31
0.0
  0
LINE
  5
A3E
330
1F
100
AcDbEntity
  8
VIEW0002
  6
Continuous
 62
     7
100
AcDbLine
 10
-88.21634150129375
 20
-95.03964673670807
 30
0.0
 11
-88.21634150129375
 21
-94.1206852037703
 31
0.0
  0
LINE
  5
A3F
330
1F
100
AcDbEntity
  8
VIEW0002
  6
Continuous
 62
     7
100
AcDbLine
 10
-88.21634150129375
 20
-88.52669852000067
 30
0.0
 11
-88.21634150129375
 21
-89.44566005293848
 31
0.0
  0
LINE
  5
A40
330
1F
100
AcDbEntity
  8
VIEW0002
  6
Continuous
 62
     7
100
AcDbLine
 10
-87.80192704822425
 20
-88.52669852000067
 30
0.0
 11
-87.80192704822425
 21
-89.44566005293848
 31
0.0
  0
LINE
  5
A41
330
1F
100
AcDbEntity
  8
VIEW0002
  6
Continuous
 62
     7
100
AcDbLine
 10
-87.80192704822425
 20
-95.03964673670807
 30
0.0
 11
-87.80192704822425
 21
-94.1206852037703
 31
0.0
  0
LINE
  5
A42
330
1F
100
AcDbEntity
  8
VIEW0002
  6
Continuous
 62
     7
100
AcDbLine
 10
-90.40335009233206
 20
-95.03964673670807
 30
0.0
 11
-90.40335009233206
 21
-94.1206852037703
 31
0.0
  0
LINE
  5
A43
330
1F
100
AcDbEntity
  8
VIEW0002
  6
Continuous
 62
     7
100
AcDbLine
 10
-90.40335009233206
 20
-88.52669852000067
 30
0.0
 11
-90.40335009233206
 21
-89.44566005293848
 31
0.0
  0
LINE
  5
A44
330
1F
100
AcDbEntity
  8
VIEW0002
  6
Continuous
 62
     7
100
AcDbLine
 10
-89.98893563926257
 20
-88.52669852000067
 30
0.0
 11
-89.98893563926257
 21
-89.44566005293848
 31
0.0
  0
LINE
  5
A45
330
1F
100
AcDbEntity
  8
VIEW0002
  6
Continuous
 62
     7
100
AcDbLine
 10
-89.98893563926257
 20
-95.03964673670807
 30
0.0
 11
-89.98893563926257
 21
-94.1206852037703
 31
0.0
  0
LINE
  5
A46
330
1F
100
AcDbEntity
  8
VIEW0002
  6
Continuous
 62
     7
100
AcDbLine
 10
-92.59035868337026
 20
-95.03964673670807
 30
0.0
 11
-92.59035868337026
 21
-94.1206852037703
 31
0.0
  0
LINE
  5
A47
330
1F
100
AcDbEntity
  8
VIEW0002
  6
Continuous
 62
     7
100
AcDbLine
 10
-92.59035868337026
 20
-88.52669852000067
 30
0.0
 11
-92.59035868337026
 21
-89.44566005293848
 31
0.0
  0
LINE
  5
A48
330
1F
100
AcDbEntity
  8
VIEW0002
  6
Continuous
 62
     7
100
AcDbLine
 10
-92.17594423030076
 20
-88.52669852000067
 30
0.0
 11
-92.17594423030076
 21
-89.44566005293848
 31
0.0
  0
LINE
  5
A49
330
1F
100
AcDbEntity
  8
VIEW0002
  6
Continuous
 62
     7
100
AcDbLine
 10
-92.17594423030076
 20
-95.03964673670807
 30
0.0
 11
-92.17594423030076
 21
-94.1206852037703
 31
0.0
  0
LINE
  5
A4A
330
1F
100
AcDbEntity
  8
VIEW0002
  6
Continuous
 62
     7
100
AcDbLine
 10
-94.77736727440845
 20
-95.03964673670807
 30
0.0
 11
-94.77736727440845
 21
-94.1206852037703
 31
0.0
  0
LINE
  5
A4B
330
1F
100
AcDbEntity
  8
VIEW0002
  6
Continuous
 62
     7
100
AcDbLine
 10
-94.77736727440845
 20
-88.52669852000067
 30
0.0
 11
-94.77736727440845
 21
-89.44566005293848
 31
0.0
  0
LINE
  5
A4C
330
1F
100
AcDbEntity
  8
VIEW0002
  6
Continuous
 62
     7
100
AcDbLine
 10
-94.36295282133896
 20
-88.52669852000067
 30
0.0
 11
-94.36295282133896
 21
-89.44566005293848
 31
0.0
  0
LINE
  5
A4D
330
1F
100
AcDbEntity
  8
VIEW0002
  6
Continuous
 62
     7
100
AcDbLine
 10
-94.36295282133896
 20
-95.03964673670807
 30
0.0
 11
-94.36295282133896
 21
-94.1206852037703
 31
0.0
  0
LINE
  5
A4E
330
1F
100
AcDbEntity
  8
VIEW0002
  6
Continuous
 62
     7
100
AcDbLine
 10
-96.96437586544675
 20
-95.03964673670807
 30
0.0
 11
-96.96437586544675
 21
-94.1206852037703
 31
0.0
  0
LINE
  5
A4F
330
1F
100
AcDbEntity
  8
VIEW0002
  6
Continuous
 62
     7
100
AcDbLine
 10
-96.96437586544675
 20
-88.52669852000067
 30
0.0
 11
-96.96437586544675
 21
-89.44566005293848
 31
0.0
  0
LINE
  5
A50
330
1F
100
AcDbEntity
  8
VIEW0002
  6
Continuous
 62
     7
100
AcDbLine
 10
-96.54996141237726
 20
-88.52669852000067
 30
0.0
 11
-96.54996141237726
 21
-89.44566005293848
 31
0.0
  0
LINE
  5
A51
330
1F
100
AcDbEntity
  8
VIEW0002
  6
Continuous
 62
     7
100
AcDbLine
 10
-96.54996141237726
 20
-95.03964673670807
 30
0.0
 11
-96.54996141237726
 21
-94.1206852037703
 31
0.0
  0
LINE
  5
A52
330
1F
100
AcDbEntity
  8
VIEW0002
  6
Continuous
 62
     7
100
AcDbLine
 10
-99.15138445648494
 20
-95.03964673670807
 30
0.0
 11
-99.15138445648494
 21
-94.1206852037703
 31
0.0
  0
LINE
  5
A53
330
1F
100
AcDbEntity
  8
VIEW0002
  6
Continuous
 62
     7
100
AcDbLine
 10
-99.15138445648494
 20
-88.52669852000067
 30
0.0
 11
-99.15138445648494
 21
-89.44566005293848
 31
0.0
  0
LINE
  5
A54
330
1F
100
AcDbEntity
  8
VIEW0002
  6
Continuous
 62
     7
100
AcDbLine
 10
-98.73697000341545
 20
-88.52669852000067
 30
0.0
 11
-98.73697000341545
 21
-89.44566005293848
 31
0.0
  0
LINE
  5
A55
330
1F
100
AcDbEntity
  8
VIEW0002
  6
Continuous
 62
     7
100
AcDbLine
 10
-98.73697000341545
 20
-95.03964673670807
 30
0.0
 11
-98.73697000341545
 21
-94.1206852037703
 31
0.0
  0
LINE
  5
A56
330
1F
100
AcDbEntity
  8
VIEW0002
  6
DASHED
 62
     7
100
AcDbLine
 10
-147.2496746527525
 20
-84.73518951298265
 30
0.0
 11
-147.1655558445902
 21
-84.93827028049876
 31
0.0
  0
LINE
  5
A57
330
1F
100
AcDbEntity
  8
VIEW0002
  6
DASHED
 62
     7
100
AcDbLine
 10
-142.9890607768029
 20
-84.73518951298247
 30
0.0
 11
-143.0731795849652
 21
-84.93827028049862
 31
0.0
  0
LINE
  5
A58
330
1F
100
AcDbEntity
  8
VIEW0002
  6
DASHED
 62
     7
100
AcDbLine
 10
-141.6420444184012
 20
-85.29314195737072
 30
0.0
 11
-141.7261632265637
 21
-85.49622272488692
 31
0.0
  0
LINE
  5
A5A
330
1F
100
AcDbEntity
  8
VIEW0002
  6
DASHED
 62
     7
100
AcDbLine
 10
-151.6093999748549
 20
-88.3058509210722
 30
0.0
 11
-151.4063192073388
 21
-88.38996972923451
 31
0.0
  0
LINE
  5
A5D
330
1F
100
AcDbEntity
  8
VIEW0002
  6
Continuous
 62
     7
100
AcDbLine
 10
-105.7124102295997
 20
-95.03964673670807
 30
0.0
 11
-105.7124102295997
 21
-94.1206852037703
 31
0.0
  0
LINE
  5
A5E
330
1F
100
AcDbEntity
  8
VIEW0002
  6
Continuous
 62
     7
100
AcDbLine
 10
-105.7124102295997
 20
-88.52669852000067
 30
0.0
 11
-105.7124102295997
 21
-89.44566005293848
 31
0.0
  0
LINE
  5
A5F
330
1F
100
AcDbEntity
  8
VIEW0002
  6
Continuous
 62
     7
100
AcDbLine
 10
-105.2979957765302
 20
-88.52669852000067
 30
0.0
 11
-105.2979957765302
 21
-89.44566005293848
 31
0.0
  0
LINE
  5
A60
330
1F
100
AcDbEntity
  8
VIEW0002
  6
Continuous
 62
     7
100
AcDbLine
 10
-105.2979957765302
 20
-95.03964673670807
 30
0.0
 11
-105.2979957765302
 21
-94.1206852037703
 31
0.0
  0
LINE
  5
A61
330
1F
100
AcDbEntity
  8
VIEW0002
  6
Continuous
 62
     7
100
AcDbLine
 10
-107.899418820638
 20
-95.03964673670807
 30
0.0
 11
-107.899418820638
 21
-94.1206852037703
 31
0.0
  0
LINE
  5
A62
330
1F
100
AcDbEntity
  8
VIEW0002
  6
Continuous
 62
     7
100
AcDbLine
 10
-107.899418820638
 20
-88.52669852000067
 30
0.0
 11
-107.899418820638
 21
-89.44566005293848
 31
0.0
  0
LINE
  5
A63
330
1F
100
AcDbEntity
  8
VIEW0002
  6
Continuous
 62
     7
100
AcDbLine
 10
-107.4850043675685
 20
-88.52669852000067
 30
0.0
 11
-107.4850043675685
 21
-89.44566005293848
 31
0.0
  0
LINE
  5
A64
330
1F
100
AcDbEntity
  8
VIEW0002
  6
Continuous
 62
     7
100
AcDbLine
 10
-107.4850043675685
 20
-95.03964673670807
 30
0.0
 11
-107.4850043675685
 21
-94.1206852037703
 31
0.0
  0
LINE
  5
A65
330
1F
100
AcDbEntity
  8
VIEW0002
  6
Continuous
 62
     7
100
AcDbLine
 10
-110.0864274116762
 20
-95.03964673670807
 30
0.0
 11
-110.0864274116762
 21
-94.1206852037703
 31
0.0
  0
LINE
  5
A66
330
1F
100
AcDbEntity
  8
VIEW0002
  6
Continuous
 62
     7
100
AcDbLine
 10
-110.0864274116762
 20
-88.52669852000067
 30
0.0
 11
-110.0864274116762
 21
-89.44566005293848
 31
0.0
  0
LINE
  5
A67
330
1F
100
AcDbEntity
  8
VIEW0002
  6
Continuous
 62
     7
100
AcDbLine
 10
-109.6720129586067
 20
-88.52669852000067
 30
0.0
 11
-109.6720129586067
 21
-89.44566005293848
 31
0.0
  0
LINE
  5
A68
330
1F
100
AcDbEntity
  8
VIEW0002
  6
Continuous
 62
     7
100
AcDbLine
 10
-109.6720129586067
 20
-95.03964673670807
 30
0.0
 11
-109.6720129586067
 21
-94.1206852037703
 31
0.0
  0
LINE
  5
A69
330
1F
100
AcDbEntity
  8
VIEW0002
  6
Continuous
 62
     7
100
AcDbLine
 10
-112.2734360027144
 20
-95.03964673670807
 30
0.0
 11
-112.2734360027144
 21
-94.1206852037703
 31
0.0
  0
LINE
  5
A6A
330
1F
100
AcDbEntity
  8
VIEW0002
  6
Continuous
 62
     7
100
AcDbLine
 10
-112.2734360027144
 20
-88.52669852000067
 30
0.0
 11
-112.2734360027144
 21
-89.44566005293848
 31
0.0
  0
LINE
  5
A6B
330
1F
100
AcDbEntity
  8
VIEW0002
  6
Continuous
 62
     7
100
AcDbLine
 10
-111.8590215496449
 20
-88.52669852000067
 30
0.0
 11
-111.8590215496449
 21
-89.44566005293848
 31
0.0
  0
LINE
  5
A6C
330
1F
100
AcDbEntity
  8
VIEW0002
  6
Continuous
 62
     7
100
AcDbLine
 10
-111.8590215496449
 20
-95.03964673670807
 30
0.0
 11
-111.8590215496449
 21
-94.1206852037703
 31
0.0
  0
LINE
  5
A6D
330
1F
100
AcDbEntity
  8
VIEW0002
  6
Continuous
 62
     7
100
AcDbLine
 10
-114.4604445937527
 20
-95.03964673670807
 30
0.0
 11
-114.4604445937527
 21
-94.1206852037703
 31
0.0
  0
LINE
  5
A6E
330
1F
100
AcDbEntity
  8
VIEW0002
  6
Continuous
 62
     7
100
AcDbLine
 10
-114.4604445937527
 20
-88.52669852000067
 30
0.0
 11
-114.4604445937527
 21
-89.44566005293848
 31
0.0
  0
LINE
  5
A6F
330
1F
100
AcDbEntity
  8
VIEW0002
  6
Continuous
 62
     7
100
AcDbLine
 10
-114.0460301406833
 20
-88.52669852000067
 30
0.0
 11
-114.0460301406833
 21
-89.44566005293848
 31
0.0
  0
LINE
  5
A70
330
1F
100
AcDbEntity
  8
VIEW0002
  6
Continuous
 62
     7
100
AcDbLine
 10
-114.0460301406833
 20
-95.03964673670807
 30
0.0
 11
-114.0460301406833
 21
-94.1206852037703
 31
0.0
  0
LINE
  5
A71
330
1F
100
AcDbEntity
  8
VIEW0002
  6
Continuous
 62
     7
100
AcDbLine
 10
-116.647453184791
 20
-95.03964673670807
 30
0.0
 11
-116.647453184791
 21
-94.1206852037703
 31
0.0
  0
LINE
  5
A72
330
1F
100
AcDbEntity
  8
VIEW0002
  6
Continuous
 62
     7
100
AcDbLine
 10
-116.647453184791
 20
-88.52669852000067
 30
0.0
 11
-116.647453184791
 21
-89.44566005293848
 31
0.0
  0
LINE
  5
A73
330
1F
100
AcDbEntity
  8
VIEW0002
  6
Continuous
 62
     7
100
AcDbLine
 10
-116.2330387317215
 20
-88.52669852000067
 30
0.0
 11
-116.2330387317215
 21
-89.44566005293848
 31
0.0
  0
LINE
  5
A74
330
1F
100
AcDbEntity
  8
VIEW0002
  6
Continuous
 62
     7
100
AcDbLine
 10
-116.2330387317215
 20
-95.03964673670807
 30
0.0
 11
-116.2330387317215
 21
-94.1206852037703
 31
0.0
  0
LINE
  5
A89
330
1F
100
AcDbEntity
  8
VIEW0002
  6
CENTER
 62
     7
100
AcDbLine
 10
-145.1193677147772
 20
-91.78317421744825
 30
0.0
 11
-138.3169351277894
 21
-94.60083405210729
 31
0.0
  0
LINE
  5
A8A
330
1F
100
AcDbEntity
  8
VIEW0002
  6
CENTER
 62
     7
100
AcDbLine
 10
-145.1193677147777
 20
-91.78317421744855
 30
0.0
 11
-142.3017078801187
 21
-98.58560680443629
 31
0.0
  0
LINE
  5
A98
330
1F
100
AcDbEntity
  8
VIEW0002
  6
CENTER
 62
     7
100
AcDbLine
 10
-145.1193677147773
 20
-91.7831742174483
 30
0.0
 11
-147.9370275494364
 21
-98.58560680443602
 31
0.0
  0
LINE
  5
A99
330
1F
100
AcDbEntity
  8
VIEW0002
  6
CENTER
 62
     7
100
AcDbLine
 10
-145.1193677147774
 20
-91.78317421744806
 30
0.0
 11
-151.9218003017653
 21
-94.60083405210706
 31
0.0
  0
LINE
  5
A9B
330
1F
100
AcDbEntity
  8
VIEW0002
  6
CENTER
 62
     7
100
AcDbLine
 10
-145.1193677147772
 20
-91.7831742174482
 30
0.0
 11
-151.921800301765
 21
-88.9655143827891
 31
0.0
  0
LINE
  5
A9D
330
1F
100
AcDbEntity
  8
VIEW0002
  6
CENTER
 62
     7
100
AcDbLine
 10
-145.1193677147773
 20
-91.7831742174483
 30
0.0
 11
-142.3017078801182
 21
-84.98074163046039
 31
0.0
  0
LINE
  5
AA2
330
1F
100
AcDbEntity
  8
VIEW0002
  6
CENTER
 62
     7
100
AcDbLine
 10
-145.1193677147777
 20
-91.78317421744846
 30
0.0
 11
-147.9370275494368
 21
-84.98074163046064
 31
0.0
  0
LINE
  5
AA3
330
1F
100
AcDbEntity
  8
VIEW0002
  6
CENTER
 62
     7
100
AcDbLine
 10
-145.1193677147773
 20
-91.78317421744818
 30
0.0
 11
-138.3169351277894
 21
-88.9655143827891
 31
0.0
  0
CIRCLE
  5
CA6
330
1F
100
AcDbEntity
  8
VIEW0002
  6
Continuous
 62
     7
100
AcDbCircle
 10
-145.1193677147772
 20
-91.78317421744823
 30
0.0
 40
8.602200049659188
  0
CIRCLE
  5
CA7
330
1F
100
AcDbEntity
  8
VIEW0002
  6
Continuous
 62
     7
100
AcDbCircle
 10
-145.1193677147772
 20
-91.78317421744823
 30
0.0
 40
7.144200148977545
  0
CIRCLE
  5
CA8
330
1F
100
AcDbEntity
  8
VIEW0002
  6
Continuous
 62
     7
100
AcDbCircle
 10
-145.1193677147772
 20
-91.78317421744823
 30
0.0
 40
7.362899975170414
  0
ARC
  5
CAD
330
1F
100
AcDbEntity
  8
VIEW0002
  6
Continuous
 62
     7
100
AcDbCircle
 10
-79.26109991060608
 20
-89.44566005293852
 30
0.0
 40
0.2072072265347439
100
AcDbArc
 50
180.0
 51
0.0
  0
ARC
  5
CAE
330
1F
100
AcDbEntity
  8
VIEW0002
  6
Continuous
 62
     7
100
AcDbCircle
 10
-79.26109991060608
 20
-88.52669852000071
 30
0.0
 40
0.2072072265347439
100
AcDbArc
 50
0.0
 51
180.0
  0
ARC
  5
CAF
330
1F
100
AcDbEntity
  8
VIEW0002
  6
Continuous
 62
     7
100
AcDbCircle
 10
-77.07409131956777
 20
-95.03964673670813
 30
0.0
 40
0.2072072265347439
100
AcDbArc
 50
180.0
 51
0.0
  0
ARC
  5
CB0
330
1F
100
AcDbEntity
  8
VIEW0002
  6
Continuous
 62
     7
100
AcDbCircle
 10
-77.07409131956777
 20
-88.52669852000074
 30
0.0
 40
0.2072072265347439
100
AcDbArc
 50
0.0
 51
180.0
  0
ARC
  5
CB1
330
1F
100
AcDbEntity
  8
VIEW0002
  6
Continuous
 62
     7
100
AcDbCircle
 10
-77.07409131956777
 20
-89.44566005293852
 30
0.0
 40
0.2072072265347439
100
AcDbArc
 50
180.0
 51
0.0
  0
ARC
  5
CB2
330
1F
100
AcDbEntity
  8
VIEW0002
  6
Continuous
 62
     7
100
AcDbCircle
 10
-79.26109991060608
 20
-95.03964673670813
 30
0.0
 40
0.2072072265347439
100
AcDbArc
 50
180.0
 51
0.0
  0
ARC
  5
CB3
330
1F
100
AcDbEntity
  8
VIEW0002
  6
Continuous
 62
     7
100
AcDbCircle
 10
-77.07409131956777
 20
-94.12068520377035
 30
0.0
 40
0.2072072265347439
100
AcDbArc
 50
0.0
 51
180.0
  0
ARC
  5
CB4
330
1F
100
AcDbEntity
  8
VIEW0002
  6
Continuous
 62
     7
100
AcDbCircle
 10
-79.26109991060608
 20
-94.12068520377031
 30
0.0
 40
0.2072072265347439
100
AcDbArc
 50
0.0
 51
180.0
  0
ARC
  5
CB5
330
1F
100
AcDbEntity
  8
VIEW0002
  6
Continuous
 62
     7
100
AcDbCircle
 10
-81.44810850164423
 20
-89.44566005293852
 30
0.0
 40
0.2072072265347439
100
AcDbArc
 50
180.0
 51
0.0
  0
ARC
  5
CB6
330
1F
100
AcDbEntity
  8
VIEW0002
  6
Continuous
 62
     7
100
AcDbCircle
 10
-81.44810850164423
 20
-88.52669852000071
 30
0.0
 40
0.2072072265347439
100
AcDbArc
 50
0.0
 51
180.0
  0
ARC
  5
CB7
330
1F
100
AcDbEntity
  8
VIEW0002
  6
Continuous
 62
     7
100
AcDbCircle
 10
-81.44810850164423
 20
-95.03964673670813
 30
0.0
 40
0.2072072265347439
100
AcDbArc
 50
180.0
 51
0.0
  0
ARC
  5
CB8
330
1F
100
AcDbEntity
  8
VIEW0002
  6
Continuous
 62
     7
100
AcDbCircle
 10
-81.44810850164423
 20
-94.12068520377031
 30
0.0
 40
0.2072072265347439
100
AcDbArc
 50
0.0
 51
180.0
  0
ARC
  5
CB9
330
1F
100
AcDbEntity
  8
VIEW0002
  6
Continuous
 62
     7
100
AcDbCircle
 10
-83.63511709268243
 20
-89.44566005293852
 30
0.0
 40
0.2072072265347439
100
AcDbArc
 50
180.0
 51
0.0
  0
ARC
  5
CBA
330
1F
100
AcDbEntity
  8
VIEW0002
  6
Continuous
 62
     7
100
AcDbCircle
 10
-83.63511709268243
 20
-88.52669852000071
 30
0.0
 40
0.2072072265347439
100
AcDbArc
 50
0.0
 51
180.0
  0
ARC
  5
CBB
330
1F
100
AcDbEntity
  8
VIEW0002
  6
Continuous
 62
     7
100
AcDbCircle
 10
-83.63511709268243
 20
-95.03964673670813
 30
0.0
 40
0.2072072265347439
100
AcDbArc
 50
180.0
 51
0.0
  0
ARC
  5
CBC
330
1F
100
AcDbEntity
  8
VIEW0002
  6
Continuous
 62
     7
100
AcDbCircle
 10
-83.63511709268243
 20
-94.12068520377031
 30
0.0
 40
0.2072072265347439
100
AcDbArc
 50
0.0
 51
180.0
  0
ARC
  5
CBD
330
1F
100
AcDbEntity
  8
VIEW0002
  6
Continuous
 62
     7
100
AcDbCircle
 10
-85.82212568372076
 20
-89.44566005293852
 30
0.0
 40
0.2072072265347439
100
AcDbArc
 50
180.0
 51
0.0
  0
ARC
  5
CBE
330
1F
100
AcDbEntity
  8
VIEW0002
  6
Continuous
 62
     7
100
AcDbCircle
 10
-85.82212568372076
 20
-88.52669852000071
 30
0.0
 40
0.2072072265347439
100
AcDbArc
 50
0.0
 51
180.0
  0
ARC
  5
CBF
330
1F
100
AcDbEntity
  8
VIEW0002
  6
Continuous
 62
     7
100
AcDbCircle
 10
-85.82212568372076
 20
-95.03964673670813
 30
0.0
 40
0.2072072265347439
100
AcDbArc
 50
180.0
 51
0.0
  0
ARC
  5
CC0
330
1F
100
AcDbEntity
  8
VIEW0002
  6
Continuous
 62
     7
100
AcDbCircle
 10
-85.82212568372076
 20
-94.12068520377031
 30
0.0
 40
0.2072072265347439
100
AcDbArc
 50
0.0
 51
180.0
  0
ARC
  5
CC1
330
1F
100
AcDbEntity
  8
VIEW0002
  6
Continuous
 62
     7
100
AcDbCircle
 10
-88.00913427475908
 20
-89.44566005293852
 30
0.0
 40
0.2072072265347439
100
AcDbArc
 50
180.0
 51
0.0
  0
ARC
  5
CC2
330
1F
100
AcDbEntity
  8
VIEW0002
  6
Continuous
 62
     7
100
AcDbCircle
 10
-88.00913427475908
 20
-88.52669852000071
 30
0.0
 40
0.2072072265347439
100
AcDbArc
 50
0.0
 51
180.0
  0
ARC
  5
CC3
330
1F
100
AcDbEntity
  8
VIEW0002
  6
Continuous
 62
     7
100
AcDbCircle
 10
-88.00913427475908
 20
-95.03964673670813
 30
0.0
 40
0.2072072265347439
100
AcDbArc
 50
180.0
 51
0.0
  0
ARC
  5
CC4
330
1F
100
AcDbEntity
  8
VIEW0002
  6
Continuous
 62
     7
100
AcDbCircle
 10
-88.00913427475908
 20
-94.12068520377031
 30
0.0
 40
0.2072072265347439
100
AcDbArc
 50
0.0
 51
180.0
  0
ARC
  5
CC5
330
1F
100
AcDbEntity
  8
VIEW0002
  6
Continuous
 62
     7
100
AcDbCircle
 10
-90.19614286579727
 20
-89.44566005293852
 30
0.0
 40
0.2072072265347439
100
AcDbArc
 50
180.0
 51
0.0
  0
ARC
  5
CC6
330
1F
100
AcDbEntity
  8
VIEW0002
  6
Continuous
 62
     7
100
AcDbCircle
 10
-90.19614286579727
 20
-88.52669852000071
 30
0.0
 40
0.2072072265347439
100
AcDbArc
 50
0.0
 51
180.0
  0
ARC
  5
CC7
330
1F
100
AcDbEntity
  8
VIEW0002
  6
Continuous
 62
     7
100
AcDbCircle
 10
-90.19614286579727
 20
-95.03964673670813
 30
0.0
 40
0.2072072265347439
100
AcDbArc
 50
180.0
 51
0.0
  0
ARC
  5
CC8
330
1F
100
AcDbEntity
  8
VIEW0002
  6
Continuous
 62
     7
100
AcDbCircle
 10
-90.19614286579727
 20
-94.12068520377031
 30
0.0
 40
0.2072072265347439
100
AcDbArc
 50
0.0
 51
180.0
  0
ARC
  5
CC9
330
1F
100
AcDbEntity
  8
VIEW0002
  6
Continuous
 62
     7
100
AcDbCircle
 10
-92.38315145683543
 20
-89.44566005293852
 30
0.0
 40
0.2072072265347439
100
AcDbArc
 50
180.0
 51
0.0
  0
ARC
  5
CCA
330
1F
100
AcDbEntity
  8
VIEW0002
  6
Continuous
 62
     7
100
AcDbCircle
 10
-92.38315145683543
 20
-88.52669852000071
 30
0.0
 40
0.2072072265347439
100
AcDbArc
 50
0.0
 51
180.0
  0
ARC
  5
CCB
330
1F
100
AcDbEntity
  8
VIEW0002
  6
Continuous
 62
     7
100
AcDbCircle
 10
-92.38315145683543
 20
-95.03964673670813
 30
0.0
 40
0.2072072265347439
100
AcDbArc
 50
180.0
 51
0.0
  0
ARC
  5
CCC
330
1F
100
AcDbEntity
  8
VIEW0002
  6
Continuous
 62
     7
100
AcDbCircle
 10
-92.38315145683543
 20
-94.12068520377031
 30
0.0
 40
0.2072072265347439
100
AcDbArc
 50
0.0
 51
180.0
  0
ARC
  5
CCD
330
1F
100
AcDbEntity
  8
VIEW0002
  6
Continuous
 62
     7
100
AcDbCircle
 10
-94.57016004787375
 20
-89.44566005293852
 30
0.0
 40
0.2072072265347439
100
AcDbArc
 50
180.0
 51
0.0
  0
ARC
  5
CCE
330
1F
100
AcDbEntity
  8
VIEW0002
  6
Continuous
 62
     7
100
AcDbCircle
 10
-94.57016004787375
 20
-88.52669852000071
 30
0.0
 40
0.2072072265347439
100
AcDbArc
 50
0.0
 51
180.0
  0
ARC
  5
CCF
330
1F
100
AcDbEntity
  8
VIEW0002
  6
Continuous
 62
     7
100
AcDbCircle
 10
-94.57016004787375
 20
-95.03964673670813
 30
0.0
 40
0.2072072265347439
100
AcDbArc
 50
180.0
 51
0.0
  0
ARC
  5
CD0
330
1F
100
AcDbEntity
  8
VIEW0002
  6
Continuous
 62
     7
100
AcDbCircle
 10
-94.57016004787375
 20
-94.12068520377031
 30
0.0
 40
0.2072072265347439
100
AcDbArc
 50
0.0
 51
180.0
  0
ARC
  5
CD1
330
1F
100
AcDbEntity
  8
VIEW0002
  6
Continuous
 62
     7
100
AcDbCircle
 10
-96.75716863891208
 20
-89.44566005293852
 30
0.0
 40
0.2072072265347439
100
AcDbArc
 50
180.0
 51
0.0
  0
ARC
  5
CD2
330
1F
100
AcDbEntity
  8
VIEW0002
  6
Continuous
 62
     7
100
AcDbCircle
 10
-96.75716863891208
 20
-88.52669852000071
 30
0.0
 40
0.2072072265347439
100
AcDbArc
 50
0.0
 51
180.0
  0
ARC
  5
CD3
330
1F
100
AcDbEntity
  8
VIEW0002
  6
Continuous
 62
     7
100
AcDbCircle
 10
-96.75716863891208
 20
-95.03964673670813
 30
0.0
 40
0.2072072265347439
100
AcDbArc
 50
180.0
 51
0.0
  0
ARC
  5
CD4
330
1F
100
AcDbEntity
  8
VIEW0002
  6
Continuous
 62
     7
100
AcDbCircle
 10
-96.75716863891208
 20
-94.12068520377031
 30
0.0
 40
0.2072072265347439
100
AcDbArc
 50
0.0
 51
180.0
  0
ARC
  5
CD5
330
1F
100
AcDbEntity
  8
VIEW0002
  6
Continuous
 62
     7
100
AcDbCircle
 10
-98.94417722995028
 20
-89.44566005293852
 30
0.0
 40
0.2072072265347439
100
AcDbArc
 50
180.0
 51
0.0
  0
ARC
  5
CD6
330
1F
100
AcDbEntity
  8
VIEW0002
  6
Continuous
 62
     7
100
AcDbCircle
 10
-98.94417722995028
 20
-88.52669852000071
 30
0.0
 40
0.2072072265347439
100
AcDbArc
 50
0.0
 51
180.0
  0
ARC
  5
CD7
330
1F
100
AcDbEntity
  8
VIEW0002
  6
Continuous
 62
     7
100
AcDbCircle
 10
-98.94417722995028
 20
-95.03964673670813
 30
0.0
 40
0.2072072265347439
100
AcDbArc
 50
180.0
 51
0.0
  0
ARC
  5
CD8
330
1F
100
AcDbEntity
  8
VIEW0002
  6
Continuous
 62
     7
100
AcDbCircle
 10
-98.94417722995028
 20
-94.12068520377031
 30
0.0
 40
0.2072072265347439
100
AcDbArc
 50
0.0
 51
180.0
  0
ARC
  5
CDD
330
1F
100
AcDbEntity
  8
VIEW0002
  6
Continuous
 62
     7
100
AcDbCircle
 10
-105.505203003065
 20
-89.44566005293852
 30
0.0
 40
0.2072072265347439
100
AcDbArc
 50
180.0
 51
0.0
  0
ARC
  5
CDE
330
1F
100
AcDbEntity
  8
VIEW0002
  6
Continuous
 62
     7
100
AcDbCircle
 10
-105.505203003065
 20
-88.52669852000071
 30
0.0
 40
0.2072072265347439
100
AcDbArc
 50
0.0
 51
180.0
  0
ARC
  5
CDF
330
1F
100
AcDbEntity
  8
VIEW0002
  6
Continuous
 62
     7
100
AcDbCircle
 10
-105.505203003065
 20
-95.03964673670813
 30
0.0
 40
0.2072072265347439
100
AcDbArc
 50
180.0
 51
0.0
  0
ARC
  5
CE0
330
1F
100
AcDbEntity
  8
VIEW0002
  6
Continuous
 62
     7
100
AcDbCircle
 10
-105.505203003065
 20
-94.12068520377031
 30
0.0
 40
0.2072072265347439
100
AcDbArc
 50
0.0
 51
180.0
  0
ARC
  5
CE1
330
1F
100
AcDbEntity
  8
VIEW0002
  6
Continuous
 62
     7
100
AcDbCircle
 10
-107.6922115941032
 20
-89.44566005293852
 30
0.0
 40
0.2072072265347439
100
AcDbArc
 50
180.0
 51
0.0
  0
ARC
  5
CE2
330
1F
100
AcDbEntity
  8
VIEW0002
  6
Continuous
 62
     7
100
AcDbCircle
 10
-107.6922115941032
 20
-88.52669852000071
 30
0.0
 40
0.2072072265347439
100
AcDbArc
 50
0.0
 51
180.0
  0
ARC
  5
CE3
330
1F
100
AcDbEntity
  8
VIEW0002
  6
Continuous
 62
     7
100
AcDbCircle
 10
-107.6922115941032
 20
-95.03964673670813
 30
0.0
 40
0.2072072265347439
100
AcDbArc
 50
180.0
 51
0.0
  0
ARC
  5
CE4
330
1F
100
AcDbEntity
  8
VIEW0002
  6
Continuous
 62
     7
100
AcDbCircle
 10
-107.6922115941032
 20
-94.12068520377031
 30
0.0
 40
0.2072072265347439
100
AcDbArc
 50
0.0
 51
180.0
  0
ARC
  5
CE5
330
1F
100
AcDbEntity
  8
VIEW0002
  6
Continuous
 62
     7
100
AcDbCircle
 10
-109.8792201851414
 20
-89.44566005293852
 30
0.0
 40
0.2072072265347439
100
AcDbArc
 50
180.0
 51
0.0
  0
ARC
  5
CE6
330
1F
100
AcDbEntity
  8
VIEW0002
  6
Continuous
 62
     7
100
AcDbCircle
 10
-109.8792201851414
 20
-88.52669852000071
 30
0.0
 40
0.2072072265347439
100
AcDbArc
 50
0.0
 51
180.0
  0
ARC
  5
CE7
330
1F
100
AcDbEntity
  8
VIEW0002
  6
Continuous
 62
     7
100
AcDbCircle
 10
-109.8792201851414
 20
-95.03964673670813
 30
0.0
 40
0.2072072265347439
100
AcDbArc
 50
180.0
 51
0.0
  0
ARC
  5
CE8
330
1F
100
AcDbEntity
  8
VIEW0002
  6
Continuous
 62
     7
100
AcDbCircle
 10
-109.8792201851414
 20
-94.12068520377031
 30
0.0
 40
0.2072072265347439
100
AcDbArc
 50
0.0
 51
180.0
  0
ARC
  5
CE9
330
1F
100
AcDbEntity
  8
VIEW0002
  6
Continuous
 62
     7
100
AcDbCircle
 10
-112.0662287761797
 20
-89.44566005293852
 30
0.0
 40
0.2072072265347439
100
AcDbArc
 50
180.0
 51
0.0
  0
ARC
  5
CEA
330
1F
100
AcDbEntity
  8
VIEW0002
  6
Continuous
 62
     7
100
AcDbCircle
 10
-112.0662287761797
 20
-88.52669852000071
 30
0.0
 40
0.2072072265347439
100
AcDbArc
 50
0.0
 51
180.0
  0
ARC
  5
CEB
330
1F
100
AcDbEntity
  8
VIEW0002
  6
Continuous
 62
     7
100
AcDbCircle
 10
-112.0662287761797
 20
-95.03964673670813
 30
0.0
 40
0.2072072265347439
100
AcDbArc
 50
180.0
 51
0.0
  0
ARC
  5
CEC
330
1F
100
AcDbEntity
  8
VIEW0002
  6
Continuous
 62
     7
100
AcDbCircle
 10
-112.0662287761797
 20
-94.12068520377031
 30
0.0
 40
0.2072072265347439
100
AcDbArc
 50
0.0
 51
180.0
  0
ARC
  5
CED
330
1F
100
AcDbEntity
  8
VIEW0002
  6
Continuous
 62
     7
100
AcDbCircle
 10
-114.2532373672181
 20
-89.44566005293852
 30
0.0
 40
0.2072072265347439
100
AcDbArc
 50
180.0
 51
0.0
  0
ARC
  5
CEE
330
1F
100
AcDbEntity
  8
VIEW0002
  6
Continuous
 62
     7
100
AcDbCircle
 10
-114.2532373672181
 20
-88.52669852000071
 30
0.0
 40
0.2072072265347439
100
AcDbArc
 50
0.0
 51
180.0
  0
ARC
  5
CEF
330
1F
100
AcDbEntity
  8
VIEW0002
  6
Continuous
 62
     7
100
AcDbCircle
 10
-114.2532373672181
 20
-95.03964673670813
 30
0.0
 40
0.2072072265347439
100
AcDbArc
 50
180.0
 51
0.0
  0
ARC
  5
CF0
330
1F
100
AcDbEntity
  8
VIEW0002
  6
Continuous
 62
     7
100
AcDbCircle
 10
-114.2532373672181
 20
-94.12068520377031
 30
0.0
 40
0.2072072265347439
100
AcDbArc
 50
0.0
 51
180.0
  0
ARC
  5
CF1
330
1F
100
AcDbEntity
  8
VIEW0002
  6
Continuous
 62
     7
100
AcDbCircle
 10
-116.4402459582562
 20
-89.44566005293852
 30
0.0
 40
0.2072072265347439
100
AcDbArc
 50
180.0
 51
0.0
  0
ARC
  5
CF2
330
1F
100
AcDbEntity
  8
VIEW0002
  6
Continuous
 62
     7
100
AcDbCircle
 10
-116.4402459582562
 20
-88.52669852000071
 30
0.0
 40
0.2072072265347439
100
AcDbArc
 50
0.0
 51
180.0
  0
ARC
  5
CF3
330
1F
100
AcDbEntity
  8
VIEW0002
  6
Continuous
 62
     7
100
AcDbCircle
 10
-116.4402459582562
 20
-95.03964673670813
 30
0.0
 40
0.2072072265347439
100
AcDbArc
 50
180.0
 51
0.0
  0
ARC
  5
CF4
330
1F
100
AcDbEntity
  8
VIEW0002
  6
Continuous
 62
     7
100
AcDbCircle
 10
-116.4402459582562
 20
-94.12068520377031
 30
0.0
 40
0.2072072265347439
100
AcDbArc
 50
0.0
 51
180.0
  0
SPLINE
  5
D74
330
1F
100
AcDbEntity
  8
VIEW0002
  6
Continuous
 62
     7
100
AcDbSpline
210
0.0
220
0.0
230
1.0
 70
  1064
 71
     3
 72
    11
 73
     7
 74
     5
 42
0.000000001
 43
0.0000000001
 44
0.0000000001
 12
0.176073805074512
 22
-0.9843769680191542
 32
0.0
 13
-0.3052907607502651
 23
-0.9522591828911519
 33
0.0
 40
0.0
 40
0.0
 40
0.0
 40
0.0
 40
6.044194281729821
 40
10.66944667065651
 40
14.77555636313516
 40
16.58237181169685
 40
16.58237181169685
 40
16.58237181169685
 40
16.58237181169685
 10
-108.9270737269346
 20
-83.18097416778902
 30
0.0
 10
-108.5723322983367
 20
-85.16422938151167
 30
0.0
 10
-108.33864015434
 20
-88.89676273487612
 30
0.0
 10
-110.7414717472561
 20
-93.34078230745495
 30
0.0
 10
-110.9355971502297
 20
-96.90591252279132
 30
0.0
 10
-111.5250828140297
 20
-98.79125356215693
 30
0.0
 10
-111.7089508349719
 20
-99.36477242971776
 30
0.0
 11
-108.9270737269346
 21
-83.18097416778902
 31
0.0
 11
-108.9393764909891
 21
-89.22515592856461
 31
0.0
 11
-110.4725850221502
 21
-93.58889644115775
 31
0.0
 11
-111.2096957071506
 21
-97.62830291299557
 31
0.0
 11
-111.7089508349719
 21
-99.36477242971776
 31
0.0
  0
ELLIPSE
  5
D7B
330
1F
100
AcDbEntity
  8
VIEW0002
  6
Continuous
 62
     7
100
AcDbEllipse
 10
-77.07409131956777
 20
-98.56150229940976
 30
0.0
 11
0.0
 21
-0.2565517288054906
 31
0.0
210
0.0
220
0.0
230
1.0
 40
0.807662561852582
 41
0.0
 42
6.283185307179585
  0
ELLIPSE
  5
D7C
330
1F
100
AcDbEntity
  8
VIEW0002
  6
Continuous
 62
     7
100
AcDbEllipse
 10
-77.07409131956777
 20
-85.00484295729913
 30
0.0
 11
0.0
 21
0.2565517288054906
 31
0.0
210
0.0
220
0.0
230
1.0
 40
0.807662561852582
 41
0.0
 42
6.283185307179585
  0
ELLIPSE
  5
D7D
330
1F
100
AcDbEntity
  8
VIEW0002
  6
Continuous
 62
     7
100
AcDbEllipse
 10
-79.26109991060608
 20
-98.56150229940972
 30
0.0
 11
0.0
 21
-0.2565517288054906
 31
0.0
210
0.0
220
0.0
230
1.0
 40
0.8076625618523609
 41
0.0
 42
6.283185307179585
  0
ELLIPSE
  5
D7E
330
1F
100
AcDbEntity
  8
VIEW0002
  6
Continuous
 62
     7
100
AcDbEllipse
 10
-79.26109991060608
 20
-85.0048429572991
 30
0.0
 11
0.0
 21
0.2565517288054906
 31
0.0
210
0.0
220
0.0
230
1.0
 40
0.8076625618523609
 41
0.0
 42
6.283185307179585
  0
ELLIPSE
  5
D7F
330
1F
100
AcDbEntity
  8
VIEW0002
  6
Continuous
 62
     7
100
AcDbEllipse
 10
-81.44810850164423
 20
-98.56150229940972
 30
0.0
 11
0.0
 21
-0.2565517288054906
 31
0.0
210
0.0
220
0.0
230
1.0
 40
0.8076625618523609
 41
0.0
 42
6.283185307179585
  0
ELLIPSE
  5
D80
330
1F
100
AcDbEntity
  8
VIEW0002
  6
Continuous
 62
     7
100
AcDbEllipse
 10
-81.44810850164423
 20
-85.0048429572991
 30
0.0
 11
0.0
 21
0.2565517288054906
 31
0.0
210
0.0
220
0.0
230
1.0
 40
0.8076625618523609
 41
0.0
 42
6.283185307179585
  0
ELLIPSE
  5
D81
330
1F
100
AcDbEntity
  8
VIEW0002
  6
Continuous
 62
     7
100
AcDbEllipse
 10
-83.63511709268243
 20
-98.56150229940972
 30
0.0
 11
0.0
 21
-0.2565517288054906
 31
0.0
210
0.0
220
0.0
230
1.0
 40
0.8076625618523609
 41
0.0
 42
6.283185307179585
  0
ELLIPSE
  5
D82
330
1F
100
AcDbEntity
  8
VIEW0002
  6
Continuous
 62
     7
100
AcDbEllipse
 10
-83.63511709268243
 20
-85.0048429572991
 30
0.0
 11
0.0
 21
0.2565517288054906
 31
0.0
210
0.0
220
0.0
230
1.0
 40
0.8076625618523609
 41
0.0
 42
6.283185307179585
  0
ELLIPSE
  5
D83
330
1F
100
AcDbEntity
  8
VIEW0002
  6
Continuous
 62
     7
100
AcDbEllipse
 10
-85.82212568372076
 20
-98.56150229940972
 30
0.0
 11
0.0
 21
-0.2565517288054906
 31
0.0
210
0.0
220
0.0
230
1.0
 40
0.807662561852582
 41
0.0
 42
6.283185307179585
  0
ELLIPSE
  5
D84
330
1F
100
AcDbEntity
  8
VIEW0002
  6
Continuous
 62
     7
100
AcDbEllipse
 10
-85.82212568372076
 20
-85.0048429572991
 30
0.0
 11
0.0
 21
0.2565517288054906
 31
0.0
210
0.0
220
0.0
230
1.0
 40
0.807662561852582
 41
0.0
 42
6.283185307179585
  0
ELLIPSE
  5
D85
330
1F
100
AcDbEntity
  8
VIEW0002
  6
Continuous
 62
     7
100
AcDbEllipse
 10
-88.00913427475908
 20
-98.56150229940972
 30
0.0
 11
0.0
 21
-0.2565517288054906
 31
0.0
210
0.0
220
0.0
230
1.0
 40
0.8076625618523609
 41
0.0
 42
6.283185307179585
  0
ELLIPSE
  5
D86
330
1F
100
AcDbEntity
  8
VIEW0002
  6
Continuous
 62
     7
100
AcDbEllipse
 10
-88.00913427475908
 20
-85.0048429572991
 30
0.0
 11
0.0
 21
0.2565517288054906
 31
0.0
210
0.0
220
0.0
230
1.0
 40
0.8076625618523609
 41
0.0
 42
6.283185307179585
  0
ELLIPSE
  5
D87
330
1F
100
AcDbEntity
  8
VIEW0002
  6
Continuous
 62
     7
100
AcDbEllipse
 10
-90.19614286579727
 20
-98.56150229940972
 30
0.0
 11
0.0
 21
-0.2565517288054906
 31
0.0
210
0.0
220
0.0
230
1.0
 40
0.8076625618523609
 41
0.0
 42
6.283185307179585
  0
ELLIPSE
  5
D88
330
1F
100
AcDbEntity
  8
VIEW0002
  6
Continuous
 62
     7
100
AcDbEllipse
 10
-90.19614286579727
 20
-85.0048429572991
 30
0.0
 11
0.0
 21
0.2565517288054906
 31
0.0
210
0.0
220
0.0
230
1.0
 40
0.8076625618523609
 41
0.0
 42
6.283185307179585
  0
ELLIPSE
  5
D89
330
1F
100
AcDbEntity
  8
VIEW0002
  6
Continuous
 62
     7
100
AcDbEllipse
 10
-92.38315145683543
 20
-98.56150229940972
 30
0.0
 11
0.0
 21
-0.2565517288054906
 31
0.0
210
0.0
220
0.0
230
1.0
 40
0.8076625618523609
 41
0.0
 42
6.283185307179585
  0
ELLIPSE
  5
D8A
330
1F
100
AcDbEntity
  8
VIEW0002
  6
Continuous
 62
     7
100
AcDbEllipse
 10
-92.38315145683543
 20
-85.0048429572991
 30
0.0
 11
0.0
 21
0.2565517288054906
 31
0.0
210
0.0
220
0.0
230
1.0
 40
0.8076625618523609
 41
0.0
 42
6.283185307179585
  0
ELLIPSE
  5
D8B
330
1F
100
AcDbEntity
  8
VIEW0002
  6
Continuous
 62
     7
100
AcDbEllipse
 10
-94.57016004787375
 20
-98.56150229940972
 30
0.0
 11
0.0
 21
-0.2565517288054906
 31
0.0
210
0.0
220
0.0
230
1.0
 40
0.807662561852582
 41
0.0
 42
6.283185307179585
  0
ELLIPSE
  5
D8C
330
1F
100
AcDbEntity
  8
VIEW0002
  6
Continuous
 62
     7
100
AcDbEllipse
 10
-94.57016004787375
 20
-85.0048429572991
 30
0.0
 11
0.0
 21
0.2565517288054906
 31
0.0
210
0.0
220
0.0
230
1.0
 40
0.807662561852582
 41
0.0
 42
6.283185307179585
  0
ELLIPSE
  5
D8D
330
1F
100
AcDbEntity
  8
VIEW0002
  6
Continuous
 62
     7
100
AcDbEllipse
 10
-96.75716863891208
 20
-98.56150229940972
 30
0.0
 11
0.0
 21
-0.2565517288054906
 31
0.0
210
0.0
220
0.0
230
1.0
 40
0.8076625618523609
 41
0.0
 42
6.283185307179585
  0
ELLIPSE
  5
D8E
330
1F
100
AcDbEntity
  8
VIEW0002
  6
Continuous
 62
     7
100
AcDbEllipse
 10
-96.75716863891208
 20
-85.0048429572991
 30
0.0
 11
0.0
 21
0.2565517288054906
 31
0.0
210
0.0
220
0.0
230
1.0
 40
0.8076625618523609
 41
0.0
 42
6.283185307179585
  0
ELLIPSE
  5
D8F
330
1F
100
AcDbEntity
  8
VIEW0002
  6
Continuous
 62
     7
100
AcDbEllipse
 10
-98.94417722995028
 20
-98.56150229940972
 30
0.0
 11
0.0
 21
-0.2565517288054906
 31
0.0
210
0.0
220
0.0
230
1.0
 40
0.8076625618523609
 41
0.0
 42
6.283185307179585
  0
ELLIPSE
  5
D90
330
1F
100
AcDbEntity
  8
VIEW0002
  6
Continuous
 62
     7
100
AcDbEllipse
 10
-98.94417722995028
 20
-85.0048429572991
 30
0.0
 11
0.0
 21
0.2565517288054906
 31
0.0
210
0.0
220
0.0
230
1.0
 40
0.8076625618523609
 41
0.0
 42
6.283185307179585
  0
ELLIPSE
  5
D92
330
1F
100
AcDbEntity
  8
VIEW0002
  6
Continuous
 62
     7
100
AcDbEllipse
 10
-105.505203003065
 20
-98.56150229940972
 30
0.0
 11
0.0
 21
-0.2565517288054906
 31
0.0
210
0.0
220
0.0
230
1.0
 40
0.8076625618523609
 41
0.0
 42
6.283185307179585
  0
ELLIPSE
  5
D93
330
1F
100
AcDbEntity
  8
VIEW0002
  6
Continuous
 62
     7
100
AcDbEllipse
 10
-105.505203003065
 20
-85.0048429572991
 30
0.0
 11
0.0
 21
0.2565517288054906
 31
0.0
210
0.0
220
0.0
230
1.0
 40
0.8076625618523609
 41
0.0
 42
6.283185307179585
  0
ELLIPSE
  5
D94
330
1F
100
AcDbEntity
  8
VIEW0002
  6
Continuous
 62
     7
100
AcDbEllipse
 10
-107.6922115941032
 20
-98.56150229940972
 30
0.0
 11
0.0
 21
-0.2565517288054906
 31
0.0
210
0.0
220
0.0
230
1.0
 40
0.8076625618523609
 41
0.0
 42
6.283185307179585
  0
ELLIPSE
  5
D95
330
1F
100
AcDbEntity
  8
VIEW0002
  6
Continuous
 62
     7
100
AcDbEllipse
 10
-107.6922115941032
 20
-85.0048429572991
 30
0.0
 11
0.0
 21
0.2565517288054906
 31
0.0
210
0.0
220
0.0
230
1.0
 40
0.8076625618523609
 41
0.0
 42
6.283185307179585
  0
ELLIPSE
  5
D96
330
1F
100
AcDbEntity
  8
VIEW0002
  6
Continuous
 62
     7
100
AcDbEllipse
 10
-109.8792201851414
 20
-98.56150229940972
 30
0.0
 11
0.0
 21
-0.2565517288054906
 31
0.0
210
0.0
220
0.0
230
1.0
 40
0.8076625618523609
 41
0.0
 42
6.283185307179585
  0
ELLIPSE
  5
D97
330
1F
100
AcDbEntity
  8
VIEW0002
  6
Continuous
 62
     7
100
AcDbEllipse
 10
-109.8792201851414
 20
-85.0048429572991
 30
0.0
 11
0.0
 21
0.2565517288054906
 31
0.0
210
0.0
220
0.0
230
1.0
 40
0.8076625618523609
 41
0.0
 42
6.283185307179585
  0
ELLIPSE
  5
D98
330
1F
100
AcDbEntity
  8
VIEW0002
  6
Continuous
 62
     7
100
AcDbEllipse
 10
-112.0662287761797
 20
-98.56150229940972
 30
0.0
 11
0.0
 21
-0.2565517288054906
 31
0.0
210
0.0
220
0.0
230
1.0
 40
0.807662561852582
 41
0.0
 42
6.283185307179585
  0
ELLIPSE
  5
D99
330
1F
100
AcDbEntity
  8
VIEW0002
  6
Continuous
 62
     7
100
AcDbEllipse
 10
-112.0662287761797
 20
-85.0048429572991
 30
0.0
 11
0.0
 21
0.2565517288054906
 31
0.0
210
0.0
220
0.0
230
1.0
 40
0.807662561852582
 41
0.0
 42
6.283185307179585
  0
ELLIPSE
  5
D9A
330
1F
100
AcDbEntity
  8
VIEW0002
  6
Continuous
 62
     7
100
AcDbEllipse
 10
-114.2532373672181
 20
-98.56150229940972
 30
0.0
 11
0.0
 21
-0.2565517288054906
 31
0.0
210
0.0
220
0.0
230
1.0
 40
0.8076625618523609
 41
0.0
 42
6.283185307179585
  0
ELLIPSE
  5
D9B
330
1F
100
AcDbEntity
  8
VIEW0002
  6
Continuous
 62
     7
100
AcDbEllipse
 10
-114.2532373672181
 20
-85.0048429572991
 30
0.0
 11
0.0
 21
0.2565517288054906
 31
0.0
210
0.0
220
0.0
230
1.0
 40
0.8076625618523609
 41
0.0
 42
6.283185307179585
  0
ELLIPSE
  5
D9C
330
1F
100
AcDbEntity
  8
VIEW0002
  6
Continuous
 62
     7
100
AcDbEllipse
 10
-116.4402459582562
 20
-98.56150229940972
 30
0.0
 11
0.0
 21
-0.2565517288054906
 31
0.0
210
0.0
220
0.0
230
1.0
 40
0.8076625618523609
 41
0.0
 42
6.283185307179585
  0
ELLIPSE
  5
D9D
330
1F
100
AcDbEntity
  8
VIEW0002
  6
Continuous
 62
     7
100
AcDbEllipse
 10
-116.4402459582562
 20
-85.0048429572991
 30
0.0
 11
0.0
 21
0.2565517288054906
 31
0.0
210
0.0
220
0.0
230
1.0
 40
0.8076625618523609
 41
0.0
 42
6.283185307179585
  0
MTEXT
  5
DA4
330
1F
100
AcDbEntity
  8
VIEW0002
 62
     7
100
AcDbMText
 10
-244.9293677820752
 20
-232.2916516694983
 30
0.0
 40
2.5
 41
0.0
 46
0.0
 71
     7
 72
     1
  1
{\W0.83333;（Ｈ28.3：北海道地区を除く）}
 73
     1
 44
1.0
  0
HATCH
  5
DE1
330
1F
100
AcDbEntity
  8
VIEW0002
 62
     7
100
AcDbHatch
 10
0.0
 20
0.0
 30
0.0
210
0.0
220
0.0
230
1.0
  2
SOLID
 70
     1
 71
     0
 91
        1
 92
        3
 72
     1
 73
     1
 93
        4
 10
-148.5125722029912
 20
-85.49622272488717
 42
0.1462701340445857
 10
-151.4063192073384
 20
-88.38996972923448
 42
0.0
 10
-151.6093999748545
 20
-88.30585092107213
 42
-0.1478262428249726
 10
-148.5966910111551
 20
-85.29314195737155
 42
0.0
 97
        0
 75
     0
 76
     1
 98
        0
450
        0
451
        0
460
0.0
461
0.0
452
        0
462
0.0
453
        0
470

  0
HATCH
  5
DE2
330
1F
100
AcDbEntity
  8
VIEW0002
 62
     7
100
AcDbHatch
 10
0.0
 20
0.0
 30
0.0
210
0.0
220
0.0
230
1.0
  2
SOLID
 70
     1
 71
     0
 91
        1
 92
        3
 72
     1
 73
     1
 93
        4
 10
-143.0731795849651
 20
-84.93827028049874
 42
0.1462701340445857
 10
-147.1655558445894
 20
-84.93827028049874
 42
0.0
 10
-147.2496746527518
 20
-84.7351895129826
 42
-0.1478262428249726
 10
-142.9890607768029
 20
-84.73518951298258
 42
0.0
 97
        0
 75
     0
 76
     1
 98
        0
450
        0
451
        0
460
0.0
461
0.0
452
        0
462
0.0
453
        0
470

  0
HATCH
  5
DE3
330
1F
100
AcDbEntity
  8
VIEW0002
 62
     7
100
AcDbHatch
 10
0.0
 20
0.0
 30
0.0
210
0.0
220
0.0
230
1.0
  2
SOLID
 70
     1
 71
     0
 91
        1
 92
        3
 72
     1
 73
     1
 93
        4
 10
-151.4063192073383
 20
-95.17637870566213
 42
0.1462701340445857
 10
-148.512572202991
 20
-98.07012571000964
 42
0.0
 10
-148.5966910111533
 20
-98.27320647752555
 42
-0.1478262428249726
 10
-151.6093999748544
 20
-95.26049751382464
 42
0.0
 97
        0
 75
     0
 76
     1
 98
        0
450
        0
451
        0
460
0.0
461
0.0
452
        0
462
0.0
453
        0
470

  0
HATCH
  5
DE4
330
1F
100
AcDbEntity
  8
VIEW0002
 62
     7
100
AcDbHatch
 10
0.0
 20
0.0
 30
0.0
210
0.0
220
0.0
230
1.0
  2
SOLID
 70
     1
 71
     0
 91
        1
 92
        3
 72
     1
 73
     1
 93
        4
 10
-147.1655558445893
 20
-98.62807815439772
 42
0.1462701340445857
 10
-143.0731795849663
 20
-98.62807815439822
 42
0.0
 10
-142.9890607768026
 20
-98.83115892191387
 42
-0.1478262428249726
 10
-147.2496746527516
 20
-98.83115892191392
 42
0.0
 97
        0
 75
     0
 76
     1
 98
        0
450
        0
451
        0
460
0.0
461
0.0
452
        0
462
0.0
453
        0
470

  0
HATCH
  5
DE5
330
1F
100
AcDbEntity
  8
VIEW0002
 62
     7
100
AcDbHatch
 10
0.0
 20
0.0
 30
0.0
210
0.0
220
0.0
230
1.0
  2
SOLID
 70
     1
 71
     0
 91
        1
 92
        3
 72
     1
 73
     1
 93
        4
 10
-141.7261632265633
 20
-98.07012571000932
 42
0.1462701340445857
 10
-138.8324162222163
 20
-95.17637870566213
 42
0.0
 10
-138.6293354546999
 20
-95.26049751382435
 42
-0.1478262428249726
 10
-141.6420444184022
 20
-98.27320647752607
 42
0.0
 97
        0
 75
     0
 76
     1
 98
        0
450
        0
451
        0
460
0.0
461
0.0
452
        0
462
0.0
453
        0
470

  0
HATCH
  5
DE6
330
1F
100
AcDbEntity
  8
VIEW0002
 62
     7
100
AcDbHatch
 10
0.0
 20
0.0
 30
0.0
210
0.0
220
0.0
230
1.0
  2
SOLID
 70
     1
 71
     0
 91
        1
 92
        3
 72
     1
 73
     1
 93
        4
 10
-138.2744637778277
 20
-93.82936234726036
 42
0.1462701340445857
 10
-138.2744637778277
 20
-89.73698608763617
 42
0.0
 10
-138.0713830103116
 20
-89.65286727947358
 42
-0.1478262428249726
 10
-138.0713830103116
 20
-93.91348115542266
 42
0.0
 97
        0
 75
     0
 76
     1
 98
        0
450
        0
451
        0
460
0.0
461
0.0
452
        0
462
0.0
453
        0
470

  0
HATCH
  5
DE7
330
1F
100
AcDbEntity
  8
VIEW0002
 62
     7
100
AcDbHatch
 10
0.0
 20
0.0
 30
0.0
210
0.0
220
0.0
230
1.0
  2
SOLID
 70
     1
 71
     0
 91
        1
 92
        3
 72
     1
 73
     1
 93
        4
 10
-138.8324162222162
 20
-88.38996972923432
 42
0.1462701340445857
 10
-141.7261632265633
 20
-85.49622272488731
 42
0.0
 10
-141.6420444184011
 20
-85.29314195737091
 42
-0.1478262428249726
 10
-138.6293354547002
 20
-88.30585092107211
 42
0.0
 97
        0
 75
     0
 76
     1
 98
        0
450
        0
451
        0
460
0.0
461
0.0
452
        0
462
0.0
453
        0
470

  0
HATCH
  5
DE8
330
1F
100
AcDbEntity
  8
VIEW0002
 62
     7
100
AcDbHatch
 10
0.0
 20
0.0
 30
0.0
210
0.0
220
0.0
230
1.0
  2
SOLID
 70
     1
 71
     0
 91
        6
 92
        3
 72
     1
 73
     1
 93
       22
 10
-108.7420655824949
 20
-84.40155705371424
 42
0.0
 10
-118.9843592792806
 20
-84.4015574099167
 42
0.0
 10
-118.9843592792804
 20
-84.20155740991665
 42
0.0
 10
-118.2699808490191
 20
-84.20155795563763
 42
0.0
 10
-117.9783901628083
 20
-83.18095875071453
 42
0.0
 10
-117.0890062358113
 20
-83.18096073202241
 42
0.0
 10
-116.7974048348251
 20
-84.20156049333156
 42
0.0
 10
-116.0829720299957
 20
-84.20156103905256
 42
0.0
 10
-115.7913813437846
 20
-83.18096183412944
 42
0.0
 10
-114.9019974167877
 20
-83.18096381543734
 42
0.0
 10
-114.6103960158015
 20
-84.20156357674647
 42
0.0
 10
-113.8959632109721
 20
-84.20156412246752
 42
0.0
 10
-113.6043725247611
 20
-83.18096491754435
 42
0.0
 10
-112.7149885977641
 20
-83.18096689885235
 42
0.0
 10
-112.423387196778
 20
-84.20156666016136
 42
0.0
 10
-111.7089543919485
 20
-84.20156720588243
 42
0.0
 10
-111.4173637057375
 20
-83.18096800095926
 42
0.0
 10
-110.5279797787404
 20
-83.18096998226732
 42
0.0
 10
-110.2363783777543
 20
-84.20156974357627
 42
0.0
 10
-109.5219455729249
 20
-84.20157028929727
 42
0.0
 10
-109.2303548867141
 20
-83.18097108437413
 42
0.0
 10
-108.9270737269345
 20
-83.18097416778902
 42
-0.0137996611476467
 97
        0
 92
        3
 72
     0
 73
     1
 93
        4
 10
-117.0054103375053
 20
-84.20155740991665
 10
-118.0619775541351
 20
-84.20155740991658
 10
-117.8275208052633
 20
-83.38095875071454
 10
-117.2398670863769
 20
-83.38095875071459
 97
        0
 92
        3
 72
     0
 73
     1
 93
        4
 10
-114.8184015184817
 20
-84.20156049333156
 10
-115.8749687351115
 20
-84.20156049333161
 10
-115.6405119862398
 20
-83.38096183412941
 10
-115.0528582673533
 20
-83.38096183412947
 97
        0
 92
        3
 72
     0
 73
     1
 93
        4
 10
-112.6313926994581
 20
-84.20156357674647
 10
-113.6879599160881
 20
-84.20156357674654
 10
-113.4535031672162
 20
-83.38096491754432
 10
-112.8658494483298
 20
-83.38096491754425
 97
        0
 92
        3
 72
     0
 73
     1
 93
        4
 10
-110.4443838804347
 20
-84.20156666016136
 10
-111.5009510970645
 20
-84.20156666016152
 10
-111.2664943481926
 20
-83.38096800095923
 10
-110.6788406293062
 20
-83.38096800095927
 97
        0
 92
        3
 72
     1
 73
     1
 93
        4
 10
-108.7675476270995
 20
-84.20156978860168
 42
0.0
 10
-109.3139422780407
 20
-84.20156974357643
 42
0.0
 10
-109.079485529169
 20
-83.38097108437414
 42
0.0
 10
-108.8921437550919
 20
-83.38097108437382
 42
-0.0092753467102556
 97
        0
 75
     0
 76
     1
 98
        0
450
        0
451
        0
460
0.0
461
0.0
452
        0
462
0.0
453
        0
470

  0
HATCH
  5
DE9
330
1F
100
AcDbEntity
  8
VIEW0002
 62
     7
100
AcDbHatch
 10
0.0
 20
0.0
 30
0.0
210
0.0
220
0.0
230
1.0
  2
SOLID
 70
     1
 71
     0
 91
        4
 92
        3
 72
     1
 73
     1
 93
       16
 10
-118.2699443516344
 20
-99.36477242971776
 42
0.0
 10
-118.9843592792806
 20
-99.36477242971776
 42
0.0
 10
-118.9843592792804
 20
-99.16477242971772
 42
0.0
 10
-111.6450850195294
 20
-99.1647724340323
 42
-0.0006524351821257
 10
-111.7089508349717
 20
-99.36477242971776
 42
0.0
 10
-112.4233724635656
 20
-99.36477534051464
 42
0.0
 10
-112.7149679696372
 20
-100.3853710889198
 42
0.0
 10
-113.6043446201058
 20
-100.3853725803612
 42
0.0
 10
-113.8959443296192
 20
-99.36477242971776
 42
0.0
 10
-114.6103723145878
 20
-99.3647753405145
 42
0.0
 10
-114.9019678206596
 20
-100.3853710889198
 42
0.0
 10
-115.7913444711281
 20
-100.3853725803611
 42
0.0
 10
-116.0829441806416
 20
-99.36477242971776
 42
0.0
 10
-116.7973721656103
 20
-99.36477534051466
 42
0.0
 10
-117.088967671682
 20
-100.3853710889198
 42
0.0
 10
-117.9783443221507
 20
-100.3853725803612
 42
0.0
 97
        0
 92
        3
 72
     0
 73
     1
 93
        4
 10
-117.0053744729181
 20
-99.36477242971763
 10
-117.2398312217896
 20
-100.1853710889198
 10
-117.8274844637991
 20
-100.1853710889197
 10
-118.0619412126706
 20
-99.36477242971776
 97
        0
 92
        3
 72
     0
 73
     1
 93
        4
 10
-115.052831370767
 20
-100.1853710889198
 10
-115.6404846127765
 20
-100.1853710889198
 10
-115.8749413616481
 20
-99.36477242971776
 10
-114.8183746218956
 20
-99.36477242971779
 97
        0
 92
        3
 72
     0
 73
     1
 93
        4
 10
-112.8658315197447
 20
-100.1853710889198
 10
-113.4534847617543
 20
-100.1853710889198
 10
-113.6879415106257
 20
-99.36477242971776
 10
-112.6313747708731
 20
-99.36477242971776
 97
        0
 75
     0
 76
     1
 98
        0
450
        0
451
        0
460
0.0
461
0.0
452
        0
462
0.0
453
        0
470

  0
HATCH
  5
DF4
330
1F
100
AcDbEntity
  8
VIEW0002
 62
     7
100
AcDbHatch
 10
0.0
 20
0.0
 30
0.0
210
0.0
220
0.0
230
1.0
  2
SOLID
 70
     1
 71
     0
 91
        1
 92
        3
 72
     1
 73
     1
 93
        4
 10
-151.9642716517267
 20
-89.7369860876361
 42
0.1462701340445857
 10
-151.9642716517269
 20
-93.82936234726065
 42
0.0
 10
-152.1673524192429
 20
-93.91348115542287
 42
-0.1478262428249726
 10
-152.1673524192429
 20
-89.65286727947399
 42
0.0
 97
        0
 75
     0
 76
     1
 98
        0
450
        0
451
        0
460
0.0
461
0.0
452
        0
462
0.0
453
        0
470

  0
DIMENSION
  5
F2C
330
1F
100
AcDbEntity
  8
VIEW0002
 62
     7
100
AcDbDimension
280
     0
  2
*D24
 10
-126.5323922627591
 20
-83.18095875071453
 30
0.0
 11
-126.5323922627591
 21
-91.7821649198172
 31
0.0
 70
   160
  1
外径
 71
     5
 42
17.20441233820534
 73
     0
 74
     0
 75
     0
  3
ISO-25
100
AcDbAlignedDimension
 13
-117.9783453228028
 23
-100.3853710889198
 33
0.0
 14
-117.9783901628083
 24
-83.18095875071453
 34
0.0
 50
270.0
100
AcDbRotatedDimension
1001
ACAD
1000
DSTYLE
1002
{
1070
   278
1070
    46
1070
   147
1040
0.625
1070
    77
1070
     1
1070
    74
1070
     0
1070
    73
1070
     0
1070
    42
1040
0.0
1070
    44
1040
2.286
1070
    76
1070
     0
1070
    75
1070
     0
1070
   279
1070
     0
1070
   271
1070
     0
1070
   173
1070
     1
1070
    41
1040
3.0
1070
   140
1040
2.5
1070
   344
1005
E00
1070
   343
1005
E00
1002
}
  0
DIMENSION
  5
F46
330
1F
100
AcDbEntity
  8
VIEW0002
 62
     7
100
AcDbDimension
280
     0
  2
*D26
 10
-74.52987550199484
 20
-106.0279276760095
 30
0.0
 11
-96.75611739063777
 21
-106.0279276760095
 31
0.0
 70
   160
  1
長さ
 71
     5
 42
44.45448377728581
 73
     0
 74
     0
 75
     0
  3
ISO-25
100
AcDbAlignedDimension
 13
-118.9843592792806
 23
-99.36477242971776
 33
0.0
 14
-74.52987550199484
 24
-99.36477242971776
 34
0.0
 50
180.0
100
AcDbRotatedDimension
1001
ACAD
1000
DSTYLE
1002
{
1070
   278
1070
    46
1070
   147
1040
0.625
1070
    77
1070
     1
1070
    74
1070
     0
1070
    73
1070
     0
1070
    42
1040
0.0
1070
    44
1040
1.523999999999986
1070
    76
1070
     0
1070
    75
1070
     0
1070
   279
1070
     0
1070
   271
1070
     0
1070
   173
1070
     1
1070
    41
1040
3.0
1070
   140
1040
2.5
1070
   344
1005
E00
1070
   343
1005
E00
1002
}
  0
DIMENSION
  5
F53
330
1F
100
AcDbEntity
  8
VIEW0002
 62
     7
100
AcDbDimension
280
     0
  2
*D27
 10
-122.1005407507234
 20
-84.40155740991666
 30
0.0
 11
-122.1005407507234
 21
-91.78216491981721
 31
0.0
 70
   160
  1
内径
 71
     5
 42
14.76321501980106
 73
     0
 74
     0
 75
     0
  3
ISO-25
100
AcDbAlignedDimension
 13
-118.9843688138432
 23
-99.16477242971772
 33
0.0
 14
-118.9844136538486
 24
-84.40155740991666
 34
0.0
 50
270.0
100
AcDbRotatedDimension
1001
ACAD
1000
DSTYLE
1002
{
1070
   278
1070
    46
1070
   147
1040
0.625
1070
    77
1070
     1
1070
    74
1070
     0
1070
    73
1070
     0
1070
    42
1040
0.0
1070
    44
1040
1.523999999999944
1070
    76
1070
     0
1070
    75
1070
     0
1070
   279
1070
     0
1070
   271
1070
     0
1070
   173
1070
     1
1070
    41
1040
3.0
1070
   140
1040
2.5
1070
   344
1005
E00
1070
   343
1005
E00
1002
}
  0
DIMENSION
  5
F60
330
1F
100
AcDbEntity
  8
VIEW0002
 62
     7
100
AcDbDimension
280
     0
  2
*D28
 10
-146.8586663010863
 20
-78.57188982723946
 30
0.0
 11
-145.1173677147773
 21
-78.45789032511371
 31
0.0
 70
   165
  1
45°
 71
     5
 42
0.7853981633974608
 73
     0
 74
     0
 75
     0
  3
ISO-25
100
AcDb3PointAngularDimension
 13
-141.8274482738826
 23
-83.83577765700076
 33
0.0
 14
-148.4112871556727
 24
-83.83577765700094
 34
0.0
 15
-145.1193677147776
 25
-91.78317421744919
 35
0.0
1001
ACAD
1000
DSTYLE
1002
{
1070
   278
1070
    46
1070
   275
1070
     1
1070
   147
1040
0.625
1070
    77
1070
     1
1070
    74
1070
     0
1070
    73
1070
     0
1070
    42
1040
0.0
1070
    44
1040
1.523999999999915
1070
    76
1070
     0
1070
    75
1070
     0
1070
   279
1070
     0
1070
   179
1070
     0
1070
   173
1070
     1
1070
    41
1040
3.0
1070
   140
1040
2.5
1070
   344
1005
E00
1070
   343
1005
E00
1002
}
  0
DIMENSION
  5
FCE
330
1F
100
AcDbEntity
  8
VIEW0002
 62
     7
100
AcDbDimension
280
     0
  2
*D36
 10
-113.6043632409186
 20
-78.62950505602714
 30
0.0
 11
-102.2068632409187
 21
-78.62950505602714
 31
0.0
 70
   160
  1
ピッチ
 71
     5
 42
2.187018102865977
 73
     0
 74
     0
 75
     0
  3
ISO-25
100
AcDbAlignedDimension
 13
-115.7913813437846
 23
-83.18096183412944
 33
0.0
 14
-113.6043632409186
 24
-83.18096417983051
 34
0.0
 50
180.0
100
AcDbRotatedDimension
1001
ACAD
1000
DSTYLE
1002
{
1070
   278
1070
    46
1070
   147
1040
0.625
1070
    77
1070
     1
1070
    74
1070
     0
1070
    73
1070
     0
1070
    42
1040
0.0
1070
    44
1040
2.286
1070
    76
1070
     0
1070
    75
1070
     0
1070
   279
1070
     0
1070
   271
1070
     0
1070
   173
1070
     1
1070
    41
1040
3.0
1070
   140
1040
2.5
1070
   344
1005
E00
1070
   343
1005
E00
1002
}
  0
LINE
  5
1017
330
1F
100
AcDbEntity
  8
VIEW0003
  6
Continuous
 62
     7
100
AcDbLine
 10
33.02128105164765
 20
-36.8722761790713
 30
0.0
 11
33.02128105164765
 21
-241.7922799937686
 31
0.0
  0
LINE
  5
1018
330
1F
100
AcDbEntity
  8
VIEW0003
  6
Continuous
 62
     7
100
AcDbLine
 10
-261.4387113189578
 20
-244.3322799937686
 30
0.0
 11
30.48128105164766
 21
-244.3322799937686
 31
0.0
  0
LINE
  5
1019
330
1F
100
AcDbEntity
  8
VIEW0003
  6
Continuous
 62
     7
370
    30
100
AcDbLine
 10
-253.9787113189579
 20
-44.83227617907129
 30
0.0
 11
22.52128105164766
 21
-44.83227617907129
 31
0.0
  0
LINE
  5
101A
330
1F
100
AcDbEntity
  8
VIEW0003
  6
Continuous
 62
     7
370
    30
100
AcDbLine
 10
22.52128105164766
 20
-44.83227617907129
 30
0.0
 11
22.52128105164766
 21
-234.3322795169314
 31
0.0
  0
LINE
  5
101B
330
1F
100
AcDbEntity
  8
VIEW0003
  6
Continuous
 62
     7
370
    30
100
AcDbLine
 10
-253.9787113189579
 20
-234.3322795169314
 30
0.0
 11
22.52128105164766
 21
-234.3322795169314
 31
0.0
  0
LINE
  5
101C
330
1F
100
AcDbEntity
  8
VIEW0003
  6
Continuous
 62
     7
370
    30
100
AcDbLine
 10
-253.9787113189579
 20
-44.83227617907129
 30
0.0
 11
-253.9787113189579
 21
-234.3322795169314
 31
0.0
  0
LWPOLYLINE
  5
101D
330
1F
100
AcDbEntity
  8
VIEW0003
  6
Continuous
 62
     7
100
AcDbPolyline
 90
        2
 70
     0
 43
0.001000000047497
 10
-63.97871131895781
 20
-234.3322795169314
 10
-63.97871131895781
 20
-226.83227975535
  0
LWPOLYLINE
  5
101E
330
1F
100
AcDbEntity
  8
VIEW0003
  6
Continuous
 62
     7
100
AcDbPolyline
 90
        2
 70
     0
 43
0.001000000047497
 10
22.52128105164766
 20
-226.83227975535
 10
-166.5537125587344
 20
-226.83227975535
  0
LINE
  5
101F
330
1F
100
AcDbEntity
  8
VIEW0003
  6
Continuous
 62
     7
100
AcDbLine
 10
-166.5537125587344
 20
-226.83227975535
 30
0.0
 11
-166.5537125587344
 21
-234.3322795169314
 31
0.0
  0
MTEXT
  5
1020
330
1F
100
AcDbEntity
  8
VIEW0003
 62
     7
100
AcDbMText
 10
-20.72871513365508
 20
-230.5822796361407
 30
0.0
 40
4.5
 41
0.0
 46
0.0
 71
     5
 72
     1
  1
{\W1.3889;デンカ株式会社}
 73
     1
 44
1.0
  0
MTEXT
  5
1021
330
1F
100
AcDbEntity
  8
VIEW0003
 62
     7
100
AcDbMText
 10
-153.3796998368843
 20
-231.7475605483033
 30
0.0
 40
2.5
 41
0.0
 46
0.0
 71
     7
 72
     1
  1
{\W0.83333;農業用トヨドレンダブル管製品図（TDW50Y-200Y：有孔管）}
 73
     1
 44
1.0
  0
MTEXT
  5
1022
330
1F
100
AcDbEntity
  8
VIEW0003
 62
     7
100
AcDbMText
 10
-246.983624324953
 20
-218.4617867849788
 30
0.0
 40
2.5
 41
0.0
 46
0.0
 71
     7
 72
     1
  1
{\W0.833333;＊形状は規格毎に異なります。}
 73
     1
 44
1.0
  0
MTEXT
  5
1023
330
1F
100
AcDbEntity
  8
VIEW0003
 62
     7
100
AcDbMText
 10
-247.3888027578426
 20
-222.9284468619373
 30
0.0
 40
2.5
 41
0.0
 46
0.0
 71
     7
 72
     1
  1
{\W0.833333;＊寸法、仕様等は製品改良の為、予告無く変更する場合があります。}
 73
     1
 44
1.0
  0
MTEXT
  5
112C
330
1F
100
AcDbEntity
  8
0
 62
     7
100
AcDbMText
 10
-68.9459608749265
 20
-185.3956148845396
 30
0.0
 40
2.5
 41
0.0
 46
0.0
 71
     5
 72
     1
  1
4
 73
     1
 44
1.0
  0
MTEXT
  5
112D
330
1F
100
AcDbEntity
  8
0
 62
     7
100
AcDbMText
 10
-68.9459608749265
 20
-196.1956148845396
 30
0.0
 40
2.5
 41
0.0
 46
0.0
 71
     5
 72
     1
  1
5
 73
     1
 44
1.0
  0
MTEXT
  5
1149
330
1F
100
AcDbEntity
  8
0
 62
     7
100
AcDbMText
 10
-163.4709606249264
 20
-197.4456148845395
 30
0.0
 40
2.5
 41
0.0
 46
0.0
 71
     7
 72
     1
  1
TDW200Y
 73
     1
 44
1.0
  0
MTEXT
  5
114A
330
1F
100
AcDbEntity
  8
0
 62
     7
100
AcDbMText
 10
-163.4709606249264
 20
-192.0456148845395
 30
0.0
 40
2.5
 41
0.0
 46
0.0
 71
     7
 72
     1
  1
TDW150Y
 73
     1
 44
1.0
  0
MTEXT
  5
114B
330
1F
100
AcDbEntity
  8
0
 62
     7
100
AcDbMText
 10
-163.4709606249264
 20
-186.6456148845395
 30
0.0
 40
2.5
 41
0.0
 46
0.0
 71
     7
 72
     1
  1
TDW125Y
 73
     1
 44
1.0
  0
MTEXT
  5
114C
330
1F
100
AcDbEntity
  8
0
 62
     7
100
AcDbMText
 10
-163.4709606249264
 20
-181.1278973002608
 30
0.0
 40
2.5
 41
0.0
 46
0.0
 71
     7
 72
     1
  1
TDW100Y
 73
     1
 44
1.0
  0
MTEXT
  5
114D
330
1F
100
AcDbEntity
  8
0
 62
     7
100
AcDbMText
 10
-163.4709606249264
 20
-175.8456148845395
 30
0.0
 40
2.5
 41
0.0
 46
0.0
 71
     7
 72
     1
  1
TDW80Y
 73
     1
 44
1.0
  0
MTEXT
  5
114E
330
1F
100
AcDbEntity
  8
0
 62
     7
100
AcDbMText
 10
-163.4709606249264
 20
-170.4456148845395
 30
0.0
 40
2.5
 41
0.0
 46
0.0
 71
     7
 72
     1
  1
TDW75Y
 73
     1
 44
1.0
  0
MTEXT
  5
114F
330
1F
100
AcDbEntity
  8
0
 62
     7
100
AcDbMText
 10
-163.4709606249264
 20
-165.0456148845395
 30
0.0
 40
2.5
 41
0.0
 46
0.0
 71
     7
 72
     1
  1
TDW65Y
 73
     1
 44
1.0
  0
MTEXT
  5
1150
330
1F
100
AcDbEntity
  8
0
 62
     7
100
AcDbMText
 10
-163.4709606249264
 20
-159.6456148845395
 30
0.0
 40
2.5
 41
0.0
 46
0.0
 71
     7
 72
     1
  1
TDW60Y
 73
     1
 44
1.0
  0
MTEXT
  5
1151
330
1F
100
AcDbEntity
  8
0
 62
     7
100
AcDbMText
 10
-163.4709606249264
 20
-154.2456148845395
 30
0.0
 40
2.5
 41
0.0
 46
0.0
 71
     7
 72
     1
  1
TDW50Y
 73
     1
 44
1.0
  0
ENDSEC
  0
SECTION
  2
OBJECTS
  0
DICTIONARY
  5
C
330
0
100
AcDbDictionary
281
     1
  3
ACAD_CIP_PREVIOUS_PRODUCT_INFO
350
10BC
  3
ACAD_COLOR
350
10B3
  3
ACAD_DETAILVIEWSTYLE
350
10B9
  3
ACAD_GROUP
350
D
  3
ACAD_LAYOUT
350
1A
  3
ACAD_MATERIAL
350
43
  3
ACAD_MLEADERSTYLE
350
1026
  3
ACAD_MLINESTYLE
350
17
  3
ACAD_PLOTSETTINGS
350
19
  3
ACAD_PLOTSTYLENAME
350
E
  3
ACAD_SCALELIST
350
47
  3
ACAD_SECTIONVIEWSTYLE
350
10B7
  3
ACAD_TABLESTYLE
350
10B4
  3
ACAD_VISUALSTYLE
350
2A
  3
ACDB_RECOMPOSE_DATA
350
1302
  3
AcDbVariableDictionary
350
1024
  3
AcDsDecomposeData
350
1308
  0
DICTIONARY
  5
117A
330
8
100
AcDbDictionary
280
     1
281
     1
  0
DICTIONARY
  5
1169
330
2
100
AcDbDictionary
280
     1
281
     1
  3
ACAD_LAYERSTATES
360
116A
  0
DICTIONARY
  5
10BD
330
10
100
AcDbDictionary
280
     1
281
     1
  3
ADSK_XREC_LAYER_RECONCILED
360
10BE
  0
DICTIONARY
  5
10BF
330
179
100
AcDbDictionary
280
     1
281
     1
  3
ADSK_XREC_LAYER_RECONCILED
360
10C0
  0
DICTIONARY
  5
10C1
330
17A
100
AcDbDictionary
280
     1
281
     1
  3
ADSK_XREC_LAYER_RECONCILED
360
10C2
  0
DICTIONARY
  5
10C3
330
1016
100
AcDbDictionary
280
     1
281
     1
  3
ADSK_XREC_LAYER_RECONCILED
360
10C4
  0
XRECORD
  5
10BC
102
{ACAD_REACTORS
330
C
102
}
330
C
100
AcDbXrecord
280
     1
300
ACDLT
300
2014
300
INVLTS_F_S
  0
DICTIONARY
  5
10B3
102
{ACAD_REACTORS
330
C
102
}
330
C
100
AcDbDictionary
281
     1
  0
DICTIONARY
  5
10B9
102
{ACAD_REACTORS
330
C
102
}
330
C
100
AcDbDictionary
281
     1
  3
Metric50
350
10BA
  0
DICTIONARY
  5
D
102
{ACAD_REACTORS
330
C
102
}
330
C
100
AcDbDictionary
281
     1
  0
DICTIONARY
  5
1A
102
{ACAD_REACTORS
330
C
102
}
330
C
100
AcDbDictionary
281
     1
  3
Layout1
350
1E
  3
Layout2
350
26
  3
Model
350
22
  0
DICTIONARY
  5
43
102
{ACAD_REACTORS
330
C
102
}
330
C
100
AcDbDictionary
281
     1
  3
ByBlock
350
45
  3
ByLayer
350
44
  3
Global
350
46
  0
DICTIONARY
  5
1026
102
{ACAD_REACTORS
330
C
102
}
330
C
100
AcDbDictionary
281
     1
  3
Standard
350
10B6
  0
DICTIONARY
  5
17
102
{ACAD_REACTORS
330
C
102
}
330
C
100
AcDbDictionary
281
     1
  3
Standard
350
18
  0
DICTIONARY
  5
19
102
{ACAD_REACTORS
330
C
102
}
330
C
100
AcDbDictionary
281
     1
  0
ACDBDICTIONARYWDFLT
  5
E
102
{ACAD_REACTORS
330
C
102
}
330
C
100
AcDbDictionary
281
     1
  3
Normal
350
F
100
AcDbDictionaryWithDefault
340
F
  0
DICTIONARY
  5
47
102
{ACAD_REACTORS
330
C
102
}
330
C
100
AcDbDictionary
281
     1
  3
A0
350
48
  3
A1
350
49
  3
A2
350
4A
  3
A3
350
4B
  3
A4
350
4C
  3
A5
350
4D
  3
A6
350
4E
  3
A7
350
4F
  3
A8
350
50
  3
A9
350
51
  3
B0
350
52
  3
B1
350
53
  3
B2
350
54
  3
B3
350
55
  3
B4
350
56
  3
B5
350
57
  3
B6
350
58
  3
B7
350
59
  3
B8
350
5A
  3
B9
350
5B
  3
C0
350
5C
  3
C1
350
5D
  3
C2
350
5E
  3
C3
350
5F
  3
C4
350
60
  3
C5
350
61
  3
C6
350
62
  3
C7
350
63
  3
C8
350
64
  3
C9
350
65
  3
D0
350
66
  3
D1
350
67
  3
D2
350
68
  0
DICTIONARY
  5
10B7
102
{ACAD_REACTORS
330
C
102
}
330
C
100
AcDbDictionary
281
     1
  3
Metric50
350
10B8
  0
DICTIONARY
  5
10B4
102
{ACAD_REACTORS
330
C
102
}
330
C
100
AcDbDictionary
281
     1
  3
Standard
350
10B5
  0
DICTIONARY
  5
2A
102
{ACAD_REACTORS
330
C
102
}
330
C
100
AcDbDictionary
281
     1
  3
2dWireframe
350
2F
  3
Basic
350
32
  3
Brighten
350
36
  3
ColorChange
350
3A
  3
Conceptual
350
34
  3
Dim
350
35
  3
EdgeColorOff
350
3D
  3
Facepattern
350
39
  3
Flat
350
2B
  3
FlatWithEdges
350
2C
  3
Gouraud
350
2D
  3
GouraudWithEdges
350
2E
  3
Hidden
350
31
  3
JitterOff
350
3B
  3
Linepattern
350
38
  3
OverhangOff
350
3C
  3
Realistic
350
33
  3
Shaded
350
42
  3
Shaded with edges
350
41
  3
Shades of Gray
350
3E
  3
Sketchy
350
3F
  3
Thicken
350
37
  3
Wireframe
350
30
  3
X-Ray
350
40
  0
XRECORD
  5
1302
102
{ACAD_REACTORS
330
C
102
}
330
C
100
AcDbXrecord
280
     1
 90
        1
330
10B5
  0
DICTIONARY
  5
1024
102
{ACAD_REACTORS
330
C
102
}
330
C
100
AcDbDictionary
281
     1
  3
CANNOSCALE
350
102F
  3
CMLEADERSTYLE
350
11BF
  3
CTABLESTYLE
350
11BE
  3
CVIEWDETAILSTYLE
350
11C0
  3
CVIEWSECTIONSTYLE
350
11C1
  3
DIMASSOC
350
102B
  3
HIDETEXT
350
102C
  3
LAYEREVAL
350
12B8
  3
LAYERNOTIFY
350
12B9
  3
LIGHTINGUNITS
350
12B7
  3
MSLTSCALE
350
1030
  0
DICTIONARY
  5
1308
102
{ACAD_REACTORS
330
C
102
}
330
C
100
AcDbDictionary
281
     1
  3
AcDsRecords
350
130A
  3
AcDsSchemas
350
1309
1001
ACAD
1070
     2
  0
DICTIONARY
  5
116A
102
{ACAD_REACTORS
330
1169
102
}
330
1169
100
AcDbDictionary
281
     1
  0
XRECORD
  5
10BE
102
{ACAD_REACTORS
330
10BD
102
}
330
10BD
100
AcDbXrecord
280
     1
290
     1
  0
XRECORD
  5
10C0
102
{ACAD_REACTORS
330
10BF
102
}
330
10BF
100
AcDbXrecord
280
     1
290
     1
  0
XRECORD
  5
10C2
102
{ACAD_REACTORS
330
10C1
102
}
330
10C1
100
AcDbXrecord
280
     1
290
     1
  0
XRECORD
  5
10C4
102
{ACAD_REACTORS
330
10C3
102
}
330
10C3
100
AcDbXrecord
280
     1
290
     1
  0
ACDBDETAILVIEWSTYLE
  5
10BA
102
{ACAD_XDICTIONARY
360
133D
102
}
102
{ACAD_REACTORS
330
10B9
102
}
330
10B9
100
AcDbModelDocViewStyle
 70
     0
  3
Metric50
290
     0
100
AcDbDetailViewStyle
 70
     0
 71
     0
 90
        3
 71
     1
340
11
 62
   256
 40
5.0
340
0
 62
   256
 40
5.0
300

 40
0.0
280
     1
 71
     2
340
16
 90
       25
 62
   256
 71
     3
340
11
 62
   256
 40
5.0
 90
        0
 40
15.0
 90
        1
300
%<\AcVar ViewDetailId>% (%<\AcVar ViewScale \f "%sn">%)
 71
     4
340
16
 90
       25
 62
   256
340
16
 90
       25
 62
   256
280
     0
  0
LAYOUT
  5
1E
102
{ACAD_REACTORS
330
1A
102
}
330
1A
100
AcDbPlotSettings
  1

  2
none_device
  4

  6

 40
0.0
 41
0.0
 42
0.0
 43
0.0
 44
0.0
 45
0.0
 46
0.0
 47
0.0
 48
0.0
 49
0.0
140
0.0
141
0.0
142
1.0
143
1.0
 70
   688
 72
     1
 73
     0
 74
     5
  7
monochrome.ctb
 75
    16
147
1.0
 76
     0
 77
     2
 78
   300
148
0.0
149
0.0
100
AcDbLayout
  1
Layout1
 70
     1
 71
     1
 10
-1217.469860923123
 20
-609.2015744160847
 11
33.02128105164765
 21
252.8391924679877
 12
0.0
 22
0.0
 32
0.0
 14
1.000000000000000E+20
 24
1.000000000000000E+20
 34
1.000000000000000E+20
 15
-1.000000000000000E+20
 25
-1.000000000000000E+20
 35
-1.000000000000000E+20
146
0.0
 13
0.0
 23
0.0
 33
0.0
 16
1.0
 26
0.0
 36
0.0
 17
0.0
 27
1.0
 37
0.0
 76
     0
330
1B
  0
LAYOUT
  5
26
102
{ACAD_REACTORS
330
1A
102
}
330
1A
100
AcDbPlotSettings
  1

  2
none_device
  4

  6

 40
0.0
 41
0.0
 42
0.0
 43
0.0
 44
0.0
 45
0.0
 46
0.0
 47
0.0
 48
0.0
 49
0.0
140
0.0
141
0.0
142
1.0
143
1.0
 70
   688
 72
     1
 73
     0
 74
     5
  7
monochrome.ctb
 75
    16
147
1.0
 76
     0
 77
     2
 78
   300
148
0.0
149
0.0
100
AcDbLayout
  1
Layout2
 70
     1
 71
     2
 10
0.0
 20
0.0
 11
0.0
 21
0.0
 12
0.0
 22
0.0
 32
0.0
 14
0.0
 24
0.0
 34
0.0
 15
0.0
 25
0.0
 35
0.0
146
0.0
 13
0.0
 23
0.0
 33
0.0
 16
1.0
 26
0.0
 36
0.0
 17
0.0
 27
1.0
 37
0.0
 76
     0
330
23
  0
LAYOUT
  5
22
102
{ACAD_XDICTIONARY
360
117C
102
}
102
{ACAD_REACTORS
330
1A
102
}
330
1A
100
AcDbPlotSettings
  1

  2
none_device
  4
Letter_(8.50_x_11.00_Inches)
  6

 40
6.349999999999999
 41
6.349999999999999
 42
6.350005079999999
 43
6.350005079999999
 44
215.9
 45
279.4
 46
0.0
 47
0.0
 48
0.0
 49
0.0
140
0.0
141
0.0
142
1.0
143
1.0
 70
  1712
 72
     1
 73
     0
 74
     0
  7
monochrome.ctb
 75
     0
147
1.0
 76
     0
 77
     2
 78
   300
148
0.0
149
0.0
100
AcDbLayout
  1
Model
 70
     1
 71
     0
 10
-1217.469860923123
 20
-609.2015744160847
 11
33.02128105164765
 21
252.8391924679877
 12
0.0
 22
0.0
 32
0.0
 14
-1217.469860923123
 24
-609.2015744160847
 34
0.0
 15
33.02128105164765
 25
252.8391924679877
 35
0.0
146
0.0
 13
0.0
 23
0.0
 33
0.0
 16
1.0
 26
0.0
 36
0.0
 17
0.0
 27
1.0
 37
0.0
 76
     0
330
1F
331
29
  0
MATERIAL
  5
45
102
{ACAD_REACTORS
330
43
102
}
330
43
100
AcDbMaterial
  1
ByBlock
  0
MATERIAL
  5
44
102
{ACAD_REACTORS
330
43
102
}
330
43
100
AcDbMaterial
  1
ByLayer
  0
MATERIAL
  5
46
102
{ACAD_REACTORS
330
43
102
}
330
43
100
AcDbMaterial
  1
Global
  0
MLEADERSTYLE
  5
10B6
102
{ACAD_REACTORS
330
1026
102
}
330
1026
100
AcDbMLeaderStyle
179
     2
170
     2
171
     1
172
     0
 90
        2
 40
0.0
 41
0.0
173
     1
 91
-1056964608
340
14
 92
       -2
290
     1
 42
2.0
291
     1
 43
0.36
  3
Standard
 44
4.0
300

342
11
174
     1
178
     6
175
     1
176
     0
 93
-1056964608
 45
4.0
292
     0
297
     0
 46
4.0
 94
-1056964608
 47
1.0
 49
1.0
140
1.0
293
     1
141
0.0
294
     1
177
     0
142
1.0
295
     0
296
     0
143
0.125
271
     0
272
     9
273
     9
  0
MLINESTYLE
  5
18
102
{ACAD_REACTORS
330
17
102
}
330
17
100
AcDbMlineStyle
  2
STANDARD
 70
     0
  3

 62
   256
 51
90.0
 52
90.0
 71
     2
 49
0.5
 62
   256
  6
BYLAYER
 49
-0.5
 62
   256
  6
BYLAYER
  0
ACDBPLACEHOLDER
  5
F
102
{ACAD_REACTORS
330
E
102
}
330
E
  0
SCALE
  5
48
102
{ACAD_REACTORS
330
47
102
}
330
47
100
AcDbScale
 70
     0
300
1:1
140
1.0
141
1.0
290
     1
  0
SCALE
  5
49
102
{ACAD_REACTORS
330
47
102
}
330
47
100
AcDbScale
 70
     0
300
1:2
140
1.0
141
2.0
290
     0
  0
SCALE
  5
4A
102
{ACAD_REACTORS
330
47
102
}
330
47
100
AcDbScale
 70
     0
300
1:4
140
1.0
141
4.0
290
     0
  0
SCALE
  5
4B
102
{ACAD_REACTORS
330
47
102
}
330
47
100
AcDbScale
 70
     0
300
1:5
140
1.0
141
5.0
290
     0
  0
SCALE
  5
4C
102
{ACAD_REACTORS
330
47
102
}
330
47
100
AcDbScale
 70
     0
300
1:8
140
1.0
141
8.0
290
     0
  0
SCALE
  5
4D
102
{ACAD_REACTORS
330
47
102
}
330
47
100
AcDbScale
 70
     0
300
1:10
140
1.0
141
10.0
290
     0
  0
SCALE
  5
4E
102
{ACAD_REACTORS
330
47
102
}
330
47
100
AcDbScale
 70
     0
300
1:16
140
1.0
141
16.0
290
     0
  0
SCALE
  5
4F
102
{ACAD_REACTORS
330
47
102
}
330
47
100
AcDbScale
 70
     0
300
1:20
140
1.0
141
20.0
290
     0
  0
SCALE
  5
50
102
{ACAD_REACTORS
330
47
102
}
330
47
100
AcDbScale
 70
     0
300
1:30
140
1.0
141
30.0
290
     0
  0
SCALE
  5
51
102
{ACAD_REACTORS
330
47
102
}
330
47
100
AcDbScale
 70
     0
300
1:40
140
1.0
141
40.0
290
     0
  0
SCALE
  5
52
102
{ACAD_REACTORS
330
47
102
}
330
47
100
AcDbScale
 70
     0
300
1:50
140
1.0
141
50.0
290
     0
  0
SCALE
  5
53
102
{ACAD_REACTORS
330
47
102
}
330
47
100
AcDbScale
 70
     0
300
1:100
140
1.0
141
100.0
290
     0
  0
SCALE
  5
54
102
{ACAD_REACTORS
330
47
102
}
330
47
100
AcDbScale
 70
     0
300
2:1
140
2.0
141
1.0
290
     0
  0
SCALE
  5
55
102
{ACAD_REACTORS
330
47
102
}
330
47
100
AcDbScale
 70
     0
300
4:1
140
4.0
141
1.0
290
     0
  0
SCALE
  5
56
102
{ACAD_REACTORS
330
47
102
}
330
47
100
AcDbScale
 70
     0
300
8:1
140
8.0
141
1.0
290
     0
  0
SCALE
  5
57
102
{ACAD_REACTORS
330
47
102
}
330
47
100
AcDbScale
 70
     0
300
10:1
140
10.0
141
1.0
290
     0
  0
SCALE
  5
58
102
{ACAD_REACTORS
330
47
102
}
330
47
100
AcDbScale
 70
     0
300
100:1
140
100.0
141
1.0
290
     0
  0
SCALE
  5
59
102
{ACAD_REACTORS
330
47
102
}
330
47
100
AcDbScale
 70
     0
300
1/128" = 1'-0"
140
0.0078125
141
12.0
290
     0
  0
SCALE
  5
5A
102
{ACAD_REACTORS
330
47
102
}
330
47
100
AcDbScale
 70
     0
300
1/64" = 1'-0"
140
0.015625
141
12.0
290
     0
  0
SCALE
  5
5B
102
{ACAD_REACTORS
330
47
102
}
330
47
100
AcDbScale
 70
     0
300
1/32" = 1'-0"
140
0.03125
141
12.0
290
     0
  0
SCALE
  5
5C
102
{ACAD_REACTORS
330
47
102
}
330
47
100
AcDbScale
 70
     0
300
1/16" = 1'-0"
140
0.0625
141
12.0
290
     0
  0
SCALE
  5
5D
102
{ACAD_REACTORS
330
47
102
}
330
47
100
AcDbScale
 70
     0
300
3/32" = 1'-0"
140
0.09375
141
12.0
290
     0
  0
SCALE
  5
5E
102
{ACAD_REACTORS
330
47
102
}
330
47
100
AcDbScale
 70
     0
300
1/8" = 1'-0"
140
0.125
141
12.0
290
     0
  0
SCALE
  5
5F
102
{ACAD_REACTORS
330
47
102
}
330
47
100
AcDbScale
 70
     0
300
3/16" = 1'-0"
140
0.1875
141
12.0
290
     0
  0
SCALE
  5
60
102
{ACAD_REACTORS
330
47
102
}
330
47
100
AcDbScale
 70
     0
300
1/4" = 1'-0"
140
0.25
141
12.0
290
     0
  0
SCALE
  5
61
102
{ACAD_REACTORS
330
47
102
}
330
47
100
AcDbScale
 70
     0
300
3/8" = 1'-0"
140
0.375
141
12.0
290
     0
  0
SCALE
  5
62
102
{ACAD_REACTORS
330
47
102
}
330
47
100
AcDbScale
 70
     0
300
1/2" = 1'-0"
140
0.5
141
12.0
290
     0
  0
SCALE
  5
63
102
{ACAD_REACTORS
330
47
102
}
330
47
100
AcDbScale
 70
     0
300
3/4" = 1'-0"
140
0.75
141
12.0
290
     0
  0
SCALE
  5
64
102
{ACAD_REACTORS
330
47
102
}
330
47
100
AcDbScale
 70
     0
300
1" = 1'-0"
140
1.0
141
12.0
290
     0
  0
SCALE
  5
65
102
{ACAD_REACTORS
330
47
102
}
330
47
100
AcDbScale
 70
     0
300
1-1/2" = 1'-0"
140
1.5
141
12.0
290
     0
  0
SCALE
  5
66
102
{ACAD_REACTORS
330
47
102
}
330
47
100
AcDbScale
 70
     0
300
3" = 1'-0"
140
3.0
141
12.0
290
     0
  0
SCALE
  5
67
102
{ACAD_REACTORS
330
47
102
}
330
47
100
AcDbScale
 70
     0
300
6" = 1'-0"
140
6.0
141
12.0
290
     0
  0
SCALE
  5
68
102
{ACAD_REACTORS
330
47
102
}
330
47
100
AcDbScale
 70
     0
300
1'-0" = 1'-0"
140
12.0
141
12.0
290
     0
  0
ACDBSECTIONVIEWSTYLE
  5
10B8
102
{ACAD_XDICTIONARY
360
133B
102
}
102
{ACAD_REACTORS
330
10B7
102
}
330
10B7
100
AcDbModelDocViewStyle
 70
     0
  3
Metric50
290
     0
100
AcDbSectionViewStyle
 70
     0
 71
     0
 90
      102
 71
     1
340
11
 62
   256
 40
5.0
340
0
340
0
 62
   256
 40
5.0
300
I, O, Q, S, X, Z
 40
10.0
 90
        0
 40
2.5
 90
        0
 71
     2
340
16
 90
       25
 62
   256
340
16
 90
       50
 62
   256
 40
5.0
 40
2.5
 40
5.0
 71
     3
340
11
 62
   256
 40
5.0
 90
        0
 40
15.0
 90
        1
300
%<\AcVar ViewSectionStartId>%-%<\AcVar ViewSectionEndId>% (%<\AcVar ViewScale \f "%sn">%)
 71
     4
 62
   256
 62
   257
300
ANSI31
 40
1.0
 90
        0
290
     0
290
     0
 90
        6
 40
0.0
 40
1.570796326794896
 40
0.2617993877991494
 40
1.308996938995747
 40
-0.2617993877991494
 40
1.832595714594046
  0
TABLESTYLE
  5
10B5
102
{ACAD_XDICTIONARY
360
116F
102
}
102
{ACAD_REACTORS
330
10B4
102
}
330
10B4
100
AcDbTableStyle
280
     0
  3
Standard
 70
     0
 71
     0
 40
1.5
 41
1.5
280
     0
281
     0
  7
Standard
140
4.5
170
     2
 62
     0
 63
     7
283
     0
 90
      512
 91
        0
  1

274
    -2
284
     1
 64
     0
275
    -2
285
     1
 65
     0
276
    -2
286
     1
 66
     0
277
    -2
287
     1
 67
     0
278
    -2
288
     1
 68
     0
279
    -2
289
     1
 69
     0
  7
Standard
140
6.0
170
     5
 62
     0
 63
     7
283
     0
 90
      512
 91
        0
  1

274
    -2
284
     1
 64
     0
275
    -2
285
     1
 65
     0
276
    -2
286
     1
 66
     0
277
    -2
287
     1
 67
     0
278
    -2
288
     1
 68
     0
279
    -2
289
     1
 69
     0
  7
Standard
140
4.5
170
     5
 62
     0
 63
     7
283
     0
 90
      512
 91
        0
  1

274
    -2
284
     1
 64
     0
275
    -2
285
     1
 65
     0
276
    -2
286
     1
 66
     0
277
    -2
287
     1
 67
     0
278
    -2
288
     1
 68
     0
279
    -2
289
     1
 69
     0
  0
VISUALSTYLE
  5
2F
102
{ACAD_XDICTIONARY
360
1313
102
}
102
{ACAD_REACTORS
330
2A
102
}
330
2A
100
AcDbVisualStyle
  2

 70
     4
177
     2
291
     0
 71
     0
176
     1
 72
     2
176
     1
 73
     0
176
     1
 90
        0
176
     1
 40
0.6
176
     1
 41
30.0
176
     1
 63
     7
176
     1
 74
     1
176
     1
 91
        4
176
     1
 64
     7
176
     1
 65
   257
176
     1
 75
     1
176
     1
175
     1
176
     1
 42
1.0
176
     1
 92
        0
176
     1
 66
   257
176
     1
 43
1.0
176
     1
 76
     1
176
     1
 77
     6
176
     1
 78
     2
176
     1
 67
     7
176
     1
 79
     5
176
     1
170
     0
176
     1
171
     0
176
     1
290
     0
176
     1
 93
        1
176
     1
 44
0.0
176
     1
173
     0
176
     1
1001
ACAD
1000
AcDbSavedByObjectVersion
1070
     0
  0
VISUALSTYLE
  5
32
102
{ACAD_XDICTIONARY
360
1319
102
}
102
{ACAD_REACTORS
330
2A
102
}
330
2A
100
AcDbVisualStyle
  2

 70
     7
177
     2
291
     1
 71
     1
176
     1
 72
     0
176
     1
 73
     1
176
     1
 90
        0
176
     1
 40
0.6
176
     1
 41
30.0
176
     1
 63
     7
176
     1
 74
     0
176
     1
 91
        4
176
     1
 64
     7
176
     1
 65
   257
176
     1
 75
     1
176
     1
175
     1
176
     1
 42
1.0
176
     1
 92
        8
176
     1
 66
     7
176
     1
 43
1.0
176
     1
 76
     1
176
     1
 77
     6
176
     1
 78
     2
176
     1
 67
     7
176
     1
 79
     5
176
     1
170
     0
176
     1
171
     0
176
     1
290
     0
176
     1
 93
        1
176
     1
 44
0.0
176
     1
173
     0
176
     1
1001
ACAD
1000
AcDbSavedByObjectVersion
1070
     0
  0
VISUALSTYLE
  5
36
102
{ACAD_XDICTIONARY
360
1321
102
}
102
{ACAD_REACTORS
330
2A
102
}
330
2A
100
AcDbVisualStyle
  2

 70
    12
177
     2
291
     1
 71
     2
176
     1
 72
     2
176
     1
 73
     0
176
     1
 90
        0
176
     1
 40
0.6
176
     1
 41
30.0
176
     1
 63
     7
176
     1
 74
     1
176
     1
 91
        4
176
     1
 64
     7
176
     1
 65
   257
176
     1
 75
     1
176
     1
175
     1
176
     1
 42
1.0
176
     1
 92
        8
176
     1
 66
     7
176
     1
 43
1.0
176
     1
 76
     1
176
     1
 77
     6
176
     1
 78
     2
176
     1
 67
     7
176
     1
 79
     5
176
     1
170
     0
176
     1
171
     0
176
     1
290
     0
176
     1
 93
        1
176
     1
 44
50.0
176
     1
173
     0
176
     1
1001
ACAD
1000
AcDbSavedByObjectVersion
1070
     0
  0
VISUALSTYLE
  5
3A
102
{ACAD_XDICTIONARY
360
1329
102
}
102
{ACAD_REACTORS
330
2A
102
}
330
2A
100
AcDbVisualStyle
  2

 70
    16
177
     2
291
     1
 71
     2
176
     1
 72
     2
176
     1
 73
     3
176
     1
 90
        0
176
     1
 40
0.6
176
     1
 41
30.0
176
     1
 63
     8
176
     1
 74
     1
176
     1
 91
        4
176
     1
 64
     7
176
     1
 65
   257
176
     1
 75
     1
176
     1
175
     1
176
     1
 42
1.0
176
     1
 92
        8
176
     1
 66
     8
176
     1
 43
1.0
176
     1
 76
     1
176
     1
 77
     6
176
     1
 78
     2
176
     1
 67
     7
176
     1
 79
     5
176
     1
170
     0
176
     1
171
     0
176
     1
290
     0
176
     1
 93
        1
176
     1
 44
0.0
176
     1
173
     0
176
     1
1001
ACAD
1000
AcDbSavedByObjectVersion
1070
     0
  0
VISUALSTYLE
  5
34
102
{ACAD_XDICTIONARY
360
131D
102
}
102
{ACAD_REACTORS
330
2A
102
}
330
2A
100
AcDbVisualStyle
  2

 70
     9
177
     2
291
     0
 71
     3
176
     1
 72
     2
176
     1
 73
     0
176
     1
 90
        0
176
     1
 40
0.6
176
     1
 41
30.0
176
     1
 63
     7
176
     1
 74
     2
176
     1
 91
        2
176
     1
 64
     7
176
     1
 65
   257
176
     1
 75
     1
176
     1
175
     1
176
     1
 42
179.0
176
     1
 92
        8
176
     1
 66
     7
176
     1
 43
1.0
176
     1
 76
     1
176
     1
 77
     6
176
     1
 78
     2
176
     1
 67
     7
176
     1
 79
     3
176
     1
170
     0
176
     1
171
     0
176
     1
290
     0
176
     1
 93
        1
176
     1
 44
0.0
176
     1
173
     0
176
     1
1001
ACAD
1000
AcDbSavedByObjectVersion
1070
     0
  0
VISUALSTYLE
  5
35
102
{ACAD_XDICTIONARY
360
131F
102
}
102
{ACAD_REACTORS
330
2A
102
}
330
2A
100
AcDbVisualStyle
  2

 70
    11
177
     2
291
     1
 71
     2
176
     1
 72
     2
176
     1
 73
     0
176
     1
 90
        0
176
     1
 40
0.6
176
     1
 41
30.0
176
     1
 63
     7
176
     1
 74
     1
176
     1
 91
        4
176
     1
 64
     7
176
     1
 65
   257
176
     1
 75
     1
176
     1
175
     1
176
     1
 42
1.0
176
     1
 92
        8
176
     1
 66
     7
176
     1
 43
1.0
176
     1
 76
     1
176
     1
 77
     6
176
     1
 78
     2
176
     1
 67
     7
176
     1
 79
     5
176
     1
170
     0
176
     1
171
     0
176
     1
290
     0
176
     1
 93
        1
176
     1
 44
-50.0
176
     1
173
     0
176
     1
1001
ACAD
1000
AcDbSavedByObjectVersion
1070
     0
  0
VISUALSTYLE
  5
3D
102
{ACAD_XDICTIONARY
360
132F
102
}
102
{ACAD_REACTORS
330
2A
102
}
330
2A
100
AcDbVisualStyle
  2

 70
    22
177
     2
291
     1
 71
     2
176
     0
 72
     2
176
     0
 73
     0
176
     0
 90
        0
176
     0
 40
0.6
176
     0
 41
30.0
176
     0
 63
     7
176
     0
 74
     1
176
     0
 91
        4
176
     0
 64
     7
176
     0
 65
   257
176
     0
 75
     1
176
     0
175
     1
176
     0
 42
1.0
176
     0
 92
        8
176
     2
 66
     7
176
     0
 43
1.0
176
     0
 76
     1
176
     0
 77
     6
176
     0
 78
     2
176
     0
 67
     7
176
     0
 79
     5
176
     0
170
     0
176
     0
171
     0
176
     0
290
     0
176
     0
 93
        1
176
     0
 44
0.0
176
     0
173
     0
176
     0
1001
ACAD
1000
AcDbSavedByObjectVersion
1070
     0
  0
VISUALSTYLE
  5
39
102
{ACAD_XDICTIONARY
360
1327
102
}
102
{ACAD_REACTORS
330
2A
102
}
330
2A
100
AcDbVisualStyle
  2

 70
    15
177
     2
291
     1
 71
     2
176
     1
 72
     2
176
     1
 73
     0
176
     1
 90
        0
176
     1
 40
0.6
176
     1
 41
30.0
176
     1
 63
     7
176
     1
 74
     1
176
     1
 91
        4
176
     1
 64
     7
176
     1
 65
   257
176
     1
 75
     1
176
     1
175
     1
176
     1
 42
1.0
176
     1
 92
        8
176
     1
 66
     7
176
     1
 43
1.0
176
     1
 76
     1
176
     1
 77
     6
176
     1
 78
     2
176
     1
 67
     7
176
     1
 79
     5
176
     1
170
     0
176
     1
171
     0
176
     1
290
     0
176
     1
 93
        1
176
     1
 44
0.0
176
     1
173
     0
176
     1
1001
ACAD
1000
AcDbSavedByObjectVersion
1070
     0
  0
VISUALSTYLE
  5
2B
102
{ACAD_XDICTIONARY
360
130B
102
}
102
{ACAD_REACTORS
330
2A
102
}
330
2A
100
AcDbVisualStyle
  2

 70
     0
177
     2
291
     1
 71
     2
176
     1
 72
     1
176
     1
 73
     1
176
     1
 90
        2
176
     1
 40
0.6
176
     1
 41
30.0
176
     1
 63
     7
176
     1
 74
     0
176
     1
 91
        0
176
     1
 64
     7
176
     1
 65
   257
176
     1
 75
     1
176
     1
175
     1
176
     1
 42
1.0
176
     1
 92
        8
176
     1
 66
     7
176
     1
 43
1.0
176
     1
 76
     1
176
     1
 77
     6
176
     1
 78
     2
176
     1
 67
     7
176
     1
 79
     5
176
     1
170
     0
176
     1
171
     0
176
     1
290
     0
176
     1
 93
       13
176
     1
 44
0.0
176
     1
173
     0
176
     1
1001
ACAD
1000
AcDbSavedByObjectVersion
1070
     0
  0
VISUALSTYLE
  5
2C
102
{ACAD_XDICTIONARY
360
130D
102
}
102
{ACAD_REACTORS
330
2A
102
}
330
2A
100
AcDbVisualStyle
  2

 70
     1
177
     2
291
     1
 71
     2
176
     1
 72
     1
176
     1
 73
     1
176
     1
 90
        2
176
     1
 40
0.6
176
     1
 41
30.0
176
     1
 63
     7
176
     1
 74
     1
176
     1
 91
        0
176
     1
 64
     7
176
     1
 65
   257
176
     1
 75
     1
176
     1
175
     1
176
     1
 42
1.0
176
     1
 92
        0
176
     1
 66
   257
176
     1
 43
1.0
176
     1
 76
     1
176
     1
 77
     6
176
     1
 78
     2
176
     1
 67
     7
176
     1
 79
     5
176
     1
170
     0
176
     1
171
     0
176
     1
290
     0
176
     1
 93
       13
176
     1
 44
0.0
176
     1
173
     0
176
     1
1001
ACAD
1000
AcDbSavedByObjectVersion
1070
     0
  0
VISUALSTYLE
  5
2D
102
{ACAD_XDICTIONARY
360
130F
102
}
102
{ACAD_REACTORS
330
2A
102
}
330
2A
100
AcDbVisualStyle
  2

 70
     2
177
     2
291
     1
 71
     2
176
     1
 72
     2
176
     1
 73
     1
176
     1
 90
        2
176
     1
 40
0.6
176
     1
 41
30.0
176
     1
 63
     7
176
     1
 74
     0
176
     1
 91
        0
176
     1
 64
     7
176
     1
 65
   257
176
     1
 75
     1
176
     1
175
     1
176
     1
 42
1.0
176
     1
 92
        0
176
     1
 66
     7
176
     1
 43
1.0
176
     1
 76
     1
176
     1
 77
     6
176
     1
 78
     2
176
     1
 67
     7
176
     1
 79
     5
176
     1
170
     0
176
     1
171
     0
176
     1
290
     0
176
     1
 93
       13
176
     1
 44
0.0
176
     1
173
     0
176
     1
1001
ACAD
1000
AcDbSavedByObjectVersion
1070
     0
  0
VISUALSTYLE
  5
2E
102
{ACAD_XDICTIONARY
360
1311
102
}
102
{ACAD_REACTORS
330
2A
102
}
330
2A
100
AcDbVisualStyle
  2

 70
     3
177
     2
291
     1
 71
     2
176
     1
 72
     2
176
     1
 73
     1
176
     1
 90
        2
176
     1
 40
0.6
176
     1
 41
30.0
176
     1
 63
     7
176
     1
 74
     1
176
     1
 91
        0
176
     1
 64
     7
176
     1
 65
   257
176
     1
 75
     1
176
     1
175
     1
176
     1
 42
1.0
176
     1
 92
        0
176
     1
 66
   257
176
     1
 43
1.0
176
     1
 76
     1
176
     1
 77
     6
176
     1
 78
     2
176
     1
 67
     7
176
     1
 79
     5
176
     1
170
     0
176
     1
171
     0
176
     1
290
     0
176
     1
 93
       13
176
     1
 44
0.0
176
     1
173
     0
176
     1
1001
ACAD
1000
AcDbSavedByObjectVersion
1070
     0
  0
VISUALSTYLE
  5
31
102
{ACAD_XDICTIONARY
360
1317
102
}
102
{ACAD_REACTORS
330
2A
102
}
330
2A
100
AcDbVisualStyle
  2

 70
     6
177
     2
291
     0
 71
     1
176
     1
 72
     2
176
     1
 73
     2
176
     1
 90
        0
176
     1
 40
0.6
176
     1
 41
30.0
176
     1
 63
     7
176
     1
 74
     2
176
     1
 91
        2
176
     1
 64
     7
176
     1
 65
   257
176
     1
 75
     2
176
     1
175
     1
176
     1
 42
40.0
176
     1
 92
        0
176
     1
 66
   257
176
     1
 43
1.0
176
     1
 76
     1
176
     1
 77
     6
176
     1
 78
     2
176
     1
 67
     7
176
     1
 79
     3
176
     1
170
     0
176
     1
171
     0
176
     1
290
     0
176
     1
 93
        1
176
     1
 44
0.0
176
     1
173
     0
176
     1
1001
ACAD
1000
AcDbSavedByObjectVersion
1070
     0
  0
VISUALSTYLE
  5
3B
102
{ACAD_XDICTIONARY
360
132B
102
}
102
{ACAD_REACTORS
330
2A
102
}
330
2A
100
AcDbVisualStyle
  2

 70
    20
177
     2
291
     1
 71
     2
176
     0
 72
     2
176
     0
 73
     0
176
     0
 90
        0
176
     0
 40
0.6
176
     0
 41
30.0
176
     0
 63
     7
176
     0
 74
     1
176
     0
 91
        4
176
     0
 64
     7
176
     0
 65
   257
176
     0
 75
     1
176
     0
175
     1
176
     0
 42
1.0
176
     0
 92
       10
176
     2
 66
     7
176
     0
 43
1.0
176
     0
 76
     1
176
     0
 77
     6
176
     0
 78
     2
176
     0
 67
     7
176
     0
 79
     5
176
     0
170
     0
176
     0
171
     0
176
     0
290
     0
176
     0
 93
        1
176
     0
 44
0.0
176
     0
173
     0
176
     0
1001
ACAD
1000
AcDbSavedByObjectVersion
1070
     0
  0
VISUALSTYLE
  5
38
102
{ACAD_XDICTIONARY
360
1325
102
}
102
{ACAD_REACTORS
330
2A
102
}
330
2A
100
AcDbVisualStyle
  2

 70
    14
177
     2
291
     1
 71
     2
176
     1
 72
     2
176
     1
 73
     0
176
     1
 90
        0
176
     1
 40
0.6
176
     1
 41
30.0
176
     1
 63
     7
176
     1
 74
     1
176
     1
 91
        4
176
     1
 64
     7
176
     1
 65
   257
176
     1
 75
     7
176
     1
175
     7
176
     1
 42
1.0
176
     1
 92
        8
176
     1
 66
     7
176
     1
 43
1.0
176
     1
 76
     1
176
     1
 77
     6
176
     1
 78
     2
176
     1
 67
     7
176
     1
 79
     5
176
     1
170
     0
176
     1
171
     0
176
     1
290
     0
176
     1
 93
        1
176
     1
 44
0.0
176
     1
173
     0
176
     1
1001
ACAD
1000
AcDbSavedByObjectVersion
1070
     0
  0
VISUALSTYLE
  5
3C
102
{ACAD_XDICTIONARY
360
132D
102
}
102
{ACAD_REACTORS
330
2A
102
}
330
2A
100
AcDbVisualStyle
  2

 70
    21
177
     2
291
     1
 71
     2
176
     0
 72
     2
176
     0
 73
     0
176
     0
 90
        0
176
     0
 40
0.6
176
     0
 41
30.0
176
     0
 63
     7
176
     0
 74
     1
176
     0
 91
        4
176
     0
 64
     7
176
     0
 65
   257
176
     0
 75
     1
176
     0
175
     1
176
     0
 42
1.0
176
     0
 92
        9
176
     2
 66
     7
176
     0
 43
1.0
176
     0
 76
     1
176
     0
 77
     6
176
     0
 78
     2
176
     0
 67
     7
176
     0
 79
     5
176
     0
170
     0
176
     0
171
     0
176
     0
290
     0
176
     0
 93
        1
176
     0
 44
0.0
176
     0
173
     0
176
     0
1001
ACAD
1000
AcDbSavedByObjectVersion
1070
     0
  0
VISUALSTYLE
  5
33
102
{ACAD_XDICTIONARY
360
131B
102
}
102
{ACAD_REACTORS
330
2A
102
}
330
2A
100
AcDbVisualStyle
  2

 70
     8
177
     2
291
     0
 71
     2
176
     1
 72
     2
176
     1
 73
     0
176
     1
 90
        2
176
     1
 40
0.6
176
     1
 41
30.0
176
     1
 63
     7
176
     1
 74
     0
176
     1
 91
        0
176
     1
 64
     7
176
     1
 65
   257
176
     1
 75
     1
176
     1
175
     1
176
     1
 42
1.0
176
     1
 92
        8
176
     1
 66
   257
176
     1
 43
1.0
176
     1
 76
     1
176
     1
 77
     6
176
     1
 78
     2
176
     1
 67
     7
176
     1
 79
     3
176
     1
170
     0
176
     1
171
     0
176
     1
290
     0
176
     1
 93
       13
176
     1
 44
0.0
176
     1
173
     0
176
     1
1001
ACAD
1000
AcDbSavedByObjectVersion
1070
     0
  0
VISUALSTYLE
  5
42
102
{ACAD_XDICTIONARY
360
1339
102
}
102
{ACAD_REACTORS
330
2A
102
}
330
2A
100
AcDbVisualStyle
  2

 70
    27
177
     2
291
     0
 71
     2
176
     1
 72
     2
176
     1
 73
     1
176
     1
 90
        2
176
     1
 40
0.6
176
     1
 41
30.0
176
     1
 63
     7
176
     1
 74
     0
176
     1
 91
        4
176
     1
 64
     7
176
     1
 65
   257
176
     1
 75
     1
176
     1
175
     1
176
     1
 42
1.0
176
     1
 92
        8
176
     1
 66
   257
176
     1
 43
1.0
176
     1
 76
     1
176
     1
 77
     6
176
     1
 78
     2
176
     1
 67
     8
176
     1
 79
     3
176
     1
170
     0
176
     1
171
     0
176
     1
290
     0
176
     1
 93
        5
176
     1
 44
0.0
176
     1
173
     0
176
     1
1001
ACAD
1000
AcDbSavedByObjectVersion
1070
     0
  0
VISUALSTYLE
  5
41
102
{ACAD_XDICTIONARY
360
1337
102
}
102
{ACAD_REACTORS
330
2A
102
}
330
2A
100
AcDbVisualStyle
  2

 70
    26
177
     2
291
     0
 71
     2
176
     1
 72
     2
176
     1
 73
     1
176
     1
 90
        2
176
     1
 40
0.6
176
     1
 41
30.0
176
     1
 63
     7
176
     1
 74
     1
176
     1
 91
       10
176
     1
 64
     7
176
     1
 65
   257
176
     1
 75
     2
176
     1
175
     1
176
     1
 42
1.0
176
     1
 92
        8
176
     1
 66
   257
176
     1
 43
1.0
176
     1
 76
     1
176
     1
 77
     6
176
     1
 78
     2
176
     1
 67
     7
176
     1
 79
     3
176
     1
170
     0
176
     1
171
     0
176
     1
290
     0
176
     1
 93
        5
176
     1
 44
0.0
176
     1
173
     0
176
     1
1001
ACAD
1000
AcDbSavedByObjectVersion
1070
     0
  0
VISUALSTYLE
  5
3E
102
{ACAD_XDICTIONARY
360
1331
102
}
102
{ACAD_REACTORS
330
2A
102
}
330
2A
100
AcDbVisualStyle
  2

 70
    23
177
     2
291
     0
 71
     2
176
     1
 72
     2
176
     1
 73
     3
176
     1
 90
        0
176
     1
 40
0.6
176
     1
 41
30.0
176
     1
 63
     7
176
     1
 74
     2
176
     1
 91
        2
176
     1
 64
     7
176
     1
 65
     7
176
     1
 75
     1
176
     1
175
     1
176
     1
 42
40.0
176
     1
 92
        8
176
     1
 66
     7
176
     1
 43
1.0
176
     1
 76
     1
176
     1
 77
     6
176
     1
 78
     2
176
     1
 67
     7
176
     1
 79
     3
176
     1
170
     0
176
     1
171
     0
176
     1
290
     0
176
     1
 93
        1
176
     1
 44
0.0
176
     1
173
     0
176
     1
1001
ACAD
1000
AcDbSavedByObjectVersion
1070
     0
  0
VISUALSTYLE
  5
3F
102
{ACAD_XDICTIONARY
360
1333
102
}
102
{ACAD_REACTORS
330
2A
102
}
330
2A
100
AcDbVisualStyle
  2

 70
    24
177
     2
291
     0
 71
     1
176
     1
 72
     2
176
     1
 73
     2
176
     1
 90
        0
176
     1
 40
0.6
176
     1
 41
30.0
176
     1
 63
     7
176
     1
 74
     2
176
     1
 91
        2
176
     1
 64
     7
176
     1
 65
     7
176
     1
 75
     1
176
     1
175
     1
176
     1
 42
40.0
176
     1
 92
       11
176
     1
 66
     7
176
     1
 43
1.0
176
     1
 76
     1
176
     1
 77
     6
176
     1
 78
     2
176
     1
 67
     7
176
     1
 79
     6
176
     1
170
     0
176
     1
171
     0
176
     1
290
     0
176
     1
 93
        1
176
     1
 44
0.0
176
     1
173
     0
176
     1
1001
ACAD
1000
AcDbSavedByObjectVersion
1070
     0
  0
VISUALSTYLE
  5
37
102
{ACAD_XDICTIONARY
360
1323
102
}
102
{ACAD_REACTORS
330
2A
102
}
330
2A
100
AcDbVisualStyle
  2

 70
    13
177
     2
291
     1
 71
     2
176
     1
 72
     2
176
     1
 73
     0
176
     1
 90
        0
176
     1
 40
0.6
176
     1
 41
30.0
176
     1
 63
     7
176
     1
 74
     1
176
     1
 91
        4
176
     1
 64
     7
176
     1
 65
   257
176
     1
 75
     1
176
     1
175
     1
176
     1
 42
1.0
176
     1
 92
       12
176
     1
 66
     7
176
     1
 43
1.0
176
     1
 76
     1
176
     1
 77
     6
176
     1
 78
     2
176
     1
 67
     7
176
     1
 79
     5
176
     1
170
     0
176
     1
171
     0
176
     1
290
     0
176
     1
 93
        1
176
     1
 44
0.0
176
     1
173
     0
176
     1
1001
ACAD
1000
AcDbSavedByObjectVersion
1070
     0
  0
VISUALSTYLE
  5
30
102
{ACAD_XDICTIONARY
360
1315
102
}
102
{ACAD_REACTORS
330
2A
102
}
330
2A
100
AcDbVisualStyle
  2

 70
     5
177
     2
291
     0
 71
     0
176
     1
 72
     2
176
     1
 73
     0
176
     1
 90
        0
176
     1
 40
0.6
176
     1
 41
30.0
176
     1
 63
     7
176
     1
 74
     1
176
     1
 91
        4
176
     1
 64
     7
176
     1
 65
   257
176
     1
 75
     1
176
     1
175
     1
176
     1
 42
1.0
176
     1
 92
        0
176
     1
 66
   257
176
     1
 43
1.0
176
     1
 76
     1
176
     1
 77
     6
176
     1
 78
     2
176
     1
 67
     7
176
     1
 79
     3
176
     1
170
     0
176
     1
171
     0
176
     1
290
     0
176
     1
 93
        1
176
     1
 44
0.0
176
     1
173
     0
176
     1
1001
ACAD
1000
AcDbSavedByObjectVersion
1070
     0
  0
VISUALSTYLE
  5
40
102
{ACAD_XDICTIONARY
360
1335
102
}
102
{ACAD_REACTORS
330
2A
102
}
330
2A
100
AcDbVisualStyle
  2

 70
    25
177
     2
291
     0
 71
     2
176
     1
 72
     2
176
     1
 73
     1
176
     1
 90
        1
176
     1
 40
0.5
176
     1
 41
30.0
176
     1
 63
     7
176
     1
 74
     1
176
     1
 91
        0
176
     1
 64
     7
176
     1
 65
   257
176
     1
 75
     1
176
     1
175
     1
176
     1
 42
1.0
176
     1
 92
        8
176
     1
 66
     7
176
     1
 43
1.0
176
     1
 76
     1
176
     1
 77
     6
176
     1
 78
     2
176
     1
 67
     7
176
     1
 79
     3
176
     1
170
     0
176
     1
171
     0
176
     1
290
     0
176
     1
 93
       13
176
     1
 44
0.0
176
     1
173
     0
176
     1
1001
ACAD
1000
AcDbSavedByObjectVersion
1070
     0
  0
DICTIONARYVAR
  5
102F
102
{ACAD_REACTORS
330
1024
102
}
330
1024
100
DictionaryVariables
280
     0
  1
1:1
  0
DICTIONARYVAR
  5
11BF
102
{ACAD_REACTORS
330
1024
102
}
330
1024
100
DictionaryVariables
280
     0
  1
STANDARD
  0
DICTIONARYVAR
  5
11BE
102
{ACAD_REACTORS
330
1024
102
}
330
1024
100
DictionaryVariables
280
     0
  1
STANDARD
  0
DICTIONARYVAR
  5
11C0
102
{ACAD_REACTORS
330
1024
102
}
330
1024
100
DictionaryVariables
280
     0
  1
Metric50
  0
DICTIONARYVAR
  5
11C1
102
{ACAD_REACTORS
330
1024
102
}
330
1024
100
DictionaryVariables
280
     0
  1
Metric50
  0
DICTIONARYVAR
  5
102B
102
{ACAD_REACTORS
330
1024
102
}
330
1024
100
DictionaryVariables
280
     0
  1
2
  0
DICTIONARYVAR
  5
102C
102
{ACAD_REACTORS
330
1024
102
}
330
1024
100
DictionaryVariables
280
     0
  1
1
  0
DICTIONARYVAR
  5
12B8
102
{ACAD_REACTORS
330
1024
102
}
330
1024
100
DictionaryVariables
280
     0
  1
1
  0
DICTIONARYVAR
  5
12B9
102
{ACAD_REACTORS
330
1024
102
}
330
1024
100
DictionaryVariables
280
     0
  1
15
  0
DICTIONARYVAR
  5
12B7
102
{ACAD_REACTORS
330
1024
102
}
330
1024
100
DictionaryVariables
280
     0
  1
0
  0
DICTIONARYVAR
  5
1030
102
{ACAD_REACTORS
330
1024
102
}
330
1024
100
DictionaryVariables
280
     0
  1
1
  0
DICTIONARY
  5
130A
102
{ACAD_REACTORS
330
1308
102
}
330
1308
100
AcDbDictionary
281
     1
  0
DICTIONARY
  5
1309
102
{ACAD_REACTORS
330
1308
102
}
330
1308
100
AcDbDictionary
281
     1
  3
2129669144
350
1303
  3
2129669152
350
1304
  3
2129669160
350
1305
  3
2129669168
350
1306
  3
2129669176
350
1307
  0
DICTIONARY
  5
133D
330
10BA
100
AcDbDictionary
280
     1
281
     1
  3
ACAD_XREC_ROUNDTRIP
360
133E
  0
DICTIONARY
  5
117C
330
22
100
AcDbDictionary
280
     1
281
     1
  3
ADSK_XREC_LAYOUTTHUMBNAIL
360
117D
  0
DICTIONARY
  5
133B
330
10B8
100
AcDbDictionary
280
     1
281
     1
  3
ACAD_XREC_ROUNDTRIP
360
133C
  0
DICTIONARY
  5
116F
330
10B5
100
AcDbDictionary
280
     1
281
     1
  3
ACAD_ROUNDTRIP_2008_TABLESTYLE_CELLSTYLEMAP
360
1301
  0
DICTIONARY
  5
1313
330
2F
100
AcDbDictionary
280
     1
281
     1
  3
ACAD_XREC_ROUNDTRIP
360
1314
  0
DICTIONARY
  5
1319
330
32
100
AcDbDictionary
280
     1
281
     1
  3
ACAD_XREC_ROUNDTRIP
360
131A
  0
DICTIONARY
  5
1321
330
36
100
AcDbDictionary
280
     1
281
     1
  3
ACAD_XREC_ROUNDTRIP
360
1322
  0
DICTIONARY
  5
1329
330
3A
100
AcDbDictionary
280
     1
281
     1
  3
ACAD_XREC_ROUNDTRIP
360
132A
  0
DICTIONARY
  5
131D
330
34
100
AcDbDictionary
280
     1
281
     1
  3
ACAD_XREC_ROUNDTRIP
360
131E
  0
DICTIONARY
  5
131F
330
35
100
AcDbDictionary
280
     1
281
     1
  3
ACAD_XREC_ROUNDTRIP
360
1320
  0
DICTIONARY
  5
132F
330
3D
100
AcDbDictionary
280
     1
281
     1
  3
ACAD_XREC_ROUNDTRIP
360
1330
  0
DICTIONARY
  5
1327
330
39
100
AcDbDictionary
280
     1
281
     1
  3
ACAD_XREC_ROUNDTRIP
360
1328
  0
DICTIONARY
  5
130B
330
2B
100
AcDbDictionary
280
     1
281
     1
  3
ACAD_XREC_ROUNDTRIP
360
130C
  0
DICTIONARY
  5
130D
330
2C
100
AcDbDictionary
280
     1
281
     1
  3
ACAD_XREC_ROUNDTRIP
360
130E
  0
DICTIONARY
  5
130F
330
2D
100
AcDbDictionary
280
     1
281
     1
  3
ACAD_XREC_ROUNDTRIP
360
1310
  0
DICTIONARY
  5
1311
330
2E
100
AcDbDictionary
280
     1
281
     1
  3
ACAD_XREC_ROUNDTRIP
360
1312
  0
DICTIONARY
  5
1317
330
31
100
AcDbDictionary
280
     1
281
     1
  3
ACAD_XREC_ROUNDTRIP
360
1318
  0
DICTIONARY
  5
132B
330
3B
100
AcDbDictionary
280
     1
281
     1
  3
ACAD_XREC_ROUNDTRIP
360
132C
  0
DICTIONARY
  5
1325
330
38
100
AcDbDictionary
280
     1
281
     1
  3
ACAD_XREC_ROUNDTRIP
360
1326
  0
DICTIONARY
  5
132D
330
3C
100
AcDbDictionary
280
     1
281
     1
  3
ACAD_XREC_ROUNDTRIP
360
132E
  0
DICTIONARY
  5
131B
330
33
100
AcDbDictionary
280
     1
281
     1
  3
ACAD_XREC_ROUNDTRIP
360
131C
  0
DICTIONARY
  5
1339
330
42
100
AcDbDictionary
280
     1
281
     1
  3
ACAD_XREC_ROUNDTRIP
360
133A
  0
DICTIONARY
  5
1337
330
41
100
AcDbDictionary
280
     1
281
     1
  3
ACAD_XREC_ROUNDTRIP
360
1338
  0
DICTIONARY
  5
1331
330
3E
100
AcDbDictionary
280
     1
281
     1
  3
ACAD_XREC_ROUNDTRIP
360
1332
  0
DICTIONARY
  5
1333
330
3F
100
AcDbDictionary
280
     1
281
     1
  3
ACAD_XREC_ROUNDTRIP
360
1334
  0
DICTIONARY
  5
1323
330
37
100
AcDbDictionary
280
     1
281
     1
  3
ACAD_XREC_ROUNDTRIP
360
1324
  0
DICTIONARY
  5
1315
330
30
100
AcDbDictionary
280
     1
281
     1
  3
ACAD_XREC_ROUNDTRIP
360
1316
  0
DICTIONARY
  5
1335
330
40
100
AcDbDictionary
280
     1
281
     1
  3
ACAD_XREC_ROUNDTRIP
360
1336
  0
XRECORD
  5
1303
102
{ACAD_REACTORS
330
1309
102
}
330
1309
100
AcDbXrecord
280
     1
  1
AcDb_Thumbnail_Schema
102
{ATTRRECORD
341
1304
  2
AcDbDs::TreatedAsObjectData
280
     1
291
     1
102
ATTRRECORD}
102
{ATTRRECORD
341
1305
  2
AcDbDs::Legacy
280
     1
291
     1
102
ATTRRECORD}
  2
AcDbDs::ID
280
    10
 91
        8
102
{ATTRRECORD
341
1306
  2
AcDs:Indexable
280
     1
291
     1
102
ATTRRECORD}
102
{ATTRRECORD
341
1307
  2
AcDbDs::HandleAttribute
280
     7
282
     1
102
ATTRRECORD}
  2
Thumbnail_Data
280
    15
 91
        0
  0
XRECORD
  5
1304
102
{ACAD_REACTORS
330
1309
102
}
330
1309
100
AcDbXrecord
280
     1
  1
AcDbDs::TreatedAsObjectDataSchema
  2
AcDbDs::TreatedAsObjectData
280
     1
 91
        0
  0
XRECORD
  5
1305
102
{ACAD_REACTORS
330
1309
102
}
330
1309
100
AcDbXrecord
280
     1
  1
AcDbDs::LegacySchema
  2
AcDbDs::Legacy
280
     1
 91
        0
  0
XRECORD
  5
1306
102
{ACAD_REACTORS
330
1309
102
}
330
1309
100
AcDbXrecord
280
     1
  1
AcDbDs::IndexedPropertySchema
  2
AcDs:Indexable
280
     1
 91
        0
  0
XRECORD
  5
1307
102
{ACAD_REACTORS
330
1309
102
}
330
1309
100
AcDbXrecord
280
     1
  1
AcDbDs::HandleAttributeSchema
  2
AcDbDs::HandleAttribute
280
     7
 91
        1
284
     1
  0
XRECORD
  5
133E
102
{ACAD_REACTORS
330
133D
102
}
330
133D
100
AcDbXrecord
280
     1
102
DISPLAYNAME
  1
Metric50
102
FLAGS
 90
        0
  0
XRECORD
  5
117D
102
{ACAD_REACTORS
330
117C
102
}
330
117C
100
AcDbXrecord
280
     1
310
28000000000100006A0000000100080000000000006A000001000000010000000001000000000000302821FF000000FFC8C8C8FF000000FF000000FF000000FF000000FF000000FF000000FF000000FF000000FF330000FF660000FF990000FFCC0000FFFF0000FF003300FF333300FF663300FF993300FFCC3300FFFF3300
310
FF006600FF336600FF666600FF996600FFCC6600FFFF6600FF009900FF339900FF669900FF999900FFCC9900FFFF9900FF00CC00FF33CC00FF66CC00FF99CC00FFCCCC00FFFFCC00FF00FF00FF33FF00FF66FF00FF99FF00FFCCFF00FFFFFF00FF000033FF330033FF660033FF990033FFCC0033FFFF0033FF003333FF3333
310
33FF663333FF993333FFCC3333FFFF3333FF006633FF336633FF666633FF996633FFCC6633FFFF6633FF009933FF339933FF669933FF999933FFCC9933FFFF9933FF00CC33FF33CC33FF66CC33FF99CC33FFCCCC33FFFFCC33FF00FF33FF33FF33FF66FF33FF99FF33FFCCFF33FFFFFF33FF000066FF330066FF660066FF99
310
0066FFCC0066FFFF0066FF003366FF333366FF663366FF993366FFCC3366FFFF3366FF006666FF336666FF666666FF996666FFCC6666FFFF6666FF009966FF339966FF669966FF999966FFCC9966FFFF9966FF00CC66FF33CC66FF66CC66FF99CC66FFCCCC66FFFFCC66FF00FF66FF33FF66FF66FF66FF99FF66FFCCFF66FF
310
FFFF66FF000099FF330099FF660099FF990099FFCC0099FFFF0099FF003399FF333399FF663399FF993399FFCC3399FFFF3399FF006699FF336699FF666699FF996699FFCC6699FFFF6699FF009999FF339999FF669999FF999999FFCC9999FFFF9999FF00CC99FF33CC99FF66CC99FF99CC99FFCCCC99FFFFCC99FF00FF99
310
FF33FF99FF66FF99FF99FF99FFCCFF99FFFFFF99FF0000CCFF3300CCFF6600CCFF9900CCFFCC00CCFFFF00CCFF0033CCFF3333CCFF6633CCFF9933CCFFCC33CCFFFF33CCFF0066CCFF3366CCFF6666CCFF9966CCFFCC66CCFFFF66CCFF0099CCFF3399CCFF6699CCFF9999CCFFCC99CCFFFF99CCFF00CCCCFF33CCCCFF66CC
310
CCFF99CCCCFFCCCCCCFFFFCCCCFF00FFCCFF33FFCCFF66FFCCFF99FFCCFFCCFFCCFFFFFFCCFF0000FFFF3300FFFF6600FFFF9900FFFFCC00FFFFFF00FFFF0033FFFF3333FFFF6633FFFF9933FFFFCC33FFFFFF33FFFF0066FFFF3366FFFF6666FFFF9966FFFFCC66FFFFFF66FFFF0099FFFF3399FFFF6699FFFF9999FFFFCC
310
99FFFFFF99FFFF00CCFFFF33CCFFFF66CCFFFF99CCFFFFCCCCFFFFFFCCFFFF00FFFFFF33FFFFFF66FFFFFF99FFFFFFCCFFFFFFFFFFFFFF000000FF0D0D0DFF1A1A1AFF282828FF353535FF434343FF505050FF5D5D5DFF6B6B6BFF787878FF868686FF939393FFA1A1A1FFAEAEAEFFBBBBBBFFC9C9C9FFD6D6D6FFE4E4E4FF
310
F1F1F1FFFFFFFFFF000000FF000000FF000000FF000000FF000000FF000000FF000000FF000000FF000000FF0000000000000000000000000000000000000000000000000000000000000000000000000000000000000000000000000000000000000000000000000000000000000000000000000000000000000000000000
310
00000000000000000000000000000000000000000000000000000000000000000000000000000000000000000000000000000000000000000000000000000000000000000000000000000000000000000000000000000000000000000000000000000000000000000000000000000000000000000000000000000000000000
310
00000000000000000000000000000000000000000000000000000000000000000000000000000000000000000000000000000000000000000000000000000000000000000000000000000000000000000000000000000000000000000000000000000000000000000000000000000000000000000000000000000000000000
310
00000000000000000000000000000000000000000000000000000000000000000000000000000000000000000000000000000000000000000000000000000000000000000000000000000000000000000000000000000000000000000000000000000000000000000000000000000000000000000000000000000000000000
310
00000000000000000000000000000000000000000000000000000000000000000000000000000000000000000000000000000000000000000000000000000000000000000000000000000000000000000000000000000000000000000000000000000000000000000000000000000000000000000000000000000000000000
310
00000000000000000000000000000000000000000000000000000000000000000000000000000000000000000000000000000000000000000000000000000000000000000000000000000000000000000000000000000000000000000000000000000000000000000000000000000000000000000000000000000000000000
310
00000000000000000000000000000000000000000000000000000000000000000000000000000000000000000000000000000000000000000000000000000000000000000000000000000000000000000000000000000000000000000000000000000000000000000000000000000000000000000000000000000000000000
310
00000000000000000000000000000000000000000000000000000000000000000000000000000000000000000000000000000000000000000000000000000000000000000000000000000000000000000000000000000000000000000000000000000000000000000000000000000000000000000000000000000000000000
310
00000000000000000000000000000000000000000000000000000000000000000000000000000000000000000000000000000000000000000000000000000000000000000000000000000000000000000000000000000000000000000000000000000000000000000000000000000000000000000000000000000000000000
310
00000000000000000000000000000000000000000000000000000000000000000000000000000000000000000000000000000000000000000000000000000000000000000000000000000000000000000000000000000000000000000000000000000000000000000000000000000000000000000000000000000000000000
310
00000000000000000000000000000000000000000000000000000000000000000000000000000000000000000000000000000000000000000000000000000000000000000000000000000000000000000000000000000000000000000000000000000000000000000000000000000000000000000000000000000000000000
310
00000000000000000000000000000000000000000000000000000000000000000000000000000000000000000000000000000000000000000000000000000000000000000000000000000000000000000000000000000000000000000000000000000000000000000000000000000000000000000000000000000000000000
310
00000000000000000000000000000000000000000000000000000000000000000000000000000000000000000000000000000000000000000000000000000000000000000000000000000000000000000000000000000000000000000000000000000000000000000000000000000000000000000000000000000000000000
310
00000000000000000000000000000000000000000000000000000000000000000000000000000000000000000000000000000000000000000000000000000000000000000000000000000000000000000000000000000000000000000000000000000000000000000000000000000000000000000000000000000000000000
310
00000000000000000000000000000000000000000000000000000000000000000000000000000000000000000000000000000000000000000000000000000000000000000000000000000000000000000000000000000000000000000000000000000000000000000000000000000000000000000000000000000000000000
310
00000000000000000000000000000000000000000000000000000000000000000000000000000000000000000000000000000000000000000000000000000000000000000000000000000000000000000000000000000000000000000000000000000000000000000000000000000000000000000000000000000000000000
310
00000000000000000000000000000000000000000000000000000000000000000000000000000000000000000000000000000000000000000000000000000000000000000000000000000000000000000000000000000000000000000000000000000000000000000000000000000000000000000000000000000000000000
310
00000000000000000000000000000000000000000000000000000000000000000000000000000000000000000000000000000000000000000000000000000000000000000000000000000000000000000000000000000000000000000000000000000000000000000000000000000000000000000000000000000000000000
310
00000000000000000000000000000000000000000000000000000000000000000000000000000000000000000000000000000000000000000000000000000000000000000000000000000000000000000000000000000000000000000000000000000000000000000000000000000000000000000000000000000000000000
310
00000000000000000000000000000000000000000000000000000000000000000000000000000000000000000000000000000000000000000000000000000000000000000000000000000000000000000000000000000000000000000000000000000000000000000000000000000000000000000000000000000000000000
310
00000000000000000000000000000000000000000000000000000000000000000000000000000000000000000000000000000000000000000000000000000000000000000000000000000000000000000000000000000000000000000000000000000000000000000000000000000000000000000000000000000000000000
310
00000000000000000000000000000000000000000000000000000000000000000000000000000000000000000000000000000000000000000000000000000000000000000000000000000000000000000000000000000000000000000000000000000000000000000000000000000000000000000000000000000000000000
310
00000000000000000000000000000000000000000000000000000000000000000000000000000000000000000000000000000000000000000000000000000000000000000000000000000000000000000000000000000000000000000000000000000000000000000000000000000000000000000000000000000000000000
310
00000000000000000000000000000000000000000000000000000000000000000000000000000000000000000000000000000000000000000000000000000000000000000000000000000000000000000000000000000000000000000000000000000000000000000000000000000000000000000000000000000000000000
310
00000000000000000000000000000000000000000000000000000000000000000000000000000000000000000000000000000000000000000000000000000000000000000000000000000000000000000000000000000000000000000000000000000000000000000000000000000000000000000000000000000000000000
310
00000000000000000000000000000000000000000000000000000000000000000000000000000000000000000000000000000000000000000000000000000000000000000000000000000000000000000000000000000000000000000000000000000000000000000000000000000000000000000000000000000000000000
310
00000000000000000000000000000000000000000000000000000000000000000000000000000000000000000000000000000000000000000000000000000000000000000000000000000000000000000000000000000000000000000000000000000000000000000000000000000000000000000000000000000000000000
310
00000000000000000000000000000000000000000000000000000000000000000000000000000000000000000000000000000000000000000000000000000000000000000000000000000000000000000000000000000000000000000000000000000000000000000000000000000000000000000000000000000000000000
310
00000000000000000000000000000000000000000000000000000000000000000000000000000000000000000000000000000000000000000000000000000000000000000000000000000000000000000000000000000000000000000000000000000000000000000000000000000000000000000000000000000000000000
310
00000000000000000000000000000000000000000000000000000000000000000000000000000000000000000000000000000000000000000000000000000000000000000000000000000000000000000000000000000000000000000000000000000000000000000000000000000000000000000000000000000000000000
310
00000000000000000000000000000000000000000000000000000000000000000000000000000000000000000000000000000000000000000000000000000000000000000000000000000000000000000000000000000000000000000000000000000000000000000000000000000000000000000000000000000000000000
310
00000000000000000000000000000000000000000000000000000000000000000000000000000000000000000000000000000000000000000000000000000000000000000000000000000000000000000000000000000000000000000000000000000000000000000000000000000000000000000000000000000000000000
310
00000000000000000000000000000000000000000000000000000000000000000000000000000000000000000000000000000000000000000000000000000000000000000000000000000000000000000000000000000000000000000000000000000000000000000000000000000000000000000000000000000000000000
310
00000000000000000000000000000000000000000000000000000000000000000000000000000000000000000000000000000000000000000000000000000000000000000000000000000000000000000000000000000000000000000000000000000000000000000000000000000000000000000000000000000000000000
310
00000000000000000000000000000000000000000000000000000000000000000000000000000000000000000000000000000000000000000000000000000000000000000000000000000000000000000000000000000000000000000000000000000000000000000000000000000000000000000000000000000000000000
310
00000000000000000000000000000000000000000000000000000000000000000000000000000000000000000000000000000000000000000000000000000000000000000000000000000000000000000000000000000000000000000000000000000000000000000000000000000000000000000000000000000000000000
310
00000000000000000000000000000000000000000000000000000000000000000000000000000000000000000000000000000000000000000000000000000000000000000000000000000000000000000000000000000000000000000000000000000000000000000000000000000000000000000000000000000000000000
310
00000000000000000000000000000000000000000000000000000000000000000000000000000000000000000000000000000000000000000000000000000000000000000000000000000000000000000000000000000000000000000000000000000000000000000000000000000000000000000000000000000000000000
310
00000000000000000000000000000000000000000000000000000000000000000000000000000000000000000000000000000000000000000000000000000000000000000000000000000000000000000000000000000000000000000000000000000000000000000000000000000000000000000000000000000000000000
310
00000000000000000000000000000000000000000000000000000000000000000000000000000000000000000000000000000000000000000000000000000000000000000000000000000000000000000000000000000000000000000000000000000000000000000000000000000000000000000000000000000000000000
310
00000000000000000000000000000000000000000000000000000000000000000000000000000000000000000000000000000000000000000000000000000000000000000000000000000000000000000000000000000000000000000000000000000000000000000000000000000000000000000000000000000000000000
310
00000000000000000000000000000000000000000000000000000000000000000000000000000000000000000000000000000000000000000000000000000000000000000000000000000000000000000000000000000000000000000000000000000000000000000000000000000000000000000000000000000000000000
310
00000000000000000000000000000000000000000000000000000000000000000000000000000000000000000000000000000000000000000000000000000000000000000000000000000000000000000000000000000000000000000000000000000000000000000000000000000000000000000000000000000000000000
310
00000000000000000000000000000000000000000000000000000000000000000000000000000000000000000000000000000000000000000000000000000000000000000000000000000000000000000000000000000000000000000000000000000000000000000000000000000000000000000000000000000000000000
310
00000000000000000000000000000000000000000000000000000000000000000000000000000000000000000000000000000000000000000000000000000000000000000000000000000000000000000000000000000000000000000000000000000000000000000000000000000000000000000000000000000000000000
310
00000000000000000000000000000000000000000000000000000000000000000000000000000000000000000000000000000000000000000000000000000000000000000000000000000000000000000000000000000000000000000000000000000000000000000000000000000000000000000000000000000000000000
310
00000000000000000000000000000000000000000000000000000000000000000000000000000000000000000000000000000000000000000000000000000000000000000000000000000000000000000000000000000000000000000000000000000000000000000000000000000000000000000000000000000000000000
310
00000000000000000000000000000000000000000000000000000000000000000000000000000000000000000000000000000000000000000000000000000000000000000000000000000000000000000000000000000000000000000000000000000000000000000000000000000000000000000000000000000000000000
310
00000000000000000000000000000000000000000000000000000000000000000000000000000000000000000000000000000000000000000000000000000000000000000000000000000000000000000000000000000000000000000000000000000000000000000000000000000000000000000000000000000000000000
310
00000000000000000000000000000000000000000000000000000000000000000000000000000000000000000000000000000000000000000000000000000000000000000000000000000000000000000000000000000000000000000000000000000000000000000000000000000000000000000000000000000000000000
310
00000000000000000000000000000000000000000000000000000000000000000000000000000000000000000000000000000000000000000000000000000000000000000000000000000000000000000000000000000000000000000000000000000000000000000000000000000000000000000000000000000000000000
310
00000000000000000000000000000000000000000000000000000000000000000000000000000000000000000000000000000000000000000000000000000000000000000000000000000000000000000000000000000000000000000000000000000000000000000000000000000000000000000000000000000000000000
310
00000000000000000000000000000000000000000000000000000000000000000000000000000000000000000000000000000000000000000000000000000000000000000000000000000000000000000000000000000000000000000000000000000000000000000000000000000000000000000000000000000000000000
310
00000000000000000000000000000000000000000000000000000000000000000000000000000000000000000000000000000000000000000000000000000000000000000000000000000000000000000000000000000000000000000000000000000000000000000000000000000000000000000000000000000000000000
310
00000000000000000000000000000000000000000000000000000000000000000000000000000000000000000000000000000000000000000000000000000000000000000000000000000000000000000000000000000000000000000000000000000000000000000000000000000000000000000000000000000000000000
310
00000000000000000000000000000000000000000000000000000000000000000000000000000000000000000000000000000000000000000000000000000000000000000000000000000000000000000000000000000000000000000000000000000000000000000000000000000000000000000000000000000000000000
310
00000000000000000000000000000000000000000000000000000000000000000000000000000000000000000000000000000000000000000000000000000000000000000000000000000000000000000000000000000000000000000000000000000000000000000000000000000000000000000000000000000000000000
310
00000000000000000000000000000000000000000000000000000000000000000000000000000000000000000000000000000000000000000000000000000000000000000000000000000000000000000000000000000000000000000000000000000000000000000000000000000000000000000000000000000000000000
310
00000000000000000000000000000000000000000000000000000000000000000000000000000000000000000000000000000000000000000000000000000000000000000000000000000000000000000000000000000000000000000000000000000000000000000000000000000000000000000000000000000000000000
310
00000000000000000000000000000000000000000000000000000000000000000000000000000000000000000000000000000000000000000000000000000000000000000000000000000000000000000000000000000000000000000000000000000000000000000000000000000000000000000000000000000000000000
310
00000000000000000000000000000000000000000000000000000000000000000000000000000000000000000000000000000000000000000000000000000000000000000000000000000000000000000000000000000000000000000000000000000000000000000000000000000000000000000000000000000000000000
310
00000000000000000000000000000000000000000000000000000000000000000000000000000000000000000000000000000000000000000000000000000000000000000000000000000000000000000000000000000000000000000000000000000000000000000000000000000000000000000000000000000000000000
310
00000000000000000000000000000000000000000000000000000000000000000000000000000000000000000000000000000000000000000000000000000000000000000000000000000000000000000000000000000000000000000000000000000000000000000000000000000000000000000000000000000000000000
310
00000000000000000000000000000000000000000000000000000000000000000000000000000000000000000000000000000000000000000000000000000000000000000000000000000000000000000000000000000000000000000000000000000000000000000000000000000000000000000000000000000000000000
310
00000000000000000000000000000000000000000000000000000000000000000000000000000000000000000000000000000000000000000000000000000000000000000000000000000000000000000000000000000000000000000000000000000000000000000000000000000000000000000000000000000000000000
310
00000000000000000000000000000000000000000000000000000000000000000000000000000000000000000000000000000000000000000000000000000000000000000000000000000000000000000000000000000000000000000000000000000000000000000000000000000000000000000000000000000000000000
310
00000000000000000000000000000000000000000000000000000000000000000000000000000000000000000000000000000000000000000000000000000000000000000000000000000000000000000000000000000000000000000000000000000000000000000000000000000000000000000000000000000000000000
310
00000000000000000000000000000000000000000000000000000000000000000000000000000000000000000000000000000000000000000000000000000000000000000000000000000000000000000000000000000000000000000000000000000000000000000000000000000000000000000000000000000000000000
310
00000000000000000000000000000000000000000000000000000000000000000000000000000000000000000000000000000000000000000000000000000000000000000000000000000000000000000000000000000000000000000000000000000000000000000000000000000000000000000000000000000000000000
310
00000000000000000000000000000000000000000000000000000000000000000000000000000000000000000000000000000000000000000000000000000000000000000000000000000000000000000000000000000000000000000000000000000000000000000000000000000000000000000000000000000000000000
310
00000000000000000000000000000000000000000000000000000000000000000000000000000000000000000000000000000000000000000000000000000000000000000000000000000000000000000000000000000000000000000000000000000000000000000000000000000000000000000000000000000000000000
310
00000000000000000000000000000000000000000000000000000000000000000000000000000000000000000000000000000000000000000000000000000000000000000000000000000000000000000000000000000000000000000000000000000000000000000000000000000000000000000000000000000000000000
310
00000000000000000000000000000000000000000000000000000000000000000000000000000000000000000000000000000000000000000000000000000000000000000000000000000000000000000000000000000000000000000000000000000000000000000000000000000000000000000000000000000000000000
310
00000000000000000000000000000000000000000000000000000000000000000000000000000000000000000000000000000000000000000000000000000000000000000000000000000000000000000000000000000000000000000000000000000000000000000000000000000000000000000000000000000000000000
310
00000000000000000000000000000000000000000000000000000000000000000000000000000000000000000000000000000000000000000000000000000000000000000000000000000000000000000000000000000000000000000000000000000000000000000000000000000000000000000000000000000000000000
310
00000000000000000000000000000000000000000000000000000000000000000000000000000000000000000000000000000000000000000000000000000000000000000000000000000000000000000000000000000000000000000000000000000000000000000000000000000000000000000000000000000000000000
310
00000000000000000000000000000000000000000000000000000000000000000000000000000000000000000000000000000000000000000000000000000000000000000000000000000000000000000000000000000000000000000000000000000000000000000000000000000000000000000000000000000000000000
310
00000000000000000000000000000000000000000000000000000000000000000000000000000000000000000000000000000000000000000000000000000000000000000000000000000000000000000000000000000000000000000000000000000000000000000000000000000000000000000000000000000000000000
310
00000000000000000000000000000000000000000000000000000000000000000000000000000000000000000000000000000000000000000000000000000000000000000000000000000000000000000000000000000000000000000000000000000000000000000000000000000000000000000000000000000000000000
310
00000000000000000000000000000000000000000000000000000000000000000000000000000000000000000000000000000000000000000000000000000000000000000000000000000000000000000000000000000000000000000000000000000000000000000000000000000000000000000000000000000000000000
310
00000000000000000000000000000000000000000000000000000000000000000000000000000000000000000000000000000000000000000000000000000000000000000000000000000000000000000000000000000000000000000000000000000000000000000000000000000000000000000000000000000000000000
310
00000000000000000000000000000000000000000000000000000000000000000000000000000000000000000000000000000000000000000000000000000000000000000000000000000000000000000000000000000000000000000000000000000000000000000000000000000000000000000000000000000000000000
310
00000000000000000000000000000000000000000000000000000000000000000000000000000000000000000000000000000000000000000000000000000000000000000000000000000000000000000000000000000000000000000000000000000000000000000000000000000000000000000000000000000000000000
310
00000000000000000000000000000000000000000000000000000000000000000000000000000000000000000000000000000000000000000000000000000000000000000000000000000000000000000000000000000000000000000000000000000000000000000000000000000000000000000000000000000000000000
310
00000000000000000000000000000000000000000000000000000000000000000000000000000000000000000000000000000000000000000000000000000000000000000000000000000000000000000000000000000000000000000000000000000000000000000000000000000000000000000000000000000000000000
310
00000000000000000000000000000000000000000000000000000000000000000000000000000000000000000000000000000000000000000000000000000000000000000000000000000000000000000000000000000000000000000000000000000000000000000000000000000000000000000000000000000000000000
310
00000000000000000000000000000000000000000000000000000000000000000000000000000000000000000000000000000000000000000000000000000000000000000000000000000000000000000000000000000000000000000000000000000000000000000000000000000000000000000000000000000000000000
310
00000000000000000000000000000000000000000000000000000000000000000000000000000000000000000000000000000000000000000000000000000000000000000000000000000000000000000000000000000000000000000000000000000000000000000000000000000000000000000000000000000000000000
310
00000000000000000000000000000000000000000000000000000000000000000000000000000000000000000000000000000000000000000000000000000000000000000000000000000000000000000000000000000000000000000000000000000000000000000000000000000000000000000000000000000000000000
310
00000000000000000000000000000000000000000000000000000000000000000000000000000000000000000000000000000000000000000000000000000000000000000000000000000000000000000000000000000000000000000000000000000000000000000000000000000000000000000000000000000000000000
310
00000000000000000000000000000000000000000000000000000000000000000000000000000000000000000000000000000000000000000000000000000000000000000000000000000000000000000000000000000000000000000000000000000000000000000000000000000000000000000000000000000000000000
310
00000000000000000000000000000000000000000000000000000000000000000000000000000000000000000000000000000000000000000000000000000000000000000000000000000000000000000000000000000000000000000000000000000000000000000000000000000000000000000000000000000000000000
310
00000000000000000000000000000000000000000000000000000000000000000000000000000000000000000000000000000000000000000000000000000000000000000000000000000000000000000000000000000000000000000000000000000000000000000000000000000000000000000000000000000000000000
310
00000000000000000000000000000000000000000000000000000000000000000000000000000000000000000000000000000000000000000000000000000000000000000000000000000000000000000000000000000000000000000000000000000000000000000000000000000000000000000000000000000000000000
310
00000000000000000000000000000000000000000000000000000000000000000000000000000000000000000000000000000000000000000000000000000000000000000000000000000000000000000000000000000000000000000000000000000000000000000000000000000000000000000000000000000000000000
310
00000000000000000000000000000000000000000000000000000000000000000000000000000000000000000000000000000000000000000000000000000000000000000000000000000000000000000000000000000000000000000000000000000000000000000000000000000000000000000000000000000000000000
310
00000000000000000000000000000000000000000000000000000000000000000000000000000000000000000000000000000000000000000000000000000000000000000000000000000000000000000000000000000000000000000000000000000000000000000000000000000000000000000000000000000000000000
310
00000000000000000000000000000000000000000000000000000000000000000000000000000000000000000000000000000000000000000000000000000000000000000000000000000000000000000000000000000000000000000000000000000000000000000000000000000000000000000000000000000000000000
310
00000000000000000000000000000000000000000000000000000000000000000000000000000000000000000000000000000000000000000000000000000000000000000000000000000000000000000000000000000000000000000000000000000000000000000000000000000000000000000000000000000000000000
310
00000000000000000000000000000000000000000000000000000000000000000000000000000000000000000000000000000000000000000000000000000000000000000000000000000000000000000000000000000000000000000000000000000000000000000000000000000000000000000000000000000000000000
310
00000000000000000000000000000000000000000000000000000000000000000000000000000000000000000000000000000000000000000000000000000000000000000000000000000000000000000000000000000000000000000000000000000000000000000000000000000000000000000000000000000000000000
310
00000000000000000000000000000000000000000000000000000000000000000000000000000000000000000000000000000000000000000000000000000000000000000000000000000000000000000000000000000000000000000000000000000000000000000000000000000000000000000000000000000000000000
310
00000000000000000000000000000000000000000000000000000000000000000000000000000000000000000000000000000000000000000000000000000000000000000000000000000000000000000000000000000000000000000000000000000000000000000000000000000000000000000000000000000000000000
310
00000000000000000000000000000000000000000000000000000000000000000000000000000000000000000000000000000000000000000000000000000000000000000000000000000000000000000000000000000000000000000000000000000000000000000000000000000000000000000000000000000000000000
310
00000000000000000000000000000000000000000000000000000000000000000000000000000000000000000000000000000000000000000000000000000000000000000000000000000000000000000000000000000000000000000000000000000000000000000000000000000000000000000000000000000000000000
310
00000000000000000000000000000000000000000000000000000000000000000000000000000000000000000000000000000000000000000000000000000000000000000000000000000000000000000000000000000000000000000000000000000000000000000000000000000000000000000000000000000000000000
310
0000000000000000000000000000000000F5F5F5F5F5F5F5F5F5F5F5F5F5F5000000000000000000000000000000000000000000000000000000000000000000000000000000000000000000000000000000000000000000000000000000000000000000000000000000000000000000000000000000000000000000000000
310
00000000000000000000000000000000000000000000000000000000000000000000000000000000000000000000000000000000000000000000000000000000000000000000000000000000000000000000000000000000000000000000000000000000000000000000000000000000000000000000000000000000000000
310
00000000000000000000000000000000000000F5F5F5F5F5F5F5F5F5F5F5F5F5F500000000000000000000000000000000000000000000000000000000000000000000000000000000000000000000000000000000000000000000000000000000000000000000000000000000000000000000000000000000000000000000
310
00000000000000000000000000000000000000000000000000000000000000000000000000000000000000000000000000000000000000000000000000000000000000000000000000000000000000000000000000000000000000000000000000000000000000000000000000000000000000000000000000000000000000
310
000000000000000000000000000000000000000000F5F5F5F5F5F5F5F5F5F5F5F5F5F50000000000000000000000000000000000000000000000000000000000000000000000000000000000000000000000000000000000000000000000000000000000000000000000000000000000000000000000000000000000000000
310
00000000000000000000000000000000000000000000000000000000000000000000000000000000000000000000000000000000000000000000000000000000000000000000000000000000000000000000000000000000000000000000000000000000000000000000000000000000000000000000000000000000000000
310
0000000000000000000000000000000000000000000000F5F5F5F5F5F5F5F5F5F5F5F5F5F5000000000000000000000000000000000000000000000000000000000000000000000000000000000000000000000000000000000000000000000000000000000000000000000000000000000000000000000000000000000000
310
00000000000000000000000000000000000000000000000000000000000000000000000000000000000000000000000000000000000000000000000000000000000000000000000000000000000000000000000000000000000000000000000000000000000000000000000000000000000000000000000000000000000000
310
00000000000000000000000000000000000000000000000000F5F5F5F5F5F5F5F5F5F5F5F5F5F500000000000000000000000000000000000000000000000000000000000000000000000000000000000000000000000000000000000000000000000000000000000000000000000000000000000000000000000000000000
310
00000000000000000000000000000000000000000000000000000000000000000000000000000000000000000000000000000000000000000000000000000000000000000000000000000000000000000000000000000000000000000000000000000000000000000000000000000000000000000000000000000000000000
310
000000000000000000000000000000000000000000000000000000F5F5F5F5F5F5F5F5F5F5F5F5F5F50000000000000000000000000000000000000000000000000000000000000000000000000000000000000000000000000000000000000000000000000000000000000000000000000000000000000000000000000000
310
00000000000000000000000000000000000000000000000000000000000000000000000000000000000000000000000000000000000000000000000000000000000000000000000000000000000000000000000000000000000000000000000000000000000000000000000000000000000000000000000000000000000000
310
0000000000000000000000000000000000000000000000000000000000F5F5F5F5F5F5F5F5F5F5F5F5F5F5000000000000000000000000000000000000000000000000000000000000000000000000000000000000000000000000000000000000000000000000000000000000000000000000000000000000000000000000
310
00000000000000000000000000000000000000000000000000000000000000000000000000000000000000000000000000000000000000000000000000000000000000000000000000000000000000000000000000000000000000000000000000000000000000000000000000000000000000000000000000000000000000
310
00000000000000000000000000000000000000000000000000000000000000F5F5F5F5F5F5F5F5F5F5F5F5F5F500000000000000000000000000000000000000000000000000000000000000000000000000000000000000000000000000000000000000000000000000000000000000000000000000000000000000000000
310
00000000000000000000000000000000000000000000000000000000000000000000000000000000000000000000000000000000000000000000000000000000000000000000000000000000000000000000000000000000000000000000000000000000000000000000000000000000000000000000000000000000000000
310
000000000000000000000000000000000000000000000000000000000000000000F5F5F5F5F5F5F5F5F5F5F5F5F5F50000000000000000000000000000000000000000000000000000000000000000000000000000000000000000000000000000000000000000000000000000000000000000000000000000000000000000
310
00000000000000000000000000000000000000000000000000000000000000000000000000000000000000000000000000000000000000000000000000000000000000000000000000000000000000000000000000000000000000000000000000000000000000000000000000000000000000000000000000000000000000
310
000000000000000000000000000000000000000000000000000000000000000000000000000000000000000000000000F5000000000000000000000000000000000000000000000000000000000000000000000000000000000000000000000000000000000000000000000000000000000000000000000000000000000000
310
00000000000000000000000000000000000000000000000000000000000000000000000000000000000000000000000000000000000000000000000000000000000000000000000000000000000000000000000000000000000000000000000000000000000000000000000000000000000000000000000000000000000000
310
00000000000000000000000000000000000000000000000000000000000000000000000000000000000000000000000000000000000000000000000000000000000000000000000000000000000000000000000000000000000000000000000000000000000000000000000000000000000000000000000000000000000000
310
00000000000000000000000000000000000000000000000000000000000000000000000000000000000000000000000000000000000000000000000000000000000000000000000000000000000000000000000000000000000000000000000000000000000000000000000000000000000000000000000000000000000000
310
00000000000000000000000000000000000000000000000000000000000000000000000000000000000000000000000000000000000000000000000000000000000000000000000000000000000000000000000000000000000000000000000000000000000000000000000000000000000000000000000000000000000000
310
00000000000000000000000000000000000000000000000000000000000000000000000000000000000000000000000000000000000000000000000000000000000000000000000000000000000000000000000000000000000000000000000000000000000000000000000000000000000000000000000000000000000000
310
00000000000000000000000000000000000000000000000000000000000000000000000000000000000000000000000000000000000000000000000000000000000000000000000000000000000000000000000000000000000000000000000000000000000000000000000000000000000000000000000000000000000000
310
00000000000000000000000000000000000000000000000000000000000000000000000000000000000000000000000000000000000000000000000000000000000000000000000000000000000000000000000000000000000000000000000000000000000000000000000000000000000000000000000000000000000000
310
00000000000000000000000000000000000000000000000000000000000000000000000000000000000000000000000000000000000000000000000000000000000000000000000000000000000000000000000000000000000000000000000000000000000000000000000000000000000000000000000000000000000000
310
00000000000000000000000000000000000000000000000000000000000000000000000000000000000000000000000000000000000000000000000000000000000000000000000000000000000000000000000000000000000000000000000000000000000000000000000000000000000000000000000000000000000000
310
00000000000000000000000000000000000000000000000000000000000000000000000000000000000000000000000000000000000000000000000000000000000000000000000000000000000000000000000000000000000000000000000000000000000000000000000000000000000000000000000000000000000000
310
00000000000000000000000000000000000000000000000000000000000000000000000000000000000000000000000000000000000000000000000000000000000000000000000000000000000000000000000000000000000000000000000000000000000000000000000000000000000000000000000000000000000000
310
00000000000000000000000000000000000000000000000000000000000000000000000000000000000000000000000000000000000000000000000000000000000000000000000000000000000000000000000000000000000000000000000000000000000000000000000000000000000000000000000000000000000000
310
00000000000000000000000000000000000000000000000000000000000000000000000000000000000000000000000000000000000000000000000000000000000000000000000000000000000000000000000000000000000000000000000000000000000000000000000000000000000000000000000000000000000000
310
00000000000000000000000000000000000000000000000000000000000000000000000000000000000000000000000000000000000000000000000000000000000000000000000000000000000000000000000000000000000000000000000000000000000000000000000000000000000000000000000000000000000000
310
00000000000000000000000000000000000000000000000000000000000000000000000000000000000000000000000000000000000000000000000000000000000000000000000000000000000000000000000000000000000000000000000000000000000000000000000000000000000000000000000000000000000000
310
00000000000000000000000000000000000000000000000000000000000000000000000000000000000000000000000000000000000000000000000000000000000000000000000000000000000000000000000000000000000000000000000000000000000000000000000000000000000000000000000000000000000000
310
00000000000000000000000000000000000000000000000000000000000000000000000000000000000000000000000000000000000000000000000000000000000000000000000000000000000000000000000000000000000000000000000000000000000000000000000000000000000000000000000000000000000000
310
00000000000000000000000000000000000000000000000000000000000000000000000000000000000000000000000000000000000000000000000000000000000000000000000000000000000000000000000000000000000000000000000000000000000000000000000000000000000000000000000000000000000000
310
00000000000000000000000000000000000000000000000000000000000000000000000000000000000000000000000000000000000000000000000000000000000000000000000000000000000000000000000000000000000000000000000000000000000000000000000000000000000000000000000000000000000000
310
00000000000000000000000000000000000000000000000000000000000000000000000000000000000000000000000000000000000000000000000000000000000000000000000000000000000000000000000000000000000000000000000000000000000000000000000000000000000000000000000000000000000000
310
00000000000000000000000000000000000000000000000000000000000000000000000000000000000000000000000000000000000000000000000000000000000000000000000000000000000000000000000000000000000000000000000000000000000000000000000000000000000000000000000000000000000000
310
00000000000000000000000000000000000000000000000000000000000000000000000000000000000000000000000000000000000000000000000000000000000000000000000000000000000000000000000000000000000000000000000000000000000000000000000000000000000000000000000000000000000000
310
00000000000000000000000000000000000000000000000000000000000000000000000000000000000000000000000000000000000000000000000000000000000000000000000000000000000000000000000000000000000000000000000000000000000000000000000000000000000000000000000000000000000000
310
00000000000000000000000000000000000000000000000000000000000000000000000000000000000000000000000000000000000000000000000000000000000000000000000000000000000000000000000000000000000000000000000000000000000000000000000000000000000000000000000000000000000000
310
00000000000000000000000000000000000000000000000000000000000000000000000000000000000000000000000000000000000000000000000000000000000000000000000000000000000000000000000000000000000000000000000000000000000000000000000000000000000000000000000000000000000000
310
00000000000000000000000000000000000000000000000000000000000000000000000000000000000000000000000000000000000000000000000000000000000000000000000000000000000000000000000000000000000000000000000000000000000000000000000000000000000000000000000000000000000000
310
00000000000000000000000000000000000000000000000000000000000000000000000000000000000000000000000000000000000000000000000000000000000000000000000000000000000000000000000000000000000000000000000000000000000000000000000000000000000000000000000000000000000000
310
00000000000000000000000000000000000000000000000000000000000000000000000000000000000000000000000000000000000000000000000000000000000000000000000000000000000000000000000000000000000000000000000000000000000000000000000000000000000000000000000000000000000000
310
00000000000000000000000000000000000000000000000000000000000000000000000000000000000000000000000000000000000000000000000000000000000000000000000000000000000000000000000000000000000000000000000000000000000000000000000000000000000000000000000000000000000000
310
00000000000000000000000000000000000000000000000000000000000000000000000000000000000000000000000000000000000000000000000000000000000000000000000000000000000000000000000000000000000000000000000000000000000000000000000000000000000000000000000000000000000000
310
00000000000000000000000000000000000000000000000000000000000000000000000000000000000000000000000000000000000000000000000000000000000000000000000000000000000000000000000000000000000000000000000000000000000000000000000000000000000000000000000000000000000000
310
00000000000000000000000000000000000000000000000000000000000000000000000000000000000000000000000000000000000000000000000000000000000000000000000000000000000000000000000000000000000000000000000000000000000000000000000000000000000000000000000000000000000000
310
00000000000000000000000000000000000000000000000000000000000000000000000000000000000000000000000000000000000000000000000000000000000000000000000000000000000000000000000000000000000000000000000000000000000000000000000000000000000000000000000000000000000000
310
00000000000000000000000000000000000000000000000000000000000000000000000000000000000000000000000000000000000000000000000000000000000000000000000000000000000000000000000000000000000000000000000000000000000000000000000000000000000000000000000000000000000000
310
00000000000000000000000000000000000000000000000000000000000000000000000000000000000000000000000000000000000000000000000000000000000000000000000000000000000000000000000000000000000000000000000000000000000000000000000000000000000000000000000000000000000000
310
00000000000000000000000000000000000000000000000000000000000000000000000000000000000000000000000000000000000000000000000000000000000000000000000000000000000000000000000000000000000000000000000000000000000000000000000000000000000000000000000000000000000000
310
00000000000000000000000000000000000000000000000000000000000000000000000000000000000000000000000000000000000000000000000000000000000000000000000000000000000000000000000000000000000000000000000000000000000000000000000000000000000000000000000000000000000000
310
00000000000000000000000000000000000000000000000000000000000000000000000000000000000000000000000000000000000000000000000000000000000000000000000000000000000000000000000000000000000000000000000000000000000000000000000000000000000000000000000000000000000000
310
00000000000000000000000000000000000000000000000000000000000000000000000000000000000000000000000000000000000000000000000000000000000000000000000000000000000000000000000000000000000000000000000000000000000000000000000000000000000000000000000000000000000000
310
00000000000000000000000000000000000000000000000000000000000000000000000000000000000000000000000000000000000000000000000000000000000000000000000000000000000000000000000000000000000000000000000000000000000000000000000000000000000000000000000000000000000000
310
00000000000000000000000000000000000000000000000000000000000000000000000000000000000000000000000000000000000000000000000000000000000000000000000000000000000000000000000000000000000000000000000000000000000000000000000000000000000000000000000000000000000000
310
00000000000000000000000000000000000000000000000000000000000000000000000000000000000000000000000000000000000000000000000000000000000000000000000000000000000000000000000000000000000000000000000000000000000000000000000000000000000000000000000000000000000000
310
00000000000000000000000000000000000000000000000000000000000000000000000000000000000000000000000000000000000000000000000000000000000000000000000000000000000000000000000000000000000000000000000000000000000000000000000000000000000000000000000000000000000000
310
00000000000000000000000000000000000000000000000000000000000000000000000000000000000000000000000000000000000000000000000000000000000000000000000000000000000000000000000000000000000000000000000000000000000000000000000000000000000000000000000000000000000000
310
00000000000000000000000000000000000000000000000000000000000000000000000000000000000000000000000000000000000000000000000000000000000000000000000000000000000000000000000000000000000000000000000000000000000000000000000000000000000000000000000000000000000000
310
00000000000000000000000000000000000000000000000000000000000000000000000000000000000000000000000000000000000000000000000000000000000000000000000000000000000000000000000000000000000000000000000000000000000000000000000000000000000000000000000000000000000000
310
00000000000000000000000000000000000000000000000000000000000000000000000000000000000000000000000000000000000000000000000000000000000000000000000000000000000000000000000000000000000000000000000000000000000000000000000000000000000000000000000000000000000000
310
00000000000000000000000000000000000000000000000000000000000000000000000000000000000000000000000000000000000000000000000000000000000000000000000000000000000000000000000000000000000000000000000000000000000000000000000000000000000000000000000000000000000000
310
00000000000000000000000000000000000000000000000000000000000000000000000000000000000000000000000000000000000000000000000000000000000000000000000000000000000000000000000000000000000000000000000000000000000000000000000000000000000000000000000000000000000000
310
00000000000000000000000000000000000000000000000000000000000000000000000000000000000000000000000000000000000000000000000000000000000000000000000000000000000000000000000000000000000000000000000000000000000000000000000000000000000000000000000000000000000000
310
00000000000000000000000000000000000000000000000000000000000000000000000000000000000000000000000000000000000000000000000000000000000000000000000000000000000000000000000000000000000000000000000000000000000000000000000000000000000000000000000000000000000000
310
00000000000000000000000000000000000000000000000000000000000000000000000000000000000000000000000000000000000000000000000000000000000000000000000000000000000000000000000000000000000000000000000000000000000000000000000000000000000000000000000000000000000000
310
00000000000000000000000000000000000000000000000000000000000000000000000000000000000000000000000000000000000000000000000000000000000000000000000000000000000000000000000000000000000000000000000000000000000000000000000000000000000000000000000000000000000000
310
00000000000000000000000000000000000000000000000000000000000000000000000000000000000000000000000000000000000000000000000000000000000000000000000000000000000000000000000000000000000000000000000000000000000000000000000000000000000000000000000000000000000000
310
00000000000000000000000000000000000000000000000000000000000000000000000000000000000000000000000000000000000000000000000000000000000000000000000000000000000000000000000000000000000000000000000000000000000000000000000000000000000000000000000000000000000000
310
00000000000000000000000000000000000000000000000000000000000000000000000000000000000000000000000000000000000000000000000000000000000000000000000000000000000000000000000000000000000000000000000000000000000000000000000000000000000000000000000000000000000000
310
00000000000000000000000000000000000000000000000000000000000000000000000000000000000000000000000000000000000000000000000000000000000000000000000000000000000000000000000000000000000000000000000000000000000000000000000000000000000000000000000000000000000000
310
00000000000000000000000000000000000000000000000000000000000000000000000000000000000000000000000000000000000000000000000000000000000000000000000000000000000000000000000000000000000000000000000000000000000000000000000000000000000000000000000000000000000000
310
00000000000000000000000000000000000000000000000000000000000000000000000000000000000000000000000000000000000000000000000000000000000000000000000000000000000000000000000000000000000000000000000000000000000000000000000000000000000000000000000000000000000000
310
00000000000000000000000000000000000000000000000000000000000000000000000000000000000000000000000000000000000000000000000000000000000000000000000000000000000000000000000000000000000000000000000000000000000000000000000000000000000000000000000000000000000000
310
00000000000000000000000000000000000000000000000000000000000000000000000000000000000000000000000000000000000000000000000000000000000000000000000000000000000000000000000000000000000000000000000000000000000000000000000000000000000000000000000000000000000000
310
00000000000000000000000000000000000000000000000000000000000000000000000000000000000000000000000000000000000000000000000000000000000000000000000000000000000000000000000000000000000000000000000000000000000000000000000000000000000000000000000000000000000000
310
00000000000000000000000000000000000000000000000000000000000000000000000000000000000000000000000000000000000000000000000000000000000000000000000000000000000000000000000000000000000000000000000000000000000000000000000000000000000000000000000000000000000000
310
00000000000000000000000000000000000000000000000000000000000000000000000000000000000000000000000000000000000000000000000000000000000000000000000000000000000000000000000000000000000000000000000000000000000000000000000000000000000000000000000000000000000000
310
00000000000000000000000000000000000000000000000000000000000000000000000000000000000000000000000000000000000000000000000000000000000000000000000000000000000000000000000000000000000000000000000000000000000000000000000000000000000000000000000000000000000000
310
00000000000000000000000000000000000000000000000000000000000000000000000000000000000000000000000000000000000000000000000000000000000000000000000000000000000000000000000000000000000000000000000000000000000000000000000000000000000000000000000000000000000000
310
00000000000000000000000000000000000000000000000000000000000000000000000000000000000000000000000000000000000000000000000000000000000000000000000000000000000000000000000000000000000000000000000000000000000000000000000000000000000000000000000000000000000000
310
00000000000000000000000000000000000000000000000000000000000000000000000000000000000000000000000000000000000000000000000000000000000000000000000000000000000000000000000000000000000000000000000000000000000000000000000000000000000000000000000000000000000000
310
00000000000000000000000000000000000000000000000000000000000000000000000000000000000000000000000000000000000000000000000000000000000000000000000000000000000000000000000000000000000000000000000000000000000000000000000000000000000000000000000000000000000000
310
00000000000000000000000000000000000000000000000000000000000000000000000000000000000000000000000000000000000000000000000000000000000000000000000000000000000000000000000000000000000000000000000000000000000000000000000000000000000000000000000000000000000000
310
00000000000000000000000000000000000000000000000000000000000000000000000000000000000000000000000000000000000000000000000000000000000000000000000000000000000000000000000000000000000000000000000000000000000000000000000000000000000000000000000000000000000000
310
00000000000000000000000000000000000000000000000000000000000000000000000000000000000000000000000000000000000000000000000000000000000000000000000000000000000000000000000000000000000000000000000000000000000000000000000000000000000000000000000000000000000000
310
00000000000000000000000000000000000000000000000000000000000000000000000000000000000000000000000000000000000000000000000000000000000000000000000000000000000000000000000000000000000000000000000000000000000000000000000000000000000000000000000000000000000000
310
00000000000000000000000000000000000000000000000000000000000000000000000000000000000000000000000000000000000000000000000000000000000000000000000000000000000000000000000000000000000000000000000000000000000000000000000000000000000000000000000000000000000000
310
00000000000000000000000000000000000000000000000000000000000000000000000000000000000000000000000000000000000000000000000000000000000000000000000000000000000000000000000000000000000000000000000000000000000000000000000000000000000000000000000000000000000000
310
00000000000000000000000000000000000000000000000000000000000000000000000000000000000000000000000000000000000000000000000000000000000000000000000000000000000000000000000000000000000000000000000000000000000000000000000000000000000000000000000000000000000000
310
00000000000000000000000000000000000000000000000000000000000000000000000000000000000000000000000000000000000000000000000000000000000000000000000000000000000000000000000000000000000000000000000000000000000000000000000000000000000000000000000000000000000000
310
00000000000000000000000000000000000000000000000000000000000000000000000000000000000000000000000000000000000000000000000000000000000000000000000000000000000000000000000000000000000000000000000000000000000000000000000000000000000000000000000000000000000000
310
00000000000000000000000000000000000000000000000000000000000000000000000000000000000000000000000000000000000000000000000000000000000000000000000000000000000000000000000000000000000000000000000000000000000000000000000000000000000000000000000000000000000000
310
00000000000000000000000000000000000000000000000000000000000000000000000000000000000000000000000000000000000000000000000000000000000000000000000000000000000000000000000000000000000000000000000000000000000000000000000000000000000000000000000000000000000000
310
00000000000000000000000000000000000000000000000000000000000000000000000000000000000000000000000000000000000000000000000000000000000000000000000000000000000000000000000000000000000000000000000000000000000000000000000000000000000000000000000000000000000000
310
00000000000000000000000000000000000000000000000000000000000000000000000000000000000000000000000000000000000000000000000000000000000000000000000000000000000000000000000000000000000000000000000000000000000000000000000000000000000000000000000000000000000000
310
00000000000000000000000000000000000000000000000000000000000000000000000000000000000000000000000000000000000000000000000000000000000000000000000000000000000000000000000000000000000000000000000000000000000000000000000000000000000000000000000000000000000000
310
00000000000000000000000000000000000000000000000000000000000000000000000000000000000000000000000000000000000000000000000000000000000000000000000000000000000000000000000000000000000000000000000000000000000000000000000000000000000000000000000000000000000000
310
00000000000000000000000000000000000000000000000000000000000000000000000000000000000000000000000000000000000000000000000000000000000000000000000000000000000000000000000000000000000000000000000000000000000000000000000000000000000000000000000000000000000000
310
00000000000000000000000000000000000000000000000000000000000000000000000000000000000000000000000000000000000000000000000000000000000000000000000000000000000000000000000000000000000000000000000000000000000000000000000000000000000000000000000000000000000000
310
00000000000000000000000000000000000000000000000000000000000000000000000000000000000000000000000000000000000000000000000000000000000000000000000000000000000000000000000000000000000000000000000000000000000000000000000000000000000000000000000000000000000000
310
00000000000000000000000000000000000000000000000000000000000000000000000000000000000000000000000000000000000000000000000000000000000000000000000000000000000000000000000000000000000000000000000000000000000000000000000000000000000000000000000000000000000000
310
00000000000000000000000000000000000000000000000000000000000000000000000000000000000000000000000000000000000000000000000000000000000000000000000000000000000000000000000000000000000000000000000000000000000000000000000000000000000000000000000000000000000000
310
000000000000
  0
XRECORD
  5
133C
102
{ACAD_REACTORS
330
133B
102
}
330
133B
100
AcDbXrecord
280
     1
102
DISPLAYNAME
  1
Metric50
102
FLAGS
 90
        0
  0
CELLSTYLEMAP
  5
1301
102
{ACAD_REACTORS
330
116F
102
}
330
116F
100
AcDbCellStyleMap
 90
        3
300
CELLSTYLE
  1
TABLEFORMAT_BEGIN
 90
        5
170
     1
 91
        0
 92
    32768
 62
   257
 93
        1
300
CONTENTFORMAT
  1
CONTENTFORMAT_BEGIN
 90
        0
 91
        0
 92
      512
 93
        0
300

 40
0.0
140
1.0
 94
        5
 62
     0
340
11
144
6.0
309
CONTENTFORMAT_END
171
     1
301
MARGIN
  1
CELLMARGIN_BEGIN
 40
1.5
 40
1.5
 40
1.5
 40
1.5
 40
4.5
 40
4.5
309
CELLMARGIN_END
 94
        6
 95
        1
302
GRIDFORMAT
  1
GRIDFORMAT_BEGIN
 90
        0
 91
        1
 62
     0
 92
       -2
340
0
 93
        0
 40
1.125
309
GRIDFORMAT_END
 95
        2
302
GRIDFORMAT
  1
GRIDFORMAT_BEGIN
 90
        0
 91
        1
 62
     0
 92
       -2
340
0
 93
        0
 40
1.125
309
GRIDFORMAT_END
 95
        4
302
GRIDFORMAT
  1
GRIDFORMAT_BEGIN
 90
        0
 91
        1
 62
     0
 92
       -2
340
0
 93
        0
 40
1.125
309
GRIDFORMAT_END
 95
        8
302
GRIDFORMAT
  1
GRIDFORMAT_BEGIN
 90
        0
 91
        1
 62
     0
 92
       -2
340
0
 93
        0
 40
1.125
309
GRIDFORMAT_END
 95
       16
302
GRIDFORMAT
  1
GRIDFORMAT_BEGIN
 90
        0
 91
        1
 62
     0
 92
       -2
340
0
 93
        0
 40
1.125
309
GRIDFORMAT_END
 95
       32
302
GRIDFORMAT
  1
GRIDFORMAT_BEGIN
 90
        0
 91
        1
 62
     0
 92
       -2
340
0
 93
        0
 40
1.125
309
GRIDFORMAT_END
309
TABLEFORMAT_END
  1
CELLSTYLE_BEGIN
 90
        1
 91
        1
300
_TITLE
309
CELLSTYLE_END
300
CELLSTYLE
  1
TABLEFORMAT_BEGIN
 90
        5
170
     1
 91
        0
 92
        0
 62
   257
 93
        1
300
CONTENTFORMAT
  1
CONTENTFORMAT_BEGIN
 90
        0
 91
        0
 92
      512
 93
        0
300

 40
0.0
140
1.0
 94
        5
 62
     0
340
11
144
4.5
309
CONTENTFORMAT_END
171
     1
301
MARGIN
  1
CELLMARGIN_BEGIN
 40
1.5
 40
1.5
 40
1.5
 40
1.5
 40
4.5
 40
4.5
309
CELLMARGIN_END
 94
        6
 95
        1
302
GRIDFORMAT
  1
GRIDFORMAT_BEGIN
 90
        0
 91
        1
 62
     0
 92
       -2
340
0
 93
        0
 40
1.125
309
GRIDFORMAT_END
 95
        2
302
GRIDFORMAT
  1
GRIDFORMAT_BEGIN
 90
        0
 91
        1
 62
     0
 92
       -2
340
0
 93
        0
 40
1.125
309
GRIDFORMAT_END
 95
        4
302
GRIDFORMAT
  1
GRIDFORMAT_BEGIN
 90
        0
 91
        1
 62
     0
 92
       -2
340
0
 93
        0
 40
1.125
309
GRIDFORMAT_END
 95
        8
302
GRIDFORMAT
  1
GRIDFORMAT_BEGIN
 90
        0
 91
        1
 62
     0
 92
       -2
340
0
 93
        0
 40
1.125
309
GRIDFORMAT_END
 95
       16
302
GRIDFORMAT
  1
GRIDFORMAT_BEGIN
 90
        0
 91
        1
 62
     0
 92
       -2
340
0
 93
        0
 40
1.125
309
GRIDFORMAT_END
 95
       32
302
GRIDFORMAT
  1
GRIDFORMAT_BEGIN
 90
        0
 91
        1
 62
     0
 92
       -2
340
0
 93
        0
 40
1.125
309
GRIDFORMAT_END
309
TABLEFORMAT_END
  1
CELLSTYLE_BEGIN
 90
        2
 91
        1
300
_HEADER
309
CELLSTYLE_END
300
CELLSTYLE
  1
TABLEFORMAT_BEGIN
 90
        5
170
     1
 91
        0
 92
        0
 62
   257
 93
        1
300
CONTENTFORMAT
  1
CONTENTFORMAT_BEGIN
 90
        0
 91
        0
 92
      512
 93
        0
300

 40
0.0
140
1.0
 94
        2
 62
     0
340
11
144
4.5
309
CONTENTFORMAT_END
171
     1
301
MARGIN
  1
CELLMARGIN_BEGIN
 40
1.5
 40
1.5
 40
1.5
 40
1.5
 40
4.5
 40
4.5
309
CELLMARGIN_END
 94
        6
 95
        1
302
GRIDFORMAT
  1
GRIDFORMAT_BEGIN
 90
        0
 91
        1
 62
     0
 92
       -2
340
0
 93
        0
 40
1.125
309
GRIDFORMAT_END
 95
        2
302
GRIDFORMAT
  1
GRIDFORMAT_BEGIN
 90
        0
 91
        1
 62
     0
 92
       -2
340
0
 93
        0
 40
1.125
309
GRIDFORMAT_END
 95
        4
302
GRIDFORMAT
  1
GRIDFORMAT_BEGIN
 90
        0
 91
        1
 62
     0
 92
       -2
340
0
 93
        0
 40
1.125
309
GRIDFORMAT_END
 95
        8
302
GRIDFORMAT
  1
GRIDFORMAT_BEGIN
 90
        0
 91
        1
 62
     0
 92
       -2
340
0
 93
        0
 40
1.125
309
GRIDFORMAT_END
 95
       16
302
GRIDFORMAT
  1
GRIDFORMAT_BEGIN
 90
        0
 91
        1
 62
     0
 92
       -2
340
0
 93
        0
 40
1.125
309
GRIDFORMAT_END
 95
       32
302
GRIDFORMAT
  1
GRIDFORMAT_BEGIN
 90
        0
 91
        1
 62
     0
 92
       -2
340
0
 93
        0
 40
1.125
309
GRIDFORMAT_END
309
TABLEFORMAT_END
  1
CELLSTYLE_BEGIN
 90
        3
 91
        2
300
_DATA
309
CELLSTYLE_END
  0
XRECORD
  5
1314
102
{ACAD_REACTORS
330
1313
102
}
330
1313
100
AcDbXrecord
280
     1
102
RTVSPost2010Prop28
280
     1
102
RTVSPost2010PropOp28
 70
     1
102
RTVSPost2010Prop29
280
     1
102
RTVSPost2010PropOp29
 70
     1
102
RTVSPost2010Prop30
280
     0
102
RTVSPost2010PropOp30
 70
     1
102
RTVSPost2010Prop31
280
     0
102
RTVSPost2010PropOp31
 70
     1
102
RTVSPost2010Prop32
280
     0
102
RTVSPost2010PropOp32
 70
     1
102
RTVSPost2010Prop33
280
     0
102
RTVSPost2010PropOp33
 70
     1
102
RTVSPost2010Prop34
280
     0
102
RTVSPost2010PropOp34
 70
     1
102
RTVSPost2010Prop35
280
     0
102
RTVSPost2010PropOp35
 70
     1
102
RTVSPost2010Prop36
280
     0
102
RTVSPost2010PropOp36
 70
     1
102
RTVSPost2010Prop37
 90
       50
102
RTVSPost2010PropOp37
 70
     1
102
RTVSPost2010Prop38
140
0.0
102
RTVSPost2010PropOp38
 70
     1
102
RTVSPost2010Prop39
140
1.0
102
RTVSPost2010PropOp39
 70
     1
102
RTVSPost2010Prop40
 90
        0
102
RTVSPost2010PropOp40
 70
     1
102
RTVSPost2010Prop41ColorIndex
 90
       18
102
RTVSPost2010Prop41ColorRGB
 90
        0
102
RTVSPost2010PropOp41
 70
     1
102
RTVSPost2010Prop42
 90
       50
102
RTVSPost2010PropOp42
 70
     1
102
RTVSPost2010Prop43
 90
        3
102
RTVSPost2010PropOp43
 70
     1
102
RTVSPost2010Prop44ColorIndex
 90
        5
102
RTVSPost2010Prop44ColorRGB
 90
      255
102
RTVSPost2010PropOp44
 70
     1
102
RTVSPost2010Prop45
280
     0
102
RTVSPost2010PropOp45
 70
     1
102
RTVSPost2010Prop46
 90
       50
102
RTVSPost2010PropOp46
 70
     1
102
RTVSPost2010Prop47
 90
       50
102
RTVSPost2010PropOp47
 70
     1
102
RTVSPost2010Prop48
 90
       50
102
RTVSPost2010PropOp48
 70
     1
102
RTVSPost2010Prop49
280
     0
102
RTVSPost2010PropOp49
 70
     1
102
RTVSPost2010Prop50
 90
       50
102
RTVSPost2010PropOp50
 70
     1
102
RTVSPost2010Prop51ColorIndex
 90
      256
102
RTVSPost2010Prop51ColorRGB
 90
-16777216
102
RTVSPost2010PropOp51
 70
     0
102
RTVSPost2010Prop52
140
1.0
102
RTVSPost2010PropOp52
 70
     0
102
RTVSPost2010Prop53
 90
        2
102
RTVSPost2010PropOp53
 70
     1
102
RTVSPost2010Prop54
  1
strokes_ogs.tif
102
RTVSPost2010PropOp54
 70
     1
102
RTVSPost2010Prop55
280
     0
102
RTVSPost2010PropOp55
 70
     1
102
RTVSPost2010Prop56
140
1.0
102
RTVSPost2010PropOp56
 70
     1
102
RTVSPost2010Prop57
140
1.0
102
RTVSPost2010PropOp57
 70
     1
  0
XRECORD
  5
131A
102
{ACAD_REACTORS
330
1319
102
}
330
1319
100
AcDbXrecord
280
     1
102
RTVSPost2010Prop28
280
     0
102
RTVSPost2010PropOp28
 70
     1
102
RTVSPost2010Prop29
280
     1
102
RTVSPost2010PropOp29
 70
     1
102
RTVSPost2010Prop30
280
     1
102
RTVSPost2010PropOp30
 70
     1
102
RTVSPost2010Prop31
280
     0
102
RTVSPost2010PropOp31
 70
     1
102
RTVSPost2010Prop32
280
     0
102
RTVSPost2010PropOp32
 70
     1
102
RTVSPost2010Prop33
280
     0
102
RTVSPost2010PropOp33
 70
     1
102
RTVSPost2010Prop34
280
     0
102
RTVSPost2010PropOp34
 70
     1
102
RTVSPost2010Prop35
280
     0
102
RTVSPost2010PropOp35
 70
     1
102
RTVSPost2010Prop36
280
     0
102
RTVSPost2010PropOp36
 70
     1
102
RTVSPost2010Prop37
 90
       50
102
RTVSPost2010PropOp37
 70
     1
102
RTVSPost2010Prop38
140
0.0
102
RTVSPost2010PropOp38
 70
     1
102
RTVSPost2010Prop39
140
1.0
102
RTVSPost2010PropOp39
 70
     1
102
RTVSPost2010Prop40
 90
        0
102
RTVSPost2010PropOp40
 70
     1
102
RTVSPost2010Prop41ColorIndex
 90
       18
102
RTVSPost2010Prop41ColorRGB
 90
        0
102
RTVSPost2010PropOp41
 70
     1
102
RTVSPost2010Prop42
 90
       50
102
RTVSPost2010PropOp42
 70
     1
102
RTVSPost2010Prop43
 90
        3
102
RTVSPost2010PropOp43
 70
     1
102
RTVSPost2010Prop44ColorIndex
 90
        5
102
RTVSPost2010Prop44ColorRGB
 90
      255
102
RTVSPost2010PropOp44
 70
     1
102
RTVSPost2010Prop45
280
     0
102
RTVSPost2010PropOp45
 70
     1
102
RTVSPost2010Prop46
 90
       50
102
RTVSPost2010PropOp46
 70
     1
102
RTVSPost2010Prop47
 90
       50
102
RTVSPost2010PropOp47
 70
     1
102
RTVSPost2010Prop48
 90
       50
102
RTVSPost2010PropOp48
 70
     1
102
RTVSPost2010Prop49
280
     0
102
RTVSPost2010PropOp49
 70
     1
102
RTVSPost2010Prop50
 90
       50
102
RTVSPost2010PropOp50
 70
     1
102
RTVSPost2010Prop51ColorIndex
 90
      256
102
RTVSPost2010Prop51ColorRGB
 90
-16777216
102
RTVSPost2010PropOp51
 70
     0
102
RTVSPost2010Prop52
140
1.0
102
RTVSPost2010PropOp52
 70
     0
102
RTVSPost2010Prop53
 90
        2
102
RTVSPost2010PropOp53
 70
     1
102
RTVSPost2010Prop54
  1
strokes_ogs.tif
102
RTVSPost2010PropOp54
 70
     1
102
RTVSPost2010Prop55
280
     0
102
RTVSPost2010PropOp55
 70
     1
102
RTVSPost2010Prop56
140
1.0
102
RTVSPost2010PropOp56
 70
     1
102
RTVSPost2010Prop57
140
1.0
102
RTVSPost2010PropOp57
 70
     1
  0
XRECORD
  5
1322
102
{ACAD_REACTORS
330
1321
102
}
330
1321
100
AcDbXrecord
280
     1
102
RTVSPost2010Prop28
280
     0
102
RTVSPost2010PropOp28
 70
     1
102
RTVSPost2010Prop29
280
     1
102
RTVSPost2010PropOp29
 70
     1
102
RTVSPost2010Prop30
280
     1
102
RTVSPost2010PropOp30
 70
     1
102
RTVSPost2010Prop31
280
     0
102
RTVSPost2010PropOp31
 70
     1
102
RTVSPost2010Prop32
280
     0
102
RTVSPost2010PropOp32
 70
     1
102
RTVSPost2010Prop33
280
     0
102
RTVSPost2010PropOp33
 70
     1
102
RTVSPost2010Prop34
280
     0
102
RTVSPost2010PropOp34
 70
     1
102
RTVSPost2010Prop35
280
     0
102
RTVSPost2010PropOp35
 70
     1
102
RTVSPost2010Prop36
280
     0
102
RTVSPost2010PropOp36
 70
     1
102
RTVSPost2010Prop37
 90
       50
102
RTVSPost2010PropOp37
 70
     1
102
RTVSPost2010Prop38
140
0.0
102
RTVSPost2010PropOp38
 70
     1
102
RTVSPost2010Prop39
140
1.0
102
RTVSPost2010PropOp39
 70
     1
102
RTVSPost2010Prop40
 90
        0
102
RTVSPost2010PropOp40
 70
     1
102
RTVSPost2010Prop41ColorIndex
 90
       18
102
RTVSPost2010Prop41ColorRGB
 90
        0
102
RTVSPost2010PropOp41
 70
     1
102
RTVSPost2010Prop42
 90
       50
102
RTVSPost2010PropOp42
 70
     1
102
RTVSPost2010Prop43
 90
        3
102
RTVSPost2010PropOp43
 70
     1
102
RTVSPost2010Prop44ColorIndex
 90
        5
102
RTVSPost2010Prop44ColorRGB
 90
      255
102
RTVSPost2010PropOp44
 70
     1
102
RTVSPost2010Prop45
280
     0
102
RTVSPost2010PropOp45
 70
     1
102
RTVSPost2010Prop46
 90
       50
102
RTVSPost2010PropOp46
 70
     1
102
RTVSPost2010Prop47
 90
       50
102
RTVSPost2010PropOp47
 70
     1
102
RTVSPost2010Prop48
 90
       50
102
RTVSPost2010PropOp48
 70
     1
102
RTVSPost2010Prop49
280
     0
102
RTVSPost2010PropOp49
 70
     1
102
RTVSPost2010Prop50
 90
       50
102
RTVSPost2010PropOp50
 70
     1
102
RTVSPost2010Prop51ColorIndex
 90
      256
102
RTVSPost2010Prop51ColorRGB
 90
-16777216
102
RTVSPost2010PropOp51
 70
     0
102
RTVSPost2010Prop52
140
1.0
102
RTVSPost2010PropOp52
 70
     0
102
RTVSPost2010Prop53
 90
        2
102
RTVSPost2010PropOp53
 70
     1
102
RTVSPost2010Prop54
  1
strokes_ogs.tif
102
RTVSPost2010PropOp54
 70
     1
102
RTVSPost2010Prop55
280
     0
102
RTVSPost2010PropOp55
 70
     1
102
RTVSPost2010Prop56
140
1.0
102
RTVSPost2010PropOp56
 70
     1
102
RTVSPost2010Prop57
140
1.0
102
RTVSPost2010PropOp57
 70
     1
  0
XRECORD
  5
132A
102
{ACAD_REACTORS
330
1329
102
}
330
1329
100
AcDbXrecord
280
     1
102
RTVSPost2010Prop28
280
     0
102
RTVSPost2010PropOp28
 70
     1
102
RTVSPost2010Prop29
280
     1
102
RTVSPost2010PropOp29
 70
     1
102
RTVSPost2010Prop30
280
     1
102
RTVSPost2010PropOp30
 70
     1
102
RTVSPost2010Prop31
280
     0
102
RTVSPost2010PropOp31
 70
     1
102
RTVSPost2010Prop32
280
     0
102
RTVSPost2010PropOp32
 70
     1
102
RTVSPost2010Prop33
280
     0
102
RTVSPost2010PropOp33
 70
     1
102
RTVSPost2010Prop34
280
     0
102
RTVSPost2010PropOp34
 70
     1
102
RTVSPost2010Prop35
280
     0
102
RTVSPost2010PropOp35
 70
     1
102
RTVSPost2010Prop36
280
     0
102
RTVSPost2010PropOp36
 70
     1
102
RTVSPost2010Prop37
 90
       50
102
RTVSPost2010PropOp37
 70
     1
102
RTVSPost2010Prop38
140
0.0
102
RTVSPost2010PropOp38
 70
     1
102
RTVSPost2010Prop39
140
1.0
102
RTVSPost2010PropOp39
 70
     1
102
RTVSPost2010Prop40
 90
        0
102
RTVSPost2010PropOp40
 70
     1
102
RTVSPost2010Prop41ColorIndex
 90
       18
102
RTVSPost2010Prop41ColorRGB
 90
        0
102
RTVSPost2010PropOp41
 70
     1
102
RTVSPost2010Prop42
 90
       50
102
RTVSPost2010PropOp42
 70
     1
102
RTVSPost2010Prop43
 90
        3
102
RTVSPost2010PropOp43
 70
     1
102
RTVSPost2010Prop44ColorIndex
 90
        5
102
RTVSPost2010Prop44ColorRGB
 90
      255
102
RTVSPost2010PropOp44
 70
     1
102
RTVSPost2010Prop45
280
     0
102
RTVSPost2010PropOp45
 70
     1
102
RTVSPost2010Prop46
 90
       50
102
RTVSPost2010PropOp46
 70
     1
102
RTVSPost2010Prop47
 90
       50
102
RTVSPost2010PropOp47
 70
     1
102
RTVSPost2010Prop48
 90
       50
102
RTVSPost2010PropOp48
 70
     1
102
RTVSPost2010Prop49
280
     0
102
RTVSPost2010PropOp49
 70
     1
102
RTVSPost2010Prop50
 90
       50
102
RTVSPost2010PropOp50
 70
     1
102
RTVSPost2010Prop51ColorIndex
 90
      256
102
RTVSPost2010Prop51ColorRGB
 90
-16777216
102
RTVSPost2010PropOp51
 70
     0
102
RTVSPost2010Prop52
140
1.0
102
RTVSPost2010PropOp52
 70
     0
102
RTVSPost2010Prop53
 90
        2
102
RTVSPost2010PropOp53
 70
     1
102
RTVSPost2010Prop54
  1
strokes_ogs.tif
102
RTVSPost2010PropOp54
 70
     1
102
RTVSPost2010Prop55
280
     0
102
RTVSPost2010PropOp55
 70
     1
102
RTVSPost2010Prop56
140
1.0
102
RTVSPost2010PropOp56
 70
     1
102
RTVSPost2010Prop57
140
1.0
102
RTVSPost2010PropOp57
 70
     1
  0
XRECORD
  5
131E
102
{ACAD_REACTORS
330
131D
102
}
330
131D
100
AcDbXrecord
280
     1
102
RTVSPost2010Prop28
280
     0
102
RTVSPost2010PropOp28
 70
     1
102
RTVSPost2010Prop29
280
     1
102
RTVSPost2010PropOp29
 70
     1
102
RTVSPost2010Prop30
280
     1
102
RTVSPost2010PropOp30
 70
     1
102
RTVSPost2010Prop31
280
     0
102
RTVSPost2010PropOp31
 70
     1
102
RTVSPost2010Prop32
280
     0
102
RTVSPost2010PropOp32
 70
     1
102
RTVSPost2010Prop33
280
     0
102
RTVSPost2010PropOp33
 70
     1
102
RTVSPost2010Prop34
280
     0
102
RTVSPost2010PropOp34
 70
     1
102
RTVSPost2010Prop35
280
     0
102
RTVSPost2010PropOp35
 70
     1
102
RTVSPost2010Prop36
280
     0
102
RTVSPost2010PropOp36
 70
     1
102
RTVSPost2010Prop37
 90
       50
102
RTVSPost2010PropOp37
 70
     1
102
RTVSPost2010Prop38
140
0.0
102
RTVSPost2010PropOp38
 70
     1
102
RTVSPost2010Prop39
140
1.0
102
RTVSPost2010PropOp39
 70
     1
102
RTVSPost2010Prop40
 90
        0
102
RTVSPost2010PropOp40
 70
     1
102
RTVSPost2010Prop41ColorIndex
 90
       18
102
RTVSPost2010Prop41ColorRGB
 90
        0
102
RTVSPost2010PropOp41
 70
     1
102
RTVSPost2010Prop42
 90
       50
102
RTVSPost2010PropOp42
 70
     1
102
RTVSPost2010Prop43
 90
        3
102
RTVSPost2010PropOp43
 70
     1
102
RTVSPost2010Prop44ColorIndex
 90
        5
102
RTVSPost2010Prop44ColorRGB
 90
      255
102
RTVSPost2010PropOp44
 70
     1
102
RTVSPost2010Prop45
280
     0
102
RTVSPost2010PropOp45
 70
     1
102
RTVSPost2010Prop46
 90
       50
102
RTVSPost2010PropOp46
 70
     1
102
RTVSPost2010Prop47
 90
       50
102
RTVSPost2010PropOp47
 70
     1
102
RTVSPost2010Prop48
 90
       50
102
RTVSPost2010PropOp48
 70
     1
102
RTVSPost2010Prop49
280
     0
102
RTVSPost2010PropOp49
 70
     1
102
RTVSPost2010Prop50
 90
       50
102
RTVSPost2010PropOp50
 70
     1
102
RTVSPost2010Prop51ColorIndex
 90
      256
102
RTVSPost2010Prop51ColorRGB
 90
-16777216
102
RTVSPost2010PropOp51
 70
     0
102
RTVSPost2010Prop52
140
1.0
102
RTVSPost2010PropOp52
 70
     0
102
RTVSPost2010Prop53
 90
        2
102
RTVSPost2010PropOp53
 70
     1
102
RTVSPost2010Prop54
  1
strokes_ogs.tif
102
RTVSPost2010PropOp54
 70
     1
102
RTVSPost2010Prop55
280
     0
102
RTVSPost2010PropOp55
 70
     1
102
RTVSPost2010Prop56
140
1.0
102
RTVSPost2010PropOp56
 70
     1
102
RTVSPost2010Prop57
140
1.0
102
RTVSPost2010PropOp57
 70
     1
  0
XRECORD
  5
1320
102
{ACAD_REACTORS
330
131F
102
}
330
131F
100
AcDbXrecord
280
     1
102
RTVSPost2010Prop28
280
     0
102
RTVSPost2010PropOp28
 70
     1
102
RTVSPost2010Prop29
280
     1
102
RTVSPost2010PropOp29
 70
     1
102
RTVSPost2010Prop30
280
     1
102
RTVSPost2010PropOp30
 70
     1
102
RTVSPost2010Prop31
280
     0
102
RTVSPost2010PropOp31
 70
     1
102
RTVSPost2010Prop32
280
     0
102
RTVSPost2010PropOp32
 70
     1
102
RTVSPost2010Prop33
280
     0
102
RTVSPost2010PropOp33
 70
     1
102
RTVSPost2010Prop34
280
     0
102
RTVSPost2010PropOp34
 70
     1
102
RTVSPost2010Prop35
280
     0
102
RTVSPost2010PropOp35
 70
     1
102
RTVSPost2010Prop36
280
     0
102
RTVSPost2010PropOp36
 70
     1
102
RTVSPost2010Prop37
 90
       50
102
RTVSPost2010PropOp37
 70
     1
102
RTVSPost2010Prop38
140
0.0
102
RTVSPost2010PropOp38
 70
     1
102
RTVSPost2010Prop39
140
1.0
102
RTVSPost2010PropOp39
 70
     1
102
RTVSPost2010Prop40
 90
        0
102
RTVSPost2010PropOp40
 70
     1
102
RTVSPost2010Prop41ColorIndex
 90
       18
102
RTVSPost2010Prop41ColorRGB
 90
        0
102
RTVSPost2010PropOp41
 70
     1
102
RTVSPost2010Prop42
 90
       50
102
RTVSPost2010PropOp42
 70
     1
102
RTVSPost2010Prop43
 90
        3
102
RTVSPost2010PropOp43
 70
     1
102
RTVSPost2010Prop44ColorIndex
 90
        5
102
RTVSPost2010Prop44ColorRGB
 90
      255
102
RTVSPost2010PropOp44
 70
     1
102
RTVSPost2010Prop45
280
     0
102
RTVSPost2010PropOp45
 70
     1
102
RTVSPost2010Prop46
 90
       50
102
RTVSPost2010PropOp46
 70
     1
102
RTVSPost2010Prop47
 90
       50
102
RTVSPost2010PropOp47
 70
     1
102
RTVSPost2010Prop48
 90
       50
102
RTVSPost2010PropOp48
 70
     1
102
RTVSPost2010Prop49
280
     0
102
RTVSPost2010PropOp49
 70
     1
102
RTVSPost2010Prop50
 90
       50
102
RTVSPost2010PropOp50
 70
     1
102
RTVSPost2010Prop51ColorIndex
 90
      256
102
RTVSPost2010Prop51ColorRGB
 90
-16777216
102
RTVSPost2010PropOp51
 70
     0
102
RTVSPost2010Prop52
140
1.0
102
RTVSPost2010PropOp52
 70
     0
102
RTVSPost2010Prop53
 90
        2
102
RTVSPost2010PropOp53
 70
     1
102
RTVSPost2010Prop54
  1
strokes_ogs.tif
102
RTVSPost2010PropOp54
 70
     1
102
RTVSPost2010Prop55
280
     0
102
RTVSPost2010PropOp55
 70
     1
102
RTVSPost2010Prop56
140
1.0
102
RTVSPost2010PropOp56
 70
     1
102
RTVSPost2010Prop57
140
1.0
102
RTVSPost2010PropOp57
 70
     1
  0
XRECORD
  5
1330
102
{ACAD_REACTORS
330
132F
102
}
330
132F
100
AcDbXrecord
280
     1
102
RTVSPost2010Prop28
280
     0
102
RTVSPost2010PropOp28
 70
     0
102
RTVSPost2010Prop29
280
     1
102
RTVSPost2010PropOp29
 70
     0
102
RTVSPost2010Prop30
280
     1
102
RTVSPost2010PropOp30
 70
     0
102
RTVSPost2010Prop31
280
     0
102
RTVSPost2010PropOp31
 70
     0
102
RTVSPost2010Prop32
280
     0
102
RTVSPost2010PropOp32
 70
     0
102
RTVSPost2010Prop33
280
     0
102
RTVSPost2010PropOp33
 70
     0
102
RTVSPost2010Prop34
280
     0
102
RTVSPost2010PropOp34
 70
     0
102
RTVSPost2010Prop35
280
     0
102
RTVSPost2010PropOp35
 70
     0
102
RTVSPost2010Prop36
280
     0
102
RTVSPost2010PropOp36
 70
     0
102
RTVSPost2010Prop37
 90
       50
102
RTVSPost2010PropOp37
 70
     0
102
RTVSPost2010Prop38
140
0.0
102
RTVSPost2010PropOp38
 70
     0
102
RTVSPost2010Prop39
140
1.0
102
RTVSPost2010PropOp39
 70
     0
102
RTVSPost2010Prop40
 90
        0
102
RTVSPost2010PropOp40
 70
     0
102
RTVSPost2010Prop41ColorIndex
 90
       18
102
RTVSPost2010Prop41ColorRGB
 90
        0
102
RTVSPost2010PropOp41
 70
     0
102
RTVSPost2010Prop42
 90
       50
102
RTVSPost2010PropOp42
 70
     0
102
RTVSPost2010Prop43
 90
        3
102
RTVSPost2010PropOp43
 70
     0
102
RTVSPost2010Prop44ColorIndex
 90
        5
102
RTVSPost2010Prop44ColorRGB
 90
      255
102
RTVSPost2010PropOp44
 70
     0
102
RTVSPost2010Prop45
280
     0
102
RTVSPost2010PropOp45
 70
     0
102
RTVSPost2010Prop46
 90
       50
102
RTVSPost2010PropOp46
 70
     0
102
RTVSPost2010Prop47
 90
       50
102
RTVSPost2010PropOp47
 70
     0
102
RTVSPost2010Prop48
 90
       50
102
RTVSPost2010PropOp48
 70
     0
102
RTVSPost2010Prop49
280
     0
102
RTVSPost2010PropOp49
 70
     0
102
RTVSPost2010Prop50
 90
       50
102
RTVSPost2010PropOp50
 70
     0
102
RTVSPost2010Prop51ColorIndex
 90
      256
102
RTVSPost2010Prop51ColorRGB
 90
-16777216
102
RTVSPost2010PropOp51
 70
     0
102
RTVSPost2010Prop52
140
1.0
102
RTVSPost2010PropOp52
 70
     0
102
RTVSPost2010Prop53
 90
        2
102
RTVSPost2010PropOp53
 70
     0
102
RTVSPost2010Prop54
  1
strokes_ogs.tif
102
RTVSPost2010PropOp54
 70
     0
102
RTVSPost2010Prop55
280
     0
102
RTVSPost2010PropOp55
 70
     0
102
RTVSPost2010Prop56
140
1.0
102
RTVSPost2010PropOp56
 70
     0
102
RTVSPost2010Prop57
140
1.0
102
RTVSPost2010PropOp57
 70
     0
  0
XRECORD
  5
1328
102
{ACAD_REACTORS
330
1327
102
}
330
1327
100
AcDbXrecord
280
     1
102
RTVSPost2010Prop28
280
     0
102
RTVSPost2010PropOp28
 70
     1
102
RTVSPost2010Prop29
280
     1
102
RTVSPost2010PropOp29
 70
     1
102
RTVSPost2010Prop30
280
     1
102
RTVSPost2010PropOp30
 70
     1
102
RTVSPost2010Prop31
280
     0
102
RTVSPost2010PropOp31
 70
     1
102
RTVSPost2010Prop32
280
     0
102
RTVSPost2010PropOp32
 70
     1
102
RTVSPost2010Prop33
280
     0
102
RTVSPost2010PropOp33
 70
     1
102
RTVSPost2010Prop34
280
     0
102
RTVSPost2010PropOp34
 70
     1
102
RTVSPost2010Prop35
280
     0
102
RTVSPost2010PropOp35
 70
     1
102
RTVSPost2010Prop36
280
     0
102
RTVSPost2010PropOp36
 70
     1
102
RTVSPost2010Prop37
 90
       50
102
RTVSPost2010PropOp37
 70
     1
102
RTVSPost2010Prop38
140
0.0
102
RTVSPost2010PropOp38
 70
     1
102
RTVSPost2010Prop39
140
1.0
102
RTVSPost2010PropOp39
 70
     1
102
RTVSPost2010Prop40
 90
        0
102
RTVSPost2010PropOp40
 70
     1
102
RTVSPost2010Prop41ColorIndex
 90
       18
102
RTVSPost2010Prop41ColorRGB
 90
        0
102
RTVSPost2010PropOp41
 70
     1
102
RTVSPost2010Prop42
 90
       50
102
RTVSPost2010PropOp42
 70
     1
102
RTVSPost2010Prop43
 90
        3
102
RTVSPost2010PropOp43
 70
     1
102
RTVSPost2010Prop44ColorIndex
 90
        5
102
RTVSPost2010Prop44ColorRGB
 90
      255
102
RTVSPost2010PropOp44
 70
     1
102
RTVSPost2010Prop45
280
     0
102
RTVSPost2010PropOp45
 70
     1
102
RTVSPost2010Prop46
 90
       50
102
RTVSPost2010PropOp46
 70
     1
102
RTVSPost2010Prop47
 90
       50
102
RTVSPost2010PropOp47
 70
     1
102
RTVSPost2010Prop48
 90
       50
102
RTVSPost2010PropOp48
 70
     1
102
RTVSPost2010Prop49
280
     0
102
RTVSPost2010PropOp49
 70
     1
102
RTVSPost2010Prop50
 90
       50
102
RTVSPost2010PropOp50
 70
     1
102
RTVSPost2010Prop51ColorIndex
 90
      256
102
RTVSPost2010Prop51ColorRGB
 90
-16777216
102
RTVSPost2010PropOp51
 70
     0
102
RTVSPost2010Prop52
140
1.0
102
RTVSPost2010PropOp52
 70
     0
102
RTVSPost2010Prop53
 90
        2
102
RTVSPost2010PropOp53
 70
     1
102
RTVSPost2010Prop54
  1
strokes_ogs.tif
102
RTVSPost2010PropOp54
 70
     1
102
RTVSPost2010Prop55
280
     0
102
RTVSPost2010PropOp55
 70
     1
102
RTVSPost2010Prop56
140
1.0
102
RTVSPost2010PropOp56
 70
     1
102
RTVSPost2010Prop57
140
1.0
102
RTVSPost2010PropOp57
 70
     1
  0
XRECORD
  5
130C
102
{ACAD_REACTORS
330
130B
102
}
330
130B
100
AcDbXrecord
280
     1
102
RTVSPost2010Prop28
280
     0
102
RTVSPost2010PropOp28
 70
     1
102
RTVSPost2010Prop29
280
     1
102
RTVSPost2010PropOp29
 70
     1
102
RTVSPost2010Prop30
280
     1
102
RTVSPost2010PropOp30
 70
     1
102
RTVSPost2010Prop31
280
     0
102
RTVSPost2010PropOp31
 70
     1
102
RTVSPost2010Prop32
280
     0
102
RTVSPost2010PropOp32
 70
     1
102
RTVSPost2010Prop33
280
     0
102
RTVSPost2010PropOp33
 70
     1
102
RTVSPost2010Prop34
280
     0
102
RTVSPost2010PropOp34
 70
     1
102
RTVSPost2010Prop35
280
     0
102
RTVSPost2010PropOp35
 70
     1
102
RTVSPost2010Prop36
280
     0
102
RTVSPost2010PropOp36
 70
     1
102
RTVSPost2010Prop37
 90
       50
102
RTVSPost2010PropOp37
 70
     1
102
RTVSPost2010Prop38
140
0.0
102
RTVSPost2010PropOp38
 70
     1
102
RTVSPost2010Prop39
140
1.0
102
RTVSPost2010PropOp39
 70
     1
102
RTVSPost2010Prop40
 90
        0
102
RTVSPost2010PropOp40
 70
     1
102
RTVSPost2010Prop41ColorIndex
 90
       18
102
RTVSPost2010Prop41ColorRGB
 90
        0
102
RTVSPost2010PropOp41
 70
     1
102
RTVSPost2010Prop42
 90
       50
102
RTVSPost2010PropOp42
 70
     1
102
RTVSPost2010Prop43
 90
        3
102
RTVSPost2010PropOp43
 70
     1
102
RTVSPost2010Prop44ColorIndex
 90
        5
102
RTVSPost2010Prop44ColorRGB
 90
      255
102
RTVSPost2010PropOp44
 70
     1
102
RTVSPost2010Prop45
280
     0
102
RTVSPost2010PropOp45
 70
     1
102
RTVSPost2010Prop46
 90
       50
102
RTVSPost2010PropOp46
 70
     1
102
RTVSPost2010Prop47
 90
       50
102
RTVSPost2010PropOp47
 70
     1
102
RTVSPost2010Prop48
 90
       50
102
RTVSPost2010PropOp48
 70
     1
102
RTVSPost2010Prop49
280
     0
102
RTVSPost2010PropOp49
 70
     1
102
RTVSPost2010Prop50
 90
       50
102
RTVSPost2010PropOp50
 70
     1
102
RTVSPost2010Prop51ColorIndex
 90
      256
102
RTVSPost2010Prop51ColorRGB
 90
-16777216
102
RTVSPost2010PropOp51
 70
     0
102
RTVSPost2010Prop52
140
1.0
102
RTVSPost2010PropOp52
 70
     0
102
RTVSPost2010Prop53
 90
        2
102
RTVSPost2010PropOp53
 70
     1
102
RTVSPost2010Prop54
  1
strokes_ogs.tif
102
RTVSPost2010PropOp54
 70
     1
102
RTVSPost2010Prop55
280
     0
102
RTVSPost2010PropOp55
 70
     1
102
RTVSPost2010Prop56
140
1.0
102
RTVSPost2010PropOp56
 70
     1
102
RTVSPost2010Prop57
140
1.0
102
RTVSPost2010PropOp57
 70
     1
  0
XRECORD
  5
130E
102
{ACAD_REACTORS
330
130D
102
}
330
130D
100
AcDbXrecord
280
     1
102
RTVSPost2010Prop28
280
     0
102
RTVSPost2010PropOp28
 70
     1
102
RTVSPost2010Prop29
280
     1
102
RTVSPost2010PropOp29
 70
     1
102
RTVSPost2010Prop30
280
     1
102
RTVSPost2010PropOp30
 70
     1
102
RTVSPost2010Prop31
280
     0
102
RTVSPost2010PropOp31
 70
     1
102
RTVSPost2010Prop32
280
     0
102
RTVSPost2010PropOp32
 70
     1
102
RTVSPost2010Prop33
280
     0
102
RTVSPost2010PropOp33
 70
     1
102
RTVSPost2010Prop34
280
     0
102
RTVSPost2010PropOp34
 70
     1
102
RTVSPost2010Prop35
280
     0
102
RTVSPost2010PropOp35
 70
     1
102
RTVSPost2010Prop36
280
     0
102
RTVSPost2010PropOp36
 70
     1
102
RTVSPost2010Prop37
 90
       50
102
RTVSPost2010PropOp37
 70
     1
102
RTVSPost2010Prop38
140
0.0
102
RTVSPost2010PropOp38
 70
     1
102
RTVSPost2010Prop39
140
1.0
102
RTVSPost2010PropOp39
 70
     1
102
RTVSPost2010Prop40
 90
        0
102
RTVSPost2010PropOp40
 70
     1
102
RTVSPost2010Prop41ColorIndex
 90
       18
102
RTVSPost2010Prop41ColorRGB
 90
        0
102
RTVSPost2010PropOp41
 70
     1
102
RTVSPost2010Prop42
 90
       50
102
RTVSPost2010PropOp42
 70
     1
102
RTVSPost2010Prop43
 90
        3
102
RTVSPost2010PropOp43
 70
     1
102
RTVSPost2010Prop44ColorIndex
 90
        5
102
RTVSPost2010Prop44ColorRGB
 90
      255
102
RTVSPost2010PropOp44
 70
     1
102
RTVSPost2010Prop45
280
     0
102
RTVSPost2010PropOp45
 70
     1
102
RTVSPost2010Prop46
 90
       50
102
RTVSPost2010PropOp46
 70
     1
102
RTVSPost2010Prop47
 90
       50
102
RTVSPost2010PropOp47
 70
     1
102
RTVSPost2010Prop48
 90
       50
102
RTVSPost2010PropOp48
 70
     1
102
RTVSPost2010Prop49
280
     0
102
RTVSPost2010PropOp49
 70
     1
102
RTVSPost2010Prop50
 90
       50
102
RTVSPost2010PropOp50
 70
     1
102
RTVSPost2010Prop51ColorIndex
 90
      256
102
RTVSPost2010Prop51ColorRGB
 90
-16777216
102
RTVSPost2010PropOp51
 70
     0
102
RTVSPost2010Prop52
140
1.0
102
RTVSPost2010PropOp52
 70
     0
102
RTVSPost2010Prop53
 90
        2
102
RTVSPost2010PropOp53
 70
     1
102
RTVSPost2010Prop54
  1
strokes_ogs.tif
102
RTVSPost2010PropOp54
 70
     1
102
RTVSPost2010Prop55
280
     0
102
RTVSPost2010PropOp55
 70
     1
102
RTVSPost2010Prop56
140
1.0
102
RTVSPost2010PropOp56
 70
     1
102
RTVSPost2010Prop57
140
1.0
102
RTVSPost2010PropOp57
 70
     1
  0
XRECORD
  5
1310
102
{ACAD_REACTORS
330
130F
102
}
330
130F
100
AcDbXrecord
280
     1
102
RTVSPost2010Prop28
280
     0
102
RTVSPost2010PropOp28
 70
     1
102
RTVSPost2010Prop29
280
     1
102
RTVSPost2010PropOp29
 70
     1
102
RTVSPost2010Prop30
280
     1
102
RTVSPost2010PropOp30
 70
     1
102
RTVSPost2010Prop31
280
     0
102
RTVSPost2010PropOp31
 70
     1
102
RTVSPost2010Prop32
280
     0
102
RTVSPost2010PropOp32
 70
     1
102
RTVSPost2010Prop33
280
     0
102
RTVSPost2010PropOp33
 70
     1
102
RTVSPost2010Prop34
280
     0
102
RTVSPost2010PropOp34
 70
     1
102
RTVSPost2010Prop35
280
     0
102
RTVSPost2010PropOp35
 70
     1
102
RTVSPost2010Prop36
280
     0
102
RTVSPost2010PropOp36
 70
     1
102
RTVSPost2010Prop37
 90
       50
102
RTVSPost2010PropOp37
 70
     1
102
RTVSPost2010Prop38
140
0.0
102
RTVSPost2010PropOp38
 70
     1
102
RTVSPost2010Prop39
140
1.0
102
RTVSPost2010PropOp39
 70
     1
102
RTVSPost2010Prop40
 90
        0
102
RTVSPost2010PropOp40
 70
     1
102
RTVSPost2010Prop41ColorIndex
 90
       18
102
RTVSPost2010Prop41ColorRGB
 90
        0
102
RTVSPost2010PropOp41
 70
     1
102
RTVSPost2010Prop42
 90
       50
102
RTVSPost2010PropOp42
 70
     1
102
RTVSPost2010Prop43
 90
        3
102
RTVSPost2010PropOp43
 70
     1
102
RTVSPost2010Prop44ColorIndex
 90
        5
102
RTVSPost2010Prop44ColorRGB
 90
      255
102
RTVSPost2010PropOp44
 70
     1
102
RTVSPost2010Prop45
280
     0
102
RTVSPost2010PropOp45
 70
     1
102
RTVSPost2010Prop46
 90
       50
102
RTVSPost2010PropOp46
 70
     1
102
RTVSPost2010Prop47
 90
       50
102
RTVSPost2010PropOp47
 70
     1
102
RTVSPost2010Prop48
 90
       50
102
RTVSPost2010PropOp48
 70
     1
102
RTVSPost2010Prop49
280
     0
102
RTVSPost2010PropOp49
 70
     1
102
RTVSPost2010Prop50
 90
       50
102
RTVSPost2010PropOp50
 70
     1
102
RTVSPost2010Prop51ColorIndex
 90
      256
102
RTVSPost2010Prop51ColorRGB
 90
-16777216
102
RTVSPost2010PropOp51
 70
     0
102
RTVSPost2010Prop52
140
1.0
102
RTVSPost2010PropOp52
 70
     0
102
RTVSPost2010Prop53
 90
        2
102
RTVSPost2010PropOp53
 70
     1
102
RTVSPost2010Prop54
  1
strokes_ogs.tif
102
RTVSPost2010PropOp54
 70
     1
102
RTVSPost2010Prop55
280
     0
102
RTVSPost2010PropOp55
 70
     1
102
RTVSPost2010Prop56
140
1.0
102
RTVSPost2010PropOp56
 70
     1
102
RTVSPost2010Prop57
140
1.0
102
RTVSPost2010PropOp57
 70
     1
  0
XRECORD
  5
1312
102
{ACAD_REACTORS
330
1311
102
}
330
1311
100
AcDbXrecord
280
     1
102
RTVSPost2010Prop28
280
     0
102
RTVSPost2010PropOp28
 70
     1
102
RTVSPost2010Prop29
280
     1
102
RTVSPost2010PropOp29
 70
     1
102
RTVSPost2010Prop30
280
     1
102
RTVSPost2010PropOp30
 70
     1
102
RTVSPost2010Prop31
280
     0
102
RTVSPost2010PropOp31
 70
     1
102
RTVSPost2010Prop32
280
     0
102
RTVSPost2010PropOp32
 70
     1
102
RTVSPost2010Prop33
280
     0
102
RTVSPost2010PropOp33
 70
     1
102
RTVSPost2010Prop34
280
     0
102
RTVSPost2010PropOp34
 70
     1
102
RTVSPost2010Prop35
280
     0
102
RTVSPost2010PropOp35
 70
     1
102
RTVSPost2010Prop36
280
     0
102
RTVSPost2010PropOp36
 70
     1
102
RTVSPost2010Prop37
 90
       50
102
RTVSPost2010PropOp37
 70
     1
102
RTVSPost2010Prop38
140
0.0
102
RTVSPost2010PropOp38
 70
     1
102
RTVSPost2010Prop39
140
1.0
102
RTVSPost2010PropOp39
 70
     1
102
RTVSPost2010Prop40
 90
        0
102
RTVSPost2010PropOp40
 70
     1
102
RTVSPost2010Prop41ColorIndex
 90
       18
102
RTVSPost2010Prop41ColorRGB
 90
        0
102
RTVSPost2010PropOp41
 70
     1
102
RTVSPost2010Prop42
 90
       50
102
RTVSPost2010PropOp42
 70
     1
102
RTVSPost2010Prop43
 90
        3
102
RTVSPost2010PropOp43
 70
     1
102
RTVSPost2010Prop44ColorIndex
 90
        5
102
RTVSPost2010Prop44ColorRGB
 90
      255
102
RTVSPost2010PropOp44
 70
     1
102
RTVSPost2010Prop45
280
     0
102
RTVSPost2010PropOp45
 70
     1
102
RTVSPost2010Prop46
 90
       50
102
RTVSPost2010PropOp46
 70
     1
102
RTVSPost2010Prop47
 90
       50
102
RTVSPost2010PropOp47
 70
     1
102
RTVSPost2010Prop48
 90
       50
102
RTVSPost2010PropOp48
 70
     1
102
RTVSPost2010Prop49
280
     0
102
RTVSPost2010PropOp49
 70
     1
102
RTVSPost2010Prop50
 90
       50
102
RTVSPost2010PropOp50
 70
     1
102
RTVSPost2010Prop51ColorIndex
 90
      256
102
RTVSPost2010Prop51ColorRGB
 90
-16777216
102
RTVSPost2010PropOp51
 70
     0
102
RTVSPost2010Prop52
140
1.0
102
RTVSPost2010PropOp52
 70
     0
102
RTVSPost2010Prop53
 90
        2
102
RTVSPost2010PropOp53
 70
     1
102
RTVSPost2010Prop54
  1
strokes_ogs.tif
102
RTVSPost2010PropOp54
 70
     1
102
RTVSPost2010Prop55
280
     0
102
RTVSPost2010PropOp55
 70
     1
102
RTVSPost2010Prop56
140
1.0
102
RTVSPost2010PropOp56
 70
     1
102
RTVSPost2010Prop57
140
1.0
102
RTVSPost2010PropOp57
 70
     1
  0
XRECORD
  5
1318
102
{ACAD_REACTORS
330
1317
102
}
330
1317
100
AcDbXrecord
280
     1
102
RTVSPost2010Prop28
280
     0
102
RTVSPost2010PropOp28
 70
     1
102
RTVSPost2010Prop29
280
     1
102
RTVSPost2010PropOp29
 70
     1
102
RTVSPost2010Prop30
280
     1
102
RTVSPost2010PropOp30
 70
     1
102
RTVSPost2010Prop31
280
     0
102
RTVSPost2010PropOp31
 70
     1
102
RTVSPost2010Prop32
280
     0
102
RTVSPost2010PropOp32
 70
     1
102
RTVSPost2010Prop33
280
     0
102
RTVSPost2010PropOp33
 70
     1
102
RTVSPost2010Prop34
280
     0
102
RTVSPost2010PropOp34
 70
     1
102
RTVSPost2010Prop35
280
     0
102
RTVSPost2010PropOp35
 70
     1
102
RTVSPost2010Prop36
280
     0
102
RTVSPost2010PropOp36
 70
     1
102
RTVSPost2010Prop37
 90
       50
102
RTVSPost2010PropOp37
 70
     1
102
RTVSPost2010Prop38
140
0.0
102
RTVSPost2010PropOp38
 70
     1
102
RTVSPost2010Prop39
140
1.0
102
RTVSPost2010PropOp39
 70
     1
102
RTVSPost2010Prop40
 90
        0
102
RTVSPost2010PropOp40
 70
     1
102
RTVSPost2010Prop41ColorIndex
 90
       18
102
RTVSPost2010Prop41ColorRGB
 90
        0
102
RTVSPost2010PropOp41
 70
     1
102
RTVSPost2010Prop42
 90
       50
102
RTVSPost2010PropOp42
 70
     1
102
RTVSPost2010Prop43
 90
        3
102
RTVSPost2010PropOp43
 70
     1
102
RTVSPost2010Prop44ColorIndex
 90
        5
102
RTVSPost2010Prop44ColorRGB
 90
      255
102
RTVSPost2010PropOp44
 70
     1
102
RTVSPost2010Prop45
280
     0
102
RTVSPost2010PropOp45
 70
     1
102
RTVSPost2010Prop46
 90
       50
102
RTVSPost2010PropOp46
 70
     1
102
RTVSPost2010Prop47
 90
       50
102
RTVSPost2010PropOp47
 70
     1
102
RTVSPost2010Prop48
 90
       50
102
RTVSPost2010PropOp48
 70
     1
102
RTVSPost2010Prop49
280
     0
102
RTVSPost2010PropOp49
 70
     1
102
RTVSPost2010Prop50
 90
       50
102
RTVSPost2010PropOp50
 70
     1
102
RTVSPost2010Prop51ColorIndex
 90
      256
102
RTVSPost2010Prop51ColorRGB
 90
-16777216
102
RTVSPost2010PropOp51
 70
     0
102
RTVSPost2010Prop52
140
1.0
102
RTVSPost2010PropOp52
 70
     0
102
RTVSPost2010Prop53
 90
        2
102
RTVSPost2010PropOp53
 70
     1
102
RTVSPost2010Prop54
  1
strokes_ogs.tif
102
RTVSPost2010PropOp54
 70
     1
102
RTVSPost2010Prop55
280
     0
102
RTVSPost2010PropOp55
 70
     1
102
RTVSPost2010Prop56
140
1.0
102
RTVSPost2010PropOp56
 70
     1
102
RTVSPost2010Prop57
140
1.0
102
RTVSPost2010PropOp57
 70
     1
  0
XRECORD
  5
132C
102
{ACAD_REACTORS
330
132B
102
}
330
132B
100
AcDbXrecord
280
     1
102
RTVSPost2010Prop28
280
     0
102
RTVSPost2010PropOp28
 70
     0
102
RTVSPost2010Prop29
280
     1
102
RTVSPost2010PropOp29
 70
     0
102
RTVSPost2010Prop30
280
     1
102
RTVSPost2010PropOp30
 70
     0
102
RTVSPost2010Prop31
280
     0
102
RTVSPost2010PropOp31
 70
     0
102
RTVSPost2010Prop32
280
     0
102
RTVSPost2010PropOp32
 70
     0
102
RTVSPost2010Prop33
280
     0
102
RTVSPost2010PropOp33
 70
     0
102
RTVSPost2010Prop34
280
     0
102
RTVSPost2010PropOp34
 70
     0
102
RTVSPost2010Prop35
280
     0
102
RTVSPost2010PropOp35
 70
     0
102
RTVSPost2010Prop36
280
     0
102
RTVSPost2010PropOp36
 70
     0
102
RTVSPost2010Prop37
 90
       50
102
RTVSPost2010PropOp37
 70
     0
102
RTVSPost2010Prop38
140
0.0
102
RTVSPost2010PropOp38
 70
     0
102
RTVSPost2010Prop39
140
1.0
102
RTVSPost2010PropOp39
 70
     0
102
RTVSPost2010Prop40
 90
        0
102
RTVSPost2010PropOp40
 70
     0
102
RTVSPost2010Prop41ColorIndex
 90
       18
102
RTVSPost2010Prop41ColorRGB
 90
        0
102
RTVSPost2010PropOp41
 70
     0
102
RTVSPost2010Prop42
 90
       50
102
RTVSPost2010PropOp42
 70
     0
102
RTVSPost2010Prop43
 90
        3
102
RTVSPost2010PropOp43
 70
     0
102
RTVSPost2010Prop44ColorIndex
 90
        5
102
RTVSPost2010Prop44ColorRGB
 90
      255
102
RTVSPost2010PropOp44
 70
     0
102
RTVSPost2010Prop45
280
     0
102
RTVSPost2010PropOp45
 70
     0
102
RTVSPost2010Prop46
 90
       50
102
RTVSPost2010PropOp46
 70
     0
102
RTVSPost2010Prop47
 90
       50
102
RTVSPost2010PropOp47
 70
     0
102
RTVSPost2010Prop48
 90
       50
102
RTVSPost2010PropOp48
 70
     0
102
RTVSPost2010Prop49
280
     0
102
RTVSPost2010PropOp49
 70
     0
102
RTVSPost2010Prop50
 90
       50
102
RTVSPost2010PropOp50
 70
     0
102
RTVSPost2010Prop51ColorIndex
 90
      256
102
RTVSPost2010Prop51ColorRGB
 90
-16777216
102
RTVSPost2010PropOp51
 70
     0
102
RTVSPost2010Prop52
140
1.0
102
RTVSPost2010PropOp52
 70
     0
102
RTVSPost2010Prop53
 90
        2
102
RTVSPost2010PropOp53
 70
     0
102
RTVSPost2010Prop54
  1
strokes_ogs.tif
102
RTVSPost2010PropOp54
 70
     0
102
RTVSPost2010Prop55
280
     0
102
RTVSPost2010PropOp55
 70
     0
102
RTVSPost2010Prop56
140
1.0
102
RTVSPost2010PropOp56
 70
     0
102
RTVSPost2010Prop57
140
1.0
102
RTVSPost2010PropOp57
 70
     0
  0
XRECORD
  5
1326
102
{ACAD_REACTORS
330
1325
102
}
330
1325
100
AcDbXrecord
280
     1
102
RTVSPost2010Prop28
280
     0
102
RTVSPost2010PropOp28
 70
     1
102
RTVSPost2010Prop29
280
     1
102
RTVSPost2010PropOp29
 70
     1
102
RTVSPost2010Prop30
280
     1
102
RTVSPost2010PropOp30
 70
     1
102
RTVSPost2010Prop31
280
     0
102
RTVSPost2010PropOp31
 70
     1
102
RTVSPost2010Prop32
280
     0
102
RTVSPost2010PropOp32
 70
     1
102
RTVSPost2010Prop33
280
     0
102
RTVSPost2010PropOp33
 70
     1
102
RTVSPost2010Prop34
280
     0
102
RTVSPost2010PropOp34
 70
     1
102
RTVSPost2010Prop35
280
     0
102
RTVSPost2010PropOp35
 70
     1
102
RTVSPost2010Prop36
280
     0
102
RTVSPost2010PropOp36
 70
     1
102
RTVSPost2010Prop37
 90
       50
102
RTVSPost2010PropOp37
 70
     1
102
RTVSPost2010Prop38
140
0.0
102
RTVSPost2010PropOp38
 70
     1
102
RTVSPost2010Prop39
140
1.0
102
RTVSPost2010PropOp39
 70
     1
102
RTVSPost2010Prop40
 90
        0
102
RTVSPost2010PropOp40
 70
     1
102
RTVSPost2010Prop41ColorIndex
 90
       18
102
RTVSPost2010Prop41ColorRGB
 90
        0
102
RTVSPost2010PropOp41
 70
     1
102
RTVSPost2010Prop42
 90
       50
102
RTVSPost2010PropOp42
 70
     1
102
RTVSPost2010Prop43
 90
        3
102
RTVSPost2010PropOp43
 70
     1
102
RTVSPost2010Prop44ColorIndex
 90
        5
102
RTVSPost2010Prop44ColorRGB
 90
      255
102
RTVSPost2010PropOp44
 70
     1
102
RTVSPost2010Prop45
280
     0
102
RTVSPost2010PropOp45
 70
     1
102
RTVSPost2010Prop46
 90
       50
102
RTVSPost2010PropOp46
 70
     1
102
RTVSPost2010Prop47
 90
       50
102
RTVSPost2010PropOp47
 70
     1
102
RTVSPost2010Prop48
 90
       50
102
RTVSPost2010PropOp48
 70
     1
102
RTVSPost2010Prop49
280
     0
102
RTVSPost2010PropOp49
 70
     1
102
RTVSPost2010Prop50
 90
       50
102
RTVSPost2010PropOp50
 70
     1
102
RTVSPost2010Prop51ColorIndex
 90
      256
102
RTVSPost2010Prop51ColorRGB
 90
-16777216
102
RTVSPost2010PropOp51
 70
     0
102
RTVSPost2010Prop52
140
1.0
102
RTVSPost2010PropOp52
 70
     0
102
RTVSPost2010Prop53
 90
        2
102
RTVSPost2010PropOp53
 70
     1
102
RTVSPost2010Prop54
  1
strokes_ogs.tif
102
RTVSPost2010PropOp54
 70
     1
102
RTVSPost2010Prop55
280
     0
102
RTVSPost2010PropOp55
 70
     1
102
RTVSPost2010Prop56
140
1.0
102
RTVSPost2010PropOp56
 70
     1
102
RTVSPost2010Prop57
140
1.0
102
RTVSPost2010PropOp57
 70
     1
  0
XRECORD
  5
132E
102
{ACAD_REACTORS
330
132D
102
}
330
132D
100
AcDbXrecord
280
     1
102
RTVSPost2010Prop28
280
     0
102
RTVSPost2010PropOp28
 70
     0
102
RTVSPost2010Prop29
280
     1
102
RTVSPost2010PropOp29
 70
     0
102
RTVSPost2010Prop30
280
     1
102
RTVSPost2010PropOp30
 70
     0
102
RTVSPost2010Prop31
280
     0
102
RTVSPost2010PropOp31
 70
     0
102
RTVSPost2010Prop32
280
     0
102
RTVSPost2010PropOp32
 70
     0
102
RTVSPost2010Prop33
280
     0
102
RTVSPost2010PropOp33
 70
     0
102
RTVSPost2010Prop34
280
     0
102
RTVSPost2010PropOp34
 70
     0
102
RTVSPost2010Prop35
280
     0
102
RTVSPost2010PropOp35
 70
     0
102
RTVSPost2010Prop36
280
     0
102
RTVSPost2010PropOp36
 70
     0
102
RTVSPost2010Prop37
 90
       50
102
RTVSPost2010PropOp37
 70
     0
102
RTVSPost2010Prop38
140
0.0
102
RTVSPost2010PropOp38
 70
     0
102
RTVSPost2010Prop39
140
1.0
102
RTVSPost2010PropOp39
 70
     0
102
RTVSPost2010Prop40
 90
        0
102
RTVSPost2010PropOp40
 70
     0
102
RTVSPost2010Prop41ColorIndex
 90
       18
102
RTVSPost2010Prop41ColorRGB
 90
        0
102
RTVSPost2010PropOp41
 70
     0
102
RTVSPost2010Prop42
 90
       50
102
RTVSPost2010PropOp42
 70
     0
102
RTVSPost2010Prop43
 90
        3
102
RTVSPost2010PropOp43
 70
     0
102
RTVSPost2010Prop44ColorIndex
 90
        5
102
RTVSPost2010Prop44ColorRGB
 90
      255
102
RTVSPost2010PropOp44
 70
     0
102
RTVSPost2010Prop45
280
     0
102
RTVSPost2010PropOp45
 70
     0
102
RTVSPost2010Prop46
 90
       50
102
RTVSPost2010PropOp46
 70
     0
102
RTVSPost2010Prop47
 90
       50
102
RTVSPost2010PropOp47
 70
     0
102
RTVSPost2010Prop48
 90
       50
102
RTVSPost2010PropOp48
 70
     0
102
RTVSPost2010Prop49
280
     0
102
RTVSPost2010PropOp49
 70
     0
102
RTVSPost2010Prop50
 90
       50
102
RTVSPost2010PropOp50
 70
     0
102
RTVSPost2010Prop51ColorIndex
 90
      256
102
RTVSPost2010Prop51ColorRGB
 90
-16777216
102
RTVSPost2010PropOp51
 70
     0
102
RTVSPost2010Prop52
140
1.0
102
RTVSPost2010PropOp52
 70
     0
102
RTVSPost2010Prop53
 90
        2
102
RTVSPost2010PropOp53
 70
     0
102
RTVSPost2010Prop54
  1
strokes_ogs.tif
102
RTVSPost2010PropOp54
 70
     0
102
RTVSPost2010Prop55
280
     0
102
RTVSPost2010PropOp55
 70
     0
102
RTVSPost2010Prop56
140
1.0
102
RTVSPost2010PropOp56
 70
     0
102
RTVSPost2010Prop57
140
1.0
102
RTVSPost2010PropOp57
 70
     0
  0
XRECORD
  5
131C
102
{ACAD_REACTORS
330
131B
102
}
330
131B
100
AcDbXrecord
280
     1
102
RTVSPost2010Prop28
280
     0
102
RTVSPost2010PropOp28
 70
     1
102
RTVSPost2010Prop29
280
     1
102
RTVSPost2010PropOp29
 70
     1
102
RTVSPost2010Prop30
280
     1
102
RTVSPost2010PropOp30
 70
     1
102
RTVSPost2010Prop31
280
     0
102
RTVSPost2010PropOp31
 70
     1
102
RTVSPost2010Prop32
280
     0
102
RTVSPost2010PropOp32
 70
     1
102
RTVSPost2010Prop33
280
     0
102
RTVSPost2010PropOp33
 70
     1
102
RTVSPost2010Prop34
280
     0
102
RTVSPost2010PropOp34
 70
     1
102
RTVSPost2010Prop35
280
     0
102
RTVSPost2010PropOp35
 70
     1
102
RTVSPost2010Prop36
280
     0
102
RTVSPost2010PropOp36
 70
     1
102
RTVSPost2010Prop37
 90
       50
102
RTVSPost2010PropOp37
 70
     1
102
RTVSPost2010Prop38
140
0.0
102
RTVSPost2010PropOp38
 70
     1
102
RTVSPost2010Prop39
140
1.0
102
RTVSPost2010PropOp39
 70
     1
102
RTVSPost2010Prop40
 90
        0
102
RTVSPost2010PropOp40
 70
     1
102
RTVSPost2010Prop41ColorIndex
 90
       18
102
RTVSPost2010Prop41ColorRGB
 90
        0
102
RTVSPost2010PropOp41
 70
     1
102
RTVSPost2010Prop42
 90
       50
102
RTVSPost2010PropOp42
 70
     1
102
RTVSPost2010Prop43
 90
        3
102
RTVSPost2010PropOp43
 70
     1
102
RTVSPost2010Prop44ColorIndex
 90
        5
102
RTVSPost2010Prop44ColorRGB
 90
      255
102
RTVSPost2010PropOp44
 70
     1
102
RTVSPost2010Prop45
280
     0
102
RTVSPost2010PropOp45
 70
     1
102
RTVSPost2010Prop46
 90
       50
102
RTVSPost2010PropOp46
 70
     1
102
RTVSPost2010Prop47
 90
       50
102
RTVSPost2010PropOp47
 70
     1
102
RTVSPost2010Prop48
 90
       50
102
RTVSPost2010PropOp48
 70
     1
102
RTVSPost2010Prop49
280
     0
102
RTVSPost2010PropOp49
 70
     1
102
RTVSPost2010Prop50
 90
       50
102
RTVSPost2010PropOp50
 70
     1
102
RTVSPost2010Prop51ColorIndex
 90
      256
102
RTVSPost2010Prop51ColorRGB
 90
-16777216
102
RTVSPost2010PropOp51
 70
     0
102
RTVSPost2010Prop52
140
1.0
102
RTVSPost2010PropOp52
 70
     0
102
RTVSPost2010Prop53
 90
        2
102
RTVSPost2010PropOp53
 70
     1
102
RTVSPost2010Prop54
  1
strokes_ogs.tif
102
RTVSPost2010PropOp54
 70
     1
102
RTVSPost2010Prop55
280
     0
102
RTVSPost2010PropOp55
 70
     1
102
RTVSPost2010Prop56
140
1.0
102
RTVSPost2010PropOp56
 70
     1
102
RTVSPost2010Prop57
140
1.0
102
RTVSPost2010PropOp57
 70
     1
  0
XRECORD
  5
133A
102
{ACAD_REACTORS
330
1339
102
}
330
1339
100
AcDbXrecord
280
     1
102
RTVSPost2010Prop28
280
     0
102
RTVSPost2010PropOp28
 70
     1
102
RTVSPost2010Prop29
280
     1
102
RTVSPost2010PropOp29
 70
     1
102
RTVSPost2010Prop30
280
     1
102
RTVSPost2010PropOp30
 70
     1
102
RTVSPost2010Prop31
280
     0
102
RTVSPost2010PropOp31
 70
     1
102
RTVSPost2010Prop32
280
     0
102
RTVSPost2010PropOp32
 70
     1
102
RTVSPost2010Prop33
280
     0
102
RTVSPost2010PropOp33
 70
     1
102
RTVSPost2010Prop34
280
     0
102
RTVSPost2010PropOp34
 70
     1
102
RTVSPost2010Prop35
280
     0
102
RTVSPost2010PropOp35
 70
     1
102
RTVSPost2010Prop36
280
     0
102
RTVSPost2010PropOp36
 70
     1
102
RTVSPost2010Prop37
 90
       50
102
RTVSPost2010PropOp37
 70
     1
102
RTVSPost2010Prop38
140
0.0
102
RTVSPost2010PropOp38
 70
     1
102
RTVSPost2010Prop39
140
1.0
102
RTVSPost2010PropOp39
 70
     1
102
RTVSPost2010Prop40
 90
        0
102
RTVSPost2010PropOp40
 70
     1
102
RTVSPost2010Prop41ColorIndex
 90
       18
102
RTVSPost2010Prop41ColorRGB
 90
        0
102
RTVSPost2010PropOp41
 70
     1
102
RTVSPost2010Prop42
 90
       50
102
RTVSPost2010PropOp42
 70
     1
102
RTVSPost2010Prop43
 90
        3
102
RTVSPost2010PropOp43
 70
     1
102
RTVSPost2010Prop44ColorIndex
 90
        5
102
RTVSPost2010Prop44ColorRGB
 90
      255
102
RTVSPost2010PropOp44
 70
     1
102
RTVSPost2010Prop45
280
     0
102
RTVSPost2010PropOp45
 70
     1
102
RTVSPost2010Prop46
 90
       50
102
RTVSPost2010PropOp46
 70
     1
102
RTVSPost2010Prop47
 90
       50
102
RTVSPost2010PropOp47
 70
     1
102
RTVSPost2010Prop48
 90
       50
102
RTVSPost2010PropOp48
 70
     1
102
RTVSPost2010Prop49
280
     0
102
RTVSPost2010PropOp49
 70
     1
102
RTVSPost2010Prop50
 90
       50
102
RTVSPost2010PropOp50
 70
     1
102
RTVSPost2010Prop51ColorIndex
 90
      256
102
RTVSPost2010Prop51ColorRGB
 90
-16777216
102
RTVSPost2010PropOp51
 70
     0
102
RTVSPost2010Prop52
140
1.0
102
RTVSPost2010PropOp52
 70
     0
102
RTVSPost2010Prop53
 90
        2
102
RTVSPost2010PropOp53
 70
     1
102
RTVSPost2010Prop54
  1
strokes_ogs.tif
102
RTVSPost2010PropOp54
 70
     1
102
RTVSPost2010Prop55
280
     0
102
RTVSPost2010PropOp55
 70
     1
102
RTVSPost2010Prop56
140
1.0
102
RTVSPost2010PropOp56
 70
     1
102
RTVSPost2010Prop57
140
1.0
102
RTVSPost2010PropOp57
 70
     1
  0
XRECORD
  5
1338
102
{ACAD_REACTORS
330
1337
102
}
330
1337
100
AcDbXrecord
280
     1
102
RTVSPost2010Prop28
280
     0
102
RTVSPost2010PropOp28
 70
     1
102
RTVSPost2010Prop29
280
     1
102
RTVSPost2010PropOp29
 70
     1
102
RTVSPost2010Prop30
280
     1
102
RTVSPost2010PropOp30
 70
     1
102
RTVSPost2010Prop31
280
     0
102
RTVSPost2010PropOp31
 70
     1
102
RTVSPost2010Prop32
280
     0
102
RTVSPost2010PropOp32
 70
     1
102
RTVSPost2010Prop33
280
     0
102
RTVSPost2010PropOp33
 70
     1
102
RTVSPost2010Prop34
280
     0
102
RTVSPost2010PropOp34
 70
     1
102
RTVSPost2010Prop35
280
     0
102
RTVSPost2010PropOp35
 70
     1
102
RTVSPost2010Prop36
280
     0
102
RTVSPost2010PropOp36
 70
     1
102
RTVSPost2010Prop37
 90
       50
102
RTVSPost2010PropOp37
 70
     1
102
RTVSPost2010Prop38
140
0.0
102
RTVSPost2010PropOp38
 70
     1
102
RTVSPost2010Prop39
140
1.0
102
RTVSPost2010PropOp39
 70
     1
102
RTVSPost2010Prop40
 90
        0
102
RTVSPost2010PropOp40
 70
     1
102
RTVSPost2010Prop41ColorIndex
 90
       18
102
RTVSPost2010Prop41ColorRGB
 90
        0
102
RTVSPost2010PropOp41
 70
     1
102
RTVSPost2010Prop42
 90
       50
102
RTVSPost2010PropOp42
 70
     1
102
RTVSPost2010Prop43
 90
        3
102
RTVSPost2010PropOp43
 70
     1
102
RTVSPost2010Prop44ColorIndex
 90
        5
102
RTVSPost2010Prop44ColorRGB
 90
      255
102
RTVSPost2010PropOp44
 70
     1
102
RTVSPost2010Prop45
280
     0
102
RTVSPost2010PropOp45
 70
     1
102
RTVSPost2010Prop46
 90
       50
102
RTVSPost2010PropOp46
 70
     1
102
RTVSPost2010Prop47
 90
       50
102
RTVSPost2010PropOp47
 70
     1
102
RTVSPost2010Prop48
 90
       50
102
RTVSPost2010PropOp48
 70
     1
102
RTVSPost2010Prop49
280
     0
102
RTVSPost2010PropOp49
 70
     1
102
RTVSPost2010Prop50
 90
       50
102
RTVSPost2010PropOp50
 70
     1
102
RTVSPost2010Prop51ColorIndex
 90
      256
102
RTVSPost2010Prop51ColorRGB
 90
-16777216
102
RTVSPost2010PropOp51
 70
     0
102
RTVSPost2010Prop52
140
1.0
102
RTVSPost2010PropOp52
 70
     0
102
RTVSPost2010Prop53
 90
        2
102
RTVSPost2010PropOp53
 70
     1
102
RTVSPost2010Prop54
  1
strokes_ogs.tif
102
RTVSPost2010PropOp54
 70
     1
102
RTVSPost2010Prop55
280
     0
102
RTVSPost2010PropOp55
 70
     1
102
RTVSPost2010Prop56
140
1.0
102
RTVSPost2010PropOp56
 70
     1
102
RTVSPost2010Prop57
140
1.0
102
RTVSPost2010PropOp57
 70
     1
  0
XRECORD
  5
1332
102
{ACAD_REACTORS
330
1331
102
}
330
1331
100
AcDbXrecord
280
     1
102
RTVSPost2010Prop28
280
     0
102
RTVSPost2010PropOp28
 70
     1
102
RTVSPost2010Prop29
280
     1
102
RTVSPost2010PropOp29
 70
     1
102
RTVSPost2010Prop30
280
     1
102
RTVSPost2010PropOp30
 70
     1
102
RTVSPost2010Prop31
280
     0
102
RTVSPost2010PropOp31
 70
     1
102
RTVSPost2010Prop32
280
     0
102
RTVSPost2010PropOp32
 70
     1
102
RTVSPost2010Prop33
280
     0
102
RTVSPost2010PropOp33
 70
     1
102
RTVSPost2010Prop34
280
     0
102
RTVSPost2010PropOp34
 70
     1
102
RTVSPost2010Prop35
280
     0
102
RTVSPost2010PropOp35
 70
     1
102
RTVSPost2010Prop36
280
     0
102
RTVSPost2010PropOp36
 70
     1
102
RTVSPost2010Prop37
 90
       50
102
RTVSPost2010PropOp37
 70
     1
102
RTVSPost2010Prop38
140
0.0
102
RTVSPost2010PropOp38
 70
     1
102
RTVSPost2010Prop39
140
1.0
102
RTVSPost2010PropOp39
 70
     1
102
RTVSPost2010Prop40
 90
        0
102
RTVSPost2010PropOp40
 70
     1
102
RTVSPost2010Prop41ColorIndex
 90
       18
102
RTVSPost2010Prop41ColorRGB
 90
        0
102
RTVSPost2010PropOp41
 70
     1
102
RTVSPost2010Prop42
 90
       50
102
RTVSPost2010PropOp42
 70
     1
102
RTVSPost2010Prop43
 90
        3
102
RTVSPost2010PropOp43
 70
     1
102
RTVSPost2010Prop44ColorIndex
 90
        5
102
RTVSPost2010Prop44ColorRGB
 90
      255
102
RTVSPost2010PropOp44
 70
     1
102
RTVSPost2010Prop45
280
     0
102
RTVSPost2010PropOp45
 70
     1
102
RTVSPost2010Prop46
 90
       50
102
RTVSPost2010PropOp46
 70
     1
102
RTVSPost2010Prop47
 90
       50
102
RTVSPost2010PropOp47
 70
     1
102
RTVSPost2010Prop48
 90
       50
102
RTVSPost2010PropOp48
 70
     1
102
RTVSPost2010Prop49
280
     0
102
RTVSPost2010PropOp49
 70
     1
102
RTVSPost2010Prop50
 90
       50
102
RTVSPost2010PropOp50
 70
     1
102
RTVSPost2010Prop51ColorIndex
 90
      256
102
RTVSPost2010Prop51ColorRGB
 90
-16777216
102
RTVSPost2010PropOp51
 70
     0
102
RTVSPost2010Prop52
140
1.0
102
RTVSPost2010PropOp52
 70
     0
102
RTVSPost2010Prop53
 90
        2
102
RTVSPost2010PropOp53
 70
     1
102
RTVSPost2010Prop54
  1
strokes_ogs.tif
102
RTVSPost2010PropOp54
 70
     1
102
RTVSPost2010Prop55
280
     0
102
RTVSPost2010PropOp55
 70
     1
102
RTVSPost2010Prop56
140
1.0
102
RTVSPost2010PropOp56
 70
     1
102
RTVSPost2010Prop57
140
1.0
102
RTVSPost2010PropOp57
 70
     1
  0
XRECORD
  5
1334
102
{ACAD_REACTORS
330
1333
102
}
330
1333
100
AcDbXrecord
280
     1
102
RTVSPost2010Prop28
280
     0
102
RTVSPost2010PropOp28
 70
     1
102
RTVSPost2010Prop29
280
     1
102
RTVSPost2010PropOp29
 70
     1
102
RTVSPost2010Prop30
280
     1
102
RTVSPost2010PropOp30
 70
     1
102
RTVSPost2010Prop31
280
     0
102
RTVSPost2010PropOp31
 70
     1
102
RTVSPost2010Prop32
280
     0
102
RTVSPost2010PropOp32
 70
     1
102
RTVSPost2010Prop33
280
     0
102
RTVSPost2010PropOp33
 70
     1
102
RTVSPost2010Prop34
280
     0
102
RTVSPost2010PropOp34
 70
     1
102
RTVSPost2010Prop35
280
     0
102
RTVSPost2010PropOp35
 70
     1
102
RTVSPost2010Prop36
280
     0
102
RTVSPost2010PropOp36
 70
     1
102
RTVSPost2010Prop37
 90
       50
102
RTVSPost2010PropOp37
 70
     1
102
RTVSPost2010Prop38
140
0.0
102
RTVSPost2010PropOp38
 70
     1
102
RTVSPost2010Prop39
140
1.0
102
RTVSPost2010PropOp39
 70
     1
102
RTVSPost2010Prop40
 90
        0
102
RTVSPost2010PropOp40
 70
     1
102
RTVSPost2010Prop41ColorIndex
 90
       18
102
RTVSPost2010Prop41ColorRGB
 90
        0
102
RTVSPost2010PropOp41
 70
     1
102
RTVSPost2010Prop42
 90
       50
102
RTVSPost2010PropOp42
 70
     1
102
RTVSPost2010Prop43
 90
        3
102
RTVSPost2010PropOp43
 70
     1
102
RTVSPost2010Prop44ColorIndex
 90
        5
102
RTVSPost2010Prop44ColorRGB
 90
      255
102
RTVSPost2010PropOp44
 70
     1
102
RTVSPost2010Prop45
280
     0
102
RTVSPost2010PropOp45
 70
     1
102
RTVSPost2010Prop46
 90
       50
102
RTVSPost2010PropOp46
 70
     1
102
RTVSPost2010Prop47
 90
       50
102
RTVSPost2010PropOp47
 70
     1
102
RTVSPost2010Prop48
 90
       50
102
RTVSPost2010PropOp48
 70
     1
102
RTVSPost2010Prop49
280
     0
102
RTVSPost2010PropOp49
 70
     1
102
RTVSPost2010Prop50
 90
       50
102
RTVSPost2010PropOp50
 70
     1
102
RTVSPost2010Prop51ColorIndex
 90
      256
102
RTVSPost2010Prop51ColorRGB
 90
-16777216
102
RTVSPost2010PropOp51
 70
     0
102
RTVSPost2010Prop52
140
1.0
102
RTVSPost2010PropOp52
 70
     0
102
RTVSPost2010Prop53
 90
        2
102
RTVSPost2010PropOp53
 70
     1
102
RTVSPost2010Prop54
  1
strokes_ogs.tif
102
RTVSPost2010PropOp54
 70
     1
102
RTVSPost2010Prop55
280
     0
102
RTVSPost2010PropOp55
 70
     1
102
RTVSPost2010Prop56
140
1.0
102
RTVSPost2010PropOp56
 70
     1
102
RTVSPost2010Prop57
140
1.0
102
RTVSPost2010PropOp57
 70
     1
  0
XRECORD
  5
1324
102
{ACAD_REACTORS
330
1323
102
}
330
1323
100
AcDbXrecord
280
     1
102
RTVSPost2010Prop28
280
     0
102
RTVSPost2010PropOp28
 70
     1
102
RTVSPost2010Prop29
280
     1
102
RTVSPost2010PropOp29
 70
     1
102
RTVSPost2010Prop30
280
     1
102
RTVSPost2010PropOp30
 70
     1
102
RTVSPost2010Prop31
280
     0
102
RTVSPost2010PropOp31
 70
     1
102
RTVSPost2010Prop32
280
     0
102
RTVSPost2010PropOp32
 70
     1
102
RTVSPost2010Prop33
280
     0
102
RTVSPost2010PropOp33
 70
     1
102
RTVSPost2010Prop34
280
     0
102
RTVSPost2010PropOp34
 70
     1
102
RTVSPost2010Prop35
280
     0
102
RTVSPost2010PropOp35
 70
     1
102
RTVSPost2010Prop36
280
     0
102
RTVSPost2010PropOp36
 70
     1
102
RTVSPost2010Prop37
 90
       50
102
RTVSPost2010PropOp37
 70
     1
102
RTVSPost2010Prop38
140
0.0
102
RTVSPost2010PropOp38
 70
     1
102
RTVSPost2010Prop39
140
1.0
102
RTVSPost2010PropOp39
 70
     1
102
RTVSPost2010Prop40
 90
        0
102
RTVSPost2010PropOp40
 70
     1
102
RTVSPost2010Prop41ColorIndex
 90
       18
102
RTVSPost2010Prop41ColorRGB
 90
        0
102
RTVSPost2010PropOp41
 70
     1
102
RTVSPost2010Prop42
 90
       50
102
RTVSPost2010PropOp42
 70
     1
102
RTVSPost2010Prop43
 90
        3
102
RTVSPost2010PropOp43
 70
     1
102
RTVSPost2010Prop44ColorIndex
 90
        5
102
RTVSPost2010Prop44ColorRGB
 90
      255
102
RTVSPost2010PropOp44
 70
     1
102
RTVSPost2010Prop45
280
     0
102
RTVSPost2010PropOp45
 70
     1
102
RTVSPost2010Prop46
 90
       50
102
RTVSPost2010PropOp46
 70
     1
102
RTVSPost2010Prop47
 90
       50
102
RTVSPost2010PropOp47
 70
     1
102
RTVSPost2010Prop48
 90
       50
102
RTVSPost2010PropOp48
 70
     1
102
RTVSPost2010Prop49
280
     0
102
RTVSPost2010PropOp49
 70
     1
102
RTVSPost2010Prop50
 90
       50
102
RTVSPost2010PropOp50
 70
     1
102
RTVSPost2010Prop51ColorIndex
 90
      256
102
RTVSPost2010Prop51ColorRGB
 90
-16777216
102
RTVSPost2010PropOp51
 70
     0
102
RTVSPost2010Prop52
140
1.0
102
RTVSPost2010PropOp52
 70
     0
102
RTVSPost2010Prop53
 90
        2
102
RTVSPost2010PropOp53
 70
     1
102
RTVSPost2010Prop54
  1
strokes_ogs.tif
102
RTVSPost2010PropOp54
 70
     1
102
RTVSPost2010Prop55
280
     0
102
RTVSPost2010PropOp55
 70
     1
102
RTVSPost2010Prop56
140
1.0
102
RTVSPost2010PropOp56
 70
     1
102
RTVSPost2010Prop57
140
1.0
102
RTVSPost2010PropOp57
 70
     1
  0
XRECORD
  5
1316
102
{ACAD_REACTORS
330
1315
102
}
330
1315
100
AcDbXrecord
280
     1
102
RTVSPost2010Prop28
280
     0
102
RTVSPost2010PropOp28
 70
     1
102
RTVSPost2010Prop29
280
     1
102
RTVSPost2010PropOp29
 70
     1
102
RTVSPost2010Prop30
280
     1
102
RTVSPost2010PropOp30
 70
     1
102
RTVSPost2010Prop31
280
     0
102
RTVSPost2010PropOp31
 70
     1
102
RTVSPost2010Prop32
280
     0
102
RTVSPost2010PropOp32
 70
     1
102
RTVSPost2010Prop33
280
     0
102
RTVSPost2010PropOp33
 70
     1
102
RTVSPost2010Prop34
280
     0
102
RTVSPost2010PropOp34
 70
     1
102
RTVSPost2010Prop35
280
     0
102
RTVSPost2010PropOp35
 70
     1
102
RTVSPost2010Prop36
280
     0
102
RTVSPost2010PropOp36
 70
     1
102
RTVSPost2010Prop37
 90
       50
102
RTVSPost2010PropOp37
 70
     1
102
RTVSPost2010Prop38
140
0.0
102
RTVSPost2010PropOp38
 70
     1
102
RTVSPost2010Prop39
140
1.0
102
RTVSPost2010PropOp39
 70
     1
102
RTVSPost2010Prop40
 90
        0
102
RTVSPost2010PropOp40
 70
     1
102
RTVSPost2010Prop41ColorIndex
 90
       18
102
RTVSPost2010Prop41ColorRGB
 90
        0
102
RTVSPost2010PropOp41
 70
     1
102
RTVSPost2010Prop42
 90
       50
102
RTVSPost2010PropOp42
 70
     1
102
RTVSPost2010Prop43
 90
        3
102
RTVSPost2010PropOp43
 70
     1
102
RTVSPost2010Prop44ColorIndex
 90
        5
102
RTVSPost2010Prop44ColorRGB
 90
      255
102
RTVSPost2010PropOp44
 70
     1
102
RTVSPost2010Prop45
280
     0
102
RTVSPost2010PropOp45
 70
     1
102
RTVSPost2010Prop46
 90
       50
102
RTVSPost2010PropOp46
 70
     1
102
RTVSPost2010Prop47
 90
       50
102
RTVSPost2010PropOp47
 70
     1
102
RTVSPost2010Prop48
 90
       50
102
RTVSPost2010PropOp48
 70
     1
102
RTVSPost2010Prop49
280
     0
102
RTVSPost2010PropOp49
 70
     1
102
RTVSPost2010Prop50
 90
       50
102
RTVSPost2010PropOp50
 70
     1
102
RTVSPost2010Prop51ColorIndex
 90
      256
102
RTVSPost2010Prop51ColorRGB
 90
-16777216
102
RTVSPost2010PropOp51
 70
     0
102
RTVSPost2010Prop52
140
1.0
102
RTVSPost2010PropOp52
 70
     0
102
RTVSPost2010Prop53
 90
        2
102
RTVSPost2010PropOp53
 70
     1
102
RTVSPost2010Prop54
  1
strokes_ogs.tif
102
RTVSPost2010PropOp54
 70
     1
102
RTVSPost2010Prop55
280
     0
102
RTVSPost2010PropOp55
 70
     1
102
RTVSPost2010Prop56
140
1.0
102
RTVSPost2010PropOp56
 70
     1
102
RTVSPost2010Prop57
140
1.0
102
RTVSPost2010PropOp57
 70
     1
  0
XRECORD
  5
1336
102
{ACAD_REACTORS
330
1335
102
}
330
1335
100
AcDbXrecord
280
     1
102
RTVSPost2010Prop28
280
     0
102
RTVSPost2010PropOp28
 70
     1
102
RTVSPost2010Prop29
280
     1
102
RTVSPost2010PropOp29
 70
     1
102
RTVSPost2010Prop30
280
     1
102
RTVSPost2010PropOp30
 70
     1
102
RTVSPost2010Prop31
280
     0
102
RTVSPost2010PropOp31
 70
     1
102
RTVSPost2010Prop32
280
     0
102
RTVSPost2010PropOp32
 70
     1
102
RTVSPost2010Prop33
280
     0
102
RTVSPost2010PropOp33
 70
     1
102
RTVSPost2010Prop34
280
     0
102
RTVSPost2010PropOp34
 70
     1
102
RTVSPost2010Prop35
280
     0
102
RTVSPost2010PropOp35
 70
     1
102
RTVSPost2010Prop36
280
     0
102
RTVSPost2010PropOp36
 70
     1
102
RTVSPost2010Prop37
 90
       50
102
RTVSPost2010PropOp37
 70
     1
102
RTVSPost2010Prop38
140
0.0
102
RTVSPost2010PropOp38
 70
     1
102
RTVSPost2010Prop39
140
1.0
102
RTVSPost2010PropOp39
 70
     1
102
RTVSPost2010Prop40
 90
        0
102
RTVSPost2010PropOp40
 70
     1
102
RTVSPost2010Prop41ColorIndex
 90
       18
102
RTVSPost2010Prop41ColorRGB
 90
        0
102
RTVSPost2010PropOp41
 70
     1
102
RTVSPost2010Prop42
 90
       50
102
RTVSPost2010PropOp42
 70
     1
102
RTVSPost2010Prop43
 90
        3
102
RTVSPost2010PropOp43
 70
     1
102
RTVSPost2010Prop44ColorIndex
 90
        5
102
RTVSPost2010Prop44ColorRGB
 90
      255
102
RTVSPost2010PropOp44
 70
     1
102
RTVSPost2010Prop45
280
     0
102
RTVSPost2010PropOp45
 70
     1
102
RTVSPost2010Prop46
 90
       50
102
RTVSPost2010PropOp46
 70
     1
102
RTVSPost2010Prop47
 90
       50
102
RTVSPost2010PropOp47
 70
     1
102
RTVSPost2010Prop48
 90
       50
102
RTVSPost2010PropOp48
 70
     1
102
RTVSPost2010Prop49
280
     0
102
RTVSPost2010PropOp49
 70
     1
102
RTVSPost2010Prop50
 90
       50
102
RTVSPost2010PropOp50
 70
     1
102
RTVSPost2010Prop51ColorIndex
 90
      256
102
RTVSPost2010Prop51ColorRGB
 90
-16777216
102
RTVSPost2010PropOp51
 70
     0
102
RTVSPost2010Prop52
140
1.0
102
RTVSPost2010PropOp52
 70
     0
102
RTVSPost2010Prop53
 90
        2
102
RTVSPost2010PropOp53
 70
     1
102
RTVSPost2010Prop54
  1
strokes_ogs.tif
102
RTVSPost2010PropOp54
 70
     1
102
RTVSPost2010Prop55
280
     0
102
RTVSPost2010PropOp55
 70
     1
102
RTVSPost2010Prop56
140
1.0
102
RTVSPost2010PropOp56
 70
     1
102
RTVSPost2010Prop57
140
1.0
102
RTVSPost2010PropOp57
 70
     1
  0
ENDSEC
  0
EOF
