  0
SECTION
  2
HEADER
  9
$ACADVER
  1
AC1024
  9
$ACADMAINTVER
 70
   181
  9
$DWGCODEPAGE
  3
ANSI_932
  9
$LASTSAVEDBY
  1
kenzai
  9
$INSBASE
 10
0.0
 20
0.0
 30
0.0
  9
$EXTMIN
 10
-138.0163109423782
 20
-94.50884959708066
 30
-0.0015258207003583
  9
$EXTMAX
 10
138.51780768614
 20
95.01217699040683
 30
0.0000000349246037
  9
$LIMMIN
 10
-148.0
 20
-104.5
  9
$LIMMAX
 10
149.0
 20
105.5
  9
$ORTHOMODE
 70
     1
  9
$REGENMODE
 70
     1
  9
$FILLMODE
 70
     1
  9
$QTEXTMODE
 70
     0
  9
$MIRRTEXT
 70
     1
  9
$LTSCALE
 40
0.3
  9
$ATTMODE
 70
     1
  9
$TEXTSIZE
 40
2.5
  9
$TRACEWID
 40
1.0
  9
$TEXTSTYLE
  7
Standard
  9
$CLAYER
  8
0
  9
$CELTYPE
  6
ByLayer
  9
$CECOLOR
 62
   256
  9
$CELTSCALE
 40
1.0
  9
$DISPSILH
 70
     0
  9
$DIMSCALE
 40
1.0
  9
$DIMASZ
 40
2.5
  9
$DIMEXO
 40
0.625
  9
$DIMDLI
 40
3.75
  9
$DIMRND
 40
0.0
  9
$DIMDLE
 40
0.0
  9
$DIMEXE
 40
1.25
  9
$DIMTP
 40
0.0
  9
$DIMTM
 40
0.0
  9
$DIMTXT
 40
2.5
  9
$DIMCEN
 40
2.5
  9
$DIMTSZ
 40
0.0
  9
$DIMTOL
 70
     0
  9
$DIMLIM
 70
     0
  9
$DIMTIH
 70
     0
  9
$DIMTOH
 70
     0
  9
$DIMSE1
 70
     0
  9
$DIMSE2
 70
     0
  9
$DIMTAD
 70
     1
  9
$DIMZIN
 70
     8
  9
$DIMBLK
  1

  9
$DIMASO
 70
     1
  9
$DIMSHO
 70
     1
  9
$DIMPOST
  1

  9
$DIMAPOST
  1

  9
$DIMALT
 70
     0
  9
$DIMALTD
 70
     3
  9
$DIMALTF
 40
0.03937007874016
  9
$DIMLFAC
 40
1.0
  9
$DIMTOFL
 70
     1
  9
$DIMTVP
 40
0.0
  9
$DIMTIX
 70
     0
  9
$DIMSOXD
 70
     0
  9
$DIMSAH
 70
     0
  9
$DIMBLK1
  1

  9
$DIMBLK2
  1

  9
$DIMSTYLE
  2
ISO-25
  9
$DIMCLRD
 70
     0
  9
$DIMCLRE
 70
     0
  9
$DIMCLRT
 70
     0
  9
$DIMTFAC
 40
1.0
  9
$DIMGAP
 40
0.625
  9
$DIMJUST
 70
     0
  9
$DIMSD1
 70
     0
  9
$DIMSD2
 70
     0
  9
$DIMTOLJ
 70
     0
  9
$DIMTZIN
 70
     8
  9
$DIMALTZ
 70
     0
  9
$DIMALTTZ
 70
     0
  9
$DIMUPT
 70
     0
  9
$DIMDEC
 70
     2
  9
$DIMTDEC
 70
     2
  9
$DIMALTU
 70
     2
  9
$DIMALTTD
 70
     3
  9
$DIMTXSTY
  7
Standard
  9
$DIMAUNIT
 70
     0
  9
$DIMADEC
 70
     0
  9
$DIMALTRND
 40
0.0
  9
$DIMAZIN
 70
     0
  9
$DIMDSEP
 70
    44
  9
$DIMATFIT
 70
     3
  9
$DIMFRAC
 70
     0
  9
$DIMLDRBLK
  1

  9
$DIMLUNIT
 70
     2
  9
$DIMLWD
 70
    -2
  9
$DIMLWE
 70
    -2
  9
$DIMTMOVE
 70
     0
  9
$DIMFXL
 40
1.0
  9
$DIMFXLON
 70
     0
  9
$DIMJOGANG
 40
0.7853981633974483
  9
$DIMTFILL
 70
     0
  9
$DIMTFILLCLR
 70
     0
  9
$DIMARCSYM
 70
     0
  9
$DIMLTYPE
  6

  9
$DIMLTEX1
  6

  9
$DIMLTEX2
  6

  9
$DIMTXTDIRECTION
 70
     0
  9
$LUNITS
 70
     2
  9
$LUPREC
 70
     4
  9
$SKETCHINC
 40
1.0
  9
$FILLETRAD
 40
10.0
  9
$AUNITS
 70
     0
  9
$AUPREC
 70
     0
  9
$MENU
  1
.
  9
$ELEVATION
 40
0.0
  9
$PELEVATION
 40
0.0
  9
$THICKNESS
 40
0.0
  9
$LIMCHECK
 70
     0
  9
$CHAMFERA
 40
10.0
  9
$CHAMFERB
 40
10.0
  9
$CHAMFERC
 40
20.0
  9
$CHAMFERD
 40
0.0
  9
$SKPOLY
 70
     0
  9
$TDCREATE
 40
2454600.733721968
  9
$TDUCREATE
 40
2454600.358721968
  9
$TDUPDATE
 40
2457291.670776262
  9
$TDUUPDATE
 40
2457291.295776262
  9
$TDINDWG
 40
0.0739737963
  9
$TDUSRTIMER
 40
0.0738405324
  9
$USRTIMER
 70
     1
  9
$ANGBASE
 50
0.0
  9
$ANGDIR
 70
     0
  9
$PDMODE
 70
     0
  9
$PDSIZE
 40
0.0
  9
$PLINEWID
 40
0.0
  9
$SPLFRAME
 70
     0
  9
$SPLINETYPE
 70
     6
  9
$SPLINESEGS
 70
     8
  9
$HANDSEED
  5
5E9
  9
$SURFTAB1
 70
     6
  9
$SURFTAB2
 70
     6
  9
$SURFTYPE
 70
     6
  9
$SURFU
 70
     6
  9
$SURFV
 70
     6
  9
$UCSBASE
  2

  9
$UCSNAME
  2

  9
$UCSORG
 10
0.0
 20
0.0
 30
0.0
  9
$UCSXDIR
 10
1.0
 20
0.0
 30
0.0
  9
$UCSYDIR
 10
0.0
 20
1.0
 30
0.0
  9
$UCSORTHOREF
  2

  9
$UCSORTHOVIEW
 70
     0
  9
$UCSORGTOP
 10
0.0
 20
0.0
 30
0.0
  9
$UCSORGBOTTOM
 10
0.0
 20
0.0
 30
0.0
  9
$UCSORGLEFT
 10
0.0
 20
0.0
 30
0.0
  9
$UCSORGRIGHT
 10
0.0
 20
0.0
 30
0.0
  9
$UCSORGFRONT
 10
0.0
 20
0.0
 30
0.0
  9
$UCSORGBACK
 10
0.0
 20
0.0
 30
0.0
  9
$PUCSBASE
  2

  9
$PUCSNAME
  2

  9
$PUCSORG
 10
0.0
 20
0.0
 30
0.0
  9
$PUCSXDIR
 10
1.0
 20
0.0
 30
0.0
  9
$PUCSYDIR
 10
0.0
 20
1.0
 30
0.0
  9
$PUCSORTHOREF
  2

  9
$PUCSORTHOVIEW
 70
     0
  9
$PUCSORGTOP
 10
0.0
 20
0.0
 30
0.0
  9
$PUCSORGBOTTOM
 10
0.0
 20
0.0
 30
0.0
  9
$PUCSORGLEFT
 10
0.0
 20
0.0
 30
0.0
  9
$PUCSORGRIGHT
 10
0.0
 20
0.0
 30
0.0
  9
$PUCSORGFRONT
 10
0.0
 20
0.0
 30
0.0
  9
$PUCSORGBACK
 10
0.0
 20
0.0
 30
0.0
  9
$USERI1
 70
     0
  9
$USERI2
 70
     0
  9
$USERI3
 70
     0
  9
$USERI4
 70
     0
  9
$USERI5
 70
     0
  9
$USERR1
 40
0.0
  9
$USERR2
 40
0.0
  9
$USERR3
 40
0.0
  9
$USERR4
 40
0.0
  9
$USERR5
 40
0.0
  9
$WORLDVIEW
 70
     1
  9
$SHADEDGE
 70
     3
  9
$SHADEDIF
 70
    70
  9
$TILEMODE
 70
     1
  9
$MAXACTVP
 70
    64
  9
$PINSBASE
 10
0.0
 20
0.0
 30
0.0
  9
$PLIMCHECK
 70
     0
  9
$PEXTMIN
 10
1.000000000000000E+20
 20
1.000000000000000E+20
 30
1.000000000000000E+20
  9
$PEXTMAX
 10
-1.000000000000000E+20
 20
-1.000000000000000E+20
 30
-1.000000000000000E+20
  9
$PLIMMIN
 10
-148.0
 20
-104.5
  9
$PLIMMAX
 10
149.0
 20
105.5
  9
$UNITMODE
 70
     0
  9
$VISRETAIN
 70
     1
  9
$PLINEGEN
 70
     0
  9
$PSLTSCALE
 70
     1
  9
$TREEDEPTH
 70
  3020
  9
$CMLSTYLE
  2
Standard
  9
$CMLJUST
 70
     0
  9
$CMLSCALE
 40
20.0
  9
$PROXYGRAPHICS
 70
     1
  9
$MEASUREMENT
 70
     1
  9
$CELWEIGHT
370
    -1
  9
$ENDCAPS
280
     0
  9
$JOINSTYLE
280
     0
  9
$LWDISPLAY
290
     1
  9
$INSUNITS
 70
     4
  9
$HYPERLINKBASE
  1

  9
$STYLESHEET
  1
MONOCHROME.CTB
  9
$XEDIT
290
     1
  9
$CEPSNTYPE
380
     0
  9
$PSTYLEMODE
290
     1
  9
$FINGERPRINTGUID
  2
{7F1800B0-6234-460B-99A7-A8393BBE185C}
  9
$VERSIONGUID
  2
{DB518966-127D-4A00-B459-339291C4C978}
  9
$EXTNAMES
290
     1
  9
$PSVPSCALE
 40
0.0
  9
$OLESTARTUP
290
     0
  9
$SORTENTS
280
   127
  9
$INDEXCTL
280
     0
  9
$HIDETEXT
280
     0
  9
$XCLIPFRAME
280
     2
  9
$HALOGAP
280
     0
  9
$OBSCOLOR
 70
   257
  9
$OBSLTYPE
280
     0
  9
$INTERSECTIONDISPLAY
280
     0
  9
$INTERSECTIONCOLOR
 70
   257
  9
$DIMASSOC
280
     1
  9
$PROJECTNAME
  1

  9
$CAMERADISPLAY
290
     0
  9
$LENSLENGTH
 40
50.0
  9
$CAMERAHEIGHT
 40
0.0
  9
$STEPSPERSEC
 40
2.0
  9
$STEPSIZE
 40
6.0
  9
$3DDWFPREC
 40
2.0
  9
$PSOLWIDTH
 40
0.25
  9
$PSOLHEIGHT
 40
4.0
  9
$LOFTANG1
 40
1.570796326794896
  9
$LOFTANG2
 40
1.570796326794896
  9
$LOFTMAG1
 40
0.0
  9
$LOFTMAG2
 40
0.0
  9
$LOFTPARAM
 70
     7
  9
$LOFTNORMALS
280
     1
  9
$LATITUDE
 40
37.795
  9
$LONGITUDE
 40
-122.394
  9
$NORTHDIRECTION
 40
0.0
  9
$TIMEZONE
 70
 -8000
  9
$LIGHTGLYPHDISPLAY
280
     1
  9
$TILEMODELIGHTSYNCH
280
     1
  9
$CMATERIAL
347
506
  9
$SOLIDHIST
280
     0
  9
$SHOWHIST
280
     1
  9
$DWFFRAME
280
     2
  9
$DGNFRAME
280
     0
  9
$REALWORLDSCALE
290
     1
  9
$INTERFERECOLOR
 62
     1
  9
$INTERFEREOBJVS
345
528
  9
$INTERFEREVPVS
346
525
  9
$CSHADOW
280
     0
  9
$SHADOWPLANELOCATION
 40
0.0
  0
ENDSEC
  0
SECTION
  2
CLASSES
  0
CLASS
  1
ACDBDICTIONARYWDFLT
  2
AcDbDictionaryWithDefault
  3
ObjectDBX Classes
 90
        0
 91
        1
280
     0
281
     0
  0
CLASS
  1
TABLESTYLE
  2
AcDbTableStyle
  3
ObjectDBX Classes
 90
     4095
 91
        1
280
     0
281
     0
  0
CLASS
  1
DICTIONARYVAR
  2
AcDbDictionaryVar
  3
ObjectDBX Classes
 90
        0
 91
       19
280
     0
281
     0
  0
CLASS
  1
SORTENTSTABLE
  2
AcDbSortentsTable
  3
ObjectDBX Classes
 90
        0
 91
        2
280
     0
281
     0
  0
CLASS
  1
MATERIAL
  2
AcDbMaterial
  3
ObjectDBX Classes
 90
     1153
 91
        3
280
     0
281
     0
  0
CLASS
  1
VISUALSTYLE
  2
AcDbVisualStyle
  3
ObjectDBX Classes
 90
     4095
 91
       24
280
     0
281
     0
  0
CLASS
  1
SCALE
  2
AcDbScale
  3
ObjectDBX Classes
 90
     1153
 91
       17
280
     0
281
     0
  0
CLASS
  1
MLEADERSTYLE
  2
AcDbMLeaderStyle
  3
ACDB_MLEADERSTYLE_CLASS
 90
     4095
 91
        1
280
     0
281
     0
  0
CLASS
  1
ACDBSECTIONVIEWSTYLE
  2
AcDbSectionViewStyle
  3
ObjectDBX Classes
 90
     1025
 91
        1
280
     0
281
     0
  0
CLASS
  1
ACDBDETAILVIEWSTYLE
  2
AcDbDetailViewStyle
  3
ObjectDBX Classes
 90
     1025
 91
        1
280
     0
281
     0
  0
CLASS
  1
CELLSTYLEMAP
  2
AcDbCellStyleMap
  3
ObjectDBX Classes
 90
     1152
 91
        1
280
     0
281
     0
  0
ENDSEC
  0
SECTION
  2
TABLES
  0
TABLE
  2
VPORT
  5
8
330
0
100
AcDbSymbolTable
 70
     1
  0
VPORT
  5
4FC
330
8
100
AcDbSymbolTableRecord
100
AcDbViewportTableRecord
  2
*Active
 70
     0
 10
0.0
 20
0.0
 11
1.0
 21
1.0
 12
0.2507483718809027
 22
0.251663696663087
 13
0.0
 23
0.0
 14
10.0
 24
10.0
 15
10.0
 25
10.0
 16
0.0
 26
0.0
 36
1.0
 17
0.0
 27
0.0
 37
0.0
 40
190.9077658064203
 41
1.905982905982905
 42
50.0
 43
0.0
 44
0.0
 50
0.0
 51
0.0
 71
     0
 72
   100
 73
     1
 74
     3
 75
     0
 76
     0
 77
     0
 78
     0
281
     0
 65
     1
110
0.0
120
0.0
130
0.0
111
1.0
121
0.0
131
0.0
112
0.0
122
1.0
132
0.0
 79
     0
146
0.0
348
524
 60
     3
 61
     5
292
     1
282
     1
141
0.0
142
0.0
 63
   250
421
  3355443
1001
ACAD_NAV_VCDISPLAY
1070
     3
  0
ENDTAB
  0
TABLE
  2
LTYPE
  5
5
330
0
100
AcDbSymbolTable
 70
     7
  0
LTYPE
  5
14
330
5
100
AcDbSymbolTableRecord
100
AcDbLinetypeTableRecord
  2
ByBlock
 70
     0
  3

 72
    65
 73
     0
 40
0.0
  0
LTYPE
  5
15
330
5
100
AcDbSymbolTableRecord
100
AcDbLinetypeTableRecord
  2
ByLayer
 70
     0
  3

 72
    65
 73
     0
 40
0.0
  0
LTYPE
  5
16
330
5
100
AcDbSymbolTableRecord
100
AcDbLinetypeTableRecord
  2
Continuous
 70
     0
  3
Solid line
 72
    65
 73
     0
 40
0.0
  0
LTYPE
  5
2A
330
5
100
AcDbSymbolTableRecord
100
AcDbLinetypeTableRecord
  2
CONTINOUS
 70
     0
  3
______________________________
 72
    65
 73
     0
 40
0.0
  0
LTYPE
  5
2B
330
5
100
AcDbSymbolTableRecord
100
AcDbLinetypeTableRecord
  2
DASHED
 70
     0
  3
__ __ __ __ __ __ __ __ __ __ __ __ __ __ __ __
 72
    65
 73
     2
 40
4.5
 49
3.0
 74
     0
 49
-1.5
 74
     0
  0
LTYPE
  5
2C
330
5
100
AcDbSymbolTableRecord
100
AcDbLinetypeTableRecord
  2
PHANTOM
 70
     0
  3
______  __  __  ______  __  __  _____
 72
    65
 73
     6
 40
15.0
 49
7.5
 74
     0
 49
-1.5
 74
     0
 49
1.5
 74
     0
 49
-1.5
 74
     0
 49
1.5
 74
     0
 49
-1.5
 74
     0
  0
LTYPE
  5
2D
330
5
100
AcDbSymbolTableRecord
100
AcDbLinetypeTableRecord
  2
CENTER
 70
     0
  3
____ _ ____ _ ____ _ ____ _ ____ _ ____
 72
    65
 73
     4
 40
12.0
 49
7.5
 74
     0
 49
-1.5
 74
     0
 49
1.5
 74
     0
 49
-1.5
 74
     0
  0
LTYPE
  5
2A2
330
5
100
AcDbSymbolTableRecord
100
AcDbLinetypeTableRecord
  2
CENTER2
 70
     0
  3
Center (.5x) ___ _ ___ _ ___ _ ___ _ ___ _ ___
 72
    65
 73
     4
 40
28.575
 49
19.05
 74
     0
 49
-3.174999999999998
 74
     0
 49
3.174999999999998
 74
     0
 49
-3.174999999999998
 74
     0
  0
LTYPE
  5
2A3
330
5
100
AcDbSymbolTableRecord
100
AcDbLinetypeTableRecord
  2
HIDDEN2
 70
     0
  3
Hidden (.5x) _ _ _ _ _ _ _ _ _ _ _ _ _ _ _ _ _
 72
    65
 73
     2
 40
4.762499999999998
 49
3.174999999999998
 74
     0
 49
-1.587499999999999
 74
     0
  0
ENDTAB
  0
TABLE
  2
LAYER
  5
2
102
{ACAD_XDICTIONARY
360
320
102
}
330
0
100
AcDbSymbolTable
 70
    10
  0
LAYER
  5
10
102
{ACAD_XDICTIONARY
360
55C
102
}
330
2
100
AcDbSymbolTableRecord
100
AcDbLayerTableRecord
  2
0
 70
     0
 62
     7
  6
Continuous
370
    -3
390
F
347
516
  0
LAYER
  5
22E
330
2
100
AcDbSymbolTableRecord
100
AcDbLayerTableRecord
  2
Defpoints
 70
     0
 62
     7
  6
Continuous
290
     0
370
    -3
390
F
347
516
  0
LAYER
  5
28E
102
{ACAD_XDICTIONARY
360
55E
102
}
330
2
100
AcDbSymbolTableRecord
100
AcDbLayerTableRecord
  2
VIEW0001
 70
     0
 62
     7
  6
Continuous
370
    -3
390
F
347
516
  0
LAYER
  5
2A4
102
{ACAD_XDICTIONARY
360
560
102
}
330
2
100
AcDbSymbolTableRecord
100
AcDbLayerTableRecord
  2
外形線
 70
     0
 62
     7
  6
Continuous
370
    30
390
F
347
516
1001
AcAecLayerStandard
1000

1000

  0
LAYER
  5
2A5
102
{ACAD_XDICTIONARY
360
562
102
}
330
2
100
AcDbSymbolTableRecord
100
AcDbLayerTableRecord
  2
図枠
 70
     0
 62
     7
  6
Continuous
370
    30
390
F
347
516
1001
AcAecLayerStandard
1000

1000

  0
LAYER
  5
2A6
102
{ACAD_XDICTIONARY
360
564
102
}
330
2
100
AcDbSymbolTableRecord
100
AcDbLayerTableRecord
  2
寸法線
 70
     0
 62
     3
  6
Continuous
370
    15
390
F
347
516
1001
AcAecLayerStandard
1000

1000

  0
LAYER
  5
2A7
102
{ACAD_XDICTIONARY
360
566
102
}
330
2
100
AcDbSymbolTableRecord
100
AcDbLayerTableRecord
  2
中心線
 70
     0
 62
     5
  6
CENTER2
370
    -3
390
F
347
516
1001
AcAecLayerStandard
1000

1000

  0
LAYER
  5
2A8
102
{ACAD_XDICTIONARY
360
568
102
}
330
2
100
AcDbSymbolTableRecord
100
AcDbLayerTableRecord
  2
破線
 70
     0
 62
     4
  6
HIDDEN2
370
    -3
390
F
347
516
1001
AcAecLayerStandard
1000

1000

  0
LAYER
  5
2A9
102
{ACAD_XDICTIONARY
360
56A
102
}
330
2
100
AcDbSymbolTableRecord
100
AcDbLayerTableRecord
  2
文字
 70
     0
 62
     2
  6
Continuous
370
    -3
390
F
347
516
1001
AcAecLayerStandard
1000

1000

  0
LAYER
  5
2AA
102
{ACAD_XDICTIONARY
360
56C
102
}
330
2
100
AcDbSymbolTableRecord
100
AcDbLayerTableRecord
  2
補助線
 70
     0
 62
   252
  6
HIDDEN2
290
     0
370
    -3
390
F
347
516
1001
AcAecLayerStandard
1000

1000

  0
ENDTAB
  0
TABLE
  2
STYLE
  5
3
330
0
100
AcDbSymbolTable
 70
     1
  0
STYLE
  5
11
330
3
100
AcDbSymbolTableRecord
100
AcDbTextStyleTableRecord
  2
Standard
 70
     0
 40
0.0
 41
1.0
 50
0.0
 71
     0
 42
2.5
  3
txt
  4
EXTFONT
  0
ENDTAB
  0
TABLE
  2
VIEW
  5
6
330
0
100
AcDbSymbolTable
 70
     0
  0
ENDTAB
  0
TABLE
  2
UCS
  5
7
330
0
100
AcDbSymbolTable
 70
     0
  0
ENDTAB
  0
TABLE
  2
APPID
  5
9
330
0
100
AcDbSymbolTable
 70
     4
  0
APPID
  5
12
330
9
100
AcDbSymbolTableRecord
100
AcDbRegAppTableRecord
  2
ACAD
 70
     0
  0
APPID
  5
2AC
330
9
100
AcDbSymbolTableRecord
100
AcDbRegAppTableRecord
  2
AcAecLayerStandard
 70
     0
  0
APPID
  5
4AC
330
9
100
AcDbSymbolTableRecord
100
AcDbRegAppTableRecord
  2
ACAD_PSEXT
 70
     0
  0
APPID
  5
553
330
9
100
AcDbSymbolTableRecord
100
AcDbRegAppTableRecord
  2
ACAD_NAV_VCDISPLAY
 70
     0
  0
ENDTAB
  0
TABLE
  2
DIMSTYLE
  5
A
330
0
100
AcDbSymbolTable
 70
     2
100
AcDbDimStyleTable
 71
     1
340
27
  0
DIMSTYLE
105
27
102
{ACAD_REACTORS
330
227
330
242
330
254
330
266
330
27A
102
}
330
A
100
AcDbSymbolTableRecord
100
AcDbDimStyleTableRecord
  2
ISO-25
 70
     0
 41
2.5
 42
0.625
 43
3.75
 44
1.25
 73
     0
 74
     0
 77
     1
 78
     8
140
2.5
141
2.5
143
0.03937007874016
147
0.625
171
     3
172
     1
271
     2
272
     2
274
     3
278
    44
283
     0
284
     8
340
11
  0
DIMSTYLE
105
2AB
330
A
100
AcDbSymbolTableRecord
100
AcDbDimStyleTableRecord
  2
Standard
 70
     0
340
11
  0
ENDTAB
  0
TABLE
  2
BLOCK_RECORD
  5
1
330
0
100
AcDbSymbolTable
 70
     8
  0
BLOCK_RECORD
  5
1F
102
{ACAD_XDICTIONARY
360
31C
102
}
330
1
100
AcDbSymbolTableRecord
100
AcDbBlockTableRecord
  2
*Model_Space
340
22
 70
     0
280
     1
281
     0
  0
BLOCK_RECORD
  5
1B
330
1
100
AcDbSymbolTableRecord
100
AcDbBlockTableRecord
  2
*Paper_Space
340
1E
 70
     0
280
     1
281
     0
  0
BLOCK_RECORD
  5
23
330
1
100
AcDbSymbolTableRecord
100
AcDbBlockTableRecord
  2
*Paper_Space0
340
26
 70
     0
280
     1
281
     0
  0
BLOCK_RECORD
  5
228
330
1
100
AcDbSymbolTableRecord
100
AcDbBlockTableRecord
  2
_Open30
340
0
102
{BLKREFS
331
36B
331
36C
331
38D
331
38E
331
3B8
331
3B9
331
3C0
331
3C1
331
3C8
331
3C9
102
}
 70
     0
280
     1
281
     0
  0
BLOCK_RECORD
  5
22F
330
1
100
AcDbSymbolTableRecord
100
AcDbBlockTableRecord
  2
*D2
340
0
 70
     0
280
     1
281
     0
  0
BLOCK_RECORD
  5
243
330
1
100
AcDbSymbolTableRecord
100
AcDbBlockTableRecord
  2
*D3
340
0
 70
     0
280
     1
281
     0
  0
BLOCK_RECORD
  5
255
330
1
100
AcDbSymbolTableRecord
100
AcDbBlockTableRecord
  2
*D4
340
0
 70
     0
280
     1
281
     0
  0
BLOCK_RECORD
  5
267
330
1
100
AcDbSymbolTableRecord
100
AcDbBlockTableRecord
  2
*D5
340
0
 70
     0
280
     1
281
     0
  0
BLOCK_RECORD
  5
27B
330
1
100
AcDbSymbolTableRecord
100
AcDbBlockTableRecord
  2
*D6
340
0
 70
     0
280
     1
281
     0
  0
ENDTAB
  0
ENDSEC
  0
SECTION
  2
BLOCKS
  0
BLOCK
  5
20
330
1F
100
AcDbEntity
  8
0
100
AcDbBlockBegin
  2
*Model_Space
 70
     0
 10
0.0
 20
0.0
 30
0.0
  3
*Model_Space
  1

  0
ENDBLK
  5
21
330
1F
100
AcDbEntity
  8
0
100
AcDbBlockEnd
  0
BLOCK
  5
1C
330
1B
100
AcDbEntity
 67
     1
  8
0
100
AcDbBlockBegin
  2
*Paper_Space
 70
     0
 10
0.0
 20
0.0
 30
0.0
  3
*Paper_Space
  1

  0
ENDBLK
  5
1D
330
1B
100
AcDbEntity
 67
     1
  8
0
100
AcDbBlockEnd
  0
BLOCK
  5
24
330
23
100
AcDbEntity
 67
     1
  8
0
100
AcDbBlockBegin
  2
*Paper_Space0
 70
     0
 10
0.0
 20
0.0
 30
0.0
  3
*Paper_Space0
  1

  0
ENDBLK
  5
25
330
23
100
AcDbEntity
 67
     1
  8
0
100
AcDbBlockEnd
  0
BLOCK
  5
229
330
228
100
AcDbEntity
  8
0
100
AcDbBlockBegin
  2
_Open30
 70
     0
 10
0.0
 20
0.0
 30
0.0
  3
_Open30
  1

  0
LINE
  5
22B
330
228
100
AcDbEntity
  8
0
  6
ByBlock
 62
     0
370
    -2
100
AcDbLine
 10
-1.0
 20
0.267949
 30
0.0
 11
0.0
 21
0.0
 31
0.0
  0
LINE
  5
22C
330
228
100
AcDbEntity
  8
0
  6
ByBlock
 62
     0
370
    -2
100
AcDbLine
 10
0.0
 20
0.0
 30
0.0
 11
-1.0
 21
-0.267949
 31
0.0
  0
LINE
  5
22D
330
228
100
AcDbEntity
  8
0
  6
ByBlock
 62
     0
370
    -2
100
AcDbLine
 10
0.0
 20
0.0
 30
0.0
 11
-1.0
 21
0.0
 31
0.0
  0
ENDBLK
  5
22A
330
228
100
AcDbEntity
  8
0
100
AcDbBlockEnd
  0
BLOCK
  5
239
330
22F
100
AcDbEntity
  8
0
100
AcDbBlockBegin
  2
*D2
 70
     1
 10
0.0
 20
0.0
 30
0.0
  3
*D2
  1

  0
LINE
  5
368
330
22F
100
AcDbEntity
  8
寸法線
 62
     0
440
 16777216
370
    -2
100
AcDbLine
 10
18.88473267293958
 20
59.09972228885258
 30
0.0
 11
27.99866428132906
 21
59.09972228885258
 31
0.0
  0
LINE
  5
369
330
22F
100
AcDbEntity
  8
寸法線
 62
     0
440
 16777216
370
    -2
100
AcDbLine
 10
18.88473267293958
 20
33.98971619008384
 30
0.0
 11
27.99866428132905
 21
33.98971619008384
 31
0.0
  0
LINE
  5
36A
330
22F
100
AcDbEntity
  8
寸法線
 62
     0
440
 16777216
370
    -2
100
AcDbLine
 10
27.13080711076031
 20
56.09972228885258
 30
0.0
 11
27.13080711076031
 21
36.98971619008384
 31
0.0
  0
INSERT
  5
36B
330
22F
100
AcDbEntity
  8
寸法線
 62
     0
440
 16777216
370
    -2
100
AcDbBlockReference
  2
_Open30
 10
27.13080711076031
 20
59.09972228885258
 30
0.0
 41
3.0
 42
3.0
 43
3.0
 50
90.0
  0
INSERT
  5
36C
330
22F
100
AcDbEntity
  8
寸法線
 62
     0
440
 16777216
370
    -2
100
AcDbBlockReference
  2
_Open30
 10
27.13080711076031
 20
33.98971619008384
 30
0.0
 41
3.0
 42
3.0
 43
3.0
 50
270.0
  0
MTEXT
  5
36D
330
22F
100
AcDbEntity
  8
寸法線
 62
     0
440
 16777216
100
AcDbMText
 10
24.73080707499752
 20
46.5447192394682
 30
0.0
 40
3.200000047683716
 41
0.0
 46
0.0
 71
     5
 72
     1
  1
∅A
 11
0.0000000000000001
 21
1.0
 31
0.0
 73
     1
 44
1.0
1001
ACAD
1000
MTEXTBEGIN
1070
    73
1070
     1
1070
    44
1040
1.0
1070
    74
1070
     0
1000
MTEXTEND
  0
POINT
  5
36E
330
22F
100
AcDbEntity
  8
Defpoints
 62
     0
440
 16777216
100
AcDbPoint
 10
16.34473267293958
 20
59.09972228885258
 30
0.0
  0
POINT
  5
36F
330
22F
100
AcDbEntity
  8
Defpoints
 62
     0
440
 16777216
100
AcDbPoint
 10
16.34473267293958
 20
33.98971619008384
 30
0.0
  0
POINT
  5
370
330
22F
100
AcDbEntity
  8
Defpoints
 62
     0
440
 16777216
100
AcDbPoint
 10
27.13080711076031
 20
33.98971619008384
 30
0.0
  0
ENDBLK
  5
23A
330
22F
100
AcDbEntity
  8
0
100
AcDbBlockEnd
  0
BLOCK
  5
24C
330
243
100
AcDbEntity
  8
0
100
AcDbBlockBegin
  2
*D3
 70
     1
 10
0.0
 20
0.0
 30
0.0
  3
*D3
  1

  0
LINE
  5
3BE
330
243
100
AcDbEntity
  8
寸法線
 62
     0
440
 16777216
370
    -2
100
AcDbLine
 10
-3.702766642953408
 20
64.37347590746401
 30
0.0
 11
-3.702766642953406
 21
75.97664592563361
 31
0.0
  0
LINE
  5
3BF
330
243
100
AcDbEntity
  8
寸法線
 62
     0
440
 16777216
370
    -2
100
AcDbLine
 10
-33.10276547044484
 20
75.10878875506481
 30
0.0
 11
-6.702766642953407
 21
75.10878875506481
 31
0.0
  0
INSERT
  5
3C0
330
243
100
AcDbEntity
  8
寸法線
 62
     0
440
 16777216
370
    -2
100
AcDbBlockReference
  2
_Open30
 10
-36.10276547044485
 20
75.10878875506481
 30
0.0
 41
3.0
 42
3.0
 43
3.0
 50
180.0
  0
INSERT
  5
3C1
330
243
100
AcDbEntity
  8
寸法線
 62
     0
440
 16777216
370
    -2
100
AcDbBlockReference
  2
_Open30
 10
-3.702766642953406
 20
75.10878875506481
 30
0.0
 41
3.0
 42
3.0
 43
3.0
  0
MTEXT
  5
3C2
330
243
100
AcDbEntity
  8
寸法線
 62
     0
440
 16777216
100
AcDbMText
 10
-19.90276495316164
 20
77.50878879082761
 30
0.0
 40
3.200000047683716
 41
0.0
 46
0.0
 71
     5
 72
     1
  1
L1
 73
     1
 44
1.0
1001
ACAD
1000
MTEXTBEGIN
1070
    73
1070
     1
1070
    44
1040
1.0
1070
    74
1070
     0
1000
MTEXTEND
  0
POINT
  5
3C3
330
243
100
AcDbEntity
  8
Defpoints
 62
     0
440
 16777216
100
AcDbPoint
 10
-36.10276547044485
 20
60.57797471969561
 30
0.0
  0
POINT
  5
3C4
330
243
100
AcDbEntity
  8
Defpoints
 62
     0
440
 16777216
100
AcDbPoint
 10
-3.702766642953408
 20
61.833475907464
 30
0.0
  0
POINT
  5
3C5
330
243
100
AcDbEntity
  8
Defpoints
 62
     0
440
 16777216
100
AcDbPoint
 10
-3.702766642953406
 20
75.10878875506481
 30
0.0
  0
ENDBLK
  5
24D
330
243
100
AcDbEntity
  8
0
100
AcDbBlockEnd
  0
BLOCK
  5
25E
330
255
100
AcDbEntity
  8
0
100
AcDbBlockBegin
  2
*D4
 70
     1
 10
0.0
 20
0.0
 30
0.0
  3
*D4
  1

  0
LINE
  5
3C6
330
255
100
AcDbEntity
  8
寸法線
 62
     0
440
 16777216
370
    -2
100
AcDbLine
 10
-0.2602660916157442
 20
62.2472306951354
 30
0.0
 11
-0.2602660916157433
 21
75.97664592563361
 31
0.0
  0
LINE
  5
3C7
330
255
100
AcDbEntity
  8
寸法線
 62
     0
440
 16777216
370
    -2
100
AcDbLine
 10
2.739733908384255
 20
75.10878875506481
 30
0.0
 11
13.34473267293957
 21
75.10878875506481
 31
0.0
  0
INSERT
  5
3C8
330
255
100
AcDbEntity
  8
寸法線
 62
     0
440
 16777216
370
    -2
100
AcDbBlockReference
  2
_Open30
 10
-0.2602660916157434
 20
75.10878875506481
 30
0.0
 41
3.0
 42
3.0
 43
3.0
 50
180.0
  0
INSERT
  5
3C9
330
255
100
AcDbEntity
  8
寸法線
 62
     0
440
 16777216
370
    -2
100
AcDbBlockReference
  2
_Open30
 10
16.34473267293957
 20
75.10878875506481
 30
0.0
 41
3.0
 42
3.0
 43
3.0
  0
MTEXT
  5
3CA
330
255
100
AcDbEntity
  8
寸法線
 62
     0
440
 16777216
100
AcDbMText
 10
8.04223329066192
 20
77.50878879082761
 30
0.0
 40
3.200000047683716
 41
0.0
 46
0.0
 71
     5
 72
     1
  1
L2
 73
     1
 44
1.0
1001
ACAD
1000
MTEXTBEGIN
1070
    73
1070
     1
1070
    44
1040
1.0
1070
    74
1070
     0
1000
MTEXTEND
  0
POINT
  5
3CB
330
255
100
AcDbEntity
  8
Defpoints
 62
     0
440
 16777216
100
AcDbPoint
 10
-0.2602660916157443
 20
59.7072306951354
 30
0.0
  0
POINT
  5
3CC
330
255
100
AcDbEntity
  8
Defpoints
 62
     0
440
 16777216
100
AcDbPoint
 10
16.34473267293957
 20
60.11223114948244
 30
0.0
  0
POINT
  5
3CD
330
255
100
AcDbEntity
  8
Defpoints
 62
     0
440
 16777216
100
AcDbPoint
 10
16.34473267293957
 20
75.10878875506481
 30
0.0
  0
ENDBLK
  5
25F
330
255
100
AcDbEntity
  8
0
100
AcDbBlockEnd
  0
BLOCK
  5
271
330
267
100
AcDbEntity
  8
0
100
AcDbBlockBegin
  2
*D5
 70
     1
 10
0.0
 20
0.0
 30
0.0
  3
*D5
  1

  0
LINE
  5
3B5
330
267
100
AcDbEntity
  8
寸法線
 62
     0
440
 16777216
370
    -2
100
AcDbLine
 10
16.34473267293957
 20
62.65223114948245
 30
0.0
 11
16.34473267293957
 21
81.87853199142386
 31
0.0
  0
LINE
  5
3B6
330
267
100
AcDbEntity
  8
寸法線
 62
     0
440
 16777216
370
    -2
100
AcDbLine
 10
-36.10276547044485
 20
63.1179747196956
 30
0.0
 11
-36.10276547044485
 21
81.87853199142386
 31
0.0
  0
LINE
  5
3B7
330
267
100
AcDbEntity
  8
寸法線
 62
     0
440
 16777216
370
    -2
100
AcDbLine
 10
13.34473267293957
 20
81.01067482085506
 30
0.0
 11
-33.10276547044484
 21
81.01067482085506
 31
0.0
  0
INSERT
  5
3B8
330
267
100
AcDbEntity
  8
寸法線
 62
     0
440
 16777216
370
    -2
100
AcDbBlockReference
  2
_Open30
 10
16.34473267293957
 20
81.01067482085506
 30
0.0
 41
3.0
 42
3.0
 43
3.0
  0
INSERT
  5
3B9
330
267
100
AcDbEntity
  8
寸法線
 62
     0
440
 16777216
370
    -2
100
AcDbBlockReference
  2
_Open30
 10
-36.10276547044485
 20
81.01067482085506
 30
0.0
 41
3.0
 42
3.0
 43
3.0
 50
180.0
  0
MTEXT
  5
3BA
330
267
100
AcDbEntity
  8
寸法線
 62
     0
440
 16777216
100
AcDbMText
 10
-9.879016398752632
 20
83.41067485661785
 30
0.0
 40
3.200000047683716
 41
0.0
 46
0.0
 71
     5
 72
     1
  1
L
 73
     1
 44
1.0
1001
ACAD
1000
MTEXTBEGIN
1070
    73
1070
     1
1070
    44
1040
1.0
1070
    74
1070
     0
1000
MTEXTEND
  0
POINT
  5
3BB
330
267
100
AcDbEntity
  8
Defpoints
 62
     0
440
 16777216
100
AcDbPoint
 10
16.34473267293957
 20
60.11223114948244
 30
0.0
  0
POINT
  5
3BC
330
267
100
AcDbEntity
  8
Defpoints
 62
     0
440
 16777216
100
AcDbPoint
 10
-36.10276547044485
 20
60.57797471969561
 30
0.0
  0
POINT
  5
3BD
330
267
100
AcDbEntity
  8
Defpoints
 62
     0
440
 16777216
100
AcDbPoint
 10
-36.10276547044485
 20
81.01067482085506
 30
0.0
  0
ENDBLK
  5
272
330
267
100
AcDbEntity
  8
0
100
AcDbBlockEnd
  0
BLOCK
  5
285
330
27B
100
AcDbEntity
  8
0
100
AcDbBlockBegin
  2
*D6
 70
     1
 10
0.0
 20
0.0
 30
0.0
  3
*D6
  1

  0
LINE
  5
38A
330
27B
100
AcDbEntity
  8
寸法線
 62
     0
440
 16777216
370
    -2
100
AcDbLine
 10
-35.493622695852
 20
31.25597360684702
 30
0.0
 11
-45.12653252145296
 21
31.25597360684702
 31
0.0
  0
LINE
  5
38B
330
27B
100
AcDbEntity
  8
寸法線
 62
     0
440
 16777216
370
    -2
100
AcDbLine
 10
-35.493622695852
 20
61.83347370038905
 30
0.0
 11
-45.12653252145296
 21
61.83347370038905
 31
0.0
  0
LINE
  5
38C
330
27B
100
AcDbEntity
  8
寸法線
 62
     0
440
 16777216
370
    -2
100
AcDbLine
 10
-44.25867535088424
 20
34.25597360684701
 30
0.0
 11
-44.2586753508842
 21
58.83347370038904
 31
0.0
  0
INSERT
  5
38D
330
27B
100
AcDbEntity
  8
寸法線
 62
     0
440
 16777216
370
    -2
100
AcDbBlockReference
  2
_Open30
 10
-44.25867535088424
 20
31.25597360684702
 30
0.0
 41
3.0
 42
3.0
 43
3.0
 50
270.0
  0
INSERT
  5
38E
330
27B
100
AcDbEntity
  8
寸法線
 62
     0
440
 16777216
370
    -2
100
AcDbBlockReference
  2
_Open30
 10
-44.2586753508842
 20
61.83347370038905
 30
0.0
 41
3.0
 42
3.0
 43
3.0
 50
90.0
  0
MTEXT
  5
38F
330
27B
100
AcDbEntity
  8
寸法線
 62
     0
440
 16777216
100
AcDbMText
 10
-46.65867538664703
 20
46.54472365361804
 30
0.0
 40
3.200000047683716
 41
0.0
 46
0.0
 71
     5
 72
     1
  1
∅B
 11
0.0000000000000001
 21
1.0
 31
0.0
 73
     1
 44
1.0
1001
ACAD
1000
MTEXTBEGIN
1070
    73
1070
     1
1070
    44
1040
1.0
1070
    74
1070
     0
1000
MTEXTEND
  0
POINT
  5
390
330
27B
100
AcDbEntity
  8
Defpoints
 62
     0
440
 16777216
100
AcDbPoint
 10
-32.953622695852
 20
31.25597360684702
 30
0.0
  0
POINT
  5
391
330
27B
100
AcDbEntity
  8
Defpoints
 62
     0
440
 16777216
100
AcDbPoint
 10
-32.953622695852
 20
61.83347370038905
 30
0.0
  0
POINT
  5
392
330
27B
100
AcDbEntity
  8
Defpoints
 62
     0
440
 16777216
100
AcDbPoint
 10
-44.2586753508842
 20
61.83347370038905
 30
0.0
  0
ENDBLK
  5
286
330
27B
100
AcDbEntity
  8
0
100
AcDbBlockEnd
  0
ENDSEC
  0
SECTION
  2
ENTITIES
  0
LINE
  5
2E
330
1F
100
AcDbEntity
  8
0
  6
Continuous
 62
     7
100
AcDbLine
 10
-81.29859809300144
 20
22.29622116940027
 30
0.0
 11
98.70140953639314
 21
22.29622116940027
 31
0.0
  0
LINE
  5
2F
330
1F
100
AcDbEntity
  8
0
  6
Continuous
 62
     7
100
AcDbLine
 10
-81.29859809300144
 20
16.29622116940027
 30
0.0
 11
98.70140953639314
 21
16.29622116940027
 31
0.0
  0
LINE
  5
30
330
1F
100
AcDbEntity
  8
0
  6
Continuous
 62
     7
100
AcDbLine
 10
-81.29859809300144
 20
10.29622116940027
 30
0.0
 11
98.70140953639314
 21
10.29622116940027
 31
0.0
  0
LINE
  5
31
330
1F
100
AcDbEntity
  8
0
  6
Continuous
 62
     7
100
AcDbLine
 10
-81.29859809300144
 20
4.296221169400276
 30
0.0
 11
98.70140953639314
 21
4.296221169400276
 31
0.0
  0
LINE
  5
32
330
1F
100
AcDbEntity
  8
0
  6
Continuous
 62
     7
100
AcDbLine
 10
-81.29859809300144
 20
-7.703778830599731
 30
0.0
 11
98.70140953639314
 21
-7.703778830599731
 31
0.0
  0
LINE
  5
33
330
1F
100
AcDbEntity
  8
0
  6
Continuous
 62
     7
100
AcDbLine
 10
-81.29859809300144
 20
-13.70377883059973
 30
0.0
 11
98.70140953639314
 21
-13.70377883059973
 31
0.0
  0
LINE
  5
34
330
1F
100
AcDbEntity
  8
0
  6
Continuous
 62
     7
100
AcDbLine
 10
-81.29859809300144
 20
-19.70377883059973
 30
0.0
 11
98.70140953639314
 21
-19.70377883059973
 31
0.0
  0
LINE
  5
35
330
1F
100
AcDbEntity
  8
0
  6
Continuous
 62
     7
100
AcDbLine
 10
-81.29859809300144
 20
-19.70377883059973
 30
0.0
 11
98.70140953639314
 21
-19.70377883059973
 31
0.0
  0
LINE
  5
36
330
1F
100
AcDbEntity
  8
0
  6
Continuous
 62
     7
100
AcDbLine
 10
-81.29859809300144
 20
-25.70377883059973
 30
0.0
 11
98.70140953639314
 21
-25.70377883059973
 31
0.0
  0
LINE
  5
38
330
1F
100
AcDbEntity
  8
0
  6
Continuous
 62
     7
100
AcDbLine
 10
-81.29859809300144
 20
-31.70377883059976
 30
0.0
 11
98.70140953639314
 21
-31.70377883059976
 31
0.0
  0
LINE
  5
39
330
1F
100
AcDbEntity
  8
0
  6
Continuous
 62
     7
100
AcDbLine
 10
-81.29859046360691
 20
22.29622116940027
 30
0.0
 11
-81.29859046360691
 21
-55.7037791882276
 31
0.0
  0
LINE
  5
3A
330
1F
100
AcDbEntity
  8
0
 62
     7
100
AcDbLine
 10
-31.29859046360687
 20
22.29622116940027
 30
0.0
 11
-31.29859046360687
 21
-55.7037791882276
 31
0.0
  0
LINE
  5
3B
330
1F
100
AcDbEntity
  8
0
  6
Continuous
 62
     7
100
AcDbLine
 10
-5.298575204817808
 20
22.29622116940027
 30
0.0
 11
-5.298575204817808
 21
-55.7037791882276
 31
0.0
  0
LINE
  5
3C
330
1F
100
AcDbEntity
  8
0
  6
Continuous
 62
     7
100
AcDbLine
 10
20.70142479518219
 20
22.29622116940027
 30
0.0
 11
20.70142479518219
 21
-55.7037791882276
 31
0.0
  0
LINE
  5
3D
330
1F
100
AcDbEntity
  8
0
  6
Continuous
 62
     7
100
AcDbLine
 10
46.70144005397124
 20
22.29622116940027
 30
0.0
 11
46.70144005397121
 21
-55.7037791882276
 31
0.0
  0
LINE
  5
3E
330
1F
100
AcDbEntity
  8
0
  6
Continuous
 62
     7
100
AcDbLine
 10
72.70140953639312
 20
22.29622116940027
 30
0.0
 11
72.70140953639312
 21
-55.7037791882276
 31
0.0
  0
LINE
  5
3F
330
1F
100
AcDbEntity
  8
0
  6
Continuous
 62
     7
100
AcDbLine
 10
98.70140953639314
 20
22.29622116940027
 30
0.0
 11
98.70140953639314
 21
-55.7037791882276
 31
0.0
  0
LINE
  5
40
330
1F
100
AcDbEntity
  8
外形線
  6
Continuous
 62
     7
100
AcDbLine
 10
-19.16390689734257
 20
61.69471931450622
 30
0.0
 11
-19.16390689734257
 21
46.54472365361804
 31
0.0
  0
LINE
  5
41
330
1F
100
AcDbEntity
  8
外形線
  6
Continuous
 62
     7
100
AcDbLine
 10
-27.18290750652974
 20
61.69471931450622
 30
0.0
 11
-27.18290750652974
 21
46.54472365361804
 31
0.0
  0
LINE
  5
42
330
1F
100
AcDbEntity
  8
外形線
  6
Continuous
 62
     7
100
AcDbLine
 10
-26.70676199223269
 20
60.31172423708159
 30
0.0
 11
-26.70676199223269
 21
46.54473027484278
 31
0.0
  0
LINE
  5
43
330
1F
100
AcDbEntity
  8
外形線
  6
Continuous
 62
     7
100
AcDbLine
 10
-33.34564182343155
 20
60.46634147648236
 30
0.0
 11
-33.03774492035782
 21
61.54010545020113
 31
0.0
  0
LINE
  5
44
330
1F
100
AcDbEntity
  8
破線
  6
DASHED
100
AcDbLine
 10
-12.44833410774679
 20
61.2259741224059
 30
0.0
 11
-11.60269335329271
 21
61.2259741224059
 31
0.0
  0
LINE
  5
45
330
1F
100
AcDbEntity
  8
外形線
  6
Continuous
 62
     7
100
AcDbLine
 10
41.99901131806052
 20
50.59472268193058
 30
0.0
 11
43.25273557358372
 21
49.34099853208841
 31
0.0
  0
LINE
  5
46
330
1F
100
AcDbEntity
  8
外形線
  6
Continuous
 62
     7
100
AcDbLine
 10
-8.896620868290511
 20
61.69471931450622
 30
0.0
 11
-8.896620868290511
 21
46.54472365361804
 31
0.0
  0
LINE
  5
47
330
1F
100
AcDbEntity
  8
外形線
  6
Continuous
 62
     7
100
AcDbLine
 10
-18.03976860155995
 20
60.17296985119864
 30
0.0
 11
-18.38258913426997
 21
60.17296985119864
 31
0.0
  0
LINE
  5
48
330
1F
100
AcDbEntity
  8
外形線
  6
Continuous
 62
     7
100
AcDbLine
 10
-24.62944100958959
 20
61.83347590746397
 30
0.0
 11
-23.47860152146092
 21
61.83347590746397
 31
0.0
  0
LINE
  5
49
330
1F
100
AcDbEntity
  8
外形線
  6
Continuous
 62
     7
100
AcDbLine
 10
-29.42026349140559
 20
60.31172865123139
 30
0.0
 11
-29.42026349140559
 21
46.54473027484278
 31
0.0
  0
LINE
  5
4A
330
1F
100
AcDbEntity
  8
外形線
  6
Continuous
 62
     7
100
AcDbLine
 10
15.93973221859251
 20
60.11222232118278
 30
0.0
 11
16.34473267293958
 21
60.11222232118278
 31
0.0
  0
LINE
  5
4B
330
1F
100
AcDbEntity
  8
外形線
  6
Continuous
 62
     7
100
AcDbLine
 10
-33.42976379599918
 20
60.31172865123139
 30
0.0
 11
-33.42976379599918
 21
46.54473027484278
 31
0.0
  0
LINE
  5
4C
330
1F
100
AcDbEntity
  8
破線
  6
DASHED
100
AcDbLine
 10
6.867729545273022
 20
59.09972228885258
 30
0.0
 11
9.176228383023923
 21
59.09972228885258
 31
0.0
  0
LINE
  5
4D
330
1F
100
AcDbEntity
  8
外形線
  6
Continuous
 62
     7
100
AcDbLine
 10
-18.77190300884567
 20
60.46634143212452
 30
0.0
 11
-19.07979987389737
 21
61.54010527324476
 31
0.0
  0
LINE
  5
4E
330
1F
100
AcDbEntity
  8
外形線
  6
Continuous
 62
     7
100
AcDbLine
 10
-30.71626671097613
 20
60.31172423708159
 30
0.0
 11
-30.71626671097613
 21
46.54473027484278
 31
0.0
  0
LINE
  5
4F
330
1F
100
AcDbEntity
  8
外形線
  6
Continuous
 62
     7
100
AcDbLine
 10
-20.92511736792141
 20
61.69471931450622
 30
0.0
 11
-20.92511736792141
 21
46.54472365361804
 31
0.0
  0
LINE
  5
50
330
1F
100
AcDbEntity
  8
外形線
  6
Continuous
 62
     7
100
AcDbLine
 10
3.749225384678167
 20
58.57322898154859
 30
0.0
 11
3.951728922464083
 21
58.57322898154859
 31
0.0
  0
LINE
  5
51
330
1F
100
AcDbEntity
  8
外形線
  6
Continuous
 62
     7
100
AcDbLine
 10
-30.8003925271139
 20
60.4663433337906
 30
0.0
 11
-31.10828939216563
 21
61.54010717491087
 31
0.0
  0
LINE
  5
52
330
1F
100
AcDbEntity
  8
外形線
  6
Continuous
 62
     7
100
AcDbLine
 10
-30.06826510119086
 20
60.1729742653485
 30
0.0
 11
-30.41108563390088
 21
60.1729742653485
 31
0.0
  0
LINE
  5
53
330
1F
100
AcDbEntity
  8
破線
  6
DASHED
100
AcDbLine
 10
-27.37486098247561
 20
60.29889724767537
 30
0.0
 11
-27.64069697343359
 21
61.22597740716688
 31
0.0
  0
LINE
  5
54
330
1F
100
AcDbEntity
  8
外形線
  6
Continuous
 62
     7
100
AcDbLine
 10
-26.05876921074713
 20
60.17296985119864
 30
0.0
 11
-25.71595309218694
 21
60.17296985119864
 31
0.0
  0
LINE
  5
55
330
1F
100
AcDbEntity
  8
外形線
  6
Continuous
 62
     7
100
AcDbLine
 10
-25.41076318681201
 20
60.31172865123139
 30
0.0
 11
-25.41076318681201
 21
46.54473027484278
 31
0.0
  0
LINE
  5
56
330
1F
100
AcDbEntity
  8
破線
  6
DASHED
100
AcDbLine
 10
-8.438838217303041
 20
61.2259741224059
 30
0.0
 11
-4.053505056928202
 21
61.2259741224059
 31
0.0
  0
LINE
  5
57
330
1F
100
AcDbEntity
  8
破線
  6
DASHED
100
AcDbLine
 10
-8.704686642213516
 20
60.29889078513338
 30
0.0
 11
-8.438849814771032
 21
61.22597386179262
 31
0.0
  0
LINE
  5
58
330
1F
100
AcDbEntity
  8
破線
  6
DASHED
100
AcDbLine
 10
-11.33686747807559
 20
60.2988926476207
 30
0.0
 11
-11.6027031648574
 21
61.22597174632389
 31
0.0
  0
LINE
  5
59
330
1F
100
AcDbEntity
  8
破線
  6
DASHED
100
AcDbLine
 10
-31.38436071779751
 20
60.29889312889841
 30
0.0
 11
-31.65019670875552
 21
61.22597328838992
 31
0.0
  0
LINE
  5
5A
330
1F
100
AcDbEntity
  8
破線
  6
DASHED
100
AcDbLine
 10
-32.76167363274792
 20
60.29889127159013
 30
0.0
 11
-32.49583676728338
 21
61.22597448084794
 31
0.0
  0
LINE
  5
5B
330
1F
100
AcDbEntity
  8
外形線
  6
Continuous
 62
     7
100
AcDbLine
 10
-29.33614026305259
 20
60.466343722435
 30
0.0
 11
-29.02824335997889
 21
61.54010769615378
 31
0.0
  0
LINE
  5
5C
330
1F
100
AcDbEntity
  8
破線
  6
DASHED
100
AcDbLine
 10
5.085724014826083
 20
33.98971619008384
 30
0.0
 11
6.867729545273022
 21
33.98971619008384
 31
0.0
  0
LINE
  5
5D
330
1F
100
AcDbEntity
  8
破線
  6
DASHED
100
AcDbLine
 10
-22.04926890615354
 20
59.56547689444025
 30
0.0
 11
-22.39208943886354
 21
59.56547689444025
 31
0.0
  0
LINE
  5
5E
330
1F
100
AcDbEntity
  8
外形線
  6
Continuous
 62
     7
100
AcDbLine
 10
-0.2602660916157333
 20
59.70722407391061
 30
0.0
 11
3.34423155155585
 21
59.70722407391061
 31
0.0
  0
LINE
  5
5F
330
1F
100
AcDbEntity
  8
破線
  6
DASHED
100
AcDbLine
 10
-26.05876921074713
 20
59.56547689444025
 30
0.0
 11
-25.71595309218694
 21
59.56547689444025
 31
0.0
  0
LINE
  5
60
330
1F
100
AcDbEntity
  8
外形線
  6
Continuous
 62
     7
100
AcDbLine
 10
-32.95362269585198
 20
61.69471931450622
 30
0.0
 11
-32.95362269585198
 21
46.54472365361804
 31
0.0
  0
LINE
  5
61
330
1F
100
AcDbEntity
  8
外形線
  6
Continuous
 62
     7
100
AcDbLine
 10
-32.6484372046269
 20
61.83347370038905
 30
0.0
 11
-31.49759771649824
 21
61.83347370038905
 31
0.0
  0
LINE
  5
62
330
1F
100
AcDbEntity
  8
外形線
  6
Continuous
 62
     7
100
AcDbLine
 10
-35.69776722317269
 20
60.1729742653485
 30
0.0
 11
-33.73494928722426
 21
60.1729742653485
 31
0.0
  0
LINE
  5
63
330
1F
100
AcDbEntity
  8
外形線
  6
Continuous
 62
     7
100
AcDbLine
 10
3.74922979882801
 20
59.30223244786327
 30
0.0
 11
3.74922979882801
 21
58.57323118862358
 31
0.0
  0
LINE
  5
64
330
1F
100
AcDbEntity
  8
破線
  6
DASHED
100
AcDbLine
 10
5.085724014826083
 20
59.09972228885258
 30
0.0
 11
6.867729545273022
 21
59.09972228885258
 31
0.0
  0
LINE
  5
65
330
1F
100
AcDbEntity
  8
外形線
  6
Continuous
 62
     7
100
AcDbLine
 10
15.93973442566742
 20
60.11223114948244
 30
0.0
 11
15.93973442566742
 21
46.54473027484278
 31
0.0
  0
LINE
  5
66
330
1F
100
AcDbEntity
  8
破線
  6
DASHED
100
AcDbLine
 10
-0.6284247554778517
 20
57.24591162442566
 30
0.0
 11
0.1446094538828078
 21
59.09972179727472
 31
0.0
  0
LINE
  5
67
330
1F
100
AcDbEntity
  8
外形線
  6
Continuous
 62
     7
100
AcDbLine
 10
-3.702766642953406
 20
61.83347590746403
 30
0.0
 11
-3.702766642953406
 21
46.54473027484278
 31
0.0
  0
LINE
  5
68
330
1F
100
AcDbEntity
  8
破線
  6
DASHED
100
AcDbLine
 10
-10.02076799237279
 20
59.56547689444025
 30
0.0
 11
-9.677951873812617
 21
59.56547689444025
 31
0.0
  0
LINE
  5
69
330
1F
100
AcDbEntity
  8
外形線
  6
Continuous
 62
     7
100
AcDbLine
 10
16.34473267293957
 20
60.11223114948244
 30
0.0
 11
16.34473267293957
 21
46.54473027484278
 31
0.0
  0
LINE
  5
6A
330
1F
100
AcDbEntity
  8
破線
  6
DASHED
100
AcDbLine
 10
-32.49583563071468
 20
61.2259741224059
 30
0.0
 11
-31.6501948762606
 21
61.2259741224059
 31
0.0
  0
LINE
  5
6B
330
1F
100
AcDbEntity
  8
外形線
  6
Continuous
 62
     7
100
AcDbLine
 10
-31.19241222527316
 20
61.69471931450622
 30
0.0
 11
-31.19241222527316
 21
46.54472365361804
 31
0.0
  0
LINE
  5
6C
330
1F
100
AcDbEntity
  8
外形線
  6
Continuous
 62
     7
100
AcDbLine
 10
41.99901259114493
 20
42.49472536454153
 30
0.0
 11
43.25273606634934
 21
43.74844873406495
 31
0.0
  0
LINE
  5
6D
330
1F
100
AcDbEntity
  8
破線
  6
DASHED
100
AcDbLine
 10
-30.06826510119086
 20
59.56547689444025
 30
0.0
 11
-29.72544898263068
 21
59.56547689444025
 31
0.0
  0
LINE
  5
6E
330
1F
100
AcDbEntity
  8
破線
  6
DASHED
100
AcDbLine
 10
-26.05876479659727
 20
59.56547689444025
 30
0.0
 11
-26.4015853293073
 21
59.56547689444025
 31
0.0
  0
LINE
  5
6F
330
1F
100
AcDbEntity
  8
破線
  6
DASHED
100
AcDbLine
 10
-1.715237747849456
 20
57.17597453214612
 30
0.0
 11
-4.053506534820185
 21
61.22597656472291
 31
0.0
  0
LINE
  5
70
330
1F
100
AcDbEntity
  8
外形線
  6
Continuous
 62
     7
100
AcDbLine
 10
6.66522600748712
 20
50.59472378293881
 30
0.0
 11
7.677726039817315
 21
50.59472378293881
 31
0.0
  0
LINE
  5
71
330
1F
100
AcDbEntity
  8
破線
  6
DASHED
100
AcDbLine
 10
-36.10276547044485
 20
59.56547468736534
 30
0.0
 11
-33.73494928722426
 21
59.56547468736534
 31
0.0
  0
LINE
  5
72
330
1F
100
AcDbEntity
  8
外形線
  6
Continuous
 62
     7
100
AcDbLine
 10
-8.59143979121525
 20
61.83347590746397
 30
0.0
 11
-3.702766642953392
 21
61.83347590746397
 31
0.0
  0
LINE
  5
73
330
1F
100
AcDbEntity
  8
外形線
  6
Continuous
 62
     7
100
AcDbLine
 10
-10.02076799237279
 20
60.17296985119864
 30
0.0
 11
-9.677951873812617
 21
60.17296985119864
 31
0.0
  0
LINE
  5
74
330
1F
100
AcDbEntity
  8
外形線
  6
Continuous
 62
     7
100
AcDbLine
 10
-9.372766382587542
 20
60.31172865123139
 30
0.0
 11
-9.372766382587542
 21
46.54473027484278
 31
0.0
  0
LINE
  5
75
330
1F
100
AcDbEntity
  8
外形線
  6
Continuous
 62
     7
100
AcDbLine
 10
-9.288662178542693
 20
60.46634740139104
 30
0.0
 11
-8.980765313490991
 21
61.54011124251127
 31
0.0
  0
LINE
  5
76
330
1F
100
AcDbEntity
  8
破線
  6
DASHED
100
AcDbLine
 10
3.14172359962012
 20
59.09973111715226
 30
0.0
 11
3.14172359962012
 21
58.57324994876035
 31
0.0
  0
LINE
  5
77
330
1F
100
AcDbEntity
  8
破線
  6
DASHED
100
AcDbLine
 10
-10.02076357822297
 20
59.56547689444025
 30
0.0
 11
-10.36358411093297
 21
59.56547689444025
 31
0.0
  0
LINE
  5
78
330
1F
100
AcDbEntity
  8
外形線
  6
Continuous
 62
     7
100
AcDbLine
 10
-25.3266425846174
 20
60.46634844477857
 30
0.0
 11
-25.01874568154367
 21
61.54011241849732
 31
0.0
  0
LINE
  5
79
330
1F
100
AcDbEntity
  8
破線
  6
DASHED
100
AcDbLine
 10
-14.03026388281654
 20
59.56547689444025
 30
0.0
 11
-13.68744776425636
 21
59.56547689444025
 31
0.0
  0
LINE
  5
7A
330
1F
100
AcDbEntity
  8
外形線
  6
Continuous
 62
     7
100
AcDbLine
 10
-22.69726168763913
 20
60.31172423708159
 30
0.0
 11
-22.69726168763913
 21
46.54473027484278
 31
0.0
  0
LINE
  5
7B
330
1F
100
AcDbEntity
  8
外形線
  6
Continuous
 62
     7
100
AcDbLine
 10
-20.619940704996
 20
61.83347590746397
 30
0.0
 11
-19.46910121686732
 21
61.83347590746397
 31
0.0
  0
LINE
  5
7C
330
1F
100
AcDbEntity
  8
破線
  6
DASHED
100
AcDbLine
 10
-12.7141779672733
 20
60.29889220530387
 30
0.0
 11
-12.4483411398308
 21
61.22597528196312
 31
0.0
  0
LINE
  5
7D
330
1F
100
AcDbEntity
  8
外形線
  6
Continuous
 62
     7
100
AcDbLine
 10
-18.68776138304557
 20
60.31172423708159
 30
0.0
 11
-18.68776138304557
 21
46.54473027484278
 31
0.0
  0
LINE
  5
7E
330
1F
100
AcDbEntity
  8
外形線
  6
Continuous
 62
     7
100
AcDbLine
 10
-21.40126288221842
 20
60.31172865123139
 30
0.0
 11
-21.40126288221842
 21
46.54473027484278
 31
0.0
  0
LINE
  5
7F
330
1F
100
AcDbEntity
  8
外形線
  6
Continuous
 62
     7
100
AcDbLine
 10
-22.04926890615354
 20
60.17296985119864
 30
0.0
 11
-21.70645278759335
 21
60.17296985119864
 31
0.0
  0
LINE
  5
80
330
1F
100
AcDbEntity
  8
外形線
  6
Continuous
 62
     7
100
AcDbLine
 10
-21.31714476175091
 20
60.46634566364597
 30
0.0
 11
-21.00924785867718
 21
61.54010963736475
 31
0.0
  0
LINE
  5
81
330
1F
100
AcDbEntity
  8
破線
  6
DASHED
100
AcDbLine
 10
11.12022438408007
 20
59.09972228885258
 30
0.0
 11
16.34473267293958
 21
59.09972228885258
 31
0.0
  0
LINE
  5
82
330
1F
100
AcDbEntity
  8
破線
  6
DASHED
100
AcDbLine
 10
9.176232797173751
 20
59.09973111715226
 30
0.0
 11
9.176232797173751
 21
58.57324994876035
 31
0.0
  0
LINE
  5
83
330
1F
100
AcDbEntity
  8
外形線
  6
Continuous
 62
     7
100
AcDbLine
 10
11.12022438408007
 20
59.70722407391061
 30
0.0
 11
15.93973221859251
 21
59.70722407391061
 31
0.0
  0
LINE
  5
84
330
1F
100
AcDbEntity
  8
外形線
  6
Continuous
 62
     7
100
AcDbLine
 10
-36.10276547044485
 20
60.57797471969553
 30
0.0
 11
-35.69776722317269
 21
60.57797471969553
 31
0.0
  0
LINE
  5
85
330
1F
100
AcDbEntity
  8
外形線
  6
Continuous
 62
     7
100
AcDbLine
 10
-0.2602660916157475
 20
59.70723069513539
 30
0.0
 11
-0.2602660916157475
 21
46.54473027484278
 31
0.0
  0
LINE
  5
86
330
1F
100
AcDbEntity
  8
外形線
  6
Continuous
 62
     7
100
AcDbLine
 10
50.47294844814182
 20
34.02078879324527
 30
0.0
 11
51.72667270366506
 21
35.27451294308745
 31
0.0
  0
LINE
  5
87
330
1F
100
AcDbEntity
  8
外形線
  6
Continuous
 62
     7
100
AcDbLine
 10
6.665230421636962
 20
50.59473261123852
 30
0.0
 11
6.665230421636962
 21
46.54473248191775
 31
0.0
  0
LINE
  5
88
330
1F
100
AcDbEntity
  8
外形線
  6
Continuous
 62
     7
100
AcDbLine
 10
7.677730453967157
 20
50.59473261123852
 30
0.0
 11
7.677730453967157
 21
46.54473248191775
 31
0.0
  0
LINE
  5
89
330
1F
100
AcDbEntity
  8
外形線
  6
Continuous
 62
     7
100
AcDbLine
 10
6.66522600748712
 20
49.68276042722848
 30
0.0
 11
6.867725131123192
 21
49.68276042722848
 31
0.0
  0
LINE
  5
8A
330
1F
100
AcDbEntity
  8
外形線
  6
Continuous
 62
     7
100
AcDbLine
 10
6.867728055818517
 20
49.68276435788179
 30
0.0
 11
7.677724939045348
 21
50.59473592452826
 31
0.0
  0
LINE
  5
8B
330
1F
100
AcDbEntity
  8
外形線
  6
Continuous
 62
     7
100
AcDbLine
 10
-22.78139971771921
 20
60.46634277320539
 30
0.0
 11
-23.08929658277091
 21
61.54010661432561
 31
0.0
  0
LINE
  5
8C
330
1F
100
AcDbEntity
  8
外形線
  6
Continuous
 62
     7
100
AcDbLine
 10
6.867720716973367
 20
49.68275822015357
 30
0.0
 11
6.867720716973367
 21
46.54473248191775
 31
0.0
  0
LINE
  5
8D
330
1F
100
AcDbEntity
  8
外形線
  6
Continuous
 62
     7
100
AcDbLine
 10
5.085724014826083
 20
59.70722407391061
 30
0.0
 11
6.867729545273022
 21
59.70722407391061
 31
0.0
  0
LINE
  5
8E
330
1F
100
AcDbEntity
  8
外形線
  6
Continuous
 62
     7
100
AcDbLine
 10
-28.94411797710859
 20
61.69471931450622
 30
0.0
 11
-28.94411797710859
 21
46.54472365361804
 31
0.0
  0
LINE
  5
8F
330
1F
100
AcDbEntity
  8
外形線
  6
Continuous
 62
     7
100
AcDbLine
 10
9.783730168081987
 20
58.57322898154859
 30
0.0
 11
9.986229291718061
 21
58.57322898154859
 31
0.0
  0
LINE
  5
90
330
1F
100
AcDbEntity
  8
外形線
  6
Continuous
 62
     7
100
AcDbLine
 10
9.783725753932143
 20
59.30223244786327
 30
0.0
 11
9.783725753932143
 21
58.57323118862358
 31
0.0
  0
LINE
  5
91
330
1F
100
AcDbEntity
  8
外形線
  6
Continuous
 62
     7
100
AcDbLine
 10
6.867729545273022
 20
59.70722407391061
 30
0.0
 11
9.378731920809839
 21
59.70722407391061
 31
0.0
  0
LINE
  5
92
330
1F
100
AcDbEntity
  8
外形線
  6
Continuous
 62
     7
100
AcDbLine
 10
-0.8739882328810891
 20
58.23545806354672
 30
0.0
 11
-0.2602656670389365
 21
59.7072236362581
 31
0.0
  0
LINE
  5
93
330
1F
100
AcDbEntity
  8
破線
  6
DASHED
100
AcDbLine
 10
-28.4863353261211
 20
61.2259741224059
 30
0.0
 11
-27.64069457166704
 21
61.2259741224059
 31
0.0
  0
LINE
  5
94
330
1F
100
AcDbEntity
  8
外形線
  6
Continuous
 62
     7
100
AcDbLine
 10
-32.6484372046269
 20
31.25597360684702
 30
0.0
 11
-31.49759771649824
 21
31.25597360684702
 31
0.0
  0
LINE
  5
95
330
1F
100
AcDbEntity
  8
外形線
  6
Continuous
 62
     7
100
AcDbLine
 10
-26.79089642659273
 20
60.4663441142863
 30
0.0
 11
-27.09879329164443
 21
61.5401079554065
 31
0.0
  0
LINE
  5
96
330
1F
100
AcDbEntity
  8
外形線
  6
Continuous
 62
     7
100
AcDbLine
 10
-26.05876479659727
 20
60.17296985119864
 30
0.0
 11
-26.4015853293073
 21
60.17296985119864
 31
0.0
  0
LINE
  5
97
330
1F
100
AcDbEntity
  8
破線
  6
DASHED
100
AcDbLine
 10
0.144608559461048
 20
59.09972228885258
 30
0.0
 11
3.14173242791979
 21
59.09972228885258
 31
0.0
  0
LINE
  5
98
330
1F
100
AcDbEntity
  8
外形線
  6
Continuous
 62
     7
100
AcDbLine
 10
-1.598532169665005
 20
58.18883399338378
 30
0.0
 11
-3.702766116369772
 21
61.83347562254907
 31
0.0
  0
LINE
  5
99
330
1F
100
AcDbEntity
  8
破線
  6
DASHED
100
AcDbLine
 10
-28.75217359324987
 20
60.29888821360144
 30
0.0
 11
-28.48633672778536
 21
61.22597142285923
 31
0.0
  0
LINE
  5
9A
330
1F
100
AcDbEntity
  8
外形線
  6
Continuous
 62
     7
100
AcDbLine
 10
-10.02076357822297
 20
60.17296985119864
 30
0.0
 11
-10.36358411093297
 21
60.17296985119864
 31
0.0
  0
LINE
  5
9B
330
1F
100
AcDbEntity
  8
外形線
  6
Continuous
 62
     7
100
AcDbLine
 10
-12.90611675873427
 20
61.69471931450622
 30
0.0
 11
-12.90611675873427
 21
46.54472365361804
 31
0.0
  0
LINE
  5
9C
330
1F
100
AcDbEntity
  8
中心線
  6
CENTER
100
AcDbLine
 10
37.80624419360347
 20
46.54472365361804
 30
0.0
 11
71.23964405288925
 21
46.54472365361804
 31
0.0
  0
LINE
  5
9D
330
1F
100
AcDbEntity
  8
外形線
  6
Continuous
 62
     7
100
AcDbLine
 10
-23.17340720193616
 20
61.69471931450622
 30
0.0
 11
-23.17340720193616
 21
46.54472365361804
 31
0.0
  0
LINE
  5
9E
330
1F
100
AcDbEntity
  8
破線
  6
DASHED
100
AcDbLine
 10
-24.47683943567736
 20
61.2259741224059
 30
0.0
 11
-23.63119868122328
 21
61.2259741224059
 31
0.0
  0
LINE
  5
9F
330
1F
100
AcDbEntity
  8
外形線
  6
Continuous
 62
     7
100
AcDbLine
 10
-24.93461767251498
 20
61.69471931450622
 30
0.0
 11
-24.93461767251498
 21
46.54472365361804
 31
0.0
  0
LINE
  5
A0
330
1F
100
AcDbEntity
  8
破線
  6
DASHED
100
AcDbLine
 10
-24.742668284004
 20
60.2988875190685
 30
0.0
 11
-24.47683141853949
 21
61.22597072832627
 31
0.0
  0
LINE
  5
A1
330
1F
100
AcDbEntity
  8
外形線
  6
Continuous
 62
     7
100
AcDbLine
 10
-11.14490628815541
 20
61.69471931450622
 30
0.0
 11
-11.14490628815541
 21
46.54472365361804
 31
0.0
  0
LINE
  5
A2
330
1F
100
AcDbEntity
  8
外形線
  6
Continuous
 62
     7
100
AcDbLine
 10
58.57294361594181
 20
34.02079093034326
 30
0.0
 11
57.31922113241811
 21
35.27451373090966
 31
0.0
  0
LINE
  5
A3
330
1F
100
AcDbEntity
  8
外形線
  6
Continuous
 62
     7
100
AcDbLine
 10
67.04687934089959
 20
42.49472451240322
 30
0.0
 11
65.79315685737589
 21
43.74844731296963
 31
0.0
  0
LINE
  5
A4
330
1F
100
AcDbEntity
  8
外形線
  6
Continuous
 62
     7
100
AcDbLine
 10
-10.75290838205059
 20
60.46634254067996
 30
0.0
 11
-11.06080524710229
 21
61.54010638180022
 31
0.0
  0
LINE
  5
A5
330
1F
100
AcDbEntity
  8
外形線
  6
Continuous
 62
     7
100
AcDbLine
 10
-10.66876077385839
 20
60.31172423708159
 30
0.0
 11
-10.66876077385839
 21
46.54473027484278
 31
0.0
  0
LINE
  5
A6
330
1F
100
AcDbEntity
  8
外形線
  6
Continuous
 62
     7
100
AcDbLine
 10
50.47294717505748
 20
59.06865613195154
 30
0.0
 11
51.7266714305807
 21
57.81493198210935
 31
0.0
  0
LINE
  5
A7
330
1F
100
AcDbEntity
  8
外形線
  6
Continuous
 62
     7
100
AcDbLine
 10
-28.63893690003332
 20
61.83347590746397
 30
0.0
 11
-27.48809741190465
 21
61.83347590746397
 31
0.0
  0
LINE
  5
A8
330
1F
100
AcDbEntity
  8
外形線
  6
Continuous
 62
     7
100
AcDbLine
 10
-30.06826510119086
 20
60.17296985119864
 30
0.0
 11
-29.72544898263068
 21
60.17296985119864
 31
0.0
  0
LINE
  5
A9
330
1F
100
AcDbEntity
  8
外形線
  6
Continuous
 62
     7
100
AcDbLine
 10
12.902229914527
 20
49.68274277062912
 30
0.0
 11
13.104731245238
 21
49.68274277062912
 31
0.0
  0
LINE
  5
AA
330
1F
100
AcDbEntity
  8
外形線
  6
Continuous
 62
     7
100
AcDbLine
 10
13.91473436100703
 20
50.59472930062617
 30
0.0
 11
13.91473436100703
 21
46.54473027484278
 31
0.0
  0
LINE
  5
AB
330
1F
100
AcDbEntity
  8
外形線
  6
Continuous
 62
     7
100
AcDbLine
 10
12.90223432867684
 20
50.59472930062617
 30
0.0
 11
12.90223432867684
 21
46.54473027484278
 31
0.0
  0
LINE
  5
AC
330
1F
100
AcDbEntity
  8
外形線
  6
Continuous
 62
     7
100
AcDbLine
 10
13.10473786646275
 20
49.68275601307869
 30
0.0
 11
13.10473786646275
 21
46.54473027484278
 31
0.0
  0
LINE
  5
AD
330
1F
100
AcDbEntity
  8
外形線
  6
Continuous
 62
     7
100
AcDbLine
 10
12.902229914527
 20
50.59472378293881
 30
0.0
 11
13.91472994685722
 21
50.59472378293881
 31
0.0
  0
LINE
  5
AE
330
1F
100
AcDbEntity
  8
外形線
  6
Continuous
 62
     7
100
AcDbLine
 10
13.10472654206606
 20
49.68274763870606
 30
0.0
 11
13.91472635659127
 21
50.59472250568723
 31
0.0
  0
LINE
  5
AF
330
1F
100
AcDbEntity
  8
破線
  6
DASHED
100
AcDbLine
 10
-23.36535639564822
 20
60.29890046158048
 30
0.0
 11
-23.63119238660622
 21
61.22598062107197
 31
0.0
  0
LINE
  5
B0
330
1F
100
AcDbEntity
  8
外形線
  6
Continuous
 62
     7
100
AcDbLine
 10
-22.04926890615354
 20
60.17296985119864
 30
0.0
 11
-22.39208943886354
 21
60.17296985119864
 31
0.0
  0
LINE
  5
B1
330
1F
100
AcDbEntity
  8
外形線
  6
Continuous
 62
     7
100
AcDbLine
 10
67.04687729762881
 20
50.59471966635803
 30
0.0
 11
65.79315595201943
 21
49.34099884915259
 31
0.0
  0
LINE
  5
B2
330
1F
100
AcDbEntity
  8
外形線
  6
Continuous
 62
     7
100
AcDbLine
 10
58.5729459905055
 20
59.06865454497694
 30
0.0
 11
57.31922464489612
 21
57.81493372777148
 31
0.0
  0
LINE
  5
B3
330
1F
100
AcDbEntity
  8
中心線
  6
CENTER
100
AcDbLine
 10
54.52294412324635
 20
63.52931833668813
 30
0.0
 11
54.52294412324635
 21
29.56012897054796
 31
0.0
  0
LINE
  5
B4
330
1F
100
AcDbEntity
  8
破線
  6
DASHED
100
AcDbLine
 10
-20.46733913108377
 20
61.2259741224059
 30
0.0
 11
-19.62169837662969
 21
61.2259741224059
 31
0.0
  0
LINE
  5
B5
330
1F
100
AcDbEntity
  8
破線
  6
DASHED
100
AcDbLine
 10
-20.73317322143171
 20
60.29889112598343
 30
0.0
 11
-20.46733637497823
 21
61.22597426894191
 31
0.0
  0
LINE
  5
B6
330
1F
100
AcDbEntity
  8
破線
  6
DASHED
100
AcDbLine
 10
-19.35586180835121
 20
60.29889851214722
 30
0.0
 11
-19.62169779930923
 21
61.22597867163879
 31
0.0
  0
LINE
  5
B7
330
1F
100
AcDbEntity
  8
破線
  6
DASHED
100
AcDbLine
 10
-18.03976860155995
 20
59.56547689444025
 30
0.0
 11
-18.38258913426997
 21
59.56547689444025
 31
0.0
  0
LINE
  5
B8
330
1F
100
AcDbEntity
  8
破線
  6
DASHED
100
AcDbLine
 10
-22.04926890615354
 20
59.56547689444025
 30
0.0
 11
-21.70645278759335
 21
59.56547689444025
 31
0.0
  0
LINE
  5
B9
330
1F
100
AcDbEntity
  8
外形線
  6
Continuous
 62
     7
100
AcDbLine
 10
-16.61043598625258
 20
61.83347590746397
 30
0.0
 11
-15.45959649812391
 21
61.83347590746397
 31
0.0
  0
LINE
  5
BA
330
1F
100
AcDbEntity
  8
外形線
  6
Continuous
 62
     7
100
AcDbLine
 10
-18.03976418741013
 20
60.17296985119864
 30
0.0
 11
-17.69694806884993
 21
60.17296985119864
 31
0.0
  0
LINE
  5
BB
330
1F
100
AcDbEntity
  8
外形線
  6
Continuous
 62
     7
100
AcDbLine
 10
-17.39176257762483
 20
60.31172865123139
 30
0.0
 11
-17.39176257762483
 21
46.54473027484278
 31
0.0
  0
LINE
  5
BC
330
1F
100
AcDbEntity
  8
外形線
  6
Continuous
 62
     7
100
AcDbLine
 10
-17.30764869925176
 20
60.46634475055178
 30
0.0
 11
-16.99975175815604
 21
61.54010885686901
 31
0.0
  0
LINE
  5
BD
330
1F
100
AcDbEntity
  8
外形線
  6
Continuous
 62
     7
100
AcDbLine
 10
-14.67826107845198
 20
60.31172423708159
 30
0.0
 11
-14.67826107845198
 21
46.54473027484278
 31
0.0
  0
LINE
  5
BE
330
1F
100
AcDbEntity
  8
外形線
  6
Continuous
 62
     7
100
AcDbLine
 10
-14.76240569161973
 20
60.46633796946704
 30
0.0
 11
-15.07030255667143
 21
61.54010181058731
 31
0.0
  0
LINE
  5
BF
330
1F
100
AcDbEntity
  8
外形線
  6
Continuous
 62
     7
100
AcDbLine
 10
-14.03026388281654
 20
60.17296985119864
 30
0.0
 11
-14.37308441552655
 21
60.17296985119864
 31
0.0
  0
LINE
  5
C0
330
1F
100
AcDbEntity
  8
外形線
  6
Continuous
 62
     7
100
AcDbLine
 10
-16.91561706332783
 20
61.69471931450622
 30
0.0
 11
-16.91561706332783
 21
46.54472365361804
 31
0.0
  0
LINE
  5
C1
330
1F
100
AcDbEntity
  8
外形線
  6
Continuous
 62
     7
100
AcDbLine
 10
-15.15440659274898
 20
61.69471931450622
 30
0.0
 11
-15.15440659274898
 21
46.54472365361804
 31
0.0
  0
LINE
  5
C2
330
1F
100
AcDbEntity
  8
破線
  6
DASHED
100
AcDbLine
 10
-16.45783441234036
 20
61.2259741224059
 30
0.0
 11
-15.61219365788628
 21
61.2259741224059
 31
0.0
  0
LINE
  5
C3
330
1F
100
AcDbEntity
  8
破線
  6
DASHED
100
AcDbLine
 10
-16.72367565706273
 20
60.29889545053137
 30
0.0
 11
-16.45783882962021
 21
61.22597852719062
 31
0.0
  0
LINE
  5
C4
330
1F
100
AcDbEntity
  8
破線
  6
DASHED
100
AcDbLine
 10
-15.34636479530149
 20
60.29889611027811
 30
0.0
 11
-15.61220048208332
 21
61.22597520898136
 31
0.0
  0
LINE
  5
C5
330
1F
100
AcDbEntity
  8
破線
  6
DASHED
100
AcDbLine
 10
-14.03026388281654
 20
59.56547689444025
 30
0.0
 11
-14.37308441552655
 21
59.56547689444025
 31
0.0
  0
LINE
  5
C6
330
1F
100
AcDbEntity
  8
破線
  6
DASHED
100
AcDbLine
 10
-18.03976418741013
 20
59.56547689444025
 30
0.0
 11
-17.69694806884993
 21
59.56547689444025
 31
0.0
  0
LINE
  5
C7
330
1F
100
AcDbEntity
  8
破線
  6
DASHED
100
AcDbLine
 10
0.011897144700967
 20
33.98971619008384
 30
0.0
 11
3.14173242791979
 21
33.98971619008384
 31
0.0
  0
LINE
  5
C8
330
1F
100
AcDbEntity
  8
外形線
  6
Continuous
 62
     7
100
AcDbLine
 10
-0.2602660916157333
 20
33.38223316516259
 30
0.0
 11
3.34423155155585
 21
33.38223316516259
 31
0.0
  0
LINE
  5
C9
330
1F
100
AcDbEntity
  8
外形線
  6
Continuous
 62
     7
100
AcDbLine
 10
15.93973221859251
 20
32.97721615775363
 30
0.0
 11
16.34473267293958
 21
32.97721615775363
 31
0.0
  0
LINE
  5
CA
330
1F
100
AcDbEntity
  8
外形線
  6
Continuous
 62
     7
100
AcDbLine
 10
16.34473267293957
 20
32.9772294002032
 30
0.0
 11
16.34473267293957
 21
46.54473027484278
 31
0.0
  0
LINE
  5
CB
330
1F
100
AcDbEntity
  8
外形線
  6
Continuous
 62
     7
100
AcDbLine
 10
15.93973442566742
 20
32.9772294002032
 30
0.0
 11
15.93973442566742
 21
46.54473027484278
 31
0.0
  0
LINE
  5
CC
330
1F
100
AcDbEntity
  8
外形線
  6
Continuous
 62
     7
100
AcDbLine
 10
-12.60093568165899
 20
61.83347590746397
 30
0.0
 11
-11.45009619353033
 21
61.83347590746397
 31
0.0
  0
LINE
  5
CD
330
1F
100
AcDbEntity
  8
外形線
  6
Continuous
 62
     7
100
AcDbLine
 10
-36.10276547044485
 20
60.57797471969561
 30
0.0
 11
-36.10276547044485
 21
46.54473027484278
 31
0.0
  0
LINE
  5
CE
330
1F
100
AcDbEntity
  8
外形線
  6
Continuous
 62
     7
100
AcDbLine
 10
-14.03026388281654
 20
60.17296985119864
 30
0.0
 11
-13.68744776425636
 21
60.17296985119864
 31
0.0
  0
LINE
  5
CF
330
1F
100
AcDbEntity
  8
外形線
  6
Continuous
 62
     7
100
AcDbLine
 10
-35.69776722317269
 20
60.57797471969561
 30
0.0
 11
-35.69776722317269
 21
46.54473027484278
 31
0.0
  0
LINE
  5
D0
330
1F
100
AcDbEntity
  8
外形線
  6
Continuous
 62
     7
100
AcDbLine
 10
-13.38226227303126
 20
60.31172865123139
 30
0.0
 11
-13.38226227303126
 21
46.54473027484278
 31
0.0
  0
LINE
  5
D1
330
1F
100
AcDbEntity
  8
破線
  6
DASHED
100
AcDbLine
 10
3.14172359962012
 20
33.98972943253338
 30
0.0
 11
3.14172359962012
 21
34.51620729031291
 31
0.0
  0
LINE
  5
D2
330
1F
100
AcDbEntity
  8
外形線
  6
Continuous
 62
     7
100
AcDbLine
 10
3.74922979882801
 20
33.78722589474747
 30
0.0
 11
3.74922979882801
 21
34.51622715398718
 31
0.0
  0
LINE
  5
D3
330
1F
100
AcDbEntity
  8
外形線
  6
Continuous
 62
     7
100
AcDbLine
 10
3.749225384678167
 20
34.51621832568747
 30
0.0
 11
3.951728922464083
 21
34.51621832568747
 31
0.0
  0
LINE
  5
D4
330
1F
100
AcDbEntity
  8
外形線
  6
Continuous
 62
     7
100
AcDbLine
 10
5.085724014826083
 20
33.38223316516259
 30
0.0
 11
6.867729545273022
 21
33.38223316516259
 31
0.0
  0
LINE
  5
D5
330
1F
100
AcDbEntity
  8
外形線
  6
Continuous
 62
     7
100
AcDbLine
 10
6.867720716973367
 20
43.40670012245711
 30
0.0
 11
6.867720716973367
 21
46.54472586069298
 31
0.0
  0
LINE
  5
D6
330
1F
100
AcDbEntity
  8
外形線
  6
Continuous
 62
     7
100
AcDbLine
 10
11.12022438408007
 20
33.38223316516259
 30
0.0
 11
15.93973221859251
 21
33.38223316516259
 31
0.0
  0
LINE
  5
D7
330
1F
100
AcDbEntity
  8
外形線
  6
Continuous
 62
     7
100
AcDbLine
 10
9.783730168081987
 20
34.51621832568747
 30
0.0
 11
9.986229291718061
 21
34.51621832568747
 31
0.0
  0
LINE
  5
D8
330
1F
100
AcDbEntity
  8
外形線
  6
Continuous
 62
     7
100
AcDbLine
 10
9.783725753932143
 20
33.78722589474747
 30
0.0
 11
9.783725753932143
 21
34.51622715398718
 31
0.0
  0
LINE
  5
D9
330
1F
100
AcDbEntity
  8
破線
  6
DASHED
100
AcDbLine
 10
6.867729545273022
 20
33.98971619008384
 30
0.0
 11
9.176228383023923
 21
33.98971619008384
 31
0.0
  0
LINE
  5
DA
330
1F
100
AcDbEntity
  8
外形線
  6
Continuous
 62
     7
100
AcDbLine
 10
6.867729545273022
 20
33.38223316516259
 30
0.0
 11
9.378731920809839
 21
33.38223316516259
 31
0.0
  0
LINE
  5
DB
330
1F
100
AcDbEntity
  8
破線
  6
DASHED
100
AcDbLine
 10
9.176232797173751
 20
33.98972943253338
 30
0.0
 11
9.176232797173751
 21
34.51620729031291
 31
0.0
  0
LINE
  5
DC
330
1F
100
AcDbEntity
  8
外形線
  6
Continuous
 62
     7
100
AcDbLine
 10
6.66522600748712
 20
43.40669570830725
 30
0.0
 11
6.867725131123192
 21
43.40669570830725
 31
0.0
  0
LINE
  5
DD
330
1F
100
AcDbEntity
  8
外形線
  6
Continuous
 62
     7
100
AcDbLine
 10
7.677730453967157
 20
42.49472573137217
 30
0.0
 11
7.677730453967157
 21
46.54472586069298
 31
0.0
  0
LINE
  5
DE
330
1F
100
AcDbEntity
  8
外形線
  6
Continuous
 62
     7
100
AcDbLine
 10
6.665230421636962
 20
42.49472573137217
 30
0.0
 11
6.665230421636962
 21
46.54472586069298
 31
0.0
  0
LINE
  5
DF
330
1F
100
AcDbEntity
  8
破線
  6
DASHED
100
AcDbLine
 10
11.12022438408007
 20
33.98971619008384
 30
0.0
 11
16.34473267293958
 21
33.98971619008384
 31
0.0
  0
LINE
  5
E0
330
1F
100
AcDbEntity
  8
外形線
  6
Continuous
 62
     7
100
AcDbLine
 10
6.66522600748712
 20
42.49472352429722
 30
0.0
 11
7.677726039817315
 21
42.49472352429722
 31
0.0
  0
LINE
  5
E1
330
1F
100
AcDbEntity
  8
外形線
  6
Continuous
 62
     7
100
AcDbLine
 10
6.867718493966307
 20
43.40668840294279
 30
0.0
 11
7.67771638482695
 21
42.49471570180626
 31
0.0
  0
LINE
  5
E2
330
1F
100
AcDbEntity
  8
外形線
  6
Continuous
 62
     7
100
AcDbLine
 10
12.902229914527
 20
43.40669570830725
 30
0.0
 11
13.104731245238
 21
43.40669570830725
 31
0.0
  0
LINE
  5
E3
330
1F
100
AcDbEntity
  8
外形線
  6
Continuous
 62
     7
100
AcDbLine
 10
13.91473436100703
 20
42.4947279384471
 30
0.0
 11
13.91473436100703
 21
46.54473027484278
 31
0.0
  0
LINE
  5
E4
330
1F
100
AcDbEntity
  8
外形線
  6
Continuous
 62
     7
100
AcDbLine
 10
12.90223432867684
 20
42.4947279384471
 30
0.0
 11
12.90223432867684
 21
46.54473027484278
 31
0.0
  0
LINE
  5
E5
330
1F
100
AcDbEntity
  8
外形線
  6
Continuous
 62
     7
100
AcDbLine
 10
13.10473786646275
 20
43.40670232953207
 30
0.0
 11
13.10473786646275
 21
46.54473027484278
 31
0.0
  0
LINE
  5
E6
330
1F
100
AcDbEntity
  8
外形線
  6
Continuous
 62
     7
100
AcDbLine
 10
12.902229914527
 20
42.49472352429722
 30
0.0
 11
13.91472994685722
 21
42.49472352429722
 31
0.0
  0
LINE
  5
E7
330
1F
100
AcDbEntity
  8
外形線
  6
Continuous
 62
     7
100
AcDbLine
 10
13.10472765858442
 20
43.4066808437485
 30
0.0
 11
13.91472509142971
 21
42.49470865828924
 31
0.0
  0
LINE
  5
E8
330
1F
100
AcDbEntity
  8
外形線
  6
Continuous
 62
     7
100
AcDbLine
 10
-13.29815441613101
 20
60.46634563919664
 30
0.0
 11
-12.99025747503526
 21
61.54010974551392
 31
0.0
  0
LINE
  5
E9
330
1F
100
AcDbEntity
  8
外形線
  6
Continuous
 62
     7
100
AcDbLine
 10
-0.2602660916157475
 20
33.38222764747535
 30
0.0
 11
-0.2602660916157475
 21
46.54473027484278
 31
0.0
  0
LINE
  5
EA
330
1F
100
AcDbEntity
  8
中心線
  6
CENTER
100
AcDbLine
 10
-41.75037443504584
 20
46.54472365361804
 30
0.0
 11
19.75319350783212
 21
46.54472365361804
 31
0.0
  0
LINE
  5
EB
330
1F
100
AcDbEntity
  8
外形線
  6
Continuous
 62
     7
100
AcDbLine
 10
-36.10276547044485
 20
32.51147258754054
 30
0.0
 11
-36.10276547044485
 21
46.54471703239329
 31
0.0
  0
LINE
  5
EC
330
1F
100
AcDbEntity
  8
外形線
  6
Continuous
 62
     7
100
AcDbLine
 10
-35.69776722317269
 20
32.51147258754054
 30
0.0
 11
-35.69776722317269
 21
46.54471703239329
 31
0.0
  0
LINE
  5
ED
330
1F
100
AcDbEntity
  8
破線
  6
DASHED
100
AcDbLine
 10
-30.06826510119086
 20
59.56547468736534
 30
0.0
 11
-30.41108563390088
 21
59.56547468736534
 31
0.0
  0
LINE
  5
EE
330
1F
100
AcDbEntity
  8
外形線
  6
Continuous
 62
     7
100
AcDbLine
 10
-35.69776722317269
 20
32.91647304188754
 30
0.0
 11
-33.73494928722426
 21
32.91647304188754
 31
0.0
  0
LINE
  5
EF
330
1F
100
AcDbEntity
  8
外形線
  6
Continuous
 62
     7
100
AcDbLine
 10
-33.42976379599918
 20
32.77771865600475
 30
0.0
 11
-33.42976379599918
 21
46.54471703239329
 31
0.0
  0
LINE
  5
F0
330
1F
100
AcDbEntity
  8
外形線
  6
Continuous
 62
     7
100
AcDbLine
 10
-33.34564159926197
 20
32.62310451101971
 30
0.0
 11
-33.03774473421027
 21
31.54934066989947
 31
0.0
  0
LINE
  5
F1
330
1F
100
AcDbEntity
  8
外形線
  6
Continuous
 62
     7
100
AcDbLine
 10
-30.71626671097613
 20
32.77772307015459
 30
0.0
 11
-30.71626671097613
 21
46.54471703239329
 31
0.0
  0
LINE
  5
F2
330
1F
100
AcDbEntity
  8
外形線
  6
Continuous
 62
     7
100
AcDbLine
 10
-30.80039199084303
 20
32.6231053056821
 30
0.0
 11
-31.10828885589473
 21
31.54934146456189
 31
0.0
  0
LINE
  5
F3
330
1F
100
AcDbEntity
  8
外形線
  6
Continuous
 62
     7
100
AcDbLine
 10
-30.06826510119086
 20
32.91647304188754
 30
0.0
 11
-30.41108563390088
 21
32.91647304188754
 31
0.0
  0
LINE
  5
F4
330
1F
100
AcDbEntity
  8
外形線
  6
Continuous
 62
     7
100
AcDbLine
 10
-32.95362269585198
 20
31.39472799272994
 30
0.0
 11
-32.95362269585198
 21
46.54472365361804
 31
0.0
  0
LINE
  5
F5
330
1F
100
AcDbEntity
  8
外形線
  6
Continuous
 62
     7
100
AcDbLine
 10
-31.19241222527316
 20
31.39472799272994
 30
0.0
 11
-31.19241222527316
 21
46.54472365361804
 31
0.0
  0
LINE
  5
F6
330
1F
100
AcDbEntity
  8
破線
  6
DASHED
100
AcDbLine
 10
-32.49583563071468
 20
31.86347318483019
 30
0.0
 11
-31.6501948762606
 21
31.86347318483019
 31
0.0
  0
LINE
  5
F7
330
1F
100
AcDbEntity
  8
破線
  6
DASHED
100
AcDbLine
 10
-32.76167378879859
 20
32.79055604189724
 30
0.0
 11
-32.49583726553229
 21
31.86347402602625
 31
0.0
  0
LINE
  5
F8
330
1F
100
AcDbEntity
  8
破線
  6
DASHED
100
AcDbLine
 10
-31.38436078987905
 20
32.79055338899772
 30
0.0
 11
-31.65019678083704
 21
31.86347322950624
 31
0.0
  0
LINE
  5
F9
330
1F
100
AcDbEntity
  8
破線
  6
DASHED
100
AcDbLine
 10
-30.06826510119086
 20
33.5239726198707
 30
0.0
 11
-30.41108563390088
 21
33.5239726198707
 31
0.0
  0
LINE
  5
FA
330
1F
100
AcDbEntity
  8
破線
  6
DASHED
100
AcDbLine
 10
-36.10276547044485
 20
33.5239726198707
 30
0.0
 11
-33.73494928722426
 21
33.5239726198707
 31
0.0
  0
LINE
  5
FB
330
1F
100
AcDbEntity
  8
外形線
  6
Continuous
 62
     7
100
AcDbLine
 10
-28.63893690003332
 20
31.25597139977209
 30
0.0
 11
-27.48809741190465
 21
31.25597139977209
 31
0.0
  0
LINE
  5
FC
330
1F
100
AcDbEntity
  8
外形線
  6
Continuous
 62
     7
100
AcDbLine
 10
-30.06826510119086
 20
32.9164774560374
 30
0.0
 11
-29.72544898263068
 21
32.9164774560374
 31
0.0
  0
LINE
  5
FD
330
1F
100
AcDbEntity
  8
外形線
  6
Continuous
 62
     7
100
AcDbLine
 10
-29.42026349140559
 20
32.77771865600475
 30
0.0
 11
-29.42026349140559
 21
46.54471703239329
 31
0.0
  0
LINE
  5
FE
330
1F
100
AcDbEntity
  8
外形線
  6
Continuous
 62
     7
100
AcDbLine
 10
-29.33614019097106
 20
32.62310279546111
 30
0.0
 11
-29.02824332591933
 21
31.54933895434088
 31
0.0
  0
LINE
  5
FF
330
1F
100
AcDbEntity
  8
外形線
  6
Continuous
 62
     7
100
AcDbLine
 10
-26.70676199223269
 20
32.77772307015459
 30
0.0
 11
-26.70676199223269
 21
46.54471703239329
 31
0.0
  0
LINE
  5
100
330
1F
100
AcDbEntity
  8
外形線
  6
Continuous
 62
     7
100
AcDbLine
 10
-26.79089801189844
 20
32.62310513353884
 30
0.0
 11
-27.0987954853025
 21
31.54933917084206
 31
0.0
  0
LINE
  5
101
330
1F
100
AcDbEntity
  8
外形線
  6
Continuous
 62
     7
100
AcDbLine
 10
-26.05876479659727
 20
32.9164774560374
 30
0.0
 11
-26.4015853293073
 21
32.9164774560374
 31
0.0
  0
LINE
  5
102
330
1F
100
AcDbEntity
  8
外形線
  6
Continuous
 62
     7
100
AcDbLine
 10
-28.94411797710859
 20
31.39472799272994
 30
0.0
 11
-28.94411797710859
 21
46.54472365361804
 31
0.0
  0
LINE
  5
103
330
1F
100
AcDbEntity
  8
外形線
  6
Continuous
 62
     7
100
AcDbLine
 10
-27.18290750652974
 20
31.39472799272994
 30
0.0
 11
-27.18290750652974
 21
46.54472365361804
 31
0.0
  0
LINE
  5
104
330
1F
100
AcDbEntity
  8
破線
  6
DASHED
100
AcDbLine
 10
-28.4863353261211
 20
31.86347318483019
 30
0.0
 11
-27.64069457166704
 21
31.86347318483019
 31
0.0
  0
LINE
  5
105
330
1F
100
AcDbEntity
  8
破線
  6
DASHED
100
AcDbLine
 10
-28.75217382534456
 20
32.79055936508298
 30
0.0
 11
-28.48633722603421
 21
31.86347708401495
 31
0.0
  0
LINE
  5
106
330
1F
100
AcDbEntity
  8
破線
  6
DASHED
100
AcDbLine
 10
-27.37486044620474
 20
32.79055139179732
 30
0.0
 11
-27.64069704551511
 21
31.86346911072927
 31
0.0
  0
LINE
  5
107
330
1F
100
AcDbEntity
  8
破線
  6
DASHED
100
AcDbLine
 10
-26.05876479659727
 20
33.52397041279579
 30
0.0
 11
-26.4015853293073
 21
33.52397041279579
 31
0.0
  0
LINE
  5
108
330
1F
100
AcDbEntity
  8
破線
  6
DASHED
100
AcDbLine
 10
-30.06826510119086
 20
33.52397041279579
 30
0.0
 11
-29.72544898263068
 21
33.52397041279579
 31
0.0
  0
LINE
  5
109
330
1F
100
AcDbEntity
  8
外形線
  6
Continuous
 62
     7
100
AcDbLine
 10
-24.62944100958959
 20
31.25597139977209
 30
0.0
 11
-23.47860152146092
 21
31.25597139977209
 31
0.0
  0
LINE
  5
10A
330
1F
100
AcDbEntity
  8
外形線
  6
Continuous
 62
     7
100
AcDbLine
 10
-26.05876921074713
 20
32.9164774560374
 30
0.0
 11
-25.71595309218694
 21
32.9164774560374
 31
0.0
  0
LINE
  5
10B
330
1F
100
AcDbEntity
  8
外形線
  6
Continuous
 62
     7
100
AcDbLine
 10
-25.41076318681201
 20
32.77771865600475
 30
0.0
 11
-25.41076318681201
 21
46.54471703239329
 31
0.0
  0
LINE
  5
10C
330
1F
100
AcDbEntity
  8
外形線
  6
Continuous
 62
     7
100
AcDbLine
 10
-25.32664302583325
 20
32.62309986319781
 30
0.0
 11
-25.01874585660536
 21
31.54933496128932
 31
0.0
  0
LINE
  5
10D
330
1F
100
AcDbEntity
  8
外形線
  6
Continuous
 62
     7
100
AcDbLine
 10
-22.69726168763913
 20
32.77772307015459
 30
0.0
 11
-22.69726168763913
 21
46.54471703239329
 31
0.0
  0
LINE
  5
10E
330
1F
100
AcDbEntity
  8
外形線
  6
Continuous
 62
     7
100
AcDbLine
 10
-22.78140191137726
 20
32.62310435304313
 30
0.0
 11
-23.08929877642893
 21
31.54934051192291
 31
0.0
  0
LINE
  5
10F
330
1F
100
AcDbEntity
  8
外形線
  6
Continuous
 62
     7
100
AcDbLine
 10
-22.04926890615354
 20
32.9164774560374
 30
0.0
 11
-22.39208943886354
 21
32.9164774560374
 31
0.0
  0
LINE
  5
110
330
1F
100
AcDbEntity
  8
外形線
  6
Continuous
 62
     7
100
AcDbLine
 10
-24.93461767251498
 20
31.39472799272994
 30
0.0
 11
-24.93461767251498
 21
46.54472365361804
 31
0.0
  0
LINE
  5
111
330
1F
100
AcDbEntity
  8
外形線
  6
Continuous
 62
     7
100
AcDbLine
 10
-23.17340720193616
 20
31.39472799272994
 30
0.0
 11
-23.17340720193616
 21
46.54472365361804
 31
0.0
  0
LINE
  5
112
330
1F
100
AcDbEntity
  8
破線
  6
DASHED
100
AcDbLine
 10
-24.47683943567736
 20
31.86347318483019
 30
0.0
 11
-23.63119868122328
 21
31.86347318483019
 31
0.0
  0
LINE
  5
113
330
1F
100
AcDbEntity
  8
破線
  6
DASHED
100
AcDbLine
 10
-24.74266832598861
 20
32.7905593966233
 30
0.0
 11
-24.47683142250208
 21
31.86347605476698
 31
0.0
  0
LINE
  5
114
330
1F
100
AcDbEntity
  8
破線
  6
DASHED
100
AcDbLine
 10
-23.36535646772967
 20
32.79054605631572
 30
0.0
 11
-23.63119245868768
 21
31.86346589682422
 31
0.0
  0
LINE
  5
115
330
1F
100
AcDbEntity
  8
破線
  6
DASHED
100
AcDbLine
 10
-22.04926890615354
 20
33.52397041279579
 30
0.0
 11
-22.39208943886354
 21
33.52397041279579
 31
0.0
  0
LINE
  5
116
330
1F
100
AcDbEntity
  8
破線
  6
DASHED
100
AcDbLine
 10
-26.05876921074713
 20
33.52397041279579
 30
0.0
 11
-25.71595309218694
 21
33.52397041279579
 31
0.0
  0
LINE
  5
117
330
1F
100
AcDbEntity
  8
外形線
  6
Continuous
 62
     7
100
AcDbLine
 10
-20.619940704996
 20
31.25597139977209
 30
0.0
 11
-19.46910121686732
 21
31.25597139977209
 31
0.0
  0
LINE
  5
118
330
1F
100
AcDbEntity
  8
外形線
  6
Continuous
 62
     7
100
AcDbLine
 10
-22.04926890615354
 20
32.9164774560374
 30
0.0
 11
-21.70645278759335
 21
32.9164774560374
 31
0.0
  0
LINE
  5
119
330
1F
100
AcDbEntity
  8
外形線
  6
Continuous
 62
     7
100
AcDbLine
 10
-21.40126288221842
 20
32.77771865600475
 30
0.0
 11
-21.40126288221842
 21
46.54471703239329
 31
0.0
  0
LINE
  5
11A
330
1F
100
AcDbEntity
  8
外形線
  6
Continuous
 62
     7
100
AcDbLine
 10
-21.31714677322401
 20
32.62310011329935
 30
0.0
 11
-21.0092500602604
 21
31.54933680257324
 31
0.0
  0
LINE
  5
11B
330
1F
100
AcDbEntity
  8
外形線
  6
Continuous
 62
     7
100
AcDbLine
 10
-18.77190520250372
 20
32.62310569412405
 30
0.0
 11
-19.07980206755542
 21
31.5493418530038
 31
0.0
  0
LINE
  5
11C
330
1F
100
AcDbEntity
  8
外形線
  6
Continuous
 62
     7
100
AcDbLine
 10
-18.03976860155995
 20
32.9164774560374
 30
0.0
 11
-18.38258913426997
 21
32.9164774560374
 31
0.0
  0
LINE
  5
11D
330
1F
100
AcDbEntity
  8
外形線
  6
Continuous
 62
     7
100
AcDbLine
 10
-20.92511736792141
 20
31.39472799272994
 30
0.0
 11
-20.92511736792141
 21
46.54472365361804
 31
0.0
  0
LINE
  5
11E
330
1F
100
AcDbEntity
  8
破線
  6
DASHED
100
AcDbLine
 10
-20.46733913108377
 20
31.86347318483019
 30
0.0
 11
-19.62169837662969
 21
31.86347318483019
 31
0.0
  0
LINE
  5
11F
330
1F
100
AcDbEntity
  8
破線
  6
DASHED
100
AcDbLine
 10
-20.73317555609197
 20
32.79055577804935
 30
0.0
 11
-20.46733865260543
 21
31.86347243619304
 31
0.0
  0
LINE
  5
120
330
1F
100
AcDbEntity
  8
破線
  6
DASHED
100
AcDbLine
 10
-19.35586188043268
 20
32.79054800574889
 30
0.0
 11
-19.62169787139069
 21
31.86346784625741
 31
0.0
  0
LINE
  5
121
330
1F
100
AcDbEntity
  8
破線
  6
DASHED
100
AcDbLine
 10
-22.04926890615354
 20
33.52397041279579
 30
0.0
 11
-21.70645278759335
 21
33.52397041279579
 31
0.0
  0
LINE
  5
122
330
1F
100
AcDbEntity
  8
外形線
  6
Continuous
 62
     7
100
AcDbLine
 10
-16.61043598625258
 20
31.25597139977209
 30
0.0
 11
-15.45959649812391
 21
31.25597139977209
 31
0.0
  0
LINE
  5
123
330
1F
100
AcDbEntity
  8
外形線
  6
Continuous
 62
     7
100
AcDbLine
 10
-18.03976418741013
 20
32.9164774560374
 30
0.0
 11
-17.69694806884993
 21
32.9164774560374
 31
0.0
  0
LINE
  5
124
330
1F
100
AcDbEntity
  8
外形線
  6
Continuous
 62
     7
100
AcDbLine
 10
-17.39176257762483
 20
32.77771865600475
 30
0.0
 11
-17.39176257762483
 21
46.54471703239329
 31
0.0
  0
LINE
  5
125
330
1F
100
AcDbEntity
  8
外形線
  6
Continuous
 62
     7
100
AcDbLine
 10
-17.30764870321434
 20
32.62310203254154
 30
0.0
 11
-16.99975183816266
 21
31.54933819142133
 31
0.0
  0
LINE
  5
126
330
1F
100
AcDbEntity
  8
外形線
  6
Continuous
 62
     7
100
AcDbLine
 10
-14.67826107845198
 20
32.77772307015459
 30
0.0
 11
-14.67826107845198
 21
46.54471703239329
 31
0.0
  0
LINE
  5
127
330
1F
100
AcDbEntity
  8
外形線
  6
Continuous
 62
     7
100
AcDbLine
 10
-14.76240788527781
 20
32.6231091567815
 30
0.0
 11
-15.07030475032951
 21
31.54934531566127
 31
0.0
  0
LINE
  5
128
330
1F
100
AcDbEntity
  8
外形線
  6
Continuous
 62
     7
100
AcDbLine
 10
-14.03026388281654
 20
32.9164774560374
 30
0.0
 11
-14.37308441552655
 21
32.9164774560374
 31
0.0
  0
LINE
  5
129
330
1F
100
AcDbEntity
  8
外形線
  6
Continuous
 62
     7
100
AcDbLine
 10
-16.91561706332783
 20
31.39472799272994
 30
0.0
 11
-16.91561706332783
 21
46.54472365361804
 31
0.0
  0
LINE
  5
12A
330
1F
100
AcDbEntity
  8
外形線
  6
Continuous
 62
     7
100
AcDbLine
 10
-15.15440659274898
 20
31.39472799272994
 30
0.0
 11
-15.15440659274898
 21
46.54472365361804
 31
0.0
  0
LINE
  5
12B
330
1F
100
AcDbEntity
  8
破線
  6
DASHED
100
AcDbLine
 10
-16.45783441234036
 20
31.86347318483019
 30
0.0
 11
-15.61219365788628
 21
31.86347318483019
 31
0.0
  0
LINE
  5
12C
330
1F
100
AcDbEntity
  8
破線
  6
DASHED
100
AcDbLine
 10
-16.72367581311334
 20
32.79055186295605
 30
0.0
 11
-16.45783890962678
 21
31.86346852109972
 31
0.0
  0
LINE
  5
12D
330
1F
100
AcDbEntity
  8
破線
  6
DASHED
100
AcDbLine
 10
-15.34636456320678
 20
32.79055146840633
 30
0.0
 11
-15.61220055416479
 21
31.86347130891486
 31
0.0
  0
LINE
  5
12E
330
1F
100
AcDbEntity
  8
破線
  6
DASHED
100
AcDbLine
 10
-14.03026388281654
 20
33.52397041279579
 30
0.0
 11
-14.37308441552655
 21
33.52397041279579
 31
0.0
  0
LINE
  5
12F
330
1F
100
AcDbEntity
  8
破線
  6
DASHED
100
AcDbLine
 10
-18.03976418741013
 20
33.52397041279579
 30
0.0
 11
-17.69694806884993
 21
33.52397041279579
 31
0.0
  0
LINE
  5
130
330
1F
100
AcDbEntity
  8
外形線
  6
Continuous
 62
     7
100
AcDbLine
 10
-12.60093568165899
 20
31.25597139977209
 30
0.0
 11
-11.45009619353033
 21
31.25597139977209
 31
0.0
  0
LINE
  5
131
330
1F
100
AcDbEntity
  8
外形線
  6
Continuous
 62
     7
100
AcDbLine
 10
-14.03026388281654
 20
32.9164774560374
 30
0.0
 11
-13.68744776425636
 21
32.9164774560374
 31
0.0
  0
LINE
  5
132
330
1F
100
AcDbEntity
  8
外形線
  6
Continuous
 62
     7
100
AcDbLine
 10
-13.38226227303126
 20
32.77771865600475
 30
0.0
 11
-13.38226227303126
 21
46.54471703239329
 31
0.0
  0
LINE
  5
133
330
1F
100
AcDbEntity
  8
外形線
  6
Continuous
 62
     7
100
AcDbLine
 10
-13.29815442009355
 20
32.62310114389661
 30
0.0
 11
-12.99025755504185
 21
31.54933730277637
 31
0.0
  0
LINE
  5
134
330
1F
100
AcDbEntity
  8
外形線
  6
Continuous
 62
     7
100
AcDbLine
 10
-10.66876077385839
 20
32.77772307015459
 30
0.0
 11
-10.66876077385839
 21
46.54471703239329
 31
0.0
  0
LINE
  5
135
330
1F
100
AcDbEntity
  8
外形線
  6
Continuous
 62
     7
100
AcDbLine
 10
-10.75290875830825
 20
32.62310291642793
 30
0.0
 11
-11.06080501500757
 21
31.54934119688429
 31
0.0
  0
LINE
  5
136
330
1F
100
AcDbEntity
  8
外形線
  6
Continuous
 62
     7
100
AcDbLine
 10
-10.02076357822297
 20
32.9164774560374
 30
0.0
 11
-10.36358411093297
 21
32.9164774560374
 31
0.0
  0
LINE
  5
137
330
1F
100
AcDbEntity
  8
外形線
  6
Continuous
 62
     7
100
AcDbLine
 10
-12.90611675873427
 20
31.39472799272994
 30
0.0
 11
-12.90611675873427
 21
46.54472365361804
 31
0.0
  0
LINE
  5
138
330
1F
100
AcDbEntity
  8
外形線
  6
Continuous
 62
     7
100
AcDbLine
 10
-11.14490628815541
 20
31.39472799272994
 30
0.0
 11
-11.14490628815541
 21
46.54472365361804
 31
0.0
  0
LINE
  5
139
330
1F
100
AcDbEntity
  8
破線
  6
DASHED
100
AcDbLine
 10
-12.44833410774679
 20
31.86347318483019
 30
0.0
 11
-11.60269335329271
 21
31.86347318483019
 31
0.0
  0
LINE
  5
13A
330
1F
100
AcDbEntity
  8
破線
  6
DASHED
100
AcDbLine
 10
-12.71417804727988
 20
32.79055484298648
 30
0.0
 11
-12.44834144796954
 21
31.86347256191843
 31
0.0
  0
LINE
  5
13B
330
1F
100
AcDbEntity
  8
破線
  6
DASHED
100
AcDbLine
 10
-11.33686724598089
 20
32.79055493106375
 30
0.0
 11
-11.6027032369389
 21
31.86347477157226
 31
0.0
  0
LINE
  5
13C
330
1F
100
AcDbEntity
  8
破線
  6
DASHED
100
AcDbLine
 10
-10.02076357822297
 20
33.52397041279579
 30
0.0
 11
-10.36358411093297
 21
33.52397041279579
 31
0.0
  0
LINE
  5
13D
330
1F
100
AcDbEntity
  8
破線
  6
DASHED
100
AcDbLine
 10
-14.03026388281654
 20
33.52397041279579
 30
0.0
 11
-13.68744776425636
 21
33.52397041279579
 31
0.0
  0
LINE
  5
13E
330
1F
100
AcDbEntity
  8
外形線
  6
Continuous
 62
     7
100
AcDbLine
 10
-8.59143979121525
 20
31.25597139977209
 30
0.0
 11
-3.702766642953392
 21
31.25597139977209
 31
0.0
  0
LINE
  5
13F
330
1F
100
AcDbEntity
  8
外形線
  6
Continuous
 62
     7
100
AcDbLine
 10
-10.02076799237279
 20
32.9164774560374
 30
0.0
 11
-9.677951873812617
 21
32.9164774560374
 31
0.0
  0
LINE
  5
140
330
1F
100
AcDbEntity
  8
外形線
  6
Continuous
 62
     7
100
AcDbLine
 10
-9.372766382587542
 20
32.77771865600475
 30
0.0
 11
-9.372766382587542
 21
46.54471703239329
 31
0.0
  0
LINE
  5
141
330
1F
100
AcDbEntity
  8
外形線
  6
Continuous
 62
     7
100
AcDbLine
 10
-9.288662258549306
 20
32.62309964689926
 30
0.0
 11
-8.98076539349762
 21
31.54933580577902
 31
0.0
  0
LINE
  5
142
330
1F
100
AcDbEntity
  8
外形線
  6
Continuous
 62
     7
100
AcDbLine
 10
-8.896620868290511
 20
31.39472799272994
 30
0.0
 11
-8.896620868290511
 21
46.54472365361804
 31
0.0
  0
LINE
  5
143
330
1F
100
AcDbEntity
  8
破線
  6
DASHED
100
AcDbLine
 10
-8.438838217303041
 20
31.86347318483019
 30
0.0
 11
-4.053505056928202
 21
31.86347318483019
 31
0.0
  0
LINE
  5
144
330
1F
100
AcDbEntity
  8
破線
  6
DASHED
100
AcDbLine
 10
-8.704686798264205
 20
32.79055652835398
 30
0.0
 11
-8.438849894777675
 21
31.86347318649764
 31
0.0
  0
LINE
  5
145
330
1F
100
AcDbEntity
  8
破線
  6
DASHED
100
AcDbLine
 10
-10.02076799237279
 20
33.52397041279579
 30
0.0
 11
-9.677951873812617
 21
33.52397041279579
 31
0.0
  0
LINE
  5
146
330
1F
100
AcDbEntity
  8
外形線
  6
Continuous
 62
     7
100
AcDbLine
 10
-3.702766642953406
 20
31.25597139977215
 30
0.0
 11
-3.702766642953406
 21
46.54471703239329
 31
0.0
  0
LINE
  5
147
330
1F
100
AcDbEntity
  8
外形線
  6
Continuous
 62
     7
100
AcDbLine
 10
-1.598532273310735
 20
34.90061320390836
 30
0.0
 11
-3.702766771784055
 21
31.25597061905148
 31
0.0
  0
LINE
  5
148
330
1F
100
AcDbEntity
  8
外形線
  6
Continuous
 62
     7
100
AcDbLine
 10
-0.8739872361284426
 20
34.85398931250497
 30
0.0
 11
-0.2602648826485847
 21
33.38222424905871
 31
0.0
  0
LINE
  5
149
330
1F
100
AcDbEntity
  8
破線
  6
DASHED
100
AcDbLine
 10
-1.715237851495189
 20
35.913472665146
 30
0.0
 11
-4.053507190234483
 21
31.86346967687763
 31
0.0
  0
LINE
  5
14A
330
1F
100
AcDbEntity
  8
破線
  6
DASHED
100
AcDbLine
 10
-0.6284237587252762
 20
35.84353575162604
 30
0.0
 11
0.1446104506353834
 21
33.98972557877697
 31
0.0
  0
LINE
  5
14B
330
1F
100
AcDbEntity
  8
外形線
  6
Continuous
 62
     7
100
AcDbLine
 10
-36.10276547044485
 20
32.51147258754048
 30
0.0
 11
-35.69776722317269
 21
32.51147258754048
 31
0.0
  0
LINE
  5
14C
330
1F
100
AcDbEntity
  8
0
  6
Continuous
 62
     7
100
AcDbLine
 10
-81.29859809300144
 20
-37.70377892000669
 30
0.0
 11
98.70140953639314
 21
-37.70377892000669
 31
0.0
  0
LINE
  5
14D
330
1F
100
AcDbEntity
  8
0
 62
     7
100
AcDbLine
 10
-81.29859809300144
 20
-43.70377900941365
 30
0.0
 11
98.70140953639314
 21
-43.70377900941365
 31
0.0
  0
LINE
  5
14E
330
1F
100
AcDbEntity
  8
0
  6
Continuous
 62
     7
100
AcDbLine
 10
-81.29859809300144
 20
-49.70377909882063
 30
0.0
 11
98.70140953639314
 21
-49.70377909882063
 31
0.0
  0
LINE
  5
14F
330
1F
100
AcDbEntity
  8
0
  6
Continuous
 62
     7
100
AcDbLine
 10
-81.29859809300144
 20
-55.7037791882276
 30
0.0
 11
98.70140953639314
 21
-55.7037791882276
 31
0.0
  0
LINE
  5
150
330
1F
100
AcDbEntity
  8
0
  6
Continuous
 62
     7
100
AcDbLine
 10
-81.29859809300144
 20
-1.703778830599738
 30
0.0
 11
98.70140953639314
 21
-1.703778830599738
 31
0.0
  0
LINE
  5
151
330
1F
100
AcDbEntity
  8
外形線
  6
Continuous
 62
     7
100
AcDbLine
 10
-18.68776138304557
 20
32.77772307015448
 30
0.0
 11
-18.68776138304557
 21
46.54471703239326
 31
0.0
  0
LINE
  5
152
330
1F
100
AcDbEntity
  8
外形線
  6
Continuous
 62
     7
100
AcDbLine
 10
-19.16390689734257
 20
31.39472799272986
 30
0.0
 11
-19.16390689734257
 21
46.54472365361796
 31
0.0
  0
ARC
  5
153
330
1F
100
AcDbEntity
  8
破線
  6
DASHED
100
AcDbCircle
 10
5.085724014826083
 20
58.57322898154859
 30
0.0
 40
0.5264950315812344
100
AcDbArc
 50
89.99998201391065
 51
179.9999640278213
  0
ARC
  5
154
330
1F
100
AcDbEntity
  8
外形線
  6
Continuous
 62
     7
100
AcDbCircle
 10
-8.591444205365093
 20
61.42847766019182
 30
0.0
 40
0.4050000060349702
100
AcDbArc
 50
89.99998201391065
 51
164.000027331013
  0
ARC
  5
155
330
1F
100
AcDbEntity
  8
破線
  6
DASHED
100
AcDbCircle
 10
-30.41108563390088
 20
60.57797471969553
 30
0.0
 40
1.012500032330199
100
AcDbArc
 50
196.0001229331487
 51
269.999963344576
  0
ARC
  5
156
330
1F
100
AcDbEntity
  8
破線
  6
DASHED
100
AcDbCircle
 10
-33.73494928722426
 20
60.57797471969553
 30
0.0
 40
1.012500032330199
100
AcDbArc
 50
270.0000179860894
 51
343.999854982422
  0
ARC
  5
157
330
1F
100
AcDbEntity
  8
外形線
  6
Continuous
 62
     7
100
AcDbCircle
 10
-9.677951873812617
 20
60.57797692677049
 30
0.0
 40
0.4050000060349702
100
AcDbArc
 50
270.0000179860894
 51
343.999854982422
  0
ARC
  5
158
330
1F
100
AcDbEntity
  8
外形線
  6
Continuous
 62
     7
100
AcDbCircle
 10
-12.60094009580884
 20
61.42847766019182
 30
0.0
 40
0.4050000060349702
100
AcDbArc
 50
89.99998201391065
 51
164.000027331013
  0
ARC
  5
159
330
1F
100
AcDbEntity
  8
破線
  6
DASHED
100
AcDbCircle
 10
-26.4015853293073
 20
60.57797692677049
 30
0.0
 40
1.012500032330199
100
AcDbArc
 50
196.0001229331487
 51
269.999963344576
  0
ARC
  5
15A
330
1F
100
AcDbEntity
  8
破線
  6
DASHED
100
AcDbCircle
 10
-29.72544898263068
 20
60.57797692677049
 30
0.0
 40
1.012500032330199
100
AcDbArc
 50
270.0000179860894
 51
343.999854982422
  0
ARC
  5
15B
330
1F
100
AcDbEntity
  8
外形線
  6
Continuous
 62
     7
100
AcDbCircle
 10
-13.68744776425636
 20
60.57797692677049
 30
0.0
 40
0.4050000060349702
100
AcDbArc
 50
270.0000179860894
 51
343.999854982422
  0
ARC
  5
15C
330
1F
100
AcDbEntity
  8
外形線
  6
Continuous
 62
     7
100
AcDbCircle
 10
-30.41108563390088
 20
60.57797471969553
 30
0.0
 40
0.4050000060349702
100
AcDbArc
 50
196.0001229331487
 51
269.999963344576
  0
ARC
  5
15D
330
1F
100
AcDbEntity
  8
外形線
  6
Continuous
 62
     7
100
AcDbCircle
 10
-24.62944100958956
 20
61.42847766019182
 30
0.0
 40
0.4050000060349702
100
AcDbArc
 50
89.99998201391065
 51
164.000027331013
  0
ARC
  5
15E
330
1F
100
AcDbEntity
  8
外形線
  6
Continuous
 62
     7
100
AcDbCircle
 10
-25.71594867803711
 20
60.57797692677049
 30
0.0
 40
0.4050000060349702
100
AcDbArc
 50
270.0000179860894
 51
343.999854982422
  0
ARC
  5
15F
330
1F
100
AcDbEntity
  8
外形線
  6
Continuous
 62
     7
100
AcDbCircle
 10
-23.47860152146092
 20
61.42847766019182
 30
0.0
 40
0.4050000060349702
100
AcDbArc
 50
15.99993669680831
 51
89.99998201391065
  0
ARC
  5
160
330
1F
100
AcDbEntity
  8
外形線
  6
Continuous
 62
     7
100
AcDbCircle
 10
-22.39208502471371
 20
60.57797692677049
 30
0.0
 40
0.4050000060349702
100
AcDbArc
 50
196.0001229331487
 51
269.999963344576
  0
ARC
  5
161
330
1F
100
AcDbEntity
  8
破線
  6
DASHED
100
AcDbCircle
 10
-9.677951873812617
 20
60.57797692677049
 30
0.0
 40
1.012500032330199
100
AcDbArc
 50
270.0000179860894
 51
343.999854982422
  0
ARC
  5
162
330
1F
100
AcDbEntity
  8
破線
  6
DASHED
100
AcDbCircle
 10
3.850485981870788
 20
58.67447192214187
 30
0.0
 40
0.7159464111055561
100
AcDbArc
 50
188.1298871978398
 51
351.8700804724472
  0
ARC
  5
163
330
1F
100
AcDbEntity
  8
外形線
  6
Continuous
 62
     7
100
AcDbCircle
 10
-28.63894131418314
 20
61.42847766019182
 30
0.0
 40
0.4050000060349702
100
AcDbArc
 50
89.99998201391065
 51
164.000027331013
  0
ARC
  5
164
330
1F
100
AcDbEntity
  8
破線
  6
DASHED
100
AcDbCircle
 10
-21.70644837344352
 20
60.57797692677049
 30
0.0
 40
1.012500032330199
100
AcDbArc
 50
270.0000179860894
 51
343.999854982422
  0
ARC
  5
165
330
1F
100
AcDbEntity
  8
破線
  6
DASHED
100
AcDbCircle
 10
-18.38258472012012
 20
60.57797692677049
 30
0.0
 40
1.012500032330199
100
AcDbArc
 50
196.0001229331487
 51
269.999963344576
  0
ARC
  5
166
330
1F
100
AcDbEntity
  8
外形線
  6
Continuous
 62
     7
100
AcDbCircle
 10
3.344235965705692
 20
59.30222582663844
 30
0.0
 40
0.4050000060349702
100
AcDbArc
 50
0.0
 51
89.99998201391065
  0
ARC
  5
167
330
1F
100
AcDbEntity
  8
外形線
  6
Continuous
 62
     7
100
AcDbCircle
 10
-11.45010060768017
 20
61.42847766019182
 30
0.0
 40
0.4050000060349702
100
AcDbArc
 50
15.99993669680831
 51
89.99998201391065
  0
ARC
  5
168
330
1F
100
AcDbEntity
  8
外形線
  6
Continuous
 62
     7
100
AcDbCircle
 10
-10.36358411093297
 20
60.57797692677049
 30
0.0
 40
0.4050000060349702
100
AcDbArc
 50
196.0001229331487
 51
269.999963344576
  0
ARC
  5
169
330
1F
100
AcDbEntity
  8
破線
  6
DASHED
100
AcDbCircle
 10
-25.71594867803711
 20
60.57797692677049
 30
0.0
 40
1.012500032330199
100
AcDbArc
 50
270.0000179860894
 51
343.999854982422
  0
ARC
  5
16A
330
1F
100
AcDbEntity
  8
破線
  6
DASHED
100
AcDbCircle
 10
-22.39208502471371
 20
60.57797692677049
 30
0.0
 40
1.012500032330199
100
AcDbArc
 50
196.0001229331487
 51
269.999963344576
  0
ARC
  5
16B
330
1F
100
AcDbEntity
  8
外形線
  6
Continuous
 62
     7
100
AcDbCircle
 10
-1.247791967722462
 20
58.39133345403158
 30
0.0
 40
0.4050000060349702
100
AcDbArc
 50
210.0000026560589
 51
337.3639710339178
  0
ARC
  5
16C
330
1F
100
AcDbEntity
  8
破線
  6
DASHED
100
AcDbCircle
 10
9.884981936974938
 20
58.67447192214187
 30
0.0
 40
0.7159464111055561
100
AcDbArc
 50
188.1298871978398
 51
351.8700804724472
  0
ARC
  5
16D
330
1F
100
AcDbEntity
  8
外形線
  6
Continuous
 62
     7
100
AcDbCircle
 10
-32.6484372046269
 20
61.42847324604201
 30
0.0
 40
0.4050000060349702
100
AcDbArc
 50
89.99998201391065
 51
164.000027331013
  0
ARC
  5
16E
330
1F
100
AcDbEntity
  8
外形線
  6
Continuous
 62
     7
100
AcDbCircle
 10
5.085724014826083
 20
58.57322898154859
 30
0.0
 40
1.133995092362008
100
AcDbArc
 50
89.99998201391065
 51
179.9999640278213
  0
ARC
  5
16F
330
1F
100
AcDbEntity
  8
破線
  6
DASHED
100
AcDbCircle
 10
11.1202287982299
 20
58.57322898154859
 30
0.0
 40
0.5264950315812344
100
AcDbArc
 50
89.99998201391065
 51
179.9999640278213
  0
ARC
  5
170
330
1F
100
AcDbEntity
  8
外形線
  6
Continuous
 62
     7
100
AcDbCircle
 10
11.1202287982299
 20
58.57322898154859
 30
0.0
 40
1.133995092362008
100
AcDbArc
 50
89.99998201391065
 51
179.9999640278213
  0
ARC
  5
171
330
1F
100
AcDbEntity
  8
外形線
  6
Continuous
 62
     7
100
AcDbCircle
 10
9.378727506659997
 20
59.30222582663844
 30
0.0
 40
0.4050000060349702
100
AcDbArc
 50
0.0
 51
89.99998201391065
  0
ARC
  5
172
330
1F
100
AcDbEntity
  8
外形線
  6
Continuous
 62
     7
100
AcDbCircle
 10
-31.49759771649824
 20
61.42847324604201
 30
0.0
 40
0.4050000060349702
100
AcDbArc
 50
15.99993669680831
 51
89.99998201391065
  0
ARC
  5
173
330
1F
100
AcDbEntity
  8
外形線
  6
Continuous
 62
     7
100
AcDbCircle
 10
-29.72544898263068
 20
60.57797692677049
 30
0.0
 40
0.4050000060349702
100
AcDbArc
 50
270.0000179860894
 51
343.999854982422
  0
ARC
  5
174
330
1F
100
AcDbEntity
  8
外形線
  6
Continuous
 62
     7
100
AcDbCircle
 10
54.52294412324635
 20
46.54472365361804
 30
0.0
 40
11.42100023226014
100
AcDbArc
 50
167.7466456379535
 51
179.9999640278213
  0
ARC
  5
175
330
1F
100
AcDbEntity
  8
外形線
  6
Continuous
 62
     7
100
AcDbCircle
 10
-33.73494928722426
 20
60.57797471969553
 30
0.0
 40
0.4050000060349702
100
AcDbArc
 50
270.0000179860894
 51
343.999854982422
  0
ARC
  5
176
330
1F
100
AcDbEntity
  8
外形線
  6
Continuous
 62
     7
100
AcDbCircle
 10
54.52294412324635
 20
46.54472365361804
 30
0.0
 40
11.42100023226014
100
AcDbArc
 50
180.0001042740704
 51
192.2534226639382
  0
ARC
  5
177
330
1F
100
AcDbEntity
  8
外形線
  6
Continuous
 62
     7
100
AcDbCircle
 10
52.01304969931788
 20
34.98813508444349
 30
0.0
 40
0.4050000060349702
100
AcDbArc
 50
77.74660898252943
 51
135.0000003416227
  0
ARC
  5
178
330
1F
100
AcDbEntity
  8
外形線
  6
Continuous
 62
     7
100
AcDbCircle
 10
54.52294412324635
 20
46.54472365361804
 30
0.0
 40
11.42100023226014
100
AcDbArc
 50
257.7466586150865
 51
269.999963344576
  0
ARC
  5
179
330
1F
100
AcDbEntity
  8
外形線
  6
Continuous
 62
     7
100
AcDbCircle
 10
42.9663555540718
 20
44.03483033322699
 30
0.0
 40
0.4050000060349702
100
AcDbArc
 50
315.0000636345581
 51
12.25344816346219
  0
ARC
  5
17A
330
1F
100
AcDbEntity
  8
外形線
  6
Continuous
 62
     7
100
AcDbCircle
 10
57.03283854717486
 20
34.98813508444349
 30
0.0
 40
0.4050000060349702
100
AcDbArc
 50
45.00005930884703
 51
102.2534438377511
  0
ARC
  5
17B
330
1F
100
AcDbEntity
  8
外形線
  6
Continuous
 62
     7
100
AcDbCircle
 10
54.52294412324635
 20
46.54472365361804
 30
0.0
 40
11.42100023226014
100
AcDbArc
 50
270.0000999483594
 51
282.2534183382272
  0
ARC
  5
17C
330
1F
100
AcDbEntity
  8
外形線
  6
Continuous
 62
     7
100
AcDbCircle
 10
66.0795326924209
 20
44.03482812615211
 30
0.0
 40
0.4050000060349702
100
AcDbArc
 50
167.7466046568185
 51
224.9999960159117
  0
ARC
  5
17D
330
1F
100
AcDbEntity
  8
外形線
  6
Continuous
 62
     7
100
AcDbCircle
 10
54.52294412324635
 20
46.54472365361804
 30
0.0
 40
11.42100023226014
100
AcDbArc
 50
347.7466542893754
 51
359.9999590188649
  0
ARC
  5
17E
330
1F
100
AcDbEntity
  8
外形線
  6
Continuous
 62
     7
100
AcDbCircle
 10
42.9663555540718
 20
49.05461862931521
 30
0.0
 40
0.4050000060349702
100
AcDbArc
 50
347.7466150157876
 51
45.00000125223912
  0
ARC
  5
17F
330
1F
100
AcDbEntity
  8
外形線
  6
Continuous
 62
     7
100
AcDbCircle
 10
54.52294412324635
 20
46.54472365361804
 30
0.0
 40
11.42100023226014
100
AcDbArc
 50
90.00009129693737
 51
102.2534096868052
  0
ARC
  5
180
330
1F
100
AcDbEntity
  8
外形線
  6
Continuous
 62
     7
100
AcDbCircle
 10
52.01304969931788
 20
58.1013122227926
 30
0.0
 40
0.4050000060349702
100
AcDbArc
 50
225.000067960269
 51
282.2534524891731
  0
ARC
  5
181
330
1F
100
AcDbEntity
  8
外形線
  6
Continuous
 62
     7
100
AcDbCircle
 10
66.0795326924209
 20
49.0546172498934
 30
0.0
 40
0.4050000060349702
100
AcDbArc
 50
135.000054983136
 51
192.2534326818509
  0
ARC
  5
182
330
1F
100
AcDbEntity
  8
外形線
  6
Continuous
 62
     7
100
AcDbCircle
 10
54.52294412324635
 20
46.54472365361804
 30
0.0
 40
11.42100023226014
100
AcDbArc
 50
0.00009562264838
 51
12.25341401251624
  0
CIRCLE
  5
183
330
1F
100
AcDbEntity
  8
外形線
  6
Continuous
 62
     7
100
AcDbCircle
 10
54.52294412324635
 20
46.54472365361804
 30
0.0
 40
10.32750275755043
  0
ARC
  5
184
330
1F
100
AcDbEntity
  8
外形線
  6
Continuous
 62
     7
100
AcDbCircle
 10
57.03283854717486
 20
58.1013122227926
 30
0.0
 40
0.4050000060349702
100
AcDbArc
 50
257.7466039735731
 51
315.0000089930447
  0
CIRCLE
  5
185
330
1F
100
AcDbEntity
  8
外形線
  6
Continuous
 62
     7
100
AcDbCircle
 10
54.52294412324635
 20
46.54472365361804
 30
0.0
 40
15.28875225384593
  0
ARC
  5
186
330
1F
100
AcDbEntity
  8
外形線
  6
Continuous
 62
     7
100
AcDbCircle
 10
54.52294412324635
 20
46.54472365361804
 30
0.0
 40
11.42100023226014
100
AcDbArc
 50
77.74664996366448
 51
89.99995469315399
  0
CIRCLE
  5
187
330
1F
100
AcDbEntity
  8
外形線
  6
Continuous
 62
     7
100
AcDbCircle
 10
54.52294412324635
 20
46.54472365361804
 30
0.0
 40
13.56749866756473
  0
CIRCLE
  5
188
330
1F
100
AcDbEntity
  8
外形線
  6
Continuous
 62
     7
100
AcDbCircle
 10
54.52294412324635
 20
46.54472365361804
 30
0.0
 40
13.16250042029258
  0
ARC
  5
189
330
1F
100
AcDbEntity
  8
外形線
  6
Continuous
 62
     7
100
AcDbCircle
 10
-20.619940704996
 20
61.42847766019182
 30
0.0
 40
0.4050000060349702
100
AcDbArc
 50
89.99998201391065
 51
164.000027331013
  0
ARC
  5
18A
330
1F
100
AcDbEntity
  8
外形線
  6
Continuous
 62
     7
100
AcDbCircle
 10
-21.70644837344352
 20
60.57797692677049
 30
0.0
 40
0.4050000060349702
100
AcDbArc
 50
270.0000179860894
 51
343.999854982422
  0
ARC
  5
18B
330
1F
100
AcDbEntity
  8
外形線
  6
Continuous
 62
     7
100
AcDbCircle
 10
-19.46910121686736
 20
61.42847766019182
 30
0.0
 40
0.4050000060349702
100
AcDbArc
 50
15.99993669680831
 51
89.99998201391065
  0
ARC
  5
18C
330
1F
100
AcDbEntity
  8
外形線
  6
Continuous
 62
     7
100
AcDbCircle
 10
-18.38258472012012
 20
60.57797692677049
 30
0.0
 40
0.4050000060349702
100
AcDbArc
 50
196.0001229331487
 51
269.999963344576
  0
ARC
  5
18D
330
1F
100
AcDbEntity
  8
破線
  6
DASHED
100
AcDbCircle
 10
-17.6969480688499
 20
60.57797692677049
 30
0.0
 40
1.012500032330199
100
AcDbArc
 50
270.0000179860894
 51
343.999854982422
  0
ARC
  5
18E
330
1F
100
AcDbEntity
  8
破線
  6
DASHED
100
AcDbCircle
 10
-14.37308441552655
 20
60.57797692677049
 30
0.0
 40
1.012500032330199
100
AcDbArc
 50
196.0001229331487
 51
269.999963344576
  0
ARC
  5
18F
330
1F
100
AcDbEntity
  8
外形線
  6
Continuous
 62
     7
100
AcDbCircle
 10
-16.61044040040244
 20
61.42847766019182
 30
0.0
 40
0.4050000060349702
100
AcDbArc
 50
89.99998201391065
 51
164.000027331013
  0
ARC
  5
190
330
1F
100
AcDbEntity
  8
外形線
  6
Continuous
 62
     7
100
AcDbCircle
 10
-17.6969480688499
 20
60.57797692677049
 30
0.0
 40
0.4050000060349702
100
AcDbArc
 50
270.0000179860894
 51
343.999854982422
  0
ARC
  5
191
330
1F
100
AcDbEntity
  8
外形線
  6
Continuous
 62
     7
100
AcDbCircle
 10
-15.45960091227374
 20
61.42847766019182
 30
0.0
 40
0.4050000060349702
100
AcDbArc
 50
15.99993669680831
 51
89.99998201391065
  0
ARC
  5
192
330
1F
100
AcDbEntity
  8
外形線
  6
Continuous
 62
     7
100
AcDbCircle
 10
-14.37308441552655
 20
60.57797692677049
 30
0.0
 40
0.4050000060349702
100
AcDbArc
 50
196.0001229331487
 51
269.999963344576
  0
ARC
  5
193
330
1F
100
AcDbEntity
  8
破線
  6
DASHED
100
AcDbCircle
 10
-13.68744776425636
 20
60.57797692677049
 30
0.0
 40
1.012500032330199
100
AcDbArc
 50
270.0000179860894
 51
343.999854982422
  0
ARC
  5
194
330
1F
100
AcDbEntity
  8
破線
  6
DASHED
100
AcDbCircle
 10
-10.36358411093297
 20
60.57797692677049
 30
0.0
 40
1.012500032330199
100
AcDbArc
 50
196.0001229331487
 51
269.999963344576
  0
ARC
  5
195
330
1F
100
AcDbEntity
  8
破線
  6
DASHED
100
AcDbCircle
 10
-1.189127916428205
 20
57.47972323030797
 30
0.0
 40
0.6074986813589507
100
AcDbArc
 50
209.9999753353022
 51
337.3640103075055
  0
ARC
  5
196
330
1F
100
AcDbEntity
  8
外形線
  6
Continuous
 62
     7
100
AcDbCircle
 10
-27.48810182605448
 20
61.42847766019182
 30
0.0
 40
0.4050000060349702
100
AcDbArc
 50
15.99993669680831
 51
89.99998201391065
  0
ARC
  5
197
330
1F
100
AcDbEntity
  8
外形線
  6
Continuous
 62
     7
100
AcDbCircle
 10
-26.4015853293073
 20
60.57797692677049
 30
0.0
 40
0.4050000060349702
100
AcDbArc
 50
196.0001229331487
 51
269.999963344576
  0
ARC
  5
198
330
1F
100
AcDbEntity
  8
外形線
  6
Continuous
 62
     7
100
AcDbCircle
 10
3.344235965705692
 20
33.78721265229794
 30
0.0
 40
0.4050000060349702
100
AcDbArc
 50
269.999963344576
 51
359.9999453584866
  0
ARC
  5
199
330
1F
100
AcDbEntity
  8
外形線
  6
Continuous
 62
     7
100
AcDbCircle
 10
5.085724014826083
 20
34.51621832568747
 30
0.0
 40
1.133995092362008
100
AcDbArc
 50
179.9999813306653
 51
269.999963344576
  0
ARC
  5
19A
330
1F
100
AcDbEntity
  8
破線
  6
DASHED
100
AcDbCircle
 10
5.085724014826083
 20
34.51621832568747
 30
0.0
 40
0.5264950315812344
100
AcDbArc
 50
179.9999813306653
 51
269.999963344576
  0
ARC
  5
19B
330
1F
100
AcDbEntity
  8
破線
  6
DASHED
100
AcDbCircle
 10
3.850485981870788
 20
34.41496655679451
 30
0.0
 40
0.7159464111055561
100
AcDbArc
 50
8.129864886039456
 51
171.8700581606468
  0
ARC
  5
19C
330
1F
100
AcDbEntity
  8
外形線
  6
Continuous
 62
     7
100
AcDbCircle
 10
9.378727506659997
 20
33.78721265229794
 30
0.0
 40
0.4050000060349702
100
AcDbArc
 50
269.999963344576
 51
359.9999453584866
  0
ARC
  5
19D
330
1F
100
AcDbEntity
  8
外形線
  6
Continuous
 62
     7
100
AcDbCircle
 10
11.1202287982299
 20
34.51621832568747
 30
0.0
 40
1.133995092362008
100
AcDbArc
 50
179.9999813306653
 51
269.999963344576
  0
ARC
  5
19E
330
1F
100
AcDbEntity
  8
破線
  6
DASHED
100
AcDbCircle
 10
11.1202287982299
 20
34.51621832568747
 30
0.0
 40
0.5264950315812344
100
AcDbArc
 50
179.9999813306653
 51
269.999963344576
  0
ARC
  5
19F
330
1F
100
AcDbEntity
  8
破線
  6
DASHED
100
AcDbCircle
 10
9.884981936974938
 20
34.41496655679451
 30
0.0
 40
0.7159464111055561
100
AcDbArc
 50
8.129864886039456
 51
171.8700581606468
  0
ARC
  5
1A0
330
1F
100
AcDbEntity
  8
破線
  6
DASHED
100
AcDbCircle
 10
-33.73494928722426
 20
32.51147258754048
 30
0.0
 40
1.012500032330199
100
AcDbArc
 50
16.00010062134839
 51
89.99994103277565
  0
ARC
  5
1A1
330
1F
100
AcDbEntity
  8
破線
  6
DASHED
100
AcDbCircle
 10
-30.41108563390088
 20
32.51147258754048
 30
0.0
 40
1.012500032330199
100
AcDbArc
 50
89.99998201391065
 51
163.9998224253379
  0
ARC
  5
1A2
330
1F
100
AcDbEntity
  8
外形線
  6
Continuous
 62
     7
100
AcDbCircle
 10
-32.6484372046269
 20
31.66097406119408
 30
0.0
 40
0.4050000060349702
100
AcDbArc
 50
195.9999180274736
 51
269.999963344576
  0
ARC
  5
1A3
330
1F
100
AcDbEntity
  8
外形線
  6
Continuous
 62
     7
100
AcDbCircle
 10
-33.73494928722426
 20
32.51147258754048
 30
0.0
 40
0.4050000060349702
100
AcDbArc
 50
16.00010062134839
 51
89.99994103277565
  0
ARC
  5
1A4
330
1F
100
AcDbEntity
  8
外形線
  6
Continuous
 62
     7
100
AcDbCircle
 10
-31.49759771649824
 20
31.66097406119408
 30
0.0
 40
0.4050000060349702
100
AcDbArc
 50
269.999963344576
 51
344.0000086616784
  0
ARC
  5
1A5
330
1F
100
AcDbEntity
  8
外形線
  6
Continuous
 62
     7
100
AcDbCircle
 10
-30.41108563390088
 20
32.51147258754048
 30
0.0
 40
0.4050000060349702
100
AcDbArc
 50
89.99998201391065
 51
163.9998224253379
  0
ARC
  5
1A6
330
1F
100
AcDbEntity
  8
破線
  6
DASHED
100
AcDbCircle
 10
-29.72544898263068
 20
32.51147038046558
 30
0.0
 40
1.012500032330199
100
AcDbArc
 50
16.00010062134839
 51
89.99994103277565
  0
ARC
  5
1A7
330
1F
100
AcDbEntity
  8
破線
  6
DASHED
100
AcDbCircle
 10
-26.4015853293073
 20
32.51147038046558
 30
0.0
 40
1.012500032330199
100
AcDbArc
 50
89.99998201391065
 51
163.9998224253379
  0
ARC
  5
1A8
330
1F
100
AcDbEntity
  8
外形線
  6
Continuous
 62
     7
100
AcDbCircle
 10
-28.63894131418314
 20
31.66096964704426
 30
0.0
 40
0.4050000060349702
100
AcDbArc
 50
195.9999180274736
 51
269.999963344576
  0
ARC
  5
1A9
330
1F
100
AcDbEntity
  8
外形線
  6
Continuous
 62
     7
100
AcDbCircle
 10
-29.72544898263068
 20
32.51147038046558
 30
0.0
 40
0.4050000060349702
100
AcDbArc
 50
16.00010062134839
 51
89.99994103277565
  0
ARC
  5
1AA
330
1F
100
AcDbEntity
  8
外形線
  6
Continuous
 62
     7
100
AcDbCircle
 10
-27.48810182605448
 20
31.66096964704426
 30
0.0
 40
0.4050000060349702
100
AcDbArc
 50
269.999963344576
 51
344.0000086616784
  0
ARC
  5
1AB
330
1F
100
AcDbEntity
  8
外形線
  6
Continuous
 62
     7
100
AcDbCircle
 10
-26.4015853293073
 20
32.51147038046558
 30
0.0
 40
0.4050000060349702
100
AcDbArc
 50
89.99998201391065
 51
163.9998224253379
  0
ARC
  5
1AC
330
1F
100
AcDbEntity
  8
破線
  6
DASHED
100
AcDbCircle
 10
-25.71594867803711
 20
32.51147038046558
 30
0.0
 40
1.012500032330199
100
AcDbArc
 50
16.00010062134839
 51
89.99994103277565
  0
ARC
  5
1AD
330
1F
100
AcDbEntity
  8
破線
  6
DASHED
100
AcDbCircle
 10
-22.39208502471371
 20
32.51147038046558
 30
0.0
 40
1.012500032330199
100
AcDbArc
 50
89.99998201391065
 51
163.9998224253379
  0
ARC
  5
1AE
330
1F
100
AcDbEntity
  8
外形線
  6
Continuous
 62
     7
100
AcDbCircle
 10
-24.62944100958956
 20
31.66096964704426
 30
0.0
 40
0.4050000060349702
100
AcDbArc
 50
195.9999180274736
 51
269.999963344576
  0
ARC
  5
1AF
330
1F
100
AcDbEntity
  8
外形線
  6
Continuous
 62
     7
100
AcDbCircle
 10
-25.71594867803711
 20
32.51147038046558
 30
0.0
 40
0.4050000060349702
100
AcDbArc
 50
16.00010062134839
 51
89.99994103277565
  0
ARC
  5
1B0
330
1F
100
AcDbEntity
  8
外形線
  6
Continuous
 62
     7
100
AcDbCircle
 10
-23.47860152146092
 20
31.66096964704426
 30
0.0
 40
0.4050000060349702
100
AcDbArc
 50
269.999963344576
 51
344.0000086616784
  0
ARC
  5
1B1
330
1F
100
AcDbEntity
  8
外形線
  6
Continuous
 62
     7
100
AcDbCircle
 10
-22.39208502471371
 20
32.51147038046558
 30
0.0
 40
0.4050000060349702
100
AcDbArc
 50
89.99998201391065
 51
163.9998224253379
  0
ARC
  5
1B2
330
1F
100
AcDbEntity
  8
破線
  6
DASHED
100
AcDbCircle
 10
-21.70644837344352
 20
32.51147038046558
 30
0.0
 40
1.012500032330199
100
AcDbArc
 50
16.00010062134839
 51
89.99994103277565
  0
ARC
  5
1B3
330
1F
100
AcDbEntity
  8
破線
  6
DASHED
100
AcDbCircle
 10
-18.38258472012012
 20
32.51147038046558
 30
0.0
 40
1.012500032330199
100
AcDbArc
 50
89.99998201391065
 51
163.9998224253379
  0
ARC
  5
1B4
330
1F
100
AcDbEntity
  8
外形線
  6
Continuous
 62
     7
100
AcDbCircle
 10
-20.619940704996
 20
31.66096964704426
 30
0.0
 40
0.4050000060349702
100
AcDbArc
 50
195.9999180274736
 51
269.999963344576
  0
ARC
  5
1B5
330
1F
100
AcDbEntity
  8
外形線
  6
Continuous
 62
     7
100
AcDbCircle
 10
-21.70644837344352
 20
32.51147038046558
 30
0.0
 40
0.4050000060349702
100
AcDbArc
 50
16.00010062134839
 51
89.99994103277565
  0
ARC
  5
1B6
330
1F
100
AcDbEntity
  8
外形線
  6
Continuous
 62
     7
100
AcDbCircle
 10
-19.46910121686736
 20
31.66096964704426
 30
0.0
 40
0.4050000060349702
100
AcDbArc
 50
269.999963344576
 51
344.0000086616784
  0
ARC
  5
1B7
330
1F
100
AcDbEntity
  8
外形線
  6
Continuous
 62
     7
100
AcDbCircle
 10
-18.38258472012012
 20
32.51147038046558
 30
0.0
 40
0.4050000060349702
100
AcDbArc
 50
89.99998201391065
 51
163.9998224253379
  0
ARC
  5
1B8
330
1F
100
AcDbEntity
  8
破線
  6
DASHED
100
AcDbCircle
 10
-17.6969480688499
 20
32.51147038046558
 30
0.0
 40
1.012500032330199
100
AcDbArc
 50
16.00010062134839
 51
89.99994103277565
  0
ARC
  5
1B9
330
1F
100
AcDbEntity
  8
破線
  6
DASHED
100
AcDbCircle
 10
-14.37308441552655
 20
32.51147038046558
 30
0.0
 40
1.012500032330199
100
AcDbArc
 50
89.99998201391065
 51
163.9998224253379
  0
ARC
  5
1BA
330
1F
100
AcDbEntity
  8
外形線
  6
Continuous
 62
     7
100
AcDbCircle
 10
-16.61044040040244
 20
31.66096964704426
 30
0.0
 40
0.4050000060349702
100
AcDbArc
 50
195.9999180274736
 51
269.999963344576
  0
ARC
  5
1BB
330
1F
100
AcDbEntity
  8
外形線
  6
Continuous
 62
     7
100
AcDbCircle
 10
-17.6969480688499
 20
32.51147038046558
 30
0.0
 40
0.4050000060349702
100
AcDbArc
 50
16.00010062134839
 51
89.99994103277565
  0
ARC
  5
1BC
330
1F
100
AcDbEntity
  8
外形線
  6
Continuous
 62
     7
100
AcDbCircle
 10
-15.45960091227374
 20
31.66096964704426
 30
0.0
 40
0.4050000060349702
100
AcDbArc
 50
269.999963344576
 51
344.0000086616784
  0
ARC
  5
1BD
330
1F
100
AcDbEntity
  8
外形線
  6
Continuous
 62
     7
100
AcDbCircle
 10
-14.37308441552655
 20
32.51147038046558
 30
0.0
 40
0.4050000060349702
100
AcDbArc
 50
89.99998201391065
 51
163.9998224253379
  0
ARC
  5
1BE
330
1F
100
AcDbEntity
  8
破線
  6
DASHED
100
AcDbCircle
 10
-13.68744776425636
 20
32.51147038046558
 30
0.0
 40
1.012500032330199
100
AcDbArc
 50
16.00010062134839
 51
89.99994103277565
  0
ARC
  5
1BF
330
1F
100
AcDbEntity
  8
破線
  6
DASHED
100
AcDbCircle
 10
-10.36358411093297
 20
32.51147038046558
 30
0.0
 40
1.012500032330199
100
AcDbArc
 50
89.99998201391065
 51
163.9998224253379
  0
ARC
  5
1C0
330
1F
100
AcDbEntity
  8
外形線
  6
Continuous
 62
     7
100
AcDbCircle
 10
-12.60094009580884
 20
31.66096964704426
 30
0.0
 40
0.4050000060349702
100
AcDbArc
 50
195.9999180274736
 51
269.999963344576
  0
ARC
  5
1C1
330
1F
100
AcDbEntity
  8
外形線
  6
Continuous
 62
     7
100
AcDbCircle
 10
-13.68744776425636
 20
32.51147038046558
 30
0.0
 40
0.4050000060349702
100
AcDbArc
 50
16.00010062134839
 51
89.99994103277565
  0
ARC
  5
1C2
330
1F
100
AcDbEntity
  8
外形線
  6
Continuous
 62
     7
100
AcDbCircle
 10
-11.45010060768017
 20
31.66096964704426
 30
0.0
 40
0.4050000060349702
100
AcDbArc
 50
269.999963344576
 51
344.0000086616784
  0
ARC
  5
1C3
330
1F
100
AcDbEntity
  8
外形線
  6
Continuous
 62
     7
100
AcDbCircle
 10
-10.36358411093297
 20
32.51147038046558
 30
0.0
 40
0.4050000060349702
100
AcDbArc
 50
89.99998201391065
 51
163.9998224253379
  0
ARC
  5
1C4
330
1F
100
AcDbEntity
  8
破線
  6
DASHED
100
AcDbCircle
 10
-9.677951873812617
 20
32.51147038046558
 30
0.0
 40
1.012500032330199
100
AcDbArc
 50
16.00010062134839
 51
89.99994103277565
  0
ARC
  5
1C5
330
1F
100
AcDbEntity
  8
外形線
  6
Continuous
 62
     7
100
AcDbCircle
 10
-8.591444205365093
 20
31.66096964704426
 30
0.0
 40
0.4050000060349702
100
AcDbArc
 50
195.9999180274736
 51
269.999963344576
  0
ARC
  5
1C6
330
1F
100
AcDbEntity
  8
外形線
  6
Continuous
 62
     7
100
AcDbCircle
 10
-9.677951873812617
 20
32.51147038046558
 30
0.0
 40
0.4050000060349702
100
AcDbArc
 50
16.00010062134839
 51
89.99994103277565
  0
ARC
  5
1C7
330
1F
100
AcDbEntity
  8
外形線
  6
Continuous
 62
     7
100
AcDbCircle
 10
-1.247791967722462
 20
34.69811440497323
 30
0.0
 40
0.4050000060349702
100
AcDbArc
 50
22.63598456985262
 51
149.9999563628061
  0
ARC
  5
1C8
330
1F
100
AcDbEntity
  8
破線
  6
DASHED
100
AcDbCircle
 10
-1.189127916428205
 20
35.60972462869685
 30
0.0
 40
0.6074986813589507
100
AcDbArc
 50
22.63592992833928
 51
149.9999700231844
  0
MTEXT
  5
1C9
330
1F
100
AcDbEntity
  8
0
 62
     7
100
AcDbMText
 10
-56.29859046360689
 20
19.29622116940027
 30
0.0
 40
3.200000047683716
 41
0.0
 46
0.0
 71
     5
 72
     1
  1
{\W0.833333;規　　　格}
 73
     1
 44
1.0
1001
ACAD
1000
MTEXTBEGIN
1070
    73
1070
     1
1070
    44
1040
1.0
1070
    74
1070
     0
1000
MTEXTEND
  0
MTEXT
  5
1CA
330
1F
100
AcDbEntity
  8
0
 62
     7
100
AcDbMText
 10
-18.29859046360687
 20
19.20077013352497
 30
0.0
 40
3.200000047683716
 41
0.0
 46
0.0
 71
     5
 72
     1
  1
∅B
 73
     1
 44
1.0
1001
ACAD
1000
MTEXTBEGIN
1070
    73
1070
     1
1070
    44
1040
1.0
1070
    74
1070
     0
1000
MTEXTEND
  0
MTEXT
  5
1CB
330
1F
100
AcDbEntity
  8
0
 62
     7
100
AcDbMText
 10
7.701424795182191
 20
19.29622116940027
 30
0.0
 40
3.200000047683716
 41
0.0
 46
0.0
 71
     5
 72
     1
  1
∅A
 73
     1
 44
1.0
1001
ACAD
1000
MTEXTBEGIN
1070
    73
1070
     1
1070
    44
1040
1.0
1070
    74
1070
     0
1000
MTEXTEND
  0
MTEXT
  5
1CC
330
1F
100
AcDbEntity
  8
0
 62
     7
100
AcDbMText
 10
33.70143242457672
 20
19.29622116940027
 30
0.0
 40
3.200000047683716
 41
0.0
 46
0.0
 71
     5
 72
     1
  1
L
 73
     1
 44
1.0
1001
ACAD
1000
MTEXTBEGIN
1070
    73
1070
     1
1070
    44
1040
1.0
1070
    74
1070
     0
1000
MTEXTEND
  0
MTEXT
  5
1CD
330
1F
100
AcDbEntity
  8
0
 62
     7
100
AcDbMText
 10
59.70142479518218
 20
19.29622116940027
 30
0.0
 40
3.200000047683716
 41
0.0
 46
0.0
 71
     5
 72
     1
  1
L1
 73
     1
 44
1.0
1001
ACAD
1000
MTEXTBEGIN
1070
    73
1070
     1
1070
    44
1040
1.0
1070
    74
1070
     0
1000
MTEXTEND
  0
MTEXT
  5
1CE
330
1F
100
AcDbEntity
  8
0
 62
     7
100
AcDbMText
 10
85.70140953639313
 20
19.29622116940027
 30
0.0
 40
3.200000047683716
 41
0.0
 46
0.0
 71
     5
 72
     1
  1
L2
 73
     1
 44
1.0
1001
ACAD
1000
MTEXTBEGIN
1070
    73
1070
     1
1070
    44
1040
1.0
1070
    74
1070
     0
1000
MTEXTEND
  0
MTEXT
  5
1CF
330
1F
100
AcDbEntity
  8
0
 62
     7
100
AcDbMText
 10
-76.30188826013544
 20
-70.10133040161552
 30
0.0
 40
2.5
 41
0.0
 46
0.0
 71
     7
 72
     1
  1
{\W0.8333;*寸法、仕様等は製品改良の為、予告無く変更する場合があります。（Ｈ２４．６）}
 73
     1
 44
1.0
1001
ACAD
1000
ACAD_MTEXT_DEFINED_HEIGHT_BEGIN
1070
    46
1040
0.0
1000
ACAD_MTEXT_DEFINED_HEIGHT_END
1000
MTEXTBEGIN
1070
    73
1070
     1
1070
    44
1040
1.0
1070
    74
1070
     0
1000
MTEXTEND
  0
MTEXT
  5
1D0
330
1F
100
AcDbEntity
  8
0
 62
     7
100
AcDbMText
 10
-76.2300816608409
 20
-61.13412900140286
 30
0.0
 40
2.5
 41
0.0
 46
0.0
 71
     7
 72
     1
  1
{\W0.833333;*形状は規格毎に異なります。}
 73
     1
 44
1.0
1001
ACAD
1000
MTEXTBEGIN
1070
    73
1070
     1
1070
    44
1040
1.0
1070
    74
1070
     0
1000
MTEXTEND
  0
MTEXT
  5
1D1
330
1F
100
AcDbEntity
  8
0
 62
     7
100
AcDbMText
 10
-76.32924577051695
 20
-65.56831676711772
 30
0.0
 40
2.5
 41
0.0
 46
0.0
 71
     7
 72
     1
  1
{\W0.833333;*ストッパ－の位置及び数は、規格毎に異なります。}
 73
     1
 44
1.0
1001
ACAD
1000
MTEXTBEGIN
1070
    73
1070
     1
1070
    44
1040
1.0
1070
    74
1070
     0
1000
MTEXTEND
  0
MTEXT
  5
1D2
330
1F
100
AcDbEntity
  8
0
 62
     7
100
AcDbMText
 10
-67.826494945064
 20
11.69622114555841
 30
0.0
 40
3.200000047683716
 41
0.0
 46
0.0
 71
     7
 72
     1
  1
\W0.833333;TDW125-60
 73
     1
 44
1.0
1001
ACAD
1000
MTEXTBEGIN
1070
    73
1070
     1
1070
    44
1040
1.0
1070
    74
1070
     0
1000
MTEXTEND
  0
MTEXT
  5
1D3
330
1F
100
AcDbEntity
  8
0
 62
     7
100
AcDbMText
 10
-67.826494945064
 20
5.696221056151442
 30
0.0
 40
3.200000047683716
 41
0.0
 46
0.0
 71
     7
 72
     1
  1
\W0.833333;TDW125-75
 73
     1
 44
1.0
1001
ACAD
1000
MTEXTBEGIN
1070
    73
1070
     1
1070
    44
1040
1.0
1070
    74
1070
     0
1000
MTEXTEND
  0
MTEXT
  5
1D4
330
1F
100
AcDbEntity
  8
0
 62
     7
100
AcDbMText
 10
-67.826494945064
 20
-6.303779033255532
 30
0.0
 40
3.200000047683716
 41
0.0
 46
0.0
 71
     7
 72
     1
  1
\W0.833333;TDW125-100
 73
     1
 44
1.0
1001
ACAD
1000
MTEXTBEGIN
1070
    73
1070
     1
1070
    44
1040
1.0
1070
    74
1070
     0
1000
MTEXTEND
  0
MTEXT
  5
1D5
330
1F
100
AcDbEntity
  8
0
 62
     7
100
AcDbMText
 10
-67.826494945064
 20
-12.3037791226625
 30
0.0
 40
3.200000047683716
 41
0.0
 46
0.0
 71
     7
 72
     1
  1
\W0.833333;TDW150-50
 73
     1
 44
1.0
1001
ACAD
1000
MTEXTBEGIN
1070
    73
1070
     1
1070
    44
1040
1.0
1070
    74
1070
     0
1000
MTEXTEND
  0
MTEXT
  5
1D6
330
1F
100
AcDbEntity
  8
0
 62
     7
100
AcDbMText
 10
-67.826494945064
 20
-18.30377921206946
 30
0.0
 40
3.200000047683716
 41
0.0
 46
0.0
 71
     7
 72
     1
  1
\W0.833333;TDW150-60
 73
     1
 44
1.0
1001
ACAD
1000
MTEXTBEGIN
1070
    73
1070
     1
1070
    44
1040
1.0
1070
    74
1070
     0
1000
MTEXTEND
  0
MTEXT
  5
1D8
330
1F
100
AcDbEntity
  8
0
 62
     7
100
AcDbMText
 10
-67.826494945064
 20
-24.3037793908834
 30
0.0
 40
3.200000047683716
 41
0.0
 46
0.0
 71
     7
 72
     1
  1
{\W0.8333;TDW150-75}
 73
     1
 44
1.0
1001
ACAD
1000
ACAD_MTEXT_DEFINED_HEIGHT_BEGIN
1070
    46
1040
0.0
1000
ACAD_MTEXT_DEFINED_HEIGHT_END
1000
MTEXTBEGIN
1070
    73
1070
     1
1070
    44
1040
1.0
1070
    74
1070
     0
1000
MTEXTEND
  0
MTEXT
  5
1D9
330
1F
100
AcDbEntity
  8
0
 62
     7
100
AcDbMText
 10
-67.826494945064
 20
-30.30377948029035
 30
0.0
 40
3.200000047683716
 41
0.0
 46
0.0
 71
     7
 72
     1
  1
\W0.833333;TDW150-80
 73
     1
 44
1.0
1001
ACAD
1000
MTEXTBEGIN
1070
    73
1070
     1
1070
    44
1040
1.0
1070
    74
1070
     0
1000
MTEXTEND
  0
MTEXT
  5
1DB
330
1F
100
AcDbEntity
  8
0
 62
     7
100
AcDbMText
 10
-18.29859046360687
 20
13.29622116940027
 30
0.0
 40
3.200000047683716
 41
0.0
 46
0.0
 71
     5
 72
     1
  1
{\W1;148}
 73
     1
 44
1.0
1001
ACAD
1000
MTEXTBEGIN
1070
    73
1070
     1
1070
    44
1040
1.0
1070
    74
1070
     0
1000
MTEXTEND
  0
MTEXT
  5
1DC
330
1F
100
AcDbEntity
  8
0
 62
     7
100
AcDbMText
 10
7.625099130264562
 20
13.29622116940027
 30
0.0
 40
3.200000047683716
 41
0.0
 46
0.0
 71
     5
 72
     1
  1
{\W1;73}
 73
     1
 44
1.0
1001
ACAD
1000
MTEXTBEGIN
1070
    73
1070
     1
1070
    44
1040
1.0
1070
    74
1070
     0
1000
MTEXTEND
  0
MTEXT
  5
1DD
330
1F
100
AcDbEntity
  8
0
 62
     7
100
AcDbMText
 10
33.62511441885602
 20
13.29622116940027
 30
0.0
 40
3.200000047683716
 41
0.0
 46
0.0
 71
     5
 72
     1
  1
{\W1;227}
 73
     1
 44
1.0
1001
ACAD
1000
MTEXTBEGIN
1070
    73
1070
     1
1070
    44
1040
1.0
1070
    74
1070
     0
1000
MTEXTEND
  0
MTEXT
  5
1DE
330
1F
100
AcDbEntity
  8
0
 62
     7
100
AcDbMText
 10
59.70144005397123
 20
13.29622116940027
 30
0.0
 40
3.200000047683716
 41
0.0
 46
0.0
 71
     5
 72
     1
  1
{\W1;161}
 73
     1
 44
1.0
1001
ACAD
1000
MTEXTBEGIN
1070
    73
1070
     1
1070
    44
1040
1.0
1070
    74
1070
     0
1000
MTEXTEND
  0
MTEXT
  5
1DF
330
1F
100
AcDbEntity
  8
0
 62
     7
100
AcDbMText
 10
85.70140953639313
 20
13.29622116940027
 30
0.0
 40
3.200000047683716
 41
0.0
 46
0.0
 71
     5
 72
     1
  1
{\W1;51}
 73
     1
 44
1.0
1001
ACAD
1000
MTEXTBEGIN
1070
    73
1070
     1
1070
    44
1040
1.0
1070
    74
1070
     0
1000
MTEXTEND
  0
MTEXT
  5
1E0
330
1F
100
AcDbEntity
  8
0
 62
     7
100
AcDbMText
 10
7.701424795182187
 20
7.296221169400267
 30
0.0
 40
3.200000047683716
 41
0.0
 46
0.0
 71
     5
 72
     1
  1
90
 73
     1
 44
1.0
1001
ACAD
1000
MTEXTBEGIN
1070
    73
1070
     1
1070
    44
1040
1.0
1070
    74
1070
     0
1000
MTEXTEND
  0
MTEXT
  5
1E1
330
1F
100
AcDbEntity
  8
0
 62
     7
100
AcDbMText
 10
-18.29859046360687
 20
7.296221169400267
 30
0.0
 40
3.200000047683716
 41
0.0
 46
0.0
 71
     5
 72
     1
  1
{\W1;148}
 73
     1
 44
1.0
1001
ACAD
1000
MTEXTBEGIN
1070
    73
1070
     1
1070
    44
1040
1.0
1070
    74
1070
     0
1000
MTEXTEND
  0
MTEXT
  5
1E2
330
1F
100
AcDbEntity
  8
0
 62
     7
100
AcDbMText
 10
33.62511441885602
 20
7.296221169400267
 30
0.0
 40
3.200000047683716
 41
0.0
 46
0.0
 71
     5
 72
     1
  1
249
 73
     1
 44
1.0
1001
ACAD
1000
MTEXTBEGIN
1070
    73
1070
     1
1070
    44
1040
1.0
1070
    74
1070
     0
1000
MTEXTEND
  0
MTEXT
  5
1E3
330
1F
100
AcDbEntity
  8
0
 62
     7
100
AcDbMText
 10
85.62514490663183
 20
7.296221169400267
 30
0.0
 40
3.200000047683716
 41
0.0
 46
0.0
 71
     5
 72
     1
  1
74
 73
     1
 44
1.0
1001
ACAD
1000
MTEXTBEGIN
1070
    73
1070
     1
1070
    44
1040
1.0
1070
    74
1070
     0
1000
MTEXTEND
  0
MTEXT
  5
1E4
330
1F
100
AcDbEntity
  8
0
 62
     7
100
AcDbMText
 10
59.70144005397123
 20
7.296221169400276
 30
0.0
 40
3.200000047683716
 41
0.0
 46
0.0
 71
     5
 72
     1
  1
{\W1;161}
 73
     1
 44
1.0
1001
ACAD
1000
MTEXTBEGIN
1070
    73
1070
     1
1070
    44
1040
1.0
1070
    74
1070
     0
1000
MTEXTEND
  0
MTEXT
  5
1E5
330
1F
100
AcDbEntity
  8
0
 62
     7
100
AcDbMText
 10
7.701424795182187
 20
-4.703778830599786
 30
0.0
 40
3.200000047683716
 41
0.0
 46
0.0
 71
     5
 72
     1
  1
122
 73
     1
 44
1.0
1001
ACAD
1000
MTEXTBEGIN
1070
    73
1070
     1
1070
    44
1040
1.0
1070
    74
1070
     0
1000
MTEXTEND
  0
MTEXT
  5
1E6
330
1F
100
AcDbEntity
  8
0
 62
     7
100
AcDbMText
 10
59.70144005397123
 20
-4.703778830599782
 30
0.0
 40
3.200000047683716
 41
0.0
 46
0.0
 71
     5
 72
     1
  1
{\W1;161}
 73
     1
 44
1.0
1001
ACAD
1000
MTEXTBEGIN
1070
    73
1070
     1
1070
    44
1040
1.0
1070
    74
1070
     0
1000
MTEXTEND
  0
MTEXT
  5
1E7
330
1F
100
AcDbEntity
  8
0
 62
     7
100
AcDbMText
 10
33.62511441885602
 20
-4.703778830599786
 30
0.0
 40
3.200000047683716
 41
0.0
 46
0.0
 71
     5
 72
     1
  1
{\W1;289}
 73
     1
 44
1.0
1001
ACAD
1000
MTEXTBEGIN
1070
    73
1070
     1
1070
    44
1040
1.0
1070
    74
1070
     0
1000
MTEXTEND
  0
MTEXT
  5
1E8
330
1F
100
AcDbEntity
  8
0
 62
     7
100
AcDbMText
 10
-18.29859046360687
 20
-4.703778830599786
 30
0.0
 40
3.200000047683716
 41
0.0
 46
0.0
 71
     5
 72
     1
  1
{\W1;148}
 73
     1
 44
1.0
1001
ACAD
1000
MTEXTBEGIN
1070
    73
1070
     1
1070
    44
1040
1.0
1070
    74
1070
     0
1000
MTEXTEND
  0
MTEXT
  5
1E9
330
1F
100
AcDbEntity
  8
0
 62
     7
100
AcDbMText
 10
85.70140953639313
 20
-4.703778830599786
 30
0.0
 40
3.200000047683716
 41
0.0
 46
0.0
 71
     5
 72
     1
  1
{\W1;115}
 73
     1
 44
1.0
1001
ACAD
1000
MTEXTBEGIN
1070
    73
1070
     1
1070
    44
1040
1.0
1070
    74
1070
     0
1000
MTEXTEND
  0
MTEXT
  5
1EA
330
1F
100
AcDbEntity
  8
0
 62
     7
100
AcDbMText
 10
85.62514490663183
 20
-10.70377883059985
 30
0.0
 40
3.200000047683716
 41
0.0
 46
0.0
 71
     5
 72
     1
  1
{\W1;49}
 73
     1
 44
1.0
1001
ACAD
1000
MTEXTBEGIN
1070
    73
1070
     1
1070
    44
1040
1.0
1070
    74
1070
     0
1000
MTEXTEND
  0
MTEXT
  5
1EB
330
1F
100
AcDbEntity
  8
0
 62
     7
100
AcDbMText
 10
-18.29859046360687
 20
-10.70377883059985
 30
0.0
 40
3.200000047683716
 41
0.0
 46
0.0
 71
     5
 72
     1
  1
{\W1;176}
 73
     1
 44
1.0
1001
ACAD
1000
MTEXTBEGIN
1070
    73
1070
     1
1070
    44
1040
1.0
1070
    74
1070
     0
1000
MTEXTEND
  0
MTEXT
  5
1EC
330
1F
100
AcDbEntity
  8
0
 62
     7
100
AcDbMText
 10
33.62511441885602
 20
-10.70377883059985
 30
0.0
 40
3.200000047683716
 41
0.0
 46
0.0
 71
     5
 72
     1
  1
{\W1;256}
 73
     1
 44
1.0
1001
ACAD
1000
MTEXTBEGIN
1070
    73
1070
     1
1070
    44
1040
1.0
1070
    74
1070
     0
1000
MTEXTEND
  0
MTEXT
  5
1ED
330
1F
100
AcDbEntity
  8
0
 62
     7
100
AcDbMText
 10
59.70144005397123
 20
-10.70377883059984
 30
0.0
 40
3.200000047683716
 41
0.0
 46
0.0
 71
     5
 72
     1
  1
{\W1;185}
 73
     1
 44
1.0
1001
ACAD
1000
MTEXTBEGIN
1070
    73
1070
     1
1070
    44
1040
1.0
1070
    74
1070
     0
1000
MTEXTEND
  0
MTEXT
  5
1EE
330
1F
100
AcDbEntity
  8
0
 62
     7
100
AcDbMText
 10
7.625099130264562
 20
-10.70377883059985
 30
0.0
 40
3.200000047683716
 41
0.0
 46
0.0
 71
     5
 72
     1
  1
{\W1;62}
 73
     1
 44
1.0
1001
ACAD
1000
MTEXTBEGIN
1070
    73
1070
     1
1070
    44
1040
1.0
1070
    74
1070
     0
1000
MTEXTEND
  0
MTEXT
  5
1EF
330
1F
100
AcDbEntity
  8
0
 62
     7
100
AcDbMText
 10
59.70144005397123
 20
-16.70377883059989
 30
0.0
 40
3.200000047683716
 41
0.0
 46
0.0
 71
     5
 72
     1
  1
{\W1;185}
 73
     1
 44
1.0
1001
ACAD
1000
MTEXTBEGIN
1070
    73
1070
     1
1070
    44
1040
1.0
1070
    74
1070
     0
1000
MTEXTEND
  0
MTEXT
  5
1F0
330
1F
100
AcDbEntity
  8
0
 62
     7
100
AcDbMText
 10
-18.29859046360687
 20
-16.70377883059991
 30
0.0
 40
3.200000047683716
 41
0.0
 46
0.0
 71
     5
 72
     1
  1
{\W1;176}
 73
     1
 44
1.0
1001
ACAD
1000
MTEXTBEGIN
1070
    73
1070
     1
1070
    44
1040
1.0
1070
    74
1070
     0
1000
MTEXTEND
  0
MTEXT
  5
1F1
330
1F
100
AcDbEntity
  8
0
 62
     7
100
AcDbMText
 10
85.62514490663183
 20
-16.70377883059991
 30
0.0
 40
3.200000047683716
 41
0.0
 46
0.0
 71
     5
 72
     1
  1
{\W1;53}
 73
     1
 44
1.0
1001
ACAD
1000
MTEXTBEGIN
1070
    73
1070
     1
1070
    44
1040
1.0
1070
    74
1070
     0
1000
MTEXTEND
  0
MTEXT
  5
1F2
330
1F
100
AcDbEntity
  8
0
 62
     7
100
AcDbMText
 10
33.62511441885602
 20
-16.70377883059991
 30
0.0
 40
3.200000047683716
 41
0.0
 46
0.0
 71
     5
 72
     1
  1
{\W1;258}
 73
     1
 44
1.0
1001
ACAD
1000
MTEXTBEGIN
1070
    73
1070
     1
1070
    44
1040
1.0
1070
    74
1070
     0
1000
MTEXTEND
  0
MTEXT
  5
1F3
330
1F
100
AcDbEntity
  8
0
 62
     7
100
AcDbMText
 10
7.625099130264562
 20
-16.70377883059991
 30
0.0
 40
3.200000047683716
 41
0.0
 46
0.0
 71
     5
 72
     1
  1
{\W1;73}
 73
     1
 44
1.0
1001
ACAD
1000
MTEXTBEGIN
1070
    73
1070
     1
1070
    44
1040
1.0
1070
    74
1070
     0
1000
MTEXTEND
  0
MTEXT
  5
1F9
330
1F
100
AcDbEntity
  8
0
 62
     7
100
AcDbMText
 10
59.70144005397123
 20
-22.70377883059996
 30
0.0
 40
3.200000047683716
 41
0.0
 46
0.0
 71
     5
 72
     1
  1
{\W1;185}
 73
     1
 44
1.0
1001
ACAD
1000
MTEXTBEGIN
1070
    73
1070
     1
1070
    44
1040
1.0
1070
    74
1070
     0
1000
MTEXTEND
  0
MTEXT
  5
1FA
330
1F
100
AcDbEntity
  8
0
 62
     7
100
AcDbMText
 10
85.62514490663183
 20
-22.70377883059996
 30
0.0
 40
3.200000047683716
 41
0.0
 46
0.0
 71
     5
 72
     1
  1
{\W1;62}
 73
     1
 44
1.0
1001
ACAD
1000
MTEXTBEGIN
1070
    73
1070
     1
1070
    44
1040
1.0
1070
    74
1070
     0
1000
MTEXTEND
  0
MTEXT
  5
1FB
330
1F
100
AcDbEntity
  8
0
 62
     7
100
AcDbMText
 10
-18.29859046360687
 20
-22.70377883059996
 30
0.0
 40
3.200000047683716
 41
0.0
 46
0.0
 71
     5
 72
     1
  1
{\W1;176}
 73
     1
 44
1.0
1001
ACAD
1000
MTEXTBEGIN
1070
    73
1070
     1
1070
    44
1040
1.0
1070
    74
1070
     0
1000
MTEXTEND
  0
MTEXT
  5
1FC
330
1F
100
AcDbEntity
  8
0
 62
     7
100
AcDbMText
 10
33.62511441885602
 20
-22.70377883059996
 30
0.0
 40
3.200000047683716
 41
0.0
 46
0.0
 71
     5
 72
     1
  1
{\W1;268}
 73
     1
 44
1.0
1001
ACAD
1000
MTEXTBEGIN
1070
    73
1070
     1
1070
    44
1040
1.0
1070
    74
1070
     0
1000
MTEXTEND
  0
MTEXT
  5
1FD
330
1F
100
AcDbEntity
  8
0
 62
     7
100
AcDbMText
 10
7.701424795182187
 20
-22.70377883059997
 30
0.0
 40
3.200000047683716
 41
0.0
 46
0.0
 71
     5
 72
     1
  1
{\W1;90}
 73
     1
 44
1.0
1001
ACAD
1000
MTEXTBEGIN
1070
    73
1070
     1
1070
    44
1040
1.0
1070
    74
1070
     0
1000
MTEXTEND
  0
MTEXT
  5
1FE
330
1F
100
AcDbEntity
  8
0
 62
     7
100
AcDbMText
 10
59.70144005397123
 20
-28.7037788306
 30
0.0
 40
3.200000047683716
 41
0.0
 46
0.0
 71
     5
 72
     1
  1
{\W1;185}
 73
     1
 44
1.0
1001
ACAD
1000
MTEXTBEGIN
1070
    73
1070
     1
1070
    44
1040
1.0
1070
    74
1070
     0
1000
MTEXTEND
  0
MTEXT
  5
1FF
330
1F
100
AcDbEntity
  8
0
 62
     7
100
AcDbMText
 10
7.625099130264562
 20
-28.70377883060001
 30
0.0
 40
3.200000047683716
 41
0.0
 46
0.0
 71
     5
 72
     1
  1
{\W1;97}
 73
     1
 44
1.0
1001
ACAD
1000
MTEXTBEGIN
1070
    73
1070
     1
1070
    44
1040
1.0
1070
    74
1070
     0
1000
MTEXTEND
  0
MTEXT
  5
200
330
1F
100
AcDbEntity
  8
0
 62
     7
100
AcDbMText
 10
-18.29859046360687
 20
-28.70377883060001
 30
0.0
 40
3.200000047683716
 41
0.0
 46
0.0
 71
     5
 72
     1
  1
{\W1;176}
 73
     1
 44
1.0
1001
ACAD
1000
MTEXTBEGIN
1070
    73
1070
     1
1070
    44
1040
1.0
1070
    74
1070
     0
1000
MTEXTEND
  0
MTEXT
  5
201
330
1F
100
AcDbEntity
  8
0
 62
     7
100
AcDbMText
 10
85.62514490663183
 20
-28.70377883060001
 30
0.0
 40
3.200000047683716
 41
0.0
 46
0.0
 71
     5
 72
     1
  1
{\W1;66}
 73
     1
 44
1.0
1001
ACAD
1000
MTEXTBEGIN
1070
    73
1070
     1
1070
    44
1040
1.0
1070
    74
1070
     0
1000
MTEXTEND
  0
MTEXT
  5
202
330
1F
100
AcDbEntity
  8
0
 62
     7
100
AcDbMText
 10
33.62511441885602
 20
-28.70377883060001
 30
0.0
 40
3.200000047683716
 41
0.0
 46
0.0
 71
     5
 72
     1
  1
{\W1;268}
 73
     1
 44
1.0
1001
ACAD
1000
MTEXTBEGIN
1070
    73
1070
     1
1070
    44
1040
1.0
1070
    74
1070
     0
1000
MTEXTEND
  0
MTEXT
  5
208
330
1F
100
AcDbEntity
  8
0
 62
     7
100
AcDbMText
 10
-67.826494945064
 20
-36.3037796591043
 30
0.0
 40
3.200000047683716
 41
0.0
 46
0.0
 71
     7
 72
     1
  1
\W0.833333;TDW150-100
 73
     1
 44
1.0
1001
ACAD
1000
MTEXTBEGIN
1070
    73
1070
     1
1070
    44
1040
1.0
1070
    74
1070
     0
1000
MTEXTEND
  0
MTEXT
  5
209
330
1F
100
AcDbEntity
  8
0
 62
     7
100
AcDbMText
 10
59.70144005397123
 20
-34.70377892000704
 30
0.0
 40
3.200000047683716
 41
0.0
 46
0.0
 71
     5
 72
     1
  1
{\W1;185}
 73
     1
 44
1.0
1001
ACAD
1000
MTEXTBEGIN
1070
    73
1070
     1
1070
    44
1040
1.0
1070
    74
1070
     0
1000
MTEXTEND
  0
MTEXT
  5
20A
330
1F
100
AcDbEntity
  8
0
 62
     7
100
AcDbMText
 10
85.70140953639313
 20
-34.70377892000704
 30
0.0
 40
3.200000047683716
 41
0.0
 46
0.0
 71
     5
 72
     1
  1
{\W1;115}
 73
     1
 44
1.0
1001
ACAD
1000
MTEXTBEGIN
1070
    73
1070
     1
1070
    44
1040
1.0
1070
    74
1070
     0
1000
MTEXTEND
  0
MTEXT
  5
20B
330
1F
100
AcDbEntity
  8
0
 62
     7
100
AcDbMText
 10
7.701424795182187
 20
-34.70377892000704
 30
0.0
 40
3.200000047683716
 41
0.0
 46
0.0
 71
     5
 72
     1
  1
{\W1;122}
 73
     1
 44
1.0
1001
ACAD
1000
MTEXTBEGIN
1070
    73
1070
     1
1070
    44
1040
1.0
1070
    74
1070
     0
1000
MTEXTEND
  0
MTEXT
  5
20C
330
1F
100
AcDbEntity
  8
0
 62
     7
100
AcDbMText
 10
33.70142479518219
 20
-34.70377892000704
 30
0.0
 40
3.200000047683716
 41
0.0
 46
0.0
 71
     5
 72
     1
  1
{\W1;315}
 73
     1
 44
1.0
1001
ACAD
1000
MTEXTBEGIN
1070
    73
1070
     1
1070
    44
1040
1.0
1070
    74
1070
     0
1000
MTEXTEND
  0
MTEXT
  5
20D
330
1F
100
AcDbEntity
  8
0
 62
     7
100
AcDbMText
 10
-18.29859046360687
 20
-34.70377892000704
 30
0.0
 40
3.200000047683716
 41
0.0
 46
0.0
 71
     5
 72
     1
  1
{\W1;176}
 73
     1
 44
1.0
1001
ACAD
1000
MTEXTBEGIN
1070
    73
1070
     1
1070
    44
1040
1.0
1070
    74
1070
     0
1000
MTEXTEND
  0
MTEXT
  5
20E
330
1F
100
AcDbEntity
  8
0
 62
     7
100
AcDbMText
 10
-67.826494945064
 20
-42.30377974851124
 30
0.0
 40
3.200000047683716
 41
0.0
 46
0.0
 71
     7
 72
     1
  1
\W0.833333;TDW150-125
 73
     1
 44
1.0
1001
ACAD
1000
MTEXTBEGIN
1070
    73
1070
     1
1070
    44
1040
1.0
1070
    74
1070
     0
1000
MTEXTEND
  0
MTEXT
  5
20F
330
1F
100
AcDbEntity
  8
0
 62
     7
100
AcDbMText
 10
59.70144005397123
 20
-40.70377900941402
 30
0.0
 40
3.200000047683716
 41
0.0
 46
0.0
 71
     5
 72
     1
  1
{\W1;185}
 73
     1
 44
1.0
1001
ACAD
1000
MTEXTBEGIN
1070
    73
1070
     1
1070
    44
1040
1.0
1070
    74
1070
     0
1000
MTEXTEND
  0
MTEXT
  5
210
330
1F
100
AcDbEntity
  8
0
 62
     7
100
AcDbMText
 10
85.70140953639313
 20
-40.70377900941402
 30
0.0
 40
3.200000047683716
 41
0.0
 46
0.0
 71
     5
 72
     1
  1
{\W1;145}
 73
     1
 44
1.0
1001
ACAD
1000
MTEXTBEGIN
1070
    73
1070
     1
1070
    44
1040
1.0
1070
    74
1070
     0
1000
MTEXTEND
  0
MTEXT
  5
211
330
1F
100
AcDbEntity
  8
0
 62
     7
100
AcDbMText
 10
7.701424795182187
 20
-40.70377900941402
 30
0.0
 40
3.200000047683716
 41
0.0
 46
0.0
 71
     5
 72
     1
  1
{\W1;152}
 73
     1
 44
1.0
1001
ACAD
1000
MTEXTBEGIN
1070
    73
1070
     1
1070
    44
1040
1.0
1070
    74
1070
     0
1000
MTEXTEND
  0
MTEXT
  5
212
330
1F
100
AcDbEntity
  8
0
 62
     7
100
AcDbMText
 10
33.70142479518219
 20
-40.70377900941402
 30
0.0
 40
3.200000047683716
 41
0.0
 46
0.0
 71
     5
 72
     1
  1
{\W1;341}
 73
     1
 44
1.0
1001
ACAD
1000
MTEXTBEGIN
1070
    73
1070
     1
1070
    44
1040
1.0
1070
    74
1070
     0
1000
MTEXTEND
  0
MTEXT
  5
213
330
1F
100
AcDbEntity
  8
0
 62
     7
100
AcDbMText
 10
-18.29859046360687
 20
-40.70377900941402
 30
0.0
 40
3.200000047683716
 41
0.0
 46
0.0
 71
     5
 72
     1
  1
{\W1;176}
 73
     1
 44
1.0
1001
ACAD
1000
MTEXTBEGIN
1070
    73
1070
     1
1070
    44
1040
1.0
1070
    74
1070
     0
1000
MTEXTEND
  0
MTEXT
  5
221
330
1F
100
AcDbEntity
  8
0
 62
     7
100
AcDbMText
 10
-18.29859046360687
 20
1.296221169400197
 30
0.0
 40
3.200000047683716
 41
0.0
 46
0.0
 71
     5
 72
     1
  1
{\W1;148}
 73
     1
 44
1.0
1001
ACAD
1000
MTEXTBEGIN
1070
    73
1070
     1
1070
    44
1040
1.0
1070
    74
1070
     0
1000
MTEXTEND
  0
MTEXT
  5
223
330
1F
100
AcDbEntity
  8
0
 62
     7
100
AcDbMText
 10
59.70144005397123
 20
1.296221169400205
 30
0.0
 40
3.200000047683716
 41
0.0
 46
0.0
 71
     5
 72
     1
  1
{\W1;161}
 73
     1
 44
1.0
1001
ACAD
1000
MTEXTBEGIN
1070
    73
1070
     1
1070
    44
1040
1.0
1070
    74
1070
     0
1000
MTEXTEND
  0
MTEXT
  5
225
330
1F
100
AcDbEntity
  8
0
 62
     7
100
AcDbMText
 10
-67.826494945064
 20
-0.303779033255541
 30
0.0
 40
3.200000047683716
 41
0.0
 46
0.0
 71
     7
 72
     1
  1
\W0.833333;TDW125-80
 73
     1
 44
1.0
1001
ACAD
1000
MTEXTBEGIN
1070
    73
1070
     1
1070
    44
1040
1.0
1070
    74
1070
     0
1000
MTEXTEND
  0
MTEXT
  5
226
330
1F
100
AcDbEntity
  8
0
 62
     7
100
AcDbMText
 10
81.57031271138217
 20
-59.65047524725328
 30
0.0
 40
3.200000047683716
 41
0.0
 46
0.0
 71
     7
 72
     1
  1
{\W1;(mm)}
 73
     1
 44
1.0
1001
ACAD
1000
MTEXTBEGIN
1070
    73
1070
     1
1070
    44
1040
1.0
1070
    74
1070
     0
1000
MTEXTEND
  0
DIMENSION
  5
227
330
1F
100
AcDbEntity
  8
寸法線
100
AcDbDimension
280
     0
  2
*D2
 10
27.13080711076031
 20
33.98971619008384
 30
0.0
 11
27.13080711076031
 21
46.5447192394682
 31
0.0
 70
   160
  1
∅A
 71
     5
 42
25.11000609876874
 73
     0
 74
     0
 75
     0
  3
ISO-25
100
AcDbAlignedDimension
 13
16.34473267293958
 23
59.09972228885258
 33
0.0
 14
16.34473267293958
 24
33.98971619008384
 34
0.0
 50
90.00000000000005
100
AcDbRotatedDimension
1001
ACAD
1000
DSTYLE
1002
{
1070
   278
1070
    46
1070
   147
1040
0.8000000119209291
1070
    77
1070
     1
1070
    74
1070
     0
1070
    73
1070
     0
1070
    42
1040
2.54
1070
    44
1040
0.8678571705687437
1070
    76
1070
     0
1070
    75
1070
     0
1070
   279
1070
     0
1070
   271
1070
     0
1070
   173
1070
     1
1070
    41
1040
3.0
1070
   140
1040
3.200000047683716
1070
   344
1005
228
1070
   343
1005
228
1002
}
  0
DIMENSION
  5
242
330
1F
100
AcDbEntity
  8
寸法線
100
AcDbDimension
280
     0
  2
*D3
 10
-3.702766642953406
 20
75.10878875506481
 30
0.0
 11
-19.90276495316164
 21
75.10878875506481
 31
0.0
 70
   160
  1
L1
 71
     5
 42
32.39999882749143
 73
     0
 74
     0
 75
     0
  3
ISO-25
100
AcDbAlignedDimension
 13
-36.10276547044485
 23
60.57797471969561
 33
0.0
 14
-3.702766642953408
 24
61.833475907464
 34
0.0
 50
180.0
100
AcDbRotatedDimension
1001
ACAD
1000
DSTYLE
1002
{
1070
   278
1070
    46
1070
   147
1040
0.8000000119209291
1070
    77
1070
     1
1070
    74
1070
     0
1070
    73
1070
     0
1070
    42
1040
2.54
1070
    44
1040
0.8678571705687827
1070
    76
1070
     0
1070
    75
1070
     1
1070
   279
1070
     0
1070
   271
1070
     0
1070
   173
1070
     1
1070
    41
1040
3.0
1070
   140
1040
3.200000047683716
1070
   344
1005
228
1070
   343
1005
228
1002
}
  0
DIMENSION
  5
254
330
1F
100
AcDbEntity
  8
寸法線
100
AcDbDimension
280
     0
  2
*D4
 10
16.34473267293957
 20
75.10878875506481
 30
0.0
 11
8.04223329066192
 21
75.10878875506481
 31
0.0
 70
   160
  1
L2
 71
     5
 42
16.60499876455532
 73
     0
 74
     0
 75
     0
  3
ISO-25
100
AcDbAlignedDimension
 13
-0.2602660916157443
 23
59.7072306951354
 33
0.0
 14
16.34473267293957
 24
60.11223114948244
 34
0.0
 50
180.0
100
AcDbRotatedDimension
1001
ACAD
1000
DSTYLE
1002
{
1070
   278
1070
    46
1070
   147
1040
0.8000000119209291
1070
    77
1070
     1
1070
    74
1070
     0
1070
    73
1070
     0
1070
    42
1040
2.54
1070
    44
1040
0.8678571705687827
1070
    76
1070
     1
1070
    75
1070
     0
1070
   279
1070
     0
1070
   271
1070
     0
1070
   173
1070
     1
1070
    41
1040
3.0
1070
   140
1040
3.200000047683716
1070
   344
1005
228
1070
   343
1005
228
1002
}
  0
DIMENSION
  5
266
330
1F
100
AcDbEntity
  8
寸法線
100
AcDbDimension
280
     0
  2
*D5
 10
-36.10276547044485
 20
81.01067482085506
 30
0.0
 11
-9.879016398752632
 21
81.01067482085506
 31
0.0
 70
   160
  1
L
 71
     5
 42
52.4474981433844
 73
     0
 74
     0
 75
     0
  3
ISO-25
100
AcDbAlignedDimension
 13
16.34473267293957
 23
60.11223114948244
 33
0.0
 14
-36.10276547044485
 24
60.57797471969561
 34
0.0
100
AcDbRotatedDimension
1001
ACAD
1000
DSTYLE
1002
{
1070
   278
1070
    46
1070
   147
1040
0.8000000119209291
1070
    77
1070
     1
1070
    74
1070
     0
1070
    73
1070
     0
1070
    42
1040
2.54
1070
    44
1040
0.867857170568797
1070
    76
1070
     0
1070
    75
1070
     0
1070
   279
1070
     0
1070
   271
1070
     0
1070
   173
1070
     1
1070
    41
1040
3.0
1070
   140
1040
3.200000047683716
1070
   344
1005
228
1070
   343
1005
228
1002
}
  0
DIMENSION
  5
27A
330
1F
100
AcDbEntity
  8
寸法線
100
AcDbDimension
280
     0
  2
*D6
 10
-44.2586753508842
 20
61.83347370038905
 30
0.0
 11
-44.25867535088424
 21
46.54472365361804
 31
0.0
 70
   160
  1
∅B
 71
     5
 42
30.57750009354203
 73
     0
 74
     0
 75
     0
  3
ISO-25
100
AcDbAlignedDimension
 13
-32.953622695852
 23
31.25597360684702
 33
0.0
 14
-32.953622695852
 24
61.83347370038905
 34
0.0
 50
270.0
100
AcDbRotatedDimension
1001
ACAD
1000
DSTYLE
1002
{
1070
   278
1070
    46
1070
   147
1040
0.8000000119209291
1070
    77
1070
     1
1070
    74
1070
     0
1070
    73
1070
     0
1070
    42
1040
2.54
1070
    44
1040
0.8678571705687259
1070
    76
1070
     0
1070
    75
1070
     0
1070
   279
1070
     0
1070
   271
1070
     0
1070
   173
1070
     1
1070
    41
1040
3.0
1070
   140
1040
3.200000047683716
1070
   344
1005
228
1070
   343
1005
228
1002
}
  0
LINE
  5
290
330
1F
100
AcDbEntity
  8
VIEW0001
  6
Continuous
 62
     7
370
    30
100
AcDbLine
 10
-138.0
 20
95.0
 30
0.0
 11
138.5
 21
95.0
 31
0.0
  0
LINE
  5
291
330
1F
100
AcDbEntity
  8
VIEW0001
  6
Continuous
 62
     7
370
    30
100
AcDbLine
 10
138.5
 20
95.0
 30
0.0
 11
138.5
 21
-94.50000000000001
 31
0.0
  0
LINE
  5
292
330
1F
100
AcDbEntity
  8
VIEW0001
  6
Continuous
 62
     7
370
    30
100
AcDbLine
 10
-138.0
 20
-94.50000000000001
 30
0.0
 11
138.5
 21
-94.50000000000001
 31
0.0
  0
LINE
  5
293
330
1F
100
AcDbEntity
  8
VIEW0001
  6
Continuous
 62
     7
370
    30
100
AcDbLine
 10
-138.0
 20
95.0
 30
0.0
 11
-138.0
 21
-94.50000000000001
 31
0.0
  0
MTEXT
  5
298
330
1F
100
AcDbEntity
  8
VIEW0001
 62
     7
100
AcDbMText
 10
7.0
 20
-90.75000000000001
 30
0.0
 40
3.200000047683716
 41
0.0
 46
0.0
 71
     5
 72
     1
  1
\W0.833333;片落ちカラ－ 2 （ﾄﾖﾄﾞﾚﾝﾀﾞﾌﾞﾙ管用）
 73
     1
 44
1.0
1001
ACAD
1000
MTEXTBEGIN
1070
    73
1070
     1
1070
    44
1040
1.0
1070
    74
1070
     0
1000
MTEXTEND
  0
LINE
  5
31B
330
1F
100
AcDbEntity
  8
図枠
  6
Continuous
100
AcDbLine
 10
138.5
 20
-87.0
 30
0.0
 11
-38.0
 21
-87.0
 31
0.0
  0
LINE
  5
31E
330
1F
100
AcDbEntity
  8
図枠
  6
Continuous
100
AcDbLine
 10
52.0
 20
-94.50000000000001
 30
0.0
 11
52.0
 21
-87.0
 31
0.0
  0
LINE
  5
31F
330
1F
100
AcDbEntity
  8
図枠
  6
Continuous
100
AcDbLine
 10
-38.0
 20
-94.50000000000001
 30
0.0
 11
-38.0
 21
-87.0
 31
0.0
  0
MTEXT
  5
402
330
1F
100
AcDbEntity
  8
0
 62
     7
100
AcDbMText
 10
-67.826494945064
 20
-54.30377992732521
 30
0.0
 40
3.200000047683716
 41
0.0
 46
0.0
 71
     7
 72
     1
  1
\W0.833333;TDW200-150
 73
     1
 44
1.0
1001
ACAD
1000
MTEXTBEGIN
1070
    73
1070
     1
1070
    44
1040
1.0
1070
    74
1070
     0
1000
MTEXTEND
  0
MTEXT
  5
427
330
1F
100
AcDbEntity
  8
0
 62
     7
100
AcDbMText
 10
7.701424795182187
 20
-46.703779098821
 30
0.0
 40
3.200000047683716
 41
0.0
 46
0.0
 71
     5
 72
     1
  1
121
 73
     1
 44
1.0
1001
ACAD
1000
MTEXTBEGIN
1070
    73
1070
     1
1070
    44
1040
1.0
1070
    74
1070
     0
1000
MTEXTEND
  0
MTEXT
  5
428
330
1F
100
AcDbEntity
  8
0
 62
     7
100
AcDbMText
 10
33.70142479518219
 20
-46.703779098821
 30
0.0
 40
3.200000047683716
 41
0.0
 46
0.0
 71
     5
 72
     1
  1
300
 73
     1
 44
1.0
1001
ACAD
1000
MTEXTBEGIN
1070
    73
1070
     1
1070
    44
1040
1.0
1070
    74
1070
     0
1000
MTEXTEND
  0
MTEXT
  5
431
330
1F
100
AcDbEntity
  8
0
 62
     7
100
AcDbMText
 10
85.70140953639313
 20
-46.70377909882101
 30
0.0
 40
3.200000047683716
 41
0.0
 46
0.0
 71
     5
 72
     1
  1
85
 73
     1
 44
1.0
1001
ACAD
1000
MTEXTBEGIN
1070
    73
1070
     1
1070
    44
1040
1.0
1070
    74
1070
     0
1000
MTEXTEND
  0
MTEXT
  5
432
330
1F
100
AcDbEntity
  8
0
 62
     7
100
AcDbMText
 10
7.701424795182191
 20
1.296221169400268
 30
0.0
 40
3.200000047683716
 41
0.0
 46
0.0
 71
     5
 72
     1
  1
97
 73
     1
 44
1.0
1001
ACAD
1000
MTEXTBEGIN
1070
    73
1070
     1
1070
    44
1040
1.0
1070
    74
1070
     0
1000
MTEXTEND
  0
MTEXT
  5
43B
330
1F
100
AcDbEntity
  8
0
 62
     7
100
AcDbMText
 10
-18.27412774498221
 20
-46.70377909882093
 30
0.0
 40
3.200000047683716
 41
0.0
 46
0.0
 71
     5
 72
     1
  1
232
 73
     1
 44
1.0
1001
ACAD
1000
MTEXTBEGIN
1070
    73
1070
     1
1070
    44
1040
1.0
1070
    74
1070
     0
1000
MTEXTEND
  0
MTEXT
  5
43C
330
1F
100
AcDbEntity
  8
0
 62
     7
100
AcDbMText
 10
-18.27412774498221
 20
-52.70377918822791
 30
0.0
 40
3.200000047683716
 41
0.0
 46
0.0
 71
     5
 72
     1
  1
232
 73
     1
 44
1.0
1001
ACAD
1000
MTEXTBEGIN
1070
    73
1070
     1
1070
    44
1040
1.0
1070
    74
1070
     0
1000
MTEXTEND
  0
MTEXT
  5
43D
330
1F
100
AcDbEntity
  8
0
 62
     7
100
AcDbMText
 10
85.70140953639313
 20
-52.70377918822799
 30
0.0
 40
3.200000047683716
 41
0.0
 46
0.0
 71
     5
 72
     1
  1
135
 73
     1
 44
1.0
1001
ACAD
1000
MTEXTBEGIN
1070
    73
1070
     1
1070
    44
1040
1.0
1070
    74
1070
     0
1000
MTEXTEND
  0
MTEXT
  5
446
330
1F
100
AcDbEntity
  8
0
 62
     7
100
AcDbMText
 10
59.70144005397123
 20
-46.703779098821
 30
0.0
 40
3.200000047683716
 41
0.0
 46
0.0
 71
     5
 72
     1
  1
197
 73
     1
 44
1.0
1001
ACAD
1000
MTEXTBEGIN
1070
    73
1070
     1
1070
    44
1040
1.0
1070
    74
1070
     0
1000
MTEXTEND
  0
MTEXT
  5
447
330
1F
100
AcDbEntity
  8
0
 62
     7
100
AcDbMText
 10
59.70144005397123
 20
-52.70377918822796
 30
0.0
 40
3.200000047683716
 41
0.0
 46
0.0
 71
     5
 72
     1
  1
197
 73
     1
 44
1.0
1001
ACAD
1000
MTEXTBEGIN
1070
    73
1070
     1
1070
    44
1040
1.0
1070
    74
1070
     0
1000
MTEXTEND
  0
MTEXT
  5
448
330
1F
100
AcDbEntity
  8
0
 62
     7
100
AcDbMText
 10
7.701424795182187
 20
-52.70377918822799
 30
0.0
 40
3.200000047683716
 41
0.0
 46
0.0
 71
     5
 72
     1
  1
178
 73
     1
 44
1.0
1001
ACAD
1000
MTEXTBEGIN
1070
    73
1070
     1
1070
    44
1040
1.0
1070
    74
1070
     0
1000
MTEXTEND
  0
MTEXT
  5
449
330
1F
100
AcDbEntity
  8
0
 62
     7
100
AcDbMText
 10
85.62514490663183
 20
1.296221169399998
 30
0.0
 40
3.200000047683716
 41
0.0
 46
0.0
 71
     5
 72
     1
  1
{\W1;66}
 73
     1
 44
1.0
1001
ACAD
1000
MTEXTBEGIN
1070
    73
1070
     1
1070
    44
1040
1.0
1070
    74
1070
     0
1000
MTEXTEND
  0
MTEXT
  5
452
330
1F
100
AcDbEntity
  8
0
 62
     7
100
AcDbMText
 10
33.62511441885601
 20
1.296221169400253
 30
0.0
 40
3.200000047683716
 41
0.0
 46
0.0
 71
     5
 72
     1
  1
242
 73
     1
 44
1.0
1001
ACAD
1000
MTEXTBEGIN
1070
    73
1070
     1
1070
    44
1040
1.0
1070
    74
1070
     0
1000
MTEXTEND
  0
MTEXT
  5
453
330
1F
100
AcDbEntity
  8
0
 62
     7
100
AcDbMText
 10
33.62511441885602
 20
-52.70377918822799
 30
0.0
 40
3.200000047683716
 41
0.0
 46
0.0
 71
     5
 72
     1
  1
352
 73
     1
 44
1.0
1001
ACAD
1000
MTEXTBEGIN
1070
    73
1070
     1
1070
    44
1040
1.0
1070
    74
1070
     0
1000
MTEXTEND
  0
MTEXT
  5
494
330
1F
100
AcDbEntity
  8
0
 62
     7
100
AcDbMText
 10
-67.826494945064
 20
-48.30377983791824
 30
0.0
 40
3.200000047683716
 41
0.0
 46
0.0
 71
     7
 72
     1
  1
\W0.833333;TDW200-100
 73
     1
 44
1.0
1001
ACAD
1000
MTEXTBEGIN
1070
    73
1070
     1
1070
    44
1040
1.0
1070
    74
1070
     0
1000
MTEXTEND
  0
MTEXT
  5
55B
330
1F
100
AcDbEntity
  8
VIEW0001
 62
     7
100
AcDbMText
 10
59.89285540580747
 20
-93.0
 30
0.0
 40
4.5
 41
0.0
 46
0.0
 71
     7
 72
     1
  1
{\W1.3889;　デンカ株式会社}
 73
     1
 44
1.0
  0
ENDSEC
  0
SECTION
  2
OBJECTS
  0
DICTIONARY
  5
C
330
0
100
AcDbDictionary
281
     1
  3
ACAD_CIP_PREVIOUS_PRODUCT_INFO
350
552
  3
ACAD_COLOR
350
29C
  3
ACAD_DETAILVIEWSTYLE
350
54D
  3
ACAD_GROUP
350
D
  3
ACAD_LAYOUT
350
1A
  3
ACAD_MATERIAL
350
29B
  3
ACAD_MLEADERSTYLE
350
549
  3
ACAD_MLINESTYLE
350
17
  3
ACAD_PLOTSETTINGS
350
19
  3
ACAD_PLOTSTYLENAME
350
E
  3
ACAD_SCALELIST
350
537
  3
ACAD_SECTIONVIEWSTYLE
350
54B
  3
ACAD_TABLESTYLE
350
29D
  3
ACAD_VISUALSTYLE
350
51E
  3
ACDB_RECOMPOSE_DATA
350
5B4
  3
AcDbVariableDictionary
350
307
  0
DICTIONARY
  5
320
330
2
100
AcDbDictionary
280
     1
281
     1
  3
ACAD_LAYERFILTERS
360
322
  3
ACLYDICTIONARY
360
321
  0
DICTIONARY
  5
55C
330
10
100
AcDbDictionary
280
     1
281
     1
  3
ADSK_XREC_LAYER_RECONCILED
360
55D
  0
DICTIONARY
  5
55E
330
28E
100
AcDbDictionary
280
     1
281
     1
  3
ADSK_XREC_LAYER_RECONCILED
360
55F
  0
DICTIONARY
  5
560
330
2A4
100
AcDbDictionary
280
     1
281
     1
  3
ADSK_XREC_LAYER_RECONCILED
360
561
  0
DICTIONARY
  5
562
330
2A5
100
AcDbDictionary
280
     1
281
     1
  3
ADSK_XREC_LAYER_RECONCILED
360
563
  0
DICTIONARY
  5
564
330
2A6
100
AcDbDictionary
280
     1
281
     1
  3
ADSK_XREC_LAYER_RECONCILED
360
565
  0
DICTIONARY
  5
566
330
2A7
100
AcDbDictionary
280
     1
281
     1
  3
ADSK_XREC_LAYER_RECONCILED
360
567
  0
DICTIONARY
  5
568
330
2A8
100
AcDbDictionary
280
     1
281
     1
  3
ADSK_XREC_LAYER_RECONCILED
360
569
  0
DICTIONARY
  5
56A
330
2A9
100
AcDbDictionary
280
     1
281
     1
  3
ADSK_XREC_LAYER_RECONCILED
360
56B
  0
DICTIONARY
  5
56C
330
2AA
100
AcDbDictionary
280
     1
281
     1
  3
ADSK_XREC_LAYER_RECONCILED
360
56D
  0
DICTIONARY
  5
31C
330
1F
100
AcDbDictionary
280
     1
281
     1
  3
ACAD_SORTENTS
360
31D
  0
XRECORD
  5
552
102
{ACAD_REACTORS
330
C
102
}
330
C
100
AcDbXrecord
280
     1
300
ACDLT
300
2015
300
INVLTS_F_S
  0
DICTIONARY
  5
29C
102
{ACAD_REACTORS
330
C
102
}
330
C
100
AcDbDictionary
281
     1
  0
DICTIONARY
  5
54D
102
{ACAD_REACTORS
330
C
102
}
330
C
100
AcDbDictionary
281
     1
  3
Metric50
350
54E
  0
DICTIONARY
  5
D
102
{ACAD_REACTORS
330
C
102
}
330
C
100
AcDbDictionary
281
     1
  0
DICTIONARY
  5
1A
102
{ACAD_REACTORS
330
C
102
}
330
C
100
AcDbDictionary
281
     1
  3
Layout1
350
1E
  3
Layout2
350
26
  3
Model
350
22
  0
DICTIONARY
  5
29B
102
{ACAD_REACTORS
330
C
102
}
330
C
100
AcDbDictionary
281
     1
  3
ByBlock
350
50E
  3
ByLayer
350
506
  3
Global
350
516
  0
DICTIONARY
  5
549
102
{ACAD_REACTORS
330
C
102
}
330
C
100
AcDbDictionary
281
     1
  3
Standard
350
54A
  0
DICTIONARY
  5
17
102
{ACAD_REACTORS
330
C
102
}
330
C
100
AcDbDictionary
281
     1
  3
Standard
350
18
  0
DICTIONARY
  5
19
102
{ACAD_REACTORS
330
C
102
}
330
C
100
AcDbDictionary
281
     1
  0
ACDBDICTIONARYWDFLT
  5
E
102
{ACAD_REACTORS
330
C
102
}
330
C
100
AcDbDictionary
281
     1
  3
Normal
350
F
100
AcDbDictionaryWithDefault
340
F
  0
DICTIONARY
  5
537
102
{ACAD_REACTORS
330
C
102
}
330
C
100
AcDbDictionary
281
     1
  3
A0
350
538
  3
A1
350
539
  3
A2
350
53A
  3
A3
350
53B
  3
A4
350
53C
  3
A5
350
53D
  3
A6
350
53E
  3
A7
350
53F
  3
A8
350
540
  3
A9
350
541
  3
B0
350
542
  3
B1
350
543
  3
B2
350
544
  3
B3
350
545
  3
B4
350
546
  3
B5
350
547
  3
B6
350
548
  0
DICTIONARY
  5
54B
102
{ACAD_REACTORS
330
C
102
}
330
C
100
AcDbDictionary
281
     1
  3
Metric50
350
54C
  0
DICTIONARY
  5
29D
102
{ACAD_REACTORS
330
C
102
}
330
C
100
AcDbDictionary
281
     1
  3
Standard
350
29E
  0
DICTIONARY
  5
51E
102
{ACAD_REACTORS
330
C
102
}
330
C
100
AcDbDictionary
281
     1
  3
2dWireframe
350
524
  3
Basic
350
523
  3
Brighten
350
52A
  3
ColorChange
350
52E
  3
Conceptual
350
527
  3
Dim
350
529
  3
EdgeColorOff
350
536
  3
Facepattern
350
52D
  3
Flat
350
51F
  3
FlatWithEdges
350
520
  3
Gouraud
350
521
  3
GouraudWithEdges
350
522
  3
Hidden
350
526
  3
JitterOff
350
534
  3
Linepattern
350
52C
  3
OverhangOff
350
535
  3
Realistic
350
528
  3
Shaded
350
533
  3
Shaded with edges
350
532
  3
Shades of Gray
350
52F
  3
Sketchy
350
530
  3
Thicken
350
52B
  3
Wireframe
350
525
  3
X-Ray
350
531
  0
XRECORD
  5
5B4
102
{ACAD_REACTORS
330
C
102
}
330
C
100
AcDbXrecord
280
     1
 90
        1
330
29E
  0
DICTIONARY
  5
307
102
{ACAD_REACTORS
330
C
102
}
330
C
100
AcDbDictionary
281
     1
  3
CANNOSCALE
350
5AE
  3
CMLEADERSTYLE
350
5AA
  3
CTABLESTYLE
350
308
  3
CVIEWDETAILSTYLE
350
5AB
  3
CVIEWSECTIONSTYLE
350
5AC
  3
DIMASSOC
350
309
  3
LAYEREVAL
350
5B0
  3
LAYERNOTIFY
350
5B1
  3
LIGHTINGUNITS
350
5AF
  3
MSLTSCALE
350
5AD
  3
PROJECTNAME
350
30A
  0
DICTIONARY
  5
322
102
{ACAD_REACTORS
330
320
102
}
330
320
100
AcDbDictionary
281
     1
  0
DICTIONARY
  5
321
102
{ACAD_REACTORS
330
320
102
}
330
320
100
AcDbDictionary
281
     1
1001
ACAD
1000
<All
  0
XRECORD
  5
55D
102
{ACAD_REACTORS
330
55C
102
}
330
55C
100
AcDbXrecord
280
     1
290
     1
  0
XRECORD
  5
55F
102
{ACAD_REACTORS
330
55E
102
}
330
55E
100
AcDbXrecord
280
     1
290
     1
  0
XRECORD
  5
561
102
{ACAD_REACTORS
330
560
102
}
330
560
100
AcDbXrecord
280
     1
290
     1
  0
XRECORD
  5
563
102
{ACAD_REACTORS
330
562
102
}
330
562
100
AcDbXrecord
280
     1
290
     1
  0
XRECORD
  5
565
102
{ACAD_REACTORS
330
564
102
}
330
564
100
AcDbXrecord
280
     1
290
     1
  0
XRECORD
  5
567
102
{ACAD_REACTORS
330
566
102
}
330
566
100
AcDbXrecord
280
     1
290
     1
  0
XRECORD
  5
569
102
{ACAD_REACTORS
330
568
102
}
330
568
100
AcDbXrecord
280
     1
290
     1
  0
XRECORD
  5
56B
102
{ACAD_REACTORS
330
56A
102
}
330
56A
100
AcDbXrecord
280
     1
290
     1
  0
XRECORD
  5
56D
102
{ACAD_REACTORS
330
56C
102
}
330
56C
100
AcDbXrecord
280
     1
290
     1
  0
SORTENTSTABLE
  5
31D
102
{ACAD_REACTORS
330
31C
102
}
330
31C
100
AcDbSortentsTable
330
1F
331
193
  5
19B
331
1CA
  5
1D2
331
DE
  5
E6
331
11D
  5
125
331
154
  5
15C
331
209
  5
211
331
15C
  5
164
331
E6
  5
EE
331
1D2
  5
1DB
331
54
  5
5C
331
93
  5
9B
331
9B
  5
A3
331
5C
  5
64
331
A3
  5
AB
331
64
  5
6C
331
6C
  5
74
331
211
  5
227
331
125
  5
12D
331
164
  5
16C
331
AF
  5
B7
331
EE
  5
F6
331
19B
  5
1A3
331
448
  5
47D
331
1E2
  5
1EA
331
291
  5
402
331
12D
  5
135
331
16C
  5
174
331
B7
  5
BF
331
F6
  5
FE
331
1A3
  5
1AB
331
1AB
  5
1B3
331
1EA
  5
1F2
331
FE
  5
106
331
135
  5
13D
331
BF
  5
C7
331
174
  5
17C
331
17C
  5
184
331
1B3
  5
1BB
331
C7
  5
CF
331
106
  5
10E
331
13D
  5
145
331
1F2
  5
1FA
331
35
  5
35
331
74
  5
7C
331
31B
  5
43B
331
3D
  5
43
331
7C
  5
84
331
45
  5
4D
331
84
  5
8C
331
8C
  5
94
331
4D
  5
55
331
1FA
  5
202
331
184
  5
18C
331
1BB
  5
1C3
331
CF
  5
D7
331
10E
  5
116
331
145
  5
14D
331
202
  5
20F
331
14D
  5
155
331
18C
  5
194
331
D7
  5
DF
331
116
  5
11E
331
1C3
  5
1CB
331
1CB
  5
1D3
331
20A
  5
212
331
11E
  5
126
331
155
  5
15D
331
DF
  5
E7
331
194
  5
19C
331
431
  5
449
331
1D3
  5
1DC
331
15D
  5
165
331
E7
  5
EF
331
55
  5
5D
331
94
  5
9C
331
5D
  5
65
331
9C
  5
A4
331
65
  5
6D
331
A4
  5
AC
331
6D
  5
75
331
A8
  5
B0
331
19C
  5
1A4
331
1DB
  5
1E3
331
EF
  5
F7
331
126
  5
12E
331
B0
  5
B8
331
165
  5
16D
331
212
  5
242
331
292
  5
427
331
449
  5
47E
331
16D
  5
175
331
1A4
  5
1AC
331
B8
  5
C0
331
F7
  5
FF
331
12E
  5
136
331
1E3
  5
1EB
331
1EB
  5
1F3
331
136
  5
13E
331
175
  5
17D
331
C0
  5
C8
331
FF
  5
107
331
1AC
  5
1B4
331
1F3
  5
1FB
331
402
  5
446
331
13E
  5
146
331
17D
  5
185
331
107
  5
10F
331
1B4
  5
1BC
331
36
  5
36
331
75
  5
7D
331
7D
  5
85
331
3E
  5
45
331
221
  5
27A
331
46
  5
4E
331
85
  5
8D
331
4E
  5
56
331
8D
  5
95
331
C8
  5
D0
331
1BC
  5
1C4
331
1FB
  5
208
331
10F
  5
117
331
146
  5
14E
331
D0
  5
D8
331
185
  5
18D
331
18D
  5
195
331
1C4
  5
1CC
331
D8
  5
E0
331
117
  5
11F
331
14E
  5
156
331
20B
  5
213
331
432
  5
452
331
195
  5
19D
331
1CC
  5
1D4
331
E0
  5
E8
331
11F
  5
127
331
156
  5
15E
331
15E
  5
166
331
1D4
  5
1DD
331
56
  5
5E
331
95
  5
9D
331
9D
  5
A5
331
5E
  5
66
331
66
  5
6E
331
A5
  5
AD
331
6E
  5
76
331
A9
  5
B1
331
E8
  5
F0
331
1DC
  5
1E4
331
213
  5
254
331
127
  5
12F
331
166
  5
16E
331
B1
  5
B9
331
F0
  5
F8
331
19D
  5
1A5
331
1A5
  5
1AD
331
1E4
  5
1EC
331
12F
  5
137
331
16E
  5
176
331
293
  5
428
331
B9
  5
C1
331
F8
  5
100
331
452
  5
47F
331
1AD
  5
1B5
331
1EC
  5
1F4
331
100
  5
108
331
137
  5
13F
331
C1
  5
C9
331
176
  5
17E
331
17E
  5
186
331
1B5
  5
1BD
331
13F
  5
147
331
76
  5
7E
331
3F
  5
47
331
7E
  5
86
331
47
  5
4F
331
86
  5
8E
331
8E
  5
96
331
4F
  5
57
331
C9
  5
D1
331
108
  5
110
331
1FC
  5
209
331
147
  5
14F
331
186
  5
18E
331
D1
  5
D9
331
110
  5
118
331
1BD
  5
1C5
331
14F
  5
157
331
18E
  5
196
331
D9
  5
E1
331
118
  5
120
331
1C5
  5
1CD
331
1CD
  5
1D5
331
20C
  5
214
331
157
  5
15F
331
E1
  5
E9
331
196
  5
19E
331
43B
  5
453
331
1D5
  5
1DE
331
15F
  5
167
331
242
  5
293
331
57
  5
5F
331
96
  5
9E
331
5F
  5
67
331
9E
  5
A6
331
67
  5
6F
331
A6
  5
AE
331
6F
  5
77
331
E9
  5
F1
331
120
  5
128
331
AA
  5
B2
331
19E
  5
1A6
331
1DD
  5
1E5
331
F1
  5
F9
331
128
  5
130
331
B2
  5
BA
331
167
  5
16F
331
16F
  5
177
331
1A6
  5
1AE
331
BA
  5
C2
331
F9
  5
101
331
130
  5
138
331
1E5
  5
1ED
331
1ED
  5
1F5
331
138
  5
140
331
177
  5
17F
331
C2
  5
CA
331
101
  5
109
331
1AE
  5
1B6
331
453
  5
480
331
1B6
  5
1BE
331
17F
  5
187
331
30
  5
30
331
77
  5
7F
331
38
  5
38
331
7F
  5
87
331
31E
  5
431
331
40
  5
48
331
223
  5
28F
331
48
  5
50
331
87
  5
8F
331
8F
  5
97
331
140
  5
148
331
CA
  5
D2
331
109
  5
111
331
1BE
  5
1C6
331
1FD
  5
20A
331
111
  5
119
331
148
  5
150
331
D2
  5
DA
331
187
  5
18F
331
18F
  5
197
331
1C6
  5
1CE
331
DA
  5
E2
331
119
  5
121
331
150
  5
158
331
20D
  5
221
331
158
  5
160
331
E2
  5
EA
331
197
  5
19F
331
1CE
  5
1D6
331
43C
  5
46A
331
1D6
  5
1DF
331
50
  5
58
331
58
  5
60
331
97
  5
9F
331
9F
  5
A7
331
60
  5
68
331
68
  5
70
331
A7
  5
AF
331
160
  5
168
331
AB
  5
B3
331
EA
  5
F2
331
121
  5
129
331
1DE
  5
1E6
331
129
  5
131
331
168
  5
170
331
B3
  5
BB
331
F2
  5
FA
331
19F
  5
1A7
331
1A7
  5
1AF
331
1E6
  5
1EE
331
FA
  5
102
331
131
  5
139
331
BB
  5
C3
331
170
  5
178
331
1AF
  5
1B7
331
1EE
  5
1F6
331
102
  5
10A
331
139
  5
141
331
C3
  5
CB
331
178
  5
180
331
1B7
  5
1BF
331
70
  5
78
331
31
  5
31
331
39
  5
39
331
78
  5
80
331
31F
  5
432
331
41
  5
49
331
80
  5
88
331
88
  5
90
331
49
  5
51
331
180
  5
188
331
CB
  5
D3
331
10A
  5
112
331
141
  5
149
331
1FE
  5
20B
331
149
  5
151
331
188
  5
190
331
D3
  5
DB
331
112
  5
11A
331
1BF
  5
1C7
331
1C7
  5
1CF
331
151
  5
159
331
190
  5
198
331
DB
  5
E3
331
11A
  5
122
331
1CF
  5
1D7
331
159
  5
161
331
20E
  5
223
331
E3
  5
EB
331
43D
  5
46B
331
90
  5
98
331
51
  5
59
331
254
  5
295
331
59
  5
61
331
98
  5
A0
331
61
  5
69
331
A0
  5
A8
331
69
  5
71
331
198
  5
1A0
331
EB
  5
F3
331
122
  5
12A
331
AC
  5
B4
331
161
  5
169
331
169
  5
171
331
1A0
  5
1A8
331
F3
  5
FB
331
12A
  5
132
331
1DF
  5
1E7
331
B4
  5
BC
331
171
  5
179
331
1A8
  5
1B0
331
BC
  5
C4
331
FB
  5
103
331
132
  5
13A
331
1E7
  5
1EF
331
1EF
  5
1F7
331
13A
  5
142
331
179
  5
181
331
C4
  5
CC
331
103
  5
10B
331
1B0
  5
1B8
331
32
  5
32
331
71
  5
79
331
79
  5
81
331
3A
  5
3C
331
81
  5
89
331
42
  5
4A
331
225
  5
290
331
4A
  5
52
331
89
  5
91
331
1B8
  5
1C0
331
10B
  5
113
331
142
  5
14A
331
CC
  5
D4
331
181
  5
189
331
1C0
  5
1C8
331
1FF
  5
20C
331
113
  5
11B
331
14A
  5
152
331
D4
  5
DC
331
189
  5
191
331
191
  5
199
331
1C8
  5
1D0
331
DC
  5
E4
331
11B
  5
123
331
152
  5
15A
331
20F
  5
225
331
15A
  5
162
331
E4
  5
EC
331
1D0
  5
1D8
331
52
  5
5A
331
91
  5
99
331
99
  5
A1
331
5A
  5
62
331
A1
  5
A9
331
2E
  5
2E
331
62
  5
6A
331
6A
  5
72
331
1D8
  5
1E1
331
162
  5
16A
331
199
  5
1A1
331
AD
  5
B5
331
EC
  5
F4
331
123
  5
12B
331
1E0
  5
1E8
331
12B
  5
133
331
16A
  5
172
331
B5
  5
BD
331
F4
  5
FC
331
1A1
  5
1A9
331
446
  5
47B
331
1A9
  5
1B1
331
1E8
  5
1F0
331
FC
  5
104
331
133
  5
13B
331
BD
  5
C5
331
172
  5
17A
331
17A
  5
182
331
1B1
  5
1B9
331
104
  5
10C
331
13B
  5
143
331
1F0
  5
1F8
331
C5
  5
CD
331
33
  5
33
331
72
  5
7A
331
3B
  5
3F
331
7A
  5
82
331
43
  5
4B
331
82
  5
8A
331
8A
  5
92
331
226
  5
291
331
4B
  5
53
331
182
  5
18A
331
1B9
  5
1C1
331
CD
  5
D5
331
10C
  5
114
331
143
  5
14B
331
200
  5
20D
331
427
  5
447
331
14B
  5
153
331
18A
  5
192
331
D5
  5
DD
331
114
  5
11C
331
1C1
  5
1C9
331
1C9
  5
1D1
331
208
  5
210
331
11C
  5
124
331
153
  5
15B
331
DD
  5
E5
331
192
  5
19A
331
1D1
  5
1D9
331
15B
  5
163
331
E5
  5
ED
331
92
  5
9A
331
53
  5
5B
331
5B
  5
63
331
9A
  5
A2
331
2F
  5
2F
331
266
  5
298
331
63
  5
6B
331
A2
  5
AA
331
6B
  5
73
331
19A
  5
1A2
331
1D9
  5
1E2
331
ED
  5
F5
331
124
  5
12C
331
AE
  5
B6
331
163
  5
16B
331
210
  5
226
331
290
  5
31F
331
447
  5
47C
331
16B
  5
173
331
1A2
  5
1AA
331
B6
  5
BE
331
F5
  5
FD
331
12C
  5
134
331
1E1
  5
1E9
331
1E9
  5
1F1
331
298
  5
43D
331
173
  5
17B
331
1AA
  5
1B2
331
BE
  5
C6
331
FD
  5
105
331
134
  5
13C
331
1F1
  5
1F9
331
13C
  5
144
331
17B
  5
183
331
C6
  5
CE
331
105
  5
10D
331
1B2
  5
1BA
331
27A
  5
31B
331
34
  5
34
331
73
  5
7B
331
7B
  5
83
331
3C
  5
41
331
44
  5
4C
331
83
  5
8B
331
227
  5
292
331
4C
  5
54
331
8B
  5
93
331
1BA
  5
1C2
331
1F9
  5
201
331
10D
  5
115
331
144
  5
14C
331
CE
  5
D6
331
183
  5
18B
331
428
  5
448
331
18B
  5
193
331
1C2
  5
1CA
331
115
  5
11D
331
14C
  5
154
331
201
  5
20E
331
D6
  5
DE
  0
ACDBDETAILVIEWSTYLE
  5
54E
102
{ACAD_XDICTIONARY
360
5E7
102
}
102
{ACAD_REACTORS
330
54D
102
}
330
54D
100
AcDbModelDocViewStyle
 70
     0
  3
Metric50
290
     0
100
AcDbDetailViewStyle
 70
     0
 71
     0
 90
        3
 71
     1
340
11
 62
   256
 40
5.0
340
0
 62
   256
 40
5.0
300

 40
0.0
280
     1
 71
     2
340
16
 90
       25
 62
   256
 71
     3
340
11
 62
   256
 40
5.0
 90
        0
 40
15.0
 90
        1
300
%<\AcVar ViewDetailId>% (%<\AcVar ViewScale \f "%sn">%)
 71
     4
340
16
 90
       25
 62
   256
340
16
 90
       25
 62
   256
280
     0
  0
LAYOUT
  5
1E
102
{ACAD_REACTORS
330
1A
102
}
330
1A
100
AcDbPlotSettings
  1

  2

  4

  6

 40
0.0
 41
0.0
 42
0.0
 43
0.0
 44
0.0
 45
0.0
 46
0.0
 47
0.0
 48
0.0
 49
0.0
140
0.0
141
0.0
142
1.0
143
1.0
 70
   688
 72
     0
 73
     0
 74
     5
  7
monochrome.ctb
 75
    16
147
1.0
 76
     0
 77
     2
 78
   300
148
0.0
149
0.0
100
AcDbLayout
  1
Layout1
 70
     1
 71
     1
 10
-148.0
 20
-104.5
 11
149.0
 21
105.5
 12
0.0
 22
0.0
 32
0.0
 14
1.000000000000000E+20
 24
1.000000000000000E+20
 34
1.000000000000000E+20
 15
-1.000000000000000E+20
 25
-1.000000000000000E+20
 35
-1.000000000000000E+20
146
0.0
 13
0.0
 23
0.0
 33
0.0
 16
1.0
 26
0.0
 36
0.0
 17
0.0
 27
1.0
 37
0.0
 76
     0
330
1B
  0
LAYOUT
  5
26
102
{ACAD_REACTORS
330
1A
102
}
330
1A
100
AcDbPlotSettings
  1

  2

  4

  6

 40
0.0
 41
0.0
 42
0.0
 43
0.0
 44
0.0
 45
0.0
 46
0.0
 47
0.0
 48
0.0
 49
0.0
140
0.0
141
0.0
142
1.0
143
1.0
 70
   688
 72
     0
 73
     0
 74
     5
  7
monochrome.ctb
 75
    16
147
1.0
 76
     0
 77
     2
 78
   300
148
0.0
149
0.0
100
AcDbLayout
  1
Layout2
 70
     1
 71
     2
 10
0.0
 20
0.0
 11
0.0
 21
0.0
 12
0.0
 22
0.0
 32
0.0
 14
0.0
 24
0.0
 34
0.0
 15
0.0
 25
0.0
 35
0.0
146
0.0
 13
0.0
 23
0.0
 33
0.0
 16
1.0
 26
0.0
 36
0.0
 17
0.0
 27
1.0
 37
0.0
 76
     0
330
23
  0
LAYOUT
  5
22
102
{ACAD_REACTORS
330
1A
102
}
330
1A
100
AcDbPlotSettings
  1

  2
Adobe PDF
  4
A4
  6

 40
3.174999952316281
 41
3.174999952316281
 42
3.175003051757812
 43
3.17498779296875
 44
209.9733276367186
 45
297.0318298339844
 46
7.051149022578584
 47
7.073861730090527
 48
0.0
 49
0.0
140
0.0
141
0.0
142
1.0
143
1.0
 70
 11956
 72
     1
 73
     1
 74
     1
  7
monochrome.ctb
 75
    16
147
1.0
 76
     0
 77
     2
 78
   300
148
138.0163109423782
149
94.50884959708066
100
AcDbLayout
  1
Model
 70
     1
 71
     0
 10
-148.0
 20
-104.5
 11
149.0
 21
105.5
 12
0.0
 22
0.0
 32
0.0
 14
-148.0
 24
-104.5
 34
0.0
 15
149.0
 25
105.5
 35
0.0
146
0.0
 13
0.0
 23
0.0
 33
0.0
 16
1.0
 26
0.0
 36
0.0
 17
0.0
 27
1.0
 37
0.0
 76
     0
330
1F
331
4FC
1001
ACAD_PSEXT
1000
Adobe PDF
1000
Adobe PDF Converter
1000
My Documents
1000

1070
     0
  0
MATERIAL
  5
50E
102
{ACAD_XDICTIONARY
360
50F
102
}
102
{ACAD_REACTORS
330
29B
102
}
330
29B
100
AcDbMaterial
  1
ByBlock
 72
     0
 43
0.0008202099737533
 43
0.0
 43
0.0
 43
0.0
 43
0.0
 43
0.0008202099737533
 43
0.0
 43
0.0
 43
0.0
 43
0.0
 43
1.0
 43
0.0
 43
0.0
 43
0.0
 43
0.0
 43
1.0
 77
     0
 47
0.0008202099737533
 47
0.0
 47
0.0
 47
0.0
 47
0.0
 47
0.0008202099737533
 47
0.0
 47
0.0
 47
0.0
 47
0.0
 47
1.0
 47
0.0
 47
0.0
 47
0.0
 47
0.0
 47
1.0
171
     0
 49
0.0008202099737533
 49
0.0
 49
0.0
 49
0.0
 49
0.0
 49
0.0008202099737533
 49
0.0
 49
0.0
 49
0.0
 49
0.0
 49
1.0
 49
0.0
 49
0.0
 49
0.0
 49
0.0
 49
1.0
175
     0
142
0.0008202099737533
142
0.0
142
0.0
142
0.0
142
0.0
142
0.0008202099737533
142
0.0
142
0.0
142
0.0
142
0.0
142
1.0
142
0.0
142
0.0
142
0.0
142
0.0
142
1.0
179
     0
144
0.0008202099737533
144
0.0
144
0.0
144
0.0
144
0.0
144
0.0008202099737533
144
0.0
144
0.0
144
0.0
144
0.0
144
1.0
144
0.0
144
0.0
144
0.0
144
0.0
144
1.0
147
0.0008202099737533
147
0.0
147
0.0
147
0.0
147
0.0
147
0.0008202099737533
147
0.0
147
0.0
147
0.0
147
0.0
147
1.0
147
0.0
147
0.0
147
0.0
147
0.0
147
1.0
  0
MATERIAL
  5
506
102
{ACAD_XDICTIONARY
360
507
102
}
102
{ACAD_REACTORS
330
29B
102
}
330
29B
100
AcDbMaterial
  1
ByLayer
 72
     0
 43
0.0008202099737533
 43
0.0
 43
0.0
 43
0.0
 43
0.0
 43
0.0008202099737533
 43
0.0
 43
0.0
 43
0.0
 43
0.0
 43
1.0
 43
0.0
 43
0.0
 43
0.0
 43
0.0
 43
1.0
 77
     0
 47
0.0008202099737533
 47
0.0
 47
0.0
 47
0.0
 47
0.0
 47
0.0008202099737533
 47
0.0
 47
0.0
 47
0.0
 47
0.0
 47
1.0
 47
0.0
 47
0.0
 47
0.0
 47
0.0
 47
1.0
171
     0
 49
0.0008202099737533
 49
0.0
 49
0.0
 49
0.0
 49
0.0
 49
0.0008202099737533
 49
0.0
 49
0.0
 49
0.0
 49
0.0
 49
1.0
 49
0.0
 49
0.0
 49
0.0
 49
0.0
 49
1.0
175
     0
142
0.0008202099737533
142
0.0
142
0.0
142
0.0
142
0.0
142
0.0008202099737533
142
0.0
142
0.0
142
0.0
142
0.0
142
1.0
142
0.0
142
0.0
142
0.0
142
0.0
142
1.0
179
     0
144
0.0008202099737533
144
0.0
144
0.0
144
0.0
144
0.0
144
0.0008202099737533
144
0.0
144
0.0
144
0.0
144
0.0
144
1.0
144
0.0
144
0.0
144
0.0
144
0.0
144
1.0
147
0.0008202099737533
147
0.0
147
0.0
147
0.0
147
0.0
147
0.0008202099737533
147
0.0
147
0.0
147
0.0
147
0.0
147
1.0
147
0.0
147
0.0
147
0.0
147
0.0
147
1.0
  0
MATERIAL
  5
516
102
{ACAD_XDICTIONARY
360
517
102
}
102
{ACAD_REACTORS
330
29B
102
}
330
29B
100
AcDbMaterial
  1
Global
 72
     0
 43
0.0008202099737533
 43
0.0
 43
0.0
 43
0.0
 43
0.0
 43
0.0008202099737533
 43
0.0
 43
0.0
 43
0.0
 43
0.0
 43
1.0
 43
0.0
 43
0.0
 43
0.0
 43
0.0
 43
1.0
 77
     0
 47
0.0008202099737533
 47
0.0
 47
0.0
 47
0.0
 47
0.0
 47
0.0008202099737533
 47
0.0
 47
0.0
 47
0.0
 47
0.0
 47
1.0
 47
0.0
 47
0.0
 47
0.0
 47
0.0
 47
1.0
171
     0
 49
0.0008202099737533
 49
0.0
 49
0.0
 49
0.0
 49
0.0
 49
0.0008202099737533
 49
0.0
 49
0.0
 49
0.0
 49
0.0
 49
1.0
 49
0.0
 49
0.0
 49
0.0
 49
0.0
 49
1.0
175
     0
142
0.0008202099737533
142
0.0
142
0.0
142
0.0
142
0.0
142
0.0008202099737533
142
0.0
142
0.0
142
0.0
142
0.0
142
1.0
142
0.0
142
0.0
142
0.0
142
0.0
142
1.0
179
     0
144
0.0008202099737533
144
0.0
144
0.0
144
0.0
144
0.0
144
0.0008202099737533
144
0.0
144
0.0
144
0.0
144
0.0
144
1.0
144
0.0
144
0.0
144
0.0
144
0.0
144
1.0
147
0.0008202099737533
147
0.0
147
0.0
147
0.0
147
0.0
147
0.0008202099737533
147
0.0
147
0.0
147
0.0
147
0.0
147
1.0
147
0.0
147
0.0
147
0.0
147
0.0
147
1.0
  0
MLEADERSTYLE
  5
54A
102
{ACAD_REACTORS
330
549
102
}
330
549
100
AcDbMLeaderStyle
179
     2
170
     2
171
     1
172
     0
 90
        2
 40
0.0
 41
0.0
173
     1
 91
-1056964608
340
14
 92
       -2
290
     1
 42
2.0
291
     1
 43
0.36
  3
Standard
 44
4.0
300

342
11
174
     1
178
     6
175
     1
176
     0
 93
-1056964608
 45
4.0
292
     0
297
     0
 46
4.0
 94
-1056964608
 47
1.0
 49
1.0
140
1.0
293
     1
141
0.0
294
     1
177
     0
142
1.0
295
     0
296
     0
143
0.125
271
     0
272
     9
273
     9
  0
MLINESTYLE
  5
18
102
{ACAD_REACTORS
330
17
102
}
330
17
100
AcDbMlineStyle
  2
STANDARD
 70
     0
  3

 62
   256
 51
90.0
 52
90.0
 71
     2
 49
0.5
 62
   256
  6
BYLAYER
 49
-0.5
 62
   256
  6
BYLAYER
  0
ACDBPLACEHOLDER
  5
F
102
{ACAD_REACTORS
330
E
102
}
330
E
  0
SCALE
  5
538
102
{ACAD_REACTORS
330
537
102
}
330
537
100
AcDbScale
 70
     0
300
1:1
140
1.0
141
1.0
290
     1
  0
SCALE
  5
539
102
{ACAD_REACTORS
330
537
102
}
330
537
100
AcDbScale
 70
     0
300
1:2
140
1.0
141
2.0
290
     0
  0
SCALE
  5
53A
102
{ACAD_REACTORS
330
537
102
}
330
537
100
AcDbScale
 70
     0
300
1:4
140
1.0
141
4.0
290
     0
  0
SCALE
  5
53B
102
{ACAD_REACTORS
330
537
102
}
330
537
100
AcDbScale
 70
     0
300
1:5
140
1.0
141
5.0
290
     0
  0
SCALE
  5
53C
102
{ACAD_REACTORS
330
537
102
}
330
537
100
AcDbScale
 70
     0
300
1:8
140
1.0
141
8.0
290
     0
  0
SCALE
  5
53D
102
{ACAD_REACTORS
330
537
102
}
330
537
100
AcDbScale
 70
     0
300
1:10
140
1.0
141
10.0
290
     0
  0
SCALE
  5
53E
102
{ACAD_REACTORS
330
537
102
}
330
537
100
AcDbScale
 70
     0
300
1:16
140
1.0
141
16.0
290
     0
  0
SCALE
  5
53F
102
{ACAD_REACTORS
330
537
102
}
330
537
100
AcDbScale
 70
     0
300
1:20
140
1.0
141
20.0
290
     0
  0
SCALE
  5
540
102
{ACAD_REACTORS
330
537
102
}
330
537
100
AcDbScale
 70
     0
300
1:30
140
1.0
141
30.0
290
     0
  0
SCALE
  5
541
102
{ACAD_REACTORS
330
537
102
}
330
537
100
AcDbScale
 70
     0
300
1:40
140
1.0
141
40.0
290
     0
  0
SCALE
  5
542
102
{ACAD_REACTORS
330
537
102
}
330
537
100
AcDbScale
 70
     0
300
1:50
140
1.0
141
50.0
290
     0
  0
SCALE
  5
543
102
{ACAD_REACTORS
330
537
102
}
330
537
100
AcDbScale
 70
     0
300
1:100
140
1.0
141
100.0
290
     0
  0
SCALE
  5
544
102
{ACAD_REACTORS
330
537
102
}
330
537
100
AcDbScale
 70
     0
300
2:1
140
2.0
141
1.0
290
     0
  0
SCALE
  5
545
102
{ACAD_REACTORS
330
537
102
}
330
537
100
AcDbScale
 70
     0
300
4:1
140
4.0
141
1.0
290
     0
  0
SCALE
  5
546
102
{ACAD_REACTORS
330
537
102
}
330
537
100
AcDbScale
 70
     0
300
8:1
140
8.0
141
1.0
290
     0
  0
SCALE
  5
547
102
{ACAD_REACTORS
330
537
102
}
330
537
100
AcDbScale
 70
     0
300
10:1
140
10.0
141
1.0
290
     0
  0
SCALE
  5
548
102
{ACAD_REACTORS
330
537
102
}
330
537
100
AcDbScale
 70
     0
300
100:1
140
100.0
141
1.0
290
     0
  0
ACDBSECTIONVIEWSTYLE
  5
54C
102
{ACAD_XDICTIONARY
360
5E5
102
}
102
{ACAD_REACTORS
330
54B
102
}
330
54B
100
AcDbModelDocViewStyle
 70
     0
  3
Metric50
290
     0
100
AcDbSectionViewStyle
 70
     0
 71
     0
 90
      102
 71
     1
340
11
 62
   256
 40
5.0
340
0
340
0
 62
   256
 40
5.0
300
I, O, Q, S, X, Z
 40
10.0
 90
        0
 40
2.5
 90
        0
 71
     2
340
16
 90
       25
 62
   256
340
16
 90
       50
 62
   256
 40
5.0
 40
2.5
 40
5.0
 71
     3
340
11
 62
   256
 40
5.0
 90
        0
 40
15.0
 90
        1
300
%<\AcVar ViewSectionStartId>%-%<\AcVar ViewSectionEndId>% (%<\AcVar ViewScale \f "%sn">%)
 71
     4
 62
   256
 62
   257
300
ANSI31
 40
1.0
 90
        0
290
     0
290
     0
 90
        6
 40
0.0
 40
1.570796326794896
 40
0.2617993877991494
 40
1.308996938995747
 40
-0.2617993877991494
 40
1.832595714594046
  0
TABLESTYLE
  5
29E
102
{ACAD_XDICTIONARY
360
5B2
102
}
102
{ACAD_REACTORS
330
29D
102
}
330
29D
100
AcDbTableStyle
280
     0
  3
Standard
 70
     0
 71
     0
 40
1.5
 41
1.5
280
     0
281
     0
  7
Standard
140
4.5
170
     2
 62
     0
 63
     7
283
     0
 90
        4
 91
        0
  1

274
    -2
284
     1
 64
     0
275
    -2
285
     1
 65
     0
276
    -2
286
     1
 66
     0
277
    -2
287
     1
 67
     0
278
    -2
288
     1
 68
     0
279
    -2
289
     1
 69
     0
  7
Standard
140
6.0
170
     5
 62
     0
 63
     7
283
     0
 90
        4
 91
        0
  1

274
    -2
284
     1
 64
     0
275
    -2
285
     1
 65
     0
276
    -2
286
     1
 66
     0
277
    -2
287
     1
 67
     0
278
    -2
288
     1
 68
     0
279
    -2
289
     1
 69
     0
  7
Standard
140
4.5
170
     5
 62
     0
 63
     7
283
     0
 90
        4
 91
        0
  1

274
    -2
284
     1
 64
     0
275
    -2
285
     1
 65
     0
276
    -2
286
     1
 66
     0
277
    -2
287
     1
 67
     0
278
    -2
288
     1
 68
     0
279
    -2
289
     1
 69
     0
  0
VISUALSTYLE
  5
524
102
{ACAD_XDICTIONARY
360
5BF
102
}
102
{ACAD_REACTORS
330
51E
102
}
330
51E
100
AcDbVisualStyle
  2
2dWireframe
 70
     4
177
     2
291
     0
 71
     0
176
     1
 72
     2
176
     1
 73
     0
176
     1
 90
        0
176
     1
 40
0.6
176
     1
 41
30.0
176
     1
 63
     7
421
 16777215
176
     1
 74
     1
176
     1
 91
        4
176
     1
 64
     7
176
     1
 65
   257
176
     1
 75
     1
176
     1
175
     1
176
     1
 42
1.0
176
     1
 92
        0
176
     1
 66
   257
176
     1
 43
1.0
176
     1
 76
     1
176
     1
 77
     6
176
     1
 78
     2
176
     1
 67
     7
176
     1
 79
     5
176
     1
170
     0
176
     1
171
     0
176
     1
290
     0
176
     1
 93
        1
176
     1
 44
0.0
176
     1
173
     0
176
     1
1001
ACAD
1000
AcDbSavedByObjectVersion
1070
     0
  0
VISUALSTYLE
  5
523
102
{ACAD_XDICTIONARY
360
5BD
102
}
102
{ACAD_REACTORS
330
51E
102
}
330
51E
100
AcDbVisualStyle
  2
Basic
 70
     7
177
     2
291
     1
 71
     1
176
     1
 72
     0
176
     1
 73
     1
176
     1
 90
        0
176
     1
 40
0.6
176
     1
 41
30.0
176
     1
 63
     7
421
 16777215
176
     1
 74
     0
176
     1
 91
        4
176
     1
 64
     7
176
     1
 65
   257
176
     1
 75
     1
176
     1
175
     1
176
     1
 42
1.0
176
     1
 92
        8
176
     1
 66
     7
176
     1
 43
1.0
176
     1
 76
     1
176
     1
 77
     6
176
     1
 78
     2
176
     1
 67
     7
176
     1
 79
     5
176
     1
170
     0
176
     1
171
     0
176
     1
290
     0
176
     1
 93
        1
176
     1
 44
0.0
176
     1
173
     0
176
     1
1001
ACAD
1000
AcDbSavedByObjectVersion
1070
     0
  0
VISUALSTYLE
  5
52A
102
{ACAD_XDICTIONARY
360
5CB
102
}
102
{ACAD_REACTORS
330
51E
102
}
330
51E
100
AcDbVisualStyle
  2
Brighten
 70
    12
177
     2
291
     1
 71
     2
176
     1
 72
     2
176
     1
 73
     0
176
     1
 90
        0
176
     1
 40
0.6
176
     1
 41
30.0
176
     1
 63
     7
421
 16777215
176
     1
 74
     1
176
     1
 91
        4
176
     1
 64
     7
176
     1
 65
   257
176
     1
 75
     1
176
     1
175
     1
176
     1
 42
1.0
176
     1
 92
        8
176
     1
 66
     7
176
     1
 43
1.0
176
     1
 76
     1
176
     1
 77
     6
176
     1
 78
     2
176
     1
 67
     7
176
     1
 79
     5
176
     1
170
     0
176
     1
171
     0
176
     1
290
     0
176
     1
 93
        1
176
     1
 44
50.0
176
     1
173
     0
176
     1
1001
ACAD
1000
AcDbSavedByObjectVersion
1070
     0
  0
VISUALSTYLE
  5
52E
102
{ACAD_XDICTIONARY
360
5D3
102
}
102
{ACAD_REACTORS
330
51E
102
}
330
51E
100
AcDbVisualStyle
  2
ColorChange
 70
    16
177
     2
291
     1
 71
     2
176
     1
 72
     2
176
     1
 73
     3
176
     1
 90
        0
176
     1
 40
0.6
176
     1
 41
30.0
176
     1
 63
     8
421
  8421504
176
     1
 74
     1
176
     1
 91
        4
176
     1
 64
     7
176
     1
 65
   257
176
     1
 75
     1
176
     1
175
     1
176
     1
 42
1.0
176
     1
 92
        8
176
     1
 66
     8
424
  8421504
176
     1
 43
1.0
176
     1
 76
     1
176
     1
 77
     6
176
     1
 78
     2
176
     1
 67
     7
176
     1
 79
     5
176
     1
170
     0
176
     1
171
     0
176
     1
290
     0
176
     1
 93
        1
176
     1
 44
0.0
176
     1
173
     0
176
     1
1001
ACAD
1000
AcDbSavedByObjectVersion
1070
     0
  0
VISUALSTYLE
  5
527
102
{ACAD_XDICTIONARY
360
5C5
102
}
102
{ACAD_REACTORS
330
51E
102
}
330
51E
100
AcDbVisualStyle
  2
Conceptual
 70
     9
177
     2
291
     0
 71
     3
176
     1
 72
     2
176
     1
 73
     0
176
     1
 90
        0
176
     1
 40
0.6
176
     1
 41
30.0
176
     1
 63
     7
421
 16777215
176
     1
 74
     2
176
     1
 91
        2
176
     1
 64
     7
176
     1
 65
   257
176
     1
 75
     1
176
     1
175
     1
176
     1
 42
179.0
176
     1
 92
        8
176
     1
 66
     7
176
     1
 43
1.0
176
     1
 76
     1
176
     1
 77
     6
176
     1
 78
     2
176
     1
 67
     7
176
     1
 79
     3
176
     1
170
     0
176
     1
171
     0
176
     1
290
     0
176
     1
 93
        1
176
     1
 44
0.0
176
     1
173
     0
176
     1
1001
ACAD
1000
AcDbSavedByObjectVersion
1070
     0
  0
VISUALSTYLE
  5
529
102
{ACAD_XDICTIONARY
360
5C9
102
}
102
{ACAD_REACTORS
330
51E
102
}
330
51E
100
AcDbVisualStyle
  2
Dim
 70
    11
177
     2
291
     1
 71
     2
176
     1
 72
     2
176
     1
 73
     0
176
     1
 90
        0
176
     1
 40
0.6
176
     1
 41
30.0
176
     1
 63
     7
421
 16777215
176
     1
 74
     1
176
     1
 91
        4
176
     1
 64
     7
176
     1
 65
   257
176
     1
 75
     1
176
     1
175
     1
176
     1
 42
1.0
176
     1
 92
        8
176
     1
 66
     7
176
     1
 43
1.0
176
     1
 76
     1
176
     1
 77
     6
176
     1
 78
     2
176
     1
 67
     7
176
     1
 79
     5
176
     1
170
     0
176
     1
171
     0
176
     1
290
     0
176
     1
 93
        1
176
     1
 44
-50.0
176
     1
173
     0
176
     1
1001
ACAD
1000
AcDbSavedByObjectVersion
1070
     0
  0
VISUALSTYLE
  5
536
102
{ACAD_XDICTIONARY
360
5E3
102
}
102
{ACAD_REACTORS
330
51E
102
}
330
51E
100
AcDbVisualStyle
  2
EdgeColorOff
 70
    22
177
     2
291
     1
 71
     2
176
     0
 72
     2
176
     0
 73
     0
176
     0
 90
        0
176
     0
 40
0.6
176
     0
 41
30.0
176
     0
 63
     7
421
 16777215
176
     0
 74
     1
176
     0
 91
        4
176
     0
 64
     7
176
     0
 65
   257
176
     0
 75
     1
176
     0
175
     1
176
     0
 42
1.0
176
     0
 92
        8
176
     2
 66
     7
176
     0
 43
1.0
176
     0
 76
     1
176
     0
 77
     6
176
     0
 78
     2
176
     0
 67
     7
176
     0
 79
     5
176
     0
170
     0
176
     0
171
     0
176
     0
290
     0
176
     0
 93
        1
176
     0
 44
0.0
176
     0
173
     0
176
     0
1001
ACAD
1000
AcDbSavedByObjectVersion
1070
     0
  0
VISUALSTYLE
  5
52D
102
{ACAD_XDICTIONARY
360
5D1
102
}
102
{ACAD_REACTORS
330
51E
102
}
330
51E
100
AcDbVisualStyle
  2
Facepattern
 70
    15
177
     2
291
     1
 71
     2
176
     1
 72
     2
176
     1
 73
     0
176
     1
 90
        0
176
     1
 40
0.6
176
     1
 41
30.0
176
     1
 63
     7
421
 16777215
176
     1
 74
     1
176
     1
 91
        4
176
     1
 64
     7
176
     1
 65
   257
176
     1
 75
     1
176
     1
175
     1
176
     1
 42
1.0
176
     1
 92
        8
176
     1
 66
     7
176
     1
 43
1.0
176
     1
 76
     1
176
     1
 77
     6
176
     1
 78
     2
176
     1
 67
     7
176
     1
 79
     5
176
     1
170
     0
176
     1
171
     0
176
     1
290
     0
176
     1
 93
        1
176
     1
 44
0.0
176
     1
173
     0
176
     1
1001
ACAD
1000
AcDbSavedByObjectVersion
1070
     0
  0
VISUALSTYLE
  5
51F
102
{ACAD_XDICTIONARY
360
5B5
102
}
102
{ACAD_REACTORS
330
51E
102
}
330
51E
100
AcDbVisualStyle
  2
Flat
 70
     0
177
     2
291
     1
 71
     2
176
     1
 72
     1
176
     1
 73
     1
176
     1
 90
        2
176
     1
 40
0.6
176
     1
 41
30.0
176
     1
 63
     7
421
 16777215
176
     1
 74
     0
176
     1
 91
        0
176
     1
 64
     7
176
     1
 65
   257
176
     1
 75
     1
176
     1
175
     1
176
     1
 42
1.0
176
     1
 92
        8
176
     1
 66
     7
176
     1
 43
1.0
176
     1
 76
     1
176
     1
 77
     6
176
     1
 78
     2
176
     1
 67
     7
176
     1
 79
     5
176
     1
170
     0
176
     1
171
     0
176
     1
290
     0
176
     1
 93
       13
176
     1
 44
0.0
176
     1
173
     0
176
     1
1001
ACAD
1000
AcDbSavedByObjectVersion
1070
     0
  0
VISUALSTYLE
  5
520
102
{ACAD_XDICTIONARY
360
5B7
102
}
102
{ACAD_REACTORS
330
51E
102
}
330
51E
100
AcDbVisualStyle
  2
FlatWithEdges
 70
     1
177
     2
291
     1
 71
     2
176
     1
 72
     1
176
     1
 73
     1
176
     1
 90
        2
176
     1
 40
0.6
176
     1
 41
30.0
176
     1
 63
     7
421
 16777215
176
     1
 74
     1
176
     1
 91
        0
176
     1
 64
     7
176
     1
 65
   257
176
     1
 75
     1
176
     1
175
     1
176
     1
 42
1.0
176
     1
 92
        0
176
     1
 66
   257
176
     1
 43
1.0
176
     1
 76
     1
176
     1
 77
     6
176
     1
 78
     2
176
     1
 67
     7
176
     1
 79
     5
176
     1
170
     0
176
     1
171
     0
176
     1
290
     0
176
     1
 93
       13
176
     1
 44
0.0
176
     1
173
     0
176
     1
1001
ACAD
1000
AcDbSavedByObjectVersion
1070
     0
  0
VISUALSTYLE
  5
521
102
{ACAD_XDICTIONARY
360
5B9
102
}
102
{ACAD_REACTORS
330
51E
102
}
330
51E
100
AcDbVisualStyle
  2
Gouraud
 70
     2
177
     2
291
     1
 71
     2
176
     1
 72
     2
176
     1
 73
     1
176
     1
 90
        2
176
     1
 40
0.6
176
     1
 41
30.0
176
     1
 63
     7
421
 16777215
176
     1
 74
     0
176
     1
 91
        0
176
     1
 64
     7
176
     1
 65
   257
176
     1
 75
     1
176
     1
175
     1
176
     1
 42
1.0
176
     1
 92
        0
176
     1
 66
     7
176
     1
 43
1.0
176
     1
 76
     1
176
     1
 77
     6
176
     1
 78
     2
176
     1
 67
     7
176
     1
 79
     5
176
     1
170
     0
176
     1
171
     0
176
     1
290
     0
176
     1
 93
       13
176
     1
 44
0.0
176
     1
173
     0
176
     1
1001
ACAD
1000
AcDbSavedByObjectVersion
1070
     0
  0
VISUALSTYLE
  5
522
102
{ACAD_XDICTIONARY
360
5BB
102
}
102
{ACAD_REACTORS
330
51E
102
}
330
51E
100
AcDbVisualStyle
  2
GouraudWithEdges
 70
     3
177
     2
291
     1
 71
     2
176
     1
 72
     2
176
     1
 73
     1
176
     1
 90
        2
176
     1
 40
0.6
176
     1
 41
30.0
176
     1
 63
     7
421
 16777215
176
     1
 74
     1
176
     1
 91
        0
176
     1
 64
     7
176
     1
 65
   257
176
     1
 75
     1
176
     1
175
     1
176
     1
 42
1.0
176
     1
 92
        0
176
     1
 66
   257
176
     1
 43
1.0
176
     1
 76
     1
176
     1
 77
     6
176
     1
 78
     2
176
     1
 67
     7
176
     1
 79
     5
176
     1
170
     0
176
     1
171
     0
176
     1
290
     0
176
     1
 93
       13
176
     1
 44
0.0
176
     1
173
     0
176
     1
1001
ACAD
1000
AcDbSavedByObjectVersion
1070
     0
  0
VISUALSTYLE
  5
526
102
{ACAD_XDICTIONARY
360
5C3
102
}
102
{ACAD_REACTORS
330
51E
102
}
330
51E
100
AcDbVisualStyle
  2
Hidden
 70
     6
177
     2
291
     0
 71
     1
176
     1
 72
     2
176
     1
 73
     2
176
     1
 90
        0
176
     1
 40
0.6
176
     1
 41
30.0
176
     1
 63
     7
421
 16777215
176
     1
 74
     2
176
     1
 91
        2
176
     1
 64
     7
176
     1
 65
   257
176
     1
 75
     2
176
     1
175
     1
176
     1
 42
40.0
176
     1
 92
        0
176
     1
 66
   257
176
     1
 43
1.0
176
     1
 76
     1
176
     1
 77
     6
176
     1
 78
     2
176
     1
 67
     7
176
     1
 79
     3
176
     1
170
     0
176
     1
171
     0
176
     1
290
     0
176
     1
 93
        1
176
     1
 44
0.0
176
     1
173
     0
176
     1
1001
ACAD
1000
AcDbSavedByObjectVersion
1070
     0
  0
VISUALSTYLE
  5
534
102
{ACAD_XDICTIONARY
360
5DF
102
}
102
{ACAD_REACTORS
330
51E
102
}
330
51E
100
AcDbVisualStyle
  2
JitterOff
 70
    20
177
     2
291
     1
 71
     2
176
     0
 72
     2
176
     0
 73
     0
176
     0
 90
        0
176
     0
 40
0.6
176
     0
 41
30.0
176
     0
 63
     7
421
 16777215
176
     0
 74
     1
176
     0
 91
        4
176
     0
 64
     7
176
     0
 65
   257
176
     0
 75
     1
176
     0
175
     1
176
     0
 42
1.0
176
     0
 92
       10
176
     2
 66
     7
176
     0
 43
1.0
176
     0
 76
     1
176
     0
 77
     6
176
     0
 78
     2
176
     0
 67
     7
176
     0
 79
     5
176
     0
170
     0
176
     0
171
     0
176
     0
290
     0
176
     0
 93
        1
176
     0
 44
0.0
176
     0
173
     0
176
     0
1001
ACAD
1000
AcDbSavedByObjectVersion
1070
     0
  0
VISUALSTYLE
  5
52C
102
{ACAD_XDICTIONARY
360
5CF
102
}
102
{ACAD_REACTORS
330
51E
102
}
330
51E
100
AcDbVisualStyle
  2
Linepattern
 70
    14
177
     2
291
     1
 71
     2
176
     1
 72
     2
176
     1
 73
     0
176
     1
 90
        0
176
     1
 40
0.6
176
     1
 41
30.0
176
     1
 63
     7
421
 16777215
176
     1
 74
     1
176
     1
 91
        4
176
     1
 64
     7
176
     1
 65
   257
176
     1
 75
     7
176
     1
175
     7
176
     1
 42
1.0
176
     1
 92
        8
176
     1
 66
     7
176
     1
 43
1.0
176
     1
 76
     1
176
     1
 77
     6
176
     1
 78
     2
176
     1
 67
     7
176
     1
 79
     5
176
     1
170
     0
176
     1
171
     0
176
     1
290
     0
176
     1
 93
        1
176
     1
 44
0.0
176
     1
173
     0
176
     1
1001
ACAD
1000
AcDbSavedByObjectVersion
1070
     0
  0
VISUALSTYLE
  5
535
102
{ACAD_XDICTIONARY
360
5E1
102
}
102
{ACAD_REACTORS
330
51E
102
}
330
51E
100
AcDbVisualStyle
  2
OverhangOff
 70
    21
177
     2
291
     1
 71
     2
176
     0
 72
     2
176
     0
 73
     0
176
     0
 90
        0
176
     0
 40
0.6
176
     0
 41
30.0
176
     0
 63
     7
421
 16777215
176
     0
 74
     1
176
     0
 91
        4
176
     0
 64
     7
176
     0
 65
   257
176
     0
 75
     1
176
     0
175
     1
176
     0
 42
1.0
176
     0
 92
        9
176
     2
 66
     7
176
     0
 43
1.0
176
     0
 76
     1
176
     0
 77
     6
176
     0
 78
     2
176
     0
 67
     7
176
     0
 79
     5
176
     0
170
     0
176
     0
171
     0
176
     0
290
     0
176
     0
 93
        1
176
     0
 44
0.0
176
     0
173
     0
176
     0
1001
ACAD
1000
AcDbSavedByObjectVersion
1070
     0
  0
VISUALSTYLE
  5
528
102
{ACAD_XDICTIONARY
360
5C7
102
}
102
{ACAD_REACTORS
330
51E
102
}
330
51E
100
AcDbVisualStyle
  2
Realistic
 70
     8
177
     2
291
     0
 71
     2
176
     1
 72
     3
176
     1
 73
     0
176
     1
 90
        2
176
     1
 40
0.6
176
     1
 41
30.0
176
     1
 63
     7
421
 16777215
176
     1
 74
     0
176
     1
 91
        0
176
     1
 64
     7
176
     1
 65
   257
176
     1
 75
     1
176
     1
175
     1
176
     1
 42
1.0
176
     1
 92
        8
176
     1
 66
   257
176
     1
 43
1.0
176
     1
 76
     1
176
     1
 77
     6
176
     1
 78
     2
176
     1
 67
     7
176
     1
 79
     3
176
     1
170
     0
176
     1
171
     0
176
     1
290
     0
176
     1
 93
       13
176
     1
 44
0.0
176
     1
173
     0
176
     1
1001
ACAD
1000
AcDbSavedByObjectVersion
1070
     0
  0
VISUALSTYLE
  5
533
102
{ACAD_XDICTIONARY
360
5DD
102
}
102
{ACAD_REACTORS
330
51E
102
}
330
51E
100
AcDbVisualStyle
  2
Shaded
 70
    27
177
     2
291
     0
 71
     2
176
     1
 72
     2
176
     1
 73
     1
176
     1
 90
        2
176
     1
 40
0.6
176
     1
 41
30.0
176
     1
 63
     7
421
 16777215
176
     1
 74
     0
176
     1
 91
        4
176
     1
 64
     7
176
     1
 65
   257
176
     1
 75
     1
176
     1
175
     1
176
     1
 42
1.0
176
     1
 92
        8
176
     1
 66
   257
176
     1
 43
1.0
176
     1
 76
     1
176
     1
 77
     6
176
     1
 78
     2
176
     1
 67
     8
425
  7895160
176
     1
 79
     3
176
     1
170
     0
176
     1
171
     0
176
     1
290
     0
176
     1
 93
        5
176
     1
 44
0.0
176
     1
173
     0
176
     1
1001
ACAD
1000
AcDbSavedByObjectVersion
1070
     0
  0
VISUALSTYLE
  5
532
102
{ACAD_XDICTIONARY
360
5DB
102
}
102
{ACAD_REACTORS
330
51E
102
}
330
51E
100
AcDbVisualStyle
  2
Shaded with edges
 70
    26
177
     2
291
     0
 71
     2
176
     1
 72
     2
176
     1
 73
     1
176
     1
 90
        2
176
     1
 40
0.6
176
     1
 41
30.0
176
     1
 63
     7
421
 16777215
176
     1
 74
     1
176
     1
 91
       10
176
     1
 64
     7
176
     1
 65
   257
176
     1
 75
     2
176
     1
175
     1
176
     1
 42
1.0
176
     1
 92
        8
176
     1
 66
   257
176
     1
 43
1.0
176
     1
 76
     1
176
     1
 77
     6
176
     1
 78
     2
176
     1
 67
     7
176
     1
 79
     3
176
     1
170
     0
176
     1
171
     0
176
     1
290
     0
176
     1
 93
        5
176
     1
 44
0.0
176
     1
173
     0
176
     1
1001
ACAD
1000
AcDbSavedByObjectVersion
1070
     0
  0
VISUALSTYLE
  5
52F
102
{ACAD_XDICTIONARY
360
5D5
102
}
102
{ACAD_REACTORS
330
51E
102
}
330
51E
100
AcDbVisualStyle
  2
Shades of Gray
 70
    23
177
     2
291
     0
 71
     2
176
     1
 72
     2
176
     1
 73
     3
176
     1
 90
        0
176
     1
 40
0.6
176
     1
 41
30.0
176
     1
 63
     7
421
 16777215
176
     1
 74
     2
176
     1
 91
        2
176
     1
 64
     7
176
     1
 65
     7
176
     1
 75
     1
176
     1
175
     1
176
     1
 42
40.0
176
     1
 92
        8
176
     1
 66
     7
176
     1
 43
1.0
176
     1
 76
     1
176
     1
 77
     6
176
     1
 78
     2
176
     1
 67
     7
176
     1
 79
     3
176
     1
170
     0
176
     1
171
     0
176
     1
290
     0
176
     1
 93
        1
176
     1
 44
0.0
176
     1
173
     0
176
     1
1001
ACAD
1000
AcDbSavedByObjectVersion
1070
     0
  0
VISUALSTYLE
  5
530
102
{ACAD_XDICTIONARY
360
5D7
102
}
102
{ACAD_REACTORS
330
51E
102
}
330
51E
100
AcDbVisualStyle
  2
Sketchy
 70
    24
177
     2
291
     0
 71
     1
176
     1
 72
     2
176
     1
 73
     2
176
     1
 90
        0
176
     1
 40
0.6
176
     1
 41
30.0
176
     1
 63
     7
421
 16777215
176
     1
 74
     2
176
     1
 91
        2
176
     1
 64
     7
176
     1
 65
     7
176
     1
 75
     1
176
     1
175
     1
176
     1
 42
40.0
176
     1
 92
       11
176
     1
 66
     7
176
     1
 43
1.0
176
     1
 76
     1
176
     1
 77
     6
176
     1
 78
     2
176
     1
 67
     7
176
     1
 79
     6
176
     1
170
     0
176
     1
171
     0
176
     1
290
     0
176
     1
 93
        1
176
     1
 44
0.0
176
     1
173
     0
176
     1
1001
ACAD
1000
AcDbSavedByObjectVersion
1070
     0
  0
VISUALSTYLE
  5
52B
102
{ACAD_XDICTIONARY
360
5CD
102
}
102
{ACAD_REACTORS
330
51E
102
}
330
51E
100
AcDbVisualStyle
  2
Thicken
 70
    13
177
     2
291
     1
 71
     2
176
     1
 72
     2
176
     1
 73
     0
176
     1
 90
        0
176
     1
 40
0.6
176
     1
 41
30.0
176
     1
 63
     7
421
 16777215
176
     1
 74
     1
176
     1
 91
        4
176
     1
 64
     7
176
     1
 65
   257
176
     1
 75
     1
176
     1
175
     1
176
     1
 42
1.0
176
     1
 92
       12
176
     1
 66
     7
176
     1
 43
1.0
176
     1
 76
     1
176
     1
 77
     6
176
     1
 78
     2
176
     1
 67
     7
176
     1
 79
     5
176
     1
170
     0
176
     1
171
     0
176
     1
290
     0
176
     1
 93
        1
176
     1
 44
0.0
176
     1
173
     0
176
     1
1001
ACAD
1000
AcDbSavedByObjectVersion
1070
     0
  0
VISUALSTYLE
  5
525
102
{ACAD_XDICTIONARY
360
5C1
102
}
102
{ACAD_REACTORS
330
51E
102
}
330
51E
100
AcDbVisualStyle
  2
Wireframe
 70
     5
177
     2
291
     0
 71
     0
176
     1
 72
     2
176
     1
 73
     0
176
     1
 90
        0
176
     1
 40
0.6
176
     1
 41
30.0
176
     1
 63
     7
421
 16777215
176
     1
 74
     1
176
     1
 91
        4
176
     1
 64
     7
176
     1
 65
   257
176
     1
 75
     1
176
     1
175
     1
176
     1
 42
1.0
176
     1
 92
        0
176
     1
 66
   257
176
     1
 43
1.0
176
     1
 76
     1
176
     1
 77
     6
176
     1
 78
     2
176
     1
 67
     7
176
     1
 79
     3
176
     1
170
     0
176
     1
171
     0
176
     1
290
     0
176
     1
 93
        1
176
     1
 44
0.0
176
     1
173
     0
176
     1
1001
ACAD
1000
AcDbSavedByObjectVersion
1070
     0
  0
VISUALSTYLE
  5
531
102
{ACAD_XDICTIONARY
360
5D9
102
}
102
{ACAD_REACTORS
330
51E
102
}
330
51E
100
AcDbVisualStyle
  2
X-Ray
 70
    25
177
     2
291
     0
 71
     2
176
     1
 72
     2
176
     1
 73
     1
176
     1
 90
        1
176
     1
 40
0.5
176
     1
 41
30.0
176
     1
 63
     7
421
 16777215
176
     1
 74
     1
176
     1
 91
        0
176
     1
 64
     7
176
     1
 65
   257
176
     1
 75
     1
176
     1
175
     1
176
     1
 42
1.0
176
     1
 92
        8
176
     1
 66
     7
176
     1
 43
1.0
176
     1
 76
     1
176
     1
 77
     6
176
     1
 78
     2
176
     1
 67
     7
176
     1
 79
     3
176
     1
170
     0
176
     1
171
     0
176
     1
290
     0
176
     1
 93
       13
176
     1
 44
0.0
176
     1
173
     0
176
     1
1001
ACAD
1000
AcDbSavedByObjectVersion
1070
     0
  0
DICTIONARYVAR
  5
5AE
102
{ACAD_REACTORS
330
307
102
}
330
307
100
DictionaryVariables
280
     0
  1
1:1
  0
DICTIONARYVAR
  5
5AA
102
{ACAD_REACTORS
330
307
102
}
330
307
100
DictionaryVariables
280
     0
  1
STANDARD
  0
DICTIONARYVAR
  5
308
102
{ACAD_REACTORS
330
307
102
}
330
307
100
DictionaryVariables
280
     0
  1
STANDARD
  0
DICTIONARYVAR
  5
5AB
102
{ACAD_REACTORS
330
307
102
}
330
307
100
DictionaryVariables
280
     0
  1
Metric50
  0
DICTIONARYVAR
  5
5AC
102
{ACAD_REACTORS
330
307
102
}
330
307
100
DictionaryVariables
280
     0
  1
Metric50
  0
DICTIONARYVAR
  5
309
102
{ACAD_REACTORS
330
307
102
}
330
307
100
DictionaryVariables
280
     0
  1
1
  0
DICTIONARYVAR
  5
5B0
102
{ACAD_REACTORS
330
307
102
}
330
307
100
DictionaryVariables
280
     0
  1
1
  0
DICTIONARYVAR
  5
5B1
102
{ACAD_REACTORS
330
307
102
}
330
307
100
DictionaryVariables
280
     0
  1
15
  0
DICTIONARYVAR
  5
5AF
102
{ACAD_REACTORS
330
307
102
}
330
307
100
DictionaryVariables
280
     0
  1
0
  0
DICTIONARYVAR
  5
5AD
102
{ACAD_REACTORS
330
307
102
}
330
307
100
DictionaryVariables
280
     0
  1
0
  0
DICTIONARYVAR
  5
30A
102
{ACAD_REACTORS
330
307
102
}
330
307
100
DictionaryVariables
280
     0
  1

  0
DICTIONARY
  5
5E7
330
54E
100
AcDbDictionary
280
     1
281
     1
  3
ACAD_XREC_ROUNDTRIP
360
5E8
  0
DICTIONARY
  5
50F
330
50E
100
AcDbDictionary
280
     1
281
     1
  3
BUMPTILE
360
511
  3
DIFFUSETILE
360
510
  3
OPACITYTILE
360
514
  3
REFLECTIONTILE
360
513
  3
REFRACTIONTILE
360
515
  3
SPECULARTILE
360
512
  0
DICTIONARY
  5
507
330
506
100
AcDbDictionary
280
     1
281
     1
  3
BUMPTILE
360
509
  3
DIFFUSETILE
360
508
  3
OPACITYTILE
360
50C
  3
REFLECTIONTILE
360
50B
  3
REFRACTIONTILE
360
50D
  3
SPECULARTILE
360
50A
  0
DICTIONARY
  5
517
330
516
100
AcDbDictionary
280
     1
281
     1
  3
BUMPTILE
360
519
  3
DIFFUSETILE
360
518
  3
OPACITYTILE
360
51C
  3
REFLECTIONTILE
360
51B
  3
REFRACTIONTILE
360
51D
  3
SPECULARTILE
360
51A
  0
DICTIONARY
  5
5E5
330
54C
100
AcDbDictionary
280
     1
281
     1
  3
ACAD_XREC_ROUNDTRIP
360
5E6
  0
DICTIONARY
  5
5B2
330
29E
100
AcDbDictionary
280
     1
281
     1
  3
ACAD_ROUNDTRIP_2008_TABLESTYLE_CELLSTYLEMAP
360
5B3
  0
DICTIONARY
  5
5BF
330
524
100
AcDbDictionary
280
     1
281
     1
  3
ACAD_XREC_ROUNDTRIP
360
5C0
  0
DICTIONARY
  5
5BD
330
523
100
AcDbDictionary
280
     1
281
     1
  3
ACAD_XREC_ROUNDTRIP
360
5BE
  0
DICTIONARY
  5
5CB
330
52A
100
AcDbDictionary
280
     1
281
     1
  3
ACAD_XREC_ROUNDTRIP
360
5CC
  0
DICTIONARY
  5
5D3
330
52E
100
AcDbDictionary
280
     1
281
     1
  3
ACAD_XREC_ROUNDTRIP
360
5D4
  0
DICTIONARY
  5
5C5
330
527
100
AcDbDictionary
280
     1
281
     1
  3
ACAD_XREC_ROUNDTRIP
360
5C6
  0
DICTIONARY
  5
5C9
330
529
100
AcDbDictionary
280
     1
281
     1
  3
ACAD_XREC_ROUNDTRIP
360
5CA
  0
DICTIONARY
  5
5E3
330
536
100
AcDbDictionary
280
     1
281
     1
  3
ACAD_XREC_ROUNDTRIP
360
5E4
  0
DICTIONARY
  5
5D1
330
52D
100
AcDbDictionary
280
     1
281
     1
  3
ACAD_XREC_ROUNDTRIP
360
5D2
  0
DICTIONARY
  5
5B5
330
51F
100
AcDbDictionary
280
     1
281
     1
  3
ACAD_XREC_ROUNDTRIP
360
5B6
  0
DICTIONARY
  5
5B7
330
520
100
AcDbDictionary
280
     1
281
     1
  3
ACAD_XREC_ROUNDTRIP
360
5B8
  0
DICTIONARY
  5
5B9
330
521
100
AcDbDictionary
280
     1
281
     1
  3
ACAD_XREC_ROUNDTRIP
360
5BA
  0
DICTIONARY
  5
5BB
330
522
100
AcDbDictionary
280
     1
281
     1
  3
ACAD_XREC_ROUNDTRIP
360
5BC
  0
DICTIONARY
  5
5C3
330
526
100
AcDbDictionary
280
     1
281
     1
  3
ACAD_XREC_ROUNDTRIP
360
5C4
  0
DICTIONARY
  5
5DF
330
534
100
AcDbDictionary
280
     1
281
     1
  3
ACAD_XREC_ROUNDTRIP
360
5E0
  0
DICTIONARY
  5
5CF
330
52C
100
AcDbDictionary
280
     1
281
     1
  3
ACAD_XREC_ROUNDTRIP
360
5D0
  0
DICTIONARY
  5
5E1
330
535
100
AcDbDictionary
280
     1
281
     1
  3
ACAD_XREC_ROUNDTRIP
360
5E2
  0
DICTIONARY
  5
5C7
330
528
100
AcDbDictionary
280
     1
281
     1
  3
ACAD_XREC_ROUNDTRIP
360
5C8
  0
DICTIONARY
  5
5DD
330
533
100
AcDbDictionary
280
     1
281
     1
  3
ACAD_XREC_ROUNDTRIP
360
5DE
  0
DICTIONARY
  5
5DB
330
532
100
AcDbDictionary
280
     1
281
     1
  3
ACAD_XREC_ROUNDTRIP
360
5DC
  0
DICTIONARY
  5
5D5
330
52F
100
AcDbDictionary
280
     1
281
     1
  3
ACAD_XREC_ROUNDTRIP
360
5D6
  0
DICTIONARY
  5
5D7
330
530
100
AcDbDictionary
280
     1
281
     1
  3
ACAD_XREC_ROUNDTRIP
360
5D8
  0
DICTIONARY
  5
5CD
330
52B
100
AcDbDictionary
280
     1
281
     1
  3
ACAD_XREC_ROUNDTRIP
360
5CE
  0
DICTIONARY
  5
5C1
330
525
100
AcDbDictionary
280
     1
281
     1
  3
ACAD_XREC_ROUNDTRIP
360
5C2
  0
DICTIONARY
  5
5D9
330
531
100
AcDbDictionary
280
     1
281
     1
  3
ACAD_XREC_ROUNDTRIP
360
5DA
  0
XRECORD
  5
5E8
102
{ACAD_REACTORS
330
5E7
102
}
330
5E7
100
AcDbXrecord
280
     1
102
DISPLAYNAME
  1
Metric50
102
FLAGS
 90
        0
  0
XRECORD
  5
511
102
{ACAD_REACTORS
330
50F
102
}
330
50F
100
AcDbXrecord
280
     1
270
     1
271
     1
  0
XRECORD
  5
510
102
{ACAD_REACTORS
330
50F
102
}
330
50F
100
AcDbXrecord
280
     1
270
     1
271
     1
  0
XRECORD
  5
514
102
{ACAD_REACTORS
330
50F
102
}
330
50F
100
AcDbXrecord
280
     1
270
     1
271
     1
  0
XRECORD
  5
513
102
{ACAD_REACTORS
330
50F
102
}
330
50F
100
AcDbXrecord
280
     1
270
     1
271
     1
  0
XRECORD
  5
515
102
{ACAD_REACTORS
330
50F
102
}
330
50F
100
AcDbXrecord
280
     1
270
     1
271
     1
  0
XRECORD
  5
512
102
{ACAD_REACTORS
330
50F
102
}
330
50F
100
AcDbXrecord
280
     1
270
     1
271
     1
  0
XRECORD
  5
509
102
{ACAD_REACTORS
330
507
102
}
330
507
100
AcDbXrecord
280
     1
270
     1
271
     1
  0
XRECORD
  5
508
102
{ACAD_REACTORS
330
507
102
}
330
507
100
AcDbXrecord
280
     1
270
     1
271
     1
  0
XRECORD
  5
50C
102
{ACAD_REACTORS
330
507
102
}
330
507
100
AcDbXrecord
280
     1
270
     1
271
     1
  0
XRECORD
  5
50B
102
{ACAD_REACTORS
330
507
102
}
330
507
100
AcDbXrecord
280
     1
270
     1
271
     1
  0
XRECORD
  5
50D
102
{ACAD_REACTORS
330
507
102
}
330
507
100
AcDbXrecord
280
     1
270
     1
271
     1
  0
XRECORD
  5
50A
102
{ACAD_REACTORS
330
507
102
}
330
507
100
AcDbXrecord
280
     1
270
     1
271
     1
  0
XRECORD
  5
519
102
{ACAD_REACTORS
330
517
102
}
330
517
100
AcDbXrecord
280
     1
270
     1
271
     1
  0
XRECORD
  5
518
102
{ACAD_REACTORS
330
517
102
}
330
517
100
AcDbXrecord
280
     1
270
     1
271
     1
  0
XRECORD
  5
51C
102
{ACAD_REACTORS
330
517
102
}
330
517
100
AcDbXrecord
280
     1
270
     1
271
     1
  0
XRECORD
  5
51B
102
{ACAD_REACTORS
330
517
102
}
330
517
100
AcDbXrecord
280
     1
270
     1
271
     1
  0
XRECORD
  5
51D
102
{ACAD_REACTORS
330
517
102
}
330
517
100
AcDbXrecord
280
     1
270
     1
271
     1
  0
XRECORD
  5
51A
102
{ACAD_REACTORS
330
517
102
}
330
517
100
AcDbXrecord
280
     1
270
     1
271
     1
  0
XRECORD
  5
5E6
102
{ACAD_REACTORS
330
5E5
102
}
330
5E5
100
AcDbXrecord
280
     1
102
DISPLAYNAME
  1
Metric50
102
FLAGS
 90
        0
  0
CELLSTYLEMAP
  5
5B3
102
{ACAD_REACTORS
330
5B2
102
}
330
5B2
100
AcDbCellStyleMap
 90
        3
300
CELLSTYLE
  1
TABLEFORMAT_BEGIN
 90
        5
170
     1
 91
        0
 92
    32768
 62
   257
 93
        1
300
CONTENTFORMAT
  1
CONTENTFORMAT_BEGIN
 90
        0
 91
        0
 92
        4
 93
        0
300

 40
0.0
140
1.0
 94
        5
 62
     0
340
11
144
6.0
309
CONTENTFORMAT_END
171
     1
301
MARGIN
  1
CELLMARGIN_BEGIN
 40
1.5
 40
1.5
 40
1.5
 40
1.5
 40
0.18
 40
0.18
309
CELLMARGIN_END
 94
        6
 95
        1
302
GRIDFORMAT
  1
GRIDFORMAT_BEGIN
 90
        0
 91
        1
 62
     0
 92
       -2
340
0
 93
        0
 40
0.045
309
GRIDFORMAT_END
 95
        2
302
GRIDFORMAT
  1
GRIDFORMAT_BEGIN
 90
        0
 91
        1
 62
     0
 92
       -2
340
0
 93
        0
 40
0.045
309
GRIDFORMAT_END
 95
        4
302
GRIDFORMAT
  1
GRIDFORMAT_BEGIN
 90
        0
 91
        1
 62
     0
 92
       -2
340
0
 93
        0
 40
0.045
309
GRIDFORMAT_END
 95
        8
302
GRIDFORMAT
  1
GRIDFORMAT_BEGIN
 90
        0
 91
        1
 62
     0
 92
       -2
340
0
 93
        0
 40
0.045
309
GRIDFORMAT_END
 95
       16
302
GRIDFORMAT
  1
GRIDFORMAT_BEGIN
 90
        0
 91
        1
 62
     0
 92
       -2
340
0
 93
        0
 40
0.045
309
GRIDFORMAT_END
 95
       32
302
GRIDFORMAT
  1
GRIDFORMAT_BEGIN
 90
        0
 91
        1
 62
     0
 92
       -2
340
0
 93
        0
 40
0.045
309
GRIDFORMAT_END
309
TABLEFORMAT_END
  1
CELLSTYLE_BEGIN
 90
        1
 91
        1
300
_TITLE
309
CELLSTYLE_END
300
CELLSTYLE
  1
TABLEFORMAT_BEGIN
 90
        5
170
     1
 91
        0
 92
        0
 62
   257
 93
        1
300
CONTENTFORMAT
  1
CONTENTFORMAT_BEGIN
 90
        0
 91
        0
 92
        4
 93
        0
300

 40
0.0
140
1.0
 94
        5
 62
     0
340
11
144
4.5
309
CONTENTFORMAT_END
171
     1
301
MARGIN
  1
CELLMARGIN_BEGIN
 40
1.5
 40
1.5
 40
1.5
 40
1.5
 40
0.18
 40
0.18
309
CELLMARGIN_END
 94
        6
 95
        1
302
GRIDFORMAT
  1
GRIDFORMAT_BEGIN
 90
        0
 91
        1
 62
     0
 92
       -2
340
0
 93
        0
 40
0.045
309
GRIDFORMAT_END
 95
        2
302
GRIDFORMAT
  1
GRIDFORMAT_BEGIN
 90
        0
 91
        1
 62
     0
 92
       -2
340
0
 93
        0
 40
0.045
309
GRIDFORMAT_END
 95
        4
302
GRIDFORMAT
  1
GRIDFORMAT_BEGIN
 90
        0
 91
        1
 62
     0
 92
       -2
340
0
 93
        0
 40
0.045
309
GRIDFORMAT_END
 95
        8
302
GRIDFORMAT
  1
GRIDFORMAT_BEGIN
 90
        0
 91
        1
 62
     0
 92
       -2
340
0
 93
        0
 40
0.045
309
GRIDFORMAT_END
 95
       16
302
GRIDFORMAT
  1
GRIDFORMAT_BEGIN
 90
        0
 91
        1
 62
     0
 92
       -2
340
0
 93
        0
 40
0.045
309
GRIDFORMAT_END
 95
       32
302
GRIDFORMAT
  1
GRIDFORMAT_BEGIN
 90
        0
 91
        1
 62
     0
 92
       -2
340
0
 93
        0
 40
0.045
309
GRIDFORMAT_END
309
TABLEFORMAT_END
  1
CELLSTYLE_BEGIN
 90
        2
 91
        1
300
_HEADER
309
CELLSTYLE_END
300
CELLSTYLE
  1
TABLEFORMAT_BEGIN
 90
        5
170
     1
 91
        0
 92
        0
 62
   257
 93
        1
300
CONTENTFORMAT
  1
CONTENTFORMAT_BEGIN
 90
        0
 91
        0
 92
        4
 93
        0
300

 40
0.0
140
1.0
 94
        2
 62
     0
340
11
144
4.5
309
CONTENTFORMAT_END
171
     1
301
MARGIN
  1
CELLMARGIN_BEGIN
 40
1.5
 40
1.5
 40
1.5
 40
1.5
 40
0.18
 40
0.18
309
CELLMARGIN_END
 94
        6
 95
        1
302
GRIDFORMAT
  1
GRIDFORMAT_BEGIN
 90
        0
 91
        1
 62
     0
 92
       -2
340
0
 93
        0
 40
0.045
309
GRIDFORMAT_END
 95
        2
302
GRIDFORMAT
  1
GRIDFORMAT_BEGIN
 90
        0
 91
        1
 62
     0
 92
       -2
340
0
 93
        0
 40
0.045
309
GRIDFORMAT_END
 95
        4
302
GRIDFORMAT
  1
GRIDFORMAT_BEGIN
 90
        0
 91
        1
 62
     0
 92
       -2
340
0
 93
        0
 40
0.045
309
GRIDFORMAT_END
 95
        8
302
GRIDFORMAT
  1
GRIDFORMAT_BEGIN
 90
        0
 91
        1
 62
     0
 92
       -2
340
0
 93
        0
 40
0.045
309
GRIDFORMAT_END
 95
       16
302
GRIDFORMAT
  1
GRIDFORMAT_BEGIN
 90
        0
 91
        1
 62
     0
 92
       -2
340
0
 93
        0
 40
0.045
309
GRIDFORMAT_END
 95
       32
302
GRIDFORMAT
  1
GRIDFORMAT_BEGIN
 90
        0
 91
        1
 62
     0
 92
       -2
340
0
 93
        0
 40
0.045
309
GRIDFORMAT_END
309
TABLEFORMAT_END
  1
CELLSTYLE_BEGIN
 90
        3
 91
        2
300
_DATA
309
CELLSTYLE_END
  0
XRECORD
  5
5C0
102
{ACAD_REACTORS
330
5BF
102
}
330
5BF
100
AcDbXrecord
280
     1
102
RTVSPost2010Prop28
280
     1
102
RTVSPost2010PropOp28
 70
     1
102
RTVSPost2010Prop29
280
     1
102
RTVSPost2010PropOp29
 70
     1
102
RTVSPost2010Prop30
280
     0
102
RTVSPost2010PropOp30
 70
     1
102
RTVSPost2010Prop31
280
     0
102
RTVSPost2010PropOp31
 70
     1
102
RTVSPost2010Prop32
280
     0
102
RTVSPost2010PropOp32
 70
     1
102
RTVSPost2010Prop33
280
     0
102
RTVSPost2010PropOp33
 70
     1
102
RTVSPost2010Prop34
280
     0
102
RTVSPost2010PropOp34
 70
     1
102
RTVSPost2010Prop35
280
     0
102
RTVSPost2010PropOp35
 70
     1
102
RTVSPost2010Prop36
280
     0
102
RTVSPost2010PropOp36
 70
     1
102
RTVSPost2010Prop37
 90
       50
102
RTVSPost2010PropOp37
 70
     1
102
RTVSPost2010Prop38
140
0.0
102
RTVSPost2010PropOp38
 70
     1
102
RTVSPost2010Prop39
140
1.0
102
RTVSPost2010PropOp39
 70
     1
102
RTVSPost2010Prop40
 90
        0
102
RTVSPost2010PropOp40
 70
     1
102
RTVSPost2010Prop41ColorIndex
 90
       18
102
RTVSPost2010Prop41ColorRGB
 90
        0
102
RTVSPost2010PropOp41
 70
     1
102
RTVSPost2010Prop42
 90
       50
102
RTVSPost2010PropOp42
 70
     1
102
RTVSPost2010Prop43
 90
        3
102
RTVSPost2010PropOp43
 70
     1
102
RTVSPost2010Prop44ColorIndex
 90
        5
102
RTVSPost2010Prop44ColorRGB
 90
      255
102
RTVSPost2010PropOp44
 70
     1
102
RTVSPost2010Prop45
280
     0
102
RTVSPost2010PropOp45
 70
     1
102
RTVSPost2010Prop46
 90
       50
102
RTVSPost2010PropOp46
 70
     1
102
RTVSPost2010Prop47
 90
       50
102
RTVSPost2010PropOp47
 70
     1
102
RTVSPost2010Prop48
 90
       50
102
RTVSPost2010PropOp48
 70
     1
102
RTVSPost2010Prop49
280
     0
102
RTVSPost2010PropOp49
 70
     1
102
RTVSPost2010Prop50
 90
       50
102
RTVSPost2010PropOp50
 70
     1
102
RTVSPost2010Prop51ColorIndex
 90
      256
102
RTVSPost2010Prop51ColorRGB
 90
-16777216
102
RTVSPost2010PropOp51
 70
     0
102
RTVSPost2010Prop52
140
1.0
102
RTVSPost2010PropOp52
 70
     0
102
RTVSPost2010Prop53
 90
        2
102
RTVSPost2010PropOp53
 70
     1
102
RTVSPost2010Prop54
  1
strokes_ogs.tif
102
RTVSPost2010PropOp54
 70
     1
102
RTVSPost2010Prop55
280
     0
102
RTVSPost2010PropOp55
 70
     1
102
RTVSPost2010Prop56
140
1.0
102
RTVSPost2010PropOp56
 70
     1
102
RTVSPost2010Prop57
140
1.0
102
RTVSPost2010PropOp57
 70
     1
  0
XRECORD
  5
5BE
102
{ACAD_REACTORS
330
5BD
102
}
330
5BD
100
AcDbXrecord
280
     1
102
RTVSPost2010Prop28
280
     0
102
RTVSPost2010PropOp28
 70
     1
102
RTVSPost2010Prop29
280
     1
102
RTVSPost2010PropOp29
 70
     1
102
RTVSPost2010Prop30
280
     1
102
RTVSPost2010PropOp30
 70
     1
102
RTVSPost2010Prop31
280
     0
102
RTVSPost2010PropOp31
 70
     1
102
RTVSPost2010Prop32
280
     0
102
RTVSPost2010PropOp32
 70
     1
102
RTVSPost2010Prop33
280
     0
102
RTVSPost2010PropOp33
 70
     1
102
RTVSPost2010Prop34
280
     0
102
RTVSPost2010PropOp34
 70
     1
102
RTVSPost2010Prop35
280
     0
102
RTVSPost2010PropOp35
 70
     1
102
RTVSPost2010Prop36
280
     0
102
RTVSPost2010PropOp36
 70
     1
102
RTVSPost2010Prop37
 90
       50
102
RTVSPost2010PropOp37
 70
     1
102
RTVSPost2010Prop38
140
0.0
102
RTVSPost2010PropOp38
 70
     1
102
RTVSPost2010Prop39
140
1.0
102
RTVSPost2010PropOp39
 70
     1
102
RTVSPost2010Prop40
 90
        0
102
RTVSPost2010PropOp40
 70
     1
102
RTVSPost2010Prop41ColorIndex
 90
       18
102
RTVSPost2010Prop41ColorRGB
 90
        0
102
RTVSPost2010PropOp41
 70
     1
102
RTVSPost2010Prop42
 90
       50
102
RTVSPost2010PropOp42
 70
     1
102
RTVSPost2010Prop43
 90
        3
102
RTVSPost2010PropOp43
 70
     1
102
RTVSPost2010Prop44ColorIndex
 90
        5
102
RTVSPost2010Prop44ColorRGB
 90
      255
102
RTVSPost2010PropOp44
 70
     1
102
RTVSPost2010Prop45
280
     0
102
RTVSPost2010PropOp45
 70
     1
102
RTVSPost2010Prop46
 90
       50
102
RTVSPost2010PropOp46
 70
     1
102
RTVSPost2010Prop47
 90
       50
102
RTVSPost2010PropOp47
 70
     1
102
RTVSPost2010Prop48
 90
       50
102
RTVSPost2010PropOp48
 70
     1
102
RTVSPost2010Prop49
280
     0
102
RTVSPost2010PropOp49
 70
     1
102
RTVSPost2010Prop50
 90
       50
102
RTVSPost2010PropOp50
 70
     1
102
RTVSPost2010Prop51ColorIndex
 90
      256
102
RTVSPost2010Prop51ColorRGB
 90
-16777216
102
RTVSPost2010PropOp51
 70
     0
102
RTVSPost2010Prop52
140
1.0
102
RTVSPost2010PropOp52
 70
     0
102
RTVSPost2010Prop53
 90
        2
102
RTVSPost2010PropOp53
 70
     1
102
RTVSPost2010Prop54
  1
strokes_ogs.tif
102
RTVSPost2010PropOp54
 70
     1
102
RTVSPost2010Prop55
280
     0
102
RTVSPost2010PropOp55
 70
     1
102
RTVSPost2010Prop56
140
1.0
102
RTVSPost2010PropOp56
 70
     1
102
RTVSPost2010Prop57
140
1.0
102
RTVSPost2010PropOp57
 70
     1
  0
XRECORD
  5
5CC
102
{ACAD_REACTORS
330
5CB
102
}
330
5CB
100
AcDbXrecord
280
     1
102
RTVSPost2010Prop28
280
     0
102
RTVSPost2010PropOp28
 70
     1
102
RTVSPost2010Prop29
280
     1
102
RTVSPost2010PropOp29
 70
     1
102
RTVSPost2010Prop30
280
     1
102
RTVSPost2010PropOp30
 70
     1
102
RTVSPost2010Prop31
280
     0
102
RTVSPost2010PropOp31
 70
     1
102
RTVSPost2010Prop32
280
     0
102
RTVSPost2010PropOp32
 70
     1
102
RTVSPost2010Prop33
280
     0
102
RTVSPost2010PropOp33
 70
     1
102
RTVSPost2010Prop34
280
     0
102
RTVSPost2010PropOp34
 70
     1
102
RTVSPost2010Prop35
280
     0
102
RTVSPost2010PropOp35
 70
     1
102
RTVSPost2010Prop36
280
     0
102
RTVSPost2010PropOp36
 70
     1
102
RTVSPost2010Prop37
 90
       50
102
RTVSPost2010PropOp37
 70
     1
102
RTVSPost2010Prop38
140
0.0
102
RTVSPost2010PropOp38
 70
     1
102
RTVSPost2010Prop39
140
1.0
102
RTVSPost2010PropOp39
 70
     1
102
RTVSPost2010Prop40
 90
        0
102
RTVSPost2010PropOp40
 70
     1
102
RTVSPost2010Prop41ColorIndex
 90
       18
102
RTVSPost2010Prop41ColorRGB
 90
        0
102
RTVSPost2010PropOp41
 70
     1
102
RTVSPost2010Prop42
 90
       50
102
RTVSPost2010PropOp42
 70
     1
102
RTVSPost2010Prop43
 90
        3
102
RTVSPost2010PropOp43
 70
     1
102
RTVSPost2010Prop44ColorIndex
 90
        5
102
RTVSPost2010Prop44ColorRGB
 90
      255
102
RTVSPost2010PropOp44
 70
     1
102
RTVSPost2010Prop45
280
     0
102
RTVSPost2010PropOp45
 70
     1
102
RTVSPost2010Prop46
 90
       50
102
RTVSPost2010PropOp46
 70
     1
102
RTVSPost2010Prop47
 90
       50
102
RTVSPost2010PropOp47
 70
     1
102
RTVSPost2010Prop48
 90
       50
102
RTVSPost2010PropOp48
 70
     1
102
RTVSPost2010Prop49
280
     0
102
RTVSPost2010PropOp49
 70
     1
102
RTVSPost2010Prop50
 90
       50
102
RTVSPost2010PropOp50
 70
     1
102
RTVSPost2010Prop51ColorIndex
 90
      256
102
RTVSPost2010Prop51ColorRGB
 90
-16777216
102
RTVSPost2010PropOp51
 70
     0
102
RTVSPost2010Prop52
140
1.0
102
RTVSPost2010PropOp52
 70
     0
102
RTVSPost2010Prop53
 90
        2
102
RTVSPost2010PropOp53
 70
     1
102
RTVSPost2010Prop54
  1
strokes_ogs.tif
102
RTVSPost2010PropOp54
 70
     1
102
RTVSPost2010Prop55
280
     0
102
RTVSPost2010PropOp55
 70
     1
102
RTVSPost2010Prop56
140
1.0
102
RTVSPost2010PropOp56
 70
     1
102
RTVSPost2010Prop57
140
1.0
102
RTVSPost2010PropOp57
 70
     1
  0
XRECORD
  5
5D4
102
{ACAD_REACTORS
330
5D3
102
}
330
5D3
100
AcDbXrecord
280
     1
102
RTVSPost2010Prop28
280
     0
102
RTVSPost2010PropOp28
 70
     1
102
RTVSPost2010Prop29
280
     1
102
RTVSPost2010PropOp29
 70
     1
102
RTVSPost2010Prop30
280
     1
102
RTVSPost2010PropOp30
 70
     1
102
RTVSPost2010Prop31
280
     0
102
RTVSPost2010PropOp31
 70
     1
102
RTVSPost2010Prop32
280
     0
102
RTVSPost2010PropOp32
 70
     1
102
RTVSPost2010Prop33
280
     0
102
RTVSPost2010PropOp33
 70
     1
102
RTVSPost2010Prop34
280
     0
102
RTVSPost2010PropOp34
 70
     1
102
RTVSPost2010Prop35
280
     0
102
RTVSPost2010PropOp35
 70
     1
102
RTVSPost2010Prop36
280
     0
102
RTVSPost2010PropOp36
 70
     1
102
RTVSPost2010Prop37
 90
       50
102
RTVSPost2010PropOp37
 70
     1
102
RTVSPost2010Prop38
140
0.0
102
RTVSPost2010PropOp38
 70
     1
102
RTVSPost2010Prop39
140
1.0
102
RTVSPost2010PropOp39
 70
     1
102
RTVSPost2010Prop40
 90
        0
102
RTVSPost2010PropOp40
 70
     1
102
RTVSPost2010Prop41ColorIndex
 90
       18
102
RTVSPost2010Prop41ColorRGB
 90
        0
102
RTVSPost2010PropOp41
 70
     1
102
RTVSPost2010Prop42
 90
       50
102
RTVSPost2010PropOp42
 70
     1
102
RTVSPost2010Prop43
 90
        3
102
RTVSPost2010PropOp43
 70
     1
102
RTVSPost2010Prop44ColorIndex
 90
        5
102
RTVSPost2010Prop44ColorRGB
 90
      255
102
RTVSPost2010PropOp44
 70
     1
102
RTVSPost2010Prop45
280
     0
102
RTVSPost2010PropOp45
 70
     1
102
RTVSPost2010Prop46
 90
       50
102
RTVSPost2010PropOp46
 70
     1
102
RTVSPost2010Prop47
 90
       50
102
RTVSPost2010PropOp47
 70
     1
102
RTVSPost2010Prop48
 90
       50
102
RTVSPost2010PropOp48
 70
     1
102
RTVSPost2010Prop49
280
     0
102
RTVSPost2010PropOp49
 70
     1
102
RTVSPost2010Prop50
 90
       50
102
RTVSPost2010PropOp50
 70
     1
102
RTVSPost2010Prop51ColorIndex
 90
      256
102
RTVSPost2010Prop51ColorRGB
 90
-16777216
102
RTVSPost2010PropOp51
 70
     0
102
RTVSPost2010Prop52
140
1.0
102
RTVSPost2010PropOp52
 70
     0
102
RTVSPost2010Prop53
 90
        2
102
RTVSPost2010PropOp53
 70
     1
102
RTVSPost2010Prop54
  1
strokes_ogs.tif
102
RTVSPost2010PropOp54
 70
     1
102
RTVSPost2010Prop55
280
     0
102
RTVSPost2010PropOp55
 70
     1
102
RTVSPost2010Prop56
140
1.0
102
RTVSPost2010PropOp56
 70
     1
102
RTVSPost2010Prop57
140
1.0
102
RTVSPost2010PropOp57
 70
     1
  0
XRECORD
  5
5C6
102
{ACAD_REACTORS
330
5C5
102
}
330
5C5
100
AcDbXrecord
280
     1
102
RTVSPost2010Prop28
280
     0
102
RTVSPost2010PropOp28
 70
     1
102
RTVSPost2010Prop29
280
     1
102
RTVSPost2010PropOp29
 70
     1
102
RTVSPost2010Prop30
280
     1
102
RTVSPost2010PropOp30
 70
     1
102
RTVSPost2010Prop31
280
     0
102
RTVSPost2010PropOp31
 70
     1
102
RTVSPost2010Prop32
280
     0
102
RTVSPost2010PropOp32
 70
     1
102
RTVSPost2010Prop33
280
     0
102
RTVSPost2010PropOp33
 70
     1
102
RTVSPost2010Prop34
280
     0
102
RTVSPost2010PropOp34
 70
     1
102
RTVSPost2010Prop35
280
     0
102
RTVSPost2010PropOp35
 70
     1
102
RTVSPost2010Prop36
280
     0
102
RTVSPost2010PropOp36
 70
     1
102
RTVSPost2010Prop37
 90
       50
102
RTVSPost2010PropOp37
 70
     1
102
RTVSPost2010Prop38
140
0.0
102
RTVSPost2010PropOp38
 70
     1
102
RTVSPost2010Prop39
140
1.0
102
RTVSPost2010PropOp39
 70
     1
102
RTVSPost2010Prop40
 90
        0
102
RTVSPost2010PropOp40
 70
     1
102
RTVSPost2010Prop41ColorIndex
 90
       18
102
RTVSPost2010Prop41ColorRGB
 90
        0
102
RTVSPost2010PropOp41
 70
     1
102
RTVSPost2010Prop42
 90
       50
102
RTVSPost2010PropOp42
 70
     1
102
RTVSPost2010Prop43
 90
        3
102
RTVSPost2010PropOp43
 70
     1
102
RTVSPost2010Prop44ColorIndex
 90
        5
102
RTVSPost2010Prop44ColorRGB
 90
      255
102
RTVSPost2010PropOp44
 70
     1
102
RTVSPost2010Prop45
280
     0
102
RTVSPost2010PropOp45
 70
     1
102
RTVSPost2010Prop46
 90
       50
102
RTVSPost2010PropOp46
 70
     1
102
RTVSPost2010Prop47
 90
       50
102
RTVSPost2010PropOp47
 70
     1
102
RTVSPost2010Prop48
 90
       50
102
RTVSPost2010PropOp48
 70
     1
102
RTVSPost2010Prop49
280
     0
102
RTVSPost2010PropOp49
 70
     1
102
RTVSPost2010Prop50
 90
       50
102
RTVSPost2010PropOp50
 70
     1
102
RTVSPost2010Prop51ColorIndex
 90
      256
102
RTVSPost2010Prop51ColorRGB
 90
-16777216
102
RTVSPost2010PropOp51
 70
     0
102
RTVSPost2010Prop52
140
1.0
102
RTVSPost2010PropOp52
 70
     0
102
RTVSPost2010Prop53
 90
        2
102
RTVSPost2010PropOp53
 70
     1
102
RTVSPost2010Prop54
  1
strokes_ogs.tif
102
RTVSPost2010PropOp54
 70
     1
102
RTVSPost2010Prop55
280
     0
102
RTVSPost2010PropOp55
 70
     1
102
RTVSPost2010Prop56
140
1.0
102
RTVSPost2010PropOp56
 70
     1
102
RTVSPost2010Prop57
140
1.0
102
RTVSPost2010PropOp57
 70
     1
  0
XRECORD
  5
5CA
102
{ACAD_REACTORS
330
5C9
102
}
330
5C9
100
AcDbXrecord
280
     1
102
RTVSPost2010Prop28
280
     0
102
RTVSPost2010PropOp28
 70
     1
102
RTVSPost2010Prop29
280
     1
102
RTVSPost2010PropOp29
 70
     1
102
RTVSPost2010Prop30
280
     1
102
RTVSPost2010PropOp30
 70
     1
102
RTVSPost2010Prop31
280
     0
102
RTVSPost2010PropOp31
 70
     1
102
RTVSPost2010Prop32
280
     0
102
RTVSPost2010PropOp32
 70
     1
102
RTVSPost2010Prop33
280
     0
102
RTVSPost2010PropOp33
 70
     1
102
RTVSPost2010Prop34
280
     0
102
RTVSPost2010PropOp34
 70
     1
102
RTVSPost2010Prop35
280
     0
102
RTVSPost2010PropOp35
 70
     1
102
RTVSPost2010Prop36
280
     0
102
RTVSPost2010PropOp36
 70
     1
102
RTVSPost2010Prop37
 90
       50
102
RTVSPost2010PropOp37
 70
     1
102
RTVSPost2010Prop38
140
0.0
102
RTVSPost2010PropOp38
 70
     1
102
RTVSPost2010Prop39
140
1.0
102
RTVSPost2010PropOp39
 70
     1
102
RTVSPost2010Prop40
 90
        0
102
RTVSPost2010PropOp40
 70
     1
102
RTVSPost2010Prop41ColorIndex
 90
       18
102
RTVSPost2010Prop41ColorRGB
 90
        0
102
RTVSPost2010PropOp41
 70
     1
102
RTVSPost2010Prop42
 90
       50
102
RTVSPost2010PropOp42
 70
     1
102
RTVSPost2010Prop43
 90
        3
102
RTVSPost2010PropOp43
 70
     1
102
RTVSPost2010Prop44ColorIndex
 90
        5
102
RTVSPost2010Prop44ColorRGB
 90
      255
102
RTVSPost2010PropOp44
 70
     1
102
RTVSPost2010Prop45
280
     0
102
RTVSPost2010PropOp45
 70
     1
102
RTVSPost2010Prop46
 90
       50
102
RTVSPost2010PropOp46
 70
     1
102
RTVSPost2010Prop47
 90
       50
102
RTVSPost2010PropOp47
 70
     1
102
RTVSPost2010Prop48
 90
       50
102
RTVSPost2010PropOp48
 70
     1
102
RTVSPost2010Prop49
280
     0
102
RTVSPost2010PropOp49
 70
     1
102
RTVSPost2010Prop50
 90
       50
102
RTVSPost2010PropOp50
 70
     1
102
RTVSPost2010Prop51ColorIndex
 90
      256
102
RTVSPost2010Prop51ColorRGB
 90
-16777216
102
RTVSPost2010PropOp51
 70
     0
102
RTVSPost2010Prop52
140
1.0
102
RTVSPost2010PropOp52
 70
     0
102
RTVSPost2010Prop53
 90
        2
102
RTVSPost2010PropOp53
 70
     1
102
RTVSPost2010Prop54
  1
strokes_ogs.tif
102
RTVSPost2010PropOp54
 70
     1
102
RTVSPost2010Prop55
280
     0
102
RTVSPost2010PropOp55
 70
     1
102
RTVSPost2010Prop56
140
1.0
102
RTVSPost2010PropOp56
 70
     1
102
RTVSPost2010Prop57
140
1.0
102
RTVSPost2010PropOp57
 70
     1
  0
XRECORD
  5
5E4
102
{ACAD_REACTORS
330
5E3
102
}
330
5E3
100
AcDbXrecord
280
     1
102
RTVSPost2010Prop28
280
     0
102
RTVSPost2010PropOp28
 70
     1
102
RTVSPost2010Prop29
280
     1
102
RTVSPost2010PropOp29
 70
     1
102
RTVSPost2010Prop30
280
     1
102
RTVSPost2010PropOp30
 70
     1
102
RTVSPost2010Prop31
280
     0
102
RTVSPost2010PropOp31
 70
     1
102
RTVSPost2010Prop32
280
     0
102
RTVSPost2010PropOp32
 70
     1
102
RTVSPost2010Prop33
280
     0
102
RTVSPost2010PropOp33
 70
     1
102
RTVSPost2010Prop34
280
     0
102
RTVSPost2010PropOp34
 70
     1
102
RTVSPost2010Prop35
280
     0
102
RTVSPost2010PropOp35
 70
     1
102
RTVSPost2010Prop36
280
     0
102
RTVSPost2010PropOp36
 70
     1
102
RTVSPost2010Prop37
 90
       50
102
RTVSPost2010PropOp37
 70
     0
102
RTVSPost2010Prop38
140
0.0
102
RTVSPost2010PropOp38
 70
     0
102
RTVSPost2010Prop39
140
1.0
102
RTVSPost2010PropOp39
 70
     0
102
RTVSPost2010Prop40
 90
        0
102
RTVSPost2010PropOp40
 70
     0
102
RTVSPost2010Prop41ColorIndex
 90
       18
102
RTVSPost2010Prop41ColorRGB
 90
        0
102
RTVSPost2010PropOp41
 70
     0
102
RTVSPost2010Prop42
 90
       50
102
RTVSPost2010PropOp42
 70
     0
102
RTVSPost2010Prop43
 90
        3
102
RTVSPost2010PropOp43
 70
     0
102
RTVSPost2010Prop44ColorIndex
 90
        5
102
RTVSPost2010Prop44ColorRGB
 90
      255
102
RTVSPost2010PropOp44
 70
     0
102
RTVSPost2010Prop45
280
     0
102
RTVSPost2010PropOp45
 70
     1
102
RTVSPost2010Prop46
 90
       50
102
RTVSPost2010PropOp46
 70
     0
102
RTVSPost2010Prop47
 90
       50
102
RTVSPost2010PropOp47
 70
     0
102
RTVSPost2010Prop48
 90
       50
102
RTVSPost2010PropOp48
 70
     0
102
RTVSPost2010Prop49
280
     0
102
RTVSPost2010PropOp49
 70
     1
102
RTVSPost2010Prop50
 90
       50
102
RTVSPost2010PropOp50
 70
     0
102
RTVSPost2010Prop51ColorIndex
 90
      256
102
RTVSPost2010Prop51ColorRGB
 90
-16777216
102
RTVSPost2010PropOp51
 70
     0
102
RTVSPost2010Prop52
140
1.0
102
RTVSPost2010PropOp52
 70
     0
102
RTVSPost2010Prop53
 90
        2
102
RTVSPost2010PropOp53
 70
     0
102
RTVSPost2010Prop54
  1
strokes_ogs.tif
102
RTVSPost2010PropOp54
 70
     0
102
RTVSPost2010Prop55
280
     0
102
RTVSPost2010PropOp55
 70
     1
102
RTVSPost2010Prop56
140
1.0
102
RTVSPost2010PropOp56
 70
     0
102
RTVSPost2010Prop57
140
1.0
102
RTVSPost2010PropOp57
 70
     0
  0
XRECORD
  5
5D2
102
{ACAD_REACTORS
330
5D1
102
}
330
5D1
100
AcDbXrecord
280
     1
102
RTVSPost2010Prop28
280
     0
102
RTVSPost2010PropOp28
 70
     1
102
RTVSPost2010Prop29
280
     1
102
RTVSPost2010PropOp29
 70
     1
102
RTVSPost2010Prop30
280
     1
102
RTVSPost2010PropOp30
 70
     1
102
RTVSPost2010Prop31
280
     0
102
RTVSPost2010PropOp31
 70
     1
102
RTVSPost2010Prop32
280
     0
102
RTVSPost2010PropOp32
 70
     1
102
RTVSPost2010Prop33
280
     0
102
RTVSPost2010PropOp33
 70
     1
102
RTVSPost2010Prop34
280
     0
102
RTVSPost2010PropOp34
 70
     1
102
RTVSPost2010Prop35
280
     0
102
RTVSPost2010PropOp35
 70
     1
102
RTVSPost2010Prop36
280
     0
102
RTVSPost2010PropOp36
 70
     1
102
RTVSPost2010Prop37
 90
       50
102
RTVSPost2010PropOp37
 70
     1
102
RTVSPost2010Prop38
140
0.0
102
RTVSPost2010PropOp38
 70
     1
102
RTVSPost2010Prop39
140
1.0
102
RTVSPost2010PropOp39
 70
     1
102
RTVSPost2010Prop40
 90
        0
102
RTVSPost2010PropOp40
 70
     1
102
RTVSPost2010Prop41ColorIndex
 90
       18
102
RTVSPost2010Prop41ColorRGB
 90
        0
102
RTVSPost2010PropOp41
 70
     1
102
RTVSPost2010Prop42
 90
       50
102
RTVSPost2010PropOp42
 70
     1
102
RTVSPost2010Prop43
 90
        3
102
RTVSPost2010PropOp43
 70
     1
102
RTVSPost2010Prop44ColorIndex
 90
        5
102
RTVSPost2010Prop44ColorRGB
 90
      255
102
RTVSPost2010PropOp44
 70
     1
102
RTVSPost2010Prop45
280
     0
102
RTVSPost2010PropOp45
 70
     1
102
RTVSPost2010Prop46
 90
       50
102
RTVSPost2010PropOp46
 70
     1
102
RTVSPost2010Prop47
 90
       50
102
RTVSPost2010PropOp47
 70
     1
102
RTVSPost2010Prop48
 90
       50
102
RTVSPost2010PropOp48
 70
     1
102
RTVSPost2010Prop49
280
     0
102
RTVSPost2010PropOp49
 70
     1
102
RTVSPost2010Prop50
 90
       50
102
RTVSPost2010PropOp50
 70
     1
102
RTVSPost2010Prop51ColorIndex
 90
      256
102
RTVSPost2010Prop51ColorRGB
 90
-16777216
102
RTVSPost2010PropOp51
 70
     0
102
RTVSPost2010Prop52
140
1.0
102
RTVSPost2010PropOp52
 70
     0
102
RTVSPost2010Prop53
 90
        2
102
RTVSPost2010PropOp53
 70
     1
102
RTVSPost2010Prop54
  1
strokes_ogs.tif
102
RTVSPost2010PropOp54
 70
     1
102
RTVSPost2010Prop55
280
     0
102
RTVSPost2010PropOp55
 70
     1
102
RTVSPost2010Prop56
140
1.0
102
RTVSPost2010PropOp56
 70
     1
102
RTVSPost2010Prop57
140
1.0
102
RTVSPost2010PropOp57
 70
     1
  0
XRECORD
  5
5B6
102
{ACAD_REACTORS
330
5B5
102
}
330
5B5
100
AcDbXrecord
280
     1
102
RTVSPost2010Prop28
280
     0
102
RTVSPost2010PropOp28
 70
     1
102
RTVSPost2010Prop29
280
     1
102
RTVSPost2010PropOp29
 70
     1
102
RTVSPost2010Prop30
280
     1
102
RTVSPost2010PropOp30
 70
     1
102
RTVSPost2010Prop31
280
     0
102
RTVSPost2010PropOp31
 70
     1
102
RTVSPost2010Prop32
280
     0
102
RTVSPost2010PropOp32
 70
     1
102
RTVSPost2010Prop33
280
     0
102
RTVSPost2010PropOp33
 70
     1
102
RTVSPost2010Prop34
280
     0
102
RTVSPost2010PropOp34
 70
     1
102
RTVSPost2010Prop35
280
     0
102
RTVSPost2010PropOp35
 70
     1
102
RTVSPost2010Prop36
280
     0
102
RTVSPost2010PropOp36
 70
     1
102
RTVSPost2010Prop37
 90
       50
102
RTVSPost2010PropOp37
 70
     1
102
RTVSPost2010Prop38
140
0.0
102
RTVSPost2010PropOp38
 70
     1
102
RTVSPost2010Prop39
140
1.0
102
RTVSPost2010PropOp39
 70
     1
102
RTVSPost2010Prop40
 90
        0
102
RTVSPost2010PropOp40
 70
     1
102
RTVSPost2010Prop41ColorIndex
 90
       18
102
RTVSPost2010Prop41ColorRGB
 90
        0
102
RTVSPost2010PropOp41
 70
     1
102
RTVSPost2010Prop42
 90
       50
102
RTVSPost2010PropOp42
 70
     1
102
RTVSPost2010Prop43
 90
        3
102
RTVSPost2010PropOp43
 70
     1
102
RTVSPost2010Prop44ColorIndex
 90
        5
102
RTVSPost2010Prop44ColorRGB
 90
      255
102
RTVSPost2010PropOp44
 70
     1
102
RTVSPost2010Prop45
280
     0
102
RTVSPost2010PropOp45
 70
     1
102
RTVSPost2010Prop46
 90
       50
102
RTVSPost2010PropOp46
 70
     1
102
RTVSPost2010Prop47
 90
       50
102
RTVSPost2010PropOp47
 70
     1
102
RTVSPost2010Prop48
 90
       50
102
RTVSPost2010PropOp48
 70
     1
102
RTVSPost2010Prop49
280
     0
102
RTVSPost2010PropOp49
 70
     1
102
RTVSPost2010Prop50
 90
       50
102
RTVSPost2010PropOp50
 70
     1
102
RTVSPost2010Prop51ColorIndex
 90
      256
102
RTVSPost2010Prop51ColorRGB
 90
-16777216
102
RTVSPost2010PropOp51
 70
     0
102
RTVSPost2010Prop52
140
1.0
102
RTVSPost2010PropOp52
 70
     0
102
RTVSPost2010Prop53
 90
        2
102
RTVSPost2010PropOp53
 70
     1
102
RTVSPost2010Prop54
  1
strokes_ogs.tif
102
RTVSPost2010PropOp54
 70
     1
102
RTVSPost2010Prop55
280
     0
102
RTVSPost2010PropOp55
 70
     1
102
RTVSPost2010Prop56
140
1.0
102
RTVSPost2010PropOp56
 70
     1
102
RTVSPost2010Prop57
140
1.0
102
RTVSPost2010PropOp57
 70
     1
  0
XRECORD
  5
5B8
102
{ACAD_REACTORS
330
5B7
102
}
330
5B7
100
AcDbXrecord
280
     1
102
RTVSPost2010Prop28
280
     0
102
RTVSPost2010PropOp28
 70
     1
102
RTVSPost2010Prop29
280
     1
102
RTVSPost2010PropOp29
 70
     1
102
RTVSPost2010Prop30
280
     1
102
RTVSPost2010PropOp30
 70
     1
102
RTVSPost2010Prop31
280
     0
102
RTVSPost2010PropOp31
 70
     1
102
RTVSPost2010Prop32
280
     0
102
RTVSPost2010PropOp32
 70
     1
102
RTVSPost2010Prop33
280
     0
102
RTVSPost2010PropOp33
 70
     1
102
RTVSPost2010Prop34
280
     0
102
RTVSPost2010PropOp34
 70
     1
102
RTVSPost2010Prop35
280
     0
102
RTVSPost2010PropOp35
 70
     1
102
RTVSPost2010Prop36
280
     0
102
RTVSPost2010PropOp36
 70
     1
102
RTVSPost2010Prop37
 90
       50
102
RTVSPost2010PropOp37
 70
     1
102
RTVSPost2010Prop38
140
0.0
102
RTVSPost2010PropOp38
 70
     1
102
RTVSPost2010Prop39
140
1.0
102
RTVSPost2010PropOp39
 70
     1
102
RTVSPost2010Prop40
 90
        0
102
RTVSPost2010PropOp40
 70
     1
102
RTVSPost2010Prop41ColorIndex
 90
       18
102
RTVSPost2010Prop41ColorRGB
 90
        0
102
RTVSPost2010PropOp41
 70
     1
102
RTVSPost2010Prop42
 90
       50
102
RTVSPost2010PropOp42
 70
     1
102
RTVSPost2010Prop43
 90
        3
102
RTVSPost2010PropOp43
 70
     1
102
RTVSPost2010Prop44ColorIndex
 90
        5
102
RTVSPost2010Prop44ColorRGB
 90
      255
102
RTVSPost2010PropOp44
 70
     1
102
RTVSPost2010Prop45
280
     0
102
RTVSPost2010PropOp45
 70
     1
102
RTVSPost2010Prop46
 90
       50
102
RTVSPost2010PropOp46
 70
     1
102
RTVSPost2010Prop47
 90
       50
102
RTVSPost2010PropOp47
 70
     1
102
RTVSPost2010Prop48
 90
       50
102
RTVSPost2010PropOp48
 70
     1
102
RTVSPost2010Prop49
280
     0
102
RTVSPost2010PropOp49
 70
     1
102
RTVSPost2010Prop50
 90
       50
102
RTVSPost2010PropOp50
 70
     1
102
RTVSPost2010Prop51ColorIndex
 90
      256
102
RTVSPost2010Prop51ColorRGB
 90
-16777216
102
RTVSPost2010PropOp51
 70
     0
102
RTVSPost2010Prop52
140
1.0
102
RTVSPost2010PropOp52
 70
     0
102
RTVSPost2010Prop53
 90
        2
102
RTVSPost2010PropOp53
 70
     1
102
RTVSPost2010Prop54
  1
strokes_ogs.tif
102
RTVSPost2010PropOp54
 70
     1
102
RTVSPost2010Prop55
280
     0
102
RTVSPost2010PropOp55
 70
     1
102
RTVSPost2010Prop56
140
1.0
102
RTVSPost2010PropOp56
 70
     1
102
RTVSPost2010Prop57
140
1.0
102
RTVSPost2010PropOp57
 70
     1
  0
XRECORD
  5
5BA
102
{ACAD_REACTORS
330
5B9
102
}
330
5B9
100
AcDbXrecord
280
     1
102
RTVSPost2010Prop28
280
     0
102
RTVSPost2010PropOp28
 70
     1
102
RTVSPost2010Prop29
280
     1
102
RTVSPost2010PropOp29
 70
     1
102
RTVSPost2010Prop30
280
     1
102
RTVSPost2010PropOp30
 70
     1
102
RTVSPost2010Prop31
280
     0
102
RTVSPost2010PropOp31
 70
     1
102
RTVSPost2010Prop32
280
     0
102
RTVSPost2010PropOp32
 70
     1
102
RTVSPost2010Prop33
280
     0
102
RTVSPost2010PropOp33
 70
     1
102
RTVSPost2010Prop34
280
     0
102
RTVSPost2010PropOp34
 70
     1
102
RTVSPost2010Prop35
280
     0
102
RTVSPost2010PropOp35
 70
     1
102
RTVSPost2010Prop36
280
     0
102
RTVSPost2010PropOp36
 70
     1
102
RTVSPost2010Prop37
 90
       50
102
RTVSPost2010PropOp37
 70
     1
102
RTVSPost2010Prop38
140
0.0
102
RTVSPost2010PropOp38
 70
     1
102
RTVSPost2010Prop39
140
1.0
102
RTVSPost2010PropOp39
 70
     1
102
RTVSPost2010Prop40
 90
        0
102
RTVSPost2010PropOp40
 70
     1
102
RTVSPost2010Prop41ColorIndex
 90
       18
102
RTVSPost2010Prop41ColorRGB
 90
        0
102
RTVSPost2010PropOp41
 70
     1
102
RTVSPost2010Prop42
 90
       50
102
RTVSPost2010PropOp42
 70
     1
102
RTVSPost2010Prop43
 90
        3
102
RTVSPost2010PropOp43
 70
     1
102
RTVSPost2010Prop44ColorIndex
 90
        5
102
RTVSPost2010Prop44ColorRGB
 90
      255
102
RTVSPost2010PropOp44
 70
     1
102
RTVSPost2010Prop45
280
     0
102
RTVSPost2010PropOp45
 70
     1
102
RTVSPost2010Prop46
 90
       50
102
RTVSPost2010PropOp46
 70
     1
102
RTVSPost2010Prop47
 90
       50
102
RTVSPost2010PropOp47
 70
     1
102
RTVSPost2010Prop48
 90
       50
102
RTVSPost2010PropOp48
 70
     1
102
RTVSPost2010Prop49
280
     0
102
RTVSPost2010PropOp49
 70
     1
102
RTVSPost2010Prop50
 90
       50
102
RTVSPost2010PropOp50
 70
     1
102
RTVSPost2010Prop51ColorIndex
 90
      256
102
RTVSPost2010Prop51ColorRGB
 90
-16777216
102
RTVSPost2010PropOp51
 70
     0
102
RTVSPost2010Prop52
140
1.0
102
RTVSPost2010PropOp52
 70
     0
102
RTVSPost2010Prop53
 90
        2
102
RTVSPost2010PropOp53
 70
     1
102
RTVSPost2010Prop54
  1
strokes_ogs.tif
102
RTVSPost2010PropOp54
 70
     1
102
RTVSPost2010Prop55
280
     0
102
RTVSPost2010PropOp55
 70
     1
102
RTVSPost2010Prop56
140
1.0
102
RTVSPost2010PropOp56
 70
     1
102
RTVSPost2010Prop57
140
1.0
102
RTVSPost2010PropOp57
 70
     1
  0
XRECORD
  5
5BC
102
{ACAD_REACTORS
330
5BB
102
}
330
5BB
100
AcDbXrecord
280
     1
102
RTVSPost2010Prop28
280
     0
102
RTVSPost2010PropOp28
 70
     1
102
RTVSPost2010Prop29
280
     1
102
RTVSPost2010PropOp29
 70
     1
102
RTVSPost2010Prop30
280
     1
102
RTVSPost2010PropOp30
 70
     1
102
RTVSPost2010Prop31
280
     0
102
RTVSPost2010PropOp31
 70
     1
102
RTVSPost2010Prop32
280
     0
102
RTVSPost2010PropOp32
 70
     1
102
RTVSPost2010Prop33
280
     0
102
RTVSPost2010PropOp33
 70
     1
102
RTVSPost2010Prop34
280
     0
102
RTVSPost2010PropOp34
 70
     1
102
RTVSPost2010Prop35
280
     0
102
RTVSPost2010PropOp35
 70
     1
102
RTVSPost2010Prop36
280
     0
102
RTVSPost2010PropOp36
 70
     1
102
RTVSPost2010Prop37
 90
       50
102
RTVSPost2010PropOp37
 70
     1
102
RTVSPost2010Prop38
140
0.0
102
RTVSPost2010PropOp38
 70
     1
102
RTVSPost2010Prop39
140
1.0
102
RTVSPost2010PropOp39
 70
     1
102
RTVSPost2010Prop40
 90
        0
102
RTVSPost2010PropOp40
 70
     1
102
RTVSPost2010Prop41ColorIndex
 90
       18
102
RTVSPost2010Prop41ColorRGB
 90
        0
102
RTVSPost2010PropOp41
 70
     1
102
RTVSPost2010Prop42
 90
       50
102
RTVSPost2010PropOp42
 70
     1
102
RTVSPost2010Prop43
 90
        3
102
RTVSPost2010PropOp43
 70
     1
102
RTVSPost2010Prop44ColorIndex
 90
        5
102
RTVSPost2010Prop44ColorRGB
 90
      255
102
RTVSPost2010PropOp44
 70
     1
102
RTVSPost2010Prop45
280
     0
102
RTVSPost2010PropOp45
 70
     1
102
RTVSPost2010Prop46
 90
       50
102
RTVSPost2010PropOp46
 70
     1
102
RTVSPost2010Prop47
 90
       50
102
RTVSPost2010PropOp47
 70
     1
102
RTVSPost2010Prop48
 90
       50
102
RTVSPost2010PropOp48
 70
     1
102
RTVSPost2010Prop49
280
     0
102
RTVSPost2010PropOp49
 70
     1
102
RTVSPost2010Prop50
 90
       50
102
RTVSPost2010PropOp50
 70
     1
102
RTVSPost2010Prop51ColorIndex
 90
      256
102
RTVSPost2010Prop51ColorRGB
 90
-16777216
102
RTVSPost2010PropOp51
 70
     0
102
RTVSPost2010Prop52
140
1.0
102
RTVSPost2010PropOp52
 70
     0
102
RTVSPost2010Prop53
 90
        2
102
RTVSPost2010PropOp53
 70
     1
102
RTVSPost2010Prop54
  1
strokes_ogs.tif
102
RTVSPost2010PropOp54
 70
     1
102
RTVSPost2010Prop55
280
     0
102
RTVSPost2010PropOp55
 70
     1
102
RTVSPost2010Prop56
140
1.0
102
RTVSPost2010PropOp56
 70
     1
102
RTVSPost2010Prop57
140
1.0
102
RTVSPost2010PropOp57
 70
     1
  0
XRECORD
  5
5C4
102
{ACAD_REACTORS
330
5C3
102
}
330
5C3
100
AcDbXrecord
280
     1
102
RTVSPost2010Prop28
280
     0
102
RTVSPost2010PropOp28
 70
     1
102
RTVSPost2010Prop29
280
     1
102
RTVSPost2010PropOp29
 70
     1
102
RTVSPost2010Prop30
280
     1
102
RTVSPost2010PropOp30
 70
     1
102
RTVSPost2010Prop31
280
     0
102
RTVSPost2010PropOp31
 70
     1
102
RTVSPost2010Prop32
280
     0
102
RTVSPost2010PropOp32
 70
     1
102
RTVSPost2010Prop33
280
     0
102
RTVSPost2010PropOp33
 70
     1
102
RTVSPost2010Prop34
280
     0
102
RTVSPost2010PropOp34
 70
     1
102
RTVSPost2010Prop35
280
     0
102
RTVSPost2010PropOp35
 70
     1
102
RTVSPost2010Prop36
280
     0
102
RTVSPost2010PropOp36
 70
     1
102
RTVSPost2010Prop37
 90
       50
102
RTVSPost2010PropOp37
 70
     1
102
RTVSPost2010Prop38
140
0.0
102
RTVSPost2010PropOp38
 70
     1
102
RTVSPost2010Prop39
140
1.0
102
RTVSPost2010PropOp39
 70
     1
102
RTVSPost2010Prop40
 90
        0
102
RTVSPost2010PropOp40
 70
     1
102
RTVSPost2010Prop41ColorIndex
 90
       18
102
RTVSPost2010Prop41ColorRGB
 90
        0
102
RTVSPost2010PropOp41
 70
     1
102
RTVSPost2010Prop42
 90
       50
102
RTVSPost2010PropOp42
 70
     1
102
RTVSPost2010Prop43
 90
        3
102
RTVSPost2010PropOp43
 70
     1
102
RTVSPost2010Prop44ColorIndex
 90
        5
102
RTVSPost2010Prop44ColorRGB
 90
      255
102
RTVSPost2010PropOp44
 70
     1
102
RTVSPost2010Prop45
280
     0
102
RTVSPost2010PropOp45
 70
     1
102
RTVSPost2010Prop46
 90
       50
102
RTVSPost2010PropOp46
 70
     1
102
RTVSPost2010Prop47
 90
       50
102
RTVSPost2010PropOp47
 70
     1
102
RTVSPost2010Prop48
 90
       50
102
RTVSPost2010PropOp48
 70
     1
102
RTVSPost2010Prop49
280
     0
102
RTVSPost2010PropOp49
 70
     1
102
RTVSPost2010Prop50
 90
       50
102
RTVSPost2010PropOp50
 70
     1
102
RTVSPost2010Prop51ColorIndex
 90
      256
102
RTVSPost2010Prop51ColorRGB
 90
-16777216
102
RTVSPost2010PropOp51
 70
     0
102
RTVSPost2010Prop52
140
1.0
102
RTVSPost2010PropOp52
 70
     0
102
RTVSPost2010Prop53
 90
        2
102
RTVSPost2010PropOp53
 70
     1
102
RTVSPost2010Prop54
  1
strokes_ogs.tif
102
RTVSPost2010PropOp54
 70
     1
102
RTVSPost2010Prop55
280
     0
102
RTVSPost2010PropOp55
 70
     1
102
RTVSPost2010Prop56
140
1.0
102
RTVSPost2010PropOp56
 70
     1
102
RTVSPost2010Prop57
140
1.0
102
RTVSPost2010PropOp57
 70
     1
  0
XRECORD
  5
5E0
102
{ACAD_REACTORS
330
5DF
102
}
330
5DF
100
AcDbXrecord
280
     1
102
RTVSPost2010Prop28
280
     0
102
RTVSPost2010PropOp28
 70
     1
102
RTVSPost2010Prop29
280
     1
102
RTVSPost2010PropOp29
 70
     1
102
RTVSPost2010Prop30
280
     1
102
RTVSPost2010PropOp30
 70
     1
102
RTVSPost2010Prop31
280
     0
102
RTVSPost2010PropOp31
 70
     1
102
RTVSPost2010Prop32
280
     0
102
RTVSPost2010PropOp32
 70
     1
102
RTVSPost2010Prop33
280
     0
102
RTVSPost2010PropOp33
 70
     1
102
RTVSPost2010Prop34
280
     0
102
RTVSPost2010PropOp34
 70
     1
102
RTVSPost2010Prop35
280
     0
102
RTVSPost2010PropOp35
 70
     1
102
RTVSPost2010Prop36
280
     0
102
RTVSPost2010PropOp36
 70
     1
102
RTVSPost2010Prop37
 90
       50
102
RTVSPost2010PropOp37
 70
     0
102
RTVSPost2010Prop38
140
0.0
102
RTVSPost2010PropOp38
 70
     0
102
RTVSPost2010Prop39
140
1.0
102
RTVSPost2010PropOp39
 70
     0
102
RTVSPost2010Prop40
 90
        0
102
RTVSPost2010PropOp40
 70
     0
102
RTVSPost2010Prop41ColorIndex
 90
       18
102
RTVSPost2010Prop41ColorRGB
 90
        0
102
RTVSPost2010PropOp41
 70
     0
102
RTVSPost2010Prop42
 90
       50
102
RTVSPost2010PropOp42
 70
     0
102
RTVSPost2010Prop43
 90
        3
102
RTVSPost2010PropOp43
 70
     0
102
RTVSPost2010Prop44ColorIndex
 90
        5
102
RTVSPost2010Prop44ColorRGB
 90
      255
102
RTVSPost2010PropOp44
 70
     0
102
RTVSPost2010Prop45
280
     0
102
RTVSPost2010PropOp45
 70
     1
102
RTVSPost2010Prop46
 90
       50
102
RTVSPost2010PropOp46
 70
     0
102
RTVSPost2010Prop47
 90
       50
102
RTVSPost2010PropOp47
 70
     0
102
RTVSPost2010Prop48
 90
       50
102
RTVSPost2010PropOp48
 70
     0
102
RTVSPost2010Prop49
280
     0
102
RTVSPost2010PropOp49
 70
     1
102
RTVSPost2010Prop50
 90
       50
102
RTVSPost2010PropOp50
 70
     0
102
RTVSPost2010Prop51ColorIndex
 90
      256
102
RTVSPost2010Prop51ColorRGB
 90
-16777216
102
RTVSPost2010PropOp51
 70
     0
102
RTVSPost2010Prop52
140
1.0
102
RTVSPost2010PropOp52
 70
     0
102
RTVSPost2010Prop53
 90
        2
102
RTVSPost2010PropOp53
 70
     0
102
RTVSPost2010Prop54
  1
strokes_ogs.tif
102
RTVSPost2010PropOp54
 70
     0
102
RTVSPost2010Prop55
280
     0
102
RTVSPost2010PropOp55
 70
     1
102
RTVSPost2010Prop56
140
1.0
102
RTVSPost2010PropOp56
 70
     0
102
RTVSPost2010Prop57
140
1.0
102
RTVSPost2010PropOp57
 70
     0
  0
XRECORD
  5
5D0
102
{ACAD_REACTORS
330
5CF
102
}
330
5CF
100
AcDbXrecord
280
     1
102
RTVSPost2010Prop28
280
     0
102
RTVSPost2010PropOp28
 70
     1
102
RTVSPost2010Prop29
280
     1
102
RTVSPost2010PropOp29
 70
     1
102
RTVSPost2010Prop30
280
     1
102
RTVSPost2010PropOp30
 70
     1
102
RTVSPost2010Prop31
280
     0
102
RTVSPost2010PropOp31
 70
     1
102
RTVSPost2010Prop32
280
     0
102
RTVSPost2010PropOp32
 70
     1
102
RTVSPost2010Prop33
280
     0
102
RTVSPost2010PropOp33
 70
     1
102
RTVSPost2010Prop34
280
     0
102
RTVSPost2010PropOp34
 70
     1
102
RTVSPost2010Prop35
280
     0
102
RTVSPost2010PropOp35
 70
     1
102
RTVSPost2010Prop36
280
     0
102
RTVSPost2010PropOp36
 70
     1
102
RTVSPost2010Prop37
 90
       50
102
RTVSPost2010PropOp37
 70
     1
102
RTVSPost2010Prop38
140
0.0
102
RTVSPost2010PropOp38
 70
     1
102
RTVSPost2010Prop39
140
1.0
102
RTVSPost2010PropOp39
 70
     1
102
RTVSPost2010Prop40
 90
        0
102
RTVSPost2010PropOp40
 70
     1
102
RTVSPost2010Prop41ColorIndex
 90
       18
102
RTVSPost2010Prop41ColorRGB
 90
        0
102
RTVSPost2010PropOp41
 70
     1
102
RTVSPost2010Prop42
 90
       50
102
RTVSPost2010PropOp42
 70
     1
102
RTVSPost2010Prop43
 90
        3
102
RTVSPost2010PropOp43
 70
     1
102
RTVSPost2010Prop44ColorIndex
 90
        5
102
RTVSPost2010Prop44ColorRGB
 90
      255
102
RTVSPost2010PropOp44
 70
     1
102
RTVSPost2010Prop45
280
     0
102
RTVSPost2010PropOp45
 70
     1
102
RTVSPost2010Prop46
 90
       50
102
RTVSPost2010PropOp46
 70
     1
102
RTVSPost2010Prop47
 90
       50
102
RTVSPost2010PropOp47
 70
     1
102
RTVSPost2010Prop48
 90
       50
102
RTVSPost2010PropOp48
 70
     1
102
RTVSPost2010Prop49
280
     0
102
RTVSPost2010PropOp49
 70
     1
102
RTVSPost2010Prop50
 90
       50
102
RTVSPost2010PropOp50
 70
     1
102
RTVSPost2010Prop51ColorIndex
 90
      256
102
RTVSPost2010Prop51ColorRGB
 90
-16777216
102
RTVSPost2010PropOp51
 70
     0
102
RTVSPost2010Prop52
140
1.0
102
RTVSPost2010PropOp52
 70
     0
102
RTVSPost2010Prop53
 90
        2
102
RTVSPost2010PropOp53
 70
     1
102
RTVSPost2010Prop54
  1
strokes_ogs.tif
102
RTVSPost2010PropOp54
 70
     1
102
RTVSPost2010Prop55
280
     0
102
RTVSPost2010PropOp55
 70
     1
102
RTVSPost2010Prop56
140
1.0
102
RTVSPost2010PropOp56
 70
     1
102
RTVSPost2010Prop57
140
1.0
102
RTVSPost2010PropOp57
 70
     1
  0
XRECORD
  5
5E2
102
{ACAD_REACTORS
330
5E1
102
}
330
5E1
100
AcDbXrecord
280
     1
102
RTVSPost2010Prop28
280
     0
102
RTVSPost2010PropOp28
 70
     1
102
RTVSPost2010Prop29
280
     1
102
RTVSPost2010PropOp29
 70
     1
102
RTVSPost2010Prop30
280
     1
102
RTVSPost2010PropOp30
 70
     1
102
RTVSPost2010Prop31
280
     0
102
RTVSPost2010PropOp31
 70
     1
102
RTVSPost2010Prop32
280
     0
102
RTVSPost2010PropOp32
 70
     1
102
RTVSPost2010Prop33
280
     0
102
RTVSPost2010PropOp33
 70
     1
102
RTVSPost2010Prop34
280
     0
102
RTVSPost2010PropOp34
 70
     1
102
RTVSPost2010Prop35
280
     0
102
RTVSPost2010PropOp35
 70
     1
102
RTVSPost2010Prop36
280
     0
102
RTVSPost2010PropOp36
 70
     1
102
RTVSPost2010Prop37
 90
       50
102
RTVSPost2010PropOp37
 70
     0
102
RTVSPost2010Prop38
140
0.0
102
RTVSPost2010PropOp38
 70
     0
102
RTVSPost2010Prop39
140
1.0
102
RTVSPost2010PropOp39
 70
     0
102
RTVSPost2010Prop40
 90
        0
102
RTVSPost2010PropOp40
 70
     0
102
RTVSPost2010Prop41ColorIndex
 90
       18
102
RTVSPost2010Prop41ColorRGB
 90
        0
102
RTVSPost2010PropOp41
 70
     0
102
RTVSPost2010Prop42
 90
       50
102
RTVSPost2010PropOp42
 70
     0
102
RTVSPost2010Prop43
 90
        3
102
RTVSPost2010PropOp43
 70
     0
102
RTVSPost2010Prop44ColorIndex
 90
        5
102
RTVSPost2010Prop44ColorRGB
 90
      255
102
RTVSPost2010PropOp44
 70
     0
102
RTVSPost2010Prop45
280
     0
102
RTVSPost2010PropOp45
 70
     1
102
RTVSPost2010Prop46
 90
       50
102
RTVSPost2010PropOp46
 70
     0
102
RTVSPost2010Prop47
 90
       50
102
RTVSPost2010PropOp47
 70
     0
102
RTVSPost2010Prop48
 90
       50
102
RTVSPost2010PropOp48
 70
     0
102
RTVSPost2010Prop49
280
     0
102
RTVSPost2010PropOp49
 70
     1
102
RTVSPost2010Prop50
 90
       50
102
RTVSPost2010PropOp50
 70
     0
102
RTVSPost2010Prop51ColorIndex
 90
      256
102
RTVSPost2010Prop51ColorRGB
 90
-16777216
102
RTVSPost2010PropOp51
 70
     0
102
RTVSPost2010Prop52
140
1.0
102
RTVSPost2010PropOp52
 70
     0
102
RTVSPost2010Prop53
 90
        2
102
RTVSPost2010PropOp53
 70
     0
102
RTVSPost2010Prop54
  1
strokes_ogs.tif
102
RTVSPost2010PropOp54
 70
     0
102
RTVSPost2010Prop55
280
     0
102
RTVSPost2010PropOp55
 70
     1
102
RTVSPost2010Prop56
140
1.0
102
RTVSPost2010PropOp56
 70
     0
102
RTVSPost2010Prop57
140
1.0
102
RTVSPost2010PropOp57
 70
     0
  0
XRECORD
  5
5C8
102
{ACAD_REACTORS
330
5C7
102
}
330
5C7
100
AcDbXrecord
280
     1
102
RTVSPost2010Prop28
280
     0
102
RTVSPost2010PropOp28
 70
     1
102
RTVSPost2010Prop29
280
     1
102
RTVSPost2010PropOp29
 70
     1
102
RTVSPost2010Prop30
280
     1
102
RTVSPost2010PropOp30
 70
     1
102
RTVSPost2010Prop31
280
     0
102
RTVSPost2010PropOp31
 70
     1
102
RTVSPost2010Prop32
280
     0
102
RTVSPost2010PropOp32
 70
     1
102
RTVSPost2010Prop33
280
     0
102
RTVSPost2010PropOp33
 70
     1
102
RTVSPost2010Prop34
280
     0
102
RTVSPost2010PropOp34
 70
     1
102
RTVSPost2010Prop35
280
     0
102
RTVSPost2010PropOp35
 70
     1
102
RTVSPost2010Prop36
280
     0
102
RTVSPost2010PropOp36
 70
     1
102
RTVSPost2010Prop37
 90
       50
102
RTVSPost2010PropOp37
 70
     1
102
RTVSPost2010Prop38
140
0.0
102
RTVSPost2010PropOp38
 70
     1
102
RTVSPost2010Prop39
140
1.0
102
RTVSPost2010PropOp39
 70
     1
102
RTVSPost2010Prop40
 90
        0
102
RTVSPost2010PropOp40
 70
     1
102
RTVSPost2010Prop41ColorIndex
 90
       18
102
RTVSPost2010Prop41ColorRGB
 90
        0
102
RTVSPost2010PropOp41
 70
     1
102
RTVSPost2010Prop42
 90
       50
102
RTVSPost2010PropOp42
 70
     1
102
RTVSPost2010Prop43
 90
        3
102
RTVSPost2010PropOp43
 70
     1
102
RTVSPost2010Prop44ColorIndex
 90
        5
102
RTVSPost2010Prop44ColorRGB
 90
      255
102
RTVSPost2010PropOp44
 70
     1
102
RTVSPost2010Prop45
280
     0
102
RTVSPost2010PropOp45
 70
     1
102
RTVSPost2010Prop46
 90
       50
102
RTVSPost2010PropOp46
 70
     1
102
RTVSPost2010Prop47
 90
       50
102
RTVSPost2010PropOp47
 70
     1
102
RTVSPost2010Prop48
 90
       50
102
RTVSPost2010PropOp48
 70
     1
102
RTVSPost2010Prop49
280
     0
102
RTVSPost2010PropOp49
 70
     1
102
RTVSPost2010Prop50
 90
       50
102
RTVSPost2010PropOp50
 70
     1
102
RTVSPost2010Prop51ColorIndex
 90
      256
102
RTVSPost2010Prop51ColorRGB
 90
-16777216
102
RTVSPost2010PropOp51
 70
     0
102
RTVSPost2010Prop52
140
1.0
102
RTVSPost2010PropOp52
 70
     0
102
RTVSPost2010Prop53
 90
        2
102
RTVSPost2010PropOp53
 70
     1
102
RTVSPost2010Prop54
  1
strokes_ogs.tif
102
RTVSPost2010PropOp54
 70
     1
102
RTVSPost2010Prop55
280
     0
102
RTVSPost2010PropOp55
 70
     1
102
RTVSPost2010Prop56
140
1.0
102
RTVSPost2010PropOp56
 70
     1
102
RTVSPost2010Prop57
140
1.0
102
RTVSPost2010PropOp57
 70
     1
  0
XRECORD
  5
5DE
102
{ACAD_REACTORS
330
5DD
102
}
330
5DD
100
AcDbXrecord
280
     1
102
RTVSPost2010Prop28
280
     0
102
RTVSPost2010PropOp28
 70
     1
102
RTVSPost2010Prop29
280
     1
102
RTVSPost2010PropOp29
 70
     1
102
RTVSPost2010Prop30
280
     1
102
RTVSPost2010PropOp30
 70
     1
102
RTVSPost2010Prop31
280
     0
102
RTVSPost2010PropOp31
 70
     1
102
RTVSPost2010Prop32
280
     0
102
RTVSPost2010PropOp32
 70
     1
102
RTVSPost2010Prop33
280
     0
102
RTVSPost2010PropOp33
 70
     1
102
RTVSPost2010Prop34
280
     0
102
RTVSPost2010PropOp34
 70
     1
102
RTVSPost2010Prop35
280
     0
102
RTVSPost2010PropOp35
 70
     1
102
RTVSPost2010Prop36
280
     0
102
RTVSPost2010PropOp36
 70
     1
102
RTVSPost2010Prop37
 90
       50
102
RTVSPost2010PropOp37
 70
     1
102
RTVSPost2010Prop38
140
0.0
102
RTVSPost2010PropOp38
 70
     1
102
RTVSPost2010Prop39
140
1.0
102
RTVSPost2010PropOp39
 70
     1
102
RTVSPost2010Prop40
 90
        0
102
RTVSPost2010PropOp40
 70
     1
102
RTVSPost2010Prop41ColorIndex
 90
       18
102
RTVSPost2010Prop41ColorRGB
 90
        0
102
RTVSPost2010PropOp41
 70
     1
102
RTVSPost2010Prop42
 90
       50
102
RTVSPost2010PropOp42
 70
     1
102
RTVSPost2010Prop43
 90
        3
102
RTVSPost2010PropOp43
 70
     1
102
RTVSPost2010Prop44ColorIndex
 90
        5
102
RTVSPost2010Prop44ColorRGB
 90
      255
102
RTVSPost2010PropOp44
 70
     1
102
RTVSPost2010Prop45
280
     0
102
RTVSPost2010PropOp45
 70
     1
102
RTVSPost2010Prop46
 90
       50
102
RTVSPost2010PropOp46
 70
     1
102
RTVSPost2010Prop47
 90
       50
102
RTVSPost2010PropOp47
 70
     1
102
RTVSPost2010Prop48
 90
       50
102
RTVSPost2010PropOp48
 70
     1
102
RTVSPost2010Prop49
280
     0
102
RTVSPost2010PropOp49
 70
     1
102
RTVSPost2010Prop50
 90
       50
102
RTVSPost2010PropOp50
 70
     1
102
RTVSPost2010Prop51ColorIndex
 90
      256
102
RTVSPost2010Prop51ColorRGB
 90
-16777216
102
RTVSPost2010PropOp51
 70
     0
102
RTVSPost2010Prop52
140
1.0
102
RTVSPost2010PropOp52
 70
     0
102
RTVSPost2010Prop53
 90
        2
102
RTVSPost2010PropOp53
 70
     1
102
RTVSPost2010Prop54
  1
strokes_ogs.tif
102
RTVSPost2010PropOp54
 70
     1
102
RTVSPost2010Prop55
280
     0
102
RTVSPost2010PropOp55
 70
     1
102
RTVSPost2010Prop56
140
1.0
102
RTVSPost2010PropOp56
 70
     1
102
RTVSPost2010Prop57
140
1.0
102
RTVSPost2010PropOp57
 70
     1
  0
XRECORD
  5
5DC
102
{ACAD_REACTORS
330
5DB
102
}
330
5DB
100
AcDbXrecord
280
     1
102
RTVSPost2010Prop28
280
     0
102
RTVSPost2010PropOp28
 70
     1
102
RTVSPost2010Prop29
280
     1
102
RTVSPost2010PropOp29
 70
     1
102
RTVSPost2010Prop30
280
     1
102
RTVSPost2010PropOp30
 70
     1
102
RTVSPost2010Prop31
280
     0
102
RTVSPost2010PropOp31
 70
     1
102
RTVSPost2010Prop32
280
     0
102
RTVSPost2010PropOp32
 70
     1
102
RTVSPost2010Prop33
280
     0
102
RTVSPost2010PropOp33
 70
     1
102
RTVSPost2010Prop34
280
     0
102
RTVSPost2010PropOp34
 70
     1
102
RTVSPost2010Prop35
280
     0
102
RTVSPost2010PropOp35
 70
     1
102
RTVSPost2010Prop36
280
     0
102
RTVSPost2010PropOp36
 70
     1
102
RTVSPost2010Prop37
 90
       50
102
RTVSPost2010PropOp37
 70
     1
102
RTVSPost2010Prop38
140
0.0
102
RTVSPost2010PropOp38
 70
     1
102
RTVSPost2010Prop39
140
1.0
102
RTVSPost2010PropOp39
 70
     1
102
RTVSPost2010Prop40
 90
        0
102
RTVSPost2010PropOp40
 70
     1
102
RTVSPost2010Prop41ColorIndex
 90
       18
102
RTVSPost2010Prop41ColorRGB
 90
        0
102
RTVSPost2010PropOp41
 70
     1
102
RTVSPost2010Prop42
 90
       50
102
RTVSPost2010PropOp42
 70
     1
102
RTVSPost2010Prop43
 90
        3
102
RTVSPost2010PropOp43
 70
     1
102
RTVSPost2010Prop44ColorIndex
 90
        5
102
RTVSPost2010Prop44ColorRGB
 90
      255
102
RTVSPost2010PropOp44
 70
     1
102
RTVSPost2010Prop45
280
     0
102
RTVSPost2010PropOp45
 70
     1
102
RTVSPost2010Prop46
 90
       50
102
RTVSPost2010PropOp46
 70
     1
102
RTVSPost2010Prop47
 90
       50
102
RTVSPost2010PropOp47
 70
     1
102
RTVSPost2010Prop48
 90
       50
102
RTVSPost2010PropOp48
 70
     1
102
RTVSPost2010Prop49
280
     0
102
RTVSPost2010PropOp49
 70
     1
102
RTVSPost2010Prop50
 90
       50
102
RTVSPost2010PropOp50
 70
     1
102
RTVSPost2010Prop51ColorIndex
 90
      256
102
RTVSPost2010Prop51ColorRGB
 90
-16777216
102
RTVSPost2010PropOp51
 70
     0
102
RTVSPost2010Prop52
140
1.0
102
RTVSPost2010PropOp52
 70
     0
102
RTVSPost2010Prop53
 90
        2
102
RTVSPost2010PropOp53
 70
     1
102
RTVSPost2010Prop54
  1
strokes_ogs.tif
102
RTVSPost2010PropOp54
 70
     1
102
RTVSPost2010Prop55
280
     0
102
RTVSPost2010PropOp55
 70
     1
102
RTVSPost2010Prop56
140
1.0
102
RTVSPost2010PropOp56
 70
     1
102
RTVSPost2010Prop57
140
1.0
102
RTVSPost2010PropOp57
 70
     1
  0
XRECORD
  5
5D6
102
{ACAD_REACTORS
330
5D5
102
}
330
5D5
100
AcDbXrecord
280
     1
102
RTVSPost2010Prop28
280
     0
102
RTVSPost2010PropOp28
 70
     1
102
RTVSPost2010Prop29
280
     1
102
RTVSPost2010PropOp29
 70
     1
102
RTVSPost2010Prop30
280
     1
102
RTVSPost2010PropOp30
 70
     1
102
RTVSPost2010Prop31
280
     0
102
RTVSPost2010PropOp31
 70
     1
102
RTVSPost2010Prop32
280
     0
102
RTVSPost2010PropOp32
 70
     1
102
RTVSPost2010Prop33
280
     0
102
RTVSPost2010PropOp33
 70
     1
102
RTVSPost2010Prop34
280
     0
102
RTVSPost2010PropOp34
 70
     1
102
RTVSPost2010Prop35
280
     0
102
RTVSPost2010PropOp35
 70
     1
102
RTVSPost2010Prop36
280
     0
102
RTVSPost2010PropOp36
 70
     1
102
RTVSPost2010Prop37
 90
       50
102
RTVSPost2010PropOp37
 70
     1
102
RTVSPost2010Prop38
140
0.0
102
RTVSPost2010PropOp38
 70
     1
102
RTVSPost2010Prop39
140
1.0
102
RTVSPost2010PropOp39
 70
     1
102
RTVSPost2010Prop40
 90
        0
102
RTVSPost2010PropOp40
 70
     1
102
RTVSPost2010Prop41ColorIndex
 90
       18
102
RTVSPost2010Prop41ColorRGB
 90
        0
102
RTVSPost2010PropOp41
 70
     1
102
RTVSPost2010Prop42
 90
       50
102
RTVSPost2010PropOp42
 70
     1
102
RTVSPost2010Prop43
 90
        3
102
RTVSPost2010PropOp43
 70
     1
102
RTVSPost2010Prop44ColorIndex
 90
        5
102
RTVSPost2010Prop44ColorRGB
 90
      255
102
RTVSPost2010PropOp44
 70
     1
102
RTVSPost2010Prop45
280
     0
102
RTVSPost2010PropOp45
 70
     1
102
RTVSPost2010Prop46
 90
       50
102
RTVSPost2010PropOp46
 70
     1
102
RTVSPost2010Prop47
 90
       50
102
RTVSPost2010PropOp47
 70
     1
102
RTVSPost2010Prop48
 90
       50
102
RTVSPost2010PropOp48
 70
     1
102
RTVSPost2010Prop49
280
     0
102
RTVSPost2010PropOp49
 70
     1
102
RTVSPost2010Prop50
 90
       50
102
RTVSPost2010PropOp50
 70
     1
102
RTVSPost2010Prop51ColorIndex
 90
      256
102
RTVSPost2010Prop51ColorRGB
 90
-16777216
102
RTVSPost2010PropOp51
 70
     0
102
RTVSPost2010Prop52
140
1.0
102
RTVSPost2010PropOp52
 70
     0
102
RTVSPost2010Prop53
 90
        2
102
RTVSPost2010PropOp53
 70
     1
102
RTVSPost2010Prop54
  1
strokes_ogs.tif
102
RTVSPost2010PropOp54
 70
     1
102
RTVSPost2010Prop55
280
     0
102
RTVSPost2010PropOp55
 70
     1
102
RTVSPost2010Prop56
140
1.0
102
RTVSPost2010PropOp56
 70
     1
102
RTVSPost2010Prop57
140
1.0
102
RTVSPost2010PropOp57
 70
     1
  0
XRECORD
  5
5D8
102
{ACAD_REACTORS
330
5D7
102
}
330
5D7
100
AcDbXrecord
280
     1
102
RTVSPost2010Prop28
280
     0
102
RTVSPost2010PropOp28
 70
     1
102
RTVSPost2010Prop29
280
     1
102
RTVSPost2010PropOp29
 70
     1
102
RTVSPost2010Prop30
280
     1
102
RTVSPost2010PropOp30
 70
     1
102
RTVSPost2010Prop31
280
     0
102
RTVSPost2010PropOp31
 70
     1
102
RTVSPost2010Prop32
280
     0
102
RTVSPost2010PropOp32
 70
     1
102
RTVSPost2010Prop33
280
     0
102
RTVSPost2010PropOp33
 70
     1
102
RTVSPost2010Prop34
280
     0
102
RTVSPost2010PropOp34
 70
     1
102
RTVSPost2010Prop35
280
     0
102
RTVSPost2010PropOp35
 70
     1
102
RTVSPost2010Prop36
280
     0
102
RTVSPost2010PropOp36
 70
     1
102
RTVSPost2010Prop37
 90
       50
102
RTVSPost2010PropOp37
 70
     1
102
RTVSPost2010Prop38
140
0.0
102
RTVSPost2010PropOp38
 70
     1
102
RTVSPost2010Prop39
140
1.0
102
RTVSPost2010PropOp39
 70
     1
102
RTVSPost2010Prop40
 90
        0
102
RTVSPost2010PropOp40
 70
     1
102
RTVSPost2010Prop41ColorIndex
 90
       18
102
RTVSPost2010Prop41ColorRGB
 90
        0
102
RTVSPost2010PropOp41
 70
     1
102
RTVSPost2010Prop42
 90
       50
102
RTVSPost2010PropOp42
 70
     1
102
RTVSPost2010Prop43
 90
        3
102
RTVSPost2010PropOp43
 70
     1
102
RTVSPost2010Prop44ColorIndex
 90
        5
102
RTVSPost2010Prop44ColorRGB
 90
      255
102
RTVSPost2010PropOp44
 70
     1
102
RTVSPost2010Prop45
280
     0
102
RTVSPost2010PropOp45
 70
     1
102
RTVSPost2010Prop46
 90
       50
102
RTVSPost2010PropOp46
 70
     1
102
RTVSPost2010Prop47
 90
       50
102
RTVSPost2010PropOp47
 70
     1
102
RTVSPost2010Prop48
 90
       50
102
RTVSPost2010PropOp48
 70
     1
102
RTVSPost2010Prop49
280
     0
102
RTVSPost2010PropOp49
 70
     1
102
RTVSPost2010Prop50
 90
       50
102
RTVSPost2010PropOp50
 70
     1
102
RTVSPost2010Prop51ColorIndex
 90
      256
102
RTVSPost2010Prop51ColorRGB
 90
-16777216
102
RTVSPost2010PropOp51
 70
     0
102
RTVSPost2010Prop52
140
1.0
102
RTVSPost2010PropOp52
 70
     0
102
RTVSPost2010Prop53
 90
        2
102
RTVSPost2010PropOp53
 70
     1
102
RTVSPost2010Prop54
  1
strokes_ogs.tif
102
RTVSPost2010PropOp54
 70
     1
102
RTVSPost2010Prop55
280
     0
102
RTVSPost2010PropOp55
 70
     1
102
RTVSPost2010Prop56
140
1.0
102
RTVSPost2010PropOp56
 70
     1
102
RTVSPost2010Prop57
140
1.0
102
RTVSPost2010PropOp57
 70
     1
  0
XRECORD
  5
5CE
102
{ACAD_REACTORS
330
5CD
102
}
330
5CD
100
AcDbXrecord
280
     1
102
RTVSPost2010Prop28
280
     0
102
RTVSPost2010PropOp28
 70
     1
102
RTVSPost2010Prop29
280
     1
102
RTVSPost2010PropOp29
 70
     1
102
RTVSPost2010Prop30
280
     1
102
RTVSPost2010PropOp30
 70
     1
102
RTVSPost2010Prop31
280
     0
102
RTVSPost2010PropOp31
 70
     1
102
RTVSPost2010Prop32
280
     0
102
RTVSPost2010PropOp32
 70
     1
102
RTVSPost2010Prop33
280
     0
102
RTVSPost2010PropOp33
 70
     1
102
RTVSPost2010Prop34
280
     0
102
RTVSPost2010PropOp34
 70
     1
102
RTVSPost2010Prop35
280
     0
102
RTVSPost2010PropOp35
 70
     1
102
RTVSPost2010Prop36
280
     0
102
RTVSPost2010PropOp36
 70
     1
102
RTVSPost2010Prop37
 90
       50
102
RTVSPost2010PropOp37
 70
     1
102
RTVSPost2010Prop38
140
0.0
102
RTVSPost2010PropOp38
 70
     1
102
RTVSPost2010Prop39
140
1.0
102
RTVSPost2010PropOp39
 70
     1
102
RTVSPost2010Prop40
 90
        0
102
RTVSPost2010PropOp40
 70
     1
102
RTVSPost2010Prop41ColorIndex
 90
       18
102
RTVSPost2010Prop41ColorRGB
 90
        0
102
RTVSPost2010PropOp41
 70
     1
102
RTVSPost2010Prop42
 90
       50
102
RTVSPost2010PropOp42
 70
     1
102
RTVSPost2010Prop43
 90
        3
102
RTVSPost2010PropOp43
 70
     1
102
RTVSPost2010Prop44ColorIndex
 90
        5
102
RTVSPost2010Prop44ColorRGB
 90
      255
102
RTVSPost2010PropOp44
 70
     1
102
RTVSPost2010Prop45
280
     0
102
RTVSPost2010PropOp45
 70
     1
102
RTVSPost2010Prop46
 90
       50
102
RTVSPost2010PropOp46
 70
     1
102
RTVSPost2010Prop47
 90
       50
102
RTVSPost2010PropOp47
 70
     1
102
RTVSPost2010Prop48
 90
       50
102
RTVSPost2010PropOp48
 70
     1
102
RTVSPost2010Prop49
280
     0
102
RTVSPost2010PropOp49
 70
     1
102
RTVSPost2010Prop50
 90
       50
102
RTVSPost2010PropOp50
 70
     1
102
RTVSPost2010Prop51ColorIndex
 90
      256
102
RTVSPost2010Prop51ColorRGB
 90
-16777216
102
RTVSPost2010PropOp51
 70
     0
102
RTVSPost2010Prop52
140
1.0
102
RTVSPost2010PropOp52
 70
     0
102
RTVSPost2010Prop53
 90
        2
102
RTVSPost2010PropOp53
 70
     1
102
RTVSPost2010Prop54
  1
strokes_ogs.tif
102
RTVSPost2010PropOp54
 70
     1
102
RTVSPost2010Prop55
280
     0
102
RTVSPost2010PropOp55
 70
     1
102
RTVSPost2010Prop56
140
1.0
102
RTVSPost2010PropOp56
 70
     1
102
RTVSPost2010Prop57
140
1.0
102
RTVSPost2010PropOp57
 70
     1
  0
XRECORD
  5
5C2
102
{ACAD_REACTORS
330
5C1
102
}
330
5C1
100
AcDbXrecord
280
     1
102
RTVSPost2010Prop28
280
     0
102
RTVSPost2010PropOp28
 70
     1
102
RTVSPost2010Prop29
280
     1
102
RTVSPost2010PropOp29
 70
     1
102
RTVSPost2010Prop30
280
     1
102
RTVSPost2010PropOp30
 70
     1
102
RTVSPost2010Prop31
280
     0
102
RTVSPost2010PropOp31
 70
     1
102
RTVSPost2010Prop32
280
     0
102
RTVSPost2010PropOp32
 70
     1
102
RTVSPost2010Prop33
280
     0
102
RTVSPost2010PropOp33
 70
     1
102
RTVSPost2010Prop34
280
     0
102
RTVSPost2010PropOp34
 70
     1
102
RTVSPost2010Prop35
280
     0
102
RTVSPost2010PropOp35
 70
     1
102
RTVSPost2010Prop36
280
     0
102
RTVSPost2010PropOp36
 70
     1
102
RTVSPost2010Prop37
 90
       50
102
RTVSPost2010PropOp37
 70
     1
102
RTVSPost2010Prop38
140
0.0
102
RTVSPost2010PropOp38
 70
     1
102
RTVSPost2010Prop39
140
1.0
102
RTVSPost2010PropOp39
 70
     1
102
RTVSPost2010Prop40
 90
        0
102
RTVSPost2010PropOp40
 70
     1
102
RTVSPost2010Prop41ColorIndex
 90
       18
102
RTVSPost2010Prop41ColorRGB
 90
        0
102
RTVSPost2010PropOp41
 70
     1
102
RTVSPost2010Prop42
 90
       50
102
RTVSPost2010PropOp42
 70
     1
102
RTVSPost2010Prop43
 90
        3
102
RTVSPost2010PropOp43
 70
     1
102
RTVSPost2010Prop44ColorIndex
 90
        5
102
RTVSPost2010Prop44ColorRGB
 90
      255
102
RTVSPost2010PropOp44
 70
     1
102
RTVSPost2010Prop45
280
     0
102
RTVSPost2010PropOp45
 70
     1
102
RTVSPost2010Prop46
 90
       50
102
RTVSPost2010PropOp46
 70
     1
102
RTVSPost2010Prop47
 90
       50
102
RTVSPost2010PropOp47
 70
     1
102
RTVSPost2010Prop48
 90
       50
102
RTVSPost2010PropOp48
 70
     1
102
RTVSPost2010Prop49
280
     0
102
RTVSPost2010PropOp49
 70
     1
102
RTVSPost2010Prop50
 90
       50
102
RTVSPost2010PropOp50
 70
     1
102
RTVSPost2010Prop51ColorIndex
 90
      256
102
RTVSPost2010Prop51ColorRGB
 90
-16777216
102
RTVSPost2010PropOp51
 70
     0
102
RTVSPost2010Prop52
140
1.0
102
RTVSPost2010PropOp52
 70
     0
102
RTVSPost2010Prop53
 90
        2
102
RTVSPost2010PropOp53
 70
     1
102
RTVSPost2010Prop54
  1
strokes_ogs.tif
102
RTVSPost2010PropOp54
 70
     1
102
RTVSPost2010Prop55
280
     0
102
RTVSPost2010PropOp55
 70
     1
102
RTVSPost2010Prop56
140
1.0
102
RTVSPost2010PropOp56
 70
     1
102
RTVSPost2010Prop57
140
1.0
102
RTVSPost2010PropOp57
 70
     1
  0
XRECORD
  5
5DA
102
{ACAD_REACTORS
330
5D9
102
}
330
5D9
100
AcDbXrecord
280
     1
102
RTVSPost2010Prop28
280
     0
102
RTVSPost2010PropOp28
 70
     1
102
RTVSPost2010Prop29
280
     1
102
RTVSPost2010PropOp29
 70
     1
102
RTVSPost2010Prop30
280
     1
102
RTVSPost2010PropOp30
 70
     1
102
RTVSPost2010Prop31
280
     0
102
RTVSPost2010PropOp31
 70
     1
102
RTVSPost2010Prop32
280
     0
102
RTVSPost2010PropOp32
 70
     1
102
RTVSPost2010Prop33
280
     0
102
RTVSPost2010PropOp33
 70
     1
102
RTVSPost2010Prop34
280
     0
102
RTVSPost2010PropOp34
 70
     1
102
RTVSPost2010Prop35
280
     0
102
RTVSPost2010PropOp35
 70
     1
102
RTVSPost2010Prop36
280
     0
102
RTVSPost2010PropOp36
 70
     1
102
RTVSPost2010Prop37
 90
       50
102
RTVSPost2010PropOp37
 70
     1
102
RTVSPost2010Prop38
140
0.0
102
RTVSPost2010PropOp38
 70
     1
102
RTVSPost2010Prop39
140
1.0
102
RTVSPost2010PropOp39
 70
     1
102
RTVSPost2010Prop40
 90
        0
102
RTVSPost2010PropOp40
 70
     1
102
RTVSPost2010Prop41ColorIndex
 90
       18
102
RTVSPost2010Prop41ColorRGB
 90
        0
102
RTVSPost2010PropOp41
 70
     1
102
RTVSPost2010Prop42
 90
       50
102
RTVSPost2010PropOp42
 70
     1
102
RTVSPost2010Prop43
 90
        3
102
RTVSPost2010PropOp43
 70
     1
102
RTVSPost2010Prop44ColorIndex
 90
        5
102
RTVSPost2010Prop44ColorRGB
 90
      255
102
RTVSPost2010PropOp44
 70
     1
102
RTVSPost2010Prop45
280
     0
102
RTVSPost2010PropOp45
 70
     1
102
RTVSPost2010Prop46
 90
       50
102
RTVSPost2010PropOp46
 70
     1
102
RTVSPost2010Prop47
 90
       50
102
RTVSPost2010PropOp47
 70
     1
102
RTVSPost2010Prop48
 90
       50
102
RTVSPost2010PropOp48
 70
     1
102
RTVSPost2010Prop49
280
     0
102
RTVSPost2010PropOp49
 70
     1
102
RTVSPost2010Prop50
 90
       50
102
RTVSPost2010PropOp50
 70
     1
102
RTVSPost2010Prop51ColorIndex
 90
      256
102
RTVSPost2010Prop51ColorRGB
 90
-16777216
102
RTVSPost2010PropOp51
 70
     0
102
RTVSPost2010Prop52
140
1.0
102
RTVSPost2010PropOp52
 70
     0
102
RTVSPost2010Prop53
 90
        2
102
RTVSPost2010PropOp53
 70
     1
102
RTVSPost2010Prop54
  1
strokes_ogs.tif
102
RTVSPost2010PropOp54
 70
     1
102
RTVSPost2010Prop55
280
     0
102
RTVSPost2010PropOp55
 70
     1
102
RTVSPost2010Prop56
140
1.0
102
RTVSPost2010PropOp56
 70
     1
102
RTVSPost2010Prop57
140
1.0
102
RTVSPost2010PropOp57
 70
     1
  0
ENDSEC
  0
EOF
