  0
SECTION
  2
HEADER
  9
$ACADVER
  1
AC1024
  9
$ACADMAINTVER
 70
   181
  9
$DWGCODEPAGE
  3
ANSI_932
  9
$LASTSAVEDBY
  1
kenzai
  9
$INSBASE
 10
0.0
 20
0.0
 30
0.0
  9
$EXTMIN
 10
-138.0163109423782
 20
-94.50884959708066
 30
-0.0000000000000053
  9
$EXTMAX
 10
138.51780768614
 20
95.01217699040683
 30
0.0000000000000099
  9
$LIMMIN
 10
-148.0
 20
-104.5
  9
$LIMMAX
 10
149.0
 20
105.5
  9
$ORTHOMODE
 70
     0
  9
$REGENMODE
 70
     1
  9
$FILLMODE
 70
     1
  9
$QTEXTMODE
 70
     0
  9
$MIRRTEXT
 70
     1
  9
$LTSCALE
 40
0.3
  9
$ATTMODE
 70
     1
  9
$TEXTSIZE
 40
2.5
  9
$TRACEWID
 40
1.0
  9
$TEXTSTYLE
  7
Standard
  9
$CLAYER
  8
0
  9
$CELTYPE
  6
ByLayer
  9
$CECOLOR
 62
   256
  9
$CELTSCALE
 40
1.0
  9
$DISPSILH
 70
     0
  9
$DIMSCALE
 40
1.0
  9
$DIMASZ
 40
2.5
  9
$DIMEXO
 40
0.625
  9
$DIMDLI
 40
3.75
  9
$DIMRND
 40
0.0
  9
$DIMDLE
 40
0.0
  9
$DIMEXE
 40
1.25
  9
$DIMTP
 40
0.0
  9
$DIMTM
 40
0.0
  9
$DIMTXT
 40
2.5
  9
$DIMCEN
 40
2.5
  9
$DIMTSZ
 40
0.0
  9
$DIMTOL
 70
     0
  9
$DIMLIM
 70
     0
  9
$DIMTIH
 70
     0
  9
$DIMTOH
 70
     0
  9
$DIMSE1
 70
     0
  9
$DIMSE2
 70
     0
  9
$DIMTAD
 70
     1
  9
$DIMZIN
 70
     8
  9
$DIMBLK
  1

  9
$DIMASO
 70
     1
  9
$DIMSHO
 70
     1
  9
$DIMPOST
  1

  9
$DIMAPOST
  1

  9
$DIMALT
 70
     0
  9
$DIMALTD
 70
     3
  9
$DIMALTF
 40
0.03937007874016
  9
$DIMLFAC
 40
1.0
  9
$DIMTOFL
 70
     1
  9
$DIMTVP
 40
0.0
  9
$DIMTIX
 70
     0
  9
$DIMSOXD
 70
     0
  9
$DIMSAH
 70
     0
  9
$DIMBLK1
  1

  9
$DIMBLK2
  1

  9
$DIMSTYLE
  2
ISO-25
  9
$DIMCLRD
 70
     0
  9
$DIMCLRE
 70
     0
  9
$DIMCLRT
 70
     0
  9
$DIMTFAC
 40
1.0
  9
$DIMGAP
 40
0.625
  9
$DIMJUST
 70
     0
  9
$DIMSD1
 70
     0
  9
$DIMSD2
 70
     0
  9
$DIMTOLJ
 70
     0
  9
$DIMTZIN
 70
     8
  9
$DIMALTZ
 70
     0
  9
$DIMALTTZ
 70
     0
  9
$DIMUPT
 70
     0
  9
$DIMDEC
 70
     2
  9
$DIMTDEC
 70
     2
  9
$DIMALTU
 70
     2
  9
$DIMALTTD
 70
     3
  9
$DIMTXSTY
  7
Standard
  9
$DIMAUNIT
 70
     0
  9
$DIMADEC
 70
     0
  9
$DIMALTRND
 40
0.0
  9
$DIMAZIN
 70
     0
  9
$DIMDSEP
 70
    44
  9
$DIMATFIT
 70
     3
  9
$DIMFRAC
 70
     0
  9
$DIMLDRBLK
  1

  9
$DIMLUNIT
 70
     2
  9
$DIMLWD
 70
    -2
  9
$DIMLWE
 70
    -2
  9
$DIMTMOVE
 70
     0
  9
$DIMFXL
 40
1.0
  9
$DIMFXLON
 70
     0
  9
$DIMJOGANG
 40
0.7853981633974483
  9
$DIMTFILL
 70
     0
  9
$DIMTFILLCLR
 70
     0
  9
$DIMARCSYM
 70
     0
  9
$DIMLTYPE
  6

  9
$DIMLTEX1
  6

  9
$DIMLTEX2
  6

  9
$DIMTXTDIRECTION
 70
     0
  9
$LUNITS
 70
     2
  9
$LUPREC
 70
     4
  9
$SKETCHINC
 40
1.0
  9
$FILLETRAD
 40
10.0
  9
$AUNITS
 70
     0
  9
$AUPREC
 70
     0
  9
$MENU
  1
.
  9
$ELEVATION
 40
0.0
  9
$PELEVATION
 40
0.0
  9
$THICKNESS
 40
0.0
  9
$LIMCHECK
 70
     0
  9
$CHAMFERA
 40
10.0
  9
$CHAMFERB
 40
10.0
  9
$CHAMFERC
 40
20.0
  9
$CHAMFERD
 40
0.0
  9
$SKPOLY
 70
     0
  9
$TDCREATE
 40
2454600.732849745
  9
$TDUCREATE
 40
2454600.357849745
  9
$TDUPDATE
 40
2457291.672934896
  9
$TDUUPDATE
 40
2457291.297934896
  9
$TDINDWG
 40
0.0687876505
  9
$TDUSRTIMER
 40
0.0687787731
  9
$USRTIMER
 70
     1
  9
$ANGBASE
 50
0.0
  9
$ANGDIR
 70
     0
  9
$PDMODE
 70
     0
  9
$PDSIZE
 40
0.0
  9
$PLINEWID
 40
0.0
  9
$SPLFRAME
 70
     0
  9
$SPLINETYPE
 70
     6
  9
$SPLINESEGS
 70
     8
  9
$HANDSEED
  5
A39
  9
$SURFTAB1
 70
     6
  9
$SURFTAB2
 70
     6
  9
$SURFTYPE
 70
     6
  9
$SURFU
 70
     6
  9
$SURFV
 70
     6
  9
$UCSBASE
  2

  9
$UCSNAME
  2

  9
$UCSORG
 10
0.0
 20
0.0
 30
0.0
  9
$UCSXDIR
 10
1.0
 20
0.0
 30
0.0
  9
$UCSYDIR
 10
0.0
 20
1.0
 30
0.0
  9
$UCSORTHOREF
  2

  9
$UCSORTHOVIEW
 70
     0
  9
$UCSORGTOP
 10
0.0
 20
0.0
 30
0.0
  9
$UCSORGBOTTOM
 10
0.0
 20
0.0
 30
0.0
  9
$UCSORGLEFT
 10
0.0
 20
0.0
 30
0.0
  9
$UCSORGRIGHT
 10
0.0
 20
0.0
 30
0.0
  9
$UCSORGFRONT
 10
0.0
 20
0.0
 30
0.0
  9
$UCSORGBACK
 10
0.0
 20
0.0
 30
0.0
  9
$PUCSBASE
  2

  9
$PUCSNAME
  2

  9
$PUCSORG
 10
0.0
 20
0.0
 30
0.0
  9
$PUCSXDIR
 10
1.0
 20
0.0
 30
0.0
  9
$PUCSYDIR
 10
0.0
 20
1.0
 30
0.0
  9
$PUCSORTHOREF
  2

  9
$PUCSORTHOVIEW
 70
     0
  9
$PUCSORGTOP
 10
0.0
 20
0.0
 30
0.0
  9
$PUCSORGBOTTOM
 10
0.0
 20
0.0
 30
0.0
  9
$PUCSORGLEFT
 10
0.0
 20
0.0
 30
0.0
  9
$PUCSORGRIGHT
 10
0.0
 20
0.0
 30
0.0
  9
$PUCSORGFRONT
 10
0.0
 20
0.0
 30
0.0
  9
$PUCSORGBACK
 10
0.0
 20
0.0
 30
0.0
  9
$USERI1
 70
     0
  9
$USERI2
 70
     0
  9
$USERI3
 70
     0
  9
$USERI4
 70
     0
  9
$USERI5
 70
     0
  9
$USERR1
 40
0.0
  9
$USERR2
 40
0.0
  9
$USERR3
 40
0.0
  9
$USERR4
 40
0.0
  9
$USERR5
 40
0.0
  9
$WORLDVIEW
 70
     1
  9
$SHADEDGE
 70
     3
  9
$SHADEDIF
 70
    70
  9
$TILEMODE
 70
     1
  9
$MAXACTVP
 70
    64
  9
$PINSBASE
 10
0.0
 20
0.0
 30
0.0
  9
$PLIMCHECK
 70
     0
  9
$PEXTMIN
 10
1.000000000000000E+20
 20
1.000000000000000E+20
 30
1.000000000000000E+20
  9
$PEXTMAX
 10
-1.000000000000000E+20
 20
-1.000000000000000E+20
 30
-1.000000000000000E+20
  9
$PLIMMIN
 10
-148.0
 20
-104.5
  9
$PLIMMAX
 10
149.0
 20
105.5
  9
$UNITMODE
 70
     0
  9
$VISRETAIN
 70
     1
  9
$PLINEGEN
 70
     0
  9
$PSLTSCALE
 70
     1
  9
$TREEDEPTH
 70
  3020
  9
$CMLSTYLE
  2
Standard
  9
$CMLJUST
 70
     0
  9
$CMLSCALE
 40
20.0
  9
$PROXYGRAPHICS
 70
     1
  9
$MEASUREMENT
 70
     1
  9
$CELWEIGHT
370
    -1
  9
$ENDCAPS
280
     0
  9
$JOINSTYLE
280
     0
  9
$LWDISPLAY
290
     0
  9
$INSUNITS
 70
     4
  9
$HYPERLINKBASE
  1

  9
$STYLESHEET
  1
MONOCHROME.CTB
  9
$XEDIT
290
     1
  9
$CEPSNTYPE
380
     0
  9
$PSTYLEMODE
290
     1
  9
$FINGERPRINTGUID
  2
{A793E9FE-36C7-4768-A441-255B19A93AA8}
  9
$VERSIONGUID
  2
{D43611F9-93D4-4993-9D16-F88204AF805C}
  9
$EXTNAMES
290
     1
  9
$PSVPSCALE
 40
0.0
  9
$OLESTARTUP
290
     0
  9
$SORTENTS
280
   127
  9
$INDEXCTL
280
     0
  9
$HIDETEXT
280
     0
  9
$XCLIPFRAME
280
     2
  9
$HALOGAP
280
     0
  9
$OBSCOLOR
 70
   257
  9
$OBSLTYPE
280
     0
  9
$INTERSECTIONDISPLAY
280
     0
  9
$INTERSECTIONCOLOR
 70
   257
  9
$DIMASSOC
280
     1
  9
$PROJECTNAME
  1

  9
$CAMERADISPLAY
290
     0
  9
$LENSLENGTH
 40
50.0
  9
$CAMERAHEIGHT
 40
0.0
  9
$STEPSPERSEC
 40
2.0
  9
$STEPSIZE
 40
6.0
  9
$3DDWFPREC
 40
2.0
  9
$PSOLWIDTH
 40
0.25
  9
$PSOLHEIGHT
 40
4.0
  9
$LOFTANG1
 40
1.570796326794896
  9
$LOFTANG2
 40
1.570796326794896
  9
$LOFTMAG1
 40
0.0
  9
$LOFTMAG2
 40
0.0
  9
$LOFTPARAM
 70
     7
  9
$LOFTNORMALS
280
     1
  9
$LATITUDE
 40
37.795
  9
$LONGITUDE
 40
-122.394
  9
$NORTHDIRECTION
 40
0.0
  9
$TIMEZONE
 70
 -8000
  9
$LIGHTGLYPHDISPLAY
280
     1
  9
$TILEMODELIGHTSYNCH
280
     1
  9
$CMATERIAL
347
956
  9
$SOLIDHIST
280
     0
  9
$SHOWHIST
280
     1
  9
$DWFFRAME
280
     2
  9
$DGNFRAME
280
     0
  9
$REALWORLDSCALE
290
     1
  9
$INTERFERECOLOR
 62
     1
  9
$INTERFEREOBJVS
345
978
  9
$INTERFEREVPVS
346
975
  9
$CSHADOW
280
     0
  9
$SHADOWPLANELOCATION
 40
0.0
  0
ENDSEC
  0
SECTION
  2
CLASSES
  0
CLASS
  1
ACDBDICTIONARYWDFLT
  2
AcDbDictionaryWithDefault
  3
ObjectDBX Classes
 90
        0
 91
        1
280
     0
281
     0
  0
CLASS
  1
TABLESTYLE
  2
AcDbTableStyle
  3
ObjectDBX Classes
 90
     4095
 91
        1
280
     0
281
     0
  0
CLASS
  1
DICTIONARYVAR
  2
AcDbDictionaryVar
  3
ObjectDBX Classes
 90
        0
 91
       19
280
     0
281
     0
  0
CLASS
  1
SORTENTSTABLE
  2
AcDbSortentsTable
  3
ObjectDBX Classes
 90
        0
 91
        2
280
     0
281
     0
  0
CLASS
  1
MATERIAL
  2
AcDbMaterial
  3
ObjectDBX Classes
 90
     1153
 91
        3
280
     0
281
     0
  0
CLASS
  1
VISUALSTYLE
  2
AcDbVisualStyle
  3
ObjectDBX Classes
 90
     4095
 91
       24
280
     0
281
     0
  0
CLASS
  1
SCALE
  2
AcDbScale
  3
ObjectDBX Classes
 90
     1153
 91
       17
280
     0
281
     0
  0
CLASS
  1
MLEADERSTYLE
  2
AcDbMLeaderStyle
  3
ACDB_MLEADERSTYLE_CLASS
 90
     4095
 91
        1
280
     0
281
     0
  0
CLASS
  1
ACDBSECTIONVIEWSTYLE
  2
AcDbSectionViewStyle
  3
ObjectDBX Classes
 90
     1025
 91
        1
280
     0
281
     0
  0
CLASS
  1
ACDBDETAILVIEWSTYLE
  2
AcDbDetailViewStyle
  3
ObjectDBX Classes
 90
     1025
 91
        1
280
     0
281
     0
  0
CLASS
  1
CELLSTYLEMAP
  2
AcDbCellStyleMap
  3
ObjectDBX Classes
 90
     1152
 91
        1
280
     0
281
     0
  0
ENDSEC
  0
SECTION
  2
TABLES
  0
TABLE
  2
VPORT
  5
8
330
0
100
AcDbSymbolTable
 70
     1
  0
VPORT
  5
94C
330
8
100
AcDbSymbolTableRecord
100
AcDbViewportTableRecord
  2
*Active
 70
     0
 10
0.0
 20
0.0
 11
1.0
 21
1.0
 12
0.2507483718809027
 22
0.251663696663087
 13
0.0
 23
0.0
 14
10.0
 24
10.0
 15
10.0
 25
10.0
 16
0.0
 26
0.0
 36
1.0
 17
0.0
 27
0.0
 37
0.0
 40
190.9077658064203
 41
1.905982905982905
 42
50.0
 43
0.0
 44
0.0
 50
0.0
 51
0.0
 71
     0
 72
   100
 73
     1
 74
     3
 75
     0
 76
     0
 77
     0
 78
     0
281
     0
 65
     1
110
0.0
120
0.0
130
0.0
111
1.0
121
0.0
131
0.0
112
0.0
122
1.0
132
0.0
 79
     0
146
0.0
348
974
 60
     3
 61
     5
292
     1
282
     1
141
0.0
142
0.0
 63
   250
421
  3355443
1001
ACAD_NAV_VCDISPLAY
1070
     3
  0
ENDTAB
  0
TABLE
  2
LTYPE
  5
5
330
0
100
AcDbSymbolTable
 70
     7
  0
LTYPE
  5
14
330
5
100
AcDbSymbolTableRecord
100
AcDbLinetypeTableRecord
  2
ByBlock
 70
     0
  3

 72
    65
 73
     0
 40
0.0
  0
LTYPE
  5
15
330
5
100
AcDbSymbolTableRecord
100
AcDbLinetypeTableRecord
  2
ByLayer
 70
     0
  3

 72
    65
 73
     0
 40
0.0
  0
LTYPE
  5
16
330
5
100
AcDbSymbolTableRecord
100
AcDbLinetypeTableRecord
  2
Continuous
 70
     0
  3
Solid line
 72
    65
 73
     0
 40
0.0
  0
LTYPE
  5
2A
330
5
100
AcDbSymbolTableRecord
100
AcDbLinetypeTableRecord
  2
CONTINOUS
 70
     0
  3
______________________________
 72
    65
 73
     0
 40
0.0
  0
LTYPE
  5
2B
330
5
100
AcDbSymbolTableRecord
100
AcDbLinetypeTableRecord
  2
DASHED
 70
     0
  3
__ __ __ __ __ __ __ __ __ __ __ __ __ __ __ __
 72
    65
 73
     2
 40
4.5
 49
3.0
 74
     0
 49
-1.5
 74
     0
  0
LTYPE
  5
2C
330
5
100
AcDbSymbolTableRecord
100
AcDbLinetypeTableRecord
  2
PHANTOM
 70
     0
  3
______  __  __  ______  __  __  _____
 72
    65
 73
     6
 40
15.0
 49
7.5
 74
     0
 49
-1.5
 74
     0
 49
1.5
 74
     0
 49
-1.5
 74
     0
 49
1.5
 74
     0
 49
-1.5
 74
     0
  0
LTYPE
  5
2D
330
5
100
AcDbSymbolTableRecord
100
AcDbLinetypeTableRecord
  2
CENTER
 70
     0
  3
____ _ ____ _ ____ _ ____ _ ____ _ ____
 72
    65
 73
     4
 40
12.0
 49
7.5
 74
     0
 49
-1.5
 74
     0
 49
1.5
 74
     0
 49
-1.5
 74
     0
  0
LTYPE
  5
2C4
330
5
100
AcDbSymbolTableRecord
100
AcDbLinetypeTableRecord
  2
CENTER2
 70
     0
  3
Center (.5x) ___ _ ___ _ ___ _ ___ _ ___ _ ___
 72
    65
 73
     4
 40
28.575
 49
19.05
 74
     0
 49
-3.174999999999998
 74
     0
 49
3.174999999999998
 74
     0
 49
-3.174999999999998
 74
     0
  0
LTYPE
  5
2C5
330
5
100
AcDbSymbolTableRecord
100
AcDbLinetypeTableRecord
  2
HIDDEN2
 70
     0
  3
Hidden (.5x) _ _ _ _ _ _ _ _ _ _ _ _ _ _ _ _ _
 72
    65
 73
     2
 40
4.762499999999998
 49
3.174999999999998
 74
     0
 49
-1.587499999999999
 74
     0
  0
ENDTAB
  0
TABLE
  2
LAYER
  5
2
330
0
100
AcDbSymbolTable
 70
    10
  0
LAYER
  5
10
102
{ACAD_XDICTIONARY
360
9AC
102
}
330
2
100
AcDbSymbolTableRecord
100
AcDbLayerTableRecord
  2
0
 70
     0
 62
     7
  6
Continuous
370
    -3
390
F
347
966
  0
LAYER
  5
244
330
2
100
AcDbSymbolTableRecord
100
AcDbLayerTableRecord
  2
Defpoints
 70
     0
 62
     7
  6
Continuous
290
     0
370
    -3
390
F
347
966
  0
LAYER
  5
2A4
102
{ACAD_XDICTIONARY
360
9AE
102
}
330
2
100
AcDbSymbolTableRecord
100
AcDbLayerTableRecord
  2
VIEW0001
 70
     0
 62
     7
  6
Continuous
370
    -3
390
F
347
966
  0
LAYER
  5
2C6
102
{ACAD_XDICTIONARY
360
9B0
102
}
330
2
100
AcDbSymbolTableRecord
100
AcDbLayerTableRecord
  2
外形線
 70
     0
 62
     7
  6
Continuous
370
    30
390
F
347
966
1001
AcAecLayerStandard
1000

1000

  0
LAYER
  5
2C7
102
{ACAD_XDICTIONARY
360
9B2
102
}
330
2
100
AcDbSymbolTableRecord
100
AcDbLayerTableRecord
  2
図枠
 70
     0
 62
     7
  6
Continuous
370
    50
390
F
347
966
1001
AcAecLayerStandard
1000

1000

  0
LAYER
  5
2C8
102
{ACAD_XDICTIONARY
360
9B4
102
}
330
2
100
AcDbSymbolTableRecord
100
AcDbLayerTableRecord
  2
寸法線
 70
     0
 62
     3
  6
Continuous
370
    15
390
F
347
966
1001
AcAecLayerStandard
1000

1000

  0
LAYER
  5
2C9
102
{ACAD_XDICTIONARY
360
9B6
102
}
330
2
100
AcDbSymbolTableRecord
100
AcDbLayerTableRecord
  2
中心線
 70
     0
 62
     5
  6
CENTER2
370
    -3
390
F
347
966
1001
AcAecLayerStandard
1000

1000

  0
LAYER
  5
2CA
102
{ACAD_XDICTIONARY
360
9B8
102
}
330
2
100
AcDbSymbolTableRecord
100
AcDbLayerTableRecord
  2
破線
 70
     0
 62
     4
  6
HIDDEN2
370
    -3
390
F
347
966
1001
AcAecLayerStandard
1000

1000

  0
LAYER
  5
2CB
102
{ACAD_XDICTIONARY
360
9BA
102
}
330
2
100
AcDbSymbolTableRecord
100
AcDbLayerTableRecord
  2
文字
 70
     0
 62
     2
  6
Continuous
370
    -3
390
F
347
966
1001
AcAecLayerStandard
1000

1000

  0
LAYER
  5
2CC
102
{ACAD_XDICTIONARY
360
9BC
102
}
330
2
100
AcDbSymbolTableRecord
100
AcDbLayerTableRecord
  2
補助線
 70
     0
 62
   252
  6
HIDDEN2
290
     0
370
    -3
390
F
347
966
1001
AcAecLayerStandard
1000

1000

  0
ENDTAB
  0
TABLE
  2
STYLE
  5
3
330
0
100
AcDbSymbolTable
 70
     1
  0
STYLE
  5
11
330
3
100
AcDbSymbolTableRecord
100
AcDbTextStyleTableRecord
  2
Standard
 70
     0
 40
0.0
 41
1.0
 50
0.0
 71
     0
 42
2.5
  3
txt
  4
EXTFONT
  0
ENDTAB
  0
TABLE
  2
VIEW
  5
6
330
0
100
AcDbSymbolTable
 70
     0
  0
ENDTAB
  0
TABLE
  2
UCS
  5
7
330
0
100
AcDbSymbolTable
 70
     0
  0
ENDTAB
  0
TABLE
  2
APPID
  5
9
330
0
100
AcDbSymbolTable
 70
     4
  0
APPID
  5
12
330
9
100
AcDbSymbolTableRecord
100
AcDbRegAppTableRecord
  2
ACAD
 70
     0
  0
APPID
  5
2CE
330
9
100
AcDbSymbolTableRecord
100
AcDbRegAppTableRecord
  2
AcAecLayerStandard
 70
     0
  0
APPID
  5
4C2
330
9
100
AcDbSymbolTableRecord
100
AcDbRegAppTableRecord
  2
ACAD_PSEXT
 70
     0
  0
APPID
  5
9A3
330
9
100
AcDbSymbolTableRecord
100
AcDbRegAppTableRecord
  2
ACAD_NAV_VCDISPLAY
 70
     0
  0
ENDTAB
  0
TABLE
  2
DIMSTYLE
  5
A
330
0
100
AcDbSymbolTable
 70
     2
100
AcDbDimStyleTable
 71
     1
340
27
  0
DIMSTYLE
105
27
102
{ACAD_REACTORS
330
23D
330
258
330
26A
330
27C
330
290
330
7D8
330
7D9
330
7DA
330
7DB
330
7DC
102
}
330
A
100
AcDbSymbolTableRecord
100
AcDbDimStyleTableRecord
  2
ISO-25
 70
     0
 41
2.5
 42
0.625
 43
3.75
 44
1.25
 73
     0
 74
     0
 77
     1
 78
     8
140
2.5
141
2.5
143
0.03937007874016
147
0.625
171
     3
172
     1
271
     2
272
     2
274
     3
278
    44
283
     0
284
     8
340
11
  0
DIMSTYLE
105
2CD
330
A
100
AcDbSymbolTableRecord
100
AcDbDimStyleTableRecord
  2
Standard
 70
     0
340
11
  0
ENDTAB
  0
TABLE
  2
BLOCK_RECORD
  5
1
330
0
100
AcDbSymbolTable
 70
    18
  0
BLOCK_RECORD
  5
1F
102
{ACAD_XDICTIONARY
360
35D
102
}
330
1
100
AcDbSymbolTableRecord
100
AcDbBlockTableRecord
  2
*Model_Space
340
22
 70
     0
280
     1
281
     0
  0
BLOCK_RECORD
  5
1B
330
1
100
AcDbSymbolTableRecord
100
AcDbBlockTableRecord
  2
*Paper_Space
340
1E
 70
     0
280
     1
281
     0
  0
BLOCK_RECORD
  5
23
330
1
100
AcDbSymbolTableRecord
100
AcDbBlockTableRecord
  2
*Paper_Space0
340
26
 70
     0
280
     1
281
     0
  0
BLOCK_RECORD
  5
23E
330
1
100
AcDbSymbolTableRecord
100
AcDbBlockTableRecord
  2
_Open30
340
0
102
{BLKREFS
331
525
331
526
331
538
331
539
331
54B
331
54C
331
55E
331
55F
331
570
331
571
331
847
331
848
331
84F
331
850
331
857
331
858
331
860
331
861
331
869
331
86A
331
8B7
331
8B8
331
8C0
331
8C1
331
8C9
331
8CA
331
906
331
907
331
918
331
919
102
}
 70
     0
280
     1
281
     0
  0
BLOCK_RECORD
  5
245
330
1
100
AcDbSymbolTableRecord
100
AcDbBlockTableRecord
  2
*D2
340
0
 70
     0
280
     1
281
     0
  0
BLOCK_RECORD
  5
259
330
1
100
AcDbSymbolTableRecord
100
AcDbBlockTableRecord
  2
*D3
340
0
 70
     0
280
     1
281
     0
  0
BLOCK_RECORD
  5
26B
330
1
100
AcDbSymbolTableRecord
100
AcDbBlockTableRecord
  2
*D4
340
0
 70
     0
280
     1
281
     0
  0
BLOCK_RECORD
  5
27D
330
1
100
AcDbSymbolTableRecord
100
AcDbBlockTableRecord
  2
*D5
340
0
 70
     0
280
     1
281
     0
  0
BLOCK_RECORD
  5
291
330
1
100
AcDbSymbolTableRecord
100
AcDbBlockTableRecord
  2
*D6
340
0
 70
     0
280
     1
281
     0
  0
BLOCK_RECORD
  5
520
330
1
100
AcDbSymbolTableRecord
100
AcDbBlockTableRecord
  2
*D7
340
0
 70
     0
280
     1
281
     0
  0
BLOCK_RECORD
  5
533
330
1
100
AcDbSymbolTableRecord
100
AcDbBlockTableRecord
  2
*D8
340
0
 70
     0
280
     1
281
     0
  0
BLOCK_RECORD
  5
546
330
1
100
AcDbSymbolTableRecord
100
AcDbBlockTableRecord
  2
*D9
340
0
 70
     0
280
     1
281
     0
  0
BLOCK_RECORD
  5
559
330
1
100
AcDbSymbolTableRecord
100
AcDbBlockTableRecord
  2
*D10
340
0
 70
     0
280
     1
281
     0
  0
BLOCK_RECORD
  5
56C
330
1
100
AcDbSymbolTableRecord
100
AcDbBlockTableRecord
  2
*D11
340
0
 70
     0
280
     1
281
     0
  0
BLOCK_RECORD
  5
7DD
330
1
100
AcDbSymbolTableRecord
100
AcDbBlockTableRecord
  2
*D12
340
0
 70
     0
280
     1
281
     0
  0
BLOCK_RECORD
  5
7E9
330
1
100
AcDbSymbolTableRecord
100
AcDbBlockTableRecord
  2
*D13
340
0
 70
     0
280
     1
281
     0
  0
BLOCK_RECORD
  5
7F5
330
1
100
AcDbSymbolTableRecord
100
AcDbBlockTableRecord
  2
*D14
340
0
 70
     0
280
     1
281
     0
  0
BLOCK_RECORD
  5
801
330
1
100
AcDbSymbolTableRecord
100
AcDbBlockTableRecord
  2
*D15
340
0
 70
     0
280
     1
281
     0
  0
BLOCK_RECORD
  5
80D
330
1
100
AcDbSymbolTableRecord
100
AcDbBlockTableRecord
  2
*D16
340
0
 70
     0
280
     1
281
     0
  0
ENDTAB
  0
ENDSEC
  0
SECTION
  2
BLOCKS
  0
BLOCK
  5
20
330
1F
100
AcDbEntity
  8
0
100
AcDbBlockBegin
  2
*Model_Space
 70
     0
 10
0.0
 20
0.0
 30
0.0
  3
*Model_Space
  1

  0
ENDBLK
  5
21
330
1F
100
AcDbEntity
  8
0
100
AcDbBlockEnd
  0
BLOCK
  5
1C
330
1B
100
AcDbEntity
 67
     1
  8
0
100
AcDbBlockBegin
  2
*Paper_Space
 70
     0
 10
0.0
 20
0.0
 30
0.0
  3
*Paper_Space
  1

  0
ENDBLK
  5
1D
330
1B
100
AcDbEntity
 67
     1
  8
0
100
AcDbBlockEnd
  0
BLOCK
  5
24
330
23
100
AcDbEntity
 67
     1
  8
0
100
AcDbBlockBegin
  2
*Paper_Space0
 70
     0
 10
0.0
 20
0.0
 30
0.0
  3
*Paper_Space0
  1

  0
ENDBLK
  5
25
330
23
100
AcDbEntity
 67
     1
  8
0
100
AcDbBlockEnd
  0
BLOCK
  5
23F
330
23E
100
AcDbEntity
  8
0
100
AcDbBlockBegin
  2
_Open30
 70
     0
 10
0.0
 20
0.0
 30
0.0
  3
_Open30
  1

  0
LINE
  5
241
330
23E
100
AcDbEntity
  8
0
  6
ByBlock
 62
     0
370
    -2
100
AcDbLine
 10
-1.0
 20
0.267949
 30
0.0
 11
0.0
 21
0.0
 31
0.0
  0
LINE
  5
242
330
23E
100
AcDbEntity
  8
0
  6
ByBlock
 62
     0
370
    -2
100
AcDbLine
 10
0.0
 20
0.0
 30
0.0
 11
-1.0
 21
-0.267949
 31
0.0
  0
LINE
  5
243
330
23E
100
AcDbEntity
  8
0
  6
ByBlock
 62
     0
370
    -2
100
AcDbLine
 10
0.0
 20
0.0
 30
0.0
 11
-1.0
 21
0.0
 31
0.0
  0
ENDBLK
  5
240
330
23E
100
AcDbEntity
  8
0
100
AcDbBlockEnd
  0
BLOCK
  5
24F
330
245
100
AcDbEntity
  8
0
100
AcDbBlockBegin
  2
*D2
 70
     1
 10
0.0
 20
0.0
 30
0.0
  3
*D2
  1

  0
LINE
  5
844
330
245
100
AcDbEntity
  8
寸法線
 62
     0
440
 16777216
370
    -2
100
AcDbLine
 10
-41.50825332536717
 20
62.18106986327696
 30
0.0
 11
-32.3943217169777
 21
62.18106986327696
 31
0.0
  0
LINE
  5
845
330
245
100
AcDbEntity
  8
寸法線
 62
     0
440
 16777216
370
    -2
100
AcDbLine
 10
-41.50825332536717
 20
37.07106376450821
 30
0.0
 11
-32.3943217169777
 21
37.07106376450821
 31
0.0
  0
LINE
  5
846
330
245
100
AcDbEntity
  8
寸法線
 62
     0
440
 16777216
370
    -2
100
AcDbLine
 10
-33.26217888754643
 20
59.18106986327696
 30
0.0
 11
-33.26217888754643
 21
40.07106376450821
 31
0.0
  0
INSERT
  5
847
330
245
100
AcDbEntity
  8
寸法線
 62
     0
440
 16777216
370
    -2
100
AcDbBlockReference
  2
_Open30
 10
-33.26217888754643
 20
62.18106986327696
 30
0.0
 41
3.0
 42
3.0
 43
3.0
 50
90.0
  0
INSERT
  5
848
330
245
100
AcDbEntity
  8
寸法線
 62
     0
440
 16777216
370
    -2
100
AcDbBlockReference
  2
_Open30
 10
-33.26217888754643
 20
37.07106376450821
 30
0.0
 41
3.0
 42
3.0
 43
3.0
 50
270.0
  0
MTEXT
  5
849
330
245
100
AcDbEntity
  8
寸法線
 62
     0
440
 16777216
100
AcDbMText
 10
-35.66217892330923
 20
49.62606681389257
 30
0.0
 40
3.200000047683716
 41
0.0
 46
0.0
 71
     5
 72
     1
  1
∅A
 11
0.0000000000000001
 21
1.0
 31
0.0
 73
     1
 44
1.0
1001
ACAD
1000
MTEXTBEGIN
1070
    73
1070
     1
1070
    44
1040
1.0
1070
    74
1070
     0
1000
MTEXTEND
  0
POINT
  5
84A
330
245
100
AcDbEntity
  8
Defpoints
 62
     0
440
 16777216
100
AcDbPoint
 10
-44.04825332536717
 20
62.18106986327696
 30
0.0
  0
POINT
  5
84B
330
245
100
AcDbEntity
  8
Defpoints
 62
     0
440
 16777216
100
AcDbPoint
 10
-44.04825332536717
 20
37.07106376450821
 30
0.0
  0
POINT
  5
84C
330
245
100
AcDbEntity
  8
Defpoints
 62
     0
440
 16777216
100
AcDbPoint
 10
-33.26217888754643
 20
37.07106376450821
 30
0.0
  0
ENDBLK
  5
250
330
245
100
AcDbEntity
  8
0
100
AcDbBlockEnd
  0
BLOCK
  5
262
330
259
100
AcDbEntity
  8
0
100
AcDbBlockBegin
  2
*D3
 70
     1
 10
0.0
 20
0.0
 30
0.0
  3
*D3
  1

  0
LINE
  5
84D
330
259
100
AcDbEntity
  8
寸法線
 62
     0
440
 16777216
370
    -2
100
AcDbLine
 10
-64.09575264126016
 20
67.4548234818884
 30
0.0
 11
-64.09575264126016
 21
79.05799350005796
 31
0.0
  0
LINE
  5
84E
330
259
100
AcDbEntity
  8
寸法線
 62
     0
440
 16777216
370
    -2
100
AcDbLine
 10
-93.49575146875158
 20
78.1901363294892
 30
0.0
 11
-67.09575264126016
 21
78.1901363294892
 31
0.0
  0
INSERT
  5
84F
330
259
100
AcDbEntity
  8
寸法線
 62
     0
440
 16777216
370
    -2
100
AcDbBlockReference
  2
_Open30
 10
-96.49575146875161
 20
78.1901363294892
 30
0.0
 41
3.0
 42
3.0
 43
3.0
 50
180.0
  0
INSERT
  5
850
330
259
100
AcDbEntity
  8
寸法線
 62
     0
440
 16777216
370
    -2
100
AcDbBlockReference
  2
_Open30
 10
-64.09575264126016
 20
78.1901363294892
 30
0.0
 41
3.0
 42
3.0
 43
3.0
  0
MTEXT
  5
851
330
259
100
AcDbEntity
  8
寸法線
 62
     0
440
 16777216
100
AcDbMText
 10
-80.29575095146842
 20
80.59013636525198
 30
0.0
 40
3.200000047683716
 41
0.0
 46
0.0
 71
     5
 72
     1
  1
L1
 73
     1
 44
1.0
1001
ACAD
1000
MTEXTBEGIN
1070
    73
1070
     1
1070
    44
1040
1.0
1070
    74
1070
     0
1000
MTEXTEND
  0
POINT
  5
852
330
259
100
AcDbEntity
  8
Defpoints
 62
     0
440
 16777216
100
AcDbPoint
 10
-96.49575146875161
 20
63.65932229411995
 30
0.0
  0
POINT
  5
853
330
259
100
AcDbEntity
  8
Defpoints
 62
     0
440
 16777216
100
AcDbPoint
 10
-64.09575264126016
 20
64.91482348188839
 30
0.0
  0
POINT
  5
854
330
259
100
AcDbEntity
  8
Defpoints
 62
     0
440
 16777216
100
AcDbPoint
 10
-64.09575264126016
 20
78.1901363294892
 30
0.0
  0
ENDBLK
  5
263
330
259
100
AcDbEntity
  8
0
100
AcDbBlockEnd
  0
BLOCK
  5
274
330
26B
100
AcDbEntity
  8
0
100
AcDbBlockBegin
  2
*D4
 70
     1
 10
0.0
 20
0.0
 30
0.0
  3
*D4
  1

  0
LINE
  5
855
330
26B
100
AcDbEntity
  8
寸法線
 62
     0
440
 16777216
370
    -2
100
AcDbLine
 10
-60.6532520899225
 20
65.32857826955977
 30
0.0
 11
-60.6532520899225
 21
79.05799350005796
 31
0.0
  0
LINE
  5
856
330
26B
100
AcDbEntity
  8
寸法線
 62
     0
440
 16777216
370
    -2
100
AcDbLine
 10
-57.6532520899225
 20
78.1901363294892
 30
0.0
 11
-47.04825332536714
 21
78.1901363294892
 31
0.0
  0
INSERT
  5
857
330
26B
100
AcDbEntity
  8
寸法線
 62
     0
440
 16777216
370
    -2
100
AcDbBlockReference
  2
_Open30
 10
-60.6532520899225
 20
78.1901363294892
 30
0.0
 41
3.0
 42
3.0
 43
3.0
 50
180.0
  0
INSERT
  5
858
330
26B
100
AcDbEntity
  8
寸法線
 62
     0
440
 16777216
370
    -2
100
AcDbBlockReference
  2
_Open30
 10
-44.04825332536717
 20
78.1901363294892
 30
0.0
 41
3.0
 42
3.0
 43
3.0
  0
MTEXT
  5
859
330
26B
100
AcDbEntity
  8
寸法線
 62
     0
440
 16777216
100
AcDbMText
 10
-52.35075270764482
 20
80.59013636525198
 30
0.0
 40
3.200000047683716
 41
0.0
 46
0.0
 71
     5
 72
     1
  1
L2
 73
     1
 44
1.0
1001
ACAD
1000
MTEXTBEGIN
1070
    73
1070
     1
1070
    44
1040
1.0
1070
    74
1070
     0
1000
MTEXTEND
  0
POINT
  5
85A
330
26B
100
AcDbEntity
  8
Defpoints
 62
     0
440
 16777216
100
AcDbPoint
 10
-60.6532520899225
 20
62.78857826955976
 30
0.0
  0
POINT
  5
85B
330
26B
100
AcDbEntity
  8
Defpoints
 62
     0
440
 16777216
100
AcDbPoint
 10
-44.04825332536717
 20
63.19357872390679
 30
0.0
  0
POINT
  5
85C
330
26B
100
AcDbEntity
  8
Defpoints
 62
     0
440
 16777216
100
AcDbPoint
 10
-44.04825332536717
 20
78.1901363294892
 30
0.0
  0
ENDBLK
  5
275
330
26B
100
AcDbEntity
  8
0
100
AcDbBlockEnd
  0
BLOCK
  5
287
330
27D
100
AcDbEntity
  8
0
100
AcDbBlockBegin
  2
*D5
 70
     1
 10
0.0
 20
0.0
 30
0.0
  3
*D5
  1

  0
LINE
  5
85D
330
27D
100
AcDbEntity
  8
寸法線
 62
     0
440
 16777216
370
    -2
100
AcDbLine
 10
-44.04825332536717
 20
65.73357872390679
 30
0.0
 11
-44.04825332536717
 21
84.95987956584817
 31
0.0
  0
LINE
  5
85E
330
27D
100
AcDbEntity
  8
寸法線
 62
     0
440
 16777216
370
    -2
100
AcDbLine
 10
-96.49575146875161
 20
66.19932229411997
 30
0.0
 11
-96.49575146875161
 21
84.95987956584817
 31
0.0
  0
LINE
  5
85F
330
27D
100
AcDbEntity
  8
寸法線
 62
     0
440
 16777216
370
    -2
100
AcDbLine
 10
-47.04825332536714
 20
84.09202239527941
 30
0.0
 11
-93.49575146875158
 21
84.09202239527941
 31
0.0
  0
INSERT
  5
860
330
27D
100
AcDbEntity
  8
寸法線
 62
     0
440
 16777216
370
    -2
100
AcDbBlockReference
  2
_Open30
 10
-44.04825332536717
 20
84.09202239527941
 30
0.0
 41
3.0
 42
3.0
 43
3.0
  0
INSERT
  5
861
330
27D
100
AcDbEntity
  8
寸法線
 62
     0
440
 16777216
370
    -2
100
AcDbBlockReference
  2
_Open30
 10
-96.49575146875161
 20
84.09202239527941
 30
0.0
 41
3.0
 42
3.0
 43
3.0
 50
180.0
  0
MTEXT
  5
862
330
27D
100
AcDbEntity
  8
寸法線
 62
     0
440
 16777216
100
AcDbMText
 10
-70.2720023970594
 20
86.4920224310422
 30
0.0
 40
3.200000047683716
 41
0.0
 46
0.0
 71
     5
 72
     1
  1
L
 73
     1
 44
1.0
1001
ACAD
1000
MTEXTBEGIN
1070
    73
1070
     1
1070
    44
1040
1.0
1070
    74
1070
     0
1000
MTEXTEND
  0
POINT
  5
863
330
27D
100
AcDbEntity
  8
Defpoints
 62
     0
440
 16777216
100
AcDbPoint
 10
-44.04825332536717
 20
63.19357872390679
 30
0.0
  0
POINT
  5
864
330
27D
100
AcDbEntity
  8
Defpoints
 62
     0
440
 16777216
100
AcDbPoint
 10
-96.49575146875161
 20
63.65932229411995
 30
0.0
  0
POINT
  5
865
330
27D
100
AcDbEntity
  8
Defpoints
 62
     0
440
 16777216
100
AcDbPoint
 10
-96.49575146875161
 20
84.09202239527941
 30
0.0
  0
ENDBLK
  5
288
330
27D
100
AcDbEntity
  8
0
100
AcDbBlockEnd
  0
BLOCK
  5
29B
330
291
100
AcDbEntity
  8
0
100
AcDbBlockBegin
  2
*D6
 70
     1
 10
0.0
 20
0.0
 30
0.0
  3
*D6
  1

  0
LINE
  5
866
330
291
100
AcDbEntity
  8
寸法線
 62
     0
440
 16777216
370
    -2
100
AcDbLine
 10
-95.88660869415877
 20
34.33732118127139
 30
0.0
 11
-105.5195185197597
 21
34.33732118127139
 31
0.0
  0
LINE
  5
867
330
291
100
AcDbEntity
  8
寸法線
 62
     0
440
 16777216
370
    -2
100
AcDbLine
 10
-95.88660869415877
 20
64.91482127481339
 30
0.0
 11
-105.5195185197597
 21
64.91482127481339
 31
0.0
  0
LINE
  5
868
330
291
100
AcDbEntity
  8
寸法線
 62
     0
440
 16777216
370
    -2
100
AcDbLine
 10
-104.651661349191
 20
37.33732118127139
 30
0.0
 11
-104.651661349191
 21
61.91482127481339
 31
0.0
  0
INSERT
  5
869
330
291
100
AcDbEntity
  8
寸法線
 62
     0
440
 16777216
370
    -2
100
AcDbBlockReference
  2
_Open30
 10
-104.651661349191
 20
34.33732118127139
 30
0.0
 41
3.0
 42
3.0
 43
3.0
 50
270.0
  0
INSERT
  5
86A
330
291
100
AcDbEntity
  8
寸法線
 62
     0
440
 16777216
370
    -2
100
AcDbBlockReference
  2
_Open30
 10
-104.651661349191
 20
64.91482127481339
 30
0.0
 41
3.0
 42
3.0
 43
3.0
 50
90.0
  0
MTEXT
  5
86B
330
291
100
AcDbEntity
  8
寸法線
 62
     0
440
 16777216
100
AcDbMText
 10
-107.0516613849538
 20
49.62607122804239
 30
0.0
 40
3.200000047683716
 41
0.0
 46
0.0
 71
     5
 72
     1
  1
∅B
 11
0.0000000000000001
 21
1.0
 31
0.0
 73
     1
 44
1.0
1001
ACAD
1000
MTEXTBEGIN
1070
    73
1070
     1
1070
    44
1040
1.0
1070
    74
1070
     0
1000
MTEXTEND
  0
POINT
  5
86C
330
291
100
AcDbEntity
  8
Defpoints
 62
     0
440
 16777216
100
AcDbPoint
 10
-93.34660869415875
 20
34.33732118127139
 30
0.0
  0
POINT
  5
86D
330
291
100
AcDbEntity
  8
Defpoints
 62
     0
440
 16777216
100
AcDbPoint
 10
-93.34660869415875
 20
64.91482127481339
 30
0.0
  0
POINT
  5
86E
330
291
100
AcDbEntity
  8
Defpoints
 62
     0
440
 16777216
100
AcDbPoint
 10
-104.651661349191
 20
64.91482127481339
 30
0.0
  0
ENDBLK
  5
29C
330
291
100
AcDbEntity
  8
0
100
AcDbBlockEnd
  0
BLOCK
  5
521
330
520
100
AcDbEntity
  8
0
100
AcDbBlockBegin
  2
*D7
 70
     1
 10
0.0
 20
0.0
 30
0.0
  3
*D7
  1

  0
LINE
  5
522
330
520
100
AcDbEntity
  8
0
 62
     0
 60
     1
370
    -2
100
AcDbLine
 10
35.34834328486697
 20
69.37408584935432
 30
0.0
 11
35.34834328486697
 21
82.05386677790436
 31
0.0
  0
LINE
  5
523
330
520
100
AcDbEntity
  8
0
 62
     0
 60
     1
370
    -2
100
AcDbLine
 10
59.12515841396789
 20
66.0580946190451
 30
0.0
 11
59.12515841396789
 21
82.05386677790436
 31
0.0
  0
LINE
  5
524
330
520
100
AcDbEntity
  8
0
 62
     0
 60
     1
370
    -2
100
AcDbLine
 10
38.34834328486697
 20
79.76786677790435
 30
0.0
 11
56.12515841396788
 21
79.76786677790435
 31
0.0
  0
INSERT
  5
525
330
520
100
AcDbEntity
  8
0
 62
     0
 60
     1
370
    -2
100
AcDbBlockReference
  2
_Open30
 10
35.34834328486697
 20
79.76786677790435
 30
0.0
 41
3.0
 42
3.0
 43
3.0
 50
180.0
  0
INSERT
  5
526
330
520
100
AcDbEntity
  8
0
 62
     0
 60
     1
370
    -2
100
AcDbBlockReference
  2
_Open30
 10
59.12515841396789
 20
79.76786677790435
 30
0.0
 41
3.0
 42
3.0
 43
3.0
  0
MTEXT
  5
527
330
520
100
AcDbEntity
  8
0
 62
     0
100
AcDbMText
 10
47.23675084941741
 20
82.20146681416784
 30
0.0
 40
3.200000047683716
 41
0.0
 46
0.0
 71
     5
 72
     1
  1
L2
 73
     1
 44
1.0
1001
ACAD
1000
MTEXTBEGIN
1070
    73
1070
     1
1070
    44
1040
1.0
1070
    74
1070
     0
1000
MTEXTEND
  0
POINT
  5
528
330
520
100
AcDbEntity
  8
Defpoints
 62
     0
100
AcDbPoint
 10
35.34834328486697
 20
66.83408584935432
 30
0.0
  0
POINT
  5
529
330
520
100
AcDbEntity
  8
Defpoints
 62
     0
100
AcDbPoint
 10
59.12515841396789
 20
63.51809461904511
 30
0.0
  0
POINT
  5
52A
330
520
100
AcDbEntity
  8
Defpoints
 62
     0
100
AcDbPoint
 10
59.12515841396789
 20
79.76786677790435
 30
0.0
  0
LINE
  5
52B
330
520
100
AcDbEntity
  8
0
  6
Continuous
 62
     7
100
AcDbLine
 10
35.34834328486697
 20
69.37408584935432
 30
0.0
 11
35.34834328486697
 21
82.05386677790436
 31
0.0
  0
LINE
  5
52C
330
520
100
AcDbEntity
  8
0
  6
Continuous
 62
     7
100
AcDbLine
 10
59.12515841396789
 20
66.0580946190451
 30
0.0
 11
59.12515841396789
 21
82.05386677790436
 31
0.0
  0
LINE
  5
52D
330
520
100
AcDbEntity
  8
0
  6
Continuous
 62
     7
100
AcDbLine
 10
35.34834328486697
 20
79.76786677790435
 30
0.0
 11
59.12515841396789
 21
79.76786677790435
 31
0.0
  0
LINE
  5
52E
330
520
100
AcDbEntity
  8
0
  6
Continuous
 62
     7
100
AcDbLine
 10
35.34834328486697
 20
79.76786677790435
 30
0.0
 11
38.34834328486697
 21
80.76786677790435
 31
0.0
  0
LINE
  5
52F
330
520
100
AcDbEntity
  8
0
  6
Continuous
 62
     7
100
AcDbLine
 10
35.34834328486697
 20
79.76786677790435
 30
0.0
 11
38.34834328486697
 21
78.76786677790436
 31
0.0
  0
LINE
  5
530
330
520
100
AcDbEntity
  8
0
  6
Continuous
 62
     7
100
AcDbLine
 10
59.12515841396789
 20
79.76786677790435
 30
0.0
 11
56.12515841396788
 21
78.76786677790436
 31
0.0
  0
LINE
  5
531
330
520
100
AcDbEntity
  8
0
  6
Continuous
 62
     7
100
AcDbLine
 10
59.12515841396789
 20
79.76786677790435
 30
0.0
 11
56.12515841396788
 21
80.76786677790435
 31
0.0
  0
ENDBLK
  5
532
330
520
100
AcDbEntity
  8
0
100
AcDbBlockEnd
  0
BLOCK
  5
534
330
533
100
AcDbEntity
  8
0
100
AcDbBlockBegin
  2
*D8
 70
     1
 10
0.0
 20
0.0
 30
0.0
  3
*D8
  1

  0
LINE
  5
535
330
533
100
AcDbEntity
  8
0
 62
     0
 60
     1
370
    -2
100
AcDbLine
 10
71.40635223636184
 20
67.37759059165128
 30
0.0
 11
71.40635223636184
 21
88.16647741154422
 31
0.0
  0
LINE
  5
536
330
533
100
AcDbEntity
  8
0
 62
     0
 60
     1
370
    -2
100
AcDbLine
 10
35.34834328486697
 20
69.37408584935432
 30
0.0
 11
35.34834328486697
 21
88.16647741154422
 31
0.0
  0
LINE
  5
537
330
533
100
AcDbEntity
  8
0
 62
     0
 60
     1
370
    -2
100
AcDbLine
 10
68.40635223636184
 20
85.88047741154424
 30
0.0
 11
38.34834328486697
 21
85.88047741154424
 31
0.0
  0
INSERT
  5
538
330
533
100
AcDbEntity
  8
0
 62
     0
 60
     1
370
    -2
100
AcDbBlockReference
  2
_Open30
 10
71.40635223636184
 20
85.88047741154424
 30
0.0
 41
3.0
 42
3.0
 43
3.0
  0
INSERT
  5
539
330
533
100
AcDbEntity
  8
0
 62
     0
 60
     1
370
    -2
100
AcDbBlockReference
  2
_Open30
 10
35.34834328486697
 20
85.88047741154424
 30
0.0
 41
3.0
 42
3.0
 43
3.0
 50
180.0
  0
MTEXT
  5
53A
330
533
100
AcDbEntity
  8
0
 62
     0
100
AcDbMText
 10
53.37734776061441
 20
88.31407744780772
 30
0.0
 40
3.200000047683716
 41
0.0
 46
0.0
 71
     5
 72
     1
  1
L1
 73
     1
 44
1.0
1001
ACAD
1000
MTEXTBEGIN
1070
    73
1070
     1
1070
    44
1040
1.0
1070
    74
1070
     0
1000
MTEXTEND
  0
POINT
  5
53B
330
533
100
AcDbEntity
  8
Defpoints
 62
     0
100
AcDbPoint
 10
71.40635223636184
 20
64.83759059165127
 30
0.0
  0
POINT
  5
53C
330
533
100
AcDbEntity
  8
Defpoints
 62
     0
100
AcDbPoint
 10
35.34834328486697
 20
66.83408584935432
 30
0.0
  0
POINT
  5
53D
330
533
100
AcDbEntity
  8
Defpoints
 62
     0
100
AcDbPoint
 10
35.34834328486697
 20
85.88047741154424
 30
0.0
  0
LINE
  5
53E
330
533
100
AcDbEntity
  8
0
  6
Continuous
 62
     7
100
AcDbLine
 10
71.40635223636184
 20
67.37759059165128
 30
0.0
 11
71.40635223636184
 21
88.16647741154422
 31
0.0
  0
LINE
  5
53F
330
533
100
AcDbEntity
  8
0
  6
Continuous
 62
     7
100
AcDbLine
 10
35.34834328486697
 20
69.37408584935432
 30
0.0
 11
35.34834328486697
 21
88.16647741154422
 31
0.0
  0
LINE
  5
540
330
533
100
AcDbEntity
  8
0
  6
Continuous
 62
     7
100
AcDbLine
 10
71.40635223636184
 20
85.88047741154424
 30
0.0
 11
35.34834328486697
 21
85.88047741154424
 31
0.0
  0
LINE
  5
541
330
533
100
AcDbEntity
  8
0
  6
Continuous
 62
     7
100
AcDbLine
 10
71.40635223636184
 20
85.88047741154424
 30
0.0
 11
68.40635223636184
 21
84.88047741154423
 31
0.0
  0
LINE
  5
542
330
533
100
AcDbEntity
  8
0
  6
Continuous
 62
     7
100
AcDbLine
 10
71.40635223636184
 20
85.88047741154424
 30
0.0
 11
68.40635223636184
 21
86.88047741154425
 31
0.0
  0
LINE
  5
543
330
533
100
AcDbEntity
  8
0
  6
Continuous
 62
     7
100
AcDbLine
 10
35.34834328486697
 20
85.88047741154424
 30
0.0
 11
38.34834328486697
 21
86.88047741154425
 31
0.0
  0
LINE
  5
544
330
533
100
AcDbEntity
  8
0
  6
Continuous
 62
     7
100
AcDbLine
 10
35.34834328486697
 20
85.88047741154424
 30
0.0
 11
38.34834328486697
 21
84.88047741154423
 31
0.0
  0
ENDBLK
  5
545
330
533
100
AcDbEntity
  8
0
100
AcDbBlockEnd
  0
BLOCK
  5
547
330
546
100
AcDbEntity
  8
0
100
AcDbBlockBegin
  2
*D9
 70
     1
 10
0.0
 20
0.0
 30
0.0
  3
*D9
  1

  0
LINE
  5
548
330
546
100
AcDbEntity
  8
0
 62
     0
 60
     1
370
    -2
100
AcDbLine
 10
33.79884735979553
 20
46.2640844369726
 30
0.0
 11
24.35474948455228
 21
46.2640844369726
 31
0.0
  0
LINE
  5
549
330
546
100
AcDbEntity
  8
0
 62
     0
 60
     1
370
    -2
100
AcDbLine
 10
33.79884735979553
 20
67.63268833742995
 30
0.0
 11
24.35474948455228
 21
67.63268833742995
 31
0.0
  0
LINE
  5
54A
330
546
100
AcDbEntity
  8
0
 62
     0
 60
     1
370
    -2
100
AcDbLine
 10
27.12080948455228
 20
49.26408443697261
 30
0.0
 11
27.12080948455228
 21
64.63268833742995
 31
0.0
  0
INSERT
  5
54B
330
546
100
AcDbEntity
  8
0
 62
     0
 60
     1
370
    -2
100
AcDbBlockReference
  2
_Open30
 10
27.12080948455228
 20
46.2640844369726
 30
0.0
 41
3.0
 42
3.0
 43
3.0
 50
270.0
  0
INSERT
  5
54C
330
546
100
AcDbEntity
  8
0
 62
     0
 60
     1
370
    -2
100
AcDbBlockReference
  2
_Open30
 10
27.12080948455228
 20
67.63268833742995
 30
0.0
 41
3.0
 42
3.0
 43
3.0
 50
90.00000000000005
  0
MTEXT
  5
54D
330
546
100
AcDbEntity
  8
0
 62
     0
100
AcDbMText
 10
24.68720944828881
 20
56.69486182705822
 30
0.0
 40
3.200000047683716
 41
0.0
 46
0.0
 71
     5
 72
     1
  1
∅A
 11
0.0
 21
1.0
 31
0.0
 73
     1
 44
1.0
1001
ACAD
1000
MTEXTBEGIN
1070
    73
1070
     1
1070
    44
1040
1.0
1070
    74
1070
     0
1000
MTEXTEND
  0
POINT
  5
54E
330
546
100
AcDbEntity
  8
Defpoints
 62
     0
100
AcDbPoint
 10
36.33884735979553
 20
46.2640844369726
 30
0.0
  0
POINT
  5
54F
330
546
100
AcDbEntity
  8
Defpoints
 62
     0
100
AcDbPoint
 10
36.33884735979553
 20
67.63268833742995
 30
0.0
  0
POINT
  5
550
330
546
100
AcDbEntity
  8
Defpoints
 62
     0
100
AcDbPoint
 10
27.12080948455227
 20
67.63268833742995
 30
0.0
  0
LINE
  5
551
330
546
100
AcDbEntity
  8
0
  6
Continuous
 62
     7
100
AcDbLine
 10
33.79884735979553
 20
46.2640844369726
 30
0.0
 11
24.35474948455227
 21
46.2640844369726
 31
0.0
  0
LINE
  5
552
330
546
100
AcDbEntity
  8
0
  6
Continuous
 62
     7
100
AcDbLine
 10
33.79884735979553
 20
67.63268833742995
 30
0.0
 11
24.35474948455227
 21
67.63268833742995
 31
0.0
  0
LINE
  5
553
330
546
100
AcDbEntity
  8
0
  6
Continuous
 62
     7
100
AcDbLine
 10
27.12080948455227
 20
46.26408443697264
 30
0.0
 11
27.12080948455227
 21
67.63268833742995
 31
0.0
  0
LINE
  5
554
330
546
100
AcDbEntity
  8
0
  6
Continuous
 62
     7
100
AcDbLine
 10
27.12080948455227
 20
46.26408443697264
 30
0.0
 11
26.12080948455227
 21
49.26408443697264
 31
0.0
  0
LINE
  5
555
330
546
100
AcDbEntity
  8
0
  6
Continuous
 62
     7
100
AcDbLine
 10
27.12080948455227
 20
46.26408443697264
 30
0.0
 11
28.12080948455227
 21
49.26408443697264
 31
0.0
  0
LINE
  5
556
330
546
100
AcDbEntity
  8
0
  6
Continuous
 62
     7
100
AcDbLine
 10
27.12080948455227
 20
67.63268833742995
 30
0.0
 11
28.12080948455227
 21
64.63268833742995
 31
0.0
  0
LINE
  5
557
330
546
100
AcDbEntity
  8
0
  6
Continuous
 62
     7
100
AcDbLine
 10
27.12080948455227
 20
67.63268833742995
 30
0.0
 11
26.12080948455227
 21
64.63268833742995
 31
0.0
  0
ENDBLK
  5
558
330
546
100
AcDbEntity
  8
0
100
AcDbBlockEnd
  0
BLOCK
  5
55A
330
559
100
AcDbEntity
  8
0
100
AcDbBlockBegin
  2
*D10
 70
     1
 10
0.0
 20
0.0
 30
0.0
  3
*D10
  1

  0
LINE
  5
55B
330
559
100
AcDbEntity
  8
0
 62
     0
 60
     1
370
    -2
100
AcDbLine
 10
73.94635223636186
 20
64.35358952665533
 30
0.0
 11
81.83717952274525
 21
64.35358952665533
 31
0.0
  0
LINE
  5
55C
330
559
100
AcDbEntity
  8
0
 62
     0
 60
     1
370
    -2
100
AcDbLine
 10
73.94635223636186
 20
49.54318632493628
 30
0.0
 11
81.83717952274525
 21
49.54318632493628
 31
0.0
  0
LINE
  5
55D
330
559
100
AcDbEntity
  8
0
 62
     0
 60
     1
370
    -2
100
AcDbLine
 10
79.07111952274525
 20
61.35358952665534
 30
0.0
 11
79.07111952274525
 21
52.54318632493628
 31
0.0
  0
INSERT
  5
55E
330
559
100
AcDbEntity
  8
0
 62
     0
 60
     1
370
    -2
100
AcDbBlockReference
  2
_Open30
 10
79.07111952274525
 20
64.35358952665533
 30
0.0
 41
3.0
 42
3.0
 43
3.0
 50
90.0
  0
INSERT
  5
55F
330
559
100
AcDbEntity
  8
0
 62
     0
 60
     1
370
    -2
100
AcDbBlockReference
  2
_Open30
 10
79.07111952274525
 20
49.54318632493628
 30
0.0
 41
3.0
 42
3.0
 43
3.0
 50
270.0
  0
MTEXT
  5
560
330
559
100
AcDbEntity
  8
0
 62
     0
100
AcDbMText
 10
76.63751948648178
 20
56.41404934036529
 30
0.0
 40
3.200000047683716
 41
0.0
 46
0.0
 71
     5
 72
     1
  1
∅B
 11
0.0
 21
1.0
 31
0.0
 73
     1
 44
1.0
1001
ACAD
1000
MTEXTBEGIN
1070
    73
1070
     1
1070
    44
1040
1.0
1070
    74
1070
     0
1000
MTEXTEND
  0
POINT
  5
561
330
559
100
AcDbEntity
  8
Defpoints
 62
     0
100
AcDbPoint
 10
71.40635223636184
 20
64.35358952665533
 30
0.0
  0
POINT
  5
562
330
559
100
AcDbEntity
  8
Defpoints
 62
     0
100
AcDbPoint
 10
71.40635223636184
 20
49.54318632493628
 30
0.0
  0
POINT
  5
563
330
559
100
AcDbEntity
  8
Defpoints
 62
     0
100
AcDbPoint
 10
79.07111952274525
 20
49.54318632493628
 30
0.0
  0
LINE
  5
564
330
559
100
AcDbEntity
  8
0
  6
Continuous
 62
     7
100
AcDbLine
 10
73.94635223636186
 20
64.35358952665533
 30
0.0
 11
81.83717952274525
 21
64.35358952665533
 31
0.0
  0
LINE
  5
565
330
559
100
AcDbEntity
  8
0
  6
Continuous
 62
     7
100
AcDbLine
 10
73.94635223636186
 20
49.54318632493628
 30
0.0
 11
81.83717952274525
 21
49.54318632493628
 31
0.0
  0
LINE
  5
566
330
559
100
AcDbEntity
  8
0
  6
Continuous
 62
     7
100
AcDbLine
 10
79.07111952274525
 20
64.35358952665535
 30
0.0
 11
79.07111952274525
 21
49.54318632493628
 31
0.0
  0
LINE
  5
567
330
559
100
AcDbEntity
  8
0
  6
Continuous
 62
     7
100
AcDbLine
 10
79.07111952274525
 20
64.35358952665535
 30
0.0
 11
80.07111952274525
 21
61.35358952665536
 31
0.0
  0
LINE
  5
568
330
559
100
AcDbEntity
  8
0
  6
Continuous
 62
     7
100
AcDbLine
 10
79.07111952274525
 20
64.35358952665535
 30
0.0
 11
78.07111952274524
 21
61.35358952665536
 31
0.0
  0
LINE
  5
569
330
559
100
AcDbEntity
  8
0
  6
Continuous
 62
     7
100
AcDbLine
 10
79.07111952274525
 20
49.54318632493628
 30
0.0
 11
78.07111952274524
 21
52.54318632493628
 31
0.0
  0
LINE
  5
56A
330
559
100
AcDbEntity
  8
0
  6
Continuous
 62
     7
100
AcDbLine
 10
79.07111952274525
 20
49.54318632493628
 30
0.0
 11
80.07111952274525
 21
52.54318632493628
 31
0.0
  0
ENDBLK
  5
56B
330
559
100
AcDbEntity
  8
0
100
AcDbBlockEnd
  0
BLOCK
  5
56D
330
56C
100
AcDbEntity
  8
0
100
AcDbBlockBegin
  2
*D11
 70
     1
 10
0.0
 20
0.0
 30
0.0
  3
*D11
  1

  0
LINE
  5
56E
330
56C
100
AcDbEntity
  8
0
 62
     0
 60
     1
370
    -2
100
AcDbLine
 10
60.03235374971379
 20
66.85131164163256
 30
0.0
 11
60.03235374971379
 21
82.05386677790436
 31
0.0
  0
LINE
  5
56F
330
56C
100
AcDbEntity
  8
0
 62
     0
 60
     1
370
    -2
100
AcDbLine
 10
63.03235374971379
 20
79.76786677790435
 30
0.0
 11
68.40635223636184
 21
79.76786677790435
 31
0.0
  0
INSERT
  5
570
330
56C
100
AcDbEntity
  8
0
 62
     0
 60
     1
370
    -2
100
AcDbBlockReference
  2
_Open30
 10
60.03235374971379
 20
79.76786677790435
 30
0.0
 41
3.0
 42
3.0
 43
3.0
 50
180.0
  0
INSERT
  5
571
330
56C
100
AcDbEntity
  8
0
 62
     0
 60
     1
370
    -2
100
AcDbBlockReference
  2
_Open30
 10
71.40635223636184
 20
79.76786677790435
 30
0.0
 41
3.0
 42
3.0
 43
3.0
  0
MTEXT
  5
572
330
56C
100
AcDbEntity
  8
0
 62
     0
100
AcDbMText
 10
65.71935299303783
 20
82.20146681416784
 30
0.0
 40
3.200000047683716
 41
0.0
 46
0.0
 71
     5
 72
     1
  1
L3
 73
     1
 44
1.0
1001
ACAD
1000
MTEXTBEGIN
1070
    73
1070
     1
1070
    44
1040
1.0
1070
    74
1070
     0
1000
MTEXTEND
  0
POINT
  5
573
330
56C
100
AcDbEntity
  8
Defpoints
 62
     0
100
AcDbPoint
 10
60.03235374971379
 20
64.31131164163257
 30
0.0
  0
POINT
  5
574
330
56C
100
AcDbEntity
  8
Defpoints
 62
     0
100
AcDbPoint
 10
71.40635223636184
 20
64.83759059165127
 30
0.0
  0
POINT
  5
575
330
56C
100
AcDbEntity
  8
Defpoints
 62
     0
100
AcDbPoint
 10
71.40635223636184
 20
79.76786677790435
 30
0.0
  0
LINE
  5
576
330
56C
100
AcDbEntity
  8
0
  6
Continuous
 62
     7
100
AcDbLine
 10
60.03235374971379
 20
66.85131164163256
 30
0.0
 11
60.03235374971379
 21
82.05386677790436
 31
0.0
  0
LINE
  5
577
330
56C
100
AcDbEntity
  8
0
  6
Continuous
 62
     7
100
AcDbLine
 10
60.03235374971382
 20
79.76786677790435
 30
0.0
 11
71.40635223636184
 21
79.76786677790435
 31
0.0
  0
LINE
  5
578
330
56C
100
AcDbEntity
  8
0
  6
Continuous
 62
     7
100
AcDbLine
 10
60.03235374971382
 20
79.76786677790435
 30
0.0
 11
63.03235374971382
 21
80.76786677790435
 31
0.0
  0
LINE
  5
579
330
56C
100
AcDbEntity
  8
0
  6
Continuous
 62
     7
100
AcDbLine
 10
60.03235374971382
 20
79.76786677790435
 30
0.0
 11
63.03235374971382
 21
78.76786677790436
 31
0.0
  0
LINE
  5
57A
330
56C
100
AcDbEntity
  8
0
  6
Continuous
 62
     7
100
AcDbLine
 10
71.40635223636184
 20
79.76786677790435
 30
0.0
 11
68.40635223636184
 21
78.76786677790436
 31
0.0
  0
LINE
  5
57B
330
56C
100
AcDbEntity
  8
0
  6
Continuous
 62
     7
100
AcDbLine
 10
71.40635223636184
 20
79.76786677790435
 30
0.0
 11
68.40635223636184
 21
80.76786677790435
 31
0.0
  0
ENDBLK
  5
57C
330
56C
100
AcDbEntity
  8
0
100
AcDbBlockEnd
  0
BLOCK
  5
7E7
330
7DD
100
AcDbEntity
  8
0
100
AcDbBlockBegin
  2
*D12
 70
     1
 10
0.0
 20
0.0
 30
0.0
  3
*D12
  1

  0
LINE
  5
8C6
330
7DD
100
AcDbEntity
  8
寸法線
 62
     0
440
 16777216
370
    -2
100
AcDbLine
 10
30.00141202852301
 20
61.23168886810018
 30
0.0
 11
30.00141202852301
 21
73.91146979665022
 31
0.0
  0
LINE
  5
8C7
330
7DD
100
AcDbEntity
  8
寸法線
 62
     0
440
 16777216
370
    -2
100
AcDbLine
 10
53.77822715762392
 20
57.91569763779095
 30
0.0
 11
53.77822715762392
 21
73.91146979665022
 31
0.0
  0
LINE
  5
8C8
330
7DD
100
AcDbEntity
  8
寸法線
 62
     0
440
 16777216
370
    -2
100
AcDbLine
 10
33.00141202852302
 20
71.62546979665022
 30
0.0
 11
50.77822715762392
 21
71.62546979665022
 31
0.0
  0
INSERT
  5
8C9
330
7DD
100
AcDbEntity
  8
寸法線
 62
     0
440
 16777216
370
    -2
100
AcDbBlockReference
  2
_Open30
 10
30.00141202852301
 20
71.62546979665022
 30
0.0
 41
3.0
 42
3.0
 43
3.0
 50
180.0
  0
INSERT
  5
8CA
330
7DD
100
AcDbEntity
  8
寸法線
 62
     0
440
 16777216
370
    -2
100
AcDbBlockReference
  2
_Open30
 10
53.77822715762392
 20
71.62546979665022
 30
0.0
 41
3.0
 42
3.0
 43
3.0
  0
MTEXT
  5
8CB
330
7DD
100
AcDbEntity
  8
寸法線
 62
     0
440
 16777216
100
AcDbMText
 10
41.88981959307346
 20
74.025469832413
 30
0.0
 40
3.200000047683716
 41
0.0
 46
0.0
 71
     5
 72
     1
  1
L2
 73
     1
 44
1.0
1001
ACAD
1000
MTEXTBEGIN
1070
    73
1070
     1
1070
    44
1040
1.0
1070
    74
1070
     0
1000
MTEXTEND
  0
POINT
  5
8CC
330
7DD
100
AcDbEntity
  8
Defpoints
 62
     0
440
 16777216
100
AcDbPoint
 10
30.00141202852301
 20
58.69168886810019
 30
0.0
  0
POINT
  5
8CD
330
7DD
100
AcDbEntity
  8
Defpoints
 62
     0
440
 16777216
100
AcDbPoint
 10
53.77822715762392
 20
55.37569763779096
 30
0.0
  0
POINT
  5
8CE
330
7DD
100
AcDbEntity
  8
Defpoints
 62
     0
440
 16777216
100
AcDbPoint
 10
53.77822715762392
 20
71.62546979665022
 30
0.0
  0
ENDBLK
  5
7E8
330
7DD
100
AcDbEntity
  8
0
100
AcDbBlockEnd
  0
BLOCK
  5
7F3
330
7E9
100
AcDbEntity
  8
0
100
AcDbBlockBegin
  2
*D13
 70
     1
 10
0.0
 20
0.0
 30
0.0
  3
*D13
  1

  0
LINE
  5
8BD
330
7E9
100
AcDbEntity
  8
寸法線
 62
     0
440
 16777216
370
    -2
100
AcDbLine
 10
66.05942098001787
 20
59.23519361039712
 30
0.0
 11
66.05942098001787
 21
80.02408043029012
 31
0.0
  0
LINE
  5
8BE
330
7E9
100
AcDbEntity
  8
寸法線
 62
     0
440
 16777216
370
    -2
100
AcDbLine
 10
30.00141202852301
 20
61.23168886810018
 30
0.0
 11
30.00141202852301
 21
80.02408043029012
 31
0.0
  0
LINE
  5
8BF
330
7E9
100
AcDbEntity
  8
寸法線
 62
     0
440
 16777216
370
    -2
100
AcDbLine
 10
63.05942098001787
 20
77.73808043029011
 30
0.0
 11
33.00141202852302
 21
77.73808043029011
 31
0.0
  0
INSERT
  5
8C0
330
7E9
100
AcDbEntity
  8
寸法線
 62
     0
440
 16777216
370
    -2
100
AcDbBlockReference
  2
_Open30
 10
66.05942098001787
 20
77.73808043029011
 30
0.0
 41
3.0
 42
3.0
 43
3.0
  0
INSERT
  5
8C1
330
7E9
100
AcDbEntity
  8
寸法線
 62
     0
440
 16777216
370
    -2
100
AcDbBlockReference
  2
_Open30
 10
30.00141202852301
 20
77.73808043029011
 30
0.0
 41
3.0
 42
3.0
 43
3.0
 50
180.0
  0
MTEXT
  5
8C2
330
7E9
100
AcDbEntity
  8
寸法線
 62
     0
440
 16777216
100
AcDbMText
 10
48.03041650427044
 20
80.13808046605289
 30
0.0
 40
3.200000047683716
 41
0.0
 46
0.0
 71
     5
 72
     1
  1
L1
 73
     1
 44
1.0
1001
ACAD
1000
MTEXTBEGIN
1070
    73
1070
     1
1070
    44
1040
1.0
1070
    74
1070
     0
1000
MTEXTEND
  0
POINT
  5
8C3
330
7E9
100
AcDbEntity
  8
Defpoints
 62
     0
440
 16777216
100
AcDbPoint
 10
66.05942098001787
 20
56.69519361039712
 30
0.0
  0
POINT
  5
8C4
330
7E9
100
AcDbEntity
  8
Defpoints
 62
     0
440
 16777216
100
AcDbPoint
 10
30.00141202852301
 20
58.69168886810019
 30
0.0
  0
POINT
  5
8C5
330
7E9
100
AcDbEntity
  8
Defpoints
 62
     0
440
 16777216
100
AcDbPoint
 10
30.00141202852301
 20
77.73808043029011
 30
0.0
  0
ENDBLK
  5
7F4
330
7E9
100
AcDbEntity
  8
0
100
AcDbBlockEnd
  0
BLOCK
  5
7FF
330
7F5
100
AcDbEntity
  8
0
100
AcDbBlockBegin
  2
*D14
 70
     1
 10
0.0
 20
0.0
 30
0.0
  3
*D14
  1

  0
LINE
  5
903
330
7F5
100
AcDbEntity
  8
寸法線
 62
     0
440
 16777216
370
    -2
100
AcDbLine
 10
28.45191610345157
 20
38.12168745571847
 30
0.0
 11
19.00781822820831
 21
38.12168745571847
 31
0.0
  0
LINE
  5
904
330
7F5
100
AcDbEntity
  8
寸法線
 62
     0
440
 16777216
370
    -2
100
AcDbLine
 10
28.45191610345157
 20
59.49029135617582
 30
0.0
 11
19.00781822820832
 21
59.49029135617582
 31
0.0
  0
LINE
  5
905
330
7F5
100
AcDbEntity
  8
寸法線
 62
     0
440
 16777216
370
    -2
100
AcDbLine
 10
21.77387822820831
 20
41.12168745571847
 30
0.0
 11
21.77387822820831
 21
56.49029135617581
 31
0.0
  0
INSERT
  5
906
330
7F5
100
AcDbEntity
  8
寸法線
 62
     0
440
 16777216
370
    -2
100
AcDbBlockReference
  2
_Open30
 10
21.77387822820831
 20
38.12168745571847
 30
0.0
 41
3.0
 42
3.0
 43
3.0
 50
270.0
  0
INSERT
  5
907
330
7F5
100
AcDbEntity
  8
寸法線
 62
     0
440
 16777216
370
    -2
100
AcDbBlockReference
  2
_Open30
 10
21.77387822820831
 20
59.49029135617582
 30
0.0
 41
3.0
 42
3.0
 43
3.0
 50
90.0
  0
MTEXT
  5
908
330
7F5
100
AcDbEntity
  8
寸法線
 62
     0
440
 16777216
100
AcDbMText
 10
19.37387819244552
 20
48.55246484580408
 30
0.0
 40
3.200000047683716
 41
0.0
 46
0.0
 71
     5
 72
     1
  1
∅B
 11
0.0000000000000001
 21
1.0
 31
0.0
 73
     1
 44
1.0
1001
ACAD
1000
MTEXTBEGIN
1070
    73
1070
     1
1070
    44
1040
1.0
1070
    74
1070
     0
1000
MTEXTEND
  0
POINT
  5
909
330
7F5
100
AcDbEntity
  8
Defpoints
 62
     0
440
 16777216
100
AcDbPoint
 10
30.99191610345157
 20
38.12168745571847
 30
0.0
  0
POINT
  5
90A
330
7F5
100
AcDbEntity
  8
Defpoints
 62
     0
440
 16777216
100
AcDbPoint
 10
30.99191610345157
 20
59.49029135617582
 30
0.0
  0
POINT
  5
90B
330
7F5
100
AcDbEntity
  8
Defpoints
 62
     0
440
 16777216
100
AcDbPoint
 10
21.77387822820831
 20
59.49029135617582
 30
0.0
  0
ENDBLK
  5
800
330
7F5
100
AcDbEntity
  8
0
100
AcDbBlockEnd
  0
BLOCK
  5
80B
330
801
100
AcDbEntity
  8
0
100
AcDbBlockBegin
  2
*D15
 70
     1
 10
0.0
 20
0.0
 30
0.0
  3
*D15
  1

  0
LINE
  5
915
330
801
100
AcDbEntity
  8
寸法線
 62
     0
440
 16777216
370
    -2
100
AcDbLine
 10
68.5994209800179
 20
56.21119254540118
 30
0.0
 11
76.49024826640131
 21
56.21119254540118
 31
0.0
  0
LINE
  5
916
330
801
100
AcDbEntity
  8
寸法線
 62
     0
440
 16777216
370
    -2
100
AcDbLine
 10
68.5994209800179
 20
41.40078934368214
 30
0.0
 11
76.49024826640131
 21
41.40078934368214
 31
0.0
  0
LINE
  5
917
330
801
100
AcDbEntity
  8
寸法線
 62
     0
440
 16777216
370
    -2
100
AcDbLine
 10
73.7241882664013
 20
53.21119254540119
 30
0.0
 11
73.7241882664013
 21
44.40078934368215
 31
0.0
  0
INSERT
  5
918
330
801
100
AcDbEntity
  8
寸法線
 62
     0
440
 16777216
370
    -2
100
AcDbBlockReference
  2
_Open30
 10
73.7241882664013
 20
56.21119254540118
 30
0.0
 41
3.0
 42
3.0
 43
3.0
 50
90.0
  0
INSERT
  5
919
330
801
100
AcDbEntity
  8
寸法線
 62
     0
440
 16777216
370
    -2
100
AcDbBlockReference
  2
_Open30
 10
73.7241882664013
 20
41.40078934368214
 30
0.0
 41
3.0
 42
3.0
 43
3.0
 50
270.0
  0
MTEXT
  5
91A
330
801
100
AcDbEntity
  8
寸法線
 62
     0
440
 16777216
100
AcDbMText
 10
71.3241882306385
 20
48.27165235911113
 30
0.0
 40
3.200000047683716
 41
0.0
 46
0.0
 71
     5
 72
     1
  1
∅A
 11
0.0000000000000001
 21
1.0
 31
0.0
 73
     1
 44
1.0
1001
ACAD
1000
MTEXTBEGIN
1070
    73
1070
     1
1070
    44
1040
1.0
1070
    74
1070
     0
1000
MTEXTEND
  0
POINT
  5
91B
330
801
100
AcDbEntity
  8
Defpoints
 62
     0
440
 16777216
100
AcDbPoint
 10
66.05942098001789
 20
56.21119254540118
 30
0.0
  0
POINT
  5
91C
330
801
100
AcDbEntity
  8
Defpoints
 62
     0
440
 16777216
100
AcDbPoint
 10
66.05942098001789
 20
41.40078934368214
 30
0.0
  0
POINT
  5
91D
330
801
100
AcDbEntity
  8
Defpoints
 62
     0
440
 16777216
100
AcDbPoint
 10
73.7241882664013
 20
41.40078934368214
 30
0.0
  0
ENDBLK
  5
80C
330
801
100
AcDbEntity
  8
0
100
AcDbBlockEnd
  0
BLOCK
  5
816
330
80D
100
AcDbEntity
  8
0
100
AcDbBlockBegin
  2
*D16
 70
     1
 10
0.0
 20
0.0
 30
0.0
  3
*D16
  1

  0
LINE
  5
8B5
330
80D
100
AcDbEntity
  8
寸法線
 62
     0
440
 16777216
370
    -2
100
AcDbLine
 10
54.68542249336983
 20
58.70891466037843
 30
0.0
 11
54.68542249336983
 21
73.91146979665022
 31
0.0
  0
LINE
  5
8B6
330
80D
100
AcDbEntity
  8
寸法線
 62
     0
440
 16777216
370
    -2
100
AcDbLine
 10
57.68542249336983
 20
71.62546979665022
 30
0.0
 11
63.05942098001787
 21
71.62546979665022
 31
0.0
  0
INSERT
  5
8B7
330
80D
100
AcDbEntity
  8
寸法線
 62
     0
440
 16777216
370
    -2
100
AcDbBlockReference
  2
_Open30
 10
54.68542249336983
 20
71.62546979665022
 30
0.0
 41
3.0
 42
3.0
 43
3.0
 50
180.0
  0
INSERT
  5
8B8
330
80D
100
AcDbEntity
  8
寸法線
 62
     0
440
 16777216
370
    -2
100
AcDbBlockReference
  2
_Open30
 10
66.05942098001787
 20
71.62546979665022
 30
0.0
 41
3.0
 42
3.0
 43
3.0
  0
MTEXT
  5
8B9
330
80D
100
AcDbEntity
  8
寸法線
 62
     0
440
 16777216
100
AcDbMText
 10
60.37242173669387
 20
74.025469832413
 30
0.0
 40
3.200000047683716
 41
0.0
 46
0.0
 71
     5
 72
     1
  1
L3
 73
     1
 44
1.0
1001
ACAD
1000
MTEXTBEGIN
1070
    73
1070
     1
1070
    44
1040
1.0
1070
    74
1070
     0
1000
MTEXTEND
  0
POINT
  5
8BA
330
80D
100
AcDbEntity
  8
Defpoints
 62
     0
440
 16777216
100
AcDbPoint
 10
54.68542249336983
 20
56.16891466037841
 30
0.0
  0
POINT
  5
8BB
330
80D
100
AcDbEntity
  8
Defpoints
 62
     0
440
 16777216
100
AcDbPoint
 10
66.05942098001787
 20
56.69519361039712
 30
0.0
  0
POINT
  5
8BC
330
80D
100
AcDbEntity
  8
Defpoints
 62
     0
440
 16777216
100
AcDbPoint
 10
66.05942098001787
 20
71.62546979665022
 30
0.0
  0
ENDBLK
  5
817
330
80D
100
AcDbEntity
  8
0
100
AcDbBlockEnd
  0
ENDSEC
  0
SECTION
  2
ENTITIES
  0
LINE
  5
2E
330
1F
100
AcDbEntity
  8
0
  6
Continuous
 62
     7
100
AcDbLine
 10
-80.90824858757503
 20
22.42525350746559
 30
0.0
 11
99.09175904181951
 21
22.42525350746559
 31
0.0
  0
LINE
  5
2F
330
1F
100
AcDbEntity
  8
0
  6
Continuous
 62
     7
100
AcDbLine
 10
-80.90824858757503
 20
16.42525350746558
 30
0.0
 11
99.09175904181951
 21
16.42525350746558
 31
0.0
  0
LINE
  5
30
330
1F
100
AcDbEntity
  8
0
  6
Continuous
 62
     7
100
AcDbLine
 10
-80.90824858757503
 20
10.42525350746558
 30
0.0
 11
99.09175904181951
 21
10.42525350746558
 31
0.0
  0
LINE
  5
31
330
1F
100
AcDbEntity
  8
0
  6
Continuous
 62
     7
100
AcDbLine
 10
-80.90824858757503
 20
4.425253507465582
 30
0.0
 11
99.09175904181951
 21
4.425253507465582
 31
0.0
  0
LINE
  5
32
330
1F
100
AcDbEntity
  8
0
  6
Continuous
 62
     7
100
AcDbLine
 10
-80.90824858757503
 20
-1.574746492534409
 30
0.0
 11
99.09175904181951
 21
-1.574746492534409
 31
0.0
  0
LINE
  5
33
330
1F
100
AcDbEntity
  8
0
  6
Continuous
 62
     7
100
AcDbLine
 10
-80.90824858757503
 20
-7.574746492534409
 30
0.0
 11
99.09175904181951
 21
-7.574746492534409
 31
0.0
  0
LINE
  5
34
330
1F
100
AcDbEntity
  8
0
  6
Continuous
 62
     7
100
AcDbLine
 10
-80.90824858757503
 20
-13.57474649253441
 30
0.0
 11
99.09175904181951
 21
-13.57474649253441
 31
0.0
  0
LINE
  5
35
330
1F
100
AcDbEntity
  8
0
  6
Continuous
 62
     7
100
AcDbLine
 10
-80.90824858757503
 20
-19.57474649253441
 30
0.0
 11
99.09175904181951
 21
-19.57474649253441
 31
0.0
  0
LINE
  5
36
330
1F
100
AcDbEntity
  8
0
  6
Continuous
 62
     7
100
AcDbLine
 10
-80.90824858757503
 20
-25.57474649253443
 30
0.0
 11
99.09175904181951
 21
-25.57474649253443
 31
0.0
  0
LINE
  5
37
330
1F
100
AcDbEntity
  8
0
  6
Continuous
 62
     7
100
AcDbLine
 10
-80.90824858757503
 20
-31.5747464925344
 30
0.0
 11
99.09175904181951
 21
-31.5747464925344
 31
0.0
  0
LINE
  5
39
330
1F
100
AcDbEntity
  8
0
  6
Continuous
 62
     7
100
AcDbLine
 10
-80.90824858757503
 20
-43.57474667134836
 30
0.0
 11
99.09175904181951
 21
-43.57474667134836
 31
0.0
  0
LINE
  5
3A
330
1F
100
AcDbEntity
  8
0
  6
Continuous
 62
     7
100
AcDbLine
 10
-80.90824858757503
 20
-49.57474667134836
 30
0.0
 11
99.09175904181951
 21
-49.57474667134836
 31
0.0
  0
LINE
  5
3B
330
1F
100
AcDbEntity
  8
0
  6
Continuous
 62
     7
100
AcDbLine
 10
-80.90824858757503
 20
-61.57474667134835
 30
0.0
 11
99.09175904181951
 21
-61.57474667134835
 31
0.0
  0
LINE
  5
3D
330
1F
100
AcDbEntity
  8
0
  6
Continuous
 62
     7
100
AcDbLine
 10
-80.90824095818048
 20
22.42525350746559
 30
0.0
 11
-80.90824095818048
 21
-67.57474667134835
 31
0.0
  0
LINE
  5
3E
330
1F
100
AcDbEntity
  8
0
  6
Continuous
 62
     7
100
AcDbLine
 10
-30.9082409581805
 20
22.42525350746559
 30
0.0
 11
-30.90824095818047
 21
-67.57474667134835
 31
0.0
  0
LINE
  5
3F
330
1F
100
AcDbEntity
  8
0
  6
Continuous
 62
     7
100
AcDbLine
 10
-4.908225699391436
 20
22.42525350746559
 30
0.0
 11
-4.908225699391421
 21
-67.57474667134835
 31
0.0
  0
LINE
  5
40
330
1F
100
AcDbEntity
  8
0
  6
Continuous
 62
     7
100
AcDbLine
 10
21.09177430060857
 20
22.42525350746559
 30
0.0
 11
21.09177430060858
 21
-67.57474667134835
 31
0.0
  0
LINE
  5
41
330
1F
100
AcDbEntity
  8
0
  6
Continuous
 62
     7
100
AcDbLine
 10
47.09178955939761
 20
22.42525350746559
 30
0.0
 11
47.09178955939761
 21
-67.57474667134835
 31
0.0
  0
LINE
  5
42
330
1F
100
AcDbEntity
  8
0
  6
Continuous
 62
     7
100
AcDbLine
 10
73.0917590418195
 20
22.42525350746559
 30
0.0
 11
73.09175904181952
 21
-67.57474667134835
 31
0.0
  0
LINE
  5
43
330
1F
100
AcDbEntity
  8
0
  6
Continuous
 62
     7
100
AcDbLine
 10
99.09175904181951
 20
22.42525350746559
 30
0.0
 11
99.09175904181951
 21
-67.57474667134835
 31
0.0
  0
LINE
  5
44
330
1F
100
AcDbEntity
  8
0
  6
Continuous
 62
     7
100
AcDbLine
 10
-80.90824858757503
 20
-67.57474667134835
 30
0.0
 11
99.09175904181951
 21
-67.57474667134835
 31
0.0
  0
LINE
  5
45
330
1F
100
AcDbEntity
  8
0
  6
Continuous
 62
     7
100
AcDbLine
 10
-80.90824858757503
 20
-55.57474667134837
 30
0.0
 11
99.09175904181951
 21
-55.57474667134837
 31
0.0
  0
LINE
  5
46
330
1F
100
AcDbEntity
  8
外形線
  6
Continuous
100
AcDbLine
 10
-79.55689289564933
 20
64.77606688893057
 30
0.0
 11
-79.55689289564933
 21
49.62607122804239
 31
0.0
  0
LINE
  5
47
330
1F
100
AcDbEntity
  8
外形線
  6
Continuous
100
AcDbLine
 10
-87.5758935048365
 20
64.77606688893057
 30
0.0
 11
-87.5758935048365
 21
49.62607122804239
 31
0.0
  0
LINE
  5
48
330
1F
100
AcDbEntity
  8
外形線
  6
Continuous
100
AcDbLine
 10
-87.09974799053947
 20
63.39307181150592
 30
0.0
 11
-87.09974799053947
 21
49.62607784926716
 31
0.0
  0
LINE
  5
49
330
1F
100
AcDbEntity
  8
外形線
  6
Continuous
100
AcDbLine
 10
-93.7386278217383
 20
63.54768905090676
 30
0.0
 11
-93.43073091866456
 21
64.62145302462551
 31
0.0
  0
LINE
  5
4A
330
1F
100
AcDbEntity
  8
破線
  6
DASHED
100
AcDbLine
 10
-72.84132010605354
 20
64.30732169683025
 30
0.0
 11
-71.99567935159945
 21
64.30732169683025
 31
0.0
  0
LINE
  5
4B
330
1F
100
AcDbEntity
  8
外形線
  6
Continuous
100
AcDbLine
 10
-18.39397468024626
 20
53.67607025635493
 30
0.0
 11
-17.14025042472303
 21
52.42234610651276
 31
0.0
  0
LINE
  5
4C
330
1F
100
AcDbEntity
  8
外形線
  6
Continuous
100
AcDbLine
 10
-69.28960686659728
 20
64.77606688893057
 30
0.0
 11
-69.28960686659728
 21
49.62607122804239
 31
0.0
  0
LINE
  5
4D
330
1F
100
AcDbEntity
  8
外形線
  6
Continuous
100
AcDbLine
 10
-78.43275459986671
 20
63.25431742562305
 30
0.0
 11
-78.77557513257674
 21
63.25431742562305
 31
0.0
  0
LINE
  5
4E
330
1F
100
AcDbEntity
  8
外形線
  6
Continuous
100
AcDbLine
 10
-85.02242700789635
 20
64.91482348188833
 30
0.0
 11
-83.87158751976768
 21
64.91482348188833
 31
0.0
  0
LINE
  5
4F
330
1F
100
AcDbEntity
  8
外形線
  6
Continuous
100
AcDbLine
 10
-89.81324948971234
 20
63.39307622565574
 30
0.0
 11
-89.81324948971234
 21
49.62607784926716
 31
0.0
  0
LINE
  5
50
330
1F
100
AcDbEntity
  8
外形線
  6
Continuous
100
AcDbLine
 10
-44.45325377971424
 20
63.19356989560714
 30
0.0
 11
-44.04825332536717
 21
63.19356989560714
 31
0.0
  0
LINE
  5
51
330
1F
100
AcDbEntity
  8
外形線
  6
Continuous
100
AcDbLine
 10
-93.82274979430594
 20
63.39307622565574
 30
0.0
 11
-93.82274979430594
 21
49.62607784926716
 31
0.0
  0
LINE
  5
52
330
1F
100
AcDbEntity
  8
破線
  6
DASHED
100
AcDbLine
 10
-53.52525645303373
 20
62.18106986327696
 30
0.0
 11
-51.21675761528283
 21
62.18106986327696
 31
0.0
  0
LINE
  5
53
330
1F
100
AcDbEntity
  8
外形線
  6
Continuous
100
AcDbLine
 10
-79.16488900715243
 20
63.54768900654891
 30
0.0
 11
-79.47278587220413
 21
64.6214528476691
 31
0.0
  0
LINE
  5
54
330
1F
100
AcDbEntity
  8
外形線
  6
Continuous
100
AcDbLine
 10
-91.10925270928287
 20
63.39307181150592
 30
0.0
 11
-91.10925270928287
 21
49.62607784926716
 31
0.0
  0
LINE
  5
55
330
1F
100
AcDbEntity
  8
外形線
  6
Continuous
100
AcDbLine
 10
-81.31810336622818
 20
64.77606688893057
 30
0.0
 11
-81.31810336622818
 21
49.62607122804239
 31
0.0
  0
LINE
  5
56
330
1F
100
AcDbEntity
  8
外形線
  6
Continuous
100
AcDbLine
 10
-56.64376061362858
 20
61.65457655597297
 30
0.0
 11
-56.44125707584268
 21
61.65457655597297
 31
0.0
  0
LINE
  5
57
330
1F
100
AcDbEntity
  8
外形線
  6
Continuous
100
AcDbLine
 10
-91.19337852542065
 20
63.54769090821498
 30
0.0
 11
-91.50127539047238
 21
64.62145474933527
 31
0.0
  0
LINE
  5
58
330
1F
100
AcDbEntity
  8
外形線
  6
Continuous
100
AcDbLine
 10
-90.46125109949759
 20
63.25432183977286
 30
0.0
 11
-90.80407163220762
 21
63.25432183977286
 31
0.0
  0
LINE
  5
59
330
1F
100
AcDbEntity
  8
破線
  6
DASHED
100
AcDbLine
 10
-87.76784698078236
 20
63.38024482209977
 30
0.0
 11
-88.03368297174037
 21
64.30732498159128
 31
0.0
  0
LINE
  5
5A
330
1F
100
AcDbEntity
  8
外形線
  6
Continuous
100
AcDbLine
 10
-86.45175520905388
 20
63.25431742562305
 30
0.0
 11
-86.10893909049368
 21
63.25431742562305
 31
0.0
  0
LINE
  5
5B
330
1F
100
AcDbEntity
  8
外形線
  6
Continuous
100
AcDbLine
 10
-85.80374918511877
 20
63.39307622565574
 30
0.0
 11
-85.80374918511877
 21
49.62607784926716
 31
0.0
  0
LINE
  5
5C
330
1F
100
AcDbEntity
  8
破線
  6
DASHED
100
AcDbLine
 10
-68.8318242156098
 20
64.30732169683025
 30
0.0
 11
-64.44649105523495
 21
64.30732169683025
 31
0.0
  0
LINE
  5
5D
330
1F
100
AcDbEntity
  8
破線
  6
DASHED
100
AcDbLine
 10
-69.09767264052027
 20
63.38023835955778
 30
0.0
 11
-68.83183581307779
 21
64.30732143621701
 31
0.0
  0
LINE
  5
5E
330
1F
100
AcDbEntity
  8
破線
  6
DASHED
100
AcDbLine
 10
-71.72985347638235
 20
63.38024022204507
 30
0.0
 11
-71.99568916316417
 21
64.30731932074826
 31
0.0
  0
LINE
  5
5F
330
1F
100
AcDbEntity
  8
破線
  6
DASHED
100
AcDbLine
 10
-91.77734671610426
 20
63.38024070332278
 30
0.0
 11
-92.04318270706229
 21
64.30732086281432
 31
0.0
  0
LINE
  5
60
330
1F
100
AcDbEntity
  8
破線
  6
DASHED
100
AcDbLine
 10
-93.15465963105468
 20
63.38023884601447
 30
0.0
 11
-92.88882276559013
 21
64.30732205527229
 31
0.0
  0
LINE
  5
61
330
1F
100
AcDbEntity
  8
外形線
  6
Continuous
100
AcDbLine
 10
-89.72912626135935
 20
63.54769129685937
 30
0.0
 11
-89.42122935828562
 21
64.62145527057813
 31
0.0
  0
LINE
  5
62
330
1F
100
AcDbEntity
  8
破線
  6
DASHED
100
AcDbLine
 10
-55.30726198348067
 20
37.07106376450821
 30
0.0
 11
-53.52525645303373
 21
37.07106376450821
 31
0.0
  0
LINE
  5
63
330
1F
100
AcDbEntity
  8
破線
  6
DASHED
100
AcDbLine
 10
-82.44225490446032
 20
62.64682446886465
 30
0.0
 11
-82.78507543717029
 21
62.64682446886465
 31
0.0
  0
LINE
  5
64
330
1F
100
AcDbEntity
  8
外形線
  6
Continuous
100
AcDbLine
 10
-60.6532520899225
 20
62.788571648335
 30
0.0
 11
-57.0487544467509
 21
62.788571648335
 31
0.0
  0
LINE
  5
65
330
1F
100
AcDbEntity
  8
破線
  6
DASHED
100
AcDbLine
 10
-86.45175520905388
 20
62.64682446886465
 30
0.0
 11
-86.10893909049368
 21
62.64682446886465
 31
0.0
  0
LINE
  5
66
330
1F
100
AcDbEntity
  8
外形線
  6
Continuous
100
AcDbLine
 10
-93.34660869415873
 20
64.77606688893057
 30
0.0
 11
-93.34660869415873
 21
49.62607122804239
 31
0.0
  0
LINE
  5
67
330
1F
100
AcDbEntity
  8
外形線
  6
Continuous
100
AcDbLine
 10
-93.04142320293363
 20
64.91482127481339
 30
0.0
 11
-91.89058371480498
 21
64.91482127481339
 31
0.0
  0
LINE
  5
68
330
1F
100
AcDbEntity
  8
外形線
  6
Continuous
100
AcDbLine
 10
-96.09075322147941
 20
63.25432183977286
 30
0.0
 11
-94.127935285531
 21
63.25432183977286
 31
0.0
  0
LINE
  5
69
330
1F
100
AcDbEntity
  8
外形線
  6
Continuous
100
AcDbLine
 10
-56.64375619947874
 20
62.38358002228764
 30
0.0
 11
-56.64375619947874
 21
61.65457876304796
 31
0.0
  0
LINE
  5
6A
330
1F
100
AcDbEntity
  8
破線
  6
DASHED
100
AcDbLine
 10
-55.30726198348067
 20
62.18106986327696
 30
0.0
 11
-53.52525645303373
 21
62.18106986327696
 31
0.0
  0
LINE
  5
6B
330
1F
100
AcDbEntity
  8
外形線
  6
Continuous
100
AcDbLine
 10
-44.45325157263932
 20
63.19357872390679
 30
0.0
 11
-44.45325157263932
 21
49.62607784926716
 31
0.0
  0
LINE
  5
6C
330
1F
100
AcDbEntity
  8
破線
  6
DASHED
100
AcDbLine
 10
-61.02141075378461
 20
60.32725919885004
 30
0.0
 11
-60.24837654442396
 21
62.1810693716991
 31
0.0
  0
LINE
  5
6D
330
1F
100
AcDbEntity
  8
外形線
  6
Continuous
100
AcDbLine
 10
-64.09575264126016
 20
64.91482348188839
 30
0.0
 11
-64.09575264126016
 21
49.62607784926716
 31
0.0
  0
LINE
  5
6E
330
1F
100
AcDbEntity
  8
破線
  6
DASHED
100
AcDbLine
 10
-70.41375399067955
 20
62.64682446886465
 30
0.0
 11
-70.07093787211937
 21
62.64682446886465
 31
0.0
  0
LINE
  5
6F
330
1F
100
AcDbEntity
  8
外形線
  6
Continuous
100
AcDbLine
 10
-44.04825332536717
 20
63.19357872390679
 30
0.0
 11
-44.04825332536717
 21
49.62607784926716
 31
0.0
  0
LINE
  5
70
330
1F
100
AcDbEntity
  8
破線
  6
DASHED
100
AcDbLine
 10
-92.88882162902144
 20
64.30732169683025
 30
0.0
 11
-92.04318087456735
 21
64.30732169683025
 31
0.0
  0
LINE
  5
71
330
1F
100
AcDbEntity
  8
外形線
  6
Continuous
100
AcDbLine
 10
-91.58539822357992
 20
64.77606688893057
 30
0.0
 11
-91.58539822357992
 21
49.62607122804239
 31
0.0
  0
LINE
  5
72
330
1F
100
AcDbEntity
  8
外形線
  6
Continuous
100
AcDbLine
 10
-18.3939734071618
 20
45.5760729389659
 30
0.0
 11
-17.14024993195741
 21
46.82979630848929
 31
0.0
  0
LINE
  5
73
330
1F
100
AcDbEntity
  8
破線
  6
DASHED
100
AcDbLine
 10
-90.46125109949759
 20
62.64682446886465
 30
0.0
 11
-90.11843498093742
 21
62.64682446886465
 31
0.0
  0
LINE
  5
74
330
1F
100
AcDbEntity
  8
破線
  6
DASHED
100
AcDbLine
 10
-86.45175079490401
 20
62.64682446886465
 30
0.0
 11
-86.79457132761404
 21
62.64682446886465
 31
0.0
  0
LINE
  5
75
330
1F
100
AcDbEntity
  8
破線
  6
DASHED
100
AcDbLine
 10
-62.10822374615621
 20
60.25732210657047
 30
0.0
 11
-64.44649253312697
 21
64.30732413914729
 31
0.0
  0
LINE
  5
76
330
1F
100
AcDbEntity
  8
外形線
  6
Continuous
100
AcDbLine
 10
-53.72775999081963
 20
53.67607135736317
 30
0.0
 11
-52.71525995848944
 21
53.67607135736317
 31
0.0
  0
LINE
  5
77
330
1F
100
AcDbEntity
  8
破線
  6
DASHED
100
AcDbLine
 10
-96.49575146875161
 20
62.64682226178972
 30
0.0
 11
-94.127935285531
 21
62.64682226178972
 31
0.0
  0
LINE
  5
78
330
1F
100
AcDbEntity
  8
外形線
  6
Continuous
100
AcDbLine
 10
-68.98442578952202
 20
64.91482348188833
 30
0.0
 11
-64.09575264126015
 21
64.91482348188833
 31
0.0
  0
LINE
  5
79
330
1F
100
AcDbEntity
  8
外形線
  6
Continuous
100
AcDbLine
 10
-70.41375399067955
 20
63.25431742562305
 30
0.0
 11
-70.07093787211937
 21
63.25431742562305
 31
0.0
  0
LINE
  5
7A
330
1F
100
AcDbEntity
  8
外形線
  6
Continuous
100
AcDbLine
 10
-69.7657523808943
 20
63.39307622565574
 30
0.0
 11
-69.7657523808943
 21
49.62607784926716
 31
0.0
  0
LINE
  5
7B
330
1F
100
AcDbEntity
  8
外形線
  6
Continuous
100
AcDbLine
 10
-69.68164817684945
 20
63.54769497581543
 30
0.0
 11
-69.37375131179774
 21
64.62145881693564
 31
0.0
  0
LINE
  5
7C
330
1F
100
AcDbEntity
  8
破線
  6
DASHED
100
AcDbLine
 10
-57.25126239868663
 20
62.18107869157663
 30
0.0
 11
-57.25126239868663
 21
61.65459752318472
 31
0.0
  0
LINE
  5
7D
330
1F
100
AcDbEntity
  8
破線
  6
DASHED
100
AcDbLine
 10
-70.41374957652974
 20
62.64682446886465
 30
0.0
 11
-70.75657010923973
 21
62.64682446886465
 31
0.0
  0
LINE
  5
7E
330
1F
100
AcDbEntity
  8
外形線
  6
Continuous
100
AcDbLine
 10
-85.71962858292417
 20
63.54769601920293
 30
0.0
 11
-85.41173167985041
 21
64.62145999292167
 31
0.0
  0
LINE
  5
7F
330
1F
100
AcDbEntity
  8
破線
  6
DASHED
100
AcDbLine
 10
-74.42324988112329
 20
62.64682446886465
 30
0.0
 11
-74.08043376256308
 21
62.64682446886465
 31
0.0
  0
LINE
  5
80
330
1F
100
AcDbEntity
  8
外形線
  6
Continuous
100
AcDbLine
 10
-83.09024768594587
 20
63.39307181150592
 30
0.0
 11
-83.09024768594587
 21
49.62607784926716
 31
0.0
  0
LINE
  5
81
330
1F
100
AcDbEntity
  8
外形線
  6
Continuous
100
AcDbLine
 10
-81.01292670330273
 20
64.91482348188833
 30
0.0
 11
-79.86208721517407
 21
64.91482348188833
 31
0.0
  0
LINE
  5
82
330
1F
100
AcDbEntity
  8
破線
  6
DASHED
100
AcDbLine
 10
-73.10716396558006
 20
63.38023977972821
 30
0.0
 11
-72.84132713813756
 21
64.3073228563875
 31
0.0
  0
LINE
  5
83
330
1F
100
AcDbEntity
  8
外形線
  6
Continuous
100
AcDbLine
 10
-79.08074738135231
 20
63.39307181150592
 30
0.0
 11
-79.08074738135231
 21
49.62607784926716
 31
0.0
  0
LINE
  5
84
330
1F
100
AcDbEntity
  8
外形線
  6
Continuous
100
AcDbLine
 10
-81.79424888052519
 20
63.39307622565574
 30
0.0
 11
-81.79424888052519
 21
49.62607784926716
 31
0.0
  0
LINE
  5
85
330
1F
100
AcDbEntity
  8
外形線
  6
Continuous
100
AcDbLine
 10
-82.44225490446032
 20
63.25431742562305
 30
0.0
 11
-82.09943878590008
 21
63.25431742562305
 31
0.0
  0
LINE
  5
86
330
1F
100
AcDbEntity
  8
外形線
  6
Continuous
100
AcDbLine
 10
-81.71013076005767
 20
63.54769323807031
 30
0.0
 11
-81.40223385698394
 21
64.62145721178909
 31
0.0
  0
LINE
  5
87
330
1F
100
AcDbEntity
  8
破線
  6
DASHED
100
AcDbLine
 10
-49.27276161422668
 20
62.18106986327696
 30
0.0
 11
-44.04825332536717
 21
62.18106986327696
 31
0.0
  0
LINE
  5
88
330
1F
100
AcDbEntity
  8
破線
  6
DASHED
100
AcDbLine
 10
-51.216753201133
 20
62.18107869157663
 30
0.0
 11
-51.216753201133
 21
61.65459752318472
 31
0.0
  0
LINE
  5
89
330
1F
100
AcDbEntity
  8
外形線
  6
Continuous
100
AcDbLine
 10
-49.27276161422668
 20
62.788571648335
 30
0.0
 11
-44.45325377971424
 21
62.788571648335
 31
0.0
  0
LINE
  5
8A
330
1F
100
AcDbEntity
  8
外形線
  6
Continuous
100
AcDbLine
 10
-96.49575146875161
 20
63.65932229411993
 30
0.0
 11
-96.09075322147941
 21
63.65932229411993
 31
0.0
  0
LINE
  5
8B
330
1F
100
AcDbEntity
  8
外形線
  6
Continuous
100
AcDbLine
 10
-60.6532520899225
 20
62.78857826955976
 30
0.0
 11
-60.6532520899225
 21
49.62607784926716
 31
0.0
  0
LINE
  5
8C
330
1F
100
AcDbEntity
  8
外形線
  6
Continuous
100
AcDbLine
 10
-9.920037550164963
 20
37.10213636766961
 30
0.0
 11
-8.666313294641717
 21
38.35586051751182
 31
0.0
  0
LINE
  5
8D
330
1F
100
AcDbEntity
  8
外形線
  6
Continuous
100
AcDbLine
 10
-53.7277555766698
 20
53.6760801856629
 30
0.0
 11
-53.7277555766698
 21
49.6260800563421
 31
0.0
  0
LINE
  5
8E
330
1F
100
AcDbEntity
  8
外形線
  6
Continuous
100
AcDbLine
 10
-52.7152555443396
 20
53.6760801856629
 30
0.0
 11
-52.7152555443396
 21
49.6260800563421
 31
0.0
  0
LINE
  5
8F
330
1F
100
AcDbEntity
  8
外形線
  6
Continuous
100
AcDbLine
 10
-53.72775999081963
 20
52.76410800165286
 30
0.0
 11
-53.52526086718356
 21
52.76410800165286
 31
0.0
  0
LINE
  5
90
330
1F
100
AcDbEntity
  8
外形線
  6
Continuous
100
AcDbLine
 10
-53.52525794248824
 20
52.76411193230615
 30
0.0
 11
-52.71526105926141
 21
53.67608349895263
 31
0.0
  0
LINE
  5
91
330
1F
100
AcDbEntity
  8
外形線
  6
Continuous
100
AcDbLine
 10
-83.17438571602597
 20
63.54769034762978
 30
0.0
 11
-83.48228258107765
 21
64.62145418875002
 31
0.0
  0
LINE
  5
92
330
1F
100
AcDbEntity
  8
外形線
  6
Continuous
100
AcDbLine
 10
-53.52526528133338
 20
52.76410579457794
 30
0.0
 11
-53.52526528133338
 21
49.6260800563421
 31
0.0
  0
LINE
  5
93
330
1F
100
AcDbEntity
  8
外形線
  6
Continuous
100
AcDbLine
 10
-55.30726198348067
 20
62.788571648335
 30
0.0
 11
-53.52525645303373
 21
62.788571648335
 31
0.0
  0
LINE
  5
94
330
1F
100
AcDbEntity
  8
外形線
  6
Continuous
100
AcDbLine
 10
-89.33710397541535
 20
64.77606688893057
 30
0.0
 11
-89.33710397541535
 21
49.62607122804239
 31
0.0
  0
LINE
  5
95
330
1F
100
AcDbEntity
  8
外形線
  6
Continuous
100
AcDbLine
 10
-50.60925583022478
 20
61.65457655597297
 30
0.0
 11
-50.4067567065887
 21
61.65457655597297
 31
0.0
  0
LINE
  5
96
330
1F
100
AcDbEntity
  8
外形線
  6
Continuous
100
AcDbLine
 10
-50.60926024437461
 20
62.38358002228764
 30
0.0
 11
-50.60926024437461
 21
61.65457876304796
 31
0.0
  0
LINE
  5
97
330
1F
100
AcDbEntity
  8
外形線
  6
Continuous
100
AcDbLine
 10
-53.52525645303373
 20
62.788571648335
 30
0.0
 11
-51.01425407749693
 21
62.788571648335
 31
0.0
  0
LINE
  5
98
330
1F
100
AcDbEntity
  8
外形線
  6
Continuous
100
AcDbLine
 10
-61.26697423118784
 20
61.31680563797107
 30
0.0
 11
-60.65325166534567
 21
62.78857121068249
 31
0.0
  0
LINE
  5
99
330
1F
100
AcDbEntity
  8
破線
  6
DASHED
100
AcDbLine
 10
-88.87932132442788
 20
64.30732169683025
 30
0.0
 11
-88.03368056997376
 21
64.30732169683025
 31
0.0
  0
LINE
  5
9A
330
1F
100
AcDbEntity
  8
外形線
  6
Continuous
100
AcDbLine
 10
-93.04142320293363
 20
34.33732118127139
 30
0.0
 11
-91.89058371480498
 21
34.33732118127139
 31
0.0
  0
LINE
  5
9B
330
1F
100
AcDbEntity
  8
外形線
  6
Continuous
100
AcDbLine
 10
-87.18388242489949
 20
63.54769168871064
 30
0.0
 11
-87.49177928995122
 21
64.62145552983088
 31
0.0
  0
LINE
  5
9C
330
1F
100
AcDbEntity
  8
外形線
  6
Continuous
100
AcDbLine
 10
-86.45175079490401
 20
63.25431742562305
 30
0.0
 11
-86.79457132761404
 21
63.25431742562305
 31
0.0
  0
LINE
  5
9D
330
1F
100
AcDbEntity
  8
破線
  6
DASHED
100
AcDbLine
 10
-60.24837743884571
 20
62.18106986327696
 30
0.0
 11
-57.25125357038696
 21
62.18106986327696
 31
0.0
  0
LINE
  5
9E
330
1F
100
AcDbEntity
  8
外形線
  6
Continuous
100
AcDbLine
 10
-61.99151816797177
 20
61.27018156780815
 30
0.0
 11
-64.09575211467653
 21
64.91482319697346
 31
0.0
  0
LINE
  5
9F
330
1F
100
AcDbEntity
  8
破線
  6
DASHED
100
AcDbLine
 10
-89.14515959155663
 20
63.38023578802583
 30
0.0
 11
-88.87932272609209
 21
64.3073189972836
 31
0.0
  0
LINE
  5
A0
330
1F
100
AcDbEntity
  8
外形線
  6
Continuous
100
AcDbLine
 10
-70.41374957652974
 20
63.25431742562305
 30
0.0
 11
-70.75657010923973
 21
63.25431742562305
 31
0.0
  0
LINE
  5
A1
330
1F
100
AcDbEntity
  8
外形線
  6
Continuous
100
AcDbLine
 10
-73.29910275704104
 20
64.77606688893057
 30
0.0
 11
-73.29910275704104
 21
49.62607122804239
 31
0.0
  0
LINE
  5
A2
330
1F
100
AcDbEntity
  8
中心線
  6
CENTER
100
AcDbLine
 10
-22.74435012806473
 20
49.62607122804239
 30
0.0
 11
10.68904973122103
 21
49.62607122804239
 31
0.0
  0
LINE
  5
A3
330
1F
100
AcDbEntity
  8
外形線
  6
Continuous
100
AcDbLine
 10
-83.5663932002429
 20
64.77606688893057
 30
0.0
 11
-83.5663932002429
 21
49.62607122804239
 31
0.0
  0
LINE
  5
A4
330
1F
100
AcDbEntity
  8
破線
  6
DASHED
100
AcDbLine
 10
-84.8698254339841
 20
64.30732169683025
 30
0.0
 11
-84.02418467953005
 21
64.30732169683025
 31
0.0
  0
LINE
  5
A5
330
1F
100
AcDbEntity
  8
外形線
  6
Continuous
100
AcDbLine
 10
-85.32760367082175
 20
64.77606688893057
 30
0.0
 11
-85.32760367082175
 21
49.62607122804239
 31
0.0
  0
LINE
  5
A6
330
1F
100
AcDbEntity
  8
破線
  6
DASHED
100
AcDbLine
 10
-85.13565428231073
 20
63.38023509349287
 30
0.0
 11
-84.86981741684623
 21
64.3073183027506
 31
0.0
  0
LINE
  5
A7
330
1F
100
AcDbEntity
  8
外形線
  6
Continuous
100
AcDbLine
 10
-71.53789228646215
 20
64.77606688893057
 30
0.0
 11
-71.53789228646215
 21
49.62607122804239
 31
0.0
  0
LINE
  5
A8
330
1F
100
AcDbEntity
  8
外形線
  6
Continuous
100
AcDbLine
 10
-1.820042382364967
 20
37.10213850476761
 30
0.0
 11
-3.073764865888648
 21
38.35586130533404
 31
0.0
  0
LINE
  5
A9
330
1F
100
AcDbEntity
  8
外形線
  6
Continuous
100
AcDbLine
 10
6.653893342592795
 20
45.57607208682759
 30
0.0
 11
5.400170859069135
 21
46.82979488739401
 31
0.0
  0
LINE
  5
AA
330
1F
100
AcDbEntity
  8
外形線
  6
Continuous
100
AcDbLine
 10
-71.14589438035735
 20
63.54769011510436
 30
0.0
 11
-71.45379124540905
 21
64.62145395622457
 31
0.0
  0
LINE
  5
AB
330
1F
100
AcDbEntity
  8
外形線
  6
Continuous
100
AcDbLine
 10
-71.06174677216515
 20
63.39307181150592
 30
0.0
 11
-71.06174677216515
 21
49.62607784926716
 31
0.0
  0
LINE
  5
AC
330
1F
100
AcDbEntity
  8
外形線
  6
Continuous
100
AcDbLine
 10
-9.920038823249278
 20
62.15000370637589
 30
0.0
 11
-8.666314567726061
 21
60.89627955653369
 31
0.0
  0
LINE
  5
AD
330
1F
100
AcDbEntity
  8
外形線
  6
Continuous
100
AcDbLine
 10
-89.03192289834008
 20
64.91482348188833
 30
0.0
 11
-87.88108341021141
 21
64.91482348188833
 31
0.0
  0
LINE
  5
AE
330
1F
100
AcDbEntity
  8
外形線
  6
Continuous
100
AcDbLine
 10
-90.46125109949759
 20
63.25431742562305
 30
0.0
 11
-90.11843498093742
 21
63.25431742562305
 31
0.0
  0
LINE
  5
AF
330
1F
100
AcDbEntity
  8
外形線
  6
Continuous
100
AcDbLine
 10
-47.49075608377975
 20
52.7640903450535
 30
0.0
 11
-47.28825475306877
 21
52.7640903450535
 31
0.0
  0
LINE
  5
B0
330
1F
100
AcDbEntity
  8
外形線
  6
Continuous
100
AcDbLine
 10
-46.47825163729971
 20
53.67607687505053
 30
0.0
 11
-46.47825163729971
 21
49.62607784926716
 31
0.0
  0
LINE
  5
B1
330
1F
100
AcDbEntity
  8
外形線
  6
Continuous
100
AcDbLine
 10
-47.49075166962991
 20
53.67607687505053
 30
0.0
 11
-47.49075166962991
 21
49.62607784926716
 31
0.0
  0
LINE
  5
B2
330
1F
100
AcDbEntity
  8
外形線
  6
Continuous
100
AcDbLine
 10
-47.28824813184401
 20
52.76410358750303
 30
0.0
 11
-47.28824813184401
 21
49.62607784926716
 31
0.0
  0
LINE
  5
B3
330
1F
100
AcDbEntity
  8
外形線
  6
Continuous
100
AcDbLine
 10
-47.49075608377975
 20
53.67607135736317
 30
0.0
 11
-46.47825605144952
 21
53.67607135736317
 31
0.0
  0
LINE
  5
B4
330
1F
100
AcDbEntity
  8
外形線
  6
Continuous
100
AcDbLine
 10
-47.28825945624069
 20
52.76409521313041
 30
0.0
 11
-46.47825964171548
 21
53.67607008011158
 31
0.0
  0
LINE
  5
B5
330
1F
100
AcDbEntity
  8
破線
  6
DASHED
100
AcDbLine
 10
-83.75834239395498
 20
63.38024803600486
 30
0.0
 11
-84.02417838491297
 21
64.30732819549636
 31
0.0
  0
LINE
  5
B6
330
1F
100
AcDbEntity
  8
外形線
  6
Continuous
100
AcDbLine
 10
-82.44225490446032
 20
63.25431742562305
 30
0.0
 11
-82.78507543717029
 21
63.25431742562305
 31
0.0
  0
LINE
  5
B7
330
1F
100
AcDbEntity
  8
外形線
  6
Continuous
100
AcDbLine
 10
6.653891299322053
 20
53.67606724078239
 30
0.0
 11
5.400169953712691
 21
52.42234642357697
 31
0.0
  0
LINE
  5
B8
330
1F
100
AcDbEntity
  8
外形線
  6
Continuous
100
AcDbLine
 10
-1.820040007801253
 20
62.15000211940132
 30
0.0
 11
-3.073761353410636
 21
60.89628130219587
 31
0.0
  0
LINE
  5
B9
330
1F
100
AcDbEntity
  8
中心線
  6
CENTER
100
AcDbLine
 10
-5.8700418750604
 20
66.25810886740611
 30
0.0
 11
-5.8700418750604
 21
32.28891950126592
 31
0.0
  0
LINE
  5
BA
330
1F
100
AcDbEntity
  8
破線
  6
DASHED
100
AcDbLine
 10
-80.86032512939054
 20
64.30732169683025
 30
0.0
 11
-80.01468437493647
 21
64.30732169683025
 31
0.0
  0
LINE
  5
BB
330
1F
100
AcDbEntity
  8
破線
  6
DASHED
100
AcDbLine
 10
-81.12615921973846
 20
63.38023870040783
 30
0.0
 11
-80.86032237328497
 21
64.30732184336628
 31
0.0
  0
LINE
  5
BC
330
1F
100
AcDbEntity
  8
破線
  6
DASHED
100
AcDbLine
 10
-79.74884780665798
 20
63.3802460865716
 30
0.0
 11
-80.01468379761597
 21
64.30732624606314
 31
0.0
  0
LINE
  5
BD
330
1F
100
AcDbEntity
  8
破線
  6
DASHED
100
AcDbLine
 10
-78.43275459986671
 20
62.64682446886465
 30
0.0
 11
-78.77557513257674
 21
62.64682446886465
 31
0.0
  0
LINE
  5
BE
330
1F
100
AcDbEntity
  8
破線
  6
DASHED
100
AcDbLine
 10
-82.44225490446032
 20
62.64682446886465
 30
0.0
 11
-82.09943878590008
 21
62.64682446886465
 31
0.0
  0
LINE
  5
BF
330
1F
100
AcDbEntity
  8
外形線
  6
Continuous
100
AcDbLine
 10
-77.00342198455934
 20
64.91482348188833
 30
0.0
 11
-75.85258249643067
 21
64.91482348188833
 31
0.0
  0
LINE
  5
C0
330
1F
100
AcDbEntity
  8
外形線
  6
Continuous
100
AcDbLine
 10
-78.43275018571688
 20
63.25431742562305
 30
0.0
 11
-78.08993406715669
 21
63.25431742562305
 31
0.0
  0
LINE
  5
C1
330
1F
100
AcDbEntity
  8
外形線
  6
Continuous
100
AcDbLine
 10
-77.7847485759316
 20
63.39307622565574
 30
0.0
 11
-77.7847485759316
 21
49.62607784926716
 31
0.0
  0
LINE
  5
C2
330
1F
100
AcDbEntity
  8
外形線
  6
Continuous
100
AcDbLine
 10
-77.70063469755851
 20
63.54769232497614
 30
0.0
 11
-77.39273775646278
 21
64.62145643129338
 31
0.0
  0
LINE
  5
C3
330
1F
100
AcDbEntity
  8
外形線
  6
Continuous
100
AcDbLine
 10
-75.07124707675874
 20
63.39307181150592
 30
0.0
 11
-75.07124707675874
 21
49.62607784926716
 31
0.0
  0
LINE
  5
C4
330
1F
100
AcDbEntity
  8
外形線
  6
Continuous
100
AcDbLine
 10
-75.1553916899265
 20
63.54768554389145
 30
0.0
 11
-75.4632885549782
 21
64.62144938501166
 31
0.0
  0
LINE
  5
C5
330
1F
100
AcDbEntity
  8
外形線
  6
Continuous
100
AcDbLine
 10
-74.42324988112329
 20
63.25431742562305
 30
0.0
 11
-74.76607041383331
 21
63.25431742562305
 31
0.0
  0
LINE
  5
C6
330
1F
100
AcDbEntity
  8
外形線
  6
Continuous
100
AcDbLine
 10
-77.30860306163458
 20
64.77606688893057
 30
0.0
 11
-77.30860306163458
 21
49.62607122804239
 31
0.0
  0
LINE
  5
C7
330
1F
100
AcDbEntity
  8
外形線
  6
Continuous
100
AcDbLine
 10
-75.54739259105573
 20
64.77606688893057
 30
0.0
 11
-75.54739259105573
 21
49.62607122804239
 31
0.0
  0
LINE
  5
C8
330
1F
100
AcDbEntity
  8
破線
  6
DASHED
100
AcDbLine
 10
-76.85082041064713
 20
64.30732169683025
 30
0.0
 11
-76.00517965619305
 21
64.30732169683025
 31
0.0
  0
LINE
  5
C9
330
1F
100
AcDbEntity
  8
破線
  6
DASHED
100
AcDbLine
 10
-77.11666165536948
 20
63.38024302495568
 30
0.0
 11
-76.85082482792698
 21
64.30732610161498
 31
0.0
  0
LINE
  5
CA
330
1F
100
AcDbEntity
  8
破線
  6
DASHED
100
AcDbLine
 10
-75.73935079360825
 20
63.38024368470249
 30
0.0
 11
-76.00518648039008
 21
64.3073227834057
 31
0.0
  0
LINE
  5
CB
330
1F
100
AcDbEntity
  8
破線
  6
DASHED
100
AcDbLine
 10
-74.42324988112329
 20
62.64682446886465
 30
0.0
 11
-74.76607041383331
 21
62.64682446886465
 31
0.0
  0
LINE
  5
CC
330
1F
100
AcDbEntity
  8
破線
  6
DASHED
100
AcDbLine
 10
-78.43275018571688
 20
62.64682446886465
 30
0.0
 11
-78.08993406715669
 21
62.64682446886465
 31
0.0
  0
LINE
  5
CD
330
1F
100
AcDbEntity
  8
破線
  6
DASHED
100
AcDbLine
 10
-60.38108885360578
 20
37.07106376450821
 30
0.0
 11
-57.25125357038696
 21
37.07106376450821
 31
0.0
  0
LINE
  5
CE
330
1F
100
AcDbEntity
  8
外形線
  6
Continuous
100
AcDbLine
 10
-60.6532520899225
 20
36.46358073958696
 30
0.0
 11
-57.0487544467509
 21
36.46358073958696
 31
0.0
  0
LINE
  5
CF
330
1F
100
AcDbEntity
  8
外形線
  6
Continuous
100
AcDbLine
 10
-44.45325377971424
 20
36.05856373217801
 30
0.0
 11
-44.04825332536717
 21
36.05856373217801
 31
0.0
  0
LINE
  5
D0
330
1F
100
AcDbEntity
  8
外形線
  6
Continuous
100
AcDbLine
 10
-44.04825332536717
 20
36.05857697462757
 30
0.0
 11
-44.04825332536717
 21
49.62607784926716
 31
0.0
  0
LINE
  5
D1
330
1F
100
AcDbEntity
  8
外形線
  6
Continuous
100
AcDbLine
 10
-44.45325157263932
 20
36.05857697462757
 30
0.0
 11
-44.45325157263932
 21
49.62607784926716
 31
0.0
  0
LINE
  5
D2
330
1F
100
AcDbEntity
  8
外形線
  6
Continuous
100
AcDbLine
 10
-72.99392167996575
 20
64.91482348188833
 30
0.0
 11
-71.84308219183709
 21
64.91482348188833
 31
0.0
  0
LINE
  5
D3
330
1F
100
AcDbEntity
  8
外形線
  6
Continuous
100
AcDbLine
 10
-96.49575146875161
 20
63.65932229411995
 30
0.0
 11
-96.49575146875161
 21
49.62607784926716
 31
0.0
  0
LINE
  5
D4
330
1F
100
AcDbEntity
  8
外形線
  6
Continuous
100
AcDbLine
 10
-74.42324988112329
 20
63.25431742562305
 30
0.0
 11
-74.08043376256308
 21
63.25431742562305
 31
0.0
  0
LINE
  5
D5
330
1F
100
AcDbEntity
  8
外形線
  6
Continuous
100
AcDbLine
 10
-96.09075322147941
 20
63.65932229411995
 30
0.0
 11
-96.09075322147941
 21
49.62607784926716
 31
0.0
  0
LINE
  5
D6
330
1F
100
AcDbEntity
  8
外形線
  6
Continuous
100
AcDbLine
 10
-73.77524827133801
 20
63.39307622565574
 30
0.0
 11
-73.77524827133801
 21
49.62607784926716
 31
0.0
  0
LINE
  5
D7
330
1F
100
AcDbEntity
  8
破線
  6
DASHED
100
AcDbLine
 10
-57.25126239868663
 20
37.07107700695774
 30
0.0
 11
-57.25126239868663
 21
37.59755486473727
 31
0.0
  0
LINE
  5
D8
330
1F
100
AcDbEntity
  8
外形線
  6
Continuous
100
AcDbLine
 10
-56.64375619947874
 20
36.86857346917183
 30
0.0
 11
-56.64375619947874
 21
37.59757472841155
 31
0.0
  0
LINE
  5
D9
330
1F
100
AcDbEntity
  8
外形線
  6
Continuous
100
AcDbLine
 10
-56.64376061362858
 20
37.59756590011186
 30
0.0
 11
-56.44125707584268
 21
37.59756590011186
 31
0.0
  0
LINE
  5
DA
330
1F
100
AcDbEntity
  8
外形線
  6
Continuous
100
AcDbLine
 10
-55.30726198348067
 20
36.46358073958696
 30
0.0
 11
-53.52525645303373
 21
36.46358073958696
 31
0.0
  0
LINE
  5
DB
330
1F
100
AcDbEntity
  8
外形線
  6
Continuous
100
AcDbLine
 10
-53.52526528133338
 20
46.4880476968815
 30
0.0
 11
-53.52526528133338
 21
49.62607343511734
 31
0.0
  0
LINE
  5
DC
330
1F
100
AcDbEntity
  8
外形線
  6
Continuous
100
AcDbLine
 10
-49.27276161422668
 20
36.46358073958696
 30
0.0
 11
-44.45325377971424
 21
36.46358073958696
 31
0.0
  0
LINE
  5
DD
330
1F
100
AcDbEntity
  8
外形線
  6
Continuous
100
AcDbLine
 10
-50.60925583022478
 20
37.59756590011186
 30
0.0
 11
-50.4067567065887
 21
37.59756590011186
 31
0.0
  0
LINE
  5
DE
330
1F
100
AcDbEntity
  8
外形線
  6
Continuous
100
AcDbLine
 10
-50.60926024437461
 20
36.86857346917183
 30
0.0
 11
-50.60926024437461
 21
37.59757472841155
 31
0.0
  0
LINE
  5
DF
330
1F
100
AcDbEntity
  8
破線
  6
DASHED
100
AcDbLine
 10
-53.52525645303373
 20
37.07106376450821
 30
0.0
 11
-51.21675761528283
 21
37.07106376450821
 31
0.0
  0
LINE
  5
E0
330
1F
100
AcDbEntity
  8
外形線
  6
Continuous
100
AcDbLine
 10
-53.52525645303373
 20
36.46358073958696
 30
0.0
 11
-51.01425407749693
 21
36.46358073958696
 31
0.0
  0
LINE
  5
E1
330
1F
100
AcDbEntity
  8
破線
  6
DASHED
100
AcDbLine
 10
-51.216753201133
 20
37.07107700695774
 30
0.0
 11
-51.216753201133
 21
37.59755486473727
 31
0.0
  0
LINE
  5
E2
330
1F
100
AcDbEntity
  8
外形線
  6
Continuous
100
AcDbLine
 10
-53.72775999081963
 20
46.48804328273164
 30
0.0
 11
-53.52526086718356
 21
46.48804328273164
 31
0.0
  0
LINE
  5
E3
330
1F
100
AcDbEntity
  8
外形線
  6
Continuous
100
AcDbLine
 10
-52.7152555443396
 20
45.57607330579652
 30
0.0
 11
-52.7152555443396
 21
49.62607343511734
 31
0.0
  0
LINE
  5
E4
330
1F
100
AcDbEntity
  8
外形線
  6
Continuous
100
AcDbLine
 10
-53.7277555766698
 20
45.57607330579652
 30
0.0
 11
-53.7277555766698
 21
49.62607343511734
 31
0.0
  0
LINE
  5
E5
330
1F
100
AcDbEntity
  8
破線
  6
DASHED
100
AcDbLine
 10
-49.27276161422668
 20
37.07106376450821
 30
0.0
 11
-44.04825332536717
 21
37.07106376450821
 31
0.0
  0
LINE
  5
E6
330
1F
100
AcDbEntity
  8
外形線
  6
Continuous
100
AcDbLine
 10
-53.72775999081963
 20
45.57607109872161
 30
0.0
 11
-52.71525995848944
 21
45.57607109872161
 31
0.0
  0
LINE
  5
E7
330
1F
100
AcDbEntity
  8
外形線
  6
Continuous
100
AcDbLine
 10
-53.52526750434044
 20
46.48803597736715
 30
0.0
 11
-52.7152696134798
 21
45.57606327623061
 31
0.0
  0
LINE
  5
E8
330
1F
100
AcDbEntity
  8
外形線
  6
Continuous
100
AcDbLine
 10
-47.49075608377975
 20
46.48804328273164
 30
0.0
 11
-47.28825475306877
 21
46.48804328273164
 31
0.0
  0
LINE
  5
E9
330
1F
100
AcDbEntity
  8
外形線
  6
Continuous
100
AcDbLine
 10
-46.47825163729971
 20
45.57607551287147
 30
0.0
 11
-46.47825163729971
 21
49.62607784926716
 31
0.0
  0
LINE
  5
EA
330
1F
100
AcDbEntity
  8
外形線
  6
Continuous
100
AcDbLine
 10
-47.49075166962991
 20
45.57607551287147
 30
0.0
 11
-47.49075166962991
 21
49.62607784926716
 31
0.0
  0
LINE
  5
EB
330
1F
100
AcDbEntity
  8
外形線
  6
Continuous
100
AcDbLine
 10
-47.28824813184401
 20
46.48804990395642
 30
0.0
 11
-47.28824813184401
 21
49.62607784926716
 31
0.0
  0
LINE
  5
EC
330
1F
100
AcDbEntity
  8
外形線
  6
Continuous
100
AcDbLine
 10
-47.49075608377975
 20
45.57607109872161
 30
0.0
 11
-46.47825605144952
 21
45.57607109872161
 31
0.0
  0
LINE
  5
ED
330
1F
100
AcDbEntity
  8
外形線
  6
Continuous
100
AcDbLine
 10
-47.28825833972233
 20
46.48802841817285
 30
0.0
 11
-46.47826090687703
 21
45.57605623271361
 31
0.0
  0
LINE
  5
EE
330
1F
100
AcDbEntity
  8
外形線
  6
Continuous
100
AcDbLine
 10
-73.69114041443776
 20
63.54769321362105
 30
0.0
 11
-73.38324347334202
 21
64.62145731993833
 31
0.0
  0
LINE
  5
EF
330
1F
100
AcDbEntity
  8
外形線
  6
Continuous
100
AcDbLine
 10
-60.6532520899225
 20
36.4635752218997
 30
0.0
 11
-60.6532520899225
 21
49.62607784926716
 31
0.0
  0
LINE
  5
F0
330
1F
100
AcDbEntity
  8
中心線
  6
CENTER
100
AcDbLine
 10
-102.1433604333525
 20
49.62607122804239
 30
0.0
 11
-40.63979249047463
 21
49.62607122804239
 31
0.0
  0
LINE
  5
F1
330
1F
100
AcDbEntity
  8
外形線
  6
Continuous
100
AcDbLine
 10
-96.49575146875161
 20
35.59282016196491
 30
0.0
 11
-96.49575146875161
 21
49.62606460681769
 31
0.0
  0
LINE
  5
F2
330
1F
100
AcDbEntity
  8
外形線
  6
Continuous
100
AcDbLine
 10
-96.09075322147941
 20
35.59282016196491
 30
0.0
 11
-96.09075322147941
 21
49.62606460681769
 31
0.0
  0
LINE
  5
F3
330
1F
100
AcDbEntity
  8
破線
  6
DASHED
100
AcDbLine
 10
-90.46125109949759
 20
62.64682226178972
 30
0.0
 11
-90.80407163220762
 21
62.64682226178972
 31
0.0
  0
LINE
  5
F4
330
1F
100
AcDbEntity
  8
外形線
  6
Continuous
100
AcDbLine
 10
-96.09075322147941
 20
35.99782061631191
 30
0.0
 11
-94.127935285531
 21
35.99782061631191
 31
0.0
  0
LINE
  5
F5
330
1F
100
AcDbEntity
  8
外形線
  6
Continuous
100
AcDbLine
 10
-93.82274979430594
 20
35.85906623042911
 30
0.0
 11
-93.82274979430594
 21
49.62606460681769
 31
0.0
  0
LINE
  5
F6
330
1F
100
AcDbEntity
  8
外形線
  6
Continuous
100
AcDbLine
 10
-93.73862759756873
 20
35.7044520854441
 30
0.0
 11
-93.430730732517
 21
34.63068824432385
 31
0.0
  0
LINE
  5
F7
330
1F
100
AcDbEntity
  8
外形線
  6
Continuous
100
AcDbLine
 10
-91.10925270928287
 20
35.85907064457898
 30
0.0
 11
-91.10925270928287
 21
49.62606460681769
 31
0.0
  0
LINE
  5
F8
330
1F
100
AcDbEntity
  8
外形線
  6
Continuous
100
AcDbLine
 10
-91.1933779891498
 20
35.70445288010648
 30
0.0
 11
-91.50127485420151
 21
34.63068903898626
 31
0.0
  0
LINE
  5
F9
330
1F
100
AcDbEntity
  8
外形線
  6
Continuous
100
AcDbLine
 10
-90.46125109949759
 20
35.99782061631191
 30
0.0
 11
-90.80407163220762
 21
35.99782061631191
 31
0.0
  0
LINE
  5
FA
330
1F
100
AcDbEntity
  8
外形線
  6
Continuous
100
AcDbLine
 10
-93.34660869415873
 20
34.47607556715431
 30
0.0
 11
-93.34660869415873
 21
49.62607122804239
 31
0.0
  0
LINE
  5
FB
330
1F
100
AcDbEntity
  8
外形線
  6
Continuous
100
AcDbLine
 10
-91.58539822357992
 20
34.47607556715431
 30
0.0
 11
-91.58539822357992
 21
49.62607122804239
 31
0.0
  0
LINE
  5
FC
330
1F
100
AcDbEntity
  8
破線
  6
DASHED
100
AcDbLine
 10
-92.88882162902144
 20
34.94482075925456
 30
0.0
 11
-92.04318087456735
 21
34.94482075925456
 31
0.0
  0
LINE
  5
FD
330
1F
100
AcDbEntity
  8
破線
  6
DASHED
100
AcDbLine
 10
-93.15465978710538
 20
35.87190361632163
 30
0.0
 11
-92.88882326383905
 21
34.94482160045064
 31
0.0
  0
LINE
  5
FE
330
1F
100
AcDbEntity
  8
破線
  6
DASHED
100
AcDbLine
 10
-91.7773467881858
 20
35.8719009634221
 30
0.0
 11
-92.0431827791438
 21
34.94482080393061
 31
0.0
  0
LINE
  5
FF
330
1F
100
AcDbEntity
  8
破線
  6
DASHED
100
AcDbLine
 10
-90.46125109949759
 20
36.60532019429508
 30
0.0
 11
-90.80407163220762
 21
36.60532019429508
 31
0.0
  0
LINE
  5
100
330
1F
100
AcDbEntity
  8
破線
  6
DASHED
100
AcDbLine
 10
-96.49575146875161
 20
36.60532019429508
 30
0.0
 11
-94.127935285531
 21
36.60532019429508
 31
0.0
  0
LINE
  5
101
330
1F
100
AcDbEntity
  8
外形線
  6
Continuous
100
AcDbLine
 10
-89.03192289834008
 20
34.33731897419649
 30
0.0
 11
-87.88108341021141
 21
34.33731897419649
 31
0.0
  0
LINE
  5
102
330
1F
100
AcDbEntity
  8
外形線
  6
Continuous
100
AcDbLine
 10
-90.46125109949759
 20
35.99782503046178
 30
0.0
 11
-90.11843498093742
 21
35.99782503046178
 31
0.0
  0
LINE
  5
103
330
1F
100
AcDbEntity
  8
外形線
  6
Continuous
100
AcDbLine
 10
-89.81324948971234
 20
35.85906623042911
 30
0.0
 11
-89.81324948971234
 21
49.62606460681769
 31
0.0
  0
LINE
  5
104
330
1F
100
AcDbEntity
  8
外形線
  6
Continuous
100
AcDbLine
 10
-89.72912618927782
 20
35.70445036988549
 30
0.0
 11
-89.42122932422611
 21
34.63068652876527
 31
0.0
  0
LINE
  5
105
330
1F
100
AcDbEntity
  8
外形線
  6
Continuous
100
AcDbLine
 10
-87.09974799053947
 20
35.85907064457898
 30
0.0
 11
-87.09974799053947
 21
49.62606460681769
 31
0.0
  0
LINE
  5
106
330
1F
100
AcDbEntity
  8
外形線
  6
Continuous
100
AcDbLine
 10
-87.18388401020519
 20
35.70445270796322
 30
0.0
 11
-87.49178148360924
 21
34.63068674526642
 31
0.0
  0
LINE
  5
107
330
1F
100
AcDbEntity
  8
外形線
  6
Continuous
100
AcDbLine
 10
-86.45175079490401
 20
35.99782503046178
 30
0.0
 11
-86.79457132761404
 21
35.99782503046178
 31
0.0
  0
LINE
  5
108
330
1F
100
AcDbEntity
  8
外形線
  6
Continuous
100
AcDbLine
 10
-89.33710397541535
 20
34.47607556715431
 30
0.0
 11
-89.33710397541535
 21
49.62607122804239
 31
0.0
  0
LINE
  5
109
330
1F
100
AcDbEntity
  8
外形線
  6
Continuous
100
AcDbLine
 10
-87.5758935048365
 20
34.47607556715431
 30
0.0
 11
-87.5758935048365
 21
49.62607122804239
 31
0.0
  0
LINE
  5
10A
330
1F
100
AcDbEntity
  8
破線
  6
DASHED
100
AcDbLine
 10
-88.87932132442788
 20
34.94482075925456
 30
0.0
 11
-88.03368056997376
 21
34.94482075925456
 31
0.0
  0
LINE
  5
10B
330
1F
100
AcDbEntity
  8
破線
  6
DASHED
100
AcDbLine
 10
-89.14515982365131
 20
35.87190693950736
 30
0.0
 11
-88.87932322434094
 21
34.94482465843932
 31
0.0
  0
LINE
  5
10C
330
1F
100
AcDbEntity
  8
破線
  6
DASHED
100
AcDbLine
 10
-87.76784644451149
 20
35.87189896622169
 30
0.0
 11
-88.03368304382185
 21
34.94481668515365
 31
0.0
  0
LINE
  5
10D
330
1F
100
AcDbEntity
  8
破線
  6
DASHED
100
AcDbLine
 10
-86.45175079490401
 20
36.60531798722015
 30
0.0
 11
-86.79457132761404
 21
36.60531798722015
 31
0.0
  0
LINE
  5
10E
330
1F
100
AcDbEntity
  8
破線
  6
DASHED
100
AcDbLine
 10
-90.46125109949759
 20
36.60531798722015
 30
0.0
 11
-90.11843498093742
 21
36.60531798722015
 31
0.0
  0
LINE
  5
10F
330
1F
100
AcDbEntity
  8
外形線
  6
Continuous
100
AcDbLine
 10
-85.02242700789635
 20
34.33731897419649
 30
0.0
 11
-83.87158751976768
 21
34.33731897419649
 31
0.0
  0
LINE
  5
110
330
1F
100
AcDbEntity
  8
外形線
  6
Continuous
100
AcDbLine
 10
-86.45175520905388
 20
35.99782503046178
 30
0.0
 11
-86.10893909049368
 21
35.99782503046178
 31
0.0
  0
LINE
  5
111
330
1F
100
AcDbEntity
  8
外形線
  6
Continuous
100
AcDbLine
 10
-85.80374918511877
 20
35.85906623042911
 30
0.0
 11
-85.80374918511877
 21
49.62606460681769
 31
0.0
  0
LINE
  5
112
330
1F
100
AcDbEntity
  8
外形線
  6
Continuous
100
AcDbLine
 10
-85.71962902413998
 20
35.70444743762218
 30
0.0
 11
-85.41173185491214
 21
34.63068253571369
 31
0.0
  0
LINE
  5
113
330
1F
100
AcDbEntity
  8
外形線
  6
Continuous
100
AcDbLine
 10
-83.09024768594587
 20
35.85907064457898
 30
0.0
 11
-83.09024768594587
 21
49.62606460681769
 31
0.0
  0
LINE
  5
114
330
1F
100
AcDbEntity
  8
外形線
  6
Continuous
100
AcDbLine
 10
-83.17438790968401
 20
35.70445192746751
 30
0.0
 11
-83.48228477473568
 21
34.63068808634728
 31
0.0
  0
LINE
  5
115
330
1F
100
AcDbEntity
  8
外形線
  6
Continuous
100
AcDbLine
 10
-82.44225490446032
 20
35.99782503046178
 30
0.0
 11
-82.78507543717029
 21
35.99782503046178
 31
0.0
  0
LINE
  5
116
330
1F
100
AcDbEntity
  8
外形線
  6
Continuous
100
AcDbLine
 10
-85.32760367082175
 20
34.47607556715431
 30
0.0
 11
-85.32760367082175
 21
49.62607122804239
 31
0.0
  0
LINE
  5
117
330
1F
100
AcDbEntity
  8
外形線
  6
Continuous
100
AcDbLine
 10
-83.5663932002429
 20
34.47607556715431
 30
0.0
 11
-83.5663932002429
 21
49.62607122804239
 31
0.0
  0
LINE
  5
118
330
1F
100
AcDbEntity
  8
破線
  6
DASHED
100
AcDbLine
 10
-84.8698254339841
 20
34.94482075925456
 30
0.0
 11
-84.02418467953005
 21
34.94482075925456
 31
0.0
  0
LINE
  5
119
330
1F
100
AcDbEntity
  8
破線
  6
DASHED
100
AcDbLine
 10
-85.13565432429537
 20
35.87190697104768
 30
0.0
 11
-84.86981742080883
 21
34.94482362919133
 31
0.0
  0
LINE
  5
11A
330
1F
100
AcDbEntity
  8
破線
  6
DASHED
100
AcDbLine
 10
-83.75834246603643
 20
35.8718936307401
 30
0.0
 11
-84.02417845699442
 21
34.94481347124861
 31
0.0
  0
LINE
  5
11B
330
1F
100
AcDbEntity
  8
破線
  6
DASHED
100
AcDbLine
 10
-82.44225490446032
 20
36.60531798722015
 30
0.0
 11
-82.78507543717029
 21
36.60531798722015
 31
0.0
  0
LINE
  5
11C
330
1F
100
AcDbEntity
  8
破線
  6
DASHED
100
AcDbLine
 10
-86.45175520905388
 20
36.60531798722015
 30
0.0
 11
-86.10893909049368
 21
36.60531798722015
 31
0.0
  0
LINE
  5
11D
330
1F
100
AcDbEntity
  8
外形線
  6
Continuous
100
AcDbLine
 10
-81.01292670330273
 20
34.33731897419649
 30
0.0
 11
-79.86208721517407
 21
34.33731897419649
 31
0.0
  0
LINE
  5
11E
330
1F
100
AcDbEntity
  8
外形線
  6
Continuous
100
AcDbLine
 10
-82.44225490446032
 20
35.99782503046178
 30
0.0
 11
-82.09943878590008
 21
35.99782503046178
 31
0.0
  0
LINE
  5
11F
330
1F
100
AcDbEntity
  8
外形線
  6
Continuous
100
AcDbLine
 10
-81.79424888052519
 20
35.85906623042911
 30
0.0
 11
-81.79424888052519
 21
49.62606460681769
 31
0.0
  0
LINE
  5
120
330
1F
100
AcDbEntity
  8
外形線
  6
Continuous
100
AcDbLine
 10
-81.71013277153077
 20
35.70444768772372
 30
0.0
 11
-81.40223605856714
 21
34.6306843769976
 31
0.0
  0
LINE
  5
121
330
1F
100
AcDbEntity
  8
外形線
  6
Continuous
100
AcDbLine
 10
-79.08074738135231
 20
35.85907064457898
 30
0.0
 11
-79.08074738135231
 21
49.62606460681769
 31
0.0
  0
LINE
  5
122
330
1F
100
AcDbEntity
  8
外形線
  6
Continuous
100
AcDbLine
 10
-79.16489120081047
 20
35.7044532685484
 30
0.0
 11
-79.47278806586218
 21
34.63068942742817
 31
0.0
  0
LINE
  5
123
330
1F
100
AcDbEntity
  8
外形線
  6
Continuous
100
AcDbLine
 10
-78.43275459986671
 20
35.99782503046178
 30
0.0
 11
-78.77557513257674
 21
35.99782503046178
 31
0.0
  0
LINE
  5
124
330
1F
100
AcDbEntity
  8
外形線
  6
Continuous
100
AcDbLine
 10
-81.31810336622818
 20
34.47607556715431
 30
0.0
 11
-81.31810336622818
 21
49.62607122804239
 31
0.0
  0
LINE
  5
125
330
1F
100
AcDbEntity
  8
外形線
  6
Continuous
100
AcDbLine
 10
-79.55689289564933
 20
34.47607556715431
 30
0.0
 11
-79.55689289564933
 21
49.62607122804239
 31
0.0
  0
LINE
  5
126
330
1F
100
AcDbEntity
  8
破線
  6
DASHED
100
AcDbLine
 10
-80.86032512939054
 20
34.94482075925456
 30
0.0
 11
-80.01468437493647
 21
34.94482075925456
 31
0.0
  0
LINE
  5
127
330
1F
100
AcDbEntity
  8
破線
  6
DASHED
100
AcDbLine
 10
-81.12616155439869
 20
35.87190335247373
 30
0.0
 11
-80.86032465091216
 21
34.94482001061741
 31
0.0
  0
LINE
  5
128
330
1F
100
AcDbEntity
  8
破線
  6
DASHED
100
AcDbLine
 10
-79.74884787873944
 20
35.87189558017325
 30
0.0
 11
-80.01468386969744
 21
34.94481542068179
 31
0.0
  0
LINE
  5
129
330
1F
100
AcDbEntity
  8
破線
  6
DASHED
100
AcDbLine
 10
-78.43275459986671
 20
36.60531798722015
 30
0.0
 11
-78.77557513257674
 21
36.60531798722015
 31
0.0
  0
LINE
  5
12A
330
1F
100
AcDbEntity
  8
破線
  6
DASHED
100
AcDbLine
 10
-82.44225490446032
 20
36.60531798722015
 30
0.0
 11
-82.09943878590008
 21
36.60531798722015
 31
0.0
  0
LINE
  5
12B
330
1F
100
AcDbEntity
  8
外形線
  6
Continuous
100
AcDbLine
 10
-77.00342198455934
 20
34.33731897419649
 30
0.0
 11
-75.85258249643067
 21
34.33731897419649
 31
0.0
  0
LINE
  5
12C
330
1F
100
AcDbEntity
  8
外形線
  6
Continuous
100
AcDbLine
 10
-78.43275018571688
 20
35.99782503046178
 30
0.0
 11
-78.08993406715669
 21
35.99782503046178
 31
0.0
  0
LINE
  5
12D
330
1F
100
AcDbEntity
  8
外形線
  6
Continuous
100
AcDbLine
 10
-77.7847485759316
 20
35.85906623042911
 30
0.0
 11
-77.7847485759316
 21
49.62606460681769
 31
0.0
  0
LINE
  5
12E
330
1F
100
AcDbEntity
  8
外形線
  6
Continuous
100
AcDbLine
 10
-77.70063470152111
 20
35.7044496069659
 30
0.0
 11
-77.39273783646942
 21
34.63068576584568
 31
0.0
  0
LINE
  5
12F
330
1F
100
AcDbEntity
  8
外形線
  6
Continuous
100
AcDbLine
 10
-75.07124707675874
 20
35.85907064457898
 30
0.0
 11
-75.07124707675874
 21
49.62606460681769
 31
0.0
  0
LINE
  5
130
330
1F
100
AcDbEntity
  8
外形線
  6
Continuous
100
AcDbLine
 10
-75.15539388358455
 20
35.70445673120587
 30
0.0
 11
-75.46329074863627
 21
34.63069289008564
 31
0.0
  0
LINE
  5
131
330
1F
100
AcDbEntity
  8
外形線
  6
Continuous
100
AcDbLine
 10
-74.42324988112329
 20
35.99782503046178
 30
0.0
 11
-74.76607041383331
 21
35.99782503046178
 31
0.0
  0
LINE
  5
132
330
1F
100
AcDbEntity
  8
外形線
  6
Continuous
100
AcDbLine
 10
-77.30860306163458
 20
34.47607556715431
 30
0.0
 11
-77.30860306163458
 21
49.62607122804239
 31
0.0
  0
LINE
  5
133
330
1F
100
AcDbEntity
  8
外形線
  6
Continuous
100
AcDbLine
 10
-75.54739259105573
 20
34.47607556715431
 30
0.0
 11
-75.54739259105573
 21
49.62607122804239
 31
0.0
  0
LINE
  5
134
330
1F
100
AcDbEntity
  8
破線
  6
DASHED
100
AcDbLine
 10
-76.85082041064713
 20
34.94482075925456
 30
0.0
 11
-76.00517965619305
 21
34.94482075925456
 31
0.0
  0
LINE
  5
135
330
1F
100
AcDbEntity
  8
破線
  6
DASHED
100
AcDbLine
 10
-77.1166618114201
 20
35.87189943738042
 30
0.0
 11
-76.85082490793354
 21
34.94481609552409
 31
0.0
  0
LINE
  5
136
330
1F
100
AcDbEntity
  8
破線
  6
DASHED
100
AcDbLine
 10
-75.73935056151353
 20
35.87189904283071
 30
0.0
 11
-76.00518655247154
 21
34.94481888333921
 31
0.0
  0
LINE
  5
137
330
1F
100
AcDbEntity
  8
破線
  6
DASHED
100
AcDbLine
 10
-74.42324988112329
 20
36.60531798722015
 30
0.0
 11
-74.76607041383331
 21
36.60531798722015
 31
0.0
  0
LINE
  5
138
330
1F
100
AcDbEntity
  8
破線
  6
DASHED
100
AcDbLine
 10
-78.43275018571688
 20
36.60531798722015
 30
0.0
 11
-78.08993406715669
 21
36.60531798722015
 31
0.0
  0
LINE
  5
139
330
1F
100
AcDbEntity
  8
外形線
  6
Continuous
100
AcDbLine
 10
-72.99392167996575
 20
34.33731897419649
 30
0.0
 11
-71.84308219183709
 21
34.33731897419649
 31
0.0
  0
LINE
  5
13A
330
1F
100
AcDbEntity
  8
外形線
  6
Continuous
100
AcDbLine
 10
-74.42324988112329
 20
35.99782503046178
 30
0.0
 11
-74.08043376256308
 21
35.99782503046178
 31
0.0
  0
LINE
  5
13B
330
1F
100
AcDbEntity
  8
外形線
  6
Continuous
100
AcDbLine
 10
-73.77524827133801
 20
35.85906623042911
 30
0.0
 11
-73.77524827133801
 21
49.62606460681769
 31
0.0
  0
LINE
  5
13C
330
1F
100
AcDbEntity
  8
外形線
  6
Continuous
100
AcDbLine
 10
-73.69114041840032
 20
35.70444871832098
 30
0.0
 11
-73.38324355334859
 21
34.63068487720074
 31
0.0
  0
LINE
  5
13D
330
1F
100
AcDbEntity
  8
外形線
  6
Continuous
100
AcDbLine
 10
-71.06174677216515
 20
35.85907064457898
 30
0.0
 11
-71.06174677216515
 21
49.62606460681769
 31
0.0
  0
LINE
  5
13E
330
1F
100
AcDbEntity
  8
外形線
  6
Continuous
100
AcDbLine
 10
-71.145894756615
 20
35.70445049085233
 30
0.0
 11
-71.45379101331432
 21
34.63068877130864
 31
0.0
  0
LINE
  5
13F
330
1F
100
AcDbEntity
  8
外形線
  6
Continuous
100
AcDbLine
 10
-70.41374957652974
 20
35.99782503046178
 30
0.0
 11
-70.75657010923973
 21
35.99782503046178
 31
0.0
  0
LINE
  5
140
330
1F
100
AcDbEntity
  8
外形線
  6
Continuous
100
AcDbLine
 10
-73.29910275704104
 20
34.47607556715431
 30
0.0
 11
-73.29910275704104
 21
49.62607122804239
 31
0.0
  0
LINE
  5
141
330
1F
100
AcDbEntity
  8
外形線
  6
Continuous
100
AcDbLine
 10
-71.53789228646215
 20
34.47607556715431
 30
0.0
 11
-71.53789228646215
 21
49.62607122804239
 31
0.0
  0
LINE
  5
142
330
1F
100
AcDbEntity
  8
破線
  6
DASHED
100
AcDbLine
 10
-72.84132010605354
 20
34.94482075925456
 30
0.0
 11
-71.99567935159945
 21
34.94482075925456
 31
0.0
  0
LINE
  5
143
330
1F
100
AcDbEntity
  8
破線
  6
DASHED
100
AcDbLine
 10
-73.10716404558665
 20
35.87190241741087
 30
0.0
 11
-72.84132744627628
 21
34.94482013634281
 31
0.0
  0
LINE
  5
144
330
1F
100
AcDbEntity
  8
破線
  6
DASHED
100
AcDbLine
 10
-71.72985324428767
 20
35.87190250548815
 30
0.0
 11
-71.99568923524566
 21
34.94482234599664
 31
0.0
  0
LINE
  5
145
330
1F
100
AcDbEntity
  8
破線
  6
DASHED
100
AcDbLine
 10
-70.41374957652974
 20
36.60531798722015
 30
0.0
 11
-70.75657010923973
 21
36.60531798722015
 31
0.0
  0
LINE
  5
146
330
1F
100
AcDbEntity
  8
破線
  6
DASHED
100
AcDbLine
 10
-74.42324988112329
 20
36.60531798722015
 30
0.0
 11
-74.08043376256308
 21
36.60531798722015
 31
0.0
  0
LINE
  5
147
330
1F
100
AcDbEntity
  8
外形線
  6
Continuous
100
AcDbLine
 10
-68.98442578952202
 20
34.33731897419649
 30
0.0
 11
-64.09575264126015
 21
34.33731897419649
 31
0.0
  0
LINE
  5
148
330
1F
100
AcDbEntity
  8
外形線
  6
Continuous
100
AcDbLine
 10
-70.41375399067955
 20
35.99782503046178
 30
0.0
 11
-70.07093787211937
 21
35.99782503046178
 31
0.0
  0
LINE
  5
149
330
1F
100
AcDbEntity
  8
外形線
  6
Continuous
100
AcDbLine
 10
-69.7657523808943
 20
35.85906623042911
 30
0.0
 11
-69.7657523808943
 21
49.62606460681769
 31
0.0
  0
LINE
  5
14A
330
1F
100
AcDbEntity
  8
外形線
  6
Continuous
100
AcDbLine
 10
-69.68164825685608
 20
35.70444722132363
 30
0.0
 11
-69.37375139180438
 21
34.63068338020341
 31
0.0
  0
LINE
  5
14B
330
1F
100
AcDbEntity
  8
外形線
  6
Continuous
100
AcDbLine
 10
-69.28960686659728
 20
34.47607556715431
 30
0.0
 11
-69.28960686659728
 21
49.62607122804239
 31
0.0
  0
LINE
  5
14C
330
1F
100
AcDbEntity
  8
破線
  6
DASHED
100
AcDbLine
 10
-68.8318242156098
 20
34.94482075925456
 30
0.0
 11
-64.44649105523495
 21
34.94482075925456
 31
0.0
  0
LINE
  5
14D
330
1F
100
AcDbEntity
  8
破線
  6
DASHED
100
AcDbLine
 10
-69.09767279657097
 20
35.87190410277836
 30
0.0
 11
-68.83183589308443
 21
34.94482076092201
 31
0.0
  0
LINE
  5
14E
330
1F
100
AcDbEntity
  8
破線
  6
DASHED
100
AcDbLine
 10
-70.41375399067955
 20
36.60531798722015
 30
0.0
 11
-70.07093787211937
 21
36.60531798722015
 31
0.0
  0
LINE
  5
14F
330
1F
100
AcDbEntity
  8
外形線
  6
Continuous
100
AcDbLine
 10
-64.09575264126016
 20
34.33731897419651
 30
0.0
 11
-64.09575264126016
 21
49.62606460681769
 31
0.0
  0
LINE
  5
150
330
1F
100
AcDbEntity
  8
外形線
  6
Continuous
100
AcDbLine
 10
-61.99151827161749
 20
37.98196077833274
 30
0.0
 11
-64.09575277009081
 21
34.33731819347587
 31
0.0
  0
LINE
  5
151
330
1F
100
AcDbEntity
  8
外形線
  6
Continuous
100
AcDbLine
 10
-61.26697323443521
 20
37.93533688692934
 30
0.0
 11
-60.65325088095535
 21
36.46357182348308
 31
0.0
  0
LINE
  5
152
330
1F
100
AcDbEntity
  8
破線
  6
DASHED
100
AcDbLine
 10
-62.10822384980193
 20
38.99482023957039
 30
0.0
 11
-64.44649318854124
 21
34.944817251302
 31
0.0
  0
LINE
  5
153
330
1F
100
AcDbEntity
  8
破線
  6
DASHED
100
AcDbLine
 10
-61.02140975703203
 20
38.9248833260504
 30
0.0
 11
-60.24837554767136
 21
37.07107315320134
 31
0.0
  0
LINE
  5
154
330
1F
100
AcDbEntity
  8
外形線
  6
Continuous
100
AcDbLine
 10
-96.49575146875161
 20
35.59282016196486
 30
0.0
 11
-96.09075322147941
 21
35.59282016196486
 31
0.0
  0
LINE
  5
156
330
1F
100
AcDbEntity
  8
0
  6
Continuous
 62
     7
100
AcDbLine
 10
-80.90824858757503
 20
-37.57474667134836
 30
0.0
 11
99.09175904181951
 21
-37.57474667134836
 31
0.0
  0
ARC
  5
157
330
1F
100
AcDbEntity
  8
破線
  6
DASHED
100
AcDbCircle
 10
-55.30726198348069
 20
61.65457655597297
 30
0.0
 40
0.5264950315812344
100
AcDbArc
 50
89.99998201391056
 51
179.9999640278213
  0
ARC
  5
158
330
1F
100
AcDbEntity
  8
外形線
  6
Continuous
100
AcDbCircle
 10
-68.98443020367185
 20
64.50982523461618
 30
0.0
 40
0.4050000060349702
100
AcDbArc
 50
89.99998201391056
 51
164.000027331013
  0
ARC
  5
159
330
1F
100
AcDbEntity
  8
破線
  6
DASHED
100
AcDbCircle
 10
-90.80407163220762
 20
63.65932229411993
 30
0.0
 40
1.012500032330199
100
AcDbArc
 50
196.0001229331486
 51
269.9999633445761
  0
ARC
  5
15A
330
1F
100
AcDbEntity
  8
破線
  6
DASHED
100
AcDbCircle
 10
-94.12793528553102
 20
63.65932229411993
 30
0.0
 40
1.012500032330199
100
AcDbArc
 50
270.0000179860895
 51
343.9998549824221
  0
ARC
  5
15B
330
1F
100
AcDbEntity
  8
外形線
  6
Continuous
100
AcDbCircle
 10
-70.07093787211937
 20
63.65932450119486
 30
0.0
 40
0.4050000060349702
100
AcDbArc
 50
270.0000179860895
 51
343.9998549824221
  0
ARC
  5
15C
330
1F
100
AcDbEntity
  8
外形線
  6
Continuous
100
AcDbCircle
 10
-72.99392609411559
 20
64.50982523461618
 30
0.0
 40
0.4050000060349702
100
AcDbArc
 50
89.99998201391056
 51
164.000027331013
  0
ARC
  5
15D
330
1F
100
AcDbEntity
  8
破線
  6
DASHED
100
AcDbCircle
 10
-86.79457132761404
 20
63.65932450119486
 30
0.0
 40
1.012500032330199
100
AcDbArc
 50
196.0001229331486
 51
269.9999633445761
  0
ARC
  5
15E
330
1F
100
AcDbEntity
  8
破線
  6
DASHED
100
AcDbCircle
 10
-90.11843498093742
 20
63.65932450119486
 30
0.0
 40
1.012500032330199
100
AcDbArc
 50
270.0000179860895
 51
343.9998549824221
  0
ARC
  5
15F
330
1F
100
AcDbEntity
  8
外形線
  6
Continuous
100
AcDbCircle
 10
-74.08043376256308
 20
63.65932450119486
 30
0.0
 40
0.4050000060349702
100
AcDbArc
 50
270.0000179860895
 51
343.9998549824221
  0
ARC
  5
160
330
1F
100
AcDbEntity
  8
外形線
  6
Continuous
100
AcDbCircle
 10
-90.80407163220762
 20
63.65932229411993
 30
0.0
 40
0.4050000060349702
100
AcDbArc
 50
196.0001229331486
 51
269.9999633445761
  0
ARC
  5
161
330
1F
100
AcDbEntity
  8
外形線
  6
Continuous
100
AcDbCircle
 10
-85.02242700789635
 20
64.50982523461618
 30
0.0
 40
0.4050000060349702
100
AcDbArc
 50
89.99998201391056
 51
164.000027331013
  0
ARC
  5
162
330
1F
100
AcDbEntity
  8
外形線
  6
Continuous
100
AcDbCircle
 10
-86.10893467634381
 20
63.65932450119486
 30
0.0
 40
0.4050000060349702
100
AcDbArc
 50
270.0000179860895
 51
343.9998549824221
  0
ARC
  5
163
330
1F
100
AcDbEntity
  8
外形線
  6
Continuous
100
AcDbCircle
 10
-83.87158751976768
 20
64.50982523461618
 30
0.0
 40
0.4050000060349702
100
AcDbArc
 50
15.99993669680828
 51
89.99998201391056
  0
ARC
  5
164
330
1F
100
AcDbEntity
  8
外形線
  6
Continuous
100
AcDbCircle
 10
-82.78507102302048
 20
63.65932450119486
 30
0.0
 40
0.4050000060349702
100
AcDbArc
 50
196.0001229331486
 51
269.9999633445761
  0
ARC
  5
165
330
1F
100
AcDbEntity
  8
破線
  6
DASHED
100
AcDbCircle
 10
-70.07093787211937
 20
63.65932450119486
 30
0.0
 40
1.012500032330199
100
AcDbArc
 50
270.0000179860895
 51
343.9998549824221
  0
ARC
  5
166
330
1F
100
AcDbEntity
  8
破線
  6
DASHED
100
AcDbCircle
 10
-56.54250001643596
 20
61.75581949656623
 30
0.0
 40
0.7159464111055561
100
AcDbArc
 50
188.1298871978398
 51
351.8700804724472
  0
ARC
  5
167
330
1F
100
AcDbEntity
  8
外形線
  6
Continuous
100
AcDbCircle
 10
-89.0319273124899
 20
64.50982523461618
 30
0.0
 40
0.4050000060349702
100
AcDbArc
 50
89.99998201391056
 51
164.000027331013
  0
ARC
  5
168
330
1F
100
AcDbEntity
  8
破線
  6
DASHED
100
AcDbCircle
 10
-82.09943437175025
 20
63.65932450119486
 30
0.0
 40
1.012500032330199
100
AcDbArc
 50
270.0000179860895
 51
343.9998549824221
  0
ARC
  5
169
330
1F
100
AcDbEntity
  8
破線
  6
DASHED
100
AcDbCircle
 10
-78.77557071842689
 20
63.65932450119486
 30
0.0
 40
1.012500032330199
100
AcDbArc
 50
196.0001229331486
 51
269.9999633445761
  0
ARC
  5
16A
330
1F
100
AcDbEntity
  8
外形線
  6
Continuous
100
AcDbCircle
 10
-57.04875003260108
 20
62.38357340106283
 30
0.0
 40
0.4050000060349702
100
AcDbArc
 50
0.0
 51
89.99998201391056
  0
ARC
  5
16B
330
1F
100
AcDbEntity
  8
外形線
  6
Continuous
100
AcDbCircle
 10
-71.84308660598692
 20
64.50982523461618
 30
0.0
 40
0.4050000060349702
100
AcDbArc
 50
15.99993669680828
 51
89.99998201391056
  0
ARC
  5
16C
330
1F
100
AcDbEntity
  8
外形線
  6
Continuous
100
AcDbCircle
 10
-70.75657010923973
 20
63.65932450119486
 30
0.0
 40
0.4050000060349702
100
AcDbArc
 50
196.0001229331486
 51
269.9999633445761
  0
ARC
  5
16D
330
1F
100
AcDbEntity
  8
破線
  6
DASHED
100
AcDbCircle
 10
-86.10893467634381
 20
63.65932450119486
 30
0.0
 40
1.012500032330199
100
AcDbArc
 50
270.0000179860895
 51
343.9998549824221
  0
ARC
  5
16E
330
1F
100
AcDbEntity
  8
破線
  6
DASHED
100
AcDbCircle
 10
-82.78507102302048
 20
63.65932450119486
 30
0.0
 40
1.012500032330199
100
AcDbArc
 50
196.0001229331486
 51
269.9999633445761
  0
ARC
  5
16F
330
1F
100
AcDbEntity
  8
外形線
  6
Continuous
100
AcDbCircle
 10
-61.64077796602921
 20
61.47268102845592
 30
0.0
 40
0.4050000060349702
100
AcDbArc
 50
210.0000026560588
 51
337.3639710339179
  0
ARC
  5
170
330
1F
100
AcDbEntity
  8
破線
  6
DASHED
100
AcDbCircle
 10
-50.50800406133184
 20
61.75581949656623
 30
0.0
 40
0.7159464111055561
100
AcDbArc
 50
188.1298871978398
 51
351.8700804724472
  0
ARC
  5
171
330
1F
100
AcDbEntity
  8
外形線
  6
Continuous
100
AcDbCircle
 10
-93.04142320293363
 20
64.50982082046635
 30
0.0
 40
0.4050000060349702
100
AcDbArc
 50
89.99998201391056
 51
164.000027331013
  0
ARC
  5
172
330
1F
100
AcDbEntity
  8
外形線
  6
Continuous
100
AcDbCircle
 10
-55.30726198348069
 20
61.65457655597297
 30
0.0
 40
1.133995092362008
100
AcDbArc
 50
89.99998201391056
 51
179.9999640278213
  0
ARC
  5
173
330
1F
100
AcDbEntity
  8
破線
  6
DASHED
100
AcDbCircle
 10
-49.27275720007687
 20
61.65457655597297
 30
0.0
 40
0.5264950315812344
100
AcDbArc
 50
89.99998201391056
 51
179.9999640278213
  0
ARC
  5
174
330
1F
100
AcDbEntity
  8
外形線
  6
Continuous
100
AcDbCircle
 10
-49.27275720007687
 20
61.65457655597297
 30
0.0
 40
1.133995092362008
100
AcDbArc
 50
89.99998201391056
 51
179.9999640278213
  0
ARC
  5
175
330
1F
100
AcDbEntity
  8
外形線
  6
Continuous
100
AcDbCircle
 10
-51.01425849164676
 20
62.38357340106283
 30
0.0
 40
0.4050000060349702
100
AcDbArc
 50
0.0
 51
89.99998201391056
  0
ARC
  5
176
330
1F
100
AcDbEntity
  8
外形線
  6
Continuous
100
AcDbCircle
 10
-91.89058371480498
 20
64.50982082046635
 30
0.0
 40
0.4050000060349702
100
AcDbArc
 50
15.99993669680828
 51
89.99998201391056
  0
ARC
  5
177
330
1F
100
AcDbEntity
  8
外形線
  6
Continuous
100
AcDbCircle
 10
-90.11843498093742
 20
63.65932450119486
 30
0.0
 40
0.4050000060349702
100
AcDbArc
 50
270.0000179860895
 51
343.9998549824221
  0
ARC
  5
178
330
1F
100
AcDbEntity
  8
外形線
  6
Continuous
100
AcDbCircle
 10
-5.8700418750604
 20
49.62607122804239
 30
0.0
 40
11.42100023226014
100
AcDbArc
 50
167.7466456379534
 51
179.9999640278213
  0
ARC
  5
179
330
1F
100
AcDbEntity
  8
外形線
  6
Continuous
100
AcDbCircle
 10
-94.12793528553102
 20
63.65932229411993
 30
0.0
 40
0.4050000060349702
100
AcDbArc
 50
270.0000179860895
 51
343.9998549824221
  0
ARC
  5
17A
330
1F
100
AcDbEntity
  8
外形線
  6
Continuous
100
AcDbCircle
 10
-5.8700418750604
 20
49.62607122804239
 30
0.0
 40
11.42100023226014
100
AcDbArc
 50
180.0001042740704
 51
192.2534226639381
  0
ARC
  5
17B
330
1F
100
AcDbEntity
  8
外形線
  6
Continuous
100
AcDbCircle
 10
-8.379936298988887
 20
38.06948265886787
 30
0.0
 40
0.4050000060349702
100
AcDbArc
 50
77.74660898252959
 51
135.0000003416226
  0
ARC
  5
17C
330
1F
100
AcDbEntity
  8
外形線
  6
Continuous
100
AcDbCircle
 10
-5.8700418750604
 20
49.62607122804239
 30
0.0
 40
11.42100023226014
100
AcDbArc
 50
257.7466586150866
 51
269.9999633445761
  0
ARC
  5
17D
330
1F
100
AcDbEntity
  8
外形線
  6
Continuous
100
AcDbCircle
 10
-17.42663044423492
 20
47.11617790765138
 30
0.0
 40
0.4050000060349702
100
AcDbArc
 50
315.0000636345581
 51
12.25344816346218
  0
ARC
  5
17E
330
1F
100
AcDbEntity
  8
外形線
  6
Continuous
100
AcDbCircle
 10
-3.360147451131901
 20
38.06948265886787
 30
0.0
 40
0.4050000060349702
100
AcDbArc
 50
45.00005930884699
 51
102.2534438377509
  0
ARC
  5
17F
330
1F
100
AcDbEntity
  8
外形線
  6
Continuous
100
AcDbCircle
 10
-5.8700418750604
 20
49.62607122804239
 30
0.0
 40
11.42100023226014
100
AcDbArc
 50
270.0000999483595
 51
282.2534183382274
  0
ARC
  5
180
330
1F
100
AcDbEntity
  8
外形線
  6
Continuous
100
AcDbCircle
 10
5.68654669411416
 20
47.11617570057645
 30
0.0
 40
0.4050000060349702
100
AcDbArc
 50
167.7466046568184
 51
224.9999960159116
  0
ARC
  5
181
330
1F
100
AcDbEntity
  8
外形線
  6
Continuous
100
AcDbCircle
 10
-5.8700418750604
 20
49.62607122804239
 30
0.0
 40
11.42100023226014
100
AcDbArc
 50
347.7466542893754
 51
359.9999590188649
  0
ARC
  5
182
330
1F
100
AcDbEntity
  8
外形線
  6
Continuous
100
AcDbCircle
 10
-17.42663044423492
 20
52.1359662037396
 30
0.0
 40
0.4050000060349702
100
AcDbArc
 50
347.7466150157876
 51
45.0000012522392
  0
ARC
  5
183
330
1F
100
AcDbEntity
  8
外形線
  6
Continuous
100
AcDbCircle
 10
-5.8700418750604
 20
49.62607122804239
 30
0.0
 40
11.42100023226014
100
AcDbArc
 50
90.00009129693728
 51
102.2534096868051
  0
ARC
  5
184
330
1F
100
AcDbEntity
  8
外形線
  6
Continuous
100
AcDbCircle
 10
-8.379936298988887
 20
61.18265979721694
 30
0.0
 40
0.4050000060349702
100
AcDbArc
 50
225.000067960269
 51
282.2534524891731
  0
ARC
  5
185
330
1F
100
AcDbEntity
  8
外形線
  6
Continuous
100
AcDbCircle
 10
5.68654669411416
 20
52.13596482431778
 30
0.0
 40
0.4050000060349702
100
AcDbArc
 50
135.000054983136
 51
192.2534326818508
  0
ARC
  5
186
330
1F
100
AcDbEntity
  8
外形線
  6
Continuous
100
AcDbCircle
 10
-5.8700418750604
 20
49.62607122804239
 30
0.0
 40
11.42100023226014
100
AcDbArc
 50
0.0000956226483802
 51
12.25341401251624
  0
CIRCLE
  5
187
330
1F
100
AcDbEntity
  8
外形線
  6
Continuous
100
AcDbCircle
 10
-5.8700418750604
 20
49.62607122804239
 30
0.0
 40
10.32750275755043
  0
ARC
  5
188
330
1F
100
AcDbEntity
  8
外形線
  6
Continuous
100
AcDbCircle
 10
-3.360147451131901
 20
61.18265979721694
 30
0.0
 40
0.4050000060349702
100
AcDbArc
 50
257.7466039735733
 51
315.0000089930447
  0
CIRCLE
  5
189
330
1F
100
AcDbEntity
  8
外形線
  6
Continuous
100
AcDbCircle
 10
-5.8700418750604
 20
49.62607122804239
 30
0.0
 40
15.28875225384593
  0
ARC
  5
18A
330
1F
100
AcDbEntity
  8
外形線
  6
Continuous
100
AcDbCircle
 10
-5.8700418750604
 20
49.62607122804239
 30
0.0
 40
11.42100023226014
100
AcDbArc
 50
77.74664996366441
 51
89.99995469315388
  0
CIRCLE
  5
18B
330
1F
100
AcDbEntity
  8
外形線
  6
Continuous
100
AcDbCircle
 10
-5.8700418750604
 20
49.62607122804239
 30
0.0
 40
13.56749866756473
  0
CIRCLE
  5
18C
330
1F
100
AcDbEntity
  8
外形線
  6
Continuous
100
AcDbCircle
 10
-5.8700418750604
 20
49.62607122804239
 30
0.0
 40
13.16250042029258
  0
ARC
  5
18D
330
1F
100
AcDbEntity
  8
外形線
  6
Continuous
100
AcDbCircle
 10
-81.01292670330273
 20
64.50982523461618
 30
0.0
 40
0.4050000060349702
100
AcDbArc
 50
89.99998201391056
 51
164.000027331013
  0
ARC
  5
18E
330
1F
100
AcDbEntity
  8
外形線
  6
Continuous
100
AcDbCircle
 10
-82.09943437175025
 20
63.65932450119486
 30
0.0
 40
0.4050000060349702
100
AcDbArc
 50
270.0000179860895
 51
343.9998549824221
  0
ARC
  5
18F
330
1F
100
AcDbEntity
  8
外形線
  6
Continuous
100
AcDbCircle
 10
-79.8620872151741
 20
64.50982523461618
 30
0.0
 40
0.4050000060349702
100
AcDbArc
 50
15.99993669680828
 51
89.99998201391056
  0
ARC
  5
190
330
1F
100
AcDbEntity
  8
外形線
  6
Continuous
100
AcDbCircle
 10
-78.77557071842689
 20
63.65932450119486
 30
0.0
 40
0.4050000060349702
100
AcDbArc
 50
196.0001229331486
 51
269.9999633445761
  0
ARC
  5
191
330
1F
100
AcDbEntity
  8
破線
  6
DASHED
100
AcDbCircle
 10
-78.08993406715669
 20
63.65932450119486
 30
0.0
 40
1.012500032330199
100
AcDbArc
 50
270.0000179860895
 51
343.9998549824221
  0
ARC
  5
192
330
1F
100
AcDbEntity
  8
破線
  6
DASHED
100
AcDbCircle
 10
-74.76607041383331
 20
63.65932450119486
 30
0.0
 40
1.012500032330199
100
AcDbArc
 50
196.0001229331486
 51
269.9999633445761
  0
ARC
  5
193
330
1F
100
AcDbEntity
  8
外形線
  6
Continuous
100
AcDbCircle
 10
-77.00342639870918
 20
64.50982523461618
 30
0.0
 40
0.4050000060349702
100
AcDbArc
 50
89.99998201391056
 51
164.000027331013
  0
ARC
  5
194
330
1F
100
AcDbEntity
  8
外形線
  6
Continuous
100
AcDbCircle
 10
-78.08993406715669
 20
63.65932450119486
 30
0.0
 40
0.4050000060349702
100
AcDbArc
 50
270.0000179860895
 51
343.9998549824221
  0
ARC
  5
195
330
1F
100
AcDbEntity
  8
外形線
  6
Continuous
100
AcDbCircle
 10
-75.85258691058051
 20
64.50982523461618
 30
0.0
 40
0.4050000060349702
100
AcDbArc
 50
15.99993669680828
 51
89.99998201391056
  0
ARC
  5
196
330
1F
100
AcDbEntity
  8
外形線
  6
Continuous
100
AcDbCircle
 10
-74.76607041383331
 20
63.65932450119486
 30
0.0
 40
0.4050000060349702
100
AcDbArc
 50
196.0001229331486
 51
269.9999633445761
  0
ARC
  5
197
330
1F
100
AcDbEntity
  8
破線
  6
DASHED
100
AcDbCircle
 10
-74.08043376256308
 20
63.65932450119486
 30
0.0
 40
1.012500032330199
100
AcDbArc
 50
270.0000179860895
 51
343.9998549824221
  0
ARC
  5
198
330
1F
100
AcDbEntity
  8
破線
  6
DASHED
100
AcDbCircle
 10
-70.75657010923973
 20
63.65932450119486
 30
0.0
 40
1.012500032330199
100
AcDbArc
 50
196.0001229331486
 51
269.9999633445761
  0
ARC
  5
199
330
1F
100
AcDbEntity
  8
破線
  6
DASHED
100
AcDbCircle
 10
-61.58211391473496
 20
60.56107080473234
 30
0.0
 40
0.6074986813589507
100
AcDbArc
 50
209.9999753353023
 51
337.3640103075055
  0
ARC
  5
19A
330
1F
100
AcDbEntity
  8
外形線
  6
Continuous
100
AcDbCircle
 10
-87.88108782436124
 20
64.50982523461618
 30
0.0
 40
0.4050000060349702
100
AcDbArc
 50
15.99993669680828
 51
89.99998201391056
  0
ARC
  5
19B
330
1F
100
AcDbEntity
  8
外形線
  6
Continuous
100
AcDbCircle
 10
-86.79457132761404
 20
63.65932450119486
 30
0.0
 40
0.4050000060349702
100
AcDbArc
 50
196.0001229331486
 51
269.9999633445761
  0
ARC
  5
19C
330
1F
100
AcDbEntity
  8
外形線
  6
Continuous
100
AcDbCircle
 10
-57.04875003260108
 20
36.86856022672233
 30
0.0
 40
0.4050000060349702
100
AcDbArc
 50
269.9999633445761
 51
359.9999453584866
  0
ARC
  5
19D
330
1F
100
AcDbEntity
  8
外形線
  6
Continuous
100
AcDbCircle
 10
-55.30726198348069
 20
37.59756590011186
 30
0.0
 40
1.133995092362008
100
AcDbArc
 50
179.9999813306653
 51
269.9999633445761
  0
ARC
  5
19E
330
1F
100
AcDbEntity
  8
破線
  6
DASHED
100
AcDbCircle
 10
-55.30726198348069
 20
37.59756590011186
 30
0.0
 40
0.5264950315812344
100
AcDbArc
 50
179.9999813306653
 51
269.9999633445761
  0
ARC
  5
19F
330
1F
100
AcDbEntity
  8
破線
  6
DASHED
100
AcDbCircle
 10
-56.54250001643596
 20
37.49631413121887
 30
0.0
 40
0.7159464111055561
100
AcDbArc
 50
8.129864886039452
 51
171.8700581606468
  0
ARC
  5
1A0
330
1F
100
AcDbEntity
  8
外形線
  6
Continuous
100
AcDbCircle
 10
-51.01425849164676
 20
36.86856022672233
 30
0.0
 40
0.4050000060349702
100
AcDbArc
 50
269.9999633445761
 51
359.9999453584866
  0
ARC
  5
1A1
330
1F
100
AcDbEntity
  8
外形線
  6
Continuous
100
AcDbCircle
 10
-49.27275720007687
 20
37.59756590011186
 30
0.0
 40
1.133995092362008
100
AcDbArc
 50
179.9999813306653
 51
269.9999633445761
  0
ARC
  5
1A2
330
1F
100
AcDbEntity
  8
破線
  6
DASHED
100
AcDbCircle
 10
-49.27275720007687
 20
37.59756590011186
 30
0.0
 40
0.5264950315812344
100
AcDbArc
 50
179.9999813306653
 51
269.9999633445761
  0
ARC
  5
1A3
330
1F
100
AcDbEntity
  8
破線
  6
DASHED
100
AcDbCircle
 10
-50.50800406133184
 20
37.49631413121887
 30
0.0
 40
0.7159464111055561
100
AcDbArc
 50
8.129864886039452
 51
171.8700581606468
  0
ARC
  5
1A4
330
1F
100
AcDbEntity
  8
破線
  6
DASHED
100
AcDbCircle
 10
-94.12793528553102
 20
35.59282016196486
 30
0.0
 40
1.012500032330199
100
AcDbArc
 50
16.00010062134841
 51
89.99994103277556
  0
ARC
  5
1A5
330
1F
100
AcDbEntity
  8
破線
  6
DASHED
100
AcDbCircle
 10
-90.80407163220762
 20
35.59282016196486
 30
0.0
 40
1.012500032330199
100
AcDbArc
 50
89.99998201391056
 51
163.9998224253379
  0
ARC
  5
1A6
330
1F
100
AcDbEntity
  8
外形線
  6
Continuous
100
AcDbCircle
 10
-93.04142320293363
 20
34.74232163561846
 30
0.0
 40
0.4050000060349702
100
AcDbArc
 50
195.9999180274735
 51
269.9999633445761
  0
ARC
  5
1A7
330
1F
100
AcDbEntity
  8
外形線
  6
Continuous
100
AcDbCircle
 10
-94.12793528553102
 20
35.59282016196486
 30
0.0
 40
0.4050000060349702
100
AcDbArc
 50
16.00010062134841
 51
89.99994103277556
  0
ARC
  5
1A8
330
1F
100
AcDbEntity
  8
外形線
  6
Continuous
100
AcDbCircle
 10
-91.89058371480498
 20
34.74232163561846
 30
0.0
 40
0.4050000060349702
100
AcDbArc
 50
269.9999633445761
 51
344.0000086616784
  0
ARC
  5
1A9
330
1F
100
AcDbEntity
  8
外形線
  6
Continuous
100
AcDbCircle
 10
-90.80407163220762
 20
35.59282016196486
 30
0.0
 40
0.4050000060349702
100
AcDbArc
 50
89.99998201391056
 51
163.9998224253379
  0
ARC
  5
1AA
330
1F
100
AcDbEntity
  8
破線
  6
DASHED
100
AcDbCircle
 10
-90.11843498093742
 20
35.59281795488995
 30
0.0
 40
1.012500032330199
100
AcDbArc
 50
16.00010062134841
 51
89.99994103277556
  0
ARC
  5
1AB
330
1F
100
AcDbEntity
  8
破線
  6
DASHED
100
AcDbCircle
 10
-86.79457132761404
 20
35.59281795488995
 30
0.0
 40
1.012500032330199
100
AcDbArc
 50
89.99998201391056
 51
163.9998224253379
  0
ARC
  5
1AC
330
1F
100
AcDbEntity
  8
外形線
  6
Continuous
100
AcDbCircle
 10
-89.0319273124899
 20
34.74231722146862
 30
0.0
 40
0.4050000060349702
100
AcDbArc
 50
195.9999180274735
 51
269.9999633445761
  0
ARC
  5
1AD
330
1F
100
AcDbEntity
  8
外形線
  6
Continuous
100
AcDbCircle
 10
-90.11843498093742
 20
35.59281795488995
 30
0.0
 40
0.4050000060349702
100
AcDbArc
 50
16.00010062134841
 51
89.99994103277556
  0
ARC
  5
1AE
330
1F
100
AcDbEntity
  8
外形線
  6
Continuous
100
AcDbCircle
 10
-87.88108782436124
 20
34.74231722146862
 30
0.0
 40
0.4050000060349702
100
AcDbArc
 50
269.9999633445761
 51
344.0000086616784
  0
ARC
  5
1AF
330
1F
100
AcDbEntity
  8
外形線
  6
Continuous
100
AcDbCircle
 10
-86.79457132761404
 20
35.59281795488995
 30
0.0
 40
0.4050000060349702
100
AcDbArc
 50
89.99998201391056
 51
163.9998224253379
  0
ARC
  5
1B0
330
1F
100
AcDbEntity
  8
破線
  6
DASHED
100
AcDbCircle
 10
-86.10893467634381
 20
35.59281795488995
 30
0.0
 40
1.012500032330199
100
AcDbArc
 50
16.00010062134841
 51
89.99994103277556
  0
ARC
  5
1B1
330
1F
100
AcDbEntity
  8
破線
  6
DASHED
100
AcDbCircle
 10
-82.78507102302048
 20
35.59281795488995
 30
0.0
 40
1.012500032330199
100
AcDbArc
 50
89.99998201391056
 51
163.9998224253379
  0
ARC
  5
1B2
330
1F
100
AcDbEntity
  8
外形線
  6
Continuous
100
AcDbCircle
 10
-85.02242700789635
 20
34.74231722146862
 30
0.0
 40
0.4050000060349702
100
AcDbArc
 50
195.9999180274735
 51
269.9999633445761
  0
ARC
  5
1B3
330
1F
100
AcDbEntity
  8
外形線
  6
Continuous
100
AcDbCircle
 10
-86.10893467634381
 20
35.59281795488995
 30
0.0
 40
0.4050000060349702
100
AcDbArc
 50
16.00010062134841
 51
89.99994103277556
  0
ARC
  5
1B4
330
1F
100
AcDbEntity
  8
外形線
  6
Continuous
100
AcDbCircle
 10
-83.87158751976768
 20
34.74231722146862
 30
0.0
 40
0.4050000060349702
100
AcDbArc
 50
269.9999633445761
 51
344.0000086616784
  0
ARC
  5
1B5
330
1F
100
AcDbEntity
  8
外形線
  6
Continuous
100
AcDbCircle
 10
-82.78507102302048
 20
35.59281795488995
 30
0.0
 40
0.4050000060349702
100
AcDbArc
 50
89.99998201391056
 51
163.9998224253379
  0
ARC
  5
1B6
330
1F
100
AcDbEntity
  8
破線
  6
DASHED
100
AcDbCircle
 10
-82.09943437175025
 20
35.59281795488995
 30
0.0
 40
1.012500032330199
100
AcDbArc
 50
16.00010062134841
 51
89.99994103277556
  0
ARC
  5
1B7
330
1F
100
AcDbEntity
  8
破線
  6
DASHED
100
AcDbCircle
 10
-78.77557071842689
 20
35.59281795488995
 30
0.0
 40
1.012500032330199
100
AcDbArc
 50
89.99998201391056
 51
163.9998224253379
  0
ARC
  5
1B8
330
1F
100
AcDbEntity
  8
外形線
  6
Continuous
100
AcDbCircle
 10
-81.01292670330273
 20
34.74231722146862
 30
0.0
 40
0.4050000060349702
100
AcDbArc
 50
195.9999180274735
 51
269.9999633445761
  0
ARC
  5
1B9
330
1F
100
AcDbEntity
  8
外形線
  6
Continuous
100
AcDbCircle
 10
-82.09943437175025
 20
35.59281795488995
 30
0.0
 40
0.4050000060349702
100
AcDbArc
 50
16.00010062134841
 51
89.99994103277556
  0
ARC
  5
1BA
330
1F
100
AcDbEntity
  8
外形線
  6
Continuous
100
AcDbCircle
 10
-79.8620872151741
 20
34.74231722146862
 30
0.0
 40
0.4050000060349702
100
AcDbArc
 50
269.9999633445761
 51
344.0000086616784
  0
ARC
  5
1BB
330
1F
100
AcDbEntity
  8
外形線
  6
Continuous
100
AcDbCircle
 10
-78.77557071842689
 20
35.59281795488995
 30
0.0
 40
0.4050000060349702
100
AcDbArc
 50
89.99998201391056
 51
163.9998224253379
  0
ARC
  5
1BC
330
1F
100
AcDbEntity
  8
破線
  6
DASHED
100
AcDbCircle
 10
-78.08993406715669
 20
35.59281795488995
 30
0.0
 40
1.012500032330199
100
AcDbArc
 50
16.00010062134841
 51
89.99994103277556
  0
ARC
  5
1BD
330
1F
100
AcDbEntity
  8
破線
  6
DASHED
100
AcDbCircle
 10
-74.76607041383331
 20
35.59281795488995
 30
0.0
 40
1.012500032330199
100
AcDbArc
 50
89.99998201391056
 51
163.9998224253379
  0
ARC
  5
1BE
330
1F
100
AcDbEntity
  8
外形線
  6
Continuous
100
AcDbCircle
 10
-77.00342639870918
 20
34.74231722146862
 30
0.0
 40
0.4050000060349702
100
AcDbArc
 50
195.9999180274735
 51
269.9999633445761
  0
ARC
  5
1BF
330
1F
100
AcDbEntity
  8
外形線
  6
Continuous
100
AcDbCircle
 10
-78.08993406715669
 20
35.59281795488995
 30
0.0
 40
0.4050000060349702
100
AcDbArc
 50
16.00010062134841
 51
89.99994103277556
  0
ARC
  5
1C0
330
1F
100
AcDbEntity
  8
外形線
  6
Continuous
100
AcDbCircle
 10
-75.85258691058051
 20
34.74231722146862
 30
0.0
 40
0.4050000060349702
100
AcDbArc
 50
269.9999633445761
 51
344.0000086616784
  0
ARC
  5
1C1
330
1F
100
AcDbEntity
  8
外形線
  6
Continuous
100
AcDbCircle
 10
-74.76607041383331
 20
35.59281795488995
 30
0.0
 40
0.4050000060349702
100
AcDbArc
 50
89.99998201391056
 51
163.9998224253379
  0
ARC
  5
1C2
330
1F
100
AcDbEntity
  8
破線
  6
DASHED
100
AcDbCircle
 10
-74.08043376256308
 20
35.59281795488995
 30
0.0
 40
1.012500032330199
100
AcDbArc
 50
16.00010062134841
 51
89.99994103277556
  0
ARC
  5
1C3
330
1F
100
AcDbEntity
  8
破線
  6
DASHED
100
AcDbCircle
 10
-70.75657010923973
 20
35.59281795488995
 30
0.0
 40
1.012500032330199
100
AcDbArc
 50
89.99998201391056
 51
163.9998224253379
  0
ARC
  5
1C4
330
1F
100
AcDbEntity
  8
外形線
  6
Continuous
100
AcDbCircle
 10
-72.99392609411559
 20
34.74231722146862
 30
0.0
 40
0.4050000060349702
100
AcDbArc
 50
195.9999180274735
 51
269.9999633445761
  0
ARC
  5
1C5
330
1F
100
AcDbEntity
  8
外形線
  6
Continuous
100
AcDbCircle
 10
-74.08043376256308
 20
35.59281795488995
 30
0.0
 40
0.4050000060349702
100
AcDbArc
 50
16.00010062134841
 51
89.99994103277556
  0
ARC
  5
1C6
330
1F
100
AcDbEntity
  8
外形線
  6
Continuous
100
AcDbCircle
 10
-71.84308660598692
 20
34.74231722146862
 30
0.0
 40
0.4050000060349702
100
AcDbArc
 50
269.9999633445761
 51
344.0000086616784
  0
ARC
  5
1C7
330
1F
100
AcDbEntity
  8
外形線
  6
Continuous
100
AcDbCircle
 10
-70.75657010923973
 20
35.59281795488995
 30
0.0
 40
0.4050000060349702
100
AcDbArc
 50
89.99998201391056
 51
163.9998224253379
  0
ARC
  5
1C8
330
1F
100
AcDbEntity
  8
破線
  6
DASHED
100
AcDbCircle
 10
-70.07093787211937
 20
35.59281795488995
 30
0.0
 40
1.012500032330199
100
AcDbArc
 50
16.00010062134841
 51
89.99994103277556
  0
ARC
  5
1C9
330
1F
100
AcDbEntity
  8
外形線
  6
Continuous
100
AcDbCircle
 10
-68.98443020367185
 20
34.74231722146862
 30
0.0
 40
0.4050000060349702
100
AcDbArc
 50
195.9999180274735
 51
269.9999633445761
  0
ARC
  5
1CA
330
1F
100
AcDbEntity
  8
外形線
  6
Continuous
100
AcDbCircle
 10
-70.07093787211937
 20
35.59281795488995
 30
0.0
 40
0.4050000060349702
100
AcDbArc
 50
16.00010062134841
 51
89.99994103277556
  0
ARC
  5
1CB
330
1F
100
AcDbEntity
  8
外形線
  6
Continuous
100
AcDbCircle
 10
-61.64077796602921
 20
37.77946197939761
 30
0.0
 40
0.4050000060349702
100
AcDbArc
 50
22.63598456985258
 51
149.999956362806
  0
ARC
  5
1CC
330
1F
100
AcDbEntity
  8
破線
  6
DASHED
100
AcDbCircle
 10
-61.58211391473496
 20
38.69107220312121
 30
0.0
 40
0.6074986813589507
100
AcDbArc
 50
22.63592992833925
 51
149.9999700231843
  0
MTEXT
  5
1CD
330
1F
100
AcDbEntity
  8
0
 62
     7
100
AcDbMText
 10
-63.56003270956524
 20
17.63677692112372
 30
0.0
 40
3.200000047683716
 41
0.0
 46
0.0
 71
     7
 72
     1
  1
{\W0.833333;規　　　格}
 73
     1
 44
1.0
1001
ACAD
1000
MTEXTBEGIN
1070
    73
1070
     1
1070
    44
1040
1.0
1070
    74
1070
     0
1000
MTEXTEND
  0
MTEXT
  5
1CE
330
1F
100
AcDbEntity
  8
0
 62
     7
100
AcDbMText
 10
-18.13014316024473
 20
19.69794138793179
 30
0.0
 40
3.200000047683716
 41
0.0
 46
0.0
 71
     5
 72
     1
  1
{\W1;∅A}
 73
     1
 44
1.0
1001
ACAD
1000
MTEXTBEGIN
1070
    73
1070
     1
1070
    44
1040
1.0
1070
    74
1070
     0
1000
MTEXTEND
  0
MTEXT
  5
1CF
330
1F
100
AcDbEntity
  8
0
 62
     7
100
AcDbMText
 10
7.704192633757782
 20
19.41864762189209
 30
0.0
 40
3.200000047683716
 41
0.0
 46
0.0
 71
     5
 72
     1
  1
{\W1;∅B}
 73
     1
 44
1.0
1001
ACAD
1000
MTEXTBEGIN
1070
    73
1070
     1
1070
    44
1040
1.0
1070
    74
1070
     0
1000
MTEXTEND
  0
MTEXT
  5
1D0
330
1F
100
AcDbEntity
  8
0
 62
     7
100
AcDbMText
 10
34.09177430060857
 20
19.59105550941871
 30
0.0
 40
3.200000047683716
 41
0.0
 46
0.0
 71
     5
 72
     1
  1
L
 73
     1
 44
1.0
1001
ACAD
1000
MTEXTBEGIN
1070
    73
1070
     1
1070
    44
1040
1.0
1070
    74
1070
     0
1000
MTEXTEND
  0
MTEXT
  5
1D1
330
1F
100
AcDbEntity
  8
0
 62
     7
100
AcDbMText
 10
60.0917895593976
 20
19.59105550941871
 30
0.0
 40
3.200000047683716
 41
0.0
 46
0.0
 71
     5
 72
     1
  1
L1
 73
     1
 44
1.0
1001
ACAD
1000
MTEXTBEGIN
1070
    73
1070
     1
1070
    44
1040
1.0
1070
    74
1070
     0
1000
MTEXTEND
  0
MTEXT
  5
1D2
330
1F
100
AcDbEntity
  8
0
 62
     7
100
AcDbMText
 10
86.09175904181951
 20
19.59105550941871
 30
0.0
 40
3.200000047683716
 41
0.0
 46
0.0
 71
     5
 72
     1
  1
L2
 73
     1
 44
1.0
1001
ACAD
1000
MTEXTBEGIN
1070
    73
1070
     1
1070
    44
1040
1.0
1070
    74
1070
     0
1000
MTEXTEND
  0
MTEXT
  5
1D3
330
1F
100
AcDbEntity
  8
0
 62
     7
100
AcDbMText
 10
-78.89843889914053
 20
-82.54490606989767
 30
0.0
 40
2.5
 41
0.0
 46
0.0
 71
     7
 72
     1
  1
{\W0.8333;*寸法、仕様等は製品改良の為、予告無く変更する場合があります。（Ｈ２４．６）}
 73
     1
 44
1.0
1001
ACAD
1000
ACAD_MTEXT_DEFINED_HEIGHT_BEGIN
1070
    46
1040
0.0
1000
ACAD_MTEXT_DEFINED_HEIGHT_END
1000
MTEXTBEGIN
1070
    73
1070
     1
1070
    44
1040
1.0
1070
    74
1070
     0
1000
MTEXTEND
  0
MTEXT
  5
1D4
330
1F
100
AcDbEntity
  8
0
 62
     7
100
AcDbMText
 10
-79.00928571298823
 20
-74.04049570459625
 30
0.0
 40
2.5
 41
0.0
 46
0.0
 71
     7
 72
     1
  1
{\W0.833333;*形状は規格毎に異なります。}
 73
     1
 44
1.0
1001
ACAD
1000
MTEXTBEGIN
1070
    73
1070
     1
1070
    44
1040
1.0
1070
    74
1070
     0
1000
MTEXTEND
  0
MTEXT
  5
1D5
330
1F
100
AcDbEntity
  8
0
 62
     7
100
AcDbMText
 10
-78.84159952507165
 20
-78.11902970489879
 30
0.0
 40
2.5
 41
0.0
 46
0.0
 71
     7
 72
     1
  1
{\W0.833333;*ストッパ－の位置及び数は、規格毎に異なります。}
 73
     1
 44
1.0
1001
ACAD
1000
MTEXTBEGIN
1070
    73
1070
     1
1070
    44
1040
1.0
1070
    74
1070
     0
1000
MTEXTEND
  0
MTEXT
  5
1D6
330
1F
100
AcDbEntity
  8
0
 62
     7
100
AcDbMText
 10
-65.9082409581806
 20
11.82525348362373
 30
0.0
 40
3.200000047683716
 41
0.0
 46
0.0
 71
     7
 72
     1
  1
\W0.833333;TDW60-50
 73
     1
 44
1.0
1001
ACAD
1000
MTEXTBEGIN
1070
    73
1070
     1
1070
    44
1040
1.0
1070
    74
1070
     0
1000
MTEXTEND
  0
MTEXT
  5
1D7
330
1F
100
AcDbEntity
  8
0
 62
     7
100
AcDbMText
 10
-65.9082409581806
 20
5.825253394216765
 30
0.0
 40
3.200000047683716
 41
0.0
 46
0.0
 71
     7
 72
     1
  1
\W0.833333;TDW65-50
 73
     1
 44
1.0
1001
ACAD
1000
MTEXTBEGIN
1070
    73
1070
     1
1070
    44
1040
1.0
1070
    74
1070
     0
1000
MTEXTEND
  0
MTEXT
  5
1D8
330
1F
100
AcDbEntity
  8
0
 62
     7
100
AcDbMText
 10
-65.9082409581806
 20
-0.174746695190203
 30
0.0
 40
3.200000047683716
 41
0.0
 46
0.0
 71
     7
 72
     1
  1
\W0.833333;TDW65-60
 73
     1
 44
1.0
1001
ACAD
1000
MTEXTBEGIN
1070
    73
1070
     1
1070
    44
1040
1.0
1070
    74
1070
     0
1000
MTEXTEND
  0
MTEXT
  5
1D9
330
1F
100
AcDbEntity
  8
0
 62
     7
100
AcDbMText
 10
-65.9082409581806
 20
-6.174746784597167
 30
0.0
 40
3.200000047683716
 41
0.0
 46
0.0
 71
     7
 72
     1
  1
\W0.833333;TDW75-50
 73
     1
 44
1.0
1001
ACAD
1000
MTEXTBEGIN
1070
    73
1070
     1
1070
    44
1040
1.0
1070
    74
1070
     0
1000
MTEXTEND
  0
MTEXT
  5
1DA
330
1F
100
AcDbEntity
  8
0
 62
     7
100
AcDbMText
 10
-65.9082409581806
 20
-12.17474687400413
 30
0.0
 40
3.200000047683716
 41
0.0
 46
0.0
 71
     7
 72
     1
  1
\W0.833333;TDW75-60
 73
     1
 44
1.0
1001
ACAD
1000
MTEXTBEGIN
1070
    73
1070
     1
1070
    44
1040
1.0
1070
    74
1070
     0
1000
MTEXTEND
  0
MTEXT
  5
1DB
330
1F
100
AcDbEntity
  8
0
 62
     7
100
AcDbMText
 10
-65.9082409581806
 20
-18.1747469634111
 30
0.0
 40
3.200000047683716
 41
0.0
 46
0.0
 71
     7
 72
     1
  1
\W0.833333;TDW75-65
 73
     1
 44
1.0
1001
ACAD
1000
MTEXTBEGIN
1070
    73
1070
     1
1070
    44
1040
1.0
1070
    74
1070
     0
1000
MTEXTEND
  0
MTEXT
  5
1DC
330
1F
100
AcDbEntity
  8
0
 62
     7
100
AcDbMText
 10
-65.9082409581806
 20
-24.17474705281807
 30
0.0
 40
3.200000047683716
 41
0.0
 46
0.0
 71
     7
 72
     1
  1
\W0.833333;TDW80-50
 73
     1
 44
1.0
1001
ACAD
1000
MTEXTBEGIN
1070
    73
1070
     1
1070
    44
1040
1.0
1070
    74
1070
     0
1000
MTEXTEND
  0
MTEXT
  5
1DD
330
1F
100
AcDbEntity
  8
0
 62
     7
100
AcDbMText
 10
-65.9082409581806
 20
-30.17474714222505
 30
0.0
 40
3.200000047683716
 41
0.0
 46
0.0
 71
     7
 72
     1
  1
\W0.833333;TDW80-60
 73
     1
 44
1.0
1001
ACAD
1000
MTEXTBEGIN
1070
    73
1070
     1
1070
    44
1040
1.0
1070
    74
1070
     0
1000
MTEXTEND
  0
MTEXT
  5
1DE
330
1F
100
AcDbEntity
  8
0
 62
     7
100
AcDbMText
 10
-65.9082409581806
 20
-36.174747231632
 30
0.0
 40
3.200000047683716
 41
0.0
 46
0.0
 71
     7
 72
     1
  1
\W0.833333;TDW80-65
 73
     1
 44
1.0
1001
ACAD
1000
MTEXTBEGIN
1070
    73
1070
     1
1070
    44
1040
1.0
1070
    74
1070
     0
1000
MTEXTEND
  0
MTEXT
  5
1DF
330
1F
100
AcDbEntity
  8
0
 62
     7
100
AcDbMText
 10
-65.9082409581806
 20
-42.1747474998529
 30
0.0
 40
3.200000047683716
 41
0.0
 46
0.0
 71
     7
 72
     1
  1
\W0.833333;TDW100-50
 73
     1
 44
1.0
1001
ACAD
1000
MTEXTBEGIN
1070
    73
1070
     1
1070
    44
1040
1.0
1070
    74
1070
     0
1000
MTEXTEND
  0
MTEXT
  5
1E0
330
1F
100
AcDbEntity
  8
0
 62
     7
100
AcDbMText
 10
-65.9082409581806
 20
-48.17474758925989
 30
0.0
 40
3.200000047683716
 41
0.0
 46
0.0
 71
     7
 72
     1
  1
\W0.833333;TDW100-60
 73
     1
 44
1.0
1001
ACAD
1000
MTEXTBEGIN
1070
    73
1070
     1
1070
    44
1040
1.0
1070
    74
1070
     0
1000
MTEXTEND
  0
MTEXT
  5
1E1
330
1F
100
AcDbEntity
  8
0
 62
     7
100
AcDbMText
 10
-65.9082409581806
 20
-54.17474767866686
 30
0.0
 40
3.200000047683716
 41
0.0
 46
0.0
 71
     7
 72
     1
  1
\W0.833333;TDW100-65
 73
     1
 44
1.0
1001
ACAD
1000
MTEXTBEGIN
1070
    73
1070
     1
1070
    44
1040
1.0
1070
    74
1070
     0
1000
MTEXTEND
  0
MTEXT
  5
1E2
330
1F
100
AcDbEntity
  8
0
 62
     7
100
AcDbMText
 10
-65.9082409581806
 20
-60.17474776807381
 30
0.0
 40
3.200000047683716
 41
0.0
 46
0.0
 71
     7
 72
     1
  1
\W0.833333;TDW100-75
 73
     1
 44
1.0
1001
ACAD
1000
MTEXTBEGIN
1070
    73
1070
     1
1070
    44
1040
1.0
1070
    74
1070
     0
1000
MTEXTEND
  0
MTEXT
  5
1E3
330
1F
100
AcDbEntity
  8
0
 62
     7
100
AcDbMText
 10
-65.9082409581806
 20
-66.17474785748078
 30
0.0
 40
3.200000047683716
 41
0.0
 46
0.0
 71
     7
 72
     1
  1
\W0.833333;TDW100-80
 73
     1
 44
1.0
1001
ACAD
1000
MTEXTBEGIN
1070
    73
1070
     1
1070
    44
1040
1.0
1070
    74
1070
     0
1000
MTEXTEND
  0
MTEXT
  5
1E5
330
1F
100
AcDbEntity
  8
0
 62
     7
100
AcDbMText
 10
7.558440959327951
 20
13.42525350746558
 30
0.0
 40
3.200000047683716
 41
0.0
 46
0.0
 71
     5
 72
     1
  1
{\W1;71}
 73
     1
 44
1.0
1001
ACAD
1000
MTEXTBEGIN
1070
    73
1070
     1
1070
    44
1040
1.0
1070
    74
1070
     0
1000
MTEXTEND
  0
MTEXT
  5
1E6
330
1F
100
AcDbEntity
  8
0
 62
     7
100
AcDbMText
 10
-17.90824095818047
 20
13.62028315889808
 30
0.0
 40
3.200000047683716
 41
0.0
 46
0.0
 71
     5
 72
     1
  1
{\W1;62}
 73
     1
 44
1.0
1001
ACAD
1000
MTEXTBEGIN
1070
    73
1070
     1
1070
    44
1040
1.0
1070
    74
1070
     0
1000
MTEXTEND
  0
MTEXT
  5
1E7
330
1F
100
AcDbEntity
  8
0
 62
     7
100
AcDbMText
 10
34.09177430060857
 20
13.42525350746558
 30
0.0
 40
3.200000047683716
 41
0.0
 46
0.0
 71
     5
 72
     1
  1
{\W1;120}
 73
     1
 44
1.0
1001
ACAD
1000
MTEXTBEGIN
1070
    73
1070
     1
1070
    44
1040
1.0
1070
    74
1070
     0
1000
MTEXTEND
  0
MTEXT
  5
1E8
330
1F
100
AcDbEntity
  8
0
 62
     7
100
AcDbMText
 10
60.0917895593976
 20
13.42525350746558
 30
0.0
 40
3.200000047683716
 41
0.0
 46
0.0
 71
     5
 72
     1
  1
{\W1;71}
 73
     1
 44
1.0
1001
ACAD
1000
MTEXTBEGIN
1070
    73
1070
     1
1070
    44
1040
1.0
1070
    74
1070
     0
1000
MTEXTEND
  0
MTEXT
  5
1E9
330
1F
100
AcDbEntity
  8
0
 62
     7
100
AcDbMText
 10
86.09175904181951
 20
13.42525350746558
 30
0.0
 40
3.200000047683716
 41
0.0
 46
0.0
 71
     5
 72
     1
  1
{\W1;41}
 73
     1
 44
1.0
1001
ACAD
1000
MTEXTBEGIN
1070
    73
1070
     1
1070
    44
1040
1.0
1070
    74
1070
     0
1000
MTEXTEND
  0
MTEXT
  5
1EA
330
1F
100
AcDbEntity
  8
0
 62
     7
100
AcDbMText
 10
-17.90824095818047
 20
7.620283158898074
 30
0.0
 40
3.200000047683716
 41
0.0
 46
0.0
 71
     5
 72
     1
  1
{\W1;62}
 73
     1
 44
1.0
1001
ACAD
1000
MTEXTBEGIN
1070
    73
1070
     1
1070
    44
1040
1.0
1070
    74
1070
     0
1000
MTEXTEND
  0
MTEXT
  5
1EB
330
1F
100
AcDbEntity
  8
0
 62
     7
100
AcDbMText
 10
8.091774300608571
 20
7.425253507465585
 30
0.0
 40
3.200000047683716
 41
0.0
 46
0.0
 71
     5
 72
     1
  1
{\W1;76}
 73
     1
 44
1.0
1001
ACAD
1000
MTEXTBEGIN
1070
    73
1070
     1
1070
    44
1040
1.0
1070
    74
1070
     0
1000
MTEXTEND
  0
MTEXT
  5
1EC
330
1F
100
AcDbEntity
  8
0
 62
     7
100
AcDbMText
 10
34.09177430060857
 20
7.425253507465587
 30
0.0
 40
3.200000047683716
 41
0.0
 46
0.0
 71
     5
 72
     1
  1
{\W1;130}
 73
     1
 44
1.0
1001
ACAD
1000
MTEXTBEGIN
1070
    73
1070
     1
1070
    44
1040
1.0
1070
    74
1070
     0
1000
MTEXTEND
  0
MTEXT
  5
1ED
330
1F
100
AcDbEntity
  8
0
 62
     7
100
AcDbMText
 10
86.09175904181951
 20
7.425253507465585
 30
0.0
 40
3.200000047683716
 41
0.0
 46
0.0
 71
     5
 72
     1
  1
{\W1;41}
 73
     1
 44
1.0
1001
ACAD
1000
MTEXTBEGIN
1070
    73
1070
     1
1070
    44
1040
1.0
1070
    74
1070
     0
1000
MTEXTEND
  0
MTEXT
  5
1EE
330
1F
100
AcDbEntity
  8
0
 62
     7
100
AcDbMText
 10
60.0917895593976
 20
7.425253507465585
 30
0.0
 40
3.200000047683716
 41
0.0
 46
0.0
 71
     5
 72
     1
  1
{\W1;80}
 73
     1
 44
1.0
1001
ACAD
1000
MTEXTBEGIN
1070
    73
1070
     1
1070
    44
1040
1.0
1070
    74
1070
     0
1000
MTEXTEND
  0
MTEXT
  5
1EF
330
1F
100
AcDbEntity
  8
0
 62
     7
100
AcDbMText
 10
-17.90824095818047
 20
1.620283158898016
 30
0.0
 40
3.200000047683716
 41
0.0
 46
0.0
 71
     5
 72
     1
  1
{\W1;73}
 73
     1
 44
1.0
1001
ACAD
1000
MTEXTBEGIN
1070
    73
1070
     1
1070
    44
1040
1.0
1070
    74
1070
     0
1000
MTEXTEND
  0
MTEXT
  5
1F0
330
1F
100
AcDbEntity
  8
0
 62
     7
100
AcDbMText
 10
60.0917895593976
 20
1.425253507465525
 30
0.0
 40
3.200000047683716
 41
0.0
 46
0.0
 71
     5
 72
     1
  1
{\W1;80}
 73
     1
 44
1.0
1001
ACAD
1000
MTEXTBEGIN
1070
    73
1070
     1
1070
    44
1040
1.0
1070
    74
1070
     0
1000
MTEXTEND
  0
MTEXT
  5
1F1
330
1F
100
AcDbEntity
  8
0
 62
     7
100
AcDbMText
 10
34.09177430060857
 20
1.425253507465525
 30
0.0
 40
3.200000047683716
 41
0.0
 46
0.0
 71
     5
 72
     1
  1
{\W1;134}
 73
     1
 44
1.0
1001
ACAD
1000
MTEXTBEGIN
1070
    73
1070
     1
1070
    44
1040
1.0
1070
    74
1070
     0
1000
MTEXTEND
  0
MTEXT
  5
1F2
330
1F
100
AcDbEntity
  8
0
 62
     7
100
AcDbMText
 10
8.091774300608571
 20
1.425253507465525
 30
0.0
 40
3.200000047683716
 41
0.0
 46
0.0
 71
     5
 72
     1
  1
{\W1;76}
 73
     1
 44
1.0
1001
ACAD
1000
MTEXTBEGIN
1070
    73
1070
     1
1070
    44
1040
1.0
1070
    74
1070
     0
1000
MTEXTEND
  0
MTEXT
  5
1F3
330
1F
100
AcDbEntity
  8
0
 62
     7
100
AcDbMText
 10
86.01549441205822
 20
1.425253507465525
 30
0.0
 40
3.200000047683716
 41
0.0
 46
0.0
 71
     5
 72
     1
  1
{\W1;46}
 73
     1
 44
1.0
1001
ACAD
1000
MTEXTBEGIN
1070
    73
1070
     1
1070
    44
1040
1.0
1070
    74
1070
     0
1000
MTEXTEND
  0
MTEXT
  5
1F4
330
1F
100
AcDbEntity
  8
0
 62
     7
100
AcDbMText
 10
86.09175904181951
 20
-4.574746492534528
 30
0.0
 40
3.200000047683716
 41
0.0
 46
0.0
 71
     5
 72
     1
  1
{\W1;47}
 73
     1
 44
1.0
1001
ACAD
1000
MTEXTBEGIN
1070
    73
1070
     1
1070
    44
1040
1.0
1070
    74
1070
     0
1000
MTEXTEND
  0
MTEXT
  5
1F5
330
1F
100
AcDbEntity
  8
0
 62
     7
100
AcDbMText
 10
8.091774300608571
 20
-4.574746492534528
 30
0.0
 40
3.200000047683716
 41
0.0
 46
0.0
 71
     5
 72
     1
  1
{\W1;88}
 73
     1
 44
1.0
1001
ACAD
1000
MTEXTBEGIN
1070
    73
1070
     1
1070
    44
1040
1.0
1070
    74
1070
     0
1000
MTEXTEND
  0
MTEXT
  5
1F6
330
1F
100
AcDbEntity
  8
0
 62
     7
100
AcDbMText
 10
34.09177430060858
 20
-4.574746492534528
 30
0.0
 40
3.200000047683716
 41
0.0
 46
0.0
 71
     5
 72
     1
  1
{\W1;149}
 73
     1
 44
1.0
1001
ACAD
1000
MTEXTBEGIN
1070
    73
1070
     1
1070
    44
1040
1.0
1070
    74
1070
     0
1000
MTEXTEND
  0
MTEXT
  5
1F7
330
1F
100
AcDbEntity
  8
0
 62
     7
100
AcDbMText
 10
60.0917895593976
 20
-4.574746492534528
 30
0.0
 40
3.200000047683716
 41
0.0
 46
0.0
 71
     5
 72
     1
  1
{\W1;88}
 73
     1
 44
1.0
1001
ACAD
1000
MTEXTBEGIN
1070
    73
1070
     1
1070
    44
1040
1.0
1070
    74
1070
     0
1000
MTEXTEND
  0
MTEXT
  5
1F8
330
1F
100
AcDbEntity
  8
0
 62
     7
100
AcDbMText
 10
-18.44157429946109
 20
-4.379716841102036
 30
0.0
 40
3.200000047683716
 41
0.0
 46
0.0
 71
     5
 72
     1
  1
{\W1;61}
 73
     1
 44
1.0
1001
ACAD
1000
MTEXTBEGIN
1070
    73
1070
     1
1070
    44
1040
1.0
1070
    74
1070
     0
1000
MTEXTEND
  0
MTEXT
  5
1F9
330
1F
100
AcDbEntity
  8
0
 62
     7
100
AcDbMText
 10
60.0917895593976
 20
-10.57474649253458
 30
0.0
 40
3.200000047683716
 41
0.0
 46
0.0
 71
     5
 72
     1
  1
{\W1;88}
 73
     1
 44
1.0
1001
ACAD
1000
MTEXTBEGIN
1070
    73
1070
     1
1070
    44
1040
1.0
1070
    74
1070
     0
1000
MTEXTEND
  0
MTEXT
  5
1FA
330
1F
100
AcDbEntity
  8
0
 62
     7
100
AcDbMText
 10
8.091774300608571
 20
-10.57474649253458
 30
0.0
 40
3.200000047683716
 41
0.0
 46
0.0
 71
     5
 72
     1
  1
{\W1;88}
 73
     1
 44
1.0
1001
ACAD
1000
MTEXTBEGIN
1070
    73
1070
     1
1070
    44
1040
1.0
1070
    74
1070
     0
1000
MTEXTEND
  0
MTEXT
  5
1FB
330
1F
100
AcDbEntity
  8
0
 62
     7
100
AcDbMText
 10
86.09175904181951
 20
-10.57474649253458
 30
0.0
 40
3.200000047683716
 41
0.0
 46
0.0
 71
     5
 72
     1
  1
{\W1;51}
 73
     1
 44
1.0
1001
ACAD
1000
MTEXTBEGIN
1070
    73
1070
     1
1070
    44
1040
1.0
1070
    74
1070
     0
1000
MTEXTEND
  0
MTEXT
  5
1FC
330
1F
100
AcDbEntity
  8
0
 62
     7
100
AcDbMText
 10
34.09177430060858
 20
-10.57474649253458
 30
0.0
 40
3.200000047683716
 41
0.0
 46
0.0
 71
     5
 72
     1
  1
{\W1;150}
 73
     1
 44
1.0
1001
ACAD
1000
MTEXTBEGIN
1070
    73
1070
     1
1070
    44
1040
1.0
1070
    74
1070
     0
1000
MTEXTEND
  0
MTEXT
  5
1FD
330
1F
100
AcDbEntity
  8
0
 62
     7
100
AcDbMText
 10
-17.90824095818047
 20
-10.37971684110209
 30
0.0
 40
3.200000047683716
 41
0.0
 46
0.0
 71
     5
 72
     1
  1
{\W1;73}
 73
     1
 44
1.0
1001
ACAD
1000
MTEXTBEGIN
1070
    73
1070
     1
1070
    44
1040
1.0
1070
    74
1070
     0
1000
MTEXTEND
  0
MTEXT
  5
1FE
330
1F
100
AcDbEntity
  8
0
 62
     7
100
AcDbMText
 10
-17.90824095818047
 20
-16.37971684110215
 30
0.0
 40
3.200000047683716
 41
0.0
 46
0.0
 71
     5
 72
     1
  1
{\W1;78}
 73
     1
 44
1.0
1001
ACAD
1000
MTEXTBEGIN
1070
    73
1070
     1
1070
    44
1040
1.0
1070
    74
1070
     0
1000
MTEXTEND
  0
MTEXT
  5
1FF
330
1F
100
AcDbEntity
  8
0
 62
     7
100
AcDbMText
 10
34.09177430060858
 20
-16.57474649253464
 30
0.0
 40
3.200000047683716
 41
0.0
 46
0.0
 71
     5
 72
     1
  1
{\W1;151}
 73
     1
 44
1.0
1001
ACAD
1000
MTEXTBEGIN
1070
    73
1070
     1
1070
    44
1040
1.0
1070
    74
1070
     0
1000
MTEXTEND
  0
MTEXT
  5
200
330
1F
100
AcDbEntity
  8
0
 62
     7
100
AcDbMText
 10
8.091774300608571
 20
-16.57474649253464
 30
0.0
 40
3.200000047683716
 41
0.0
 46
0.0
 71
     5
 72
     1
  1
{\W1;88}
 73
     1
 44
1.0
1001
ACAD
1000
MTEXTBEGIN
1070
    73
1070
     1
1070
    44
1040
1.0
1070
    74
1070
     0
1000
MTEXTEND
  0
MTEXT
  5
201
330
1F
100
AcDbEntity
  8
0
 62
     7
100
AcDbMText
 10
60.0917895593976
 20
-16.57474649253464
 30
0.0
 40
3.200000047683716
 41
0.0
 46
0.0
 71
     5
 72
     1
  1
{\W1;88}
 73
     1
 44
1.0
1001
ACAD
1000
MTEXTBEGIN
1070
    73
1070
     1
1070
    44
1040
1.0
1070
    74
1070
     0
1000
MTEXTEND
  0
MTEXT
  5
202
330
1F
100
AcDbEntity
  8
0
 62
     7
100
AcDbMText
 10
86.01549441205822
 20
-16.57474649253464
 30
0.0
 40
3.200000047683716
 41
0.0
 46
0.0
 71
     5
 72
     1
  1
{\W1;54}
 73
     1
 44
1.0
1001
ACAD
1000
MTEXTBEGIN
1070
    73
1070
     1
1070
    44
1040
1.0
1070
    74
1070
     0
1000
MTEXTEND
  0
MTEXT
  5
203
330
1F
100
AcDbEntity
  8
0
 62
     7
100
AcDbMText
 10
60.0917895593976
 20
-22.57474649253464
 30
0.0
 40
3.200000047683716
 41
0.0
 46
0.0
 71
     5
 72
     1
  1
{\W1;97}
 73
     1
 44
1.0
1001
ACAD
1000
MTEXTBEGIN
1070
    73
1070
     1
1070
    44
1040
1.0
1070
    74
1070
     0
1000
MTEXTEND
  0
MTEXT
  5
204
330
1F
100
AcDbEntity
  8
0
 62
     7
100
AcDbMText
 10
86.01549441205822
 20
-22.57474649253464
 30
0.0
 40
3.200000047683716
 41
0.0
 46
0.0
 71
     5
 72
     1
  1
{\W1;42}
 73
     1
 44
1.0
1001
ACAD
1000
MTEXTBEGIN
1070
    73
1070
     1
1070
    44
1040
1.0
1070
    74
1070
     0
1000
MTEXTEND
  0
MTEXT
  5
205
330
1F
100
AcDbEntity
  8
0
 62
     7
100
AcDbMText
 10
8.091774300608571
 20
-22.57474649253464
 30
0.0
 40
3.200000047683716
 41
0.0
 46
0.0
 71
     5
 72
     1
  1
{\W1;95}
 73
     1
 44
1.0
1001
ACAD
1000
MTEXTBEGIN
1070
    73
1070
     1
1070
    44
1040
1.0
1070
    74
1070
     0
1000
MTEXTEND
  0
MTEXT
  5
206
330
1F
100
AcDbEntity
  8
0
 62
     7
100
AcDbMText
 10
34.09177430060858
 20
-22.57474649253464
 30
0.0
 40
3.200000047683716
 41
0.0
 46
0.0
 71
     5
 72
     1
  1
{\W1;148}
 73
     1
 44
1.0
1001
ACAD
1000
MTEXTBEGIN
1070
    73
1070
     1
1070
    44
1040
1.0
1070
    74
1070
     0
1000
MTEXTEND
  0
MTEXT
  5
207
330
1F
100
AcDbEntity
  8
0
 62
     7
100
AcDbMText
 10
-17.90824095818047
 20
-22.37971684110215
 30
0.0
 40
3.200000047683716
 41
0.0
 46
0.0
 71
     5
 72
     1
  1
{\W1;62}
 73
     1
 44
1.0
1001
ACAD
1000
MTEXTBEGIN
1070
    73
1070
     1
1070
    44
1040
1.0
1070
    74
1070
     0
1000
MTEXTEND
  0
MTEXT
  5
208
330
1F
100
AcDbEntity
  8
0
 62
     7
100
AcDbMText
 10
60.0917895593976
 20
-28.5747464925347
 30
0.0
 40
3.200000047683716
 41
0.0
 46
0.0
 71
     5
 72
     1
  1
{\W1;97}
 73
     1
 44
1.0
1001
ACAD
1000
MTEXTBEGIN
1070
    73
1070
     1
1070
    44
1040
1.0
1070
    74
1070
     0
1000
MTEXTEND
  0
MTEXT
  5
209
330
1F
100
AcDbEntity
  8
0
 62
     7
100
AcDbMText
 10
-17.90824095818047
 20
-28.37971684110222
 30
0.0
 40
3.200000047683716
 41
0.0
 46
0.0
 71
     5
 72
     1
  1
{\W1;73}
 73
     1
 44
1.0
1001
ACAD
1000
MTEXTBEGIN
1070
    73
1070
     1
1070
    44
1040
1.0
1070
    74
1070
     0
1000
MTEXTEND
  0
MTEXT
  5
20A
330
1F
100
AcDbEntity
  8
0
 62
     7
100
AcDbMText
 10
8.091774300608571
 20
-28.5747464925347
 30
0.0
 40
3.200000047683716
 41
0.0
 46
0.0
 71
     5
 72
     1
  1
{\W1;95}
 73
     1
 44
1.0
1001
ACAD
1000
MTEXTBEGIN
1070
    73
1070
     1
1070
    44
1040
1.0
1070
    74
1070
     0
1000
MTEXTEND
  0
MTEXT
  5
20B
330
1F
100
AcDbEntity
  8
0
 62
     7
100
AcDbMText
 10
86.01549441205822
 20
-28.5747464925347
 30
0.0
 40
3.200000047683716
 41
0.0
 46
0.0
 71
     5
 72
     1
  1
{\W1;47}
 73
     1
 44
1.0
1001
ACAD
1000
MTEXTBEGIN
1070
    73
1070
     1
1070
    44
1040
1.0
1070
    74
1070
     0
1000
MTEXTEND
  0
MTEXT
  5
20C
330
1F
100
AcDbEntity
  8
0
 62
     7
100
AcDbMText
 10
34.09177430060858
 20
-28.5747464925347
 30
0.0
 40
3.200000047683716
 41
0.0
 46
0.0
 71
     5
 72
     1
  1
{\W1;153}
 73
     1
 44
1.0
1001
ACAD
1000
MTEXTBEGIN
1070
    73
1070
     1
1070
    44
1040
1.0
1070
    74
1070
     0
1000
MTEXTEND
  0
MTEXT
  5
20D
330
1F
100
AcDbEntity
  8
0
 62
     7
100
AcDbMText
 10
60.0917895593976
 20
-34.57474649253478
 30
0.0
 40
3.200000047683716
 41
0.0
 46
0.0
 71
     5
 72
     1
  1
{\W1;97}
 73
     1
 44
1.0
1001
ACAD
1000
MTEXTBEGIN
1070
    73
1070
     1
1070
    44
1040
1.0
1070
    74
1070
     0
1000
MTEXTEND
  0
MTEXT
  5
20E
330
1F
100
AcDbEntity
  8
0
 62
     7
100
AcDbMText
 10
86.09175904181951
 20
-34.57474649253477
 30
0.0
 40
3.200000047683716
 41
0.0
 46
0.0
 71
     5
 72
     1
  1
{\W1;51}
 73
     1
 44
1.0
1001
ACAD
1000
MTEXTBEGIN
1070
    73
1070
     1
1070
    44
1040
1.0
1070
    74
1070
     0
1000
MTEXTEND
  0
MTEXT
  5
20F
330
1F
100
AcDbEntity
  8
0
 62
     7
100
AcDbMText
 10
-17.90824095818047
 20
-34.37971684110227
 30
0.0
 40
3.200000047683716
 41
0.0
 46
0.0
 71
     5
 72
     1
  1
{\W1;78}
 73
     1
 44
1.0
1001
ACAD
1000
MTEXTBEGIN
1070
    73
1070
     1
1070
    44
1040
1.0
1070
    74
1070
     0
1000
MTEXTEND
  0
MTEXT
  5
210
330
1F
100
AcDbEntity
  8
0
 62
     7
100
AcDbMText
 10
8.091774300608571
 20
-34.57474649253478
 30
0.0
 40
3.200000047683716
 41
0.0
 46
0.0
 71
     5
 72
     1
  1
{\W1;95}
 73
     1
 44
1.0
1001
ACAD
1000
MTEXTBEGIN
1070
    73
1070
     1
1070
    44
1040
1.0
1070
    74
1070
     0
1000
MTEXTEND
  0
MTEXT
  5
211
330
1F
100
AcDbEntity
  8
0
 62
     7
100
AcDbMText
 10
34.09177430060854
 20
-34.57474649253478
 30
0.0
 40
3.200000047683716
 41
0.0
 46
0.0
 71
     5
 72
     1
  1
{\W1;156}
 73
     1
 44
1.0
1001
ACAD
1000
MTEXTBEGIN
1070
    73
1070
     1
1070
    44
1040
1.0
1070
    74
1070
     0
1000
MTEXTEND
  0
MTEXT
  5
212
330
1F
100
AcDbEntity
  8
0
 62
     7
100
AcDbMText
 10
60.16809996552602
 20
-40.57474667134875
 30
0.0
 40
3.200000047683716
 41
0.0
 46
0.0
 71
     5
 72
     1
  1
{\W1;121}
 73
     1
 44
1.0
1001
ACAD
1000
MTEXTBEGIN
1070
    73
1070
     1
1070
    44
1040
1.0
1070
    74
1070
     0
1000
MTEXTEND
  0
MTEXT
  5
213
330
1F
100
AcDbEntity
  8
0
 62
     7
100
AcDbMText
 10
86.01549441205822
 20
-40.57474667134875
 30
0.0
 40
3.200000047683716
 41
0.0
 46
0.0
 71
     5
 72
     1
  1
{\W1;42}
 73
     1
 44
1.0
1001
ACAD
1000
MTEXTBEGIN
1070
    73
1070
     1
1070
    44
1040
1.0
1070
    74
1070
     0
1000
MTEXTEND
  0
MTEXT
  5
214
330
1F
100
AcDbEntity
  8
0
 62
     7
100
AcDbMText
 10
-17.90824095818047
 20
-40.37971701991625
 30
0.0
 40
3.200000047683716
 41
0.0
 46
0.0
 71
     5
 72
     1
  1
{\W1;62}
 73
     1
 44
1.0
1001
ACAD
1000
MTEXTBEGIN
1070
    73
1070
     1
1070
    44
1040
1.0
1070
    74
1070
     0
1000
MTEXTEND
  0
MTEXT
  5
215
330
1F
100
AcDbEntity
  8
0
 62
     7
100
AcDbMText
 10
34.09177430060858
 20
-40.57474667134875
 30
0.0
 40
3.200000047683716
 41
0.0
 46
0.0
 71
     5
 72
     1
  1
{\W1;180}
 73
     1
 44
1.0
1001
ACAD
1000
MTEXTBEGIN
1070
    73
1070
     1
1070
    44
1040
1.0
1070
    74
1070
     0
1000
MTEXTEND
  0
MTEXT
  5
216
330
1F
100
AcDbEntity
  8
0
 62
     7
100
AcDbMText
 10
8.091774300608577
 20
-40.57474667134875
 30
0.0
 40
3.200000047683716
 41
0.0
 46
0.0
 71
     5
 72
     1
  1
{\W1;119}
 73
     1
 44
1.0
1001
ACAD
1000
MTEXTBEGIN
1070
    73
1070
     1
1070
    44
1040
1.0
1070
    74
1070
     0
1000
MTEXTEND
  0
MTEXT
  5
217
330
1F
100
AcDbEntity
  8
0
 62
     7
100
AcDbMText
 10
-17.90824095818047
 20
-46.37971701991627
 30
0.0
 40
3.200000047683716
 41
0.0
 46
0.0
 71
     5
 72
     1
  1
{\W1;72}
 73
     1
 44
1.0
1001
ACAD
1000
MTEXTBEGIN
1070
    73
1070
     1
1070
    44
1040
1.0
1070
    74
1070
     0
1000
MTEXTEND
  0
MTEXT
  5
218
330
1F
100
AcDbEntity
  8
0
 62
     7
100
AcDbMText
 10
86.01549441205822
 20
-46.57474667134876
 30
0.0
 40
3.200000047683716
 41
0.0
 46
0.0
 71
     5
 72
     1
  1
{\W1;49}
 73
     1
 44
1.0
1001
ACAD
1000
MTEXTBEGIN
1070
    73
1070
     1
1070
    44
1040
1.0
1070
    74
1070
     0
1000
MTEXTEND
  0
MTEXT
  5
219
330
1F
100
AcDbEntity
  8
0
 62
     7
100
AcDbMText
 10
8.091774300608577
 20
-46.57474667134876
 30
0.0
 40
3.200000047683716
 41
0.0
 46
0.0
 71
     5
 72
     1
  1
{\W1;119}
 73
     1
 44
1.0
1001
ACAD
1000
MTEXTBEGIN
1070
    73
1070
     1
1070
    44
1040
1.0
1070
    74
1070
     0
1000
MTEXTEND
  0
MTEXT
  5
21A
330
1F
100
AcDbEntity
  8
0
 62
     7
100
AcDbMText
 10
34.09177430060858
 20
-46.57474667134876
 30
0.0
 40
3.200000047683716
 41
0.0
 46
0.0
 71
     5
 72
     1
  1
{\W1;185}
 73
     1
 44
1.0
1001
ACAD
1000
MTEXTBEGIN
1070
    73
1070
     1
1070
    44
1040
1.0
1070
    74
1070
     0
1000
MTEXTEND
  0
MTEXT
  5
21B
330
1F
100
AcDbEntity
  8
0
 62
     7
100
AcDbMText
 10
60.0917895593976
 20
-46.57474667134876
 30
0.0
 40
3.200000047683716
 41
0.0
 46
0.0
 71
     5
 72
     1
  1
{\W1;121}
 73
     1
 44
1.0
1001
ACAD
1000
MTEXTBEGIN
1070
    73
1070
     1
1070
    44
1040
1.0
1070
    74
1070
     0
1000
MTEXTEND
  0
MTEXT
  5
21C
330
1F
100
AcDbEntity
  8
0
 62
     7
100
AcDbMText
 10
60.0917895593976
 20
-52.57474667134881
 30
0.0
 40
3.200000047683716
 41
0.0
 46
0.0
 71
     5
 72
     1
  1
{\W1;121}
 73
     1
 44
1.0
1001
ACAD
1000
MTEXTBEGIN
1070
    73
1070
     1
1070
    44
1040
1.0
1070
    74
1070
     0
1000
MTEXTEND
  0
MTEXT
  5
21D
330
1F
100
AcDbEntity
  8
0
 62
     7
100
AcDbMText
 10
34.09177430060858
 20
-52.57474667134881
 30
0.0
 40
3.200000047683716
 41
0.0
 46
0.0
 71
     5
 72
     1
  1
{\W1;186}
 73
     1
 44
1.0
1001
ACAD
1000
MTEXTBEGIN
1070
    73
1070
     1
1070
    44
1040
1.0
1070
    74
1070
     0
1000
MTEXTEND
  0
MTEXT
  5
21E
330
1F
100
AcDbEntity
  8
0
 62
     7
100
AcDbMText
 10
8.091774300608577
 20
-52.57474667134881
 30
0.0
 40
3.200000047683716
 41
0.0
 46
0.0
 71
     5
 72
     1
  1
{\W1;119}
 73
     1
 44
1.0
1001
ACAD
1000
MTEXTBEGIN
1070
    73
1070
     1
1070
    44
1040
1.0
1070
    74
1070
     0
1000
MTEXTEND
  0
MTEXT
  5
21F
330
1F
100
AcDbEntity
  8
0
 62
     7
100
AcDbMText
 10
86.09175904181951
 20
-52.57474667134881
 30
0.0
 40
3.200000047683716
 41
0.0
 46
0.0
 71
     5
 72
     1
  1
{\W1;51}
 73
     1
 44
1.0
1001
ACAD
1000
MTEXTBEGIN
1070
    73
1070
     1
1070
    44
1040
1.0
1070
    74
1070
     0
1000
MTEXTEND
  0
MTEXT
  5
220
330
1F
100
AcDbEntity
  8
0
 62
     7
100
AcDbMText
 10
-17.90824095818047
 20
-52.37971701991632
 30
0.0
 40
3.200000047683716
 41
0.0
 46
0.0
 71
     5
 72
     1
  1
{\W1;78}
 73
     1
 44
1.0
1001
ACAD
1000
MTEXTBEGIN
1070
    73
1070
     1
1070
    44
1040
1.0
1070
    74
1070
     0
1000
MTEXTEND
  0
MTEXT
  5
221
330
1F
100
AcDbEntity
  8
0
 62
     7
100
AcDbMText
 10
34.09177430060858
 20
-58.57474667134887
 30
0.0
 40
3.200000047683716
 41
0.0
 46
0.0
 71
     5
 72
     1
  1
{\W1;194}
 73
     1
 44
1.0
1001
ACAD
1000
MTEXTBEGIN
1070
    73
1070
     1
1070
    44
1040
1.0
1070
    74
1070
     0
1000
MTEXTEND
  0
MTEXT
  5
222
330
1F
100
AcDbEntity
  8
0
 62
     7
100
AcDbMText
 10
86.09175904181951
 20
-58.57474667134884
 30
0.0
 40
3.200000047683716
 41
0.0
 46
0.0
 71
     5
 72
     1
  1
{\W1;62}
 73
     1
 44
1.0
1001
ACAD
1000
MTEXTBEGIN
1070
    73
1070
     1
1070
    44
1040
1.0
1070
    74
1070
     0
1000
MTEXTEND
  0
MTEXT
  5
223
330
1F
100
AcDbEntity
  8
0
 62
     7
100
AcDbMText
 10
60.0917895593976
 20
-58.57474667134887
 30
0.0
 40
3.200000047683716
 41
0.0
 46
0.0
 71
     5
 72
     1
  1
{\W1;121}
 73
     1
 44
1.0
1001
ACAD
1000
MTEXTBEGIN
1070
    73
1070
     1
1070
    44
1040
1.0
1070
    74
1070
     0
1000
MTEXTEND
  0
MTEXT
  5
224
330
1F
100
AcDbEntity
  8
0
 62
     7
100
AcDbMText
 10
8.091774300608575
 20
-58.57474667134887
 30
0.0
 40
3.200000047683716
 41
0.0
 46
0.0
 71
     5
 72
     1
  1
{\W1;118}
 73
     1
 44
1.0
1001
ACAD
1000
MTEXTBEGIN
1070
    73
1070
     1
1070
    44
1040
1.0
1070
    74
1070
     0
1000
MTEXTEND
  0
MTEXT
  5
225
330
1F
100
AcDbEntity
  8
0
 62
     7
100
AcDbMText
 10
-18.17490762882078
 20
-58.37971701991638
 30
0.0
 40
3.200000047683716
 41
0.0
 46
0.0
 71
     5
 72
     1
  1
{\W1;90}
 73
     1
 44
1.0
1001
ACAD
1000
MTEXTBEGIN
1070
    73
1070
     1
1070
    44
1040
1.0
1070
    74
1070
     0
1000
MTEXTEND
  0
MTEXT
  5
226
330
1F
100
AcDbEntity
  8
0
 62
     7
100
AcDbMText
 10
-17.90824095818047
 20
-64.37971701991646
 30
0.0
 40
3.200000047683716
 41
0.0
 46
0.0
 71
     5
 72
     1
  1
{\W1;97}
 73
     1
 44
1.0
1001
ACAD
1000
MTEXTBEGIN
1070
    73
1070
     1
1070
    44
1040
1.0
1070
    74
1070
     0
1000
MTEXTEND
  0
MTEXT
  5
227
330
1F
100
AcDbEntity
  8
0
 62
     7
100
AcDbMText
 10
8.091774300608577
 20
-64.57474667134895
 30
0.0
 40
3.200000047683716
 41
0.0
 46
0.0
 71
     5
 72
     1
  1
{\W1;119}
 73
     1
 44
1.0
1001
ACAD
1000
MTEXTBEGIN
1070
    73
1070
     1
1070
    44
1040
1.0
1070
    74
1070
     0
1000
MTEXTEND
  0
MTEXT
  5
228
330
1F
100
AcDbEntity
  8
0
 62
     7
100
AcDbMText
 10
86.09175904181951
 20
-64.57474667134895
 30
0.0
 40
3.200000047683716
 41
0.0
 46
0.0
 71
     5
 72
     1
  1
{\W1;60}
 73
     1
 44
1.0
1001
ACAD
1000
MTEXTBEGIN
1070
    73
1070
     1
1070
    44
1040
1.0
1070
    74
1070
     0
1000
MTEXTEND
  0
MTEXT
  5
229
330
1F
100
AcDbEntity
  8
0
 62
     7
100
AcDbMText
 10
34.09177430060858
 20
-64.57474667134895
 30
0.0
 40
3.200000047683716
 41
0.0
 46
0.0
 71
     5
 72
     1
  1
{\W1;188}
 73
     1
 44
1.0
1001
ACAD
1000
MTEXTBEGIN
1070
    73
1070
     1
1070
    44
1040
1.0
1070
    74
1070
     0
1000
MTEXTEND
  0
MTEXT
  5
22A
330
1F
100
AcDbEntity
  8
0
 62
     7
100
AcDbMText
 10
60.0917895593976
 20
-64.57474667134895
 30
0.0
 40
3.200000047683716
 41
0.0
 46
0.0
 71
     5
 72
     1
  1
{\W1;121}
 73
     1
 44
1.0
1001
ACAD
1000
MTEXTBEGIN
1070
    73
1070
     1
1070
    44
1040
1.0
1070
    74
1070
     0
1000
MTEXTEND
  0
MTEXT
  5
23C
330
1F
100
AcDbEntity
  8
0
 62
     7
100
AcDbMText
 10
82.45771131734571
 20
-73.19593144407814
 30
0.0
 40
3.200000047683716
 41
0.0
 46
0.0
 71
     7
 72
     1
  1
{\W1;(mm)}
 73
     1
 44
1.0
1001
ACAD
1000
MTEXTBEGIN
1070
    73
1070
     1
1070
    44
1040
1.0
1070
    74
1070
     0
1000
MTEXTEND
  0
DIMENSION
  5
23D
330
1F
100
AcDbEntity
  8
寸法線
100
AcDbDimension
280
     0
  2
*D2
 10
-33.26217888754643
 20
37.07106376450821
 30
0.0
 11
-33.26217888754644
 21
49.62606681389257
 31
0.0
 70
   160
  1
∅A
 71
     5
 42
25.11000609876875
 73
     0
 74
     0
 75
     0
  3
ISO-25
100
AcDbAlignedDimension
 13
-44.04825332536717
 23
62.18106986327696
 33
0.0
 14
-44.04825332536717
 24
37.07106376450821
 34
0.0
 50
90.0
100
AcDbRotatedDimension
1001
ACAD
1000
DSTYLE
1002
{
1070
   278
1070
    46
1070
   147
1040
0.8000000119209291
1070
    77
1070
     1
1070
    74
1070
     0
1070
    73
1070
     0
1070
    42
1040
2.54
1070
    44
1040
0.8678571705687437
1070
    76
1070
     0
1070
    75
1070
     0
1070
   279
1070
     0
1070
   271
1070
     0
1070
   173
1070
     1
1070
    41
1040
3.0
1070
   140
1040
3.200000047683716
1070
   344
1005
23E
1070
   343
1005
23E
1002
}
  0
DIMENSION
  5
258
330
1F
100
AcDbEntity
  8
寸法線
100
AcDbDimension
280
     0
  2
*D3
 10
-64.09575264126016
 20
78.1901363294892
 30
0.0
 11
-80.29575095146842
 21
78.1901363294892
 31
0.0
 70
   160
  1
L1
 71
     5
 42
32.39999882749143
 73
     0
 74
     0
 75
     0
  3
ISO-25
100
AcDbAlignedDimension
 13
-96.49575146875161
 23
63.65932229411995
 33
0.0
 14
-64.09575264126016
 24
64.91482348188839
 34
0.0
 50
180.0
100
AcDbRotatedDimension
1001
ACAD
1000
DSTYLE
1002
{
1070
   278
1070
    46
1070
   147
1040
0.8000000119209291
1070
    77
1070
     1
1070
    74
1070
     0
1070
    73
1070
     0
1070
    42
1040
2.54
1070
    44
1040
0.8678571705687689
1070
    76
1070
     0
1070
    75
1070
     1
1070
   279
1070
     0
1070
   271
1070
     0
1070
   173
1070
     1
1070
    41
1040
3.0
1070
   140
1040
3.200000047683716
1070
   344
1005
23E
1070
   343
1005
23E
1002
}
  0
DIMENSION
  5
26A
330
1F
100
AcDbEntity
  8
寸法線
100
AcDbDimension
280
     0
  2
*D4
 10
-44.04825332536717
 20
78.1901363294892
 30
0.0
 11
-52.35075270764482
 21
78.1901363294892
 31
0.0
 70
   160
  1
L2
 71
     5
 42
16.60499876455533
 73
     0
 74
     0
 75
     0
  3
ISO-25
100
AcDbAlignedDimension
 13
-60.6532520899225
 23
62.78857826955976
 33
0.0
 14
-44.04825332536717
 24
63.19357872390679
 34
0.0
 50
180.0
100
AcDbRotatedDimension
1001
ACAD
1000
DSTYLE
1002
{
1070
   278
1070
    46
1070
   147
1040
0.8000000119209291
1070
    77
1070
     1
1070
    74
1070
     0
1070
    73
1070
     0
1070
    42
1040
2.54
1070
    44
1040
0.8678571705687689
1070
    76
1070
     1
1070
    75
1070
     0
1070
   279
1070
     0
1070
   271
1070
     0
1070
   173
1070
     1
1070
    41
1040
3.0
1070
   140
1040
3.200000047683716
1070
   344
1005
23E
1070
   343
1005
23E
1002
}
  0
DIMENSION
  5
27C
330
1F
100
AcDbEntity
  8
寸法線
100
AcDbDimension
280
     0
  2
*D5
 10
-96.49575146875161
 20
84.09202239527941
 30
0.0
 11
-70.2720023970594
 21
84.09202239527941
 31
0.0
 70
   160
  1
L
 71
     5
 42
52.4474981433844
 73
     0
 74
     0
 75
     0
  3
ISO-25
100
AcDbAlignedDimension
 13
-44.04825332536717
 23
63.19357872390679
 33
0.0
 14
-96.49575146875161
 24
63.65932229411995
 34
0.0
100
AcDbRotatedDimension
1001
ACAD
1000
DSTYLE
1002
{
1070
   278
1070
    46
1070
   147
1040
0.8000000119209291
1070
    77
1070
     1
1070
    74
1070
     0
1070
    73
1070
     0
1070
    42
1040
2.54
1070
    44
1040
0.8678571705687827
1070
    76
1070
     0
1070
    75
1070
     0
1070
   279
1070
     0
1070
   271
1070
     0
1070
   173
1070
     1
1070
    41
1040
3.0
1070
   140
1040
3.200000047683716
1070
   344
1005
23E
1070
   343
1005
23E
1002
}
  0
DIMENSION
  5
290
330
1F
100
AcDbEntity
  8
寸法線
100
AcDbDimension
280
     0
  2
*D6
 10
-104.651661349191
 20
64.91482127481339
 30
0.0
 11
-104.651661349191
 21
49.62607122804239
 31
0.0
 70
   160
  1
∅B
 71
     5
 42
30.57750009354201
 73
     0
 74
     0
 75
     0
  3
ISO-25
100
AcDbAlignedDimension
 13
-93.34660869415875
 23
34.33732118127139
 33
0.0
 14
-93.34660869415875
 24
64.91482127481339
 34
0.0
 50
270.0
100
AcDbRotatedDimension
1001
ACAD
1000
DSTYLE
1002
{
1070
   278
1070
    46
1070
   147
1040
0.8000000119209291
1070
    77
1070
     1
1070
    74
1070
     0
1070
    73
1070
     0
1070
    42
1040
2.54
1070
    44
1040
0.8678571705687328
1070
    76
1070
     0
1070
    75
1070
     0
1070
   279
1070
     0
1070
   271
1070
     0
1070
   173
1070
     1
1070
    41
1040
3.0
1070
   140
1040
3.200000047683716
1070
   344
1005
23E
1070
   343
1005
23E
1002
}
  0
LINE
  5
2A6
330
1F
100
AcDbEntity
  8
VIEW0001
  6
Continuous
 62
     7
370
    30
100
AcDbLine
 10
-138.0
 20
95.0
 30
0.0
 11
138.5
 21
95.0
 31
0.0
  0
LINE
  5
2A7
330
1F
100
AcDbEntity
  8
VIEW0001
  6
Continuous
 62
     7
370
    30
100
AcDbLine
 10
138.5
 20
95.0
 30
0.0
 11
138.5
 21
-94.50000000000001
 31
0.0
  0
LINE
  5
2A8
330
1F
100
AcDbEntity
  8
VIEW0001
  6
Continuous
 62
     7
370
    30
100
AcDbLine
 10
-138.0
 20
-94.50000000000001
 30
0.0
 11
138.5
 21
-94.50000000000001
 31
0.0
  0
LINE
  5
2A9
330
1F
100
AcDbEntity
  8
VIEW0001
  6
Continuous
 62
     7
370
    30
100
AcDbLine
 10
-138.0
 20
95.0
 30
0.0
 11
-138.0
 21
-94.50000000000001
 31
0.0
  0
MTEXT
  5
2AE
330
1F
100
AcDbEntity
  8
VIEW0001
 62
     7
100
AcDbMText
 10
7.0
 20
-90.75000000000001
 30
0.0
 40
3.200000047683716
 41
0.0
 46
0.0
 71
     5
 72
     1
  1
\W0.833333;片落ちカラ－1（ﾄﾖﾄﾞﾚﾝﾀﾞﾌﾞﾙ管用）
 73
     1
 44
1.0
1001
ACAD
1000
MTEXTBEGIN
1070
    73
1070
     1
1070
    44
1040
1.0
1070
    74
1070
     0
1000
MTEXTEND
  0
LINE
  5
35C
330
1F
100
AcDbEntity
  8
外形線
  6
Continuous
100
AcDbLine
 10
138.5
 20
-87.0
 30
0.0
 11
-38.0
 21
-87.0
 31
0.0
  0
LINE
  5
35F
330
1F
100
AcDbEntity
  8
外形線
  6
Continuous
100
AcDbLine
 10
52.0
 20
-94.50000000000001
 30
0.0
 11
52.0
 21
-87.0
 31
0.0
  0
LINE
  5
368
330
1F
100
AcDbEntity
  8
外形線
  6
Continuous
100
AcDbLine
 10
-38.0
 20
-94.50000000000001
 30
0.0
 11
-38.0
 21
-87.0
 31
0.0
  0
LINE
  5
6AF
330
1F
100
AcDbEntity
  8
0
  6
Continuous
 62
     7
100
AcDbLine
 10
39.08768354663742
 20
59.49029135617582
 30
0.0
 11
39.47571708599139
 21
59.49029135617582
 31
0.0
  0
LINE
  5
6B0
330
1F
100
AcDbEntity
  8
0
  6
Continuous
 62
     7
100
AcDbLine
 10
40.79461262208393
 20
58.44968756630496
 30
0.0
 11
41.06237115018343
 21
58.44968756630496
 31
0.0
  0
LINE
  5
6B1
330
1F
100
AcDbEntity
  8
0
  6
Continuous
 62
     7
100
AcDbLine
 10
38.65720588373515
 20
58.6249829113415
 30
0.0
 11
38.85506259476044
 21
59.31499117753882
 31
0.0
  0
LINE
  5
6B2
330
1F
100
AcDbEntity
  8
0
  6
Continuous
 62
     7
100
AcDbLine
 10
38.60693430117135
 20
39.16230432364282
 30
0.0
 11
38.60693430117135
 21
48.80600479189244
 31
0.0
  0
LINE
  5
6B3
330
1F
100
AcDbEntity
  8
0
  6
Continuous
 62
     7
100
AcDbLine
 10
38.9053170147082
 20
38.20461385416153
 30
0.0
 11
38.9053170147082
 21
48.80600479189244
 31
0.0
  0
LINE
  5
6B4
330
1F
100
AcDbEntity
  8
0
  6
Continuous
 62
     7
100
AcDbLine
 10
39.86375677972347
 20
59.49029135617582
 30
0.0
 11
39.47571708599139
 21
59.49029135617582
 31
0.0
  0
LINE
  5
6B5
330
1F
100
AcDbEntity
  8
0
  6
DASHED
 62
     7
100
AcDbLine
 10
39.08768354663742
 20
59.2482889004347
 30
0.0
 11
39.47571708599139
 21
59.2482889004347
 31
0.0
  0
LINE
  5
6B6
330
1F
100
AcDbEntity
  8
0
  6
Continuous
 62
     7
100
AcDbLine
 10
38.15682154989886
 20
58.44968756630496
 30
0.0
 11
38.42457392362025
 21
58.44968756630496
 31
0.0
  0
LINE
  5
6B7
330
1F
100
AcDbEntity
  8
0
  6
DASHED
 62
     7
100
AcDbLine
 10
40.79461262208393
 20
58.20768818775291
 30
0.0
 11
41.06237115018343
 21
58.20768818775291
 31
0.0
  0
LINE
  5
6B8
330
1F
100
AcDbEntity
  8
0
  6
Continuous
 62
     7
100
AcDbLine
 10
30.00141202852301
 20
58.69168886810019
 30
0.0
 11
30.00141202852301
 21
48.80598786735264
 31
0.0
  0
LINE
  5
6B9
330
1F
100
AcDbEntity
  8
0
  6
Continuous
 62
     7
100
AcDbLine
 10
40.34449987081139
 20
39.16230432364282
 30
0.0
 11
40.34449987081139
 21
48.80600479189244
 31
0.0
  0
LINE
  5
6BA
330
1F
100
AcDbEntity
  8
0
  6
DASHED
 62
     7
100
AcDbLine
 10
54.17802012958264
 20
55.42895624860638
 30
0.0
 11
54.68542375339421
 21
55.9268457851455
 31
0.0
  0
LINE
  5
6BB
330
1F
100
AcDbEntity
  8
0
  6
Continuous
 62
     7
100
AcDbLine
 10
54.00852774987757
 20
55.60168303606201
 30
0.0
 11
54.58401963724676
 21
56.16638414507632
 31
0.0
  0
LINE
  5
6BC
330
1F
100
AcDbEntity
  8
0
  6
Continuous
 62
     7
100
AcDbLine
 10
40.04611408008552
 20
38.20461385416153
 30
0.0
 11
40.04611408008552
 21
48.80600479189244
 31
0.0
  0
LINE
  5
6BD
330
1F
100
AcDbEntity
  8
0
  6
DASHED
 62
     7
100
AcDbLine
 10
38.88981814650746
 20
58.55828000914323
 30
0.0
 11
39.08767483102685
 21
59.24828818290357
 31
0.0
  0
LINE
  5
6BE
330
1F
100
AcDbEntity
  8
0
  6
Continuous
 62
     7
100
AcDbLine
 10
41.72547615741702
 20
59.49029135617582
 30
0.0
 11
44.2192270151837
 21
59.49029135617582
 31
0.0
  0
LINE
  5
6BF
330
1F
100
AcDbEntity
  8
0
  6
Continuous
 62
     7
100
AcDbLine
 10
35.96913399741916
 20
39.16230432364282
 30
0.0
 11
35.96913399741916
 21
48.80600479189244
 31
0.0
  0
LINE
  5
6C0
330
1F
100
AcDbEntity
  8
0
  6
Continuous
 62
     7
100
AcDbLine
 10
30.24341756145318
 20
58.69168886810019
 30
0.0
 11
30.24341756145318
 21
48.80598786735264
 31
0.0
  0
LINE
  5
6C1
330
1F
100
AcDbEntity
  8
0
  6
Continuous
 62
     7
100
AcDbLine
 10
36.2675228653341
 20
38.20461385416153
 30
0.0
 11
36.2675228653341
 21
48.80600479189244
 31
0.0
  0
LINE
  5
6C2
330
1F
100
AcDbEntity
  8
0
  6
Continuous
 62
     7
100
AcDbLine
 10
41.29499458694957
 20
58.62498255471344
 30
0.0
 11
41.49285126484249
 21
59.31499070536453
 31
0.0
  0
LINE
  5
6C3
330
1F
100
AcDbEntity
  8
0
  6
DASHED
 62
     7
100
AcDbLine
 10
38.15682154989886
 20
58.20768818775291
 30
0.0
 11
38.42457392362025
 21
58.20768818775291
 31
0.0
  0
LINE
  5
6C4
330
1F
100
AcDbEntity
  8
0
  6
Continuous
 62
     7
100
AcDbLine
 10
37.7066995670592
 20
39.16230432364282
 30
0.0
 11
37.7066995670592
 21
48.80600479189244
 31
0.0
  0
LINE
  5
6C5
330
1F
100
AcDbEntity
  8
0
  6
Continuous
 62
     7
100
AcDbLine
 10
37.40830762195519
 20
38.20461385416153
 30
0.0
 11
37.40830762195519
 21
48.80600479189244
 31
0.0
  0
LINE
  5
6C6
330
1F
100
AcDbEntity
  8
0
  6
Continuous
 62
     7
100
AcDbLine
 10
40.79461877646203
 20
58.44968756630496
 30
0.0
 11
40.52686024836253
 21
58.44968756630496
 31
0.0
  0
LINE
  5
6C7
330
1F
100
AcDbEntity
  8
0
  6
Continuous
 62
     7
100
AcDbLine
 10
40.29423049806328
 20
58.62498397561061
 30
0.0
 11
40.09637381354389
 21
59.31499214937097
 31
0.0
  0
LINE
  5
6C8
330
1F
100
AcDbEntity
  8
0
  6
DASHED
 62
     7
100
AcDbLine
 10
40.06161442378107
 20
58.55828878377406
 30
0.0
 11
39.86375773926166
 21
59.24829695753441
 31
0.0
  0
LINE
  5
6C9
330
1F
100
AcDbEntity
  8
0
  6
Continuous
 62
     7
100
AcDbLine
 10
33.33133984804505
 20
39.16230432364282
 30
0.0
 11
33.33133984804505
 21
48.80600479189244
 31
0.0
  0
LINE
  5
6CA
330
1F
100
AcDbEntity
  8
0
  6
Continuous
 62
     7
100
AcDbLine
 10
33.62972563877093
 20
38.20461385416153
 30
0.0
 11
33.62972563877093
 21
48.80600479189244
 31
0.0
  0
LINE
  5
6CB
330
1F
100
AcDbEntity
  8
0
  6
Continuous
 62
     7
100
AcDbLine
 10
35.06889618611794
 20
39.16230432364282
 30
0.0
 11
35.06889618611794
 21
48.80600479189244
 31
0.0
  0
LINE
  5
6CC
330
1F
100
AcDbEntity
  8
0
  6
Continuous
 62
     7
100
AcDbLine
 10
34.77050731820299
 20
38.20461385416153
 30
0.0
 11
34.77050731820299
 21
48.80600479189244
 31
0.0
  0
LINE
  5
6CD
330
1F
100
AcDbEntity
  8
0
  6
Continuous
 62
     7
100
AcDbLine
 10
30.69353954429282
 20
39.16230240039965
 30
0.0
 11
30.69353954429282
 21
48.8060032532979
 31
0.0
  0
LINE
  5
6CE
330
1F
100
AcDbEntity
  8
0
  6
Continuous
 62
     7
100
AcDbLine
 10
30.99191610345156
 20
38.20461231556701
 30
0.0
 11
30.99191610345156
 21
48.8060032532979
 31
0.0
  0
LINE
  5
6CF
330
1F
100
AcDbEntity
  8
0
  6
Continuous
 62
     7
100
AcDbLine
 10
32.43109895955476
 20
39.16230240039965
 30
0.0
 11
32.43109895955476
 21
48.8060032532979
 31
0.0
  0
LINE
  5
6D0
330
1F
100
AcDbEntity
  8
0
  6
Continuous
 62
     7
100
AcDbLine
 10
32.13271316882887
 20
38.20461231556701
 30
0.0
 11
32.13271316882887
 21
48.8060032532979
 31
0.0
  0
LINE
  5
6D1
330
1F
100
AcDbEntity
  8
0
  6
Continuous
 62
     7
100
AcDbLine
 10
66.05942098001787
 20
56.69519361039712
 30
0.0
 11
66.05942098001787
 21
48.80598786735264
 31
0.0
  0
LINE
  5
6D2
330
1F
100
AcDbEntity
  8
0
  6
DASHED
 62
     7
100
AcDbLine
 10
54.68542193538048
 20
55.92684266890652
 30
0.0
 11
63.76042386263875
 21
56.15371777119613
 31
0.0
  0
LINE
  5
6D3
330
1F
100
AcDbEntity
  8
0
  6
Continuous
 62
     7
100
AcDbLine
 10
54.58401996036394
 20
56.16638434196744
 30
0.0
 11
63.75437572320837
 21
56.39564329071522
 31
0.0
  0
LINE
  5
6D4
330
1F
100
AcDbEntity
  8
0
  6
DASHED
 62
     7
100
AcDbLine
 10
39.86375677972347
 20
59.2482889004347
 30
0.0
 11
39.47571708599139
 21
59.2482889004347
 31
0.0
  0
LINE
  5
6D5
330
1F
100
AcDbEntity
  8
0
  6
Continuous
 62
     7
100
AcDbLine
 10
65.81742160146584
 20
56.69519361039712
 30
0.0
 11
65.81742160146584
 21
56.44721525351861
 31
0.0
  0
LINE
  5
6D6
330
1F
100
AcDbEntity
  8
0
  6
Continuous
 62
     7
100
AcDbLine
 10
30.00141510571206
 20
58.69168694485701
 30
0.0
 11
30.24341756145315
 21
58.69168694485701
 31
0.0
  0
LINE
  5
6D7
330
1F
100
AcDbEntity
  8
0
  6
DASHED
 62
     7
100
AcDbLine
 10
37.2259533987822
 20
38.36370222021578
 30
0.0
 11
36.83791370505014
 21
38.36370222021578
 31
0.0
  0
LINE
  5
6D8
330
1F
100
AcDbEntity
  8
0
  6
DASHED
 62
     7
100
AcDbLine
 10
37.42381262702364
 20
39.05371285041407
 30
0.0
 11
37.22595615455132
 21
38.36370541614974
 31
0.0
  0
LINE
  5
6D9
330
1F
100
AcDbEntity
  8
0
  6
DASHED
 62
     7
100
AcDbLine
 10
38.15682154989886
 20
39.40430293289758
 30
0.0
 11
37.88905686742128
 21
39.40430293289758
 31
0.0
  0
LINE
  5
6DA
330
1F
100
AcDbEntity
  8
0
  6
Continuous
 62
     7
100
AcDbLine
 10
37.65642741834803
 20
38.98700202046953
 30
0.0
 11
37.45857094587572
 21
38.29699458620516
 31
0.0
  0
LINE
  5
6DB
330
1F
100
AcDbEntity
  8
0
  6
Continuous
 62
     7
100
AcDbLine
 10
38.15682154989886
 20
39.16230355434553
 30
0.0
 11
37.88905686742128
 21
39.16230355434553
 31
0.0
  0
LINE
  5
6DC
330
1F
100
AcDbEntity
  8
0
  6
Continuous
 62
     7
100
AcDbLine
 10
37.2259533987822
 20
38.12169976447468
 30
0.0
 11
36.83791370505014
 21
38.12169976447468
 31
0.0
  0
LINE
  5
6DD
330
1F
100
AcDbEntity
  8
0
  6
DASHED
 62
     7
100
AcDbLine
 10
36.44988016569616
 20
38.36370222021578
 30
0.0
 11
36.83791370505014
 21
38.36370222021578
 31
0.0
  0
LINE
  5
6DE
330
1F
100
AcDbEntity
  8
0
  6
Continuous
 62
     7
100
AcDbLine
 10
64.00242164654184
 20
56.15371411576282
 30
0.0
 11
64.00242164654184
 21
55.95709096695951
 31
0.0
  0
LINE
  5
6DF
330
1F
100
AcDbEntity
  8
0
  6
DASHED
 62
     7
100
AcDbLine
 10
36.25201686385486
 20
39.05371555092782
 30
0.0
 11
36.44987354837425
 21
38.36370737716748
 31
0.0
  0
LINE
  5
6E0
330
1F
100
AcDbEntity
  8
0
  6
DASHED
 62
     7
100
AcDbLine
 10
31.17428571256983
 20
59.2482889004347
 30
0.0
 11
31.56231925192379
 21
59.2482889004347
 31
0.0
  0
LINE
  5
6E1
330
1F
100
AcDbEntity
  8
0
  6
DASHED
 62
     7
100
AcDbLine
 10
35.51901816895759
 20
39.40430293289758
 30
0.0
 11
35.78677054267899
 21
39.40430293289758
 31
0.0
  0
LINE
  5
6E2
330
1F
100
AcDbEntity
  8
0
  6
Continuous
 62
     7
100
AcDbLine
 10
36.01939889716179
 20
38.98701021285692
 30
0.0
 11
36.21725558168118
 21
38.29700203909658
 31
0.0
  0
LINE
  5
6E3
330
1F
100
AcDbEntity
  8
0
  6
Continuous
 62
     7
100
AcDbLine
 10
35.51901816895759
 20
39.16230355434553
 30
0.0
 11
35.78677054267899
 21
39.16230355434553
 31
0.0
  0
LINE
  5
6E4
330
1F
100
AcDbEntity
  8
0
  6
Continuous
 62
     7
100
AcDbLine
 10
31.95035894565588
 20
59.49029135617582
 30
0.0
 11
31.56231925192379
 21
59.49029135617582
 31
0.0
  0
LINE
  5
6E5
330
1F
100
AcDbEntity
  8
0
  6
Continuous
 62
     7
100
AcDbLine
 10
36.44988016569616
 20
38.12169976447468
 30
0.0
 11
36.83791370505014
 21
38.12169976447468
 31
0.0
  0
LINE
  5
6E6
330
1F
100
AcDbEntity
  8
0
  6
DASHED
 62
     7
100
AcDbLine
 10
63.76042380658432
 20
56.15371411576282
 30
0.0
 11
63.76042380658432
 21
55.71509081911018
 31
0.0
  0
LINE
  5
6E7
330
1F
100
AcDbEntity
  8
0
  6
DASHED
 62
     7
100
AcDbLine
 10
30.97642275908253
 20
58.55827386845667
 30
0.0
 11
31.17427944360192
 21
59.248282042217
 31
0.0
  0
LINE
  5
6E8
330
1F
100
AcDbEntity
  8
0
  6
DASHED
 62
     7
100
AcDbLine
 10
40.79461877646203
 20
58.20768818775291
 30
0.0
 11
40.52686024836253
 21
58.20768818775291
 31
0.0
  0
LINE
  5
6E9
330
1F
100
AcDbEntity
  8
0
  6
Continuous
 62
     7
100
AcDbLine
 10
41.24473768211261
 20
58.44968679700772
 30
0.0
 11
41.24473768211261
 21
48.80598632875812
 31
0.0
  0
LINE
  5
6EA
330
1F
100
AcDbEntity
  8
0
  6
Continuous
 62
     7
100
AcDbLine
 10
32.88121478801632
 20
58.44968756630496
 30
0.0
 11
32.61346241429494
 21
58.44968756630496
 31
0.0
  0
LINE
  5
6EB
330
1F
100
AcDbEntity
  8
0
  6
Continuous
 62
     7
100
AcDbLine
 10
32.38082973012581
 20
58.62498097061453
 30
0.0
 11
32.18297283355934
 21
59.31498988387083
 31
0.0
  0
LINE
  5
6EC
330
1F
100
AcDbEntity
  8
0
  6
DASHED
 62
     7
100
AcDbLine
 10
65.07214867572887
 20
56.18651089934431
 30
0.0
 11
66.05942238850047
 21
56.21119274805005
 31
0.0
  0
LINE
  5
6ED
330
1F
100
AcDbEntity
  8
0
  6
DASHED
 62
     7
100
AcDbLine
 10
41.52761723450917
 20
58.55828237685908
 30
0.0
 11
41.72547413770215
 21
59.24829131322468
 31
0.0
  0
LINE
  5
6EE
330
1F
100
AcDbEntity
  8
0
  6
DASHED
 62
     7
100
AcDbLine
 10
41.72547615741702
 20
59.2482889004347
 30
0.0
 11
43.97722701157763
 21
59.2482889004347
 31
0.0
  0
LINE
  5
6EF
330
1F
100
AcDbEntity
  8
0
  6
DASHED
 62
     7
100
AcDbLine
 10
63.76042380658432
 20
55.71509120375879
 30
0.0
 11
64.22366384634916
 21
55.71509120375879
 31
0.0
  0
LINE
  5
6F0
330
1F
100
AcDbEntity
  8
0
  6
Continuous
 62
     7
100
AcDbLine
 10
64.00242203119046
 20
55.95709058231085
 30
0.0
 11
64.12342172046649
 21
55.95709058231085
 31
0.0
  0
LINE
  5
6F1
330
1F
100
AcDbEntity
  8
0
  6
Continuous
 62
     7
100
AcDbLine
 10
65.06609851752391
 20
56.42843636839401
 30
0.0
 11
65.81742237956484
 21
56.44721946942468
 31
0.0
  0
LINE
  5
6F2
330
1F
100
AcDbEntity
  8
0
  6
Continuous
 62
     7
100
AcDbLine
 10
64.12342114755131
 20
55.95708893033148
 30
0.0
 11
64.24073976390238
 21
56.07440753679334
 31
0.0
  0
LINE
  5
6F3
330
1F
100
AcDbEntity
  8
0
  6
DASHED
 62
     7
100
AcDbLine
 10
34.58815617221904
 20
38.36370222021578
 30
0.0
 11
34.20011647848696
 21
38.36370222021578
 31
0.0
  0
LINE
  5
6F4
330
1F
100
AcDbEntity
  8
0
  6
DASHED
 62
     7
100
AcDbLine
 10
34.78601272801473
 20
39.0537188182835
 30
0.0
 11
34.58815583144825
 21
38.36370990502718
 31
0.0
  0
LINE
  5
6F5
330
1F
100
AcDbEntity
  8
0
  6
DASHED
 62
     7
100
AcDbLine
 10
35.51901816895759
 20
39.40430293289758
 30
0.0
 11
35.25125964085811
 21
39.40430293289758
 31
0.0
  0
LINE
  5
6F6
330
1F
100
AcDbEntity
  8
0
  6
Continuous
 62
     7
100
AcDbLine
 10
35.01863491429896
 20
38.98700586786804
 30
0.0
 11
34.82077801773247
 21
38.29699695461171
 31
0.0
  0
LINE
  5
6F7
330
1F
100
AcDbEntity
  8
0
  6
Continuous
 62
     7
100
AcDbLine
 10
35.51901816895759
 20
39.16230355434553
 30
0.0
 11
35.25125964085811
 21
39.16230355434553
 31
0.0
  0
LINE
  5
6F8
330
1F
100
AcDbEntity
  8
0
  6
Continuous
 62
     7
100
AcDbLine
 10
34.58815617221904
 20
38.12169976447468
 30
0.0
 11
34.20011647848696
 21
38.12169976447468
 31
0.0
  0
LINE
  5
6F9
330
1F
100
AcDbEntity
  8
0
  6
DASHED
 62
     7
100
AcDbLine
 10
33.812082939133
 20
38.36370222021578
 30
0.0
 11
34.20011647848696
 21
38.36370222021578
 31
0.0
  0
LINE
  5
6FA
330
1F
100
AcDbEntity
  8
0
  6
Continuous
 62
     7
100
AcDbLine
 10
30.24341756145315
 20
58.44968756630496
 30
0.0
 11
30.51117608955265
 21
58.44968756630496
 31
0.0
  0
LINE
  5
6FB
330
1F
100
AcDbEntity
  8
0
  6
Continuous
 62
     7
100
AcDbLine
 10
31.17428571256983
 20
59.49029135617582
 30
0.0
 11
31.56231925192379
 21
59.49029135617582
 31
0.0
  0
LINE
  5
6FC
330
1F
100
AcDbEntity
  8
0
  6
Continuous
 62
     7
100
AcDbLine
 10
30.74380542853071
 20
58.6249814250155
 30
0.0
 11
30.94166211305011
 21
59.31498959877585
 31
0.0
  0
LINE
  5
6FD
330
1F
100
AcDbEntity
  8
0
  6
DASHED
 62
     7
100
AcDbLine
 10
64.22366021592596
 20
55.7150954571625
 30
0.0
 11
64.4118564384309
 21
55.90329166380373
 31
0.0
  0
LINE
  5
6FE
330
1F
100
AcDbEntity
  8
0
  6
DASHED
 62
     7
100
AcDbLine
 10
30.00141510571206
 20
58.20768818775291
 30
0.0
 11
30.51117608955265
 21
58.20768818775291
 31
0.0
  0
LINE
  5
6FF
330
1F
100
AcDbEntity
  8
0
  6
Continuous
 62
     7
100
AcDbLine
 10
53.77822715762392
 20
55.37569763779096
 30
0.0
 11
53.77822715762392
 21
48.80598786735264
 31
0.0
  0
LINE
  5
700
330
1F
100
AcDbEntity
  8
0
  6
DASHED
 62
     7
100
AcDbLine
 10
32.88121478801632
 20
58.20768818775291
 30
0.0
 11
32.61346241429494
 21
58.20768818775291
 31
0.0
  0
LINE
  5
701
330
1F
100
AcDbEntity
  8
0
  6
Continuous
 62
     7
100
AcDbLine
 10
65.81742198611445
 20
56.69519437969436
 30
0.0
 11
66.05942194163946
 21
56.69519437969436
 31
0.0
  0
LINE
  5
702
330
1F
100
AcDbEntity
  8
0
  6
DASHED
 62
     7
100
AcDbLine
 10
32.14820710907211
 20
58.5582807003231
 30
0.0
 11
31.95035063659982
 21
59.24828813458749
 31
0.0
  0
LINE
  5
703
330
1F
100
AcDbEntity
  8
0
  6
DASHED
 62
     7
100
AcDbLine
 10
33.61421442561854
 20
39.05371285644418
 30
0.0
 11
33.81207047399668
 21
38.36370690117179
 31
0.0
  0
LINE
  5
704
330
1F
100
AcDbEntity
  8
0
  6
DASHED
 62
     7
100
AcDbLine
 10
32.88121478801632
 20
39.40430293289758
 30
0.0
 11
33.14897331611582
 21
39.40430293289758
 31
0.0
  0
LINE
  5
705
330
1F
100
AcDbEntity
  8
0
  6
DASHED
 62
     7
100
AcDbLine
 10
31.95035894565588
 20
59.2482889004347
 30
0.0
 11
31.56231925192379
 21
59.2482889004347
 31
0.0
  0
LINE
  5
706
330
1F
100
AcDbEntity
  8
0
  6
Continuous
 62
     7
100
AcDbLine
 10
33.38160850290829
 20
38.98701017163072
 30
0.0
 11
33.57946476333351
 21
38.29700347686234
 31
0.0
  0
LINE
  5
707
330
1F
100
AcDbEntity
  8
0
  6
Continuous
 62
     7
100
AcDbLine
 10
32.88121478801632
 20
39.16230355434553
 30
0.0
 11
33.14897331611582
 21
39.16230355434553
 31
0.0
  0
LINE
  5
708
330
1F
100
AcDbEntity
  8
0
  6
Continuous
 62
     7
100
AcDbLine
 10
54.68542249336983
 20
56.16891466037841
 30
0.0
 11
54.68542249336983
 21
48.80598786735264
 31
0.0
  0
LINE
  5
709
330
1F
100
AcDbEntity
  8
0
  6
Continuous
 62
     7
100
AcDbLine
 10
41.54312039564946
 20
59.40737726648902
 30
0.0
 11
41.54312039564946
 21
48.80598632875812
 31
0.0
  0
LINE
  5
70A
330
1F
100
AcDbEntity
  8
0
  6
Continuous
 62
     7
100
AcDbLine
 10
33.812082939133
 20
38.12169976447468
 30
0.0
 11
34.20011647848696
 21
38.12169976447468
 31
0.0
  0
LINE
  5
70B
330
1F
100
AcDbEntity
  8
0
  6
Continuous
 62
     7
100
AcDbLine
 10
33.812082939133
 20
59.49029135617582
 30
0.0
 11
34.20011647848696
 21
59.49029135617582
 31
0.0
  0
LINE
  5
70C
330
1F
100
AcDbEntity
  8
0
  6
Continuous
 62
     7
100
AcDbLine
 10
32.88121478801632
 20
58.44968756630496
 30
0.0
 11
33.14897331611582
 21
58.44968756630496
 31
0.0
  0
LINE
  5
70D
330
1F
100
AcDbEntity
  8
0
  6
Continuous
 62
     7
100
AcDbLine
 10
33.38160850290832
 20
58.6249809490198
 30
0.0
 11
33.57946476333351
 21
59.31498764378818
 31
0.0
  0
LINE
  5
70E
330
1F
100
AcDbEntity
  8
0
  6
DASHED
 62
     7
100
AcDbLine
 10
32.88121478801632
 20
58.20768818775291
 30
0.0
 11
33.14897331611582
 21
58.20768818775291
 31
0.0
  0
LINE
  5
70F
330
1F
100
AcDbEntity
  8
0
  6
DASHED
 62
     7
100
AcDbLine
 10
33.61421442561852
 20
58.55827826420632
 30
0.0
 11
33.81207047399666
 21
59.24828421947875
 31
0.0
  0
LINE
  5
710
330
1F
100
AcDbEntity
  8
0
  6
DASHED
 62
     7
100
AcDbLine
 10
33.812082939133
 20
59.2482889004347
 30
0.0
 11
34.20011647848696
 21
59.2482889004347
 31
0.0
  0
LINE
  5
711
330
1F
100
AcDbEntity
  8
0
  6
Continuous
 62
     7
100
AcDbLine
 10
34.58815617221904
 20
59.49029135617582
 30
0.0
 11
34.20011647848696
 21
59.49029135617582
 31
0.0
  0
LINE
  5
712
330
1F
100
AcDbEntity
  8
0
  6
Continuous
 62
     7
100
AcDbLine
 10
35.51901816895759
 20
58.44968756630496
 30
0.0
 11
35.25125964085811
 21
58.44968756630496
 31
0.0
  0
LINE
  5
713
330
1F
100
AcDbEntity
  8
0
  6
Continuous
 62
     7
100
AcDbLine
 10
35.01863491429897
 20
58.62498525278247
 30
0.0
 11
34.8207780177325
 21
59.3149941660388
 31
0.0
  0
LINE
  5
714
330
1F
100
AcDbEntity
  8
0
  6
DASHED
 62
     7
100
AcDbLine
 10
35.51901816895759
 20
58.20768818775291
 30
0.0
 11
35.25125964085811
 21
58.20768818775291
 31
0.0
  0
LINE
  5
715
330
1F
100
AcDbEntity
  8
0
  6
DASHED
 62
     7
100
AcDbLine
 10
34.78601272801475
 20
58.55827230236702
 30
0.0
 11
34.58815583144826
 21
59.24828121562335
 31
0.0
  0
LINE
  5
716
330
1F
100
AcDbEntity
  8
0
  6
DASHED
 62
     7
100
AcDbLine
 10
34.58815617221904
 20
59.2482889004347
 30
0.0
 11
34.20011647848696
 21
59.2482889004347
 31
0.0
  0
LINE
  5
717
330
1F
100
AcDbEntity
  8
0
  6
Continuous
 62
     7
100
AcDbLine
 10
36.44988016569616
 20
59.49029135617582
 30
0.0
 11
36.83791370505014
 21
59.49029135617582
 31
0.0
  0
LINE
  5
718
330
1F
100
AcDbEntity
  8
0
  6
Continuous
 62
     7
100
AcDbLine
 10
35.51901816895759
 20
58.44968756630496
 30
0.0
 11
35.78677054267899
 21
58.44968756630496
 31
0.0
  0
LINE
  5
719
330
1F
100
AcDbEntity
  8
0
  6
Continuous
 62
     7
100
AcDbLine
 10
36.01939889716178
 20
58.62498090779357
 30
0.0
 11
36.21725558168118
 21
59.31498908155393
 31
0.0
  0
LINE
  5
71A
330
1F
100
AcDbEntity
  8
0
  6
DASHED
 62
     7
100
AcDbLine
 10
35.51901816895759
 20
58.20768818775291
 30
0.0
 11
35.78677054267899
 21
58.20768818775291
 31
0.0
  0
LINE
  5
71B
330
1F
100
AcDbEntity
  8
0
  6
DASHED
 62
     7
100
AcDbLine
 10
36.25201686385486
 20
58.55827556972268
 30
0.0
 11
36.44987354837425
 21
59.248283743483
 31
0.0
  0
LINE
  5
71C
330
1F
100
AcDbEntity
  8
0
  6
DASHED
 62
     7
100
AcDbLine
 10
36.44988016569616
 20
59.2482889004347
 30
0.0
 11
36.83791370505014
 21
59.2482889004347
 31
0.0
  0
LINE
  5
71D
330
1F
100
AcDbEntity
  8
0
  6
Continuous
 62
     7
100
AcDbLine
 10
37.2259533987822
 20
59.49029135617582
 30
0.0
 11
36.83791370505014
 21
59.49029135617582
 31
0.0
  0
LINE
  5
71E
330
1F
100
AcDbEntity
  8
0
  6
Continuous
 62
     7
100
AcDbLine
 10
38.15682154989886
 20
58.44968756630496
 30
0.0
 11
37.88905686742128
 21
58.44968756630496
 31
0.0
  0
LINE
  5
71F
330
1F
100
AcDbEntity
  8
0
  6
Continuous
 62
     7
100
AcDbLine
 10
37.65642741834804
 20
58.624989100181
 30
0.0
 11
37.45857094587572
 21
59.31499653444536
 31
0.0
  0
LINE
  5
720
330
1F
100
AcDbEntity
  8
0
  6
DASHED
 62
     7
100
AcDbLine
 10
38.15682154989886
 20
58.20768818775291
 30
0.0
 11
37.88905686742128
 21
58.20768818775291
 31
0.0
  0
LINE
  5
721
330
1F
100
AcDbEntity
  8
0
  6
DASHED
 62
     7
100
AcDbLine
 10
37.42381262702365
 20
58.5582782702364
 30
0.0
 11
37.22595615455136
 21
59.24828570450078
 31
0.0
  0
LINE
  5
722
330
1F
100
AcDbEntity
  8
0
  6
DASHED
 62
     7
100
AcDbLine
 10
37.2259533987822
 20
59.2482889004347
 30
0.0
 11
36.83791370505014
 21
59.2482889004347
 31
0.0
  0
LINE
  5
723
330
1F
100
AcDbEntity
  8
0
  6
Continuous
 62
     7
100
AcDbLine
 10
32.13271316882887
 20
59.40737880508354
 30
0.0
 11
32.13271316882887
 21
48.80598786735264
 31
0.0
  0
LINE
  5
724
330
1F
100
AcDbEntity
  8
0
  6
Continuous
 62
     7
100
AcDbLine
 10
32.43109895955476
 20
58.44968872025089
 30
0.0
 11
32.43109895955476
 21
48.80598786735264
 31
0.0
  0
LINE
  5
725
330
1F
100
AcDbEntity
  8
0
  6
Continuous
 62
     7
100
AcDbLine
 10
30.99191610345156
 20
59.40737880508354
 30
0.0
 11
30.99191610345156
 21
48.80598786735264
 31
0.0
  0
LINE
  5
726
330
1F
100
AcDbEntity
  8
0
  6
Continuous
 62
     7
100
AcDbLine
 10
30.69353954429282
 20
58.44968872025089
 30
0.0
 11
30.69353954429282
 21
48.80598786735264
 31
0.0
  0
LINE
  5
727
330
1F
100
AcDbEntity
  8
0
  6
Continuous
 62
     7
100
AcDbLine
 10
34.77050731820299
 20
59.40737726648902
 30
0.0
 11
34.77050731820299
 21
48.80598632875812
 31
0.0
  0
LINE
  5
728
330
1F
100
AcDbEntity
  8
0
  6
Continuous
 62
     7
100
AcDbLine
 10
35.06889618611794
 20
58.44968679700772
 30
0.0
 11
35.06889618611794
 21
48.80598632875812
 31
0.0
  0
LINE
  5
729
330
1F
100
AcDbEntity
  8
0
  6
Continuous
 62
     7
100
AcDbLine
 10
33.62972563877093
 20
59.40737726648902
 30
0.0
 11
33.62972563877093
 21
48.80598632875812
 31
0.0
  0
LINE
  5
72A
330
1F
100
AcDbEntity
  8
0
  6
Continuous
 62
     7
100
AcDbLine
 10
33.33133984804505
 20
58.44968679700772
 30
0.0
 11
33.33133984804505
 21
48.80598632875812
 31
0.0
  0
LINE
  5
72B
330
1F
100
AcDbEntity
  8
0
  6
Continuous
 62
     7
100
AcDbLine
 10
37.40830762195519
 20
59.40737726648902
 30
0.0
 11
37.40830762195519
 21
48.80598632875812
 31
0.0
  0
LINE
  5
72C
330
1F
100
AcDbEntity
  8
0
  6
Continuous
 62
     7
100
AcDbLine
 10
37.7066995670592
 20
58.44968679700772
 30
0.0
 11
37.7066995670592
 21
48.80598632875812
 31
0.0
  0
LINE
  5
72D
330
1F
100
AcDbEntity
  8
0
  6
Continuous
 62
     7
100
AcDbLine
 10
36.2675228653341
 20
59.40737726648902
 30
0.0
 11
36.2675228653341
 21
48.80598632875812
 31
0.0
  0
LINE
  5
72E
330
1F
100
AcDbEntity
  8
0
  6
Continuous
 62
     7
100
AcDbLine
 10
35.96913399741916
 20
58.44968679700772
 30
0.0
 11
35.96913399741916
 21
48.80598632875812
 31
0.0
  0
LINE
  5
72F
330
1F
100
AcDbEntity
  8
0
  6
Continuous
 62
     7
100
AcDbLine
 10
40.04611408008552
 20
59.40737726648902
 30
0.0
 11
40.04611408008552
 21
48.80598632875812
 31
0.0
  0
LINE
  5
730
330
1F
100
AcDbEntity
  8
0
  6
Continuous
 62
     7
100
AcDbLine
 10
40.34449987081139
 20
58.44968679700772
 30
0.0
 11
40.34449987081139
 21
48.80598632875812
 31
0.0
  0
LINE
  5
731
330
1F
100
AcDbEntity
  8
0
  6
Continuous
 62
     7
100
AcDbLine
 10
38.9053170147082
 20
59.40737726648902
 30
0.0
 11
38.9053170147082
 21
48.80598632875812
 31
0.0
  0
LINE
  5
732
330
1F
100
AcDbEntity
  8
0
  6
Continuous
 62
     7
100
AcDbLine
 10
38.60693430117135
 20
58.44968679700772
 30
0.0
 11
38.60693430117135
 21
48.80598632875812
 31
0.0
  0
LINE
  5
733
330
1F
100
AcDbEntity
  8
0
  6
Continuous
 62
     7
100
AcDbLine
 10
41.54312039564946
 20
38.20461385416153
 30
0.0
 11
41.54312039564946
 21
48.80600479189244
 31
0.0
  0
LINE
  5
734
330
1F
100
AcDbEntity
  8
0
  6
Continuous
 62
     7
100
AcDbLine
 10
54.68542249336983
 20
41.44307646027213
 30
0.0
 11
54.68542249336983
 21
48.8060032532979
 31
0.0
  0
LINE
  5
735
330
1F
100
AcDbEntity
  8
0
  6
DASHED
 62
     7
100
AcDbLine
 10
31.95035894565588
 20
38.36370222021578
 30
0.0
 11
31.56231925192379
 21
38.36370222021578
 31
0.0
  0
LINE
  5
736
330
1F
100
AcDbEntity
  8
0
  6
DASHED
 62
     7
100
AcDbLine
 10
32.14820710907207
 20
39.05371042032737
 30
0.0
 11
31.95035063659976
 21
38.36370298606303
 31
0.0
  0
LINE
  5
737
330
1F
100
AcDbEntity
  8
0
  6
Continuous
 62
     7
100
AcDbLine
 10
65.81742198611445
 20
40.91679674095614
 30
0.0
 11
66.05942194163946
 21
40.91679674095614
 31
0.0
  0
LINE
  5
738
330
1F
100
AcDbEntity
  8
0
  6
DASHED
 62
     7
100
AcDbLine
 10
32.88121478801632
 20
39.40430293289758
 30
0.0
 11
32.61346241429494
 21
39.40430293289758
 31
0.0
  0
LINE
  5
739
330
1F
100
AcDbEntity
  8
0
  6
Continuous
 62
     7
100
AcDbLine
 10
53.77822715762392
 20
42.23629348285956
 30
0.0
 11
53.77822715762392
 21
48.8060032532979
 31
0.0
  0
LINE
  5
73A
330
1F
100
AcDbEntity
  8
0
  6
DASHED
 62
     7
100
AcDbLine
 10
30.00141510571206
 20
39.40430293289758
 30
0.0
 11
30.51117608955265
 21
39.40430293289758
 31
0.0
  0
LINE
  5
73B
330
1F
100
AcDbEntity
  8
0
  6
DASHED
 62
     7
100
AcDbLine
 10
64.223660215926
 20
41.89689566348801
 30
0.0
 11
64.41185643843096
 21
41.70869945684681
 31
0.0
  0
LINE
  5
73C
330
1F
100
AcDbEntity
  8
0
  6
Continuous
 62
     7
100
AcDbLine
 10
30.74380542853072
 20
38.98700969563503
 30
0.0
 11
30.94166211305012
 21
38.29700152187469
 31
0.0
  0
LINE
  5
73D
330
1F
100
AcDbEntity
  8
0
  6
Continuous
 62
     7
100
AcDbLine
 10
31.17428571256983
 20
38.12169976447468
 30
0.0
 11
31.56231925192379
 21
38.12169976447468
 31
0.0
  0
LINE
  5
73E
330
1F
100
AcDbEntity
  8
0
  6
Continuous
 62
     7
100
AcDbLine
 10
30.24341756145315
 20
39.16230355434553
 30
0.0
 11
30.51117608955265
 21
39.16230355434553
 31
0.0
  0
LINE
  5
73F
330
1F
100
AcDbEntity
  8
0
  6
Continuous
 62
     7
100
AcDbLine
 10
64.12342114755135
 20
41.65490219031908
 30
0.0
 11
64.24073976390243
 21
41.53758358385721
 31
0.0
  0
LINE
  5
740
330
1F
100
AcDbEntity
  8
0
  6
Continuous
 62
     7
100
AcDbLine
 10
65.06609851752394
 20
41.18355475225654
 30
0.0
 11
65.81742237956484
 21
41.16477165122588
 31
0.0
  0
LINE
  5
741
330
1F
100
AcDbEntity
  8
0
  6
Continuous
 62
     7
100
AcDbLine
 10
64.00242203119046
 20
41.65490053833964
 30
0.0
 11
64.12342172046649
 21
41.65490053833964
 31
0.0
  0
LINE
  5
742
330
1F
100
AcDbEntity
  8
0
  6
DASHED
 62
     7
100
AcDbLine
 10
63.76042380658432
 20
41.89689991689171
 30
0.0
 11
64.22366384634916
 21
41.89689991689171
 31
0.0
  0
LINE
  5
743
330
1F
100
AcDbEntity
  8
0
  6
DASHED
 62
     7
100
AcDbLine
 10
41.72547615741702
 20
38.36370222021578
 30
0.0
 11
43.97722701157763
 21
38.36370222021578
 31
0.0
  0
LINE
  5
744
330
1F
100
AcDbEntity
  8
0
  6
DASHED
 62
     7
100
AcDbLine
 10
41.52761723450922
 20
39.05370874379147
 30
0.0
 11
41.72547413770216
 21
38.3636998074259
 31
0.0
  0
LINE
  5
745
330
1F
100
AcDbEntity
  8
0
  6
DASHED
 62
     7
100
AcDbLine
 10
65.0721486757289
 20
41.42548022130625
 30
0.0
 11
66.05942238850052
 21
41.40079837260048
 31
0.0
  0
LINE
  5
746
330
1F
100
AcDbEntity
  8
0
  6
Continuous
 62
     7
100
AcDbLine
 10
32.38082973012579
 20
38.98701015003599
 30
0.0
 11
32.18297283355932
 21
38.29700123677969
 31
0.0
  0
LINE
  5
747
330
1F
100
AcDbEntity
  8
0
  6
Continuous
 62
     7
100
AcDbLine
 10
32.88121478801632
 20
39.16230355434553
 30
0.0
 11
32.61346241429494
 21
39.16230355434553
 31
0.0
  0
LINE
  5
748
330
1F
100
AcDbEntity
  8
0
  6
Continuous
 62
     7
100
AcDbLine
 10
41.24473768211261
 20
39.16230432364282
 30
0.0
 11
41.24473768211261
 21
48.80600479189244
 31
0.0
  0
LINE
  5
749
330
1F
100
AcDbEntity
  8
0
  6
DASHED
 62
     7
100
AcDbLine
 10
40.79461877646203
 20
39.40430293289758
 30
0.0
 11
40.52686024836253
 21
39.40430293289758
 31
0.0
  0
LINE
  5
74A
330
1F
100
AcDbEntity
  8
0
  6
DASHED
 62
     7
100
AcDbLine
 10
30.97642275908253
 20
39.05371725219384
 30
0.0
 11
31.17427944360192
 21
38.36370907843349
 31
0.0
  0
LINE
  5
74B
330
1F
100
AcDbEntity
  8
0
  6
DASHED
 62
     7
100
AcDbLine
 10
63.76042380658432
 20
41.4582770048877
 30
0.0
 11
63.76042380658432
 21
41.89690030154035
 31
0.0
  0
LINE
  5
74C
330
1F
100
AcDbEntity
  8
0
  6
Continuous
 62
     7
100
AcDbLine
 10
31.95035894565588
 20
38.12169976447468
 30
0.0
 11
31.56231925192379
 21
38.12169976447468
 31
0.0
  0
LINE
  5
74D
330
1F
100
AcDbEntity
  8
0
  6
DASHED
 62
     7
100
AcDbLine
 10
31.17428571256983
 20
38.36370222021578
 30
0.0
 11
31.56231925192379
 21
38.36370222021578
 31
0.0
  0
LINE
  5
74E
330
1F
100
AcDbEntity
  8
0
  6
Continuous
 62
     7
100
AcDbLine
 10
64.00242164654184
 20
41.4582770048877
 30
0.0
 11
64.00242164654184
 21
41.65490015369104
 31
0.0
  0
LINE
  5
74F
330
1F
100
AcDbEntity
  8
0
  6
Continuous
 62
     7
100
AcDbLine
 10
30.00141510571206
 20
38.92030417579347
 30
0.0
 11
30.24341756145315
 21
38.92030417579347
 31
0.0
  0
LINE
  5
750
330
1F
100
AcDbEntity
  8
0
  6
Continuous
 62
     7
100
AcDbLine
 10
65.81742160146584
 20
40.9167975102534
 30
0.0
 11
65.81742160146584
 21
41.1647758671319
 31
0.0
  0
LINE
  5
751
330
1F
100
AcDbEntity
  8
0
  6
DASHED
 62
     7
100
AcDbLine
 10
39.86375677972347
 20
38.36370222021578
 30
0.0
 11
39.47571708599139
 21
38.36370222021578
 31
0.0
  0
LINE
  5
752
330
1F
100
AcDbEntity
  8
0
  6
Continuous
 62
     7
100
AcDbLine
 10
54.58401996036396
 20
41.4456067786831
 30
0.0
 11
63.75437572320834
 21
41.21634782993534
 31
0.0
  0
LINE
  5
753
330
1F
100
AcDbEntity
  8
0
  6
DASHED
 62
     7
100
AcDbLine
 10
54.68542193538049
 20
41.68514845174399
 30
0.0
 11
63.76042386263879
 21
41.45827334945443
 31
0.0
  0
LINE
  5
754
330
1F
100
AcDbEntity
  8
0
  6
Continuous
 62
     7
100
AcDbLine
 10
66.05942098001787
 20
40.9167975102534
 30
0.0
 11
66.05942098001787
 21
48.8060032532979
 31
0.0
  0
LINE
  5
755
330
1F
100
AcDbEntity
  8
0
  6
DASHED
 62
     7
100
AcDbLine
 10
40.061614423781
 20
39.05370233687643
 30
0.0
 11
39.86375773926161
 21
38.3636941631161
 31
0.0
  0
LINE
  5
756
330
1F
100
AcDbEntity
  8
0
  6
Continuous
 62
     7
100
AcDbLine
 10
40.29423049806324
 20
38.98700714503988
 30
0.0
 11
40.09637381354388
 21
38.29699897127954
 31
0.0
  0
LINE
  5
757
330
1F
100
AcDbEntity
  8
0
  6
Continuous
 62
     7
100
AcDbLine
 10
40.79461877646203
 20
39.16230355434553
 30
0.0
 11
40.52686024836253
 21
39.16230355434553
 31
0.0
  0
LINE
  5
758
330
1F
100
AcDbEntity
  8
0
  6
DASHED
 62
     7
100
AcDbLine
 10
38.15682154989886
 20
39.40430293289758
 30
0.0
 11
38.42457392362025
 21
39.40430293289758
 31
0.0
  0
LINE
  5
759
330
1F
100
AcDbEntity
  8
0
  6
Continuous
 62
     7
100
AcDbLine
 10
41.29499458694961
 20
38.98700856593708
 30
0.0
 11
41.49285126484254
 21
38.29700041528598
 31
0.0
  0
LINE
  5
75A
330
1F
100
AcDbEntity
  8
0
  6
Continuous
 62
     7
100
AcDbLine
 10
30.24341756145318
 20
38.92030225255034
 30
0.0
 11
30.24341756145318
 21
48.8060032532979
 31
0.0
  0
LINE
  5
75B
330
1F
100
AcDbEntity
  8
0
  6
Continuous
 62
     7
100
AcDbLine
 10
41.72547615741702
 20
38.12169976447468
 30
0.0
 11
44.2192270151837
 21
38.12169976447468
 31
0.0
  0
LINE
  5
75C
330
1F
100
AcDbEntity
  8
0
  6
DASHED
 62
     7
100
AcDbLine
 10
38.8898181465075
 20
39.05371111150725
 30
0.0
 11
39.08767483102689
 21
38.3637029377469
 31
0.0
  0
LINE
  5
75D
330
1F
100
AcDbEntity
  8
0
  6
Continuous
 62
     7
100
AcDbLine
 10
54.00852774987757
 20
42.01030808458845
 30
0.0
 11
54.58401963724679
 21
41.44560697557412
 31
0.0
  0
LINE
  5
75E
330
1F
100
AcDbEntity
  8
0
  6
DASHED
 62
     7
100
AcDbLine
 10
54.17802012958263
 20
42.18303487204415
 30
0.0
 11
54.68542375339421
 21
41.68514533550498
 31
0.0
  0
LINE
  5
75F
330
1F
100
AcDbEntity
  8
0
  6
Continuous
 62
     7
100
AcDbLine
 10
30.00141202852301
 20
38.92030225255034
 30
0.0
 11
30.00141202852301
 21
48.8060032532979
 31
0.0
  0
LINE
  5
760
330
1F
100
AcDbEntity
  8
0
  6
DASHED
 62
     7
100
AcDbLine
 10
40.79461262208393
 20
39.40430293289758
 30
0.0
 11
41.06237115018343
 21
39.40430293289758
 31
0.0
  0
LINE
  5
761
330
1F
100
AcDbEntity
  8
0
  6
Continuous
 62
     7
100
AcDbLine
 10
38.15682154989886
 20
39.16230355434553
 30
0.0
 11
38.42457392362025
 21
39.16230355434553
 31
0.0
  0
LINE
  5
762
330
1F
100
AcDbEntity
  8
0
  6
DASHED
 62
     7
100
AcDbLine
 10
39.08768354663742
 20
38.36370222021578
 30
0.0
 11
39.47571708599139
 21
38.36370222021578
 31
0.0
  0
LINE
  5
763
330
1F
100
AcDbEntity
  8
0
  6
Continuous
 62
     7
100
AcDbLine
 10
39.86375677972347
 20
38.12169976447468
 30
0.0
 11
39.47571708599139
 21
38.12169976447468
 31
0.0
  0
LINE
  5
764
330
1F
100
AcDbEntity
  8
中心線
  6
CENTER
100
AcDbLine
 10
93.67649111526684
 20
63.11072351596642
 30
0.0
 11
93.67649111526684
 21
33.962240245075
 31
0.0
  0
LINE
  5
765
330
1F
100
AcDbEntity
  8
中心線
  6
CENTER
100
AcDbLine
 10
78.88896989133238
 20
48.80599556032525
 30
0.0
 11
109.7437044867818
 21
48.80599556032525
 31
0.0
  0
LINE
  5
766
330
1F
100
AcDbEntity
  8
0
  6
Continuous
 62
     7
100
AcDbLine
 10
38.65720588373522
 20
38.98700820930905
 30
0.0
 11
38.85506259476048
 21
38.29699994311172
 31
0.0
  0
LINE
  5
767
330
1F
100
AcDbEntity
  8
0
  6
Continuous
 62
     7
100
AcDbLine
 10
40.79461262208393
 20
39.16230355434553
 30
0.0
 11
41.06237115018343
 21
39.16230355434553
 31
0.0
  0
LINE
  5
768
330
1F
100
AcDbEntity
  8
中心線
  6
CENTER
100
AcDbLine
 10
27.18685798567095
 20
48.80599556032525
 30
0.0
 11
68.71447815996913
 21
48.80599556032525
 31
0.0
  0
LINE
  5
769
330
1F
100
AcDbEntity
  8
0
  6
Continuous
 62
     7
100
AcDbLine
 10
91.86149147053273
 20
55.98532560698838
 30
0.0
 11
92.14259616423271
 21
55.70422093698375
 31
0.0
  0
LINE
  5
76A
330
1F
100
AcDbEntity
  8
0
  6
Continuous
 62
     7
100
AcDbLine
 10
95.49149119725914
 20
55.98532536667423
 30
0.0
 11
95.21038759150981
 21
55.70422178462018
 31
0.0
  0
LINE
  5
76B
330
1F
100
AcDbEntity
  8
0
  6
Continuous
 62
     7
100
AcDbLine
 10
91.86149220629735
 20
41.62666526227646
 30
0.0
 11
92.14259635602202
 21
41.9077693883058
 31
0.0
  0
LINE
  5
76C
330
1F
100
AcDbEntity
  8
0
  6
Continuous
 62
     7
100
AcDbLine
 10
95.49149154944513
 20
41.62666659054129
 30
0.0
 11
95.21038903164642
 21
41.90776908464477
 31
0.0
  0
LINE
  5
76D
330
1F
100
AcDbEntity
  8
0
  6
Continuous
 62
     7
100
AcDbLine
 10
44.2192270151837
 20
59.49029135617582
 30
0.0
 11
44.2192270151837
 21
48.80598786735264
 31
0.0
  0
LINE
  5
76E
330
1F
100
AcDbEntity
  8
0
  6
DASHED
 62
     7
100
AcDbLine
 10
45.83913375161221
 20
58.88673272781074
 30
0.0
 11
51.67698097516922
 21
55.88865543363642
 31
0.0
  0
LINE
  5
76F
330
1F
100
AcDbEntity
  8
0
  6
DASHED
 62
     7
100
AcDbLine
 10
43.97722701157763
 20
59.12729135076666
 30
0.0
 11
44.84414383903406
 21
59.12729135076666
 31
0.0
  0
LINE
  5
770
330
1F
100
AcDbEntity
  8
0
  6
Continuous
 62
     7
100
AcDbLine
 10
53.44585193086359
 20
55.70299566309855
 30
0.0
 11
53.47021925132306
 21
55.70299566309855
 31
0.0
  0
LINE
  5
771
330
1F
100
AcDbEntity
  8
0
  6
Continuous
 62
     7
100
AcDbLine
 10
45.94968818634311
 20
59.10200399553287
 30
0.0
 11
51.78753540990013
 21
56.10392670135855
 31
0.0
  0
LINE
  5
772
330
1F
100
AcDbEntity
  8
0
  6
Continuous
 62
     7
100
AcDbLine
 10
44.2192270151837
 20
59.36929135437274
 30
0.0
 11
44.84414383903406
 21
59.36929135437274
 31
0.0
  0
LINE
  5
773
330
1F
100
AcDbEntity
  8
0
  6
DASHED
 62
     7
100
AcDbLine
 10
43.97722701157763
 20
59.24828890043471
 30
0.0
 11
43.97722701157763
 21
59.1272913507667
 31
0.0
  0
LINE
  5
774
330
1F
100
AcDbEntity
  8
0
  6
Continuous
 62
     7
100
AcDbLine
 10
39.08768354663742
 20
38.12169976447468
 30
0.0
 11
39.47571708599139
 21
38.12169976447468
 31
0.0
  0
LINE
  5
775
330
1F
100
AcDbEntity
  8
0
  6
Continuous
 62
     7
100
AcDbLine
 10
44.2192270151837
 20
38.12169976447471
 30
0.0
 11
44.2192270151837
 21
48.8060032532979
 31
0.0
  0
LINE
  5
776
330
1F
100
AcDbEntity
  8
0
  6
DASHED
 62
     7
100
AcDbLine
 10
45.83913375161216
 20
38.72525839283978
 30
0.0
 11
51.67698097516917
 21
41.7233356870141
 31
0.0
  0
LINE
  5
777
330
1F
100
AcDbEntity
  8
0
  6
DASHED
 62
     7
100
AcDbLine
 10
43.97722701157763
 20
38.4846997698838
 30
0.0
 11
44.84414383903406
 21
38.4846997698838
 31
0.0
  0
LINE
  5
778
330
1F
100
AcDbEntity
  8
0
  6
Continuous
 62
     7
100
AcDbLine
 10
53.44585193086359
 20
41.90899545755192
 30
0.0
 11
53.47021925132306
 21
41.90899545755192
 31
0.0
  0
LINE
  5
779
330
1F
100
AcDbEntity
  8
0
  6
Continuous
 62
     7
100
AcDbLine
 10
45.94968818634308
 20
38.50998712511767
 30
0.0
 11
51.78753540990007
 21
41.50806441929201
 31
0.0
  0
LINE
  5
77A
330
1F
100
AcDbEntity
  8
0
  6
Continuous
 62
     7
100
AcDbLine
 10
44.2192270151837
 20
38.24269976627772
 30
0.0
 11
44.84414383903406
 21
38.24269976627772
 31
0.0
  0
LINE
  5
77B
330
1F
100
AcDbEntity
  8
0
  6
DASHED
 62
     7
100
AcDbLine
 10
43.97722701157763
 20
38.3637022202158
 30
0.0
 11
43.97722701157763
 21
38.48469976988383
 31
0.0
  0
ARC
  5
77C
330
1F
100
AcDbEntity
  8
0
  6
Continuous
 62
     7
100
AcDbCircle
 10
44.84414383903406
 20
56.94929131831194
 30
0.0
 40
2.42000003606081
100
AcDbArc
 50
62.81683971291911
 51
90.0
  0
ARC
  5
77D
330
1F
100
AcDbEntity
  8
0
  6
Continuous
 62
     7
100
AcDbCircle
 10
63.76042380658432
 20
56.15371065392513
 30
0.0
 40
0.242000003606081
100
AcDbArc
 50
0.0
 51
91.43208826775468
  0
ARC
  5
77E
330
1F
100
AcDbEntity
  8
0
  6
Continuous
 62
     7
100
AcDbCircle
 10
53.83903549046428
 20
55.77441325428747
 30
0.0
 40
0.242000003606081
100
AcDbArc
 50
220.3576627093152
 51
314.4577944257833
  0
ARC
  5
77F
330
1F
100
AcDbEntity
  8
0
  6
DASHED
 62
     7
100
AcDbCircle
 10
65.09633927531891
 20
55.21880830796234
 30
0.0
 40
0.9680000144243241
100
AcDbArc
 50
91.43208826775468
 51
135.0000413227578
  0
ARC
  5
780
330
1F
100
AcDbEntity
  8
0
  6
Continuous
 62
     7
100
AcDbCircle
 10
39.86375370253443
 20
59.2482889004347
 30
0.0
 40
0.242000003606081
100
AcDbArc
 50
15.99984107415992
 51
89.99998201391056
  0
ARC
  5
781
330
1F
100
AcDbEntity
  8
0
  6
Continuous
 62
     7
100
AcDbCircle
 10
65.09633927531891
 20
55.21880830796234
 30
0.0
 40
1.209999969949326
100
AcDbArc
 50
91.43208826775468
 51
135.0000413227578
  0
ARC
  5
782
330
1F
100
AcDbEntity
  8
0
  6
DASHED
 62
     7
100
AcDbCircle
 10
41.06237115018343
 20
58.69168694485701
 30
0.0
 40
0.4840000072121621
100
AcDbArc
 50
270.0000179860895
 51
343.9999198692192
  0
ARC
  5
783
330
1F
100
AcDbEntity
  8
0
  6
Continuous
 62
     7
100
AcDbCircle
 10
41.06237115018343
 20
58.69168694485701
 30
0.0
 40
0.242000003606081
100
AcDbArc
 50
270.0000179860895
 51
343.9999198692192
  0
ARC
  5
784
330
1F
100
AcDbEntity
  8
0
  6
Continuous
 62
     7
100
AcDbCircle
 10
41.72547769601155
 20
59.2482889004347
 30
0.0
 40
0.242000003606081
100
AcDbArc
 50
89.99998201391056
 51
164.0001229536614
  0
ARC
  5
785
330
1F
100
AcDbEntity
  8
0
  6
DASHED
 62
     7
100
AcDbCircle
 10
53.83903549046428
 20
55.77441325428747
 30
0.0
 40
0.4840000072121621
100
AcDbArc
 50
238.6493559146386
 51
314.4577944257833
  0
ARC
  5
786
330
1F
100
AcDbEntity
  8
0
  6
Continuous
 62
     7
100
AcDbCircle
 10
39.08767739225933
 20
59.2482889004347
 30
0.0
 40
0.242000003606081
100
AcDbArc
 50
89.99998201391056
 51
164.0001229536614
  0
ARC
  5
787
330
1F
100
AcDbEntity
  8
0
  6
Continuous
 62
     7
100
AcDbCircle
 10
38.42457084643122
 20
58.69168694485701
 30
0.0
 40
0.242000003606081
100
AcDbArc
 50
270.0000179860895
 51
343.9999198692192
  0
ARC
  5
788
330
1F
100
AcDbEntity
  8
0
  6
DASHED
 62
     7
100
AcDbCircle
 10
38.42457084643122
 20
58.69168694485701
 30
0.0
 40
0.4840000072121621
100
AcDbArc
 50
270.0000179860895
 51
343.9999198692192
  0
ARC
  5
789
330
1F
100
AcDbEntity
  8
0
  6
DASHED
 62
     7
100
AcDbCircle
 10
37.88905994461032
 20
38.92030417579347
 30
0.0
 40
0.4840000072121621
100
AcDbArc
 50
90.0000434856131
 51
163.9999453687432
  0
ARC
  5
78A
330
1F
100
AcDbEntity
  8
0
  6
Continuous
 62
     7
100
AcDbCircle
 10
37.88905994461032
 20
38.92030417579347
 30
0.0
 40
0.242000003606081
100
AcDbArc
 50
90.0000434856131
 51
163.9999453687432
  0
ARC
  5
78B
330
1F
100
AcDbEntity
  8
0
  6
DASHED
 62
     7
100
AcDbCircle
 10
40.52686024836253
 20
58.69168694485701
 30
0.0
 40
0.4840000072121621
100
AcDbArc
 50
196.0000546312568
 51
269.9999565143869
  0
ARC
  5
78C
330
1F
100
AcDbEntity
  8
0
  6
Continuous
 62
     7
100
AcDbCircle
 10
37.22595647597124
 20
38.36370222021578
 30
0.0
 40
0.242000003606081
100
AcDbArc
 50
270.0000179860895
 51
344.0001589258403
  0
ARC
  5
78D
330
1F
100
AcDbEntity
  8
0
  6
DASHED
 62
     7
100
AcDbCircle
 10
35.78677361986804
 20
38.92030417579347
 30
0.0
 40
0.4840000072121621
100
AcDbArc
 50
16.00008013078088
 51
89.99998201391056
  0
ARC
  5
78E
330
1F
100
AcDbEntity
  8
0
  6
Continuous
 62
     7
100
AcDbCircle
 10
35.78677361986804
 20
38.92030417579347
 30
0.0
 40
0.242000003606081
100
AcDbArc
 50
16.00008013078088
 51
89.99998201391056
  0
ARC
  5
78F
330
1F
100
AcDbEntity
  8
0
  6
Continuous
 62
     7
100
AcDbCircle
 10
36.44987708850708
 20
38.36370222021578
 30
0.0
 40
0.242000003606081
100
AcDbArc
 50
195.9998770463386
 51
270.0000179860895
  0
ARC
  5
790
330
1F
100
AcDbEntity
  8
0
  6
Continuous
 62
     7
100
AcDbCircle
 10
40.52686024836253
 20
58.69168694485701
 30
0.0
 40
0.242000003606081
100
AcDbArc
 50
196.0000546312568
 51
269.9999565143869
  0
ARC
  5
791
330
1F
100
AcDbEntity
  8
0
  6
DASHED
 62
     7
100
AcDbCircle
 10
35.25125656366906
 20
38.92030417579347
 30
0.0
 40
0.4840000072121621
100
AcDbArc
 50
90.0000434856131
 51
163.9999453687432
  0
ARC
  5
792
330
1F
100
AcDbEntity
  8
0
  6
Continuous
 62
     7
100
AcDbCircle
 10
35.25125656366906
 20
38.92030417579347
 30
0.0
 40
0.242000003606081
100
AcDbArc
 50
90.0000434856131
 51
163.9999453687432
  0
ARC
  5
793
330
1F
100
AcDbEntity
  8
0
  6
Continuous
 62
     7
100
AcDbCircle
 10
34.58815309502999
 20
38.36370222021578
 30
0.0
 40
0.242000003606081
100
AcDbArc
 50
270.0000179860895
 51
344.0001589258403
  0
ARC
  5
794
330
1F
100
AcDbEntity
  8
0
  6
DASHED
 62
     7
100
AcDbCircle
 10
33.14897023892676
 20
38.92030417579347
 30
0.0
 40
0.4840000072121621
100
AcDbArc
 50
16.00008013078088
 51
89.99998201391056
  0
ARC
  5
795
330
1F
100
AcDbEntity
  8
0
  6
Continuous
 62
     7
100
AcDbCircle
 10
33.14897023892676
 20
38.92030417579347
 30
0.0
 40
0.242000003606081
100
AcDbArc
 50
16.00008013078088
 51
89.99998201391056
  0
ARC
  5
796
330
1F
100
AcDbEntity
  8
0
  6
Continuous
 62
     7
100
AcDbCircle
 10
33.812082939133
 20
38.36370222021578
 30
0.0
 40
0.242000003606081
100
AcDbArc
 50
195.9998770463386
 51
270.0000179860895
  0
ARC
  5
797
330
1F
100
AcDbEntity
  8
0
  6
Continuous
 62
     7
100
AcDbCircle
 10
31.17428263538079
 20
59.2482889004347
 30
0.0
 40
0.242000003606081
100
AcDbArc
 50
89.99998201391056
 51
164.0001229536614
  0
ARC
  5
798
330
1F
100
AcDbEntity
  8
0
  6
Continuous
 62
     7
100
AcDbCircle
 10
30.5111730123636
 20
58.69168694485701
 30
0.0
 40
0.242000003606081
100
AcDbArc
 50
270.0000179860895
 51
343.9999198692192
  0
ARC
  5
799
330
1F
100
AcDbEntity
  8
0
  6
DASHED
 62
     7
100
AcDbCircle
 10
30.5111730123636
 20
58.69168694485701
 30
0.0
 40
0.4840000072121621
100
AcDbArc
 50
270.0000179860895
 51
343.9999198692192
  0
ARC
  5
79A
330
1F
100
AcDbEntity
  8
0
  6
Continuous
 62
     7
100
AcDbCircle
 10
31.95035586846683
 20
59.2482889004347
 30
0.0
 40
0.242000003606081
100
AcDbArc
 50
15.99984107415992
 51
89.99998201391056
  0
ARC
  5
79B
330
1F
100
AcDbEntity
  8
0
  6
Continuous
 62
     7
100
AcDbCircle
 10
32.61345933710588
 20
58.69168694485701
 30
0.0
 40
0.242000003606081
100
AcDbArc
 50
196.0000546312568
 51
269.9999565143869
  0
ARC
  5
79C
330
1F
100
AcDbEntity
  8
0
  6
DASHED
 62
     7
100
AcDbCircle
 10
32.61345933710588
 20
58.69168694485701
 30
0.0
 40
0.4840000072121621
100
AcDbArc
 50
196.0000546312568
 51
269.9999565143869
  0
ARC
  5
79D
330
1F
100
AcDbEntity
  8
0
  6
Continuous
 62
     7
100
AcDbCircle
 10
33.812082939133
 20
59.2482889004347
 30
0.0
 40
0.242000003606081
100
AcDbArc
 50
89.99998201391056
 51
164.0001229536614
  0
ARC
  5
79E
330
1F
100
AcDbEntity
  8
0
  6
Continuous
 62
     7
100
AcDbCircle
 10
33.14897023892676
 20
58.69168694485701
 30
0.0
 40
0.242000003606081
100
AcDbArc
 50
270.0000179860895
 51
343.9999198692192
  0
ARC
  5
79F
330
1F
100
AcDbEntity
  8
0
  6
DASHED
 62
     7
100
AcDbCircle
 10
33.14897023892676
 20
58.69168694485701
 30
0.0
 40
0.4840000072121621
100
AcDbArc
 50
270.0000179860895
 51
343.9999198692192
  0
ARC
  5
7A0
330
1F
100
AcDbEntity
  8
0
  6
Continuous
 62
     7
100
AcDbCircle
 10
34.58815309502999
 20
59.2482889004347
 30
0.0
 40
0.242000003606081
100
AcDbArc
 50
15.99984107415992
 51
89.99998201391056
  0
ARC
  5
7A1
330
1F
100
AcDbEntity
  8
0
  6
Continuous
 62
     7
100
AcDbCircle
 10
35.25125656366906
 20
58.69168694485701
 30
0.0
 40
0.242000003606081
100
AcDbArc
 50
196.0000546312568
 51
269.9999565143869
  0
ARC
  5
7A2
330
1F
100
AcDbEntity
  8
0
  6
DASHED
 62
     7
100
AcDbCircle
 10
35.25125656366906
 20
58.69168694485701
 30
0.0
 40
0.4840000072121621
100
AcDbArc
 50
196.0000546312568
 51
269.9999565143869
  0
ARC
  5
7A3
330
1F
100
AcDbEntity
  8
0
  6
Continuous
 62
     7
100
AcDbCircle
 10
36.44987708850708
 20
59.2482889004347
 30
0.0
 40
0.242000003606081
100
AcDbArc
 50
89.99998201391056
 51
164.0001229536614
  0
ARC
  5
7A4
330
1F
100
AcDbEntity
  8
0
  6
Continuous
 62
     7
100
AcDbCircle
 10
35.78677361986804
 20
58.69168694485701
 30
0.0
 40
0.242000003606081
100
AcDbArc
 50
270.0000179860895
 51
343.9999198692192
  0
ARC
  5
7A5
330
1F
100
AcDbEntity
  8
0
  6
DASHED
 62
     7
100
AcDbCircle
 10
35.78677361986804
 20
58.69168694485701
 30
0.0
 40
0.4840000072121621
100
AcDbArc
 50
270.0000179860895
 51
343.9999198692192
  0
ARC
  5
7A6
330
1F
100
AcDbEntity
  8
0
  6
Continuous
 62
     7
100
AcDbCircle
 10
37.22595647597124
 20
59.2482889004347
 30
0.0
 40
0.242000003606081
100
AcDbArc
 50
15.99984107415992
 51
89.99998201391056
  0
ARC
  5
7A7
330
1F
100
AcDbEntity
  8
0
  6
Continuous
 62
     7
100
AcDbCircle
 10
37.88905994461032
 20
58.69168694485701
 30
0.0
 40
0.242000003606081
100
AcDbArc
 50
196.0000546312568
 51
269.9999565143869
  0
ARC
  5
7A8
330
1F
100
AcDbEntity
  8
0
  6
DASHED
 62
     7
100
AcDbCircle
 10
37.88905994461032
 20
58.69168694485701
 30
0.0
 40
0.4840000072121621
100
AcDbArc
 50
196.0000546312568
 51
269.9999565143869
  0
ARC
  5
7A9
330
1F
100
AcDbEntity
  8
0
  6
DASHED
 62
     7
100
AcDbCircle
 10
32.61345933710588
 20
38.92030417579347
 30
0.0
 40
0.4840000072121621
100
AcDbArc
 50
90.0000434856131
 51
163.9999453687432
  0
ARC
  5
7AA
330
1F
100
AcDbEntity
  8
0
  6
Continuous
 62
     7
100
AcDbCircle
 10
32.61345933710588
 20
38.92030417579347
 30
0.0
 40
0.242000003606081
100
AcDbArc
 50
90.0000434856131
 51
163.9999453687432
  0
ARC
  5
7AB
330
1F
100
AcDbEntity
  8
0
  6
Continuous
 62
     7
100
AcDbCircle
 10
31.95035586846683
 20
38.36370222021578
 30
0.0
 40
0.242000003606081
100
AcDbArc
 50
270.0000179860895
 51
344.0001589258403
  0
ARC
  5
7AC
330
1F
100
AcDbEntity
  8
0
  6
DASHED
 62
     7
100
AcDbCircle
 10
30.5111730123636
 20
38.92030417579347
 30
0.0
 40
0.4840000072121621
100
AcDbArc
 50
16.00008013078088
 51
89.99998201391056
  0
ARC
  5
7AD
330
1F
100
AcDbEntity
  8
0
  6
Continuous
 62
     7
100
AcDbCircle
 10
30.5111730123636
 20
38.92030417579347
 30
0.0
 40
0.242000003606081
100
AcDbArc
 50
16.00008013078088
 51
89.99998201391056
  0
ARC
  5
7AE
330
1F
100
AcDbEntity
  8
0
  6
Continuous
 62
     7
100
AcDbCircle
 10
31.17428263538079
 20
38.36370222021578
 30
0.0
 40
0.242000003606081
100
AcDbArc
 50
195.9998770463386
 51
270.0000179860895
  0
ARC
  5
7AF
330
1F
100
AcDbEntity
  8
0
  6
Continuous
 62
     7
100
AcDbCircle
 10
40.52686024836253
 20
38.92030417579347
 30
0.0
 40
0.242000003606081
100
AcDbArc
 50
90.0000434856131
 51
163.9999453687432
  0
ARC
  5
7B0
330
1F
100
AcDbEntity
  8
0
  6
DASHED
 62
     7
100
AcDbCircle
 10
40.52686024836253
 20
38.92030417579347
 30
0.0
 40
0.4840000072121621
100
AcDbArc
 50
90.0000434856131
 51
163.9999453687432
  0
ARC
  5
7B1
330
1F
100
AcDbEntity
  8
0
  6
DASHED
 62
     7
100
AcDbCircle
 10
38.42457084643122
 20
38.92030417579347
 30
0.0
 40
0.4840000072121621
100
AcDbArc
 50
16.00008013078088
 51
89.99998201391056
  0
ARC
  5
7B2
330
1F
100
AcDbEntity
  8
0
  6
Continuous
 62
     7
100
AcDbCircle
 10
38.42457084643122
 20
38.92030417579347
 30
0.0
 40
0.242000003606081
100
AcDbArc
 50
16.00008013078088
 51
89.99998201391056
  0
ARC
  5
7B3
330
1F
100
AcDbEntity
  8
0
  6
Continuous
 62
     7
100
AcDbCircle
 10
39.08767739225933
 20
38.36370222021578
 30
0.0
 40
0.242000003606081
100
AcDbArc
 50
195.9998770463386
 51
270.0000179860895
  0
ARC
  5
7B4
330
1F
100
AcDbEntity
  8
0
  6
DASHED
 62
     7
100
AcDbCircle
 10
53.83903549046428
 20
41.837577866363
 30
0.0
 40
0.4840000072121621
100
AcDbArc
 50
45.54220557421667
 51
121.3506440853614
  0
ARC
  5
7B5
330
1F
100
AcDbEntity
  8
0
  6
Continuous
 62
     7
100
AcDbCircle
 10
41.72547769601155
 20
38.36370222021578
 30
0.0
 40
0.242000003606081
100
AcDbArc
 50
195.9998770463386
 51
270.0000179860895
  0
ARC
  5
7B6
330
1F
100
AcDbEntity
  8
0
  6
Continuous
 62
     7
100
AcDbCircle
 10
41.06237115018343
 20
38.92030417579347
 30
0.0
 40
0.242000003606081
100
AcDbArc
 50
16.00008013078088
 51
89.99998201391056
  0
ARC
  5
7B7
330
1F
100
AcDbEntity
  8
0
  6
DASHED
 62
     7
100
AcDbCircle
 10
41.06237115018343
 20
38.92030417579347
 30
0.0
 40
0.4840000072121621
100
AcDbArc
 50
16.00008013078088
 51
89.99998201391056
  0
ARC
  5
7B8
330
1F
100
AcDbEntity
  8
0
  6
Continuous
 62
     7
100
AcDbCircle
 10
65.09633927531891
 20
42.39318281268813
 30
0.0
 40
1.209999969949326
100
AcDbArc
 50
224.9999586772422
 51
268.5679117322453
  0
ARC
  5
7B9
330
1F
100
AcDbEntity
  8
0
  6
Continuous
 62
     7
100
AcDbCircle
 10
39.86375370253443
 20
38.36370222021578
 30
0.0
 40
0.242000003606081
100
AcDbArc
 50
270.0000179860895
 51
344.0001589258403
  0
ARC
  5
7BA
330
1F
100
AcDbEntity
  8
0
  6
DASHED
 62
     7
100
AcDbCircle
 10
65.09633927531891
 20
42.39318281268813
 30
0.0
 40
0.9680000144243241
100
AcDbArc
 50
224.9999586772422
 51
268.5679117322453
  0
ARC
  5
7BB
330
1F
100
AcDbEntity
  8
0
  6
Continuous
 62
     7
100
AcDbCircle
 10
53.83903549046428
 20
41.837577866363
 30
0.0
 40
0.242000003606081
100
AcDbArc
 50
45.54220557421667
 51
139.6423372906848
  0
CIRCLE
  5
7BC
330
1F
100
AcDbEntity
  8
0
  6
Continuous
 62
     7
100
AcDbCircle
 10
93.67649111526684
 20
48.80599556032525
 30
0.0
 40
7.405200062265001
  0
CIRCLE
  5
7BD
330
1F
100
AcDbEntity
  8
0
  6
Continuous
 62
     7
100
AcDbCircle
 10
93.67649111526684
 20
48.80599556032525
 30
0.0
 40
7.889200357963637
  0
ARC
  5
7BE
330
1F
100
AcDbEntity
  8
0
  6
Continuous
 62
     7
100
AcDbCircle
 10
93.67649111526684
 20
48.80599556032525
 30
0.0
 40
6.957499827208626
100
AcDbArc
 50
89.99998201391056
 51
100.9112365337626
  0
CIRCLE
  5
7BF
330
1F
100
AcDbEntity
  8
0
  6
Continuous
 62
     7
100
AcDbCircle
 10
93.67649111526684
 20
48.80599556032525
 30
0.0
 40
6.170999923671287
  0
CIRCLE
  5
7C0
330
1F
100
AcDbEntity
  8
0
  6
Continuous
 62
     7
100
AcDbCircle
 10
93.67649111526684
 20
48.80599556032525
 30
0.0
 40
10.68429579585057
  0
ARC
  5
7C1
330
1F
100
AcDbEntity
  8
0
  6
Continuous
 62
     7
100
AcDbCircle
 10
63.76042380658432
 20
41.45828046672535
 30
0.0
 40
0.242000003606081
100
AcDbArc
 50
268.5679117322453
 51
0.0
  0
ARC
  5
7C2
330
1F
100
AcDbEntity
  8
0
  6
Continuous
 62
     7
100
AcDbCircle
 10
44.84414383903406
 20
40.66269980233854
 30
0.0
 40
2.42000003606081
100
AcDbArc
 50
270.0
 51
297.1831602870807
  0
ARC
  5
7C3
330
1F
100
AcDbEntity
  8
0
  6
Continuous
 62
     7
100
AcDbCircle
 10
93.67649111526684
 20
48.80599556032525
 30
0.0
 40
7.120850100098798
100
AcDbArc
 50
0.0
 51
77.18690230080361
  0
ARC
  5
7C4
330
1F
100
AcDbEntity
  8
0
  6
Continuous
 62
     7
100
AcDbCircle
 10
93.67649111526684
 20
48.80599556032525
 30
0.0
 40
7.120850100098798
100
AcDbArc
 50
282.8130976991964
 51
0.0
  0
ARC
  5
7C5
330
1F
100
AcDbEntity
  8
0
  6
Continuous
 62
     7
100
AcDbCircle
 10
93.67649111526684
 20
48.80599556032525
 30
0.0
 40
6.957499827208626
100
AcDbArc
 50
79.08872749405857
 51
89.99998201391056
  0
ARC
  5
7C6
330
1F
100
AcDbEntity
  8
0
  6
Continuous
 62
     7
100
AcDbCircle
 10
92.31371486330449
 20
55.87534082403127
 30
0.0
 40
0.242000003606081
100
AcDbArc
 50
225.0000133187556
 51
280.9110880908338
  0
ARC
  5
7C7
330
1F
100
AcDbEntity
  8
0
  6
Continuous
 62
     7
100
AcDbCircle
 10
95.03926736722922
 20
55.87534082403127
 30
0.0
 40
0.242000003606081
100
AcDbArc
 50
259.0889000700206
 51
314.9999748420987
  0
ARC
  5
7C8
330
1F
100
AcDbEntity
  8
0
  6
Continuous
 62
     7
100
AcDbCircle
 10
93.67649111526684
 20
48.80599556032525
 30
0.0
 40
7.120850100098798
100
AcDbArc
 50
102.813116368531
 51
257.186866328625
  0
ARC
  5
7C9
330
1F
100
AcDbEntity
  8
0
  6
Continuous
 62
     7
100
AcDbCircle
 10
92.31371486330449
 20
41.73665068126786
 30
0.0
 40
0.242000003606081
100
AcDbArc
 50
79.08886409784194
 51
134.9999457001095
  0
ARC
  5
7CA
330
1F
100
AcDbEntity
  8
0
  6
Continuous
 62
     7
100
AcDbCircle
 10
93.67649111526684
 20
48.80599556032525
 30
0.0
 40
6.957499827208626
100
AcDbArc
 50
269.9999633445758
 51
280.9112178644281
  0
ARC
  5
7CB
330
1F
100
AcDbEntity
  8
0
  6
Continuous
 62
     7
100
AcDbCircle
 10
93.67649111526684
 20
48.80599556032525
 30
0.0
 40
6.957499827208626
100
AcDbArc
 50
259.0887088247239
 51
269.9999633445758
  0
ARC
  5
7CC
330
1F
100
AcDbEntity
  8
0
  6
Continuous
 62
     7
100
AcDbCircle
 10
95.03926736722922
 20
41.73665068126786
 30
0.0
 40
0.242000003606081
100
AcDbArc
 50
44.99996368619854
 51
100.9110384582768
  0
ARC
  5
7CD
330
1F
100
AcDbEntity
  8
0
  6
Continuous
 62
     7
100
AcDbCircle
 10
53.44585193086363
 20
59.33299571718976
 30
0.0
 40
3.630000054091216
100
AcDbArc
 50
242.8168397129192
 51
270.0
  0
ARC
  5
7CE
330
1F
100
AcDbEntity
  8
0
  6
DASHED
 62
     7
100
AcDbCircle
 10
53.20950373520044
 20
54.74107409759786
 30
0.0
 40
0.7260000108182432
100
AcDbArc
 50
58.64935591463861
 51
87.05356147089423
  0
ARC
  5
7CF
330
1F
100
AcDbEntity
  8
0
  6
DASHED
 62
     7
100
AcDbCircle
 10
44.84414383903406
 20
56.94929131831194
 30
0.0
 40
2.178000032454729
100
AcDbArc
 50
62.81683971291911
 51
90.0
  0
ARC
  5
7D0
330
1F
100
AcDbEntity
  8
0
  6
Continuous
 62
     7
100
AcDbCircle
 10
53.47021925132304
 20
55.46099565949248
 30
0.0
 40
0.242000003606081
100
AcDbArc
 50
40.35766270931522
 51
90.0
  0
ARC
  5
7D1
330
1F
100
AcDbEntity
  8
0
  6
DASHED
 62
     7
100
AcDbCircle
 10
53.44585193086363
 20
59.33299571718976
 30
0.0
 40
3.872000057697296
100
AcDbArc
 50
242.8168397129192
 51
267.0535614708942
  0
ARC
  5
7D2
330
1F
100
AcDbEntity
  8
0
  6
Continuous
 62
     7
100
AcDbCircle
 10
53.44585193086363
 20
38.27899540346071
 30
0.0
 40
3.630000054091216
100
AcDbArc
 50
90.0
 51
117.1831602870807
  0
ARC
  5
7D3
330
1F
100
AcDbEntity
  8
0
  6
DASHED
 62
     7
100
AcDbCircle
 10
53.20950373520044
 20
42.87091702305263
 30
0.0
 40
0.7260000108182432
100
AcDbArc
 50
272.9464385291058
 51
301.3506440853616
  0
ARC
  5
7D4
330
1F
100
AcDbEntity
  8
0
  6
DASHED
 62
     7
100
AcDbCircle
 10
44.84414383903406
 20
40.66269980233854
 30
0.0
 40
2.178000032454729
100
AcDbArc
 50
270.0
 51
297.1831602870807
  0
ARC
  5
7D5
330
1F
100
AcDbEntity
  8
0
  6
Continuous
 62
     7
100
AcDbCircle
 10
53.47021925132304
 20
42.150995461158
 30
0.0
 40
0.242000003606081
100
AcDbArc
 50
270.0
 51
319.6423372906848
  0
ARC
  5
7D6
330
1F
100
AcDbEntity
  8
0
  6
DASHED
 62
     7
100
AcDbCircle
 10
53.44585193086363
 20
38.27899540346071
 30
0.0
 40
3.872000057697296
100
AcDbArc
 50
92.94643852910573
 51
117.1831602870807
  0
MTEXT
  5
7D7
330
1F
100
AcDbEntity
  8
0
 62
     7
100
AcDbMText
 10
28.96291675769701
 20
27.19610577301277
 30
0.0
 40
3.200000047683716
 41
0.0
 46
0.0
 71
     7
 72
     1
  1
{\W0.833333;（ＴＤＷ７５－５０，ＴＤＷ７５－６０のみ）}
 73
     1
 44
1.0
1001
ACAD
1000
MTEXTBEGIN
1070
    73
1070
     1
1070
    44
1040
1.0
1070
    74
1070
     0
1000
MTEXTEND
  0
DIMENSION
  5
7D8
330
1F
100
AcDbEntity
  8
寸法線
100
AcDbDimension
280
     0
  2
*D12
 10
53.77822715762392
 20
71.62546979665022
 30
0.0
 11
41.88981959307346
 21
71.62546979665022
 31
0.0
 70
   160
  1
L2
 71
     5
 42
23.77681512910092
 73
     0
 74
     0
 75
     0
  3
ISO-25
100
AcDbAlignedDimension
 13
30.00141202852301
 23
58.69168886810019
 33
0.0
 14
53.77822715762392
 24
55.37569763779096
 34
0.0
 50
180.0
100
AcDbRotatedDimension
1001
ACAD
1000
DSTYLE
1002
{
1070
   278
1070
    46
1070
   147
1040
0.8000000119209291
1070
    77
1070
     1
1070
    74
1070
     0
1070
    73
1070
     0
1070
    42
1040
2.54
1070
    44
1040
2.286
1070
    76
1070
     0
1070
    75
1070
     0
1070
   279
1070
     0
1070
   271
1070
     0
1070
   173
1070
     1
1070
    41
1040
3.0
1070
   140
1040
3.200000047683716
1070
   344
1005
23E
1070
   343
1005
23E
1002
}
  0
DIMENSION
  5
7D9
330
1F
100
AcDbEntity
  8
寸法線
100
AcDbDimension
280
     0
  2
*D13
 10
30.00141202852301
 20
77.73808043029011
 30
0.0
 11
48.03041650427044
 21
77.73808043029011
 31
0.0
 70
   160
  1
L1
 71
     5
 42
36.05800895149486
 73
     0
 74
     0
 75
     0
  3
ISO-25
100
AcDbAlignedDimension
 13
66.05942098001787
 23
56.69519361039712
 33
0.0
 14
30.00141202852301
 24
58.69168886810019
 34
0.0
100
AcDbRotatedDimension
1001
ACAD
1000
DSTYLE
1002
{
1070
   278
1070
    46
1070
   147
1040
0.8000000119209291
1070
    77
1070
     1
1070
    74
1070
     0
1070
    73
1070
     0
1070
    42
1040
2.54
1070
    44
1040
2.286
1070
    76
1070
     0
1070
    75
1070
     0
1070
   279
1070
     0
1070
   271
1070
     0
1070
   173
1070
     1
1070
    41
1040
3.0
1070
   140
1040
3.200000047683716
1070
   344
1005
23E
1070
   343
1005
23E
1002
}
  0
DIMENSION
  5
7DA
330
1F
100
AcDbEntity
  8
寸法線
100
AcDbDimension
280
     0
  2
*D14
 10
21.77387822820831
 20
59.49029135617582
 30
0.0
 11
21.7738782282083
 21
48.55246484580408
 31
0.0
 70
   160
  1
∅B
 71
     5
 42
21.36860390045734
 73
     0
 74
     0
 75
     0
  3
ISO-25
100
AcDbAlignedDimension
 13
30.99191610345157
 23
38.12168745571847
 33
0.0
 14
30.99191610345157
 24
59.49029135617582
 34
0.0
 50
270.0
100
AcDbRotatedDimension
1001
ACAD
1000
DSTYLE
1002
{
1070
   278
1070
    46
1070
   147
1040
0.8000000119209291
1070
    77
1070
     1
1070
    74
1070
     0
1070
    73
1070
     0
1070
    42
1040
2.54
1070
    44
1040
2.766059999999995
1070
    76
1070
     0
1070
    75
1070
     0
1070
   279
1070
     0
1070
   271
1070
     0
1070
   173
1070
     1
1070
    41
1040
3.0
1070
   140
1040
3.200000047683716
1070
   344
1005
23E
1070
   343
1005
23E
1002
}
  0
DIMENSION
  5
7DB
330
1F
100
AcDbEntity
  8
寸法線
100
AcDbDimension
280
     0
  2
*D15
 10
73.7241882664013
 20
41.40078934368214
 30
0.0
 11
73.72418826640128
 21
48.27165235911113
 31
0.0
 70
   160
  1
∅A
 71
     5
 42
14.81040320171904
 73
     0
 74
     0
 75
     0
  3
ISO-25
100
AcDbAlignedDimension
 13
66.05942098001789
 23
56.21119254540118
 33
0.0
 14
66.05942098001789
 24
41.40078934368214
 34
0.0
 50
90.0
100
AcDbRotatedDimension
1001
ACAD
1000
DSTYLE
1002
{
1070
   278
1070
    46
1070
   147
1040
0.8000000119209291
1070
    77
1070
     1
1070
    74
1070
     0
1070
    73
1070
     0
1070
    42
1040
2.54
1070
    44
1040
2.766060000000009
1070
    76
1070
     0
1070
    75
1070
     0
1070
   279
1070
     0
1070
   271
1070
     0
1070
   173
1070
     1
1070
    41
1040
3.0
1070
   140
1040
3.200000047683716
1070
   344
1005
23E
1070
   343
1005
23E
1002
}
  0
DIMENSION
  5
7DC
330
1F
100
AcDbEntity
  8
寸法線
100
AcDbDimension
280
     0
  2
*D16
 10
66.05942098001787
 20
71.62546979665022
 30
0.0
 11
60.37242173669387
 21
71.62546979665022
 31
0.0
 70
   160
  1
L3
 71
     5
 42
11.37399848664805
 73
     0
 74
     0
 75
     0
  3
ISO-25
100
AcDbAlignedDimension
 13
54.68542249336983
 23
56.16891466037841
 33
0.0
 14
66.05942098001787
 24
56.69519361039712
 34
0.0
 50
180.0
100
AcDbRotatedDimension
1001
ACAD
1000
DSTYLE
1002
{
1070
   278
1070
    46
1070
   147
1040
0.8000000119209291
1070
    77
1070
     1
1070
    74
1070
     0
1070
    73
1070
     0
1070
    42
1040
2.54
1070
    44
1040
2.286
1070
    76
1070
     1
1070
    75
1070
     0
1070
   279
1070
     0
1070
   271
1070
     0
1070
   173
1070
     1
1070
    41
1040
3.0
1070
   140
1040
3.200000047683716
1070
   344
1005
23E
1070
   343
1005
23E
1002
}
  0
MTEXT
  5
9AB
330
1F
100
AcDbEntity
  8
VIEW0001
 62
     7
100
AcDbMText
 10
59.89285540580747
 20
-93.0
 30
0.0
 40
4.5
 41
0.0
 46
0.0
 71
     7
 72
     1
  1
{\W1.3889;　デンカ株式会社}
 73
     1
 44
1.0
  0
ENDSEC
  0
SECTION
  2
OBJECTS
  0
DICTIONARY
  5
C
330
0
100
AcDbDictionary
281
     1
  3
ACAD_CIP_PREVIOUS_PRODUCT_INFO
350
9A2
  3
ACAD_COLOR
350
2B2
  3
ACAD_DETAILVIEWSTYLE
350
99D
  3
ACAD_GROUP
350
D
  3
ACAD_LAYOUT
350
1A
  3
ACAD_MATERIAL
350
2B1
  3
ACAD_MLEADERSTYLE
350
999
  3
ACAD_MLINESTYLE
350
17
  3
ACAD_PLOTSETTINGS
350
19
  3
ACAD_PLOTSTYLENAME
350
E
  3
ACAD_SCALELIST
350
987
  3
ACAD_SECTIONVIEWSTYLE
350
99B
  3
ACAD_TABLESTYLE
350
2B3
  3
ACAD_VISUALSTYLE
350
96E
  3
ACDB_RECOMPOSE_DATA
350
A04
  3
AcDbVariableDictionary
350
2B8
  0
DICTIONARY
  5
9AC
330
10
100
AcDbDictionary
280
     1
281
     1
  3
ADSK_XREC_LAYER_RECONCILED
360
9AD
  0
DICTIONARY
  5
9AE
330
2A4
100
AcDbDictionary
280
     1
281
     1
  3
ADSK_XREC_LAYER_RECONCILED
360
9AF
  0
DICTIONARY
  5
9B0
330
2C6
100
AcDbDictionary
280
     1
281
     1
  3
ADSK_XREC_LAYER_RECONCILED
360
9B1
  0
DICTIONARY
  5
9B2
330
2C7
100
AcDbDictionary
280
     1
281
     1
  3
ADSK_XREC_LAYER_RECONCILED
360
9B3
  0
DICTIONARY
  5
9B4
330
2C8
100
AcDbDictionary
280
     1
281
     1
  3
ADSK_XREC_LAYER_RECONCILED
360
9B5
  0
DICTIONARY
  5
9B6
330
2C9
100
AcDbDictionary
280
     1
281
     1
  3
ADSK_XREC_LAYER_RECONCILED
360
9B7
  0
DICTIONARY
  5
9B8
330
2CA
100
AcDbDictionary
280
     1
281
     1
  3
ADSK_XREC_LAYER_RECONCILED
360
9B9
  0
DICTIONARY
  5
9BA
330
2CB
100
AcDbDictionary
280
     1
281
     1
  3
ADSK_XREC_LAYER_RECONCILED
360
9BB
  0
DICTIONARY
  5
9BC
330
2CC
100
AcDbDictionary
280
     1
281
     1
  3
ADSK_XREC_LAYER_RECONCILED
360
9BD
  0
DICTIONARY
  5
35D
330
1F
100
AcDbDictionary
280
     1
281
     1
  3
ACAD_SORTENTS
360
35E
  0
XRECORD
  5
9A2
102
{ACAD_REACTORS
330
C
102
}
330
C
100
AcDbXrecord
280
     1
300
ACDLT
300
2015
300
INVLTS_F_S
  0
DICTIONARY
  5
2B2
102
{ACAD_REACTORS
330
C
102
}
330
C
100
AcDbDictionary
281
     1
  0
DICTIONARY
  5
99D
102
{ACAD_REACTORS
330
C
102
}
330
C
100
AcDbDictionary
281
     1
  3
Metric50
350
99E
  0
DICTIONARY
  5
D
102
{ACAD_REACTORS
330
C
102
}
330
C
100
AcDbDictionary
281
     1
  0
DICTIONARY
  5
1A
102
{ACAD_REACTORS
330
C
102
}
330
C
100
AcDbDictionary
281
     1
  3
Layout1
350
1E
  3
Layout2
350
26
  3
Model
350
22
  0
DICTIONARY
  5
2B1
102
{ACAD_REACTORS
330
C
102
}
330
C
100
AcDbDictionary
281
     1
  3
ByBlock
350
95E
  3
ByLayer
350
956
  3
Global
350
966
  0
DICTIONARY
  5
999
102
{ACAD_REACTORS
330
C
102
}
330
C
100
AcDbDictionary
281
     1
  3
Standard
350
99A
  0
DICTIONARY
  5
17
102
{ACAD_REACTORS
330
C
102
}
330
C
100
AcDbDictionary
281
     1
  3
Standard
350
18
  0
DICTIONARY
  5
19
102
{ACAD_REACTORS
330
C
102
}
330
C
100
AcDbDictionary
281
     1
  0
ACDBDICTIONARYWDFLT
  5
E
102
{ACAD_REACTORS
330
C
102
}
330
C
100
AcDbDictionary
281
     1
  3
Normal
350
F
100
AcDbDictionaryWithDefault
340
F
  0
DICTIONARY
  5
987
102
{ACAD_REACTORS
330
C
102
}
330
C
100
AcDbDictionary
281
     1
  3
A0
350
988
  3
A1
350
989
  3
A2
350
98A
  3
A3
350
98B
  3
A4
350
98C
  3
A5
350
98D
  3
A6
350
98E
  3
A7
350
98F
  3
A8
350
990
  3
A9
350
991
  3
B0
350
992
  3
B1
350
993
  3
B2
350
994
  3
B3
350
995
  3
B4
350
996
  3
B5
350
997
  3
B6
350
998
  0
DICTIONARY
  5
99B
102
{ACAD_REACTORS
330
C
102
}
330
C
100
AcDbDictionary
281
     1
  3
Metric50
350
99C
  0
DICTIONARY
  5
2B3
102
{ACAD_REACTORS
330
C
102
}
330
C
100
AcDbDictionary
281
     1
  3
Standard
350
2B4
  0
DICTIONARY
  5
96E
102
{ACAD_REACTORS
330
C
102
}
330
C
100
AcDbDictionary
281
     1
  3
2dWireframe
350
974
  3
Basic
350
973
  3
Brighten
350
97A
  3
ColorChange
350
97E
  3
Conceptual
350
977
  3
Dim
350
979
  3
EdgeColorOff
350
986
  3
Facepattern
350
97D
  3
Flat
350
96F
  3
FlatWithEdges
350
970
  3
Gouraud
350
971
  3
GouraudWithEdges
350
972
  3
Hidden
350
976
  3
JitterOff
350
984
  3
Linepattern
350
97C
  3
OverhangOff
350
985
  3
Realistic
350
978
  3
Shaded
350
983
  3
Shaded with edges
350
982
  3
Shades of Gray
350
97F
  3
Sketchy
350
980
  3
Thicken
350
97B
  3
Wireframe
350
975
  3
X-Ray
350
981
  0
XRECORD
  5
A04
102
{ACAD_REACTORS
330
C
102
}
330
C
100
AcDbXrecord
280
     1
 90
        1
330
2B4
  0
DICTIONARY
  5
2B8
102
{ACAD_REACTORS
330
C
102
}
330
C
100
AcDbDictionary
281
     1
  3
CANNOSCALE
350
9FE
  3
CMLEADERSTYLE
350
9FA
  3
CTABLESTYLE
350
2B9
  3
CVIEWDETAILSTYLE
350
9FB
  3
CVIEWSECTIONSTYLE
350
9FC
  3
DIMASSOC
350
2BA
  3
LAYEREVAL
350
A00
  3
LAYERNOTIFY
350
A01
  3
LIGHTINGUNITS
350
9FF
  3
MSLTSCALE
350
9FD
  3
PROJECTNAME
350
2BB
  0
XRECORD
  5
9AD
102
{ACAD_REACTORS
330
9AC
102
}
330
9AC
100
AcDbXrecord
280
     1
290
     1
  0
XRECORD
  5
9AF
102
{ACAD_REACTORS
330
9AE
102
}
330
9AE
100
AcDbXrecord
280
     1
290
     1
  0
XRECORD
  5
9B1
102
{ACAD_REACTORS
330
9B0
102
}
330
9B0
100
AcDbXrecord
280
     1
290
     1
  0
XRECORD
  5
9B3
102
{ACAD_REACTORS
330
9B2
102
}
330
9B2
100
AcDbXrecord
280
     1
290
     1
  0
XRECORD
  5
9B5
102
{ACAD_REACTORS
330
9B4
102
}
330
9B4
100
AcDbXrecord
280
     1
290
     1
  0
XRECORD
  5
9B7
102
{ACAD_REACTORS
330
9B6
102
}
330
9B6
100
AcDbXrecord
280
     1
290
     1
  0
XRECORD
  5
9B9
102
{ACAD_REACTORS
330
9B8
102
}
330
9B8
100
AcDbXrecord
280
     1
290
     1
  0
XRECORD
  5
9BB
102
{ACAD_REACTORS
330
9BA
102
}
330
9BA
100
AcDbXrecord
280
     1
290
     1
  0
XRECORD
  5
9BD
102
{ACAD_REACTORS
330
9BC
102
}
330
9BC
100
AcDbXrecord
280
     1
290
     1
  0
SORTENTSTABLE
  5
35E
102
{ACAD_REACTORS
330
35D
102
}
330
35D
100
AcDbSortentsTable
330
1F
331
1CC
  5
1D2
331
20B
  5
211
331
1D4
  5
1DA
331
50
  5
56
331
10D
  5
113
331
144
  5
14A
331
58
  5
5E
331
97
  5
9D
331
CE
  5
D4
331
183
  5
189
331
18B
  5
191
331
D6
  5
DC
331
115
  5
11B
331
60
  5
66
331
9F
  5
A5
331
14C
  5
152
331
193
  5
199
331
DE
  5
E4
331
11D
  5
123
331
68
  5
6E
331
A7
  5
AD
331
154
  5
15B
331
15C
  5
162
331
E6
  5
EC
331
19D
  5
1A3
331
1DC
  5
1E2
331
213
  5
219
331
21B
  5
221
331
1A5
  5
1AB
331
1EC
  5
1F2
331
223
  5
229
331
1AD
  5
1B3
331
1F4
  5
1FA
331
1B5
  5
1BB
331
31
  5
31
331
70
  5
76
331
125
  5
12B
331
164
  5
16A
331
78
  5
7E
331
AF
  5
B5
331
39
  5
39
331
EE
  5
F4
331
12D
  5
133
331
16C
  5
172
331
80
  5
86
331
B7
  5
BD
331
41
  5
46
331
F6
  5
FC
331
FE
  5
104
331
135
  5
13B
331
49
  5
4F
331
88
  5
8E
331
BF
  5
C5
331
174
  5
17A
331
17C
  5
182
331
C7
  5
CD
331
106
  5
10C
331
13D
  5
143
331
1BD
  5
1C3
331
1FC
  5
202
331
1C5
  5
1CB
331
204
  5
20A
331
1CD
  5
1D3
331
20C
  5
212
331
1D5
  5
1DB
331
26A
  5
2A9
331
51
  5
57
331
90
  5
96
331
145
  5
14B
331
184
  5
18A
331
CF
  5
D5
331
10E
  5
114
331
59
  5
5F
331
98
  5
9E
331
14D
  5
153
331
18C
  5
192
331
A0
  5
A6
331
D7
  5
DD
331
61
  5
67
331
116
  5
11C
331
11E
  5
124
331
69
  5
6F
331
DF
  5
E5
331
194
  5
19A
331
E7
  5
ED
331
15D
  5
163
331
1DD
  5
1E3
331
214
  5
21A
331
19E
  5
1A4
331
1E5
  5
1EB
331
21C
  5
222
331
1A6
  5
1AC
331
1AE
  5
1B4
331
1ED
  5
1F3
331
224
  5
22A
331
1B6
  5
1BC
331
1F5
  5
1FB
331
71
  5
77
331
A8
  5
AE
331
32
  5
32
331
EF
  5
F5
331
126
  5
12C
331
3A
  5
3A
331
79
  5
7F
331
B0
  5
B6
331
165
  5
16B
331
16D
  5
173
331
B8
  5
BE
331
F7
  5
FD
331
42
  5
48
331
81
  5
87
331
12E
  5
134
331
136
  5
13C
331
175
  5
17B
331
89
  5
8F
331
C0
  5
C6
331
4A
  5
50
331
FF
  5
105
331
13E
  5
144
331
17D
  5
183
331
107
  5
10D
331
1FD
  5
203
331
1BE
  5
1C4
331
205
  5
20B
331
1C6
  5
1CC
331
1CE
  5
1D4
331
20D
  5
213
331
1D6
  5
1DC
331
91
  5
97
331
C8
  5
CE
331
52
  5
58
331
10F
  5
115
331
146
  5
14C
331
5A
  5
60
331
99
  5
9F
331
D0
  5
D6
331
185
  5
18B
331
18D
  5
193
331
D8
  5
DE
331
117
  5
11D
331
62
  5
68
331
A1
  5
A7
331
14E
  5
154
331
156
  5
15C
331
195
  5
19B
331
E0
  5
E6
331
6A
  5
70
331
11F
  5
125
331
15E
  5
164
331
19F
  5
1A5
331
1DE
  5
1E5
331
215
  5
21B
331
21D
  5
223
331
1A7
  5
1AD
331
1E6
  5
1EC
331
1EE
  5
1F4
331
225
  5
23C
331
1AF
  5
1B5
331
1F6
  5
1FC
331
1B7
  5
1BD
331
A9
  5
AF
331
E8
  5
EE
331
33
  5
33
331
72
  5
78
331
127
  5
12D
331
166
  5
16C
331
7A
  5
80
331
B1
  5
B7
331
35F
  5
49E
331
23C
  5
2A6
331
3B
  5
3B
331
F0
  5
F6
331
F8
  5
FE
331
12F
  5
135
331
82
  5
88
331
B9
  5
BF
331
16E
  5
174
331
43
  5
49
331
100
  5
106
331
137
  5
13D
331
4B
  5
51
331
8A
  5
90
331
C1
  5
C7
331
176
  5
17C
331
17E
  5
184
331
13F
  5
145
331
1BF
  5
1C5
331
1FE
  5
204
331
1C7
  5
1CD
331
206
  5
20C
331
20E
  5
214
331
1CF
  5
1D5
331
1D7
  5
1DD
331
C9
  5
CF
331
108
  5
10E
331
27C
  5
2AB
331
53
  5
59
331
92
  5
98
331
147
  5
14D
331
186
  5
18C
331
9A
  5
A0
331
D1
  5
D7
331
5B
  5
61
331
110
  5
116
331
14F
  5
156
331
18E
  5
194
331
A2
  5
A8
331
D9
  5
DF
331
63
  5
69
331
118
  5
11E
331
157
  5
15D
331
6B
  5
71
331
E1
  5
E7
331
196
  5
19C
331
15F
  5
165
331
198
  5
19E
331
1DF
  5
1E6
331
216
  5
21C
331
1A0
  5
1A6
331
1A8
  5
1AE
331
1E7
  5
1ED
331
21E
  5
224
331
1B0
  5
1B6
331
1EF
  5
1F5
331
226
  5
23D
331
1F7
  5
1FD
331
E9
  5
EF
331
120
  5
126
331
34
  5
34
331
73
  5
79
331
AA
  5
B0
331
167
  5
16D
331
F1
  5
F7
331
128
  5
12E
331
7B
  5
81
331
23D
  5
2A7
331
B2
  5
B8
331
16F
  5
175
331
BA
  5
C0
331
F9
  5
FF
331
44
  5
4A
331
83
  5
89
331
130
  5
136
331
138
  5
13E
331
177
  5
17D
331
8B
  5
91
331
C2
  5
C8
331
4C
  5
52
331
101
  5
107
331
17F
  5
185
331
1B8
  5
1BE
331
1FF
  5
205
331
2AE
  5
4AA
331
1C0
  5
1C6
331
207
  5
20D
331
1C8
  5
1CE
331
1D0
  5
1D6
331
20F
  5
215
331
109
  5
10F
331
140
  5
146
331
93
  5
99
331
CA
  5
D0
331
2E
  5
2E
331
54
  5
5A
331
111
  5
117
331
148
  5
14E
331
5C
  5
62
331
9B
  5
A1
331
D2
  5
D8
331
187
  5
18D
331
18F
  5
195
331
DA
  5
E0
331
119
  5
11F
331
64
  5
6A
331
A3
  5
A9
331
150
  5
157
331
158
  5
15E
331
E2
  5
E8
331
197
  5
19D
331
6C
  5
72
331
199
  5
19F
331
1D8
  5
1DE
331
217
  5
21D
331
1A1
  5
1A7
331
1E0
  5
1E7
331
21F
  5
225
331
1A9
  5
1AF
331
1E8
  5
1EE
331
1F0
  5
1F6
331
227
  5
258
331
1B1
  5
1B7
331
2A6
  5
35C
331
160
  5
166
331
AB
  5
B1
331
EA
  5
F0
331
35
  5
35
331
74
  5
7A
331
121
  5
127
331
129
  5
12F
331
168
  5
16E
331
7C
  5
82
331
B3
  5
B9
331
3D
  5
3D
331
F2
  5
F8
331
FA
  5
100
331
131
  5
137
331
45
  5
4B
331
84
  5
8A
331
BB
  5
C1
331
170
  5
176
331
178
  5
17E
331
102
  5
108
331
139
  5
13F
331
4D
  5
53
331
8C
  5
92
331
C3
  5
C9
331
1B9
  5
1BF
331
1F8
  5
1FE
331
1C1
  5
1C7
331
200
  5
206
331
1C9
  5
1CF
331
208
  5
20E
331
1D1
  5
1D7
331
180
  5
186
331
CB
  5
D1
331
10A
  5
110
331
55
  5
5B
331
2F
  5
2F
331
94
  5
9A
331
141
  5
147
331
149
  5
14F
331
188
  5
18E
331
9C
  5
A2
331
D3
  5
D9
331
5D
  5
63
331
112
  5
118
331
11A
  5
120
331
151
  5
158
331
A4
  5
AA
331
DB
  5
E1
331
190
  5
196
331
65
  5
6B
331
159
  5
15F
331
6D
  5
73
331
E3
  5
E9
331
210
  5
216
331
19A
  5
1A0
331
1D9
  5
1DF
331
1E1
  5
1E8
331
218
  5
21E
331
1A2
  5
1A8
331
1AA
  5
1B0
331
1E9
  5
1EF
331
220
  5
226
331
228
  5
26A
331
1B2
  5
1B8
331
1F1
  5
1F7
331
2A7
  5
35F
331
EB
  5
F1
331
122
  5
128
331
36
  5
36
331
75
  5
7B
331
AC
  5
B2
331
161
  5
167
331
169
  5
16F
331
B4
  5
BA
331
F3
  5
F9
331
3E
  5
40
331
7D
  5
83
331
12A
  5
130
331
171
  5
177
331
BC
  5
C2
331
FB
  5
101
331
46
  5
4C
331
85
  5
8B
331
132
  5
138
331
13A
  5
140
331
179
  5
17F
331
8D
  5
93
331
C4
  5
CA
331
4E
  5
54
331
103
  5
109
331
2A8
  5
368
331
1BA
  5
1C0
331
1F9
  5
1FF
331
201
  5
207
331
368
  5
49F
331
1C2
  5
1C8
331
1CA
  5
1D0
331
209
  5
20F
331
1D2
  5
1D8
331
10B
  5
111
331
142
  5
148
331
56
  5
5C
331
95
  5
9B
331
CC
  5
D2
331
181
  5
187
331
189
  5
18F
331
113
  5
119
331
14A
  5
150
331
5E
  5
64
331
9D
  5
A3
331
D4
  5
DA
331
191
  5
197
331
DC
  5
E2
331
11B
  5
121
331
66
  5
6C
331
A5
  5
AB
331
152
  5
159
331
15A
  5
160
331
E4
  5
EA
331
6E
  5
74
331
19B
  5
1A1
331
1DA
  5
1E0
331
211
  5
217
331
219
  5
21F
331
1A3
  5
1A9
331
1E2
  5
1E9
331
221
  5
227
331
1AB
  5
1B1
331
1EA
  5
1F0
331
1F2
  5
1F8
331
229
  5
27C
331
1B3
  5
1B9
331
123
  5
129
331
162
  5
168
331
AD
  5
B3
331
EC
  5
F2
331
37
  5
37
331
76
  5
7C
331
12B
  5
131
331
16A
  5
170
331
7E
  5
84
331
B5
  5
BB
331
258
  5
2A8
331
3F
  5
42
331
F4
  5
FA
331
FC
  5
102
331
133
  5
139
331
47
  5
4D
331
86
  5
8C
331
BD
  5
C3
331
172
  5
178
331
17A
  5
180
331
C5
  5
CB
331
104
  5
10A
331
4F
  5
55
331
8E
  5
94
331
13B
  5
141
331
1BB
  5
1C1
331
1FA
  5
200
331
2A9
  5
49D
331
1C3
  5
1C9
331
202
  5
208
331
1CB
  5
1D1
331
20A
  5
210
331
1D3
  5
1D9
331
182
  5
188
331
CD
  5
D3
331
10C
  5
112
331
290
  5
2AE
331
57
  5
5D
331
96
  5
9C
331
143
  5
149
331
14B
  5
151
331
18A
  5
190
331
9E
  5
A4
331
D5
  5
DB
331
5F
  5
65
331
114
  5
11A
331
11C
  5
122
331
153
  5
15A
331
67
  5
6D
331
A6
  5
AC
331
DD
  5
E3
331
192
  5
198
331
15B
  5
161
331
6F
  5
75
331
E5
  5
EB
331
1DB
  5
1E1
331
212
  5
218
331
19C
  5
1A2
331
1E3
  5
1EA
331
21A
  5
220
331
1A4
  5
1AA
331
1AC
  5
1B2
331
1EB
  5
1F1
331
222
  5
228
331
22A
  5
290
331
1B4
  5
1BA
331
1F3
  5
1F9
331
30
  5
30
331
ED
  5
F3
331
124
  5
12A
331
77
  5
7D
331
35C
  5
4A0
331
AE
  5
B4
331
163
  5
169
331
16B
  5
171
331
B6
  5
BC
331
F5
  5
FB
331
40
  5
44
331
7F
  5
85
331
12C
  5
132
331
134
  5
13A
331
173
  5
179
331
BE
  5
C4
331
FD
  5
103
331
48
  5
4E
331
87
  5
8D
331
13C
  5
142
331
17B
  5
181
331
8F
  5
95
331
C6
  5
CC
331
105
  5
10B
331
1BC
  5
1C2
331
1FB
  5
201
331
203
  5
209
331
1C4
  5
1CA
  0
ACDBDETAILVIEWSTYLE
  5
99E
102
{ACAD_XDICTIONARY
360
A37
102
}
102
{ACAD_REACTORS
330
99D
102
}
330
99D
100
AcDbModelDocViewStyle
 70
     0
  3
Metric50
290
     0
100
AcDbDetailViewStyle
 70
     0
 71
     0
 90
        3
 71
     1
340
11
 62
   256
 40
5.0
340
0
 62
   256
 40
5.0
300

 40
0.0
280
     1
 71
     2
340
16
 90
       25
 62
   256
 71
     3
340
11
 62
   256
 40
5.0
 90
        0
 40
15.0
 90
        1
300
%<\AcVar ViewDetailId>% (%<\AcVar ViewScale \f "%sn">%)
 71
     4
340
16
 90
       25
 62
   256
340
16
 90
       25
 62
   256
280
     0
  0
LAYOUT
  5
1E
102
{ACAD_REACTORS
330
1A
102
}
330
1A
100
AcDbPlotSettings
  1

  2

  4

  6

 40
0.0
 41
0.0
 42
0.0
 43
0.0
 44
0.0
 45
0.0
 46
0.0
 47
0.0
 48
0.0
 49
0.0
140
0.0
141
0.0
142
1.0
143
1.0
 70
   688
 72
     0
 73
     0
 74
     5
  7
monochrome.ctb
 75
    16
147
1.0
 76
     0
 77
     2
 78
   300
148
0.0
149
0.0
100
AcDbLayout
  1
Layout1
 70
     1
 71
     1
 10
-148.0
 20
-104.5
 11
149.0
 21
105.5
 12
0.0
 22
0.0
 32
0.0
 14
1.000000000000000E+20
 24
1.000000000000000E+20
 34
1.000000000000000E+20
 15
-1.000000000000000E+20
 25
-1.000000000000000E+20
 35
-1.000000000000000E+20
146
0.0
 13
0.0
 23
0.0
 33
0.0
 16
1.0
 26
0.0
 36
0.0
 17
0.0
 27
1.0
 37
0.0
 76
     0
330
1B
  0
LAYOUT
  5
26
102
{ACAD_REACTORS
330
1A
102
}
330
1A
100
AcDbPlotSettings
  1

  2

  4

  6

 40
0.0
 41
0.0
 42
0.0
 43
0.0
 44
0.0
 45
0.0
 46
0.0
 47
0.0
 48
0.0
 49
0.0
140
0.0
141
0.0
142
1.0
143
1.0
 70
   688
 72
     0
 73
     0
 74
     5
  7
monochrome.ctb
 75
    16
147
1.0
 76
     0
 77
     2
 78
   300
148
0.0
149
0.0
100
AcDbLayout
  1
Layout2
 70
     1
 71
     2
 10
0.0
 20
0.0
 11
0.0
 21
0.0
 12
0.0
 22
0.0
 32
0.0
 14
0.0
 24
0.0
 34
0.0
 15
0.0
 25
0.0
 35
0.0
146
0.0
 13
0.0
 23
0.0
 33
0.0
 16
1.0
 26
0.0
 36
0.0
 17
0.0
 27
1.0
 37
0.0
 76
     0
330
23
  0
LAYOUT
  5
22
102
{ACAD_REACTORS
330
1A
102
}
330
1A
100
AcDbPlotSettings
  1

  2
Adobe PDF
  4
A4
  6

 40
3.174999952316281
 41
3.174999952316281
 42
3.175003051757812
 43
3.17498779296875
 44
209.9733276367186
 45
297.0318298339844
 46
7.051149022578584
 47
7.073861730090527
 48
0.0
 49
0.0
140
0.0
141
0.0
142
1.0
143
1.0
 70
 11956
 72
     1
 73
     1
 74
     1
  7
monochrome.ctb
 75
    16
147
1.0
 76
     0
 77
     2
 78
   300
148
138.0163109423782
149
94.50884959708066
100
AcDbLayout
  1
Model
 70
     1
 71
     0
 10
-148.0
 20
-104.5
 11
149.0
 21
105.5
 12
0.0
 22
0.0
 32
0.0
 14
-148.0
 24
-104.5
 34
0.0
 15
149.0
 25
105.5
 35
0.0
146
0.0
 13
0.0
 23
0.0
 33
0.0
 16
1.0
 26
0.0
 36
0.0
 17
0.0
 27
1.0
 37
0.0
 76
     0
330
1F
331
94C
1001
ACAD_PSEXT
1000
Adobe PDF
1000
Adobe PDF Converter
1000
My Documents
1000

1070
     0
  0
MATERIAL
  5
95E
102
{ACAD_XDICTIONARY
360
95F
102
}
102
{ACAD_REACTORS
330
2B1
102
}
330
2B1
100
AcDbMaterial
  1
ByBlock
 72
     0
 43
0.0008202099737533
 43
0.0
 43
0.0
 43
0.0
 43
0.0
 43
0.0008202099737533
 43
0.0
 43
0.0
 43
0.0
 43
0.0
 43
1.0
 43
0.0
 43
0.0
 43
0.0
 43
0.0
 43
1.0
 77
     0
 47
0.0008202099737533
 47
0.0
 47
0.0
 47
0.0
 47
0.0
 47
0.0008202099737533
 47
0.0
 47
0.0
 47
0.0
 47
0.0
 47
1.0
 47
0.0
 47
0.0
 47
0.0
 47
0.0
 47
1.0
171
     0
 49
0.0008202099737533
 49
0.0
 49
0.0
 49
0.0
 49
0.0
 49
0.0008202099737533
 49
0.0
 49
0.0
 49
0.0
 49
0.0
 49
1.0
 49
0.0
 49
0.0
 49
0.0
 49
0.0
 49
1.0
175
     0
142
0.0008202099737533
142
0.0
142
0.0
142
0.0
142
0.0
142
0.0008202099737533
142
0.0
142
0.0
142
0.0
142
0.0
142
1.0
142
0.0
142
0.0
142
0.0
142
0.0
142
1.0
179
     0
144
0.0008202099737533
144
0.0
144
0.0
144
0.0
144
0.0
144
0.0008202099737533
144
0.0
144
0.0
144
0.0
144
0.0
144
1.0
144
0.0
144
0.0
144
0.0
144
0.0
144
1.0
147
0.0008202099737533
147
0.0
147
0.0
147
0.0
147
0.0
147
0.0008202099737533
147
0.0
147
0.0
147
0.0
147
0.0
147
1.0
147
0.0
147
0.0
147
0.0
147
0.0
147
1.0
  0
MATERIAL
  5
956
102
{ACAD_XDICTIONARY
360
957
102
}
102
{ACAD_REACTORS
330
2B1
102
}
330
2B1
100
AcDbMaterial
  1
ByLayer
 72
     0
 43
0.0008202099737533
 43
0.0
 43
0.0
 43
0.0
 43
0.0
 43
0.0008202099737533
 43
0.0
 43
0.0
 43
0.0
 43
0.0
 43
1.0
 43
0.0
 43
0.0
 43
0.0
 43
0.0
 43
1.0
 77
     0
 47
0.0008202099737533
 47
0.0
 47
0.0
 47
0.0
 47
0.0
 47
0.0008202099737533
 47
0.0
 47
0.0
 47
0.0
 47
0.0
 47
1.0
 47
0.0
 47
0.0
 47
0.0
 47
0.0
 47
1.0
171
     0
 49
0.0008202099737533
 49
0.0
 49
0.0
 49
0.0
 49
0.0
 49
0.0008202099737533
 49
0.0
 49
0.0
 49
0.0
 49
0.0
 49
1.0
 49
0.0
 49
0.0
 49
0.0
 49
0.0
 49
1.0
175
     0
142
0.0008202099737533
142
0.0
142
0.0
142
0.0
142
0.0
142
0.0008202099737533
142
0.0
142
0.0
142
0.0
142
0.0
142
1.0
142
0.0
142
0.0
142
0.0
142
0.0
142
1.0
179
     0
144
0.0008202099737533
144
0.0
144
0.0
144
0.0
144
0.0
144
0.0008202099737533
144
0.0
144
0.0
144
0.0
144
0.0
144
1.0
144
0.0
144
0.0
144
0.0
144
0.0
144
1.0
147
0.0008202099737533
147
0.0
147
0.0
147
0.0
147
0.0
147
0.0008202099737533
147
0.0
147
0.0
147
0.0
147
0.0
147
1.0
147
0.0
147
0.0
147
0.0
147
0.0
147
1.0
  0
MATERIAL
  5
966
102
{ACAD_XDICTIONARY
360
967
102
}
102
{ACAD_REACTORS
330
2B1
102
}
330
2B1
100
AcDbMaterial
  1
Global
 72
     0
 43
0.0008202099737533
 43
0.0
 43
0.0
 43
0.0
 43
0.0
 43
0.0008202099737533
 43
0.0
 43
0.0
 43
0.0
 43
0.0
 43
1.0
 43
0.0
 43
0.0
 43
0.0
 43
0.0
 43
1.0
 77
     0
 47
0.0008202099737533
 47
0.0
 47
0.0
 47
0.0
 47
0.0
 47
0.0008202099737533
 47
0.0
 47
0.0
 47
0.0
 47
0.0
 47
1.0
 47
0.0
 47
0.0
 47
0.0
 47
0.0
 47
1.0
171
     0
 49
0.0008202099737533
 49
0.0
 49
0.0
 49
0.0
 49
0.0
 49
0.0008202099737533
 49
0.0
 49
0.0
 49
0.0
 49
0.0
 49
1.0
 49
0.0
 49
0.0
 49
0.0
 49
0.0
 49
1.0
175
     0
142
0.0008202099737533
142
0.0
142
0.0
142
0.0
142
0.0
142
0.0008202099737533
142
0.0
142
0.0
142
0.0
142
0.0
142
1.0
142
0.0
142
0.0
142
0.0
142
0.0
142
1.0
179
     0
144
0.0008202099737533
144
0.0
144
0.0
144
0.0
144
0.0
144
0.0008202099737533
144
0.0
144
0.0
144
0.0
144
0.0
144
1.0
144
0.0
144
0.0
144
0.0
144
0.0
144
1.0
147
0.0008202099737533
147
0.0
147
0.0
147
0.0
147
0.0
147
0.0008202099737533
147
0.0
147
0.0
147
0.0
147
0.0
147
1.0
147
0.0
147
0.0
147
0.0
147
0.0
147
1.0
  0
MLEADERSTYLE
  5
99A
102
{ACAD_REACTORS
330
999
102
}
330
999
100
AcDbMLeaderStyle
179
     2
170
     2
171
     1
172
     0
 90
        2
 40
0.0
 41
0.0
173
     1
 91
-1056964608
340
14
 92
       -2
290
     1
 42
2.0
291
     1
 43
0.36
  3
Standard
 44
4.0
300

342
11
174
     1
178
     6
175
     1
176
     0
 93
-1056964608
 45
4.0
292
     0
297
     0
 46
4.0
 94
-1056964608
 47
1.0
 49
1.0
140
1.0
293
     1
141
0.0
294
     1
177
     0
142
1.0
295
     0
296
     0
143
0.125
271
     0
272
     9
273
     9
  0
MLINESTYLE
  5
18
102
{ACAD_REACTORS
330
17
102
}
330
17
100
AcDbMlineStyle
  2
STANDARD
 70
     0
  3

 62
   256
 51
90.0
 52
90.0
 71
     2
 49
0.5
 62
   256
  6
BYLAYER
 49
-0.5
 62
   256
  6
BYLAYER
  0
ACDBPLACEHOLDER
  5
F
102
{ACAD_REACTORS
330
E
102
}
330
E
  0
SCALE
  5
988
102
{ACAD_REACTORS
330
987
102
}
330
987
100
AcDbScale
 70
     0
300
1:1
140
1.0
141
1.0
290
     1
  0
SCALE
  5
989
102
{ACAD_REACTORS
330
987
102
}
330
987
100
AcDbScale
 70
     0
300
1:2
140
1.0
141
2.0
290
     0
  0
SCALE
  5
98A
102
{ACAD_REACTORS
330
987
102
}
330
987
100
AcDbScale
 70
     0
300
1:4
140
1.0
141
4.0
290
     0
  0
SCALE
  5
98B
102
{ACAD_REACTORS
330
987
102
}
330
987
100
AcDbScale
 70
     0
300
1:5
140
1.0
141
5.0
290
     0
  0
SCALE
  5
98C
102
{ACAD_REACTORS
330
987
102
}
330
987
100
AcDbScale
 70
     0
300
1:8
140
1.0
141
8.0
290
     0
  0
SCALE
  5
98D
102
{ACAD_REACTORS
330
987
102
}
330
987
100
AcDbScale
 70
     0
300
1:10
140
1.0
141
10.0
290
     0
  0
SCALE
  5
98E
102
{ACAD_REACTORS
330
987
102
}
330
987
100
AcDbScale
 70
     0
300
1:16
140
1.0
141
16.0
290
     0
  0
SCALE
  5
98F
102
{ACAD_REACTORS
330
987
102
}
330
987
100
AcDbScale
 70
     0
300
1:20
140
1.0
141
20.0
290
     0
  0
SCALE
  5
990
102
{ACAD_REACTORS
330
987
102
}
330
987
100
AcDbScale
 70
     0
300
1:30
140
1.0
141
30.0
290
     0
  0
SCALE
  5
991
102
{ACAD_REACTORS
330
987
102
}
330
987
100
AcDbScale
 70
     0
300
1:40
140
1.0
141
40.0
290
     0
  0
SCALE
  5
992
102
{ACAD_REACTORS
330
987
102
}
330
987
100
AcDbScale
 70
     0
300
1:50
140
1.0
141
50.0
290
     0
  0
SCALE
  5
993
102
{ACAD_REACTORS
330
987
102
}
330
987
100
AcDbScale
 70
     0
300
1:100
140
1.0
141
100.0
290
     0
  0
SCALE
  5
994
102
{ACAD_REACTORS
330
987
102
}
330
987
100
AcDbScale
 70
     0
300
2:1
140
2.0
141
1.0
290
     0
  0
SCALE
  5
995
102
{ACAD_REACTORS
330
987
102
}
330
987
100
AcDbScale
 70
     0
300
4:1
140
4.0
141
1.0
290
     0
  0
SCALE
  5
996
102
{ACAD_REACTORS
330
987
102
}
330
987
100
AcDbScale
 70
     0
300
8:1
140
8.0
141
1.0
290
     0
  0
SCALE
  5
997
102
{ACAD_REACTORS
330
987
102
}
330
987
100
AcDbScale
 70
     0
300
10:1
140
10.0
141
1.0
290
     0
  0
SCALE
  5
998
102
{ACAD_REACTORS
330
987
102
}
330
987
100
AcDbScale
 70
     0
300
100:1
140
100.0
141
1.0
290
     0
  0
ACDBSECTIONVIEWSTYLE
  5
99C
102
{ACAD_XDICTIONARY
360
A35
102
}
102
{ACAD_REACTORS
330
99B
102
}
330
99B
100
AcDbModelDocViewStyle
 70
     0
  3
Metric50
290
     0
100
AcDbSectionViewStyle
 70
     0
 71
     0
 90
      102
 71
     1
340
11
 62
   256
 40
5.0
340
0
340
0
 62
   256
 40
5.0
300
I, O, Q, S, X, Z
 40
10.0
 90
        0
 40
2.5
 90
        0
 71
     2
340
16
 90
       25
 62
   256
340
16
 90
       50
 62
   256
 40
5.0
 40
2.5
 40
5.0
 71
     3
340
11
 62
   256
 40
5.0
 90
        0
 40
15.0
 90
        1
300
%<\AcVar ViewSectionStartId>%-%<\AcVar ViewSectionEndId>% (%<\AcVar ViewScale \f "%sn">%)
 71
     4
 62
   256
 62
   257
300
ANSI31
 40
1.0
 90
        0
290
     0
290
     0
 90
        6
 40
0.0
 40
1.570796326794896
 40
0.2617993877991494
 40
1.308996938995747
 40
-0.2617993877991494
 40
1.832595714594046
  0
TABLESTYLE
  5
2B4
102
{ACAD_XDICTIONARY
360
A02
102
}
102
{ACAD_REACTORS
330
2B3
102
}
330
2B3
100
AcDbTableStyle
280
     0
  3
Standard
 70
     0
 71
     0
 40
1.5
 41
1.5
280
     0
281
     0
  7
Standard
140
4.5
170
     2
 62
     0
 63
     7
283
     0
 90
        4
 91
        0
  1

274
    -2
284
     1
 64
     0
275
    -2
285
     1
 65
     0
276
    -2
286
     1
 66
     0
277
    -2
287
     1
 67
     0
278
    -2
288
     1
 68
     0
279
    -2
289
     1
 69
     0
  7
Standard
140
6.0
170
     5
 62
     0
 63
     7
283
     0
 90
        4
 91
        0
  1

274
    -2
284
     1
 64
     0
275
    -2
285
     1
 65
     0
276
    -2
286
     1
 66
     0
277
    -2
287
     1
 67
     0
278
    -2
288
     1
 68
     0
279
    -2
289
     1
 69
     0
  7
Standard
140
4.5
170
     5
 62
     0
 63
     7
283
     0
 90
        4
 91
        0
  1

274
    -2
284
     1
 64
     0
275
    -2
285
     1
 65
     0
276
    -2
286
     1
 66
     0
277
    -2
287
     1
 67
     0
278
    -2
288
     1
 68
     0
279
    -2
289
     1
 69
     0
  0
VISUALSTYLE
  5
974
102
{ACAD_XDICTIONARY
360
A0F
102
}
102
{ACAD_REACTORS
330
96E
102
}
330
96E
100
AcDbVisualStyle
  2
2dWireframe
 70
     4
177
     2
291
     0
 71
     0
176
     1
 72
     2
176
     1
 73
     0
176
     1
 90
        0
176
     1
 40
0.6
176
     1
 41
30.0
176
     1
 63
     7
421
 16777215
176
     1
 74
     1
176
     1
 91
        4
176
     1
 64
     7
176
     1
 65
   257
176
     1
 75
     1
176
     1
175
     1
176
     1
 42
1.0
176
     1
 92
        0
176
     1
 66
   257
176
     1
 43
1.0
176
     1
 76
     1
176
     1
 77
     6
176
     1
 78
     2
176
     1
 67
     7
176
     1
 79
     5
176
     1
170
     0
176
     1
171
     0
176
     1
290
     0
176
     1
 93
        1
176
     1
 44
0.0
176
     1
173
     0
176
     1
1001
ACAD
1000
AcDbSavedByObjectVersion
1070
     0
  0
VISUALSTYLE
  5
973
102
{ACAD_XDICTIONARY
360
A0D
102
}
102
{ACAD_REACTORS
330
96E
102
}
330
96E
100
AcDbVisualStyle
  2
Basic
 70
     7
177
     2
291
     1
 71
     1
176
     1
 72
     0
176
     1
 73
     1
176
     1
 90
        0
176
     1
 40
0.6
176
     1
 41
30.0
176
     1
 63
     7
421
 16777215
176
     1
 74
     0
176
     1
 91
        4
176
     1
 64
     7
176
     1
 65
   257
176
     1
 75
     1
176
     1
175
     1
176
     1
 42
1.0
176
     1
 92
        8
176
     1
 66
     7
176
     1
 43
1.0
176
     1
 76
     1
176
     1
 77
     6
176
     1
 78
     2
176
     1
 67
     7
176
     1
 79
     5
176
     1
170
     0
176
     1
171
     0
176
     1
290
     0
176
     1
 93
        1
176
     1
 44
0.0
176
     1
173
     0
176
     1
1001
ACAD
1000
AcDbSavedByObjectVersion
1070
     0
  0
VISUALSTYLE
  5
97A
102
{ACAD_XDICTIONARY
360
A1B
102
}
102
{ACAD_REACTORS
330
96E
102
}
330
96E
100
AcDbVisualStyle
  2
Brighten
 70
    12
177
     2
291
     1
 71
     2
176
     1
 72
     2
176
     1
 73
     0
176
     1
 90
        0
176
     1
 40
0.6
176
     1
 41
30.0
176
     1
 63
     7
421
 16777215
176
     1
 74
     1
176
     1
 91
        4
176
     1
 64
     7
176
     1
 65
   257
176
     1
 75
     1
176
     1
175
     1
176
     1
 42
1.0
176
     1
 92
        8
176
     1
 66
     7
176
     1
 43
1.0
176
     1
 76
     1
176
     1
 77
     6
176
     1
 78
     2
176
     1
 67
     7
176
     1
 79
     5
176
     1
170
     0
176
     1
171
     0
176
     1
290
     0
176
     1
 93
        1
176
     1
 44
50.0
176
     1
173
     0
176
     1
1001
ACAD
1000
AcDbSavedByObjectVersion
1070
     0
  0
VISUALSTYLE
  5
97E
102
{ACAD_XDICTIONARY
360
A23
102
}
102
{ACAD_REACTORS
330
96E
102
}
330
96E
100
AcDbVisualStyle
  2
ColorChange
 70
    16
177
     2
291
     1
 71
     2
176
     1
 72
     2
176
     1
 73
     3
176
     1
 90
        0
176
     1
 40
0.6
176
     1
 41
30.0
176
     1
 63
     8
421
  8421504
176
     1
 74
     1
176
     1
 91
        4
176
     1
 64
     7
176
     1
 65
   257
176
     1
 75
     1
176
     1
175
     1
176
     1
 42
1.0
176
     1
 92
        8
176
     1
 66
     8
424
  8421504
176
     1
 43
1.0
176
     1
 76
     1
176
     1
 77
     6
176
     1
 78
     2
176
     1
 67
     7
176
     1
 79
     5
176
     1
170
     0
176
     1
171
     0
176
     1
290
     0
176
     1
 93
        1
176
     1
 44
0.0
176
     1
173
     0
176
     1
1001
ACAD
1000
AcDbSavedByObjectVersion
1070
     0
  0
VISUALSTYLE
  5
977
102
{ACAD_XDICTIONARY
360
A15
102
}
102
{ACAD_REACTORS
330
96E
102
}
330
96E
100
AcDbVisualStyle
  2
Conceptual
 70
     9
177
     2
291
     0
 71
     3
176
     1
 72
     2
176
     1
 73
     0
176
     1
 90
        0
176
     1
 40
0.6
176
     1
 41
30.0
176
     1
 63
     7
421
 16777215
176
     1
 74
     2
176
     1
 91
        2
176
     1
 64
     7
176
     1
 65
   257
176
     1
 75
     1
176
     1
175
     1
176
     1
 42
179.0
176
     1
 92
        8
176
     1
 66
     7
176
     1
 43
1.0
176
     1
 76
     1
176
     1
 77
     6
176
     1
 78
     2
176
     1
 67
     7
176
     1
 79
     3
176
     1
170
     0
176
     1
171
     0
176
     1
290
     0
176
     1
 93
        1
176
     1
 44
0.0
176
     1
173
     0
176
     1
1001
ACAD
1000
AcDbSavedByObjectVersion
1070
     0
  0
VISUALSTYLE
  5
979
102
{ACAD_XDICTIONARY
360
A19
102
}
102
{ACAD_REACTORS
330
96E
102
}
330
96E
100
AcDbVisualStyle
  2
Dim
 70
    11
177
     2
291
     1
 71
     2
176
     1
 72
     2
176
     1
 73
     0
176
     1
 90
        0
176
     1
 40
0.6
176
     1
 41
30.0
176
     1
 63
     7
421
 16777215
176
     1
 74
     1
176
     1
 91
        4
176
     1
 64
     7
176
     1
 65
   257
176
     1
 75
     1
176
     1
175
     1
176
     1
 42
1.0
176
     1
 92
        8
176
     1
 66
     7
176
     1
 43
1.0
176
     1
 76
     1
176
     1
 77
     6
176
     1
 78
     2
176
     1
 67
     7
176
     1
 79
     5
176
     1
170
     0
176
     1
171
     0
176
     1
290
     0
176
     1
 93
        1
176
     1
 44
-50.0
176
     1
173
     0
176
     1
1001
ACAD
1000
AcDbSavedByObjectVersion
1070
     0
  0
VISUALSTYLE
  5
986
102
{ACAD_XDICTIONARY
360
A33
102
}
102
{ACAD_REACTORS
330
96E
102
}
330
96E
100
AcDbVisualStyle
  2
EdgeColorOff
 70
    22
177
     2
291
     1
 71
     2
176
     0
 72
     2
176
     0
 73
     0
176
     0
 90
        0
176
     0
 40
0.6
176
     0
 41
30.0
176
     0
 63
     7
421
 16777215
176
     0
 74
     1
176
     0
 91
        4
176
     0
 64
     7
176
     0
 65
   257
176
     0
 75
     1
176
     0
175
     1
176
     0
 42
1.0
176
     0
 92
        8
176
     2
 66
     7
176
     0
 43
1.0
176
     0
 76
     1
176
     0
 77
     6
176
     0
 78
     2
176
     0
 67
     7
176
     0
 79
     5
176
     0
170
     0
176
     0
171
     0
176
     0
290
     0
176
     0
 93
        1
176
     0
 44
0.0
176
     0
173
     0
176
     0
1001
ACAD
1000
AcDbSavedByObjectVersion
1070
     0
  0
VISUALSTYLE
  5
97D
102
{ACAD_XDICTIONARY
360
A21
102
}
102
{ACAD_REACTORS
330
96E
102
}
330
96E
100
AcDbVisualStyle
  2
Facepattern
 70
    15
177
     2
291
     1
 71
     2
176
     1
 72
     2
176
     1
 73
     0
176
     1
 90
        0
176
     1
 40
0.6
176
     1
 41
30.0
176
     1
 63
     7
421
 16777215
176
     1
 74
     1
176
     1
 91
        4
176
     1
 64
     7
176
     1
 65
   257
176
     1
 75
     1
176
     1
175
     1
176
     1
 42
1.0
176
     1
 92
        8
176
     1
 66
     7
176
     1
 43
1.0
176
     1
 76
     1
176
     1
 77
     6
176
     1
 78
     2
176
     1
 67
     7
176
     1
 79
     5
176
     1
170
     0
176
     1
171
     0
176
     1
290
     0
176
     1
 93
        1
176
     1
 44
0.0
176
     1
173
     0
176
     1
1001
ACAD
1000
AcDbSavedByObjectVersion
1070
     0
  0
VISUALSTYLE
  5
96F
102
{ACAD_XDICTIONARY
360
A05
102
}
102
{ACAD_REACTORS
330
96E
102
}
330
96E
100
AcDbVisualStyle
  2
Flat
 70
     0
177
     2
291
     1
 71
     2
176
     1
 72
     1
176
     1
 73
     1
176
     1
 90
        2
176
     1
 40
0.6
176
     1
 41
30.0
176
     1
 63
     7
421
 16777215
176
     1
 74
     0
176
     1
 91
        0
176
     1
 64
     7
176
     1
 65
   257
176
     1
 75
     1
176
     1
175
     1
176
     1
 42
1.0
176
     1
 92
        8
176
     1
 66
     7
176
     1
 43
1.0
176
     1
 76
     1
176
     1
 77
     6
176
     1
 78
     2
176
     1
 67
     7
176
     1
 79
     5
176
     1
170
     0
176
     1
171
     0
176
     1
290
     0
176
     1
 93
       13
176
     1
 44
0.0
176
     1
173
     0
176
     1
1001
ACAD
1000
AcDbSavedByObjectVersion
1070
     0
  0
VISUALSTYLE
  5
970
102
{ACAD_XDICTIONARY
360
A07
102
}
102
{ACAD_REACTORS
330
96E
102
}
330
96E
100
AcDbVisualStyle
  2
FlatWithEdges
 70
     1
177
     2
291
     1
 71
     2
176
     1
 72
     1
176
     1
 73
     1
176
     1
 90
        2
176
     1
 40
0.6
176
     1
 41
30.0
176
     1
 63
     7
421
 16777215
176
     1
 74
     1
176
     1
 91
        0
176
     1
 64
     7
176
     1
 65
   257
176
     1
 75
     1
176
     1
175
     1
176
     1
 42
1.0
176
     1
 92
        0
176
     1
 66
   257
176
     1
 43
1.0
176
     1
 76
     1
176
     1
 77
     6
176
     1
 78
     2
176
     1
 67
     7
176
     1
 79
     5
176
     1
170
     0
176
     1
171
     0
176
     1
290
     0
176
     1
 93
       13
176
     1
 44
0.0
176
     1
173
     0
176
     1
1001
ACAD
1000
AcDbSavedByObjectVersion
1070
     0
  0
VISUALSTYLE
  5
971
102
{ACAD_XDICTIONARY
360
A09
102
}
102
{ACAD_REACTORS
330
96E
102
}
330
96E
100
AcDbVisualStyle
  2
Gouraud
 70
     2
177
     2
291
     1
 71
     2
176
     1
 72
     2
176
     1
 73
     1
176
     1
 90
        2
176
     1
 40
0.6
176
     1
 41
30.0
176
     1
 63
     7
421
 16777215
176
     1
 74
     0
176
     1
 91
        0
176
     1
 64
     7
176
     1
 65
   257
176
     1
 75
     1
176
     1
175
     1
176
     1
 42
1.0
176
     1
 92
        0
176
     1
 66
     7
176
     1
 43
1.0
176
     1
 76
     1
176
     1
 77
     6
176
     1
 78
     2
176
     1
 67
     7
176
     1
 79
     5
176
     1
170
     0
176
     1
171
     0
176
     1
290
     0
176
     1
 93
       13
176
     1
 44
0.0
176
     1
173
     0
176
     1
1001
ACAD
1000
AcDbSavedByObjectVersion
1070
     0
  0
VISUALSTYLE
  5
972
102
{ACAD_XDICTIONARY
360
A0B
102
}
102
{ACAD_REACTORS
330
96E
102
}
330
96E
100
AcDbVisualStyle
  2
GouraudWithEdges
 70
     3
177
     2
291
     1
 71
     2
176
     1
 72
     2
176
     1
 73
     1
176
     1
 90
        2
176
     1
 40
0.6
176
     1
 41
30.0
176
     1
 63
     7
421
 16777215
176
     1
 74
     1
176
     1
 91
        0
176
     1
 64
     7
176
     1
 65
   257
176
     1
 75
     1
176
     1
175
     1
176
     1
 42
1.0
176
     1
 92
        0
176
     1
 66
   257
176
     1
 43
1.0
176
     1
 76
     1
176
     1
 77
     6
176
     1
 78
     2
176
     1
 67
     7
176
     1
 79
     5
176
     1
170
     0
176
     1
171
     0
176
     1
290
     0
176
     1
 93
       13
176
     1
 44
0.0
176
     1
173
     0
176
     1
1001
ACAD
1000
AcDbSavedByObjectVersion
1070
     0
  0
VISUALSTYLE
  5
976
102
{ACAD_XDICTIONARY
360
A13
102
}
102
{ACAD_REACTORS
330
96E
102
}
330
96E
100
AcDbVisualStyle
  2
Hidden
 70
     6
177
     2
291
     0
 71
     1
176
     1
 72
     2
176
     1
 73
     2
176
     1
 90
        0
176
     1
 40
0.6
176
     1
 41
30.0
176
     1
 63
     7
421
 16777215
176
     1
 74
     2
176
     1
 91
        2
176
     1
 64
     7
176
     1
 65
   257
176
     1
 75
     2
176
     1
175
     1
176
     1
 42
40.0
176
     1
 92
        0
176
     1
 66
   257
176
     1
 43
1.0
176
     1
 76
     1
176
     1
 77
     6
176
     1
 78
     2
176
     1
 67
     7
176
     1
 79
     3
176
     1
170
     0
176
     1
171
     0
176
     1
290
     0
176
     1
 93
        1
176
     1
 44
0.0
176
     1
173
     0
176
     1
1001
ACAD
1000
AcDbSavedByObjectVersion
1070
     0
  0
VISUALSTYLE
  5
984
102
{ACAD_XDICTIONARY
360
A2F
102
}
102
{ACAD_REACTORS
330
96E
102
}
330
96E
100
AcDbVisualStyle
  2
JitterOff
 70
    20
177
     2
291
     1
 71
     2
176
     0
 72
     2
176
     0
 73
     0
176
     0
 90
        0
176
     0
 40
0.6
176
     0
 41
30.0
176
     0
 63
     7
421
 16777215
176
     0
 74
     1
176
     0
 91
        4
176
     0
 64
     7
176
     0
 65
   257
176
     0
 75
     1
176
     0
175
     1
176
     0
 42
1.0
176
     0
 92
       10
176
     2
 66
     7
176
     0
 43
1.0
176
     0
 76
     1
176
     0
 77
     6
176
     0
 78
     2
176
     0
 67
     7
176
     0
 79
     5
176
     0
170
     0
176
     0
171
     0
176
     0
290
     0
176
     0
 93
        1
176
     0
 44
0.0
176
     0
173
     0
176
     0
1001
ACAD
1000
AcDbSavedByObjectVersion
1070
     0
  0
VISUALSTYLE
  5
97C
102
{ACAD_XDICTIONARY
360
A1F
102
}
102
{ACAD_REACTORS
330
96E
102
}
330
96E
100
AcDbVisualStyle
  2
Linepattern
 70
    14
177
     2
291
     1
 71
     2
176
     1
 72
     2
176
     1
 73
     0
176
     1
 90
        0
176
     1
 40
0.6
176
     1
 41
30.0
176
     1
 63
     7
421
 16777215
176
     1
 74
     1
176
     1
 91
        4
176
     1
 64
     7
176
     1
 65
   257
176
     1
 75
     7
176
     1
175
     7
176
     1
 42
1.0
176
     1
 92
        8
176
     1
 66
     7
176
     1
 43
1.0
176
     1
 76
     1
176
     1
 77
     6
176
     1
 78
     2
176
     1
 67
     7
176
     1
 79
     5
176
     1
170
     0
176
     1
171
     0
176
     1
290
     0
176
     1
 93
        1
176
     1
 44
0.0
176
     1
173
     0
176
     1
1001
ACAD
1000
AcDbSavedByObjectVersion
1070
     0
  0
VISUALSTYLE
  5
985
102
{ACAD_XDICTIONARY
360
A31
102
}
102
{ACAD_REACTORS
330
96E
102
}
330
96E
100
AcDbVisualStyle
  2
OverhangOff
 70
    21
177
     2
291
     1
 71
     2
176
     0
 72
     2
176
     0
 73
     0
176
     0
 90
        0
176
     0
 40
0.6
176
     0
 41
30.0
176
     0
 63
     7
421
 16777215
176
     0
 74
     1
176
     0
 91
        4
176
     0
 64
     7
176
     0
 65
   257
176
     0
 75
     1
176
     0
175
     1
176
     0
 42
1.0
176
     0
 92
        9
176
     2
 66
     7
176
     0
 43
1.0
176
     0
 76
     1
176
     0
 77
     6
176
     0
 78
     2
176
     0
 67
     7
176
     0
 79
     5
176
     0
170
     0
176
     0
171
     0
176
     0
290
     0
176
     0
 93
        1
176
     0
 44
0.0
176
     0
173
     0
176
     0
1001
ACAD
1000
AcDbSavedByObjectVersion
1070
     0
  0
VISUALSTYLE
  5
978
102
{ACAD_XDICTIONARY
360
A17
102
}
102
{ACAD_REACTORS
330
96E
102
}
330
96E
100
AcDbVisualStyle
  2
Realistic
 70
     8
177
     2
291
     0
 71
     2
176
     1
 72
     3
176
     1
 73
     0
176
     1
 90
        2
176
     1
 40
0.6
176
     1
 41
30.0
176
     1
 63
     7
421
 16777215
176
     1
 74
     0
176
     1
 91
        0
176
     1
 64
     7
176
     1
 65
   257
176
     1
 75
     1
176
     1
175
     1
176
     1
 42
1.0
176
     1
 92
        8
176
     1
 66
   257
176
     1
 43
1.0
176
     1
 76
     1
176
     1
 77
     6
176
     1
 78
     2
176
     1
 67
     7
176
     1
 79
     3
176
     1
170
     0
176
     1
171
     0
176
     1
290
     0
176
     1
 93
       13
176
     1
 44
0.0
176
     1
173
     0
176
     1
1001
ACAD
1000
AcDbSavedByObjectVersion
1070
     0
  0
VISUALSTYLE
  5
983
102
{ACAD_XDICTIONARY
360
A2D
102
}
102
{ACAD_REACTORS
330
96E
102
}
330
96E
100
AcDbVisualStyle
  2
Shaded
 70
    27
177
     2
291
     0
 71
     2
176
     1
 72
     2
176
     1
 73
     1
176
     1
 90
        2
176
     1
 40
0.6
176
     1
 41
30.0
176
     1
 63
     7
421
 16777215
176
     1
 74
     0
176
     1
 91
        4
176
     1
 64
     7
176
     1
 65
   257
176
     1
 75
     1
176
     1
175
     1
176
     1
 42
1.0
176
     1
 92
        8
176
     1
 66
   257
176
     1
 43
1.0
176
     1
 76
     1
176
     1
 77
     6
176
     1
 78
     2
176
     1
 67
     8
425
  7895160
176
     1
 79
     3
176
     1
170
     0
176
     1
171
     0
176
     1
290
     0
176
     1
 93
        5
176
     1
 44
0.0
176
     1
173
     0
176
     1
1001
ACAD
1000
AcDbSavedByObjectVersion
1070
     0
  0
VISUALSTYLE
  5
982
102
{ACAD_XDICTIONARY
360
A2B
102
}
102
{ACAD_REACTORS
330
96E
102
}
330
96E
100
AcDbVisualStyle
  2
Shaded with edges
 70
    26
177
     2
291
     0
 71
     2
176
     1
 72
     2
176
     1
 73
     1
176
     1
 90
        2
176
     1
 40
0.6
176
     1
 41
30.0
176
     1
 63
     7
421
 16777215
176
     1
 74
     1
176
     1
 91
       10
176
     1
 64
     7
176
     1
 65
   257
176
     1
 75
     2
176
     1
175
     1
176
     1
 42
1.0
176
     1
 92
        8
176
     1
 66
   257
176
     1
 43
1.0
176
     1
 76
     1
176
     1
 77
     6
176
     1
 78
     2
176
     1
 67
     7
176
     1
 79
     3
176
     1
170
     0
176
     1
171
     0
176
     1
290
     0
176
     1
 93
        5
176
     1
 44
0.0
176
     1
173
     0
176
     1
1001
ACAD
1000
AcDbSavedByObjectVersion
1070
     0
  0
VISUALSTYLE
  5
97F
102
{ACAD_XDICTIONARY
360
A25
102
}
102
{ACAD_REACTORS
330
96E
102
}
330
96E
100
AcDbVisualStyle
  2
Shades of Gray
 70
    23
177
     2
291
     0
 71
     2
176
     1
 72
     2
176
     1
 73
     3
176
     1
 90
        0
176
     1
 40
0.6
176
     1
 41
30.0
176
     1
 63
     7
421
 16777215
176
     1
 74
     2
176
     1
 91
        2
176
     1
 64
     7
176
     1
 65
     7
176
     1
 75
     1
176
     1
175
     1
176
     1
 42
40.0
176
     1
 92
        8
176
     1
 66
     7
176
     1
 43
1.0
176
     1
 76
     1
176
     1
 77
     6
176
     1
 78
     2
176
     1
 67
     7
176
     1
 79
     3
176
     1
170
     0
176
     1
171
     0
176
     1
290
     0
176
     1
 93
        1
176
     1
 44
0.0
176
     1
173
     0
176
     1
1001
ACAD
1000
AcDbSavedByObjectVersion
1070
     0
  0
VISUALSTYLE
  5
980
102
{ACAD_XDICTIONARY
360
A27
102
}
102
{ACAD_REACTORS
330
96E
102
}
330
96E
100
AcDbVisualStyle
  2
Sketchy
 70
    24
177
     2
291
     0
 71
     1
176
     1
 72
     2
176
     1
 73
     2
176
     1
 90
        0
176
     1
 40
0.6
176
     1
 41
30.0
176
     1
 63
     7
421
 16777215
176
     1
 74
     2
176
     1
 91
        2
176
     1
 64
     7
176
     1
 65
     7
176
     1
 75
     1
176
     1
175
     1
176
     1
 42
40.0
176
     1
 92
       11
176
     1
 66
     7
176
     1
 43
1.0
176
     1
 76
     1
176
     1
 77
     6
176
     1
 78
     2
176
     1
 67
     7
176
     1
 79
     6
176
     1
170
     0
176
     1
171
     0
176
     1
290
     0
176
     1
 93
        1
176
     1
 44
0.0
176
     1
173
     0
176
     1
1001
ACAD
1000
AcDbSavedByObjectVersion
1070
     0
  0
VISUALSTYLE
  5
97B
102
{ACAD_XDICTIONARY
360
A1D
102
}
102
{ACAD_REACTORS
330
96E
102
}
330
96E
100
AcDbVisualStyle
  2
Thicken
 70
    13
177
     2
291
     1
 71
     2
176
     1
 72
     2
176
     1
 73
     0
176
     1
 90
        0
176
     1
 40
0.6
176
     1
 41
30.0
176
     1
 63
     7
421
 16777215
176
     1
 74
     1
176
     1
 91
        4
176
     1
 64
     7
176
     1
 65
   257
176
     1
 75
     1
176
     1
175
     1
176
     1
 42
1.0
176
     1
 92
       12
176
     1
 66
     7
176
     1
 43
1.0
176
     1
 76
     1
176
     1
 77
     6
176
     1
 78
     2
176
     1
 67
     7
176
     1
 79
     5
176
     1
170
     0
176
     1
171
     0
176
     1
290
     0
176
     1
 93
        1
176
     1
 44
0.0
176
     1
173
     0
176
     1
1001
ACAD
1000
AcDbSavedByObjectVersion
1070
     0
  0
VISUALSTYLE
  5
975
102
{ACAD_XDICTIONARY
360
A11
102
}
102
{ACAD_REACTORS
330
96E
102
}
330
96E
100
AcDbVisualStyle
  2
Wireframe
 70
     5
177
     2
291
     0
 71
     0
176
     1
 72
     2
176
     1
 73
     0
176
     1
 90
        0
176
     1
 40
0.6
176
     1
 41
30.0
176
     1
 63
     7
421
 16777215
176
     1
 74
     1
176
     1
 91
        4
176
     1
 64
     7
176
     1
 65
   257
176
     1
 75
     1
176
     1
175
     1
176
     1
 42
1.0
176
     1
 92
        0
176
     1
 66
   257
176
     1
 43
1.0
176
     1
 76
     1
176
     1
 77
     6
176
     1
 78
     2
176
     1
 67
     7
176
     1
 79
     3
176
     1
170
     0
176
     1
171
     0
176
     1
290
     0
176
     1
 93
        1
176
     1
 44
0.0
176
     1
173
     0
176
     1
1001
ACAD
1000
AcDbSavedByObjectVersion
1070
     0
  0
VISUALSTYLE
  5
981
102
{ACAD_XDICTIONARY
360
A29
102
}
102
{ACAD_REACTORS
330
96E
102
}
330
96E
100
AcDbVisualStyle
  2
X-Ray
 70
    25
177
     2
291
     0
 71
     2
176
     1
 72
     2
176
     1
 73
     1
176
     1
 90
        1
176
     1
 40
0.5
176
     1
 41
30.0
176
     1
 63
     7
421
 16777215
176
     1
 74
     1
176
     1
 91
        0
176
     1
 64
     7
176
     1
 65
   257
176
     1
 75
     1
176
     1
175
     1
176
     1
 42
1.0
176
     1
 92
        8
176
     1
 66
     7
176
     1
 43
1.0
176
     1
 76
     1
176
     1
 77
     6
176
     1
 78
     2
176
     1
 67
     7
176
     1
 79
     3
176
     1
170
     0
176
     1
171
     0
176
     1
290
     0
176
     1
 93
       13
176
     1
 44
0.0
176
     1
173
     0
176
     1
1001
ACAD
1000
AcDbSavedByObjectVersion
1070
     0
  0
DICTIONARYVAR
  5
9FE
102
{ACAD_REACTORS
330
2B8
102
}
330
2B8
100
DictionaryVariables
280
     0
  1
1:1
  0
DICTIONARYVAR
  5
9FA
102
{ACAD_REACTORS
330
2B8
102
}
330
2B8
100
DictionaryVariables
280
     0
  1
STANDARD
  0
DICTIONARYVAR
  5
2B9
102
{ACAD_REACTORS
330
2B8
102
}
330
2B8
100
DictionaryVariables
280
     0
  1
STANDARD
  0
DICTIONARYVAR
  5
9FB
102
{ACAD_REACTORS
330
2B8
102
}
330
2B8
100
DictionaryVariables
280
     0
  1
Metric50
  0
DICTIONARYVAR
  5
9FC
102
{ACAD_REACTORS
330
2B8
102
}
330
2B8
100
DictionaryVariables
280
     0
  1
Metric50
  0
DICTIONARYVAR
  5
2BA
102
{ACAD_REACTORS
330
2B8
102
}
330
2B8
100
DictionaryVariables
280
     0
  1
1
  0
DICTIONARYVAR
  5
A00
102
{ACAD_REACTORS
330
2B8
102
}
330
2B8
100
DictionaryVariables
280
     0
  1
1
  0
DICTIONARYVAR
  5
A01
102
{ACAD_REACTORS
330
2B8
102
}
330
2B8
100
DictionaryVariables
280
     0
  1
15
  0
DICTIONARYVAR
  5
9FF
102
{ACAD_REACTORS
330
2B8
102
}
330
2B8
100
DictionaryVariables
280
     0
  1
0
  0
DICTIONARYVAR
  5
9FD
102
{ACAD_REACTORS
330
2B8
102
}
330
2B8
100
DictionaryVariables
280
     0
  1
0
  0
DICTIONARYVAR
  5
2BB
102
{ACAD_REACTORS
330
2B8
102
}
330
2B8
100
DictionaryVariables
280
     0
  1

  0
DICTIONARY
  5
A37
330
99E
100
AcDbDictionary
280
     1
281
     1
  3
ACAD_XREC_ROUNDTRIP
360
A38
  0
DICTIONARY
  5
95F
330
95E
100
AcDbDictionary
280
     1
281
     1
  3
BUMPTILE
360
961
  3
DIFFUSETILE
360
960
  3
OPACITYTILE
360
964
  3
REFLECTIONTILE
360
963
  3
REFRACTIONTILE
360
965
  3
SPECULARTILE
360
962
  0
DICTIONARY
  5
957
330
956
100
AcDbDictionary
280
     1
281
     1
  3
BUMPTILE
360
959
  3
DIFFUSETILE
360
958
  3
OPACITYTILE
360
95C
  3
REFLECTIONTILE
360
95B
  3
REFRACTIONTILE
360
95D
  3
SPECULARTILE
360
95A
  0
DICTIONARY
  5
967
330
966
100
AcDbDictionary
280
     1
281
     1
  3
BUMPTILE
360
969
  3
DIFFUSETILE
360
968
  3
OPACITYTILE
360
96C
  3
REFLECTIONTILE
360
96B
  3
REFRACTIONTILE
360
96D
  3
SPECULARTILE
360
96A
  0
DICTIONARY
  5
A35
330
99C
100
AcDbDictionary
280
     1
281
     1
  3
ACAD_XREC_ROUNDTRIP
360
A36
  0
DICTIONARY
  5
A02
330
2B4
100
AcDbDictionary
280
     1
281
     1
  3
ACAD_ROUNDTRIP_2008_TABLESTYLE_CELLSTYLEMAP
360
A03
  0
DICTIONARY
  5
A0F
330
974
100
AcDbDictionary
280
     1
281
     1
  3
ACAD_XREC_ROUNDTRIP
360
A10
  0
DICTIONARY
  5
A0D
330
973
100
AcDbDictionary
280
     1
281
     1
  3
ACAD_XREC_ROUNDTRIP
360
A0E
  0
DICTIONARY
  5
A1B
330
97A
100
AcDbDictionary
280
     1
281
     1
  3
ACAD_XREC_ROUNDTRIP
360
A1C
  0
DICTIONARY
  5
A23
330
97E
100
AcDbDictionary
280
     1
281
     1
  3
ACAD_XREC_ROUNDTRIP
360
A24
  0
DICTIONARY
  5
A15
330
977
100
AcDbDictionary
280
     1
281
     1
  3
ACAD_XREC_ROUNDTRIP
360
A16
  0
DICTIONARY
  5
A19
330
979
100
AcDbDictionary
280
     1
281
     1
  3
ACAD_XREC_ROUNDTRIP
360
A1A
  0
DICTIONARY
  5
A33
330
986
100
AcDbDictionary
280
     1
281
     1
  3
ACAD_XREC_ROUNDTRIP
360
A34
  0
DICTIONARY
  5
A21
330
97D
100
AcDbDictionary
280
     1
281
     1
  3
ACAD_XREC_ROUNDTRIP
360
A22
  0
DICTIONARY
  5
A05
330
96F
100
AcDbDictionary
280
     1
281
     1
  3
ACAD_XREC_ROUNDTRIP
360
A06
  0
DICTIONARY
  5
A07
330
970
100
AcDbDictionary
280
     1
281
     1
  3
ACAD_XREC_ROUNDTRIP
360
A08
  0
DICTIONARY
  5
A09
330
971
100
AcDbDictionary
280
     1
281
     1
  3
ACAD_XREC_ROUNDTRIP
360
A0A
  0
DICTIONARY
  5
A0B
330
972
100
AcDbDictionary
280
     1
281
     1
  3
ACAD_XREC_ROUNDTRIP
360
A0C
  0
DICTIONARY
  5
A13
330
976
100
AcDbDictionary
280
     1
281
     1
  3
ACAD_XREC_ROUNDTRIP
360
A14
  0
DICTIONARY
  5
A2F
330
984
100
AcDbDictionary
280
     1
281
     1
  3
ACAD_XREC_ROUNDTRIP
360
A30
  0
DICTIONARY
  5
A1F
330
97C
100
AcDbDictionary
280
     1
281
     1
  3
ACAD_XREC_ROUNDTRIP
360
A20
  0
DICTIONARY
  5
A31
330
985
100
AcDbDictionary
280
     1
281
     1
  3
ACAD_XREC_ROUNDTRIP
360
A32
  0
DICTIONARY
  5
A17
330
978
100
AcDbDictionary
280
     1
281
     1
  3
ACAD_XREC_ROUNDTRIP
360
A18
  0
DICTIONARY
  5
A2D
330
983
100
AcDbDictionary
280
     1
281
     1
  3
ACAD_XREC_ROUNDTRIP
360
A2E
  0
DICTIONARY
  5
A2B
330
982
100
AcDbDictionary
280
     1
281
     1
  3
ACAD_XREC_ROUNDTRIP
360
A2C
  0
DICTIONARY
  5
A25
330
97F
100
AcDbDictionary
280
     1
281
     1
  3
ACAD_XREC_ROUNDTRIP
360
A26
  0
DICTIONARY
  5
A27
330
980
100
AcDbDictionary
280
     1
281
     1
  3
ACAD_XREC_ROUNDTRIP
360
A28
  0
DICTIONARY
  5
A1D
330
97B
100
AcDbDictionary
280
     1
281
     1
  3
ACAD_XREC_ROUNDTRIP
360
A1E
  0
DICTIONARY
  5
A11
330
975
100
AcDbDictionary
280
     1
281
     1
  3
ACAD_XREC_ROUNDTRIP
360
A12
  0
DICTIONARY
  5
A29
330
981
100
AcDbDictionary
280
     1
281
     1
  3
ACAD_XREC_ROUNDTRIP
360
A2A
  0
XRECORD
  5
A38
102
{ACAD_REACTORS
330
A37
102
}
330
A37
100
AcDbXrecord
280
     1
102
DISPLAYNAME
  1
Metric50
102
FLAGS
 90
        0
  0
XRECORD
  5
961
102
{ACAD_REACTORS
330
95F
102
}
330
95F
100
AcDbXrecord
280
     1
270
     1
271
     1
  0
XRECORD
  5
960
102
{ACAD_REACTORS
330
95F
102
}
330
95F
100
AcDbXrecord
280
     1
270
     1
271
     1
  0
XRECORD
  5
964
102
{ACAD_REACTORS
330
95F
102
}
330
95F
100
AcDbXrecord
280
     1
270
     1
271
     1
  0
XRECORD
  5
963
102
{ACAD_REACTORS
330
95F
102
}
330
95F
100
AcDbXrecord
280
     1
270
     1
271
     1
  0
XRECORD
  5
965
102
{ACAD_REACTORS
330
95F
102
}
330
95F
100
AcDbXrecord
280
     1
270
     1
271
     1
  0
XRECORD
  5
962
102
{ACAD_REACTORS
330
95F
102
}
330
95F
100
AcDbXrecord
280
     1
270
     1
271
     1
  0
XRECORD
  5
959
102
{ACAD_REACTORS
330
957
102
}
330
957
100
AcDbXrecord
280
     1
270
     1
271
     1
  0
XRECORD
  5
958
102
{ACAD_REACTORS
330
957
102
}
330
957
100
AcDbXrecord
280
     1
270
     1
271
     1
  0
XRECORD
  5
95C
102
{ACAD_REACTORS
330
957
102
}
330
957
100
AcDbXrecord
280
     1
270
     1
271
     1
  0
XRECORD
  5
95B
102
{ACAD_REACTORS
330
957
102
}
330
957
100
AcDbXrecord
280
     1
270
     1
271
     1
  0
XRECORD
  5
95D
102
{ACAD_REACTORS
330
957
102
}
330
957
100
AcDbXrecord
280
     1
270
     1
271
     1
  0
XRECORD
  5
95A
102
{ACAD_REACTORS
330
957
102
}
330
957
100
AcDbXrecord
280
     1
270
     1
271
     1
  0
XRECORD
  5
969
102
{ACAD_REACTORS
330
967
102
}
330
967
100
AcDbXrecord
280
     1
270
     1
271
     1
  0
XRECORD
  5
968
102
{ACAD_REACTORS
330
967
102
}
330
967
100
AcDbXrecord
280
     1
270
     1
271
     1
  0
XRECORD
  5
96C
102
{ACAD_REACTORS
330
967
102
}
330
967
100
AcDbXrecord
280
     1
270
     1
271
     1
  0
XRECORD
  5
96B
102
{ACAD_REACTORS
330
967
102
}
330
967
100
AcDbXrecord
280
     1
270
     1
271
     1
  0
XRECORD
  5
96D
102
{ACAD_REACTORS
330
967
102
}
330
967
100
AcDbXrecord
280
     1
270
     1
271
     1
  0
XRECORD
  5
96A
102
{ACAD_REACTORS
330
967
102
}
330
967
100
AcDbXrecord
280
     1
270
     1
271
     1
  0
XRECORD
  5
A36
102
{ACAD_REACTORS
330
A35
102
}
330
A35
100
AcDbXrecord
280
     1
102
DISPLAYNAME
  1
Metric50
102
FLAGS
 90
        0
  0
CELLSTYLEMAP
  5
A03
102
{ACAD_REACTORS
330
A02
102
}
330
A02
100
AcDbCellStyleMap
 90
        3
300
CELLSTYLE
  1
TABLEFORMAT_BEGIN
 90
        5
170
     1
 91
        0
 92
    32768
 62
   257
 93
        1
300
CONTENTFORMAT
  1
CONTENTFORMAT_BEGIN
 90
        0
 91
        0
 92
        4
 93
        0
300

 40
0.0
140
1.0
 94
        5
 62
     0
340
11
144
6.0
309
CONTENTFORMAT_END
171
     1
301
MARGIN
  1
CELLMARGIN_BEGIN
 40
1.5
 40
1.5
 40
1.5
 40
1.5
 40
0.18
 40
0.18
309
CELLMARGIN_END
 94
        6
 95
        1
302
GRIDFORMAT
  1
GRIDFORMAT_BEGIN
 90
        0
 91
        1
 62
     0
 92
       -2
340
0
 93
        0
 40
0.045
309
GRIDFORMAT_END
 95
        2
302
GRIDFORMAT
  1
GRIDFORMAT_BEGIN
 90
        0
 91
        1
 62
     0
 92
       -2
340
0
 93
        0
 40
0.045
309
GRIDFORMAT_END
 95
        4
302
GRIDFORMAT
  1
GRIDFORMAT_BEGIN
 90
        0
 91
        1
 62
     0
 92
       -2
340
0
 93
        0
 40
0.045
309
GRIDFORMAT_END
 95
        8
302
GRIDFORMAT
  1
GRIDFORMAT_BEGIN
 90
        0
 91
        1
 62
     0
 92
       -2
340
0
 93
        0
 40
0.045
309
GRIDFORMAT_END
 95
       16
302
GRIDFORMAT
  1
GRIDFORMAT_BEGIN
 90
        0
 91
        1
 62
     0
 92
       -2
340
0
 93
        0
 40
0.045
309
GRIDFORMAT_END
 95
       32
302
GRIDFORMAT
  1
GRIDFORMAT_BEGIN
 90
        0
 91
        1
 62
     0
 92
       -2
340
0
 93
        0
 40
0.045
309
GRIDFORMAT_END
309
TABLEFORMAT_END
  1
CELLSTYLE_BEGIN
 90
        1
 91
        1
300
_TITLE
309
CELLSTYLE_END
300
CELLSTYLE
  1
TABLEFORMAT_BEGIN
 90
        5
170
     1
 91
        0
 92
        0
 62
   257
 93
        1
300
CONTENTFORMAT
  1
CONTENTFORMAT_BEGIN
 90
        0
 91
        0
 92
        4
 93
        0
300

 40
0.0
140
1.0
 94
        5
 62
     0
340
11
144
4.5
309
CONTENTFORMAT_END
171
     1
301
MARGIN
  1
CELLMARGIN_BEGIN
 40
1.5
 40
1.5
 40
1.5
 40
1.5
 40
0.18
 40
0.18
309
CELLMARGIN_END
 94
        6
 95
        1
302
GRIDFORMAT
  1
GRIDFORMAT_BEGIN
 90
        0
 91
        1
 62
     0
 92
       -2
340
0
 93
        0
 40
0.045
309
GRIDFORMAT_END
 95
        2
302
GRIDFORMAT
  1
GRIDFORMAT_BEGIN
 90
        0
 91
        1
 62
     0
 92
       -2
340
0
 93
        0
 40
0.045
309
GRIDFORMAT_END
 95
        4
302
GRIDFORMAT
  1
GRIDFORMAT_BEGIN
 90
        0
 91
        1
 62
     0
 92
       -2
340
0
 93
        0
 40
0.045
309
GRIDFORMAT_END
 95
        8
302
GRIDFORMAT
  1
GRIDFORMAT_BEGIN
 90
        0
 91
        1
 62
     0
 92
       -2
340
0
 93
        0
 40
0.045
309
GRIDFORMAT_END
 95
       16
302
GRIDFORMAT
  1
GRIDFORMAT_BEGIN
 90
        0
 91
        1
 62
     0
 92
       -2
340
0
 93
        0
 40
0.045
309
GRIDFORMAT_END
 95
       32
302
GRIDFORMAT
  1
GRIDFORMAT_BEGIN
 90
        0
 91
        1
 62
     0
 92
       -2
340
0
 93
        0
 40
0.045
309
GRIDFORMAT_END
309
TABLEFORMAT_END
  1
CELLSTYLE_BEGIN
 90
        2
 91
        1
300
_HEADER
309
CELLSTYLE_END
300
CELLSTYLE
  1
TABLEFORMAT_BEGIN
 90
        5
170
     1
 91
        0
 92
        0
 62
   257
 93
        1
300
CONTENTFORMAT
  1
CONTENTFORMAT_BEGIN
 90
        0
 91
        0
 92
        4
 93
        0
300

 40
0.0
140
1.0
 94
        2
 62
     0
340
11
144
4.5
309
CONTENTFORMAT_END
171
     1
301
MARGIN
  1
CELLMARGIN_BEGIN
 40
1.5
 40
1.5
 40
1.5
 40
1.5
 40
0.18
 40
0.18
309
CELLMARGIN_END
 94
        6
 95
        1
302
GRIDFORMAT
  1
GRIDFORMAT_BEGIN
 90
        0
 91
        1
 62
     0
 92
       -2
340
0
 93
        0
 40
0.045
309
GRIDFORMAT_END
 95
        2
302
GRIDFORMAT
  1
GRIDFORMAT_BEGIN
 90
        0
 91
        1
 62
     0
 92
       -2
340
0
 93
        0
 40
0.045
309
GRIDFORMAT_END
 95
        4
302
GRIDFORMAT
  1
GRIDFORMAT_BEGIN
 90
        0
 91
        1
 62
     0
 92
       -2
340
0
 93
        0
 40
0.045
309
GRIDFORMAT_END
 95
        8
302
GRIDFORMAT
  1
GRIDFORMAT_BEGIN
 90
        0
 91
        1
 62
     0
 92
       -2
340
0
 93
        0
 40
0.045
309
GRIDFORMAT_END
 95
       16
302
GRIDFORMAT
  1
GRIDFORMAT_BEGIN
 90
        0
 91
        1
 62
     0
 92
       -2
340
0
 93
        0
 40
0.045
309
GRIDFORMAT_END
 95
       32
302
GRIDFORMAT
  1
GRIDFORMAT_BEGIN
 90
        0
 91
        1
 62
     0
 92
       -2
340
0
 93
        0
 40
0.045
309
GRIDFORMAT_END
309
TABLEFORMAT_END
  1
CELLSTYLE_BEGIN
 90
        3
 91
        2
300
_DATA
309
CELLSTYLE_END
  0
XRECORD
  5
A10
102
{ACAD_REACTORS
330
A0F
102
}
330
A0F
100
AcDbXrecord
280
     1
102
RTVSPost2010Prop28
280
     1
102
RTVSPost2010PropOp28
 70
     1
102
RTVSPost2010Prop29
280
     1
102
RTVSPost2010PropOp29
 70
     1
102
RTVSPost2010Prop30
280
     0
102
RTVSPost2010PropOp30
 70
     1
102
RTVSPost2010Prop31
280
     0
102
RTVSPost2010PropOp31
 70
     1
102
RTVSPost2010Prop32
280
     0
102
RTVSPost2010PropOp32
 70
     1
102
RTVSPost2010Prop33
280
     0
102
RTVSPost2010PropOp33
 70
     1
102
RTVSPost2010Prop34
280
     0
102
RTVSPost2010PropOp34
 70
     1
102
RTVSPost2010Prop35
280
     0
102
RTVSPost2010PropOp35
 70
     1
102
RTVSPost2010Prop36
280
     0
102
RTVSPost2010PropOp36
 70
     1
102
RTVSPost2010Prop37
 90
       50
102
RTVSPost2010PropOp37
 70
     1
102
RTVSPost2010Prop38
140
0.0
102
RTVSPost2010PropOp38
 70
     1
102
RTVSPost2010Prop39
140
1.0
102
RTVSPost2010PropOp39
 70
     1
102
RTVSPost2010Prop40
 90
        0
102
RTVSPost2010PropOp40
 70
     1
102
RTVSPost2010Prop41ColorIndex
 90
       18
102
RTVSPost2010Prop41ColorRGB
 90
        0
102
RTVSPost2010PropOp41
 70
     1
102
RTVSPost2010Prop42
 90
       50
102
RTVSPost2010PropOp42
 70
     1
102
RTVSPost2010Prop43
 90
        3
102
RTVSPost2010PropOp43
 70
     1
102
RTVSPost2010Prop44ColorIndex
 90
        5
102
RTVSPost2010Prop44ColorRGB
 90
      255
102
RTVSPost2010PropOp44
 70
     1
102
RTVSPost2010Prop45
280
     0
102
RTVSPost2010PropOp45
 70
     1
102
RTVSPost2010Prop46
 90
       50
102
RTVSPost2010PropOp46
 70
     1
102
RTVSPost2010Prop47
 90
       50
102
RTVSPost2010PropOp47
 70
     1
102
RTVSPost2010Prop48
 90
       50
102
RTVSPost2010PropOp48
 70
     1
102
RTVSPost2010Prop49
280
     0
102
RTVSPost2010PropOp49
 70
     1
102
RTVSPost2010Prop50
 90
       50
102
RTVSPost2010PropOp50
 70
     1
102
RTVSPost2010Prop51ColorIndex
 90
      256
102
RTVSPost2010Prop51ColorRGB
 90
-16777216
102
RTVSPost2010PropOp51
 70
     0
102
RTVSPost2010Prop52
140
1.0
102
RTVSPost2010PropOp52
 70
     0
102
RTVSPost2010Prop53
 90
        2
102
RTVSPost2010PropOp53
 70
     1
102
RTVSPost2010Prop54
  1
strokes_ogs.tif
102
RTVSPost2010PropOp54
 70
     1
102
RTVSPost2010Prop55
280
     0
102
RTVSPost2010PropOp55
 70
     1
102
RTVSPost2010Prop56
140
1.0
102
RTVSPost2010PropOp56
 70
     1
102
RTVSPost2010Prop57
140
1.0
102
RTVSPost2010PropOp57
 70
     1
  0
XRECORD
  5
A0E
102
{ACAD_REACTORS
330
A0D
102
}
330
A0D
100
AcDbXrecord
280
     1
102
RTVSPost2010Prop28
280
     0
102
RTVSPost2010PropOp28
 70
     1
102
RTVSPost2010Prop29
280
     1
102
RTVSPost2010PropOp29
 70
     1
102
RTVSPost2010Prop30
280
     1
102
RTVSPost2010PropOp30
 70
     1
102
RTVSPost2010Prop31
280
     0
102
RTVSPost2010PropOp31
 70
     1
102
RTVSPost2010Prop32
280
     0
102
RTVSPost2010PropOp32
 70
     1
102
RTVSPost2010Prop33
280
     0
102
RTVSPost2010PropOp33
 70
     1
102
RTVSPost2010Prop34
280
     0
102
RTVSPost2010PropOp34
 70
     1
102
RTVSPost2010Prop35
280
     0
102
RTVSPost2010PropOp35
 70
     1
102
RTVSPost2010Prop36
280
     0
102
RTVSPost2010PropOp36
 70
     1
102
RTVSPost2010Prop37
 90
       50
102
RTVSPost2010PropOp37
 70
     1
102
RTVSPost2010Prop38
140
0.0
102
RTVSPost2010PropOp38
 70
     1
102
RTVSPost2010Prop39
140
1.0
102
RTVSPost2010PropOp39
 70
     1
102
RTVSPost2010Prop40
 90
        0
102
RTVSPost2010PropOp40
 70
     1
102
RTVSPost2010Prop41ColorIndex
 90
       18
102
RTVSPost2010Prop41ColorRGB
 90
        0
102
RTVSPost2010PropOp41
 70
     1
102
RTVSPost2010Prop42
 90
       50
102
RTVSPost2010PropOp42
 70
     1
102
RTVSPost2010Prop43
 90
        3
102
RTVSPost2010PropOp43
 70
     1
102
RTVSPost2010Prop44ColorIndex
 90
        5
102
RTVSPost2010Prop44ColorRGB
 90
      255
102
RTVSPost2010PropOp44
 70
     1
102
RTVSPost2010Prop45
280
     0
102
RTVSPost2010PropOp45
 70
     1
102
RTVSPost2010Prop46
 90
       50
102
RTVSPost2010PropOp46
 70
     1
102
RTVSPost2010Prop47
 90
       50
102
RTVSPost2010PropOp47
 70
     1
102
RTVSPost2010Prop48
 90
       50
102
RTVSPost2010PropOp48
 70
     1
102
RTVSPost2010Prop49
280
     0
102
RTVSPost2010PropOp49
 70
     1
102
RTVSPost2010Prop50
 90
       50
102
RTVSPost2010PropOp50
 70
     1
102
RTVSPost2010Prop51ColorIndex
 90
      256
102
RTVSPost2010Prop51ColorRGB
 90
-16777216
102
RTVSPost2010PropOp51
 70
     0
102
RTVSPost2010Prop52
140
1.0
102
RTVSPost2010PropOp52
 70
     0
102
RTVSPost2010Prop53
 90
        2
102
RTVSPost2010PropOp53
 70
     1
102
RTVSPost2010Prop54
  1
strokes_ogs.tif
102
RTVSPost2010PropOp54
 70
     1
102
RTVSPost2010Prop55
280
     0
102
RTVSPost2010PropOp55
 70
     1
102
RTVSPost2010Prop56
140
1.0
102
RTVSPost2010PropOp56
 70
     1
102
RTVSPost2010Prop57
140
1.0
102
RTVSPost2010PropOp57
 70
     1
  0
XRECORD
  5
A1C
102
{ACAD_REACTORS
330
A1B
102
}
330
A1B
100
AcDbXrecord
280
     1
102
RTVSPost2010Prop28
280
     0
102
RTVSPost2010PropOp28
 70
     1
102
RTVSPost2010Prop29
280
     1
102
RTVSPost2010PropOp29
 70
     1
102
RTVSPost2010Prop30
280
     1
102
RTVSPost2010PropOp30
 70
     1
102
RTVSPost2010Prop31
280
     0
102
RTVSPost2010PropOp31
 70
     1
102
RTVSPost2010Prop32
280
     0
102
RTVSPost2010PropOp32
 70
     1
102
RTVSPost2010Prop33
280
     0
102
RTVSPost2010PropOp33
 70
     1
102
RTVSPost2010Prop34
280
     0
102
RTVSPost2010PropOp34
 70
     1
102
RTVSPost2010Prop35
280
     0
102
RTVSPost2010PropOp35
 70
     1
102
RTVSPost2010Prop36
280
     0
102
RTVSPost2010PropOp36
 70
     1
102
RTVSPost2010Prop37
 90
       50
102
RTVSPost2010PropOp37
 70
     1
102
RTVSPost2010Prop38
140
0.0
102
RTVSPost2010PropOp38
 70
     1
102
RTVSPost2010Prop39
140
1.0
102
RTVSPost2010PropOp39
 70
     1
102
RTVSPost2010Prop40
 90
        0
102
RTVSPost2010PropOp40
 70
     1
102
RTVSPost2010Prop41ColorIndex
 90
       18
102
RTVSPost2010Prop41ColorRGB
 90
        0
102
RTVSPost2010PropOp41
 70
     1
102
RTVSPost2010Prop42
 90
       50
102
RTVSPost2010PropOp42
 70
     1
102
RTVSPost2010Prop43
 90
        3
102
RTVSPost2010PropOp43
 70
     1
102
RTVSPost2010Prop44ColorIndex
 90
        5
102
RTVSPost2010Prop44ColorRGB
 90
      255
102
RTVSPost2010PropOp44
 70
     1
102
RTVSPost2010Prop45
280
     0
102
RTVSPost2010PropOp45
 70
     1
102
RTVSPost2010Prop46
 90
       50
102
RTVSPost2010PropOp46
 70
     1
102
RTVSPost2010Prop47
 90
       50
102
RTVSPost2010PropOp47
 70
     1
102
RTVSPost2010Prop48
 90
       50
102
RTVSPost2010PropOp48
 70
     1
102
RTVSPost2010Prop49
280
     0
102
RTVSPost2010PropOp49
 70
     1
102
RTVSPost2010Prop50
 90
       50
102
RTVSPost2010PropOp50
 70
     1
102
RTVSPost2010Prop51ColorIndex
 90
      256
102
RTVSPost2010Prop51ColorRGB
 90
-16777216
102
RTVSPost2010PropOp51
 70
     0
102
RTVSPost2010Prop52
140
1.0
102
RTVSPost2010PropOp52
 70
     0
102
RTVSPost2010Prop53
 90
        2
102
RTVSPost2010PropOp53
 70
     1
102
RTVSPost2010Prop54
  1
strokes_ogs.tif
102
RTVSPost2010PropOp54
 70
     1
102
RTVSPost2010Prop55
280
     0
102
RTVSPost2010PropOp55
 70
     1
102
RTVSPost2010Prop56
140
1.0
102
RTVSPost2010PropOp56
 70
     1
102
RTVSPost2010Prop57
140
1.0
102
RTVSPost2010PropOp57
 70
     1
  0
XRECORD
  5
A24
102
{ACAD_REACTORS
330
A23
102
}
330
A23
100
AcDbXrecord
280
     1
102
RTVSPost2010Prop28
280
     0
102
RTVSPost2010PropOp28
 70
     1
102
RTVSPost2010Prop29
280
     1
102
RTVSPost2010PropOp29
 70
     1
102
RTVSPost2010Prop30
280
     1
102
RTVSPost2010PropOp30
 70
     1
102
RTVSPost2010Prop31
280
     0
102
RTVSPost2010PropOp31
 70
     1
102
RTVSPost2010Prop32
280
     0
102
RTVSPost2010PropOp32
 70
     1
102
RTVSPost2010Prop33
280
     0
102
RTVSPost2010PropOp33
 70
     1
102
RTVSPost2010Prop34
280
     0
102
RTVSPost2010PropOp34
 70
     1
102
RTVSPost2010Prop35
280
     0
102
RTVSPost2010PropOp35
 70
     1
102
RTVSPost2010Prop36
280
     0
102
RTVSPost2010PropOp36
 70
     1
102
RTVSPost2010Prop37
 90
       50
102
RTVSPost2010PropOp37
 70
     1
102
RTVSPost2010Prop38
140
0.0
102
RTVSPost2010PropOp38
 70
     1
102
RTVSPost2010Prop39
140
1.0
102
RTVSPost2010PropOp39
 70
     1
102
RTVSPost2010Prop40
 90
        0
102
RTVSPost2010PropOp40
 70
     1
102
RTVSPost2010Prop41ColorIndex
 90
       18
102
RTVSPost2010Prop41ColorRGB
 90
        0
102
RTVSPost2010PropOp41
 70
     1
102
RTVSPost2010Prop42
 90
       50
102
RTVSPost2010PropOp42
 70
     1
102
RTVSPost2010Prop43
 90
        3
102
RTVSPost2010PropOp43
 70
     1
102
RTVSPost2010Prop44ColorIndex
 90
        5
102
RTVSPost2010Prop44ColorRGB
 90
      255
102
RTVSPost2010PropOp44
 70
     1
102
RTVSPost2010Prop45
280
     0
102
RTVSPost2010PropOp45
 70
     1
102
RTVSPost2010Prop46
 90
       50
102
RTVSPost2010PropOp46
 70
     1
102
RTVSPost2010Prop47
 90
       50
102
RTVSPost2010PropOp47
 70
     1
102
RTVSPost2010Prop48
 90
       50
102
RTVSPost2010PropOp48
 70
     1
102
RTVSPost2010Prop49
280
     0
102
RTVSPost2010PropOp49
 70
     1
102
RTVSPost2010Prop50
 90
       50
102
RTVSPost2010PropOp50
 70
     1
102
RTVSPost2010Prop51ColorIndex
 90
      256
102
RTVSPost2010Prop51ColorRGB
 90
-16777216
102
RTVSPost2010PropOp51
 70
     0
102
RTVSPost2010Prop52
140
1.0
102
RTVSPost2010PropOp52
 70
     0
102
RTVSPost2010Prop53
 90
        2
102
RTVSPost2010PropOp53
 70
     1
102
RTVSPost2010Prop54
  1
strokes_ogs.tif
102
RTVSPost2010PropOp54
 70
     1
102
RTVSPost2010Prop55
280
     0
102
RTVSPost2010PropOp55
 70
     1
102
RTVSPost2010Prop56
140
1.0
102
RTVSPost2010PropOp56
 70
     1
102
RTVSPost2010Prop57
140
1.0
102
RTVSPost2010PropOp57
 70
     1
  0
XRECORD
  5
A16
102
{ACAD_REACTORS
330
A15
102
}
330
A15
100
AcDbXrecord
280
     1
102
RTVSPost2010Prop28
280
     0
102
RTVSPost2010PropOp28
 70
     1
102
RTVSPost2010Prop29
280
     1
102
RTVSPost2010PropOp29
 70
     1
102
RTVSPost2010Prop30
280
     1
102
RTVSPost2010PropOp30
 70
     1
102
RTVSPost2010Prop31
280
     0
102
RTVSPost2010PropOp31
 70
     1
102
RTVSPost2010Prop32
280
     0
102
RTVSPost2010PropOp32
 70
     1
102
RTVSPost2010Prop33
280
     0
102
RTVSPost2010PropOp33
 70
     1
102
RTVSPost2010Prop34
280
     0
102
RTVSPost2010PropOp34
 70
     1
102
RTVSPost2010Prop35
280
     0
102
RTVSPost2010PropOp35
 70
     1
102
RTVSPost2010Prop36
280
     0
102
RTVSPost2010PropOp36
 70
     1
102
RTVSPost2010Prop37
 90
       50
102
RTVSPost2010PropOp37
 70
     1
102
RTVSPost2010Prop38
140
0.0
102
RTVSPost2010PropOp38
 70
     1
102
RTVSPost2010Prop39
140
1.0
102
RTVSPost2010PropOp39
 70
     1
102
RTVSPost2010Prop40
 90
        0
102
RTVSPost2010PropOp40
 70
     1
102
RTVSPost2010Prop41ColorIndex
 90
       18
102
RTVSPost2010Prop41ColorRGB
 90
        0
102
RTVSPost2010PropOp41
 70
     1
102
RTVSPost2010Prop42
 90
       50
102
RTVSPost2010PropOp42
 70
     1
102
RTVSPost2010Prop43
 90
        3
102
RTVSPost2010PropOp43
 70
     1
102
RTVSPost2010Prop44ColorIndex
 90
        5
102
RTVSPost2010Prop44ColorRGB
 90
      255
102
RTVSPost2010PropOp44
 70
     1
102
RTVSPost2010Prop45
280
     0
102
RTVSPost2010PropOp45
 70
     1
102
RTVSPost2010Prop46
 90
       50
102
RTVSPost2010PropOp46
 70
     1
102
RTVSPost2010Prop47
 90
       50
102
RTVSPost2010PropOp47
 70
     1
102
RTVSPost2010Prop48
 90
       50
102
RTVSPost2010PropOp48
 70
     1
102
RTVSPost2010Prop49
280
     0
102
RTVSPost2010PropOp49
 70
     1
102
RTVSPost2010Prop50
 90
       50
102
RTVSPost2010PropOp50
 70
     1
102
RTVSPost2010Prop51ColorIndex
 90
      256
102
RTVSPost2010Prop51ColorRGB
 90
-16777216
102
RTVSPost2010PropOp51
 70
     0
102
RTVSPost2010Prop52
140
1.0
102
RTVSPost2010PropOp52
 70
     0
102
RTVSPost2010Prop53
 90
        2
102
RTVSPost2010PropOp53
 70
     1
102
RTVSPost2010Prop54
  1
strokes_ogs.tif
102
RTVSPost2010PropOp54
 70
     1
102
RTVSPost2010Prop55
280
     0
102
RTVSPost2010PropOp55
 70
     1
102
RTVSPost2010Prop56
140
1.0
102
RTVSPost2010PropOp56
 70
     1
102
RTVSPost2010Prop57
140
1.0
102
RTVSPost2010PropOp57
 70
     1
  0
XRECORD
  5
A1A
102
{ACAD_REACTORS
330
A19
102
}
330
A19
100
AcDbXrecord
280
     1
102
RTVSPost2010Prop28
280
     0
102
RTVSPost2010PropOp28
 70
     1
102
RTVSPost2010Prop29
280
     1
102
RTVSPost2010PropOp29
 70
     1
102
RTVSPost2010Prop30
280
     1
102
RTVSPost2010PropOp30
 70
     1
102
RTVSPost2010Prop31
280
     0
102
RTVSPost2010PropOp31
 70
     1
102
RTVSPost2010Prop32
280
     0
102
RTVSPost2010PropOp32
 70
     1
102
RTVSPost2010Prop33
280
     0
102
RTVSPost2010PropOp33
 70
     1
102
RTVSPost2010Prop34
280
     0
102
RTVSPost2010PropOp34
 70
     1
102
RTVSPost2010Prop35
280
     0
102
RTVSPost2010PropOp35
 70
     1
102
RTVSPost2010Prop36
280
     0
102
RTVSPost2010PropOp36
 70
     1
102
RTVSPost2010Prop37
 90
       50
102
RTVSPost2010PropOp37
 70
     1
102
RTVSPost2010Prop38
140
0.0
102
RTVSPost2010PropOp38
 70
     1
102
RTVSPost2010Prop39
140
1.0
102
RTVSPost2010PropOp39
 70
     1
102
RTVSPost2010Prop40
 90
        0
102
RTVSPost2010PropOp40
 70
     1
102
RTVSPost2010Prop41ColorIndex
 90
       18
102
RTVSPost2010Prop41ColorRGB
 90
        0
102
RTVSPost2010PropOp41
 70
     1
102
RTVSPost2010Prop42
 90
       50
102
RTVSPost2010PropOp42
 70
     1
102
RTVSPost2010Prop43
 90
        3
102
RTVSPost2010PropOp43
 70
     1
102
RTVSPost2010Prop44ColorIndex
 90
        5
102
RTVSPost2010Prop44ColorRGB
 90
      255
102
RTVSPost2010PropOp44
 70
     1
102
RTVSPost2010Prop45
280
     0
102
RTVSPost2010PropOp45
 70
     1
102
RTVSPost2010Prop46
 90
       50
102
RTVSPost2010PropOp46
 70
     1
102
RTVSPost2010Prop47
 90
       50
102
RTVSPost2010PropOp47
 70
     1
102
RTVSPost2010Prop48
 90
       50
102
RTVSPost2010PropOp48
 70
     1
102
RTVSPost2010Prop49
280
     0
102
RTVSPost2010PropOp49
 70
     1
102
RTVSPost2010Prop50
 90
       50
102
RTVSPost2010PropOp50
 70
     1
102
RTVSPost2010Prop51ColorIndex
 90
      256
102
RTVSPost2010Prop51ColorRGB
 90
-16777216
102
RTVSPost2010PropOp51
 70
     0
102
RTVSPost2010Prop52
140
1.0
102
RTVSPost2010PropOp52
 70
     0
102
RTVSPost2010Prop53
 90
        2
102
RTVSPost2010PropOp53
 70
     1
102
RTVSPost2010Prop54
  1
strokes_ogs.tif
102
RTVSPost2010PropOp54
 70
     1
102
RTVSPost2010Prop55
280
     0
102
RTVSPost2010PropOp55
 70
     1
102
RTVSPost2010Prop56
140
1.0
102
RTVSPost2010PropOp56
 70
     1
102
RTVSPost2010Prop57
140
1.0
102
RTVSPost2010PropOp57
 70
     1
  0
XRECORD
  5
A34
102
{ACAD_REACTORS
330
A33
102
}
330
A33
100
AcDbXrecord
280
     1
102
RTVSPost2010Prop28
280
     0
102
RTVSPost2010PropOp28
 70
     1
102
RTVSPost2010Prop29
280
     1
102
RTVSPost2010PropOp29
 70
     1
102
RTVSPost2010Prop30
280
     1
102
RTVSPost2010PropOp30
 70
     1
102
RTVSPost2010Prop31
280
     0
102
RTVSPost2010PropOp31
 70
     1
102
RTVSPost2010Prop32
280
     0
102
RTVSPost2010PropOp32
 70
     1
102
RTVSPost2010Prop33
280
     0
102
RTVSPost2010PropOp33
 70
     1
102
RTVSPost2010Prop34
280
     0
102
RTVSPost2010PropOp34
 70
     1
102
RTVSPost2010Prop35
280
     0
102
RTVSPost2010PropOp35
 70
     1
102
RTVSPost2010Prop36
280
     0
102
RTVSPost2010PropOp36
 70
     1
102
RTVSPost2010Prop37
 90
       50
102
RTVSPost2010PropOp37
 70
     0
102
RTVSPost2010Prop38
140
0.0
102
RTVSPost2010PropOp38
 70
     0
102
RTVSPost2010Prop39
140
1.0
102
RTVSPost2010PropOp39
 70
     0
102
RTVSPost2010Prop40
 90
        0
102
RTVSPost2010PropOp40
 70
     0
102
RTVSPost2010Prop41ColorIndex
 90
       18
102
RTVSPost2010Prop41ColorRGB
 90
        0
102
RTVSPost2010PropOp41
 70
     0
102
RTVSPost2010Prop42
 90
       50
102
RTVSPost2010PropOp42
 70
     0
102
RTVSPost2010Prop43
 90
        3
102
RTVSPost2010PropOp43
 70
     0
102
RTVSPost2010Prop44ColorIndex
 90
        5
102
RTVSPost2010Prop44ColorRGB
 90
      255
102
RTVSPost2010PropOp44
 70
     0
102
RTVSPost2010Prop45
280
     0
102
RTVSPost2010PropOp45
 70
     1
102
RTVSPost2010Prop46
 90
       50
102
RTVSPost2010PropOp46
 70
     0
102
RTVSPost2010Prop47
 90
       50
102
RTVSPost2010PropOp47
 70
     0
102
RTVSPost2010Prop48
 90
       50
102
RTVSPost2010PropOp48
 70
     0
102
RTVSPost2010Prop49
280
     0
102
RTVSPost2010PropOp49
 70
     1
102
RTVSPost2010Prop50
 90
       50
102
RTVSPost2010PropOp50
 70
     0
102
RTVSPost2010Prop51ColorIndex
 90
      256
102
RTVSPost2010Prop51ColorRGB
 90
-16777216
102
RTVSPost2010PropOp51
 70
     0
102
RTVSPost2010Prop52
140
1.0
102
RTVSPost2010PropOp52
 70
     0
102
RTVSPost2010Prop53
 90
        2
102
RTVSPost2010PropOp53
 70
     0
102
RTVSPost2010Prop54
  1
strokes_ogs.tif
102
RTVSPost2010PropOp54
 70
     0
102
RTVSPost2010Prop55
280
     0
102
RTVSPost2010PropOp55
 70
     1
102
RTVSPost2010Prop56
140
1.0
102
RTVSPost2010PropOp56
 70
     0
102
RTVSPost2010Prop57
140
1.0
102
RTVSPost2010PropOp57
 70
     0
  0
XRECORD
  5
A22
102
{ACAD_REACTORS
330
A21
102
}
330
A21
100
AcDbXrecord
280
     1
102
RTVSPost2010Prop28
280
     0
102
RTVSPost2010PropOp28
 70
     1
102
RTVSPost2010Prop29
280
     1
102
RTVSPost2010PropOp29
 70
     1
102
RTVSPost2010Prop30
280
     1
102
RTVSPost2010PropOp30
 70
     1
102
RTVSPost2010Prop31
280
     0
102
RTVSPost2010PropOp31
 70
     1
102
RTVSPost2010Prop32
280
     0
102
RTVSPost2010PropOp32
 70
     1
102
RTVSPost2010Prop33
280
     0
102
RTVSPost2010PropOp33
 70
     1
102
RTVSPost2010Prop34
280
     0
102
RTVSPost2010PropOp34
 70
     1
102
RTVSPost2010Prop35
280
     0
102
RTVSPost2010PropOp35
 70
     1
102
RTVSPost2010Prop36
280
     0
102
RTVSPost2010PropOp36
 70
     1
102
RTVSPost2010Prop37
 90
       50
102
RTVSPost2010PropOp37
 70
     1
102
RTVSPost2010Prop38
140
0.0
102
RTVSPost2010PropOp38
 70
     1
102
RTVSPost2010Prop39
140
1.0
102
RTVSPost2010PropOp39
 70
     1
102
RTVSPost2010Prop40
 90
        0
102
RTVSPost2010PropOp40
 70
     1
102
RTVSPost2010Prop41ColorIndex
 90
       18
102
RTVSPost2010Prop41ColorRGB
 90
        0
102
RTVSPost2010PropOp41
 70
     1
102
RTVSPost2010Prop42
 90
       50
102
RTVSPost2010PropOp42
 70
     1
102
RTVSPost2010Prop43
 90
        3
102
RTVSPost2010PropOp43
 70
     1
102
RTVSPost2010Prop44ColorIndex
 90
        5
102
RTVSPost2010Prop44ColorRGB
 90
      255
102
RTVSPost2010PropOp44
 70
     1
102
RTVSPost2010Prop45
280
     0
102
RTVSPost2010PropOp45
 70
     1
102
RTVSPost2010Prop46
 90
       50
102
RTVSPost2010PropOp46
 70
     1
102
RTVSPost2010Prop47
 90
       50
102
RTVSPost2010PropOp47
 70
     1
102
RTVSPost2010Prop48
 90
       50
102
RTVSPost2010PropOp48
 70
     1
102
RTVSPost2010Prop49
280
     0
102
RTVSPost2010PropOp49
 70
     1
102
RTVSPost2010Prop50
 90
       50
102
RTVSPost2010PropOp50
 70
     1
102
RTVSPost2010Prop51ColorIndex
 90
      256
102
RTVSPost2010Prop51ColorRGB
 90
-16777216
102
RTVSPost2010PropOp51
 70
     0
102
RTVSPost2010Prop52
140
1.0
102
RTVSPost2010PropOp52
 70
     0
102
RTVSPost2010Prop53
 90
        2
102
RTVSPost2010PropOp53
 70
     1
102
RTVSPost2010Prop54
  1
strokes_ogs.tif
102
RTVSPost2010PropOp54
 70
     1
102
RTVSPost2010Prop55
280
     0
102
RTVSPost2010PropOp55
 70
     1
102
RTVSPost2010Prop56
140
1.0
102
RTVSPost2010PropOp56
 70
     1
102
RTVSPost2010Prop57
140
1.0
102
RTVSPost2010PropOp57
 70
     1
  0
XRECORD
  5
A06
102
{ACAD_REACTORS
330
A05
102
}
330
A05
100
AcDbXrecord
280
     1
102
RTVSPost2010Prop28
280
     0
102
RTVSPost2010PropOp28
 70
     1
102
RTVSPost2010Prop29
280
     1
102
RTVSPost2010PropOp29
 70
     1
102
RTVSPost2010Prop30
280
     1
102
RTVSPost2010PropOp30
 70
     1
102
RTVSPost2010Prop31
280
     0
102
RTVSPost2010PropOp31
 70
     1
102
RTVSPost2010Prop32
280
     0
102
RTVSPost2010PropOp32
 70
     1
102
RTVSPost2010Prop33
280
     0
102
RTVSPost2010PropOp33
 70
     1
102
RTVSPost2010Prop34
280
     0
102
RTVSPost2010PropOp34
 70
     1
102
RTVSPost2010Prop35
280
     0
102
RTVSPost2010PropOp35
 70
     1
102
RTVSPost2010Prop36
280
     0
102
RTVSPost2010PropOp36
 70
     1
102
RTVSPost2010Prop37
 90
       50
102
RTVSPost2010PropOp37
 70
     1
102
RTVSPost2010Prop38
140
0.0
102
RTVSPost2010PropOp38
 70
     1
102
RTVSPost2010Prop39
140
1.0
102
RTVSPost2010PropOp39
 70
     1
102
RTVSPost2010Prop40
 90
        0
102
RTVSPost2010PropOp40
 70
     1
102
RTVSPost2010Prop41ColorIndex
 90
       18
102
RTVSPost2010Prop41ColorRGB
 90
        0
102
RTVSPost2010PropOp41
 70
     1
102
RTVSPost2010Prop42
 90
       50
102
RTVSPost2010PropOp42
 70
     1
102
RTVSPost2010Prop43
 90
        3
102
RTVSPost2010PropOp43
 70
     1
102
RTVSPost2010Prop44ColorIndex
 90
        5
102
RTVSPost2010Prop44ColorRGB
 90
      255
102
RTVSPost2010PropOp44
 70
     1
102
RTVSPost2010Prop45
280
     0
102
RTVSPost2010PropOp45
 70
     1
102
RTVSPost2010Prop46
 90
       50
102
RTVSPost2010PropOp46
 70
     1
102
RTVSPost2010Prop47
 90
       50
102
RTVSPost2010PropOp47
 70
     1
102
RTVSPost2010Prop48
 90
       50
102
RTVSPost2010PropOp48
 70
     1
102
RTVSPost2010Prop49
280
     0
102
RTVSPost2010PropOp49
 70
     1
102
RTVSPost2010Prop50
 90
       50
102
RTVSPost2010PropOp50
 70
     1
102
RTVSPost2010Prop51ColorIndex
 90
      256
102
RTVSPost2010Prop51ColorRGB
 90
-16777216
102
RTVSPost2010PropOp51
 70
     0
102
RTVSPost2010Prop52
140
1.0
102
RTVSPost2010PropOp52
 70
     0
102
RTVSPost2010Prop53
 90
        2
102
RTVSPost2010PropOp53
 70
     1
102
RTVSPost2010Prop54
  1
strokes_ogs.tif
102
RTVSPost2010PropOp54
 70
     1
102
RTVSPost2010Prop55
280
     0
102
RTVSPost2010PropOp55
 70
     1
102
RTVSPost2010Prop56
140
1.0
102
RTVSPost2010PropOp56
 70
     1
102
RTVSPost2010Prop57
140
1.0
102
RTVSPost2010PropOp57
 70
     1
  0
XRECORD
  5
A08
102
{ACAD_REACTORS
330
A07
102
}
330
A07
100
AcDbXrecord
280
     1
102
RTVSPost2010Prop28
280
     0
102
RTVSPost2010PropOp28
 70
     1
102
RTVSPost2010Prop29
280
     1
102
RTVSPost2010PropOp29
 70
     1
102
RTVSPost2010Prop30
280
     1
102
RTVSPost2010PropOp30
 70
     1
102
RTVSPost2010Prop31
280
     0
102
RTVSPost2010PropOp31
 70
     1
102
RTVSPost2010Prop32
280
     0
102
RTVSPost2010PropOp32
 70
     1
102
RTVSPost2010Prop33
280
     0
102
RTVSPost2010PropOp33
 70
     1
102
RTVSPost2010Prop34
280
     0
102
RTVSPost2010PropOp34
 70
     1
102
RTVSPost2010Prop35
280
     0
102
RTVSPost2010PropOp35
 70
     1
102
RTVSPost2010Prop36
280
     0
102
RTVSPost2010PropOp36
 70
     1
102
RTVSPost2010Prop37
 90
       50
102
RTVSPost2010PropOp37
 70
     1
102
RTVSPost2010Prop38
140
0.0
102
RTVSPost2010PropOp38
 70
     1
102
RTVSPost2010Prop39
140
1.0
102
RTVSPost2010PropOp39
 70
     1
102
RTVSPost2010Prop40
 90
        0
102
RTVSPost2010PropOp40
 70
     1
102
RTVSPost2010Prop41ColorIndex
 90
       18
102
RTVSPost2010Prop41ColorRGB
 90
        0
102
RTVSPost2010PropOp41
 70
     1
102
RTVSPost2010Prop42
 90
       50
102
RTVSPost2010PropOp42
 70
     1
102
RTVSPost2010Prop43
 90
        3
102
RTVSPost2010PropOp43
 70
     1
102
RTVSPost2010Prop44ColorIndex
 90
        5
102
RTVSPost2010Prop44ColorRGB
 90
      255
102
RTVSPost2010PropOp44
 70
     1
102
RTVSPost2010Prop45
280
     0
102
RTVSPost2010PropOp45
 70
     1
102
RTVSPost2010Prop46
 90
       50
102
RTVSPost2010PropOp46
 70
     1
102
RTVSPost2010Prop47
 90
       50
102
RTVSPost2010PropOp47
 70
     1
102
RTVSPost2010Prop48
 90
       50
102
RTVSPost2010PropOp48
 70
     1
102
RTVSPost2010Prop49
280
     0
102
RTVSPost2010PropOp49
 70
     1
102
RTVSPost2010Prop50
 90
       50
102
RTVSPost2010PropOp50
 70
     1
102
RTVSPost2010Prop51ColorIndex
 90
      256
102
RTVSPost2010Prop51ColorRGB
 90
-16777216
102
RTVSPost2010PropOp51
 70
     0
102
RTVSPost2010Prop52
140
1.0
102
RTVSPost2010PropOp52
 70
     0
102
RTVSPost2010Prop53
 90
        2
102
RTVSPost2010PropOp53
 70
     1
102
RTVSPost2010Prop54
  1
strokes_ogs.tif
102
RTVSPost2010PropOp54
 70
     1
102
RTVSPost2010Prop55
280
     0
102
RTVSPost2010PropOp55
 70
     1
102
RTVSPost2010Prop56
140
1.0
102
RTVSPost2010PropOp56
 70
     1
102
RTVSPost2010Prop57
140
1.0
102
RTVSPost2010PropOp57
 70
     1
  0
XRECORD
  5
A0A
102
{ACAD_REACTORS
330
A09
102
}
330
A09
100
AcDbXrecord
280
     1
102
RTVSPost2010Prop28
280
     0
102
RTVSPost2010PropOp28
 70
     1
102
RTVSPost2010Prop29
280
     1
102
RTVSPost2010PropOp29
 70
     1
102
RTVSPost2010Prop30
280
     1
102
RTVSPost2010PropOp30
 70
     1
102
RTVSPost2010Prop31
280
     0
102
RTVSPost2010PropOp31
 70
     1
102
RTVSPost2010Prop32
280
     0
102
RTVSPost2010PropOp32
 70
     1
102
RTVSPost2010Prop33
280
     0
102
RTVSPost2010PropOp33
 70
     1
102
RTVSPost2010Prop34
280
     0
102
RTVSPost2010PropOp34
 70
     1
102
RTVSPost2010Prop35
280
     0
102
RTVSPost2010PropOp35
 70
     1
102
RTVSPost2010Prop36
280
     0
102
RTVSPost2010PropOp36
 70
     1
102
RTVSPost2010Prop37
 90
       50
102
RTVSPost2010PropOp37
 70
     1
102
RTVSPost2010Prop38
140
0.0
102
RTVSPost2010PropOp38
 70
     1
102
RTVSPost2010Prop39
140
1.0
102
RTVSPost2010PropOp39
 70
     1
102
RTVSPost2010Prop40
 90
        0
102
RTVSPost2010PropOp40
 70
     1
102
RTVSPost2010Prop41ColorIndex
 90
       18
102
RTVSPost2010Prop41ColorRGB
 90
        0
102
RTVSPost2010PropOp41
 70
     1
102
RTVSPost2010Prop42
 90
       50
102
RTVSPost2010PropOp42
 70
     1
102
RTVSPost2010Prop43
 90
        3
102
RTVSPost2010PropOp43
 70
     1
102
RTVSPost2010Prop44ColorIndex
 90
        5
102
RTVSPost2010Prop44ColorRGB
 90
      255
102
RTVSPost2010PropOp44
 70
     1
102
RTVSPost2010Prop45
280
     0
102
RTVSPost2010PropOp45
 70
     1
102
RTVSPost2010Prop46
 90
       50
102
RTVSPost2010PropOp46
 70
     1
102
RTVSPost2010Prop47
 90
       50
102
RTVSPost2010PropOp47
 70
     1
102
RTVSPost2010Prop48
 90
       50
102
RTVSPost2010PropOp48
 70
     1
102
RTVSPost2010Prop49
280
     0
102
RTVSPost2010PropOp49
 70
     1
102
RTVSPost2010Prop50
 90
       50
102
RTVSPost2010PropOp50
 70
     1
102
RTVSPost2010Prop51ColorIndex
 90
      256
102
RTVSPost2010Prop51ColorRGB
 90
-16777216
102
RTVSPost2010PropOp51
 70
     0
102
RTVSPost2010Prop52
140
1.0
102
RTVSPost2010PropOp52
 70
     0
102
RTVSPost2010Prop53
 90
        2
102
RTVSPost2010PropOp53
 70
     1
102
RTVSPost2010Prop54
  1
strokes_ogs.tif
102
RTVSPost2010PropOp54
 70
     1
102
RTVSPost2010Prop55
280
     0
102
RTVSPost2010PropOp55
 70
     1
102
RTVSPost2010Prop56
140
1.0
102
RTVSPost2010PropOp56
 70
     1
102
RTVSPost2010Prop57
140
1.0
102
RTVSPost2010PropOp57
 70
     1
  0
XRECORD
  5
A0C
102
{ACAD_REACTORS
330
A0B
102
}
330
A0B
100
AcDbXrecord
280
     1
102
RTVSPost2010Prop28
280
     0
102
RTVSPost2010PropOp28
 70
     1
102
RTVSPost2010Prop29
280
     1
102
RTVSPost2010PropOp29
 70
     1
102
RTVSPost2010Prop30
280
     1
102
RTVSPost2010PropOp30
 70
     1
102
RTVSPost2010Prop31
280
     0
102
RTVSPost2010PropOp31
 70
     1
102
RTVSPost2010Prop32
280
     0
102
RTVSPost2010PropOp32
 70
     1
102
RTVSPost2010Prop33
280
     0
102
RTVSPost2010PropOp33
 70
     1
102
RTVSPost2010Prop34
280
     0
102
RTVSPost2010PropOp34
 70
     1
102
RTVSPost2010Prop35
280
     0
102
RTVSPost2010PropOp35
 70
     1
102
RTVSPost2010Prop36
280
     0
102
RTVSPost2010PropOp36
 70
     1
102
RTVSPost2010Prop37
 90
       50
102
RTVSPost2010PropOp37
 70
     1
102
RTVSPost2010Prop38
140
0.0
102
RTVSPost2010PropOp38
 70
     1
102
RTVSPost2010Prop39
140
1.0
102
RTVSPost2010PropOp39
 70
     1
102
RTVSPost2010Prop40
 90
        0
102
RTVSPost2010PropOp40
 70
     1
102
RTVSPost2010Prop41ColorIndex
 90
       18
102
RTVSPost2010Prop41ColorRGB
 90
        0
102
RTVSPost2010PropOp41
 70
     1
102
RTVSPost2010Prop42
 90
       50
102
RTVSPost2010PropOp42
 70
     1
102
RTVSPost2010Prop43
 90
        3
102
RTVSPost2010PropOp43
 70
     1
102
RTVSPost2010Prop44ColorIndex
 90
        5
102
RTVSPost2010Prop44ColorRGB
 90
      255
102
RTVSPost2010PropOp44
 70
     1
102
RTVSPost2010Prop45
280
     0
102
RTVSPost2010PropOp45
 70
     1
102
RTVSPost2010Prop46
 90
       50
102
RTVSPost2010PropOp46
 70
     1
102
RTVSPost2010Prop47
 90
       50
102
RTVSPost2010PropOp47
 70
     1
102
RTVSPost2010Prop48
 90
       50
102
RTVSPost2010PropOp48
 70
     1
102
RTVSPost2010Prop49
280
     0
102
RTVSPost2010PropOp49
 70
     1
102
RTVSPost2010Prop50
 90
       50
102
RTVSPost2010PropOp50
 70
     1
102
RTVSPost2010Prop51ColorIndex
 90
      256
102
RTVSPost2010Prop51ColorRGB
 90
-16777216
102
RTVSPost2010PropOp51
 70
     0
102
RTVSPost2010Prop52
140
1.0
102
RTVSPost2010PropOp52
 70
     0
102
RTVSPost2010Prop53
 90
        2
102
RTVSPost2010PropOp53
 70
     1
102
RTVSPost2010Prop54
  1
strokes_ogs.tif
102
RTVSPost2010PropOp54
 70
     1
102
RTVSPost2010Prop55
280
     0
102
RTVSPost2010PropOp55
 70
     1
102
RTVSPost2010Prop56
140
1.0
102
RTVSPost2010PropOp56
 70
     1
102
RTVSPost2010Prop57
140
1.0
102
RTVSPost2010PropOp57
 70
     1
  0
XRECORD
  5
A14
102
{ACAD_REACTORS
330
A13
102
}
330
A13
100
AcDbXrecord
280
     1
102
RTVSPost2010Prop28
280
     0
102
RTVSPost2010PropOp28
 70
     1
102
RTVSPost2010Prop29
280
     1
102
RTVSPost2010PropOp29
 70
     1
102
RTVSPost2010Prop30
280
     1
102
RTVSPost2010PropOp30
 70
     1
102
RTVSPost2010Prop31
280
     0
102
RTVSPost2010PropOp31
 70
     1
102
RTVSPost2010Prop32
280
     0
102
RTVSPost2010PropOp32
 70
     1
102
RTVSPost2010Prop33
280
     0
102
RTVSPost2010PropOp33
 70
     1
102
RTVSPost2010Prop34
280
     0
102
RTVSPost2010PropOp34
 70
     1
102
RTVSPost2010Prop35
280
     0
102
RTVSPost2010PropOp35
 70
     1
102
RTVSPost2010Prop36
280
     0
102
RTVSPost2010PropOp36
 70
     1
102
RTVSPost2010Prop37
 90
       50
102
RTVSPost2010PropOp37
 70
     1
102
RTVSPost2010Prop38
140
0.0
102
RTVSPost2010PropOp38
 70
     1
102
RTVSPost2010Prop39
140
1.0
102
RTVSPost2010PropOp39
 70
     1
102
RTVSPost2010Prop40
 90
        0
102
RTVSPost2010PropOp40
 70
     1
102
RTVSPost2010Prop41ColorIndex
 90
       18
102
RTVSPost2010Prop41ColorRGB
 90
        0
102
RTVSPost2010PropOp41
 70
     1
102
RTVSPost2010Prop42
 90
       50
102
RTVSPost2010PropOp42
 70
     1
102
RTVSPost2010Prop43
 90
        3
102
RTVSPost2010PropOp43
 70
     1
102
RTVSPost2010Prop44ColorIndex
 90
        5
102
RTVSPost2010Prop44ColorRGB
 90
      255
102
RTVSPost2010PropOp44
 70
     1
102
RTVSPost2010Prop45
280
     0
102
RTVSPost2010PropOp45
 70
     1
102
RTVSPost2010Prop46
 90
       50
102
RTVSPost2010PropOp46
 70
     1
102
RTVSPost2010Prop47
 90
       50
102
RTVSPost2010PropOp47
 70
     1
102
RTVSPost2010Prop48
 90
       50
102
RTVSPost2010PropOp48
 70
     1
102
RTVSPost2010Prop49
280
     0
102
RTVSPost2010PropOp49
 70
     1
102
RTVSPost2010Prop50
 90
       50
102
RTVSPost2010PropOp50
 70
     1
102
RTVSPost2010Prop51ColorIndex
 90
      256
102
RTVSPost2010Prop51ColorRGB
 90
-16777216
102
RTVSPost2010PropOp51
 70
     0
102
RTVSPost2010Prop52
140
1.0
102
RTVSPost2010PropOp52
 70
     0
102
RTVSPost2010Prop53
 90
        2
102
RTVSPost2010PropOp53
 70
     1
102
RTVSPost2010Prop54
  1
strokes_ogs.tif
102
RTVSPost2010PropOp54
 70
     1
102
RTVSPost2010Prop55
280
     0
102
RTVSPost2010PropOp55
 70
     1
102
RTVSPost2010Prop56
140
1.0
102
RTVSPost2010PropOp56
 70
     1
102
RTVSPost2010Prop57
140
1.0
102
RTVSPost2010PropOp57
 70
     1
  0
XRECORD
  5
A30
102
{ACAD_REACTORS
330
A2F
102
}
330
A2F
100
AcDbXrecord
280
     1
102
RTVSPost2010Prop28
280
     0
102
RTVSPost2010PropOp28
 70
     1
102
RTVSPost2010Prop29
280
     1
102
RTVSPost2010PropOp29
 70
     1
102
RTVSPost2010Prop30
280
     1
102
RTVSPost2010PropOp30
 70
     1
102
RTVSPost2010Prop31
280
     0
102
RTVSPost2010PropOp31
 70
     1
102
RTVSPost2010Prop32
280
     0
102
RTVSPost2010PropOp32
 70
     1
102
RTVSPost2010Prop33
280
     0
102
RTVSPost2010PropOp33
 70
     1
102
RTVSPost2010Prop34
280
     0
102
RTVSPost2010PropOp34
 70
     1
102
RTVSPost2010Prop35
280
     0
102
RTVSPost2010PropOp35
 70
     1
102
RTVSPost2010Prop36
280
     0
102
RTVSPost2010PropOp36
 70
     1
102
RTVSPost2010Prop37
 90
       50
102
RTVSPost2010PropOp37
 70
     0
102
RTVSPost2010Prop38
140
0.0
102
RTVSPost2010PropOp38
 70
     0
102
RTVSPost2010Prop39
140
1.0
102
RTVSPost2010PropOp39
 70
     0
102
RTVSPost2010Prop40
 90
        0
102
RTVSPost2010PropOp40
 70
     0
102
RTVSPost2010Prop41ColorIndex
 90
       18
102
RTVSPost2010Prop41ColorRGB
 90
        0
102
RTVSPost2010PropOp41
 70
     0
102
RTVSPost2010Prop42
 90
       50
102
RTVSPost2010PropOp42
 70
     0
102
RTVSPost2010Prop43
 90
        3
102
RTVSPost2010PropOp43
 70
     0
102
RTVSPost2010Prop44ColorIndex
 90
        5
102
RTVSPost2010Prop44ColorRGB
 90
      255
102
RTVSPost2010PropOp44
 70
     0
102
RTVSPost2010Prop45
280
     0
102
RTVSPost2010PropOp45
 70
     1
102
RTVSPost2010Prop46
 90
       50
102
RTVSPost2010PropOp46
 70
     0
102
RTVSPost2010Prop47
 90
       50
102
RTVSPost2010PropOp47
 70
     0
102
RTVSPost2010Prop48
 90
       50
102
RTVSPost2010PropOp48
 70
     0
102
RTVSPost2010Prop49
280
     0
102
RTVSPost2010PropOp49
 70
     1
102
RTVSPost2010Prop50
 90
       50
102
RTVSPost2010PropOp50
 70
     0
102
RTVSPost2010Prop51ColorIndex
 90
      256
102
RTVSPost2010Prop51ColorRGB
 90
-16777216
102
RTVSPost2010PropOp51
 70
     0
102
RTVSPost2010Prop52
140
1.0
102
RTVSPost2010PropOp52
 70
     0
102
RTVSPost2010Prop53
 90
        2
102
RTVSPost2010PropOp53
 70
     0
102
RTVSPost2010Prop54
  1
strokes_ogs.tif
102
RTVSPost2010PropOp54
 70
     0
102
RTVSPost2010Prop55
280
     0
102
RTVSPost2010PropOp55
 70
     1
102
RTVSPost2010Prop56
140
1.0
102
RTVSPost2010PropOp56
 70
     0
102
RTVSPost2010Prop57
140
1.0
102
RTVSPost2010PropOp57
 70
     0
  0
XRECORD
  5
A20
102
{ACAD_REACTORS
330
A1F
102
}
330
A1F
100
AcDbXrecord
280
     1
102
RTVSPost2010Prop28
280
     0
102
RTVSPost2010PropOp28
 70
     1
102
RTVSPost2010Prop29
280
     1
102
RTVSPost2010PropOp29
 70
     1
102
RTVSPost2010Prop30
280
     1
102
RTVSPost2010PropOp30
 70
     1
102
RTVSPost2010Prop31
280
     0
102
RTVSPost2010PropOp31
 70
     1
102
RTVSPost2010Prop32
280
     0
102
RTVSPost2010PropOp32
 70
     1
102
RTVSPost2010Prop33
280
     0
102
RTVSPost2010PropOp33
 70
     1
102
RTVSPost2010Prop34
280
     0
102
RTVSPost2010PropOp34
 70
     1
102
RTVSPost2010Prop35
280
     0
102
RTVSPost2010PropOp35
 70
     1
102
RTVSPost2010Prop36
280
     0
102
RTVSPost2010PropOp36
 70
     1
102
RTVSPost2010Prop37
 90
       50
102
RTVSPost2010PropOp37
 70
     1
102
RTVSPost2010Prop38
140
0.0
102
RTVSPost2010PropOp38
 70
     1
102
RTVSPost2010Prop39
140
1.0
102
RTVSPost2010PropOp39
 70
     1
102
RTVSPost2010Prop40
 90
        0
102
RTVSPost2010PropOp40
 70
     1
102
RTVSPost2010Prop41ColorIndex
 90
       18
102
RTVSPost2010Prop41ColorRGB
 90
        0
102
RTVSPost2010PropOp41
 70
     1
102
RTVSPost2010Prop42
 90
       50
102
RTVSPost2010PropOp42
 70
     1
102
RTVSPost2010Prop43
 90
        3
102
RTVSPost2010PropOp43
 70
     1
102
RTVSPost2010Prop44ColorIndex
 90
        5
102
RTVSPost2010Prop44ColorRGB
 90
      255
102
RTVSPost2010PropOp44
 70
     1
102
RTVSPost2010Prop45
280
     0
102
RTVSPost2010PropOp45
 70
     1
102
RTVSPost2010Prop46
 90
       50
102
RTVSPost2010PropOp46
 70
     1
102
RTVSPost2010Prop47
 90
       50
102
RTVSPost2010PropOp47
 70
     1
102
RTVSPost2010Prop48
 90
       50
102
RTVSPost2010PropOp48
 70
     1
102
RTVSPost2010Prop49
280
     0
102
RTVSPost2010PropOp49
 70
     1
102
RTVSPost2010Prop50
 90
       50
102
RTVSPost2010PropOp50
 70
     1
102
RTVSPost2010Prop51ColorIndex
 90
      256
102
RTVSPost2010Prop51ColorRGB
 90
-16777216
102
RTVSPost2010PropOp51
 70
     0
102
RTVSPost2010Prop52
140
1.0
102
RTVSPost2010PropOp52
 70
     0
102
RTVSPost2010Prop53
 90
        2
102
RTVSPost2010PropOp53
 70
     1
102
RTVSPost2010Prop54
  1
strokes_ogs.tif
102
RTVSPost2010PropOp54
 70
     1
102
RTVSPost2010Prop55
280
     0
102
RTVSPost2010PropOp55
 70
     1
102
RTVSPost2010Prop56
140
1.0
102
RTVSPost2010PropOp56
 70
     1
102
RTVSPost2010Prop57
140
1.0
102
RTVSPost2010PropOp57
 70
     1
  0
XRECORD
  5
A32
102
{ACAD_REACTORS
330
A31
102
}
330
A31
100
AcDbXrecord
280
     1
102
RTVSPost2010Prop28
280
     0
102
RTVSPost2010PropOp28
 70
     1
102
RTVSPost2010Prop29
280
     1
102
RTVSPost2010PropOp29
 70
     1
102
RTVSPost2010Prop30
280
     1
102
RTVSPost2010PropOp30
 70
     1
102
RTVSPost2010Prop31
280
     0
102
RTVSPost2010PropOp31
 70
     1
102
RTVSPost2010Prop32
280
     0
102
RTVSPost2010PropOp32
 70
     1
102
RTVSPost2010Prop33
280
     0
102
RTVSPost2010PropOp33
 70
     1
102
RTVSPost2010Prop34
280
     0
102
RTVSPost2010PropOp34
 70
     1
102
RTVSPost2010Prop35
280
     0
102
RTVSPost2010PropOp35
 70
     1
102
RTVSPost2010Prop36
280
     0
102
RTVSPost2010PropOp36
 70
     1
102
RTVSPost2010Prop37
 90
       50
102
RTVSPost2010PropOp37
 70
     0
102
RTVSPost2010Prop38
140
0.0
102
RTVSPost2010PropOp38
 70
     0
102
RTVSPost2010Prop39
140
1.0
102
RTVSPost2010PropOp39
 70
     0
102
RTVSPost2010Prop40
 90
        0
102
RTVSPost2010PropOp40
 70
     0
102
RTVSPost2010Prop41ColorIndex
 90
       18
102
RTVSPost2010Prop41ColorRGB
 90
        0
102
RTVSPost2010PropOp41
 70
     0
102
RTVSPost2010Prop42
 90
       50
102
RTVSPost2010PropOp42
 70
     0
102
RTVSPost2010Prop43
 90
        3
102
RTVSPost2010PropOp43
 70
     0
102
RTVSPost2010Prop44ColorIndex
 90
        5
102
RTVSPost2010Prop44ColorRGB
 90
      255
102
RTVSPost2010PropOp44
 70
     0
102
RTVSPost2010Prop45
280
     0
102
RTVSPost2010PropOp45
 70
     1
102
RTVSPost2010Prop46
 90
       50
102
RTVSPost2010PropOp46
 70
     0
102
RTVSPost2010Prop47
 90
       50
102
RTVSPost2010PropOp47
 70
     0
102
RTVSPost2010Prop48
 90
       50
102
RTVSPost2010PropOp48
 70
     0
102
RTVSPost2010Prop49
280
     0
102
RTVSPost2010PropOp49
 70
     1
102
RTVSPost2010Prop50
 90
       50
102
RTVSPost2010PropOp50
 70
     0
102
RTVSPost2010Prop51ColorIndex
 90
      256
102
RTVSPost2010Prop51ColorRGB
 90
-16777216
102
RTVSPost2010PropOp51
 70
     0
102
RTVSPost2010Prop52
140
1.0
102
RTVSPost2010PropOp52
 70
     0
102
RTVSPost2010Prop53
 90
        2
102
RTVSPost2010PropOp53
 70
     0
102
RTVSPost2010Prop54
  1
strokes_ogs.tif
102
RTVSPost2010PropOp54
 70
     0
102
RTVSPost2010Prop55
280
     0
102
RTVSPost2010PropOp55
 70
     1
102
RTVSPost2010Prop56
140
1.0
102
RTVSPost2010PropOp56
 70
     0
102
RTVSPost2010Prop57
140
1.0
102
RTVSPost2010PropOp57
 70
     0
  0
XRECORD
  5
A18
102
{ACAD_REACTORS
330
A17
102
}
330
A17
100
AcDbXrecord
280
     1
102
RTVSPost2010Prop28
280
     0
102
RTVSPost2010PropOp28
 70
     1
102
RTVSPost2010Prop29
280
     1
102
RTVSPost2010PropOp29
 70
     1
102
RTVSPost2010Prop30
280
     1
102
RTVSPost2010PropOp30
 70
     1
102
RTVSPost2010Prop31
280
     0
102
RTVSPost2010PropOp31
 70
     1
102
RTVSPost2010Prop32
280
     0
102
RTVSPost2010PropOp32
 70
     1
102
RTVSPost2010Prop33
280
     0
102
RTVSPost2010PropOp33
 70
     1
102
RTVSPost2010Prop34
280
     0
102
RTVSPost2010PropOp34
 70
     1
102
RTVSPost2010Prop35
280
     0
102
RTVSPost2010PropOp35
 70
     1
102
RTVSPost2010Prop36
280
     0
102
RTVSPost2010PropOp36
 70
     1
102
RTVSPost2010Prop37
 90
       50
102
RTVSPost2010PropOp37
 70
     1
102
RTVSPost2010Prop38
140
0.0
102
RTVSPost2010PropOp38
 70
     1
102
RTVSPost2010Prop39
140
1.0
102
RTVSPost2010PropOp39
 70
     1
102
RTVSPost2010Prop40
 90
        0
102
RTVSPost2010PropOp40
 70
     1
102
RTVSPost2010Prop41ColorIndex
 90
       18
102
RTVSPost2010Prop41ColorRGB
 90
        0
102
RTVSPost2010PropOp41
 70
     1
102
RTVSPost2010Prop42
 90
       50
102
RTVSPost2010PropOp42
 70
     1
102
RTVSPost2010Prop43
 90
        3
102
RTVSPost2010PropOp43
 70
     1
102
RTVSPost2010Prop44ColorIndex
 90
        5
102
RTVSPost2010Prop44ColorRGB
 90
      255
102
RTVSPost2010PropOp44
 70
     1
102
RTVSPost2010Prop45
280
     0
102
RTVSPost2010PropOp45
 70
     1
102
RTVSPost2010Prop46
 90
       50
102
RTVSPost2010PropOp46
 70
     1
102
RTVSPost2010Prop47
 90
       50
102
RTVSPost2010PropOp47
 70
     1
102
RTVSPost2010Prop48
 90
       50
102
RTVSPost2010PropOp48
 70
     1
102
RTVSPost2010Prop49
280
     0
102
RTVSPost2010PropOp49
 70
     1
102
RTVSPost2010Prop50
 90
       50
102
RTVSPost2010PropOp50
 70
     1
102
RTVSPost2010Prop51ColorIndex
 90
      256
102
RTVSPost2010Prop51ColorRGB
 90
-16777216
102
RTVSPost2010PropOp51
 70
     0
102
RTVSPost2010Prop52
140
1.0
102
RTVSPost2010PropOp52
 70
     0
102
RTVSPost2010Prop53
 90
        2
102
RTVSPost2010PropOp53
 70
     1
102
RTVSPost2010Prop54
  1
strokes_ogs.tif
102
RTVSPost2010PropOp54
 70
     1
102
RTVSPost2010Prop55
280
     0
102
RTVSPost2010PropOp55
 70
     1
102
RTVSPost2010Prop56
140
1.0
102
RTVSPost2010PropOp56
 70
     1
102
RTVSPost2010Prop57
140
1.0
102
RTVSPost2010PropOp57
 70
     1
  0
XRECORD
  5
A2E
102
{ACAD_REACTORS
330
A2D
102
}
330
A2D
100
AcDbXrecord
280
     1
102
RTVSPost2010Prop28
280
     0
102
RTVSPost2010PropOp28
 70
     1
102
RTVSPost2010Prop29
280
     1
102
RTVSPost2010PropOp29
 70
     1
102
RTVSPost2010Prop30
280
     1
102
RTVSPost2010PropOp30
 70
     1
102
RTVSPost2010Prop31
280
     0
102
RTVSPost2010PropOp31
 70
     1
102
RTVSPost2010Prop32
280
     0
102
RTVSPost2010PropOp32
 70
     1
102
RTVSPost2010Prop33
280
     0
102
RTVSPost2010PropOp33
 70
     1
102
RTVSPost2010Prop34
280
     0
102
RTVSPost2010PropOp34
 70
     1
102
RTVSPost2010Prop35
280
     0
102
RTVSPost2010PropOp35
 70
     1
102
RTVSPost2010Prop36
280
     0
102
RTVSPost2010PropOp36
 70
     1
102
RTVSPost2010Prop37
 90
       50
102
RTVSPost2010PropOp37
 70
     1
102
RTVSPost2010Prop38
140
0.0
102
RTVSPost2010PropOp38
 70
     1
102
RTVSPost2010Prop39
140
1.0
102
RTVSPost2010PropOp39
 70
     1
102
RTVSPost2010Prop40
 90
        0
102
RTVSPost2010PropOp40
 70
     1
102
RTVSPost2010Prop41ColorIndex
 90
       18
102
RTVSPost2010Prop41ColorRGB
 90
        0
102
RTVSPost2010PropOp41
 70
     1
102
RTVSPost2010Prop42
 90
       50
102
RTVSPost2010PropOp42
 70
     1
102
RTVSPost2010Prop43
 90
        3
102
RTVSPost2010PropOp43
 70
     1
102
RTVSPost2010Prop44ColorIndex
 90
        5
102
RTVSPost2010Prop44ColorRGB
 90
      255
102
RTVSPost2010PropOp44
 70
     1
102
RTVSPost2010Prop45
280
     0
102
RTVSPost2010PropOp45
 70
     1
102
RTVSPost2010Prop46
 90
       50
102
RTVSPost2010PropOp46
 70
     1
102
RTVSPost2010Prop47
 90
       50
102
RTVSPost2010PropOp47
 70
     1
102
RTVSPost2010Prop48
 90
       50
102
RTVSPost2010PropOp48
 70
     1
102
RTVSPost2010Prop49
280
     0
102
RTVSPost2010PropOp49
 70
     1
102
RTVSPost2010Prop50
 90
       50
102
RTVSPost2010PropOp50
 70
     1
102
RTVSPost2010Prop51ColorIndex
 90
      256
102
RTVSPost2010Prop51ColorRGB
 90
-16777216
102
RTVSPost2010PropOp51
 70
     0
102
RTVSPost2010Prop52
140
1.0
102
RTVSPost2010PropOp52
 70
     0
102
RTVSPost2010Prop53
 90
        2
102
RTVSPost2010PropOp53
 70
     1
102
RTVSPost2010Prop54
  1
strokes_ogs.tif
102
RTVSPost2010PropOp54
 70
     1
102
RTVSPost2010Prop55
280
     0
102
RTVSPost2010PropOp55
 70
     1
102
RTVSPost2010Prop56
140
1.0
102
RTVSPost2010PropOp56
 70
     1
102
RTVSPost2010Prop57
140
1.0
102
RTVSPost2010PropOp57
 70
     1
  0
XRECORD
  5
A2C
102
{ACAD_REACTORS
330
A2B
102
}
330
A2B
100
AcDbXrecord
280
     1
102
RTVSPost2010Prop28
280
     0
102
RTVSPost2010PropOp28
 70
     1
102
RTVSPost2010Prop29
280
     1
102
RTVSPost2010PropOp29
 70
     1
102
RTVSPost2010Prop30
280
     1
102
RTVSPost2010PropOp30
 70
     1
102
RTVSPost2010Prop31
280
     0
102
RTVSPost2010PropOp31
 70
     1
102
RTVSPost2010Prop32
280
     0
102
RTVSPost2010PropOp32
 70
     1
102
RTVSPost2010Prop33
280
     0
102
RTVSPost2010PropOp33
 70
     1
102
RTVSPost2010Prop34
280
     0
102
RTVSPost2010PropOp34
 70
     1
102
RTVSPost2010Prop35
280
     0
102
RTVSPost2010PropOp35
 70
     1
102
RTVSPost2010Prop36
280
     0
102
RTVSPost2010PropOp36
 70
     1
102
RTVSPost2010Prop37
 90
       50
102
RTVSPost2010PropOp37
 70
     1
102
RTVSPost2010Prop38
140
0.0
102
RTVSPost2010PropOp38
 70
     1
102
RTVSPost2010Prop39
140
1.0
102
RTVSPost2010PropOp39
 70
     1
102
RTVSPost2010Prop40
 90
        0
102
RTVSPost2010PropOp40
 70
     1
102
RTVSPost2010Prop41ColorIndex
 90
       18
102
RTVSPost2010Prop41ColorRGB
 90
        0
102
RTVSPost2010PropOp41
 70
     1
102
RTVSPost2010Prop42
 90
       50
102
RTVSPost2010PropOp42
 70
     1
102
RTVSPost2010Prop43
 90
        3
102
RTVSPost2010PropOp43
 70
     1
102
RTVSPost2010Prop44ColorIndex
 90
        5
102
RTVSPost2010Prop44ColorRGB
 90
      255
102
RTVSPost2010PropOp44
 70
     1
102
RTVSPost2010Prop45
280
     0
102
RTVSPost2010PropOp45
 70
     1
102
RTVSPost2010Prop46
 90
       50
102
RTVSPost2010PropOp46
 70
     1
102
RTVSPost2010Prop47
 90
       50
102
RTVSPost2010PropOp47
 70
     1
102
RTVSPost2010Prop48
 90
       50
102
RTVSPost2010PropOp48
 70
     1
102
RTVSPost2010Prop49
280
     0
102
RTVSPost2010PropOp49
 70
     1
102
RTVSPost2010Prop50
 90
       50
102
RTVSPost2010PropOp50
 70
     1
102
RTVSPost2010Prop51ColorIndex
 90
      256
102
RTVSPost2010Prop51ColorRGB
 90
-16777216
102
RTVSPost2010PropOp51
 70
     0
102
RTVSPost2010Prop52
140
1.0
102
RTVSPost2010PropOp52
 70
     0
102
RTVSPost2010Prop53
 90
        2
102
RTVSPost2010PropOp53
 70
     1
102
RTVSPost2010Prop54
  1
strokes_ogs.tif
102
RTVSPost2010PropOp54
 70
     1
102
RTVSPost2010Prop55
280
     0
102
RTVSPost2010PropOp55
 70
     1
102
RTVSPost2010Prop56
140
1.0
102
RTVSPost2010PropOp56
 70
     1
102
RTVSPost2010Prop57
140
1.0
102
RTVSPost2010PropOp57
 70
     1
  0
XRECORD
  5
A26
102
{ACAD_REACTORS
330
A25
102
}
330
A25
100
AcDbXrecord
280
     1
102
RTVSPost2010Prop28
280
     0
102
RTVSPost2010PropOp28
 70
     1
102
RTVSPost2010Prop29
280
     1
102
RTVSPost2010PropOp29
 70
     1
102
RTVSPost2010Prop30
280
     1
102
RTVSPost2010PropOp30
 70
     1
102
RTVSPost2010Prop31
280
     0
102
RTVSPost2010PropOp31
 70
     1
102
RTVSPost2010Prop32
280
     0
102
RTVSPost2010PropOp32
 70
     1
102
RTVSPost2010Prop33
280
     0
102
RTVSPost2010PropOp33
 70
     1
102
RTVSPost2010Prop34
280
     0
102
RTVSPost2010PropOp34
 70
     1
102
RTVSPost2010Prop35
280
     0
102
RTVSPost2010PropOp35
 70
     1
102
RTVSPost2010Prop36
280
     0
102
RTVSPost2010PropOp36
 70
     1
102
RTVSPost2010Prop37
 90
       50
102
RTVSPost2010PropOp37
 70
     1
102
RTVSPost2010Prop38
140
0.0
102
RTVSPost2010PropOp38
 70
     1
102
RTVSPost2010Prop39
140
1.0
102
RTVSPost2010PropOp39
 70
     1
102
RTVSPost2010Prop40
 90
        0
102
RTVSPost2010PropOp40
 70
     1
102
RTVSPost2010Prop41ColorIndex
 90
       18
102
RTVSPost2010Prop41ColorRGB
 90
        0
102
RTVSPost2010PropOp41
 70
     1
102
RTVSPost2010Prop42
 90
       50
102
RTVSPost2010PropOp42
 70
     1
102
RTVSPost2010Prop43
 90
        3
102
RTVSPost2010PropOp43
 70
     1
102
RTVSPost2010Prop44ColorIndex
 90
        5
102
RTVSPost2010Prop44ColorRGB
 90
      255
102
RTVSPost2010PropOp44
 70
     1
102
RTVSPost2010Prop45
280
     0
102
RTVSPost2010PropOp45
 70
     1
102
RTVSPost2010Prop46
 90
       50
102
RTVSPost2010PropOp46
 70
     1
102
RTVSPost2010Prop47
 90
       50
102
RTVSPost2010PropOp47
 70
     1
102
RTVSPost2010Prop48
 90
       50
102
RTVSPost2010PropOp48
 70
     1
102
RTVSPost2010Prop49
280
     0
102
RTVSPost2010PropOp49
 70
     1
102
RTVSPost2010Prop50
 90
       50
102
RTVSPost2010PropOp50
 70
     1
102
RTVSPost2010Prop51ColorIndex
 90
      256
102
RTVSPost2010Prop51ColorRGB
 90
-16777216
102
RTVSPost2010PropOp51
 70
     0
102
RTVSPost2010Prop52
140
1.0
102
RTVSPost2010PropOp52
 70
     0
102
RTVSPost2010Prop53
 90
        2
102
RTVSPost2010PropOp53
 70
     1
102
RTVSPost2010Prop54
  1
strokes_ogs.tif
102
RTVSPost2010PropOp54
 70
     1
102
RTVSPost2010Prop55
280
     0
102
RTVSPost2010PropOp55
 70
     1
102
RTVSPost2010Prop56
140
1.0
102
RTVSPost2010PropOp56
 70
     1
102
RTVSPost2010Prop57
140
1.0
102
RTVSPost2010PropOp57
 70
     1
  0
XRECORD
  5
A28
102
{ACAD_REACTORS
330
A27
102
}
330
A27
100
AcDbXrecord
280
     1
102
RTVSPost2010Prop28
280
     0
102
RTVSPost2010PropOp28
 70
     1
102
RTVSPost2010Prop29
280
     1
102
RTVSPost2010PropOp29
 70
     1
102
RTVSPost2010Prop30
280
     1
102
RTVSPost2010PropOp30
 70
     1
102
RTVSPost2010Prop31
280
     0
102
RTVSPost2010PropOp31
 70
     1
102
RTVSPost2010Prop32
280
     0
102
RTVSPost2010PropOp32
 70
     1
102
RTVSPost2010Prop33
280
     0
102
RTVSPost2010PropOp33
 70
     1
102
RTVSPost2010Prop34
280
     0
102
RTVSPost2010PropOp34
 70
     1
102
RTVSPost2010Prop35
280
     0
102
RTVSPost2010PropOp35
 70
     1
102
RTVSPost2010Prop36
280
     0
102
RTVSPost2010PropOp36
 70
     1
102
RTVSPost2010Prop37
 90
       50
102
RTVSPost2010PropOp37
 70
     1
102
RTVSPost2010Prop38
140
0.0
102
RTVSPost2010PropOp38
 70
     1
102
RTVSPost2010Prop39
140
1.0
102
RTVSPost2010PropOp39
 70
     1
102
RTVSPost2010Prop40
 90
        0
102
RTVSPost2010PropOp40
 70
     1
102
RTVSPost2010Prop41ColorIndex
 90
       18
102
RTVSPost2010Prop41ColorRGB
 90
        0
102
RTVSPost2010PropOp41
 70
     1
102
RTVSPost2010Prop42
 90
       50
102
RTVSPost2010PropOp42
 70
     1
102
RTVSPost2010Prop43
 90
        3
102
RTVSPost2010PropOp43
 70
     1
102
RTVSPost2010Prop44ColorIndex
 90
        5
102
RTVSPost2010Prop44ColorRGB
 90
      255
102
RTVSPost2010PropOp44
 70
     1
102
RTVSPost2010Prop45
280
     0
102
RTVSPost2010PropOp45
 70
     1
102
RTVSPost2010Prop46
 90
       50
102
RTVSPost2010PropOp46
 70
     1
102
RTVSPost2010Prop47
 90
       50
102
RTVSPost2010PropOp47
 70
     1
102
RTVSPost2010Prop48
 90
       50
102
RTVSPost2010PropOp48
 70
     1
102
RTVSPost2010Prop49
280
     0
102
RTVSPost2010PropOp49
 70
     1
102
RTVSPost2010Prop50
 90
       50
102
RTVSPost2010PropOp50
 70
     1
102
RTVSPost2010Prop51ColorIndex
 90
      256
102
RTVSPost2010Prop51ColorRGB
 90
-16777216
102
RTVSPost2010PropOp51
 70
     0
102
RTVSPost2010Prop52
140
1.0
102
RTVSPost2010PropOp52
 70
     0
102
RTVSPost2010Prop53
 90
        2
102
RTVSPost2010PropOp53
 70
     1
102
RTVSPost2010Prop54
  1
strokes_ogs.tif
102
RTVSPost2010PropOp54
 70
     1
102
RTVSPost2010Prop55
280
     0
102
RTVSPost2010PropOp55
 70
     1
102
RTVSPost2010Prop56
140
1.0
102
RTVSPost2010PropOp56
 70
     1
102
RTVSPost2010Prop57
140
1.0
102
RTVSPost2010PropOp57
 70
     1
  0
XRECORD
  5
A1E
102
{ACAD_REACTORS
330
A1D
102
}
330
A1D
100
AcDbXrecord
280
     1
102
RTVSPost2010Prop28
280
     0
102
RTVSPost2010PropOp28
 70
     1
102
RTVSPost2010Prop29
280
     1
102
RTVSPost2010PropOp29
 70
     1
102
RTVSPost2010Prop30
280
     1
102
RTVSPost2010PropOp30
 70
     1
102
RTVSPost2010Prop31
280
     0
102
RTVSPost2010PropOp31
 70
     1
102
RTVSPost2010Prop32
280
     0
102
RTVSPost2010PropOp32
 70
     1
102
RTVSPost2010Prop33
280
     0
102
RTVSPost2010PropOp33
 70
     1
102
RTVSPost2010Prop34
280
     0
102
RTVSPost2010PropOp34
 70
     1
102
RTVSPost2010Prop35
280
     0
102
RTVSPost2010PropOp35
 70
     1
102
RTVSPost2010Prop36
280
     0
102
RTVSPost2010PropOp36
 70
     1
102
RTVSPost2010Prop37
 90
       50
102
RTVSPost2010PropOp37
 70
     1
102
RTVSPost2010Prop38
140
0.0
102
RTVSPost2010PropOp38
 70
     1
102
RTVSPost2010Prop39
140
1.0
102
RTVSPost2010PropOp39
 70
     1
102
RTVSPost2010Prop40
 90
        0
102
RTVSPost2010PropOp40
 70
     1
102
RTVSPost2010Prop41ColorIndex
 90
       18
102
RTVSPost2010Prop41ColorRGB
 90
        0
102
RTVSPost2010PropOp41
 70
     1
102
RTVSPost2010Prop42
 90
       50
102
RTVSPost2010PropOp42
 70
     1
102
RTVSPost2010Prop43
 90
        3
102
RTVSPost2010PropOp43
 70
     1
102
RTVSPost2010Prop44ColorIndex
 90
        5
102
RTVSPost2010Prop44ColorRGB
 90
      255
102
RTVSPost2010PropOp44
 70
     1
102
RTVSPost2010Prop45
280
     0
102
RTVSPost2010PropOp45
 70
     1
102
RTVSPost2010Prop46
 90
       50
102
RTVSPost2010PropOp46
 70
     1
102
RTVSPost2010Prop47
 90
       50
102
RTVSPost2010PropOp47
 70
     1
102
RTVSPost2010Prop48
 90
       50
102
RTVSPost2010PropOp48
 70
     1
102
RTVSPost2010Prop49
280
     0
102
RTVSPost2010PropOp49
 70
     1
102
RTVSPost2010Prop50
 90
       50
102
RTVSPost2010PropOp50
 70
     1
102
RTVSPost2010Prop51ColorIndex
 90
      256
102
RTVSPost2010Prop51ColorRGB
 90
-16777216
102
RTVSPost2010PropOp51
 70
     0
102
RTVSPost2010Prop52
140
1.0
102
RTVSPost2010PropOp52
 70
     0
102
RTVSPost2010Prop53
 90
        2
102
RTVSPost2010PropOp53
 70
     1
102
RTVSPost2010Prop54
  1
strokes_ogs.tif
102
RTVSPost2010PropOp54
 70
     1
102
RTVSPost2010Prop55
280
     0
102
RTVSPost2010PropOp55
 70
     1
102
RTVSPost2010Prop56
140
1.0
102
RTVSPost2010PropOp56
 70
     1
102
RTVSPost2010Prop57
140
1.0
102
RTVSPost2010PropOp57
 70
     1
  0
XRECORD
  5
A12
102
{ACAD_REACTORS
330
A11
102
}
330
A11
100
AcDbXrecord
280
     1
102
RTVSPost2010Prop28
280
     0
102
RTVSPost2010PropOp28
 70
     1
102
RTVSPost2010Prop29
280
     1
102
RTVSPost2010PropOp29
 70
     1
102
RTVSPost2010Prop30
280
     1
102
RTVSPost2010PropOp30
 70
     1
102
RTVSPost2010Prop31
280
     0
102
RTVSPost2010PropOp31
 70
     1
102
RTVSPost2010Prop32
280
     0
102
RTVSPost2010PropOp32
 70
     1
102
RTVSPost2010Prop33
280
     0
102
RTVSPost2010PropOp33
 70
     1
102
RTVSPost2010Prop34
280
     0
102
RTVSPost2010PropOp34
 70
     1
102
RTVSPost2010Prop35
280
     0
102
RTVSPost2010PropOp35
 70
     1
102
RTVSPost2010Prop36
280
     0
102
RTVSPost2010PropOp36
 70
     1
102
RTVSPost2010Prop37
 90
       50
102
RTVSPost2010PropOp37
 70
     1
102
RTVSPost2010Prop38
140
0.0
102
RTVSPost2010PropOp38
 70
     1
102
RTVSPost2010Prop39
140
1.0
102
RTVSPost2010PropOp39
 70
     1
102
RTVSPost2010Prop40
 90
        0
102
RTVSPost2010PropOp40
 70
     1
102
RTVSPost2010Prop41ColorIndex
 90
       18
102
RTVSPost2010Prop41ColorRGB
 90
        0
102
RTVSPost2010PropOp41
 70
     1
102
RTVSPost2010Prop42
 90
       50
102
RTVSPost2010PropOp42
 70
     1
102
RTVSPost2010Prop43
 90
        3
102
RTVSPost2010PropOp43
 70
     1
102
RTVSPost2010Prop44ColorIndex
 90
        5
102
RTVSPost2010Prop44ColorRGB
 90
      255
102
RTVSPost2010PropOp44
 70
     1
102
RTVSPost2010Prop45
280
     0
102
RTVSPost2010PropOp45
 70
     1
102
RTVSPost2010Prop46
 90
       50
102
RTVSPost2010PropOp46
 70
     1
102
RTVSPost2010Prop47
 90
       50
102
RTVSPost2010PropOp47
 70
     1
102
RTVSPost2010Prop48
 90
       50
102
RTVSPost2010PropOp48
 70
     1
102
RTVSPost2010Prop49
280
     0
102
RTVSPost2010PropOp49
 70
     1
102
RTVSPost2010Prop50
 90
       50
102
RTVSPost2010PropOp50
 70
     1
102
RTVSPost2010Prop51ColorIndex
 90
      256
102
RTVSPost2010Prop51ColorRGB
 90
-16777216
102
RTVSPost2010PropOp51
 70
     0
102
RTVSPost2010Prop52
140
1.0
102
RTVSPost2010PropOp52
 70
     0
102
RTVSPost2010Prop53
 90
        2
102
RTVSPost2010PropOp53
 70
     1
102
RTVSPost2010Prop54
  1
strokes_ogs.tif
102
RTVSPost2010PropOp54
 70
     1
102
RTVSPost2010Prop55
280
     0
102
RTVSPost2010PropOp55
 70
     1
102
RTVSPost2010Prop56
140
1.0
102
RTVSPost2010PropOp56
 70
     1
102
RTVSPost2010Prop57
140
1.0
102
RTVSPost2010PropOp57
 70
     1
  0
XRECORD
  5
A2A
102
{ACAD_REACTORS
330
A29
102
}
330
A29
100
AcDbXrecord
280
     1
102
RTVSPost2010Prop28
280
     0
102
RTVSPost2010PropOp28
 70
     1
102
RTVSPost2010Prop29
280
     1
102
RTVSPost2010PropOp29
 70
     1
102
RTVSPost2010Prop30
280
     1
102
RTVSPost2010PropOp30
 70
     1
102
RTVSPost2010Prop31
280
     0
102
RTVSPost2010PropOp31
 70
     1
102
RTVSPost2010Prop32
280
     0
102
RTVSPost2010PropOp32
 70
     1
102
RTVSPost2010Prop33
280
     0
102
RTVSPost2010PropOp33
 70
     1
102
RTVSPost2010Prop34
280
     0
102
RTVSPost2010PropOp34
 70
     1
102
RTVSPost2010Prop35
280
     0
102
RTVSPost2010PropOp35
 70
     1
102
RTVSPost2010Prop36
280
     0
102
RTVSPost2010PropOp36
 70
     1
102
RTVSPost2010Prop37
 90
       50
102
RTVSPost2010PropOp37
 70
     1
102
RTVSPost2010Prop38
140
0.0
102
RTVSPost2010PropOp38
 70
     1
102
RTVSPost2010Prop39
140
1.0
102
RTVSPost2010PropOp39
 70
     1
102
RTVSPost2010Prop40
 90
        0
102
RTVSPost2010PropOp40
 70
     1
102
RTVSPost2010Prop41ColorIndex
 90
       18
102
RTVSPost2010Prop41ColorRGB
 90
        0
102
RTVSPost2010PropOp41
 70
     1
102
RTVSPost2010Prop42
 90
       50
102
RTVSPost2010PropOp42
 70
     1
102
RTVSPost2010Prop43
 90
        3
102
RTVSPost2010PropOp43
 70
     1
102
RTVSPost2010Prop44ColorIndex
 90
        5
102
RTVSPost2010Prop44ColorRGB
 90
      255
102
RTVSPost2010PropOp44
 70
     1
102
RTVSPost2010Prop45
280
     0
102
RTVSPost2010PropOp45
 70
     1
102
RTVSPost2010Prop46
 90
       50
102
RTVSPost2010PropOp46
 70
     1
102
RTVSPost2010Prop47
 90
       50
102
RTVSPost2010PropOp47
 70
     1
102
RTVSPost2010Prop48
 90
       50
102
RTVSPost2010PropOp48
 70
     1
102
RTVSPost2010Prop49
280
     0
102
RTVSPost2010PropOp49
 70
     1
102
RTVSPost2010Prop50
 90
       50
102
RTVSPost2010PropOp50
 70
     1
102
RTVSPost2010Prop51ColorIndex
 90
      256
102
RTVSPost2010Prop51ColorRGB
 90
-16777216
102
RTVSPost2010PropOp51
 70
     0
102
RTVSPost2010Prop52
140
1.0
102
RTVSPost2010PropOp52
 70
     0
102
RTVSPost2010Prop53
 90
        2
102
RTVSPost2010PropOp53
 70
     1
102
RTVSPost2010Prop54
  1
strokes_ogs.tif
102
RTVSPost2010PropOp54
 70
     1
102
RTVSPost2010Prop55
280
     0
102
RTVSPost2010PropOp55
 70
     1
102
RTVSPost2010Prop56
140
1.0
102
RTVSPost2010PropOp56
 70
     1
102
RTVSPost2010Prop57
140
1.0
102
RTVSPost2010PropOp57
 70
     1
  0
ENDSEC
  0
EOF
