  0
SECTION
  2
HEADER
  9
$ACADVER
  1
AC1024
  9
$ACADMAINTVER
 70
   181
  9
$DWGCODEPAGE
  3
ANSI_932
  9
$LASTSAVEDBY
  1
kenzai
  9
$INSBASE
 10
0.0
 20
0.0
 30
0.0
  9
$EXTMIN
 10
-237.2263146483291
 20
-53.74623665258929
 30
-0.000000000000013
  9
$EXTMAX
 10
39.30780398018919
 20
135.7747899348982
 30
0.0000000000000023
  9
$LIMMIN
 10
-247.2100037059508
 20
-63.73738705550861
  9
$LIMMAX
 10
49.78999629404917
 20
146.2626129444914
  9
$ORTHOMODE
 70
     1
  9
$REGENMODE
 70
     1
  9
$FILLMODE
 70
     1
  9
$QTEXTMODE
 70
     0
  9
$MIRRTEXT
 70
     1
  9
$LTSCALE
 40
0.3
  9
$ATTMODE
 70
     1
  9
$TEXTSIZE
 40
2.5
  9
$TRACEWID
 40
1.0
  9
$TEXTSTYLE
  7
Standard
  9
$CLAYER
  8
0
  9
$CELTYPE
  6
ByLayer
  9
$CECOLOR
 62
   256
  9
$CELTSCALE
 40
1.0
  9
$DISPSILH
 70
     0
  9
$DIMSCALE
 40
1.0
  9
$DIMASZ
 40
2.5
  9
$DIMEXO
 40
0.625
  9
$DIMDLI
 40
3.75
  9
$DIMRND
 40
0.0
  9
$DIMDLE
 40
0.0
  9
$DIMEXE
 40
1.25
  9
$DIMTP
 40
0.0
  9
$DIMTM
 40
0.0
  9
$DIMTXT
 40
2.5
  9
$DIMCEN
 40
2.5
  9
$DIMTSZ
 40
0.0
  9
$DIMTOL
 70
     0
  9
$DIMLIM
 70
     0
  9
$DIMTIH
 70
     0
  9
$DIMTOH
 70
     0
  9
$DIMSE1
 70
     0
  9
$DIMSE2
 70
     0
  9
$DIMTAD
 70
     1
  9
$DIMZIN
 70
     8
  9
$DIMBLK
  1

  9
$DIMASO
 70
     1
  9
$DIMSHO
 70
     1
  9
$DIMPOST
  1

  9
$DIMAPOST
  1

  9
$DIMALT
 70
     0
  9
$DIMALTD
 70
     3
  9
$DIMALTF
 40
0.03937007874016
  9
$DIMLFAC
 40
1.0
  9
$DIMTOFL
 70
     1
  9
$DIMTVP
 40
0.0
  9
$DIMTIX
 70
     0
  9
$DIMSOXD
 70
     0
  9
$DIMSAH
 70
     0
  9
$DIMBLK1
  1

  9
$DIMBLK2
  1

  9
$DIMSTYLE
  2
ISO-25
  9
$DIMCLRD
 70
     0
  9
$DIMCLRE
 70
     0
  9
$DIMCLRT
 70
     0
  9
$DIMTFAC
 40
1.0
  9
$DIMGAP
 40
0.625
  9
$DIMJUST
 70
     0
  9
$DIMSD1
 70
     0
  9
$DIMSD2
 70
     0
  9
$DIMTOLJ
 70
     0
  9
$DIMTZIN
 70
     8
  9
$DIMALTZ
 70
     0
  9
$DIMALTTZ
 70
     0
  9
$DIMUPT
 70
     0
  9
$DIMDEC
 70
     2
  9
$DIMTDEC
 70
     2
  9
$DIMALTU
 70
     2
  9
$DIMALTTD
 70
     3
  9
$DIMTXSTY
  7
Standard
  9
$DIMAUNIT
 70
     0
  9
$DIMADEC
 70
     0
  9
$DIMALTRND
 40
0.0
  9
$DIMAZIN
 70
     0
  9
$DIMDSEP
 70
    44
  9
$DIMATFIT
 70
     3
  9
$DIMFRAC
 70
     0
  9
$DIMLDRBLK
  1

  9
$DIMLUNIT
 70
     2
  9
$DIMLWD
 70
    -2
  9
$DIMLWE
 70
    -2
  9
$DIMTMOVE
 70
     0
  9
$DIMFXL
 40
1.0
  9
$DIMFXLON
 70
     0
  9
$DIMJOGANG
 40
0.7853981633974483
  9
$DIMTFILL
 70
     0
  9
$DIMTFILLCLR
 70
     0
  9
$DIMARCSYM
 70
     0
  9
$DIMLTYPE
  6

  9
$DIMLTEX1
  6

  9
$DIMLTEX2
  6

  9
$DIMTXTDIRECTION
 70
     0
  9
$LUNITS
 70
     2
  9
$LUPREC
 70
     4
  9
$SKETCHINC
 40
1.0
  9
$FILLETRAD
 40
10.0
  9
$AUNITS
 70
     0
  9
$AUPREC
 70
     0
  9
$MENU
  1
.
  9
$ELEVATION
 40
0.0
  9
$PELEVATION
 40
0.0
  9
$THICKNESS
 40
0.0
  9
$LIMCHECK
 70
     0
  9
$CHAMFERA
 40
10.0
  9
$CHAMFERB
 40
10.0
  9
$CHAMFERC
 40
20.0
  9
$CHAMFERD
 40
0.0
  9
$SKPOLY
 70
     0
  9
$TDCREATE
 40
2455483.670770752
  9
$TDUCREATE
 40
2455483.295770752
  9
$TDUPDATE
 40
2457291.669048738
  9
$TDUUPDATE
 40
2457291.294048738
  9
$TDINDWG
 40
0.0543336574
  9
$TDUSRTIMER
 40
0.0543313194
  9
$USRTIMER
 70
     1
  9
$ANGBASE
 50
0.0
  9
$ANGDIR
 70
     0
  9
$PDMODE
 70
     0
  9
$PDSIZE
 40
0.0
  9
$PLINEWID
 40
0.0
  9
$SPLFRAME
 70
     0
  9
$SPLINETYPE
 70
     6
  9
$SPLINESEGS
 70
     8
  9
$HANDSEED
  5
62E
  9
$SURFTAB1
 70
     6
  9
$SURFTAB2
 70
     6
  9
$SURFTYPE
 70
     6
  9
$SURFU
 70
     6
  9
$SURFV
 70
     6
  9
$UCSBASE
  2

  9
$UCSNAME
  2

  9
$UCSORG
 10
0.0
 20
0.0
 30
0.0
  9
$UCSXDIR
 10
1.0
 20
0.0
 30
0.0
  9
$UCSYDIR
 10
0.0
 20
1.0
 30
0.0
  9
$UCSORTHOREF
  2

  9
$UCSORTHOVIEW
 70
     0
  9
$UCSORGTOP
 10
0.0
 20
0.0
 30
0.0
  9
$UCSORGBOTTOM
 10
0.0
 20
0.0
 30
0.0
  9
$UCSORGLEFT
 10
0.0
 20
0.0
 30
0.0
  9
$UCSORGRIGHT
 10
0.0
 20
0.0
 30
0.0
  9
$UCSORGFRONT
 10
0.0
 20
0.0
 30
0.0
  9
$UCSORGBACK
 10
0.0
 20
0.0
 30
0.0
  9
$PUCSBASE
  2

  9
$PUCSNAME
  2

  9
$PUCSORG
 10
0.0
 20
0.0
 30
0.0
  9
$PUCSXDIR
 10
1.0
 20
0.0
 30
0.0
  9
$PUCSYDIR
 10
0.0
 20
1.0
 30
0.0
  9
$PUCSORTHOREF
  2

  9
$PUCSORTHOVIEW
 70
     0
  9
$PUCSORGTOP
 10
0.0
 20
0.0
 30
0.0
  9
$PUCSORGBOTTOM
 10
0.0
 20
0.0
 30
0.0
  9
$PUCSORGLEFT
 10
0.0
 20
0.0
 30
0.0
  9
$PUCSORGRIGHT
 10
0.0
 20
0.0
 30
0.0
  9
$PUCSORGFRONT
 10
0.0
 20
0.0
 30
0.0
  9
$PUCSORGBACK
 10
0.0
 20
0.0
 30
0.0
  9
$USERI1
 70
     0
  9
$USERI2
 70
     0
  9
$USERI3
 70
     0
  9
$USERI4
 70
     0
  9
$USERI5
 70
     0
  9
$USERR1
 40
0.0
  9
$USERR2
 40
0.0
  9
$USERR3
 40
0.0
  9
$USERR4
 40
0.0
  9
$USERR5
 40
0.0
  9
$WORLDVIEW
 70
     1
  9
$SHADEDGE
 70
     3
  9
$SHADEDIF
 70
    70
  9
$TILEMODE
 70
     1
  9
$MAXACTVP
 70
    64
  9
$PINSBASE
 10
0.0
 20
0.0
 30
0.0
  9
$PLIMCHECK
 70
     0
  9
$PEXTMIN
 10
1.000000000000000E+20
 20
1.000000000000000E+20
 30
1.000000000000000E+20
  9
$PEXTMAX
 10
-1.000000000000000E+20
 20
-1.000000000000000E+20
 30
-1.000000000000000E+20
  9
$PLIMMIN
 10
-247.2100037059508
 20
-63.73738705550861
  9
$PLIMMAX
 10
49.78999629404917
 20
146.2626129444914
  9
$UNITMODE
 70
     0
  9
$VISRETAIN
 70
     1
  9
$PLINEGEN
 70
     0
  9
$PSLTSCALE
 70
     1
  9
$TREEDEPTH
 70
  3020
  9
$CMLSTYLE
  2
Standard
  9
$CMLJUST
 70
     0
  9
$CMLSCALE
 40
20.0
  9
$PROXYGRAPHICS
 70
     1
  9
$MEASUREMENT
 70
     1
  9
$CELWEIGHT
370
    -1
  9
$ENDCAPS
280
     0
  9
$JOINSTYLE
280
     0
  9
$LWDISPLAY
290
     1
  9
$INSUNITS
 70
     4
  9
$HYPERLINKBASE
  1

  9
$STYLESHEET
  1
MONOCHROME.CTB
  9
$XEDIT
290
     1
  9
$CEPSNTYPE
380
     0
  9
$PSTYLEMODE
290
     1
  9
$FINGERPRINTGUID
  2
{75455C96-7D3C-48BA-AC80-EDDDCC16E185}
  9
$VERSIONGUID
  2
{44EBA98E-506B-4660-AEA9-5B9628A10CA4}
  9
$EXTNAMES
290
     1
  9
$PSVPSCALE
 40
0.0
  9
$OLESTARTUP
290
     0
  9
$SORTENTS
280
   127
  9
$INDEXCTL
280
     0
  9
$HIDETEXT
280
     0
  9
$XCLIPFRAME
280
     2
  9
$HALOGAP
280
     0
  9
$OBSCOLOR
 70
   257
  9
$OBSLTYPE
280
     0
  9
$INTERSECTIONDISPLAY
280
     0
  9
$INTERSECTIONCOLOR
 70
   257
  9
$DIMASSOC
280
     1
  9
$PROJECTNAME
  1

  9
$CAMERADISPLAY
290
     0
  9
$LENSLENGTH
 40
50.0
  9
$CAMERAHEIGHT
 40
0.0
  9
$STEPSPERSEC
 40
2.0
  9
$STEPSIZE
 40
6.0
  9
$3DDWFPREC
 40
2.0
  9
$PSOLWIDTH
 40
0.25
  9
$PSOLHEIGHT
 40
4.0
  9
$LOFTANG1
 40
1.570796326794896
  9
$LOFTANG2
 40
1.570796326794896
  9
$LOFTMAG1
 40
0.0
  9
$LOFTMAG2
 40
0.0
  9
$LOFTPARAM
 70
     7
  9
$LOFTNORMALS
280
     1
  9
$LATITUDE
 40
37.795
  9
$LONGITUDE
 40
-122.394
  9
$NORTHDIRECTION
 40
0.0
  9
$TIMEZONE
 70
 -8000
  9
$LIGHTGLYPHDISPLAY
280
     1
  9
$TILEMODELIGHTSYNCH
280
     1
  9
$CMATERIAL
347
54B
  9
$SOLIDHIST
280
     0
  9
$SHOWHIST
280
     1
  9
$DWFFRAME
280
     2
  9
$DGNFRAME
280
     0
  9
$REALWORLDSCALE
290
     1
  9
$INTERFERECOLOR
 62
     1
  9
$INTERFEREOBJVS
345
56D
  9
$INTERFEREVPVS
346
56A
  9
$CSHADOW
280
     0
  9
$SHADOWPLANELOCATION
 40
0.0
  0
ENDSEC
  0
SECTION
  2
CLASSES
  0
CLASS
  1
ACDBDICTIONARYWDFLT
  2
AcDbDictionaryWithDefault
  3
ObjectDBX Classes
 90
        0
 91
        1
280
     0
281
     0
  0
CLASS
  1
TABLESTYLE
  2
AcDbTableStyle
  3
ObjectDBX Classes
 90
     4095
 91
        1
280
     0
281
     0
  0
CLASS
  1
DICTIONARYVAR
  2
AcDbDictionaryVar
  3
ObjectDBX Classes
 90
        0
 91
       19
280
     0
281
     0
  0
CLASS
  1
SORTENTSTABLE
  2
AcDbSortentsTable
  3
ObjectDBX Classes
 90
        0
 91
        2
280
     0
281
     0
  0
CLASS
  1
MATERIAL
  2
AcDbMaterial
  3
ObjectDBX Classes
 90
     1153
 91
        3
280
     0
281
     0
  0
CLASS
  1
VISUALSTYLE
  2
AcDbVisualStyle
  3
ObjectDBX Classes
 90
     4095
 91
       24
280
     0
281
     0
  0
CLASS
  1
SCALE
  2
AcDbScale
  3
ObjectDBX Classes
 90
     1153
 91
       17
280
     0
281
     0
  0
CLASS
  1
MLEADERSTYLE
  2
AcDbMLeaderStyle
  3
ACDB_MLEADERSTYLE_CLASS
 90
     4095
 91
        1
280
     0
281
     0
  0
CLASS
  1
ACDBSECTIONVIEWSTYLE
  2
AcDbSectionViewStyle
  3
ObjectDBX Classes
 90
     1025
 91
        1
280
     0
281
     0
  0
CLASS
  1
ACDBDETAILVIEWSTYLE
  2
AcDbDetailViewStyle
  3
ObjectDBX Classes
 90
     1025
 91
        1
280
     0
281
     0
  0
CLASS
  1
CELLSTYLEMAP
  2
AcDbCellStyleMap
  3
ObjectDBX Classes
 90
     1152
 91
        1
280
     0
281
     0
  0
ENDSEC
  0
SECTION
  2
TABLES
  0
TABLE
  2
VPORT
  5
8
330
0
100
AcDbSymbolTable
 70
     1
  0
VPORT
  5
53F
330
8
100
AcDbSymbolTableRecord
100
AcDbViewportTableRecord
  2
*Active
 70
     0
 10
0.0
 20
0.0
 11
1.0
 21
1.0
 12
-98.95925533406995
 22
41.01427664115447
 13
0.0
 23
0.0
 14
10.0
 24
10.0
 15
10.0
 25
10.0
 16
0.0
 26
0.0
 36
1.0
 17
0.0
 27
0.0
 37
0.0
 40
190.9077658064203
 41
1.905982905982905
 42
50.0
 43
0.0
 44
0.0
 50
0.0
 51
0.0
 71
     0
 72
   100
 73
     1
 74
     3
 75
     0
 76
     0
 77
     0
 78
     0
281
     0
 65
     1
110
0.0
120
0.0
130
0.0
111
1.0
121
0.0
131
0.0
112
0.0
122
1.0
132
0.0
 79
     0
146
0.0
348
569
 60
     3
 61
     5
292
     1
282
     1
141
0.0
142
0.0
 63
   250
421
  3355443
1001
ACAD_NAV_VCDISPLAY
1070
     3
  0
ENDTAB
  0
TABLE
  2
LTYPE
  5
5
330
0
100
AcDbSymbolTable
 70
     7
  0
LTYPE
  5
14
330
5
100
AcDbSymbolTableRecord
100
AcDbLinetypeTableRecord
  2
ByBlock
 70
     0
  3

 72
    65
 73
     0
 40
0.0
  0
LTYPE
  5
15
330
5
100
AcDbSymbolTableRecord
100
AcDbLinetypeTableRecord
  2
ByLayer
 70
     0
  3

 72
    65
 73
     0
 40
0.0
  0
LTYPE
  5
16
330
5
100
AcDbSymbolTableRecord
100
AcDbLinetypeTableRecord
  2
Continuous
 70
     0
  3
Solid line
 72
    65
 73
     0
 40
0.0
  0
LTYPE
  5
2A
330
5
100
AcDbSymbolTableRecord
100
AcDbLinetypeTableRecord
  2
CONTINOUS
 70
     0
  3
______________________________
 72
    65
 73
     0
 40
0.0
  0
LTYPE
  5
2B
330
5
100
AcDbSymbolTableRecord
100
AcDbLinetypeTableRecord
  2
DASHED
 70
     0
  3
__ __ __ __ __ __ __ __ __ __ __ __ __ __ __ __
 72
    65
 73
     2
 40
4.5
 49
3.0
 74
     0
 49
-1.5
 74
     0
  0
LTYPE
  5
2C
330
5
100
AcDbSymbolTableRecord
100
AcDbLinetypeTableRecord
  2
PHANTOM
 70
     0
  3
______  __  __  ______  __  __  _____
 72
    65
 73
     6
 40
15.0
 49
7.5
 74
     0
 49
-1.5
 74
     0
 49
1.5
 74
     0
 49
-1.5
 74
     0
 49
1.5
 74
     0
 49
-1.5
 74
     0
  0
LTYPE
  5
2D
330
5
100
AcDbSymbolTableRecord
100
AcDbLinetypeTableRecord
  2
CENTER
 70
     0
  3
____ _ ____ _ ____ _ ____ _ ____ _ ____
 72
    65
 73
     4
 40
12.0
 49
7.5
 74
     0
 49
-1.5
 74
     0
 49
1.5
 74
     0
 49
-1.5
 74
     0
  0
LTYPE
  5
3A4
330
5
100
AcDbSymbolTableRecord
100
AcDbLinetypeTableRecord
  2
CENTER2
 70
     0
  3
Center (.5x) ___ _ ___ _ ___ _ ___ _ ___ _ ___
 72
    65
 73
     4
 40
28.575
 49
19.05
 74
     0
 49
-3.174999999999998
 74
     0
 49
3.174999999999998
 74
     0
 49
-3.174999999999998
 74
     0
  0
LTYPE
  5
3A5
330
5
100
AcDbSymbolTableRecord
100
AcDbLinetypeTableRecord
  2
HIDDEN2
 70
     0
  3
Hidden (.5x) _ _ _ _ _ _ _ _ _ _ _ _ _ _ _ _ _
 72
    65
 73
     2
 40
4.762499999999998
 49
3.174999999999998
 74
     0
 49
-1.587499999999999
 74
     0
  0
ENDTAB
  0
TABLE
  2
LAYER
  5
2
330
0
100
AcDbSymbolTable
 70
    11
  0
LAYER
  5
10
102
{ACAD_XDICTIONARY
360
59F
102
}
330
2
100
AcDbSymbolTableRecord
100
AcDbLayerTableRecord
  2
0
 70
     0
 62
     7
  6
Continuous
370
    -3
390
F
347
55B
  0
LAYER
  5
2CD
330
2
100
AcDbSymbolTableRecord
100
AcDbLayerTableRecord
  2
Defpoints
 70
     0
 62
     7
  6
Continuous
290
     0
370
    -3
390
F
347
55B
  0
LAYER
  5
352
102
{ACAD_XDICTIONARY
360
5A1
102
}
330
2
100
AcDbSymbolTableRecord
100
AcDbLayerTableRecord
  2
VIEW0001
 70
     0
 62
     7
  6
Continuous
370
    -3
390
F
347
55B
  0
LAYER
  5
35F
102
{ACAD_XDICTIONARY
360
5A3
102
}
330
2
100
AcDbSymbolTableRecord
100
AcDbLayerTableRecord
  2
VIEW0002
 70
     0
 62
     7
  6
Continuous
370
    -3
390
F
347
55B
  0
LAYER
  5
3A6
102
{ACAD_XDICTIONARY
360
5A5
102
}
330
2
100
AcDbSymbolTableRecord
100
AcDbLayerTableRecord
  2
外形線
 70
     0
 62
     7
  6
Continuous
370
    30
390
F
347
55B
1001
AcAecLayerStandard
1000

1000

  0
LAYER
  5
3A7
102
{ACAD_XDICTIONARY
360
5A7
102
}
330
2
100
AcDbSymbolTableRecord
100
AcDbLayerTableRecord
  2
図枠
 70
     0
 62
     7
  6
Continuous
370
    50
390
F
347
55B
1001
AcAecLayerStandard
1000

1000

  0
LAYER
  5
3A8
102
{ACAD_XDICTIONARY
360
5A9
102
}
330
2
100
AcDbSymbolTableRecord
100
AcDbLayerTableRecord
  2
寸法線
 70
     0
 62
     3
  6
Continuous
370
    15
390
F
347
55B
1001
AcAecLayerStandard
1000

1000

  0
LAYER
  5
3A9
102
{ACAD_XDICTIONARY
360
5AB
102
}
330
2
100
AcDbSymbolTableRecord
100
AcDbLayerTableRecord
  2
中心線
 70
     0
 62
     5
  6
CENTER2
370
    -3
390
F
347
55B
1001
AcAecLayerStandard
1000

1000

  0
LAYER
  5
3AA
102
{ACAD_XDICTIONARY
360
5AD
102
}
330
2
100
AcDbSymbolTableRecord
100
AcDbLayerTableRecord
  2
破線
 70
     0
 62
     4
  6
HIDDEN2
370
    -3
390
F
347
55B
1001
AcAecLayerStandard
1000

1000

  0
LAYER
  5
3AB
102
{ACAD_XDICTIONARY
360
5AF
102
}
330
2
100
AcDbSymbolTableRecord
100
AcDbLayerTableRecord
  2
文字
 70
     0
 62
     2
  6
Continuous
370
    -3
390
F
347
55B
1001
AcAecLayerStandard
1000

1000

  0
LAYER
  5
3AC
102
{ACAD_XDICTIONARY
360
5B1
102
}
330
2
100
AcDbSymbolTableRecord
100
AcDbLayerTableRecord
  2
補助線
 70
     0
 62
   252
  6
HIDDEN2
290
     0
370
    -3
390
F
347
55B
1001
AcAecLayerStandard
1000

1000

  0
ENDTAB
  0
TABLE
  2
STYLE
  5
3
330
0
100
AcDbSymbolTable
 70
     1
  0
STYLE
  5
11
330
3
100
AcDbSymbolTableRecord
100
AcDbTextStyleTableRecord
  2
Standard
 70
     0
 40
0.0
 41
1.0
 50
0.0
 71
     0
 42
2.5
  3
txt
  4
EXTFONT
  0
ENDTAB
  0
TABLE
  2
VIEW
  5
6
330
0
100
AcDbSymbolTable
 70
     0
  0
ENDTAB
  0
TABLE
  2
UCS
  5
7
330
0
100
AcDbSymbolTable
 70
     0
  0
ENDTAB
  0
TABLE
  2
APPID
  5
9
330
0
100
AcDbSymbolTable
 70
     4
  0
APPID
  5
12
330
9
100
AcDbSymbolTableRecord
100
AcDbRegAppTableRecord
  2
ACAD
 70
     0
  0
APPID
  5
3AE
330
9
100
AcDbSymbolTableRecord
100
AcDbRegAppTableRecord
  2
AcAecLayerStandard
 70
     0
  0
APPID
  5
504
330
9
100
AcDbSymbolTableRecord
100
AcDbRegAppTableRecord
  2
ACAD_PSEXT
 70
     0
  0
APPID
  5
596
330
9
100
AcDbSymbolTableRecord
100
AcDbRegAppTableRecord
  2
ACAD_NAV_VCDISPLAY
 70
     0
  0
ENDTAB
  0
TABLE
  2
DIMSTYLE
  5
A
330
0
100
AcDbSymbolTable
 70
     2
100
AcDbDimStyleTable
 71
     1
340
27
  0
DIMSTYLE
105
27
102
{ACAD_REACTORS
330
2C6
330
2DA
330
2E6
330
2F2
330
2FD
330
30A
330
316
330
323
330
32E
330
33B
102
}
330
A
100
AcDbSymbolTableRecord
100
AcDbDimStyleTableRecord
  2
ISO-25
 70
     0
 41
2.5
 42
0.625
 43
3.75
 44
1.25
 73
     0
 74
     0
 77
     1
 78
     8
140
2.5
141
2.5
143
0.03937007874016
147
0.625
171
     3
172
     1
271
     2
272
     2
274
     3
278
    44
283
     0
284
     8
340
11
  0
DIMSTYLE
105
3AD
330
A
100
AcDbSymbolTableRecord
100
AcDbDimStyleTableRecord
  2
Standard
 70
     0
340
11
  0
ENDTAB
  0
TABLE
  2
BLOCK_RECORD
  5
1
330
0
100
AcDbSymbolTable
 70
    14
  0
BLOCK_RECORD
  5
1F
102
{ACAD_XDICTIONARY
360
3B4
102
}
330
1
100
AcDbSymbolTableRecord
100
AcDbBlockTableRecord
  2
*Model_Space
340
22
 70
     0
280
     1
281
     0
  0
BLOCK_RECORD
  5
1B
330
1
100
AcDbSymbolTableRecord
100
AcDbBlockTableRecord
  2
*Paper_Space
340
1E
 70
     0
280
     1
281
     0
  0
BLOCK_RECORD
  5
23
330
1
100
AcDbSymbolTableRecord
100
AcDbBlockTableRecord
  2
*Paper_Space0
340
26
 70
     0
280
     1
281
     0
  0
BLOCK_RECORD
  5
2E
330
1
100
AcDbSymbolTableRecord
100
AcDbBlockTableRecord
  2
DTL0001
340
0
 70
     0
280
     1
281
     0
  0
BLOCK_RECORD
  5
2C7
330
1
100
AcDbSymbolTableRecord
100
AcDbBlockTableRecord
  2
_Open30
340
0
102
{BLKREFS
331
4A5
331
4A6
331
4AD
331
4AE
331
4B5
331
4B6
331
4BC
331
4BD
331
4C5
331
4C6
331
4CD
331
4CE
331
4D6
331
4D7
331
4DD
331
4DE
331
4E6
331
4E7
331
4F1
331
4F2
102
}
 70
     0
280
     1
281
     0
  0
BLOCK_RECORD
  5
2CE
330
1
100
AcDbSymbolTableRecord
100
AcDbBlockTableRecord
  2
*D3
340
0
 70
     0
280
     1
281
     0
  0
BLOCK_RECORD
  5
2DB
330
1
100
AcDbSymbolTableRecord
100
AcDbBlockTableRecord
  2
*D4
340
0
 70
     0
280
     1
281
     0
  0
BLOCK_RECORD
  5
2E7
330
1
100
AcDbSymbolTableRecord
100
AcDbBlockTableRecord
  2
*D5
340
0
 70
     0
280
     1
281
     0
  0
BLOCK_RECORD
  5
2F3
330
1
100
AcDbSymbolTableRecord
100
AcDbBlockTableRecord
  2
*D6
340
0
 70
     0
280
     1
281
     0
  0
BLOCK_RECORD
  5
2FE
330
1
100
AcDbSymbolTableRecord
100
AcDbBlockTableRecord
  2
*D7
340
0
 70
     0
280
     1
281
     0
  0
BLOCK_RECORD
  5
30B
330
1
100
AcDbSymbolTableRecord
100
AcDbBlockTableRecord
  2
*D8
340
0
 70
     0
280
     1
281
     0
  0
BLOCK_RECORD
  5
317
330
1
100
AcDbSymbolTableRecord
100
AcDbBlockTableRecord
  2
*D9
340
0
 70
     0
280
     1
281
     0
  0
BLOCK_RECORD
  5
324
330
1
100
AcDbSymbolTableRecord
100
AcDbBlockTableRecord
  2
*D10
340
0
 70
     0
280
     1
281
     0
  0
BLOCK_RECORD
  5
32F
330
1
100
AcDbSymbolTableRecord
100
AcDbBlockTableRecord
  2
*D11
340
0
 70
     0
280
     1
281
     0
  0
BLOCK_RECORD
  5
33C
330
1
100
AcDbSymbolTableRecord
100
AcDbBlockTableRecord
  2
*D12
340
0
 70
     0
280
     1
281
     0
  0
ENDTAB
  0
ENDSEC
  0
SECTION
  2
BLOCKS
  0
BLOCK
  5
20
330
1F
100
AcDbEntity
  8
0
100
AcDbBlockBegin
  2
*Model_Space
 70
     0
 10
0.0
 20
0.0
 30
0.0
  3
*Model_Space
  1

  0
ENDBLK
  5
21
330
1F
100
AcDbEntity
  8
0
100
AcDbBlockEnd
  0
BLOCK
  5
1C
330
1B
100
AcDbEntity
 67
     1
  8
0
100
AcDbBlockBegin
  2
*Paper_Space
 70
     0
 10
0.0
 20
0.0
 30
0.0
  3
*Paper_Space
  1

  0
ENDBLK
  5
1D
330
1B
100
AcDbEntity
 67
     1
  8
0
100
AcDbBlockEnd
  0
BLOCK
  5
24
330
23
100
AcDbEntity
 67
     1
  8
0
100
AcDbBlockBegin
  2
*Paper_Space0
 70
     0
 10
0.0
 20
0.0
 30
0.0
  3
*Paper_Space0
  1

  0
ENDBLK
  5
25
330
23
100
AcDbEntity
 67
     1
  8
0
100
AcDbBlockEnd
  0
BLOCK
  5
2F
330
2E
100
AcDbEntity
  8
0
100
AcDbBlockBegin
  2
DTL0001
 70
     0
 10
0.0
 20
0.0
 30
0.0
  3
DTL0001
  1

  0
POINT
  5
31
330
2E
100
AcDbEntity
  8
0
 62
     0
100
AcDbPoint
 10
-210.0
 20
148.5
 30
0.0
  0
POINT
  5
32
330
2E
100
AcDbEntity
  8
0
 62
     0
100
AcDbPoint
 10
210.0
 20
-148.5
 30
0.0
  0
POINT
  5
33
330
2E
100
AcDbEntity
  8
0
 62
     0
100
AcDbPoint
 10
0.0
 20
0.0
 30
0.0
  0
POINT
  5
34
330
2E
100
AcDbEntity
  8
0
 62
     0
100
AcDbPoint
 10
199.0
 20
-143.5
 30
0.0
  0
MTEXT
  5
35
330
2E
100
AcDbEntity
  8
0
 62
     3
100
AcDbMText
 10
-176.0001562833786
 20
127.0
 30
0.0
 40
7.0
 41
0.0
 46
0.0
 71
     7
 72
     1
  1
{\W1;A3}
 73
     1
 44
1.0
1001
ACAD
1000
MTEXTBEGIN
1070
    73
1070
     1
1070
    44
1040
1.0
1070
    74
1070
     0
1000
MTEXTEND
  0
ENDBLK
  5
30
330
2E
100
AcDbEntity
  8
0
100
AcDbBlockEnd
  0
BLOCK
  5
2C8
330
2C7
100
AcDbEntity
  8
0
100
AcDbBlockBegin
  2
_Open30
 70
     0
 10
0.0
 20
0.0
 30
0.0
  3
_Open30
  1

  0
LINE
  5
2CA
330
2C7
100
AcDbEntity
  8
0
  6
ByBlock
 62
     0
370
    -2
100
AcDbLine
 10
-1.0
 20
0.267949
 30
0.0
 11
0.0
 21
0.0
 31
0.0
  0
LINE
  5
2CB
330
2C7
100
AcDbEntity
  8
0
  6
ByBlock
 62
     0
370
    -2
100
AcDbLine
 10
0.0
 20
0.0
 30
0.0
 11
-1.0
 21
-0.267949
 31
0.0
  0
LINE
  5
2CC
330
2C7
100
AcDbEntity
  8
0
  6
ByBlock
 62
     0
370
    -2
100
AcDbLine
 10
0.0
 20
0.0
 30
0.0
 11
-1.0
 21
0.0
 31
0.0
  0
ENDBLK
  5
2C9
330
2C7
100
AcDbEntity
  8
0
100
AcDbBlockEnd
  0
BLOCK
  5
2D8
330
2CE
100
AcDbEntity
  8
0
100
AcDbBlockBegin
  2
*D3
 70
     1
 10
0.0
 20
0.0
 30
0.0
  3
*D3
  1

  0
LINE
  5
4A2
330
2CE
100
AcDbEntity
  8
寸法線
 62
     0
440
 16777216
370
    -2
100
AcDbLine
 10
-73.16000137435742
 20
69.47505678820943
 30
0.0
 11
-73.16000137435742
 21
108.7284160251587
 31
0.0
  0
LINE
  5
4A3
330
2CE
100
AcDbEntity
  8
寸法線
 62
     0
440
 16777216
370
    -2
100
AcDbLine
 10
-124.7600060375443
 20
69.47505678820943
 30
0.0
 11
-124.7600060375443
 21
108.7284160251587
 31
0.0
  0
LINE
  5
4A4
330
2CE
100
AcDbEntity
  8
寸法線
 62
     0
440
 16777216
370
    -2
100
AcDbLine
 10
-76.16000137435742
 20
106.4424160251587
 30
0.0
 11
-121.7600060375443
 21
106.4424160251587
 31
0.0
  0
INSERT
  5
4A5
330
2CE
100
AcDbEntity
  8
寸法線
 62
     0
440
 16777216
370
    -2
100
AcDbBlockReference
  2
_Open30
 10
-73.16000137435742
 20
106.4424160251587
 30
0.0
 41
3.0
 42
3.0
 43
3.0
  0
INSERT
  5
4A6
330
2CE
100
AcDbEntity
  8
寸法線
 62
     0
440
 16777216
370
    -2
100
AcDbBlockReference
  2
_Open30
 10
-124.7600060375443
 20
106.4424160251587
 30
0.0
 41
3.0
 42
3.0
 43
3.0
 50
180.0
  0
MTEXT
  5
4A7
330
2CE
100
AcDbEntity
  8
寸法線
 62
     0
440
 16777216
100
AcDbMText
 10
-98.96000370595086
 20
108.8424160609215
 30
0.0
 40
3.200000047683716
 41
0.0
 46
0.0
 71
     5
 72
     1
  1
L4
 73
     1
 44
1.0
1001
ACAD
1000
MTEXTBEGIN
1070
    73
1070
     1
1070
    44
1040
1.0
1070
    74
1070
     0
1000
MTEXTEND
  0
POINT
  5
4A8
330
2CE
100
AcDbEntity
  8
Defpoints
 62
     0
440
 16777216
100
AcDbPoint
 10
-73.16000137435742
 20
66.93505678820942
 30
0.0
  0
POINT
  5
4A9
330
2CE
100
AcDbEntity
  8
Defpoints
 62
     0
440
 16777216
100
AcDbPoint
 10
-124.7600060375443
 20
66.93505678820942
 30
0.0
  0
POINT
  5
4AA
330
2CE
100
AcDbEntity
  8
Defpoints
 62
     0
440
 16777216
100
AcDbPoint
 10
-124.7600060375443
 20
106.4424160251587
 30
0.0
  0
ENDBLK
  5
2D9
330
2CE
100
AcDbEntity
  8
0
100
AcDbBlockEnd
  0
BLOCK
  5
2E4
330
2DB
100
AcDbEntity
  8
0
100
AcDbBlockBegin
  2
*D4
 70
     1
 10
0.0
 20
0.0
 30
0.0
  3
*D4
  1

  0
LINE
  5
4AB
330
2DB
100
AcDbEntity
  8
寸法線
 62
     0
440
 16777216
370
    -2
100
AcDbLine
 10
-98.96000370595086
 20
93.82416146947928
 30
0.0
 11
-98.96000370595086
 21
101.5530198833577
 31
0.0
  0
LINE
  5
4AC
330
2DB
100
AcDbEntity
  8
寸法線
 62
     0
440
 16777216
370
    -2
100
AcDbLine
 10
-121.7600060375443
 20
99.2670198833577
 30
0.0
 11
-101.9600037059508
 21
99.2670198833577
 31
0.0
  0
INSERT
  5
4AD
330
2DB
100
AcDbEntity
  8
寸法線
 62
     0
440
 16777216
370
    -2
100
AcDbBlockReference
  2
_Open30
 10
-124.7600060375443
 20
99.2670198833577
 30
0.0
 41
3.0
 42
3.0
 43
3.0
 50
180.0
  0
INSERT
  5
4AE
330
2DB
100
AcDbEntity
  8
寸法線
 62
     0
440
 16777216
370
    -2
100
AcDbBlockReference
  2
_Open30
 10
-98.96000370595086
 20
99.2670198833577
 30
0.0
 41
3.0
 42
3.0
 43
3.0
  0
MTEXT
  5
4AF
330
2DB
100
AcDbEntity
  8
寸法線
 62
     0
440
 16777216
100
AcDbMText
 10
-111.8600048717475
 20
101.6670199191205
 30
0.0
 40
3.200000047683716
 41
0.0
 46
0.0
 71
     5
 72
     1
  1
L5
 73
     1
 44
1.0
1001
ACAD
1000
MTEXTBEGIN
1070
    73
1070
     1
1070
    44
1040
1.0
1070
    74
1070
     0
1000
MTEXTEND
  0
POINT
  5
4B0
330
2DB
100
AcDbEntity
  8
Defpoints
 62
     0
440
 16777216
100
AcDbPoint
 10
-124.7600060375443
 20
66.93505678820942
 30
0.0
  0
POINT
  5
4B1
330
2DB
100
AcDbEntity
  8
Defpoints
 62
     0
440
 16777216
100
AcDbPoint
 10
-98.96000370595086
 20
91.28416146947927
 30
0.0
  0
POINT
  5
4B2
330
2DB
100
AcDbEntity
  8
Defpoints
 62
     0
440
 16777216
100
AcDbPoint
 10
-98.96000370595086
 20
99.2670198833577
 30
0.0
  0
ENDBLK
  5
2E5
330
2DB
100
AcDbEntity
  8
0
100
AcDbBlockEnd
  0
BLOCK
  5
2F0
330
2E7
100
AcDbEntity
  8
0
100
AcDbBlockBegin
  2
*D5
 70
     1
 10
0.0
 20
0.0
 30
0.0
  3
*D5
  1

  0
LINE
  5
4B3
330
2E7
100
AcDbEntity
  8
寸法線
 62
     0
440
 16777216
370
    -2
100
AcDbLine
 10
-133.9162101736333
 20
60.28505667864206
 30
0.0
 11
-141.7223575791938
 21
60.28505667864206
 31
0.0
  0
LINE
  5
4B4
330
2E7
100
AcDbEntity
  8
寸法線
 62
     0
440
 16777216
370
    -2
100
AcDbLine
 10
-139.4363575791938
 20
36.28505606506486
 30
0.0
 11
-139.4363575791938
 21
57.28505667864206
 31
0.0
  0
INSERT
  5
4B5
330
2E7
100
AcDbEntity
  8
寸法線
 62
     0
440
 16777216
370
    -2
100
AcDbBlockReference
  2
_Open30
 10
-139.4363575791938
 20
33.28505606506486
 30
0.0
 41
3.0
 42
3.0
 43
3.0
 50
270.0
  0
INSERT
  5
4B6
330
2E7
100
AcDbEntity
  8
寸法線
 62
     0
440
 16777216
370
    -2
100
AcDbBlockReference
  2
_Open30
 10
-139.4363575791938
 20
60.28505667864206
 30
0.0
 41
3.0
 42
3.0
 43
3.0
 50
90.0
  0
MTEXT
  5
4B7
330
2E7
100
AcDbEntity
  8
寸法線
 62
     0
440
 16777216
100
AcDbMText
 10
-141.8363576149566
 20
46.78505581086857
 30
0.0
 40
3.200000047683716
 41
0.0
 46
0.0
 71
     5
 72
     1
  1
L2
 11
0.0000000000000001
 21
1.0
 31
0.0
 73
     1
 44
1.0
1001
ACAD
1000
MTEXTBEGIN
1070
    73
1070
     1
1070
    44
1040
1.0
1070
    74
1070
     0
1000
MTEXTEND
  0
POINT
  5
4B8
330
2E7
100
AcDbEntity
  8
Defpoints
 62
     0
440
 16777216
100
AcDbPoint
 10
-108.2350069294226
 20
33.28505606506485
 30
0.0
  0
POINT
  5
4B9
330
2E7
100
AcDbEntity
  8
Defpoints
 62
     0
440
 16777216
100
AcDbPoint
 10
-131.3762101736333
 20
60.28505667864206
 30
0.0
  0
POINT
  5
4BA
330
2E7
100
AcDbEntity
  8
Defpoints
 62
     0
440
 16777216
100
AcDbPoint
 10
-139.4363575791938
 20
60.28505667864206
 30
0.0
  0
ENDBLK
  5
2F1
330
2E7
100
AcDbEntity
  8
0
100
AcDbBlockEnd
  0
BLOCK
  5
2FB
330
2F3
100
AcDbEntity
  8
0
100
AcDbBlockBegin
  2
*D6
 70
     1
 10
0.0
 20
0.0
 30
0.0
  3
*D6
  1

  0
LINE
  5
4BB
330
2F3
100
AcDbEntity
  8
寸法線
 62
     0
440
 16777216
370
    -2
100
AcDbLine
 10
-139.4363575791938
 20
63.28505667864206
 30
0.0
 11
-139.4363575791938
 21
84.28505280434022
 31
0.0
  0
INSERT
  5
4BC
330
2F3
100
AcDbEntity
  8
寸法線
 62
     0
440
 16777216
370
    -2
100
AcDbBlockReference
  2
_Open30
 10
-139.4363575791938
 20
60.28505667864206
 30
0.0
 41
3.0
 42
3.0
 43
3.0
 50
270.0
  0
INSERT
  5
4BD
330
2F3
100
AcDbEntity
  8
寸法線
 62
     0
440
 16777216
370
    -2
100
AcDbBlockReference
  2
_Open30
 10
-139.4363575791938
 20
87.28505280434021
 30
0.0
 41
3.0
 42
3.0
 43
3.0
 50
90.0
  0
MTEXT
  5
4BE
330
2F3
100
AcDbEntity
  8
寸法線
 62
     0
440
 16777216
100
AcDbMText
 10
-141.8363576149566
 20
73.78505418050625
 30
0.0
 40
3.200000047683716
 41
0.0
 46
0.0
 71
     5
 72
     1
  1
L2
 11
0.0000000000000001
 21
1.0
 31
0.0
 73
     1
 44
1.0
1001
ACAD
1000
MTEXTBEGIN
1070
    73
1070
     1
1070
    44
1040
1.0
1070
    74
1070
     0
1000
MTEXTEND
  0
POINT
  5
4BF
330
2F3
100
AcDbEntity
  8
Defpoints
 62
     0
440
 16777216
100
AcDbPoint
 10
-131.3762101736333
 20
60.28505667864206
 30
0.0
  0
POINT
  5
4C0
330
2F3
100
AcDbEntity
  8
Defpoints
 62
     0
440
 16777216
100
AcDbPoint
 10
-108.2350069294226
 20
87.28505280434021
 30
0.0
  0
POINT
  5
4C1
330
2F3
100
AcDbEntity
  8
Defpoints
 62
     0
440
 16777216
100
AcDbPoint
 10
-139.4363575791938
 20
87.28505280434021
 30
0.0
  0
ENDBLK
  5
2FC
330
2F3
100
AcDbEntity
  8
0
100
AcDbBlockEnd
  0
BLOCK
  5
308
330
2FE
100
AcDbEntity
  8
0
100
AcDbBlockBegin
  2
*D7
 70
     1
 10
0.0
 20
0.0
 30
0.0
  3
*D7
  1

  0
LINE
  5
4C2
330
2FE
100
AcDbEntity
  8
寸法線
 62
     0
440
 16777216
370
    -2
100
AcDbLine
 10
-110.7750069294226
 20
87.28505280434021
 30
0.0
 11
-147.9011709235225
 21
87.28505280434021
 31
0.0
  0
LINE
  5
4C3
330
2FE
100
AcDbEntity
  8
寸法線
 62
     0
440
 16777216
370
    -2
100
AcDbLine
 10
-110.7750069294226
 20
33.28505606506485
 30
0.0
 11
-147.9011709235225
 21
33.28505606506487
 31
0.0
  0
LINE
  5
4C4
330
2FE
100
AcDbEntity
  8
寸法線
 62
     0
440
 16777216
370
    -2
100
AcDbLine
 10
-145.6151709235224
 20
84.28505280434022
 30
0.0
 11
-145.6151709235225
 21
36.28505606506486
 31
0.0
  0
INSERT
  5
4C5
330
2FE
100
AcDbEntity
  8
寸法線
 62
     0
440
 16777216
370
    -2
100
AcDbBlockReference
  2
_Open30
 10
-145.6151709235224
 20
87.28505280434021
 30
0.0
 41
3.0
 42
3.0
 43
3.0
 50
90.0
  0
INSERT
  5
4C6
330
2FE
100
AcDbEntity
  8
寸法線
 62
     0
440
 16777216
370
    -2
100
AcDbBlockReference
  2
_Open30
 10
-145.6151709235225
 20
33.28505606506487
 30
0.0
 41
3.0
 42
3.0
 43
3.0
 50
270.0
  0
MTEXT
  5
4C7
330
2FE
100
AcDbEntity
  8
寸法線
 62
     0
440
 16777216
100
AcDbMText
 10
-148.0151709592853
 20
60.28505443470253
 30
0.0
 40
3.200000047683716
 41
0.0
 46
0.0
 71
     5
 72
     1
  1
L1
 11
0.0000000000000001
 21
1.0
 31
0.0
 73
     1
 44
1.0
1001
ACAD
1000
MTEXTBEGIN
1070
    73
1070
     1
1070
    44
1040
1.0
1070
    74
1070
     0
1000
MTEXTEND
  0
POINT
  5
4C8
330
2FE
100
AcDbEntity
  8
Defpoints
 62
     0
440
 16777216
100
AcDbPoint
 10
-108.2350069294226
 20
87.28505280434021
 30
0.0
  0
POINT
  5
4C9
330
2FE
100
AcDbEntity
  8
Defpoints
 62
     0
440
 16777216
100
AcDbPoint
 10
-108.2350069294226
 20
33.28505606506485
 30
0.0
  0
POINT
  5
4CA
330
2FE
100
AcDbEntity
  8
Defpoints
 62
     0
440
 16777216
100
AcDbPoint
 10
-145.6151709235225
 20
33.28505606506487
 30
0.0
  0
ENDBLK
  5
309
330
2FE
100
AcDbEntity
  8
0
100
AcDbBlockEnd
  0
BLOCK
  5
314
330
30B
100
AcDbEntity
  8
0
100
AcDbBlockBegin
  2
*D8
 70
     1
 10
0.0
 20
0.0
 30
0.0
  3
*D8
  1

  0
LINE
  5
4CB
330
30B
100
AcDbEntity
  8
寸法線
 62
     0
440
 16777216
370
    -2
100
AcDbLine
 10
-110.7750069294226
 20
77.88505990430515
 30
0.0
 11
-132.6649315812634
 21
77.88505990430515
 31
0.0
  0
LINE
  5
4CC
330
30B
100
AcDbEntity
  8
寸法線
 62
     0
440
 16777216
370
    -2
100
AcDbLine
 10
-131.914928447637
 20
84.28505280434022
 30
0.0
 11
-131.914928447637
 21
80.88505990430515
 31
0.0
  0
INSERT
  5
4CD
330
30B
100
AcDbEntity
  8
寸法線
 62
     0
440
 16777216
370
    -2
100
AcDbBlockReference
  2
_Open30
 10
-131.914928447637
 20
87.28505280434021
 30
0.0
 41
3.0
 42
3.0
 43
3.0
 50
90.0
  0
INSERT
  5
4CE
330
30B
100
AcDbEntity
  8
寸法線
 62
     0
440
 16777216
370
    -2
100
AcDbBlockReference
  2
_Open30
 10
-131.914928447637
 20
77.88505990430515
 30
0.0
 41
3.0
 42
3.0
 43
3.0
 50
270.0
  0
MTEXT
  5
4CF
330
30B
100
AcDbEntity
  8
寸法線
 62
     0
440
 16777216
100
AcDbMText
 10
-134.3149284833998
 20
82.5850585982622
 30
0.0
 40
3.200000047683716
 41
0.0
 46
0.0
 71
     5
 72
     1
  1
L3
 11
0.0000000000000001
 21
1.0
 31
0.0
 73
     1
 44
1.0
1001
ACAD
1000
MTEXTBEGIN
1070
    73
1070
     1
1070
    44
1040
1.0
1070
    74
1070
     0
1000
MTEXTEND
  0
POINT
  5
4D0
330
30B
100
AcDbEntity
  8
Defpoints
 62
     0
440
 16777216
100
AcDbPoint
 10
-108.2350069294226
 20
87.28505280434021
 30
0.0
  0
POINT
  5
4D1
330
30B
100
AcDbEntity
  8
Defpoints
 62
     0
440
 16777216
100
AcDbPoint
 10
-108.2350069294226
 20
77.88505990430515
 30
0.0
  0
POINT
  5
4D2
330
30B
100
AcDbEntity
  8
Defpoints
 62
     0
440
 16777216
100
AcDbPoint
 10
-131.914928447637
 20
77.88505990430515
 30
0.0
  0
ENDBLK
  5
315
330
30B
100
AcDbEntity
  8
0
100
AcDbBlockEnd
  0
BLOCK
  5
321
330
317
100
AcDbEntity
  8
0
100
AcDbBlockBegin
  2
*D9
 70
     1
 10
0.0
 20
0.0
 30
0.0
  3
*D9
  1

  0
LINE
  5
4D3
330
317
100
AcDbEntity
  8
寸法線
 62
     0
440
 16777216
370
    -2
100
AcDbLine
 10
-72.12000090979177
 20
66.93505678820942
 30
0.0
 11
-63.54674221608188
 21
66.93505678820942
 31
0.0
  0
LINE
  5
4D4
330
317
100
AcDbEntity
  8
寸法線
 62
     0
440
 16777216
370
    -2
100
AcDbLine
 10
-72.12000090979177
 20
53.6350565690747
 30
0.0
 11
-63.54674221608188
 21
53.6350565690747
 31
0.0
  0
LINE
  5
4D5
330
317
100
AcDbEntity
  8
寸法線
 62
     0
440
 16777216
370
    -2
100
AcDbLine
 10
-64.42909514797737
 20
63.93505678820942
 30
0.0
 11
-64.42909514797737
 21
56.63505656907471
 31
0.0
  0
INSERT
  5
4D6
330
317
100
AcDbEntity
  8
寸法線
 62
     0
440
 16777216
370
    -2
100
AcDbBlockReference
  2
_Open30
 10
-64.42909514797737
 20
66.93505678820942
 30
0.0
 41
3.0
 42
3.0
 43
3.0
 50
90.0
  0
INSERT
  5
4D7
330
317
100
AcDbEntity
  8
寸法線
 62
     0
440
 16777216
370
    -2
100
AcDbBlockReference
  2
_Open30
 10
-64.42909514797737
 20
53.6350565690747
 30
0.0
 41
3.0
 42
3.0
 43
3.0
 50
270.0
  0
MTEXT
  5
4D8
330
317
100
AcDbEntity
  8
寸法線
 62
     0
440
 16777216
100
AcDbMText
 10
-66.82909518374017
 20
60.28505667864206
 30
0.0
 40
3.200000047683716
 41
0.0
 46
0.0
 71
     5
 72
     1
  1
∅B
 11
0.0000000000000001
 21
1.0
 31
0.0
 73
     1
 44
1.0
1001
ACAD
1000
MTEXTBEGIN
1070
    73
1070
     1
1070
    44
1040
1.0
1070
    74
1070
     0
1000
MTEXTEND
  0
POINT
  5
4D9
330
317
100
AcDbEntity
  8
Defpoints
 62
     0
440
 16777216
100
AcDbPoint
 10
-74.66000090979179
 20
66.93505678820942
 30
0.0
  0
POINT
  5
4DA
330
317
100
AcDbEntity
  8
Defpoints
 62
     0
440
 16777216
100
AcDbPoint
 10
-74.66000090979179
 20
53.6350565690747
 30
0.0
  0
POINT
  5
4DB
330
317
100
AcDbEntity
  8
Defpoints
 62
     0
440
 16777216
100
AcDbPoint
 10
-64.42909514797737
 20
53.6350565690747
 30
0.0
  0
ENDBLK
  5
322
330
317
100
AcDbEntity
  8
0
100
AcDbBlockEnd
  0
BLOCK
  5
32C
330
324
100
AcDbEntity
  8
0
100
AcDbBlockBegin
  2
*D10
 70
     1
 10
0.0
 20
0.0
 30
0.0
  3
*D10
  1

  0
LINE
  5
4DC
330
324
100
AcDbEntity
  8
寸法線
 62
     0
440
 16777216
370
    -2
100
AcDbLine
 10
-95.96000370595085
 20
99.2670198833577
 30
0.0
 11
-76.16000137435742
 21
99.2670198833577
 31
0.0
  0
INSERT
  5
4DD
330
324
100
AcDbEntity
  8
寸法線
 62
     0
440
 16777216
370
    -2
100
AcDbBlockReference
  2
_Open30
 10
-98.96000370595086
 20
99.2670198833577
 30
0.0
 41
3.0
 42
3.0
 43
3.0
 50
180.0
  0
INSERT
  5
4DE
330
324
100
AcDbEntity
  8
寸法線
 62
     0
440
 16777216
370
    -2
100
AcDbBlockReference
  2
_Open30
 10
-73.16000137435742
 20
99.2670198833577
 30
0.0
 41
3.0
 42
3.0
 43
3.0
  0
MTEXT
  5
4DF
330
324
100
AcDbEntity
  8
寸法線
 62
     0
440
 16777216
100
AcDbMText
 10
-86.06000254015411
 20
101.6670199191205
 30
0.0
 40
3.200000047683716
 41
0.0
 46
0.0
 71
     5
 72
     1
  1
L5
 73
     1
 44
1.0
1001
ACAD
1000
MTEXTBEGIN
1070
    73
1070
     1
1070
    44
1040
1.0
1070
    74
1070
     0
1000
MTEXTEND
  0
POINT
  5
4E0
330
324
100
AcDbEntity
  8
Defpoints
 62
     0
440
 16777216
100
AcDbPoint
 10
-98.96000370595086
 20
91.28416146947927
 30
0.0
  0
POINT
  5
4E1
330
324
100
AcDbEntity
  8
Defpoints
 62
     0
440
 16777216
100
AcDbPoint
 10
-73.16000137435742
 20
66.93505678820942
 30
0.0
  0
POINT
  5
4E2
330
324
100
AcDbEntity
  8
Defpoints
 62
     0
440
 16777216
100
AcDbPoint
 10
-73.16000137435742
 20
99.2670198833577
 30
0.0
  0
ENDBLK
  5
32D
330
324
100
AcDbEntity
  8
0
100
AcDbBlockEnd
  0
BLOCK
  5
339
330
32F
100
AcDbEntity
  8
0
100
AcDbBlockBegin
  2
*D11
 70
     1
 10
0.0
 20
0.0
 30
0.0
  3
*D11
  1

  0
LINE
  5
4E3
330
32F
100
AcDbEntity
  8
寸法線
 62
     0
440
 16777216
370
    -2
100
AcDbLine
 10
-108.235004685483
 20
32.24506233231787
 30
0.0
 11
-108.235004685483
 21
20.0448279184907
 31
0.0
  0
LINE
  5
4E4
330
32F
100
AcDbEntity
  8
寸法線
 62
     0
440
 16777216
370
    -2
100
AcDbLine
 10
-89.68499375066048
 20
32.24506008837833
 30
0.0
 11
-89.68499375066048
 21
20.0448279184907
 31
0.0
  0
LINE
  5
4E5
330
32F
100
AcDbEntity
  8
寸法線
 62
     0
440
 16777216
370
    -2
100
AcDbLine
 10
-105.235004685483
 20
22.33082791849071
 30
0.0
 11
-92.68499375066047
 21
22.33082791849071
 31
0.0
  0
INSERT
  5
4E6
330
32F
100
AcDbEntity
  8
寸法線
 62
     0
440
 16777216
370
    -2
100
AcDbBlockReference
  2
_Open30
 10
-108.235004685483
 20
22.33082791849071
 30
0.0
 41
3.0
 42
3.0
 43
3.0
 50
180.0
  0
INSERT
  5
4E7
330
32F
100
AcDbEntity
  8
寸法線
 62
     0
440
 16777216
370
    -2
100
AcDbBlockReference
  2
_Open30
 10
-89.68499375066048
 20
22.33082791849071
 30
0.0
 41
3.0
 42
3.0
 43
3.0
  0
MTEXT
  5
4E8
330
32F
100
AcDbEntity
  8
寸法線
 62
     0
440
 16777216
100
AcDbMText
 10
-98.95999921807177
 20
24.73082795425349
 30
0.0
 40
3.200000047683716
 41
0.0
 46
0.0
 71
     5
 72
     1
  1
∅A
 73
     1
 44
1.0
1001
ACAD
1000
MTEXTBEGIN
1070
    73
1070
     1
1070
    44
1040
1.0
1070
    74
1070
     0
1000
MTEXTEND
  0
POINT
  5
4E9
330
32F
100
AcDbEntity
  8
Defpoints
 62
     0
440
 16777216
100
AcDbPoint
 10
-108.235004685483
 20
34.78506233231787
 30
0.0
  0
POINT
  5
4EA
330
32F
100
AcDbEntity
  8
Defpoints
 62
     0
440
 16777216
100
AcDbPoint
 10
-89.68499375066048
 20
34.78506008837833
 30
0.0
  0
POINT
  5
4EB
330
32F
100
AcDbEntity
  8
Defpoints
 62
     0
440
 16777216
100
AcDbPoint
 10
-89.68499375066048
 20
22.33082791849071
 30
0.0
  0
ENDBLK
  5
33A
330
32F
100
AcDbEntity
  8
0
100
AcDbBlockEnd
  0
BLOCK
  5
348
330
33C
100
AcDbEntity
  8
0
100
AcDbBlockBegin
  2
*D12
 70
     1
 10
0.0
 20
0.0
 30
0.0
  3
*D12
  1

  0
LINE
  5
4EC
330
33C
100
AcDbEntity
  8
寸法線
 62
     0
440
 16777216
370
    -2
100
AcDbLine
 10
-124.7600060375443
 20
106.1884160251587
 30
0.0
 11
-124.7600060375443
 21
90.40357342004005
 31
0.0
  0
LINE
  5
4ED
330
33C
100
AcDbEntity
  8
寸法線
 62
     0
440
 16777216
370
    -2
100
AcDbLine
 10
-117.5100056650152
 20
69.47505678820943
 30
0.0
 11
-117.5100056650152
 21
94.97557342004006
 31
0.0
  0
LINE
  5
4EE
330
33C
100
AcDbEntity
  8
寸法線
 62
     0
440
 16777216
370
    -2
100
AcDbLine
 10
-114.5100056650152
 20
92.68957342004005
 30
0.0
 11
-111.5100056650152
 21
92.68957342004005
 31
0.0
  0
LINE
  5
4EF
330
33C
100
AcDbEntity
  8
寸法線
 62
     0
440
 16777216
370
    -2
100
AcDbLine
 10
-127.7600060375443
 20
92.68957342004005
 30
0.0
 11
-140.511225583584
 21
92.68957342004005
 31
0.0
  0
LINE
  5
4F0
330
33C
100
AcDbEntity
  8
寸法線
 62
     0
440
 16777216
370
    -2
100
AcDbLine
 10
-117.5100056650152
 20
92.68957342004005
 30
0.0
 11
-124.7600060375443
 21
92.68957342004005
 31
0.0
  0
INSERT
  5
4F1
330
33C
100
AcDbEntity
  8
寸法線
 62
     0
440
 16777216
370
    -2
100
AcDbBlockReference
  2
_Open30
 10
-117.5100056650152
 20
92.68957342004005
 30
0.0
 41
3.0
 42
3.0
 43
3.0
 50
180.0
  0
INSERT
  5
4F2
330
33C
100
AcDbEntity
  8
寸法線
 62
     0
440
 16777216
370
    -2
100
AcDbBlockReference
  2
_Open30
 10
-124.7600060375443
 20
92.68957342004005
 30
0.0
 41
3.0
 42
3.0
 43
3.0
  0
MTEXT
  5
4F3
330
33C
100
AcDbEntity
  8
寸法線
 62
     0
440
 16777216
100
AcDbMText
 10
-137.04455886526
 20
95.08957345580283
 30
0.0
 40
3.200000047683716
 41
0.0
 46
0.0
 71
     5
 72
     1
  1
L6
 73
     1
 44
1.0
1001
ACAD
1000
MTEXTBEGIN
1070
    73
1070
     1
1070
    44
1040
1.0
1070
    74
1070
     0
1000
MTEXTEND
  0
POINT
  5
4F4
330
33C
100
AcDbEntity
  8
Defpoints
 62
     0
440
 16777216
100
AcDbPoint
 10
-124.7600060375443
 20
108.7284160251587
 30
0.0
  0
POINT
  5
4F5
330
33C
100
AcDbEntity
  8
Defpoints
 62
     0
440
 16777216
100
AcDbPoint
 10
-117.5100056650152
 20
66.93505678820942
 30
0.0
  0
POINT
  5
4F6
330
33C
100
AcDbEntity
  8
Defpoints
 62
     0
440
 16777216
100
AcDbPoint
 10
-117.5100056650152
 20
92.68957342004005
 30
0.0
  0
ENDBLK
  5
349
330
33C
100
AcDbEntity
  8
0
100
AcDbBlockEnd
  0
ENDSEC
  0
SECTION
  2
ENTITIES
  0
LINE
  5
36
330
1F
100
AcDbEntity
  8
外形線
100
AcDbLine
 10
-113.8980304258363
 20
68.53505300156143
 30
0.0
 11
-113.7480275551714
 21
68.53505300156143
 31
0.0
  0
LINE
  5
37
330
1F
100
AcDbEntity
  8
外形線
100
AcDbLine
 10
-122.0099979624541
 20
62.03505364863019
 30
0.0
 11
-122.5599997815114
 21
62.58505560677264
 31
0.0
  0
LINE
  5
38
330
1F
100
AcDbEntity
  8
外形線
100
AcDbLine
 10
-113.8980335535167
 20
68.53505625423057
 30
0.0
 11
-114.0822581564025
 21
69.47920770596105
 31
0.0
  0
LINE
  5
39
330
1F
100
AcDbEntity
  8
破線
100
AcDbLine
 10
-107.6831446276369
 20
72.97429376478806
 30
0.0
 11
-100.1600106458904
 21
72.33594664045394
 31
0.0
  0
LINE
  5
3A
330
1F
100
AcDbEntity
  8
破線
100
AcDbLine
 10
-106.8100088293206
 20
74.88505858949683
 30
0.0
 11
-106.8100088293206
 21
74.26929465123568
 31
0.0
  0
LINE
  5
3B
330
1F
100
AcDbEntity
  8
外形線
100
AcDbLine
 10
-111.8480578140719
 20
68.53505019857822
 30
0.0
 11
-111.6638328582316
 21
69.47920272456793
 31
0.0
  0
LINE
  5
3C
330
1F
100
AcDbEntity
  8
外形線
100
AcDbLine
 10
-108.7100040521837
 20
86.03505281748828
 30
0.0
 11
-98.9600059498904
 21
86.03505281748828
 31
0.0
  0
LINE
  5
3D
330
1F
100
AcDbEntity
  8
破線
100
AcDbLine
 10
-107.5827661843607
 20
72.92822903525268
 30
0.0
 11
-107.0372443322112
 21
72.79184857221534
 31
0.0
  0
LINE
  5
3E
330
1F
100
AcDbEntity
  8
外形線
100
AcDbLine
 10
-118.8100096006748
 20
62.58505656469201
 30
0.0
 11
-118.8100096006748
 21
57.98505567062234
 31
0.0
  0
LINE
  5
3F
330
1F
100
AcDbEntity
  8
外形線
100
AcDbLine
 10
-111.0350059126375
 20
52.03505586784359
 30
0.0
 11
-111.1850042954232
 21
52.03505586784359
 31
0.0
  0
LINE
  5
40
330
1F
100
AcDbEntity
  8
外形線
100
AcDbLine
 10
-119.0100074443892
 20
62.03505351871939
 30
0.0
 11
-119.0100074443892
 21
58.53505535068564
 31
0.0
  0
LINE
  5
41
330
1F
100
AcDbEntity
  8
破線
100
AcDbLine
 10
-91.11000531439968
 20
76.28505920307407
 30
0.0
 11
-98.9600059498904
 21
76.28505920307407
 31
0.0
  0
LINE
  5
42
330
1F
100
AcDbEntity
  8
破線
100
AcDbLine
 10
-106.8100065853811
 20
71.78505835283131
 30
0.0
 11
-98.9600059498904
 21
71.78505835283131
 31
0.0
  0
LINE
  5
43
330
1F
100
AcDbEntity
  8
外形線
100
AcDbLine
 10
-122.0100020273789
 20
62.03505351871939
 30
0.0
 11
-122.0100020273789
 21
58.53505535068564
 31
0.0
  0
LINE
  5
44
330
1F
100
AcDbEntity
  8
外形線
100
AcDbLine
 10
-109.7963782113966
 20
69.56005317029518
 30
0.0
 11
-111.5656549800395
 21
69.56005317029518
 31
0.0
  0
LINE
  5
45
330
1F
100
AcDbEntity
  8
外形線
100
AcDbLine
 10
-121.8100041836645
 20
62.58505656469201
 30
0.0
 11
-121.8100041836645
 21
57.98505567062234
 31
0.0
  0
LINE
  5
46
330
1F
100
AcDbEntity
  8
破線
100
AcDbLine
 10
-90.11001385188846
 20
74.55082828223577
 30
0.0
 11
-90.11001385188846
 21
74.21929294636754
 31
0.0
  0
LINE
  5
47
330
1F
100
AcDbEntity
  8
外形線
100
AcDbLine
 10
-122.5600050733515
 20
62.58505656469201
 30
0.0
 11
-122.5600050733515
 21
57.98505567062234
 31
0.0
  0
LINE
  5
48
330
1F
100
AcDbEntity
  8
破線
100
AcDbLine
 10
-98.96001268170905
 20
75.70114574270627
 30
0.0
 11
-98.96001268170905
 21
74.40114405098623
 31
0.0
  0
LINE
  5
49
330
1F
100
AcDbEntity
  8
外形線
100
AcDbLine
 10
-88.46000022609148
 20
69.78505747629245
 30
0.0
 11
-88.46000022609148
 21
60.28505780061184
 31
0.0
  0
LINE
  5
4A
330
1F
100
AcDbEntity
  8
破線
100
AcDbLine
 10
-98.96000370595086
 20
73.36897898328719
 30
0.0
 11
-98.96000370595086
 21
72.06897729156715
 31
0.0
  0
LINE
  5
4B
330
1F
100
AcDbEntity
  8
破線
100
AcDbLine
 10
-106.8100065853811
 20
76.28505920307407
 30
0.0
 11
-98.9600059498904
 21
76.28505920307407
 31
0.0
  0
LINE
  5
4C
330
1F
100
AcDbEntity
  8
破線
100
AcDbLine
 10
-106.8100092420321
 20
72.73505089351779
 30
0.0
 11
-98.96001165873546
 21
72.06896899261244
 31
0.0
  0
LINE
  5
4D
330
1F
100
AcDbEntity
  8
破線
100
AcDbLine
 10
-82.7290551482705
 20
68.13506430555218
 30
0.0
 11
-82.95999476325606
 21
67.73506536420713
 31
0.0
  0
LINE
  5
4E
330
1F
100
AcDbEntity
  8
外形線
100
AcDbLine
 10
-115.3600019178115
 20
69.5600599021138
 30
0.0
 11
-115.3600019178115
 21
60.28505780061184
 31
0.0
  0
LINE
  5
4F
330
1F
100
AcDbEntity
  8
外形線
100
AcDbLine
 10
-119.0100039607864
 20
62.0350532693093
 30
0.0
 11
-119.5600073665485
 21
62.58505681415683
 31
0.0
  0
LINE
  5
50
330
1F
100
AcDbEntity
  8
外形線
100
AcDbLine
 10
-122.0100044988252
 20
58.53505386260521
 30
0.0
 11
-122.5600072862694
 21
57.98505445955962
 31
0.0
  0
LINE
  5
51
330
1F
100
AcDbEntity
  8
破線
100
AcDbLine
 10
-91.11000531439968
 20
71.78505835283131
 30
0.0
 11
-98.9600059498904
 21
71.78505835283131
 31
0.0
  0
LINE
  5
52
330
1F
100
AcDbEntity
  8
外形線
100
AcDbLine
 10
-108.2350069294226
 20
87.28505280434021
 30
0.0
 11
-98.9600059498904
 21
87.28505280434021
 31
0.0
  0
LINE
  5
53
330
1F
100
AcDbEntity
  8
破線
100
AcDbLine
 10
-106.8099981789753
 20
76.51599969979182
 30
0.0
 11
-106.4099952886421
 21
76.28505794889621
 31
0.0
  0
LINE
  5
54
330
1F
100
AcDbEntity
  8
破線
100
AcDbLine
 10
-91.11001204621834
 20
75.78506234984864
 30
0.0
 11
-91.11001204621834
 21
75.26929284556557
 31
0.0
  0
LINE
  5
55
330
1F
100
AcDbEntity
  8
破線
100
AcDbLine
 10
-90.33725278996113
 20
74.8418563370757
 30
0.0
 11
-90.88277246516952
 21
74.97823625587781
 31
0.0
  0
LINE
  5
56
330
1F
100
AcDbEntity
  8
破線
100
AcDbLine
 10
-90.3372484360789
 20
73.92824421874525
 30
0.0
 11
-90.88276593434612
 21
73.79186484417843
 31
0.0
  0
LINE
  5
57
330
1F
100
AcDbEntity
  8
破線
100
AcDbLine
 10
-91.11001204621834
 20
73.50082838303774
 30
0.0
 11
-91.11001204621834
 21
71.56668937606688
 31
0.0
  0
LINE
  5
58
330
1F
100
AcDbEntity
  8
破線
100
AcDbLine
 10
-107.8100115115296
 20
73.55083008790588
 30
0.0
 11
-107.8100115115296
 21
73.21929250809811
 31
0.0
  0
LINE
  5
59
330
1F
100
AcDbEntity
  8
破線
100
AcDbLine
 10
-106.8100065853811
 20
76.51599648522675
 30
0.0
 11
-98.9600059498904
 21
76.51599648522675
 31
0.0
  0
LINE
  5
5A
330
1F
100
AcDbEntity
  8
外形線
100
AcDbLine
 10
-119.0100097037876
 20
58.53505494604326
 30
0.0
 11
-119.5600124912318
 21
57.98505554299769
 31
0.0
  0
LINE
  5
5B
330
1F
100
AcDbEntity
  8
破線
100
AcDbLine
 10
-107.5827558438903
 20
73.8418647597884
 30
0.0
 11
-107.037236168682
 21
73.97824467859047
 31
0.0
  0
LINE
  5
5C
330
1F
100
AcDbEntity
  8
破線
100
AcDbLine
 10
-108.4600041985941
 20
70.78508031270354
 30
0.0
 11
-107.0508522237535
 21
71.63911139891967
 31
0.0
  0
LINE
  5
5D
330
1F
100
AcDbEntity
  8
外形線
100
AcDbLine
 10
-111.4673771598129
 20
51.01006074797385
 30
0.0
 11
-112.0469777683763
 21
51.01006074797385
 31
0.0
  0
LINE
  5
5E
330
1F
100
AcDbEntity
  8
外形線
100
AcDbLine
 10
-113.5638201680611
 20
69.47920641087683
 30
0.0
 11
-113.7480446941635
 21
68.53505608729261
 31
0.0
  0
LINE
  5
5F
330
1F
100
AcDbEntity
  8
外形線
100
AcDbLine
 10
-113.4656569347212
 20
69.56005317029518
 30
0.0
 11
-112.8860563261578
 21
69.56005317029518
 31
0.0
  0
LINE
  5
60
330
1F
100
AcDbEntity
  8
外形線
100
AcDbLine
 10
-111.0350086610351
 20
52.03506677483841
 30
0.0
 11
-110.8507838432805
 21
51.09091422190513
 31
0.0
  0
LINE
  5
61
330
1F
100
AcDbEntity
  8
外形線
100
AcDbLine
 10
-109.7963782113966
 20
51.01006074797385
 30
0.0
 11
-110.7526308043082
 21
51.01006074797385
 31
0.0
  0
LINE
  5
62
330
1F
100
AcDbEntity
  8
外形線
100
AcDbLine
 10
-124.7600060375443
 20
66.93505678820942
 30
0.0
 11
-124.7600060375443
 21
60.28505555667229
 31
0.0
  0
LINE
  5
63
330
1F
100
AcDbEntity
  8
破線
100
AcDbLine
 10
-89.45999549538599
 20
70.78506159026144
 30
0.0
 11
-90.86914842973284
 21
71.63909325799621
 31
0.0
  0
LINE
  5
64
330
1F
100
AcDbEntity
  8
外形線
100
AcDbLine
 10
-112.2804013355442
 20
69.56005317029518
 30
0.0
 11
-112.8599997001681
 21
69.56005317029518
 31
0.0
  0
LINE
  5
65
330
1F
100
AcDbEntity
  8
外形線
100
AcDbLine
 10
-88.46000022609148
 20
50.78505588099168
 30
0.0
 11
-88.46000022609148
 21
60.28505780061184
 31
0.0
  0
LINE
  5
66
330
1F
100
AcDbEntity
  8
外形線
100
AcDbLine
 10
-123.5100060506924
 20
67.13505687586331
 30
0.0
 11
-123.5100060506924
 21
60.28505555667229
 31
0.0
  0
LINE
  5
67
330
1F
100
AcDbEntity
  8
外形線
100
AcDbLine
 10
-113.0850105049411
 20
52.03506488490299
 30
0.0
 11
-113.269235138478
 21
51.0909140107174
 31
0.0
  0
LINE
  5
68
330
1F
100
AcDbEntity
  8
外形線
100
AcDbLine
 10
-112.6526305150504
 20
51.01006074797385
 30
0.0
 11
-112.0730343943661
 21
51.01006074797385
 31
0.0
  0
LINE
  5
69
330
1F
100
AcDbEntity
  8
外形線
100
AcDbLine
 10
-121.6008376029717
 20
53.6350565690747
 30
0.0
 11
-123.2600065021098
 21
53.6350565690747
 31
0.0
  0
LINE
  5
6A
330
1F
100
AcDbEntity
  8
外形線
100
AcDbLine
 10
-116.9467215060164
 20
54.01518515027068
 30
0.0
 11
-115.36001300647
 21
51.01005685257646
 31
0.0
  0
LINE
  5
6B
330
1F
100
AcDbEntity
  8
外形線
100
AcDbLine
 10
-124.5100064889618
 20
67.13505687586331
 30
0.0
 11
-124.5100064889618
 21
60.28505555667229
 31
0.0
  0
LINE
  5
6C
330
1F
100
AcDbEntity
  8
破線
100
AcDbLine
 10
-100.1599997439951
 20
73.13594810553955
 30
0.0
 11
-100.1599997439951
 21
72.33594775492398
 31
0.0
  0
LINE
  5
6D
330
1F
100
AcDbEntity
  8
外形線
100
AcDbLine
 10
-108.2350069294226
 20
85.78505551284534
 30
0.0
 11
-98.9600059498904
 21
85.78505551284534
 31
0.0
  0
LINE
  5
6E
330
1F
100
AcDbEntity
  8
外形線
100
AcDbLine
 10
-115.360004161751
 20
69.56005317029518
 30
0.0
 11
-114.1804010462864
 21
69.56005317029518
 31
0.0
  0
LINE
  5
6F
330
1F
100
AcDbEntity
  8
外形線
100
AcDbLine
 10
-117.1058559020803
 20
54.03920632717741
 30
0.0
 11
-117.5100050562425
 21
53.63505628726634
 31
0.0
  0
LINE
  5
70
330
1F
100
AcDbEntity
  8
破線
100
AcDbLine
 10
-98.96001282254252
 20
75.70113679951204
 30
0.0
 11
-90.98314998820386
 21
75.02429022681207
 31
0.0
  0
LINE
  5
71
330
1F
100
AcDbEntity
  8
外形線
100
AcDbLine
 10
-120.5600041968126
 20
53.6350565690747
 30
0.0
 11
-120.5600041968126
 21
54.13505678820943
 31
0.0
  0
LINE
  5
72
330
1F
100
AcDbEntity
  8
外形線
100
AcDbLine
 10
-124.510017525437
 20
53.43505468212715
 30
0.0
 11
-124.7600147587736
 21
53.63505292296238
 31
0.0
  0
LINE
  5
73
330
1F
100
AcDbEntity
  8
外形線
100
AcDbLine
 10
-120.7600044103407
 20
54.13505709427653
 30
0.0
 11
-121.4344268674325
 21
53.68544247717604
 31
0.0
  0
LINE
  5
74
330
1F
100
AcDbEntity
  8
破線
100
AcDbLine
 10
-97.7600144930788
 20
74.6341644403268
 30
0.0
 11
-90.2122223917552
 21
73.99372504437265
 31
0.0
  0
LINE
  5
75
330
1F
100
AcDbEntity
  8
破線
100
AcDbLine
 10
-100.1600145866851
 20
72.33594062207419
 30
0.0
 11
-98.96001294386094
 21
72.06896997791886
 31
0.0
  0
LINE
  5
76
330
1F
100
AcDbEntity
  8
破線
100
AcDbLine
 10
-100.1599982058489
 20
73.13594982035886
 30
0.0
 11
-98.95999918461901
 21
73.36897929217413
 31
0.0
  0
LINE
  5
77
330
1F
100
AcDbEntity
  8
破線
100
AcDbLine
 10
-97.76001206359921
 20
75.43416012733364
 30
0.0
 11
-90.23687584594762
 21
74.79581281328022
 31
0.0
  0
LINE
  5
78
330
1F
100
AcDbEntity
  8
外形線
100
AcDbLine
 10
-114.3232031149532
 20
61.27910843317925
 30
0.0
 11
-114.1732047321675
 21
61.27910843317925
 31
0.0
  0
LINE
  5
79
330
1F
100
AcDbEntity
  8
外形線
100
AcDbLine
 10
-114.6535917977143
 20
60.07910788972518
 30
0.0
 11
-114.1035932396207
 21
60.07910788972518
 31
0.0
  0
LINE
  5
7A
330
1F
100
AcDbEntity
  8
外形線
100
AcDbLine
 10
-108.7100040521837
 20
87.03505774363682
 30
0.0
 11
-98.9600059498904
 21
87.03505774363682
 31
0.0
  0
LINE
  5
7B
330
1F
100
AcDbEntity
  8
外形線
100
AcDbLine
 10
-114.1731940316952
 20
61.27911384836153
 30
0.0
 11
-114.1035834307862
 21
60.07911221531982
 31
0.0
  0
LINE
  5
7C
330
1F
100
AcDbEntity
  8
外形線
100
AcDbLine
 10
-111.1849941747534
 20
52.03506575571446
 30
0.0
 11
-110.1580875277728
 21
69.56006255461048
 31
0.0
  0
LINE
  5
7D
330
1F
100
AcDbEntity
  8
外形線
100
AcDbLine
 10
-114.6535900357162
 20
60.07910388661297
 30
0.0
 11
-114.3232031845985
 21
61.27910531297999
 31
0.0
  0
LINE
  5
7E
330
1F
100
AcDbEntity
  8
外形線
100
AcDbLine
 10
-111.0349870067087
 20
52.03506356309627
 30
0.0
 11
-110.0080803597281
 21
69.56006036199231
 31
0.0
  0
LINE
  5
7F
330
1F
100
AcDbEntity
  8
破線
100
AcDbLine
 10
-98.96000093662564
 20
74.40113218984345
 30
0.0
 11
-91.00779454493526
 21
73.72637774647401
 31
0.0
  0
LINE
  5
80
330
1F
100
AcDbEntity
  8
外形線
100
AcDbLine
 10
-110.8326518821636
 20
51.0500925051906
 30
0.0
 11
-109.7963684176473
 21
68.7351123186215
 31
0.0
  0
LINE
  5
81
330
1F
100
AcDbEntity
  8
外形線
100
AcDbLine
 10
-111.8480301991868
 20
68.53504656864403
 30
0.0
 11
-112.935006605955
 21
52.03505146470985
 31
0.0
  0
LINE
  5
82
330
1F
100
AcDbEntity
  8
外形線
100
AcDbLine
 10
-111.38220985031
 20
51.0576387849213
 30
0.0
 11
-110.2980300692466
 21
69.56004817961065
 31
0.0
  0
LINE
  5
83
330
1F
100
AcDbEntity
  8
外形線
100
AcDbLine
 10
-114.6535852968269
 20
60.07909710270627
 30
0.0
 11
-114.1003786911798
 21
69.5200175813103
 31
0.0
  0
LINE
  5
84
330
1F
100
AcDbEntity
  8
外形線
100
AcDbLine
 10
-114.1035809645818
 20
60.0791108487015
 30
0.0
 11
-113.550818478617
 21
69.51245206386109
 31
0.0
  0
LINE
  5
85
330
1F
100
AcDbEntity
  8
外形線
100
AcDbLine
 10
-114.1731902709181
 20
61.27911219930467
 30
0.0
 11
-113.7480160101671
 21
68.53505662282417
 31
0.0
  0
LINE
  5
86
330
1F
100
AcDbEntity
  8
外形線
100
AcDbLine
 10
-114.3232002347647
 20
61.27909544954441
 30
0.0
 11
-113.8980257771203
 21
68.53504323320951
 31
0.0
  0
LINE
  5
87
330
1F
100
AcDbEntity
  8
外形線
100
AcDbLine
 10
-113.2822037234893
 20
51.05763915015121
 30
0.0
 11
-112.2003693035585
 21
69.5200230503514
 31
0.0
  0
LINE
  5
88
330
1F
100
AcDbEntity
  8
外形線
100
AcDbLine
 10
-112.7326484952758
 20
51.05009723639231
 30
0.0
 11
-111.6508162744884
 21
69.51245653978033
 31
0.0
  0
LINE
  5
89
330
1F
100
AcDbEntity
  8
破線
100
AcDbLine
 10
-91.11000410903306
 20
76.5160027157448
 30
0.0
 11
-91.51000311274879
 21
76.28506320878857
 31
0.0
  0
LINE
  5
8A
330
1F
100
AcDbEntity
  8
外形線
100
AcDbLine
 10
-109.4600049418706
 20
50.78505588099168
 30
0.0
 11
-108.9600058447057
 21
50.78505588099168
 31
0.0
  0
LINE
  5
8B
330
1F
100
AcDbEntity
  8
破線
100
AcDbLine
 10
-97.76001290458832
 20
75.43417041667737
 30
0.0
 11
-98.96001234741721
 21
75.70113997090941
 31
0.0
  0
LINE
  5
8C
330
1F
100
AcDbEntity
  8
外形線
100
AcDbLine
 10
-111.3692337614552
 20
51.09090186394706
 30
0.0
 11
-111.1850093427872
 21
52.0350516369299
 31
0.0
  0
LINE
  5
8D
330
1F
100
AcDbEntity
  8
外形線
100
AcDbLine
 10
-113.0850036174828
 20
52.03506085744763
 30
0.0
 11
-111.9980282048603
 21
68.53505209146748
 31
0.0
  0
LINE
  5
8E
330
1F
100
AcDbEntity
  8
破線
100
AcDbLine
 10
-97.76000710294788
 20
74.63417409439265
 30
0.0
 11
-98.96000557007155
 21
74.40114471196463
 31
0.0
  0
LINE
  5
8F
330
1F
100
AcDbEntity
  8
破線
100
AcDbLine
 10
-97.76000766790659
 20
75.4341752793494
 30
0.0
 11
-97.76000766790659
 21
74.63417492873387
 31
0.0
  0
LINE
  5
90
330
1F
100
AcDbEntity
  8
外形線
100
AcDbLine
 10
-112.7507897526941
 20
51.09090947054713
 30
0.0
 11
-112.9350139258425
 21
52.03505871987204
 31
0.0
  0
LINE
  5
91
330
1F
100
AcDbEntity
  8
外形線
100
AcDbLine
 10
-119.5600104903618
 20
62.58505656469201
 30
0.0
 11
-119.5600104903618
 21
57.98505567062234
 31
0.0
  0
LINE
  5
92
330
1F
100
AcDbEntity
  8
外形線
100
AcDbLine
 10
-123.2600065021099
 20
66.93505678820942
 30
0.0
 11
-123.2600065021099
 21
60.28505555667229
 31
0.0
  0
LINE
  5
93
330
1F
100
AcDbEntity
  8
外形線
100
AcDbLine
 10
-122.0099930516207
 20
58.53505759462521
 30
0.0
 11
-121.8099929639668
 21
58.53505759462521
 31
0.0
  0
LINE
  5
94
330
1F
100
AcDbEntity
  8
破線
100
AcDbLine
 10
-106.8100088293206
 20
72.50082794476829
 30
0.0
 11
-106.8100088293206
 21
72.06668847323183
 31
0.0
  0
LINE
  5
95
330
1F
100
AcDbEntity
  8
外形線
100
AcDbLine
 10
-112.1822529721723
 20
69.47919859827928
 30
0.0
 11
-111.9980283692864
 21
68.53504714654879
 31
0.0
  0
LINE
  5
96
330
1F
100
AcDbEntity
  8
破線
100
AcDbLine
 10
-106.8100088293206
 20
76.2850569591345
 30
0.0
 11
-106.8100088293206
 21
74.88505858949683
 31
0.0
  0
LINE
  5
97
330
1F
100
AcDbEntity
  8
外形線
100
AcDbLine
 10
-122.0099930516207
 20
62.03505576265893
 30
0.0
 11
-121.8099929639668
 21
62.03505576265893
 31
0.0
  0
LINE
  5
98
330
1F
100
AcDbEntity
  8
外形線
100
AcDbLine
 10
-111.8480278444292
 20
68.53505300156143
 30
0.0
 11
-111.9980284711545
 21
68.53505300156143
 31
0.0
  0
LINE
  5
99
330
1F
100
AcDbEntity
  8
外形線
100
AcDbLine
 10
-122.5600050733515
 20
62.58505880863154
 30
0.0
 11
-121.8099929639668
 21
62.58505880863154
 31
0.0
  0
LINE
  5
9A
330
1F
100
AcDbEntity
  8
外形線
100
AcDbLine
 10
-122.5600050733515
 20
57.98505006077349
 30
0.0
 11
-121.8099929639668
 21
57.98505006077349
 31
0.0
  0
LINE
  5
9B
330
1F
100
AcDbEntity
  8
外形線
100
AcDbLine
 10
-119.0100007125705
 20
58.53505759462521
 30
0.0
 11
-118.8100006249167
 21
58.53505759462521
 31
0.0
  0
LINE
  5
9C
330
1F
100
AcDbEntity
  8
外形線
100
AcDbLine
 10
-119.0100007125705
 20
62.03505576265893
 30
0.0
 11
-118.8100006249167
 21
62.03505576265893
 31
0.0
  0
LINE
  5
9D
330
1F
100
AcDbEntity
  8
外形線
100
AcDbLine
 10
-119.5600104903618
 20
57.98505006077349
 30
0.0
 11
-118.8100006249167
 21
57.98505006077349
 31
0.0
  0
LINE
  5
9E
330
1F
100
AcDbEntity
  8
外形線
100
AcDbLine
 10
-119.5600104903618
 20
62.58505880863154
 30
0.0
 11
-118.8100006249167
 21
62.58505880863154
 31
0.0
  0
LINE
  5
9F
330
1F
100
AcDbEntity
  8
破線
100
AcDbLine
 10
-106.9122058105948
 20
74.04372374654831
 30
0.0
 11
-98.96000193429763
 21
73.36896951661305
 31
0.0
  0
LINE
  5
A0
330
1F
100
AcDbEntity
  8
破線
100
AcDbLine
 10
-91.11000531439968
 20
76.51599648522675
 30
0.0
 11
-98.9600059498904
 21
76.51599648522675
 31
0.0
  0
LINE
  5
A1
330
1F
100
AcDbEntity
  8
破線
100
AcDbLine
 10
-107.7077971586869
 20
73.77637582535851
 30
0.0
 11
-100.1600112061021
 21
73.13593695113238
 31
0.0
  0
LINE
  5
A2
330
1F
100
AcDbEntity
  8
外形線
100
AcDbLine
 10
-107.44529127221
 20
51.79977484385325
 30
0.0
 11
-90.47472592426506
 21
68.77033876128661
 31
0.0
  0
LINE
  5
A3
330
1F
100
AcDbEntity
  8
外形線
100
AcDbLine
 10
-123.5100060506923
 20
67.13505687586331
 30
0.0
 11
-124.5100064889618
 21
67.13505687586331
 31
0.0
  0
LINE
  5
A4
330
1F
100
AcDbEntity
  8
外形線
100
AcDbLine
 10
-115.3600019178115
 20
51.01005962600407
 30
0.0
 11
-115.3600019178115
 21
60.28505780061184
 31
0.0
  0
LINE
  5
A5
330
1F
100
AcDbEntity
  8
外形線
100
AcDbLine
 10
-117.0100065678503
 20
66.4350565690747
 30
0.0
 11
-117.0100065678503
 21
60.28505555667229
 31
0.0
  0
LINE
  5
A6
330
1F
100
AcDbEntity
  8
外形線
100
AcDbLine
 10
-117.5100056650152
 20
66.93505678820942
 30
0.0
 11
-117.5100056650152
 21
60.28505555667229
 31
0.0
  0
LINE
  5
A7
330
1F
100
AcDbEntity
  8
外形線
100
AcDbLine
 10
-115.3600064056906
 20
51.01006074797385
 30
0.0
 11
-113.3673768705551
 21
51.01006074797385
 31
0.0
  0
LINE
  5
A8
330
1F
100
AcDbEntity
  8
外形線
100
AcDbLine
 10
-113.0850040061654
 20
52.03505586784359
 30
0.0
 11
-112.9350033794401
 21
52.03505586784359
 31
0.0
  0
LINE
  5
A9
330
1F
100
AcDbEntity
  8
破線
100
AcDbLine
 10
-87.4599930560034
 20
52.4350549211816
 30
0.0
 11
-87.4599930560034
 21
60.28505780061184
 31
0.0
  0
LINE
  5
AA
330
1F
100
AcDbEntity
  8
外形線
100
AcDbLine
 10
-89.45999842042137
 20
70.78505567062234
 30
0.0
 11
-89.45999842042137
 21
70.28505657345739
 31
0.0
  0
LINE
  5
AB
330
1F
100
AcDbEntity
  8
外形線
100
AcDbLine
 10
-89.46000290830044
 20
70.78505567062234
 30
0.0
 11
-98.9600059498904
 21
70.78505567062234
 31
0.0
  0
LINE
  5
AC
330
1F
100
AcDbEntity
  8
破線
100
AcDbLine
 10
-84.69423883417574
 20
51.43506177571567
 30
0.0
 11
-85.02577192610445
 21
51.43506177571567
 31
0.0
  0
LINE
  5
AD
330
1F
100
AcDbEntity
  8
破線
100
AcDbLine
 10
-82.95999669363977
 20
68.13505955807229
 30
0.0
 11
-82.95999669363977
 21
60.28505555667229
 31
0.0
  0
LINE
  5
AE
330
1F
100
AcDbEntity
  8
破線
100
AcDbLine
 10
-114.1091200627186
 20
61.48505271668632
 30
0.0
 11
-113.3091197121031
 21
61.48505271668632
 31
0.0
  0
LINE
  5
AF
330
1F
100
AcDbEntity
  8
破線
100
AcDbLine
 10
-114.109108014991
 20
61.48505392809109
 30
0.0
 11
-113.4707603380754
 21
69.0081877925753
 31
0.0
  0
LINE
  5
B0
330
1F
100
AcDbEntity
  8
破線
100
AcDbLine
 10
-113.3091089900208
 20
61.48506555379753
 30
0.0
 11
-113.0760792675974
 21
60.28506486684019
 31
0.0
  0
LINE
  5
B1
330
1F
100
AcDbEntity
  8
破線
100
AcDbLine
 10
-113.309106779723
 20
61.48505047581764
 30
0.0
 11
-112.6686665032765
 21
69.03284630268534
 31
0.0
  0
LINE
  5
B2
330
1F
100
AcDbEntity
  8
破線
100
AcDbLine
 10
-113.076061083548
 20
60.28503774261942
 30
0.0
 11
-112.4013060320282
 21
68.23724429383275
 31
0.0
  0
LINE
  5
B3
330
1F
100
AcDbEntity
  8
破線
100
AcDbLine
 10
-114.3760801291623
 20
60.28504160501613
 30
0.0
 11
-113.6992327864057
 21
68.26190648526729
 31
0.0
  0
LINE
  5
B4
330
1F
100
AcDbEntity
  8
破線
100
AcDbLine
 10
-114.1091097612686
 20
61.48504788824596
 30
0.0
 11
-114.376079410388
 21
60.28504843060838
 31
0.0
  0
LINE
  5
B5
330
1F
100
AcDbEntity
  8
外形線
100
AcDbLine
 10
-120.5600041968126
 20
66.4350565690747
 30
0.0
 11
-120.7600042844665
 21
66.4350565690747
 31
0.0
  0
LINE
  5
B6
330
1F
100
AcDbEntity
  8
破線
100
AcDbLine
 10
-112.0439260105959
 20
60.28505667864206
 30
0.0
 11
-110.7439243188759
 21
60.28505667864206
 31
0.0
  0
LINE
  5
B7
330
1F
100
AcDbEntity
  8
破線
100
AcDbLine
 10
-114.3760905260755
 20
60.28505219076297
 30
0.0
 11
-113.076091078295
 21
60.28505219076297
 31
0.0
  0
LINE
  5
B8
330
1F
100
AcDbEntity
  8
破線
100
AcDbLine
 10
-83.46000252262333
 20
52.43506053103047
 30
0.0
 11
-83.97577202690639
 21
52.43506053103047
 31
0.0
  0
LINE
  5
B9
330
1F
100
AcDbEntity
  8
破線
100
AcDbLine
 10
-84.40319191322981
 20
51.66230336067432
 30
0.0
 11
-84.26681119584047
 21
52.20782572748579
 31
0.0
  0
LINE
  5
BA
330
1F
100
AcDbEntity
  8
破線
100
AcDbLine
 10
-85.31682287570843
 20
51.66229539526007
 30
0.0
 11
-85.45320267621802
 21
52.20781510004155
 31
0.0
  0
LINE
  5
BB
330
1F
100
AcDbEntity
  8
破線
100
AcDbLine
 10
-85.74423873337378
 20
52.43506053103047
 30
0.0
 11
-87.67837325246555
 21
52.43506053103047
 31
0.0
  0
LINE
  5
BC
330
1F
100
AcDbEntity
  8
破線
100
AcDbLine
 10
-88.45999712718308
 20
50.78505289616139
 30
0.0
 11
-87.60596555754665
 21
52.19420482400911
 31
0.0
  0
LINE
  5
BD
330
1F
100
AcDbEntity
  8
破線
100
AcDbLine
 10
-85.69423029668703
 20
69.13506448422083
 30
0.0
 11
-86.02576563255528
 21
69.13506448422083
 31
0.0
  0
LINE
  5
BE
330
1F
100
AcDbEntity
  8
破線
100
AcDbLine
 10
-84.35999955115653
 20
68.13506180201184
 30
0.0
 11
-84.97576797729678
 21
68.13506180201184
 31
0.0
  0
LINE
  5
BF
330
1F
100
AcDbEntity
  8
破線
100
AcDbLine
 10
-85.40320015975897
 20
68.90781370650794
 30
0.0
 11
-85.26682035924942
 21
68.36229400172644
 31
0.0
  0
LINE
  5
C0
330
1F
100
AcDbEntity
  8
破線
100
AcDbLine
 10
-86.3168073799733
 20
68.90780791803007
 30
0.0
 11
-86.45318796130366
 21
68.36228609545386
 31
0.0
  0
LINE
  5
C1
330
1F
100
AcDbEntity
  8
破線
100
AcDbLine
 10
-82.72906838724527
 20
68.13505955807229
 30
0.0
 11
-82.72906838724527
 21
60.28505555667229
 31
0.0
  0
LINE
  5
C2
330
1F
100
AcDbEntity
  8
破線
100
AcDbLine
 10
-88.45999287186186
 20
69.78507394982479
 30
0.0
 11
-87.60596096150948
 21
68.37591993257365
 31
0.0
  0
LINE
  5
C3
330
1F
100
AcDbEntity
  8
外形線
100
AcDbLine
 10
-108.4600067475407
 20
70.78505567062234
 30
0.0
 11
-98.9600059498904
 21
70.78505567062234
 31
0.0
  0
LINE
  5
C4
330
1F
100
AcDbEntity
  8
破線
100
AcDbLine
 10
-82.95999669363977
 20
52.4350549211816
 30
0.0
 11
-82.95999669363977
 21
60.28505555667229
 31
0.0
  0
LINE
  5
C5
330
1F
100
AcDbEntity
  8
破線
100
AcDbLine
 10
-87.4599930560034
 20
68.13505955807229
 30
0.0
 11
-87.4599930560034
 21
60.28505780061184
 31
0.0
  0
LINE
  5
C6
330
1F
100
AcDbEntity
  8
破線
100
AcDbLine
 10
-82.72905075773001
 20
52.43505006055312
 30
0.0
 11
-82.95999129054704
 21
52.8350510630661
 31
0.0
  0
LINE
  5
C7
330
1F
100
AcDbEntity
  8
破線
100
AcDbLine
 10
-82.96000118151884
 20
68.13506180201184
 30
0.0
 11
-84.35999955115653
 21
68.13506180201184
 31
0.0
  0
LINE
  5
C8
330
1F
100
AcDbEntity
  8
破線
100
AcDbLine
 10
-86.7442324398246
 20
68.13506180201184
 30
0.0
 11
-87.17836966742153
 21
68.13506180201184
 31
0.0
  0
LINE
  5
C9
330
1F
100
AcDbEntity
  8
破線
100
AcDbLine
 10
-82.72906838724527
 20
52.4350549211816
 30
0.0
 11
-82.72906838724527
 21
60.28505555667229
 31
0.0
  0
LINE
  5
CA
330
1F
100
AcDbEntity
  8
破線
100
AcDbLine
 10
-85.46867128023931
 20
69.0328419883044
 30
0.0
 11
-86.10911178805656
 21
61.48505673733271
 31
0.0
  0
LINE
  5
CB
330
1F
100
AcDbEntity
  8
破線
100
AcDbLine
 10
-85.20132389531474
 20
68.23725961914924
 30
0.0
 11
-85.87608007420412
 21
60.28505379697064
 31
0.0
  0
LINE
  5
CC
330
1F
100
AcDbEntity
  8
破線
100
AcDbLine
 10
-86.51000176799428
 20
68.13507080355285
 30
0.0
 11
-87.17608595081527
 21
60.28506708012148
 31
0.0
  0
LINE
  5
CD
330
1F
100
AcDbEntity
  8
破線
100
AcDbLine
 10
-86.27076502383959
 20
69.00818471524018
 30
0.0
 11
-86.90911377627434
 21
61.48505143464092
 31
0.0
  0
LINE
  5
CE
330
1F
100
AcDbEntity
  8
破線
100
AcDbLine
 10
-86.10911452299289
 20
61.48506618032357
 30
0.0
 11
-86.90911262966888
 21
61.48506618032357
 31
0.0
  0
LINE
  5
CF
330
1F
100
AcDbEntity
  8
破線
100
AcDbLine
 10
-86.10910763602312
 20
61.48506416702428
 30
0.0
 11
-85.87607764827209
 21
60.2850611028674
 31
0.0
  0
LINE
  5
D0
330
1F
100
AcDbEntity
  8
破線
100
AcDbLine
 10
-86.90911195837751
 20
61.4850501597888
 30
0.0
 11
-87.17608283389621
 21
60.28504871211234
 31
0.0
  0
LINE
  5
D1
330
1F
100
AcDbEntity
  8
破線
100
AcDbLine
 10
-83.81089903936397
 20
59.08507319380579
 30
0.0
 11
-84.4492479637323
 21
51.56193788691762
 31
0.0
  0
LINE
  5
D2
330
1F
100
AcDbEntity
  8
破線
100
AcDbLine
 10
-84.61089777116411
 20
59.08505318790814
 30
0.0
 11
-85.25133908529042
 21
51.53725843434028
 31
0.0
  0
LINE
  5
D3
330
1F
100
AcDbEntity
  8
破線
100
AcDbLine
 10
-84.84393248314942
 20
60.28506060517173
 30
0.0
 11
-85.51868863832384
 21
52.33285506248122
 31
0.0
  0
LINE
  5
D4
330
1F
100
AcDbEntity
  8
破線
100
AcDbLine
 10
-83.54392293587752
 20
60.2850640413326
 30
0.0
 11
-84.22077133259127
 21
52.30820079876316
 31
0.0
  0
LINE
  5
D5
330
1F
100
AcDbEntity
  8
破線
100
AcDbLine
 10
-83.81088959312258
 20
59.08505615271876
 30
0.0
 11
-84.6108899437381
 21
59.08505615271876
 31
0.0
  0
LINE
  5
D6
330
1F
100
AcDbEntity
  8
破線
100
AcDbLine
 10
-84.6108968816439
 20
59.08506267911433
 30
0.0
 11
-84.84392642853242
 21
60.28506340015898
 31
0.0
  0
LINE
  5
D7
330
1F
100
AcDbEntity
  8
破線
100
AcDbLine
 10
-83.81087134937315
 20
59.08505374472969
 30
0.0
 11
-83.54390128966832
 21
60.285054224504
 31
0.0
  0
LINE
  5
D8
330
1F
100
AcDbEntity
  8
破線
100
AcDbLine
 10
-83.54391912976572
 20
60.28506565440024
 30
0.0
 11
-84.84391857754623
 21
60.28506565440024
 31
0.0
  0
LINE
  5
D9
330
1F
100
AcDbEntity
  8
外形線
100
AcDbLine
 10
-88.46000359200074
 20
69.78505747629245
 30
0.0
 11
-88.9600038111355
 21
69.78505747629245
 31
0.0
  0
LINE
  5
DA
330
1F
100
AcDbEntity
  8
破線
100
AcDbLine
 10
-85.87608588918481
 20
60.28505667864206
 30
0.0
 11
-87.17608533696532
 21
60.28505667864206
 31
0.0
  0
LINE
  5
DB
330
1F
100
AcDbEntity
  8
外形線
100
AcDbLine
 10
-84.83500116179673
 20
68.53505748944053
 30
0.0
 11
-84.98500178852202
 21
68.53505748944053
 31
0.0
  0
LINE
  5
DC
330
1F
100
AcDbEntity
  8
破線
100
AcDbLine
 10
-111.0108867169803
 20
59.0850512456812
 30
0.0
 11
-110.7439161530635
 21
60.28505211614358
 31
0.0
  0
LINE
  5
DD
330
1F
100
AcDbEntity
  8
破線
100
AcDbLine
 10
-111.8108855168997
 20
59.08505349444249
 30
0.0
 11
-112.0439156628998
 21
60.28505645643573
 31
0.0
  0
LINE
  5
DE
330
1F
100
AcDbEntity
  8
破線
100
AcDbLine
 10
-111.8108951328483
 20
59.08505166483964
 30
0.0
 11
-111.0108970261723
 21
59.08505166483964
 31
0.0
  0
LINE
  5
DF
330
1F
100
AcDbEntity
  8
破線
100
AcDbLine
 10
-111.6492278718576
 20
51.56191312324191
 30
0.0
 11
-111.0108801771557
 21
59.08504719734221
 31
0.0
  0
LINE
  5
E0
330
1F
100
AcDbEntity
  8
破線
100
AcDbLine
 10
-111.4099994420834
 20
52.43503677294842
 30
0.0
 11
-110.7439166578891
 21
60.28503784843443
 31
0.0
  0
LINE
  5
E1
330
1F
100
AcDbEntity
  8
破線
100
AcDbLine
 10
-112.7186751483628
 20
52.332853210515
 30
0.0
 11
-112.04392029175
 21
60.28505746468528
 31
0.0
  0
LINE
  5
E2
330
1F
100
AcDbEntity
  8
破線
100
AcDbLine
 10
-112.4513128849619
 20
51.53726568761509
 30
0.0
 11
-111.81087356897
 21
59.08505019521368
 31
0.0
  0
LINE
  5
E3
330
1F
100
AcDbEntity
  8
破線
100
AcDbLine
 10
-115.1909435125355
 20
68.13505955807229
 30
0.0
 11
-115.1909435125355
 21
60.28505780061184
 31
0.0
  0
LINE
  5
E4
330
1F
100
AcDbEntity
  8
破線
100
AcDbLine
 10
-111.175774972077
 20
52.43505155527228
 30
0.0
 11
-110.7416355005406
 21
52.43505155527228
 31
0.0
  0
LINE
  5
E5
330
1F
100
AcDbEntity
  8
破線
100
AcDbLine
 10
-114.9600062303828
 20
52.43505155527228
 30
0.0
 11
-113.5600056168056
 21
52.43505155527228
 31
0.0
  0
LINE
  5
E6
330
1F
100
AcDbEntity
  8
破線
100
AcDbLine
 10
-115.1909411572906
 20
68.13506105263049
 30
0.0
 11
-114.9600016829028
 21
67.73506203011128
 31
0.0
  0
LINE
  5
E7
330
1F
100
AcDbEntity
  8
破線
100
AcDbLine
 10
-110.4600053801401
 20
52.43505716512114
 30
0.0
 11
-110.4600053801401
 21
60.28505780061184
 31
0.0
  0
LINE
  5
E8
330
1F
100
AcDbEntity
  8
破線
100
AcDbLine
 10
-114.9600017425037
 20
68.13505955807229
 30
0.0
 11
-114.9600017425037
 21
60.28505780061184
 31
0.0
  0
LINE
  5
E9
330
1F
100
AcDbEntity
  8
破線
100
AcDbLine
 10
-109.4600056541706
 20
50.78504223546999
 30
0.0
 11
-110.3140372065423
 21
52.19419523973377
 31
0.0
  0
LINE
  5
EA
330
1F
100
AcDbEntity
  8
破線
100
AcDbLine
 10
-115.1909435125355
 20
52.43505884807579
 30
0.0
 11
-115.1909435125355
 21
60.28505780061184
 31
0.0
  0
LINE
  5
EB
330
1F
100
AcDbEntity
  8
破線
100
AcDbLine
 10
-111.6031884363805
 20
51.66229811825583
 30
0.0
 11
-111.4668076617945
 21
52.20782104901807
 31
0.0
  0
LINE
  5
EC
330
1F
100
AcDbEntity
  8
破線
100
AcDbLine
 10
-112.5168174260037
 20
51.66230947717604
 30
0.0
 11
-112.653197305375
 21
52.2078291622421
 31
0.0
  0
LINE
  5
ED
330
1F
100
AcDbEntity
  8
破線
100
AcDbLine
 10
-113.5600056168056
 20
52.43505155527228
 30
0.0
 11
-112.9442416785444
 21
52.43505155527228
 31
0.0
  0
LINE
  5
EE
330
1F
100
AcDbEntity
  8
破線
100
AcDbLine
 10
-112.2257748712751
 20
51.43505336094239
 30
0.0
 11
-111.8942395354069
 21
51.43505336094239
 31
0.0
  0
LINE
  5
EF
330
1F
100
AcDbEntity
  8
破線
100
AcDbLine
 10
-109.4599911673144
 20
69.78504925489099
 30
0.0
 11
-110.3140223688935
 21
68.37589734996733
 31
0.0
  0
LINE
  5
F0
330
1F
100
AcDbEntity
  8
破線
100
AcDbLine
 10
-112.175773166407
 20
68.13505282625367
 30
0.0
 11
-110.2416341594361
 21
68.13505282625367
 31
0.0
  0
LINE
  5
F1
330
1F
100
AcDbEntity
  8
破線
100
AcDbLine
 10
-112.6031868626403
 20
68.90781185705413
 30
0.0
 11
-112.4668075275042
 21
68.36229434892921
 31
0.0
  0
LINE
  5
F2
330
1F
100
AcDbEntity
  8
破線
100
AcDbLine
 10
-113.5167989809715
 20
68.90780199079737
 30
0.0
 11
-113.6531797555576
 21
68.36227906003509
 31
0.0
  0
LINE
  5
F3
330
1F
100
AcDbEntity
  8
破線
100
AcDbLine
 10
-114.4600071332179
 20
68.13505282625367
 30
0.0
 11
-113.9442376289348
 21
68.13505282625367
 31
0.0
  0
LINE
  5
F4
330
1F
100
AcDbEntity
  8
破線
100
AcDbLine
 10
-115.190948833268
 20
52.43506148398214
 30
0.0
 11
-114.9600092834195
 21
52.83506046293402
 31
0.0
  0
LINE
  5
F5
330
1F
100
AcDbEntity
  8
破線
100
AcDbLine
 10
-110.4600053801401
 20
68.13505955807229
 30
0.0
 11
-110.4600053801401
 21
60.28505780061184
 31
0.0
  0
LINE
  5
F6
330
1F
100
AcDbEntity
  8
破線
100
AcDbLine
 10
-114.9600017425037
 20
52.43505884807579
 30
0.0
 11
-114.9600017425037
 21
60.28505780061184
 31
0.0
  0
LINE
  5
F7
330
1F
100
AcDbEntity
  8
破線
100
AcDbLine
 10
-113.225773065605
 20
69.13505158156844
 30
0.0
 11
-112.8942377297368
 21
69.13505158156844
 31
0.0
  0
LINE
  5
F8
330
1F
100
AcDbEntity
  8
外形線
100
AcDbLine
 10
-117.5100056650152
 20
66.93505678820942
 30
0.0
 11
-120.5600041968126
 21
66.93505678820942
 31
0.0
  0
LINE
  5
F9
330
1F
100
AcDbEntity
  8
外形線
100
AcDbLine
 10
-123.260012493075
 20
66.93505805389317
 30
0.0
 11
-123.5100114786325
 21
67.13505769650826
 31
0.0
  0
LINE
  5
FA
330
1F
100
AcDbEntity
  8
外形線
100
AcDbLine
 10
-124.5100121305459
 20
67.13505782844842
 30
0.0
 11
-124.7600102399929
 21
66.93505888672325
 31
0.0
  0
LINE
  5
FB
330
1F
100
AcDbEntity
  8
外形線
100
AcDbLine
 10
-120.5600041968126
 20
66.93505678820942
 30
0.0
 11
-120.5600041968126
 21
66.4350565690747
 31
0.0
  0
LINE
  5
FC
330
1F
100
AcDbEntity
  8
外形線
100
AcDbLine
 10
-121.6008376029717
 20
66.93505678820942
 30
0.0
 11
-123.2600065021098
 21
66.93505678820942
 31
0.0
  0
LINE
  5
FD
330
1F
100
AcDbEntity
  8
外形線
100
AcDbLine
 10
-116.9467193208626
 20
66.55492771779963
 30
0.0
 11
-115.3600105266441
 21
69.56005657358486
 31
0.0
  0
LINE
  5
FE
330
1F
100
AcDbEntity
  8
外形線
100
AcDbLine
 10
-117.1058562138208
 20
66.53090680614518
 30
0.0
 11
-117.510005367983
 21
66.93505684605624
 31
0.0
  0
LINE
  5
FF
330
1F
100
AcDbEntity
  8
外形線
100
AcDbLine
 10
-120.7600049232502
 20
66.43505629695758
 30
0.0
 11
-121.434427380342
 21
66.88467091405806
 31
0.0
  0
LINE
  5
100
330
1F
100
AcDbEntity
  8
外形線
100
AcDbLine
 10
-117.0100065678503
 20
54.13505678820943
 30
0.0
 11
-117.0100065678503
 21
60.28505780061184
 31
0.0
  0
LINE
  5
101
330
1F
100
AcDbEntity
  8
外形線
100
AcDbLine
 10
-117.5100056650152
 20
53.6350565690747
 30
0.0
 11
-117.5100056650152
 21
60.28505780061184
 31
0.0
  0
LINE
  5
102
330
1F
100
AcDbEntity
  8
外形線
100
AcDbLine
 10
-124.7600060375443
 20
53.6350565690747
 30
0.0
 11
-124.7600060375443
 21
60.28505780061184
 31
0.0
  0
LINE
  5
103
330
1F
100
AcDbEntity
  8
外形線
100
AcDbLine
 10
-124.5100064889618
 20
53.43505648142083
 30
0.0
 11
-124.5100064889618
 21
60.28505780061184
 31
0.0
  0
LINE
  5
104
330
1F
100
AcDbEntity
  8
外形線
100
AcDbLine
 10
-123.5100060506924
 20
53.43505648142083
 30
0.0
 11
-123.5100060506924
 21
60.28505780061184
 31
0.0
  0
LINE
  5
105
330
1F
100
AcDbEntity
  8
外形線
100
AcDbLine
 10
-123.2600065021099
 20
53.6350565690747
 30
0.0
 11
-123.2600065021099
 21
60.28505780061184
 31
0.0
  0
LINE
  5
106
330
1F
100
AcDbEntity
  8
外形線
100
AcDbLine
 10
-123.5100060506923
 20
53.43505648142083
 30
0.0
 11
-124.5100064889618
 21
53.43505648142083
 31
0.0
  0
LINE
  5
107
330
1F
100
AcDbEntity
  8
外形線
100
AcDbLine
 10
-120.5600041968126
 20
54.13505678820943
 30
0.0
 11
-120.7600042844665
 21
54.13505678820943
 31
0.0
  0
LINE
  5
108
330
1F
100
AcDbEntity
  8
外形線
100
AcDbLine
 10
-117.5100056650152
 20
53.6350565690747
 30
0.0
 11
-120.5600041968126
 21
53.6350565690747
 31
0.0
  0
LINE
  5
109
330
1F
100
AcDbEntity
  8
外形線
100
AcDbLine
 10
-123.260016560186
 20
53.63505550800535
 30
0.0
 11
-123.5100164218539
 21
53.43505516450034
 31
0.0
  0
LINE
  5
10A
330
1F
100
AcDbEntity
  8
外形線
100
AcDbLine
 10
-89.48500488270431
 20
70.92143109643398
 30
0.0
 11
-89.48500488270431
 21
71.12143118408788
 31
0.0
  0
LINE
  5
10B
330
1F
100
AcDbEntity
  8
外形線
100
AcDbLine
 10
-89.48500488270425
 20
70.92142885249444
 30
0.0
 11
-98.9600059498904
 21
70.92142885249444
 31
0.0
  0
LINE
  5
10C
330
1F
100
AcDbEntity
  8
外形線
100
AcDbLine
 10
-89.48500488270425
 20
71.1214266962088
 30
0.0
 11
-98.9600059498904
 21
71.1214266962088
 31
0.0
  0
LINE
  5
10D
330
1F
100
AcDbEntity
  8
外形線
100
AcDbLine
 10
-108.4349980413183
 20
70.92143109643398
 30
0.0
 11
-108.4349980413183
 21
71.12143118408788
 31
0.0
  0
LINE
  5
10E
330
1F
100
AcDbEntity
  8
外形線
100
AcDbLine
 10
-109.4600026979311
 20
69.78505972023198
 30
0.0
 11
-109.4600026979311
 21
60.28505780061184
 31
0.0
  0
LINE
  5
10F
330
1F
100
AcDbEntity
  8
外形線
100
AcDbLine
 10
-109.4600026979311
 20
69.78505747629245
 30
0.0
 11
-108.9600036007662
 21
69.78505747629245
 31
0.0
  0
LINE
  5
110
330
1F
100
AcDbEntity
  8
外形線
100
AcDbLine
 10
-89.68500272641861
 20
73.60545655217504
 30
0.0
 11
-89.68500272641861
 21
74.18505491679891
 31
0.0
  0
LINE
  5
111
330
1F
100
AcDbEntity
  8
外形線
100
AcDbLine
 10
-89.68500272641861
 20
74.79071215135204
 30
0.0
 11
-89.68500272641861
 21
74.21111154278863
 31
0.0
  0
LINE
  5
112
330
1F
100
AcDbEntity
  8
外形線
100
AcDbLine
 10
-89.76586911672889
 20
74.88888456275446
 30
0.0
 11
-90.71002055498764
 21
75.07310923468304
 31
0.0
  0
LINE
  5
113
330
1F
100
AcDbEntity
  8
外形線
100
AcDbLine
 10
-90.71000738303148
 20
75.22308339852749
 30
0.0
 11
-90.71000738303148
 21
75.07308277180219
 31
0.0
  0
LINE
  5
114
330
1F
100
AcDbEntity
  8
外形線
100
AcDbLine
 10
-90.71001255712756
 20
75.22309649466862
 30
0.0
 11
-89.76586332127444
 21
75.40732073685956
 31
0.0
  0
LINE
  5
115
330
1F
100
AcDbEntity
  8
外形線
100
AcDbLine
 10
-90.18499733570449
 20
82.1850561790149
 30
0.0
 11
-90.18499733570449
 21
81.9850605792401
 31
0.0
  0
LINE
  5
116
330
1F
100
AcDbEntity
  8
外形線
100
AcDbLine
 10
-107.2100073489124
 20
74.4100644859172
 30
0.0
 11
-90.71001295533834
 21
73.3230900971618
 31
0.0
  0
LINE
  5
117
330
1F
100
AcDbEntity
  8
外形線
100
AcDbLine
 10
-90.71000380031023
 20
73.17308808065333
 30
0.0
 11
-107.2099989850552
 21
74.26006326073498
 31
0.0
  0
LINE
  5
118
330
1F
100
AcDbEntity
  8
外形線
100
AcDbLine
 10
-108.1949730027816
 20
74.05770924040543
 30
0.0
 11
-89.73261221886819
 21
72.97587831077679
 31
0.0
  0
LINE
  5
119
330
1F
100
AcDbEntity
  8
外形線
100
AcDbLine
 10
-108.1874210570808
 20
74.60726366270828
 30
0.0
 11
-89.72503875648859
 21
73.52543071442337
 31
0.0
  0
LINE
  5
11A
330
1F
100
AcDbEntity
  8
外形線
100
AcDbLine
 10
-97.96595586819435
 20
75.64824973181051
 30
0.0
 11
-90.71000700286004
 21
75.22307575232154
 31
0.0
  0
LINE
  5
11B
330
1F
100
AcDbEntity
  8
外形線
100
AcDbLine
 10
-109.4600026979311
 20
50.78505868591611
 30
0.0
 11
-109.4600026979311
 21
60.28505780061184
 31
0.0
  0
LINE
  5
11C
330
1F
100
AcDbEntity
  8
外形線
100
AcDbLine
 10
-97.96594513844198
 20
75.49825192226105
 30
0.0
 11
-90.70999851320472
 21
75.07307807403418
 31
0.0
  0
LINE
  5
11D
330
1F
100
AcDbEntity
  8
外形線
100
AcDbLine
 10
-99.16594470532276
 20
75.42865309944994
 30
0.0
 11
-89.73260131395717
 21
74.87589119001109
 31
0.0
  0
LINE
  5
11E
330
1F
100
AcDbEntity
  8
外形線
100
AcDbLine
 10
-99.16594894123541
 20
75.97864001362393
 30
0.0
 11
-89.7250289815091
 21
75.42543414299125
 31
0.0
  0
LINE
  5
11F
330
1F
100
AcDbEntity
  8
外形線
100
AcDbLine
 10
-107.2100119844385
 20
72.51004960371017
 30
0.0
 11
-89.68501566918728
 21
71.48314429302323
 31
0.0
  0
LINE
  5
120
330
1F
100
AcDbEntity
  8
外形線
100
AcDbLine
 10
-89.68500497035817
 20
76.68505937838181
 30
0.0
 11
-98.9600059498904
 21
76.68505937838181
 31
0.0
  0
LINE
  5
121
330
1F
100
AcDbEntity
  8
外形線
100
AcDbLine
 10
-107.210003464128
 20
72.36006203867521
 30
0.0
 11
-89.68500658885256
 21
71.33315669517275
 31
0.0
  0
LINE
  5
122
330
1F
100
AcDbEntity
  8
外形線
100
AcDbLine
 10
-108.1949764146054
 20
72.15771346591814
 30
0.0
 11
-90.50995708412191
 21
71.12143134959781
 31
0.0
  0
LINE
  5
123
330
1F
100
AcDbEntity
  8
外形線
100
AcDbLine
 10
-108.1874245580192
 20
72.70726660986865
 30
0.0
 11
-89.68501088250844
 21
71.62308795886528
 31
0.0
  0
LINE
  5
124
330
1F
100
AcDbEntity
  8
外形線
100
AcDbLine
 10
-89.68500272641861
 20
76.68505713444226
 30
0.0
 11
-89.68500272641861
 21
75.50545626291721
 31
0.0
  0
LINE
  5
125
330
1F
100
AcDbEntity
  8
外形線
100
AcDbLine
 10
-90.71000738303148
 20
73.17308306106003
 30
0.0
 11
-90.71000738303148
 21
73.32308368778533
 31
0.0
  0
LINE
  5
126
330
1F
100
AcDbEntity
  8
外形線
100
AcDbLine
 10
-90.71000946441731
 20
73.17309734923037
 30
0.0
 11
-89.76585692495584
 21
72.98887246243293
 31
0.0
  0
LINE
  5
127
330
1F
100
AcDbEntity
  8
外形線
100
AcDbLine
 10
-97.96595643929272
 20
75.64825833158403
 30
0.0
 11
-97.96595643929272
 21
75.4982554609192
 31
0.0
  0
LINE
  5
128
330
1F
100
AcDbEntity
  8
外形線
100
AcDbLine
 10
-89.68500272641861
 20
71.12143118408788
 30
0.0
 11
-89.68500272641861
 21
72.89071019667031
 31
0.0
  0
LINE
  5
129
330
1F
100
AcDbEntity
  8
外形線
100
AcDbLine
 10
-99.16595247733695
 20
75.97864477040551
 30
0.0
 11
-99.16595247733695
 21
75.42864621231199
 31
0.0
  0
LINE
  5
12A
330
1F
100
AcDbEntity
  8
外形線
100
AcDbLine
 10
-99.16595901308015
 20
75.97865300943981
 30
0.0
 11
-97.96596027202753
 21
75.64826697183526
 31
0.0
  0
LINE
  5
12B
330
1F
100
AcDbEntity
  8
外形線
100
AcDbLine
 10
-97.96596738264602
 20
75.49824978077315
 30
0.0
 11
-99.16596565024969
 21
75.42863928553187
 31
0.0
  0
LINE
  5
12C
330
1F
100
AcDbEntity
  8
外形線
100
AcDbLine
 10
-108.4600045036012
 20
49.78505993060132
 30
0.0
 11
-108.4600045036012
 21
50.28506014973605
 31
0.0
  0
LINE
  5
12D
330
1F
100
AcDbEntity
  8
中心線
100
AcDbLine
 10
-131.3762101736333
 20
60.28505667864206
 30
0.0
 11
-70.16306079308764
 21
60.28505667864206
 31
0.0
  0
LINE
  5
12E
330
1F
100
AcDbEntity
  8
外形線
100
AcDbLine
 10
-108.4350047731369
 20
70.92142885249444
 30
0.0
 11
-98.9600059498904
 21
70.92142885249444
 31
0.0
  0
LINE
  5
12F
330
1F
100
AcDbEntity
  8
外形線
100
AcDbLine
 10
-108.4350047731369
 20
71.1214266962088
 30
0.0
 11
-98.9600059498904
 21
71.1214266962088
 31
0.0
  0
LINE
  5
130
330
1F
100
AcDbEntity
  8
外形線
100
AcDbLine
 10
-89.76584596858277
 20
73.50732126008205
 30
0.0
 11
-90.70999740684149
 21
73.32309658815344
 31
0.0
  0
LINE
  5
131
330
1F
100
AcDbEntity
  8
外形線
100
AcDbLine
 10
-83.74680264764959
 20
59.29101089776576
 30
0.0
 11
-83.81641307004452
 21
60.49101254116286
 31
0.0
  0
LINE
  5
132
330
1F
100
AcDbEntity
  8
外形線
100
AcDbLine
 10
-83.26640305327769
 20
60.4910057386537
 30
0.0
 11
-83.59679019122564
 21
59.29100380939887
 31
0.0
  0
LINE
  5
133
330
1F
100
AcDbEntity
  8
外形線
100
AcDbLine
 10
-83.26642010206647
 20
60.4910009621491
 30
0.0
 11
-83.81641866016002
 21
60.4910009621491
 31
0.0
  0
LINE
  5
134
330
1F
100
AcDbEntity
  8
外形線
100
AcDbLine
 10
-83.59680429694842
 20
59.29100941198393
 30
0.0
 11
-83.74680716761325
 21
59.29100941198393
 31
0.0
  0
LINE
  5
135
330
1F
100
AcDbEntity
  8
外形線
100
AcDbLine
 10
-86.53777631084402
 20
69.51247930579026
 30
0.0
 11
-87.62195907396955
 21
51.01006615220995
 31
0.0
  0
LINE
  5
136
330
1F
100
AcDbEntity
  8
外形線
100
AcDbLine
 10
-87.08733012583023
 20
69.52001980450342
 30
0.0
 11
-88.12361615547589
 21
51.83500126527508
 31
0.0
  0
LINE
  5
137
330
1F
100
AcDbEntity
  8
外形線
100
AcDbLine
 10
-86.07196695813177
 20
52.03506431706739
 30
0.0
 11
-84.98498813486698
 21
68.53505869960802
 31
0.0
  0
LINE
  5
138
330
1F
100
AcDbEntity
  8
外形線
100
AcDbLine
 10
-108.4600067475407
 20
49.78504871090359
 30
0.0
 11
-98.9600059498904
 21
49.78504871090359
 31
0.0
  0
LINE
  5
139
330
1F
100
AcDbEntity
  8
外形線
100
AcDbLine
 10
-108.4600045036012
 20
70.78505791456189
 30
0.0
 11
-108.4600045036012
 21
70.28505881739693
 31
0.0
  0
LINE
  5
13A
330
1F
100
AcDbEntity
  8
外形線
100
AcDbLine
 10
-89.6849963803883
 20
76.68505314879206
 30
0.0
 11
-91.00999891723521
 21
77.2850543147286
 31
0.0
  0
LINE
  5
13B
330
1F
100
AcDbEntity
  8
外形線
100
AcDbLine
 10
-108.7100018082441
 20
87.03505998757634
 30
0.0
 11
-108.7100018082441
 21
86.03505730536737
 31
0.0
  0
LINE
  5
13C
330
1F
100
AcDbEntity
  8
外形線
100
AcDbLine
 10
-101.2600058359403
 20
80.88505897517395
 30
0.0
 11
-96.66000606384045
 21
80.88505897517395
 31
0.0
  0
LINE
  5
13D
330
1F
100
AcDbEntity
  8
外形線
100
AcDbLine
 10
-108.7099951054178
 20
87.03505271463516
 30
0.0
 11
-108.2349950935575
 21
87.28505272340333
 31
0.0
  0
LINE
  5
13E
330
1F
100
AcDbEntity
  8
外形線
100
AcDbLine
 10
-108.7100100890161
 20
86.03505334437512
 30
0.0
 11
-108.2350100771557
 21
85.78505333560698
 31
0.0
  0
LINE
  5
13F
330
1F
100
AcDbEntity
  8
外形線
100
AcDbLine
 10
-108.235004685483
 20
85.78506000072444
 30
0.0
 11
-108.235004685483
 21
83.18505661728435
 31
0.0
  0
LINE
  5
140
330
1F
100
AcDbEntity
  8
外形線
100
AcDbLine
 10
-107.7350016614239
 20
82.1850561790149
 30
0.0
 11
-107.7350016614239
 21
81.9850605792401
 31
0.0
  0
LINE
  5
141
330
1F
100
AcDbEntity
  8
外形線
100
AcDbLine
 10
-100.7100027899677
 20
79.88505629296496
 30
0.0
 11
-97.21000574390377
 21
79.88505629296496
 31
0.0
  0
LINE
  5
142
330
1F
100
AcDbEntity
  8
外形線
100
AcDbLine
 10
-101.2600058359403
 20
79.68505844925061
 30
0.0
 11
-96.66000606384045
 21
79.68505844925061
 31
0.0
  0
LINE
  5
143
330
1F
100
AcDbEntity
  8
外形線
100
AcDbLine
 10
-96.6600015759614
 20
80.88505897517395
 30
0.0
 11
-96.6600015759614
 21
79.68505620531106
 31
0.0
  0
LINE
  5
144
330
1F
100
AcDbEntity
  8
外形線
100
AcDbLine
 10
-101.2600058359403
 20
80.88505897517395
 30
0.0
 11
-101.2600058359403
 21
79.68505620531106
 31
0.0
  0
LINE
  5
145
330
1F
100
AcDbEntity
  8
外形線
100
AcDbLine
 10
-97.21000013405486
 20
79.88505853690448
 30
0.0
 11
-97.21000013405486
 21
79.68505620531106
 31
0.0
  0
LINE
  5
146
330
1F
100
AcDbEntity
  8
外形線
100
AcDbLine
 10
-100.7100072778468
 20
79.88505853690448
 30
0.0
 11
-100.7100072778468
 21
79.68505620531106
 31
0.0
  0
LINE
  5
147
330
1F
100
AcDbEntity
  8
外形線
100
AcDbLine
 10
-101.2600058359403
 20
85.4850587472738
 30
0.0
 11
-96.66000606384045
 21
85.4850587472738
 31
0.0
  0
LINE
  5
148
330
1F
100
AcDbEntity
  8
外形線
100
AcDbLine
 10
-100.7100027899677
 20
84.48505606506484
 30
0.0
 11
-97.21000574390377
 21
84.48505606506484
 31
0.0
  0
LINE
  5
149
330
1F
100
AcDbEntity
  8
外形線
100
AcDbLine
 10
-89.46000515224001
 20
49.78504871090359
 30
0.0
 11
-98.9600059498904
 21
49.78504871090359
 31
0.0
  0
LINE
  5
14A
330
1F
100
AcDbEntity
  8
外形線
100
AcDbLine
 10
-101.2600058359403
 20
84.28505373347142
 30
0.0
 11
-96.66000606384045
 21
84.28505373347142
 31
0.0
  0
LINE
  5
14B
330
1F
100
AcDbEntity
  8
外形線
100
AcDbLine
 10
-96.6600015759614
 20
85.4850587472738
 30
0.0
 11
-96.6600015759614
 21
84.28505822135049
 31
0.0
  0
LINE
  5
14C
330
1F
100
AcDbEntity
  8
外形線
100
AcDbLine
 10
-101.2600058359403
 20
85.4850587472738
 30
0.0
 11
-101.2600058359403
 21
84.28505822135049
 31
0.0
  0
LINE
  5
14D
330
1F
100
AcDbEntity
  8
外形線
100
AcDbLine
 10
-97.21000013405486
 20
84.48506055294393
 30
0.0
 11
-97.21000013405486
 21
84.28505822135049
 31
0.0
  0
LINE
  5
14E
330
1F
100
AcDbEntity
  8
外形線
100
AcDbLine
 10
-100.7100072778468
 20
84.48506055294393
 30
0.0
 11
-100.7100072778468
 21
84.28505822135049
 31
0.0
  0
LINE
  5
14F
330
1F
100
AcDbEntity
  8
外形線
100
AcDbLine
 10
-108.2350069294226
 20
81.98505609136102
 30
0.0
 11
-107.7350067102878
 21
81.98505609136102
 31
0.0
  0
LINE
  5
150
330
1F
100
AcDbEntity
  8
外形線
100
AcDbLine
 10
-107.7350100335705
 20
82.18505618677335
 30
0.0
 11
-108.2350099948844
 21
83.18505610940105
 31
0.0
  0
LINE
  5
151
330
1F
100
AcDbEntity
  8
外形線
100
AcDbLine
 10
-108.235004685483
 20
81.9850605792401
 30
0.0
 11
-108.235004685483
 21
77.88505990430515
 31
0.0
  0
LINE
  5
152
330
1F
100
AcDbEntity
  8
外形線
100
AcDbLine
 10
-108.2350069294226
 20
77.88505990430515
 30
0.0
 11
-98.9600059498904
 21
77.88505990430515
 31
0.0
  0
LINE
  5
153
330
1F
100
AcDbEntity
  8
外形線
100
AcDbLine
 10
-106.9100055072382
 20
77.28505627543417
 30
0.0
 11
-98.9600059498904
 21
77.28505627543417
 31
0.0
  0
LINE
  5
154
330
1F
100
AcDbEntity
  8
外形線
100
AcDbLine
 10
-108.2350069294226
 20
76.68505937838181
 30
0.0
 11
-98.9600059498904
 21
76.68505937838181
 31
0.0
  0
LINE
  5
155
330
1F
100
AcDbEntity
  8
外形線
100
AcDbLine
 10
-108.2350086398028
 20
77.88505738727983
 30
0.0
 11
-106.9100142794603
 21
77.28505992391143
 31
0.0
  0
LINE
  5
156
330
1F
100
AcDbEntity
  8
外形線
100
AcDbLine
 10
-108.2350033802985
 20
76.68505704189783
 30
0.0
 11
-106.9100041651565
 21
77.28505670366607
 31
0.0
  0
LINE
  5
157
330
1F
100
AcDbEntity
  8
外形線
100
AcDbLine
 10
-108.235004685483
 20
76.68505713444226
 30
0.0
 11
-108.235004685483
 21
74.69243208718587
 31
0.0
  0
LINE
  5
158
330
1F
100
AcDbEntity
  8
外形線
100
AcDbLine
 10
-107.2100045167493
 20
74.41005697885661
 30
0.0
 11
-107.2100045167493
 21
74.26005859607087
 31
0.0
  0
LINE
  5
159
330
1F
100
AcDbEntity
  8
外形線
100
AcDbLine
 10
-108.1541502189964
 20
74.07583146226935
 30
0.0
 11
-107.2099987807376
 21
74.26005613419795
 31
0.0
  0
LINE
  5
15A
330
1F
100
AcDbEntity
  8
外形線
100
AcDbLine
 10
-107.2099853874595
 20
74.41006813141662
 30
0.0
 11
-108.1541390281238
 21
74.59429323308289
 31
0.0
  0
LINE
  5
15B
330
1F
100
AcDbEntity
  8
外形線
100
AcDbLine
 10
-108.235004685483
 20
73.97768573168116
 30
0.0
 11
-108.235004685483
 21
73.3980873670573
 31
0.0
  0
LINE
  5
15C
330
1F
100
AcDbEntity
  8
外形線
100
AcDbLine
 10
-108.235004685483
 20
72.79243013250415
 30
0.0
 11
-108.235004685483
 21
73.37203074106759
 31
0.0
  0
LINE
  5
15D
330
1F
100
AcDbEntity
  8
外形線
100
AcDbLine
 10
-108.1541554676229
 20
72.69428671935108
 30
0.0
 11
-107.2100040293641
 21
72.51006204742248
 31
0.0
  0
LINE
  5
15E
330
1F
100
AcDbEntity
  8
外形線
100
AcDbLine
 10
-107.2100045167493
 20
72.36005664138916
 30
0.0
 11
-107.2100045167493
 21
72.51005951205399
 31
0.0
  0
LINE
  5
15F
330
1F
100
AcDbEntity
  8
外形線
100
AcDbLine
 10
-107.2100054463529
 20
72.36006111594874
 30
0.0
 11
-108.1541579858144
 21
72.1758362291513
 31
0.0
  0
LINE
  5
160
330
1F
100
AcDbEntity
  8
外形線
100
AcDbLine
 10
-108.235004685483
 20
71.12143118408788
 30
0.0
 11
-108.235004685483
 21
72.07768602093898
 31
0.0
  0
LINE
  5
161
330
1F
100
AcDbEntity
  8
外形線
100
AcDbLine
 10
-89.21000448168777
 20
86.03505281748828
 30
0.0
 11
-98.9600059498904
 21
86.03505281748828
 31
0.0
  0
LINE
  5
162
330
1F
100
AcDbEntity
  8
外形線
100
AcDbLine
 10
-89.68500497035817
 20
85.78505551284534
 30
0.0
 11
-98.9600059498904
 21
85.78505551284534
 31
0.0
  0
LINE
  5
163
330
1F
100
AcDbEntity
  8
外形線
100
AcDbLine
 10
-89.21000448168777
 20
87.03505774363682
 30
0.0
 11
-98.9600059498904
 21
87.03505774363682
 31
0.0
  0
LINE
  5
164
330
1F
100
AcDbEntity
  8
外形線
100
AcDbLine
 10
-89.68500497035817
 20
87.28505280434021
 30
0.0
 11
-98.9600059498904
 21
87.28505280434021
 31
0.0
  0
LINE
  5
165
330
1F
100
AcDbEntity
  8
外形線
100
AcDbLine
 10
-89.21001264481361
 20
87.03505453140039
 30
0.0
 11
-89.68501265667399
 21
87.28505454016858
 31
0.0
  0
LINE
  5
166
330
1F
100
AcDbEntity
  8
外形線
100
AcDbLine
 10
-89.20999662789935
 20
87.03505998757634
 30
0.0
 11
-89.20999662789935
 21
86.03505730536737
 31
0.0
  0
LINE
  5
167
330
1F
100
AcDbEntity
  8
外形線
100
AcDbLine
 10
-89.21001354030742
 20
86.03506092050755
 30
0.0
 11
-89.6850115664648
 21
85.78506195684623
 31
0.0
  0
LINE
  5
168
330
1F
100
AcDbEntity
  8
外形線
100
AcDbLine
 10
-89.68499375066048
 20
85.78506000072444
 30
0.0
 11
-89.68499375066048
 21
83.18505661728435
 31
0.0
  0
LINE
  5
169
330
1F
100
AcDbEntity
  8
外形線
100
AcDbLine
 10
-90.18500271100377
 20
82.18506509301587
 30
0.0
 11
-89.68500074264936
 21
83.18506902972471
 31
0.0
  0
LINE
  5
16A
330
1F
100
AcDbEntity
  8
外形線
100
AcDbLine
 10
-89.68499375066048
 20
81.9850605792401
 30
0.0
 11
-89.68499375066048
 21
77.88505990430515
 31
0.0
  0
LINE
  5
16B
330
1F
100
AcDbEntity
  8
外形線
100
AcDbLine
 10
-89.68500497035817
 20
81.98505609136102
 30
0.0
 11
-90.18500406752313
 21
81.98505609136102
 31
0.0
  0
LINE
  5
16C
330
1F
100
AcDbEntity
  8
外形線
100
AcDbLine
 10
-89.68500335189334
 20
77.88506313166947
 30
0.0
 11
-91.01000180048805
 21
77.285063817017
 31
0.0
  0
LINE
  5
16D
330
1F
100
AcDbEntity
  8
外形線
100
AcDbLine
 10
-89.68500497035817
 20
77.88505990430515
 30
0.0
 11
-98.9600059498904
 21
77.88505990430515
 31
0.0
  0
LINE
  5
16E
330
1F
100
AcDbEntity
  8
外形線
100
AcDbLine
 10
-91.01000639254252
 20
77.28505627543417
 30
0.0
 11
-98.9600059498904
 21
77.28505627543417
 31
0.0
  0
LINE
  5
16F
330
1F
100
AcDbEntity
  8
外形線
100
AcDbLine
 10
-88.46000583594031
 20
50.78505588099168
 30
0.0
 11
-88.96000605507506
 21
50.78505588099168
 31
0.0
  0
LINE
  5
170
330
1F
100
AcDbEntity
  8
外形線
100
AcDbLine
 10
-89.45999842042137
 20
49.78505880863155
 30
0.0
 11
-89.45999842042137
 21
50.28505902776629
 31
0.0
  0
LINE
  5
171
330
1F
100
AcDbEntity
  8
外形線
100
AcDbLine
 10
-107.4452998421575
 20
68.770338289468
 30
0.0
 11
-90.47473092412642
 21
51.79977080194882
 31
0.0
  0
LINE
  5
172
330
1F
100
AcDbEntity
  8
外形線
100
AcDbLine
 10
-107.2131276934805
 20
69.00250627639509
 30
0.0
 11
-107.445282498465
 21
68.77035156925643
 31
0.0
  0
LINE
  5
173
330
1F
100
AcDbEntity
  8
外形線
100
AcDbLine
 10
-107.6974226418725
 20
67.85226930010281
 30
0.0
 11
-101.1418324546545
 21
60.48447703700819
 31
0.0
  0
LINE
  5
174
330
1F
100
AcDbEntity
  8
外形線
100
AcDbLine
 10
-106.5272106297845
 20
69.02248100300153
 30
0.0
 11
-99.15942139008492
 21
62.46688572994746
 31
0.0
  0
LINE
  5
175
330
1F
100
AcDbEntity
  8
外形線
100
AcDbLine
 10
-107.6774328541885
 20
68.53818836680577
 30
0.0
 11
-107.4452790017565
 21
68.77034204311589
 31
0.0
  0
LINE
  5
176
330
1F
100
AcDbEntity
  8
外形線
100
AcDbLine
 10
-107.6774503226621
 20
52.03193197314195
 30
0.0
 11
-107.4452939701109
 21
51.79977564016012
 31
0.0
  0
LINE
  5
177
330
1F
100
AcDbEntity
  8
外形線
100
AcDbLine
 10
-107.6974243341897
 20
52.71784685209929
 30
0.0
 11
-101.1418320398571
 21
60.08563648946175
 31
0.0
  0
LINE
  5
178
330
1F
100
AcDbEntity
  8
外形線
100
AcDbLine
 10
-106.5272138536249
 20
51.54762497237941
 30
0.0
 11
-99.15942282639869
 21
58.10321739251339
 31
0.0
  0
LINE
  5
179
330
1F
100
AcDbEntity
  8
外形線
100
AcDbLine
 10
-107.2131314675442
 20
51.56762005548277
 30
0.0
 11
-107.4452854008997
 21
51.79977404754564
 31
0.0
  0
LINE
  5
17A
330
1F
100
AcDbEntity
  8
外形線
100
AcDbLine
 10
-90.70686791837571
 20
51.5676205723485
 30
0.0
 11
-90.47471335086759
 21
51.79977512028743
 31
0.0
  0
LINE
  5
17B
330
1F
100
AcDbEntity
  8
外形線
100
AcDbLine
 10
-91.39279853849906
 20
51.54764720666216
 30
0.0
 11
-98.76058846241054
 21
58.10324086680478
 31
0.0
  0
LINE
  5
17C
330
1F
100
AcDbEntity
  8
外形線
100
AcDbLine
 10
-90.2225733854248
 20
52.71784760719919
 30
0.0
 11
-96.77816593135997
 21
60.08564002428925
 31
0.0
  0
LINE
  5
17D
330
1F
100
AcDbEntity
  8
外形線
100
AcDbLine
 10
-90.24256346366327
 20
52.03192696049256
 30
0.0
 11
-90.47471747529527
 21
51.79977304670615
 31
0.0
  0
LINE
  5
17E
330
1F
100
AcDbEntity
  8
外形線
100
AcDbLine
 10
-97.21000702972737
 20
40.68506608787314
 30
0.0
 11
-96.66000802593623
 21
39.68506705194173
 31
0.0
  0
LINE
  5
17F
330
1F
100
AcDbEntity
  8
外形線
100
AcDbLine
 10
-90.24255536719612
 20
68.53818670750351
 30
0.0
 11
-90.47470771384698
 21
68.7703391128613
 31
0.0
  0
LINE
  5
180
330
1F
100
AcDbEntity
  8
外形線
100
AcDbLine
 10
-90.22257222217376
 20
67.85225278759728
 30
0.0
 11
-96.77816575651476
 21
60.4844642535496
 31
0.0
  0
LINE
  5
181
330
1F
100
AcDbEntity
  8
外形線
100
AcDbLine
 10
-91.39279917663259
 20
69.02248288296021
 30
0.0
 11
-98.76059088807005
 21
62.4668920757378
 31
0.0
  0
LINE
  5
182
330
1F
100
AcDbEntity
  8
外形線
100
AcDbLine
 10
-90.70686624321169
 20
69.00250792922038
 30
0.0
 11
-90.47471155564222
 21
68.77035310466664
 31
0.0
  0
LINE
  5
183
330
1F
100
AcDbEntity
  8
外形線
100
AcDbLine
 10
-76.31916980892994
 20
66.93505678820942
 30
0.0
 11
-74.66000090979179
 21
66.93505678820942
 31
0.0
  0
LINE
  5
184
330
1F
100
AcDbEntity
  8
外形線
100
AcDbLine
 10
-77.36000321508907
 20
54.13505678820943
 30
0.0
 11
-77.16000312743516
 21
54.13505678820943
 31
0.0
  0
LINE
  5
185
330
1F
100
AcDbEntity
  8
外形線
100
AcDbLine
 10
-80.41000174688644
 20
66.93505678820942
 30
0.0
 11
-77.36000321508907
 21
66.93505678820942
 31
0.0
  0
LINE
  5
186
330
1F
100
AcDbEntity
  8
外形線
100
AcDbLine
 10
-82.56000100621106
 20
69.56005765817427
 30
0.0
 11
-84.55262829740702
 21
69.56005765817427
 31
0.0
  0
LINE
  5
187
330
1F
100
AcDbEntity
  8
外形線
100
AcDbLine
 10
-77.36000321508907
 20
66.4350565690747
 30
0.0
 11
-77.16000312743516
 21
66.4350565690747
 31
0.0
  0
LINE
  5
188
330
1F
100
AcDbEntity
  8
外形線
100
AcDbLine
 10
-75.91000538452283
 20
62.03505351871939
 30
0.0
 11
-75.91000538452283
 21
58.53505535068564
 31
0.0
  0
LINE
  5
189
330
1F
100
AcDbEntity
  8
外形線
100
AcDbLine
 10
-76.11000322823715
 20
62.58505656469201
 30
0.0
 11
-76.11000322823715
 21
57.98505567062234
 31
0.0
  0
LINE
  5
18A
330
1F
100
AcDbEntity
  8
外形線
100
AcDbLine
 10
-75.36000233855017
 20
57.98505006077349
 30
0.0
 11
-76.11001444793486
 21
57.98505006077349
 31
0.0
  0
LINE
  5
18B
330
1F
100
AcDbEntity
  8
外形線
100
AcDbLine
 10
-75.36000233855017
 20
62.58505880863154
 30
0.0
 11
-76.11001444793486
 21
62.58505880863154
 31
0.0
  0
LINE
  5
18C
330
1F
100
AcDbEntity
  8
外形線
100
AcDbLine
 10
-75.91001436028098
 20
58.53505759462521
 30
0.0
 11
-76.11001444793486
 21
58.53505759462521
 31
0.0
  0
LINE
  5
18D
330
1F
100
AcDbEntity
  8
外形線
100
AcDbLine
 10
-75.91001436028098
 20
62.03505576265893
 30
0.0
 11
-76.11001444793486
 21
62.03505576265893
 31
0.0
  0
LINE
  5
18E
330
1F
100
AcDbEntity
  8
外形線
100
AcDbLine
 10
-73.40999830681349
 20
67.13505607990756
 30
0.0
 11
-73.16000019736645
 21
66.9350571381824
 31
0.0
  0
LINE
  5
18F
330
1F
100
AcDbEntity
  8
外形線
100
AcDbLine
 10
-86.88500759960225
 20
68.53504719834631
 30
0.0
 11
-87.91191678790783
 21
51.010051672258
 31
0.0
  0
LINE
  5
190
330
1F
100
AcDbEntity
  8
外形線
100
AcDbLine
 10
-78.35999692153989
 20
62.58505656469201
 30
0.0
 11
-78.35999692153989
 21
57.98505567062234
 31
0.0
  0
LINE
  5
191
330
1F
100
AcDbEntity
  8
外形線
100
AcDbLine
 10
-75.36000233855019
 20
62.58505656469201
 30
0.0
 11
-75.36000233855019
 21
57.98505567062234
 31
0.0
  0
LINE
  5
192
330
1F
100
AcDbEntity
  8
外形線
100
AcDbLine
 10
-101.2600056861833
 20
39.68506836693328
 30
0.0
 11
-100.7100086150783
 21
40.68506590489756
 31
0.0
  0
LINE
  5
193
330
1F
100
AcDbEntity
  8
外形線
100
AcDbLine
 10
-80.97328988434489
 20
66.55492678877857
 30
0.0
 11
-82.55999905508899
 21
69.56005635768011
 31
0.0
  0
LINE
  5
194
330
1F
100
AcDbEntity
  8
外形線
100
AcDbLine
 10
-84.83498295497494
 20
68.53504648278056
 30
0.0
 11
-85.92196082096981
 21
52.03505541038253
 31
0.0
  0
LINE
  5
195
330
1F
100
AcDbEntity
  8
外形線
100
AcDbLine
 10
-80.91000084405136
 20
66.4350565690747
 30
0.0
 11
-80.91000084405136
 21
60.28505555667229
 31
0.0
  0
LINE
  5
196
330
1F
100
AcDbEntity
  8
外形線
100
AcDbLine
 10
-82.56000100621108
 20
69.56005541423471
 30
0.0
 11
-82.56000100621108
 21
60.28505555667229
 31
0.0
  0
LINE
  5
197
330
1F
100
AcDbEntity
  8
外形線
100
AcDbLine
 10
-97.21000877311412
 20
36.08506095280445
 30
0.0
 11
-96.6600085776497
 21
35.08505488946616
 31
0.0
  0
LINE
  5
198
330
1F
100
AcDbEntity
  8
外形線
100
AcDbLine
 10
-84.63778526844347
 20
69.51246870874985
 30
0.0
 11
-85.7196225660355
 21
51.05008272938265
 31
0.0
  0
LINE
  5
199
330
1F
100
AcDbEntity
  8
外形線
100
AcDbLine
 10
-101.2600053024808
 20
35.08505518094795
 30
0.0
 11
-100.7100082355523
 21
36.08506168449665
 31
0.0
  0
LINE
  5
19A
330
1F
100
AcDbEntity
  8
外形線
100
AcDbLine
 10
-80.41000174688644
 20
66.93505678820942
 30
0.0
 11
-80.41000174688644
 21
60.28505555667229
 31
0.0
  0
LINE
  5
19B
330
1F
100
AcDbEntity
  8
外形線
100
AcDbLine
 10
-80.81415071047365
 20
66.53090643916627
 30
0.0
 11
-80.41000155631149
 21
66.93505647907733
 31
0.0
  0
LINE
  5
19C
330
1F
100
AcDbEntity
  8
外形線
100
AcDbLine
 10
-85.18733921878412
 20
69.52001450336559
 30
0.0
 11
-86.26917389062588
 21
51.05766040112566
 31
0.0
  0
LINE
  5
19D
330
1F
100
AcDbEntity
  8
外形線
100
AcDbLine
 10
-86.55077888610241
 20
69.47920229993815
 30
0.0
 11
-86.73500333238989
 21
68.53505310390872
 31
0.0
  0
LINE
  5
19E
330
1F
100
AcDbEntity
  8
外形線
100
AcDbLine
 10
-85.26737465291173
 20
69.56005765817427
 30
0.0
 11
-85.84697077359605
 21
69.56005765817427
 31
0.0
  0
LINE
  5
19F
330
1F
100
AcDbEntity
  8
外形線
100
AcDbLine
 10
-85.16922843231609
 20
69.4792059132374
 30
0.0
 11
-84.98500439725289
 21
68.5350566369691
 31
0.0
  0
LINE
  5
1A0
330
1F
100
AcDbEntity
  8
外形線
100
AcDbLine
 10
-84.83500151891382
 20
68.53505317460733
 30
0.0
 11
-84.65077707262633
 21
69.47920237063676
 31
0.0
  0
LINE
  5
1A1
330
1F
100
AcDbEntity
  8
外形線
100
AcDbLine
 10
-83.59679359054139
 20
59.2910036682009
 30
0.0
 11
-84.02196913986065
 21
52.03505573777423
 31
0.0
  0
LINE
  5
1A2
330
1F
100
AcDbEntity
  8
外形線
100
AcDbLine
 10
-83.81641505994601
 20
60.49100526433391
 30
0.0
 11
-84.36917902506733
 21
51.0576628363453
 31
0.0
  0
LINE
  5
1A3
330
1F
100
AcDbEntity
  8
外形線
100
AcDbLine
 10
-86.45263025208874
 20
69.56005765817427
 30
0.0
 11
-85.87302964352529
 21
69.56005765817427
 31
0.0
  0
LINE
  5
1A4
330
1F
100
AcDbEntity
  8
外形線
100
AcDbLine
 10
-83.74679970827044
 20
59.29100462745076
 30
0.0
 11
-84.1719751878564
 21
52.03505788707565
 31
0.0
  0
LINE
  5
1A5
330
1F
100
AcDbEntity
  8
外形線
100
AcDbLine
 10
-86.8850014992642
 20
68.53505748944053
 30
0.0
 11
-86.73500311647847
 21
68.53505748944053
 31
0.0
  0
LINE
  5
1A6
330
1F
100
AcDbEntity
  8
外形線
100
AcDbLine
 10
-86.88499624618881
 20
68.53504747666409
 30
0.0
 11
-87.06922028125202
 21
69.47919675293238
 31
0.0
  0
LINE
  5
1A7
330
1F
100
AcDbEntity
  8
外形線
100
AcDbLine
 10
-88.1236303224748
 20
69.56005765817427
 30
0.0
 11
-87.1673743636539
 21
69.56005765817427
 31
0.0
  0
LINE
  5
1A8
330
1F
100
AcDbEntity
  8
外形線
100
AcDbLine
 10
-88.32364050785662
 20
69.7600599897677
 30
0.0
 11
-88.32364050785662
 21
60.28505780061184
 31
0.0
  0
LINE
  5
1A9
330
1F
100
AcDbEntity
  8
外形線
100
AcDbLine
 10
-88.12362471262595
 20
69.7600599897677
 30
0.0
 11
-88.12362471262595
 21
60.28505780061184
 31
0.0
  0
LINE
  5
1AA
330
1F
100
AcDbEntity
  8
外形線
100
AcDbLine
 10
-88.32362928815893
 20
69.7600599897677
 30
0.0
 11
-88.1236303224748
 21
69.7600599897677
 31
0.0
  0
LINE
  5
1AB
330
1F
100
AcDbEntity
  8
外形線
100
AcDbLine
 10
-83.26640123179078
 20
60.49100836239855
 30
0.0
 11
-83.81960929105913
 21
51.05008712605128
 31
0.0
  0
LINE
  5
1AC
330
1F
100
AcDbEntity
  8
外形線
100
AcDbLine
 10
-86.73499404373973
 20
68.53505809583939
 30
0.0
 11
-87.76190329767656
 21
51.01006144970253
 31
0.0
  0
LINE
  5
1AD
330
1F
100
AcDbEntity
  8
外形線
100
AcDbLine
 10
-80.41000174688644
 20
53.6350565690747
 30
0.0
 11
-80.41000174688644
 21
60.28505780061184
 31
0.0
  0
LINE
  5
1AE
330
1F
100
AcDbEntity
  8
外形線
100
AcDbLine
 10
-73.16000137435742
 20
53.6350565690747
 30
0.0
 11
-73.16000137435742
 21
60.28505780061184
 31
0.0
  0
LINE
  5
1AF
330
1F
100
AcDbEntity
  8
外形線
100
AcDbLine
 10
-73.41000092293987
 20
53.43505648142083
 30
0.0
 11
-73.41000092293987
 21
60.28505780061184
 31
0.0
  0
LINE
  5
1B0
330
1F
100
AcDbEntity
  8
外形線
100
AcDbLine
 10
-80.91000084405136
 20
54.13505678820943
 30
0.0
 11
-80.91000084405136
 21
60.28505780061184
 31
0.0
  0
LINE
  5
1B1
330
1F
100
AcDbEntity
  8
外形線
100
AcDbLine
 10
-82.56000100621108
 20
51.01005569910987
 30
0.0
 11
-82.56000100621108
 21
60.28505555667229
 31
0.0
  0
LINE
  5
1B2
330
1F
100
AcDbEntity
  8
外形線
100
AcDbLine
 10
-82.56000773802972
 20
51.01006074797385
 30
0.0
 11
-83.73960860955479
 21
51.01006074797385
 31
0.0
  0
LINE
  5
1B3
330
1F
100
AcDbEntity
  8
外形線
100
AcDbLine
 10
-88.12362471262595
 20
50.81005729441063
 30
0.0
 11
-88.12362471262595
 21
60.28505780061184
 31
0.0
  0
LINE
  5
1B4
330
1F
100
AcDbEntity
  8
外形線
100
AcDbLine
 10
-88.32364050785662
 20
50.81005729441063
 30
0.0
 11
-88.32364050785662
 21
60.28505780061184
 31
0.0
  0
LINE
  5
1B5
330
1F
100
AcDbEntity
  8
外形線
100
AcDbLine
 10
-88.32363601997755
 20
50.8100623432746
 30
0.0
 11
-88.12363368838411
 21
50.8100623432746
 31
0.0
  0
LINE
  5
1B6
330
1F
100
AcDbEntity
  8
外形線
100
AcDbLine
 10
-88.12363368838411
 20
51.01006074797385
 30
0.0
 11
-86.35435467580165
 21
51.01006074797385
 31
0.0
  0
LINE
  5
1B7
330
1F
100
AcDbEntity
  8
外形線
100
AcDbLine
 10
-86.07196689712797
 20
52.03505319177846
 30
0.0
 11
-86.25619161200178
 21
51.0909026192456
 31
0.0
  0
LINE
  5
1B8
330
1F
100
AcDbEntity
  8
外形線
100
AcDbLine
 10
-86.07198181141193
 20
52.03506484360177
 30
0.0
 11
-85.92197894074711
 21
52.03506484360177
 31
0.0
  0
LINE
  5
1B9
330
1F
100
AcDbEntity
  8
外形線
100
AcDbLine
 10
-85.73774006325113
 20
51.09089429399297
 30
0.0
 11
-85.92196495778873
 21
52.03504797507257
 31
0.0
  0
LINE
  5
1BA
330
1F
100
AcDbEntity
  8
外形線
100
AcDbLine
 10
-85.63960832029692
 20
51.01006074797385
 30
0.0
 11
-85.0600099556731
 21
51.01006074797385
 31
0.0
  0
LINE
  5
1BB
330
1F
100
AcDbEntity
  8
外形線
100
AcDbLine
 10
-84.45435496505949
 20
51.01006074797385
 30
0.0
 11
-85.03395332968336
 21
51.01006074797385
 31
0.0
  0
LINE
  5
1BC
330
1F
100
AcDbEntity
  8
外形線
100
AcDbLine
 10
-84.35618907334124
 20
51.09091226503647
 30
0.0
 11
-84.17196430475016
 21
52.03506311287
 31
0.0
  0
LINE
  5
1BD
330
1F
100
AcDbEntity
  8
外形線
100
AcDbLine
 10
-84.02198147394448
 20
52.03506484360177
 30
0.0
 11
-84.17198210066979
 21
52.03506484360177
 31
0.0
  0
LINE
  5
1BE
330
1F
100
AcDbEntity
  8
外形線
100
AcDbLine
 10
-84.02198242878705
 20
52.03506389031864
 30
0.0
 11
-83.83775796398664
 21
51.09091241164467
 31
0.0
  0
LINE
  5
1BF
330
1F
100
AcDbEntity
  8
外形線
100
AcDbLine
 10
-109.7963737235175
 20
50.81005897736529
 30
0.0
 11
-109.7963737235175
 21
60.28505780061184
 31
0.0
  0
LINE
  5
1C0
330
1F
100
AcDbEntity
  8
外形線
100
AcDbLine
 10
-109.5963758798032
 20
50.81005897736529
 30
0.0
 11
-109.5963758798032
 21
60.28505780061184
 31
0.0
  0
LINE
  5
1C1
330
1F
100
AcDbEntity
  8
外形線
100
AcDbLine
 10
-109.5963781237427
 20
50.8100623432746
 30
0.0
 11
-109.7963782113966
 21
50.8100623432746
 31
0.0
  0
LINE
  5
1C2
330
1F
100
AcDbEntity
  8
外形線
100
AcDbLine
 10
-109.7963737235175
 20
69.7600599897677
 30
0.0
 11
-109.7963737235175
 21
60.28505780061184
 31
0.0
  0
LINE
  5
1C3
330
1F
100
AcDbEntity
  8
外形線
100
AcDbLine
 10
-109.5963758798032
 20
69.7600599897677
 30
0.0
 11
-109.5963758798032
 21
60.28505780061184
 31
0.0
  0
LINE
  5
1C4
330
1F
100
AcDbEntity
  8
外形線
100
AcDbLine
 10
-109.5963758798032
 20
69.7600599897677
 30
0.0
 11
-109.7963782113966
 21
69.7600599897677
 31
0.0
  0
LINE
  5
1C5
330
1F
100
AcDbEntity
  8
外形線
100
AcDbLine
 10
-77.16000260072745
 20
54.13505699043279
 30
0.0
 11
-76.48558107717119
 21
53.68544299568881
 31
0.0
  0
LINE
  5
1C6
330
1F
100
AcDbEntity
  8
外形線
100
AcDbLine
 10
-80.81415122055252
 20
54.03920649581838
 30
0.0
 11
-80.41000206639035
 21
53.63505645590731
 31
0.0
  0
LINE
  5
1C7
330
1F
100
AcDbEntity
  8
外形線
100
AcDbLine
 10
-80.97328792838064
 20
54.01518564522088
 30
0.0
 11
-82.55999664074579
 21
51.01005694446095
 31
0.0
  0
LINE
  5
1C8
330
1F
100
AcDbEntity
  8
外形線
100
AcDbLine
 10
-76.31916980892994
 20
53.6350565690747
 30
0.0
 11
-74.66000090979179
 21
53.6350565690747
 31
0.0
  0
LINE
  5
1C9
330
1F
100
AcDbEntity
  8
外形線
100
AcDbLine
 10
-77.36000321508907
 20
53.6350565690747
 30
0.0
 11
-77.36000321508907
 21
54.13505678820943
 31
0.0
  0
LINE
  5
1CA
330
1F
100
AcDbEntity
  8
外形線
100
AcDbLine
 10
-73.40999448892269
 20
53.43505660588852
 30
0.0
 11
-73.15999637947564
 21
53.63505554761369
 31
0.0
  0
LINE
  5
1CB
330
1F
100
AcDbEntity
  8
外形線
100
AcDbLine
 10
-74.65999370194882
 20
53.63505577452006
 30
0.0
 11
-74.4099938402809
 21
53.43505543101503
 31
0.0
  0
LINE
  5
1CC
330
1F
100
AcDbEntity
  8
外形線
100
AcDbLine
 10
-80.41000174688644
 20
53.6350565690747
 30
0.0
 11
-77.36000321508907
 21
53.6350565690747
 31
0.0
  0
LINE
  5
1CD
330
1F
100
AcDbEntity
  8
外形線
100
AcDbLine
 10
-74.41000136120933
 20
53.43505648142083
 30
0.0
 11
-74.41000136120933
 21
60.28505780061184
 31
0.0
  0
LINE
  5
1CE
330
1F
100
AcDbEntity
  8
外形線
100
AcDbLine
 10
-74.66000090979179
 20
53.6350565690747
 30
0.0
 11
-74.66000090979179
 21
60.28505780061184
 31
0.0
  0
LINE
  5
1CF
330
1F
100
AcDbEntity
  8
外形線
100
AcDbLine
 10
-77.16000224340705
 20
66.43505663418522
 30
0.0
 11
-76.48558071985077
 21
66.88467062892917
 31
0.0
  0
LINE
  5
1D0
330
1F
100
AcDbEntity
  8
破線
100
AcDbLine
 10
-107.8099986088772
 20
46.01929068489722
 30
0.0
 11
-107.8099986088772
 21
46.35082489879567
 31
0.0
  0
LINE
  5
1D1
330
1F
100
AcDbEntity
  8
破線
100
AcDbLine
 10
-91.11000531439968
 20
44.28505415421007
 30
0.0
 11
-98.9600059498904
 21
44.28505415421007
 31
0.0
  0
LINE
  5
1D2
330
1F
100
AcDbEntity
  8
破線
100
AcDbLine
 10
-106.8100065853811
 20
48.7850594923319
 30
0.0
 11
-98.9600059498904
 21
48.7850594923319
 31
0.0
  0
LINE
  5
1D3
330
1F
100
AcDbEntity
  8
破線
100
AcDbLine
 10
-91.11000024392588
 20
44.05410645249527
 30
0.0
 11
-91.51000114738286
 21
44.2850471568824
 31
0.0
  0
LINE
  5
1D4
330
1F
100
AcDbEntity
  8
破線
100
AcDbLine
 10
-106.8099953656833
 20
44.78505773925411
 30
0.0
 11
-106.8099953656833
 21
45.30082612156742
 31
0.0
  0
LINE
  5
1D5
330
1F
100
AcDbEntity
  8
破線
100
AcDbLine
 10
-107.5827631835382
 20
45.72824397085335
 30
0.0
 11
-107.0372402626337
 21
45.59186315683617
 31
0.0
  0
LINE
  5
1D6
330
1F
100
AcDbEntity
  8
破線
100
AcDbLine
 10
-107.5827631875208
 20
46.64187149784526
 30
0.0
 11
-107.0372424041265
 21
46.77825160990314
 31
0.0
  0
LINE
  5
1D7
330
1F
100
AcDbEntity
  8
破線
100
AcDbLine
 10
-106.8099953656833
 20
47.06929170606502
 30
0.0
 11
-106.8099953656833
 21
49.00342734712656
 31
0.0
  0
LINE
  5
1D8
330
1F
100
AcDbEntity
  8
破線
100
AcDbLine
 10
-108.4599966349833
 20
49.78507034338389
 30
0.0
 11
-107.0508457594827
 21
48.93103960796064
 31
0.0
  0
LINE
  5
1D9
330
1F
100
AcDbEntity
  8
破線
100
AcDbLine
 10
-90.10998692461388
 20
47.01928887922711
 30
0.0
 11
-90.10998692461388
 21
47.35082084918602
 31
0.0
  0
LINE
  5
1DA
330
1F
100
AcDbEntity
  8
破線
100
AcDbLine
 10
-91.10999409470196
 20
45.68505476778728
 30
0.0
 11
-91.10999409470196
 21
46.30082094998799
 31
0.0
  0
LINE
  5
1DB
330
1F
100
AcDbEntity
  8
破線
100
AcDbLine
 10
-90.3372522296935
 20
46.72824472213046
 30
0.0
 11
-90.88277192461729
 21
46.59186488219007
 31
0.0
  0
LINE
  5
1DC
330
1F
100
AcDbEntity
  8
破線
100
AcDbLine
 10
-90.33723740326463
 20
47.64187153481123
 30
0.0
 11
-90.88275923569858
 21
47.7782520767106
 31
0.0
  0
LINE
  5
1DD
330
1F
100
AcDbEntity
  8
破線
100
AcDbLine
 10
-91.11000531439968
 20
44.05411687205737
 30
0.0
 11
-98.9600059498904
 21
44.05411687205737
 31
0.0
  0
LINE
  5
1DE
330
1F
100
AcDbEntity
  8
破線
100
AcDbLine
 10
-89.45998861812375
 20
49.78505500779882
 30
0.0
 11
-90.86914070641443
 21
48.93102410877546
 31
0.0
  0
LINE
  5
1DF
330
1F
100
AcDbEntity
  8
破線
100
AcDbLine
 10
-106.8100065853811
 20
44.28505415421007
 30
0.0
 11
-98.9600059498904
 21
44.28505415421007
 31
0.0
  0
LINE
  5
1E0
330
1F
100
AcDbEntity
  8
破線
100
AcDbLine
 10
-91.11000531439968
 20
48.7850594923319
 30
0.0
 11
-98.9600059498904
 21
48.7850594923319
 31
0.0
  0
LINE
  5
1E1
330
1F
100
AcDbEntity
  8
破線
100
AcDbLine
 10
-106.8100073284738
 20
44.05411766922759
 30
0.0
 11
-106.4100092597277
 21
44.28505655165927
 31
0.0
  0
LINE
  5
1E2
330
1F
100
AcDbEntity
  8
破線
100
AcDbLine
 10
-91.10999409470196
 20
44.2850563981496
 30
0.0
 11
-91.10999409470196
 21
45.68505476778728
 31
0.0
  0
LINE
  5
1E3
330
1F
100
AcDbEntity
  8
破線
100
AcDbLine
 10
-91.10999409470196
 20
48.0692865344856
 30
0.0
 11
-91.10999409470196
 21
48.50342712799182
 31
0.0
  0
LINE
  5
1E4
330
1F
100
AcDbEntity
  8
破線
100
AcDbLine
 10
-106.8100065853811
 20
44.05411687205737
 30
0.0
 11
-98.9600059498904
 21
44.05411687205737
 31
0.0
  0
LINE
  5
1E5
330
1F
100
AcDbEntity
  8
破線
100
AcDbLine
 10
-90.21220874810316
 20
46.79372602101594
 30
0.0
 11
-97.75999460559679
 21
47.43416601592278
 31
0.0
  0
LINE
  5
1E6
330
1F
100
AcDbEntity
  8
破線
100
AcDbLine
 10
-91.0077992821523
 20
46.5263882795265
 30
0.0
 11
-98.96000277877504
 21
47.20114366647471
 31
0.0
  0
LINE
  5
1E7
330
1F
100
AcDbEntity
  8
破線
100
AcDbLine
 10
-91.10999352045187
 20
47.83505646248642
 30
0.0
 11
-98.95999491768364
 21
48.50113986095357
 31
0.0
  0
LINE
  5
1E8
330
1F
100
AcDbEntity
  8
破線
100
AcDbLine
 10
-90.23687176533638
 20
47.59581911913222
 30
0.0
 11
-97.76000677025477
 21
48.23416745534657
 31
0.0
  0
LINE
  5
1E9
330
1F
100
AcDbEntity
  8
破線
100
AcDbLine
 10
-97.75999869214844
 20
47.43416749568412
 30
0.0
 11
-97.75999869214844
 21
48.23416784629967
 31
0.0
  0
LINE
  5
1EA
330
1F
100
AcDbEntity
  8
破線
100
AcDbLine
 10
-97.75999957351857
 20
47.43416268430617
 30
0.0
 11
-98.9599997302308
 21
47.20113317414432
 31
0.0
  0
LINE
  5
1EB
330
1F
100
AcDbEntity
  8
破線
100
AcDbLine
 10
-97.75999273281529
 20
48.23417278300993
 30
0.0
 11
-98.95999474750476
 21
48.50114369308206
 31
0.0
  0
LINE
  5
1EC
330
1F
100
AcDbEntity
  8
破線
100
AcDbLine
 10
-100.1599989253107
 20
45.13594923641536
 30
0.0
 11
-107.6831326725325
 21
45.77429746591245
 31
0.0
  0
LINE
  5
1ED
330
1F
100
AcDbEntity
  8
破線
100
AcDbLine
 10
-100.1600004694199
 20
45.93594977467104
 30
0.0
 11
-107.7077931743726
 21
46.5763903505942
 31
0.0
  0
LINE
  5
1EE
330
1F
100
AcDbEntity
  8
破線
100
AcDbLine
 10
-98.96000699897863
 20
46.16898463168134
 30
0.0
 11
-106.9122097968811
 21
46.84373995934217
 31
0.0
  0
LINE
  5
1EF
330
1F
100
AcDbEntity
  8
破線
100
AcDbLine
 10
-98.95998832397207
 20
44.86897605156477
 30
0.0
 11
-106.9368535732068
 21
45.54582402208852
 31
0.0
  0
LINE
  5
1F0
330
1F
100
AcDbEntity
  8
破線
100
AcDbLine
 10
-100.1599997439951
 20
45.13594368778357
 30
0.0
 11
-100.1599997439951
 21
45.93594403839914
 31
0.0
  0
LINE
  5
1F1
330
1F
100
AcDbEntity
  8
破線
100
AcDbLine
 10
-100.1599932479045
 20
45.93594877412271
 30
0.0
 11
-98.95999323227542
 21
46.16897827510286
 31
0.0
  0
LINE
  5
1F2
330
1F
100
AcDbEntity
  8
破線
100
AcDbLine
 10
-100.1599957472051
 20
45.13593896604908
 30
0.0
 11
-98.95999634320849
 21
44.86896923727063
 31
0.0
  0
LINE
  5
1F3
330
1F
100
AcDbEntity
  8
破線
100
AcDbLine
 10
-98.95999473019266
 20
44.86897322442671
 30
0.0
 11
-98.95999473019266
 21
46.16897267220722
 31
0.0
  0
LINE
  5
1F4
330
1F
100
AcDbEntity
  8
破線
100
AcDbLine
 10
-98.96000370595086
 20
47.20113773990624
 30
0.0
 11
-98.96000370595086
 21
48.50113830965653
 31
0.0
  0
LINE
  5
1F5
330
1F
100
AcDbEntity
  8
外形線
100
AcDbLine
 10
-89.68500945823725
 20
33.28505606506485
 30
0.0
 11
-98.96000819382992
 21
33.28505606506485
 31
0.0
  0
LINE
  5
1F6
330
1F
100
AcDbEntity
  8
外形線
100
AcDbLine
 10
-89.21000896956686
 20
33.53505561364733
 30
0.0
 11
-98.96000819382992
 21
33.53505561364733
 31
0.0
  0
LINE
  5
1F7
330
1F
100
AcDbEntity
  8
外形線
100
AcDbLine
 10
-89.21000896956686
 20
34.53505605191677
 30
0.0
 11
-98.96000819382992
 21
34.53505605191677
 31
0.0
  0
LINE
  5
1F8
330
1F
100
AcDbEntity
  8
外形線
100
AcDbLine
 10
-89.68500945823725
 20
34.78505784443878
 30
0.0
 11
-98.96000819382992
 21
34.78505784443878
 31
0.0
  0
LINE
  5
1F9
330
1F
100
AcDbEntity
  8
外形線
100
AcDbLine
 10
-89.20999662789935
 20
33.53506010152641
 30
0.0
 11
-89.20999662789935
 21
34.53506053979585
 31
0.0
  0
LINE
  5
1FA
330
1F
100
AcDbEntity
  8
外形線
100
AcDbLine
 10
-96.66000830778001
 20
39.68506784574747
 30
0.0
 11
-101.2600058359403
 21
39.68506784574747
 31
0.0
  0
LINE
  5
1FB
330
1F
100
AcDbEntity
  8
外形線
100
AcDbLine
 10
-89.2100037346538
 20
33.535064208234
 30
0.0
 11
-89.68500428319288
 21
33.28506401466983
 31
0.0
  0
LINE
  5
1FC
330
1F
100
AcDbEntity
  8
外形線
100
AcDbLine
 10
-89.21001014785467
 20
34.53505716190207
 30
0.0
 11
-89.6850101198091
 21
34.78505724649149
 31
0.0
  0
LINE
  5
1FD
330
1F
100
AcDbEntity
  8
外形線
100
AcDbLine
 10
-89.68499375066048
 20
34.78506008837833
 30
0.0
 11
-89.68499375066048
 21
37.38505898393933
 31
0.0
  0
LINE
  5
1FE
330
1F
100
AcDbEntity
  8
外形線
100
AcDbLine
 10
-90.18499733570449
 20
38.38505942220877
 30
0.0
 11
-90.18499733570449
 21
38.58505726592311
 31
0.0
  0
LINE
  5
1FF
330
1F
100
AcDbEntity
  8
外形線
100
AcDbLine
 10
-97.21000686587357
 20
40.68506604007736
 30
0.0
 11
-100.7100083998165
 21
40.68506604007736
 31
0.0
  0
LINE
  5
200
330
1F
100
AcDbEntity
  8
外形線
100
AcDbLine
 10
-96.66000830778001
 20
40.88505490803352
 30
0.0
 11
-101.2600058359403
 21
40.88505490803352
 31
0.0
  0
LINE
  5
201
330
1F
100
AcDbEntity
  8
外形線
100
AcDbLine
 10
-101.2600058359403
 20
39.68505886998929
 30
0.0
 11
-101.2600058359403
 21
40.8850593959126
 31
0.0
  0
LINE
  5
202
330
1F
100
AcDbEntity
  8
外形線
100
AcDbLine
 10
-96.6600015759614
 20
39.68505886998929
 30
0.0
 11
-96.6600015759614
 21
40.8850593959126
 31
0.0
  0
LINE
  5
203
330
1F
100
AcDbEntity
  8
外形線
100
AcDbLine
 10
-100.7100072778468
 20
40.68505930825872
 30
0.0
 11
-100.7100072778468
 21
40.8850593959126
 31
0.0
  0
LINE
  5
204
330
1F
100
AcDbEntity
  8
外形線
100
AcDbLine
 10
-97.21000013405486
 20
40.68505930825872
 30
0.0
 11
-97.21000013405486
 21
40.8850593959126
 31
0.0
  0
LINE
  5
205
330
1F
100
AcDbEntity
  8
外形線
100
AcDbLine
 10
-96.66000830778001
 20
35.08505461001032
 30
0.0
 11
-101.2600058359403
 21
35.08505461001032
 31
0.0
  0
LINE
  5
206
330
1F
100
AcDbEntity
  8
外形線
100
AcDbLine
 10
-97.21000910981304
 20
36.08506178009836
 30
0.0
 11
-100.7100083998165
 21
36.08506178009836
 31
0.0
  0
LINE
  5
207
330
1F
100
AcDbEntity
  8
外形線
100
AcDbLine
 10
-96.66000830778001
 20
36.28505962381272
 30
0.0
 11
-101.2600058359403
 21
36.28505962381272
 31
0.0
  0
LINE
  5
208
330
1F
100
AcDbEntity
  8
外形線
100
AcDbLine
 10
-101.2600058359403
 20
35.0850590978894
 30
0.0
 11
-101.2600058359403
 21
36.28505962381272
 31
0.0
  0
LINE
  5
209
330
1F
100
AcDbEntity
  8
外形線
100
AcDbLine
 10
-96.6600015759614
 20
35.0850590978894
 30
0.0
 11
-96.6600015759614
 21
36.28505962381272
 31
0.0
  0
LINE
  5
20A
330
1F
100
AcDbEntity
  8
外形線
100
AcDbLine
 10
-100.7100072778468
 20
36.08505953615882
 30
0.0
 11
-100.7100072778468
 21
36.28505962381272
 31
0.0
  0
LINE
  5
20B
330
1F
100
AcDbEntity
  8
外形線
100
AcDbLine
 10
-97.21000013405486
 20
36.08505953615882
 30
0.0
 11
-97.21000013405486
 21
36.28505962381272
 31
0.0
  0
LINE
  5
20C
330
1F
100
AcDbEntity
  8
外形線
100
AcDbLine
 10
-89.68500945823725
 20
38.58506175380221
 30
0.0
 11
-90.185009677372
 21
38.58506175380221
 31
0.0
  0
LINE
  5
20D
330
1F
100
AcDbEntity
  8
外形線
100
AcDbLine
 10
-90.18500462975643
 20
38.38504662380079
 30
0.0
 11
-89.68500482837859
 21
37.38504662120505
 31
0.0
  0
LINE
  5
20E
330
1F
100
AcDbEntity
  8
外形線
100
AcDbLine
 10
-89.68499375066048
 20
38.58505726592311
 30
0.0
 11
-89.68499375066048
 21
42.68505794085807
 31
0.0
  0
LINE
  5
20F
330
1F
100
AcDbEntity
  8
外形線
100
AcDbLine
 10
-89.68500721429773
 20
42.68506242873714
 30
0.0
 11
-98.9600059498904
 21
42.68506242873714
 31
0.0
  0
LINE
  5
210
330
1F
100
AcDbEntity
  8
外形線
100
AcDbLine
 10
-91.01000639254252
 20
43.28505708184995
 30
0.0
 11
-98.9600059498904
 21
43.28505708184995
 31
0.0
  0
LINE
  5
211
330
1F
100
AcDbEntity
  8
外形線
100
AcDbLine
 10
-89.68500721429773
 20
43.88504949102321
 30
0.0
 11
-98.9600059498904
 21
43.88504949102321
 31
0.0
  0
LINE
  5
212
330
1F
100
AcDbEntity
  8
外形線
100
AcDbLine
 10
-89.68499867923631
 20
42.68506243197314
 30
0.0
 11
-91.00999703163299
 21
43.28506195906274
 31
0.0
  0
LINE
  5
213
330
1F
100
AcDbEntity
  8
外形線
100
AcDbLine
 10
-89.68501118708081
 20
43.88506406479021
 30
0.0
 11
-91.01001126496814
 21
43.28506426834363
 31
0.0
  0
LINE
  5
214
330
1F
100
AcDbEntity
  8
外形線
100
AcDbLine
 10
-89.68499375066048
 20
43.88505734481161
 30
0.0
 11
-89.68499375066048
 21
45.87768463600756
 31
0.0
  0
LINE
  5
215
330
1F
100
AcDbEntity
  8
外形線
100
AcDbLine
 10
-90.7099984072733
 20
46.16005750039727
 30
0.0
 11
-90.7099984072733
 21
46.3100570051528
 31
0.0
  0
LINE
  5
216
330
1F
100
AcDbEntity
  8
外形線
100
AcDbLine
 10
-89.76585626466322
 20
46.49427530294977
 30
0.0
 11
-90.71000772986543
 21
46.31005076910663
 31
0.0
  0
LINE
  5
217
330
1F
100
AcDbEntity
  8
外形線
100
AcDbLine
 10
-90.71000662590307
 20
46.16005107358724
 30
0.0
 11
-89.76585741699336
 21
45.97582669331121
 31
0.0
  0
LINE
  5
218
330
1F
100
AcDbEntity
  8
外形線
100
AcDbLine
 10
-89.68499375066048
 20
46.5924298695425
 30
0.0
 11
-89.68499375066048
 21
47.17202935613615
 31
0.0
  0
LINE
  5
219
330
1F
100
AcDbEntity
  8
外形線
100
AcDbLine
 10
-89.68499375066048
 20
47.77768322477995
 30
0.0
 11
-89.68499375066048
 21
47.1980848601561
 31
0.0
  0
LINE
  5
21A
330
1F
100
AcDbEntity
  8
外形線
100
AcDbLine
 10
-89.76585461237059
 20
47.87582048949352
 30
0.0
 11
-90.7100038212803
 21
48.06004486976957
 31
0.0
  0
LINE
  5
21B
330
1F
100
AcDbEntity
  8
外形線
100
AcDbLine
 10
-90.7099984072733
 20
48.21005671589496
 30
0.0
 11
-90.7099984072733
 21
48.06005721113944
 31
0.0
  0
LINE
  5
21C
330
1F
100
AcDbEntity
  8
外形線
100
AcDbLine
 10
-90.71001822431808
 20
48.210045814216
 30
0.0
 11
-89.76586675911589
 21
48.39427034805914
 31
0.0
  0
LINE
  5
21D
330
1F
100
AcDbEntity
  8
外形線
100
AcDbLine
 10
-89.68499375066048
 20
49.44868666107534
 30
0.0
 11
-89.68499375066048
 21
48.49243070225444
 31
0.0
  0
LINE
  5
21E
330
1F
100
AcDbEntity
  8
外形線
100
AcDbLine
 10
-108.7100085400628
 20
34.53505605191677
 30
0.0
 11
-98.96000819382992
 21
34.53505605191677
 31
0.0
  0
LINE
  5
21F
330
1F
100
AcDbEntity
  8
外形線
100
AcDbLine
 10
-108.2350069294226
 20
34.78505784443878
 30
0.0
 11
-98.96000819382992
 21
34.78505784443878
 31
0.0
  0
LINE
  5
220
330
1F
100
AcDbEntity
  8
外形線
100
AcDbLine
 10
-108.7100085400628
 20
33.53505561364733
 30
0.0
 11
-98.96000819382992
 21
33.53505561364733
 31
0.0
  0
LINE
  5
221
330
1F
100
AcDbEntity
  8
外形線
100
AcDbLine
 10
-108.2350069294226
 20
33.28505606506485
 30
0.0
 11
-98.96000819382992
 21
33.28505606506485
 31
0.0
  0
LINE
  5
222
330
1F
100
AcDbEntity
  8
外形線
100
AcDbLine
 10
-108.7100134540474
 20
33.53504433847003
 30
0.0
 11
-108.2350124892416
 21
33.28504373132702
 31
0.0
  0
LINE
  5
223
330
1F
100
AcDbEntity
  8
外形線
100
AcDbLine
 10
-108.7100018082441
 20
33.53506234546596
 30
0.0
 11
-108.7100018082441
 21
34.53506053979585
 31
0.0
  0
LINE
  5
224
330
1F
100
AcDbEntity
  8
外形線
100
AcDbLine
 10
-108.7100000511238
 20
34.53504622195719
 30
0.0
 11
-108.2349980133073
 21
34.78504719935127
 31
0.0
  0
LINE
  5
225
330
1F
100
AcDbEntity
  8
外形線
100
AcDbLine
 10
-108.235004685483
 20
34.78506233231787
 30
0.0
 11
-108.235004685483
 21
37.38506122787887
 31
0.0
  0
LINE
  5
226
330
1F
100
AcDbEntity
  8
外形線
100
AcDbLine
 10
-107.734999910078
 20
38.3850608457206
 30
0.0
 11
-108.2350020383691
 21
37.38505698898015
 31
0.0
  0
LINE
  5
227
330
1F
100
AcDbEntity
  8
外形線
100
AcDbLine
 10
-108.235004685483
 20
38.58505950986266
 30
0.0
 11
-108.235004685483
 21
42.68506130676736
 31
0.0
  0
LINE
  5
228
330
1F
100
AcDbEntity
  8
外形線
100
AcDbLine
 10
-108.2350069294226
 20
38.58506175380221
 30
0.0
 11
-107.7350067102878
 21
38.58506175380221
 31
0.0
  0
LINE
  5
229
330
1F
100
AcDbEntity
  8
外形線
100
AcDbLine
 10
-108.2350055503062
 20
42.68505005356347
 30
0.0
 11
-106.9100049613873
 21
43.28505008142047
 31
0.0
  0
LINE
  5
22A
330
1F
100
AcDbEntity
  8
外形線
100
AcDbLine
 10
-108.2350069294226
 20
42.68506242873714
 30
0.0
 11
-98.9600059498904
 21
42.68506242873714
 31
0.0
  0
LINE
  5
22B
330
1F
100
AcDbEntity
  8
外形線
100
AcDbLine
 10
-106.9100077511778
 20
43.28505708184995
 30
0.0
 11
-98.9600059498904
 21
43.28505708184995
 31
0.0
  0
LINE
  5
22C
330
1F
100
AcDbEntity
  8
外形線
100
AcDbLine
 10
-108.2350042764037
 20
43.88505809334446
 30
0.0
 11
-106.9100028578181
 21
43.28505717779131
 31
0.0
  0
LINE
  5
22D
330
1F
100
AcDbEntity
  8
外形線
100
AcDbLine
 10
-108.2350069294226
 20
43.88504949102321
 30
0.0
 11
-98.9600059498904
 21
43.88504949102321
 31
0.0
  0
LINE
  5
22E
330
1F
100
AcDbEntity
  8
外形線
100
AcDbLine
 10
-108.2349962707097
 20
43.88506071072095
 30
0.0
 11
-108.2349962707097
 21
45.06466158224602
 31
0.0
  0
LINE
  5
22F
330
1F
100
AcDbEntity
  8
外形線
100
AcDbLine
 10
-108.2349962707097
 20
49.44868778304513
 30
0.0
 11
-108.2349962707097
 21
47.67940764849289
 31
0.0
  0
LINE
  5
230
330
1F
100
AcDbEntity
  8
外形線
100
AcDbLine
 10
-107.2099954515325
 20
47.39701653367641
 30
0.0
 11
-108.1541479640505
 21
47.58124155855945
 31
0.0
  0
LINE
  5
231
330
1F
100
AcDbEntity
  8
外形線
100
AcDbLine
 10
-107.2099904921271
 20
47.39703478410318
 30
0.0
 11
-107.2099904921271
 21
47.24703415737788
 31
0.0
  0
LINE
  5
232
330
1F
100
AcDbEntity
  8
外形線
100
AcDbLine
 10
-108.1541580549415
 20
47.06280237583354
 30
0.0
 11
-107.2100085168441
 21
47.24702653365651
 31
0.0
  0
LINE
  5
233
330
1F
100
AcDbEntity
  8
外形線
100
AcDbLine
 10
-108.2349962707097
 20
46.96466241495797
 30
0.0
 11
-108.2349962707097
 21
46.38506292836432
 31
0.0
  0
LINE
  5
234
330
1F
100
AcDbEntity
  8
外形線
100
AcDbLine
 10
-108.2349962707097
 20
45.77940793775073
 30
0.0
 11
-108.2349962707097
 21
46.35900742434436
 31
0.0
  0
LINE
  5
235
330
1F
100
AcDbEntity
  8
外形線
100
AcDbLine
 10
-108.1541520444584
 20
45.68123829471931
 30
0.0
 11
-107.2100006331432
 21
45.49701348470527
 31
0.0
  0
LINE
  5
236
330
1F
100
AcDbEntity
  8
外形線
100
AcDbLine
 10
-107.2099904921271
 20
45.34703444663573
 30
0.0
 11
-107.2099904921271
 21
45.49703507336103
 31
0.0
  0
LINE
  5
237
330
1F
100
AcDbEntity
  8
外形線
100
AcDbLine
 10
-107.2100060329712
 20
45.34702420986659
 30
0.0
 11
-108.1541574981734
 21
45.16279967602343
 31
0.0
  0
LINE
  5
238
330
1F
100
AcDbEntity
  8
外形線
100
AcDbLine
 10
-107.7350016614239
 20
38.38505942220877
 30
0.0
 11
-107.7350016614239
 21
38.58505950986266
 31
0.0
  0
LINE
  5
239
330
1F
100
AcDbEntity
  8
外形線
100
AcDbLine
 10
-90.71001040595538
 20
46.16004535072133
 30
0.0
 11
-107.2100047778507
 21
47.24702220206872
 31
0.0
  0
LINE
  5
23A
330
1F
100
AcDbEntity
  8
外形線
100
AcDbLine
 10
-107.2100164594742
 20
47.39702271476391
 30
0.0
 11
-90.71002073663663
 21
46.31004503521384
 31
0.0
  0
LINE
  5
23B
330
1F
100
AcDbEntity
  8
外形線
100
AcDbLine
 10
-89.72504497211501
 20
46.51240285042132
 30
0.0
 11
-108.1874022349533
 21
47.59423632955168
 31
0.0
  0
LINE
  5
23C
330
1F
100
AcDbEntity
  8
外形線
100
AcDbLine
 10
-89.73259381360936
 20
45.96284886421281
 30
0.0
 11
-108.194980573472
 21
47.04468482962488
 31
0.0
  0
LINE
  5
23D
330
1F
100
AcDbEntity
  8
外形線
100
AcDbLine
 10
-99.95405612535947
 20
44.92185851848321
 30
0.0
 11
-107.2100047874403
 21
45.34703356913745
 31
0.0
  0
LINE
  5
23E
330
1F
100
AcDbEntity
  8
外形線
100
AcDbLine
 10
-99.95406699903581
 20
45.07186308114103
 30
0.0
 11
-107.2100149610862
 21
45.49703809077577
 31
0.0
  0
LINE
  5
23F
330
1F
100
AcDbEntity
  8
外形線
100
AcDbLine
 10
-98.75405826451993
 20
45.14146456054038
 30
0.0
 11
-108.1874007336221
 21
45.69422782402646
 31
0.0
  0
LINE
  5
240
330
1F
100
AcDbEntity
  8
外形線
100
AcDbLine
 10
-98.75405308666069
 20
44.59146634743365
 30
0.0
 11
-108.1949768842637
 21
45.14467385217328
 31
0.0
  0
LINE
  5
241
330
1F
100
AcDbEntity
  8
外形線
100
AcDbLine
 10
-90.70998943119459
 20
48.0600667940421
 30
0.0
 11
-108.2349844736383
 21
49.08697464605402
 31
0.0
  0
LINE
  5
242
330
1F
100
AcDbEntity
  8
外形線
100
AcDbLine
 10
-90.70999585533341
 20
48.21006098092269
 30
0.0
 11
-108.2349953779712
 21
49.23696909545947
 31
0.0
  0
LINE
  5
243
330
1F
100
AcDbEntity
  8
外形線
100
AcDbLine
 10
-89.72504349504736
 20
48.41240274818067
 30
0.0
 11
-107.4100621113527
 21
49.44868746244607
 31
0.0
  0
LINE
  5
244
330
1F
100
AcDbEntity
  8
外形線
100
AcDbLine
 10
-89.73259179322548
 20
47.86284939205212
 30
0.0
 11
-108.2350025073361
 21
48.94703063133082
 31
0.0
  0
LINE
  5
245
330
1F
100
AcDbEntity
  8
外形線
100
AcDbLine
 10
-99.95405097260896
 20
44.92185951357916
 30
0.0
 11
-99.95405097260896
 21
45.07186014030447
 31
0.0
  0
LINE
  5
246
330
1F
100
AcDbEntity
  8
外形線
100
AcDbLine
 10
-98.75405493456476
 20
44.59147307475769
 30
0.0
 11
-98.75405493456476
 21
45.14147051088146
 31
0.0
  0
LINE
  5
247
330
1F
100
AcDbEntity
  8
外形線
100
AcDbLine
 10
-98.75405516028592
 20
44.59146439103121
 30
0.0
 11
-99.95405656766685
 21
44.92185131110864
 31
0.0
  0
LINE
  5
248
330
1F
100
AcDbEntity
  8
外形線
100
AcDbLine
 10
-99.95406024144816
 20
45.07186061077018
 30
0.0
 11
-98.75406028335895
 21
45.14147102496003
 31
0.0
  0
LINE
  5
249
330
1F
100
AcDbEntity
  8
外形線
100
AcDbLine
 10
-89.48500488270425
 20
49.44869114895444
 30
0.0
 11
-98.9600059498904
 21
49.44869114895444
 31
0.0
  0
LINE
  5
24A
330
1F
100
AcDbEntity
  8
外形線
100
AcDbLine
 10
-89.48500488270425
 20
49.64868899266878
 30
0.0
 11
-98.9600059498904
 21
49.64868899266878
 31
0.0
  0
LINE
  5
24B
330
1F
100
AcDbEntity
  8
外形線
100
AcDbLine
 10
-89.48500488270431
 20
49.64868450478967
 30
0.0
 11
-89.48500488270431
 21
49.44868666107534
 31
0.0
  0
LINE
  5
24C
330
1F
100
AcDbEntity
  8
外形線
100
AcDbLine
 10
-108.4350047731369
 20
49.44869114895444
 30
0.0
 11
-98.9600059498904
 21
49.44869114895444
 31
0.0
  0
LINE
  5
24D
330
1F
100
AcDbEntity
  8
外形線
100
AcDbLine
 10
-108.4350047731369
 20
49.64868899266878
 30
0.0
 11
-98.9600059498904
 21
49.64868899266878
 31
0.0
  0
LINE
  5
24E
330
1F
100
AcDbEntity
  8
外形線
100
AcDbLine
 10
-108.4349980413183
 20
49.64868787069899
 30
0.0
 11
-108.4349980413183
 21
49.44868778304513
 31
0.0
  0
LINE
  5
24F
330
1F
100
AcDbEntity
  8
中心線
100
AcDbLine
 10
-98.96000370595086
 20
91.28416146947927
 30
0.0
 11
-98.96000370595086
 21
30.60158037451218
 31
0.0
  0
LINE
  5
250
330
1F
100
AcDbEntity
  8
外形線
100
AcDbLine
 10
-73.16000137435742
 20
66.93505678820942
 30
0.0
 11
-73.16000137435742
 21
60.28505555667229
 31
0.0
  0
LINE
  5
251
330
1F
100
AcDbEntity
  8
外形線
100
AcDbLine
 10
-78.90999996751252
 20
62.03505351871939
 30
0.0
 11
-78.90999996751252
 21
58.53505535068564
 31
0.0
  0
LINE
  5
252
330
1F
100
AcDbEntity
  8
外形線
100
AcDbLine
 10
-79.10999781122685
 20
62.58505656469201
 30
0.0
 11
-79.10999781122685
 21
57.98505567062234
 31
0.0
  0
LINE
  5
253
330
1F
100
AcDbEntity
  8
外形線
100
AcDbLine
 10
-78.35999692153986
 20
62.58505880863154
 30
0.0
 11
-79.11000678698501
 21
62.58505880863154
 31
0.0
  0
LINE
  5
254
330
1F
100
AcDbEntity
  8
外形線
100
AcDbLine
 10
-78.91000669933112
 20
58.53505759462521
 30
0.0
 11
-79.11000678698501
 21
58.53505759462521
 31
0.0
  0
LINE
  5
255
330
1F
100
AcDbEntity
  8
外形線
100
AcDbLine
 10
-78.91000669933112
 20
62.03505576265893
 30
0.0
 11
-79.11000678698501
 21
62.03505576265893
 31
0.0
  0
LINE
  5
256
330
1F
100
AcDbEntity
  8
外形線
100
AcDbLine
 10
-78.35999692153986
 20
57.98505006077349
 30
0.0
 11
-79.11000678698501
 21
57.98505006077349
 31
0.0
  0
LINE
  5
257
330
1F
100
AcDbEntity
  8
外形線
100
AcDbLine
 10
-74.65999864517025
 20
66.93505708648856
 30
0.0
 11
-74.40999878350233
 21
67.13505742999358
 31
0.0
  0
LINE
  5
258
330
1F
100
AcDbEntity
  8
外形線
100
AcDbLine
 10
-74.41000136120933
 20
53.43505648142083
 30
0.0
 11
-73.41000092293987
 21
53.43505648142083
 31
0.0
  0
LINE
  5
259
330
1F
100
AcDbEntity
  8
外形線
100
AcDbLine
 10
-77.36000321508907
 20
66.93505678820942
 30
0.0
 11
-77.36000321508907
 21
66.4350565690747
 31
0.0
  0
LINE
  5
25A
330
1F
100
AcDbEntity
  8
外形線
100
AcDbLine
 10
-73.41000092293987
 20
67.13505687586331
 30
0.0
 11
-73.41000092293987
 21
60.28505555667229
 31
0.0
  0
LINE
  5
25B
330
1F
100
AcDbEntity
  8
外形線
100
AcDbLine
 10
-74.41000136120933
 20
67.13505687586331
 30
0.0
 11
-74.41000136120933
 21
60.28505555667229
 31
0.0
  0
LINE
  5
25C
330
1F
100
AcDbEntity
  8
外形線
100
AcDbLine
 10
-74.66000090979179
 20
66.93505678820942
 30
0.0
 11
-74.66000090979179
 21
60.28505555667229
 31
0.0
  0
LINE
  5
25D
330
1F
100
AcDbEntity
  8
外形線
100
AcDbLine
 10
-78.90999920383944
 20
58.53505560917414
 30
0.0
 11
-78.35999641639526
 21
57.98505620612854
 31
0.0
  0
LINE
  5
25E
330
1F
100
AcDbEntity
  8
外形線
100
AcDbLine
 10
-75.91000440880177
 20
58.53505452573607
 30
0.0
 11
-75.36000162135756
 21
57.98505512269047
 31
0.0
  0
LINE
  5
25F
330
1F
100
AcDbEntity
  8
外形線
100
AcDbLine
 10
-75.91000697846716
 20
62.03505362154359
 30
0.0
 11
-75.36000436605745
 21
62.58505637303859
 31
0.0
  0
LINE
  5
260
330
1F
100
AcDbEntity
  8
外形線
100
AcDbLine
 10
-78.91000177348724
 20
62.03505244887018
 30
0.0
 11
-78.35999757437284
 21
62.58505678707023
 31
0.0
  0
LINE
  5
261
330
1F
100
AcDbEntity
  8
外形線
100
AcDbLine
 10
-74.41000136120933
 20
67.13505687586331
 30
0.0
 11
-73.41000092293987
 21
67.13505687586331
 31
0.0
  0
LINE
  5
262
330
1F
100
AcDbEntity
  8
外形線
100
AcDbLine
 10
-100.7100026378723
 20
79.88505720241608
 30
0.0
 11
-101.2600053790892
 21
80.8850593046497
 31
0.0
  0
LINE
  5
263
330
1F
100
AcDbEntity
  8
外形線
100
AcDbLine
 10
-97.21000532315349
 20
79.88505737263628
 30
0.0
 11
-96.66000625116259
 21
80.88505893200034
 31
0.0
  0
LINE
  5
264
330
1F
100
AcDbEntity
  8
外形線
100
AcDbLine
 10
-97.21000533774521
 20
84.48505670248129
 30
0.0
 11
-96.6600051843605
 21
85.48506022802234
 31
0.0
  0
LINE
  5
265
330
1F
100
AcDbEntity
  8
外形線
100
AcDbLine
 10
-100.7100029759921
 20
84.48505648310542
 30
0.0
 11
-101.260005717209
 21
85.48505858533905
 31
0.0
  0
ARC
  5
266
330
1F
100
AcDbEntity
  8
破線
100
AcDbCircle
 10
-112.225770383396
 20
51.73504956552902
 30
0.0
 40
0.2999999912346112
100
AcDbArc
 50
194.036320603365
 51
269.999963344576
  0
ARC
  5
267
330
1F
100
AcDbEntity
  8
破線
100
AcDbCircle
 10
-112.9442394346049
 20
52.13505535068565
 30
0.0
 40
0.2999999912346112
100
AcDbArc
 50
14.03627097080798
 51
89.99999567428899
  0
ARC
  5
268
330
1F
100
AcDbEntity
  8
破線
100
AcDbCircle
 10
-111.8942372914673
 20
51.73504956552902
 30
0.0
 40
0.2999999912346112
100
AcDbArc
 50
269.9999906653327
 51
345.963688048057
  0
ARC
  5
269
330
1F
100
AcDbEntity
  8
破線
100
AcDbCircle
 10
-110.7416332566011
 20
68.63505641129771
 30
0.0
 40
0.5000000087653889
100
AcDbArc
 50
269.999963344576
 51
328.7815548889462
  0
ARC
  5
26A
330
1F
100
AcDbEntity
  8
外形線
100
AcDbCircle
 10
-88.95999483537734
 20
70.28505657345739
 30
0.0
 40
0.5000000087653889
100
AcDbArc
 50
180.0000050089563
 51
270.0000006832453
  0
ARC
  5
26B
330
1F
100
AcDbEntity
  8
外形線
100
AcDbCircle
 10
-117.0351454225663
 20
66.60161690865288
 30
0.0
 40
0.1
100
AcDbArc
 50
224.999985997999
 51
332.1658589811742
  0
ARC
  5
26C
330
1F
100
AcDbEntity
  8
破線
100
AcDbCircle
 10
-111.1757727281375
 20
52.13505535068565
 30
0.0
 40
0.2999999912346112
100
AcDbArc
 50
89.99999567428899
 51
165.9637067173917
  0
ARC
  5
26D
330
1F
100
AcDbEntity
  8
外形線
100
AcDbCircle
 10
-121.6008376029717
 20
66.63505665672859
 30
0.0
 40
0.2999999912346112
100
AcDbArc
 50
56.30975974412094
 51
89.99998201391065
  0
ARC
  5
26E
330
1F
100
AcDbEntity
  8
破線
100
AcDbCircle
 10
-110.7416332566011
 20
51.93504853121314
 30
0.0
 40
0.5000000087653889
100
AcDbArc
 50
31.21840412991878
 51
89.99999567428899
  0
ARC
  5
26F
330
1F
100
AcDbEntity
  8
破線
100
AcDbCircle
 10
-113.9442387509046
 20
68.43504959182517
 30
0.0
 40
0.2999999912346112
100
AcDbArc
 50
269.999963344576
 51
345.963688048057
  0
ARC
  5
270
330
1F
100
AcDbEntity
  8
外形線
100
AcDbCircle
 10
-113.3673701387365
 20
51.11004957210306
 30
0.0
 40
0.1
100
AcDbArc
 50
269.9999770049543
 51
348.9591016595119
  0
ARC
  5
271
330
1F
100
AcDbEntity
  8
外形線
100
AcDbCircle
 10
-112.6526305150504
 20
51.11004957210306
 30
0.0
 40
0.1
100
AcDbArc
 50
191.0409001617209
 51
269.999963344576
  0
ARC
  5
272
330
1F
100
AcDbEntity
  8
破線
100
AcDbCircle
 10
-112.1757664345883
 20
68.43504959182517
 30
0.0
 40
0.2999999912346112
100
AcDbArc
 50
194.0362659618515
 51
269.999963344576
  0
ARC
  5
273
330
1F
100
AcDbEntity
  8
破線
100
AcDbCircle
 10
-112.8942399736763
 20
68.83504976713296
 30
0.0
 40
0.2999999912346112
100
AcDbArc
 50
14.03627097080798
 51
89.99998201391065
  0
ARC
  5
274
330
1F
100
AcDbEntity
  8
破線
100
AcDbCircle
 10
-113.2257685777259
 20
68.83504976713296
 30
0.0
 40
0.2999999912346112
100
AcDbArc
 50
89.99999567428899
 51
165.9636520758783
  0
ARC
  5
275
330
1F
100
AcDbEntity
  8
外形線
100
AcDbCircle
 10
-117.0351454225663
 20
53.96849644863126
 30
0.0
 40
0.1
100
AcDbArc
 50
27.83415467920418
 51
135.0000276623794
  0
ARC
  5
276
330
1F
100
AcDbEntity
  8
破線
100
AcDbCircle
 10
-84.69424780993394
 20
51.73506807803025
 30
0.0
 40
0.2999999912346112
100
AcDbArc
 50
270.0000179860894
 51
345.9636334065436
  0
ARC
  5
277
330
1F
100
AcDbEntity
  8
破線
100
AcDbCircle
 10
-85.02575846246719
 20
51.73506807803025
 30
0.0
 40
0.2999999912346112
100
AcDbArc
 50
194.03627962223
 51
269.9999906653327
  0
ARC
  5
278
330
1F
100
AcDbEntity
  8
破線
100
AcDbCircle
 10
-85.74423200155516
 20
52.13506376545897
 30
0.0
 40
0.2999999912346112
100
AcDbArc
 50
14.03625731042964
 51
89.99995469315399
  0
ARC
  5
279
330
1F
100
AcDbEntity
  8
破線
100
AcDbCircle
 10
-83.9757652950878
 20
52.13506376545897
 30
0.0
 40
0.2999999912346112
100
AcDbArc
 50
89.99995469315399
 51
165.963679396635
  0
ARC
  5
27A
330
1F
100
AcDbEntity
  8
破線
100
AcDbCircle
 10
-87.17837864317969
 20
51.93505694598643
 30
0.0
 40
0.5000000087653889
100
AcDbArc
 50
89.99995469315399
 51
148.7815462375242
  0
ARC
  5
27B
330
1F
100
AcDbEntity
  8
破線
100
AcDbCircle
 10
-84.97577246517584
 20
68.43505800659847
 30
0.0
 40
0.2999999912346112
100
AcDbArc
 50
194.03627962223
 51
270.0000179860894
  0
ARC
  5
27C
330
1F
100
AcDbEntity
  8
破線
100
AcDbCircle
 10
-85.69424600426385
 20
68.83505874289113
 30
0.0
 40
0.2999999912346112
100
AcDbArc
 50
14.036311951943
 51
89.99995469315399
  0
ARC
  5
27D
330
1F
100
AcDbEntity
  8
破線
100
AcDbCircle
 10
-86.02576563255528
 20
68.83505874289113
 30
0.0
 40
0.2999999912346112
100
AcDbArc
 50
89.99998201391065
 51
165.963679396635
  0
ARC
  5
27E
330
1F
100
AcDbEntity
  8
破線
100
AcDbCircle
 10
-86.74423019588505
 20
68.43505800659847
 30
0.0
 40
0.2999999912346112
100
AcDbArc
 50
270.0000179860894
 51
345.963688048057
  0
ARC
  5
27F
330
1F
100
AcDbEntity
  8
破線
100
AcDbCircle
 10
-87.17837864317969
 20
68.635064826071
 30
0.0
 40
0.5000000087653889
100
AcDbArc
 50
211.2184127813408
 51
270.0000179860894
  0
ARC
  5
280
330
1F
100
AcDbEntity
  8
外形線
100
AcDbCircle
 10
-76.31916980892997
 20
53.93505670055553
 30
0.0
 40
0.2999999912346112
100
AcDbArc
 50
236.3097410747863
 51
269.999963344576
  0
ARC
  5
281
330
1F
100
AcDbEntity
  8
外形線
100
AcDbCircle
 10
-80.88486198933535
 20
53.96849644863126
 30
0.0
 40
0.1
100
AcDbArc
 50
44.99993636544195
 51
152.1658093486171
  0
ARC
  5
282
330
1F
100
AcDbEntity
  8
外形線
100
AcDbCircle
 10
-89.78500164827579
 20
74.79070654150317
 30
0.0
 40
0.1
100
AcDbArc
 50
0.0
 51
78.95907001304427
  0
ARC
  5
283
330
1F
100
AcDbEntity
  8
外形線
100
AcDbCircle
 10
-121.6008376029717
 20
53.93505670055553
 30
0.0
 40
0.2999999912346112
100
AcDbArc
 50
270.0000179860894
 51
303.6902402558791
  0
ARC
  5
284
330
1F
100
AcDbEntity
  8
破線
100
AcDbCircle
 10
-90.41000164170176
 20
74.55082155041714
 30
0.0
 40
0.2999999912346112
100
AcDbArc
 50
0.0
 51
75.9636564015893
  0
ARC
  5
285
330
1F
100
AcDbEntity
  8
破線
100
AcDbCircle
 10
-90.41000164170176
 20
74.21929294636754
 30
0.0
 40
0.2999999912346112
100
AcDbArc
 50
284.0362752965191
 51
359.9999863396217
  0
ARC
  5
286
330
1F
100
AcDbEntity
  8
破線
100
AcDbCircle
 10
-90.81000630488864
 20
73.50082389515865
 30
0.0
 40
0.2999999912346112
100
AcDbArc
 50
104.0362529847185
 51
179.9999640278213
  0
ARC
  5
287
330
1F
100
AcDbEntity
  8
破線
100
AcDbCircle
 10
-90.81000630488864
 20
75.26929172359579
 30
0.0
 40
0.2999999912346112
100
AcDbArc
 50
179.9999640278213
 51
255.9636887313023
  0
ARC
  5
288
330
1F
100
AcDbEntity
  8
破線
100
AcDbCircle
 10
-90.60999948541612
 20
72.0666862292923
 30
0.0
 40
0.5000000087653889
100
AcDbArc
 50
179.9999640278213
 51
238.7815555721915
  0
ARC
  5
289
330
1F
100
AcDbEntity
  8
破線
100
AcDbCircle
 10
-107.1100016679979
 20
74.26929240729615
 30
0.0
 40
0.2999999912346112
100
AcDbArc
 50
284.0362752965191
 51
0.0
  0
ARC
  5
28A
330
1F
100
AcDbEntity
  8
破線
100
AcDbCircle
 10
-107.5100012823208
 20
73.55082335608724
 30
0.0
 40
0.2999999912346112
100
AcDbArc
 50
104.036307626232
 51
179.9999640278213
  0
ARC
  5
28B
330
1F
100
AcDbEntity
  8
破線
100
AcDbCircle
 10
-107.5100012823208
 20
73.21929475203764
 30
0.0
 40
0.2999999912346112
100
AcDbArc
 50
179.9999776881997
 51
255.9636887313023
  0
ARC
  5
28C
330
1F
100
AcDbEntity
  8
破線
100
AcDbCircle
 10
-107.1100016679979
 20
72.50083018870785
 30
0.0
 40
0.2999999912346112
100
AcDbArc
 50
0.0
 51
75.96371104310268
  0
ARC
  5
28D
330
1F
100
AcDbEntity
  8
破線
100
AcDbCircle
 10
-107.3100084874704
 20
72.0666862292923
 30
0.0
 40
0.5000000087653889
100
AcDbArc
 50
301.2184084556298
 51
0.0
  0
ARC
  5
28E
330
1F
100
AcDbEntity
  8
外形線
100
AcDbCircle
 10
-108.1350012757468
 20
74.69243320915565
 30
0.0
 40
0.1
100
AcDbArc
 50
179.9999813306653
 51
258.959105985223
  0
ARC
  5
28F
330
1F
100
AcDbEntity
  8
外形線
100
AcDbCircle
 10
-108.1350012757468
 20
73.97768348774163
 30
0.0
 40
0.1
100
AcDbArc
 50
101.0408940147771
 51
179.9999640278213
  0
ARC
  5
290
330
1F
100
AcDbEntity
  8
外形線
100
AcDbCircle
 10
-108.1350012757468
 20
72.79243013250415
 30
0.0
 40
0.1
100
AcDbArc
 50
179.9999813306653
 51
258.9590513437096
  0
ARC
  5
291
330
1F
100
AcDbEntity
  8
外形線
100
AcDbCircle
 10
-108.1350012757468
 20
72.07768602093898
 30
0.0
 40
0.1
100
AcDbArc
 50
101.0408462034529
 51
179.9999640278213
  0
ARC
  5
292
330
1F
100
AcDbEntity
  8
外形線
100
AcDbCircle
 10
-89.78500164827579
 20
72.89071019667033
 30
0.0
 40
0.1
100
AcDbArc
 50
0.0
 51
78.95911782436846
  0
ARC
  5
293
330
1F
100
AcDbEntity
  8
外形線
100
AcDbCircle
 10
-89.78500164827579
 20
73.60545430823548
 30
0.0
 40
0.1
100
AcDbArc
 50
281.0409368171449
 51
0.0000068301892142
  0
ARC
  5
294
330
1F
100
AcDbEntity
  8
外形線
100
AcDbCircle
 10
-89.78500164827579
 20
75.50545626291721
 30
0.0
 40
0.1
100
AcDbArc
 50
281.0408821756316
 51
0.0000068301892142
  0
ARC
  5
295
330
1F
100
AcDbEntity
  8
外形線
100
AcDbCircle
 10
-108.9600036007662
 20
70.28505657345739
 30
0.0
 40
0.5000000087653889
100
AcDbArc
 50
270.0000179860894
 51
0.0
  0
ARC
  5
296
330
1F
100
AcDbEntity
  8
外形線
100
AcDbCircle
 10
-108.9600036007662
 20
50.28506127170579
 30
0.0
 40
0.5000000087653889
100
AcDbArc
 50
0.00001366037834
 51
89.99999567428899
  0
ARC
  5
297
330
1F
100
AcDbEntity
  8
外形線
100
AcDbCircle
 10
-88.95999483537734
 20
50.28506127170579
 30
0.0
 40
0.5000000087653889
100
AcDbArc
 50
90.00000933466735
 51
179.999991348578
  0
ARC
  5
298
330
1F
100
AcDbEntity
  8
外形線
100
AcDbCircle
 10
-101.3659646612275
 20
60.28505667864206
 30
0.0
 40
0.2999999912346112
100
AcDbArc
 50
318.3384586102798
 51
41.66150382367985
  0
ARC
  5
299
330
1F
100
AcDbEntity
  8
外形線
100
AcDbCircle
 10
-106.8595774538567
 20
68.64894190919852
 30
0.0
 40
0.5000000087653889
100
AcDbArc
 50
48.33847819023084
 51
135.0000276623794
  0
ARC
  5
29A
330
1F
100
AcDbEntity
  8
外形線
100
AcDbCircle
 10
-107.3238844486282
 20
68.18463491442699
 30
0.0
 40
0.5000000087653889
100
AcDbArc
 50
134.999891058596
 51
221.6614405307444
  0
ARC
  5
29B
330
1F
100
AcDbEntity
  8
外形線
100
AcDbCircle
 10
-106.8595774538567
 20
51.9211714480856
 30
0.0
 40
0.5000000087653889
100
AcDbArc
 50
224.999904035729
 51
311.6614535078775
  0
ARC
  5
29C
330
1F
100
AcDbEntity
  8
外形線
100
AcDbCircle
 10
-107.3238844486282
 20
52.3854879796002
 30
0.0
 40
0.5000000087653889
100
AcDbArc
 50
138.3384738645198
 51
225.0000233366683
  0
ARC
  5
29D
330
1F
100
AcDbEntity
  8
外形線
100
AcDbCircle
 10
-90.59611398751528
 20
52.3854879796002
 30
0.0
 40
0.5000000087653889
100
AcDbArc
 50
314.9998997100179
 51
41.66144918216637
  0
ARC
  5
29E
330
1F
100
AcDbEntity
  8
外形線
100
AcDbCircle
 10
-91.06042098228686
 20
51.9211714480856
 30
0.0
 40
0.5000000087653889
100
AcDbArc
 50
228.3384868416528
 51
315.0000363138013
  0
ARC
  5
29F
330
1F
100
AcDbEntity
  8
外形線
100
AcDbCircle
 10
-91.06042098228686
 20
68.64893742131943
 30
0.0
 40
0.5000000087653889
100
AcDbArc
 50
44.99989538430695
 51
131.6614448564555
  0
ARC
  5
2A0
330
1F
100
AcDbEntity
  8
外形線
100
AcDbCircle
 10
-90.59611398751528
 20
68.1846304265479
 30
0.0
 40
0.5000000087653889
100
AcDbArc
 50
318.3384825159419
 51
45.00003198809032
  0
ARC
  5
2A1
330
1F
100
AcDbEntity
  8
外形線
100
AcDbCircle
 10
-96.55404275067423
 20
60.28505667864206
 30
0.0
 40
0.2999999912346112
100
AcDbArc
 50
138.3384875248982
 51
221.6614951722578
  0
ARC
  5
2A2
330
1F
100
AcDbEntity
  8
外形線
100
AcDbCircle
 10
-98.96000370595086
 20
57.87909572336545
 30
0.0
 40
0.2999999912346112
100
AcDbArc
 50
48.33847136004167
 51
131.6615404791038
  0
ARC
  5
2A3
330
1F
100
AcDbEntity
  8
外形線
100
AcDbCircle
 10
-98.96000370595086
 20
62.69101314603961
 30
0.0
 40
0.2999999912346112
100
AcDbArc
 50
228.3384322001395
 51
311.6614910739179
  0
ARC
  5
2A4
330
1F
100
AcDbEntity
  8
外形線
100
AcDbCircle
 10
-84.55262829740702
 20
69.46005873631709
 30
0.0
 40
0.1
100
AcDbArc
 50
89.99996835353231
 51
168.9590998382791
  0
ARC
  5
2A5
330
1F
100
AcDbEntity
  8
外形線
100
AcDbCircle
 10
-85.26736792109311
 20
69.46005873631709
 30
0.0
 40
0.1
100
AcDbArc
 50
11.04089151029889
 51
89.99995469315399
  0
ARC
  5
2A6
330
1F
100
AcDbEntity
  8
外形線
100
AcDbCircle
 10
-86.45263473996783
 20
69.46005873631709
 30
0.0
 40
0.1
100
AcDbArc
 50
89.99996835353231
 51
168.9590451967657
  0
ARC
  5
2A7
330
1F
100
AcDbEntity
  8
外形線
100
AcDbCircle
 10
-87.1673743636539
 20
69.46005873631709
 30
0.0
 40
0.1
100
AcDbArc
 50
11.04085052916387
 51
89.99995469315399
  0
ARC
  5
2A8
330
1F
100
AcDbEntity
  8
外形線
100
AcDbCircle
 10
-86.35435916368079
 20
51.1100680846043
 30
0.0
 40
0.1
100
AcDbArc
 50
270.0000179860894
 51
348.9591358104578
  0
ARC
  5
2A9
330
1F
100
AcDbEntity
  8
外形線
100
AcDbCircle
 10
-85.63960158847832
 20
51.1100680846043
 30
0.0
 40
0.1
100
AcDbArc
 50
191.0409411428559
 51
270.0000179860894
  0
ARC
  5
2AA
330
1F
100
AcDbEntity
  8
外形線
100
AcDbCircle
 10
-84.45434374536176
 20
51.1100680846043
 30
0.0
 40
0.1
100
AcDbArc
 50
270.0000179860894
 51
348.9590811689444
  0
ARC
  5
2AB
330
1F
100
AcDbEntity
  8
外形線
100
AcDbCircle
 10
-83.73959514591753
 20
51.11004957210306
 30
0.0
 40
0.1
100
AcDbArc
 50
191.0408865013426
 51
270.0000179860894
  0
ARC
  5
2AC
330
1F
100
AcDbEntity
  8
外形線
100
AcDbCircle
 10
-111.4673771598129
 20
51.11004957210306
 30
0.0
 40
0.1
100
AcDbArc
 50
269.9999770049543
 51
348.9590470179987
  0
ARC
  5
2AD
330
1F
100
AcDbEntity
  8
外形線
100
AcDbCircle
 10
-110.7526240724896
 20
51.11004957210306
 30
0.0
 40
0.1
100
AcDbArc
 50
191.0408591805859
 51
269.999963344576
  0
ARC
  5
2AE
330
1F
100
AcDbEntity
  8
外形線
100
AcDbCircle
 10
-111.5656572239791
 20
69.46004976055892
 30
0.0
 40
0.1
100
AcDbArc
 50
89.99999567428899
 51
168.9591134986574
  0
ARC
  5
2AF
330
1F
100
AcDbEntity
  8
外形線
100
AcDbCircle
 10
-112.2803968476652
 20
69.46004976055892
 30
0.0
 40
0.1
100
AcDbArc
 50
11.04093249143391
 51
90.00000250447817
  0
ARC
  5
2B0
330
1F
100
AcDbEntity
  8
外形線
100
AcDbCircle
 10
-113.4656535688119
 20
69.46004976055892
 30
0.0
 40
0.1
100
AcDbArc
 50
89.99999567428899
 51
168.9590725175224
  0
ARC
  5
2B1
330
1F
100
AcDbEntity
  8
外形線
100
AcDbCircle
 10
-114.180403290226
 20
69.46004976055892
 30
0.0
 40
0.1
100
AcDbArc
 50
11.04087784992055
 51
90.00000250447817
  0
ARC
  5
2B2
330
1F
100
AcDbEntity
  8
外形線
100
AcDbCircle
 10
-80.88486198933535
 20
66.60161690865288
 30
0.0
 40
0.1
100
AcDbArc
 50
207.8341223494912
 51
314.9999987477609
  0
ARC
  5
2B3
330
1F
100
AcDbEntity
  8
外形線
100
AcDbCircle
 10
-76.31916980892997
 20
66.63505665672859
 30
0.0
 40
0.2999999912346112
100
AcDbArc
 50
89.99998201391065
 51
123.6902042837004
  0
ARC
  5
2B4
330
1F
100
AcDbEntity
  8
破線
100
AcDbCircle
 10
-107.5099967944417
 20
46.01929629474607
 30
0.0
 40
0.2999999912346112
100
AcDbArc
 50
179.999991348578
 51
255.963634089789
  0
ARC
  5
2B5
330
1F
100
AcDbEntity
  8
破線
100
AcDbCircle
 10
-107.5099967944417
 20
46.35082489879567
 30
0.0
 40
0.2999999912346112
100
AcDbArc
 50
104.036266645097
 51
179.9999776881997
  0
ARC
  5
2B6
330
1F
100
AcDbEntity
  8
破線
100
AcDbCircle
 10
-107.1099966191339
 20
47.06928946212547
 30
0.0
 40
0.2999999912346112
100
AcDbArc
 50
284.0362616361407
 51
359.9999590188649
  0
ARC
  5
2B7
330
1F
100
AcDbEntity
  8
破線
100
AcDbCircle
 10
-107.1099966191339
 20
45.30081490186971
 30
0.0
 40
0.2999999912346112
100
AcDbArc
 50
359.9999590188649
 51
75.96368372234597
  0
ARC
  5
2B8
330
1F
100
AcDbEntity
  8
破線
100
AcDbCircle
 10
-107.3099989507274
 20
48.50342712799182
 30
0.0
 40
0.5000000087653889
100
AcDbArc
 50
359.9999590188649
 51
58.78155056323521
  0
ARC
  5
2B9
330
1F
100
AcDbEntity
  8
破線
100
AcDbCircle
 10
-90.80999732913047
 20
46.30082094998799
 30
0.0
 40
0.2999999912346112
100
AcDbArc
 50
104.036266645097
 51
179.999991348578
  0
ARC
  5
2BA
330
1F
100
AcDbEntity
  8
破線
100
AcDbCircle
 10
-90.41000164170176
 20
47.01929448907598
 30
0.0
 40
0.2999999912346112
100
AcDbArc
 50
284.036316277654
 51
359.9999590188649
  0
ARC
  5
2BB
330
1F
100
AcDbEntity
  8
破線
100
AcDbCircle
 10
-90.41000164170176
 20
47.35082309312557
 30
0.0
 40
0.2999999912346112
100
AcDbArc
 50
359.9999863396217
 51
75.96368372234597
  0
ARC
  5
2BC
330
1F
100
AcDbEntity
  8
破線
100
AcDbCircle
 10
-90.80999732913047
 20
48.0692786806972
 30
0.0
 40
0.2999999912346112
100
AcDbArc
 50
179.999991348578
 51
255.9636887313023
  0
ARC
  5
2BD
330
1F
100
AcDbEntity
  8
破線
100
AcDbCircle
 10
-90.60999050965795
 20
48.50342712799182
 30
0.0
 40
0.5000000087653889
100
AcDbArc
 50
121.2183998042078
 51
179.999991348578
  0
ARC
  5
2BE
330
1F
100
AcDbEntity
  8
外形線
100
AcDbCircle
 10
-89.78500164827579
 20
45.8776947337355
 30
0.0
 40
0.1
100
AcDbArc
 50
359.9999726792433
 51
78.95909733380095
  0
ARC
  5
2BF
330
1F
100
AcDbEntity
  8
外形線
100
AcDbCircle
 10
-89.78500164827579
 20
46.59243435742159
 30
0.0
 40
0.1
100
AcDbArc
 50
281.0408958360099
 51
359.9999590188649
  0
ARC
  5
2C0
330
1F
100
AcDbEntity
  8
外形線
100
AcDbCircle
 10
-89.78500164827579
 20
47.77768322477995
 30
0.0
 40
0.1
100
AcDbArc
 50
359.9999726792433
 51
78.95904269228758
  0
ARC
  5
2C1
330
1F
100
AcDbEntity
  8
外形線
100
AcDbCircle
 10
-89.78500164827579
 20
48.49243182422421
 30
0.0
 40
0.1
100
AcDbArc
 50
281.0408548548749
 51
359.9999590188649
  0
ARC
  5
2C2
330
1F
100
AcDbEntity
  8
外形線
100
AcDbCircle
 10
-108.1349967878677
 20
47.67941662425108
 30
0.0
 40
0.1
100
AcDbArc
 50
179.999991348578
 51
258.9591091729466
  0
ARC
  5
2C3
330
1F
100
AcDbEntity
  8
外形線
100
AcDbCircle
 10
-108.1349967878677
 20
46.96465904904864
 30
0.0
 40
0.1
100
AcDbArc
 50
101.0409281657229
 51
179.999991348578
  0
ARC
  5
2C4
330
1F
100
AcDbEntity
  8
外形線
100
AcDbCircle
 10
-108.1349967878677
 20
45.77940232790186
 30
0.0
 40
0.1
100
AcDbArc
 50
179.999991348578
 51
258.9590818521897
  0
ARC
  5
2C5
330
1F
100
AcDbEntity
  8
外形線
100
AcDbCircle
 10
-108.1349967878677
 20
45.06466158224602
 30
0.0
 40
0.1
100
AcDbArc
 50
101.0408735242095
 51
179.999991348578
  0
DIMENSION
  5
2C6
330
1F
100
AcDbEntity
  8
寸法線
100
AcDbDimension
280
     0
  2
*D3
 10
-124.7600060375443
 20
106.4424160251587
 30
0.0
 11
-98.96000370595086
 21
106.4424160251587
 31
0.0
 70
   160
  1
L4
 71
     5
 42
51.60000466318689
 73
     0
 74
     0
 75
     0
  3
ISO-25
100
AcDbAlignedDimension
 13
-73.16000137435742
 23
66.93505678820942
 33
0.0
 14
-124.7600060375443
 24
66.93505678820942
 34
0.0
100
AcDbRotatedDimension
1001
ACAD
1000
DSTYLE
1002
{
1070
   278
1070
    46
1070
   147
1040
0.8000000119209291
1070
    77
1070
     1
1070
    74
1070
     0
1070
    73
1070
     0
1070
    42
1040
2.54
1070
    44
1040
2.286
1070
    76
1070
     0
1070
    75
1070
     0
1070
   279
1070
     0
1070
   271
1070
     0
1070
   173
1070
     1
1070
    41
1040
3.0
1070
   140
1040
3.200000047683716
1070
   344
1005
2C7
1070
   343
1005
2C7
1002
}
  0
DIMENSION
  5
2DA
330
1F
100
AcDbEntity
  8
寸法線
100
AcDbDimension
280
     0
  2
*D4
 10
-98.96000370595086
 20
99.2670198833577
 30
0.0
 11
-111.8600048717475
 21
99.2670198833577
 31
0.0
 70
   160
  1
L5
 71
     5
 42
25.80000233159348
 73
     0
 74
     0
 75
     0
  3
ISO-25
100
AcDbAlignedDimension
 13
-124.7600060375443
 23
66.93505678820942
 33
0.0
 14
-98.96000370595086
 24
91.28416146947927
 34
0.0
 50
180.0
100
AcDbRotatedDimension
1001
ACAD
1000
DSTYLE
1002
{
1070
   278
1070
    46
1070
   147
1040
0.8000000119209291
1070
    77
1070
     1
1070
    74
1070
     0
1070
    73
1070
     0
1070
    42
1040
2.54
1070
    44
1040
2.286
1070
    76
1070
     0
1070
    75
1070
     1
1070
   279
1070
     0
1070
   271
1070
     0
1070
   173
1070
     1
1070
    41
1040
3.0
1070
   140
1040
3.200000047683716
1070
   344
1005
2C7
1070
   343
1005
2C7
1002
}
  0
DIMENSION
  5
2E6
330
1F
100
AcDbEntity
  8
寸法線
100
AcDbDimension
280
     0
  2
*D5
 10
-139.4363575791938
 20
60.28505667864206
 30
0.0
 11
-139.4363575791938
 21
46.78505581086857
 31
0.0
 70
   160
  1
L2
 71
     5
 42
27.00000061357722
 73
     0
 74
     0
 75
     0
  3
ISO-25
100
AcDbAlignedDimension
 13
-108.2350069294226
 23
33.28505606506485
 33
0.0
 14
-131.3762101736333
 24
60.28505667864206
 34
0.0
 50
270.0
100
AcDbRotatedDimension
1001
ACAD
1000
DSTYLE
1002
{
1070
   278
1070
    46
1070
   147
1040
0.8000000119209291
1070
    77
1070
     1
1070
    74
1070
     0
1070
    73
1070
     0
1070
    42
1040
2.54
1070
    44
1040
2.286
1070
    76
1070
     0
1070
    75
1070
     1
1070
   279
1070
     0
1070
   271
1070
     0
1070
   173
1070
     1
1070
    41
1040
3.0
1070
   140
1040
3.200000047683716
1070
   344
1005
2C7
1070
   343
1005
2C7
1002
}
  0
DIMENSION
  5
2F2
330
1F
100
AcDbEntity
  8
寸法線
100
AcDbDimension
280
     0
  2
*D6
 10
-139.4363575791938
 20
87.28505280434021
 30
0.0
 11
-139.4363575791938
 21
73.78505418050625
 31
0.0
 70
   160
  1
L2
 71
     5
 42
26.99999612569815
 73
     0
 74
     0
 75
     0
  3
ISO-25
100
AcDbAlignedDimension
 13
-131.3762101736333
 23
60.28505667864206
 33
0.0
 14
-108.2350069294226
 24
87.28505280434021
 34
0.0
 50
270.0
100
AcDbRotatedDimension
1001
ACAD
1000
DSTYLE
1002
{
1070
   278
1070
    46
1070
   147
1040
0.8000000119209291
1070
    77
1070
     1
1070
    74
1070
     0
1070
    73
1070
     0
1070
    42
1040
2.54
1070
    44
1040
2.286
1070
    76
1070
     1
1070
    75
1070
     1
1070
   279
1070
     0
1070
   271
1070
     0
1070
   173
1070
     1
1070
    41
1040
3.0
1070
   140
1040
3.200000047683716
1070
   344
1005
2C7
1070
   343
1005
2C7
1002
}
  0
DIMENSION
  5
2FD
330
1F
100
AcDbEntity
  8
寸法線
100
AcDbDimension
280
     0
  2
*D7
 10
-145.6151709235225
 20
33.28505606506487
 30
0.0
 11
-145.6151709235225
 21
60.28505443470253
 31
0.0
 70
   160
  1
L1
 71
     5
 42
53.99999673927535
 73
     0
 74
     0
 75
     0
  3
ISO-25
100
AcDbAlignedDimension
 13
-108.2350069294226
 23
87.28505280434021
 33
0.0
 14
-108.2350069294226
 24
33.28505606506485
 34
0.0
 50
90.00000000000005
100
AcDbRotatedDimension
1001
ACAD
1000
DSTYLE
1002
{
1070
   278
1070
    46
1070
   147
1040
0.8000000119209291
1070
    77
1070
     1
1070
    74
1070
     0
1070
    73
1070
     0
1070
    42
1040
2.54
1070
    44
1040
2.286
1070
    76
1070
     0
1070
    75
1070
     0
1070
   279
1070
     0
1070
   271
1070
     0
1070
   173
1070
     1
1070
    41
1040
3.0
1070
   140
1040
3.200000047683716
1070
   344
1005
2C7
1070
   343
1005
2C7
1002
}
  0
DIMENSION
  5
30A
330
1F
100
AcDbEntity
  8
寸法線
100
AcDbDimension
280
     0
  2
*D8
 10
-131.914928447637
 20
77.88505990430515
 30
0.0
 11
-131.914928447637
 21
82.5850585982622
 31
0.0
 70
   160
  1
L3
 71
     5
 42
9.39999290003506
 73
     0
 74
     0
 75
     0
  3
ISO-25
100
AcDbAlignedDimension
 13
-108.2350069294226
 23
87.28505280434021
 33
0.0
 14
-108.2350069294226
 24
77.88505990430515
 34
0.0
 50
90.00000000000005
100
AcDbRotatedDimension
1001
ACAD
1000
DSTYLE
1002
{
1070
   278
1070
    46
1070
   147
1040
0.8000000119209291
1070
    77
1070
     1
1070
    74
1070
     0
1070
    73
1070
     0
1070
    42
1040
2.54
1070
    44
1040
0.750003133626478
1070
    76
1070
     0
1070
    75
1070
     1
1070
   279
1070
     0
1070
   271
1070
     0
1070
   173
1070
     1
1070
    41
1040
3.0
1070
   140
1040
3.200000047683716
1070
   344
1005
2C7
1070
   343
1005
2C7
1002
}
  0
DIMENSION
  5
316
330
1F
100
AcDbEntity
  8
寸法線
100
AcDbDimension
280
     0
  2
*D9
 10
-64.42909514797737
 20
53.6350565690747
 30
0.0
 11
-64.42909514797739
 21
60.28505667864206
 31
0.0
 70
   160
  1
∅B
 71
     5
 42
13.30000021913471
 73
     0
 74
     0
 75
     0
  3
ISO-25
100
AcDbAlignedDimension
 13
-74.66000090979179
 23
66.93505678820942
 33
0.0
 14
-74.66000090979179
 24
53.6350565690747
 34
0.0
 50
90.00000000000005
100
AcDbRotatedDimension
1001
ACAD
1000
DSTYLE
1002
{
1070
   278
1070
    46
1070
   147
1040
0.8000000119209291
1070
    77
1070
     1
1070
    74
1070
     0
1070
    73
1070
     0
1070
    42
1040
2.54
1070
    44
1040
0.882352931895468
1070
    76
1070
     0
1070
    75
1070
     0
1070
   279
1070
     0
1070
   271
1070
     0
1070
   173
1070
     1
1070
    41
1040
3.0
1070
   140
1040
3.200000047683716
1070
   344
1005
2C7
1070
   343
1005
2C7
1002
}
  0
DIMENSION
  5
323
330
1F
100
AcDbEntity
  8
寸法線
100
AcDbDimension
280
     0
  2
*D10
 10
-73.16000137435742
 20
99.2670198833577
 30
0.0
 11
-86.06000254015411
 21
99.2670198833577
 31
0.0
 70
   160
  1
L5
 71
     5
 42
25.80000233159343
 73
     0
 74
     0
 75
     0
  3
ISO-25
100
AcDbAlignedDimension
 13
-98.96000370595086
 23
91.28416146947927
 33
0.0
 14
-73.16000137435742
 24
66.93505678820942
 34
0.0
 50
180.0
100
AcDbRotatedDimension
1001
ACAD
1000
DSTYLE
1002
{
1070
   278
1070
    46
1070
   147
1040
0.8000000119209291
1070
    77
1070
     1
1070
    74
1070
     0
1070
    73
1070
     0
1070
    42
1040
2.54
1070
    44
1040
2.286
1070
    76
1070
     1
1070
    75
1070
     1
1070
   279
1070
     0
1070
   271
1070
     0
1070
   173
1070
     1
1070
    41
1040
3.0
1070
   140
1040
3.200000047683716
1070
   344
1005
2C7
1070
   343
1005
2C7
1002
}
  0
DIMENSION
  5
32E
330
1F
100
AcDbEntity
  8
寸法線
100
AcDbDimension
280
     0
  2
*D11
 10
-89.68499375066048
 20
22.33082791849071
 30
0.0
 11
-98.95999921807177
 21
22.33082791849071
 31
0.0
 70
   160
  1
∅A
 71
     5
 42
18.55001093482255
 73
     0
 74
     0
 75
     0
  3
ISO-25
100
AcDbAlignedDimension
 13
-108.235004685483
 23
34.78506233231787
 33
0.0
 14
-89.68499375066048
 24
34.78506008837833
 34
0.0
 50
180.0
100
AcDbRotatedDimension
1001
ACAD
1000
DSTYLE
1002
{
1070
   278
1070
    46
1070
   147
1040
0.8000000119209291
1070
    77
1070
     1
1070
    74
1070
     0
1070
    73
1070
     0
1070
    42
1040
2.54
1070
    44
1040
2.286000000000004
1070
    76
1070
     0
1070
    75
1070
     0
1070
   279
1070
     0
1070
   271
1070
     0
1070
   173
1070
     1
1070
    41
1040
3.0
1070
   140
1040
3.200000047683716
1070
   344
1005
2C7
1070
   343
1005
2C7
1002
}
  0
DIMENSION
  5
33B
330
1F
100
AcDbEntity
  8
寸法線
100
AcDbDimension
280
     0
  2
*D12
 10
-117.5100056650152
 20
92.68957342004005
 30
0.0
 11
-137.04455886526
 21
92.68957342004005
 31
0.0
 70
   160
  1
L6
 71
     5
 42
7.250000372529082
 73
     0
 74
     0
 75
     0
  3
ISO-25
100
AcDbAlignedDimension
 13
-124.7600060375443
 23
108.7284160251587
 33
0.0
 14
-117.5100056650152
 24
66.93505678820942
 34
0.0
 50
180.0
100
AcDbRotatedDimension
1001
ACAD
1000
DSTYLE
1002
{
1070
   278
1070
    46
1070
   147
1040
0.8000000119209291
1070
    77
1070
     1
1070
    74
1070
     0
1070
    73
1070
     0
1070
    42
1040
2.54
1070
    44
1040
2.286
1070
    76
1070
     0
1070
    75
1070
     0
1070
   279
1070
     0
1070
   271
1070
     0
1070
   173
1070
     1
1070
    41
1040
3.0
1070
   140
1040
3.200000047683716
1070
   344
1005
2C7
1070
   343
1005
2C7
1002
}
  0
POINT
  5
353
330
1F
100
AcDbEntity
  8
VIEW0001
 62
     7
100
AcDbPoint
 10
39.28999629404918
 20
-46.23738705550861
 30
0.0
  0
POINT
  5
355
330
1F
100
AcDbEntity
  8
外形線
370
    30
100
AcDbPoint
 10
-149.7850044688903
 20
-46.23738705550861
 30
0.0
  0
LINE
  5
356
330
1F
100
AcDbEntity
  8
外形線
370
    30
100
AcDbLine
 10
-149.7850044688903
 20
-46.23738705550861
 30
0.0
 11
-149.7850044688903
 21
-53.73738705550861
 31
0.0
  0
LINE
  5
357
330
1F
100
AcDbEntity
  8
外形線
370
    30
100
AcDbLine
 10
-237.2100037059508
 20
135.7626129444914
 30
0.0
 11
-237.2100037059508
 21
-53.73738705550861
 31
0.0
  0
LINE
  5
358
330
1F
100
AcDbEntity
  8
外形線
370
    30
100
AcDbLine
 10
-237.2100037059508
 20
-53.73738705550861
 30
0.0
 11
39.28999629404916
 21
-53.73738705550861
 31
0.0
  0
LINE
  5
359
330
1F
100
AcDbEntity
  8
外形線
370
    30
100
AcDbLine
 10
39.28999629404918
 20
135.7626129444914
 30
0.0
 11
39.28999629404918
 21
-53.73738705550861
 31
0.0
  0
LINE
  5
35A
330
1F
100
AcDbEntity
  8
外形線
370
    30
100
AcDbLine
 10
-237.2100037059508
 20
135.7626129444914
 30
0.0
 11
39.28999629404916
 21
135.7626129444914
 31
0.0
  0
LINE
  5
360
330
1F
100
AcDbEntity
  8
VIEW0002
  6
Continuous
 62
     7
100
AcDbLine
 10
-212.9600037059508
 20
-0.841988496657823
 30
0.0
 11
15.0399962940492
 21
-0.841988496657823
 31
0.0
  0
LINE
  5
361
330
1F
100
AcDbEntity
  8
VIEW0002
  6
Continuous
 62
     7
100
AcDbLine
 10
-212.9600037059508
 20
5.158011503342175
 30
0.0
 11
15.0399962940492
 21
5.158011503342175
 31
0.0
  0
LINE
  5
362
330
1F
100
AcDbEntity
  8
VIEW0002
  6
Continuous
 62
     7
100
AcDbLine
 10
-176.9600037059508
 20
11.15801150334218
 30
0.0
 11
-176.9600037059508
 21
-12.84198849665782
 31
0.0
  0
LINE
  5
363
330
1F
100
AcDbEntity
  8
VIEW0002
  6
Continuous
 62
     7
100
AcDbLine
 10
-212.9600037059508
 20
11.15801150334218
 30
0.0
 11
-212.9600037059508
 21
-12.84198849665782
 31
0.0
  0
LINE
  5
364
330
1F
100
AcDbEntity
  8
VIEW0002
  6
Continuous
 62
     7
100
AcDbLine
 10
-152.9600037059508
 20
11.15801150334218
 30
0.0
 11
-152.9600037059508
 21
-12.84198849665782
 31
0.0
  0
LINE
  5
365
330
1F
100
AcDbEntity
  8
VIEW0002
  6
Continuous
 62
     7
100
AcDbLine
 10
-128.9600037059507
 20
11.15801150334218
 30
0.0
 11
-128.9600037059507
 21
-12.84198849665782
 31
0.0
  0
LINE
  5
366
330
1F
100
AcDbEntity
  8
VIEW0002
  6
Continuous
 62
     7
100
AcDbLine
 10
-104.9600037059508
 20
11.15801150334218
 30
0.0
 11
-104.9600037059508
 21
-12.84198849665782
 31
0.0
  0
LINE
  5
367
330
1F
100
AcDbEntity
  8
VIEW0002
  6
Continuous
 62
     7
100
AcDbLine
 10
-80.96000370595081
 20
11.15801150334218
 30
0.0
 11
-80.96000370595081
 21
-12.84198849665782
 31
0.0
  0
LINE
  5
368
330
1F
100
AcDbEntity
  8
VIEW0002
  6
Continuous
 62
     7
100
AcDbLine
 10
-212.9600037059508
 20
-6.841988496657821
 30
0.0
 11
15.0399962940492
 21
-6.841988496657821
 31
0.0
  0
LINE
  5
369
330
1F
100
AcDbEntity
  8
VIEW0002
  6
Continuous
 62
     7
100
AcDbLine
 10
-212.9600037059508
 20
-12.84198849665782
 30
0.0
 11
15.0399962940492
 21
-12.84198849665782
 31
0.0
  0
LINE
  5
36A
330
1F
100
AcDbEntity
  8
VIEW0002
  6
Continuous
 62
     7
100
AcDbLine
 10
-212.9600037059508
 20
11.15801150334218
 30
0.0
 11
15.0399962940492
 21
11.15801150334218
 31
0.0
  0
LINE
  5
36B
330
1F
100
AcDbEntity
  8
VIEW0002
  6
Continuous
 62
     7
100
AcDbLine
 10
-56.96000370595078
 20
11.15801150334218
 30
0.0
 11
-56.96000370595078
 21
-12.84198849665782
 31
0.0
  0
LINE
  5
36C
330
1F
100
AcDbEntity
  8
VIEW0002
  6
Continuous
 62
     7
100
AcDbLine
 10
-32.96000370595083
 20
11.15801150334218
 30
0.0
 11
-32.96000370595083
 21
-12.84198849665782
 31
0.0
  0
LINE
  5
36D
330
1F
100
AcDbEntity
  8
VIEW0002
  6
Continuous
 62
     7
100
AcDbLine
 10
-8.960003705950811
 20
11.15801150334218
 30
0.0
 11
-8.960003705950811
 21
-12.84198849665782
 31
0.0
  0
LINE
  5
36E
330
1F
100
AcDbEntity
  8
VIEW0002
  6
Continuous
 62
     7
100
AcDbLine
 10
15.0399962940492
 20
11.15801150334218
 30
0.0
 11
15.0399962940492
 21
-12.84198849665782
 31
0.0
  0
MTEXT
  5
36F
330
1F
100
AcDbEntity
  8
VIEW0002
 62
     7
100
AcDbMText
 10
-209.4550310867344
 20
0.5580114795003196
 30
0.0
 40
3.200000047683716
 41
0.0
 46
0.0
 71
     7
 72
     1
  1
{\W1;TDW150-100}
 73
     1
 44
1.0
1001
ACAD
1000
MTEXTBEGIN
1070
    73
1070
     1
1070
    44
1040
1.0
1070
    74
1070
     0
1000
MTEXTEND
  0
MTEXT
  5
370
330
1F
100
AcDbEntity
  8
VIEW0002
 62
     7
100
AcDbMText
 10
-164.9600037059508
 20
2.158011503342175
 30
0.0
 40
3.200000047683716
 41
0.0
 46
0.0
 71
     5
 72
     1
  1
{\W1;182}
 73
     1
 44
1.0
1001
ACAD
1000
MTEXTBEGIN
1070
    73
1070
     1
1070
    44
1040
1.0
1070
    74
1070
     0
1000
MTEXTEND
  0
MTEXT
  5
371
330
1F
100
AcDbEntity
  8
VIEW0002
 62
     7
100
AcDbMText
 10
-140.9600037059508
 20
2.158011503342175
 30
0.0
 40
3.200000047683716
 41
0.0
 46
0.0
 71
     5
 72
     1
  1
{\W1;123}
 73
     1
 44
1.0
1001
ACAD
1000
MTEXTBEGIN
1070
    73
1070
     1
1070
    44
1040
1.0
1070
    74
1070
     0
1000
MTEXTEND
  0
MTEXT
  5
372
330
1F
100
AcDbEntity
  8
VIEW0002
 62
     7
100
AcDbMText
 10
-116.9600037059508
 20
2.158011503342175
 30
0.0
 40
3.200000047683716
 41
0.0
 46
0.0
 71
     5
 72
     1
  1
{\W1;540}
 73
     1
 44
1.0
1001
ACAD
1000
MTEXTBEGIN
1070
    73
1070
     1
1070
    44
1040
1.0
1070
    74
1070
     0
1000
MTEXTEND
  0
MTEXT
  5
373
330
1F
100
AcDbEntity
  8
VIEW0002
 62
     7
100
AcDbMText
 10
-92.96000370595079
 20
2.158011503342175
 30
0.0
 40
3.200000047683716
 41
0.0
 46
0.0
 71
     5
 72
     1
  1
{\W1;270}
 73
     1
 44
1.0
1001
ACAD
1000
MTEXTBEGIN
1070
    73
1070
     1
1070
    44
1040
1.0
1070
    74
1070
     0
1000
MTEXTEND
  0
MTEXT
  5
374
330
1F
100
AcDbEntity
  8
VIEW0002
 62
     7
100
AcDbMText
 10
-93.03633697046064
 20
-3.841988496657823
 30
0.0
 40
3.200000047683716
 41
0.0
 46
0.0
 71
     5
 72
     1
  1
{\W1;345}
 73
     1
 44
1.0
1001
ACAD
1000
MTEXTBEGIN
1070
    73
1070
     1
1070
    44
1040
1.0
1070
    74
1070
     0
1000
MTEXTEND
  0
MTEXT
  5
375
330
1F
100
AcDbEntity
  8
VIEW0002
 62
     7
100
AcDbMText
 10
-117.303003641101
 20
-3.841988496657823
 30
0.0
 40
3.200000047683716
 41
0.0
 46
0.0
 71
     5
 72
     1
  1
{\W1;690}
 73
     1
 44
1.0
1001
ACAD
1000
MTEXTBEGIN
1070
    73
1070
     1
1070
    44
1040
1.0
1070
    74
1070
     0
1000
MTEXTEND
  0
MTEXT
  5
376
330
1F
100
AcDbEntity
  8
VIEW0002
 62
     7
100
AcDbMText
 10
-140.9600037059508
 20
-3.841988496657823
 30
0.0
 40
3.200000047683716
 41
0.0
 46
0.0
 71
     5
 72
     1
  1
{\W1;123}
 73
     1
 44
1.0
1001
ACAD
1000
MTEXTBEGIN
1070
    73
1070
     1
1070
    44
1040
1.0
1070
    74
1070
     0
1000
MTEXTEND
  0
MTEXT
  5
377
330
1F
100
AcDbEntity
  8
VIEW0002
 62
     7
100
AcDbMText
 10
-165.0363369704607
 20
-3.841988496657823
 30
0.0
 40
3.200000047683716
 41
0.0
 46
0.0
 71
     5
 72
     1
  1
{\W1;242}
 73
     1
 44
1.0
1001
ACAD
1000
MTEXTBEGIN
1070
    73
1070
     1
1070
    44
1040
1.0
1070
    74
1070
     0
1000
MTEXTEND
  0
MTEXT
  5
378
330
1F
100
AcDbEntity
  8
VIEW0002
 62
     7
100
AcDbMText
 10
-209.4550310867344
 20
-5.44198852049968
 30
0.0
 40
3.200000047683716
 41
0.0
 46
0.0
 71
     7
 72
     1
  1
{\W1;TDW200-100}
 73
     1
 44
1.0
1001
ACAD
1000
MTEXTBEGIN
1070
    73
1070
     1
1070
    44
1040
1.0
1070
    74
1070
     0
1000
MTEXTEND
  0
MTEXT
  5
379
330
1F
100
AcDbEntity
  8
VIEW0002
 62
     7
100
AcDbMText
 10
-209.4550310867344
 20
-11.44198852049968
 30
0.0
 40
3.200000047683716
 41
0.0
 46
0.0
 71
     7
 72
     1
  1
{\W1;TDW200-150}
 73
     1
 44
1.0
1001
ACAD
1000
MTEXTBEGIN
1070
    73
1070
     1
1070
    44
1040
1.0
1070
    74
1070
     0
1000
MTEXTEND
  0
MTEXT
  5
37A
330
1F
100
AcDbEntity
  8
VIEW0002
 62
     7
100
AcDbMText
 10
-165.0363369704607
 20
-9.841988496657819
 30
0.0
 40
3.200000047683716
 41
0.0
 46
0.0
 71
     5
 72
     1
  1
{\W1;242}
 73
     1
 44
1.0
1001
ACAD
1000
MTEXTBEGIN
1070
    73
1070
     1
1070
    44
1040
1.0
1070
    74
1070
     0
1000
MTEXTEND
  0
MTEXT
  5
37B
330
1F
100
AcDbEntity
  8
VIEW0002
 62
     7
100
AcDbMText
 10
-140.9600037059508
 20
-9.841988496657819
 30
0.0
 40
3.200000047683716
 41
0.0
 46
0.0
 71
     5
 72
     1
  1
{\W1;182}
 73
     1
 44
1.0
1001
ACAD
1000
MTEXTBEGIN
1070
    73
1070
     1
1070
    44
1040
1.0
1070
    74
1070
     0
1000
MTEXTEND
  0
MTEXT
  5
37C
330
1F
100
AcDbEntity
  8
VIEW0002
 62
     7
100
AcDbMText
 10
-117.303003641101
 20
-9.841988496657819
 30
0.0
 40
3.200000047683716
 41
0.0
 46
0.0
 71
     5
 72
     1
  1
{\W1;690}
 73
     1
 44
1.0
1001
ACAD
1000
MTEXTBEGIN
1070
    73
1070
     1
1070
    44
1040
1.0
1070
    74
1070
     0
1000
MTEXTEND
  0
MTEXT
  5
37D
330
1F
100
AcDbEntity
  8
VIEW0002
 62
     7
100
AcDbMText
 10
-93.03633697046064
 20
-9.841988496657819
 30
0.0
 40
3.200000047683716
 41
0.0
 46
0.0
 71
     5
 72
     1
  1
{\W1;345}
 73
     1
 44
1.0
1001
ACAD
1000
MTEXTBEGIN
1070
    73
1070
     1
1070
    44
1040
1.0
1070
    74
1070
     0
1000
MTEXTEND
  0
MTEXT
  5
381
330
1F
100
AcDbEntity
  8
VIEW0002
 62
     7
100
AcDbMText
 10
-93.03633700026301
 20
8.158011503342175
 30
0.0
 40
3.200000047683716
 41
0.0
 46
0.0
 71
     5
 72
     1
  1
{\W1;L2}
 73
     1
 44
1.0
1001
ACAD
1000
MTEXTBEGIN
1070
    73
1070
     1
1070
    44
1040
1.0
1070
    74
1070
     0
1000
MTEXTEND
  0
MTEXT
  5
382
330
1F
100
AcDbEntity
  8
VIEW0002
 62
     7
100
AcDbMText
 10
-116.9600037059508
 20
8.158011503342175
 30
0.0
 40
3.200000047683716
 41
0.0
 46
0.0
 71
     5
 72
     1
  1
{\W1;L1}
 73
     1
 44
1.0
1001
ACAD
1000
MTEXTBEGIN
1070
    73
1070
     1
1070
    44
1040
1.0
1070
    74
1070
     0
1000
MTEXTEND
  0
MTEXT
  5
383
330
1F
100
AcDbEntity
  8
VIEW0002
 62
     7
100
AcDbMText
 10
-141.0363370002629
 20
8.158011503342175
 30
0.0
 40
3.200000047683716
 41
0.0
 46
0.0
 71
     5
 72
     1
  1
{\W1;∅B}
 73
     1
 44
1.0
1001
ACAD
1000
MTEXTBEGIN
1070
    73
1070
     1
1070
    44
1040
1.0
1070
    74
1070
     0
1000
MTEXTEND
  0
MTEXT
  5
384
330
1F
100
AcDbEntity
  8
VIEW0002
 62
     7
100
AcDbMText
 10
-165.0363370002629
 20
8.158011503342175
 30
0.0
 40
3.200000047683716
 41
0.0
 46
0.0
 71
     5
 72
     1
  1
{\W1;∅A}
 73
     1
 44
1.0
1001
ACAD
1000
MTEXTBEGIN
1070
    73
1070
     1
1070
    44
1040
1.0
1070
    74
1070
     0
1000
MTEXTEND
  0
MTEXT
  5
385
330
1F
100
AcDbEntity
  8
VIEW0002
 62
     7
100
AcDbMText
 10
-194.8585615780093
 20
8.158011503342178
 30
0.0
 40
3.200000047683716
 41
0.0
 46
0.0
 71
     5
 72
     1
  1
{\W0.833333;規　　格}
 73
     1
 44
1.0
1001
ACAD
1000
MTEXTBEGIN
1070
    73
1070
     1
1070
    44
1040
1.0
1070
    74
1070
     0
1000
MTEXTEND
  0
MTEXT
  5
386
330
1F
100
AcDbEntity
  8
VIEW0002
 62
     7
100
AcDbMText
 10
-68.96000370595082
 20
-9.841988496657819
 30
0.0
 40
3.200000047683716
 41
0.0
 46
0.0
 71
     5
 72
     1
  1
{\W1;118}
 73
     1
 44
1.0
1001
ACAD
1000
MTEXTBEGIN
1070
    73
1070
     1
1070
    44
1040
1.0
1070
    74
1070
     0
1000
MTEXTEND
  0
MTEXT
  5
387
330
1F
100
AcDbEntity
  8
VIEW0002
 62
     7
100
AcDbMText
 10
-68.96000370595082
 20
-3.841988496657823
 30
0.0
 40
3.200000047683716
 41
0.0
 46
0.0
 71
     5
 72
     1
  1
{\W1;118}
 73
     1
 44
1.0
1001
ACAD
1000
MTEXTBEGIN
1070
    73
1070
     1
1070
    44
1040
1.0
1070
    74
1070
     0
1000
MTEXTEND
  0
MTEXT
  5
388
330
1F
100
AcDbEntity
  8
VIEW0002
 62
     7
100
AcDbMText
 10
-69.03633700026296
 20
2.158011503342176
 30
0.0
 40
3.200000047683716
 41
0.0
 46
0.0
 71
     5
 72
     1
  1
{\W1;94}
 73
     1
 44
1.0
1001
ACAD
1000
MTEXTBEGIN
1070
    73
1070
     1
1070
    44
1040
1.0
1070
    74
1070
     0
1000
MTEXTEND
  0
MTEXT
  5
389
330
1F
100
AcDbEntity
  8
VIEW0002
 62
     7
100
AcDbMText
 10
-69.03633700026296
 20
8.158011503342175
 30
0.0
 40
3.200000047683716
 41
0.0
 46
0.0
 71
     5
 72
     1
  1
{\W1;L3}
 73
     1
 44
1.0
1001
ACAD
1000
MTEXTBEGIN
1070
    73
1070
     1
1070
    44
1040
1.0
1070
    74
1070
     0
1000
MTEXTEND
  0
MTEXT
  5
38A
330
1F
100
AcDbEntity
  8
VIEW0002
 62
     7
100
AcDbMText
 10
-45.03633700026295
 20
8.158011503342175
 30
0.0
 40
3.200000047683716
 41
0.0
 46
0.0
 71
     5
 72
     1
  1
{\W1;L4}
 73
     1
 44
1.0
1001
ACAD
1000
MTEXTBEGIN
1070
    73
1070
     1
1070
    44
1040
1.0
1070
    74
1070
     0
1000
MTEXTEND
  0
MTEXT
  5
38B
330
1F
100
AcDbEntity
  8
VIEW0002
 62
     7
100
AcDbMText
 10
-44.96000370595083
 20
2.158011503342175
 30
0.0
 40
3.200000047683716
 41
0.0
 46
0.0
 71
     5
 72
     1
  1
{\W1;516}
 73
     1
 44
1.0
1001
ACAD
1000
MTEXTBEGIN
1070
    73
1070
     1
1070
    44
1040
1.0
1070
    74
1070
     0
1000
MTEXTEND
  0
MTEXT
  5
38C
330
1F
100
AcDbEntity
  8
VIEW0002
 62
     7
100
AcDbMText
 10
-44.96000370595083
 20
-3.841988496657823
 30
0.0
 40
3.200000047683716
 41
0.0
 46
0.0
 71
     5
 72
     1
  1
{\W1;630}
 73
     1
 44
1.0
1001
ACAD
1000
MTEXTBEGIN
1070
    73
1070
     1
1070
    44
1040
1.0
1070
    74
1070
     0
1000
MTEXTEND
  0
MTEXT
  5
38D
330
1F
100
AcDbEntity
  8
VIEW0002
 62
     7
100
AcDbMText
 10
-45.03633697046065
 20
-9.841988496657819
 30
0.0
 40
3.200000047683716
 41
0.0
 46
0.0
 71
     5
 72
     1
  1
{\W1;658}
 73
     1
 44
1.0
1001
ACAD
1000
MTEXTBEGIN
1070
    73
1070
     1
1070
    44
1040
1.0
1070
    74
1070
     0
1000
MTEXTEND
  0
MTEXT
  5
38E
330
1F
100
AcDbEntity
  8
VIEW0002
 62
     7
100
AcDbMText
 10
-21.03633700026297
 20
8.158011503342175
 30
0.0
 40
3.200000047683716
 41
0.0
 46
0.0
 71
     5
 72
     1
  1
{\W1;L5}
 73
     1
 44
1.0
1001
ACAD
1000
MTEXTBEGIN
1070
    73
1070
     1
1070
    44
1040
1.0
1070
    74
1070
     0
1000
MTEXTEND
  0
MTEXT
  5
38F
330
1F
100
AcDbEntity
  8
VIEW0002
 62
     7
100
AcDbMText
 10
-21.03633697046065
 20
2.158011503342176
 30
0.0
 40
3.200000047683716
 41
0.0
 46
0.0
 71
     5
 72
     1
  1
{\W1;258}
 73
     1
 44
1.0
1001
ACAD
1000
MTEXTBEGIN
1070
    73
1070
     1
1070
    44
1040
1.0
1070
    74
1070
     0
1000
MTEXTEND
  0
MTEXT
  5
390
330
1F
100
AcDbEntity
  8
VIEW0002
 62
     7
100
AcDbMText
 10
-20.96000370595084
 20
-3.841988496657823
 30
0.0
 40
3.200000047683716
 41
0.0
 46
0.0
 71
     5
 72
     1
  1
{\W1;315}
 73
     1
 44
1.0
1001
ACAD
1000
MTEXTBEGIN
1070
    73
1070
     1
1070
    44
1040
1.0
1070
    74
1070
     0
1000
MTEXTEND
  0
MTEXT
  5
391
330
1F
100
AcDbEntity
  8
VIEW0002
 62
     7
100
AcDbMText
 10
-21.03633697046065
 20
-9.841988496657819
 30
0.0
 40
3.200000047683716
 41
0.0
 46
0.0
 71
     5
 72
     1
  1
{\W1;329}
 73
     1
 44
1.0
1001
ACAD
1000
MTEXTBEGIN
1070
    73
1070
     1
1070
    44
1040
1.0
1070
    74
1070
     0
1000
MTEXTEND
  0
MTEXT
  5
392
330
1F
100
AcDbEntity
  8
VIEW0002
 62
     7
100
AcDbMText
 10
2.963662999737028
 20
8.158011503342175
 30
0.0
 40
3.200000047683716
 41
0.0
 46
0.0
 71
     5
 72
     1
  1
{\W1;L6}
 73
     1
 44
1.0
1001
ACAD
1000
MTEXTBEGIN
1070
    73
1070
     1
1070
    44
1040
1.0
1070
    74
1070
     0
1000
MTEXTEND
  0
MTEXT
  5
393
330
1F
100
AcDbEntity
  8
VIEW0002
 62
     7
100
AcDbMText
 10
2.963662999737028
 20
2.158011503342176
 30
0.0
 40
3.200000047683716
 41
0.0
 46
0.0
 71
     5
 72
     1
  1
{\W1;73}
 73
     1
 44
1.0
1001
ACAD
1000
MTEXTBEGIN
1070
    73
1070
     1
1070
    44
1040
1.0
1070
    74
1070
     0
1000
MTEXTEND
  0
MTEXT
  5
394
330
1F
100
AcDbEntity
  8
VIEW0002
 62
     7
100
AcDbMText
 10
2.963662999737028
 20
-3.841988496657823
 30
0.0
 40
3.200000047683716
 41
0.0
 46
0.0
 71
     5
 72
     1
  1
{\W1;73}
 73
     1
 44
1.0
1001
ACAD
1000
MTEXTBEGIN
1070
    73
1070
     1
1070
    44
1040
1.0
1070
    74
1070
     0
1000
MTEXTEND
  0
MTEXT
  5
395
330
1F
100
AcDbEntity
  8
VIEW0002
 62
     7
100
AcDbMText
 10
2.963662999737028
 20
-9.841988496657819
 30
0.0
 40
3.200000047683716
 41
0.0
 46
0.0
 71
     5
 72
     1
  1
{\W1;94}
 73
     1
 44
1.0
1001
ACAD
1000
MTEXTBEGIN
1070
    73
1070
     1
1070
    44
1040
1.0
1070
    74
1070
     0
1000
MTEXTEND
  0
MTEXT
  5
396
330
1F
100
AcDbEntity
  8
VIEW0002
 62
     7
100
AcDbMText
 10
-1.741529873694588
 20
-17.69226661327163
 30
0.0
 40
3.200000047683716
 41
0.0
 46
0.0
 71
     7
 72
     1
  1
{\W1;(mm)}
 73
     1
 44
1.0
1001
ACAD
1000
MTEXTBEGIN
1070
    73
1070
     1
1070
    44
1040
1.0
1070
    74
1070
     0
1000
MTEXTEND
  0
TEXT
  5
3B3
330
1F
100
AcDbEntity
  8
VIEW0001
 62
     7
100
AcDbText
 10
-125.608604758074
 20
-51.58738707935047
 30
0.0
 40
3.200000047683716
  1
十字管-2（トヨト゛レンダブル管用）
 41
0.833333
 72
     4
 11
-98.49750408742055
 21
-49.98738705550861
 31
0.0
100
AcDbText
  0
LINE
  5
3B6
330
1F
100
AcDbEntity
  8
外形線
370
    30
100
AcDbLine
 10
39.28999629404916
 20
-46.23738705550861
 30
0.0
 11
-149.7850044688903
 21
-46.23738705550861
 31
0.0
  0
LINE
  5
3B7
330
1F
100
AcDbEntity
  8
外形線
370
    30
100
AcDbLine
 10
-47.21000370595083
 20
-53.73738705550861
 30
0.0
 11
-47.21000370595083
 21
-46.23738705550861
 31
0.0
  0
MTEXT
  5
486
330
1F
100
AcDbEntity
  8
VIEW0002
 62
     7
100
AcDbMText
 10
-157.0696659725087
 20
-26.2747340375999
 30
0.0
 40
3.200000047683714
 41
0.0
 46
0.0
 71
     7
 72
     1
  1
{\W0.833333;*形状は規格毎に異なります。}
 73
     1
 44
1.0
1001
ACAD
1000
MTEXTBEGIN
1070
    73
1070
     1
1070
    44
1040
1.0
1070
    74
1070
     0
1000
MTEXTEND
  0
MTEXT
  5
487
330
1F
100
AcDbEntity
  8
VIEW0002
 62
     7
100
AcDbMText
 10
-156.9296781086376
 20
-31.27262356288833
 30
0.0
 40
3.200000047683714
 41
0.0
 46
0.0
 71
     7
 72
     1
  1
{\W0.833333;*ストッパ－の位置及び数は、規格毎に異なります。}
 73
     1
 44
1.0
1001
ACAD
1000
MTEXTBEGIN
1070
    73
1070
     1
1070
    44
1040
1.0
1070
    74
1070
     0
1000
MTEXTEND
  0
MTEXT
  5
488
330
1F
100
AcDbEntity
  8
VIEW0002
 62
     7
100
AcDbMText
 10
-157.1644556558798
 20
-36.50261985227635
 30
0.0
 40
3.200000047683714
 41
0.0
 46
0.0
 71
     7
 72
     1
  1
{\W0.8333;*寸法、仕様等は製品改良の為、予告無く変更する場合があります。（Ｈ２４．６）}
 73
     1
 44
1.0
1001
ACAD
1000
ACAD_MTEXT_DEFINED_HEIGHT_BEGIN
1070
    46
1040
0.0
1000
ACAD_MTEXT_DEFINED_HEIGHT_END
1000
MTEXTBEGIN
1070
    73
1070
     1
1070
    44
1040
1.0
1070
    74
1070
     0
1000
MTEXTEND
  0
MTEXT
  5
59E
330
1F
100
AcDbEntity
  8
VIEW0001
 62
     7
100
AcDbMText
 10
-39.31714830014337
 20
-52.23738705550861
 30
0.0
 40
4.5
 41
0.0
 46
0.0
 71
     7
 72
     1
  1
{\W1.3889;　デンカ株式会社}
 73
     1
 44
1.0
  0
ENDSEC
  0
SECTION
  2
OBJECTS
  0
DICTIONARY
  5
C
330
0
100
AcDbDictionary
281
     1
  3
ACAD_CIP_PREVIOUS_PRODUCT_INFO
350
595
  3
ACAD_COLOR
350
39A
  3
ACAD_DETAILVIEWSTYLE
350
592
  3
ACAD_GROUP
350
D
  3
ACAD_LAYOUT
350
1A
  3
ACAD_MATERIAL
350
399
  3
ACAD_MLEADERSTYLE
350
58E
  3
ACAD_MLINESTYLE
350
17
  3
ACAD_PLOTSETTINGS
350
19
  3
ACAD_PLOTSTYLENAME
350
E
  3
ACAD_SCALELIST
350
57C
  3
ACAD_SECTIONVIEWSTYLE
350
590
  3
ACAD_TABLESTYLE
350
39B
  3
ACAD_VISUALSTYLE
350
563
  3
ACDB_RECOMPOSE_DATA
350
5F9
  3
AcDbVariableDictionary
350
3A2
  0
DICTIONARY
  5
59F
330
10
100
AcDbDictionary
280
     1
281
     1
  3
ADSK_XREC_LAYER_RECONCILED
360
5A0
  0
DICTIONARY
  5
5A1
330
352
100
AcDbDictionary
280
     1
281
     1
  3
ADSK_XREC_LAYER_RECONCILED
360
5A2
  0
DICTIONARY
  5
5A3
330
35F
100
AcDbDictionary
280
     1
281
     1
  3
ADSK_XREC_LAYER_RECONCILED
360
5A4
  0
DICTIONARY
  5
5A5
330
3A6
100
AcDbDictionary
280
     1
281
     1
  3
ADSK_XREC_LAYER_RECONCILED
360
5A6
  0
DICTIONARY
  5
5A7
330
3A7
100
AcDbDictionary
280
     1
281
     1
  3
ADSK_XREC_LAYER_RECONCILED
360
5A8
  0
DICTIONARY
  5
5A9
330
3A8
100
AcDbDictionary
280
     1
281
     1
  3
ADSK_XREC_LAYER_RECONCILED
360
5AA
  0
DICTIONARY
  5
5AB
330
3A9
100
AcDbDictionary
280
     1
281
     1
  3
ADSK_XREC_LAYER_RECONCILED
360
5AC
  0
DICTIONARY
  5
5AD
330
3AA
100
AcDbDictionary
280
     1
281
     1
  3
ADSK_XREC_LAYER_RECONCILED
360
5AE
  0
DICTIONARY
  5
5AF
330
3AB
100
AcDbDictionary
280
     1
281
     1
  3
ADSK_XREC_LAYER_RECONCILED
360
5B0
  0
DICTIONARY
  5
5B1
330
3AC
100
AcDbDictionary
280
     1
281
     1
  3
ADSK_XREC_LAYER_RECONCILED
360
5B2
  0
DICTIONARY
  5
3B4
330
1F
100
AcDbDictionary
280
     1
281
     1
  3
ACAD_SORTENTS
360
3B5
  0
XRECORD
  5
595
102
{ACAD_REACTORS
330
C
102
}
330
C
100
AcDbXrecord
280
     1
300
ACDLT
300
2015
300
INVLTS_F_S
  0
DICTIONARY
  5
39A
102
{ACAD_REACTORS
330
C
102
}
330
C
100
AcDbDictionary
281
     1
  0
DICTIONARY
  5
592
102
{ACAD_REACTORS
330
C
102
}
330
C
100
AcDbDictionary
281
     1
  3
Metric50
350
593
  0
DICTIONARY
  5
D
102
{ACAD_REACTORS
330
C
102
}
330
C
100
AcDbDictionary
281
     1
  0
DICTIONARY
  5
1A
102
{ACAD_REACTORS
330
C
102
}
330
C
100
AcDbDictionary
281
     1
  3
Layout1
350
1E
  3
Layout2
350
26
  3
Model
350
22
  0
DICTIONARY
  5
399
102
{ACAD_REACTORS
330
C
102
}
330
C
100
AcDbDictionary
281
     1
  3
ByBlock
350
553
  3
ByLayer
350
54B
  3
Global
350
55B
  0
DICTIONARY
  5
58E
102
{ACAD_REACTORS
330
C
102
}
330
C
100
AcDbDictionary
281
     1
  3
Standard
350
58F
  0
DICTIONARY
  5
17
102
{ACAD_REACTORS
330
C
102
}
330
C
100
AcDbDictionary
281
     1
  3
Standard
350
18
  0
DICTIONARY
  5
19
102
{ACAD_REACTORS
330
C
102
}
330
C
100
AcDbDictionary
281
     1
  0
ACDBDICTIONARYWDFLT
  5
E
102
{ACAD_REACTORS
330
C
102
}
330
C
100
AcDbDictionary
281
     1
  3
Normal
350
F
100
AcDbDictionaryWithDefault
340
F
  0
DICTIONARY
  5
57C
102
{ACAD_REACTORS
330
C
102
}
330
C
100
AcDbDictionary
281
     1
  3
A0
350
57D
  3
A1
350
57E
  3
A2
350
57F
  3
A3
350
580
  3
A4
350
581
  3
A5
350
582
  3
A6
350
583
  3
A7
350
584
  3
A8
350
585
  3
A9
350
586
  3
B0
350
587
  3
B1
350
588
  3
B2
350
589
  3
B3
350
58A
  3
B4
350
58B
  3
B5
350
58C
  3
B6
350
58D
  0
DICTIONARY
  5
590
102
{ACAD_REACTORS
330
C
102
}
330
C
100
AcDbDictionary
281
     1
  3
Metric50
350
591
  0
DICTIONARY
  5
39B
102
{ACAD_REACTORS
330
C
102
}
330
C
100
AcDbDictionary
281
     1
  3
Standard
350
39C
  0
DICTIONARY
  5
563
102
{ACAD_REACTORS
330
C
102
}
330
C
100
AcDbDictionary
281
     1
  3
2dWireframe
350
569
  3
Basic
350
568
  3
Brighten
350
56F
  3
ColorChange
350
573
  3
Conceptual
350
56C
  3
Dim
350
56E
  3
EdgeColorOff
350
57B
  3
Facepattern
350
572
  3
Flat
350
564
  3
FlatWithEdges
350
565
  3
Gouraud
350
566
  3
GouraudWithEdges
350
567
  3
Hidden
350
56B
  3
JitterOff
350
579
  3
Linepattern
350
571
  3
OverhangOff
350
57A
  3
Realistic
350
56D
  3
Shaded
350
578
  3
Shaded with edges
350
577
  3
Shades of Gray
350
574
  3
Sketchy
350
575
  3
Thicken
350
570
  3
Wireframe
350
56A
  3
X-Ray
350
576
  0
XRECORD
  5
5F9
102
{ACAD_REACTORS
330
C
102
}
330
C
100
AcDbXrecord
280
     1
 90
        1
330
39C
  0
DICTIONARY
  5
3A2
102
{ACAD_REACTORS
330
C
102
}
330
C
100
AcDbDictionary
281
     1
  3
CANNOSCALE
350
5F3
  3
CMLEADERSTYLE
350
5EF
  3
CTABLESTYLE
350
3A3
  3
CVIEWDETAILSTYLE
350
5F0
  3
CVIEWSECTIONSTYLE
350
5F1
  3
DIMASSOC
350
462
  3
LAYEREVAL
350
5F5
  3
LAYERNOTIFY
350
5F6
  3
LIGHTINGUNITS
350
5F4
  3
MSLTSCALE
350
5F2
  3
PROJECTNAME
350
463
  0
XRECORD
  5
5A0
102
{ACAD_REACTORS
330
59F
102
}
330
59F
100
AcDbXrecord
280
     1
290
     1
  0
XRECORD
  5
5A2
102
{ACAD_REACTORS
330
5A1
102
}
330
5A1
100
AcDbXrecord
280
     1
290
     1
  0
XRECORD
  5
5A4
102
{ACAD_REACTORS
330
5A3
102
}
330
5A3
100
AcDbXrecord
280
     1
290
     1
  0
XRECORD
  5
5A6
102
{ACAD_REACTORS
330
5A5
102
}
330
5A5
100
AcDbXrecord
280
     1
290
     1
  0
XRECORD
  5
5A8
102
{ACAD_REACTORS
330
5A7
102
}
330
5A7
100
AcDbXrecord
280
     1
290
     1
  0
XRECORD
  5
5AA
102
{ACAD_REACTORS
330
5A9
102
}
330
5A9
100
AcDbXrecord
280
     1
290
     1
  0
XRECORD
  5
5AC
102
{ACAD_REACTORS
330
5AB
102
}
330
5AB
100
AcDbXrecord
280
     1
290
     1
  0
XRECORD
  5
5AE
102
{ACAD_REACTORS
330
5AD
102
}
330
5AD
100
AcDbXrecord
280
     1
290
     1
  0
XRECORD
  5
5B0
102
{ACAD_REACTORS
330
5AF
102
}
330
5AF
100
AcDbXrecord
280
     1
290
     1
  0
XRECORD
  5
5B2
102
{ACAD_REACTORS
330
5B1
102
}
330
5B1
100
AcDbXrecord
280
     1
290
     1
  0
SORTENTSTABLE
  5
3B5
102
{ACAD_REACTORS
330
3B4
102
}
330
3B4
100
AcDbSortentsTable
330
1F
331
22C
  5
22C
331
26B
  5
26B
331
17F
  5
17F
331
1B6
  5
1B6
331
109
  5
109
331
140
  5
140
331
1F5
  5
1F5
331
2B6
  5
2B6
331
5C
  5
5C
331
CA
  5
CA
331
234
  5
234
331
273
  5
273
331
187
  5
187
331
1BE
  5
1BE
331
D2
  5
D2
331
148
  5
148
331
1FD
  5
1FD
331
23C
  5
23C
331
1C6
  5
1C6
331
64
  5
64
331
358
  5
358
331
27F
  5
27F
331
2BE
  5
2BE
331
395
  5
499
331
150
  5
150
331
9B
  5
9B
331
DA
  5
DA
331
111
  5
111
331
287
  5
287
331
366
  5
371
331
6C
  5
6C
331
1CE
  5
1CE
331
205
  5
205
331
119
  5
119
331
158
  5
158
331
36E
  5
379
331
74
  5
74
331
A3
  5
A3
331
E2
  5
E2
331
2C0
  5
2C0
331
28F
  5
28F
331
18F
  5
18F
331
244
  5
244
331
24C
  5
24C
331
1D6
  5
1D6
331
20D
  5
20D
331
121
  5
121
331
160
  5
160
331
3D
  5
3D
331
376
  5
384
331
7C
  5
7C
331
AB
  5
AB
331
EA
  5
EA
331
297
  5
297
331
197
  5
197
331
254
  5
254
331
19F
  5
19F
331
1DE
  5
1DE
331
F2
  5
F2
331
129
  5
129
331
B3
  5
B3
331
168
  5
168
331
215
  5
215
331
21D
  5
21D
331
25C
  5
25C
331
1A7
  5
1A7
331
1E6
  5
1E6
331
323
  5
323
331
29F
  5
29F
331
45
  5
45
331
84
  5
84
331
170
  5
170
331
BB
  5
BB
331
FA
  5
FA
331
131
  5
131
331
4D
  5
4D
331
33B
  5
33B
331
2A7
  5
2A7
331
386
  5
391
331
8C
  5
8C
331
1EE
  5
1EE
331
225
  5
225
331
178
  5
178
331
1AF
  5
1AF
331
264
  5
264
331
94
  5
94
331
C3
  5
C3
331
102
  5
102
331
38E
  5
3B7
331
3B3
  5
362
331
2AF
  5
2AF
331
55
  5
55
331
139
  5
139
331
1F6
  5
1F6
331
22D
  5
22D
331
141
  5
141
331
180
  5
180
331
CB
  5
CB
331
10A
  5
10A
331
1B7
  5
1B7
331
2B7
  5
2B7
331
5D
  5
5D
331
26C
  5
26C
331
274
  5
274
331
1BF
  5
1BF
331
149
  5
149
331
1FE
  5
1FE
331
D3
  5
D3
331
235
  5
235
331
23D
  5
23D
331
1C7
  5
1C7
331
278
  5
278
331
65
  5
65
331
2BF
  5
2BF
331
396
  5
49A
331
359
  5
359
331
280
  5
280
331
36
  5
36
331
188
  5
188
331
112
  5
112
331
151
  5
151
331
6D
  5
6D
331
9C
  5
9C
331
288
  5
288
331
367
  5
372
331
486
  5
49B
331
DB
  5
DB
331
245
  5
245
331
190
  5
190
331
1CF
  5
1CF
331
E3
  5
E3
331
11A
  5
11A
331
2C1
  5
2C1
331
290
  5
290
331
36F
  5
37A
331
75
  5
75
331
A4
  5
A4
331
159
  5
159
331
206
  5
206
331
20E
  5
20E
331
24D
  5
24D
331
161
  5
161
331
198
  5
198
331
AC
  5
AC
331
EB
  5
EB
331
122
  5
122
331
1D7
  5
1D7
331
3E
  5
3E
331
377
  5
385
331
7D
  5
7D
331
1DF
  5
1DF
331
216
  5
216
331
12A
  5
12A
331
169
  5
169
331
B4
  5
B4
331
F3
  5
F3
331
1A0
  5
1A0
331
255
  5
255
331
25D
  5
25D
331
1E7
  5
1E7
331
21E
  5
21E
331
298
  5
298
331
85
  5
85
331
2A0
  5
2A0
331
46
  5
46
331
132
  5
132
331
171
  5
171
331
4E
  5
4E
331
387
  5
392
331
8D
  5
8D
331
BC
  5
BC
331
FB
  5
FB
331
2A8
  5
2A8
331
1A8
  5
1A8
331
265
  5
265
331
1B0
  5
1B0
331
1EF
  5
1EF
331
103
  5
103
331
13A
  5
13A
331
56
  5
56
331
2B0
  5
2B0
331
38F
  5
486
331
95
  5
95
331
C4
  5
C4
331
179
  5
179
331
226
  5
226
331
22E
  5
22E
331
26D
  5
26D
331
181
  5
181
331
1B8
  5
1B8
331
CC
  5
CC
331
10B
  5
10B
331
5E
  5
5E
331
142
  5
142
331
1F7
  5
1F7
331
1FF
  5
1FF
331
236
  5
236
331
1C0
  5
1C0
331
275
  5
275
331
D4
  5
D4
331
14A
  5
14A
331
23E
  5
23E
331
279
  5
279
331
2B8
  5
2B8
331
37
  5
37
331
281
  5
281
331
2FD
  5
2FD
331
35A
  5
35A
331
360
  5
363
331
66
  5
66
331
152
  5
152
331
189
  5
189
331
9D
  5
9D
331
DC
  5
DC
331
113
  5
113
331
1C8
  5
1C8
331
487
  5
49C
331
289
  5
289
331
368
  5
373
331
6E
  5
6E
331
1D0
  5
1D0
331
207
  5
207
331
11B
  5
11B
331
15A
  5
15A
331
370
  5
37B
331
76
  5
76
331
A5
  5
A5
331
E4
  5
E4
331
291
  5
291
331
2C2
  5
2C2
331
191
  5
191
331
246
  5
246
331
24E
  5
24E
331
199
  5
199
331
1D8
  5
1D8
331
123
  5
123
331
162
  5
162
331
20F
  5
20F
331
3F
  5
3F
331
7E
  5
7E
331
AD
  5
AD
331
EC
  5
EC
331
256
  5
256
331
1A1
  5
1A1
331
1E0
  5
1E0
331
F4
  5
F4
331
12B
  5
12B
331
B5
  5
B5
331
16A
  5
16A
331
217
  5
217
331
21F
  5
21F
331
25E
  5
25E
331
2DA
  5
2DA
331
299
  5
299
331
378
  5
386
331
2A1
  5
2A1
331
47
  5
47
331
86
  5
86
331
172
  5
172
331
1A9
  5
1A9
331
BD
  5
BD
331
FC
  5
FC
331
133
  5
133
331
1E8
  5
1E8
331
4F
  5
4F
331
2F2
  5
2F2
331
2A9
  5
2A9
331
388
  5
393
331
8E
  5
8E
331
1F0
  5
1F0
331
227
  5
227
331
13B
  5
13B
331
17A
  5
17A
331
96
  5
96
331
C5
  5
C5
331
104
  5
104
331
1B1
  5
1B1
331
2B1
  5
2B1
331
57
  5
57
331
266
  5
266
331
26E
  5
26E
331
1F8
  5
1F8
331
22F
  5
22F
331
143
  5
143
331
182
  5
182
331
5F
  5
5F
331
CD
  5
CD
331
10C
  5
10C
331
1B9
  5
1B9
331
276
  5
276
331
1C1
  5
1C1
331
14B
  5
14B
331
D5
  5
D5
331
237
  5
237
331
23F
  5
23F
331
390
  5
487
331
27A
  5
27A
331
353
  5
353
331
2B9
  5
2B9
331
361
  5
364
331
67
  5
67
331
282
  5
282
331
18A
  5
18A
331
1C9
  5
1C9
331
DD
  5
DD
331
114
  5
114
331
6F
  5
6F
331
9E
  5
9E
331
153
  5
153
331
28A
  5
28A
331
369
  5
374
331
488
  5
49D
331
200
  5
200
331
208
  5
208
331
247
  5
247
331
192
  5
192
331
1D1
  5
1D1
331
E5
  5
E5
331
11C
  5
11C
331
38
  5
38
331
292
  5
292
331
316
  5
316
331
2C3
  5
2C3
331
371
  5
37C
331
77
  5
77
331
A6
  5
A6
331
15B
  5
15B
331
210
  5
210
331
24F
  5
24F
331
163
  5
163
331
19A
  5
19A
331
AE
  5
AE
331
ED
  5
ED
331
124
  5
124
331
1D9
  5
1D9
331
7F
  5
7F
331
1E1
  5
1E1
331
218
  5
218
331
12C
  5
12C
331
16B
  5
16B
331
B6
  5
B6
331
F5
  5
F5
331
1A2
  5
1A2
331
257
  5
257
331
25F
  5
25F
331
40
  5
40
331
29A
  5
29A
331
379
  5
387
331
87
  5
87
331
381
  5
38C
331
32E
  5
32E
331
2A2
  5
2A2
331
48
  5
48
331
1AA
  5
1AA
331
1E9
  5
1E9
331
134
  5
134
331
173
  5
173
331
220
  5
220
331
50
  5
50
331
2AA
  5
2AA
331
389
  5
394
331
8F
  5
8F
331
BE
  5
BE
331
FD
  5
FD
331
267
  5
267
331
1B2
  5
1B2
331
1F1
  5
1F1
331
105
  5
105
331
13C
  5
13C
331
3B6
  5
360
331
2B2
  5
2B2
331
58
  5
58
331
97
  5
97
331
C6
  5
C6
331
17B
  5
17B
331
228
  5
228
331
230
  5
230
331
26F
  5
26F
331
183
  5
183
331
1BA
  5
1BA
331
CE
  5
CE
331
10D
  5
10D
331
144
  5
144
331
1F9
  5
1F9
331
238
  5
238
331
14C
  5
14C
331
D6
  5
D6
331
1C2
  5
1C2
331
277
  5
277
331
60
  5
60
331
27B
  5
27B
331
2BA
  5
2BA
331
391
  5
488
331
283
  5
283
331
362
  5
365
331
68
  5
68
331
201
  5
201
331
240
  5
240
331
154
  5
154
331
18B
  5
18B
331
70
  5
70
331
9F
  5
9F
331
DE
  5
DE
331
115
  5
115
331
28B
  5
28B
331
36A
  5
375
331
1CA
  5
1CA
331
1D2
  5
1D2
331
209
  5
209
331
11D
  5
11D
331
15C
  5
15C
331
78
  5
78
331
A7
  5
A7
331
E6
  5
E6
331
193
  5
193
331
372
  5
37D
331
2C4
  5
2C4
331
293
  5
293
331
39
  5
39
331
248
  5
248
331
250
  5
250
331
19B
  5
19B
331
1DA
  5
1DA
331
EE
  5
EE
331
125
  5
125
331
AF
  5
AF
331
164
  5
164
331
211
  5
211
331
219
  5
219
331
258
  5
258
331
1A3
  5
1A3
331
1E2
  5
1E2
331
F6
  5
F6
331
12D
  5
12D
331
B7
  5
B7
331
16C
  5
16C
331
41
  5
41
331
29B
  5
29B
331
37A
  5
388
331
80
  5
80
331
49
  5
49
331
2A3
  5
2A3
331
382
  5
38D
331
88
  5
88
331
221
  5
221
331
260
  5
260
331
174
  5
174
331
1AB
  5
1AB
331
BF
  5
BF
331
FE
  5
FE
331
135
  5
135
331
1EA
  5
1EA
331
51
  5
51
331
2AB
  5
2AB
331
38A
  5
395
331
90
  5
90
331
1F2
  5
1F2
331
229
  5
229
331
13D
  5
13D
331
17C
  5
17C
331
C7
  5
C7
331
106
  5
106
331
1B3
  5
1B3
331
3B7
  5
35D
331
2B3
  5
2B3
331
59
  5
59
331
268
  5
268
331
270
  5
270
331
1BB
  5
1BB
331
1FA
  5
1FA
331
145
  5
145
331
184
  5
184
331
231
  5
231
331
CF
  5
CF
331
10E
  5
10E
331
1C3
  5
1C3
331
14D
  5
14D
331
D7
  5
D7
331
239
  5
239
331
61
  5
61
331
2BB
  5
2BB
331
392
  5
496
331
355
  5
355
331
27C
  5
27C
331
363
  5
36E
331
69
  5
69
331
98
  5
98
331
284
  5
284
331
241
  5
241
331
18C
  5
18C
331
1CB
  5
1CB
331
DF
  5
DF
331
116
  5
116
331
28C
  5
28C
331
36B
  5
376
331
71
  5
71
331
A0
  5
A0
331
155
  5
155
331
202
  5
202
331
20A
  5
20A
331
249
  5
249
331
15D
  5
15D
331
194
  5
194
331
E7
  5
E7
331
11E
  5
11E
331
1D3
  5
1D3
331
3A
  5
3A
331
2C5
  5
2C5
331
294
  5
294
331
373
  5
37E
331
79
  5
79
331
A8
  5
A8
331
212
  5
212
331
251
  5
251
331
165
  5
165
331
19C
  5
19C
331
B0
  5
B0
331
EF
  5
EF
331
126
  5
126
331
1DB
  5
1DB
331
1E3
  5
1E3
331
21A
  5
21A
331
12E
  5
12E
331
16D
  5
16D
331
F7
  5
F7
331
1A4
  5
1A4
331
259
  5
259
331
81
  5
81
331
42
  5
42
331
29C
  5
29C
331
37B
  5
389
331
89
  5
89
331
B8
  5
B8
331
383
  5
38E
331
2A4
  5
2A4
331
4A
  5
4A
331
261
  5
261
331
1AC
  5
1AC
331
1EB
  5
1EB
331
FF
  5
FF
331
136
  5
136
331
52
  5
52
331
2AC
  5
2AC
331
38B
  5
396
331
91
  5
91
331
C0
  5
C0
331
175
  5
175
331
222
  5
222
331
22A
  5
22A
331
269
  5
269
331
1B4
  5
1B4
331
1F3
  5
1F3
331
107
  5
107
331
13E
  5
13E
331
2B4
  5
2B4
331
5A
  5
5A
331
C8
  5
C8
331
17D
  5
17D
331
232
  5
232
331
271
  5
271
331
185
  5
185
331
1BC
  5
1BC
331
D0
  5
D0
331
10F
  5
10F
331
146
  5
146
331
1FB
  5
1FB
331
23A
  5
23A
331
14E
  5
14E
331
1C4
  5
1C4
331
62
  5
62
331
356
  5
356
331
27D
  5
27D
331
2BC
  5
2BC
331
393
  5
497
331
99
  5
99
331
D8
  5
D8
331
285
  5
285
331
364
  5
36F
331
6A
  5
6A
331
1CC
  5
1CC
331
203
  5
203
331
156
  5
156
331
18D
  5
18D
331
242
  5
242
331
36C
  5
377
331
72
  5
72
331
A1
  5
A1
331
E0
  5
E0
331
28D
  5
28D
331
117
  5
117
331
1D4
  5
1D4
331
20B
  5
20B
331
11F
  5
11F
331
15E
  5
15E
331
7A
  5
7A
331
A9
  5
A9
331
E8
  5
E8
331
195
  5
195
331
374
  5
37F
331
2C6
  5
2C6
331
295
  5
295
331
3B
  5
3B
331
24A
  5
24A
331
252
  5
252
331
19D
  5
19D
331
1DC
  5
1DC
331
F0
  5
F0
331
127
  5
127
331
B1
  5
B1
331
166
  5
166
331
213
  5
213
331
21B
  5
21B
331
25A
  5
25A
331
16E
  5
16E
331
1A5
  5
1A5
331
12F
  5
12F
331
1E4
  5
1E4
331
43
  5
43
331
29D
  5
29D
331
37C
  5
38A
331
82
  5
82
331
F8
  5
F8
331
4B
  5
4B
331
2E6
  5
2E6
331
2A5
  5
2A5
331
384
  5
38F
331
8A
  5
8A
331
B9
  5
B9
331
223
  5
223
331
262
  5
262
331
176
  5
176
331
1AD
  5
1AD
331
92
  5
92
331
C1
  5
C1
331
100
  5
100
331
53
  5
53
331
137
  5
137
331
2AD
  5
2AD
331
38C
  5
3B3
331
1EC
  5
1EC
331
1F4
  5
1F4
331
22B
  5
22B
331
13F
  5
13F
331
17E
  5
17E
331
C9
  5
C9
331
108
  5
108
331
1B5
  5
1B5
331
2B5
  5
2B5
331
5B
  5
5B
331
26A
  5
26A
331
272
  5
272
331
1BD
  5
1BD
331
1FC
  5
1FC
331
147
  5
147
331
D1
  5
D1
331
186
  5
186
331
233
  5
233
331
23B
  5
23B
331
1C5
  5
1C5
331
14F
  5
14F
331
63
  5
63
331
2BD
  5
2BD
331
394
  5
498
331
357
  5
357
331
27E
  5
27E
331
110
  5
110
331
365
  5
370
331
6B
  5
6B
331
9A
  5
9A
331
D9
  5
D9
331
30A
  5
30A
331
286
  5
286
331
243
  5
243
331
18E
  5
18E
331
1CD
  5
1CD
331
E1
  5
E1
331
118
  5
118
331
28E
  5
28E
331
36D
  5
378
331
73
  5
73
331
A2
  5
A2
331
157
  5
157
331
204
  5
204
331
20C
  5
20C
331
24B
  5
24B
331
15F
  5
15F
331
196
  5
196
331
AA
  5
AA
331
E9
  5
E9
331
120
  5
120
331
1D5
  5
1D5
331
3C
  5
3C
331
296
  5
296
331
375
  5
380
331
7B
  5
7B
331
1DD
  5
1DD
331
214
  5
214
331
167
  5
167
331
19E
  5
19E
331
253
  5
253
331
B2
  5
B2
331
F1
  5
F1
331
128
  5
128
331
1E5
  5
1E5
331
21C
  5
21C
331
16F
  5
16F
331
1A6
  5
1A6
331
25B
  5
25B
331
83
  5
83
331
37D
  5
38B
331
29E
  5
29E
331
44
  5
44
331
130
  5
130
331
8B
  5
8B
331
BA
  5
BA
331
F9
  5
F9
331
385
  5
390
331
2A6
  5
2A6
331
4C
  5
4C
331
263
  5
263
331
1AE
  5
1AE
331
1ED
  5
1ED
331
101
  5
101
331
138
  5
138
331
54
  5
54
331
2AE
  5
2AE
331
38D
  5
3B6
331
93
  5
93
331
C2
  5
C2
331
177
  5
177
331
224
  5
224
  0
ACDBDETAILVIEWSTYLE
  5
593
102
{ACAD_XDICTIONARY
360
62C
102
}
102
{ACAD_REACTORS
330
592
102
}
330
592
100
AcDbModelDocViewStyle
 70
     0
  3
Metric50
290
     0
100
AcDbDetailViewStyle
 70
     0
 71
     0
 90
        3
 71
     1
340
11
 62
   256
 40
5.0
340
0
 62
   256
 40
5.0
300

 40
0.0
280
     1
 71
     2
340
16
 90
       25
 62
   256
 71
     3
340
11
 62
   256
 40
5.0
 90
        0
 40
15.0
 90
        1
300
%<\AcVar ViewDetailId>% (%<\AcVar ViewScale \f "%sn">%)
 71
     4
340
16
 90
       25
 62
   256
340
16
 90
       25
 62
   256
280
     0
  0
LAYOUT
  5
1E
102
{ACAD_REACTORS
330
1A
102
}
330
1A
100
AcDbPlotSettings
  1

  2

  4

  6

 40
0.0
 41
0.0
 42
0.0
 43
0.0
 44
0.0
 45
0.0
 46
0.0
 47
0.0
 48
0.0
 49
0.0
140
0.0
141
0.0
142
1.0
143
1.0
 70
   688
 72
     0
 73
     0
 74
     5
  7
monochrome.ctb
 75
    16
147
1.0
 76
     0
 77
     2
 78
   300
148
0.0
149
0.0
100
AcDbLayout
  1
Layout1
 70
     1
 71
     1
 10
-247.2100037059508
 20
-63.73738705550861
 11
49.78999629404917
 21
146.2626129444914
 12
0.0
 22
0.0
 32
0.0
 14
1.000000000000000E+20
 24
1.000000000000000E+20
 34
1.000000000000000E+20
 15
-1.000000000000000E+20
 25
-1.000000000000000E+20
 35
-1.000000000000000E+20
146
0.0
 13
0.0
 23
0.0
 33
0.0
 16
1.0
 26
0.0
 36
0.0
 17
0.0
 27
1.0
 37
0.0
 76
     0
330
1B
  0
LAYOUT
  5
26
102
{ACAD_REACTORS
330
1A
102
}
330
1A
100
AcDbPlotSettings
  1

  2

  4

  6

 40
0.0
 41
0.0
 42
0.0
 43
0.0
 44
0.0
 45
0.0
 46
0.0
 47
0.0
 48
0.0
 49
0.0
140
0.0
141
0.0
142
1.0
143
1.0
 70
   688
 72
     0
 73
     0
 74
     5
  7
monochrome.ctb
 75
    16
147
1.0
 76
     0
 77
     2
 78
   300
148
0.0
149
0.0
100
AcDbLayout
  1
Layout2
 70
     1
 71
     2
 10
0.0
 20
0.0
 11
0.0
 21
0.0
 12
0.0
 22
0.0
 32
0.0
 14
0.0
 24
0.0
 34
0.0
 15
0.0
 25
0.0
 35
0.0
146
0.0
 13
0.0
 23
0.0
 33
0.0
 16
1.0
 26
0.0
 36
0.0
 17
0.0
 27
1.0
 37
0.0
 76
     0
330
23
  0
LAYOUT
  5
22
102
{ACAD_REACTORS
330
1A
102
}
330
1A
100
AcDbPlotSettings
  1

  2
Adobe PDF
  4
A4
  6

 40
3.174999952316282
 41
3.174999952316282
 42
3.175003051757812
 43
3.17498779296875
 44
209.9733276367186
 45
297.0318298339844
 46
7.051149022578584
 47
7.073861730090527
 48
0.0
 49
0.0
140
0.0
141
0.0
142
1.0
143
1.0
 70
 11956
 72
     1
 73
     1
 74
     1
  7
monochrome.ctb
 75
    16
147
1.0
 76
     0
 77
     2
 78
   300
148
237.2263146483291
149
53.7462366525893
100
AcDbLayout
  1
Model
 70
     1
 71
     0
 10
-247.2100037059508
 20
-63.73738705550861
 11
49.78999629404917
 21
146.2626129444914
 12
0.0
 22
0.0
 32
0.0
 14
-247.2100037059508
 24
-63.73738705550861
 34
0.0
 15
49.78999629404917
 25
146.2626129444914
 35
0.0
146
0.0
 13
0.0
 23
0.0
 33
0.0
 16
1.0
 26
0.0
 36
0.0
 17
0.0
 27
1.0
 37
0.0
 76
     0
330
1F
331
53F
1001
ACAD_PSEXT
1000
Adobe PDF
1000
Adobe PDF Converter
1000
My Documents
1000

1070
     0
  0
MATERIAL
  5
553
102
{ACAD_XDICTIONARY
360
554
102
}
102
{ACAD_REACTORS
330
399
102
}
330
399
100
AcDbMaterial
  1
ByBlock
 72
     0
 43
0.0008202099737533
 43
0.0
 43
0.0
 43
0.0
 43
0.0
 43
0.0008202099737533
 43
0.0
 43
0.0
 43
0.0
 43
0.0
 43
1.0
 43
0.0
 43
0.0
 43
0.0
 43
0.0
 43
1.0
 77
     0
 47
0.0008202099737533
 47
0.0
 47
0.0
 47
0.0
 47
0.0
 47
0.0008202099737533
 47
0.0
 47
0.0
 47
0.0
 47
0.0
 47
1.0
 47
0.0
 47
0.0
 47
0.0
 47
0.0
 47
1.0
171
     0
 49
0.0008202099737533
 49
0.0
 49
0.0
 49
0.0
 49
0.0
 49
0.0008202099737533
 49
0.0
 49
0.0
 49
0.0
 49
0.0
 49
1.0
 49
0.0
 49
0.0
 49
0.0
 49
0.0
 49
1.0
175
     0
142
0.0008202099737533
142
0.0
142
0.0
142
0.0
142
0.0
142
0.0008202099737533
142
0.0
142
0.0
142
0.0
142
0.0
142
1.0
142
0.0
142
0.0
142
0.0
142
0.0
142
1.0
179
     0
144
0.0008202099737533
144
0.0
144
0.0
144
0.0
144
0.0
144
0.0008202099737533
144
0.0
144
0.0
144
0.0
144
0.0
144
1.0
144
0.0
144
0.0
144
0.0
144
0.0
144
1.0
147
0.0008202099737533
147
0.0
147
0.0
147
0.0
147
0.0
147
0.0008202099737533
147
0.0
147
0.0
147
0.0
147
0.0
147
1.0
147
0.0
147
0.0
147
0.0
147
0.0
147
1.0
  0
MATERIAL
  5
54B
102
{ACAD_XDICTIONARY
360
54C
102
}
102
{ACAD_REACTORS
330
399
102
}
330
399
100
AcDbMaterial
  1
ByLayer
 72
     0
 43
0.0008202099737533
 43
0.0
 43
0.0
 43
0.0
 43
0.0
 43
0.0008202099737533
 43
0.0
 43
0.0
 43
0.0
 43
0.0
 43
1.0
 43
0.0
 43
0.0
 43
0.0
 43
0.0
 43
1.0
 77
     0
 47
0.0008202099737533
 47
0.0
 47
0.0
 47
0.0
 47
0.0
 47
0.0008202099737533
 47
0.0
 47
0.0
 47
0.0
 47
0.0
 47
1.0
 47
0.0
 47
0.0
 47
0.0
 47
0.0
 47
1.0
171
     0
 49
0.0008202099737533
 49
0.0
 49
0.0
 49
0.0
 49
0.0
 49
0.0008202099737533
 49
0.0
 49
0.0
 49
0.0
 49
0.0
 49
1.0
 49
0.0
 49
0.0
 49
0.0
 49
0.0
 49
1.0
175
     0
142
0.0008202099737533
142
0.0
142
0.0
142
0.0
142
0.0
142
0.0008202099737533
142
0.0
142
0.0
142
0.0
142
0.0
142
1.0
142
0.0
142
0.0
142
0.0
142
0.0
142
1.0
179
     0
144
0.0008202099737533
144
0.0
144
0.0
144
0.0
144
0.0
144
0.0008202099737533
144
0.0
144
0.0
144
0.0
144
0.0
144
1.0
144
0.0
144
0.0
144
0.0
144
0.0
144
1.0
147
0.0008202099737533
147
0.0
147
0.0
147
0.0
147
0.0
147
0.0008202099737533
147
0.0
147
0.0
147
0.0
147
0.0
147
1.0
147
0.0
147
0.0
147
0.0
147
0.0
147
1.0
  0
MATERIAL
  5
55B
102
{ACAD_XDICTIONARY
360
55C
102
}
102
{ACAD_REACTORS
330
399
102
}
330
399
100
AcDbMaterial
  1
Global
 72
     0
 43
0.0008202099737533
 43
0.0
 43
0.0
 43
0.0
 43
0.0
 43
0.0008202099737533
 43
0.0
 43
0.0
 43
0.0
 43
0.0
 43
1.0
 43
0.0
 43
0.0
 43
0.0
 43
0.0
 43
1.0
 77
     0
 47
0.0008202099737533
 47
0.0
 47
0.0
 47
0.0
 47
0.0
 47
0.0008202099737533
 47
0.0
 47
0.0
 47
0.0
 47
0.0
 47
1.0
 47
0.0
 47
0.0
 47
0.0
 47
0.0
 47
1.0
171
     0
 49
0.0008202099737533
 49
0.0
 49
0.0
 49
0.0
 49
0.0
 49
0.0008202099737533
 49
0.0
 49
0.0
 49
0.0
 49
0.0
 49
1.0
 49
0.0
 49
0.0
 49
0.0
 49
0.0
 49
1.0
175
     0
142
0.0008202099737533
142
0.0
142
0.0
142
0.0
142
0.0
142
0.0008202099737533
142
0.0
142
0.0
142
0.0
142
0.0
142
1.0
142
0.0
142
0.0
142
0.0
142
0.0
142
1.0
179
     0
144
0.0008202099737533
144
0.0
144
0.0
144
0.0
144
0.0
144
0.0008202099737533
144
0.0
144
0.0
144
0.0
144
0.0
144
1.0
144
0.0
144
0.0
144
0.0
144
0.0
144
1.0
147
0.0008202099737533
147
0.0
147
0.0
147
0.0
147
0.0
147
0.0008202099737533
147
0.0
147
0.0
147
0.0
147
0.0
147
1.0
147
0.0
147
0.0
147
0.0
147
0.0
147
1.0
  0
MLEADERSTYLE
  5
58F
102
{ACAD_REACTORS
330
58E
102
}
330
58E
100
AcDbMLeaderStyle
179
     2
170
     2
171
     1
172
     0
 90
        2
 40
0.0
 41
0.0
173
     1
 91
-1056964608
340
14
 92
       -2
290
     1
 42
2.0
291
     1
 43
0.36
  3
Standard
 44
4.0
300

342
11
174
     1
178
     6
175
     1
176
     0
 93
-1056964608
 45
4.0
292
     0
297
     0
 46
4.0
 94
-1056964608
 47
1.0
 49
1.0
140
1.0
293
     1
141
0.0
294
     1
177
     0
142
1.0
295
     0
296
     0
143
0.125
271
     0
272
     9
273
     9
  0
MLINESTYLE
  5
18
102
{ACAD_REACTORS
330
17
102
}
330
17
100
AcDbMlineStyle
  2
STANDARD
 70
     0
  3

 62
   256
 51
90.0
 52
90.0
 71
     2
 49
0.5
 62
   256
  6
BYLAYER
 49
-0.5
 62
   256
  6
BYLAYER
  0
ACDBPLACEHOLDER
  5
F
102
{ACAD_REACTORS
330
E
102
}
330
E
  0
SCALE
  5
57D
102
{ACAD_REACTORS
330
57C
102
}
330
57C
100
AcDbScale
 70
     0
300
1:1
140
1.0
141
1.0
290
     1
  0
SCALE
  5
57E
102
{ACAD_REACTORS
330
57C
102
}
330
57C
100
AcDbScale
 70
     0
300
1:2
140
1.0
141
2.0
290
     0
  0
SCALE
  5
57F
102
{ACAD_REACTORS
330
57C
102
}
330
57C
100
AcDbScale
 70
     0
300
1:4
140
1.0
141
4.0
290
     0
  0
SCALE
  5
580
102
{ACAD_REACTORS
330
57C
102
}
330
57C
100
AcDbScale
 70
     0
300
1:5
140
1.0
141
5.0
290
     0
  0
SCALE
  5
581
102
{ACAD_REACTORS
330
57C
102
}
330
57C
100
AcDbScale
 70
     0
300
1:8
140
1.0
141
8.0
290
     0
  0
SCALE
  5
582
102
{ACAD_REACTORS
330
57C
102
}
330
57C
100
AcDbScale
 70
     0
300
1:10
140
1.0
141
10.0
290
     0
  0
SCALE
  5
583
102
{ACAD_REACTORS
330
57C
102
}
330
57C
100
AcDbScale
 70
     0
300
1:16
140
1.0
141
16.0
290
     0
  0
SCALE
  5
584
102
{ACAD_REACTORS
330
57C
102
}
330
57C
100
AcDbScale
 70
     0
300
1:20
140
1.0
141
20.0
290
     0
  0
SCALE
  5
585
102
{ACAD_REACTORS
330
57C
102
}
330
57C
100
AcDbScale
 70
     0
300
1:30
140
1.0
141
30.0
290
     0
  0
SCALE
  5
586
102
{ACAD_REACTORS
330
57C
102
}
330
57C
100
AcDbScale
 70
     0
300
1:40
140
1.0
141
40.0
290
     0
  0
SCALE
  5
587
102
{ACAD_REACTORS
330
57C
102
}
330
57C
100
AcDbScale
 70
     0
300
1:50
140
1.0
141
50.0
290
     0
  0
SCALE
  5
588
102
{ACAD_REACTORS
330
57C
102
}
330
57C
100
AcDbScale
 70
     0
300
1:100
140
1.0
141
100.0
290
     0
  0
SCALE
  5
589
102
{ACAD_REACTORS
330
57C
102
}
330
57C
100
AcDbScale
 70
     0
300
2:1
140
2.0
141
1.0
290
     0
  0
SCALE
  5
58A
102
{ACAD_REACTORS
330
57C
102
}
330
57C
100
AcDbScale
 70
     0
300
4:1
140
4.0
141
1.0
290
     0
  0
SCALE
  5
58B
102
{ACAD_REACTORS
330
57C
102
}
330
57C
100
AcDbScale
 70
     0
300
8:1
140
8.0
141
1.0
290
     0
  0
SCALE
  5
58C
102
{ACAD_REACTORS
330
57C
102
}
330
57C
100
AcDbScale
 70
     0
300
10:1
140
10.0
141
1.0
290
     0
  0
SCALE
  5
58D
102
{ACAD_REACTORS
330
57C
102
}
330
57C
100
AcDbScale
 70
     0
300
100:1
140
100.0
141
1.0
290
     0
  0
ACDBSECTIONVIEWSTYLE
  5
591
102
{ACAD_XDICTIONARY
360
62A
102
}
102
{ACAD_REACTORS
330
590
102
}
330
590
100
AcDbModelDocViewStyle
 70
     0
  3
Metric50
290
     0
100
AcDbSectionViewStyle
 70
     0
 71
     0
 90
      102
 71
     1
340
11
 62
   256
 40
5.0
340
0
340
0
 62
   256
 40
5.0
300
I, O, Q, S, X, Z
 40
10.0
 90
        0
 40
2.5
 90
        0
 71
     2
340
16
 90
       25
 62
   256
340
16
 90
       50
 62
   256
 40
5.0
 40
2.5
 40
5.0
 71
     3
340
11
 62
   256
 40
5.0
 90
        0
 40
15.0
 90
        1
300
%<\AcVar ViewSectionStartId>%-%<\AcVar ViewSectionEndId>% (%<\AcVar ViewScale \f "%sn">%)
 71
     4
 62
   256
 62
   257
300
ANSI31
 40
1.0
 90
        0
290
     0
290
     0
 90
        6
 40
0.0
 40
1.570796326794896
 40
0.2617993877991494
 40
1.308996938995747
 40
-0.2617993877991494
 40
1.832595714594046
  0
TABLESTYLE
  5
39C
102
{ACAD_XDICTIONARY
360
5F7
102
}
102
{ACAD_REACTORS
330
39B
102
}
330
39B
100
AcDbTableStyle
280
     0
  3
Standard
 70
     0
 71
     0
 40
1.5
 41
1.5
280
     0
281
     0
  7
Standard
140
4.5
170
     2
 62
     0
 63
     7
283
     0
 90
        4
 91
        0
  1

274
    -2
284
     1
 64
     0
275
    -2
285
     1
 65
     0
276
    -2
286
     1
 66
     0
277
    -2
287
     1
 67
     0
278
    -2
288
     1
 68
     0
279
    -2
289
     1
 69
     0
  7
Standard
140
6.0
170
     5
 62
     0
 63
     7
283
     0
 90
        4
 91
        0
  1

274
    -2
284
     1
 64
     0
275
    -2
285
     1
 65
     0
276
    -2
286
     1
 66
     0
277
    -2
287
     1
 67
     0
278
    -2
288
     1
 68
     0
279
    -2
289
     1
 69
     0
  7
Standard
140
4.5
170
     5
 62
     0
 63
     7
283
     0
 90
        4
 91
        0
  1

274
    -2
284
     1
 64
     0
275
    -2
285
     1
 65
     0
276
    -2
286
     1
 66
     0
277
    -2
287
     1
 67
     0
278
    -2
288
     1
 68
     0
279
    -2
289
     1
 69
     0
  0
VISUALSTYLE
  5
569
102
{ACAD_XDICTIONARY
360
604
102
}
102
{ACAD_REACTORS
330
563
102
}
330
563
100
AcDbVisualStyle
  2
2dWireframe
 70
     4
177
     2
291
     0
 71
     0
176
     1
 72
     2
176
     1
 73
     0
176
     1
 90
        0
176
     1
 40
0.6
176
     1
 41
30.0
176
     1
 63
     7
421
 16777215
176
     1
 74
     1
176
     1
 91
        4
176
     1
 64
     7
176
     1
 65
   257
176
     1
 75
     1
176
     1
175
     1
176
     1
 42
1.0
176
     1
 92
        0
176
     1
 66
   257
176
     1
 43
1.0
176
     1
 76
     1
176
     1
 77
     6
176
     1
 78
     2
176
     1
 67
     7
176
     1
 79
     5
176
     1
170
     0
176
     1
171
     0
176
     1
290
     0
176
     1
 93
        1
176
     1
 44
0.0
176
     1
173
     0
176
     1
1001
ACAD
1000
AcDbSavedByObjectVersion
1070
     0
  0
VISUALSTYLE
  5
568
102
{ACAD_XDICTIONARY
360
602
102
}
102
{ACAD_REACTORS
330
563
102
}
330
563
100
AcDbVisualStyle
  2
Basic
 70
     7
177
     2
291
     1
 71
     1
176
     1
 72
     0
176
     1
 73
     1
176
     1
 90
        0
176
     1
 40
0.6
176
     1
 41
30.0
176
     1
 63
     7
421
 16777215
176
     1
 74
     0
176
     1
 91
        4
176
     1
 64
     7
176
     1
 65
   257
176
     1
 75
     1
176
     1
175
     1
176
     1
 42
1.0
176
     1
 92
        8
176
     1
 66
     7
176
     1
 43
1.0
176
     1
 76
     1
176
     1
 77
     6
176
     1
 78
     2
176
     1
 67
     7
176
     1
 79
     5
176
     1
170
     0
176
     1
171
     0
176
     1
290
     0
176
     1
 93
        1
176
     1
 44
0.0
176
     1
173
     0
176
     1
1001
ACAD
1000
AcDbSavedByObjectVersion
1070
     0
  0
VISUALSTYLE
  5
56F
102
{ACAD_XDICTIONARY
360
610
102
}
102
{ACAD_REACTORS
330
563
102
}
330
563
100
AcDbVisualStyle
  2
Brighten
 70
    12
177
     2
291
     1
 71
     2
176
     1
 72
     2
176
     1
 73
     0
176
     1
 90
        0
176
     1
 40
0.6
176
     1
 41
30.0
176
     1
 63
     7
421
 16777215
176
     1
 74
     1
176
     1
 91
        4
176
     1
 64
     7
176
     1
 65
   257
176
     1
 75
     1
176
     1
175
     1
176
     1
 42
1.0
176
     1
 92
        8
176
     1
 66
     7
176
     1
 43
1.0
176
     1
 76
     1
176
     1
 77
     6
176
     1
 78
     2
176
     1
 67
     7
176
     1
 79
     5
176
     1
170
     0
176
     1
171
     0
176
     1
290
     0
176
     1
 93
        1
176
     1
 44
50.0
176
     1
173
     0
176
     1
1001
ACAD
1000
AcDbSavedByObjectVersion
1070
     0
  0
VISUALSTYLE
  5
573
102
{ACAD_XDICTIONARY
360
618
102
}
102
{ACAD_REACTORS
330
563
102
}
330
563
100
AcDbVisualStyle
  2
ColorChange
 70
    16
177
     2
291
     1
 71
     2
176
     1
 72
     2
176
     1
 73
     3
176
     1
 90
        0
176
     1
 40
0.6
176
     1
 41
30.0
176
     1
 63
     8
421
  8421504
176
     1
 74
     1
176
     1
 91
        4
176
     1
 64
     7
176
     1
 65
   257
176
     1
 75
     1
176
     1
175
     1
176
     1
 42
1.0
176
     1
 92
        8
176
     1
 66
     8
424
  8421504
176
     1
 43
1.0
176
     1
 76
     1
176
     1
 77
     6
176
     1
 78
     2
176
     1
 67
     7
176
     1
 79
     5
176
     1
170
     0
176
     1
171
     0
176
     1
290
     0
176
     1
 93
        1
176
     1
 44
0.0
176
     1
173
     0
176
     1
1001
ACAD
1000
AcDbSavedByObjectVersion
1070
     0
  0
VISUALSTYLE
  5
56C
102
{ACAD_XDICTIONARY
360
60A
102
}
102
{ACAD_REACTORS
330
563
102
}
330
563
100
AcDbVisualStyle
  2
Conceptual
 70
     9
177
     2
291
     0
 71
     3
176
     1
 72
     2
176
     1
 73
     0
176
     1
 90
        0
176
     1
 40
0.6
176
     1
 41
30.0
176
     1
 63
     7
421
 16777215
176
     1
 74
     2
176
     1
 91
        2
176
     1
 64
     7
176
     1
 65
   257
176
     1
 75
     1
176
     1
175
     1
176
     1
 42
179.0
176
     1
 92
        8
176
     1
 66
     7
176
     1
 43
1.0
176
     1
 76
     1
176
     1
 77
     6
176
     1
 78
     2
176
     1
 67
     7
176
     1
 79
     3
176
     1
170
     0
176
     1
171
     0
176
     1
290
     0
176
     1
 93
        1
176
     1
 44
0.0
176
     1
173
     0
176
     1
1001
ACAD
1000
AcDbSavedByObjectVersion
1070
     0
  0
VISUALSTYLE
  5
56E
102
{ACAD_XDICTIONARY
360
60E
102
}
102
{ACAD_REACTORS
330
563
102
}
330
563
100
AcDbVisualStyle
  2
Dim
 70
    11
177
     2
291
     1
 71
     2
176
     1
 72
     2
176
     1
 73
     0
176
     1
 90
        0
176
     1
 40
0.6
176
     1
 41
30.0
176
     1
 63
     7
421
 16777215
176
     1
 74
     1
176
     1
 91
        4
176
     1
 64
     7
176
     1
 65
   257
176
     1
 75
     1
176
     1
175
     1
176
     1
 42
1.0
176
     1
 92
        8
176
     1
 66
     7
176
     1
 43
1.0
176
     1
 76
     1
176
     1
 77
     6
176
     1
 78
     2
176
     1
 67
     7
176
     1
 79
     5
176
     1
170
     0
176
     1
171
     0
176
     1
290
     0
176
     1
 93
        1
176
     1
 44
-50.0
176
     1
173
     0
176
     1
1001
ACAD
1000
AcDbSavedByObjectVersion
1070
     0
  0
VISUALSTYLE
  5
57B
102
{ACAD_XDICTIONARY
360
628
102
}
102
{ACAD_REACTORS
330
563
102
}
330
563
100
AcDbVisualStyle
  2
EdgeColorOff
 70
    22
177
     2
291
     1
 71
     2
176
     0
 72
     2
176
     0
 73
     0
176
     0
 90
        0
176
     0
 40
0.6
176
     0
 41
30.0
176
     0
 63
     7
421
 16777215
176
     0
 74
     1
176
     0
 91
        4
176
     0
 64
     7
176
     0
 65
   257
176
     0
 75
     1
176
     0
175
     1
176
     0
 42
1.0
176
     0
 92
        8
176
     2
 66
     7
176
     0
 43
1.0
176
     0
 76
     1
176
     0
 77
     6
176
     0
 78
     2
176
     0
 67
     7
176
     0
 79
     5
176
     0
170
     0
176
     0
171
     0
176
     0
290
     0
176
     0
 93
        1
176
     0
 44
0.0
176
     0
173
     0
176
     0
1001
ACAD
1000
AcDbSavedByObjectVersion
1070
     0
  0
VISUALSTYLE
  5
572
102
{ACAD_XDICTIONARY
360
616
102
}
102
{ACAD_REACTORS
330
563
102
}
330
563
100
AcDbVisualStyle
  2
Facepattern
 70
    15
177
     2
291
     1
 71
     2
176
     1
 72
     2
176
     1
 73
     0
176
     1
 90
        0
176
     1
 40
0.6
176
     1
 41
30.0
176
     1
 63
     7
421
 16777215
176
     1
 74
     1
176
     1
 91
        4
176
     1
 64
     7
176
     1
 65
   257
176
     1
 75
     1
176
     1
175
     1
176
     1
 42
1.0
176
     1
 92
        8
176
     1
 66
     7
176
     1
 43
1.0
176
     1
 76
     1
176
     1
 77
     6
176
     1
 78
     2
176
     1
 67
     7
176
     1
 79
     5
176
     1
170
     0
176
     1
171
     0
176
     1
290
     0
176
     1
 93
        1
176
     1
 44
0.0
176
     1
173
     0
176
     1
1001
ACAD
1000
AcDbSavedByObjectVersion
1070
     0
  0
VISUALSTYLE
  5
564
102
{ACAD_XDICTIONARY
360
5FA
102
}
102
{ACAD_REACTORS
330
563
102
}
330
563
100
AcDbVisualStyle
  2
Flat
 70
     0
177
     2
291
     1
 71
     2
176
     1
 72
     1
176
     1
 73
     1
176
     1
 90
        2
176
     1
 40
0.6
176
     1
 41
30.0
176
     1
 63
     7
421
 16777215
176
     1
 74
     0
176
     1
 91
        0
176
     1
 64
     7
176
     1
 65
   257
176
     1
 75
     1
176
     1
175
     1
176
     1
 42
1.0
176
     1
 92
        8
176
     1
 66
     7
176
     1
 43
1.0
176
     1
 76
     1
176
     1
 77
     6
176
     1
 78
     2
176
     1
 67
     7
176
     1
 79
     5
176
     1
170
     0
176
     1
171
     0
176
     1
290
     0
176
     1
 93
       13
176
     1
 44
0.0
176
     1
173
     0
176
     1
1001
ACAD
1000
AcDbSavedByObjectVersion
1070
     0
  0
VISUALSTYLE
  5
565
102
{ACAD_XDICTIONARY
360
5FC
102
}
102
{ACAD_REACTORS
330
563
102
}
330
563
100
AcDbVisualStyle
  2
FlatWithEdges
 70
     1
177
     2
291
     1
 71
     2
176
     1
 72
     1
176
     1
 73
     1
176
     1
 90
        2
176
     1
 40
0.6
176
     1
 41
30.0
176
     1
 63
     7
421
 16777215
176
     1
 74
     1
176
     1
 91
        0
176
     1
 64
     7
176
     1
 65
   257
176
     1
 75
     1
176
     1
175
     1
176
     1
 42
1.0
176
     1
 92
        0
176
     1
 66
   257
176
     1
 43
1.0
176
     1
 76
     1
176
     1
 77
     6
176
     1
 78
     2
176
     1
 67
     7
176
     1
 79
     5
176
     1
170
     0
176
     1
171
     0
176
     1
290
     0
176
     1
 93
       13
176
     1
 44
0.0
176
     1
173
     0
176
     1
1001
ACAD
1000
AcDbSavedByObjectVersion
1070
     0
  0
VISUALSTYLE
  5
566
102
{ACAD_XDICTIONARY
360
5FE
102
}
102
{ACAD_REACTORS
330
563
102
}
330
563
100
AcDbVisualStyle
  2
Gouraud
 70
     2
177
     2
291
     1
 71
     2
176
     1
 72
     2
176
     1
 73
     1
176
     1
 90
        2
176
     1
 40
0.6
176
     1
 41
30.0
176
     1
 63
     7
421
 16777215
176
     1
 74
     0
176
     1
 91
        0
176
     1
 64
     7
176
     1
 65
   257
176
     1
 75
     1
176
     1
175
     1
176
     1
 42
1.0
176
     1
 92
        0
176
     1
 66
     7
176
     1
 43
1.0
176
     1
 76
     1
176
     1
 77
     6
176
     1
 78
     2
176
     1
 67
     7
176
     1
 79
     5
176
     1
170
     0
176
     1
171
     0
176
     1
290
     0
176
     1
 93
       13
176
     1
 44
0.0
176
     1
173
     0
176
     1
1001
ACAD
1000
AcDbSavedByObjectVersion
1070
     0
  0
VISUALSTYLE
  5
567
102
{ACAD_XDICTIONARY
360
600
102
}
102
{ACAD_REACTORS
330
563
102
}
330
563
100
AcDbVisualStyle
  2
GouraudWithEdges
 70
     3
177
     2
291
     1
 71
     2
176
     1
 72
     2
176
     1
 73
     1
176
     1
 90
        2
176
     1
 40
0.6
176
     1
 41
30.0
176
     1
 63
     7
421
 16777215
176
     1
 74
     1
176
     1
 91
        0
176
     1
 64
     7
176
     1
 65
   257
176
     1
 75
     1
176
     1
175
     1
176
     1
 42
1.0
176
     1
 92
        0
176
     1
 66
   257
176
     1
 43
1.0
176
     1
 76
     1
176
     1
 77
     6
176
     1
 78
     2
176
     1
 67
     7
176
     1
 79
     5
176
     1
170
     0
176
     1
171
     0
176
     1
290
     0
176
     1
 93
       13
176
     1
 44
0.0
176
     1
173
     0
176
     1
1001
ACAD
1000
AcDbSavedByObjectVersion
1070
     0
  0
VISUALSTYLE
  5
56B
102
{ACAD_XDICTIONARY
360
608
102
}
102
{ACAD_REACTORS
330
563
102
}
330
563
100
AcDbVisualStyle
  2
Hidden
 70
     6
177
     2
291
     0
 71
     1
176
     1
 72
     2
176
     1
 73
     2
176
     1
 90
        0
176
     1
 40
0.6
176
     1
 41
30.0
176
     1
 63
     7
421
 16777215
176
     1
 74
     2
176
     1
 91
        2
176
     1
 64
     7
176
     1
 65
   257
176
     1
 75
     2
176
     1
175
     1
176
     1
 42
40.0
176
     1
 92
        0
176
     1
 66
   257
176
     1
 43
1.0
176
     1
 76
     1
176
     1
 77
     6
176
     1
 78
     2
176
     1
 67
     7
176
     1
 79
     3
176
     1
170
     0
176
     1
171
     0
176
     1
290
     0
176
     1
 93
        1
176
     1
 44
0.0
176
     1
173
     0
176
     1
1001
ACAD
1000
AcDbSavedByObjectVersion
1070
     0
  0
VISUALSTYLE
  5
579
102
{ACAD_XDICTIONARY
360
624
102
}
102
{ACAD_REACTORS
330
563
102
}
330
563
100
AcDbVisualStyle
  2
JitterOff
 70
    20
177
     2
291
     1
 71
     2
176
     0
 72
     2
176
     0
 73
     0
176
     0
 90
        0
176
     0
 40
0.6
176
     0
 41
30.0
176
     0
 63
     7
421
 16777215
176
     0
 74
     1
176
     0
 91
        4
176
     0
 64
     7
176
     0
 65
   257
176
     0
 75
     1
176
     0
175
     1
176
     0
 42
1.0
176
     0
 92
       10
176
     2
 66
     7
176
     0
 43
1.0
176
     0
 76
     1
176
     0
 77
     6
176
     0
 78
     2
176
     0
 67
     7
176
     0
 79
     5
176
     0
170
     0
176
     0
171
     0
176
     0
290
     0
176
     0
 93
        1
176
     0
 44
0.0
176
     0
173
     0
176
     0
1001
ACAD
1000
AcDbSavedByObjectVersion
1070
     0
  0
VISUALSTYLE
  5
571
102
{ACAD_XDICTIONARY
360
614
102
}
102
{ACAD_REACTORS
330
563
102
}
330
563
100
AcDbVisualStyle
  2
Linepattern
 70
    14
177
     2
291
     1
 71
     2
176
     1
 72
     2
176
     1
 73
     0
176
     1
 90
        0
176
     1
 40
0.6
176
     1
 41
30.0
176
     1
 63
     7
421
 16777215
176
     1
 74
     1
176
     1
 91
        4
176
     1
 64
     7
176
     1
 65
   257
176
     1
 75
     7
176
     1
175
     7
176
     1
 42
1.0
176
     1
 92
        8
176
     1
 66
     7
176
     1
 43
1.0
176
     1
 76
     1
176
     1
 77
     6
176
     1
 78
     2
176
     1
 67
     7
176
     1
 79
     5
176
     1
170
     0
176
     1
171
     0
176
     1
290
     0
176
     1
 93
        1
176
     1
 44
0.0
176
     1
173
     0
176
     1
1001
ACAD
1000
AcDbSavedByObjectVersion
1070
     0
  0
VISUALSTYLE
  5
57A
102
{ACAD_XDICTIONARY
360
626
102
}
102
{ACAD_REACTORS
330
563
102
}
330
563
100
AcDbVisualStyle
  2
OverhangOff
 70
    21
177
     2
291
     1
 71
     2
176
     0
 72
     2
176
     0
 73
     0
176
     0
 90
        0
176
     0
 40
0.6
176
     0
 41
30.0
176
     0
 63
     7
421
 16777215
176
     0
 74
     1
176
     0
 91
        4
176
     0
 64
     7
176
     0
 65
   257
176
     0
 75
     1
176
     0
175
     1
176
     0
 42
1.0
176
     0
 92
        9
176
     2
 66
     7
176
     0
 43
1.0
176
     0
 76
     1
176
     0
 77
     6
176
     0
 78
     2
176
     0
 67
     7
176
     0
 79
     5
176
     0
170
     0
176
     0
171
     0
176
     0
290
     0
176
     0
 93
        1
176
     0
 44
0.0
176
     0
173
     0
176
     0
1001
ACAD
1000
AcDbSavedByObjectVersion
1070
     0
  0
VISUALSTYLE
  5
56D
102
{ACAD_XDICTIONARY
360
60C
102
}
102
{ACAD_REACTORS
330
563
102
}
330
563
100
AcDbVisualStyle
  2
Realistic
 70
     8
177
     2
291
     0
 71
     2
176
     1
 72
     3
176
     1
 73
     0
176
     1
 90
        2
176
     1
 40
0.6
176
     1
 41
30.0
176
     1
 63
     7
421
 16777215
176
     1
 74
     0
176
     1
 91
        0
176
     1
 64
     7
176
     1
 65
   257
176
     1
 75
     1
176
     1
175
     1
176
     1
 42
1.0
176
     1
 92
        8
176
     1
 66
   257
176
     1
 43
1.0
176
     1
 76
     1
176
     1
 77
     6
176
     1
 78
     2
176
     1
 67
     7
176
     1
 79
     3
176
     1
170
     0
176
     1
171
     0
176
     1
290
     0
176
     1
 93
       13
176
     1
 44
0.0
176
     1
173
     0
176
     1
1001
ACAD
1000
AcDbSavedByObjectVersion
1070
     0
  0
VISUALSTYLE
  5
578
102
{ACAD_XDICTIONARY
360
622
102
}
102
{ACAD_REACTORS
330
563
102
}
330
563
100
AcDbVisualStyle
  2
Shaded
 70
    27
177
     2
291
     0
 71
     2
176
     1
 72
     2
176
     1
 73
     1
176
     1
 90
        2
176
     1
 40
0.6
176
     1
 41
30.0
176
     1
 63
     7
421
 16777215
176
     1
 74
     0
176
     1
 91
        4
176
     1
 64
     7
176
     1
 65
   257
176
     1
 75
     1
176
     1
175
     1
176
     1
 42
1.0
176
     1
 92
        8
176
     1
 66
   257
176
     1
 43
1.0
176
     1
 76
     1
176
     1
 77
     6
176
     1
 78
     2
176
     1
 67
     8
425
  7895160
176
     1
 79
     3
176
     1
170
     0
176
     1
171
     0
176
     1
290
     0
176
     1
 93
        5
176
     1
 44
0.0
176
     1
173
     0
176
     1
1001
ACAD
1000
AcDbSavedByObjectVersion
1070
     0
  0
VISUALSTYLE
  5
577
102
{ACAD_XDICTIONARY
360
620
102
}
102
{ACAD_REACTORS
330
563
102
}
330
563
100
AcDbVisualStyle
  2
Shaded with edges
 70
    26
177
     2
291
     0
 71
     2
176
     1
 72
     2
176
     1
 73
     1
176
     1
 90
        2
176
     1
 40
0.6
176
     1
 41
30.0
176
     1
 63
     7
421
 16777215
176
     1
 74
     1
176
     1
 91
       10
176
     1
 64
     7
176
     1
 65
   257
176
     1
 75
     2
176
     1
175
     1
176
     1
 42
1.0
176
     1
 92
        8
176
     1
 66
   257
176
     1
 43
1.0
176
     1
 76
     1
176
     1
 77
     6
176
     1
 78
     2
176
     1
 67
     7
176
     1
 79
     3
176
     1
170
     0
176
     1
171
     0
176
     1
290
     0
176
     1
 93
        5
176
     1
 44
0.0
176
     1
173
     0
176
     1
1001
ACAD
1000
AcDbSavedByObjectVersion
1070
     0
  0
VISUALSTYLE
  5
574
102
{ACAD_XDICTIONARY
360
61A
102
}
102
{ACAD_REACTORS
330
563
102
}
330
563
100
AcDbVisualStyle
  2
Shades of Gray
 70
    23
177
     2
291
     0
 71
     2
176
     1
 72
     2
176
     1
 73
     3
176
     1
 90
        0
176
     1
 40
0.6
176
     1
 41
30.0
176
     1
 63
     7
421
 16777215
176
     1
 74
     2
176
     1
 91
        2
176
     1
 64
     7
176
     1
 65
     7
176
     1
 75
     1
176
     1
175
     1
176
     1
 42
40.0
176
     1
 92
        8
176
     1
 66
     7
176
     1
 43
1.0
176
     1
 76
     1
176
     1
 77
     6
176
     1
 78
     2
176
     1
 67
     7
176
     1
 79
     3
176
     1
170
     0
176
     1
171
     0
176
     1
290
     0
176
     1
 93
        1
176
     1
 44
0.0
176
     1
173
     0
176
     1
1001
ACAD
1000
AcDbSavedByObjectVersion
1070
     0
  0
VISUALSTYLE
  5
575
102
{ACAD_XDICTIONARY
360
61C
102
}
102
{ACAD_REACTORS
330
563
102
}
330
563
100
AcDbVisualStyle
  2
Sketchy
 70
    24
177
     2
291
     0
 71
     1
176
     1
 72
     2
176
     1
 73
     2
176
     1
 90
        0
176
     1
 40
0.6
176
     1
 41
30.0
176
     1
 63
     7
421
 16777215
176
     1
 74
     2
176
     1
 91
        2
176
     1
 64
     7
176
     1
 65
     7
176
     1
 75
     1
176
     1
175
     1
176
     1
 42
40.0
176
     1
 92
       11
176
     1
 66
     7
176
     1
 43
1.0
176
     1
 76
     1
176
     1
 77
     6
176
     1
 78
     2
176
     1
 67
     7
176
     1
 79
     6
176
     1
170
     0
176
     1
171
     0
176
     1
290
     0
176
     1
 93
        1
176
     1
 44
0.0
176
     1
173
     0
176
     1
1001
ACAD
1000
AcDbSavedByObjectVersion
1070
     0
  0
VISUALSTYLE
  5
570
102
{ACAD_XDICTIONARY
360
612
102
}
102
{ACAD_REACTORS
330
563
102
}
330
563
100
AcDbVisualStyle
  2
Thicken
 70
    13
177
     2
291
     1
 71
     2
176
     1
 72
     2
176
     1
 73
     0
176
     1
 90
        0
176
     1
 40
0.6
176
     1
 41
30.0
176
     1
 63
     7
421
 16777215
176
     1
 74
     1
176
     1
 91
        4
176
     1
 64
     7
176
     1
 65
   257
176
     1
 75
     1
176
     1
175
     1
176
     1
 42
1.0
176
     1
 92
       12
176
     1
 66
     7
176
     1
 43
1.0
176
     1
 76
     1
176
     1
 77
     6
176
     1
 78
     2
176
     1
 67
     7
176
     1
 79
     5
176
     1
170
     0
176
     1
171
     0
176
     1
290
     0
176
     1
 93
        1
176
     1
 44
0.0
176
     1
173
     0
176
     1
1001
ACAD
1000
AcDbSavedByObjectVersion
1070
     0
  0
VISUALSTYLE
  5
56A
102
{ACAD_XDICTIONARY
360
606
102
}
102
{ACAD_REACTORS
330
563
102
}
330
563
100
AcDbVisualStyle
  2
Wireframe
 70
     5
177
     2
291
     0
 71
     0
176
     1
 72
     2
176
     1
 73
     0
176
     1
 90
        0
176
     1
 40
0.6
176
     1
 41
30.0
176
     1
 63
     7
421
 16777215
176
     1
 74
     1
176
     1
 91
        4
176
     1
 64
     7
176
     1
 65
   257
176
     1
 75
     1
176
     1
175
     1
176
     1
 42
1.0
176
     1
 92
        0
176
     1
 66
   257
176
     1
 43
1.0
176
     1
 76
     1
176
     1
 77
     6
176
     1
 78
     2
176
     1
 67
     7
176
     1
 79
     3
176
     1
170
     0
176
     1
171
     0
176
     1
290
     0
176
     1
 93
        1
176
     1
 44
0.0
176
     1
173
     0
176
     1
1001
ACAD
1000
AcDbSavedByObjectVersion
1070
     0
  0
VISUALSTYLE
  5
576
102
{ACAD_XDICTIONARY
360
61E
102
}
102
{ACAD_REACTORS
330
563
102
}
330
563
100
AcDbVisualStyle
  2
X-Ray
 70
    25
177
     2
291
     0
 71
     2
176
     1
 72
     2
176
     1
 73
     1
176
     1
 90
        1
176
     1
 40
0.5
176
     1
 41
30.0
176
     1
 63
     7
421
 16777215
176
     1
 74
     1
176
     1
 91
        0
176
     1
 64
     7
176
     1
 65
   257
176
     1
 75
     1
176
     1
175
     1
176
     1
 42
1.0
176
     1
 92
        8
176
     1
 66
     7
176
     1
 43
1.0
176
     1
 76
     1
176
     1
 77
     6
176
     1
 78
     2
176
     1
 67
     7
176
     1
 79
     3
176
     1
170
     0
176
     1
171
     0
176
     1
290
     0
176
     1
 93
       13
176
     1
 44
0.0
176
     1
173
     0
176
     1
1001
ACAD
1000
AcDbSavedByObjectVersion
1070
     0
  0
DICTIONARYVAR
  5
5F3
102
{ACAD_REACTORS
330
3A2
102
}
330
3A2
100
DictionaryVariables
280
     0
  1
1:1
  0
DICTIONARYVAR
  5
5EF
102
{ACAD_REACTORS
330
3A2
102
}
330
3A2
100
DictionaryVariables
280
     0
  1
STANDARD
  0
DICTIONARYVAR
  5
3A3
102
{ACAD_REACTORS
330
3A2
102
}
330
3A2
100
DictionaryVariables
280
     0
  1
STANDARD
  0
DICTIONARYVAR
  5
5F0
102
{ACAD_REACTORS
330
3A2
102
}
330
3A2
100
DictionaryVariables
280
     0
  1
Metric50
  0
DICTIONARYVAR
  5
5F1
102
{ACAD_REACTORS
330
3A2
102
}
330
3A2
100
DictionaryVariables
280
     0
  1
Metric50
  0
DICTIONARYVAR
  5
462
102
{ACAD_REACTORS
330
3A2
102
}
330
3A2
100
DictionaryVariables
280
     0
  1
1
  0
DICTIONARYVAR
  5
5F5
102
{ACAD_REACTORS
330
3A2
102
}
330
3A2
100
DictionaryVariables
280
     0
  1
1
  0
DICTIONARYVAR
  5
5F6
102
{ACAD_REACTORS
330
3A2
102
}
330
3A2
100
DictionaryVariables
280
     0
  1
15
  0
DICTIONARYVAR
  5
5F4
102
{ACAD_REACTORS
330
3A2
102
}
330
3A2
100
DictionaryVariables
280
     0
  1
0
  0
DICTIONARYVAR
  5
5F2
102
{ACAD_REACTORS
330
3A2
102
}
330
3A2
100
DictionaryVariables
280
     0
  1
0
  0
DICTIONARYVAR
  5
463
102
{ACAD_REACTORS
330
3A2
102
}
330
3A2
100
DictionaryVariables
280
     0
  1

  0
DICTIONARY
  5
62C
330
593
100
AcDbDictionary
280
     1
281
     1
  3
ACAD_XREC_ROUNDTRIP
360
62D
  0
DICTIONARY
  5
554
330
553
100
AcDbDictionary
280
     1
281
     1
  3
BUMPTILE
360
556
  3
DIFFUSETILE
360
555
  3
OPACITYTILE
360
559
  3
REFLECTIONTILE
360
558
  3
REFRACTIONTILE
360
55A
  3
SPECULARTILE
360
557
  0
DICTIONARY
  5
54C
330
54B
100
AcDbDictionary
280
     1
281
     1
  3
BUMPTILE
360
54E
  3
DIFFUSETILE
360
54D
  3
OPACITYTILE
360
551
  3
REFLECTIONTILE
360
550
  3
REFRACTIONTILE
360
552
  3
SPECULARTILE
360
54F
  0
DICTIONARY
  5
55C
330
55B
100
AcDbDictionary
280
     1
281
     1
  3
BUMPTILE
360
55E
  3
DIFFUSETILE
360
55D
  3
OPACITYTILE
360
561
  3
REFLECTIONTILE
360
560
  3
REFRACTIONTILE
360
562
  3
SPECULARTILE
360
55F
  0
DICTIONARY
  5
62A
330
591
100
AcDbDictionary
280
     1
281
     1
  3
ACAD_XREC_ROUNDTRIP
360
62B
  0
DICTIONARY
  5
5F7
330
39C
100
AcDbDictionary
280
     1
281
     1
  3
ACAD_ROUNDTRIP_2008_TABLESTYLE_CELLSTYLEMAP
360
5F8
  0
DICTIONARY
  5
604
330
569
100
AcDbDictionary
280
     1
281
     1
  3
ACAD_XREC_ROUNDTRIP
360
605
  0
DICTIONARY
  5
602
330
568
100
AcDbDictionary
280
     1
281
     1
  3
ACAD_XREC_ROUNDTRIP
360
603
  0
DICTIONARY
  5
610
330
56F
100
AcDbDictionary
280
     1
281
     1
  3
ACAD_XREC_ROUNDTRIP
360
611
  0
DICTIONARY
  5
618
330
573
100
AcDbDictionary
280
     1
281
     1
  3
ACAD_XREC_ROUNDTRIP
360
619
  0
DICTIONARY
  5
60A
330
56C
100
AcDbDictionary
280
     1
281
     1
  3
ACAD_XREC_ROUNDTRIP
360
60B
  0
DICTIONARY
  5
60E
330
56E
100
AcDbDictionary
280
     1
281
     1
  3
ACAD_XREC_ROUNDTRIP
360
60F
  0
DICTIONARY
  5
628
330
57B
100
AcDbDictionary
280
     1
281
     1
  3
ACAD_XREC_ROUNDTRIP
360
629
  0
DICTIONARY
  5
616
330
572
100
AcDbDictionary
280
     1
281
     1
  3
ACAD_XREC_ROUNDTRIP
360
617
  0
DICTIONARY
  5
5FA
330
564
100
AcDbDictionary
280
     1
281
     1
  3
ACAD_XREC_ROUNDTRIP
360
5FB
  0
DICTIONARY
  5
5FC
330
565
100
AcDbDictionary
280
     1
281
     1
  3
ACAD_XREC_ROUNDTRIP
360
5FD
  0
DICTIONARY
  5
5FE
330
566
100
AcDbDictionary
280
     1
281
     1
  3
ACAD_XREC_ROUNDTRIP
360
5FF
  0
DICTIONARY
  5
600
330
567
100
AcDbDictionary
280
     1
281
     1
  3
ACAD_XREC_ROUNDTRIP
360
601
  0
DICTIONARY
  5
608
330
56B
100
AcDbDictionary
280
     1
281
     1
  3
ACAD_XREC_ROUNDTRIP
360
609
  0
DICTIONARY
  5
624
330
579
100
AcDbDictionary
280
     1
281
     1
  3
ACAD_XREC_ROUNDTRIP
360
625
  0
DICTIONARY
  5
614
330
571
100
AcDbDictionary
280
     1
281
     1
  3
ACAD_XREC_ROUNDTRIP
360
615
  0
DICTIONARY
  5
626
330
57A
100
AcDbDictionary
280
     1
281
     1
  3
ACAD_XREC_ROUNDTRIP
360
627
  0
DICTIONARY
  5
60C
330
56D
100
AcDbDictionary
280
     1
281
     1
  3
ACAD_XREC_ROUNDTRIP
360
60D
  0
DICTIONARY
  5
622
330
578
100
AcDbDictionary
280
     1
281
     1
  3
ACAD_XREC_ROUNDTRIP
360
623
  0
DICTIONARY
  5
620
330
577
100
AcDbDictionary
280
     1
281
     1
  3
ACAD_XREC_ROUNDTRIP
360
621
  0
DICTIONARY
  5
61A
330
574
100
AcDbDictionary
280
     1
281
     1
  3
ACAD_XREC_ROUNDTRIP
360
61B
  0
DICTIONARY
  5
61C
330
575
100
AcDbDictionary
280
     1
281
     1
  3
ACAD_XREC_ROUNDTRIP
360
61D
  0
DICTIONARY
  5
612
330
570
100
AcDbDictionary
280
     1
281
     1
  3
ACAD_XREC_ROUNDTRIP
360
613
  0
DICTIONARY
  5
606
330
56A
100
AcDbDictionary
280
     1
281
     1
  3
ACAD_XREC_ROUNDTRIP
360
607
  0
DICTIONARY
  5
61E
330
576
100
AcDbDictionary
280
     1
281
     1
  3
ACAD_XREC_ROUNDTRIP
360
61F
  0
XRECORD
  5
62D
102
{ACAD_REACTORS
330
62C
102
}
330
62C
100
AcDbXrecord
280
     1
102
DISPLAYNAME
  1
Metric50
102
FLAGS
 90
        0
  0
XRECORD
  5
556
102
{ACAD_REACTORS
330
554
102
}
330
554
100
AcDbXrecord
280
     1
270
     1
271
     1
  0
XRECORD
  5
555
102
{ACAD_REACTORS
330
554
102
}
330
554
100
AcDbXrecord
280
     1
270
     1
271
     1
  0
XRECORD
  5
559
102
{ACAD_REACTORS
330
554
102
}
330
554
100
AcDbXrecord
280
     1
270
     1
271
     1
  0
XRECORD
  5
558
102
{ACAD_REACTORS
330
554
102
}
330
554
100
AcDbXrecord
280
     1
270
     1
271
     1
  0
XRECORD
  5
55A
102
{ACAD_REACTORS
330
554
102
}
330
554
100
AcDbXrecord
280
     1
270
     1
271
     1
  0
XRECORD
  5
557
102
{ACAD_REACTORS
330
554
102
}
330
554
100
AcDbXrecord
280
     1
270
     1
271
     1
  0
XRECORD
  5
54E
102
{ACAD_REACTORS
330
54C
102
}
330
54C
100
AcDbXrecord
280
     1
270
     1
271
     1
  0
XRECORD
  5
54D
102
{ACAD_REACTORS
330
54C
102
}
330
54C
100
AcDbXrecord
280
     1
270
     1
271
     1
  0
XRECORD
  5
551
102
{ACAD_REACTORS
330
54C
102
}
330
54C
100
AcDbXrecord
280
     1
270
     1
271
     1
  0
XRECORD
  5
550
102
{ACAD_REACTORS
330
54C
102
}
330
54C
100
AcDbXrecord
280
     1
270
     1
271
     1
  0
XRECORD
  5
552
102
{ACAD_REACTORS
330
54C
102
}
330
54C
100
AcDbXrecord
280
     1
270
     1
271
     1
  0
XRECORD
  5
54F
102
{ACAD_REACTORS
330
54C
102
}
330
54C
100
AcDbXrecord
280
     1
270
     1
271
     1
  0
XRECORD
  5
55E
102
{ACAD_REACTORS
330
55C
102
}
330
55C
100
AcDbXrecord
280
     1
270
     1
271
     1
  0
XRECORD
  5
55D
102
{ACAD_REACTORS
330
55C
102
}
330
55C
100
AcDbXrecord
280
     1
270
     1
271
     1
  0
XRECORD
  5
561
102
{ACAD_REACTORS
330
55C
102
}
330
55C
100
AcDbXrecord
280
     1
270
     1
271
     1
  0
XRECORD
  5
560
102
{ACAD_REACTORS
330
55C
102
}
330
55C
100
AcDbXrecord
280
     1
270
     1
271
     1
  0
XRECORD
  5
562
102
{ACAD_REACTORS
330
55C
102
}
330
55C
100
AcDbXrecord
280
     1
270
     1
271
     1
  0
XRECORD
  5
55F
102
{ACAD_REACTORS
330
55C
102
}
330
55C
100
AcDbXrecord
280
     1
270
     1
271
     1
  0
XRECORD
  5
62B
102
{ACAD_REACTORS
330
62A
102
}
330
62A
100
AcDbXrecord
280
     1
102
DISPLAYNAME
  1
Metric50
102
FLAGS
 90
        0
  0
CELLSTYLEMAP
  5
5F8
102
{ACAD_REACTORS
330
5F7
102
}
330
5F7
100
AcDbCellStyleMap
 90
        3
300
CELLSTYLE
  1
TABLEFORMAT_BEGIN
 90
        5
170
     1
 91
        0
 92
    32768
 62
   257
 93
        1
300
CONTENTFORMAT
  1
CONTENTFORMAT_BEGIN
 90
        0
 91
        0
 92
        4
 93
        0
300

 40
0.0
140
1.0
 94
        5
 62
     0
340
11
144
6.0
309
CONTENTFORMAT_END
171
     1
301
MARGIN
  1
CELLMARGIN_BEGIN
 40
1.5
 40
1.5
 40
1.5
 40
1.5
 40
0.18
 40
0.18
309
CELLMARGIN_END
 94
        6
 95
        1
302
GRIDFORMAT
  1
GRIDFORMAT_BEGIN
 90
        0
 91
        1
 62
     0
 92
       -2
340
0
 93
        0
 40
0.045
309
GRIDFORMAT_END
 95
        2
302
GRIDFORMAT
  1
GRIDFORMAT_BEGIN
 90
        0
 91
        1
 62
     0
 92
       -2
340
0
 93
        0
 40
0.045
309
GRIDFORMAT_END
 95
        4
302
GRIDFORMAT
  1
GRIDFORMAT_BEGIN
 90
        0
 91
        1
 62
     0
 92
       -2
340
0
 93
        0
 40
0.045
309
GRIDFORMAT_END
 95
        8
302
GRIDFORMAT
  1
GRIDFORMAT_BEGIN
 90
        0
 91
        1
 62
     0
 92
       -2
340
0
 93
        0
 40
0.045
309
GRIDFORMAT_END
 95
       16
302
GRIDFORMAT
  1
GRIDFORMAT_BEGIN
 90
        0
 91
        1
 62
     0
 92
       -2
340
0
 93
        0
 40
0.045
309
GRIDFORMAT_END
 95
       32
302
GRIDFORMAT
  1
GRIDFORMAT_BEGIN
 90
        0
 91
        1
 62
     0
 92
       -2
340
0
 93
        0
 40
0.045
309
GRIDFORMAT_END
309
TABLEFORMAT_END
  1
CELLSTYLE_BEGIN
 90
        1
 91
        1
300
_TITLE
309
CELLSTYLE_END
300
CELLSTYLE
  1
TABLEFORMAT_BEGIN
 90
        5
170
     1
 91
        0
 92
        0
 62
   257
 93
        1
300
CONTENTFORMAT
  1
CONTENTFORMAT_BEGIN
 90
        0
 91
        0
 92
        4
 93
        0
300

 40
0.0
140
1.0
 94
        5
 62
     0
340
11
144
4.5
309
CONTENTFORMAT_END
171
     1
301
MARGIN
  1
CELLMARGIN_BEGIN
 40
1.5
 40
1.5
 40
1.5
 40
1.5
 40
0.18
 40
0.18
309
CELLMARGIN_END
 94
        6
 95
        1
302
GRIDFORMAT
  1
GRIDFORMAT_BEGIN
 90
        0
 91
        1
 62
     0
 92
       -2
340
0
 93
        0
 40
0.045
309
GRIDFORMAT_END
 95
        2
302
GRIDFORMAT
  1
GRIDFORMAT_BEGIN
 90
        0
 91
        1
 62
     0
 92
       -2
340
0
 93
        0
 40
0.045
309
GRIDFORMAT_END
 95
        4
302
GRIDFORMAT
  1
GRIDFORMAT_BEGIN
 90
        0
 91
        1
 62
     0
 92
       -2
340
0
 93
        0
 40
0.045
309
GRIDFORMAT_END
 95
        8
302
GRIDFORMAT
  1
GRIDFORMAT_BEGIN
 90
        0
 91
        1
 62
     0
 92
       -2
340
0
 93
        0
 40
0.045
309
GRIDFORMAT_END
 95
       16
302
GRIDFORMAT
  1
GRIDFORMAT_BEGIN
 90
        0
 91
        1
 62
     0
 92
       -2
340
0
 93
        0
 40
0.045
309
GRIDFORMAT_END
 95
       32
302
GRIDFORMAT
  1
GRIDFORMAT_BEGIN
 90
        0
 91
        1
 62
     0
 92
       -2
340
0
 93
        0
 40
0.045
309
GRIDFORMAT_END
309
TABLEFORMAT_END
  1
CELLSTYLE_BEGIN
 90
        2
 91
        1
300
_HEADER
309
CELLSTYLE_END
300
CELLSTYLE
  1
TABLEFORMAT_BEGIN
 90
        5
170
     1
 91
        0
 92
        0
 62
   257
 93
        1
300
CONTENTFORMAT
  1
CONTENTFORMAT_BEGIN
 90
        0
 91
        0
 92
        4
 93
        0
300

 40
0.0
140
1.0
 94
        2
 62
     0
340
11
144
4.5
309
CONTENTFORMAT_END
171
     1
301
MARGIN
  1
CELLMARGIN_BEGIN
 40
1.5
 40
1.5
 40
1.5
 40
1.5
 40
0.18
 40
0.18
309
CELLMARGIN_END
 94
        6
 95
        1
302
GRIDFORMAT
  1
GRIDFORMAT_BEGIN
 90
        0
 91
        1
 62
     0
 92
       -2
340
0
 93
        0
 40
0.045
309
GRIDFORMAT_END
 95
        2
302
GRIDFORMAT
  1
GRIDFORMAT_BEGIN
 90
        0
 91
        1
 62
     0
 92
       -2
340
0
 93
        0
 40
0.045
309
GRIDFORMAT_END
 95
        4
302
GRIDFORMAT
  1
GRIDFORMAT_BEGIN
 90
        0
 91
        1
 62
     0
 92
       -2
340
0
 93
        0
 40
0.045
309
GRIDFORMAT_END
 95
        8
302
GRIDFORMAT
  1
GRIDFORMAT_BEGIN
 90
        0
 91
        1
 62
     0
 92
       -2
340
0
 93
        0
 40
0.045
309
GRIDFORMAT_END
 95
       16
302
GRIDFORMAT
  1
GRIDFORMAT_BEGIN
 90
        0
 91
        1
 62
     0
 92
       -2
340
0
 93
        0
 40
0.045
309
GRIDFORMAT_END
 95
       32
302
GRIDFORMAT
  1
GRIDFORMAT_BEGIN
 90
        0
 91
        1
 62
     0
 92
       -2
340
0
 93
        0
 40
0.045
309
GRIDFORMAT_END
309
TABLEFORMAT_END
  1
CELLSTYLE_BEGIN
 90
        3
 91
        2
300
_DATA
309
CELLSTYLE_END
  0
XRECORD
  5
605
102
{ACAD_REACTORS
330
604
102
}
330
604
100
AcDbXrecord
280
     1
102
RTVSPost2010Prop28
280
     1
102
RTVSPost2010PropOp28
 70
     1
102
RTVSPost2010Prop29
280
     1
102
RTVSPost2010PropOp29
 70
     1
102
RTVSPost2010Prop30
280
     0
102
RTVSPost2010PropOp30
 70
     1
102
RTVSPost2010Prop31
280
     0
102
RTVSPost2010PropOp31
 70
     1
102
RTVSPost2010Prop32
280
     0
102
RTVSPost2010PropOp32
 70
     1
102
RTVSPost2010Prop33
280
     0
102
RTVSPost2010PropOp33
 70
     1
102
RTVSPost2010Prop34
280
     0
102
RTVSPost2010PropOp34
 70
     1
102
RTVSPost2010Prop35
280
     0
102
RTVSPost2010PropOp35
 70
     1
102
RTVSPost2010Prop36
280
     0
102
RTVSPost2010PropOp36
 70
     1
102
RTVSPost2010Prop37
 90
       50
102
RTVSPost2010PropOp37
 70
     1
102
RTVSPost2010Prop38
140
0.0
102
RTVSPost2010PropOp38
 70
     1
102
RTVSPost2010Prop39
140
1.0
102
RTVSPost2010PropOp39
 70
     1
102
RTVSPost2010Prop40
 90
        0
102
RTVSPost2010PropOp40
 70
     1
102
RTVSPost2010Prop41ColorIndex
 90
       18
102
RTVSPost2010Prop41ColorRGB
 90
        0
102
RTVSPost2010PropOp41
 70
     1
102
RTVSPost2010Prop42
 90
       50
102
RTVSPost2010PropOp42
 70
     1
102
RTVSPost2010Prop43
 90
        3
102
RTVSPost2010PropOp43
 70
     1
102
RTVSPost2010Prop44ColorIndex
 90
        5
102
RTVSPost2010Prop44ColorRGB
 90
      255
102
RTVSPost2010PropOp44
 70
     1
102
RTVSPost2010Prop45
280
     0
102
RTVSPost2010PropOp45
 70
     1
102
RTVSPost2010Prop46
 90
       50
102
RTVSPost2010PropOp46
 70
     1
102
RTVSPost2010Prop47
 90
       50
102
RTVSPost2010PropOp47
 70
     1
102
RTVSPost2010Prop48
 90
       50
102
RTVSPost2010PropOp48
 70
     1
102
RTVSPost2010Prop49
280
     0
102
RTVSPost2010PropOp49
 70
     1
102
RTVSPost2010Prop50
 90
       50
102
RTVSPost2010PropOp50
 70
     1
102
RTVSPost2010Prop51ColorIndex
 90
      256
102
RTVSPost2010Prop51ColorRGB
 90
-16777216
102
RTVSPost2010PropOp51
 70
     0
102
RTVSPost2010Prop52
140
1.0
102
RTVSPost2010PropOp52
 70
     0
102
RTVSPost2010Prop53
 90
        2
102
RTVSPost2010PropOp53
 70
     1
102
RTVSPost2010Prop54
  1
strokes_ogs.tif
102
RTVSPost2010PropOp54
 70
     1
102
RTVSPost2010Prop55
280
     0
102
RTVSPost2010PropOp55
 70
     1
102
RTVSPost2010Prop56
140
1.0
102
RTVSPost2010PropOp56
 70
     1
102
RTVSPost2010Prop57
140
1.0
102
RTVSPost2010PropOp57
 70
     1
  0
XRECORD
  5
603
102
{ACAD_REACTORS
330
602
102
}
330
602
100
AcDbXrecord
280
     1
102
RTVSPost2010Prop28
280
     0
102
RTVSPost2010PropOp28
 70
     1
102
RTVSPost2010Prop29
280
     1
102
RTVSPost2010PropOp29
 70
     1
102
RTVSPost2010Prop30
280
     1
102
RTVSPost2010PropOp30
 70
     1
102
RTVSPost2010Prop31
280
     0
102
RTVSPost2010PropOp31
 70
     1
102
RTVSPost2010Prop32
280
     0
102
RTVSPost2010PropOp32
 70
     1
102
RTVSPost2010Prop33
280
     0
102
RTVSPost2010PropOp33
 70
     1
102
RTVSPost2010Prop34
280
     0
102
RTVSPost2010PropOp34
 70
     1
102
RTVSPost2010Prop35
280
     0
102
RTVSPost2010PropOp35
 70
     1
102
RTVSPost2010Prop36
280
     0
102
RTVSPost2010PropOp36
 70
     1
102
RTVSPost2010Prop37
 90
       50
102
RTVSPost2010PropOp37
 70
     1
102
RTVSPost2010Prop38
140
0.0
102
RTVSPost2010PropOp38
 70
     1
102
RTVSPost2010Prop39
140
1.0
102
RTVSPost2010PropOp39
 70
     1
102
RTVSPost2010Prop40
 90
        0
102
RTVSPost2010PropOp40
 70
     1
102
RTVSPost2010Prop41ColorIndex
 90
       18
102
RTVSPost2010Prop41ColorRGB
 90
        0
102
RTVSPost2010PropOp41
 70
     1
102
RTVSPost2010Prop42
 90
       50
102
RTVSPost2010PropOp42
 70
     1
102
RTVSPost2010Prop43
 90
        3
102
RTVSPost2010PropOp43
 70
     1
102
RTVSPost2010Prop44ColorIndex
 90
        5
102
RTVSPost2010Prop44ColorRGB
 90
      255
102
RTVSPost2010PropOp44
 70
     1
102
RTVSPost2010Prop45
280
     0
102
RTVSPost2010PropOp45
 70
     1
102
RTVSPost2010Prop46
 90
       50
102
RTVSPost2010PropOp46
 70
     1
102
RTVSPost2010Prop47
 90
       50
102
RTVSPost2010PropOp47
 70
     1
102
RTVSPost2010Prop48
 90
       50
102
RTVSPost2010PropOp48
 70
     1
102
RTVSPost2010Prop49
280
     0
102
RTVSPost2010PropOp49
 70
     1
102
RTVSPost2010Prop50
 90
       50
102
RTVSPost2010PropOp50
 70
     1
102
RTVSPost2010Prop51ColorIndex
 90
      256
102
RTVSPost2010Prop51ColorRGB
 90
-16777216
102
RTVSPost2010PropOp51
 70
     0
102
RTVSPost2010Prop52
140
1.0
102
RTVSPost2010PropOp52
 70
     0
102
RTVSPost2010Prop53
 90
        2
102
RTVSPost2010PropOp53
 70
     1
102
RTVSPost2010Prop54
  1
strokes_ogs.tif
102
RTVSPost2010PropOp54
 70
     1
102
RTVSPost2010Prop55
280
     0
102
RTVSPost2010PropOp55
 70
     1
102
RTVSPost2010Prop56
140
1.0
102
RTVSPost2010PropOp56
 70
     1
102
RTVSPost2010Prop57
140
1.0
102
RTVSPost2010PropOp57
 70
     1
  0
XRECORD
  5
611
102
{ACAD_REACTORS
330
610
102
}
330
610
100
AcDbXrecord
280
     1
102
RTVSPost2010Prop28
280
     0
102
RTVSPost2010PropOp28
 70
     1
102
RTVSPost2010Prop29
280
     1
102
RTVSPost2010PropOp29
 70
     1
102
RTVSPost2010Prop30
280
     1
102
RTVSPost2010PropOp30
 70
     1
102
RTVSPost2010Prop31
280
     0
102
RTVSPost2010PropOp31
 70
     1
102
RTVSPost2010Prop32
280
     0
102
RTVSPost2010PropOp32
 70
     1
102
RTVSPost2010Prop33
280
     0
102
RTVSPost2010PropOp33
 70
     1
102
RTVSPost2010Prop34
280
     0
102
RTVSPost2010PropOp34
 70
     1
102
RTVSPost2010Prop35
280
     0
102
RTVSPost2010PropOp35
 70
     1
102
RTVSPost2010Prop36
280
     0
102
RTVSPost2010PropOp36
 70
     1
102
RTVSPost2010Prop37
 90
       50
102
RTVSPost2010PropOp37
 70
     1
102
RTVSPost2010Prop38
140
0.0
102
RTVSPost2010PropOp38
 70
     1
102
RTVSPost2010Prop39
140
1.0
102
RTVSPost2010PropOp39
 70
     1
102
RTVSPost2010Prop40
 90
        0
102
RTVSPost2010PropOp40
 70
     1
102
RTVSPost2010Prop41ColorIndex
 90
       18
102
RTVSPost2010Prop41ColorRGB
 90
        0
102
RTVSPost2010PropOp41
 70
     1
102
RTVSPost2010Prop42
 90
       50
102
RTVSPost2010PropOp42
 70
     1
102
RTVSPost2010Prop43
 90
        3
102
RTVSPost2010PropOp43
 70
     1
102
RTVSPost2010Prop44ColorIndex
 90
        5
102
RTVSPost2010Prop44ColorRGB
 90
      255
102
RTVSPost2010PropOp44
 70
     1
102
RTVSPost2010Prop45
280
     0
102
RTVSPost2010PropOp45
 70
     1
102
RTVSPost2010Prop46
 90
       50
102
RTVSPost2010PropOp46
 70
     1
102
RTVSPost2010Prop47
 90
       50
102
RTVSPost2010PropOp47
 70
     1
102
RTVSPost2010Prop48
 90
       50
102
RTVSPost2010PropOp48
 70
     1
102
RTVSPost2010Prop49
280
     0
102
RTVSPost2010PropOp49
 70
     1
102
RTVSPost2010Prop50
 90
       50
102
RTVSPost2010PropOp50
 70
     1
102
RTVSPost2010Prop51ColorIndex
 90
      256
102
RTVSPost2010Prop51ColorRGB
 90
-16777216
102
RTVSPost2010PropOp51
 70
     0
102
RTVSPost2010Prop52
140
1.0
102
RTVSPost2010PropOp52
 70
     0
102
RTVSPost2010Prop53
 90
        2
102
RTVSPost2010PropOp53
 70
     1
102
RTVSPost2010Prop54
  1
strokes_ogs.tif
102
RTVSPost2010PropOp54
 70
     1
102
RTVSPost2010Prop55
280
     0
102
RTVSPost2010PropOp55
 70
     1
102
RTVSPost2010Prop56
140
1.0
102
RTVSPost2010PropOp56
 70
     1
102
RTVSPost2010Prop57
140
1.0
102
RTVSPost2010PropOp57
 70
     1
  0
XRECORD
  5
619
102
{ACAD_REACTORS
330
618
102
}
330
618
100
AcDbXrecord
280
     1
102
RTVSPost2010Prop28
280
     0
102
RTVSPost2010PropOp28
 70
     1
102
RTVSPost2010Prop29
280
     1
102
RTVSPost2010PropOp29
 70
     1
102
RTVSPost2010Prop30
280
     1
102
RTVSPost2010PropOp30
 70
     1
102
RTVSPost2010Prop31
280
     0
102
RTVSPost2010PropOp31
 70
     1
102
RTVSPost2010Prop32
280
     0
102
RTVSPost2010PropOp32
 70
     1
102
RTVSPost2010Prop33
280
     0
102
RTVSPost2010PropOp33
 70
     1
102
RTVSPost2010Prop34
280
     0
102
RTVSPost2010PropOp34
 70
     1
102
RTVSPost2010Prop35
280
     0
102
RTVSPost2010PropOp35
 70
     1
102
RTVSPost2010Prop36
280
     0
102
RTVSPost2010PropOp36
 70
     1
102
RTVSPost2010Prop37
 90
       50
102
RTVSPost2010PropOp37
 70
     1
102
RTVSPost2010Prop38
140
0.0
102
RTVSPost2010PropOp38
 70
     1
102
RTVSPost2010Prop39
140
1.0
102
RTVSPost2010PropOp39
 70
     1
102
RTVSPost2010Prop40
 90
        0
102
RTVSPost2010PropOp40
 70
     1
102
RTVSPost2010Prop41ColorIndex
 90
       18
102
RTVSPost2010Prop41ColorRGB
 90
        0
102
RTVSPost2010PropOp41
 70
     1
102
RTVSPost2010Prop42
 90
       50
102
RTVSPost2010PropOp42
 70
     1
102
RTVSPost2010Prop43
 90
        3
102
RTVSPost2010PropOp43
 70
     1
102
RTVSPost2010Prop44ColorIndex
 90
        5
102
RTVSPost2010Prop44ColorRGB
 90
      255
102
RTVSPost2010PropOp44
 70
     1
102
RTVSPost2010Prop45
280
     0
102
RTVSPost2010PropOp45
 70
     1
102
RTVSPost2010Prop46
 90
       50
102
RTVSPost2010PropOp46
 70
     1
102
RTVSPost2010Prop47
 90
       50
102
RTVSPost2010PropOp47
 70
     1
102
RTVSPost2010Prop48
 90
       50
102
RTVSPost2010PropOp48
 70
     1
102
RTVSPost2010Prop49
280
     0
102
RTVSPost2010PropOp49
 70
     1
102
RTVSPost2010Prop50
 90
       50
102
RTVSPost2010PropOp50
 70
     1
102
RTVSPost2010Prop51ColorIndex
 90
      256
102
RTVSPost2010Prop51ColorRGB
 90
-16777216
102
RTVSPost2010PropOp51
 70
     0
102
RTVSPost2010Prop52
140
1.0
102
RTVSPost2010PropOp52
 70
     0
102
RTVSPost2010Prop53
 90
        2
102
RTVSPost2010PropOp53
 70
     1
102
RTVSPost2010Prop54
  1
strokes_ogs.tif
102
RTVSPost2010PropOp54
 70
     1
102
RTVSPost2010Prop55
280
     0
102
RTVSPost2010PropOp55
 70
     1
102
RTVSPost2010Prop56
140
1.0
102
RTVSPost2010PropOp56
 70
     1
102
RTVSPost2010Prop57
140
1.0
102
RTVSPost2010PropOp57
 70
     1
  0
XRECORD
  5
60B
102
{ACAD_REACTORS
330
60A
102
}
330
60A
100
AcDbXrecord
280
     1
102
RTVSPost2010Prop28
280
     0
102
RTVSPost2010PropOp28
 70
     1
102
RTVSPost2010Prop29
280
     1
102
RTVSPost2010PropOp29
 70
     1
102
RTVSPost2010Prop30
280
     1
102
RTVSPost2010PropOp30
 70
     1
102
RTVSPost2010Prop31
280
     0
102
RTVSPost2010PropOp31
 70
     1
102
RTVSPost2010Prop32
280
     0
102
RTVSPost2010PropOp32
 70
     1
102
RTVSPost2010Prop33
280
     0
102
RTVSPost2010PropOp33
 70
     1
102
RTVSPost2010Prop34
280
     0
102
RTVSPost2010PropOp34
 70
     1
102
RTVSPost2010Prop35
280
     0
102
RTVSPost2010PropOp35
 70
     1
102
RTVSPost2010Prop36
280
     0
102
RTVSPost2010PropOp36
 70
     1
102
RTVSPost2010Prop37
 90
       50
102
RTVSPost2010PropOp37
 70
     1
102
RTVSPost2010Prop38
140
0.0
102
RTVSPost2010PropOp38
 70
     1
102
RTVSPost2010Prop39
140
1.0
102
RTVSPost2010PropOp39
 70
     1
102
RTVSPost2010Prop40
 90
        0
102
RTVSPost2010PropOp40
 70
     1
102
RTVSPost2010Prop41ColorIndex
 90
       18
102
RTVSPost2010Prop41ColorRGB
 90
        0
102
RTVSPost2010PropOp41
 70
     1
102
RTVSPost2010Prop42
 90
       50
102
RTVSPost2010PropOp42
 70
     1
102
RTVSPost2010Prop43
 90
        3
102
RTVSPost2010PropOp43
 70
     1
102
RTVSPost2010Prop44ColorIndex
 90
        5
102
RTVSPost2010Prop44ColorRGB
 90
      255
102
RTVSPost2010PropOp44
 70
     1
102
RTVSPost2010Prop45
280
     0
102
RTVSPost2010PropOp45
 70
     1
102
RTVSPost2010Prop46
 90
       50
102
RTVSPost2010PropOp46
 70
     1
102
RTVSPost2010Prop47
 90
       50
102
RTVSPost2010PropOp47
 70
     1
102
RTVSPost2010Prop48
 90
       50
102
RTVSPost2010PropOp48
 70
     1
102
RTVSPost2010Prop49
280
     0
102
RTVSPost2010PropOp49
 70
     1
102
RTVSPost2010Prop50
 90
       50
102
RTVSPost2010PropOp50
 70
     1
102
RTVSPost2010Prop51ColorIndex
 90
      256
102
RTVSPost2010Prop51ColorRGB
 90
-16777216
102
RTVSPost2010PropOp51
 70
     0
102
RTVSPost2010Prop52
140
1.0
102
RTVSPost2010PropOp52
 70
     0
102
RTVSPost2010Prop53
 90
        2
102
RTVSPost2010PropOp53
 70
     1
102
RTVSPost2010Prop54
  1
strokes_ogs.tif
102
RTVSPost2010PropOp54
 70
     1
102
RTVSPost2010Prop55
280
     0
102
RTVSPost2010PropOp55
 70
     1
102
RTVSPost2010Prop56
140
1.0
102
RTVSPost2010PropOp56
 70
     1
102
RTVSPost2010Prop57
140
1.0
102
RTVSPost2010PropOp57
 70
     1
  0
XRECORD
  5
60F
102
{ACAD_REACTORS
330
60E
102
}
330
60E
100
AcDbXrecord
280
     1
102
RTVSPost2010Prop28
280
     0
102
RTVSPost2010PropOp28
 70
     1
102
RTVSPost2010Prop29
280
     1
102
RTVSPost2010PropOp29
 70
     1
102
RTVSPost2010Prop30
280
     1
102
RTVSPost2010PropOp30
 70
     1
102
RTVSPost2010Prop31
280
     0
102
RTVSPost2010PropOp31
 70
     1
102
RTVSPost2010Prop32
280
     0
102
RTVSPost2010PropOp32
 70
     1
102
RTVSPost2010Prop33
280
     0
102
RTVSPost2010PropOp33
 70
     1
102
RTVSPost2010Prop34
280
     0
102
RTVSPost2010PropOp34
 70
     1
102
RTVSPost2010Prop35
280
     0
102
RTVSPost2010PropOp35
 70
     1
102
RTVSPost2010Prop36
280
     0
102
RTVSPost2010PropOp36
 70
     1
102
RTVSPost2010Prop37
 90
       50
102
RTVSPost2010PropOp37
 70
     1
102
RTVSPost2010Prop38
140
0.0
102
RTVSPost2010PropOp38
 70
     1
102
RTVSPost2010Prop39
140
1.0
102
RTVSPost2010PropOp39
 70
     1
102
RTVSPost2010Prop40
 90
        0
102
RTVSPost2010PropOp40
 70
     1
102
RTVSPost2010Prop41ColorIndex
 90
       18
102
RTVSPost2010Prop41ColorRGB
 90
        0
102
RTVSPost2010PropOp41
 70
     1
102
RTVSPost2010Prop42
 90
       50
102
RTVSPost2010PropOp42
 70
     1
102
RTVSPost2010Prop43
 90
        3
102
RTVSPost2010PropOp43
 70
     1
102
RTVSPost2010Prop44ColorIndex
 90
        5
102
RTVSPost2010Prop44ColorRGB
 90
      255
102
RTVSPost2010PropOp44
 70
     1
102
RTVSPost2010Prop45
280
     0
102
RTVSPost2010PropOp45
 70
     1
102
RTVSPost2010Prop46
 90
       50
102
RTVSPost2010PropOp46
 70
     1
102
RTVSPost2010Prop47
 90
       50
102
RTVSPost2010PropOp47
 70
     1
102
RTVSPost2010Prop48
 90
       50
102
RTVSPost2010PropOp48
 70
     1
102
RTVSPost2010Prop49
280
     0
102
RTVSPost2010PropOp49
 70
     1
102
RTVSPost2010Prop50
 90
       50
102
RTVSPost2010PropOp50
 70
     1
102
RTVSPost2010Prop51ColorIndex
 90
      256
102
RTVSPost2010Prop51ColorRGB
 90
-16777216
102
RTVSPost2010PropOp51
 70
     0
102
RTVSPost2010Prop52
140
1.0
102
RTVSPost2010PropOp52
 70
     0
102
RTVSPost2010Prop53
 90
        2
102
RTVSPost2010PropOp53
 70
     1
102
RTVSPost2010Prop54
  1
strokes_ogs.tif
102
RTVSPost2010PropOp54
 70
     1
102
RTVSPost2010Prop55
280
     0
102
RTVSPost2010PropOp55
 70
     1
102
RTVSPost2010Prop56
140
1.0
102
RTVSPost2010PropOp56
 70
     1
102
RTVSPost2010Prop57
140
1.0
102
RTVSPost2010PropOp57
 70
     1
  0
XRECORD
  5
629
102
{ACAD_REACTORS
330
628
102
}
330
628
100
AcDbXrecord
280
     1
102
RTVSPost2010Prop28
280
     0
102
RTVSPost2010PropOp28
 70
     1
102
RTVSPost2010Prop29
280
     1
102
RTVSPost2010PropOp29
 70
     1
102
RTVSPost2010Prop30
280
     1
102
RTVSPost2010PropOp30
 70
     1
102
RTVSPost2010Prop31
280
     0
102
RTVSPost2010PropOp31
 70
     1
102
RTVSPost2010Prop32
280
     0
102
RTVSPost2010PropOp32
 70
     1
102
RTVSPost2010Prop33
280
     0
102
RTVSPost2010PropOp33
 70
     1
102
RTVSPost2010Prop34
280
     0
102
RTVSPost2010PropOp34
 70
     1
102
RTVSPost2010Prop35
280
     0
102
RTVSPost2010PropOp35
 70
     1
102
RTVSPost2010Prop36
280
     0
102
RTVSPost2010PropOp36
 70
     1
102
RTVSPost2010Prop37
 90
       50
102
RTVSPost2010PropOp37
 70
     0
102
RTVSPost2010Prop38
140
0.0
102
RTVSPost2010PropOp38
 70
     0
102
RTVSPost2010Prop39
140
1.0
102
RTVSPost2010PropOp39
 70
     0
102
RTVSPost2010Prop40
 90
        0
102
RTVSPost2010PropOp40
 70
     0
102
RTVSPost2010Prop41ColorIndex
 90
       18
102
RTVSPost2010Prop41ColorRGB
 90
        0
102
RTVSPost2010PropOp41
 70
     0
102
RTVSPost2010Prop42
 90
       50
102
RTVSPost2010PropOp42
 70
     0
102
RTVSPost2010Prop43
 90
        3
102
RTVSPost2010PropOp43
 70
     0
102
RTVSPost2010Prop44ColorIndex
 90
        5
102
RTVSPost2010Prop44ColorRGB
 90
      255
102
RTVSPost2010PropOp44
 70
     0
102
RTVSPost2010Prop45
280
     0
102
RTVSPost2010PropOp45
 70
     1
102
RTVSPost2010Prop46
 90
       50
102
RTVSPost2010PropOp46
 70
     0
102
RTVSPost2010Prop47
 90
       50
102
RTVSPost2010PropOp47
 70
     0
102
RTVSPost2010Prop48
 90
       50
102
RTVSPost2010PropOp48
 70
     0
102
RTVSPost2010Prop49
280
     0
102
RTVSPost2010PropOp49
 70
     1
102
RTVSPost2010Prop50
 90
       50
102
RTVSPost2010PropOp50
 70
     0
102
RTVSPost2010Prop51ColorIndex
 90
      256
102
RTVSPost2010Prop51ColorRGB
 90
-16777216
102
RTVSPost2010PropOp51
 70
     0
102
RTVSPost2010Prop52
140
1.0
102
RTVSPost2010PropOp52
 70
     0
102
RTVSPost2010Prop53
 90
        2
102
RTVSPost2010PropOp53
 70
     0
102
RTVSPost2010Prop54
  1
strokes_ogs.tif
102
RTVSPost2010PropOp54
 70
     0
102
RTVSPost2010Prop55
280
     0
102
RTVSPost2010PropOp55
 70
     1
102
RTVSPost2010Prop56
140
1.0
102
RTVSPost2010PropOp56
 70
     0
102
RTVSPost2010Prop57
140
1.0
102
RTVSPost2010PropOp57
 70
     0
  0
XRECORD
  5
617
102
{ACAD_REACTORS
330
616
102
}
330
616
100
AcDbXrecord
280
     1
102
RTVSPost2010Prop28
280
     0
102
RTVSPost2010PropOp28
 70
     1
102
RTVSPost2010Prop29
280
     1
102
RTVSPost2010PropOp29
 70
     1
102
RTVSPost2010Prop30
280
     1
102
RTVSPost2010PropOp30
 70
     1
102
RTVSPost2010Prop31
280
     0
102
RTVSPost2010PropOp31
 70
     1
102
RTVSPost2010Prop32
280
     0
102
RTVSPost2010PropOp32
 70
     1
102
RTVSPost2010Prop33
280
     0
102
RTVSPost2010PropOp33
 70
     1
102
RTVSPost2010Prop34
280
     0
102
RTVSPost2010PropOp34
 70
     1
102
RTVSPost2010Prop35
280
     0
102
RTVSPost2010PropOp35
 70
     1
102
RTVSPost2010Prop36
280
     0
102
RTVSPost2010PropOp36
 70
     1
102
RTVSPost2010Prop37
 90
       50
102
RTVSPost2010PropOp37
 70
     1
102
RTVSPost2010Prop38
140
0.0
102
RTVSPost2010PropOp38
 70
     1
102
RTVSPost2010Prop39
140
1.0
102
RTVSPost2010PropOp39
 70
     1
102
RTVSPost2010Prop40
 90
        0
102
RTVSPost2010PropOp40
 70
     1
102
RTVSPost2010Prop41ColorIndex
 90
       18
102
RTVSPost2010Prop41ColorRGB
 90
        0
102
RTVSPost2010PropOp41
 70
     1
102
RTVSPost2010Prop42
 90
       50
102
RTVSPost2010PropOp42
 70
     1
102
RTVSPost2010Prop43
 90
        3
102
RTVSPost2010PropOp43
 70
     1
102
RTVSPost2010Prop44ColorIndex
 90
        5
102
RTVSPost2010Prop44ColorRGB
 90
      255
102
RTVSPost2010PropOp44
 70
     1
102
RTVSPost2010Prop45
280
     0
102
RTVSPost2010PropOp45
 70
     1
102
RTVSPost2010Prop46
 90
       50
102
RTVSPost2010PropOp46
 70
     1
102
RTVSPost2010Prop47
 90
       50
102
RTVSPost2010PropOp47
 70
     1
102
RTVSPost2010Prop48
 90
       50
102
RTVSPost2010PropOp48
 70
     1
102
RTVSPost2010Prop49
280
     0
102
RTVSPost2010PropOp49
 70
     1
102
RTVSPost2010Prop50
 90
       50
102
RTVSPost2010PropOp50
 70
     1
102
RTVSPost2010Prop51ColorIndex
 90
      256
102
RTVSPost2010Prop51ColorRGB
 90
-16777216
102
RTVSPost2010PropOp51
 70
     0
102
RTVSPost2010Prop52
140
1.0
102
RTVSPost2010PropOp52
 70
     0
102
RTVSPost2010Prop53
 90
        2
102
RTVSPost2010PropOp53
 70
     1
102
RTVSPost2010Prop54
  1
strokes_ogs.tif
102
RTVSPost2010PropOp54
 70
     1
102
RTVSPost2010Prop55
280
     0
102
RTVSPost2010PropOp55
 70
     1
102
RTVSPost2010Prop56
140
1.0
102
RTVSPost2010PropOp56
 70
     1
102
RTVSPost2010Prop57
140
1.0
102
RTVSPost2010PropOp57
 70
     1
  0
XRECORD
  5
5FB
102
{ACAD_REACTORS
330
5FA
102
}
330
5FA
100
AcDbXrecord
280
     1
102
RTVSPost2010Prop28
280
     0
102
RTVSPost2010PropOp28
 70
     1
102
RTVSPost2010Prop29
280
     1
102
RTVSPost2010PropOp29
 70
     1
102
RTVSPost2010Prop30
280
     1
102
RTVSPost2010PropOp30
 70
     1
102
RTVSPost2010Prop31
280
     0
102
RTVSPost2010PropOp31
 70
     1
102
RTVSPost2010Prop32
280
     0
102
RTVSPost2010PropOp32
 70
     1
102
RTVSPost2010Prop33
280
     0
102
RTVSPost2010PropOp33
 70
     1
102
RTVSPost2010Prop34
280
     0
102
RTVSPost2010PropOp34
 70
     1
102
RTVSPost2010Prop35
280
     0
102
RTVSPost2010PropOp35
 70
     1
102
RTVSPost2010Prop36
280
     0
102
RTVSPost2010PropOp36
 70
     1
102
RTVSPost2010Prop37
 90
       50
102
RTVSPost2010PropOp37
 70
     1
102
RTVSPost2010Prop38
140
0.0
102
RTVSPost2010PropOp38
 70
     1
102
RTVSPost2010Prop39
140
1.0
102
RTVSPost2010PropOp39
 70
     1
102
RTVSPost2010Prop40
 90
        0
102
RTVSPost2010PropOp40
 70
     1
102
RTVSPost2010Prop41ColorIndex
 90
       18
102
RTVSPost2010Prop41ColorRGB
 90
        0
102
RTVSPost2010PropOp41
 70
     1
102
RTVSPost2010Prop42
 90
       50
102
RTVSPost2010PropOp42
 70
     1
102
RTVSPost2010Prop43
 90
        3
102
RTVSPost2010PropOp43
 70
     1
102
RTVSPost2010Prop44ColorIndex
 90
        5
102
RTVSPost2010Prop44ColorRGB
 90
      255
102
RTVSPost2010PropOp44
 70
     1
102
RTVSPost2010Prop45
280
     0
102
RTVSPost2010PropOp45
 70
     1
102
RTVSPost2010Prop46
 90
       50
102
RTVSPost2010PropOp46
 70
     1
102
RTVSPost2010Prop47
 90
       50
102
RTVSPost2010PropOp47
 70
     1
102
RTVSPost2010Prop48
 90
       50
102
RTVSPost2010PropOp48
 70
     1
102
RTVSPost2010Prop49
280
     0
102
RTVSPost2010PropOp49
 70
     1
102
RTVSPost2010Prop50
 90
       50
102
RTVSPost2010PropOp50
 70
     1
102
RTVSPost2010Prop51ColorIndex
 90
      256
102
RTVSPost2010Prop51ColorRGB
 90
-16777216
102
RTVSPost2010PropOp51
 70
     0
102
RTVSPost2010Prop52
140
1.0
102
RTVSPost2010PropOp52
 70
     0
102
RTVSPost2010Prop53
 90
        2
102
RTVSPost2010PropOp53
 70
     1
102
RTVSPost2010Prop54
  1
strokes_ogs.tif
102
RTVSPost2010PropOp54
 70
     1
102
RTVSPost2010Prop55
280
     0
102
RTVSPost2010PropOp55
 70
     1
102
RTVSPost2010Prop56
140
1.0
102
RTVSPost2010PropOp56
 70
     1
102
RTVSPost2010Prop57
140
1.0
102
RTVSPost2010PropOp57
 70
     1
  0
XRECORD
  5
5FD
102
{ACAD_REACTORS
330
5FC
102
}
330
5FC
100
AcDbXrecord
280
     1
102
RTVSPost2010Prop28
280
     0
102
RTVSPost2010PropOp28
 70
     1
102
RTVSPost2010Prop29
280
     1
102
RTVSPost2010PropOp29
 70
     1
102
RTVSPost2010Prop30
280
     1
102
RTVSPost2010PropOp30
 70
     1
102
RTVSPost2010Prop31
280
     0
102
RTVSPost2010PropOp31
 70
     1
102
RTVSPost2010Prop32
280
     0
102
RTVSPost2010PropOp32
 70
     1
102
RTVSPost2010Prop33
280
     0
102
RTVSPost2010PropOp33
 70
     1
102
RTVSPost2010Prop34
280
     0
102
RTVSPost2010PropOp34
 70
     1
102
RTVSPost2010Prop35
280
     0
102
RTVSPost2010PropOp35
 70
     1
102
RTVSPost2010Prop36
280
     0
102
RTVSPost2010PropOp36
 70
     1
102
RTVSPost2010Prop37
 90
       50
102
RTVSPost2010PropOp37
 70
     1
102
RTVSPost2010Prop38
140
0.0
102
RTVSPost2010PropOp38
 70
     1
102
RTVSPost2010Prop39
140
1.0
102
RTVSPost2010PropOp39
 70
     1
102
RTVSPost2010Prop40
 90
        0
102
RTVSPost2010PropOp40
 70
     1
102
RTVSPost2010Prop41ColorIndex
 90
       18
102
RTVSPost2010Prop41ColorRGB
 90
        0
102
RTVSPost2010PropOp41
 70
     1
102
RTVSPost2010Prop42
 90
       50
102
RTVSPost2010PropOp42
 70
     1
102
RTVSPost2010Prop43
 90
        3
102
RTVSPost2010PropOp43
 70
     1
102
RTVSPost2010Prop44ColorIndex
 90
        5
102
RTVSPost2010Prop44ColorRGB
 90
      255
102
RTVSPost2010PropOp44
 70
     1
102
RTVSPost2010Prop45
280
     0
102
RTVSPost2010PropOp45
 70
     1
102
RTVSPost2010Prop46
 90
       50
102
RTVSPost2010PropOp46
 70
     1
102
RTVSPost2010Prop47
 90
       50
102
RTVSPost2010PropOp47
 70
     1
102
RTVSPost2010Prop48
 90
       50
102
RTVSPost2010PropOp48
 70
     1
102
RTVSPost2010Prop49
280
     0
102
RTVSPost2010PropOp49
 70
     1
102
RTVSPost2010Prop50
 90
       50
102
RTVSPost2010PropOp50
 70
     1
102
RTVSPost2010Prop51ColorIndex
 90
      256
102
RTVSPost2010Prop51ColorRGB
 90
-16777216
102
RTVSPost2010PropOp51
 70
     0
102
RTVSPost2010Prop52
140
1.0
102
RTVSPost2010PropOp52
 70
     0
102
RTVSPost2010Prop53
 90
        2
102
RTVSPost2010PropOp53
 70
     1
102
RTVSPost2010Prop54
  1
strokes_ogs.tif
102
RTVSPost2010PropOp54
 70
     1
102
RTVSPost2010Prop55
280
     0
102
RTVSPost2010PropOp55
 70
     1
102
RTVSPost2010Prop56
140
1.0
102
RTVSPost2010PropOp56
 70
     1
102
RTVSPost2010Prop57
140
1.0
102
RTVSPost2010PropOp57
 70
     1
  0
XRECORD
  5
5FF
102
{ACAD_REACTORS
330
5FE
102
}
330
5FE
100
AcDbXrecord
280
     1
102
RTVSPost2010Prop28
280
     0
102
RTVSPost2010PropOp28
 70
     1
102
RTVSPost2010Prop29
280
     1
102
RTVSPost2010PropOp29
 70
     1
102
RTVSPost2010Prop30
280
     1
102
RTVSPost2010PropOp30
 70
     1
102
RTVSPost2010Prop31
280
     0
102
RTVSPost2010PropOp31
 70
     1
102
RTVSPost2010Prop32
280
     0
102
RTVSPost2010PropOp32
 70
     1
102
RTVSPost2010Prop33
280
     0
102
RTVSPost2010PropOp33
 70
     1
102
RTVSPost2010Prop34
280
     0
102
RTVSPost2010PropOp34
 70
     1
102
RTVSPost2010Prop35
280
     0
102
RTVSPost2010PropOp35
 70
     1
102
RTVSPost2010Prop36
280
     0
102
RTVSPost2010PropOp36
 70
     1
102
RTVSPost2010Prop37
 90
       50
102
RTVSPost2010PropOp37
 70
     1
102
RTVSPost2010Prop38
140
0.0
102
RTVSPost2010PropOp38
 70
     1
102
RTVSPost2010Prop39
140
1.0
102
RTVSPost2010PropOp39
 70
     1
102
RTVSPost2010Prop40
 90
        0
102
RTVSPost2010PropOp40
 70
     1
102
RTVSPost2010Prop41ColorIndex
 90
       18
102
RTVSPost2010Prop41ColorRGB
 90
        0
102
RTVSPost2010PropOp41
 70
     1
102
RTVSPost2010Prop42
 90
       50
102
RTVSPost2010PropOp42
 70
     1
102
RTVSPost2010Prop43
 90
        3
102
RTVSPost2010PropOp43
 70
     1
102
RTVSPost2010Prop44ColorIndex
 90
        5
102
RTVSPost2010Prop44ColorRGB
 90
      255
102
RTVSPost2010PropOp44
 70
     1
102
RTVSPost2010Prop45
280
     0
102
RTVSPost2010PropOp45
 70
     1
102
RTVSPost2010Prop46
 90
       50
102
RTVSPost2010PropOp46
 70
     1
102
RTVSPost2010Prop47
 90
       50
102
RTVSPost2010PropOp47
 70
     1
102
RTVSPost2010Prop48
 90
       50
102
RTVSPost2010PropOp48
 70
     1
102
RTVSPost2010Prop49
280
     0
102
RTVSPost2010PropOp49
 70
     1
102
RTVSPost2010Prop50
 90
       50
102
RTVSPost2010PropOp50
 70
     1
102
RTVSPost2010Prop51ColorIndex
 90
      256
102
RTVSPost2010Prop51ColorRGB
 90
-16777216
102
RTVSPost2010PropOp51
 70
     0
102
RTVSPost2010Prop52
140
1.0
102
RTVSPost2010PropOp52
 70
     0
102
RTVSPost2010Prop53
 90
        2
102
RTVSPost2010PropOp53
 70
     1
102
RTVSPost2010Prop54
  1
strokes_ogs.tif
102
RTVSPost2010PropOp54
 70
     1
102
RTVSPost2010Prop55
280
     0
102
RTVSPost2010PropOp55
 70
     1
102
RTVSPost2010Prop56
140
1.0
102
RTVSPost2010PropOp56
 70
     1
102
RTVSPost2010Prop57
140
1.0
102
RTVSPost2010PropOp57
 70
     1
  0
XRECORD
  5
601
102
{ACAD_REACTORS
330
600
102
}
330
600
100
AcDbXrecord
280
     1
102
RTVSPost2010Prop28
280
     0
102
RTVSPost2010PropOp28
 70
     1
102
RTVSPost2010Prop29
280
     1
102
RTVSPost2010PropOp29
 70
     1
102
RTVSPost2010Prop30
280
     1
102
RTVSPost2010PropOp30
 70
     1
102
RTVSPost2010Prop31
280
     0
102
RTVSPost2010PropOp31
 70
     1
102
RTVSPost2010Prop32
280
     0
102
RTVSPost2010PropOp32
 70
     1
102
RTVSPost2010Prop33
280
     0
102
RTVSPost2010PropOp33
 70
     1
102
RTVSPost2010Prop34
280
     0
102
RTVSPost2010PropOp34
 70
     1
102
RTVSPost2010Prop35
280
     0
102
RTVSPost2010PropOp35
 70
     1
102
RTVSPost2010Prop36
280
     0
102
RTVSPost2010PropOp36
 70
     1
102
RTVSPost2010Prop37
 90
       50
102
RTVSPost2010PropOp37
 70
     1
102
RTVSPost2010Prop38
140
0.0
102
RTVSPost2010PropOp38
 70
     1
102
RTVSPost2010Prop39
140
1.0
102
RTVSPost2010PropOp39
 70
     1
102
RTVSPost2010Prop40
 90
        0
102
RTVSPost2010PropOp40
 70
     1
102
RTVSPost2010Prop41ColorIndex
 90
       18
102
RTVSPost2010Prop41ColorRGB
 90
        0
102
RTVSPost2010PropOp41
 70
     1
102
RTVSPost2010Prop42
 90
       50
102
RTVSPost2010PropOp42
 70
     1
102
RTVSPost2010Prop43
 90
        3
102
RTVSPost2010PropOp43
 70
     1
102
RTVSPost2010Prop44ColorIndex
 90
        5
102
RTVSPost2010Prop44ColorRGB
 90
      255
102
RTVSPost2010PropOp44
 70
     1
102
RTVSPost2010Prop45
280
     0
102
RTVSPost2010PropOp45
 70
     1
102
RTVSPost2010Prop46
 90
       50
102
RTVSPost2010PropOp46
 70
     1
102
RTVSPost2010Prop47
 90
       50
102
RTVSPost2010PropOp47
 70
     1
102
RTVSPost2010Prop48
 90
       50
102
RTVSPost2010PropOp48
 70
     1
102
RTVSPost2010Prop49
280
     0
102
RTVSPost2010PropOp49
 70
     1
102
RTVSPost2010Prop50
 90
       50
102
RTVSPost2010PropOp50
 70
     1
102
RTVSPost2010Prop51ColorIndex
 90
      256
102
RTVSPost2010Prop51ColorRGB
 90
-16777216
102
RTVSPost2010PropOp51
 70
     0
102
RTVSPost2010Prop52
140
1.0
102
RTVSPost2010PropOp52
 70
     0
102
RTVSPost2010Prop53
 90
        2
102
RTVSPost2010PropOp53
 70
     1
102
RTVSPost2010Prop54
  1
strokes_ogs.tif
102
RTVSPost2010PropOp54
 70
     1
102
RTVSPost2010Prop55
280
     0
102
RTVSPost2010PropOp55
 70
     1
102
RTVSPost2010Prop56
140
1.0
102
RTVSPost2010PropOp56
 70
     1
102
RTVSPost2010Prop57
140
1.0
102
RTVSPost2010PropOp57
 70
     1
  0
XRECORD
  5
609
102
{ACAD_REACTORS
330
608
102
}
330
608
100
AcDbXrecord
280
     1
102
RTVSPost2010Prop28
280
     0
102
RTVSPost2010PropOp28
 70
     1
102
RTVSPost2010Prop29
280
     1
102
RTVSPost2010PropOp29
 70
     1
102
RTVSPost2010Prop30
280
     1
102
RTVSPost2010PropOp30
 70
     1
102
RTVSPost2010Prop31
280
     0
102
RTVSPost2010PropOp31
 70
     1
102
RTVSPost2010Prop32
280
     0
102
RTVSPost2010PropOp32
 70
     1
102
RTVSPost2010Prop33
280
     0
102
RTVSPost2010PropOp33
 70
     1
102
RTVSPost2010Prop34
280
     0
102
RTVSPost2010PropOp34
 70
     1
102
RTVSPost2010Prop35
280
     0
102
RTVSPost2010PropOp35
 70
     1
102
RTVSPost2010Prop36
280
     0
102
RTVSPost2010PropOp36
 70
     1
102
RTVSPost2010Prop37
 90
       50
102
RTVSPost2010PropOp37
 70
     1
102
RTVSPost2010Prop38
140
0.0
102
RTVSPost2010PropOp38
 70
     1
102
RTVSPost2010Prop39
140
1.0
102
RTVSPost2010PropOp39
 70
     1
102
RTVSPost2010Prop40
 90
        0
102
RTVSPost2010PropOp40
 70
     1
102
RTVSPost2010Prop41ColorIndex
 90
       18
102
RTVSPost2010Prop41ColorRGB
 90
        0
102
RTVSPost2010PropOp41
 70
     1
102
RTVSPost2010Prop42
 90
       50
102
RTVSPost2010PropOp42
 70
     1
102
RTVSPost2010Prop43
 90
        3
102
RTVSPost2010PropOp43
 70
     1
102
RTVSPost2010Prop44ColorIndex
 90
        5
102
RTVSPost2010Prop44ColorRGB
 90
      255
102
RTVSPost2010PropOp44
 70
     1
102
RTVSPost2010Prop45
280
     0
102
RTVSPost2010PropOp45
 70
     1
102
RTVSPost2010Prop46
 90
       50
102
RTVSPost2010PropOp46
 70
     1
102
RTVSPost2010Prop47
 90
       50
102
RTVSPost2010PropOp47
 70
     1
102
RTVSPost2010Prop48
 90
       50
102
RTVSPost2010PropOp48
 70
     1
102
RTVSPost2010Prop49
280
     0
102
RTVSPost2010PropOp49
 70
     1
102
RTVSPost2010Prop50
 90
       50
102
RTVSPost2010PropOp50
 70
     1
102
RTVSPost2010Prop51ColorIndex
 90
      256
102
RTVSPost2010Prop51ColorRGB
 90
-16777216
102
RTVSPost2010PropOp51
 70
     0
102
RTVSPost2010Prop52
140
1.0
102
RTVSPost2010PropOp52
 70
     0
102
RTVSPost2010Prop53
 90
        2
102
RTVSPost2010PropOp53
 70
     1
102
RTVSPost2010Prop54
  1
strokes_ogs.tif
102
RTVSPost2010PropOp54
 70
     1
102
RTVSPost2010Prop55
280
     0
102
RTVSPost2010PropOp55
 70
     1
102
RTVSPost2010Prop56
140
1.0
102
RTVSPost2010PropOp56
 70
     1
102
RTVSPost2010Prop57
140
1.0
102
RTVSPost2010PropOp57
 70
     1
  0
XRECORD
  5
625
102
{ACAD_REACTORS
330
624
102
}
330
624
100
AcDbXrecord
280
     1
102
RTVSPost2010Prop28
280
     0
102
RTVSPost2010PropOp28
 70
     1
102
RTVSPost2010Prop29
280
     1
102
RTVSPost2010PropOp29
 70
     1
102
RTVSPost2010Prop30
280
     1
102
RTVSPost2010PropOp30
 70
     1
102
RTVSPost2010Prop31
280
     0
102
RTVSPost2010PropOp31
 70
     1
102
RTVSPost2010Prop32
280
     0
102
RTVSPost2010PropOp32
 70
     1
102
RTVSPost2010Prop33
280
     0
102
RTVSPost2010PropOp33
 70
     1
102
RTVSPost2010Prop34
280
     0
102
RTVSPost2010PropOp34
 70
     1
102
RTVSPost2010Prop35
280
     0
102
RTVSPost2010PropOp35
 70
     1
102
RTVSPost2010Prop36
280
     0
102
RTVSPost2010PropOp36
 70
     1
102
RTVSPost2010Prop37
 90
       50
102
RTVSPost2010PropOp37
 70
     0
102
RTVSPost2010Prop38
140
0.0
102
RTVSPost2010PropOp38
 70
     0
102
RTVSPost2010Prop39
140
1.0
102
RTVSPost2010PropOp39
 70
     0
102
RTVSPost2010Prop40
 90
        0
102
RTVSPost2010PropOp40
 70
     0
102
RTVSPost2010Prop41ColorIndex
 90
       18
102
RTVSPost2010Prop41ColorRGB
 90
        0
102
RTVSPost2010PropOp41
 70
     0
102
RTVSPost2010Prop42
 90
       50
102
RTVSPost2010PropOp42
 70
     0
102
RTVSPost2010Prop43
 90
        3
102
RTVSPost2010PropOp43
 70
     0
102
RTVSPost2010Prop44ColorIndex
 90
        5
102
RTVSPost2010Prop44ColorRGB
 90
      255
102
RTVSPost2010PropOp44
 70
     0
102
RTVSPost2010Prop45
280
     0
102
RTVSPost2010PropOp45
 70
     1
102
RTVSPost2010Prop46
 90
       50
102
RTVSPost2010PropOp46
 70
     0
102
RTVSPost2010Prop47
 90
       50
102
RTVSPost2010PropOp47
 70
     0
102
RTVSPost2010Prop48
 90
       50
102
RTVSPost2010PropOp48
 70
     0
102
RTVSPost2010Prop49
280
     0
102
RTVSPost2010PropOp49
 70
     1
102
RTVSPost2010Prop50
 90
       50
102
RTVSPost2010PropOp50
 70
     0
102
RTVSPost2010Prop51ColorIndex
 90
      256
102
RTVSPost2010Prop51ColorRGB
 90
-16777216
102
RTVSPost2010PropOp51
 70
     0
102
RTVSPost2010Prop52
140
1.0
102
RTVSPost2010PropOp52
 70
     0
102
RTVSPost2010Prop53
 90
        2
102
RTVSPost2010PropOp53
 70
     0
102
RTVSPost2010Prop54
  1
strokes_ogs.tif
102
RTVSPost2010PropOp54
 70
     0
102
RTVSPost2010Prop55
280
     0
102
RTVSPost2010PropOp55
 70
     1
102
RTVSPost2010Prop56
140
1.0
102
RTVSPost2010PropOp56
 70
     0
102
RTVSPost2010Prop57
140
1.0
102
RTVSPost2010PropOp57
 70
     0
  0
XRECORD
  5
615
102
{ACAD_REACTORS
330
614
102
}
330
614
100
AcDbXrecord
280
     1
102
RTVSPost2010Prop28
280
     0
102
RTVSPost2010PropOp28
 70
     1
102
RTVSPost2010Prop29
280
     1
102
RTVSPost2010PropOp29
 70
     1
102
RTVSPost2010Prop30
280
     1
102
RTVSPost2010PropOp30
 70
     1
102
RTVSPost2010Prop31
280
     0
102
RTVSPost2010PropOp31
 70
     1
102
RTVSPost2010Prop32
280
     0
102
RTVSPost2010PropOp32
 70
     1
102
RTVSPost2010Prop33
280
     0
102
RTVSPost2010PropOp33
 70
     1
102
RTVSPost2010Prop34
280
     0
102
RTVSPost2010PropOp34
 70
     1
102
RTVSPost2010Prop35
280
     0
102
RTVSPost2010PropOp35
 70
     1
102
RTVSPost2010Prop36
280
     0
102
RTVSPost2010PropOp36
 70
     1
102
RTVSPost2010Prop37
 90
       50
102
RTVSPost2010PropOp37
 70
     1
102
RTVSPost2010Prop38
140
0.0
102
RTVSPost2010PropOp38
 70
     1
102
RTVSPost2010Prop39
140
1.0
102
RTVSPost2010PropOp39
 70
     1
102
RTVSPost2010Prop40
 90
        0
102
RTVSPost2010PropOp40
 70
     1
102
RTVSPost2010Prop41ColorIndex
 90
       18
102
RTVSPost2010Prop41ColorRGB
 90
        0
102
RTVSPost2010PropOp41
 70
     1
102
RTVSPost2010Prop42
 90
       50
102
RTVSPost2010PropOp42
 70
     1
102
RTVSPost2010Prop43
 90
        3
102
RTVSPost2010PropOp43
 70
     1
102
RTVSPost2010Prop44ColorIndex
 90
        5
102
RTVSPost2010Prop44ColorRGB
 90
      255
102
RTVSPost2010PropOp44
 70
     1
102
RTVSPost2010Prop45
280
     0
102
RTVSPost2010PropOp45
 70
     1
102
RTVSPost2010Prop46
 90
       50
102
RTVSPost2010PropOp46
 70
     1
102
RTVSPost2010Prop47
 90
       50
102
RTVSPost2010PropOp47
 70
     1
102
RTVSPost2010Prop48
 90
       50
102
RTVSPost2010PropOp48
 70
     1
102
RTVSPost2010Prop49
280
     0
102
RTVSPost2010PropOp49
 70
     1
102
RTVSPost2010Prop50
 90
       50
102
RTVSPost2010PropOp50
 70
     1
102
RTVSPost2010Prop51ColorIndex
 90
      256
102
RTVSPost2010Prop51ColorRGB
 90
-16777216
102
RTVSPost2010PropOp51
 70
     0
102
RTVSPost2010Prop52
140
1.0
102
RTVSPost2010PropOp52
 70
     0
102
RTVSPost2010Prop53
 90
        2
102
RTVSPost2010PropOp53
 70
     1
102
RTVSPost2010Prop54
  1
strokes_ogs.tif
102
RTVSPost2010PropOp54
 70
     1
102
RTVSPost2010Prop55
280
     0
102
RTVSPost2010PropOp55
 70
     1
102
RTVSPost2010Prop56
140
1.0
102
RTVSPost2010PropOp56
 70
     1
102
RTVSPost2010Prop57
140
1.0
102
RTVSPost2010PropOp57
 70
     1
  0
XRECORD
  5
627
102
{ACAD_REACTORS
330
626
102
}
330
626
100
AcDbXrecord
280
     1
102
RTVSPost2010Prop28
280
     0
102
RTVSPost2010PropOp28
 70
     1
102
RTVSPost2010Prop29
280
     1
102
RTVSPost2010PropOp29
 70
     1
102
RTVSPost2010Prop30
280
     1
102
RTVSPost2010PropOp30
 70
     1
102
RTVSPost2010Prop31
280
     0
102
RTVSPost2010PropOp31
 70
     1
102
RTVSPost2010Prop32
280
     0
102
RTVSPost2010PropOp32
 70
     1
102
RTVSPost2010Prop33
280
     0
102
RTVSPost2010PropOp33
 70
     1
102
RTVSPost2010Prop34
280
     0
102
RTVSPost2010PropOp34
 70
     1
102
RTVSPost2010Prop35
280
     0
102
RTVSPost2010PropOp35
 70
     1
102
RTVSPost2010Prop36
280
     0
102
RTVSPost2010PropOp36
 70
     1
102
RTVSPost2010Prop37
 90
       50
102
RTVSPost2010PropOp37
 70
     0
102
RTVSPost2010Prop38
140
0.0
102
RTVSPost2010PropOp38
 70
     0
102
RTVSPost2010Prop39
140
1.0
102
RTVSPost2010PropOp39
 70
     0
102
RTVSPost2010Prop40
 90
        0
102
RTVSPost2010PropOp40
 70
     0
102
RTVSPost2010Prop41ColorIndex
 90
       18
102
RTVSPost2010Prop41ColorRGB
 90
        0
102
RTVSPost2010PropOp41
 70
     0
102
RTVSPost2010Prop42
 90
       50
102
RTVSPost2010PropOp42
 70
     0
102
RTVSPost2010Prop43
 90
        3
102
RTVSPost2010PropOp43
 70
     0
102
RTVSPost2010Prop44ColorIndex
 90
        5
102
RTVSPost2010Prop44ColorRGB
 90
      255
102
RTVSPost2010PropOp44
 70
     0
102
RTVSPost2010Prop45
280
     0
102
RTVSPost2010PropOp45
 70
     1
102
RTVSPost2010Prop46
 90
       50
102
RTVSPost2010PropOp46
 70
     0
102
RTVSPost2010Prop47
 90
       50
102
RTVSPost2010PropOp47
 70
     0
102
RTVSPost2010Prop48
 90
       50
102
RTVSPost2010PropOp48
 70
     0
102
RTVSPost2010Prop49
280
     0
102
RTVSPost2010PropOp49
 70
     1
102
RTVSPost2010Prop50
 90
       50
102
RTVSPost2010PropOp50
 70
     0
102
RTVSPost2010Prop51ColorIndex
 90
      256
102
RTVSPost2010Prop51ColorRGB
 90
-16777216
102
RTVSPost2010PropOp51
 70
     0
102
RTVSPost2010Prop52
140
1.0
102
RTVSPost2010PropOp52
 70
     0
102
RTVSPost2010Prop53
 90
        2
102
RTVSPost2010PropOp53
 70
     0
102
RTVSPost2010Prop54
  1
strokes_ogs.tif
102
RTVSPost2010PropOp54
 70
     0
102
RTVSPost2010Prop55
280
     0
102
RTVSPost2010PropOp55
 70
     1
102
RTVSPost2010Prop56
140
1.0
102
RTVSPost2010PropOp56
 70
     0
102
RTVSPost2010Prop57
140
1.0
102
RTVSPost2010PropOp57
 70
     0
  0
XRECORD
  5
60D
102
{ACAD_REACTORS
330
60C
102
}
330
60C
100
AcDbXrecord
280
     1
102
RTVSPost2010Prop28
280
     0
102
RTVSPost2010PropOp28
 70
     1
102
RTVSPost2010Prop29
280
     1
102
RTVSPost2010PropOp29
 70
     1
102
RTVSPost2010Prop30
280
     1
102
RTVSPost2010PropOp30
 70
     1
102
RTVSPost2010Prop31
280
     0
102
RTVSPost2010PropOp31
 70
     1
102
RTVSPost2010Prop32
280
     0
102
RTVSPost2010PropOp32
 70
     1
102
RTVSPost2010Prop33
280
     0
102
RTVSPost2010PropOp33
 70
     1
102
RTVSPost2010Prop34
280
     0
102
RTVSPost2010PropOp34
 70
     1
102
RTVSPost2010Prop35
280
     0
102
RTVSPost2010PropOp35
 70
     1
102
RTVSPost2010Prop36
280
     0
102
RTVSPost2010PropOp36
 70
     1
102
RTVSPost2010Prop37
 90
       50
102
RTVSPost2010PropOp37
 70
     1
102
RTVSPost2010Prop38
140
0.0
102
RTVSPost2010PropOp38
 70
     1
102
RTVSPost2010Prop39
140
1.0
102
RTVSPost2010PropOp39
 70
     1
102
RTVSPost2010Prop40
 90
        0
102
RTVSPost2010PropOp40
 70
     1
102
RTVSPost2010Prop41ColorIndex
 90
       18
102
RTVSPost2010Prop41ColorRGB
 90
        0
102
RTVSPost2010PropOp41
 70
     1
102
RTVSPost2010Prop42
 90
       50
102
RTVSPost2010PropOp42
 70
     1
102
RTVSPost2010Prop43
 90
        3
102
RTVSPost2010PropOp43
 70
     1
102
RTVSPost2010Prop44ColorIndex
 90
        5
102
RTVSPost2010Prop44ColorRGB
 90
      255
102
RTVSPost2010PropOp44
 70
     1
102
RTVSPost2010Prop45
280
     0
102
RTVSPost2010PropOp45
 70
     1
102
RTVSPost2010Prop46
 90
       50
102
RTVSPost2010PropOp46
 70
     1
102
RTVSPost2010Prop47
 90
       50
102
RTVSPost2010PropOp47
 70
     1
102
RTVSPost2010Prop48
 90
       50
102
RTVSPost2010PropOp48
 70
     1
102
RTVSPost2010Prop49
280
     0
102
RTVSPost2010PropOp49
 70
     1
102
RTVSPost2010Prop50
 90
       50
102
RTVSPost2010PropOp50
 70
     1
102
RTVSPost2010Prop51ColorIndex
 90
      256
102
RTVSPost2010Prop51ColorRGB
 90
-16777216
102
RTVSPost2010PropOp51
 70
     0
102
RTVSPost2010Prop52
140
1.0
102
RTVSPost2010PropOp52
 70
     0
102
RTVSPost2010Prop53
 90
        2
102
RTVSPost2010PropOp53
 70
     1
102
RTVSPost2010Prop54
  1
strokes_ogs.tif
102
RTVSPost2010PropOp54
 70
     1
102
RTVSPost2010Prop55
280
     0
102
RTVSPost2010PropOp55
 70
     1
102
RTVSPost2010Prop56
140
1.0
102
RTVSPost2010PropOp56
 70
     1
102
RTVSPost2010Prop57
140
1.0
102
RTVSPost2010PropOp57
 70
     1
  0
XRECORD
  5
623
102
{ACAD_REACTORS
330
622
102
}
330
622
100
AcDbXrecord
280
     1
102
RTVSPost2010Prop28
280
     0
102
RTVSPost2010PropOp28
 70
     1
102
RTVSPost2010Prop29
280
     1
102
RTVSPost2010PropOp29
 70
     1
102
RTVSPost2010Prop30
280
     1
102
RTVSPost2010PropOp30
 70
     1
102
RTVSPost2010Prop31
280
     0
102
RTVSPost2010PropOp31
 70
     1
102
RTVSPost2010Prop32
280
     0
102
RTVSPost2010PropOp32
 70
     1
102
RTVSPost2010Prop33
280
     0
102
RTVSPost2010PropOp33
 70
     1
102
RTVSPost2010Prop34
280
     0
102
RTVSPost2010PropOp34
 70
     1
102
RTVSPost2010Prop35
280
     0
102
RTVSPost2010PropOp35
 70
     1
102
RTVSPost2010Prop36
280
     0
102
RTVSPost2010PropOp36
 70
     1
102
RTVSPost2010Prop37
 90
       50
102
RTVSPost2010PropOp37
 70
     1
102
RTVSPost2010Prop38
140
0.0
102
RTVSPost2010PropOp38
 70
     1
102
RTVSPost2010Prop39
140
1.0
102
RTVSPost2010PropOp39
 70
     1
102
RTVSPost2010Prop40
 90
        0
102
RTVSPost2010PropOp40
 70
     1
102
RTVSPost2010Prop41ColorIndex
 90
       18
102
RTVSPost2010Prop41ColorRGB
 90
        0
102
RTVSPost2010PropOp41
 70
     1
102
RTVSPost2010Prop42
 90
       50
102
RTVSPost2010PropOp42
 70
     1
102
RTVSPost2010Prop43
 90
        3
102
RTVSPost2010PropOp43
 70
     1
102
RTVSPost2010Prop44ColorIndex
 90
        5
102
RTVSPost2010Prop44ColorRGB
 90
      255
102
RTVSPost2010PropOp44
 70
     1
102
RTVSPost2010Prop45
280
     0
102
RTVSPost2010PropOp45
 70
     1
102
RTVSPost2010Prop46
 90
       50
102
RTVSPost2010PropOp46
 70
     1
102
RTVSPost2010Prop47
 90
       50
102
RTVSPost2010PropOp47
 70
     1
102
RTVSPost2010Prop48
 90
       50
102
RTVSPost2010PropOp48
 70
     1
102
RTVSPost2010Prop49
280
     0
102
RTVSPost2010PropOp49
 70
     1
102
RTVSPost2010Prop50
 90
       50
102
RTVSPost2010PropOp50
 70
     1
102
RTVSPost2010Prop51ColorIndex
 90
      256
102
RTVSPost2010Prop51ColorRGB
 90
-16777216
102
RTVSPost2010PropOp51
 70
     0
102
RTVSPost2010Prop52
140
1.0
102
RTVSPost2010PropOp52
 70
     0
102
RTVSPost2010Prop53
 90
        2
102
RTVSPost2010PropOp53
 70
     1
102
RTVSPost2010Prop54
  1
strokes_ogs.tif
102
RTVSPost2010PropOp54
 70
     1
102
RTVSPost2010Prop55
280
     0
102
RTVSPost2010PropOp55
 70
     1
102
RTVSPost2010Prop56
140
1.0
102
RTVSPost2010PropOp56
 70
     1
102
RTVSPost2010Prop57
140
1.0
102
RTVSPost2010PropOp57
 70
     1
  0
XRECORD
  5
621
102
{ACAD_REACTORS
330
620
102
}
330
620
100
AcDbXrecord
280
     1
102
RTVSPost2010Prop28
280
     0
102
RTVSPost2010PropOp28
 70
     1
102
RTVSPost2010Prop29
280
     1
102
RTVSPost2010PropOp29
 70
     1
102
RTVSPost2010Prop30
280
     1
102
RTVSPost2010PropOp30
 70
     1
102
RTVSPost2010Prop31
280
     0
102
RTVSPost2010PropOp31
 70
     1
102
RTVSPost2010Prop32
280
     0
102
RTVSPost2010PropOp32
 70
     1
102
RTVSPost2010Prop33
280
     0
102
RTVSPost2010PropOp33
 70
     1
102
RTVSPost2010Prop34
280
     0
102
RTVSPost2010PropOp34
 70
     1
102
RTVSPost2010Prop35
280
     0
102
RTVSPost2010PropOp35
 70
     1
102
RTVSPost2010Prop36
280
     0
102
RTVSPost2010PropOp36
 70
     1
102
RTVSPost2010Prop37
 90
       50
102
RTVSPost2010PropOp37
 70
     1
102
RTVSPost2010Prop38
140
0.0
102
RTVSPost2010PropOp38
 70
     1
102
RTVSPost2010Prop39
140
1.0
102
RTVSPost2010PropOp39
 70
     1
102
RTVSPost2010Prop40
 90
        0
102
RTVSPost2010PropOp40
 70
     1
102
RTVSPost2010Prop41ColorIndex
 90
       18
102
RTVSPost2010Prop41ColorRGB
 90
        0
102
RTVSPost2010PropOp41
 70
     1
102
RTVSPost2010Prop42
 90
       50
102
RTVSPost2010PropOp42
 70
     1
102
RTVSPost2010Prop43
 90
        3
102
RTVSPost2010PropOp43
 70
     1
102
RTVSPost2010Prop44ColorIndex
 90
        5
102
RTVSPost2010Prop44ColorRGB
 90
      255
102
RTVSPost2010PropOp44
 70
     1
102
RTVSPost2010Prop45
280
     0
102
RTVSPost2010PropOp45
 70
     1
102
RTVSPost2010Prop46
 90
       50
102
RTVSPost2010PropOp46
 70
     1
102
RTVSPost2010Prop47
 90
       50
102
RTVSPost2010PropOp47
 70
     1
102
RTVSPost2010Prop48
 90
       50
102
RTVSPost2010PropOp48
 70
     1
102
RTVSPost2010Prop49
280
     0
102
RTVSPost2010PropOp49
 70
     1
102
RTVSPost2010Prop50
 90
       50
102
RTVSPost2010PropOp50
 70
     1
102
RTVSPost2010Prop51ColorIndex
 90
      256
102
RTVSPost2010Prop51ColorRGB
 90
-16777216
102
RTVSPost2010PropOp51
 70
     0
102
RTVSPost2010Prop52
140
1.0
102
RTVSPost2010PropOp52
 70
     0
102
RTVSPost2010Prop53
 90
        2
102
RTVSPost2010PropOp53
 70
     1
102
RTVSPost2010Prop54
  1
strokes_ogs.tif
102
RTVSPost2010PropOp54
 70
     1
102
RTVSPost2010Prop55
280
     0
102
RTVSPost2010PropOp55
 70
     1
102
RTVSPost2010Prop56
140
1.0
102
RTVSPost2010PropOp56
 70
     1
102
RTVSPost2010Prop57
140
1.0
102
RTVSPost2010PropOp57
 70
     1
  0
XRECORD
  5
61B
102
{ACAD_REACTORS
330
61A
102
}
330
61A
100
AcDbXrecord
280
     1
102
RTVSPost2010Prop28
280
     0
102
RTVSPost2010PropOp28
 70
     1
102
RTVSPost2010Prop29
280
     1
102
RTVSPost2010PropOp29
 70
     1
102
RTVSPost2010Prop30
280
     1
102
RTVSPost2010PropOp30
 70
     1
102
RTVSPost2010Prop31
280
     0
102
RTVSPost2010PropOp31
 70
     1
102
RTVSPost2010Prop32
280
     0
102
RTVSPost2010PropOp32
 70
     1
102
RTVSPost2010Prop33
280
     0
102
RTVSPost2010PropOp33
 70
     1
102
RTVSPost2010Prop34
280
     0
102
RTVSPost2010PropOp34
 70
     1
102
RTVSPost2010Prop35
280
     0
102
RTVSPost2010PropOp35
 70
     1
102
RTVSPost2010Prop36
280
     0
102
RTVSPost2010PropOp36
 70
     1
102
RTVSPost2010Prop37
 90
       50
102
RTVSPost2010PropOp37
 70
     1
102
RTVSPost2010Prop38
140
0.0
102
RTVSPost2010PropOp38
 70
     1
102
RTVSPost2010Prop39
140
1.0
102
RTVSPost2010PropOp39
 70
     1
102
RTVSPost2010Prop40
 90
        0
102
RTVSPost2010PropOp40
 70
     1
102
RTVSPost2010Prop41ColorIndex
 90
       18
102
RTVSPost2010Prop41ColorRGB
 90
        0
102
RTVSPost2010PropOp41
 70
     1
102
RTVSPost2010Prop42
 90
       50
102
RTVSPost2010PropOp42
 70
     1
102
RTVSPost2010Prop43
 90
        3
102
RTVSPost2010PropOp43
 70
     1
102
RTVSPost2010Prop44ColorIndex
 90
        5
102
RTVSPost2010Prop44ColorRGB
 90
      255
102
RTVSPost2010PropOp44
 70
     1
102
RTVSPost2010Prop45
280
     0
102
RTVSPost2010PropOp45
 70
     1
102
RTVSPost2010Prop46
 90
       50
102
RTVSPost2010PropOp46
 70
     1
102
RTVSPost2010Prop47
 90
       50
102
RTVSPost2010PropOp47
 70
     1
102
RTVSPost2010Prop48
 90
       50
102
RTVSPost2010PropOp48
 70
     1
102
RTVSPost2010Prop49
280
     0
102
RTVSPost2010PropOp49
 70
     1
102
RTVSPost2010Prop50
 90
       50
102
RTVSPost2010PropOp50
 70
     1
102
RTVSPost2010Prop51ColorIndex
 90
      256
102
RTVSPost2010Prop51ColorRGB
 90
-16777216
102
RTVSPost2010PropOp51
 70
     0
102
RTVSPost2010Prop52
140
1.0
102
RTVSPost2010PropOp52
 70
     0
102
RTVSPost2010Prop53
 90
        2
102
RTVSPost2010PropOp53
 70
     1
102
RTVSPost2010Prop54
  1
strokes_ogs.tif
102
RTVSPost2010PropOp54
 70
     1
102
RTVSPost2010Prop55
280
     0
102
RTVSPost2010PropOp55
 70
     1
102
RTVSPost2010Prop56
140
1.0
102
RTVSPost2010PropOp56
 70
     1
102
RTVSPost2010Prop57
140
1.0
102
RTVSPost2010PropOp57
 70
     1
  0
XRECORD
  5
61D
102
{ACAD_REACTORS
330
61C
102
}
330
61C
100
AcDbXrecord
280
     1
102
RTVSPost2010Prop28
280
     0
102
RTVSPost2010PropOp28
 70
     1
102
RTVSPost2010Prop29
280
     1
102
RTVSPost2010PropOp29
 70
     1
102
RTVSPost2010Prop30
280
     1
102
RTVSPost2010PropOp30
 70
     1
102
RTVSPost2010Prop31
280
     0
102
RTVSPost2010PropOp31
 70
     1
102
RTVSPost2010Prop32
280
     0
102
RTVSPost2010PropOp32
 70
     1
102
RTVSPost2010Prop33
280
     0
102
RTVSPost2010PropOp33
 70
     1
102
RTVSPost2010Prop34
280
     0
102
RTVSPost2010PropOp34
 70
     1
102
RTVSPost2010Prop35
280
     0
102
RTVSPost2010PropOp35
 70
     1
102
RTVSPost2010Prop36
280
     0
102
RTVSPost2010PropOp36
 70
     1
102
RTVSPost2010Prop37
 90
       50
102
RTVSPost2010PropOp37
 70
     1
102
RTVSPost2010Prop38
140
0.0
102
RTVSPost2010PropOp38
 70
     1
102
RTVSPost2010Prop39
140
1.0
102
RTVSPost2010PropOp39
 70
     1
102
RTVSPost2010Prop40
 90
        0
102
RTVSPost2010PropOp40
 70
     1
102
RTVSPost2010Prop41ColorIndex
 90
       18
102
RTVSPost2010Prop41ColorRGB
 90
        0
102
RTVSPost2010PropOp41
 70
     1
102
RTVSPost2010Prop42
 90
       50
102
RTVSPost2010PropOp42
 70
     1
102
RTVSPost2010Prop43
 90
        3
102
RTVSPost2010PropOp43
 70
     1
102
RTVSPost2010Prop44ColorIndex
 90
        5
102
RTVSPost2010Prop44ColorRGB
 90
      255
102
RTVSPost2010PropOp44
 70
     1
102
RTVSPost2010Prop45
280
     0
102
RTVSPost2010PropOp45
 70
     1
102
RTVSPost2010Prop46
 90
       50
102
RTVSPost2010PropOp46
 70
     1
102
RTVSPost2010Prop47
 90
       50
102
RTVSPost2010PropOp47
 70
     1
102
RTVSPost2010Prop48
 90
       50
102
RTVSPost2010PropOp48
 70
     1
102
RTVSPost2010Prop49
280
     0
102
RTVSPost2010PropOp49
 70
     1
102
RTVSPost2010Prop50
 90
       50
102
RTVSPost2010PropOp50
 70
     1
102
RTVSPost2010Prop51ColorIndex
 90
      256
102
RTVSPost2010Prop51ColorRGB
 90
-16777216
102
RTVSPost2010PropOp51
 70
     0
102
RTVSPost2010Prop52
140
1.0
102
RTVSPost2010PropOp52
 70
     0
102
RTVSPost2010Prop53
 90
        2
102
RTVSPost2010PropOp53
 70
     1
102
RTVSPost2010Prop54
  1
strokes_ogs.tif
102
RTVSPost2010PropOp54
 70
     1
102
RTVSPost2010Prop55
280
     0
102
RTVSPost2010PropOp55
 70
     1
102
RTVSPost2010Prop56
140
1.0
102
RTVSPost2010PropOp56
 70
     1
102
RTVSPost2010Prop57
140
1.0
102
RTVSPost2010PropOp57
 70
     1
  0
XRECORD
  5
613
102
{ACAD_REACTORS
330
612
102
}
330
612
100
AcDbXrecord
280
     1
102
RTVSPost2010Prop28
280
     0
102
RTVSPost2010PropOp28
 70
     1
102
RTVSPost2010Prop29
280
     1
102
RTVSPost2010PropOp29
 70
     1
102
RTVSPost2010Prop30
280
     1
102
RTVSPost2010PropOp30
 70
     1
102
RTVSPost2010Prop31
280
     0
102
RTVSPost2010PropOp31
 70
     1
102
RTVSPost2010Prop32
280
     0
102
RTVSPost2010PropOp32
 70
     1
102
RTVSPost2010Prop33
280
     0
102
RTVSPost2010PropOp33
 70
     1
102
RTVSPost2010Prop34
280
     0
102
RTVSPost2010PropOp34
 70
     1
102
RTVSPost2010Prop35
280
     0
102
RTVSPost2010PropOp35
 70
     1
102
RTVSPost2010Prop36
280
     0
102
RTVSPost2010PropOp36
 70
     1
102
RTVSPost2010Prop37
 90
       50
102
RTVSPost2010PropOp37
 70
     1
102
RTVSPost2010Prop38
140
0.0
102
RTVSPost2010PropOp38
 70
     1
102
RTVSPost2010Prop39
140
1.0
102
RTVSPost2010PropOp39
 70
     1
102
RTVSPost2010Prop40
 90
        0
102
RTVSPost2010PropOp40
 70
     1
102
RTVSPost2010Prop41ColorIndex
 90
       18
102
RTVSPost2010Prop41ColorRGB
 90
        0
102
RTVSPost2010PropOp41
 70
     1
102
RTVSPost2010Prop42
 90
       50
102
RTVSPost2010PropOp42
 70
     1
102
RTVSPost2010Prop43
 90
        3
102
RTVSPost2010PropOp43
 70
     1
102
RTVSPost2010Prop44ColorIndex
 90
        5
102
RTVSPost2010Prop44ColorRGB
 90
      255
102
RTVSPost2010PropOp44
 70
     1
102
RTVSPost2010Prop45
280
     0
102
RTVSPost2010PropOp45
 70
     1
102
RTVSPost2010Prop46
 90
       50
102
RTVSPost2010PropOp46
 70
     1
102
RTVSPost2010Prop47
 90
       50
102
RTVSPost2010PropOp47
 70
     1
102
RTVSPost2010Prop48
 90
       50
102
RTVSPost2010PropOp48
 70
     1
102
RTVSPost2010Prop49
280
     0
102
RTVSPost2010PropOp49
 70
     1
102
RTVSPost2010Prop50
 90
       50
102
RTVSPost2010PropOp50
 70
     1
102
RTVSPost2010Prop51ColorIndex
 90
      256
102
RTVSPost2010Prop51ColorRGB
 90
-16777216
102
RTVSPost2010PropOp51
 70
     0
102
RTVSPost2010Prop52
140
1.0
102
RTVSPost2010PropOp52
 70
     0
102
RTVSPost2010Prop53
 90
        2
102
RTVSPost2010PropOp53
 70
     1
102
RTVSPost2010Prop54
  1
strokes_ogs.tif
102
RTVSPost2010PropOp54
 70
     1
102
RTVSPost2010Prop55
280
     0
102
RTVSPost2010PropOp55
 70
     1
102
RTVSPost2010Prop56
140
1.0
102
RTVSPost2010PropOp56
 70
     1
102
RTVSPost2010Prop57
140
1.0
102
RTVSPost2010PropOp57
 70
     1
  0
XRECORD
  5
607
102
{ACAD_REACTORS
330
606
102
}
330
606
100
AcDbXrecord
280
     1
102
RTVSPost2010Prop28
280
     0
102
RTVSPost2010PropOp28
 70
     1
102
RTVSPost2010Prop29
280
     1
102
RTVSPost2010PropOp29
 70
     1
102
RTVSPost2010Prop30
280
     1
102
RTVSPost2010PropOp30
 70
     1
102
RTVSPost2010Prop31
280
     0
102
RTVSPost2010PropOp31
 70
     1
102
RTVSPost2010Prop32
280
     0
102
RTVSPost2010PropOp32
 70
     1
102
RTVSPost2010Prop33
280
     0
102
RTVSPost2010PropOp33
 70
     1
102
RTVSPost2010Prop34
280
     0
102
RTVSPost2010PropOp34
 70
     1
102
RTVSPost2010Prop35
280
     0
102
RTVSPost2010PropOp35
 70
     1
102
RTVSPost2010Prop36
280
     0
102
RTVSPost2010PropOp36
 70
     1
102
RTVSPost2010Prop37
 90
       50
102
RTVSPost2010PropOp37
 70
     1
102
RTVSPost2010Prop38
140
0.0
102
RTVSPost2010PropOp38
 70
     1
102
RTVSPost2010Prop39
140
1.0
102
RTVSPost2010PropOp39
 70
     1
102
RTVSPost2010Prop40
 90
        0
102
RTVSPost2010PropOp40
 70
     1
102
RTVSPost2010Prop41ColorIndex
 90
       18
102
RTVSPost2010Prop41ColorRGB
 90
        0
102
RTVSPost2010PropOp41
 70
     1
102
RTVSPost2010Prop42
 90
       50
102
RTVSPost2010PropOp42
 70
     1
102
RTVSPost2010Prop43
 90
        3
102
RTVSPost2010PropOp43
 70
     1
102
RTVSPost2010Prop44ColorIndex
 90
        5
102
RTVSPost2010Prop44ColorRGB
 90
      255
102
RTVSPost2010PropOp44
 70
     1
102
RTVSPost2010Prop45
280
     0
102
RTVSPost2010PropOp45
 70
     1
102
RTVSPost2010Prop46
 90
       50
102
RTVSPost2010PropOp46
 70
     1
102
RTVSPost2010Prop47
 90
       50
102
RTVSPost2010PropOp47
 70
     1
102
RTVSPost2010Prop48
 90
       50
102
RTVSPost2010PropOp48
 70
     1
102
RTVSPost2010Prop49
280
     0
102
RTVSPost2010PropOp49
 70
     1
102
RTVSPost2010Prop50
 90
       50
102
RTVSPost2010PropOp50
 70
     1
102
RTVSPost2010Prop51ColorIndex
 90
      256
102
RTVSPost2010Prop51ColorRGB
 90
-16777216
102
RTVSPost2010PropOp51
 70
     0
102
RTVSPost2010Prop52
140
1.0
102
RTVSPost2010PropOp52
 70
     0
102
RTVSPost2010Prop53
 90
        2
102
RTVSPost2010PropOp53
 70
     1
102
RTVSPost2010Prop54
  1
strokes_ogs.tif
102
RTVSPost2010PropOp54
 70
     1
102
RTVSPost2010Prop55
280
     0
102
RTVSPost2010PropOp55
 70
     1
102
RTVSPost2010Prop56
140
1.0
102
RTVSPost2010PropOp56
 70
     1
102
RTVSPost2010Prop57
140
1.0
102
RTVSPost2010PropOp57
 70
     1
  0
XRECORD
  5
61F
102
{ACAD_REACTORS
330
61E
102
}
330
61E
100
AcDbXrecord
280
     1
102
RTVSPost2010Prop28
280
     0
102
RTVSPost2010PropOp28
 70
     1
102
RTVSPost2010Prop29
280
     1
102
RTVSPost2010PropOp29
 70
     1
102
RTVSPost2010Prop30
280
     1
102
RTVSPost2010PropOp30
 70
     1
102
RTVSPost2010Prop31
280
     0
102
RTVSPost2010PropOp31
 70
     1
102
RTVSPost2010Prop32
280
     0
102
RTVSPost2010PropOp32
 70
     1
102
RTVSPost2010Prop33
280
     0
102
RTVSPost2010PropOp33
 70
     1
102
RTVSPost2010Prop34
280
     0
102
RTVSPost2010PropOp34
 70
     1
102
RTVSPost2010Prop35
280
     0
102
RTVSPost2010PropOp35
 70
     1
102
RTVSPost2010Prop36
280
     0
102
RTVSPost2010PropOp36
 70
     1
102
RTVSPost2010Prop37
 90
       50
102
RTVSPost2010PropOp37
 70
     1
102
RTVSPost2010Prop38
140
0.0
102
RTVSPost2010PropOp38
 70
     1
102
RTVSPost2010Prop39
140
1.0
102
RTVSPost2010PropOp39
 70
     1
102
RTVSPost2010Prop40
 90
        0
102
RTVSPost2010PropOp40
 70
     1
102
RTVSPost2010Prop41ColorIndex
 90
       18
102
RTVSPost2010Prop41ColorRGB
 90
        0
102
RTVSPost2010PropOp41
 70
     1
102
RTVSPost2010Prop42
 90
       50
102
RTVSPost2010PropOp42
 70
     1
102
RTVSPost2010Prop43
 90
        3
102
RTVSPost2010PropOp43
 70
     1
102
RTVSPost2010Prop44ColorIndex
 90
        5
102
RTVSPost2010Prop44ColorRGB
 90
      255
102
RTVSPost2010PropOp44
 70
     1
102
RTVSPost2010Prop45
280
     0
102
RTVSPost2010PropOp45
 70
     1
102
RTVSPost2010Prop46
 90
       50
102
RTVSPost2010PropOp46
 70
     1
102
RTVSPost2010Prop47
 90
       50
102
RTVSPost2010PropOp47
 70
     1
102
RTVSPost2010Prop48
 90
       50
102
RTVSPost2010PropOp48
 70
     1
102
RTVSPost2010Prop49
280
     0
102
RTVSPost2010PropOp49
 70
     1
102
RTVSPost2010Prop50
 90
       50
102
RTVSPost2010PropOp50
 70
     1
102
RTVSPost2010Prop51ColorIndex
 90
      256
102
RTVSPost2010Prop51ColorRGB
 90
-16777216
102
RTVSPost2010PropOp51
 70
     0
102
RTVSPost2010Prop52
140
1.0
102
RTVSPost2010PropOp52
 70
     0
102
RTVSPost2010Prop53
 90
        2
102
RTVSPost2010PropOp53
 70
     1
102
RTVSPost2010Prop54
  1
strokes_ogs.tif
102
RTVSPost2010PropOp54
 70
     1
102
RTVSPost2010Prop55
280
     0
102
RTVSPost2010PropOp55
 70
     1
102
RTVSPost2010Prop56
140
1.0
102
RTVSPost2010PropOp56
 70
     1
102
RTVSPost2010Prop57
140
1.0
102
RTVSPost2010PropOp57
 70
     1
  0
ENDSEC
  0
EOF
